  0
SECTION
  2
HEADER
  9
$ACADVER
  1
AC1015
  9
$ACADMAINTVER
 70
    20
  9
$DWGCODEPAGE
  3
ANSI_932
  9
$INSBASE
 10
0.0
 20
0.0
 30
0.0
  9
$EXTMIN
 10
139.9999999999995
 20
-0.0000000000000909
 30
0.0
  9
$EXTMAX
 10
16307.2
 20
11409.6
 30
0.0
  9
$LIMMIN
 10
0.0
 20
0.0
  9
$LIMMAX
 10
16800.0
 20
11880.0
  9
$ORTHOMODE
 70
     0
  9
$REGENMODE
 70
     1
  9
$FILLMODE
 70
     1
  9
$QTEXTMODE
 70
     0
  9
$MIRRTEXT
 70
     1
  9
$LTSCALE
 40
20.0
  9
$ATTMODE
 70
     1
  9
$TEXTSIZE
 40
100.0
  9
$TRACEWID
 40
1.0
  9
$TEXTSTYLE
  7
STYLE2
  9
$CLAYER
  8
寸法
  9
$CELTYPE
  6
BYLAYER
  9
$CECOLOR
 62
   256
  9
$CELTSCALE
 40
50.0
  9
$DISPSILH
 70
     0
  9
$DIMSCALE
 40
40.0
  9
$DIMASZ
 40
2.5
  9
$DIMEXO
 40
0.5
  9
$DIMDLI
 40
7.0
  9
$DIMRND
 40
0.0
  9
$DIMDLE
 40
0.0
  9
$DIMEXE
 40
1.5
  9
$DIMTP
 40
0.0
  9
$DIMTM
 40
0.0
  9
$DIMTXT
 40
3.0
  9
$DIMCEN
 40
0.0
  9
$DIMTSZ
 40
0.0
  9
$DIMTOL
 70
     0
  9
$DIMLIM
 70
     0
  9
$DIMTIH
 70
     0
  9
$DIMTOH
 70
     0
  9
$DIMSE1
 70
     0
  9
$DIMSE2
 70
     0
  9
$DIMTAD
 70
     3
  9
$DIMZIN
 70
     8
  9
$DIMBLK
  1

  9
$DIMASO
 70
     1
  9
$DIMSHO
 70
     1
  9
$DIMPOST
  1

  9
$DIMAPOST
  1

  9
$DIMALT
 70
     0
  9
$DIMALTD
 70
     2
  9
$DIMALTF
 40
0.0394
  9
$DIMLFAC
 40
1.0
  9
$DIMTOFL
 70
     1
  9
$DIMTVP
 40
0.0
  9
$DIMTIX
 70
     0
  9
$DIMSOXD
 70
     0
  9
$DIMSAH
 70
     1
  9
$DIMBLK1
  1
DOTSMALL
  9
$DIMBLK2
  1
DOTSMALL
  9
$DIMSTYLE
  2
INABA_S40G
  9
$DIMCLRD
 70
     0
  9
$DIMCLRE
 70
     0
  9
$DIMCLRT
 70
     7
  9
$DIMTFAC
 40
1.0
  9
$DIMGAP
 40
1.0
  9
$DIMJUST
 70
     0
  9
$DIMSD1
 70
     0
  9
$DIMSD2
 70
     0
  9
$DIMTOLJ
 70
     1
  9
$DIMTZIN
 70
     0
  9
$DIMALTZ
 70
     0
  9
$DIMALTTZ
 70
     0
  9
$DIMUPT
 70
     0
  9
$DIMDEC
 70
     1
  9
$DIMTDEC
 70
     1
  9
$DIMALTU
 70
     2
  9
$DIMALTTD
 70
     2
  9
$DIMTXSTY
  7
STYLE1
  9
$DIMAUNIT
 70
     0
  9
$DIMADEC
 70
     0
  9
$DIMALTRND
 40
0.0
  9
$DIMAZIN
 70
     0
  9
$DIMDSEP
 70
    46
  9
$DIMATFIT
 70
     3
  9
$DIMFRAC
 70
     0
  9
$DIMLDRBLK
  1

  9
$DIMLUNIT
 70
     2
  9
$DIMLWD
 70
    -2
  9
$DIMLWE
 70
    -2
  9
$DIMTMOVE
 70
     0
  9
$LUNITS
 70
     2
  9
$LUPREC
 70
     1
  9
$SKETCHINC
 40
1.0
  9
$FILLETRAD
 40
0.0
  9
$AUNITS
 70
     0
  9
$AUPREC
 70
     0
  9
$MENU
  1
acad
  9
$ELEVATION
 40
0.0
  9
$PELEVATION
 40
0.0
  9
$THICKNESS
 40
0.0
  9
$LIMCHECK
 70
     0
  9
$CHAMFERA
 40
3.0
  9
$CHAMFERB
 40
3.0
  9
$CHAMFERC
 40
0.0
  9
$CHAMFERD
 40
0.0
  9
$SKPOLY
 70
     0
  9
$TDCREATE
 40
2451368.612993866
  9
$TDUCREATE
 40
2451368.237993866
  9
$TDUPDATE
 40
2455575.709294514
  9
$TDUUPDATE
 40
2455575.334294514
  9
$TDINDWG
 40
1.4210055787
  9
$TDUSRTIMER
 40
1.4210055787
  9
$USRTIMER
 70
     1
  9
$ANGBASE
 50
0.0
  9
$ANGDIR
 70
     0
  9
$PDMODE
 70
     3
  9
$PDSIZE
 40
2.0
  9
$PLINEWID
 40
0.0
  9
$SPLFRAME
 70
     0
  9
$SPLINETYPE
 70
     6
  9
$SPLINESEGS
 70
     8
  9
$HANDSEED
  5
1FAF9
  9
$SURFTAB1
 70
     6
  9
$SURFTAB2
 70
     6
  9
$SURFTYPE
 70
     6
  9
$SURFU
 70
     6
  9
$SURFV
 70
     6
  9
$UCSBASE
  2

  9
$UCSNAME
  2

  9
$UCSORG
 10
0.0
 20
0.0
 30
0.0
  9
$UCSXDIR
 10
1.0
 20
0.0
 30
0.0
  9
$UCSYDIR
 10
0.0
 20
1.0
 30
0.0
  9
$UCSORTHOREF
  2

  9
$UCSORTHOVIEW
 70
     0
  9
$UCSORGTOP
 10
0.0
 20
0.0
 30
0.0
  9
$UCSORGBOTTOM
 10
0.0
 20
0.0
 30
0.0
  9
$UCSORGLEFT
 10
0.0
 20
0.0
 30
0.0
  9
$UCSORGRIGHT
 10
0.0
 20
0.0
 30
0.0
  9
$UCSORGFRONT
 10
0.0
 20
0.0
 30
0.0
  9
$UCSORGBACK
 10
0.0
 20
0.0
 30
0.0
  9
$PUCSBASE
  2

  9
$PUCSNAME
  2

  9
$PUCSORG
 10
0.0
 20
0.0
 30
0.0
  9
$PUCSXDIR
 10
1.0
 20
0.0
 30
0.0
  9
$PUCSYDIR
 10
0.0
 20
1.0
 30
0.0
  9
$PUCSORTHOREF
  2

  9
$PUCSORTHOVIEW
 70
     0
  9
$PUCSORGTOP
 10
0.0
 20
0.0
 30
0.0
  9
$PUCSORGBOTTOM
 10
0.0
 20
0.0
 30
0.0
  9
$PUCSORGLEFT
 10
0.0
 20
0.0
 30
0.0
  9
$PUCSORGRIGHT
 10
0.0
 20
0.0
 30
0.0
  9
$PUCSORGFRONT
 10
0.0
 20
0.0
 30
0.0
  9
$PUCSORGBACK
 10
0.0
 20
0.0
 30
0.0
  9
$USERI1
 70
     0
  9
$USERI2
 70
     0
  9
$USERI3
 70
     0
  9
$USERI4
 70
     0
  9
$USERI5
 70
     0
  9
$USERR1
 40
0.0
  9
$USERR2
 40
0.0
  9
$USERR3
 40
0.0
  9
$USERR4
 40
0.0
  9
$USERR5
 40
0.0
  9
$WORLDVIEW
 70
     1
  9
$SHADEDGE
 70
     3
  9
$SHADEDIF
 70
    70
  9
$TILEMODE
 70
     1
  9
$MAXACTVP
 70
    16
  9
$PINSBASE
 10
0.0
 20
0.0
 30
0.0
  9
$PLIMCHECK
 70
     0
  9
$PEXTMIN
 10
1.000000000000000E+20
 20
1.000000000000000E+20
 30
1.000000000000000E+20
  9
$PEXTMAX
 10
-1.000000000000000E+20
 20
-1.000000000000000E+20
 30
-1.000000000000000E+20
  9
$PLIMMIN
 10
0.0
 20
0.0
  9
$PLIMMAX
 10
420.0
 20
297.0
  9
$UNITMODE
 70
     0
  9
$VISRETAIN
 70
     0
  9
$PLINEGEN
 70
     0
  9
$PSLTSCALE
 70
     0
  9
$TREEDEPTH
 70
  3020
  9
$CMLSTYLE
  2
STANDARD
  9
$CMLJUST
 70
     0
  9
$CMLSCALE
 40
1.0
  9
$PROXYGRAPHICS
 70
     1
  9
$MEASUREMENT
 70
     1
  9
$CELWEIGHT
370
    -1
  9
$ENDCAPS
280
     0
  9
$JOINSTYLE
280
     0
  9
$LWDISPLAY
290
     0
  9
$INSUNITS
 70
     0
  9
$HYPERLINKBASE
  1

  9
$STYLESHEET
  1
inaba.ctb
  9
$XEDIT
290
     1
  9
$CEPSNTYPE
380
     0
  9
$PSTYLEMODE
290
     1
  9
$FINGERPRINTGUID
  2
{3B57B35E-7D77-4BBF-81B7-6C583B9EB24C}
  9
$VERSIONGUID
  2
{550E2FAA-893E-43FC-98C9-D6A2DA6E49F7}
  9
$EXTNAMES
290
     1
  9
$PSVPSCALE
 40
0.0
  9
$OLESTARTUP
290
     0
  0
ENDSEC
  0
SECTION
  2
CLASSES
  0
CLASS
  1
ACDBDICTIONARYWDFLT
  2
AcDbDictionaryWithDefault
  3
ObjectDBX Classes
 90
        0
280
     0
281
     0
  0
CLASS
  1
DICTIONARYVAR
  2
AcDbDictionaryVar
  3
ObjectDBX Classes
 90
        0
280
     0
281
     0
  0
CLASS
  1
ACDBPLACEHOLDER
  2
AcDbPlaceHolder
  3
ObjectDBX Classes
 90
        0
280
     0
281
     0
  0
CLASS
  1
LAYOUT
  2
AcDbLayout
  3
ObjectDBX Classes
 90
        0
280
     0
281
     0
  0
ENDSEC
  0
SECTION
  2
TABLES
  0
TABLE
  2
VPORT
  5
746D
330
0
100
AcDbSymbolTable
 70
     2
  0
VPORT
  5
1FAF1
330
746D
100
AcDbSymbolTableRecord
100
AcDbViewportTableRecord
  2
*Active
 70
     0
 10
0.0
 20
0.0
 11
1.0
 21
1.0
 12
11521.65273265252
 22
3852.413224446046
 13
0.0
 23
0.0
 14
10.0
 24
10.0
 15
10.0
 25
10.0
 16
0.0
 26
0.0
 36
1.0
 17
0.0
 27
0.0
 37
0.0
 40
12087.41544831357
 41
1.525925925925926
 42
50.0
 43
0.0
 44
0.0
 50
0.0
 51
0.0
 71
     0
 72
     0
 73
     1
 74
     0
 75
     0
 76
     0
 77
     0
 78
     0
281
     0
 65
     1
110
0.0
120
0.0
130
0.0
111
1.0
121
0.0
131
0.0
112
0.0
122
1.0
132
0.0
 79
     0
146
0.0
  0
ENDTAB
  0
TABLE
  2
LTYPE
  5
746A
330
0
100
AcDbSymbolTable
 70
     4
  0
LTYPE
  5
7477
330
746A
100
AcDbSymbolTableRecord
100
AcDbLinetypeTableRecord
  2
BYBLOCK
 70
     0
  3

 72
    65
 73
     0
 40
0.0
  0
LTYPE
  5
7478
330
746A
100
AcDbSymbolTableRecord
100
AcDbLinetypeTableRecord
  2
BYLAYER
 70
     0
  3

 72
    65
 73
     0
 40
0.0
  0
LTYPE
  5
7479
330
746A
100
AcDbSymbolTableRecord
100
AcDbLinetypeTableRecord
  2
CONTINUOUS
 70
     0
  3
Solid line
 72
    65
 73
     0
 40
0.0
  0
LTYPE
  5
7816
330
746A
100
AcDbSymbolTableRecord
100
AcDbLinetypeTableRecord
  2
CENTER
 70
     0
  3
____ _ ____ _ ____ _ ____ _ ____ _ ____ _ ____ 
 72
    65
 73
     4
 40
2.0
 49
1.25
 74
     0
 49
-0.25
 74
     0
 49
0.25
 74
     0
 49
-0.25
 74
     0
  0
LTYPE
  5
781A
330
746A
100
AcDbSymbolTableRecord
100
AcDbLinetypeTableRecord
  2
HIDDEN
 70
     0
  3
__ __ __ __ __ __ __ __ __ __ __ __ __ __ __ __
 72
    65
 73
     2
 40
0.375
 49
0.25
 74
     0
 49
-0.125
 74
     0
  0
LTYPE
  5
781B
330
746A
100
AcDbSymbolTableRecord
100
AcDbLinetypeTableRecord
  2
PHANTOM
 70
     0
  3
______  __  __  ______  __  __  ______  __  __ 
 72
    65
 73
     6
 40
2.5
 49
1.25
 74
     0
 49
-0.25
 74
     0
 49
0.25
 74
     0
 49
-0.25
 74
     0
 49
0.25
 74
     0
 49
-0.25
 74
     0
  0
ENDTAB
  0
TABLE
  2
LAYER
  5
7467
102
{ACAD_XDICTIONARY
360
1E67E
102
}
330
0
100
AcDbSymbolTable
 70
    13
  0
LAYER
  5
7474
330
7467
100
AcDbSymbolTableRecord
100
AcDbLayerTableRecord
  2
0
 70
     0
 62
     7
  6
CONTINUOUS
370
    -3
390
159AE
  0
LAYER
  5
DEB2
330
7467
100
AcDbSymbolTableRecord
100
AcDbLayerTableRecord
  2
センター
 70
     0
 62
     3
  6
CENTER
370
    -3
390
159AE
  0
LAYER
  5
DEB3
330
7467
100
AcDbSymbolTableRecord
100
AcDbLayerTableRecord
  2
寸法
 70
     0
 62
     4
  6
CONTINUOUS
370
    -3
390
159AE
  0
LAYER
  5
DEB4
330
7467
100
AcDbSymbolTableRecord
100
AcDbLayerTableRecord
  2
部品1
 70
     0
 62
     7
  6
CONTINUOUS
370
    -3
390
159AE
  0
LAYER
  5
DEB5
330
7467
100
AcDbSymbolTableRecord
100
AcDbLayerTableRecord
  2
補助
 70
     0
 62
    -1
  6
CONTINUOUS
370
    -3
390
159AE
  0
LAYER
  5
DEB6
330
7467
100
AcDbSymbolTableRecord
100
AcDbLayerTableRecord
  2
文字
 70
     0
 62
     7
  6
CONTINUOUS
370
    -3
390
159AE
  0
LAYER
  5
F255
330
7467
100
AcDbSymbolTableRecord
100
AcDbLayerTableRecord
  2
DEFPOINTS
 70
     0
 62
     7
  6
CONTINUOUS
290
     0
370
    -3
390
159AE
  0
LAYER
  5
10B54
330
7467
100
AcDbSymbolTableRecord
100
AcDbLayerTableRecord
  2
仕様書枠
 70
     0
 62
   230
  6
CONTINUOUS
370
    -3
390
159AE
  0
LAYER
  5
11729
330
7467
100
AcDbSymbolTableRecord
100
AcDbLayerTableRecord
  2
Ｇ．Ｌ
 70
     0
 62
    30
  6
CONTINUOUS
370
    -3
390
159AE
  0
LAYER
  5
1173F
330
7467
100
AcDbSymbolTableRecord
100
AcDbLayerTableRecord
  2
細線
 70
     0
 62
     5
  6
CONTINUOUS
370
    -3
390
159AE
  0
LAYER
  5
12CC4
330
7467
100
AcDbSymbolTableRecord
100
AcDbLayerTableRecord
  2
想像線
 70
     0
 62
     6
  6
PHANTOM
370
    -3
390
159AE
  0
LAYER
  5
142E2
330
7467
100
AcDbSymbolTableRecord
100
AcDbLayerTableRecord
  2
破線
 70
     0
 62
     2
  6
HIDDEN
370
    -3
390
159AE
  0
LAYER
  5
1C644
330
7467
100
AcDbSymbolTableRecord
100
AcDbLayerTableRecord
  2
点線
 70
     0
 62
     2
  6
HIDDEN
370
    -3
390
159AE
  0
ENDTAB
  0
TABLE
  2
STYLE
  5
7468
330
0
100
AcDbSymbolTable
 70
     3
  0
STYLE
  5
7475
330
7468
100
AcDbSymbolTableRecord
100
AcDbTextStyleTableRecord
  2
STANDARD
 70
     0
 40
0.0
 41
1.0
 50
0.0
 71
     0
 42
4.0
  3
txt
  4
C:\AutoCAD LT\bigfont.shx
  0
STYLE
  5
F706
330
7468
100
AcDbSymbolTableRecord
100
AcDbTextStyleTableRecord
  2
STYLE1
 70
     0
 40
0.0
 41
1.0
 50
0.0
 71
     0
 42
100.0
  3
isocp.shx
  4
bigfont.shx
  0
STYLE
  5
103BF
330
7468
100
AcDbSymbolTableRecord
100
AcDbTextStyleTableRecord
  2
STYLE2
 70
     0
 40
0.0
 41
1.0
 50
0.0
 71
     0
 42
100.0
  3
MS PGothic.ttf
  4

1001
ACAD
1000
MS PGothic
1071
    32818
  0
ENDTAB
  0
TABLE
  2
VIEW
  5
746B
330
0
100
AcDbSymbolTable
 70
     0
  0
ENDTAB
  0
TABLE
  2
UCS
  5
746C
330
0
100
AcDbSymbolTable
 70
     0
  0
ENDTAB
  0
TABLE
  2
APPID
  5
746E
330
0
100
AcDbSymbolTable
 70
     6
  0
APPID
  5
7476
330
746E
100
AcDbSymbolTableRecord
100
AcDbRegAppTableRecord
  2
ACAD
 70
     0
  0
APPID
  5
DEA9
330
746E
100
AcDbSymbolTableRecord
100
AcDbRegAppTableRecord
  2
CONTENTBLOCKICON
 70
     0
  0
APPID
  5
DEAA
330
746E
100
AcDbSymbolTableRecord
100
AcDbRegAppTableRecord
  2
CONTENTBLOCKDESCRIPTION
 70
     0
  0
APPID
  5
E71D
330
746E
100
AcDbSymbolTableRecord
100
AcDbRegAppTableRecord
  2
CONTENTTABDATA
 70
     0
  0
APPID
  5
E71E
330
746E
100
AcDbSymbolTableRecord
100
AcDbRegAppTableRecord
  2
CONTENTCURRENTTAB
 70
     0
  0
APPID
  5
F3BA
330
746E
100
AcDbSymbolTableRecord
100
AcDbRegAppTableRecord
  2
DRAWINGVARIABLESXDATA
 70
     0
  0
ENDTAB
  0
TABLE
  2
DIMSTYLE
  5
746F
330
0
100
AcDbSymbolTable
 70
     2
100
AcDbDimStyleTable
 71
     1
340
F71F
  0
DIMSTYLE
105
F71F
102
{ACAD_REACTORS
330
1F26C
330
1F2D1
330
1F339
330
1F396
330
1F71E
330
1F71F
330
1F720
330
1F730
330
1F739
330
1F743
330
1F744
330
1F745
330
1F748
330
1F702
330
1F98A
330
1F98B
102
}
330
746F
100
AcDbSymbolTableRecord
100
AcDbDimStyleTableRecord
  2
INABA_S40G
 70
     0
 40
40.0
 41
2.5
 42
0.5
 43
7.0
 44
1.5
 73
     0
 74
     0
 77
     3
 78
     8
140
3.0
141
0.0
143
0.0394
147
1.0
172
     1
173
     1
174
     1
178
     7
271
     1
288
     1
340
F706
341
F770
343
F770
344
F770
  0
DIMSTYLE
105
1C645
330
746F
100
AcDbSymbolTableRecord
100
AcDbDimStyleTableRecord
  2
INABA_S50G
 70
     0
 40
0.0
 41
125.0
 42
25.0
 43
7.0
 44
75.0
 73
     0
 74
     0
 77
     3
 78
     8
140
150.0
141
0.0
143
0.0394
147
25.0
172
     1
173
     1
174
     1
178
     7
271
     1
340
F706
341
F770
343
F770
344
F770
  0
ENDTAB
  0
TABLE
  2
BLOCK_RECORD
  5
7466
330
0
100
AcDbSymbolTable
 70
    18
  0
BLOCK_RECORD
  5
747D
330
7466
100
AcDbSymbolTableRecord
100
AcDbBlockTableRecord
  2
*MODEL_SPACE
340
159B3
  0
BLOCK_RECORD
  5
747A
330
7466
100
AcDbSymbolTableRecord
100
AcDbBlockTableRecord
  2
*PAPER_SPACE
340
159B4
  0
BLOCK_RECORD
  5
F770
330
7466
100
AcDbSymbolTableRecord
100
AcDbBlockTableRecord
  2
_DOTSMALL
340
0
102
{BLKREFS
331
1F8CA
331
1F8CB
331
1F8E7
331
1F8E8
331
1F8F2
331
1F8F3
331
1F8FD
331
1F8FE
331
1F906
331
1F907
331
1F90F
331
1F910
331
1F918
331
1F919
331
1F933
331
1F934
331
1F93F
331
1F940
331
1F95A
331
1F95B
331
1F9BC
331
1F9BD
331
1F9C5
331
1F9C6
331
1FAB1
331
1FAB2
331
1FABA
331
1FABB
331
1FAC3
331
1FAC4
331
1FACC
331
1FACD
102
}
  0
BLOCK_RECORD
  5
1C530
330
7466
100
AcDbSymbolTableRecord
100
AcDbBlockTableRecord
  2
_NONE
340
0
  0
BLOCK_RECORD
  5
1F443
330
7466
100
AcDbSymbolTableRecord
100
AcDbBlockTableRecord
  2
*D2
340
0
  0
BLOCK_RECORD
  5
1F44F
330
7466
100
AcDbSymbolTableRecord
100
AcDbBlockTableRecord
  2
*D3
340
0
  0
BLOCK_RECORD
  5
1F45B
330
7466
100
AcDbSymbolTableRecord
100
AcDbBlockTableRecord
  2
*D4
340
0
  0
BLOCK_RECORD
  5
1F467
330
7466
100
AcDbSymbolTableRecord
100
AcDbBlockTableRecord
  2
*D5
340
0
  0
BLOCK_RECORD
  5
1F765
330
7466
100
AcDbSymbolTableRecord
100
AcDbBlockTableRecord
  2
*D6
340
0
  0
BLOCK_RECORD
  5
1F771
330
7466
100
AcDbSymbolTableRecord
100
AcDbBlockTableRecord
  2
*D7
340
0
  0
BLOCK_RECORD
  5
1F77D
330
7466
100
AcDbSymbolTableRecord
100
AcDbBlockTableRecord
  2
*D8
340
0
  0
BLOCK_RECORD
  5
1F789
330
7466
100
AcDbSymbolTableRecord
100
AcDbBlockTableRecord
  2
*D9
340
0
  0
BLOCK_RECORD
  5
1F797
330
7466
100
AcDbSymbolTableRecord
100
AcDbBlockTableRecord
  2
*D10
340
0
  0
BLOCK_RECORD
  5
1F7A5
330
7466
100
AcDbSymbolTableRecord
100
AcDbBlockTableRecord
  2
*D11
340
0
  0
BLOCK_RECORD
  5
1F7B1
330
7466
100
AcDbSymbolTableRecord
100
AcDbBlockTableRecord
  2
*D12
340
0
  0
BLOCK_RECORD
  5
1F7BD
330
7466
100
AcDbSymbolTableRecord
100
AcDbBlockTableRecord
  2
*D13
340
0
  0
BLOCK_RECORD
  5
1F7CB
330
7466
100
AcDbSymbolTableRecord
100
AcDbBlockTableRecord
  2
*D14
340
0
  0
BLOCK_RECORD
  5
1F7D7
330
7466
100
AcDbSymbolTableRecord
100
AcDbBlockTableRecord
  2
*D15
340
0
  0
BLOCK_RECORD
  5
1F98D
330
7466
100
AcDbSymbolTableRecord
100
AcDbBlockTableRecord
  2
*D16
340
0
  0
BLOCK_RECORD
  5
1F999
330
7466
100
AcDbSymbolTableRecord
100
AcDbBlockTableRecord
  2
*D17
340
0
  0
ENDTAB
  0
ENDSEC
  0
SECTION
  2
BLOCKS
  0
BLOCK
  5
7489
330
747D
100
AcDbEntity
  8
0
100
AcDbBlockBegin
  2
*MODEL_SPACE
 70
     0
 10
0.0
 20
0.0
 30
0.0
  3
*MODEL_SPACE
  1

  0
ENDBLK
  5
748A
330
747D
100
AcDbEntity
  8
0
100
AcDbBlockEnd
  0
BLOCK
  5
7487
330
747A
100
AcDbEntity
 67
     1
  8
0
100
AcDbBlockBegin
  2
*PAPER_SPACE
 70
     0
 10
0.0
 20
0.0
 30
0.0
  3
*PAPER_SPACE
  1

  0
ENDBLK
  5
7488
330
747A
100
AcDbEntity
 67
     1
  8
0
100
AcDbBlockEnd
  0
BLOCK
  5
F771
330
F770
100
AcDbEntity
  8
0
 48
50.0
100
AcDbBlockBegin
  2
_DOTSMALL
 70
     0
 10
0.0
 20
0.0
 30
0.0
  3
_DOTSMALL
  1

  0
LWPOLYLINE
  5
F772
330
F770
100
AcDbEntity
  8
0
  6
ByBlock
 62
     0
 48
50.0
100
AcDbPolyline
 90
        2
 70
     1
 43
0.5
 10
-0.0625
 20
0.0
 42
1.0
 10
0.0625
 20
0.0
 42
1.0
  0
ENDBLK
  5
F776
330
F770
100
AcDbEntity
  8
0
 48
50.0
100
AcDbBlockEnd
  0
BLOCK
  5
1C531
330
1C530
100
AcDbEntity
  8
0
 48
50.0
100
AcDbBlockBegin
  2
_NONE
 70
     0
 10
0.0
 20
0.0
 30
0.0
  3
_NONE
  1

  0
CIRCLE
  5
1C532
330
1C530
100
AcDbEntity
  8
0
  6
ByBlock
 62
     0
 48
50.0
100
AcDbCircle
 10
0.0
 20
0.0
 30
0.0
 40
0.25
  0
ENDBLK
  5
1C533
330
1C530
100
AcDbEntity
  8
0
 48
50.0
100
AcDbBlockEnd
  0
BLOCK
  5
1F44D
330
1F443
100
AcDbEntity
  8
0
 48
50.0
100
AcDbBlockBegin
  2
*D2
 70
     1
 10
0.0
 20
0.0
 30
0.0
  3
*D2
  1

  0
LINE
  5
1FAC9
330
1F443
100
AcDbEntity
  8
寸法
 62
     0
 48
50.0
370
    -2
100
AcDbLine
 10
5953.69794496963
 20
1316.801204753999
 30
0.0
 11
6041.806274343645
 21
1316.801204753999
 31
0.0
  0
LINE
  5
1FACA
330
1F443
100
AcDbEntity
  8
寸法
 62
     0
 48
50.0
370
    -2
100
AcDbLine
 10
6013.69794496963
 20
816.8012047539995
 30
0.0
 11
5921.806274343646
 21
816.8012047539995
 31
0.0
  0
LINE
  5
1FACB
330
1F443
100
AcDbEntity
  8
寸法
 62
     0
 48
50.0
370
    -2
100
AcDbLine
 10
5981.806274343646
 20
1316.801204753999
 30
0.0
 11
5981.806274343646
 21
816.8012047539995
 31
0.0
  0
INSERT
  5
1FACC
330
1F443
100
AcDbEntity
  8
寸法
 62
     0
 48
50.0
370
    -2
100
AcDbBlockReference
  2
_DOTSMALL
 10
5981.806274343646
 20
1316.801204753999
 30
0.0
 41
100.0
 42
100.0
 43
100.0
 50
90.0
  0
INSERT
  5
1FACD
330
1F443
100
AcDbEntity
  8
寸法
 62
     0
 48
50.0
370
    -2
100
AcDbBlockReference
  2
_DOTSMALL
 10
5981.806274343646
 20
816.8012047539995
 30
0.0
 41
100.0
 42
100.0
 43
100.0
 50
270.0
  0
MTEXT
  5
1FACE
330
1F443
100
AcDbEntity
  8
寸法
 62
     7
 48
50.0
100
AcDbMText
 10
5881.794463320024
 20
1064.461580132465
 30
0.0
 40
120.0
 41
0.0
 71
     5
 72
     1
  1
\A1;250
  7
STYLE1
 11
0.0000000000000001
 21
1.0
 31
0.0
 73
     1
 44
1.0
1001
ACAD
1000
MTEXTBEGIN
1070
    73
1070
     1
1070
    44
1040
1.0
1070
    74
1070
     0
1000
MTEXTEND
  0
POINT
  5
1FACF
330
1F443
100
AcDbEntity
  8
DEFPOINTS
 62
     0
 48
50.0
100
AcDbPoint
 10
5933.69794496963
 20
1316.801204753999
 30
0.0
  0
POINT
  5
1FAD0
330
1F443
100
AcDbEntity
  8
DEFPOINTS
 62
     0
 48
50.0
100
AcDbPoint
 10
6033.69794496963
 20
816.8012047539995
 30
0.0
  0
POINT
  5
1FAD1
330
1F443
100
AcDbEntity
  8
DEFPOINTS
 62
     0
 48
50.0
100
AcDbPoint
 10
5981.806274343646
 20
816.8012047539995
 30
0.0
  0
ENDBLK
  5
1F44E
330
1F443
100
AcDbEntity
  8
0
 48
50.0
100
AcDbBlockEnd
  0
BLOCK
  5
1F459
330
1F44F
100
AcDbEntity
  8
0
 48
50.0
100
AcDbBlockBegin
  2
*D3
 70
     1
 10
0.0
 20
0.0
 30
0.0
  3
*D3
  1

  0
LINE
  5
1FAC0
330
1F44F
100
AcDbEntity
  8
寸法
 62
     0
 48
50.0
370
    -2
100
AcDbLine
 10
7967.30420908824
 20
1516.801204754001
 30
0.0
 11
8229.517456551141
 21
1516.801204754001
 31
0.0
  0
LINE
  5
1FAC1
330
1F44F
100
AcDbEntity
  8
寸法
 62
     0
 48
50.0
370
    -2
100
AcDbLine
 10
7986.75344598273
 20
1316.801204753999
 30
0.0
 11
8229.517456551141
 21
1316.801204753999
 31
0.0
  0
LINE
  5
1FAC2
330
1F44F
100
AcDbEntity
  8
寸法
 62
     0
 48
50.0
370
    -2
100
AcDbLine
 10
8169.51745655114
 20
1516.801204754001
 30
0.0
 11
8169.51745655114
 21
1316.801204753999
 31
0.0
  0
INSERT
  5
1FAC3
330
1F44F
100
AcDbEntity
  8
寸法
 62
     0
 48
50.0
370
    -2
100
AcDbBlockReference
  2
_DOTSMALL
 10
8169.51745655114
 20
1516.801204754001
 30
0.0
 41
100.0
 42
100.0
 43
100.0
 50
90.0
  0
INSERT
  5
1FAC4
330
1F44F
100
AcDbEntity
  8
寸法
 62
     0
 48
50.0
370
    -2
100
AcDbBlockReference
  2
_DOTSMALL
 10
8169.51745655114
 20
1316.801204753999
 30
0.0
 41
100.0
 42
100.0
 43
100.0
 50
270.0
  0
MTEXT
  5
1FAC5
330
1F44F
100
AcDbEntity
  8
寸法
 62
     7
 48
50.0
100
AcDbMText
 10
8069.517456551141
 20
1416.801204754002
 30
0.0
 40
120.0
 41
0.0
 71
     5
 72
     1
  1
\A1;b
  7
STYLE1
 11
0.0000000000000001
 21
1.0
 31
0.0
 73
     1
 44
1.0
1001
ACAD
1000
MTEXTBEGIN
1070
    73
1070
     1
1070
    44
1040
1.0
1070
    74
1070
     0
1000
MTEXTEND
  0
POINT
  5
1FAC6
330
1F44F
100
AcDbEntity
  8
DEFPOINTS
 62
     0
 48
50.0
100
AcDbPoint
 10
7947.304209088241
 20
1516.801204754001
 30
0.0
  0
POINT
  5
1FAC7
330
1F44F
100
AcDbEntity
  8
DEFPOINTS
 62
     0
 48
50.0
100
AcDbPoint
 10
7966.753445982729
 20
1316.801204753999
 30
0.0
  0
POINT
  5
1FAC8
330
1F44F
100
AcDbEntity
  8
DEFPOINTS
 62
     0
 48
50.0
100
AcDbPoint
 10
8169.51745655114
 20
1316.801204753999
 30
0.0
  0
ENDBLK
  5
1F45A
330
1F44F
100
AcDbEntity
  8
0
 48
50.0
100
AcDbBlockEnd
  0
BLOCK
  5
1F465
330
1F45B
100
AcDbEntity
  8
0
 48
50.0
100
AcDbBlockBegin
  2
*D4
 70
     1
 10
0.0
 20
0.0
 30
0.0
  3
*D4
  1

  0
LINE
  5
1FAB7
330
1F45B
100
AcDbEntity
  8
寸法
 62
     0
 48
50.0
370
    -2
100
AcDbLine
 10
9467.197142605378
 20
1616.801204753999
 30
0.0
 11
9709.832696322498
 21
1616.801204753999
 31
0.0
  0
LINE
  5
1FAB8
330
1F45B
100
AcDbEntity
  8
寸法
 62
     0
 48
50.0
370
    -2
100
AcDbLine
 10
9497.086050695711
 20
1316.801204753999
 30
0.0
 11
9709.832696322498
 21
1316.801204753999
 31
0.0
  0
LINE
  5
1FAB9
330
1F45B
100
AcDbEntity
  8
寸法
 62
     0
 48
50.0
370
    -2
100
AcDbLine
 10
9649.832696322498
 20
1616.801204753999
 30
0.0
 11
9649.832696322498
 21
1316.801204753999
 31
0.0
  0
INSERT
  5
1FABA
330
1F45B
100
AcDbEntity
  8
寸法
 62
     0
 48
50.0
370
    -2
100
AcDbBlockReference
  2
_DOTSMALL
 10
9649.832696322498
 20
1616.801204753999
 30
0.0
 41
100.0
 42
100.0
 43
100.0
 50
90.0
  0
INSERT
  5
1FABB
330
1F45B
100
AcDbEntity
  8
寸法
 62
     0
 48
50.0
370
    -2
100
AcDbBlockReference
  2
_DOTSMALL
 10
9649.832696322498
 20
1316.801204753999
 30
0.0
 41
100.0
 42
100.0
 43
100.0
 50
270.0
  0
MTEXT
  5
1FABC
330
1F45B
100
AcDbEntity
  8
寸法
 62
     7
 48
50.0
100
AcDbMText
 10
9549.832696322496
 20
1466.801204754001
 30
0.0
 40
120.0
 41
0.0
 71
     5
 72
     1
  1
\A1;c
  7
STYLE1
 11
0.0000000000000001
 21
1.0
 31
0.0
 73
     1
 44
1.0
1001
ACAD
1000
MTEXTBEGIN
1070
    73
1070
     1
1070
    44
1040
1.0
1070
    74
1070
     0
1000
MTEXTEND
  0
POINT
  5
1FABD
330
1F45B
100
AcDbEntity
  8
DEFPOINTS
 62
     0
 48
50.0
100
AcDbPoint
 10
9447.197142605379
 20
1616.801204753999
 30
0.0
  0
POINT
  5
1FABE
330
1F45B
100
AcDbEntity
  8
DEFPOINTS
 62
     0
 48
50.0
100
AcDbPoint
 10
9477.08605069571
 20
1316.801204753999
 30
0.0
  0
POINT
  5
1FABF
330
1F45B
100
AcDbEntity
  8
DEFPOINTS
 62
     0
 48
50.0
100
AcDbPoint
 10
9649.832696322498
 20
1316.801204753999
 30
0.0
  0
ENDBLK
  5
1F466
330
1F45B
100
AcDbEntity
  8
0
 48
50.0
100
AcDbBlockEnd
  0
BLOCK
  5
1F471
330
1F467
100
AcDbEntity
  8
0
 48
50.0
100
AcDbBlockBegin
  2
*D5
 70
     1
 10
0.0
 20
0.0
 30
0.0
  3
*D5
  1

  0
LINE
  5
1FAAE
330
1F467
100
AcDbEntity
  8
寸法
 62
     0
 48
50.0
370
    -2
100
AcDbLine
 10
6353.697944969634
 20
1516.801204754
 30
0.0
 11
6641.768949330027
 21
1516.801204754
 31
0.0
  0
LINE
  5
1FAAF
330
1F467
100
AcDbEntity
  8
寸法
 62
     0
 48
50.0
370
    -2
100
AcDbLine
 10
6353.697944969634
 20
1316.801204753999
 30
0.0
 11
6641.768949330027
 21
1316.801204753999
 31
0.0
  0
LINE
  5
1FAB0
330
1F467
100
AcDbEntity
  8
寸法
 62
     0
 48
50.0
370
    -2
100
AcDbLine
 10
6581.768949330028
 20
1516.801204754
 30
0.0
 11
6581.768949330028
 21
1316.801204753999
 31
0.0
  0
INSERT
  5
1FAB1
330
1F467
100
AcDbEntity
  8
寸法
 62
     0
 48
50.0
370
    -2
100
AcDbBlockReference
  2
_DOTSMALL
 10
6581.768949330028
 20
1516.801204754
 30
0.0
 41
100.0
 42
100.0
 43
100.0
 50
90.0
  0
INSERT
  5
1FAB2
330
1F467
100
AcDbEntity
  8
寸法
 62
     0
 48
50.0
370
    -2
100
AcDbBlockReference
  2
_DOTSMALL
 10
6581.768949330028
 20
1316.801204753999
 30
0.0
 41
100.0
 42
100.0
 43
100.0
 50
270.0
  0
MTEXT
  5
1FAB3
330
1F467
100
AcDbEntity
  8
寸法
 62
     7
 48
50.0
100
AcDbMText
 10
6481.768949330028
 20
1416.801204754001
 30
0.0
 40
120.0
 41
0.0
 71
     5
 72
     1
  1
\A1;a
  7
STYLE1
 11
0.0000000000000001
 21
1.0
 31
0.0
 73
     1
 44
1.0
1001
ACAD
1000
MTEXTBEGIN
1070
    73
1070
     1
1070
    44
1040
1.0
1070
    74
1070
     0
1000
MTEXTEND
  0
POINT
  5
1FAB4
330
1F467
100
AcDbEntity
  8
DEFPOINTS
 62
     0
 48
50.0
100
AcDbPoint
 10
6333.697944969634
 20
1516.801204754
 30
0.0
  0
POINT
  5
1FAB5
330
1F467
100
AcDbEntity
  8
DEFPOINTS
 62
     0
 48
50.0
100
AcDbPoint
 10
6333.697944969634
 20
1316.801204753999
 30
0.0
  0
POINT
  5
1FAB6
330
1F467
100
AcDbEntity
  8
DEFPOINTS
 62
     0
 48
50.0
100
AcDbPoint
 10
6581.768949330028
 20
1316.801204753999
 30
0.0
  0
ENDBLK
  5
1F472
330
1F467
100
AcDbEntity
  8
0
 48
50.0
100
AcDbBlockEnd
  0
BLOCK
  5
1F76F
330
1F765
100
AcDbEntity
  8
0
 48
50.0
100
AcDbBlockBegin
  2
*D6
 70
     1
 10
0.0
 20
0.0
 30
0.0
  3
*D6
  1

  0
LINE
  5
1F915
330
1F765
100
AcDbEntity
  8
寸法
 62
     0
 48
50.0
370
    -2
100
AcDbLine
 10
9160.6
 20
6891.999999999995
 30
0.0
 11
9160.6
 21
7440.624237135961
 31
0.0
  0
LINE
  5
1F916
330
1F765
100
AcDbEntity
  8
寸法
 62
     0
 48
50.0
370
    -2
100
AcDbLine
 10
9959.600000000001
 20
6891.999999999999
 30
0.0
 11
9959.600000000001
 21
7440.624237135961
 31
0.0
  0
LINE
  5
1F917
330
1F765
100
AcDbEntity
  8
寸法
 62
     0
 48
50.0
370
    -2
100
AcDbLine
 10
9160.6
 20
7380.62423713596
 30
0.0
 11
9959.600000000001
 21
7380.62423713596
 31
0.0
  0
INSERT
  5
1F918
330
1F765
100
AcDbEntity
  8
寸法
 62
     0
 48
50.0
370
    -2
100
AcDbBlockReference
  2
_DOTSMALL
 10
9160.6
 20
7380.62423713596
 30
0.0
 41
100.0
 42
100.0
 43
100.0
 50
180.0
  0
INSERT
  5
1F919
330
1F765
100
AcDbEntity
  8
寸法
 62
     0
 48
50.0
370
    -2
100
AcDbBlockReference
  2
_DOTSMALL
 10
9959.600000000001
 20
7380.62423713596
 30
0.0
 41
100.0
 42
100.0
 43
100.0
  0
MTEXT
  5
1F91A
330
1F765
100
AcDbEntity
  8
寸法
 62
     7
 48
50.0
100
AcDbMText
 10
9560.1
 20
7480.62423713596
 30
0.0
 40
120.0
 41
0.0
 71
     5
 72
     1
  1
\A1;799
  7
STYLE1
 73
     1
 44
1.0
1001
ACAD
1000
MTEXTBEGIN
1070
    73
1070
     1
1070
    44
1040
1.0
1070
    74
1070
     0
1000
MTEXTEND
  0
POINT
  5
1F91B
330
1F765
100
AcDbEntity
  8
DEFPOINTS
 62
     0
 48
50.0
100
AcDbPoint
 10
9160.6
 20
6871.999999999994
 30
0.0
  0
POINT
  5
1F91C
330
1F765
100
AcDbEntity
  8
DEFPOINTS
 62
     0
 48
50.0
100
AcDbPoint
 10
9959.600000000001
 20
6871.999999999998
 30
0.0
  0
POINT
  5
1F91D
330
1F765
100
AcDbEntity
  8
DEFPOINTS
 62
     0
 48
50.0
100
AcDbPoint
 10
9959.600000000001
 20
7380.62423713596
 30
0.0
  0
ENDBLK
  5
1F770
330
1F765
100
AcDbEntity
  8
0
 48
50.0
100
AcDbBlockEnd
  0
BLOCK
  5
1F77B
330
1F771
100
AcDbEntity
  8
0
 48
50.0
100
AcDbBlockBegin
  2
*D7
 70
     1
 10
0.0
 20
0.0
 30
0.0
  3
*D7
  1

  0
LINE
  5
1F90C
330
1F771
100
AcDbEntity
  8
寸法
 62
     0
 48
50.0
370
    -2
100
AcDbLine
 10
7706.6
 20
6891.999999999999
 30
0.0
 11
7706.6
 21
7440.624237135961
 31
0.0
  0
LINE
  5
1F90D
330
1F771
100
AcDbEntity
  8
寸法
 62
     0
 48
50.0
370
    -2
100
AcDbLine
 10
6907.600000000001
 20
6891.999999999999
 30
0.0
 11
6907.600000000001
 21
7440.624237135961
 31
0.0
  0
LINE
  5
1F90E
330
1F771
100
AcDbEntity
  8
寸法
 62
     0
 48
50.0
370
    -2
100
AcDbLine
 10
7706.6
 20
7380.62423713596
 30
0.0
 11
6907.600000000001
 21
7380.62423713596
 31
0.0
  0
INSERT
  5
1F90F
330
1F771
100
AcDbEntity
  8
寸法
 62
     0
 48
50.0
370
    -2
100
AcDbBlockReference
  2
_DOTSMALL
 10
7706.6
 20
7380.62423713596
 30
0.0
 41
100.0
 42
100.0
 43
100.0
  0
INSERT
  5
1F910
330
1F771
100
AcDbEntity
  8
寸法
 62
     0
 48
50.0
370
    -2
100
AcDbBlockReference
  2
_DOTSMALL
 10
6907.600000000001
 20
7380.62423713596
 30
0.0
 41
100.0
 42
100.0
 43
100.0
 50
180.0
  0
MTEXT
  5
1F911
330
1F771
100
AcDbEntity
  8
寸法
 62
     7
 48
50.0
100
AcDbMText
 10
7307.100000000001
 20
7480.62423713596
 30
0.0
 40
120.0
 41
0.0
 71
     5
 72
     1
  1
\A1;799
  7
STYLE1
 73
     1
 44
1.0
1001
ACAD
1000
MTEXTBEGIN
1070
    73
1070
     1
1070
    44
1040
1.0
1070
    74
1070
     0
1000
MTEXTEND
  0
POINT
  5
1F912
330
1F771
100
AcDbEntity
  8
DEFPOINTS
 62
     0
 48
50.0
100
AcDbPoint
 10
7706.6
 20
6871.999999999998
 30
0.0
  0
POINT
  5
1F913
330
1F771
100
AcDbEntity
  8
DEFPOINTS
 62
     0
 48
50.0
100
AcDbPoint
 10
6907.600000000001
 20
6871.999999999998
 30
0.0
  0
POINT
  5
1F914
330
1F771
100
AcDbEntity
  8
DEFPOINTS
 62
     0
 48
50.0
100
AcDbPoint
 10
6907.600000000001
 20
7380.62423713596
 30
0.0
  0
ENDBLK
  5
1F77C
330
1F771
100
AcDbEntity
  8
0
 48
50.0
100
AcDbBlockEnd
  0
BLOCK
  5
1F787
330
1F77D
100
AcDbEntity
  8
0
 48
50.0
100
AcDbBlockBegin
  2
*D8
 70
     1
 10
0.0
 20
0.0
 30
0.0
  3
*D8
  1

  0
LINE
  5
1F903
330
1F77D
100
AcDbEntity
  8
寸法
 62
     0
 48
50.0
370
    -2
100
AcDbLine
 10
7706.6
 20
6891.999999999999
 30
0.0
 11
7706.6
 21
7440.624237135961
 31
0.0
  0
LINE
  5
1F904
330
1F77D
100
AcDbEntity
  8
寸法
 62
     0
 48
50.0
370
    -2
100
AcDbLine
 10
8433.6
 20
6891.999999999999
 30
0.0
 11
8433.6
 21
7440.624237135961
 31
0.0
  0
LINE
  5
1F905
330
1F77D
100
AcDbEntity
  8
寸法
 62
     0
 48
50.0
370
    -2
100
AcDbLine
 10
7706.6
 20
7380.62423713596
 30
0.0
 11
8433.6
 21
7380.62423713596
 31
0.0
  0
INSERT
  5
1F906
330
1F77D
100
AcDbEntity
  8
寸法
 62
     0
 48
50.0
370
    -2
100
AcDbBlockReference
  2
_DOTSMALL
 10
7706.6
 20
7380.62423713596
 30
0.0
 41
100.0
 42
100.0
 43
100.0
 50
180.0
  0
INSERT
  5
1F907
330
1F77D
100
AcDbEntity
  8
寸法
 62
     0
 48
50.0
370
    -2
100
AcDbBlockReference
  2
_DOTSMALL
 10
8433.6
 20
7380.62423713596
 30
0.0
 41
100.0
 42
100.0
 43
100.0
  0
MTEXT
  5
1F908
330
1F77D
100
AcDbEntity
  8
寸法
 62
     7
 48
50.0
100
AcDbMText
 10
8070.100000000001
 20
7480.636048159581
 30
0.0
 40
120.0
 41
0.0
 71
     5
 72
     1
  1
\A1;727
  7
STYLE1
 73
     1
 44
1.0
1001
ACAD
1000
MTEXTBEGIN
1070
    73
1070
     1
1070
    44
1040
1.0
1070
    74
1070
     0
1000
MTEXTEND
  0
POINT
  5
1F909
330
1F77D
100
AcDbEntity
  8
DEFPOINTS
 62
     0
 48
50.0
100
AcDbPoint
 10
7706.6
 20
6871.999999999998
 30
0.0
  0
POINT
  5
1F90A
330
1F77D
100
AcDbEntity
  8
DEFPOINTS
 62
     0
 48
50.0
100
AcDbPoint
 10
8433.6
 20
6871.999999999998
 30
0.0
  0
POINT
  5
1F90B
330
1F77D
100
AcDbEntity
  8
DEFPOINTS
 62
     0
 48
50.0
100
AcDbPoint
 10
8433.6
 20
7380.62423713596
 30
0.0
  0
ENDBLK
  5
1F788
330
1F77D
100
AcDbEntity
  8
0
 48
50.0
100
AcDbBlockEnd
  0
BLOCK
  5
1F795
330
1F789
100
AcDbEntity
  8
0
 48
50.0
100
AcDbBlockBegin
  2
*D9
 70
     1
 10
0.0
 20
0.0
 30
0.0
  3
*D9
  1

  0
LINE
  5
1F8F8
330
1F789
100
AcDbEntity
  8
寸法
 62
     0
 48
50.0
370
    -2
100
AcDbLine
 10
9959.600000000001
 20
6891.999999999999
 30
0.0
 11
9959.600000000001
 21
7698.55162580202
 31
0.0
  0
LINE
  5
1F8F9
330
1F789
100
AcDbEntity
  8
寸法
 62
     0
 48
50.0
370
    -2
100
AcDbLine
 10
10009.6
 20
6972.000000000001
 30
0.0
 11
10009.6
 21
7698.55162580202
 31
0.0
  0
LINE
  5
1F8FA
330
1F789
100
AcDbEntity
  8
寸法
 62
     0
 48
50.0
370
    -2
100
AcDbLine
 10
9959.600000000001
 20
7638.55162580202
 30
0.0
 11
9859.6
 21
7638.55162580202
 31
0.0
  0
LINE
  5
1F8FB
330
1F789
100
AcDbEntity
  8
寸法
 62
     0
 48
50.0
370
    -2
100
AcDbLine
 10
10009.6
 20
7638.55162580202
 30
0.0
 11
10109.6
 21
7638.55162580202
 31
0.0
  0
LINE
  5
1F8FC
330
1F789
100
AcDbEntity
  8
寸法
 62
     0
 48
50.0
370
    -2
100
AcDbLine
 10
9959.600000000001
 20
7638.55162580202
 30
0.0
 11
10009.6
 21
7638.55162580202
 31
0.0
  0
INSERT
  5
1F8FD
330
1F789
100
AcDbEntity
  8
寸法
 62
     0
 48
50.0
370
    -2
100
AcDbBlockReference
  2
_DOTSMALL
 10
9959.600000000001
 20
7638.55162580202
 30
0.0
 41
100.0
 42
100.0
 43
100.0
  0
INSERT
  5
1F8FE
330
1F789
100
AcDbEntity
  8
寸法
 62
     0
 48
50.0
370
    -2
100
AcDbBlockReference
  2
_DOTSMALL
 10
10009.6
 20
7638.55162580202
 30
0.0
 41
100.0
 42
100.0
 43
100.0
 50
180.0
  0
MTEXT
  5
1F8FF
330
1F789
100
AcDbEntity
  8
寸法
 62
     7
 48
50.0
100
AcDbMText
 10
9984.6
 20
7738.551625802021
 30
0.0
 40
120.0
 41
0.0
 71
     5
 72
     1
  1
\A1;a
  7
STYLE1
 73
     1
 44
1.0
1001
ACAD
1000
MTEXTBEGIN
1070
    73
1070
     1
1070
    44
1040
1.0
1070
    74
1070
     0
1000
MTEXTEND
  0
POINT
  5
1F900
330
1F789
100
AcDbEntity
  8
DEFPOINTS
 62
     0
 48
50.0
100
AcDbPoint
 10
9959.600000000001
 20
6871.999999999998
 30
0.0
  0
POINT
  5
1F901
330
1F789
100
AcDbEntity
  8
DEFPOINTS
 62
     0
 48
50.0
100
AcDbPoint
 10
10009.6
 20
6952.000000000002
 30
0.0
  0
POINT
  5
1F902
330
1F789
100
AcDbEntity
  8
DEFPOINTS
 62
     0
 48
50.0
100
AcDbPoint
 10
10009.6
 20
7638.55162580202
 30
0.0
  0
ENDBLK
  5
1F796
330
1F789
100
AcDbEntity
  8
0
 48
50.0
100
AcDbBlockEnd
  0
BLOCK
  5
1F7A3
330
1F797
100
AcDbEntity
  8
0
 48
50.0
100
AcDbBlockBegin
  2
*D10
 70
     1
 10
0.0
 20
0.0
 30
0.0
  3
*D10
  1

  0
LINE
  5
1F8ED
330
1F797
100
AcDbEntity
  8
寸法
 62
     0
 48
50.0
370
    -2
100
AcDbLine
 10
6857.600000000001
 20
6971.999999999998
 30
0.0
 11
6857.600000000001
 21
7698.55162580202
 31
0.0
  0
LINE
  5
1F8EE
330
1F797
100
AcDbEntity
  8
寸法
 62
     0
 48
50.0
370
    -2
100
AcDbLine
 10
6907.600000000001
 20
6891.999999999999
 30
0.0
 11
6907.600000000001
 21
7698.55162580202
 31
0.0
  0
LINE
  5
1F8EF
330
1F797
100
AcDbEntity
  8
寸法
 62
     0
 48
50.0
370
    -2
100
AcDbLine
 10
6857.600000000001
 20
7638.55162580202
 30
0.0
 11
6757.6
 21
7638.55162580202
 31
0.0
  0
LINE
  5
1F8F0
330
1F797
100
AcDbEntity
  8
寸法
 62
     0
 48
50.0
370
    -2
100
AcDbLine
 10
6907.600000000001
 20
7638.55162580202
 30
0.0
 11
7007.6
 21
7638.55162580202
 31
0.0
  0
LINE
  5
1F8F1
330
1F797
100
AcDbEntity
  8
寸法
 62
     0
 48
50.0
370
    -2
100
AcDbLine
 10
6857.600000000001
 20
7638.55162580202
 30
0.0
 11
6907.600000000001
 21
7638.55162580202
 31
0.0
  0
INSERT
  5
1F8F2
330
1F797
100
AcDbEntity
  8
寸法
 62
     0
 48
50.0
370
    -2
100
AcDbBlockReference
  2
_DOTSMALL
 10
6857.600000000001
 20
7638.55162580202
 30
0.0
 41
100.0
 42
100.0
 43
100.0
  0
INSERT
  5
1F8F3
330
1F797
100
AcDbEntity
  8
寸法
 62
     0
 48
50.0
370
    -2
100
AcDbBlockReference
  2
_DOTSMALL
 10
6907.600000000001
 20
7638.55162580202
 30
0.0
 41
100.0
 42
100.0
 43
100.0
 50
180.0
  0
MTEXT
  5
1F8F4
330
1F797
100
AcDbEntity
  8
寸法
 62
     7
 48
50.0
100
AcDbMText
 10
6882.6
 20
7738.551625802021
 30
0.0
 40
120.0
 41
0.0
 71
     5
 72
     1
  1
\A1;a
  7
STYLE1
 73
     1
 44
1.0
1001
ACAD
1000
MTEXTBEGIN
1070
    73
1070
     1
1070
    44
1040
1.0
1070
    74
1070
     0
1000
MTEXTEND
  0
POINT
  5
1F8F5
330
1F797
100
AcDbEntity
  8
DEFPOINTS
 62
     0
 48
50.0
100
AcDbPoint
 10
6857.600000000001
 20
6951.999999999998
 30
0.0
  0
POINT
  5
1F8F6
330
1F797
100
AcDbEntity
  8
DEFPOINTS
 62
     0
 48
50.0
100
AcDbPoint
 10
6907.600000000001
 20
6871.999999999998
 30
0.0
  0
POINT
  5
1F8F7
330
1F797
100
AcDbEntity
  8
DEFPOINTS
 62
     0
 48
50.0
100
AcDbPoint
 10
6907.600000000001
 20
7638.55162580202
 30
0.0
  0
ENDBLK
  5
1F7A4
330
1F797
100
AcDbEntity
  8
0
 48
50.0
100
AcDbBlockEnd
  0
BLOCK
  5
1F7AF
330
1F7A5
100
AcDbEntity
  8
0
 48
50.0
100
AcDbBlockBegin
  2
*D11
 70
     1
 10
0.0
 20
0.0
 30
0.0
  3
*D11
  1

  0
LINE
  5
1F8E4
330
1F7A5
100
AcDbEntity
  8
寸法
 62
     0
 48
50.0
370
    -2
100
AcDbLine
 10
6837.600000000001
 20
6951.999999999998
 30
0.0
 11
6406.88811655075
 21
6951.999999999998
 31
0.0
  0
LINE
  5
1F8E5
330
1F7A5
100
AcDbEntity
  8
寸法
 62
     0
 48
50.0
370
    -2
100
AcDbLine
 10
6887.6
 20
6871.999999999998
 30
0.0
 11
6406.88811655075
 21
6871.999999999998
 31
0.0
  0
LINE
  5
1F8E6
330
1F7A5
100
AcDbEntity
  8
寸法
 62
     0
 48
50.0
370
    -2
100
AcDbLine
 10
6466.888116550752
 20
6951.999999999998
 30
0.0
 11
6466.888116550752
 21
6871.999999999998
 31
0.0
  0
INSERT
  5
1F8E7
330
1F7A5
100
AcDbEntity
  8
寸法
 62
     0
 48
50.0
370
    -2
100
AcDbBlockReference
  2
_DOTSMALL
 10
6466.888116550752
 20
6951.999999999998
 30
0.0
 41
100.0
 42
100.0
 43
100.0
 50
90.0
  0
INSERT
  5
1F8E8
330
1F7A5
100
AcDbEntity
  8
寸法
 62
     0
 48
50.0
370
    -2
100
AcDbBlockReference
  2
_DOTSMALL
 10
6466.888116550752
 20
6871.999999999998
 30
0.0
 41
100.0
 42
100.0
 43
100.0
 50
270.0
  0
MTEXT
  5
1F8E9
330
1F7A5
100
AcDbEntity
  8
寸法
 62
     7
 48
50.0
100
AcDbMText
 10
6366.888116550749
 20
6912.0
 30
0.0
 40
120.0
 41
0.0
 71
     5
 72
     1
  1
\A1;c
  7
STYLE1
 11
0.0000000000000001
 21
1.0
 31
0.0
 73
     1
 44
1.0
1001
ACAD
1000
MTEXTBEGIN
1070
    73
1070
     1
1070
    44
1040
1.0
1070
    74
1070
     0
1000
MTEXTEND
  0
POINT
  5
1F8EA
330
1F7A5
100
AcDbEntity
  8
DEFPOINTS
 62
     0
 48
50.0
100
AcDbPoint
 10
6857.600000000001
 20
6951.999999999998
 30
0.0
  0
POINT
  5
1F8EB
330
1F7A5
100
AcDbEntity
  8
DEFPOINTS
 62
     0
 48
50.0
100
AcDbPoint
 10
6907.600000000001
 20
6871.999999999998
 30
0.0
  0
POINT
  5
1F8EC
330
1F7A5
100
AcDbEntity
  8
DEFPOINTS
 62
     0
 48
50.0
100
AcDbPoint
 10
6466.888116550752
 20
6871.999999999998
 30
0.0
  0
ENDBLK
  5
1F7B0
330
1F7A5
100
AcDbEntity
  8
0
 48
50.0
100
AcDbBlockEnd
  0
BLOCK
  5
1F7BB
330
1F7B1
100
AcDbEntity
  8
0
 48
50.0
100
AcDbBlockBegin
  2
*D12
 70
     1
 10
0.0
 20
0.0
 30
0.0
  3
*D12
  1

  0
LINE
  5
1F957
330
1F7B1
100
AcDbEntity
  8
寸法
 62
     0
 48
50.0
370
    -2
100
AcDbLine
 10
6887.6
 20
6871.999999999998
 30
0.0
 11
6406.88811655075
 21
6871.999999999998
 31
0.0
  0
LINE
  5
1F958
330
1F7B1
100
AcDbEntity
  8
寸法
 62
     0
 48
50.0
370
    -2
100
AcDbLine
 10
6887.6
 20
5499.999999999999
 30
0.0
 11
6406.88811655075
 21
5499.999999999999
 31
0.0
  0
LINE
  5
1F959
330
1F7B1
100
AcDbEntity
  8
寸法
 62
     0
 48
50.0
370
    -2
100
AcDbLine
 10
6466.888116550752
 20
6871.999999999998
 30
0.0
 11
6466.88811655075
 21
5499.999999999999
 31
0.0
  0
INSERT
  5
1F95A
330
1F7B1
100
AcDbEntity
  8
寸法
 62
     0
 48
50.0
370
    -2
100
AcDbBlockReference
  2
_DOTSMALL
 10
6466.888116550752
 20
6871.999999999998
 30
0.0
 41
100.0
 42
100.0
 43
100.0
 50
90.0
  0
INSERT
  5
1F95B
330
1F7B1
100
AcDbEntity
  8
寸法
 62
     0
 48
50.0
370
    -2
100
AcDbBlockReference
  2
_DOTSMALL
 10
6466.88811655075
 20
5499.999999999999
 30
0.0
 41
100.0
 42
100.0
 43
100.0
 50
270.0
  0
MTEXT
  5
1F95C
330
1F7B1
100
AcDbEntity
  8
寸法
 62
     7
 48
50.0
100
AcDbMText
 10
6366.876305527128
 20
6186.0
 30
0.0
 40
120.0
 41
0.0
 71
     5
 72
     1
  1
\A1;1372
  7
STYLE1
 11
0.0000000000000001
 21
1.0
 31
0.0
 73
     1
 44
1.0
1001
ACAD
1000
MTEXTBEGIN
1070
    73
1070
     1
1070
    44
1040
1.0
1070
    74
1070
     0
1000
MTEXTEND
  0
POINT
  5
1F95D
330
1F7B1
100
AcDbEntity
  8
DEFPOINTS
 62
     0
 48
50.0
100
AcDbPoint
 10
6907.600000000001
 20
6871.999999999998
 30
0.0
  0
POINT
  5
1F95E
330
1F7B1
100
AcDbEntity
  8
DEFPOINTS
 62
     0
 48
50.0
100
AcDbPoint
 10
6907.600000000001
 20
5499.999999999999
 30
0.0
  0
POINT
  5
1F95F
330
1F7B1
100
AcDbEntity
  8
DEFPOINTS
 62
     0
 48
50.0
100
AcDbPoint
 10
6466.88811655075
 20
5499.999999999999
 30
0.0
  0
ENDBLK
  5
1F7BC
330
1F7B1
100
AcDbEntity
  8
0
 48
50.0
100
AcDbBlockEnd
  0
BLOCK
  5
1F7C9
330
1F7BD
100
AcDbEntity
  8
0
 48
50.0
100
AcDbBlockBegin
  2
*D13
 70
     1
 10
0.0
 20
0.0
 30
0.0
  3
*D13
  1

  0
LINE
  5
1F93A
330
1F7BD
100
AcDbEntity
  8
寸法
 62
     0
 48
50.0
370
    -2
100
AcDbLine
 10
6887.6
 20
5499.999999999999
 30
0.0
 11
6406.88811655075
 21
5499.999999999999
 31
0.0
  0
LINE
  5
1F93B
330
1F7BD
100
AcDbEntity
  8
寸法
 62
     0
 48
50.0
370
    -2
100
AcDbLine
 10
6837.600000000001
 20
5439.999999999998
 30
0.0
 11
6406.88811655075
 21
5439.999999999998
 31
0.0
  0
LINE
  5
1F93C
330
1F7BD
100
AcDbEntity
  8
寸法
 62
     0
 48
50.0
370
    -2
100
AcDbLine
 10
6466.88811655075
 20
5499.999999999999
 30
0.0
 11
6466.88811655075
 21
5599.999999999998
 31
0.0
  0
LINE
  5
1F93D
330
1F7BD
100
AcDbEntity
  8
寸法
 62
     0
 48
50.0
370
    -2
100
AcDbLine
 10
6466.88811655075
 20
5439.999999999998
 30
0.0
 11
6466.88811655075
 21
5339.999999999998
 31
0.0
  0
LINE
  5
1F93E
330
1F7BD
100
AcDbEntity
  8
寸法
 62
     0
 48
50.0
370
    -2
100
AcDbLine
 10
6466.88811655075
 20
5499.999999999999
 30
0.0
 11
6466.88811655075
 21
5439.999999999998
 31
0.0
  0
INSERT
  5
1F93F
330
1F7BD
100
AcDbEntity
  8
寸法
 62
     0
 48
50.0
370
    -2
100
AcDbBlockReference
  2
_DOTSMALL
 10
6466.88811655075
 20
5499.999999999999
 30
0.0
 41
100.0
 42
100.0
 43
100.0
 50
270.0
  0
INSERT
  5
1F940
330
1F7BD
100
AcDbEntity
  8
寸法
 62
     0
 48
50.0
370
    -2
100
AcDbBlockReference
  2
_DOTSMALL
 10
6466.88811655075
 20
5439.999999999998
 30
0.0
 41
100.0
 42
100.0
 43
100.0
 50
90.0
  0
MTEXT
  5
1F941
330
1F7BD
100
AcDbEntity
  8
寸法
 62
     7
 48
50.0
100
AcDbMText
 10
6366.888116550749
 20
5470.0
 30
0.0
 40
120.0
 41
0.0
 71
     5
 72
     1
  1
\A1;b
  7
STYLE1
 11
0.0000000000000001
 21
1.0
 31
0.0
 73
     1
 44
1.0
1001
ACAD
1000
MTEXTBEGIN
1070
    73
1070
     1
1070
    44
1040
1.0
1070
    74
1070
     0
1000
MTEXTEND
  0
POINT
  5
1F942
330
1F7BD
100
AcDbEntity
  8
DEFPOINTS
 62
     0
 48
50.0
100
AcDbPoint
 10
6907.600000000001
 20
5499.999999999999
 30
0.0
  0
POINT
  5
1F943
330
1F7BD
100
AcDbEntity
  8
DEFPOINTS
 62
     0
 48
50.0
100
AcDbPoint
 10
6857.600000000001
 20
5439.999999999998
 30
0.0
  0
POINT
  5
1F944
330
1F7BD
100
AcDbEntity
  8
DEFPOINTS
 62
     0
 48
50.0
100
AcDbPoint
 10
6466.88811655075
 20
5439.999999999998
 30
0.0
  0
ENDBLK
  5
1F7CA
330
1F7BD
100
AcDbEntity
  8
0
 48
50.0
100
AcDbBlockEnd
  0
BLOCK
  5
1F7D5
330
1F7CB
100
AcDbEntity
  8
0
 48
50.0
100
AcDbBlockBegin
  2
*D14
 70
     1
 10
0.0
 20
0.0
 30
0.0
  3
*D14
  1

  0
LINE
  5
1F8C7
330
1F7CB
100
AcDbEntity
  8
寸法
 62
     0
 48
50.0
370
    -2
100
AcDbLine
 10
6907.600000000001
 20
6891.999999999999
 30
0.0
 11
6907.600000000001
 21
7698.55162580202
 31
0.0
  0
LINE
  5
1F8C8
330
1F7CB
100
AcDbEntity
  8
寸法
 62
     0
 48
50.0
370
    -2
100
AcDbLine
 10
9959.600000000001
 20
6891.999999999999
 30
0.0
 11
9959.600000000001
 21
7698.55162580202
 31
0.0
  0
LINE
  5
1F8C9
330
1F7CB
100
AcDbEntity
  8
寸法
 62
     0
 48
50.0
370
    -2
100
AcDbLine
 10
6907.600000000001
 20
7638.55162580202
 30
0.0
 11
9959.600000000001
 21
7638.55162580202
 31
0.0
  0
INSERT
  5
1F8CA
330
1F7CB
100
AcDbEntity
  8
寸法
 62
     0
 48
50.0
370
    -2
100
AcDbBlockReference
  2
_DOTSMALL
 10
6907.600000000001
 20
7638.55162580202
 30
0.0
 41
100.0
 42
100.0
 43
100.0
 50
180.0
  0
INSERT
  5
1F8CB
330
1F7CB
100
AcDbEntity
  8
寸法
 62
     0
 48
50.0
370
    -2
100
AcDbBlockReference
  2
_DOTSMALL
 10
9959.600000000001
 20
7638.55162580202
 30
0.0
 41
100.0
 42
100.0
 43
100.0
  0
MTEXT
  5
1F8CC
330
1F7CB
100
AcDbEntity
  8
寸法
 62
     7
 48
50.0
100
AcDbMText
 10
8433.6
 20
7738.563436825642
 30
0.0
 40
120.0
 41
0.0
 71
     5
 72
     1
  1
\A1;3052
  7
STYLE1
 73
     1
 44
1.0
1001
ACAD
1000
MTEXTBEGIN
1070
    73
1070
     1
1070
    44
1040
1.0
1070
    74
1070
     0
1000
MTEXTEND
  0
POINT
  5
1F8CD
330
1F7CB
100
AcDbEntity
  8
DEFPOINTS
 62
     0
 48
50.0
100
AcDbPoint
 10
6907.600000000001
 20
6871.999999999998
 30
0.0
  0
POINT
  5
1F8CE
330
1F7CB
100
AcDbEntity
  8
DEFPOINTS
 62
     0
 48
50.0
100
AcDbPoint
 10
9959.600000000001
 20
6871.999999999998
 30
0.0
  0
POINT
  5
1F8CF
330
1F7CB
100
AcDbEntity
  8
DEFPOINTS
 62
     0
 48
50.0
100
AcDbPoint
 10
9959.600000000001
 20
7638.55162580202
 30
0.0
  0
ENDBLK
  5
1F7D6
330
1F7CB
100
AcDbEntity
  8
0
 48
50.0
100
AcDbBlockEnd
  0
BLOCK
  5
1F7E1
330
1F7D7
100
AcDbEntity
  8
0
 48
50.0
100
AcDbBlockBegin
  2
*D15
 70
     1
 10
0.0
 20
0.0
 30
0.0
  3
*D15
  1

  0
LINE
  5
1F930
330
1F7D7
100
AcDbEntity
  8
寸法
 62
     0
 48
50.0
370
    -2
100
AcDbLine
 10
8433.6
 20
6891.999999999999
 30
0.0
 11
8433.6
 21
7440.624237135961
 31
0.0
  0
LINE
  5
1F931
330
1F7D7
100
AcDbEntity
  8
寸法
 62
     0
 48
50.0
370
    -2
100
AcDbLine
 10
9160.6
 20
6891.999999999995
 30
0.0
 11
9160.6
 21
7440.624237135961
 31
0.0
  0
LINE
  5
1F932
330
1F7D7
100
AcDbEntity
  8
寸法
 62
     0
 48
50.0
370
    -2
100
AcDbLine
 10
8433.6
 20
7380.62423713596
 30
0.0
 11
9160.6
 21
7380.62423713596
 31
0.0
  0
INSERT
  5
1F933
330
1F7D7
100
AcDbEntity
  8
寸法
 62
     0
 48
50.0
370
    -2
100
AcDbBlockReference
  2
_DOTSMALL
 10
8433.6
 20
7380.62423713596
 30
0.0
 41
100.0
 42
100.0
 43
100.0
 50
180.0
  0
INSERT
  5
1F934
330
1F7D7
100
AcDbEntity
  8
寸法
 62
     0
 48
50.0
370
    -2
100
AcDbBlockReference
  2
_DOTSMALL
 10
9160.6
 20
7380.62423713596
 30
0.0
 41
100.0
 42
100.0
 43
100.0
  0
MTEXT
  5
1F935
330
1F7D7
100
AcDbEntity
  8
寸法
 62
     7
 48
50.0
100
AcDbMText
 10
8797.1
 20
7480.636048159581
 30
0.0
 40
120.0
 41
0.0
 71
     5
 72
     1
  1
\A1;727
  7
STYLE1
 73
     1
 44
1.0
1001
ACAD
1000
MTEXTBEGIN
1070
    73
1070
     1
1070
    44
1040
1.0
1070
    74
1070
     0
1000
MTEXTEND
  0
POINT
  5
1F936
330
1F7D7
100
AcDbEntity
  8
DEFPOINTS
 62
     0
 48
50.0
100
AcDbPoint
 10
8433.6
 20
6871.999999999998
 30
0.0
  0
POINT
  5
1F937
330
1F7D7
100
AcDbEntity
  8
DEFPOINTS
 62
     0
 48
50.0
100
AcDbPoint
 10
9160.6
 20
6871.999999999994
 30
0.0
  0
POINT
  5
1F938
330
1F7D7
100
AcDbEntity
  8
DEFPOINTS
 62
     0
 48
50.0
100
AcDbPoint
 10
9160.6
 20
7380.62423713596
 30
0.0
  0
ENDBLK
  5
1F7E2
330
1F7D7
100
AcDbEntity
  8
0
 48
50.0
100
AcDbBlockEnd
  0
BLOCK
  5
1F997
330
1F98D
100
AcDbEntity
  8
0
 48
50.0
100
AcDbBlockBegin
  2
*D16
 70
     1
 10
0.0
 20
0.0
 30
0.0
  3
*D16
  1

  0
LINE
  5
1F9C2
330
1F98D
100
AcDbEntity
  8
寸法
 62
     0
 48
50.0
370
    -2
100
AcDbLine
 10
10104.59999999999
 20
5624.999999999996
 30
0.0
 11
10408.66514751621
 21
5624.999999999996
 31
0.0
  0
LINE
  5
1F9C3
330
1F98D
100
AcDbEntity
  8
寸法
 62
     0
 48
50.0
370
    -2
100
AcDbLine
 10
10104.6
 20
5375.0
 30
0.0
 11
10408.66514751621
 21
5374.999999999999
 31
0.0
  0
LINE
  5
1F9C4
330
1F98D
100
AcDbEntity
  8
寸法
 62
     0
 48
50.0
370
    -2
100
AcDbLine
 10
10348.66514751621
 20
5624.999999999996
 30
0.0
 11
10348.66514751621
 21
5374.999999999999
 31
0.0
  0
INSERT
  5
1F9C5
330
1F98D
100
AcDbEntity
  8
寸法
 62
     0
 48
50.0
370
    -2
100
AcDbBlockReference
  2
_DOTSMALL
 10
10348.66514751621
 20
5624.999999999996
 30
0.0
 41
100.0
 42
100.0
 43
100.0
 50
90.0
  0
INSERT
  5
1F9C6
330
1F98D
100
AcDbEntity
  8
寸法
 62
     0
 48
50.0
370
    -2
100
AcDbBlockReference
  2
_DOTSMALL
 10
10348.66514751621
 20
5374.999999999999
 30
0.0
 41
100.0
 42
100.0
 43
100.0
 50
270.0
  0
MTEXT
  5
1F9C7
330
1F98D
100
AcDbEntity
  8
寸法
 62
     7
 48
50.0
100
AcDbMText
 10
10248.65333649258
 20
5500.0
 30
0.0
 40
120.0
 41
0.0
 71
     5
 72
     1
  1
\A1;250
  7
STYLE1
 11
0.0000000000000001
 21
1.0
 31
0.0
 73
     1
 44
1.0
1001
ACAD
1000
MTEXTBEGIN
1070
    73
1070
     1
1070
    44
1040
1.0
1070
    74
1070
     0
1000
MTEXTEND
  0
POINT
  5
1F9C8
330
1F98D
100
AcDbEntity
  8
DEFPOINTS
 62
     0
 48
50.0
100
AcDbPoint
 10
10084.59999999999
 20
5624.999999999996
 30
0.0
  0
POINT
  5
1F9C9
330
1F98D
100
AcDbEntity
  8
DEFPOINTS
 62
     0
 48
50.0
100
AcDbPoint
 10
10084.6
 20
5375.0
 30
0.0
  0
POINT
  5
1F9CA
330
1F98D
100
AcDbEntity
  8
DEFPOINTS
 62
     0
 48
50.0
100
AcDbPoint
 10
10348.66514751621
 20
5374.999999999999
 30
0.0
  0
ENDBLK
  5
1F998
330
1F98D
100
AcDbEntity
  8
0
 48
50.0
100
AcDbBlockEnd
  0
BLOCK
  5
1F9A3
330
1F999
100
AcDbEntity
  8
0
 48
50.0
100
AcDbBlockBegin
  2
*D17
 70
     1
 10
0.0
 20
0.0
 30
0.0
  3
*D17
  1

  0
LINE
  5
1F9B9
330
1F999
100
AcDbEntity
  8
寸法
 62
     0
 48
50.0
370
    -2
100
AcDbLine
 10
10084.6
 20
5354.999999999999
 30
0.0
 11
10084.6
 21
5086.674515054534
 31
0.0
  0
LINE
  5
1F9BA
330
1F999
100
AcDbEntity
  8
寸法
 62
     0
 48
50.0
370
    -2
100
AcDbLine
 10
9834.600000000001
 20
5354.999999999998
 30
0.0
 11
9834.600000000001
 21
5086.674515054534
 31
0.0
  0
LINE
  5
1F9BB
330
1F999
100
AcDbEntity
  8
寸法
 62
     0
 48
50.0
370
    -2
100
AcDbLine
 10
10084.6
 20
5146.674515054534
 30
0.0
 11
9834.600000000001
 21
5146.674515054534
 31
0.0
  0
INSERT
  5
1F9BC
330
1F999
100
AcDbEntity
  8
寸法
 62
     0
 48
50.0
370
    -2
100
AcDbBlockReference
  2
_DOTSMALL
 10
10084.6
 20
5146.674515054534
 30
0.0
 41
100.0
 42
100.0
 43
100.0
  0
INSERT
  5
1F9BD
330
1F999
100
AcDbEntity
  8
寸法
 62
     0
 48
50.0
370
    -2
100
AcDbBlockReference
  2
_DOTSMALL
 10
9834.600000000001
 20
5146.674515054534
 30
0.0
 41
100.0
 42
100.0
 43
100.0
 50
180.0
  0
MTEXT
  5
1F9BE
330
1F999
100
AcDbEntity
  8
寸法
 62
     7
 48
50.0
100
AcDbMText
 10
9959.600000000001
 20
5246.686326078155
 30
0.0
 40
120.0
 41
0.0
 71
     5
 72
     1
  1
\A1;250
  7
STYLE1
 73
     1
 44
1.0
1001
ACAD
1000
MTEXTBEGIN
1070
    73
1070
     1
1070
    44
1040
1.0
1070
    74
1070
     0
1000
MTEXTEND
  0
POINT
  5
1F9BF
330
1F999
100
AcDbEntity
  8
DEFPOINTS
 62
     0
 48
50.0
100
AcDbPoint
 10
10084.6
 20
5375.0
 30
0.0
  0
POINT
  5
1F9C0
330
1F999
100
AcDbEntity
  8
DEFPOINTS
 62
     0
 48
50.0
100
AcDbPoint
 10
9834.600000000001
 20
5374.999999999999
 30
0.0
  0
POINT
  5
1F9C1
330
1F999
100
AcDbEntity
  8
DEFPOINTS
 62
     0
 48
50.0
100
AcDbPoint
 10
9834.600000000001
 20
5146.674515054534
 30
0.0
  0
ENDBLK
  5
1F9A4
330
1F999
100
AcDbEntity
  8
0
 48
50.0
100
AcDbBlockEnd
  0
ENDSEC
  0
SECTION
  2
ENTITIES
  0
LINE
  5
10B57
330
747D
100
AcDbEntity
  8
補助
  6
PHANTOM
 62
   230
 48
50.0
100
AcDbLine
 10
139.9999999999995
 20
11409.6
 30
0.0
 11
16307.2
 21
11409.6
 31
0.0
  0
LINE
  5
10B59
330
747D
100
AcDbEntity
  8
仕様書枠
  6
Continuous
 48
50.0
100
AcDbLine
 10
13107.2
 20
1200.0
 30
0.0
 11
13107.2
 21
-0.0000000000000729
 31
0.0
  0
LINE
  5
10B5C
330
747D
100
AcDbEntity
  8
仕様書枠
 48
50.0
100
AcDbLine
 10
16307.2
 20
1200.0
 30
0.0
 11
16307.2
 21
-0.0000000000000909
 31
0.0
  0
LINE
  5
10B5D
330
747D
100
AcDbEntity
  8
仕様書枠
 48
50.0
100
AcDbLine
 10
140.0
 20
0.0
 30
0.0
 11
16307.2
 21
-0.0000000000000909
 31
0.0
  0
LINE
  5
10B5E
330
747D
100
AcDbEntity
  8
補助
  6
PHANTOM
 62
   230
 48
50.0
100
AcDbLine
 10
16307.2
 20
11409.6
 30
0.0
 11
16307.2
 21
1200.0
 31
0.0
  0
LINE
  5
10B6C
330
747D
100
AcDbEntity
  8
仕様書枠
 48
50.0
100
AcDbLine
 10
13107.2
 20
1200.0
 30
0.0
 11
16307.2
 21
1200.0
 31
0.0
  0
LINE
  5
10B6D
330
747D
100
AcDbEntity
  8
補助
  6
PHANTOM
 62
   230
 48
50.0
100
AcDbLine
 10
13107.2
 20
11409.6
 30
0.0
 11
13107.2
 21
4800.0
 31
0.0
  0
LINE
  5
10B6F
330
747D
100
AcDbEntity
  8
補助
  6
PHANTOM
 62
   230
 48
50.0
100
AcDbLine
 10
13107.2
 20
4800.0
 30
0.0
 11
16307.2
 21
4800.0
 31
0.0
  0
LINE
  5
10B72
330
747D
100
AcDbEntity
  8
文字
 62
     7
 48
50.0
100
AcDbLine
 10
13187.2
 20
400.0
 30
0.0
 11
16227.2
 21
400.0
 31
0.0
  0
TEXT
  5
10B73
330
747D
100
AcDbEntity
  8
文字
 62
     7
 48
50.0
100
AcDbText
 10
13162.9790565769
 20
895.0906074299405
 30
0.0
 40
200.0
  1
基 礎 図
  7
STYLE2
100
AcDbText
  0
TEXT
  5
10B74
330
747D
100
AcDbEntity
  8
文字
 62
     7
 48
50.0
100
AcDbText
 10
13201.43669998441
 20
477.2740661031255
 30
0.0
 40
160.0
  1
機種名
  7
STYLE2
100
AcDbText
  0
TEXT
  5
10B79
330
747D
100
AcDbEntity
  8
文字
 62
     7
 48
50.0
100
AcDbText
 10
14524.131837222
 20
1031.557706291228
 30
0.0
 40
100.0
  1
NO.23      <縮尺> S=1/40
  7
STYLE2
100
AcDbText
  0
LINE
  5
10B7B
330
747D
100
AcDbEntity
  8
仕様書枠
 48
50.0
100
AcDbLine
 10
13107.2
 20
800.0
 30
0.0
 11
14251.2
 21
800.0
 31
0.0
  0
LINE
  5
10B88
330
747D
100
AcDbEntity
  8
仕様書枠
  6
Continuous
 48
50.0
100
AcDbLine
 10
14251.2
 20
1200.0
 30
0.0
 11
14251.2
 21
800.0
 31
0.0
  0
TEXT
  5
14DEF
330
747D
100
AcDbEntity
  8
文字
 62
     7
 48
50.0
100
AcDbText
 10
14641.2525855784
 20
871.1744590657925
 30
0.0
 40
100.0
  1
～一般型・多雪地型～
  7
STYLE2
100
AcDbText
  0
TEXT
  5
15A76
330
747D
100
AcDbEntity
  8
文字
 62
     7
 48
50.0
100
AcDbText
 10
14482.61482192223
 20
488.1241585855691
 30
0.0
 40
160.0
  1
ＮＸＮ－４５Ｓ
  7
STYLE2
100
AcDbText
  0
LINE
  5
1CAC7
330
747D
100
AcDbEntity
  8
部品1
 48
50.0
100
AcDbLine
 10
7297.6
 20
6871.999999999998
 30
0.0
 11
6907.600000000001
 21
6871.999999999998
 31
0.0
  0
LINE
  5
1CAC8
330
747D
100
AcDbEntity
  8
部品1
 48
50.0
100
AcDbLine
 10
7297.6
 20
6871.999999999994
 30
0.0
 11
6907.600000000001
 21
6871.999999999998
 31
0.0
  0
TEXT
  5
1D002
330
747D
100
AcDbEntity
  8
文字
 62
     7
 48
50.0
100
AcDbText
 10
13188.16259899338
 20
246.7109242801889
 30
0.0
 40
80.0
  1
※寒冷地等は地域の実情に合わせた基礎にして下さい。
  7
STYLE2
100
AcDbText
  0
LINE
  5
1F240
330
747D
100
AcDbEntity
  8
部品1
 48
50.0
100
AcDbLine
 10
3950.99024270643
 20
2296.040417142245
 30
0.0
 11
10350.99024270643
 21
2296.040417142245
 31
0.0
  0
LINE
  5
1F241
330
747D
100
AcDbEntity
  8
部品1
 48
50.0
100
AcDbLine
 10
10350.99024270643
 20
2536.040417142245
 30
0.0
 11
5550.990242706429
 21
2536.040417142245
 31
0.0
  0
LINE
  5
1F242
330
747D
100
AcDbEntity
  8
部品1
 48
50.0
100
AcDbLine
 10
10350.99024270643
 20
2776.040417142245
 30
0.0
 11
3950.99024270643
 21
2776.040417142247
 31
0.0
  0
LINE
  5
1F243
330
747D
100
AcDbEntity
  8
部品1
 48
50.0
100
AcDbLine
 10
3950.99024270643
 20
376.0404171422451
 30
0.0
 11
10350.99024270643
 21
376.0404171422451
 31
0.0
  0
TEXT
  5
1F244
330
747D
100
AcDbEntity
  8
部品1
100
AcDbText
 10
7204.717559085122
 20
2590.104231744979
 30
0.0
 40
120.0
  1
アンカー部詳細
  7
STYLE2
100
AcDbText
  0
LINE
  5
1F245
330
747D
100
AcDbEntity
  8
細線
100
AcDbLine
 10
4746.476751741222
 20
1216.801204753999
 30
0.0
 11
4846.476751741218
 21
1316.801204754001
 31
0.0
  0
LINE
  5
1F246
330
747D
100
AcDbEntity
  8
細線
100
AcDbLine
 10
4821.906201119811
 20
1316.801204754001
 30
0.0
 11
4621.906201119815
 21
1516.801204753999
 31
0.0
  0
LEADER
  5
1F247
330
747D
100
AcDbEntity
  8
寸法
 48
50.0
100
AcDbLeader
  3
INABA_S50G
 71
     0
 73
     0
 74
     0
 75
     1
 40
120.0
 41
185.591883092037
 76
     3
 10
4675.863993280658
 20
1516.801204753999
 30
0.0
 10
4831.127575851835
 20
1729.653122562767
 30
0.0
 10
4956.127575851835
 20
1729.653122562767
 30
0.0
340
1F248
213
67.73172584638814
223
0.0
233
0.0
1001
ACAD
1000
DSTYLE
1002
{
1070
    40
1040
1.0
1002
}
  0
MTEXT
  5
1F248
102
{ACAD_REACTORS
330
1F247
102
}
330
747D
100
AcDbEntity
  8
寸法
 62
     7
 48
50.0
100
AcDbMText
 10
4913.395850005446
 20
1814.653122562768
 30
0.0
 40
120.0
 41
1.0
 71
     4
 72
     1
  1
\A1;C.B
  7
STYLE1
 73
     1
 44
1.0
1001
ACAD
1000
MTEXTBEGIN
1070
    73
1070
     1
1070
    44
1040
1.0
1070
    74
1070
     0
1000
MTEXTEND
  0
TEXT
  5
1F249
330
747D
100
AcDbEntity
  8
部品1
100
AcDbText
 10
4416.59026371123
 20
2484.012634320567
 30
0.0
 40
120.0
  1
基礎詳細
  7
STYLE2
100
AcDbText
  0
LINE
  5
1F24A
330
747D
100
AcDbEntity
  8
細線
100
AcDbLine
 10
4864.332607991004
 20
1316.801204754001
 30
0.0
 11
4664.332607991007
 21
1516.801204753999
 31
0.0
  0
LINE
  5
1F24B
330
747D
100
AcDbEntity
  8
Ｇ．Ｌ
100
AcDbLine
 10
4045.762987235331
 20
1316.801204754001
 30
0.0
 11
5476.656271058491
 21
1316.801204754001
 31
0.0
  0
LINE
  5
1F24C
330
747D
100
AcDbEntity
  8
部品1
100
AcDbLine
 10
4475.863993280658
 20
1516.801204753999
 30
0.0
 11
4875.863993280654
 21
1516.801204753999
 31
0.0
  0
LINE
  5
1F24D
330
747D
100
AcDbEntity
  8
部品1
100
AcDbLine
 10
4375.863993280654
 20
1216.801204753998
 30
0.0
 11
4975.863993280654
 21
1216.801204753999
 31
0.0
  0
LINE
  5
1F24E
330
747D
100
AcDbEntity
  8
部品1
100
AcDbLine
 10
4375.863993280654
 20
1016.801204753996
 30
0.0
 11
4975.863993280654
 21
1016.801204753999
 31
0.0
  0
LINE
  5
1F24F
330
747D
100
AcDbEntity
  8
部品1
 48
50.0
100
AcDbLine
 10
3950.99024270643
 20
2776.040417142245
 30
0.0
 11
3950.99024270643
 21
376.0404171422451
 31
0.0
  0
LINE
  5
1F250
330
747D
100
AcDbEntity
  8
細線
100
AcDbLine
 10
4475.863993280658
 20
1216.801204753998
 30
0.0
 11
4529.453831766877
 21
1016.801204753994
 31
0.0
  0
LINE
  5
1F251
330
747D
100
AcDbEntity
  8
細線
100
AcDbLine
 10
4575.863993280655
 20
1216.801204753999
 30
0.0
 11
4629.453831766877
 21
1016.801204753996
 31
0.0
  0
LINE
  5
1F252
330
747D
100
AcDbEntity
  8
細線
100
AcDbLine
 10
4675.863993280654
 20
1216.801204753999
 30
0.0
 11
4729.453831766881
 21
1016.801204753996
 31
0.0
  0
LINE
  5
1F253
330
747D
100
AcDbEntity
  8
細線
100
AcDbLine
 10
4375.863993280654
 20
1216.801204753998
 30
0.0
 11
4429.45383176688
 21
1016.801204753994
 31
0.0
  0
LINE
  5
1F254
330
747D
100
AcDbEntity
  8
部品1
100
AcDbLine
 10
4375.863993280654
 20
1016.801204753996
 30
0.0
 11
4375.863993280654
 21
1316.801204754001
 31
0.0
  0
LINE
  5
1F255
330
747D
100
AcDbEntity
  8
細線
100
AcDbLine
 10
4516.056372145325
 20
1066.801204753998
 30
0.0
 11
4502.658912523766
 21
1016.801204753996
 31
0.0
  0
LINE
  5
1F256
330
747D
100
AcDbEntity
  8
細線
100
AcDbLine
 10
4416.056372145322
 20
1066.801204753998
 30
0.0
 11
4402.658912523766
 21
1016.801204753996
 31
0.0
  0
LINE
  5
1F257
330
747D
100
AcDbEntity
  8
細線
100
AcDbLine
 10
4616.056372145322
 20
1066.801204753999
 30
0.0
 11
4602.65891252377
 21
1016.801204753999
 31
0.0
  0
LINE
  5
1F258
330
747D
100
AcDbEntity
  8
細線
100
AcDbLine
 10
4716.056372145322
 20
1066.801204753999
 30
0.0
 11
4702.658912523766
 21
1016.801204753999
 31
0.0
  0
LINE
  5
1F259
330
747D
100
AcDbEntity
  8
部品1
100
AcDbLine
 10
4475.863993280658
 20
1316.801204754001
 30
0.0
 11
4475.863993280658
 21
1516.801204753999
 31
0.0
  0
LINE
  5
1F25A
330
747D
100
AcDbEntity
  8
細線
100
AcDbLine
 10
4638.05843801131
 20
1316.801204754001
 30
0.0
 11
4475.863993280654
 21
1478.995649484654
 31
0.0
  0
LINE
  5
1F25B
330
747D
100
AcDbEntity
  8
細線
100
AcDbLine
 10
4503.045294236147
 20
1216.801204753999
 30
0.0
 11
4603.045294236144
 21
1316.801204754001
 31
0.0
  0
LINE
  5
1F25C
330
747D
100
AcDbEntity
  8
細線
100
AcDbLine
 10
4595.632031140118
 20
1316.801204754001
 30
0.0
 11
4475.863993280658
 21
1436.569242613461
 31
0.0
  0
LINE
  5
1F25D
330
747D
100
AcDbEntity
  8
細線
100
AcDbLine
 10
4474.761022988685
 20
1216.801204753999
 30
0.0
 11
4574.761022988681
 21
1316.801204754001
 31
0.0
  0
LINE
  5
1F25E
330
747D
100
AcDbEntity
  8
細線
100
AcDbLine
 10
4446.476751741221
 20
1216.801204753998
 30
0.0
 11
4546.476751741222
 21
1316.801204754001
 31
0.0
  0
LINE
  5
1F25F
330
747D
100
AcDbEntity
  8
細線
100
AcDbLine
 10
4502.658912523766
 20
1216.801204753998
 30
0.0
 11
4489.26145290221
 21
1166.801204753996
 31
0.0
  0
LINE
  5
1F260
330
747D
100
AcDbEntity
  8
細線
100
AcDbLine
 10
4402.658912523766
 20
1216.801204753998
 30
0.0
 11
4389.261452902213
 21
1166.801204753996
 31
0.0
  0
LINE
  5
1F261
330
747D
100
AcDbEntity
  8
細線
100
AcDbLine
 10
4602.65891252377
 20
1216.801204753999
 30
0.0
 11
4589.26145290221
 21
1166.801204754001
 31
0.0
  0
LINE
  5
1F262
330
747D
100
AcDbEntity
  8
細線
100
AcDbLine
 10
4702.658912523766
 20
1216.801204753999
 30
0.0
 11
4689.261452902214
 21
1166.801204754001
 31
0.0
  0
LINE
  5
1F263
330
747D
100
AcDbEntity
  8
細線
 48
50.0
100
AcDbLine
 10
5788.69794496963
 20
2116.801204753998
 30
0.0
 11
5788.69794496963
 21
1616.801204753999
 31
0.0
  0
LINE
  5
1F264
330
747D
100
AcDbEntity
  8
細線
 48
50.0
100
AcDbLine
 10
5818.69794496963
 20
2116.801204753998
 30
0.0
 11
5818.69794496963
 21
1616.801204753999
 31
0.0
  0
LINE
  5
1F265
330
747D
100
AcDbEntity
  8
細線
 48
50.0
100
AcDbLine
 10
6098.69794496963
 20
2116.801204753998
 30
0.0
 11
6098.69794496963
 21
1616.801204753999
 31
0.0
  0
LINE
  5
1F266
330
747D
100
AcDbEntity
  8
細線
 48
50.0
100
AcDbLine
 10
6068.69794496963
 20
2116.801204753998
 30
0.0
 11
6068.69794496963
 21
1616.801204753999
 31
0.0
  0
LINE
  5
1F267
330
747D
100
AcDbEntity
  8
部品1
 48
50.0
100
AcDbLine
 10
7150.990242706431
 20
2536.040417142245
 30
0.0
 11
7150.990242706431
 21
376.0404171422451
 31
0.0
  0
LINE
  5
1F268
330
747D
100
AcDbEntity
  8
部品1
 48
50.0
100
AcDbLine
 10
5550.990242706429
 20
2776.040417142245
 30
0.0
 11
5550.990242706429
 21
376.0404171422451
 31
0.0
  0
LINE
  5
1F269
330
747D
100
AcDbEntity
  8
部品1
100
AcDbLine
 10
6333.69794496963
 20
2116.801204753998
 30
0.0
 11
6333.69794496963
 21
1316.801204753999
 31
0.0
  0
LINE
  5
1F26A
330
747D
100
AcDbEntity
  8
部品1
100
AcDbLine
 10
6223.69794496963
 20
2116.801204753998
 30
0.0
 11
6223.697944969633
 21
1610.801204754001
 31
0.0
  0
LINE
  5
1F26B
330
747D
100
AcDbEntity
  8
部品1
100
AcDbLine
 10
5618.443511726036
 20
1610.801204754
 30
0.0
 11
6333.69794496963
 21
1610.801204754
 31
0.0
  0
DIMENSION
  5
1F26C
330
747D
100
AcDbEntity
  8
寸法
 48
50.0
100
AcDbDimension
  2
*D2
 10
5981.806274343646
 20
816.8012047539995
 30
0.0
 11
5981.806274343646
 21
1064.461580132465
 31
0.0
 70
   160
  1
250
 71
     5
 42
500.0
  3
INABA_S40G
100
AcDbAlignedDimension
 13
5933.69794496963
 23
1316.801204753999
 33
0.0
 14
6033.69794496963
 24
816.8012047539995
 34
0.0
 50
90.0
100
AcDbRotatedDimension
1001
ACAD
1000
DSTYLE
1002
{
1070
   174
1070
     0
1070
   272
1070
     1
1070
   288
1070
     0
1070
   341
1005
0
1002
}
  0
LINE
  5
1F26D
330
747D
100
AcDbEntity
  8
Ｇ．Ｌ
100
AcDbLine
 10
5618.443511726036
 20
1316.801204753999
 30
0.0
 11
6253.69794496963
 21
1316.801204753999
 31
0.0
  0
LINE
  5
1F26E
330
747D
100
AcDbEntity
  8
部品1
100
AcDbLine
 10
5618.443511726036
 20
1516.801204753999
 30
0.0
 11
6253.69794496963
 21
1516.801204753999
 31
0.0
  0
LINE
  5
1F26F
330
747D
100
AcDbEntity
  8
部品1
100
AcDbLine
 10
5618.443511726036
 20
1616.801204754001
 30
0.0
 11
6223.69794496963
 21
1616.801204753999
 31
0.0
  0
LINE
  5
1F270
330
747D
100
AcDbEntity
  8
細線
100
AcDbLine
 10
4875.863993280654
 20
1216.801204753999
 30
0.0
 11
4929.453831766878
 21
1016.801204753999
 31
0.0
  0
LINE
  5
1F271
330
747D
100
AcDbEntity
  8
細線
100
AcDbLine
 10
4775.863993280657
 20
1216.801204753999
 30
0.0
 11
4829.453831766877
 21
1016.801204753996
 31
0.0
  0
LINE
  5
1F272
330
747D
100
AcDbEntity
  8
部品1
100
AcDbLine
 10
4975.863993280654
 20
1316.801204754001
 30
0.0
 11
4975.863993280654
 21
1016.801204753999
 31
0.0
  0
LINE
  5
1F273
330
747D
100
AcDbEntity
  8
細線
100
AcDbLine
 10
4916.056372145322
 20
1066.801204753999
 30
0.0
 11
4902.65891252377
 21
1016.801204753999
 31
0.0
  0
LINE
  5
1F274
330
747D
100
AcDbEntity
  8
細線
100
AcDbLine
 10
4816.056372145325
 20
1066.801204753999
 30
0.0
 11
4802.658912523766
 21
1016.801204753999
 31
0.0
  0
TEXT
  5
1F275
330
747D
100
AcDbEntity
  8
部品1
100
AcDbText
 10
5099.116619148084
 20
1324.707246432905
 30
0.0
 40
120.0
  1
▽G.L
  7
STYLE1
100
AcDbText
  0
LINE
  5
1F276
330
747D
100
AcDbEntity
  8
部品1
100
AcDbLine
 10
4875.863993280654
 20
1516.801204753999
 30
0.0
 11
4875.863993280654
 21
1316.801204754001
 31
0.0
  0
LINE
  5
1F277
330
747D
100
AcDbEntity
  8
細線
100
AcDbLine
 10
4803.045294236144
 20
1216.801204753999
 30
0.0
 11
4903.045294236144
 21
1316.801204754001
 31
0.0
  0
LINE
  5
1F278
330
747D
100
AcDbEntity
  8
細線
100
AcDbLine
 10
4774.761022988685
 20
1216.801204753999
 30
0.0
 11
4874.761022988682
 21
1316.801204754001
 31
0.0
  0
LINE
  5
1F279
330
747D
100
AcDbEntity
  8
細線
100
AcDbLine
 10
4902.65891252377
 20
1216.801204753999
 30
0.0
 11
4889.261452902211
 21
1166.801204754001
 31
0.0
  0
LINE
  5
1F27A
330
747D
100
AcDbEntity
  8
細線
100
AcDbLine
 10
4802.658912523766
 20
1216.801204753999
 30
0.0
 11
4789.26145290221
 21
1166.801204754001
 31
0.0
  0
LINE
  5
1F27B
330
747D
100
AcDbEntity
  8
部品1
 48
50.0
100
AcDbLine
 10
6533.69794496963
 20
816.8012047540013
 30
0.0
 11
6033.69794496963
 21
816.8012047539995
 31
0.0
  0
TEXT
  5
1F27C
330
747D
100
AcDbEntity
  8
部品1
100
AcDbText
 10
6718.261492039241
 20
1324.707246432903
 30
0.0
 40
120.0
  1
▽G.L
  7
STYLE1
100
AcDbText
  0
LINE
  5
1F27D
330
747D
100
AcDbEntity
  8
細線
  6
HIDDEN
 48
10.0
100
AcDbLine
 10
6268.424673871589
 20
816.8012047539995
 30
0.0
 11
6533.69794496963
 21
1082.07447585205
 31
0.0
  0
LINE
  5
1F27E
330
747D
100
AcDbEntity
  8
細線
  6
HIDDEN
 48
10.0
100
AcDbLine
 10
6240.140402624128
 20
816.8012047539995
 30
0.0
 11
6533.69794496963
 21
1110.358747099511
 31
0.0
  0
LINE
  5
1F27F
330
747D
100
AcDbEntity
  8
細線
  6
HIDDEN
 48
10.0
100
AcDbLine
 10
6296.708945119048
 20
816.8012047539995
 30
0.0
 11
6533.69794496963
 21
1053.790204604587
 31
0.0
  0
LINE
  5
1F280
330
747D
100
AcDbEntity
  8
Ｇ．Ｌ
100
AcDbLine
 10
6333.69794496963
 20
1316.801204753999
 30
0.0
 11
7085.794187207968
 21
1316.801204753999
 31
0.0
  0
LINE
  5
1F281
330
747D
100
AcDbEntity
  8
部品1
 48
50.0
100
AcDbLine
 10
6033.69794496963
 20
816.8012047539995
 30
0.0
 11
6033.69794496963
 21
1316.801204753999
 31
0.0
  0
LINE
  5
1F282
330
747D
100
AcDbEntity
  8
細線
  6
HIDDEN
 48
10.0
100
AcDbLine
 10
6033.69794496963
 20
1008.732864704872
 30
0.0
 11
6246.960270922864
 21
1221.995190658117
 31
0.0
  0
LINE
  5
1F283
330
747D
100
AcDbEntity
  8
細線
  6
HIDDEN
 48
10.0
100
AcDbLine
 10
6033.69794496963
 20
1037.017135952332
 30
0.0
 11
6250.177171119467
 21
1253.496362102176
 31
0.0
  0
LINE
  5
1F284
330
747D
100
AcDbEntity
  8
細線
  6
HIDDEN
 48
10.0
100
AcDbLine
 10
6033.69794496963
 20
980.4485934574076
 30
0.0
 11
6243.743370726253
 21
1190.494019214053
 31
0.0
  0
LINE
  5
1F285
330
747D
100
AcDbEntity
  8
部品1
100
AcDbLine
 10
6252.801175961562
 20
1279.191665452901
 30
0.0
 11
6223.69794496963
 21
994.2012047539993
 31
0.0
  0
LINE
  5
1F286
330
747D
100
AcDbEntity
  8
部品1
100
AcDbLine
 10
6334.594713977705
 20
1279.191665452901
 30
0.0
 11
6363.69794496963
 21
994.2012047539993
 31
0.0
  0
LINE
  5
1F287
330
747D
100
AcDbEntity
  8
部品1
100
AcDbLine
 10
6223.69794496963
 20
994.2012047539993
 30
0.0
 11
6363.69794496963
 21
994.2012047539993
 31
0.0
  0
LINE
  5
1F288
330
747D
100
AcDbEntity
  8
部品1
100
AcDbLine
 10
6223.69794496963
 20
982.2012047539992
 30
0.0
 11
6363.69794496963
 21
982.2012047539992
 31
0.0
  0
LINE
  5
1F289
330
747D
100
AcDbEntity
  8
部品1
100
AcDbLine
 10
6223.69794496963
 20
994.2012047539973
 30
0.0
 11
6223.69794496963
 21
982.2012047539992
 31
0.0
  0
LINE
  5
1F28A
330
747D
100
AcDbEntity
  8
細線
100
AcDbLine
 10
6278.69794496963
 20
1006.201204754001
 30
0.0
 11
6308.69794496963
 21
1006.201204753997
 31
0.0
  0
LINE
  5
1F28B
330
747D
100
AcDbEntity
  8
細線
100
AcDbLine
 10
6278.69794496963
 20
1012.201204754001
 30
0.0
 11
6308.69794496963
 21
1012.201204753997
 31
0.0
  0
LINE
  5
1F28C
330
747D
100
AcDbEntity
  8
細線
100
AcDbLine
 10
6278.69794496963
 20
1052.201204754003
 30
0.0
 11
6308.69794496963
 21
1052.201204753997
 31
0.0
  0
LINE
  5
1F28D
330
747D
100
AcDbEntity
  8
細線
100
AcDbLine
 10
6278.69794496963
 20
1046.201204754003
 30
0.0
 11
6308.69794496963
 21
1046.201204753997
 31
0.0
  0
LINE
  5
1F28E
330
747D
100
AcDbEntity
  8
細線
100
AcDbLine
 10
6278.69794496963
 20
1012.201204754001
 30
0.0
 11
6278.69794496963
 21
1006.201204753997
 31
0.0
  0
LINE
  5
1F28F
330
747D
100
AcDbEntity
  8
細線
100
AcDbLine
 10
6278.69794496963
 20
1052.201204754003
 30
0.0
 11
6278.69794496963
 21
1046.201204753997
 31
0.0
  0
LINE
  5
1F290
330
747D
100
AcDbEntity
  8
細線
100
AcDbLine
 10
6308.69794496963
 20
1012.201204753995
 30
0.0
 11
6308.69794496963
 21
1006.201204753995
 31
0.0
  0
LINE
  5
1F291
330
747D
100
AcDbEntity
  8
細線
100
AcDbLine
 10
6308.69794496963
 20
1052.201204753994
 30
0.0
 11
6308.69794496963
 21
1046.201204753994
 31
0.0
  0
LINE
  5
1F292
330
747D
100
AcDbEntity
  8
部品1
100
AcDbLine
 10
6363.69794496963
 20
994.2012047539993
 30
0.0
 11
6363.69794496963
 21
982.2012047539992
 31
0.0
  0
LINE
  5
1F293
330
747D
100
AcDbEntity
  8
細線
100
AcDbLine
 10
6062.152614533021
 20
1316.801204753999
 30
0.0
 11
5933.69794496963
 21
1445.255874317392
 31
0.0
  0
LINE
  5
1F294
330
747D
100
AcDbEntity
  8
細線
100
AcDbLine
 10
6246.000377641525
 20
1316.801204753999
 30
0.0
 11
6046.000377641525
 21
1516.801204753999
 31
0.0
  0
LINE
  5
1F295
330
747D
100
AcDbEntity
  8
部品1
100
AcDbLine
 10
5933.69794496963
 20
1316.801204753999
 30
0.0
 11
5933.69794496963
 21
1516.801204753999
 31
0.0
  0
LINE
  5
1F296
330
747D
100
AcDbEntity
  8
細線
100
AcDbLine
 10
6019.726207661828
 20
1316.801204753999
 30
0.0
 11
5933.69794496963
 21
1402.829467446199
 31
0.0
  0
LINE
  5
1F297
330
747D
100
AcDbEntity
  8
細線
100
AcDbLine
 10
6253.69794496963
 20
1351.530044297087
 30
0.0
 11
6088.426784512718
 21
1516.801204753999
 31
0.0
  0
LINE
  5
1F298
330
747D
100
AcDbEntity
  8
部品1
100
AcDbLine
 10
6333.69794496963
 20
1579.801204754
 30
0.0
 11
6333.697944969634
 21
1282.446673742008
 31
0.0
  0
LINE
  5
1F299
330
747D
100
AcDbEntity
  8
部品1
100
AcDbLine
 10
6253.69794496963
 20
1580.801204753999
 30
0.0
 11
6253.69794496963
 21
1282.446673742008
 31
0.0
  0
LINE
  5
1F29A
330
747D
100
AcDbEntity
  8
部品1
100
AcDbLine
 10
6262.752004449875
 20
1288.201204753999
 30
0.0
 11
6324.643885489386
 21
1288.201204753994
 31
0.0
  0
ARC
  5
1F29B
330
747D
100
AcDbEntity
  8
部品1
100
AcDbCircle
 10
6262.752004449875
 20
1278.201204753997
 30
0.0
 40
10.0
100
AcDbArc
 50
90.0
 51
174.3157584018144
  0
LINE
  5
1F29C
330
747D
100
AcDbEntity
  8
細線
  6
HIDDEN
 48
10.0
100
AcDbLine
 10
6333.69794496963
 20
1308.732864704887
 30
0.0
 11
6341.766285018745
 21
1316.801204753999
 31
0.0
  0
LINE
  5
1F29D
330
747D
100
AcDbEntity
  8
細線
  6
HIDDEN
 48
10.0
100
AcDbLine
 10
6334.245390626518
 20
1280.996039114318
 30
0.0
 11
6370.0505562662
 21
1316.801204754001
 31
0.0
  0
ARC
  5
1F29E
330
747D
100
AcDbEntity
  8
部品1
100
AcDbCircle
 10
6324.643885489386
 20
1278.201204753994
 30
0.0
 40
10.0
100
AcDbArc
 50
5.68424159818561
 51
90.0
  0
CIRCLE
  5
1F29F
330
747D
100
AcDbEntity
  8
細線
100
AcDbCircle
 10
6293.69794496963
 20
1420.801204754001
 30
0.0
 40
6.0
  0
CIRCLE
  5
1F2A0
330
747D
100
AcDbEntity
  8
細線
100
AcDbCircle
 10
6293.69794496963
 20
1420.801204754001
 30
0.0
 40
7.0
  0
CIRCLE
  5
1F2A1
330
747D
100
AcDbEntity
  8
細線
100
AcDbCircle
 10
6293.69794496963
 20
1265.801204753999
 30
0.0
 40
16.0
  0
LINE
  5
1F2A2
330
747D
100
AcDbEntity
  8
細線
100
AcDbLine
 10
6278.69794496963
 20
1196.201204754001
 30
0.0
 11
6279.69794496963
 21
1196.201204754001
 31
0.0
  0
LINE
  5
1F2A3
330
747D
100
AcDbEntity
  8
細線
100
AcDbLine
 10
6278.69794496963
 20
1202.201204754001
 30
0.0
 11
6308.69794496963
 21
1202.201204753997
 31
0.0
  0
ARC
  5
1F2A4
330
747D
100
AcDbEntity
  8
細線
100
AcDbCircle
 10
6293.69794496963
 20
1226.201204753995
 30
0.0
 40
8.0
100
AcDbArc
 50
180.0
 51
0.0
  0
LINE
  5
1F2A5
330
747D
100
AcDbEntity
  8
細線
100
AcDbLine
 10
6278.69794496963
 20
1202.201204754001
 30
0.0
 11
6278.69794496963
 21
1196.201204753997
 31
0.0
  0
LINE
  5
1F2A6
330
747D
100
AcDbEntity
  8
細線
100
AcDbLine
 10
6278.69794496963
 20
1200.801204753994
 30
0.0
 11
6308.69794496963
 21
1200.801204753999
 31
0.0
  0
LINE
  5
1F2A7
330
747D
100
AcDbEntity
  8
細線
100
AcDbLine
 10
6285.821050595252
 20
1184.20120475399
 30
0.0
 11
6301.574839344016
 21
1184.201204753995
 31
0.0
  0
LINE
  5
1F2A8
330
747D
100
AcDbEntity
  8
細線
100
AcDbLine
 10
6279.69794496963
 20
1200.801204753994
 30
0.0
 11
6279.69794496963
 21
1196.201204753997
 31
0.0
  0
LINE
  5
1F2A9
330
747D
100
AcDbEntity
  8
細線
100
AcDbLine
 10
6279.69794496963
 20
1196.201204753996
 30
0.0
 11
6281.940480594669
 21
1187.231062253846
 31
0.0
  0
ARC
  5
1F2AA
330
747D
100
AcDbEntity
  8
細線
100
AcDbCircle
 10
6285.821050595252
 20
1188.201204753992
 30
0.0
 40
4.0
100
AcDbArc
 50
194.036243467977
 51
270.0
  0
LINE
  5
1F2AB
330
747D
100
AcDbEntity
  8
細線
100
AcDbLine
 10
6307.69794496963
 20
1200.801204753996
 30
0.0
 11
6307.69794496963
 21
1196.201204753997
 31
0.0
  0
LINE
  5
1F2AC
330
747D
100
AcDbEntity
  8
細線
100
AcDbLine
 10
6307.69794496963
 20
1196.201204753996
 30
0.0
 11
6305.455409344592
 21
1187.231062253846
 31
0.0
  0
ARC
  5
1F2AD
330
747D
100
AcDbEntity
  8
細線
100
AcDbCircle
 10
6301.574839344016
 20
1188.201204753994
 30
0.0
 40
4.0
100
AcDbArc
 50
270.0
 51
345.963756532023
  0
LINE
  5
1F2AE
330
747D
100
AcDbEntity
  8
細線
100
AcDbLine
 10
6308.69794496963
 20
1202.201204753995
 30
0.0
 11
6308.69794496963
 21
1196.201204753996
 31
0.0
  0
LINE
  5
1F2AF
330
747D
100
AcDbEntity
  8
細線
100
AcDbLine
 10
6307.69794496963
 20
1196.201204754001
 30
0.0
 11
6308.69794496963
 21
1196.201204753997
 31
0.0
  0
LINE
  5
1F2B0
330
747D
100
AcDbEntity
  8
細線
100
AcDbLine
 10
6301.69794496963
 20
1251.944798293449
 30
0.0
 11
6301.69794496963
 21
1226.201204753995
 31
0.0
  0
LINE
  5
1F2B1
330
747D
100
AcDbEntity
  8
細線
100
AcDbLine
 10
6285.69794496963
 20
1251.944798293449
 30
0.0
 11
6285.69794496963
 21
1226.201204753995
 31
0.0
  0
LINE
  5
1F2B2
330
747D
100
AcDbEntity
  8
部品1
100
AcDbLine
 10
6263.697944969631
 20
1590.801204753999
 30
0.0
 11
6323.69794496963
 21
1590.801204753999
 31
0.0
  0
ARC
  5
1F2B3
330
747D
100
AcDbEntity
  8
部品1
100
AcDbCircle
 10
6263.697944969631
 20
1580.801204753999
 30
0.0
 40
10.0
100
AcDbArc
 50
90.0
 51
180.0
  0
ARC
  5
1F2B4
330
747D
100
AcDbEntity
  8
細線
100
AcDbCircle
 10
6293.69794496963
 20
1530.801204754
 30
0.0
 40
8.0
100
AcDbArc
 50
0.0
 51
180.0
  0
ARC
  5
1F2B5
330
747D
100
AcDbEntity
  8
細線
100
AcDbCircle
 10
6293.69794496963
 20
1490.801204753999
 30
0.0
 40
8.0
100
AcDbArc
 50
180.0
 51
0.0
  0
LINE
  5
1F2B6
330
747D
100
AcDbEntity
  8
細線
100
AcDbLine
 10
6285.69794496963
 20
1530.801204754
 30
0.0
 11
6285.69794496963
 21
1490.801204753999
 31
0.0
  0
LINE
  5
1F2B7
330
747D
100
AcDbEntity
  8
細線
100
AcDbLine
 10
6301.69794496963
 20
1530.801204754
 30
0.0
 11
6301.69794496963
 21
1490.801204753999
 31
0.0
  0
ARC
  5
1F2B8
330
747D
100
AcDbEntity
  8
部品1
100
AcDbCircle
 10
6323.69794496963
 20
1580.801204753999
 30
0.0
 40
10.0
100
AcDbArc
 50
0.0
 51
90.0
  0
CIRCLE
  5
1F2B9
330
747D
100
AcDbEntity
  8
部品1
100
AcDbCircle
 10
6293.69794496963
 20
1560.801204754
 30
0.0
 40
16.0
  0
LINE
  5
1F2BA
330
747D
100
AcDbEntity
  8
部品1
 48
50.0
100
AcDbLine
 10
6533.69794496963
 20
1316.801204753999
 30
0.0
 11
6533.69794496963
 21
816.8012047540013
 31
0.0
  0
TEXT
  5
1F2BB
330
747D
100
AcDbEntity
  8
部品1
100
AcDbText
 10
5763.143604145
 20
2354.325533483449
 30
0.0
 40
120.0
  1
地盤が土の場合
  7
STYLE2
100
AcDbText
  0
TEXT
  5
1F2BC
330
747D
100
AcDbEntity
  8
部品1
100
AcDbText
 10
9897.156285347501
 20
1324.707246432903
 30
0.0
 40
120.0
  1
▽G.L
  7
STYLE1
100
AcDbText
  0
LINE
  5
1F2BD
330
747D
100
AcDbEntity
  8
細線
 48
10.0
100
AcDbLine
 10
9917.877740334359
 20
1009.883007414715
 30
0.0
 11
10224.79593767364
 21
1316.801204753999
 31
0.0
  0
LINE
  5
1F2BE
330
747D
100
AcDbEntity
  8
細線
 48
10.0
100
AcDbLine
 10
9889.593469086893
 20
1009.883007414715
 30
0.0
 11
10196.51166642616
 21
1316.801204753999
 31
0.0
  0
LINE
  5
1F2BF
330
747D
100
AcDbEntity
  8
細線
 48
10.0
100
AcDbLine
 10
9861.309197839437
 20
1009.883007414715
 30
0.0
 11
10168.22739517871
 21
1316.801204753999
 31
0.0
  0
LINE
  5
1F2C0
330
747D
100
AcDbEntity
  8
Ｇ．Ｌ
100
AcDbLine
 10
8824.288653897005
 20
1316.801204753999
 30
0.0
 11
10269.18035590215
 21
1316.801204753999
 31
0.0
  0
LINE
  5
1F2C1
330
747D
100
AcDbEntity
  8
部品1
100
AcDbLine
 10
9337.086050695715
 20
2216.801204753998
 30
0.0
 11
9337.086050695718
 21
1710.801204754001
 31
0.0
  0
LINE
  5
1F2C2
330
747D
100
AcDbEntity
  8
部品1
100
AcDbLine
 10
9447.086050695714
 20
2216.801204753998
 30
0.0
 11
9447.086050695718
 21
1717.046673742007
 31
0.0
  0
LINE
  5
1F2C3
330
747D
100
AcDbEntity
  8
細線
 48
50.0
100
AcDbLine
 10
8902.086050695711
 20
2216.801204753998
 30
0.0
 11
8902.086050695711
 21
1716.801204754001
 31
0.0
  0
LINE
  5
1F2C4
330
747D
100
AcDbEntity
  8
細線
 48
50.0
100
AcDbLine
 10
8932.08605069571
 20
2216.801204753998
 30
0.0
 11
8932.08605069571
 21
1716.801204754001
 31
0.0
  0
LINE
  5
1F2C5
330
747D
100
AcDbEntity
  8
細線
 48
50.0
100
AcDbLine
 10
9182.08605069571
 20
2216.801204753998
 30
0.0
 11
9182.08605069571
 21
1716.801204754001
 31
0.0
  0
LINE
  5
1F2C6
330
747D
100
AcDbEntity
  8
細線
 48
50.0
100
AcDbLine
 10
9212.08605069571
 20
2216.801204753998
 30
0.0
 11
9212.08605069571
 21
1716.801204754001
 31
0.0
  0
LINE
  5
1F2C7
330
747D
100
AcDbEntity
  8
部品1
100
AcDbLine
 10
7826.753445982733
 20
2116.801204754
 30
0.0
 11
7826.753445982737
 21
1610.801204754003
 31
0.0
  0
LINE
  5
1F2C8
330
747D
100
AcDbEntity
  8
細線
 48
50.0
100
AcDbLine
 10
7701.753445982729
 20
2116.801204754
 30
0.0
 11
7701.753445982729
 21
1616.801204754001
 31
0.0
  0
LINE
  5
1F2C9
330
747D
100
AcDbEntity
  8
細線
 48
50.0
100
AcDbLine
 10
7671.753445982729
 20
2116.801204754
 30
0.0
 11
7671.753445982729
 21
1616.801204754001
 31
0.0
  0
LINE
  5
1F2CA
330
747D
100
AcDbEntity
  8
細線
 48
50.0
100
AcDbLine
 10
7421.753445982729
 20
2116.801204754
 30
0.0
 11
7421.753445982729
 21
1616.801204754001
 31
0.0
  0
LINE
  5
1F2CB
330
747D
100
AcDbEntity
  8
細線
 48
50.0
100
AcDbLine
 10
7391.753445982729
 20
2116.801204754
 30
0.0
 11
7391.753445982729
 21
1616.801204754001
 31
0.0
  0
LINE
  5
1F2CC
330
747D
100
AcDbEntity
  8
部品1
100
AcDbLine
 10
7936.753445982732
 20
2116.801204754
 30
0.0
 11
7936.753445982737
 21
1617.046673742006
 31
0.0
  0
LINE
  5
1F2CD
330
747D
100
AcDbEntity
  8
部品1
 48
50.0
100
AcDbLine
 10
8750.99024270643
 20
2296.040417142245
 30
0.0
 11
8750.99024270643
 21
376.0404171422451
 31
0.0
  0
LINE
  5
1F2CE
330
747D
100
AcDbEntity
  8
細線
 48
10.0
100
AcDbLine
 10
7833.889309713119
 20
1009.883007414715
 30
0.0
 11
8140.807507052391
 21
1316.801204753999
 31
0.0
  0
LINE
  5
1F2CF
330
747D
100
AcDbEntity
  8
細線
 48
10.0
100
AcDbLine
 10
7805.605038465659
 20
1009.883007414715
 30
0.0
 11
8112.523235804934
 21
1316.801204753999
 31
0.0
  0
LINE
  5
1F2D0
330
747D
100
AcDbEntity
  8
細線
 48
10.0
100
AcDbLine
 10
7862.173580960583
 20
1009.883007414715
 30
0.0
 11
8169.091778299858
 21
1316.801204753999
 31
0.0
  0
DIMENSION
  5
1F2D1
330
747D
100
AcDbEntity
  8
寸法
 48
50.0
100
AcDbDimension
  2
*D3
 10
8169.51745655114
 20
1316.801204753999
 30
0.0
 11
8069.517456551141
 21
1416.801204754002
 31
0.0
 70
    32
  1
b
 71
     5
 42
200.0000000000018
  3
INABA_S40G
100
AcDbAlignedDimension
 13
7947.304209088241
 23
1516.801204754001
 33
0.0
 14
7966.753445982729
 24
1316.801204753999
 34
0.0
 50
90.0
100
AcDbRotatedDimension
1001
ACAD
1000
DSTYLE
1002
{
1070
   174
1070
     0
1070
   272
1070
     1
1070
   288
1070
     0
1070
   341
1005
0
1002
}
  0
LINE
  5
1F2D2
330
747D
100
AcDbEntity
  8
Ｇ．Ｌ
100
AcDbLine
 10
7221.499012739139
 20
1316.801204753999
 30
0.0
 11
8685.534251503421
 21
1316.801204753999
 31
0.0
  0
LINE
  5
1F2D3
330
747D
100
AcDbEntity
  8
細線
 48
10.0
100
AcDbLine
 10
7407.230920860296
 20
1009.883007414715
 30
0.0
 11
7714.149118199566
 21
1316.801204753999
 31
0.0
  0
LINE
  5
1F2D4
330
747D
100
AcDbEntity
  8
細線
 48
10.0
100
AcDbLine
 10
7378.946649612834
 20
1009.883007414715
 30
0.0
 11
7685.86484695211
 21
1316.801204753999
 31
0.0
  0
LINE
  5
1F2D5
330
747D
100
AcDbEntity
  8
細線
 48
10.0
100
AcDbLine
 10
7435.515192107759
 20
1009.883007414715
 30
0.0
 11
7742.433389447018
 21
1316.801204753999
 31
0.0
  0
LINE
  5
1F2D6
330
747D
100
AcDbEntity
  8
部品1
100
AcDbLine
 10
7221.499012739136
 20
1516.801204754001
 30
0.0
 11
7845.952009376976
 21
1516.801204754001
 31
0.0
  0
LINE
  5
1F2D7
330
747D
100
AcDbEntity
  8
部品1
100
AcDbLine
 10
7221.499012739136
 20
1616.801204754003
 30
0.0
 11
7826.753445982733
 21
1616.801204754001
 31
0.0
  0
LINE
  5
1F2D8
330
747D
100
AcDbEntity
  8
部品1
100
AcDbLine
 10
7221.499012739136
 20
1610.801204754003
 30
0.0
 11
7855.551291074094
 21
1610.801204754003
 31
0.0
  0
LINE
  5
1F2D9
330
747D
100
AcDbEntity
  8
細線
100
AcDbLine
 10
7622.781708674927
 20
1316.801204753999
 30
0.0
 11
7536.753445982729
 21
1402.829467446199
 31
0.0
  0
LINE
  5
1F2DA
330
747D
100
AcDbEntity
  8
細線
100
AcDbLine
 10
7665.20811554612
 20
1316.801204753999
 30
0.0
 11
7536.753445982729
 21
1445.255874317392
 31
0.0
  0
LINE
  5
1F2DB
330
747D
100
AcDbEntity
  8
部品1
100
AcDbLine
 10
7536.753445982729
 20
1316.801204753999
 30
0.0
 11
7536.753445982729
 21
1516.801204754001
 31
0.0
  0
LINE
  5
1F2DC
330
747D
100
AcDbEntity
  8
細線
 48
10.0
100
AcDbLine
 10
7221.499012739136
 20
1279.093759393865
 30
0.0
 11
7259.206458099274
 21
1316.801204753999
 31
0.0
  0
LINE
  5
1F2DD
330
747D
100
AcDbEntity
  8
細線
 48
10.0
100
AcDbLine
 10
7221.499012739139
 20
1222.52521689895
 30
0.0
 11
7315.775000594178
 21
1316.801204753999
 31
0.0
  0
LINE
  5
1F2DE
330
747D
100
AcDbEntity
  8
細線
 48
10.0
100
AcDbLine
 10
7221.499012739139
 20
1250.809488146409
 30
0.0
 11
7287.490729346726
 21
1316.801204753999
 31
0.0
  0
LINE
  5
1F2DF
330
747D
100
AcDbEntity
  8
細線
100
AcDbLine
 10
7827.70804674601
 20
1338.149036662615
 30
0.0
 11
7649.055878654625
 21
1516.801204753999
 31
0.0
  0
LINE
  5
1F2E0
330
747D
100
AcDbEntity
  8
細線
100
AcDbLine
 10
7831.639184339649
 20
1376.644305940172
 30
0.0
 11
7691.482285525818
 21
1516.801204753999
 31
0.0
  0
LINE
  5
1F2E1
330
747D
100
AcDbEntity
  8
部品1
100
AcDbLine
 10
7937.650214990805
 20
1613.791665452902
 30
0.0
 11
7966.753445982729
 21
1328.801204754
 31
0.0
  0
LINE
  5
1F2E2
330
747D
100
AcDbEntity
  8
部品1
100
AcDbLine
 10
7855.856676974662
 20
1613.791665452902
 30
0.0
 11
7826.753445982729
 21
1328.801204754
 31
0.0
  0
LINE
  5
1F2E3
330
747D
100
AcDbEntity
  8
部品1
100
AcDbLine
 10
7826.753445982729
 20
1328.801204754
 30
0.0
 11
7966.753445982729
 21
1328.801204754
 31
0.0
  0
LINE
  5
1F2E4
330
747D
100
AcDbEntity
  8
部品1
100
AcDbLine
 10
7826.753445982729
 20
1316.801204753999
 30
0.0
 11
7966.753445982729
 21
1316.801204753999
 31
0.0
  0
LINE
  5
1F2E5
330
747D
100
AcDbEntity
  8
部品1
100
AcDbLine
 10
7826.753445982729
 20
1328.801204754
 30
0.0
 11
7826.753445982729
 21
1316.801204753999
 31
0.0
  0
LINE
  5
1F2E6
330
747D
100
AcDbEntity
  8
部品1
100
AcDbLine
 10
7881.75344598273
 20
1383.201204754003
 30
0.0
 11
7911.753445982729
 21
1383.201204754003
 31
0.0
  0
LINE
  5
1F2E7
330
747D
100
AcDbEntity
  8
部品1
100
AcDbLine
 10
7881.75344598273
 20
1389.201204754003
 30
0.0
 11
7911.753445982729
 21
1389.201204754003
 31
0.0
  0
LINE
  5
1F2E8
330
747D
100
AcDbEntity
  8
部品1
100
AcDbLine
 10
7881.75344598273
 20
1349.201204754003
 30
0.0
 11
7886.75344598273
 21
1349.201204754003
 31
0.0
  0
LINE
  5
1F2E9
330
747D
100
AcDbEntity
  8
部品1
100
AcDbLine
 10
7881.75344598273
 20
1389.201204754003
 30
0.0
 11
7881.75344598273
 21
1383.201204754003
 31
0.0
  0
LINE
  5
1F2EA
330
747D
100
AcDbEntity
  8
部品1
100
AcDbLine
 10
7881.75344598273
 20
1349.201204754003
 30
0.0
 11
7881.75344598273
 21
1347.801204754001
 31
0.0
  0
LINE
  5
1F2EB
330
747D
100
AcDbEntity
  8
部品1
100
AcDbLine
 10
7966.753445982729
 20
1328.801204754
 30
0.0
 11
7966.753445982729
 21
1316.801204753999
 31
0.0
  0
LINE
  5
1F2EC
330
747D
100
AcDbEntity
  8
部品1
100
AcDbLine
 10
7911.753445982729
 20
1389.201204753999
 30
0.0
 11
7911.753445982729
 21
1383.201204753999
 31
0.0
  0
LINE
  5
1F2ED
330
747D
100
AcDbEntity
  8
部品1
100
AcDbLine
 10
7911.753445982729
 20
1349.201204753997
 30
0.0
 11
7911.753445982729
 21
1347.801204754001
 31
0.0
  0
LINE
  5
1F2EE
330
747D
100
AcDbEntity
  8
部品1
100
AcDbLine
 10
7866.753445982729
 20
1331.801204753999
 30
0.0
 11
7926.753445982729
 21
1331.801204754005
 31
0.0
  0
LINE
  5
1F2EF
330
747D
100
AcDbEntity
  8
部品1
100
AcDbLine
 10
7886.75344598273
 20
1368.801204754001
 30
0.0
 11
7906.753445982729
 21
1368.801204754001
 31
0.0
  0
LINE
  5
1F2F0
330
747D
100
AcDbEntity
  8
部品1
100
AcDbLine
 10
7886.75344598273
 20
1331.801204753999
 30
0.0
 11
7886.75344598273
 21
1368.801204754001
 31
0.0
  0
LINE
  5
1F2F1
330
747D
100
AcDbEntity
  8
部品1
100
AcDbLine
 10
7906.753445982729
 20
1331.801204753999
 30
0.0
 11
7906.753445982729
 21
1368.801204754001
 31
0.0
  0
LINE
  5
1F2F2
330
747D
100
AcDbEntity
  8
部品1
100
AcDbLine
 10
7879.753445982728
 20
1347.801204754001
 30
0.0
 11
7913.753445982729
 21
1347.801204754001
 31
0.0
  0
LINE
  5
1F2F3
330
747D
100
AcDbEntity
  8
部品1
100
AcDbLine
 10
7876.753445982728
 20
1331.801204753999
 30
0.0
 11
7876.753445982728
 21
1344.801204754001
 31
0.0
  0
LINE
  5
1F2F4
330
747D
100
AcDbEntity
  8
部品1
100
AcDbLine
 10
7916.753445982729
 20
1331.801204754005
 30
0.0
 11
7916.753445982729
 21
1344.801204754001
 31
0.0
  0
LINE
  5
1F2F5
330
747D
100
AcDbEntity
  8
部品1
100
AcDbLine
 10
7879.753445982728
 20
1347.801204754001
 30
0.0
 11
7876.753445982728
 21
1344.801204754001
 31
0.0
  0
LINE
  5
1F2F6
330
747D
100
AcDbEntity
  8
部品1
100
AcDbLine
 10
7913.753445982729
 20
1347.801204754001
 30
0.0
 11
7916.753445982729
 21
1344.801204754001
 31
0.0
  0
LINE
  5
1F2F7
330
747D
100
AcDbEntity
  8
部品1
100
AcDbLine
 10
7866.753445982729
 20
1328.801204754
 30
0.0
 11
7866.753445982729
 21
1331.801204753999
 31
0.0
  0
LINE
  5
1F2F8
330
747D
100
AcDbEntity
  8
部品1
100
AcDbLine
 10
7926.753445982729
 20
1328.801204754
 30
0.0
 11
7926.753445982729
 21
1331.801204754009
 31
0.0
  0
LINE
  5
1F2F9
330
747D
100
AcDbEntity
  8
部品1
100
AcDbLine
 10
7906.753445982729
 20
1349.201204754003
 30
0.0
 11
7911.753445982729
 21
1349.201204754003
 31
0.0
  0
LINE
  5
1F2FA
330
747D
100
AcDbEntity
  8
部品1
100
AcDbLine
 10
7876.753445982728
 20
1344.801204754001
 30
0.0
 11
7916.753445982729
 21
1344.801204754001
 31
0.0
  0
ARC
  5
1F2FB
330
747D
100
AcDbEntity
  8
部品1
100
AcDbCircle
 10
7881.75344598273
 20
1340.286449963683
 30
0.0
 40
6.736691384996243
100
AcDbArc
 50
42.08048849856768
 51
137.9195115014323
  0
ARC
  5
1F2FC
330
747D
100
AcDbEntity
  8
部品1
100
AcDbCircle
 10
7911.753445982729
 20
1340.286449963683
 30
0.0
 40
6.736691384996243
100
AcDbArc
 50
42.08048849856768
 51
137.9195115014323
  0
ARC
  5
1F2FD
330
747D
100
AcDbEntity
  8
部品1
100
AcDbCircle
 10
7896.753445982729
 20
1323.712571533182
 30
0.0
 40
23.33946124318486
100
AcDbArc
 50
64.63020194521305
 51
115.3697980547869
  0
LINE
  5
1F2FE
330
747D
100
AcDbEntity
  8
部品1
100
AcDbLine
 10
7889.75344598273
 20
1381.054100777661
 30
0.0
 11
7903.753445982729
 21
1381.054100777661
 31
0.0
  0
LINE
  5
1F2FF
330
747D
100
AcDbEntity
  8
部品1
100
AcDbLine
 10
7891.753445982729
 20
1368.801204754001
 30
0.0
 11
7891.753445982729
 21
1377.054100777661
 31
0.0
  0
LINE
  5
1F300
330
747D
100
AcDbEntity
  8
部品1
100
AcDbLine
 10
7901.753445982729
 20
1368.801204754001
 30
0.0
 11
7901.753445982729
 21
1377.054100777661
 31
0.0
  0
LINE
  5
1F301
330
747D
100
AcDbEntity
  8
部品1
100
AcDbLine
 10
7889.75344598273
 20
1377.054100777661
 30
0.0
 11
7889.75344598273
 21
1381.054100777661
 31
0.0
  0
LINE
  5
1F302
330
747D
100
AcDbEntity
  8
部品1
100
AcDbLine
 10
7903.753445982729
 20
1377.054100777661
 30
0.0
 11
7903.753445982729
 21
1381.054100777661
 31
0.0
  0
LINE
  5
1F303
330
747D
100
AcDbEntity
  8
部品1
100
AcDbLine
 10
7889.75344598273
 20
1377.054100777661
 30
0.0
 11
7903.753445982729
 21
1377.054100777661
 31
0.0
  0
LINE
  5
1F304
330
747D
100
AcDbEntity
  8
部品1
100
AcDbLine
 10
7886.75344598273
 20
1316.801204753999
 30
0.0
 11
7886.75344598273
 21
1281.401204754
 31
0.0
  0
LINE
  5
1F305
330
747D
100
AcDbEntity
  8
部品1
100
AcDbLine
 10
7906.753445982729
 20
1316.801204753999
 30
0.0
 11
7906.753445982729
 21
1281.401204754
 31
0.0
  0
LINE
  5
1F306
330
747D
100
AcDbEntity
  8
部品1
100
AcDbLine
 10
7894.842945349193
 20
1281.401204754
 30
0.0
 11
7898.663946616267
 21
1281.401204754
 31
0.0
  0
LINE
  5
1F307
330
747D
100
AcDbEntity
  8
部品1
100
AcDbLine
 10
7886.75344598273
 20
1281.401204754
 30
0.0
 11
7880.75344598273
 21
1241.401204754
 31
0.0
  0
LINE
  5
1F308
330
747D
100
AcDbEntity
  8
部品1
100
AcDbLine
 10
7912.753445982729
 20
1241.401204754
 30
0.0
 11
7906.753445982729
 21
1281.401204754
 31
0.0
  0
LINE
  5
1F309
330
747D
100
AcDbEntity
  8
部品1
100
AcDbLine
 10
7894.842945349193
 20
1281.401204754
 30
0.0
 11
7888.664936805675
 21
1240.214481130561
 31
0.0
  0
LINE
  5
1F30A
330
747D
100
AcDbEntity
  8
部品1
100
AcDbLine
 10
7904.841955159783
 20
1240.214481130561
 30
0.0
 11
7898.663946616267
 21
1281.401204754
 31
0.0
  0
LINE
  5
1F30B
330
747D
100
AcDbEntity
  8
部品1
100
AcDbLine
 10
7880.75344598273
 20
1241.401204754
 30
0.0
 11
7888.664936805675
 21
1240.214481130561
 31
0.0
  0
LINE
  5
1F30C
330
747D
100
AcDbEntity
  8
部品1
100
AcDbLine
 10
7904.841955159783
 20
1240.214481130561
 30
0.0
 11
7912.753445982729
 21
1241.401204754
 31
0.0
  0
LINE
  5
1F30D
330
747D
100
AcDbEntity
  8
部品1
100
AcDbLine
 10
7881.643488700312
 20
1247.334822871209
 30
0.0
 11
7889.554979523258
 21
1246.148099247766
 31
0.0
  0
LINE
  5
1F30E
330
747D
100
AcDbEntity
  8
部品1
100
AcDbLine
 10
7882.533531417888
 20
1253.268440988418
 30
0.0
 11
7890.445022240834
 21
1252.081717364976
 31
0.0
  0
LINE
  5
1F30F
330
747D
100
AcDbEntity
  8
部品1
100
AcDbLine
 10
7883.423574135472
 20
1259.202059105626
 30
0.0
 11
7891.335064958417
 21
1258.015335482185
 31
0.0
  0
LINE
  5
1F310
330
747D
100
AcDbEntity
  8
部品1
100
AcDbLine
 10
7884.313616853055
 20
1265.135677222837
 30
0.0
 11
7892.225107676001
 21
1263.948953599398
 31
0.0
  0
LINE
  5
1F311
330
747D
100
AcDbEntity
  8
部品1
100
AcDbLine
 10
7885.203659570631
 20
1271.069295340047
 30
0.0
 11
7893.115150393576
 21
1269.882571716604
 31
0.0
  0
LINE
  5
1F312
330
747D
100
AcDbEntity
  8
部品1
100
AcDbLine
 10
7886.093702288214
 20
1277.002913457256
 30
0.0
 11
7894.005193111159
 21
1275.816189833813
 31
0.0
  0
LINE
  5
1F313
330
747D
100
AcDbEntity
  8
部品1
100
AcDbLine
 10
7903.9519124422
 20
1246.148099247766
 30
0.0
 11
7911.863403265154
 21
1247.334822871209
 31
0.0
  0
LINE
  5
1F314
330
747D
100
AcDbEntity
  8
部品1
100
AcDbLine
 10
7903.061869724625
 20
1252.081717364976
 30
0.0
 11
7910.973360547571
 21
1253.268440988418
 31
0.0
  0
LINE
  5
1F315
330
747D
100
AcDbEntity
  8
部品1
100
AcDbLine
 10
7902.171827007042
 20
1258.015335482185
 30
0.0
 11
7910.083317829988
 21
1259.202059105626
 31
0.0
  0
LINE
  5
1F316
330
747D
100
AcDbEntity
  8
部品1
100
AcDbLine
 10
7901.281784289466
 20
1263.948953599398
 30
0.0
 11
7909.193275112412
 21
1265.135677222837
 31
0.0
  0
LINE
  5
1F317
330
747D
100
AcDbEntity
  8
部品1
100
AcDbLine
 10
7900.391741571883
 20
1269.882571716604
 30
0.0
 11
7908.303232394828
 21
1271.069295340047
 31
0.0
  0
LINE
  5
1F318
330
747D
100
AcDbEntity
  8
部品1
100
AcDbLine
 10
7899.5016988543
 20
1275.816189833813
 30
0.0
 11
7907.413189677246
 21
1277.002913457256
 31
0.0
  0
ARC
  5
1F319
330
747D
100
AcDbEntity
  8
部品1
100
AcDbCircle
 10
7865.807505462973
 20
1612.801204754001
 30
0.0
 40
10.0
100
AcDbArc
 50
90.0
 51
174.3157584018144
  0
CIRCLE
  5
1F31A
330
747D
100
AcDbEntity
  8
部品1
100
AcDbCircle
 10
7896.753445982729
 20
1560.801204754
 30
0.0
 40
16.0
  0
LINE
  5
1F31B
330
747D
100
AcDbEntity
  8
細線
100
AcDbLine
 10
7881.75344598273
 20
1536.801204754001
 30
0.0
 11
7911.753445982729
 21
1536.801204754001
 31
0.0
  0
LINE
  5
1F31C
330
747D
100
AcDbEntity
  8
細線
100
AcDbLine
 10
7888.753445982729
 20
1600.801204753998
 30
0.0
 11
7888.753445982729
 21
1574.657611214552
 31
0.0
  0
LINE
  5
1F31D
330
747D
100
AcDbEntity
  8
細線
100
AcDbLine
 10
7904.753445982729
 20
1600.801204753998
 30
0.0
 11
7904.753445982729
 21
1574.657611214552
 31
0.0
  0
ARC
  5
1F31E
330
747D
100
AcDbEntity
  8
細線
100
AcDbCircle
 10
7896.753445982729
 20
1600.801204753998
 30
0.0
 40
8.0
100
AcDbArc
 50
0.0
 51
180.0
  0
LINE
  5
1F31F
330
747D
100
AcDbEntity
  8
部品1
100
AcDbLine
 10
7865.807505462973
 20
1622.801204754
 30
0.0
 11
7927.699386502485
 21
1622.801204753997
 31
0.0
  0
ARC
  5
1F320
330
747D
100
AcDbEntity
  8
部品1
100
AcDbCircle
 10
7927.699386502485
 20
1612.801204753998
 30
0.0
 40
10.0
100
AcDbArc
 50
5.68424159818561
 51
90.0
  0
LINE
  5
1F321
330
747D
100
AcDbEntity
  8
細線
100
AcDbLine
 10
7881.75344598273
 20
1530.801204754001
 30
0.0
 11
7911.753445982729
 21
1530.801204754001
 31
0.0
  0
LINE
  5
1F322
330
747D
100
AcDbEntity
  8
細線
100
AcDbLine
 10
7881.75344598273
 20
1536.801204754001
 30
0.0
 11
7881.75344598273
 21
1530.801204754001
 31
0.0
  0
LINE
  5
1F323
330
747D
100
AcDbEntity
  8
細線
100
AcDbLine
 10
7911.753445982729
 20
1536.801204753996
 30
0.0
 11
7911.753445982729
 21
1530.801204753996
 31
0.0
  0
LINE
  5
1F324
330
747D
100
AcDbEntity
  8
細線
 48
10.0
100
AcDbLine
 10
8288.831969813399
 20
1009.883007414715
 30
0.0
 11
8595.750167152678
 21
1316.801204753999
 31
0.0
  0
LINE
  5
1F325
330
747D
100
AcDbEntity
  8
細線
 48
10.0
100
AcDbLine
 10
8260.547698565936
 20
1009.883007414715
 30
0.0
 11
8567.465895905211
 21
1316.801204753999
 31
0.0
  0
LINE
  5
1F326
330
747D
100
AcDbEntity
  8
細線
 48
10.0
100
AcDbLine
 10
8232.263427318477
 20
1009.883007414715
 30
0.0
 11
8539.18162465775
 21
1316.801204753999
 31
0.0
  0
TEXT
  5
1F327
330
747D
100
AcDbEntity
  8
部品1
100
AcDbText
 10
8311.242649251104
 20
1324.707246432903
 30
0.0
 40
120.0
  1
▽G.L
  7
STYLE1
100
AcDbText
  0
LINE
  5
1F328
330
747D
100
AcDbEntity
  8
部品1
100
AcDbLine
 10
8824.288653897005
 20
1616.801204754
 30
0.0
 11
9366.974958786046
 21
1616.801204754001
 31
0.0
  0
LINE
  5
1F329
330
747D
100
AcDbEntity
  8
部品1
100
AcDbLine
 10
8824.288653897005
 20
1716.801204754001
 30
0.0
 11
9337.086050695715
 21
1716.801204754001
 31
0.0
  0
LINE
  5
1F32A
330
747D
100
AcDbEntity
  8
部品1
100
AcDbLine
 10
8824.288653897005
 20
1710.801204754001
 30
0.0
 11
9367.086050695714
 21
1710.801204754001
 31
0.0
  0
LINE
  5
1F32B
330
747D
100
AcDbEntity
  8
細線
100
AcDbLine
 10
9338.040651458992
 20
1338.149036662615
 30
0.0
 11
9059.388483367605
 21
1616.801204753999
 31
0.0
  0
LINE
  5
1F32C
330
747D
100
AcDbEntity
  8
細線
100
AcDbLine
 10
9341.97178905263
 20
1376.644305940172
 30
0.0
 11
9101.814890238799
 21
1616.801204753999
 31
0.0
  0
LINE
  5
1F32D
330
747D
100
AcDbEntity
  8
細線
 48
10.0
100
AcDbLine
 10
9007.992420133794
 20
1009.883007414715
 30
0.0
 11
9314.910617473065
 21
1316.801204754001
 31
0.0
  0
LINE
  5
1F32E
330
747D
100
AcDbEntity
  8
細線
 48
10.0
100
AcDbLine
 10
9036.276691381251
 20
1009.883007414715
 30
0.0
 11
9343.194888720523
 21
1316.801204753999
 31
0.0
  0
LINE
  5
1F32F
330
747D
100
AcDbEntity
  8
細線
 48
10.0
100
AcDbLine
 10
9064.560962628716
 20
1009.883007414715
 30
0.0
 11
9371.479159967973
 21
1316.801204753999
 31
0.0
  0
LINE
  5
1F330
330
747D
100
AcDbEntity
  8
細線
 48
10.0
100
AcDbLine
 10
8824.288653897001
 20
1196.269087535859
 30
0.0
 11
8944.820771115134
 21
1316.801204753999
 31
0.0
  0
LINE
  5
1F331
330
747D
100
AcDbEntity
  8
細線
 48
10.0
100
AcDbLine
 10
8824.288653897005
 20
1224.553358783317
 30
0.0
 11
8916.536499867682
 21
1316.801204753999
 31
0.0
  0
LINE
  5
1F332
330
747D
100
AcDbEntity
  8
細線
 48
10.0
100
AcDbLine
 10
8824.288653897005
 20
1252.837630030772
 30
0.0
 11
8888.252228620229
 21
1316.801204753999
 31
0.0
  0
LINE
  5
1F333
330
747D
100
AcDbEntity
  8
部品1
100
AcDbLine
 10
9047.08605069571
 20
1316.801204753996
 30
0.0
 11
9047.08605069571
 21
1616.801204753999
 31
0.0
  0
LINE
  5
1F334
330
747D
100
AcDbEntity
  8
細線
100
AcDbLine
 10
9175.540720259101
 20
1316.801204753999
 30
0.0
 11
9047.08605069571
 21
1445.255874317392
 31
0.0
  0
LINE
  5
1F335
330
747D
100
AcDbEntity
  8
細線
100
AcDbLine
 10
9133.114313387908
 20
1316.801204753999
 30
0.0
 11
9047.08605069571
 21
1402.829467446199
 31
0.0
  0
LINE
  5
1F336
330
747D
100
AcDbEntity
  8
細線
 48
10.0
100
AcDbLine
 10
9491.219351481534
 20
1009.883007414715
 30
0.0
 11
9798.137548820815
 21
1316.801204754001
 31
0.0
  0
LINE
  5
1F337
330
747D
100
AcDbEntity
  8
細線
 48
10.0
100
AcDbLine
 10
9462.935080234073
 20
1009.883007414715
 30
0.0
 11
9769.853277573348
 21
1316.801204753999
 31
0.0
  0
LINE
  5
1F338
330
747D
100
AcDbEntity
  8
細線
 48
10.0
100
AcDbLine
 10
9434.650808986615
 20
1009.883007414715
 30
0.0
 11
9741.569006325889
 21
1316.801204753999
 31
0.0
  0
DIMENSION
  5
1F339
330
747D
100
AcDbEntity
  8
寸法
 48
50.0
100
AcDbDimension
  2
*D4
 10
9649.832696322498
 20
1316.801204753999
 30
0.0
 11
9549.832696322496
 21
1466.801204754001
 31
0.0
 70
    32
  1
c
 71
     5
 42
300.0
  3
INABA_S40G
100
AcDbAlignedDimension
 13
9447.197142605379
 23
1616.801204753999
 33
0.0
 14
9477.08605069571
 24
1316.801204753999
 34
0.0
 50
90.0
100
AcDbRotatedDimension
1001
ACAD
1000
DSTYLE
1002
{
1070
   174
1070
     0
1070
   272
1070
     1
1070
   288
1070
     0
1070
   341
1005
0
1002
}
  0
LINE
  5
1F33A
330
747D
100
AcDbEntity
  8
部品1
100
AcDbLine
 10
9366.189281687644
 20
1613.7916654529
 30
0.0
 11
9337.08605069571
 21
1328.801204754
 31
0.0
  0
LINE
  5
1F33B
330
747D
100
AcDbEntity
  8
部品1
100
AcDbLine
 10
9447.982819703781
 20
1613.7916654529
 30
0.0
 11
9477.08605069571
 21
1328.801204754
 31
0.0
  0
LINE
  5
1F33C
330
747D
100
AcDbEntity
  8
部品1
100
AcDbLine
 10
9337.08605069571
 20
1328.801204754
 30
0.0
 11
9477.08605069571
 21
1328.801204754
 31
0.0
  0
LINE
  5
1F33D
330
747D
100
AcDbEntity
  8
部品1
100
AcDbLine
 10
9337.08605069571
 20
1316.801204753999
 30
0.0
 11
9477.08605069571
 21
1316.801204753999
 31
0.0
  0
LINE
  5
1F33E
330
747D
100
AcDbEntity
  8
部品1
100
AcDbLine
 10
9415.174559872765
 20
1240.214481130559
 30
0.0
 11
9408.996551329249
 21
1281.401204753998
 31
0.0
  0
LINE
  5
1F33F
330
747D
100
AcDbEntity
  8
部品1
100
AcDbLine
 10
9405.175550062173
 20
1281.401204753998
 30
0.0
 11
9398.997541518657
 21
1240.214481130559
 31
0.0
  0
LINE
  5
1F340
330
747D
100
AcDbEntity
  8
部品1
100
AcDbLine
 10
9423.086050695712
 20
1241.401204753998
 30
0.0
 11
9417.086050695711
 21
1281.401204753998
 31
0.0
  0
LINE
  5
1F341
330
747D
100
AcDbEntity
  8
部品1
100
AcDbLine
 10
9397.08605069571
 20
1281.401204753998
 30
0.0
 11
9391.08605069571
 21
1241.401204753998
 31
0.0
  0
LINE
  5
1F342
330
747D
100
AcDbEntity
  8
部品1
100
AcDbLine
 10
9413.394474437607
 20
1252.081717364974
 30
0.0
 11
9421.305965260552
 21
1253.268440988417
 31
0.0
  0
LINE
  5
1F343
330
747D
100
AcDbEntity
  8
部品1
100
AcDbLine
 10
9414.284517155181
 20
1246.148099247766
 30
0.0
 11
9422.196007978131
 21
1247.334822871209
 31
0.0
  0
LINE
  5
1F344
330
747D
100
AcDbEntity
  8
部品1
100
AcDbLine
 10
9392.866136130869
 20
1253.268440988417
 30
0.0
 11
9400.777626953816
 21
1252.081717364974
 31
0.0
  0
LINE
  5
1F345
330
747D
100
AcDbEntity
  8
部品1
100
AcDbLine
 10
9391.976093413294
 20
1247.334822871209
 30
0.0
 11
9399.887584236239
 21
1246.148099247766
 31
0.0
  0
LINE
  5
1F346
330
747D
100
AcDbEntity
  8
部品1
100
AcDbLine
 10
9415.174559872765
 20
1240.214481130559
 30
0.0
 11
9423.086050695712
 21
1241.401204753998
 31
0.0
  0
LINE
  5
1F347
330
747D
100
AcDbEntity
  8
部品1
100
AcDbLine
 10
9391.08605069571
 20
1241.401204753998
 30
0.0
 11
9398.997541518657
 21
1240.214481130559
 31
0.0
  0
LINE
  5
1F348
330
747D
100
AcDbEntity
  8
部品1
100
AcDbLine
 10
9337.08605069571
 20
1328.801204754
 30
0.0
 11
9337.08605069571
 21
1316.801204753999
 31
0.0
  0
LINE
  5
1F349
330
747D
100
AcDbEntity
  8
部品1
100
AcDbLine
 10
9392.086050695711
 20
1383.201204754001
 30
0.0
 11
9422.08605069571
 21
1383.201204754001
 31
0.0
  0
LINE
  5
1F34A
330
747D
100
AcDbEntity
  8
部品1
100
AcDbLine
 10
9392.086050695711
 20
1389.201204754001
 30
0.0
 11
9422.08605069571
 21
1389.201204754001
 31
0.0
  0
LINE
  5
1F34B
330
747D
100
AcDbEntity
  8
部品1
100
AcDbLine
 10
9392.086050695711
 20
1389.201204754001
 30
0.0
 11
9392.086050695711
 21
1383.201204754001
 31
0.0
  0
LINE
  5
1F34C
330
747D
100
AcDbEntity
  8
部品1
100
AcDbLine
 10
9422.08605069571
 20
1389.201204753997
 30
0.0
 11
9422.08605069571
 21
1383.201204753997
 31
0.0
  0
LINE
  5
1F34D
330
747D
100
AcDbEntity
  8
部品1
100
AcDbLine
 10
9392.086050695711
 20
1349.201204754001
 30
0.0
 11
9397.08605069571
 21
1349.201204754001
 31
0.0
  0
LINE
  5
1F34E
330
747D
100
AcDbEntity
  8
部品1
100
AcDbLine
 10
9392.086050695711
 20
1349.201204754001
 30
0.0
 11
9392.086050695711
 21
1347.801204753996
 31
0.0
  0
LINE
  5
1F34F
330
747D
100
AcDbEntity
  8
部品1
100
AcDbLine
 10
9422.08605069571
 20
1349.201204753997
 30
0.0
 11
9422.08605069571
 21
1347.801204754
 31
0.0
  0
LINE
  5
1F350
330
747D
100
AcDbEntity
  8
部品1
100
AcDbLine
 10
9392.086050695711
 20
1347.801204754
 30
0.0
 11
9422.08605069571
 21
1347.801204754
 31
0.0
  0
LINE
  5
1F351
330
747D
100
AcDbEntity
  8
部品1
100
AcDbLine
 10
9414.086050695711
 20
1377.054100777659
 30
0.0
 11
9414.086050695711
 21
1381.054100777659
 31
0.0
  0
LINE
  5
1F352
330
747D
100
AcDbEntity
  8
部品1
100
AcDbLine
 10
9400.08605069571
 20
1377.054100777659
 30
0.0
 11
9400.08605069571
 21
1381.054100777659
 31
0.0
  0
LINE
  5
1F353
330
747D
100
AcDbEntity
  8
部品1
100
AcDbLine
 10
9409.834303567281
 20
1275.816189833811
 30
0.0
 11
9417.745794390226
 21
1277.002913457254
 31
0.0
  0
LINE
  5
1F354
330
747D
100
AcDbEntity
  8
部品1
100
AcDbLine
 10
9410.724346284863
 20
1269.882571716604
 30
0.0
 11
9418.63583710781
 21
1271.069295340047
 31
0.0
  0
LINE
  5
1F355
330
747D
100
AcDbEntity
  8
部品1
100
AcDbLine
 10
9411.614389002448
 20
1263.948953599396
 30
0.0
 11
9419.525879825393
 21
1265.135677222835
 31
0.0
  0
LINE
  5
1F356
330
747D
100
AcDbEntity
  8
部品1
100
AcDbLine
 10
9412.504431720023
 20
1258.015335482185
 30
0.0
 11
9420.41592254297
 21
1259.202059105624
 31
0.0
  0
LINE
  5
1F357
330
747D
100
AcDbEntity
  8
部品1
100
AcDbLine
 10
9396.426307001195
 20
1277.002913457254
 30
0.0
 11
9404.33779782414
 21
1275.816189833811
 31
0.0
  0
LINE
  5
1F358
330
747D
100
AcDbEntity
  8
部品1
100
AcDbLine
 10
9395.536264283611
 20
1271.069295340047
 30
0.0
 11
9403.447755106558
 21
1269.882571716604
 31
0.0
  0
LINE
  5
1F359
330
747D
100
AcDbEntity
  8
部品1
100
AcDbLine
 10
9394.646221566036
 20
1265.135677222835
 30
0.0
 11
9402.557712388977
 21
1263.948953599396
 31
0.0
  0
LINE
  5
1F35A
330
747D
100
AcDbEntity
  8
部品1
100
AcDbLine
 10
9393.756178848454
 20
1259.202059105624
 30
0.0
 11
9401.667669671398
 21
1258.015335482185
 31
0.0
  0
LINE
  5
1F35B
330
747D
100
AcDbEntity
  8
部品1
100
AcDbLine
 10
9405.175550062173
 20
1281.401204753998
 30
0.0
 11
9408.996551329249
 21
1281.401204753998
 31
0.0
  0
LINE
  5
1F35C
330
747D
100
AcDbEntity
  8
部品1
100
AcDbLine
 10
9417.086050695711
 20
1316.801204753999
 30
0.0
 11
9417.086050695711
 21
1281.401204753998
 31
0.0
  0
LINE
  5
1F35D
330
747D
100
AcDbEntity
  8
部品1
100
AcDbLine
 10
9397.08605069571
 20
1316.801204753999
 30
0.0
 11
9397.08605069571
 21
1281.401204753998
 31
0.0
  0
LINE
  5
1F35E
330
747D
100
AcDbEntity
  8
部品1
100
AcDbLine
 10
9412.086050695711
 20
1368.801204754
 30
0.0
 11
9412.086050695711
 21
1377.054100777659
 31
0.0
  0
LINE
  5
1F35F
330
747D
100
AcDbEntity
  8
部品1
100
AcDbLine
 10
9402.086050695711
 20
1368.801204754
 30
0.0
 11
9402.086050695711
 21
1377.054100777659
 31
0.0
  0
LINE
  5
1F360
330
747D
100
AcDbEntity
  8
部品1
100
AcDbLine
 10
9400.08605069571
 20
1377.054100777659
 30
0.0
 11
9414.086050695711
 21
1377.054100777659
 31
0.0
  0
ARC
  5
1F361
330
747D
100
AcDbEntity
  8
部品1
100
AcDbCircle
 10
9407.08605069571
 20
1323.712571533182
 30
0.0
 40
23.33946124318486
100
AcDbArc
 50
64.63020194521305
 51
115.3697980547869
  0
ARC
  5
1F362
330
747D
100
AcDbEntity
  8
部品1
100
AcDbCircle
 10
9422.08605069571
 20
1340.286449963681
 30
0.0
 40
6.736691384996243
100
AcDbArc
 50
42.08048849856768
 51
137.9195115014323
  0
ARC
  5
1F363
330
747D
100
AcDbEntity
  8
部品1
100
AcDbCircle
 10
9392.086050695711
 20
1340.286449963681
 30
0.0
 40
6.736691384996243
100
AcDbArc
 50
42.08048849856768
 51
137.9195115014323
  0
LINE
  5
1F364
330
747D
100
AcDbEntity
  8
部品1
100
AcDbLine
 10
9387.08605069571
 20
1344.801204754
 30
0.0
 11
9427.086050695711
 21
1344.801204754
 31
0.0
  0
LINE
  5
1F365
330
747D
100
AcDbEntity
  8
部品1
100
AcDbLine
 10
9417.086050695711
 20
1349.201204754001
 30
0.0
 11
9422.08605069571
 21
1349.201204754001
 31
0.0
  0
LINE
  5
1F366
330
747D
100
AcDbEntity
  8
部品1
100
AcDbLine
 10
9392.086050695711
 20
1349.201204754001
 30
0.0
 11
9397.08605069571
 21
1349.201204754001
 31
0.0
  0
LINE
  5
1F367
330
747D
100
AcDbEntity
  8
部品1
100
AcDbLine
 10
9427.086050695711
 20
1331.801204754003
 30
0.0
 11
9427.086050695711
 21
1344.801204754
 31
0.0
  0
LINE
  5
1F368
330
747D
100
AcDbEntity
  8
部品1
100
AcDbLine
 10
9417.086050695711
 20
1331.801204753999
 30
0.0
 11
9417.086050695711
 21
1368.801204754
 31
0.0
  0
LINE
  5
1F369
330
747D
100
AcDbEntity
  8
部品1
100
AcDbLine
 10
9397.08605069571
 20
1331.801204753999
 30
0.0
 11
9397.08605069571
 21
1368.801204754
 31
0.0
  0
LINE
  5
1F36A
330
747D
100
AcDbEntity
  8
部品1
100
AcDbLine
 10
9387.08605069571
 20
1331.801204753999
 30
0.0
 11
9387.08605069571
 21
1344.801204754
 31
0.0
  0
LINE
  5
1F36B
330
747D
100
AcDbEntity
  8
部品1
100
AcDbLine
 10
9437.086050695709
 20
1328.801204754
 30
0.0
 11
9437.086050695709
 21
1331.801204754007
 31
0.0
  0
LINE
  5
1F36C
330
747D
100
AcDbEntity
  8
部品1
100
AcDbLine
 10
9377.08605069571
 20
1328.801204754
 30
0.0
 11
9377.08605069571
 21
1331.801204753999
 31
0.0
  0
LINE
  5
1F36D
330
747D
100
AcDbEntity
  8
部品1
100
AcDbLine
 10
9377.08605069571
 20
1331.801204753999
 30
0.0
 11
9437.086050695709
 21
1331.801204754003
 31
0.0
  0
LINE
  5
1F36E
330
747D
100
AcDbEntity
  8
部品1
100
AcDbLine
 10
9422.08605069571
 20
1349.201204753997
 30
0.0
 11
9422.08605069571
 21
1347.801204754
 31
0.0
  0
LINE
  5
1F36F
330
747D
100
AcDbEntity
  8
部品1
100
AcDbLine
 10
9392.086050695711
 20
1349.201204754001
 30
0.0
 11
9392.086050695711
 21
1347.801204754
 31
0.0
  0
LINE
  5
1F370
330
747D
100
AcDbEntity
  8
部品1
100
AcDbLine
 10
9424.086050695711
 20
1347.801204754
 30
0.0
 11
9427.086050695711
 21
1344.801204754
 31
0.0
  0
LINE
  5
1F371
330
747D
100
AcDbEntity
  8
部品1
100
AcDbLine
 10
9390.08605069571
 20
1347.801204754
 30
0.0
 11
9424.086050695711
 21
1347.801204754
 31
0.0
  0
LINE
  5
1F372
330
747D
100
AcDbEntity
  8
部品1
100
AcDbLine
 10
9390.08605069571
 20
1347.801204754
 30
0.0
 11
9387.08605069571
 21
1344.801204754
 31
0.0
  0
LINE
  5
1F373
330
747D
100
AcDbEntity
  8
部品1
100
AcDbLine
 10
9397.08605069571
 20
1368.801204754
 30
0.0
 11
9417.086050695711
 21
1368.801204754
 31
0.0
  0
LINE
  5
1F374
330
747D
100
AcDbEntity
  8
部品1
100
AcDbLine
 10
9400.08605069571
 20
1381.054100777659
 30
0.0
 11
9414.086050695711
 21
1381.054100777659
 31
0.0
  0
LINE
  5
1F375
330
747D
100
AcDbEntity
  8
部品1
100
AcDbLine
 10
9422.08605069571
 20
1389.201204753997
 30
0.0
 11
9422.08605069571
 21
1383.201204753997
 31
0.0
  0
LINE
  5
1F376
330
747D
100
AcDbEntity
  8
部品1
100
AcDbLine
 10
9392.086050695711
 20
1389.201204754001
 30
0.0
 11
9392.086050695711
 21
1383.201204754001
 31
0.0
  0
LINE
  5
1F377
330
747D
100
AcDbEntity
  8
部品1
100
AcDbLine
 10
9392.086050695711
 20
1389.201204754001
 30
0.0
 11
9422.08605069571
 21
1389.201204754001
 31
0.0
  0
LINE
  5
1F378
330
747D
100
AcDbEntity
  8
部品1
100
AcDbLine
 10
9392.086050695711
 20
1383.201204754001
 30
0.0
 11
9422.08605069571
 21
1383.201204754001
 31
0.0
  0
LINE
  5
1F379
330
747D
100
AcDbEntity
  8
部品1
100
AcDbLine
 10
9417.086050695711
 20
1349.201204754001
 30
0.0
 11
9422.08605069571
 21
1349.201204754001
 31
0.0
  0
LINE
  5
1F37A
330
747D
100
AcDbEntity
  8
部品1
100
AcDbLine
 10
9477.08605069571
 20
1328.801204754
 30
0.0
 11
9477.08605069571
 21
1316.801204753999
 31
0.0
  0
LINE
  5
1F37B
330
747D
100
AcDbEntity
  8
細線
100
AcDbLine
 10
9362.937856218687
 20
1581.95240875381
 30
0.0
 11
9328.0890602185
 21
1616.801204753999
 31
0.0
  0
LINE
  5
1F37C
330
747D
100
AcDbEntity
  8
細線
100
AcDbLine
 10
9359.006718625051
 20
1543.457139476253
 30
0.0
 11
9285.662653347307
 21
1616.801204753999
 31
0.0
  0
LINE
  5
1F37D
330
747D
100
AcDbEntity
  8
部品1
100
AcDbLine
 10
9377.08605069571
 20
1730.401204753998
 30
0.0
 11
9437.086050695709
 21
1730.401204754002
 31
0.0
  0
ARC
  5
1F37E
330
747D
100
AcDbEntity
  8
部品1
100
AcDbCircle
 10
9377.08605069571
 20
1720.401204753998
 30
0.0
 40
10.0
100
AcDbArc
 50
90.0
 51
180.0
  0
ARC
  5
1F37F
330
747D
100
AcDbEntity
  8
部品1
100
AcDbCircle
 10
9437.086050695709
 20
1720.401204754002
 30
0.0
 40
10.0
100
AcDbArc
 50
0.0
 51
90.0
  0
ARC
  5
1F380
330
747D
100
AcDbEntity
  8
部品1
100
AcDbCircle
 10
9407.08605069571
 20
1670.401204753998
 30
0.0
 40
8.0
100
AcDbArc
 50
28.00674301447729
 51
151.9932569855227
  0
CIRCLE
  5
1F381
330
747D
100
AcDbEntity
  8
部品1
100
AcDbCircle
 10
9407.08605069571
 20
1659.801204753999
 30
0.0
 40
16.0
  0
CIRCLE
  5
1F382
330
747D
100
AcDbEntity
  8
細線
100
AcDbCircle
 10
9407.08605069571
 20
1700.401204753998
 30
0.0
 40
8.0
  0
ARC
  5
1F383
330
747D
100
AcDbEntity
  8
細線
100
AcDbCircle
 10
9407.08605069571
 20
1600.801204753996
 30
0.0
 40
8.0
100
AcDbArc
 50
0.0
 51
180.0
  0
LINE
  5
1F384
330
747D
100
AcDbEntity
  8
細線
100
AcDbLine
 10
9392.086050695711
 20
1530.801204754
 30
0.0
 11
9422.08605069571
 21
1530.801204754
 31
0.0
  0
LINE
  5
1F385
330
747D
100
AcDbEntity
  8
細線
100
AcDbLine
 10
9392.086050695711
 20
1536.801204754
 30
0.0
 11
9422.08605069571
 21
1536.801204754
 31
0.0
  0
LINE
  5
1F386
330
747D
100
AcDbEntity
  8
細線
100
AcDbLine
 10
9392.086050695711
 20
1536.801204754
 30
0.0
 11
9392.086050695711
 21
1530.801204754
 31
0.0
  0
LINE
  5
1F387
330
747D
100
AcDbEntity
  8
細線
100
AcDbLine
 10
9422.08605069571
 20
1536.801204753996
 30
0.0
 11
9422.08605069571
 21
1530.801204753996
 31
0.0
  0
LINE
  5
1F388
330
747D
100
AcDbEntity
  8
細線
100
AcDbLine
 10
9399.086050695711
 20
1600.801204753996
 30
0.0
 11
9399.086050695711
 21
1574.257611214551
 31
0.0
  0
LINE
  5
1F389
330
747D
100
AcDbEntity
  8
細線
100
AcDbLine
 10
9415.086050695711
 20
1600.801204753996
 30
0.0
 11
9415.086050695711
 21
1574.257611214551
 31
0.0
  0
CIRCLE
  5
1F38A
330
747D
100
AcDbEntity
  8
部品1
100
AcDbCircle
 10
9407.08605069571
 20
1560.401204753998
 30
0.0
 40
16.0
  0
LINE
  5
1F38B
330
747D
100
AcDbEntity
  8
部品1
100
AcDbLine
 10
9376.140110175954
 20
1622.801204754
 30
0.0
 11
9438.031991215465
 21
1622.801204753996
 31
0.0
  0
ARC
  5
1F38C
330
747D
100
AcDbEntity
  8
部品1
100
AcDbCircle
 10
9376.140110175954
 20
1612.801204753999
 30
0.0
 40
10.0
100
AcDbArc
 50
90.0
 51
174.3157584018144
  0
ARC
  5
1F38D
330
747D
100
AcDbEntity
  8
部品1
100
AcDbCircle
 10
9438.031991215465
 20
1612.801204753996
 30
0.0
 40
10.0
100
AcDbArc
 50
5.68424159818561
 51
90.0
  0
ARC
  5
1F38E
330
747D
100
AcDbEntity
  8
部品1
100
AcDbCircle
 10
9407.08605069571
 20
1630.401204753998
 30
0.0
 40
8.0
100
AcDbArc
 50
180.0
 51
251.8051276613334
  0
ARC
  5
1F38F
330
747D
100
AcDbEntity
  8
部品1
100
AcDbCircle
 10
9407.08605069571
 20
1630.401204753998
 30
0.0
 40
8.0
100
AcDbArc
 50
288.1948723386665
 51
0.0
  0
LINE
  5
1F390
330
747D
100
AcDbEntity
  8
部品1
100
AcDbLine
 10
9367.086050695711
 20
1720.401204753998
 30
0.0
 11
9367.086050695711
 21
1617.046673742006
 31
0.0
  0
LINE
  5
1F391
330
747D
100
AcDbEntity
  8
部品1
100
AcDbLine
 10
9447.086050695711
 20
1720.401204754002
 30
0.0
 11
9447.086050695711
 21
1617.046673742012
 31
0.0
  0
LINE
  5
1F392
330
747D
100
AcDbEntity
  8
部品1
100
AcDbLine
 10
9415.086050695711
 20
1645.944798293447
 30
0.0
 11
9415.086050695711
 21
1630.401204753998
 31
0.0
  0
LINE
  5
1F393
330
747D
100
AcDbEntity
  8
部品1
100
AcDbLine
 10
9399.086050695711
 20
1645.944798293447
 30
0.0
 11
9399.086050695711
 21
1630.401204753998
 31
0.0
  0
TEXT
  5
1F394
330
747D
100
AcDbEntity
  8
部品1
100
AcDbText
 10
7912.335023551706
 20
2351.906466646886
 30
0.0
 40
120.0
  1
地盤がコンクリートの場合
  7
STYLE2
100
AcDbText
  0
LINE
  5
1F395
330
747D
100
AcDbEntity
  8
部品1
 48
50.0
100
AcDbLine
 10
10350.99024270643
 20
2776.040417142247
 30
0.0
 11
10350.99024270643
 21
376.0404171422451
 31
0.0
  0
DIMENSION
  5
1F396
330
747D
100
AcDbEntity
  8
寸法
 48
50.0
100
AcDbDimension
  2
*D5
 10
6581.768949330028
 20
1316.801204753999
 30
0.0
 11
6481.768949330028
 21
1416.801204754001
 31
0.0
 70
    32
  1
a
 71
     5
 42
200.0000000000009
  3
INABA_S40G
100
AcDbAlignedDimension
 13
6333.697944969634
 23
1516.801204754
 33
0.0
 14
6333.697944969634
 24
1316.801204753999
 34
0.0
 50
90.0
100
AcDbRotatedDimension
1001
ACAD
1000
DSTYLE
1002
{
1070
   174
1070
     0
1070
   272
1070
     1
1070
   288
1070
     0
1070
   341
1005
0
1002
}
  0
TEXT
  5
1F397
330
747D
100
AcDbEntity
  8
部品1
100
AcDbText
 10
7240.157499955029
 20
849.9655269893528
 30
0.0
 40
80.0
  1
b寸法：100～120mmに対応
  7
STYLE2
100
AcDbText
  0
TEXT
  5
1F398
330
747D
100
AcDbEntity
  8
部品1
100
AcDbText
 10
7244.702954500481
 20
704.3594663832923
 30
0.0
 40
80.0
  1
\U+203BオールアンカーM10(市販品)
  7
STYLE2
100
AcDbText
  0
TEXT
  5
1F399
330
747D
100
AcDbEntity
  8
部品1
100
AcDbText
 10
7246.066590864117
 20
554.6624966863228
 30
0.0
 40
80.0
  1
  が4本必要になります。
  7
STYLE2
100
AcDbText
  0
TEXT
  5
1F39A
330
747D
100
AcDbEntity
  8
部品1
100
AcDbText
 10
8799.489344479662
 20
849.9655269893528
 30
0.0
 40
80.0
  1
c寸法：135～175,190mmに対応
  7
STYLE2
100
AcDbText
  0
TEXT
  5
1F39B
330
747D
100
AcDbEntity
  8
部品1
100
AcDbText
 10
8803.580253570574
 20
704.3594663832923
 30
0.0
 40
80.0
  1
\U+203BオールアンカーM10(市販品)
  7
STYLE2
100
AcDbText
  0
TEXT
  5
1F39C
330
747D
100
AcDbEntity
  8
部品1
100
AcDbText
 10
8804.943889934209
 20
554.6624966863228
 30
0.0
 40
80.0
  1
  が4本必要になります。
  7
STYLE2
100
AcDbText
  0
TEXT
  5
1F39D
330
747D
100
AcDbEntity
  8
部品1
100
AcDbText
 10
5687.539520755374
 20
578.1317842692633
 30
0.0
 40
80.0
  1
a寸法：100～150mmに対応
  7
STYLE2
100
AcDbText
  0
DIMENSION
  5
1F702
330
747D
100
AcDbEntity
  8
寸法
 48
50.0
100
AcDbDimension
  2
*D15
 10
9160.6
 20
7380.62423713596
 30
0.0
 11
8797.1
 21
7480.636048159581
 31
0.0
 70
    32
 71
     5
 42
727.0
  3
INABA_S40G
100
AcDbAlignedDimension
 13
8433.6
 23
6871.999999999998
 33
0.0
 14
9160.6
 24
6871.999999999994
 34
0.0
100
AcDbRotatedDimension
1001
ACAD
1000
DSTYLE
1002
{
1070
   174
1070
     0
1070
   272
1070
     1
1070
   288
1070
     0
1070
   341
1005
0
1002
}
  0
LINE
  5
1F703
330
747D
100
AcDbEntity
  8
部品1
 48
50.0
100
AcDbLine
 10
9569.600000000001
 20
6681.999999999995
 30
0.0
 11
9569.600000000001
 21
6871.999999999994
 31
0.0
  0
LINE
  5
1F704
330
747D
100
AcDbEntity
  8
部品1
 48
50.0
100
AcDbLine
 10
9255.600000000001
 20
5499.999999999994
 30
0.0
 11
9065.600000000001
 21
5499.999999999994
 31
0.0
  0
LINE
  5
1F706
330
747D
100
AcDbEntity
  8
部品1
 48
50.0
100
AcDbLine
 10
9065.600000000001
 20
5499.999999999999
 30
0.0
 11
9065.600000000001
 21
5689.999999999998
 31
0.0
  0
LINE
  5
1F707
330
747D
100
AcDbEntity
  8
部品1
 48
50.0
100
AcDbLine
 10
9255.600000000001
 20
5499.999999999999
 30
0.0
 11
9255.600000000001
 21
5689.999999999998
 31
0.0
  0
LINE
  5
1F708
330
747D
100
AcDbEntity
  8
部品1
 48
50.0
100
AcDbLine
 10
9959.600000000001
 20
6681.999999999998
 30
0.0
 11
9959.600000000001
 21
6871.999999999998
 31
0.0
  0
LINE
  5
1F709
330
747D
100
AcDbEntity
  8
部品1
 48
50.0
100
AcDbLine
 10
9255.600000000001
 20
6871.999999999994
 30
0.0
 11
9065.600000000001
 21
6871.999999999994
 31
0.0
  0
LINE
  5
1F70B
330
747D
100
AcDbEntity
  8
部品1
 48
50.0
100
AcDbLine
 10
9065.600000000001
 20
6681.999999999998
 30
0.0
 11
9065.600000000001
 21
6871.999999999998
 31
0.0
  0
LINE
  5
1F70C
330
747D
100
AcDbEntity
  8
部品1
 48
50.0
100
AcDbLine
 10
9255.600000000001
 20
6681.999999999998
 30
0.0
 11
9255.600000000001
 21
6871.999999999998
 31
0.0
  0
LINE
  5
1F70D
330
747D
100
AcDbEntity
  8
部品1
 48
50.0
100
AcDbLine
 10
8528.6
 20
6682.000000000002
 30
0.0
 11
8528.6
 21
6872.000000000001
 31
0.0
  0
LINE
  5
1F70E
330
747D
100
AcDbEntity
  8
部品1
 48
50.0
100
AcDbLine
 10
8338.600000000001
 20
6682.000000000002
 30
0.0
 11
8338.600000000001
 21
6872.000000000001
 31
0.0
  0
LINE
  5
1F710
330
747D
100
AcDbEntity
  8
部品1
 48
50.0
100
AcDbLine
 10
8528.6
 20
6871.999999999998
 30
0.0
 11
8338.600000000001
 21
6871.999999999998
 31
0.0
  0
LINE
  5
1F711
330
747D
100
AcDbEntity
  8
部品1
 48
50.0
100
AcDbLine
 10
8528.6
 20
5500.000000000002
 30
0.0
 11
8528.6
 21
5690.000000000002
 31
0.0
  0
LINE
  5
1F712
330
747D
100
AcDbEntity
  8
部品1
 48
50.0
100
AcDbLine
 10
8338.600000000001
 20
5500.000000000002
 30
0.0
 11
8338.600000000001
 21
5690.000000000002
 31
0.0
  0
LINE
  5
1F714
330
747D
100
AcDbEntity
  8
部品1
 48
50.0
100
AcDbLine
 10
8528.6
 20
5499.999999999999
 30
0.0
 11
8338.600000000001
 21
5499.999999999999
 31
0.0
  0
TEXT
  5
1F715
330
747D
100
AcDbEntity
  8
文字
 48
50.0
100
AcDbText
 10
10486.75041623232
 20
6867.363529387933
 30
0.0
 40
120.0
  1
深サ:250
  7
STYLE1
100
AcDbText
  0
LEADER
  5
1F716
330
747D
100
AcDbEntity
  8
寸法
 48
50.0
100
AcDbLeader
  3
INABA_S50G
 71
     0
 73
     0
 74
     0
 75
     1
 40
120.0
 41
185.591883092037
 76
     3
 10
7127.606616180269
 20
6712.059464785003
 30
0.0
 10
7199.282920337859
 20
6440.878486061535
 30
0.0
 10
7324.282920337859
 20
6440.878486061535
 30
0.0
340
1F717
1001
ACAD
1000
DSTYLE
1002
{
1070
   341
1005
1C530
1070
    40
1040
1.0
1070
   343
1005
1C530
1070
   344
1005
1C530
1002
}
  0
MTEXT
  5
1F717
102
{ACAD_REACTORS
330
1F716
102
}
330
747D
100
AcDbEntity
  8
部品1
 62
     7
 48
50.0
100
AcDbMText
 10
7349.282920337859
 20
6525.878486061536
 30
0.0
 40
120.0
 41
0.0
 71
     4
 72
     1
  1
\A1;C.B
  7
STYLE1
 73
     1
 44
1.0
1001
ACAD
1000
MTEXTBEGIN
1070
    73
1070
     1
1070
    44
1040
1.0
1070
    74
1070
     0
1000
MTEXTEND
  0
TEXT
  5
1F718
330
747D
100
AcDbEntity
  8
文字
 48
50.0
100
AcDbText
 10
7210.341735473322
 20
6273.379886567915
 30
0.0
 40
120.0
  1
100x190x390
  7
STYLE1
100
AcDbText
  0
LEADER
  5
1F71B
330
747D
100
AcDbEntity
  8
寸法
 48
50.0
100
AcDbLeader
  3
INABA_S50G
 71
     0
 73
     0
 74
     0
 75
     1
 40
120.0
 41
1282.349242404918
 76
     3
 10
10049.32467532425
 20
6861.456639287915
 30
0.0
 10
10305.71188690667
 20
7057.800576904056
 30
0.0
 10
10430.71188690667
 20
7057.800576904056
 30
0.0
340
1F71C
1001
ACAD
1000
DSTYLE
1002
{
1070
   341
1005
1C530
1070
    40
1040
1.0
1070
   343
1005
1C530
1070
   344
1005
1C530
1002
}
  0
MTEXT
  5
1F71C
102
{ACAD_REACTORS
330
1F71B
102
}
330
747D
100
AcDbEntity
  8
部品1
 62
     7
 48
50.0
100
AcDbMText
 10
10455.71188690667
 20
7142.800576904055
 30
0.0
 40
120.0
 41
0.0
 71
     4
 72
     1
  1
現場打コンクリート
  7
STYLE1
 73
     1
 44
1.0
1001
ACAD
1000
MTEXTBEGIN
1070
    73
1070
     1
1070
    44
1040
1.0
1070
    74
1070
     0
1000
MTEXTEND
  0
TEXT
  5
1F71D
330
747D
100
AcDbEntity
  8
部品1
 48
50.0
100
AcDbText
 10
10463.83581900176
 20
7269.278165376133
 30
0.0
 40
120.0
  1
組立後
  7
STYLE1
100
AcDbText
  0
DIMENSION
  5
1F71E
330
747D
100
AcDbEntity
  8
寸法
 48
50.0
100
AcDbDimension
  2
*D6
 10
9959.600000000001
 20
7380.62423713596
 30
0.0
 11
9560.1
 21
7480.62423713596
 31
0.0
 70
    32
 71
     5
 42
799.0
  3
INABA_S40G
100
AcDbAlignedDimension
 13
9160.6
 23
6871.999999999994
 33
0.0
 14
9959.600000000001
 24
6871.999999999998
 34
0.0
100
AcDbRotatedDimension
1001
ACAD
1000
DSTYLE
1002
{
1070
   174
1070
     0
1070
   272
1070
     1
1070
   288
1070
     0
1070
   341
1005
0
1002
}
  0
DIMENSION
  5
1F71F
330
747D
100
AcDbEntity
  8
寸法
 48
50.0
100
AcDbDimension
  2
*D7
 10
6907.600000000001
 20
7380.62423713596
 30
0.0
 11
7307.100000000001
 21
7480.62423713596
 31
0.0
 70
    32
 71
     5
 42
799.0
  3
INABA_S40G
100
AcDbAlignedDimension
 13
7706.6
 23
6871.999999999998
 33
0.0
 14
6907.600000000001
 24
6871.999999999998
 34
0.0
100
AcDbRotatedDimension
1001
ACAD
1000
DSTYLE
1002
{
1070
   174
1070
     0
1070
   272
1070
     1
1070
   288
1070
     0
1070
   341
1005
0
1002
}
  0
DIMENSION
  5
1F720
330
747D
100
AcDbEntity
  8
寸法
 48
50.0
100
AcDbDimension
  2
*D8
 10
8433.6
 20
7380.62423713596
 30
0.0
 11
8070.100000000001
 21
7480.636048159581
 31
0.0
 70
    32
 71
     5
 42
727.0
  3
INABA_S40G
100
AcDbAlignedDimension
 13
7706.6
 23
6871.999999999998
 33
0.0
 14
8433.6
 24
6871.999999999998
 34
0.0
100
AcDbRotatedDimension
1001
ACAD
1000
DSTYLE
1002
{
1070
   174
1070
     0
1070
   272
1070
     1
1070
   288
1070
     0
1070
   341
1005
0
1002
}
  0
LINE
  5
1F721
330
747D
100
AcDbEntity
  8
部品1
 48
50.0
100
AcDbLine
 10
7801.6
 20
6871.999999999998
 30
0.0
 11
7611.6
 21
6871.999999999998
 31
0.0
  0
LINE
  5
1F723
330
747D
100
AcDbEntity
  8
部品1
 48
50.0
100
AcDbLine
 10
7611.6
 20
6682.000000000002
 30
0.0
 11
7611.6
 21
6872.000000000001
 31
0.0
  0
LINE
  5
1F724
330
747D
100
AcDbEntity
  8
部品1
 48
50.0
100
AcDbLine
 10
7801.6
 20
6682.000000000002
 30
0.0
 11
7801.6
 21
6872.000000000001
 31
0.0
  0
LINE
  5
1F725
330
747D
100
AcDbEntity
  8
部品1
 48
50.0
100
AcDbLine
 10
7801.6
 20
5499.999999999999
 30
0.0
 11
7611.6
 21
5499.999999999999
 31
0.0
  0
LINE
  5
1F727
330
747D
100
AcDbEntity
  8
部品1
 48
50.0
100
AcDbLine
 10
7611.6
 20
5500.000000000002
 30
0.0
 11
7611.6
 21
5690.000000000002
 31
0.0
  0
LINE
  5
1F728
330
747D
100
AcDbEntity
  8
部品1
 48
50.0
100
AcDbLine
 10
7801.6
 20
5500.000000000002
 30
0.0
 11
7801.6
 21
5690.000000000002
 31
0.0
  0
LINE
  5
1F729
330
747D
100
AcDbEntity
  8
想像線
 48
10.0
100
AcDbLine
 10
6857.599999999999
 20
5442.999999999998
 30
0.0
 11
6860.599999999999
 21
5439.999999999998
 31
0.0
  0
LINE
  5
1F72A
330
747D
100
AcDbEntity
  8
想像線
 48
10.0
100
AcDbLine
 10
6860.600000000001
 20
6951.999999999997
 30
0.0
 11
6857.600000000001
 21
6948.999999999998
 31
0.0
  0
TEXT
  5
1F72B
330
747D
100
AcDbEntity
  8
部品1
 48
50.0
100
AcDbText
 10
8305.786779658715
 20
5281.53338780643
 30
0.0
 40
120.0
  1
扉面
  7
STYLE1
 72
     1
 11
8433.786779658715
 21
5265.53338780643
 31
0.0
100
AcDbText
 73
     1
  0
LINE
  5
1F72C
330
747D
100
AcDbEntity
  8
部品1
 48
50.0
100
AcDbLine
 10
9959.600000000001
 20
6682.000000000002
 30
0.0
 11
9959.600000000001
 21
6872.000000000001
 31
0.0
  0
LINE
  5
1F72D
330
747D
100
AcDbEntity
  8
部品1
 48
50.0
100
AcDbLine
 10
9569.600000000001
 20
6681.999999999998
 30
0.0
 11
9959.600000000001
 21
6681.999999999998
 31
0.0
  0
LINE
  5
1F72E
330
747D
100
AcDbEntity
  8
部品1
 48
50.0
100
AcDbLine
 10
9569.600000000001
 20
6871.999999999998
 30
0.0
 11
9959.600000000001
 21
6871.999999999998
 31
0.0
  0
LINE
  5
1F72F
330
747D
100
AcDbEntity
  8
部品1
 48
50.0
100
AcDbLine
 10
9569.600000000001
 20
6871.999999999994
 30
0.0
 11
9959.600000000001
 21
6871.999999999998
 31
0.0
  0
DIMENSION
  5
1F730
330
747D
100
AcDbEntity
  8
寸法
 48
50.0
100
AcDbDimension
  2
*D9
 10
10009.6
 20
7638.55162580202
 30
0.0
 11
9984.6
 21
7638.55162580202
 31
0.0
 70
   160
  1
a
 71
     5
 42
50.0
  3
INABA_S40G
100
AcDbAlignedDimension
 13
9959.600000000001
 23
6871.999999999998
 33
0.0
 14
10009.6
 24
6952.000000000002
 34
0.0
100
AcDbRotatedDimension
1001
ACAD
1000
DSTYLE
1002
{
1070
   174
1070
     0
1070
   272
1070
     1
1070
   288
1070
     0
1070
   341
1005
0
1002
}
  0
LINE
  5
1F731
330
747D
100
AcDbEntity
  8
部品1
 48
50.0
100
AcDbLine
 10
9959.600000000001
 20
5689.999999999998
 30
0.0
 11
9959.600000000001
 21
5499.999999999999
 31
0.0
  0
LINE
  5
1F732
330
747D
100
AcDbEntity
  8
部品1
 48
50.0
100
AcDbLine
 10
9569.600000000001
 20
5689.999999999998
 30
0.0
 11
9569.600000000001
 21
5499.999999999999
 31
0.0
  0
LINE
  5
1F733
330
747D
100
AcDbEntity
  8
部品1
 48
50.0
100
AcDbLine
 10
9569.600000000001
 20
5500.000000000002
 30
0.0
 11
9959.600000000001
 21
5499.999999999999
 31
0.0
  0
LINE
  5
1F734
330
747D
100
AcDbEntity
  8
部品1
 48
50.0
100
AcDbLine
 10
9569.600000000001
 20
5499.999999999999
 30
0.0
 11
9959.600000000001
 21
5499.999999999999
 31
0.0
  0
LINE
  5
1F735
330
747D
100
AcDbEntity
  8
部品1
 48
50.0
100
AcDbLine
 10
9569.600000000001
 20
5689.999999999998
 30
0.0
 11
9959.600000000001
 21
5689.999999999998
 31
0.0
  0
LINE
  5
1F736
330
747D
100
AcDbEntity
  8
想像線
 48
10.0
100
AcDbLine
 10
10009.6
 20
6952.034175019868
 30
0.0
 11
10009.6
 21
5439.999999999995
 31
0.0
  0
LINE
  5
1F737
330
747D
100
AcDbEntity
  8
部品1
 48
50.0
100
AcDbLine
 10
7297.6
 20
6681.999999999998
 30
0.0
 11
7297.6
 21
6871.999999999998
 31
0.0
  0
LINE
  5
1F738
330
747D
100
AcDbEntity
  8
部品1
 48
50.0
100
AcDbLine
 10
6907.600000000001
 20
6681.999999999998
 30
0.0
 11
6907.600000000001
 21
6871.999999999998
 31
0.0
  0
DIMENSION
  5
1F739
330
747D
100
AcDbEntity
  8
寸法
 48
50.0
100
AcDbDimension
  2
*D10
 10
6907.600000000001
 20
7638.55162580202
 30
0.0
 11
6882.6
 21
7638.55162580202
 31
0.0
 70
   160
  1
a
 71
     5
 42
50.0
  3
INABA_S40G
100
AcDbAlignedDimension
 13
6857.600000000001
 23
6951.999999999998
 33
0.0
 14
6907.600000000001
 24
6871.999999999998
 34
0.0
100
AcDbRotatedDimension
1001
ACAD
1000
DSTYLE
1002
{
1070
   174
1070
     0
1070
   272
1070
     1
1070
   288
1070
     0
1070
   341
1005
0
1002
}
  0
LINE
  5
1F73A
330
747D
100
AcDbEntity
  8
部品1
 48
50.0
100
AcDbLine
 10
7297.6
 20
6681.999999999998
 30
0.0
 11
6907.600000000001
 21
6681.999999999998
 31
0.0
  0
LINE
  5
1F73B
330
747D
100
AcDbEntity
  8
部品1
 48
50.0
100
AcDbLine
 10
7297.6
 20
6871.999999999994
 30
0.0
 11
6907.600000000001
 21
6871.999999999998
 31
0.0
  0
LINE
  5
1F73C
330
747D
100
AcDbEntity
  8
部品1
 48
50.0
100
AcDbLine
 10
7297.6
 20
6871.999999999998
 30
0.0
 11
6907.600000000001
 21
6871.999999999998
 31
0.0
  0
LINE
  5
1F73D
330
747D
100
AcDbEntity
  8
部品1
 48
50.0
100
AcDbLine
 10
7297.6
 20
5689.999999999998
 30
0.0
 11
7297.6
 21
5499.999999999999
 31
0.0
  0
LINE
  5
1F73E
330
747D
100
AcDbEntity
  8
部品1
 48
50.0
100
AcDbLine
 10
8338.600000000001
 20
5690.000000000002
 30
0.0
 11
8338.600000000001
 21
5500.000000000002
 31
0.0
  0
LINE
  5
1F73F
330
747D
100
AcDbEntity
  8
部品1
 48
50.0
100
AcDbLine
 10
7297.6
 20
5689.999999999998
 30
0.0
 11
6907.600000000001
 21
5689.999999999998
 31
0.0
  0
LINE
  5
1F740
330
747D
100
AcDbEntity
  8
部品1
 48
50.0
100
AcDbLine
 10
7297.6
 20
5499.999999999999
 30
0.0
 11
6907.600000000001
 21
5499.999999999999
 31
0.0
  0
LINE
  5
1F741
330
747D
100
AcDbEntity
  8
部品1
 48
50.0
100
AcDbLine
 10
7297.6
 20
5500.000000000002
 30
0.0
 11
6907.600000000001
 21
5499.999999999999
 31
0.0
  0
LINE
  5
1F742
330
747D
100
AcDbEntity
  8
想像線
 48
10.0
100
AcDbLine
 10
6860.599999999999
 20
5439.999999999998
 30
0.0
 11
6857.600000000001
 21
6948.999999999998
 31
0.0
  0
DIMENSION
  5
1F743
330
747D
100
AcDbEntity
  8
寸法
 48
50.0
100
AcDbDimension
  2
*D11
 10
6466.888116550752
 20
6871.999999999998
 30
0.0
 11
6466.888116550748
 21
6912.0
 31
0.0
 70
   160
  1
c
 71
     5
 42
80.0
  3
INABA_S40G
100
AcDbAlignedDimension
 13
6857.600000000001
 23
6951.999999999998
 33
0.0
 14
6907.600000000001
 24
6871.999999999998
 34
0.0
 50
90.0
100
AcDbRotatedDimension
1001
ACAD
1000
DSTYLE
1002
{
1070
   174
1070
     0
1070
   272
1070
     1
1070
   288
1070
     0
1070
   341
1005
0
1002
}
  0
DIMENSION
  5
1F744
330
747D
100
AcDbEntity
  8
寸法
 48
50.0
100
AcDbDimension
  2
*D12
 10
6466.88811655075
 20
5499.999999999999
 30
0.0
 11
6366.876305527128
 21
6186.0
 31
0.0
 70
    32
 71
     5
 42
1372.0
  3
INABA_S40G
100
AcDbAlignedDimension
 13
6907.600000000001
 23
6871.999999999998
 33
0.0
 14
6907.600000000001
 24
5499.999999999999
 34
0.0
 50
90.0
100
AcDbRotatedDimension
1001
ACAD
1000
DSTYLE
1002
{
1070
   174
1070
     0
1070
   272
1070
     1
1070
   288
1070
     0
1070
   341
1005
0
1002
}
  0
DIMENSION
  5
1F745
330
747D
100
AcDbEntity
  8
寸法
 48
50.0
100
AcDbDimension
  2
*D13
 10
6466.88811655075
 20
5439.999999999998
 30
0.0
 11
6466.888116550748
 21
5470.0
 31
0.0
 70
   160
  1
b
 71
     5
 42
60.0
  3
INABA_S40G
100
AcDbAlignedDimension
 13
6907.600000000001
 23
5499.999999999999
 33
0.0
 14
6857.600000000001
 24
5439.999999999998
 34
0.0
 50
90.0
100
AcDbRotatedDimension
1001
ACAD
1000
DSTYLE
1002
{
1070
   174
1070
     0
1070
   272
1070
     1
1070
   288
1070
     0
1070
   341
1005
0
1002
}
  0
LINE
  5
1F746
330
747D
100
AcDbEntity
  8
想像線
 48
10.0
100
AcDbLine
 10
6860.600000000001
 20
6951.999999999997
 30
0.0
 11
10009.6
 21
6952.000000000002
 31
0.0
  0
LINE
  5
1F747
330
747D
100
AcDbEntity
  8
想像線
 48
10.0
100
AcDbLine
 10
10009.6
 20
5439.999999999995
 30
0.0
 11
6860.599999999999
 21
5439.999999999998
 31
0.0
  0
DIMENSION
  5
1F748
330
747D
100
AcDbEntity
  8
寸法
 48
50.0
100
AcDbDimension
  2
*D14
 10
9959.600000000001
 20
7638.55162580202
 30
0.0
 11
8433.6
 21
7638.55162580202
 31
0.0
 70
   160
 71
     5
 42
3052.0
  3
INABA_S40G
100
AcDbAlignedDimension
 13
6907.600000000001
 23
6871.999999999998
 33
0.0
 14
9959.600000000001
 24
6871.999999999998
 34
0.0
100
AcDbRotatedDimension
1001
ACAD
1000
DSTYLE
1002
{
1070
   174
1070
     0
1070
   272
1070
     1
1070
   288
1070
     0
1070
   341
1005
0
1002
}
  0
LEADER
  5
1F749
330
747D
100
AcDbEntity
  8
寸法
 48
50.0
100
AcDbLeader
  3
INABA_S50G
 71
     0
 73
     0
 74
     0
 75
     1
 40
120.0
 41
672.0
 76
     3
 10
7092.496925270943
 20
5439.999999999998
 30
0.0
 10
7340.734111875436
 20
5059.982608040208
 30
0.0
 10
7465.734111875436
 20
5059.982608040208
 30
0.0
340
1F74A
1001
ACAD
1000
DSTYLE
1002
{
1070
   341
1005
1C530
1070
    40
1040
1.0
1070
   343
1005
1C530
1070
   344
1005
1C530
1002
}
  0
MTEXT
  5
1F74A
102
{ACAD_REACTORS
330
1F749
102
}
330
747D
100
AcDbEntity
  8
部品1
 62
     7
 48
50.0
100
AcDbMText
 10
8162.734111875435
 20
5144.982608040208
 30
0.0
 40
120.0
 41
0.0
 71
     6
 72
     1
  1
\A1;屋根の外寸
  7
STYLE1
 73
     1
 44
1.0
1001
ACAD
1000
MTEXTBEGIN
1070
    73
1070
     1
1070
    44
1040
1.0
1070
    74
1070
     0
1000
MTEXTEND
  0
TEXT
  5
1F74B
330
747D
100
AcDbEntity
  8
部品1
 48
50.0
100
AcDbText
 10
7296.564021698667
 20
4933.314707840742
 30
0.0
 40
80.0
  1
※a,b,cは屋根の出幅です。
  7
STYLE1
100
AcDbText
  0
TEXT
  5
1F74C
330
747D
100
AcDbEntity
  8
部品1
 48
50.0
100
AcDbText
 10
7410.264262424617
 20
4799.758181754798
 30
0.0
 40
80.0
  1
(a=50,b=60,c=80)
  7
STYLE1
100
AcDbText
  0
LINE
  5
1F939
330
747D
100
AcDbEntity
  8
部品1
 48
50.0
100
AcDbLine
 10
7297.6
 20
5499.999999999999
 30
0.0
 11
6907.600000000001
 21
5499.999999999999
 31
0.0
  0
LINE
  5
1F987
330
747D
100
AcDbEntity
  8
点線
 48
10.0
100
AcDbLine
 10
9834.6
 20
5625.0
 30
0.0
 11
10084.59999999999
 21
5624.999999999996
 31
0.0
  0
LINE
  5
1F988
330
747D
100
AcDbEntity
  8
点線
 48
10.0
100
AcDbLine
 10
9834.600000000001
 20
5374.999999999999
 30
0.0
 11
10084.6
 21
5375.0
 31
0.0
  0
LINE
  5
1F989
330
747D
100
AcDbEntity
  8
点線
 48
10.0
100
AcDbLine
 10
10084.59999999999
 20
5624.999999999996
 30
0.0
 11
10084.6
 21
5375.0
 31
0.0
  0
DIMENSION
  5
1F98A
330
747D
100
AcDbEntity
  8
寸法
 48
50.0
100
AcDbDimension
  2
*D16
 10
10348.66514751621
 20
5374.999999999999
 30
0.0
 11
10348.6651475162
 21
5500.0
 31
0.0
 70
   160
 71
     5
 42
249.9999999999973
  3
INABA_S40G
100
AcDbAlignedDimension
 13
10084.59999999999
 23
5624.999999999996
 33
0.0
 14
10084.6
 24
5375.0
 34
0.0
 50
90.0
100
AcDbRotatedDimension
1001
ACAD
1000
DSTYLE
1002
{
1070
   174
1070
     0
1070
   272
1070
     1
1070
   288
1070
     0
1070
   341
1005
0
1002
}
  0
DIMENSION
  5
1F98B
330
747D
100
AcDbEntity
  8
寸法
 48
50.0
100
AcDbDimension
  2
*D17
 10
9834.600000000001
 20
5146.674515054534
 30
0.0
 11
9959.600000000001
 21
5146.674515054534
 31
0.0
 70
   160
 71
     5
 42
250.0000000000018
  3
INABA_S40G
100
AcDbAlignedDimension
 13
10084.6
 23
5375.0
 33
0.0
 14
9834.600000000001
 24
5374.999999999999
 34
0.0
100
AcDbRotatedDimension
1001
ACAD
1000
DSTYLE
1002
{
1070
   174
1070
     0
1070
   272
1070
     1
1070
   288
1070
     0
1070
   341
1005
0
1002
}
  0
LINE
  5
1F98C
330
747D
100
AcDbEntity
  8
点線
 48
10.0
100
AcDbLine
 10
9834.6
 20
5625.0
 30
0.0
 11
9834.600000000001
 21
5374.999999999999
 31
0.0
  0
LINE
  5
1F9CB
330
747D
100
AcDbEntity
  8
点線
 48
10.0
100
AcDbLine
 10
9834.600000000001
 20
6746.999999999998
 30
0.0
 11
10084.6
 21
6746.999999999999
 31
0.0
  0
LINE
  5
1F9CC
330
747D
100
AcDbEntity
  8
点線
 48
10.0
100
AcDbLine
 10
9834.6
 20
6996.999999999999
 30
0.0
 11
9834.600000000001
 21
6746.999999999998
 31
0.0
  0
LINE
  5
1F9CD
330
747D
100
AcDbEntity
  8
点線
 48
10.0
100
AcDbLine
 10
9834.6
 20
6996.999999999999
 30
0.0
 11
10084.59999999999
 21
6996.999999999997
 31
0.0
  0
LINE
  5
1F9CE
330
747D
100
AcDbEntity
  8
点線
 48
10.0
100
AcDbLine
 10
10084.59999999999
 20
6996.999999999997
 30
0.0
 11
10084.6
 21
6746.999999999999
 31
0.0
  0
LINE
  5
1F9CF
330
747D
100
AcDbEntity
  8
点線
 48
10.0
100
AcDbLine
 10
7032.599999999996
 20
6996.999999999997
 30
0.0
 11
7032.600000000002
 21
6746.999999999999
 31
0.0
  0
LINE
  5
1F9D0
330
747D
100
AcDbEntity
  8
点線
 48
10.0
100
AcDbLine
 10
6782.600000000001
 20
6746.999999999998
 30
0.0
 11
7032.600000000002
 21
6746.999999999999
 31
0.0
  0
LINE
  5
1F9D1
330
747D
100
AcDbEntity
  8
点線
 48
10.0
100
AcDbLine
 10
6782.599999999999
 20
6996.999999999999
 30
0.0
 11
6782.600000000001
 21
6746.999999999998
 31
0.0
  0
LINE
  5
1F9D2
330
747D
100
AcDbEntity
  8
点線
 48
10.0
100
AcDbLine
 10
6782.599999999999
 20
6996.999999999999
 30
0.0
 11
7032.599999999996
 21
6996.999999999997
 31
0.0
  0
LINE
  5
1F9D3
330
747D
100
AcDbEntity
  8
点線
 48
10.0
100
AcDbLine
 10
6782.599999999999
 20
5625.0
 30
0.0
 11
6782.600000000001
 21
5374.999999999999
 31
0.0
  0
LINE
  5
1F9D4
330
747D
100
AcDbEntity
  8
点線
 48
10.0
100
AcDbLine
 10
6782.600000000001
 20
5374.999999999999
 30
0.0
 11
7032.600000000002
 21
5375.0
 31
0.0
  0
LINE
  5
1F9D5
330
747D
100
AcDbEntity
  8
点線
 48
10.0
100
AcDbLine
 10
7032.599999999996
 20
5624.999999999996
 30
0.0
 11
7032.600000000002
 21
5375.0
 31
0.0
  0
LINE
  5
1F9D6
330
747D
100
AcDbEntity
  8
点線
 48
10.0
100
AcDbLine
 10
6782.599999999999
 20
5625.0
 30
0.0
 11
7032.599999999996
 21
5624.999999999996
 31
0.0
  0
LINE
  5
1F9D7
330
747D
100
AcDbEntity
  8
部品1
 48
50.0
100
AcDbLine
 10
8528.6
 20
5890.000000000002
 30
0.0
 11
8528.6
 21
5500.000000000002
 31
0.0
  0
LINE
  5
1F9D8
330
747D
100
AcDbEntity
  8
部品1
 48
50.0
100
AcDbLine
 10
8528.599999999997
 20
5890.000000000002
 30
0.0
 11
8528.6
 21
5500.000000000002
 31
0.0
  0
LINE
  5
1F9D9
330
747D
100
AcDbEntity
  8
部品1
 48
50.0
100
AcDbLine
 10
8528.6
 20
5890.000000000002
 30
0.0
 11
8528.6
 21
5500.000000000002
 31
0.0
  0
LINE
  5
1F9DA
330
747D
100
AcDbEntity
  8
部品1
 48
50.0
100
AcDbLine
 10
8338.600000000001
 20
5890.000000000002
 30
0.0
 11
8338.600000000001
 21
5500.000000000002
 31
0.0
  0
LINE
  5
1F9DB
330
747D
100
AcDbEntity
  8
部品1
 48
50.0
100
AcDbLine
 10
8338.600000000001
 20
5500.000000000002
 30
0.0
 11
8528.6
 21
5500.000000000002
 31
0.0
  0
LINE
  5
1F9DC
330
747D
100
AcDbEntity
  8
部品1
 48
50.0
100
AcDbLine
 10
8338.600000000001
 20
5890.000000000002
 30
0.0
 11
8528.6
 21
5890.000000000002
 31
0.0
  0
LINE
  5
1F9DD
330
747D
100
AcDbEntity
  8
部品1
 48
50.0
100
AcDbLine
 10
7611.6
 20
5890.000000000002
 30
0.0
 11
7801.6
 21
5890.000000000002
 31
0.0
  0
LINE
  5
1F9DE
330
747D
100
AcDbEntity
  8
部品1
 48
50.0
100
AcDbLine
 10
7611.6
 20
5500.000000000002
 30
0.0
 11
7801.6
 21
5500.000000000002
 31
0.0
  0
LINE
  5
1F9DF
330
747D
100
AcDbEntity
  8
部品1
 48
50.0
100
AcDbLine
 10
7611.6
 20
5890.000000000002
 30
0.0
 11
7611.6
 21
5500.000000000002
 31
0.0
  0
LINE
  5
1F9E0
330
747D
100
AcDbEntity
  8
部品1
 48
50.0
100
AcDbLine
 10
7801.6
 20
5890.000000000002
 30
0.0
 11
7801.6
 21
5500.000000000002
 31
0.0
  0
LINE
  5
1F9E1
330
747D
100
AcDbEntity
  8
部品1
 48
50.0
100
AcDbLine
 10
7801.599999999996
 20
5890.000000000002
 30
0.0
 11
7801.6
 21
5500.000000000002
 31
0.0
  0
LINE
  5
1F9E2
330
747D
100
AcDbEntity
  8
部品1
 48
50.0
100
AcDbLine
 10
7801.6
 20
5890.000000000002
 30
0.0
 11
7801.6
 21
5500.000000000002
 31
0.0
  0
LINE
  5
1F9E3
330
747D
100
AcDbEntity
  8
部品1
 48
50.0
100
AcDbLine
 10
7611.6
 20
5690.000000000002
 30
0.0
 11
7611.6
 21
5500.000000000002
 31
0.0
  0
LINE
  5
1F9E4
330
747D
100
AcDbEntity
  8
部品1
 48
50.0
100
AcDbLine
 10
9065.600000000001
 20
5889.999999999998
 30
0.0
 11
9255.600000000001
 21
5889.999999999998
 31
0.0
  0
LINE
  5
1F9E5
330
747D
100
AcDbEntity
  8
部品1
 48
50.0
100
AcDbLine
 10
9065.600000000001
 20
5499.999999999999
 30
0.0
 11
9255.600000000001
 21
5499.999999999999
 31
0.0
  0
LINE
  5
1F9E6
330
747D
100
AcDbEntity
  8
部品1
 48
50.0
100
AcDbLine
 10
9065.600000000001
 20
5889.999999999998
 30
0.0
 11
9065.600000000001
 21
5499.999999999999
 31
0.0
  0
LINE
  5
1F9E7
330
747D
100
AcDbEntity
  8
部品1
 48
50.0
100
AcDbLine
 10
9255.600000000001
 20
5889.999999999998
 30
0.0
 11
9255.600000000001
 21
5499.999999999999
 31
0.0
  0
LINE
  5
1F9E8
330
747D
100
AcDbEntity
  8
部品1
 48
50.0
100
AcDbLine
 10
9255.599999999997
 20
5889.999999999998
 30
0.0
 11
9255.600000000001
 21
5499.999999999999
 31
0.0
  0
LINE
  5
1F9E9
330
747D
100
AcDbEntity
  8
部品1
 48
50.0
100
AcDbLine
 10
9255.600000000001
 20
5889.999999999998
 30
0.0
 11
9255.600000000001
 21
5499.999999999999
 31
0.0
  0
LINE
  5
1F9EA
330
747D
100
AcDbEntity
  8
部品1
 48
50.0
100
AcDbLine
 10
9065.600000000001
 20
5689.999999999998
 30
0.0
 11
9065.600000000001
 21
5499.999999999999
 31
0.0
  0
LINE
  5
1F9EB
330
747D
100
AcDbEntity
  8
部品1
 48
50.0
100
AcDbLine
 10
9255.600000000001
 20
5499.999999999994
 30
0.0
 11
9065.600000000001
 21
5499.999999999994
 31
0.0
  0
LINE
  5
1F9ED
330
747D
100
AcDbEntity
  8
部品1
 48
50.0
100
AcDbLine
 10
9065.600000000001
 20
5499.999999999999
 30
0.0
 11
9065.600000000001
 21
5689.999999999998
 31
0.0
  0
LINE
  5
1F9EE
330
747D
100
AcDbEntity
  8
部品1
 48
50.0
100
AcDbLine
 10
9255.600000000001
 20
5499.999999999999
 30
0.0
 11
9255.600000000001
 21
5689.999999999998
 31
0.0
  0
LINE
  5
1F9EF
330
747D
100
AcDbEntity
  8
寸法
 62
     0
 48
50.0
100
AcDbLine
 10
6907.600000000001
 20
5689.999999999998
 30
0.0
 11
6907.600000000001
 21
5499.999999999999
 31
0.0
  0
LINE
  5
1F9F0
330
747D
100
AcDbEntity
  8
部品1
 48
50.0
100
AcDbLine
 10
9255.600000000001
 20
6481.999999999995
 30
0.0
 11
9255.600000000001
 21
6671.999999999994
 31
0.0
  0
LINE
  5
1F9F1
330
747D
100
AcDbEntity
  8
部品1
 48
50.0
100
AcDbLine
 10
9065.600000000001
 20
6481.999999999995
 30
0.0
 11
9065.600000000001
 21
6671.999999999994
 31
0.0
  0
LINE
  5
1F9F3
330
747D
100
AcDbEntity
  8
部品1
 48
50.0
100
AcDbLine
 10
9255.600000000001
 20
6481.999999999991
 30
0.0
 11
9065.600000000001
 21
6481.999999999991
 31
0.0
  0
LINE
  5
1F9F4
330
747D
100
AcDbEntity
  8
部品1
 48
50.0
100
AcDbLine
 10
9065.600000000001
 20
6671.999999999994
 30
0.0
 11
9065.600000000001
 21
6481.999999999995
 31
0.0
  0
LINE
  5
1F9F5
330
747D
100
AcDbEntity
  8
部品1
 48
50.0
100
AcDbLine
 10
9255.600000000001
 20
6871.999999999994
 30
0.0
 11
9255.600000000001
 21
6481.999999999995
 31
0.0
  0
LINE
  5
1F9F6
330
747D
100
AcDbEntity
  8
部品1
 48
50.0
100
AcDbLine
 10
9255.599999999997
 20
6871.999999999994
 30
0.0
 11
9255.600000000001
 21
6481.999999999995
 31
0.0
  0
LINE
  5
1F9F7
330
747D
100
AcDbEntity
  8
部品1
 48
50.0
100
AcDbLine
 10
9255.600000000001
 20
6871.999999999994
 30
0.0
 11
9255.600000000001
 21
6481.999999999995
 31
0.0
  0
LINE
  5
1F9F8
330
747D
100
AcDbEntity
  8
部品1
 48
50.0
100
AcDbLine
 10
9065.600000000001
 20
6871.999999999994
 30
0.0
 11
9065.600000000001
 21
6481.999999999995
 31
0.0
  0
LINE
  5
1F9F9
330
747D
100
AcDbEntity
  8
部品1
 48
50.0
100
AcDbLine
 10
9065.600000000001
 20
6481.999999999995
 30
0.0
 11
9255.600000000001
 21
6481.999999999995
 31
0.0
  0
LINE
  5
1F9FA
330
747D
100
AcDbEntity
  8
部品1
 48
50.0
100
AcDbLine
 10
9065.600000000001
 20
6871.999999999994
 30
0.0
 11
9255.600000000001
 21
6871.999999999994
 31
0.0
  0
LINE
  5
1F9FB
330
747D
100
AcDbEntity
  8
部品1
 48
50.0
100
AcDbLine
 10
7801.6
 20
6871.999999999998
 30
0.0
 11
7801.6
 21
6481.999999999998
 31
0.0
  0
LINE
  5
1F9FC
330
747D
100
AcDbEntity
  8
部品1
 48
50.0
100
AcDbLine
 10
7801.599999999996
 20
6871.999999999998
 30
0.0
 11
7801.6
 21
6481.999999999998
 31
0.0
  0
LINE
  5
1F9FD
330
747D
100
AcDbEntity
  8
部品1
 48
50.0
100
AcDbLine
 10
7801.6
 20
6871.999999999998
 30
0.0
 11
7801.6
 21
6481.999999999998
 31
0.0
  0
LINE
  5
1F9FE
330
747D
100
AcDbEntity
  8
部品1
 48
50.0
100
AcDbLine
 10
7611.6
 20
6481.999999999998
 30
0.0
 11
7801.6
 21
6481.999999999998
 31
0.0
  0
LINE
  5
1F9FF
330
747D
100
AcDbEntity
  8
部品1
 48
50.0
100
AcDbLine
 10
7611.6
 20
6871.999999999998
 30
0.0
 11
7801.6
 21
6871.999999999998
 31
0.0
  0
LINE
  5
1FA00
330
747D
100
AcDbEntity
  8
部品1
 48
50.0
100
AcDbLine
 10
8338.600000000001
 20
6871.999999999998
 30
0.0
 11
8528.6
 21
6871.999999999998
 31
0.0
  0
LINE
  5
1FA01
330
747D
100
AcDbEntity
  8
部品1
 48
50.0
100
AcDbLine
 10
8338.600000000001
 20
6481.999999999998
 30
0.0
 11
8528.6
 21
6481.999999999998
 31
0.0
  0
LINE
  5
1FA02
330
747D
100
AcDbEntity
  8
部品1
 48
50.0
100
AcDbLine
 10
8338.600000000001
 20
6871.999999999998
 30
0.0
 11
8338.600000000001
 21
6481.999999999998
 31
0.0
  0
LINE
  5
1FA03
330
747D
100
AcDbEntity
  8
部品1
 48
50.0
100
AcDbLine
 10
8528.6
 20
6871.999999999998
 30
0.0
 11
8528.6
 21
6481.999999999998
 31
0.0
  0
LINE
  5
1FA04
330
747D
100
AcDbEntity
  8
部品1
 48
50.0
100
AcDbLine
 10
8528.599999999997
 20
6871.999999999998
 30
0.0
 11
8528.6
 21
6481.999999999998
 31
0.0
  0
LINE
  5
1FA05
330
747D
100
AcDbEntity
  8
部品1
 48
50.0
100
AcDbLine
 10
8528.6
 20
6871.999999999998
 30
0.0
 11
8528.6
 21
6481.999999999998
 31
0.0
  0
LINE
  5
1FA06
330
747D
100
AcDbEntity
  8
部品1
 48
50.0
100
AcDbLine
 10
8338.600000000001
 20
6671.999999999998
 30
0.0
 11
8338.600000000001
 21
6481.999999999998
 31
0.0
  0
LINE
  5
1FA07
330
747D
100
AcDbEntity
  8
部品1
 48
50.0
100
AcDbLine
 10
7801.6
 20
6481.999999999998
 30
0.0
 11
7801.6
 21
6671.999999999998
 31
0.0
  0
LINE
  5
1FA09
330
747D
100
AcDbEntity
  8
部品1
 48
50.0
100
AcDbLine
 10
7801.6
 20
6481.999999999995
 30
0.0
 11
7611.6
 21
6481.999999999995
 31
0.0
  0
LINE
  5
1FA0A
330
747D
100
AcDbEntity
  8
部品1
 48
50.0
100
AcDbLine
 10
8528.6
 20
6481.999999999995
 30
0.0
 11
8338.600000000001
 21
6481.999999999995
 31
0.0
  0
LINE
  5
1FA0C
330
747D
100
AcDbEntity
  8
部品1
 48
50.0
100
AcDbLine
 10
8338.600000000001
 20
6481.999999999998
 30
0.0
 11
8338.600000000001
 21
6671.999999999998
 31
0.0
  0
LINE
  5
1FA0D
330
747D
100
AcDbEntity
  8
部品1
 48
50.0
100
AcDbLine
 10
8528.6
 20
6481.999999999998
 30
0.0
 11
8528.6
 21
6671.999999999998
 31
0.0
  0
LINE
  5
1FA0E
330
747D
100
AcDbEntity
  8
部品1
 48
50.0
100
AcDbLine
 10
9255.600000000001
 20
6481.999999999995
 30
0.0
 11
9255.600000000001
 21
6671.999999999994
 31
0.0
  0
LINE
  5
1FA0F
330
747D
100
AcDbEntity
  8
部品1
 48
50.0
100
AcDbLine
 10
9065.600000000001
 20
6481.999999999995
 30
0.0
 11
9065.600000000001
 21
6671.999999999994
 31
0.0
  0
LINE
  5
1FA11
330
747D
100
AcDbEntity
  8
部品1
 48
50.0
100
AcDbLine
 10
9255.600000000001
 20
6481.999999999991
 30
0.0
 11
9065.600000000001
 21
6481.999999999991
 31
0.0
  0
LINE
  5
1FA12
330
747D
100
AcDbEntity
  8
部品1
 48
50.0
100
AcDbLine
 10
7611.6
 20
6871.999999999998
 30
0.0
 11
7611.6
 21
6481.999999999998
 31
0.0
  0
ENDSEC
  0
SECTION
  2
OBJECTS
  0
DICTIONARY
  5
7471
330
0
100
AcDbDictionary
281
     1
  3
ACAD_COLOR
350
159B0
  3
ACAD_GROUP
350
7472
  3
ACAD_LAYOUT
350
159B1
  3
ACAD_MATERIAL
350
159AF
  3
ACAD_MLINESTYLE
350
7473
  3
ACAD_PLOTSETTINGS
350
159B2
  3
ACAD_PLOTSTYLENAME
350
159AD
  3
ACDBHEADERROUNDTRIPXREC
350
1FAF2
  3
AcDbVariableDictionary
350
1FAEE
  3
CONTENTDICTIONARY
350
E71C
  3
DRAWINGVARIABLESDICT
350
F3B9
  0
DICTIONARY
  5
1E67E
330
7467
100
AcDbDictionary
280
     1
281
     1
  3
ACAD_LAYERSTATES
360
1E67F
  0
DICTIONARY
  5
159B0
102
{ACAD_REACTORS
330
7471
102
}
330
7471
100
AcDbDictionary
281
     1
  0
DICTIONARY
  5
7472
102
{ACAD_REACTORS
330
7471
102
}
330
7471
100
AcDbDictionary
281
     1
  0
DICTIONARY
  5
159B1
102
{ACAD_REACTORS
330
7471
102
}
330
7471
100
AcDbDictionary
281
     1
  3
Model
350
159B3
  3
レイアウト1
350
159B4
  0
DICTIONARY
  5
159AF
102
{ACAD_REACTORS
330
7471
102
}
330
7471
100
AcDbDictionary
281
     1
  0
DICTIONARY
  5
7473
102
{ACAD_REACTORS
330
7471
102
}
330
7471
100
AcDbDictionary
281
     1
  3
STANDARD
350
7480
  0
DICTIONARY
  5
159B2
102
{ACAD_REACTORS
330
7471
102
}
330
7471
100
AcDbDictionary
281
     1
  0
ACDBDICTIONARYWDFLT
  5
159AD
102
{ACAD_REACTORS
330
7471
102
}
330
7471
100
AcDbDictionary
281
     1
  3
Normal
350
159AE
100
AcDbDictionaryWithDefault
340
159AE
  0
DICTIONARY
  5
1FAF2
102
{ACAD_REACTORS
330
7471
102
}
330
7471
100
AcDbDictionary
281
     1
  3
COLORDICT
350
1FAF4
  3
MATERIALDICT
350
1FAF3
  0
DICTIONARY
  5
1FAEE
102
{ACAD_REACTORS
330
7471
102
}
330
7471
100
AcDbDictionary
281
     1
  3
DIMASSOC
350
1FAEF
  3
PROJECTNAME
350
1FAF0
  0
DICTIONARY
  5
E71C
102
{ACAD_REACTORS
330
7471
102
}
330
7471
100
AcDbDictionary
281
     1
  0
DICTIONARY
  5
F3B9
102
{ACAD_REACTORS
330
7471
102
}
330
7471
100
AcDbDictionary
281
     1
1001
DRAWINGVARIABLESXDATA
1000
POLARMODE
1000
1
  0
DICTIONARY
  5
1E67F
102
{ACAD_REACTORS
330
1E67E
102
}
330
1E67E
100
AcDbDictionary
281
     1
  0
LAYOUT
  5
159B3
102
{ACAD_XDICTIONARY
360
1FAF5
102
}
102
{ACAD_REACTORS
330
159B1
102
}
330
159B1
100
AcDbPlotSettings
  1

  2
none_device
  4
Letter_(8.50_x_11.00_Inches)
  6

 40
6.349999904632568
 41
6.349999904632568
 42
6.350006103515625
 43
6.350006103515625
 44
215.8999938964844
 45
279.3999938964844
 46
0.0
 47
0.0
 48
0.0
 49
0.0
140
0.0
141
0.0
142
1.0
143
1.0
 70
 11952
 72
     1
 73
     1
 74
     0
  7

 75
     0
147
1.0
148
-4149.571981164617
149
65.56433826894044
100
AcDbLayout
  1
Model
 70
     1
 71
     0
 10
0.0
 20
0.0
 11
12.0
 21
9.0
 12
0.0
 22
0.0
 32
0.0
 14
0.0
 24
0.0
 34
0.0
 15
0.0
 25
0.0
 35
0.0
146
0.0
 13
0.0
 23
0.0
 33
0.0
 16
1.0
 26
0.0
 36
0.0
 17
0.0
 27
1.0
 37
0.0
 76
     0
330
747D
  0
LAYOUT
  5
159B4
102
{ACAD_XDICTIONARY
360
1FAF7
102
}
102
{ACAD_REACTORS
330
159B1
102
}
330
159B1
100
AcDbPlotSettings
  1

  2
自動 EPSON LP-8400FX (TATENO 上)
  4

  6

 40
0.0
 41
0.0
 42
0.0
 43
0.0
 44
0.0
 45
0.0
 46
0.0
 47
0.0
 48
0.0
 49
0.0
140
0.0
141
0.0
142
1.0
143
1.0
 70
   688
 72
     0
 73
     0
 74
     5
  7
inaba.ctb
 75
    16
147
1.0
148
0.0
149
0.0
100
AcDbLayout
  1
レイアウト1
 70
     0
 71
     1
 10
0.0
 20
0.0
 11
420.0
 21
297.0
 12
0.0
 22
0.0
 32
0.0
 14
1.000000000000000E+20
 24
1.000000000000000E+20
 34
1.000000000000000E+20
 15
-1.000000000000000E+20
 25
-1.000000000000000E+20
 35
-1.000000000000000E+20
146
0.0
 13
0.0
 23
0.0
 33
0.0
 16
1.0
 26
0.0
 36
0.0
 17
0.0
 27
1.0
 37
0.0
 76
     0
330
747A
  0
MLINESTYLE
  5
7480
102
{ACAD_REACTORS
330
7473
102
}
330
7473
100
AcDbMlineStyle
  2
STANDARD
 70
     0
  3

 62
     0
 51
90.0
 52
90.0
 71
     2
 49
0.5
 62
   256
  6
BYLAYER
 49
-0.5
 62
   256
  6
BYLAYER
  0
ACDBPLACEHOLDER
  5
159AE
102
{ACAD_REACTORS
330
159AD
102
}
330
159AD
  0
XRECORD
  5
1FAF4
102
{ACAD_REACTORS
330
1FAF2
102
}
330
1FAF2
100
AcDbXrecord
280
     1
340
159B0
  0
XRECORD
  5
1FAF3
102
{ACAD_REACTORS
330
1FAF2
102
}
330
1FAF2
100
AcDbXrecord
280
     1
340
159AF
  0
DICTIONARYVAR
  5
1FAEF
102
{ACAD_REACTORS
330
1FAEE
102
}
330
1FAEE
100
DictionaryVariables
280
     0
  1
1
  0
DICTIONARYVAR
  5
1FAF0
102
{ACAD_REACTORS
330
1FAEE
102
}
330
1FAEE
100
DictionaryVariables
280
     0
  1

  0
DICTIONARY
  5
1FAF5
330
159B3
100
AcDbDictionary
280
     1
281
     1
  3
ACAD_XREC_ROUNDTRIP
360
1FAF6
  0
DICTIONARY
  5
1FAF7
330
159B4
100
AcDbDictionary
280
     1
281
     1
  3
ACAD_XREC_ROUNDTRIP
360
1FAF8
  0
XRECORD
  5
1FAF6
102
{ACAD_REACTORS
330
1FAF5
102
}
330
1FAF5
100
AcDbXrecord
280
     1
102
SHADEPLOT
 70
     0
102
SHADEPLOTRESLEVEL
 70
     2
102
SHADEPLOTCUSTOMDPI
 70
   300
  0
XRECORD
  5
1FAF8
102
{ACAD_REACTORS
330
1FAF7
102
}
330
1FAF7
100
AcDbXrecord
280
     1
102
SHADEPLOT
 70
     0
102
SHADEPLOTRESLEVEL
 70
     2
102
SHADEPLOTCUSTOMDPI
 70
   300
  0
ENDSEC
  0
EOF
