  0
SECTION
  2
HEADER
  9
$ACADVER
  1
AC1015
  9
$ACADMAINTVER
 70
    20
  9
$DWGCODEPAGE
  3
ANSI_932
  9
$INSBASE
 10
0.0
 20
0.0
 30
0.0
  9
$EXTMIN
 10
139.9999999999995
 20
-0.0000000000000909
 30
0.0
  9
$EXTMAX
 10
16307.2
 20
11409.6
 30
0.0
  9
$LIMMIN
 10
0.0
 20
0.0
  9
$LIMMAX
 10
16800.0
 20
11880.0
  9
$ORTHOMODE
 70
     0
  9
$REGENMODE
 70
     1
  9
$FILLMODE
 70
     1
  9
$QTEXTMODE
 70
     0
  9
$MIRRTEXT
 70
     1
  9
$LTSCALE
 40
20.0
  9
$ATTMODE
 70
     1
  9
$TEXTSIZE
 40
4.0
  9
$TRACEWID
 40
1.0
  9
$TEXTSTYLE
  7
STYLE1
  9
$CLAYER
  8
寸法
  9
$CELTYPE
  6
BYLAYER
  9
$CECOLOR
 62
   256
  9
$CELTSCALE
 40
50.0
  9
$DISPSILH
 70
     0
  9
$DIMSCALE
 40
40.0
  9
$DIMASZ
 40
2.5
  9
$DIMEXO
 40
0.5
  9
$DIMDLI
 40
7.0
  9
$DIMRND
 40
0.0
  9
$DIMDLE
 40
0.0
  9
$DIMEXE
 40
1.5
  9
$DIMTP
 40
0.0
  9
$DIMTM
 40
0.0
  9
$DIMTXT
 40
3.0
  9
$DIMCEN
 40
0.0
  9
$DIMTSZ
 40
0.0
  9
$DIMTOL
 70
     0
  9
$DIMLIM
 70
     0
  9
$DIMTIH
 70
     0
  9
$DIMTOH
 70
     0
  9
$DIMSE1
 70
     0
  9
$DIMSE2
 70
     0
  9
$DIMTAD
 70
     3
  9
$DIMZIN
 70
     8
  9
$DIMBLK
  1

  9
$DIMASO
 70
     1
  9
$DIMSHO
 70
     1
  9
$DIMPOST
  1

  9
$DIMAPOST
  1

  9
$DIMALT
 70
     0
  9
$DIMALTD
 70
     2
  9
$DIMALTF
 40
0.0394
  9
$DIMLFAC
 40
1.0
  9
$DIMTOFL
 70
     1
  9
$DIMTVP
 40
0.0
  9
$DIMTIX
 70
     1
  9
$DIMSOXD
 70
     0
  9
$DIMSAH
 70
     1
  9
$DIMBLK1
  1
DOTSMALL
  9
$DIMBLK2
  1
DOTSMALL
  9
$DIMSTYLE
  2
INABA_S40G
  9
$DIMCLRD
 70
     0
  9
$DIMCLRE
 70
     0
  9
$DIMCLRT
 70
     7
  9
$DIMTFAC
 40
1.0
  9
$DIMGAP
 40
1.0
  9
$DIMJUST
 70
     0
  9
$DIMSD1
 70
     0
  9
$DIMSD2
 70
     0
  9
$DIMTOLJ
 70
     1
  9
$DIMTZIN
 70
     0
  9
$DIMALTZ
 70
     0
  9
$DIMALTTZ
 70
     0
  9
$DIMUPT
 70
     0
  9
$DIMDEC
 70
     1
  9
$DIMTDEC
 70
     4
  9
$DIMALTU
 70
     2
  9
$DIMALTTD
 70
     2
  9
$DIMTXSTY
  7
STYLE1
  9
$DIMAUNIT
 70
     0
  9
$DIMADEC
 70
     0
  9
$DIMALTRND
 40
0.0
  9
$DIMAZIN
 70
     0
  9
$DIMDSEP
 70
    46
  9
$DIMATFIT
 70
     3
  9
$DIMFRAC
 70
     0
  9
$DIMLDRBLK
  1

  9
$DIMLUNIT
 70
     2
  9
$DIMLWD
 70
    -2
  9
$DIMLWE
 70
    -2
  9
$DIMTMOVE
 70
     0
  9
$LUNITS
 70
     2
  9
$LUPREC
 70
     1
  9
$SKETCHINC
 40
1.0
  9
$FILLETRAD
 40
3.0
  9
$AUNITS
 70
     0
  9
$AUPREC
 70
     0
  9
$MENU
  1
acad
  9
$ELEVATION
 40
0.0
  9
$PELEVATION
 40
0.0
  9
$THICKNESS
 40
0.0
  9
$LIMCHECK
 70
     0
  9
$CHAMFERA
 40
0.0
  9
$CHAMFERB
 40
0.0
  9
$CHAMFERC
 40
0.0
  9
$CHAMFERD
 40
0.0
  9
$SKPOLY
 70
     0
  9
$TDCREATE
 40
2451368.612993866
  9
$TDUCREATE
 40
2451368.237993866
  9
$TDUPDATE
 40
2455575.706162465
  9
$TDUUPDATE
 40
2455575.331162465
  9
$TDINDWG
 40
0.7238728125
  9
$TDUSRTIMER
 40
0.7238728125
  9
$USRTIMER
 70
     1
  9
$ANGBASE
 50
0.0
  9
$ANGDIR
 70
     0
  9
$PDMODE
 70
     3
  9
$PDSIZE
 40
2.0
  9
$PLINEWID
 40
0.0
  9
$SPLFRAME
 70
     0
  9
$SPLINETYPE
 70
     6
  9
$SPLINESEGS
 70
     8
  9
$HANDSEED
  5
2209B
  9
$SURFTAB1
 70
     6
  9
$SURFTAB2
 70
     6
  9
$SURFTYPE
 70
     6
  9
$SURFU
 70
     6
  9
$SURFV
 70
     6
  9
$UCSBASE
  2

  9
$UCSNAME
  2

  9
$UCSORG
 10
0.0
 20
0.0
 30
0.0
  9
$UCSXDIR
 10
1.0
 20
0.0
 30
0.0
  9
$UCSYDIR
 10
0.0
 20
1.0
 30
0.0
  9
$UCSORTHOREF
  2

  9
$UCSORTHOVIEW
 70
     0
  9
$UCSORGTOP
 10
0.0
 20
0.0
 30
0.0
  9
$UCSORGBOTTOM
 10
0.0
 20
0.0
 30
0.0
  9
$UCSORGLEFT
 10
0.0
 20
0.0
 30
0.0
  9
$UCSORGRIGHT
 10
0.0
 20
0.0
 30
0.0
  9
$UCSORGFRONT
 10
0.0
 20
0.0
 30
0.0
  9
$UCSORGBACK
 10
0.0
 20
0.0
 30
0.0
  9
$PUCSBASE
  2

  9
$PUCSNAME
  2

  9
$PUCSORG
 10
0.0
 20
0.0
 30
0.0
  9
$PUCSXDIR
 10
1.0
 20
0.0
 30
0.0
  9
$PUCSYDIR
 10
0.0
 20
1.0
 30
0.0
  9
$PUCSORTHOREF
  2

  9
$PUCSORTHOVIEW
 70
     0
  9
$PUCSORGTOP
 10
0.0
 20
0.0
 30
0.0
  9
$PUCSORGBOTTOM
 10
0.0
 20
0.0
 30
0.0
  9
$PUCSORGLEFT
 10
0.0
 20
0.0
 30
0.0
  9
$PUCSORGRIGHT
 10
0.0
 20
0.0
 30
0.0
  9
$PUCSORGFRONT
 10
0.0
 20
0.0
 30
0.0
  9
$PUCSORGBACK
 10
0.0
 20
0.0
 30
0.0
  9
$USERI1
 70
     0
  9
$USERI2
 70
     0
  9
$USERI3
 70
     0
  9
$USERI4
 70
     0
  9
$USERI5
 70
     0
  9
$USERR1
 40
0.0
  9
$USERR2
 40
0.0
  9
$USERR3
 40
0.0
  9
$USERR4
 40
0.0
  9
$USERR5
 40
0.0
  9
$WORLDVIEW
 70
     1
  9
$SHADEDGE
 70
     3
  9
$SHADEDIF
 70
    70
  9
$TILEMODE
 70
     1
  9
$MAXACTVP
 70
    16
  9
$PINSBASE
 10
0.0
 20
0.0
 30
0.0
  9
$PLIMCHECK
 70
     0
  9
$PEXTMIN
 10
1.000000000000000E+20
 20
1.000000000000000E+20
 30
1.000000000000000E+20
  9
$PEXTMAX
 10
-1.000000000000000E+20
 20
-1.000000000000000E+20
 30
-1.000000000000000E+20
  9
$PLIMMIN
 10
0.0
 20
0.0
  9
$PLIMMAX
 10
420.0
 20
297.0
  9
$UNITMODE
 70
     0
  9
$VISRETAIN
 70
     0
  9
$PLINEGEN
 70
     0
  9
$PSLTSCALE
 70
     0
  9
$TREEDEPTH
 70
  3020
  9
$CMLSTYLE
  2
STANDARD
  9
$CMLJUST
 70
     0
  9
$CMLSCALE
 40
1.0
  9
$PROXYGRAPHICS
 70
     1
  9
$MEASUREMENT
 70
     1
  9
$CELWEIGHT
370
    -1
  9
$ENDCAPS
280
     0
  9
$JOINSTYLE
280
     0
  9
$LWDISPLAY
290
     0
  9
$INSUNITS
 70
     0
  9
$HYPERLINKBASE
  1

  9
$STYLESHEET
  1

  9
$XEDIT
290
     1
  9
$CEPSNTYPE
380
     0
  9
$PSTYLEMODE
290
     1
  9
$FINGERPRINTGUID
  2
{5EAC461A-2277-4BF8-9AB0-99C43BB394F0}
  9
$VERSIONGUID
  2
{962ED02D-4434-4C12-A2E6-D40EF45807B1}
  9
$EXTNAMES
290
     1
  9
$PSVPSCALE
 40
0.0
  9
$OLESTARTUP
290
     0
  0
ENDSEC
  0
SECTION
  2
CLASSES
  0
CLASS
  1
ACDBDICTIONARYWDFLT
  2
AcDbDictionaryWithDefault
  3
ObjectDBX Classes
 90
        0
280
     0
281
     0
  0
CLASS
  1
DICTIONARYVAR
  2
AcDbDictionaryVar
  3
ObjectDBX Classes
 90
        0
280
     0
281
     0
  0
CLASS
  1
ACDBPLACEHOLDER
  2
AcDbPlaceHolder
  3
ObjectDBX Classes
 90
        0
280
     0
281
     0
  0
CLASS
  1
LAYOUT
  2
AcDbLayout
  3
ObjectDBX Classes
 90
        0
280
     0
281
     0
  0
ENDSEC
  0
SECTION
  2
TABLES
  0
TABLE
  2
VPORT
  5
746D
330
0
100
AcDbSymbolTable
 70
     2
  0
VPORT
  5
22093
330
746D
100
AcDbSymbolTableRecord
100
AcDbViewportTableRecord
  2
*Active
 70
     0
 10
0.0
 20
0.0
 11
1.0
 21
1.0
 12
8223.761025238502
 22
6348.703162895247
 13
0.0
 23
0.0
 14
10.0
 24
10.0
 15
10.0
 25
10.0
 16
0.0
 26
0.0
 36
1.0
 17
0.0
 27
0.0
 37
0.0
 40
12805.60689082044
 41
1.525925925925925
 42
50.0
 43
0.0
 44
0.0
 50
0.0
 51
0.0
 71
     0
 72
     0
 73
     1
 74
     0
 75
     0
 76
     0
 77
     0
 78
     0
281
     0
 65
     1
110
0.0
120
0.0
130
0.0
111
1.0
121
0.0
131
0.0
112
0.0
122
1.0
132
0.0
 79
     0
146
0.0
  0
ENDTAB
  0
TABLE
  2
LTYPE
  5
746A
330
0
100
AcDbSymbolTable
 70
     5
  0
LTYPE
  5
7477
330
746A
100
AcDbSymbolTableRecord
100
AcDbLinetypeTableRecord
  2
BYBLOCK
 70
     0
  3

 72
    65
 73
     0
 40
0.0
  0
LTYPE
  5
7478
330
746A
100
AcDbSymbolTableRecord
100
AcDbLinetypeTableRecord
  2
BYLAYER
 70
     0
  3

 72
    65
 73
     0
 40
0.0
  0
LTYPE
  5
7479
330
746A
100
AcDbSymbolTableRecord
100
AcDbLinetypeTableRecord
  2
CONTINUOUS
 70
     0
  3
Solid line
 72
    65
 73
     0
 40
0.0
  0
LTYPE
  5
7816
330
746A
100
AcDbSymbolTableRecord
100
AcDbLinetypeTableRecord
  2
CENTER
 70
     0
  3
____ _ ____ _ ____ _ ____ _ ____ _ ____ _ ____ 
 72
    65
 73
     4
 40
2.0
 49
1.25
 74
     0
 49
-0.25
 74
     0
 49
0.25
 74
     0
 49
-0.25
 74
     0
  0
LTYPE
  5
781A
330
746A
100
AcDbSymbolTableRecord
100
AcDbLinetypeTableRecord
  2
HIDDEN
 70
     0
  3
__ __ __ __ __ __ __ __ __ __ __ __ __ __ __ __
 72
    65
 73
     2
 40
0.375
 49
0.25
 74
     0
 49
-0.125
 74
     0
  0
LTYPE
  5
781B
330
746A
100
AcDbSymbolTableRecord
100
AcDbLinetypeTableRecord
  2
PHANTOM
 70
     0
  3
______  __  __  ______  __  __  ______  __  __ 
 72
    65
 73
     6
 40
2.5
 49
1.25
 74
     0
 49
-0.25
 74
     0
 49
0.25
 74
     0
 49
-0.25
 74
     0
 49
0.25
 74
     0
 49
-0.25
 74
     0
  0
LTYPE
  5
12CC3
330
746A
100
AcDbSymbolTableRecord
100
AcDbLinetypeTableRecord
  2
HIDDENX2
 70
     0
  3
Hidden (2x) ____ ____ ____ ____ ____ ____ ____
 72
    65
 73
     2
 40
19.05
 49
12.7
 74
     0
 49
-6.349999999999999
 74
     0
  0
ENDTAB
  0
TABLE
  2
LAYER
  5
7467
102
{ACAD_XDICTIONARY
360
1758F
102
}
330
0
100
AcDbSymbolTable
 70
    13
  0
LAYER
  5
7474
330
7467
100
AcDbSymbolTableRecord
100
AcDbLayerTableRecord
  2
0
 70
     0
 62
     7
  6
CONTINUOUS
370
    -3
390
173D0
  0
LAYER
  5
DEB2
330
7467
100
AcDbSymbolTableRecord
100
AcDbLayerTableRecord
  2
センター
 70
     0
 62
     3
  6
CENTER
370
    -3
390
173D0
  0
LAYER
  5
DEB3
330
7467
100
AcDbSymbolTableRecord
100
AcDbLayerTableRecord
  2
寸法
 70
     0
 62
     4
  6
CONTINUOUS
370
    -3
390
173D0
  0
LAYER
  5
DEB4
330
7467
100
AcDbSymbolTableRecord
100
AcDbLayerTableRecord
  2
部品1
 70
     0
 62
     7
  6
CONTINUOUS
370
    -3
390
173D0
  0
LAYER
  5
DEB5
330
7467
100
AcDbSymbolTableRecord
100
AcDbLayerTableRecord
  2
補助
 70
     0
 62
    -1
  6
CONTINUOUS
370
    -3
390
173D0
  0
LAYER
  5
DEB6
330
7467
100
AcDbSymbolTableRecord
100
AcDbLayerTableRecord
  2
文字
 70
     0
 62
     7
  6
CONTINUOUS
370
    -3
390
173D0
  0
LAYER
  5
F255
330
7467
100
AcDbSymbolTableRecord
100
AcDbLayerTableRecord
  2
DEFPOINTS
 70
     0
 62
     7
  6
CONTINUOUS
290
     0
370
    -3
390
173D0
  0
LAYER
  5
10B54
330
7467
100
AcDbSymbolTableRecord
100
AcDbLayerTableRecord
  2
仕様書枠
 70
     0
 62
   230
  6
CONTINUOUS
370
    -3
390
173D0
  0
LAYER
  5
11729
330
7467
100
AcDbSymbolTableRecord
100
AcDbLayerTableRecord
  2
Ｇ．Ｌ
 70
     0
 62
    30
  6
CONTINUOUS
370
    -3
390
173D0
  0
LAYER
  5
1173F
330
7467
100
AcDbSymbolTableRecord
100
AcDbLayerTableRecord
  2
細線
 70
     0
 62
     5
  6
CONTINUOUS
370
    -3
390
173D0
  0
LAYER
  5
12CC4
330
7467
100
AcDbSymbolTableRecord
100
AcDbLayerTableRecord
  2
想像線
 70
     0
 62
     6
  6
PHANTOM
370
    -3
390
173D0
  0
LAYER
  5
142E2
330
7467
100
AcDbSymbolTableRecord
100
AcDbLayerTableRecord
  2
破線
 70
     0
 62
     2
  6
HIDDEN
370
    -3
390
173D0
  0
LAYER
  5
21773
330
7467
100
AcDbSymbolTableRecord
100
AcDbLayerTableRecord
  2
点線
 70
     0
 62
     2
  6
HIDDEN
370
    -3
390
173D0
  0
ENDTAB
  0
TABLE
  2
STYLE
  5
7468
330
0
100
AcDbSymbolTable
 70
     7
  0
STYLE
  5
7475
330
7468
100
AcDbSymbolTableRecord
100
AcDbTextStyleTableRecord
  2
STANDARD
 70
     0
 40
0.0
 41
1.0
 50
0.0
 71
     0
 42
4.0
  3
txt
  4
C:\AutoCAD LT\bigfont.shx
  0
STYLE
  5
763C
330
7468
100
AcDbSymbolTableRecord
100
AcDbTextStyleTableRecord
  2
MSMINCHO
 70
     0
 40
0.0
 41
1.0
 50
0.0
 71
     0
 42
1.199999999999999
  3
C:\AutoCAD LT\msminch2.TTF
  4

  0
STYLE
  5
F706
330
7468
100
AcDbSymbolTableRecord
100
AcDbTextStyleTableRecord
  2
STYLE1
 70
     0
 40
0.0
 41
1.0
 50
0.0
 71
     0
 42
4.0
  3
isocp.shx
  4
bigfont.shx
  0
STYLE
  5
103BF
330
7468
100
AcDbSymbolTableRecord
100
AcDbTextStyleTableRecord
  2
STYLE2
 70
     0
 40
0.0
 41
1.0
 50
0.0
 71
     0
 42
100.0
  3
MS PGothic.ttf
  4

1001
ACAD
1000
MS PGothic
1071
    32818
  0
STYLE
  5
10BAA
330
7468
100
AcDbSymbolTableRecord
100
AcDbTextStyleTableRecord
  2
STYLE3
 70
     0
 40
0.0
 41
1.0
 50
0.0
 71
     0
 42
100.0
  3

  4

1001
ACAD
1000
DFPGothic-EB
1071
    32818
  0
STYLE
  5
11A15
330
7468
100
AcDbSymbolTableRecord
100
AcDbTextStyleTableRecord
  2
MSGOTHIC
 70
     0
 40
0.0
 41
1.0
 50
0.0
 71
     0
 42
3.5
  3
msgothi2.ttf
  4

  0
STYLE
  5
13E96
330
7468
100
AcDbSymbolTableRecord
100
AcDbTextStyleTableRecord
  2
MSPゴシック
 70
     0
 40
0.0
 41
1.0
 50
0.0
 71
     0
 42
4.0
  3
MS PGothic.ttf
  4

1001
ACAD
1000
MS PGothic
1071
    32818
  0
ENDTAB
  0
TABLE
  2
VIEW
  5
746B
330
0
100
AcDbSymbolTable
 70
     0
  0
ENDTAB
  0
TABLE
  2
UCS
  5
746C
330
0
100
AcDbSymbolTable
 70
     0
  0
ENDTAB
  0
TABLE
  2
APPID
  5
746E
330
0
100
AcDbSymbolTable
 70
     6
  0
APPID
  5
7476
330
746E
100
AcDbSymbolTableRecord
100
AcDbRegAppTableRecord
  2
ACAD
 70
     0
  0
APPID
  5
DEA9
330
746E
100
AcDbSymbolTableRecord
100
AcDbRegAppTableRecord
  2
CONTENTBLOCKICON
 70
     0
  0
APPID
  5
DEAA
330
746E
100
AcDbSymbolTableRecord
100
AcDbRegAppTableRecord
  2
CONTENTBLOCKDESCRIPTION
 70
     0
  0
APPID
  5
E71D
330
746E
100
AcDbSymbolTableRecord
100
AcDbRegAppTableRecord
  2
CONTENTTABDATA
 70
     0
  0
APPID
  5
E71E
330
746E
100
AcDbSymbolTableRecord
100
AcDbRegAppTableRecord
  2
CONTENTCURRENTTAB
 70
     0
  0
APPID
  5
F3BA
330
746E
100
AcDbSymbolTableRecord
100
AcDbRegAppTableRecord
  2
DRAWINGVARIABLESXDATA
 70
     0
  0
ENDTAB
  0
TABLE
  2
DIMSTYLE
  5
746F
330
0
100
AcDbSymbolTable
 70
     6
100
AcDbDimStyleTable
 71
     1
340
F71F
  0
DIMSTYLE
105
7484
330
746F
100
AcDbSymbolTableRecord
100
AcDbDimStyleTableRecord
  2
JIS
 70
     0
 41
2.5
 42
1.0
 43
7.0
 44
1.0
 73
     0
 74
     0
 77
     1
 78
     8
140
2.5
141
0.0
143
0.0394
147
0.0
172
     1
174
     1
175
     1
340
7475
  0
DIMSTYLE
105
F236
330
746F
100
AcDbSymbolTableRecord
100
AcDbDimStyleTableRecord
  2
INABA_S40
 70
     0
 40
40.0
 41
2.5
 42
0.5
 43
7.0
 44
1.5
 73
     0
 74
     0
 77
     3
 78
     8
140
3.0
141
0.0
143
0.0394
147
1.0
172
     1
173
     1
174
     1
175
     1
178
     7
289
     0
340
7475
341
DEAC
343
DEAC
344
DEAC
  0
DIMSTYLE
105
F71F
102
{ACAD_REACTORS
330
21940
330
21951
330
21952
330
21976
330
219D8
330
21A40
330
21A59
330
21AAA
330
21AD4
330
21ADA
330
21ADB
330
21AF3
330
21F08
330
21F0A
330
21F0B
330
21F0C
102
}
330
746F
100
AcDbSymbolTableRecord
100
AcDbDimStyleTableRecord
  2
INABA_S40G
 70
     0
 40
40.0
 41
2.5
 42
0.5
 43
7.0
 44
1.5
 73
     0
 74
     0
 77
     3
 78
     8
140
3.0
141
0.0
143
0.0394
147
1.0
172
     1
173
     1
174
     1
178
     7
271
     1
340
F706
341
F770
343
F770
344
F770
  0
DIMSTYLE
105
142E3
330
746F
100
AcDbSymbolTableRecord
100
AcDbDimStyleTableRecord
  2
INABA_S1
 70
     0
 40
0.0
 41
2.5
 42
0.5
 43
7.0
 44
1.5
 73
     0
 74
     0
 77
     3
 78
     8
140
3.0
141
0.0
143
0.0394
146
0.5
147
0.5
172
     1
173
     1
176
   256
177
   256
178
     7
271
     2
272
     2
284
     8
288
     1
340
7475
341
DEAC
343
DEAC
344
DEAC
  0
DIMSTYLE
105
14463
330
746F
100
AcDbSymbolTableRecord
100
AcDbDimStyleTableRecord
  2
INABA_S30G
 70
     0
 40
30.0
 41
2.5
 42
0.5
 43
7.0
 44
1.5
 73
     0
 74
     0
 77
     3
 78
     8
140
3.0
141
0.0
143
0.0394
147
1.0
172
     1
173
     1
174
     1
175
     1
178
     7
271
     1
340
F706
341
F770
343
F770
344
F770
  0
DIMSTYLE
105
1758E
330
746F
100
AcDbSymbolTableRecord
100
AcDbDimStyleTableRecord
  2
INABA_S50G
 70
     0
 41
125.0
 42
25.0
 43
7.0
 44
75.0
 73
     0
 74
     0
 77
     3
 78
     8
140
150.0
141
0.0
143
0.0394
147
25.0
172
     1
173
     1
174
     1
175
     1
178
     7
271
     1
340
F706
341
F770
343
F770
344
F770
  0
ENDTAB
  0
TABLE
  2
BLOCK_RECORD
  5
7466
330
0
100
AcDbSymbolTable
 70
    35
  0
BLOCK_RECORD
  5
747D
330
7466
100
AcDbSymbolTableRecord
100
AcDbBlockTableRecord
  2
*MODEL_SPACE
340
173D5
  0
BLOCK_RECORD
  5
747A
330
7466
100
AcDbSymbolTableRecord
100
AcDbBlockTableRecord
  2
*PAPER_SPACE
340
173D6
  0
BLOCK_RECORD
  5
DEAC
330
7466
100
AcDbSymbolTableRecord
100
AcDbBlockTableRecord
  2
_OPEN
340
0
  0
BLOCK_RECORD
  5
F770
330
7466
100
AcDbSymbolTableRecord
100
AcDbBlockTableRecord
  2
_DOTSMALL
340
0
102
{BLKREFS
331
18C65
331
18C66
331
18C59
331
18C5A
331
18C4D
331
18C4E
331
18C41
331
18C42
331
18C35
331
18C36
331
18C29
331
18C2A
331
18C1D
331
18C1E
331
18C0F
331
18C10
331
18C03
331
18C04
331
18BF5
331
18BF6
331
18BE7
331
18BE8
331
18BD9
331
18BDA
331
18BCD
331
18BCE
331
21C6F
331
21C70
331
21C78
331
21C79
331
21C81
331
21C82
331
21C8A
331
21C8B
331
21D96
331
21D97
331
21DA0
331
21DA1
331
21DA9
331
21DAA
331
21DBD
331
21DBE
331
21DE5
331
21DE6
331
21DEE
331
21DEF
331
21DF7
331
21DF8
331
2202A
331
2202B
331
22035
331
22036
331
22040
331
22041
331
2206C
331
2206D
331
22077
331
22078
102
}
  0
BLOCK_RECORD
  5
164B4
330
7466
100
AcDbSymbolTableRecord
100
AcDbBlockTableRecord
  2
_DOT
340
0
102
{BLKREFS
331
18C73
331
18C74
102
}
  0
BLOCK_RECORD
  5
18BC8
330
7466
100
AcDbSymbolTableRecord
100
AcDbBlockTableRecord
  2
*D3
340
0
  0
BLOCK_RECORD
  5
18BD4
330
7466
100
AcDbSymbolTableRecord
100
AcDbBlockTableRecord
  2
*D4
340
0
  0
BLOCK_RECORD
  5
18BE0
330
7466
100
AcDbSymbolTableRecord
100
AcDbBlockTableRecord
  2
*D5
340
0
  0
BLOCK_RECORD
  5
18BEE
330
7466
100
AcDbSymbolTableRecord
100
AcDbBlockTableRecord
  2
*D6
340
0
  0
BLOCK_RECORD
  5
18BFC
330
7466
100
AcDbSymbolTableRecord
100
AcDbBlockTableRecord
  2
*D7
340
0
  0
BLOCK_RECORD
  5
18C0A
330
7466
100
AcDbSymbolTableRecord
100
AcDbBlockTableRecord
  2
*D8
340
0
  0
BLOCK_RECORD
  5
18C16
330
7466
100
AcDbSymbolTableRecord
100
AcDbBlockTableRecord
  2
*D9
340
0
  0
BLOCK_RECORD
  5
18C24
330
7466
100
AcDbSymbolTableRecord
100
AcDbBlockTableRecord
  2
*D10
340
0
  0
BLOCK_RECORD
  5
18C30
330
7466
100
AcDbSymbolTableRecord
100
AcDbBlockTableRecord
  2
*D11
340
0
  0
BLOCK_RECORD
  5
18C3C
330
7466
100
AcDbSymbolTableRecord
100
AcDbBlockTableRecord
  2
*D12
340
0
  0
BLOCK_RECORD
  5
18C48
330
7466
100
AcDbSymbolTableRecord
100
AcDbBlockTableRecord
  2
*D13
340
0
  0
BLOCK_RECORD
  5
18C54
330
7466
100
AcDbSymbolTableRecord
100
AcDbBlockTableRecord
  2
*D14
340
0
  0
BLOCK_RECORD
  5
18C60
330
7466
100
AcDbSymbolTableRecord
100
AcDbBlockTableRecord
  2
*D15
340
0
  0
BLOCK_RECORD
  5
18C6C
330
7466
100
AcDbSymbolTableRecord
100
AcDbBlockTableRecord
  2
*D16
340
0
  0
BLOCK_RECORD
  5
18C7A
330
7466
100
AcDbSymbolTableRecord
100
AcDbBlockTableRecord
  2
A$C3B1A506B
340
0
  0
BLOCK_RECORD
  5
1C4CA
330
7466
100
AcDbSymbolTableRecord
100
AcDbBlockTableRecord
  2
_NONE
340
0
  0
BLOCK_RECORD
  5
21B08
330
7466
100
AcDbSymbolTableRecord
100
AcDbBlockTableRecord
  2
*D19
340
0
  0
BLOCK_RECORD
  5
21B14
330
7466
100
AcDbSymbolTableRecord
100
AcDbBlockTableRecord
  2
*D20
340
0
  0
BLOCK_RECORD
  5
21B20
330
7466
100
AcDbSymbolTableRecord
100
AcDbBlockTableRecord
  2
*D21
340
0
  0
BLOCK_RECORD
  5
21B2C
330
7466
100
AcDbSymbolTableRecord
100
AcDbBlockTableRecord
  2
*D22
340
0
  0
BLOCK_RECORD
  5
21B46
330
7466
100
AcDbSymbolTableRecord
100
AcDbBlockTableRecord
  2
*D23
340
0
  0
BLOCK_RECORD
  5
21B52
330
7466
100
AcDbSymbolTableRecord
100
AcDbBlockTableRecord
  2
*D24
340
0
  0
BLOCK_RECORD
  5
21B78
330
7466
100
AcDbSymbolTableRecord
100
AcDbBlockTableRecord
  2
*D25
340
0
  0
BLOCK_RECORD
  5
21B92
330
7466
100
AcDbSymbolTableRecord
100
AcDbBlockTableRecord
  2
*D26
340
0
  0
BLOCK_RECORD
  5
21B9E
330
7466
100
AcDbSymbolTableRecord
100
AcDbBlockTableRecord
  2
*D27
340
0
  0
BLOCK_RECORD
  5
21BAA
330
7466
100
AcDbSymbolTableRecord
100
AcDbBlockTableRecord
  2
*D28
340
0
  0
BLOCK_RECORD
  5
21BB7
330
7466
100
AcDbSymbolTableRecord
100
AcDbBlockTableRecord
  2
*D29
340
0
  0
BLOCK_RECORD
  5
21BC4
330
7466
100
AcDbSymbolTableRecord
100
AcDbBlockTableRecord
  2
*D30
340
0
  0
BLOCK_RECORD
  5
21F61
330
7466
100
AcDbSymbolTableRecord
100
AcDbBlockTableRecord
  2
*D31
340
0
  0
BLOCK_RECORD
  5
21F6F
330
7466
100
AcDbSymbolTableRecord
100
AcDbBlockTableRecord
  2
*D32
340
0
  0
BLOCK_RECORD
  5
21F7D
330
7466
100
AcDbSymbolTableRecord
100
AcDbBlockTableRecord
  2
*D33
340
0
  0
BLOCK_RECORD
  5
21F89
330
7466
100
AcDbSymbolTableRecord
100
AcDbBlockTableRecord
  2
*D34
340
0
  0
ENDTAB
  0
ENDSEC
  0
SECTION
  2
BLOCKS
  0
BLOCK
  5
7489
330
747D
100
AcDbEntity
  8
0
100
AcDbBlockBegin
  2
*MODEL_SPACE
 70
     0
 10
0.0
 20
0.0
 30
0.0
  3
*MODEL_SPACE
  1

  0
ENDBLK
  5
748A
330
747D
100
AcDbEntity
  8
0
100
AcDbBlockEnd
  0
BLOCK
  5
7487
330
747A
100
AcDbEntity
 67
     1
  8
0
100
AcDbBlockBegin
  2
*PAPER_SPACE
 70
     0
 10
0.0
 20
0.0
 30
0.0
  3
*PAPER_SPACE
  1

  0
ENDBLK
  5
7488
330
747A
100
AcDbEntity
 67
     1
  8
0
100
AcDbBlockEnd
  0
BLOCK
  5
DEAD
330
DEAC
100
AcDbEntity
  8
0
100
AcDbBlockBegin
  2
_OPEN
 70
     0
 10
0.0
 20
0.0
 30
0.0
  3
_OPEN
  1

  0
LINE
  5
DEAE
330
DEAC
100
AcDbEntity
  8
0
  6
ByBlock
 62
     0
100
AcDbLine
 10
-1.0
 20
0.1666666666666666
 30
0.0
 11
0.0
 21
0.0
 31
0.0
  0
LINE
  5
DEAF
330
DEAC
100
AcDbEntity
  8
0
  6
ByBlock
 62
     0
100
AcDbLine
 10
0.0
 20
0.0
 30
0.0
 11
-1.0
 21
-0.1666666666666666
 31
0.0
  0
LINE
  5
DEB0
330
DEAC
100
AcDbEntity
  8
0
  6
ByBlock
 62
     0
100
AcDbLine
 10
0.0
 20
0.0
 30
0.0
 11
-1.0
 21
0.0
 31
0.0
  0
ENDBLK
  5
DEB1
330
DEAC
100
AcDbEntity
  8
0
100
AcDbBlockEnd
  0
BLOCK
  5
F771
330
F770
100
AcDbEntity
  8
0
 48
50.0
100
AcDbBlockBegin
  2
_DOTSMALL
 70
     0
 10
0.0
 20
0.0
 30
0.0
  3
_DOTSMALL
  1

  0
LWPOLYLINE
  5
F772
330
F770
100
AcDbEntity
  8
0
  6
ByBlock
 62
     0
 48
50.0
100
AcDbPolyline
 90
        2
 70
     1
 43
0.5
 10
-0.0625
 20
0.0
 42
1.0
 10
0.0625
 20
0.0
 42
1.0
  0
ENDBLK
  5
F776
330
F770
100
AcDbEntity
  8
0
 48
50.0
100
AcDbBlockEnd
  0
BLOCK
  5
164BA
330
164B4
100
AcDbEntity
  8
0
 48
50.0
100
AcDbBlockBegin
  2
_DOT
 70
     0
 10
0.0
 20
0.0
 30
0.0
  3
_DOT
  1

  0
LWPOLYLINE
  5
164B5
330
164B4
100
AcDbEntity
  8
0
  6
ByBlock
 62
     0
 48
50.0
100
AcDbPolyline
 90
        2
 70
     1
 43
0.5
 10
-0.25
 20
0.0
 42
1.0
 10
0.25
 20
0.0
 42
1.0
  0
LINE
  5
164B9
330
164B4
100
AcDbEntity
  8
0
  6
ByBlock
 62
     0
 48
50.0
100
AcDbLine
 10
-0.5
 20
0.0
 30
0.0
 11
-1.0
 21
0.0
 31
0.0
  0
ENDBLK
  5
164BB
330
164B4
100
AcDbEntity
  8
0
 48
50.0
100
AcDbBlockEnd
  0
BLOCK
  5
18BC9
330
18BC8
100
AcDbEntity
  8
0
 48
50.0
100
AcDbBlockBegin
  2
*D3
 70
     1
 10
0.0
 20
0.0
 30
0.0
  3
*D3
  1

  0
LINE
  5
18BCA
330
18BC8
100
AcDbEntity
  8
寸法
 62
     0
 48
50.0
370
    -2
100
AcDbLine
 10
7649.896575106999
 20
9636.123139034717
 30
0.0
 11
8702.429862581047
 21
9636.123139034717
 31
0.0
  0
LINE
  5
18BCB
330
18BC8
100
AcDbEntity
  8
寸法
 62
     0
 48
50.0
370
    -2
100
AcDbLine
 10
7649.896575106973
 20
7846.123139034709
 30
0.0
 11
8702.429862581047
 21
7846.123139034709
 31
0.0
  0
LINE
  5
18BCC
330
18BC8
100
AcDbEntity
  8
寸法
 62
     0
 48
50.0
370
    -2
100
AcDbLine
 10
8642.429862581046
 20
9636.123139034717
 30
0.0
 11
8642.429862581046
 21
7846.123139034709
 31
0.0
  0
INSERT
  5
18BCD
330
18BC8
100
AcDbEntity
  8
寸法
 62
     0
 48
50.0
370
    -2
100
AcDbBlockReference
  2
_DOTSMALL
 10
8642.429862581046
 20
9636.123139034717
 30
0.0
 41
100.0
 42
100.0
 43
100.0
 50
90.0
  0
INSERT
  5
18BCE
330
18BC8
100
AcDbEntity
  8
寸法
 62
     0
 48
50.0
370
    -2
100
AcDbBlockReference
  2
_DOTSMALL
 10
8642.429862581046
 20
7846.123139034709
 30
0.0
 41
100.0
 42
100.0
 43
100.0
 50
270.0
  0
MTEXT
  5
18BCF
330
18BC8
100
AcDbEntity
  8
寸法
 62
     7
 48
50.0
100
AcDbMText
 10
8542.429862581045
 20
8741.123139034712
 30
0.0
 40
120.0
 41
0.0
 71
     5
 72
     1
  1
\A1;1790
  7
STYLE1
 11
0.0000000000000001
 21
1.0
 31
0.0
 73
     1
 44
1.0
1001
ACAD
1000
MTEXTBEGIN
1070
    73
1070
     1
1070
    44
1040
1.0
1070
    74
1070
     0
1000
MTEXTEND
  0
POINT
  5
18BD0
330
18BC8
100
AcDbEntity
  8
DEFPOINTS
 62
     0
 48
50.0
100
AcDbPoint
 10
7629.896575106998
 20
9636.123139034717
 30
0.0
  0
POINT
  5
18BD1
330
18BC8
100
AcDbEntity
  8
DEFPOINTS
 62
     0
 48
50.0
100
AcDbPoint
 10
7629.896575106974
 20
7846.123139034709
 30
0.0
  0
POINT
  5
18BD2
330
18BC8
100
AcDbEntity
  8
DEFPOINTS
 62
     0
 48
50.0
100
AcDbPoint
 10
8642.429862581046
 20
7846.123139034709
 30
0.0
  0
ENDBLK
  5
18BD3
330
18BC8
100
AcDbEntity
  8
0
 48
50.0
100
AcDbBlockEnd
  0
BLOCK
  5
18BD5
330
18BD4
100
AcDbEntity
  8
0
 48
50.0
100
AcDbBlockBegin
  2
*D4
 70
     1
 10
0.0
 20
0.0
 30
0.0
  3
*D4
  1

  0
LINE
  5
18BD6
330
18BD4
100
AcDbEntity
  8
寸法
 62
     0
 48
50.0
370
    -2
100
AcDbLine
 10
4214.896575106998
 20
9656.123139034622
 30
0.0
 11
4214.896575106998
 21
10211.93135865972
 31
0.0
  0
LINE
  5
18BD7
330
18BD4
100
AcDbEntity
  8
寸法
 62
     0
 48
50.0
370
    -2
100
AcDbLine
 10
7574.896575106999
 20
9656.123139034718
 30
0.0
 11
7574.896575106999
 21
10211.93135865972
 31
0.0
  0
LINE
  5
18BD8
330
18BD4
100
AcDbEntity
  8
寸法
 62
     0
 48
50.0
370
    -2
100
AcDbLine
 10
4214.896575106998
 20
10151.93135865972
 30
0.0
 11
7574.896575106999
 21
10151.93135865972
 31
0.0
  0
INSERT
  5
18BD9
330
18BD4
100
AcDbEntity
  8
寸法
 62
     0
 48
50.0
370
    -2
100
AcDbBlockReference
  2
_DOTSMALL
 10
4214.896575106998
 20
10151.93135865972
 30
0.0
 41
100.0
 42
100.0
 43
100.0
 50
180.0
  0
INSERT
  5
18BDA
330
18BD4
100
AcDbEntity
  8
寸法
 62
     0
 48
50.0
370
    -2
100
AcDbBlockReference
  2
_DOTSMALL
 10
7574.896575106999
 20
10151.93135865972
 30
0.0
 41
100.0
 42
100.0
 43
100.0
  0
MTEXT
  5
18BDB
330
18BD4
100
AcDbEntity
  8
寸法
 62
     7
 48
50.0
100
AcDbMText
 10
5894.896575106997
 20
10251.94316968334
 30
0.0
 40
120.0
 41
0.0
 71
     5
 72
     1
  1
\A1;8X420=3360
  7
STYLE1
 73
     1
 44
1.0
1001
ACAD
1000
MTEXTBEGIN
1070
    73
1070
     1
1070
    44
1040
1.0
1070
    74
1070
     0
1000
MTEXTEND
  0
POINT
  5
18BDC
330
18BD4
100
AcDbEntity
  8
DEFPOINTS
 62
     0
 48
50.0
100
AcDbPoint
 10
4214.896575106998
 20
9636.123139034623
 30
0.0
  0
POINT
  5
18BDD
330
18BD4
100
AcDbEntity
  8
DEFPOINTS
 62
     0
 48
50.0
100
AcDbPoint
 10
7574.896575106999
 20
9636.123139034717
 30
0.0
  0
POINT
  5
18BDE
330
18BD4
100
AcDbEntity
  8
DEFPOINTS
 62
     0
 48
50.0
100
AcDbPoint
 10
7574.896575106999
 20
10151.93135865972
 30
0.0
  0
ENDBLK
  5
18BDF
330
18BD4
100
AcDbEntity
  8
0
 48
50.0
100
AcDbBlockEnd
  0
BLOCK
  5
18BE1
330
18BE0
100
AcDbEntity
  8
0
 48
50.0
100
AcDbBlockBegin
  2
*D5
 70
     1
 10
0.0
 20
0.0
 30
0.0
  3
*D5
  1

  0
LINE
  5
18BE2
330
18BE0
100
AcDbEntity
  8
寸法
 62
     0
 48
50.0
370
    -2
100
AcDbLine
 10
7574.896575106999
 20
9656.123139034718
 30
0.0
 11
7574.896575106999
 21
10211.9313586597
 31
0.0
  0
LINE
  5
18BE3
330
18BE0
100
AcDbEntity
  8
寸法
 62
     0
 48
50.0
370
    -2
100
AcDbLine
 10
7629.896575106998
 20
9656.123139034718
 30
0.0
 11
7629.896575106998
 21
10211.9313586597
 31
0.0
  0
LINE
  5
18BE4
330
18BE0
100
AcDbEntity
  8
寸法
 62
     0
 48
50.0
370
    -2
100
AcDbLine
 10
7574.896575106999
 20
10151.9313586597
 30
0.0
 11
7474.896575106999
 21
10151.9313586597
 31
0.0
  0
LINE
  5
18BE5
330
18BE0
100
AcDbEntity
  8
寸法
 62
     0
 48
50.0
370
    -2
100
AcDbLine
 10
7629.896575106998
 20
10151.9313586597
 30
0.0
 11
8046.867137855477
 21
10151.9313586597
 31
0.0
  0
LINE
  5
18BE6
330
18BE0
100
AcDbEntity
  8
寸法
 62
     0
 48
50.0
370
    -2
100
AcDbLine
 10
7574.896575106999
 20
10151.9313586597
 30
0.0
 11
7629.896575106998
 21
10151.9313586597
 31
0.0
  0
INSERT
  5
18BE7
330
18BE0
100
AcDbEntity
  8
寸法
 62
     0
 48
50.0
370
    -2
100
AcDbBlockReference
  2
_DOTSMALL
 10
7574.896575106999
 20
10151.9313586597
 30
0.0
 41
100.0
 42
100.0
 43
100.0
  0
INSERT
  5
18BE8
330
18BE0
100
AcDbEntity
  8
寸法
 62
     0
 48
50.0
370
    -2
100
AcDbBlockReference
  2
_DOTSMALL
 10
7629.896575106998
 20
10151.9313586597
 30
0.0
 41
100.0
 42
100.0
 43
100.0
 50
180.0
  0
MTEXT
  5
18BE9
330
18BE0
100
AcDbEntity
  8
寸法
 62
     7
 48
50.0
100
AcDbMText
 10
7938.381856481237
 20
10251.9313586597
 30
0.0
 40
120.0
 41
0.0
 71
     5
 72
     1
  1
\A1;55
  7
STYLE1
 73
     1
 44
1.0
1001
ACAD
1000
MTEXTBEGIN
1070
    73
1070
     1
1070
    44
1040
1.0
1070
    74
1070
     0
1000
MTEXTEND
  0
POINT
  5
18BEA
330
18BE0
100
AcDbEntity
  8
DEFPOINTS
 62
     0
 48
50.0
100
AcDbPoint
 10
7574.896575106999
 20
9636.123139034717
 30
0.0
  0
POINT
  5
18BEB
330
18BE0
100
AcDbEntity
  8
DEFPOINTS
 62
     0
 48
50.0
100
AcDbPoint
 10
7629.896575106998
 20
9636.123139034717
 30
0.0
  0
POINT
  5
18BEC
330
18BE0
100
AcDbEntity
  8
DEFPOINTS
 62
     0
 48
50.0
100
AcDbPoint
 10
7629.896575106998
 20
10151.9313586597
 30
0.0
  0
ENDBLK
  5
18BED
330
18BE0
100
AcDbEntity
  8
0
 48
50.0
100
AcDbBlockEnd
  0
BLOCK
  5
18BEF
330
18BEE
100
AcDbEntity
  8
0
 48
50.0
100
AcDbBlockBegin
  2
*D6
 70
     1
 10
0.0
 20
0.0
 30
0.0
  3
*D6
  1

  0
LINE
  5
18BF0
330
18BEE
100
AcDbEntity
  8
寸法
 62
     0
 48
50.0
370
    -2
100
AcDbLine
 10
7649.896575106999
 20
9636.123139034717
 30
0.0
 11
8337.32292084141
 21
9636.123139034717
 31
0.0
  0
LINE
  5
18BF1
330
18BEE
100
AcDbEntity
  8
寸法
 62
     0
 48
50.0
370
    -2
100
AcDbLine
 10
7649.896575106999
 20
9581.123139034721
 30
0.0
 11
8337.32292084141
 21
9581.123139034721
 31
0.0
  0
LINE
  5
18BF2
330
18BEE
100
AcDbEntity
  8
寸法
 62
     0
 48
50.0
370
    -2
100
AcDbLine
 10
8277.322920841411
 20
9581.123139034721
 30
0.0
 11
8277.322920841411
 21
9481.123139034719
 31
0.0
  0
LINE
  5
18BF3
330
18BEE
100
AcDbEntity
  8
寸法
 62
     0
 48
50.0
370
    -2
100
AcDbLine
 10
8277.322920841411
 20
9636.123139034717
 30
0.0
 11
8277.322920841411
 21
10053.09370178319
 31
0.0
  0
LINE
  5
18BF4
330
18BEE
100
AcDbEntity
  8
寸法
 62
     0
 48
50.0
370
    -2
100
AcDbLine
 10
8277.322920841411
 20
9581.123139034721
 30
0.0
 11
8277.322920841411
 21
9636.123139034717
 31
0.0
  0
INSERT
  5
18BF5
330
18BEE
100
AcDbEntity
  8
寸法
 62
     0
 48
50.0
370
    -2
100
AcDbBlockReference
  2
_DOTSMALL
 10
8277.322920841411
 20
9581.123139034721
 30
0.0
 41
100.0
 42
100.0
 43
100.0
 50
90.0
  0
INSERT
  5
18BF6
330
18BEE
100
AcDbEntity
  8
寸法
 62
     0
 48
50.0
370
    -2
100
AcDbBlockReference
  2
_DOTSMALL
 10
8277.322920841411
 20
9636.123139034717
 30
0.0
 41
100.0
 42
100.0
 43
100.0
 50
270.0
  0
MTEXT
  5
18BF7
330
18BEE
100
AcDbEntity
  8
寸法
 62
     7
 48
50.0
100
AcDbMText
 10
8177.32292084141
 20
9944.608420408957
 30
0.0
 40
120.0
 41
0.0
 71
     5
 72
     1
  1
\A1;55
  7
STYLE1
 11
0.0000000000000001
 21
1.0
 31
0.0
 73
     1
 44
1.0
1001
ACAD
1000
MTEXTBEGIN
1070
    73
1070
     1
1070
    44
1040
1.0
1070
    74
1070
     0
1000
MTEXTEND
  0
POINT
  5
18BF8
330
18BEE
100
AcDbEntity
  8
DEFPOINTS
 62
     0
 48
50.0
100
AcDbPoint
 10
7629.896575106998
 20
9636.123139034717
 30
0.0
  0
POINT
  5
18BF9
330
18BEE
100
AcDbEntity
  8
DEFPOINTS
 62
     0
 48
50.0
100
AcDbPoint
 10
7629.896575106998
 20
9581.123139034721
 30
0.0
  0
POINT
  5
18BFA
330
18BEE
100
AcDbEntity
  8
DEFPOINTS
 62
     0
 48
50.0
100
AcDbPoint
 10
8277.322920841411
 20
9581.123139034721
 30
0.0
  0
ENDBLK
  5
18BFB
330
18BEE
100
AcDbEntity
  8
0
 48
50.0
100
AcDbBlockEnd
  0
BLOCK
  5
18BFD
330
18BFC
100
AcDbEntity
  8
0
 48
50.0
100
AcDbBlockBegin
  2
*D7
 70
     1
 10
0.0
 20
0.0
 30
0.0
  3
*D7
  1

  0
LINE
  5
18BFE
330
18BFC
100
AcDbEntity
  8
寸法
 62
     0
 48
50.0
370
    -2
100
AcDbLine
 10
4159.896575106963
 20
9656.123139034622
 30
0.0
 11
4159.896575106963
 21
10211.9313586596
 31
0.0
  0
LINE
  5
18BFF
330
18BFC
100
AcDbEntity
  8
寸法
 62
     0
 48
50.0
370
    -2
100
AcDbLine
 10
4214.896575106998
 20
9656.123139034622
 30
0.0
 11
4214.896575106998
 21
10211.9313586596
 31
0.0
  0
LINE
  5
18C00
330
18BFC
100
AcDbEntity
  8
寸法
 62
     0
 48
50.0
370
    -2
100
AcDbLine
 10
4214.896575106998
 20
10151.9313586596
 30
0.0
 11
4314.896575106998
 21
10151.9313586596
 31
0.0
  0
LINE
  5
18C01
330
18BFC
100
AcDbEntity
  8
寸法
 62
     0
 48
50.0
370
    -2
100
AcDbLine
 10
4159.896575106963
 20
10151.9313586596
 30
0.0
 11
3742.926012358486
 21
10151.9313586596
 31
0.0
  0
LINE
  5
18C02
330
18BFC
100
AcDbEntity
  8
寸法
 62
     0
 48
50.0
370
    -2
100
AcDbLine
 10
4214.896575106998
 20
10151.9313586596
 30
0.0
 11
4159.896575106963
 21
10151.9313586596
 31
0.0
  0
INSERT
  5
18C03
330
18BFC
100
AcDbEntity
  8
寸法
 62
     0
 48
50.0
370
    -2
100
AcDbBlockReference
  2
_DOTSMALL
 10
4214.896575106998
 20
10151.9313586596
 30
0.0
 41
100.0
 42
100.0
 43
100.0
 50
180.0
  0
INSERT
  5
18C04
330
18BFC
100
AcDbEntity
  8
寸法
 62
     0
 48
50.0
370
    -2
100
AcDbBlockReference
  2
_DOTSMALL
 10
4159.896575106963
 20
10151.9313586596
 30
0.0
 41
100.0
 42
100.0
 43
100.0
  0
MTEXT
  5
18C05
330
18BFC
100
AcDbEntity
  8
寸法
 62
     7
 48
50.0
100
AcDbMText
 10
3851.411293732725
 20
10251.9313586596
 30
0.0
 40
120.0
 41
0.0
 71
     5
 72
     1
  1
\A1;55
  7
STYLE1
 73
     1
 44
1.0
1001
ACAD
1000
MTEXTBEGIN
1070
    73
1070
     1
1070
    44
1040
1.0
1070
    74
1070
     0
1000
MTEXTEND
  0
POINT
  5
18C06
330
18BFC
100
AcDbEntity
  8
DEFPOINTS
 62
     0
 48
50.0
100
AcDbPoint
 10
4159.896575106963
 20
9636.123139034623
 30
0.0
  0
POINT
  5
18C07
330
18BFC
100
AcDbEntity
  8
DEFPOINTS
 62
     0
 48
50.0
100
AcDbPoint
 10
4214.896575106998
 20
9636.123139034623
 30
0.0
  0
POINT
  5
18C08
330
18BFC
100
AcDbEntity
  8
DEFPOINTS
 62
     0
 48
50.0
100
AcDbPoint
 10
4214.896575106998
 20
10151.9313586596
 30
0.0
  0
ENDBLK
  5
18C09
330
18BFC
100
AcDbEntity
  8
0
 48
50.0
100
AcDbBlockEnd
  0
BLOCK
  5
18C0B
330
18C0A
100
AcDbEntity
  8
0
 48
50.0
100
AcDbBlockBegin
  2
*D8
 70
     1
 10
0.0
 20
0.0
 30
0.0
  3
*D8
  1

  0
LINE
  5
18C0C
330
18C0A
100
AcDbEntity
  8
寸法
 62
     0
 48
50.0
370
    -2
100
AcDbLine
 10
4159.896575106992
 20
7826.123139034546
 30
0.0
 11
4159.896575106992
 21
6804.372203245664
 31
0.0
  0
LINE
  5
18C0D
330
18C0A
100
AcDbEntity
  8
寸法
 62
     0
 48
50.0
370
    -2
100
AcDbLine
 10
7629.896575106974
 20
7826.123139034674
 30
0.0
 11
7629.896575106974
 21
6804.372203245664
 31
0.0
  0
LINE
  5
18C0E
330
18C0A
100
AcDbEntity
  8
寸法
 62
     0
 48
50.0
370
    -2
100
AcDbLine
 10
4159.896575106992
 20
6864.372203245665
 30
0.0
 11
7629.896575106974
 21
6864.372203245665
 31
0.0
  0
INSERT
  5
18C0F
330
18C0A
100
AcDbEntity
  8
寸法
 62
     0
 48
50.0
370
    -2
100
AcDbBlockReference
  2
_DOTSMALL
 10
4159.896575106992
 20
6864.372203245665
 30
0.0
 41
100.0
 42
100.0
 43
100.0
 50
180.0
  0
INSERT
  5
18C10
330
18C0A
100
AcDbEntity
  8
寸法
 62
     0
 48
50.0
370
    -2
100
AcDbBlockReference
  2
_DOTSMALL
 10
7629.896575106974
 20
6864.372203245665
 30
0.0
 41
100.0
 42
100.0
 43
100.0
  0
MTEXT
  5
18C11
330
18C0A
100
AcDbEntity
  8
寸法
 62
     7
 48
50.0
100
AcDbMText
 10
5911.12376113973
 20
6964.372203245665
 30
0.0
 40
120.0
 41
0.0
 71
     5
 72
     1
  1
\A1;3470
  7
STYLE1
 73
     1
 44
1.0
1001
ACAD
1000
MTEXTBEGIN
1070
    73
1070
     1
1070
    44
1040
1.0
1070
    74
1070
     0
1000
MTEXTEND
  0
POINT
  5
18C12
330
18C0A
100
AcDbEntity
  8
DEFPOINTS
 62
     0
 48
50.0
100
AcDbPoint
 10
4159.896575106992
 20
7846.123139034546
 30
0.0
  0
POINT
  5
18C13
330
18C0A
100
AcDbEntity
  8
DEFPOINTS
 62
     0
 48
50.0
100
AcDbPoint
 10
7629.896575106974
 20
7846.123139034673
 30
0.0
  0
POINT
  5
18C14
330
18C0A
100
AcDbEntity
  8
DEFPOINTS
 62
     0
 48
50.0
100
AcDbPoint
 10
7629.896575106974
 20
6864.372203245665
 30
0.0
  0
ENDBLK
  5
18C15
330
18C0A
100
AcDbEntity
  8
0
 48
50.0
100
AcDbBlockEnd
  0
BLOCK
  5
18C17
330
18C16
100
AcDbEntity
  8
0
 48
50.0
100
AcDbBlockBegin
  2
*D9
 70
     1
 10
0.0
 20
0.0
 30
0.0
  3
*D9
  1

  0
LINE
  5
18C18
330
18C16
100
AcDbEntity
  8
寸法
 62
     0
 48
50.0
370
    -2
100
AcDbLine
 10
7649.896575106973
 20
7901.123139034706
 30
0.0
 11
8337.322920841385
 21
7901.123139034706
 31
0.0
  0
LINE
  5
18C19
330
18C16
100
AcDbEntity
  8
寸法
 62
     0
 48
50.0
370
    -2
100
AcDbLine
 10
7649.896575106973
 20
7846.123139034709
 30
0.0
 11
8337.322920841385
 21
7846.123139034709
 31
0.0
  0
LINE
  5
18C1A
330
18C16
100
AcDbEntity
  8
寸法
 62
     0
 48
50.0
370
    -2
100
AcDbLine
 10
8277.322920841385
 20
7901.123139034706
 30
0.0
 11
8277.322920841385
 21
8001.123139034707
 31
0.0
  0
LINE
  5
18C1B
330
18C16
100
AcDbEntity
  8
寸法
 62
     0
 48
50.0
370
    -2
100
AcDbLine
 10
8277.322920841385
 20
7846.123139034709
 30
0.0
 11
8277.322920841385
 21
7429.152576286229
 31
0.0
  0
LINE
  5
18C1C
330
18C16
100
AcDbEntity
  8
寸法
 62
     0
 48
50.0
370
    -2
100
AcDbLine
 10
8277.322920841385
 20
7901.123139034706
 30
0.0
 11
8277.322920841385
 21
7846.123139034709
 31
0.0
  0
INSERT
  5
18C1D
330
18C16
100
AcDbEntity
  8
寸法
 62
     0
 48
50.0
370
    -2
100
AcDbBlockReference
  2
_DOTSMALL
 10
8277.322920841385
 20
7901.123139034706
 30
0.0
 41
100.0
 42
100.0
 43
100.0
 50
270.0
  0
INSERT
  5
18C1E
330
18C16
100
AcDbEntity
  8
寸法
 62
     0
 48
50.0
370
    -2
100
AcDbBlockReference
  2
_DOTSMALL
 10
8277.322920841385
 20
7846.123139034709
 30
0.0
 41
100.0
 42
100.0
 43
100.0
 50
90.0
  0
MTEXT
  5
18C1F
330
18C16
100
AcDbEntity
  8
寸法
 62
     7
 48
50.0
100
AcDbMText
 10
8177.322920841383
 20
7537.637857660469
 30
0.0
 40
120.0
 41
0.0
 71
     5
 72
     1
  1
\A1;55
  7
STYLE1
 11
0.0000000000000001
 21
1.0
 31
0.0
 73
     1
 44
1.0
1001
ACAD
1000
MTEXTBEGIN
1070
    73
1070
     1
1070
    44
1040
1.0
1070
    74
1070
     0
1000
MTEXTEND
  0
POINT
  5
18C20
330
18C16
100
AcDbEntity
  8
DEFPOINTS
 62
     0
 48
50.0
100
AcDbPoint
 10
7629.896575106974
 20
7901.123139034706
 30
0.0
  0
POINT
  5
18C21
330
18C16
100
AcDbEntity
  8
DEFPOINTS
 62
     0
 48
50.0
100
AcDbPoint
 10
7629.896575106974
 20
7846.123139034709
 30
0.0
  0
POINT
  5
18C22
330
18C16
100
AcDbEntity
  8
DEFPOINTS
 62
     0
 48
50.0
100
AcDbPoint
 10
8277.322920841385
 20
7846.123139034709
 30
0.0
  0
ENDBLK
  5
18C23
330
18C16
100
AcDbEntity
  8
0
 48
50.0
100
AcDbBlockEnd
  0
BLOCK
  5
18C25
330
18C24
100
AcDbEntity
  8
0
 48
50.0
100
AcDbBlockBegin
  2
*D10
 70
     1
 10
0.0
 20
0.0
 30
0.0
  3
*D10
  1

  0
LINE
  5
18C26
330
18C24
100
AcDbEntity
  8
寸法
 62
     0
 48
50.0
370
    -2
100
AcDbLine
 10
6533.037591258376
 20
9136.123139034728
 30
0.0
 11
6465.083950562664
 21
8882.516699399049
 31
0.0
  0
LINE
  5
18C27
330
18C24
100
AcDbEntity
  8
寸法
 62
     0
 48
50.0
370
    -2
100
AcDbLine
 10
7596.037591258388
 20
9136.123139034721
 30
0.0
 11
7528.083950562677
 21
8882.516699399049
 31
0.0
  0
LINE
  5
18C28
330
18C24
100
AcDbEntity
  8
寸法
 62
     0
 48
50.0
370
    -2
100
AcDbLine
 10
6481.160902108531
 20
8942.51669939905
 30
0.0
 11
7544.160902108544
 21
8942.51669939905
 31
0.0
  0
INSERT
  5
18C29
330
18C24
100
AcDbEntity
  8
寸法
 62
     0
 48
50.0
370
    -2
100
AcDbBlockReference
  2
_DOTSMALL
 10
6481.160902108531
 20
8942.51669939905
 30
0.0
 41
100.0
 42
100.0
 43
100.0
 50
180.0
  0
INSERT
  5
18C2A
330
18C24
100
AcDbEntity
  8
寸法
 62
     0
 48
50.0
370
    -2
100
AcDbBlockReference
  2
_DOTSMALL
 10
7544.160902108544
 20
8942.51669939905
 30
0.0
 41
100.0
 42
100.0
 43
100.0
  0
MTEXT
  5
18C2B
330
18C24
100
AcDbEntity
  8
寸法
 62
     7
 48
50.0
100
AcDbMText
 10
7061.28653022935
 20
9042.516699399049
 30
0.0
 40
120.0
 41
0.0
 71
     5
 72
     1
  1
\A1;1063
  7
STYLE1
 73
     1
 44
1.0
1001
ACAD
1000
MTEXTBEGIN
1070
    73
1070
     1
1070
    44
1040
1.0
1070
    74
1070
     0
1000
MTEXTEND
  0
POINT
  5
18C2C
330
18C24
100
AcDbEntity
  8
DEFPOINTS
 62
     0
 48
50.0
100
AcDbPoint
 10
6538.396575106998
 20
9156.123139034727
 30
0.0
  0
POINT
  5
18C2D
330
18C24
100
AcDbEntity
  8
DEFPOINTS
 62
     0
 48
50.0
100
AcDbPoint
 10
7601.39657510701
 20
9156.12313903472
 30
0.0
  0
POINT
  5
18C2E
330
18C24
100
AcDbEntity
  8
DEFPOINTS
 62
     0
 48
50.0
100
AcDbPoint
 10
7544.160902108544
 20
8942.51669939905
 30
0.0
  0
ENDBLK
  5
18C2F
330
18C24
100
AcDbEntity
  8
0
 48
50.0
100
AcDbBlockEnd
  0
BLOCK
  5
18C31
330
18C30
100
AcDbEntity
  8
0
 48
50.0
100
AcDbBlockBegin
  2
*D11
 70
     1
 10
0.0
 20
0.0
 30
0.0
  3
*D11
  1

  0
LINE
  5
18C32
330
18C30
100
AcDbEntity
  8
寸法
 62
     0
 48
50.0
370
    -2
100
AcDbLine
 10
7621.396575106999
 20
9600.764155186094
 30
0.0
 11
8016.754300969024
 21
9494.828371819961
 31
0.0
  0
LINE
  5
18C33
330
18C30
100
AcDbEntity
  8
寸法
 62
     0
 48
50.0
370
    -2
100
AcDbLine
 10
7621.396575106999
 20
9150.764155186099
 30
0.0
 11
8016.754300969024
 21
9044.828371819964
 31
0.0
  0
LINE
  5
18C34
330
18C30
100
AcDbEntity
  8
寸法
 62
     0
 48
50.0
370
    -2
100
AcDbLine
 10
7956.754300969024
 20
9510.905323365827
 30
0.0
 11
7956.754300969024
 21
9060.90532336583
 31
0.0
  0
INSERT
  5
18C35
330
18C30
100
AcDbEntity
  8
寸法
 62
     0
 48
50.0
370
    -2
100
AcDbBlockReference
  2
_DOTSMALL
 10
7956.754300969024
 20
9510.905323365827
 30
0.0
 41
100.0
 42
100.0
 43
100.0
 50
90.0
  0
INSERT
  5
18C36
330
18C30
100
AcDbEntity
  8
寸法
 62
     0
 48
50.0
370
    -2
100
AcDbBlockReference
  2
_DOTSMALL
 10
7956.754300969024
 20
9060.90532336583
 30
0.0
 41
100.0
 42
100.0
 43
100.0
 50
270.0
  0
MTEXT
  5
18C37
330
18C30
100
AcDbEntity
  8
寸法
 62
     7
 48
50.0
100
AcDbMText
 10
7856.754300969022
 20
9285.905323365829
 30
0.0
 40
120.0
 41
0.0
 71
     5
 72
     1
  1
\A1;450
  7
STYLE1
 11
0.0000000000000001
 21
1.0
 31
0.0
 73
     1
 44
1.0
1001
ACAD
1000
MTEXTBEGIN
1070
    73
1070
     1
1070
    44
1040
1.0
1070
    74
1070
     0
1000
MTEXTEND
  0
POINT
  5
18C38
330
18C30
100
AcDbEntity
  8
DEFPOINTS
 62
     0
 48
50.0
100
AcDbPoint
 10
7601.396575106999
 20
9606.123139034718
 30
0.0
  0
POINT
  5
18C39
330
18C30
100
AcDbEntity
  8
DEFPOINTS
 62
     0
 48
50.0
100
AcDbPoint
 10
7601.396575106999
 20
9156.12313903472
 30
0.0
  0
POINT
  5
18C3A
330
18C30
100
AcDbEntity
  8
DEFPOINTS
 62
     0
 48
50.0
100
AcDbPoint
 10
7956.754300969024
 20
9060.90532336583
 30
0.0
  0
ENDBLK
  5
18C3B
330
18C30
100
AcDbEntity
  8
0
 48
50.0
100
AcDbBlockEnd
  0
BLOCK
  5
18C3D
330
18C3C
100
AcDbEntity
  8
0
 48
50.0
100
AcDbBlockBegin
  2
*D12
 70
     1
 10
0.0
 20
0.0
 30
0.0
  3
*D12
  1

  0
LINE
  5
18C3E
330
18C3C
100
AcDbEntity
  8
寸法
 62
     0
 48
50.0
370
    -2
100
AcDbLine
 10
7649.896575106999
 20
9581.123139034721
 30
0.0
 11
8337.32292084141
 21
9581.123139034721
 31
0.0
  0
LINE
  5
18C3F
330
18C3C
100
AcDbEntity
  8
寸法
 62
     0
 48
50.0
370
    -2
100
AcDbLine
 10
7649.896575106973
 20
7901.123139034706
 30
0.0
 11
8337.32292084141
 21
7901.123139034706
 31
0.0
  0
LINE
  5
18C40
330
18C3C
100
AcDbEntity
  8
寸法
 62
     0
 48
50.0
370
    -2
100
AcDbLine
 10
8277.322920841411
 20
9581.123139034721
 30
0.0
 11
8277.322920841411
 21
7901.123139034706
 31
0.0
  0
INSERT
  5
18C41
330
18C3C
100
AcDbEntity
  8
寸法
 62
     0
 48
50.0
370
    -2
100
AcDbBlockReference
  2
_DOTSMALL
 10
8277.322920841411
 20
9581.123139034721
 30
0.0
 41
100.0
 42
100.0
 43
100.0
 50
90.0
  0
INSERT
  5
18C42
330
18C3C
100
AcDbEntity
  8
寸法
 62
     0
 48
50.0
370
    -2
100
AcDbBlockReference
  2
_DOTSMALL
 10
8277.322920841411
 20
7901.123139034706
 30
0.0
 41
100.0
 42
100.0
 43
100.0
 50
270.0
  0
MTEXT
  5
18C43
330
18C3C
100
AcDbEntity
  8
寸法
 62
     7
 48
50.0
100
AcDbMText
 10
8177.311109817788
 20
8741.123139034712
 30
0.0
 40
120.0
 41
0.0
 71
     5
 72
     1
  1
\A1;4X420=1680
  7
STYLE1
 11
0.0000000000000001
 21
1.0
 31
0.0
 73
     1
 44
1.0
1001
ACAD
1000
MTEXTBEGIN
1070
    73
1070
     1
1070
    44
1040
1.0
1070
    74
1070
     0
1000
MTEXTEND
  0
POINT
  5
18C44
330
18C3C
100
AcDbEntity
  8
DEFPOINTS
 62
     0
 48
50.0
100
AcDbPoint
 10
7629.896575106998
 20
9581.123139034721
 30
0.0
  0
POINT
  5
18C45
330
18C3C
100
AcDbEntity
  8
DEFPOINTS
 62
     0
 48
50.0
100
AcDbPoint
 10
7629.896575106974
 20
7901.123139034706
 30
0.0
  0
POINT
  5
18C46
330
18C3C
100
AcDbEntity
  8
DEFPOINTS
 62
     0
 48
50.0
100
AcDbPoint
 10
8277.322920841411
 20
7901.123139034706
 30
0.0
  0
ENDBLK
  5
18C47
330
18C3C
100
AcDbEntity
  8
0
 48
50.0
100
AcDbBlockEnd
  0
BLOCK
  5
18C49
330
18C48
100
AcDbEntity
  8
0
 48
50.0
100
AcDbBlockBegin
  2
*D13
 70
     1
 10
0.0
 20
0.0
 30
0.0
  3
*D13
  1

  0
LINE
  5
18C4A
330
18C48
100
AcDbEntity
  8
寸法
 62
     0
 48
50.0
370
    -2
100
AcDbLine
 10
4183.037591258377
 20
9136.123139034619
 30
0.0
 11
4115.083950562663
 21
8882.516699398941
 31
0.0
  0
LINE
  5
18C4B
330
18C48
100
AcDbEntity
  8
寸法
 62
     0
 48
50.0
370
    -2
100
AcDbLine
 10
5246.037591258307
 20
9136.123139034671
 30
0.0
 11
5178.08395056258
 21
8882.516699398941
 31
0.0
  0
LINE
  5
18C4C
330
18C48
100
AcDbEntity
  8
寸法
 62
     0
 48
50.0
370
    -2
100
AcDbLine
 10
4131.160902108532
 20
8942.516699398941
 30
0.0
 11
5194.160902108448
 21
8942.516699398941
 31
0.0
  0
INSERT
  5
18C4D
330
18C48
100
AcDbEntity
  8
寸法
 62
     0
 48
50.0
370
    -2
100
AcDbBlockReference
  2
_DOTSMALL
 10
4131.160902108532
 20
8942.516699398941
 30
0.0
 41
100.0
 42
100.0
 43
100.0
 50
180.0
  0
INSERT
  5
18C4E
330
18C48
100
AcDbEntity
  8
寸法
 62
     0
 48
50.0
370
    -2
100
AcDbBlockReference
  2
_DOTSMALL
 10
5194.160902108448
 20
8942.516699398941
 30
0.0
 41
100.0
 42
100.0
 43
100.0
  0
MTEXT
  5
18C4F
330
18C48
100
AcDbEntity
  8
寸法
 62
     7
 48
50.0
100
AcDbMText
 10
4658.986452655306
 20
9042.516699398941
 30
0.0
 40
120.0
 41
0.0
 71
     5
 72
     1
  1
\A1;1063
  7
STYLE1
 73
     1
 44
1.0
1001
ACAD
1000
MTEXTBEGIN
1070
    73
1070
     1
1070
    44
1040
1.0
1070
    74
1070
     0
1000
MTEXTEND
  0
POINT
  5
18C50
330
18C48
100
AcDbEntity
  8
DEFPOINTS
 62
     0
 48
50.0
100
AcDbPoint
 10
4188.396575106999
 20
9156.123139034617
 30
0.0
  0
POINT
  5
18C51
330
18C48
100
AcDbEntity
  8
DEFPOINTS
 62
     0
 48
50.0
100
AcDbPoint
 10
5251.396575106929
 20
9156.123139034672
 30
0.0
  0
POINT
  5
18C52
330
18C48
100
AcDbEntity
  8
DEFPOINTS
 62
     0
 48
50.0
100
AcDbPoint
 10
5194.160902108448
 20
8942.516699398941
 30
0.0
  0
ENDBLK
  5
18C53
330
18C48
100
AcDbEntity
  8
0
 48
50.0
100
AcDbBlockEnd
  0
BLOCK
  5
18C55
330
18C54
100
AcDbEntity
  8
0
 48
50.0
100
AcDbBlockBegin
  2
*D14
 70
     1
 10
0.0
 20
0.0
 30
0.0
  3
*D14
  1

  0
LINE
  5
18C56
330
18C54
100
AcDbEntity
  8
寸法
 62
     0
 48
50.0
370
    -2
100
AcDbLine
 10
5274.037591258307
 20
9136.123139034669
 30
0.0
 11
5206.08395056258
 21
8882.516699398941
 31
0.0
  0
LINE
  5
18C57
330
18C54
100
AcDbEntity
  8
寸法
 62
     0
 48
50.0
370
    -2
100
AcDbLine
 10
6505.037591258377
 20
9136.123139034662
 30
0.0
 11
6437.083950562653
 21
8882.516699398941
 31
0.0
  0
LINE
  5
18C58
330
18C54
100
AcDbEntity
  8
寸法
 62
     0
 48
50.0
370
    -2
100
AcDbLine
 10
5222.160902108448
 20
8942.516699398941
 30
0.0
 11
6453.16090210852
 21
8942.516699398941
 31
0.0
  0
INSERT
  5
18C59
330
18C54
100
AcDbEntity
  8
寸法
 62
     0
 48
50.0
370
    -2
100
AcDbBlockReference
  2
_DOTSMALL
 10
5222.160902108448
 20
8942.516699398941
 30
0.0
 41
100.0
 42
100.0
 43
100.0
 50
180.0
  0
INSERT
  5
18C5A
330
18C54
100
AcDbEntity
  8
寸法
 62
     0
 48
50.0
370
    -2
100
AcDbBlockReference
  2
_DOTSMALL
 10
6453.16090210852
 20
8942.516699398941
 30
0.0
 41
100.0
 42
100.0
 43
100.0
  0
MTEXT
  5
18C5B
330
18C54
100
AcDbEntity
  8
寸法
 62
     7
 48
50.0
100
AcDbMText
 10
6081.244808320626
 20
9042.528510422561
 30
0.0
 40
120.0
 41
0.0
 71
     5
 72
     1
  1
\A1;1231
  7
STYLE1
 73
     1
 44
1.0
1001
ACAD
1000
MTEXTBEGIN
1070
    73
1070
     1
1070
    44
1040
1.0
1070
    74
1070
     0
1000
MTEXTEND
  0
POINT
  5
18C5C
330
18C54
100
AcDbEntity
  8
DEFPOINTS
 62
     0
 48
50.0
100
AcDbPoint
 10
5279.396575106929
 20
9156.123139034669
 30
0.0
  0
POINT
  5
18C5D
330
18C54
100
AcDbEntity
  8
DEFPOINTS
 62
     0
 48
50.0
100
AcDbPoint
 10
6510.396575106999
 20
9156.123139034662
 30
0.0
  0
POINT
  5
18C5E
330
18C54
100
AcDbEntity
  8
DEFPOINTS
 62
     0
 48
50.0
100
AcDbPoint
 10
6453.16090210852
 20
8942.516699398941
 30
0.0
  0
ENDBLK
  5
18C5F
330
18C54
100
AcDbEntity
  8
0
 48
50.0
100
AcDbBlockEnd
  0
BLOCK
  5
18C61
330
18C60
100
AcDbEntity
  8
0
 48
50.0
100
AcDbBlockBegin
  2
*D15
 70
     1
 10
0.0
 20
0.0
 30
0.0
  3
*D15
  1

  0
LINE
  5
18C62
330
18C60
100
AcDbEntity
  8
寸法
 62
     0
 48
50.0
370
    -2
100
AcDbLine
 10
5065.896575106966
 20
7749.123139034579
 30
0.0
 11
5065.896575106966
 21
7099.952920982538
 31
0.0
  0
LINE
  5
18C63
330
18C60
100
AcDbEntity
  8
寸法
 62
     0
 48
50.0
370
    -2
100
AcDbLine
 10
6331.896575106966
 20
7749.123139034579
 30
0.0
 11
6331.896575106966
 21
7099.952920982538
 31
0.0
  0
LINE
  5
18C64
330
18C60
100
AcDbEntity
  8
寸法
 62
     0
 48
50.0
370
    -2
100
AcDbLine
 10
5065.896575106966
 20
7159.952920982537
 30
0.0
 11
6331.896575106966
 21
7159.952920982537
 31
0.0
  0
INSERT
  5
18C65
330
18C60
100
AcDbEntity
  8
寸法
 62
     0
 48
50.0
370
    -2
100
AcDbBlockReference
  2
_DOTSMALL
 10
5065.896575106966
 20
7159.952920982537
 30
0.0
 41
100.0
 42
100.0
 43
100.0
 50
180.0
  0
INSERT
  5
18C66
330
18C60
100
AcDbEntity
  8
寸法
 62
     0
 48
50.0
370
    -2
100
AcDbBlockReference
  2
_DOTSMALL
 10
6331.896575106966
 20
7159.952920982537
 30
0.0
 41
100.0
 42
100.0
 43
100.0
  0
MTEXT
  5
18C67
330
18C60
100
AcDbEntity
  8
寸法
 62
     7
 48
50.0
100
AcDbMText
 10
5711.986008735934
 20
7359.964732006159
 30
0.0
 40
120.0
 41
0.0
 71
     5
 72
     1
  1
\A1;有効開口部間口\P1266
  7
STYLE1
 73
     1
 44
1.0
1001
ACAD
1000
MTEXTBEGIN
1070
    73
1070
     1
1070
    44
1040
1.0
1070
    74
1070
     0
1000
MTEXTEND
  0
POINT
  5
18C68
330
18C60
100
AcDbEntity
  8
DEFPOINTS
 62
     0
 48
50.0
100
AcDbPoint
 10
5065.896575106966
 20
7769.123139034579
 30
0.0
  0
POINT
  5
18C69
330
18C60
100
AcDbEntity
  8
DEFPOINTS
 62
     0
 48
50.0
100
AcDbPoint
 10
6331.896575106966
 20
7769.123139034579
 30
0.0
  0
POINT
  5
18C6A
330
18C60
100
AcDbEntity
  8
DEFPOINTS
 62
     0
 48
50.0
100
AcDbPoint
 10
6331.896575106966
 20
7159.952920982537
 30
0.0
  0
ENDBLK
  5
18C6B
330
18C60
100
AcDbEntity
  8
0
 48
50.0
100
AcDbBlockEnd
  0
BLOCK
  5
18C6D
330
18C6C
100
AcDbEntity
  8
0
 48
50.0
100
AcDbBlockBegin
  2
*D16
 70
     1
 10
0.0
 20
0.0
 30
0.0
  3
*D16
  1

  0
LINE
  5
18C6E
330
18C6C
100
AcDbEntity
  8
寸法
 62
     0
 48
50.0
370
    -2
100
AcDbLine
 10
7200.896575106966
 20
7846.123139034578
 30
0.0
 11
7457.192158500191
 21
7846.123139034578
 31
0.0
  0
LINE
  5
18C6F
330
18C6C
100
AcDbEntity
  8
寸法
 62
     0
 48
50.0
370
    -2
100
AcDbLine
 10
7199.896575106966
 20
7769.123139034579
 30
0.0
 11
7457.192158500191
 21
7769.123139034579
 31
0.0
  0
LINE
  5
18C70
330
18C6C
100
AcDbEntity
  8
寸法
 62
     0
 48
50.0
370
    -2
100
AcDbLine
 10
7417.192158500192
 20
7866.123139034579
 30
0.0
 11
7417.192158500192
 21
7886.123139034578
 31
0.0
  0
LINE
  5
18C71
330
18C6C
100
AcDbEntity
  8
寸法
 62
     0
 48
50.0
370
    -2
100
AcDbLine
 10
7417.192158500192
 20
7749.123139034579
 30
0.0
 11
7417.192158500192
 21
7533.123139034573
 31
0.0
  0
LINE
  5
18C72
330
18C6C
100
AcDbEntity
  8
寸法
 62
     0
 48
50.0
370
    -2
100
AcDbLine
 10
7417.192158500192
 20
7846.123139034578
 30
0.0
 11
7417.192158500192
 21
7769.123139034579
 31
0.0
  0
INSERT
  5
18C73
330
18C6C
100
AcDbEntity
  8
寸法
 62
     0
 48
50.0
370
    -2
100
AcDbBlockReference
  2
_DOT
 10
7417.192158500192
 20
7846.123139034578
 30
0.0
 41
20.0
 42
20.0
 43
20.0
 50
270.0
  0
INSERT
  5
18C74
330
18C6C
100
AcDbEntity
  8
寸法
 62
     0
 48
50.0
370
    -2
100
AcDbBlockReference
  2
_DOT
 10
7417.192158500192
 20
7769.123139034579
 30
0.0
 41
20.0
 42
20.0
 43
20.0
 50
90.0
  0
MTEXT
  5
18C75
330
18C6C
100
AcDbEntity
  8
寸法
 62
     7
 48
50.0
100
AcDbMText
 10
7325.192158500191
 20
7631.123139034575
 30
0.0
 40
120.0
 41
0.0
 71
     5
 72
     1
  1
\A1;77
  7
STYLE1
 11
0.0000000000000001
 21
1.0
 31
0.0
 73
     1
 44
1.0
1001
ACAD
1000
MTEXTBEGIN
1070
    73
1070
     1
1070
    44
1040
1.0
1070
    74
1070
     0
1000
MTEXTEND
  0
POINT
  5
18C76
330
18C6C
100
AcDbEntity
  8
DEFPOINTS
 62
     0
 48
50.0
100
AcDbPoint
 10
7180.896575106967
 20
7846.123139034578
 30
0.0
  0
POINT
  5
18C77
330
18C6C
100
AcDbEntity
  8
DEFPOINTS
 62
     0
 48
50.0
100
AcDbPoint
 10
7179.896575106965
 20
7769.123139034579
 30
0.0
  0
POINT
  5
18C78
330
18C6C
100
AcDbEntity
  8
DEFPOINTS
 62
     0
 48
50.0
100
AcDbPoint
 10
7417.192158500192
 20
7769.123139034579
 30
0.0
  0
ENDBLK
  5
18C79
330
18C6C
100
AcDbEntity
  8
0
 48
50.0
100
AcDbBlockEnd
  0
BLOCK
  5
18DA0
330
18C7A
100
AcDbEntity
  8
0
 48
50.0
100
AcDbBlockBegin
  2
A$C3B1A506B
 70
     0
 10
0.0
 20
0.0
 30
0.0
  3
A$C3B1A506B
  1

  0
MTEXT
  5
18C7B
330
18C7A
100
AcDbEntity
  8
寸法
 62
     7
 48
50.0
100
AcDbMText
 10
3342.250386887194
 20
2778.329429134012
 30
0.0
 40
96.0
 41
0.0
 71
     5
 72
     1
  1
棚 2段
  7
STYLE1
 73
     1
 44
1.0
1001
ACAD
1000
MTEXTBEGIN
1070
    73
1070
     1
1070
    44
1040
1.0
1070
    74
1070
     0
1000
MTEXTEND
  0
MTEXT
  5
18C7C
330
18C7A
100
AcDbEntity
  8
寸法
 62
     7
 48
50.0
100
AcDbMText
 10
2167.25038688716
 20
2778.329429133986
 30
0.0
 40
96.0
 41
0.0
 71
     5
 72
     1
  1
棚 2段
  7
STYLE1
 73
     1
 44
1.0
1001
ACAD
1000
MTEXTBEGIN
1070
    73
1070
     1
1070
    44
1040
1.0
1070
    74
1070
     0
1000
MTEXTEND
  0
MTEXT
  5
18C7D
330
18C7A
100
AcDbEntity
  8
寸法
 62
     7
 48
50.0
100
AcDbMText
 10
992.2503868871608
 20
2778.329429133935
 30
0.0
 40
96.0
 41
0.0
 71
     5
 72
     1
  1
棚 2段
  7
STYLE1
 73
     1
 44
1.0
1001
ACAD
1000
MTEXTBEGIN
1070
    73
1070
     1
1070
    44
1040
1.0
1070
    74
1070
     0
1000
MTEXTEND
  0
LINE
  5
18C7E
330
18C7A
100
AcDbEntity
  8
細線
 48
50.0
100
AcDbLine
 10
2771.970589276527
 20
1368.994384123192
 30
0.0
 11
3398.970589276523
 21
1368.994384123192
 31
0.0
  0
LINE
  5
18C7F
330
18C7A
100
AcDbEntity
  8
細線
 48
50.0
100
AcDbLine
 10
2117.970593930113
 20
1335.285615569113
 30
0.0
 11
3398.970589276523
 21
1335.285615569113
 31
0.0
  0
LINE
  5
18C80
330
18C7A
100
AcDbEntity
  8
細線
 48
50.0
100
AcDbLine
 10
2076.970593930115
 20
1364.690523565368
 30
0.0
 11
1322.970589276523
 21
1364.690523565367
 31
0.0
  0
LINE
  5
18C81
330
18C7A
100
AcDbEntity
  8
細線
100
AcDbLine
 10
3170.720579860066
 20
1388.494284088199
 30
0.0
 11
3173.052119381877
 21
1393.494286728162
 31
0.0
  0
LINE
  5
18C82
330
18C7A
100
AcDbEntity
  8
細線
100
AcDbLine
 10
3240.720589276525
 20
1388.494269174465
 30
0.0
 11
3238.389042800336
 21
1393.494286728144
 31
0.0
  0
LINE
  5
18C83
330
18C7A
100
AcDbEntity
  8
細線
100
AcDbLine
 10
3238.389042800336
 20
1393.494286728144
 30
0.0
 11
3173.052119381862
 21
1393.494286728133
 31
0.0
  0
LINE
  5
18C84
330
18C7A
100
AcDbEntity
  8
細線
100
AcDbLine
 10
3098.389042800336
 20
1393.494286728144
 30
0.0
 11
3033.052119381862
 21
1393.494286728133
 31
0.0
  0
LINE
  5
18C85
330
18C7A
100
AcDbEntity
  8
細線
100
AcDbLine
 10
3100.720589276523
 20
1388.494269174465
 30
0.0
 11
3098.389042800336
 21
1393.494286728144
 31
0.0
  0
LINE
  5
18C86
330
18C7A
100
AcDbEntity
  8
細線
100
AcDbLine
 10
3030.720579860066
 20
1388.494284088199
 30
0.0
 11
3033.052119381875
 21
1393.494286728162
 31
0.0
  0
LINE
  5
18C87
330
18C7A
100
AcDbEntity
  8
細線
100
AcDbLine
 10
2890.720589276525
 20
1388.494269174465
 30
0.0
 11
2893.052128798336
 21
1393.494271814428
 31
0.0
  0
LINE
  5
18C88
330
18C7A
100
AcDbEntity
  8
細線
100
AcDbLine
 10
2960.720598692984
 20
1388.494254260731
 30
0.0
 11
2958.389052216793
 21
1393.49427181441
 31
0.0
  0
LINE
  5
18C89
330
18C7A
100
AcDbEntity
  8
細線
100
AcDbLine
 10
2958.389052216795
 20
1393.49427181441
 30
0.0
 11
2893.052128798321
 21
1393.494271814399
 31
0.0
  0
LINE
  5
18C8A
330
18C7A
100
AcDbEntity
  8
細線
100
AcDbLine
 10
2667.139038146739
 20
1359.494298590735
 30
0.0
 11
2601.802114728263
 21
1359.494298590724
 31
0.0
  0
LINE
  5
18C8B
330
18C7A
100
AcDbEntity
  8
細線
100
AcDbLine
 10
2669.470584622926
 20
1354.494281037055
 30
0.0
 11
2667.139038146737
 21
1359.494298590735
 31
0.0
  0
LINE
  5
18C8C
330
18C7A
100
AcDbEntity
  8
細線
100
AcDbLine
 10
2599.470575206469
 20
1354.49429595079
 30
0.0
 11
2601.802114728278
 21
1359.494298590752
 31
0.0
  0
LINE
  5
18C8D
330
18C7A
100
AcDbEntity
  8
細線
 48
50.0
100
AcDbLine
 10
2440.853968524536
 20
1372.765132327548
 30
0.0
 11
2446.609486107205
 21
1354.494281037057
 31
0.0
  0
LINE
  5
18C8E
330
18C7A
100
AcDbEntity
  8
細線
 48
50.0
100
AcDbLine
 10
2429.925520044106
 20
1372.765132327546
 30
0.0
 11
2440.853968524536
 21
1372.765132327548
 31
0.0
  0
ARC
  5
18C8F
330
18C7A
100
AcDbEntity
  8
細線
 48
50.0
100
AcDbCircle
 10
2424.471163986787
 20
1374.265132327546
 30
0.0
 40
5.0
100
AcDbArc
 50
204.6243183520723
 51
335.3756816479278
  0
ARC
  5
18C90
330
18C7A
100
AcDbEntity
  8
細線
 48
50.0
100
AcDbCircle
 10
2429.925520044106
 20
1371.765132327546
 30
0.0
 40
1.0
100
AcDbArc
 50
90.0
 51
155.3756816479277
  0
ARC
  5
18C91
330
18C7A
100
AcDbEntity
  8
細線
 48
50.0
100
AcDbCircle
 10
2419.016807929469
 20
1371.765132327546
 30
0.0
 40
1.0
100
AcDbArc
 50
24.62431835207225
 51
90.0
  0
LINE
  5
18C92
330
18C7A
100
AcDbEntity
  8
細線
 48
50.0
100
AcDbLine
 10
2408.088359449037
 20
1372.765132327548
 30
0.0
 11
2419.016807929469
 21
1372.765132327546
 31
0.0
  0
LINE
  5
18C93
330
18C7A
100
AcDbEntity
  8
細線
 48
50.0
100
AcDbLine
 10
2402.33284186637
 20
1354.494281037054
 30
0.0
 11
2408.088359449037
 21
1372.765132327548
 31
0.0
  0
LINE
  5
18C94
330
18C7A
100
AcDbEntity
  8
細線
100
AcDbLine
 10
2458.070304175992
 20
1354.494278397076
 30
0.0
 11
2460.401843697802
 21
1359.494281037039
 31
0.0
  0
LINE
  5
18C95
330
18C7A
100
AcDbEntity
  8
細線
100
AcDbLine
 10
2528.070313592451
 20
1354.494263483342
 30
0.0
 11
2525.738767116262
 21
1359.494281037021
 31
0.0
  0
LINE
  5
18C96
330
18C7A
100
AcDbEntity
  8
細線
100
AcDbLine
 10
2525.738767116262
 20
1359.494281037021
 30
0.0
 11
2460.40184369779
 21
1359.49428103701
 31
0.0
  0
LINE
  5
18C97
330
18C7A
100
AcDbEntity
  8
細線
100
AcDbLine
 10
2387.139046332155
 20
1359.494281037021
 30
0.0
 11
2321.80212291368
 21
1359.49428103701
 31
0.0
  0
LINE
  5
18C98
330
18C7A
100
AcDbEntity
  8
細線
100
AcDbLine
 10
2389.470592808342
 20
1354.494263483342
 30
0.0
 11
2387.139046332153
 21
1359.494281037021
 31
0.0
  0
LINE
  5
18C99
330
18C7A
100
AcDbEntity
  8
細線
100
AcDbLine
 10
2319.470584622926
 20
1354.494281037054
 30
0.0
 11
2321.802122913694
 21
1359.494281037039
 31
0.0
  0
LINE
  5
18C9A
330
18C7A
100
AcDbEntity
  8
細線
100
AcDbLine
 10
2179.47061994182
 20
1354.494289224422
 30
0.0
 11
2181.802158232587
 21
1359.494289224407
 31
0.0
  0
LINE
  5
18C9B
330
18C7A
100
AcDbEntity
  8
細線
100
AcDbLine
 10
2249.470628127236
 20
1354.49427167071
 30
0.0
 11
2247.139081651047
 21
1359.494289224389
 31
0.0
  0
LINE
  5
18C9C
330
18C7A
100
AcDbEntity
  8
細線
100
AcDbLine
 10
2247.139081651047
 20
1359.494289224389
 30
0.0
 11
2181.802158232573
 21
1359.494289224378
 31
0.0
  0
LINE
  5
18C9D
330
18C7A
100
AcDbEntity
  8
細線
100
AcDbLine
 10
1807.970585744697
 20
1320.494460905133
 30
0.0
 11
1810.302124035464
 21
1325.494460905118
 31
0.0
  0
LINE
  5
18C9E
330
18C7A
100
AcDbEntity
  8
細線
100
AcDbLine
 10
1877.970593930113
 20
1320.494443351421
 30
0.0
 11
1875.639047453926
 21
1325.4944609051
 31
0.0
  0
LINE
  5
18C9F
330
18C7A
100
AcDbEntity
  8
細線
100
AcDbLine
 10
1875.639047453926
 20
1325.4944609051
 30
0.0
 11
1810.302124035452
 21
1325.494460905089
 31
0.0
  0
LINE
  5
18CA0
330
18C7A
100
AcDbEntity
  8
細線
100
AcDbLine
 10
2015.639047453926
 20
1325.4944609051
 30
0.0
 11
1950.302124035452
 21
1325.494460905089
 31
0.0
  0
LINE
  5
18CA1
330
18C7A
100
AcDbEntity
  8
細線
100
AcDbLine
 10
2017.970593930113
 20
1320.494443351421
 30
0.0
 11
2015.639047453924
 21
1325.4944609051
 31
0.0
  0
LINE
  5
18CA2
330
18C7A
100
AcDbEntity
  8
細線
100
AcDbLine
 10
1947.970585744697
 20
1320.494460905133
 30
0.0
 11
1950.302124035465
 21
1325.494460905118
 31
0.0
  0
LINE
  5
18CA3
330
18C7A
100
AcDbEntity
  8
細線
100
AcDbLine
 10
1735.639047453926
 20
1325.494460905098
 30
0.0
 11
1670.302124035454
 21
1325.494460905087
 31
0.0
  0
LINE
  5
18CA4
330
18C7A
100
AcDbEntity
  8
細線
100
AcDbLine
 10
1737.970593930113
 20
1320.494443351419
 30
0.0
 11
1735.639047453926
 21
1325.494460905098
 31
0.0
  0
LINE
  5
18CA5
330
18C7A
100
AcDbEntity
  8
細線
100
AcDbLine
 10
1667.970585744697
 20
1320.494460905131
 30
0.0
 11
1670.302124035465
 21
1325.494460905116
 31
0.0
  0
LINE
  5
18CA6
330
18C7A
100
AcDbEntity
  8
細線
100
AcDbLine
 10
1527.970593930113
 20
1320.494460905133
 30
0.0
 11
1530.302132220881
 21
1325.494460905118
 31
0.0
  0
LINE
  5
18CA7
330
18C7A
100
AcDbEntity
  8
細線
100
AcDbLine
 10
1597.970602115529
 20
1320.494443351421
 30
0.0
 11
1595.639055639342
 21
1325.4944609051
 31
0.0
  0
LINE
  5
18CA8
330
18C7A
100
AcDbEntity
  8
細線
100
AcDbLine
 10
1595.639055639342
 20
1325.4944609051
 30
0.0
 11
1530.302132220869
 21
1325.494460905089
 31
0.0
  0
ARC
  5
18CA9
330
18C7A
100
AcDbEntity
  8
部品1
 48
0.01
100
AcDbCircle
 10
1483.470482677778
 20
1319.493338720063
 30
0.0
 40
0.5
100
AcDbArc
 50
270.0
 51
0.0
  0
LINE
  5
18CAA
330
18C7A
100
AcDbEntity
  8
部品1
 48
0.01
100
AcDbLine
 10
1483.970482677778
 20
1320.493338720063
 30
0.0
 11
1483.970482677778
 21
1319.493338720063
 31
0.0
  0
LINE
  5
18CAB
330
18C7A
100
AcDbEntity
  8
部品1
 48
0.01
100
AcDbLine
 10
1483.970482677778
 20
1320.493338720063
 30
0.0
 11
1483.970482677778
 21
1319.493338720063
 31
0.0
  0
LINE
  5
18CAC
330
18C7A
100
AcDbEntity
  8
部品1
 48
0.01
100
AcDbLine
 10
1483.470482677778
 20
1318.993338720063
 30
0.0
 11
1476.857977247713
 21
1318.993338720062
 31
0.0
  0
ARC
  5
18CAD
330
18C7A
100
AcDbEntity
  8
部品1
100
AcDbCircle
 10
1476.926326800494
 20
1319.993338720062
 30
0.0
 40
1.0
100
AcDbArc
 50
160.5287793655865
 51
270.0
  0
ARC
  5
18CAE
330
18C7A
100
AcDbEntity
  8
部品1
100
AcDbCircle
 10
1451.470482677778
 20
1328.993338720062
 30
0.0
 40
26.0
100
AcDbArc
 50
340.5287793655865
 51
0.0
  0
LINE
  5
18CAF
330
18C7A
100
AcDbEntity
  8
部品1
100
AcDbLine
 10
1477.470482677778
 20
1328.993338720062
 30
0.0
 11
1477.470482677778
 21
1333.993338720061
 31
0.0
  0
ARC
  5
18CB0
330
18C7A
100
AcDbEntity
  8
部品1
 48
0.01
100
AcDbCircle
 10
1475.470482677778
 20
1333.993338720061
 30
0.0
 40
2.0
100
AcDbArc
 50
0.0
 51
90.0
  0
ARC
  5
18CB1
330
18C7A
100
AcDbEntity
  8
部品1
100
AcDbCircle
 10
1473.862091052968
 20
1332.993338720062
 30
0.0
 40
3.0
100
AcDbArc
 50
90.0
 51
141.6069559808035
  0
LINE
  5
18CB2
330
18C7A
100
AcDbEntity
  8
部品1
 48
0.01
100
AcDbLine
 10
1475.470482677778
 20
1335.993338720062
 30
0.0
 11
1473.862091052968
 21
1335.993338720062
 31
0.0
  0
ARC
  5
18CB3
330
18C7A
100
AcDbEntity
  8
部品1
100
AcDbCircle
 10
1455.399768463507
 20
1332.293338720065
 30
0.0
 40
3.0
100
AcDbArc
 50
254.0576313943215
 51
270.0
  0
ARC
  5
18CB4
330
18C7A
100
AcDbEntity
  8
部品1
100
AcDbCircle
 10
1462.541196892049
 20
1332.293338720065
 30
0.0
 40
3.0
100
AcDbArc
 50
270.0
 51
285.9423686056786
  0
LINE
  5
18CB5
330
18C7A
100
AcDbEntity
  8
部品1
100
AcDbLine
 10
1462.541196892049
 20
1329.293338720064
 30
0.0
 11
1455.399768463507
 21
1329.293338720064
 31
0.0
  0
ARC
  5
18CB6
330
18C7A
100
AcDbEntity
  8
部品1
100
AcDbCircle
 10
1458.970482677778
 20
1344.793338720065
 30
0.0
 40
16.0
100
AcDbArc
 50
285.9423686056786
 51
321.6069559808035
  0
LINE
  5
18CB7
330
18C7A
100
AcDbEntity
  8
部品1
 48
0.01
100
AcDbLine
 10
1442.470482677778
 20
1335.993338720062
 30
0.0
 11
1444.078874302588
 21
1335.993338720062
 31
0.0
  0
ARC
  5
18CB8
330
18C7A
100
AcDbEntity
  8
部品1
100
AcDbCircle
 10
1444.078874302588
 20
1332.993338720062
 30
0.0
 40
3.0
100
AcDbArc
 50
38.39304401919648
 51
90.0
  0
ARC
  5
18CB9
330
18C7A
100
AcDbEntity
  8
部品1
100
AcDbCircle
 10
1458.970482677778
 20
1344.793338720065
 30
0.0
 40
16.0
100
AcDbArc
 50
218.3930440191965
 51
254.0576313943215
  0
LINE
  5
18CBA
330
18C7A
100
AcDbEntity
  8
部品1
100
AcDbLine
 10
1440.470482677778
 20
1328.993338720062
 30
0.0
 11
1440.470482677778
 21
1333.993338720061
 31
0.0
  0
ARC
  5
18CBB
330
18C7A
100
AcDbEntity
  8
部品1
 48
0.01
100
AcDbCircle
 10
1442.470482677778
 20
1333.993338720061
 30
0.0
 40
2.0
100
AcDbArc
 50
90.0
 51
180.0
  0
ARC
  5
18CBC
330
18C7A
100
AcDbEntity
  8
部品1
100
AcDbCircle
 10
1466.470482677778
 20
1328.993338720062
 30
0.0
 40
26.0
100
AcDbArc
 50
180.0
 51
199.4712206344134
  0
ARC
  5
18CBD
330
18C7A
100
AcDbEntity
  8
部品1
 48
0.01
100
AcDbCircle
 10
1434.470482677778
 20
1319.493338720063
 30
0.0
 40
0.5
100
AcDbArc
 50
180.0
 51
270.0
  0
LINE
  5
18CBE
330
18C7A
100
AcDbEntity
  8
部品1
 48
0.01
100
AcDbLine
 10
1434.470482677778
 20
1318.993338720063
 30
0.0
 11
1441.014638555061
 21
1318.993338720062
 31
0.0
  0
LINE
  5
18CBF
330
18C7A
100
AcDbEntity
  8
部品1
 48
0.01
100
AcDbLine
 10
1433.970482677778
 20
1320.493338720063
 30
0.0
 11
1433.970482677778
 21
1319.493338720063
 31
0.0
  0
ARC
  5
18CC0
330
18C7A
100
AcDbEntity
  8
部品1
100
AcDbCircle
 10
1441.014638555061
 20
1319.993338720062
 30
0.0
 40
1.0
100
AcDbArc
 50
270.0
 51
19.47122063441346
  0
LINE
  5
18CC1
330
18C7A
100
AcDbEntity
  8
細線
100
AcDbLine
 10
1479.470482677785
 20
1338.493338720065
 30
0.0
 11
1438.470482677785
 21
1338.493338720058
 31
0.0
  0
LINE
  5
18CC2
330
18C7A
100
AcDbEntity
  8
細線
100
AcDbLine
 10
1438.470482677785
 20
1338.493338720058
 30
0.0
 11
1438.470482677785
 21
1320.49333872004
 31
0.0
  0
LINE
  5
18CC3
330
18C7A
100
AcDbEntity
  8
細線
100
AcDbLine
 10
1479.470482677785
 20
1338.493338720065
 30
0.0
 11
1479.470482677785
 21
1320.49333872004
 31
0.0
  0
LINE
  5
18CC4
330
18C7A
100
AcDbEntity
  8
細線
100
AcDbLine
 10
1322.970589276523
 20
1324.494269174465
 30
0.0
 11
1322.970589276523
 21
1320.494269174513
 31
0.0
  0
LINE
  5
18CC5
330
18C7A
100
AcDbEntity
  8
寸法
 48
50.0
100
AcDbLine
 10
1746.17359555837
 20
1170.531020743327
 30
0.0
 11
1694.767587648266
 21
1170.531020743327
 31
0.0
  0
LINE
  5
18CC6
330
18C7A
100
AcDbEntity
  8
寸法
 48
50.0
100
AcDbLine
 10
1694.767587648266
 20
1170.531020743327
 30
0.0
 11
1694.767587648266
 21
1201.841179395494
 31
0.0
  0
LINE
  5
18CC7
330
18C7A
100
AcDbEntity
  8
寸法
 48
50.0
100
AcDbLine
 10
1694.767587648266
 20
1201.841179395494
 30
0.0
 11
1665.006255656843
 21
1201.841179395494
 31
0.0
  0
LINE
  5
18CC8
330
18C7A
100
AcDbEntity
  8
寸法
 48
50.0
100
AcDbLine
 10
1665.006255656843
 20
1201.841179395494
 30
0.0
 11
1720.470591603318
 21
1239.420630324105
 31
0.0
  0
LINE
  5
18CC9
330
18C7A
100
AcDbEntity
  8
寸法
 48
50.0
100
AcDbLine
 10
1775.934927549793
 20
1201.841179395494
 30
0.0
 11
1720.470591603318
 21
1239.420630324105
 31
0.0
  0
LINE
  5
18CCA
330
18C7A
100
AcDbEntity
  8
寸法
 48
50.0
100
AcDbLine
 10
1746.17359555837
 20
1201.841179395494
 30
0.0
 11
1775.934927549793
 21
1201.841179395494
 31
0.0
  0
LINE
  5
18CCB
330
18C7A
100
AcDbEntity
  8
寸法
 48
50.0
100
AcDbLine
 10
1746.17359555837
 20
1170.531020743327
 30
0.0
 11
1746.17359555837
 21
1201.841179395494
 31
0.0
  0
LINE
  5
18CCC
330
18C7A
100
AcDbEntity
  8
寸法
 48
50.0
100
AcDbLine
 10
1694.767587648266
 20
1170.531020743327
 30
0.0
 11
1746.17359555837
 21
1170.531020743327
 31
0.0
  0
LINE
  5
18CCD
330
18C7A
100
AcDbEntity
  8
寸法
 48
50.0
100
AcDbLine
 10
2025.339129835225
 20
1227.676611498152
 30
0.0
 11
2025.339129835225
 21
1174.01297691636
 31
0.0
  0
LINE
  5
18CCE
330
18C7A
100
AcDbEntity
  8
寸法
 48
50.0
100
AcDbLine
 10
2114.623348430647
 20
1203.752977228664
 30
0.0
 11
2025.339129835225
 21
1227.676611498152
 31
0.0
  0
LINE
  5
18CCF
330
18C7A
100
AcDbEntity
  8
寸法
 48
50.0
100
AcDbLine
 10
1895.471408254923
 20
1203.752977228664
 30
0.0
 11
2114.623348430647
 21
1203.752977228664
 31
0.0
  0
DIMENSION
  5
18CD0
330
18C7A
100
AcDbEntity
  8
寸法
 48
50.0
100
AcDbDimension
  2
*D15
 10
2588.970589276523
 20
706.3240511224249
 30
0.0
 11
1969.060022905491
 21
706.3240511224249
 31
0.0
 12
-3742.925985830444
 22
-6453.628869860112
 32
0.0
 70
   128
  1
有効開口部間口\P<>
 71
     5
 42
1266.0
  3
INABA_S40G
100
AcDbAlignedDimension
 13
1322.970589276523
 23
1315.494269174465
 33
0.0
 14
2588.970589276523
 24
1315.494269174465
 34
0.0
100
AcDbRotatedDimension
1001
ACAD
1000
DSTYLE
1002
{
1070
   341
1005
0
1002
}
  0
LINE
  5
18CD1
330
18C7A
100
AcDbEntity
  8
部品1
100
AcDbLine
 10
3409.970589276524
 20
1392.494269174465
 30
0.0
 11
3437.970589276523
 21
1392.494269174465
 31
0.0
  0
DIMENSION
  5
18CD2
330
18C7A
100
AcDbEntity
  8
寸法
100
AcDbDimension
  2
*D16
 10
3674.266172669749
 20
1315.494269174465
 30
0.0
 11
3674.266172669748
 21
1177.494269174462
 31
0.0
 12
-3742.925985830444
 22
-6453.628869860112
 32
0.0
 70
   128
 71
     5
 42
77.0
  3
INABA_S40
100
AcDbAlignedDimension
 13
3437.970589276523
 23
1392.494269174465
 33
0.0
 14
3436.970589276523
 24
1315.494269174465
 34
0.0
 50
90.0
100
AcDbRotatedDimension
1001
ACAD
1000
DSTYLE
1002
{
1070
    41
1040
0.5
1070
    44
1040
1.0
1070
   147
1040
0.8
1070
   271
1070
     2
1070
   272
1070
     2
1070
   289
1070
     3
1070
   340
1005
F706
1070
   343
1005
164B4
1070
   344
1005
164B4
1002
}
  0
LINE
  5
18CD3
330
18C7A
100
AcDbEntity
  8
部品1
100
AcDbLine
 10
3437.970589276523
 20
1315.494269174465
 30
0.0
 11
3437.970589276523
 21
1392.494269174465
 31
0.0
  0
LINE
  5
18CD4
330
18C7A
100
AcDbEntity
  8
部品1
100
AcDbLine
 10
3398.970589276523
 20
1388.494269174465
 30
0.0
 11
3409.970589276524
 21
1388.494269174465
 31
0.0
  0
LINE
  5
18CD5
330
18C7A
100
AcDbEntity
  8
部品1
100
AcDbLine
 10
3407.970589276523
 20
1324.494269174465
 30
0.0
 11
3407.970589276523
 21
1315.494269174465
 31
0.0
  0
LINE
  5
18CD6
330
18C7A
100
AcDbEntity
  8
部品1
100
AcDbLine
 10
3398.970589276523
 20
1324.494269174465
 30
0.0
 11
3407.970589276523
 21
1324.494269174465
 31
0.0
  0
LINE
  5
18CD7
330
18C7A
100
AcDbEntity
  8
部品1
100
AcDbLine
 10
3398.970589276523
 20
1388.494269174465
 30
0.0
 11
3398.970589276523
 21
1324.494269174465
 31
0.0
  0
LINE
  5
18CD8
330
18C7A
100
AcDbEntity
  8
部品1
100
AcDbLine
 10
3409.970589276524
 20
1419.494269174465
 30
0.0
 11
3409.970589276524
 21
1388.494269174465
 31
0.0
  0
LINE
  5
18CD9
330
18C7A
100
AcDbEntity
  8
部品1
100
AcDbLine
 10
1322.970589276523
 20
1388.494269174465
 30
0.0
 11
1311.970589276523
 21
1388.494269174465
 31
0.0
  0
LINE
  5
18CDA
330
18C7A
100
AcDbEntity
  8
部品1
100
AcDbLine
 10
1283.970589276523
 20
1392.494269174465
 30
0.0
 11
1311.970589276523
 21
1392.494269174465
 31
0.0
  0
LINE
  5
18CDB
330
18C7A
100
AcDbEntity
  8
部品1
100
AcDbLine
 10
1313.970589276523
 20
1324.494269174465
 30
0.0
 11
1313.970589276523
 21
1315.494269174465
 31
0.0
  0
LINE
  5
18CDC
330
18C7A
100
AcDbEntity
  8
部品1
100
AcDbLine
 10
1322.970589276523
 20
1324.494269174465
 30
0.0
 11
1313.970589276523
 21
1324.494269174465
 31
0.0
  0
LINE
  5
18CDD
330
18C7A
100
AcDbEntity
  8
部品1
100
AcDbLine
 10
1313.970589276523
 20
1315.494269174465
 30
0.0
 11
1283.970589276523
 21
1315.494269174465
 31
0.0
  0
LINE
  5
18CDE
330
18C7A
100
AcDbEntity
  8
部品1
100
AcDbLine
 10
1283.970589276523
 20
1315.494269174465
 30
0.0
 11
1283.970589276523
 21
1392.494269174465
 31
0.0
  0
LINE
  5
18CDF
330
18C7A
100
AcDbEntity
  8
部品1
100
AcDbLine
 10
1322.970589276523
 20
1388.494269174465
 30
0.0
 11
1322.970589276523
 21
1324.494269174465
 31
0.0
  0
LINE
  5
18CE0
330
18C7A
100
AcDbEntity
  8
部品1
100
AcDbLine
 10
1311.970589276523
 20
1419.494269174462
 30
0.0
 11
1311.970589276523
 21
1388.494269174465
 31
0.0
  0
LINE
  5
18CE1
330
18C7A
100
AcDbEntity
  8
部品1
100
AcDbLine
 10
1311.970589276523
 20
1419.494269174462
 30
0.0
 11
3409.970589276524
 21
1419.494269174465
 31
0.0
  0
LINE
  5
18CE2
330
18C7A
100
AcDbEntity
  8
部品1
100
AcDbLine
 10
3407.970589276523
 20
1315.494269174465
 30
0.0
 11
3437.970589276523
 21
1315.494269174465
 31
0.0
  0
LINE
  5
18CE3
330
18C7A
100
AcDbEntity
  8
部品1
100
AcDbLine
 10
1313.970589276523
 20
1315.494269174465
 30
0.0
 11
3410.970589276523
 21
1315.494269174465
 31
0.0
  0
LINE
  5
18CE4
330
18C7A
100
AcDbEntity
  8
細線
  6
Continuous
 62
     5
100
AcDbLine
 10
2689.970589276527
 20
1354.494269174462
 30
0.0
 11
2689.970589276527
 21
1354.494269174462
 31
0.0
  0
LINE
  5
18CE5
330
18C7A
100
AcDbEntity
  8
細線
  6
Continuous
 62
     5
100
AcDbLine
 10
2682.470589276527
 20
1354.494269174462
 30
0.0
 11
2682.470589276527
 21
1354.494269174462
 31
0.0
  0
LINE
  5
18CE6
330
18C7A
100
AcDbEntity
  8
細線
  6
Continuous
 62
     5
100
AcDbLine
 10
2676.470589276527
 20
1354.494269174462
 30
0.0
 11
2676.470589276527
 21
1354.494269174462
 31
0.0
  0
LINE
  5
18CE7
330
18C7A
100
AcDbEntity
  8
細線
  6
Continuous
 62
     5
100
AcDbLine
 10
2743.970589276527
 20
1373.494269174462
 30
0.0
 11
2743.970589276527
 21
1373.494269174462
 31
0.0
  0
LINE
  5
18CE8
330
18C7A
100
AcDbEntity
  8
細線
 48
50.0
100
AcDbLine
 10
1336.970593930116
 20
1341.094443351418
 30
0.0
 11
1336.970593930113
 21
1349.490593759059
 31
0.0
  0
LINE
  5
18CE9
330
18C7A
100
AcDbEntity
  8
細線
 48
50.0
100
AcDbLine
 10
1336.970593930113
 20
1349.490593759059
 30
0.0
 11
1322.970589276523
 21
1349.490593759057
 31
0.0
  0
LINE
  5
18CEA
330
18C7A
100
AcDbEntity
  8
細線
 48
50.0
100
AcDbLine
 10
2087.970593930113
 20
1337.644443351419
 30
0.0
 11
2087.970593930113
 21
1342.494443351421
 31
0.0
  0
LINE
  5
18CEB
330
18C7A
100
AcDbEntity
  8
細線
 48
50.0
100
AcDbLine
 10
2087.970593930113
 20
1342.494443351421
 30
0.0
 11
2102.970593930113
 21
1342.494443351421
 31
0.0
  0
LINE
  5
18CEC
330
18C7A
100
AcDbEntity
  8
細線
 48
50.0
100
AcDbLine
 10
2102.970593930113
 20
1342.494443351421
 30
0.0
 11
2102.970593930115
 21
1349.494443351419
 31
0.0
  0
LINE
  5
18CED
330
18C7A
100
AcDbEntity
  8
細線
 48
50.0
100
AcDbLine
 10
2102.970593930115
 20
1349.494443351419
 30
0.0
 11
2117.970593930113
 21
1349.494443351419
 31
0.0
  0
LINE
  5
18CEE
330
18C7A
100
AcDbEntity
  8
細線
 48
50.0
100
AcDbLine
 10
2117.970593930113
 20
1349.494443351419
 30
0.0
 11
2117.970593930113
 21
1320.494443351421
 31
0.0
  0
LINE
  5
18CEF
330
18C7A
100
AcDbEntity
  8
細線
 48
50.0
100
AcDbLine
 10
1313.970589276523
 20
1320.491777694889
 30
0.0
 11
1527.970593930113
 21
1320.494460905133
 31
0.0
  0
LINE
  5
18CF0
330
18C7A
100
AcDbEntity
  8
細線
 48
50.0
100
AcDbLine
 10
2017.970593930113
 20
1320.494443351421
 30
0.0
 11
2117.970593930113
 21
1320.494443351421
 31
0.0
  0
LINE
  5
18CF1
330
18C7A
100
AcDbEntity
  8
細線
 48
50.0
100
AcDbLine
 10
1737.970593930113
 20
1320.494443351419
 30
0.0
 11
1807.970593930113
 21
1320.494443351423
 31
0.0
  0
LINE
  5
18CF2
330
18C7A
100
AcDbEntity
  8
細線
 48
50.0
100
AcDbLine
 10
1750.832558942642
 20
1320.494443351419
 30
0.0
 11
1756.588076525309
 21
1338.765294641913
 31
0.0
  0
LINE
  5
18CF3
330
18C7A
100
AcDbEntity
  8
細線
 48
50.0
100
AcDbLine
 10
1756.588076525309
 20
1338.765294641913
 30
0.0
 11
1767.516525005743
 21
1338.765294641911
 31
0.0
  0
ARC
  5
18CF4
330
18C7A
100
AcDbEntity
  8
細線
 48
50.0
100
AcDbCircle
 10
1767.516525005743
 20
1337.765294641911
 30
0.0
 40
1.0
100
AcDbArc
 50
24.62431835207225
 51
90.0
  0
ARC
  5
18CF5
330
18C7A
100
AcDbEntity
  8
細線
 48
50.0
100
AcDbCircle
 10
1778.425237120377
 20
1337.765294641911
 30
0.0
 40
1.0
100
AcDbArc
 50
90.0
 51
155.3756816479277
  0
ARC
  5
18CF6
330
18C7A
100
AcDbEntity
  8
細線
 48
50.0
100
AcDbCircle
 10
1772.970881063058
 20
1340.265294641911
 30
0.0
 40
5.0
100
AcDbArc
 50
204.6243183520723
 51
335.3756816479278
  0
LINE
  5
18CF7
330
18C7A
100
AcDbEntity
  8
細線
 48
50.0
100
AcDbLine
 10
1778.425237120377
 20
1338.765294641911
 30
0.0
 11
1789.35368560081
 21
1338.765294641913
 31
0.0
  0
LINE
  5
18CF8
330
18C7A
100
AcDbEntity
  8
細線
 48
50.0
100
AcDbLine
 10
1789.35368560081
 20
1338.765294641913
 30
0.0
 11
1795.109203183478
 21
1320.494443351423
 31
0.0
  0
LINE
  5
18CF9
330
18C7A
100
AcDbEntity
  8
細線
 48
50.0
100
AcDbLine
 10
2087.970593930113
 20
1341.094443351419
 30
0.0
 11
1336.970593930116
 21
1341.094443351418
 31
0.0
  0
LINE
  5
18CFA
330
18C7A
100
AcDbEntity
  8
細線
 48
50.0
100
AcDbLine
 10
1947.970593930113
 20
1320.494443351421
 30
0.0
 11
1877.970593930113
 21
1320.494443351421
 31
0.0
  0
LINE
  5
18CFB
330
18C7A
100
AcDbEntity
  8
細線
100
AcDbLine
 10
1667.970593930113
 20
1320.494443351421
 30
0.0
 11
1597.970602115529
 21
1320.494443351421
 31
0.0
  0
LINE
  5
18CFC
330
18C7A
100
AcDbEntity
  8
細線
 48
50.0
100
AcDbLine
 10
2741.970584622936
 20
1375.094487209288
 30
0.0
 11
2106.970593930113
 21
1375.094487209284
 31
0.0
  0
LINE
  5
18CFD
330
18C7A
100
AcDbEntity
  8
細線
 48
50.0
100
AcDbLine
 10
2106.970593930113
 20
1371.990637616925
 30
0.0
 11
2106.970593930113
 21
1376.490637616925
 31
0.0
  0
LINE
  5
18CFE
330
18C7A
100
AcDbEntity
  8
細線
 48
50.0
100
AcDbLine
 10
2106.970593930113
 20
1376.490637616925
 30
0.0
 11
2091.970593930113
 21
1376.490637616925
 31
0.0
  0
LINE
  5
18CFF
330
18C7A
100
AcDbEntity
  8
細線
 48
50.0
100
AcDbLine
 10
2091.970593930113
 20
1376.490637616925
 30
0.0
 11
2091.970593930113
 21
1383.490637616927
 31
0.0
  0
LINE
  5
18D00
330
18C7A
100
AcDbEntity
  8
細線
 48
50.0
100
AcDbLine
 10
2091.970593930113
 20
1383.490637616927
 30
0.0
 11
2076.970593930115
 21
1383.490637616924
 31
0.0
  0
LINE
  5
18D01
330
18C7A
100
AcDbEntity
  8
細線
 48
50.0
100
AcDbLine
 10
2076.970593930115
 20
1383.490637616924
 30
0.0
 11
2076.970593930115
 21
1345.890409513813
 31
0.0
  0
LINE
  5
18D02
330
18C7A
100
AcDbEntity
  8
細線
 48
50.0
100
AcDbLine
 10
2076.970593930115
 20
1345.890409513813
 30
0.0
 11
2096.970601231289
 21
1345.890451063353
 31
0.0
  0
LINE
  5
18D03
330
18C7A
100
AcDbEntity
  8
細線
 48
50.0
100
AcDbLine
 10
2096.970556362348
 20
1354.493912699161
 30
0.0
 11
2096.970601231289
 21
1345.890451063353
 31
0.0
  0
LINE
  5
18D04
330
18C7A
100
AcDbEntity
  8
細線
 48
50.0
100
AcDbLine
 10
2741.970584622936
 20
1371.644487209287
 30
0.0
 11
2741.970584622936
 21
1376.494487209284
 31
0.0
  0
LINE
  5
18D05
330
18C7A
100
AcDbEntity
  8
細線
 48
50.0
100
AcDbLine
 10
2741.970584622936
 20
1376.494487209284
 30
0.0
 11
2756.970584622934
 21
1376.494487209285
 31
0.0
  0
LINE
  5
18D06
330
18C7A
100
AcDbEntity
  8
細線
 48
50.0
100
AcDbLine
 10
2756.970584622934
 20
1376.494487209285
 30
0.0
 11
2756.970596256909
 21
1383.494487209331
 31
0.0
  0
LINE
  5
18D07
330
18C7A
100
AcDbEntity
  8
細線
 48
50.0
100
AcDbLine
 10
2756.970596256909
 20
1383.494487209331
 30
0.0
 11
2771.970594427439
 21
1383.494487209329
 31
0.0
  0
LINE
  5
18D08
330
18C7A
100
AcDbEntity
  8
細線
 48
50.0
100
AcDbLine
 10
2771.970594427439
 20
1383.494487209329
 30
0.0
 11
2771.970584125617
 21
1354.494281037055
 31
0.0
  0
LINE
  5
18D09
330
18C7A
100
AcDbEntity
  8
細線
 48
50.0
100
AcDbLine
 10
2458.070304175992
 20
1354.494278397076
 30
0.0
 11
2389.470863838818
 21
1354.494283787084
 31
0.0
  0
LINE
  5
18D0A
330
18C7A
100
AcDbEntity
  8
細線
 48
50.0
100
AcDbLine
 10
2096.970556362348
 20
1354.493912699161
 30
0.0
 11
2108.203245717057
 21
1354.494095652309
 31
0.0
  0
ARC
  5
18D0B
330
18C7A
100
AcDbEntity
  8
細線
 48
50.0
100
AcDbCircle
 10
2114.785538024393
 20
1353.294259565922
 30
0.0
 40
1.8
100
AcDbArc
 50
270.0006665777295
 51
345.000555481349
  0
LINE
  5
18D0C
330
18C7A
100
AcDbEntity
  8
細線
 48
50.0
100
AcDbLine
 10
2116.771971470473
 20
1353.753100023201
 30
0.0
 11
2116.524209028273
 21
1352.828402141094
 31
0.0
  0
LINE
  5
18D0D
330
18C7A
100
AcDbEntity
  8
細線
 48
50.0
100
AcDbLine
 10
2114.785558965548
 20
1351.494259566043
 30
0.0
 11
2111.155631546781
 21
1351.494217335563
 31
0.0
  0
ARC
  5
18D0E
330
18C7A
100
AcDbEntity
  8
細線
 48
50.0
100
AcDbCircle
 10
2111.155610605627
 20
1353.29421733544
 30
0.0
 40
1.8
100
AcDbArc
 50
195.0010443049965
 51
270.0006665777295
  0
LINE
  5
18D0F
330
18C7A
100
AcDbEntity
  8
細線
 48
50.0
100
AcDbLine
 10
2109.169183113368
 20
1353.752932303007
 30
0.0
 11
2109.416952609882
 21
1352.828311364425
 31
0.0
  0
ARC
  5
18D10
330
18C7A
100
AcDbEntity
  8
細線
 48
50.0
100
AcDbCircle
 10
2108.203262004622
 20
1353.494095652444
 30
0.0
 40
1.0
100
AcDbArc
 50
15.00104430499651
 51
90.00093320877969
  0
LINE
  5
18D11
330
18C7A
100
AcDbEntity
  8
細線
 48
50.0
100
AcDbLine
 10
2117.737892825577
 20
1354.494290342714
 30
0.0
 11
2118.679652976481
 21
1354.494296916564
 31
0.0
  0
ARC
  5
18D12
330
18C7A
100
AcDbEntity
  8
細線
 48
50.0
100
AcDbCircle
 10
2117.737899805961
 20
1353.49429034274
 30
0.0
 40
1.0
100
AcDbArc
 50
90.0003999466794
 51
165.000555481349
  0
LINE
  5
18D13
330
18C7A
100
AcDbEntity
  8
細線
 48
50.0
100
AcDbLine
 10
2669.470584622926
 20
1354.494281037055
 30
0.0
 11
2771.970584125617
 21
1354.494281037055
 31
0.0
  0
LINE
  5
18D14
330
18C7A
100
AcDbEntity
  8
細線
 48
50.0
100
AcDbLine
 10
2179.47061994182
 20
1354.494289224422
 30
0.0
 11
2118.370558714898
 21
1354.494296916564
 31
0.0
  0
LINE
  5
18D15
330
18C7A
100
AcDbEntity
  8
細線
 48
50.0
100
AcDbLine
 10
2599.470584622926
 20
1354.494281037057
 30
0.0
 11
2529.470584622926
 21
1354.494281037055
 31
0.0
  0
LINE
  5
18D16
330
18C7A
100
AcDbEntity
  8
細線
 48
50.0
100
AcDbLine
 10
2319.470584622926
 20
1354.494281037054
 30
0.0
 11
2249.470567335051
 21
1354.494281037057
 31
0.0
  0
ARC
  5
18D17
330
18C7A
100
AcDbEntity
  8
細線
 48
50.0
100
AcDbCircle
 10
2756.170589276533
 20
1387.694269174466
 30
0.0
 40
0.8
100
AcDbArc
 50
359.9997333689499
 51
89.99986668437072
  0
ARC
  5
18D18
330
18C7A
100
AcDbEntity
  8
細線
 48
50.0
100
AcDbCircle
 10
2763.770596101631
 20
1387.694280343081
 30
0.0
 40
0.8
100
AcDbArc
 50
90.00014387753465
 51
179.9997333689498
  0
LINE
  5
18D19
330
18C7A
100
AcDbEntity
  8
細線
 48
50.0
100
AcDbLine
 10
2756.170591137969
 20
1388.494269174465
 30
0.0
 11
2750.970589276525
 21
1388.494269174465
 31
0.0
  0
ARC
  5
18D1A
330
18C7A
100
AcDbEntity
  8
細線
 48
50.0
100
AcDbCircle
 10
2757.670589276524
 20
1386.194269174464
 30
0.0
 40
0.7
100
AcDbArc
 50
180.0
 51
270.0
  0
ARC
  5
18D1B
330
18C7A
100
AcDbEntity
  8
細線
 48
50.0
100
AcDbCircle
 10
2762.270589276524
 20
1386.194269174464
 30
0.0
 40
0.7
100
AcDbArc
 50
270.0
 51
0.0
  0
LINE
  5
18D1C
330
18C7A
100
AcDbEntity
  8
細線
 48
50.0
100
AcDbLine
 10
2762.970589276525
 20
1386.194269174464
 30
0.0
 11
2762.970596101639
 21
1387.694284065954
 31
0.0
  0
LINE
  5
18D1D
330
18C7A
100
AcDbEntity
  8
細線
 48
50.0
100
AcDbLine
 10
2757.670589276524
 20
1385.494269174465
 30
0.0
 11
2762.270589276524
 21
1385.494269174465
 31
0.0
  0
LINE
  5
18D1E
330
18C7A
100
AcDbEntity
  8
細線
 48
50.0
100
AcDbLine
 10
2756.970589276525
 20
1387.694269174466
 30
0.0
 11
2756.970589276525
 21
1386.194269174464
 31
0.0
  0
LINE
  5
18D1F
330
18C7A
100
AcDbEntity
  8
細線
 48
50.0
100
AcDbLine
 10
3382.570589276527
 20
1418.494269174465
 30
0.0
 11
2745.970589276525
 21
1418.494269174463
 31
0.0
  0
LINE
  5
18D20
330
18C7A
100
AcDbEntity
  8
細線
 48
50.0
100
AcDbLine
 10
3408.470589276525
 20
1413.494269174467
 30
0.0
 11
3392.570589276527
 21
1413.494269174465
 31
0.0
  0
LINE
  5
18D21
330
18C7A
100
AcDbEntity
  8
細線
 48
50.0
100
AcDbLine
 10
3392.570589276526
 20
1413.494269174465
 30
0.0
 11
3382.570589276527
 21
1418.494269174465
 31
0.0
  0
LINE
  5
18D22
330
18C7A
100
AcDbEntity
  8
細線
100
AcDbLine
 10
2993.470589276525
 20
1388.494269174465
 30
0.0
 11
2993.470589276525
 21
1417.794269174464
 31
0.0
  0
LINE
  5
18D23
330
18C7A
100
AcDbEntity
  8
細線
100
AcDbLine
 10
2993.470589276525
 20
1417.794269174464
 30
0.0
 11
3013.470589276525
 21
1417.794269174464
 31
0.0
  0
LINE
  5
18D24
330
18C7A
100
AcDbEntity
  8
細線
100
AcDbLine
 10
3013.470589276525
 20
1388.494269174465
 30
0.0
 11
3013.470589276525
 21
1417.794269174464
 31
0.0
  0
LINE
  5
18D25
330
18C7A
100
AcDbEntity
  8
細線
100
AcDbLine
 10
3170.720589276524
 20
1388.494269174465
 30
0.0
 11
3100.720589276523
 21
1388.494269174465
 31
0.0
  0
LINE
  5
18D26
330
18C7A
100
AcDbEntity
  8
細線
 48
50.0
100
AcDbLine
 10
2890.720589276525
 20
1388.494269174465
 30
0.0
 11
2763.766368849365
 21
1388.494269174465
 31
0.0
  0
LINE
  5
18D27
330
18C7A
100
AcDbEntity
  8
細線
100
AcDbLine
 10
3030.720589276525
 20
1388.494269174465
 30
0.0
 11
2960.720589276525
 21
1388.494269174465
 31
0.0
  0
LINE
  5
18D28
330
18C7A
100
AcDbEntity
  8
細線
 48
50.0
100
AcDbLine
 10
2750.970589276525
 20
1380.494269174465
 30
0.0
 11
2750.970589276525
 21
1388.494269174465
 31
0.0
  0
LINE
  5
18D29
330
18C7A
100
AcDbEntity
  8
細線
 48
50.0
100
AcDbLine
 10
2730.970589276524
 20
1380.494269174467
 30
0.0
 11
2750.970589276525
 21
1380.494269174465
 31
0.0
  0
LINE
  5
18D2A
330
18C7A
100
AcDbEntity
  8
細線
 48
50.0
100
AcDbLine
 10
2745.970589276525
 20
1418.494269174465
 30
0.0
 11
2745.970589276525
 21
1413.494269174465
 31
0.0
  0
LINE
  5
18D2B
330
18C7A
100
AcDbEntity
  8
細線
 48
50.0
100
AcDbLine
 10
2730.970589276525
 20
1418.494269174463
 30
0.0
 11
2745.970589276525
 21
1418.494269174465
 31
0.0
  0
LINE
  5
18D2C
330
18C7A
100
AcDbEntity
  8
細線
 48
50.0
100
AcDbLine
 10
2730.970589276524
 20
1380.494269174467
 30
0.0
 11
2730.970589276525
 21
1418.494269174463
 31
0.0
  0
LINE
  5
18D2D
330
18C7A
100
AcDbEntity
  8
細線
100
AcDbLine
 10
3398.970589276523
 20
1388.494269174465
 30
0.0
 11
3240.720589276525
 21
1388.494269174465
 31
0.0
  0
LINE
  5
18D2E
330
18C7A
100
AcDbEntity
  8
細線
 48
50.0
100
AcDbLine
 10
3408.470589276525
 20
1413.494269174467
 30
0.0
 11
3408.470589276524
 21
1388.494269174465
 31
0.0
  0
TEXT
  5
18D2F
330
18C7A
100
AcDbEntity
  8
部品1
100
AcDbText
 10
1860.154865991392
 20
46.99880823813145
 30
0.0
 40
135.0
  1
平面図
  7
STYLE2
100
AcDbText
  0
LWPOLYLINE
  5
18D30
330
18C7A
100
AcDbEntity
  8
部品1
100
AcDbPolyline
 90
        4
 70
     1
 43
0.0
 10
1770.23525616235
 20
239.8923374566548
 10
1770.23525616235
 20
0.0000159111223184
 10
2533.705922390791
 20
0.0000159111223184
 10
2533.705922390791
 20
239.8923374566548
  0
LINE
  5
18D31
330
18C7A
100
AcDbEntity
  8
部品1
100
AcDbLine
 10
1534.470589276487
 20
3154.494269174626
 30
0.0
 11
2769.470589276552
 21
3154.494269174626
 31
0.0
  0
LINE
  5
18D32
330
18C7A
100
AcDbEntity
  8
部品1
 48
50.0
100
AcDbLine
 10
1311.970589276523
 20
1420.494269174462
 30
0.0
 11
3411.970589276523
 21
1420.494269174465
 31
0.0
  0
LINE
  5
18D33
330
18C7A
100
AcDbEntity
  8
部品1
 48
50.0
100
AcDbLine
 10
471.9705892765232
 20
1392.494269174465
 30
0.0
 11
1311.970589276523
 21
1392.494269174465
 31
0.0
  0
DIMENSION
  5
18D34
330
18C7A
100
AcDbEntity
  8
寸法
100
AcDbDimension
  2
*D14
 10
2710.234916278077
 20
2488.887829538828
 30
0.0
 11
2338.318822490183
 21
2488.887829538828
 31
0.0
 12
-3742.925985830444
 22
-6453.628869860112
 32
0.0
 70
   128
 71
     5
 42
1231.00000000007
  3
INABA_S40G
100
AcDbAlignedDimension
 13
1536.470589276486
 23
2702.494269174557
 33
0.0
 14
2767.470589276556
 24
2702.494269174549
 34
0.0
100
AcDbRotatedDimension
1001
ACAD
1000
DSTYLE
1002
{
1002
}
  0
LINE
  5
18D35
330
18C7A
100
AcDbEntity
  8
部品1
100
AcDbLine
 10
1536.470589276487
 20
2702.494269174557
 30
0.0
 11
2767.470589276554
 21
2702.494269174615
 31
0.0
  0
LINE
  5
18D36
330
18C7A
100
AcDbEntity
  8
部品1
100
AcDbLine
 10
1536.470589276487
 20
3152.494269174557
 30
0.0
 11
2767.470589276556
 21
3152.494269174615
 31
0.0
  0
LINE
  5
18D37
330
18C7A
100
AcDbEntity
  8
細線
 48
50.0
100
AcDbLine
 10
1508.470589276487
 20
3152.494269174558
 30
0.0
 11
445.4705892765559
 21
2702.494269174509
 31
0.0
  0
LINE
  5
18D38
330
18C7A
100
AcDbEntity
  8
細線
 48
50.0
100
AcDbLine
 10
1508.470589276487
 20
2702.494269174558
 30
0.0
 11
445.4705892765542
 21
3152.494269174509
 31
0.0
  0
LINE
  5
18D39
330
18C7A
100
AcDbEntity
  8
部品1
100
AcDbLine
 10
1556.970589276487
 20
3172.494269174611
 30
0.0
 11
1556.970589276487
 21
3154.494269174611
 31
0.0
  0
LINE
  5
18D3A
330
18C7A
100
AcDbEntity
  8
部品1
100
AcDbLine
 10
1556.970589276487
 20
3172.494269174611
 30
0.0
 11
1550.970589276487
 21
3172.494269174611
 31
0.0
  0
LINE
  5
18D3B
330
18C7A
100
AcDbEntity
  8
部品1
100
AcDbLine
 10
1534.470589276487
 20
3146.494269174608
 30
0.0
 11
1509.470589276487
 21
3146.494269174611
 31
0.0
  0
LINE
  5
18D3C
330
18C7A
100
AcDbEntity
  8
部品1
100
AcDbLine
 10
1486.970589276487
 20
3172.494269174611
 30
0.0
 11
1486.970589276487
 21
3154.494269174611
 31
0.0
  0
LINE
  5
18D3D
330
18C7A
100
AcDbEntity
  8
部品1
100
AcDbLine
 10
1492.970589276487
 20
3172.494269174611
 30
0.0
 11
1486.970589276487
 21
3172.494269174611
 31
0.0
  0
LINE
  5
18D3E
330
18C7A
100
AcDbEntity
  8
部品1
100
AcDbLine
 10
1534.470589276487
 20
2702.494269174615
 30
0.0
 11
1509.470589276487
 21
2702.494269174615
 31
0.0
  0
LINE
  5
18D3F
330
18C7A
100
AcDbEntity
  8
部品1
 48
50.0
100
AcDbLine
 10
1536.470589276487
 20
3152.494269174611
 30
0.0
 11
1536.470589276487
 21
2702.494269174615
 31
0.0
  0
LINE
  5
18D40
330
18C7A
100
AcDbEntity
  8
部品1
 48
50.0
100
AcDbLine
 10
1508.470589276487
 20
3152.494269174607
 30
0.0
 11
1508.470589276487
 21
2702.494269174615
 31
0.0
  0
LINE
  5
18D41
330
18C7A
100
AcDbEntity
  8
部品1
 48
50.0
100
AcDbLine
 10
1534.470589276487
 20
3154.494269174618
 30
0.0
 11
1534.470589276487
 21
2702.494269174615
 31
0.0
  0
LINE
  5
18D42
330
18C7A
100
AcDbEntity
  8
部品1
 48
50.0
100
AcDbLine
 10
1509.470589276487
 20
3154.494269174615
 30
0.0
 11
1509.470589276487
 21
2702.494269174615
 31
0.0
  0
LINE
  5
18D43
330
18C7A
100
AcDbEntity
  8
部品1
100
AcDbLine
 10
3411.970589276556
 20
1392.494269174582
 30
0.0
 11
3411.970589276556
 21
1420.494269174596
 31
0.0
  0
LINE
  5
18D44
330
18C7A
100
AcDbEntity
  8
部品1
100
AcDbLine
 10
1311.970589276523
 20
1392.494269174596
 30
0.0
 11
1311.970589276523
 21
1420.494269174596
 31
0.0
  0
LINE
  5
18D45
330
18C7A
100
AcDbEntity
  8
部品1
100
AcDbLine
 10
891.9705892765232
 20
1392.494269174596
 30
0.0
 11
891.9705892765232
 21
1420.494269174596
 31
0.0
  0
LINE
  5
18D46
330
18C7A
100
AcDbEntity
  8
部品1
100
AcDbLine
 10
3411.97058927652
 20
3182.494269174477
 30
0.0
 11
3411.970589276523
 21
3154.494269174477
 31
0.0
  0
LINE
  5
18D47
330
18C7A
100
AcDbEntity
  8
部品1
100
AcDbLine
 10
2571.97058927652
 20
3182.494269174477
 30
0.0
 11
2571.970589276523
 21
3154.494269174477
 31
0.0
  0
LINE
  5
18D48
330
18C7A
100
AcDbEntity
  8
部品1
100
AcDbLine
 10
2991.97058927652
 20
3182.494269174477
 30
0.0
 11
2991.970589276523
 21
3154.494269174477
 31
0.0
  0
LINE
  5
18D49
330
18C7A
100
AcDbEntity
  8
部品1
100
AcDbLine
 10
2151.970589276519
 20
3182.494269174477
 30
0.0
 11
2151.970589276523
 21
3154.494269174477
 31
0.0
  0
LINE
  5
18D4A
330
18C7A
100
AcDbEntity
  8
部品1
100
AcDbLine
 10
1731.970589276519
 20
3182.494269174477
 30
0.0
 11
1731.970589276523
 21
3154.494269174477
 31
0.0
  0
LINE
  5
18D4B
330
18C7A
100
AcDbEntity
  8
部品1
100
AcDbLine
 10
1311.970589276519
 20
3182.494269174477
 30
0.0
 11
1311.970589276523
 21
3154.494269174477
 31
0.0
  0
LINE
  5
18D4C
330
18C7A
100
AcDbEntity
  8
部品1
100
AcDbLine
 10
891.9705892765195
 20
3182.494269174477
 30
0.0
 11
891.9705892765232
 21
3154.494269174477
 31
0.0
  0
LINE
  5
18D4D
330
18C7A
100
AcDbEntity
  8
部品1
100
AcDbLine
 10
471.9705892765232
 20
1392.494269174596
 30
0.0
 11
471.9705892765232
 21
1420.494269174596
 31
0.0
  0
LINE
  5
18D4E
330
18C7A
100
AcDbEntity
  8
部品1
100
AcDbLine
 10
444.9705892765305
 20
1420.494269174558
 30
0.0
 11
3858.970589276556
 21
1420.494269174596
 31
0.0
  0
LINE
  5
18D4F
330
18C7A
100
AcDbEntity
  8
部品1
100
AcDbLine
 10
3831.970589276556
 20
1392.494269174596
 30
0.0
 11
3831.970589276556
 21
1420.494269174596
 31
0.0
  0
LINE
  5
18D50
330
18C7A
100
AcDbEntity
  8
部品1
100
AcDbLine
 10
3858.970589276556
 20
1447.494269174593
 30
0.0
 11
3886.970589276556
 21
1447.494269174593
 31
0.0
  0
LINE
  5
18D51
330
18C7A
100
AcDbEntity
  8
部品1
100
AcDbLine
 10
3858.970589276556
 20
1867.494269174607
 30
0.0
 11
3886.970589276556
 21
1867.494269174607
 31
0.0
  0
LINE
  5
18D52
330
18C7A
100
AcDbEntity
  8
部品1
100
AcDbLine
 10
444.9705892765305
 20
1867.49426917448
 30
0.0
 11
416.9705892765305
 21
1867.49426917448
 31
0.0
  0
LINE
  5
18D53
330
18C7A
100
AcDbEntity
  8
部品1
100
AcDbLine
 10
3830.470589276541
 20
1867.49426917458
 30
0.0
 11
473.4705892765396
 21
1867.49426917448
 31
0.0
  0
LINE
  5
18D54
330
18C7A
100
AcDbEntity
  8
部品1
100
AcDbLine
 10
3830.470589276541
 20
2287.49426917458
 30
0.0
 11
473.4705892765396
 21
2287.49426917448
 31
0.0
  0
LINE
  5
18D55
330
18C7A
100
AcDbEntity
  8
部品1
100
AcDbLine
 10
444.9705892765305
 20
2287.49426917448
 30
0.0
 11
416.9705892765305
 21
2287.49426917448
 31
0.0
  0
LINE
  5
18D56
330
18C7A
100
AcDbEntity
  8
部品1
100
AcDbLine
 10
3858.970589276556
 20
2287.494269174608
 30
0.0
 11
3886.970589276556
 21
2287.494269174608
 31
0.0
  0
LINE
  5
18D57
330
18C7A
100
AcDbEntity
  8
部品1
 48
50.0
100
AcDbLine
 10
2151.970589276551
 20
2702.494269174586
 30
0.0
 11
2151.970589276581
 21
1448.994269174494
 31
0.0
  0
LINE
  5
18D58
330
18C7A
100
AcDbEntity
  8
破線
 48
10.0
100
AcDbLine
 10
2959.470589276535
 20
1472.494269174522
 30
0.0
 11
2176.970589276532
 21
1472.494269174505
 31
0.0
  0
LINE
  5
18D59
330
18C7A
100
AcDbEntity
  8
破線
 48
10.0
100
AcDbLine
 10
3009.47058927653
 20
1448.994269174509
 30
0.0
 11
3009.47058927653
 21
2702.494269174615
 31
0.0
  0
LINE
  5
18D5A
330
18C7A
100
AcDbEntity
  8
破線
 48
10.0
100
AcDbLine
 10
2959.470589276535
 20
1448.994269174505
 30
0.0
 11
2959.470589276531
 21
2702.494269174615
 31
0.0
  0
LINE
  5
18D5B
330
18C7A
100
AcDbEntity
  8
破線
 48
10.0
100
AcDbLine
 10
1344.47058927653
 20
1448.994269174509
 30
0.0
 11
1344.47058927653
 21
2702.494269174615
 31
0.0
  0
LINE
  5
18D5C
330
18C7A
100
AcDbEntity
  8
破線
 48
10.0
100
AcDbLine
 10
1294.470589276534
 20
1448.994269174505
 30
0.0
 11
1294.47058927653
 21
2702.494269174615
 31
0.0
  0
DIMENSION
  5
18D5D
330
18C7A
100
AcDbEntity
  8
寸法
100
AcDbDimension
  2
*D13
 10
1451.234916278005
 20
2488.887829538828
 30
0.0
 11
916.0604668248634
 21
2488.887829538828
 31
0.0
 12
-3742.925985830444
 22
-6453.628869860112
 32
0.0
 70
   128
 71
     5
 42
1062.99999999993
  3
INABA_S40G
100
AcDbAlignedDimension
 13
445.4705892765559
 23
2702.494269174505
 33
0.0
 14
1508.470589276486
 24
2702.494269174558
 34
0.0
100
AcDbRotatedDimension
1001
ACAD
1000
DSTYLE
1002
{
1002
}
  0
LINE
  5
18D5E
330
18C7A
100
AcDbEntity
  8
破線
 48
10.0
100
AcDbLine
 10
1294.470589276534
 20
1472.494269174469
 30
0.0
 11
496.9705892765414
 21
1472.494269174476
 31
0.0
  0
LINE
  5
18D5F
330
18C7A
100
AcDbEntity
  8
部品1
100
AcDbLine
 10
3831.970589276556
 20
3182.494269174604
 30
0.0
 11
3831.970589276556
 21
3154.494269174604
 31
0.0
  0
LINE
  5
18D60
330
18C7A
100
AcDbEntity
  8
部品1
100
AcDbLine
 10
3831.970589276556
 20
3182.494269174626
 30
0.0
 11
3831.970589276556
 21
3154.494269174626
 31
0.0
  0
LINE
  5
18D61
330
18C7A
100
AcDbEntity
  8
部品1
100
AcDbLine
 10
3858.970589276556
 20
3127.494269174607
 30
0.0
 11
3886.970589276556
 21
3127.494269174607
 31
0.0
  0
LINE
  5
18D62
330
18C7A
100
AcDbEntity
  8
部品1
100
AcDbLine
 10
3858.970589276556
 20
2707.494269174608
 30
0.0
 11
3886.970589276556
 21
2707.494269174608
 31
0.0
  0
LINE
  5
18D63
330
18C7A
100
AcDbEntity
  8
部品1
100
AcDbLine
 10
3858.470589276556
 20
3152.494269174604
 30
0.0
 11
3858.470589276556
 21
2702.494269174608
 31
0.0
  0
LINE
  5
18D64
330
18C7A
100
AcDbEntity
  8
部品1
100
AcDbLine
 10
3886.970589276533
 20
1447.494269174593
 30
0.0
 11
3886.970589276531
 21
1392.494269174596
 31
0.0
  0
LINE
  5
18D65
330
18C7A
100
AcDbEntity
  8
部品1
 48
50.0
100
AcDbLine
 10
3830.470589276556
 20
1448.994269174596
 30
0.0
 11
3858.970589276554
 21
1420.494269174596
 31
0.0
  0
LINE
  5
18D66
330
18C7A
100
AcDbEntity
  8
部品1
100
AcDbLine
 10
3886.970589276531
 20
1392.494269174596
 30
0.0
 11
3835.970589276531
 21
1392.494269174596
 31
0.0
  0
LINE
  5
18D67
330
18C7A
100
AcDbEntity
  8
部品1
100
AcDbLine
 10
3858.970589276533
 20
1447.494269174593
 30
0.0
 11
3886.970589276531
 21
1447.494269174593
 31
0.0
  0
LINE
  5
18D68
330
18C7A
100
AcDbEntity
  8
部品1
100
AcDbLine
 10
3886.970589276556
 20
3182.494269174604
 30
0.0
 11
3886.970589276531
 21
1392.494269174596
 31
0.0
  0
DIMENSION
  5
18D69
330
18C7A
100
AcDbEntity
  8
寸法
100
AcDbDimension
  2
*D12
 10
4534.396935010967
 20
1447.494269174593
 30
0.0
 11
4534.396935010965
 21
2287.4942691746
 31
0.0
 12
-3742.925985830444
 22
-6453.628869860112
 32
0.0
 70
   128
  1
4X420=<>
 71
     5
 42
1680.000000000014
  3
INABA_S40G
100
AcDbAlignedDimension
 13
3886.970589276556
 23
3127.494269174607
 33
0.0
 14
3886.970589276531
 24
1447.494269174593
 34
0.0
 50
90.0
100
AcDbRotatedDimension
1001
ACAD
1000
DSTYLE
1002
{
1002
}
  0
LINE
  5
18D6A
330
18C7A
100
AcDbEntity
  8
部品1
100
AcDbLine
 10
3858.970589276556
 20
3154.494269174604
 30
0.0
 11
3858.970589276534
 21
1420.494269174596
 31
0.0
  0
DIMENSION
  5
18D6B
330
18C7A
100
AcDbEntity
  8
寸法
100
AcDbDimension
  2
*D11
 10
4213.82831513858
 20
2607.276453505718
 30
0.0
 11
4113.828315138579
 21
2832.276453505718
 31
0.0
 12
-3742.925985830444
 22
-6453.628869860112
 32
0.0
 71
     5
 42
449.9999999999963
  3
INABA_S40G
100
AcDbAlignedDimension
 13
3858.470589276556
 23
3152.494269174604
 33
0.0
 14
3858.470589276556
 24
2702.494269174608
 34
0.0
 50
90.0
100
AcDbRotatedDimension
1001
ACAD
1000
DSTYLE
1002
{
1002
}
  0
LINE
  5
18D6C
330
18C7A
100
AcDbEntity
  8
部品1
100
AcDbLine
 10
3830.470589276547
 20
2702.494269174608
 30
0.0
 11
3830.470589276556
 21
1448.994269174596
 31
0.0
  0
LINE
  5
18D6D
330
18C7A
100
AcDbEntity
  8
破線
 48
10.0
100
AcDbLine
 10
3806.970589276549
 20
2702.494269174608
 30
0.0
 11
3806.970589276558
 21
1472.494269174593
 31
0.0
  0
LINE
  5
18D6E
330
18C7A
100
AcDbEntity
  8
部品1
100
AcDbLine
 10
2769.470589276556
 20
3146.494269174608
 30
0.0
 11
2794.470589276556
 21
3146.494269174611
 31
0.0
  0
LINE
  5
18D6F
330
18C7A
100
AcDbEntity
  8
部品1
100
AcDbLine
 10
2810.970589276556
 20
3172.494269174611
 30
0.0
 11
2816.970589276556
 21
3172.494269174611
 31
0.0
  0
LINE
  5
18D70
330
18C7A
100
AcDbEntity
  8
部品1
100
AcDbLine
 10
2816.970589276556
 20
3172.494269174611
 30
0.0
 11
2816.970589276556
 21
3154.494269174611
 31
0.0
  0
LINE
  5
18D71
330
18C7A
100
AcDbEntity
  8
部品1
100
AcDbLine
 10
2746.970589276556
 20
3172.494269174611
 30
0.0
 11
2752.970589276556
 21
3172.494269174611
 31
0.0
  0
LINE
  5
18D72
330
18C7A
100
AcDbEntity
  8
部品1
100
AcDbLine
 10
2746.970589276556
 20
3172.494269174611
 30
0.0
 11
2746.970589276556
 21
3154.494269174611
 31
0.0
  0
LINE
  5
18D73
330
18C7A
100
AcDbEntity
  8
部品1
100
AcDbLine
 10
2769.470589276556
 20
2702.494269174615
 30
0.0
 11
2794.470589276556
 21
2702.494269174615
 31
0.0
  0
LINE
  5
18D74
330
18C7A
100
AcDbEntity
  8
部品1
 48
50.0
100
AcDbLine
 10
2794.470589276556
 20
3154.494269174615
 30
0.0
 11
2794.470589276556
 21
2702.494269174615
 31
0.0
  0
LINE
  5
18D75
330
18C7A
100
AcDbEntity
  8
部品1
 48
50.0
100
AcDbLine
 10
2769.470589276554
 20
3154.494269174618
 30
0.0
 11
2769.470589276556
 21
2702.494269174615
 31
0.0
  0
LINE
  5
18D76
330
18C7A
100
AcDbEntity
  8
部品1
 48
50.0
100
AcDbLine
 10
2795.470589276556
 20
3152.494269174607
 30
0.0
 11
2795.470589276556
 21
2702.494269174615
 31
0.0
  0
LINE
  5
18D77
330
18C7A
100
AcDbEntity
  8
部品1
 48
50.0
100
AcDbLine
 10
2767.470589276556
 20
3152.494269174611
 30
0.0
 11
2767.470589276556
 21
2702.494269174615
 31
0.0
  0
LINE
  5
18D78
330
18C7A
100
AcDbEntity
  8
破線
 48
10.0
100
AcDbLine
 10
2176.97058927653
 20
1448.994269174509
 30
0.0
 11
2176.97058927653
 21
2702.494269174588
 31
0.0
  0
LINE
  5
18D79
330
18C7A
100
AcDbEntity
  8
破線
 48
10.0
100
AcDbLine
 10
2126.970589276534
 20
1448.994269174505
 30
0.0
 11
2126.970589276531
 21
2702.494269174586
 31
0.0
  0
LINE
  5
18D7A
330
18C7A
100
AcDbEntity
  8
部品1
100
AcDbLine
 10
2794.470589276556
 20
3154.494269174622
 30
0.0
 11
3858.970589276556
 21
3154.494269174604
 31
0.0
  0
LINE
  5
18D7B
330
18C7A
100
AcDbEntity
  8
細線
 48
50.0
100
AcDbLine
 10
3858.470589276556
 20
2702.494269174608
 30
0.0
 11
2795.470589276556
 21
3152.494269174607
 31
0.0
  0
LINE
  5
18D7C
330
18C7A
100
AcDbEntity
  8
部品1
100
AcDbLine
 10
2795.470589276555
 20
2702.494269174615
 30
0.0
 11
3858.470589276556
 21
2702.494269174608
 31
0.0
  0
LINE
  5
18D7D
330
18C7A
100
AcDbEntity
  8
部品1
100
AcDbLine
 10
2795.470589276556
 20
3152.494269174611
 30
0.0
 11
3858.470589276556
 21
3152.494269174604
 31
0.0
  0
LINE
  5
18D7E
330
18C7A
100
AcDbEntity
  8
細線
 48
50.0
100
AcDbLine
 10
3858.470589276556
 20
3152.494269174604
 30
0.0
 11
2795.470589276555
 21
2702.494269174615
 31
0.0
  0
DIMENSION
  5
18D7F
330
18C7A
100
AcDbEntity
  8
寸法
100
AcDbDimension
  2
*D10
 10
3801.234916278101
 20
2488.887829538937
 30
0.0
 11
3318.360544398907
 21
2488.887829538937
 31
0.0
 12
-3742.925985830444
 22
-6453.628869860112
 32
0.0
 70
   128
 71
     5
 42
1063.000000000012
  3
INABA_S40G
100
AcDbAlignedDimension
 13
2795.470589276555
 23
2702.494269174615
 33
0.0
 14
3858.470589276567
 24
2702.494269174608
 34
0.0
100
AcDbRotatedDimension
1001
ACAD
1000
DSTYLE
1002
{
1002
}
  0
LINE
  5
18D80
330
18C7A
100
AcDbEntity
  8
破線
 48
10.0
100
AcDbLine
 10
3806.970589276556
 20
1472.494269174594
 30
0.0
 11
3009.47058927653
 21
1472.494269174523
 31
0.0
  0
DIMENSION
  5
18D81
330
18C7A
100
AcDbEntity
  8
寸法
100
AcDbDimension
  2
*D9
 10
4534.396935010941
 20
1392.494269174596
 30
0.0
 11
4534.39693501094
 21
1084.008987800356
 31
0.0
 12
-3742.925985830444
 22
-6453.628869860112
 32
0.0
 70
   128
 71
     5
 42
54.99999999999636
  3
INABA_S40G
100
AcDbAlignedDimension
 13
3886.970589276531
 23
1447.494269174593
 33
0.0
 14
3886.970589276531
 24
1392.494269174596
 34
0.0
 50
90.0
100
AcDbRotatedDimension
1001
ACAD
1000
DSTYLE
1002
{
1002
}
  0
LINE
  5
18D82
330
18C7A
100
AcDbEntity
  8
部品1
100
AcDbLine
 10
471.9705892765196
 20
3182.494269174477
 30
0.0
 11
471.9705892765232
 21
3154.494269174477
 31
0.0
  0
LINE
  5
18D83
330
18C7A
100
AcDbEntity
  8
部品1
100
AcDbLine
 10
471.9705892765559
 20
3182.494269174509
 30
0.0
 11
471.9705892765559
 21
3154.494269174509
 31
0.0
  0
LINE
  5
18D84
330
18C7A
100
AcDbEntity
  8
部品1
100
AcDbLine
 10
444.9705892765232
 20
3127.49426917448
 30
0.0
 11
416.9705892765232
 21
3127.49426917448
 31
0.0
  0
LINE
  5
18D85
330
18C7A
100
AcDbEntity
  8
部品1
100
AcDbLine
 10
444.9705892765305
 20
2707.49426917448
 30
0.0
 11
416.9705892765305
 21
2707.49426917448
 31
0.0
  0
LINE
  5
18D86
330
18C7A
100
AcDbEntity
  8
部品1
 48
50.0
100
AcDbLine
 10
445.4705892765542
 20
3152.494269174506
 30
0.0
 11
445.4705892765559
 21
2702.494269174505
 31
0.0
  0
LINE
  5
18D87
330
18C7A
100
AcDbEntity
  8
部品1
 48
50.0
100
AcDbLine
 10
473.470589276545
 20
1448.994269174573
 30
0.0
 11
444.970589276545
 21
1420.494269174574
 31
0.0
  0
LINE
  5
18D88
330
18C7A
100
AcDbEntity
  8
部品1
100
AcDbLine
 10
471.9705892765232
 20
1392.494269174465
 30
0.0
 11
416.9705892765486
 21
1392.494269174465
 31
0.0
  0
LINE
  5
18D89
330
18C7A
100
AcDbEntity
  8
部品1
100
AcDbLine
 10
444.9705892765305
 20
1447.494269174429
 30
0.0
 11
416.9705892765469
 21
1447.494269174429
 31
0.0
  0
LINE
  5
18D8A
330
18C7A
100
AcDbEntity
  8
部品1
100
AcDbLine
 10
444.9705892765305
 20
1447.494269174465
 30
0.0
 11
416.9705892765469
 21
1447.494269174465
 31
0.0
  0
LINE
  5
18D8B
330
18C7A
100
AcDbEntity
  8
部品1
100
AcDbLine
 10
444.9705892765469
 20
1447.49426917448
 30
0.0
 11
416.9705892765469
 21
1447.49426917448
 31
0.0
  0
LINE
  5
18D8C
330
18C7A
100
AcDbEntity
  8
部品1
100
AcDbLine
 10
416.9705892765469
 20
1447.494269174429
 30
0.0
 11
416.9705892765486
 21
1392.494269174433
 31
0.0
  0
LINE
  5
18D8D
330
18C7A
100
AcDbEntity
  8
部品1
100
AcDbLine
 10
416.9705892765196
 20
3182.494269174477
 30
0.0
 11
416.9705892765486
 21
1392.494269174465
 31
0.0
  0
LINE
  5
18D8E
330
18C7A
100
AcDbEntity
  8
部品1
100
AcDbLine
 10
444.9705892765305
 20
1420.494269174556
 30
0.0
 11
444.9705892765559
 21
3154.494269174509
 31
0.0
  0
LINE
  5
18D8F
330
18C7A
100
AcDbEntity
  8
部品1
100
AcDbLine
 10
473.4705892765323
 20
2702.494269174608
 30
0.0
 11
473.470589276545
 21
1448.994269174571
 31
0.0
  0
LINE
  5
18D90
330
18C7A
100
AcDbEntity
  8
破線
 48
10.0
100
AcDbLine
 10
496.9705892765305
 20
2702.494269174608
 30
0.0
 11
496.9705892765451
 21
1472.494269174476
 31
0.0
  0
DIMENSION
  5
18D91
330
18C7A
100
AcDbEntity
  8
寸法
100
AcDbDimension
  2
*D8
 10
3886.970589276531
 20
410.7433333855515
 30
0.0
 11
2168.197775309287
 21
410.7433333855515
 31
0.0
 12
-3742.925985830444
 22
-6453.628869860112
 32
0.0
 70
   128
 71
     5
 42
3469.999999999982
  3
INABA_S40G
100
AcDbAlignedDimension
 13
416.9705892765486
 23
1392.494269174433
 33
0.0
 14
3886.970589276531
 24
1392.49426917456
 34
0.0
100
AcDbRotatedDimension
1001
ACAD
1000
DSTYLE
1002
{
1070
   341
1005
0
1002
}
  0
LINE
  5
18D92
330
18C7A
100
AcDbEntity
  8
部品1
100
AcDbLine
 10
444.9705892765559
 20
3154.494269174624
 30
0.0
 11
1509.470589276487
 21
3154.494269174626
 31
0.0
  0
LINE
  5
18D93
330
18C7A
100
AcDbEntity
  8
部品1
100
AcDbLine
 10
3886.970589276531
 20
1392.494269174596
 30
0.0
 11
3411.970589276556
 21
1392.494269174582
 31
0.0
  0
LINE
  5
18D94
330
18C7A
100
AcDbEntity
  8
部品1
100
AcDbLine
 10
416.9705892765559
 20
3182.494269174509
 30
0.0
 11
3886.970589276556
 21
3182.494269174604
 31
0.0
  0
LINE
  5
18D95
330
18C7A
100
AcDbEntity
  8
部品1
100
AcDbLine
 10
445.4705892765559
 20
2702.494269174509
 30
0.0
 11
1508.470589276487
 21
2702.494269174558
 31
0.0
  0
LINE
  5
18D96
330
18C7A
100
AcDbEntity
  8
細線
 48
50.0
100
AcDbLine
 10
2767.470589276556
 20
3152.494269174611
 30
0.0
 11
1536.470589276487
 21
2702.494269174558
 31
0.0
  0
LINE
  5
18D97
330
18C7A
100
AcDbEntity
  8
部品1
100
AcDbLine
 10
445.4705892765542
 20
3152.494269174509
 30
0.0
 11
1508.470589276485
 21
3152.494269174558
 31
0.0
  0
LINE
  5
18D98
330
18C7A
100
AcDbEntity
  8
細線
 48
50.0
100
AcDbLine
 10
2767.470589276554
 20
2702.494269174615
 30
0.0
 11
1536.470589276485
 21
3152.494269174558
 31
0.0
  0
LINE
  5
18D99
330
18C7A
100
AcDbEntity
  8
破線
 48
10.0
100
AcDbLine
 10
2126.970589276534
 20
1472.494269174502
 30
0.0
 11
1344.47058927653
 21
1472.494269174473
 31
0.0
  0
LINE
  5
18D9A
330
18C7A
100
AcDbEntity
  8
部品1
100
AcDbLine
 10
3830.470589276556
 20
1448.994269174596
 30
0.0
 11
473.4705892764487
 21
1448.994269174476
 31
0.0
  0
DIMENSION
  5
18D9B
330
18C7A
100
AcDbEntity
  8
寸法
100
AcDbDimension
  2
*D7
 10
471.970589276555
 20
3698.302488799491
 30
0.0
 11
108.4853079022819
 21
3698.302488799491
 31
0.0
 12
-3742.925985830444
 22
-6453.628869860112
 32
0.0
 70
   128
 71
     5
 42
55.00000000003456
  3
INABA_S40G
100
AcDbAlignedDimension
 13
416.9705892765205
 23
3182.494269174509
 33
0.0
 14
471.970589276555
 24
3182.494269174509
 34
0.0
100
AcDbRotatedDimension
1001
ACAD
1000
DSTYLE
1002
{
1002
}
  0
DIMENSION
  5
18D9C
330
18C7A
100
AcDbEntity
  8
寸法
100
AcDbDimension
  2
*D6
 10
4534.396935010967
 20
3127.494269174607
 30
0.0
 11
4534.396935010965
 21
3490.979550548844
 31
0.0
 12
-3742.925985830444
 22
-6453.628869860112
 32
0.0
 70
   128
 71
     5
 42
54.99999999999636
  3
INABA_S40G
100
AcDbAlignedDimension
 13
3886.970589276556
 23
3182.494269174604
 33
0.0
 14
3886.970589276556
 24
3127.494269174607
 34
0.0
 50
90.0
100
AcDbRotatedDimension
1001
ACAD
1000
DSTYLE
1002
{
1002
}
  0
DIMENSION
  5
18D9D
330
18C7A
100
AcDbEntity
  8
寸法
100
AcDbDimension
  2
*D5
 10
3886.970589276556
 20
3698.302488799589
 30
0.0
 11
4195.455870650794
 21
3698.302488799589
 31
0.0
 12
-3742.925985830444
 22
-6453.628869860112
 32
0.0
 70
   128
 71
     5
 42
55.0
  3
INABA_S40G
100
AcDbAlignedDimension
 13
3831.970589276556
 23
3182.494269174604
 33
0.0
 14
3886.970589276556
 24
3182.494269174604
 34
0.0
100
AcDbRotatedDimension
1001
ACAD
1000
DSTYLE
1002
{
1002
}
  0
DIMENSION
  5
18D9E
330
18C7A
100
AcDbEntity
  8
寸法
100
AcDbDimension
  2
*D4
 10
3831.970589276556
 20
3698.302488799607
 30
0.0
 11
2151.970589276555
 21
3698.302488799607
 31
0.0
 12
-3742.925985830444
 22
-6453.628869860112
 32
0.0
 70
   128
  1
8X420=<>
 71
     5
 42
3360.000000000001
  3
INABA_S40G
100
AcDbAlignedDimension
 13
471.970589276555
 23
3182.494269174509
 33
0.0
 14
3831.970589276556
 24
3182.494269174604
 34
0.0
100
AcDbRotatedDimension
1001
ACAD
1000
DSTYLE
1002
{
1002
}
  0
DIMENSION
  5
18D9F
330
18C7A
100
AcDbEntity
  8
寸法
100
AcDbDimension
  2
*D3
 10
4899.503876750603
 20
1392.494269174596
 30
0.0
 11
4899.503876750601
 21
2287.4942691746
 31
0.0
 12
-3742.925985830444
 22
-6453.628869860112
 32
0.0
 70
   128
 71
     5
 42
1790.000000000007
  3
INABA_S40G
100
AcDbAlignedDimension
 13
3886.970589276556
 23
3182.494269174604
 33
0.0
 14
3886.970589276531
 24
1392.494269174596
 34
0.0
 50
90.0
100
AcDbRotatedDimension
1001
ACAD
1000
DSTYLE
1002
{
1002
}
  0
ENDBLK
  5
18DA1
330
18C7A
100
AcDbEntity
  8
0
 48
50.0
100
AcDbBlockEnd
  0
BLOCK
  5
1C4CB
330
1C4CA
100
AcDbEntity
  8
0
 48
50.0
100
AcDbBlockBegin
  2
_NONE
 70
     0
 10
0.0
 20
0.0
 30
0.0
  3
_NONE
  1

  0
CIRCLE
  5
1C4CC
330
1C4CA
100
AcDbEntity
  8
0
  6
ByBlock
 62
     0
 48
50.0
100
AcDbCircle
 10
0.0
 20
0.0
 30
0.0
 40
0.25
  0
ENDBLK
  5
1C4CD
330
1C4CA
100
AcDbEntity
  8
0
 48
50.0
100
AcDbBlockEnd
  0
BLOCK
  5
21B12
330
21B08
100
AcDbEntity
  8
0
 48
50.0
100
AcDbBlockBegin
  2
*D19
 70
     1
 10
0.0
 20
0.0
 30
0.0
  3
*D19
  1

  0
LINE
  5
21DF4
330
21B08
100
AcDbEntity
  8
寸法
 62
     0
 48
50.0
370
    -2
100
AcDbLine
 10
7517.6
 20
7720.626127077593
 30
0.0
 11
7038.978338615606
 21
7720.626127077593
 31
0.0
  0
LINE
  5
21DF5
330
21B08
100
AcDbEntity
  8
寸法
 62
     0
 48
50.0
370
    -2
100
AcDbLine
 10
7517.6
 20
6890.626127077594
 30
0.0
 11
7038.978338615606
 21
6890.626127077594
 31
0.0
  0
LINE
  5
21DF6
330
21B08
100
AcDbEntity
  8
寸法
 62
     0
 48
50.0
370
    -2
100
AcDbLine
 10
7098.978338615608
 20
7720.626127077593
 30
0.0
 11
7098.978338615608
 21
6890.626127077594
 31
0.0
  0
INSERT
  5
21DF7
330
21B08
100
AcDbEntity
  8
寸法
 62
     0
 48
50.0
370
    -2
100
AcDbBlockReference
  2
_DOTSMALL
 10
7098.978338615608
 20
7720.626127077593
 30
0.0
 41
100.0
 42
100.0
 43
100.0
 50
90.0
  0
INSERT
  5
21DF8
330
21B08
100
AcDbEntity
  8
寸法
 62
     0
 48
50.0
370
    -2
100
AcDbBlockReference
  2
_DOTSMALL
 10
7098.978338615608
 20
6890.626127077594
 30
0.0
 41
100.0
 42
100.0
 43
100.0
 50
270.0
  0
MTEXT
  5
21DF9
330
21B08
100
AcDbEntity
  8
寸法
 62
     7
 48
50.0
100
AcDbMText
 10
6998.978338615605
 20
7305.626127077596
 30
0.0
 40
120.0
 41
0.0
 71
     5
 72
     1
  1
\A1;830
  7
STYLE1
 11
0.0000000000000001
 21
1.0
 31
0.0
 73
     1
 44
1.0
1001
ACAD
1000
MTEXTBEGIN
1070
    73
1070
     1
1070
    44
1040
1.0
1070
    74
1070
     0
1000
MTEXTEND
  0
POINT
  5
21DFA
330
21B08
100
AcDbEntity
  8
DEFPOINTS
 62
     0
 48
50.0
100
AcDbPoint
 10
7537.600000000001
 20
7720.626127077593
 30
0.0
  0
POINT
  5
21DFB
330
21B08
100
AcDbEntity
  8
DEFPOINTS
 62
     0
 48
50.0
100
AcDbPoint
 10
7537.600000000001
 20
6890.626127077594
 30
0.0
  0
POINT
  5
21DFC
330
21B08
100
AcDbEntity
  8
DEFPOINTS
 62
     0
 48
50.0
100
AcDbPoint
 10
7098.978338615608
 20
6890.626127077594
 30
0.0
  0
ENDBLK
  5
21B13
330
21B08
100
AcDbEntity
  8
0
 48
50.0
100
AcDbBlockEnd
  0
BLOCK
  5
21B1E
330
21B14
100
AcDbEntity
  8
0
 48
50.0
100
AcDbBlockBegin
  2
*D20
 70
     1
 10
0.0
 20
0.0
 30
0.0
  3
*D20
  1

  0
LINE
  5
21DEB
330
21B14
100
AcDbEntity
  8
寸法
 62
     0
 48
50.0
370
    -2
100
AcDbLine
 10
7517.6
 20
6890.626127077594
 30
0.0
 11
7038.978338615608
 21
6890.626127077594
 31
0.0
  0
LINE
  5
21DEC
330
21B14
100
AcDbEntity
  8
寸法
 62
     0
 48
50.0
370
    -2
100
AcDbLine
 10
7517.6
 20
5989.626127077598
 30
0.0
 11
7038.978338615606
 21
5989.626127077598
 31
0.0
  0
LINE
  5
21DED
330
21B14
100
AcDbEntity
  8
寸法
 62
     0
 48
50.0
370
    -2
100
AcDbLine
 10
7098.978338615608
 20
6890.626127077594
 30
0.0
 11
7098.978338615608
 21
5989.626127077598
 31
0.0
  0
INSERT
  5
21DEE
330
21B14
100
AcDbEntity
  8
寸法
 62
     0
 48
50.0
370
    -2
100
AcDbBlockReference
  2
_DOTSMALL
 10
7098.978338615608
 20
6890.626127077594
 30
0.0
 41
100.0
 42
100.0
 43
100.0
 50
90.0
  0
INSERT
  5
21DEF
330
21B14
100
AcDbEntity
  8
寸法
 62
     0
 48
50.0
370
    -2
100
AcDbBlockReference
  2
_DOTSMALL
 10
7098.978338615608
 20
5989.626127077598
 30
0.0
 41
100.0
 42
100.0
 43
100.0
 50
270.0
  0
MTEXT
  5
21DF0
330
21B14
100
AcDbEntity
  8
寸法
 62
     7
 48
50.0
100
AcDbMText
 10
6998.978338615606
 20
6440.126127077597
 30
0.0
 40
120.0
 41
0.0
 71
     5
 72
     1
  1
\A1;901
  7
STYLE1
 11
0.0000000000000001
 21
1.0
 31
0.0
 73
     1
 44
1.0
1001
ACAD
1000
MTEXTBEGIN
1070
    73
1070
     1
1070
    44
1040
1.0
1070
    74
1070
     0
1000
MTEXTEND
  0
POINT
  5
21DF1
330
21B14
100
AcDbEntity
  8
DEFPOINTS
 62
     0
 48
50.0
100
AcDbPoint
 10
7537.600000000001
 20
6890.626127077594
 30
0.0
  0
POINT
  5
21DF2
330
21B14
100
AcDbEntity
  8
DEFPOINTS
 62
     0
 48
50.0
100
AcDbPoint
 10
7537.600000000001
 20
5989.626127077598
 30
0.0
  0
POINT
  5
21DF3
330
21B14
100
AcDbEntity
  8
DEFPOINTS
 62
     0
 48
50.0
100
AcDbPoint
 10
7098.978338615608
 20
5989.626127077598
 30
0.0
  0
ENDBLK
  5
21B1F
330
21B14
100
AcDbEntity
  8
0
 48
50.0
100
AcDbBlockEnd
  0
BLOCK
  5
21B2A
330
21B20
100
AcDbEntity
  8
0
 48
50.0
100
AcDbBlockBegin
  2
*D21
 70
     1
 10
0.0
 20
0.0
 30
0.0
  3
*D21
  1

  0
LINE
  5
21DE2
330
21B20
100
AcDbEntity
  8
寸法
 62
     0
 48
50.0
370
    -2
100
AcDbLine
 10
7517.6
 20
8621.626127077597
 30
0.0
 11
7038.978338615606
 21
8621.626127077597
 31
0.0
  0
LINE
  5
21DE3
330
21B20
100
AcDbEntity
  8
寸法
 62
     0
 48
50.0
370
    -2
100
AcDbLine
 10
7517.6
 20
7720.626127077593
 30
0.0
 11
7038.978338615606
 21
7720.626127077593
 31
0.0
  0
LINE
  5
21DE4
330
21B20
100
AcDbEntity
  8
寸法
 62
     0
 48
50.0
370
    -2
100
AcDbLine
 10
7098.978338615608
 20
8621.626127077597
 30
0.0
 11
7098.978338615608
 21
7720.626127077593
 31
0.0
  0
INSERT
  5
21DE5
330
21B20
100
AcDbEntity
  8
寸法
 62
     0
 48
50.0
370
    -2
100
AcDbBlockReference
  2
_DOTSMALL
 10
7098.978338615608
 20
8621.626127077597
 30
0.0
 41
100.0
 42
100.0
 43
100.0
 50
90.0
  0
INSERT
  5
21DE6
330
21B20
100
AcDbEntity
  8
寸法
 62
     0
 48
50.0
370
    -2
100
AcDbBlockReference
  2
_DOTSMALL
 10
7098.978338615608
 20
7720.626127077593
 30
0.0
 41
100.0
 42
100.0
 43
100.0
 50
270.0
  0
MTEXT
  5
21DE7
330
21B20
100
AcDbEntity
  8
寸法
 62
     7
 48
50.0
100
AcDbMText
 10
6998.978338615606
 20
8171.126127077597
 30
0.0
 40
120.0
 41
0.0
 71
     5
 72
     1
  1
\A1;901
  7
STYLE1
 11
0.0000000000000001
 21
1.0
 31
0.0
 73
     1
 44
1.0
1001
ACAD
1000
MTEXTBEGIN
1070
    73
1070
     1
1070
    44
1040
1.0
1070
    74
1070
     0
1000
MTEXTEND
  0
POINT
  5
21DE8
330
21B20
100
AcDbEntity
  8
DEFPOINTS
 62
     0
 48
50.0
100
AcDbPoint
 10
7537.600000000001
 20
8621.626127077597
 30
0.0
  0
POINT
  5
21DE9
330
21B20
100
AcDbEntity
  8
DEFPOINTS
 62
     0
 48
50.0
100
AcDbPoint
 10
7537.600000000001
 20
7720.626127077593
 30
0.0
  0
POINT
  5
21DEA
330
21B20
100
AcDbEntity
  8
DEFPOINTS
 62
     0
 48
50.0
100
AcDbPoint
 10
7098.978338615608
 20
7720.626127077593
 30
0.0
  0
ENDBLK
  5
21B2B
330
21B20
100
AcDbEntity
  8
0
 48
50.0
100
AcDbBlockEnd
  0
BLOCK
  5
21B36
330
21B2C
100
AcDbEntity
  8
0
 48
50.0
100
AcDbBlockBegin
  2
*D22
 70
     1
 10
0.0
 20
0.0
 30
0.0
  3
*D22
  1

  0
LINE
  5
21C87
330
21B2C
100
AcDbEntity
  8
寸法
 62
     0
 48
50.0
370
    -2
100
AcDbLine
 10
5826.307702263203
 20
1513.948393148868
 30
0.0
 11
6114.378706623597
 21
1513.948393148868
 31
0.0
  0
LINE
  5
21C88
330
21B2C
100
AcDbEntity
  8
寸法
 62
     0
 48
50.0
370
    -2
100
AcDbLine
 10
5826.307702263204
 20
1313.948393148868
 30
0.0
 11
6114.378706623597
 21
1313.948393148868
 31
0.0
  0
LINE
  5
21C89
330
21B2C
100
AcDbEntity
  8
寸法
 62
     0
 48
50.0
370
    -2
100
AcDbLine
 10
6054.378706623596
 20
1513.948393148868
 30
0.0
 11
6054.378706623596
 21
1313.948393148868
 31
0.0
  0
INSERT
  5
21C8A
330
21B2C
100
AcDbEntity
  8
寸法
 62
     0
 48
50.0
370
    -2
100
AcDbBlockReference
  2
_DOTSMALL
 10
6054.378706623596
 20
1513.948393148868
 30
0.0
 41
100.0
 42
100.0
 43
100.0
 50
90.0
  0
INSERT
  5
21C8B
330
21B2C
100
AcDbEntity
  8
寸法
 62
     0
 48
50.0
370
    -2
100
AcDbBlockReference
  2
_DOTSMALL
 10
6054.378706623596
 20
1313.948393148868
 30
0.0
 41
100.0
 42
100.0
 43
100.0
 50
270.0
  0
MTEXT
  5
21C8C
330
21B2C
100
AcDbEntity
  8
寸法
 62
     7
 48
50.0
100
AcDbMText
 10
5954.378706623597
 20
1413.948393148869
 30
0.0
 40
120.0
 41
0.0
 71
     5
 72
     1
  1
\A1;a
  7
STYLE1
 11
0.0000000000000001
 21
1.0
 31
0.0
 73
     1
 44
1.0
1001
ACAD
1000
MTEXTBEGIN
1070
    73
1070
     1
1070
    44
1040
1.0
1070
    74
1070
     0
1000
MTEXTEND
  0
POINT
  5
21C8D
330
21B2C
100
AcDbEntity
  8
DEFPOINTS
 62
     0
 48
50.0
100
AcDbPoint
 10
5806.307702263202
 20
1513.948393148868
 30
0.0
  0
POINT
  5
21C8E
330
21B2C
100
AcDbEntity
  8
DEFPOINTS
 62
     0
 48
50.0
100
AcDbPoint
 10
5806.307702263204
 20
1313.948393148868
 30
0.0
  0
POINT
  5
21C8F
330
21B2C
100
AcDbEntity
  8
DEFPOINTS
 62
     0
 48
50.0
100
AcDbPoint
 10
6054.378706623596
 20
1313.948393148868
 30
0.0
  0
ENDBLK
  5
21B37
330
21B2C
100
AcDbEntity
  8
0
 48
50.0
100
AcDbBlockEnd
  0
BLOCK
  5
21B50
330
21B46
100
AcDbEntity
  8
0
 48
50.0
100
AcDbBlockBegin
  2
*D23
 70
     1
 10
0.0
 20
0.0
 30
0.0
  3
*D23
  1

  0
LINE
  5
21C7E
330
21B46
100
AcDbEntity
  8
寸法
 62
     0
 48
50.0
370
    -2
100
AcDbLine
 10
8939.80689989895
 20
1613.948393148868
 30
0.0
 11
9182.442453616067
 21
1613.948393148868
 31
0.0
  0
LINE
  5
21C7F
330
21B46
100
AcDbEntity
  8
寸法
 62
     0
 48
50.0
370
    -2
100
AcDbLine
 10
8969.69580798928
 20
1313.948393148868
 30
0.0
 11
9182.442453616067
 21
1313.948393148868
 31
0.0
  0
LINE
  5
21C80
330
21B46
100
AcDbEntity
  8
寸法
 62
     0
 48
50.0
370
    -2
100
AcDbLine
 10
9122.442453616065
 20
1613.948393148868
 30
0.0
 11
9122.442453616065
 21
1313.948393148868
 31
0.0
  0
INSERT
  5
21C81
330
21B46
100
AcDbEntity
  8
寸法
 62
     0
 48
50.0
370
    -2
100
AcDbBlockReference
  2
_DOTSMALL
 10
9122.442453616065
 20
1613.948393148868
 30
0.0
 41
100.0
 42
100.0
 43
100.0
 50
90.0
  0
INSERT
  5
21C82
330
21B46
100
AcDbEntity
  8
寸法
 62
     0
 48
50.0
370
    -2
100
AcDbBlockReference
  2
_DOTSMALL
 10
9122.442453616065
 20
1313.948393148868
 30
0.0
 41
100.0
 42
100.0
 43
100.0
 50
270.0
  0
MTEXT
  5
21C83
330
21B46
100
AcDbEntity
  8
寸法
 62
     7
 48
50.0
100
AcDbMText
 10
9022.442453616065
 20
1463.94839314887
 30
0.0
 40
120.0
 41
0.0
 71
     5
 72
     1
  1
\A1;c
  7
STYLE1
 11
0.0000000000000001
 21
1.0
 31
0.0
 73
     1
 44
1.0
1001
ACAD
1000
MTEXTBEGIN
1070
    73
1070
     1
1070
    44
1040
1.0
1070
    74
1070
     0
1000
MTEXTEND
  0
POINT
  5
21C84
330
21B46
100
AcDbEntity
  8
DEFPOINTS
 62
     0
 48
50.0
100
AcDbPoint
 10
8919.806899898949
 20
1613.948393148868
 30
0.0
  0
POINT
  5
21C85
330
21B46
100
AcDbEntity
  8
DEFPOINTS
 62
     0
 48
50.0
100
AcDbPoint
 10
8949.69580798928
 20
1313.948393148868
 30
0.0
  0
POINT
  5
21C86
330
21B46
100
AcDbEntity
  8
DEFPOINTS
 62
     0
 48
50.0
100
AcDbPoint
 10
9122.442453616065
 20
1313.948393148868
 30
0.0
  0
ENDBLK
  5
21B51
330
21B46
100
AcDbEntity
  8
0
 48
50.0
100
AcDbBlockEnd
  0
BLOCK
  5
21B5C
330
21B52
100
AcDbEntity
  8
0
 48
50.0
100
AcDbBlockBegin
  2
*D24
 70
     1
 10
0.0
 20
0.0
 30
0.0
  3
*D24
  1

  0
LINE
  5
21C75
330
21B52
100
AcDbEntity
  8
寸法
 62
     0
 48
50.0
370
    -2
100
AcDbLine
 10
7439.91396638181
 20
1513.94839314887
 30
0.0
 11
7702.127213844708
 21
1513.94839314887
 31
0.0
  0
LINE
  5
21C76
330
21B52
100
AcDbEntity
  8
寸法
 62
     0
 48
50.0
370
    -2
100
AcDbLine
 10
7459.3632032763
 20
1313.948393148868
 30
0.0
 11
7702.127213844708
 21
1313.948393148868
 31
0.0
  0
LINE
  5
21C77
330
21B52
100
AcDbEntity
  8
寸法
 62
     0
 48
50.0
370
    -2
100
AcDbLine
 10
7642.127213844709
 20
1513.94839314887
 30
0.0
 11
7642.127213844709
 21
1313.948393148868
 31
0.0
  0
INSERT
  5
21C78
330
21B52
100
AcDbEntity
  8
寸法
 62
     0
 48
50.0
370
    -2
100
AcDbBlockReference
  2
_DOTSMALL
 10
7642.127213844709
 20
1513.94839314887
 30
0.0
 41
100.0
 42
100.0
 43
100.0
 50
90.0
  0
INSERT
  5
21C79
330
21B52
100
AcDbEntity
  8
寸法
 62
     0
 48
50.0
370
    -2
100
AcDbBlockReference
  2
_DOTSMALL
 10
7642.127213844709
 20
1313.948393148868
 30
0.0
 41
100.0
 42
100.0
 43
100.0
 50
270.0
  0
MTEXT
  5
21C7A
330
21B52
100
AcDbEntity
  8
寸法
 62
     7
 48
50.0
100
AcDbMText
 10
7542.127213844709
 20
1413.94839314887
 30
0.0
 40
120.0
 41
0.0
 71
     5
 72
     1
  1
\A1;b
  7
STYLE1
 11
0.0000000000000001
 21
1.0
 31
0.0
 73
     1
 44
1.0
1001
ACAD
1000
MTEXTBEGIN
1070
    73
1070
     1
1070
    44
1040
1.0
1070
    74
1070
     0
1000
MTEXTEND
  0
POINT
  5
21C7B
330
21B52
100
AcDbEntity
  8
DEFPOINTS
 62
     0
 48
50.0
100
AcDbPoint
 10
7419.91396638181
 20
1513.94839314887
 30
0.0
  0
POINT
  5
21C7C
330
21B52
100
AcDbEntity
  8
DEFPOINTS
 62
     0
 48
50.0
100
AcDbPoint
 10
7439.363203276299
 20
1313.948393148868
 30
0.0
  0
POINT
  5
21C7D
330
21B52
100
AcDbEntity
  8
DEFPOINTS
 62
     0
 48
50.0
100
AcDbPoint
 10
7642.127213844709
 20
1313.948393148868
 30
0.0
  0
ENDBLK
  5
21B5D
330
21B52
100
AcDbEntity
  8
0
 48
50.0
100
AcDbBlockEnd
  0
BLOCK
  5
21B82
330
21B78
100
AcDbEntity
  8
0
 48
50.0
100
AcDbBlockBegin
  2
*D25
 70
     1
 10
0.0
 20
0.0
 30
0.0
  3
*D25
  1

  0
LINE
  5
21DBA
330
21B78
100
AcDbEntity
  8
寸法
 62
     0
 48
50.0
370
    -2
100
AcDbLine
 10
7517.600000000003
 20
8621.626127077597
 30
0.0
 11
6836.888116550752
 21
8621.626127077597
 31
0.0
  0
LINE
  5
21DBB
330
21B78
100
AcDbEntity
  8
寸法
 62
     0
 48
50.0
370
    -2
100
AcDbLine
 10
7517.6
 20
5989.626127077598
 30
0.0
 11
6836.88811655075
 21
5989.626127077598
 31
0.0
  0
LINE
  5
21DBC
330
21B78
100
AcDbEntity
  8
寸法
 62
     0
 48
50.0
370
    -2
100
AcDbLine
 10
6896.888116550751
 20
8621.626127077597
 30
0.0
 11
6896.88811655075
 21
5989.626127077598
 31
0.0
  0
INSERT
  5
21DBD
330
21B78
100
AcDbEntity
  8
寸法
 62
     0
 48
50.0
370
    -2
100
AcDbBlockReference
  2
_DOTSMALL
 10
6896.888116550751
 20
8621.626127077597
 30
0.0
 41
100.0
 42
100.0
 43
100.0
 50
90.0
  0
INSERT
  5
21DBE
330
21B78
100
AcDbEntity
  8
寸法
 62
     0
 48
50.0
370
    -2
100
AcDbBlockReference
  2
_DOTSMALL
 10
6896.88811655075
 20
5989.626127077598
 30
0.0
 41
100.0
 42
100.0
 43
100.0
 50
270.0
  0
MTEXT
  5
21DBF
330
21B78
100
AcDbEntity
  8
寸法
 62
     7
 48
50.0
100
AcDbMText
 10
6796.876305527128
 20
7305.626127077599
 30
0.0
 40
120.0
 41
0.0
 71
     5
 72
     1
  1
\A1;2632
  7
STYLE1
 11
0.0000000000000001
 21
1.0
 31
0.0
 73
     1
 44
1.0
1001
ACAD
1000
MTEXTBEGIN
1070
    73
1070
     1
1070
    44
1040
1.0
1070
    74
1070
     0
1000
MTEXTEND
  0
POINT
  5
21DC0
330
21B78
100
AcDbEntity
  8
DEFPOINTS
 62
     0
 48
50.0
100
AcDbPoint
 10
7537.600000000002
 20
8621.626127077597
 30
0.0
  0
POINT
  5
21DC1
330
21B78
100
AcDbEntity
  8
DEFPOINTS
 62
     0
 48
50.0
100
AcDbPoint
 10
7537.600000000001
 20
5989.626127077598
 30
0.0
  0
POINT
  5
21DC2
330
21B78
100
AcDbEntity
  8
DEFPOINTS
 62
     0
 48
50.0
100
AcDbPoint
 10
6896.88811655075
 20
5989.626127077598
 30
0.0
  0
ENDBLK
  5
21B83
330
21B78
100
AcDbEntity
  8
0
 48
50.0
100
AcDbBlockEnd
  0
BLOCK
  5
21B9C
330
21B92
100
AcDbEntity
  8
0
 48
50.0
100
AcDbBlockBegin
  2
*D26
 70
     1
 10
0.0
 20
0.0
 30
0.0
  3
*D26
  1

  0
LINE
  5
21C6C
330
21B92
100
AcDbEntity
  8
寸法
 62
     0
 48
50.0
370
    -2
100
AcDbLine
 10
5386.3077022632
 20
1313.948393148868
 30
0.0
 11
5254.362273998907
 21
1313.948393148868
 31
0.0
  0
LINE
  5
21C6D
330
21B92
100
AcDbEntity
  8
寸法
 62
     0
 48
50.0
370
    -2
100
AcDbLine
 10
5486.3077022632
 20
813.9483931488685
 30
0.0
 11
5254.362273998907
 21
813.9483931488685
 31
0.0
  0
LINE
  5
21C6E
330
21B92
100
AcDbEntity
  8
寸法
 62
     0
 48
50.0
370
    -2
100
AcDbLine
 10
5314.362273998908
 20
1313.948393148868
 30
0.0
 11
5314.362273998908
 21
813.9483931488685
 31
0.0
  0
INSERT
  5
21C6F
330
21B92
100
AcDbEntity
  8
寸法
 62
     0
 48
50.0
370
    -2
100
AcDbBlockReference
  2
_DOTSMALL
 10
5314.362273998908
 20
1313.948393148868
 30
0.0
 41
100.0
 42
100.0
 43
100.0
 50
90.0
  0
INSERT
  5
21C70
330
21B92
100
AcDbEntity
  8
寸法
 62
     0
 48
50.0
370
    -2
100
AcDbBlockReference
  2
_DOTSMALL
 10
5314.362273998908
 20
813.9483931488685
 30
0.0
 41
100.0
 42
100.0
 43
100.0
 50
270.0
  0
MTEXT
  5
21C71
330
21B92
100
AcDbEntity
  8
寸法
 62
     7
 48
50.0
100
AcDbMText
 10
5214.350462975286
 20
1056.037982993952
 30
0.0
 40
120.0
 41
0.0
 71
     5
 72
     1
  1
\A1;200
  7
STYLE1
 11
0.0000000000000001
 21
1.0
 31
0.0
 73
     1
 44
1.0
1001
ACAD
1000
MTEXTBEGIN
1070
    73
1070
     1
1070
    44
1040
1.0
1070
    74
1070
     0
1000
MTEXTEND
  0
POINT
  5
21C72
330
21B92
100
AcDbEntity
  8
DEFPOINTS
 62
     0
 48
50.0
100
AcDbPoint
 10
5406.307702263201
 20
1313.948393148868
 30
0.0
  0
POINT
  5
21C73
330
21B92
100
AcDbEntity
  8
DEFPOINTS
 62
     0
 48
50.0
100
AcDbPoint
 10
5506.3077022632
 20
813.9483931488685
 30
0.0
  0
POINT
  5
21C74
330
21B92
100
AcDbEntity
  8
DEFPOINTS
 62
     0
 48
50.0
100
AcDbPoint
 10
5314.362273998908
 20
813.9483931488685
 30
0.0
  0
ENDBLK
  5
21B9D
330
21B92
100
AcDbEntity
  8
0
 48
50.0
100
AcDbBlockEnd
  0
BLOCK
  5
21BA8
330
21B9E
100
AcDbEntity
  8
0
 48
50.0
100
AcDbBlockBegin
  2
*D27
 70
     1
 10
0.0
 20
0.0
 30
0.0
  3
*D27
  1

  0
LINE
  5
21DA6
330
21B9E
100
AcDbEntity
  8
寸法
 62
     0
 48
50.0
370
    -2
100
AcDbLine
 10
7537.600000000001
 20
8641.626127077598
 30
0.0
 11
7537.600000000001
 21
9074.038714749219
 31
0.0
  0
LINE
  5
21DA7
330
21B9E
100
AcDbEntity
  8
寸法
 62
     0
 48
50.0
370
    -2
100
AcDbLine
 10
8909.600000000001
 20
8641.626127077598
 30
0.0
 11
8909.600000000001
 21
9074.038714749219
 31
0.0
  0
LINE
  5
21DA8
330
21B9E
100
AcDbEntity
  8
寸法
 62
     0
 48
50.0
370
    -2
100
AcDbLine
 10
7537.600000000001
 20
9014.038714749219
 30
0.0
 11
8909.600000000001
 21
9014.038714749219
 31
0.0
  0
INSERT
  5
21DA9
330
21B9E
100
AcDbEntity
  8
寸法
 62
     0
 48
50.0
370
    -2
100
AcDbBlockReference
  2
_DOTSMALL
 10
7537.600000000001
 20
9014.038714749219
 30
0.0
 41
100.0
 42
100.0
 43
100.0
 50
180.0
  0
INSERT
  5
21DAA
330
21B9E
100
AcDbEntity
  8
寸法
 62
     0
 48
50.0
370
    -2
100
AcDbBlockReference
  2
_DOTSMALL
 10
8909.600000000001
 20
9014.038714749219
 30
0.0
 41
100.0
 42
100.0
 43
100.0
  0
MTEXT
  5
21DAB
330
21B9E
100
AcDbEntity
  8
寸法
 62
     7
 48
50.0
100
AcDbMText
 10
8223.600000000001
 20
9114.050525772841
 30
0.0
 40
120.0
 41
0.0
 71
     5
 72
     1
  1
\A1;1372
  7
STYLE1
 73
     1
 44
1.0
1001
ACAD
1000
MTEXTBEGIN
1070
    73
1070
     1
1070
    44
1040
1.0
1070
    74
1070
     0
1000
MTEXTEND
  0
POINT
  5
21DAC
330
21B9E
100
AcDbEntity
  8
DEFPOINTS
 62
     0
 48
50.0
100
AcDbPoint
 10
7537.600000000001
 20
8621.626127077597
 30
0.0
  0
POINT
  5
21DAD
330
21B9E
100
AcDbEntity
  8
DEFPOINTS
 62
     0
 48
50.0
100
AcDbPoint
 10
8909.600000000001
 20
8621.626127077597
 30
0.0
  0
POINT
  5
21DAE
330
21B9E
100
AcDbEntity
  8
DEFPOINTS
 62
     0
 48
50.0
100
AcDbPoint
 10
8909.600000000001
 20
9014.038714749219
 30
0.0
  0
ENDBLK
  5
21BA9
330
21B9E
100
AcDbEntity
  8
0
 48
50.0
100
AcDbBlockEnd
  0
BLOCK
  5
21BB5
330
21BAA
100
AcDbEntity
  8
0
 48
50.0
100
AcDbBlockBegin
  2
*D28
 70
     1
 10
0.0
 20
0.0
 30
0.0
  3
*D28
  1

  0
LINE
  5
21D9C
330
21BAA
100
AcDbEntity
  8
寸法
 62
     0
 48
50.0
370
    -2
100
AcDbLine
 10
9029.600000000002
 20
6089.626127077595
 30
0.0
 11
9369.230456706016
 21
6089.626127077595
 31
0.0
  0
LINE
  5
21D9D
330
21BAA
100
AcDbEntity
  8
寸法
 62
     0
 48
50.0
370
    -2
100
AcDbLine
 10
9029.600000000002
 20
5889.626127077595
 30
0.0
 11
9369.230456706016
 21
5889.626127077595
 31
0.0
  0
LINE
  5
21D9E
330
21BAA
100
AcDbEntity
  8
寸法
 62
     0
 48
50.0
370
    -2
100
AcDbLine
 10
9309.230456706016
 20
5889.626127077595
 30
0.0
 11
9309.230456706016
 21
6089.626127077595
 31
0.0
  0
LINE
  5
21D9F
330
21BAA
100
AcDbEntity
  8
寸法
 62
     0
 48
50.0
370
    -2
100
AcDbLine
 10
9309.230456706016
 20
6089.626127077595
 30
0.0
 11
9309.230456706016
 21
6488.76785936106
 31
0.0
  0
INSERT
  5
21DA0
330
21BAA
100
AcDbEntity
  8
寸法
 62
     0
 48
50.0
370
    -2
100
AcDbBlockReference
  2
_DOTSMALL
 10
9309.230456706016
 20
5889.626127077595
 30
0.0
 41
100.0
 42
100.0
 43
100.0
 50
270.0
  0
INSERT
  5
21DA1
330
21BAA
100
AcDbEntity
  8
寸法
 62
     0
 48
50.0
370
    -2
100
AcDbBlockReference
  2
_DOTSMALL
 10
9309.230456706016
 20
6089.626127077595
 30
0.0
 41
100.0
 42
100.0
 43
100.0
 50
90.0
  0
MTEXT
  5
21DA2
330
21BAA
100
AcDbEntity
  8
寸法
 62
     7
 48
50.0
100
AcDbMText
 10
9209.218645682392
 20
6339.196993219329
 30
0.0
 40
120.0
 41
0.0
 71
     5
 72
     1
  1
\A1;200
  7
STYLE1
 11
0.0000000000000001
 21
1.0
 31
0.0
 73
     1
 44
1.0
1001
ACAD
1000
MTEXTBEGIN
1070
    73
1070
     1
1070
    44
1040
1.0
1070
    74
1070
     0
1000
MTEXTEND
  0
POINT
  5
21DA3
330
21BAA
100
AcDbEntity
  8
DEFPOINTS
 62
     0
 48
50.0
100
AcDbPoint
 10
9009.600000000002
 20
6089.626127077595
 30
0.0
  0
POINT
  5
21DA4
330
21BAA
100
AcDbEntity
  8
DEFPOINTS
 62
     0
 48
50.0
100
AcDbPoint
 10
9009.600000000002
 20
5889.626127077595
 30
0.0
  0
POINT
  5
21DA5
330
21BAA
100
AcDbEntity
  8
DEFPOINTS
 62
     0
 48
50.0
100
AcDbPoint
 10
9309.230456706016
 20
5889.626127077595
 30
0.0
  0
ENDBLK
  5
21BB6
330
21BAA
100
AcDbEntity
  8
0
 48
50.0
100
AcDbBlockEnd
  0
BLOCK
  5
21BC2
330
21BB7
100
AcDbEntity
  8
0
 48
50.0
100
AcDbBlockBegin
  2
*D29
 70
     1
 10
0.0
 20
0.0
 30
0.0
  3
*D29
  1

  0
LINE
  5
21D92
330
21BB7
100
AcDbEntity
  8
寸法
 62
     0
 48
50.0
370
    -2
100
AcDbLine
 10
9009.600000000002
 20
5869.626127077594
 30
0.0
 11
9009.600000000002
 21
5564.777268598588
 31
0.0
  0
LINE
  5
21D93
330
21BB7
100
AcDbEntity
  8
寸法
 62
     0
 48
50.0
370
    -2
100
AcDbLine
 10
8809.600000000001
 20
5869.626127077594
 30
0.0
 11
8809.600000000001
 21
5564.777268598588
 31
0.0
  0
LINE
  5
21D94
330
21BB7
100
AcDbEntity
  8
寸法
 62
     0
 48
50.0
370
    -2
100
AcDbLine
 10
8809.600000000001
 20
5624.777268598587
 30
0.0
 11
9009.600000000002
 21
5624.777268598587
 31
0.0
  0
LINE
  5
21D95
330
21BB7
100
AcDbEntity
  8
寸法
 62
     0
 48
50.0
370
    -2
100
AcDbLine
 10
9009.600000000002
 20
5624.777268598587
 30
0.0
 11
9408.741732283466
 21
5624.777268598587
 31
0.0
  0
INSERT
  5
21D96
330
21BB7
100
AcDbEntity
  8
寸法
 62
     0
 48
50.0
370
    -2
100
AcDbBlockReference
  2
_DOTSMALL
 10
8809.600000000001
 20
5624.777268598587
 30
0.0
 41
100.0
 42
100.0
 43
100.0
 50
180.0
  0
INSERT
  5
21D97
330
21BB7
100
AcDbEntity
  8
寸法
 62
     0
 48
50.0
370
    -2
100
AcDbBlockReference
  2
_DOTSMALL
 10
9009.600000000002
 20
5624.777268598587
 30
0.0
 41
100.0
 42
100.0
 43
100.0
  0
MTEXT
  5
21D98
330
21BB7
100
AcDbEntity
  8
寸法
 62
     7
 48
50.0
100
AcDbMText
 10
9259.170866141735
 20
5724.789079622209
 30
0.0
 40
120.0
 41
0.0
 71
     5
 72
     1
  1
\A1;200
  7
STYLE1
 73
     1
 44
1.0
1001
ACAD
1000
MTEXTBEGIN
1070
    73
1070
     1
1070
    44
1040
1.0
1070
    74
1070
     0
1000
MTEXTEND
  0
POINT
  5
21D99
330
21BB7
100
AcDbEntity
  8
DEFPOINTS
 62
     0
 48
50.0
100
AcDbPoint
 10
9009.600000000002
 20
5889.626127077595
 30
0.0
  0
POINT
  5
21D9A
330
21BB7
100
AcDbEntity
  8
DEFPOINTS
 62
     0
 48
50.0
100
AcDbPoint
 10
8809.600000000001
 20
5889.626127077595
 30
0.0
  0
POINT
  5
21D9B
330
21BB7
100
AcDbEntity
  8
DEFPOINTS
 62
     0
 48
50.0
100
AcDbPoint
 10
8809.600000000001
 20
5624.777268598587
 30
0.0
  0
ENDBLK
  5
21BC3
330
21BB7
100
AcDbEntity
  8
0
 48
50.0
100
AcDbBlockEnd
  0
BLOCK
  5
21BD0
330
21BC4
100
AcDbEntity
  8
0
 48
50.0
100
AcDbBlockBegin
  2
*D30
 70
     1
 10
0.0
 20
0.0
 30
0.0
  3
*D30
  1

  0
LINE
  5
22067
330
21BC4
100
AcDbEntity
  8
寸法
 62
     0
 48
50.0
370
    -2
100
AcDbLine
 10
7546.600000000001
 20
5914.626127077599
 30
0.0
 11
7220.293974760521
 21
5914.626127077599
 31
0.0
  0
LINE
  5
22068
330
21BC4
100
AcDbEntity
  8
寸法
 62
     0
 48
50.0
370
    -2
100
AcDbLine
 10
7446.6
 20
5989.626127077596
 30
0.0
 11
7220.293974760521
 21
5989.626127077596
 31
0.0
  0
LINE
  5
22069
330
21BC4
100
AcDbEntity
  8
寸法
 62
     0
 48
50.0
370
    -2
100
AcDbLine
 10
7280.293974760521
 20
5989.626127077596
 30
0.0
 11
7280.293974760521
 21
6089.626127077597
 31
0.0
  0
LINE
  5
2206A
330
21BC4
100
AcDbEntity
  8
寸法
 62
     0
 48
50.0
370
    -2
100
AcDbLine
 10
7280.293974760521
 20
5914.626127077599
 30
0.0
 11
7280.293974760521
 21
5047.65556432912
 31
0.0
  0
LINE
  5
2206B
330
21BC4
100
AcDbEntity
  8
寸法
 62
     0
 48
50.0
370
    -2
100
AcDbLine
 10
7280.293974760521
 20
5989.626127077596
 30
0.0
 11
7280.293974760521
 21
5914.626127077599
 31
0.0
  0
INSERT
  5
2206C
330
21BC4
100
AcDbEntity
  8
寸法
 62
     0
 48
50.0
370
    -2
100
AcDbBlockReference
  2
_DOTSMALL
 10
7280.293974760521
 20
5989.626127077596
 30
0.0
 41
100.0
 42
100.0
 43
100.0
 50
270.0
  0
INSERT
  5
2206D
330
21BC4
100
AcDbEntity
  8
寸法
 62
     0
 48
50.0
370
    -2
100
AcDbBlockReference
  2
_DOTSMALL
 10
7280.293974760521
 20
5914.626127077599
 30
0.0
 41
100.0
 42
100.0
 43
100.0
 50
90.0
  0
MTEXT
  5
2206E
330
21BC4
100
AcDbEntity
  8
寸法
 62
     7
 48
50.0
100
AcDbMText
 10
7180.29397476052
 20
5381.140845703361
 30
0.0
 40
120.0
 41
0.0
 71
     5
 72
     1
  1
\A1;扉の出75
  7
STYLE1
 11
0.0000000000000001
 21
1.0
 31
0.0
 73
     1
 44
1.0
1001
ACAD
1000
MTEXTBEGIN
1070
    73
1070
     1
1070
    44
1040
1.0
1070
    74
1070
     0
1000
MTEXTEND
  0
POINT
  5
2206F
330
21BC4
100
AcDbEntity
  8
DEFPOINTS
 62
     0
 48
50.0
100
AcDbPoint
 10
7566.600000000001
 20
5914.626127077599
 30
0.0
  0
POINT
  5
22070
330
21BC4
100
AcDbEntity
  8
DEFPOINTS
 62
     0
 48
50.0
100
AcDbPoint
 10
7466.600000000001
 20
5989.626127077596
 30
0.0
  0
POINT
  5
22071
330
21BC4
100
AcDbEntity
  8
DEFPOINTS
 62
     0
 48
50.0
100
AcDbPoint
 10
7280.293974760521
 20
5989.626127077596
 30
0.0
  0
ENDBLK
  5
21BD1
330
21BC4
100
AcDbEntity
  8
0
 48
50.0
100
AcDbBlockEnd
  0
BLOCK
  5
21F6D
330
21F61
100
AcDbEntity
  8
0
 48
50.0
100
AcDbBlockBegin
  2
*D31
 70
     1
 10
0.0
 20
0.0
 30
0.0
  3
*D31
  1

  0
LINE
  5
2203B
330
21F61
100
AcDbEntity
  8
寸法
 62
     0
 48
50.0
370
    -2
100
AcDbLine
 10
7517.6
 20
8621.626127077595
 30
0.0
 11
6836.888116550749
 21
8621.626127077595
 31
0.0
  0
LINE
  5
2203C
330
21F61
100
AcDbEntity
  8
寸法
 62
     0
 48
50.0
370
    -2
100
AcDbLine
 10
7457.600000000003
 20
8671.626127077592
 30
0.0
 11
6836.888116550749
 21
8671.626127077592
 31
0.0
  0
LINE
  5
2203D
330
21F61
100
AcDbEntity
  8
寸法
 62
     0
 48
50.0
370
    -2
100
AcDbLine
 10
6896.88811655075
 20
8621.626127077595
 30
0.0
 11
6896.88811655075
 21
8521.626127077594
 31
0.0
  0
LINE
  5
2203E
330
21F61
100
AcDbEntity
  8
寸法
 62
     0
 48
50.0
370
    -2
100
AcDbLine
 10
6896.88811655075
 20
8671.626127077592
 30
0.0
 11
6896.88811655075
 21
8771.626127077592
 31
0.0
  0
LINE
  5
2203F
330
21F61
100
AcDbEntity
  8
寸法
 62
     0
 48
50.0
370
    -2
100
AcDbLine
 10
6896.88811655075
 20
8621.626127077595
 30
0.0
 11
6896.88811655075
 21
8671.626127077592
 31
0.0
  0
INSERT
  5
22040
330
21F61
100
AcDbEntity
  8
寸法
 62
     0
 48
50.0
370
    -2
100
AcDbBlockReference
  2
_DOTSMALL
 10
6896.88811655075
 20
8621.626127077595
 30
0.0
 41
100.0
 42
100.0
 43
100.0
 50
90.0
  0
INSERT
  5
22041
330
21F61
100
AcDbEntity
  8
寸法
 62
     0
 48
50.0
370
    -2
100
AcDbBlockReference
  2
_DOTSMALL
 10
6896.88811655075
 20
8671.626127077592
 30
0.0
 41
100.0
 42
100.0
 43
100.0
 50
270.0
  0
MTEXT
  5
22042
330
21F61
100
AcDbEntity
  8
寸法
 62
     7
 48
50.0
100
AcDbMText
 10
6796.888116550748
 20
8646.626127077594
 30
0.0
 40
120.0
 41
0.0
 71
     5
 72
     1
  1
\A1;a
  7
STYLE1
 11
0.0000000000000001
 21
1.0
 31
0.0
 73
     1
 44
1.0
1001
ACAD
1000
MTEXTBEGIN
1070
    73
1070
     1
1070
    44
1040
1.0
1070
    74
1070
     0
1000
MTEXTEND
  0
POINT
  5
22043
330
21F61
100
AcDbEntity
  8
DEFPOINTS
 62
     0
 48
50.0
100
AcDbPoint
 10
7537.600000000001
 20
8621.626127077595
 30
0.0
  0
POINT
  5
22044
330
21F61
100
AcDbEntity
  8
DEFPOINTS
 62
     0
 48
50.0
100
AcDbPoint
 10
7477.600000000004
 20
8671.626127077592
 30
0.0
  0
POINT
  5
22045
330
21F61
100
AcDbEntity
  8
DEFPOINTS
 62
     0
 48
50.0
100
AcDbPoint
 10
6896.88811655075
 20
8671.626127077592
 30
0.0
  0
ENDBLK
  5
21F6E
330
21F61
100
AcDbEntity
  8
0
 48
50.0
100
AcDbBlockEnd
  0
BLOCK
  5
21F7B
330
21F6F
100
AcDbEntity
  8
0
 48
50.0
100
AcDbBlockBegin
  2
*D32
 70
     1
 10
0.0
 20
0.0
 30
0.0
  3
*D32
  1

  0
LINE
  5
22072
330
21F6F
100
AcDbEntity
  8
寸法
 62
     0
 48
50.0
370
    -2
100
AcDbLine
 10
7260.293974760521
 20
5939.626127077599
 30
0.0
 11
6836.88811655075
 21
5939.626127077599
 31
0.0
  0
LINE
  5
22073
330
21F6F
100
AcDbEntity
  8
寸法
 62
     0
 48
50.0
370
    -2
100
AcDbLine
 10
7517.6
 20
5989.626127077594
 30
0.0
 11
6836.88811655075
 21
5989.626127077594
 31
0.0
  0
LINE
  5
22074
330
21F6F
100
AcDbEntity
  8
寸法
 62
     0
 48
50.0
370
    -2
100
AcDbLine
 10
6896.88811655075
 20
5939.626127077599
 30
0.0
 11
6896.88811655075
 21
5839.626127077599
 31
0.0
  0
LINE
  5
22075
330
21F6F
100
AcDbEntity
  8
寸法
 62
     0
 48
50.0
370
    -2
100
AcDbLine
 10
6896.88811655075
 20
5989.626127077594
 30
0.0
 11
6896.88811655075
 21
6089.626127077593
 31
0.0
  0
LINE
  5
22076
330
21F6F
100
AcDbEntity
  8
寸法
 62
     0
 48
50.0
370
    -2
100
AcDbLine
 10
6896.88811655075
 20
5939.626127077599
 30
0.0
 11
6896.88811655075
 21
5989.626127077594
 31
0.0
  0
INSERT
  5
22077
330
21F6F
100
AcDbEntity
  8
寸法
 62
     0
 48
50.0
370
    -2
100
AcDbBlockReference
  2
_DOTSMALL
 10
6896.88811655075
 20
5939.626127077599
 30
0.0
 41
100.0
 42
100.0
 43
100.0
 50
90.0
  0
INSERT
  5
22078
330
21F6F
100
AcDbEntity
  8
寸法
 62
     0
 48
50.0
370
    -2
100
AcDbBlockReference
  2
_DOTSMALL
 10
6896.88811655075
 20
5989.626127077594
 30
0.0
 41
100.0
 42
100.0
 43
100.0
 50
270.0
  0
MTEXT
  5
22079
330
21F6F
100
AcDbEntity
  8
寸法
 62
     7
 48
50.0
100
AcDbMText
 10
6796.88811655075
 20
5964.626127077599
 30
0.0
 40
120.0
 41
0.0
 71
     5
 72
     1
  1
\A1;a
  7
STYLE1
 11
0.0000000000000001
 21
1.0
 31
0.0
 73
     1
 44
1.0
1001
ACAD
1000
MTEXTBEGIN
1070
    73
1070
     1
1070
    44
1040
1.0
1070
    74
1070
     0
1000
MTEXTEND
  0
POINT
  5
2207A
330
21F6F
100
AcDbEntity
  8
DEFPOINTS
 62
     0
 48
50.0
100
AcDbPoint
 10
7280.293974760521
 20
5939.626127077599
 30
0.0
  0
POINT
  5
2207B
330
21F6F
100
AcDbEntity
  8
DEFPOINTS
 62
     0
 48
50.0
100
AcDbPoint
 10
7537.600000000001
 20
5989.626127077594
 30
0.0
  0
POINT
  5
2207C
330
21F6F
100
AcDbEntity
  8
DEFPOINTS
 62
     0
 48
50.0
100
AcDbPoint
 10
6896.88811655075
 20
5989.626127077594
 30
0.0
  0
ENDBLK
  5
21F7C
330
21F6F
100
AcDbEntity
  8
0
 48
50.0
100
AcDbBlockEnd
  0
BLOCK
  5
21F87
330
21F7D
100
AcDbEntity
  8
0
 48
50.0
100
AcDbBlockBegin
  2
*D33
 70
     1
 10
0.0
 20
0.0
 30
0.0
  3
*D33
  1

  0
LINE
  5
22027
330
21F7D
100
AcDbEntity
  8
寸法
 62
     0
 48
50.0
370
    -2
100
AcDbLine
 10
8909.600000000001
 20
8641.626127077602
 30
0.0
 11
8909.600000000001
 21
9074.038714749219
 31
0.0
  0
LINE
  5
22028
330
21F7D
100
AcDbEntity
  8
寸法
 62
     0
 48
50.0
370
    -2
100
AcDbLine
 10
8989.600000000002
 20
8691.626127077595
 30
0.0
 11
8989.600000000002
 21
9074.038714749219
 31
0.0
  0
LINE
  5
22029
330
21F7D
100
AcDbEntity
  8
寸法
 62
     0
 48
50.0
370
    -2
100
AcDbLine
 10
8909.600000000001
 20
9014.038714749219
 30
0.0
 11
8989.600000000002
 21
9014.038714749219
 31
0.0
  0
INSERT
  5
2202A
330
21F7D
100
AcDbEntity
  8
寸法
 62
     0
 48
50.0
370
    -2
100
AcDbBlockReference
  2
_DOTSMALL
 10
8909.600000000001
 20
9014.038714749219
 30
0.0
 41
100.0
 42
100.0
 43
100.0
 50
180.0
  0
INSERT
  5
2202B
330
21F7D
100
AcDbEntity
  8
寸法
 62
     0
 48
50.0
370
    -2
100
AcDbBlockReference
  2
_DOTSMALL
 10
8989.600000000002
 20
9014.038714749219
 30
0.0
 41
100.0
 42
100.0
 43
100.0
  0
MTEXT
  5
2202C
330
21F7D
100
AcDbEntity
  8
寸法
 62
     7
 48
50.0
100
AcDbMText
 10
8949.600000000001
 20
9114.038714749218
 30
0.0
 40
120.0
 41
0.0
 71
     5
 72
     1
  1
\A1;c
  7
STYLE1
 73
     1
 44
1.0
1001
ACAD
1000
MTEXTBEGIN
1070
    73
1070
     1
1070
    44
1040
1.0
1070
    74
1070
     0
1000
MTEXTEND
  0
POINT
  5
2202D
330
21F7D
100
AcDbEntity
  8
DEFPOINTS
 62
     0
 48
50.0
100
AcDbPoint
 10
8909.600000000001
 20
8621.626127077602
 30
0.0
  0
POINT
  5
2202E
330
21F7D
100
AcDbEntity
  8
DEFPOINTS
 62
     0
 48
50.0
100
AcDbPoint
 10
8989.600000000002
 20
8671.626127077596
 30
0.0
  0
POINT
  5
2202F
330
21F7D
100
AcDbEntity
  8
DEFPOINTS
 62
     0
 48
50.0
100
AcDbPoint
 10
8989.600000000002
 20
9014.038714749219
 30
0.0
  0
ENDBLK
  5
21F88
330
21F7D
100
AcDbEntity
  8
0
 48
50.0
100
AcDbBlockEnd
  0
BLOCK
  5
21F95
330
21F89
100
AcDbEntity
  8
0
 48
50.0
100
AcDbBlockBegin
  2
*D34
 70
     1
 10
0.0
 20
0.0
 30
0.0
  3
*D34
  1

  0
LINE
  5
22030
330
21F89
100
AcDbEntity
  8
寸法
 62
     0
 48
50.0
370
    -2
100
AcDbLine
 10
7477.600000000004
 20
8691.626127077592
 30
0.0
 11
7477.600000000004
 21
9074.038714749214
 31
0.0
  0
LINE
  5
22031
330
21F89
100
AcDbEntity
  8
寸法
 62
     0
 48
50.0
370
    -2
100
AcDbLine
 10
7537.600000000002
 20
8641.626127077598
 30
0.0
 11
7537.600000000002
 21
9074.038714749214
 31
0.0
  0
LINE
  5
22032
330
21F89
100
AcDbEntity
  8
寸法
 62
     0
 48
50.0
370
    -2
100
AcDbLine
 10
7477.600000000004
 20
9014.038714749215
 30
0.0
 11
7377.600000000004
 21
9014.038714749215
 31
0.0
  0
LINE
  5
22033
330
21F89
100
AcDbEntity
  8
寸法
 62
     0
 48
50.0
370
    -2
100
AcDbLine
 10
7537.600000000002
 20
9014.038714749215
 30
0.0
 11
7637.600000000002
 21
9014.038714749215
 31
0.0
  0
LINE
  5
22034
330
21F89
100
AcDbEntity
  8
寸法
 62
     0
 48
50.0
370
    -2
100
AcDbLine
 10
7477.600000000004
 20
9014.038714749215
 30
0.0
 11
7537.600000000002
 21
9014.038714749215
 31
0.0
  0
INSERT
  5
22035
330
21F89
100
AcDbEntity
  8
寸法
 62
     0
 48
50.0
370
    -2
100
AcDbBlockReference
  2
_DOTSMALL
 10
7477.600000000004
 20
9014.038714749215
 30
0.0
 41
100.0
 42
100.0
 43
100.0
  0
INSERT
  5
22036
330
21F89
100
AcDbEntity
  8
寸法
 62
     0
 48
50.0
370
    -2
100
AcDbBlockReference
  2
_DOTSMALL
 10
7537.600000000002
 20
9014.038714749215
 30
0.0
 41
100.0
 42
100.0
 43
100.0
 50
180.0
  0
MTEXT
  5
22037
330
21F89
100
AcDbEntity
  8
寸法
 62
     7
 48
50.0
100
AcDbMText
 10
7507.600000000002
 20
9114.038714749215
 30
0.0
 40
120.0
 41
0.0
 71
     5
 72
     1
  1
\A1;b
  7
STYLE1
 73
     1
 44
1.0
1001
ACAD
1000
MTEXTBEGIN
1070
    73
1070
     1
1070
    44
1040
1.0
1070
    74
1070
     0
1000
MTEXTEND
  0
POINT
  5
22038
330
21F89
100
AcDbEntity
  8
DEFPOINTS
 62
     0
 48
50.0
100
AcDbPoint
 10
7477.600000000004
 20
8671.626127077592
 30
0.0
  0
POINT
  5
22039
330
21F89
100
AcDbEntity
  8
DEFPOINTS
 62
     0
 48
50.0
100
AcDbPoint
 10
7537.600000000002
 20
8621.626127077597
 30
0.0
  0
POINT
  5
2203A
330
21F89
100
AcDbEntity
  8
DEFPOINTS
 62
     0
 48
50.0
100
AcDbPoint
 10
7537.600000000002
 20
9014.038714749215
 30
0.0
  0
ENDBLK
  5
21F96
330
21F89
100
AcDbEntity
  8
0
 48
50.0
100
AcDbBlockEnd
  0
ENDSEC
  0
SECTION
  2
ENTITIES
  0
MTEXT
  5
763F
330
747D
100
AcDbEntity
  8
0
100
AcDbMText
 10
302.846345836809
 20
280.1983726409901
 30
0.0
 40
3.5
 41
5.323721266742722
 71
     1
 72
     5
  1

  7
MSMINCHO
 73
     1
 44
1.0
1001
ACAD
1000
MTEXTBEGIN
1070
    73
1070
     1
1070
    44
1040
1.0
1070
    74
1070
     0
1000
MTEXTEND
  0
LINE
  5
10B57
330
747D
100
AcDbEntity
  8
補助
  6
PHANTOM
 62
   230
 48
50.0
100
AcDbLine
 10
139.9999999999995
 20
11409.6
 30
0.0
 11
16307.2
 21
11409.6
 31
0.0
  0
LINE
  5
10B59
330
747D
100
AcDbEntity
  8
仕様書枠
  6
Continuous
 48
50.0
100
AcDbLine
 10
13107.2
 20
1200.0
 30
0.0
 11
13107.2
 21
-0.0000000000000729
 31
0.0
  0
LINE
  5
10B5D
330
747D
100
AcDbEntity
  8
仕様書枠
 48
50.0
100
AcDbLine
 10
140.0
 20
0.0
 30
0.0
 11
16307.2
 21
-0.0000000000000909
 31
0.0
  0
LINE
  5
10B5E
330
747D
100
AcDbEntity
  8
補助
  6
PHANTOM
 62
   230
 48
50.0
100
AcDbLine
 10
16307.2
 20
11409.6
 30
0.0
 11
16307.2
 21
1200.0
 31
0.0
  0
LINE
  5
10B6C
330
747D
100
AcDbEntity
  8
仕様書枠
 48
50.0
100
AcDbLine
 10
13107.2
 20
1200.0
 30
0.0
 11
16307.2
 21
1200.0
 31
0.0
  0
TEXT
  5
10B73
330
747D
100
AcDbEntity
  8
文字
 62
     7
 48
50.0
100
AcDbText
 10
13162.9790565769
 20
895.0906074299405
 30
0.0
 40
200.0
  1
基 礎 図
  7
STYLE2
100
AcDbText
  0
LINE
  5
10B7B
330
747D
100
AcDbEntity
  8
仕様書枠
 48
50.0
100
AcDbLine
 10
13107.2
 20
800.0
 30
0.0
 11
14251.2
 21
800.0
 31
0.0
  0
LINE
  5
10B88
330
747D
100
AcDbEntity
  8
仕様書枠
  6
Continuous
 48
50.0
100
AcDbLine
 10
14251.2
 20
1200.0
 30
0.0
 11
14251.2
 21
800.0
 31
0.0
  0
LINE
  5
16462
330
747D
100
AcDbEntity
  8
仕様書枠
 48
50.0
100
AcDbLine
 10
16307.2
 20
1200.0
 30
0.0
 11
16307.2
 21
-0.0000000000000909
 31
0.0
  0
LINE
  5
1903B
330
747D
100
AcDbEntity
  8
補助
  6
PHANTOM
 62
   230
 48
50.0
100
AcDbLine
 10
140.0
 20
0.0
 30
0.0
 11
139.9999999999995
 21
11409.6
 31
0.0
  0
TEXT
  5
1C7E7
330
747D
100
AcDbEntity
  8
文字
 62
     7
 48
50.0
100
AcDbText
 10
13188.16259899338
 20
246.7109242801889
 30
0.0
 40
80.0
  1
※寒冷地等は地域の実情に合わせた基礎にして下さい。
  7
STYLE2
100
AcDbText
  0
TEXT
  5
1C7E8
330
747D
100
AcDbEntity
  8
文字
 62
     7
 48
50.0
100
AcDbText
 10
14478.98566430227
 20
499.5983841039506
 30
0.0
 40
160.0
  1
ＮＸＮ－３６ＣＳＢ
  7
STYLE2
100
AcDbText
  0
TEXT
  5
1C7E9
330
747D
100
AcDbEntity
  8
文字
 62
     7
 48
50.0
100
AcDbText
 10
14641.2525855784
 20
871.1744590657927
 30
0.0
 40
100.0
  1
～一般型・多雪地型～
  7
STYLE2
100
AcDbText
  0
TEXT
  5
1C7EC
330
747D
100
AcDbEntity
  8
文字
 62
     7
 48
50.0
100
AcDbText
 10
14524.131837222
 20
1031.557706291229
 30
0.0
 40
100.0
  1
NO.03      <縮尺> S=1/40
  7
STYLE2
100
AcDbText
  0
TEXT
  5
1C7ED
330
747D
100
AcDbEntity
  8
文字
 62
     7
 48
50.0
100
AcDbText
 10
13201.43669998441
 20
477.2740661031257
 30
0.0
 40
160.0
  1
機種名
  7
STYLE2
100
AcDbText
  0
LINE
  5
1C7EF
330
747D
100
AcDbEntity
  8
文字
 62
     7
 48
50.0
100
AcDbLine
 10
13187.2
 20
400.0
 30
0.0
 11
16227.2
 21
400.0
 31
0.0
  0
DIMENSION
  5
21940
330
747D
100
AcDbEntity
  8
寸法
 48
50.0
100
AcDbDimension
  2
*D19
 10
7098.978338615608
 20
6890.626127077594
 30
0.0
 11
6998.978338615605
 21
7305.626127077596
 31
0.0
 70
    32
 71
     5
 42
830.0
  3
INABA_S40G
100
AcDbAlignedDimension
 13
7537.600000000001
 23
7720.626127077593
 33
0.0
 14
7537.600000000001
 24
6890.626127077594
 34
0.0
 50
90.0
100
AcDbRotatedDimension
1001
ACAD
1000
DSTYLE
1002
{
1070
   341
1005
0
1002
}
  0
LINE
  5
21941
330
747D
100
AcDbEntity
  8
部品1
 48
50.0
100
AcDbLine
 10
8909.600000000001
 20
6790.626127077594
 30
0.0
 11
8909.600000000001
 21
6990.626127077594
 31
0.0
  0
LINE
  5
21942
330
747D
100
AcDbEntity
  8
部品1
 48
50.0
100
AcDbLine
 10
8709.6
 20
6790.626127077594
 30
0.0
 11
8709.6
 21
6990.626127077594
 31
0.0
  0
LINE
  5
21943
330
747D
100
AcDbEntity
  8
部品1
 48
50.0
100
AcDbLine
 10
8709.6
 20
6990.62612707759
 30
0.0
 11
8909.600000000001
 21
6990.62612707759
 31
0.0
  0
LINE
  5
21944
330
747D
100
AcDbEntity
  8
部品1
 48
50.0
100
AcDbLine
 10
8709.6
 20
6790.62612707759
 30
0.0
 11
8909.600000000001
 21
6790.62612707759
 31
0.0
  0
LINE
  5
21945
330
747D
100
AcDbEntity
  8
部品1
 48
50.0
100
AcDbLine
 10
8423.6
 20
6990.62612707759
 30
0.0
 11
8023.6
 21
6990.62612707759
 31
0.0
  0
LINE
  5
21946
330
747D
100
AcDbEntity
  8
部品1
 48
50.0
100
AcDbLine
 10
8423.6
 20
6790.62612707759
 30
0.0
 11
8023.6
 21
6790.62612707759
 31
0.0
  0
LINE
  5
21947
330
747D
100
AcDbEntity
  8
部品1
 48
50.0
100
AcDbLine
 10
8423.6
 20
6790.626127077594
 30
0.0
 11
8423.6
 21
6990.626127077594
 31
0.0
  0
LINE
  5
21948
330
747D
100
AcDbEntity
  8
部品1
 48
50.0
100
AcDbLine
 10
8023.6
 20
6790.626127077594
 30
0.0
 11
8023.6
 21
6990.626127077594
 31
0.0
  0
LINE
  5
21949
330
747D
100
AcDbEntity
  8
部品1
 48
50.0
100
AcDbLine
 10
7737.6
 20
6790.626127077594
 30
0.0
 11
7737.6
 21
6990.626127077594
 31
0.0
  0
LINE
  5
2194A
330
747D
100
AcDbEntity
  8
部品1
 48
50.0
100
AcDbLine
 10
7537.600000000001
 20
6790.626127077594
 30
0.0
 11
7537.600000000001
 21
6990.626127077594
 31
0.0
  0
LINE
  5
2194B
330
747D
100
AcDbEntity
  8
部品1
 48
50.0
100
AcDbLine
 10
7737.6
 20
6990.62612707759
 30
0.0
 11
7537.600000000001
 21
6990.62612707759
 31
0.0
  0
LINE
  5
2194C
330
747D
100
AcDbEntity
  8
部品1
 48
50.0
100
AcDbLine
 10
7737.6
 20
6790.62612707759
 30
0.0
 11
7537.600000000001
 21
6790.62612707759
 31
0.0
  0
TEXT
  5
2194D
330
747D
100
AcDbEntity
  8
文字
 48
50.0
100
AcDbText
 10
7799.786042642756
 20
7956.767522051142
 30
0.0
 40
120.0
  1
100x190x390
  7
STYLE1
100
AcDbText
  0
MTEXT
  5
2194E
102
{ACAD_REACTORS
330
2194F
102
}
330
747D
100
AcDbEntity
  8
部品1
 62
     7
 48
50.0
100
AcDbMText
 10
7938.727227507292
 20
8246.266121544767
 30
0.0
 40
120.0
 41
0.0
 71
     4
 72
     1
  1
\A1;C.B
  7
STYLE1
 73
     1
 44
1.0
1001
ACAD
1000
MTEXTBEGIN
1070
    73
1070
     1
1070
    44
1040
1.0
1070
    74
1070
     0
1000
MTEXTEND
  0
LEADER
  5
2194F
330
747D
100
AcDbEntity
  8
寸法
 48
50.0
100
AcDbLeader
  3
INABA_S50G
 71
     0
 73
     0
 74
     0
 75
     1
 40
120.0
 41
185.591883092037
 76
     3
 10
7720.350514283987
 20
8376.399264813846
 30
0.0
 10
7831.523169053311
 20
8161.266121544766
 30
0.0
 10
7956.523169053311
 20
8161.266121544766
 30
0.0
340
2194E
213
42.79594154601909
223
0.0
233
0.0
1001
ACAD
1000
DSTYLE
1002
{
1070
   341
1005
1C4CA
1070
    40
1040
1.0
1070
   343
1005
1C4CA
1070
   344
1005
1C4CA
1002
}
  0
TEXT
  5
21950
330
747D
100
AcDbEntity
  8
文字
 48
50.0
100
AcDbText
 10
9441.866426480899
 20
8616.989656465532
 30
0.0
 40
120.0
  1
深サ:200
  7
STYLE1
100
AcDbText
  0
DIMENSION
  5
21951
330
747D
100
AcDbEntity
  8
寸法
 48
50.0
100
AcDbDimension
  2
*D20
 10
7098.978338615608
 20
5989.626127077598
 30
0.0
 11
6998.978338615606
 21
6440.126127077597
 31
0.0
 70
    32
 71
     5
 42
900.9999999999964
  3
INABA_S40G
100
AcDbAlignedDimension
 13
7537.600000000001
 23
6890.626127077594
 33
0.0
 14
7537.600000000001
 24
5989.626127077598
 34
0.0
 50
90.0
100
AcDbRotatedDimension
1001
ACAD
1000
DSTYLE
1002
{
1070
   272
1070
     1
1070
   341
1005
0
1002
}
  0
DIMENSION
  5
21952
330
747D
100
AcDbEntity
  8
寸法
 48
50.0
100
AcDbDimension
  2
*D21
 10
7098.978338615608
 20
7720.626127077593
 30
0.0
 11
6998.978338615606
 21
8171.126127077597
 31
0.0
 70
    32
 71
     5
 42
901.0000000000037
  3
INABA_S40G
100
AcDbAlignedDimension
 13
7537.600000000001
 23
8621.626127077597
 33
0.0
 14
7537.600000000001
 24
7720.626127077593
 34
0.0
 50
90.0
100
AcDbRotatedDimension
1001
ACAD
1000
DSTYLE
1002
{
1070
   272
1070
     1
1070
   341
1005
0
1002
}
  0
LINE
  5
21953
330
747D
100
AcDbEntity
  8
部品1
 48
50.0
100
AcDbLine
 10
7737.6
 20
7620.626127077591
 30
0.0
 11
7537.600000000001
 21
7620.626127077591
 31
0.0
  0
LINE
  5
21954
330
747D
100
AcDbEntity
  8
部品1
 48
50.0
100
AcDbLine
 10
7737.6
 20
7820.626127077591
 30
0.0
 11
7537.600000000001
 21
7820.626127077591
 31
0.0
  0
LINE
  5
21955
330
747D
100
AcDbEntity
  8
部品1
 48
50.0
100
AcDbLine
 10
7537.600000000001
 20
7620.626127077594
 30
0.0
 11
7537.600000000001
 21
7820.626127077594
 31
0.0
  0
LINE
  5
21956
330
747D
100
AcDbEntity
  8
部品1
 48
50.0
100
AcDbLine
 10
7737.6
 20
7620.626127077594
 30
0.0
 11
7737.6
 21
7820.626127077594
 31
0.0
  0
LINE
  5
21957
330
747D
100
AcDbEntity
  8
部品1
 48
50.0
100
AcDbLine
 10
8023.6
 20
7620.626127077594
 30
0.0
 11
8023.6
 21
7820.626127077594
 31
0.0
  0
LINE
  5
21958
330
747D
100
AcDbEntity
  8
部品1
 48
50.0
100
AcDbLine
 10
8423.6
 20
7620.626127077594
 30
0.0
 11
8423.6
 21
7820.626127077594
 31
0.0
  0
LINE
  5
21959
330
747D
100
AcDbEntity
  8
部品1
 48
50.0
100
AcDbLine
 10
8423.6
 20
7620.626127077591
 30
0.0
 11
8023.6
 21
7620.626127077591
 31
0.0
  0
LINE
  5
2195A
330
747D
100
AcDbEntity
  8
部品1
 48
50.0
100
AcDbLine
 10
8423.6
 20
7820.626127077591
 30
0.0
 11
8023.6
 21
7820.626127077591
 31
0.0
  0
LINE
  5
2195B
330
747D
100
AcDbEntity
  8
部品1
 48
50.0
100
AcDbLine
 10
8709.6
 20
7620.626127077591
 30
0.0
 11
8909.600000000001
 21
7620.626127077591
 31
0.0
  0
LINE
  5
2195C
330
747D
100
AcDbEntity
  8
部品1
 48
50.0
100
AcDbLine
 10
8709.6
 20
7820.626127077591
 30
0.0
 11
8909.600000000001
 21
7820.626127077591
 31
0.0
  0
LINE
  5
2195D
330
747D
100
AcDbEntity
  8
部品1
 48
50.0
100
AcDbLine
 10
8709.6
 20
7620.626127077594
 30
0.0
 11
8709.6
 21
7820.626127077594
 31
0.0
  0
LINE
  5
2195E
330
747D
100
AcDbEntity
  8
部品1
 48
50.0
100
AcDbLine
 10
8909.600000000001
 20
7620.626127077594
 30
0.0
 11
8909.600000000001
 21
7820.626127077594
 31
0.0
  0
LINE
  5
2195F
330
747D
100
AcDbEntity
  8
点線
 48
10.0
100
AcDbLine
 10
7637.599999999995
 20
8721.626127077589
 30
0.0
 11
7637.600000000002
 21
8521.626127077594
 31
0.0
  0
LINE
  5
21960
330
747D
100
AcDbEntity
  8
点線
 48
10.0
100
AcDbLine
 10
7437.599999999999
 20
8521.626127077594
 30
0.0
 11
7637.600000000002
 21
8521.626127077594
 31
0.0
  0
LINE
  5
21961
330
747D
100
AcDbEntity
  8
点線
 48
10.0
100
AcDbLine
 10
7437.599999999999
 20
8721.626127077595
 30
0.0
 11
7637.599999999995
 21
8721.626127077589
 31
0.0
  0
LINE
  5
21962
330
747D
100
AcDbEntity
  8
点線
 48
10.0
100
AcDbLine
 10
7437.599999999999
 20
8721.626127077595
 30
0.0
 11
7437.599999999999
 21
8521.626127077594
 31
0.0
  0
LINE
  5
21963
330
747D
100
AcDbEntity
  8
点線
 48
10.0
100
AcDbLine
 10
7637.599999999995
 20
6089.626127077591
 30
0.0
 11
7637.600000000002
 21
5889.626127077595
 31
0.0
  0
LINE
  5
21964
330
747D
100
AcDbEntity
  8
点線
 48
10.0
100
AcDbLine
 10
7437.599999999999
 20
5889.626127077593
 30
0.0
 11
7637.600000000002
 21
5889.626127077595
 31
0.0
  0
LINE
  5
21965
330
747D
100
AcDbEntity
  8
点線
 48
10.0
100
AcDbLine
 10
7437.599999999999
 20
6089.626127077593
 30
0.0
 11
7637.599999999995
 21
6089.626127077591
 31
0.0
  0
LINE
  5
21966
330
747D
100
AcDbEntity
  8
点線
 48
10.0
100
AcDbLine
 10
7437.599999999999
 20
6089.626127077593
 30
0.0
 11
7437.599999999999
 21
5889.626127077593
 31
0.0
  0
LINE
  5
21967
330
747D
100
AcDbEntity
  8
点線
 48
10.0
100
AcDbLine
 10
9009.599999999997
 20
8721.626127077589
 30
0.0
 11
9009.600000000002
 21
8521.626127077594
 31
0.0
  0
LINE
  5
21968
330
747D
100
AcDbEntity
  8
点線
 48
10.0
100
AcDbLine
 10
8809.600000000001
 20
8521.626127077594
 30
0.0
 11
9009.600000000002
 21
8521.626127077594
 31
0.0
  0
LINE
  5
21969
330
747D
100
AcDbEntity
  8
点線
 48
10.0
100
AcDbLine
 10
8809.600000000001
 20
8721.626127077595
 30
0.0
 11
9009.599999999997
 21
8721.626127077589
 31
0.0
  0
LINE
  5
2196A
330
747D
100
AcDbEntity
  8
点線
 48
10.0
100
AcDbLine
 10
8809.600000000001
 20
8721.626127077595
 30
0.0
 11
8809.600000000001
 21
8521.626127077594
 31
0.0
  0
LINE
  5
2196B
330
747D
100
AcDbEntity
  8
点線
 48
10.0
100
AcDbLine
 10
8809.600000000001
 20
6089.626127077593
 30
0.0
 11
8809.600000000001
 21
5889.626127077593
 31
0.0
  0
LINE
  5
2196C
330
747D
100
AcDbEntity
  8
点線
 48
10.0
100
AcDbLine
 10
8809.600000000001
 20
5889.626127077593
 30
0.0
 11
9009.600000000002
 21
5889.626127077595
 31
0.0
  0
LINE
  5
2196D
330
747D
100
AcDbEntity
  8
点線
 48
10.0
100
AcDbLine
 10
9009.599999999997
 20
6089.626127077591
 30
0.0
 11
9009.600000000002
 21
5889.626127077595
 31
0.0
  0
LINE
  5
2196E
330
747D
100
AcDbEntity
  8
点線
 48
10.0
100
AcDbLine
 10
8809.600000000001
 20
6089.626127077593
 30
0.0
 11
9009.599999999997
 21
6089.626127077591
 31
0.0
  0
TEXT
  5
2196F
330
747D
100
AcDbEntity
  8
部品1
100
AcDbText
 10
5160.149278048942
 20
575.2789726641313
 30
0.0
 40
80.0
  1
a寸法：100～150mmに対応
  7
STYLE2
100
AcDbText
  0
TEXT
  5
21970
330
747D
100
AcDbEntity
  8
部品1
100
AcDbText
 10
8277.553647227778
 20
551.8096850811925
 30
0.0
 40
80.0
  1
  が4本必要になります。
  7
STYLE2
100
AcDbText
  0
TEXT
  5
21971
330
747D
100
AcDbEntity
  8
部品1
100
AcDbText
 10
8276.190010864143
 20
701.5066547781607
 30
0.0
 40
80.0
  1
\U+203BオールアンカーM10(市販品)
  7
STYLE2
100
AcDbText
  0
TEXT
  5
21972
330
747D
100
AcDbEntity
  8
部品1
100
AcDbText
 10
8272.099101773232
 20
847.1127153842207
 30
0.0
 40
80.0
  1
c寸法：135～175,190mmに対応
  7
STYLE2
100
AcDbText
  0
TEXT
  5
21973
330
747D
100
AcDbEntity
  8
部品1
100
AcDbText
 10
6718.676348157687
 20
551.8096850811925
 30
0.0
 40
80.0
  1
  が4本必要になります。
  7
STYLE2
100
AcDbText
  0
TEXT
  5
21974
330
747D
100
AcDbEntity
  8
部品1
100
AcDbText
 10
6717.31271179405
 20
701.5066547781607
 30
0.0
 40
80.0
  1
\U+203BオールアンカーM10(市販品)
  7
STYLE2
100
AcDbText
  0
TEXT
  5
21975
330
747D
100
AcDbEntity
  8
部品1
100
AcDbText
 10
6712.767257248597
 20
847.1127153842207
 30
0.0
 40
80.0
  1
b寸法：100～120mmに対応
  7
STYLE2
100
AcDbText
  0
DIMENSION
  5
21976
330
747D
100
AcDbEntity
  8
寸法
 48
50.0
100
AcDbDimension
  2
*D22
 10
6054.378706623596
 20
1313.948393148868
 30
0.0
 11
5954.378706623597
 21
1413.948393148869
 31
0.0
 70
    32
  1
a
 71
     5
 42
200.0
  3
INABA_S40G
100
AcDbAlignedDimension
 13
5806.307702263202
 23
1513.948393148868
 33
0.0
 14
5806.307702263204
 24
1313.948393148868
 34
0.0
 50
90.0
100
AcDbRotatedDimension
1001
ACAD
1000
DSTYLE
1002
{
1070
   174
1070
     0
1070
   272
1070
     1
1070
   288
1070
     0
1070
   341
1005
0
1002
}
  0
LEADER
  5
21979
330
747D
100
AcDbEntity
  8
寸法
 48
50.0
100
AcDbLeader
  3
INABA_S50G
 71
     0
 73
     0
 74
     0
 75
     1
 40
120.0
 41
1282.349242404918
 76
     3
 10
9004.440685572832
 20
8611.082766365514
 30
0.0
 10
9260.827897155238
 20
8807.426703981654
 30
0.0
 10
9385.827897155238
 20
8807.426703981654
 30
0.0
340
2197A
1001
ACAD
1000
DSTYLE
1002
{
1070
   341
1005
1C4CA
1070
    40
1040
1.0
1070
   343
1005
1C4CA
1070
   344
1005
1C4CA
1002
}
  0
MTEXT
  5
2197A
102
{ACAD_REACTORS
330
21979
102
}
330
747D
100
AcDbEntity
  8
部品1
 62
     7
 48
50.0
100
AcDbMText
 10
9410.827897155238
 20
8892.426703981655
 30
0.0
 40
120.0
 41
0.0
 71
     4
 72
     1
  1
現場打コンクリート
  7
STYLE1
 73
     1
 44
1.0
1001
ACAD
1000
MTEXTBEGIN
1070
    73
1070
     1
1070
    44
1040
1.0
1070
    74
1070
     0
1000
MTEXTEND
  0
TEXT
  5
2197B
330
747D
100
AcDbEntity
  8
部品1
 48
50.0
100
AcDbText
 10
9418.951829250344
 20
9018.904292453731
 30
0.0
 40
120.0
  1
組立後
  7
STYLE1
100
AcDbText
  0
LINE
  5
2197C
330
747D
100
AcDbEntity
  8
部品1
 48
50.0
100
AcDbLine
 10
9823.6
 20
2773.187605537116
 30
0.0
 11
9823.6
 21
373.187605537114
 31
0.0
  0
TEXT
  5
2197D
330
747D
100
AcDbEntity
  8
部品1
100
AcDbText
 10
7384.944780845277
 20
2349.053655041755
 30
0.0
 40
120.0
  1
地盤がコンクリートの場合
  7
STYLE2
100
AcDbText
  0
LINE
  5
2197E
330
747D
100
AcDbEntity
  8
部品1
100
AcDbLine
 10
8871.695807989281
 20
1643.091986688316
 30
0.0
 11
8871.695807989281
 21
1627.548393148867
 31
0.0
  0
LINE
  5
2197F
330
747D
100
AcDbEntity
  8
部品1
100
AcDbLine
 10
8887.695807989281
 20
1643.091986688316
 30
0.0
 11
8887.695807989281
 21
1627.548393148867
 31
0.0
  0
LINE
  5
21980
330
747D
100
AcDbEntity
  8
部品1
100
AcDbLine
 10
8919.695807989281
 20
1717.54839314887
 30
0.0
 11
8919.695807989281
 21
1614.193862136881
 31
0.0
  0
LINE
  5
21981
330
747D
100
AcDbEntity
  8
部品1
100
AcDbLine
 10
8839.695807989281
 20
1717.548393148867
 30
0.0
 11
8839.695807989281
 21
1614.193862136875
 31
0.0
  0
ARC
  5
21982
330
747D
100
AcDbEntity
  8
部品1
100
AcDbCircle
 10
8879.695807989282
 20
1627.548393148867
 30
0.0
 40
8.0
100
AcDbArc
 50
288.1948723386625
 51
0.0
  0
ARC
  5
21983
330
747D
100
AcDbEntity
  8
部品1
100
AcDbCircle
 10
8879.695807989282
 20
1627.548393148867
 30
0.0
 40
8.0
100
AcDbArc
 50
180.0
 51
251.8051276613376
  0
ARC
  5
21984
330
747D
100
AcDbEntity
  8
部品1
100
AcDbCircle
 10
8910.641748509037
 20
1609.948393148865
 30
0.0
 40
10.0
100
AcDbArc
 50
5.68424159818561
 51
90.0
  0
ARC
  5
21985
330
747D
100
AcDbEntity
  8
部品1
100
AcDbCircle
 10
8848.749867469527
 20
1609.948393148868
 30
0.0
 40
10.0
100
AcDbArc
 50
90.0
 51
174.3157584018144
  0
LINE
  5
21986
330
747D
100
AcDbEntity
  8
部品1
100
AcDbLine
 10
8848.749867469527
 20
1619.948393148868
 30
0.0
 11
8910.641748509037
 21
1619.948393148865
 31
0.0
  0
CIRCLE
  5
21987
330
747D
100
AcDbEntity
  8
部品1
100
AcDbCircle
 10
8879.695807989282
 20
1557.548393148867
 30
0.0
 40
16.0
  0
LINE
  5
21988
330
747D
100
AcDbEntity
  8
細線
100
AcDbLine
 10
8887.695807989281
 20
1597.948393148865
 30
0.0
 11
8887.695807989281
 21
1571.404799609419
 31
0.0
  0
LINE
  5
21989
330
747D
100
AcDbEntity
  8
細線
100
AcDbLine
 10
8871.695807989281
 20
1597.948393148865
 30
0.0
 11
8871.695807989281
 21
1571.404799609419
 31
0.0
  0
LINE
  5
2198A
330
747D
100
AcDbEntity
  8
細線
100
AcDbLine
 10
8894.695807989281
 20
1533.948393148865
 30
0.0
 11
8894.695807989281
 21
1527.948393148865
 31
0.0
  0
LINE
  5
2198B
330
747D
100
AcDbEntity
  8
細線
100
AcDbLine
 10
8864.695807989281
 20
1533.948393148868
 30
0.0
 11
8864.695807989281
 21
1527.948393148868
 31
0.0
  0
LINE
  5
2198C
330
747D
100
AcDbEntity
  8
細線
100
AcDbLine
 10
8864.695807989281
 20
1533.948393148868
 30
0.0
 11
8894.695807989281
 21
1533.948393148868
 31
0.0
  0
LINE
  5
2198D
330
747D
100
AcDbEntity
  8
細線
100
AcDbLine
 10
8864.695807989281
 20
1527.948393148868
 30
0.0
 11
8894.695807989281
 21
1527.948393148868
 31
0.0
  0
ARC
  5
2198E
330
747D
100
AcDbEntity
  8
細線
100
AcDbCircle
 10
8879.695807989282
 20
1597.948393148865
 30
0.0
 40
8.0
100
AcDbArc
 50
0.0
 51
180.0
  0
CIRCLE
  5
2198F
330
747D
100
AcDbEntity
  8
細線
100
AcDbCircle
 10
8879.695807989282
 20
1697.548393148867
 30
0.0
 40
8.0
  0
CIRCLE
  5
21990
330
747D
100
AcDbEntity
  8
部品1
100
AcDbCircle
 10
8879.695807989282
 20
1656.948393148868
 30
0.0
 40
16.0
  0
ARC
  5
21991
330
747D
100
AcDbEntity
  8
部品1
100
AcDbCircle
 10
8879.695807989282
 20
1667.548393148867
 30
0.0
 40
8.0
100
AcDbArc
 50
28.00674301447729
 51
151.9932569855227
  0
ARC
  5
21992
330
747D
100
AcDbEntity
  8
部品1
100
AcDbCircle
 10
8909.695807989281
 20
1717.54839314887
 30
0.0
 40
10.0
100
AcDbArc
 50
0.0
 51
90.0
  0
ARC
  5
21993
330
747D
100
AcDbEntity
  8
部品1
100
AcDbCircle
 10
8849.695807989281
 20
1717.548393148867
 30
0.0
 40
10.0
100
AcDbArc
 50
90.0
 51
180.0
  0
LINE
  5
21994
330
747D
100
AcDbEntity
  8
部品1
100
AcDbLine
 10
8849.695807989281
 20
1727.548393148867
 30
0.0
 11
8909.695807989281
 21
1727.548393148871
 31
0.0
  0
LINE
  5
21995
330
747D
100
AcDbEntity
  8
細線
100
AcDbLine
 10
8831.616475918623
 20
1540.604327871122
 30
0.0
 11
8758.272410640877
 21
1613.948393148868
 31
0.0
  0
LINE
  5
21996
330
747D
100
AcDbEntity
  8
細線
100
AcDbLine
 10
8835.547613512257
 20
1579.099597148679
 30
0.0
 11
8800.698817512069
 21
1613.948393148868
 31
0.0
  0
LINE
  5
21997
330
747D
100
AcDbEntity
  8
部品1
100
AcDbLine
 10
8949.69580798928
 20
1325.948393148868
 30
0.0
 11
8949.69580798928
 21
1313.948393148868
 31
0.0
  0
LINE
  5
21998
330
747D
100
AcDbEntity
  8
部品1
100
AcDbLine
 10
8889.695807989282
 20
1346.34839314887
 30
0.0
 11
8894.695807989281
 21
1346.34839314887
 31
0.0
  0
LINE
  5
21999
330
747D
100
AcDbEntity
  8
部品1
100
AcDbLine
 10
8864.695807989281
 20
1380.34839314887
 30
0.0
 11
8894.695807989281
 21
1380.34839314887
 31
0.0
  0
LINE
  5
2199A
330
747D
100
AcDbEntity
  8
部品1
100
AcDbLine
 10
8864.695807989281
 20
1386.34839314887
 30
0.0
 11
8894.695807989281
 21
1386.34839314887
 31
0.0
  0
LINE
  5
2199B
330
747D
100
AcDbEntity
  8
部品1
100
AcDbLine
 10
8864.695807989281
 20
1386.34839314887
 30
0.0
 11
8864.695807989281
 21
1380.34839314887
 31
0.0
  0
LINE
  5
2199C
330
747D
100
AcDbEntity
  8
部品1
100
AcDbLine
 10
8894.695807989281
 20
1386.348393148866
 30
0.0
 11
8894.695807989281
 21
1380.348393148866
 31
0.0
  0
LINE
  5
2199D
330
747D
100
AcDbEntity
  8
部品1
100
AcDbLine
 10
8872.695807989281
 20
1378.201289172528
 30
0.0
 11
8886.695807989282
 21
1378.201289172528
 31
0.0
  0
LINE
  5
2199E
330
747D
100
AcDbEntity
  8
部品1
100
AcDbLine
 10
8869.69580798928
 20
1365.948393148868
 30
0.0
 11
8889.695807989282
 21
1365.948393148868
 31
0.0
  0
LINE
  5
2199F
330
747D
100
AcDbEntity
  8
部品1
100
AcDbLine
 10
8862.695807989281
 20
1344.948393148868
 30
0.0
 11
8859.695807989281
 21
1341.948393148868
 31
0.0
  0
LINE
  5
219A0
330
747D
100
AcDbEntity
  8
部品1
100
AcDbLine
 10
8862.695807989281
 20
1344.948393148868
 30
0.0
 11
8896.695807989281
 21
1344.948393148868
 31
0.0
  0
LINE
  5
219A1
330
747D
100
AcDbEntity
  8
部品1
100
AcDbLine
 10
8896.695807989281
 20
1344.948393148868
 30
0.0
 11
8899.69580798928
 21
1341.948393148868
 31
0.0
  0
LINE
  5
219A2
330
747D
100
AcDbEntity
  8
部品1
100
AcDbLine
 10
8864.695807989281
 20
1346.34839314887
 30
0.0
 11
8864.695807989281
 21
1344.948393148868
 31
0.0
  0
LINE
  5
219A3
330
747D
100
AcDbEntity
  8
部品1
100
AcDbLine
 10
8894.695807989281
 20
1346.348393148866
 30
0.0
 11
8894.695807989281
 21
1344.948393148868
 31
0.0
  0
LINE
  5
219A4
330
747D
100
AcDbEntity
  8
部品1
100
AcDbLine
 10
8849.695807989281
 20
1328.948393148868
 30
0.0
 11
8909.695807989281
 21
1328.948393148872
 31
0.0
  0
LINE
  5
219A5
330
747D
100
AcDbEntity
  8
部品1
100
AcDbLine
 10
8849.695807989281
 20
1325.948393148868
 30
0.0
 11
8849.695807989281
 21
1328.948393148868
 31
0.0
  0
LINE
  5
219A6
330
747D
100
AcDbEntity
  8
部品1
100
AcDbLine
 10
8909.695807989281
 20
1325.948393148868
 30
0.0
 11
8909.695807989281
 21
1328.948393148876
 31
0.0
  0
LINE
  5
219A7
330
747D
100
AcDbEntity
  8
部品1
100
AcDbLine
 10
8859.695807989281
 20
1328.948393148868
 30
0.0
 11
8859.695807989281
 21
1341.948393148868
 31
0.0
  0
LINE
  5
219A8
330
747D
100
AcDbEntity
  8
部品1
100
AcDbLine
 10
8869.69580798928
 20
1328.948393148868
 30
0.0
 11
8869.69580798928
 21
1365.948393148868
 31
0.0
  0
LINE
  5
219A9
330
747D
100
AcDbEntity
  8
部品1
100
AcDbLine
 10
8889.695807989282
 20
1328.948393148868
 30
0.0
 11
8889.695807989282
 21
1365.948393148868
 31
0.0
  0
LINE
  5
219AA
330
747D
100
AcDbEntity
  8
部品1
100
AcDbLine
 10
8899.69580798928
 20
1328.948393148872
 30
0.0
 11
8899.69580798928
 21
1341.948393148868
 31
0.0
  0
LINE
  5
219AB
330
747D
100
AcDbEntity
  8
部品1
100
AcDbLine
 10
8864.695807989281
 20
1346.34839314887
 30
0.0
 11
8869.69580798928
 21
1346.34839314887
 31
0.0
  0
LINE
  5
219AC
330
747D
100
AcDbEntity
  8
部品1
100
AcDbLine
 10
8889.695807989282
 20
1346.34839314887
 30
0.0
 11
8894.695807989281
 21
1346.34839314887
 31
0.0
  0
LINE
  5
219AD
330
747D
100
AcDbEntity
  8
部品1
100
AcDbLine
 10
8859.695807989281
 20
1341.948393148868
 30
0.0
 11
8899.69580798928
 21
1341.948393148868
 31
0.0
  0
ARC
  5
219AE
330
747D
100
AcDbEntity
  8
部品1
100
AcDbCircle
 10
8864.695807989281
 20
1337.433638358551
 30
0.0
 40
6.736691384996243
100
AcDbArc
 50
42.08048849856768
 51
137.9195115014323
  0
ARC
  5
219AF
330
747D
100
AcDbEntity
  8
部品1
100
AcDbCircle
 10
8894.695807989281
 20
1337.433638358551
 30
0.0
 40
6.736691384996243
100
AcDbArc
 50
42.08048849856768
 51
137.9195115014323
  0
ARC
  5
219B0
330
747D
100
AcDbEntity
  8
部品1
100
AcDbCircle
 10
8879.695807989282
 20
1320.859759928051
 30
0.0
 40
23.33946124318486
100
AcDbArc
 50
64.63020194520748
 51
115.3697980547925
  0
LINE
  5
219B1
330
747D
100
AcDbEntity
  8
部品1
100
AcDbLine
 10
8872.695807989281
 20
1374.201289172528
 30
0.0
 11
8886.695807989282
 21
1374.201289172528
 31
0.0
  0
LINE
  5
219B2
330
747D
100
AcDbEntity
  8
部品1
100
AcDbLine
 10
8874.695807989281
 20
1365.948393148868
 30
0.0
 11
8874.695807989281
 21
1374.201289172528
 31
0.0
  0
LINE
  5
219B3
330
747D
100
AcDbEntity
  8
部品1
100
AcDbLine
 10
8884.695807989281
 20
1365.948393148868
 30
0.0
 11
8884.695807989281
 21
1374.201289172528
 31
0.0
  0
LINE
  5
219B4
330
747D
100
AcDbEntity
  8
部品1
100
AcDbLine
 10
8869.69580798928
 20
1313.948393148868
 30
0.0
 11
8869.69580798928
 21
1278.548393148867
 31
0.0
  0
LINE
  5
219B5
330
747D
100
AcDbEntity
  8
部品1
100
AcDbLine
 10
8889.695807989282
 20
1313.948393148868
 30
0.0
 11
8889.695807989282
 21
1278.548393148867
 31
0.0
  0
LINE
  5
219B6
330
747D
100
AcDbEntity
  8
部品1
100
AcDbLine
 10
8877.785307355743
 20
1278.548393148867
 30
0.0
 11
8881.606308622819
 21
1278.548393148867
 31
0.0
  0
LINE
  5
219B7
330
747D
100
AcDbEntity
  8
部品1
100
AcDbLine
 10
8866.365936142022
 20
1256.349247500493
 30
0.0
 11
8874.277426964969
 21
1255.162523877054
 31
0.0
  0
LINE
  5
219B8
330
747D
100
AcDbEntity
  8
部品1
100
AcDbLine
 10
8867.255978859606
 20
1262.282865617704
 30
0.0
 11
8875.167469682549
 21
1261.096141994265
 31
0.0
  0
LINE
  5
219B9
330
747D
100
AcDbEntity
  8
部品1
100
AcDbLine
 10
8868.146021577182
 20
1268.216483734915
 30
0.0
 11
8876.057512400128
 21
1267.029760111472
 31
0.0
  0
LINE
  5
219BA
330
747D
100
AcDbEntity
  8
部品1
100
AcDbLine
 10
8869.036064294766
 20
1274.150101852123
 30
0.0
 11
8876.947555117711
 21
1272.96337822868
 31
0.0
  0
LINE
  5
219BB
330
747D
100
AcDbEntity
  8
部品1
100
AcDbLine
 10
8885.114189013593
 20
1255.162523877054
 30
0.0
 11
8893.025679836538
 21
1256.349247500493
 31
0.0
  0
LINE
  5
219BC
330
747D
100
AcDbEntity
  8
部品1
100
AcDbLine
 10
8884.224146296018
 20
1261.096141994265
 30
0.0
 11
8892.135637118963
 21
1262.282865617704
 31
0.0
  0
LINE
  5
219BD
330
747D
100
AcDbEntity
  8
部品1
100
AcDbLine
 10
8883.334103578434
 20
1267.029760111472
 30
0.0
 11
8891.245594401381
 21
1268.216483734915
 31
0.0
  0
LINE
  5
219BE
330
747D
100
AcDbEntity
  8
部品1
100
AcDbLine
 10
8882.444060860851
 20
1272.96337822868
 30
0.0
 11
8890.355551683796
 21
1274.150101852123
 31
0.0
  0
LINE
  5
219BF
330
747D
100
AcDbEntity
  8
部品1
100
AcDbLine
 10
8872.695807989281
 20
1374.201289172528
 30
0.0
 11
8872.695807989281
 21
1378.201289172528
 31
0.0
  0
LINE
  5
219C0
330
747D
100
AcDbEntity
  8
部品1
100
AcDbLine
 10
8886.695807989282
 20
1374.201289172528
 30
0.0
 11
8886.695807989282
 21
1378.201289172528
 31
0.0
  0
LINE
  5
219C1
330
747D
100
AcDbEntity
  8
部品1
100
AcDbLine
 10
8864.695807989281
 20
1344.948393148868
 30
0.0
 11
8894.695807989281
 21
1344.948393148868
 31
0.0
  0
LINE
  5
219C2
330
747D
100
AcDbEntity
  8
部品1
100
AcDbLine
 10
8894.695807989281
 20
1346.348393148866
 30
0.0
 11
8894.695807989281
 21
1344.948393148868
 31
0.0
  0
LINE
  5
219C3
330
747D
100
AcDbEntity
  8
部品1
100
AcDbLine
 10
8864.695807989281
 20
1346.34839314887
 30
0.0
 11
8864.695807989281
 21
1344.948393148865
 31
0.0
  0
LINE
  5
219C4
330
747D
100
AcDbEntity
  8
部品1
100
AcDbLine
 10
8864.695807989281
 20
1346.34839314887
 30
0.0
 11
8869.69580798928
 21
1346.34839314887
 31
0.0
  0
LINE
  5
219C5
330
747D
100
AcDbEntity
  8
部品1
100
AcDbLine
 10
8894.695807989281
 20
1386.348393148866
 30
0.0
 11
8894.695807989281
 21
1380.348393148866
 31
0.0
  0
LINE
  5
219C6
330
747D
100
AcDbEntity
  8
部品1
100
AcDbLine
 10
8864.695807989281
 20
1386.34839314887
 30
0.0
 11
8864.695807989281
 21
1380.34839314887
 31
0.0
  0
LINE
  5
219C7
330
747D
100
AcDbEntity
  8
部品1
100
AcDbLine
 10
8864.695807989281
 20
1386.34839314887
 30
0.0
 11
8894.695807989281
 21
1386.34839314887
 31
0.0
  0
LINE
  5
219C8
330
747D
100
AcDbEntity
  8
部品1
100
AcDbLine
 10
8864.695807989281
 20
1380.34839314887
 30
0.0
 11
8894.695807989281
 21
1380.34839314887
 31
0.0
  0
LINE
  5
219C9
330
747D
100
AcDbEntity
  8
部品1
100
AcDbLine
 10
8809.695807989282
 20
1325.948393148868
 30
0.0
 11
8809.695807989282
 21
1313.948393148868
 31
0.0
  0
LINE
  5
219CA
330
747D
100
AcDbEntity
  8
部品1
100
AcDbLine
 10
8863.69580798928
 20
1238.548393148867
 30
0.0
 11
8871.607298812227
 21
1237.361669525428
 31
0.0
  0
LINE
  5
219CB
330
747D
100
AcDbEntity
  8
部品1
100
AcDbLine
 10
8887.784317166335
 20
1237.361669525428
 30
0.0
 11
8895.695807989282
 21
1238.548393148867
 31
0.0
  0
LINE
  5
219CC
330
747D
100
AcDbEntity
  8
部品1
100
AcDbLine
 10
8864.585850706864
 20
1244.482011266078
 30
0.0
 11
8872.497341529809
 21
1243.295287642635
 31
0.0
  0
LINE
  5
219CD
330
747D
100
AcDbEntity
  8
部品1
100
AcDbLine
 10
8865.47589342444
 20
1250.415629383285
 30
0.0
 11
8873.387384247385
 21
1249.228905759842
 31
0.0
  0
LINE
  5
219CE
330
747D
100
AcDbEntity
  8
部品1
100
AcDbLine
 10
8886.894274448753
 20
1243.295287642635
 30
0.0
 11
8894.805765271701
 21
1244.482011266078
 31
0.0
  0
LINE
  5
219CF
330
747D
100
AcDbEntity
  8
部品1
100
AcDbLine
 10
8886.004231731176
 20
1249.228905759842
 30
0.0
 11
8893.915722554122
 21
1250.415629383285
 31
0.0
  0
LINE
  5
219D0
330
747D
100
AcDbEntity
  8
部品1
100
AcDbLine
 10
8869.69580798928
 20
1278.548393148867
 30
0.0
 11
8863.69580798928
 21
1238.548393148867
 31
0.0
  0
LINE
  5
219D1
330
747D
100
AcDbEntity
  8
部品1
100
AcDbLine
 10
8895.695807989282
 20
1238.548393148867
 30
0.0
 11
8889.695807989282
 21
1278.548393148867
 31
0.0
  0
LINE
  5
219D2
330
747D
100
AcDbEntity
  8
部品1
100
AcDbLine
 10
8877.785307355743
 20
1278.548393148867
 30
0.0
 11
8871.607298812227
 21
1237.361669525428
 31
0.0
  0
LINE
  5
219D3
330
747D
100
AcDbEntity
  8
部品1
100
AcDbLine
 10
8887.784317166335
 20
1237.361669525428
 30
0.0
 11
8881.606308622819
 21
1278.548393148867
 31
0.0
  0
LINE
  5
219D4
330
747D
100
AcDbEntity
  8
部品1
100
AcDbLine
 10
8809.695807989282
 20
1313.948393148868
 30
0.0
 11
8949.69580798928
 21
1313.948393148868
 31
0.0
  0
LINE
  5
219D5
330
747D
100
AcDbEntity
  8
部品1
100
AcDbLine
 10
8809.695807989282
 20
1325.948393148868
 30
0.0
 11
8949.69580798928
 21
1325.948393148868
 31
0.0
  0
LINE
  5
219D6
330
747D
100
AcDbEntity
  8
部品1
100
AcDbLine
 10
8920.592576997353
 20
1610.938853847769
 30
0.0
 11
8949.69580798928
 21
1325.948393148868
 31
0.0
  0
LINE
  5
219D7
330
747D
100
AcDbEntity
  8
部品1
100
AcDbLine
 10
8838.799038981212
 20
1610.938853847769
 30
0.0
 11
8809.695807989282
 21
1325.948393148868
 31
0.0
  0
DIMENSION
  5
219D8
330
747D
100
AcDbEntity
  8
寸法
 48
50.0
100
AcDbDimension
  2
*D23
 10
9122.442453616065
 20
1313.948393148868
 30
0.0
 11
9022.442453616065
 21
1463.94839314887
 31
0.0
 70
    32
  1
c
 71
     5
 42
300.0
  3
INABA_S40G
100
AcDbAlignedDimension
 13
8919.806899898949
 23
1613.948393148868
 33
0.0
 14
8949.69580798928
 24
1313.948393148868
 34
0.0
 50
90.0
100
AcDbRotatedDimension
1001
ACAD
1000
DSTYLE
1002
{
1070
   174
1070
     0
1070
   272
1070
     1
1070
   288
1070
     0
1070
   341
1005
0
1002
}
  0
LINE
  5
219D9
330
747D
100
AcDbEntity
  8
細線
 48
10.0
100
AcDbLine
 10
8907.260566280184
 20
1007.030195809584
 30
0.0
 11
9214.178763619459
 21
1313.948393148868
 31
0.0
  0
LINE
  5
219DA
330
747D
100
AcDbEntity
  8
細線
 48
10.0
100
AcDbLine
 10
8935.544837527645
 20
1007.030195809584
 30
0.0
 11
9242.463034866919
 21
1313.948393148868
 31
0.0
  0
LINE
  5
219DB
330
747D
100
AcDbEntity
  8
細線
 48
10.0
100
AcDbLine
 10
8963.829108775103
 20
1007.030195809584
 30
0.0
 11
9270.747306114385
 21
1313.94839314887
 31
0.0
  0
LINE
  5
219DC
330
747D
100
AcDbEntity
  8
細線
100
AcDbLine
 10
8605.72407068148
 20
1313.948393148868
 30
0.0
 11
8519.695807989281
 21
1399.976655841068
 31
0.0
  0
LINE
  5
219DD
330
747D
100
AcDbEntity
  8
細線
100
AcDbLine
 10
8648.150477552672
 20
1313.948393148868
 30
0.0
 11
8519.695807989281
 21
1442.403062712261
 31
0.0
  0
LINE
  5
219DE
330
747D
100
AcDbEntity
  8
部品1
100
AcDbLine
 10
8519.695807989281
 20
1313.948393148865
 30
0.0
 11
8519.695807989281
 21
1613.948393148868
 31
0.0
  0
LINE
  5
219DF
330
747D
100
AcDbEntity
  8
細線
 48
10.0
100
AcDbLine
 10
8296.898411190573
 20
1249.984818425641
 30
0.0
 11
8360.8619859138
 21
1313.948393148868
 31
0.0
  0
LINE
  5
219E0
330
747D
100
AcDbEntity
  8
細線
 48
10.0
100
AcDbLine
 10
8296.898411190575
 20
1221.700547178185
 30
0.0
 11
8389.146257161252
 21
1313.948393148868
 31
0.0
  0
LINE
  5
219E1
330
747D
100
AcDbEntity
  8
細線
 48
10.0
100
AcDbLine
 10
8296.898411190573
 20
1193.416275930727
 30
0.0
 11
8417.430528408704
 21
1313.948393148868
 31
0.0
  0
LINE
  5
219E2
330
747D
100
AcDbEntity
  8
細線
 48
10.0
100
AcDbLine
 10
8537.170719922285
 20
1007.030195809584
 30
0.0
 11
8844.088917261544
 21
1313.948393148868
 31
0.0
  0
LINE
  5
219E3
330
747D
100
AcDbEntity
  8
細線
 48
10.0
100
AcDbLine
 10
8508.88644867482
 20
1007.030195809584
 30
0.0
 11
8815.804646014091
 21
1313.948393148868
 31
0.0
  0
LINE
  5
219E4
330
747D
100
AcDbEntity
  8
細線
 48
10.0
100
AcDbLine
 10
8480.602177427362
 20
1007.030195809584
 30
0.0
 11
8787.520374766636
 21
1313.94839314887
 31
0.0
  0
LINE
  5
219E5
330
747D
100
AcDbEntity
  8
細線
100
AcDbLine
 10
8814.5815463462
 20
1373.79149433504
 30
0.0
 11
8574.424647532369
 21
1613.948393148868
 31
0.0
  0
LINE
  5
219E6
330
747D
100
AcDbEntity
  8
細線
100
AcDbLine
 10
8810.650408752563
 20
1335.296225057484
 30
0.0
 11
8531.998240661176
 21
1613.948393148868
 31
0.0
  0
LINE
  5
219E7
330
747D
100
AcDbEntity
  8
部品1
100
AcDbLine
 10
8296.898411190573
 20
1707.94839314887
 30
0.0
 11
8839.695807989285
 21
1707.94839314887
 31
0.0
  0
LINE
  5
219E8
330
747D
100
AcDbEntity
  8
部品1
100
AcDbLine
 10
8296.898411190573
 20
1713.94839314887
 30
0.0
 11
8809.695807989283
 21
1713.94839314887
 31
0.0
  0
LINE
  5
219E9
330
747D
100
AcDbEntity
  8
部品1
100
AcDbLine
 10
8296.898411190573
 20
1613.948393148868
 30
0.0
 11
8839.584716079617
 21
1613.94839314887
 31
0.0
  0
TEXT
  5
219EA
330
747D
100
AcDbEntity
  8
部品1
100
AcDbText
 10
7783.852406544674
 20
1321.854434827772
 30
0.0
 40
120.0
  1
▽G.L
  7
STYLE1
100
AcDbText
  0
LINE
  5
219EB
330
747D
100
AcDbEntity
  8
細線
 48
10.0
100
AcDbLine
 10
7704.873184612046
 20
1007.030195809584
 30
0.0
 11
8011.791381951322
 21
1313.948393148868
 31
0.0
  0
LINE
  5
219EC
330
747D
100
AcDbEntity
  8
細線
 48
10.0
100
AcDbLine
 10
7733.157455859508
 20
1007.030195809584
 30
0.0
 11
8040.075653198782
 21
1313.948393148868
 31
0.0
  0
LINE
  5
219ED
330
747D
100
AcDbEntity
  8
細線
 48
10.0
100
AcDbLine
 10
7761.441727106971
 20
1007.030195809584
 30
0.0
 11
8068.359924446246
 21
1313.948393148868
 31
0.0
  0
LINE
  5
219EE
330
747D
100
AcDbEntity
  8
細線
100
AcDbLine
 10
7384.3632032763
 20
1533.948393148865
 30
0.0
 11
7384.3632032763
 21
1527.948393148865
 31
0.0
  0
LINE
  5
219EF
330
747D
100
AcDbEntity
  8
細線
100
AcDbLine
 10
7354.363203276299
 20
1533.94839314887
 30
0.0
 11
7354.363203276299
 21
1527.94839314887
 31
0.0
  0
LINE
  5
219F0
330
747D
100
AcDbEntity
  8
細線
100
AcDbLine
 10
7354.363203276299
 20
1527.94839314887
 30
0.0
 11
7384.3632032763
 21
1527.94839314887
 31
0.0
  0
ARC
  5
219F1
330
747D
100
AcDbEntity
  8
部品1
100
AcDbCircle
 10
7400.309143796056
 20
1609.948393148866
 30
0.0
 40
10.0
100
AcDbArc
 50
5.68424159818561
 51
90.0
  0
LINE
  5
219F2
330
747D
100
AcDbEntity
  8
部品1
100
AcDbLine
 10
7338.417262756545
 20
1619.948393148868
 30
0.0
 11
7400.309143796056
 21
1619.948393148867
 31
0.0
  0
ARC
  5
219F3
330
747D
100
AcDbEntity
  8
細線
100
AcDbCircle
 10
7369.3632032763
 20
1597.948393148867
 30
0.0
 40
8.0
100
AcDbArc
 50
0.0
 51
180.0
  0
LINE
  5
219F4
330
747D
100
AcDbEntity
  8
細線
100
AcDbLine
 10
7377.3632032763
 20
1597.948393148867
 30
0.0
 11
7377.3632032763
 21
1571.804799609421
 31
0.0
  0
LINE
  5
219F5
330
747D
100
AcDbEntity
  8
細線
100
AcDbLine
 10
7361.363203276299
 20
1597.948393148867
 30
0.0
 11
7361.363203276299
 21
1571.804799609421
 31
0.0
  0
LINE
  5
219F6
330
747D
100
AcDbEntity
  8
細線
100
AcDbLine
 10
7354.363203276299
 20
1533.94839314887
 30
0.0
 11
7384.3632032763
 21
1533.94839314887
 31
0.0
  0
CIRCLE
  5
219F7
330
747D
100
AcDbEntity
  8
部品1
100
AcDbCircle
 10
7369.3632032763
 20
1557.948393148868
 30
0.0
 40
16.0
  0
ARC
  5
219F8
330
747D
100
AcDbEntity
  8
部品1
100
AcDbCircle
 10
7338.417262756545
 20
1609.94839314887
 30
0.0
 40
10.0
100
AcDbArc
 50
90.0
 51
174.3157584018144
  0
LINE
  5
219F9
330
747D
100
AcDbEntity
  8
部品1
100
AcDbLine
 10
7372.11145614787
 20
1272.963378228682
 30
0.0
 11
7380.022946970815
 21
1274.150101852125
 31
0.0
  0
LINE
  5
219FA
330
747D
100
AcDbEntity
  8
部品1
100
AcDbLine
 10
7373.001498865453
 20
1267.029760111472
 30
0.0
 11
7380.912989688399
 21
1268.216483734915
 31
0.0
  0
LINE
  5
219FB
330
747D
100
AcDbEntity
  8
部品1
100
AcDbLine
 10
7373.891541583036
 20
1261.096141994267
 30
0.0
 11
7381.803032405982
 21
1262.282865617706
 31
0.0
  0
LINE
  5
219FC
330
747D
100
AcDbEntity
  8
部品1
100
AcDbLine
 10
7374.781584300612
 20
1255.162523877054
 30
0.0
 11
7382.693075123558
 21
1256.349247500495
 31
0.0
  0
LINE
  5
219FD
330
747D
100
AcDbEntity
  8
部品1
100
AcDbLine
 10
7375.671627018196
 20
1249.228905759844
 30
0.0
 11
7383.583117841141
 21
1250.415629383287
 31
0.0
  0
LINE
  5
219FE
330
747D
100
AcDbEntity
  8
部品1
100
AcDbLine
 10
7376.561669735771
 20
1243.295287642635
 30
0.0
 11
7384.473160558724
 21
1244.482011266078
 31
0.0
  0
LINE
  5
219FF
330
747D
100
AcDbEntity
  8
部品1
100
AcDbLine
 10
7358.703459581784
 20
1274.150101852125
 30
0.0
 11
7366.61495040473
 21
1272.963378228682
 31
0.0
  0
LINE
  5
21A00
330
747D
100
AcDbEntity
  8
部品1
100
AcDbLine
 10
7357.813416864201
 20
1268.216483734915
 30
0.0
 11
7365.724907687146
 21
1267.029760111472
 31
0.0
  0
LINE
  5
21A01
330
747D
100
AcDbEntity
  8
部品1
100
AcDbLine
 10
7356.923374146624
 20
1262.282865617706
 30
0.0
 11
7364.83486496957
 21
1261.096141994267
 31
0.0
  0
LINE
  5
21A02
330
747D
100
AcDbEntity
  8
部品1
100
AcDbLine
 10
7356.033331429042
 20
1256.349247500495
 30
0.0
 11
7363.944822251987
 21
1255.162523877054
 31
0.0
  0
LINE
  5
21A03
330
747D
100
AcDbEntity
  8
部品1
100
AcDbLine
 10
7355.143288711459
 20
1250.415629383287
 30
0.0
 11
7363.054779534405
 21
1249.228905759844
 31
0.0
  0
LINE
  5
21A04
330
747D
100
AcDbEntity
  8
部品1
100
AcDbLine
 10
7354.253245993882
 20
1244.482011266078
 30
0.0
 11
7362.164736816828
 21
1243.295287642635
 31
0.0
  0
LINE
  5
21A05
330
747D
100
AcDbEntity
  8
部品1
100
AcDbLine
 10
7377.451712453354
 20
1237.361669525429
 30
0.0
 11
7385.3632032763
 21
1238.548393148869
 31
0.0
  0
LINE
  5
21A06
330
747D
100
AcDbEntity
  8
部品1
100
AcDbLine
 10
7353.363203276299
 20
1238.548393148869
 30
0.0
 11
7361.274694099245
 21
1237.361669525429
 31
0.0
  0
LINE
  5
21A07
330
747D
100
AcDbEntity
  8
部品1
100
AcDbLine
 10
7377.451712453354
 20
1237.361669525429
 30
0.0
 11
7371.273703909837
 21
1278.548393148869
 31
0.0
  0
LINE
  5
21A08
330
747D
100
AcDbEntity
  8
部品1
100
AcDbLine
 10
7367.452702642762
 20
1278.548393148869
 30
0.0
 11
7361.274694099245
 21
1237.361669525429
 31
0.0
  0
LINE
  5
21A09
330
747D
100
AcDbEntity
  8
部品1
100
AcDbLine
 10
7385.3632032763
 20
1238.548393148869
 30
0.0
 11
7379.3632032763
 21
1278.548393148869
 31
0.0
  0
LINE
  5
21A0A
330
747D
100
AcDbEntity
  8
部品1
100
AcDbLine
 10
7359.363203276299
 20
1278.548393148869
 30
0.0
 11
7353.363203276299
 21
1238.548393148869
 31
0.0
  0
LINE
  5
21A0B
330
747D
100
AcDbEntity
  8
部品1
100
AcDbLine
 10
7367.452702642762
 20
1278.548393148869
 30
0.0
 11
7371.273703909837
 21
1278.548393148869
 31
0.0
  0
LINE
  5
21A0C
330
747D
100
AcDbEntity
  8
部品1
100
AcDbLine
 10
7379.3632032763
 20
1313.948393148868
 30
0.0
 11
7379.3632032763
 21
1278.548393148869
 31
0.0
  0
LINE
  5
21A0D
330
747D
100
AcDbEntity
  8
部品1
100
AcDbLine
 10
7359.363203276299
 20
1313.948393148868
 30
0.0
 11
7359.363203276299
 21
1278.548393148869
 31
0.0
  0
LINE
  5
21A0E
330
747D
100
AcDbEntity
  8
部品1
100
AcDbLine
 10
7362.3632032763
 20
1374.20128917253
 30
0.0
 11
7376.3632032763
 21
1374.20128917253
 31
0.0
  0
LINE
  5
21A0F
330
747D
100
AcDbEntity
  8
部品1
100
AcDbLine
 10
7376.3632032763
 20
1374.20128917253
 30
0.0
 11
7376.3632032763
 21
1378.20128917253
 31
0.0
  0
LINE
  5
21A10
330
747D
100
AcDbEntity
  8
部品1
100
AcDbLine
 10
7362.3632032763
 20
1374.20128917253
 30
0.0
 11
7362.3632032763
 21
1378.20128917253
 31
0.0
  0
LINE
  5
21A11
330
747D
100
AcDbEntity
  8
部品1
100
AcDbLine
 10
7374.3632032763
 20
1365.94839314887
 30
0.0
 11
7374.3632032763
 21
1374.20128917253
 31
0.0
  0
LINE
  5
21A12
330
747D
100
AcDbEntity
  8
部品1
100
AcDbLine
 10
7364.363203276299
 20
1365.94839314887
 30
0.0
 11
7364.363203276299
 21
1374.20128917253
 31
0.0
  0
LINE
  5
21A13
330
747D
100
AcDbEntity
  8
部品1
100
AcDbLine
 10
7362.3632032763
 20
1378.20128917253
 30
0.0
 11
7376.3632032763
 21
1378.20128917253
 31
0.0
  0
ARC
  5
21A14
330
747D
100
AcDbEntity
  8
部品1
100
AcDbCircle
 10
7369.3632032763
 20
1320.859759928051
 30
0.0
 40
23.33946124318486
100
AcDbArc
 50
64.63020194520748
 51
115.3697980547925
  0
ARC
  5
21A15
330
747D
100
AcDbEntity
  8
部品1
100
AcDbCircle
 10
7384.3632032763
 20
1337.433638358552
 30
0.0
 40
6.736691384996243
100
AcDbArc
 50
42.08048849856768
 51
137.9195115014323
  0
ARC
  5
21A16
330
747D
100
AcDbEntity
  8
部品1
100
AcDbCircle
 10
7354.363203276299
 20
1337.433638358552
 30
0.0
 40
6.736691384996243
100
AcDbArc
 50
42.08048849856768
 51
137.9195115014323
  0
LINE
  5
21A17
330
747D
100
AcDbEntity
  8
部品1
100
AcDbLine
 10
7349.3632032763
 20
1341.94839314887
 30
0.0
 11
7389.3632032763
 21
1341.94839314887
 31
0.0
  0
LINE
  5
21A18
330
747D
100
AcDbEntity
  8
部品1
100
AcDbLine
 10
7379.3632032763
 20
1346.348393148872
 30
0.0
 11
7384.3632032763
 21
1346.348393148872
 31
0.0
  0
LINE
  5
21A19
330
747D
100
AcDbEntity
  8
部品1
100
AcDbLine
 10
7399.3632032763
 20
1325.948393148868
 30
0.0
 11
7399.3632032763
 21
1328.948393148877
 31
0.0
  0
LINE
  5
21A1A
330
747D
100
AcDbEntity
  8
部品1
100
AcDbLine
 10
7339.363203276299
 20
1325.948393148868
 30
0.0
 11
7339.363203276299
 21
1328.948393148868
 31
0.0
  0
LINE
  5
21A1B
330
747D
100
AcDbEntity
  8
部品1
100
AcDbLine
 10
7386.3632032763
 20
1344.94839314887
 30
0.0
 11
7389.3632032763
 21
1341.94839314887
 31
0.0
  0
LINE
  5
21A1C
330
747D
100
AcDbEntity
  8
部品1
100
AcDbLine
 10
7352.363203276301
 20
1344.94839314887
 30
0.0
 11
7349.3632032763
 21
1341.94839314887
 31
0.0
  0
LINE
  5
21A1D
330
747D
100
AcDbEntity
  8
部品1
100
AcDbLine
 10
7389.3632032763
 20
1328.948393148874
 30
0.0
 11
7389.3632032763
 21
1341.94839314887
 31
0.0
  0
LINE
  5
21A1E
330
747D
100
AcDbEntity
  8
部品1
100
AcDbLine
 10
7349.3632032763
 20
1328.948393148868
 30
0.0
 11
7349.3632032763
 21
1341.94839314887
 31
0.0
  0
LINE
  5
21A1F
330
747D
100
AcDbEntity
  8
部品1
100
AcDbLine
 10
7352.363203276301
 20
1344.94839314887
 30
0.0
 11
7386.3632032763
 21
1344.94839314887
 31
0.0
  0
LINE
  5
21A20
330
747D
100
AcDbEntity
  8
部品1
100
AcDbLine
 10
7379.3632032763
 20
1328.948393148868
 30
0.0
 11
7379.3632032763
 21
1365.94839314887
 31
0.0
  0
LINE
  5
21A21
330
747D
100
AcDbEntity
  8
部品1
100
AcDbLine
 10
7359.363203276299
 20
1328.948393148868
 30
0.0
 11
7359.363203276299
 21
1365.94839314887
 31
0.0
  0
LINE
  5
21A22
330
747D
100
AcDbEntity
  8
部品1
100
AcDbLine
 10
7359.363203276299
 20
1365.94839314887
 30
0.0
 11
7379.3632032763
 21
1365.94839314887
 31
0.0
  0
LINE
  5
21A23
330
747D
100
AcDbEntity
  8
部品1
100
AcDbLine
 10
7339.363203276299
 20
1328.948393148868
 30
0.0
 11
7399.3632032763
 21
1328.948393148874
 31
0.0
  0
LINE
  5
21A24
330
747D
100
AcDbEntity
  8
部品1
100
AcDbLine
 10
7384.3632032763
 20
1346.348393148866
 30
0.0
 11
7384.3632032763
 21
1344.94839314887
 31
0.0
  0
LINE
  5
21A25
330
747D
100
AcDbEntity
  8
部品1
100
AcDbLine
 10
7384.3632032763
 20
1386.348393148868
 30
0.0
 11
7384.3632032763
 21
1380.348393148868
 31
0.0
  0
LINE
  5
21A26
330
747D
100
AcDbEntity
  8
部品1
100
AcDbLine
 10
7439.363203276299
 20
1325.948393148868
 30
0.0
 11
7439.363203276299
 21
1313.948393148868
 31
0.0
  0
LINE
  5
21A27
330
747D
100
AcDbEntity
  8
部品1
100
AcDbLine
 10
7354.363203276299
 20
1346.348393148872
 30
0.0
 11
7354.363203276299
 21
1344.94839314887
 31
0.0
  0
LINE
  5
21A28
330
747D
100
AcDbEntity
  8
部品1
100
AcDbLine
 10
7354.363203276299
 20
1386.348393148872
 30
0.0
 11
7354.363203276299
 21
1380.348393148872
 31
0.0
  0
LINE
  5
21A29
330
747D
100
AcDbEntity
  8
部品1
100
AcDbLine
 10
7354.363203276299
 20
1346.348393148872
 30
0.0
 11
7359.363203276299
 21
1346.348393148872
 31
0.0
  0
LINE
  5
21A2A
330
747D
100
AcDbEntity
  8
部品1
100
AcDbLine
 10
7354.363203276299
 20
1386.348393148872
 30
0.0
 11
7384.3632032763
 21
1386.348393148872
 31
0.0
  0
LINE
  5
21A2B
330
747D
100
AcDbEntity
  8
部品1
100
AcDbLine
 10
7354.363203276299
 20
1380.348393148872
 30
0.0
 11
7384.3632032763
 21
1380.348393148872
 31
0.0
  0
LINE
  5
21A2C
330
747D
100
AcDbEntity
  8
部品1
100
AcDbLine
 10
7299.3632032763
 20
1325.948393148868
 30
0.0
 11
7299.3632032763
 21
1313.948393148868
 31
0.0
  0
LINE
  5
21A2D
330
747D
100
AcDbEntity
  8
部品1
100
AcDbLine
 10
7299.3632032763
 20
1313.948393148868
 30
0.0
 11
7439.363203276299
 21
1313.948393148868
 31
0.0
  0
LINE
  5
21A2E
330
747D
100
AcDbEntity
  8
部品1
100
AcDbLine
 10
7299.3632032763
 20
1325.948393148868
 30
0.0
 11
7439.363203276299
 21
1325.948393148868
 31
0.0
  0
LINE
  5
21A2F
330
747D
100
AcDbEntity
  8
部品1
100
AcDbLine
 10
7328.466434268232
 20
1610.93885384777
 30
0.0
 11
7299.3632032763
 21
1325.948393148868
 31
0.0
  0
LINE
  5
21A30
330
747D
100
AcDbEntity
  8
部品1
100
AcDbLine
 10
7410.259972284375
 20
1610.93885384777
 30
0.0
 11
7439.363203276299
 21
1325.948393148868
 31
0.0
  0
LINE
  5
21A31
330
747D
100
AcDbEntity
  8
細線
100
AcDbLine
 10
7304.248941633218
 20
1373.79149433504
 30
0.0
 11
7164.092042819388
 21
1513.948393148868
 31
0.0
  0
LINE
  5
21A32
330
747D
100
AcDbEntity
  8
細線
100
AcDbLine
 10
7300.317804039581
 20
1335.296225057484
 30
0.0
 11
7121.665635948194
 21
1513.948393148868
 31
0.0
  0
LINE
  5
21A33
330
747D
100
AcDbEntity
  8
細線
 48
10.0
100
AcDbLine
 10
6694.10877003271
 20
1247.956676541278
 30
0.0
 11
6760.100486640296
 21
1313.948393148868
 31
0.0
  0
LINE
  5
21A34
330
747D
100
AcDbEntity
  8
細線
 48
10.0
100
AcDbLine
 10
6694.10877003271
 20
1219.672405293819
 30
0.0
 11
6788.384757887749
 21
1313.948393148868
 31
0.0
  0
LINE
  5
21A35
330
747D
100
AcDbEntity
  8
細線
 48
10.0
100
AcDbLine
 10
6694.108770032705
 20
1276.240947788734
 30
0.0
 11
6731.816215392844
 21
1313.948393148868
 31
0.0
  0
LINE
  5
21A36
330
747D
100
AcDbEntity
  8
部品1
100
AcDbLine
 10
7009.3632032763
 20
1313.948393148868
 30
0.0
 11
7009.3632032763
 21
1513.94839314887
 31
0.0
  0
LINE
  5
21A37
330
747D
100
AcDbEntity
  8
細線
100
AcDbLine
 10
7137.81787283969
 20
1313.948393148868
 30
0.0
 11
7009.3632032763
 21
1442.403062712261
 31
0.0
  0
LINE
  5
21A38
330
747D
100
AcDbEntity
  8
細線
100
AcDbLine
 10
7095.391465968498
 20
1313.948393148868
 30
0.0
 11
7009.3632032763
 21
1399.976655841068
 31
0.0
  0
LINE
  5
21A39
330
747D
100
AcDbEntity
  8
部品1
100
AcDbLine
 10
6694.108770032705
 20
1607.948393148872
 30
0.0
 11
7328.161048367666
 21
1607.948393148872
 31
0.0
  0
LINE
  5
21A3A
330
747D
100
AcDbEntity
  8
部品1
100
AcDbLine
 10
6694.108770032705
 20
1613.948393148872
 30
0.0
 11
7299.363203276303
 21
1613.94839314887
 31
0.0
  0
LINE
  5
21A3B
330
747D
100
AcDbEntity
  8
部品1
100
AcDbLine
 10
6694.108770032705
 20
1513.94839314887
 30
0.0
 11
7318.561766670545
 21
1513.94839314887
 31
0.0
  0
LINE
  5
21A3C
330
747D
100
AcDbEntity
  8
細線
 48
10.0
100
AcDbLine
 10
6908.124949401328
 20
1007.030195809584
 30
0.0
 11
7215.043146740589
 21
1313.948393148868
 31
0.0
  0
LINE
  5
21A3D
330
747D
100
AcDbEntity
  8
細線
 48
10.0
100
AcDbLine
 10
6851.556406906404
 20
1007.030195809584
 30
0.0
 11
7158.474604245681
 21
1313.948393148868
 31
0.0
  0
LINE
  5
21A3E
330
747D
100
AcDbEntity
  8
細線
 48
10.0
100
AcDbLine
 10
6879.840678153867
 20
1007.030195809584
 30
0.0
 11
7186.758875493136
 21
1313.948393148868
 31
0.0
  0
LINE
  5
21A3F
330
747D
100
AcDbEntity
  8
Ｇ．Ｌ
100
AcDbLine
 10
6694.10877003271
 20
1313.948393148868
 30
0.0
 11
8158.144008796991
 21
1313.948393148868
 31
0.0
  0
DIMENSION
  5
21A40
330
747D
100
AcDbEntity
  8
寸法
 48
50.0
100
AcDbDimension
  2
*D24
 10
7642.127213844709
 20
1313.948393148868
 30
0.0
 11
7542.127213844709
 21
1413.94839314887
 31
0.0
 70
    32
  1
b
 71
     5
 42
200.0000000000018
  3
INABA_S40G
100
AcDbAlignedDimension
 13
7419.91396638181
 23
1513.94839314887
 33
0.0
 14
7439.363203276299
 24
1313.948393148868
 34
0.0
 50
90.0
100
AcDbRotatedDimension
1001
ACAD
1000
DSTYLE
1002
{
1070
   174
1070
     0
1070
   272
1070
     1
1070
   288
1070
     0
1070
   341
1005
0
1002
}
  0
LINE
  5
21A41
330
747D
100
AcDbEntity
  8
細線
 48
10.0
100
AcDbLine
 10
7334.783338254151
 20
1007.030195809584
 30
0.0
 11
7641.70153559343
 21
1313.948393148868
 31
0.0
  0
LINE
  5
21A42
330
747D
100
AcDbEntity
  8
細線
 48
10.0
100
AcDbLine
 10
7278.21479575923
 20
1007.030195809584
 30
0.0
 11
7585.132993098503
 21
1313.948393148868
 31
0.0
  0
LINE
  5
21A43
330
747D
100
AcDbEntity
  8
細線
 48
10.0
100
AcDbLine
 10
7306.499067006689
 20
1007.030195809584
 30
0.0
 11
7613.417264345962
 21
1313.948393148868
 31
0.0
  0
LINE
  5
21A44
330
747D
100
AcDbEntity
  8
部品1
 48
50.0
100
AcDbLine
 10
8223.600000000001
 20
2293.187605537114
 30
0.0
 11
8223.600000000001
 21
373.187605537114
 31
0.0
  0
LINE
  5
21A45
330
747D
100
AcDbEntity
  8
部品1
100
AcDbLine
 10
7409.363203276304
 20
2113.948393148868
 30
0.0
 11
7409.363203276306
 21
1614.193862136875
 31
0.0
  0
LINE
  5
21A46
330
747D
100
AcDbEntity
  8
細線
 48
50.0
100
AcDbLine
 10
6864.363203276299
 20
2113.948393148868
 30
0.0
 11
6864.363203276299
 21
1613.94839314887
 31
0.0
  0
LINE
  5
21A47
330
747D
100
AcDbEntity
  8
細線
 48
50.0
100
AcDbLine
 10
6894.3632032763
 20
2113.948393148868
 30
0.0
 11
6894.3632032763
 21
1613.94839314887
 31
0.0
  0
LINE
  5
21A48
330
747D
100
AcDbEntity
  8
細線
 48
50.0
100
AcDbLine
 10
7144.3632032763
 20
2113.948393148868
 30
0.0
 11
7144.3632032763
 21
1613.94839314887
 31
0.0
  0
LINE
  5
21A49
330
747D
100
AcDbEntity
  8
細線
 48
50.0
100
AcDbLine
 10
7174.3632032763
 20
2113.948393148868
 30
0.0
 11
7174.3632032763
 21
1613.94839314887
 31
0.0
  0
LINE
  5
21A4A
330
747D
100
AcDbEntity
  8
部品1
100
AcDbLine
 10
7299.363203276303
 20
2113.948393148868
 30
0.0
 11
7299.363203276307
 21
1607.948393148872
 31
0.0
  0
LINE
  5
21A4B
330
747D
100
AcDbEntity
  8
細線
 48
50.0
100
AcDbLine
 10
8684.695807989282
 20
2213.948393148867
 30
0.0
 11
8684.695807989282
 21
1713.94839314887
 31
0.0
  0
LINE
  5
21A4C
330
747D
100
AcDbEntity
  8
細線
 48
50.0
100
AcDbLine
 10
8654.695807989282
 20
2213.948393148867
 30
0.0
 11
8654.695807989282
 21
1713.94839314887
 31
0.0
  0
LINE
  5
21A4D
330
747D
100
AcDbEntity
  8
細線
 48
50.0
100
AcDbLine
 10
8404.695807989282
 20
2213.948393148867
 30
0.0
 11
8404.695807989282
 21
1713.94839314887
 31
0.0
  0
LINE
  5
21A4E
330
747D
100
AcDbEntity
  8
細線
 48
50.0
100
AcDbLine
 10
8374.695807989281
 20
2213.948393148867
 30
0.0
 11
8374.695807989281
 21
1713.94839314887
 31
0.0
  0
LINE
  5
21A4F
330
747D
100
AcDbEntity
  8
部品1
100
AcDbLine
 10
8919.695807989285
 20
2213.948393148867
 30
0.0
 11
8919.695807989288
 21
1714.193862136875
 31
0.0
  0
LINE
  5
21A50
330
747D
100
AcDbEntity
  8
部品1
100
AcDbLine
 10
8809.695807989283
 20
2213.948393148867
 30
0.0
 11
8809.695807989289
 21
1707.94839314887
 31
0.0
  0
LINE
  5
21A51
330
747D
100
AcDbEntity
  8
Ｇ．Ｌ
100
AcDbLine
 10
8296.898411190573
 20
1313.948393148868
 30
0.0
 11
9741.790113195721
 21
1313.948393148868
 31
0.0
  0
LINE
  5
21A52
330
747D
100
AcDbEntity
  8
細線
 48
10.0
100
AcDbLine
 10
9333.918955133006
 20
1007.030195809584
 30
0.0
 11
9640.837152472284
 21
1313.948393148868
 31
0.0
  0
LINE
  5
21A53
330
747D
100
AcDbEntity
  8
細線
 48
10.0
100
AcDbLine
 10
9362.203226380463
 20
1007.030195809584
 30
0.0
 11
9669.121423719737
 21
1313.948393148868
 31
0.0
  0
LINE
  5
21A54
330
747D
100
AcDbEntity
  8
細線
 48
10.0
100
AcDbLine
 10
9390.48749762793
 20
1007.030195809584
 30
0.0
 11
9697.40569496721
 21
1313.948393148868
 31
0.0
  0
TEXT
  5
21A55
330
747D
100
AcDbEntity
  8
部品1
100
AcDbText
 10
9369.766042641071
 20
1321.854434827772
 30
0.0
 40
120.0
  1
▽G.L
  7
STYLE1
100
AcDbText
  0
DIMENSION
  5
21A59
330
747D
100
AcDbEntity
  8
寸法
 48
50.0
100
AcDbDimension
  2
*D25
 10
6896.88811655075
 20
5989.626127077598
 30
0.0
 11
6796.876305527128
 21
7305.626127077599
 31
0.0
 70
    32
 71
     5
 42
2632.0
  3
INABA_S40G
100
AcDbAlignedDimension
 13
7537.600000000002
 23
8621.626127077597
 33
0.0
 14
7537.600000000001
 24
5989.626127077598
 34
0.0
 50
90.0
100
AcDbRotatedDimension
1001
ACAD
1000
DSTYLE
1002
{
1070
   174
1070
     0
1070
   272
1070
     1
1070
   288
1070
     0
1070
   341
1005
0
1002
}
  0
TEXT
  5
21A5B
330
747D
100
AcDbEntity
  8
部品1
100
AcDbText
 10
5235.75336143857
 20
2351.472721878318
 30
0.0
 40
120.0
  1
地盤が土の場合
  7
STYLE2
100
AcDbText
  0
LINE
  5
21A5C
330
747D
100
AcDbEntity
  8
部品1
 48
50.0
100
AcDbLine
 10
6006.3077022632
 20
1313.948393148868
 30
0.0
 11
6006.3077022632
 21
813.9483931488703
 31
0.0
  0
CIRCLE
  5
21A5D
330
747D
100
AcDbEntity
  8
部品1
100
AcDbCircle
 10
5766.307702263201
 20
1557.948393148868
 30
0.0
 40
16.0
  0
ARC
  5
21A5E
330
747D
100
AcDbEntity
  8
部品1
100
AcDbCircle
 10
5796.307702263201
 20
1577.948393148868
 30
0.0
 40
10.0
100
AcDbArc
 50
0.0
 51
90.0
  0
LINE
  5
21A5F
330
747D
100
AcDbEntity
  8
細線
100
AcDbLine
 10
5774.3077022632
 20
1527.948393148868
 30
0.0
 11
5774.3077022632
 21
1487.948393148868
 31
0.0
  0
LINE
  5
21A60
330
747D
100
AcDbEntity
  8
細線
100
AcDbLine
 10
5758.3077022632
 20
1527.948393148868
 30
0.0
 11
5758.3077022632
 21
1487.948393148868
 31
0.0
  0
ARC
  5
21A61
330
747D
100
AcDbEntity
  8
細線
100
AcDbCircle
 10
5766.307702263201
 20
1487.948393148868
 30
0.0
 40
8.0
100
AcDbArc
 50
180.0
 51
0.0
  0
ARC
  5
21A62
330
747D
100
AcDbEntity
  8
細線
100
AcDbCircle
 10
5766.307702263201
 20
1527.948393148868
 30
0.0
 40
8.0
100
AcDbArc
 50
0.0
 51
180.0
  0
ARC
  5
21A63
330
747D
100
AcDbEntity
  8
部品1
100
AcDbCircle
 10
5736.3077022632
 20
1577.948393148868
 30
0.0
 40
10.0
100
AcDbArc
 50
90.0
 51
180.0
  0
LINE
  5
21A64
330
747D
100
AcDbEntity
  8
部品1
100
AcDbLine
 10
5736.3077022632
 20
1587.948393148868
 30
0.0
 11
5796.307702263201
 21
1587.948393148868
 31
0.0
  0
LINE
  5
21A65
330
747D
100
AcDbEntity
  8
細線
100
AcDbLine
 10
5758.3077022632
 20
1249.091986688318
 30
0.0
 11
5758.3077022632
 21
1223.348393148864
 31
0.0
  0
LINE
  5
21A66
330
747D
100
AcDbEntity
  8
細線
100
AcDbLine
 10
5774.3077022632
 20
1249.091986688318
 30
0.0
 11
5774.3077022632
 21
1223.348393148864
 31
0.0
  0
LINE
  5
21A67
330
747D
100
AcDbEntity
  8
細線
100
AcDbLine
 10
5780.307702263201
 20
1193.34839314887
 30
0.0
 11
5781.307702263201
 21
1193.348393148866
 31
0.0
  0
LINE
  5
21A68
330
747D
100
AcDbEntity
  8
細線
100
AcDbLine
 10
5781.307702263201
 20
1199.348393148864
 30
0.0
 11
5781.307702263201
 21
1193.348393148864
 31
0.0
  0
ARC
  5
21A69
330
747D
100
AcDbEntity
  8
細線
100
AcDbCircle
 10
5774.184596637586
 20
1185.348393148863
 30
0.0
 40
4.0
100
AcDbArc
 50
270.0
 51
345.9637565320483
  0
LINE
  5
21A6A
330
747D
100
AcDbEntity
  8
細線
100
AcDbLine
 10
5780.307702263201
 20
1193.348393148864
 30
0.0
 11
5778.065166638162
 21
1184.378250648715
 31
0.0
  0
LINE
  5
21A6B
330
747D
100
AcDbEntity
  8
細線
100
AcDbLine
 10
5780.307702263201
 20
1197.948393148865
 30
0.0
 11
5780.307702263201
 21
1193.348393148866
 31
0.0
  0
ARC
  5
21A6C
330
747D
100
AcDbEntity
  8
細線
100
AcDbCircle
 10
5758.430807888823
 20
1185.348393148861
 30
0.0
 40
4.0
100
AcDbArc
 50
194.0362434679517
 51
270.0
  0
LINE
  5
21A6D
330
747D
100
AcDbEntity
  8
細線
100
AcDbLine
 10
5752.307702263201
 20
1193.348393148864
 30
0.0
 11
5754.550237888239
 21
1184.378250648715
 31
0.0
  0
LINE
  5
21A6E
330
747D
100
AcDbEntity
  8
細線
100
AcDbLine
 10
5752.307702263201
 20
1197.948393148863
 30
0.0
 11
5752.307702263201
 21
1193.348393148866
 31
0.0
  0
LINE
  5
21A6F
330
747D
100
AcDbEntity
  8
細線
100
AcDbLine
 10
5758.430807888823
 20
1181.348393148859
 30
0.0
 11
5774.184596637586
 21
1181.348393148864
 31
0.0
  0
LINE
  5
21A70
330
747D
100
AcDbEntity
  8
細線
100
AcDbLine
 10
5751.307702263201
 20
1197.948393148863
 30
0.0
 11
5781.307702263201
 21
1197.948393148868
 31
0.0
  0
LINE
  5
21A71
330
747D
100
AcDbEntity
  8
細線
100
AcDbLine
 10
5751.307702263201
 20
1199.34839314887
 30
0.0
 11
5751.307702263201
 21
1193.348393148866
 31
0.0
  0
ARC
  5
21A72
330
747D
100
AcDbEntity
  8
細線
100
AcDbCircle
 10
5766.307702263201
 20
1223.348393148864
 30
0.0
 40
8.0
100
AcDbArc
 50
180.0
 51
0.0
  0
LINE
  5
21A73
330
747D
100
AcDbEntity
  8
細線
100
AcDbLine
 10
5751.307702263201
 20
1199.34839314887
 30
0.0
 11
5781.307702263201
 21
1199.348393148866
 31
0.0
  0
LINE
  5
21A74
330
747D
100
AcDbEntity
  8
細線
100
AcDbLine
 10
5751.307702263201
 20
1193.34839314887
 30
0.0
 11
5752.307702263201
 21
1193.34839314887
 31
0.0
  0
CIRCLE
  5
21A75
330
747D
100
AcDbEntity
  8
細線
100
AcDbCircle
 10
5766.307702263201
 20
1262.948393148868
 30
0.0
 40
16.0
  0
CIRCLE
  5
21A76
330
747D
100
AcDbEntity
  8
細線
100
AcDbCircle
 10
5766.307702263201
 20
1417.94839314887
 30
0.0
 40
7.0
  0
CIRCLE
  5
21A77
330
747D
100
AcDbEntity
  8
細線
100
AcDbCircle
 10
5766.307702263201
 20
1417.94839314887
 30
0.0
 40
6.0
  0
ARC
  5
21A78
330
747D
100
AcDbEntity
  8
部品1
100
AcDbCircle
 10
5797.253642782957
 20
1275.348393148863
 30
0.0
 40
10.0
100
AcDbArc
 50
5.68424159818561
 51
90.0
  0
LINE
  5
21A79
330
747D
100
AcDbEntity
  8
細線
  6
HIDDEN
 48
10.0
100
AcDbLine
 10
5806.855147920089
 20
1278.143227509186
 30
0.0
 11
5842.660313559771
 21
1313.94839314887
 31
0.0
  0
LINE
  5
21A7A
330
747D
100
AcDbEntity
  8
細線
  6
HIDDEN
 48
10.0
100
AcDbLine
 10
5806.3077022632
 20
1305.880053099756
 30
0.0
 11
5814.376042312314
 21
1313.948393148868
 31
0.0
  0
ARC
  5
21A7B
330
747D
100
AcDbEntity
  8
部品1
100
AcDbCircle
 10
5735.361761743445
 20
1275.348393148866
 30
0.0
 40
10.0
100
AcDbArc
 50
90.0
 51
174.3157584018144
  0
LINE
  5
21A7C
330
747D
100
AcDbEntity
  8
部品1
100
AcDbLine
 10
5735.361761743445
 20
1285.348393148868
 30
0.0
 11
5797.253642782957
 21
1285.348393148862
 31
0.0
  0
LINE
  5
21A7D
330
747D
100
AcDbEntity
  8
部品1
100
AcDbLine
 10
5726.3077022632
 20
1577.948393148868
 30
0.0
 11
5726.3077022632
 21
1279.593862136877
 31
0.0
  0
LINE
  5
21A7E
330
747D
100
AcDbEntity
  8
部品1
100
AcDbLine
 10
5806.3077022632
 20
1576.948393148868
 30
0.0
 11
5806.307702263204
 21
1279.593862136877
 31
0.0
  0
LINE
  5
21A7F
330
747D
100
AcDbEntity
  8
細線
100
AcDbLine
 10
5726.3077022632
 20
1348.677232691956
 30
0.0
 11
5561.036541806288
 21
1513.948393148868
 31
0.0
  0
LINE
  5
21A80
330
747D
100
AcDbEntity
  8
細線
100
AcDbLine
 10
5492.335964955398
 20
1313.948393148868
 30
0.0
 11
5406.307702263201
 21
1399.976655841068
 31
0.0
  0
LINE
  5
21A81
330
747D
100
AcDbEntity
  8
部品1
100
AcDbLine
 10
5406.307702263201
 20
1313.948393148868
 30
0.0
 11
5406.307702263201
 21
1513.948393148868
 31
0.0
  0
LINE
  5
21A82
330
747D
100
AcDbEntity
  8
細線
100
AcDbLine
 10
5718.610134935095
 20
1313.948393148868
 30
0.0
 11
5518.610134935095
 21
1513.948393148868
 31
0.0
  0
LINE
  5
21A83
330
747D
100
AcDbEntity
  8
細線
100
AcDbLine
 10
5534.762371826591
 20
1313.948393148868
 30
0.0
 11
5406.307702263201
 21
1442.403062712261
 31
0.0
  0
LINE
  5
21A84
330
747D
100
AcDbEntity
  8
部品1
100
AcDbLine
 10
5836.307702263201
 20
991.3483931488681
 30
0.0
 11
5836.307702263201
 21
979.3483931488681
 31
0.0
  0
LINE
  5
21A85
330
747D
100
AcDbEntity
  8
細線
100
AcDbLine
 10
5781.307702263201
 20
1049.348393148862
 30
0.0
 11
5781.307702263201
 21
1043.348393148862
 31
0.0
  0
LINE
  5
21A86
330
747D
100
AcDbEntity
  8
細線
100
AcDbLine
 10
5781.307702263201
 20
1009.348393148864
 30
0.0
 11
5781.307702263201
 21
1003.348393148864
 31
0.0
  0
LINE
  5
21A87
330
747D
100
AcDbEntity
  8
細線
100
AcDbLine
 10
5751.307702263201
 20
1049.348393148872
 30
0.0
 11
5751.307702263201
 21
1043.348393148866
 31
0.0
  0
LINE
  5
21A88
330
747D
100
AcDbEntity
  8
細線
100
AcDbLine
 10
5751.307702263201
 20
1009.34839314887
 30
0.0
 11
5751.307702263201
 21
1003.348393148866
 31
0.0
  0
LINE
  5
21A89
330
747D
100
AcDbEntity
  8
細線
100
AcDbLine
 10
5751.307702263201
 20
1043.348393148872
 30
0.0
 11
5781.307702263201
 21
1043.348393148866
 31
0.0
  0
LINE
  5
21A8A
330
747D
100
AcDbEntity
  8
細線
100
AcDbLine
 10
5751.307702263201
 20
1049.348393148872
 30
0.0
 11
5781.307702263201
 21
1049.348393148866
 31
0.0
  0
LINE
  5
21A8B
330
747D
100
AcDbEntity
  8
細線
100
AcDbLine
 10
5751.307702263201
 20
1009.34839314887
 30
0.0
 11
5781.307702263201
 21
1009.348393148866
 31
0.0
  0
LINE
  5
21A8C
330
747D
100
AcDbEntity
  8
細線
100
AcDbLine
 10
5751.307702263201
 20
1003.34839314887
 30
0.0
 11
5781.307702263201
 21
1003.348393148866
 31
0.0
  0
LINE
  5
21A8D
330
747D
100
AcDbEntity
  8
部品1
100
AcDbLine
 10
5696.307702263201
 20
991.3483931488663
 30
0.0
 11
5696.307702263201
 21
979.3483931488681
 31
0.0
  0
LINE
  5
21A8E
330
747D
100
AcDbEntity
  8
部品1
100
AcDbLine
 10
5696.307702263201
 20
979.3483931488681
 30
0.0
 11
5836.307702263201
 21
979.3483931488681
 31
0.0
  0
LINE
  5
21A8F
330
747D
100
AcDbEntity
  8
部品1
100
AcDbLine
 10
5696.307702263201
 20
991.3483931488681
 30
0.0
 11
5836.307702263201
 21
991.3483931488681
 31
0.0
  0
LINE
  5
21A90
330
747D
100
AcDbEntity
  8
部品1
100
AcDbLine
 10
5807.204471271276
 20
1276.33885384777
 30
0.0
 11
5836.307702263201
 21
991.3483931488681
 31
0.0
  0
LINE
  5
21A91
330
747D
100
AcDbEntity
  8
部品1
100
AcDbLine
 10
5725.410933255132
 20
1276.33885384777
 30
0.0
 11
5696.307702263201
 21
991.3483931488681
 31
0.0
  0
LINE
  5
21A92
330
747D
100
AcDbEntity
  8
細線
  6
HIDDEN
 48
10.0
100
AcDbLine
 10
5506.3077022632
 20
977.5957818522766
 30
0.0
 11
5716.353128019824
 21
1187.641207608922
 31
0.0
  0
LINE
  5
21A93
330
747D
100
AcDbEntity
  8
細線
  6
HIDDEN
 48
10.0
100
AcDbLine
 10
5506.3077022632
 20
1034.164324347201
 30
0.0
 11
5722.786928413038
 21
1250.643550497045
 31
0.0
  0
LINE
  5
21A94
330
747D
100
AcDbEntity
  8
細線
  6
HIDDEN
 48
10.0
100
AcDbLine
 10
5506.3077022632
 20
1005.880053099741
 30
0.0
 11
5719.570028216434
 21
1219.142379052986
 31
0.0
  0
LINE
  5
21A95
330
747D
100
AcDbEntity
  8
部品1
 48
50.0
100
AcDbLine
 10
5506.3077022632
 20
813.9483931488685
 30
0.0
 11
5506.3077022632
 21
1313.948393148868
 31
0.0
  0
LINE
  5
21A96
330
747D
100
AcDbEntity
  8
Ｇ．Ｌ
100
AcDbLine
 10
5806.3077022632
 20
1313.948393148868
 30
0.0
 11
6558.403944501539
 21
1313.948393148868
 31
0.0
  0
LINE
  5
21A97
330
747D
100
AcDbEntity
  8
細線
  6
HIDDEN
 48
10.0
100
AcDbLine
 10
5769.318702412618
 20
813.9483931488685
 30
0.0
 11
6006.3077022632
 21
1050.937392999456
 31
0.0
  0
LINE
  5
21A98
330
747D
100
AcDbEntity
  8
細線
  6
HIDDEN
 48
10.0
100
AcDbLine
 10
5712.7501599177
 20
813.9483931488685
 30
0.0
 11
6006.3077022632
 21
1107.50593549438
 31
0.0
  0
LINE
  5
21A99
330
747D
100
AcDbEntity
  8
細線
  6
HIDDEN
 48
10.0
100
AcDbLine
 10
5741.034431165159
 20
813.9483931488685
 30
0.0
 11
6006.3077022632
 21
1079.221664246919
 31
0.0
  0
TEXT
  5
21A9A
330
747D
100
AcDbEntity
  8
部品1
100
AcDbText
 10
6190.871249332811
 20
1321.854434827772
 30
0.0
 40
120.0
  1
▽G.L
  7
STYLE1
100
AcDbText
  0
LINE
  5
21A9B
330
747D
100
AcDbEntity
  8
部品1
 48
50.0
100
AcDbLine
 10
6006.3077022632
 20
813.9483931488703
 30
0.0
 11
5506.3077022632
 21
813.9483931488685
 31
0.0
  0
LINE
  5
21A9C
330
747D
100
AcDbEntity
  8
細線
100
AcDbLine
 10
4275.268669817336
 20
1213.948393148868
 30
0.0
 11
4261.87121019578
 21
1163.94839314887
 31
0.0
  0
LINE
  5
21A9D
330
747D
100
AcDbEntity
  8
細線
100
AcDbLine
 10
4375.26866981734
 20
1213.948393148868
 30
0.0
 11
4361.871210195781
 21
1163.94839314887
 31
0.0
  0
LINE
  5
21A9E
330
747D
100
AcDbEntity
  8
細線
100
AcDbLine
 10
4247.370780282255
 20
1213.948393148868
 30
0.0
 11
4347.370780282251
 21
1313.94839314887
 31
0.0
  0
LINE
  5
21A9F
330
747D
100
AcDbEntity
  8
細線
100
AcDbLine
 10
4275.655051529715
 20
1213.948393148868
 30
0.0
 11
4375.655051529714
 21
1313.94839314887
 31
0.0
  0
LINE
  5
21AA0
330
747D
100
AcDbEntity
  8
部品1
100
AcDbLine
 10
4348.473750574225
 20
1513.948393148868
 30
0.0
 11
4348.473750574225
 21
1313.94839314887
 31
0.0
  0
TEXT
  5
21AA1
330
747D
100
AcDbEntity
  8
部品1
100
AcDbText
 10
4571.726376441655
 20
1321.854434827774
 30
0.0
 40
120.0
  1
▽G.L
  7
STYLE1
100
AcDbText
  0
LINE
  5
21AA2
330
747D
100
AcDbEntity
  8
細線
100
AcDbLine
 10
4288.666129438896
 20
1063.948393148868
 30
0.0
 11
4275.268669817336
 21
1013.948393148868
 31
0.0
  0
LINE
  5
21AA3
330
747D
100
AcDbEntity
  8
細線
100
AcDbLine
 10
4388.666129438892
 20
1063.948393148868
 30
0.0
 11
4375.26866981734
 21
1013.948393148868
 31
0.0
  0
LINE
  5
21AA4
330
747D
100
AcDbEntity
  8
部品1
100
AcDbLine
 10
4448.473750574225
 20
1313.94839314887
 30
0.0
 11
4448.473750574225
 21
1013.948393148868
 31
0.0
  0
LINE
  5
21AA5
330
747D
100
AcDbEntity
  8
細線
100
AcDbLine
 10
4248.473750574229
 20
1213.948393148868
 30
0.0
 11
4302.063589060447
 21
1013.948393148865
 31
0.0
  0
LINE
  5
21AA6
330
747D
100
AcDbEntity
  8
細線
100
AcDbLine
 10
4348.473750574225
 20
1213.948393148868
 30
0.0
 11
4402.063589060448
 21
1013.948393148868
 31
0.0
  0
LINE
  5
21AA7
330
747D
100
AcDbEntity
  8
部品1
100
AcDbLine
 10
5091.053269019607
 20
1613.94839314887
 30
0.0
 11
5696.307702263201
 21
1613.948393148868
 31
0.0
  0
LINE
  5
21AA8
330
747D
100
AcDbEntity
  8
部品1
100
AcDbLine
 10
5091.053269019607
 20
1513.948393148868
 30
0.0
 11
5726.3077022632
 21
1513.948393148868
 31
0.0
  0
LINE
  5
21AA9
330
747D
100
AcDbEntity
  8
Ｇ．Ｌ
100
AcDbLine
 10
5091.053269019607
 20
1313.948393148868
 30
0.0
 11
5726.3077022632
 21
1313.948393148868
 31
0.0
  0
DIMENSION
  5
21AAA
330
747D
100
AcDbEntity
  8
寸法
 48
50.0
100
AcDbDimension
  2
*D26
 10
5314.362273998908
 20
813.9483931488685
 30
0.0
 11
5314.362273998908
 21
1056.037982993952
 31
0.0
 70
   160
  1
200
 71
     5
 42
499.9999999999999
  3
INABA_S40G
100
AcDbAlignedDimension
 13
5406.307702263201
 23
1313.948393148868
 33
0.0
 14
5506.3077022632
 24
813.9483931488685
 34
0.0
 50
90.0
100
AcDbRotatedDimension
1001
ACAD
1000
DSTYLE
1002
{
1070
   174
1070
     0
1070
   272
1070
     1
1070
   288
1070
     0
1070
   341
1005
0
1002
}
  0
LINE
  5
21AAB
330
747D
100
AcDbEntity
  8
部品1
100
AcDbLine
 10
5091.053269019607
 20
1607.948393148868
 30
0.0
 11
5806.3077022632
 21
1607.948393148868
 31
0.0
  0
LINE
  5
21AAC
330
747D
100
AcDbEntity
  8
部品1
100
AcDbLine
 10
5696.307702263201
 20
2113.948393148866
 30
0.0
 11
5696.307702263204
 21
1607.94839314887
 31
0.0
  0
LINE
  5
21AAD
330
747D
100
AcDbEntity
  8
部品1
100
AcDbLine
 10
5806.3077022632
 20
2113.948393148866
 30
0.0
 11
5806.3077022632
 21
1313.948393148868
 31
0.0
  0
LINE
  5
21AAE
330
747D
100
AcDbEntity
  8
部品1
 48
50.0
100
AcDbLine
 10
5023.6
 20
2773.187605537114
 30
0.0
 11
5023.6
 21
373.187605537114
 31
0.0
  0
LINE
  5
21AAF
330
747D
100
AcDbEntity
  8
部品1
 48
50.0
100
AcDbLine
 10
6623.6
 20
2533.187605537114
 30
0.0
 11
6623.6
 21
373.187605537114
 31
0.0
  0
LINE
  5
21AB0
330
747D
100
AcDbEntity
  8
細線
 48
50.0
100
AcDbLine
 10
5541.307702263201
 20
2113.948393148866
 30
0.0
 11
5541.307702263201
 21
1613.948393148868
 31
0.0
  0
LINE
  5
21AB1
330
747D
100
AcDbEntity
  8
細線
 48
50.0
100
AcDbLine
 10
5571.307702263201
 20
2113.948393148866
 30
0.0
 11
5571.307702263201
 21
1613.948393148868
 31
0.0
  0
LINE
  5
21AB2
330
747D
100
AcDbEntity
  8
細線
 48
50.0
100
AcDbLine
 10
5291.307702263201
 20
2113.948393148866
 30
0.0
 11
5291.307702263201
 21
1613.948393148868
 31
0.0
  0
LINE
  5
21AB3
330
747D
100
AcDbEntity
  8
細線
 48
50.0
100
AcDbLine
 10
5261.3077022632
 20
2113.948393148866
 30
0.0
 11
5261.3077022632
 21
1613.948393148868
 31
0.0
  0
LINE
  5
21AB4
330
747D
100
AcDbEntity
  8
細線
100
AcDbLine
 10
4175.268669817336
 20
1213.948393148868
 30
0.0
 11
4161.871210195784
 21
1163.94839314887
 31
0.0
  0
LINE
  5
21AB5
330
747D
100
AcDbEntity
  8
細線
100
AcDbLine
 10
4075.26866981734
 20
1213.948393148868
 30
0.0
 11
4061.871210195781
 21
1163.94839314887
 31
0.0
  0
LINE
  5
21AB6
330
747D
100
AcDbEntity
  8
細線
100
AcDbLine
 10
3875.268669817336
 20
1213.948393148867
 30
0.0
 11
3861.871210195785
 21
1163.948393148865
 31
0.0
  0
LINE
  5
21AB7
330
747D
100
AcDbEntity
  8
細線
100
AcDbLine
 10
3975.268669817337
 20
1213.948393148867
 30
0.0
 11
3961.871210195781
 21
1163.948393148865
 31
0.0
  0
LINE
  5
21AB8
330
747D
100
AcDbEntity
  8
細線
100
AcDbLine
 10
3919.086509034793
 20
1213.948393148867
 30
0.0
 11
4019.086509034792
 21
1313.94839314887
 31
0.0
  0
LINE
  5
21AB9
330
747D
100
AcDbEntity
  8
細線
100
AcDbLine
 10
3947.370780282255
 20
1213.948393148868
 30
0.0
 11
4047.370780282252
 21
1313.94839314887
 31
0.0
  0
LINE
  5
21ABA
330
747D
100
AcDbEntity
  8
細線
100
AcDbLine
 10
4068.241788433688
 20
1313.94839314887
 30
0.0
 11
3948.473750574229
 21
1433.71643100833
 31
0.0
  0
LINE
  5
21ABB
330
747D
100
AcDbEntity
  8
細線
100
AcDbLine
 10
3975.655051529719
 20
1213.948393148868
 30
0.0
 11
4075.655051529714
 21
1313.94839314887
 31
0.0
  0
LINE
  5
21ABC
330
747D
100
AcDbEntity
  8
細線
100
AcDbLine
 10
4110.668195304881
 20
1313.94839314887
 30
0.0
 11
3948.473750574225
 21
1476.142837879522
 31
0.0
  0
LINE
  5
21ABD
330
747D
100
AcDbEntity
  8
部品1
100
AcDbLine
 10
3948.473750574229
 20
1313.94839314887
 30
0.0
 11
3948.473750574229
 21
1513.948393148868
 31
0.0
  0
LINE
  5
21ABE
330
747D
100
AcDbEntity
  8
細線
100
AcDbLine
 10
4188.666129438892
 20
1063.948393148868
 30
0.0
 11
4175.268669817336
 21
1013.948393148868
 31
0.0
  0
LINE
  5
21ABF
330
747D
100
AcDbEntity
  8
細線
100
AcDbLine
 10
4088.666129438892
 20
1063.948393148868
 30
0.0
 11
4075.26866981734
 21
1013.948393148868
 31
0.0
  0
LINE
  5
21AC0
330
747D
100
AcDbEntity
  8
細線
100
AcDbLine
 10
3888.666129438892
 20
1063.948393148867
 30
0.0
 11
3875.268669817336
 21
1013.948393148865
 31
0.0
  0
LINE
  5
21AC1
330
747D
100
AcDbEntity
  8
細線
100
AcDbLine
 10
3988.666129438896
 20
1063.948393148867
 30
0.0
 11
3975.268669817337
 21
1013.948393148865
 31
0.0
  0
LINE
  5
21AC2
330
747D
100
AcDbEntity
  8
部品1
100
AcDbLine
 10
3848.473750574225
 20
1013.948393148865
 30
0.0
 11
3848.473750574225
 21
1313.94839314887
 31
0.0
  0
LINE
  5
21AC3
330
747D
100
AcDbEntity
  8
細線
100
AcDbLine
 10
3848.473750574225
 20
1213.948393148867
 30
0.0
 11
3902.063589060452
 21
1013.948393148863
 31
0.0
  0
LINE
  5
21AC4
330
747D
100
AcDbEntity
  8
細線
100
AcDbLine
 10
4148.473750574225
 20
1213.948393148868
 30
0.0
 11
4202.063589060451
 21
1013.948393148865
 31
0.0
  0
LINE
  5
21AC5
330
747D
100
AcDbEntity
  8
細線
100
AcDbLine
 10
4048.473750574225
 20
1213.948393148868
 30
0.0
 11
4102.063589060448
 21
1013.948393148865
 31
0.0
  0
LINE
  5
21AC6
330
747D
100
AcDbEntity
  8
細線
100
AcDbLine
 10
3948.473750574229
 20
1213.948393148867
 30
0.0
 11
4002.063589060448
 21
1013.948393148863
 31
0.0
  0
LINE
  5
21AC7
330
747D
100
AcDbEntity
  8
部品1
 48
50.0
100
AcDbLine
 10
3423.6
 20
2773.187605537114
 30
0.0
 11
3423.6
 21
373.187605537114
 31
0.0
  0
LINE
  5
21AC8
330
747D
100
AcDbEntity
  8
部品1
100
AcDbLine
 10
3848.473750574225
 20
1013.948393148865
 30
0.0
 11
4448.473750574225
 21
1013.948393148868
 31
0.0
  0
LINE
  5
21AC9
330
747D
100
AcDbEntity
  8
部品1
100
AcDbLine
 10
3848.473750574225
 20
1213.948393148867
 30
0.0
 11
4448.473750574225
 21
1213.948393148868
 31
0.0
  0
LINE
  5
21ACA
330
747D
100
AcDbEntity
  8
部品1
100
AcDbLine
 10
3948.473750574229
 20
1513.948393148868
 30
0.0
 11
4348.473750574225
 21
1513.948393148868
 31
0.0
  0
LINE
  5
21ACB
330
747D
100
AcDbEntity
  8
Ｇ．Ｌ
100
AcDbLine
 10
3518.372744528902
 20
1313.94839314887
 30
0.0
 11
4949.266028352062
 21
1313.94839314887
 31
0.0
  0
LINE
  5
21ACC
330
747D
100
AcDbEntity
  8
細線
100
AcDbLine
 10
4336.942365284574
 20
1313.94839314887
 30
0.0
 11
4136.942365284578
 21
1513.948393148868
 31
0.0
  0
TEXT
  5
21ACD
330
747D
100
AcDbEntity
  8
部品1
100
AcDbText
 10
3889.200021004799
 20
2481.159822715436
 30
0.0
 40
120.0
  1
基礎詳細
  7
STYLE2
100
AcDbText
  0
MTEXT
  5
21ACE
102
{ACAD_REACTORS
330
21ACF
102
}
330
747D
100
AcDbEntity
  8
寸法
 62
     7
 48
50.0
100
AcDbMText
 10
4386.005607299015
 20
1811.800310957637
 30
0.0
 40
120.0
 41
1.0
 71
     4
 72
     1
  1
\A1;C.B
  7
STYLE1
 73
     1
 44
1.0
1001
ACAD
1000
MTEXTBEGIN
1070
    73
1070
     1
1070
    44
1040
1.0
1070
    74
1070
     0
1000
MTEXTEND
  0
LEADER
  5
21ACF
330
747D
100
AcDbEntity
  8
寸法
 48
50.0
100
AcDbLeader
  3
INABA_S50G
 71
     0
 73
     0
 74
     0
 75
     1
 40
120.0
 41
185.591883092037
 76
     3
 10
4148.473750574226
 20
1513.948393148868
 30
0.0
 10
4303.737333145403
 20
1726.800310957636
 30
0.0
 10
4428.737333145403
 20
1726.800310957636
 30
0.0
340
21ACE
213
67.73172584638814
223
0.0
233
0.0
1001
ACAD
1000
DSTYLE
1002
{
1070
    40
1040
1.0
1002
}
  0
LINE
  5
21AD0
330
747D
100
AcDbEntity
  8
細線
100
AcDbLine
 10
4294.515958413382
 20
1313.94839314887
 30
0.0
 11
4094.515958413385
 21
1513.948393148868
 31
0.0
  0
LINE
  5
21AD1
330
747D
100
AcDbEntity
  8
細線
100
AcDbLine
 10
4219.086509034792
 20
1213.948393148868
 30
0.0
 11
4319.086509034788
 21
1313.94839314887
 31
0.0
  0
DIMENSION
  5
21AD4
330
747D
100
AcDbEntity
  8
寸法
 48
50.0
100
AcDbDimension
  2
*D27
 10
8909.600000000001
 20
9014.038714749219
 30
0.0
 11
8223.600000000001
 21
9114.050525772841
 31
0.0
 70
    32
 71
     5
 42
1372.0
  3
INABA_S40G
100
AcDbAlignedDimension
 13
7537.600000000001
 23
8621.626127077597
 33
0.0
 14
8909.600000000001
 24
8621.626127077597
 34
0.0
100
AcDbRotatedDimension
1001
ACAD
1000
DSTYLE
1002
{
1070
   174
1070
     0
1070
   272
1070
     1
1070
   288
1070
     0
1070
   341
1005
0
1002
}
  0
TEXT
  5
21AD5
330
747D
100
AcDbEntity
  8
部品1
100
AcDbText
 10
6677.327316378693
 20
2587.251420139848
 30
0.0
 40
120.0
  1
アンカー部詳細
  7
STYLE2
100
AcDbText
  0
LINE
  5
21AD6
330
747D
100
AcDbEntity
  8
部品1
 48
50.0
100
AcDbLine
 10
3423.6
 20
373.187605537114
 30
0.0
 11
9823.6
 21
373.187605537114
 31
0.0
  0
LINE
  5
21AD7
330
747D
100
AcDbEntity
  8
部品1
 48
50.0
100
AcDbLine
 10
9823.6
 20
2773.187605537114
 30
0.0
 11
3423.6
 21
2773.187605537116
 31
0.0
  0
LINE
  5
21AD8
330
747D
100
AcDbEntity
  8
部品1
 48
50.0
100
AcDbLine
 10
9823.6
 20
2533.187605537114
 30
0.0
 11
5023.6
 21
2533.187605537114
 31
0.0
  0
LINE
  5
21AD9
330
747D
100
AcDbEntity
  8
部品1
 48
50.0
100
AcDbLine
 10
3423.6
 20
2293.187605537114
 30
0.0
 11
9823.6
 21
2293.187605537114
 31
0.0
  0
DIMENSION
  5
21ADA
330
747D
100
AcDbEntity
  8
寸法
 48
50.0
100
AcDbDimension
  2
*D28
 10
9309.230456706016
 20
5889.626127077595
 30
0.0
 11
9309.230456706016
 21
6339.196993219329
 31
0.0
 70
   160
 71
     5
 42
200.0
  3
INABA_S40G
100
AcDbAlignedDimension
 13
9009.600000000002
 23
6089.626127077595
 33
0.0
 14
9009.600000000002
 24
5889.626127077595
 34
0.0
 50
90.0
100
AcDbRotatedDimension
1001
ACAD
1000
DSTYLE
1002
{
1070
   174
1070
     0
1070
   272
1070
     1
1070
   288
1070
     0
1070
   341
1005
0
1002
}
  0
DIMENSION
  5
21ADB
330
747D
100
AcDbEntity
  8
寸法
 48
50.0
100
AcDbDimension
  2
*D29
 10
8809.600000000001
 20
5624.777268598587
 30
0.0
 11
9259.170866141735
 21
5624.777268598587
 31
0.0
 70
   160
 71
     5
 42
200.0
  3
INABA_S40G
100
AcDbAlignedDimension
 13
9009.600000000002
 23
5889.626127077595
 33
0.0
 14
8809.600000000001
 24
5889.626127077595
 34
0.0
100
AcDbRotatedDimension
1001
ACAD
1000
DSTYLE
1002
{
1070
   174
1070
     0
1070
   272
1070
     1
1070
   288
1070
     0
1070
   341
1005
0
1002
}
  0
LINE
  5
21AE0
330
747D
100
AcDbEntity
  8
部品1
 48
50.0
100
AcDbLine
 10
7737.6
 20
8621.626127077595
 30
0.0
 11
7537.600000000001
 21
8621.626127077595
 31
0.0
  0
LINE
  5
21AE1
330
747D
100
AcDbEntity
  8
部品1
 48
50.0
100
AcDbLine
 10
7737.6
 20
8221.626127077595
 30
0.0
 11
7537.600000000001
 21
8221.626127077595
 31
0.0
  0
LINE
  5
21AE2
330
747D
100
AcDbEntity
  8
部品1
 48
50.0
100
AcDbLine
 10
7537.600000000001
 20
8221.626127077596
 30
0.0
 11
7537.600000000001
 21
8621.626127077597
 31
0.0
  0
LINE
  5
21AE3
330
747D
100
AcDbEntity
  8
部品1
 48
50.0
100
AcDbLine
 10
7737.6
 20
8221.626127077596
 30
0.0
 11
7737.6
 21
8621.626127077597
 31
0.0
  0
LINE
  5
21AE4
330
747D
100
AcDbEntity
  8
部品1
 48
50.0
100
AcDbLine
 10
7737.6
 20
5989.626127077598
 30
0.0
 11
7737.6
 21
6389.626127077598
 31
0.0
  0
LINE
  5
21AE5
330
747D
100
AcDbEntity
  8
部品1
 48
50.0
100
AcDbLine
 10
7537.600000000001
 20
5989.626127077598
 30
0.0
 11
7537.600000000001
 21
6389.626127077598
 31
0.0
  0
LINE
  5
21AE6
330
747D
100
AcDbEntity
  8
部品1
 48
50.0
100
AcDbLine
 10
7737.6
 20
5989.626127077594
 30
0.0
 11
7537.600000000001
 21
5989.626127077594
 31
0.0
  0
LINE
  5
21AE7
330
747D
100
AcDbEntity
  8
部品1
 48
50.0
100
AcDbLine
 10
7737.6
 20
6389.626127077594
 30
0.0
 11
7537.600000000001
 21
6389.626127077594
 31
0.0
  0
LINE
  5
21AE8
330
747D
100
AcDbEntity
  8
部品1
 48
50.0
100
AcDbLine
 10
8909.600000000001
 20
5989.626127077598
 30
0.0
 11
8709.6
 21
5989.626127077598
 31
0.0
  0
LINE
  5
21AE9
330
747D
100
AcDbEntity
  8
部品1
 48
50.0
100
AcDbLine
 10
8709.6
 20
5989.626127077602
 30
0.0
 11
8709.6
 21
6389.626127077601
 31
0.0
  0
LINE
  5
21AEA
330
747D
100
AcDbEntity
  8
部品1
 48
50.0
100
AcDbLine
 10
8909.600000000001
 20
6389.626127077598
 30
0.0
 11
8709.6
 21
6389.626127077598
 31
0.0
  0
LINE
  5
21AEB
330
747D
100
AcDbEntity
  8
部品1
 48
50.0
100
AcDbLine
 10
8909.600000000001
 20
5989.626127077602
 30
0.0
 11
8909.600000000001
 21
6389.626127077601
 31
0.0
  0
LINE
  5
21AEC
330
747D
100
AcDbEntity
  8
部品1
 48
50.0
100
AcDbLine
 10
8909.600000000001
 20
8221.626127077602
 30
0.0
 11
8909.600000000001
 21
8621.626127077602
 31
0.0
  0
LINE
  5
21AED
330
747D
100
AcDbEntity
  8
部品1
 48
50.0
100
AcDbLine
 10
8709.6
 20
8221.626127077602
 30
0.0
 11
8709.6
 21
8621.626127077602
 31
0.0
  0
LINE
  5
21AEE
330
747D
100
AcDbEntity
  8
部品1
 48
50.0
100
AcDbLine
 10
8909.600000000001
 20
8221.626127077596
 30
0.0
 11
8709.6
 21
8221.626127077596
 31
0.0
  0
LINE
  5
21AEF
330
747D
100
AcDbEntity
  8
部品1
 48
50.0
100
AcDbLine
 10
8909.600000000001
 20
8621.626127077597
 30
0.0
 11
8709.6
 21
8621.626127077597
 31
0.0
  0
LINE
  5
21AF0
330
747D
100
AcDbEntity
  8
センター
 48
5.0
100
AcDbLine
 10
7566.600000000001
 20
5914.626127077596
 30
0.0
 11
7566.600000000001
 21
5989.626127077596
 31
0.0
  0
LINE
  5
21AF1
330
747D
100
AcDbEntity
  8
センター
 48
5.0
100
AcDbLine
 10
7566.600000000001
 20
5989.626127077596
 30
0.0
 11
8880.600000000001
 21
5989.626127077599
 31
0.0
  0
LINE
  5
21AF2
330
747D
100
AcDbEntity
  8
センター
 48
5.0
100
AcDbLine
 10
7566.600000000001
 20
5914.626127077596
 30
0.0
 11
8880.600000000001
 21
5914.626127077596
 31
0.0
  0
DIMENSION
  5
21AF3
330
747D
100
AcDbEntity
  8
寸法
 48
50.0
100
AcDbDimension
  2
*D30
 10
7280.293974760521
 20
5989.626127077596
 30
0.0
 11
7280.293974760519
 21
5381.140845703361
 31
0.0
 70
   160
  1
扉の出<>
 71
     5
 42
74.99999999999818
  3
INABA_S40G
100
AcDbAlignedDimension
 13
7566.600000000001
 23
5914.626127077599
 33
0.0
 14
7466.600000000001
 24
5989.626127077596
 34
0.0
 50
90.0
100
AcDbRotatedDimension
1001
ACAD
1000
DSTYLE
1002
{
1070
   341
1005
0
1002
}
  0
TEXT
  5
21AF4
330
747D
100
AcDbEntity
  8
寸法
 48
50.0
100
AcDbText
 10
8121.02757987488
 20
5807.065966433323
 30
0.0
 40
96.0
  1
扉面
  7
STYLE1
100
AcDbText
  0
LINE
  5
21AF5
330
747D
100
AcDbEntity
  8
センター
 48
5.0
100
AcDbLine
 10
8880.600000000001
 20
5914.626127077596
 30
0.0
 11
8880.600000000001
 21
5989.626127077595
 31
0.0
  0
HATCH
  5
21AF6
330
747D
100
AcDbEntity
  8
寸法
 48
50.0
100
AcDbHatch
 10
0.0
 20
0.0
 30
0.0
210
0.0
220
0.0
230
1.0
  2
DOTS
 70
     0
 71
     0
 91
        1
 92
        7
 72
     0
 73
     1
 93
        4
 10
8880.600000000001
 20
5989.626127077599
 10
7566.600000000001
 20
5989.626127077596
 10
7566.600000000001
 20
5914.626127077596
 10
8880.599999999999
 20
5914.626127077596
 97
        0
 75
     0
 76
     1
 52
0.0
 41
10.0
 77
     0
 78
     1
 53
0.0
 43
5086.143061799648
 44
833.2081803687541
 45
7.9375
 46
15.875
 79
     2
 49
0.0
 49
-15.875
 47
3.823975485973129
 98
        1
 10
8466.712012723753
 20
5925.991667715351
  0
LINE
  5
21AF7
330
747D
100
AcDbEntity
  8
部品1
 48
50.0
100
AcDbLine
 10
8323.6
 20
6114.626127077596
 30
0.0
 11
8123.600000000001
 21
6114.626127077596
 31
0.0
  0
LINE
  5
21AF8
330
747D
100
AcDbEntity
  8
部品1
 48
50.0
100
AcDbLine
 10
8323.6
 20
5914.626127077596
 30
0.0
 11
8123.600000000001
 21
5914.626127077596
 31
0.0
  0
LINE
  5
21AF9
330
747D
100
AcDbEntity
  8
部品1
 48
50.0
100
AcDbLine
 10
8323.6
 20
5914.6261270776
 30
0.0
 11
8323.6
 21
6114.6261270776
 31
0.0
  0
LINE
  5
21AFA
330
747D
100
AcDbEntity
  8
部品1
 48
50.0
100
AcDbLine
 10
8123.600000000001
 20
5914.6261270776
 30
0.0
 11
8123.600000000001
 21
6114.6261270776
 31
0.0
  0
LINE
  5
21D82
330
747D
100
AcDbEntity
  8
部品1
 48
50.0
100
AcDbLine
 10
8123.599999999981
 20
8421.626127077601
 30
0.0
 11
8123.599999999981
 21
8621.626127077602
 31
0.0
  0
LINE
  5
21D83
330
747D
100
AcDbEntity
  8
部品1
 48
50.0
100
AcDbLine
 10
8323.599999999983
 20
8421.626127077601
 30
0.0
 11
8323.599999999983
 21
8621.626127077602
 31
0.0
  0
LINE
  5
21D84
330
747D
100
AcDbEntity
  8
部品1
 48
50.0
100
AcDbLine
 10
8323.599999999983
 20
8421.626127077598
 30
0.0
 11
8123.599999999981
 21
8421.626127077598
 31
0.0
  0
LINE
  5
21D85
330
747D
100
AcDbEntity
  8
部品1
 48
50.0
100
AcDbLine
 10
8323.599999999983
 20
8621.626127077597
 30
0.0
 11
8123.599999999981
 21
8621.626127077597
 31
0.0
  0
LINE
  5
21F07
330
747D
100
AcDbEntity
  8
想像線
 48
10.0
100
AcDbLine
 10
7477.600000000008
 20
5939.626127077599
 30
0.0
 11
8989.599999999999
 21
5939.626127077604
 31
0.0
  0
DIMENSION
  5
21F08
330
747D
100
AcDbEntity
  8
寸法
 48
50.0
100
AcDbDimension
  2
*D31
 10
6896.88811655075
 20
8671.626127077592
 30
0.0
 11
6896.888116550748
 21
8646.626127077594
 31
0.0
 70
   160
  1
a
 71
     5
 42
49.99999999999818
  3
INABA_S40G
100
AcDbAlignedDimension
 13
7537.600000000001
 23
8621.626127077595
 33
0.0
 14
7477.600000000004
 24
8671.626127077592
 34
0.0
 50
90.0
100
AcDbRotatedDimension
1001
ACAD
1000
DSTYLE
1002
{
1070
   174
1070
     0
1070
   272
1070
     1
1070
   288
1070
     0
1070
   341
1005
0
1002
}
  0
LINE
  5
21F09
330
747D
100
AcDbEntity
  8
想像線
 48
10.0
100
AcDbLine
 10
7477.600000000004
 20
8671.626127077592
 30
0.0
 11
8989.600000000001
 21
8671.626127077596
 31
0.0
  0
DIMENSION
  5
21F0A
330
747D
100
AcDbEntity
  8
寸法
 48
50.0
100
AcDbDimension
  2
*D32
 10
6896.88811655075
 20
5989.626127077594
 30
0.0
 11
6896.88811655075
 21
5964.626127077599
 31
0.0
 70
   160
  1
a
 71
     5
 42
49.99999999999454
  3
INABA_S40G
100
AcDbAlignedDimension
 13
7280.293974760521
 23
5939.626127077599
 33
0.0
 14
7537.600000000001
 24
5989.626127077594
 34
0.0
 50
90.0
100
AcDbRotatedDimension
1001
ACAD
1000
DSTYLE
1002
{
1070
   174
1070
     0
1070
   272
1070
     1
1070
   288
1070
     0
1070
   341
1005
0
1002
}
  0
DIMENSION
  5
21F0B
330
747D
100
AcDbEntity
  8
寸法
 48
50.0
100
AcDbDimension
  2
*D33
 10
8989.600000000002
 20
9014.038714749219
 30
0.0
 11
8949.600000000001
 21
9014.038714749219
 31
0.0
 70
   160
  1
c
 71
     5
 42
80.00000000000182
  3
INABA_S40G
100
AcDbAlignedDimension
 13
8909.600000000001
 23
8621.626127077602
 33
0.0
 14
8989.600000000002
 24
8671.626127077596
 34
0.0
 50
180.0
100
AcDbRotatedDimension
1001
ACAD
1000
DSTYLE
1002
{
1070
   174
1070
     0
1070
   272
1070
     1
1070
   288
1070
     0
1070
   341
1005
0
1002
}
  0
DIMENSION
  5
21F0C
330
747D
100
AcDbEntity
  8
寸法
 48
50.0
100
AcDbDimension
  2
*D34
 10
7537.600000000002
 20
9014.038714749215
 30
0.0
 11
7507.600000000002
 21
9014.038714749215
 31
0.0
 70
   160
  1
b
 71
     5
 42
59.99999999999909
  3
INABA_S40G
100
AcDbAlignedDimension
 13
7477.600000000004
 23
8671.626127077592
 33
0.0
 14
7537.600000000002
 24
8621.626127077597
 34
0.0
 50
180.0
100
AcDbRotatedDimension
1001
ACAD
1000
DSTYLE
1002
{
1070
   174
1070
     0
1070
   272
1070
     1
1070
   288
1070
     0
1070
   341
1005
0
1002
}
  0
LINE
  5
21F0D
330
747D
100
AcDbEntity
  8
想像線
 48
10.0
100
AcDbLine
 10
7477.600000000011
 20
5939.6261270776
 30
0.0
 11
7477.600000000004
 21
8671.626127077592
 31
0.0
  0
LINE
  5
21F0E
330
747D
100
AcDbEntity
  8
想像線
 48
10.0
100
AcDbLine
 10
8989.600000000001
 20
8671.626127077596
 30
0.0
 11
8989.600000000001
 21
5939.626127077605
 31
0.0
  0
TEXT
  5
21F2A
330
747D
100
AcDbEntity
  8
部品1
 48
50.0
100
AcDbText
 10
9161.48924024959
 20
7218.370060201464
 30
0.0
 40
80.0
  1
(a=50,b=60,c=80)
  7
STYLE1
100
AcDbText
  0
TEXT
  5
21F2B
330
747D
100
AcDbEntity
  8
部品1
 48
50.0
100
AcDbText
 10
9047.788999523639
 20
7351.926586287408
 30
0.0
 40
80.0
  1
※a,b,cは屋根の出幅です。
  7
STYLE1
100
AcDbText
  0
MTEXT
  5
21F2C
102
{ACAD_REACTORS
330
21F2D
102
}
330
747D
100
AcDbEntity
  8
部品1
 62
     7
 48
50.0
100
AcDbMText
 10
9913.95908970041
 20
7563.594486486874
 30
0.0
 40
120.0
 41
0.0
 71
     6
 72
     1
  1
\A1;屋根の外寸
  7
STYLE1
 73
     1
 44
1.0
1001
ACAD
1000
MTEXTBEGIN
1070
    73
1070
     1
1070
    44
1040
1.0
1070
    74
1070
     0
1000
MTEXTEND
  0
LEADER
  5
21F2D
330
747D
100
AcDbEntity
  8
寸法
 48
50.0
100
AcDbLeader
  3
INABA_S50G
 71
     0
 73
     0
 74
     0
 75
     1
 40
120.0
 41
672.0
 76
     3
 10
8989.599999999999
 20
7858.611878446663
 30
0.0
 10
9091.959089700409
 20
7478.594486486873
 30
0.0
 10
9216.959089700409
 20
7478.594486486873
 30
0.0
340
21F2C
1001
ACAD
1000
DSTYLE
1002
{
1070
   341
1005
1C4CA
1070
    40
1040
1.0
1070
   343
1005
1C4CA
1070
   344
1005
1C4CA
1002
}
  0
ENDSEC
  0
SECTION
  2
OBJECTS
  0
DICTIONARY
  5
7471
330
0
100
AcDbDictionary
281
     1
  3
ACAD_COLOR
350
173D2
  3
ACAD_GROUP
350
7472
  3
ACAD_LAYOUT
350
173D3
  3
ACAD_MATERIAL
350
173D1
  3
ACAD_MLINESTYLE
350
7473
  3
ACAD_PLOTSETTINGS
350
173D4
  3
ACAD_PLOTSTYLENAME
350
173CF
  3
ACDBHEADERROUNDTRIPXREC
350
22094
  3
AcDbVariableDictionary
350
22090
  3
CONTENTDICTIONARY
350
E71C
  3
DRAWINGVARIABLESDICT
350
F3B9
  0
DICTIONARY
  5
1758F
330
7467
100
AcDbDictionary
280
     1
281
     1
  3
ACAD_LAYERSTATES
360
17590
  0
DICTIONARY
  5
173D2
102
{ACAD_REACTORS
330
7471
102
}
330
7471
100
AcDbDictionary
281
     1
  0
DICTIONARY
  5
7472
102
{ACAD_REACTORS
330
7471
102
}
330
7471
100
AcDbDictionary
281
     1
  3
*A1
350
1D2A9
  0
DICTIONARY
  5
173D3
102
{ACAD_REACTORS
330
7471
102
}
330
7471
100
AcDbDictionary
281
     1
  3
Model
350
173D5
  3
レイアウト1
350
173D6
  0
DICTIONARY
  5
173D1
102
{ACAD_REACTORS
330
7471
102
}
330
7471
100
AcDbDictionary
281
     1
  0
DICTIONARY
  5
7473
102
{ACAD_REACTORS
330
7471
102
}
330
7471
100
AcDbDictionary
281
     1
  3
STANDARD
350
7480
  0
DICTIONARY
  5
173D4
102
{ACAD_REACTORS
330
7471
102
}
330
7471
100
AcDbDictionary
281
     1
  0
ACDBDICTIONARYWDFLT
  5
173CF
102
{ACAD_REACTORS
330
7471
102
}
330
7471
100
AcDbDictionary
281
     1
  3
Normal
350
173D0
100
AcDbDictionaryWithDefault
340
173D0
  0
DICTIONARY
  5
22094
102
{ACAD_REACTORS
330
7471
102
}
330
7471
100
AcDbDictionary
281
     1
  3
COLORDICT
350
22096
  3
MATERIALDICT
350
22095
  0
DICTIONARY
  5
22090
102
{ACAD_REACTORS
330
7471
102
}
330
7471
100
AcDbDictionary
281
     1
  3
DIMASSOC
350
22091
  3
PROJECTNAME
350
22092
  0
DICTIONARY
  5
E71C
102
{ACAD_REACTORS
330
7471
102
}
330
7471
100
AcDbDictionary
281
     1
  0
DICTIONARY
  5
F3B9
102
{ACAD_REACTORS
330
7471
102
}
330
7471
100
AcDbDictionary
281
     1
1001
DRAWINGVARIABLESXDATA
1000
POLARMODE
1000
1
  0
DICTIONARY
  5
17590
102
{ACAD_REACTORS
330
1758F
102
}
330
1758F
100
AcDbDictionary
281
     1
  0
GROUP
  5
1D2A9
102
{ACAD_REACTORS
330
7472
102
}
330
7472
100
AcDbGroup
300

 70
     1
 71
     1
  0
LAYOUT
  5
173D5
102
{ACAD_XDICTIONARY
360
22097
102
}
102
{ACAD_REACTORS
330
173D3
102
}
330
173D3
100
AcDbPlotSettings
  1

  2
Microsoft Office Document Image Writer
  4

  6

 40
0.0
 41
0.0
 42
0.0
 43
0.0
 44
0.0
 45
0.0
 46
0.0
 47
0.0
 48
0.0
 49
0.0
140
0.0
141
0.0
142
1.0
143
1.0
 70
  1712
 72
     0
 73
     0
 74
     0
  7

 75
     0
147
1.0
148
0.0
149
0.0
100
AcDbLayout
  1
Model
 70
     1
 71
     0
 10
0.0
 20
0.0
 11
12.0
 21
9.0
 12
0.0
 22
0.0
 32
0.0
 14
0.0
 24
0.0
 34
0.0
 15
0.0
 25
0.0
 35
0.0
146
0.0
 13
0.0
 23
0.0
 33
0.0
 16
1.0
 26
0.0
 36
0.0
 17
0.0
 27
1.0
 37
0.0
 76
     0
330
747D
  0
LAYOUT
  5
173D6
102
{ACAD_XDICTIONARY
360
22099
102
}
102
{ACAD_REACTORS
330
173D3
102
}
330
173D3
100
AcDbPlotSettings
  1

  2
Microsoft Office Document Image Writer
  4

  6

 40
0.0
 41
0.0
 42
0.0
 43
0.0
 44
0.0
 45
0.0
 46
0.0
 47
0.0
 48
0.0
 49
0.0
140
0.0
141
0.0
142
1.0
143
1.0
 70
   688
 72
     0
 73
     0
 74
     5
  7

 75
    16
147
1.0
148
0.0
149
0.0
100
AcDbLayout
  1
レイアウト1
 70
     0
 71
     1
 10
0.0
 20
0.0
 11
420.0
 21
297.0
 12
0.0
 22
0.0
 32
0.0
 14
1.000000000000000E+20
 24
1.000000000000000E+20
 34
1.000000000000000E+20
 15
-1.000000000000000E+20
 25
-1.000000000000000E+20
 35
-1.000000000000000E+20
146
0.0
 13
0.0
 23
0.0
 33
0.0
 16
1.0
 26
0.0
 36
0.0
 17
0.0
 27
1.0
 37
0.0
 76
     0
330
747A
  0
MLINESTYLE
  5
7480
102
{ACAD_REACTORS
330
7473
102
}
330
7473
100
AcDbMlineStyle
  2
STANDARD
 70
     0
  3

 62
     0
 51
90.0
 52
90.0
 71
     2
 49
0.5
 62
   256
  6
BYLAYER
 49
-0.5
 62
   256
  6
BYLAYER
  0
ACDBPLACEHOLDER
  5
173D0
102
{ACAD_REACTORS
330
173CF
102
}
330
173CF
  0
XRECORD
  5
22096
102
{ACAD_REACTORS
330
22094
102
}
330
22094
100
AcDbXrecord
280
     1
340
173D2
  0
XRECORD
  5
22095
102
{ACAD_REACTORS
330
22094
102
}
330
22094
100
AcDbXrecord
280
     1
340
173D1
  0
DICTIONARYVAR
  5
22091
102
{ACAD_REACTORS
330
22090
102
}
330
22090
100
DictionaryVariables
280
     0
  1
1
  0
DICTIONARYVAR
  5
22092
102
{ACAD_REACTORS
330
22090
102
}
330
22090
100
DictionaryVariables
280
     0
  1

  0
DICTIONARY
  5
22097
330
173D5
100
AcDbDictionary
280
     1
281
     1
  3
ACAD_XREC_ROUNDTRIP
360
22098
  0
DICTIONARY
  5
22099
330
173D6
100
AcDbDictionary
280
     1
281
     1
  3
ACAD_XREC_ROUNDTRIP
360
2209A
  0
XRECORD
  5
22098
102
{ACAD_REACTORS
330
22097
102
}
330
22097
100
AcDbXrecord
280
     1
102
SHADEPLOT
 70
     0
102
SHADEPLOTRESLEVEL
 70
     2
102
SHADEPLOTCUSTOMDPI
 70
   300
  0
XRECORD
  5
2209A
102
{ACAD_REACTORS
330
22099
102
}
330
22099
100
AcDbXrecord
280
     1
102
SHADEPLOT
 70
     0
102
SHADEPLOTRESLEVEL
 70
     2
102
SHADEPLOTCUSTOMDPI
 70
   300
  0
ENDSEC
  0
EOF
