  0
SECTION
  2
HEADER
  9
$ACADVER
  1
AC1015
  9
$ACADMAINTVER
 70
    20
  9
$DWGCODEPAGE
  3
ANSI_932
  9
$INSBASE
 10
0.0
 20
0.0
 30
0.0
  9
$EXTMIN
 10
139.9999999999995
 20
-0.0000000000000909
 30
0.0
  9
$EXTMAX
 10
16307.2
 20
11409.6
 30
0.0
  9
$LIMMIN
 10
0.0
 20
0.0
  9
$LIMMAX
 10
16800.0
 20
11880.0
  9
$ORTHOMODE
 70
     0
  9
$REGENMODE
 70
     1
  9
$FILLMODE
 70
     1
  9
$QTEXTMODE
 70
     0
  9
$MIRRTEXT
 70
     1
  9
$LTSCALE
 40
20.0
  9
$ATTMODE
 70
     1
  9
$TEXTSIZE
 40
100.0
  9
$TRACEWID
 40
1.0
  9
$TEXTSTYLE
  7
STYLE3
  9
$CLAYER
  8
部品1
  9
$CELTYPE
  6
BYLAYER
  9
$CECOLOR
 62
   256
  9
$CELTSCALE
 40
50.0
  9
$DISPSILH
 70
     0
  9
$DIMSCALE
 40
40.0
  9
$DIMASZ
 40
0.5
  9
$DIMEXO
 40
0.5
  9
$DIMDLI
 40
7.0
  9
$DIMRND
 40
0.0
  9
$DIMDLE
 40
0.0
  9
$DIMEXE
 40
1.0
  9
$DIMTP
 40
0.0
  9
$DIMTM
 40
0.0
  9
$DIMTXT
 40
3.0
  9
$DIMCEN
 40
0.0
  9
$DIMTSZ
 40
0.0
  9
$DIMTOL
 70
     0
  9
$DIMLIM
 70
     0
  9
$DIMTIH
 70
     0
  9
$DIMTOH
 70
     0
  9
$DIMSE1
 70
     0
  9
$DIMSE2
 70
     0
  9
$DIMTAD
 70
     3
  9
$DIMZIN
 70
     8
  9
$DIMBLK
  1

  9
$DIMASO
 70
     1
  9
$DIMSHO
 70
     1
  9
$DIMPOST
  1

  9
$DIMAPOST
  1

  9
$DIMALT
 70
     0
  9
$DIMALTD
 70
     2
  9
$DIMALTF
 40
0.0394
  9
$DIMLFAC
 40
1.0
  9
$DIMTOFL
 70
     1
  9
$DIMTVP
 40
0.0
  9
$DIMTIX
 70
     1
  9
$DIMSOXD
 70
     1
  9
$DIMSAH
 70
     1
  9
$DIMBLK1
  1
DOT
  9
$DIMBLK2
  1
DOT
  9
$DIMSTYLE
  2
INABA_S40
  9
$DIMCLRD
 70
     0
  9
$DIMCLRE
 70
     0
  9
$DIMCLRT
 70
     7
  9
$DIMTFAC
 40
1.0
  9
$DIMGAP
 40
0.8
  9
$DIMJUST
 70
     0
  9
$DIMSD1
 70
     0
  9
$DIMSD2
 70
     0
  9
$DIMTOLJ
 70
     1
  9
$DIMTZIN
 70
     0
  9
$DIMALTZ
 70
     0
  9
$DIMALTTZ
 70
     0
  9
$DIMUPT
 70
     0
  9
$DIMDEC
 70
     2
  9
$DIMTDEC
 70
     2
  9
$DIMALTU
 70
     2
  9
$DIMALTTD
 70
     2
  9
$DIMTXSTY
  7
STYLE1
  9
$DIMAUNIT
 70
     0
  9
$DIMADEC
 70
     0
  9
$DIMALTRND
 40
0.0
  9
$DIMAZIN
 70
     0
  9
$DIMDSEP
 70
    46
  9
$DIMATFIT
 70
     3
  9
$DIMFRAC
 70
     0
  9
$DIMLDRBLK
  1

  9
$DIMLUNIT
 70
     2
  9
$DIMLWD
 70
    -2
  9
$DIMLWE
 70
    -2
  9
$DIMTMOVE
 70
     0
  9
$LUNITS
 70
     2
  9
$LUPREC
 70
     1
  9
$SKETCHINC
 40
1.0
  9
$FILLETRAD
 40
5.0
  9
$AUNITS
 70
     0
  9
$AUPREC
 70
     0
  9
$MENU
  1
acad
  9
$ELEVATION
 40
0.0
  9
$PELEVATION
 40
0.0
  9
$THICKNESS
 40
0.0
  9
$LIMCHECK
 70
     0
  9
$CHAMFERA
 40
0.0
  9
$CHAMFERB
 40
0.0
  9
$CHAMFERC
 40
0.0
  9
$CHAMFERD
 40
0.0
  9
$SKPOLY
 70
     0
  9
$TDCREATE
 40
2451590.492424190
  9
$TDUCREATE
 40
2451590.117424190
  9
$TDUPDATE
 40
2455575.701039849
  9
$TDUUPDATE
 40
2455575.326039849
  9
$TDINDWG
 40
0.2288203125
  9
$TDUSRTIMER
 40
0.2288203125
  9
$USRTIMER
 70
     1
  9
$ANGBASE
 50
0.0
  9
$ANGDIR
 70
     0
  9
$PDMODE
 70
     3
  9
$PDSIZE
 40
2.0
  9
$PLINEWID
 40
0.0
  9
$SPLFRAME
 70
     0
  9
$SPLINETYPE
 70
     6
  9
$SPLINESEGS
 70
     8
  9
$HANDSEED
  5
18348
  9
$SURFTAB1
 70
     6
  9
$SURFTAB2
 70
     6
  9
$SURFTYPE
 70
     6
  9
$SURFU
 70
     6
  9
$SURFV
 70
     6
  9
$UCSBASE
  2

  9
$UCSNAME
  2

  9
$UCSORG
 10
0.0
 20
0.0
 30
0.0
  9
$UCSXDIR
 10
1.0
 20
0.0
 30
0.0
  9
$UCSYDIR
 10
0.0
 20
1.0
 30
0.0
  9
$UCSORTHOREF
  2

  9
$UCSORTHOVIEW
 70
     0
  9
$UCSORGTOP
 10
0.0
 20
0.0
 30
0.0
  9
$UCSORGBOTTOM
 10
0.0
 20
0.0
 30
0.0
  9
$UCSORGLEFT
 10
0.0
 20
0.0
 30
0.0
  9
$UCSORGRIGHT
 10
0.0
 20
0.0
 30
0.0
  9
$UCSORGFRONT
 10
0.0
 20
0.0
 30
0.0
  9
$UCSORGBACK
 10
0.0
 20
0.0
 30
0.0
  9
$PUCSBASE
  2

  9
$PUCSNAME
  2

  9
$PUCSORG
 10
0.0
 20
0.0
 30
0.0
  9
$PUCSXDIR
 10
1.0
 20
0.0
 30
0.0
  9
$PUCSYDIR
 10
0.0
 20
1.0
 30
0.0
  9
$PUCSORTHOREF
  2

  9
$PUCSORTHOVIEW
 70
     0
  9
$PUCSORGTOP
 10
0.0
 20
0.0
 30
0.0
  9
$PUCSORGBOTTOM
 10
0.0
 20
0.0
 30
0.0
  9
$PUCSORGLEFT
 10
0.0
 20
0.0
 30
0.0
  9
$PUCSORGRIGHT
 10
0.0
 20
0.0
 30
0.0
  9
$PUCSORGFRONT
 10
0.0
 20
0.0
 30
0.0
  9
$PUCSORGBACK
 10
0.0
 20
0.0
 30
0.0
  9
$USERI1
 70
     0
  9
$USERI2
 70
     0
  9
$USERI3
 70
     0
  9
$USERI4
 70
     0
  9
$USERI5
 70
     0
  9
$USERR1
 40
0.0
  9
$USERR2
 40
0.0
  9
$USERR3
 40
0.0
  9
$USERR4
 40
0.0
  9
$USERR5
 40
0.0
  9
$WORLDVIEW
 70
     1
  9
$SHADEDGE
 70
     3
  9
$SHADEDIF
 70
    70
  9
$TILEMODE
 70
     1
  9
$MAXACTVP
 70
    16
  9
$PINSBASE
 10
0.0
 20
0.0
 30
0.0
  9
$PLIMCHECK
 70
     0
  9
$PEXTMIN
 10
1.000000000000000E+20
 20
1.000000000000000E+20
 30
1.000000000000000E+20
  9
$PEXTMAX
 10
-1.000000000000000E+20
 20
-1.000000000000000E+20
 30
-1.000000000000000E+20
  9
$PLIMMIN
 10
0.0
 20
0.0
  9
$PLIMMAX
 10
420.0
 20
297.0
  9
$UNITMODE
 70
     0
  9
$VISRETAIN
 70
     0
  9
$PLINEGEN
 70
     0
  9
$PSLTSCALE
 70
     0
  9
$TREEDEPTH
 70
  3020
  9
$CMLSTYLE
  2
STANDARD
  9
$CMLJUST
 70
     0
  9
$CMLSCALE
 40
1.0
  9
$PROXYGRAPHICS
 70
     1
  9
$MEASUREMENT
 70
     1
  9
$CELWEIGHT
370
    -1
  9
$ENDCAPS
280
     0
  9
$JOINSTYLE
280
     0
  9
$LWDISPLAY
290
     0
  9
$INSUNITS
 70
     0
  9
$HYPERLINKBASE
  1

  9
$STYLESHEET
  1

  9
$XEDIT
290
     1
  9
$CEPSNTYPE
380
     0
  9
$PSTYLEMODE
290
     1
  9
$FINGERPRINTGUID
  2
{8849A469-E5B2-4B1F-98F9-C0C5C07E2DBC}
  9
$VERSIONGUID
  2
{D90F3239-2B75-45AE-BFDC-9F95A01C0024}
  9
$EXTNAMES
290
     1
  9
$PSVPSCALE
 40
0.0
  9
$OLESTARTUP
290
     0
  0
ENDSEC
  0
SECTION
  2
CLASSES
  0
CLASS
  1
ACDBDICTIONARYWDFLT
  2
AcDbDictionaryWithDefault
  3
ObjectDBX Classes
 90
        0
280
     0
281
     0
  0
CLASS
  1
DICTIONARYVAR
  2
AcDbDictionaryVar
  3
ObjectDBX Classes
 90
        0
280
     0
281
     0
  0
CLASS
  1
ACDBPLACEHOLDER
  2
AcDbPlaceHolder
  3
ObjectDBX Classes
 90
        0
280
     0
281
     0
  0
CLASS
  1
LAYOUT
  2
AcDbLayout
  3
ObjectDBX Classes
 90
        0
280
     0
281
     0
  0
ENDSEC
  0
SECTION
  2
TABLES
  0
TABLE
  2
VPORT
  5
746D
330
0
100
AcDbSymbolTable
 70
     2
  0
VPORT
  5
18340
330
746D
100
AcDbSymbolTableRecord
100
AcDbViewportTableRecord
  2
*Active
 70
     0
 10
0.0
 20
0.0
 11
1.0
 21
1.0
 12
8223.761025238502
 22
6348.767642148464
 13
0.0
 23
0.0
 14
10.0
 24
10.0
 15
10.0
 25
10.0
 16
0.0
 26
0.0
 36
1.0
 17
0.0
 27
0.0
 37
0.0
 40
12805.3711672054
 41
1.525925925925925
 42
50.0
 43
0.0
 44
0.0
 50
0.0
 51
0.0
 71
     0
 72
     0
 73
     1
 74
     0
 75
     0
 76
     0
 77
     0
 78
     0
281
     0
 65
     1
110
0.0
120
0.0
130
0.0
111
1.0
121
0.0
131
0.0
112
0.0
122
1.0
132
0.0
 79
     0
146
0.0
  0
ENDTAB
  0
TABLE
  2
LTYPE
  5
746A
330
0
100
AcDbSymbolTable
 70
     4
  0
LTYPE
  5
7477
330
746A
100
AcDbSymbolTableRecord
100
AcDbLinetypeTableRecord
  2
BYBLOCK
 70
     0
  3

 72
    65
 73
     0
 40
0.0
  0
LTYPE
  5
7478
330
746A
100
AcDbSymbolTableRecord
100
AcDbLinetypeTableRecord
  2
BYLAYER
 70
     0
  3

 72
    65
 73
     0
 40
0.0
  0
LTYPE
  5
7479
330
746A
100
AcDbSymbolTableRecord
100
AcDbLinetypeTableRecord
  2
CONTINUOUS
 70
     0
  3
Solid line
 72
    65
 73
     0
 40
0.0
  0
LTYPE
  5
7816
330
746A
100
AcDbSymbolTableRecord
100
AcDbLinetypeTableRecord
  2
CENTER
 70
     0
  3
____ _ ____ _ ____ _ ____ _ ____ _ ____ _ ____ 
 72
    65
 73
     4
 40
2.0
 49
1.25
 74
     0
 49
-0.25
 74
     0
 49
0.25
 74
     0
 49
-0.25
 74
     0
  0
LTYPE
  5
781A
330
746A
100
AcDbSymbolTableRecord
100
AcDbLinetypeTableRecord
  2
HIDDEN
 70
     0
  3
__ __ __ __ __ __ __ __ __ __ __ __ __ __ __ __
 72
    65
 73
     2
 40
0.375
 49
0.25
 74
     0
 49
-0.125
 74
     0
  0
LTYPE
  5
781B
330
746A
100
AcDbSymbolTableRecord
100
AcDbLinetypeTableRecord
  2
PHANTOM
 70
     0
  3
______  __  __  ______  __  __  ______  __  __ 
 72
    65
 73
     6
 40
2.5
 49
1.25
 74
     0
 49
-0.25
 74
     0
 49
0.25
 74
     0
 49
-0.25
 74
     0
 49
0.25
 74
     0
 49
-0.25
 74
     0
  0
ENDTAB
  0
TABLE
  2
LAYER
  5
7467
102
{ACAD_XDICTIONARY
360
141B9
102
}
330
0
100
AcDbSymbolTable
 70
    12
  0
LAYER
  5
7474
330
7467
100
AcDbSymbolTableRecord
100
AcDbLayerTableRecord
  2
0
 70
     0
 62
     7
  6
CONTINUOUS
370
    -3
390
13FEE
  0
LAYER
  5
DEB2
330
7467
100
AcDbSymbolTableRecord
100
AcDbLayerTableRecord
  2
センター
 70
     0
 62
     3
  6
CENTER
370
    -3
390
13FEE
  0
LAYER
  5
DEB3
330
7467
100
AcDbSymbolTableRecord
100
AcDbLayerTableRecord
  2
寸法
 70
     0
 62
     4
  6
CONTINUOUS
370
    -3
390
13FEE
  0
LAYER
  5
DEB4
330
7467
100
AcDbSymbolTableRecord
100
AcDbLayerTableRecord
  2
部品1
 70
     0
 62
     7
  6
CONTINUOUS
370
    -3
390
13FEE
  0
LAYER
  5
DEB5
330
7467
100
AcDbSymbolTableRecord
100
AcDbLayerTableRecord
  2
補助
 70
     0
 62
    -1
  6
CONTINUOUS
370
    -3
390
13FEE
  0
LAYER
  5
DEB6
330
7467
100
AcDbSymbolTableRecord
100
AcDbLayerTableRecord
  2
文字
 70
     0
 62
     7
  6
CONTINUOUS
370
    -3
390
13FEE
  0
LAYER
  5
F255
330
7467
100
AcDbSymbolTableRecord
100
AcDbLayerTableRecord
  2
DEFPOINTS
 70
     0
 62
     7
  6
CONTINUOUS
290
     0
370
    -3
390
13FEE
  0
LAYER
  5
10B54
330
7467
100
AcDbSymbolTableRecord
100
AcDbLayerTableRecord
  2
仕様書枠
 70
     0
 62
   230
  6
CONTINUOUS
370
    -3
390
13FEE
  0
LAYER
  5
11729
330
7467
100
AcDbSymbolTableRecord
100
AcDbLayerTableRecord
  2
Ｇ．Ｌ
 70
     0
 62
    30
  6
CONTINUOUS
370
    -3
390
13FEE
  0
LAYER
  5
1173F
330
7467
100
AcDbSymbolTableRecord
100
AcDbLayerTableRecord
  2
細線
 70
     0
 62
     5
  6
CONTINUOUS
370
    -3
390
13FEE
  0
LAYER
  5
11740
330
7467
100
AcDbSymbolTableRecord
100
AcDbLayerTableRecord
  2
点線
 70
     0
 62
     2
  6
HIDDEN
370
    -3
390
13FEE
  0
LAYER
  5
11905
330
7467
100
AcDbSymbolTableRecord
100
AcDbLayerTableRecord
  2
破線
 70
     0
 62
     2
  6
HIDDEN
370
    -3
390
13FEE
  0
ENDTAB
  0
TABLE
  2
STYLE
  5
7468
330
0
100
AcDbSymbolTable
 70
     7
  0
STYLE
  5
7475
330
7468
100
AcDbSymbolTableRecord
100
AcDbTextStyleTableRecord
  2
STANDARD
 70
     0
 40
0.0
 41
1.0
 50
0.0
 71
     0
 42
4.0
  3
txt
  4
C:\AutoCAD LT\bigfont.shx
  0
STYLE
  5
763C
330
7468
100
AcDbSymbolTableRecord
100
AcDbTextStyleTableRecord
  2
MSMINCHO
 70
     0
 40
0.0
 41
1.0
 50
0.0
 71
     0
 42
1.199999999999999
  3
C:\AutoCAD LT\msminch2.TTF
  4

  0
STYLE
  5
F5E9
330
7468
100
AcDbSymbolTableRecord
100
AcDbTextStyleTableRecord
  2

 70
     1
 40
0.0
 41
1.0
 50
0.0
 71
     0
 42
4.0
  3
ltypeshp.shx
  4

  0
STYLE
  5
F706
330
7468
100
AcDbSymbolTableRecord
100
AcDbTextStyleTableRecord
  2
STYLE1
 70
     0
 40
0.0
 41
1.0
 50
0.0
 71
     0
 42
4.0
  3
isocp.shx
  4
bigfont.shx
  0
STYLE
  5
103BF
330
7468
100
AcDbSymbolTableRecord
100
AcDbTextStyleTableRecord
  2
STYLE2
 70
     0
 40
0.0
 41
1.0
 50
0.0
 71
     0
 42
100.0
  3
MS PGothic.ttf
  4

1001
ACAD
1000
MS PGothic
1071
    32818
  0
STYLE
  5
10BAA
330
7468
100
AcDbSymbolTableRecord
100
AcDbTextStyleTableRecord
  2
STYLE3
 70
     0
 40
0.0
 41
1.0
 50
0.0
 71
     0
 42
100.0
  3

  4

1001
ACAD
1000
DFPGothic-EB
1071
    32818
  0
STYLE
  5
11906
330
7468
100
AcDbSymbolTableRecord
100
AcDbTextStyleTableRecord
  2
MSGOTHIC
 70
     0
 40
0.0
 41
1.0
 50
0.0
 71
     0
 42
3.5
  3
msgothi2.ttf
  4

  0
ENDTAB
  0
TABLE
  2
VIEW
  5
746B
330
0
100
AcDbSymbolTable
 70
     0
  0
ENDTAB
  0
TABLE
  2
UCS
  5
746C
330
0
100
AcDbSymbolTable
 70
     0
  0
ENDTAB
  0
TABLE
  2
APPID
  5
746E
330
0
100
AcDbSymbolTable
 70
     6
  0
APPID
  5
7476
330
746E
100
AcDbSymbolTableRecord
100
AcDbRegAppTableRecord
  2
ACAD
 70
     0
  0
APPID
  5
DEA9
330
746E
100
AcDbSymbolTableRecord
100
AcDbRegAppTableRecord
  2
CONTENTBLOCKICON
 70
     0
  0
APPID
  5
DEAA
330
746E
100
AcDbSymbolTableRecord
100
AcDbRegAppTableRecord
  2
CONTENTBLOCKDESCRIPTION
 70
     0
  0
APPID
  5
E71D
330
746E
100
AcDbSymbolTableRecord
100
AcDbRegAppTableRecord
  2
CONTENTTABDATA
 70
     0
  0
APPID
  5
E71E
330
746E
100
AcDbSymbolTableRecord
100
AcDbRegAppTableRecord
  2
CONTENTCURRENTTAB
 70
     0
  0
APPID
  5
F3BA
330
746E
100
AcDbSymbolTableRecord
100
AcDbRegAppTableRecord
  2
DRAWINGVARIABLESXDATA
 70
     0
  0
ENDTAB
  0
TABLE
  2
DIMSTYLE
  5
746F
330
0
100
AcDbSymbolTable
 70
     6
100
AcDbDimStyleTable
 71
     1
340
F236
  0
DIMSTYLE
105
7484
330
746F
100
AcDbSymbolTableRecord
100
AcDbDimStyleTableRecord
  2
JIS
 70
     0
 41
2.5
 42
1.0
 43
7.0
 44
1.0
 73
     0
 74
     0
 77
     1
 78
     8
140
2.5
141
0.0
143
0.0394
147
0.0
172
     1
174
     1
175
     1
340
7475
  0
DIMSTYLE
105
F236
102
{ACAD_REACTORS
330
148C1
330
148CB
330
148FB
330
1490D
330
1490E
330
14949
330
1494A
330
1494B
330
1494C
330
1494D
330
15719
330
15F2A
330
177C1
330
17FF6
330
1801B
330
17EFA
102
}
330
746F
100
AcDbSymbolTableRecord
100
AcDbDimStyleTableRecord
  2
INABA_S40
 70
     0
 40
40.0
 41
2.5
 42
0.5
 43
7.0
 44
1.5
 73
     0
 74
     0
 77
     3
 78
     8
140
3.0
141
0.0
143
0.0394
147
1.0
172
     1
173
     1
174
     1
175
     1
178
     7
289
     0
340
7475
  0
DIMSTYLE
105
F71F
102
{ACAD_REACTORS
330
1547B
330
1548A
330
1548B
330
1548C
330
15D3B
330
15D3C
330
15D3D
330
15D43
330
15D44
330
15CFA
330
15CFB
330
15CFC
330
15D00
330
15D04
330
15D05
330
15D14
330
17EFB
330
18280
102
}
330
746F
100
AcDbSymbolTableRecord
100
AcDbDimStyleTableRecord
  2
INABA_S40G
 70
     0
 40
40.0
 41
2.5
 42
0.5
 43
7.0
 44
1.5
 73
     0
 74
     0
 77
     3
 78
     8
140
3.0
141
0.0
143
0.0394
147
1.0
172
     1
173
     1
174
     1
175
     1
178
     7
271
     1
340
F706
341
F770
343
F770
344
F770
  0
DIMSTYLE
105
11907
330
746F
100
AcDbSymbolTableRecord
100
AcDbDimStyleTableRecord
  2
INABA_S50
 70
     0
 40
50.0
 41
0.5
 42
0.5
 43
7.0
 44
1.0
 73
     0
 74
     0
 77
     3
 78
     8
140
2.5
141
0.0
143
0.0394
147
0.8
172
     1
173
     1
174
     1
175
     1
178
     7
271
     2
272
     2
289
     0
340
7475
341
F744
343
F744
344
F744
  0
DIMSTYLE
105
11908
330
746F
100
AcDbSymbolTableRecord
100
AcDbDimStyleTableRecord
  2
INABA_S50G
 70
     0
 41
125.0
 42
25.0
 43
7.0
 44
75.0
 73
     0
 74
     0
 77
     3
 78
     8
140
150.0
141
0.0
143
0.0394
147
25.0
172
     1
173
     1
174
     1
175
     1
178
     7
271
     1
340
F706
341
F770
343
F770
344
F770
  0
DIMSTYLE
105
182D7
330
746F
100
AcDbSymbolTableRecord
100
AcDbDimStyleTableRecord
  2
INABA_S20G
 70
     0
 40
20.0
 41
2.5
 42
0.5
 43
7.0
 44
1.5
 73
     0
 74
     0
 77
     3
 78
     8
140
3.0
141
0.0
143
0.0394
147
1.0
172
     1
173
     1
174
     1
178
     7
271
     1
340
F706
341
F770
343
F770
344
F770
  0
ENDTAB
  0
TABLE
  2
BLOCK_RECORD
  5
7466
330
0
100
AcDbSymbolTable
 70
    53
  0
BLOCK_RECORD
  5
747D
330
7466
100
AcDbSymbolTableRecord
100
AcDbBlockTableRecord
  2
*MODEL_SPACE
340
13FF3
  0
BLOCK_RECORD
  5
747A
330
7466
100
AcDbSymbolTableRecord
100
AcDbBlockTableRecord
  2
*PAPER_SPACE
340
13FF4
  0
BLOCK_RECORD
  5
ECB3
330
7466
100
AcDbSymbolTableRecord
100
AcDbBlockTableRecord
  2
作図枠S50
340
0
310
2800000020000000200000000100040000000000000200000000000000000000000000000000000000000000000080000080000000808000800000008000800080800000C0C0C000808080000000FF0000FF000000FFFF00FF000000FF00FF00FFFF0000FFFFFF00FFFFFFFFFFFFFFFFFFFFFFFFFFFFFFFFFFFFFFFFFFFFFF
310
FFFFFFFFFFFFFFFFFFFFFFFFFFFFFFFFFFFFFFFFFFFFFFFFFFFFFFFFFFFFFFFFFFFFFFFFFFFFFFFFFFFFFFFFFFFFFFFFFFFFFFFFFFFFFFFFFFFFFFFFFFFFFFFFFFFFFFFFFFFFFFFFFF999999999999999999999999999999999FFFFFFFFFFFFFFFFFFFFFFFFFFFFFF99FFFFFFFFFFFFFFFFFFFFFFFFFFFFFF99FFFFFFFFFFF
310
FFFFFFFFFFFFFFFFFFF99FFFFFFFFFFFFFFFFFFFFFFFFFFFFFF99FFFFFFFFFFFFFFFFFFFFFFFFFFFFFF99FFFFFFFFFFFFFFFFFFFFFFFFFFFFFF99FFFFFFFFFFFFFFFFFFFFFFFFFFFFFF99FFFFFFFFFFFFFFFFFFFFFFFFFFFFFF99FFFFFFFFFFFFFFFFFFFFFFFFFFFFFF99FFFFFFFFFFFFFFFFFFFFFFFFFFFFFF99FFFFFFFFF
310
FFFFFFFFFFFFFFFFFFFFF99FFFFFFFFFFFFFFFFFFFFFFFFFFFFFF99FFFFFFFFFFFFFFFFFFFFFFFFFFFFFF99FFFFFFFFFFFFFFFFFFFFFFFFFFFFFF99FFFFFFFFFFFFFFFFFFFFFFFFFFFFFF99FFFFFFFFFFFFFFFFFFFFFFFFFFFFFF99FFFFFFFFFFFFFFFFFFFFFFFFFFFFFF99FFFFFFFFFFFFFFFFFFFFF99999999999FFFFFFF
310
FFFFFFFFFFFFFF9FFFFFFFFF99999999999999999999999FFFFFFFFFFFFFFFFFFFFFFFFFFFFFFFFFFFFFFFFFFFFFFFFFFFFFFFFFFFFFFFFFFFFFFFFFFFFFFFFFFFFFFFFFFFFFFFFFFFFFFFFFFFFFFFFFFFFFFFFFFFFFFFFFFFFFFFFFFFFFFFFFFFFFFFFFFFFFFFFFFFFFFFFF
102
{BLKREFS
331
F235
102
}
  0
BLOCK_RECORD
  5
F744
330
7466
100
AcDbSymbolTableRecord
100
AcDbBlockTableRecord
  2
_DOT
340
0
102
{BLKREFS
331
15BA1
331
15BA2
331
15F3A
331
15F3B
331
181A3
331
181A4
331
181AC
331
181AD
331
181C0
331
181C1
331
181C9
331
181CA
331
181D4
331
181D5
331
181DD
331
181DE
331
181E8
331
181E9
331
181F1
331
181F2
331
181FC
331
181FD
331
18205
331
18206
331
1820E
331
1820F
331
18219
331
1821A
331
18222
331
18223
331
1822B
331
1822C
102
}
  0
BLOCK_RECORD
  5
F770
330
7466
100
AcDbSymbolTableRecord
100
AcDbBlockTableRecord
  2
_DOTSMALL
340
0
102
{BLKREFS
331
15BAA
331
15BAB
331
15BB5
331
15BB6
331
15BBE
331
15BBF
331
15BC9
331
15BCA
331
15E98
331
15E99
331
15EA3
331
15EA4
331
15EAC
331
15EAD
331
15EB7
331
15EB8
331
15EC0
331
15EC1
331
15ECA
331
15ECB
331
15ED4
331
15ED5
331
15EDD
331
15EDE
331
15EE6
331
15EE7
331
15EEF
331
15EF0
331
15EF8
331
15EF9
331
15F01
331
15F02
331
15FC4
331
15FC5
331
15FD0
331
15FD1
331
15FDC
331
15FDD
331
15FB8
331
15FB9
331
15FAC
331
15FAD
331
15FA0
331
15FA1
331
15F94
331
15F95
331
15F87
331
15F88
331
15F7A
331
15F7B
331
15F6E
331
15F6F
331
15F60
331
15F61
331
15F54
331
15F55
331
15F46
331
15F47
331
181B5
331
181B6
331
18290
331
18291
102
}
  0
BLOCK_RECORD
  5
14A73
330
7466
100
AcDbSymbolTableRecord
100
AcDbBlockTableRecord
  2
*D3
340
0
  0
BLOCK_RECORD
  5
14A7F
330
7466
100
AcDbSymbolTableRecord
100
AcDbBlockTableRecord
  2
*D4
340
0
  0
BLOCK_RECORD
  5
14A97
330
7466
100
AcDbSymbolTableRecord
100
AcDbBlockTableRecord
  2
*D5
340
0
  0
BLOCK_RECORD
  5
14AB1
330
7466
100
AcDbSymbolTableRecord
100
AcDbBlockTableRecord
  2
*D6
340
0
  0
BLOCK_RECORD
  5
14ABD
330
7466
100
AcDbSymbolTableRecord
100
AcDbBlockTableRecord
  2
*D7
340
0
  0
BLOCK_RECORD
  5
14AD5
330
7466
100
AcDbSymbolTableRecord
100
AcDbBlockTableRecord
  2
*D8
340
0
  0
BLOCK_RECORD
  5
14AE3
330
7466
100
AcDbSymbolTableRecord
100
AcDbBlockTableRecord
  2
*D9
340
0
  0
BLOCK_RECORD
  5
14AEF
330
7466
100
AcDbSymbolTableRecord
100
AcDbBlockTableRecord
  2
*D10
340
0
  0
BLOCK_RECORD
  5
14AFD
330
7466
100
AcDbSymbolTableRecord
100
AcDbBlockTableRecord
  2
*D11
340
0
  0
BLOCK_RECORD
  5
14B09
330
7466
100
AcDbSymbolTableRecord
100
AcDbBlockTableRecord
  2
*D12
340
0
  0
BLOCK_RECORD
  5
15794
330
7466
100
AcDbSymbolTableRecord
100
AcDbBlockTableRecord
  2
*D13
340
0
  0
BLOCK_RECORD
  5
157A2
330
7466
100
AcDbSymbolTableRecord
100
AcDbBlockTableRecord
  2
*D14
340
0
  0
BLOCK_RECORD
  5
157AE
330
7466
100
AcDbSymbolTableRecord
100
AcDbBlockTableRecord
  2
*D15
340
0
  0
BLOCK_RECORD
  5
157BC
330
7466
100
AcDbSymbolTableRecord
100
AcDbBlockTableRecord
  2
*D16
340
0
  0
BLOCK_RECORD
  5
158AA
330
7466
100
AcDbSymbolTableRecord
100
AcDbBlockTableRecord
  2
*D17
340
0
  0
BLOCK_RECORD
  5
15D73
330
7466
100
AcDbSymbolTableRecord
100
AcDbBlockTableRecord
  2
*D18
340
0
  0
BLOCK_RECORD
  5
15D7F
330
7466
100
AcDbSymbolTableRecord
100
AcDbBlockTableRecord
  2
*D19
340
0
  0
BLOCK_RECORD
  5
15D8D
330
7466
100
AcDbSymbolTableRecord
100
AcDbBlockTableRecord
  2
*D20
340
0
  0
BLOCK_RECORD
  5
15D99
330
7466
100
AcDbSymbolTableRecord
100
AcDbBlockTableRecord
  2
*D21
340
0
  0
BLOCK_RECORD
  5
15DA7
330
7466
100
AcDbSymbolTableRecord
100
AcDbBlockTableRecord
  2
*D22
340
0
  0
BLOCK_RECORD
  5
15DC0
330
7466
100
AcDbSymbolTableRecord
100
AcDbBlockTableRecord
  2
*D23
340
0
  0
BLOCK_RECORD
  5
15DCC
330
7466
100
AcDbSymbolTableRecord
100
AcDbBlockTableRecord
  2
*D24
340
0
  0
BLOCK_RECORD
  5
15DD8
330
7466
100
AcDbSymbolTableRecord
100
AcDbBlockTableRecord
  2
*D25
340
0
  0
BLOCK_RECORD
  5
15DE4
330
7466
100
AcDbSymbolTableRecord
100
AcDbBlockTableRecord
  2
*D26
340
0
  0
BLOCK_RECORD
  5
15DF0
330
7466
100
AcDbSymbolTableRecord
100
AcDbBlockTableRecord
  2
*D27
340
0
  0
BLOCK_RECORD
  5
15DFC
330
7466
100
AcDbSymbolTableRecord
100
AcDbBlockTableRecord
  2
*D28
340
0
  0
BLOCK_RECORD
  5
15E09
330
7466
100
AcDbSymbolTableRecord
100
AcDbBlockTableRecord
  2
*D29
340
0
  0
BLOCK_RECORD
  5
15F2B
330
7466
100
AcDbSymbolTableRecord
100
AcDbBlockTableRecord
  2
*D30
340
0
  0
BLOCK_RECORD
  5
15F40
330
7466
100
AcDbSymbolTableRecord
100
AcDbBlockTableRecord
  2
*D31
340
0
  0
BLOCK_RECORD
  5
15F4D
330
7466
100
AcDbSymbolTableRecord
100
AcDbBlockTableRecord
  2
*D32
340
0
  0
BLOCK_RECORD
  5
15F5B
330
7466
100
AcDbSymbolTableRecord
100
AcDbBlockTableRecord
  2
*D33
340
0
  0
BLOCK_RECORD
  5
15F67
330
7466
100
AcDbSymbolTableRecord
100
AcDbBlockTableRecord
  2
*D34
340
0
  0
BLOCK_RECORD
  5
15F75
330
7466
100
AcDbSymbolTableRecord
100
AcDbBlockTableRecord
  2
*D35
340
0
  0
BLOCK_RECORD
  5
15F81
330
7466
100
AcDbSymbolTableRecord
100
AcDbBlockTableRecord
  2
*D36
340
0
  0
BLOCK_RECORD
  5
15F8E
330
7466
100
AcDbSymbolTableRecord
100
AcDbBlockTableRecord
  2
*D37
340
0
  0
BLOCK_RECORD
  5
15F9B
330
7466
100
AcDbSymbolTableRecord
100
AcDbBlockTableRecord
  2
*D38
340
0
  0
BLOCK_RECORD
  5
15FA7
330
7466
100
AcDbSymbolTableRecord
100
AcDbBlockTableRecord
  2
*D39
340
0
  0
BLOCK_RECORD
  5
15FB3
330
7466
100
AcDbSymbolTableRecord
100
AcDbBlockTableRecord
  2
*D40
340
0
  0
BLOCK_RECORD
  5
15FBF
330
7466
100
AcDbSymbolTableRecord
100
AcDbBlockTableRecord
  2
*D41
340
0
  0
BLOCK_RECORD
  5
15FCB
330
7466
100
AcDbSymbolTableRecord
100
AcDbBlockTableRecord
  2
*D42
340
0
  0
BLOCK_RECORD
  5
15FD7
330
7466
100
AcDbSymbolTableRecord
100
AcDbBlockTableRecord
  2
*D43
340
0
  0
BLOCK_RECORD
  5
15FE3
330
7466
100
AcDbSymbolTableRecord
100
AcDbBlockTableRecord
  2
A$C29230101
340
0
  0
BLOCK_RECORD
  5
16175
330
7466
100
AcDbSymbolTableRecord
100
AcDbBlockTableRecord
  2
_OPEN
340
0
  0
BLOCK_RECORD
  5
1782C
330
7466
100
AcDbSymbolTableRecord
100
AcDbBlockTableRecord
  2
*D46
340
0
  0
BLOCK_RECORD
  5
18043
330
7466
100
AcDbSymbolTableRecord
100
AcDbBlockTableRecord
  2
*D47
340
0
  0
BLOCK_RECORD
  5
1805D
330
7466
100
AcDbSymbolTableRecord
100
AcDbBlockTableRecord
  2
*D48
340
0
  0
BLOCK_RECORD
  5
180C3
330
7466
100
AcDbSymbolTableRecord
100
AcDbBlockTableRecord
  2
*D49
340
0
  0
BLOCK_RECORD
  5
180D1
330
7466
100
AcDbSymbolTableRecord
100
AcDbBlockTableRecord
  2
*D50
340
0
  0
BLOCK_RECORD
  5
18254
330
7466
100
AcDbSymbolTableRecord
100
AcDbBlockTableRecord
  2
A$C7FCF7319
340
0
  0
BLOCK_RECORD
  5
18281
330
7466
100
AcDbSymbolTableRecord
100
AcDbBlockTableRecord
  2
*D52
340
0
  0
ENDTAB
  0
ENDSEC
  0
SECTION
  2
BLOCKS
  0
BLOCK
  5
7489
330
747D
100
AcDbEntity
  8
0
100
AcDbBlockBegin
  2
*MODEL_SPACE
 70
     0
 10
0.0
 20
0.0
 30
0.0
  3
*MODEL_SPACE
  1

  0
ENDBLK
  5
748A
330
747D
100
AcDbEntity
  8
0
100
AcDbBlockEnd
  0
BLOCK
  5
7487
330
747A
100
AcDbEntity
 67
     1
  8
0
100
AcDbBlockBegin
  2
*PAPER_SPACE
 70
     0
 10
0.0
 20
0.0
 30
0.0
  3
*PAPER_SPACE
  1

  0
ENDBLK
  5
7488
330
747A
100
AcDbEntity
 67
     1
  8
0
100
AcDbBlockEnd
  0
BLOCK
  5
ECB4
330
ECB3
100
AcDbEntity
  8
0
100
AcDbBlockBegin
  2
作図枠S50
 70
     0
 10
0.0
 20
0.0
 30
0.0
  3
作図枠S50
  1

  4
作図領域枠 縮尺 1/50
  0
LINE
  5
ECB5
330
ECB3
100
AcDbEntity
  8
補助
100
AcDbLine
 10
14364.0
 20
14262.0
 30
0.0
 11
174.9999999999993
 21
14262.0
 31
0.0
  0
LINE
  5
ECB6
330
ECB3
100
AcDbEntity
  8
補助
100
AcDbLine
 10
174.9999999999993
 20
14262.0
 30
0.0
 11
174.9999999999993
 21
1520.0
 31
0.0
  0
LINE
  5
ECB7
330
ECB3
100
AcDbEntity
  8
補助
100
AcDbLine
 10
174.9999999999993
 20
1520.0
 30
0.0
 11
20384.0
 21
1520.0
 31
0.0
  0
LINE
  5
ECB8
330
ECB3
100
AcDbEntity
  8
補助
100
AcDbLine
 10
20384.0
 20
1520.0
 30
0.0
 11
20384.0
 21
13042.0
 31
0.0
  0
LINE
  5
ECB9
330
ECB3
100
AcDbEntity
  8
補助
100
AcDbLine
 10
20384.0
 20
13042.0
 30
0.0
 11
14364.0
 21
13042.0
 31
0.0
  0
LINE
  5
ECBA
330
ECB3
100
AcDbEntity
  8
補助
100
AcDbLine
 10
14364.0
 20
13042.0
 30
0.0
 11
14364.0
 21
14262.0
 31
0.0
  0
ENDBLK
  5
ECBB
330
ECB3
100
AcDbEntity
  8
0
100
AcDbBlockEnd
  0
BLOCK
  5
F745
330
F744
100
AcDbEntity
  8
0
 48
50.0
100
AcDbBlockBegin
  2
_DOT
 70
     0
 10
0.0
 20
0.0
 30
0.0
  3
_DOT
  1

  0
LWPOLYLINE
  5
F746
330
F744
100
AcDbEntity
  8
0
  6
ByBlock
 62
     0
 48
50.0
100
AcDbPolyline
 90
        2
 70
     1
 43
0.5
 10
-0.25
 20
0.0
 42
1.0
 10
0.25
 20
0.0
 42
1.0
  0
LINE
  5
F74A
330
F744
100
AcDbEntity
  8
0
  6
ByBlock
 62
     0
 48
50.0
100
AcDbLine
 10
-0.5
 20
0.0
 30
0.0
 11
-1.0
 21
0.0
 31
0.0
  0
ENDBLK
  5
F74B
330
F744
100
AcDbEntity
  8
0
 48
50.0
100
AcDbBlockEnd
  0
BLOCK
  5
F771
330
F770
100
AcDbEntity
  8
0
 48
50.0
100
AcDbBlockBegin
  2
_DOTSMALL
 70
     0
 10
0.0
 20
0.0
 30
0.0
  3
_DOTSMALL
  1

  0
LWPOLYLINE
  5
F772
330
F770
100
AcDbEntity
  8
0
  6
ByBlock
 62
     0
 48
50.0
100
AcDbPolyline
 90
        2
 70
     1
 43
0.5
 10
-0.0625
 20
0.0
 42
1.0
 10
0.0625
 20
0.0
 42
1.0
  0
ENDBLK
  5
F776
330
F770
100
AcDbEntity
  8
0
 48
50.0
100
AcDbBlockEnd
  0
BLOCK
  5
14A7D
330
14A73
100
AcDbEntity
  8
0
 48
50.0
100
AcDbBlockBegin
  2
*D3
 70
     1
 10
0.0
 20
0.0
 30
0.0
  3
*D3
  1

  0
LINE
  5
18228
330
14A73
100
AcDbEntity
  8
寸法
 62
     0
 48
50.0
370
    -2
100
AcDbLine
 10
5733.904397928898
 20
9588.649909480114
 30
0.0
 11
5733.904397928898
 21
9983.362319498908
 31
0.0
  0
LINE
  5
18229
330
14A73
100
AcDbEntity
  8
寸法
 62
     0
 48
50.0
370
    -2
100
AcDbLine
 10
5843.904397928898
 20
9588.649909480114
 30
0.0
 11
5843.904397928898
 21
9983.362319498908
 31
0.0
  0
LINE
  5
1822A
330
14A73
100
AcDbEntity
  8
寸法
 62
     0
 48
50.0
370
    -2
100
AcDbLine
 10
5753.904397928899
 20
9943.362319498909
 30
0.0
 11
5823.904397928898
 21
9943.362319498909
 31
0.0
  0
INSERT
  5
1822B
330
14A73
100
AcDbEntity
  8
寸法
 62
     0
 48
50.0
370
    -2
100
AcDbBlockReference
  2
_DOT
 10
5733.904397928898
 20
9943.362319498909
 30
0.0
 41
20.0
 42
20.0
 43
20.0
 50
180.0
  0
INSERT
  5
1822C
330
14A73
100
AcDbEntity
  8
寸法
 62
     0
 48
50.0
370
    -2
100
AcDbBlockReference
  2
_DOT
 10
5843.904397928898
 20
9943.362319498909
 30
0.0
 41
20.0
 42
20.0
 43
20.0
  0
MTEXT
  5
1822D
330
14A73
100
AcDbEntity
  8
寸法
 62
     7
 48
50.0
100
AcDbMText
 10
5788.904397928899
 20
10035.36231949891
 30
0.0
 40
120.0
 41
0.0
 71
     5
 72
     1
  1
\A1;110
  7
STYLE1
 73
     1
 44
1.0
1001
ACAD
1000
MTEXTBEGIN
1070
    73
1070
     1
1070
    44
1040
1.0
1070
    74
1070
     0
1000
MTEXTEND
  0
POINT
  5
1822E
330
14A73
100
AcDbEntity
  8
DEFPOINTS
 62
     0
 48
50.0
100
AcDbPoint
 10
5733.904397928898
 20
9568.649909480113
 30
0.0
  0
POINT
  5
1822F
330
14A73
100
AcDbEntity
  8
DEFPOINTS
 62
     0
 48
50.0
100
AcDbPoint
 10
5843.904397928898
 20
9568.649909480113
 30
0.0
  0
POINT
  5
18230
330
14A73
100
AcDbEntity
  8
DEFPOINTS
 62
     0
 48
50.0
100
AcDbPoint
 10
5843.904397928898
 20
9943.362319498909
 30
0.0
  0
ENDBLK
  5
14A7E
330
14A73
100
AcDbEntity
  8
0
 48
50.0
100
AcDbBlockEnd
  0
BLOCK
  5
14A89
330
14A7F
100
AcDbEntity
  8
0
 48
50.0
100
AcDbBlockBegin
  2
*D4
 70
     1
 10
0.0
 20
0.0
 30
0.0
  3
*D4
  1

  0
LINE
  5
1821F
330
14A7F
100
AcDbEntity
  8
寸法
 62
     0
 48
50.0
370
    -2
100
AcDbLine
 10
5843.904397928898
 20
9588.649909480114
 30
0.0
 11
5843.904397928898
 21
9983.362319498908
 31
0.0
  0
LINE
  5
18220
330
14A7F
100
AcDbEntity
  8
寸法
 62
     0
 48
50.0
370
    -2
100
AcDbLine
 10
7943.904397928898
 20
9588.649909480114
 30
0.0
 11
7943.904397928898
 21
9983.362319498908
 31
0.0
  0
LINE
  5
18221
330
14A7F
100
AcDbEntity
  8
寸法
 62
     0
 48
50.0
370
    -2
100
AcDbLine
 10
5863.904397928898
 20
9943.362319498909
 30
0.0
 11
7923.904397928898
 21
9943.362319498909
 31
0.0
  0
INSERT
  5
18222
330
14A7F
100
AcDbEntity
  8
寸法
 62
     0
 48
50.0
370
    -2
100
AcDbBlockReference
  2
_DOT
 10
5843.904397928898
 20
9943.362319498909
 30
0.0
 41
20.0
 42
20.0
 43
20.0
 50
180.0
  0
INSERT
  5
18223
330
14A7F
100
AcDbEntity
  8
寸法
 62
     0
 48
50.0
370
    -2
100
AcDbBlockReference
  2
_DOT
 10
7943.904397928898
 20
9943.362319498909
 30
0.0
 41
20.0
 42
20.0
 43
20.0
  0
MTEXT
  5
18224
330
14A7F
100
AcDbEntity
  8
寸法
 62
     7
 48
50.0
100
AcDbMText
 10
6893.904397928898
 20
10035.37413052253
 30
0.0
 40
120.0
 41
0.0
 71
     5
 72
     1
  1
\A1;5X420=2100
  7
STYLE1
 73
     1
 44
1.0
1001
ACAD
1000
MTEXTBEGIN
1070
    73
1070
     1
1070
    44
1040
1.0
1070
    74
1070
     0
1000
MTEXTEND
  0
POINT
  5
18225
330
14A7F
100
AcDbEntity
  8
DEFPOINTS
 62
     0
 48
50.0
100
AcDbPoint
 10
5843.904397928898
 20
9568.649909480113
 30
0.0
  0
POINT
  5
18226
330
14A7F
100
AcDbEntity
  8
DEFPOINTS
 62
     0
 48
50.0
100
AcDbPoint
 10
7943.904397928898
 20
9568.649909480113
 30
0.0
  0
POINT
  5
18227
330
14A7F
100
AcDbEntity
  8
DEFPOINTS
 62
     0
 48
50.0
100
AcDbPoint
 10
7943.904397928898
 20
9943.362319498909
 30
0.0
  0
ENDBLK
  5
14A8A
330
14A7F
100
AcDbEntity
  8
0
 48
50.0
100
AcDbBlockEnd
  0
BLOCK
  5
14AA3
330
14A97
100
AcDbEntity
  8
0
 48
50.0
100
AcDbBlockBegin
  2
*D5
 70
     1
 10
0.0
 20
0.0
 30
0.0
  3
*D5
  1

  0
LINE
  5
18214
330
14A97
100
AcDbEntity
  8
寸法
 62
     0
 48
50.0
370
    -2
100
AcDbLine
 10
3578.904397928898
 20
9588.64990948011
 30
0.0
 11
3578.904397928898
 21
9983.362319498908
 31
0.0
  0
LINE
  5
18215
330
14A97
100
AcDbEntity
  8
寸法
 62
     0
 48
50.0
370
    -2
100
AcDbLine
 10
3633.904397928898
 20
9588.649909480114
 30
0.0
 11
3633.904397928898
 21
9983.362319498908
 31
0.0
  0
LINE
  5
18216
330
14A97
100
AcDbEntity
  8
寸法
 62
     0
 48
50.0
370
    -2
100
AcDbLine
 10
3653.904397928898
 20
9943.362319498909
 30
0.0
 11
3673.904397928898
 21
9943.362319498909
 31
0.0
  0
LINE
  5
18217
330
14A97
100
AcDbEntity
  8
寸法
 62
     0
 48
50.0
370
    -2
100
AcDbLine
 10
3558.904397928898
 20
9943.362319498909
 30
0.0
 11
3084.252449887995
 21
9943.362319498909
 31
0.0
  0
LINE
  5
18218
330
14A97
100
AcDbEntity
  8
寸法
 62
     0
 48
50.0
370
    -2
100
AcDbLine
 10
3633.904397928898
 20
9943.362319498909
 30
0.0
 11
3578.904397928898
 21
9943.362319498909
 31
0.0
  0
INSERT
  5
18219
330
14A97
100
AcDbEntity
  8
寸法
 62
     0
 48
50.0
370
    -2
100
AcDbBlockReference
  2
_DOT
 10
3633.904397928898
 20
9943.362319498909
 30
0.0
 41
20.0
 42
20.0
 43
20.0
 50
180.0
  0
INSERT
  5
1821A
330
14A97
100
AcDbEntity
  8
寸法
 62
     0
 48
50.0
370
    -2
100
AcDbBlockReference
  2
_DOT
 10
3578.904397928898
 20
9943.362319498909
 30
0.0
 41
20.0
 42
20.0
 43
20.0
  0
MTEXT
  5
1821B
330
14A97
100
AcDbEntity
  8
寸法
 62
     7
 48
50.0
100
AcDbMText
 10
3184.737731262234
 20
10035.36231949891
 30
0.0
 40
120.0
 41
0.0
 71
     5
 72
     1
  1
\A1;55
  7
STYLE1
 73
     1
 44
1.0
1001
ACAD
1000
MTEXTBEGIN
1070
    73
1070
     1
1070
    44
1040
1.0
1070
    74
1070
     0
1000
MTEXTEND
  0
POINT
  5
1821C
330
14A97
100
AcDbEntity
  8
DEFPOINTS
 62
     0
 48
50.0
100
AcDbPoint
 10
3578.904397928898
 20
9568.649909480111
 30
0.0
  0
POINT
  5
1821D
330
14A97
100
AcDbEntity
  8
DEFPOINTS
 62
     0
 48
50.0
100
AcDbPoint
 10
3633.904397928898
 20
9568.649909480113
 30
0.0
  0
POINT
  5
1821E
330
14A97
100
AcDbEntity
  8
DEFPOINTS
 62
     0
 48
50.0
100
AcDbPoint
 10
3633.904397928898
 20
9943.362319498909
 30
0.0
  0
ENDBLK
  5
14AA4
330
14A97
100
AcDbEntity
  8
0
 48
50.0
100
AcDbBlockEnd
  0
BLOCK
  5
14ABB
330
14AB1
100
AcDbEntity
  8
0
 48
50.0
100
AcDbBlockBegin
  2
*D6
 70
     1
 10
0.0
 20
0.0
 30
0.0
  3
*D6
  1

  0
LINE
  5
1820B
330
14AB1
100
AcDbEntity
  8
寸法
 62
     0
 48
50.0
370
    -2
100
AcDbLine
 10
3633.904397928898
 20
9588.649909480114
 30
0.0
 11
3633.904397928898
 21
9983.362319498908
 31
0.0
  0
LINE
  5
1820C
330
14AB1
100
AcDbEntity
  8
寸法
 62
     0
 48
50.0
370
    -2
100
AcDbLine
 10
5733.904397928898
 20
9588.649909480114
 30
0.0
 11
5733.904397928898
 21
9983.362319498908
 31
0.0
  0
LINE
  5
1820D
330
14AB1
100
AcDbEntity
  8
寸法
 62
     0
 48
50.0
370
    -2
100
AcDbLine
 10
3653.904397928898
 20
9943.362319498909
 30
0.0
 11
5713.904397928899
 21
9943.362319498909
 31
0.0
  0
INSERT
  5
1820E
330
14AB1
100
AcDbEntity
  8
寸法
 62
     0
 48
50.0
370
    -2
100
AcDbBlockReference
  2
_DOT
 10
3633.904397928898
 20
9943.362319498909
 30
0.0
 41
20.0
 42
20.0
 43
20.0
 50
180.0
  0
INSERT
  5
1820F
330
14AB1
100
AcDbEntity
  8
寸法
 62
     0
 48
50.0
370
    -2
100
AcDbBlockReference
  2
_DOT
 10
5733.904397928898
 20
9943.362319498909
 30
0.0
 41
20.0
 42
20.0
 43
20.0
  0
MTEXT
  5
18210
330
14AB1
100
AcDbEntity
  8
寸法
 62
     7
 48
50.0
100
AcDbMText
 10
4683.904397928897
 20
10035.37413052253
 30
0.0
 40
120.0
 41
0.0
 71
     5
 72
     1
  1
\A1;5X420=2100
  7
STYLE1
 73
     1
 44
1.0
1001
ACAD
1000
MTEXTBEGIN
1070
    73
1070
     1
1070
    44
1040
1.0
1070
    74
1070
     0
1000
MTEXTEND
  0
POINT
  5
18211
330
14AB1
100
AcDbEntity
  8
DEFPOINTS
 62
     0
 48
50.0
100
AcDbPoint
 10
3633.904397928898
 20
9568.649909480113
 30
0.0
  0
POINT
  5
18212
330
14AB1
100
AcDbEntity
  8
DEFPOINTS
 62
     0
 48
50.0
100
AcDbPoint
 10
5733.904397928898
 20
9568.649909480113
 30
0.0
  0
POINT
  5
18213
330
14AB1
100
AcDbEntity
  8
DEFPOINTS
 62
     0
 48
50.0
100
AcDbPoint
 10
5733.904397928898
 20
9943.362319498909
 30
0.0
  0
ENDBLK
  5
14ABC
330
14AB1
100
AcDbEntity
  8
0
 48
50.0
100
AcDbBlockEnd
  0
BLOCK
  5
14AC7
330
14ABD
100
AcDbEntity
  8
0
 48
50.0
100
AcDbBlockBegin
  2
*D7
 70
     1
 10
0.0
 20
0.0
 30
0.0
  3
*D7
  1

  0
LINE
  5
18202
330
14ABD
100
AcDbEntity
  8
寸法
 62
     0
 48
50.0
370
    -2
100
AcDbLine
 10
3578.904397928898
 20
9588.64990948011
 30
0.0
 11
3578.904397928898
 21
10283.36231949891
 31
0.0
  0
LINE
  5
18203
330
14ABD
100
AcDbEntity
  8
寸法
 62
     0
 48
50.0
370
    -2
100
AcDbLine
 10
7998.904397928898
 20
9588.64990948011
 30
0.0
 11
7998.904397928898
 21
10283.36231949891
 31
0.0
  0
LINE
  5
18204
330
14ABD
100
AcDbEntity
  8
寸法
 62
     0
 48
50.0
370
    -2
100
AcDbLine
 10
3598.904397928898
 20
10243.36231949891
 30
0.0
 11
7978.904397928897
 21
10243.36231949891
 31
0.0
  0
INSERT
  5
18205
330
14ABD
100
AcDbEntity
  8
寸法
 62
     0
 48
50.0
370
    -2
100
AcDbBlockReference
  2
_DOT
 10
3578.904397928898
 20
10243.36231949891
 30
0.0
 41
20.0
 42
20.0
 43
20.0
 50
180.0
  0
INSERT
  5
18206
330
14ABD
100
AcDbEntity
  8
寸法
 62
     0
 48
50.0
370
    -2
100
AcDbBlockReference
  2
_DOT
 10
7998.904397928898
 20
10243.36231949891
 30
0.0
 41
20.0
 42
20.0
 43
20.0
  0
MTEXT
  5
18207
330
14ABD
100
AcDbEntity
  8
寸法
 62
     7
 48
50.0
100
AcDbMText
 10
5788.904397928899
 20
10335.37413052253
 30
0.0
 40
120.0
 41
0.0
 71
     5
 72
     1
  1
\A1;4420
  7
STYLE1
 73
     1
 44
1.0
1001
ACAD
1000
MTEXTBEGIN
1070
    73
1070
     1
1070
    44
1040
1.0
1070
    74
1070
     0
1000
MTEXTEND
  0
POINT
  5
18208
330
14ABD
100
AcDbEntity
  8
DEFPOINTS
 62
     0
 48
50.0
100
AcDbPoint
 10
3578.904397928898
 20
9568.649909480111
 30
0.0
  0
POINT
  5
18209
330
14ABD
100
AcDbEntity
  8
DEFPOINTS
 62
     0
 48
50.0
100
AcDbPoint
 10
7998.904397928898
 20
9568.649909480111
 30
0.0
  0
POINT
  5
1820A
330
14ABD
100
AcDbEntity
  8
DEFPOINTS
 62
     0
 48
50.0
100
AcDbPoint
 10
7998.904397928898
 20
10243.36231949891
 30
0.0
  0
ENDBLK
  5
14AC8
330
14ABD
100
AcDbEntity
  8
0
 48
50.0
100
AcDbBlockEnd
  0
BLOCK
  5
14AE1
330
14AD5
100
AcDbEntity
  8
0
 48
50.0
100
AcDbBlockBegin
  2
*D8
 70
     1
 10
0.0
 20
0.0
 30
0.0
  3
*D8
  1

  0
LINE
  5
181F7
330
14AD5
100
AcDbEntity
  8
寸法
 62
     0
 48
50.0
370
    -2
100
AcDbLine
 10
8018.904397928897
 20
9568.649909480111
 30
0.0
 11
8809.651514973253
 21
9568.649909480111
 31
0.0
  0
LINE
  5
181F8
330
14AD5
100
AcDbEntity
  8
寸法
 62
     0
 48
50.0
370
    -2
100
AcDbLine
 10
8018.904397928897
 20
9513.649909480115
 30
0.0
 11
8809.651514973253
 21
9513.649909480115
 31
0.0
  0
LINE
  5
181F9
330
14AD5
100
AcDbEntity
  8
寸法
 62
     0
 48
50.0
370
    -2
100
AcDbLine
 10
8769.651514973253
 20
9493.649909480115
 30
0.0
 11
8769.651514973253
 21
9473.649909480114
 31
0.0
  0
LINE
  5
181FA
330
14AD5
100
AcDbEntity
  8
寸法
 62
     0
 48
50.0
370
    -2
100
AcDbLine
 10
8769.651514973253
 20
9588.64990948011
 30
0.0
 11
8769.651514973253
 21
10063.30185752101
 31
0.0
  0
LINE
  5
181FB
330
14AD5
100
AcDbEntity
  8
寸法
 62
     0
 48
50.0
370
    -2
100
AcDbLine
 10
8769.651514973253
 20
9513.649909480115
 30
0.0
 11
8769.651514973253
 21
9568.649909480111
 31
0.0
  0
INSERT
  5
181FC
330
14AD5
100
AcDbEntity
  8
寸法
 62
     0
 48
50.0
370
    -2
100
AcDbBlockReference
  2
_DOT
 10
8769.651514973253
 20
9513.649909480115
 30
0.0
 41
20.0
 42
20.0
 43
20.0
 50
90.0
  0
INSERT
  5
181FD
330
14AD5
100
AcDbEntity
  8
寸法
 62
     0
 48
50.0
370
    -2
100
AcDbBlockReference
  2
_DOT
 10
8769.651514973253
 20
9568.649909480111
 30
0.0
 41
20.0
 42
20.0
 43
20.0
 50
270.0
  0
MTEXT
  5
181FE
330
14AD5
100
AcDbEntity
  8
寸法
 62
     7
 48
50.0
100
AcDbMText
 10
8677.651514973252
 20
9962.816576146778
 30
0.0
 40
120.0
 41
0.0
 71
     5
 72
     1
  1
\A1;55
  7
STYLE1
 11
0.0000000000000001
 21
1.0
 31
0.0
 73
     1
 44
1.0
1001
ACAD
1000
MTEXTBEGIN
1070
    73
1070
     1
1070
    44
1040
1.0
1070
    74
1070
     0
1000
MTEXTEND
  0
POINT
  5
181FF
330
14AD5
100
AcDbEntity
  8
DEFPOINTS
 62
     0
 48
50.0
100
AcDbPoint
 10
7998.904397928898
 20
9568.649909480111
 30
0.0
  0
POINT
  5
18200
330
14AD5
100
AcDbEntity
  8
DEFPOINTS
 62
     0
 48
50.0
100
AcDbPoint
 10
7998.904397928898
 20
9513.649909480115
 30
0.0
  0
POINT
  5
18201
330
14AD5
100
AcDbEntity
  8
DEFPOINTS
 62
     0
 48
50.0
100
AcDbPoint
 10
8769.651514973253
 20
9513.649909480115
 30
0.0
  0
ENDBLK
  5
14AE2
330
14AD5
100
AcDbEntity
  8
0
 48
50.0
100
AcDbBlockEnd
  0
BLOCK
  5
14AED
330
14AE3
100
AcDbEntity
  8
0
 48
50.0
100
AcDbBlockBegin
  2
*D9
 70
     1
 10
0.0
 20
0.0
 30
0.0
  3
*D9
  1

  0
LINE
  5
181EE
330
14AE3
100
AcDbEntity
  8
寸法
 62
     0
 48
50.0
370
    -2
100
AcDbLine
 10
8018.904397928897
 20
9513.649909480115
 30
0.0
 11
8809.651514973252
 21
9513.649909480115
 31
0.0
  0
LINE
  5
181EF
330
14AE3
100
AcDbEntity
  8
寸法
 62
     0
 48
50.0
370
    -2
100
AcDbLine
 10
8018.904397928897
 20
7413.649909480108
 30
0.0
 11
8809.651514973252
 21
7413.649909480108
 31
0.0
  0
LINE
  5
181F0
330
14AE3
100
AcDbEntity
  8
寸法
 62
     0
 48
50.0
370
    -2
100
AcDbLine
 10
8769.651514973253
 20
9493.649909480115
 30
0.0
 11
8769.651514973253
 21
7433.649909480107
 31
0.0
  0
INSERT
  5
181F1
330
14AE3
100
AcDbEntity
  8
寸法
 62
     0
 48
50.0
370
    -2
100
AcDbBlockReference
  2
_DOT
 10
8769.651514973253
 20
9513.649909480115
 30
0.0
 41
20.0
 42
20.0
 43
20.0
 50
90.0
  0
INSERT
  5
181F2
330
14AE3
100
AcDbEntity
  8
寸法
 62
     0
 48
50.0
370
    -2
100
AcDbBlockReference
  2
_DOT
 10
8769.651514973253
 20
7413.649909480108
 30
0.0
 41
20.0
 42
20.0
 43
20.0
 50
270.0
  0
MTEXT
  5
181F3
330
14AE3
100
AcDbEntity
  8
寸法
 62
     7
 48
50.0
100
AcDbMText
 10
8677.639703949628
 20
8463.649909480112
 30
0.0
 40
120.0
 41
0.0
 71
     5
 72
     1
  1
\A1;5X420=2100
  7
STYLE1
 11
0.0000000000000001
 21
1.0
 31
0.0
 73
     1
 44
1.0
1001
ACAD
1000
MTEXTBEGIN
1070
    73
1070
     1
1070
    44
1040
1.0
1070
    74
1070
     0
1000
MTEXTEND
  0
POINT
  5
181F4
330
14AE3
100
AcDbEntity
  8
DEFPOINTS
 62
     0
 48
50.0
100
AcDbPoint
 10
7998.904397928898
 20
9513.649909480115
 30
0.0
  0
POINT
  5
181F5
330
14AE3
100
AcDbEntity
  8
DEFPOINTS
 62
     0
 48
50.0
100
AcDbPoint
 10
7998.904397928898
 20
7413.649909480108
 30
0.0
  0
POINT
  5
181F6
330
14AE3
100
AcDbEntity
  8
DEFPOINTS
 62
     0
 48
50.0
100
AcDbPoint
 10
8769.651514973253
 20
7413.649909480108
 30
0.0
  0
ENDBLK
  5
14AEE
330
14AE3
100
AcDbEntity
  8
0
 48
50.0
100
AcDbBlockEnd
  0
BLOCK
  5
14AFB
330
14AEF
100
AcDbEntity
  8
0
 48
50.0
100
AcDbBlockBegin
  2
*D10
 70
     1
 10
0.0
 20
0.0
 30
0.0
  3
*D10
  1

  0
LINE
  5
181E3
330
14AEF
100
AcDbEntity
  8
寸法
 62
     0
 48
50.0
370
    -2
100
AcDbLine
 10
8018.904397928897
 20
7413.649909480108
 30
0.0
 11
8809.651514973253
 21
7413.649909480108
 31
0.0
  0
LINE
  5
181E4
330
14AEF
100
AcDbEntity
  8
寸法
 62
     0
 48
50.0
370
    -2
100
AcDbLine
 10
8018.904397928897
 20
7358.649909480111
 30
0.0
 11
8809.651514973253
 21
7358.649909480111
 31
0.0
  0
LINE
  5
181E5
330
14AEF
100
AcDbEntity
  8
寸法
 62
     0
 48
50.0
370
    -2
100
AcDbLine
 10
8769.651514973253
 20
7433.649909480107
 30
0.0
 11
8769.651514973253
 21
7453.649909480107
 31
0.0
  0
LINE
  5
181E6
330
14AEF
100
AcDbEntity
  8
寸法
 62
     0
 48
50.0
370
    -2
100
AcDbLine
 10
8769.651514973253
 20
7338.64990948011
 30
0.0
 11
8769.651514973253
 21
6863.997961439205
 31
0.0
  0
LINE
  5
181E7
330
14AEF
100
AcDbEntity
  8
寸法
 62
     0
 48
50.0
370
    -2
100
AcDbLine
 10
8769.651514973253
 20
7413.649909480108
 30
0.0
 11
8769.651514973253
 21
7358.649909480111
 31
0.0
  0
INSERT
  5
181E8
330
14AEF
100
AcDbEntity
  8
寸法
 62
     0
 48
50.0
370
    -2
100
AcDbBlockReference
  2
_DOT
 10
8769.651514973253
 20
7413.649909480108
 30
0.0
 41
20.0
 42
20.0
 43
20.0
 50
270.0
  0
INSERT
  5
181E9
330
14AEF
100
AcDbEntity
  8
寸法
 62
     0
 48
50.0
370
    -2
100
AcDbBlockReference
  2
_DOT
 10
8769.651514973253
 20
7358.649909480111
 30
0.0
 41
20.0
 42
20.0
 43
20.0
 50
90.0
  0
MTEXT
  5
181EA
330
14AEF
100
AcDbEntity
  8
寸法
 62
     7
 48
50.0
100
AcDbMText
 10
8677.651514973252
 20
6964.483242813445
 30
0.0
 40
120.0
 41
0.0
 71
     5
 72
     1
  1
\A1;55
  7
STYLE1
 11
0.0000000000000001
 21
1.0
 31
0.0
 73
     1
 44
1.0
1001
ACAD
1000
MTEXTBEGIN
1070
    73
1070
     1
1070
    44
1040
1.0
1070
    74
1070
     0
1000
MTEXTEND
  0
POINT
  5
181EB
330
14AEF
100
AcDbEntity
  8
DEFPOINTS
 62
     0
 48
50.0
100
AcDbPoint
 10
7998.904397928898
 20
7413.649909480108
 30
0.0
  0
POINT
  5
181EC
330
14AEF
100
AcDbEntity
  8
DEFPOINTS
 62
     0
 48
50.0
100
AcDbPoint
 10
7998.904397928898
 20
7358.649909480111
 30
0.0
  0
POINT
  5
181ED
330
14AEF
100
AcDbEntity
  8
DEFPOINTS
 62
     0
 48
50.0
100
AcDbPoint
 10
8769.651514973253
 20
7358.649909480111
 30
0.0
  0
ENDBLK
  5
14AFC
330
14AEF
100
AcDbEntity
  8
0
 48
50.0
100
AcDbBlockEnd
  0
BLOCK
  5
14B07
330
14AFD
100
AcDbEntity
  8
0
 48
50.0
100
AcDbBlockBegin
  2
*D11
 70
     1
 10
0.0
 20
0.0
 30
0.0
  3
*D11
  1

  0
LINE
  5
181DA
330
14AFD
100
AcDbEntity
  8
寸法
 62
     0
 48
50.0
370
    -2
100
AcDbLine
 10
8018.904397928897
 20
9568.649909480111
 30
0.0
 11
9109.651514973251
 21
9568.649909480111
 31
0.0
  0
LINE
  5
181DB
330
14AFD
100
AcDbEntity
  8
寸法
 62
     0
 48
50.0
370
    -2
100
AcDbLine
 10
8018.904397928897
 20
7358.649909480111
 30
0.0
 11
9109.651514973251
 21
7358.649909480111
 31
0.0
  0
LINE
  5
181DC
330
14AFD
100
AcDbEntity
  8
寸法
 62
     0
 48
50.0
370
    -2
100
AcDbLine
 10
9069.651514973251
 20
9548.649909480111
 30
0.0
 11
9069.651514973251
 21
7378.649909480111
 31
0.0
  0
INSERT
  5
181DD
330
14AFD
100
AcDbEntity
  8
寸法
 62
     0
 48
50.0
370
    -2
100
AcDbBlockReference
  2
_DOT
 10
9069.651514973251
 20
9568.649909480111
 30
0.0
 41
20.0
 42
20.0
 43
20.0
 50
90.0
  0
INSERT
  5
181DE
330
14AFD
100
AcDbEntity
  8
寸法
 62
     0
 48
50.0
370
    -2
100
AcDbBlockReference
  2
_DOT
 10
9069.651514973251
 20
7358.649909480111
 30
0.0
 41
20.0
 42
20.0
 43
20.0
 50
270.0
  0
MTEXT
  5
181DF
330
14AFD
100
AcDbEntity
  8
寸法
 62
     7
 48
50.0
100
AcDbMText
 10
8977.639703949627
 20
8463.649909480112
 30
0.0
 40
120.0
 41
0.0
 71
     5
 72
     1
  1
\A1;2210
  7
STYLE1
 11
0.0000000000000001
 21
1.0
 31
0.0
 73
     1
 44
1.0
1001
ACAD
1000
MTEXTBEGIN
1070
    73
1070
     1
1070
    44
1040
1.0
1070
    74
1070
     0
1000
MTEXTEND
  0
POINT
  5
181E0
330
14AFD
100
AcDbEntity
  8
DEFPOINTS
 62
     0
 48
50.0
100
AcDbPoint
 10
7998.904397928898
 20
9568.649909480111
 30
0.0
  0
POINT
  5
181E1
330
14AFD
100
AcDbEntity
  8
DEFPOINTS
 62
     0
 48
50.0
100
AcDbPoint
 10
7998.904397928898
 20
7358.649909480111
 30
0.0
  0
POINT
  5
181E2
330
14AFD
100
AcDbEntity
  8
DEFPOINTS
 62
     0
 48
50.0
100
AcDbPoint
 10
9069.651514973251
 20
7358.649909480111
 30
0.0
  0
ENDBLK
  5
14B08
330
14AFD
100
AcDbEntity
  8
0
 48
50.0
100
AcDbBlockEnd
  0
BLOCK
  5
14B15
330
14B09
100
AcDbEntity
  8
0
 48
50.0
100
AcDbBlockBegin
  2
*D12
 70
     1
 10
0.0
 20
0.0
 30
0.0
  3
*D12
  1

  0
LINE
  5
181CF
330
14B09
100
AcDbEntity
  8
寸法
 62
     0
 48
50.0
370
    -2
100
AcDbLine
 10
7943.904397928898
 20
9588.649909480114
 30
0.0
 11
7943.904397928898
 21
9983.362319498908
 31
0.0
  0
LINE
  5
181D0
330
14B09
100
AcDbEntity
  8
寸法
 62
     0
 48
50.0
370
    -2
100
AcDbLine
 10
7998.904397928898
 20
9588.64990948011
 30
0.0
 11
7998.904397928898
 21
9983.362319498908
 31
0.0
  0
LINE
  5
181D1
330
14B09
100
AcDbEntity
  8
寸法
 62
     0
 48
50.0
370
    -2
100
AcDbLine
 10
7923.904397928898
 20
9943.362319498909
 30
0.0
 11
7903.904397928897
 21
9943.362319498909
 31
0.0
  0
LINE
  5
181D2
330
14B09
100
AcDbEntity
  8
寸法
 62
     0
 48
50.0
370
    -2
100
AcDbLine
 10
8018.904397928897
 20
9943.362319498909
 30
0.0
 11
8493.556345969803
 21
9943.362319498909
 31
0.0
  0
LINE
  5
181D3
330
14B09
100
AcDbEntity
  8
寸法
 62
     0
 48
50.0
370
    -2
100
AcDbLine
 10
7943.904397928898
 20
9943.362319498909
 30
0.0
 11
7998.904397928898
 21
9943.362319498909
 31
0.0
  0
INSERT
  5
181D4
330
14B09
100
AcDbEntity
  8
寸法
 62
     0
 48
50.0
370
    -2
100
AcDbBlockReference
  2
_DOT
 10
7943.904397928898
 20
9943.362319498909
 30
0.0
 41
20.0
 42
20.0
 43
20.0
  0
INSERT
  5
181D5
330
14B09
100
AcDbEntity
  8
寸法
 62
     0
 48
50.0
370
    -2
100
AcDbBlockReference
  2
_DOT
 10
7998.904397928898
 20
9943.362319498909
 30
0.0
 41
20.0
 42
20.0
 43
20.0
 50
180.0
  0
MTEXT
  5
181D6
330
14B09
100
AcDbEntity
  8
寸法
 62
     7
 48
50.0
100
AcDbMText
 10
8393.071064595565
 20
10035.36231949891
 30
0.0
 40
120.0
 41
0.0
 71
     5
 72
     1
  1
\A1;55
  7
STYLE1
 73
     1
 44
1.0
1001
ACAD
1000
MTEXTBEGIN
1070
    73
1070
     1
1070
    44
1040
1.0
1070
    74
1070
     0
1000
MTEXTEND
  0
POINT
  5
181D7
330
14B09
100
AcDbEntity
  8
DEFPOINTS
 62
     0
 48
50.0
100
AcDbPoint
 10
7943.904397928898
 20
9568.649909480113
 30
0.0
  0
POINT
  5
181D8
330
14B09
100
AcDbEntity
  8
DEFPOINTS
 62
     0
 48
50.0
100
AcDbPoint
 10
7998.904397928898
 20
9568.649909480111
 30
0.0
  0
POINT
  5
181D9
330
14B09
100
AcDbEntity
  8
DEFPOINTS
 62
     0
 48
50.0
100
AcDbPoint
 10
7998.904397928898
 20
9943.362319498909
 30
0.0
  0
ENDBLK
  5
14B16
330
14B09
100
AcDbEntity
  8
0
 48
50.0
100
AcDbBlockEnd
  0
BLOCK
  5
157A0
330
15794
100
AcDbEntity
  8
0
 48
50.0
100
AcDbBlockBegin
  2
*D13
 70
     1
 10
0.0
 20
0.0
 30
0.0
  3
*D13
  1

  0
LINE
  5
15BC4
330
15794
100
AcDbEntity
  8
寸法
 62
     0
 48
50.0
370
    -2
100
AcDbLine
 10
3578.904397928898
 20
4683.112805903263
 30
0.0
 11
3578.904397928898
 21
4935.6543911615
 31
0.0
  0
LINE
  5
15BC5
330
15794
100
AcDbEntity
  8
寸法
 62
     0
 48
50.0
370
    -2
100
AcDbLine
 10
3528.904397928898
 20
4683.112805903263
 30
0.0
 11
3528.904397928898
 21
4935.6543911615
 31
0.0
  0
LINE
  5
15BC6
330
15794
100
AcDbEntity
  8
寸法
 62
     0
 48
50.0
370
    -2
100
AcDbLine
 10
3578.904397928898
 20
4875.654391161501
 30
0.0
 11
3678.904397928898
 21
4875.654391161501
 31
0.0
  0
LINE
  5
15BC7
330
15794
100
AcDbEntity
  8
寸法
 62
     0
 48
50.0
370
    -2
100
AcDbLine
 10
3528.904397928898
 20
4875.654391161501
 30
0.0
 11
3109.371872460163
 21
4875.654391161501
 31
0.0
  0
LINE
  5
15BC8
330
15794
100
AcDbEntity
  8
寸法
 62
     0
 48
50.0
370
    -2
100
AcDbLine
 10
3578.904397928898
 20
4875.654391161501
 30
0.0
 11
3528.904397928898
 21
4875.654391161501
 31
0.0
  0
INSERT
  5
15BC9
330
15794
100
AcDbEntity
  8
寸法
 62
     0
 48
50.0
370
    -2
100
AcDbBlockReference
  2
_DOTSMALL
 10
3578.904397928898
 20
4875.654391161501
 30
0.0
 41
100.0
 42
100.0
 43
100.0
 50
180.0
  0
INSERT
  5
15BCA
330
15794
100
AcDbEntity
  8
寸法
 62
     0
 48
50.0
370
    -2
100
AcDbBlockReference
  2
_DOTSMALL
 10
3528.904397928898
 20
4875.654391161501
 30
0.0
 41
100.0
 42
100.0
 43
100.0
  0
MTEXT
  5
15BCB
330
15794
100
AcDbEntity
  8
寸法
 62
     7
 48
50.0
100
AcDbMText
 10
3215.419116554651
 20
4975.654391161501
 30
0.0
 40
120.0
 41
0.0
 71
     5
 72
     1
  1
\A1;50
  7
STYLE1
 73
     1
 44
1.0
1001
ACAD
1000
MTEXTBEGIN
1070
    73
1070
     1
1070
    44
1040
1.0
1070
    74
1070
     0
1000
MTEXTEND
  0
POINT
  5
15BCC
330
15794
100
AcDbEntity
  8
DEFPOINTS
 62
     0
 48
50.0
100
AcDbPoint
 10
3578.904397928898
 20
4663.112805903263
 30
0.0
  0
POINT
  5
15BCD
330
15794
100
AcDbEntity
  8
DEFPOINTS
 62
     0
 48
50.0
100
AcDbPoint
 10
3528.904397928898
 20
4663.112805903263
 30
0.0
  0
POINT
  5
15BCE
330
15794
100
AcDbEntity
  8
DEFPOINTS
 62
     0
 48
50.0
100
AcDbPoint
 10
3528.904397928898
 20
4875.654391161501
 30
0.0
  0
ENDBLK
  5
157A1
330
15794
100
AcDbEntity
  8
0
 48
50.0
100
AcDbBlockEnd
  0
BLOCK
  5
157AC
330
157A2
100
AcDbEntity
  8
0
 48
50.0
100
AcDbBlockBegin
  2
*D14
 70
     1
 10
0.0
 20
0.0
 30
0.0
  3
*D14
  1

  0
LINE
  5
15BBB
330
157A2
100
AcDbEntity
  8
寸法
 62
     0
 48
50.0
370
    -2
100
AcDbLine
 10
3528.904397928898
 20
4683.112805903263
 30
0.0
 11
3528.904397928898
 21
5156.559691635251
 31
0.0
  0
LINE
  5
15BBC
330
157A2
100
AcDbEntity
  8
寸法
 62
     0
 48
50.0
370
    -2
100
AcDbLine
 10
8048.904397928902
 20
4683.112805903256
 30
0.0
 11
8048.904397928902
 21
5156.559691635251
 31
0.0
  0
LINE
  5
15BBD
330
157A2
100
AcDbEntity
  8
寸法
 62
     0
 48
50.0
370
    -2
100
AcDbLine
 10
3528.904397928898
 20
5096.559691635252
 30
0.0
 11
8048.904397928902
 21
5096.559691635252
 31
0.0
  0
INSERT
  5
15BBE
330
157A2
100
AcDbEntity
  8
寸法
 62
     0
 48
50.0
370
    -2
100
AcDbBlockReference
  2
_DOTSMALL
 10
3528.904397928898
 20
5096.559691635252
 30
0.0
 41
100.0
 42
100.0
 43
100.0
 50
180.0
  0
INSERT
  5
15BBF
330
157A2
100
AcDbEntity
  8
寸法
 62
     0
 48
50.0
370
    -2
100
AcDbBlockReference
  2
_DOTSMALL
 10
8048.904397928902
 20
5096.559691635252
 30
0.0
 41
100.0
 42
100.0
 43
100.0
  0
MTEXT
  5
15BC0
330
157A2
100
AcDbEntity
  8
寸法
 62
     7
 48
50.0
100
AcDbMText
 10
5788.904397928899
 20
5196.571502658873
 30
0.0
 40
120.0
 41
0.0
 71
     5
 72
     1
  1
\A1;4520
  7
STYLE1
 73
     1
 44
1.0
1001
ACAD
1000
MTEXTBEGIN
1070
    73
1070
     1
1070
    44
1040
1.0
1070
    74
1070
     0
1000
MTEXTEND
  0
POINT
  5
15BC1
330
157A2
100
AcDbEntity
  8
DEFPOINTS
 62
     0
 48
50.0
100
AcDbPoint
 10
3528.904397928898
 20
4663.112805903263
 30
0.0
  0
POINT
  5
15BC2
330
157A2
100
AcDbEntity
  8
DEFPOINTS
 62
     0
 48
50.0
100
AcDbPoint
 10
8048.904397928902
 20
4663.112805903256
 30
0.0
  0
POINT
  5
15BC3
330
157A2
100
AcDbEntity
  8
DEFPOINTS
 62
     0
 48
50.0
100
AcDbPoint
 10
8048.904397928902
 20
5096.559691635252
 30
0.0
  0
ENDBLK
  5
157AD
330
157A2
100
AcDbEntity
  8
0
 48
50.0
100
AcDbBlockEnd
  0
BLOCK
  5
157BA
330
157AE
100
AcDbEntity
  8
0
 48
50.0
100
AcDbBlockBegin
  2
*D15
 70
     1
 10
0.0
 20
0.0
 30
0.0
  3
*D15
  1

  0
LINE
  5
15BB0
330
157AE
100
AcDbEntity
  8
寸法
 62
     0
 48
50.0
370
    -2
100
AcDbLine
 10
8048.904397928902
 20
4683.112805903256
 30
0.0
 11
8048.904397928902
 21
4935.6543911615
 31
0.0
  0
LINE
  5
15BB1
330
157AE
100
AcDbEntity
  8
寸法
 62
     0
 48
50.0
370
    -2
100
AcDbLine
 10
7998.904397928902
 20
4683.11280590326
 30
0.0
 11
7998.904397928902
 21
4935.6543911615
 31
0.0
  0
LINE
  5
15BB2
330
157AE
100
AcDbEntity
  8
寸法
 62
     0
 48
50.0
370
    -2
100
AcDbLine
 10
7998.904397928902
 20
4875.654391161501
 30
0.0
 11
7898.904397928902
 21
4875.654391161501
 31
0.0
  0
LINE
  5
15BB3
330
157AE
100
AcDbEntity
  8
寸法
 62
     0
 48
50.0
370
    -2
100
AcDbLine
 10
8048.904397928902
 20
4875.654391161501
 30
0.0
 11
8468.436923397625
 21
4875.654391161501
 31
0.0
  0
LINE
  5
15BB4
330
157AE
100
AcDbEntity
  8
寸法
 62
     0
 48
50.0
370
    -2
100
AcDbLine
 10
7998.904397928902
 20
4875.654391161501
 30
0.0
 11
8048.904397928902
 21
4875.654391161501
 31
0.0
  0
INSERT
  5
15BB5
330
157AE
100
AcDbEntity
  8
寸法
 62
     0
 48
50.0
370
    -2
100
AcDbBlockReference
  2
_DOTSMALL
 10
7998.904397928902
 20
4875.654391161501
 30
0.0
 41
100.0
 42
100.0
 43
100.0
  0
INSERT
  5
15BB6
330
157AE
100
AcDbEntity
  8
寸法
 62
     0
 48
50.0
370
    -2
100
AcDbBlockReference
  2
_DOTSMALL
 10
8048.904397928902
 20
4875.654391161501
 30
0.0
 41
100.0
 42
100.0
 43
100.0
 50
180.0
  0
MTEXT
  5
15BB7
330
157AE
100
AcDbEntity
  8
寸法
 62
     7
 48
50.0
100
AcDbMText
 10
8362.389679303138
 20
4975.654391161501
 30
0.0
 40
120.0
 41
0.0
 71
     5
 72
     1
  1
\A1;50
  7
STYLE1
 73
     1
 44
1.0
1001
ACAD
1000
MTEXTBEGIN
1070
    73
1070
     1
1070
    44
1040
1.0
1070
    74
1070
     0
1000
MTEXTEND
  0
POINT
  5
15BB8
330
157AE
100
AcDbEntity
  8
DEFPOINTS
 62
     0
 48
50.0
100
AcDbPoint
 10
8048.904397928902
 20
4663.112805903256
 30
0.0
  0
POINT
  5
15BB9
330
157AE
100
AcDbEntity
  8
DEFPOINTS
 62
     0
 48
50.0
100
AcDbPoint
 10
7998.904397928902
 20
4663.112805903259
 30
0.0
  0
POINT
  5
15BBA
330
157AE
100
AcDbEntity
  8
DEFPOINTS
 62
     0
 48
50.0
100
AcDbPoint
 10
7998.904397928902
 20
4875.654391161501
 30
0.0
  0
ENDBLK
  5
157BB
330
157AE
100
AcDbEntity
  8
0
 48
50.0
100
AcDbBlockEnd
  0
BLOCK
  5
157C6
330
157BC
100
AcDbEntity
  8
0
 48
50.0
100
AcDbBlockBegin
  2
*D16
 70
     1
 10
0.0
 20
0.0
 30
0.0
  3
*D16
  1

  0
LINE
  5
15BA7
330
157BC
100
AcDbEntity
  8
寸法
 62
     0
 48
50.0
370
    -2
100
AcDbLine
 10
7998.904397928902
 20
4683.11280590326
 30
0.0
 11
7998.904397928902
 21
4935.6543911615
 31
0.0
  0
LINE
  5
15BA8
330
157BC
100
AcDbEntity
  8
寸法
 62
     0
 48
50.0
370
    -2
100
AcDbLine
 10
3578.904397928898
 20
4683.112805903263
 30
0.0
 11
3578.904397928898
 21
4935.6543911615
 31
0.0
  0
LINE
  5
15BA9
330
157BC
100
AcDbEntity
  8
寸法
 62
     0
 48
50.0
370
    -2
100
AcDbLine
 10
7998.904397928902
 20
4875.654391161501
 30
0.0
 11
3578.904397928898
 21
4875.654391161501
 31
0.0
  0
INSERT
  5
15BAA
330
157BC
100
AcDbEntity
  8
寸法
 62
     0
 48
50.0
370
    -2
100
AcDbBlockReference
  2
_DOTSMALL
 10
7998.904397928902
 20
4875.654391161501
 30
0.0
 41
100.0
 42
100.0
 43
100.0
  0
INSERT
  5
15BAB
330
157BC
100
AcDbEntity
  8
寸法
 62
     0
 48
50.0
370
    -2
100
AcDbBlockReference
  2
_DOTSMALL
 10
3578.904397928898
 20
4875.654391161501
 30
0.0
 41
100.0
 42
100.0
 43
100.0
 50
180.0
  0
MTEXT
  5
15BAC
330
157BC
100
AcDbEntity
  8
寸法
 62
     7
 48
50.0
100
AcDbMText
 10
5788.904397928899
 20
4975.666202185123
 30
0.0
 40
120.0
 41
0.0
 71
     5
 72
     1
  1
\A1;柱外寸法4420
  7
STYLE1
 73
     1
 44
1.0
1001
ACAD
1000
MTEXTBEGIN
1070
    73
1070
     1
1070
    44
1040
1.0
1070
    74
1070
     0
1000
MTEXTEND
  0
POINT
  5
15BAD
330
157BC
100
AcDbEntity
  8
DEFPOINTS
 62
     0
 48
50.0
100
AcDbPoint
 10
7998.904397928902
 20
4663.112805903259
 30
0.0
  0
POINT
  5
15BAE
330
157BC
100
AcDbEntity
  8
DEFPOINTS
 62
     0
 48
50.0
100
AcDbPoint
 10
3578.904397928898
 20
4663.112805903263
 30
0.0
  0
POINT
  5
15BAF
330
157BC
100
AcDbEntity
  8
DEFPOINTS
 62
     0
 48
50.0
100
AcDbPoint
 10
3578.904397928898
 20
4875.654391161501
 30
0.0
  0
ENDBLK
  5
157C7
330
157BC
100
AcDbEntity
  8
0
 48
50.0
100
AcDbBlockEnd
  0
BLOCK
  5
158B4
330
158AA
100
AcDbEntity
  8
0
 48
50.0
100
AcDbBlockBegin
  2
*D17
 70
     1
 10
0.0
 20
0.0
 30
0.0
  3
*D17
  1

  0
LINE
  5
15B9E
330
158AA
100
AcDbEntity
  8
寸法
 62
     0
 48
50.0
370
    -2
100
AcDbLine
 10
8098.904397928897
 20
1968.112805903256
 30
0.0
 11
8098.904397928897
 21
1612.922421664043
 31
0.0
  0
LINE
  5
15B9F
330
158AA
100
AcDbEntity
  8
寸法
 62
     0
 48
50.0
370
    -2
100
AcDbLine
 10
7898.904397928898
 20
1968.112805903256
 30
0.0
 11
7898.904397928898
 21
1612.922421664043
 31
0.0
  0
LINE
  5
15BA0
330
158AA
100
AcDbEntity
  8
寸法
 62
     0
 48
50.0
370
    -2
100
AcDbLine
 10
8078.904397928898
 20
1652.922421664043
 30
0.0
 11
7918.904397928898
 21
1652.922421664043
 31
0.0
  0
INSERT
  5
15BA1
330
158AA
100
AcDbEntity
  8
寸法
 62
     0
 48
50.0
370
    -2
100
AcDbBlockReference
  2
_DOT
 10
8098.904397928897
 20
1652.922421664043
 30
0.0
 41
20.0
 42
20.0
 43
20.0
  0
INSERT
  5
15BA2
330
158AA
100
AcDbEntity
  8
寸法
 62
     0
 48
50.0
370
    -2
100
AcDbBlockReference
  2
_DOT
 10
7898.904397928898
 20
1652.922421664043
 30
0.0
 41
20.0
 42
20.0
 43
20.0
 50
180.0
  0
MTEXT
  5
15BA3
330
158AA
100
AcDbEntity
  8
寸法
 62
     7
 48
50.0
100
AcDbMText
 10
7998.904397928898
 20
1744.934232687665
 30
0.0
 40
120.0
 41
0.0
 71
     5
 72
     1
  1
\A1;200
  7
STYLE1
 73
     1
 44
1.0
1001
ACAD
1000
MTEXTBEGIN
1070
    73
1070
     1
1070
    44
1040
1.0
1070
    74
1070
     0
1000
MTEXTEND
  0
POINT
  5
15BA4
330
158AA
100
AcDbEntity
  8
DEFPOINTS
 62
     0
 48
50.0
100
AcDbPoint
 10
8098.904397928897
 20
1988.112805903256
 30
0.0
  0
POINT
  5
15BA5
330
158AA
100
AcDbEntity
  8
DEFPOINTS
 62
     0
 48
50.0
100
AcDbPoint
 10
7898.904397928898
 20
1988.112805903256
 30
0.0
  0
POINT
  5
15BA6
330
158AA
100
AcDbEntity
  8
DEFPOINTS
 62
     0
 48
50.0
100
AcDbPoint
 10
7898.904397928898
 20
1652.922421664043
 30
0.0
  0
ENDBLK
  5
158B5
330
158AA
100
AcDbEntity
  8
0
 48
50.0
100
AcDbBlockEnd
  0
BLOCK
  5
15D7D
330
15D73
100
AcDbEntity
  8
0
 48
50.0
100
AcDbBlockBegin
  2
*D18
 70
     1
 10
0.0
 20
0.0
 30
0.0
  3
*D18
  1

  0
LINE
  5
15EBD
330
15D73
100
AcDbEntity
  8
寸法
 62
     0
 48
50.0
370
    -2
100
AcDbLine
 10
13875.14422886715
 20
4628.112805903258
 30
0.0
 11
13875.14422886715
 21
5340.972093156852
 31
0.0
  0
LINE
  5
15EBE
330
15D73
100
AcDbEntity
  8
寸法
 62
     0
 48
50.0
370
    -2
100
AcDbLine
 10
11525.14422886715
 20
4683.112805903261
 30
0.0
 11
11525.14422886715
 21
5340.972093156852
 31
0.0
  0
LINE
  5
15EBF
330
15D73
100
AcDbEntity
  8
寸法
 62
     0
 48
50.0
370
    -2
100
AcDbLine
 10
13875.14422886715
 20
5280.972093156852
 30
0.0
 11
11525.14422886715
 21
5280.972093156852
 31
0.0
  0
INSERT
  5
15EC0
330
15D73
100
AcDbEntity
  8
寸法
 62
     0
 48
50.0
370
    -2
100
AcDbBlockReference
  2
_DOTSMALL
 10
13875.14422886715
 20
5280.972093156852
 30
0.0
 41
100.0
 42
100.0
 43
100.0
  0
INSERT
  5
15EC1
330
15D73
100
AcDbEntity
  8
寸法
 62
     0
 48
50.0
370
    -2
100
AcDbBlockReference
  2
_DOTSMALL
 10
11525.14422886715
 20
5280.972093156852
 30
0.0
 41
100.0
 42
100.0
 43
100.0
 50
180.0
  0
MTEXT
  5
15EC2
330
15D73
100
AcDbEntity
  8
寸法
 62
     7
 48
50.0
100
AcDbMText
 10
12759.48808295962
 20
5380.983904180474
 30
0.0
 40
120.0
 41
0.0
 71
     5
 72
     1
  1
\A1;2350
  7
STYLE1
 73
     1
 44
1.0
1001
ACAD
1000
MTEXTBEGIN
1070
    73
1070
     1
1070
    44
1040
1.0
1070
    74
1070
     0
1000
MTEXTEND
  0
POINT
  5
15EC3
330
15D73
100
AcDbEntity
  8
DEFPOINTS
 62
     0
 48
50.0
100
AcDbPoint
 10
13875.14422886715
 20
4608.112805903258
 30
0.0
  0
POINT
  5
15EC4
330
15D73
100
AcDbEntity
  8
DEFPOINTS
 62
     0
 48
50.0
100
AcDbPoint
 10
11525.14422886715
 20
4663.112805903262
 30
0.0
  0
POINT
  5
15EC5
330
15D73
100
AcDbEntity
  8
DEFPOINTS
 62
     0
 48
50.0
100
AcDbPoint
 10
11525.14422886715
 20
5280.972093156852
 30
0.0
  0
ENDBLK
  5
15D7E
330
15D73
100
AcDbEntity
  8
0
 48
50.0
100
AcDbBlockEnd
  0
BLOCK
  5
15D8B
330
15D7F
100
AcDbEntity
  8
0
 48
50.0
100
AcDbBlockBegin
  2
*D19
 70
     1
 10
0.0
 20
0.0
 30
0.0
  3
*D19
  1

  0
LINE
  5
15EB2
330
15D7F
100
AcDbEntity
  8
寸法
 62
     0
 48
50.0
370
    -2
100
AcDbLine
 10
11585.14422886715
 20
4679.114424026233
 30
0.0
 11
11585.14422886715
 21
5121.77025948256
 31
0.0
  0
LINE
  5
15EB3
330
15D7F
100
AcDbEntity
  8
寸法
 62
     0
 48
50.0
370
    -2
100
AcDbLine
 10
11525.14422886715
 20
4683.112805903261
 30
0.0
 11
11525.14422886715
 21
5121.77025948256
 31
0.0
  0
LINE
  5
15EB4
330
15D7F
100
AcDbEntity
  8
寸法
 62
     0
 48
50.0
370
    -2
100
AcDbLine
 10
11585.14422886715
 20
5061.77025948256
 30
0.0
 11
11685.14422886715
 21
5061.77025948256
 31
0.0
  0
LINE
  5
15EB5
330
15D7F
100
AcDbEntity
  8
寸法
 62
     0
 48
50.0
370
    -2
100
AcDbLine
 10
11525.14422886715
 20
5061.77025948256
 30
0.0
 11
11105.86863831596
 21
5061.77025948256
 31
0.0
  0
LINE
  5
15EB6
330
15D7F
100
AcDbEntity
  8
寸法
 62
     0
 48
50.0
370
    -2
100
AcDbLine
 10
11585.14422886715
 20
5061.77025948256
 30
0.0
 11
11525.14422886715
 21
5061.77025948256
 31
0.0
  0
INSERT
  5
15EB7
330
15D7F
100
AcDbEntity
  8
寸法
 62
     0
 48
50.0
370
    -2
100
AcDbBlockReference
  2
_DOTSMALL
 10
11585.14422886715
 20
5061.77025948256
 30
0.0
 41
100.0
 42
100.0
 43
100.0
 50
180.0
  0
INSERT
  5
15EB8
330
15D7F
100
AcDbEntity
  8
寸法
 62
     0
 48
50.0
370
    -2
100
AcDbBlockReference
  2
_DOTSMALL
 10
11525.14422886715
 20
5061.77025948256
 30
0.0
 41
100.0
 42
100.0
 43
100.0
  0
MTEXT
  5
15EB9
330
15D7F
100
AcDbEntity
  8
寸法
 62
     7
 48
50.0
100
AcDbMText
 10
11215.50643359155
 20
5161.770259482561
 30
0.0
 40
120.0
 41
0.0
 71
     5
 72
     1
  1
\A1;60
  7
STYLE1
 73
     1
 44
1.0
1001
ACAD
1000
MTEXTBEGIN
1070
    73
1070
     1
1070
    44
1040
1.0
1070
    74
1070
     0
1000
MTEXTEND
  0
POINT
  5
15EBA
330
15D7F
100
AcDbEntity
  8
DEFPOINTS
 62
     0
 48
50.0
100
AcDbPoint
 10
11585.14422886715
 20
4659.114424026233
 30
0.0
  0
POINT
  5
15EBB
330
15D7F
100
AcDbEntity
  8
DEFPOINTS
 62
     0
 48
50.0
100
AcDbPoint
 10
11525.14422886715
 20
4663.112805903262
 30
0.0
  0
POINT
  5
15EBC
330
15D7F
100
AcDbEntity
  8
DEFPOINTS
 62
     0
 48
50.0
100
AcDbPoint
 10
11525.14422886715
 20
5061.77025948256
 30
0.0
  0
ENDBLK
  5
15D8C
330
15D7F
100
AcDbEntity
  8
0
 48
50.0
100
AcDbBlockEnd
  0
BLOCK
  5
15D97
330
15D8D
100
AcDbEntity
  8
0
 48
50.0
100
AcDbBlockBegin
  2
*D20
 70
     1
 10
0.0
 20
0.0
 30
0.0
  3
*D20
  1

  0
LINE
  5
15EA9
330
15D8D
100
AcDbEntity
  8
寸法
 62
     0
 48
50.0
370
    -2
100
AcDbLine
 10
13795.14422886715
 20
4629.92348551491
 30
0.0
 11
13795.14422886715
 21
5121.77025948256
 31
0.0
  0
LINE
  5
15EAA
330
15D8D
100
AcDbEntity
  8
寸法
 62
     0
 48
50.0
370
    -2
100
AcDbLine
 10
11585.14422886715
 20
4679.114424026233
 30
0.0
 11
11585.14422886715
 21
5121.77025948256
 31
0.0
  0
LINE
  5
15EAB
330
15D8D
100
AcDbEntity
  8
寸法
 62
     0
 48
50.0
370
    -2
100
AcDbLine
 10
13795.14422886715
 20
5061.77025948256
 30
0.0
 11
11585.14422886715
 21
5061.77025948256
 31
0.0
  0
INSERT
  5
15EAC
330
15D8D
100
AcDbEntity
  8
寸法
 62
     0
 48
50.0
370
    -2
100
AcDbBlockReference
  2
_DOTSMALL
 10
13795.14422886715
 20
5061.77025948256
 30
0.0
 41
100.0
 42
100.0
 43
100.0
  0
INSERT
  5
15EAD
330
15D8D
100
AcDbEntity
  8
寸法
 62
     0
 48
50.0
370
    -2
100
AcDbBlockReference
  2
_DOTSMALL
 10
11585.14422886715
 20
5061.77025948256
 30
0.0
 41
100.0
 42
100.0
 43
100.0
 50
180.0
  0
MTEXT
  5
15EAE
330
15D8D
100
AcDbEntity
  8
寸法
 62
     7
 48
50.0
100
AcDbMText
 10
12679.78896593766
 20
5161.782070506182
 30
0.0
 40
120.0
 41
0.0
 71
     5
 72
     1
  1
\A1;柱外寸法2210
  7
STYLE1
 73
     1
 44
1.0
1001
ACAD
1000
MTEXTBEGIN
1070
    73
1070
     1
1070
    44
1040
1.0
1070
    74
1070
     0
1000
MTEXTEND
  0
POINT
  5
15EAF
330
15D8D
100
AcDbEntity
  8
DEFPOINTS
 62
     0
 48
50.0
100
AcDbPoint
 10
13795.14422886715
 20
4609.92348551491
 30
0.0
  0
POINT
  5
15EB0
330
15D8D
100
AcDbEntity
  8
DEFPOINTS
 62
     0
 48
50.0
100
AcDbPoint
 10
11585.14422886715
 20
4659.114424026233
 30
0.0
  0
POINT
  5
15EB1
330
15D8D
100
AcDbEntity
  8
DEFPOINTS
 62
     0
 48
50.0
100
AcDbPoint
 10
11585.14422886715
 20
5061.77025948256
 30
0.0
  0
ENDBLK
  5
15D98
330
15D8D
100
AcDbEntity
  8
0
 48
50.0
100
AcDbBlockEnd
  0
BLOCK
  5
15DA5
330
15D99
100
AcDbEntity
  8
0
 48
50.0
100
AcDbBlockBegin
  2
*D21
 70
     1
 10
0.0
 20
0.0
 30
0.0
  3
*D21
  1

  0
LINE
  5
15E9E
330
15D99
100
AcDbEntity
  8
寸法
 62
     0
 48
50.0
370
    -2
100
AcDbLine
 10
11565.14422886715
 20
2338.112805903257
 30
0.0
 11
10681.39409968389
 21
2338.112805903257
 31
0.0
  0
LINE
  5
15E9F
330
15D99
100
AcDbEntity
  8
寸法
 62
     0
 48
50.0
370
    -2
100
AcDbLine
 10
11510.14422886714
 20
2288.112805903256
 30
0.0
 11
10681.39409968389
 21
2288.112805903257
 31
0.0
  0
LINE
  5
15EA0
330
15D99
100
AcDbEntity
  8
寸法
 62
     0
 48
50.0
370
    -2
100
AcDbLine
 10
10741.39409968389
 20
2338.112805903257
 30
0.0
 11
10741.39409968389
 21
2438.112805903257
 31
0.0
  0
LINE
  5
15EA1
330
15D99
100
AcDbEntity
  8
寸法
 62
     0
 48
50.0
370
    -2
100
AcDbLine
 10
10741.39409968389
 20
2288.112805903257
 30
0.0
 11
10741.39409968389
 21
1876.018317714279
 31
0.0
  0
LINE
  5
15EA2
330
15D99
100
AcDbEntity
  8
寸法
 62
     0
 48
50.0
370
    -2
100
AcDbLine
 10
10741.39409968389
 20
2338.112805903257
 30
0.0
 11
10741.39409968389
 21
2288.112805903257
 31
0.0
  0
INSERT
  5
15EA3
330
15D99
100
AcDbEntity
  8
寸法
 62
     0
 48
50.0
370
    -2
100
AcDbBlockReference
  2
_DOTSMALL
 10
10741.39409968389
 20
2338.112805903257
 30
0.0
 41
100.0
 42
100.0
 43
100.0
 50
270.0
  0
INSERT
  5
15EA4
330
15D99
100
AcDbEntity
  8
寸法
 62
     0
 48
50.0
370
    -2
100
AcDbBlockReference
  2
_DOTSMALL
 10
10741.39409968389
 20
2288.112805903257
 30
0.0
 41
100.0
 42
100.0
 43
100.0
 50
90.0
  0
MTEXT
  5
15EA5
330
15D99
100
AcDbEntity
  8
寸法
 62
     7
 48
50.0
100
AcDbMText
 10
10641.39409968389
 20
1982.065561808769
 30
0.0
 40
120.0
 41
0.0
 71
     5
 72
     1
  1
\A1;50
  7
STYLE1
 11
0.0000000000000001
 21
1.0
 31
0.0
 73
     1
 44
1.0
1001
ACAD
1000
MTEXTBEGIN
1070
    73
1070
     1
1070
    44
1040
1.0
1070
    74
1070
     0
1000
MTEXTEND
  0
POINT
  5
15EA6
330
15D99
100
AcDbEntity
  8
DEFPOINTS
 62
     0
 48
50.0
100
AcDbPoint
 10
11585.14422886715
 20
2338.112805903257
 30
0.0
  0
POINT
  5
15EA7
330
15D99
100
AcDbEntity
  8
DEFPOINTS
 62
     0
 48
50.0
100
AcDbPoint
 10
11530.14422886714
 20
2288.112805903256
 30
0.0
  0
POINT
  5
15EA8
330
15D99
100
AcDbEntity
  8
DEFPOINTS
 62
     0
 48
50.0
100
AcDbPoint
 10
10741.39409968389
 20
2288.112805903257
 30
0.0
  0
ENDBLK
  5
15DA6
330
15D99
100
AcDbEntity
  8
0
 48
50.0
100
AcDbBlockEnd
  0
BLOCK
  5
15DB2
330
15DA7
100
AcDbEntity
  8
0
 48
50.0
100
AcDbBlockBegin
  2
*D22
 70
     1
 10
0.0
 20
0.0
 30
0.0
  3
*D22
  1

  0
LINE
  5
15E94
330
15DA7
100
AcDbEntity
  8
寸法
 62
     0
 48
50.0
370
    -2
100
AcDbLine
 10
11510.14422886714
 20
2288.112805903256
 30
0.0
 11
10381.39409968389
 21
2288.112805903257
 31
0.0
  0
LINE
  5
15E95
330
15DA7
100
AcDbEntity
  8
寸法
 62
     0
 48
50.0
370
    -2
100
AcDbLine
 10
10508.64315297201
 20
2188.112805903257
 30
0.0
 11
10381.39409968389
 21
2188.112805903257
 31
0.0
  0
LINE
  5
15E96
330
15DA7
100
AcDbEntity
  8
寸法
 62
     0
 48
50.0
370
    -2
100
AcDbLine
 10
10441.39409968389
 20
2288.112805903257
 30
0.0
 11
10441.39409968389
 21
2188.112805903257
 31
0.0
  0
LINE
  5
15E97
330
15DA7
100
AcDbEntity
  8
寸法
 62
     0
 48
50.0
370
    -2
100
AcDbLine
 10
10441.39409968389
 20
2188.112805903257
 30
0.0
 11
10441.39409968389
 21
1816.018317714279
 31
0.0
  0
INSERT
  5
15E98
330
15DA7
100
AcDbEntity
  8
寸法
 62
     0
 48
50.0
370
    -2
100
AcDbBlockReference
  2
_DOTSMALL
 10
10441.39409968389
 20
2288.112805903257
 30
0.0
 41
100.0
 42
100.0
 43
100.0
 50
90.0
  0
INSERT
  5
15E99
330
15DA7
100
AcDbEntity
  8
寸法
 62
     0
 48
50.0
370
    -2
100
AcDbBlockReference
  2
_DOTSMALL
 10
10441.39409968389
 20
2188.112805903257
 30
0.0
 41
100.0
 42
100.0
 43
100.0
 50
270.0
  0
MTEXT
  5
15E9A
330
15DA7
100
AcDbEntity
  8
寸法
 62
     7
 48
50.0
100
AcDbMText
 10
10341.39409968389
 20
1952.065561808769
 30
0.0
 40
120.0
 41
0.0
 71
     5
 72
     1
  1
\A1;100
  7
STYLE1
 11
0.0000000000000001
 21
1.0
 31
0.0
 73
     1
 44
1.0
1001
ACAD
1000
MTEXTBEGIN
1070
    73
1070
     1
1070
    44
1040
1.0
1070
    74
1070
     0
1000
MTEXTEND
  0
POINT
  5
15E9B
330
15DA7
100
AcDbEntity
  8
DEFPOINTS
 62
     0
 48
50.0
100
AcDbPoint
 10
11530.14422886714
 20
2288.112805903256
 30
0.0
  0
POINT
  5
15E9C
330
15DA7
100
AcDbEntity
  8
DEFPOINTS
 62
     0
 48
50.0
100
AcDbPoint
 10
10528.64315297201
 20
2188.112805903257
 30
0.0
  0
POINT
  5
15E9D
330
15DA7
100
AcDbEntity
  8
DEFPOINTS
 62
     0
 48
50.0
100
AcDbPoint
 10
10441.39409968389
 20
2188.112805903257
 30
0.0
  0
ENDBLK
  5
15DB3
330
15DA7
100
AcDbEntity
  8
0
 48
50.0
100
AcDbBlockEnd
  0
BLOCK
  5
15DCA
330
15DC0
100
AcDbEntity
  8
0
 48
50.0
100
AcDbBlockBegin
  2
*D23
 70
     1
 10
0.0
 20
0.0
 30
0.0
  3
*D23
  1

  0
LINE
  5
15EFE
330
15DC0
100
AcDbEntity
  8
寸法
 62
     0
 48
50.0
370
    -2
100
AcDbLine
 10
11565.14422886715
 20
4428.112805903256
 30
0.0
 11
10681.39409968389
 21
4428.112805903256
 31
0.0
  0
LINE
  5
15EFF
330
15DC0
100
AcDbEntity
  8
寸法
 62
     0
 48
50.0
370
    -2
100
AcDbLine
 10
11565.14422886715
 20
2338.112805903257
 30
0.0
 11
10681.39409968389
 21
2338.112805903257
 31
0.0
  0
LINE
  5
15F00
330
15DC0
100
AcDbEntity
  8
寸法
 62
     0
 48
50.0
370
    -2
100
AcDbLine
 10
10741.39409968389
 20
4428.112805903256
 30
0.0
 11
10741.39409968389
 21
2338.112805903257
 31
0.0
  0
INSERT
  5
15F01
330
15DC0
100
AcDbEntity
  8
寸法
 62
     0
 48
50.0
370
    -2
100
AcDbBlockReference
  2
_DOTSMALL
 10
10741.39409968389
 20
4428.112805903256
 30
0.0
 41
100.0
 42
100.0
 43
100.0
 50
90.0
  0
INSERT
  5
15F02
330
15DC0
100
AcDbEntity
  8
寸法
 62
     0
 48
50.0
370
    -2
100
AcDbBlockReference
  2
_DOTSMALL
 10
10741.39409968389
 20
2338.112805903257
 30
0.0
 41
100.0
 42
100.0
 43
100.0
 50
270.0
  0
MTEXT
  5
15F03
330
15DC0
100
AcDbEntity
  8
寸法
 62
     7
 48
50.0
100
AcDbMText
 10
10641.38228866026
 20
3383.112805903259
 30
0.0
 40
120.0
 41
0.0
 71
     5
 72
     1
  1
\A1;2090
  7
STYLE1
 11
0.0000000000000001
 21
1.0
 31
0.0
 73
     1
 44
1.0
1001
ACAD
1000
MTEXTBEGIN
1070
    73
1070
     1
1070
    44
1040
1.0
1070
    74
1070
     0
1000
MTEXTEND
  0
POINT
  5
15F04
330
15DC0
100
AcDbEntity
  8
DEFPOINTS
 62
     0
 48
50.0
100
AcDbPoint
 10
11585.14422886715
 20
4428.112805903256
 30
0.0
  0
POINT
  5
15F05
330
15DC0
100
AcDbEntity
  8
DEFPOINTS
 62
     0
 48
50.0
100
AcDbPoint
 10
11585.14422886715
 20
2338.112805903257
 30
0.0
  0
POINT
  5
15F06
330
15DC0
100
AcDbEntity
  8
DEFPOINTS
 62
     0
 48
50.0
100
AcDbPoint
 10
10741.39409968389
 20
2338.112805903257
 30
0.0
  0
ENDBLK
  5
15DCB
330
15DC0
100
AcDbEntity
  8
0
 48
50.0
100
AcDbBlockEnd
  0
BLOCK
  5
15DD6
330
15DCC
100
AcDbEntity
  8
0
 48
50.0
100
AcDbBlockBegin
  2
*D24
 70
     1
 10
0.0
 20
0.0
 30
0.0
  3
*D24
  1

  0
LINE
  5
15EF5
330
15DCC
100
AcDbEntity
  8
寸法
 62
     0
 48
50.0
370
    -2
100
AcDbLine
 10
11565.14422886715
 20
2288.112805903256
 30
0.0
 11
10381.39409968388
 21
2288.112805903257
 31
0.0
  0
LINE
  5
15EF6
330
15DCC
100
AcDbEntity
  8
寸法
 62
     0
 48
50.0
370
    -2
100
AcDbLine
 10
11505.14422886715
 20
4663.112805903262
 30
0.0
 11
10381.39409968389
 21
4663.112805903262
 31
0.0
  0
LINE
  5
15EF7
330
15DCC
100
AcDbEntity
  8
寸法
 62
     0
 48
50.0
370
    -2
100
AcDbLine
 10
10441.39409968388
 20
2288.112805903257
 30
0.0
 11
10441.39409968389
 21
4663.112805903262
 31
0.0
  0
INSERT
  5
15EF8
330
15DCC
100
AcDbEntity
  8
寸法
 62
     0
 48
50.0
370
    -2
100
AcDbBlockReference
  2
_DOTSMALL
 10
10441.39409968388
 20
2288.112805903257
 30
0.0
 41
100.0
 42
100.0
 43
100.0
 50
270.0
  0
INSERT
  5
15EF9
330
15DCC
100
AcDbEntity
  8
寸法
 62
     0
 48
50.0
370
    -2
100
AcDbBlockReference
  2
_DOTSMALL
 10
10441.39409968389
 20
4663.112805903262
 30
0.0
 41
100.0
 42
100.0
 43
100.0
 50
90.0
  0
MTEXT
  5
15EFA
330
15DCC
100
AcDbEntity
  8
寸法
 62
     7
 48
50.0
100
AcDbMText
 10
10341.38228866026
 20
3475.612805903261
 30
0.0
 40
120.0
 41
0.0
 71
     5
 72
     1
  1
\A1;2375
  7
STYLE1
 11
0.0000000000000001
 21
1.0
 31
0.0
 73
     1
 44
1.0
1001
ACAD
1000
MTEXTBEGIN
1070
    73
1070
     1
1070
    44
1040
1.0
1070
    74
1070
     0
1000
MTEXTEND
  0
POINT
  5
15EFB
330
15DCC
100
AcDbEntity
  8
DEFPOINTS
 62
     0
 48
50.0
100
AcDbPoint
 10
11585.14422886715
 20
2288.112805903256
 30
0.0
  0
POINT
  5
15EFC
330
15DCC
100
AcDbEntity
  8
DEFPOINTS
 62
     0
 48
50.0
100
AcDbPoint
 10
11525.14422886715
 20
4663.112805903262
 30
0.0
  0
POINT
  5
15EFD
330
15DCC
100
AcDbEntity
  8
DEFPOINTS
 62
     0
 48
50.0
100
AcDbPoint
 10
10441.39409968389
 20
4663.112805903262
 30
0.0
  0
ENDBLK
  5
15DD7
330
15DCC
100
AcDbEntity
  8
0
 48
50.0
100
AcDbBlockEnd
  0
BLOCK
  5
15DE2
330
15DD8
100
AcDbEntity
  8
0
 48
50.0
100
AcDbBlockBegin
  2
*D25
 70
     1
 10
0.0
 20
0.0
 30
0.0
  3
*D25
  1

  0
LINE
  5
15EEC
330
15DD8
100
AcDbEntity
  8
寸法
 62
     0
 48
50.0
370
    -2
100
AcDbLine
 10
13815.14422886715
 20
2288.112805903256
 30
0.0
 11
14560.07138683927
 21
2288.112805903256
 31
0.0
  0
LINE
  5
15EED
330
15DD8
100
AcDbEntity
  8
寸法
 62
     0
 48
50.0
370
    -2
100
AcDbLine
 10
13895.14422886715
 20
4608.112805903258
 30
0.0
 11
14560.07138683927
 21
4608.112805903257
 31
0.0
  0
LINE
  5
15EEE
330
15DD8
100
AcDbEntity
  8
寸法
 62
     0
 48
50.0
370
    -2
100
AcDbLine
 10
14500.07138683927
 20
2288.112805903256
 30
0.0
 11
14500.07138683927
 21
4608.112805903257
 31
0.0
  0
INSERT
  5
15EEF
330
15DD8
100
AcDbEntity
  8
寸法
 62
     0
 48
50.0
370
    -2
100
AcDbBlockReference
  2
_DOTSMALL
 10
14500.07138683927
 20
2288.112805903256
 30
0.0
 41
100.0
 42
100.0
 43
100.0
 50
270.0
  0
INSERT
  5
15EF0
330
15DD8
100
AcDbEntity
  8
寸法
 62
     0
 48
50.0
370
    -2
100
AcDbBlockReference
  2
_DOTSMALL
 10
14500.07138683927
 20
4608.112805903257
 30
0.0
 41
100.0
 42
100.0
 43
100.0
 50
90.0
  0
MTEXT
  5
15EF1
330
15DD8
100
AcDbEntity
  8
寸法
 62
     7
 48
50.0
100
AcDbMText
 10
14400.05957581565
 20
3448.112805903259
 30
0.0
 40
120.0
 41
0.0
 71
     5
 72
     1
  1
\A1;2320
  7
STYLE1
 11
0.0000000000000001
 21
1.0
 31
0.0
 73
     1
 44
1.0
1001
ACAD
1000
MTEXTBEGIN
1070
    73
1070
     1
1070
    44
1040
1.0
1070
    74
1070
     0
1000
MTEXTEND
  0
POINT
  5
15EF2
330
15DD8
100
AcDbEntity
  8
DEFPOINTS
 62
     0
 48
50.0
100
AcDbPoint
 10
13795.14422886715
 20
2288.112805903256
 30
0.0
  0
POINT
  5
15EF3
330
15DD8
100
AcDbEntity
  8
DEFPOINTS
 62
     0
 48
50.0
100
AcDbPoint
 10
13875.14422886715
 20
4608.112805903258
 30
0.0
  0
POINT
  5
15EF4
330
15DD8
100
AcDbEntity
  8
DEFPOINTS
 62
     0
 48
50.0
100
AcDbPoint
 10
14500.07138683927
 20
4608.112805903257
 30
0.0
  0
ENDBLK
  5
15DE3
330
15DD8
100
AcDbEntity
  8
0
 48
50.0
100
AcDbBlockEnd
  0
BLOCK
  5
15DEE
330
15DE4
100
AcDbEntity
  8
0
 48
50.0
100
AcDbBlockBegin
  2
*D26
 70
     1
 10
0.0
 20
0.0
 30
0.0
  3
*D26
  1

  0
LINE
  5
15EE3
330
15DE4
100
AcDbEntity
  8
寸法
 62
     0
 48
50.0
370
    -2
100
AcDbLine
 10
11712.64422886715
 20
1968.112805903254
 30
0.0
 11
11712.64422886715
 21
1642.065476602878
 31
0.0
  0
LINE
  5
15EE4
330
15DE4
100
AcDbEntity
  8
寸法
 62
     0
 48
50.0
370
    -2
100
AcDbLine
 10
11512.64422886715
 20
1968.112805903255
 30
0.0
 11
11512.64422886715
 21
1642.065476602878
 31
0.0
  0
LINE
  5
15EE5
330
15DE4
100
AcDbEntity
  8
寸法
 62
     0
 48
50.0
370
    -2
100
AcDbLine
 10
11712.64422886715
 20
1702.065476602878
 30
0.0
 11
11512.64422886715
 21
1702.065476602878
 31
0.0
  0
INSERT
  5
15EE6
330
15DE4
100
AcDbEntity
  8
寸法
 62
     0
 48
50.0
370
    -2
100
AcDbBlockReference
  2
_DOTSMALL
 10
11712.64422886715
 20
1702.065476602878
 30
0.0
 41
100.0
 42
100.0
 43
100.0
  0
INSERT
  5
15EE7
330
15DE4
100
AcDbEntity
  8
寸法
 62
     0
 48
50.0
370
    -2
100
AcDbBlockReference
  2
_DOTSMALL
 10
11512.64422886715
 20
1702.065476602878
 30
0.0
 41
100.0
 42
100.0
 43
100.0
 50
180.0
  0
MTEXT
  5
15EE8
330
15DE4
100
AcDbEntity
  8
寸法
 62
     7
 48
50.0
100
AcDbMText
 10
11612.64422886715
 20
1802.0772876265
 30
0.0
 40
120.0
 41
0.0
 71
     5
 72
     1
  1
\A1;200
  7
STYLE1
 73
     1
 44
1.0
1001
ACAD
1000
MTEXTBEGIN
1070
    73
1070
     1
1070
    44
1040
1.0
1070
    74
1070
     0
1000
MTEXTEND
  0
POINT
  5
15EE9
330
15DE4
100
AcDbEntity
  8
DEFPOINTS
 62
     0
 48
50.0
100
AcDbPoint
 10
11712.64422886715
 20
1988.112805903254
 30
0.0
  0
POINT
  5
15EEA
330
15DE4
100
AcDbEntity
  8
DEFPOINTS
 62
     0
 48
50.0
100
AcDbPoint
 10
11512.64422886715
 20
1988.112805903255
 30
0.0
  0
POINT
  5
15EEB
330
15DE4
100
AcDbEntity
  8
DEFPOINTS
 62
     0
 48
50.0
100
AcDbPoint
 10
11512.64422886715
 20
1702.065476602878
 30
0.0
  0
ENDBLK
  5
15DEF
330
15DE4
100
AcDbEntity
  8
0
 48
50.0
100
AcDbBlockEnd
  0
BLOCK
  5
15DFA
330
15DF0
100
AcDbEntity
  8
0
 48
50.0
100
AcDbBlockBegin
  2
*D27
 70
     1
 10
0.0
 20
0.0
 30
0.0
  3
*D27
  1

  0
LINE
  5
15EDA
330
15DF0
100
AcDbEntity
  8
寸法
 62
     0
 48
50.0
370
    -2
100
AcDbLine
 10
11492.64422886715
 20
1988.112805903255
 30
0.0
 11
11303.14422562051
 21
1988.112805903255
 31
0.0
  0
LINE
  5
15EDB
330
15DF0
100
AcDbEntity
  8
寸法
 62
     0
 48
50.0
370
    -2
100
AcDbLine
 10
11467.64422886715
 20
2188.112805903256
 30
0.0
 11
11303.14422562051
 21
2188.112805903256
 31
0.0
  0
LINE
  5
15EDC
330
15DF0
100
AcDbEntity
  8
寸法
 62
     0
 48
50.0
370
    -2
100
AcDbLine
 10
11363.14422562051
 20
1988.112805903255
 30
0.0
 11
11363.14422562051
 21
2188.112805903256
 31
0.0
  0
INSERT
  5
15EDD
330
15DF0
100
AcDbEntity
  8
寸法
 62
     0
 48
50.0
370
    -2
100
AcDbBlockReference
  2
_DOTSMALL
 10
11363.14422562051
 20
1988.112805903255
 30
0.0
 41
100.0
 42
100.0
 43
100.0
 50
270.0
  0
INSERT
  5
15EDE
330
15DF0
100
AcDbEntity
  8
寸法
 62
     0
 48
50.0
370
    -2
100
AcDbBlockReference
  2
_DOTSMALL
 10
11363.14422562051
 20
2188.112805903256
 30
0.0
 41
100.0
 42
100.0
 43
100.0
 50
90.0
  0
MTEXT
  5
15EDF
330
15DF0
100
AcDbEntity
  8
寸法
 62
     7
 48
50.0
100
AcDbMText
 10
11263.13241459689
 20
2088.112805903258
 30
0.0
 40
120.0
 41
0.0
 71
     5
 72
     1
  1
\A1;200
  7
STYLE1
 11
0.0000000000000001
 21
1.0
 31
0.0
 73
     1
 44
1.0
1001
ACAD
1000
MTEXTBEGIN
1070
    73
1070
     1
1070
    44
1040
1.0
1070
    74
1070
     0
1000
MTEXTEND
  0
POINT
  5
15EE0
330
15DF0
100
AcDbEntity
  8
DEFPOINTS
 62
     0
 48
50.0
100
AcDbPoint
 10
11512.64422886715
 20
1988.112805903255
 30
0.0
  0
POINT
  5
15EE1
330
15DF0
100
AcDbEntity
  8
DEFPOINTS
 62
     0
 48
50.0
100
AcDbPoint
 10
11487.64422886715
 20
2188.112805903256
 30
0.0
  0
POINT
  5
15EE2
330
15DF0
100
AcDbEntity
  8
DEFPOINTS
 62
     0
 48
50.0
100
AcDbPoint
 10
11363.14422562051
 20
2188.112805903256
 30
0.0
  0
ENDBLK
  5
15DFB
330
15DF0
100
AcDbEntity
  8
0
 48
50.0
100
AcDbBlockEnd
  0
BLOCK
  5
15E07
330
15DFC
100
AcDbEntity
  8
0
 48
50.0
100
AcDbBlockBegin
  2
*D28
 70
     1
 10
0.0
 20
0.0
 30
0.0
  3
*D28
  1

  0
LINE
  5
15ED0
330
15DFC
100
AcDbEntity
  8
寸法
 62
     0
 48
50.0
370
    -2
100
AcDbLine
 10
11524.54851515825
 20
4662.410512972918
 30
0.0
 11
10908.61407605296
 21
4680.124663247248
 31
0.0
  0
LINE
  5
15ED1
330
15DFC
100
AcDbEntity
  8
寸法
 62
     0
 48
50.0
370
    -2
100
AcDbLine
 10
11520.49505960162
 20
4521.468789207206
 30
0.0
 11
10904.56062049634
 21
4539.182939481536
 31
0.0
  0
LINE
  5
15ED2
330
15DFC
100
AcDbEntity
  8
寸法
 62
     0
 48
50.0
370
    -2
100
AcDbLine
 10
10964.53582209877
 20
4537.458064776588
 30
0.0
 11
10968.58927765539
 21
4678.3997885423
 31
0.0
  0
LINE
  5
15ED3
330
15DFC
100
AcDbEntity
  8
寸法
 62
     0
 48
50.0
370
    -2
100
AcDbLine
 10
10968.58927765539
 20
4678.3997885423
 30
0.0
 11
10978.93852588508
 21
5038.250998156887
 31
0.0
  0
INSERT
  5
15ED4
330
15DFC
100
AcDbEntity
  8
寸法
 62
     0
 48
50.0
370
    -2
100
AcDbBlockReference
  2
_DOTSMALL
 10
10964.53582209877
 20
4537.458064776588
 30
0.0
 41
100.0
 42
100.0
 43
100.0
 50
268.3526390256378
  0
INSERT
  5
15ED5
330
15DFC
100
AcDbEntity
  8
寸法
 62
     0
 48
50.0
370
    -2
100
AcDbBlockReference
  2
_DOTSMALL
 10
10968.58927765539
 20
4678.3997885423
 30
0.0
 41
100.0
 42
100.0
 43
100.0
 50
88.35263902563776
  0
MTEXT
  5
15ED6
330
15DFC
100
AcDbEntity
  8
寸法
 62
     7
 48
50.0
100
AcDbMText
 10
10875.24262802031
 20
4911.1795191932
 30
0.0
 40
120.0
 41
0.0
 71
     5
 72
     1
  1
\A1;141
  7
STYLE1
 11
0.0287479117491237
 21
0.9995866933738488
 31
0.0
 73
     1
 44
1.0
1001
ACAD
1000
MTEXTBEGIN
1070
    73
1070
     1
1070
    44
1040
1.0
1070
    74
1070
     0
1000
MTEXTEND
  0
POINT
  5
15ED7
330
15DFC
100
AcDbEntity
  8
DEFPOINTS
 62
     0
 48
50.0
100
AcDbPoint
 10
11544.54024902572
 20
4661.835554737936
 30
0.0
  0
POINT
  5
15ED8
330
15DFC
100
AcDbEntity
  8
DEFPOINTS
 62
     0
 48
50.0
100
AcDbPoint
 10
11540.4867934691
 20
4520.893830972223
 30
0.0
  0
POINT
  5
15ED9
330
15DFC
100
AcDbEntity
  8
DEFPOINTS
 62
     0
 48
50.0
100
AcDbPoint
 10
10964.53582209877
 20
4537.458064776588
 30
0.0
  0
ENDBLK
  5
15E08
330
15DFC
100
AcDbEntity
  8
0
 48
50.0
100
AcDbBlockEnd
  0
BLOCK
  5
15E14
330
15E09
100
AcDbEntity
  8
0
 48
50.0
100
AcDbBlockBegin
  2
*D29
 70
     1
 10
0.0
 20
0.0
 30
0.0
  3
*D29
  1

  0
LINE
  5
15EC6
330
15E09
100
AcDbEntity
  8
寸法
 62
     0
 48
50.0
370
    -2
100
AcDbLine
 10
13795.14422886715
 20
4629.92348551491
 30
0.0
 11
13795.14422886715
 21
5121.77025948256
 31
0.0
  0
LINE
  5
15EC7
330
15E09
100
AcDbEntity
  8
寸法
 62
     0
 48
50.0
370
    -2
100
AcDbLine
 10
13875.14422886715
 20
4628.112805903258
 30
0.0
 11
13875.14422886715
 21
5121.77025948256
 31
0.0
  0
LINE
  5
15EC8
330
15E09
100
AcDbEntity
  8
寸法
 62
     0
 48
50.0
370
    -2
100
AcDbLine
 10
13795.14422886715
 20
5061.77025948256
 30
0.0
 11
13875.14422886715
 21
5061.77025948256
 31
0.0
  0
LINE
  5
15EC9
330
15E09
100
AcDbEntity
  8
寸法
 62
     0
 48
50.0
370
    -2
100
AcDbLine
 10
13875.14422886715
 20
5061.77025948256
 30
0.0
 11
14187.23871705612
 21
5061.77025948256
 31
0.0
  0
INSERT
  5
15ECA
330
15E09
100
AcDbEntity
  8
寸法
 62
     0
 48
50.0
370
    -2
100
AcDbBlockReference
  2
_DOTSMALL
 10
13795.14422886715
 20
5061.77025948256
 30
0.0
 41
100.0
 42
100.0
 43
100.0
 50
180.0
  0
INSERT
  5
15ECB
330
15E09
100
AcDbEntity
  8
寸法
 62
     0
 48
50.0
370
    -2
100
AcDbBlockReference
  2
_DOTSMALL
 10
13875.14422886715
 20
5061.77025948256
 30
0.0
 41
100.0
 42
100.0
 43
100.0
  0
MTEXT
  5
15ECC
330
15E09
100
AcDbEntity
  8
寸法
 62
     7
 48
50.0
100
AcDbMText
 10
14081.19147296164
 20
5161.770259482561
 30
0.0
 40
120.0
 41
0.0
 71
     5
 72
     1
  1
\A1;80
  7
STYLE1
 73
     1
 44
1.0
1001
ACAD
1000
MTEXTBEGIN
1070
    73
1070
     1
1070
    44
1040
1.0
1070
    74
1070
     0
1000
MTEXTEND
  0
POINT
  5
15ECD
330
15E09
100
AcDbEntity
  8
DEFPOINTS
 62
     0
 48
50.0
100
AcDbPoint
 10
13795.14422886715
 20
4609.92348551491
 30
0.0
  0
POINT
  5
15ECE
330
15E09
100
AcDbEntity
  8
DEFPOINTS
 62
     0
 48
50.0
100
AcDbPoint
 10
13875.14422886715
 20
4608.112805903258
 30
0.0
  0
POINT
  5
15ECF
330
15E09
100
AcDbEntity
  8
DEFPOINTS
 62
     0
 48
50.0
100
AcDbPoint
 10
13875.14422886715
 20
5061.77025948256
 30
0.0
  0
ENDBLK
  5
15E15
330
15E09
100
AcDbEntity
  8
0
 48
50.0
100
AcDbBlockEnd
  0
BLOCK
  5
15F35
330
15F2B
100
AcDbEntity
  8
0
 48
50.0
100
AcDbBlockBegin
  2
*D30
 70
     1
 10
0.0
 20
0.0
 30
0.0
  3
*D30
  1

  0
LINE
  5
15F37
330
15F2B
100
AcDbEntity
  8
寸法
 62
     0
 48
50.0
370
    -2
100
AcDbLine
 10
11488.14422886715
 20
4379.112805903257
 30
0.0
 11
11000.23558746989
 21
4379.112805903257
 31
0.0
  0
LINE
  5
15F38
330
15F2B
100
AcDbEntity
  8
寸法
 62
     0
 48
50.0
370
    -2
100
AcDbLine
 10
11488.14422886714
 20
2354.112805903256
 30
0.0
 11
11000.23558746989
 21
2354.112805903257
 31
0.0
  0
LINE
  5
15F39
330
15F2B
100
AcDbEntity
  8
寸法
 62
     0
 48
50.0
370
    -2
100
AcDbLine
 10
11040.23558746989
 20
4359.112805903256
 30
0.0
 11
11040.23558746989
 21
2374.112805903257
 31
0.0
  0
INSERT
  5
15F3A
330
15F2B
100
AcDbEntity
  8
寸法
 62
     0
 48
50.0
370
    -2
100
AcDbBlockReference
  2
_DOT
 10
11040.23558746989
 20
4379.112805903257
 30
0.0
 41
20.0
 42
20.0
 43
20.0
 50
90.0
  0
INSERT
  5
15F3B
330
15F2B
100
AcDbEntity
  8
寸法
 62
     0
 48
50.0
370
    -2
100
AcDbBlockReference
  2
_DOT
 10
11040.23558746989
 20
2354.112805903257
 30
0.0
 41
20.0
 42
20.0
 43
20.0
 50
270.0
  0
MTEXT
  5
15F3C
330
15F2B
100
AcDbEntity
  8
寸法
 62
     7
 48
50.0
100
AcDbMText
 10
10948.22377644627
 20
3366.612805903259
 30
0.0
 40
120.0
 41
0.0
 71
     5
 72
     1
  1
\A1;有効開口部高サ2025
  7
STYLE1
 11
0.0000000000000001
 21
1.0
 31
0.0
 73
     1
 44
1.0
1001
ACAD
1000
MTEXTBEGIN
1070
    73
1070
     1
1070
    44
1040
1.0
1070
    74
1070
     0
1000
MTEXTEND
  0
POINT
  5
15F3D
330
15F2B
100
AcDbEntity
  8
DEFPOINTS
 62
     0
 48
50.0
100
AcDbPoint
 10
11508.14422886715
 20
4379.112805903257
 30
0.0
  0
POINT
  5
15F3E
330
15F2B
100
AcDbEntity
  8
DEFPOINTS
 62
     0
 48
50.0
100
AcDbPoint
 10
11508.14422886714
 20
2354.112805903256
 30
0.0
  0
POINT
  5
15F3F
330
15F2B
100
AcDbEntity
  8
DEFPOINTS
 62
     0
 48
50.0
100
AcDbPoint
 10
11040.23558746989
 20
2354.112805903257
 30
0.0
  0
ENDBLK
  5
15F36
330
15F2B
100
AcDbEntity
  8
0
 48
50.0
100
AcDbBlockEnd
  0
BLOCK
  5
15F41
330
15F40
100
AcDbEntity
  8
0
 48
50.0
100
AcDbBlockBegin
  2
*D31
 70
     1
 10
0.0
 20
0.0
 30
0.0
  3
*D31
  1

  0
LINE
  5
15F42
330
15F40
100
AcDbEntity
  8
寸法
 62
     0
 48
50.0
370
    -2
100
AcDbLine
 10
9330.693956914492
 20
2876.056521119535
 30
0.0
 11
8201.943827731232
 21
2876.056521119536
 31
0.0
  0
LINE
  5
15F43
330
15F40
100
AcDbEntity
  8
寸法
 62
     0
 48
50.0
370
    -2
100
AcDbLine
 10
8329.192881019361
 20
2776.056521119536
 30
0.0
 11
8201.943827731232
 21
2776.056521119536
 31
0.0
  0
LINE
  5
15F44
330
15F40
100
AcDbEntity
  8
寸法
 62
     0
 48
50.0
370
    -2
100
AcDbLine
 10
8261.943827731233
 20
2876.056521119536
 30
0.0
 11
8261.943827731233
 21
2776.056521119536
 31
0.0
  0
LINE
  5
15F45
330
15F40
100
AcDbEntity
  8
寸法
 62
     0
 48
50.0
370
    -2
100
AcDbLine
 10
8261.943827731233
 20
2776.056521119536
 30
0.0
 11
8261.943827731233
 21
2403.962032930558
 31
0.0
  0
INSERT
  5
15F46
330
15F40
100
AcDbEntity
  8
寸法
 62
     0
 48
50.0
370
    -2
100
AcDbBlockReference
  2
_DOTSMALL
 10
8261.943827731233
 20
2876.056521119536
 30
0.0
 41
100.0
 42
100.0
 43
100.0
 50
90.0
  0
INSERT
  5
15F47
330
15F40
100
AcDbEntity
  8
寸法
 62
     0
 48
50.0
370
    -2
100
AcDbBlockReference
  2
_DOTSMALL
 10
8261.943827731233
 20
2776.056521119536
 30
0.0
 41
100.0
 42
100.0
 43
100.0
 50
270.0
  0
MTEXT
  5
15F48
330
15F40
100
AcDbEntity
  8
寸法
 62
     7
 48
50.0
100
AcDbMText
 10
8161.943827731233
 20
2540.009277025048
 30
0.0
 40
120.0
 41
0.0
 71
     5
 72
     1
  1
\A1;100
  7
STYLE1
 11
0.0000000000000001
 21
1.0
 31
0.0
 73
     1
 44
1.0
1001
ACAD
1000
MTEXTBEGIN
1070
    73
1070
     1
1070
    44
1040
1.0
1070
    74
1070
     0
1000
MTEXTEND
  0
POINT
  5
15F49
330
15F40
100
AcDbEntity
  8
DEFPOINTS
 62
     0
 48
50.0
100
AcDbPoint
 10
9350.693956914494
 20
2876.056521119535
 30
0.0
  0
POINT
  5
15F4A
330
15F40
100
AcDbEntity
  8
DEFPOINTS
 62
     0
 48
50.0
100
AcDbPoint
 10
8349.19288101936
 20
2776.056521119536
 30
0.0
  0
POINT
  5
15F4B
330
15F40
100
AcDbEntity
  8
DEFPOINTS
 62
     0
 48
50.0
100
AcDbPoint
 10
8261.943827731233
 20
2776.056521119536
 30
0.0
  0
ENDBLK
  5
15F4C
330
15F40
100
AcDbEntity
  8
0
 48
50.0
100
AcDbBlockEnd
  0
BLOCK
  5
15F4E
330
15F4D
100
AcDbEntity
  8
0
 48
50.0
100
AcDbBlockBegin
  2
*D32
 70
     1
 10
0.0
 20
0.0
 30
0.0
  3
*D32
  1

  0
LINE
  5
15F4F
330
15F4D
100
AcDbEntity
  8
寸法
 62
     0
 48
50.0
370
    -2
100
AcDbLine
 10
9385.693956914492
 20
2926.056521119535
 30
0.0
 11
8501.943827731233
 21
2926.056521119536
 31
0.0
  0
LINE
  5
15F50
330
15F4D
100
AcDbEntity
  8
寸法
 62
     0
 48
50.0
370
    -2
100
AcDbLine
 10
9330.693956914492
 20
2876.056521119535
 30
0.0
 11
8501.943827731233
 21
2876.056521119536
 31
0.0
  0
LINE
  5
15F51
330
15F4D
100
AcDbEntity
  8
寸法
 62
     0
 48
50.0
370
    -2
100
AcDbLine
 10
8561.943827731232
 20
2926.056521119536
 30
0.0
 11
8561.943827731232
 21
3026.056521119536
 31
0.0
  0
LINE
  5
15F52
330
15F4D
100
AcDbEntity
  8
寸法
 62
     0
 48
50.0
370
    -2
100
AcDbLine
 10
8561.943827731232
 20
2876.056521119536
 30
0.0
 11
8561.943827731232
 21
2463.962032930558
 31
0.0
  0
LINE
  5
15F53
330
15F4D
100
AcDbEntity
  8
寸法
 62
     0
 48
50.0
370
    -2
100
AcDbLine
 10
8561.943827731232
 20
2926.056521119536
 30
0.0
 11
8561.943827731232
 21
2876.056521119536
 31
0.0
  0
INSERT
  5
15F54
330
15F4D
100
AcDbEntity
  8
寸法
 62
     0
 48
50.0
370
    -2
100
AcDbBlockReference
  2
_DOTSMALL
 10
8561.943827731232
 20
2926.056521119536
 30
0.0
 41
100.0
 42
100.0
 43
100.0
 50
270.0
  0
INSERT
  5
15F55
330
15F4D
100
AcDbEntity
  8
寸法
 62
     0
 48
50.0
370
    -2
100
AcDbBlockReference
  2
_DOTSMALL
 10
8561.943827731232
 20
2876.056521119536
 30
0.0
 41
100.0
 42
100.0
 43
100.0
 50
90.0
  0
MTEXT
  5
15F56
330
15F4D
100
AcDbEntity
  8
寸法
 62
     7
 48
50.0
100
AcDbMText
 10
8461.943827731232
 20
2570.009277025048
 30
0.0
 40
120.0
 41
0.0
 71
     5
 72
     1
  1
\A1;50
  7
STYLE1
 11
0.0000000000000001
 21
1.0
 31
0.0
 73
     1
 44
1.0
1001
ACAD
1000
MTEXTBEGIN
1070
    73
1070
     1
1070
    44
1040
1.0
1070
    74
1070
     0
1000
MTEXTEND
  0
POINT
  5
15F57
330
15F4D
100
AcDbEntity
  8
DEFPOINTS
 62
     0
 48
50.0
100
AcDbPoint
 10
9405.693956914493
 20
2926.056521119535
 30
0.0
  0
POINT
  5
15F58
330
15F4D
100
AcDbEntity
  8
DEFPOINTS
 62
     0
 48
50.0
100
AcDbPoint
 10
9350.693956914494
 20
2876.056521119535
 30
0.0
  0
POINT
  5
15F59
330
15F4D
100
AcDbEntity
  8
DEFPOINTS
 62
     0
 48
50.0
100
AcDbPoint
 10
8561.943827731232
 20
2876.056521119536
 30
0.0
  0
ENDBLK
  5
15F5A
330
15F4D
100
AcDbEntity
  8
0
 48
50.0
100
AcDbBlockEnd
  0
BLOCK
  5
15F5C
330
15F5B
100
AcDbEntity
  8
0
 48
50.0
100
AcDbBlockBegin
  2
*D33
 70
     1
 10
0.0
 20
0.0
 30
0.0
  3
*D33
  1

  0
LINE
  5
15F5D
330
15F5B
100
AcDbEntity
  8
寸法
 62
     0
 48
50.0
370
    -2
100
AcDbLine
 10
11615.69395691449
 20
5217.867200731189
 30
0.0
 11
11615.69395691449
 21
5709.713974698839
 31
0.0
  0
LINE
  5
15F5E
330
15F5B
100
AcDbEntity
  8
寸法
 62
     0
 48
50.0
370
    -2
100
AcDbLine
 10
9405.693956914493
 20
5267.058139242512
 30
0.0
 11
9405.693956914493
 21
5709.713974698839
 31
0.0
  0
LINE
  5
15F5F
330
15F5B
100
AcDbEntity
  8
寸法
 62
     0
 48
50.0
370
    -2
100
AcDbLine
 10
11615.69395691449
 20
5649.71397469884
 30
0.0
 11
9405.693956914493
 21
5649.71397469884
 31
0.0
  0
INSERT
  5
15F60
330
15F5B
100
AcDbEntity
  8
寸法
 62
     0
 48
50.0
370
    -2
100
AcDbBlockReference
  2
_DOTSMALL
 10
11615.69395691449
 20
5649.71397469884
 30
0.0
 41
100.0
 42
100.0
 43
100.0
  0
INSERT
  5
15F61
330
15F5B
100
AcDbEntity
  8
寸法
 62
     0
 48
50.0
370
    -2
100
AcDbBlockReference
  2
_DOTSMALL
 10
9405.693956914493
 20
5649.71397469884
 30
0.0
 41
100.0
 42
100.0
 43
100.0
 50
180.0
  0
MTEXT
  5
15F62
330
15F5B
100
AcDbEntity
  8
寸法
 62
     7
 48
50.0
100
AcDbMText
 10
10500.338693985
 20
5749.725785722461
 30
0.0
 40
120.0
 41
0.0
 71
     5
 72
     1
  1
\A1;柱外寸法2210
  7
STYLE1
 73
     1
 44
1.0
1001
ACAD
1000
MTEXTBEGIN
1070
    73
1070
     1
1070
    44
1040
1.0
1070
    74
1070
     0
1000
MTEXTEND
  0
POINT
  5
15F63
330
15F5B
100
AcDbEntity
  8
DEFPOINTS
 62
     0
 48
50.0
100
AcDbPoint
 10
11615.69395691449
 20
5197.867200731189
 30
0.0
  0
POINT
  5
15F64
330
15F5B
100
AcDbEntity
  8
DEFPOINTS
 62
     0
 48
50.0
100
AcDbPoint
 10
9405.693956914493
 20
5247.058139242511
 30
0.0
  0
POINT
  5
15F65
330
15F5B
100
AcDbEntity
  8
DEFPOINTS
 62
     0
 48
50.0
100
AcDbPoint
 10
9405.693956914493
 20
5649.71397469884
 30
0.0
  0
ENDBLK
  5
15F66
330
15F5B
100
AcDbEntity
  8
0
 48
50.0
100
AcDbBlockEnd
  0
BLOCK
  5
15F68
330
15F67
100
AcDbEntity
  8
0
 48
50.0
100
AcDbBlockBegin
  2
*D34
 70
     1
 10
0.0
 20
0.0
 30
0.0
  3
*D34
  1

  0
LINE
  5
15F69
330
15F67
100
AcDbEntity
  8
寸法
 62
     0
 48
50.0
370
    -2
100
AcDbLine
 10
9405.693956914493
 20
5267.058139242512
 30
0.0
 11
9405.693956914493
 21
5709.713974698839
 31
0.0
  0
LINE
  5
15F6A
330
15F67
100
AcDbEntity
  8
寸法
 62
     0
 48
50.0
370
    -2
100
AcDbLine
 10
9345.693956914493
 20
5271.05652111954
 30
0.0
 11
9345.693956914493
 21
5709.713974698839
 31
0.0
  0
LINE
  5
15F6B
330
15F67
100
AcDbEntity
  8
寸法
 62
     0
 48
50.0
370
    -2
100
AcDbLine
 10
9405.693956914493
 20
5649.71397469884
 30
0.0
 11
9505.693956914493
 21
5649.71397469884
 31
0.0
  0
LINE
  5
15F6C
330
15F67
100
AcDbEntity
  8
寸法
 62
     0
 48
50.0
370
    -2
100
AcDbLine
 10
9345.693956914493
 20
5649.71397469884
 30
0.0
 11
8926.418366363312
 21
5649.71397469884
 31
0.0
  0
LINE
  5
15F6D
330
15F67
100
AcDbEntity
  8
寸法
 62
     0
 48
50.0
370
    -2
100
AcDbLine
 10
9405.693956914493
 20
5649.71397469884
 30
0.0
 11
9345.693956914493
 21
5649.71397469884
 31
0.0
  0
INSERT
  5
15F6E
330
15F67
100
AcDbEntity
  8
寸法
 62
     0
 48
50.0
370
    -2
100
AcDbBlockReference
  2
_DOTSMALL
 10
9405.693956914493
 20
5649.71397469884
 30
0.0
 41
100.0
 42
100.0
 43
100.0
 50
180.0
  0
INSERT
  5
15F6F
330
15F67
100
AcDbEntity
  8
寸法
 62
     0
 48
50.0
370
    -2
100
AcDbBlockReference
  2
_DOTSMALL
 10
9345.693956914493
 20
5649.71397469884
 30
0.0
 41
100.0
 42
100.0
 43
100.0
  0
MTEXT
  5
15F70
330
15F67
100
AcDbEntity
  8
寸法
 62
     7
 48
50.0
100
AcDbMText
 10
9036.056161638901
 20
5749.713974698839
 30
0.0
 40
120.0
 41
0.0
 71
     5
 72
     1
  1
\A1;60
  7
STYLE1
 73
     1
 44
1.0
1001
ACAD
1000
MTEXTBEGIN
1070
    73
1070
     1
1070
    44
1040
1.0
1070
    74
1070
     0
1000
MTEXTEND
  0
POINT
  5
15F71
330
15F67
100
AcDbEntity
  8
DEFPOINTS
 62
     0
 48
50.0
100
AcDbPoint
 10
9405.693956914493
 20
5247.058139242511
 30
0.0
  0
POINT
  5
15F72
330
15F67
100
AcDbEntity
  8
DEFPOINTS
 62
     0
 48
50.0
100
AcDbPoint
 10
9345.693956914493
 20
5251.05652111954
 30
0.0
  0
POINT
  5
15F73
330
15F67
100
AcDbEntity
  8
DEFPOINTS
 62
     0
 48
50.0
100
AcDbPoint
 10
9345.693956914493
 20
5649.71397469884
 30
0.0
  0
ENDBLK
  5
15F74
330
15F67
100
AcDbEntity
  8
0
 48
50.0
100
AcDbBlockEnd
  0
BLOCK
  5
15F76
330
15F75
100
AcDbEntity
  8
0
 48
50.0
100
AcDbBlockBegin
  2
*D35
 70
     1
 10
0.0
 20
0.0
 30
0.0
  3
*D35
  1

  0
LINE
  5
15F77
330
15F75
100
AcDbEntity
  8
寸法
 62
     0
 48
50.0
370
    -2
100
AcDbLine
 10
11695.69395691449
 20
5216.056521119536
 30
0.0
 11
11695.69395691449
 21
5928.915808373131
 31
0.0
  0
LINE
  5
15F78
330
15F75
100
AcDbEntity
  8
寸法
 62
     0
 48
50.0
370
    -2
100
AcDbLine
 10
9345.693956914493
 20
5271.05652111954
 30
0.0
 11
9345.693956914493
 21
5928.915808373131
 31
0.0
  0
LINE
  5
15F79
330
15F75
100
AcDbEntity
  8
寸法
 62
     0
 48
50.0
370
    -2
100
AcDbLine
 10
11695.69395691449
 20
5868.915808373131
 30
0.0
 11
9345.693956914493
 21
5868.915808373131
 31
0.0
  0
INSERT
  5
15F7A
330
15F75
100
AcDbEntity
  8
寸法
 62
     0
 48
50.0
370
    -2
100
AcDbBlockReference
  2
_DOTSMALL
 10
11695.69395691449
 20
5868.915808373131
 30
0.0
 41
100.0
 42
100.0
 43
100.0
  0
INSERT
  5
15F7B
330
15F75
100
AcDbEntity
  8
寸法
 62
     0
 48
50.0
370
    -2
100
AcDbBlockReference
  2
_DOTSMALL
 10
9345.693956914493
 20
5868.915808373131
 30
0.0
 41
100.0
 42
100.0
 43
100.0
 50
180.0
  0
MTEXT
  5
15F7C
330
15F75
100
AcDbEntity
  8
寸法
 62
     7
 48
50.0
100
AcDbMText
 10
10580.03781100696
 20
5968.927619396753
 30
0.0
 40
120.0
 41
0.0
 71
     5
 72
     1
  1
\A1;2350
  7
STYLE1
 73
     1
 44
1.0
1001
ACAD
1000
MTEXTBEGIN
1070
    73
1070
     1
1070
    44
1040
1.0
1070
    74
1070
     0
1000
MTEXTEND
  0
POINT
  5
15F7D
330
15F75
100
AcDbEntity
  8
DEFPOINTS
 62
     0
 48
50.0
100
AcDbPoint
 10
11695.69395691449
 20
5196.056521119537
 30
0.0
  0
POINT
  5
15F7E
330
15F75
100
AcDbEntity
  8
DEFPOINTS
 62
     0
 48
50.0
100
AcDbPoint
 10
9345.693956914493
 20
5251.05652111954
 30
0.0
  0
POINT
  5
15F7F
330
15F75
100
AcDbEntity
  8
DEFPOINTS
 62
     0
 48
50.0
100
AcDbPoint
 10
9345.693956914493
 20
5868.915808373131
 30
0.0
  0
ENDBLK
  5
15F80
330
15F75
100
AcDbEntity
  8
0
 48
50.0
100
AcDbBlockEnd
  0
BLOCK
  5
15F82
330
15F81
100
AcDbEntity
  8
0
 48
50.0
100
AcDbBlockBegin
  2
*D36
 70
     1
 10
0.0
 20
0.0
 30
0.0
  3
*D36
  1

  0
LINE
  5
15F83
330
15F81
100
AcDbEntity
  8
寸法
 62
     0
 48
50.0
370
    -2
100
AcDbLine
 10
11615.69395691449
 20
5217.867200731189
 30
0.0
 11
11615.69395691449
 21
5709.713974698839
 31
0.0
  0
LINE
  5
15F84
330
15F81
100
AcDbEntity
  8
寸法
 62
     0
 48
50.0
370
    -2
100
AcDbLine
 10
11695.69395691449
 20
5216.056521119536
 30
0.0
 11
11695.69395691449
 21
5709.713974698839
 31
0.0
  0
LINE
  5
15F85
330
15F81
100
AcDbEntity
  8
寸法
 62
     0
 48
50.0
370
    -2
100
AcDbLine
 10
11615.69395691449
 20
5649.71397469884
 30
0.0
 11
11695.69395691449
 21
5649.71397469884
 31
0.0
  0
LINE
  5
15F86
330
15F81
100
AcDbEntity
  8
寸法
 62
     0
 48
50.0
370
    -2
100
AcDbLine
 10
11695.69395691449
 20
5649.71397469884
 30
0.0
 11
12007.78844510347
 21
5649.71397469884
 31
0.0
  0
INSERT
  5
15F87
330
15F81
100
AcDbEntity
  8
寸法
 62
     0
 48
50.0
370
    -2
100
AcDbBlockReference
  2
_DOTSMALL
 10
11615.69395691449
 20
5649.71397469884
 30
0.0
 41
100.0
 42
100.0
 43
100.0
 50
180.0
  0
INSERT
  5
15F88
330
15F81
100
AcDbEntity
  8
寸法
 62
     0
 48
50.0
370
    -2
100
AcDbBlockReference
  2
_DOTSMALL
 10
11695.69395691449
 20
5649.71397469884
 30
0.0
 41
100.0
 42
100.0
 43
100.0
  0
MTEXT
  5
15F89
330
15F81
100
AcDbEntity
  8
寸法
 62
     7
 48
50.0
100
AcDbMText
 10
11901.74120100898
 20
5749.713974698839
 30
0.0
 40
120.0
 41
0.0
 71
     5
 72
     1
  1
\A1;80
  7
STYLE1
 73
     1
 44
1.0
1001
ACAD
1000
MTEXTBEGIN
1070
    73
1070
     1
1070
    44
1040
1.0
1070
    74
1070
     0
1000
MTEXTEND
  0
POINT
  5
15F8A
330
15F81
100
AcDbEntity
  8
DEFPOINTS
 62
     0
 48
50.0
100
AcDbPoint
 10
11615.69395691449
 20
5197.867200731189
 30
0.0
  0
POINT
  5
15F8B
330
15F81
100
AcDbEntity
  8
DEFPOINTS
 62
     0
 48
50.0
100
AcDbPoint
 10
11695.69395691449
 20
5196.056521119537
 30
0.0
  0
POINT
  5
15F8C
330
15F81
100
AcDbEntity
  8
DEFPOINTS
 62
     0
 48
50.0
100
AcDbPoint
 10
11695.69395691449
 20
5649.71397469884
 30
0.0
  0
ENDBLK
  5
15F8D
330
15F81
100
AcDbEntity
  8
0
 48
50.0
100
AcDbBlockEnd
  0
BLOCK
  5
15F8F
330
15F8E
100
AcDbEntity
  8
0
 48
50.0
100
AcDbBlockBegin
  2
*D37
 70
     1
 10
0.0
 20
0.0
 30
0.0
  3
*D37
  1

  0
LINE
  5
15F90
330
15F8E
100
AcDbEntity
  8
寸法
 62
     0
 48
50.0
370
    -2
100
AcDbLine
 10
9345.098243205596
 20
5250.354228189197
 30
0.0
 11
8729.163804100315
 21
5268.068378463527
 31
0.0
  0
LINE
  5
15F91
330
15F8E
100
AcDbEntity
  8
寸法
 62
     0
 48
50.0
370
    -2
100
AcDbLine
 10
9341.044787648968
 20
5109.412504423485
 30
0.0
 11
8725.110348543688
 21
5127.126654697814
 31
0.0
  0
LINE
  5
15F92
330
15F8E
100
AcDbEntity
  8
寸法
 62
     0
 48
50.0
370
    -2
100
AcDbLine
 10
8785.085550146121
 20
5125.401779992866
 30
0.0
 11
8789.139005702748
 21
5266.34350375858
 31
0.0
  0
LINE
  5
15F93
330
15F8E
100
AcDbEntity
  8
寸法
 62
     0
 48
50.0
370
    -2
100
AcDbLine
 10
8789.139005702748
 20
5266.34350375858
 30
0.0
 11
8799.488253932432
 21
5626.194713373166
 31
0.0
  0
INSERT
  5
15F94
330
15F8E
100
AcDbEntity
  8
寸法
 62
     0
 48
50.0
370
    -2
100
AcDbBlockReference
  2
_DOTSMALL
 10
8785.085550146121
 20
5125.401779992866
 30
0.0
 41
100.0
 42
100.0
 43
100.0
 50
268.3526390256378
  0
INSERT
  5
15F95
330
15F8E
100
AcDbEntity
  8
寸法
 62
     0
 48
50.0
370
    -2
100
AcDbBlockReference
  2
_DOTSMALL
 10
8789.139005702748
 20
5266.34350375858
 30
0.0
 41
100.0
 42
100.0
 43
100.0
 50
88.35263902563776
  0
MTEXT
  5
15F96
330
15F8E
100
AcDbEntity
  8
寸法
 62
     7
 48
50.0
100
AcDbMText
 10
8695.792356067659
 20
5499.123234409477
 30
0.0
 40
120.0
 41
0.0
 71
     5
 72
     1
  1
\A1;141
  7
STYLE1
 11
0.0287479117491237
 21
0.9995866933738488
 31
0.0
 73
     1
 44
1.0
1001
ACAD
1000
MTEXTBEGIN
1070
    73
1070
     1
1070
    44
1040
1.0
1070
    74
1070
     0
1000
MTEXTEND
  0
POINT
  5
15F97
330
15F8E
100
AcDbEntity
  8
DEFPOINTS
 62
     0
 48
50.0
100
AcDbPoint
 10
9365.089977073072
 20
5249.779269954214
 30
0.0
  0
POINT
  5
15F98
330
15F8E
100
AcDbEntity
  8
DEFPOINTS
 62
     0
 48
50.0
100
AcDbPoint
 10
9361.036521516446
 20
5108.837546188501
 30
0.0
  0
POINT
  5
15F99
330
15F8E
100
AcDbEntity
  8
DEFPOINTS
 62
     0
 48
50.0
100
AcDbPoint
 10
8785.085550146121
 20
5125.401779992866
 30
0.0
  0
ENDBLK
  5
15F9A
330
15F8E
100
AcDbEntity
  8
0
 48
50.0
100
AcDbBlockEnd
  0
BLOCK
  5
15F9C
330
15F9B
100
AcDbEntity
  8
0
 48
50.0
100
AcDbBlockBegin
  2
*D38
 70
     1
 10
0.0
 20
0.0
 30
0.0
  3
*D38
  1

  0
LINE
  5
15F9D
330
15F9B
100
AcDbEntity
  8
寸法
 62
     0
 48
50.0
370
    -2
100
AcDbLine
 10
9313.193956914496
 20
2576.056521119534
 30
0.0
 11
9123.693953667858
 21
2576.056521119534
 31
0.0
  0
LINE
  5
15F9E
330
15F9B
100
AcDbEntity
  8
寸法
 62
     0
 48
50.0
370
    -2
100
AcDbLine
 10
9288.193956914494
 20
2776.056521119535
 30
0.0
 11
9123.693953667858
 21
2776.056521119536
 31
0.0
  0
LINE
  5
15F9F
330
15F9B
100
AcDbEntity
  8
寸法
 62
     0
 48
50.0
370
    -2
100
AcDbLine
 10
9183.693953667859
 20
2576.056521119534
 30
0.0
 11
9183.693953667859
 21
2776.056521119536
 31
0.0
  0
INSERT
  5
15FA0
330
15F9B
100
AcDbEntity
  8
寸法
 62
     0
 48
50.0
370
    -2
100
AcDbBlockReference
  2
_DOTSMALL
 10
9183.693953667859
 20
2576.056521119534
 30
0.0
 41
100.0
 42
100.0
 43
100.0
 50
270.0
  0
INSERT
  5
15FA1
330
15F9B
100
AcDbEntity
  8
寸法
 62
     0
 48
50.0
370
    -2
100
AcDbBlockReference
  2
_DOTSMALL
 10
9183.693953667859
 20
2776.056521119536
 30
0.0
 41
100.0
 42
100.0
 43
100.0
 50
90.0
  0
MTEXT
  5
15FA2
330
15F9B
100
AcDbEntity
  8
寸法
 62
     7
 48
50.0
100
AcDbMText
 10
9083.682142644237
 20
2676.056521119536
 30
0.0
 40
120.0
 41
0.0
 71
     5
 72
     1
  1
\A1;200
  7
STYLE1
 11
0.0000000000000001
 21
1.0
 31
0.0
 73
     1
 44
1.0
1001
ACAD
1000
MTEXTBEGIN
1070
    73
1070
     1
1070
    44
1040
1.0
1070
    74
1070
     0
1000
MTEXTEND
  0
POINT
  5
15FA3
330
15F9B
100
AcDbEntity
  8
DEFPOINTS
 62
     0
 48
50.0
100
AcDbPoint
 10
9333.193956914497
 20
2576.056521119534
 30
0.0
  0
POINT
  5
15FA4
330
15F9B
100
AcDbEntity
  8
DEFPOINTS
 62
     0
 48
50.0
100
AcDbPoint
 10
9308.193956914491
 20
2776.056521119535
 30
0.0
  0
POINT
  5
15FA5
330
15F9B
100
AcDbEntity
  8
DEFPOINTS
 62
     0
 48
50.0
100
AcDbPoint
 10
9183.693953667859
 20
2776.056521119536
 30
0.0
  0
ENDBLK
  5
15FA6
330
15F9B
100
AcDbEntity
  8
0
 48
50.0
100
AcDbBlockEnd
  0
BLOCK
  5
15FA8
330
15FA7
100
AcDbEntity
  8
0
 48
50.0
100
AcDbBlockBegin
  2
*D39
 70
     1
 10
0.0
 20
0.0
 30
0.0
  3
*D39
  1

  0
LINE
  5
15FA9
330
15FA7
100
AcDbEntity
  8
寸法
 62
     0
 48
50.0
370
    -2
100
AcDbLine
 10
9533.193956914493
 20
2556.056521119533
 30
0.0
 11
9533.193956914493
 21
2230.009191819157
 31
0.0
  0
LINE
  5
15FAA
330
15FA7
100
AcDbEntity
  8
寸法
 62
     0
 48
50.0
370
    -2
100
AcDbLine
 10
9333.193956914497
 20
2556.056521119534
 30
0.0
 11
9333.193956914497
 21
2230.009191819157
 31
0.0
  0
LINE
  5
15FAB
330
15FA7
100
AcDbEntity
  8
寸法
 62
     0
 48
50.0
370
    -2
100
AcDbLine
 10
9533.193956914493
 20
2290.009191819157
 30
0.0
 11
9333.193956914497
 21
2290.009191819157
 31
0.0
  0
INSERT
  5
15FAC
330
15FA7
100
AcDbEntity
  8
寸法
 62
     0
 48
50.0
370
    -2
100
AcDbBlockReference
  2
_DOTSMALL
 10
9533.193956914493
 20
2290.009191819157
 30
0.0
 41
100.0
 42
100.0
 43
100.0
  0
INSERT
  5
15FAD
330
15FA7
100
AcDbEntity
  8
寸法
 62
     0
 48
50.0
370
    -2
100
AcDbBlockReference
  2
_DOTSMALL
 10
9333.193956914497
 20
2290.009191819157
 30
0.0
 41
100.0
 42
100.0
 43
100.0
 50
180.0
  0
MTEXT
  5
15FAE
330
15FA7
100
AcDbEntity
  8
寸法
 62
     7
 48
50.0
100
AcDbMText
 10
9433.193956914495
 20
2390.021002842779
 30
0.0
 40
120.0
 41
0.0
 71
     5
 72
     1
  1
\A1;200
  7
STYLE1
 73
     1
 44
1.0
1001
ACAD
1000
MTEXTBEGIN
1070
    73
1070
     1
1070
    44
1040
1.0
1070
    74
1070
     0
1000
MTEXTEND
  0
POINT
  5
15FAF
330
15FA7
100
AcDbEntity
  8
DEFPOINTS
 62
     0
 48
50.0
100
AcDbPoint
 10
9533.193956914493
 20
2576.056521119533
 30
0.0
  0
POINT
  5
15FB0
330
15FA7
100
AcDbEntity
  8
DEFPOINTS
 62
     0
 48
50.0
100
AcDbPoint
 10
9333.193956914497
 20
2576.056521119534
 30
0.0
  0
POINT
  5
15FB1
330
15FA7
100
AcDbEntity
  8
DEFPOINTS
 62
     0
 48
50.0
100
AcDbPoint
 10
9333.193956914497
 20
2290.009191819157
 30
0.0
  0
ENDBLK
  5
15FB2
330
15FA7
100
AcDbEntity
  8
0
 48
50.0
100
AcDbBlockEnd
  0
BLOCK
  5
15FB4
330
15FB3
100
AcDbEntity
  8
0
 48
50.0
100
AcDbBlockBegin
  2
*D40
 70
     1
 10
0.0
 20
0.0
 30
0.0
  3
*D40
  1

  0
LINE
  5
15FB5
330
15FB3
100
AcDbEntity
  8
寸法
 62
     0
 48
50.0
370
    -2
100
AcDbLine
 10
11635.69395691449
 20
2876.056521119535
 30
0.0
 11
12380.62111488662
 21
2876.056521119535
 31
0.0
  0
LINE
  5
15FB6
330
15FB3
100
AcDbEntity
  8
寸法
 62
     0
 48
50.0
370
    -2
100
AcDbLine
 10
11715.69395691449
 20
5196.056521119537
 30
0.0
 11
12380.62111488662
 21
5196.056521119537
 31
0.0
  0
LINE
  5
15FB7
330
15FB3
100
AcDbEntity
  8
寸法
 62
     0
 48
50.0
370
    -2
100
AcDbLine
 10
12320.62111488662
 20
2876.056521119535
 30
0.0
 11
12320.62111488662
 21
5196.056521119537
 31
0.0
  0
INSERT
  5
15FB8
330
15FB3
100
AcDbEntity
  8
寸法
 62
     0
 48
50.0
370
    -2
100
AcDbBlockReference
  2
_DOTSMALL
 10
12320.62111488662
 20
2876.056521119535
 30
0.0
 41
100.0
 42
100.0
 43
100.0
 50
270.0
  0
INSERT
  5
15FB9
330
15FB3
100
AcDbEntity
  8
寸法
 62
     0
 48
50.0
370
    -2
100
AcDbBlockReference
  2
_DOTSMALL
 10
12320.62111488662
 20
5196.056521119537
 30
0.0
 41
100.0
 42
100.0
 43
100.0
 50
90.0
  0
MTEXT
  5
15FBA
330
15FB3
100
AcDbEntity
  8
寸法
 62
     7
 48
50.0
100
AcDbMText
 10
12220.60930386299
 20
4036.056521119538
 30
0.0
 40
120.0
 41
0.0
 71
     5
 72
     1
  1
\A1;2320
  7
STYLE1
 11
0.0000000000000001
 21
1.0
 31
0.0
 73
     1
 44
1.0
1001
ACAD
1000
MTEXTBEGIN
1070
    73
1070
     1
1070
    44
1040
1.0
1070
    74
1070
     0
1000
MTEXTEND
  0
POINT
  5
15FBB
330
15FB3
100
AcDbEntity
  8
DEFPOINTS
 62
     0
 48
50.0
100
AcDbPoint
 10
11615.69395691449
 20
2876.056521119535
 30
0.0
  0
POINT
  5
15FBC
330
15FB3
100
AcDbEntity
  8
DEFPOINTS
 62
     0
 48
50.0
100
AcDbPoint
 10
11695.69395691449
 20
5196.056521119537
 30
0.0
  0
POINT
  5
15FBD
330
15FB3
100
AcDbEntity
  8
DEFPOINTS
 62
     0
 48
50.0
100
AcDbPoint
 10
12320.62111488662
 20
5196.056521119537
 30
0.0
  0
ENDBLK
  5
15FBE
330
15FB3
100
AcDbEntity
  8
0
 48
50.0
100
AcDbBlockEnd
  0
BLOCK
  5
15FC0
330
15FBF
100
AcDbEntity
  8
0
 48
50.0
100
AcDbBlockBegin
  2
*D41
 70
     1
 10
0.0
 20
0.0
 30
0.0
  3
*D41
  1

  0
LINE
  5
15FC1
330
15FBF
100
AcDbEntity
  8
寸法
 62
     0
 48
50.0
370
    -2
100
AcDbLine
 10
9385.693956914492
 20
5008.056521119535
 30
0.0
 11
8800.78531551724
 21
5008.056521119535
 31
0.0
  0
LINE
  5
15FC2
330
15FBF
100
AcDbEntity
  8
寸法
 62
     0
 48
50.0
370
    -2
100
AcDbLine
 10
9385.693956914492
 20
2938.056521119536
 30
0.0
 11
8800.785315517238
 21
2938.056521119536
 31
0.0
  0
LINE
  5
15FC3
330
15FBF
100
AcDbEntity
  8
寸法
 62
     0
 48
50.0
370
    -2
100
AcDbLine
 10
8860.785315517238
 20
5008.056521119535
 30
0.0
 11
8860.785315517238
 21
2938.056521119536
 31
0.0
  0
INSERT
  5
15FC4
330
15FBF
100
AcDbEntity
  8
寸法
 62
     0
 48
50.0
370
    -2
100
AcDbBlockReference
  2
_DOTSMALL
 10
8860.785315517238
 20
5008.056521119535
 30
0.0
 41
100.0
 42
100.0
 43
100.0
 50
90.0
  0
INSERT
  5
15FC5
330
15FBF
100
AcDbEntity
  8
寸法
 62
     0
 48
50.0
370
    -2
100
AcDbBlockReference
  2
_DOTSMALL
 10
8860.785315517238
 20
2938.056521119536
 30
0.0
 41
100.0
 42
100.0
 43
100.0
 50
270.0
  0
MTEXT
  5
15FC6
330
15FBF
100
AcDbEntity
  8
寸法
 62
     7
 48
50.0
100
AcDbMText
 10
8760.773504493617
 20
3973.056521119537
 30
0.0
 40
120.0
 41
0.0
 71
     5
 72
     1
  1
\A1;有効開口部高サ2070
  7
STYLE1
 11
0.0000000000000001
 21
1.0
 31
0.0
 73
     1
 44
1.0
1001
ACAD
1000
MTEXTBEGIN
1070
    73
1070
     1
1070
    44
1040
1.0
1070
    74
1070
     0
1000
MTEXTEND
  0
POINT
  5
15FC7
330
15FBF
100
AcDbEntity
  8
DEFPOINTS
 62
     0
 48
50.0
100
AcDbPoint
 10
9405.693956914493
 20
5008.056521119535
 30
0.0
  0
POINT
  5
15FC8
330
15FBF
100
AcDbEntity
  8
DEFPOINTS
 62
     0
 48
50.0
100
AcDbPoint
 10
9405.693956914493
 20
2938.056521119536
 30
0.0
  0
POINT
  5
15FC9
330
15FBF
100
AcDbEntity
  8
DEFPOINTS
 62
     0
 48
50.0
100
AcDbPoint
 10
8860.785315517238
 20
2938.056521119536
 30
0.0
  0
ENDBLK
  5
15FCA
330
15FBF
100
AcDbEntity
  8
0
 48
50.0
100
AcDbBlockEnd
  0
BLOCK
  5
15FCC
330
15FCB
100
AcDbEntity
  8
0
 48
50.0
100
AcDbBlockBegin
  2
*D42
 70
     1
 10
0.0
 20
0.0
 30
0.0
  3
*D42
  1

  0
LINE
  5
15FCD
330
15FCB
100
AcDbEntity
  8
寸法
 62
     0
 48
50.0
370
    -2
100
AcDbLine
 10
9385.693956914492
 20
5016.056521119535
 30
0.0
 11
8501.943827731235
 21
5016.056521119535
 31
0.0
  0
LINE
  5
15FCE
330
15FCB
100
AcDbEntity
  8
寸法
 62
     0
 48
50.0
370
    -2
100
AcDbLine
 10
9385.693956914492
 20
2926.056521119535
 30
0.0
 11
8501.943827731233
 21
2926.056521119536
 31
0.0
  0
LINE
  5
15FCF
330
15FCB
100
AcDbEntity
  8
寸法
 62
     0
 48
50.0
370
    -2
100
AcDbLine
 10
8561.943827731235
 20
5016.056521119535
 30
0.0
 11
8561.943827731232
 21
2926.056521119536
 31
0.0
  0
INSERT
  5
15FD0
330
15FCB
100
AcDbEntity
  8
寸法
 62
     0
 48
50.0
370
    -2
100
AcDbBlockReference
  2
_DOTSMALL
 10
8561.943827731235
 20
5016.056521119535
 30
0.0
 41
100.0
 42
100.0
 43
100.0
 50
90.0
  0
INSERT
  5
15FD1
330
15FCB
100
AcDbEntity
  8
寸法
 62
     0
 48
50.0
370
    -2
100
AcDbBlockReference
  2
_DOTSMALL
 10
8561.943827731232
 20
2926.056521119536
 30
0.0
 41
100.0
 42
100.0
 43
100.0
 50
270.0
  0
MTEXT
  5
15FD2
330
15FCB
100
AcDbEntity
  8
寸法
 62
     7
 48
50.0
100
AcDbMText
 10
8461.932016707612
 20
3971.056521119537
 30
0.0
 40
120.0
 41
0.0
 71
     5
 72
     1
  1
\A1;2090
  7
STYLE1
 11
0.0000000000000001
 21
1.0
 31
0.0
 73
     1
 44
1.0
1001
ACAD
1000
MTEXTBEGIN
1070
    73
1070
     1
1070
    44
1040
1.0
1070
    74
1070
     0
1000
MTEXTEND
  0
POINT
  5
15FD3
330
15FCB
100
AcDbEntity
  8
DEFPOINTS
 62
     0
 48
50.0
100
AcDbPoint
 10
9405.693956914493
 20
5016.056521119535
 30
0.0
  0
POINT
  5
15FD4
330
15FCB
100
AcDbEntity
  8
DEFPOINTS
 62
     0
 48
50.0
100
AcDbPoint
 10
9405.693956914493
 20
2926.056521119535
 30
0.0
  0
POINT
  5
15FD5
330
15FCB
100
AcDbEntity
  8
DEFPOINTS
 62
     0
 48
50.0
100
AcDbPoint
 10
8561.943827731232
 20
2926.056521119536
 30
0.0
  0
ENDBLK
  5
15FD6
330
15FCB
100
AcDbEntity
  8
0
 48
50.0
100
AcDbBlockEnd
  0
BLOCK
  5
15FD8
330
15FD7
100
AcDbEntity
  8
0
 48
50.0
100
AcDbBlockBegin
  2
*D43
 70
     1
 10
0.0
 20
0.0
 30
0.0
  3
*D43
  1

  0
LINE
  5
15FD9
330
15FD7
100
AcDbEntity
  8
寸法
 62
     0
 48
50.0
370
    -2
100
AcDbLine
 10
9385.693956914492
 20
2876.056521119535
 30
0.0
 11
8201.943827731232
 21
2876.056521119536
 31
0.0
  0
LINE
  5
15FDA
330
15FD7
100
AcDbEntity
  8
寸法
 62
     0
 48
50.0
370
    -2
100
AcDbLine
 10
9325.693956914497
 20
5251.05652111954
 30
0.0
 11
8201.943827731232
 21
5251.05652111954
 31
0.0
  0
LINE
  5
15FDB
330
15FD7
100
AcDbEntity
  8
寸法
 62
     0
 48
50.0
370
    -2
100
AcDbLine
 10
8261.943827731231
 20
2876.056521119536
 30
0.0
 11
8261.943827731233
 21
5251.05652111954
 31
0.0
  0
INSERT
  5
15FDC
330
15FD7
100
AcDbEntity
  8
寸法
 62
     0
 48
50.0
370
    -2
100
AcDbBlockReference
  2
_DOTSMALL
 10
8261.943827731231
 20
2876.056521119536
 30
0.0
 41
100.0
 42
100.0
 43
100.0
 50
270.0
  0
INSERT
  5
15FDD
330
15FD7
100
AcDbEntity
  8
寸法
 62
     0
 48
50.0
370
    -2
100
AcDbBlockReference
  2
_DOTSMALL
 10
8261.943827731233
 20
5251.05652111954
 30
0.0
 41
100.0
 42
100.0
 43
100.0
 50
90.0
  0
MTEXT
  5
15FDE
330
15FD7
100
AcDbEntity
  8
寸法
 62
     7
 48
50.0
100
AcDbMText
 10
8161.932016707609
 20
4063.556521119539
 30
0.0
 40
120.0
 41
0.0
 71
     5
 72
     1
  1
\A1;2375
  7
STYLE1
 11
0.0000000000000001
 21
1.0
 31
0.0
 73
     1
 44
1.0
1001
ACAD
1000
MTEXTBEGIN
1070
    73
1070
     1
1070
    44
1040
1.0
1070
    74
1070
     0
1000
MTEXTEND
  0
POINT
  5
15FDF
330
15FD7
100
AcDbEntity
  8
DEFPOINTS
 62
     0
 48
50.0
100
AcDbPoint
 10
9405.693956914493
 20
2876.056521119535
 30
0.0
  0
POINT
  5
15FE0
330
15FD7
100
AcDbEntity
  8
DEFPOINTS
 62
     0
 48
50.0
100
AcDbPoint
 10
9345.693956914496
 20
5251.05652111954
 30
0.0
  0
POINT
  5
15FE1
330
15FD7
100
AcDbEntity
  8
DEFPOINTS
 62
     0
 48
50.0
100
AcDbPoint
 10
8261.943827731233
 20
5251.05652111954
 30
0.0
  0
ENDBLK
  5
15FE2
330
15FD7
100
AcDbEntity
  8
0
 48
50.0
100
AcDbBlockEnd
  0
BLOCK
  5
1605E
330
15FE3
100
AcDbEntity
  8
0
 48
50.0
100
AcDbBlockBegin
  2
A$C29230101
 70
     0
 10
0.0
 20
0.0
 30
0.0
  3
A$C29230101
  1

  0
DIMENSION
  5
15FE4
330
15FE3
100
AcDbEntity
  8
寸法
100
AcDbDimension
  2
*D41
 10
4319.155345832772
 20
1151.87234700923
 30
0.0
 11
4219.143534809151
 21
2186.872347009231
 31
0.0
 12
-4541.629969684465
 22
-1786.184174110305
 32
0.0
  1
有効開口部高サ<>
 71
     5
 42
2070.0
  3
INABA_S40G
100
AcDbAlignedDimension
 13
4864.063987230027
 23
3221.87234700923
 33
0.0
 14
4864.063987230027
 24
1151.87234700923
 34
0.0
 50
90.0
100
AcDbRotatedDimension
1001
ACAD
1000
DSTYLE
1002
{
1070
   174
1070
     0
1070
   272
1070
     1
1070
   288
1070
     0
1070
   341
1005
0
1002
}
  0
DIMENSION
  5
15FE5
330
15FE3
100
AcDbEntity
  8
寸法
100
AcDbDimension
  2
*D42
 10
4020.313858046767
 20
1139.87234700923
 30
0.0
 11
3920.302047023146
 21
2184.872347009231
 31
0.0
 12
-4541.629969684465
 22
-1786.184174110305
 32
0.0
 71
     5
 42
2089.999999999999
  3
INABA_S40G
100
AcDbAlignedDimension
 13
4864.063987230027
 23
3229.87234700923
 33
0.0
 14
4864.063987230027
 24
1139.87234700923
 34
0.0
 50
90.0
100
AcDbRotatedDimension
1001
ACAD
1000
DSTYLE
1002
{
1070
   174
1070
     0
1070
   272
1070
     1
1070
   288
1070
     0
1070
   341
1005
0
1002
}
  0
DIMENSION
  5
15FE6
330
15FE3
100
AcDbEntity
  8
寸法
100
AcDbDimension
  2
*D43
 10
3720.313858046767
 20
3464.872347009235
 30
0.0
 11
3620.302047023145
 21
2277.372347009234
 31
0.0
 12
-4541.629969684465
 22
-1786.184174110305
 32
0.0
 71
     5
 42
2375.000000000004
  3
INABA_S40G
100
AcDbAlignedDimension
 13
4864.063987230027
 23
1089.87234700923
 33
0.0
 14
4804.063987230031
 24
3464.872347009235
 34
0.0
 50
90.0
100
AcDbRotatedDimension
1001
ACAD
1000
DSTYLE
1002
{
1070
   174
1070
     0
1070
   272
1070
     1
1070
   288
1070
     0
1070
   341
1005
0
1002
}
  0
DIMENSION
  5
15FE7
330
15FE3
100
AcDbEntity
  8
寸法
100
AcDbDimension
  2
*D40
 10
7778.991145202155
 20
3409.872347009231
 30
0.0
 11
7678.979334178531
 21
2249.872347009232
 31
0.0
 12
-4541.629969684465
 22
-1786.184174110305
 32
0.0
 71
     5
 42
2320.000000000001
  3
INABA_S40G
100
AcDbAlignedDimension
 13
7074.06398723003
 23
1089.87234700923
 33
0.0
 14
7154.06398723003
 24
3409.872347009231
 34
0.0
 50
90.0
100
AcDbRotatedDimension
1001
ACAD
1000
DSTYLE
1002
{
1070
   174
1070
     0
1070
   272
1070
     1
1070
   288
1070
     0
1070
   341
1005
0
1002
}
  0
LINE
  5
15FE8
330
15FE3
100
AcDbEntity
  8
破線
 48
5.0
100
AcDbLine
 10
6946.563987230034
 20
989.8723470092299
 30
0.0
 11
6946.563987230034
 21
789.872347009229
 31
0.0
  0
LINE
  5
15FE9
330
15FE3
100
AcDbEntity
  8
破線
 48
5.0
100
AcDbLine
 10
7146.563987230031
 20
789.8723470092281
 30
0.0
 11
6946.563987230034
 21
789.872347009229
 31
0.0
  0
LINE
  5
15FEA
330
15FE3
100
AcDbEntity
  8
破線
 48
5.0
100
AcDbLine
 10
7146.563987230035
 20
989.8723470092299
 30
0.0
 11
7146.563987230031
 21
789.8723470092281
 31
0.0
  0
DIMENSION
  5
15FEB
330
15FE3
100
AcDbEntity
  8
寸法
 48
50.0
100
AcDbDimension
  2
*D39
 10
4791.563987230031
 20
503.8250177088516
 30
0.0
 11
4891.563987230028
 21
503.8250177088516
 31
0.0
 12
-4541.629969684465
 22
-1786.184174110305
 32
0.0
 70
   128
 71
     5
 42
199.9999999999963
  3
INABA_S40G
100
AcDbAlignedDimension
 13
4991.563987230027
 23
789.8723470092277
 33
0.0
 14
4791.563987230031
 24
789.8723470092286
 34
0.0
100
AcDbRotatedDimension
  0
LINE
  5
15FEC
330
15FE3
100
AcDbEntity
  8
破線
 48
5.0
100
AcDbLine
 10
4791.563987230027
 20
989.8723470092296
 30
0.0
 11
4791.563987230031
 21
789.8723470092286
 31
0.0
  0
LINE
  5
15FED
330
15FE3
100
AcDbEntity
  8
破線
 48
5.0
100
AcDbLine
 10
4991.563987230027
 20
989.8723470092296
 30
0.0
 11
4991.563987230027
 21
789.8723470092277
 31
0.0
  0
LINE
  5
15FEE
330
15FE3
100
AcDbEntity
  8
破線
 48
5.0
100
AcDbLine
 10
4991.563987230027
 20
789.8723470092277
 30
0.0
 11
4791.563987230031
 21
789.8723470092286
 31
0.0
  0
DIMENSION
  5
15FEF
330
15FE3
100
AcDbEntity
  8
寸法
 48
50.0
100
AcDbDimension
  2
*D38
 10
4642.063983983393
 20
989.8723470092299
 30
0.0
 11
4642.063983983393
 21
889.8723470092308
 31
0.0
 12
-4541.629969684465
 22
-1786.184174110305
 32
0.0
 70
   128
 71
     5
 42
200.0000000000009
  3
INABA_S40G
100
AcDbAlignedDimension
 13
4791.563987230031
 23
789.8723470092286
 33
0.0
 14
4766.563987230028
 24
989.8723470092296
 34
0.0
 50
90.0
100
AcDbRotatedDimension
1001
ACAD
1000
DSTYLE
1002
{
1070
   174
1070
     0
1070
   272
1070
     1
1070
   288
1070
     0
1070
   341
1005
0
1002
}
  0
DIMENSION
  5
15FF0
330
15FE3
100
AcDbEntity
  8
寸法
 48
50.0
100
AcDbDimension
  2
*D37
 10
4243.455580461655
 20
3339.217605882562
 30
0.0
 11
4254.121055720579
 21
3710.064269124259
 31
0.0
 12
-4541.629969684465
 22
-1786.184174110305
 32
0.0
 70
   129
 71
     5
 42
141.0
  3
INABA_S40G
100
AcDbAlignedDimension
 13
4823.460007388607
 23
3463.59509584391
 33
0.0
 14
4819.40655183198
 24
3322.653372078197
 34
0.0
1001
ACAD
1000
DSTYLE
1002
{
1070
   174
1070
     0
1070
   272
1070
     1
1070
   288
1070
     0
1070
   341
1005
0
1002
}
  0
LINE
  5
15FF1
330
15FE3
100
AcDbEntity
  8
細線
 48
50.0
100
AcDbLine
 10
6941.563987230034
 20
3229.87234700923
 30
0.0
 11
6941.563987230034
 21
1139.87234700923
 31
0.0
  0
LINE
  5
15FF2
330
15FE3
100
AcDbEntity
  8
細線
 48
50.0
100
AcDbLine
 10
6956.563987230035
 20
3229.87234700923
 30
0.0
 11
6956.563987230035
 21
1139.87234700923
 31
0.0
  0
LINE
  5
15FF3
330
15FE3
100
AcDbEntity
  8
細線
 48
50.0
100
AcDbLine
 10
6816.563987230034
 20
3229.87234700923
 30
0.0
 11
6816.563987230034
 21
1139.87234700923
 31
0.0
  0
LINE
  5
15FF4
330
15FE3
100
AcDbEntity
  8
細線
 48
50.0
100
AcDbLine
 10
6801.563987230034
 20
3229.87234700923
 30
0.0
 11
6801.563987230034
 21
1139.87234700923
 31
0.0
  0
LINE
  5
15FF5
330
15FE3
100
AcDbEntity
  8
細線
 48
50.0
100
AcDbLine
 10
6661.563987230035
 20
3229.87234700923
 30
0.0
 11
6661.563987230035
 21
1139.87234700923
 31
0.0
  0
LINE
  5
15FF6
330
15FE3
100
AcDbEntity
  8
細線
 48
50.0
100
AcDbLine
 10
6676.563987230034
 20
3229.87234700923
 30
0.0
 11
6676.563987230034
 21
1139.87234700923
 31
0.0
  0
LINE
  5
15FF7
330
15FE3
100
AcDbEntity
  8
部品1
100
AcDbLine
 10
6179.063987230027
 20
3229.87234700923
 30
0.0
 11
6179.063987230027
 21
1139.87234700923
 31
0.0
  0
LINE
  5
15FF8
330
15FE3
100
AcDbEntity
  8
細線
 48
50.0
100
AcDbLine
 10
5836.563987230031
 20
3229.87234700923
 30
0.0
 11
5836.563987230031
 21
1139.87234700923
 31
0.0
  0
LINE
  5
15FF9
330
15FE3
100
AcDbEntity
  8
細線
 48
50.0
100
AcDbLine
 10
5821.563987230031
 20
3229.87234700923
 30
0.0
 11
5821.563987230031
 21
1139.87234700923
 31
0.0
  0
LINE
  5
15FFA
330
15FE3
100
AcDbEntity
  8
細線
 48
50.0
100
AcDbLine
 10
5961.563987230031
 20
3229.87234700923
 30
0.0
 11
5961.563987230031
 21
1139.87234700923
 31
0.0
  0
LINE
  5
15FFB
330
15FE3
100
AcDbEntity
  8
細線
 48
50.0
100
AcDbLine
 10
5976.563987230031
 20
3229.87234700923
 30
0.0
 11
5976.563987230031
 21
1139.87234700923
 31
0.0
  0
LINE
  5
15FFC
330
15FE3
100
AcDbEntity
  8
細線
 48
50.0
100
AcDbLine
 10
6116.563987230031
 20
3229.87234700923
 30
0.0
 11
6116.563987230031
 21
1139.87234700923
 31
0.0
  0
LINE
  5
15FFD
330
15FE3
100
AcDbEntity
  8
細線
 48
50.0
100
AcDbLine
 10
6101.563987230031
 20
3229.87234700923
 30
0.0
 11
6101.563987230031
 21
1139.87234700923
 31
0.0
  0
LINE
  5
15FFE
330
15FE3
100
AcDbEntity
  8
部品1
100
AcDbLine
 10
5759.063987230027
 20
3229.87234700923
 30
0.0
 11
5759.063987230027
 21
1139.87234700923
 31
0.0
  0
DIMENSION
  5
15FFF
330
15FE3
100
AcDbEntity
  8
寸法
 48
50.0
100
AcDbDimension
  2
*D36
 10
7154.063987230028
 20
3863.529800588535
 30
0.0
 11
7360.111231324518
 21
3863.529800588535
 31
0.0
 12
-4541.629969684465
 22
-1786.184174110305
 32
0.0
 70
   128
 71
     5
 42
80.0
  3
INABA_S40G
100
AcDbAlignedDimension
 13
7074.063987230028
 23
3411.683026620884
 33
0.0
 14
7154.063987230028
 24
3409.872347009231
 34
0.0
100
AcDbRotatedDimension
1001
ACAD
1000
DSTYLE
1002
{
1070
   174
1070
     0
1070
   272
1070
     1
1070
   288
1070
     0
1070
   341
1005
0
1002
}
  0
LINE
  5
16000
330
15FE3
100
AcDbEntity
  8
細線
 48
50.0
100
AcDbLine
 10
4996.563987230029
 20
3229.87234700923
 30
0.0
 11
4996.563987230027
 21
1139.87234700923
 31
0.0
  0
LINE
  5
16001
330
15FE3
100
AcDbEntity
  8
細線
 48
50.0
100
AcDbLine
 10
4981.563987230028
 20
3229.87234700923
 30
0.0
 11
4981.563987230027
 21
1139.87234700923
 31
0.0
  0
LINE
  5
16002
330
15FE3
100
AcDbEntity
  8
細線
 48
50.0
100
AcDbLine
 10
5121.563987230029
 20
3229.87234700923
 30
0.0
 11
5121.563987230027
 21
1139.87234700923
 31
0.0
  0
LINE
  5
16003
330
15FE3
100
AcDbEntity
  8
細線
 48
50.0
100
AcDbLine
 10
5136.563987230029
 20
3229.87234700923
 30
0.0
 11
5136.563987230027
 21
1139.87234700923
 31
0.0
  0
LINE
  5
16004
330
15FE3
100
AcDbEntity
  8
細線
 48
50.0
100
AcDbLine
 10
5276.563987230029
 20
3229.87234700923
 30
0.0
 11
5276.563987230026
 21
1139.87234700923
 31
0.0
  0
LINE
  5
16005
330
15FE3
100
AcDbEntity
  8
細線
 48
50.0
100
AcDbLine
 10
5261.563987230029
 20
3229.87234700923
 30
0.0
 11
5261.563987230027
 21
1139.87234700923
 31
0.0
  0
LINE
  5
16006
330
15FE3
100
AcDbEntity
  8
細線
 48
50.0
100
AcDbLine
 10
5681.563987230028
 20
3229.87234700923
 30
0.0
 11
5681.563987230028
 21
1139.87234700923
 31
0.0
  0
LINE
  5
16007
330
15FE3
100
AcDbEntity
  8
細線
 48
50.0
100
AcDbLine
 10
5696.563987230027
 20
3229.87234700923
 30
0.0
 11
5696.563987230027
 21
1139.87234700923
 31
0.0
  0
LINE
  5
16008
330
15FE3
100
AcDbEntity
  8
細線
 48
50.0
100
AcDbLine
 10
5556.563987230028
 20
3229.87234700923
 30
0.0
 11
5556.563987230028
 21
1139.87234700923
 31
0.0
  0
LINE
  5
16009
330
15FE3
100
AcDbEntity
  8
細線
 48
50.0
100
AcDbLine
 10
5541.563987230027
 20
3229.87234700923
 30
0.0
 11
5541.563987230027
 21
1139.87234700923
 31
0.0
  0
LINE
  5
1600A
330
15FE3
100
AcDbEntity
  8
細線
 48
50.0
100
AcDbLine
 10
5401.563987230026
 20
3229.87234700923
 30
0.0
 11
5401.563987230026
 21
1139.87234700923
 31
0.0
  0
LINE
  5
1600B
330
15FE3
100
AcDbEntity
  8
細線
 48
50.0
100
AcDbLine
 10
5416.563987230027
 20
3229.87234700923
 30
0.0
 11
5416.563987230027
 21
1139.87234700923
 31
0.0
  0
LINE
  5
1600C
330
15FE3
100
AcDbEntity
  8
部品1
100
AcDbLine
 10
4911.563987230027
 20
1089.87234700923
 30
0.0
 11
7026.563987230026
 21
1089.87234700923
 31
0.0
  0
LINE
  5
1600D
330
15FE3
100
AcDbEntity
  8
部品1
100
AcDbLine
 10
7066.563987230027
 20
1089.87234700923
 30
0.0
 11
7074.06398723003
 21
1089.87234700923
 31
0.0
  0
LINE
  5
1600E
330
15FE3
100
AcDbEntity
  8
破線
  6
HIDDEN
 48
5.0
100
AcDbLine
 10
4911.563987230027
 20
989.8723470092296
 30
0.0
 11
4911.563987230027
 21
984.8723470092295
 31
0.0
  0
LINE
  5
1600F
330
15FE3
100
AcDbEntity
  8
破線
  6
HIDDEN
 48
5.0
100
AcDbLine
 10
4871.563987230034
 20
989.8723470092296
 30
0.0
 11
4871.563987230034
 21
984.8723470092304
 31
0.0
  0
LINE
  5
16010
330
15FE3
100
AcDbEntity
  8
破線
  6
HIDDEN
 48
5.0
100
AcDbLine
 10
7066.563987230027
 20
989.8723470092299
 30
0.0
 11
7066.563987230027
 21
984.87234700923
 31
0.0
  0
LINE
  5
16011
330
15FE3
100
AcDbEntity
  8
破線
  6
HIDDEN
 48
5.0
100
AcDbLine
 10
7026.563987230026
 20
989.8723470092299
 30
0.0
 11
7026.563987230026
 21
984.87234700923
 31
0.0
  0
ARC
  5
16012
330
15FE3
100
AcDbEntity
  8
部品1
 48
50.0
100
AcDbCircle
 10
7061.563987230027
 20
1129.87234700923
 30
0.0
 40
5.0
100
AcDbArc
 50
0.0
 51
90.0
  0
ARC
  5
16013
330
15FE3
100
AcDbEntity
  8
部品1
 48
50.0
100
AcDbCircle
 10
7031.563987230026
 20
1129.87234700923
 30
0.0
 40
5.0
100
AcDbArc
 50
90.0
 51
180.0
  0
LINE
  5
16014
330
15FE3
100
AcDbEntity
  8
部品1
100
AcDbLine
 10
7061.563987230027
 20
1134.87234700923
 30
0.0
 11
7031.563987230026
 21
1134.87234700923
 31
0.0
  0
LINE
  5
16015
330
15FE3
100
AcDbEntity
  8
部品1
 48
50.0
100
AcDbLine
 10
7066.563987230027
 20
1129.87234700923
 30
0.0
 11
7066.563987230027
 21
989.8723470092299
 31
0.0
  0
LINE
  5
16016
330
15FE3
100
AcDbEntity
  8
部品1
 48
50.0
100
AcDbLine
 10
7026.563987230026
 20
1129.87234700923
 30
0.0
 11
7026.563987230026
 21
989.8723470092299
 31
0.0
  0
ARC
  5
16017
330
15FE3
100
AcDbEntity
  8
部品1
 48
50.0
100
AcDbCircle
 10
4906.563987230027
 20
1129.87234700923
 30
0.0
 40
5.0
100
AcDbArc
 50
0.0
 51
90.0
  0
ARC
  5
16018
330
15FE3
100
AcDbEntity
  8
部品1
 48
50.0
100
AcDbCircle
 10
4876.563987230027
 20
1129.87234700923
 30
0.0
 40
5.0
100
AcDbArc
 50
90.0
 51
180.0
  0
LINE
  5
16019
330
15FE3
100
AcDbEntity
  8
部品1
100
AcDbLine
 10
4876.563987230027
 20
1134.87234700923
 30
0.0
 11
4906.563987230027
 21
1134.872347009229
 31
0.0
  0
LINE
  5
1601A
330
15FE3
100
AcDbEntity
  8
部品1
 48
50.0
100
AcDbLine
 10
4911.563987230027
 20
1129.87234700923
 30
0.0
 11
4911.563987230027
 21
989.8723470092296
 31
0.0
  0
LINE
  5
1601B
330
15FE3
100
AcDbEntity
  8
部品1
 48
50.0
100
AcDbLine
 10
4871.563987230027
 20
1129.87234700923
 30
0.0
 11
4871.563987230027
 21
989.8723470092296
 31
0.0
  0
LINE
  5
1601C
330
15FE3
100
AcDbEntity
  8
破線
  6
HIDDEN
 48
5.0
100
AcDbLine
 10
4911.563987230027
 20
984.8723470092295
 30
0.0
 11
4926.563987230027
 21
837.1723470092296
 31
0.0
  0
LINE
  5
1601D
330
15FE3
100
AcDbEntity
  8
破線
  6
HIDDEN
 48
5.0
100
AcDbLine
 10
4871.563987230027
 20
984.8723470092304
 30
0.0
 11
4856.563987230027
 21
837.1723470092296
 31
0.0
  0
LINE
  5
1601E
330
15FE3
100
AcDbEntity
  8
破線
  6
HIDDEN
 48
5.0
100
AcDbLine
 10
4926.563987230027
 20
837.1723470092296
 30
0.0
 11
4926.563987230027
 21
834.8723470092295
 31
0.0
  0
LINE
  5
1601F
330
15FE3
100
AcDbEntity
  8
破線
  6
HIDDEN
 48
5.0
100
AcDbLine
 10
4856.563987230027
 20
837.1723470092296
 30
0.0
 11
4856.563987230027
 21
834.8723470092295
 31
0.0
  0
LINE
  5
16020
330
15FE3
100
AcDbEntity
  8
破線
  6
HIDDEN
 48
5.0
100
AcDbLine
 10
4856.563987230027
 20
834.8723470092295
 30
0.0
 11
4926.563987230027
 21
834.8723470092295
 31
0.0
  0
LINE
  5
16021
330
15FE3
100
AcDbEntity
  8
破線
  6
HIDDEN
 48
5.0
100
AcDbLine
 10
7081.563987230026
 20
837.1723470092302
 30
0.0
 11
7081.563987230026
 21
834.87234700923
 31
0.0
  0
LINE
  5
16022
330
15FE3
100
AcDbEntity
  8
破線
  6
HIDDEN
 48
5.0
100
AcDbLine
 10
7066.563987230027
 20
984.87234700923
 30
0.0
 11
7081.563987230026
 21
837.1723470092302
 31
0.0
  0
LINE
  5
16023
330
15FE3
100
AcDbEntity
  8
破線
  6
HIDDEN
 48
5.0
100
AcDbLine
 10
7011.563987230028
 20
837.1723470092302
 30
0.0
 11
7011.563987230028
 21
834.87234700923
 31
0.0
  0
LINE
  5
16024
330
15FE3
100
AcDbEntity
  8
破線
  6
HIDDEN
 48
5.0
100
AcDbLine
 10
7026.563987230026
 20
984.87234700923
 30
0.0
 11
7011.563987230028
 21
837.1723470092302
 31
0.0
  0
LINE
  5
16025
330
15FE3
100
AcDbEntity
  8
破線
  6
HIDDEN
 48
5.0
100
AcDbLine
 10
7081.563987230026
 20
834.87234700923
 30
0.0
 11
7011.563987230028
 21
834.87234700923
 31
0.0
  0
DIMENSION
  5
16026
330
15FE3
100
AcDbEntity
  8
寸法
 48
50.0
100
AcDbDimension
  2
*D35
 10
4804.063987230027
 20
4082.731634262826
 30
0.0
 11
6038.407841322496
 21
4082.731634262826
 31
0.0
 12
-4541.629969684465
 22
-1786.184174110305
 32
0.0
 70
   128
 71
     5
 42
2350.0
  3
INABA_S40G
100
AcDbAlignedDimension
 13
7154.063987230028
 23
3409.872347009231
 33
0.0
 14
4804.063987230027
 24
3464.872347009235
 34
0.0
100
AcDbRotatedDimension
1001
ACAD
1000
DSTYLE
1002
{
1070
   174
1070
     0
1070
   272
1070
     1
1070
   288
1070
     0
1070
   341
1005
0
1002
}
  0
DIMENSION
  5
16027
330
15FE3
100
AcDbEntity
  8
寸法
 48
50.0
100
AcDbDimension
  2
*D34
 10
4804.063987230027
 20
3863.529800588535
 30
0.0
 11
4494.426191954437
 21
3863.529800588535
 31
0.0
 12
-4541.629969684465
 22
-1786.184174110305
 32
0.0
 70
   128
 71
     5
 42
60.0
  3
INABA_S40G
100
AcDbAlignedDimension
 13
4864.063987230027
 23
3460.873965132207
 33
0.0
 14
4804.063987230027
 24
3464.872347009235
 34
0.0
100
AcDbRotatedDimension
1001
ACAD
1000
DSTYLE
1002
{
1070
   174
1070
     0
1070
   272
1070
     1
1070
   288
1070
     0
1070
   341
1005
0
1002
}
  0
DIMENSION
  5
16028
330
15FE3
100
AcDbEntity
  8
寸法
 48
50.0
100
AcDbDimension
  2
*D33
 10
4864.063987230027
 20
3863.529800588535
 30
0.0
 11
5958.70872430054
 21
3863.529800588535
 31
0.0
 12
-4541.629969684465
 22
-1786.184174110305
 32
0.0
 70
   128
  1
柱外寸法<>
 71
     5
 42
2210.0
  3
INABA_S40G
100
AcDbAlignedDimension
 13
7074.063987230028
 23
3411.683026620884
 33
0.0
 14
4864.063987230027
 24
3460.873965132207
 34
0.0
100
AcDbRotatedDimension
1001
ACAD
1000
DSTYLE
1002
{
1070
   174
1070
     0
1070
   272
1070
     1
1070
   288
1070
     0
1070
   341
1005
0
1002
}
  0
LINE
  5
16029
330
15FE3
100
AcDbEntity
  8
部品1
100
AcDbLine
 10
6874.06398723003
 20
1089.87234700923
 30
0.0
 11
6874.06398723003
 21
989.8723470092299
 31
0.0
  0
LINE
  5
1602A
330
15FE3
100
AcDbEntity
  8
部品1
100
AcDbLine
 10
5064.063987230027
 20
1089.87234700923
 30
0.0
 11
5064.063987230027
 21
989.8723470092299
 31
0.0
  0
LINE
  5
1602B
330
15FE3
100
AcDbEntity
  8
部品1
100
AcDbLine
 10
7019.063987230032
 20
3229.87234700923
 30
0.0
 11
7019.063987230031
 21
1139.87234700923
 31
0.0
  0
LINE
  5
1602C
330
15FE3
100
AcDbEntity
  8
部品1
100
AcDbLine
 10
7074.063987230028
 20
3284.548784640451
 30
0.0
 11
7074.06398723003
 21
989.8723470092299
 31
0.0
  0
LINE
  5
1602D
330
15FE3
100
AcDbEntity
  8
部品1
100
AcDbLine
 10
5339.063987230026
 20
3229.87234700923
 30
0.0
 11
5339.063987230026
 21
1139.87234700923
 31
0.0
  0
DIMENSION
  5
1602E
330
15FE3
100
AcDbEntity
  8
寸法
100
AcDbDimension
  2
*D32
 10
4020.313858046767
 20
1089.87234700923
 30
0.0
 11
4020.313858046767
 21
783.8251029147422
 31
0.0
 12
-4541.629969684465
 22
-1786.184174110305
 32
0.0
 70
   128
 71
     5
 42
50.0
  3
INABA_S40G
100
AcDbAlignedDimension
 13
4864.063987230027
 23
1139.87234700923
 33
0.0
 14
4809.063987230027
 24
1089.87234700923
 34
0.0
 50
90.0
100
AcDbRotatedDimension
1001
ACAD
1000
DSTYLE
1002
{
1070
   174
1070
     0
1070
   272
1070
     1
1070
   288
1070
     0
1070
   341
1005
0
1002
}
  0
DIMENSION
  5
1602F
330
15FE3
100
AcDbEntity
  8
寸法
100
AcDbDimension
  2
*D31
 10
3720.313858046767
 20
989.8723470092299
 30
0.0
 11
3720.313858046767
 21
753.8251029147422
 31
0.0
 12
-4541.629969684465
 22
-1786.184174110305
 32
0.0
 70
   128
 71
     5
 42
100.0000000000004
  3
INABA_S40G
100
AcDbAlignedDimension
 13
4809.063987230027
 23
1089.87234700923
 33
0.0
 14
3807.562911334895
 24
989.8723470092299
 34
0.0
 50
90.0
100
AcDbRotatedDimension
1001
ACAD
1000
DSTYLE
1002
{
1070
   174
1070
     0
1070
   272
1070
     1
1070
   288
1070
     0
1070
   341
1005
0
1002
}
  0
LINE
  5
16030
330
15FE3
100
AcDbEntity
  8
部品1
100
AcDbLine
 10
4864.063987230029
 20
3321.898644053817
 30
0.0
 11
4864.063987230027
 21
989.8723470092299
 31
0.0
  0
LINE
  5
16031
330
15FE3
100
AcDbEntity
  8
部品1
100
AcDbLine
 10
4919.063987230028
 20
3229.87234700923
 30
0.0
 11
4919.063987230027
 21
1139.87234700923
 31
0.0
  0
LINE
  5
16032
330
15FE3
100
AcDbEntity
  8
部品1
100
AcDbLine
 10
4864.063987230027
 20
1089.87234700923
 30
0.0
 11
4871.563987230027
 21
1089.872347009229
 31
0.0
  0
LINE
  5
16033
330
15FE3
100
AcDbEntity
  8
部品1
100
AcDbLine
 10
4864.063987230027
 20
1139.87234700923
 30
0.0
 11
7074.06398723003
 21
1139.872347009231
 31
0.0
  0
LINE
  5
16034
330
15FE3
100
AcDbEntity
  8
部品1
100
AcDbLine
 10
4864.063987230027
 20
3229.87234700923
 30
0.0
 11
7074.063987230028
 21
3229.87234700923
 31
0.0
  0
LINE
  5
16035
330
15FE3
100
AcDbEntity
  8
部品1
100
AcDbLine
 10
6599.063987230028
 20
3229.87234700923
 30
0.0
 11
6599.063987230028
 21
1139.87234700923
 31
0.0
  0
LINE
  5
16036
330
15FE3
100
AcDbEntity
  8
細線
 48
50.0
100
AcDbLine
 10
6521.563987230031
 20
3229.87234700923
 30
0.0
 11
6521.563987230031
 21
1139.87234700923
 31
0.0
  0
LINE
  5
16037
330
15FE3
100
AcDbEntity
  8
細線
 48
50.0
100
AcDbLine
 10
6536.563987230031
 20
3229.87234700923
 30
0.0
 11
6536.563987230031
 21
1139.87234700923
 31
0.0
  0
LINE
  5
16038
330
15FE3
100
AcDbEntity
  8
細線
 48
50.0
100
AcDbLine
 10
6396.563987230031
 20
3229.87234700923
 30
0.0
 11
6396.563987230031
 21
1139.87234700923
 31
0.0
  0
LINE
  5
16039
330
15FE3
100
AcDbEntity
  8
細線
 48
50.0
100
AcDbLine
 10
6381.56398723003
 20
3229.87234700923
 30
0.0
 11
6381.56398723003
 21
1139.87234700923
 31
0.0
  0
LINE
  5
1603A
330
15FE3
100
AcDbEntity
  8
細線
 48
50.0
100
AcDbLine
 10
6241.563987230031
 20
3229.87234700923
 30
0.0
 11
6241.563987230031
 21
1139.87234700923
 31
0.0
  0
LINE
  5
1603B
330
15FE3
100
AcDbEntity
  8
細線
 48
50.0
100
AcDbLine
 10
6256.56398723003
 20
3229.87234700923
 30
0.0
 11
6256.56398723003
 21
1139.87234700923
 31
0.0
  0
TEXT
  5
1603C
330
15FE3
100
AcDbEntity
  8
部品1
 48
50.0
100
AcDbText
 10
6284.964845118844
 20
3493.687534284492
 30
0.0
 40
120.0
  1
44
 50
90.0
  7
STYLE1
100
AcDbText
  0
TEXT
  5
1603D
330
15FE3
100
AcDbEntity
  8
部品1
 48
50.0
100
AcDbText
 10
5807.331822453754
 20
3631.188792502774
 30
0.0
 40
120.0
  1
1000
  7
STYLE1
100
AcDbText
  0
LINE
  5
1603E
330
15FE3
100
AcDbEntity
  8
部品1
 48
50.0
100
AcDbLine
 10
6119.063987230028
 20
3595.304770350341
 30
0.0
 11
6119.063987230028
 21
3579.104770350342
 31
0.0
  0
LINE
  5
1603F
330
15FE3
100
AcDbEntity
  8
部品1
 48
50.0
100
AcDbLine
 10
5819.063987230027
 20
3595.304770350341
 30
0.0
 11
6119.063987230028
 21
3595.304770350341
 31
0.0
  0
LINE
  5
16040
330
15FE3
100
AcDbEntity
  8
部品1
100
AcDbLine
 10
4811.60897358699
 20
3463.590082343497
 30
0.0
 11
7146.675864091491
 21
3408.513144718369
 31
0.0
  0
LINE
  5
16041
330
15FE3
100
AcDbEntity
  8
部品1
100
AcDbLine
 10
4819.40655183198
 20
3322.653372078197
 30
0.0
 11
7128.727687769876
 21
3283.624946843992
 31
0.0
  0
LINE
  5
16042
330
15FE3
100
AcDbEntity
  8
細線
 48
50.0
100
AcDbLine
 10
4837.063987230028
 20
3462.272023384635
 30
0.0
 11
4831.77488567452
 21
3322.186390757281
 31
0.0
  0
LINE
  5
16043
330
15FE3
100
AcDbEntity
  8
細線
 48
50.0
100
AcDbLine
 10
7121.06398723003
 20
3409.839326044526
 30
0.0
 11
7116.316304342032
 21
3284.093553553782
 31
0.0
  0
LINE
  5
16044
330
15FE3
100
AcDbEntity
  8
部品1
 48
50.0
100
AcDbLine
 10
4804.248273143134
 20
3456.465893173923
 30
0.0
 11
4804.628532920946
 21
3436.538928727511
 31
0.0
  0
LINE
  5
16045
330
15FE3
100
AcDbEntity
  8
部品1
 48
50.0
100
AcDbLine
 10
4807.697305027192
 20
3432.963647234039
 30
0.0
 11
4809.401206518556
 21
3343.673150527392
 31
0.0
  0
LINE
  5
16046
330
15FE3
100
AcDbEntity
  8
細線
 48
50.0
100
AcDbLine
 10
4805.103410330841
 20
3435.889428850592
 30
0.0
 11
7150.739395076013
 21
3380.265224209764
 31
0.0
  0
LINE
  5
16047
330
15FE3
100
AcDbEntity
  8
細線
 48
50.0
100
AcDbLine
 10
4809.863885568127
 20
3343.027917152728
 30
0.0
 11
7139.867549998766
 21
3303.218598178235
 31
0.0
  0
LINE
  5
16048
330
15FE3
100
AcDbEntity
  8
部品1
 48
50.0
100
AcDbLine
 10
4812.469978624799
 20
3340.09786903392
 30
0.0
 11
4812.67193124523
 21
3329.514833640828
 31
0.0
  0
ARC
  5
16049
330
15FE3
100
AcDbEntity
  8
部品1
 48
50.0
100
AcDbCircle
 10
4811.246998971474
 20
3456.59944758135
 30
0.0
 40
7.0
100
AcDbArc
 50
87.03587545293501
 51
181.0932240292896
  0
ARC
  5
1604A
330
15FE3
100
AcDbEntity
  8
部品1
 48
50.0
100
AcDbCircle
 10
4819.67065707357
 20
3329.648388048255
 30
0.0
 40
7.0
100
AcDbArc
 50
181.0932240292896
 51
267.8377559870533
  0
ARC
  5
1604B
330
15FE3
100
AcDbEntity
  8
部品1
100
AcDbCircle
 10
4809.470524698369
 20
3340.040631430737
 30
0.0
 40
3.0
100
AcDbArc
 50
1.093224029289586
 51
80.18775403159162
  0
ARC
  5
1604C
330
15FE3
100
AcDbEntity
  8
部品1
100
AcDbCircle
 10
4804.697851100762
 20
3432.906409630856
 30
0.0
 40
3.0
100
AcDbArc
 50
1.093224029289586
 51
80.18775403159162
  0
ARC
  5
1604D
330
15FE3
100
AcDbEntity
  8
部品1
100
AcDbCircle
 10
4805.328405503784
 20
3436.552284168254
 30
0.0
 40
0.7
100
AcDbArc
 50
181.0932240292114
 51
260.1877540315916
  0
ARC
  5
1604E
330
15FE3
100
AcDbEntity
  8
部品1
100
AcDbCircle
 10
4810.101079101394
 20
3343.686505968134
 30
0.0
 40
0.7
100
AcDbArc
 50
181.0932240292374
 51
260.1877540315916
  0
LINE
  5
1604F
330
15FE3
100
AcDbEntity
  8
部品1
 48
50.0
100
AcDbLine
 10
7153.277890040732
 20
3400.813499283449
 30
0.0
 11
7151.247268849762
 21
3380.868458025669
 31
0.0
  0
LINE
  5
16050
330
15FE3
100
AcDbEntity
  8
部品1
 48
50.0
100
AcDbLine
 10
7147.894702365281
 20
3377.55782395276
 30
0.0
 11
7140.387923100444
 21
3303.825203207747
 31
0.0
  0
LINE
  5
16051
330
15FE3
100
AcDbEntity
  8
部品1
 48
50.0
100
AcDbLine
 10
7137.035356615958
 20
3300.514569134835
 30
0.0
 11
7135.955793576217
 21
3289.910952141277
 31
0.0
  0
ARC
  5
16052
330
15FE3
100
AcDbEntity
  8
部品1
 48
50.0
100
AcDbCircle
 10
7146.313889475976
 20
3401.522509956223
 30
0.0
 40
7.0
100
AcDbArc
 50
354.186699766522
 51
87.03587545293501
  0
ARC
  5
16053
330
15FE3
100
AcDbEntity
  8
部品1
 48
50.0
100
AcDbCircle
 10
7128.991793011461
 20
3290.619962814051
 30
0.0
 40
7.0
100
AcDbArc
 50
267.8377559870533
 51
354.186699766522
  0
ARC
  5
16054
330
15FE3
100
AcDbEntity
  8
部品1
100
AcDbCircle
 10
7140.019928286566
 20
3300.210707417932
 30
0.0
 40
3.0
100
AcDbArc
 50
95.0921697642102
 51
174.1866997665219
  0
ARC
  5
16055
330
15FE3
100
AcDbEntity
  8
部品1
100
AcDbCircle
 10
7150.879274035891
 20
3377.253962235857
 30
0.0
 40
3.0
100
AcDbArc
 50
95.09216976431515
 51
174.1866997665219
  0
ARC
  5
16056
330
15FE3
100
AcDbEntity
  8
部品1
100
AcDbCircle
 10
7150.550868793288
 20
3380.939359092946
 30
0.0
 40
0.7
100
AcDbArc
 50
275.0921697642102
 51
354.186699766522
  0
ARC
  5
16057
330
15FE3
100
AcDbEntity
  8
部品1
100
AcDbCircle
 10
7139.69152304397
 20
3303.896104275022
 30
0.0
 40
0.7
100
AcDbArc
 50
275.0921697642102
 51
354.1866997666775
  0
LINE
  5
16058
330
15FE3
100
AcDbEntity
  8
部品1
 48
50.0
100
AcDbLine
 10
5869.063987230028
 20
1089.87234700923
 30
0.0
 11
5869.063987230028
 21
989.8723470092299
 31
0.0
  0
LINE
  5
16059
330
15FE3
100
AcDbEntity
  8
部品1
 48
50.0
100
AcDbLine
 10
6069.063987230027
 20
1089.87234700923
 30
0.0
 11
6069.063987230027
 21
989.8723470092299
 31
0.0
  0
LINE
  5
1605A
330
15FE3
100
AcDbEntity
  8
部品1
100
AcDbLine
 10
5793.60897358699
 20
3596.622829309203
 30
0.0
 11
6119.063987230028
 21
3579.104770350342
 31
0.0
  0
TEXT
  5
1605B
330
15FE3
100
AcDbEntity
  8
部品1
100
AcDbText
 10
5686.774755539416
 20
46.99878952088783
 30
0.0
 40
135.0
  1
側面図
  7
STYLE2
100
AcDbText
  0
LWPOLYLINE
  5
1605C
330
15FE3
100
AcDbEntity
  8
部品1
100
AcDbPolyline
 90
        4
 70
     1
 43
0.0
 10
5597.328654115809
 20
239.8923187394112
 10
5597.328654115809
 20
-0.0000028061213015
 10
6360.799320344248
 20
-0.0000028061213015
 10
6360.799320344248
 20
239.8923187394112
  0
LINE
  5
1605D
330
15FE3
100
AcDbEntity
  8
Ｇ．Ｌ
100
AcDbLine
 10
0.0000027520436561
 20
989.8723470092299
 30
0.0
 11
7731.43008411079
 21
989.8723470092299
 31
0.0
  0
ENDBLK
  5
1605F
330
15FE3
100
AcDbEntity
  8
0
 48
50.0
100
AcDbBlockEnd
  0
BLOCK
  5
16176
330
16175
100
AcDbEntity
  8
0
100
AcDbBlockBegin
  2
_OPEN
 70
     0
 10
0.0
 20
0.0
 30
0.0
  3
_OPEN
  1

  0
LINE
  5
16177
330
16175
100
AcDbEntity
  8
0
  6
ByBlock
 62
     0
100
AcDbLine
 10
-1.0
 20
0.1666666666666666
 30
0.0
 11
0.0
 21
0.0
 31
0.0
  0
LINE
  5
16178
330
16175
100
AcDbEntity
  8
0
  6
ByBlock
 62
     0
100
AcDbLine
 10
0.0
 20
0.0
 30
0.0
 11
-1.0
 21
-0.1666666666666666
 31
0.0
  0
LINE
  5
16179
330
16175
100
AcDbEntity
  8
0
  6
ByBlock
 62
     0
100
AcDbLine
 10
0.0
 20
0.0
 30
0.0
 11
-1.0
 21
0.0
 31
0.0
  0
ENDBLK
  5
1617A
330
16175
100
AcDbEntity
  8
0
100
AcDbBlockEnd
  0
BLOCK
  5
17836
330
1782C
100
AcDbEntity
  8
0
 48
50.0
100
AcDbBlockBegin
  2
*D46
 70
     1
 10
0.0
 20
0.0
 30
0.0
  3
*D46
  1

  0
LINE
  5
181C6
330
1782C
100
AcDbEntity
  8
寸法
 62
     0
 48
50.0
370
    -2
100
AcDbLine
 10
3645.904397928899
 20
7261.64990948011
 30
0.0
 11
3645.904397928899
 21
6577.785451739976
 31
0.0
  0
LINE
  5
181C7
330
1782C
100
AcDbEntity
  8
寸法
 62
     0
 48
50.0
370
    -2
100
AcDbLine
 10
4911.904397928899
 20
7261.64990948011
 30
0.0
 11
4911.904397928899
 21
6577.785451739976
 31
0.0
  0
LINE
  5
181C8
330
1782C
100
AcDbEntity
  8
寸法
 62
     0
 48
50.0
370
    -2
100
AcDbLine
 10
3665.904397928899
 20
6617.785451739975
 30
0.0
 11
4891.904397928899
 21
6617.785451739975
 31
0.0
  0
INSERT
  5
181C9
330
1782C
100
AcDbEntity
  8
寸法
 62
     0
 48
50.0
370
    -2
100
AcDbBlockReference
  2
_DOT
 10
3645.904397928899
 20
6617.785451739975
 30
0.0
 41
20.0
 42
20.0
 43
20.0
 50
180.0
  0
INSERT
  5
181CA
330
1782C
100
AcDbEntity
  8
寸法
 62
     0
 48
50.0
370
    -2
100
AcDbBlockReference
  2
_DOT
 10
4911.904397928899
 20
6617.785451739975
 30
0.0
 41
20.0
 42
20.0
 43
20.0
  0
MTEXT
  5
181CB
330
1782C
100
AcDbEntity
  8
寸法
 62
     7
 48
50.0
100
AcDbMText
 10
4297.999357966793
 20
6809.797262763597
 30
0.0
 40
120.0
 41
0.0
 71
     5
 72
     1
  1
\A1;有効開口部間口\P1266
  7
STYLE1
 73
     1
 44
1.0
1001
ACAD
1000
MTEXTBEGIN
1070
    73
1070
     1
1070
    44
1040
1.0
1070
    74
1070
     0
1000
MTEXTEND
  0
POINT
  5
181CC
330
1782C
100
AcDbEntity
  8
DEFPOINTS
 62
     0
 48
50.0
100
AcDbPoint
 10
3645.904397928899
 20
7281.649909480108
 30
0.0
  0
POINT
  5
181CD
330
1782C
100
AcDbEntity
  8
DEFPOINTS
 62
     0
 48
50.0
100
AcDbPoint
 10
4911.904397928899
 20
7281.649909480108
 30
0.0
  0
POINT
  5
181CE
330
1782C
100
AcDbEntity
  8
DEFPOINTS
 62
     0
 48
50.0
100
AcDbPoint
 10
4911.904397928899
 20
6617.785451739975
 30
0.0
  0
ENDBLK
  5
17837
330
1782C
100
AcDbEntity
  8
0
 48
50.0
100
AcDbBlockEnd
  0
BLOCK
  5
1804D
330
18043
100
AcDbEntity
  8
0
 48
50.0
100
AcDbBlockBegin
  2
*D47
 70
     1
 10
0.0
 20
0.0
 30
0.0
  3
*D47
  1

  0
LINE
  5
181A9
330
18043
100
AcDbEntity
  8
寸法
 62
     0
 48
50.0
370
    -2
100
AcDbLine
 10
5788.904397928899
 20
7393.649909480108
 30
0.0
 11
5788.904397928899
 21
6040.60132992579
 31
0.0
  0
LINE
  5
181AA
330
18043
100
AcDbEntity
  8
寸法
 62
     0
 48
50.0
370
    -2
100
AcDbLine
 10
7998.904397928898
 20
7338.64990948011
 30
0.0
 11
7998.904397928898
 21
6040.60132992579
 31
0.0
  0
LINE
  5
181AB
330
18043
100
AcDbEntity
  8
寸法
 62
     0
 48
50.0
370
    -2
100
AcDbLine
 10
5808.904397928898
 20
6080.601329925791
 30
0.0
 11
7978.904397928897
 21
6080.601329925791
 31
0.0
  0
INSERT
  5
181AC
330
18043
100
AcDbEntity
  8
寸法
 62
     0
 48
50.0
370
    -2
100
AcDbBlockReference
  2
_DOT
 10
5788.904397928899
 20
6080.601329925791
 30
0.0
 41
20.0
 42
20.0
 43
20.0
 50
180.0
  0
INSERT
  5
181AD
330
18043
100
AcDbEntity
  8
寸法
 62
     0
 48
50.0
370
    -2
100
AcDbBlockReference
  2
_DOT
 10
7998.904397928898
 20
6080.601329925791
 30
0.0
 41
20.0
 42
20.0
 43
20.0
  0
MTEXT
  5
181AE
330
18043
100
AcDbEntity
  8
寸法
 62
     7
 48
50.0
100
AcDbMText
 10
6893.904397928898
 20
6172.613140949412
 30
0.0
 40
120.0
 41
0.0
 71
     5
 72
     1
  1
\A1;2210
  7
STYLE1
 73
     1
 44
1.0
1001
ACAD
1000
MTEXTBEGIN
1070
    73
1070
     1
1070
    44
1040
1.0
1070
    74
1070
     0
1000
MTEXTEND
  0
POINT
  5
181AF
330
18043
100
AcDbEntity
  8
DEFPOINTS
 62
     0
 48
50.0
100
AcDbPoint
 10
5788.904397928899
 20
7413.649909480108
 30
0.0
  0
POINT
  5
181B0
330
18043
100
AcDbEntity
  8
DEFPOINTS
 62
     0
 48
50.0
100
AcDbPoint
 10
7998.904397928898
 20
7358.649909480111
 30
0.0
  0
POINT
  5
181B1
330
18043
100
AcDbEntity
  8
DEFPOINTS
 62
     0
 48
50.0
100
AcDbPoint
 10
7998.904397928898
 20
6080.601329925791
 30
0.0
  0
ENDBLK
  5
1804E
330
18043
100
AcDbEntity
  8
0
 48
50.0
100
AcDbBlockEnd
  0
BLOCK
  5
18067
330
1805D
100
AcDbEntity
  8
0
 48
50.0
100
AcDbBlockBegin
  2
*D48
 70
     1
 10
0.0
 20
0.0
 30
0.0
  3
*D48
  1

  0
LINE
  5
181A0
330
1805D
100
AcDbEntity
  8
寸法
 62
     0
 48
50.0
370
    -2
100
AcDbLine
 10
3578.904397928898
 20
7338.64990948011
 30
0.0
 11
3578.904397928898
 21
6040.60132992579
 31
0.0
  0
LINE
  5
181A1
330
1805D
100
AcDbEntity
  8
寸法
 62
     0
 48
50.0
370
    -2
100
AcDbLine
 10
5788.904397928899
 20
7393.64990948011
 30
0.0
 11
5788.904397928899
 21
6040.60132992579
 31
0.0
  0
LINE
  5
181A2
330
1805D
100
AcDbEntity
  8
寸法
 62
     0
 48
50.0
370
    -2
100
AcDbLine
 10
3598.904397928898
 20
6080.601329925791
 30
0.0
 11
5768.904397928898
 21
6080.601329925791
 31
0.0
  0
INSERT
  5
181A3
330
1805D
100
AcDbEntity
  8
寸法
 62
     0
 48
50.0
370
    -2
100
AcDbBlockReference
  2
_DOT
 10
3578.904397928898
 20
6080.601329925791
 30
0.0
 41
20.0
 42
20.0
 43
20.0
 50
180.0
  0
INSERT
  5
181A4
330
1805D
100
AcDbEntity
  8
寸法
 62
     0
 48
50.0
370
    -2
100
AcDbBlockReference
  2
_DOT
 10
5788.904397928899
 20
6080.601329925791
 30
0.0
 41
20.0
 42
20.0
 43
20.0
  0
MTEXT
  5
181A5
330
1805D
100
AcDbEntity
  8
寸法
 62
     7
 48
50.0
100
AcDbMText
 10
4673.548125189918
 20
6172.613140949412
 30
0.0
 40
120.0
 41
0.0
 71
     5
 72
     1
  1
\A1;2210
  7
STYLE1
 73
     1
 44
1.0
1001
ACAD
1000
MTEXTBEGIN
1070
    73
1070
     1
1070
    44
1040
1.0
1070
    74
1070
     0
1000
MTEXTEND
  0
POINT
  5
181A6
330
1805D
100
AcDbEntity
  8
DEFPOINTS
 62
     0
 48
50.0
100
AcDbPoint
 10
3578.904397928898
 20
7358.649909480111
 30
0.0
  0
POINT
  5
181A7
330
1805D
100
AcDbEntity
  8
DEFPOINTS
 62
     0
 48
50.0
100
AcDbPoint
 10
5788.904397928899
 20
7413.649909480111
 30
0.0
  0
POINT
  5
181A8
330
1805D
100
AcDbEntity
  8
DEFPOINTS
 62
     0
 48
50.0
100
AcDbPoint
 10
5788.904397928899
 20
6080.601329925791
 30
0.0
  0
ENDBLK
  5
18068
330
1805D
100
AcDbEntity
  8
0
 48
50.0
100
AcDbBlockEnd
  0
BLOCK
  5
180CF
330
180C3
100
AcDbEntity
  8
0
 48
50.0
100
AcDbBlockBegin
  2
*D49
 70
     1
 10
0.0
 20
0.0
 30
0.0
  3
*D49
  1

  0
LINE
  5
181BB
330
180C3
100
AcDbEntity
  8
寸法
 62
     0
 48
50.0
370
    -2
100
AcDbLine
 10
3558.904397928898
 20
7358.649909480111
 30
0.0
 11
3280.153023599285
 21
7358.649909480111
 31
0.0
  0
LINE
  5
181BC
330
180C3
100
AcDbEntity
  8
寸法
 62
     0
 48
50.0
370
    -2
100
AcDbLine
 10
3586.904397928899
 20
7283.649909480079
 30
0.0
 11
3280.153023599285
 21
7283.649909480079
 31
0.0
  0
LINE
  5
181BD
330
180C3
100
AcDbEntity
  8
寸法
 62
     0
 48
50.0
370
    -2
100
AcDbLine
 10
3320.153023599285
 20
7378.649909480111
 30
0.0
 11
3320.153023599285
 21
7398.649909480112
 31
0.0
  0
LINE
  5
181BE
330
180C3
100
AcDbEntity
  8
寸法
 62
     0
 48
50.0
370
    -2
100
AcDbLine
 10
3320.153023599285
 20
7263.649909480078
 30
0.0
 11
3320.153023599284
 21
7025.913397697651
 31
0.0
  0
LINE
  5
181BF
330
180C3
100
AcDbEntity
  8
寸法
 62
     0
 48
50.0
370
    -2
100
AcDbLine
 10
3320.153023599285
 20
7358.649909480111
 30
0.0
 11
3320.153023599285
 21
7283.649909480079
 31
0.0
  0
INSERT
  5
181C0
330
180C3
100
AcDbEntity
  8
寸法
 62
     0
 48
50.0
370
    -2
100
AcDbBlockReference
  2
_DOT
 10
3320.153023599285
 20
7358.649909480111
 30
0.0
 41
20.0
 42
20.0
 43
20.0
 50
270.0
  0
INSERT
  5
181C1
330
180C3
100
AcDbEntity
  8
寸法
 62
     0
 48
50.0
370
    -2
100
AcDbBlockReference
  2
_DOT
 10
3320.153023599285
 20
7283.649909480079
 30
0.0
 41
20.0
 42
20.0
 43
20.0
 50
90.0
  0
MTEXT
  5
181C2
330
180C3
100
AcDbEntity
  8
寸法
 62
     7
 48
50.0
100
AcDbMText
 10
3228.153023599283
 20
7126.398679071892
 30
0.0
 40
120.0
 41
0.0
 71
     5
 72
     1
  1
\A1;75
  7
STYLE1
 11
0.0000000000000001
 21
1.0
 31
0.0
 73
     1
 44
1.0
1001
ACAD
1000
MTEXTBEGIN
1070
    73
1070
     1
1070
    44
1040
1.0
1070
    74
1070
     0
1000
MTEXTEND
  0
POINT
  5
181C3
330
180C3
100
AcDbEntity
  8
DEFPOINTS
 62
     0
 48
50.0
100
AcDbPoint
 10
3578.904397928898
 20
7358.649909480111
 30
0.0
  0
POINT
  5
181C4
330
180C3
100
AcDbEntity
  8
DEFPOINTS
 62
     0
 48
50.0
100
AcDbPoint
 10
3606.904397928899
 20
7283.649909480079
 30
0.0
  0
POINT
  5
181C5
330
180C3
100
AcDbEntity
  8
DEFPOINTS
 62
     0
 48
50.0
100
AcDbPoint
 10
3320.153023599285
 20
7283.649909480079
 30
0.0
  0
ENDBLK
  5
180D0
330
180C3
100
AcDbEntity
  8
0
 48
50.0
100
AcDbBlockEnd
  0
BLOCK
  5
180DB
330
180D1
100
AcDbEntity
  8
0
 48
50.0
100
AcDbBlockBegin
  2
*D50
 70
     1
 10
0.0
 20
0.0
 30
0.0
  3
*D50
  1

  0
LINE
  5
181B2
330
180D1
100
AcDbEntity
  8
寸法
 62
     0
 48
50.0
370
    -2
100
AcDbLine
 10
3606.904397928899
 20
7261.64990948011
 30
0.0
 11
3606.904397928899
 21
6278.90687653242
 31
0.0
  0
LINE
  5
181B3
330
180D1
100
AcDbEntity
  8
寸法
 62
     0
 48
50.0
370
    -2
100
AcDbLine
 10
5760.904397928899
 20
7261.64990948011
 30
0.0
 11
5760.904397928899
 21
6278.90687653242
 31
0.0
  0
LINE
  5
181B4
330
180D1
100
AcDbEntity
  8
寸法
 62
     0
 48
50.0
370
    -2
100
AcDbLine
 10
3606.904397928899
 20
6338.906876532419
 30
0.0
 11
5760.904397928899
 21
6338.906876532419
 31
0.0
  0
INSERT
  5
181B5
330
180D1
100
AcDbEntity
  8
寸法
 62
     0
 48
50.0
370
    -2
100
AcDbBlockReference
  2
_DOTSMALL
 10
3606.904397928899
 20
6338.906876532419
 30
0.0
 41
100.0
 42
100.0
 43
100.0
 50
180.0
  0
INSERT
  5
181B6
330
180D1
100
AcDbEntity
  8
寸法
 62
     0
 48
50.0
370
    -2
100
AcDbBlockReference
  2
_DOTSMALL
 10
5760.904397928899
 20
6338.906876532419
 30
0.0
 41
100.0
 42
100.0
 43
100.0
  0
MTEXT
  5
181B7
330
180D1
100
AcDbEntity
  8
寸法
 62
     7
 48
50.0
100
AcDbMText
 10
4689.961971101395
 20
6438.918687556041
 30
0.0
 40
120.0
 41
0.0
 71
     5
 72
     1
  1
\A1;2154
  7
STYLE1
 73
     1
 44
1.0
1001
ACAD
1000
MTEXTBEGIN
1070
    73
1070
     1
1070
    44
1040
1.0
1070
    74
1070
     0
1000
MTEXTEND
  0
POINT
  5
181B8
330
180D1
100
AcDbEntity
  8
DEFPOINTS
 62
     0
 48
50.0
100
AcDbPoint
 10
3606.904397928899
 20
7281.649909480108
 30
0.0
  0
POINT
  5
181B9
330
180D1
100
AcDbEntity
  8
DEFPOINTS
 62
     0
 48
50.0
100
AcDbPoint
 10
5760.904397928899
 20
7281.649909480108
 30
0.0
  0
POINT
  5
181BA
330
180D1
100
AcDbEntity
  8
DEFPOINTS
 62
     0
 48
50.0
100
AcDbPoint
 10
5760.904397928899
 20
6338.906876532419
 30
0.0
  0
ENDBLK
  5
180DC
330
180D1
100
AcDbEntity
  8
0
 48
50.0
100
AcDbBlockEnd
  0
BLOCK
  5
18257
330
18254
100
AcDbEntity
  8
0
 48
50.0
100
AcDbBlockBegin
  2
A$C7FCF7319
 70
     0
 10
0.0
 20
0.0
 30
0.0
  3
A$C7FCF7319
  1

  0
TEXT
  5
18255
330
18254
100
AcDbEntity
  8
文字
 62
     7
 48
50.0
100
AcDbText
 10
92.91819016568116
 20
-145.1926033665058
 30
0.0
 40
100.0
  1
梁中補強パネル
  7
STYLE1
100
AcDbText
  0
TEXT
  5
18256
330
18254
100
AcDbEntity
  8
文字
 62
     7
 48
50.0
100
AcDbText
 10
1532.439654745158
 20
-145.1926033665095
 30
0.0
 40
100.0
  1
F12         0.7,1.2
  7
STYLE1
100
AcDbText
  0
ENDBLK
  5
18258
330
18254
100
AcDbEntity
  8
0
 48
50.0
100
AcDbBlockEnd
  0
BLOCK
  5
1828B
330
18281
100
AcDbEntity
  8
0
 48
50.0
100
AcDbBlockBegin
  2
*D52
 70
     1
 10
0.0
 20
0.0
 30
0.0
  3
*D52
  1

  0
LINE
  5
1828D
330
18281
100
AcDbEntity
  8
寸法
 62
     0
 48
50.0
370
    -2
100
AcDbLine
 10
5833.904400172058
 20
8852.149909480077
 30
0.0
 11
6185.745760432895
 21
8852.149909480077
 31
0.0
  0
LINE
  5
1828E
330
18281
100
AcDbEntity
  8
寸法
 62
     0
 48
50.0
370
    -2
100
AcDbLine
 10
5863.904400172292
 20
9568.649913057253
 30
0.0
 11
6185.745760432895
 21
9568.649913057253
 31
0.0
  0
LINE
  5
1828F
330
18281
100
AcDbEntity
  8
寸法
 62
     0
 48
50.0
370
    -2
100
AcDbLine
 10
6125.745760432895
 20
8852.149909480077
 30
0.0
 11
6125.745760432895
 21
9568.649913057253
 31
0.0
  0
INSERT
  5
18290
330
18281
100
AcDbEntity
  8
寸法
 62
     0
 48
50.0
370
    -2
100
AcDbBlockReference
  2
_DOTSMALL
 10
6125.745760432895
 20
8852.149909480077
 30
0.0
 41
100.0
 42
100.0
 43
100.0
 50
270.0
  0
INSERT
  5
18291
330
18281
100
AcDbEntity
  8
寸法
 62
     0
 48
50.0
370
    -2
100
AcDbBlockReference
  2
_DOTSMALL
 10
6125.745760432895
 20
9568.649913057253
 30
0.0
 41
100.0
 42
100.0
 43
100.0
 50
90.0
  0
MTEXT
  5
18292
330
18281
100
AcDbEntity
  8
寸法
 62
     7
 48
50.0
100
AcDbMText
 10
6025.745760432894
 20
9185.888768693518
 30
0.0
 40
120.0
 41
0.0
 71
     5
 72
     1
  1
\A1;716.5
  7
STYLE1
 11
0.0000000000000001
 21
1.0
 31
0.0
 73
     1
 44
1.0
1001
ACAD
1000
MTEXTBEGIN
1070
    73
1070
     1
1070
    44
1040
1.0
1070
    74
1070
     0
1000
MTEXTEND
  0
POINT
  5
18293
330
18281
100
AcDbEntity
  8
DEFPOINTS
 62
     0
 48
50.0
100
AcDbPoint
 10
5813.904400172058
 20
8852.149909480077
 30
0.0
  0
POINT
  5
18294
330
18281
100
AcDbEntity
  8
DEFPOINTS
 62
     0
 48
50.0
100
AcDbPoint
 10
5843.904400172292
 20
9568.649913057253
 30
0.0
  0
POINT
  5
18295
330
18281
100
AcDbEntity
  8
DEFPOINTS
 62
     0
 48
50.0
100
AcDbPoint
 10
6125.745760432895
 20
9568.649913057253
 30
0.0
  0
ENDBLK
  5
1828C
330
18281
100
AcDbEntity
  8
0
 48
50.0
100
AcDbBlockEnd
  0
ENDSEC
  0
SECTION
  2
ENTITIES
  0
MTEXT
  5
763F
330
747D
100
AcDbEntity
  8
0
100
AcDbMText
 10
302.846345836809
 20
280.1983726409901
 30
0.0
 40
3.5
 41
5.323721266742722
 71
     1
 72
     5
  1

  7
MSMINCHO
 73
     1
 44
1.0
1001
ACAD
1000
MTEXTBEGIN
1070
    73
1070
     1
1070
    44
1040
1.0
1070
    74
1070
     0
1000
MTEXTEND
  0
INSERT
  5
F235
330
747D
100
AcDbEntity
  8
0
100
AcDbBlockReference
  2
作図枠S50
 10
0.0
 20
0.0
 30
0.0
 41
0.8
 42
0.8
 43
0.8
  0
LINE
  5
10B56
330
747D
100
AcDbEntity
  8
補助
  6
PHANTOM
 62
   230
 48
50.0
100
AcDbLine
 10
140.0
 20
0.0
 30
0.0
 11
139.9999999999995
 21
11409.6
 31
0.0
  0
LINE
  5
10B57
330
747D
100
AcDbEntity
  8
補助
  6
PHANTOM
 62
   230
 48
50.0
100
AcDbLine
 10
139.9999999999995
 20
11409.6
 30
0.0
 11
16307.2
 21
11409.6
 31
0.0
  0
LINE
  5
10B59
330
747D
100
AcDbEntity
  8
仕様書枠
  6
Continuous
 48
50.0
100
AcDbLine
 10
13107.2
 20
1200.0
 30
0.0
 11
13107.2
 21
-0.0000000000000729
 31
0.0
  0
LINE
  5
10B5C
330
747D
100
AcDbEntity
  8
仕様書枠
 48
50.0
100
AcDbLine
 10
16307.2
 20
1200.0
 30
0.0
 11
16307.2
 21
-0.0000000000000909
 31
0.0
  0
LINE
  5
10B5D
330
747D
100
AcDbEntity
  8
仕様書枠
 48
50.0
100
AcDbLine
 10
140.0
 20
0.0
 30
0.0
 11
16307.2
 21
-0.0000000000000909
 31
0.0
  0
LINE
  5
10B5E
330
747D
100
AcDbEntity
  8
補助
  6
PHANTOM
 62
   230
 48
50.0
100
AcDbLine
 10
16307.2
 20
11409.6
 30
0.0
 11
16307.2
 21
1200.0
 31
0.0
  0
LINE
  5
10B6C
330
747D
100
AcDbEntity
  8
仕様書枠
 48
50.0
100
AcDbLine
 10
13107.2
 20
1200.0
 30
0.0
 11
16307.2
 21
1200.0
 31
0.0
  0
LINE
  5
10B6D
330
747D
100
AcDbEntity
  8
補助
  6
PHANTOM
 62
   230
 48
50.0
100
AcDbLine
 10
13107.2
 20
11409.6
 30
0.0
 11
13107.2
 21
4800.0
 31
0.0
  0
LINE
  5
10B6F
330
747D
100
AcDbEntity
  8
補助
  6
PHANTOM
 62
   230
 48
50.0
100
AcDbLine
 10
13107.2
 20
4800.0
 30
0.0
 11
16307.2
 21
4800.0
 31
0.0
  0
LINE
  5
10B72
330
747D
100
AcDbEntity
  8
文字
 62
     7
 48
50.0
100
AcDbLine
 10
13187.2
 20
400.0
 30
0.0
 11
16227.2
 21
400.0
 31
0.0
  0
TEXT
  5
10B73
330
747D
100
AcDbEntity
  8
文字
 62
     7
 48
50.0
100
AcDbText
 10
13162.9790565769
 20
895.0906074299405
 30
0.0
 40
200.0
  1
外 形 図
  7
STYLE2
100
AcDbText
  0
TEXT
  5
10B74
330
747D
100
AcDbEntity
  8
文字
 62
     7
 48
50.0
100
AcDbText
 10
13201.43669998441
 20
477.2740661031255
 30
0.0
 40
160.0
  1
機種名
  7
STYLE2
100
AcDbText
  0
TEXT
  5
10B76
330
747D
100
AcDbEntity
  8
文字
 62
     7
 48
50.0
100
AcDbText
 10
13209.4053442172
 20
76.09434707649343
 30
0.0
 40
100.0
  1
○床面積 ： 9.93㎡(3.01坪) 　
  7
STYLE2
100
AcDbText
  0
TEXT
  5
10B79
330
747D
100
AcDbEntity
  8
文字
 62
     7
 48
50.0
100
AcDbText
 10
14524.131837222
 20
1031.557706291228
 30
0.0
 40
100.0
  1
NO.10     <縮尺> S=1/40
  7
STYLE2
100
AcDbText
  0
LINE
  5
10B7B
330
747D
100
AcDbEntity
  8
仕様書枠
 48
50.0
100
AcDbLine
 10
13107.2
 20
800.0
 30
0.0
 11
14251.2
 21
800.0
 31
0.0
  0
LINE
  5
10B88
330
747D
100
AcDbEntity
  8
仕様書枠
  6
Continuous
 48
50.0
100
AcDbLine
 10
14251.2
 20
1200.0
 30
0.0
 11
14251.2
 21
800.0
 31
0.0
  0
TEXT
  5
10EA8
330
747D
100
AcDbEntity
  8
文字
 62
     7
 48
50.0
100
AcDbText
 10
14598.52153016864
 20
838.2527270729188
 30
0.0
 40
100.0
  1
～多雪地型～
  7
STYLE2
100
AcDbText
  0
LINE
  5
120DB
330
747D
100
AcDbEntity
  8
Ｇ．Ｌ
 48
50.0
100
AcDbLine
 10
2315.037010702756
 20
2188.112805903256
 30
0.0
 11
15606.26680742205
 21
2188.112805903256
 31
0.0
  0
LINE
  5
1486A
330
747D
100
AcDbEntity
  8
部品1
 48
50.0
100
AcDbLine
 10
3633.904397928898
 20
7386.649909480107
 30
0.0
 11
5733.904397928898
 21
7386.649909480111
 31
0.0
  0
LINE
  5
1486B
330
747D
100
AcDbEntity
  8
部品1
100
AcDbLine
 10
5760.904400172469
 20
9540.649913057281
 30
0.0
 11
5788.904400172469
 21
9540.649913057281
 31
0.0
  0
LINE
  5
1486C
330
747D
100
AcDbEntity
  8
部品1
100
AcDbLine
 10
5816.904400172468
 20
9540.649913057281
 30
0.0
 11
5816.904400172468
 21
9568.649913057276
 31
0.0
  0
LINE
  5
1486D
330
747D
100
AcDbEntity
  8
部品1
100
AcDbLine
 10
5760.904400172469
 20
9540.649913057281
 30
0.0
 11
5760.904400172469
 21
9568.649913057283
 31
0.0
  0
LINE
  5
1486E
330
747D
100
AcDbEntity
  8
部品1
 48
50.0
100
AcDbLine
 10
5788.904400172469
 20
9540.649913057281
 30
0.0
 11
5760.904400172469
 21
9568.649913057281
 31
0.0
  0
LINE
  5
148B0
330
747D
100
AcDbEntity
  8
部品1
100
AcDbLine
 10
7970.904397928897
 20
9513.649909480115
 30
0.0
 11
7998.904397928898
 21
9513.649909480115
 31
0.0
  0
LINE
  5
148B1
330
747D
100
AcDbEntity
  8
部品1
100
AcDbLine
 10
7943.904397928898
 20
9568.649909480113
 30
0.0
 11
7943.904397928898
 21
9540.64990948011
 31
0.0
  0
LINE
  5
148B2
330
747D
100
AcDbEntity
  8
部品1
 48
50.0
100
AcDbLine
 10
7970.904397928897
 20
9540.64990948011
 30
0.0
 11
7943.904397928898
 21
9513.649909480115
 31
0.0
  0
LINE
  5
148B3
330
747D
100
AcDbEntity
  8
部品1
100
AcDbLine
 10
7523.904397928898
 20
9568.649909480113
 30
0.0
 11
7523.904397928898
 21
9540.64990948011
 31
0.0
  0
LINE
  5
148B4
330
747D
100
AcDbEntity
  8
部品1
100
AcDbLine
 10
7103.904397928897
 20
9568.649909480113
 30
0.0
 11
7103.904397928897
 21
9540.64990948011
 31
0.0
  0
LINE
  5
148B5
330
747D
100
AcDbEntity
  8
部品1
100
AcDbLine
 10
7103.904397928897
 20
9540.64990948011
 30
0.0
 11
7970.904397928897
 21
9540.64990948011
 31
0.0
  0
LINE
  5
148B6
330
747D
100
AcDbEntity
  8
破線
  6
HIDDEN
 48
10.0
100
AcDbLine
 10
7920.404397928898
 20
9490.149909480116
 30
0.0
 11
7264.404397928922
 21
9490.149909480114
 31
0.0
  0
LINE
  5
148B7
330
747D
100
AcDbEntity
  8
部品1
100
AcDbLine
 10
6683.904397928898
 20
9568.649909480113
 30
0.0
 11
6683.904397928898
 21
9540.64990948011
 31
0.0
  0
LINE
  5
148B8
330
747D
100
AcDbEntity
  8
部品1
100
AcDbLine
 10
6906.404397928898
 20
9540.649909480114
 30
0.0
 11
7301.404397928898
 21
9540.64990948011
 31
0.0
  0
LINE
  5
148B9
330
747D
100
AcDbEntity
  8
部品1
100
AcDbLine
 10
6263.904397928898
 20
9568.649909480113
 30
0.0
 11
6263.904397928898
 21
9540.64990948011
 31
0.0
  0
LINE
  5
148BA
330
747D
100
AcDbEntity
  8
部品1
100
AcDbLine
 10
5843.904397928898
 20
9568.649909480113
 30
0.0
 11
5843.904397928898
 21
9540.64990948011
 31
0.0
  0
LINE
  5
148BB
330
747D
100
AcDbEntity
  8
部品1
100
AcDbLine
 10
5843.904397928898
 20
9568.649909480113
 30
0.0
 11
5843.904397928898
 21
9540.64990948011
 31
0.0
  0
LINE
  5
148BC
330
747D
100
AcDbEntity
  8
部品1
100
AcDbLine
 10
5760.904397928898
 20
9513.649909480115
 30
0.0
 11
5788.904397928899
 21
9513.649909480115
 31
0.0
  0
LINE
  5
148BD
330
747D
100
AcDbEntity
  8
部品1
100
AcDbLine
 10
5733.904397928898
 20
9568.649909480113
 30
0.0
 11
5733.904397928898
 21
9540.64990948011
 31
0.0
  0
LINE
  5
148BE
330
747D
100
AcDbEntity
  8
部品1
100
AcDbLine
 10
5816.904397928897
 20
9513.649909480115
 30
0.0
 11
5788.904397928899
 21
9513.649909480115
 31
0.0
  0
LINE
  5
148BF
330
747D
100
AcDbEntity
  8
部品1
 48
50.0
100
AcDbLine
 10
5760.904397928898
 20
9540.649909480114
 30
0.0
 11
5733.904397928898
 21
9513.649909480118
 31
0.0
  0
LINE
  5
148C0
330
747D
100
AcDbEntity
  8
部品1
 48
50.0
100
AcDbLine
 10
5816.904397928897
 20
9540.649909480114
 30
0.0
 11
5843.904397928898
 21
9513.649909480113
 31
0.0
  0
DIMENSION
  5
148C1
330
747D
100
AcDbEntity
  8
寸法
 48
50.0
100
AcDbDimension
  2
*D3
 10
5843.904397928898
 20
9943.362319498909
 30
0.0
 11
5788.904397928899
 21
9943.362319498909
 31
0.0
 70
   160
 71
     5
 42
110.0
  3
INABA_S40
100
AcDbAlignedDimension
 13
5733.904397928898
 23
9568.649909480113
 33
0.0
 14
5843.904397928898
 24
9568.649909480113
 34
0.0
100
AcDbRotatedDimension
1001
ACAD
1000
DSTYLE
1002
{
1070
    41
1040
0.5
1070
    44
1040
1.0
1070
   147
1040
0.8
1070
   271
1070
     2
1070
   272
1070
     2
1070
   289
1070
     3
1070
   340
1005
F706
1070
   343
1005
F744
1070
   344
1005
F744
1002
}
  0
LINE
  5
148C2
330
747D
100
AcDbEntity
  8
部品1
100
AcDbLine
 10
5733.904397928898
 20
9568.649909480113
 30
0.0
 11
5733.904397928898
 21
9540.64990948011
 31
0.0
  0
LINE
  5
148C3
330
747D
100
AcDbEntity
  8
部品1
100
AcDbLine
 10
5313.904397928898
 20
9568.649909480113
 30
0.0
 11
5313.904397928898
 21
9540.64990948011
 31
0.0
  0
LINE
  5
148C4
330
747D
100
AcDbEntity
  8
部品1
100
AcDbLine
 10
5760.904397928898
 20
9540.649909480114
 30
0.0
 11
5313.904397928898
 21
9540.649909480114
 31
0.0
  0
LINE
  5
148C5
330
747D
100
AcDbEntity
  8
破線
  6
HIDDEN
 48
10.0
100
AcDbLine
 10
4363.404397928912
 20
9490.149909480114
 30
0.0
 11
5004.404397928911
 21
9490.149909480116
 31
0.0
  0
LINE
  5
148C6
330
747D
100
AcDbEntity
  8
部品1
100
AcDbLine
 10
4893.904397928898
 20
9568.649909480113
 30
0.0
 11
4893.904397928898
 21
9540.64990948011
 31
0.0
  0
LINE
  5
148C7
330
747D
100
AcDbEntity
  8
部品1
100
AcDbLine
 10
4473.904397928897
 20
9568.649909480113
 30
0.0
 11
4473.904397928897
 21
9540.64990948011
 31
0.0
  0
LINE
  5
148C8
330
747D
100
AcDbEntity
  8
部品1
100
AcDbLine
 10
4053.904397928898
 20
9568.649909480113
 30
0.0
 11
4053.904397928898
 21
9540.64990948011
 31
0.0
  0
LINE
  5
148C9
330
747D
100
AcDbEntity
  8
部品1
100
AcDbLine
 10
5313.904397928898
 20
9540.649909480114
 30
0.0
 11
4053.904397928898
 21
9540.649909480114
 31
0.0
  0
LINE
  5
148CA
330
747D
100
AcDbEntity
  8
部品1
100
AcDbLine
 10
5788.904397928899
 20
9568.649909480111
 30
0.0
 11
7998.904397928898
 21
9568.649909480111
 31
0.0
  0
DIMENSION
  5
148CB
330
747D
100
AcDbEntity
  8
寸法
 48
50.0
100
AcDbDimension
  2
*D4
 10
7943.904397928898
 20
9943.362319498909
 30
0.0
 11
6893.904397928898
 21
10035.37413052253
 31
0.0
 70
    32
  1
5X420=<>
 71
     5
 42
2100.0
  3
INABA_S40
100
AcDbAlignedDimension
 13
5843.904397928898
 23
9568.649909480113
 33
0.0
 14
7943.904397928898
 24
9568.649909480113
 34
0.0
100
AcDbRotatedDimension
1001
ACAD
1000
DSTYLE
1002
{
1070
    41
1040
0.5
1070
    44
1040
1.0
1070
   147
1040
0.8
1070
   271
1070
     2
1070
   272
1070
     2
1070
   289
1070
     3
1070
   340
1005
F706
1070
   343
1005
F744
1070
   344
1005
F744
1002
}
  0
LINE
  5
148CC
330
747D
100
AcDbEntity
  8
部品1
100
AcDbLine
 10
5816.904397928897
 20
9540.649909480114
 30
0.0
 11
7103.904397928897
 21
9540.649909480114
 31
0.0
  0
LINE
  5
148CD
330
747D
100
AcDbEntity
  8
部品1
100
AcDbLine
 10
7943.904397928898
 20
9513.649909480115
 30
0.0
 11
5843.904397928898
 21
9513.649909480113
 31
0.0
  0
LINE
  5
148CE
330
747D
100
AcDbEntity
  8
破線
  6
HIDDEN
 48
10.0
100
AcDbLine
 10
6523.40439792891
 20
9490.149909480113
 30
0.0
 11
5867.404397928901
 21
9490.149909480113
 31
0.0
  0
LINE
  5
148CF
330
747D
100
AcDbEntity
  8
部品1
100
AcDbLine
 10
7970.904397928897
 20
8673.649909480115
 30
0.0
 11
7998.904397928898
 21
8673.649909480115
 31
0.0
  0
LINE
  5
148D0
330
747D
100
AcDbEntity
  8
部品1
100
AcDbLine
 10
7970.904397928897
 20
8253.649909480115
 30
0.0
 11
7998.904397928898
 21
8253.649909480115
 31
0.0
  0
LINE
  5
148D1
330
747D
100
AcDbEntity
  8
部品1
100
AcDbLine
 10
7970.904397928897
 20
7833.649909480115
 30
0.0
 11
7998.904397928898
 21
7833.649909480115
 31
0.0
  0
LINE
  5
148D2
330
747D
100
AcDbEntity
  8
部品1
100
AcDbLine
 10
7970.904397928897
 20
7413.649909480108
 30
0.0
 11
7998.904397928898
 21
7413.649909480108
 31
0.0
  0
LINE
  5
148D3
330
747D
100
AcDbEntity
  8
部品1
100
AcDbLine
 10
7943.904397928898
 20
7358.64990948011
 30
0.0
 11
7943.904397928898
 21
7386.649909480111
 31
0.0
  0
LINE
  5
148D4
330
747D
100
AcDbEntity
  8
部品1
 48
50.0
100
AcDbLine
 10
7970.904397928897
 20
7386.649909480111
 30
0.0
 11
7943.904397928898
 21
7413.649909480111
 31
0.0
  0
LINE
  5
148D5
330
747D
100
AcDbEntity
  8
部品1
100
AcDbLine
 10
7523.904397928898
 20
7358.64990948011
 30
0.0
 11
7523.904397928898
 21
7386.649909480111
 31
0.0
  0
LINE
  5
148D6
330
747D
100
AcDbEntity
  8
部品1
100
AcDbLine
 10
7103.904397928897
 20
7358.64990948011
 30
0.0
 11
7103.904397928897
 21
7386.649909480111
 31
0.0
  0
LINE
  5
148D8
330
747D
100
AcDbEntity
  8
部品1
100
AcDbLine
 10
6683.904397928898
 20
7358.64990948011
 30
0.0
 11
6683.904397928898
 21
7386.649909480111
 31
0.0
  0
LINE
  5
148D9
330
747D
100
AcDbEntity
  8
部品1
100
AcDbLine
 10
7970.904397928897
 20
9513.649909480115
 30
0.0
 11
7970.904397928897
 21
7386.649909480111
 31
0.0
  0
LINE
  5
148DA
330
747D
100
AcDbEntity
  8
部品1
100
AcDbLine
 10
6263.904397928898
 20
7358.64990948011
 30
0.0
 11
6263.904397928898
 21
7386.649909480111
 31
0.0
  0
LINE
  5
148DB
330
747D
100
AcDbEntity
  8
部品1
100
AcDbLine
 10
5760.904397928898
 20
7413.649909480108
 30
0.0
 11
5788.904397928899
 21
7413.649909480108
 31
0.0
  0
LINE
  5
148DC
330
747D
100
AcDbEntity
  8
部品1
100
AcDbLine
 10
5816.904397928897
 20
7413.649909480108
 30
0.0
 11
5788.904397928899
 21
7413.649909480108
 31
0.0
  0
LINE
  5
148DD
330
747D
100
AcDbEntity
  8
部品1
100
AcDbLine
 10
5843.904397928898
 20
7358.64990948011
 30
0.0
 11
5843.904397928898
 21
7386.649909480111
 31
0.0
  0
LINE
  5
148DE
330
747D
100
AcDbEntity
  8
部品1
100
AcDbLine
 10
5733.904397928898
 20
7358.64990948011
 30
0.0
 11
5733.904397928898
 21
7386.649909480111
 31
0.0
  0
LINE
  5
148DF
330
747D
100
AcDbEntity
  8
部品1
100
AcDbLine
 10
5843.904397928898
 20
7358.649909480113
 30
0.0
 11
5788.904397928899
 21
7358.649909480111
 31
0.0
  0
LINE
  5
148E0
330
747D
100
AcDbEntity
  8
部品1
 48
50.0
100
AcDbLine
 10
5760.904397928898
 20
7386.649909480112
 30
0.0
 11
5733.904397928898
 21
7413.649909480108
 31
0.0
  0
LINE
  5
148E1
330
747D
100
AcDbEntity
  8
部品1
 48
50.0
100
AcDbLine
 10
5816.904397928897
 20
7386.649909480111
 30
0.0
 11
5843.904397928898
 21
7413.649909480111
 31
0.0
  0
LINE
  5
148E2
330
747D
100
AcDbEntity
  8
部品1
100
AcDbLine
 10
5733.904397928898
 20
7358.64990948011
 30
0.0
 11
5733.904397928898
 21
7386.649909480111
 31
0.0
  0
LINE
  5
148E3
330
747D
100
AcDbEntity
  8
部品1
100
AcDbLine
 10
5733.904397928898
 20
7358.64990948011
 30
0.0
 11
5733.904397928898
 21
7386.649909480111
 31
0.0
  0
LINE
  5
148E4
330
747D
100
AcDbEntity
  8
部品1
100
AcDbLine
 10
5733.904397928898
 20
7358.649909480111
 30
0.0
 11
5788.904397928899
 21
7358.649909480111
 31
0.0
  0
LINE
  5
148E7
330
747D
100
AcDbEntity
  8
部品1
100
AcDbLine
 10
7970.904397928897
 20
7386.649909480111
 30
0.0
 11
5816.904397928897
 21
7386.649909480112
 31
0.0
  0
LINE
  5
148E8
330
747D
100
AcDbEntity
  8
部品1
100
AcDbLine
 10
7943.904397928898
 20
7413.649909480111
 30
0.0
 11
5843.904397928898
 21
7413.649909480112
 31
0.0
  0
LINE
  5
148E9
330
747D
100
AcDbEntity
  8
部品1
100
AcDbLine
 10
7998.904397928898
 20
7358.649909480111
 30
0.0
 11
5843.904397928898
 21
7358.649909480111
 31
0.0
  0
LINE
  5
148EA
330
747D
100
AcDbEntity
  8
部品1
100
AcDbLine
 10
5843.904397928898
 20
8673.649909480113
 30
0.0
 11
7943.904397928898
 21
8673.649909480113
 31
0.0
  0
LINE
  5
148EB
330
747D
100
AcDbEntity
  8
部品1
100
AcDbLine
 10
5843.904397928898
 20
8253.649909480113
 30
0.0
 11
7943.904397928898
 21
8253.649909480113
 31
0.0
  0
LINE
  5
148EC
330
747D
100
AcDbEntity
  8
部品1
100
AcDbLine
 10
5843.904397928898
 20
7833.649909480112
 30
0.0
 11
7943.904397928898
 21
7833.649909480112
 31
0.0
  0
LINE
  5
148EE
330
747D
100
AcDbEntity
  8
部品1
100
AcDbLine
 10
7970.904397928897
 20
9540.64990948011
 30
0.0
 11
7970.904397928897
 21
9311.649909480113
 31
0.0
  0
LINE
  5
148EF
330
747D
100
AcDbEntity
  8
部品1
100
AcDbLine
 10
7998.904397928898
 20
9568.649909480111
 30
0.0
 11
7998.904397928898
 21
7358.649909480111
 31
0.0
  0
LINE
  5
148F0
330
747D
100
AcDbEntity
  8
破線
  6
HIDDEN
 48
10.0
100
AcDbLine
 10
7920.404397928898
 20
9490.149909480118
 30
0.0
 11
7920.404397928898
 21
7437.149909480109
 31
0.0
  0
LINE
  5
148F1
330
747D
100
AcDbEntity
  8
部品1
100
AcDbLine
 10
5760.904397928898
 20
7386.649909480112
 30
0.0
 11
5760.904397928898
 21
9540.649909480114
 31
0.0
  0
LINE
  5
148F2
330
747D
100
AcDbEntity
  8
部品1
100
AcDbLine
 10
5733.904397928898
 20
7413.649909480108
 30
0.0
 11
5733.904397928895
 21
9513.649909480117
 31
0.0
  0
LINE
  5
148F3
330
747D
100
AcDbEntity
  8
破線
  6
HIDDEN
 48
10.0
100
AcDbLine
 10
5710.404397928898
 20
7437.149909480108
 30
0.0
 11
5710.404397928894
 21
9490.149909480116
 31
0.0
  0
LINE
  5
148F4
330
747D
100
AcDbEntity
  8
部品1
100
AcDbLine
 10
5816.904397928897
 20
7386.649909480111
 30
0.0
 11
5816.904397928897
 21
9540.649909480114
 31
0.0
  0
LINE
  5
148F5
330
747D
100
AcDbEntity
  8
破線
  6
HIDDEN
 48
10.0
100
AcDbLine
 10
5867.404397928898
 20
7437.149909480111
 30
0.0
 11
5867.404397928897
 21
9490.149909480111
 31
0.0
  0
LINE
  5
148F6
330
747D
100
AcDbEntity
  8
部品1
100
AcDbLine
 10
5843.904397928898
 20
7413.649909480111
 30
0.0
 11
5843.904397928898
 21
9513.649909480111
 31
0.0
  0
LINE
  5
148F7
330
747D
100
AcDbEntity
  8
部品1
100
AcDbLine
 10
7943.904397928898
 20
9513.649909480115
 30
0.0
 11
7943.904397928898
 21
7413.649909480111
 31
0.0
  0
LINE
  5
148F8
330
747D
100
AcDbEntity
  8
部品1
100
AcDbLine
 10
3606.904397928899
 20
9513.649909480115
 30
0.0
 11
3578.904397928898
 21
9513.649909480115
 31
0.0
  0
LINE
  5
148F9
330
747D
100
AcDbEntity
  8
部品1
100
AcDbLine
 10
3633.904397928898
 20
9568.649909480113
 30
0.0
 11
3633.904397928898
 21
9540.64990948011
 31
0.0
  0
LINE
  5
148FA
330
747D
100
AcDbEntity
  8
部品1
 48
50.0
100
AcDbLine
 10
3606.904397928899
 20
9540.649909480114
 30
0.0
 11
3633.904397928894
 21
9513.649909480113
 31
0.0
  0
DIMENSION
  5
148FB
330
747D
100
AcDbEntity
  8
寸法
 48
50.0
100
AcDbDimension
  2
*D5
 10
3633.904397928898
 20
9943.362319498909
 30
0.0
 11
3184.737731262234
 21
9943.362319498909
 31
0.0
 70
   160
 71
     5
 42
55.0
  3
INABA_S40
100
AcDbAlignedDimension
 13
3578.904397928898
 23
9568.649909480111
 33
0.0
 14
3633.904397928898
 24
9568.649909480113
 34
0.0
100
AcDbRotatedDimension
1001
ACAD
1000
DSTYLE
1002
{
1070
    41
1040
0.5
1070
    44
1040
1.0
1070
   147
1040
0.8
1070
   271
1070
     2
1070
   272
1070
     2
1070
   289
1070
     3
1070
   340
1005
F706
1070
   343
1005
F744
1070
   344
1005
F744
1002
}
  0
LINE
  5
148FC
330
747D
100
AcDbEntity
  8
破線
  6
HIDDEN
 48
10.0
100
AcDbLine
 10
3657.404397928895
 20
9490.149909480114
 30
0.0
 11
4313.404397928907
 21
9490.149909480109
 31
0.0
  0
LINE
  5
148FD
330
747D
100
AcDbEntity
  8
部品1
100
AcDbLine
 10
3606.904397928899
 20
8673.649909480115
 30
0.0
 11
3578.904397928898
 21
8673.649909480115
 31
0.0
  0
LINE
  5
148FE
330
747D
100
AcDbEntity
  8
部品1
100
AcDbLine
 10
3606.904397928899
 20
8253.649909480115
 30
0.0
 11
3578.904397928898
 21
8253.649909480115
 31
0.0
  0
LINE
  5
148FF
330
747D
100
AcDbEntity
  8
部品1
100
AcDbLine
 10
3606.904397928899
 20
7833.649909480115
 30
0.0
 11
3578.904397928898
 21
7833.649909480115
 31
0.0
  0
LINE
  5
14900
330
747D
100
AcDbEntity
  8
部品1
100
AcDbLine
 10
3633.904397928898
 20
7358.64990948011
 30
0.0
 11
3633.904397928898
 21
7386.649909480111
 31
0.0
  0
LINE
  5
14901
330
747D
100
AcDbEntity
  8
部品1
100
AcDbLine
 10
3633.904397928898
 20
7358.649909480117
 30
0.0
 11
3633.904397928898
 21
7386.649909480119
 31
0.0
  0
LINE
  5
14902
330
747D
100
AcDbEntity
  8
部品1
100
AcDbLine
 10
3606.904397928899
 20
7413.649909480108
 30
0.0
 11
3578.904397928898
 21
7413.649909480108
 31
0.0
  0
LINE
  5
14903
330
747D
100
AcDbEntity
  8
部品1
100
AcDbLine
 10
3633.904397928898
 20
7358.64990948011
 30
0.0
 11
3633.904397928898
 21
7386.649909480111
 31
0.0
  0
LINE
  5
14904
330
747D
100
AcDbEntity
  8
部品1
 48
50.0
100
AcDbLine
 10
3606.904397928899
 20
7386.649909480111
 30
0.0
 11
3633.904397928894
 21
7413.649909480112
 31
0.0
  0
LINE
  5
14905
330
747D
100
AcDbEntity
  8
部品1
100
AcDbLine
 10
3578.904397928898
 20
7358.649909480111
 30
0.0
 11
3633.904397928898
 21
7358.64990948011
 31
0.0
  0
LINE
  5
14907
330
747D
100
AcDbEntity
  8
部品1
100
AcDbLine
 10
3606.904397928899
 20
9513.649909480115
 30
0.0
 11
3606.904397928899
 21
7386.649909480111
 31
0.0
  0
LINE
  5
14908
330
747D
100
AcDbEntity
  8
部品1
100
AcDbLine
 10
3606.904397928899
 20
9540.649909480114
 30
0.0
 11
3606.904397928899
 21
9311.649909480113
 31
0.0
  0
LINE
  5
14909
330
747D
100
AcDbEntity
  8
部品1
100
AcDbLine
 10
3578.904397928898
 20
9568.649909480111
 30
0.0
 11
3578.904397928898
 21
7358.649909480111
 31
0.0
  0
LINE
  5
1490A
330
747D
100
AcDbEntity
  8
破線
  6
HIDDEN
 48
10.0
100
AcDbLine
 10
3657.404397928905
 20
9490.149909480113
 30
0.0
 11
3657.404397928895
 21
7437.149909480111
 31
0.0
  0
LINE
  5
1490B
330
747D
100
AcDbEntity
  8
部品1
100
AcDbLine
 10
3633.904397928905
 20
9513.649909480111
 30
0.0
 11
3633.904397928894
 21
7413.649909480112
 31
0.0
  0
DIMENSION
  5
1490D
330
747D
100
AcDbEntity
  8
寸法
 48
50.0
100
AcDbDimension
  2
*D6
 10
5733.904397928898
 20
9943.362319498909
 30
0.0
 11
4683.904397928897
 21
10035.37413052253
 31
0.0
 70
    32
  1
5X420=<>
 71
     5
 42
2100.0
  3
INABA_S40
100
AcDbAlignedDimension
 13
3633.904397928898
 23
9568.649909480113
 33
0.0
 14
5733.904397928898
 24
9568.649909480113
 34
0.0
100
AcDbRotatedDimension
1001
ACAD
1000
DSTYLE
1002
{
1070
    41
1040
0.5
1070
    44
1040
1.0
1070
   147
1040
0.8
1070
   271
1070
     2
1070
   272
1070
     2
1070
   289
1070
     3
1070
   340
1005
F706
1070
   343
1005
F744
1070
   344
1005
F744
1002
}
  0
DIMENSION
  5
1490E
330
747D
100
AcDbEntity
  8
寸法
 48
50.0
100
AcDbDimension
  2
*D7
 10
7998.904397928898
 20
10243.36231949891
 30
0.0
 11
5788.904397928899
 21
10335.37413052253
 31
0.0
 70
    32
 71
     5
 42
4420.0
  3
INABA_S40
100
AcDbAlignedDimension
 13
3578.904397928898
 23
9568.649909480111
 33
0.0
 14
7998.904397928898
 24
9568.649909480111
 34
0.0
100
AcDbRotatedDimension
1001
ACAD
1000
DSTYLE
1002
{
1070
    41
1040
0.5
1070
    44
1040
1.0
1070
   147
1040
0.8
1070
   271
1070
     2
1070
   272
1070
     2
1070
   289
1070
     3
1070
   340
1005
F706
1070
   343
1005
F744
1070
   344
1005
F744
1002
}
  0
LINE
  5
1490F
330
747D
100
AcDbEntity
  8
部品1
100
AcDbLine
 10
3606.904397928899
 20
7386.649909480111
 30
0.0
 11
5760.904397928898
 21
7386.649909480112
 31
0.0
  0
LINE
  5
14910
330
747D
100
AcDbEntity
  8
部品1
100
AcDbLine
 10
3633.904397928894
 20
7413.649909480112
 30
0.0
 11
5733.904397928898
 21
7413.649909480108
 31
0.0
  0
LINE
  5
14911
330
747D
100
AcDbEntity
  8
部品1
100
AcDbLine
 10
5788.904397928899
 20
9568.649909480111
 30
0.0
 11
3578.904397928898
 21
9568.649909480111
 31
0.0
  0
LINE
  5
14912
330
747D
100
AcDbEntity
  8
部品1
100
AcDbLine
 10
5733.904397928896
 20
8673.649909480113
 30
0.0
 11
3633.904397928898
 21
8673.64990948011
 31
0.0
  0
LINE
  5
14913
330
747D
100
AcDbEntity
  8
部品1
100
AcDbLine
 10
5733.904397928896
 20
8253.649909480113
 30
0.0
 11
3633.904397928898
 21
8253.64990948011
 31
0.0
  0
LINE
  5
14914
330
747D
100
AcDbEntity
  8
部品1
100
AcDbLine
 10
5733.904397928896
 20
7833.649909480112
 30
0.0
 11
3633.904397928898
 21
7833.64990948011
 31
0.0
  0
LINE
  5
14915
330
747D
100
AcDbEntity
  8
部品1
100
AcDbLine
 10
4053.904397928898
 20
9540.649909480119
 30
0.0
 11
3606.904397928899
 21
9540.649909480114
 31
0.0
  0
LINE
  5
14916
330
747D
100
AcDbEntity
  8
部品1
100
AcDbLine
 10
3633.904397928894
 20
9513.649909480113
 30
0.0
 11
5733.904397928898
 21
9513.649909480118
 31
0.0
  0
DIMENSION
  5
14949
330
747D
100
AcDbEntity
  8
寸法
 48
50.0
100
AcDbDimension
  2
*D8
 10
8769.651514973253
 20
9513.649909480115
 30
0.0
 11
8769.651514973253
 21
9962.816576146778
 31
0.0
 70
   160
 71
     5
 42
54.99999999999636
  3
INABA_S40
100
AcDbAlignedDimension
 13
7998.904397928898
 23
9568.649909480111
 33
0.0
 14
7998.904397928898
 24
9513.649909480115
 34
0.0
 50
90.0
100
AcDbRotatedDimension
1001
ACAD
1000
DSTYLE
1002
{
1070
    41
1040
0.5
1070
    44
1040
1.0
1070
   147
1040
0.8
1070
   271
1070
     2
1070
   272
1070
     2
1070
   289
1070
     3
1070
   340
1005
F706
1070
   343
1005
F744
1070
   344
1005
F744
1002
}
  0
DIMENSION
  5
1494A
330
747D
100
AcDbEntity
  8
寸法
 48
50.0
100
AcDbDimension
  2
*D9
 10
8769.651514973253
 20
7413.649909480108
 30
0.0
 11
8677.639703949628
 21
8463.649909480112
 31
0.0
 70
    32
  1
5X420=<>
 71
     5
 42
2100.000000000008
  3
INABA_S40
100
AcDbAlignedDimension
 13
7998.904397928898
 23
9513.649909480115
 33
0.0
 14
7998.904397928898
 24
7413.649909480108
 34
0.0
 50
90.0
100
AcDbRotatedDimension
1001
ACAD
1000
DSTYLE
1002
{
1070
    41
1040
0.5
1070
    44
1040
1.0
1070
   147
1040
0.8
1070
   271
1070
     2
1070
   272
1070
     2
1070
   289
1070
     3
1070
   340
1005
F706
1070
   343
1005
F744
1070
   344
1005
F744
1002
}
  0
DIMENSION
  5
1494B
330
747D
100
AcDbEntity
  8
寸法
 48
50.0
100
AcDbDimension
  2
*D10
 10
8769.651514973253
 20
7358.649909480111
 30
0.0
 11
8769.651514973253
 21
6964.483242813445
 31
0.0
 70
   160
 71
     5
 42
54.99999999999636
  3
INABA_S40
100
AcDbAlignedDimension
 13
7998.904397928898
 23
7413.649909480108
 33
0.0
 14
7998.904397928898
 24
7358.649909480111
 34
0.0
 50
90.0
100
AcDbRotatedDimension
1001
ACAD
1000
DSTYLE
1002
{
1070
    41
1040
0.5
1070
    44
1040
1.0
1070
   147
1040
0.8
1070
   271
1070
     2
1070
   272
1070
     2
1070
   289
1070
     3
1070
   340
1005
F706
1070
   343
1005
F744
1070
   344
1005
F744
1002
}
  0
DIMENSION
  5
1494C
330
747D
100
AcDbEntity
  8
寸法
 48
50.0
100
AcDbDimension
  2
*D11
 10
9069.651514973251
 20
7358.649909480111
 30
0.0
 11
8977.639703949627
 21
8463.649909480112
 31
0.0
 70
    32
 71
     5
 42
2210.0
  3
INABA_S40
100
AcDbAlignedDimension
 13
7998.904397928898
 23
9568.649909480111
 33
0.0
 14
7998.904397928898
 24
7358.649909480111
 34
0.0
 50
90.0
100
AcDbRotatedDimension
1001
ACAD
1000
DSTYLE
1002
{
1070
    41
1040
0.5
1070
    44
1040
1.0
1070
   147
1040
0.8
1070
   271
1070
     2
1070
   272
1070
     2
1070
   289
1070
     3
1070
   340
1005
F706
1070
   343
1005
F744
1070
   344
1005
F744
1002
}
  0
DIMENSION
  5
1494D
330
747D
100
AcDbEntity
  8
寸法
 48
50.0
100
AcDbDimension
  2
*D12
 10
7998.904397928898
 20
9943.362319498909
 30
0.0
 11
8393.071064595565
 21
9943.362319498909
 31
0.0
 70
   160
 71
     5
 42
55.0
  3
INABA_S40
100
AcDbAlignedDimension
 13
7943.904397928898
 23
9568.649909480113
 33
0.0
 14
7998.904397928898
 24
9568.649909480111
 34
0.0
100
AcDbRotatedDimension
1001
ACAD
1000
DSTYLE
1002
{
1070
    41
1040
0.5
1070
    44
1040
1.0
1070
   147
1040
0.8
1070
   271
1070
     2
1070
   272
1070
     2
1070
   289
1070
     3
1070
   340
1005
F706
1070
   343
1005
F744
1070
   344
1005
F744
1002
}
  0
LINE
  5
14D52
330
747D
100
AcDbEntity
  8
部品1
100
AcDbLine
 10
5843.904397928898
 20
9093.649909480113
 30
0.0
 11
7943.904397928898
 21
9093.649909480113
 31
0.0
  0
LINE
  5
14D53
330
747D
100
AcDbEntity
  8
部品1
100
AcDbLine
 10
5733.904397928896
 20
9093.649909480113
 30
0.0
 11
3633.904397928898
 21
9093.649909480109
 31
0.0
  0
LINE
  5
14D54
330
747D
100
AcDbEntity
  8
部品1
100
AcDbLine
 10
3606.904397928899
 20
9093.649909480115
 30
0.0
 11
3578.904397928898
 21
9093.649909480115
 31
0.0
  0
LINE
  5
14D55
330
747D
100
AcDbEntity
  8
部品1
100
AcDbLine
 10
7970.904397928897
 20
9093.649909480115
 30
0.0
 11
7998.904397928898
 21
9093.649909480115
 31
0.0
  0
LINE
  5
1536F
330
747D
100
AcDbEntity
  8
部品1
100
AcDbLine
 10
5733.904397928898
 20
4428.112805903256
 30
0.0
 11
5733.904397928898
 21
4423.112805903256
 31
0.0
  0
LINE
  5
15370
330
747D
100
AcDbEntity
  8
部品1
100
AcDbLine
 10
3633.904397928902
 20
4428.112805903256
 30
0.0
 11
3633.904397928898
 21
4423.112805903256
 31
0.0
  0
LINE
  5
15371
330
747D
100
AcDbEntity
  8
部品1
 48
50.0
100
AcDbLine
 10
5760.904397928898
 20
4423.112805903256
 30
0.0
 11
3606.904397928899
 21
4423.112805903256
 31
0.0
  0
LINE
  5
15372
330
747D
100
AcDbEntity
  8
細線
 48
50.0
100
AcDbLine
 10
5760.904397928898
 20
4413.112805903256
 30
0.0
 11
3606.904397928899
 21
4413.112805903256
 31
0.0
  0
LINE
  5
15373
330
747D
100
AcDbEntity
  8
細線
 48
50.0
100
AcDbLine
 10
5730.904397928898
 20
4371.112805903256
 30
0.0
 11
3636.904397928898
 21
4371.112805903256
 31
0.0
  0
LINE
  5
15374
330
747D
100
AcDbEntity
  8
細線
 48
50.0
100
AcDbLine
 10
5730.904397928898
 20
4380.612805903257
 30
0.0
 11
3636.904397928898
 21
4380.612805903257
 31
0.0
  0
LINE
  5
15375
330
747D
100
AcDbEntity
  8
部品1
 48
50.0
100
AcDbLine
 10
3606.904397928899
 20
2288.112805903256
 30
0.0
 11
5760.904397928898
 21
2288.112805903256
 31
0.0
  0
LINE
  5
15376
330
747D
100
AcDbEntity
  8
細線
 48
50.0
100
AcDbLine
 10
3636.904397928898
 20
2331.112805903256
 30
0.0
 11
5730.904397928898
 21
2331.112805903256
 31
0.0
  0
LINE
  5
15377
330
747D
100
AcDbEntity
  8
細線
 48
50.0
100
AcDbLine
 10
3636.904397928898
 20
2335.112805903256
 30
0.0
 11
5730.904397928898
 21
2335.112805903256
 31
0.0
  0
LINE
  5
15378
330
747D
100
AcDbEntity
  8
細線
 48
50.0
100
AcDbLine
 10
4434.904397928898
 20
2345.612805903256
 30
0.0
 11
5704.904397928898
 21
2345.612805903256
 31
0.0
  0
LINE
  5
15379
330
747D
100
AcDbEntity
  8
部品1
 48
50.0
100
AcDbLine
 10
3636.904397928898
 20
2338.112805903256
 30
0.0
 11
3636.904397928898
 21
4371.112805903256
 31
0.0
  0
LINE
  5
1537A
330
747D
100
AcDbEntity
  8
細線
 48
50.0
100
AcDbLine
 10
3636.904397928898
 20
4380.612805903257
 30
0.0
 11
3636.904397928898
 21
2288.112805903256
 31
0.0
  0
LINE
  5
1537B
330
747D
100
AcDbEntity
  8
部品1
 48
50.0
100
AcDbLine
 10
3606.904397928899
 20
4423.112805903256
 30
0.0
 11
3606.904397928899
 21
2288.112805903256
 31
0.0
  0
LINE
  5
1537D
330
747D
100
AcDbEntity
  8
部品1
 48
50.0
100
AcDbLine
 10
4434.904397928898
 20
4371.112805903256
 30
0.0
 11
4434.904397928898
 21
2338.112805903256
 31
0.0
  0
LINE
  5
1537E
330
747D
100
AcDbEntity
  8
部品1
 48
50.0
100
AcDbLine
 10
3636.904397928898
 20
2338.112805903256
 30
0.0
 11
4434.904397928898
 21
2338.112805903256
 31
0.0
  0
LINE
  5
1537F
330
747D
100
AcDbEntity
  8
部品1
 48
50.0
100
AcDbLine
 10
3645.904397928898
 20
2338.112805903256
 30
0.0
 11
3645.904397928898
 21
2335.112805903256
 31
0.0
  0
LINE
  5
15380
330
747D
100
AcDbEntity
  8
部品1
 48
50.0
100
AcDbLine
 10
3636.904397928898
 20
4379.112805903257
 30
0.0
 11
3606.904397928899
 21
4379.112805903257
 31
0.0
  0
LINE
  5
15381
330
747D
100
AcDbEntity
  8
部品1
 48
50.0
100
AcDbLine
 10
5721.904397928899
 20
2335.112805903256
 30
0.0
 11
5721.904397928899
 21
4371.112805903256
 31
0.0
  0
LINE
  5
15382
330
747D
100
AcDbEntity
  8
細線
 48
50.0
100
AcDbLine
 10
5730.904397928898
 20
2288.112805903256
 30
0.0
 11
5730.904397928898
 21
4380.612805903257
 31
0.0
  0
LINE
  5
15383
330
747D
100
AcDbEntity
  8
部品1
 48
50.0
100
AcDbLine
 10
5760.904397928898
 20
2288.112805903256
 30
0.0
 11
5760.904397928898
 21
4423.112805903256
 31
0.0
  0
LINE
  5
15384
330
747D
100
AcDbEntity
  8
部品1
 48
50.0
100
AcDbLine
 10
5085.904397928898
 20
4371.112805903256
 30
0.0
 11
5085.904397928898
 21
2345.612805903256
 31
0.0
  0
LINE
  5
15385
330
747D
100
AcDbEntity
  8
細線
 48
50.0
100
AcDbLine
 10
5708.904397928898
 20
2335.112805903256
 30
0.0
 11
5704.904397928898
 21
2345.612805903256
 31
0.0
  0
LINE
  5
15386
330
747D
100
AcDbEntity
  8
部品1
 48
50.0
100
AcDbLine
 10
5760.904397928898
 20
4379.112805903257
 30
0.0
 11
5730.904397928898
 21
4379.112805903257
 31
0.0
  0
LINE
  5
15387
330
747D
100
AcDbEntity
  8
細線
100
AcDbLine
 10
5220.404397928898
 20
4371.112805903256
 30
0.0
 11
5220.404397928898
 21
2345.612805903275
 31
0.0
  0
LINE
  5
15388
330
747D
100
AcDbEntity
  8
細線
100
AcDbLine
 10
4494.904397928897
 20
4371.112805903256
 30
0.0
 11
4494.904397928897
 21
2345.612805903267
 31
0.0
  0
LINE
  5
15389
330
747D
100
AcDbEntity
  8
細線
100
AcDbLine
 10
4564.904397928898
 20
4371.112805903256
 30
0.0
 11
4564.904397928898
 21
2345.612805903267
 31
0.0
  0
LINE
  5
1538A
330
747D
100
AcDbEntity
  8
細線
100
AcDbLine
 10
3850.904397928898
 20
4371.112805903256
 30
0.0
 11
3850.904397928898
 21
2338.11280590326
 31
0.0
  0
LINE
  5
1538B
330
747D
100
AcDbEntity
  8
細線
100
AcDbLine
 10
3920.904397928899
 20
4371.112805903256
 30
0.0
 11
3920.904397928899
 21
2338.11280590326
 31
0.0
  0
LINE
  5
153A5
330
747D
100
AcDbEntity
  8
部品1
 48
50.0
100
AcDbLine
 10
3680.904397928898
 20
3419.612805903256
 30
0.0
 11
3733.904397928898
 21
3419.612805903256
 31
0.0
  0
LINE
  5
153A9
330
747D
100
AcDbEntity
  8
細線
100
AcDbLine
 10
5290.404397928899
 20
4371.112805903256
 30
0.0
 11
5290.404397928899
 21
2345.612805903275
 31
0.0
  0
LINE
  5
153AA
330
747D
100
AcDbEntity
  8
細線
100
AcDbLine
 10
5360.404397928898
 20
4371.112805903256
 30
0.0
 11
5360.404397928898
 21
2345.612805903275
 31
0.0
  0
LINE
  5
153AB
330
747D
100
AcDbEntity
  8
細線
100
AcDbLine
 10
5430.404397928898
 20
4371.112805903256
 30
0.0
 11
5430.404397928898
 21
2345.612805903275
 31
0.0
  0
LINE
  5
153AC
330
747D
100
AcDbEntity
  8
細線
100
AcDbLine
 10
5500.404397928898
 20
4371.112805903256
 30
0.0
 11
5500.404397928898
 21
2345.612805903275
 31
0.0
  0
LINE
  5
153AD
330
747D
100
AcDbEntity
  8
細線
100
AcDbLine
 10
5570.404397928898
 20
4371.112805903256
 30
0.0
 11
5570.404397928898
 21
2345.612805903275
 31
0.0
  0
LINE
  5
153AE
330
747D
100
AcDbEntity
  8
細線
100
AcDbLine
 10
4634.904397928898
 20
4371.112805903256
 30
0.0
 11
4634.904397928898
 21
2345.612805903267
 31
0.0
  0
LINE
  5
153AF
330
747D
100
AcDbEntity
  8
細線
100
AcDbLine
 10
4704.904397928898
 20
4371.112805903256
 30
0.0
 11
4704.904397928898
 21
2345.612805903267
 31
0.0
  0
LINE
  5
153B0
330
747D
100
AcDbEntity
  8
細線
100
AcDbLine
 10
4774.904397928898
 20
4371.112805903256
 30
0.0
 11
4774.904397928898
 21
2345.612805903267
 31
0.0
  0
LINE
  5
153B1
330
747D
100
AcDbEntity
  8
細線
100
AcDbLine
 10
4844.904397928898
 20
4371.112805903256
 30
0.0
 11
4844.904397928898
 21
2345.612805903267
 31
0.0
  0
LINE
  5
153B2
330
747D
100
AcDbEntity
  8
細線
100
AcDbLine
 10
4914.904397928898
 20
4371.112805903256
 30
0.0
 11
4914.904397928898
 21
2345.612805903267
 31
0.0
  0
LINE
  5
153B3
330
747D
100
AcDbEntity
  8
細線
100
AcDbLine
 10
4984.904397928898
 20
4371.112805903256
 30
0.0
 11
4984.904397928898
 21
2345.612805903267
 31
0.0
  0
LINE
  5
153B4
330
747D
100
AcDbEntity
  8
細線
100
AcDbLine
 10
3764.904397928898
 20
4371.112805903256
 30
0.0
 11
3764.904397928898
 21
2338.11280590326
 31
0.0
  0
LINE
  5
153B5
330
747D
100
AcDbEntity
  8
細線
100
AcDbLine
 10
3798.904397928898
 20
4371.112805903256
 30
0.0
 11
3798.904397928898
 21
2338.11280590326
 31
0.0
  0
LINE
  5
153B6
330
747D
100
AcDbEntity
  8
部品1
100
AcDbLine
 10
3756.904397928899
 20
4371.112805903256
 30
0.0
 11
3756.904397928899
 21
2338.11280590326
 31
0.0
  0
LINE
  5
153B7
330
747D
100
AcDbEntity
  8
部品1
100
AcDbLine
 10
3806.904397928899
 20
4371.112805903256
 30
0.0
 11
3806.904397928899
 21
2338.11280590326
 31
0.0
  0
LINE
  5
153B8
330
747D
100
AcDbEntity
  8
細線
100
AcDbLine
 10
3990.904397928898
 20
4371.112805903256
 30
0.0
 11
3990.904397928898
 21
2338.11280590326
 31
0.0
  0
LINE
  5
153B9
330
747D
100
AcDbEntity
  8
細線
100
AcDbLine
 10
4060.904397928898
 20
4371.112805903256
 30
0.0
 11
4060.904397928898
 21
2338.11280590326
 31
0.0
  0
LINE
  5
153BA
330
747D
100
AcDbEntity
  8
細線
100
AcDbLine
 10
4130.904397928897
 20
4371.112805903256
 30
0.0
 11
4130.904397928897
 21
2338.11280590326
 31
0.0
  0
LINE
  5
153BB
330
747D
100
AcDbEntity
  8
細線
100
AcDbLine
 10
4200.904397928898
 20
4371.112805903256
 30
0.0
 11
4200.904397928898
 21
2338.11280590326
 31
0.0
  0
LINE
  5
153BC
330
747D
100
AcDbEntity
  8
細線
100
AcDbLine
 10
4270.904397928898
 20
4371.112805903256
 30
0.0
 11
4270.904397928898
 21
2338.112805903264
 31
0.0
  0
LINE
  5
153BD
330
747D
100
AcDbEntity
  8
細線
100
AcDbLine
 10
4340.904397928897
 20
4371.112805903256
 30
0.0
 11
4340.904397928897
 21
2338.112805903264
 31
0.0
  0
LINE
  5
153BE
330
747D
100
AcDbEntity
  8
部品1
100
AcDbLine
 10
5085.904397928891
 20
4371.112805903256
 30
0.0
 11
5085.904397928898
 21
2345.612805903271
 31
0.0
  0
LINE
  5
153BF
330
747D
100
AcDbEntity
  8
部品1
 48
50.0
100
AcDbLine
 10
4434.904397928898
 20
4371.112805903256
 30
0.0
 11
4434.904397928898
 21
2338.112805903256
 31
0.0
  0
LINE
  5
153C0
330
747D
100
AcDbEntity
  8
細線
100
AcDbLine
 10
6278.904397928891
 20
4487.612805903256
 30
0.0
 11
6278.904397928891
 21
4464.612805903256
 31
0.0
  0
LINE
  5
153C1
330
747D
100
AcDbEntity
  8
細線
100
AcDbLine
 10
6352.904397928891
 20
4475.612805903256
 30
0.0
 11
6278.904397928891
 21
4475.612805903256
 31
0.0
  0
LINE
  5
153C2
330
747D
100
AcDbEntity
  8
細線
100
AcDbLine
 10
6352.904397928891
 20
4469.612805903252
 30
0.0
 11
6278.904397928891
 21
4469.612805903255
 31
0.0
  0
LINE
  5
153C3
330
747D
100
AcDbEntity
  8
細線
100
AcDbLine
 10
6352.904397928891
 20
4481.612805903252
 30
0.0
 11
6278.904397928891
 21
4481.612805903256
 31
0.0
  0
LINE
  5
153C4
330
747D
100
AcDbEntity
  8
細線
100
AcDbLine
 10
6204.904397928891
 20
4481.612805903256
 30
0.0
 11
6273.904397928891
 21
4481.612805903256
 31
0.0
  0
LINE
  5
153C5
330
747D
100
AcDbEntity
  8
細線
100
AcDbLine
 10
6204.904397928891
 20
4469.612805903255
 30
0.0
 11
6278.904397928891
 21
4469.612805903255
 31
0.0
  0
LINE
  5
153C6
330
747D
100
AcDbEntity
  8
細線
100
AcDbLine
 10
6204.904397928891
 20
4475.612805903256
 30
0.0
 11
6278.904397928891
 21
4475.612805903256
 31
0.0
  0
LINE
  5
153C7
330
747D
100
AcDbEntity
  8
細線
100
AcDbLine
 10
6204.904397928891
 20
4481.612805903256
 30
0.0
 11
6278.904397928891
 21
4481.612805903256
 31
0.0
  0
LINE
  5
153C8
330
747D
100
AcDbEntity
  8
部品1
 48
0.01
100
AcDbLine
 10
6366.904397928891
 20
4494.112805903256
 30
0.0
 11
6190.904397928891
 21
4494.112805903256
 31
0.0
  0
LINE
  5
153C9
330
747D
100
AcDbEntity
  8
部品1
 48
0.01
100
AcDbLine
 10
6188.90439792889
 20
4492.112805903256
 30
0.0
 11
6188.90439792889
 21
4460.612805903256
 31
0.0
  0
LINE
  5
153CA
330
747D
100
AcDbEntity
  8
部品1
 48
0.01
100
AcDbLine
 10
6190.904397928891
 20
4458.612805903256
 30
0.0
 11
6366.904397928891
 21
4458.612805903256
 31
0.0
  0
LINE
  5
153CB
330
747D
100
AcDbEntity
  8
部品1
 48
0.01
100
AcDbLine
 10
6368.904397928891
 20
4460.612805903256
 30
0.0
 11
6368.904397928891
 21
4492.112805903256
 31
0.0
  0
LINE
  5
153CC
330
747D
100
AcDbEntity
  8
細線
100
AcDbLine
 10
6204.904397928891
 20
4487.612805903256
 30
0.0
 11
6204.904397928891
 21
4464.612805903256
 31
0.0
  0
LINE
  5
153CD
330
747D
100
AcDbEntity
  8
細線
100
AcDbLine
 10
6352.904397928891
 20
4464.612805903256
 30
0.0
 11
6352.904397928891
 21
4487.612805903256
 31
0.0
  0
LINE
  5
153CE
330
747D
100
AcDbEntity
  8
細線
100
AcDbLine
 10
6352.904397928891
 20
4487.612805903256
 30
0.0
 11
6278.904397928891
 21
4487.612805903256
 31
0.0
  0
LINE
  5
153CF
330
747D
100
AcDbEntity
  8
細線
100
AcDbLine
 10
6204.904397928891
 20
4464.612805903256
 30
0.0
 11
6278.904397928891
 21
4464.612805903256
 31
0.0
  0
LINE
  5
153D0
330
747D
100
AcDbEntity
  8
細線
100
AcDbLine
 10
6278.904397928891
 20
4487.612805903256
 30
0.0
 11
6204.904397928891
 21
4487.612805903256
 31
0.0
  0
LINE
  5
153D1
330
747D
100
AcDbEntity
  8
細線
100
AcDbLine
 10
6278.904397928891
 20
4464.612805903256
 30
0.0
 11
6352.904397928891
 21
4464.612805903256
 31
0.0
  0
ARC
  5
153D2
330
747D
100
AcDbEntity
  8
部品1
 48
0.01
100
AcDbCircle
 10
6190.904397928891
 20
4492.112805903256
 30
0.0
 40
2.0
100
AcDbArc
 50
90.0
 51
180.0
  0
ARC
  5
153D3
330
747D
100
AcDbEntity
  8
部品1
 48
0.01
100
AcDbCircle
 10
6190.904397928891
 20
4460.612805903256
 30
0.0
 40
2.0
100
AcDbArc
 50
180.0
 51
270.0
  0
ARC
  5
153D4
330
747D
100
AcDbEntity
  8
部品1
 48
0.01
100
AcDbCircle
 10
6366.904397928891
 20
4492.112805903256
 30
0.0
 40
2.0
100
AcDbArc
 50
0.0
 51
90.0
  0
ARC
  5
153D5
330
747D
100
AcDbEntity
  8
部品1
 48
0.01
100
AcDbCircle
 10
6366.904397928891
 20
4460.612805903256
 30
0.0
 40
2.0
100
AcDbArc
 50
270.0
 51
0.0
  0
ARC
  5
153D6
330
747D
100
AcDbEntity
  8
部品1
 48
0.01
100
AcDbCircle
 10
7420.904397928909
 20
4460.612805903256
 30
0.0
 40
2.0
100
AcDbArc
 50
180.0
 51
270.0
  0
ARC
  5
153D7
330
747D
100
AcDbEntity
  8
部品1
 48
0.01
100
AcDbCircle
 10
7420.904397928909
 20
4492.112805903256
 30
0.0
 40
2.0
100
AcDbArc
 50
90.0
 51
180.0
  0
ARC
  5
153D8
330
747D
100
AcDbEntity
  8
部品1
 48
0.01
100
AcDbCircle
 10
7596.904397928909
 20
4460.612805903256
 30
0.0
 40
2.0
100
AcDbArc
 50
270.0
 51
0.0
  0
ARC
  5
153D9
330
747D
100
AcDbEntity
  8
部品1
 48
0.01
100
AcDbCircle
 10
7596.904397928909
 20
4492.112805903256
 30
0.0
 40
2.0
100
AcDbArc
 50
0.0
 51
90.0
  0
LINE
  5
153DA
330
747D
100
AcDbEntity
  8
細線
100
AcDbLine
 10
7508.904397928908
 20
4464.612805903256
 30
0.0
 11
7434.904397928909
 21
4464.612805903256
 31
0.0
  0
LINE
  5
153DB
330
747D
100
AcDbEntity
  8
細線
100
AcDbLine
 10
7508.904397928908
 20
4487.612805903256
 30
0.0
 11
7582.90439792891
 21
4487.612805903256
 31
0.0
  0
LINE
  5
153DC
330
747D
100
AcDbEntity
  8
細線
100
AcDbLine
 10
7582.90439792891
 20
4464.612805903256
 30
0.0
 11
7508.904397928908
 21
4464.612805903256
 31
0.0
  0
LINE
  5
153DD
330
747D
100
AcDbEntity
  8
細線
100
AcDbLine
 10
7434.904397928909
 20
4487.612805903256
 30
0.0
 11
7508.904397928908
 21
4487.612805903256
 31
0.0
  0
LINE
  5
153DE
330
747D
100
AcDbEntity
  8
細線
100
AcDbLine
 10
7434.904397928909
 20
4464.612805903256
 30
0.0
 11
7434.904397928909
 21
4487.612805903256
 31
0.0
  0
LINE
  5
153DF
330
747D
100
AcDbEntity
  8
細線
100
AcDbLine
 10
7582.90439792891
 20
4487.612805903256
 30
0.0
 11
7582.90439792891
 21
4464.612805903256
 31
0.0
  0
LINE
  5
153E0
330
747D
100
AcDbEntity
  8
部品1
 48
0.01
100
AcDbLine
 10
7418.904397928909
 20
4460.612805903256
 30
0.0
 11
7418.904397928909
 21
4492.112805903256
 31
0.0
  0
LINE
  5
153E1
330
747D
100
AcDbEntity
  8
部品1
 48
0.01
100
AcDbLine
 10
7596.904397928909
 20
4458.612805903256
 30
0.0
 11
7420.904397928909
 21
4458.612805903256
 31
0.0
  0
LINE
  5
153E2
330
747D
100
AcDbEntity
  8
部品1
 48
0.01
100
AcDbLine
 10
7598.904397928909
 20
4492.112805903256
 30
0.0
 11
7598.904397928909
 21
4460.612805903256
 31
0.0
  0
LINE
  5
153E3
330
747D
100
AcDbEntity
  8
部品1
 48
0.01
100
AcDbLine
 10
7420.904397928909
 20
4494.112805903256
 30
0.0
 11
7596.904397928909
 21
4494.112805903256
 31
0.0
  0
LINE
  5
153E4
330
747D
100
AcDbEntity
  8
細線
100
AcDbLine
 10
7582.90439792891
 20
4481.612805903256
 30
0.0
 11
7508.904397928908
 21
4481.612805903256
 31
0.0
  0
LINE
  5
153E5
330
747D
100
AcDbEntity
  8
細線
100
AcDbLine
 10
7582.90439792891
 20
4475.612805903256
 30
0.0
 11
7508.904397928908
 21
4475.612805903256
 31
0.0
  0
LINE
  5
153E6
330
747D
100
AcDbEntity
  8
細線
100
AcDbLine
 10
7582.90439792891
 20
4469.612805903255
 30
0.0
 11
7508.904397928908
 21
4469.612805903255
 31
0.0
  0
LINE
  5
153E7
330
747D
100
AcDbEntity
  8
細線
100
AcDbLine
 10
7582.90439792891
 20
4481.612805903256
 30
0.0
 11
7513.90439792891
 21
4481.612805903256
 31
0.0
  0
LINE
  5
153E8
330
747D
100
AcDbEntity
  8
細線
100
AcDbLine
 10
7434.904397928909
 20
4481.612805903256
 30
0.0
 11
7508.904397928908
 21
4481.612805903256
 31
0.0
  0
LINE
  5
153E9
330
747D
100
AcDbEntity
  8
細線
100
AcDbLine
 10
7434.904397928909
 20
4469.612805903255
 30
0.0
 11
7508.904397928908
 21
4469.612805903255
 31
0.0
  0
LINE
  5
153EA
330
747D
100
AcDbEntity
  8
細線
100
AcDbLine
 10
7434.904397928909
 20
4475.612805903256
 30
0.0
 11
7508.904397928908
 21
4475.612805903256
 31
0.0
  0
LINE
  5
153EB
330
747D
100
AcDbEntity
  8
細線
100
AcDbLine
 10
7508.904397928908
 20
4487.612805903256
 30
0.0
 11
7508.904397928908
 21
4464.612805903256
 31
0.0
  0
LINE
  5
15427
330
747D
100
AcDbEntity
  8
細線
 48
50.0
100
AcDbLine
 10
6186.404397928902
 20
4428.112805903256
 30
0.0
 11
6186.404397928906
 21
2338.112805903256
 31
0.0
  0
LINE
  5
15428
330
747D
100
AcDbEntity
  8
細線
 48
50.0
100
AcDbLine
 10
6201.404397928902
 20
4428.112805903256
 30
0.0
 11
6201.404397928905
 21
2338.112805903256
 31
0.0
  0
LINE
  5
15429
330
747D
100
AcDbEntity
  8
細線
 48
50.0
100
AcDbLine
 10
6061.404397928902
 20
4428.112805903256
 30
0.0
 11
6061.404397928906
 21
2338.112805903256
 31
0.0
  0
LINE
  5
1542A
330
747D
100
AcDbEntity
  8
細線
 48
50.0
100
AcDbLine
 10
6046.404397928902
 20
4428.112805903256
 30
0.0
 11
6046.404397928905
 21
2338.112805903256
 31
0.0
  0
LINE
  5
1542B
330
747D
100
AcDbEntity
  8
細線
 48
50.0
100
AcDbLine
 10
5906.404397928902
 20
4428.112805903256
 30
0.0
 11
5906.404397928906
 21
2338.112805903256
 31
0.0
  0
LINE
  5
1542C
330
747D
100
AcDbEntity
  8
細線
 48
50.0
100
AcDbLine
 10
5921.404397928902
 20
4428.112805903256
 30
0.0
 11
5921.404397928905
 21
2338.112805903256
 31
0.0
  0
LINE
  5
1542D
330
747D
100
AcDbEntity
  8
細線
 48
50.0
100
AcDbLine
 10
6341.404397928902
 20
4428.112805903256
 30
0.0
 11
6341.404397928905
 21
2338.112805903256
 31
0.0
  0
LINE
  5
1542E
330
747D
100
AcDbEntity
  8
細線
 48
50.0
100
AcDbLine
 10
6326.404397928902
 20
4428.112805903256
 30
0.0
 11
6326.404397928905
 21
2338.112805903256
 31
0.0
  0
LINE
  5
1542F
330
747D
100
AcDbEntity
  8
細線
 48
50.0
100
AcDbLine
 10
6466.404397928902
 20
4428.112805903256
 30
0.0
 11
6466.404397928906
 21
2338.112805903256
 31
0.0
  0
LINE
  5
15430
330
747D
100
AcDbEntity
  8
細線
 48
50.0
100
AcDbLine
 10
6481.404397928902
 20
4428.112805903256
 30
0.0
 11
6481.404397928905
 21
2338.112805903256
 31
0.0
  0
LINE
  5
15431
330
747D
100
AcDbEntity
  8
細線
 48
50.0
100
AcDbLine
 10
6621.404397928902
 20
4428.112805903256
 30
0.0
 11
6621.404397928905
 21
2338.112805903256
 31
0.0
  0
LINE
  5
15432
330
747D
100
AcDbEntity
  8
細線
 48
50.0
100
AcDbLine
 10
6606.404397928902
 20
4428.112805903256
 30
0.0
 11
6606.404397928905
 21
2338.112805903256
 31
0.0
  0
LINE
  5
15433
330
747D
100
AcDbEntity
  8
細線
 48
50.0
100
AcDbLine
 10
7026.404397928901
 20
4428.112805903256
 30
0.0
 11
7026.404397928906
 21
2338.112805903256
 31
0.0
  0
LINE
  5
15434
330
747D
100
AcDbEntity
  8
細線
 48
50.0
100
AcDbLine
 10
7041.404397928902
 20
4428.112805903256
 30
0.0
 11
7041.404397928906
 21
2338.112805903256
 31
0.0
  0
LINE
  5
15435
330
747D
100
AcDbEntity
  8
細線
 48
50.0
100
AcDbLine
 10
6901.404397928901
 20
4428.112805903256
 30
0.0
 11
6901.404397928906
 21
2338.112805903256
 31
0.0
  0
LINE
  5
15436
330
747D
100
AcDbEntity
  8
細線
 48
50.0
100
AcDbLine
 10
6886.404397928902
 20
4428.112805903256
 30
0.0
 11
6886.404397928905
 21
2338.112805903256
 31
0.0
  0
LINE
  5
15437
330
747D
100
AcDbEntity
  8
細線
 48
50.0
100
AcDbLine
 10
6746.404397928902
 20
4428.112805903256
 30
0.0
 11
6746.404397928905
 21
2338.112805903256
 31
0.0
  0
LINE
  5
15438
330
747D
100
AcDbEntity
  8
細線
 48
50.0
100
AcDbLine
 10
6761.404397928902
 20
4428.112805903256
 30
0.0
 11
6761.404397928905
 21
2338.112805903256
 31
0.0
  0
LINE
  5
15439
330
747D
100
AcDbEntity
  8
細線
 48
50.0
100
AcDbLine
 10
7446.404397928901
 20
4428.112805903256
 30
0.0
 11
7446.404397928906
 21
2338.112805903256
 31
0.0
  0
LINE
  5
1543A
330
747D
100
AcDbEntity
  8
細線
 48
50.0
100
AcDbLine
 10
7461.404397928902
 20
4428.112805903256
 30
0.0
 11
7461.404397928905
 21
2338.112805903256
 31
0.0
  0
LINE
  5
1543B
330
747D
100
AcDbEntity
  8
細線
 48
50.0
100
AcDbLine
 10
7321.404397928901
 20
4428.112805903256
 30
0.0
 11
7321.404397928906
 21
2338.112805903256
 31
0.0
  0
LINE
  5
1543C
330
747D
100
AcDbEntity
  8
細線
 48
50.0
100
AcDbLine
 10
7306.404397928902
 20
4428.112805903256
 30
0.0
 11
7306.404397928905
 21
2338.112805903256
 31
0.0
  0
LINE
  5
1543D
330
747D
100
AcDbEntity
  8
細線
 48
50.0
100
AcDbLine
 10
7166.404397928902
 20
4428.112805903256
 30
0.0
 11
7166.404397928906
 21
2338.112805903256
 31
0.0
  0
LINE
  5
1543E
330
747D
100
AcDbEntity
  8
細線
 48
50.0
100
AcDbLine
 10
7181.404397928902
 20
4428.112805903256
 30
0.0
 11
7181.404397928905
 21
2338.112805903256
 31
0.0
  0
LINE
  5
1543F
330
747D
100
AcDbEntity
  8
細線
 48
50.0
100
AcDbLine
 10
7601.404397928901
 20
4428.112805903256
 30
0.0
 11
7601.404397928906
 21
2338.112805903256
 31
0.0
  0
LINE
  5
15440
330
747D
100
AcDbEntity
  8
細線
 48
50.0
100
AcDbLine
 10
7586.404397928902
 20
4428.112805903256
 30
0.0
 11
7586.404397928905
 21
2338.112805903256
 31
0.0
  0
LINE
  5
15441
330
747D
100
AcDbEntity
  8
細線
 48
50.0
100
AcDbLine
 10
7726.404397928901
 20
4428.112805903256
 30
0.0
 11
7726.404397928906
 21
2338.112805903256
 31
0.0
  0
LINE
  5
15442
330
747D
100
AcDbEntity
  8
細線
 48
50.0
100
AcDbLine
 10
7741.404397928902
 20
4428.112805903256
 30
0.0
 11
7741.404397928906
 21
2338.112805903256
 31
0.0
  0
LINE
  5
15443
330
747D
100
AcDbEntity
  8
細線
 48
50.0
100
AcDbLine
 10
7881.404397928903
 20
4428.112805903256
 30
0.0
 11
7881.404397928905
 21
2338.112805903256
 31
0.0
  0
LINE
  5
15444
330
747D
100
AcDbEntity
  8
細線
 48
50.0
100
AcDbLine
 10
7866.404397928902
 20
4428.112805903256
 30
0.0
 11
7866.404397928906
 21
2338.112805903256
 31
0.0
  0
LINE
  5
15445
330
747D
100
AcDbEntity
  8
細線
100
AcDbLine
 10
5298.904397928909
 20
4487.612805903256
 30
0.0
 11
5298.904397928909
 21
4464.612805903256
 31
0.0
  0
LINE
  5
15446
330
747D
100
AcDbEntity
  8
細線
100
AcDbLine
 10
5224.904397928909
 20
4475.612805903256
 30
0.0
 11
5298.904397928909
 21
4475.612805903256
 31
0.0
  0
LINE
  5
15447
330
747D
100
AcDbEntity
  8
細線
100
AcDbLine
 10
5224.904397928909
 20
4469.612805903255
 30
0.0
 11
5298.904397928909
 21
4469.612805903255
 31
0.0
  0
LINE
  5
15448
330
747D
100
AcDbEntity
  8
細線
100
AcDbLine
 10
5224.904397928909
 20
4481.612805903256
 30
0.0
 11
5298.904397928909
 21
4481.612805903256
 31
0.0
  0
LINE
  5
15449
330
747D
100
AcDbEntity
  8
細線
100
AcDbLine
 10
5372.904397928909
 20
4481.612805903256
 30
0.0
 11
5303.904397928909
 21
4481.612805903256
 31
0.0
  0
LINE
  5
1544A
330
747D
100
AcDbEntity
  8
細線
100
AcDbLine
 10
5372.904397928909
 20
4469.612805903255
 30
0.0
 11
5298.904397928909
 21
4469.612805903255
 31
0.0
  0
LINE
  5
1544B
330
747D
100
AcDbEntity
  8
細線
100
AcDbLine
 10
5372.904397928909
 20
4475.612805903256
 30
0.0
 11
5298.904397928909
 21
4475.612805903256
 31
0.0
  0
LINE
  5
1544C
330
747D
100
AcDbEntity
  8
細線
100
AcDbLine
 10
5372.904397928909
 20
4481.612805903256
 30
0.0
 11
5298.904397928909
 21
4481.612805903256
 31
0.0
  0
LINE
  5
1544D
330
747D
100
AcDbEntity
  8
部品1
 48
0.01
100
AcDbLine
 10
5210.904397928909
 20
4494.112805903256
 30
0.0
 11
5386.904397928908
 21
4494.112805903256
 31
0.0
  0
LINE
  5
1544E
330
747D
100
AcDbEntity
  8
部品1
 48
0.01
100
AcDbLine
 10
5388.904397928909
 20
4492.112805903256
 30
0.0
 11
5388.904397928909
 21
4460.612805903256
 31
0.0
  0
LINE
  5
1544F
330
747D
100
AcDbEntity
  8
部品1
 48
0.01
100
AcDbLine
 10
5386.904397928908
 20
4458.612805903256
 30
0.0
 11
5210.904397928909
 21
4458.612805903256
 31
0.0
  0
LINE
  5
15450
330
747D
100
AcDbEntity
  8
部品1
 48
0.01
100
AcDbLine
 10
5208.904397928909
 20
4460.612805903256
 30
0.0
 11
5208.904397928909
 21
4492.112805903256
 31
0.0
  0
LINE
  5
15451
330
747D
100
AcDbEntity
  8
細線
100
AcDbLine
 10
5372.904397928909
 20
4487.612805903256
 30
0.0
 11
5372.904397928909
 21
4464.612805903256
 31
0.0
  0
LINE
  5
15452
330
747D
100
AcDbEntity
  8
細線
100
AcDbLine
 10
5224.904397928909
 20
4464.612805903256
 30
0.0
 11
5224.904397928909
 21
4487.612805903256
 31
0.0
  0
LINE
  5
15453
330
747D
100
AcDbEntity
  8
細線
100
AcDbLine
 10
5224.904397928909
 20
4487.612805903256
 30
0.0
 11
5298.904397928909
 21
4487.612805903256
 31
0.0
  0
LINE
  5
15454
330
747D
100
AcDbEntity
  8
細線
100
AcDbLine
 10
5372.904397928909
 20
4464.612805903256
 30
0.0
 11
5298.904397928909
 21
4464.612805903256
 31
0.0
  0
LINE
  5
15455
330
747D
100
AcDbEntity
  8
細線
100
AcDbLine
 10
5298.904397928909
 20
4487.612805903256
 30
0.0
 11
5372.904397928909
 21
4487.612805903256
 31
0.0
  0
LINE
  5
15456
330
747D
100
AcDbEntity
  8
細線
100
AcDbLine
 10
5298.904397928909
 20
4464.612805903256
 30
0.0
 11
5224.904397928909
 21
4464.612805903256
 31
0.0
  0
ARC
  5
15457
330
747D
100
AcDbEntity
  8
部品1
 48
0.01
100
AcDbCircle
 10
5386.904397928908
 20
4492.112805903256
 30
0.0
 40
2.0
100
AcDbArc
 50
0.0
 51
90.0
  0
ARC
  5
15458
330
747D
100
AcDbEntity
  8
部品1
 48
0.01
100
AcDbCircle
 10
5386.904397928908
 20
4460.612805903256
 30
0.0
 40
2.0
100
AcDbArc
 50
270.0
 51
0.0
  0
ARC
  5
15459
330
747D
100
AcDbEntity
  8
部品1
 48
0.01
100
AcDbCircle
 10
5210.904397928909
 20
4492.112805903256
 30
0.0
 40
2.0
100
AcDbArc
 50
90.0
 51
180.0
  0
ARC
  5
1545A
330
747D
100
AcDbEntity
  8
部品1
 48
0.01
100
AcDbCircle
 10
5210.904397928909
 20
4460.612805903256
 30
0.0
 40
2.0
100
AcDbArc
 50
180.0
 51
270.0
  0
ARC
  5
1545B
330
747D
100
AcDbEntity
  8
部品1
 48
0.01
100
AcDbCircle
 10
4156.90439792889
 20
4460.612805903256
 30
0.0
 40
2.0
100
AcDbArc
 50
270.0
 51
0.0
  0
ARC
  5
1545C
330
747D
100
AcDbEntity
  8
部品1
 48
0.01
100
AcDbCircle
 10
4156.90439792889
 20
4492.112805903256
 30
0.0
 40
2.0
100
AcDbArc
 50
0.0
 51
90.0
  0
ARC
  5
1545D
330
747D
100
AcDbEntity
  8
部品1
 48
0.01
100
AcDbCircle
 10
3980.904397928891
 20
4460.612805903256
 30
0.0
 40
2.0
100
AcDbArc
 50
180.0
 51
270.0
  0
ARC
  5
1545E
330
747D
100
AcDbEntity
  8
部品1
 48
0.01
100
AcDbCircle
 10
3980.904397928891
 20
4492.112805903256
 30
0.0
 40
2.0
100
AcDbArc
 50
90.0
 51
180.0
  0
LINE
  5
1545F
330
747D
100
AcDbEntity
  8
細線
100
AcDbLine
 10
4068.904397928891
 20
4464.612805903256
 30
0.0
 11
4142.90439792889
 21
4464.612805903256
 31
0.0
  0
LINE
  5
15460
330
747D
100
AcDbEntity
  8
細線
100
AcDbLine
 10
4068.904397928891
 20
4487.612805903256
 30
0.0
 11
3994.904397928891
 21
4487.612805903256
 31
0.0
  0
LINE
  5
15461
330
747D
100
AcDbEntity
  8
細線
100
AcDbLine
 10
3994.904397928891
 20
4464.612805903256
 30
0.0
 11
4068.904397928891
 21
4464.612805903256
 31
0.0
  0
LINE
  5
15462
330
747D
100
AcDbEntity
  8
細線
100
AcDbLine
 10
4142.90439792889
 20
4487.612805903256
 30
0.0
 11
4068.904397928891
 21
4487.612805903256
 31
0.0
  0
LINE
  5
15463
330
747D
100
AcDbEntity
  8
細線
100
AcDbLine
 10
4142.90439792889
 20
4464.612805903256
 30
0.0
 11
4142.90439792889
 21
4487.612805903256
 31
0.0
  0
LINE
  5
15464
330
747D
100
AcDbEntity
  8
細線
100
AcDbLine
 10
3994.904397928891
 20
4487.612805903256
 30
0.0
 11
3994.904397928891
 21
4464.612805903256
 31
0.0
  0
LINE
  5
15465
330
747D
100
AcDbEntity
  8
部品1
 48
0.01
100
AcDbLine
 10
4158.904397928891
 20
4460.612805903256
 30
0.0
 11
4158.904397928891
 21
4492.112805903256
 31
0.0
  0
LINE
  5
15466
330
747D
100
AcDbEntity
  8
部品1
 48
0.01
100
AcDbLine
 10
3980.904397928891
 20
4458.612805903256
 30
0.0
 11
4156.90439792889
 21
4458.612805903256
 31
0.0
  0
LINE
  5
15467
330
747D
100
AcDbEntity
  8
部品1
 48
0.01
100
AcDbLine
 10
3978.904397928891
 20
4492.112805903256
 30
0.0
 11
3978.904397928891
 21
4460.612805903256
 31
0.0
  0
LINE
  5
15468
330
747D
100
AcDbEntity
  8
部品1
 48
0.01
100
AcDbLine
 10
4156.90439792889
 20
4494.112805903256
 30
0.0
 11
3980.904397928891
 21
4494.112805903256
 31
0.0
  0
LINE
  5
15469
330
747D
100
AcDbEntity
  8
細線
100
AcDbLine
 10
3994.904397928891
 20
4481.612805903256
 30
0.0
 11
4068.904397928891
 21
4481.612805903256
 31
0.0
  0
LINE
  5
1546A
330
747D
100
AcDbEntity
  8
細線
100
AcDbLine
 10
3994.904397928891
 20
4475.612805903256
 30
0.0
 11
4068.904397928891
 21
4475.612805903256
 31
0.0
  0
LINE
  5
1546B
330
747D
100
AcDbEntity
  8
細線
100
AcDbLine
 10
3994.904397928891
 20
4469.612805903255
 30
0.0
 11
4068.904397928891
 21
4469.612805903255
 31
0.0
  0
LINE
  5
1546C
330
747D
100
AcDbEntity
  8
細線
100
AcDbLine
 10
3994.904397928891
 20
4481.612805903256
 30
0.0
 11
4063.90439792889
 21
4481.612805903256
 31
0.0
  0
LINE
  5
1546D
330
747D
100
AcDbEntity
  8
細線
100
AcDbLine
 10
4142.90439792889
 20
4481.612805903252
 30
0.0
 11
4068.904397928891
 21
4481.612805903256
 31
0.0
  0
LINE
  5
1546E
330
747D
100
AcDbEntity
  8
細線
100
AcDbLine
 10
4142.90439792889
 20
4469.612805903252
 30
0.0
 11
4068.904397928891
 21
4469.612805903255
 31
0.0
  0
LINE
  5
1546F
330
747D
100
AcDbEntity
  8
細線
100
AcDbLine
 10
4142.90439792889
 20
4475.612805903256
 30
0.0
 11
4068.904397928891
 21
4475.612805903256
 31
0.0
  0
LINE
  5
15470
330
747D
100
AcDbEntity
  8
細線
100
AcDbLine
 10
4068.904397928891
 20
4487.612805903256
 30
0.0
 11
4068.904397928891
 21
4464.612805903256
 31
0.0
  0
LINE
  5
15471
330
747D
100
AcDbEntity
  8
細線
 48
50.0
100
AcDbLine
 10
3561.904397928898
 20
4663.112805903259
 30
0.0
 11
3561.904397928898
 21
4522.11280590326
 31
0.0
  0
ARC
  5
15472
330
747D
100
AcDbEntity
  8
部品1
100
AcDbCircle
 10
3536.312819035327
 20
4656.112805903259
 30
0.0
 40
7.0
100
AcDbArc
 50
90.0
 51
183.2473427903377
  0
ARC
  5
15473
330
747D
100
AcDbEntity
  8
部品1
100
AcDbCircle
 10
3549.528142496362
 20
4529.112805903263
 30
0.0
 40
7.0
100
AcDbArc
 50
183.2473427903377
 51
270.0
  0
ARC
  5
15474
330
747D
100
AcDbEntity
  8
部品1
 48
50.0
100
AcDbCircle
 10
3531.156332285686
 20
4635.779805064947
 30
0.0
 40
0.7
100
AcDbArc
 50
183.2473427904417
 51
262.3418727926349
  0
ARC
  5
15475
330
747D
100
AcDbEntity
  8
部品1
 48
50.0
100
AcDbCircle
 10
3539.392362810526
 20
4543.579805064942
 30
0.0
 40
0.7
100
AcDbArc
 50
183.2473427903377
 51
262.3418727926349
  0
ARC
  5
15476
330
747D
100
AcDbEntity
  8
部品1
 48
50.0
100
AcDbCircle
 10
3538.899293701965
 20
4539.912805903258
 30
0.0
 40
3.0
100
AcDbArc
 50
3.247342790337682
 51
82.3418727926348
  0
ARC
  5
15477
330
747D
100
AcDbEntity
  8
部品1
 48
50.0
100
AcDbCircle
 10
3530.663263177121
 20
4632.112805903264
 30
0.0
 40
3.0
100
AcDbArc
 50
3.247342790337682
 51
82.3418727926348
  0
LINE
  5
15478
330
747D
100
AcDbEntity
  8
部品1
100
AcDbLine
 10
3533.658446073307
 20
4632.282745358363
 30
0.0
 11
3538.693486801418
 21
4543.540152525419
 31
0.0
  0
LINE
  5
15479
330
747D
100
AcDbEntity
  8
部品1
100
AcDbLine
 10
3541.894476598154
 20
4540.082745358362
 30
0.0
 11
3542.539382405263
 21
4528.716280508023
 31
0.0
  0
LINE
  5
1547A
330
747D
100
AcDbEntity
  8
部品1
100
AcDbLine
 10
3529.324058944228
 20
4655.716280508022
 30
0.0
 11
3530.457456276578
 21
4635.74015252542
 31
0.0
  0
DIMENSION
  5
1547B
330
747D
100
AcDbEntity
  8
寸法
 48
50.0
100
AcDbDimension
  2
*D13
 10
3528.904397928898
 20
4875.654391161501
 30
0.0
 11
3215.419116554651
 21
4875.654391161501
 31
0.0
 70
   160
 71
     5
 42
50.0
  3
INABA_S40G
100
AcDbAlignedDimension
 13
3578.904397928898
 23
4663.112805903263
 33
0.0
 14
3528.904397928898
 24
4663.112805903263
 34
0.0
100
AcDbRotatedDimension
1001
ACAD
1000
DSTYLE
1002
{
1002
}
  0
LINE
  5
1547C
330
747D
100
AcDbEntity
  8
部品1
 48
50.0
100
AcDbLine
 10
8041.495976822469
 20
4663.112805903256
 30
0.0
 11
3536.312819035327
 21
4663.112805903256
 31
0.0
  0
LINE
  5
1547D
330
747D
100
AcDbEntity
  8
細線
 48
50.0
100
AcDbLine
 10
8046.745746916986
 20
4635.086048466728
 30
0.0
 11
3531.063048939312
 21
4635.086048467259
 31
0.0
  0
LINE
  5
1547E
330
747D
100
AcDbEntity
  8
細線
 48
50.0
100
AcDbLine
 10
8038.509716392141
 20
4542.886048466724
 30
0.0
 11
3539.299079464145
 21
4542.886048467255
 31
0.0
  0
LINE
  5
1547F
330
747D
100
AcDbEntity
  8
部品1
 48
50.0
100
AcDbLine
 10
8028.280653361434
 20
4522.11280590326
 30
0.0
 11
3549.528142496362
 21
4522.11280590326
 31
0.0
  0
LINE
  5
15480
330
747D
100
AcDbEntity
  8
部品1
100
AcDbLine
 10
8048.484736913568
 20
4655.716280508019
 30
0.0
 11
8047.351339581222
 21
4635.740152525417
 31
0.0
  0
LINE
  5
15481
330
747D
100
AcDbEntity
  8
細線
 48
50.0
100
AcDbLine
 10
8015.904397928903
 20
4663.112805903256
 30
0.0
 11
8015.904397928903
 21
4522.112805903256
 31
0.0
  0
LINE
  5
15482
330
747D
100
AcDbEntity
  8
部品1
100
AcDbLine
 10
8035.914319259646
 20
4540.082745358362
 30
0.0
 11
8035.269413452533
 21
4528.716280508023
 31
0.0
  0
LINE
  5
15483
330
747D
100
AcDbEntity
  8
部品1
100
AcDbLine
 10
8044.150349784489
 20
4632.282745358359
 30
0.0
 11
8039.115309056379
 21
4543.540152525419
 31
0.0
  0
ARC
  5
15484
330
747D
100
AcDbEntity
  8
部品1
 48
50.0
100
AcDbCircle
 10
8047.145532680676
 20
4632.11280590326
 30
0.0
 40
3.0
100
AcDbArc
 50
97.65812720736519
 51
176.7526572096623
  0
ARC
  5
15485
330
747D
100
AcDbEntity
  8
部品1
 48
50.0
100
AcDbCircle
 10
8038.909502155831
 20
4539.912805903258
 30
0.0
 40
3.0
100
AcDbArc
 50
97.65812720736519
 51
176.7526572096623
  0
ARC
  5
15486
330
747D
100
AcDbEntity
  8
部品1
 48
50.0
100
AcDbCircle
 10
8038.41643304727
 20
4543.579805064939
 30
0.0
 40
0.7
100
AcDbArc
 50
277.6581272073652
 51
356.7526572096623
  0
ARC
  5
15487
330
747D
100
AcDbEntity
  8
部品1
 48
50.0
100
AcDbCircle
 10
8046.652463572113
 20
4635.779805064943
 30
0.0
 40
0.7
100
AcDbArc
 50
277.6581272073652
 51
356.7526572095583
  0
ARC
  5
15488
330
747D
100
AcDbEntity
  8
部品1
100
AcDbCircle
 10
8028.280653361434
 20
4529.11280590326
 30
0.0
 40
7.0
100
AcDbArc
 50
270.0
 51
356.7526572096623
  0
ARC
  5
15489
330
747D
100
AcDbEntity
  8
部品1
100
AcDbCircle
 10
8041.495976822469
 20
4656.112805903256
 30
0.0
 40
7.0
100
AcDbArc
 50
356.7526572096623
 51
90.0
  0
DIMENSION
  5
1548A
330
747D
100
AcDbEntity
  8
寸法
 48
50.0
100
AcDbDimension
  2
*D14
 10
8048.904397928902
 20
5096.559691635252
 30
0.0
 11
5788.904397928899
 21
5096.559691635252
 31
0.0
 70
   160
 71
     5
 42
4520.000000000004
  3
INABA_S40G
100
AcDbAlignedDimension
 13
3528.904397928898
 23
4663.112805903263
 33
0.0
 14
8048.904397928902
 24
4663.112805903256
 34
0.0
100
AcDbRotatedDimension
  0
DIMENSION
  5
1548B
330
747D
100
AcDbEntity
  8
寸法
 48
50.0
100
AcDbDimension
  2
*D15
 10
7998.904397928902
 20
4875.654391161501
 30
0.0
 11
8362.389679303138
 21
4875.654391161501
 31
0.0
 70
   160
 71
     5
 42
50.0
  3
INABA_S40G
100
AcDbAlignedDimension
 13
8048.904397928902
 23
4663.112805903256
 33
0.0
 14
7998.904397928902
 24
4663.112805903259
 34
0.0
100
AcDbRotatedDimension
  0
DIMENSION
  5
1548C
330
747D
100
AcDbEntity
  8
寸法
 48
50.0
100
AcDbDimension
  2
*D16
 10
3578.904397928898
 20
4875.654391161501
 30
0.0
 11
5788.904397928899
 21
4875.654391161501
 31
0.0
 70
   160
  1
柱外寸法<>
 71
     5
 42
4420.000000000004
  3
INABA_S40G
100
AcDbAlignedDimension
 13
7998.904397928902
 23
4663.112805903259
 33
0.0
 14
3578.904397928898
 24
4663.112805903263
 34
0.0
100
AcDbRotatedDimension
  0
TEXT
  5
155FF
330
747D
100
AcDbEntity
  8
部品1
100
AcDbText
 10
5497.694468552633
 20
1460.284935939622
 30
0.0
 40
135.0
  1
正面図
  7
STYLE2
100
AcDbText
  0
LWPOLYLINE
  5
15600
330
747D
100
AcDbEntity
  8
部品1
100
AcDbPolyline
 90
        4
 70
     1
 43
0.0
 10
5407.169064814676
 20
1653.178465158147
 10
5407.169064814676
 20
1413.286143612615
 10
6170.63973104312
 20
1413.286143612615
 10
6170.63973104312
 20
1653.178465158147
  0
TEXT
  5
15601
330
747D
100
AcDbEntity
  8
文字
 62
     7
 48
50.0
100
AcDbText
 10
14505.34213575793
 20
483.8967129911416
 30
0.0
 40
160.0
  1
ＮＸＮ－９８Ｈ
  7
STYLE2
100
AcDbText
  0
LINE
  5
1568C
330
747D
100
AcDbEntity
  8
部品1
100
AcDbLine
 10
3978.904397928899
 20
2288.112805903256
 30
0.0
 11
3978.904397928899
 21
2188.112805903256
 31
0.0
  0
LINE
  5
156F8
330
747D
100
AcDbEntity
  8
部品1
100
AcDbLine
 10
8003.904397928897
 20
2333.112805903256
 30
0.0
 11
8003.904397928897
 21
2188.112805903256
 31
0.0
  0
LINE
  5
156F9
330
747D
100
AcDbEntity
  8
破線
 48
5.0
100
AcDbLine
 10
8023.904397928898
 20
2033.112805903256
 30
0.0
 11
8003.904397928897
 21
2033.112805903256
 31
0.0
  0
LINE
  5
156FA
330
747D
100
AcDbEntity
  8
破線
  6
HIDDEN
 48
5.0
100
AcDbLine
 10
8098.904397928897
 20
2188.112805903256
 30
0.0
 11
8098.904397928897
 21
1988.112805903256
 31
0.0
  0
LINE
  5
156FB
330
747D
100
AcDbEntity
  8
破線
 48
5.0
100
AcDbLine
 10
8003.904397928897
 20
2188.112805903256
 30
0.0
 11
8003.904397928897
 21
2033.112805903256
 31
0.0
  0
LINE
  5
156FC
330
747D
100
AcDbEntity
  8
部品1
100
AcDbLine
 10
7598.904397928897
 20
2288.112805903256
 30
0.0
 11
7598.904397928897
 21
2188.112805903256
 31
0.0
  0
LINE
  5
156FD
330
747D
100
AcDbEntity
  8
破線
  6
HIDDEN
 48
5.0
100
AcDbLine
 10
7898.904397928898
 20
2188.112805903256
 30
0.0
 11
7898.904397928898
 21
1988.112805903256
 31
0.0
  0
LINE
  5
156FE
330
747D
100
AcDbEntity
  8
破線
  6
HIDDEN
 48
5.0
100
AcDbLine
 10
8098.904397928897
 20
1988.112805903256
 30
0.0
 11
7898.904397928898
 21
1988.112805903256
 31
0.0
  0
LINE
  5
156FF
330
747D
100
AcDbEntity
  8
部品1
100
AcDbLine
 10
7998.904397928898
 20
4522.11280590326
 30
0.0
 11
7998.904397928898
 21
2188.112805903256
 31
0.0
  0
LINE
  5
15700
330
747D
100
AcDbEntity
  8
部品1
100
AcDbLine
 10
7943.904397928898
 20
4428.112805903256
 30
0.0
 11
7943.904397928898
 21
2338.112805903256
 31
0.0
  0
LINE
  5
15701
330
747D
100
AcDbEntity
  8
部品1
100
AcDbLine
 10
7523.904397928898
 20
4428.112805903256
 30
0.0
 11
7523.904397928884
 21
2338.112805903256
 31
0.0
  0
LINE
  5
15702
330
747D
100
AcDbEntity
  8
部品1
100
AcDbLine
 10
6683.904397928898
 20
4428.112805903256
 30
0.0
 11
6683.904397928898
 21
2338.112805903256
 31
0.0
  0
LINE
  5
15703
330
747D
100
AcDbEntity
  8
部品1
100
AcDbLine
 10
7103.904397928897
 20
4428.112805903256
 30
0.0
 11
7103.904397928897
 21
2338.112805903256
 31
0.0
  0
LINE
  5
15704
330
747D
100
AcDbEntity
  8
部品1
100
AcDbLine
 10
7103.904397928913
 20
4428.112805903256
 30
0.0
 11
7103.904397928909
 21
2338.112805903256
 31
0.0
  0
LINE
  5
15705
330
747D
100
AcDbEntity
  8
部品1
100
AcDbLine
 10
5788.904397928899
 20
4428.112805903256
 30
0.0
 11
5788.904397928899
 21
4522.11280590326
 31
0.0
  0
LINE
  5
15706
330
747D
100
AcDbEntity
  8
部品1
 48
50.0
100
AcDbLine
 10
5988.904397928898
 20
2288.112805903256
 30
0.0
 11
5988.904397928898
 21
2188.112805903256
 31
0.0
  0
LINE
  5
15707
330
747D
100
AcDbEntity
  8
部品1
 48
50.0
100
AcDbLine
 10
5813.904397928898
 20
2328.112805903256
 30
0.0
 11
5813.904397928898
 21
2188.112805903256
 31
0.0
  0
LINE
  5
15708
330
747D
100
AcDbEntity
  8
部品1
100
AcDbLine
 10
5788.904397928899
 20
2338.112805903256
 30
0.0
 11
5788.904397928899
 21
2333.112805903256
 31
0.0
  0
LINE
  5
15709
330
747D
100
AcDbEntity
  8
部品1
 48
50.0
100
AcDbLine
 10
5763.904397928898
 20
2328.112805903256
 30
0.0
 11
5763.904397928898
 21
2188.112805903256
 31
0.0
  0
LINE
  5
1570A
330
747D
100
AcDbEntity
  8
部品1
 48
50.0
100
AcDbLine
 10
5808.904397928898
 20
2333.112805903256
 30
0.0
 11
5768.904397928898
 21
2333.112805903256
 31
0.0
  0
ARC
  5
1570B
330
747D
100
AcDbEntity
  8
部品1
 48
50.0
100
AcDbCircle
 10
5768.904397928898
 20
2328.112805903256
 30
0.0
 40
5.0
100
AcDbArc
 50
90.0
 51
180.0
  0
ARC
  5
1570C
330
747D
100
AcDbEntity
  8
部品1
 48
50.0
100
AcDbCircle
 10
5808.904397928898
 20
2328.112805903256
 30
0.0
 40
5.0
100
AcDbArc
 50
0.0
 51
90.0
  0
LINE
  5
1570D
330
747D
100
AcDbEntity
  8
破線
  6
HIDDEN
 48
5.0
100
AcDbLine
 10
5688.904397928898
 20
1988.112805903256
 30
0.0
 11
5888.904397928898
 21
1988.112805903256
 31
0.0
  0
LINE
  5
1570E
330
747D
100
AcDbEntity
  8
破線
  6
HIDDEN
 48
5.0
100
AcDbLine
 10
5813.904397928898
 20
2048.112805903256
 30
0.0
 11
5763.904397928898
 21
2048.112805903256
 31
0.0
  0
LINE
  5
1570F
330
747D
100
AcDbEntity
  8
破線
  6
HIDDEN
 48
5.0
100
AcDbLine
 10
5688.904397928898
 20
2188.112805903256
 30
0.0
 11
5688.904397928898
 21
1988.112805903256
 31
0.0
  0
LINE
  5
15710
330
747D
100
AcDbEntity
  8
破線
  6
HIDDEN
 48
5.0
100
AcDbLine
 10
5888.904397928898
 20
2188.112805903256
 30
0.0
 11
5888.904397928898
 21
1988.112805903256
 31
0.0
  0
LINE
  5
15711
330
747D
100
AcDbEntity
  8
破線
  6
HIDDEN
 48
5.0
100
AcDbLine
 10
5763.904397928898
 20
2188.112805903256
 30
0.0
 11
5763.904397928898
 21
2048.112805903256
 31
0.0
  0
LINE
  5
15712
330
747D
100
AcDbEntity
  8
破線
  6
HIDDEN
 48
5.0
100
AcDbLine
 10
5813.904397928898
 20
2188.112805903256
 30
0.0
 11
5813.904397928898
 21
2048.112805903256
 31
0.0
  0
LINE
  5
15713
330
747D
100
AcDbEntity
  8
部品1
 48
50.0
100
AcDbLine
 10
5588.904397928899
 20
2288.112805903256
 30
0.0
 11
5588.904397928899
 21
2188.112805903256
 31
0.0
  0
LINE
  5
15714
330
747D
100
AcDbEntity
  8
部品1
 48
50.0
100
AcDbLine
 10
5788.904397928899
 20
2338.112805903256
 30
0.0
 11
5760.904397928898
 21
2338.112805903256
 31
0.0
  0
LINE
  5
15715
330
747D
100
AcDbEntity
  8
部品1
100
AcDbLine
 10
6263.904397928898
 20
4428.112805903256
 30
0.0
 11
6263.904397928898
 21
2338.112805903256
 31
0.0
  0
LINE
  5
15716
330
747D
100
AcDbEntity
  8
部品1
100
AcDbLine
 10
5843.904397928898
 20
4428.112805903256
 30
0.0
 11
5843.904397928898
 21
2338.112805903256
 31
0.0
  0
LINE
  5
15717
330
747D
100
AcDbEntity
  8
部品1
 48
50.0
100
AcDbLine
 10
5788.904397928899
 20
2338.112805903256
 30
0.0
 11
7998.904397928898
 21
2338.112805903256
 31
0.0
  0
LINE
  5
15718
330
747D
100
AcDbEntity
  8
部品1
100
AcDbLine
 10
5813.904397928898
 20
2288.112805903256
 30
0.0
 11
7998.904397928898
 21
2288.112805903256
 31
0.0
  0
DIMENSION
  5
15719
330
747D
100
AcDbEntity
  8
寸法
 48
50.0
100
AcDbDimension
  2
*D17
 10
7898.904397928898
 20
1652.922421664043
 30
0.0
 11
7998.904397928898
 21
1652.922421664043
 31
0.0
 70
   160
 71
     5
 42
200.0
  3
INABA_S40
100
AcDbAlignedDimension
 13
8098.904397928897
 23
1988.112805903256
 33
0.0
 14
7898.904397928898
 24
1988.112805903256
 34
0.0
100
AcDbRotatedDimension
1001
ACAD
1000
DSTYLE
1002
{
1070
    41
1040
0.5
1070
    44
1040
1.0
1070
   147
1040
0.8
1070
   271
1070
     2
1070
   272
1070
     2
1070
   289
1070
     3
1070
   340
1005
F706
1070
   343
1005
F744
1070
   344
1005
F744
1002
}
  0
LINE
  5
1571A
330
747D
100
AcDbEntity
  8
部品1
100
AcDbLine
 10
3573.904397928898
 20
2333.112805903256
 30
0.0
 11
3573.904397928898
 21
2188.112805903256
 31
0.0
  0
LINE
  5
1571B
330
747D
100
AcDbEntity
  8
破線
 48
5.0
100
AcDbLine
 10
3553.904397928898
 20
2033.112805903256
 30
0.0
 11
3573.904397928898
 21
2033.112805903256
 31
0.0
  0
LINE
  5
1571C
330
747D
100
AcDbEntity
  8
破線
 48
5.0
100
AcDbLine
 10
3478.904397928899
 20
1988.112805903256
 30
0.0
 11
3678.904397928898
 21
1988.112805903256
 31
0.0
  0
LINE
  5
1571D
330
747D
100
AcDbEntity
  8
破線
 48
5.0
100
AcDbLine
 10
3678.904397928898
 20
2188.112805903256
 30
0.0
 11
3678.904397928898
 21
1988.112805903256
 31
0.0
  0
LINE
  5
1571E
330
747D
100
AcDbEntity
  8
破線
 48
5.0
100
AcDbLine
 10
3478.904397928899
 20
2188.112805903256
 30
0.0
 11
3478.904397928899
 21
1988.112805903256
 31
0.0
  0
LINE
  5
1571F
330
747D
100
AcDbEntity
  8
破線
 48
5.0
100
AcDbLine
 10
3573.904397928898
 20
2188.112805903256
 30
0.0
 11
3573.904397928898
 21
2033.112805903256
 31
0.0
  0
LINE
  5
15720
330
747D
100
AcDbEntity
  8
部品1
 48
50.0
100
AcDbLine
 10
3606.904397928899
 20
2338.112805903256
 30
0.0
 11
3578.904397928898
 21
2338.112805903256
 31
0.0
  0
LINE
  5
15721
330
747D
100
AcDbEntity
  8
部品1
100
AcDbLine
 10
2663.489748881344
 20
2188.112805903256
 30
0.0
 11
2603.489748881344
 21
2292.035854357389
 31
0.0
  0
LINE
  5
15722
330
747D
100
AcDbEntity
  8
部品1
100
AcDbLine
 10
2723.489748881344
 20
2292.035854357389
 30
0.0
 11
2663.489748881344
 21
2188.112805903256
 31
0.0
  0
LINE
  5
15723
330
747D
100
AcDbEntity
  8
部品1
100
AcDbLine
 10
2603.489748881344
 20
2292.035854357389
 30
0.0
 11
2723.489748881344
 21
2292.035854357389
 31
0.0
  0
TEXT
  5
15724
330
747D
100
AcDbEntity
  8
部品1
100
AcDbText
 10
2745.973702581163
 20
2202.954510774245
 30
0.0
 40
125.0
  1
G.L
  7
MSGOTHIC
100
AcDbText
  0
LINE
  5
15725
330
747D
100
AcDbEntity
  8
部品1
100
AcDbLine
 10
3578.904397928898
 20
4522.112805903264
 30
0.0
 11
3578.904397928898
 21
2188.112805903256
 31
0.0
  0
LINE
  5
15726
330
747D
100
AcDbEntity
  8
部品1
100
AcDbLine
 10
3578.904397928898
 20
2288.112805903256
 30
0.0
 11
5763.904397928898
 21
2288.112805903256
 31
0.0
  0
LINE
  5
15727
330
747D
100
AcDbEntity
  8
部品1
100
AcDbLine
 10
3578.904397928898
 20
4428.112805903256
 30
0.0
 11
7998.904397928898
 21
4428.112805903256
 31
0.0
  0
LINE
  5
15728
330
747D
100
AcDbEntity
  8
部品1
100
AcDbLine
 10
3603.904397928899
 20
4428.112805903256
 30
0.0
 11
5763.904397928898
 21
4428.112805903256
 31
0.0
  0
TEXT
  5
15734
330
747D
100
AcDbEntity
  8
文字
 62
     7
 48
50.0
100
AcDbText
 10
13209.4053442172
 20
228.543524256902
 30
0.0
 40
100.0
  1
○有効開口寸法 ： 1266×2025(mm)
  7
STYLE2
100
AcDbText
  0
DIMENSION
  5
15CFA
330
747D
100
AcDbEntity
  8
寸法
100
AcDbDimension
  2
*D23
 10
10741.39409968389
 20
2338.112805903257
 30
0.0
 11
10641.38228866026
 21
3383.112805903259
 31
0.0
 70
    32
 71
     5
 42
2089.999999999999
  3
INABA_S40G
100
AcDbAlignedDimension
 13
11585.14422886715
 23
4428.112805903256
 33
0.0
 14
11585.14422886715
 24
2338.112805903257
 34
0.0
 50
90.0
100
AcDbRotatedDimension
1001
ACAD
1000
DSTYLE
1002
{
1070
   174
1070
     0
1070
   272
1070
     1
1070
   288
1070
     0
1070
   341
1005
0
1002
}
  0
DIMENSION
  5
15CFB
330
747D
100
AcDbEntity
  8
寸法
100
AcDbDimension
  2
*D24
 10
10441.39409968389
 20
4663.112805903262
 30
0.0
 11
10341.38228866026
 21
3475.612805903261
 31
0.0
 70
    32
 71
     5
 42
2375.000000000005
  3
INABA_S40G
100
AcDbAlignedDimension
 13
11585.14422886715
 23
2288.112805903256
 33
0.0
 14
11525.14422886715
 24
4663.112805903262
 34
0.0
 50
90.0
100
AcDbRotatedDimension
1001
ACAD
1000
DSTYLE
1002
{
1070
   174
1070
     0
1070
   272
1070
     1
1070
   288
1070
     0
1070
   341
1005
0
1002
}
  0
DIMENSION
  5
15CFC
330
747D
100
AcDbEntity
  8
寸法
100
AcDbDimension
  2
*D25
 10
14500.07138683927
 20
4608.112805903257
 30
0.0
 11
14400.05957581565
 21
3448.112805903259
 31
0.0
 70
    32
 71
     5
 42
2320.000000000001
  3
INABA_S40G
100
AcDbAlignedDimension
 13
13795.14422886715
 23
2288.112805903256
 33
0.0
 14
13875.14422886715
 24
4608.112805903258
 34
0.0
 50
90.0
100
AcDbRotatedDimension
1001
ACAD
1000
DSTYLE
1002
{
1070
   174
1070
     0
1070
   272
1070
     1
1070
   288
1070
     0
1070
   341
1005
0
1002
}
  0
LINE
  5
15CFD
330
747D
100
AcDbEntity
  8
破線
 48
5.0
100
AcDbLine
 10
13667.64422886715
 20
2188.112805903257
 30
0.0
 11
13667.64422886715
 21
1988.112805903256
 31
0.0
  0
LINE
  5
15CFE
330
747D
100
AcDbEntity
  8
破線
 48
5.0
100
AcDbLine
 10
13867.64422886715
 20
1988.112805903255
 30
0.0
 11
13667.64422886715
 21
1988.112805903256
 31
0.0
  0
LINE
  5
15CFF
330
747D
100
AcDbEntity
  8
破線
 48
5.0
100
AcDbLine
 10
13867.64422886715
 20
2188.112805903257
 30
0.0
 11
13867.64422886715
 21
1988.112805903255
 31
0.0
  0
DIMENSION
  5
15D00
330
747D
100
AcDbEntity
  8
寸法
 48
50.0
100
AcDbDimension
  2
*D26
 10
11512.64422886715
 20
1702.065476602878
 30
0.0
 11
11612.64422886715
 21
1702.065476602878
 31
0.0
 70
   160
 71
     5
 42
199.9999999999963
  3
INABA_S40G
100
AcDbAlignedDimension
 13
11712.64422886715
 23
1988.112805903254
 33
0.0
 14
11512.64422886715
 24
1988.112805903255
 34
0.0
100
AcDbRotatedDimension
  0
LINE
  5
15D01
330
747D
100
AcDbEntity
  8
破線
 48
5.0
100
AcDbLine
 10
11512.64422886715
 20
2188.112805903256
 30
0.0
 11
11512.64422886715
 21
1988.112805903255
 31
0.0
  0
LINE
  5
15D02
330
747D
100
AcDbEntity
  8
破線
 48
5.0
100
AcDbLine
 10
11712.64422886715
 20
2188.112805903256
 30
0.0
 11
11712.64422886715
 21
1988.112805903254
 31
0.0
  0
LINE
  5
15D03
330
747D
100
AcDbEntity
  8
破線
 48
5.0
100
AcDbLine
 10
11712.64422886715
 20
1988.112805903254
 30
0.0
 11
11512.64422886715
 21
1988.112805903255
 31
0.0
  0
DIMENSION
  5
15D04
330
747D
100
AcDbEntity
  8
寸法
 48
50.0
100
AcDbDimension
  2
*D27
 10
11363.14422562051
 20
2188.112805903256
 30
0.0
 11
11363.14422562051
 21
2088.112805903258
 31
0.0
 70
   160
 71
     5
 42
200.0000000000011
  3
INABA_S40G
100
AcDbAlignedDimension
 13
11512.64422886715
 23
1988.112805903255
 33
0.0
 14
11487.64422886715
 24
2188.112805903256
 34
0.0
 50
90.0
100
AcDbRotatedDimension
1001
ACAD
1000
DSTYLE
1002
{
1070
   174
1070
     0
1070
   272
1070
     1
1070
   288
1070
     0
1070
   341
1005
0
1002
}
  0
DIMENSION
  5
15D05
330
747D
100
AcDbEntity
  8
寸法
 48
50.0
100
AcDbDimension
  2
*D28
 10
10964.53582209877
 20
4537.458064776588
 30
0.0
 11
10975.20129735769
 21
4908.304728018287
 31
0.0
 70
   161
 71
     5
 42
141.0
  3
INABA_S40G
100
AcDbAlignedDimension
 13
11544.54024902572
 23
4661.835554737936
 33
0.0
 14
11540.4867934691
 24
4520.893830972223
 34
0.0
1001
ACAD
1000
DSTYLE
1002
{
1070
   174
1070
     0
1070
   272
1070
     1
1070
   288
1070
     0
1070
   341
1005
0
1002
}
  0
LINE
  5
15D06
330
747D
100
AcDbEntity
  8
細線
 48
50.0
100
AcDbLine
 10
13662.64422886715
 20
4428.112805903256
 30
0.0
 11
13662.64422886715
 21
2338.112805903257
 31
0.0
  0
LINE
  5
15D07
330
747D
100
AcDbEntity
  8
細線
 48
50.0
100
AcDbLine
 10
13677.64422886715
 20
4428.112805903256
 30
0.0
 11
13677.64422886715
 21
2338.112805903257
 31
0.0
  0
LINE
  5
15D08
330
747D
100
AcDbEntity
  8
細線
 48
50.0
100
AcDbLine
 10
13537.64422886715
 20
4428.112805903256
 30
0.0
 11
13537.64422886715
 21
2338.112805903257
 31
0.0
  0
LINE
  5
15D09
330
747D
100
AcDbEntity
  8
細線
 48
50.0
100
AcDbLine
 10
13522.64422886715
 20
4428.112805903256
 30
0.0
 11
13522.64422886715
 21
2338.112805903257
 31
0.0
  0
LINE
  5
15D0A
330
747D
100
AcDbEntity
  8
細線
 48
50.0
100
AcDbLine
 10
13382.64422886715
 20
4428.112805903256
 30
0.0
 11
13382.64422886715
 21
2338.112805903257
 31
0.0
  0
LINE
  5
15D0B
330
747D
100
AcDbEntity
  8
細線
 48
50.0
100
AcDbLine
 10
13397.64422886715
 20
4428.112805903256
 30
0.0
 11
13397.64422886715
 21
2338.112805903257
 31
0.0
  0
LINE
  5
15D0C
330
747D
100
AcDbEntity
  8
部品1
100
AcDbLine
 10
12900.14422886714
 20
4428.112805903256
 30
0.0
 11
12900.14422886714
 21
2338.112805903257
 31
0.0
  0
LINE
  5
15D0D
330
747D
100
AcDbEntity
  8
細線
 48
50.0
100
AcDbLine
 10
12557.64422886715
 20
4428.112805903256
 30
0.0
 11
12557.64422886715
 21
2338.112805903257
 31
0.0
  0
LINE
  5
15D0E
330
747D
100
AcDbEntity
  8
細線
 48
50.0
100
AcDbLine
 10
12542.64422886715
 20
4428.112805903256
 30
0.0
 11
12542.64422886715
 21
2338.112805903257
 31
0.0
  0
LINE
  5
15D0F
330
747D
100
AcDbEntity
  8
細線
 48
50.0
100
AcDbLine
 10
12682.64422886715
 20
4428.112805903256
 30
0.0
 11
12682.64422886715
 21
2338.112805903257
 31
0.0
  0
LINE
  5
15D10
330
747D
100
AcDbEntity
  8
細線
 48
50.0
100
AcDbLine
 10
12697.64422886715
 20
4428.112805903256
 30
0.0
 11
12697.64422886715
 21
2338.112805903257
 31
0.0
  0
LINE
  5
15D11
330
747D
100
AcDbEntity
  8
細線
 48
50.0
100
AcDbLine
 10
12837.64422886715
 20
4428.112805903256
 30
0.0
 11
12837.64422886715
 21
2338.112805903257
 31
0.0
  0
LINE
  5
15D12
330
747D
100
AcDbEntity
  8
細線
 48
50.0
100
AcDbLine
 10
12822.64422886715
 20
4428.112805903256
 30
0.0
 11
12822.64422886715
 21
2338.112805903257
 31
0.0
  0
LINE
  5
15D13
330
747D
100
AcDbEntity
  8
部品1
100
AcDbLine
 10
12480.14422886715
 20
4428.112805903256
 30
0.0
 11
12480.14422886715
 21
2338.112805903257
 31
0.0
  0
DIMENSION
  5
15D14
330
747D
100
AcDbEntity
  8
寸法
 48
50.0
100
AcDbDimension
  2
*D29
 10
13875.14422886715
 20
5061.77025948256
 30
0.0
 11
14081.19147296164
 21
5061.77025948256
 31
0.0
 70
   160
 71
     5
 42
80.0
  3
INABA_S40G
100
AcDbAlignedDimension
 13
13795.14422886715
 23
4609.92348551491
 33
0.0
 14
13875.14422886715
 24
4608.112805903258
 34
0.0
100
AcDbRotatedDimension
1001
ACAD
1000
DSTYLE
1002
{
1070
   174
1070
     0
1070
   272
1070
     1
1070
   288
1070
     0
1070
   341
1005
0
1002
}
  0
LINE
  5
15D15
330
747D
100
AcDbEntity
  8
細線
 48
50.0
100
AcDbLine
 10
11717.64422886715
 20
4428.112805903256
 30
0.0
 11
11717.64422886715
 21
2338.112805903257
 31
0.0
  0
LINE
  5
15D16
330
747D
100
AcDbEntity
  8
細線
 48
50.0
100
AcDbLine
 10
11702.64422886715
 20
4428.112805903256
 30
0.0
 11
11702.64422886715
 21
2338.112805903257
 31
0.0
  0
LINE
  5
15D17
330
747D
100
AcDbEntity
  8
細線
 48
50.0
100
AcDbLine
 10
11842.64422886715
 20
4428.112805903256
 30
0.0
 11
11842.64422886714
 21
2338.112805903257
 31
0.0
  0
LINE
  5
15D18
330
747D
100
AcDbEntity
  8
細線
 48
50.0
100
AcDbLine
 10
11857.64422886715
 20
4428.112805903256
 30
0.0
 11
11857.64422886715
 21
2338.112805903257
 31
0.0
  0
LINE
  5
15D19
330
747D
100
AcDbEntity
  8
細線
 48
50.0
100
AcDbLine
 10
11997.64422886715
 20
4428.112805903256
 30
0.0
 11
11997.64422886715
 21
2338.112805903257
 31
0.0
  0
LINE
  5
15D1A
330
747D
100
AcDbEntity
  8
細線
 48
50.0
100
AcDbLine
 10
11982.64422886715
 20
4428.112805903256
 30
0.0
 11
11982.64422886714
 21
2338.112805903257
 31
0.0
  0
LINE
  5
15D1B
330
747D
100
AcDbEntity
  8
細線
 48
50.0
100
AcDbLine
 10
12402.64422886715
 20
4428.112805903256
 30
0.0
 11
12402.64422886715
 21
2338.112805903257
 31
0.0
  0
LINE
  5
15D1C
330
747D
100
AcDbEntity
  8
細線
 48
50.0
100
AcDbLine
 10
12417.64422886715
 20
4428.112805903256
 30
0.0
 11
12417.64422886715
 21
2338.112805903257
 31
0.0
  0
LINE
  5
15D1D
330
747D
100
AcDbEntity
  8
細線
 48
50.0
100
AcDbLine
 10
12277.64422886715
 20
4428.112805903256
 30
0.0
 11
12277.64422886715
 21
2338.112805903257
 31
0.0
  0
LINE
  5
15D1E
330
747D
100
AcDbEntity
  8
細線
 48
50.0
100
AcDbLine
 10
12262.64422886714
 20
4428.112805903256
 30
0.0
 11
12262.64422886714
 21
2338.112805903257
 31
0.0
  0
LINE
  5
15D1F
330
747D
100
AcDbEntity
  8
細線
 48
50.0
100
AcDbLine
 10
12122.64422886714
 20
4428.112805903256
 30
0.0
 11
12122.64422886714
 21
2338.112805903257
 31
0.0
  0
LINE
  5
15D20
330
747D
100
AcDbEntity
  8
細線
 48
50.0
100
AcDbLine
 10
12137.64422886715
 20
4428.112805903256
 30
0.0
 11
12137.64422886715
 21
2338.112805903257
 31
0.0
  0
LINE
  5
15D21
330
747D
100
AcDbEntity
  8
部品1
100
AcDbLine
 10
11632.64422886715
 20
2288.112805903257
 30
0.0
 11
13747.64422886715
 21
2288.112805903257
 31
0.0
  0
LINE
  5
15D22
330
747D
100
AcDbEntity
  8
部品1
100
AcDbLine
 10
13787.64422886715
 20
2288.112805903256
 30
0.0
 11
13795.14422886715
 21
2288.112805903256
 31
0.0
  0
LINE
  5
15D23
330
747D
100
AcDbEntity
  8
破線
  6
HIDDEN
 48
5.0
100
AcDbLine
 10
11632.64422886715
 20
2188.112805903256
 30
0.0
 11
11632.64422886715
 21
2183.112805903256
 31
0.0
  0
LINE
  5
15D24
330
747D
100
AcDbEntity
  8
破線
  6
HIDDEN
 48
5.0
100
AcDbLine
 10
11592.64422886715
 20
2188.112805903256
 30
0.0
 11
11592.64422886715
 21
2183.112805903257
 31
0.0
  0
LINE
  5
15D25
330
747D
100
AcDbEntity
  8
破線
  6
HIDDEN
 48
5.0
100
AcDbLine
 10
13787.64422886715
 20
2188.112805903257
 30
0.0
 11
13787.64422886715
 21
2183.112805903257
 31
0.0
  0
LINE
  5
15D26
330
747D
100
AcDbEntity
  8
破線
  6
HIDDEN
 48
5.0
100
AcDbLine
 10
13747.64422886715
 20
2188.112805903257
 30
0.0
 11
13747.64422886715
 21
2183.112805903257
 31
0.0
  0
ARC
  5
15D27
330
747D
100
AcDbEntity
  8
部品1
 48
50.0
100
AcDbCircle
 10
13782.64422886715
 20
2328.112805903257
 30
0.0
 40
5.0
100
AcDbArc
 50
0.0
 51
90.0
  0
ARC
  5
15D28
330
747D
100
AcDbEntity
  8
部品1
 48
50.0
100
AcDbCircle
 10
13752.64422886715
 20
2328.112805903257
 30
0.0
 40
5.0
100
AcDbArc
 50
90.0
 51
180.0
  0
LINE
  5
15D29
330
747D
100
AcDbEntity
  8
部品1
100
AcDbLine
 10
13782.64422886715
 20
2333.112805903257
 30
0.0
 11
13752.64422886715
 21
2333.112805903257
 31
0.0
  0
LINE
  5
15D2A
330
747D
100
AcDbEntity
  8
部品1
 48
50.0
100
AcDbLine
 10
13787.64422886715
 20
2328.112805903257
 30
0.0
 11
13787.64422886715
 21
2188.112805903257
 31
0.0
  0
LINE
  5
15D2B
330
747D
100
AcDbEntity
  8
部品1
 48
50.0
100
AcDbLine
 10
13747.64422886715
 20
2328.112805903257
 30
0.0
 11
13747.64422886715
 21
2188.112805903257
 31
0.0
  0
ARC
  5
15D2C
330
747D
100
AcDbEntity
  8
部品1
 48
50.0
100
AcDbCircle
 10
11627.64422886715
 20
2328.112805903256
 30
0.0
 40
5.0
100
AcDbArc
 50
0.0
 51
90.0
  0
ARC
  5
15D2D
330
747D
100
AcDbEntity
  8
部品1
 48
50.0
100
AcDbCircle
 10
11597.64422886714
 20
2328.112805903257
 30
0.0
 40
5.0
100
AcDbArc
 50
90.0
 51
180.0
  0
LINE
  5
15D2E
330
747D
100
AcDbEntity
  8
部品1
100
AcDbLine
 10
11597.64422886714
 20
2333.112805903257
 30
0.0
 11
11627.64422886715
 21
2333.112805903256
 31
0.0
  0
LINE
  5
15D2F
330
747D
100
AcDbEntity
  8
部品1
 48
50.0
100
AcDbLine
 10
11632.64422886715
 20
2328.112805903256
 30
0.0
 11
11632.64422886715
 21
2188.112805903256
 31
0.0
  0
LINE
  5
15D30
330
747D
100
AcDbEntity
  8
部品1
 48
50.0
100
AcDbLine
 10
11592.64422886715
 20
2328.112805903257
 30
0.0
 11
11592.64422886715
 21
2188.112805903256
 31
0.0
  0
LINE
  5
15D31
330
747D
100
AcDbEntity
  8
破線
  6
HIDDEN
 48
5.0
100
AcDbLine
 10
11632.64422886715
 20
2183.112805903256
 30
0.0
 11
11647.64422886715
 21
2035.412805903257
 31
0.0
  0
LINE
  5
15D32
330
747D
100
AcDbEntity
  8
破線
  6
HIDDEN
 48
5.0
100
AcDbLine
 10
11592.64422886715
 20
2183.112805903257
 30
0.0
 11
11577.64422886714
 21
2035.412805903257
 31
0.0
  0
LINE
  5
15D33
330
747D
100
AcDbEntity
  8
破線
  6
HIDDEN
 48
5.0
100
AcDbLine
 10
11647.64422886715
 20
2035.412805903257
 30
0.0
 11
11647.64422886715
 21
2033.112805903256
 31
0.0
  0
LINE
  5
15D34
330
747D
100
AcDbEntity
  8
破線
  6
HIDDEN
 48
5.0
100
AcDbLine
 10
11577.64422886714
 20
2035.412805903257
 30
0.0
 11
11577.64422886714
 21
2033.112805903256
 31
0.0
  0
LINE
  5
15D35
330
747D
100
AcDbEntity
  8
破線
  6
HIDDEN
 48
5.0
100
AcDbLine
 10
11577.64422886714
 20
2033.112805903256
 30
0.0
 11
11647.64422886715
 21
2033.112805903256
 31
0.0
  0
LINE
  5
15D36
330
747D
100
AcDbEntity
  8
破線
  6
HIDDEN
 48
5.0
100
AcDbLine
 10
13802.64422886715
 20
2035.412805903257
 30
0.0
 11
13802.64422886715
 21
2033.112805903257
 31
0.0
  0
LINE
  5
15D37
330
747D
100
AcDbEntity
  8
破線
  6
HIDDEN
 48
5.0
100
AcDbLine
 10
13787.64422886715
 20
2183.112805903257
 30
0.0
 11
13802.64422886715
 21
2035.412805903257
 31
0.0
  0
LINE
  5
15D38
330
747D
100
AcDbEntity
  8
破線
  6
HIDDEN
 48
5.0
100
AcDbLine
 10
13732.64422886715
 20
2035.412805903257
 30
0.0
 11
13732.64422886715
 21
2033.112805903257
 31
0.0
  0
LINE
  5
15D39
330
747D
100
AcDbEntity
  8
破線
  6
HIDDEN
 48
5.0
100
AcDbLine
 10
13747.64422886715
 20
2183.112805903257
 30
0.0
 11
13732.64422886715
 21
2035.412805903257
 31
0.0
  0
LINE
  5
15D3A
330
747D
100
AcDbEntity
  8
破線
  6
HIDDEN
 48
5.0
100
AcDbLine
 10
13802.64422886715
 20
2033.112805903257
 30
0.0
 11
13732.64422886715
 21
2033.112805903257
 31
0.0
  0
DIMENSION
  5
15D3B
330
747D
100
AcDbEntity
  8
寸法
 48
50.0
100
AcDbDimension
  2
*D18
 10
11525.14422886715
 20
5280.972093156852
 30
0.0
 11
12759.48808295962
 21
5280.972093156852
 31
0.0
 70
   160
 71
     5
 42
2350.0
  3
INABA_S40G
100
AcDbAlignedDimension
 13
13875.14422886715
 23
4608.112805903258
 33
0.0
 14
11525.14422886715
 24
4663.112805903262
 34
0.0
100
AcDbRotatedDimension
1001
ACAD
1000
DSTYLE
1002
{
1070
   174
1070
     0
1070
   272
1070
     1
1070
   288
1070
     0
1070
   341
1005
0
1002
}
  0
DIMENSION
  5
15D3C
330
747D
100
AcDbEntity
  8
寸法
 48
50.0
100
AcDbDimension
  2
*D19
 10
11525.14422886715
 20
5061.77025948256
 30
0.0
 11
11215.50643359155
 21
5061.77025948256
 31
0.0
 70
   160
 71
     5
 42
60.0
  3
INABA_S40G
100
AcDbAlignedDimension
 13
11585.14422886715
 23
4659.114424026233
 33
0.0
 14
11525.14422886715
 24
4663.112805903262
 34
0.0
100
AcDbRotatedDimension
1001
ACAD
1000
DSTYLE
1002
{
1070
   174
1070
     0
1070
   272
1070
     1
1070
   288
1070
     0
1070
   341
1005
0
1002
}
  0
DIMENSION
  5
15D3D
330
747D
100
AcDbEntity
  8
寸法
 48
50.0
100
AcDbDimension
  2
*D20
 10
11585.14422886715
 20
5061.77025948256
 30
0.0
 11
12679.78896593766
 21
5061.77025948256
 31
0.0
 70
   160
  1
柱外寸法<>
 71
     5
 42
2210.0
  3
INABA_S40G
100
AcDbAlignedDimension
 13
13795.14422886715
 23
4609.92348551491
 33
0.0
 14
11585.14422886715
 24
4659.114424026233
 34
0.0
100
AcDbRotatedDimension
1001
ACAD
1000
DSTYLE
1002
{
1070
   174
1070
     0
1070
   272
1070
     1
1070
   288
1070
     0
1070
   341
1005
0
1002
}
  0
LINE
  5
15D3E
330
747D
100
AcDbEntity
  8
部品1
100
AcDbLine
 10
13595.14422886715
 20
2288.112805903256
 30
0.0
 11
13595.14422886715
 21
2188.112805903257
 31
0.0
  0
LINE
  5
15D3F
330
747D
100
AcDbEntity
  8
部品1
100
AcDbLine
 10
11785.14422886715
 20
2288.112805903256
 30
0.0
 11
11785.14422886715
 21
2188.112805903257
 31
0.0
  0
LINE
  5
15D40
330
747D
100
AcDbEntity
  8
部品1
100
AcDbLine
 10
13740.14422886715
 20
4428.112805903256
 30
0.0
 11
13740.14422886715
 21
2338.112805903257
 31
0.0
  0
LINE
  5
15D41
330
747D
100
AcDbEntity
  8
部品1
100
AcDbLine
 10
13795.14422886715
 20
4482.789243534479
 30
0.0
 11
13795.14422886715
 21
2188.112805903257
 31
0.0
  0
LINE
  5
15D42
330
747D
100
AcDbEntity
  8
部品1
100
AcDbLine
 10
12060.14422886715
 20
4428.112805903256
 30
0.0
 11
12060.14422886715
 21
2338.112805903257
 31
0.0
  0
DIMENSION
  5
15D43
330
747D
100
AcDbEntity
  8
寸法
100
AcDbDimension
  2
*D21
 10
10741.39409968389
 20
2288.112805903257
 30
0.0
 11
10741.39409968389
 21
1982.065561808769
 31
0.0
 70
   160
 71
     5
 42
50.0
  3
INABA_S40G
100
AcDbAlignedDimension
 13
11585.14422886715
 23
2338.112805903257
 33
0.0
 14
11530.14422886714
 24
2288.112805903256
 34
0.0
 50
90.0
100
AcDbRotatedDimension
1001
ACAD
1000
DSTYLE
1002
{
1070
   174
1070
     0
1070
   272
1070
     1
1070
   288
1070
     0
1070
   341
1005
0
1002
}
  0
DIMENSION
  5
15D44
330
747D
100
AcDbEntity
  8
寸法
100
AcDbDimension
  2
*D22
 10
10441.39409968389
 20
2188.112805903257
 30
0.0
 11
10441.39409968389
 21
1952.065561808769
 31
0.0
 70
   160
 71
     5
 42
100.0000000000004
  3
INABA_S40G
100
AcDbAlignedDimension
 13
11530.14422886714
 23
2288.112805903256
 33
0.0
 14
10528.64315297201
 24
2188.112805903257
 34
0.0
 50
90.0
100
AcDbRotatedDimension
1001
ACAD
1000
DSTYLE
1002
{
1070
   174
1070
     0
1070
   272
1070
     1
1070
   288
1070
     0
1070
   341
1005
0
1002
}
  0
LINE
  5
15D45
330
747D
100
AcDbEntity
  8
部品1
100
AcDbLine
 10
11585.14422886715
 20
4520.139102947843
 30
0.0
 11
11585.14422886715
 21
2188.112805903257
 31
0.0
  0
LINE
  5
15D46
330
747D
100
AcDbEntity
  8
部品1
100
AcDbLine
 10
11640.14422886715
 20
4428.112805903256
 30
0.0
 11
11640.14422886715
 21
2338.112805903257
 31
0.0
  0
LINE
  5
15D47
330
747D
100
AcDbEntity
  8
部品1
100
AcDbLine
 10
11585.14422886715
 20
2288.112805903256
 30
0.0
 11
11592.64422886715
 21
2288.112805903256
 31
0.0
  0
LINE
  5
15D48
330
747D
100
AcDbEntity
  8
部品1
100
AcDbLine
 10
11585.14422886715
 20
2338.112805903257
 30
0.0
 11
13795.14422886715
 21
2338.112805903258
 31
0.0
  0
LINE
  5
15D49
330
747D
100
AcDbEntity
  8
部品1
100
AcDbLine
 10
11585.14422886715
 20
4428.112805903256
 30
0.0
 11
13795.14422886715
 21
4428.112805903256
 31
0.0
  0
LINE
  5
15D4A
330
747D
100
AcDbEntity
  8
部品1
100
AcDbLine
 10
13320.14422886715
 20
4428.112805903256
 30
0.0
 11
13320.14422886715
 21
2338.112805903257
 31
0.0
  0
LINE
  5
15D4B
330
747D
100
AcDbEntity
  8
細線
 48
50.0
100
AcDbLine
 10
13242.64422886715
 20
4428.112805903256
 30
0.0
 11
13242.64422886715
 21
2338.112805903257
 31
0.0
  0
LINE
  5
15D4C
330
747D
100
AcDbEntity
  8
細線
 48
50.0
100
AcDbLine
 10
13257.64422886715
 20
4428.112805903256
 30
0.0
 11
13257.64422886715
 21
2338.112805903257
 31
0.0
  0
LINE
  5
15D4D
330
747D
100
AcDbEntity
  8
細線
 48
50.0
100
AcDbLine
 10
13117.64422886715
 20
4428.112805903256
 30
0.0
 11
13117.64422886715
 21
2338.112805903257
 31
0.0
  0
LINE
  5
15D4E
330
747D
100
AcDbEntity
  8
細線
 48
50.0
100
AcDbLine
 10
13102.64422886715
 20
4428.112805903256
 30
0.0
 11
13102.64422886715
 21
2338.112805903257
 31
0.0
  0
LINE
  5
15D4F
330
747D
100
AcDbEntity
  8
細線
 48
50.0
100
AcDbLine
 10
12962.64422886715
 20
4428.112805903256
 30
0.0
 11
12962.64422886715
 21
2338.112805903257
 31
0.0
  0
LINE
  5
15D50
330
747D
100
AcDbEntity
  8
細線
 48
50.0
100
AcDbLine
 10
12977.64422886715
 20
4428.112805903256
 30
0.0
 11
12977.64422886715
 21
2338.112805903257
 31
0.0
  0
TEXT
  5
15D51
330
747D
100
AcDbEntity
  8
部品1
 48
50.0
100
AcDbText
 10
13006.04508675596
 20
4691.927993178518
 30
0.0
 40
120.0
  1
44
 50
90.0
  7
STYLE1
100
AcDbText
  0
TEXT
  5
15D52
330
747D
100
AcDbEntity
  8
部品1
 48
50.0
100
AcDbText
 10
12528.41206409087
 20
4829.429251396801
 30
0.0
 40
120.0
  1
1000
  7
STYLE1
100
AcDbText
  0
LINE
  5
15D53
330
747D
100
AcDbEntity
  8
部品1
 48
50.0
100
AcDbLine
 10
12840.14422886714
 20
4793.545229244368
 30
0.0
 11
12840.14422886714
 21
4777.345229244369
 31
0.0
  0
LINE
  5
15D54
330
747D
100
AcDbEntity
  8
部品1
 48
50.0
100
AcDbLine
 10
12540.14422886715
 20
4793.545229244368
 30
0.0
 11
12840.14422886714
 21
4793.545229244368
 31
0.0
  0
LINE
  5
15D55
330
747D
100
AcDbEntity
  8
部品1
100
AcDbLine
 10
11532.68921522411
 20
4661.830541237523
 30
0.0
 11
13867.75610572861
 21
4606.753603612396
 31
0.0
  0
LINE
  5
15D56
330
747D
100
AcDbEntity
  8
部品1
100
AcDbLine
 10
11540.4867934691
 20
4520.893830972223
 30
0.0
 11
13849.80792940699
 21
4481.865405738019
 31
0.0
  0
LINE
  5
15D57
330
747D
100
AcDbEntity
  8
細線
 48
50.0
100
AcDbLine
 10
11558.14422886715
 20
4660.512482278662
 30
0.0
 11
11552.85512731164
 21
4520.426849651307
 31
0.0
  0
LINE
  5
15D58
330
747D
100
AcDbEntity
  8
細線
 48
50.0
100
AcDbLine
 10
13842.14422886715
 20
4608.079784938552
 30
0.0
 11
13837.39654597915
 21
4482.334012447809
 31
0.0
  0
LINE
  5
15D59
330
747D
100
AcDbEntity
  8
部品1
 48
50.0
100
AcDbLine
 10
11525.32851478025
 20
4654.706352067949
 30
0.0
 11
11525.70877455806
 21
4634.779387621538
 31
0.0
  0
LINE
  5
15D5A
330
747D
100
AcDbEntity
  8
部品1
 48
50.0
100
AcDbLine
 10
11528.77754666431
 20
4631.204106128065
 30
0.0
 11
11530.48144815568
 21
4541.913609421419
 31
0.0
  0
LINE
  5
15D5B
330
747D
100
AcDbEntity
  8
細線
 48
50.0
100
AcDbLine
 10
11526.18365196796
 20
4634.129887744619
 30
0.0
 11
13871.81963671313
 21
4578.505683103791
 31
0.0
  0
LINE
  5
15D5C
330
747D
100
AcDbEntity
  8
細線
 48
50.0
100
AcDbLine
 10
11530.94412720525
 20
4541.268376046755
 30
0.0
 11
13860.94779163588
 21
4501.459057072261
 31
0.0
  0
LINE
  5
15D5D
330
747D
100
AcDbEntity
  8
部品1
 48
50.0
100
AcDbLine
 10
11533.55022026192
 20
4538.338327927946
 30
0.0
 11
11533.75217288235
 21
4527.755292534854
 31
0.0
  0
ARC
  5
15D5E
330
747D
100
AcDbEntity
  8
部品1
 48
50.0
100
AcDbCircle
 10
11532.32724060859
 20
4654.839906475377
 30
0.0
 40
7.0
100
AcDbArc
 50
87.03587545293501
 51
181.0932240292895
  0
ARC
  5
15D5F
330
747D
100
AcDbEntity
  8
部品1
 48
50.0
100
AcDbCircle
 10
11540.75089871069
 20
4527.888846942281
 30
0.0
 40
7.0
100
AcDbArc
 50
181.0932240292895
 51
267.8377559870533
  0
ARC
  5
15D60
330
747D
100
AcDbEntity
  8
部品1
100
AcDbCircle
 10
11530.55076633549
 20
4538.281090324763
 30
0.0
 40
3.0
100
AcDbArc
 50
1.093224029289586
 51
80.18775403159162
  0
ARC
  5
15D61
330
747D
100
AcDbEntity
  8
部品1
100
AcDbCircle
 10
11525.77809273788
 20
4631.146868524882
 30
0.0
 40
3.0
100
AcDbArc
 50
1.093224029289586
 51
80.18775403159162
  0
ARC
  5
15D62
330
747D
100
AcDbEntity
  8
部品1
100
AcDbCircle
 10
11526.4086471409
 20
4634.79274306228
 30
0.0
 40
0.7
100
AcDbArc
 50
181.0932240292114
 51
260.1877540315916
  0
ARC
  5
15D63
330
747D
100
AcDbEntity
  8
部品1
100
AcDbCircle
 10
11531.18132073851
 20
4541.926964862161
 30
0.0
 40
0.7
100
AcDbArc
 50
181.0932240292375
 51
260.1877540315916
  0
LINE
  5
15D64
330
747D
100
AcDbEntity
  8
部品1
 48
50.0
100
AcDbLine
 10
13874.35813167785
 20
4599.053958177475
 30
0.0
 11
13872.32751048688
 21
4579.108916919695
 31
0.0
  0
LINE
  5
15D65
330
747D
100
AcDbEntity
  8
部品1
 48
50.0
100
AcDbLine
 10
13868.9749440024
 20
4575.798282846786
 30
0.0
 11
13861.46816473756
 21
4502.065662101773
 31
0.0
  0
LINE
  5
15D66
330
747D
100
AcDbEntity
  8
部品1
 48
50.0
100
AcDbLine
 10
13858.11559825308
 20
4498.755028028861
 30
0.0
 11
13857.03603521334
 21
4488.151411035303
 31
0.0
  0
ARC
  5
15D67
330
747D
100
AcDbEntity
  8
部品1
 48
50.0
100
AcDbCircle
 10
13867.39413111309
 20
4599.762968850249
 30
0.0
 40
7.0
100
AcDbArc
 50
354.1866997665273
 51
87.03587545293501
  0
ARC
  5
15D68
330
747D
100
AcDbEntity
  8
部品1
 48
50.0
100
AcDbCircle
 10
13850.07203464858
 20
4488.860421708078
 30
0.0
 40
7.0
100
AcDbArc
 50
267.8377559870533
 51
354.1866997665273
  0
ARC
  5
15D69
330
747D
100
AcDbEntity
  8
部品1
100
AcDbCircle
 10
13861.10016992368
 20
4498.451166311959
 30
0.0
 40
3.0
100
AcDbArc
 50
95.0921697642102
 51
174.1866997665272
  0
ARC
  5
15D6A
330
747D
100
AcDbEntity
  8
部品1
100
AcDbCircle
 10
13871.95951567301
 20
4575.494421129882
 30
0.0
 40
3.0
100
AcDbArc
 50
95.092169764314
 51
174.1866997665272
  0
ARC
  5
15D6B
330
747D
100
AcDbEntity
  8
部品1
100
AcDbCircle
 10
13871.63111043041
 20
4579.179817986973
 30
0.0
 40
0.7
100
AcDbArc
 50
275.0921697642102
 51
354.1866997665273
  0
ARC
  5
15D6C
330
747D
100
AcDbEntity
  8
部品1
100
AcDbCircle
 10
13860.77176468109
 20
4502.13656316905
 30
0.0
 40
0.7
100
AcDbArc
 50
275.0921697642102
 51
354.1866997666828
  0
LINE
  5
15D6D
330
747D
100
AcDbEntity
  8
部品1
 48
50.0
100
AcDbLine
 10
12590.14422886715
 20
2288.112805903256
 30
0.0
 11
12590.14422886715
 21
2188.112805903257
 31
0.0
  0
LINE
  5
15D6E
330
747D
100
AcDbEntity
  8
部品1
 48
50.0
100
AcDbLine
 10
12790.14422886715
 20
2288.112805903256
 30
0.0
 11
12790.14422886715
 21
2188.112805903257
 31
0.0
  0
LINE
  5
15D6F
330
747D
100
AcDbEntity
  8
部品1
100
AcDbLine
 10
12514.68921522411
 20
4794.863288203229
 30
0.0
 11
12840.14422886714
 21
4777.345229244369
 31
0.0
  0
TEXT
  5
15D70
330
747D
100
AcDbEntity
  8
部品1
100
AcDbText
 10
12407.85499717653
 20
1460.284935939624
 30
0.0
 40
135.0
  1
側面図
  7
STYLE2
100
AcDbText
  0
LWPOLYLINE
  5
15D71
330
747D
100
AcDbEntity
  8
部品1
100
AcDbPolyline
 90
        4
 70
     1
 43
0.0
 10
12318.40889575293
 20
1653.178465158147
 10
12318.40889575293
 20
1413.286143612615
 10
13081.87956198136
 20
1413.286143612615
 10
13081.87956198136
 20
1653.178465158147
  0
LINE
  5
15F12
330
747D
100
AcDbEntity
  8
部品1
100
AcDbLine
 10
11508.14422886715
 20
4413.799910811657
 30
0.0
 11
11508.14422886714
 21
2188.112805903256
 31
0.0
  0
LINE
  5
15F13
330
747D
100
AcDbEntity
  8
部品1
100
AcDbLine
 10
11508.14422886715
 20
4413.799910811657
 30
0.0
 11
11585.14422886714
 21
4428.112805903256
 31
0.0
  0
LINE
  5
15F14
330
747D
100
AcDbEntity
  8
部品1
100
AcDbLine
 10
11585.14422886714
 20
2288.112805903256
 30
0.0
 11
11508.14422886714
 21
2288.112805903256
 31
0.0
  0
DIMENSION
  5
15F2A
330
747D
100
AcDbEntity
  8
寸法
 48
50.0
100
AcDbDimension
  2
*D30
 10
11040.23558746989
 20
2354.112805903257
 30
0.0
 11
10948.22377644627
 21
3366.612805903259
 31
0.0
 70
    32
  1
有効開口部高サ<>
 71
     5
 42
2025.0
  3
INABA_S40
100
AcDbAlignedDimension
 13
11508.14422886715
 23
4379.112805903257
 33
0.0
 14
11508.14422886714
 24
2354.112805903256
 34
0.0
 50
90.0
100
AcDbRotatedDimension
1001
ACAD
1000
DSTYLE
1002
{
1070
    41
1040
0.5
1070
    44
1040
1.0
1070
   147
1040
0.8
1070
   271
1070
     2
1070
   272
1070
     2
1070
   289
1070
     3
1070
   340
1005
F706
1070
   343
1005
F744
1070
   344
1005
F744
1002
}
  0
TEXT
  5
160DC
330
747D
100
AcDbEntity
  8
文字
 62
     7
 48
50.0
100
AcDbText
 10
13583.11819016569
 20
9570.013745883727
 30
0.0
 40
100.0
  1
母屋中
  7
STYLE1
100
AcDbText
  0
TEXT
  5
160DD
330
747D
100
AcDbEntity
  8
文字
 62
     7
 48
50.0
100
AcDbText
 10
13248.77747366447
 20
8720.013745883729
 30
0.0
 40
100.0
  1
15
  7
STYLE1
100
AcDbText
  0
LINE
  5
160DE
330
747D
100
AcDbEntity
  8
仕様書枠
 48
50.0
100
AcDbLine
 10
16307.19999999998
 20
7839.600000000004
 30
0.0
 11
13127.19999999999
 21
7839.600000000006
 31
0.0
  0
TEXT
  5
160DF
330
747D
100
AcDbEntity
  8
文字
 62
     7
 48
50.0
100
AcDbText
 10
13583.11819016568
 20
8380.013745883731
 30
0.0
 40
100.0
  1
扉
  7
STYLE1
100
AcDbText
  0
TEXT
  5
160E0
330
747D
100
AcDbEntity
  8
文字
 62
     7
 48
50.0
100
AcDbText
 10
15022.63965474515
 20
8380.013745883728
 30
0.0
 40
100.0
  1
F12            0.8
  7
STYLE1
100
AcDbText
  0
TEXT
  5
160E1
330
747D
100
AcDbEntity
  8
文字
 62
     7
 48
50.0
100
AcDbText
 10
13583.11819016568
 20
8550.013745883731
 30
0.0
 40
100.0
  1
正面パネル
  7
STYLE1
100
AcDbText
  0
TEXT
  5
160E2
330
747D
100
AcDbEntity
  8
文字
 62
     7
 48
50.0
100
AcDbText
 10
15022.63965474515
 20
8550.013745883727
 30
0.0
 40
100.0
  1
F12            0.7
  7
STYLE1
100
AcDbText
  0
TEXT
  5
160E3
330
747D
100
AcDbEntity
  8
文字
 62
     7
 48
50.0
100
AcDbText
 10
15022.63965474517
 20
10590.01374588372
 30
0.0
 40
100.0
  1
F12            1.0
  7
STYLE1
100
AcDbText
  0
TEXT
  5
160E4
330
747D
100
AcDbEntity
  8
文字
 62
     7
 48
50.0
100
AcDbText
 10
15022.63965474516
 20
10930.01374588372
 30
0.0
 40
100.0
  1
F12            1.2
  7
STYLE1
100
AcDbText
  0
TEXT
  5
160E5
330
747D
100
AcDbEntity
  8
文字
 62
     7
 48
50.0
100
AcDbText
 10
13248.77747366448
 20
8890.013745883727
 30
0.0
 40
100.0
  1
14
  7
STYLE1
100
AcDbText
  0
TEXT
  5
160E6
330
747D
100
AcDbEntity
  8
文字
 62
     7
 48
50.0
100
AcDbText
 10
13583.11819016569
 20
10930.01374588372
 30
0.0
 40
100.0
  1
根太
  7
STYLE1
100
AcDbText
  0
TEXT
  5
160E7
330
747D
100
AcDbEntity
  8
文字
 62
     7
 48
50.0
100
AcDbText
 10
13583.1181901657
 20
10590.01374588373
 30
0.0
 40
100.0
  1
床パネル
 41
0.9
  7
STYLE1
100
AcDbText
  0
LINE
  5
160E8
330
747D
100
AcDbEntity
  8
仕様書枠
 48
50.0
100
AcDbLine
 10
16307.19999999999
 20
9029.6
 30
0.0
 11
13127.2
 21
9029.600000000002
 31
0.0
  0
LINE
  5
160E9
330
747D
100
AcDbEntity
  8
仕様書枠
 48
50.0
100
AcDbLine
 10
13127.2
 20
11409.6
 30
0.0
 11
13127.2
 21
7839.600000000007
 31
0.0
  0
TEXT
  5
160EA
330
747D
100
AcDbEntity
  8
文字
 62
     7
 48
50.0
100
AcDbText
 10
13229.83081656554
 20
7870.013745883733
 30
0.0
 40
100.0
  1
Y10→溶融亜鉛-5％アルミニウム合金めっき鋼板(JIS G 3317)
 41
0.9
  7
STYLE1
100
AcDbText
  0
TEXT
  5
160EB
330
747D
100
AcDbEntity
  8
文字
 62
     7
 48
50.0
100
AcDbText
 10
13229.83081656554
 20
8040.013745883731
 30
0.0
 40
100.0
  1
F12→溶融亜鉛めっき鋼板(JIS G 3302)
  7
STYLE1
100
AcDbText
  0
LINE
  5
160EC
330
747D
100
AcDbEntity
  8
仕様書枠
 48
50.0
100
AcDbLine
 10
16307.19999999999
 20
8009.600000000004
 30
0.0
 11
13127.19999999999
 21
8009.600000000006
 31
0.0
  0
LINE
  5
160ED
330
747D
100
AcDbEntity
  8
仕様書枠
 48
50.0
100
AcDbLine
 10
16307.19999999999
 20
8349.600000000004
 30
0.0
 11
13127.19999999999
 21
8349.600000000007
 31
0.0
  0
TEXT
  5
160EE
330
747D
100
AcDbEntity
  8
文字
 62
     7
 48
50.0
100
AcDbText
 10
15022.63965474515
 20
9230.013745883725
 30
0.0
 40
100.0
  1
F12            0.7
  7
STYLE1
100
AcDbText
  0
TEXT
  5
160EF
330
747D
100
AcDbEntity
  8
文字
 62
     7
 48
50.0
100
AcDbText
 10
15022.63965474517
 20
9740.013745883725
 30
0.0
 40
100.0
  1
Y10            0.5
  7
STYLE1
100
AcDbText
  0
TEXT
  5
160F0
330
747D
100
AcDbEntity
  8
文字
 62
     7
 48
50.0
100
AcDbText
 10
15022.63965474516
 20
10080.01374588372
 30
0.0
 40
100.0
  1
Y10            0.7
  7
STYLE1
100
AcDbText
  0
TEXT
  5
160F1
330
747D
100
AcDbEntity
  8
文字
 62
     7
 48
50.0
100
AcDbText
 10
15022.63965474516
 20
10250.01374588372
 30
0.0
 40
100.0
  1
Y10            0.7
  7
STYLE1
100
AcDbText
  0
TEXT
  5
160F2
330
747D
100
AcDbEntity
  8
文字
 62
     7
 48
50.0
100
AcDbText
 10
15022.63965474516
 20
10420.01374588372
 30
0.0
 40
100.0
  1
Y10            1.0
  7
STYLE1
100
AcDbText
  0
TEXT
  5
160F3
330
747D
100
AcDbEntity
  8
文字
 62
     7
 48
50.0
100
AcDbText
 10
15022.63965474518
 20
10760.01374588372
 30
0.0
 40
100.0
  1
F12            1.0
  7
STYLE1
100
AcDbText
  0
TEXT
  5
160F4
330
747D
100
AcDbEntity
  8
文字
 62
     7
 48
50.0
100
AcDbText
 10
15022.63965474517
 20
11100.01374588372
 30
0.0
 40
100.0
  1
F12            1.2
  7
STYLE1
100
AcDbText
  0
TEXT
  5
160F5
330
747D
100
AcDbEntity
  8
文字
 62
     7
 48
50.0
100
AcDbText
 10
13248.77747366448
 20
9230.013745883727
 30
0.0
 40
100.0
  1
12
  7
STYLE1
100
AcDbText
  0
TEXT
  5
160F6
330
747D
100
AcDbEntity
  8
文字
 62
     7
 48
50.0
100
AcDbText
 10
13248.77747366448
 20
9060.013745883727
 30
0.0
 40
100.0
  1
13
  7
STYLE1
100
AcDbText
  0
LINE
  5
160F7
330
747D
100
AcDbEntity
  8
仕様書枠
 48
50.0
100
AcDbLine
 10
16307.19999999999
 20
8859.6
 30
0.0
 11
13127.2
 21
8859.600000000002
 31
0.0
  0
LINE
  5
160F8
330
747D
100
AcDbEntity
  8
仕様書枠
 48
50.0
100
AcDbLine
 10
16307.19999999999
 20
9199.599999999998
 30
0.0
 11
13127.2
 21
9199.600000000001
 31
0.0
  0
TEXT
  5
160F9
330
747D
100
AcDbEntity
  8
文字
 62
     7
 48
50.0
100
AcDbText
 10
13248.77747366447
 20
9400.013745883727
 30
0.0
 40
100.0
  1
11
  7
STYLE1
100
AcDbText
  0
LINE
  5
160FA
330
747D
100
AcDbEntity
  8
仕様書枠
 48
50.0
100
AcDbLine
 10
16307.2
 20
9879.599999999999
 30
0.0
 11
13127.2
 21
9879.600000000001
 31
0.0
  0
LINE
  5
160FB
330
747D
100
AcDbEntity
  8
仕様書枠
 48
50.0
100
AcDbLine
 10
16307.2
 20
10219.6
 30
0.0
 11
13127.2
 21
10219.6
 31
0.0
  0
LINE
  5
160FC
330
747D
100
AcDbEntity
  8
仕様書枠
 48
50.0
100
AcDbLine
 10
16307.19999999999
 20
9539.599999999998
 30
0.0
 11
13127.2
 21
9539.6
 31
0.0
  0
LINE
  5
160FD
330
747D
100
AcDbEntity
  8
仕様書枠
 48
50.0
100
AcDbLine
 10
16307.19999999999
 20
9369.599999999998
 30
0.0
 11
13127.2
 21
9369.600000000001
 31
0.0
  0
LINE
  5
160FE
330
747D
100
AcDbEntity
  8
仕様書枠
 48
50.0
100
AcDbLine
 10
16307.19999999999
 20
9709.6
 30
0.0
 11
13127.2
 21
9709.600000000001
 31
0.0
  0
TEXT
  5
160FF
330
747D
100
AcDbEntity
  8
文字
 62
     7
 48
50.0
100
AcDbText
 10
13271.19032244792
 20
10250.01374588373
 30
0.0
 40
100.0
  1
6
  7
STYLE1
100
AcDbText
  0
TEXT
  5
16100
330
747D
100
AcDbEntity
  8
文字
 62
     7
 48
50.0
100
AcDbText
 10
13271.19032244792
 20
10080.01374588373
 30
0.0
 40
100.0
  1
7
  7
STYLE1
100
AcDbText
  0
TEXT
  5
16101
330
747D
100
AcDbEntity
  8
文字
 62
     7
 48
50.0
100
AcDbText
 10
13271.19032244792
 20
9740.013745883729
 30
0.0
 40
100.0
  1
9
  7
STYLE1
100
AcDbText
  0
TEXT
  5
16102
330
747D
100
AcDbEntity
  8
文字
 62
     7
 48
50.0
100
AcDbText
 10
13271.19032244792
 20
9910.01374588373
 30
0.0
 40
100.0
  1
8
  7
STYLE1
100
AcDbText
  0
TEXT
  5
16103
330
747D
100
AcDbEntity
  8
文字
 62
     7
 48
50.0
100
AcDbText
 10
13583.11819016569
 20
10080.01374588372
 30
0.0
 40
100.0
  1
鼻隠シ前後
  7
STYLE1
100
AcDbText
  0
TEXT
  5
16104
330
747D
100
AcDbEntity
  8
文字
 62
     7
 48
50.0
100
AcDbText
 10
13583.11819016569
 20
9740.013745883729
 30
0.0
 40
100.0
  1
屋根パネル
  7
STYLE1
100
AcDbText
  0
TEXT
  5
16105
330
747D
100
AcDbEntity
  8
文字
 62
     7
 48
50.0
100
AcDbText
 10
13583.11819016568
 20
9230.013745883729
 30
0.0
 40
100.0
  1
壁パネル
  7
STYLE1
100
AcDbText
  0
TEXT
  5
16106
330
747D
100
AcDbEntity
  8
文字
 62
     7
 48
50.0
100
AcDbText
 10
13248.77747366447
 20
9570.013745883727
 30
0.0
 40
100.0
  1
10
  7
STYLE1
100
AcDbText
  0
TEXT
  5
16107
330
747D
100
AcDbEntity
  8
文字
 62
     7
 48
50.0
100
AcDbText
 10
13583.11819016569
 20
10250.01374588373
 30
0.0
 40
100.0
  1
妻板左右
  7
STYLE1
100
AcDbText
  0
TEXT
  5
16108
330
747D
100
AcDbEntity
  8
文字
 62
     7
 48
50.0
100
AcDbText
 10
13271.19032244792
 20
10420.01374588372
 30
0.0
 40
100.0
  1
5
  7
STYLE1
100
AcDbText
  0
TEXT
  5
16109
330
747D
100
AcDbEntity
  8
文字
 62
     7
 48
50.0
100
AcDbText
 10
13583.11819016569
 20
10420.01374588373
 30
0.0
 40
100.0
  1
桁前後
  7
STYLE1
100
AcDbText
  0
TEXT
  5
1610A
330
747D
100
AcDbEntity
  8
文字
 62
     7
 48
50.0
100
AcDbText
 10
13583.1181901657
 20
10760.01374588372
 30
0.0
 40
100.0
  1
柱
  7
STYLE1
100
AcDbText
  0
TEXT
  5
1610B
330
747D
100
AcDbEntity
  8
文字
 62
     7
 48
50.0
100
AcDbText
 10
13583.11819016569
 20
11100.01374588373
 30
0.0
 40
100.0
  1
土台枠
  7
STYLE1
100
AcDbText
  0
TEXT
  5
1610C
330
747D
100
AcDbEntity
  8
文字
 62
     7
 48
50.0
100
AcDbText
 10
14859.79774614482
 20
11270.01374588372
 30
0.0
 40
100.0
  1
材料（材質）　　単位mm
  7
STYLE1
100
AcDbText
  0
TEXT
  5
1610D
330
747D
100
AcDbEntity
  8
文字
 62
     7
 48
50.0
100
AcDbText
 10
13732.03840939434
 20
11270.01374588372
 30
0.0
 40
100.0
  1
部　　品　　名
  7
STYLE1
100
AcDbText
  0
TEXT
  5
1610E
330
747D
100
AcDbEntity
  8
文字
 62
     7
 48
50.0
100
AcDbText
 10
13271.19032244792
 20
10760.01374588373
 30
0.0
 40
100.0
  1
3
  7
STYLE1
100
AcDbText
  0
TEXT
  5
1610F
330
747D
100
AcDbEntity
  8
文字
 62
     7
 48
50.0
100
AcDbText
 10
13271.19032244792
 20
10590.01374588373
 30
0.0
 40
100.0
  1
4
  7
STYLE1
100
AcDbText
  0
TEXT
  5
16110
330
747D
100
AcDbEntity
  8
文字
 62
     7
 48
50.0
100
AcDbText
 10
13271.19032244792
 20
10930.01374588373
 30
0.0
 40
100.0
  1
2
  7
STYLE1
100
AcDbText
  0
TEXT
  5
16111
330
747D
100
AcDbEntity
  8
文字
 62
     7
 48
50.0
100
AcDbText
 10
13271.19032244792
 20
11100.01374588373
 30
0.0
 40
100.0
  1
1
  7
STYLE1
100
AcDbText
  0
TEXT
  5
16112
330
747D
100
AcDbEntity
  8
文字
 62
     7
 48
50.0
100
AcDbText
 10
13197.42518560407
 20
11270.01374588372
 30
0.0
 40
100.0
  1
品番
  7
STYLE1
100
AcDbText
  0
LINE
  5
16113
330
747D
100
AcDbEntity
  8
仕様書枠
 48
50.0
100
AcDbLine
 10
16307.19999999999
 20
10729.6
 30
0.0
 11
13127.2
 21
10729.6
 31
0.0
  0
LINE
  5
16114
330
747D
100
AcDbEntity
  8
仕様書枠
 48
50.0
100
AcDbLine
 10
16307.19999999999
 20
10389.6
 30
0.0
 11
13127.2
 21
10389.6
 31
0.0
  0
LINE
  5
16115
330
747D
100
AcDbEntity
  8
仕様書枠
 48
50.0
100
AcDbLine
 10
16307.19999999999
 20
10559.6
 30
0.0
 11
13127.2
 21
10559.6
 31
0.0
  0
LINE
  5
16116
330
747D
100
AcDbEntity
  8
仕様書枠
 48
50.0
100
AcDbLine
 10
16307.2
 20
11069.6
 30
0.0
 11
13127.2
 21
11069.6
 31
0.0
  0
LINE
  5
16117
330
747D
100
AcDbEntity
  8
仕様書枠
 48
50.0
100
AcDbLine
 10
16307.2
 20
10899.6
 30
0.0
 11
13127.2
 21
10899.6
 31
0.0
  0
LINE
  5
16118
330
747D
100
AcDbEntity
  8
仕様書枠
 48
50.0
100
AcDbLine
 10
16307.2
 20
11239.6
 30
0.0
 11
13127.2
 21
11239.6
 31
0.0
  0
LINE
  5
16119
330
747D
100
AcDbEntity
  8
仕様書枠
 48
50.0
100
AcDbLine
 10
13490.2
 20
11409.6
 30
0.0
 11
13490.20000000001
 21
8179.600000000005
 31
0.0
  0
LINE
  5
1611A
330
747D
100
AcDbEntity
  8
仕様書枠
 48
50.0
100
AcDbLine
 10
14785.2
 20
11409.59999999999
 30
0.0
 11
14785.19999999999
 21
8179.600000000005
 31
0.0
  0
LINE
  5
1611B
330
747D
100
AcDbEntity
  8
仕様書枠
 48
50.0
100
AcDbLine
 10
16307.19999999999
 20
7839.600000000003
 30
0.0
 11
16307.2
 21
11409.6
 31
0.0
  0
LINE
  5
1611C
330
747D
100
AcDbEntity
  8
仕様書枠
 48
50.0
100
AcDbLine
 10
16307.2
 20
11409.6
 30
0.0
 11
13127.2
 21
11409.6
 31
0.0
  0
LINE
  5
1611D
330
747D
100
AcDbEntity
  8
仕様書枠
 48
50.0
100
AcDbLine
 10
16307.2
 20
10049.6
 30
0.0
 11
13127.2
 21
10049.6
 31
0.0
  0
TEXT
  5
1611E
330
747D
100
AcDbEntity
  8
文字
 62
     7
 48
50.0
100
AcDbText
 10
15022.63965474515
 20
8210.013745883724
 30
0.0
 40
100.0
  1
F12            2.3
  7
STYLE1
100
AcDbText
  0
TEXT
  5
1611F
330
747D
100
AcDbEntity
  8
文字
 62
     7
 48
50.0
100
AcDbText
 10
13583.11819016568
 20
8210.013745883729
 30
0.0
 40
100.0
  1
アンカープレート
  7
STYLE1
100
AcDbText
  0
LINE
  5
16120
330
747D
100
AcDbEntity
  8
仕様書枠
 48
50.0
100
AcDbLine
 10
16307.19999999999
 20
8519.600000000004
 30
0.0
 11
13127.2
 21
8519.600000000005
 31
0.0
  0
LINE
  5
16121
330
747D
100
AcDbEntity
  8
仕様書枠
 48
50.0
100
AcDbLine
 10
16307.19999999999
 20
8689.600000000003
 30
0.0
 11
13127.2
 21
8689.600000000005
 31
0.0
  0
TEXT
  5
16122
330
747D
100
AcDbEntity
  8
文字
 62
     7
 48
50.0
100
AcDbText
 10
13583.11819016568
 20
9060.013745883729
 30
0.0
 40
100.0
  1
壁面扉鴨居
  7
STYLE1
100
AcDbText
  0
TEXT
  5
16123
330
747D
100
AcDbEntity
  8
文字
 62
     7
 48
50.0
100
AcDbText
 10
13583.11819016568
 20
8890.013745883733
 30
0.0
 40
100.0
  1
壁面扉敷居
  7
STYLE1
100
AcDbText
  0
TEXT
  5
16124
330
747D
100
AcDbEntity
  8
文字
 62
     7
 48
50.0
100
AcDbText
 10
15022.63965474515
 20
9060.013745883727
 30
0.0
 40
100.0
  1
F12            0.7
  7
STYLE1
100
AcDbText
  0
TEXT
  5
16125
330
747D
100
AcDbEntity
  8
文字
 62
     7
 48
50.0
100
AcDbText
 10
15022.63965474517
 20
8890.013745883726
 30
0.0
 40
100.0
  1
F12            1.0
  7
STYLE1
100
AcDbText
  0
TEXT
  5
16126
330
747D
100
AcDbEntity
  8
文字
 62
     7
 48
50.0
100
AcDbText
 10
13583.11819016568
 20
8720.013745883733
 30
0.0
 40
100.0
  1
壁面扉枠左右
  7
STYLE1
100
AcDbText
  0
TEXT
  5
16127
330
747D
100
AcDbEntity
  8
文字
 62
     7
 48
50.0
100
AcDbText
 10
15022.63965474517
 20
8720.013745883726
 30
0.0
 40
100.0
  1
F12            1.0
  7
STYLE1
100
AcDbText
  0
TEXT
  5
16128
330
747D
100
AcDbEntity
  8
文字
 62
     7
 48
50.0
100
AcDbText
 10
13248.77747366447
 20
8550.013745883729
 30
0.0
 40
100.0
  1
16
  7
STYLE1
100
AcDbText
  0
TEXT
  5
16129
330
747D
100
AcDbEntity
  8
文字
 62
     7
 48
50.0
100
AcDbText
 10
13248.77747366447
 20
8380.013745883728
 30
0.0
 40
100.0
  1
17
  7
STYLE1
100
AcDbText
  0
TEXT
  5
1612A
330
747D
100
AcDbEntity
  8
文字
 62
     7
 48
50.0
100
AcDbText
 10
13583.1181901657
 20
9910.01374588373
 30
0.0
 40
100.0
  1
梁中
 41
0.9
  7
STYLE1
100
AcDbText
  0
TEXT
  5
1612B
330
747D
100
AcDbEntity
  8
文字
 62
     7
 48
50.0
100
AcDbText
 10
15022.63965474517
 20
9910.013745883727
 30
0.0
 40
100.0
  1
F12,Y10        1.0
  7
STYLE1
100
AcDbText
  0
LINE
  5
17077
330
747D
100
AcDbEntity
  8
部品1
 48
50.0
100
AcDbLine
 10
7140.404397928918
 20
2288.11280590326
 30
0.0
 11
7140.404397928918
 21
2188.11280590326
 31
0.0
  0
LINE
  5
17078
330
747D
100
AcDbEntity
  8
部品1
 48
50.0
100
AcDbLine
 10
7340.404397928918
 20
2288.11280590326
 30
0.0
 11
7340.404397928918
 21
2188.11280590326
 31
0.0
  0
LINE
  5
17079
330
747D
100
AcDbEntity
  8
部品1
 48
50.0
100
AcDbLine
 10
6448.404397928918
 20
2288.11280590326
 30
0.0
 11
6448.404397928918
 21
2188.11280590326
 31
0.0
  0
LINE
  5
1707A
330
747D
100
AcDbEntity
  8
部品1
 48
50.0
100
AcDbLine
 10
6648.404397928918
 20
2288.11280590326
 30
0.0
 11
6648.404397928918
 21
2188.11280590326
 31
0.0
  0
LINE
  5
1707B
330
747D
100
AcDbEntity
  8
部品1
 48
50.0
100
AcDbLine
 10
4438.404397928914
 20
2288.112805903256
 30
0.0
 11
4438.404397928914
 21
2188.112805903257
 31
0.0
  0
LINE
  5
1707C
330
747D
100
AcDbEntity
  8
部品1
 48
50.0
100
AcDbLine
 10
4238.404397928914
 20
2288.112805903256
 30
0.0
 11
4238.404397928914
 21
2188.112805903257
 31
0.0
  0
LINE
  5
1707D
330
747D
100
AcDbEntity
  8
部品1
 48
50.0
100
AcDbLine
 10
5130.404397928915
 20
2288.112805903256
 30
0.0
 11
5130.404397928915
 21
2188.112805903257
 31
0.0
  0
LINE
  5
1707E
330
747D
100
AcDbEntity
  8
部品1
 48
50.0
100
AcDbLine
 10
4930.404397928914
 20
2288.112805903256
 30
0.0
 11
4930.404397928914
 21
2188.112805903257
 31
0.0
  0
LINE
  5
1707F
330
747D
100
AcDbEntity
  8
破線
 48
10.0
100
AcDbLine
 10
7264.40439792891
 20
7413.649909480111
 30
0.0
 11
7264.404397928922
 21
9513.649909480115
 31
0.0
  0
LINE
  5
17080
330
747D
100
AcDbEntity
  8
破線
 48
10.0
100
AcDbLine
 10
7214.404397928918
 20
7413.649909480111
 30
0.0
 11
7214.404397928913
 21
9513.649909480115
 31
0.0
  0
LINE
  5
17081
330
747D
100
AcDbEntity
  8
破線
 48
10.0
100
AcDbLine
 10
6523.404397928922
 20
7413.649909480115
 30
0.0
 11
6523.40439792891
 21
9513.649909480113
 31
0.0
  0
LINE
  5
17082
330
747D
100
AcDbEntity
  8
破線
 48
10.0
100
AcDbLine
 10
6573.404397928912
 20
7413.649909480115
 30
0.0
 11
6573.404397928917
 21
9513.649909480113
 31
0.0
  0
LINE
  5
17083
330
747D
100
AcDbEntity
  8
破線
 48
10.0
100
AcDbLine
 10
4363.404397928909
 20
7413.649909480111
 30
0.0
 11
4363.404397928913
 21
9513.649909480115
 31
0.0
  0
LINE
  5
17084
330
747D
100
AcDbEntity
  8
破線
 48
10.0
100
AcDbLine
 10
4313.404397928918
 20
7413.649909480111
 30
0.0
 11
4313.404397928906
 21
9513.649909480115
 31
0.0
  0
LINE
  5
17085
330
747D
100
AcDbEntity
  8
破線
 48
10.0
100
AcDbLine
 10
5004.404397928914
 20
7413.64990948011
 30
0.0
 11
5004.404397928911
 21
9513.649909480117
 31
0.0
  0
LINE
  5
17086
330
747D
100
AcDbEntity
  8
破線
 48
10.0
100
AcDbLine
 10
5054.404397928905
 20
7413.64990948011
 30
0.0
 11
5054.404397928919
 21
9513.649909480117
 31
0.0
  0
LINE
  5
17087
330
747D
100
AcDbEntity
  8
破線
  6
HIDDEN
 48
10.0
100
AcDbLine
 10
3657.404397928891
 20
7437.149909480111
 30
0.0
 11
4313.404397928918
 21
7437.149909480109
 31
0.0
  0
LINE
  5
17088
330
747D
100
AcDbEntity
  8
破線
  6
HIDDEN
 48
10.0
100
AcDbLine
 10
4363.404397928909
 20
7437.149909480109
 30
0.0
 11
5004.404397928914
 21
7437.149909480108
 31
0.0
  0
LINE
  5
17089
330
747D
100
AcDbEntity
  8
破線
  6
HIDDEN
 48
10.0
100
AcDbLine
 10
5054.404397928905
 20
7437.149909480111
 30
0.0
 11
5710.404397928894
 21
7437.149909480108
 31
0.0
  0
LINE
  5
1708A
330
747D
100
AcDbEntity
  8
破線
  6
HIDDEN
 48
10.0
100
AcDbLine
 10
5867.404397928894
 20
7437.149909480114
 30
0.0
 11
6523.404397928922
 21
7437.149909480111
 31
0.0
  0
LINE
  5
1708B
330
747D
100
AcDbEntity
  8
破線
  6
HIDDEN
 48
10.0
100
AcDbLine
 10
6573.404397928912
 20
7437.149909480111
 30
0.0
 11
7214.404397928918
 21
7437.149909480108
 31
0.0
  0
LINE
  5
1708C
330
747D
100
AcDbEntity
  8
破線
  6
HIDDEN
 48
10.0
100
AcDbLine
 10
7264.40439792891
 20
7437.149909480114
 30
0.0
 11
7920.404397928898
 21
7437.149909480109
 31
0.0
  0
LINE
  5
1708D
330
747D
100
AcDbEntity
  8
破線
  6
HIDDEN
 48
10.0
100
AcDbLine
 10
5054.404397928919
 20
9490.149909480116
 30
0.0
 11
5710.404397928898
 21
9490.149909480118
 31
0.0
  0
LINE
  5
1708E
330
747D
100
AcDbEntity
  8
破線
  6
HIDDEN
 48
10.0
100
AcDbLine
 10
7214.404397928913
 20
9490.149909480114
 30
0.0
 11
6573.404397928917
 21
9490.149909480111
 31
0.0
  0
LINE
  5
17641
330
747D
100
AcDbEntity
  8
部品1
100
AcDbLine
 10
5778.904397928898
 20
4522.11280590326
 30
0.0
 11
5778.904397928897
 21
4663.112805903256
 31
0.0
  0
LINE
  5
1776F
330
747D
100
AcDbEntity
  8
寸法
 48
50.0
100
AcDbLine
 10
4069.107404210743
 20
7136.686661048972
 30
0.0
 11
4017.70139630064
 21
7136.686661048972
 31
0.0
  0
LINE
  5
17770
330
747D
100
AcDbEntity
  8
寸法
 48
50.0
100
AcDbLine
 10
4017.70139630064
 20
7136.686661048972
 30
0.0
 11
4017.70139630064
 21
7167.996819701139
 31
0.0
  0
LINE
  5
17771
330
747D
100
AcDbEntity
  8
寸法
 48
50.0
100
AcDbLine
 10
4017.70139630064
 20
7167.996819701139
 30
0.0
 11
3987.940064309217
 21
7167.996819701139
 31
0.0
  0
LINE
  5
17772
330
747D
100
AcDbEntity
  8
寸法
 48
50.0
100
AcDbLine
 10
3987.940064309217
 20
7167.996819701139
 30
0.0
 11
4043.404400255692
 21
7205.576270629748
 31
0.0
  0
LINE
  5
17773
330
747D
100
AcDbEntity
  8
寸法
 48
50.0
100
AcDbLine
 10
4098.868736202167
 20
7167.996819701139
 30
0.0
 11
4043.404400255692
 21
7205.576270629748
 31
0.0
  0
LINE
  5
17774
330
747D
100
AcDbEntity
  8
寸法
 48
50.0
100
AcDbLine
 10
4069.107404210743
 20
7167.996819701139
 30
0.0
 11
4098.868736202167
 21
7167.996819701139
 31
0.0
  0
LINE
  5
17775
330
747D
100
AcDbEntity
  8
寸法
 48
50.0
100
AcDbLine
 10
4069.107404210743
 20
7136.686661048972
 30
0.0
 11
4069.107404210743
 21
7167.996819701139
 31
0.0
  0
LINE
  5
17776
330
747D
100
AcDbEntity
  8
寸法
 48
50.0
100
AcDbLine
 10
4017.70139630064
 20
7136.686661048972
 30
0.0
 11
4069.107404210743
 21
7136.686661048972
 31
0.0
  0
LINE
  5
17777
330
747D
100
AcDbEntity
  8
寸法
 48
50.0
100
AcDbLine
 10
4348.272938487601
 20
7193.832251803795
 30
0.0
 11
4348.272938487601
 21
7140.168617222006
 31
0.0
  0
LINE
  5
17778
330
747D
100
AcDbEntity
  8
寸法
 48
50.0
100
AcDbLine
 10
4437.557157083023
 20
7169.90861753431
 30
0.0
 11
4348.272938487601
 21
7193.832251803795
 31
0.0
  0
LINE
  5
17779
330
747D
100
AcDbEntity
  8
寸法
 48
50.0
100
AcDbLine
 10
4218.405216907298
 20
7169.90861753431
 30
0.0
 11
4437.557157083023
 21
7169.90861753431
 31
0.0
  0
LINE
  5
1777A
330
747D
100
AcDbEntity
  8
細線
 48
50.0
100
AcDbLine
 10
5094.904397928903
 20
7335.150024428834
 30
0.0
 11
5721.904397928899
 21
7335.150024428834
 31
0.0
  0
LINE
  5
1777B
330
747D
100
AcDbEntity
  8
細線
 48
50.0
100
AcDbLine
 10
4440.904402582488
 20
7301.44125587476
 30
0.0
 11
5721.904397928899
 21
7301.44125587476
 31
0.0
  0
LINE
  5
1777C
330
747D
100
AcDbEntity
  8
細線
 48
50.0
100
AcDbLine
 10
4399.904402582492
 20
7330.846163871012
 30
0.0
 11
3645.904397928899
 21
7330.846163871008
 31
0.0
  0
LINE
  5
1777D
330
747D
100
AcDbEntity
  8
細線
100
AcDbLine
 10
5497.654388512443
 20
7354.649924393844
 30
0.0
 11
5499.985928034252
 21
7359.649927033804
 31
0.0
  0
LINE
  5
1777E
330
747D
100
AcDbEntity
  8
細線
100
AcDbLine
 10
5567.6543979289
 20
7354.649909480109
 30
0.0
 11
5565.322851452712
 21
7359.64992703379
 31
0.0
  0
LINE
  5
1777F
330
747D
100
AcDbEntity
  8
細線
100
AcDbLine
 10
5565.322851452712
 20
7359.64992703379
 30
0.0
 11
5499.985928034237
 21
7359.649927033776
 31
0.0
  0
LINE
  5
17780
330
747D
100
AcDbEntity
  8
細線
100
AcDbLine
 10
5425.322851452713
 20
7359.64992703379
 30
0.0
 11
5359.985928034237
 21
7359.649927033776
 31
0.0
  0
LINE
  5
17781
330
747D
100
AcDbEntity
  8
細線
100
AcDbLine
 10
5427.6543979289
 20
7354.649909480109
 30
0.0
 11
5425.322851452713
 21
7359.64992703379
 31
0.0
  0
LINE
  5
17782
330
747D
100
AcDbEntity
  8
細線
100
AcDbLine
 10
5357.654388512443
 20
7354.649924393844
 30
0.0
 11
5359.985928034252
 21
7359.649927033804
 31
0.0
  0
LINE
  5
17783
330
747D
100
AcDbEntity
  8
細線
100
AcDbLine
 10
5217.6543979289
 20
7354.649909480109
 30
0.0
 11
5219.985937450712
 21
7359.649912120071
 31
0.0
  0
LINE
  5
17784
330
747D
100
AcDbEntity
  8
細線
100
AcDbLine
 10
5287.65440734536
 20
7354.649894566375
 30
0.0
 11
5285.32286086917
 21
7359.649912120056
 31
0.0
  0
LINE
  5
17785
330
747D
100
AcDbEntity
  8
細線
100
AcDbLine
 10
5285.322860869174
 20
7359.649912120056
 30
0.0
 11
5219.985937450697
 21
7359.64991212004
 31
0.0
  0
LINE
  5
17786
330
747D
100
AcDbEntity
  8
細線
100
AcDbLine
 10
4990.072882118006
 20
7325.649948817439
 30
0.0
 11
4924.735958699531
 21
7325.649948817423
 31
0.0
  0
LINE
  5
17787
330
747D
100
AcDbEntity
  8
細線
100
AcDbLine
 10
4992.404428594194
 20
7320.649931263758
 30
0.0
 11
4990.072882118006
 21
7325.649948817439
 31
0.0
  0
LINE
  5
17788
330
747D
100
AcDbEntity
  8
細線
100
AcDbLine
 10
4922.404419177737
 20
7320.649946177491
 30
0.0
 11
4924.735958699546
 21
7325.649948817453
 31
0.0
  0
LINE
  5
17789
330
747D
100
AcDbEntity
  8
細線
 48
50.0
100
AcDbLine
 10
4763.787777176913
 20
7338.920772633191
 30
0.0
 11
4769.543294759581
 21
7320.649921342703
 31
0.0
  0
LINE
  5
1778A
330
747D
100
AcDbEntity
  8
細線
 48
50.0
100
AcDbLine
 10
4752.859328696483
 20
7338.920772633191
 30
0.0
 11
4763.787777176913
 21
7338.920772633191
 31
0.0
  0
ARC
  5
1778B
330
747D
100
AcDbEntity
  8
細線
 48
50.0
100
AcDbCircle
 10
4747.404972639161
 20
7340.420772633191
 30
0.0
 40
5.0
100
AcDbArc
 50
204.6243183521264
 51
335.3756816478736
  0
ARC
  5
1778C
330
747D
100
AcDbEntity
  8
細線
 48
50.0
100
AcDbCircle
 10
4752.859328696483
 20
7337.920772633189
 30
0.0
 40
1.0
100
AcDbArc
 50
90.0
 51
155.3756816478736
  0
ARC
  5
1778D
330
747D
100
AcDbEntity
  8
細線
 48
50.0
100
AcDbCircle
 10
4741.950616581847
 20
7337.920772633189
 30
0.0
 40
1.0
100
AcDbArc
 50
24.62431835212641
 51
90.0
  0
LINE
  5
1778E
330
747D
100
AcDbEntity
  8
細線
 48
50.0
100
AcDbLine
 10
4731.022168101413
 20
7338.920772633191
 30
0.0
 11
4741.950616581847
 21
7338.920772633191
 31
0.0
  0
LINE
  5
1778F
330
747D
100
AcDbEntity
  8
細線
 48
50.0
100
AcDbLine
 10
4725.266650518745
 20
7320.649921342696
 30
0.0
 11
4731.022168101413
 21
7338.920772633191
 31
0.0
  0
LINE
  5
17790
330
747D
100
AcDbEntity
  8
細線
100
AcDbLine
 10
4782.404420408777
 20
7320.6499187085
 30
0.0
 11
4784.73595993059
 21
7325.649921348461
 31
0.0
  0
LINE
  5
17791
330
747D
100
AcDbEntity
  8
細線
100
AcDbLine
 10
4852.404429825238
 20
7320.649903794766
 30
0.0
 11
4850.072883349048
 21
7325.649921348447
 31
0.0
  0
LINE
  5
17792
330
747D
100
AcDbEntity
  8
細線
100
AcDbLine
 10
4850.072883349048
 20
7325.649921348447
 30
0.0
 11
4784.735959930575
 21
7325.649921348432
 31
0.0
  0
LINE
  5
17793
330
747D
100
AcDbEntity
  8
細線
100
AcDbLine
 10
4710.07285498453
 20
7325.649921342666
 30
0.0
 11
4644.735931566055
 21
7325.649921342652
 31
0.0
  0
LINE
  5
17794
330
747D
100
AcDbEntity
  8
細線
100
AcDbLine
 10
4712.404401460718
 20
7320.649903788987
 30
0.0
 11
4710.07285498453
 21
7325.649921342666
 31
0.0
  0
LINE
  5
17795
330
747D
100
AcDbEntity
  8
細線
100
AcDbLine
 10
4642.404393275302
 20
7320.649921342696
 30
0.0
 11
4644.73593156607
 21
7325.649921342682
 31
0.0
  0
LINE
  5
17796
330
747D
100
AcDbEntity
  8
細線
100
AcDbLine
 10
4502.404428594194
 20
7320.649929530066
 30
0.0
 11
4504.735966884961
 21
7325.649929530051
 31
0.0
  0
LINE
  5
17797
330
747D
100
AcDbEntity
  8
細線
100
AcDbLine
 10
4572.404436779609
 20
7320.649911976357
 30
0.0
 11
4570.072890303422
 21
7325.649929530033
 31
0.0
  0
LINE
  5
17798
330
747D
100
AcDbEntity
  8
細線
100
AcDbLine
 10
4570.072890303422
 20
7325.649929530033
 30
0.0
 11
4504.735966884946
 21
7325.649929530022
 31
0.0
  0
LINE
  5
17799
330
747D
100
AcDbEntity
  8
細線
100
AcDbLine
 10
4130.904394397073
 20
7286.650101210779
 30
0.0
 11
4133.23593268784
 21
7291.650101210764
 31
0.0
  0
LINE
  5
1779A
330
747D
100
AcDbEntity
  8
細線
100
AcDbLine
 10
4200.904402582488
 20
7286.650083657065
 30
0.0
 11
4198.572856106301
 21
7291.650101210741
 31
0.0
  0
LINE
  5
1779B
330
747D
100
AcDbEntity
  8
細線
100
AcDbLine
 10
4198.572856106301
 20
7291.650101210741
 30
0.0
 11
4133.23593268783
 21
7291.650101210734
 31
0.0
  0
LINE
  5
1779C
330
747D
100
AcDbEntity
  8
細線
100
AcDbLine
 10
4338.572856106302
 20
7291.650101210741
 30
0.0
 11
4273.235932687829
 21
7291.650101210734
 31
0.0
  0
LINE
  5
1779D
330
747D
100
AcDbEntity
  8
細線
100
AcDbLine
 10
4340.904402582489
 20
7286.650083657065
 30
0.0
 11
4338.572856106302
 21
7291.650101210741
 31
0.0
  0
LINE
  5
1779E
330
747D
100
AcDbEntity
  8
細線
100
AcDbLine
 10
4270.904394397073
 20
7286.650101210779
 30
0.0
 11
4273.23593268784
 21
7291.650101210764
 31
0.0
  0
LINE
  5
1779F
330
747D
100
AcDbEntity
  8
細線
100
AcDbLine
 10
4058.572856106301
 20
7291.650101210741
 30
0.0
 11
3993.23593268783
 21
7291.650101210731
 31
0.0
  0
LINE
  5
177A0
330
747D
100
AcDbEntity
  8
細線
100
AcDbLine
 10
4060.904402582488
 20
7286.650083657065
 30
0.0
 11
4058.572856106301
 21
7291.650101210741
 31
0.0
  0
LINE
  5
177A1
330
747D
100
AcDbEntity
  8
細線
100
AcDbLine
 10
3990.904394397073
 20
7286.650101210774
 30
0.0
 11
3993.235932687841
 21
7291.65010121076
 31
0.0
  0
LINE
  5
177A2
330
747D
100
AcDbEntity
  8
細線
100
AcDbLine
 10
3850.904402582489
 20
7286.650101210779
 30
0.0
 11
3853.235940873257
 21
7291.650101210764
 31
0.0
  0
LINE
  5
177A3
330
747D
100
AcDbEntity
  8
細線
100
AcDbLine
 10
3920.904410767905
 20
7286.650083657065
 30
0.0
 11
3918.572864291718
 21
7291.650101210741
 31
0.0
  0
LINE
  5
177A4
330
747D
100
AcDbEntity
  8
細線
100
AcDbLine
 10
3918.572864291718
 20
7291.650101210741
 30
0.0
 11
3853.235940873246
 21
7291.650101210734
 31
0.0
  0
ARC
  5
177A5
330
747D
100
AcDbEntity
  8
部品1
 48
0.01
100
AcDbCircle
 10
3806.404291330153
 20
7285.648979025705
 30
0.0
 40
0.5
100
AcDbArc
 50
270.0
 51
0.0
  0
LINE
  5
177A6
330
747D
100
AcDbEntity
  8
部品1
 48
0.01
100
AcDbLine
 10
3806.904291330154
 20
7286.648979025706
 30
0.0
 11
3806.904291330154
 21
7285.648979025705
 31
0.0
  0
LINE
  5
177A7
330
747D
100
AcDbEntity
  8
部品1
 48
0.01
100
AcDbLine
 10
3806.904291330154
 20
7286.648979025706
 30
0.0
 11
3806.904291330154
 21
7285.648979025705
 31
0.0
  0
LINE
  5
177A8
330
747D
100
AcDbEntity
  8
部品1
 48
0.01
100
AcDbLine
 10
3806.404291330153
 20
7285.148979025706
 30
0.0
 11
3799.791785900089
 21
7285.148979025706
 31
0.0
  0
ARC
  5
177A9
330
747D
100
AcDbEntity
  8
部品1
100
AcDbCircle
 10
3799.86013545287
 20
7286.148979025705
 30
0.0
 40
1.0
100
AcDbArc
 50
160.5287793655822
 51
270.0
  0
ARC
  5
177AA
330
747D
100
AcDbEntity
  8
部品1
100
AcDbCircle
 10
3774.404291330153
 20
7295.148979025706
 30
0.0
 40
26.0
100
AcDbArc
 50
340.5287793655822
 51
0.0
  0
LINE
  5
177AB
330
747D
100
AcDbEntity
  8
部品1
100
AcDbLine
 10
3800.404291330154
 20
7295.148979025706
 30
0.0
 11
3800.404291330154
 21
7300.148979025705
 31
0.0
  0
ARC
  5
177AC
330
747D
100
AcDbEntity
  8
部品1
 48
0.01
100
AcDbCircle
 10
3798.404291330154
 20
7300.148979025705
 30
0.0
 40
2.0
100
AcDbArc
 50
0.0
 51
90.0
  0
ARC
  5
177AD
330
747D
100
AcDbEntity
  8
部品1
100
AcDbCircle
 10
3796.795899705344
 20
7299.148979025706
 30
0.0
 40
3.0
100
AcDbArc
 50
90.0
 51
141.6069559807883
  0
LINE
  5
177AE
330
747D
100
AcDbEntity
  8
部品1
 48
0.01
100
AcDbLine
 10
3798.404291330154
 20
7302.148979025706
 30
0.0
 11
3796.795899705344
 21
7302.148979025706
 31
0.0
  0
ARC
  5
177AF
330
747D
100
AcDbEntity
  8
部品1
100
AcDbCircle
 10
3778.333577115883
 20
7298.448979025708
 30
0.0
 40
3.0
100
AcDbArc
 50
254.0576313943199
 51
270.0
  0
ARC
  5
177B0
330
747D
100
AcDbEntity
  8
部品1
100
AcDbCircle
 10
3785.475005544425
 20
7298.448979025708
 30
0.0
 40
3.0
100
AcDbArc
 50
270.0
 51
285.9423686056802
  0
LINE
  5
177B1
330
747D
100
AcDbEntity
  8
部品1
100
AcDbLine
 10
3785.475005544425
 20
7295.448979025708
 30
0.0
 11
3778.333577115883
 21
7295.448979025708
 31
0.0
  0
ARC
  5
177B2
330
747D
100
AcDbEntity
  8
部品1
100
AcDbCircle
 10
3781.904291330154
 20
7310.948979025709
 30
0.0
 40
16.0
100
AcDbArc
 50
285.9423686056802
 51
321.6069559807884
  0
LINE
  5
177B3
330
747D
100
AcDbEntity
  8
部品1
 48
0.01
100
AcDbLine
 10
3765.404291330154
 20
7302.148979025706
 30
0.0
 11
3767.012682954964
 21
7302.148979025706
 31
0.0
  0
ARC
  5
177B4
330
747D
100
AcDbEntity
  8
部品1
100
AcDbCircle
 10
3767.012682954964
 20
7299.148979025706
 30
0.0
 40
3.0
100
AcDbArc
 50
38.39304401921166
 51
90.0
  0
ARC
  5
177B5
330
747D
100
AcDbEntity
  8
部品1
100
AcDbCircle
 10
3781.904291330154
 20
7310.948979025709
 30
0.0
 40
16.0
100
AcDbArc
 50
218.3930440192117
 51
254.0576313943199
  0
LINE
  5
177B6
330
747D
100
AcDbEntity
  8
部品1
100
AcDbLine
 10
3763.404291330154
 20
7295.148979025706
 30
0.0
 11
3763.404291330154
 21
7300.148979025705
 31
0.0
  0
ARC
  5
177B7
330
747D
100
AcDbEntity
  8
部品1
 48
0.01
100
AcDbCircle
 10
3765.404291330154
 20
7300.148979025705
 30
0.0
 40
2.0
100
AcDbArc
 50
90.0
 51
180.0
  0
ARC
  5
177B8
330
747D
100
AcDbEntity
  8
部品1
100
AcDbCircle
 10
3789.404291330154
 20
7295.148979025706
 30
0.0
 40
26.0
100
AcDbArc
 50
180.0
 51
199.4712206344178
  0
ARC
  5
177B9
330
747D
100
AcDbEntity
  8
部品1
 48
0.01
100
AcDbCircle
 10
3757.404291330154
 20
7285.648979025705
 30
0.0
 40
0.5
100
AcDbArc
 50
180.0
 51
270.0
  0
LINE
  5
177BA
330
747D
100
AcDbEntity
  8
部品1
 48
0.01
100
AcDbLine
 10
3757.404291330154
 20
7285.148979025706
 30
0.0
 11
3763.948447207437
 21
7285.148979025706
 31
0.0
  0
LINE
  5
177BB
330
747D
100
AcDbEntity
  8
部品1
 48
0.01
100
AcDbLine
 10
3756.904291330154
 20
7286.648979025706
 30
0.0
 11
3756.904291330154
 21
7285.648979025705
 31
0.0
  0
ARC
  5
177BC
330
747D
100
AcDbEntity
  8
部品1
100
AcDbCircle
 10
3763.948447207437
 20
7286.148979025705
 30
0.0
 40
1.0
100
AcDbArc
 50
270.0
 51
19.4712206344178
  0
LINE
  5
177BD
330
747D
100
AcDbEntity
  8
細線
100
AcDbLine
 10
3802.404291330161
 20
7304.64897902571
 30
0.0
 11
3761.404291330161
 21
7304.648979025703
 31
0.0
  0
LINE
  5
177BE
330
747D
100
AcDbEntity
  8
細線
100
AcDbLine
 10
3761.404291330161
 20
7304.648979025703
 30
0.0
 11
3761.404291330161
 21
7286.648979025684
 31
0.0
  0
LINE
  5
177BF
330
747D
100
AcDbEntity
  8
細線
100
AcDbLine
 10
3802.404291330161
 20
7304.64897902571
 30
0.0
 11
3802.404291330161
 21
7286.648979025684
 31
0.0
  0
LINE
  5
177C0
330
747D
100
AcDbEntity
  8
細線
100
AcDbLine
 10
3645.904397928899
 20
7290.649909480109
 30
0.0
 11
3645.904397928899
 21
7286.649909480157
 31
0.0
  0
DIMENSION
  5
177C1
330
747D
100
AcDbEntity
  8
寸法
 48
50.0
100
AcDbDimension
  2
*D46
 10
4911.904397928899
 20
6617.785451739975
 30
0.0
 11
4297.999357966793
 21
6617.785451739975
 31
0.0
 70
   160
  1
有効開口部間口\P<>
 71
     5
 42
1266.0
  3
INABA_S40
100
AcDbAlignedDimension
 13
3645.904397928899
 23
7281.649909480108
 33
0.0
 14
4911.904397928899
 24
7281.649909480108
 34
0.0
100
AcDbRotatedDimension
1001
ACAD
1000
DSTYLE
1002
{
1070
    41
1040
0.5
1070
    44
1040
1.0
1070
   147
1040
0.8
1070
   271
1070
     2
1070
   272
1070
     2
1070
   289
1070
     3
1070
   340
1005
F706
1070
   343
1005
F744
1070
   344
1005
F744
1002
}
  0
LINE
  5
177C2
330
747D
100
AcDbEntity
  8
部品1
100
AcDbLine
 10
5733.904397928899
 20
7358.649909480108
 30
0.0
 11
5760.904397928899
 21
7358.64990948011
 31
0.0
  0
LINE
  5
177C4
330
747D
100
AcDbEntity
  8
部品1
100
AcDbLine
 10
5760.904397928899
 20
7281.649909480108
 30
0.0
 11
5760.904397928899
 21
7358.64990948011
 31
0.0
  0
LINE
  5
177C5
330
747D
100
AcDbEntity
  8
部品1
100
AcDbLine
 10
5721.904397928899
 20
7354.649909480109
 30
0.0
 11
5733.904397928899
 21
7354.649909480109
 31
0.0
  0
LINE
  5
177C6
330
747D
100
AcDbEntity
  8
部品1
100
AcDbLine
 10
5730.904397928899
 20
7290.649909480109
 30
0.0
 11
5730.904397928899
 21
7281.649909480108
 31
0.0
  0
LINE
  5
177C7
330
747D
100
AcDbEntity
  8
部品1
100
AcDbLine
 10
5721.904397928899
 20
7290.649909480109
 30
0.0
 11
5730.904397928899
 21
7290.649909480109
 31
0.0
  0
LINE
  5
177C8
330
747D
100
AcDbEntity
  8
部品1
100
AcDbLine
 10
5721.904397928899
 20
7354.649909480109
 30
0.0
 11
5721.904397928899
 21
7290.649909480109
 31
0.0
  0
LINE
  5
177C9
330
747D
100
AcDbEntity
  8
部品1
100
AcDbLine
 10
5733.904397928899
 20
7385.649909480111
 30
0.0
 11
5733.904397928899
 21
7354.649909480109
 31
0.0
  0
LINE
  5
177CA
330
747D
100
AcDbEntity
  8
部品1
100
AcDbLine
 10
3645.904397928899
 20
7354.649909480109
 30
0.0
 11
3633.904397928899
 21
7354.649909480109
 31
0.0
  0
LINE
  5
177CB
330
747D
100
AcDbEntity
  8
部品1
100
AcDbLine
 10
3606.904397928899
 20
7358.64990948011
 30
0.0
 11
3633.904397928898
 21
7358.64990948011
 31
0.0
  0
LINE
  5
177CC
330
747D
100
AcDbEntity
  8
部品1
100
AcDbLine
 10
3636.904397928899
 20
7290.649909480109
 30
0.0
 11
3636.904397928899
 21
7281.649909480108
 31
0.0
  0
LINE
  5
177CD
330
747D
100
AcDbEntity
  8
部品1
100
AcDbLine
 10
3645.904397928899
 20
7290.649909480109
 30
0.0
 11
3636.904397928899
 21
7290.649909480109
 31
0.0
  0
LINE
  5
177CE
330
747D
100
AcDbEntity
  8
部品1
100
AcDbLine
 10
3636.904397928899
 20
7281.649909480108
 30
0.0
 11
3606.904397928899
 21
7281.649909480108
 31
0.0
  0
LINE
  5
177CF
330
747D
100
AcDbEntity
  8
部品1
100
AcDbLine
 10
3606.904397928899
 20
7281.649909480108
 30
0.0
 11
3606.904397928899
 21
7358.64990948011
 31
0.0
  0
LINE
  5
177D0
330
747D
100
AcDbEntity
  8
部品1
100
AcDbLine
 10
3645.904397928899
 20
7354.649909480109
 30
0.0
 11
3645.904397928899
 21
7290.649909480109
 31
0.0
  0
LINE
  5
177D1
330
747D
100
AcDbEntity
  8
部品1
100
AcDbLine
 10
3633.904397928898
 20
7385.649909480105
 30
0.0
 11
3633.904397928899
 21
7354.649909480109
 31
0.0
  0
LINE
  5
177D2
330
747D
100
AcDbEntity
  8
部品1
100
AcDbLine
 10
3633.904397928898
 20
7385.649909480105
 30
0.0
 11
5733.904397928899
 21
7385.649909480111
 31
0.0
  0
LINE
  5
177D3
330
747D
100
AcDbEntity
  8
部品1
100
AcDbLine
 10
5730.904397928899
 20
7281.649909480108
 30
0.0
 11
5760.904397928899
 21
7281.649909480108
 31
0.0
  0
LINE
  5
177D4
330
747D
100
AcDbEntity
  8
部品1
100
AcDbLine
 10
3636.904397928899
 20
7281.649909480108
 30
0.0
 11
5733.904397928899
 21
7281.649909480108
 31
0.0
  0
LINE
  5
177D5
330
747D
100
AcDbEntity
  8
細線
  6
Continuous
 62
     5
100
AcDbLine
 10
5012.904397928902
 20
7320.649909480106
 30
0.0
 11
5012.904397928902
 21
7320.649909480106
 31
0.0
  0
LINE
  5
177D6
330
747D
100
AcDbEntity
  8
細線
  6
Continuous
 62
     5
100
AcDbLine
 10
5005.404433247794
 20
7320.649919401162
 30
0.0
 11
5005.404433247794
 21
7320.649919401162
 31
0.0
  0
LINE
  5
177D7
330
747D
100
AcDbEntity
  8
細線
  6
Continuous
 62
     5
100
AcDbLine
 10
4999.404433247794
 20
7320.649919401162
 30
0.0
 11
4999.404433247794
 21
7320.649919401162
 31
0.0
  0
LINE
  5
177D8
330
747D
100
AcDbEntity
  8
細線
  6
Continuous
 62
     5
100
AcDbLine
 10
5066.904397928903
 20
7339.649909480105
 30
0.0
 11
5066.904397928903
 21
7339.649909480105
 31
0.0
  0
LINE
  5
177D9
330
747D
100
AcDbEntity
  8
細線
 48
50.0
100
AcDbLine
 10
3659.904402582493
 20
7307.250083657064
 30
0.0
 11
3659.904402582493
 21
7315.646234064704
 31
0.0
  0
LINE
  5
177DA
330
747D
100
AcDbEntity
  8
細線
 48
50.0
100
AcDbLine
 10
3659.904402582493
 20
7315.646234064704
 30
0.0
 11
3645.904397928899
 21
7315.6462340647
 31
0.0
  0
LINE
  5
177DB
330
747D
100
AcDbEntity
  8
細線
 48
50.0
100
AcDbLine
 10
4410.904402582488
 20
7303.800083657063
 30
0.0
 11
4410.904402582488
 21
7308.650083657065
 31
0.0
  0
LINE
  5
177DC
330
747D
100
AcDbEntity
  8
細線
 48
50.0
100
AcDbLine
 10
4410.904402582488
 20
7308.650083657065
 30
0.0
 11
4425.904402582488
 21
7308.650083657065
 31
0.0
  0
LINE
  5
177DD
330
747D
100
AcDbEntity
  8
細線
 48
50.0
100
AcDbLine
 10
4425.904402582488
 20
7308.650083657065
 30
0.0
 11
4425.904402582492
 21
7315.650083657065
 31
0.0
  0
LINE
  5
177DE
330
747D
100
AcDbEntity
  8
細線
 48
50.0
100
AcDbLine
 10
4425.904402582492
 20
7315.650083657065
 30
0.0
 11
4440.904402582488
 21
7315.650083657065
 31
0.0
  0
LINE
  5
177DF
330
747D
100
AcDbEntity
  8
細線
 48
50.0
100
AcDbLine
 10
4440.904402582488
 20
7315.650083657065
 30
0.0
 11
4440.904402582488
 21
7286.650083657065
 31
0.0
  0
LINE
  5
177E0
330
747D
100
AcDbEntity
  8
細線
 48
50.0
100
AcDbLine
 10
3636.904397928899
 20
7286.647418000534
 30
0.0
 11
3850.904402582489
 21
7286.650101210779
 31
0.0
  0
LINE
  5
177E1
330
747D
100
AcDbEntity
  8
細線
 48
50.0
100
AcDbLine
 10
4340.904402582489
 20
7286.650083657065
 30
0.0
 11
4440.904402582488
 21
7286.650083657065
 31
0.0
  0
LINE
  5
177E2
330
747D
100
AcDbEntity
  8
細線
 48
50.0
100
AcDbLine
 10
4060.904402582488
 20
7286.650083657065
 30
0.0
 11
4130.904402582489
 21
7286.650083657065
 31
0.0
  0
LINE
  5
177E3
330
747D
100
AcDbEntity
  8
細線
 48
50.0
100
AcDbLine
 10
4073.766367595018
 20
7286.650083657065
 30
0.0
 11
4079.521885177685
 21
7304.920934947559
 31
0.0
  0
LINE
  5
177E4
330
747D
100
AcDbEntity
  8
細線
 48
50.0
100
AcDbLine
 10
4079.521885177685
 20
7304.920934947559
 30
0.0
 11
4090.450333658119
 21
7304.920934947555
 31
0.0
  0
ARC
  5
177E5
330
747D
100
AcDbEntity
  8
細線
 48
50.0
100
AcDbCircle
 10
4090.450333658119
 20
7303.920934947555
 30
0.0
 40
1.0
100
AcDbArc
 50
24.62431835212641
 51
90.0
  0
ARC
  5
177E6
330
747D
100
AcDbEntity
  8
細線
 48
50.0
100
AcDbCircle
 10
4101.359045772752
 20
7303.920934947555
 30
0.0
 40
1.0
100
AcDbArc
 50
90.0
 51
155.3756816478736
  0
ARC
  5
177E7
330
747D
100
AcDbEntity
  8
細線
 48
50.0
100
AcDbCircle
 10
4095.904689715434
 20
7306.420934947555
 30
0.0
 40
5.0
100
AcDbArc
 50
204.6243183521264
 51
335.3756816478736
  0
LINE
  5
177E8
330
747D
100
AcDbEntity
  8
細線
 48
50.0
100
AcDbLine
 10
4101.359045772752
 20
7304.920934947555
 30
0.0
 11
4112.287494253187
 21
7304.920934947559
 31
0.0
  0
LINE
  5
177E9
330
747D
100
AcDbEntity
  8
細線
 48
50.0
100
AcDbLine
 10
4112.287494253187
 20
7304.920934947559
 30
0.0
 11
4118.043011835854
 21
7286.650083657065
 31
0.0
  0
LINE
  5
177EA
330
747D
100
AcDbEntity
  8
細線
 48
50.0
100
AcDbLine
 10
4410.904402582488
 20
7307.250083657064
 30
0.0
 11
3659.904402582493
 21
7307.250083657064
 31
0.0
  0
LINE
  5
177EB
330
747D
100
AcDbEntity
  8
細線
 48
50.0
100
AcDbLine
 10
4270.904402582488
 20
7286.650083657065
 30
0.0
 11
4200.904402582488
 21
7286.650083657065
 31
0.0
  0
LINE
  5
177EC
330
747D
100
AcDbEntity
  8
細線
100
AcDbLine
 10
3990.904402582489
 20
7286.650083657065
 30
0.0
 11
3920.904410767905
 21
7286.650083657065
 31
0.0
  0
LINE
  5
177ED
330
747D
100
AcDbEntity
  8
細線
 48
50.0
100
AcDbLine
 10
5064.904393275313
 20
7341.250127514932
 30
0.0
 11
4429.904402582489
 21
7341.250127514928
 31
0.0
  0
LINE
  5
177EE
330
747D
100
AcDbEntity
  8
細線
 48
50.0
100
AcDbLine
 10
4429.904402582489
 20
7338.146277922572
 30
0.0
 11
4429.904402582489
 21
7342.646277922572
 31
0.0
  0
LINE
  5
177EF
330
747D
100
AcDbEntity
  8
細線
 48
50.0
100
AcDbLine
 10
4429.904402582489
 20
7342.646277922572
 30
0.0
 11
4414.904402582489
 21
7342.646277922572
 31
0.0
  0
LINE
  5
177F0
330
747D
100
AcDbEntity
  8
細線
 48
50.0
100
AcDbLine
 10
4414.904402582489
 20
7342.646277922572
 30
0.0
 11
4414.904402582489
 21
7349.646277922571
 31
0.0
  0
LINE
  5
177F1
330
747D
100
AcDbEntity
  8
細線
 48
50.0
100
AcDbLine
 10
4414.904402582489
 20
7349.646277922571
 30
0.0
 11
4399.904402582492
 21
7349.646277922568
 31
0.0
  0
LINE
  5
177F2
330
747D
100
AcDbEntity
  8
細線
 48
50.0
100
AcDbLine
 10
4399.904402582492
 20
7349.646277922568
 30
0.0
 11
4399.904402582492
 21
7312.046049819457
 31
0.0
  0
LINE
  5
177F3
330
747D
100
AcDbEntity
  8
細線
 48
50.0
100
AcDbLine
 10
4399.904402582492
 20
7312.046049819457
 30
0.0
 11
4419.904409883665
 21
7312.046091368998
 31
0.0
  0
LINE
  5
177F4
330
747D
100
AcDbEntity
  8
細線
 48
50.0
100
AcDbLine
 10
4419.904365014722
 20
7320.649553004807
 30
0.0
 11
4419.904409883665
 21
7312.046091368998
 31
0.0
  0
LINE
  5
177F5
330
747D
100
AcDbEntity
  8
細線
 48
50.0
100
AcDbLine
 10
5064.904393275313
 20
7337.800127514931
 30
0.0
 11
5064.904393275313
 21
7342.650127514929
 31
0.0
  0
LINE
  5
177F6
330
747D
100
AcDbEntity
  8
細線
 48
50.0
100
AcDbLine
 10
5064.904393275313
 20
7342.650127514929
 30
0.0
 11
5079.90439327531
 21
7342.650127514929
 31
0.0
  0
LINE
  5
177F7
330
747D
100
AcDbEntity
  8
細線
 48
50.0
100
AcDbLine
 10
5079.90439327531
 20
7342.650127514929
 30
0.0
 11
5079.904404909285
 21
7349.650127514973
 31
0.0
  0
LINE
  5
177F8
330
747D
100
AcDbEntity
  8
細線
 48
50.0
100
AcDbLine
 10
5079.904404909285
 20
7349.650127514973
 30
0.0
 11
5094.904403079815
 21
7349.650127514973
 31
0.0
  0
LINE
  5
177F9
330
747D
100
AcDbEntity
  8
細線
 48
50.0
100
AcDbLine
 10
5094.904403079815
 20
7349.650127514973
 30
0.0
 11
5094.904392777994
 21
7320.649921342699
 31
0.0
  0
LINE
  5
177FA
330
747D
100
AcDbEntity
  8
細線
 48
50.0
100
AcDbLine
 10
4782.404420408777
 20
7320.649929530066
 30
0.0
 11
4712.404672491194
 21
7320.649924092728
 31
0.0
  0
LINE
  5
177FB
330
747D
100
AcDbEntity
  8
細線
 48
50.0
100
AcDbLine
 10
4419.904365014722
 20
7320.649553004807
 30
0.0
 11
4431.137054369433
 21
7320.649735957953
 31
0.0
  0
ARC
  5
177FC
330
747D
100
AcDbEntity
  8
細線
 48
50.0
100
AcDbCircle
 10
4437.719346676768
 20
7319.449899871566
 30
0.0
 40
1.8
100
AcDbArc
 50
270.0006665777295
 51
345.0005554812979
  0
LINE
  5
177FD
330
747D
100
AcDbEntity
  8
細線
 48
50.0
100
AcDbLine
 10
4439.705780122848
 20
7319.908740328845
 30
0.0
 11
4439.458017680649
 21
7318.984042446739
 31
0.0
  0
LINE
  5
177FE
330
747D
100
AcDbEntity
  8
細線
 48
50.0
100
AcDbLine
 10
4437.719367617924
 20
7317.649899871686
 30
0.0
 11
4434.089440199154
 21
7317.649857641207
 31
0.0
  0
ARC
  5
177FF
330
747D
100
AcDbEntity
  8
細線
 48
50.0
100
AcDbCircle
 10
4434.089419258003
 20
7319.449857641086
 30
0.0
 40
1.8
100
AcDbArc
 50
195.0010443049453
 51
270.0006665777295
  0
LINE
  5
17800
330
747D
100
AcDbEntity
  8
細線
 48
50.0
100
AcDbLine
 10
4432.102991765744
 20
7319.908572608651
 30
0.0
 11
4432.350761262257
 21
7318.983951670069
 31
0.0
  0
ARC
  5
17801
330
747D
100
AcDbEntity
  8
細線
 48
50.0
100
AcDbCircle
 10
4431.137070656995
 20
7319.649735958089
 30
0.0
 40
1.0
100
AcDbArc
 50
15.00104430494533
 51
90.00093320877969
  0
LINE
  5
17802
330
747D
100
AcDbEntity
  8
細線
 48
50.0
100
AcDbLine
 10
4440.671701477951
 20
7320.649930648357
 30
0.0
 11
4441.613461628855
 21
7320.649937222208
 31
0.0
  0
ARC
  5
17803
330
747D
100
AcDbEntity
  8
細線
 48
50.0
100
AcDbCircle
 10
4440.671708458337
 20
7319.649930648385
 30
0.0
 40
1.0
100
AcDbArc
 50
90.0003999466794
 51
165.0005554812978
  0
LINE
  5
17804
330
747D
100
AcDbEntity
  8
細線
 48
50.0
100
AcDbLine
 10
4992.404393275302
 20
7320.649921342699
 30
0.0
 11
5094.904392777994
 21
7320.649921342699
 31
0.0
  0
LINE
  5
17805
330
747D
100
AcDbEntity
  8
細線
 48
50.0
100
AcDbLine
 10
4502.404428594194
 20
7320.649929530066
 30
0.0
 11
4441.304367367274
 21
7320.649937222208
 31
0.0
  0
LINE
  5
17806
330
747D
100
AcDbEntity
  8
細線
 48
50.0
100
AcDbLine
 10
4922.404428594194
 20
7320.649966371148
 30
0.0
 11
4852.404421639808
 21
7320.64992134848
 31
0.0
  0
LINE
  5
17807
330
747D
100
AcDbEntity
  8
細線
 48
50.0
100
AcDbLine
 10
4642.404393275302
 20
7320.649921342696
 30
0.0
 11
4572.404375987427
 21
7320.649921342703
 31
0.0
  0
ARC
  5
17808
330
747D
100
AcDbEntity
  8
細線
 48
50.0
100
AcDbCircle
 10
5079.104397928911
 20
7353.84990948011
 30
0.0
 40
0.8
100
AcDbArc
 50
359.9997333689499
 51
89.99986668437072
  0
ARC
  5
17809
330
747D
100
AcDbEntity
  8
細線
 48
50.0
100
AcDbCircle
 10
5086.704404754005
 20
7353.849920648727
 30
0.0
 40
0.8
100
AcDbArc
 50
90.00014387753465
 51
179.9997333689498
  0
LINE
  5
1780A
330
747D
100
AcDbEntity
  8
細線
 48
50.0
100
AcDbLine
 10
5079.104399790344
 20
7354.649909480109
 30
0.0
 11
5073.904397928899
 21
7354.649909480109
 31
0.0
  0
ARC
  5
1780B
330
747D
100
AcDbEntity
  8
細線
 48
50.0
100
AcDbCircle
 10
5080.6043979289
 20
7352.34990948011
 30
0.0
 40
0.7
100
AcDbArc
 50
180.0
 51
270.0
  0
ARC
  5
1780C
330
747D
100
AcDbEntity
  8
細線
 48
50.0
100
AcDbCircle
 10
5085.204397928902
 20
7352.34990948011
 30
0.0
 40
0.7
100
AcDbArc
 50
270.0
 51
0.0
  0
LINE
  5
1780D
330
747D
100
AcDbEntity
  8
細線
 48
50.0
100
AcDbLine
 10
5085.904397928899
 20
7352.34990948011
 30
0.0
 11
5085.904404754017
 21
7353.849924371598
 31
0.0
  0
LINE
  5
1780E
330
747D
100
AcDbEntity
  8
細線
 48
50.0
100
AcDbLine
 10
5080.6043979289
 20
7351.649909480109
 30
0.0
 11
5085.204397928902
 21
7351.649909480109
 31
0.0
  0
LINE
  5
1780F
330
747D
100
AcDbEntity
  8
細線
 48
50.0
100
AcDbLine
 10
5079.904397928899
 20
7353.84990948011
 30
0.0
 11
5079.904397928899
 21
7352.34990948011
 31
0.0
  0
LINE
  5
17810
330
747D
100
AcDbEntity
  8
細線
 48
50.0
100
AcDbLine
 10
5705.504397928905
 20
7384.649909480109
 30
0.0
 11
5068.904397928899
 21
7384.649909480106
 31
0.0
  0
LINE
  5
17811
330
747D
100
AcDbEntity
  8
細線
 48
50.0
100
AcDbLine
 10
5731.404397928899
 20
7379.649909480114
 30
0.0
 11
5715.504397928905
 21
7379.649909480109
 31
0.0
  0
LINE
  5
17812
330
747D
100
AcDbEntity
  8
細線
 48
50.0
100
AcDbLine
 10
5715.504397928901
 20
7379.649909480109
 30
0.0
 11
5705.504397928905
 21
7384.649909480109
 31
0.0
  0
LINE
  5
17813
330
747D
100
AcDbEntity
  8
細線
100
AcDbLine
 10
5316.404397928899
 20
7354.649909480109
 30
0.0
 11
5316.404397928899
 21
7383.949909480108
 31
0.0
  0
LINE
  5
17814
330
747D
100
AcDbEntity
  8
細線
100
AcDbLine
 10
5316.404397928899
 20
7383.949909480108
 30
0.0
 11
5336.4043979289
 21
7383.949909480108
 31
0.0
  0
LINE
  5
17815
330
747D
100
AcDbEntity
  8
細線
100
AcDbLine
 10
5336.4043979289
 20
7354.649909480109
 30
0.0
 11
5336.4043979289
 21
7383.949909480108
 31
0.0
  0
LINE
  5
17816
330
747D
100
AcDbEntity
  8
細線
100
AcDbLine
 10
5497.6543979289
 20
7354.649909480109
 30
0.0
 11
5427.6543979289
 21
7354.649909480109
 31
0.0
  0
LINE
  5
17817
330
747D
100
AcDbEntity
  8
細線
 48
50.0
100
AcDbLine
 10
5217.6543979289
 20
7354.649909480109
 30
0.0
 11
5086.700177501743
 21
7354.649909480109
 31
0.0
  0
LINE
  5
17818
330
747D
100
AcDbEntity
  8
細線
100
AcDbLine
 10
5357.6543979289
 20
7354.649909480109
 30
0.0
 11
5287.6543979289
 21
7354.649909480109
 31
0.0
  0
LINE
  5
17819
330
747D
100
AcDbEntity
  8
細線
 48
50.0
100
AcDbLine
 10
5073.904397928899
 20
7346.64990948011
 30
0.0
 11
5073.904397928899
 21
7354.649909480109
 31
0.0
  0
LINE
  5
1781A
330
747D
100
AcDbEntity
  8
細線
 48
50.0
100
AcDbLine
 10
5053.904397928899
 20
7346.649909480113
 30
0.0
 11
5073.904397928899
 21
7346.64990948011
 31
0.0
  0
LINE
  5
1781B
330
747D
100
AcDbEntity
  8
細線
 48
50.0
100
AcDbLine
 10
5068.904397928899
 20
7384.649909480109
 30
0.0
 11
5068.904397928899
 21
7379.649909480109
 31
0.0
  0
LINE
  5
1781C
330
747D
100
AcDbEntity
  8
細線
 48
50.0
100
AcDbLine
 10
5053.904397928899
 20
7384.649909480106
 30
0.0
 11
5068.904397928899
 21
7384.649909480109
 31
0.0
  0
LINE
  5
1781D
330
747D
100
AcDbEntity
  8
細線
 48
50.0
100
AcDbLine
 10
5053.904397928899
 20
7346.649909480113
 30
0.0
 11
5053.904397928899
 21
7384.649909480106
 31
0.0
  0
LINE
  5
1781E
330
747D
100
AcDbEntity
  8
細線
100
AcDbLine
 10
5721.904397928899
 20
7354.649909480109
 30
0.0
 11
5567.6543979289
 21
7354.649909480109
 31
0.0
  0
LINE
  5
1781F
330
747D
100
AcDbEntity
  8
細線
 48
50.0
100
AcDbLine
 10
5731.404397928899
 20
7379.649909480114
 30
0.0
 11
5731.404397928899
 21
7354.649909480109
 31
0.0
  0
DIMENSION
  5
17EFA
330
747D
100
AcDbEntity
  8
寸法
100
AcDbDimension
  2
*D49
 10
3320.153023599285
 20
7283.649909480079
 30
0.0
 11
3320.153023599284
 21
7126.398679071892
 31
0.0
 70
   160
 71
     5
 42
75.00000000003274
  3
INABA_S40
100
AcDbAlignedDimension
 13
3578.904397928898
 23
7358.649909480111
 33
0.0
 14
3606.904397928899
 24
7283.649909480079
 34
0.0
 50
90.0
100
AcDbRotatedDimension
1001
ACAD
1000
DSTYLE
1002
{
1070
    41
1040
0.5
1070
    44
1040
1.0
1070
   147
1040
0.8
1070
   271
1070
     2
1070
   272
1070
     2
1070
   289
1070
     3
1070
   340
1005
F706
1070
   343
1005
F744
1070
   344
1005
F744
1002
}
  0
DIMENSION
  5
17EFB
330
747D
100
AcDbEntity
  8
寸法
 48
50.0
100
AcDbDimension
  2
*D50
 10
5760.904397928899
 20
6338.906876532419
 30
0.0
 11
4689.961971101395
 21
6338.906876532419
 31
0.0
 70
   160
 71
     5
 42
2154.0
  3
INABA_S40G
100
AcDbAlignedDimension
 13
3606.904397928899
 23
7281.649909480108
 33
0.0
 14
5760.904397928899
 24
7281.649909480108
 34
0.0
100
AcDbRotatedDimension
1001
ACAD
1000
DSTYLE
1002
{
1070
   341
1005
0
1002
}
  0
LWPOLYLINE
  5
17FBC
330
747D
100
AcDbEntity
  8
部品1
100
AcDbPolyline
 90
        4
 70
     1
 43
0.0
 10
5407.169064814692
 20
5746.938449361465
 10
5407.169064814692
 20
5507.046127815932
 10
6170.639731043134
 20
5507.046127815932
 10
6170.639731043134
 20
5746.938449361465
  0
TEXT
  5
17FBD
330
747D
100
AcDbEntity
  8
部品1
100
AcDbText
 10
5497.088674643734
 20
5554.044920142941
 30
0.0
 40
135.0
  1
平面図
  7
STYLE2
100
AcDbText
  0
DIMENSION
  5
17FF6
330
747D
100
AcDbEntity
  8
寸法
 48
50.0
100
AcDbDimension
  2
*D47
 10
7998.904397928898
 20
6080.601329925791
 30
0.0
 11
6893.904397928898
 21
6172.613140949412
 31
0.0
 70
    32
 71
     5
 42
2210.0
  3
INABA_S40
100
AcDbAlignedDimension
 13
5788.904397928899
 23
7413.649909480108
 33
0.0
 14
7998.904397928898
 24
7358.649909480111
 34
0.0
100
AcDbRotatedDimension
1001
ACAD
1000
DSTYLE
1002
{
1070
    41
1040
0.5
1070
    44
1040
1.0
1070
   147
1040
0.8
1070
   271
1070
     2
1070
   272
1070
     2
1070
   289
1070
     3
1070
   340
1005
F706
1070
   343
1005
F744
1070
   344
1005
F744
1002
}
  0
DIMENSION
  5
1801B
330
747D
100
AcDbEntity
  8
寸法
 48
50.0
100
AcDbDimension
  2
*D48
 10
5788.904397928899
 20
6080.601329925791
 30
0.0
 11
4673.548125189918
 21
6080.601329925791
 31
0.0
 70
   160
 71
     5
 42
2210.0
  3
INABA_S40
100
AcDbAlignedDimension
 13
3578.904397928898
 23
7358.649909480111
 33
0.0
 14
5788.904397928899
 24
7413.649909480111
 34
0.0
100
AcDbRotatedDimension
1001
ACAD
1000
DSTYLE
1002
{
1070
    41
1040
0.5
1070
    44
1040
1.0
1070
   147
1040
0.8
1070
   271
1070
     2
1070
   272
1070
     2
1070
   289
1070
     3
1070
   340
1005
F706
1070
   343
1005
F744
1070
   344
1005
F744
1002
}
  0
TEXT
  5
1823D
330
747D
100
AcDbEntity
  8
文字
 62
     7
 48
50.0
100
AcDbText
 10
15022.63965474517
 20
9570.013745883725
 30
0.0
 40
100.0
  1
F12            2.3
  7
STYLE1
100
AcDbText
  0
LINE
  5
18259
330
747D
100
AcDbEntity
  8
仕様書枠
 48
50.0
100
AcDbLine
 10
16307.19999999999
 20
8179.600000000004
 30
0.0
 11
13127.19999999999
 21
8179.600000000005
 31
0.0
  0
TEXT
  5
1825A
330
747D
100
AcDbEntity
  8
文字
 62
     7
 48
50.0
100
AcDbText
 10
13248.77747366447
 20
8210.013745883729
 30
0.0
 40
100.0
  1
18
  7
STYLE1
100
AcDbText
  0
TEXT
  5
18261
330
747D
100
AcDbEntity
  8
文字
 62
     7
 48
50.0
100
AcDbText
 10
13583.11819016569
 20
9394.407396633495
 30
0.0
 40
100.0
  1
梁中補強パネル
  7
STYLE1
100
AcDbText
  0
TEXT
  5
18262
330
747D
100
AcDbEntity
  8
文字
 62
     7
 48
50.0
100
AcDbText
 10
15022.63965474516
 20
9394.407396633491
 30
0.0
 40
100.0
  1
F12         0.7+1.2
  7
STYLE1
100
AcDbText
  0
LINE
  5
1827A
330
747D
100
AcDbEntity
  8
部品1
 48
50.0
100
AcDbLine
 10
5813.904400172058
 20
8852.149909480077
 30
0.0
 11
5813.904400172058
 21
9513.649909480077
 31
0.0
  0
LINE
  5
1827B
330
747D
100
AcDbEntity
  8
部品1
 48
50.0
100
AcDbLine
 10
5763.904400172058
 20
9513.649909480077
 30
0.0
 11
5763.904400172058
 21
8852.149909480077
 31
0.0
  0
LINE
  5
1827C
330
747D
100
AcDbEntity
  8
部品1
 48
50.0
100
AcDbLine
 10
5763.904400172058
 20
8852.149909480077
 30
0.0
 11
5813.904400172058
 21
8852.149909480077
 31
0.0
  0
LINE
  5
1827D
330
747D
100
AcDbEntity
  8
部品1
100
AcDbLine
 10
5813.904400172058
 20
9129.325892916931
 30
0.0
 11
5763.904400172055
 21
9124.149909480077
 31
0.0
  0
LINE
  5
1827E
330
747D
100
AcDbEntity
  8
部品1
100
AcDbLine
 10
5813.904400172058
 20
9088.973926043223
 30
0.0
 11
5763.904400172055
 21
9094.149909480076
 31
0.0
  0
LINE
  5
1827F
330
747D
100
AcDbEntity
  8
部品1
100
AcDbLine
 10
5763.904400172058
 20
8934.149909480076
 30
0.0
 11
5813.904400172056
 21
8946.861773886855
 31
0.0
  0
DIMENSION
  5
18280
330
747D
100
AcDbEntity
  8
寸法
 48
50.0
100
AcDbDimension
  2
*D52
 10
6125.745760432895
 20
9568.649913057253
 30
0.0
 11
6125.745760432894
 21
9185.888768693518
 31
0.0
 70
   160
 71
     5
 42
716.5000035771754
  3
INABA_S40G
100
AcDbAlignedDimension
 13
5813.904400172058
 23
8852.149909480077
 33
0.0
 14
5843.904400172292
 24
9568.649913057253
 34
0.0
 50
90.0
100
AcDbRotatedDimension
1001
ACAD
1000
DSTYLE
1002
{
1070
   174
1070
     0
1070
   272
1070
     1
1070
   341
1005
0
1002
}
  0
LWPOLYLINE
  5
18307
330
747D
100
AcDbEntity
  8
部品1
 48
50.0
100
AcDbPolyline
 90
        4
 70
     1
 43
0.0
 10
3705.954397928898
 20
3334.362805903256
 10
3708.854397928899
 20
3334.362805903256
 10
3708.854397928899
 20
3343.862805903256
 10
3705.954397928898
 20
3343.862805903256
  0
CIRCLE
  5
18308
330
747D
100
AcDbEntity
  8
部品1
 48
50.0
100
AcDbCircle
 10
3707.404397928898
 20
3339.112805903256
 30
0.0
 40
9.0
  0
ARC
  5
18309
330
747D
100
AcDbEntity
  8
細線
 48
50.0
100
AcDbCircle
 10
3707.404397928898
 20
3339.112805903256
 30
0.0
 40
4.0
100
AcDbArc
 50
111.2538091853375
 51
248.7461908146625
  0
ARC
  5
1830A
330
747D
100
AcDbEntity
  8
細線
 48
50.0
100
AcDbCircle
 10
3707.404397928898
 20
3339.112805903256
 30
0.0
 40
17.5
100
AcDbArc
 50
306.4837370612677
 51
233.5162629387323
  0
LINE
  5
1830B
330
747D
100
AcDbEntity
  8
細線
 48
50.0
100
AcDbLine
 10
3717.404397928895
 20
3315.253845322374
 30
0.0
 11
3717.404397928898
 21
3324.238331122615
 31
0.0
  0
LINE
  5
1830C
330
747D
100
AcDbEntity
  8
細線
 48
50.0
100
AcDbLine
 10
3697.404397928898
 20
3315.253845322376
 30
0.0
 11
3697.404397928898
 21
3324.238331122611
 31
0.0
  0
ARC
  5
1830D
330
747D
100
AcDbEntity
  8
細線
 48
50.0
100
AcDbCircle
 10
3707.404397928898
 20
3339.112805903256
 30
0.0
 40
26.5
100
AcDbArc
 50
249.3326835063939
 51
290.6673164933835
  0
ARC
  5
1830E
330
747D
100
AcDbEntity
  8
細線
 48
50.0
100
AcDbCircle
 10
3716.404397928891
 20
3315.253845322374
 30
0.0
 40
1.0
100
AcDbArc
 50
290.6673164936062
 51
359.9999999998958
  0
ARC
  5
1830F
330
747D
100
AcDbEntity
  8
細線
 48
50.0
100
AcDbCircle
 10
3698.404397928899
 20
3315.253845322376
 30
0.0
 40
1.0
100
AcDbArc
 50
180.0
 51
249.3326835066164
  0
ARC
  5
18310
330
747D
100
AcDbEntity
  8
細線
 48
50.0
100
AcDbCircle
 10
3696.404397928898
 20
3324.238331122611
 30
0.0
 40
1.0
100
AcDbArc
 50
0.0
 51
53.51626293873231
  0
ARC
  5
18311
330
747D
100
AcDbEntity
  8
細線
 48
50.0
100
AcDbCircle
 10
3718.404397928902
 20
3324.238331122615
 30
0.0
 40
1.0
100
AcDbArc
 50
126.4837370614917
 51
180.0
  0
ARC
  5
18312
330
747D
100
AcDbEntity
  8
細線
 48
50.0
100
AcDbCircle
 10
3707.404397928898
 20
3339.112805903256
 30
0.0
 40
21.5
100
AcDbArc
 50
255.8014401250294
 51
284.1985598749706
  0
ARC
  5
18313
330
747D
100
AcDbEntity
  8
細線
 48
50.0
100
AcDbCircle
 10
3707.404397928898
 20
3339.112805903256
 30
0.0
 40
16.5
100
AcDbArc
 50
251.9694646069326
 51
288.0305353930674
  0
LINE
  5
18314
330
747D
100
AcDbEntity
  8
細線
 48
50.0
100
AcDbLine
 10
3712.904397928898
 20
3318.560433777449
 30
0.0
 11
3712.904397928898
 21
3323.137825464787
 31
0.0
  0
LINE
  5
18315
330
747D
100
AcDbEntity
  8
細線
 48
50.0
100
AcDbLine
 10
3701.904397928898
 20
3318.560433777449
 30
0.0
 11
3701.904397928898
 21
3323.137825464784
 31
0.0
  0
ARC
  5
18316
330
747D
100
AcDbEntity
  8
細線
 48
50.0
100
AcDbCircle
 10
3702.204397928901
 20
3323.137825464784
 30
0.0
 40
0.3
100
AcDbArc
 50
71.96946460693259
 51
180.0
  0
ARC
  5
18317
330
747D
100
AcDbEntity
  8
細線
 48
50.0
100
AcDbCircle
 10
3712.604397928899
 20
3323.137825464787
 30
0.0
 40
0.3
100
AcDbArc
 50
0.0
 51
108.0305353930674
  0
ARC
  5
18318
330
747D
100
AcDbEntity
  8
細線
 48
50.0
100
AcDbCircle
 10
3712.604397928895
 20
3318.560433777449
 30
0.0
 40
0.3
100
AcDbArc
 50
284.1985598747622
 51
0.0000000001042204
  0
ARC
  5
18319
330
747D
100
AcDbEntity
  8
細線
 48
50.0
100
AcDbCircle
 10
3702.204397928901
 20
3318.560433777449
 30
0.0
 40
0.3
100
AcDbArc
 50
180.0
 51
255.8014401248081
  0
CIRCLE
  5
1831A
330
747D
100
AcDbEntity
  8
細線
 48
50.0
100
AcDbCircle
 10
3707.404397928898
 20
3339.112805903256
 30
0.0
 40
12.0
  0
ARC
  5
1831B
330
747D
100
AcDbEntity
  8
部品1
 48
50.0
100
AcDbCircle
 10
3707.404397928898
 20
3389.112805903256
 30
0.0
 40
8.5
100
AcDbArc
 50
114.315739171091
 51
245.684260828909
  0
CIRCLE
  5
1831C
330
747D
100
AcDbEntity
  8
細線
 48
50.0
100
AcDbCircle
 10
3707.404397928898
 20
3389.112805903256
 30
0.0
 40
4.5
  0
LWPOLYLINE
  5
1831D
330
747D
100
AcDbEntity
  8
部品1
 48
50.0
100
AcDbPolyline
 90
        2
 70
     0
 43
0.0
 10
3703.904397928898
 20
3407.787655300239
 10
3703.904397928898
 20
3396.858772595672
  0
CIRCLE
  5
1831E
330
747D
100
AcDbEntity
  8
部品1
 48
50.0
100
AcDbCircle
 10
3707.404397928898
 20
3389.112805903256
 30
0.0
 40
19.0
  0
LWPOLYLINE
  5
1831F
330
747D
100
AcDbEntity
  8
部品1
 48
50.0
100
AcDbPolyline
 90
        2
 70
     0
 43
0.0
 10
3703.904397928898
 20
3381.366839210841
 10
3703.904397928898
 20
3370.437956506274
  0
LWPOLYLINE
  5
18320
330
747D
100
AcDbEntity
  8
部品1
 48
50.0
100
AcDbPolyline
 90
        2
 70
     0
 43
0.0
 10
3710.904397928898
 20
3396.858772595672
 10
3710.904397928898
 20
3407.787655300239
  0
ARC
  5
18321
330
747D
100
AcDbEntity
  8
部品1
 48
50.0
100
AcDbCircle
 10
3707.404397928898
 20
3389.112805903256
 30
0.0
 40
8.5
100
AcDbArc
 50
294.315739171091
 51
65.68426082890896
  0
LWPOLYLINE
  5
18322
330
747D
100
AcDbEntity
  8
部品1
 48
50.0
100
AcDbPolyline
 90
        2
 70
     0
 43
0.0
 10
3710.904397928898
 20
3370.437956506274
 10
3710.904397928898
 20
3381.366839210841
  0
ARC
  5
18323
330
747D
100
AcDbEntity
  8
細線
 48
50.0
100
AcDbCircle
 10
3707.404397928898
 20
3389.112805903256
 30
0.0
 40
16.5
100
AcDbArc
 50
332.0012352654316
 51
27.99876473456844
  0
ARC
  5
18324
330
747D
100
AcDbEntity
  8
細線
 48
50.0
100
AcDbCircle
 10
3707.404397928898
 20
3389.112805903256
 30
0.0
 40
14.0
100
AcDbArc
 50
326.4074436112843
 51
33.59255638871576
  0
LINE
  5
18325
330
747D
100
AcDbEntity
  8
細線
 48
50.0
100
AcDbLine
 10
3692.835595644567
 20
3396.858772595672
 30
0.0
 11
3695.742494139209
 21
3396.858772595672
 31
0.0
  0
LINE
  5
18326
330
747D
100
AcDbEntity
  8
細線
 48
50.0
100
AcDbLine
 10
3692.835595644567
 20
3381.366839210841
 30
0.0
 11
3695.742494139209
 21
3381.366839210841
 31
0.0
  0
LINE
  5
18327
330
747D
100
AcDbEntity
  8
細線
 48
50.0
100
AcDbLine
 10
3719.066301718587
 20
3396.858772595672
 30
0.0
 11
3721.973200213233
 21
3396.858772595672
 31
0.0
  0
LINE
  5
18328
330
747D
100
AcDbEntity
  8
細線
 48
50.0
100
AcDbLine
 10
3719.066301718587
 20
3381.366839210841
 30
0.0
 11
3721.973200213233
 21
3381.366839210841
 31
0.0
  0
ARC
  5
18329
330
747D
100
AcDbEntity
  8
細線
 48
50.0
100
AcDbCircle
 10
3707.404397928898
 20
3389.112805903256
 30
0.0
 40
14.0
100
AcDbArc
 50
146.4074436112842
 51
213.5925563887158
  0
ARC
  5
1832A
330
747D
100
AcDbEntity
  8
細線
 48
50.0
100
AcDbCircle
 10
3707.404397928898
 20
3389.112805903256
 30
0.0
 40
16.5
100
AcDbArc
 50
152.0012352654315
 51
207.9987647345685
  0
ARC
  5
1832B
330
747D
100
AcDbEntity
  8
部品1
 48
50.0
100
AcDbCircle
 10
3680.904397928898
 20
3414.612805903256
 30
0.0
 40
5.0
100
AcDbArc
 50
90.0
 51
180.0
  0
ARC
  5
1832C
330
747D
100
AcDbEntity
  8
部品1
 48
50.0
100
AcDbCircle
 10
3680.904397928898
 20
3303.612805903256
 30
0.0
 40
5.0
100
AcDbArc
 50
180.0
 51
270.0
  0
ARC
  5
1832D
330
747D
100
AcDbEntity
  8
部品1
 48
50.0
100
AcDbCircle
 10
3733.904397928898
 20
3303.612805903256
 30
0.0
 40
5.0
100
AcDbArc
 50
270.0
 51
0.0
  0
ARC
  5
1832E
330
747D
100
AcDbEntity
  8
部品1
 48
50.0
100
AcDbCircle
 10
3733.904397928898
 20
3414.612805903256
 30
0.0
 40
5.0
100
AcDbArc
 50
0.0
 51
90.0
  0
LINE
  5
1832F
330
747D
100
AcDbEntity
  8
部品1
 48
50.0
100
AcDbLine
 10
3675.904397928898
 20
3303.612805903256
 30
0.0
 11
3675.904397928898
 21
3414.612805903256
 31
0.0
  0
LINE
  5
18330
330
747D
100
AcDbEntity
  8
部品1
 48
50.0
100
AcDbLine
 10
3733.904397928898
 20
3298.612805903257
 30
0.0
 11
3680.904397928898
 21
3298.612805903257
 31
0.0
  0
LINE
  5
18331
330
747D
100
AcDbEntity
  8
部品1
 48
50.0
100
AcDbLine
 10
3738.904397928898
 20
3414.612805903256
 30
0.0
 11
3738.904397928898
 21
3303.612805903256
 31
0.0
  0
ENDSEC
  0
SECTION
  2
OBJECTS
  0
DICTIONARY
  5
7471
330
0
100
AcDbDictionary
281
     1
  3
ACAD_COLOR
350
13FF0
  3
ACAD_GROUP
350
7472
  3
ACAD_LAYOUT
350
13FF1
  3
ACAD_MATERIAL
350
13FEF
  3
ACAD_MLINESTYLE
350
7473
  3
ACAD_PLOTSETTINGS
350
13FF2
  3
ACAD_PLOTSTYLENAME
350
13FED
  3
ACDBHEADERROUNDTRIPXREC
350
18341
  3
AcDbVariableDictionary
350
1833D
  3
CONTENTDICTIONARY
350
E71C
  3
DRAWINGVARIABLESDICT
350
F3B9
  0
DICTIONARY
  5
141B9
330
7467
100
AcDbDictionary
280
     1
281
     1
  3
ACAD_LAYERSTATES
360
141BA
  0
DICTIONARY
  5
13FF0
102
{ACAD_REACTORS
330
7471
102
}
330
7471
100
AcDbDictionary
281
     1
  0
DICTIONARY
  5
7472
102
{ACAD_REACTORS
330
7471
102
}
330
7471
100
AcDbDictionary
281
     1
  0
DICTIONARY
  5
13FF1
102
{ACAD_REACTORS
330
7471
102
}
330
7471
100
AcDbDictionary
281
     1
  3
Model
350
13FF3
  3
レイアウト1
350
13FF4
  0
DICTIONARY
  5
13FEF
102
{ACAD_REACTORS
330
7471
102
}
330
7471
100
AcDbDictionary
281
     1
  0
DICTIONARY
  5
7473
102
{ACAD_REACTORS
330
7471
102
}
330
7471
100
AcDbDictionary
281
     1
  3
STANDARD
350
7480
  0
DICTIONARY
  5
13FF2
102
{ACAD_REACTORS
330
7471
102
}
330
7471
100
AcDbDictionary
281
     1
  0
ACDBDICTIONARYWDFLT
  5
13FED
102
{ACAD_REACTORS
330
7471
102
}
330
7471
100
AcDbDictionary
281
     1
  3
Normal
350
13FEE
100
AcDbDictionaryWithDefault
340
13FEE
  0
DICTIONARY
  5
18341
102
{ACAD_REACTORS
330
7471
102
}
330
7471
100
AcDbDictionary
281
     1
  3
COLORDICT
350
18343
  3
MATERIALDICT
350
18342
  0
DICTIONARY
  5
1833D
102
{ACAD_REACTORS
330
7471
102
}
330
7471
100
AcDbDictionary
281
     1
  3
DIMASSOC
350
1833E
  3
PROJECTNAME
350
1833F
  0
DICTIONARY
  5
E71C
102
{ACAD_REACTORS
330
7471
102
}
330
7471
100
AcDbDictionary
281
     1
  0
DICTIONARY
  5
F3B9
102
{ACAD_REACTORS
330
7471
102
}
330
7471
100
AcDbDictionary
281
     1
1001
DRAWINGVARIABLESXDATA
1000
POLARMODE
1000
1
  0
DICTIONARY
  5
141BA
102
{ACAD_REACTORS
330
141B9
102
}
330
141B9
100
AcDbDictionary
281
     1
  0
LAYOUT
  5
13FF3
102
{ACAD_XDICTIONARY
360
18344
102
}
102
{ACAD_REACTORS
330
13FF1
102
}
330
13FF1
100
AcDbPlotSettings
  1

  2
Microsoft Office Document Image Writer
  4

  6

 40
0.0
 41
0.0
 42
0.0
 43
0.0
 44
0.0
 45
0.0
 46
0.0
 47
0.0
 48
0.0
 49
0.0
140
0.0
141
0.0
142
1.0
143
1.0
 70
  1712
 72
     0
 73
     0
 74
     0
  7

 75
     0
147
1.0
148
0.0
149
0.0
100
AcDbLayout
  1
Model
 70
     1
 71
     0
 10
0.0
 20
0.0
 11
12.0
 21
9.0
 12
0.0
 22
0.0
 32
0.0
 14
0.0
 24
0.0
 34
0.0
 15
0.0
 25
0.0
 35
0.0
146
0.0
 13
0.0
 23
0.0
 33
0.0
 16
1.0
 26
0.0
 36
0.0
 17
0.0
 27
1.0
 37
0.0
 76
     0
330
747D
  0
LAYOUT
  5
13FF4
102
{ACAD_XDICTIONARY
360
18346
102
}
102
{ACAD_REACTORS
330
13FF1
102
}
330
13FF1
100
AcDbPlotSettings
  1

  2
Microsoft Office Document Image Writer
  4

  6

 40
0.0
 41
0.0
 42
0.0
 43
0.0
 44
0.0
 45
0.0
 46
0.0
 47
0.0
 48
0.0
 49
0.0
140
0.0
141
0.0
142
1.0
143
1.0
 70
   688
 72
     0
 73
     0
 74
     5
  7

 75
    16
147
1.0
148
0.0
149
0.0
100
AcDbLayout
  1
レイアウト1
 70
     0
 71
     1
 10
0.0
 20
0.0
 11
420.0
 21
297.0
 12
0.0
 22
0.0
 32
0.0
 14
1.000000000000000E+20
 24
1.000000000000000E+20
 34
1.000000000000000E+20
 15
-1.000000000000000E+20
 25
-1.000000000000000E+20
 35
-1.000000000000000E+20
146
0.0
 13
0.0
 23
0.0
 33
0.0
 16
1.0
 26
0.0
 36
0.0
 17
0.0
 27
1.0
 37
0.0
 76
     0
330
747A
  0
MLINESTYLE
  5
7480
102
{ACAD_REACTORS
330
7473
102
}
330
7473
100
AcDbMlineStyle
  2
STANDARD
 70
     0
  3

 62
     0
 51
90.0
 52
90.0
 71
     2
 49
0.5
 62
   256
  6
BYLAYER
 49
-0.5
 62
   256
  6
BYLAYER
  0
ACDBPLACEHOLDER
  5
13FEE
102
{ACAD_REACTORS
330
13FED
102
}
330
13FED
  0
XRECORD
  5
18343
102
{ACAD_REACTORS
330
18341
102
}
330
18341
100
AcDbXrecord
280
     1
340
13FF0
  0
XRECORD
  5
18342
102
{ACAD_REACTORS
330
18341
102
}
330
18341
100
AcDbXrecord
280
     1
340
13FEF
  0
DICTIONARYVAR
  5
1833E
102
{ACAD_REACTORS
330
1833D
102
}
330
1833D
100
DictionaryVariables
280
     0
  1
1
  0
DICTIONARYVAR
  5
1833F
102
{ACAD_REACTORS
330
1833D
102
}
330
1833D
100
DictionaryVariables
280
     0
  1

  0
DICTIONARY
  5
18344
330
13FF3
100
AcDbDictionary
280
     1
281
     1
  3
ACAD_XREC_ROUNDTRIP
360
18345
  0
DICTIONARY
  5
18346
330
13FF4
100
AcDbDictionary
280
     1
281
     1
  3
ACAD_XREC_ROUNDTRIP
360
18347
  0
XRECORD
  5
18345
102
{ACAD_REACTORS
330
18344
102
}
330
18344
100
AcDbXrecord
280
     1
102
SHADEPLOT
 70
     0
102
SHADEPLOTRESLEVEL
 70
     2
102
SHADEPLOTCUSTOMDPI
 70
   300
  0
XRECORD
  5
18347
102
{ACAD_REACTORS
330
18346
102
}
330
18346
100
AcDbXrecord
280
     1
102
SHADEPLOT
 70
     0
102
SHADEPLOTRESLEVEL
 70
     2
102
SHADEPLOTCUSTOMDPI
 70
   300
  0
ENDSEC
  0
EOF
