  0
SECTION
  2
HEADER
  9
$ACADVER
  1
AC1015
  9
$ACADMAINTVER
 70
    20
  9
$DWGCODEPAGE
  3
ANSI_932
  9
$INSBASE
 10
0.0
 20
0.0
 30
0.0
  9
$EXTMIN
 10
139.9999999999995
 20
-0.0000000000000909
 30
0.0
  9
$EXTMAX
 10
16307.2
 20
11409.6
 30
0.0
  9
$LIMMIN
 10
0.0
 20
0.0
  9
$LIMMAX
 10
16800.0
 20
11880.0
  9
$ORTHOMODE
 70
     0
  9
$REGENMODE
 70
     1
  9
$FILLMODE
 70
     1
  9
$QTEXTMODE
 70
     0
  9
$MIRRTEXT
 70
     1
  9
$LTSCALE
 40
20.0
  9
$ATTMODE
 70
     1
  9
$TEXTSIZE
 40
100.0
  9
$TRACEWID
 40
1.0
  9
$TEXTSTYLE
  7
STYLE3
  9
$CLAYER
  8
部品1
  9
$CELTYPE
  6
BYLAYER
  9
$CECOLOR
 62
   256
  9
$CELTSCALE
 40
50.0
  9
$DISPSILH
 70
     0
  9
$DIMSCALE
 40
40.0
  9
$DIMASZ
 40
0.5
  9
$DIMEXO
 40
0.5
  9
$DIMDLI
 40
7.0
  9
$DIMRND
 40
0.0
  9
$DIMDLE
 40
0.0
  9
$DIMEXE
 40
1.0
  9
$DIMTP
 40
0.0
  9
$DIMTM
 40
0.0
  9
$DIMTXT
 40
3.0
  9
$DIMCEN
 40
0.0
  9
$DIMTSZ
 40
0.0
  9
$DIMTOL
 70
     0
  9
$DIMLIM
 70
     0
  9
$DIMTIH
 70
     0
  9
$DIMTOH
 70
     0
  9
$DIMSE1
 70
     0
  9
$DIMSE2
 70
     0
  9
$DIMTAD
 70
     3
  9
$DIMZIN
 70
     8
  9
$DIMBLK
  1

  9
$DIMASO
 70
     1
  9
$DIMSHO
 70
     1
  9
$DIMPOST
  1

  9
$DIMAPOST
  1

  9
$DIMALT
 70
     0
  9
$DIMALTD
 70
     2
  9
$DIMALTF
 40
0.0394
  9
$DIMLFAC
 40
1.0
  9
$DIMTOFL
 70
     1
  9
$DIMTVP
 40
0.0
  9
$DIMTIX
 70
     1
  9
$DIMSOXD
 70
     1
  9
$DIMSAH
 70
     1
  9
$DIMBLK1
  1
DOT
  9
$DIMBLK2
  1
DOT
  9
$DIMSTYLE
  2
INABA_S40
  9
$DIMCLRD
 70
     0
  9
$DIMCLRE
 70
     0
  9
$DIMCLRT
 70
     7
  9
$DIMTFAC
 40
1.0
  9
$DIMGAP
 40
0.8
  9
$DIMJUST
 70
     0
  9
$DIMSD1
 70
     0
  9
$DIMSD2
 70
     0
  9
$DIMTOLJ
 70
     1
  9
$DIMTZIN
 70
     0
  9
$DIMALTZ
 70
     0
  9
$DIMALTTZ
 70
     0
  9
$DIMUPT
 70
     0
  9
$DIMDEC
 70
     2
  9
$DIMTDEC
 70
     2
  9
$DIMALTU
 70
     2
  9
$DIMALTTD
 70
     2
  9
$DIMTXSTY
  7
STYLE1
  9
$DIMAUNIT
 70
     0
  9
$DIMADEC
 70
     0
  9
$DIMALTRND
 40
0.0
  9
$DIMAZIN
 70
     0
  9
$DIMDSEP
 70
    46
  9
$DIMATFIT
 70
     3
  9
$DIMFRAC
 70
     0
  9
$DIMLDRBLK
  1

  9
$DIMLUNIT
 70
     2
  9
$DIMLWD
 70
    -2
  9
$DIMLWE
 70
    -2
  9
$DIMTMOVE
 70
     0
  9
$LUNITS
 70
     2
  9
$LUPREC
 70
     1
  9
$SKETCHINC
 40
1.0
  9
$FILLETRAD
 40
5.0
  9
$AUNITS
 70
     0
  9
$AUPREC
 70
     0
  9
$MENU
  1
acad
  9
$ELEVATION
 40
0.0
  9
$PELEVATION
 40
0.0
  9
$THICKNESS
 40
0.0
  9
$LIMCHECK
 70
     0
  9
$CHAMFERA
 40
0.0
  9
$CHAMFERB
 40
0.0
  9
$CHAMFERC
 40
0.0
  9
$CHAMFERD
 40
0.0
  9
$SKPOLY
 70
     0
  9
$TDCREATE
 40
2451590.492424190
  9
$TDUCREATE
 40
2451590.117424190
  9
$TDUPDATE
 40
2455575.700856111
  9
$TDUUPDATE
 40
2455575.325856111
  9
$TDINDWG
 40
0.2508457986
  9
$TDUSRTIMER
 40
0.2508457986
  9
$USRTIMER
 70
     1
  9
$ANGBASE
 50
0.0
  9
$ANGDIR
 70
     0
  9
$PDMODE
 70
     3
  9
$PDSIZE
 40
2.0
  9
$PLINEWID
 40
0.0
  9
$SPLFRAME
 70
     0
  9
$SPLINETYPE
 70
     6
  9
$SPLINESEGS
 70
     8
  9
$HANDSEED
  5
16C74
  9
$SURFTAB1
 70
     6
  9
$SURFTAB2
 70
     6
  9
$SURFTYPE
 70
     6
  9
$SURFU
 70
     6
  9
$SURFV
 70
     6
  9
$UCSBASE
  2

  9
$UCSNAME
  2

  9
$UCSORG
 10
0.0
 20
0.0
 30
0.0
  9
$UCSXDIR
 10
1.0
 20
0.0
 30
0.0
  9
$UCSYDIR
 10
0.0
 20
1.0
 30
0.0
  9
$UCSORTHOREF
  2

  9
$UCSORTHOVIEW
 70
     0
  9
$UCSORGTOP
 10
0.0
 20
0.0
 30
0.0
  9
$UCSORGBOTTOM
 10
0.0
 20
0.0
 30
0.0
  9
$UCSORGLEFT
 10
0.0
 20
0.0
 30
0.0
  9
$UCSORGRIGHT
 10
0.0
 20
0.0
 30
0.0
  9
$UCSORGFRONT
 10
0.0
 20
0.0
 30
0.0
  9
$UCSORGBACK
 10
0.0
 20
0.0
 30
0.0
  9
$PUCSBASE
  2

  9
$PUCSNAME
  2

  9
$PUCSORG
 10
0.0
 20
0.0
 30
0.0
  9
$PUCSXDIR
 10
1.0
 20
0.0
 30
0.0
  9
$PUCSYDIR
 10
0.0
 20
1.0
 30
0.0
  9
$PUCSORTHOREF
  2

  9
$PUCSORTHOVIEW
 70
     0
  9
$PUCSORGTOP
 10
0.0
 20
0.0
 30
0.0
  9
$PUCSORGBOTTOM
 10
0.0
 20
0.0
 30
0.0
  9
$PUCSORGLEFT
 10
0.0
 20
0.0
 30
0.0
  9
$PUCSORGRIGHT
 10
0.0
 20
0.0
 30
0.0
  9
$PUCSORGFRONT
 10
0.0
 20
0.0
 30
0.0
  9
$PUCSORGBACK
 10
0.0
 20
0.0
 30
0.0
  9
$USERI1
 70
     0
  9
$USERI2
 70
     0
  9
$USERI3
 70
     0
  9
$USERI4
 70
     0
  9
$USERI5
 70
     0
  9
$USERR1
 40
0.0
  9
$USERR2
 40
0.0
  9
$USERR3
 40
0.0
  9
$USERR4
 40
0.0
  9
$USERR5
 40
0.0
  9
$WORLDVIEW
 70
     1
  9
$SHADEDGE
 70
     3
  9
$SHADEDIF
 70
    70
  9
$TILEMODE
 70
     1
  9
$MAXACTVP
 70
    16
  9
$PINSBASE
 10
0.0
 20
0.0
 30
0.0
  9
$PLIMCHECK
 70
     0
  9
$PEXTMIN
 10
1.000000000000000E+20
 20
1.000000000000000E+20
 30
1.000000000000000E+20
  9
$PEXTMAX
 10
-1.000000000000000E+20
 20
-1.000000000000000E+20
 30
-1.000000000000000E+20
  9
$PLIMMIN
 10
0.0
 20
0.0
  9
$PLIMMAX
 10
420.0
 20
297.0
  9
$UNITMODE
 70
     0
  9
$VISRETAIN
 70
     0
  9
$PLINEGEN
 70
     0
  9
$PSLTSCALE
 70
     0
  9
$TREEDEPTH
 70
  3020
  9
$CMLSTYLE
  2
STANDARD
  9
$CMLJUST
 70
     0
  9
$CMLSCALE
 40
1.0
  9
$PROXYGRAPHICS
 70
     1
  9
$MEASUREMENT
 70
     1
  9
$CELWEIGHT
370
    -1
  9
$ENDCAPS
280
     0
  9
$JOINSTYLE
280
     0
  9
$LWDISPLAY
290
     0
  9
$INSUNITS
 70
     0
  9
$HYPERLINKBASE
  1

  9
$STYLESHEET
  1

  9
$XEDIT
290
     1
  9
$CEPSNTYPE
380
     0
  9
$PSTYLEMODE
290
     1
  9
$FINGERPRINTGUID
  2
{F147D77C-4C0F-4212-83BE-289D63A47BEB}
  9
$VERSIONGUID
  2
{40FD275C-7137-46DA-9CF3-6BF96AC7EFD8}
  9
$EXTNAMES
290
     1
  9
$PSVPSCALE
 40
0.0
  9
$OLESTARTUP
290
     0
  0
ENDSEC
  0
SECTION
  2
CLASSES
  0
CLASS
  1
ACDBDICTIONARYWDFLT
  2
AcDbDictionaryWithDefault
  3
ObjectDBX Classes
 90
        0
280
     0
281
     0
  0
CLASS
  1
DICTIONARYVAR
  2
AcDbDictionaryVar
  3
ObjectDBX Classes
 90
        0
280
     0
281
     0
  0
CLASS
  1
ACDBPLACEHOLDER
  2
AcDbPlaceHolder
  3
ObjectDBX Classes
 90
        0
280
     0
281
     0
  0
CLASS
  1
LAYOUT
  2
AcDbLayout
  3
ObjectDBX Classes
 90
        0
280
     0
281
     0
  0
ENDSEC
  0
SECTION
  2
TABLES
  0
TABLE
  2
VPORT
  5
746D
330
0
100
AcDbSymbolTable
 70
     2
  0
VPORT
  5
16C6C
330
746D
100
AcDbSymbolTableRecord
100
AcDbViewportTableRecord
  2
*Active
 70
     0
 10
0.0
 20
0.0
 11
1.0
 21
1.0
 12
8223.761025238502
 22
6348.767642148464
 13
0.0
 23
0.0
 14
10.0
 24
10.0
 15
10.0
 25
10.0
 16
0.0
 26
0.0
 36
1.0
 17
0.0
 27
0.0
 37
0.0
 40
12805.3711672054
 41
1.525925925925925
 42
50.0
 43
0.0
 44
0.0
 50
0.0
 51
0.0
 71
     0
 72
     0
 73
     1
 74
     0
 75
     0
 76
     0
 77
     0
 78
     0
281
     0
 65
     1
110
0.0
120
0.0
130
0.0
111
1.0
121
0.0
131
0.0
112
0.0
122
1.0
132
0.0
 79
     0
146
0.0
  0
ENDTAB
  0
TABLE
  2
LTYPE
  5
746A
330
0
100
AcDbSymbolTable
 70
     4
  0
LTYPE
  5
7477
330
746A
100
AcDbSymbolTableRecord
100
AcDbLinetypeTableRecord
  2
BYBLOCK
 70
     0
  3

 72
    65
 73
     0
 40
0.0
  0
LTYPE
  5
7478
330
746A
100
AcDbSymbolTableRecord
100
AcDbLinetypeTableRecord
  2
BYLAYER
 70
     0
  3

 72
    65
 73
     0
 40
0.0
  0
LTYPE
  5
7479
330
746A
100
AcDbSymbolTableRecord
100
AcDbLinetypeTableRecord
  2
CONTINUOUS
 70
     0
  3
Solid line
 72
    65
 73
     0
 40
0.0
  0
LTYPE
  5
7816
330
746A
100
AcDbSymbolTableRecord
100
AcDbLinetypeTableRecord
  2
CENTER
 70
     0
  3
____ _ ____ _ ____ _ ____ _ ____ _ ____ _ ____ 
 72
    65
 73
     4
 40
2.0
 49
1.25
 74
     0
 49
-0.25
 74
     0
 49
0.25
 74
     0
 49
-0.25
 74
     0
  0
LTYPE
  5
781A
330
746A
100
AcDbSymbolTableRecord
100
AcDbLinetypeTableRecord
  2
HIDDEN
 70
     0
  3
__ __ __ __ __ __ __ __ __ __ __ __ __ __ __ __
 72
    65
 73
     2
 40
0.375
 49
0.25
 74
     0
 49
-0.125
 74
     0
  0
LTYPE
  5
781B
330
746A
100
AcDbSymbolTableRecord
100
AcDbLinetypeTableRecord
  2
PHANTOM
 70
     0
  3
______  __  __  ______  __  __  ______  __  __ 
 72
    65
 73
     6
 40
2.5
 49
1.25
 74
     0
 49
-0.25
 74
     0
 49
0.25
 74
     0
 49
-0.25
 74
     0
 49
0.25
 74
     0
 49
-0.25
 74
     0
  0
ENDTAB
  0
TABLE
  2
LAYER
  5
7467
102
{ACAD_XDICTIONARY
360
13537
102
}
330
0
100
AcDbSymbolTable
 70
    12
  0
LAYER
  5
7474
330
7467
100
AcDbSymbolTableRecord
100
AcDbLayerTableRecord
  2
0
 70
     0
 62
     7
  6
CONTINUOUS
370
    -3
390
1346F
  0
LAYER
  5
DEB2
330
7467
100
AcDbSymbolTableRecord
100
AcDbLayerTableRecord
  2
センター
 70
     0
 62
     3
  6
CENTER
370
    -3
390
1346F
  0
LAYER
  5
DEB3
330
7467
100
AcDbSymbolTableRecord
100
AcDbLayerTableRecord
  2
寸法
 70
     0
 62
     4
  6
CONTINUOUS
370
    -3
390
1346F
  0
LAYER
  5
DEB4
330
7467
100
AcDbSymbolTableRecord
100
AcDbLayerTableRecord
  2
部品1
 70
     0
 62
     7
  6
CONTINUOUS
370
    -3
390
1346F
  0
LAYER
  5
DEB5
330
7467
100
AcDbSymbolTableRecord
100
AcDbLayerTableRecord
  2
補助
 70
     0
 62
    -1
  6
CONTINUOUS
370
    -3
390
1346F
  0
LAYER
  5
DEB6
330
7467
100
AcDbSymbolTableRecord
100
AcDbLayerTableRecord
  2
文字
 70
     0
 62
     7
  6
CONTINUOUS
370
    -3
390
1346F
  0
LAYER
  5
F255
330
7467
100
AcDbSymbolTableRecord
100
AcDbLayerTableRecord
  2
DEFPOINTS
 70
     0
 62
     7
  6
CONTINUOUS
290
     0
370
    -3
390
1346F
  0
LAYER
  5
10B54
330
7467
100
AcDbSymbolTableRecord
100
AcDbLayerTableRecord
  2
仕様書枠
 70
     0
 62
   230
  6
CONTINUOUS
370
    -3
390
1346F
  0
LAYER
  5
11729
330
7467
100
AcDbSymbolTableRecord
100
AcDbLayerTableRecord
  2
Ｇ．Ｌ
 70
     0
 62
    30
  6
CONTINUOUS
370
    -3
390
1346F
  0
LAYER
  5
1173F
330
7467
100
AcDbSymbolTableRecord
100
AcDbLayerTableRecord
  2
細線
 70
     0
 62
     5
  6
CONTINUOUS
370
    -3
390
1346F
  0
LAYER
  5
11740
330
7467
100
AcDbSymbolTableRecord
100
AcDbLayerTableRecord
  2
点線
 70
     0
 62
     2
  6
HIDDEN
370
    -3
390
1346F
  0
LAYER
  5
11905
330
7467
100
AcDbSymbolTableRecord
100
AcDbLayerTableRecord
  2
破線
 70
     0
 62
     2
  6
HIDDEN
370
    -3
390
1346F
  0
ENDTAB
  0
TABLE
  2
STYLE
  5
7468
330
0
100
AcDbSymbolTable
 70
     7
  0
STYLE
  5
7475
330
7468
100
AcDbSymbolTableRecord
100
AcDbTextStyleTableRecord
  2
STANDARD
 70
     0
 40
0.0
 41
1.0
 50
0.0
 71
     0
 42
4.0
  3
txt
  4
C:\AutoCAD LT\bigfont.shx
  0
STYLE
  5
763C
330
7468
100
AcDbSymbolTableRecord
100
AcDbTextStyleTableRecord
  2
MSMINCHO
 70
     0
 40
0.0
 41
1.0
 50
0.0
 71
     0
 42
1.199999999999999
  3
C:\AutoCAD LT\msminch2.TTF
  4

  0
STYLE
  5
F5E9
330
7468
100
AcDbSymbolTableRecord
100
AcDbTextStyleTableRecord
  2

 70
     1
 40
0.0
 41
1.0
 50
0.0
 71
     0
 42
4.0
  3
ltypeshp.shx
  4

  0
STYLE
  5
F706
330
7468
100
AcDbSymbolTableRecord
100
AcDbTextStyleTableRecord
  2
STYLE1
 70
     0
 40
0.0
 41
1.0
 50
0.0
 71
     0
 42
4.0
  3
isocp.shx
  4
bigfont.shx
  0
STYLE
  5
103BF
330
7468
100
AcDbSymbolTableRecord
100
AcDbTextStyleTableRecord
  2
STYLE2
 70
     0
 40
0.0
 41
1.0
 50
0.0
 71
     0
 42
100.0
  3
MS PGothic.ttf
  4

1001
ACAD
1000
MS PGothic
1071
    32818
  0
STYLE
  5
10BAA
330
7468
100
AcDbSymbolTableRecord
100
AcDbTextStyleTableRecord
  2
STYLE3
 70
     0
 40
0.0
 41
1.0
 50
0.0
 71
     0
 42
100.0
  3

  4

1001
ACAD
1000
DFPGothic-EB
1071
    32818
  0
STYLE
  5
11906
330
7468
100
AcDbSymbolTableRecord
100
AcDbTextStyleTableRecord
  2
MSGOTHIC
 70
     0
 40
0.0
 41
1.0
 50
0.0
 71
     0
 42
3.5
  3
msgothi2.ttf
  4

  0
ENDTAB
  0
TABLE
  2
VIEW
  5
746B
330
0
100
AcDbSymbolTable
 70
     0
  0
ENDTAB
  0
TABLE
  2
UCS
  5
746C
330
0
100
AcDbSymbolTable
 70
     0
  0
ENDTAB
  0
TABLE
  2
APPID
  5
746E
330
0
100
AcDbSymbolTable
 70
     6
  0
APPID
  5
7476
330
746E
100
AcDbSymbolTableRecord
100
AcDbRegAppTableRecord
  2
ACAD
 70
     0
  0
APPID
  5
DEA9
330
746E
100
AcDbSymbolTableRecord
100
AcDbRegAppTableRecord
  2
CONTENTBLOCKICON
 70
     0
  0
APPID
  5
DEAA
330
746E
100
AcDbSymbolTableRecord
100
AcDbRegAppTableRecord
  2
CONTENTBLOCKDESCRIPTION
 70
     0
  0
APPID
  5
E71D
330
746E
100
AcDbSymbolTableRecord
100
AcDbRegAppTableRecord
  2
CONTENTTABDATA
 70
     0
  0
APPID
  5
E71E
330
746E
100
AcDbSymbolTableRecord
100
AcDbRegAppTableRecord
  2
CONTENTCURRENTTAB
 70
     0
  0
APPID
  5
F3BA
330
746E
100
AcDbSymbolTableRecord
100
AcDbRegAppTableRecord
  2
DRAWINGVARIABLESXDATA
 70
     0
  0
ENDTAB
  0
TABLE
  2
DIMSTYLE
  5
746F
330
0
100
AcDbSymbolTable
 70
     6
100
AcDbDimStyleTable
 71
     1
340
F236
  0
DIMSTYLE
105
7484
330
746F
100
AcDbSymbolTableRecord
100
AcDbDimStyleTableRecord
  2
JIS
 70
     0
 41
2.5
 42
1.0
 43
7.0
 44
1.0
 73
     0
 74
     0
 77
     1
 78
     8
140
2.5
141
0.0
143
0.0394
147
0.0
172
     1
174
     1
175
     1
340
7475
  0
DIMSTYLE
105
F236
102
{ACAD_REACTORS
330
13E39
330
13E78
330
13E82
330
13EB2
330
13EC4
330
13EC5
330
13F00
330
13F01
330
13F02
330
13F03
330
13F04
330
16094
330
16190
330
161B5
330
16639
330
16692
330
16A55
102
}
330
746F
100
AcDbSymbolTableRecord
100
AcDbDimStyleTableRecord
  2
INABA_S40
 70
     0
 40
40.0
 41
2.5
 42
0.5
 43
7.0
 44
1.5
 73
     0
 74
     0
 77
     3
 78
     8
140
3.0
141
0.0
143
0.0394
147
1.0
172
     1
173
     1
174
     1
175
     1
178
     7
289
     0
340
7475
  0
DIMSTYLE
105
F71F
102
{ACAD_REACTORS
330
14486
330
14487
330
14488
330
144BE
330
144C4
330
144C5
330
144C6
330
144EF
330
144FE
330
16940
330
1694F
330
16950
330
16951
330
16ACA
330
16ACE
102
}
330
746F
100
AcDbSymbolTableRecord
100
AcDbDimStyleTableRecord
  2
INABA_S40G
 70
     0
 40
40.0
 41
2.5
 42
0.5
 43
7.0
 44
1.5
 73
     0
 74
     0
 77
     3
 78
     8
140
3.0
141
0.0
143
0.0394
147
1.0
172
     1
173
     1
174
     1
175
     1
178
     7
271
     1
340
F706
341
F770
343
F770
344
F770
  0
DIMSTYLE
105
11907
330
746F
100
AcDbSymbolTableRecord
100
AcDbDimStyleTableRecord
  2
INABA_S50
 70
     0
 40
50.0
 41
0.5
 42
0.5
 43
7.0
 44
1.0
 73
     0
 74
     0
 77
     3
 78
     8
140
2.5
141
0.0
143
0.0394
147
0.8
172
     1
173
     1
174
     1
175
     1
178
     7
271
     2
272
     2
289
     0
340
7475
341
F744
343
F744
344
F744
  0
DIMSTYLE
105
11908
330
746F
100
AcDbSymbolTableRecord
100
AcDbDimStyleTableRecord
  2
INABA_S50G
 70
     0
 41
125.0
 42
25.0
 43
7.0
 44
75.0
 73
     0
 74
     0
 77
     3
 78
     8
140
150.0
141
0.0
143
0.0394
147
25.0
172
     1
173
     1
174
     1
175
     1
178
     7
271
     1
340
F706
341
F770
343
F770
344
F770
  0
DIMSTYLE
105
16C03
330
746F
100
AcDbSymbolTableRecord
100
AcDbDimStyleTableRecord
  2
INABA_S20G
 70
     0
 40
20.0
 41
2.5
 42
0.5
 43
7.0
 44
1.5
 73
     0
 74
     0
 77
     3
 78
     8
140
3.0
141
0.0
143
0.0394
147
1.0
172
     1
173
     1
174
     1
178
     7
271
     1
340
F706
341
F770
343
F770
344
F770
  0
ENDTAB
  0
TABLE
  2
BLOCK_RECORD
  5
7466
330
0
100
AcDbSymbolTable
 70
    50
  0
BLOCK_RECORD
  5
747D
330
7466
100
AcDbSymbolTableRecord
100
AcDbBlockTableRecord
  2
*MODEL_SPACE
340
13474
  0
BLOCK_RECORD
  5
747A
330
7466
100
AcDbSymbolTableRecord
100
AcDbBlockTableRecord
  2
*PAPER_SPACE
340
13475
  0
BLOCK_RECORD
  5
ECB3
330
7466
100
AcDbSymbolTableRecord
100
AcDbBlockTableRecord
  2
作図枠S50
340
0
310
2800000020000000200000000100040000000000000200000000000000000000000000000000000000000000000080000080000000808000800000008000800080800000C0C0C000808080000000FF0000FF000000FFFF00FF000000FF00FF00FFFF0000FFFFFF00FFFFFFFFFFFFFFFFFFFFFFFFFFFFFFFFFFFFFFFFFFFFFF
310
FFFFFFFFFFFFFFFFFFFFFFFFFFFFFFFFFFFFFFFFFFFFFFFFFFFFFFFFFFFFFFFFFFFFFFFFFFFFFFFFFFFFFFFFFFFFFFFFFFFFFFFFFFFFFFFFFFFFFFFFFFFFFFFFFFFFFFFFFFFFFFFFFF999999999999999999999999999999999FFFFFFFFFFFFFFFFFFFFFFFFFFFFFF99FFFFFFFFFFFFFFFFFFFFFFFFFFFFFF99FFFFFFFFFFF
310
FFFFFFFFFFFFFFFFFFF99FFFFFFFFFFFFFFFFFFFFFFFFFFFFFF99FFFFFFFFFFFFFFFFFFFFFFFFFFFFFF99FFFFFFFFFFFFFFFFFFFFFFFFFFFFFF99FFFFFFFFFFFFFFFFFFFFFFFFFFFFFF99FFFFFFFFFFFFFFFFFFFFFFFFFFFFFF99FFFFFFFFFFFFFFFFFFFFFFFFFFFFFF99FFFFFFFFFFFFFFFFFFFFFFFFFFFFFF99FFFFFFFFF
310
FFFFFFFFFFFFFFFFFFFFF99FFFFFFFFFFFFFFFFFFFFFFFFFFFFFF99FFFFFFFFFFFFFFFFFFFFFFFFFFFFFF99FFFFFFFFFFFFFFFFFFFFFFFFFFFFFF99FFFFFFFFFFFFFFFFFFFFFFFFFFFFFF99FFFFFFFFFFFFFFFFFFFFFFFFFFFFFF99FFFFFFFFFFFFFFFFFFFFFFFFFFFFFF99FFFFFFFFFFFFFFFFFFFFF99999999999FFFFFFF
310
FFFFFFFFFFFFFF9FFFFFFFFF99999999999999999999999FFFFFFFFFFFFFFFFFFFFFFFFFFFFFFFFFFFFFFFFFFFFFFFFFFFFFFFFFFFFFFFFFFFFFFFFFFFFFFFFFFFFFFFFFFFFFFFFFFFFFFFFFFFFFFFFFFFFFFFFFFFFFFFFFFFFFFFFFFFFFFFFFFFFFFFFFFFFFFFFFFFFFFFFF
102
{BLKREFS
331
F235
102
}
  0
BLOCK_RECORD
  5
F744
330
7466
100
AcDbSymbolTableRecord
100
AcDbBlockTableRecord
  2
_DOT
340
0
102
{BLKREFS
331
1471A
331
1471B
331
163C5
331
163C6
331
163DD
331
163DE
331
163E6
331
163E7
331
163F1
331
163F2
331
163FA
331
163FB
331
16405
331
16406
331
16418
331
16419
331
1643A
331
1643B
331
1644C
331
1644D
331
1672F
331
16730
331
16738
331
16739
331
16741
331
16742
331
1674A
331
1674B
331
16A14
331
16A15
331
16A1D
331
16A1E
331
16A6C
331
16A6D
102
}
  0
BLOCK_RECORD
  5
F770
330
7466
100
AcDbSymbolTableRecord
100
AcDbBlockTableRecord
  2
_DOTSMALL
340
0
102
{BLKREFS
331
13518
331
13519
331
13524
331
13525
331
13530
331
13531
331
1350C
331
1350D
331
13500
331
13501
331
134F4
331
134F5
331
134E8
331
134E9
331
134DB
331
134DC
331
134CE
331
134CF
331
134C2
331
134C3
331
134B4
331
134B5
331
134A8
331
134A9
331
1349A
331
1349B
331
146C4
331
146C5
331
146CE
331
146CF
331
146D7
331
146D8
331
146E2
331
146E3
331
146EB
331
146EC
331
146FF
331
14700
331
169EA
331
169EB
331
169F5
331
169F6
331
169FE
331
169FF
331
16A09
331
16A0A
331
16AF7
331
16AF8
331
16B00
331
16B01
331
16B16
331
16B17
331
16B21
331
16B22
331
16B2A
331
16B2B
102
}
  0
BLOCK_RECORD
  5
13494
330
7466
100
AcDbSymbolTableRecord
100
AcDbBlockTableRecord
  2
*D3
340
0
  0
BLOCK_RECORD
  5
134A1
330
7466
100
AcDbSymbolTableRecord
100
AcDbBlockTableRecord
  2
*D4
340
0
  0
BLOCK_RECORD
  5
134AF
330
7466
100
AcDbSymbolTableRecord
100
AcDbBlockTableRecord
  2
*D5
340
0
  0
BLOCK_RECORD
  5
134BB
330
7466
100
AcDbSymbolTableRecord
100
AcDbBlockTableRecord
  2
*D6
340
0
  0
BLOCK_RECORD
  5
134C9
330
7466
100
AcDbSymbolTableRecord
100
AcDbBlockTableRecord
  2
*D7
340
0
  0
BLOCK_RECORD
  5
134D5
330
7466
100
AcDbSymbolTableRecord
100
AcDbBlockTableRecord
  2
*D8
340
0
  0
BLOCK_RECORD
  5
134E2
330
7466
100
AcDbSymbolTableRecord
100
AcDbBlockTableRecord
  2
*D9
340
0
  0
BLOCK_RECORD
  5
134EF
330
7466
100
AcDbSymbolTableRecord
100
AcDbBlockTableRecord
  2
*D10
340
0
  0
BLOCK_RECORD
  5
134FB
330
7466
100
AcDbSymbolTableRecord
100
AcDbBlockTableRecord
  2
*D11
340
0
  0
BLOCK_RECORD
  5
13507
330
7466
100
AcDbSymbolTableRecord
100
AcDbBlockTableRecord
  2
*D12
340
0
  0
BLOCK_RECORD
  5
13513
330
7466
100
AcDbSymbolTableRecord
100
AcDbBlockTableRecord
  2
*D13
340
0
  0
BLOCK_RECORD
  5
1351F
330
7466
100
AcDbSymbolTableRecord
100
AcDbBlockTableRecord
  2
*D14
340
0
  0
BLOCK_RECORD
  5
1352B
330
7466
100
AcDbSymbolTableRecord
100
AcDbBlockTableRecord
  2
*D15
340
0
  0
BLOCK_RECORD
  5
13539
330
7466
100
AcDbSymbolTableRecord
100
AcDbBlockTableRecord
  2
A$C0E4129C6
340
0
  0
BLOCK_RECORD
  5
13FDE
330
7466
100
AcDbSymbolTableRecord
100
AcDbBlockTableRecord
  2
*D17
340
0
  0
BLOCK_RECORD
  5
1402A
330
7466
100
AcDbSymbolTableRecord
100
AcDbBlockTableRecord
  2
*D18
340
0
  0
BLOCK_RECORD
  5
14036
330
7466
100
AcDbSymbolTableRecord
100
AcDbBlockTableRecord
  2
*D19
340
0
  0
BLOCK_RECORD
  5
1404E
330
7466
100
AcDbSymbolTableRecord
100
AcDbBlockTableRecord
  2
*D20
340
0
  0
BLOCK_RECORD
  5
14068
330
7466
100
AcDbSymbolTableRecord
100
AcDbBlockTableRecord
  2
*D21
340
0
  0
BLOCK_RECORD
  5
14074
330
7466
100
AcDbSymbolTableRecord
100
AcDbBlockTableRecord
  2
*D22
340
0
  0
BLOCK_RECORD
  5
1408C
330
7466
100
AcDbSymbolTableRecord
100
AcDbBlockTableRecord
  2
*D23
340
0
  0
BLOCK_RECORD
  5
1409A
330
7466
100
AcDbSymbolTableRecord
100
AcDbBlockTableRecord
  2
*D24
340
0
  0
BLOCK_RECORD
  5
140A6
330
7466
100
AcDbSymbolTableRecord
100
AcDbBlockTableRecord
  2
*D25
340
0
  0
BLOCK_RECORD
  5
140B4
330
7466
100
AcDbSymbolTableRecord
100
AcDbBlockTableRecord
  2
*D26
340
0
  0
BLOCK_RECORD
  5
140C0
330
7466
100
AcDbSymbolTableRecord
100
AcDbBlockTableRecord
  2
*D27
340
0
  0
BLOCK_RECORD
  5
14515
330
7466
100
AcDbSymbolTableRecord
100
AcDbBlockTableRecord
  2
*D28
340
0
  0
BLOCK_RECORD
  5
14521
330
7466
100
AcDbSymbolTableRecord
100
AcDbBlockTableRecord
  2
*D29
340
0
  0
BLOCK_RECORD
  5
1452D
330
7466
100
AcDbSymbolTableRecord
100
AcDbBlockTableRecord
  2
*D30
340
0
  0
BLOCK_RECORD
  5
14546
330
7466
100
AcDbSymbolTableRecord
100
AcDbBlockTableRecord
  2
*D31
340
0
  0
BLOCK_RECORD
  5
14554
330
7466
100
AcDbSymbolTableRecord
100
AcDbBlockTableRecord
  2
*D32
340
0
  0
BLOCK_RECORD
  5
14560
330
7466
100
AcDbSymbolTableRecord
100
AcDbBlockTableRecord
  2
*D33
340
0
  0
BLOCK_RECORD
  5
1456E
330
7466
100
AcDbSymbolTableRecord
100
AcDbBlockTableRecord
  2
*D34
340
0
  0
BLOCK_RECORD
  5
1457A
330
7466
100
AcDbSymbolTableRecord
100
AcDbBlockTableRecord
  2
*D35
340
0
  0
BLOCK_RECORD
  5
14587
330
7466
100
AcDbSymbolTableRecord
100
AcDbBlockTableRecord
  2
*D36
340
0
  0
BLOCK_RECORD
  5
14783
330
7466
100
AcDbSymbolTableRecord
100
AcDbBlockTableRecord
  2
_OPEN
340
0
  0
BLOCK_RECORD
  5
161C5
330
7466
100
AcDbSymbolTableRecord
100
AcDbBlockTableRecord
  2
*D38
340
0
  0
BLOCK_RECORD
  5
16203
330
7466
100
AcDbSymbolTableRecord
100
AcDbBlockTableRecord
  2
*D39
340
0
  0
BLOCK_RECORD
  5
1621D
330
7466
100
AcDbSymbolTableRecord
100
AcDbBlockTableRecord
  2
*D40
340
0
  0
BLOCK_RECORD
  5
1669F
330
7466
100
AcDbSymbolTableRecord
100
AcDbBlockTableRecord
  2
*D41
340
0
  0
BLOCK_RECORD
  5
166B9
330
7466
100
AcDbSymbolTableRecord
100
AcDbBlockTableRecord
  2
*D42
340
0
  0
BLOCK_RECORD
  5
16961
330
7466
100
AcDbSymbolTableRecord
100
AcDbBlockTableRecord
  2
*D43
340
0
  0
BLOCK_RECORD
  5
1696F
330
7466
100
AcDbSymbolTableRecord
100
AcDbBlockTableRecord
  2
*D44
340
0
  0
BLOCK_RECORD
  5
1697B
330
7466
100
AcDbSymbolTableRecord
100
AcDbBlockTableRecord
  2
*D45
340
0
  0
BLOCK_RECORD
  5
16989
330
7466
100
AcDbSymbolTableRecord
100
AcDbBlockTableRecord
  2
*D46
340
0
  0
BLOCK_RECORD
  5
16A5D
330
7466
100
AcDbSymbolTableRecord
100
AcDbBlockTableRecord
  2
*D47
340
0
  0
BLOCK_RECORD
  5
16ADC
330
7466
100
AcDbSymbolTableRecord
100
AcDbBlockTableRecord
  2
*D48
340
0
  0
BLOCK_RECORD
  5
16AE8
330
7466
100
AcDbSymbolTableRecord
100
AcDbBlockTableRecord
  2
*D49
340
0
  0
ENDTAB
  0
ENDSEC
  0
SECTION
  2
BLOCKS
  0
BLOCK
  5
7489
330
747D
100
AcDbEntity
  8
0
100
AcDbBlockBegin
  2
*MODEL_SPACE
 70
     0
 10
0.0
 20
0.0
 30
0.0
  3
*MODEL_SPACE
  1

  0
ENDBLK
  5
748A
330
747D
100
AcDbEntity
  8
0
100
AcDbBlockEnd
  0
BLOCK
  5
7487
330
747A
100
AcDbEntity
 67
     1
  8
0
100
AcDbBlockBegin
  2
*PAPER_SPACE
 70
     0
 10
0.0
 20
0.0
 30
0.0
  3
*PAPER_SPACE
  1

  0
ENDBLK
  5
7488
330
747A
100
AcDbEntity
 67
     1
  8
0
100
AcDbBlockEnd
  0
BLOCK
  5
ECB4
330
ECB3
100
AcDbEntity
  8
0
100
AcDbBlockBegin
  2
作図枠S50
 70
     0
 10
0.0
 20
0.0
 30
0.0
  3
作図枠S50
  1

  4
作図領域枠 縮尺 1/50
  0
LINE
  5
ECB5
330
ECB3
100
AcDbEntity
  8
補助
100
AcDbLine
 10
14364.0
 20
14262.0
 30
0.0
 11
174.9999999999993
 21
14262.0
 31
0.0
  0
LINE
  5
ECB6
330
ECB3
100
AcDbEntity
  8
補助
100
AcDbLine
 10
174.9999999999993
 20
14262.0
 30
0.0
 11
174.9999999999993
 21
1520.0
 31
0.0
  0
LINE
  5
ECB7
330
ECB3
100
AcDbEntity
  8
補助
100
AcDbLine
 10
174.9999999999993
 20
1520.0
 30
0.0
 11
20384.0
 21
1520.0
 31
0.0
  0
LINE
  5
ECB8
330
ECB3
100
AcDbEntity
  8
補助
100
AcDbLine
 10
20384.0
 20
1520.0
 30
0.0
 11
20384.0
 21
13042.0
 31
0.0
  0
LINE
  5
ECB9
330
ECB3
100
AcDbEntity
  8
補助
100
AcDbLine
 10
20384.0
 20
13042.0
 30
0.0
 11
14364.0
 21
13042.0
 31
0.0
  0
LINE
  5
ECBA
330
ECB3
100
AcDbEntity
  8
補助
100
AcDbLine
 10
14364.0
 20
13042.0
 30
0.0
 11
14364.0
 21
14262.0
 31
0.0
  0
ENDBLK
  5
ECBB
330
ECB3
100
AcDbEntity
  8
0
100
AcDbBlockEnd
  0
BLOCK
  5
F745
330
F744
100
AcDbEntity
  8
0
 48
50.0
100
AcDbBlockBegin
  2
_DOT
 70
     0
 10
0.0
 20
0.0
 30
0.0
  3
_DOT
  1

  0
LWPOLYLINE
  5
F746
330
F744
100
AcDbEntity
  8
0
  6
ByBlock
 62
     0
 48
50.0
100
AcDbPolyline
 90
        2
 70
     1
 43
0.5
 10
-0.25
 20
0.0
 42
1.0
 10
0.25
 20
0.0
 42
1.0
  0
LINE
  5
F74A
330
F744
100
AcDbEntity
  8
0
  6
ByBlock
 62
     0
 48
50.0
100
AcDbLine
 10
-0.5
 20
0.0
 30
0.0
 11
-1.0
 21
0.0
 31
0.0
  0
ENDBLK
  5
F74B
330
F744
100
AcDbEntity
  8
0
 48
50.0
100
AcDbBlockEnd
  0
BLOCK
  5
F771
330
F770
100
AcDbEntity
  8
0
 48
50.0
100
AcDbBlockBegin
  2
_DOTSMALL
 70
     0
 10
0.0
 20
0.0
 30
0.0
  3
_DOTSMALL
  1

  0
LWPOLYLINE
  5
F772
330
F770
100
AcDbEntity
  8
0
  6
ByBlock
 62
     0
 48
50.0
100
AcDbPolyline
 90
        2
 70
     1
 43
0.5
 10
-0.0625
 20
0.0
 42
1.0
 10
0.0625
 20
0.0
 42
1.0
  0
ENDBLK
  5
F776
330
F770
100
AcDbEntity
  8
0
 48
50.0
100
AcDbBlockEnd
  0
BLOCK
  5
13495
330
13494
100
AcDbEntity
  8
0
 48
50.0
100
AcDbBlockBegin
  2
*D3
 70
     1
 10
0.0
 20
0.0
 30
0.0
  3
*D3
  1

  0
LINE
  5
13496
330
13494
100
AcDbEntity
  8
寸法
 62
     0
 48
50.0
370
    -2
100
AcDbLine
 10
9330.693956914492
 20
2876.056521119535
 30
0.0
 11
8201.943827731232
 21
2876.056521119536
 31
0.0
  0
LINE
  5
13497
330
13494
100
AcDbEntity
  8
寸法
 62
     0
 48
50.0
370
    -2
100
AcDbLine
 10
8329.192881019361
 20
2776.056521119536
 30
0.0
 11
8201.943827731232
 21
2776.056521119536
 31
0.0
  0
LINE
  5
13498
330
13494
100
AcDbEntity
  8
寸法
 62
     0
 48
50.0
370
    -2
100
AcDbLine
 10
8261.943827731233
 20
2876.056521119536
 30
0.0
 11
8261.943827731233
 21
2776.056521119536
 31
0.0
  0
LINE
  5
13499
330
13494
100
AcDbEntity
  8
寸法
 62
     0
 48
50.0
370
    -2
100
AcDbLine
 10
8261.943827731233
 20
2776.056521119536
 30
0.0
 11
8261.943827731233
 21
2403.962032930558
 31
0.0
  0
INSERT
  5
1349A
330
13494
100
AcDbEntity
  8
寸法
 62
     0
 48
50.0
370
    -2
100
AcDbBlockReference
  2
_DOTSMALL
 10
8261.943827731233
 20
2876.056521119536
 30
0.0
 41
100.0
 42
100.0
 43
100.0
 50
90.0
  0
INSERT
  5
1349B
330
13494
100
AcDbEntity
  8
寸法
 62
     0
 48
50.0
370
    -2
100
AcDbBlockReference
  2
_DOTSMALL
 10
8261.943827731233
 20
2776.056521119536
 30
0.0
 41
100.0
 42
100.0
 43
100.0
 50
270.0
  0
MTEXT
  5
1349C
330
13494
100
AcDbEntity
  8
寸法
 62
     7
 48
50.0
100
AcDbMText
 10
8161.943827731233
 20
2540.009277025048
 30
0.0
 40
120.0
 41
0.0
 71
     5
 72
     1
  1
\A1;100
  7
STYLE1
 11
0.0000000000000001
 21
1.0
 31
0.0
 73
     1
 44
1.0
1001
ACAD
1000
MTEXTBEGIN
1070
    73
1070
     1
1070
    44
1040
1.0
1070
    74
1070
     0
1000
MTEXTEND
  0
POINT
  5
1349D
330
13494
100
AcDbEntity
  8
DEFPOINTS
 62
     0
 48
50.0
100
AcDbPoint
 10
9350.693956914494
 20
2876.056521119535
 30
0.0
  0
POINT
  5
1349E
330
13494
100
AcDbEntity
  8
DEFPOINTS
 62
     0
 48
50.0
100
AcDbPoint
 10
8349.19288101936
 20
2776.056521119536
 30
0.0
  0
POINT
  5
1349F
330
13494
100
AcDbEntity
  8
DEFPOINTS
 62
     0
 48
50.0
100
AcDbPoint
 10
8261.943827731233
 20
2776.056521119536
 30
0.0
  0
ENDBLK
  5
134A0
330
13494
100
AcDbEntity
  8
0
 48
50.0
100
AcDbBlockEnd
  0
BLOCK
  5
134A2
330
134A1
100
AcDbEntity
  8
0
 48
50.0
100
AcDbBlockBegin
  2
*D4
 70
     1
 10
0.0
 20
0.0
 30
0.0
  3
*D4
  1

  0
LINE
  5
134A3
330
134A1
100
AcDbEntity
  8
寸法
 62
     0
 48
50.0
370
    -2
100
AcDbLine
 10
9385.693956914492
 20
2926.056521119535
 30
0.0
 11
8501.943827731233
 21
2926.056521119536
 31
0.0
  0
LINE
  5
134A4
330
134A1
100
AcDbEntity
  8
寸法
 62
     0
 48
50.0
370
    -2
100
AcDbLine
 10
9330.693956914492
 20
2876.056521119535
 30
0.0
 11
8501.943827731233
 21
2876.056521119536
 31
0.0
  0
LINE
  5
134A5
330
134A1
100
AcDbEntity
  8
寸法
 62
     0
 48
50.0
370
    -2
100
AcDbLine
 10
8561.943827731232
 20
2926.056521119536
 30
0.0
 11
8561.943827731232
 21
3026.056521119536
 31
0.0
  0
LINE
  5
134A6
330
134A1
100
AcDbEntity
  8
寸法
 62
     0
 48
50.0
370
    -2
100
AcDbLine
 10
8561.943827731232
 20
2876.056521119536
 30
0.0
 11
8561.943827731232
 21
2463.962032930558
 31
0.0
  0
LINE
  5
134A7
330
134A1
100
AcDbEntity
  8
寸法
 62
     0
 48
50.0
370
    -2
100
AcDbLine
 10
8561.943827731232
 20
2926.056521119536
 30
0.0
 11
8561.943827731232
 21
2876.056521119536
 31
0.0
  0
INSERT
  5
134A8
330
134A1
100
AcDbEntity
  8
寸法
 62
     0
 48
50.0
370
    -2
100
AcDbBlockReference
  2
_DOTSMALL
 10
8561.943827731232
 20
2926.056521119536
 30
0.0
 41
100.0
 42
100.0
 43
100.0
 50
270.0
  0
INSERT
  5
134A9
330
134A1
100
AcDbEntity
  8
寸法
 62
     0
 48
50.0
370
    -2
100
AcDbBlockReference
  2
_DOTSMALL
 10
8561.943827731232
 20
2876.056521119536
 30
0.0
 41
100.0
 42
100.0
 43
100.0
 50
90.0
  0
MTEXT
  5
134AA
330
134A1
100
AcDbEntity
  8
寸法
 62
     7
 48
50.0
100
AcDbMText
 10
8461.943827731232
 20
2570.009277025048
 30
0.0
 40
120.0
 41
0.0
 71
     5
 72
     1
  1
\A1;50
  7
STYLE1
 11
0.0000000000000001
 21
1.0
 31
0.0
 73
     1
 44
1.0
1001
ACAD
1000
MTEXTBEGIN
1070
    73
1070
     1
1070
    44
1040
1.0
1070
    74
1070
     0
1000
MTEXTEND
  0
POINT
  5
134AB
330
134A1
100
AcDbEntity
  8
DEFPOINTS
 62
     0
 48
50.0
100
AcDbPoint
 10
9405.693956914493
 20
2926.056521119535
 30
0.0
  0
POINT
  5
134AC
330
134A1
100
AcDbEntity
  8
DEFPOINTS
 62
     0
 48
50.0
100
AcDbPoint
 10
9350.693956914494
 20
2876.056521119535
 30
0.0
  0
POINT
  5
134AD
330
134A1
100
AcDbEntity
  8
DEFPOINTS
 62
     0
 48
50.0
100
AcDbPoint
 10
8561.943827731232
 20
2876.056521119536
 30
0.0
  0
ENDBLK
  5
134AE
330
134A1
100
AcDbEntity
  8
0
 48
50.0
100
AcDbBlockEnd
  0
BLOCK
  5
134B0
330
134AF
100
AcDbEntity
  8
0
 48
50.0
100
AcDbBlockBegin
  2
*D5
 70
     1
 10
0.0
 20
0.0
 30
0.0
  3
*D5
  1

  0
LINE
  5
134B1
330
134AF
100
AcDbEntity
  8
寸法
 62
     0
 48
50.0
370
    -2
100
AcDbLine
 10
11615.69395691449
 20
5217.867200731189
 30
0.0
 11
11615.69395691449
 21
5709.713974698839
 31
0.0
  0
LINE
  5
134B2
330
134AF
100
AcDbEntity
  8
寸法
 62
     0
 48
50.0
370
    -2
100
AcDbLine
 10
9405.693956914493
 20
5267.058139242512
 30
0.0
 11
9405.693956914493
 21
5709.713974698839
 31
0.0
  0
LINE
  5
134B3
330
134AF
100
AcDbEntity
  8
寸法
 62
     0
 48
50.0
370
    -2
100
AcDbLine
 10
11615.69395691449
 20
5649.71397469884
 30
0.0
 11
9405.693956914493
 21
5649.71397469884
 31
0.0
  0
INSERT
  5
134B4
330
134AF
100
AcDbEntity
  8
寸法
 62
     0
 48
50.0
370
    -2
100
AcDbBlockReference
  2
_DOTSMALL
 10
11615.69395691449
 20
5649.71397469884
 30
0.0
 41
100.0
 42
100.0
 43
100.0
  0
INSERT
  5
134B5
330
134AF
100
AcDbEntity
  8
寸法
 62
     0
 48
50.0
370
    -2
100
AcDbBlockReference
  2
_DOTSMALL
 10
9405.693956914493
 20
5649.71397469884
 30
0.0
 41
100.0
 42
100.0
 43
100.0
 50
180.0
  0
MTEXT
  5
134B6
330
134AF
100
AcDbEntity
  8
寸法
 62
     7
 48
50.0
100
AcDbMText
 10
10500.338693985
 20
5749.725785722461
 30
0.0
 40
120.0
 41
0.0
 71
     5
 72
     1
  1
\A1;柱外寸法2210
  7
STYLE1
 73
     1
 44
1.0
1001
ACAD
1000
MTEXTBEGIN
1070
    73
1070
     1
1070
    44
1040
1.0
1070
    74
1070
     0
1000
MTEXTEND
  0
POINT
  5
134B7
330
134AF
100
AcDbEntity
  8
DEFPOINTS
 62
     0
 48
50.0
100
AcDbPoint
 10
11615.69395691449
 20
5197.867200731189
 30
0.0
  0
POINT
  5
134B8
330
134AF
100
AcDbEntity
  8
DEFPOINTS
 62
     0
 48
50.0
100
AcDbPoint
 10
9405.693956914493
 20
5247.058139242511
 30
0.0
  0
POINT
  5
134B9
330
134AF
100
AcDbEntity
  8
DEFPOINTS
 62
     0
 48
50.0
100
AcDbPoint
 10
9405.693956914493
 20
5649.71397469884
 30
0.0
  0
ENDBLK
  5
134BA
330
134AF
100
AcDbEntity
  8
0
 48
50.0
100
AcDbBlockEnd
  0
BLOCK
  5
134BC
330
134BB
100
AcDbEntity
  8
0
 48
50.0
100
AcDbBlockBegin
  2
*D6
 70
     1
 10
0.0
 20
0.0
 30
0.0
  3
*D6
  1

  0
LINE
  5
134BD
330
134BB
100
AcDbEntity
  8
寸法
 62
     0
 48
50.0
370
    -2
100
AcDbLine
 10
9405.693956914493
 20
5267.058139242512
 30
0.0
 11
9405.693956914493
 21
5709.713974698839
 31
0.0
  0
LINE
  5
134BE
330
134BB
100
AcDbEntity
  8
寸法
 62
     0
 48
50.0
370
    -2
100
AcDbLine
 10
9345.693956914493
 20
5271.05652111954
 30
0.0
 11
9345.693956914493
 21
5709.713974698839
 31
0.0
  0
LINE
  5
134BF
330
134BB
100
AcDbEntity
  8
寸法
 62
     0
 48
50.0
370
    -2
100
AcDbLine
 10
9405.693956914493
 20
5649.71397469884
 30
0.0
 11
9505.693956914493
 21
5649.71397469884
 31
0.0
  0
LINE
  5
134C0
330
134BB
100
AcDbEntity
  8
寸法
 62
     0
 48
50.0
370
    -2
100
AcDbLine
 10
9345.693956914493
 20
5649.71397469884
 30
0.0
 11
8926.418366363312
 21
5649.71397469884
 31
0.0
  0
LINE
  5
134C1
330
134BB
100
AcDbEntity
  8
寸法
 62
     0
 48
50.0
370
    -2
100
AcDbLine
 10
9405.693956914493
 20
5649.71397469884
 30
0.0
 11
9345.693956914493
 21
5649.71397469884
 31
0.0
  0
INSERT
  5
134C2
330
134BB
100
AcDbEntity
  8
寸法
 62
     0
 48
50.0
370
    -2
100
AcDbBlockReference
  2
_DOTSMALL
 10
9405.693956914493
 20
5649.71397469884
 30
0.0
 41
100.0
 42
100.0
 43
100.0
 50
180.0
  0
INSERT
  5
134C3
330
134BB
100
AcDbEntity
  8
寸法
 62
     0
 48
50.0
370
    -2
100
AcDbBlockReference
  2
_DOTSMALL
 10
9345.693956914493
 20
5649.71397469884
 30
0.0
 41
100.0
 42
100.0
 43
100.0
  0
MTEXT
  5
134C4
330
134BB
100
AcDbEntity
  8
寸法
 62
     7
 48
50.0
100
AcDbMText
 10
9036.056161638901
 20
5749.713974698839
 30
0.0
 40
120.0
 41
0.0
 71
     5
 72
     1
  1
\A1;60
  7
STYLE1
 73
     1
 44
1.0
1001
ACAD
1000
MTEXTBEGIN
1070
    73
1070
     1
1070
    44
1040
1.0
1070
    74
1070
     0
1000
MTEXTEND
  0
POINT
  5
134C5
330
134BB
100
AcDbEntity
  8
DEFPOINTS
 62
     0
 48
50.0
100
AcDbPoint
 10
9405.693956914493
 20
5247.058139242511
 30
0.0
  0
POINT
  5
134C6
330
134BB
100
AcDbEntity
  8
DEFPOINTS
 62
     0
 48
50.0
100
AcDbPoint
 10
9345.693956914493
 20
5251.05652111954
 30
0.0
  0
POINT
  5
134C7
330
134BB
100
AcDbEntity
  8
DEFPOINTS
 62
     0
 48
50.0
100
AcDbPoint
 10
9345.693956914493
 20
5649.71397469884
 30
0.0
  0
ENDBLK
  5
134C8
330
134BB
100
AcDbEntity
  8
0
 48
50.0
100
AcDbBlockEnd
  0
BLOCK
  5
134CA
330
134C9
100
AcDbEntity
  8
0
 48
50.0
100
AcDbBlockBegin
  2
*D7
 70
     1
 10
0.0
 20
0.0
 30
0.0
  3
*D7
  1

  0
LINE
  5
134CB
330
134C9
100
AcDbEntity
  8
寸法
 62
     0
 48
50.0
370
    -2
100
AcDbLine
 10
11695.69395691449
 20
5216.056521119536
 30
0.0
 11
11695.69395691449
 21
5928.915808373131
 31
0.0
  0
LINE
  5
134CC
330
134C9
100
AcDbEntity
  8
寸法
 62
     0
 48
50.0
370
    -2
100
AcDbLine
 10
9345.693956914493
 20
5271.05652111954
 30
0.0
 11
9345.693956914493
 21
5928.915808373131
 31
0.0
  0
LINE
  5
134CD
330
134C9
100
AcDbEntity
  8
寸法
 62
     0
 48
50.0
370
    -2
100
AcDbLine
 10
11695.69395691449
 20
5868.915808373131
 30
0.0
 11
9345.693956914493
 21
5868.915808373131
 31
0.0
  0
INSERT
  5
134CE
330
134C9
100
AcDbEntity
  8
寸法
 62
     0
 48
50.0
370
    -2
100
AcDbBlockReference
  2
_DOTSMALL
 10
11695.69395691449
 20
5868.915808373131
 30
0.0
 41
100.0
 42
100.0
 43
100.0
  0
INSERT
  5
134CF
330
134C9
100
AcDbEntity
  8
寸法
 62
     0
 48
50.0
370
    -2
100
AcDbBlockReference
  2
_DOTSMALL
 10
9345.693956914493
 20
5868.915808373131
 30
0.0
 41
100.0
 42
100.0
 43
100.0
 50
180.0
  0
MTEXT
  5
134D0
330
134C9
100
AcDbEntity
  8
寸法
 62
     7
 48
50.0
100
AcDbMText
 10
10580.03781100696
 20
5968.927619396753
 30
0.0
 40
120.0
 41
0.0
 71
     5
 72
     1
  1
\A1;2350
  7
STYLE1
 73
     1
 44
1.0
1001
ACAD
1000
MTEXTBEGIN
1070
    73
1070
     1
1070
    44
1040
1.0
1070
    74
1070
     0
1000
MTEXTEND
  0
POINT
  5
134D1
330
134C9
100
AcDbEntity
  8
DEFPOINTS
 62
     0
 48
50.0
100
AcDbPoint
 10
11695.69395691449
 20
5196.056521119537
 30
0.0
  0
POINT
  5
134D2
330
134C9
100
AcDbEntity
  8
DEFPOINTS
 62
     0
 48
50.0
100
AcDbPoint
 10
9345.693956914493
 20
5251.05652111954
 30
0.0
  0
POINT
  5
134D3
330
134C9
100
AcDbEntity
  8
DEFPOINTS
 62
     0
 48
50.0
100
AcDbPoint
 10
9345.693956914493
 20
5868.915808373131
 30
0.0
  0
ENDBLK
  5
134D4
330
134C9
100
AcDbEntity
  8
0
 48
50.0
100
AcDbBlockEnd
  0
BLOCK
  5
134D6
330
134D5
100
AcDbEntity
  8
0
 48
50.0
100
AcDbBlockBegin
  2
*D8
 70
     1
 10
0.0
 20
0.0
 30
0.0
  3
*D8
  1

  0
LINE
  5
134D7
330
134D5
100
AcDbEntity
  8
寸法
 62
     0
 48
50.0
370
    -2
100
AcDbLine
 10
11615.69395691449
 20
5217.867200731189
 30
0.0
 11
11615.69395691449
 21
5709.713974698839
 31
0.0
  0
LINE
  5
134D8
330
134D5
100
AcDbEntity
  8
寸法
 62
     0
 48
50.0
370
    -2
100
AcDbLine
 10
11695.69395691449
 20
5216.056521119536
 30
0.0
 11
11695.69395691449
 21
5709.713974698839
 31
0.0
  0
LINE
  5
134D9
330
134D5
100
AcDbEntity
  8
寸法
 62
     0
 48
50.0
370
    -2
100
AcDbLine
 10
11615.69395691449
 20
5649.71397469884
 30
0.0
 11
11695.69395691449
 21
5649.71397469884
 31
0.0
  0
LINE
  5
134DA
330
134D5
100
AcDbEntity
  8
寸法
 62
     0
 48
50.0
370
    -2
100
AcDbLine
 10
11695.69395691449
 20
5649.71397469884
 30
0.0
 11
12007.78844510347
 21
5649.71397469884
 31
0.0
  0
INSERT
  5
134DB
330
134D5
100
AcDbEntity
  8
寸法
 62
     0
 48
50.0
370
    -2
100
AcDbBlockReference
  2
_DOTSMALL
 10
11615.69395691449
 20
5649.71397469884
 30
0.0
 41
100.0
 42
100.0
 43
100.0
 50
180.0
  0
INSERT
  5
134DC
330
134D5
100
AcDbEntity
  8
寸法
 62
     0
 48
50.0
370
    -2
100
AcDbBlockReference
  2
_DOTSMALL
 10
11695.69395691449
 20
5649.71397469884
 30
0.0
 41
100.0
 42
100.0
 43
100.0
  0
MTEXT
  5
134DD
330
134D5
100
AcDbEntity
  8
寸法
 62
     7
 48
50.0
100
AcDbMText
 10
11901.74120100898
 20
5749.713974698839
 30
0.0
 40
120.0
 41
0.0
 71
     5
 72
     1
  1
\A1;80
  7
STYLE1
 73
     1
 44
1.0
1001
ACAD
1000
MTEXTBEGIN
1070
    73
1070
     1
1070
    44
1040
1.0
1070
    74
1070
     0
1000
MTEXTEND
  0
POINT
  5
134DE
330
134D5
100
AcDbEntity
  8
DEFPOINTS
 62
     0
 48
50.0
100
AcDbPoint
 10
11615.69395691449
 20
5197.867200731189
 30
0.0
  0
POINT
  5
134DF
330
134D5
100
AcDbEntity
  8
DEFPOINTS
 62
     0
 48
50.0
100
AcDbPoint
 10
11695.69395691449
 20
5196.056521119537
 30
0.0
  0
POINT
  5
134E0
330
134D5
100
AcDbEntity
  8
DEFPOINTS
 62
     0
 48
50.0
100
AcDbPoint
 10
11695.69395691449
 20
5649.71397469884
 30
0.0
  0
ENDBLK
  5
134E1
330
134D5
100
AcDbEntity
  8
0
 48
50.0
100
AcDbBlockEnd
  0
BLOCK
  5
134E3
330
134E2
100
AcDbEntity
  8
0
 48
50.0
100
AcDbBlockBegin
  2
*D9
 70
     1
 10
0.0
 20
0.0
 30
0.0
  3
*D9
  1

  0
LINE
  5
134E4
330
134E2
100
AcDbEntity
  8
寸法
 62
     0
 48
50.0
370
    -2
100
AcDbLine
 10
9345.098243205596
 20
5250.354228189197
 30
0.0
 11
8729.163804100315
 21
5268.068378463527
 31
0.0
  0
LINE
  5
134E5
330
134E2
100
AcDbEntity
  8
寸法
 62
     0
 48
50.0
370
    -2
100
AcDbLine
 10
9341.044787648968
 20
5109.412504423485
 30
0.0
 11
8725.110348543688
 21
5127.126654697814
 31
0.0
  0
LINE
  5
134E6
330
134E2
100
AcDbEntity
  8
寸法
 62
     0
 48
50.0
370
    -2
100
AcDbLine
 10
8785.085550146121
 20
5125.401779992866
 30
0.0
 11
8789.139005702748
 21
5266.34350375858
 31
0.0
  0
LINE
  5
134E7
330
134E2
100
AcDbEntity
  8
寸法
 62
     0
 48
50.0
370
    -2
100
AcDbLine
 10
8789.139005702748
 20
5266.34350375858
 30
0.0
 11
8799.488253932432
 21
5626.194713373166
 31
0.0
  0
INSERT
  5
134E8
330
134E2
100
AcDbEntity
  8
寸法
 62
     0
 48
50.0
370
    -2
100
AcDbBlockReference
  2
_DOTSMALL
 10
8785.085550146121
 20
5125.401779992866
 30
0.0
 41
100.0
 42
100.0
 43
100.0
 50
268.3526390256378
  0
INSERT
  5
134E9
330
134E2
100
AcDbEntity
  8
寸法
 62
     0
 48
50.0
370
    -2
100
AcDbBlockReference
  2
_DOTSMALL
 10
8789.139005702748
 20
5266.34350375858
 30
0.0
 41
100.0
 42
100.0
 43
100.0
 50
88.35263902563776
  0
MTEXT
  5
134EA
330
134E2
100
AcDbEntity
  8
寸法
 62
     7
 48
50.0
100
AcDbMText
 10
8695.792356067659
 20
5499.123234409477
 30
0.0
 40
120.0
 41
0.0
 71
     5
 72
     1
  1
\A1;141
  7
STYLE1
 11
0.0287479117491237
 21
0.9995866933738488
 31
0.0
 73
     1
 44
1.0
1001
ACAD
1000
MTEXTBEGIN
1070
    73
1070
     1
1070
    44
1040
1.0
1070
    74
1070
     0
1000
MTEXTEND
  0
POINT
  5
134EB
330
134E2
100
AcDbEntity
  8
DEFPOINTS
 62
     0
 48
50.0
100
AcDbPoint
 10
9365.089977073072
 20
5249.779269954214
 30
0.0
  0
POINT
  5
134EC
330
134E2
100
AcDbEntity
  8
DEFPOINTS
 62
     0
 48
50.0
100
AcDbPoint
 10
9361.036521516446
 20
5108.837546188501
 30
0.0
  0
POINT
  5
134ED
330
134E2
100
AcDbEntity
  8
DEFPOINTS
 62
     0
 48
50.0
100
AcDbPoint
 10
8785.085550146121
 20
5125.401779992866
 30
0.0
  0
ENDBLK
  5
134EE
330
134E2
100
AcDbEntity
  8
0
 48
50.0
100
AcDbBlockEnd
  0
BLOCK
  5
134F0
330
134EF
100
AcDbEntity
  8
0
 48
50.0
100
AcDbBlockBegin
  2
*D10
 70
     1
 10
0.0
 20
0.0
 30
0.0
  3
*D10
  1

  0
LINE
  5
134F1
330
134EF
100
AcDbEntity
  8
寸法
 62
     0
 48
50.0
370
    -2
100
AcDbLine
 10
9313.193956914496
 20
2576.056521119534
 30
0.0
 11
9123.693953667858
 21
2576.056521119534
 31
0.0
  0
LINE
  5
134F2
330
134EF
100
AcDbEntity
  8
寸法
 62
     0
 48
50.0
370
    -2
100
AcDbLine
 10
9288.193956914494
 20
2776.056521119535
 30
0.0
 11
9123.693953667858
 21
2776.056521119536
 31
0.0
  0
LINE
  5
134F3
330
134EF
100
AcDbEntity
  8
寸法
 62
     0
 48
50.0
370
    -2
100
AcDbLine
 10
9183.693953667859
 20
2576.056521119534
 30
0.0
 11
9183.693953667859
 21
2776.056521119536
 31
0.0
  0
INSERT
  5
134F4
330
134EF
100
AcDbEntity
  8
寸法
 62
     0
 48
50.0
370
    -2
100
AcDbBlockReference
  2
_DOTSMALL
 10
9183.693953667859
 20
2576.056521119534
 30
0.0
 41
100.0
 42
100.0
 43
100.0
 50
270.0
  0
INSERT
  5
134F5
330
134EF
100
AcDbEntity
  8
寸法
 62
     0
 48
50.0
370
    -2
100
AcDbBlockReference
  2
_DOTSMALL
 10
9183.693953667859
 20
2776.056521119536
 30
0.0
 41
100.0
 42
100.0
 43
100.0
 50
90.0
  0
MTEXT
  5
134F6
330
134EF
100
AcDbEntity
  8
寸法
 62
     7
 48
50.0
100
AcDbMText
 10
9083.682142644237
 20
2676.056521119536
 30
0.0
 40
120.0
 41
0.0
 71
     5
 72
     1
  1
\A1;200
  7
STYLE1
 11
0.0000000000000001
 21
1.0
 31
0.0
 73
     1
 44
1.0
1001
ACAD
1000
MTEXTBEGIN
1070
    73
1070
     1
1070
    44
1040
1.0
1070
    74
1070
     0
1000
MTEXTEND
  0
POINT
  5
134F7
330
134EF
100
AcDbEntity
  8
DEFPOINTS
 62
     0
 48
50.0
100
AcDbPoint
 10
9333.193956914497
 20
2576.056521119534
 30
0.0
  0
POINT
  5
134F8
330
134EF
100
AcDbEntity
  8
DEFPOINTS
 62
     0
 48
50.0
100
AcDbPoint
 10
9308.193956914491
 20
2776.056521119535
 30
0.0
  0
POINT
  5
134F9
330
134EF
100
AcDbEntity
  8
DEFPOINTS
 62
     0
 48
50.0
100
AcDbPoint
 10
9183.693953667859
 20
2776.056521119536
 30
0.0
  0
ENDBLK
  5
134FA
330
134EF
100
AcDbEntity
  8
0
 48
50.0
100
AcDbBlockEnd
  0
BLOCK
  5
134FC
330
134FB
100
AcDbEntity
  8
0
 48
50.0
100
AcDbBlockBegin
  2
*D11
 70
     1
 10
0.0
 20
0.0
 30
0.0
  3
*D11
  1

  0
LINE
  5
134FD
330
134FB
100
AcDbEntity
  8
寸法
 62
     0
 48
50.0
370
    -2
100
AcDbLine
 10
9533.193956914493
 20
2556.056521119533
 30
0.0
 11
9533.193956914493
 21
2230.009191819157
 31
0.0
  0
LINE
  5
134FE
330
134FB
100
AcDbEntity
  8
寸法
 62
     0
 48
50.0
370
    -2
100
AcDbLine
 10
9333.193956914497
 20
2556.056521119534
 30
0.0
 11
9333.193956914497
 21
2230.009191819157
 31
0.0
  0
LINE
  5
134FF
330
134FB
100
AcDbEntity
  8
寸法
 62
     0
 48
50.0
370
    -2
100
AcDbLine
 10
9533.193956914493
 20
2290.009191819157
 30
0.0
 11
9333.193956914497
 21
2290.009191819157
 31
0.0
  0
INSERT
  5
13500
330
134FB
100
AcDbEntity
  8
寸法
 62
     0
 48
50.0
370
    -2
100
AcDbBlockReference
  2
_DOTSMALL
 10
9533.193956914493
 20
2290.009191819157
 30
0.0
 41
100.0
 42
100.0
 43
100.0
  0
INSERT
  5
13501
330
134FB
100
AcDbEntity
  8
寸法
 62
     0
 48
50.0
370
    -2
100
AcDbBlockReference
  2
_DOTSMALL
 10
9333.193956914497
 20
2290.009191819157
 30
0.0
 41
100.0
 42
100.0
 43
100.0
 50
180.0
  0
MTEXT
  5
13502
330
134FB
100
AcDbEntity
  8
寸法
 62
     7
 48
50.0
100
AcDbMText
 10
9433.193956914495
 20
2390.021002842779
 30
0.0
 40
120.0
 41
0.0
 71
     5
 72
     1
  1
\A1;200
  7
STYLE1
 73
     1
 44
1.0
1001
ACAD
1000
MTEXTBEGIN
1070
    73
1070
     1
1070
    44
1040
1.0
1070
    74
1070
     0
1000
MTEXTEND
  0
POINT
  5
13503
330
134FB
100
AcDbEntity
  8
DEFPOINTS
 62
     0
 48
50.0
100
AcDbPoint
 10
9533.193956914493
 20
2576.056521119533
 30
0.0
  0
POINT
  5
13504
330
134FB
100
AcDbEntity
  8
DEFPOINTS
 62
     0
 48
50.0
100
AcDbPoint
 10
9333.193956914497
 20
2576.056521119534
 30
0.0
  0
POINT
  5
13505
330
134FB
100
AcDbEntity
  8
DEFPOINTS
 62
     0
 48
50.0
100
AcDbPoint
 10
9333.193956914497
 20
2290.009191819157
 30
0.0
  0
ENDBLK
  5
13506
330
134FB
100
AcDbEntity
  8
0
 48
50.0
100
AcDbBlockEnd
  0
BLOCK
  5
13508
330
13507
100
AcDbEntity
  8
0
 48
50.0
100
AcDbBlockBegin
  2
*D12
 70
     1
 10
0.0
 20
0.0
 30
0.0
  3
*D12
  1

  0
LINE
  5
13509
330
13507
100
AcDbEntity
  8
寸法
 62
     0
 48
50.0
370
    -2
100
AcDbLine
 10
11635.69395691449
 20
2876.056521119535
 30
0.0
 11
12380.62111488662
 21
2876.056521119535
 31
0.0
  0
LINE
  5
1350A
330
13507
100
AcDbEntity
  8
寸法
 62
     0
 48
50.0
370
    -2
100
AcDbLine
 10
11715.69395691449
 20
5196.056521119537
 30
0.0
 11
12380.62111488662
 21
5196.056521119537
 31
0.0
  0
LINE
  5
1350B
330
13507
100
AcDbEntity
  8
寸法
 62
     0
 48
50.0
370
    -2
100
AcDbLine
 10
12320.62111488662
 20
2876.056521119535
 30
0.0
 11
12320.62111488662
 21
5196.056521119537
 31
0.0
  0
INSERT
  5
1350C
330
13507
100
AcDbEntity
  8
寸法
 62
     0
 48
50.0
370
    -2
100
AcDbBlockReference
  2
_DOTSMALL
 10
12320.62111488662
 20
2876.056521119535
 30
0.0
 41
100.0
 42
100.0
 43
100.0
 50
270.0
  0
INSERT
  5
1350D
330
13507
100
AcDbEntity
  8
寸法
 62
     0
 48
50.0
370
    -2
100
AcDbBlockReference
  2
_DOTSMALL
 10
12320.62111488662
 20
5196.056521119537
 30
0.0
 41
100.0
 42
100.0
 43
100.0
 50
90.0
  0
MTEXT
  5
1350E
330
13507
100
AcDbEntity
  8
寸法
 62
     7
 48
50.0
100
AcDbMText
 10
12220.60930386299
 20
4036.056521119538
 30
0.0
 40
120.0
 41
0.0
 71
     5
 72
     1
  1
\A1;2320
  7
STYLE1
 11
0.0000000000000001
 21
1.0
 31
0.0
 73
     1
 44
1.0
1001
ACAD
1000
MTEXTBEGIN
1070
    73
1070
     1
1070
    44
1040
1.0
1070
    74
1070
     0
1000
MTEXTEND
  0
POINT
  5
1350F
330
13507
100
AcDbEntity
  8
DEFPOINTS
 62
     0
 48
50.0
100
AcDbPoint
 10
11615.69395691449
 20
2876.056521119535
 30
0.0
  0
POINT
  5
13510
330
13507
100
AcDbEntity
  8
DEFPOINTS
 62
     0
 48
50.0
100
AcDbPoint
 10
11695.69395691449
 20
5196.056521119537
 30
0.0
  0
POINT
  5
13511
330
13507
100
AcDbEntity
  8
DEFPOINTS
 62
     0
 48
50.0
100
AcDbPoint
 10
12320.62111488662
 20
5196.056521119537
 30
0.0
  0
ENDBLK
  5
13512
330
13507
100
AcDbEntity
  8
0
 48
50.0
100
AcDbBlockEnd
  0
BLOCK
  5
13514
330
13513
100
AcDbEntity
  8
0
 48
50.0
100
AcDbBlockBegin
  2
*D13
 70
     1
 10
0.0
 20
0.0
 30
0.0
  3
*D13
  1

  0
LINE
  5
13515
330
13513
100
AcDbEntity
  8
寸法
 62
     0
 48
50.0
370
    -2
100
AcDbLine
 10
9385.693956914492
 20
5008.056521119535
 30
0.0
 11
8800.78531551724
 21
5008.056521119535
 31
0.0
  0
LINE
  5
13516
330
13513
100
AcDbEntity
  8
寸法
 62
     0
 48
50.0
370
    -2
100
AcDbLine
 10
9385.693956914492
 20
2938.056521119536
 30
0.0
 11
8800.785315517238
 21
2938.056521119536
 31
0.0
  0
LINE
  5
13517
330
13513
100
AcDbEntity
  8
寸法
 62
     0
 48
50.0
370
    -2
100
AcDbLine
 10
8860.785315517238
 20
5008.056521119535
 30
0.0
 11
8860.785315517238
 21
2938.056521119536
 31
0.0
  0
INSERT
  5
13518
330
13513
100
AcDbEntity
  8
寸法
 62
     0
 48
50.0
370
    -2
100
AcDbBlockReference
  2
_DOTSMALL
 10
8860.785315517238
 20
5008.056521119535
 30
0.0
 41
100.0
 42
100.0
 43
100.0
 50
90.0
  0
INSERT
  5
13519
330
13513
100
AcDbEntity
  8
寸法
 62
     0
 48
50.0
370
    -2
100
AcDbBlockReference
  2
_DOTSMALL
 10
8860.785315517238
 20
2938.056521119536
 30
0.0
 41
100.0
 42
100.0
 43
100.0
 50
270.0
  0
MTEXT
  5
1351A
330
13513
100
AcDbEntity
  8
寸法
 62
     7
 48
50.0
100
AcDbMText
 10
8760.773504493617
 20
3973.056521119537
 30
0.0
 40
120.0
 41
0.0
 71
     5
 72
     1
  1
\A1;有効開口部高サ2070
  7
STYLE1
 11
0.0000000000000001
 21
1.0
 31
0.0
 73
     1
 44
1.0
1001
ACAD
1000
MTEXTBEGIN
1070
    73
1070
     1
1070
    44
1040
1.0
1070
    74
1070
     0
1000
MTEXTEND
  0
POINT
  5
1351B
330
13513
100
AcDbEntity
  8
DEFPOINTS
 62
     0
 48
50.0
100
AcDbPoint
 10
9405.693956914493
 20
5008.056521119535
 30
0.0
  0
POINT
  5
1351C
330
13513
100
AcDbEntity
  8
DEFPOINTS
 62
     0
 48
50.0
100
AcDbPoint
 10
9405.693956914493
 20
2938.056521119536
 30
0.0
  0
POINT
  5
1351D
330
13513
100
AcDbEntity
  8
DEFPOINTS
 62
     0
 48
50.0
100
AcDbPoint
 10
8860.785315517238
 20
2938.056521119536
 30
0.0
  0
ENDBLK
  5
1351E
330
13513
100
AcDbEntity
  8
0
 48
50.0
100
AcDbBlockEnd
  0
BLOCK
  5
13520
330
1351F
100
AcDbEntity
  8
0
 48
50.0
100
AcDbBlockBegin
  2
*D14
 70
     1
 10
0.0
 20
0.0
 30
0.0
  3
*D14
  1

  0
LINE
  5
13521
330
1351F
100
AcDbEntity
  8
寸法
 62
     0
 48
50.0
370
    -2
100
AcDbLine
 10
9385.693956914492
 20
5016.056521119535
 30
0.0
 11
8501.943827731235
 21
5016.056521119535
 31
0.0
  0
LINE
  5
13522
330
1351F
100
AcDbEntity
  8
寸法
 62
     0
 48
50.0
370
    -2
100
AcDbLine
 10
9385.693956914492
 20
2926.056521119535
 30
0.0
 11
8501.943827731233
 21
2926.056521119536
 31
0.0
  0
LINE
  5
13523
330
1351F
100
AcDbEntity
  8
寸法
 62
     0
 48
50.0
370
    -2
100
AcDbLine
 10
8561.943827731235
 20
5016.056521119535
 30
0.0
 11
8561.943827731232
 21
2926.056521119536
 31
0.0
  0
INSERT
  5
13524
330
1351F
100
AcDbEntity
  8
寸法
 62
     0
 48
50.0
370
    -2
100
AcDbBlockReference
  2
_DOTSMALL
 10
8561.943827731235
 20
5016.056521119535
 30
0.0
 41
100.0
 42
100.0
 43
100.0
 50
90.0
  0
INSERT
  5
13525
330
1351F
100
AcDbEntity
  8
寸法
 62
     0
 48
50.0
370
    -2
100
AcDbBlockReference
  2
_DOTSMALL
 10
8561.943827731232
 20
2926.056521119536
 30
0.0
 41
100.0
 42
100.0
 43
100.0
 50
270.0
  0
MTEXT
  5
13526
330
1351F
100
AcDbEntity
  8
寸法
 62
     7
 48
50.0
100
AcDbMText
 10
8461.932016707612
 20
3971.056521119537
 30
0.0
 40
120.0
 41
0.0
 71
     5
 72
     1
  1
\A1;2090
  7
STYLE1
 11
0.0000000000000001
 21
1.0
 31
0.0
 73
     1
 44
1.0
1001
ACAD
1000
MTEXTBEGIN
1070
    73
1070
     1
1070
    44
1040
1.0
1070
    74
1070
     0
1000
MTEXTEND
  0
POINT
  5
13527
330
1351F
100
AcDbEntity
  8
DEFPOINTS
 62
     0
 48
50.0
100
AcDbPoint
 10
9405.693956914493
 20
5016.056521119535
 30
0.0
  0
POINT
  5
13528
330
1351F
100
AcDbEntity
  8
DEFPOINTS
 62
     0
 48
50.0
100
AcDbPoint
 10
9405.693956914493
 20
2926.056521119535
 30
0.0
  0
POINT
  5
13529
330
1351F
100
AcDbEntity
  8
DEFPOINTS
 62
     0
 48
50.0
100
AcDbPoint
 10
8561.943827731232
 20
2926.056521119536
 30
0.0
  0
ENDBLK
  5
1352A
330
1351F
100
AcDbEntity
  8
0
 48
50.0
100
AcDbBlockEnd
  0
BLOCK
  5
1352C
330
1352B
100
AcDbEntity
  8
0
 48
50.0
100
AcDbBlockBegin
  2
*D15
 70
     1
 10
0.0
 20
0.0
 30
0.0
  3
*D15
  1

  0
LINE
  5
1352D
330
1352B
100
AcDbEntity
  8
寸法
 62
     0
 48
50.0
370
    -2
100
AcDbLine
 10
9385.693956914492
 20
2876.056521119535
 30
0.0
 11
8201.943827731232
 21
2876.056521119536
 31
0.0
  0
LINE
  5
1352E
330
1352B
100
AcDbEntity
  8
寸法
 62
     0
 48
50.0
370
    -2
100
AcDbLine
 10
9325.693956914497
 20
5251.05652111954
 30
0.0
 11
8201.943827731232
 21
5251.05652111954
 31
0.0
  0
LINE
  5
1352F
330
1352B
100
AcDbEntity
  8
寸法
 62
     0
 48
50.0
370
    -2
100
AcDbLine
 10
8261.943827731231
 20
2876.056521119536
 30
0.0
 11
8261.943827731233
 21
5251.05652111954
 31
0.0
  0
INSERT
  5
13530
330
1352B
100
AcDbEntity
  8
寸法
 62
     0
 48
50.0
370
    -2
100
AcDbBlockReference
  2
_DOTSMALL
 10
8261.943827731231
 20
2876.056521119536
 30
0.0
 41
100.0
 42
100.0
 43
100.0
 50
270.0
  0
INSERT
  5
13531
330
1352B
100
AcDbEntity
  8
寸法
 62
     0
 48
50.0
370
    -2
100
AcDbBlockReference
  2
_DOTSMALL
 10
8261.943827731233
 20
5251.05652111954
 30
0.0
 41
100.0
 42
100.0
 43
100.0
 50
90.0
  0
MTEXT
  5
13532
330
1352B
100
AcDbEntity
  8
寸法
 62
     7
 48
50.0
100
AcDbMText
 10
8161.932016707609
 20
4063.556521119539
 30
0.0
 40
120.0
 41
0.0
 71
     5
 72
     1
  1
\A1;2375
  7
STYLE1
 11
0.0000000000000001
 21
1.0
 31
0.0
 73
     1
 44
1.0
1001
ACAD
1000
MTEXTBEGIN
1070
    73
1070
     1
1070
    44
1040
1.0
1070
    74
1070
     0
1000
MTEXTEND
  0
POINT
  5
13533
330
1352B
100
AcDbEntity
  8
DEFPOINTS
 62
     0
 48
50.0
100
AcDbPoint
 10
9405.693956914493
 20
2876.056521119535
 30
0.0
  0
POINT
  5
13534
330
1352B
100
AcDbEntity
  8
DEFPOINTS
 62
     0
 48
50.0
100
AcDbPoint
 10
9345.693956914496
 20
5251.05652111954
 30
0.0
  0
POINT
  5
13535
330
1352B
100
AcDbEntity
  8
DEFPOINTS
 62
     0
 48
50.0
100
AcDbPoint
 10
8261.943827731233
 20
5251.05652111954
 30
0.0
  0
ENDBLK
  5
13536
330
1352B
100
AcDbEntity
  8
0
 48
50.0
100
AcDbBlockEnd
  0
BLOCK
  5
135B4
330
13539
100
AcDbEntity
  8
0
 48
50.0
100
AcDbBlockBegin
  2
A$C0E4129C6
 70
     0
 10
0.0
 20
0.0
 30
0.0
  3
A$C0E4129C6
  1

  0
DIMENSION
  5
1353A
330
13539
100
AcDbEntity
  8
寸法
100
AcDbDimension
  2
*D13
 10
4319.155345832772
 20
1151.87234700923
 30
0.0
 11
4219.143534809151
 21
2186.872347009231
 31
0.0
 12
-4541.629969684465
 22
-1786.184174110305
 32
0.0
  1
有効開口部高サ<>
 71
     5
 42
2070.0
  3
INABA_S40G
100
AcDbAlignedDimension
 13
4864.063987230027
 23
3221.87234700923
 33
0.0
 14
4864.063987230027
 24
1151.87234700923
 34
0.0
 50
90.0
100
AcDbRotatedDimension
1001
ACAD
1000
DSTYLE
1002
{
1070
   174
1070
     0
1070
   272
1070
     1
1070
   288
1070
     0
1070
   341
1005
0
1002
}
  0
DIMENSION
  5
1353B
330
13539
100
AcDbEntity
  8
寸法
100
AcDbDimension
  2
*D14
 10
4020.313858046767
 20
1139.87234700923
 30
0.0
 11
3920.302047023146
 21
2184.872347009231
 31
0.0
 12
-4541.629969684465
 22
-1786.184174110305
 32
0.0
 71
     5
 42
2089.999999999999
  3
INABA_S40G
100
AcDbAlignedDimension
 13
4864.063987230027
 23
3229.87234700923
 33
0.0
 14
4864.063987230027
 24
1139.87234700923
 34
0.0
 50
90.0
100
AcDbRotatedDimension
1001
ACAD
1000
DSTYLE
1002
{
1070
   174
1070
     0
1070
   272
1070
     1
1070
   288
1070
     0
1070
   341
1005
0
1002
}
  0
DIMENSION
  5
1353C
330
13539
100
AcDbEntity
  8
寸法
100
AcDbDimension
  2
*D15
 10
3720.313858046767
 20
3464.872347009235
 30
0.0
 11
3620.302047023145
 21
2277.372347009234
 31
0.0
 12
-4541.629969684465
 22
-1786.184174110305
 32
0.0
 71
     5
 42
2375.000000000004
  3
INABA_S40G
100
AcDbAlignedDimension
 13
4864.063987230027
 23
1089.87234700923
 33
0.0
 14
4804.063987230031
 24
3464.872347009235
 34
0.0
 50
90.0
100
AcDbRotatedDimension
1001
ACAD
1000
DSTYLE
1002
{
1070
   174
1070
     0
1070
   272
1070
     1
1070
   288
1070
     0
1070
   341
1005
0
1002
}
  0
DIMENSION
  5
1353D
330
13539
100
AcDbEntity
  8
寸法
100
AcDbDimension
  2
*D12
 10
7778.991145202155
 20
3409.872347009231
 30
0.0
 11
7678.979334178531
 21
2249.872347009232
 31
0.0
 12
-4541.629969684465
 22
-1786.184174110305
 32
0.0
 71
     5
 42
2320.000000000001
  3
INABA_S40G
100
AcDbAlignedDimension
 13
7074.06398723003
 23
1089.87234700923
 33
0.0
 14
7154.06398723003
 24
3409.872347009231
 34
0.0
 50
90.0
100
AcDbRotatedDimension
1001
ACAD
1000
DSTYLE
1002
{
1070
   174
1070
     0
1070
   272
1070
     1
1070
   288
1070
     0
1070
   341
1005
0
1002
}
  0
LINE
  5
1353E
330
13539
100
AcDbEntity
  8
破線
 48
5.0
100
AcDbLine
 10
6946.563987230034
 20
989.8723470092299
 30
0.0
 11
6946.563987230034
 21
789.872347009229
 31
0.0
  0
LINE
  5
1353F
330
13539
100
AcDbEntity
  8
破線
 48
5.0
100
AcDbLine
 10
7146.563987230031
 20
789.8723470092281
 30
0.0
 11
6946.563987230034
 21
789.872347009229
 31
0.0
  0
LINE
  5
13540
330
13539
100
AcDbEntity
  8
破線
 48
5.0
100
AcDbLine
 10
7146.563987230035
 20
989.8723470092299
 30
0.0
 11
7146.563987230031
 21
789.8723470092281
 31
0.0
  0
DIMENSION
  5
13541
330
13539
100
AcDbEntity
  8
寸法
 48
50.0
100
AcDbDimension
  2
*D11
 10
4791.563987230031
 20
503.8250177088516
 30
0.0
 11
4891.563987230028
 21
503.8250177088516
 31
0.0
 12
-4541.629969684465
 22
-1786.184174110305
 32
0.0
 70
   128
 71
     5
 42
199.9999999999963
  3
INABA_S40G
100
AcDbAlignedDimension
 13
4991.563987230027
 23
789.8723470092277
 33
0.0
 14
4791.563987230031
 24
789.8723470092286
 34
0.0
100
AcDbRotatedDimension
  0
LINE
  5
13542
330
13539
100
AcDbEntity
  8
破線
 48
5.0
100
AcDbLine
 10
4791.563987230027
 20
989.8723470092296
 30
0.0
 11
4791.563987230031
 21
789.8723470092286
 31
0.0
  0
LINE
  5
13543
330
13539
100
AcDbEntity
  8
破線
 48
5.0
100
AcDbLine
 10
4991.563987230027
 20
989.8723470092296
 30
0.0
 11
4991.563987230027
 21
789.8723470092277
 31
0.0
  0
LINE
  5
13544
330
13539
100
AcDbEntity
  8
破線
 48
5.0
100
AcDbLine
 10
4991.563987230027
 20
789.8723470092277
 30
0.0
 11
4791.563987230031
 21
789.8723470092286
 31
0.0
  0
DIMENSION
  5
13545
330
13539
100
AcDbEntity
  8
寸法
 48
50.0
100
AcDbDimension
  2
*D10
 10
4642.063983983393
 20
989.8723470092299
 30
0.0
 11
4642.063983983393
 21
889.8723470092308
 31
0.0
 12
-4541.629969684465
 22
-1786.184174110305
 32
0.0
 70
   128
 71
     5
 42
200.0000000000009
  3
INABA_S40G
100
AcDbAlignedDimension
 13
4791.563987230031
 23
789.8723470092286
 33
0.0
 14
4766.563987230028
 24
989.8723470092296
 34
0.0
 50
90.0
100
AcDbRotatedDimension
1001
ACAD
1000
DSTYLE
1002
{
1070
   174
1070
     0
1070
   272
1070
     1
1070
   288
1070
     0
1070
   341
1005
0
1002
}
  0
DIMENSION
  5
13546
330
13539
100
AcDbEntity
  8
寸法
 48
50.0
100
AcDbDimension
  2
*D9
 10
4243.455580461655
 20
3339.217605882562
 30
0.0
 11
4254.121055720579
 21
3710.064269124259
 31
0.0
 12
-4541.629969684465
 22
-1786.184174110305
 32
0.0
 70
   129
 71
     5
 42
141.0
  3
INABA_S40G
100
AcDbAlignedDimension
 13
4823.460007388607
 23
3463.59509584391
 33
0.0
 14
4819.40655183198
 24
3322.653372078197
 34
0.0
1001
ACAD
1000
DSTYLE
1002
{
1070
   174
1070
     0
1070
   272
1070
     1
1070
   288
1070
     0
1070
   341
1005
0
1002
}
  0
LINE
  5
13547
330
13539
100
AcDbEntity
  8
細線
 48
50.0
100
AcDbLine
 10
6941.563987230034
 20
3229.87234700923
 30
0.0
 11
6941.563987230034
 21
1139.87234700923
 31
0.0
  0
LINE
  5
13548
330
13539
100
AcDbEntity
  8
細線
 48
50.0
100
AcDbLine
 10
6956.563987230035
 20
3229.87234700923
 30
0.0
 11
6956.563987230035
 21
1139.87234700923
 31
0.0
  0
LINE
  5
13549
330
13539
100
AcDbEntity
  8
細線
 48
50.0
100
AcDbLine
 10
6816.563987230034
 20
3229.87234700923
 30
0.0
 11
6816.563987230034
 21
1139.87234700923
 31
0.0
  0
LINE
  5
1354A
330
13539
100
AcDbEntity
  8
細線
 48
50.0
100
AcDbLine
 10
6801.563987230034
 20
3229.87234700923
 30
0.0
 11
6801.563987230034
 21
1139.87234700923
 31
0.0
  0
LINE
  5
1354B
330
13539
100
AcDbEntity
  8
細線
 48
50.0
100
AcDbLine
 10
6661.563987230035
 20
3229.87234700923
 30
0.0
 11
6661.563987230035
 21
1139.87234700923
 31
0.0
  0
LINE
  5
1354C
330
13539
100
AcDbEntity
  8
細線
 48
50.0
100
AcDbLine
 10
6676.563987230034
 20
3229.87234700923
 30
0.0
 11
6676.563987230034
 21
1139.87234700923
 31
0.0
  0
LINE
  5
1354D
330
13539
100
AcDbEntity
  8
部品1
100
AcDbLine
 10
6179.063987230027
 20
3229.87234700923
 30
0.0
 11
6179.063987230027
 21
1139.87234700923
 31
0.0
  0
LINE
  5
1354E
330
13539
100
AcDbEntity
  8
細線
 48
50.0
100
AcDbLine
 10
5836.563987230031
 20
3229.87234700923
 30
0.0
 11
5836.563987230031
 21
1139.87234700923
 31
0.0
  0
LINE
  5
1354F
330
13539
100
AcDbEntity
  8
細線
 48
50.0
100
AcDbLine
 10
5821.563987230031
 20
3229.87234700923
 30
0.0
 11
5821.563987230031
 21
1139.87234700923
 31
0.0
  0
LINE
  5
13550
330
13539
100
AcDbEntity
  8
細線
 48
50.0
100
AcDbLine
 10
5961.563987230031
 20
3229.87234700923
 30
0.0
 11
5961.563987230031
 21
1139.87234700923
 31
0.0
  0
LINE
  5
13551
330
13539
100
AcDbEntity
  8
細線
 48
50.0
100
AcDbLine
 10
5976.563987230031
 20
3229.87234700923
 30
0.0
 11
5976.563987230031
 21
1139.87234700923
 31
0.0
  0
LINE
  5
13552
330
13539
100
AcDbEntity
  8
細線
 48
50.0
100
AcDbLine
 10
6116.563987230031
 20
3229.87234700923
 30
0.0
 11
6116.563987230031
 21
1139.87234700923
 31
0.0
  0
LINE
  5
13553
330
13539
100
AcDbEntity
  8
細線
 48
50.0
100
AcDbLine
 10
6101.563987230031
 20
3229.87234700923
 30
0.0
 11
6101.563987230031
 21
1139.87234700923
 31
0.0
  0
LINE
  5
13554
330
13539
100
AcDbEntity
  8
部品1
100
AcDbLine
 10
5759.063987230027
 20
3229.87234700923
 30
0.0
 11
5759.063987230027
 21
1139.87234700923
 31
0.0
  0
DIMENSION
  5
13555
330
13539
100
AcDbEntity
  8
寸法
 48
50.0
100
AcDbDimension
  2
*D8
 10
7154.063987230028
 20
3863.529800588535
 30
0.0
 11
7360.111231324518
 21
3863.529800588535
 31
0.0
 12
-4541.629969684465
 22
-1786.184174110305
 32
0.0
 70
   128
 71
     5
 42
80.0
  3
INABA_S40G
100
AcDbAlignedDimension
 13
7074.063987230028
 23
3411.683026620884
 33
0.0
 14
7154.063987230028
 24
3409.872347009231
 34
0.0
100
AcDbRotatedDimension
1001
ACAD
1000
DSTYLE
1002
{
1070
   174
1070
     0
1070
   272
1070
     1
1070
   288
1070
     0
1070
   341
1005
0
1002
}
  0
LINE
  5
13556
330
13539
100
AcDbEntity
  8
細線
 48
50.0
100
AcDbLine
 10
4996.563987230029
 20
3229.87234700923
 30
0.0
 11
4996.563987230027
 21
1139.87234700923
 31
0.0
  0
LINE
  5
13557
330
13539
100
AcDbEntity
  8
細線
 48
50.0
100
AcDbLine
 10
4981.563987230028
 20
3229.87234700923
 30
0.0
 11
4981.563987230027
 21
1139.87234700923
 31
0.0
  0
LINE
  5
13558
330
13539
100
AcDbEntity
  8
細線
 48
50.0
100
AcDbLine
 10
5121.563987230029
 20
3229.87234700923
 30
0.0
 11
5121.563987230027
 21
1139.87234700923
 31
0.0
  0
LINE
  5
13559
330
13539
100
AcDbEntity
  8
細線
 48
50.0
100
AcDbLine
 10
5136.563987230029
 20
3229.87234700923
 30
0.0
 11
5136.563987230027
 21
1139.87234700923
 31
0.0
  0
LINE
  5
1355A
330
13539
100
AcDbEntity
  8
細線
 48
50.0
100
AcDbLine
 10
5276.563987230029
 20
3229.87234700923
 30
0.0
 11
5276.563987230026
 21
1139.87234700923
 31
0.0
  0
LINE
  5
1355B
330
13539
100
AcDbEntity
  8
細線
 48
50.0
100
AcDbLine
 10
5261.563987230029
 20
3229.87234700923
 30
0.0
 11
5261.563987230027
 21
1139.87234700923
 31
0.0
  0
LINE
  5
1355C
330
13539
100
AcDbEntity
  8
細線
 48
50.0
100
AcDbLine
 10
5681.563987230028
 20
3229.87234700923
 30
0.0
 11
5681.563987230028
 21
1139.87234700923
 31
0.0
  0
LINE
  5
1355D
330
13539
100
AcDbEntity
  8
細線
 48
50.0
100
AcDbLine
 10
5696.563987230027
 20
3229.87234700923
 30
0.0
 11
5696.563987230027
 21
1139.87234700923
 31
0.0
  0
LINE
  5
1355E
330
13539
100
AcDbEntity
  8
細線
 48
50.0
100
AcDbLine
 10
5556.563987230028
 20
3229.87234700923
 30
0.0
 11
5556.563987230028
 21
1139.87234700923
 31
0.0
  0
LINE
  5
1355F
330
13539
100
AcDbEntity
  8
細線
 48
50.0
100
AcDbLine
 10
5541.563987230027
 20
3229.87234700923
 30
0.0
 11
5541.563987230027
 21
1139.87234700923
 31
0.0
  0
LINE
  5
13560
330
13539
100
AcDbEntity
  8
細線
 48
50.0
100
AcDbLine
 10
5401.563987230026
 20
3229.87234700923
 30
0.0
 11
5401.563987230026
 21
1139.87234700923
 31
0.0
  0
LINE
  5
13561
330
13539
100
AcDbEntity
  8
細線
 48
50.0
100
AcDbLine
 10
5416.563987230027
 20
3229.87234700923
 30
0.0
 11
5416.563987230027
 21
1139.87234700923
 31
0.0
  0
LINE
  5
13562
330
13539
100
AcDbEntity
  8
部品1
100
AcDbLine
 10
4911.563987230027
 20
1089.87234700923
 30
0.0
 11
7026.563987230026
 21
1089.87234700923
 31
0.0
  0
LINE
  5
13563
330
13539
100
AcDbEntity
  8
部品1
100
AcDbLine
 10
7066.563987230027
 20
1089.87234700923
 30
0.0
 11
7074.06398723003
 21
1089.87234700923
 31
0.0
  0
LINE
  5
13564
330
13539
100
AcDbEntity
  8
破線
  6
HIDDEN
 48
5.0
100
AcDbLine
 10
4911.563987230027
 20
989.8723470092296
 30
0.0
 11
4911.563987230027
 21
984.8723470092295
 31
0.0
  0
LINE
  5
13565
330
13539
100
AcDbEntity
  8
破線
  6
HIDDEN
 48
5.0
100
AcDbLine
 10
4871.563987230034
 20
989.8723470092296
 30
0.0
 11
4871.563987230034
 21
984.8723470092304
 31
0.0
  0
LINE
  5
13566
330
13539
100
AcDbEntity
  8
破線
  6
HIDDEN
 48
5.0
100
AcDbLine
 10
7066.563987230027
 20
989.8723470092299
 30
0.0
 11
7066.563987230027
 21
984.87234700923
 31
0.0
  0
LINE
  5
13567
330
13539
100
AcDbEntity
  8
破線
  6
HIDDEN
 48
5.0
100
AcDbLine
 10
7026.563987230026
 20
989.8723470092299
 30
0.0
 11
7026.563987230026
 21
984.87234700923
 31
0.0
  0
ARC
  5
13568
330
13539
100
AcDbEntity
  8
部品1
 48
50.0
100
AcDbCircle
 10
7061.563987230027
 20
1129.87234700923
 30
0.0
 40
5.0
100
AcDbArc
 50
0.0
 51
90.0
  0
ARC
  5
13569
330
13539
100
AcDbEntity
  8
部品1
 48
50.0
100
AcDbCircle
 10
7031.563987230026
 20
1129.87234700923
 30
0.0
 40
5.0
100
AcDbArc
 50
90.0
 51
180.0
  0
LINE
  5
1356A
330
13539
100
AcDbEntity
  8
部品1
100
AcDbLine
 10
7061.563987230027
 20
1134.87234700923
 30
0.0
 11
7031.563987230026
 21
1134.87234700923
 31
0.0
  0
LINE
  5
1356B
330
13539
100
AcDbEntity
  8
部品1
 48
50.0
100
AcDbLine
 10
7066.563987230027
 20
1129.87234700923
 30
0.0
 11
7066.563987230027
 21
989.8723470092299
 31
0.0
  0
LINE
  5
1356C
330
13539
100
AcDbEntity
  8
部品1
 48
50.0
100
AcDbLine
 10
7026.563987230026
 20
1129.87234700923
 30
0.0
 11
7026.563987230026
 21
989.8723470092299
 31
0.0
  0
ARC
  5
1356D
330
13539
100
AcDbEntity
  8
部品1
 48
50.0
100
AcDbCircle
 10
4906.563987230027
 20
1129.87234700923
 30
0.0
 40
5.0
100
AcDbArc
 50
0.0
 51
90.0
  0
ARC
  5
1356E
330
13539
100
AcDbEntity
  8
部品1
 48
50.0
100
AcDbCircle
 10
4876.563987230027
 20
1129.87234700923
 30
0.0
 40
5.0
100
AcDbArc
 50
90.0
 51
180.0
  0
LINE
  5
1356F
330
13539
100
AcDbEntity
  8
部品1
100
AcDbLine
 10
4876.563987230027
 20
1134.87234700923
 30
0.0
 11
4906.563987230027
 21
1134.872347009229
 31
0.0
  0
LINE
  5
13570
330
13539
100
AcDbEntity
  8
部品1
 48
50.0
100
AcDbLine
 10
4911.563987230027
 20
1129.87234700923
 30
0.0
 11
4911.563987230027
 21
989.8723470092296
 31
0.0
  0
LINE
  5
13571
330
13539
100
AcDbEntity
  8
部品1
 48
50.0
100
AcDbLine
 10
4871.563987230027
 20
1129.87234700923
 30
0.0
 11
4871.563987230027
 21
989.8723470092296
 31
0.0
  0
LINE
  5
13572
330
13539
100
AcDbEntity
  8
破線
  6
HIDDEN
 48
5.0
100
AcDbLine
 10
4911.563987230027
 20
984.8723470092295
 30
0.0
 11
4926.563987230027
 21
837.1723470092296
 31
0.0
  0
LINE
  5
13573
330
13539
100
AcDbEntity
  8
破線
  6
HIDDEN
 48
5.0
100
AcDbLine
 10
4871.563987230027
 20
984.8723470092304
 30
0.0
 11
4856.563987230027
 21
837.1723470092296
 31
0.0
  0
LINE
  5
13574
330
13539
100
AcDbEntity
  8
破線
  6
HIDDEN
 48
5.0
100
AcDbLine
 10
4926.563987230027
 20
837.1723470092296
 30
0.0
 11
4926.563987230027
 21
834.8723470092295
 31
0.0
  0
LINE
  5
13575
330
13539
100
AcDbEntity
  8
破線
  6
HIDDEN
 48
5.0
100
AcDbLine
 10
4856.563987230027
 20
837.1723470092296
 30
0.0
 11
4856.563987230027
 21
834.8723470092295
 31
0.0
  0
LINE
  5
13576
330
13539
100
AcDbEntity
  8
破線
  6
HIDDEN
 48
5.0
100
AcDbLine
 10
4856.563987230027
 20
834.8723470092295
 30
0.0
 11
4926.563987230027
 21
834.8723470092295
 31
0.0
  0
LINE
  5
13577
330
13539
100
AcDbEntity
  8
破線
  6
HIDDEN
 48
5.0
100
AcDbLine
 10
7081.563987230026
 20
837.1723470092302
 30
0.0
 11
7081.563987230026
 21
834.87234700923
 31
0.0
  0
LINE
  5
13578
330
13539
100
AcDbEntity
  8
破線
  6
HIDDEN
 48
5.0
100
AcDbLine
 10
7066.563987230027
 20
984.87234700923
 30
0.0
 11
7081.563987230026
 21
837.1723470092302
 31
0.0
  0
LINE
  5
13579
330
13539
100
AcDbEntity
  8
破線
  6
HIDDEN
 48
5.0
100
AcDbLine
 10
7011.563987230028
 20
837.1723470092302
 30
0.0
 11
7011.563987230028
 21
834.87234700923
 31
0.0
  0
LINE
  5
1357A
330
13539
100
AcDbEntity
  8
破線
  6
HIDDEN
 48
5.0
100
AcDbLine
 10
7026.563987230026
 20
984.87234700923
 30
0.0
 11
7011.563987230028
 21
837.1723470092302
 31
0.0
  0
LINE
  5
1357B
330
13539
100
AcDbEntity
  8
破線
  6
HIDDEN
 48
5.0
100
AcDbLine
 10
7081.563987230026
 20
834.87234700923
 30
0.0
 11
7011.563987230028
 21
834.87234700923
 31
0.0
  0
DIMENSION
  5
1357C
330
13539
100
AcDbEntity
  8
寸法
 48
50.0
100
AcDbDimension
  2
*D7
 10
4804.063987230027
 20
4082.731634262826
 30
0.0
 11
6038.407841322496
 21
4082.731634262826
 31
0.0
 12
-4541.629969684465
 22
-1786.184174110305
 32
0.0
 70
   128
 71
     5
 42
2350.0
  3
INABA_S40G
100
AcDbAlignedDimension
 13
7154.063987230028
 23
3409.872347009231
 33
0.0
 14
4804.063987230027
 24
3464.872347009235
 34
0.0
100
AcDbRotatedDimension
1001
ACAD
1000
DSTYLE
1002
{
1070
   174
1070
     0
1070
   272
1070
     1
1070
   288
1070
     0
1070
   341
1005
0
1002
}
  0
DIMENSION
  5
1357D
330
13539
100
AcDbEntity
  8
寸法
 48
50.0
100
AcDbDimension
  2
*D6
 10
4804.063987230027
 20
3863.529800588535
 30
0.0
 11
4494.426191954437
 21
3863.529800588535
 31
0.0
 12
-4541.629969684465
 22
-1786.184174110305
 32
0.0
 70
   128
 71
     5
 42
60.0
  3
INABA_S40G
100
AcDbAlignedDimension
 13
4864.063987230027
 23
3460.873965132207
 33
0.0
 14
4804.063987230027
 24
3464.872347009235
 34
0.0
100
AcDbRotatedDimension
1001
ACAD
1000
DSTYLE
1002
{
1070
   174
1070
     0
1070
   272
1070
     1
1070
   288
1070
     0
1070
   341
1005
0
1002
}
  0
DIMENSION
  5
1357E
330
13539
100
AcDbEntity
  8
寸法
 48
50.0
100
AcDbDimension
  2
*D5
 10
4864.063987230027
 20
3863.529800588535
 30
0.0
 11
5958.70872430054
 21
3863.529800588535
 31
0.0
 12
-4541.629969684465
 22
-1786.184174110305
 32
0.0
 70
   128
  1
柱外寸法<>
 71
     5
 42
2210.0
  3
INABA_S40G
100
AcDbAlignedDimension
 13
7074.063987230028
 23
3411.683026620884
 33
0.0
 14
4864.063987230027
 24
3460.873965132207
 34
0.0
100
AcDbRotatedDimension
1001
ACAD
1000
DSTYLE
1002
{
1070
   174
1070
     0
1070
   272
1070
     1
1070
   288
1070
     0
1070
   341
1005
0
1002
}
  0
LINE
  5
1357F
330
13539
100
AcDbEntity
  8
部品1
100
AcDbLine
 10
6874.06398723003
 20
1089.87234700923
 30
0.0
 11
6874.06398723003
 21
989.8723470092299
 31
0.0
  0
LINE
  5
13580
330
13539
100
AcDbEntity
  8
部品1
100
AcDbLine
 10
5064.063987230027
 20
1089.87234700923
 30
0.0
 11
5064.063987230027
 21
989.8723470092299
 31
0.0
  0
LINE
  5
13581
330
13539
100
AcDbEntity
  8
部品1
100
AcDbLine
 10
7019.063987230032
 20
3229.87234700923
 30
0.0
 11
7019.063987230031
 21
1139.87234700923
 31
0.0
  0
LINE
  5
13582
330
13539
100
AcDbEntity
  8
部品1
100
AcDbLine
 10
7074.063987230028
 20
3284.548784640451
 30
0.0
 11
7074.06398723003
 21
989.8723470092299
 31
0.0
  0
LINE
  5
13583
330
13539
100
AcDbEntity
  8
部品1
100
AcDbLine
 10
5339.063987230026
 20
3229.87234700923
 30
0.0
 11
5339.063987230026
 21
1139.87234700923
 31
0.0
  0
DIMENSION
  5
13584
330
13539
100
AcDbEntity
  8
寸法
100
AcDbDimension
  2
*D4
 10
4020.313858046767
 20
1089.87234700923
 30
0.0
 11
4020.313858046767
 21
783.8251029147422
 31
0.0
 12
-4541.629969684465
 22
-1786.184174110305
 32
0.0
 70
   128
 71
     5
 42
50.0
  3
INABA_S40G
100
AcDbAlignedDimension
 13
4864.063987230027
 23
1139.87234700923
 33
0.0
 14
4809.063987230027
 24
1089.87234700923
 34
0.0
 50
90.0
100
AcDbRotatedDimension
1001
ACAD
1000
DSTYLE
1002
{
1070
   174
1070
     0
1070
   272
1070
     1
1070
   288
1070
     0
1070
   341
1005
0
1002
}
  0
DIMENSION
  5
13585
330
13539
100
AcDbEntity
  8
寸法
100
AcDbDimension
  2
*D3
 10
3720.313858046767
 20
989.8723470092299
 30
0.0
 11
3720.313858046767
 21
753.8251029147422
 31
0.0
 12
-4541.629969684465
 22
-1786.184174110305
 32
0.0
 70
   128
 71
     5
 42
100.0000000000004
  3
INABA_S40G
100
AcDbAlignedDimension
 13
4809.063987230027
 23
1089.87234700923
 33
0.0
 14
3807.562911334895
 24
989.8723470092299
 34
0.0
 50
90.0
100
AcDbRotatedDimension
1001
ACAD
1000
DSTYLE
1002
{
1070
   174
1070
     0
1070
   272
1070
     1
1070
   288
1070
     0
1070
   341
1005
0
1002
}
  0
LINE
  5
13586
330
13539
100
AcDbEntity
  8
部品1
100
AcDbLine
 10
4864.063987230029
 20
3321.898644053817
 30
0.0
 11
4864.063987230027
 21
989.8723470092299
 31
0.0
  0
LINE
  5
13587
330
13539
100
AcDbEntity
  8
部品1
100
AcDbLine
 10
4919.063987230028
 20
3229.87234700923
 30
0.0
 11
4919.063987230027
 21
1139.87234700923
 31
0.0
  0
LINE
  5
13588
330
13539
100
AcDbEntity
  8
部品1
100
AcDbLine
 10
4864.063987230027
 20
1089.87234700923
 30
0.0
 11
4871.563987230027
 21
1089.872347009229
 31
0.0
  0
LINE
  5
13589
330
13539
100
AcDbEntity
  8
部品1
100
AcDbLine
 10
4864.063987230027
 20
1139.87234700923
 30
0.0
 11
7074.06398723003
 21
1139.872347009231
 31
0.0
  0
LINE
  5
1358A
330
13539
100
AcDbEntity
  8
部品1
100
AcDbLine
 10
4864.063987230027
 20
3229.87234700923
 30
0.0
 11
7074.063987230028
 21
3229.87234700923
 31
0.0
  0
LINE
  5
1358B
330
13539
100
AcDbEntity
  8
部品1
100
AcDbLine
 10
6599.063987230028
 20
3229.87234700923
 30
0.0
 11
6599.063987230028
 21
1139.87234700923
 31
0.0
  0
LINE
  5
1358C
330
13539
100
AcDbEntity
  8
細線
 48
50.0
100
AcDbLine
 10
6521.563987230031
 20
3229.87234700923
 30
0.0
 11
6521.563987230031
 21
1139.87234700923
 31
0.0
  0
LINE
  5
1358D
330
13539
100
AcDbEntity
  8
細線
 48
50.0
100
AcDbLine
 10
6536.563987230031
 20
3229.87234700923
 30
0.0
 11
6536.563987230031
 21
1139.87234700923
 31
0.0
  0
LINE
  5
1358E
330
13539
100
AcDbEntity
  8
細線
 48
50.0
100
AcDbLine
 10
6396.563987230031
 20
3229.87234700923
 30
0.0
 11
6396.563987230031
 21
1139.87234700923
 31
0.0
  0
LINE
  5
1358F
330
13539
100
AcDbEntity
  8
細線
 48
50.0
100
AcDbLine
 10
6381.56398723003
 20
3229.87234700923
 30
0.0
 11
6381.56398723003
 21
1139.87234700923
 31
0.0
  0
LINE
  5
13590
330
13539
100
AcDbEntity
  8
細線
 48
50.0
100
AcDbLine
 10
6241.563987230031
 20
3229.87234700923
 30
0.0
 11
6241.563987230031
 21
1139.87234700923
 31
0.0
  0
LINE
  5
13591
330
13539
100
AcDbEntity
  8
細線
 48
50.0
100
AcDbLine
 10
6256.56398723003
 20
3229.87234700923
 30
0.0
 11
6256.56398723003
 21
1139.87234700923
 31
0.0
  0
TEXT
  5
13592
330
13539
100
AcDbEntity
  8
部品1
 48
50.0
100
AcDbText
 10
6284.964845118844
 20
3493.687534284492
 30
0.0
 40
120.0
  1
44
 50
90.0
  7
STYLE1
100
AcDbText
  0
TEXT
  5
13593
330
13539
100
AcDbEntity
  8
部品1
 48
50.0
100
AcDbText
 10
5807.331822453754
 20
3631.188792502774
 30
0.0
 40
120.0
  1
1000
  7
STYLE1
100
AcDbText
  0
LINE
  5
13594
330
13539
100
AcDbEntity
  8
部品1
 48
50.0
100
AcDbLine
 10
6119.063987230028
 20
3595.304770350341
 30
0.0
 11
6119.063987230028
 21
3579.104770350342
 31
0.0
  0
LINE
  5
13595
330
13539
100
AcDbEntity
  8
部品1
 48
50.0
100
AcDbLine
 10
5819.063987230027
 20
3595.304770350341
 30
0.0
 11
6119.063987230028
 21
3595.304770350341
 31
0.0
  0
LINE
  5
13596
330
13539
100
AcDbEntity
  8
部品1
100
AcDbLine
 10
4811.60897358699
 20
3463.590082343497
 30
0.0
 11
7146.675864091491
 21
3408.513144718369
 31
0.0
  0
LINE
  5
13597
330
13539
100
AcDbEntity
  8
部品1
100
AcDbLine
 10
4819.40655183198
 20
3322.653372078197
 30
0.0
 11
7128.727687769876
 21
3283.624946843992
 31
0.0
  0
LINE
  5
13598
330
13539
100
AcDbEntity
  8
細線
 48
50.0
100
AcDbLine
 10
4837.063987230028
 20
3462.272023384635
 30
0.0
 11
4831.77488567452
 21
3322.186390757281
 31
0.0
  0
LINE
  5
13599
330
13539
100
AcDbEntity
  8
細線
 48
50.0
100
AcDbLine
 10
7121.06398723003
 20
3409.839326044526
 30
0.0
 11
7116.316304342032
 21
3284.093553553782
 31
0.0
  0
LINE
  5
1359A
330
13539
100
AcDbEntity
  8
部品1
 48
50.0
100
AcDbLine
 10
4804.248273143134
 20
3456.465893173923
 30
0.0
 11
4804.628532920946
 21
3436.538928727511
 31
0.0
  0
LINE
  5
1359B
330
13539
100
AcDbEntity
  8
部品1
 48
50.0
100
AcDbLine
 10
4807.697305027192
 20
3432.963647234039
 30
0.0
 11
4809.401206518556
 21
3343.673150527392
 31
0.0
  0
LINE
  5
1359C
330
13539
100
AcDbEntity
  8
細線
 48
50.0
100
AcDbLine
 10
4805.103410330841
 20
3435.889428850592
 30
0.0
 11
7150.739395076013
 21
3380.265224209764
 31
0.0
  0
LINE
  5
1359D
330
13539
100
AcDbEntity
  8
細線
 48
50.0
100
AcDbLine
 10
4809.863885568127
 20
3343.027917152728
 30
0.0
 11
7139.867549998766
 21
3303.218598178235
 31
0.0
  0
LINE
  5
1359E
330
13539
100
AcDbEntity
  8
部品1
 48
50.0
100
AcDbLine
 10
4812.469978624799
 20
3340.09786903392
 30
0.0
 11
4812.67193124523
 21
3329.514833640828
 31
0.0
  0
ARC
  5
1359F
330
13539
100
AcDbEntity
  8
部品1
 48
50.0
100
AcDbCircle
 10
4811.246998971474
 20
3456.59944758135
 30
0.0
 40
7.0
100
AcDbArc
 50
87.03587545293501
 51
181.0932240292896
  0
ARC
  5
135A0
330
13539
100
AcDbEntity
  8
部品1
 48
50.0
100
AcDbCircle
 10
4819.67065707357
 20
3329.648388048255
 30
0.0
 40
7.0
100
AcDbArc
 50
181.0932240292896
 51
267.8377559870533
  0
ARC
  5
135A1
330
13539
100
AcDbEntity
  8
部品1
100
AcDbCircle
 10
4809.470524698369
 20
3340.040631430737
 30
0.0
 40
3.0
100
AcDbArc
 50
1.093224029289586
 51
80.18775403159162
  0
ARC
  5
135A2
330
13539
100
AcDbEntity
  8
部品1
100
AcDbCircle
 10
4804.697851100762
 20
3432.906409630856
 30
0.0
 40
3.0
100
AcDbArc
 50
1.093224029289586
 51
80.18775403159162
  0
ARC
  5
135A3
330
13539
100
AcDbEntity
  8
部品1
100
AcDbCircle
 10
4805.328405503784
 20
3436.552284168254
 30
0.0
 40
0.7
100
AcDbArc
 50
181.0932240292114
 51
260.1877540315916
  0
ARC
  5
135A4
330
13539
100
AcDbEntity
  8
部品1
100
AcDbCircle
 10
4810.101079101394
 20
3343.686505968134
 30
0.0
 40
0.7
100
AcDbArc
 50
181.0932240292374
 51
260.1877540315916
  0
LINE
  5
135A5
330
13539
100
AcDbEntity
  8
部品1
 48
50.0
100
AcDbLine
 10
7153.277890040732
 20
3400.813499283449
 30
0.0
 11
7151.247268849762
 21
3380.868458025669
 31
0.0
  0
LINE
  5
135A6
330
13539
100
AcDbEntity
  8
部品1
 48
50.0
100
AcDbLine
 10
7147.894702365281
 20
3377.55782395276
 30
0.0
 11
7140.387923100444
 21
3303.825203207747
 31
0.0
  0
LINE
  5
135A7
330
13539
100
AcDbEntity
  8
部品1
 48
50.0
100
AcDbLine
 10
7137.035356615958
 20
3300.514569134835
 30
0.0
 11
7135.955793576217
 21
3289.910952141277
 31
0.0
  0
ARC
  5
135A8
330
13539
100
AcDbEntity
  8
部品1
 48
50.0
100
AcDbCircle
 10
7146.313889475976
 20
3401.522509956223
 30
0.0
 40
7.0
100
AcDbArc
 50
354.186699766522
 51
87.03587545293501
  0
ARC
  5
135A9
330
13539
100
AcDbEntity
  8
部品1
 48
50.0
100
AcDbCircle
 10
7128.991793011461
 20
3290.619962814051
 30
0.0
 40
7.0
100
AcDbArc
 50
267.8377559870533
 51
354.186699766522
  0
ARC
  5
135AA
330
13539
100
AcDbEntity
  8
部品1
100
AcDbCircle
 10
7140.019928286566
 20
3300.210707417932
 30
0.0
 40
3.0
100
AcDbArc
 50
95.0921697642102
 51
174.1866997665219
  0
ARC
  5
135AB
330
13539
100
AcDbEntity
  8
部品1
100
AcDbCircle
 10
7150.879274035891
 20
3377.253962235857
 30
0.0
 40
3.0
100
AcDbArc
 50
95.09216976431515
 51
174.1866997665219
  0
ARC
  5
135AC
330
13539
100
AcDbEntity
  8
部品1
100
AcDbCircle
 10
7150.550868793288
 20
3380.939359092946
 30
0.0
 40
0.7
100
AcDbArc
 50
275.0921697642102
 51
354.186699766522
  0
ARC
  5
135AD
330
13539
100
AcDbEntity
  8
部品1
100
AcDbCircle
 10
7139.69152304397
 20
3303.896104275022
 30
0.0
 40
0.7
100
AcDbArc
 50
275.0921697642102
 51
354.1866997666775
  0
LINE
  5
135AE
330
13539
100
AcDbEntity
  8
部品1
 48
50.0
100
AcDbLine
 10
5869.063987230028
 20
1089.87234700923
 30
0.0
 11
5869.063987230028
 21
989.8723470092299
 31
0.0
  0
LINE
  5
135AF
330
13539
100
AcDbEntity
  8
部品1
 48
50.0
100
AcDbLine
 10
6069.063987230027
 20
1089.87234700923
 30
0.0
 11
6069.063987230027
 21
989.8723470092299
 31
0.0
  0
LINE
  5
135B0
330
13539
100
AcDbEntity
  8
部品1
100
AcDbLine
 10
5793.60897358699
 20
3596.622829309203
 30
0.0
 11
6119.063987230028
 21
3579.104770350342
 31
0.0
  0
TEXT
  5
135B1
330
13539
100
AcDbEntity
  8
部品1
100
AcDbText
 10
5686.774755539416
 20
46.99878952088783
 30
0.0
 40
135.0
  1
側面図
  7
STYLE2
100
AcDbText
  0
LWPOLYLINE
  5
135B2
330
13539
100
AcDbEntity
  8
部品1
100
AcDbPolyline
 90
        4
 70
     1
 43
0.0
 10
5597.328654115809
 20
239.8923187394112
 10
5597.328654115809
 20
-0.0000028061213015
 10
6360.799320344248
 20
-0.0000028061213015
 10
6360.799320344248
 20
239.8923187394112
  0
LINE
  5
135B3
330
13539
100
AcDbEntity
  8
Ｇ．Ｌ
100
AcDbLine
 10
0.0000027520436561
 20
989.8723470092299
 30
0.0
 11
7731.43008411079
 21
989.8723470092299
 31
0.0
  0
ENDBLK
  5
135B5
330
13539
100
AcDbEntity
  8
0
 48
50.0
100
AcDbBlockEnd
  0
BLOCK
  5
13FE8
330
13FDE
100
AcDbEntity
  8
0
 48
50.0
100
AcDbBlockBegin
  2
*D17
 70
     1
 10
0.0
 20
0.0
 30
0.0
  3
*D17
  1

  0
LINE
  5
14717
330
13FDE
100
AcDbEntity
  8
寸法
 62
     0
 48
50.0
370
    -2
100
AcDbLine
 10
11265.72067958069
 20
4379.112805903257
 30
0.0
 11
10777.81203818343
 21
4379.112805903257
 31
0.0
  0
LINE
  5
14718
330
13FDE
100
AcDbEntity
  8
寸法
 62
     0
 48
50.0
370
    -2
100
AcDbLine
 10
11265.72067958068
 20
2354.112805903256
 30
0.0
 11
10777.81203818343
 21
2354.112805903257
 31
0.0
  0
LINE
  5
14719
330
13FDE
100
AcDbEntity
  8
寸法
 62
     0
 48
50.0
370
    -2
100
AcDbLine
 10
10817.81203818343
 20
4359.112805903256
 30
0.0
 11
10817.81203818343
 21
2374.112805903257
 31
0.0
  0
INSERT
  5
1471A
330
13FDE
100
AcDbEntity
  8
寸法
 62
     0
 48
50.0
370
    -2
100
AcDbBlockReference
  2
_DOT
 10
10817.81203818343
 20
4379.112805903257
 30
0.0
 41
20.0
 42
20.0
 43
20.0
 50
90.0
  0
INSERT
  5
1471B
330
13FDE
100
AcDbEntity
  8
寸法
 62
     0
 48
50.0
370
    -2
100
AcDbBlockReference
  2
_DOT
 10
10817.81203818343
 20
2354.112805903257
 30
0.0
 41
20.0
 42
20.0
 43
20.0
 50
270.0
  0
MTEXT
  5
1471C
330
13FDE
100
AcDbEntity
  8
寸法
 62
     7
 48
50.0
100
AcDbMText
 10
10725.80022715981
 20
3366.612805903259
 30
0.0
 40
120.0
 41
0.0
 71
     5
 72
     1
  1
\A1;有効開口部高サ2025
  7
STYLE1
 11
0.0000000000000001
 21
1.0
 31
0.0
 73
     1
 44
1.0
1001
ACAD
1000
MTEXTBEGIN
1070
    73
1070
     1
1070
    44
1040
1.0
1070
    74
1070
     0
1000
MTEXTEND
  0
POINT
  5
1471D
330
13FDE
100
AcDbEntity
  8
DEFPOINTS
 62
     0
 48
50.0
100
AcDbPoint
 10
11285.72067958069
 20
4379.112805903257
 30
0.0
  0
POINT
  5
1471E
330
13FDE
100
AcDbEntity
  8
DEFPOINTS
 62
     0
 48
50.0
100
AcDbPoint
 10
11285.72067958068
 20
2354.112805903256
 30
0.0
  0
POINT
  5
1471F
330
13FDE
100
AcDbEntity
  8
DEFPOINTS
 62
     0
 48
50.0
100
AcDbPoint
 10
10817.81203818343
 20
2354.112805903257
 30
0.0
  0
ENDBLK
  5
13FE9
330
13FDE
100
AcDbEntity
  8
0
 48
50.0
100
AcDbBlockEnd
  0
BLOCK
  5
14034
330
1402A
100
AcDbEntity
  8
0
 48
50.0
100
AcDbBlockBegin
  2
*D18
 70
     1
 10
0.0
 20
0.0
 30
0.0
  3
*D18
  1

  0
LINE
  5
163C2
330
1402A
100
AcDbEntity
  8
寸法
 62
     0
 48
50.0
370
    -2
100
AcDbLine
 10
5733.904397928898
 20
10044.96343361073
 30
0.0
 11
5733.904397928898
 21
10439.67584362952
 31
0.0
  0
LINE
  5
163C3
330
1402A
100
AcDbEntity
  8
寸法
 62
     0
 48
50.0
370
    -2
100
AcDbLine
 10
5843.904397928898
 20
10044.96343361073
 30
0.0
 11
5843.904397928898
 21
10439.67584362952
 31
0.0
  0
LINE
  5
163C4
330
1402A
100
AcDbEntity
  8
寸法
 62
     0
 48
50.0
370
    -2
100
AcDbLine
 10
5753.904397928899
 20
10399.67584362952
 30
0.0
 11
5823.904397928898
 21
10399.67584362952
 31
0.0
  0
INSERT
  5
163C5
330
1402A
100
AcDbEntity
  8
寸法
 62
     0
 48
50.0
370
    -2
100
AcDbBlockReference
  2
_DOT
 10
5733.904397928898
 20
10399.67584362952
 30
0.0
 41
20.0
 42
20.0
 43
20.0
 50
180.0
  0
INSERT
  5
163C6
330
1402A
100
AcDbEntity
  8
寸法
 62
     0
 48
50.0
370
    -2
100
AcDbBlockReference
  2
_DOT
 10
5843.904397928898
 20
10399.67584362952
 30
0.0
 41
20.0
 42
20.0
 43
20.0
  0
MTEXT
  5
163C7
330
1402A
100
AcDbEntity
  8
寸法
 62
     7
 48
50.0
100
AcDbMText
 10
5788.904397928899
 20
10491.67584362952
 30
0.0
 40
120.0
 41
0.0
 71
     5
 72
     1
  1
\A1;110
  7
STYLE1
 73
     1
 44
1.0
1001
ACAD
1000
MTEXTBEGIN
1070
    73
1070
     1
1070
    44
1040
1.0
1070
    74
1070
     0
1000
MTEXTEND
  0
POINT
  5
163C8
330
1402A
100
AcDbEntity
  8
DEFPOINTS
 62
     0
 48
50.0
100
AcDbPoint
 10
5733.904397928898
 20
10024.96343361073
 30
0.0
  0
POINT
  5
163C9
330
1402A
100
AcDbEntity
  8
DEFPOINTS
 62
     0
 48
50.0
100
AcDbPoint
 10
5843.904397928898
 20
10024.96343361073
 30
0.0
  0
POINT
  5
163CA
330
1402A
100
AcDbEntity
  8
DEFPOINTS
 62
     0
 48
50.0
100
AcDbPoint
 10
5843.904397928898
 20
10399.67584362952
 30
0.0
  0
ENDBLK
  5
14035
330
1402A
100
AcDbEntity
  8
0
 48
50.0
100
AcDbBlockEnd
  0
BLOCK
  5
14040
330
14036
100
AcDbEntity
  8
0
 48
50.0
100
AcDbBlockBegin
  2
*D19
 70
     1
 10
0.0
 20
0.0
 30
0.0
  3
*D19
  1

  0
LINE
  5
16A1A
330
14036
100
AcDbEntity
  8
寸法
 62
     0
 48
50.0
370
    -2
100
AcDbLine
 10
5843.904397928898
 20
10044.96343361073
 30
0.0
 11
5843.904397928898
 21
10439.67584362952
 31
0.0
  0
LINE
  5
16A1B
330
14036
100
AcDbEntity
  8
寸法
 62
     0
 48
50.0
370
    -2
100
AcDbLine
 10
7523.904397928898
 20
10044.96343361073
 30
0.0
 11
7523.904397928898
 21
10439.67584362952
 31
0.0
  0
LINE
  5
16A1C
330
14036
100
AcDbEntity
  8
寸法
 62
     0
 48
50.0
370
    -2
100
AcDbLine
 10
5863.904397928898
 20
10399.67584362952
 30
0.0
 11
7503.904397928898
 21
10399.67584362952
 31
0.0
  0
INSERT
  5
16A1D
330
14036
100
AcDbEntity
  8
寸法
 62
     0
 48
50.0
370
    -2
100
AcDbBlockReference
  2
_DOT
 10
5843.904397928898
 20
10399.67584362952
 30
0.0
 41
20.0
 42
20.0
 43
20.0
 50
180.0
  0
INSERT
  5
16A1E
330
14036
100
AcDbEntity
  8
寸法
 62
     0
 48
50.0
370
    -2
100
AcDbBlockReference
  2
_DOT
 10
7523.904397928898
 20
10399.67584362952
 30
0.0
 41
20.0
 42
20.0
 43
20.0
  0
MTEXT
  5
16A1F
330
14036
100
AcDbEntity
  8
寸法
 62
     7
 48
50.0
100
AcDbMText
 10
6683.904397928898
 20
10491.68765465314
 30
0.0
 40
120.0
 41
0.0
 71
     5
 72
     1
  1
\A1;4X420=1680
  7
STYLE1
 73
     1
 44
1.0
1001
ACAD
1000
MTEXTBEGIN
1070
    73
1070
     1
1070
    44
1040
1.0
1070
    74
1070
     0
1000
MTEXTEND
  0
POINT
  5
16A20
330
14036
100
AcDbEntity
  8
DEFPOINTS
 62
     0
 48
50.0
100
AcDbPoint
 10
5843.904397928898
 20
10024.96343361073
 30
0.0
  0
POINT
  5
16A21
330
14036
100
AcDbEntity
  8
DEFPOINTS
 62
     0
 48
50.0
100
AcDbPoint
 10
7523.904397928898
 20
10024.96343361073
 30
0.0
  0
POINT
  5
16A22
330
14036
100
AcDbEntity
  8
DEFPOINTS
 62
     0
 48
50.0
100
AcDbPoint
 10
7523.904397928898
 20
10399.67584362952
 30
0.0
  0
ENDBLK
  5
14041
330
14036
100
AcDbEntity
  8
0
 48
50.0
100
AcDbBlockEnd
  0
BLOCK
  5
1405A
330
1404E
100
AcDbEntity
  8
0
 48
50.0
100
AcDbBlockBegin
  2
*D20
 70
     1
 10
0.0
 20
0.0
 30
0.0
  3
*D20
  1

  0
LINE
  5
16435
330
1404E
100
AcDbEntity
  8
寸法
 62
     0
 48
50.0
370
    -2
100
AcDbLine
 10
3998.904397928898
 20
10044.96343361072
 30
0.0
 11
3998.904397928898
 21
10439.67584362952
 31
0.0
  0
LINE
  5
16436
330
1404E
100
AcDbEntity
  8
寸法
 62
     0
 48
50.0
370
    -2
100
AcDbLine
 10
4053.904397928898
 20
10044.96343361073
 30
0.0
 11
4053.904397928898
 21
10439.67584362952
 31
0.0
  0
LINE
  5
16437
330
1404E
100
AcDbEntity
  8
寸法
 62
     0
 48
50.0
370
    -2
100
AcDbLine
 10
4073.904397928898
 20
10399.67584362952
 30
0.0
 11
4093.904397928898
 21
10399.67584362952
 31
0.0
  0
LINE
  5
16438
330
1404E
100
AcDbEntity
  8
寸法
 62
     0
 48
50.0
370
    -2
100
AcDbLine
 10
3978.904397928899
 20
10399.67584362952
 30
0.0
 11
3757.933835180421
 21
10399.67584362952
 31
0.0
  0
LINE
  5
16439
330
1404E
100
AcDbEntity
  8
寸法
 62
     0
 48
50.0
370
    -2
100
AcDbLine
 10
4053.904397928898
 20
10399.67584362952
 30
0.0
 11
3998.904397928898
 21
10399.67584362952
 31
0.0
  0
INSERT
  5
1643A
330
1404E
100
AcDbEntity
  8
寸法
 62
     0
 48
50.0
370
    -2
100
AcDbBlockReference
  2
_DOT
 10
4053.904397928898
 20
10399.67584362952
 30
0.0
 41
20.0
 42
20.0
 43
20.0
 50
180.0
  0
INSERT
  5
1643B
330
1404E
100
AcDbEntity
  8
寸法
 62
     0
 48
50.0
370
    -2
100
AcDbBlockReference
  2
_DOT
 10
3998.904397928898
 20
10399.67584362952
 30
0.0
 41
20.0
 42
20.0
 43
20.0
  0
MTEXT
  5
1643C
330
1404E
100
AcDbEntity
  8
寸法
 62
     7
 48
50.0
100
AcDbMText
 10
3858.419116554659
 20
10491.67584362952
 30
0.0
 40
120.0
 41
0.0
 71
     5
 72
     1
  1
\A1;55
  7
STYLE1
 73
     1
 44
1.0
1001
ACAD
1000
MTEXTBEGIN
1070
    73
1070
     1
1070
    44
1040
1.0
1070
    74
1070
     0
1000
MTEXTEND
  0
POINT
  5
1643D
330
1404E
100
AcDbEntity
  8
DEFPOINTS
 62
     0
 48
50.0
100
AcDbPoint
 10
3998.904397928898
 20
10024.96343361072
 30
0.0
  0
POINT
  5
1643E
330
1404E
100
AcDbEntity
  8
DEFPOINTS
 62
     0
 48
50.0
100
AcDbPoint
 10
4053.904397928898
 20
10024.96343361073
 30
0.0
  0
POINT
  5
1643F
330
1404E
100
AcDbEntity
  8
DEFPOINTS
 62
     0
 48
50.0
100
AcDbPoint
 10
4053.904397928898
 20
10399.67584362952
 30
0.0
  0
ENDBLK
  5
1405B
330
1404E
100
AcDbEntity
  8
0
 48
50.0
100
AcDbBlockEnd
  0
BLOCK
  5
14072
330
14068
100
AcDbEntity
  8
0
 48
50.0
100
AcDbBlockBegin
  2
*D21
 70
     1
 10
0.0
 20
0.0
 30
0.0
  3
*D21
  1

  0
LINE
  5
16A11
330
14068
100
AcDbEntity
  8
寸法
 62
     0
 48
50.0
370
    -2
100
AcDbLine
 10
4053.904397928898
 20
10044.96343361072
 30
0.0
 11
4053.904397928898
 21
10439.67584362952
 31
0.0
  0
LINE
  5
16A12
330
14068
100
AcDbEntity
  8
寸法
 62
     0
 48
50.0
370
    -2
100
AcDbLine
 10
5733.904397928898
 20
10044.96343361073
 30
0.0
 11
5733.904397928898
 21
10439.67584362952
 31
0.0
  0
LINE
  5
16A13
330
14068
100
AcDbEntity
  8
寸法
 62
     0
 48
50.0
370
    -2
100
AcDbLine
 10
4073.904397928898
 20
10399.67584362952
 30
0.0
 11
5713.904397928899
 21
10399.67584362952
 31
0.0
  0
INSERT
  5
16A14
330
14068
100
AcDbEntity
  8
寸法
 62
     0
 48
50.0
370
    -2
100
AcDbBlockReference
  2
_DOT
 10
4053.904397928898
 20
10399.67584362952
 30
0.0
 41
20.0
 42
20.0
 43
20.0
 50
180.0
  0
INSERT
  5
16A15
330
14068
100
AcDbEntity
  8
寸法
 62
     0
 48
50.0
370
    -2
100
AcDbBlockReference
  2
_DOT
 10
5733.904397928898
 20
10399.67584362952
 30
0.0
 41
20.0
 42
20.0
 43
20.0
  0
MTEXT
  5
16A16
330
14068
100
AcDbEntity
  8
寸法
 62
     7
 48
50.0
100
AcDbMText
 10
4893.904397928898
 20
10491.68765465314
 30
0.0
 40
120.0
 41
0.0
 71
     5
 72
     1
  1
\A1;4X420=1680
  7
STYLE1
 73
     1
 44
1.0
1001
ACAD
1000
MTEXTBEGIN
1070
    73
1070
     1
1070
    44
1040
1.0
1070
    74
1070
     0
1000
MTEXTEND
  0
POINT
  5
16A17
330
14068
100
AcDbEntity
  8
DEFPOINTS
 62
     0
 48
50.0
100
AcDbPoint
 10
4053.904397928898
 20
10024.96343361072
 30
0.0
  0
POINT
  5
16A18
330
14068
100
AcDbEntity
  8
DEFPOINTS
 62
     0
 48
50.0
100
AcDbPoint
 10
5733.904397928898
 20
10024.96343361073
 30
0.0
  0
POINT
  5
16A19
330
14068
100
AcDbEntity
  8
DEFPOINTS
 62
     0
 48
50.0
100
AcDbPoint
 10
5733.904397928898
 20
10399.67584362952
 30
0.0
  0
ENDBLK
  5
14073
330
14068
100
AcDbEntity
  8
0
 48
50.0
100
AcDbBlockEnd
  0
BLOCK
  5
1407E
330
14074
100
AcDbEntity
  8
0
 48
50.0
100
AcDbBlockBegin
  2
*D22
 70
     1
 10
0.0
 20
0.0
 30
0.0
  3
*D22
  1

  0
LINE
  5
16449
330
14074
100
AcDbEntity
  8
寸法
 62
     0
 48
50.0
370
    -2
100
AcDbLine
 10
3998.904397928898
 20
10044.96343361072
 30
0.0
 11
3998.904397928898
 21
10739.67584362952
 31
0.0
  0
LINE
  5
1644A
330
14074
100
AcDbEntity
  8
寸法
 62
     0
 48
50.0
370
    -2
100
AcDbLine
 10
7578.904397928898
 20
10044.96343361072
 30
0.0
 11
7578.904397928898
 21
10739.67584362952
 31
0.0
  0
LINE
  5
1644B
330
14074
100
AcDbEntity
  8
寸法
 62
     0
 48
50.0
370
    -2
100
AcDbLine
 10
4018.904397928897
 20
10699.67584362952
 30
0.0
 11
7558.904397928898
 21
10699.67584362952
 31
0.0
  0
INSERT
  5
1644C
330
14074
100
AcDbEntity
  8
寸法
 62
     0
 48
50.0
370
    -2
100
AcDbBlockReference
  2
_DOT
 10
3998.904397928898
 20
10699.67584362952
 30
0.0
 41
20.0
 42
20.0
 43
20.0
 50
180.0
  0
INSERT
  5
1644D
330
14074
100
AcDbEntity
  8
寸法
 62
     0
 48
50.0
370
    -2
100
AcDbBlockReference
  2
_DOT
 10
7578.904397928898
 20
10699.67584362952
 30
0.0
 41
20.0
 42
20.0
 43
20.0
  0
MTEXT
  5
1644E
330
14074
100
AcDbEntity
  8
寸法
 62
     7
 48
50.0
100
AcDbMText
 10
5788.904397928899
 20
10791.67584362952
 30
0.0
 40
120.0
 41
0.0
 71
     5
 72
     1
  1
\A1;3580
  7
STYLE1
 73
     1
 44
1.0
1001
ACAD
1000
MTEXTBEGIN
1070
    73
1070
     1
1070
    44
1040
1.0
1070
    74
1070
     0
1000
MTEXTEND
  0
POINT
  5
1644F
330
14074
100
AcDbEntity
  8
DEFPOINTS
 62
     0
 48
50.0
100
AcDbPoint
 10
3998.904397928898
 20
10024.96343361072
 30
0.0
  0
POINT
  5
16450
330
14074
100
AcDbEntity
  8
DEFPOINTS
 62
     0
 48
50.0
100
AcDbPoint
 10
7578.904397928898
 20
10024.96343361072
 30
0.0
  0
POINT
  5
16451
330
14074
100
AcDbEntity
  8
DEFPOINTS
 62
     0
 48
50.0
100
AcDbPoint
 10
7578.904397928898
 20
10699.67584362952
 30
0.0
  0
ENDBLK
  5
1407F
330
14074
100
AcDbEntity
  8
0
 48
50.0
100
AcDbBlockEnd
  0
BLOCK
  5
14098
330
1408C
100
AcDbEntity
  8
0
 48
50.0
100
AcDbBlockBegin
  2
*D23
 70
     1
 10
0.0
 20
0.0
 30
0.0
  3
*D23
  1

  0
LINE
  5
16400
330
1408C
100
AcDbEntity
  8
寸法
 62
     0
 48
50.0
370
    -2
100
AcDbLine
 10
7598.904397928897
 20
10024.96343361072
 30
0.0
 11
8389.651514973254
 21
10024.96343361072
 31
0.0
  0
LINE
  5
16401
330
1408C
100
AcDbEntity
  8
寸法
 62
     0
 48
50.0
370
    -2
100
AcDbLine
 10
7598.904397928897
 20
9969.963433610731
 30
0.0
 11
8389.651514973254
 21
9969.963433610731
 31
0.0
  0
LINE
  5
16402
330
1408C
100
AcDbEntity
  8
寸法
 62
     0
 48
50.0
370
    -2
100
AcDbLine
 10
8349.651514973253
 20
9949.963433610731
 30
0.0
 11
8349.651514973253
 21
9929.96343361073
 31
0.0
  0
LINE
  5
16403
330
1408C
100
AcDbEntity
  8
寸法
 62
     0
 48
50.0
370
    -2
100
AcDbLine
 10
8349.651514973253
 20
10044.96343361072
 30
0.0
 11
8349.651514973253
 21
10519.61538165163
 31
0.0
  0
LINE
  5
16404
330
1408C
100
AcDbEntity
  8
寸法
 62
     0
 48
50.0
370
    -2
100
AcDbLine
 10
8349.651514973253
 20
9969.963433610731
 30
0.0
 11
8349.651514973253
 21
10024.96343361072
 31
0.0
  0
INSERT
  5
16405
330
1408C
100
AcDbEntity
  8
寸法
 62
     0
 48
50.0
370
    -2
100
AcDbBlockReference
  2
_DOT
 10
8349.651514973253
 20
9969.963433610731
 30
0.0
 41
20.0
 42
20.0
 43
20.0
 50
90.0
  0
INSERT
  5
16406
330
1408C
100
AcDbEntity
  8
寸法
 62
     0
 48
50.0
370
    -2
100
AcDbBlockReference
  2
_DOT
 10
8349.651514973253
 20
10024.96343361072
 30
0.0
 41
20.0
 42
20.0
 43
20.0
 50
270.0
  0
MTEXT
  5
16407
330
1408C
100
AcDbEntity
  8
寸法
 62
     7
 48
50.0
100
AcDbMText
 10
8257.651514973252
 20
10419.13010027739
 30
0.0
 40
120.0
 41
0.0
 71
     5
 72
     1
  1
\A1;55
  7
STYLE1
 11
0.0000000000000001
 21
1.0
 31
0.0
 73
     1
 44
1.0
1001
ACAD
1000
MTEXTBEGIN
1070
    73
1070
     1
1070
    44
1040
1.0
1070
    74
1070
     0
1000
MTEXTEND
  0
POINT
  5
16408
330
1408C
100
AcDbEntity
  8
DEFPOINTS
 62
     0
 48
50.0
100
AcDbPoint
 10
7578.904397928898
 20
10024.96343361072
 30
0.0
  0
POINT
  5
16409
330
1408C
100
AcDbEntity
  8
DEFPOINTS
 62
     0
 48
50.0
100
AcDbPoint
 10
7578.904397928898
 20
9969.963433610731
 30
0.0
  0
POINT
  5
1640A
330
1408C
100
AcDbEntity
  8
DEFPOINTS
 62
     0
 48
50.0
100
AcDbPoint
 10
8349.651514973253
 20
9969.963433610731
 30
0.0
  0
ENDBLK
  5
14099
330
1408C
100
AcDbEntity
  8
0
 48
50.0
100
AcDbBlockEnd
  0
BLOCK
  5
140A4
330
1409A
100
AcDbEntity
  8
0
 48
50.0
100
AcDbBlockBegin
  2
*D24
 70
     1
 10
0.0
 20
0.0
 30
0.0
  3
*D24
  1

  0
LINE
  5
163F7
330
1409A
100
AcDbEntity
  8
寸法
 62
     0
 48
50.0
370
    -2
100
AcDbLine
 10
7598.904397928897
 20
9969.963433610731
 30
0.0
 11
8389.65151497325
 21
9969.963433610731
 31
0.0
  0
LINE
  5
163F8
330
1409A
100
AcDbEntity
  8
寸法
 62
     0
 48
50.0
370
    -2
100
AcDbLine
 10
7598.904397928897
 20
7449.963433610723
 30
0.0
 11
8389.65151497325
 21
7449.963433610723
 31
0.0
  0
LINE
  5
163F9
330
1409A
100
AcDbEntity
  8
寸法
 62
     0
 48
50.0
370
    -2
100
AcDbLine
 10
8349.651514973251
 20
9949.963433610731
 30
0.0
 11
8349.651514973251
 21
7469.963433610722
 31
0.0
  0
INSERT
  5
163FA
330
1409A
100
AcDbEntity
  8
寸法
 62
     0
 48
50.0
370
    -2
100
AcDbBlockReference
  2
_DOT
 10
8349.651514973251
 20
9969.963433610731
 30
0.0
 41
20.0
 42
20.0
 43
20.0
 50
90.0
  0
INSERT
  5
163FB
330
1409A
100
AcDbEntity
  8
寸法
 62
     0
 48
50.0
370
    -2
100
AcDbBlockReference
  2
_DOT
 10
8349.651514973251
 20
7449.963433610723
 30
0.0
 41
20.0
 42
20.0
 43
20.0
 50
270.0
  0
MTEXT
  5
163FC
330
1409A
100
AcDbEntity
  8
寸法
 62
     7
 48
50.0
100
AcDbMText
 10
8257.639703949628
 20
8709.963433610729
 30
0.0
 40
120.0
 41
0.0
 71
     5
 72
     1
  1
\A1;6X420=2520
  7
STYLE1
 11
0.0000000000000001
 21
1.0
 31
0.0
 73
     1
 44
1.0
1001
ACAD
1000
MTEXTBEGIN
1070
    73
1070
     1
1070
    44
1040
1.0
1070
    74
1070
     0
1000
MTEXTEND
  0
POINT
  5
163FD
330
1409A
100
AcDbEntity
  8
DEFPOINTS
 62
     0
 48
50.0
100
AcDbPoint
 10
7578.904397928898
 20
9969.963433610731
 30
0.0
  0
POINT
  5
163FE
330
1409A
100
AcDbEntity
  8
DEFPOINTS
 62
     0
 48
50.0
100
AcDbPoint
 10
7578.904397928898
 20
7449.963433610723
 30
0.0
  0
POINT
  5
163FF
330
1409A
100
AcDbEntity
  8
DEFPOINTS
 62
     0
 48
50.0
100
AcDbPoint
 10
8349.651514973251
 20
7449.963433610723
 30
0.0
  0
ENDBLK
  5
140A5
330
1409A
100
AcDbEntity
  8
0
 48
50.0
100
AcDbBlockEnd
  0
BLOCK
  5
140B2
330
140A6
100
AcDbEntity
  8
0
 48
50.0
100
AcDbBlockBegin
  2
*D25
 70
     1
 10
0.0
 20
0.0
 30
0.0
  3
*D25
  1

  0
LINE
  5
163EC
330
140A6
100
AcDbEntity
  8
寸法
 62
     0
 48
50.0
370
    -2
100
AcDbLine
 10
7598.904397928897
 20
7449.963433610723
 30
0.0
 11
8389.651514973254
 21
7449.963433610723
 31
0.0
  0
LINE
  5
163ED
330
140A6
100
AcDbEntity
  8
寸法
 62
     0
 48
50.0
370
    -2
100
AcDbLine
 10
7598.904397928897
 20
7394.963433610726
 30
0.0
 11
8389.651514973254
 21
7394.963433610726
 31
0.0
  0
LINE
  5
163EE
330
140A6
100
AcDbEntity
  8
寸法
 62
     0
 48
50.0
370
    -2
100
AcDbLine
 10
8349.651514973253
 20
7469.963433610722
 30
0.0
 11
8349.651514973253
 21
7489.963433610722
 31
0.0
  0
LINE
  5
163EF
330
140A6
100
AcDbEntity
  8
寸法
 62
     0
 48
50.0
370
    -2
100
AcDbLine
 10
8349.651514973253
 20
7374.963433610727
 30
0.0
 11
8349.651514973253
 21
6900.31148556982
 31
0.0
  0
LINE
  5
163F0
330
140A6
100
AcDbEntity
  8
寸法
 62
     0
 48
50.0
370
    -2
100
AcDbLine
 10
8349.651514973253
 20
7449.963433610723
 30
0.0
 11
8349.651514973253
 21
7394.963433610726
 31
0.0
  0
INSERT
  5
163F1
330
140A6
100
AcDbEntity
  8
寸法
 62
     0
 48
50.0
370
    -2
100
AcDbBlockReference
  2
_DOT
 10
8349.651514973253
 20
7449.963433610723
 30
0.0
 41
20.0
 42
20.0
 43
20.0
 50
270.0
  0
INSERT
  5
163F2
330
140A6
100
AcDbEntity
  8
寸法
 62
     0
 48
50.0
370
    -2
100
AcDbBlockReference
  2
_DOT
 10
8349.651514973253
 20
7394.963433610726
 30
0.0
 41
20.0
 42
20.0
 43
20.0
 50
90.0
  0
MTEXT
  5
163F3
330
140A6
100
AcDbEntity
  8
寸法
 62
     7
 48
50.0
100
AcDbMText
 10
8257.651514973252
 20
7000.79676694406
 30
0.0
 40
120.0
 41
0.0
 71
     5
 72
     1
  1
\A1;55
  7
STYLE1
 11
0.0000000000000001
 21
1.0
 31
0.0
 73
     1
 44
1.0
1001
ACAD
1000
MTEXTBEGIN
1070
    73
1070
     1
1070
    44
1040
1.0
1070
    74
1070
     0
1000
MTEXTEND
  0
POINT
  5
163F4
330
140A6
100
AcDbEntity
  8
DEFPOINTS
 62
     0
 48
50.0
100
AcDbPoint
 10
7578.904397928898
 20
7449.963433610723
 30
0.0
  0
POINT
  5
163F5
330
140A6
100
AcDbEntity
  8
DEFPOINTS
 62
     0
 48
50.0
100
AcDbPoint
 10
7578.904397928898
 20
7394.963433610726
 30
0.0
  0
POINT
  5
163F6
330
140A6
100
AcDbEntity
  8
DEFPOINTS
 62
     0
 48
50.0
100
AcDbPoint
 10
8349.651514973253
 20
7394.963433610726
 30
0.0
  0
ENDBLK
  5
140B3
330
140A6
100
AcDbEntity
  8
0
 48
50.0
100
AcDbBlockEnd
  0
BLOCK
  5
140BE
330
140B4
100
AcDbEntity
  8
0
 48
50.0
100
AcDbBlockBegin
  2
*D26
 70
     1
 10
0.0
 20
0.0
 30
0.0
  3
*D26
  1

  0
LINE
  5
163E3
330
140B4
100
AcDbEntity
  8
寸法
 62
     0
 48
50.0
370
    -2
100
AcDbLine
 10
7598.904397928897
 20
10024.96343361072
 30
0.0
 11
8689.651514973251
 21
10024.96343361072
 31
0.0
  0
LINE
  5
163E4
330
140B4
100
AcDbEntity
  8
寸法
 62
     0
 48
50.0
370
    -2
100
AcDbLine
 10
7598.904397928897
 20
7394.963433610726
 30
0.0
 11
8689.651514973251
 21
7394.963433610726
 31
0.0
  0
LINE
  5
163E5
330
140B4
100
AcDbEntity
  8
寸法
 62
     0
 48
50.0
370
    -2
100
AcDbLine
 10
8649.651514973252
 20
10004.96343361072
 30
0.0
 11
8649.651514973252
 21
7414.963433610727
 31
0.0
  0
INSERT
  5
163E6
330
140B4
100
AcDbEntity
  8
寸法
 62
     0
 48
50.0
370
    -2
100
AcDbBlockReference
  2
_DOT
 10
8649.651514973252
 20
10024.96343361072
 30
0.0
 41
20.0
 42
20.0
 43
20.0
 50
90.0
  0
INSERT
  5
163E7
330
140B4
100
AcDbEntity
  8
寸法
 62
     0
 48
50.0
370
    -2
100
AcDbBlockReference
  2
_DOT
 10
8649.651514973252
 20
7394.963433610726
 30
0.0
 41
20.0
 42
20.0
 43
20.0
 50
270.0
  0
MTEXT
  5
163E8
330
140B4
100
AcDbEntity
  8
寸法
 62
     7
 48
50.0
100
AcDbMText
 10
8557.639703949629
 20
8709.963433610729
 30
0.0
 40
120.0
 41
0.0
 71
     5
 72
     1
  1
\A1;2630
  7
STYLE1
 11
0.0000000000000001
 21
1.0
 31
0.0
 73
     1
 44
1.0
1001
ACAD
1000
MTEXTBEGIN
1070
    73
1070
     1
1070
    44
1040
1.0
1070
    74
1070
     0
1000
MTEXTEND
  0
POINT
  5
163E9
330
140B4
100
AcDbEntity
  8
DEFPOINTS
 62
     0
 48
50.0
100
AcDbPoint
 10
7578.904397928898
 20
10024.96343361072
 30
0.0
  0
POINT
  5
163EA
330
140B4
100
AcDbEntity
  8
DEFPOINTS
 62
     0
 48
50.0
100
AcDbPoint
 10
7578.904397928898
 20
7394.963433610726
 30
0.0
  0
POINT
  5
163EB
330
140B4
100
AcDbEntity
  8
DEFPOINTS
 62
     0
 48
50.0
100
AcDbPoint
 10
8649.651514973252
 20
7394.963433610726
 30
0.0
  0
ENDBLK
  5
140BF
330
140B4
100
AcDbEntity
  8
0
 48
50.0
100
AcDbBlockEnd
  0
BLOCK
  5
140CC
330
140C0
100
AcDbEntity
  8
0
 48
50.0
100
AcDbBlockBegin
  2
*D27
 70
     1
 10
0.0
 20
0.0
 30
0.0
  3
*D27
  1

  0
LINE
  5
163D8
330
140C0
100
AcDbEntity
  8
寸法
 62
     0
 48
50.0
370
    -2
100
AcDbLine
 10
7523.904397928898
 20
10044.96343361073
 30
0.0
 11
7523.904397928898
 21
10439.67584362952
 31
0.0
  0
LINE
  5
163D9
330
140C0
100
AcDbEntity
  8
寸法
 62
     0
 48
50.0
370
    -2
100
AcDbLine
 10
7578.904397928898
 20
10044.96343361072
 30
0.0
 11
7578.904397928898
 21
10439.67584362952
 31
0.0
  0
LINE
  5
163DA
330
140C0
100
AcDbEntity
  8
寸法
 62
     0
 48
50.0
370
    -2
100
AcDbLine
 10
7503.904397928898
 20
10399.67584362952
 30
0.0
 11
7483.904397928899
 21
10399.67584362952
 31
0.0
  0
LINE
  5
163DB
330
140C0
100
AcDbEntity
  8
寸法
 62
     0
 48
50.0
370
    -2
100
AcDbLine
 10
7598.904397928897
 20
10399.67584362952
 30
0.0
 11
8073.556345969803
 21
10399.67584362952
 31
0.0
  0
LINE
  5
163DC
330
140C0
100
AcDbEntity
  8
寸法
 62
     0
 48
50.0
370
    -2
100
AcDbLine
 10
7523.904397928898
 20
10399.67584362952
 30
0.0
 11
7578.904397928898
 21
10399.67584362952
 31
0.0
  0
INSERT
  5
163DD
330
140C0
100
AcDbEntity
  8
寸法
 62
     0
 48
50.0
370
    -2
100
AcDbBlockReference
  2
_DOT
 10
7523.904397928898
 20
10399.67584362952
 30
0.0
 41
20.0
 42
20.0
 43
20.0
  0
INSERT
  5
163DE
330
140C0
100
AcDbEntity
  8
寸法
 62
     0
 48
50.0
370
    -2
100
AcDbBlockReference
  2
_DOT
 10
7578.904397928898
 20
10399.67584362952
 30
0.0
 41
20.0
 42
20.0
 43
20.0
 50
180.0
  0
MTEXT
  5
163DF
330
140C0
100
AcDbEntity
  8
寸法
 62
     7
 48
50.0
100
AcDbMText
 10
7973.071064595564
 20
10491.67584362952
 30
0.0
 40
120.0
 41
0.0
 71
     5
 72
     1
  1
\A1;55
  7
STYLE1
 73
     1
 44
1.0
1001
ACAD
1000
MTEXTBEGIN
1070
    73
1070
     1
1070
    44
1040
1.0
1070
    74
1070
     0
1000
MTEXTEND
  0
POINT
  5
163E0
330
140C0
100
AcDbEntity
  8
DEFPOINTS
 62
     0
 48
50.0
100
AcDbPoint
 10
7523.904397928898
 20
10024.96343361073
 30
0.0
  0
POINT
  5
163E1
330
140C0
100
AcDbEntity
  8
DEFPOINTS
 62
     0
 48
50.0
100
AcDbPoint
 10
7578.904397928898
 20
10024.96343361072
 30
0.0
  0
POINT
  5
163E2
330
140C0
100
AcDbEntity
  8
DEFPOINTS
 62
     0
 48
50.0
100
AcDbPoint
 10
7578.904397928898
 20
10399.67584362952
 30
0.0
  0
ENDBLK
  5
140CD
330
140C0
100
AcDbEntity
  8
0
 48
50.0
100
AcDbBlockEnd
  0
BLOCK
  5
1451F
330
14515
100
AcDbEntity
  8
0
 48
50.0
100
AcDbBlockBegin
  2
*D28
 70
     1
 10
0.0
 20
0.0
 30
0.0
  3
*D28
  1

  0
LINE
  5
16B27
330
14515
100
AcDbEntity
  8
寸法
 62
     0
 48
50.0
370
    -2
100
AcDbLine
 10
11342.72067958068
 20
4428.112805903253
 30
0.0
 11
10458.97055039743
 21
4428.112805903253
 31
0.0
  0
LINE
  5
16B28
330
14515
100
AcDbEntity
  8
寸法
 62
     0
 48
50.0
370
    -2
100
AcDbLine
 10
11265.72067958069
 20
2338.112805903252
 30
0.0
 11
10458.97055039743
 21
2338.112805903252
 31
0.0
  0
LINE
  5
16B29
330
14515
100
AcDbEntity
  8
寸法
 62
     0
 48
50.0
370
    -2
100
AcDbLine
 10
10518.97055039743
 20
4428.112805903253
 30
0.0
 11
10518.97055039743
 21
2338.112805903252
 31
0.0
  0
INSERT
  5
16B2A
330
14515
100
AcDbEntity
  8
寸法
 62
     0
 48
50.0
370
    -2
100
AcDbBlockReference
  2
_DOTSMALL
 10
10518.97055039743
 20
4428.112805903253
 30
0.0
 41
100.0
 42
100.0
 43
100.0
 50
90.0
  0
INSERT
  5
16B2B
330
14515
100
AcDbEntity
  8
寸法
 62
     0
 48
50.0
370
    -2
100
AcDbBlockReference
  2
_DOTSMALL
 10
10518.97055039743
 20
2338.112805903252
 30
0.0
 41
100.0
 42
100.0
 43
100.0
 50
270.0
  0
MTEXT
  5
16B2C
330
14515
100
AcDbEntity
  8
寸法
 62
     7
 48
50.0
100
AcDbMText
 10
10418.9587393738
 20
3383.112805903254
 30
0.0
 40
120.0
 41
0.0
 71
     5
 72
     1
  1
\A1;2090
  7
STYLE1
 11
0.0000000000000001
 21
1.0
 31
0.0
 73
     1
 44
1.0
1001
ACAD
1000
MTEXTBEGIN
1070
    73
1070
     1
1070
    44
1040
1.0
1070
    74
1070
     0
1000
MTEXTEND
  0
POINT
  5
16B2D
330
14515
100
AcDbEntity
  8
DEFPOINTS
 62
     0
 48
50.0
100
AcDbPoint
 10
11362.72067958068
 20
4428.112805903253
 30
0.0
  0
POINT
  5
16B2E
330
14515
100
AcDbEntity
  8
DEFPOINTS
 62
     0
 48
50.0
100
AcDbPoint
 10
11285.72067958068
 20
2338.112805903252
 30
0.0
  0
POINT
  5
16B2F
330
14515
100
AcDbEntity
  8
DEFPOINTS
 62
     0
 48
50.0
100
AcDbPoint
 10
10518.97055039743
 20
2338.112805903252
 30
0.0
  0
ENDBLK
  5
14520
330
14515
100
AcDbEntity
  8
0
 48
50.0
100
AcDbBlockEnd
  0
BLOCK
  5
1452B
330
14521
100
AcDbEntity
  8
0
 48
50.0
100
AcDbBlockBegin
  2
*D29
 70
     1
 10
0.0
 20
0.0
 30
0.0
  3
*D29
  1

  0
LINE
  5
16B13
330
14521
100
AcDbEntity
  8
寸法
 62
     0
 48
50.0
370
    -2
100
AcDbLine
 10
11265.72067958069
 20
2288.112805903256
 30
0.0
 11
10158.97055039742
 21
2288.112805903256
 31
0.0
  0
LINE
  5
16B14
330
14521
100
AcDbEntity
  8
寸法
 62
     0
 48
50.0
370
    -2
100
AcDbLine
 10
11282.72067958068
 20
4663.112805903256
 30
0.0
 11
10158.97055039743
 21
4663.112805903256
 31
0.0
  0
LINE
  5
16B15
330
14521
100
AcDbEntity
  8
寸法
 62
     0
 48
50.0
370
    -2
100
AcDbLine
 10
10218.97055039742
 20
2288.112805903256
 30
0.0
 11
10218.97055039743
 21
4663.112805903256
 31
0.0
  0
INSERT
  5
16B16
330
14521
100
AcDbEntity
  8
寸法
 62
     0
 48
50.0
370
    -2
100
AcDbBlockReference
  2
_DOTSMALL
 10
10218.97055039742
 20
2288.112805903256
 30
0.0
 41
100.0
 42
100.0
 43
100.0
 50
270.0
  0
INSERT
  5
16B17
330
14521
100
AcDbEntity
  8
寸法
 62
     0
 48
50.0
370
    -2
100
AcDbBlockReference
  2
_DOTSMALL
 10
10218.97055039743
 20
4663.112805903256
 30
0.0
 41
100.0
 42
100.0
 43
100.0
 50
90.0
  0
MTEXT
  5
16B18
330
14521
100
AcDbEntity
  8
寸法
 62
     7
 48
50.0
100
AcDbMText
 10
10118.9587393738
 20
3475.612805903259
 30
0.0
 40
120.0
 41
0.0
 71
     5
 72
     1
  1
\A1;2375
  7
STYLE1
 11
0.0000000000000001
 21
1.0
 31
0.0
 73
     1
 44
1.0
1001
ACAD
1000
MTEXTBEGIN
1070
    73
1070
     1
1070
    44
1040
1.0
1070
    74
1070
     0
1000
MTEXTEND
  0
POINT
  5
16B19
330
14521
100
AcDbEntity
  8
DEFPOINTS
 62
     0
 48
50.0
100
AcDbPoint
 10
11285.72067958068
 20
2288.112805903256
 30
0.0
  0
POINT
  5
16B1A
330
14521
100
AcDbEntity
  8
DEFPOINTS
 62
     0
 48
50.0
100
AcDbPoint
 10
11302.72067958068
 20
4663.112805903256
 30
0.0
  0
POINT
  5
16B1B
330
14521
100
AcDbEntity
  8
DEFPOINTS
 62
     0
 48
50.0
100
AcDbPoint
 10
10218.97055039743
 20
4663.112805903256
 30
0.0
  0
ENDBLK
  5
1452C
330
14521
100
AcDbEntity
  8
0
 48
50.0
100
AcDbBlockEnd
  0
BLOCK
  5
14537
330
1452D
100
AcDbEntity
  8
0
 48
50.0
100
AcDbBlockBegin
  2
*D30
 70
     1
 10
0.0
 20
0.0
 30
0.0
  3
*D30
  1

  0
LINE
  5
146FC
330
1452D
100
AcDbEntity
  8
寸法
 62
     0
 48
50.0
370
    -2
100
AcDbLine
 10
14012.72067958069
 20
2288.112805903257
 30
0.0
 11
14757.64783755281
 21
2288.112805903257
 31
0.0
  0
LINE
  5
146FD
330
1452D
100
AcDbEntity
  8
寸法
 62
     0
 48
50.0
370
    -2
100
AcDbLine
 10
14092.72067958069
 20
4608.112805903257
 30
0.0
 11
14757.64783755282
 21
4608.112805903256
 31
0.0
  0
LINE
  5
146FE
330
1452D
100
AcDbEntity
  8
寸法
 62
     0
 48
50.0
370
    -2
100
AcDbLine
 10
14697.64783755282
 20
2288.112805903257
 30
0.0
 11
14697.64783755282
 21
4608.112805903256
 31
0.0
  0
INSERT
  5
146FF
330
1452D
100
AcDbEntity
  8
寸法
 62
     0
 48
50.0
370
    -2
100
AcDbBlockReference
  2
_DOTSMALL
 10
14697.64783755282
 20
2288.112805903257
 30
0.0
 41
100.0
 42
100.0
 43
100.0
 50
270.0
  0
INSERT
  5
14700
330
1452D
100
AcDbEntity
  8
寸法
 62
     0
 48
50.0
370
    -2
100
AcDbBlockReference
  2
_DOTSMALL
 10
14697.64783755282
 20
4608.112805903256
 30
0.0
 41
100.0
 42
100.0
 43
100.0
 50
90.0
  0
MTEXT
  5
14701
330
1452D
100
AcDbEntity
  8
寸法
 62
     7
 48
50.0
100
AcDbMText
 10
14597.63602652919
 20
3448.112805903259
 30
0.0
 40
120.0
 41
0.0
 71
     5
 72
     1
  1
\A1;2320
  7
STYLE1
 11
0.0000000000000001
 21
1.0
 31
0.0
 73
     1
 44
1.0
1001
ACAD
1000
MTEXTBEGIN
1070
    73
1070
     1
1070
    44
1040
1.0
1070
    74
1070
     0
1000
MTEXTEND
  0
POINT
  5
14702
330
1452D
100
AcDbEntity
  8
DEFPOINTS
 62
     0
 48
50.0
100
AcDbPoint
 10
13992.72067958069
 20
2288.112805903257
 30
0.0
  0
POINT
  5
14703
330
1452D
100
AcDbEntity
  8
DEFPOINTS
 62
     0
 48
50.0
100
AcDbPoint
 10
14072.72067958069
 20
4608.112805903257
 30
0.0
  0
POINT
  5
14704
330
1452D
100
AcDbEntity
  8
DEFPOINTS
 62
     0
 48
50.0
100
AcDbPoint
 10
14697.64783755282
 20
4608.112805903256
 30
0.0
  0
ENDBLK
  5
14538
330
1452D
100
AcDbEntity
  8
0
 48
50.0
100
AcDbBlockEnd
  0
BLOCK
  5
14552
330
14546
100
AcDbEntity
  8
0
 48
50.0
100
AcDbBlockBegin
  2
*D31
 70
     1
 10
0.0
 20
0.0
 30
0.0
  3
*D31
  1

  0
LINE
  5
16B1C
330
14546
100
AcDbEntity
  8
寸法
 62
     0
 48
50.0
370
    -2
100
AcDbLine
 10
11265.72067958069
 20
2338.112805903252
 30
0.0
 11
10458.97055039743
 21
2338.112805903252
 31
0.0
  0
LINE
  5
16B1D
330
14546
100
AcDbEntity
  8
寸法
 62
     0
 48
50.0
370
    -2
100
AcDbLine
 10
11265.72067958069
 20
2288.112805903256
 30
0.0
 11
10458.97055039743
 21
2288.112805903256
 31
0.0
  0
LINE
  5
16B1E
330
14546
100
AcDbEntity
  8
寸法
 62
     0
 48
50.0
370
    -2
100
AcDbLine
 10
10518.97055039743
 20
2338.112805903252
 30
0.0
 11
10518.97055039743
 21
2438.112805903252
 31
0.0
  0
LINE
  5
16B1F
330
14546
100
AcDbEntity
  8
寸法
 62
     0
 48
50.0
370
    -2
100
AcDbLine
 10
10518.97055039743
 20
2288.112805903256
 30
0.0
 11
10518.97055039743
 21
1876.018317714277
 31
0.0
  0
LINE
  5
16B20
330
14546
100
AcDbEntity
  8
寸法
 62
     0
 48
50.0
370
    -2
100
AcDbLine
 10
10518.97055039743
 20
2338.112805903252
 30
0.0
 11
10518.97055039743
 21
2288.112805903256
 31
0.0
  0
INSERT
  5
16B21
330
14546
100
AcDbEntity
  8
寸法
 62
     0
 48
50.0
370
    -2
100
AcDbBlockReference
  2
_DOTSMALL
 10
10518.97055039743
 20
2338.112805903252
 30
0.0
 41
100.0
 42
100.0
 43
100.0
 50
270.0
  0
INSERT
  5
16B22
330
14546
100
AcDbEntity
  8
寸法
 62
     0
 48
50.0
370
    -2
100
AcDbBlockReference
  2
_DOTSMALL
 10
10518.97055039743
 20
2288.112805903256
 30
0.0
 41
100.0
 42
100.0
 43
100.0
 50
90.0
  0
MTEXT
  5
16B23
330
14546
100
AcDbEntity
  8
寸法
 62
     7
 48
50.0
100
AcDbMText
 10
10418.97055039743
 20
1982.065561808767
 30
0.0
 40
120.0
 41
0.0
 71
     5
 72
     1
  1
\A1;50
  7
STYLE1
 11
0.0000000000000001
 21
1.0
 31
0.0
 73
     1
 44
1.0
1001
ACAD
1000
MTEXTBEGIN
1070
    73
1070
     1
1070
    44
1040
1.0
1070
    74
1070
     0
1000
MTEXTEND
  0
POINT
  5
16B24
330
14546
100
AcDbEntity
  8
DEFPOINTS
 62
     0
 48
50.0
100
AcDbPoint
 10
11285.72067958068
 20
2338.112805903252
 30
0.0
  0
POINT
  5
16B25
330
14546
100
AcDbEntity
  8
DEFPOINTS
 62
     0
 48
50.0
100
AcDbPoint
 10
11285.72067958068
 20
2288.112805903256
 30
0.0
  0
POINT
  5
16B26
330
14546
100
AcDbEntity
  8
DEFPOINTS
 62
     0
 48
50.0
100
AcDbPoint
 10
10518.97055039743
 20
2288.112805903256
 30
0.0
  0
ENDBLK
  5
14553
330
14546
100
AcDbEntity
  8
0
 48
50.0
100
AcDbBlockEnd
  0
BLOCK
  5
1455E
330
14554
100
AcDbEntity
  8
0
 48
50.0
100
AcDbBlockBegin
  2
*D32
 70
     1
 10
0.0
 20
0.0
 30
0.0
  3
*D32
  1

  0
LINE
  5
146E8
330
14554
100
AcDbEntity
  8
寸法
 62
     0
 48
50.0
370
    -2
100
AcDbLine
 10
13992.72067958069
 20
4629.92348551491
 30
0.0
 11
13992.72067958069
 21
5121.770259482562
 31
0.0
  0
LINE
  5
146E9
330
14554
100
AcDbEntity
  8
寸法
 62
     0
 48
50.0
370
    -2
100
AcDbLine
 10
11362.72067958068
 20
4679.114424026233
 30
0.0
 11
11362.72067958068
 21
5121.770259482562
 31
0.0
  0
LINE
  5
146EA
330
14554
100
AcDbEntity
  8
寸法
 62
     0
 48
50.0
370
    -2
100
AcDbLine
 10
13992.72067958069
 20
5061.770259482561
 30
0.0
 11
11362.72067958068
 21
5061.770259482561
 31
0.0
  0
INSERT
  5
146EB
330
14554
100
AcDbEntity
  8
寸法
 62
     0
 48
50.0
370
    -2
100
AcDbBlockReference
  2
_DOTSMALL
 10
13992.72067958069
 20
5061.770259482561
 30
0.0
 41
100.0
 42
100.0
 43
100.0
  0
INSERT
  5
146EC
330
14554
100
AcDbEntity
  8
寸法
 62
     0
 48
50.0
370
    -2
100
AcDbBlockReference
  2
_DOTSMALL
 10
11362.72067958068
 20
5061.770259482561
 30
0.0
 41
100.0
 42
100.0
 43
100.0
 50
180.0
  0
MTEXT
  5
146ED
330
14554
100
AcDbEntity
  8
寸法
 62
     7
 48
50.0
100
AcDbMText
 10
12717.49087060988
 20
5161.782070506183
 30
0.0
 40
120.0
 41
0.0
 71
     5
 72
     1
  1
\A1;柱外寸法2630
  7
STYLE1
 73
     1
 44
1.0
1001
ACAD
1000
MTEXTBEGIN
1070
    73
1070
     1
1070
    44
1040
1.0
1070
    74
1070
     0
1000
MTEXTEND
  0
POINT
  5
146EE
330
14554
100
AcDbEntity
  8
DEFPOINTS
 62
     0
 48
50.0
100
AcDbPoint
 10
13992.72067958069
 20
4609.923485514911
 30
0.0
  0
POINT
  5
146EF
330
14554
100
AcDbEntity
  8
DEFPOINTS
 62
     0
 48
50.0
100
AcDbPoint
 10
11362.72067958068
 20
4659.114424026233
 30
0.0
  0
POINT
  5
146F0
330
14554
100
AcDbEntity
  8
DEFPOINTS
 62
     0
 48
50.0
100
AcDbPoint
 10
11362.72067958068
 20
5061.770259482561
 30
0.0
  0
ENDBLK
  5
1455F
330
14554
100
AcDbEntity
  8
0
 48
50.0
100
AcDbBlockEnd
  0
BLOCK
  5
1456C
330
14560
100
AcDbEntity
  8
0
 48
50.0
100
AcDbBlockBegin
  2
*D33
 70
     1
 10
0.0
 20
0.0
 30
0.0
  3
*D33
  1

  0
LINE
  5
146DD
330
14560
100
AcDbEntity
  8
寸法
 62
     0
 48
50.0
370
    -2
100
AcDbLine
 10
11362.72067958068
 20
4679.114424026233
 30
0.0
 11
11362.72067958068
 21
5121.77025948256
 31
0.0
  0
LINE
  5
146DE
330
14560
100
AcDbEntity
  8
寸法
 62
     0
 48
50.0
370
    -2
100
AcDbLine
 10
11302.72067958068
 20
4683.11280590326
 30
0.0
 11
11302.72067958068
 21
5121.77025948256
 31
0.0
  0
LINE
  5
146DF
330
14560
100
AcDbEntity
  8
寸法
 62
     0
 48
50.0
370
    -2
100
AcDbLine
 10
11362.72067958068
 20
5061.77025948256
 30
0.0
 11
11462.72067958068
 21
5061.77025948256
 31
0.0
  0
LINE
  5
146E0
330
14560
100
AcDbEntity
  8
寸法
 62
     0
 48
50.0
370
    -2
100
AcDbLine
 10
11302.72067958068
 20
5061.77025948256
 30
0.0
 11
10883.4450890295
 21
5061.77025948256
 31
0.0
  0
LINE
  5
146E1
330
14560
100
AcDbEntity
  8
寸法
 62
     0
 48
50.0
370
    -2
100
AcDbLine
 10
11362.72067958068
 20
5061.77025948256
 30
0.0
 11
11302.72067958068
 21
5061.77025948256
 31
0.0
  0
INSERT
  5
146E2
330
14560
100
AcDbEntity
  8
寸法
 62
     0
 48
50.0
370
    -2
100
AcDbBlockReference
  2
_DOTSMALL
 10
11362.72067958068
 20
5061.77025948256
 30
0.0
 41
100.0
 42
100.0
 43
100.0
 50
180.0
  0
INSERT
  5
146E3
330
14560
100
AcDbEntity
  8
寸法
 62
     0
 48
50.0
370
    -2
100
AcDbBlockReference
  2
_DOTSMALL
 10
11302.72067958068
 20
5061.77025948256
 30
0.0
 41
100.0
 42
100.0
 43
100.0
  0
MTEXT
  5
146E4
330
14560
100
AcDbEntity
  8
寸法
 62
     7
 48
50.0
100
AcDbMText
 10
10993.08288430509
 20
5161.770259482561
 30
0.0
 40
120.0
 41
0.0
 71
     5
 72
     1
  1
\A1;60
  7
STYLE1
 73
     1
 44
1.0
1001
ACAD
1000
MTEXTBEGIN
1070
    73
1070
     1
1070
    44
1040
1.0
1070
    74
1070
     0
1000
MTEXTEND
  0
POINT
  5
146E5
330
14560
100
AcDbEntity
  8
DEFPOINTS
 62
     0
 48
50.0
100
AcDbPoint
 10
11362.72067958068
 20
4659.114424026233
 30
0.0
  0
POINT
  5
146E6
330
14560
100
AcDbEntity
  8
DEFPOINTS
 62
     0
 48
50.0
100
AcDbPoint
 10
11302.72067958068
 20
4663.112805903261
 30
0.0
  0
POINT
  5
146E7
330
14560
100
AcDbEntity
  8
DEFPOINTS
 62
     0
 48
50.0
100
AcDbPoint
 10
11302.72067958068
 20
5061.77025948256
 30
0.0
  0
ENDBLK
  5
1456D
330
14560
100
AcDbEntity
  8
0
 48
50.0
100
AcDbBlockEnd
  0
BLOCK
  5
14578
330
1456E
100
AcDbEntity
  8
0
 48
50.0
100
AcDbBlockBegin
  2
*D34
 70
     1
 10
0.0
 20
0.0
 30
0.0
  3
*D34
  1

  0
LINE
  5
146D4
330
1456E
100
AcDbEntity
  8
寸法
 62
     0
 48
50.0
370
    -2
100
AcDbLine
 10
14072.72067958069
 20
4628.112805903258
 30
0.0
 11
14072.72067958069
 21
5341.980946214178
 31
0.0
  0
LINE
  5
146D5
330
1456E
100
AcDbEntity
  8
寸法
 62
     0
 48
50.0
370
    -2
100
AcDbLine
 10
11302.72067958068
 20
4683.11280590326
 30
0.0
 11
11302.72067958068
 21
5341.980946214178
 31
0.0
  0
LINE
  5
146D6
330
1456E
100
AcDbEntity
  8
寸法
 62
     0
 48
50.0
370
    -2
100
AcDbLine
 10
14072.72067958069
 20
5281.980946214178
 30
0.0
 11
11302.72067958068
 21
5281.980946214178
 31
0.0
  0
INSERT
  5
146D7
330
1456E
100
AcDbEntity
  8
寸法
 62
     0
 48
50.0
370
    -2
100
AcDbBlockReference
  2
_DOTSMALL
 10
14072.72067958069
 20
5281.980946214178
 30
0.0
 41
100.0
 42
100.0
 43
100.0
  0
INSERT
  5
146D8
330
1456E
100
AcDbEntity
  8
寸法
 62
     0
 48
50.0
370
    -2
100
AcDbBlockReference
  2
_DOTSMALL
 10
11302.72067958068
 20
5281.980946214178
 30
0.0
 41
100.0
 42
100.0
 43
100.0
 50
180.0
  0
MTEXT
  5
146D9
330
1456E
100
AcDbEntity
  8
寸法
 62
     7
 48
50.0
100
AcDbMText
 10
12706.07960446806
 20
5381.992757237799
 30
0.0
 40
120.0
 41
0.0
 71
     5
 72
     1
  1
\A1;2770
  7
STYLE1
 73
     1
 44
1.0
1001
ACAD
1000
MTEXTBEGIN
1070
    73
1070
     1
1070
    44
1040
1.0
1070
    74
1070
     0
1000
MTEXTEND
  0
POINT
  5
146DA
330
1456E
100
AcDbEntity
  8
DEFPOINTS
 62
     0
 48
50.0
100
AcDbPoint
 10
14072.72067958069
 20
4608.112805903258
 30
0.0
  0
POINT
  5
146DB
330
1456E
100
AcDbEntity
  8
DEFPOINTS
 62
     0
 48
50.0
100
AcDbPoint
 10
11302.72067958068
 20
4663.112805903261
 30
0.0
  0
POINT
  5
146DC
330
1456E
100
AcDbEntity
  8
DEFPOINTS
 62
     0
 48
50.0
100
AcDbPoint
 10
11302.72067958068
 20
5281.980946214178
 30
0.0
  0
ENDBLK
  5
14579
330
1456E
100
AcDbEntity
  8
0
 48
50.0
100
AcDbBlockEnd
  0
BLOCK
  5
14585
330
1457A
100
AcDbEntity
  8
0
 48
50.0
100
AcDbBlockBegin
  2
*D35
 70
     1
 10
0.0
 20
0.0
 30
0.0
  3
*D35
  1

  0
LINE
  5
146CA
330
1457A
100
AcDbEntity
  8
寸法
 62
     0
 48
50.0
370
    -2
100
AcDbLine
 10
13992.72067958069
 20
4629.92348551491
 30
0.0
 11
13992.72067958069
 21
5121.770259482562
 31
0.0
  0
LINE
  5
146CB
330
1457A
100
AcDbEntity
  8
寸法
 62
     0
 48
50.0
370
    -2
100
AcDbLine
 10
14072.72067958069
 20
4628.112805903258
 30
0.0
 11
14072.72067958069
 21
5121.770259482562
 31
0.0
  0
LINE
  5
146CC
330
1457A
100
AcDbEntity
  8
寸法
 62
     0
 48
50.0
370
    -2
100
AcDbLine
 10
13992.72067958069
 20
5061.770259482561
 30
0.0
 11
14072.72067958069
 21
5061.770259482561
 31
0.0
  0
LINE
  5
146CD
330
1457A
100
AcDbEntity
  8
寸法
 62
     0
 48
50.0
370
    -2
100
AcDbLine
 10
14072.72067958069
 20
5061.770259482561
 30
0.0
 11
14384.81516776966
 21
5061.770259482561
 31
0.0
  0
INSERT
  5
146CE
330
1457A
100
AcDbEntity
  8
寸法
 62
     0
 48
50.0
370
    -2
100
AcDbBlockReference
  2
_DOTSMALL
 10
13992.72067958069
 20
5061.770259482561
 30
0.0
 41
100.0
 42
100.0
 43
100.0
 50
180.0
  0
INSERT
  5
146CF
330
1457A
100
AcDbEntity
  8
寸法
 62
     0
 48
50.0
370
    -2
100
AcDbBlockReference
  2
_DOTSMALL
 10
14072.72067958069
 20
5061.770259482561
 30
0.0
 41
100.0
 42
100.0
 43
100.0
  0
MTEXT
  5
146D0
330
1457A
100
AcDbEntity
  8
寸法
 62
     7
 48
50.0
100
AcDbMText
 10
14278.76792367517
 20
5161.770259482562
 30
0.0
 40
120.0
 41
0.0
 71
     5
 72
     1
  1
\A1;80
  7
STYLE1
 73
     1
 44
1.0
1001
ACAD
1000
MTEXTBEGIN
1070
    73
1070
     1
1070
    44
1040
1.0
1070
    74
1070
     0
1000
MTEXTEND
  0
POINT
  5
146D1
330
1457A
100
AcDbEntity
  8
DEFPOINTS
 62
     0
 48
50.0
100
AcDbPoint
 10
13992.72067958069
 20
4609.923485514911
 30
0.0
  0
POINT
  5
146D2
330
1457A
100
AcDbEntity
  8
DEFPOINTS
 62
     0
 48
50.0
100
AcDbPoint
 10
14072.72067958069
 20
4608.112805903258
 30
0.0
  0
POINT
  5
146D3
330
1457A
100
AcDbEntity
  8
DEFPOINTS
 62
     0
 48
50.0
100
AcDbPoint
 10
14072.72067958069
 20
5061.770259482561
 30
0.0
  0
ENDBLK
  5
14586
330
1457A
100
AcDbEntity
  8
0
 48
50.0
100
AcDbBlockEnd
  0
BLOCK
  5
14592
330
14587
100
AcDbEntity
  8
0
 48
50.0
100
AcDbBlockBegin
  2
*D36
 70
     1
 10
0.0
 20
0.0
 30
0.0
  3
*D36
  1

  0
LINE
  5
146C0
330
14587
100
AcDbEntity
  8
寸法
 62
     0
 48
50.0
370
    -2
100
AcDbLine
 10
11302.12496587179
 20
4662.410512972918
 30
0.0
 11
10686.19052676651
 21
4680.124663247247
 31
0.0
  0
LINE
  5
146C1
330
14587
100
AcDbEntity
  8
寸法
 62
     0
 48
50.0
370
    -2
100
AcDbLine
 10
11298.07151031516
 20
4521.468789207206
 30
0.0
 11
10682.13707120989
 21
4539.182939481535
 31
0.0
  0
LINE
  5
146C2
330
14587
100
AcDbEntity
  8
寸法
 62
     0
 48
50.0
370
    -2
100
AcDbLine
 10
10742.11227281232
 20
4537.458064776588
 30
0.0
 11
10746.16572836894
 21
4678.3997885423
 31
0.0
  0
LINE
  5
146C3
330
14587
100
AcDbEntity
  8
寸法
 62
     0
 48
50.0
370
    -2
100
AcDbLine
 10
10746.16572836894
 20
4678.3997885423
 30
0.0
 11
10756.51497659863
 21
5038.250998156886
 31
0.0
  0
INSERT
  5
146C4
330
14587
100
AcDbEntity
  8
寸法
 62
     0
 48
50.0
370
    -2
100
AcDbBlockReference
  2
_DOTSMALL
 10
10742.11227281232
 20
4537.458064776588
 30
0.0
 41
100.0
 42
100.0
 43
100.0
 50
268.3526390256378
  0
INSERT
  5
146C5
330
14587
100
AcDbEntity
  8
寸法
 62
     0
 48
50.0
370
    -2
100
AcDbBlockReference
  2
_DOTSMALL
 10
10746.16572836894
 20
4678.3997885423
 30
0.0
 41
100.0
 42
100.0
 43
100.0
 50
88.35263902563776
  0
MTEXT
  5
146C6
330
14587
100
AcDbEntity
  8
寸法
 62
     7
 48
50.0
100
AcDbMText
 10
10652.81907873386
 20
4911.1795191932
 30
0.0
 40
120.0
 41
0.0
 71
     5
 72
     1
  1
\A1;141
  7
STYLE1
 11
0.0287479117491237
 21
0.9995866933738488
 31
0.0
 73
     1
 44
1.0
1001
ACAD
1000
MTEXTBEGIN
1070
    73
1070
     1
1070
    44
1040
1.0
1070
    74
1070
     0
1000
MTEXTEND
  0
POINT
  5
146C7
330
14587
100
AcDbEntity
  8
DEFPOINTS
 62
     0
 48
50.0
100
AcDbPoint
 10
11322.11669973926
 20
4661.835554737936
 30
0.0
  0
POINT
  5
146C8
330
14587
100
AcDbEntity
  8
DEFPOINTS
 62
     0
 48
50.0
100
AcDbPoint
 10
11318.06324418264
 20
4520.893830972223
 30
0.0
  0
POINT
  5
146C9
330
14587
100
AcDbEntity
  8
DEFPOINTS
 62
     0
 48
50.0
100
AcDbPoint
 10
10742.11227281232
 20
4537.458064776588
 30
0.0
  0
ENDBLK
  5
14593
330
14587
100
AcDbEntity
  8
0
 48
50.0
100
AcDbBlockEnd
  0
BLOCK
  5
14784
330
14783
100
AcDbEntity
  8
0
100
AcDbBlockBegin
  2
_OPEN
 70
     0
 10
0.0
 20
0.0
 30
0.0
  3
_OPEN
  1

  0
LINE
  5
14785
330
14783
100
AcDbEntity
  8
0
  6
ByBlock
 62
     0
100
AcDbLine
 10
-1.0
 20
0.1666666666666666
 30
0.0
 11
0.0
 21
0.0
 31
0.0
  0
LINE
  5
14786
330
14783
100
AcDbEntity
  8
0
  6
ByBlock
 62
     0
100
AcDbLine
 10
0.0
 20
0.0
 30
0.0
 11
-1.0
 21
-0.1666666666666666
 31
0.0
  0
LINE
  5
14787
330
14783
100
AcDbEntity
  8
0
  6
ByBlock
 62
     0
100
AcDbLine
 10
0.0
 20
0.0
 30
0.0
 11
-1.0
 21
0.0
 31
0.0
  0
ENDBLK
  5
14788
330
14783
100
AcDbEntity
  8
0
100
AcDbBlockEnd
  0
BLOCK
  5
161D1
330
161C5
100
AcDbEntity
  8
0
 48
50.0
100
AcDbBlockBegin
  2
*D38
 70
     1
 10
0.0
 20
0.0
 30
0.0
  3
*D38
  1

  0
LINE
  5
16413
330
161C5
100
AcDbEntity
  8
寸法
 62
     0
 48
50.0
370
    -2
100
AcDbLine
 10
3978.904397928899
 20
7394.963433610726
 30
0.0
 11
3700.153023599284
 21
7394.963433610726
 31
0.0
  0
LINE
  5
16414
330
161C5
100
AcDbEntity
  8
寸法
 62
     0
 48
50.0
370
    -2
100
AcDbLine
 10
4006.904397928899
 20
7319.963433610694
 30
0.0
 11
3700.153023599284
 21
7319.963433610694
 31
0.0
  0
LINE
  5
16415
330
161C5
100
AcDbEntity
  8
寸法
 62
     0
 48
50.0
370
    -2
100
AcDbLine
 10
3740.153023599285
 20
7414.963433610727
 30
0.0
 11
3740.153023599285
 21
7434.963433610727
 31
0.0
  0
LINE
  5
16416
330
161C5
100
AcDbEntity
  8
寸法
 62
     0
 48
50.0
370
    -2
100
AcDbLine
 10
3740.153023599285
 20
7299.963433610693
 30
0.0
 11
3740.153023599285
 21
7062.226921828266
 31
0.0
  0
LINE
  5
16417
330
161C5
100
AcDbEntity
  8
寸法
 62
     0
 48
50.0
370
    -2
100
AcDbLine
 10
3740.153023599285
 20
7394.963433610726
 30
0.0
 11
3740.153023599285
 21
7319.963433610694
 31
0.0
  0
INSERT
  5
16418
330
161C5
100
AcDbEntity
  8
寸法
 62
     0
 48
50.0
370
    -2
100
AcDbBlockReference
  2
_DOT
 10
3740.153023599285
 20
7394.963433610726
 30
0.0
 41
20.0
 42
20.0
 43
20.0
 50
270.0
  0
INSERT
  5
16419
330
161C5
100
AcDbEntity
  8
寸法
 62
     0
 48
50.0
370
    -2
100
AcDbBlockReference
  2
_DOT
 10
3740.153023599285
 20
7319.963433610694
 30
0.0
 41
20.0
 42
20.0
 43
20.0
 50
90.0
  0
MTEXT
  5
1641A
330
161C5
100
AcDbEntity
  8
寸法
 62
     7
 48
50.0
100
AcDbMText
 10
3648.153023599284
 20
7162.712203202507
 30
0.0
 40
120.0
 41
0.0
 71
     5
 72
     1
  1
\A1;75
  7
STYLE1
 11
0.0000000000000001
 21
1.0
 31
0.0
 73
     1
 44
1.0
1001
ACAD
1000
MTEXTBEGIN
1070
    73
1070
     1
1070
    44
1040
1.0
1070
    74
1070
     0
1000
MTEXTEND
  0
POINT
  5
1641B
330
161C5
100
AcDbEntity
  8
DEFPOINTS
 62
     0
 48
50.0
100
AcDbPoint
 10
3998.904397928898
 20
7394.963433610726
 30
0.0
  0
POINT
  5
1641C
330
161C5
100
AcDbEntity
  8
DEFPOINTS
 62
     0
 48
50.0
100
AcDbPoint
 10
4026.904397928898
 20
7319.963433610694
 30
0.0
  0
POINT
  5
1641D
330
161C5
100
AcDbEntity
  8
DEFPOINTS
 62
     0
 48
50.0
100
AcDbPoint
 10
3740.153023599285
 20
7319.963433610694
 30
0.0
  0
ENDBLK
  5
161D2
330
161C5
100
AcDbEntity
  8
0
 48
50.0
100
AcDbBlockEnd
  0
BLOCK
  5
1620D
330
16203
100
AcDbEntity
  8
0
 48
50.0
100
AcDbBlockBegin
  2
*D39
 70
     1
 10
0.0
 20
0.0
 30
0.0
  3
*D39
  1

  0
LINE
  5
16747
330
16203
100
AcDbEntity
  8
寸法
 62
     0
 48
50.0
370
    -2
100
AcDbLine
 10
5788.904397928899
 20
7429.963433610723
 30
0.0
 11
5788.904397928899
 21
6076.914854056406
 31
0.0
  0
LINE
  5
16748
330
16203
100
AcDbEntity
  8
寸法
 62
     0
 48
50.0
370
    -2
100
AcDbLine
 10
7578.904397928898
 20
7374.963433610727
 30
0.0
 11
7578.904397928898
 21
6076.914854056406
 31
0.0
  0
LINE
  5
16749
330
16203
100
AcDbEntity
  8
寸法
 62
     0
 48
50.0
370
    -2
100
AcDbLine
 10
5808.904397928898
 20
6116.914854056406
 30
0.0
 11
7558.904397928898
 21
6116.914854056406
 31
0.0
  0
INSERT
  5
1674A
330
16203
100
AcDbEntity
  8
寸法
 62
     0
 48
50.0
370
    -2
100
AcDbBlockReference
  2
_DOT
 10
5788.904397928899
 20
6116.914854056406
 30
0.0
 41
20.0
 42
20.0
 43
20.0
 50
180.0
  0
INSERT
  5
1674B
330
16203
100
AcDbEntity
  8
寸法
 62
     0
 48
50.0
370
    -2
100
AcDbBlockReference
  2
_DOT
 10
7578.904397928898
 20
6116.914854056406
 30
0.0
 41
20.0
 42
20.0
 43
20.0
  0
MTEXT
  5
1674C
330
16203
100
AcDbEntity
  8
寸法
 62
     7
 48
50.0
100
AcDbMText
 10
6683.904397928898
 20
6208.914854056406
 30
0.0
 40
120.0
 41
0.0
 71
     5
 72
     1
  1
\A1;1790
  7
STYLE1
 73
     1
 44
1.0
1001
ACAD
1000
MTEXTBEGIN
1070
    73
1070
     1
1070
    44
1040
1.0
1070
    74
1070
     0
1000
MTEXTEND
  0
POINT
  5
1674D
330
16203
100
AcDbEntity
  8
DEFPOINTS
 62
     0
 48
50.0
100
AcDbPoint
 10
5788.904397928899
 20
7449.963433610723
 30
0.0
  0
POINT
  5
1674E
330
16203
100
AcDbEntity
  8
DEFPOINTS
 62
     0
 48
50.0
100
AcDbPoint
 10
7578.904397928898
 20
7394.963433610726
 30
0.0
  0
POINT
  5
1674F
330
16203
100
AcDbEntity
  8
DEFPOINTS
 62
     0
 48
50.0
100
AcDbPoint
 10
7578.904397928898
 20
6116.914854056406
 30
0.0
  0
ENDBLK
  5
1620E
330
16203
100
AcDbEntity
  8
0
 48
50.0
100
AcDbBlockEnd
  0
BLOCK
  5
16227
330
1621D
100
AcDbEntity
  8
0
 48
50.0
100
AcDbBlockBegin
  2
*D40
 70
     1
 10
0.0
 20
0.0
 30
0.0
  3
*D40
  1

  0
LINE
  5
1673E
330
1621D
100
AcDbEntity
  8
寸法
 62
     0
 48
50.0
370
    -2
100
AcDbLine
 10
3998.904397928898
 20
7374.963433610727
 30
0.0
 11
3998.904397928898
 21
6076.914854056406
 31
0.0
  0
LINE
  5
1673F
330
1621D
100
AcDbEntity
  8
寸法
 62
     0
 48
50.0
370
    -2
100
AcDbLine
 10
5788.904397928899
 20
7429.963433610726
 30
0.0
 11
5788.904397928899
 21
6076.914854056406
 31
0.0
  0
LINE
  5
16740
330
1621D
100
AcDbEntity
  8
寸法
 62
     0
 48
50.0
370
    -2
100
AcDbLine
 10
4018.904397928898
 20
6116.914854056406
 30
0.0
 11
5768.904397928898
 21
6116.914854056406
 31
0.0
  0
INSERT
  5
16741
330
1621D
100
AcDbEntity
  8
寸法
 62
     0
 48
50.0
370
    -2
100
AcDbBlockReference
  2
_DOT
 10
3998.904397928898
 20
6116.914854056406
 30
0.0
 41
20.0
 42
20.0
 43
20.0
 50
180.0
  0
INSERT
  5
16742
330
1621D
100
AcDbEntity
  8
寸法
 62
     0
 48
50.0
370
    -2
100
AcDbBlockReference
  2
_DOT
 10
5788.904397928899
 20
6116.914854056406
 30
0.0
 41
20.0
 42
20.0
 43
20.0
  0
MTEXT
  5
16743
330
1621D
100
AcDbEntity
  8
寸法
 62
     7
 48
50.0
100
AcDbMText
 10
4893.904397928898
 20
6208.914854056406
 30
0.0
 40
120.0
 41
0.0
 71
     5
 72
     1
  1
\A1;1790
  7
STYLE1
 73
     1
 44
1.0
1001
ACAD
1000
MTEXTBEGIN
1070
    73
1070
     1
1070
    44
1040
1.0
1070
    74
1070
     0
1000
MTEXTEND
  0
POINT
  5
16744
330
1621D
100
AcDbEntity
  8
DEFPOINTS
 62
     0
 48
50.0
100
AcDbPoint
 10
3998.904397928898
 20
7394.963433610726
 30
0.0
  0
POINT
  5
16745
330
1621D
100
AcDbEntity
  8
DEFPOINTS
 62
     0
 48
50.0
100
AcDbPoint
 10
5788.904397928899
 20
7449.963433610726
 30
0.0
  0
POINT
  5
16746
330
1621D
100
AcDbEntity
  8
DEFPOINTS
 62
     0
 48
50.0
100
AcDbPoint
 10
5788.904397928899
 20
6116.914854056406
 30
0.0
  0
ENDBLK
  5
16228
330
1621D
100
AcDbEntity
  8
0
 48
50.0
100
AcDbBlockEnd
  0
BLOCK
  5
166A9
330
1669F
100
AcDbEntity
  8
0
 48
50.0
100
AcDbBlockBegin
  2
*D41
 70
     1
 10
0.0
 20
0.0
 30
0.0
  3
*D41
  1

  0
LINE
  5
1672C
330
1669F
100
AcDbEntity
  8
寸法
 62
     0
 48
50.0
370
    -2
100
AcDbLine
 10
4065.904397928898
 20
7297.963433610725
 30
0.0
 11
4065.904397928898
 21
6713.329147394317
 31
0.0
  0
LINE
  5
1672D
330
1669F
100
AcDbEntity
  8
寸法
 62
     0
 48
50.0
370
    -2
100
AcDbLine
 10
5015.904397928898
 20
7297.963433610725
 30
0.0
 11
5015.904397928898
 21
6713.329147394317
 31
0.0
  0
LINE
  5
1672E
330
1669F
100
AcDbEntity
  8
寸法
 62
     0
 48
50.0
370
    -2
100
AcDbLine
 10
4085.904397928898
 20
6753.329147394317
 30
0.0
 11
4995.904397928899
 21
6753.329147394317
 31
0.0
  0
INSERT
  5
1672F
330
1669F
100
AcDbEntity
  8
寸法
 62
     0
 48
50.0
370
    -2
100
AcDbBlockReference
  2
_DOT
 10
4065.904397928898
 20
6753.329147394317
 30
0.0
 41
20.0
 42
20.0
 43
20.0
 50
180.0
  0
INSERT
  5
16730
330
1669F
100
AcDbEntity
  8
寸法
 62
     0
 48
50.0
370
    -2
100
AcDbBlockReference
  2
_DOT
 10
5015.904397928898
 20
6753.329147394317
 30
0.0
 41
20.0
 42
20.0
 43
20.0
  0
MTEXT
  5
16731
330
1669F
100
AcDbEntity
  8
寸法
 62
     7
 48
50.0
100
AcDbMText
 10
4540.904397928898
 20
6945.329147394317
 30
0.0
 40
120.0
 41
0.0
 71
     5
 72
     1
  1
\A1;有効開口部間口\P950
  7
STYLE1
 73
     1
 44
1.0
1001
ACAD
1000
MTEXTBEGIN
1070
    73
1070
     1
1070
    44
1040
1.0
1070
    74
1070
     0
1000
MTEXTEND
  0
POINT
  5
16732
330
1669F
100
AcDbEntity
  8
DEFPOINTS
 62
     0
 48
50.0
100
AcDbPoint
 10
4065.904397928898
 20
7317.963433610724
 30
0.0
  0
POINT
  5
16733
330
1669F
100
AcDbEntity
  8
DEFPOINTS
 62
     0
 48
50.0
100
AcDbPoint
 10
5015.904397928898
 20
7317.963433610724
 30
0.0
  0
POINT
  5
16734
330
1669F
100
AcDbEntity
  8
DEFPOINTS
 62
     0
 48
50.0
100
AcDbPoint
 10
5015.904397928898
 20
6753.329147394317
 30
0.0
  0
ENDBLK
  5
166AA
330
1669F
100
AcDbEntity
  8
0
 48
50.0
100
AcDbBlockEnd
  0
BLOCK
  5
166C3
330
166B9
100
AcDbEntity
  8
0
 48
50.0
100
AcDbBlockBegin
  2
*D42
 70
     1
 10
0.0
 20
0.0
 30
0.0
  3
*D42
  1

  0
LINE
  5
16735
330
166B9
100
AcDbEntity
  8
寸法
 62
     0
 48
50.0
370
    -2
100
AcDbLine
 10
4026.904397928897
 20
7297.963433610725
 30
0.0
 11
4026.904397928897
 21
6453.893417045576
 31
0.0
  0
LINE
  5
16736
330
166B9
100
AcDbEntity
  8
寸法
 62
     0
 48
50.0
370
    -2
100
AcDbLine
 10
5760.904397928896
 20
7297.963433610722
 30
0.0
 11
5760.904397928896
 21
6453.893417045576
 31
0.0
  0
LINE
  5
16737
330
166B9
100
AcDbEntity
  8
寸法
 62
     0
 48
50.0
370
    -2
100
AcDbLine
 10
4046.904397928898
 20
6493.893417045576
 30
0.0
 11
5740.904397928897
 21
6493.893417045576
 31
0.0
  0
INSERT
  5
16738
330
166B9
100
AcDbEntity
  8
寸法
 62
     0
 48
50.0
370
    -2
100
AcDbBlockReference
  2
_DOT
 10
4026.904397928897
 20
6493.893417045576
 30
0.0
 41
20.0
 42
20.0
 43
20.0
 50
180.0
  0
INSERT
  5
16739
330
166B9
100
AcDbEntity
  8
寸法
 62
     0
 48
50.0
370
    -2
100
AcDbBlockReference
  2
_DOT
 10
5760.904397928896
 20
6493.893417045576
 30
0.0
 41
20.0
 42
20.0
 43
20.0
  0
MTEXT
  5
1673A
330
166B9
100
AcDbEntity
  8
寸法
 62
     7
 48
50.0
100
AcDbMText
 10
4884.875841228513
 20
6585.893417045575
 30
0.0
 40
120.0
 41
0.0
 71
     5
 72
     1
  1
\A1;1734
  7
STYLE1
 73
     1
 44
1.0
1001
ACAD
1000
MTEXTBEGIN
1070
    73
1070
     1
1070
    44
1040
1.0
1070
    74
1070
     0
1000
MTEXTEND
  0
POINT
  5
1673B
330
166B9
100
AcDbEntity
  8
DEFPOINTS
 62
     0
 48
50.0
100
AcDbPoint
 10
4026.904397928897
 20
7317.963433610724
 30
0.0
  0
POINT
  5
1673C
330
166B9
100
AcDbEntity
  8
DEFPOINTS
 62
     0
 48
50.0
100
AcDbPoint
 10
5760.904397928896
 20
7317.963433610723
 30
0.0
  0
POINT
  5
1673D
330
166B9
100
AcDbEntity
  8
DEFPOINTS
 62
     0
 48
50.0
100
AcDbPoint
 10
5760.904397928896
 20
6493.893417045576
 30
0.0
  0
ENDBLK
  5
166C4
330
166B9
100
AcDbEntity
  8
0
 48
50.0
100
AcDbBlockEnd
  0
BLOCK
  5
1696D
330
16961
100
AcDbEntity
  8
0
 48
50.0
100
AcDbBlockBegin
  2
*D43
 70
     1
 10
0.0
 20
0.0
 30
0.0
  3
*D43
  1

  0
LINE
  5
16A04
330
16961
100
AcDbEntity
  8
寸法
 62
     0
 48
50.0
370
    -2
100
AcDbLine
 10
3998.904397928897
 20
4683.112805903266
 30
0.0
 11
3998.904397928897
 21
4935.654391161502
 31
0.0
  0
LINE
  5
16A05
330
16961
100
AcDbEntity
  8
寸法
 62
     0
 48
50.0
370
    -2
100
AcDbLine
 10
3948.904397928897
 20
4683.112805903263
 30
0.0
 11
3948.904397928897
 21
4935.654391161502
 31
0.0
  0
LINE
  5
16A06
330
16961
100
AcDbEntity
  8
寸法
 62
     0
 48
50.0
370
    -2
100
AcDbLine
 10
3998.904397928897
 20
4875.654391161503
 30
0.0
 11
4098.904397928897
 21
4875.654391161503
 31
0.0
  0
LINE
  5
16A07
330
16961
100
AcDbEntity
  8
寸法
 62
     0
 48
50.0
370
    -2
100
AcDbLine
 10
3948.904397928897
 20
4875.654391161503
 30
0.0
 11
3536.809909739921
 21
4875.654391161503
 31
0.0
  0
LINE
  5
16A08
330
16961
100
AcDbEntity
  8
寸法
 62
     0
 48
50.0
370
    -2
100
AcDbLine
 10
3998.904397928897
 20
4875.654391161503
 30
0.0
 11
3948.904397928897
 21
4875.654391161503
 31
0.0
  0
INSERT
  5
16A09
330
16961
100
AcDbEntity
  8
寸法
 62
     0
 48
50.0
370
    -2
100
AcDbBlockReference
  2
_DOTSMALL
 10
3998.904397928897
 20
4875.654391161503
 30
0.0
 41
100.0
 42
100.0
 43
100.0
 50
180.0
  0
INSERT
  5
16A0A
330
16961
100
AcDbEntity
  8
寸法
 62
     0
 48
50.0
370
    -2
100
AcDbBlockReference
  2
_DOTSMALL
 10
3948.904397928897
 20
4875.654391161503
 30
0.0
 41
100.0
 42
100.0
 43
100.0
  0
MTEXT
  5
16A0B
330
16961
100
AcDbEntity
  8
寸法
 62
     7
 48
50.0
100
AcDbMText
 10
3642.857153834409
 20
4975.654391161502
 30
0.0
 40
120.0
 41
0.0
 71
     5
 72
     1
  1
\A1;50
  7
STYLE1
 73
     1
 44
1.0
1001
ACAD
1000
MTEXTBEGIN
1070
    73
1070
     1
1070
    44
1040
1.0
1070
    74
1070
     0
1000
MTEXTEND
  0
POINT
  5
16A0C
330
16961
100
AcDbEntity
  8
DEFPOINTS
 62
     0
 48
50.0
100
AcDbPoint
 10
3998.904397928897
 20
4663.112805903265
 30
0.0
  0
POINT
  5
16A0D
330
16961
100
AcDbEntity
  8
DEFPOINTS
 62
     0
 48
50.0
100
AcDbPoint
 10
3948.904397928897
 20
4663.112805903263
 30
0.0
  0
POINT
  5
16A0E
330
16961
100
AcDbEntity
  8
DEFPOINTS
 62
     0
 48
50.0
100
AcDbPoint
 10
3948.904397928897
 20
4875.654391161503
 30
0.0
  0
ENDBLK
  5
1696E
330
16961
100
AcDbEntity
  8
0
 48
50.0
100
AcDbBlockEnd
  0
BLOCK
  5
16979
330
1696F
100
AcDbEntity
  8
0
 48
50.0
100
AcDbBlockBegin
  2
*D44
 70
     1
 10
0.0
 20
0.0
 30
0.0
  3
*D44
  1

  0
LINE
  5
169FB
330
1696F
100
AcDbEntity
  8
寸法
 62
     0
 48
50.0
370
    -2
100
AcDbLine
 10
3948.904397928897
 20
4683.112805903263
 30
0.0
 11
3948.904397928897
 21
5156.55969163525
 31
0.0
  0
LINE
  5
169FC
330
1696F
100
AcDbEntity
  8
寸法
 62
     0
 48
50.0
370
    -2
100
AcDbLine
 10
7628.904397928903
 20
4683.112805903258
 30
0.0
 11
7628.904397928903
 21
5156.55969163525
 31
0.0
  0
LINE
  5
169FD
330
1696F
100
AcDbEntity
  8
寸法
 62
     0
 48
50.0
370
    -2
100
AcDbLine
 10
3948.904397928897
 20
5096.559691635249
 30
0.0
 11
7628.904397928903
 21
5096.559691635249
 31
0.0
  0
INSERT
  5
169FE
330
1696F
100
AcDbEntity
  8
寸法
 62
     0
 48
50.0
370
    -2
100
AcDbBlockReference
  2
_DOTSMALL
 10
3948.904397928897
 20
5096.559691635249
 30
0.0
 41
100.0
 42
100.0
 43
100.0
 50
180.0
  0
INSERT
  5
169FF
330
1696F
100
AcDbEntity
  8
寸法
 62
     0
 48
50.0
370
    -2
100
AcDbBlockReference
  2
_DOTSMALL
 10
7628.904397928903
 20
5096.559691635249
 30
0.0
 41
100.0
 42
100.0
 43
100.0
  0
MTEXT
  5
16A00
330
1696F
100
AcDbEntity
  8
寸法
 62
     7
 48
50.0
100
AcDbMText
 10
5788.904397928899
 20
5196.55969163525
 30
0.0
 40
120.0
 41
0.0
 71
     5
 72
     1
  1
\A1;3680
  7
STYLE1
 73
     1
 44
1.0
1001
ACAD
1000
MTEXTBEGIN
1070
    73
1070
     1
1070
    44
1040
1.0
1070
    74
1070
     0
1000
MTEXTEND
  0
POINT
  5
16A01
330
1696F
100
AcDbEntity
  8
DEFPOINTS
 62
     0
 48
50.0
100
AcDbPoint
 10
3948.904397928897
 20
4663.112805903263
 30
0.0
  0
POINT
  5
16A02
330
1696F
100
AcDbEntity
  8
DEFPOINTS
 62
     0
 48
50.0
100
AcDbPoint
 10
7628.904397928903
 20
4663.112805903258
 30
0.0
  0
POINT
  5
16A03
330
1696F
100
AcDbEntity
  8
DEFPOINTS
 62
     0
 48
50.0
100
AcDbPoint
 10
7628.904397928903
 20
5096.559691635249
 30
0.0
  0
ENDBLK
  5
1697A
330
1696F
100
AcDbEntity
  8
0
 48
50.0
100
AcDbBlockEnd
  0
BLOCK
  5
16987
330
1697B
100
AcDbEntity
  8
0
 48
50.0
100
AcDbBlockBegin
  2
*D45
 70
     1
 10
0.0
 20
0.0
 30
0.0
  3
*D45
  1

  0
LINE
  5
169F0
330
1697B
100
AcDbEntity
  8
寸法
 62
     0
 48
50.0
370
    -2
100
AcDbLine
 10
7628.904397928903
 20
4683.112805903258
 30
0.0
 11
7628.904397928903
 21
4935.654391161499
 31
0.0
  0
LINE
  5
169F1
330
1697B
100
AcDbEntity
  8
寸法
 62
     0
 48
50.0
370
    -2
100
AcDbLine
 10
7578.904397928903
 20
4683.11280590326
 30
0.0
 11
7578.904397928903
 21
4935.654391161499
 31
0.0
  0
LINE
  5
169F2
330
1697B
100
AcDbEntity
  8
寸法
 62
     0
 48
50.0
370
    -2
100
AcDbLine
 10
7578.904397928903
 20
4875.654391161499
 30
0.0
 11
7478.904397928904
 21
4875.654391161499
 31
0.0
  0
LINE
  5
169F3
330
1697B
100
AcDbEntity
  8
寸法
 62
     0
 48
50.0
370
    -2
100
AcDbLine
 10
7628.904397928903
 20
4875.654391161499
 30
0.0
 11
8040.998886117881
 21
4875.654391161499
 31
0.0
  0
LINE
  5
169F4
330
1697B
100
AcDbEntity
  8
寸法
 62
     0
 48
50.0
370
    -2
100
AcDbLine
 10
7578.904397928903
 20
4875.654391161499
 30
0.0
 11
7628.904397928903
 21
4875.654391161499
 31
0.0
  0
INSERT
  5
169F5
330
1697B
100
AcDbEntity
  8
寸法
 62
     0
 48
50.0
370
    -2
100
AcDbBlockReference
  2
_DOTSMALL
 10
7578.904397928903
 20
4875.654391161499
 30
0.0
 41
100.0
 42
100.0
 43
100.0
  0
INSERT
  5
169F6
330
1697B
100
AcDbEntity
  8
寸法
 62
     0
 48
50.0
370
    -2
100
AcDbBlockReference
  2
_DOTSMALL
 10
7628.904397928903
 20
4875.654391161499
 30
0.0
 41
100.0
 42
100.0
 43
100.0
 50
180.0
  0
MTEXT
  5
169F7
330
1697B
100
AcDbEntity
  8
寸法
 62
     7
 48
50.0
100
AcDbMText
 10
7934.951642023391
 20
4975.654391161499
 30
0.0
 40
120.0
 41
0.0
 71
     5
 72
     1
  1
\A1;50
  7
STYLE1
 73
     1
 44
1.0
1001
ACAD
1000
MTEXTBEGIN
1070
    73
1070
     1
1070
    44
1040
1.0
1070
    74
1070
     0
1000
MTEXTEND
  0
POINT
  5
169F8
330
1697B
100
AcDbEntity
  8
DEFPOINTS
 62
     0
 48
50.0
100
AcDbPoint
 10
7628.904397928903
 20
4663.112805903258
 30
0.0
  0
POINT
  5
169F9
330
1697B
100
AcDbEntity
  8
DEFPOINTS
 62
     0
 48
50.0
100
AcDbPoint
 10
7578.904397928903
 20
4663.112805903259
 30
0.0
  0
POINT
  5
169FA
330
1697B
100
AcDbEntity
  8
DEFPOINTS
 62
     0
 48
50.0
100
AcDbPoint
 10
7578.904397928903
 20
4875.654391161499
 30
0.0
  0
ENDBLK
  5
16988
330
1697B
100
AcDbEntity
  8
0
 48
50.0
100
AcDbBlockEnd
  0
BLOCK
  5
16993
330
16989
100
AcDbEntity
  8
0
 48
50.0
100
AcDbBlockBegin
  2
*D46
 70
     1
 10
0.0
 20
0.0
 30
0.0
  3
*D46
  1

  0
LINE
  5
169E7
330
16989
100
AcDbEntity
  8
寸法
 62
     0
 48
50.0
370
    -2
100
AcDbLine
 10
7578.904397928903
 20
4683.112805903258
 30
0.0
 11
7578.904397928903
 21
4935.6543911615
 31
0.0
  0
LINE
  5
169E8
330
16989
100
AcDbEntity
  8
寸法
 62
     0
 48
50.0
370
    -2
100
AcDbLine
 10
3998.904397928897
 20
4683.112805903266
 30
0.0
 11
3998.904397928897
 21
4935.6543911615
 31
0.0
  0
LINE
  5
169E9
330
16989
100
AcDbEntity
  8
寸法
 62
     0
 48
50.0
370
    -2
100
AcDbLine
 10
7578.904397928903
 20
4875.654391161501
 30
0.0
 11
3998.904397928897
 21
4875.654391161501
 31
0.0
  0
INSERT
  5
169EA
330
16989
100
AcDbEntity
  8
寸法
 62
     0
 48
50.0
370
    -2
100
AcDbBlockReference
  2
_DOTSMALL
 10
7578.904397928903
 20
4875.654391161501
 30
0.0
 41
100.0
 42
100.0
 43
100.0
  0
INSERT
  5
169EB
330
16989
100
AcDbEntity
  8
寸法
 62
     0
 48
50.0
370
    -2
100
AcDbBlockReference
  2
_DOTSMALL
 10
3998.904397928897
 20
4875.654391161501
 30
0.0
 41
100.0
 42
100.0
 43
100.0
 50
180.0
  0
MTEXT
  5
169EC
330
16989
100
AcDbEntity
  8
寸法
 62
     7
 48
50.0
100
AcDbMText
 10
5788.904397928899
 20
4975.654391161501
 30
0.0
 40
120.0
 41
0.0
 71
     5
 72
     1
  1
\A1;柱外寸法3580
  7
STYLE1
 73
     1
 44
1.0
1001
ACAD
1000
MTEXTBEGIN
1070
    73
1070
     1
1070
    44
1040
1.0
1070
    74
1070
     0
1000
MTEXTEND
  0
POINT
  5
169ED
330
16989
100
AcDbEntity
  8
DEFPOINTS
 62
     0
 48
50.0
100
AcDbPoint
 10
7578.904397928903
 20
4663.112805903258
 30
0.0
  0
POINT
  5
169EE
330
16989
100
AcDbEntity
  8
DEFPOINTS
 62
     0
 48
50.0
100
AcDbPoint
 10
3998.904397928897
 20
4663.112805903265
 30
0.0
  0
POINT
  5
169EF
330
16989
100
AcDbEntity
  8
DEFPOINTS
 62
     0
 48
50.0
100
AcDbPoint
 10
3998.904397928897
 20
4875.654391161501
 30
0.0
  0
ENDBLK
  5
16994
330
16989
100
AcDbEntity
  8
0
 48
50.0
100
AcDbBlockEnd
  0
BLOCK
  5
16A67
330
16A5D
100
AcDbEntity
  8
0
 48
50.0
100
AcDbBlockBegin
  2
*D47
 70
     1
 10
0.0
 20
0.0
 30
0.0
  3
*D47
  1

  0
LINE
  5
16A69
330
16A5D
100
AcDbEntity
  8
寸法
 62
     0
 48
50.0
370
    -2
100
AcDbLine
 10
7678.904397928896
 20
1968.112805903255
 30
0.0
 11
7678.904397928896
 21
1612.922421664043
 31
0.0
  0
LINE
  5
16A6A
330
16A5D
100
AcDbEntity
  8
寸法
 62
     0
 48
50.0
370
    -2
100
AcDbLine
 10
7478.904397928896
 20
1968.112805903255
 30
0.0
 11
7478.904397928896
 21
1612.922421664043
 31
0.0
  0
LINE
  5
16A6B
330
16A5D
100
AcDbEntity
  8
寸法
 62
     0
 48
50.0
370
    -2
100
AcDbLine
 10
7658.904397928896
 20
1652.922421664043
 30
0.0
 11
7498.904397928896
 21
1652.922421664043
 31
0.0
  0
INSERT
  5
16A6C
330
16A5D
100
AcDbEntity
  8
寸法
 62
     0
 48
50.0
370
    -2
100
AcDbBlockReference
  2
_DOT
 10
7678.904397928896
 20
1652.922421664043
 30
0.0
 41
20.0
 42
20.0
 43
20.0
  0
INSERT
  5
16A6D
330
16A5D
100
AcDbEntity
  8
寸法
 62
     0
 48
50.0
370
    -2
100
AcDbBlockReference
  2
_DOT
 10
7478.904397928896
 20
1652.922421664043
 30
0.0
 41
20.0
 42
20.0
 43
20.0
 50
180.0
  0
MTEXT
  5
16A6E
330
16A5D
100
AcDbEntity
  8
寸法
 62
     7
 48
50.0
100
AcDbMText
 10
7578.904397928896
 20
1744.934232687665
 30
0.0
 40
120.0
 41
0.0
 71
     5
 72
     1
  1
\A1;200
  7
STYLE1
 73
     1
 44
1.0
1001
ACAD
1000
MTEXTBEGIN
1070
    73
1070
     1
1070
    44
1040
1.0
1070
    74
1070
     0
1000
MTEXTEND
  0
POINT
  5
16A6F
330
16A5D
100
AcDbEntity
  8
DEFPOINTS
 62
     0
 48
50.0
100
AcDbPoint
 10
7678.904397928896
 20
1988.112805903255
 30
0.0
  0
POINT
  5
16A70
330
16A5D
100
AcDbEntity
  8
DEFPOINTS
 62
     0
 48
50.0
100
AcDbPoint
 10
7478.904397928896
 20
1988.112805903255
 30
0.0
  0
POINT
  5
16A71
330
16A5D
100
AcDbEntity
  8
DEFPOINTS
 62
     0
 48
50.0
100
AcDbPoint
 10
7478.904397928896
 20
1652.922421664043
 30
0.0
  0
ENDBLK
  5
16A68
330
16A5D
100
AcDbEntity
  8
0
 48
50.0
100
AcDbBlockEnd
  0
BLOCK
  5
16AE6
330
16ADC
100
AcDbEntity
  8
0
 48
50.0
100
AcDbBlockBegin
  2
*D48
 70
     1
 10
0.0
 20
0.0
 30
0.0
  3
*D48
  1

  0
LINE
  5
16AF4
330
16ADC
100
AcDbEntity
  8
寸法
 62
     0
 48
50.0
370
    -2
100
AcDbLine
 10
11490.22067958068
 20
1968.112805903255
 30
0.0
 11
11490.22067958068
 21
1642.065476602879
 31
0.0
  0
LINE
  5
16AF5
330
16ADC
100
AcDbEntity
  8
寸法
 62
     0
 48
50.0
370
    -2
100
AcDbLine
 10
11290.22067958069
 20
1968.112805903255
 30
0.0
 11
11290.22067958069
 21
1642.065476602879
 31
0.0
  0
LINE
  5
16AF6
330
16ADC
100
AcDbEntity
  8
寸法
 62
     0
 48
50.0
370
    -2
100
AcDbLine
 10
11490.22067958068
 20
1702.065476602879
 30
0.0
 11
11290.22067958069
 21
1702.065476602879
 31
0.0
  0
INSERT
  5
16AF7
330
16ADC
100
AcDbEntity
  8
寸法
 62
     0
 48
50.0
370
    -2
100
AcDbBlockReference
  2
_DOTSMALL
 10
11490.22067958068
 20
1702.065476602879
 30
0.0
 41
100.0
 42
100.0
 43
100.0
  0
INSERT
  5
16AF8
330
16ADC
100
AcDbEntity
  8
寸法
 62
     0
 48
50.0
370
    -2
100
AcDbBlockReference
  2
_DOTSMALL
 10
11290.22067958069
 20
1702.065476602879
 30
0.0
 41
100.0
 42
100.0
 43
100.0
 50
180.0
  0
MTEXT
  5
16AF9
330
16ADC
100
AcDbEntity
  8
寸法
 62
     7
 48
50.0
100
AcDbMText
 10
11390.22067958069
 20
1802.077287626501
 30
0.0
 40
120.0
 41
0.0
 71
     5
 72
     1
  1
\A1;200
  7
STYLE1
 73
     1
 44
1.0
1001
ACAD
1000
MTEXTBEGIN
1070
    73
1070
     1
1070
    44
1040
1.0
1070
    74
1070
     0
1000
MTEXTEND
  0
POINT
  5
16AFA
330
16ADC
100
AcDbEntity
  8
DEFPOINTS
 62
     0
 48
50.0
100
AcDbPoint
 10
11490.22067958068
 20
1988.112805903255
 30
0.0
  0
POINT
  5
16AFB
330
16ADC
100
AcDbEntity
  8
DEFPOINTS
 62
     0
 48
50.0
100
AcDbPoint
 10
11290.22067958069
 20
1988.112805903255
 30
0.0
  0
POINT
  5
16AFC
330
16ADC
100
AcDbEntity
  8
DEFPOINTS
 62
     0
 48
50.0
100
AcDbPoint
 10
11290.22067958069
 20
1702.065476602879
 30
0.0
  0
ENDBLK
  5
16AE7
330
16ADC
100
AcDbEntity
  8
0
 48
50.0
100
AcDbBlockEnd
  0
BLOCK
  5
16AF2
330
16AE8
100
AcDbEntity
  8
0
 48
50.0
100
AcDbBlockBegin
  2
*D49
 70
     1
 10
0.0
 20
0.0
 30
0.0
  3
*D49
  1

  0
LINE
  5
16AFD
330
16AE8
100
AcDbEntity
  8
寸法
 62
     0
 48
50.0
370
    -2
100
AcDbLine
 10
11270.22067958069
 20
1988.112805903255
 30
0.0
 11
11080.72067633405
 21
1988.112805903255
 31
0.0
  0
LINE
  5
16AFE
330
16AE8
100
AcDbEntity
  8
寸法
 62
     0
 48
50.0
370
    -2
100
AcDbLine
 10
11245.22067958068
 20
2188.112805903258
 30
0.0
 11
11080.72067633405
 21
2188.112805903258
 31
0.0
  0
LINE
  5
16AFF
330
16AE8
100
AcDbEntity
  8
寸法
 62
     0
 48
50.0
370
    -2
100
AcDbLine
 10
11140.72067633405
 20
1988.112805903255
 30
0.0
 11
11140.72067633405
 21
2188.112805903258
 31
0.0
  0
INSERT
  5
16B00
330
16AE8
100
AcDbEntity
  8
寸法
 62
     0
 48
50.0
370
    -2
100
AcDbBlockReference
  2
_DOTSMALL
 10
11140.72067633405
 20
1988.112805903255
 30
0.0
 41
100.0
 42
100.0
 43
100.0
 50
270.0
  0
INSERT
  5
16B01
330
16AE8
100
AcDbEntity
  8
寸法
 62
     0
 48
50.0
370
    -2
100
AcDbBlockReference
  2
_DOTSMALL
 10
11140.72067633405
 20
2188.112805903258
 30
0.0
 41
100.0
 42
100.0
 43
100.0
 50
90.0
  0
MTEXT
  5
16B02
330
16AE8
100
AcDbEntity
  8
寸法
 62
     7
 48
50.0
100
AcDbMText
 10
11040.70886531043
 20
2088.112805903259
 30
0.0
 40
120.0
 41
0.0
 71
     5
 72
     1
  1
\A1;200
  7
STYLE1
 11
0.0000000000000001
 21
1.0
 31
0.0
 73
     1
 44
1.0
1001
ACAD
1000
MTEXTBEGIN
1070
    73
1070
     1
1070
    44
1040
1.0
1070
    74
1070
     0
1000
MTEXTEND
  0
POINT
  5
16B03
330
16AE8
100
AcDbEntity
  8
DEFPOINTS
 62
     0
 48
50.0
100
AcDbPoint
 10
11290.22067958069
 20
1988.112805903255
 30
0.0
  0
POINT
  5
16B04
330
16AE8
100
AcDbEntity
  8
DEFPOINTS
 62
     0
 48
50.0
100
AcDbPoint
 10
11265.22067958068
 20
2188.112805903257
 30
0.0
  0
POINT
  5
16B05
330
16AE8
100
AcDbEntity
  8
DEFPOINTS
 62
     0
 48
50.0
100
AcDbPoint
 10
11140.72067633405
 20
2188.112805903258
 30
0.0
  0
ENDBLK
  5
16AF3
330
16AE8
100
AcDbEntity
  8
0
 48
50.0
100
AcDbBlockEnd
  0
ENDSEC
  0
SECTION
  2
ENTITIES
  0
MTEXT
  5
763F
330
747D
100
AcDbEntity
  8
0
100
AcDbMText
 10
302.846345836809
 20
280.1983726409901
 30
0.0
 40
3.5
 41
5.323721266742722
 71
     1
 72
     5
  1

  7
MSMINCHO
 73
     1
 44
1.0
1001
ACAD
1000
MTEXTBEGIN
1070
    73
1070
     1
1070
    44
1040
1.0
1070
    74
1070
     0
1000
MTEXTEND
  0
INSERT
  5
F235
330
747D
100
AcDbEntity
  8
0
100
AcDbBlockReference
  2
作図枠S50
 10
0.0
 20
0.0
 30
0.0
 41
0.8
 42
0.8
 43
0.8
  0
LINE
  5
10B56
330
747D
100
AcDbEntity
  8
補助
  6
PHANTOM
 62
   230
 48
50.0
100
AcDbLine
 10
140.0
 20
0.0
 30
0.0
 11
139.9999999999995
 21
11409.6
 31
0.0
  0
LINE
  5
10B57
330
747D
100
AcDbEntity
  8
補助
  6
PHANTOM
 62
   230
 48
50.0
100
AcDbLine
 10
139.9999999999995
 20
11409.6
 30
0.0
 11
16307.2
 21
11409.6
 31
0.0
  0
LINE
  5
10B59
330
747D
100
AcDbEntity
  8
仕様書枠
  6
Continuous
 48
50.0
100
AcDbLine
 10
13107.2
 20
1200.0
 30
0.0
 11
13107.2
 21
-0.0000000000000729
 31
0.0
  0
LINE
  5
10B5C
330
747D
100
AcDbEntity
  8
仕様書枠
 48
50.0
100
AcDbLine
 10
16307.2
 20
1200.0
 30
0.0
 11
16307.2
 21
-0.0000000000000909
 31
0.0
  0
LINE
  5
10B5D
330
747D
100
AcDbEntity
  8
仕様書枠
 48
50.0
100
AcDbLine
 10
140.0
 20
0.0
 30
0.0
 11
16307.2
 21
-0.0000000000000909
 31
0.0
  0
LINE
  5
10B5E
330
747D
100
AcDbEntity
  8
補助
  6
PHANTOM
 62
   230
 48
50.0
100
AcDbLine
 10
16307.2
 20
11409.6
 30
0.0
 11
16307.2
 21
1200.0
 31
0.0
  0
LINE
  5
10B6C
330
747D
100
AcDbEntity
  8
仕様書枠
 48
50.0
100
AcDbLine
 10
13107.2
 20
1200.0
 30
0.0
 11
16307.2
 21
1200.0
 31
0.0
  0
LINE
  5
10B6D
330
747D
100
AcDbEntity
  8
補助
  6
PHANTOM
 62
   230
 48
50.0
100
AcDbLine
 10
13107.2
 20
11409.6
 30
0.0
 11
13107.2
 21
4800.0
 31
0.0
  0
LINE
  5
10B6F
330
747D
100
AcDbEntity
  8
補助
  6
PHANTOM
 62
   230
 48
50.0
100
AcDbLine
 10
13107.2
 20
4800.0
 30
0.0
 11
16307.2
 21
4800.0
 31
0.0
  0
LINE
  5
10B72
330
747D
100
AcDbEntity
  8
文字
 62
     7
 48
50.0
100
AcDbLine
 10
13187.2
 20
400.0
 30
0.0
 11
16227.2
 21
400.0
 31
0.0
  0
TEXT
  5
10B73
330
747D
100
AcDbEntity
  8
文字
 62
     7
 48
50.0
100
AcDbText
 10
13162.9790565769
 20
895.0906074299405
 30
0.0
 40
200.0
  1
外 形 図
  7
STYLE2
100
AcDbText
  0
TEXT
  5
10B74
330
747D
100
AcDbEntity
  8
文字
 62
     7
 48
50.0
100
AcDbText
 10
13201.43669998441
 20
477.2740661031255
 30
0.0
 40
160.0
  1
機種名
  7
STYLE2
100
AcDbText
  0
TEXT
  5
10B76
330
747D
100
AcDbEntity
  8
文字
 62
     7
 48
50.0
100
AcDbText
 10
13209.4053442172
 20
76.09434707649343
 30
0.0
 40
100.0
  1
○床面積 ： 9.55㎡(2.89坪) 　
  7
STYLE2
100
AcDbText
  0
TEXT
  5
10B79
330
747D
100
AcDbEntity
  8
文字
 62
     7
 48
50.0
100
AcDbText
 10
14524.131837222
 20
1031.557706291228
 30
0.0
 40
100.0
  1
NO.04     <縮尺> S=1/40
  7
STYLE2
100
AcDbText
  0
LINE
  5
10B7B
330
747D
100
AcDbEntity
  8
仕様書枠
 48
50.0
100
AcDbLine
 10
13107.2
 20
800.0
 30
0.0
 11
14251.2
 21
800.0
 31
0.0
  0
LINE
  5
10B88
330
747D
100
AcDbEntity
  8
仕様書枠
  6
Continuous
 48
50.0
100
AcDbLine
 10
14251.2
 20
1200.0
 30
0.0
 11
14251.2
 21
800.0
 31
0.0
  0
TEXT
  5
10EA8
330
747D
100
AcDbEntity
  8
文字
 62
     7
 48
50.0
100
AcDbText
 10
14618.30935364226
 20
838.2527270729188
 30
0.0
 40
100.0
  1
～一般型～
  7
STYLE2
100
AcDbText
  0
LINE
  5
120DB
330
747D
100
AcDbEntity
  8
Ｇ．Ｌ
 48
50.0
100
AcDbLine
 10
2315.037010702756
 20
2188.112805903256
 30
0.0
 11
15056.19829741475
 21
2188.112805903257
 31
0.0
  0
TEXT
  5
13DC7
330
747D
100
AcDbEntity
  8
文字
 62
     7
 48
50.0
100
AcDbText
 10
15022.63965474517
 20
9910.013745883727
 30
0.0
 40
100.0
  1
F12,Y10        1.0
  7
STYLE1
100
AcDbText
  0
TEXT
  5
13DC8
330
747D
100
AcDbEntity
  8
文字
 62
     7
 48
50.0
100
AcDbText
 10
13583.1181901657
 20
9910.01374588373
 30
0.0
 40
100.0
  1
梁中
 41
0.9
  7
STYLE1
100
AcDbText
  0
TEXT
  5
13DC9
330
747D
100
AcDbEntity
  8
文字
 62
     7
 48
50.0
100
AcDbText
 10
13248.77747366447
 20
8380.013745883728
 30
0.0
 40
100.0
  1
17
  7
STYLE1
100
AcDbText
  0
TEXT
  5
13DCA
330
747D
100
AcDbEntity
  8
文字
 62
     7
 48
50.0
100
AcDbText
 10
13248.77747366447
 20
8550.013745883729
 30
0.0
 40
100.0
  1
16
  7
STYLE1
100
AcDbText
  0
TEXT
  5
13DCB
330
747D
100
AcDbEntity
  8
文字
 62
     7
 48
50.0
100
AcDbText
 10
15022.63965474517
 20
8890.013745883726
 30
0.0
 40
100.0
  1
F12            1.0
  7
STYLE1
100
AcDbText
  0
TEXT
  5
13DCC
330
747D
100
AcDbEntity
  8
文字
 62
     7
 48
50.0
100
AcDbText
 10
13583.11819016569
 20
8890.013745883733
 30
0.0
 40
100.0
  1
壁面扉枠左右
  7
STYLE1
100
AcDbText
  0
TEXT
  5
13DCD
330
747D
100
AcDbEntity
  8
文字
 62
     7
 48
50.0
100
AcDbText
 10
15022.63965474517
 20
9060.013745883725
 30
0.0
 40
100.0
  1
F12            1.0
  7
STYLE1
100
AcDbText
  0
TEXT
  5
13DCE
330
747D
100
AcDbEntity
  8
文字
 62
     7
 48
50.0
100
AcDbText
 10
15022.63965474515
 20
9230.013745883727
 30
0.0
 40
100.0
  1
F12            0.7
  7
STYLE1
100
AcDbText
  0
TEXT
  5
13DCF
330
747D
100
AcDbEntity
  8
文字
 62
     7
 48
50.0
100
AcDbText
 10
13583.11819016569
 20
9060.013745883733
 30
0.0
 40
100.0
  1
壁面扉敷居
  7
STYLE1
100
AcDbText
  0
TEXT
  5
13DD0
330
747D
100
AcDbEntity
  8
文字
 62
     7
 48
50.0
100
AcDbText
 10
13583.11819016569
 20
9230.013745883729
 30
0.0
 40
100.0
  1
壁面扉鴨居
  7
STYLE1
100
AcDbText
  0
LINE
  5
13DD1
330
747D
100
AcDbEntity
  8
仕様書枠
 48
50.0
100
AcDbLine
 10
16307.19999999999
 20
8689.600000000003
 30
0.0
 11
13127.2
 21
8689.600000000005
 31
0.0
  0
LINE
  5
13DD2
330
747D
100
AcDbEntity
  8
仕様書枠
 48
50.0
100
AcDbLine
 10
16307.19999999999
 20
8519.600000000004
 30
0.0
 11
13127.2
 21
8519.600000000005
 31
0.0
  0
TEXT
  5
13DD5
330
747D
100
AcDbEntity
  8
部品1
100
AcDbText
 10
5497.694468552634
 20
1669.858311332604
 30
0.0
 40
135.0
  1
正面図
  7
STYLE2
100
AcDbText
  0
LWPOLYLINE
  5
13DD6
330
747D
100
AcDbEntity
  8
部品1
100
AcDbPolyline
 90
        4
 70
     1
 43
0.0
 10
5407.169064814677
 20
1862.751840551128
 10
5407.169064814677
 20
1622.859519005596
 10
6170.639731043118
 20
1622.859519005596
 10
6170.639731043118
 20
1862.751840551128
  0
TEXT
  5
13DD7
330
747D
100
AcDbEntity
  8
文字
 62
     7
 48
50.0
100
AcDbText
 10
14505.34213575793
 20
483.8967129911411
 30
0.0
 40
160.0
  1
ＮＸＮ－９４Ｈ
  7
STYLE2
100
AcDbText
  0
TEXT
  5
13DD8
330
747D
100
AcDbEntity
  8
文字
 62
     7
 48
50.0
100
AcDbText
 10
13583.11819016569
 20
8380.013745883728
 30
0.0
 40
100.0
  1
アンカープレート
  7
STYLE1
100
AcDbText
  0
TEXT
  5
13DD9
330
747D
100
AcDbEntity
  8
文字
 62
     7
 48
50.0
100
AcDbText
 10
15022.63965474515
 20
8380.013745883724
 30
0.0
 40
100.0
  1
F12            2.3
  7
STYLE1
100
AcDbText
  0
LINE
  5
13DDA
330
747D
100
AcDbEntity
  8
仕様書枠
 48
50.0
100
AcDbLine
 10
16307.2
 20
10049.6
 30
0.0
 11
13127.2
 21
10049.6
 31
0.0
  0
LINE
  5
13DDB
330
747D
100
AcDbEntity
  8
仕様書枠
 48
50.0
100
AcDbLine
 10
16307.2
 20
11409.6
 30
0.0
 11
13127.2
 21
11409.6
 31
0.0
  0
LINE
  5
13DDC
330
747D
100
AcDbEntity
  8
仕様書枠
 48
50.0
100
AcDbLine
 10
16307.19999999999
 20
8009.600000000004
 30
0.0
 11
16307.2
 21
11409.6
 31
0.0
  0
LINE
  5
13DDD
330
747D
100
AcDbEntity
  8
仕様書枠
 48
50.0
100
AcDbLine
 10
14785.2
 20
11409.59999999999
 30
0.0
 11
14785.2
 21
8349.600000000004
 31
0.0
  0
LINE
  5
13DDE
330
747D
100
AcDbEntity
  8
仕様書枠
 48
50.0
100
AcDbLine
 10
13490.2
 20
11409.6
 30
0.0
 11
13490.20000000001
 21
8349.600000000007
 31
0.0
  0
LINE
  5
13DDF
330
747D
100
AcDbEntity
  8
仕様書枠
 48
50.0
100
AcDbLine
 10
16307.2
 20
11239.6
 30
0.0
 11
13127.2
 21
11239.6
 31
0.0
  0
LINE
  5
13DE0
330
747D
100
AcDbEntity
  8
仕様書枠
 48
50.0
100
AcDbLine
 10
16307.2
 20
10899.6
 30
0.0
 11
13127.2
 21
10899.6
 31
0.0
  0
LINE
  5
13DE1
330
747D
100
AcDbEntity
  8
仕様書枠
 48
50.0
100
AcDbLine
 10
16307.2
 20
11069.6
 30
0.0
 11
13127.2
 21
11069.6
 31
0.0
  0
LINE
  5
13DE2
330
747D
100
AcDbEntity
  8
仕様書枠
 48
50.0
100
AcDbLine
 10
16307.19999999999
 20
10559.6
 30
0.0
 11
13127.2
 21
10559.6
 31
0.0
  0
LINE
  5
13DE3
330
747D
100
AcDbEntity
  8
仕様書枠
 48
50.0
100
AcDbLine
 10
16307.19999999999
 20
10389.6
 30
0.0
 11
13127.2
 21
10389.6
 31
0.0
  0
LINE
  5
13DE4
330
747D
100
AcDbEntity
  8
仕様書枠
 48
50.0
100
AcDbLine
 10
16307.19999999999
 20
10729.6
 30
0.0
 11
13127.2
 21
10729.6
 31
0.0
  0
TEXT
  5
13DE5
330
747D
100
AcDbEntity
  8
文字
 62
     7
 48
50.0
100
AcDbText
 10
13197.42518560407
 20
11270.01374588372
 30
0.0
 40
100.0
  1
品番
  7
STYLE1
100
AcDbText
  0
TEXT
  5
13DE6
330
747D
100
AcDbEntity
  8
文字
 62
     7
 48
50.0
100
AcDbText
 10
13271.19032244792
 20
11100.01374588373
 30
0.0
 40
100.0
  1
1
  7
STYLE1
100
AcDbText
  0
TEXT
  5
13DE7
330
747D
100
AcDbEntity
  8
文字
 62
     7
 48
50.0
100
AcDbText
 10
13271.19032244792
 20
10930.01374588373
 30
0.0
 40
100.0
  1
2
  7
STYLE1
100
AcDbText
  0
TEXT
  5
13DE8
330
747D
100
AcDbEntity
  8
文字
 62
     7
 48
50.0
100
AcDbText
 10
13271.19032244792
 20
10590.01374588373
 30
0.0
 40
100.0
  1
4
  7
STYLE1
100
AcDbText
  0
TEXT
  5
13DE9
330
747D
100
AcDbEntity
  8
文字
 62
     7
 48
50.0
100
AcDbText
 10
13271.19032244792
 20
10760.01374588373
 30
0.0
 40
100.0
  1
3
  7
STYLE1
100
AcDbText
  0
TEXT
  5
13DEA
330
747D
100
AcDbEntity
  8
文字
 62
     7
 48
50.0
100
AcDbText
 10
13732.03840939434
 20
11270.01374588372
 30
0.0
 40
100.0
  1
部　　品　　名
  7
STYLE1
100
AcDbText
  0
TEXT
  5
13DEB
330
747D
100
AcDbEntity
  8
文字
 62
     7
 48
50.0
100
AcDbText
 10
14859.79774614482
 20
11270.01374588372
 30
0.0
 40
100.0
  1
材料（材質）　　単位mm
  7
STYLE1
100
AcDbText
  0
TEXT
  5
13DEC
330
747D
100
AcDbEntity
  8
文字
 62
     7
 48
50.0
100
AcDbText
 10
13583.11819016569
 20
11100.01374588373
 30
0.0
 40
100.0
  1
土台枠
  7
STYLE1
100
AcDbText
  0
TEXT
  5
13DED
330
747D
100
AcDbEntity
  8
文字
 62
     7
 48
50.0
100
AcDbText
 10
13583.1181901657
 20
10760.01374588372
 30
0.0
 40
100.0
  1
柱
  7
STYLE1
100
AcDbText
  0
TEXT
  5
13DEE
330
747D
100
AcDbEntity
  8
文字
 62
     7
 48
50.0
100
AcDbText
 10
13583.1181901657
 20
10420.01374588373
 30
0.0
 40
100.0
  1
桁前後
  7
STYLE1
100
AcDbText
  0
TEXT
  5
13DEF
330
747D
100
AcDbEntity
  8
文字
 62
     7
 48
50.0
100
AcDbText
 10
13271.19032244792
 20
10420.01374588372
 30
0.0
 40
100.0
  1
5
  7
STYLE1
100
AcDbText
  0
TEXT
  5
13DF0
330
747D
100
AcDbEntity
  8
文字
 62
     7
 48
50.0
100
AcDbText
 10
13583.1181901657
 20
10250.01374588373
 30
0.0
 40
100.0
  1
妻板左右
  7
STYLE1
100
AcDbText
  0
TEXT
  5
13DF1
330
747D
100
AcDbEntity
  8
文字
 62
     7
 48
50.0
100
AcDbText
 10
13248.77747366447
 20
9570.013745883727
 30
0.0
 40
100.0
  1
10
  7
STYLE1
100
AcDbText
  0
TEXT
  5
13DF2
330
747D
100
AcDbEntity
  8
文字
 62
     7
 48
50.0
100
AcDbText
 10
13583.11819016568
 20
9400.013745883729
 30
0.0
 40
100.0
  1
壁パネル
  7
STYLE1
100
AcDbText
  0
TEXT
  5
13DF3
330
747D
100
AcDbEntity
  8
文字
 62
     7
 48
50.0
100
AcDbText
 10
13583.11819016569
 20
9740.013745883729
 30
0.0
 40
100.0
  1
屋根パネル
  7
STYLE1
100
AcDbText
  0
TEXT
  5
13DF4
330
747D
100
AcDbEntity
  8
文字
 62
     7
 48
50.0
100
AcDbText
 10
13583.1181901657
 20
10080.01374588372
 30
0.0
 40
100.0
  1
鼻隠シ前後
  7
STYLE1
100
AcDbText
  0
TEXT
  5
13DF5
330
747D
100
AcDbEntity
  8
文字
 62
     7
 48
50.0
100
AcDbText
 10
13271.19032244792
 20
9910.01374588373
 30
0.0
 40
100.0
  1
8
  7
STYLE1
100
AcDbText
  0
TEXT
  5
13DF6
330
747D
100
AcDbEntity
  8
文字
 62
     7
 48
50.0
100
AcDbText
 10
13271.19032244792
 20
9740.013745883729
 30
0.0
 40
100.0
  1
9
  7
STYLE1
100
AcDbText
  0
TEXT
  5
13DF7
330
747D
100
AcDbEntity
  8
文字
 62
     7
 48
50.0
100
AcDbText
 10
13271.19032244792
 20
10080.01374588373
 30
0.0
 40
100.0
  1
7
  7
STYLE1
100
AcDbText
  0
TEXT
  5
13DF8
330
747D
100
AcDbEntity
  8
文字
 62
     7
 48
50.0
100
AcDbText
 10
13271.19032244792
 20
10250.01374588373
 30
0.0
 40
100.0
  1
6
  7
STYLE1
100
AcDbText
  0
LINE
  5
13DF9
330
747D
100
AcDbEntity
  8
仕様書枠
 48
50.0
100
AcDbLine
 10
16307.19999999999
 20
9709.6
 30
0.0
 11
13127.2
 21
9709.600000000001
 31
0.0
  0
LINE
  5
13DFA
330
747D
100
AcDbEntity
  8
仕様書枠
 48
50.0
100
AcDbLine
 10
16307.19999999999
 20
9369.599999999998
 30
0.0
 11
13127.2
 21
9369.600000000001
 31
0.0
  0
LINE
  5
13DFB
330
747D
100
AcDbEntity
  8
仕様書枠
 48
50.0
100
AcDbLine
 10
16307.19999999999
 20
9539.599999999998
 30
0.0
 11
13127.2
 21
9539.6
 31
0.0
  0
LINE
  5
13DFC
330
747D
100
AcDbEntity
  8
仕様書枠
 48
50.0
100
AcDbLine
 10
16307.2
 20
10219.6
 30
0.0
 11
13127.2
 21
10219.6
 31
0.0
  0
LINE
  5
13DFD
330
747D
100
AcDbEntity
  8
仕様書枠
 48
50.0
100
AcDbLine
 10
16307.2
 20
9879.599999999999
 30
0.0
 11
13127.2
 21
9879.600000000001
 31
0.0
  0
TEXT
  5
13DFE
330
747D
100
AcDbEntity
  8
文字
 62
     7
 48
50.0
100
AcDbText
 10
13248.77747366447
 20
9400.013745883727
 30
0.0
 40
100.0
  1
11
  7
STYLE1
100
AcDbText
  0
LINE
  5
13DFF
330
747D
100
AcDbEntity
  8
仕様書枠
 48
50.0
100
AcDbLine
 10
16307.19999999999
 20
9199.599999999998
 30
0.0
 11
13127.2
 21
9199.600000000001
 31
0.0
  0
LINE
  5
13E00
330
747D
100
AcDbEntity
  8
仕様書枠
 48
50.0
100
AcDbLine
 10
16307.19999999999
 20
8859.6
 30
0.0
 11
13127.2
 21
8859.600000000002
 31
0.0
  0
TEXT
  5
13E01
330
747D
100
AcDbEntity
  8
文字
 62
     7
 48
50.0
100
AcDbText
 10
13248.77747366447
 20
9060.013745883727
 30
0.0
 40
100.0
  1
13
  7
STYLE1
100
AcDbText
  0
TEXT
  5
13E02
330
747D
100
AcDbEntity
  8
文字
 62
     7
 48
50.0
100
AcDbText
 10
13248.77747366447
 20
9230.013745883727
 30
0.0
 40
100.0
  1
12
  7
STYLE1
100
AcDbText
  0
TEXT
  5
13E03
330
747D
100
AcDbEntity
  8
文字
 62
     7
 48
50.0
100
AcDbText
 10
15022.63965474517
 20
11100.01374588372
 30
0.0
 40
100.0
  1
F12            1.2
  7
STYLE1
100
AcDbText
  0
TEXT
  5
13E04
330
747D
100
AcDbEntity
  8
文字
 62
     7
 48
50.0
100
AcDbText
 10
15022.63965474518
 20
10760.01374588372
 30
0.0
 40
100.0
  1
F12            1.0
  7
STYLE1
100
AcDbText
  0
TEXT
  5
13E05
330
747D
100
AcDbEntity
  8
文字
 62
     7
 48
50.0
100
AcDbText
 10
15022.63965474517
 20
10420.01374588372
 30
0.0
 40
100.0
  1
Y10            1.0
  7
STYLE1
100
AcDbText
  0
TEXT
  5
13E06
330
747D
100
AcDbEntity
  8
文字
 62
     7
 48
50.0
100
AcDbText
 10
15022.63965474517
 20
10250.01374588372
 30
0.0
 40
100.0
  1
Y10            0.7
  7
STYLE1
100
AcDbText
  0
TEXT
  5
13E07
330
747D
100
AcDbEntity
  8
文字
 62
     7
 48
50.0
100
AcDbText
 10
15022.63965474517
 20
10080.01374588372
 30
0.0
 40
100.0
  1
Y10            0.7
  7
STYLE1
100
AcDbText
  0
TEXT
  5
13E08
330
747D
100
AcDbEntity
  8
文字
 62
     7
 48
50.0
100
AcDbText
 10
15022.63965474517
 20
9740.013745883725
 30
0.0
 40
100.0
  1
Y10            0.5
  7
STYLE1
100
AcDbText
  0
TEXT
  5
13E09
330
747D
100
AcDbEntity
  8
文字
 62
     7
 48
50.0
100
AcDbText
 10
15022.63965474515
 20
9400.013745883725
 30
0.0
 40
100.0
  1
F12            0.7
  7
STYLE1
100
AcDbText
  0
LINE
  5
13E0A
330
747D
100
AcDbEntity
  8
仕様書枠
 48
50.0
100
AcDbLine
 10
16307.19999999999
 20
8349.600000000004
 30
0.0
 11
13127.19999999999
 21
8349.600000000007
 31
0.0
  0
LINE
  5
13E0B
330
747D
100
AcDbEntity
  8
仕様書枠
 48
50.0
100
AcDbLine
 10
16307.19999999999
 20
8009.600000000004
 30
0.0
 11
13127.19999999999
 21
8009.600000000006
 31
0.0
  0
TEXT
  5
13E0C
330
747D
100
AcDbEntity
  8
文字
 62
     7
 48
50.0
100
AcDbText
 10
13229.83081656554
 20
8210.013745883731
 30
0.0
 40
100.0
  1
F12→溶融亜鉛めっき鋼板(JIS G 3302)
  7
STYLE1
100
AcDbText
  0
TEXT
  5
13E0D
330
747D
100
AcDbEntity
  8
文字
 62
     7
 48
50.0
100
AcDbText
 10
13229.83081656554
 20
8040.013745883731
 30
0.0
 40
100.0
  1
Y10→溶融亜鉛-5％アルミニウム合金めっき鋼板(JIS G 3317)
 41
0.9
  7
STYLE1
100
AcDbText
  0
LINE
  5
13E0E
330
747D
100
AcDbEntity
  8
仕様書枠
 48
50.0
100
AcDbLine
 10
13127.2
 20
11409.6
 30
0.0
 11
13127.19999999999
 21
8009.600000000006
 31
0.0
  0
LINE
  5
13E0F
330
747D
100
AcDbEntity
  8
仕様書枠
 48
50.0
100
AcDbLine
 10
16307.19999999999
 20
9029.6
 30
0.0
 11
13127.2
 21
9029.600000000002
 31
0.0
  0
TEXT
  5
13E10
330
747D
100
AcDbEntity
  8
文字
 62
     7
 48
50.0
100
AcDbText
 10
13583.1181901657
 20
10590.01374588373
 30
0.0
 40
100.0
  1
床パネル
 41
0.9
  7
STYLE1
100
AcDbText
  0
TEXT
  5
13E11
330
747D
100
AcDbEntity
  8
文字
 62
     7
 48
50.0
100
AcDbText
 10
13583.11819016569
 20
10930.01374588372
 30
0.0
 40
100.0
  1
根太
  7
STYLE1
100
AcDbText
  0
TEXT
  5
13E12
330
747D
100
AcDbEntity
  8
文字
 62
     7
 48
50.0
100
AcDbText
 10
13248.77747366447
 20
8890.013745883727
 30
0.0
 40
100.0
  1
14
  7
STYLE1
100
AcDbText
  0
TEXT
  5
13E13
330
747D
100
AcDbEntity
  8
文字
 62
     7
 48
50.0
100
AcDbText
 10
15022.63965474516
 20
10930.01374588372
 30
0.0
 40
100.0
  1
F12            1.2
  7
STYLE1
100
AcDbText
  0
TEXT
  5
13E14
330
747D
100
AcDbEntity
  8
文字
 62
     7
 48
50.0
100
AcDbText
 10
15022.63965474517
 20
10590.01374588372
 30
0.0
 40
100.0
  1
F12            1.0
  7
STYLE1
100
AcDbText
  0
TEXT
  5
13E15
330
747D
100
AcDbEntity
  8
文字
 62
     7
 48
50.0
100
AcDbText
 10
15022.63965474515
 20
8720.013745883727
 30
0.0
 40
100.0
  1
F12            0.7
  7
STYLE1
100
AcDbText
  0
TEXT
  5
13E16
330
747D
100
AcDbEntity
  8
文字
 62
     7
 48
50.0
100
AcDbText
 10
13583.11819016568
 20
8720.013745883731
 30
0.0
 40
100.0
  1
正面パネル
  7
STYLE1
100
AcDbText
  0
TEXT
  5
13E17
330
747D
100
AcDbEntity
  8
文字
 62
     7
 48
50.0
100
AcDbText
 10
15022.63965474516
 20
8550.013745883727
 30
0.0
 40
100.0
  1
F12            0.8
  7
STYLE1
100
AcDbText
  0
TEXT
  5
13E18
330
747D
100
AcDbEntity
  8
文字
 62
     7
 48
50.0
100
AcDbText
 10
13583.11819016569
 20
8550.013745883731
 30
0.0
 40
100.0
  1
扉
  7
STYLE1
100
AcDbText
  0
TEXT
  5
13E1A
330
747D
100
AcDbEntity
  8
文字
 62
     7
 48
50.0
100
AcDbText
 10
13248.77747366447
 20
8720.013745883729
 30
0.0
 40
100.0
  1
15
  7
STYLE1
100
AcDbText
  0
TEXT
  5
13E1B
330
747D
100
AcDbEntity
  8
文字
 62
     7
 48
50.0
100
AcDbText
 10
13583.11819016569
 20
9570.013745883727
 30
0.0
 40
100.0
  1
母屋中
  7
STYLE1
100
AcDbText
  0
LINE
  5
13E21
330
747D
100
AcDbEntity
  8
部品1
 48
50.0
100
AcDbLine
 10
4026.904397928893
 20
7422.963433610724
 30
0.0
 11
4053.904397928898
 21
7422.963433610724
 31
0.0
  0
LINE
  5
13E22
330
747D
100
AcDbEntity
  8
部品1
100
AcDbLine
 10
5760.904400172469
 20
9996.963437187897
 30
0.0
 11
5788.904400172469
 21
9996.963437187897
 31
0.0
  0
LINE
  5
13E23
330
747D
100
AcDbEntity
  8
部品1
100
AcDbLine
 10
5816.904400172468
 20
9996.963437187897
 30
0.0
 11
5816.904400172468
 21
10024.96343718789
 31
0.0
  0
LINE
  5
13E24
330
747D
100
AcDbEntity
  8
部品1
100
AcDbLine
 10
5760.904400172469
 20
9996.963437187897
 30
0.0
 11
5760.904400172469
 21
10024.9634371879
 31
0.0
  0
LINE
  5
13E25
330
747D
100
AcDbEntity
  8
部品1
 48
50.0
100
AcDbLine
 10
5788.904400172469
 20
9996.963437187897
 30
0.0
 11
5760.904400172469
 21
10024.96343718789
 31
0.0
  0
LINE
  5
13E30
330
747D
100
AcDbEntity
  8
部品1
100
AcDbLine
 10
11362.72067958068
 20
2288.112805903256
 30
0.0
 11
11285.72067958068
 21
2288.112805903256
 31
0.0
  0
DIMENSION
  5
13E39
330
747D
100
AcDbEntity
  8
寸法
 48
50.0
100
AcDbDimension
  2
*D17
 10
10817.81203818343
 20
2354.112805903257
 30
0.0
 11
10725.80022715981
 21
3366.612805903259
 31
0.0
 70
    32
  1
有効開口部高サ<>
 71
     5
 42
2025.0
  3
INABA_S40
100
AcDbAlignedDimension
 13
11285.72067958069
 23
4379.112805903257
 33
0.0
 14
11285.72067958068
 24
2354.112805903256
 34
0.0
 50
90.0
100
AcDbRotatedDimension
1001
ACAD
1000
DSTYLE
1002
{
1070
    41
1040
0.5
1070
    44
1040
1.0
1070
   147
1040
0.8
1070
   271
1070
     2
1070
   272
1070
     2
1070
   289
1070
     3
1070
   340
1005
F706
1070
   343
1005
F744
1070
   344
1005
F744
1002
}
  0
LINE
  5
13E67
330
747D
100
AcDbEntity
  8
部品1
100
AcDbLine
 10
7550.904397928899
 20
9969.963433610731
 30
0.0
 11
7578.904397928898
 21
9969.963433610731
 31
0.0
  0
LINE
  5
13E68
330
747D
100
AcDbEntity
  8
部品1
100
AcDbLine
 10
7523.904397928898
 20
10024.96343361073
 30
0.0
 11
7523.904397928898
 21
9996.963433610726
 31
0.0
  0
LINE
  5
13E69
330
747D
100
AcDbEntity
  8
部品1
 48
50.0
100
AcDbLine
 10
7550.904397928899
 20
9996.963433610726
 30
0.0
 11
7523.904397928898
 21
9969.963433610731
 31
0.0
  0
LINE
  5
13E6B
330
747D
100
AcDbEntity
  8
部品1
100
AcDbLine
 10
7103.904397928897
 20
10024.96343361073
 30
0.0
 11
7103.904397928897
 21
9996.963433610726
 31
0.0
  0
LINE
  5
13E6C
330
747D
100
AcDbEntity
  8
部品1
100
AcDbLine
 10
7103.904397928897
 20
9996.963433610726
 30
0.0
 11
7550.904397928899
 21
9996.963433610726
 31
0.0
  0
LINE
  5
13E6D
330
747D
100
AcDbEntity
  8
破線
  6
HIDDEN
 48
10.0
100
AcDbLine
 10
7500.404397928898
 20
9946.463433610734
 30
0.0
 11
6708.904397928903
 21
9946.463433610722
 31
0.0
  0
LINE
  5
13E6E
330
747D
100
AcDbEntity
  8
部品1
100
AcDbLine
 10
6683.904397928898
 20
10024.96343361073
 30
0.0
 11
6683.904397928898
 21
9996.963433610726
 31
0.0
  0
LINE
  5
13E6F
330
747D
100
AcDbEntity
  8
部品1
100
AcDbLine
 10
6906.404397928898
 20
9996.96343361073
 30
0.0
 11
7301.404397928898
 21
9996.963433610726
 31
0.0
  0
LINE
  5
13E70
330
747D
100
AcDbEntity
  8
部品1
100
AcDbLine
 10
6263.904397928898
 20
10024.96343361073
 30
0.0
 11
6263.904397928898
 21
9996.963433610726
 31
0.0
  0
LINE
  5
13E71
330
747D
100
AcDbEntity
  8
部品1
100
AcDbLine
 10
5843.904397928898
 20
10024.96343361073
 30
0.0
 11
5843.904397928898
 21
9996.963433610726
 31
0.0
  0
LINE
  5
13E72
330
747D
100
AcDbEntity
  8
部品1
100
AcDbLine
 10
5843.904397928898
 20
10024.96343361073
 30
0.0
 11
5843.904397928898
 21
9996.963433610726
 31
0.0
  0
LINE
  5
13E73
330
747D
100
AcDbEntity
  8
部品1
100
AcDbLine
 10
5760.904397928898
 20
9969.963433610731
 30
0.0
 11
5788.904397928899
 21
9969.963433610731
 31
0.0
  0
LINE
  5
13E74
330
747D
100
AcDbEntity
  8
部品1
100
AcDbLine
 10
5733.904397928898
 20
10024.96343361073
 30
0.0
 11
5733.904397928898
 21
9996.963433610726
 31
0.0
  0
LINE
  5
13E75
330
747D
100
AcDbEntity
  8
部品1
100
AcDbLine
 10
5816.904397928897
 20
9969.963433610731
 30
0.0
 11
5788.904397928899
 21
9969.963433610731
 31
0.0
  0
LINE
  5
13E76
330
747D
100
AcDbEntity
  8
部品1
 48
50.0
100
AcDbLine
 10
5760.904397928898
 20
9996.96343361073
 30
0.0
 11
5733.904397928898
 21
9969.963433610734
 31
0.0
  0
LINE
  5
13E77
330
747D
100
AcDbEntity
  8
部品1
 48
50.0
100
AcDbLine
 10
5816.904397928897
 20
9996.96343361073
 30
0.0
 11
5843.904397928898
 21
9969.963433610729
 31
0.0
  0
DIMENSION
  5
13E78
330
747D
100
AcDbEntity
  8
寸法
 48
50.0
100
AcDbDimension
  2
*D18
 10
5843.904397928898
 20
10399.67584362952
 30
0.0
 11
5788.904397928899
 21
10399.67584362952
 31
0.0
 70
   160
 71
     5
 42
110.0
  3
INABA_S40
100
AcDbAlignedDimension
 13
5733.904397928898
 23
10024.96343361073
 33
0.0
 14
5843.904397928898
 24
10024.96343361073
 34
0.0
100
AcDbRotatedDimension
1001
ACAD
1000
DSTYLE
1002
{
1070
    41
1040
0.5
1070
    44
1040
1.0
1070
   147
1040
0.8
1070
   271
1070
     2
1070
   272
1070
     2
1070
   289
1070
     3
1070
   340
1005
F706
1070
   343
1005
F744
1070
   344
1005
F744
1002
}
  0
LINE
  5
13E79
330
747D
100
AcDbEntity
  8
部品1
100
AcDbLine
 10
5733.904397928898
 20
10024.96343361073
 30
0.0
 11
5733.904397928898
 21
9996.963433610726
 31
0.0
  0
LINE
  5
13E7A
330
747D
100
AcDbEntity
  8
部品1
100
AcDbLine
 10
5313.904397928898
 20
10024.96343361073
 30
0.0
 11
5313.904397928898
 21
9996.963433610726
 31
0.0
  0
LINE
  5
13E7B
330
747D
100
AcDbEntity
  8
部品1
100
AcDbLine
 10
5760.904397928898
 20
9996.96343361073
 30
0.0
 11
5313.904397928898
 21
9996.96343361073
 31
0.0
  0
LINE
  5
13E7D
330
747D
100
AcDbEntity
  8
部品1
100
AcDbLine
 10
4893.904397928898
 20
10024.96343361073
 30
0.0
 11
4893.904397928898
 21
9996.963433610726
 31
0.0
  0
LINE
  5
13E7E
330
747D
100
AcDbEntity
  8
部品1
100
AcDbLine
 10
4473.904397928897
 20
10024.96343361073
 30
0.0
 11
4473.904397928897
 21
9996.963433610726
 31
0.0
  0
LINE
  5
13E80
330
747D
100
AcDbEntity
  8
部品1
100
AcDbLine
 10
5313.904397928898
 20
9996.96343361073
 30
0.0
 11
4053.904397928898
 21
9996.96343361073
 31
0.0
  0
LINE
  5
13E81
330
747D
100
AcDbEntity
  8
部品1
100
AcDbLine
 10
5788.904397928899
 20
10024.96343361072
 30
0.0
 11
7578.904397928898
 21
10024.96343361072
 31
0.0
  0
DIMENSION
  5
13E82
330
747D
100
AcDbEntity
  8
寸法
 48
50.0
100
AcDbDimension
  2
*D19
 10
7523.904397928898
 20
10399.67584362952
 30
0.0
 11
6683.904397928898
 21
10491.68765465314
 31
0.0
 70
    32
  1
4X420=<>
 71
     5
 42
1680.0
  3
INABA_S40
100
AcDbAlignedDimension
 13
5843.904397928898
 23
10024.96343361073
 33
0.0
 14
7523.904397928898
 24
10024.96343361073
 34
0.0
100
AcDbRotatedDimension
1001
ACAD
1000
DSTYLE
1002
{
1070
    41
1040
0.5
1070
    44
1040
1.0
1070
   147
1040
0.8
1070
   271
1070
     2
1070
   272
1070
     2
1070
   289
1070
     3
1070
   340
1005
F706
1070
   343
1005
F744
1070
   344
1005
F744
1002
}
  0
LINE
  5
13E83
330
747D
100
AcDbEntity
  8
部品1
100
AcDbLine
 10
5816.904397928897
 20
9996.96343361073
 30
0.0
 11
7103.904397928897
 21
9996.96343361073
 31
0.0
  0
LINE
  5
13E84
330
747D
100
AcDbEntity
  8
部品1
100
AcDbLine
 10
7523.904397928896
 20
9969.963433610729
 30
0.0
 11
5843.904397928898
 21
9969.963433610729
 31
0.0
  0
LINE
  5
13E86
330
747D
100
AcDbEntity
  8
部品1
100
AcDbLine
 10
7550.904397928899
 20
8709.963433610729
 30
0.0
 11
7578.904397928898
 21
8709.963433610729
 31
0.0
  0
LINE
  5
13E87
330
747D
100
AcDbEntity
  8
部品1
100
AcDbLine
 10
7550.904397928899
 20
8289.963433610729
 30
0.0
 11
7578.904397928898
 21
8289.963433610729
 31
0.0
  0
LINE
  5
13E88
330
747D
100
AcDbEntity
  8
部品1
100
AcDbLine
 10
7550.904397928899
 20
7869.963433610731
 30
0.0
 11
7578.904397928898
 21
7869.963433610731
 31
0.0
  0
LINE
  5
13E89
330
747D
100
AcDbEntity
  8
部品1
100
AcDbLine
 10
7550.904397928899
 20
7449.963433610723
 30
0.0
 11
7578.904397928898
 21
7449.963433610723
 31
0.0
  0
LINE
  5
13E8A
330
747D
100
AcDbEntity
  8
部品1
100
AcDbLine
 10
7523.904397928898
 20
7394.963433610725
 30
0.0
 11
7523.904397928898
 21
7422.963433610727
 31
0.0
  0
LINE
  5
13E8B
330
747D
100
AcDbEntity
  8
部品1
 48
50.0
100
AcDbLine
 10
7550.904397928899
 20
7422.963433610727
 30
0.0
 11
7523.904397928898
 21
7449.963433610726
 31
0.0
  0
LINE
  5
13E8D
330
747D
100
AcDbEntity
  8
部品1
100
AcDbLine
 10
7103.904397928897
 20
7394.963433610725
 30
0.0
 11
7103.904397928897
 21
7422.963433610727
 31
0.0
  0
LINE
  5
13E8F
330
747D
100
AcDbEntity
  8
部品1
100
AcDbLine
 10
6683.904397928898
 20
7394.963433610725
 30
0.0
 11
6683.904397928898
 21
7422.963433610727
 31
0.0
  0
LINE
  5
13E90
330
747D
100
AcDbEntity
  8
部品1
100
AcDbLine
 10
7550.904397928899
 20
9969.963433610731
 30
0.0
 11
7550.904397928899
 21
7422.963433610727
 31
0.0
  0
LINE
  5
13E91
330
747D
100
AcDbEntity
  8
部品1
100
AcDbLine
 10
6263.904397928898
 20
7394.963433610725
 30
0.0
 11
6263.904397928898
 21
7422.963433610727
 31
0.0
  0
LINE
  5
13E92
330
747D
100
AcDbEntity
  8
部品1
100
AcDbLine
 10
5760.904397928898
 20
7449.963433610723
 30
0.0
 11
5788.904397928899
 21
7449.963433610723
 31
0.0
  0
LINE
  5
13E93
330
747D
100
AcDbEntity
  8
部品1
100
AcDbLine
 10
5816.904397928897
 20
7449.963433610723
 30
0.0
 11
5788.904397928899
 21
7449.963433610723
 31
0.0
  0
LINE
  5
13E94
330
747D
100
AcDbEntity
  8
部品1
100
AcDbLine
 10
5843.904397928898
 20
7394.963433610725
 30
0.0
 11
5843.904397928898
 21
7422.963433610727
 31
0.0
  0
LINE
  5
13E95
330
747D
100
AcDbEntity
  8
部品1
100
AcDbLine
 10
5733.904397928898
 20
7394.963433610725
 30
0.0
 11
5733.904397928898
 21
7422.963433610727
 31
0.0
  0
LINE
  5
13E96
330
747D
100
AcDbEntity
  8
部品1
100
AcDbLine
 10
5843.904397928898
 20
7394.963433610728
 30
0.0
 11
5788.904397928899
 21
7394.963433610726
 31
0.0
  0
LINE
  5
13E97
330
747D
100
AcDbEntity
  8
部品1
 48
50.0
100
AcDbLine
 10
5760.904397928898
 20
7422.963433610728
 30
0.0
 11
5733.904397928898
 21
7449.963433610723
 31
0.0
  0
LINE
  5
13E98
330
747D
100
AcDbEntity
  8
部品1
 48
50.0
100
AcDbLine
 10
5816.904397928897
 20
7422.963433610727
 30
0.0
 11
5843.904397928898
 21
7449.963433610726
 31
0.0
  0
LINE
  5
13E99
330
747D
100
AcDbEntity
  8
部品1
100
AcDbLine
 10
5733.904397928898
 20
7394.963433610725
 30
0.0
 11
5733.904397928898
 21
7422.963433610727
 31
0.0
  0
LINE
  5
13E9A
330
747D
100
AcDbEntity
  8
部品1
100
AcDbLine
 10
5733.904397928898
 20
7394.963433610725
 30
0.0
 11
5733.904397928898
 21
7422.963433610727
 31
0.0
  0
LINE
  5
13E9B
330
747D
100
AcDbEntity
  8
部品1
100
AcDbLine
 10
5733.904397928898
 20
7394.963433610726
 30
0.0
 11
5788.904397928899
 21
7394.963433610726
 31
0.0
  0
LINE
  5
13E9E
330
747D
100
AcDbEntity
  8
部品1
100
AcDbLine
 10
7550.904397928895
 20
7422.963433610728
 30
0.0
 11
5816.904397928897
 21
7422.963433610728
 31
0.0
  0
LINE
  5
13E9F
330
747D
100
AcDbEntity
  8
部品1
100
AcDbLine
 10
7523.904397928898
 20
7449.963433610728
 30
0.0
 11
5843.904397928898
 21
7449.963433610729
 31
0.0
  0
LINE
  5
13EA0
330
747D
100
AcDbEntity
  8
部品1
100
AcDbLine
 10
7578.904397928898
 20
7394.963433610728
 30
0.0
 11
5843.904397928898
 21
7394.963433610726
 31
0.0
  0
LINE
  5
13EA1
330
747D
100
AcDbEntity
  8
部品1
100
AcDbLine
 10
5843.904397928898
 20
8709.963433610729
 30
0.0
 11
7523.904397928898
 21
8709.963433610729
 31
0.0
  0
LINE
  5
13EA2
330
747D
100
AcDbEntity
  8
部品1
100
AcDbLine
 10
5843.904397928898
 20
8289.963433610727
 30
0.0
 11
7523.904397928898
 21
8289.963433610727
 31
0.0
  0
LINE
  5
13EA3
330
747D
100
AcDbEntity
  8
部品1
100
AcDbLine
 10
5843.904397928898
 20
7869.963433610728
 30
0.0
 11
7523.904397928898
 21
7869.963433610731
 31
0.0
  0
LINE
  5
13EA5
330
747D
100
AcDbEntity
  8
部品1
100
AcDbLine
 10
7550.904397928899
 20
9996.963433610726
 30
0.0
 11
7550.904397928899
 21
8927.963433610727
 31
0.0
  0
LINE
  5
13EA6
330
747D
100
AcDbEntity
  8
部品1
100
AcDbLine
 10
7578.904397928898
 20
10024.96343361072
 30
0.0
 11
7578.904397928898
 21
7394.963433610726
 31
0.0
  0
LINE
  5
13EA7
330
747D
100
AcDbEntity
  8
破線
  6
HIDDEN
 48
10.0
100
AcDbLine
 10
7500.404397928898
 20
9946.463433610734
 30
0.0
 11
7500.404397928898
 21
7473.463433610724
 31
0.0
  0
LINE
  5
13EA8
330
747D
100
AcDbEntity
  8
部品1
100
AcDbLine
 10
5760.904397928898
 20
7422.963433610728
 30
0.0
 11
5760.904397928898
 21
9996.96343361073
 31
0.0
  0
LINE
  5
13EA9
330
747D
100
AcDbEntity
  8
部品1
100
AcDbLine
 10
5733.904397928898
 20
7449.963433610723
 30
0.0
 11
5733.904397928895
 21
9969.963433610733
 31
0.0
  0
LINE
  5
13EAA
330
747D
100
AcDbEntity
  8
破線
  6
HIDDEN
 48
10.0
100
AcDbLine
 10
5710.404397928898
 20
7473.463433610723
 30
0.0
 11
5710.404397928894
 21
9946.463433610732
 31
0.0
  0
LINE
  5
13EAB
330
747D
100
AcDbEntity
  8
部品1
100
AcDbLine
 10
5816.904397928897
 20
7422.963433610727
 30
0.0
 11
5816.904397928897
 21
9996.96343361073
 31
0.0
  0
LINE
  5
13EAC
330
747D
100
AcDbEntity
  8
破線
  6
HIDDEN
 48
10.0
100
AcDbLine
 10
5867.404397928898
 20
7473.463433610726
 30
0.0
 11
5867.404397928897
 21
9946.463433610727
 31
0.0
  0
LINE
  5
13EAD
330
747D
100
AcDbEntity
  8
部品1
100
AcDbLine
 10
5843.904397928898
 20
7449.963433610726
 30
0.0
 11
5843.904397928898
 21
9969.963433610727
 31
0.0
  0
LINE
  5
13EAE
330
747D
100
AcDbEntity
  8
部品1
100
AcDbLine
 10
7523.904397928898
 20
9969.963433610731
 30
0.0
 11
7523.904397928898
 21
7449.963433610726
 31
0.0
  0
LINE
  5
13EAF
330
747D
100
AcDbEntity
  8
部品1
100
AcDbLine
 10
4026.904397928897
 20
9969.963433610731
 30
0.0
 11
3998.904397928898
 21
9969.963433610731
 31
0.0
  0
LINE
  5
13EB0
330
747D
100
AcDbEntity
  8
部品1
100
AcDbLine
 10
4053.904397928898
 20
10024.96343361073
 30
0.0
 11
4053.904397928898
 21
9996.963433610726
 31
0.0
  0
LINE
  5
13EB1
330
747D
100
AcDbEntity
  8
部品1
 48
50.0
100
AcDbLine
 10
4026.904397928897
 20
9996.96343361073
 30
0.0
 11
4053.904397928895
 21
9969.963433610729
 31
0.0
  0
DIMENSION
  5
13EB2
330
747D
100
AcDbEntity
  8
寸法
 48
50.0
100
AcDbDimension
  2
*D20
 10
4053.904397928898
 20
10399.67584362952
 30
0.0
 11
3858.419116554659
 21
10399.67584362952
 31
0.0
 70
   160
 71
     5
 42
55.0
  3
INABA_S40
100
AcDbAlignedDimension
 13
3998.904397928898
 23
10024.96343361072
 33
0.0
 14
4053.904397928898
 24
10024.96343361073
 34
0.0
100
AcDbRotatedDimension
1001
ACAD
1000
DSTYLE
1002
{
1070
    41
1040
0.5
1070
    44
1040
1.0
1070
   147
1040
0.8
1070
   271
1070
     2
1070
   272
1070
     2
1070
   289
1070
     3
1070
   340
1005
F706
1070
   343
1005
F744
1070
   344
1005
F744
1002
}
  0
LINE
  5
13EB4
330
747D
100
AcDbEntity
  8
部品1
100
AcDbLine
 10
4026.904397928897
 20
8709.963433610729
 30
0.0
 11
3998.904397928898
 21
8709.963433610729
 31
0.0
  0
LINE
  5
13EB5
330
747D
100
AcDbEntity
  8
部品1
100
AcDbLine
 10
4026.904397928897
 20
8289.963433610729
 30
0.0
 11
3998.904397928898
 21
8289.963433610729
 31
0.0
  0
LINE
  5
13EB6
330
747D
100
AcDbEntity
  8
部品1
100
AcDbLine
 10
4026.904397928897
 20
7869.963433610731
 30
0.0
 11
3998.904397928898
 21
7869.963433610731
 31
0.0
  0
LINE
  5
13EB7
330
747D
100
AcDbEntity
  8
部品1
100
AcDbLine
 10
4053.904397928898
 20
7394.963433610725
 30
0.0
 11
4053.904397928898
 21
7422.963433610727
 31
0.0
  0
LINE
  5
13EB8
330
747D
100
AcDbEntity
  8
部品1
100
AcDbLine
 10
4053.904397928898
 20
7394.963433610732
 30
0.0
 11
4053.904397928898
 21
7422.963433610734
 31
0.0
  0
LINE
  5
13EB9
330
747D
100
AcDbEntity
  8
部品1
100
AcDbLine
 10
4026.904397928897
 20
7449.963433610723
 30
0.0
 11
3998.904397928898
 21
7449.963433610723
 31
0.0
  0
LINE
  5
13EBA
330
747D
100
AcDbEntity
  8
部品1
100
AcDbLine
 10
4053.904397928898
 20
7394.963433610725
 30
0.0
 11
4053.904397928898
 21
7422.963433610727
 31
0.0
  0
LINE
  5
13EBB
330
747D
100
AcDbEntity
  8
部品1
 48
50.0
100
AcDbLine
 10
4026.904397928896
 20
7422.963433610727
 30
0.0
 11
4053.904397928895
 21
7449.963433610729
 31
0.0
  0
LINE
  5
13EBC
330
747D
100
AcDbEntity
  8
部品1
100
AcDbLine
 10
3998.904397928898
 20
7394.963433610726
 30
0.0
 11
4053.904397928898
 21
7394.963433610725
 31
0.0
  0
LINE
  5
13EBE
330
747D
100
AcDbEntity
  8
部品1
100
AcDbLine
 10
4026.9043979289
 20
9969.963433610731
 30
0.0
 11
4026.904397928896
 21
7422.963433610727
 31
0.0
  0
LINE
  5
13EBF
330
747D
100
AcDbEntity
  8
部品1
100
AcDbLine
 10
4026.904397928897
 20
9996.96343361073
 30
0.0
 11
4026.904397928897
 21
8927.963433610727
 31
0.0
  0
LINE
  5
13EC0
330
747D
100
AcDbEntity
  8
部品1
100
AcDbLine
 10
3998.904397928898
 20
10024.96343361072
 30
0.0
 11
3998.904397928898
 21
7394.963433610726
 31
0.0
  0
LINE
  5
13EC1
330
747D
100
AcDbEntity
  8
破線
  6
HIDDEN
 48
10.0
100
AcDbLine
 10
4077.404397928904
 20
9946.463433610729
 30
0.0
 11
4077.404397928894
 21
7473.463433610726
 31
0.0
  0
LINE
  5
13EC2
330
747D
100
AcDbEntity
  8
部品1
100
AcDbLine
 10
4053.904397928903
 20
9969.963433610727
 30
0.0
 11
4053.904397928895
 21
7449.963433610729
 31
0.0
  0
DIMENSION
  5
13EC4
330
747D
100
AcDbEntity
  8
寸法
 48
50.0
100
AcDbDimension
  2
*D21
 10
5733.904397928898
 20
10399.67584362952
 30
0.0
 11
4893.904397928898
 21
10491.68765465314
 31
0.0
 70
    32
  1
4X420=<>
 71
     5
 42
1680.0
  3
INABA_S40
100
AcDbAlignedDimension
 13
4053.904397928898
 23
10024.96343361072
 33
0.0
 14
5733.904397928898
 24
10024.96343361073
 34
0.0
100
AcDbRotatedDimension
1001
ACAD
1000
DSTYLE
1002
{
1070
    41
1040
0.5
1070
    44
1040
1.0
1070
   147
1040
0.8
1070
   271
1070
     2
1070
   272
1070
     2
1070
   289
1070
     3
1070
   340
1005
F706
1070
   343
1005
F744
1070
   344
1005
F744
1002
}
  0
DIMENSION
  5
13EC5
330
747D
100
AcDbEntity
  8
寸法
 48
50.0
100
AcDbDimension
  2
*D22
 10
7578.904397928898
 20
10699.67584362952
 30
0.0
 11
5788.904397928899
 21
10791.67584362952
 31
0.0
 70
    32
 71
     5
 42
3580.0
  3
INABA_S40
100
AcDbAlignedDimension
 13
3998.904397928898
 23
10024.96343361072
 33
0.0
 14
7578.904397928898
 24
10024.96343361072
 34
0.0
100
AcDbRotatedDimension
1001
ACAD
1000
DSTYLE
1002
{
1070
    41
1040
0.5
1070
    44
1040
1.0
1070
   147
1040
0.8
1070
   271
1070
     2
1070
   272
1070
     2
1070
   289
1070
     3
1070
   340
1005
F706
1070
   343
1005
F744
1070
   344
1005
F744
1002
}
  0
LINE
  5
13EC6
330
747D
100
AcDbEntity
  8
部品1
100
AcDbLine
 10
4026.904397928896
 20
7422.963433610728
 30
0.0
 11
4053.904397928898
 21
7422.963433610727
 31
0.0
  0
LINE
  5
13EC7
330
747D
100
AcDbEntity
  8
部品1
100
AcDbLine
 10
4053.904397928891
 20
7449.963433610726
 30
0.0
 11
5733.904397928898
 21
7449.963433610723
 31
0.0
  0
LINE
  5
13EC8
330
747D
100
AcDbEntity
  8
部品1
100
AcDbLine
 10
5788.904397928899
 20
10024.96343361072
 30
0.0
 11
3998.904397928898
 21
10024.96343361072
 31
0.0
  0
LINE
  5
13EC9
330
747D
100
AcDbEntity
  8
部品1
100
AcDbLine
 10
5733.904397928896
 20
8709.963433610729
 30
0.0
 11
4053.904397928897
 21
8709.963433610722
 31
0.0
  0
LINE
  5
13ECA
330
747D
100
AcDbEntity
  8
部品1
100
AcDbLine
 10
5733.904397928896
 20
8289.963433610727
 30
0.0
 11
4053.904397928896
 21
8289.96343361072
 31
0.0
  0
LINE
  5
13ECB
330
747D
100
AcDbEntity
  8
部品1
100
AcDbLine
 10
5733.904397928896
 20
7869.963433610728
 30
0.0
 11
4053.904397928895
 21
7869.963433610725
 31
0.0
  0
LINE
  5
13ECC
330
747D
100
AcDbEntity
  8
部品1
100
AcDbLine
 10
4473.904397928897
 20
9996.963433610734
 30
0.0
 11
4026.904397928897
 21
9996.96343361073
 31
0.0
  0
LINE
  5
13ECD
330
747D
100
AcDbEntity
  8
部品1
100
AcDbLine
 10
4053.904397928892
 20
9969.963433610731
 30
0.0
 11
5733.904397928898
 21
9969.963433610734
 31
0.0
  0
LINE
  5
13EF7
330
747D
100
AcDbEntity
  8
部品1
100
AcDbLine
 10
2663.489748881344
 20
2188.112805903256
 30
0.0
 11
2603.489748881344
 21
2292.035854357388
 31
0.0
  0
LINE
  5
13EF8
330
747D
100
AcDbEntity
  8
部品1
100
AcDbLine
 10
2723.489748881344
 20
2292.035854357388
 30
0.0
 11
2663.489748881344
 21
2188.112805903256
 31
0.0
  0
LINE
  5
13EF9
330
747D
100
AcDbEntity
  8
部品1
100
AcDbLine
 10
2603.489748881344
 20
2292.035854357388
 30
0.0
 11
2723.489748881344
 21
2292.035854357388
 31
0.0
  0
TEXT
  5
13EFA
330
747D
100
AcDbEntity
  8
部品1
100
AcDbText
 10
2745.973702581163
 20
2202.954510774245
 30
0.0
 40
125.0
  1
G.L
  7
MSGOTHIC
100
AcDbText
  0
DIMENSION
  5
13F00
330
747D
100
AcDbEntity
  8
寸法
 48
50.0
100
AcDbDimension
  2
*D23
 10
8349.651514973253
 20
9969.963433610731
 30
0.0
 11
8349.651514973251
 21
10419.13010027739
 31
0.0
 70
   160
 71
     5
 42
54.99999999999636
  3
INABA_S40
100
AcDbAlignedDimension
 13
7578.904397928898
 23
10024.96343361072
 33
0.0
 14
7578.904397928898
 24
9969.963433610731
 34
0.0
 50
90.0
100
AcDbRotatedDimension
1001
ACAD
1000
DSTYLE
1002
{
1070
    41
1040
0.5
1070
    44
1040
1.0
1070
   147
1040
0.8
1070
   271
1070
     2
1070
   272
1070
     2
1070
   289
1070
     3
1070
   340
1005
F706
1070
   343
1005
F744
1070
   344
1005
F744
1002
}
  0
DIMENSION
  5
13F01
330
747D
100
AcDbEntity
  8
寸法
 48
50.0
100
AcDbDimension
  2
*D24
 10
8349.651514973251
 20
7449.963433610723
 30
0.0
 11
8257.639703949628
 21
8709.963433610729
 31
0.0
 70
    32
  1
6X420=<>
 71
     5
 42
2520.000000000008
  3
INABA_S40
100
AcDbAlignedDimension
 13
7578.904397928898
 23
9969.963433610731
 33
0.0
 14
7578.904397928898
 24
7449.963433610723
 34
0.0
 50
90.0
100
AcDbRotatedDimension
1001
ACAD
1000
DSTYLE
1002
{
1070
    41
1040
0.5
1070
    44
1040
1.0
1070
   147
1040
0.8
1070
   271
1070
     2
1070
   272
1070
     2
1070
   289
1070
     3
1070
   340
1005
F706
1070
   343
1005
F744
1070
   344
1005
F744
1002
}
  0
DIMENSION
  5
13F02
330
747D
100
AcDbEntity
  8
寸法
 48
50.0
100
AcDbDimension
  2
*D25
 10
8349.651514973253
 20
7394.963433610726
 30
0.0
 11
8349.651514973251
 21
7000.79676694406
 31
0.0
 70
   160
 71
     5
 42
54.99999999999636
  3
INABA_S40
100
AcDbAlignedDimension
 13
7578.904397928898
 23
7449.963433610723
 33
0.0
 14
7578.904397928898
 24
7394.963433610726
 34
0.0
 50
90.0
100
AcDbRotatedDimension
1001
ACAD
1000
DSTYLE
1002
{
1070
    41
1040
0.5
1070
    44
1040
1.0
1070
   147
1040
0.8
1070
   271
1070
     2
1070
   272
1070
     2
1070
   289
1070
     3
1070
   340
1005
F706
1070
   343
1005
F744
1070
   344
1005
F744
1002
}
  0
DIMENSION
  5
13F03
330
747D
100
AcDbEntity
  8
寸法
 48
50.0
100
AcDbDimension
  2
*D26
 10
8649.651514973252
 20
7394.963433610726
 30
0.0
 11
8557.639703949629
 21
8709.963433610729
 31
0.0
 70
    32
 71
     5
 42
2630.0
  3
INABA_S40
100
AcDbAlignedDimension
 13
7578.904397928898
 23
10024.96343361072
 33
0.0
 14
7578.904397928898
 24
7394.963433610726
 34
0.0
 50
90.0
100
AcDbRotatedDimension
1001
ACAD
1000
DSTYLE
1002
{
1070
    41
1040
0.5
1070
    44
1040
1.0
1070
   147
1040
0.8
1070
   271
1070
     2
1070
   272
1070
     2
1070
   289
1070
     3
1070
   340
1005
F706
1070
   343
1005
F744
1070
   344
1005
F744
1002
}
  0
DIMENSION
  5
13F04
330
747D
100
AcDbEntity
  8
寸法
 48
50.0
100
AcDbDimension
  2
*D27
 10
7578.904397928898
 20
10399.67584362952
 30
0.0
 11
7973.071064595564
 21
10399.67584362952
 31
0.0
 70
   160
 71
     5
 42
55.0
  3
INABA_S40
100
AcDbAlignedDimension
 13
7523.904397928898
 23
10024.96343361073
 33
0.0
 14
7578.904397928898
 24
10024.96343361072
 34
0.0
100
AcDbRotatedDimension
1001
ACAD
1000
DSTYLE
1002
{
1070
    41
1040
0.5
1070
    44
1040
1.0
1070
   147
1040
0.8
1070
   271
1070
     2
1070
   272
1070
     2
1070
   289
1070
     3
1070
   340
1005
F706
1070
   343
1005
F744
1070
   344
1005
F744
1002
}
  0
TEXT
  5
13F0A
330
747D
100
AcDbEntity
  8
文字
 62
     7
 48
50.0
100
AcDbText
 10
13209.4053442172
 20
228.5435242569015
 30
0.0
 40
100.0
  1
○有効開口寸法 ： 950×2025(mm)
  7
STYLE2
100
AcDbText
  0
LINE
  5
14278
330
747D
100
AcDbEntity
  8
部品1
100
AcDbLine
 10
5843.904397928898
 20
9129.963433610729
 30
0.0
 11
7523.904397928898
 21
9129.963433610729
 31
0.0
  0
LINE
  5
14279
330
747D
100
AcDbEntity
  8
部品1
100
AcDbLine
 10
5843.904397928898
 20
9549.963433610729
 30
0.0
 11
7523.904397928898
 21
9549.963433610729
 31
0.0
  0
LINE
  5
1427A
330
747D
100
AcDbEntity
  8
部品1
100
AcDbLine
 10
5733.904397928896
 20
9129.963433610729
 30
0.0
 11
4053.904397928899
 21
9129.963433610724
 31
0.0
  0
LINE
  5
1427B
330
747D
100
AcDbEntity
  8
部品1
100
AcDbLine
 10
5733.904397928896
 20
9549.963433610729
 30
0.0
 11
4053.904397928902
 21
9549.963433610724
 31
0.0
  0
LINE
  5
1427C
330
747D
100
AcDbEntity
  8
部品1
100
AcDbLine
 10
4026.904397928897
 20
9129.963433610731
 30
0.0
 11
3998.904397928898
 21
9129.963433610731
 31
0.0
  0
LINE
  5
1427D
330
747D
100
AcDbEntity
  8
部品1
100
AcDbLine
 10
4026.904397928897
 20
9549.963433610731
 30
0.0
 11
3998.904397928898
 21
9549.963433610731
 31
0.0
  0
LINE
  5
1427E
330
747D
100
AcDbEntity
  8
部品1
100
AcDbLine
 10
7550.904397928899
 20
9129.963433610731
 30
0.0
 11
7578.904397928898
 21
9129.963433610731
 31
0.0
  0
LINE
  5
1427F
330
747D
100
AcDbEntity
  8
部品1
100
AcDbLine
 10
7550.904397928899
 20
9549.963433610731
 30
0.0
 11
7578.904397928898
 21
9549.963433610731
 31
0.0
  0
DIMENSION
  5
14486
330
747D
100
AcDbEntity
  8
寸法
100
AcDbDimension
  2
*D28
 10
10518.97055039743
 20
2338.112805903252
 30
0.0
 11
10418.9587393738
 21
3383.112805903254
 31
0.0
 70
    32
 71
     5
 42
2090.000000000001
  3
INABA_S40G
100
AcDbAlignedDimension
 13
11362.72067958068
 23
4428.112805903253
 33
0.0
 14
11285.72067958068
 24
2338.112805903252
 34
0.0
 50
90.0
100
AcDbRotatedDimension
1001
ACAD
1000
DSTYLE
1002
{
1070
   174
1070
     0
1070
   272
1070
     1
1070
   288
1070
     0
1070
   341
1005
0
1002
}
  0
DIMENSION
  5
14487
330
747D
100
AcDbEntity
  8
寸法
100
AcDbDimension
  2
*D29
 10
10218.97055039743
 20
4663.112805903256
 30
0.0
 11
10118.9587393738
 21
3475.612805903259
 31
0.0
 70
    32
 71
     5
 42
2375.0
  3
INABA_S40G
100
AcDbAlignedDimension
 13
11285.72067958068
 23
2288.112805903256
 33
0.0
 14
11302.72067958068
 24
4663.112805903256
 34
0.0
 50
90.0
100
AcDbRotatedDimension
1001
ACAD
1000
DSTYLE
1002
{
1070
   174
1070
     0
1070
   272
1070
     1
1070
   288
1070
     0
1070
   341
1005
0
1002
}
  0
DIMENSION
  5
14488
330
747D
100
AcDbEntity
  8
寸法
100
AcDbDimension
  2
*D30
 10
14697.64783755282
 20
4608.112805903256
 30
0.0
 11
14597.63602652919
 21
3448.112805903259
 31
0.0
 70
    32
 71
     5
 42
2320.0
  3
INABA_S40G
100
AcDbAlignedDimension
 13
13992.72067958069
 23
2288.112805903257
 33
0.0
 14
14072.72067958069
 24
4608.112805903257
 34
0.0
 50
90.0
100
AcDbRotatedDimension
1001
ACAD
1000
DSTYLE
1002
{
1070
   174
1070
     0
1070
   272
1070
     1
1070
   288
1070
     0
1070
   341
1005
0
1002
}
  0
LINE
  5
1448D
330
747D
100
AcDbEntity
  8
細線
 48
50.0
100
AcDbLine
 10
13440.22067958068
 20
4428.112805903256
 30
0.0
 11
13440.22067958069
 21
2338.112805903258
 31
0.0
  0
LINE
  5
1448E
330
747D
100
AcDbEntity
  8
細線
 48
50.0
100
AcDbLine
 10
13455.22067958069
 20
4428.112805903256
 30
0.0
 11
13455.22067958069
 21
2338.112805903258
 31
0.0
  0
LINE
  5
1448F
330
747D
100
AcDbEntity
  8
細線
 48
50.0
100
AcDbLine
 10
13315.22067958069
 20
4428.112805903256
 30
0.0
 11
13315.22067958069
 21
2338.112805903258
 31
0.0
  0
LINE
  5
14490
330
747D
100
AcDbEntity
  8
細線
 48
50.0
100
AcDbLine
 10
13300.22067958068
 20
4428.112805903256
 30
0.0
 11
13300.22067958069
 21
2338.112805903258
 31
0.0
  0
LINE
  5
14491
330
747D
100
AcDbEntity
  8
細線
 48
50.0
100
AcDbLine
 10
13160.22067958068
 20
4428.112805903256
 30
0.0
 11
13160.22067958069
 21
2338.112805903258
 31
0.0
  0
LINE
  5
14492
330
747D
100
AcDbEntity
  8
細線
 48
50.0
100
AcDbLine
 10
13175.22067958069
 20
4428.112805903256
 30
0.0
 11
13175.22067958069
 21
2338.112805903258
 31
0.0
  0
LINE
  5
14493
330
747D
100
AcDbEntity
  8
部品1
100
AcDbLine
 10
13097.72067958068
 20
4428.112805903256
 30
0.0
 11
13097.72067958068
 21
2338.112805903258
 31
0.0
  0
LINE
  5
14494
330
747D
100
AcDbEntity
  8
部品1
100
AcDbLine
 10
12537.94581000992
 20
4788.317193866275
 30
0.0
 11
12863.40082365296
 21
4770.799134907413
 31
0.0
  0
ARC
  5
14495
330
747D
100
AcDbEntity
  8
部品1
100
AcDbCircle
 10
14058.34821539463
 20
4502.13656316905
 30
0.0
 40
0.7
100
AcDbArc
 50
275.0921697642102
 51
354.1866997667087
  0
ARC
  5
14496
330
747D
100
AcDbEntity
  8
部品1
100
AcDbCircle
 10
14069.20756114395
 20
4579.179817986973
 30
0.0
 40
0.7
100
AcDbArc
 50
275.0921697642102
 51
354.1866997665532
  0
ARC
  5
14497
330
747D
100
AcDbEntity
  8
部品1
100
AcDbCircle
 10
14069.53596638655
 20
4575.494421129883
 30
0.0
 40
3.0
100
AcDbArc
 50
95.0921697642102
 51
174.1866997665532
  0
ARC
  5
14498
330
747D
100
AcDbEntity
  8
部品1
100
AcDbCircle
 10
14058.67662063722
 20
4498.451166311959
 30
0.0
 40
3.0
100
AcDbArc
 50
95.0921697642102
 51
174.1866997665532
  0
ARC
  5
14499
330
747D
100
AcDbEntity
  8
部品1
 48
50.0
100
AcDbCircle
 10
14047.64848536212
 20
4488.860421708078
 30
0.0
 40
7.0
100
AcDbArc
 50
267.8377559869492
 51
354.1866997665532
  0
ARC
  5
1449A
330
747D
100
AcDbEntity
  8
部品1
 48
50.0
100
AcDbCircle
 10
14064.97058182663
 20
4599.76296885025
 30
0.0
 40
7.0
100
AcDbArc
 50
354.1866997665532
 51
87.03587545283093
  0
LINE
  5
1449B
330
747D
100
AcDbEntity
  8
部品1
 48
50.0
100
AcDbLine
 10
14055.69204896661
 20
4498.755028028862
 30
0.0
 11
14054.61248592688
 21
4488.151411035303
 31
0.0
  0
LINE
  5
1449C
330
747D
100
AcDbEntity
  8
部品1
 48
50.0
100
AcDbLine
 10
14066.55139471594
 20
4575.798282846786
 30
0.0
 11
14059.0446154511
 21
4502.065662101774
 31
0.0
  0
LINE
  5
1449D
330
747D
100
AcDbEntity
  8
部品1
 48
50.0
100
AcDbLine
 10
14071.93458239139
 20
4599.053958177475
 30
0.0
 11
14069.90396120042
 21
4579.108916919696
 31
0.0
  0
ARC
  5
1449E
330
747D
100
AcDbEntity
  8
部品1
100
AcDbCircle
 10
11308.75777145205
 20
4541.92696486216
 30
0.0
 40
0.7
100
AcDbArc
 50
181.0932240292635
 51
260.1877540314845
  0
ARC
  5
1449F
330
747D
100
AcDbEntity
  8
部品1
100
AcDbCircle
 10
11303.98509785444
 20
4634.79274306228
 30
0.0
 40
0.7
100
AcDbArc
 50
181.0932240292114
 51
260.1877540314845
  0
ARC
  5
144A0
330
747D
100
AcDbEntity
  8
部品1
100
AcDbCircle
 10
11303.35454345142
 20
4631.146868524882
 30
0.0
 40
3.0
100
AcDbArc
 50
1.093224029315636
 51
80.18775403169875
  0
ARC
  5
144A1
330
747D
100
AcDbEntity
  8
部品1
100
AcDbCircle
 10
11308.12721704903
 20
4538.281090324763
 30
0.0
 40
3.0
100
AcDbArc
 50
1.093224029315636
 51
80.18775403169875
  0
ARC
  5
144A2
330
747D
100
AcDbEntity
  8
部品1
 48
50.0
100
AcDbCircle
 10
11318.32734942423
 20
4527.888846942281
 30
0.0
 40
7.0
100
AcDbArc
 50
181.0932240293156
 51
267.8377559869492
  0
ARC
  5
144A3
330
747D
100
AcDbEntity
  8
部品1
 48
50.0
100
AcDbCircle
 10
11309.90369132213
 20
4654.839906475376
 30
0.0
 40
7.0
100
AcDbArc
 50
87.03587545283093
 51
181.0932240293156
  0
LINE
  5
144A4
330
747D
100
AcDbEntity
  8
部品1
 48
50.0
100
AcDbLine
 10
11311.12667097545
 20
4538.338327927946
 30
0.0
 11
11311.32862359589
 21
4527.755292534854
 31
0.0
  0
LINE
  5
144A5
330
747D
100
AcDbEntity
  8
細線
 48
50.0
100
AcDbLine
 10
11308.52057791879
 20
4541.268376046754
 30
0.0
 11
14058.52424234943
 21
4501.459057072261
 31
0.0
  0
LINE
  5
144A6
330
747D
100
AcDbEntity
  8
細線
 48
50.0
100
AcDbLine
 10
11303.7601026815
 20
4634.129887744617
 30
0.0
 11
14069.39608742667
 21
4578.50568310379
 31
0.0
  0
LINE
  5
144A7
330
747D
100
AcDbEntity
  8
部品1
 48
50.0
100
AcDbLine
 10
11306.35399737785
 20
4631.204106128065
 30
0.0
 11
11308.05789886921
 21
4541.913609421418
 31
0.0
  0
LINE
  5
144A8
330
747D
100
AcDbEntity
  8
部品1
 48
50.0
100
AcDbLine
 10
11302.90496549379
 20
4654.706352067949
 30
0.0
 11
11303.2852252716
 21
4634.779387621537
 31
0.0
  0
LINE
  5
144A9
330
747D
100
AcDbEntity
  8
細線
 48
50.0
100
AcDbLine
 10
14039.68996277438
 20
4607.266228382726
 30
0.0
 11
14034.97299669269
 21
4482.334012447809
 31
0.0
  0
LINE
  5
144AA
330
747D
100
AcDbEntity
  8
細線
 48
50.0
100
AcDbLine
 10
11335.72067958068
 20
4660.512482278661
 30
0.0
 11
11330.43157802518
 21
4520.426849651307
 31
0.0
  0
LINE
  5
144AB
330
747D
100
AcDbEntity
  8
部品1
100
AcDbLine
 10
11318.06324418264
 20
4520.893830972223
 30
0.0
 11
14047.38438012054
 21
4481.865405738018
 31
0.0
  0
LINE
  5
144AC
330
747D
100
AcDbEntity
  8
部品1
100
AcDbLine
 10
11310.26566593765
 20
4661.830541237523
 30
0.0
 11
14065.33255644215
 21
4606.753603612395
 31
0.0
  0
LINE
  5
144AD
330
747D
100
AcDbEntity
  8
部品1
 48
50.0
100
AcDbLine
 10
12563.40082365296
 20
4786.999134907413
 30
0.0
 11
12863.40082365296
 21
4786.999134907413
 31
0.0
  0
LINE
  5
144AE
330
747D
100
AcDbEntity
  8
部品1
 48
50.0
100
AcDbLine
 10
12863.40082365296
 20
4786.999134907413
 30
0.0
 11
12863.40082365296
 21
4770.799134907413
 31
0.0
  0
TEXT
  5
144AF
330
747D
100
AcDbEntity
  8
部品1
 48
50.0
100
AcDbText
 10
12551.66865887669
 20
4822.883157059846
 30
0.0
 40
120.0
  1
1000
  7
STYLE1
100
AcDbText
  0
TEXT
  5
144B0
330
747D
100
AcDbEntity
  8
部品1
 48
50.0
100
AcDbText
 10
13029.30168154178
 20
4685.381898841563
 30
0.0
 40
120.0
  1
37
 50
90.0
  7
STYLE1
100
AcDbText
  0
LINE
  5
144B1
330
747D
100
AcDbEntity
  8
細線
 48
50.0
100
AcDbLine
 10
12755.22067958068
 20
4428.112805903256
 30
0.0
 11
12755.22067958069
 21
2338.112805903256
 31
0.0
  0
LINE
  5
144B2
330
747D
100
AcDbEntity
  8
細線
 48
50.0
100
AcDbLine
 10
12740.22067958068
 20
4428.112805903256
 30
0.0
 11
12740.22067958069
 21
2338.112805903256
 31
0.0
  0
LINE
  5
144B3
330
747D
100
AcDbEntity
  8
細線
 48
50.0
100
AcDbLine
 10
12880.22067958068
 20
4428.112805903256
 30
0.0
 11
12880.22067958069
 21
2338.112805903256
 31
0.0
  0
LINE
  5
144B4
330
747D
100
AcDbEntity
  8
細線
 48
50.0
100
AcDbLine
 10
12895.22067958069
 20
4428.112805903256
 30
0.0
 11
12895.22067958069
 21
2338.112805903256
 31
0.0
  0
LINE
  5
144B5
330
747D
100
AcDbEntity
  8
細線
 48
50.0
100
AcDbLine
 10
13035.22067958069
 20
4428.112805903256
 30
0.0
 11
13035.22067958069
 21
2338.112805903256
 31
0.0
  0
LINE
  5
144B6
330
747D
100
AcDbEntity
  8
細線
 48
50.0
100
AcDbLine
 10
13020.22067958068
 20
4428.112805903256
 30
0.0
 11
13020.22067958069
 21
2338.112805903256
 31
0.0
  0
LINE
  5
144B7
330
747D
100
AcDbEntity
  8
部品1
100
AcDbLine
 10
13517.72067958068
 20
4428.112805903256
 30
0.0
 11
13517.72067958068
 21
2338.112805903257
 31
0.0
  0
LINE
  5
144B8
330
747D
100
AcDbEntity
  8
部品1
100
AcDbLine
 10
11362.72067958068
 20
4428.112805903256
 30
0.0
 11
13992.72067958069
 21
4428.112805903256
 31
0.0
  0
LINE
  5
144B9
330
747D
100
AcDbEntity
  8
部品1
100
AcDbLine
 10
11362.72067958068
 20
2338.112805903256
 30
0.0
 11
13992.72067958069
 21
2338.112805903257
 31
0.0
  0
LINE
  5
144BB
330
747D
100
AcDbEntity
  8
部品1
100
AcDbLine
 10
11417.72067958068
 20
4428.112805903256
 30
0.0
 11
11417.72067958068
 21
2338.112805903256
 31
0.0
  0
LINE
  5
144BC
330
747D
100
AcDbEntity
  8
部品1
100
AcDbLine
 10
11362.72067958068
 20
4520.255243832134
 30
0.0
 11
11362.72067958068
 21
2188.112805903256
 31
0.0
  0
DIMENSION
  5
144BE
330
747D
100
AcDbEntity
  8
寸法
100
AcDbDimension
  2
*D31
 10
10518.97055039743
 20
2288.112805903256
 30
0.0
 11
10518.97055039743
 21
1982.065561808767
 31
0.0
 70
   160
 71
     5
 42
49.99999999999545
  3
INABA_S40G
100
AcDbAlignedDimension
 13
11285.72067958068
 23
2338.112805903252
 33
0.0
 14
11285.72067958068
 24
2288.112805903256
 34
0.0
 50
90.0
100
AcDbRotatedDimension
1001
ACAD
1000
DSTYLE
1002
{
1070
   174
1070
     0
1070
   272
1070
     1
1070
   288
1070
     0
1070
   341
1005
0
1002
}
  0
LINE
  5
144BF
330
747D
100
AcDbEntity
  8
部品1
100
AcDbLine
 10
11837.72067958068
 20
4428.112805903256
 30
0.0
 11
11837.72067958068
 21
2338.112805903256
 31
0.0
  0
LINE
  5
144C0
330
747D
100
AcDbEntity
  8
部品1
100
AcDbLine
 10
13992.72067958069
 20
4482.647079290995
 30
0.0
 11
13992.72067958069
 21
2188.112805903257
 31
0.0
  0
LINE
  5
144C1
330
747D
100
AcDbEntity
  8
部品1
100
AcDbLine
 10
13937.72067958068
 20
4428.112805903256
 30
0.0
 11
13937.72067958069
 21
2338.112805903257
 31
0.0
  0
DIMENSION
  5
144C4
330
747D
100
AcDbEntity
  8
寸法
 48
50.0
100
AcDbDimension
  2
*D32
 10
11362.72067958068
 20
5061.770259482561
 30
0.0
 11
12717.49087060988
 21
5061.770259482561
 31
0.0
 70
   160
  1
柱外寸法<>
 71
     5
 42
2630.0
  3
INABA_S40G
100
AcDbAlignedDimension
 13
13992.72067958069
 23
4609.923485514911
 33
0.0
 14
11362.72067958068
 24
4659.114424026233
 34
0.0
100
AcDbRotatedDimension
1001
ACAD
1000
DSTYLE
1002
{
1070
   174
1070
     0
1070
   272
1070
     1
1070
   288
1070
     0
1070
   341
1005
0
1002
}
  0
DIMENSION
  5
144C5
330
747D
100
AcDbEntity
  8
寸法
 48
50.0
100
AcDbDimension
  2
*D33
 10
11302.72067958068
 20
5061.77025948256
 30
0.0
 11
10993.08288430509
 21
5061.77025948256
 31
0.0
 70
   160
 71
     5
 42
60.0
  3
INABA_S40G
100
AcDbAlignedDimension
 13
11362.72067958068
 23
4659.114424026233
 33
0.0
 14
11302.72067958068
 24
4663.112805903261
 34
0.0
100
AcDbRotatedDimension
1001
ACAD
1000
DSTYLE
1002
{
1070
   174
1070
     0
1070
   272
1070
     1
1070
   288
1070
     0
1070
   341
1005
0
1002
}
  0
DIMENSION
  5
144C6
330
747D
100
AcDbEntity
  8
寸法
 48
50.0
100
AcDbDimension
  2
*D34
 10
11302.72067958068
 20
5281.980946214178
 30
0.0
 11
12706.07960446806
 21
5281.980946214178
 31
0.0
 70
   160
 71
     5
 42
2770.0
  3
INABA_S40G
100
AcDbAlignedDimension
 13
14072.72067958069
 23
4608.112805903258
 33
0.0
 14
11302.72067958068
 24
4663.112805903261
 34
0.0
100
AcDbRotatedDimension
1001
ACAD
1000
DSTYLE
1002
{
1070
   174
1070
     0
1070
   272
1070
     1
1070
   288
1070
     0
1070
   341
1005
0
1002
}
  0
LINE
  5
144E0
330
747D
100
AcDbEntity
  8
部品1
100
AcDbLine
 10
11362.72067958068
 20
2288.112805903256
 30
0.0
 11
11370.22067958068
 21
2288.112805903256
 31
0.0
  0
TEXT
  5
144E1
330
747D
100
AcDbEntity
  8
部品1
100
AcDbText
 10
12395.43144789007
 20
1669.858311332605
 30
0.0
 40
135.0
  1
側面図
  7
STYLE2
100
AcDbText
  0
LWPOLYLINE
  5
144E2
330
747D
100
AcDbEntity
  8
部品1
100
AcDbPolyline
 90
        4
 70
     1
 43
0.0
 10
12305.98534646646
 20
1862.751840551128
 10
12305.98534646646
 20
1622.859519005595
 10
13069.45601269491
 20
1622.859519005595
 10
13069.45601269491
 20
1862.751840551128
  0
LINE
  5
144E3
330
747D
100
AcDbEntity
  8
細線
 48
50.0
100
AcDbLine
 10
11915.22067958068
 20
4428.112805903256
 30
0.0
 11
11915.22067958068
 21
2338.112805903256
 31
0.0
  0
LINE
  5
144E4
330
747D
100
AcDbEntity
  8
細線
 48
50.0
100
AcDbLine
 10
11900.22067958068
 20
4428.112805903256
 30
0.0
 11
11900.22067958068
 21
2338.112805903256
 31
0.0
  0
LINE
  5
144E5
330
747D
100
AcDbEntity
  8
細線
 48
50.0
100
AcDbLine
 10
12040.22067958068
 20
4428.112805903256
 30
0.0
 11
12040.22067958068
 21
2338.112805903256
 31
0.0
  0
LINE
  5
144E6
330
747D
100
AcDbEntity
  8
細線
 48
50.0
100
AcDbLine
 10
12055.22067958068
 20
4428.112805903256
 30
0.0
 11
12055.22067958068
 21
2338.112805903256
 31
0.0
  0
LINE
  5
144E7
330
747D
100
AcDbEntity
  8
細線
 48
50.0
100
AcDbLine
 10
12195.22067958068
 20
4428.112805903256
 30
0.0
 11
12195.22067958068
 21
2338.112805903256
 31
0.0
  0
LINE
  5
144E8
330
747D
100
AcDbEntity
  8
細線
 48
50.0
100
AcDbLine
 10
12180.22067958068
 20
4428.112805903256
 30
0.0
 11
12180.22067958068
 21
2338.112805903256
 31
0.0
  0
LINE
  5
144E9
330
747D
100
AcDbEntity
  8
細線
 48
50.0
100
AcDbLine
 10
11760.22067958069
 20
4428.112805903256
 30
0.0
 11
11760.22067958069
 21
2338.112805903256
 31
0.0
  0
LINE
  5
144EA
330
747D
100
AcDbEntity
  8
細線
 48
50.0
100
AcDbLine
 10
11775.22067958068
 20
4428.112805903256
 30
0.0
 11
11775.22067958068
 21
2338.112805903256
 31
0.0
  0
LINE
  5
144EB
330
747D
100
AcDbEntity
  8
細線
 48
50.0
100
AcDbLine
 10
11635.22067958068
 20
4428.112805903256
 30
0.0
 11
11635.22067958068
 21
2338.112805903256
 31
0.0
  0
LINE
  5
144EC
330
747D
100
AcDbEntity
  8
細線
 48
50.0
100
AcDbLine
 10
11620.22067958069
 20
4428.112805903256
 30
0.0
 11
11620.22067958069
 21
2338.112805903256
 31
0.0
  0
LINE
  5
144ED
330
747D
100
AcDbEntity
  8
細線
 48
50.0
100
AcDbLine
 10
11480.22067958069
 20
4428.112805903256
 30
0.0
 11
11480.22067958069
 21
2338.112805903256
 31
0.0
  0
LINE
  5
144EE
330
747D
100
AcDbEntity
  8
細線
 48
50.0
100
AcDbLine
 10
11495.22067958068
 20
4428.112805903256
 30
0.0
 11
11495.22067958068
 21
2338.112805903256
 31
0.0
  0
DIMENSION
  5
144EF
330
747D
100
AcDbEntity
  8
寸法
 48
50.0
100
AcDbDimension
  2
*D35
 10
14072.72067958069
 20
5061.770259482561
 30
0.0
 11
14278.76792367517
 21
5061.770259482561
 31
0.0
 70
   160
 71
     5
 42
80.0
  3
INABA_S40G
100
AcDbAlignedDimension
 13
13992.72067958069
 23
4609.923485514911
 33
0.0
 14
14072.72067958069
 24
4608.112805903258
 34
0.0
100
AcDbRotatedDimension
1001
ACAD
1000
DSTYLE
1002
{
1070
   174
1070
     0
1070
   272
1070
     1
1070
   288
1070
     0
1070
   341
1005
0
1002
}
  0
LINE
  5
144F0
330
747D
100
AcDbEntity
  8
部品1
100
AcDbLine
 10
12257.72067958069
 20
4428.112805903256
 30
0.0
 11
12257.72067958069
 21
2338.112805903256
 31
0.0
  0
LINE
  5
144F1
330
747D
100
AcDbEntity
  8
細線
 48
50.0
100
AcDbLine
 10
12600.22067958068
 20
4428.112805903256
 30
0.0
 11
12600.22067958069
 21
2338.112805903256
 31
0.0
  0
LINE
  5
144F2
330
747D
100
AcDbEntity
  8
細線
 48
50.0
100
AcDbLine
 10
12615.22067958068
 20
4428.112805903256
 30
0.0
 11
12615.22067958069
 21
2338.112805903256
 31
0.0
  0
LINE
  5
144F3
330
747D
100
AcDbEntity
  8
細線
 48
50.0
100
AcDbLine
 10
12475.22067958068
 20
4428.112805903256
 30
0.0
 11
12475.22067958069
 21
2338.112805903256
 31
0.0
  0
LINE
  5
144F4
330
747D
100
AcDbEntity
  8
細線
 48
50.0
100
AcDbLine
 10
12460.22067958068
 20
4428.112805903256
 30
0.0
 11
12460.22067958069
 21
2338.112805903256
 31
0.0
  0
LINE
  5
144F5
330
747D
100
AcDbEntity
  8
細線
 48
50.0
100
AcDbLine
 10
12320.22067958068
 20
4428.112805903256
 30
0.0
 11
12320.22067958069
 21
2338.112805903256
 31
0.0
  0
LINE
  5
144F6
330
747D
100
AcDbEntity
  8
細線
 48
50.0
100
AcDbLine
 10
12335.22067958068
 20
4428.112805903256
 30
0.0
 11
12335.22067958069
 21
2338.112805903256
 31
0.0
  0
LINE
  5
144F7
330
747D
100
AcDbEntity
  8
部品1
100
AcDbLine
 10
12677.72067958069
 20
4428.112805903256
 30
0.0
 11
12677.72067958069
 21
2338.112805903256
 31
0.0
  0
LINE
  5
144F8
330
747D
100
AcDbEntity
  8
細線
 48
50.0
100
AcDbLine
 10
13595.22067958069
 20
4428.112805903256
 30
0.0
 11
13595.22067958069
 21
2338.112805903257
 31
0.0
  0
LINE
  5
144F9
330
747D
100
AcDbEntity
  8
細線
 48
50.0
100
AcDbLine
 10
13580.22067958069
 20
4428.112805903256
 30
0.0
 11
13580.22067958069
 21
2338.112805903257
 31
0.0
  0
LINE
  5
144FA
330
747D
100
AcDbEntity
  8
細線
 48
50.0
100
AcDbLine
 10
13720.22067958069
 20
4428.112805903256
 30
0.0
 11
13720.22067958069
 21
2338.112805903257
 31
0.0
  0
LINE
  5
144FB
330
747D
100
AcDbEntity
  8
細線
 48
50.0
100
AcDbLine
 10
13735.22067958069
 20
4428.112805903256
 30
0.0
 11
13735.22067958069
 21
2338.112805903257
 31
0.0
  0
LINE
  5
144FC
330
747D
100
AcDbEntity
  8
細線
 48
50.0
100
AcDbLine
 10
13875.22067958069
 20
4428.112805903256
 30
0.0
 11
13875.22067958069
 21
2338.112805903257
 31
0.0
  0
LINE
  5
144FD
330
747D
100
AcDbEntity
  8
細線
 48
50.0
100
AcDbLine
 10
13860.22067958069
 20
4428.112805903256
 30
0.0
 11
13860.22067958069
 21
2338.112805903257
 31
0.0
  0
DIMENSION
  5
144FE
330
747D
100
AcDbEntity
  8
寸法
 48
50.0
100
AcDbDimension
  2
*D36
 10
10742.11227281232
 20
4537.458064776588
 30
0.0
 11
10752.77774807124
 21
4908.304728018287
 31
0.0
 70
   161
 71
     5
 42
141.0
  3
INABA_S40G
100
AcDbAlignedDimension
 13
11322.11669973926
 23
4661.835554737936
 33
0.0
 14
11318.06324418264
 24
4520.893830972223
 34
0.0
1001
ACAD
1000
DSTYLE
1002
{
1070
   174
1070
     0
1070
   272
1070
     1
1070
   288
1070
     0
1070
   341
1005
0
1002
}
  0
LINE
  5
14739
330
747D
100
AcDbEntity
  8
仕様書枠
 48
50.0
100
AcDbLine
 10
16307.19999999999
 20
8179.600000000005
 30
0.0
 11
13127.19999999999
 21
8179.600000000005
 31
0.0
  0
LINE
  5
156A2
330
747D
100
AcDbEntity
  8
破線
 48
10.0
100
AcDbLine
 10
6658.904397928909
 20
7449.963433610732
 30
0.0
 11
6658.904397928893
 21
9969.963433610731
 31
0.0
  0
LINE
  5
156A3
330
747D
100
AcDbEntity
  8
破線
 48
10.0
100
AcDbLine
 10
6708.904397928899
 20
7449.963433610732
 30
0.0
 11
6708.904397928903
 21
9969.963433610731
 31
0.0
  0
LINE
  5
156A6
330
747D
100
AcDbEntity
  8
破線
 48
10.0
100
AcDbLine
 10
4868.904397928893
 20
7449.963433610725
 30
0.0
 11
4868.904397928893
 21
9969.963433610733
 31
0.0
  0
LINE
  5
156A7
330
747D
100
AcDbEntity
  8
破線
 48
10.0
100
AcDbLine
 10
4918.904397928886
 20
7449.963433610725
 30
0.0
 11
4918.904397928904
 21
9969.963433610733
 31
0.0
  0
LINE
  5
156AA
330
747D
100
AcDbEntity
  8
破線
  6
HIDDEN
 48
10.0
100
AcDbLine
 10
4053.904397928893
 20
7473.463433610736
 30
0.0
 11
4868.904397928893
 21
7473.463433610729
 31
0.0
  0
LINE
  5
156AD
330
747D
100
AcDbEntity
  8
破線
  6
HIDDEN
 48
10.0
100
AcDbLine
 10
5867.404397928898
 20
7473.463433610739
 30
0.0
 11
6658.904397928909
 21
7473.463433610733
 31
0.0
  0
LINE
  5
156AE
330
747D
100
AcDbEntity
  8
破線
  6
HIDDEN
 48
10.0
100
AcDbLine
 10
4077.404397928903
 20
9946.46343361073
 30
0.0
 11
4868.904397928893
 21
9946.463433610734
 31
0.0
  0
DIMENSION
  5
16094
330
747D
100
AcDbEntity
  8
寸法
100
AcDbDimension
  2
*D38
 10
3740.153023599285
 20
7319.963433610694
 30
0.0
 11
3740.153023599283
 21
7162.712203202507
 31
0.0
 70
   160
 71
     5
 42
75.00000000003274
  3
INABA_S40
100
AcDbAlignedDimension
 13
3998.904397928898
 23
7394.963433610726
 33
0.0
 14
4026.904397928898
 24
7319.963433610694
 34
0.0
 50
90.0
100
AcDbRotatedDimension
1001
ACAD
1000
DSTYLE
1002
{
1070
    41
1040
0.5
1070
    44
1040
1.0
1070
   147
1040
0.8
1070
   271
1070
     2
1070
   272
1070
     2
1070
   289
1070
     3
1070
   340
1005
F706
1070
   343
1005
F744
1070
   344
1005
F744
1002
}
  0
LWPOLYLINE
  5
16156
330
747D
100
AcDbEntity
  8
部品1
100
AcDbPolyline
 90
        4
 70
     1
 43
0.0
 10
5407.169064814692
 20
5783.25197349208
 10
5407.169064814692
 20
5543.359651946548
 10
6170.639731043134
 20
5543.359651946548
 10
6170.639731043134
 20
5783.25197349208
  0
TEXT
  5
16157
330
747D
100
AcDbEntity
  8
部品1
100
AcDbText
 10
5497.088674643734
 20
5590.358444273556
 30
0.0
 40
135.0
  1
平面図
  7
STYLE2
100
AcDbText
  0
DIMENSION
  5
16190
330
747D
100
AcDbEntity
  8
寸法
 48
50.0
100
AcDbDimension
  2
*D39
 10
7578.904397928898
 20
6116.914854056406
 30
0.0
 11
6683.904397928898
 21
6116.914854056406
 31
0.0
 70
   160
 71
     5
 42
1790.0
  3
INABA_S40
100
AcDbAlignedDimension
 13
5788.904397928899
 23
7449.963433610723
 33
0.0
 14
7578.904397928898
 24
7394.963433610726
 34
0.0
100
AcDbRotatedDimension
1001
ACAD
1000
DSTYLE
1002
{
1070
    41
1040
0.5
1070
    44
1040
1.0
1070
   147
1040
0.8
1070
   271
1070
     2
1070
   272
1070
     2
1070
   289
1070
     3
1070
   340
1005
F706
1070
   343
1005
F744
1070
   344
1005
F744
1002
}
  0
DIMENSION
  5
161B5
330
747D
100
AcDbEntity
  8
寸法
 48
50.0
100
AcDbDimension
  2
*D40
 10
5788.904397928899
 20
6116.914854056406
 30
0.0
 11
4893.904397928898
 21
6116.914854056406
 31
0.0
 70
   160
 71
     5
 42
1790.0
  3
INABA_S40
100
AcDbAlignedDimension
 13
3998.904397928898
 23
7394.963433610726
 33
0.0
 14
5788.904397928899
 24
7449.963433610726
 34
0.0
100
AcDbRotatedDimension
1001
ACAD
1000
DSTYLE
1002
{
1070
    41
1040
0.5
1070
    44
1040
1.0
1070
   147
1040
0.8
1070
   271
1070
     2
1070
   272
1070
     2
1070
   289
1070
     3
1070
   340
1005
F706
1070
   343
1005
F744
1070
   344
1005
F744
1002
}
  0
TEXT
  5
163D6
330
747D
100
AcDbEntity
  8
文字
 62
     7
 48
50.0
100
AcDbText
 10
15022.63965474518
 20
9570.013745883725
 30
0.0
 40
100.0
  1
F12            1.0
  7
STYLE1
100
AcDbText
  0
LINE
  5
1640B
330
747D
100
AcDbEntity
  8
部品1
100
AcDbLine
 10
7550.904397928899
 20
9549.963433610725
 30
0.0
 11
7578.904397928898
 21
9549.963433610729
 31
0.0
  0
LINE
  5
1640C
330
747D
100
AcDbEntity
  8
部品1
100
AcDbLine
 10
7550.904397928899
 20
9129.963433610729
 30
0.0
 11
7578.904397928898
 21
9129.963433610729
 31
0.0
  0
LINE
  5
1640F
330
747D
100
AcDbEntity
  8
破線
  6
HIDDEN
 48
10.0
100
AcDbLine
 10
4918.904397928905
 20
9946.463433610734
 30
0.0
 11
5710.404397928898
 21
9946.463433610734
 31
0.0
  0
LINE
  5
16410
330
747D
100
AcDbEntity
  8
破線
  6
HIDDEN
 48
10.0
100
AcDbLine
 10
6658.904397928894
 20
9946.463433610722
 30
0.0
 11
5867.404397928895
 21
9946.463433610707
 31
0.0
  0
LINE
  5
16411
330
747D
100
AcDbEntity
  8
破線
  6
HIDDEN
 48
10.0
100
AcDbLine
 10
6708.904397928899
 20
7473.463433610733
 30
0.0
 11
7500.404397928898
 21
7473.463433610726
 31
0.0
  0
LINE
  5
16412
330
747D
100
AcDbEntity
  8
破線
  6
HIDDEN
 48
10.0
100
AcDbLine
 10
4918.904397928887
 20
7473.463433610729
 30
0.0
 11
5710.404397928894
 21
7473.463433610723
 31
0.0
  0
LINE
  5
16429
330
747D
100
AcDbEntity
  8
部品1
100
AcDbLine
 10
4026.9043979289
 20
9549.963433610724
 30
0.0
 11
3998.904397928898
 21
9549.963433610724
 31
0.0
  0
LINE
  5
1642A
330
747D
100
AcDbEntity
  8
部品1
100
AcDbLine
 10
4026.904397928899
 20
9129.963433610722
 30
0.0
 11
3998.904397928898
 21
9129.963433610724
 31
0.0
  0
LINE
  5
1646E
330
747D
100
AcDbEntity
  8
部品1
100
AcDbLine
 10
4053.904397928898
 20
7422.963433610724
 30
0.0
 11
5760.904397928898
 21
7422.963433610728
 31
0.0
  0
LINE
  5
165A0
102
{ACAD_REACTORS
330
16A0F
102
}
330
747D
100
AcDbEntity
  8
部品1
 48
50.0
100
AcDbLine
 10
11362.72067958068
 20
4423.112805903256
 30
0.0
 11
11285.72067958068
 21
4413.112805903256
 31
0.0
  0
LINE
  5
165A1
102
{ACAD_REACTORS
330
16A0F
102
}
330
747D
100
AcDbEntity
  8
部品1
 48
50.0
100
AcDbLine
 10
11285.72067958068
 20
2288.112805903256
 30
0.0
 11
11362.72067958068
 21
2288.112805903256
 31
0.0
  0
LINE
  5
165A2
102
{ACAD_REACTORS
330
16A0F
102
}
330
747D
100
AcDbEntity
  8
部品1
 48
50.0
100
AcDbLine
 10
11362.72067958068
 20
2288.112805903256
 30
0.0
 11
11362.72067958068
 21
4423.112805903256
 31
0.0
  0
LINE
  5
165A3
102
{ACAD_REACTORS
330
16A0F
102
}
330
747D
100
AcDbEntity
  8
部品1
 48
50.0
100
AcDbLine
 10
11285.72067958068
 20
4413.112805903256
 30
0.0
 11
11285.72067958068
 21
2188.112805903257
 31
0.0
  0
LINE
  5
165F0
330
747D
100
AcDbEntity
  8
寸法
 48
50.0
100
AcDbLine
 10
4489.107404210743
 20
7173.000185179588
 30
0.0
 11
4437.701396300639
 21
7173.000185179588
 31
0.0
  0
LINE
  5
165F1
330
747D
100
AcDbEntity
  8
寸法
 48
50.0
100
AcDbLine
 10
4437.701396300639
 20
7173.000185179588
 30
0.0
 11
4437.701396300639
 21
7204.310343831754
 31
0.0
  0
LINE
  5
165F2
330
747D
100
AcDbEntity
  8
寸法
 48
50.0
100
AcDbLine
 10
4437.701396300639
 20
7204.310343831754
 30
0.0
 11
4407.940064309215
 21
7204.310343831754
 31
0.0
  0
LINE
  5
165F3
330
747D
100
AcDbEntity
  8
寸法
 48
50.0
100
AcDbLine
 10
4407.940064309215
 20
7204.310343831754
 30
0.0
 11
4463.404400255691
 21
7241.889794760364
 31
0.0
  0
LINE
  5
165F4
330
747D
100
AcDbEntity
  8
寸法
 48
50.0
100
AcDbLine
 10
4518.868736202167
 20
7204.310343831754
 30
0.0
 11
4463.404400255691
 21
7241.889794760364
 31
0.0
  0
LINE
  5
165F5
330
747D
100
AcDbEntity
  8
寸法
 48
50.0
100
AcDbLine
 10
4489.107404210743
 20
7204.310343831754
 30
0.0
 11
4518.868736202167
 21
7204.310343831754
 31
0.0
  0
LINE
  5
165F6
330
747D
100
AcDbEntity
  8
寸法
 48
50.0
100
AcDbLine
 10
4489.107404210743
 20
7173.000185179588
 30
0.0
 11
4489.107404210743
 21
7204.310343831754
 31
0.0
  0
LINE
  5
165F7
330
747D
100
AcDbEntity
  8
寸法
 48
50.0
100
AcDbLine
 10
4437.701396300639
 20
7173.000185179588
 30
0.0
 11
4489.107404210743
 21
7173.000185179588
 31
0.0
  0
LINE
  5
165F8
330
747D
100
AcDbEntity
  8
寸法
 48
50.0
100
AcDbLine
 10
4768.272938487601
 20
7230.14577593441
 30
0.0
 11
4768.272938487601
 21
7176.482141352621
 31
0.0
  0
LINE
  5
165F9
330
747D
100
AcDbEntity
  8
寸法
 48
50.0
100
AcDbLine
 10
4857.557157083022
 20
7206.222141664925
 30
0.0
 11
4768.272938487601
 21
7230.14577593441
 31
0.0
  0
LINE
  5
165FA
330
747D
100
AcDbEntity
  8
寸法
 48
50.0
100
AcDbLine
 10
4638.405216907297
 20
7206.222141664925
 30
0.0
 11
4857.557157083022
 21
7206.222141664925
 31
0.0
  0
LINE
  5
165FB
330
747D
100
AcDbEntity
  8
細線
 48
50.0
100
AcDbLine
 10
5187.40440307981
 20
7371.46354855945
 30
0.0
 11
5721.904397928899
 21
7371.46354855945
 31
0.0
  0
LINE
  5
165FC
330
747D
100
AcDbEntity
  8
細線
 48
50.0
100
AcDbLine
 10
4695.404397928898
 20
7337.754780005375
 30
0.0
 11
5721.904397928896
 21
7337.754780005375
 31
0.0
  0
LINE
  5
165FD
330
747D
100
AcDbEntity
  8
細線
 48
50.0
100
AcDbLine
 10
4654.404397928902
 20
7367.159688001628
 30
0.0
 11
4065.904397928898
 21
7367.159688001624
 31
0.0
  0
LINE
  5
165FE
330
747D
100
AcDbEntity
  8
細線
100
AcDbLine
 10
5543.904388512441
 20
7390.963448524459
 30
0.0
 11
5546.235928034249
 21
7395.963451164419
 31
0.0
  0
LINE
  5
165FF
330
747D
100
AcDbEntity
  8
細線
100
AcDbLine
 10
5613.904397928898
 20
7390.963433610725
 30
0.0
 11
5611.572851452707
 21
7395.963451164405
 31
0.0
  0
LINE
  5
16600
330
747D
100
AcDbEntity
  8
細線
100
AcDbLine
 10
5611.572851452707
 20
7395.963451164405
 30
0.0
 11
5546.235928034235
 21
7395.963451164391
 31
0.0
  0
LINE
  5
16601
330
747D
100
AcDbEntity
  8
細線
100
AcDbLine
 10
5471.572851452707
 20
7395.963451164405
 30
0.0
 11
5406.235928034235
 21
7395.963451164391
 31
0.0
  0
LINE
  5
16602
330
747D
100
AcDbEntity
  8
細線
100
AcDbLine
 10
5473.904397928897
 20
7390.963433610725
 30
0.0
 11
5471.572851452707
 21
7395.963451164405
 31
0.0
  0
LINE
  5
16603
330
747D
100
AcDbEntity
  8
細線
100
AcDbLine
 10
5403.904388512441
 20
7390.963448524459
 30
0.0
 11
5406.23592803425
 21
7395.963451164419
 31
0.0
  0
LINE
  5
16604
330
747D
100
AcDbEntity
  8
細線
100
AcDbLine
 10
5263.904397928898
 20
7390.963433610725
 30
0.0
 11
5266.235937450707
 21
7395.963436250686
 31
0.0
  0
LINE
  5
16605
330
747D
100
AcDbEntity
  8
細線
100
AcDbLine
 10
5333.904407345355
 20
7390.963418696991
 30
0.0
 11
5331.572860869164
 21
7395.963436250672
 31
0.0
  0
LINE
  5
16606
330
747D
100
AcDbEntity
  8
細線
100
AcDbLine
 10
5331.572860869168
 20
7395.963436250672
 30
0.0
 11
5266.235937450693
 21
7395.963436250656
 31
0.0
  0
LINE
  5
16607
330
747D
100
AcDbEntity
  8
細線
 48
50.0
100
AcDbLine
 10
5007.287746511615
 20
7375.234296763806
 30
0.0
 11
5013.043264094282
 21
7356.963445473319
 31
0.0
  0
LINE
  5
16608
330
747D
100
AcDbEntity
  8
細線
 48
50.0
100
AcDbLine
 10
4996.359298031184
 20
7375.234296763806
 30
0.0
 11
5007.287746511615
 21
7375.234296763806
 31
0.0
  0
ARC
  5
16609
330
747D
100
AcDbEntity
  8
細線
 48
50.0
100
AcDbCircle
 10
4990.904941973866
 20
7376.734296763806
 30
0.0
 40
5.0
100
AcDbArc
 50
204.6243183520959
 51
335.3756816479041
  0
ARC
  5
1660A
330
747D
100
AcDbEntity
  8
細線
 48
50.0
100
AcDbCircle
 10
4996.359298031184
 20
7374.234296763805
 30
0.0
 40
1.0
100
AcDbArc
 50
90.0
 51
155.375681647904
  0
ARC
  5
1660B
330
747D
100
AcDbEntity
  8
細線
 48
50.0
100
AcDbCircle
 10
4985.450585916548
 20
7374.234296763805
 30
0.0
 40
1.0
100
AcDbArc
 50
24.62431835209594
 51
90.0
  0
LINE
  5
1660C
330
747D
100
AcDbEntity
  8
細線
 48
50.0
100
AcDbLine
 10
4974.522137436114
 20
7375.234296763806
 30
0.0
 11
4985.450585916548
 21
7375.234296763806
 31
0.0
  0
LINE
  5
1660D
330
747D
100
AcDbEntity
  8
細線
 48
50.0
100
AcDbLine
 10
4968.76661985345
 20
7356.963445473311
 30
0.0
 11
4974.522137436114
 21
7375.234296763806
 31
0.0
  0
LINE
  5
1660E
330
747D
100
AcDbEntity
  8
細線
100
AcDbLine
 10
5025.904397928898
 20
7356.963422529594
 30
0.0
 11
5028.235937450706
 21
7361.963425169555
 31
0.0
  0
LINE
  5
1660F
330
747D
100
AcDbEntity
  8
細線
100
AcDbLine
 10
5095.904407345355
 20
7356.963407615861
 30
0.0
 11
5093.572860869168
 21
7361.96342516954
 31
0.0
  0
LINE
  5
16610
330
747D
100
AcDbEntity
  8
細線
100
AcDbLine
 10
5093.572860869168
 20
7361.96342516954
 30
0.0
 11
5028.235937450696
 21
7361.963425169526
 31
0.0
  0
LINE
  5
16611
330
747D
100
AcDbEntity
  8
細線
100
AcDbLine
 10
4953.572824319235
 20
7361.963445473282
 30
0.0
 11
4888.235900900756
 21
7361.963445473268
 31
0.0
  0
LINE
  5
16612
330
747D
100
AcDbEntity
  8
細線
100
AcDbLine
 10
4955.904370795419
 20
7356.963427919602
 30
0.0
 11
4953.572824319231
 21
7361.963445473282
 31
0.0
  0
LINE
  5
16613
330
747D
100
AcDbEntity
  8
細線
100
AcDbLine
 10
4885.904362610003
 20
7356.963445473311
 30
0.0
 11
4888.23590090077
 21
7361.963445473297
 31
0.0
  0
LINE
  5
16614
330
747D
100
AcDbEntity
  8
細線
100
AcDbLine
 10
4745.904397928899
 20
7356.963453660681
 30
0.0
 11
4748.235936219666
 21
7361.963453660667
 31
0.0
  0
LINE
  5
16615
330
747D
100
AcDbEntity
  8
細線
100
AcDbLine
 10
4815.904406114314
 20
7356.963436106972
 30
0.0
 11
4813.572859638123
 21
7361.963453660648
 31
0.0
  0
LINE
  5
16616
330
747D
100
AcDbEntity
  8
細線
100
AcDbLine
 10
4813.572859638123
 20
7361.963453660648
 30
0.0
 11
4748.235936219651
 21
7361.963453660637
 31
0.0
  0
LINE
  5
16617
330
747D
100
AcDbEntity
  8
細線
100
AcDbLine
 10
4506.904389743482
 20
7322.963625341394
 30
0.0
 11
4509.235928034249
 21
7327.96362534138
 31
0.0
  0
LINE
  5
16618
330
747D
100
AcDbEntity
  8
細線
100
AcDbLine
 10
4576.904397928898
 20
7322.963607787681
 30
0.0
 11
4574.572851452707
 21
7327.963625341357
 31
0.0
  0
LINE
  5
16619
330
747D
100
AcDbEntity
  8
細線
100
AcDbLine
 10
4574.572851452707
 20
7327.963625341357
 30
0.0
 11
4509.235928034235
 21
7327.96362534135
 31
0.0
  0
LINE
  5
1661A
330
747D
100
AcDbEntity
  8
細線
100
AcDbLine
 10
4434.572851452707
 20
7327.963625341357
 30
0.0
 11
4369.235928034234
 21
7327.963625341347
 31
0.0
  0
LINE
  5
1661B
330
747D
100
AcDbEntity
  8
細線
100
AcDbLine
 10
4436.904397928898
 20
7322.963607787681
 30
0.0
 11
4434.572851452707
 21
7327.963625341357
 31
0.0
  0
LINE
  5
1661C
330
747D
100
AcDbEntity
  8
細線
100
AcDbLine
 10
4366.904389743482
 20
7322.96362534139
 30
0.0
 11
4369.23592803425
 21
7327.963625341375
 31
0.0
  0
ARC
  5
1661D
330
747D
100
AcDbEntity
  8
部品1
 48
0.01
100
AcDbCircle
 10
4226.404291330153
 20
7321.962503156321
 30
0.0
 40
0.5
100
AcDbArc
 50
270.0
 51
0.0
  0
LINE
  5
1661E
330
747D
100
AcDbEntity
  8
部品1
 48
0.01
100
AcDbLine
 10
4226.904291330153
 20
7322.962503156322
 30
0.0
 11
4226.904291330153
 21
7321.962503156321
 31
0.0
  0
LINE
  5
1661F
330
747D
100
AcDbEntity
  8
部品1
 48
0.01
100
AcDbLine
 10
4226.904291330153
 20
7322.962503156322
 30
0.0
 11
4226.904291330153
 21
7321.962503156321
 31
0.0
  0
LINE
  5
16620
330
747D
100
AcDbEntity
  8
部品1
 48
0.01
100
AcDbLine
 10
4226.404291330153
 20
7321.462503156322
 30
0.0
 11
4219.791785900087
 21
7321.462503156322
 31
0.0
  0
ARC
  5
16621
330
747D
100
AcDbEntity
  8
部品1
100
AcDbCircle
 10
4219.860135452869
 20
7322.46250315632
 30
0.0
 40
1.0
100
AcDbArc
 50
160.5287793655822
 51
270.0
  0
ARC
  5
16622
330
747D
100
AcDbEntity
  8
部品1
100
AcDbCircle
 10
4194.404291330153
 20
7331.462503156321
 30
0.0
 40
26.0
100
AcDbArc
 50
340.5287793655822
 51
0.0
  0
LINE
  5
16623
330
747D
100
AcDbEntity
  8
部品1
100
AcDbLine
 10
4220.404291330153
 20
7331.462503156321
 30
0.0
 11
4220.404291330153
 21
7336.462503156321
 31
0.0
  0
ARC
  5
16624
330
747D
100
AcDbEntity
  8
部品1
 48
0.01
100
AcDbCircle
 10
4218.404291330153
 20
7336.462503156321
 30
0.0
 40
2.0
100
AcDbArc
 50
0.0
 51
90.0
  0
ARC
  5
16625
330
747D
100
AcDbEntity
  8
部品1
100
AcDbCircle
 10
4216.795899705343
 20
7335.462503156321
 30
0.0
 40
3.0
100
AcDbArc
 50
90.0
 51
141.6069559808158
  0
LINE
  5
16626
330
747D
100
AcDbEntity
  8
部品1
 48
0.01
100
AcDbLine
 10
4218.404291330153
 20
7338.462503156321
 30
0.0
 11
4216.795899705343
 21
7338.462503156321
 31
0.0
  0
ARC
  5
16627
330
747D
100
AcDbEntity
  8
部品1
100
AcDbCircle
 10
4198.333577115882
 20
7334.762503156324
 30
0.0
 40
3.0
100
AcDbArc
 50
254.0576313943215
 51
270.0
  0
ARC
  5
16628
330
747D
100
AcDbEntity
  8
部品1
100
AcDbCircle
 10
4205.475005544424
 20
7334.762503156324
 30
0.0
 40
3.0
100
AcDbArc
 50
270.0
 51
285.9423686056786
  0
LINE
  5
16629
330
747D
100
AcDbEntity
  8
部品1
100
AcDbLine
 10
4205.475005544424
 20
7331.762503156324
 30
0.0
 11
4198.333577115882
 21
7331.762503156324
 31
0.0
  0
ARC
  5
1662A
330
747D
100
AcDbEntity
  8
部品1
100
AcDbCircle
 10
4201.904291330152
 20
7347.262503156324
 30
0.0
 40
16.0
100
AcDbArc
 50
285.9423686056786
 51
321.6069559808158
  0
LINE
  5
1662B
330
747D
100
AcDbEntity
  8
部品1
 48
0.01
100
AcDbLine
 10
4185.404291330153
 20
7338.462503156321
 30
0.0
 11
4187.012682954962
 21
7338.462503156321
 31
0.0
  0
ARC
  5
1662C
330
747D
100
AcDbEntity
  8
部品1
100
AcDbCircle
 10
4187.012682954962
 20
7335.462503156321
 30
0.0
 40
3.0
100
AcDbArc
 50
38.39304401918416
 51
90.0
  0
ARC
  5
1662D
330
747D
100
AcDbEntity
  8
部品1
100
AcDbCircle
 10
4201.904291330152
 20
7347.262503156324
 30
0.0
 40
16.0
100
AcDbArc
 50
218.3930440191842
 51
254.0576313943215
  0
LINE
  5
1662E
330
747D
100
AcDbEntity
  8
部品1
100
AcDbLine
 10
4183.404291330153
 20
7331.462503156321
 30
0.0
 11
4183.404291330153
 21
7336.462503156321
 31
0.0
  0
ARC
  5
1662F
330
747D
100
AcDbEntity
  8
部品1
 48
0.01
100
AcDbCircle
 10
4185.404291330153
 20
7336.462503156321
 30
0.0
 40
2.0
100
AcDbArc
 50
90.0
 51
180.0
  0
ARC
  5
16630
330
747D
100
AcDbEntity
  8
部品1
100
AcDbCircle
 10
4209.404291330153
 20
7331.462503156321
 30
0.0
 40
26.0
100
AcDbArc
 50
180.0
 51
199.4712206344178
  0
ARC
  5
16631
330
747D
100
AcDbEntity
  8
部品1
 48
0.01
100
AcDbCircle
 10
4177.404291330153
 20
7321.962503156321
 30
0.0
 40
0.5
100
AcDbArc
 50
180.0
 51
270.0
  0
LINE
  5
16632
330
747D
100
AcDbEntity
  8
部品1
 48
0.01
100
AcDbLine
 10
4177.404291330153
 20
7321.462503156322
 30
0.0
 11
4183.948447207437
 21
7321.462503156322
 31
0.0
  0
LINE
  5
16633
330
747D
100
AcDbEntity
  8
部品1
 48
0.01
100
AcDbLine
 10
4176.904291330152
 20
7322.962503156322
 30
0.0
 11
4176.904291330152
 21
7321.962503156321
 31
0.0
  0
ARC
  5
16634
330
747D
100
AcDbEntity
  8
部品1
100
AcDbCircle
 10
4183.948447207437
 20
7322.46250315632
 30
0.0
 40
1.0
100
AcDbArc
 50
270.0
 51
19.4712206344178
  0
LINE
  5
16635
330
747D
100
AcDbEntity
  8
細線
100
AcDbLine
 10
4222.40429133016
 20
7340.962503156325
 30
0.0
 11
4181.404291330159
 21
7340.962503156318
 31
0.0
  0
LINE
  5
16636
330
747D
100
AcDbEntity
  8
細線
100
AcDbLine
 10
4181.404291330159
 20
7340.962503156318
 30
0.0
 11
4181.404291330159
 21
7322.962503156299
 31
0.0
  0
LINE
  5
16637
330
747D
100
AcDbEntity
  8
細線
100
AcDbLine
 10
4222.40429133016
 20
7340.962503156325
 30
0.0
 11
4222.40429133016
 21
7322.962503156299
 31
0.0
  0
LINE
  5
16638
330
747D
100
AcDbEntity
  8
細線
100
AcDbLine
 10
4065.904397928898
 20
7326.963433610725
 30
0.0
 11
4065.904397928898
 21
7322.963433610772
 31
0.0
  0
DIMENSION
  5
16639
330
747D
100
AcDbEntity
  8
寸法
 48
50.0
100
AcDbDimension
  2
*D41
 10
5015.904397928898
 20
6753.329147394317
 30
0.0
 11
4540.904397928898
 21
6753.329147394317
 31
0.0
 70
   160
  1
有効開口部間口\P<>
 71
     5
 42
950.0
  3
INABA_S40
100
AcDbAlignedDimension
 13
4065.904397928898
 23
7317.963433610724
 33
0.0
 14
5015.904397928898
 24
7317.963433610724
 34
0.0
100
AcDbRotatedDimension
1001
ACAD
1000
DSTYLE
1002
{
1070
    41
1040
0.5
1070
    44
1040
1.0
1070
   147
1040
0.8
1070
   271
1070
     2
1070
   272
1070
     2
1070
   289
1070
     3
1070
   340
1005
F706
1070
   343
1005
F744
1070
   344
1005
F744
1002
}
  0
LINE
  5
1663A
330
747D
100
AcDbEntity
  8
部品1
100
AcDbLine
 10
5733.904397928896
 20
7394.963433610725
 30
0.0
 11
5760.904397928896
 21
7394.963433610725
 31
0.0
  0
LINE
  5
1663C
330
747D
100
AcDbEntity
  8
部品1
100
AcDbLine
 10
5760.904397928896
 20
7317.963433610724
 30
0.0
 11
5760.904397928896
 21
7394.963433610725
 31
0.0
  0
LINE
  5
1663D
330
747D
100
AcDbEntity
  8
部品1
100
AcDbLine
 10
5721.904397928896
 20
7390.963433610725
 30
0.0
 11
5733.904397928896
 21
7390.963433610725
 31
0.0
  0
LINE
  5
1663E
330
747D
100
AcDbEntity
  8
部品1
100
AcDbLine
 10
5730.904397928896
 20
7326.963433610725
 30
0.0
 11
5730.904397928896
 21
7317.963433610724
 31
0.0
  0
LINE
  5
1663F
330
747D
100
AcDbEntity
  8
部品1
100
AcDbLine
 10
5721.904397928896
 20
7326.963433610725
 30
0.0
 11
5730.904397928896
 21
7326.963433610725
 31
0.0
  0
LINE
  5
16640
330
747D
100
AcDbEntity
  8
部品1
100
AcDbLine
 10
5721.904397928896
 20
7390.963433610725
 30
0.0
 11
5721.904397928896
 21
7326.963433610725
 31
0.0
  0
LINE
  5
16641
330
747D
100
AcDbEntity
  8
部品1
100
AcDbLine
 10
5733.904397928896
 20
7421.963433610724
 30
0.0
 11
5733.904397928896
 21
7390.963433610725
 31
0.0
  0
LINE
  5
16642
330
747D
100
AcDbEntity
  8
部品1
100
AcDbLine
 10
4065.904397928898
 20
7390.963433610725
 30
0.0
 11
4053.904397928898
 21
7390.963433610725
 31
0.0
  0
LINE
  5
16643
330
747D
100
AcDbEntity
  8
部品1
100
AcDbLine
 10
4026.904397928897
 20
7394.963433610725
 30
0.0
 11
4053.904397928898
 21
7394.963433610725
 31
0.0
  0
LINE
  5
16644
330
747D
100
AcDbEntity
  8
部品1
100
AcDbLine
 10
4056.904397928899
 20
7326.963433610725
 30
0.0
 11
4056.904397928899
 21
7317.963433610724
 31
0.0
  0
LINE
  5
16645
330
747D
100
AcDbEntity
  8
部品1
100
AcDbLine
 10
4065.904397928898
 20
7326.963433610725
 30
0.0
 11
4056.904397928899
 21
7326.963433610725
 31
0.0
  0
LINE
  5
16646
330
747D
100
AcDbEntity
  8
部品1
100
AcDbLine
 10
4056.904397928899
 20
7317.963433610724
 30
0.0
 11
4026.904397928897
 21
7317.963433610724
 31
0.0
  0
LINE
  5
16647
330
747D
100
AcDbEntity
  8
部品1
100
AcDbLine
 10
4026.904397928897
 20
7317.963433610724
 30
0.0
 11
4026.904397928897
 21
7394.963433610725
 31
0.0
  0
LINE
  5
16648
330
747D
100
AcDbEntity
  8
部品1
100
AcDbLine
 10
4065.904397928898
 20
7390.963433610725
 30
0.0
 11
4065.904397928898
 21
7326.963433610725
 31
0.0
  0
LINE
  5
16649
330
747D
100
AcDbEntity
  8
部品1
100
AcDbLine
 10
4053.904397928898
 20
7421.96343361072
 30
0.0
 11
4053.904397928898
 21
7390.963433610725
 31
0.0
  0
LINE
  5
1664A
330
747D
100
AcDbEntity
  8
部品1
100
AcDbLine
 10
4053.904397928898
 20
7421.96343361072
 30
0.0
 11
5733.904397928896
 21
7421.963433610724
 31
0.0
  0
LINE
  5
1664B
330
747D
100
AcDbEntity
  8
部品1
100
AcDbLine
 10
5730.904397928896
 20
7317.963433610724
 30
0.0
 11
5760.904397928896
 21
7317.963433610724
 31
0.0
  0
LINE
  5
1664C
330
747D
100
AcDbEntity
  8
部品1
100
AcDbLine
 10
4056.904397928899
 20
7317.963433610724
 30
0.0
 11
5760.904397928898
 21
7317.963433610723
 31
0.0
  0
LINE
  5
1664D
330
747D
100
AcDbEntity
  8
細線
  6
Continuous
 62
     5
100
AcDbLine
 10
5159.40440307981
 20
7375.963433610721
 30
0.0
 11
5159.40440307981
 21
7375.963433610721
 31
0.0
  0
LINE
  5
1664E
330
747D
100
AcDbEntity
  8
細線
 48
50.0
100
AcDbLine
 10
4079.904402582491
 20
7343.563607787679
 30
0.0
 11
4079.904402582491
 21
7351.959758195319
 31
0.0
  0
LINE
  5
1664F
330
747D
100
AcDbEntity
  8
細線
 48
50.0
100
AcDbLine
 10
4079.904402582491
 20
7351.959758195319
 30
0.0
 11
4065.904397928898
 21
7351.959758195315
 31
0.0
  0
LINE
  5
16650
330
747D
100
AcDbEntity
  8
細線
 48
50.0
100
AcDbLine
 10
4056.904397928899
 20
7322.96094213115
 30
0.0
 11
4366.904951033328
 21
7322.964829031345
 31
0.0
  0
LINE
  5
16651
330
747D
100
AcDbEntity
  8
細線
 48
50.0
100
AcDbLine
 10
4436.904397928898
 20
7322.963607787681
 30
0.0
 11
4506.904397928898
 21
7322.963607787681
 31
0.0
  0
LINE
  5
16652
330
747D
100
AcDbEntity
  8
細線
 48
50.0
100
AcDbLine
 10
4449.766362941423
 20
7322.963607787681
 30
0.0
 11
4455.521880524094
 21
7341.234459078174
 31
0.0
  0
LINE
  5
16653
330
747D
100
AcDbEntity
  8
細線
 48
50.0
100
AcDbLine
 10
4455.521880524094
 20
7341.234459078174
 30
0.0
 11
4466.450329004525
 21
7341.23445907817
 31
0.0
  0
ARC
  5
16654
330
747D
100
AcDbEntity
  8
細線
 48
50.0
100
AcDbCircle
 10
4466.450329004525
 20
7340.234459078171
 30
0.0
 40
1.0
100
AcDbArc
 50
24.62431835209594
 51
90.0
  0
ARC
  5
16655
330
747D
100
AcDbEntity
  8
細線
 48
50.0
100
AcDbCircle
 10
4477.359041119162
 20
7340.234459078171
 30
0.0
 40
1.0
100
AcDbArc
 50
90.0
 51
155.375681647904
  0
ARC
  5
16656
330
747D
100
AcDbEntity
  8
細線
 48
50.0
100
AcDbCircle
 10
4471.904685061839
 20
7342.73445907817
 30
0.0
 40
5.0
100
AcDbArc
 50
204.6243183520959
 51
335.3756816479041
  0
LINE
  5
16657
330
747D
100
AcDbEntity
  8
細線
 48
50.0
100
AcDbLine
 10
4477.359041119162
 20
7341.23445907817
 30
0.0
 11
4488.287489599591
 21
7341.234459078174
 31
0.0
  0
LINE
  5
16658
330
747D
100
AcDbEntity
  8
細線
 48
50.0
100
AcDbLine
 10
4488.287489599591
 20
7341.234459078174
 30
0.0
 11
4494.043007182263
 21
7322.963607787681
 31
0.0
  0
LINE
  5
16659
330
747D
100
AcDbEntity
  8
細線
 48
50.0
100
AcDbLine
 10
4665.404397928898
 20
7343.563607787679
 30
0.0
 11
4079.904402582491
 21
7343.563607787679
 31
0.0
  0
LINE
  5
1665A
330
747D
100
AcDbEntity
  8
細線
 48
50.0
100
AcDbLine
 10
5157.404398426217
 20
7377.563651645548
 30
0.0
 11
4684.404397928898
 21
7377.563651645544
 31
0.0
  0
LINE
  5
1665B
330
747D
100
AcDbEntity
  8
細線
 48
50.0
100
AcDbLine
 10
5157.404398426217
 20
7374.113651645547
 30
0.0
 11
5157.404398426217
 21
7378.963651645545
 31
0.0
  0
LINE
  5
1665C
330
747D
100
AcDbEntity
  8
細線
 48
50.0
100
AcDbLine
 10
5157.404398426217
 20
7378.963651645545
 30
0.0
 11
5172.404398426217
 21
7378.963651645545
 31
0.0
  0
LINE
  5
1665D
330
747D
100
AcDbEntity
  8
細線
 48
50.0
100
AcDbLine
 10
5172.404398426217
 20
7378.963651645545
 30
0.0
 11
5172.404410060189
 21
7385.963651645589
 31
0.0
  0
LINE
  5
1665E
330
747D
100
AcDbEntity
  8
細線
 48
50.0
100
AcDbLine
 10
5172.404410060189
 20
7385.963651645589
 30
0.0
 11
5187.404408230722
 21
7385.963651645589
 31
0.0
  0
LINE
  5
1665F
330
747D
100
AcDbEntity
  8
細線
 48
50.0
100
AcDbLine
 10
5187.404408230722
 20
7385.963651645589
 30
0.0
 11
5187.404397928898
 21
7356.963445473315
 31
0.0
  0
LINE
  5
16660
330
747D
100
AcDbEntity
  8
細線
 48
50.0
100
AcDbLine
 10
5025.904397928898
 20
7356.963442723309
 30
0.0
 11
4955.904641825895
 21
7356.963448223344
 31
0.0
  0
LINE
  5
16661
330
747D
100
AcDbEntity
  8
細線
 48
50.0
100
AcDbLine
 10
5095.904389692136
 20
7356.963445473315
 30
0.0
 11
5187.404397928898
 21
7356.963445473315
 31
0.0
  0
LINE
  5
16662
330
747D
100
AcDbEntity
  8
細線
 48
50.0
100
AcDbLine
 10
4745.904397928899
 20
7356.963453660681
 30
0.0
 11
4696.113456975268
 21
7356.963461352823
 31
0.0
  0
LINE
  5
16663
330
747D
100
AcDbEntity
  8
細線
 48
50.0
100
AcDbLine
 10
4885.904362610003
 20
7356.963445473311
 30
0.0
 11
4815.904345322131
 21
7356.963445473319
 31
0.0
  0
ARC
  5
16664
330
747D
100
AcDbEntity
  8
細線
 48
50.0
100
AcDbCircle
 10
5171.604403079815
 20
7390.163433610725
 30
0.0
 40
0.8
100
AcDbArc
 50
359.9997333689499
 51
89.99986668437072
  0
ARC
  5
16665
330
747D
100
AcDbEntity
  8
細線
 48
50.0
100
AcDbCircle
 10
5179.204409904913
 20
7390.163444779343
 30
0.0
 40
0.8
100
AcDbArc
 50
90.00014387753465
 51
179.9997333689498
  0
LINE
  5
16666
330
747D
100
AcDbEntity
  8
細線
 48
50.0
100
AcDbLine
 10
5171.604404941252
 20
7390.963433610725
 30
0.0
 11
5166.404403079806
 21
7390.963433610725
 31
0.0
  0
ARC
  5
16667
330
747D
100
AcDbEntity
  8
細線
 48
50.0
100
AcDbCircle
 10
5173.104403079808
 20
7388.663433610725
 30
0.0
 40
0.7
100
AcDbArc
 50
180.0
 51
270.0
  0
ARC
  5
16668
330
747D
100
AcDbEntity
  8
細線
 48
50.0
100
AcDbCircle
 10
5177.704403079806
 20
7388.663433610725
 30
0.0
 40
0.7
100
AcDbArc
 50
270.0
 51
0.0
  0
LINE
  5
16669
330
747D
100
AcDbEntity
  8
細線
 48
50.0
100
AcDbLine
 10
5178.404403079807
 20
7388.663433610725
 30
0.0
 11
5178.404409904921
 21
7390.163448502213
 31
0.0
  0
LINE
  5
1666A
330
747D
100
AcDbEntity
  8
細線
 48
50.0
100
AcDbLine
 10
5173.104403079808
 20
7387.963433610725
 30
0.0
 11
5177.704403079806
 21
7387.963433610725
 31
0.0
  0
LINE
  5
1666B
330
747D
100
AcDbEntity
  8
細線
 48
50.0
100
AcDbLine
 10
5172.404403079807
 20
7390.163433610725
 30
0.0
 11
5172.404403079807
 21
7388.663433610725
 31
0.0
  0
LINE
  5
1666C
330
747D
100
AcDbEntity
  8
細線
 48
50.0
100
AcDbLine
 10
5705.504397928904
 20
7420.963433610722
 30
0.0
 11
5161.404403079806
 21
7420.963433610721
 31
0.0
  0
LINE
  5
1666D
330
747D
100
AcDbEntity
  8
細線
 48
50.0
100
AcDbLine
 10
5731.404397928898
 20
7415.963433610729
 30
0.0
 11
5715.5043979289
 21
7415.963433610724
 31
0.0
  0
LINE
  5
1666E
330
747D
100
AcDbEntity
  8
細線
 48
50.0
100
AcDbLine
 10
5715.504397928898
 20
7415.963433610724
 30
0.0
 11
5705.5043979289
 21
7420.963433610724
 31
0.0
  0
LINE
  5
1666F
330
747D
100
AcDbEntity
  8
細線
100
AcDbLine
 10
5351.904397928898
 20
7390.963433610725
 30
0.0
 11
5351.904397928898
 21
7420.263433610724
 31
0.0
  0
LINE
  5
16670
330
747D
100
AcDbEntity
  8
細線
100
AcDbLine
 10
5351.904397928898
 20
7420.263433610724
 30
0.0
 11
5371.904397928898
 21
7420.263433610724
 31
0.0
  0
LINE
  5
16671
330
747D
100
AcDbEntity
  8
細線
100
AcDbLine
 10
5371.904397928898
 20
7390.963433610725
 30
0.0
 11
5371.904397928898
 21
7420.263433610724
 31
0.0
  0
LINE
  5
16672
330
747D
100
AcDbEntity
  8
細線
100
AcDbLine
 10
5543.904397928898
 20
7390.963433610725
 30
0.0
 11
5473.904397928897
 21
7390.963433610725
 31
0.0
  0
LINE
  5
16673
330
747D
100
AcDbEntity
  8
細線
 48
50.0
100
AcDbLine
 10
5263.904397928898
 20
7390.963433610725
 30
0.0
 11
5179.200182652646
 21
7390.963433610725
 31
0.0
  0
LINE
  5
16674
330
747D
100
AcDbEntity
  8
細線
100
AcDbLine
 10
5403.904397928898
 20
7390.963433610725
 30
0.0
 11
5333.904397928898
 21
7390.963433610725
 31
0.0
  0
LINE
  5
16675
330
747D
100
AcDbEntity
  8
細線
 48
50.0
100
AcDbLine
 10
5166.404403079806
 20
7382.963433610725
 30
0.0
 11
5166.404403079806
 21
7390.963433610725
 31
0.0
  0
LINE
  5
16676
330
747D
100
AcDbEntity
  8
細線
 48
50.0
100
AcDbLine
 10
5146.404403079803
 20
7382.963433610729
 30
0.0
 11
5166.404403079806
 21
7382.963433610725
 31
0.0
  0
LINE
  5
16677
330
747D
100
AcDbEntity
  8
細線
 48
50.0
100
AcDbLine
 10
5161.404403079806
 20
7420.963433610724
 30
0.0
 11
5161.404403079806
 21
7415.963433610724
 31
0.0
  0
LINE
  5
16678
330
747D
100
AcDbEntity
  8
細線
 48
50.0
100
AcDbLine
 10
5146.404403079807
 20
7420.963433610721
 30
0.0
 11
5161.404403079806
 21
7420.963433610724
 31
0.0
  0
LINE
  5
16679
330
747D
100
AcDbEntity
  8
細線
 48
50.0
100
AcDbLine
 10
5146.404403079803
 20
7382.963433610729
 30
0.0
 11
5146.404403079807
 21
7420.963433610721
 31
0.0
  0
LINE
  5
1667A
330
747D
100
AcDbEntity
  8
細線
100
AcDbLine
 10
5721.904397928896
 20
7390.963433610725
 30
0.0
 11
5613.904397928898
 21
7390.963433610725
 31
0.0
  0
LINE
  5
1667B
330
747D
100
AcDbEntity
  8
細線
 48
50.0
100
AcDbLine
 10
5731.404397928898
 20
7415.963433610729
 30
0.0
 11
5731.404397928896
 21
7390.963433610725
 31
0.0
  0
ARC
  5
1667C
330
747D
100
AcDbEntity
  8
細線
 48
50.0
100
AcDbCircle
 10
4695.171703804749
 20
7355.963454779
 30
0.0
 40
1.0
100
AcDbArc
 50
90.0003999466794
 51
165.0005554812987
  0
LINE
  5
1667D
330
747D
100
AcDbEntity
  8
細線
 48
50.0
100
AcDbLine
 10
4695.171696824363
 20
7356.963454778973
 30
0.0
 11
4696.113456975268
 21
7356.963461352823
 31
0.0
  0
ARC
  5
1667E
330
747D
100
AcDbEntity
  8
細線
 48
50.0
100
AcDbCircle
 10
4685.637066003407
 20
7355.963260088704
 30
0.0
 40
1.0
100
AcDbArc
 50
15.00104430491763
 51
90.00093320877969
  0
LINE
  5
1667F
330
747D
100
AcDbEntity
  8
細線
 48
50.0
100
AcDbLine
 10
4686.602987112157
 20
7356.222096739266
 30
0.0
 11
4686.850756608669
 21
7355.297475800684
 31
0.0
  0
ARC
  5
16680
330
747D
100
AcDbEntity
  8
細線
 48
50.0
100
AcDbCircle
 10
4688.589414604416
 20
7355.763381771701
 30
0.0
 40
1.8
100
AcDbArc
 50
195.0010443049176
 51
270.0006665777295
  0
LINE
  5
16681
330
747D
100
AcDbEntity
  8
細線
 48
50.0
100
AcDbLine
 10
4692.219362964337
 20
7353.963424002301
 30
0.0
 11
4688.589435545567
 21
7353.963381771823
 31
0.0
  0
LINE
  5
16682
330
747D
100
AcDbEntity
  8
細線
 48
50.0
100
AcDbLine
 10
4694.205775469257
 20
7356.22226445946
 30
0.0
 11
4693.958013027063
 21
7355.297566577355
 31
0.0
  0
ARC
  5
16683
330
747D
100
AcDbEntity
  8
細線
 48
50.0
100
AcDbCircle
 10
4692.219342023178
 20
7355.763424002181
 30
0.0
 40
1.8
100
AcDbArc
 50
270.0006665777295
 51
345.0005554812987
  0
LINE
  5
16684
330
747D
100
AcDbEntity
  8
細線
 48
50.0
100
AcDbLine
 10
4674.404360361135
 20
7356.963077135422
 30
0.0
 11
4685.637049715842
 21
7356.963260088569
 31
0.0
  0
LINE
  5
16685
330
747D
100
AcDbEntity
  8
細線
 48
50.0
100
AcDbLine
 10
4674.404360361135
 20
7356.963077135422
 30
0.0
 11
4674.404405230074
 21
7348.359615499614
 31
0.0
  0
LINE
  5
16686
330
747D
100
AcDbEntity
  8
細線
 48
50.0
100
AcDbLine
 10
4654.404397928902
 20
7348.359573950073
 30
0.0
 11
4674.404405230074
 21
7348.359615499614
 31
0.0
  0
LINE
  5
16687
330
747D
100
AcDbEntity
  8
細線
 48
50.0
100
AcDbLine
 10
4654.404397928902
 20
7385.959802053183
 30
0.0
 11
4654.404397928902
 21
7348.359573950073
 31
0.0
  0
LINE
  5
16688
330
747D
100
AcDbEntity
  8
細線
 48
50.0
100
AcDbLine
 10
4669.404397928898
 20
7385.959802053186
 30
0.0
 11
4654.404397928902
 21
7385.959802053183
 31
0.0
  0
LINE
  5
16689
330
747D
100
AcDbEntity
  8
細線
 48
50.0
100
AcDbLine
 10
4669.404397928898
 20
7378.959802053187
 30
0.0
 11
4669.404397928898
 21
7385.959802053186
 31
0.0
  0
LINE
  5
1668A
330
747D
100
AcDbEntity
  8
細線
 48
50.0
100
AcDbLine
 10
4684.404397928898
 20
7378.959802053187
 30
0.0
 11
4669.404397928898
 21
7378.959802053187
 31
0.0
  0
LINE
  5
1668B
330
747D
100
AcDbEntity
  8
細線
 48
50.0
100
AcDbLine
 10
4684.404397928898
 20
7374.459802053187
 30
0.0
 11
4684.404397928898
 21
7378.959802053187
 31
0.0
  0
LINE
  5
1668C
330
747D
100
AcDbEntity
  8
細線
 48
50.0
100
AcDbLine
 10
4695.404397928898
 20
7351.963607787681
 30
0.0
 11
4695.404397928898
 21
7322.963607787681
 31
0.0
  0
LINE
  5
1668D
330
747D
100
AcDbEntity
  8
細線
 48
50.0
100
AcDbLine
 10
4680.404397928902
 20
7351.963607787681
 30
0.0
 11
4695.404397928898
 21
7351.963607787681
 31
0.0
  0
LINE
  5
1668E
330
747D
100
AcDbEntity
  8
細線
 48
50.0
100
AcDbLine
 10
4680.404397928898
 20
7344.96360778768
 30
0.0
 11
4680.404397928902
 21
7351.963607787681
 31
0.0
  0
LINE
  5
1668F
330
747D
100
AcDbEntity
  8
細線
 48
50.0
100
AcDbLine
 10
4665.404397928898
 20
7344.96360778768
 30
0.0
 11
4680.404397928898
 21
7344.96360778768
 31
0.0
  0
LINE
  5
16690
330
747D
100
AcDbEntity
  8
細線
 48
50.0
100
AcDbLine
 10
4665.404397928898
 20
7340.113607787678
 30
0.0
 11
4665.404397928898
 21
7344.96360778768
 31
0.0
  0
LINE
  5
16691
330
747D
100
AcDbEntity
  8
細線
 48
50.0
100
AcDbLine
 10
4576.904397928898
 20
7322.963607787681
 30
0.0
 11
4695.404397928898
 21
7322.963607787681
 31
0.0
  0
DIMENSION
  5
16692
330
747D
100
AcDbEntity
  8
寸法
 48
50.0
100
AcDbDimension
  2
*D42
 10
5760.904397928896
 20
6493.893417045576
 30
0.0
 11
4884.875841228513
 21
6493.893417045576
 31
0.0
 70
   160
 71
     5
 42
1733.999999999998
  3
INABA_S40
100
AcDbAlignedDimension
 13
4026.904397928897
 23
7317.963433610724
 33
0.0
 14
5760.904397928896
 24
7317.963433610723
 34
0.0
100
AcDbRotatedDimension
1001
ACAD
1000
DSTYLE
1002
{
1070
    41
1040
0.5
1070
    44
1040
1.0
1070
   147
1040
0.8
1070
   271
1070
     2
1070
   272
1070
     2
1070
   289
1070
     3
1070
   340
1005
F706
1070
   343
1005
F744
1070
   344
1005
F744
1002
}
  0
LINE
  5
1687D
330
747D
100
AcDbEntity
  8
部品1
 48
50.0
100
AcDbLine
 10
4026.904397928898
 20
2338.112805903255
 30
0.0
 11
3998.904397928896
 21
2338.112805903256
 31
0.0
  0
LINE
  5
1687E
330
747D
100
AcDbEntity
  8
細線
100
AcDbLine
 10
5333.904433247798
 20
4371.112805903238
 30
0.0
 11
5333.904433247798
 21
2345.612805903256
 31
0.0
  0
LINE
  5
1687F
330
747D
100
AcDbEntity
  8
細線
100
AcDbLine
 10
5263.904433247798
 20
4371.112805903238
 30
0.0
 11
5263.904433247798
 21
2345.612805903256
 31
0.0
  0
LINE
  5
16880
330
747D
100
AcDbEntity
  8
細線
100
AcDbLine
 10
5403.904397928902
 20
4371.112805903238
 30
0.0
 11
5403.904397928902
 21
2345.612805903256
 31
0.0
  0
LINE
  5
16881
330
747D
100
AcDbEntity
  8
細線
100
AcDbLine
 10
4745.904397928902
 20
4371.112805903249
 30
0.0
 11
4745.904397928902
 21
2345.612805903263
 31
0.0
  0
LINE
  5
16882
330
747D
100
AcDbEntity
  8
細線
100
AcDbLine
 10
4815.904397928903
 20
4371.112805903249
 30
0.0
 11
4815.904397928903
 21
2345.612805903263
 31
0.0
  0
LINE
  5
16883
330
747D
100
AcDbEntity
  8
細線
100
AcDbLine
 10
4366.904389743487
 20
4371.112805903249
 30
0.0
 11
4366.904389743487
 21
2338.112805903253
 31
0.0
  0
LINE
  5
1689D
330
747D
100
AcDbEntity
  8
部品1
 48
50.0
100
AcDbLine
 10
4100.904397928903
 20
3419.61280590325
 30
0.0
 11
4153.904397928903
 21
3419.61280590325
 31
0.0
  0
LINE
  5
168A1
330
747D
100
AcDbEntity
  8
細線
100
AcDbLine
 10
5473.904397928903
 20
4371.112805903238
 30
0.0
 11
5473.904397928903
 21
2345.612805903256
 31
0.0
  0
LINE
  5
168A2
330
747D
100
AcDbEntity
  8
細線
100
AcDbLine
 10
5543.904397928902
 20
4371.112805903238
 30
0.0
 11
5543.904397928902
 21
2345.612805903256
 31
0.0
  0
LINE
  5
168A3
330
747D
100
AcDbEntity
  8
細線
100
AcDbLine
 10
5613.904397928902
 20
4371.112805903238
 30
0.0
 11
5613.904397928902
 21
2345.612805903256
 31
0.0
  0
LINE
  5
168A4
330
747D
100
AcDbEntity
  8
細線
100
AcDbLine
 10
4885.904397928903
 20
4371.112805903249
 30
0.0
 11
4885.904397928903
 21
2345.612805903263
 31
0.0
  0
LINE
  5
168A5
330
747D
100
AcDbEntity
  8
細線
100
AcDbLine
 10
4955.904397928903
 20
4371.112805903249
 30
0.0
 11
4955.904397928903
 21
2345.612805903263
 31
0.0
  0
LINE
  5
168A6
330
747D
100
AcDbEntity
  8
細線
100
AcDbLine
 10
5025.904397928902
 20
4371.112805903249
 30
0.0
 11
5025.904397928902
 21
2345.612805903263
 31
0.0
  0
LINE
  5
168A7
330
747D
100
AcDbEntity
  8
細線
100
AcDbLine
 10
5095.904397928903
 20
4371.112805903249
 30
0.0
 11
5095.904397928903
 21
2345.612805903263
 31
0.0
  0
LINE
  5
168A8
330
747D
100
AcDbEntity
  8
細線
100
AcDbLine
 10
4184.904397928903
 20
4371.112805903249
 30
0.0
 11
4184.904397928903
 21
2338.112805903256
 31
0.0
  0
LINE
  5
168A9
330
747D
100
AcDbEntity
  8
細線
100
AcDbLine
 10
4218.904397928904
 20
4371.112805903249
 30
0.0
 11
4218.904397928904
 21
2338.112805903256
 31
0.0
  0
LINE
  5
168AA
330
747D
100
AcDbEntity
  8
部品1
100
AcDbLine
 10
4176.904397928903
 20
4371.112805903249
 30
0.0
 11
4176.904397928903
 21
2338.112805903256
 31
0.0
  0
LINE
  5
168AB
330
747D
100
AcDbEntity
  8
部品1
100
AcDbLine
 10
4226.904397928904
 20
4371.112805903249
 30
0.0
 11
4226.904397928904
 21
2338.112805903256
 31
0.0
  0
LINE
  5
168AC
330
747D
100
AcDbEntity
  8
細線
100
AcDbLine
 10
4436.904389743487
 20
4371.112805903249
 30
0.0
 11
4436.904389743487
 21
2338.112805903253
 31
0.0
  0
LINE
  5
168AD
330
747D
100
AcDbEntity
  8
細線
100
AcDbLine
 10
4506.904389743486
 20
4371.112805903249
 30
0.0
 11
4506.904389743486
 21
2338.112805903253
 31
0.0
  0
LINE
  5
168AE
330
747D
100
AcDbEntity
  8
細線
100
AcDbLine
 10
4576.904389743487
 20
4371.112805903249
 30
0.0
 11
4576.904389743487
 21
2338.112805903253
 31
0.0
  0
LINE
  5
168AF
330
747D
100
AcDbEntity
  8
部品1
 48
50.0
100
AcDbLine
 10
5187.404397928903
 20
4371.112805903256
 30
0.0
 11
5187.404397928903
 21
2345.612805903256
 31
0.0
  0
LINE
  5
168B0
330
747D
100
AcDbEntity
  8
部品1
 48
50.0
100
AcDbLine
 10
4695.40439792891
 20
4371.112805903256
 30
0.0
 11
4695.404397928903
 21
2338.112805903256
 31
0.0
  0
LINE
  5
168B1
330
747D
100
AcDbEntity
  8
部品1
 48
50.0
100
AcDbLine
 10
4026.904397928899
 20
4423.112805903256
 30
0.0
 11
4026.904397928899
 21
2288.112805903256
 31
0.0
  0
LINE
  5
168B2
330
747D
100
AcDbEntity
  8
細線
 48
50.0
100
AcDbLine
 10
4056.904397928903
 20
4380.612805903257
 30
0.0
 11
4056.904397928899
 21
2288.112805903256
 31
0.0
  0
LINE
  5
168B3
330
747D
100
AcDbEntity
  8
部品1
 48
50.0
100
AcDbLine
 10
4056.904397928903
 20
2338.112805903256
 30
0.0
 11
4056.904397928903
 21
4371.112805903256
 31
0.0
  0
LINE
  5
168B4
330
747D
100
AcDbEntity
  8
部品1
 48
50.0
100
AcDbLine
 10
5721.904397928901
 20
2335.112805903256
 30
0.0
 11
5721.904397928901
 21
4371.112805903256
 31
0.0
  0
LINE
  5
168B5
330
747D
100
AcDbEntity
  8
細線
 48
50.0
100
AcDbLine
 10
5730.904397928901
 20
2288.112805903256
 30
0.0
 11
5730.904397928901
 21
4380.612805903257
 31
0.0
  0
LINE
  5
168B6
330
747D
100
AcDbEntity
  8
部品1
 48
50.0
100
AcDbLine
 10
5760.904397928901
 20
2288.112805903256
 30
0.0
 11
5760.904397928901
 21
4423.112805903256
 31
0.0
  0
LINE
  5
168B7
330
747D
100
AcDbEntity
  8
細線
 48
50.0
100
AcDbLine
 10
4695.404397928903
 20
2345.612805903256
 30
0.0
 11
5704.904397928901
 21
2345.612805903256
 31
0.0
  0
LINE
  5
168B8
330
747D
100
AcDbEntity
  8
細線
 48
50.0
100
AcDbLine
 10
4056.904397928903
 20
2335.112805903256
 30
0.0
 11
5730.904397928901
 21
2335.112805903256
 31
0.0
  0
LINE
  5
168B9
330
747D
100
AcDbEntity
  8
細線
 48
50.0
100
AcDbLine
 10
4056.904397928903
 20
2331.112805903256
 30
0.0
 11
5730.904397928901
 21
2331.112805903256
 31
0.0
  0
LINE
  5
168BA
330
747D
100
AcDbEntity
  8
部品1
 48
50.0
100
AcDbLine
 10
4056.904397928903
 20
2338.112805903256
 30
0.0
 11
4695.404397928903
 21
2338.112805903256
 31
0.0
  0
LINE
  5
168BB
330
747D
100
AcDbEntity
  8
部品1
 48
50.0
100
AcDbLine
 10
4065.904397928902
 20
2338.112805903256
 30
0.0
 11
4065.904397928902
 21
2335.112805903256
 31
0.0
  0
LINE
  5
168BC
330
747D
100
AcDbEntity
  8
細線
 48
50.0
100
AcDbLine
 10
5708.9043979289
 20
2335.112805903256
 30
0.0
 11
5704.904397928901
 21
2345.612805903256
 31
0.0
  0
LINE
  5
168BD
330
747D
100
AcDbEntity
  8
部品1
 48
50.0
100
AcDbLine
 10
5760.904397928901
 20
4423.112805903256
 30
0.0
 11
4026.904397928899
 21
4423.112805903256
 31
0.0
  0
LINE
  5
168BE
330
747D
100
AcDbEntity
  8
細線
 48
50.0
100
AcDbLine
 10
5760.904397928901
 20
4413.112805903256
 30
0.0
 11
4026.904397928899
 21
4413.112805903256
 31
0.0
  0
LINE
  5
168BF
330
747D
100
AcDbEntity
  8
細線
 48
50.0
100
AcDbLine
 10
5730.904397928901
 20
4371.112805903256
 30
0.0
 11
4056.904397928903
 21
4371.112805903256
 31
0.0
  0
LINE
  5
168C0
330
747D
100
AcDbEntity
  8
細線
 48
50.0
100
AcDbLine
 10
5730.904397928901
 20
4380.612805903257
 30
0.0
 11
4056.904397928903
 21
4380.612805903257
 31
0.0
  0
LINE
  5
168C1
330
747D
100
AcDbEntity
  8
部品1
 48
50.0
100
AcDbLine
 10
4053.904397928899
 20
4423.112805903256
 30
0.0
 11
4053.904397928899
 21
4428.112805903256
 31
0.0
  0
LINE
  5
168C2
330
747D
100
AcDbEntity
  8
部品1
 48
50.0
100
AcDbLine
 10
4056.904397928903
 20
4379.112805903257
 30
0.0
 11
4026.904397928899
 21
4379.112805903257
 31
0.0
  0
LINE
  5
168C3
330
747D
100
AcDbEntity
  8
部品1
 48
50.0
100
AcDbLine
 10
5733.904397928901
 20
4423.112805903256
 30
0.0
 11
5733.904397928901
 21
4428.112805903256
 31
0.0
  0
LINE
  5
168C4
330
747D
100
AcDbEntity
  8
部品1
 48
50.0
100
AcDbLine
 10
5760.904397928901
 20
4379.112805903257
 30
0.0
 11
5730.904397928901
 21
4379.112805903257
 31
0.0
  0
ARC
  5
168C5
330
747D
100
AcDbEntity
  8
部品1
 48
0.01
100
AcDbCircle
 10
4511.904397928895
 20
4460.612805903256
 30
0.0
 40
2.0
100
AcDbArc
 50
270.0
 51
0.0
  0
ARC
  5
168C6
330
747D
100
AcDbEntity
  8
部品1
 48
0.01
100
AcDbCircle
 10
4511.904397928897
 20
4492.112805903256
 30
0.0
 40
2.0
100
AcDbArc
 50
0.0
 51
90.0
  0
ARC
  5
168C7
330
747D
100
AcDbEntity
  8
部品1
 48
0.01
100
AcDbCircle
 10
4335.904397928897
 20
4460.612805903256
 30
0.0
 40
2.0
100
AcDbArc
 50
180.0
 51
270.0
  0
ARC
  5
168C8
330
747D
100
AcDbEntity
  8
部品1
 48
0.01
100
AcDbCircle
 10
4335.904397928897
 20
4492.112805903256
 30
0.0
 40
2.0
100
AcDbArc
 50
90.0
 51
180.0
  0
LINE
  5
168C9
330
747D
100
AcDbEntity
  8
細線
100
AcDbLine
 10
4423.904397928896
 20
4464.612805903256
 30
0.0
 11
4497.904397928897
 21
4464.612805903256
 31
0.0
  0
LINE
  5
168CA
330
747D
100
AcDbEntity
  8
細線
100
AcDbLine
 10
4423.904397928897
 20
4487.612805903256
 30
0.0
 11
4349.904397928897
 21
4487.612805903256
 31
0.0
  0
LINE
  5
168CB
330
747D
100
AcDbEntity
  8
細線
100
AcDbLine
 10
4349.904397928897
 20
4464.612805903256
 30
0.0
 11
4423.904397928897
 21
4464.612805903256
 31
0.0
  0
LINE
  5
168CC
330
747D
100
AcDbEntity
  8
細線
100
AcDbLine
 10
4497.904397928897
 20
4487.612805903256
 30
0.0
 11
4423.904397928897
 21
4487.612805903256
 31
0.0
  0
LINE
  5
168CD
330
747D
100
AcDbEntity
  8
細線
100
AcDbLine
 10
4497.904397928897
 20
4464.612805903256
 30
0.0
 11
4497.904397928897
 21
4487.612805903256
 31
0.0
  0
LINE
  5
168CE
330
747D
100
AcDbEntity
  8
細線
100
AcDbLine
 10
4349.904397928897
 20
4487.612805903256
 30
0.0
 11
4349.904397928897
 21
4464.612805903256
 31
0.0
  0
LINE
  5
168CF
330
747D
100
AcDbEntity
  8
部品1
 48
0.01
100
AcDbLine
 10
4513.904397928896
 20
4460.612805903256
 30
0.0
 11
4513.904397928897
 21
4492.112805903256
 31
0.0
  0
LINE
  5
168D0
330
747D
100
AcDbEntity
  8
部品1
 48
0.01
100
AcDbLine
 10
4335.904397928897
 20
4458.612805903256
 30
0.0
 11
4511.904397928895
 21
4458.612805903256
 31
0.0
  0
LINE
  5
168D1
330
747D
100
AcDbEntity
  8
部品1
 48
0.01
100
AcDbLine
 10
4333.904397928897
 20
4492.112805903256
 30
0.0
 11
4333.904397928897
 21
4460.612805903256
 31
0.0
  0
LINE
  5
168D2
330
747D
100
AcDbEntity
  8
部品1
 48
0.01
100
AcDbLine
 10
4511.904397928897
 20
4494.112805903256
 30
0.0
 11
4335.904397928897
 21
4494.112805903256
 31
0.0
  0
LINE
  5
168D3
330
747D
100
AcDbEntity
  8
細線
100
AcDbLine
 10
4349.904397928897
 20
4481.612805903256
 30
0.0
 11
4423.904397928897
 21
4481.612805903256
 31
0.0
  0
LINE
  5
168D4
330
747D
100
AcDbEntity
  8
細線
100
AcDbLine
 10
4349.904397928897
 20
4475.612805903256
 30
0.0
 11
4423.904397928897
 21
4475.612805903256
 31
0.0
  0
LINE
  5
168D5
330
747D
100
AcDbEntity
  8
細線
100
AcDbLine
 10
4349.904397928895
 20
4469.612805903255
 30
0.0
 11
4423.904397928897
 21
4469.612805903255
 31
0.0
  0
LINE
  5
168D6
330
747D
100
AcDbEntity
  8
細線
100
AcDbLine
 10
4349.904397928897
 20
4481.612805903256
 30
0.0
 11
4418.904397928897
 21
4481.612805903256
 31
0.0
  0
LINE
  5
168D7
330
747D
100
AcDbEntity
  8
細線
100
AcDbLine
 10
4497.904397928895
 20
4481.612805903256
 30
0.0
 11
4423.904397928897
 21
4481.612805903256
 31
0.0
  0
LINE
  5
168D8
330
747D
100
AcDbEntity
  8
細線
100
AcDbLine
 10
4497.904397928895
 20
4469.612805903255
 30
0.0
 11
4423.904397928897
 21
4469.612805903255
 31
0.0
  0
LINE
  5
168D9
330
747D
100
AcDbEntity
  8
細線
100
AcDbLine
 10
4497.904397928895
 20
4475.612805903256
 30
0.0
 11
4423.904397928897
 21
4475.612805903256
 31
0.0
  0
LINE
  5
168DA
330
747D
100
AcDbEntity
  8
細線
100
AcDbLine
 10
4423.904397928897
 20
4487.612805903256
 30
0.0
 11
4423.904397928896
 21
4464.612805903256
 31
0.0
  0
LINE
  5
168DB
330
747D
100
AcDbEntity
  8
細線
100
AcDbLine
 10
5363.904397928897
 20
4487.612805903256
 30
0.0
 11
5363.904397928897
 21
4464.612805903256
 31
0.0
  0
LINE
  5
168DC
330
747D
100
AcDbEntity
  8
細線
100
AcDbLine
 10
5289.904397928897
 20
4475.612805903256
 30
0.0
 11
5363.904397928897
 21
4475.612805903256
 31
0.0
  0
LINE
  5
168DD
330
747D
100
AcDbEntity
  8
細線
100
AcDbLine
 10
5289.904397928897
 20
4469.612805903255
 30
0.0
 11
5363.904397928897
 21
4469.612805903255
 31
0.0
  0
LINE
  5
168DE
330
747D
100
AcDbEntity
  8
細線
100
AcDbLine
 10
5289.904397928897
 20
4481.612805903256
 30
0.0
 11
5363.904397928897
 21
4481.612805903256
 31
0.0
  0
LINE
  5
168DF
330
747D
100
AcDbEntity
  8
細線
100
AcDbLine
 10
5437.904397928897
 20
4481.612805903256
 30
0.0
 11
5368.904397928897
 21
4481.612805903256
 31
0.0
  0
LINE
  5
168E0
330
747D
100
AcDbEntity
  8
細線
100
AcDbLine
 10
5437.904397928897
 20
4469.612805903255
 30
0.0
 11
5363.904397928897
 21
4469.612805903255
 31
0.0
  0
LINE
  5
168E1
330
747D
100
AcDbEntity
  8
細線
100
AcDbLine
 10
5437.904397928897
 20
4475.612805903256
 30
0.0
 11
5363.904397928897
 21
4475.612805903256
 31
0.0
  0
LINE
  5
168E2
330
747D
100
AcDbEntity
  8
細線
100
AcDbLine
 10
5437.904397928897
 20
4481.612805903256
 30
0.0
 11
5363.904397928897
 21
4481.612805903256
 31
0.0
  0
LINE
  5
168E3
330
747D
100
AcDbEntity
  8
部品1
 48
0.01
100
AcDbLine
 10
5275.904397928897
 20
4494.112805903256
 30
0.0
 11
5451.904397928897
 21
4494.112805903256
 31
0.0
  0
LINE
  5
168E4
330
747D
100
AcDbEntity
  8
部品1
 48
0.01
100
AcDbLine
 10
5453.904397928898
 20
4492.112805903256
 30
0.0
 11
5453.904397928898
 21
4460.612805903256
 31
0.0
  0
LINE
  5
168E5
330
747D
100
AcDbEntity
  8
部品1
 48
0.01
100
AcDbLine
 10
5451.904397928897
 20
4458.612805903256
 30
0.0
 11
5275.904397928897
 21
4458.612805903256
 31
0.0
  0
LINE
  5
168E6
330
747D
100
AcDbEntity
  8
部品1
 48
0.01
100
AcDbLine
 10
5273.904397928897
 20
4460.612805903256
 30
0.0
 11
5273.904397928897
 21
4492.112805903256
 31
0.0
  0
LINE
  5
168E7
330
747D
100
AcDbEntity
  8
細線
100
AcDbLine
 10
5437.904397928897
 20
4487.612805903256
 30
0.0
 11
5437.904397928897
 21
4464.612805903256
 31
0.0
  0
LINE
  5
168E8
330
747D
100
AcDbEntity
  8
細線
100
AcDbLine
 10
5289.904397928897
 20
4464.612805903256
 30
0.0
 11
5289.904397928897
 21
4487.612805903256
 31
0.0
  0
LINE
  5
168E9
330
747D
100
AcDbEntity
  8
細線
100
AcDbLine
 10
5289.904397928897
 20
4487.612805903256
 30
0.0
 11
5363.904397928897
 21
4487.612805903256
 31
0.0
  0
LINE
  5
168EA
330
747D
100
AcDbEntity
  8
細線
100
AcDbLine
 10
5437.904397928897
 20
4464.612805903256
 30
0.0
 11
5363.904397928897
 21
4464.612805903256
 31
0.0
  0
LINE
  5
168EB
330
747D
100
AcDbEntity
  8
細線
100
AcDbLine
 10
5363.904397928897
 20
4487.612805903256
 30
0.0
 11
5437.904397928897
 21
4487.612805903256
 31
0.0
  0
LINE
  5
168EC
330
747D
100
AcDbEntity
  8
細線
100
AcDbLine
 10
5363.904397928897
 20
4464.612805903256
 30
0.0
 11
5289.904397928897
 21
4464.612805903256
 31
0.0
  0
ARC
  5
168ED
330
747D
100
AcDbEntity
  8
部品1
 48
0.01
100
AcDbCircle
 10
5451.904397928897
 20
4492.112805903256
 30
0.0
 40
2.0
100
AcDbArc
 50
0.0
 51
90.0
  0
ARC
  5
168EE
330
747D
100
AcDbEntity
  8
部品1
 48
0.01
100
AcDbCircle
 10
5451.904397928897
 20
4460.612805903256
 30
0.0
 40
2.0
100
AcDbArc
 50
270.0
 51
0.0
  0
ARC
  5
168EF
330
747D
100
AcDbEntity
  8
部品1
 48
0.01
100
AcDbCircle
 10
5275.904397928897
 20
4492.112805903256
 30
0.0
 40
2.0
100
AcDbArc
 50
90.0
 51
180.0
  0
ARC
  5
168F0
330
747D
100
AcDbEntity
  8
部品1
 48
0.01
100
AcDbCircle
 10
5275.904397928897
 20
4460.612805903256
 30
0.0
 40
2.0
100
AcDbArc
 50
180.0
 51
270.0
  0
ARC
  5
168F1
330
747D
100
AcDbEntity
  8
部品1
 48
0.01
100
AcDbCircle
 10
6301.904397928897
 20
4460.612805903256
 30
0.0
 40
2.0
100
AcDbArc
 50
270.0
 51
0.0
  0
ARC
  5
168F2
330
747D
100
AcDbEntity
  8
部品1
 48
0.01
100
AcDbCircle
 10
6301.9043979289
 20
4492.112805903256
 30
0.0
 40
2.0
100
AcDbArc
 50
0.0
 51
90.0
  0
ARC
  5
168F3
330
747D
100
AcDbEntity
  8
部品1
 48
0.01
100
AcDbCircle
 10
6125.904397928898
 20
4460.612805903256
 30
0.0
 40
2.0
100
AcDbArc
 50
180.0
 51
270.0
  0
ARC
  5
168F4
330
747D
100
AcDbEntity
  8
部品1
 48
0.01
100
AcDbCircle
 10
6125.904397928898
 20
4492.112805903256
 30
0.0
 40
2.0
100
AcDbArc
 50
90.0
 51
180.0
  0
LINE
  5
168F5
330
747D
100
AcDbEntity
  8
細線
100
AcDbLine
 10
6213.904397928897
 20
4464.612805903256
 30
0.0
 11
6287.904397928899
 21
4464.612805903256
 31
0.0
  0
LINE
  5
168F6
330
747D
100
AcDbEntity
  8
細線
100
AcDbLine
 10
6213.904397928899
 20
4487.612805903256
 30
0.0
 11
6139.904397928899
 21
4487.612805903256
 31
0.0
  0
LINE
  5
168F7
330
747D
100
AcDbEntity
  8
細線
100
AcDbLine
 10
6139.904397928899
 20
4464.612805903256
 30
0.0
 11
6213.904397928899
 21
4464.612805903256
 31
0.0
  0
LINE
  5
168F8
330
747D
100
AcDbEntity
  8
細線
100
AcDbLine
 10
6287.904397928899
 20
4487.612805903256
 30
0.0
 11
6213.904397928899
 21
4487.612805903256
 31
0.0
  0
LINE
  5
168F9
330
747D
100
AcDbEntity
  8
細線
100
AcDbLine
 10
6287.904397928899
 20
4464.612805903256
 30
0.0
 11
6287.904397928899
 21
4487.612805903256
 31
0.0
  0
LINE
  5
168FA
330
747D
100
AcDbEntity
  8
細線
100
AcDbLine
 10
6139.904397928899
 20
4487.612805903256
 30
0.0
 11
6139.904397928899
 21
4464.612805903256
 31
0.0
  0
LINE
  5
168FB
330
747D
100
AcDbEntity
  8
部品1
 48
0.01
100
AcDbLine
 10
6303.904397928898
 20
4460.612805903256
 30
0.0
 11
6303.904397928899
 21
4492.112805903256
 31
0.0
  0
LINE
  5
168FC
330
747D
100
AcDbEntity
  8
部品1
 48
0.01
100
AcDbLine
 10
6125.904397928898
 20
4458.612805903256
 30
0.0
 11
6301.904397928897
 21
4458.612805903256
 31
0.0
  0
LINE
  5
168FD
330
747D
100
AcDbEntity
  8
部品1
 48
0.01
100
AcDbLine
 10
6123.9043979289
 20
4492.112805903256
 30
0.0
 11
6123.9043979289
 21
4460.612805903256
 31
0.0
  0
LINE
  5
168FE
330
747D
100
AcDbEntity
  8
部品1
 48
0.01
100
AcDbLine
 10
6301.9043979289
 20
4494.112805903256
 30
0.0
 11
6125.904397928898
 21
4494.112805903256
 31
0.0
  0
LINE
  5
168FF
330
747D
100
AcDbEntity
  8
細線
100
AcDbLine
 10
6139.904397928899
 20
4481.612805903256
 30
0.0
 11
6213.904397928899
 21
4481.612805903256
 31
0.0
  0
LINE
  5
16900
330
747D
100
AcDbEntity
  8
細線
100
AcDbLine
 10
6139.904397928899
 20
4475.612805903256
 30
0.0
 11
6213.904397928899
 21
4475.612805903256
 31
0.0
  0
LINE
  5
16901
330
747D
100
AcDbEntity
  8
細線
100
AcDbLine
 10
6139.904397928898
 20
4469.612805903255
 30
0.0
 11
6213.904397928899
 21
4469.612805903255
 31
0.0
  0
LINE
  5
16902
330
747D
100
AcDbEntity
  8
細線
100
AcDbLine
 10
6139.904397928899
 20
4481.612805903256
 30
0.0
 11
6208.9043979289
 21
4481.612805903256
 31
0.0
  0
LINE
  5
16903
330
747D
100
AcDbEntity
  8
細線
100
AcDbLine
 10
6287.904397928897
 20
4481.612805903256
 30
0.0
 11
6213.904397928899
 21
4481.612805903256
 31
0.0
  0
LINE
  5
16904
330
747D
100
AcDbEntity
  8
細線
100
AcDbLine
 10
6287.904397928897
 20
4469.612805903255
 30
0.0
 11
6213.904397928899
 21
4469.612805903255
 31
0.0
  0
LINE
  5
16905
330
747D
100
AcDbEntity
  8
細線
100
AcDbLine
 10
6287.904397928897
 20
4475.612805903256
 30
0.0
 11
6213.904397928899
 21
4475.612805903256
 31
0.0
  0
LINE
  5
16906
330
747D
100
AcDbEntity
  8
細線
100
AcDbLine
 10
6213.904397928899
 20
4487.612805903256
 30
0.0
 11
6213.904397928897
 21
4464.612805903256
 31
0.0
  0
LINE
  5
16907
330
747D
100
AcDbEntity
  8
細線
100
AcDbLine
 10
7153.904397928899
 20
4487.612805903256
 30
0.0
 11
7153.904397928899
 21
4464.612805903256
 31
0.0
  0
LINE
  5
16908
330
747D
100
AcDbEntity
  8
細線
100
AcDbLine
 10
7079.904397928899
 20
4475.612805903256
 30
0.0
 11
7153.904397928899
 21
4475.612805903256
 31
0.0
  0
LINE
  5
16909
330
747D
100
AcDbEntity
  8
細線
100
AcDbLine
 10
7079.904397928899
 20
4469.612805903255
 30
0.0
 11
7153.904397928899
 21
4469.612805903255
 31
0.0
  0
LINE
  5
1690A
330
747D
100
AcDbEntity
  8
細線
100
AcDbLine
 10
7079.904397928899
 20
4481.612805903256
 30
0.0
 11
7153.904397928899
 21
4481.612805903256
 31
0.0
  0
LINE
  5
1690B
330
747D
100
AcDbEntity
  8
細線
100
AcDbLine
 10
7227.904397928899
 20
4481.612805903256
 30
0.0
 11
7158.904397928899
 21
4481.612805903256
 31
0.0
  0
LINE
  5
1690C
330
747D
100
AcDbEntity
  8
細線
100
AcDbLine
 10
7227.904397928899
 20
4469.612805903255
 30
0.0
 11
7153.904397928899
 21
4469.612805903255
 31
0.0
  0
LINE
  5
1690D
330
747D
100
AcDbEntity
  8
細線
100
AcDbLine
 10
7227.904397928899
 20
4475.612805903256
 30
0.0
 11
7153.904397928899
 21
4475.612805903256
 31
0.0
  0
LINE
  5
1690E
330
747D
100
AcDbEntity
  8
細線
100
AcDbLine
 10
7227.904397928899
 20
4481.612805903256
 30
0.0
 11
7153.904397928899
 21
4481.612805903256
 31
0.0
  0
LINE
  5
1690F
330
747D
100
AcDbEntity
  8
部品1
 48
0.01
100
AcDbLine
 10
7065.9043979289
 20
4494.112805903256
 30
0.0
 11
7241.904397928898
 21
4494.112805903256
 31
0.0
  0
LINE
  5
16910
330
747D
100
AcDbEntity
  8
部品1
 48
0.01
100
AcDbLine
 10
7243.9043979289
 20
4492.112805903256
 30
0.0
 11
7243.9043979289
 21
4460.612805903256
 31
0.0
  0
LINE
  5
16911
330
747D
100
AcDbEntity
  8
部品1
 48
0.01
100
AcDbLine
 10
7241.904397928898
 20
4458.612805903256
 30
0.0
 11
7065.9043979289
 21
4458.612805903256
 31
0.0
  0
LINE
  5
16912
330
747D
100
AcDbEntity
  8
部品1
 48
0.01
100
AcDbLine
 10
7063.904397928898
 20
4460.612805903256
 30
0.0
 11
7063.904397928898
 21
4492.112805903256
 31
0.0
  0
LINE
  5
16913
330
747D
100
AcDbEntity
  8
細線
100
AcDbLine
 10
7227.904397928899
 20
4487.612805903256
 30
0.0
 11
7227.904397928899
 21
4464.612805903256
 31
0.0
  0
LINE
  5
16914
330
747D
100
AcDbEntity
  8
細線
100
AcDbLine
 10
7079.904397928899
 20
4464.612805903256
 30
0.0
 11
7079.904397928899
 21
4487.612805903256
 31
0.0
  0
LINE
  5
16915
330
747D
100
AcDbEntity
  8
細線
100
AcDbLine
 10
7079.904397928899
 20
4487.612805903256
 30
0.0
 11
7153.904397928899
 21
4487.612805903256
 31
0.0
  0
LINE
  5
16916
330
747D
100
AcDbEntity
  8
細線
100
AcDbLine
 10
7227.904397928899
 20
4464.612805903256
 30
0.0
 11
7153.904397928899
 21
4464.612805903256
 31
0.0
  0
LINE
  5
16917
330
747D
100
AcDbEntity
  8
細線
100
AcDbLine
 10
7153.904397928899
 20
4487.612805903256
 30
0.0
 11
7227.904397928899
 21
4487.612805903256
 31
0.0
  0
LINE
  5
16918
330
747D
100
AcDbEntity
  8
細線
100
AcDbLine
 10
7153.904397928899
 20
4464.612805903256
 30
0.0
 11
7079.904397928899
 21
4464.612805903256
 31
0.0
  0
ARC
  5
16919
330
747D
100
AcDbEntity
  8
部品1
 48
0.01
100
AcDbCircle
 10
7241.904397928898
 20
4492.112805903256
 30
0.0
 40
2.0
100
AcDbArc
 50
0.0
 51
90.0
  0
ARC
  5
1691A
330
747D
100
AcDbEntity
  8
部品1
 48
0.01
100
AcDbCircle
 10
7241.904397928898
 20
4460.612805903256
 30
0.0
 40
2.0
100
AcDbArc
 50
270.0
 51
0.0
  0
ARC
  5
1691B
330
747D
100
AcDbEntity
  8
部品1
 48
0.01
100
AcDbCircle
 10
7065.9043979289
 20
4492.112805903256
 30
0.0
 40
2.0
100
AcDbArc
 50
90.0
 51
180.0
  0
ARC
  5
1691C
330
747D
100
AcDbEntity
  8
部品1
 48
0.01
100
AcDbCircle
 10
7065.9043979289
 20
4460.612805903256
 30
0.0
 40
2.0
100
AcDbArc
 50
180.0
 51
270.0
  0
LINE
  5
1691D
330
747D
100
AcDbEntity
  8
部品1
100
AcDbLine
 10
5778.904397928897
 20
4522.11280590326
 30
0.0
 11
5778.904397928895
 21
4663.112805903256
 31
0.0
  0
LINE
  5
1691E
330
747D
100
AcDbEntity
  8
細線
 48
50.0
100
AcDbLine
 10
6186.404397928903
 20
4428.112805903256
 30
0.0
 11
6186.404397928903
 21
2338.112805903256
 31
0.0
  0
LINE
  5
1691F
330
747D
100
AcDbEntity
  8
細線
 48
50.0
100
AcDbLine
 10
6201.404397928903
 20
4428.112805903256
 30
0.0
 11
6201.404397928903
 21
2338.112805903256
 31
0.0
  0
LINE
  5
16920
330
747D
100
AcDbEntity
  8
細線
 48
50.0
100
AcDbLine
 10
6061.404397928903
 20
4428.112805903256
 30
0.0
 11
6061.404397928903
 21
2338.112805903256
 31
0.0
  0
LINE
  5
16921
330
747D
100
AcDbEntity
  8
細線
 48
50.0
100
AcDbLine
 10
6046.404397928903
 20
4428.112805903256
 30
0.0
 11
6046.404397928903
 21
2338.112805903256
 31
0.0
  0
LINE
  5
16922
330
747D
100
AcDbEntity
  8
細線
 48
50.0
100
AcDbLine
 10
5906.404397928902
 20
4428.112805903256
 30
0.0
 11
5906.404397928902
 21
2338.112805903256
 31
0.0
  0
LINE
  5
16923
330
747D
100
AcDbEntity
  8
細線
 48
50.0
100
AcDbLine
 10
5921.404397928903
 20
4428.112805903256
 30
0.0
 11
5921.404397928903
 21
2338.112805903256
 31
0.0
  0
LINE
  5
16924
330
747D
100
AcDbEntity
  8
細線
 48
50.0
100
AcDbLine
 10
6341.404397928902
 20
4428.112805903256
 30
0.0
 11
6341.404397928902
 21
2338.112805903256
 31
0.0
  0
LINE
  5
16925
330
747D
100
AcDbEntity
  8
細線
 48
50.0
100
AcDbLine
 10
6326.404397928903
 20
4428.112805903256
 30
0.0
 11
6326.404397928903
 21
2338.112805903256
 31
0.0
  0
LINE
  5
16926
330
747D
100
AcDbEntity
  8
細線
 48
50.0
100
AcDbLine
 10
6466.404397928903
 20
4428.112805903256
 30
0.0
 11
6466.404397928903
 21
2338.112805903256
 31
0.0
  0
LINE
  5
16927
330
747D
100
AcDbEntity
  8
細線
 48
50.0
100
AcDbLine
 10
6481.404397928902
 20
4428.112805903256
 30
0.0
 11
6481.404397928902
 21
2338.112805903256
 31
0.0
  0
LINE
  5
16928
330
747D
100
AcDbEntity
  8
細線
 48
50.0
100
AcDbLine
 10
6621.404397928903
 20
4428.112805903256
 30
0.0
 11
6621.404397928903
 21
2338.112805903256
 31
0.0
  0
LINE
  5
16929
330
747D
100
AcDbEntity
  8
細線
 48
50.0
100
AcDbLine
 10
6606.404397928902
 20
4428.112805903256
 30
0.0
 11
6606.404397928902
 21
2338.112805903256
 31
0.0
  0
LINE
  5
1692A
330
747D
100
AcDbEntity
  8
細線
 48
50.0
100
AcDbLine
 10
7026.404397928901
 20
4428.112805903256
 30
0.0
 11
7026.404397928903
 21
2338.112805903256
 31
0.0
  0
LINE
  5
1692B
330
747D
100
AcDbEntity
  8
細線
 48
50.0
100
AcDbLine
 10
7041.404397928904
 20
4428.112805903256
 30
0.0
 11
7041.404397928904
 21
2338.112805903256
 31
0.0
  0
LINE
  5
1692C
330
747D
100
AcDbEntity
  8
細線
 48
50.0
100
AcDbLine
 10
6901.404397928901
 20
4428.112805903256
 30
0.0
 11
6901.404397928903
 21
2338.112805903256
 31
0.0
  0
LINE
  5
1692D
330
747D
100
AcDbEntity
  8
細線
 48
50.0
100
AcDbLine
 10
6886.404397928902
 20
4428.112805903256
 30
0.0
 11
6886.404397928902
 21
2338.112805903256
 31
0.0
  0
LINE
  5
1692E
330
747D
100
AcDbEntity
  8
細線
 48
50.0
100
AcDbLine
 10
6746.404397928903
 20
4428.112805903256
 30
0.0
 11
6746.404397928903
 21
2338.112805903256
 31
0.0
  0
LINE
  5
1692F
330
747D
100
AcDbEntity
  8
細線
 48
50.0
100
AcDbLine
 10
6761.404397928902
 20
4428.112805903256
 30
0.0
 11
6761.404397928902
 21
2338.112805903256
 31
0.0
  0
LINE
  5
16930
330
747D
100
AcDbEntity
  8
細線
 48
50.0
100
AcDbLine
 10
7446.404397928901
 20
4428.112805903256
 30
0.0
 11
7446.404397928903
 21
2338.112805903256
 31
0.0
  0
LINE
  5
16931
330
747D
100
AcDbEntity
  8
細線
 48
50.0
100
AcDbLine
 10
7461.404397928902
 20
4428.112805903256
 30
0.0
 11
7461.404397928902
 21
2338.112805903256
 31
0.0
  0
LINE
  5
16932
330
747D
100
AcDbEntity
  8
細線
 48
50.0
100
AcDbLine
 10
7321.404397928901
 20
4428.112805903256
 30
0.0
 11
7321.404397928903
 21
2338.112805903256
 31
0.0
  0
LINE
  5
16933
330
747D
100
AcDbEntity
  8
細線
 48
50.0
100
AcDbLine
 10
7306.404397928902
 20
4428.112805903256
 30
0.0
 11
7306.404397928902
 21
2338.112805903256
 31
0.0
  0
LINE
  5
16934
330
747D
100
AcDbEntity
  8
細線
 48
50.0
100
AcDbLine
 10
7166.404397928904
 20
4428.112805903256
 30
0.0
 11
7166.404397928904
 21
2338.112805903256
 31
0.0
  0
LINE
  5
16935
330
747D
100
AcDbEntity
  8
細線
 48
50.0
100
AcDbLine
 10
7181.404397928902
 20
4428.112805903256
 30
0.0
 11
7181.404397928902
 21
2338.112805903256
 31
0.0
  0
LINE
  5
16936
330
747D
100
AcDbEntity
  8
細線
 48
50.0
100
AcDbLine
 10
3981.904397928897
 20
4663.112805903262
 30
0.0
 11
3981.904397928897
 21
4522.112805903261
 31
0.0
  0
ARC
  5
16937
330
747D
100
AcDbEntity
  8
部品1
100
AcDbCircle
 10
3956.312819035327
 20
4656.112805903261
 30
0.0
 40
7.0
100
AcDbArc
 50
90.0
 51
183.2473427903347
  0
ARC
  5
16938
330
747D
100
AcDbEntity
  8
部品1
100
AcDbCircle
 10
3969.528142496362
 20
4529.112805903261
 30
0.0
 40
7.0
100
AcDbArc
 50
183.2473427903347
 51
270.0
  0
ARC
  5
16939
330
747D
100
AcDbEntity
  8
部品1
 48
50.0
100
AcDbCircle
 10
3951.156332285686
 20
4635.779805064949
 30
0.0
 40
0.7
100
AcDbArc
 50
183.2473427903867
 51
262.3418727926349
  0
ARC
  5
1693A
330
747D
100
AcDbEntity
  8
部品1
 48
50.0
100
AcDbCircle
 10
3959.392362810526
 20
4543.579805064944
 30
0.0
 40
0.7
100
AcDbArc
 50
183.2473427902827
 51
262.3418727926349
  0
ARC
  5
1693B
330
747D
100
AcDbEntity
  8
部品1
 48
50.0
100
AcDbCircle
 10
3958.899293701965
 20
4539.912805903258
 30
0.0
 40
3.0
100
AcDbArc
 50
3.24734279033473
 51
82.3418727926348
  0
ARC
  5
1693C
330
747D
100
AcDbEntity
  8
部品1
 48
50.0
100
AcDbCircle
 10
3950.663263177121
 20
4632.112805903261
 30
0.0
 40
3.0
100
AcDbArc
 50
3.24734279033473
 51
82.3418727926348
  0
LINE
  5
1693D
330
747D
100
AcDbEntity
  8
部品1
100
AcDbLine
 10
3953.658446073307
 20
4632.282745358365
 30
0.0
 11
3958.693486801418
 21
4543.540152525422
 31
0.0
  0
LINE
  5
1693E
330
747D
100
AcDbEntity
  8
部品1
100
AcDbLine
 10
3961.894476598154
 20
4540.082745358364
 30
0.0
 11
3962.539382405263
 21
4528.716280508024
 31
0.0
  0
LINE
  5
1693F
330
747D
100
AcDbEntity
  8
部品1
100
AcDbLine
 10
3949.324058944227
 20
4655.716280508022
 30
0.0
 11
3950.457456276577
 21
4635.74015252542
 31
0.0
  0
DIMENSION
  5
16940
330
747D
100
AcDbEntity
  8
寸法
 48
50.0
100
AcDbDimension
  2
*D43
 10
3948.904397928897
 20
4875.654391161503
 30
0.0
 11
3642.857153834409
 21
4875.654391161503
 31
0.0
 70
   160
 71
     5
 42
50.0
  3
INABA_S40G
100
AcDbAlignedDimension
 13
3998.904397928897
 23
4663.112805903265
 33
0.0
 14
3948.904397928897
 24
4663.112805903263
 34
0.0
100
AcDbRotatedDimension
1001
ACAD
1000
DSTYLE
1002
{
1002
}
  0
LINE
  5
16941
330
747D
100
AcDbEntity
  8
部品1
 48
50.0
100
AcDbLine
 10
7621.49597682247
 20
4663.112805903258
 30
0.0
 11
3956.312819035327
 21
4663.112805903258
 31
0.0
  0
LINE
  5
16942
330
747D
100
AcDbEntity
  8
細線
 48
50.0
100
AcDbLine
 10
7626.745746917329
 20
4635.086048466775
 30
0.0
 11
3951.063048939673
 21
4635.086048467208
 31
0.0
  0
LINE
  5
16943
330
747D
100
AcDbEntity
  8
細線
 48
50.0
100
AcDbLine
 10
7618.509716392519
 20
4542.886048466775
 30
0.0
 11
3959.299079464505
 21
4542.886048467208
 31
0.0
  0
LINE
  5
16944
330
747D
100
AcDbEntity
  8
部品1
 48
50.0
100
AcDbLine
 10
7608.280653361434
 20
4522.11280590326
 30
0.0
 11
3969.528142496362
 21
4522.11280590326
 31
0.0
  0
LINE
  5
16945
330
747D
100
AcDbEntity
  8
部品1
100
AcDbLine
 10
7628.484736913567
 20
4655.716280508019
 30
0.0
 11
7627.351339581221
 21
4635.740152525419
 31
0.0
  0
LINE
  5
16946
330
747D
100
AcDbEntity
  8
細線
 48
50.0
100
AcDbLine
 10
7595.904397928904
 20
4663.112805903258
 30
0.0
 11
7595.904397928904
 21
4522.112805903257
 31
0.0
  0
LINE
  5
16947
330
747D
100
AcDbEntity
  8
部品1
100
AcDbLine
 10
7615.914319259644
 20
4540.08274535836
 30
0.0
 11
7615.269413452534
 21
4528.71628050802
 31
0.0
  0
LINE
  5
16948
330
747D
100
AcDbEntity
  8
部品1
100
AcDbLine
 10
7624.150349784489
 20
4632.282745358361
 30
0.0
 11
7619.11530905638
 21
4543.540152525419
 31
0.0
  0
ARC
  5
16949
330
747D
100
AcDbEntity
  8
部品1
 48
50.0
100
AcDbCircle
 10
7627.145532680676
 20
4632.11280590326
 30
0.0
 40
3.0
100
AcDbArc
 50
97.65812720736519
 51
176.7526572096653
  0
ARC
  5
1694A
330
747D
100
AcDbEntity
  8
部品1
 48
50.0
100
AcDbCircle
 10
7618.90950215583
 20
4539.912805903258
 30
0.0
 40
3.0
100
AcDbArc
 50
97.65812720736519
 51
176.7526572096653
  0
ARC
  5
1694B
330
747D
100
AcDbEntity
  8
部品1
 48
50.0
100
AcDbCircle
 10
7618.416433047269
 20
4543.579805064941
 30
0.0
 40
0.7
100
AcDbArc
 50
277.6581272073652
 51
356.7526572097173
  0
ARC
  5
1694C
330
747D
100
AcDbEntity
  8
部品1
 48
50.0
100
AcDbCircle
 10
7626.652463572114
 20
4635.779805064945
 30
0.0
 40
0.7
100
AcDbArc
 50
277.6581272073652
 51
356.7526572096132
  0
ARC
  5
1694D
330
747D
100
AcDbEntity
  8
部品1
100
AcDbCircle
 10
7608.280653361434
 20
4529.11280590326
 30
0.0
 40
7.0
100
AcDbArc
 50
270.0
 51
356.7526572096653
  0
ARC
  5
1694E
330
747D
100
AcDbEntity
  8
部品1
100
AcDbCircle
 10
7621.49597682247
 20
4656.112805903258
 30
0.0
 40
7.0
100
AcDbArc
 50
356.7526572096653
 51
90.0
  0
DIMENSION
  5
1694F
330
747D
100
AcDbEntity
  8
寸法
 48
50.0
100
AcDbDimension
  2
*D44
 10
7628.904397928903
 20
5096.559691635249
 30
0.0
 11
5788.904397928899
 21
5096.559691635249
 31
0.0
 70
   160
 71
     5
 42
3680.000000000005
  3
INABA_S40G
100
AcDbAlignedDimension
 13
3948.904397928897
 23
4663.112805903263
 33
0.0
 14
7628.904397928903
 24
4663.112805903258
 34
0.0
100
AcDbRotatedDimension
  0
DIMENSION
  5
16950
330
747D
100
AcDbEntity
  8
寸法
 48
50.0
100
AcDbDimension
  2
*D45
 10
7578.904397928903
 20
4875.654391161499
 30
0.0
 11
7934.951642023391
 21
4875.654391161499
 31
0.0
 70
   160
 71
     5
 42
50.0
  3
INABA_S40G
100
AcDbAlignedDimension
 13
7628.904397928903
 23
4663.112805903258
 33
0.0
 14
7578.904397928903
 24
4663.112805903259
 34
0.0
100
AcDbRotatedDimension
  0
DIMENSION
  5
16951
330
747D
100
AcDbEntity
  8
寸法
 48
50.0
100
AcDbDimension
  2
*D46
 10
3998.904397928897
 20
4875.654391161501
 30
0.0
 11
5788.904397928899
 21
4875.654391161501
 31
0.0
 70
   160
  1
柱外寸法<>
 71
     5
 42
3580.000000000005
  3
INABA_S40G
100
AcDbAlignedDimension
 13
7578.904397928903
 23
4663.112805903258
 33
0.0
 14
3998.904397928897
 24
4663.112805903265
 34
0.0
100
AcDbRotatedDimension
  0
LINE
  5
16952
330
747D
100
AcDbEntity
  8
部品1
100
AcDbLine
 10
7578.904397928898
 20
4522.112805903261
 30
0.0
 11
7578.904397928898
 21
2188.112805903256
 31
0.0
  0
LINE
  5
16953
330
747D
100
AcDbEntity
  8
部品1
100
AcDbLine
 10
7523.904397928898
 20
4428.112805903256
 30
0.0
 11
7523.904397928895
 21
2338.112805903256
 31
0.0
  0
LINE
  5
16954
330
747D
100
AcDbEntity
  8
部品1
100
AcDbLine
 10
6683.904397928897
 20
4428.112805903256
 30
0.0
 11
6683.904397928896
 21
2338.112805903256
 31
0.0
  0
LINE
  5
16955
330
747D
100
AcDbEntity
  8
部品1
100
AcDbLine
 10
7103.904397928896
 20
4428.112805903256
 30
0.0
 11
7103.904397928896
 21
2338.112805903256
 31
0.0
  0
LINE
  5
16956
330
747D
100
AcDbEntity
  8
部品1
100
AcDbLine
 10
7103.904397928911
 20
4428.112805903256
 30
0.0
 11
7103.904397928907
 21
2338.112805903256
 31
0.0
  0
LINE
  5
16957
330
747D
100
AcDbEntity
  8
部品1
100
AcDbLine
 10
5788.904397928899
 20
4428.112805903256
 30
0.0
 11
5788.904397928899
 21
4522.112805903261
 31
0.0
  0
LINE
  5
16958
330
747D
100
AcDbEntity
  8
部品1
100
AcDbLine
 10
5788.904397928899
 20
2338.112805903256
 30
0.0
 11
5788.904397928871
 21
2288.112805903256
 31
0.0
  0
LINE
  5
16959
330
747D
100
AcDbEntity
  8
部品1
 48
50.0
100
AcDbLine
 10
5788.904397928899
 20
2338.112805903256
 30
0.0
 11
5760.904397928901
 21
2338.112805903256
 31
0.0
  0
LINE
  5
1695A
330
747D
100
AcDbEntity
  8
部品1
100
AcDbLine
 10
6263.904397928897
 20
4428.112805903256
 30
0.0
 11
6263.904397928896
 21
2338.112805903256
 31
0.0
  0
LINE
  5
1695B
330
747D
100
AcDbEntity
  8
部品1
100
AcDbLine
 10
5843.904397928898
 20
4428.112805903256
 30
0.0
 11
5843.904397928898
 21
2338.112805903256
 31
0.0
  0
LINE
  5
1695C
330
747D
100
AcDbEntity
  8
部品1
 48
50.0
100
AcDbLine
 10
5788.904397928899
 20
2338.112805903256
 30
0.0
 11
7578.904397928898
 21
2338.112805903256
 31
0.0
  0
LINE
  5
1695D
330
747D
100
AcDbEntity
  8
部品1
100
AcDbLine
 10
3998.904397928897
 20
4522.112805903261
 30
0.0
 11
3998.904397928897
 21
2188.112805903256
 31
0.0
  0
LINE
  5
1695E
330
747D
100
AcDbEntity
  8
部品1
100
AcDbLine
 10
3998.904397928898
 20
2288.112805903256
 30
0.0
 11
7578.904397928898
 21
2288.112805903256
 31
0.0
  0
LINE
  5
1695F
330
747D
100
AcDbEntity
  8
部品1
100
AcDbLine
 10
3998.904397928897
 20
4428.112805903256
 30
0.0
 11
7578.904397928899
 21
4428.112805903256
 31
0.0
  0
LINE
  5
16960
330
747D
100
AcDbEntity
  8
部品1
100
AcDbLine
 10
3998.904397928897
 20
4428.112805903256
 30
0.0
 11
5763.904397928897
 21
4428.112805903256
 31
0.0
  0
LINE
  5
16A48
330
747D
100
AcDbEntity
  8
部品1
 48
50.0
100
AcDbLine
 10
5588.904397928896
 20
2188.112805903256
 30
0.0
 11
5588.904397928899
 21
2288.112805903256
 31
0.0
  0
LINE
  5
16A49
330
747D
100
AcDbEntity
  8
部品1
 48
50.0
100
AcDbLine
 10
5988.904397928896
 20
2188.112805903256
 30
0.0
 11
5988.904397928898
 21
2288.112805903256
 31
0.0
  0
LINE
  5
16A4A
330
747D
100
AcDbEntity
  8
部品1
 48
50.0
100
AcDbLine
 10
7178.904397928898
 20
2288.112805903256
 30
0.0
 11
7178.904397928898
 21
2188.112805903256
 31
0.0
  0
LINE
  5
16A4B
330
747D
100
AcDbEntity
  8
部品1
 48
50.0
100
AcDbLine
 10
4398.904397928897
 20
2288.112805903256
 30
0.0
 11
4398.904397928897
 21
2188.112805903256
 31
0.0
  0
LINE
  5
16A4C
330
747D
100
AcDbEntity
  8
部品1
 48
50.0
100
AcDbLine
 10
6583.904397928896
 20
2288.112805903256
 30
0.0
 11
6583.904397928896
 21
2188.112805903257
 31
0.0
  0
LINE
  5
16A4D
330
747D
100
AcDbEntity
  8
部品1
 48
50.0
100
AcDbLine
 10
6783.904397928896
 20
2288.112805903256
 30
0.0
 11
6783.904397928896
 21
2188.112805903257
 31
0.0
  0
LINE
  5
16A4E
330
747D
100
AcDbEntity
  8
部品1
 48
50.0
100
AcDbLine
 10
4793.904397928894
 20
2288.112805903256
 30
0.0
 11
4793.904397928894
 21
2188.112805903256
 31
0.0
  0
LINE
  5
16A4F
330
747D
100
AcDbEntity
  8
部品1
 48
50.0
100
AcDbLine
 10
4993.904397928894
 20
2288.112805903256
 30
0.0
 11
4993.904397928894
 21
2188.112805903256
 31
0.0
  0
LINE
  5
16A50
330
747D
100
AcDbEntity
  8
破線
 48
5.0
100
AcDbLine
 10
7603.904397928897
 20
2033.112805903257
 30
0.0
 11
7583.904397928896
 21
2033.112805903257
 31
0.0
  0
LINE
  5
16A51
330
747D
100
AcDbEntity
  8
破線
  6
HIDDEN
 48
5.0
100
AcDbLine
 10
7678.904397928896
 20
2188.112805903256
 30
0.0
 11
7678.904397928896
 21
1988.112805903255
 31
0.0
  0
LINE
  5
16A52
330
747D
100
AcDbEntity
  8
破線
 48
5.0
100
AcDbLine
 10
7583.904397928896
 20
2188.112805903258
 30
0.0
 11
7583.904397928896
 21
2033.112805903257
 31
0.0
  0
LINE
  5
16A53
330
747D
100
AcDbEntity
  8
破線
  6
HIDDEN
 48
5.0
100
AcDbLine
 10
7478.904397928897
 20
2188.112805903256
 30
0.0
 11
7478.904397928897
 21
1988.112805903256
 31
0.0
  0
LINE
  5
16A54
330
747D
100
AcDbEntity
  8
破線
  6
HIDDEN
 48
5.0
100
AcDbLine
 10
7678.904397928896
 20
1988.112805903255
 30
0.0
 11
7478.904397928896
 21
1988.112805903256
 31
0.0
  0
DIMENSION
  5
16A55
330
747D
100
AcDbEntity
  8
寸法
 48
50.0
100
AcDbDimension
  2
*D47
 10
7478.904397928896
 20
1652.922421664043
 30
0.0
 11
7578.904397928896
 21
1652.922421664043
 31
0.0
 70
   160
 71
     5
 42
200.0
  3
INABA_S40
100
AcDbAlignedDimension
 13
7678.904397928896
 23
1988.112805903255
 33
0.0
 14
7478.904397928896
 24
1988.112805903255
 34
0.0
100
AcDbRotatedDimension
1001
ACAD
1000
DSTYLE
1002
{
1070
    41
1040
0.5
1070
    44
1040
1.0
1070
   147
1040
0.8
1070
   271
1070
     2
1070
   272
1070
     2
1070
   289
1070
     3
1070
   340
1005
F706
1070
   343
1005
F744
1070
   344
1005
F744
1002
}
  0
LINE
  5
16A56
330
747D
100
AcDbEntity
  8
破線
 48
5.0
100
AcDbLine
 10
3973.904397928897
 20
2033.112805903257
 30
0.0
 11
3993.9043979289
 21
2033.112805903257
 31
0.0
  0
LINE
  5
16A57
330
747D
100
AcDbEntity
  8
破線
 48
5.0
100
AcDbLine
 10
3898.904397928899
 20
1988.112805903255
 30
0.0
 11
4098.9043979289
 21
1988.112805903256
 31
0.0
  0
LINE
  5
16A58
330
747D
100
AcDbEntity
  8
破線
 48
5.0
100
AcDbLine
 10
4098.904397928897
 20
2188.112805903256
 30
0.0
 11
4098.904397928897
 21
1988.112805903256
 31
0.0
  0
LINE
  5
16A59
330
747D
100
AcDbEntity
  8
破線
 48
5.0
100
AcDbLine
 10
3898.904397928899
 20
2188.112805903256
 30
0.0
 11
3898.904397928899
 21
1988.112805903255
 31
0.0
  0
LINE
  5
16A5A
330
747D
100
AcDbEntity
  8
破線
 48
5.0
100
AcDbLine
 10
3993.904397928897
 20
2188.112805903258
 30
0.0
 11
3993.904397928897
 21
2033.112805903257
 31
0.0
  0
LINE
  5
16A5B
330
747D
100
AcDbEntity
  8
部品1
100
AcDbLine
 10
3993.904397928897
 20
2333.112805903258
 30
0.0
 11
3993.904397928897
 21
2188.112805903258
 31
0.0
  0
LINE
  5
16A5C
330
747D
100
AcDbEntity
  8
部品1
100
AcDbLine
 10
7583.904397928896
 20
2333.112805903258
 30
0.0
 11
7583.904397928896
 21
2188.112805903258
 31
0.0
  0
LINE
  5
16AB5
330
747D
100
AcDbEntity
  8
部品1
 48
50.0
100
AcDbLine
 10
13183.72067958069
 20
2288.112805903259
 30
0.0
 11
13183.72067958069
 21
2188.112805903259
 31
0.0
  0
LINE
  5
16AB6
330
747D
100
AcDbEntity
  8
部品1
 48
50.0
100
AcDbLine
 10
12983.72067958069
 20
2288.112805903259
 30
0.0
 11
12983.72067958069
 21
2188.112805903259
 31
0.0
  0
LINE
  5
16AB7
330
747D
100
AcDbEntity
  8
部品1
 48
50.0
100
AcDbLine
 10
12371.72067958068
 20
2288.112805903259
 30
0.0
 11
12371.72067958068
 21
2188.112805903259
 31
0.0
  0
LINE
  5
16AB8
330
747D
100
AcDbEntity
  8
部品1
 48
50.0
100
AcDbLine
 10
12171.72067958068
 20
2288.112805903259
 30
0.0
 11
12171.72067958068
 21
2188.112805903259
 31
0.0
  0
LINE
  5
16AB9
330
747D
100
AcDbEntity
  8
部品1
100
AcDbLine
 10
13792.72067958069
 20
2288.112805903259
 30
0.0
 11
13792.72067958069
 21
2188.112805903259
 31
0.0
  0
LINE
  5
16ABA
330
747D
100
AcDbEntity
  8
部品1
100
AcDbLine
 10
13985.22067958069
 20
2288.112805903258
 30
0.0
 11
13992.72067958069
 21
2288.112805903258
 31
0.0
  0
LINE
  5
16ABB
330
747D
100
AcDbEntity
  8
破線
  6
HIDDEN
 48
5.0
100
AcDbLine
 10
13985.22067958069
 20
2188.112805903258
 30
0.0
 11
13985.22067958069
 21
2183.112805903258
 31
0.0
  0
LINE
  5
16ABC
330
747D
100
AcDbEntity
  8
破線
  6
HIDDEN
 48
5.0
100
AcDbLine
 10
13945.22067958068
 20
2188.112805903258
 30
0.0
 11
13945.22067958068
 21
2183.112805903258
 31
0.0
  0
LINE
  5
16ABD
330
747D
100
AcDbEntity
  8
部品1
 48
50.0
100
AcDbLine
 10
13985.22067958069
 20
2328.112805903258
 30
0.0
 11
13985.22067958069
 21
2188.112805903258
 31
0.0
  0
LINE
  5
16ABE
330
747D
100
AcDbEntity
  8
部品1
 48
50.0
100
AcDbLine
 10
13945.22067958068
 20
2328.112805903258
 30
0.0
 11
13945.22067958068
 21
2188.112805903258
 31
0.0
  0
ARC
  5
16ABF
330
747D
100
AcDbEntity
  8
部品1
 48
50.0
100
AcDbCircle
 10
13980.22067958069
 20
2328.112805903258
 30
0.0
 40
5.0
100
AcDbArc
 50
0.0
 51
90.0
  0
ARC
  5
16AC0
330
747D
100
AcDbEntity
  8
部品1
 48
50.0
100
AcDbCircle
 10
13950.22067958068
 20
2328.112805903258
 30
0.0
 40
5.0
100
AcDbArc
 50
90.0
 51
180.0
  0
LINE
  5
16AC1
330
747D
100
AcDbEntity
  8
部品1
100
AcDbLine
 10
13980.22067958069
 20
2333.112805903258
 30
0.0
 11
13950.22067958068
 21
2333.112805903258
 31
0.0
  0
LINE
  5
16AC2
330
747D
100
AcDbEntity
  8
破線
 48
5.0
100
AcDbLine
 10
13865.22067958069
 20
2188.112805903258
 30
0.0
 11
13865.22067958069
 21
1988.112805903257
 31
0.0
  0
LINE
  5
16AC3
330
747D
100
AcDbEntity
  8
破線
 48
5.0
100
AcDbLine
 10
14065.22067958069
 20
1988.112805903256
 30
0.0
 11
13865.22067958069
 21
1988.112805903257
 31
0.0
  0
LINE
  5
16AC4
330
747D
100
AcDbEntity
  8
破線
 48
5.0
100
AcDbLine
 10
14065.22067958069
 20
2188.112805903258
 30
0.0
 11
14065.22067958069
 21
1988.112805903256
 31
0.0
  0
LINE
  5
16AC5
330
747D
100
AcDbEntity
  8
破線
  6
HIDDEN
 48
5.0
100
AcDbLine
 10
14000.22067958069
 20
2035.412805903258
 30
0.0
 11
14000.22067958069
 21
2033.112805903258
 31
0.0
  0
LINE
  5
16AC6
330
747D
100
AcDbEntity
  8
破線
  6
HIDDEN
 48
5.0
100
AcDbLine
 10
13985.22067958069
 20
2183.112805903258
 30
0.0
 11
14000.22067958069
 21
2035.412805903258
 31
0.0
  0
LINE
  5
16AC7
330
747D
100
AcDbEntity
  8
破線
  6
HIDDEN
 48
5.0
100
AcDbLine
 10
13930.22067958068
 20
2035.412805903258
 30
0.0
 11
13930.22067958068
 21
2033.112805903258
 31
0.0
  0
LINE
  5
16AC8
330
747D
100
AcDbEntity
  8
破線
  6
HIDDEN
 48
5.0
100
AcDbLine
 10
13945.22067958068
 20
2183.112805903258
 30
0.0
 11
13930.22067958068
 21
2035.412805903258
 31
0.0
  0
LINE
  5
16AC9
330
747D
100
AcDbEntity
  8
破線
  6
HIDDEN
 48
5.0
100
AcDbLine
 10
14000.22067958069
 20
2033.112805903258
 30
0.0
 11
13930.22067958068
 21
2033.112805903258
 31
0.0
  0
DIMENSION
  5
16ACA
330
747D
100
AcDbEntity
  8
寸法
 48
50.0
100
AcDbDimension
  2
*D48
 10
11290.22067958069
 20
1702.065476602879
 30
0.0
 11
11390.22067958069
 21
1702.065476602879
 31
0.0
 70
   160
 71
     5
 42
199.9999999999963
  3
INABA_S40G
100
AcDbAlignedDimension
 13
11490.22067958068
 23
1988.112805903255
 33
0.0
 14
11290.22067958069
 24
1988.112805903255
 34
0.0
100
AcDbRotatedDimension
  0
LINE
  5
16ACB
330
747D
100
AcDbEntity
  8
破線
 48
5.0
100
AcDbLine
 10
11290.22067958068
 20
2188.112805903257
 30
0.0
 11
11290.22067958069
 21
1988.112805903255
 31
0.0
  0
LINE
  5
16ACC
330
747D
100
AcDbEntity
  8
破線
 48
5.0
100
AcDbLine
 10
11490.22067958068
 20
2188.112805903257
 30
0.0
 11
11490.22067958068
 21
1988.112805903255
 31
0.0
  0
LINE
  5
16ACD
330
747D
100
AcDbEntity
  8
破線
 48
5.0
100
AcDbLine
 10
11490.22067958068
 20
1988.112805903255
 30
0.0
 11
11290.22067958069
 21
1988.112805903255
 31
0.0
  0
DIMENSION
  5
16ACE
330
747D
100
AcDbEntity
  8
寸法
 48
50.0
100
AcDbDimension
  2
*D49
 10
11140.72067633405
 20
2188.112805903258
 30
0.0
 11
11140.72067633405
 21
2088.112805903258
 31
0.0
 70
   160
 71
     5
 42
200.000000000002
  3
INABA_S40G
100
AcDbAlignedDimension
 13
11290.22067958069
 23
1988.112805903255
 33
0.0
 14
11265.22067958068
 24
2188.112805903257
 34
0.0
 50
90.0
100
AcDbRotatedDimension
1001
ACAD
1000
DSTYLE
1002
{
1070
   174
1070
     0
1070
   272
1070
     1
1070
   288
1070
     0
1070
   341
1005
0
1002
}
  0
LINE
  5
16ACF
330
747D
100
AcDbEntity
  8
破線
  6
HIDDEN
 48
5.0
100
AcDbLine
 10
11410.22067958068
 20
2183.112805903257
 30
0.0
 11
11425.22067958068
 21
2035.412805903257
 31
0.0
  0
LINE
  5
16AD0
330
747D
100
AcDbEntity
  8
破線
  6
HIDDEN
 48
5.0
100
AcDbLine
 10
11370.22067958068
 20
2183.112805903257
 30
0.0
 11
11355.22067958068
 21
2035.412805903257
 31
0.0
  0
LINE
  5
16AD1
330
747D
100
AcDbEntity
  8
破線
  6
HIDDEN
 48
5.0
100
AcDbLine
 10
11425.22067958068
 20
2035.412805903257
 30
0.0
 11
11425.22067958068
 21
2033.112805903257
 31
0.0
  0
LINE
  5
16AD2
330
747D
100
AcDbEntity
  8
破線
  6
HIDDEN
 48
5.0
100
AcDbLine
 10
11355.22067958068
 20
2035.412805903257
 30
0.0
 11
11355.22067958068
 21
2033.112805903257
 31
0.0
  0
LINE
  5
16AD3
330
747D
100
AcDbEntity
  8
破線
  6
HIDDEN
 48
5.0
100
AcDbLine
 10
11355.22067958068
 20
2033.112805903257
 30
0.0
 11
11425.22067958068
 21
2033.112805903257
 31
0.0
  0
LINE
  5
16AD4
330
747D
100
AcDbEntity
  8
破線
  6
HIDDEN
 48
5.0
100
AcDbLine
 10
11410.22067958068
 20
2188.112805903257
 30
0.0
 11
11410.22067958068
 21
2183.112805903257
 31
0.0
  0
LINE
  5
16AD5
330
747D
100
AcDbEntity
  8
破線
  6
HIDDEN
 48
5.0
100
AcDbLine
 10
11370.22067958069
 20
2188.112805903257
 30
0.0
 11
11370.22067958069
 21
2183.112805903257
 31
0.0
  0
ARC
  5
16AD6
330
747D
100
AcDbEntity
  8
部品1
 48
50.0
100
AcDbCircle
 10
11405.22067958068
 20
2328.112805903257
 30
0.0
 40
5.0
100
AcDbArc
 50
0.0
 51
90.0
  0
ARC
  5
16AD7
330
747D
100
AcDbEntity
  8
部品1
 48
50.0
100
AcDbCircle
 10
11375.22067958068
 20
2328.112805903257
 30
0.0
 40
5.0
100
AcDbArc
 50
90.0
 51
180.0
  0
LINE
  5
16AD8
330
747D
100
AcDbEntity
  8
部品1
100
AcDbLine
 10
11375.22067958068
 20
2333.112805903257
 30
0.0
 11
11405.22067958068
 21
2333.112805903257
 31
0.0
  0
LINE
  5
16AD9
330
747D
100
AcDbEntity
  8
部品1
 48
50.0
100
AcDbLine
 10
11410.22067958068
 20
2328.112805903257
 30
0.0
 11
11410.22067958068
 21
2188.112805903257
 31
0.0
  0
LINE
  5
16ADA
330
747D
100
AcDbEntity
  8
部品1
 48
50.0
100
AcDbLine
 10
11370.22067958068
 20
2328.112805903257
 30
0.0
 11
11370.22067958068
 21
2188.112805903257
 31
0.0
  0
LINE
  5
16ADB
330
747D
100
AcDbEntity
  8
部品1
100
AcDbLine
 10
11562.72067958068
 20
2288.112805903258
 30
0.0
 11
11562.72067958068
 21
2188.112805903257
 31
0.0
  0
LINE
  5
16B06
330
747D
100
AcDbEntity
  8
部品1
100
AcDbLine
 10
11410.22067958068
 20
2288.112805903256
 30
0.0
 11
13945.22067958068
 21
2288.112805903256
 31
0.0
  0
LINE
  5
16B07
330
747D
100
AcDbEntity
  8
部品1
100
AcDbLine
 10
13985.22067958068
 20
2288.112805903256
 30
0.0
 11
13992.72067958069
 21
2288.112805903256
 31
0.0
  0
LWPOLYLINE
  5
16C33
330
747D
100
AcDbEntity
  8
部品1
 48
50.0
100
AcDbPolyline
 90
        4
 70
     1
 43
0.0
 10
4125.954397928903
 20
3334.36280590325
 10
4128.854397928904
 20
3334.36280590325
 10
4128.854397928904
 20
3343.86280590325
 10
4125.954397928903
 20
3343.86280590325
  0
CIRCLE
  5
16C34
330
747D
100
AcDbEntity
  8
部品1
 48
50.0
100
AcDbCircle
 10
4127.404397928904
 20
3339.11280590325
 30
0.0
 40
9.0
  0
ARC
  5
16C35
330
747D
100
AcDbEntity
  8
細線
 48
50.0
100
AcDbCircle
 10
4127.404397928904
 20
3339.11280590325
 30
0.0
 40
4.0
100
AcDbArc
 50
111.2538091853132
 51
248.7461908146868
  0
ARC
  5
16C36
330
747D
100
AcDbEntity
  8
細線
 48
50.0
100
AcDbCircle
 10
4127.404397928904
 20
3339.11280590325
 30
0.0
 40
17.5
100
AcDbArc
 50
306.4837370612677
 51
233.5162629387323
  0
LINE
  5
16C37
330
747D
100
AcDbEntity
  8
細線
 48
50.0
100
AcDbLine
 10
4137.404397928899
 20
3315.253845322366
 30
0.0
 11
4137.404397928903
 21
3324.238331122608
 31
0.0
  0
LINE
  5
16C38
330
747D
100
AcDbEntity
  8
細線
 48
50.0
100
AcDbLine
 10
4117.404397928903
 20
3315.253845322369
 30
0.0
 11
4117.404397928903
 21
3324.238331122604
 31
0.0
  0
ARC
  5
16C39
330
747D
100
AcDbEntity
  8
細線
 48
50.0
100
AcDbCircle
 10
4127.404397928904
 20
3339.11280590325
 30
0.0
 40
26.5
100
AcDbArc
 50
249.3326835063939
 51
290.6673164933835
  0
ARC
  5
16C3A
330
747D
100
AcDbEntity
  8
細線
 48
50.0
100
AcDbCircle
 10
4136.404397928896
 20
3315.253845322366
 30
0.0
 40
1.0
100
AcDbArc
 50
290.6673164936062
 51
359.9999999998958
  0
ARC
  5
16C3B
330
747D
100
AcDbEntity
  8
細線
 48
50.0
100
AcDbCircle
 10
4118.404397928904
 20
3315.253845322369
 30
0.0
 40
1.0
100
AcDbArc
 50
180.0
 51
249.3326835066164
  0
ARC
  5
16C3C
330
747D
100
AcDbEntity
  8
細線
 48
50.0
100
AcDbCircle
 10
4116.404397928903
 20
3324.238331122604
 30
0.0
 40
1.0
100
AcDbArc
 50
0.0
 51
53.51626293873231
  0
ARC
  5
16C3D
330
747D
100
AcDbEntity
  8
細線
 48
50.0
100
AcDbCircle
 10
4138.404397928908
 20
3324.238331122608
 30
0.0
 40
1.0
100
AcDbArc
 50
126.4837370615127
 51
180.0
  0
ARC
  5
16C3E
330
747D
100
AcDbEntity
  8
細線
 48
50.0
100
AcDbCircle
 10
4127.404397928904
 20
3339.11280590325
 30
0.0
 40
21.5
100
AcDbArc
 50
255.8014401250294
 51
284.1985598749706
  0
ARC
  5
16C3F
330
747D
100
AcDbEntity
  8
細線
 48
50.0
100
AcDbCircle
 10
4127.404397928904
 20
3339.11280590325
 30
0.0
 40
16.5
100
AcDbArc
 50
251.9694646069326
 51
288.0305353930674
  0
LINE
  5
16C40
330
747D
100
AcDbEntity
  8
細線
 48
50.0
100
AcDbLine
 10
4132.904397928903
 20
3318.560433777443
 30
0.0
 11
4132.904397928903
 21
3323.13782546478
 31
0.0
  0
LINE
  5
16C41
330
747D
100
AcDbEntity
  8
細線
 48
50.0
100
AcDbLine
 10
4121.904397928903
 20
3318.560433777443
 30
0.0
 11
4121.904397928903
 21
3323.137825464777
 31
0.0
  0
ARC
  5
16C42
330
747D
100
AcDbEntity
  8
細線
 48
50.0
100
AcDbCircle
 10
4122.204397928906
 20
3323.137825464777
 30
0.0
 40
0.3
100
AcDbArc
 50
71.96946460693259
 51
180.0
  0
ARC
  5
16C43
330
747D
100
AcDbEntity
  8
細線
 48
50.0
100
AcDbCircle
 10
4132.604397928904
 20
3323.13782546478
 30
0.0
 40
0.3
100
AcDbArc
 50
0.0
 51
108.0305353930674
  0
ARC
  5
16C44
330
747D
100
AcDbEntity
  8
細線
 48
50.0
100
AcDbCircle
 10
4132.6043979289
 20
3318.560433777443
 30
0.0
 40
0.3
100
AcDbArc
 50
284.1985598747622
 51
0.0000000001042204
  0
ARC
  5
16C45
330
747D
100
AcDbEntity
  8
細線
 48
50.0
100
AcDbCircle
 10
4122.204397928906
 20
3318.560433777443
 30
0.0
 40
0.3
100
AcDbArc
 50
180.0
 51
255.8014401248081
  0
CIRCLE
  5
16C46
330
747D
100
AcDbEntity
  8
細線
 48
50.0
100
AcDbCircle
 10
4127.404397928904
 20
3339.11280590325
 30
0.0
 40
12.0
  0
ARC
  5
16C47
330
747D
100
AcDbEntity
  8
部品1
 48
50.0
100
AcDbCircle
 10
4127.404397928904
 20
3389.11280590325
 30
0.0
 40
8.5
100
AcDbArc
 50
114.315739171091
 51
245.684260828909
  0
CIRCLE
  5
16C48
330
747D
100
AcDbEntity
  8
細線
 48
50.0
100
AcDbCircle
 10
4127.404397928904
 20
3389.11280590325
 30
0.0
 40
4.5
  0
LWPOLYLINE
  5
16C49
330
747D
100
AcDbEntity
  8
部品1
 48
50.0
100
AcDbPolyline
 90
        2
 70
     0
 43
0.0
 10
4123.904397928903
 20
3407.787655300232
 10
4123.904397928903
 20
3396.858772595665
  0
CIRCLE
  5
16C4A
330
747D
100
AcDbEntity
  8
部品1
 48
50.0
100
AcDbCircle
 10
4127.404397928904
 20
3389.11280590325
 30
0.0
 40
19.0
  0
LWPOLYLINE
  5
16C4B
330
747D
100
AcDbEntity
  8
部品1
 48
50.0
100
AcDbPolyline
 90
        2
 70
     0
 43
0.0
 10
4123.904397928903
 20
3381.366839210834
 10
4123.904397928903
 20
3370.437956506267
  0
LWPOLYLINE
  5
16C4C
330
747D
100
AcDbEntity
  8
部品1
 48
50.0
100
AcDbPolyline
 90
        2
 70
     0
 43
0.0
 10
4130.904397928904
 20
3396.858772595665
 10
4130.904397928904
 20
3407.787655300232
  0
ARC
  5
16C4D
330
747D
100
AcDbEntity
  8
部品1
 48
50.0
100
AcDbCircle
 10
4127.404397928904
 20
3389.11280590325
 30
0.0
 40
8.5
100
AcDbArc
 50
294.315739171091
 51
65.68426082890896
  0
LWPOLYLINE
  5
16C4E
330
747D
100
AcDbEntity
  8
部品1
 48
50.0
100
AcDbPolyline
 90
        2
 70
     0
 43
0.0
 10
4130.904397928904
 20
3370.437956506267
 10
4130.904397928904
 20
3381.366839210834
  0
ARC
  5
16C4F
330
747D
100
AcDbEntity
  8
細線
 48
50.0
100
AcDbCircle
 10
4127.404397928904
 20
3389.11280590325
 30
0.0
 40
16.5
100
AcDbArc
 50
332.0012352654438
 51
27.99876473455621
  0
ARC
  5
16C50
330
747D
100
AcDbEntity
  8
細線
 48
50.0
100
AcDbCircle
 10
4127.404397928904
 20
3389.11280590325
 30
0.0
 40
14.0
100
AcDbArc
 50
326.4074436112986
 51
33.59255638870134
  0
LINE
  5
16C51
330
747D
100
AcDbEntity
  8
細線
 48
50.0
100
AcDbLine
 10
4112.835595644572
 20
3396.858772595665
 30
0.0
 11
4115.742494139214
 21
3396.858772595665
 31
0.0
  0
LINE
  5
16C52
330
747D
100
AcDbEntity
  8
細線
 48
50.0
100
AcDbLine
 10
4112.835595644572
 20
3381.366839210834
 30
0.0
 11
4115.742494139214
 21
3381.366839210834
 31
0.0
  0
LINE
  5
16C53
330
747D
100
AcDbEntity
  8
細線
 48
50.0
100
AcDbLine
 10
4139.066301718592
 20
3396.858772595665
 30
0.0
 11
4141.973200213239
 21
3396.858772595665
 31
0.0
  0
LINE
  5
16C54
330
747D
100
AcDbEntity
  8
細線
 48
50.0
100
AcDbLine
 10
4139.066301718592
 20
3381.366839210834
 30
0.0
 11
4141.973200213239
 21
3381.366839210834
 31
0.0
  0
ARC
  5
16C55
330
747D
100
AcDbEntity
  8
細線
 48
50.0
100
AcDbCircle
 10
4127.404397928904
 20
3389.11280590325
 30
0.0
 40
14.0
100
AcDbArc
 50
146.4074436112986
 51
213.5925563887013
  0
ARC
  5
16C56
330
747D
100
AcDbEntity
  8
細線
 48
50.0
100
AcDbCircle
 10
4127.404397928904
 20
3389.11280590325
 30
0.0
 40
16.5
100
AcDbArc
 50
152.0012352654438
 51
207.9987647345562
  0
ARC
  5
16C57
330
747D
100
AcDbEntity
  8
部品1
 48
50.0
100
AcDbCircle
 10
4100.904397928903
 20
3414.612805903249
 30
0.0
 40
5.0
100
AcDbArc
 50
90.0
 51
180.0
  0
ARC
  5
16C58
330
747D
100
AcDbEntity
  8
部品1
 48
50.0
100
AcDbCircle
 10
4100.904397928903
 20
3303.612805903249
 30
0.0
 40
5.0
100
AcDbArc
 50
180.0
 51
270.0
  0
ARC
  5
16C59
330
747D
100
AcDbEntity
  8
部品1
 48
50.0
100
AcDbCircle
 10
4153.904397928903
 20
3303.612805903249
 30
0.0
 40
5.0
100
AcDbArc
 50
270.0
 51
0.0
  0
ARC
  5
16C5A
330
747D
100
AcDbEntity
  8
部品1
 48
50.0
100
AcDbCircle
 10
4153.904397928903
 20
3414.612805903249
 30
0.0
 40
5.0
100
AcDbArc
 50
0.0
 51
90.0
  0
LINE
  5
16C5B
330
747D
100
AcDbEntity
  8
部品1
 48
50.0
100
AcDbLine
 10
4095.904397928904
 20
3303.612805903249
 30
0.0
 11
4095.904397928904
 21
3414.612805903249
 31
0.0
  0
LINE
  5
16C5C
330
747D
100
AcDbEntity
  8
部品1
 48
50.0
100
AcDbLine
 10
4153.904397928903
 20
3298.61280590325
 30
0.0
 11
4100.904397928903
 21
3298.61280590325
 31
0.0
  0
LINE
  5
16C5D
330
747D
100
AcDbEntity
  8
部品1
 48
50.0
100
AcDbLine
 10
4158.904397928903
 20
3414.612805903249
 30
0.0
 11
4158.904397928903
 21
3303.612805903249
 31
0.0
  0
ENDSEC
  0
SECTION
  2
OBJECTS
  0
DICTIONARY
  5
7471
330
0
100
AcDbDictionary
281
     1
  3
ACAD_COLOR
350
13471
  3
ACAD_GROUP
350
7472
  3
ACAD_LAYOUT
350
13472
  3
ACAD_MATERIAL
350
13470
  3
ACAD_MLINESTYLE
350
7473
  3
ACAD_PLOTSETTINGS
350
13473
  3
ACAD_PLOTSTYLENAME
350
1346E
  3
ACDBHEADERROUNDTRIPXREC
350
16C6D
  3
AcDbVariableDictionary
350
16C69
  3
CONTENTDICTIONARY
350
E71C
  3
DRAWINGVARIABLESDICT
350
F3B9
  0
DICTIONARY
  5
13537
330
7467
100
AcDbDictionary
280
     1
281
     1
  3
ACAD_LAYERSTATES
360
13538
  0
DICTIONARY
  5
13471
102
{ACAD_REACTORS
330
7471
102
}
330
7471
100
AcDbDictionary
281
     1
  0
DICTIONARY
  5
7472
102
{ACAD_REACTORS
330
7471
102
}
330
7471
100
AcDbDictionary
281
     1
  3
*A1
350
16A0F
  0
DICTIONARY
  5
13472
102
{ACAD_REACTORS
330
7471
102
}
330
7471
100
AcDbDictionary
281
     1
  3
Model
350
13474
  3
レイアウト1
350
13475
  0
DICTIONARY
  5
13470
102
{ACAD_REACTORS
330
7471
102
}
330
7471
100
AcDbDictionary
281
     1
  0
DICTIONARY
  5
7473
102
{ACAD_REACTORS
330
7471
102
}
330
7471
100
AcDbDictionary
281
     1
  3
STANDARD
350
7480
  0
DICTIONARY
  5
13473
102
{ACAD_REACTORS
330
7471
102
}
330
7471
100
AcDbDictionary
281
     1
  0
ACDBDICTIONARYWDFLT
  5
1346E
102
{ACAD_REACTORS
330
7471
102
}
330
7471
100
AcDbDictionary
281
     1
  3
Normal
350
1346F
100
AcDbDictionaryWithDefault
340
1346F
  0
DICTIONARY
  5
16C6D
102
{ACAD_REACTORS
330
7471
102
}
330
7471
100
AcDbDictionary
281
     1
  3
COLORDICT
350
16C6F
  3
MATERIALDICT
350
16C6E
  0
DICTIONARY
  5
16C69
102
{ACAD_REACTORS
330
7471
102
}
330
7471
100
AcDbDictionary
281
     1
  3
DIMASSOC
350
16C6A
  3
PROJECTNAME
350
16C6B
  0
DICTIONARY
  5
E71C
102
{ACAD_REACTORS
330
7471
102
}
330
7471
100
AcDbDictionary
281
     1
  0
DICTIONARY
  5
F3B9
102
{ACAD_REACTORS
330
7471
102
}
330
7471
100
AcDbDictionary
281
     1
1001
DRAWINGVARIABLESXDATA
1000
POLARMODE
1000
1
  0
DICTIONARY
  5
13538
102
{ACAD_REACTORS
330
13537
102
}
330
13537
100
AcDbDictionary
281
     1
  0
GROUP
  5
16A0F
102
{ACAD_REACTORS
330
7472
102
}
330
7472
100
AcDbGroup
300

 70
     1
 71
     1
340
165A3
340
165A2
340
165A1
340
165A0
  0
LAYOUT
  5
13474
102
{ACAD_XDICTIONARY
360
16C70
102
}
102
{ACAD_REACTORS
330
13472
102
}
330
13472
100
AcDbPlotSettings
  1

  2
EPSON LP-8300
  4

  6

 40
0.0
 41
0.0
 42
0.0
 43
0.0
 44
0.0
 45
0.0
 46
0.0
 47
0.0
 48
0.0
 49
0.0
140
0.0
141
0.0
142
1.0
143
1.0
 70
  1712
 72
     0
 73
     0
 74
     0
  7
inaba.ctb
 75
     0
147
1.0
148
0.0
149
0.0
100
AcDbLayout
  1
Model
 70
     1
 71
     0
 10
0.0
 20
0.0
 11
12.0
 21
9.0
 12
0.0
 22
0.0
 32
0.0
 14
0.0
 24
0.0
 34
0.0
 15
0.0
 25
0.0
 35
0.0
146
0.0
 13
0.0
 23
0.0
 33
0.0
 16
1.0
 26
0.0
 36
0.0
 17
0.0
 27
1.0
 37
0.0
 76
     0
330
747D
  0
LAYOUT
  5
13475
102
{ACAD_XDICTIONARY
360
16C72
102
}
102
{ACAD_REACTORS
330
13472
102
}
330
13472
100
AcDbPlotSettings
  1

  2
EPSON LP-8300
  4

  6

 40
0.0
 41
0.0
 42
0.0
 43
0.0
 44
0.0
 45
0.0
 46
0.0
 47
0.0
 48
0.0
 49
0.0
140
0.0
141
0.0
142
1.0
143
1.0
 70
   688
 72
     0
 73
     0
 74
     5
  7
inaba.ctb
 75
    16
147
1.0
148
0.0
149
0.0
100
AcDbLayout
  1
レイアウト1
 70
     0
 71
     1
 10
0.0
 20
0.0
 11
420.0
 21
297.0
 12
0.0
 22
0.0
 32
0.0
 14
1.000000000000000E+20
 24
1.000000000000000E+20
 34
1.000000000000000E+20
 15
-1.000000000000000E+20
 25
-1.000000000000000E+20
 35
-1.000000000000000E+20
146
0.0
 13
0.0
 23
0.0
 33
0.0
 16
1.0
 26
0.0
 36
0.0
 17
0.0
 27
1.0
 37
0.0
 76
     0
330
747A
  0
MLINESTYLE
  5
7480
102
{ACAD_REACTORS
330
7473
102
}
330
7473
100
AcDbMlineStyle
  2
STANDARD
 70
     0
  3

 62
     0
 51
90.0
 52
90.0
 71
     2
 49
0.5
 62
   256
  6
BYLAYER
 49
-0.5
 62
   256
  6
BYLAYER
  0
ACDBPLACEHOLDER
  5
1346F
102
{ACAD_REACTORS
330
1346E
102
}
330
1346E
  0
XRECORD
  5
16C6F
102
{ACAD_REACTORS
330
16C6D
102
}
330
16C6D
100
AcDbXrecord
280
     1
340
13471
  0
XRECORD
  5
16C6E
102
{ACAD_REACTORS
330
16C6D
102
}
330
16C6D
100
AcDbXrecord
280
     1
340
13470
  0
DICTIONARYVAR
  5
16C6A
102
{ACAD_REACTORS
330
16C69
102
}
330
16C69
100
DictionaryVariables
280
     0
  1
1
  0
DICTIONARYVAR
  5
16C6B
102
{ACAD_REACTORS
330
16C69
102
}
330
16C69
100
DictionaryVariables
280
     0
  1

  0
DICTIONARY
  5
16C70
330
13474
100
AcDbDictionary
280
     1
281
     1
  3
ACAD_XREC_ROUNDTRIP
360
16C71
  0
DICTIONARY
  5
16C72
330
13475
100
AcDbDictionary
280
     1
281
     1
  3
ACAD_XREC_ROUNDTRIP
360
16C73
  0
XRECORD
  5
16C71
102
{ACAD_REACTORS
330
16C70
102
}
330
16C70
100
AcDbXrecord
280
     1
102
SHADEPLOT
 70
     0
102
SHADEPLOTRESLEVEL
 70
     2
102
SHADEPLOTCUSTOMDPI
 70
   300
  0
XRECORD
  5
16C73
102
{ACAD_REACTORS
330
16C72
102
}
330
16C72
100
AcDbXrecord
280
     1
102
SHADEPLOT
 70
     0
102
SHADEPLOTRESLEVEL
 70
     2
102
SHADEPLOTCUSTOMDPI
 70
   300
  0
ENDSEC
  0
EOF
