  0
SECTION
  2
HEADER
  9
$ACADVER
  1
AC1015
  9
$ACADMAINTVER
 70
    20
  9
$DWGCODEPAGE
  3
ANSI_932
  9
$INSBASE
 10
0.0
 20
0.0
 30
0.0
  9
$EXTMIN
 10
139.9999999999995
 20
-0.0000000000000909
 30
0.0
  9
$EXTMAX
 10
16307.2
 20
11409.6
 30
0.0
  9
$LIMMIN
 10
0.0
 20
0.0
  9
$LIMMAX
 10
16800.0
 20
11880.0
  9
$ORTHOMODE
 70
     0
  9
$REGENMODE
 70
     1
  9
$FILLMODE
 70
     1
  9
$QTEXTMODE
 70
     0
  9
$MIRRTEXT
 70
     1
  9
$LTSCALE
 40
20.0
  9
$ATTMODE
 70
     1
  9
$TEXTSIZE
 40
100.0
  9
$TRACEWID
 40
1.0
  9
$TEXTSTYLE
  7
STYLE3
  9
$CLAYER
  8
部品1
  9
$CELTYPE
  6
BYLAYER
  9
$CECOLOR
 62
   256
  9
$CELTSCALE
 40
50.0
  9
$DISPSILH
 70
     0
  9
$DIMSCALE
 40
40.0
  9
$DIMASZ
 40
0.5
  9
$DIMEXO
 40
0.5
  9
$DIMDLI
 40
7.0
  9
$DIMRND
 40
0.0
  9
$DIMDLE
 40
0.0
  9
$DIMEXE
 40
1.0
  9
$DIMTP
 40
0.0
  9
$DIMTM
 40
0.0
  9
$DIMTXT
 40
3.0
  9
$DIMCEN
 40
0.0
  9
$DIMTSZ
 40
0.0
  9
$DIMTOL
 70
     0
  9
$DIMLIM
 70
     0
  9
$DIMTIH
 70
     0
  9
$DIMTOH
 70
     0
  9
$DIMSE1
 70
     0
  9
$DIMSE2
 70
     0
  9
$DIMTAD
 70
     3
  9
$DIMZIN
 70
     8
  9
$DIMBLK
  1

  9
$DIMASO
 70
     1
  9
$DIMSHO
 70
     1
  9
$DIMPOST
  1

  9
$DIMAPOST
  1

  9
$DIMALT
 70
     0
  9
$DIMALTD
 70
     2
  9
$DIMALTF
 40
0.0394
  9
$DIMLFAC
 40
1.0
  9
$DIMTOFL
 70
     1
  9
$DIMTVP
 40
0.0
  9
$DIMTIX
 70
     1
  9
$DIMSOXD
 70
     1
  9
$DIMSAH
 70
     1
  9
$DIMBLK1
  1
DOT
  9
$DIMBLK2
  1
DOT
  9
$DIMSTYLE
  2
INABA_S40
  9
$DIMCLRD
 70
     0
  9
$DIMCLRE
 70
     0
  9
$DIMCLRT
 70
     7
  9
$DIMTFAC
 40
1.0
  9
$DIMGAP
 40
0.8
  9
$DIMJUST
 70
     0
  9
$DIMSD1
 70
     0
  9
$DIMSD2
 70
     0
  9
$DIMTOLJ
 70
     1
  9
$DIMTZIN
 70
     0
  9
$DIMALTZ
 70
     0
  9
$DIMALTTZ
 70
     0
  9
$DIMUPT
 70
     0
  9
$DIMDEC
 70
     2
  9
$DIMTDEC
 70
     2
  9
$DIMALTU
 70
     2
  9
$DIMALTTD
 70
     2
  9
$DIMTXSTY
  7
STYLE1
  9
$DIMAUNIT
 70
     0
  9
$DIMADEC
 70
     0
  9
$DIMALTRND
 40
0.0
  9
$DIMAZIN
 70
     0
  9
$DIMDSEP
 70
    46
  9
$DIMATFIT
 70
     3
  9
$DIMFRAC
 70
     0
  9
$DIMLDRBLK
  1

  9
$DIMLUNIT
 70
     2
  9
$DIMLWD
 70
    -2
  9
$DIMLWE
 70
    -2
  9
$DIMTMOVE
 70
     0
  9
$LUNITS
 70
     2
  9
$LUPREC
 70
     1
  9
$SKETCHINC
 40
1.0
  9
$FILLETRAD
 40
5.0
  9
$AUNITS
 70
     0
  9
$AUPREC
 70
     0
  9
$MENU
  1
acad
  9
$ELEVATION
 40
0.0
  9
$PELEVATION
 40
0.0
  9
$THICKNESS
 40
0.0
  9
$LIMCHECK
 70
     0
  9
$CHAMFERA
 40
0.0
  9
$CHAMFERB
 40
0.0
  9
$CHAMFERC
 40
0.0
  9
$CHAMFERD
 40
0.0
  9
$SKPOLY
 70
     0
  9
$TDCREATE
 40
2451590.492424190
  9
$TDUCREATE
 40
2451590.117424190
  9
$TDUPDATE
 40
2455575.701419989
  9
$TDUUPDATE
 40
2455575.326419989
  9
$TDINDWG
 40
0.1153841435
  9
$TDUSRTIMER
 40
0.1153841435
  9
$USRTIMER
 70
     1
  9
$ANGBASE
 50
0.0
  9
$ANGDIR
 70
     0
  9
$PDMODE
 70
     3
  9
$PDSIZE
 40
2.0
  9
$PLINEWID
 40
0.0
  9
$SPLFRAME
 70
     0
  9
$SPLINETYPE
 70
     6
  9
$SPLINESEGS
 70
     8
  9
$HANDSEED
  5
14B94
  9
$SURFTAB1
 70
     6
  9
$SURFTAB2
 70
     6
  9
$SURFTYPE
 70
     6
  9
$SURFU
 70
     6
  9
$SURFV
 70
     6
  9
$UCSBASE
  2

  9
$UCSNAME
  2

  9
$UCSORG
 10
0.0
 20
0.0
 30
0.0
  9
$UCSXDIR
 10
1.0
 20
0.0
 30
0.0
  9
$UCSYDIR
 10
0.0
 20
1.0
 30
0.0
  9
$UCSORTHOREF
  2

  9
$UCSORTHOVIEW
 70
     0
  9
$UCSORGTOP
 10
0.0
 20
0.0
 30
0.0
  9
$UCSORGBOTTOM
 10
0.0
 20
0.0
 30
0.0
  9
$UCSORGLEFT
 10
0.0
 20
0.0
 30
0.0
  9
$UCSORGRIGHT
 10
0.0
 20
0.0
 30
0.0
  9
$UCSORGFRONT
 10
0.0
 20
0.0
 30
0.0
  9
$UCSORGBACK
 10
0.0
 20
0.0
 30
0.0
  9
$PUCSBASE
  2

  9
$PUCSNAME
  2

  9
$PUCSORG
 10
0.0
 20
0.0
 30
0.0
  9
$PUCSXDIR
 10
1.0
 20
0.0
 30
0.0
  9
$PUCSYDIR
 10
0.0
 20
1.0
 30
0.0
  9
$PUCSORTHOREF
  2

  9
$PUCSORTHOVIEW
 70
     0
  9
$PUCSORGTOP
 10
0.0
 20
0.0
 30
0.0
  9
$PUCSORGBOTTOM
 10
0.0
 20
0.0
 30
0.0
  9
$PUCSORGLEFT
 10
0.0
 20
0.0
 30
0.0
  9
$PUCSORGRIGHT
 10
0.0
 20
0.0
 30
0.0
  9
$PUCSORGFRONT
 10
0.0
 20
0.0
 30
0.0
  9
$PUCSORGBACK
 10
0.0
 20
0.0
 30
0.0
  9
$USERI1
 70
     0
  9
$USERI2
 70
     0
  9
$USERI3
 70
     0
  9
$USERI4
 70
     0
  9
$USERI5
 70
     0
  9
$USERR1
 40
0.0
  9
$USERR2
 40
0.0
  9
$USERR3
 40
0.0
  9
$USERR4
 40
0.0
  9
$USERR5
 40
0.0
  9
$WORLDVIEW
 70
     1
  9
$SHADEDGE
 70
     3
  9
$SHADEDIF
 70
    70
  9
$TILEMODE
 70
     1
  9
$MAXACTVP
 70
    16
  9
$PINSBASE
 10
0.0
 20
0.0
 30
0.0
  9
$PLIMCHECK
 70
     0
  9
$PEXTMIN
 10
1.000000000000000E+20
 20
1.000000000000000E+20
 30
1.000000000000000E+20
  9
$PEXTMAX
 10
-1.000000000000000E+20
 20
-1.000000000000000E+20
 30
-1.000000000000000E+20
  9
$PLIMMIN
 10
0.0
 20
0.0
  9
$PLIMMAX
 10
420.0
 20
297.0
  9
$UNITMODE
 70
     0
  9
$VISRETAIN
 70
     0
  9
$PLINEGEN
 70
     0
  9
$PSLTSCALE
 70
     0
  9
$TREEDEPTH
 70
  3020
  9
$CMLSTYLE
  2
STANDARD
  9
$CMLJUST
 70
     0
  9
$CMLSCALE
 40
1.0
  9
$PROXYGRAPHICS
 70
     1
  9
$MEASUREMENT
 70
     1
  9
$CELWEIGHT
370
    -1
  9
$ENDCAPS
280
     0
  9
$JOINSTYLE
280
     0
  9
$LWDISPLAY
290
     0
  9
$INSUNITS
 70
     0
  9
$HYPERLINKBASE
  1

  9
$STYLESHEET
  1

  9
$XEDIT
290
     1
  9
$CEPSNTYPE
380
     0
  9
$PSTYLEMODE
290
     1
  9
$FINGERPRINTGUID
  2
{EF3EBBC4-2D86-4918-AD11-FD29FCA24FD2}
  9
$VERSIONGUID
  2
{66CDA0E5-0662-4ECD-8400-7F07DE71BB5F}
  9
$EXTNAMES
290
     1
  9
$PSVPSCALE
 40
0.0
  9
$OLESTARTUP
290
     0
  0
ENDSEC
  0
SECTION
  2
CLASSES
  0
CLASS
  1
ACDBDICTIONARYWDFLT
  2
AcDbDictionaryWithDefault
  3
ObjectDBX Classes
 90
        0
280
     0
281
     0
  0
CLASS
  1
DICTIONARYVAR
  2
AcDbDictionaryVar
  3
ObjectDBX Classes
 90
        0
280
     0
281
     0
  0
CLASS
  1
ACDBPLACEHOLDER
  2
AcDbPlaceHolder
  3
ObjectDBX Classes
 90
        0
280
     0
281
     0
  0
CLASS
  1
LAYOUT
  2
AcDbLayout
  3
ObjectDBX Classes
 90
        0
280
     0
281
     0
  0
ENDSEC
  0
SECTION
  2
TABLES
  0
TABLE
  2
VPORT
  5
746D
330
0
100
AcDbSymbolTable
 70
     2
  0
VPORT
  5
14B8C
330
746D
100
AcDbSymbolTableRecord
100
AcDbViewportTableRecord
  2
*Active
 70
     0
 10
0.0
 20
0.0
 11
1.0
 21
1.0
 12
8223.761025238502
 22
6348.683291179126
 13
0.0
 23
0.0
 14
10.0
 24
10.0
 15
10.0
 25
10.0
 16
0.0
 26
0.0
 36
1.0
 17
0.0
 27
0.0
 37
0.0
 40
12805.56644836532
 41
1.525925925925925
 42
50.0
 43
0.0
 44
0.0
 50
0.0
 51
0.0
 71
     0
 72
     0
 73
     1
 74
     0
 75
     0
 76
     0
 77
     0
 78
     0
281
     0
 65
     1
110
0.0
120
0.0
130
0.0
111
1.0
121
0.0
131
0.0
112
0.0
122
1.0
132
0.0
 79
     0
146
0.0
  0
ENDTAB
  0
TABLE
  2
LTYPE
  5
746A
330
0
100
AcDbSymbolTable
 70
     4
  0
LTYPE
  5
7477
330
746A
100
AcDbSymbolTableRecord
100
AcDbLinetypeTableRecord
  2
BYBLOCK
 70
     0
  3

 72
    65
 73
     0
 40
0.0
  0
LTYPE
  5
7478
330
746A
100
AcDbSymbolTableRecord
100
AcDbLinetypeTableRecord
  2
BYLAYER
 70
     0
  3

 72
    65
 73
     0
 40
0.0
  0
LTYPE
  5
7479
330
746A
100
AcDbSymbolTableRecord
100
AcDbLinetypeTableRecord
  2
CONTINUOUS
 70
     0
  3
Solid line
 72
    65
 73
     0
 40
0.0
  0
LTYPE
  5
7816
330
746A
100
AcDbSymbolTableRecord
100
AcDbLinetypeTableRecord
  2
CENTER
 70
     0
  3
____ _ ____ _ ____ _ ____ _ ____ _ ____ _ ____ 
 72
    65
 73
     4
 40
2.0
 49
1.25
 74
     0
 49
-0.25
 74
     0
 49
0.25
 74
     0
 49
-0.25
 74
     0
  0
LTYPE
  5
781A
330
746A
100
AcDbSymbolTableRecord
100
AcDbLinetypeTableRecord
  2
HIDDEN
 70
     0
  3
__ __ __ __ __ __ __ __ __ __ __ __ __ __ __ __
 72
    65
 73
     2
 40
0.375
 49
0.25
 74
     0
 49
-0.125
 74
     0
  0
LTYPE
  5
781B
330
746A
100
AcDbSymbolTableRecord
100
AcDbLinetypeTableRecord
  2
PHANTOM
 70
     0
  3
______  __  __  ______  __  __  ______  __  __ 
 72
    65
 73
     6
 40
2.5
 49
1.25
 74
     0
 49
-0.25
 74
     0
 49
0.25
 74
     0
 49
-0.25
 74
     0
 49
0.25
 74
     0
 49
-0.25
 74
     0
  0
ENDTAB
  0
TABLE
  2
LAYER
  5
7467
102
{ACAD_XDICTIONARY
360
13217
102
}
330
0
100
AcDbSymbolTable
 70
    13
  0
LAYER
  5
7474
330
7467
100
AcDbSymbolTableRecord
100
AcDbLayerTableRecord
  2
0
 70
     0
 62
     7
  6
CONTINUOUS
370
    -3
390
13098
  0
LAYER
  5
DEB2
330
7467
100
AcDbSymbolTableRecord
100
AcDbLayerTableRecord
  2
センター
 70
     0
 62
     3
  6
CENTER
370
    -3
390
13098
  0
LAYER
  5
DEB3
330
7467
100
AcDbSymbolTableRecord
100
AcDbLayerTableRecord
  2
寸法
 70
     0
 62
     4
  6
CONTINUOUS
370
    -3
390
13098
  0
LAYER
  5
DEB4
330
7467
100
AcDbSymbolTableRecord
100
AcDbLayerTableRecord
  2
部品1
 70
     0
 62
     7
  6
CONTINUOUS
370
    -3
390
13098
  0
LAYER
  5
DEB5
330
7467
100
AcDbSymbolTableRecord
100
AcDbLayerTableRecord
  2
補助
 70
     0
 62
    -1
  6
CONTINUOUS
370
    -3
390
13098
  0
LAYER
  5
DEB6
330
7467
100
AcDbSymbolTableRecord
100
AcDbLayerTableRecord
  2
文字
 70
     0
 62
     7
  6
CONTINUOUS
370
    -3
390
13098
  0
LAYER
  5
F255
330
7467
100
AcDbSymbolTableRecord
100
AcDbLayerTableRecord
  2
DEFPOINTS
 70
     0
 62
     7
  6
CONTINUOUS
290
     0
370
    -3
390
13098
  0
LAYER
  5
10B54
330
7467
100
AcDbSymbolTableRecord
100
AcDbLayerTableRecord
  2
仕様書枠
 70
     0
 62
   230
  6
CONTINUOUS
370
    -3
390
13098
  0
LAYER
  5
11729
330
7467
100
AcDbSymbolTableRecord
100
AcDbLayerTableRecord
  2
Ｇ．Ｌ
 70
     0
 62
    30
  6
CONTINUOUS
370
    -3
390
13098
  0
LAYER
  5
1173F
330
7467
100
AcDbSymbolTableRecord
100
AcDbLayerTableRecord
  2
細線
 70
     0
 62
     5
  6
CONTINUOUS
370
    -3
390
13098
  0
LAYER
  5
11740
330
7467
100
AcDbSymbolTableRecord
100
AcDbLayerTableRecord
  2
点線
 70
     0
 62
     2
  6
HIDDEN
370
    -3
390
13098
  0
LAYER
  5
11905
330
7467
100
AcDbSymbolTableRecord
100
AcDbLayerTableRecord
  2
破線
 70
     0
 62
     2
  6
HIDDEN
370
    -3
390
13098
  0
LAYER
  5
13216
330
7467
100
AcDbSymbolTableRecord
100
AcDbLayerTableRecord
  2
Ｇ_Ｌ
 70
     0
 62
    30
  6
CONTINUOUS
370
    -3
390
13098
  0
ENDTAB
  0
TABLE
  2
STYLE
  5
7468
330
0
100
AcDbSymbolTable
 70
     7
  0
STYLE
  5
7475
330
7468
100
AcDbSymbolTableRecord
100
AcDbTextStyleTableRecord
  2
STANDARD
 70
     0
 40
0.0
 41
1.0
 50
0.0
 71
     0
 42
4.0
  3
txt
  4
C:\AutoCAD LT\bigfont.shx
  0
STYLE
  5
763C
330
7468
100
AcDbSymbolTableRecord
100
AcDbTextStyleTableRecord
  2
MSMINCHO
 70
     0
 40
0.0
 41
1.0
 50
0.0
 71
     0
 42
1.199999999999999
  3
C:\AutoCAD LT\msminch2.TTF
  4

  0
STYLE
  5
F5E9
330
7468
100
AcDbSymbolTableRecord
100
AcDbTextStyleTableRecord
  2

 70
     1
 40
0.0
 41
1.0
 50
0.0
 71
     0
 42
4.0
  3
ltypeshp.shx
  4

  0
STYLE
  5
F706
330
7468
100
AcDbSymbolTableRecord
100
AcDbTextStyleTableRecord
  2
STYLE1
 70
     0
 40
0.0
 41
1.0
 50
0.0
 71
     0
 42
4.0
  3
isocp.shx
  4
bigfont.shx
  0
STYLE
  5
103BF
330
7468
100
AcDbSymbolTableRecord
100
AcDbTextStyleTableRecord
  2
STYLE2
 70
     0
 40
0.0
 41
1.0
 50
0.0
 71
     0
 42
100.0
  3
MS PGothic.ttf
  4

1001
ACAD
1000
MS PGothic
1071
    32818
  0
STYLE
  5
10BAA
330
7468
100
AcDbSymbolTableRecord
100
AcDbTextStyleTableRecord
  2
STYLE3
 70
     0
 40
0.0
 41
1.0
 50
0.0
 71
     0
 42
100.0
  3

  4

1001
ACAD
1000
DFPGothic-EB
1071
    32818
  0
STYLE
  5
11906
330
7468
100
AcDbSymbolTableRecord
100
AcDbTextStyleTableRecord
  2
MSGOTHIC
 70
     0
 40
0.0
 41
1.0
 50
0.0
 71
     0
 42
3.5
  3
msgothi2.ttf
  4

  0
ENDTAB
  0
TABLE
  2
VIEW
  5
746B
330
0
100
AcDbSymbolTable
 70
     0
  0
ENDTAB
  0
TABLE
  2
UCS
  5
746C
330
0
100
AcDbSymbolTable
 70
     0
  0
ENDTAB
  0
TABLE
  2
APPID
  5
746E
330
0
100
AcDbSymbolTable
 70
     6
  0
APPID
  5
7476
330
746E
100
AcDbSymbolTableRecord
100
AcDbRegAppTableRecord
  2
ACAD
 70
     0
  0
APPID
  5
DEA9
330
746E
100
AcDbSymbolTableRecord
100
AcDbRegAppTableRecord
  2
CONTENTBLOCKICON
 70
     0
  0
APPID
  5
DEAA
330
746E
100
AcDbSymbolTableRecord
100
AcDbRegAppTableRecord
  2
CONTENTBLOCKDESCRIPTION
 70
     0
  0
APPID
  5
E71D
330
746E
100
AcDbSymbolTableRecord
100
AcDbRegAppTableRecord
  2
CONTENTTABDATA
 70
     0
  0
APPID
  5
E71E
330
746E
100
AcDbSymbolTableRecord
100
AcDbRegAppTableRecord
  2
CONTENTCURRENTTAB
 70
     0
  0
APPID
  5
F3BA
330
746E
100
AcDbSymbolTableRecord
100
AcDbRegAppTableRecord
  2
DRAWINGVARIABLESXDATA
 70
     0
  0
ENDTAB
  0
TABLE
  2
DIMSTYLE
  5
746F
330
0
100
AcDbSymbolTable
 70
     6
100
AcDbDimStyleTable
 71
     0
  0
DIMSTYLE
105
7484
330
746F
100
AcDbSymbolTableRecord
100
AcDbDimStyleTableRecord
  2
JIS
 70
     0
 41
2.5
 42
1.0
 43
7.0
 44
1.0
 73
     0
 74
     0
 77
     1
 78
     8
140
2.5
141
0.0
143
0.0394
147
0.0
172
     1
174
     1
175
     1
340
7475
  0
DIMSTYLE
105
F236
102
{ACAD_REACTORS
330
1378C
330
13797
330
137CA
330
137DE
330
137DF
330
13800
330
13801
330
13802
330
13803
330
13804
330
13F3C
330
144D8
330
147A4
330
147A5
330
147A8
102
}
330
746F
100
AcDbSymbolTableRecord
100
AcDbDimStyleTableRecord
  2
INABA_S40
 70
     0
 40
40.0
 41
2.5
 42
0.5
 43
7.0
 44
1.5
 73
     0
 74
     0
 77
     3
 78
     8
140
3.0
141
0.0
143
0.0394
147
1.0
172
     1
173
     1
174
     1
175
     1
178
     7
289
     0
340
7475
  0
DIMSTYLE
105
F71F
102
{ACAD_REACTORS
330
136A5
330
136B4
330
136B5
330
136B6
330
13F3F
330
13F40
330
13F41
330
13F71
330
13F75
330
13F76
330
13F77
330
13F85
330
13F94
330
147A9
102
}
330
746F
100
AcDbSymbolTableRecord
100
AcDbDimStyleTableRecord
  2
INABA_S40G
 70
     0
 40
40.0
 41
2.5
 42
0.5
 43
7.0
 44
1.5
 73
     0
 74
     0
 77
     3
 78
     8
140
3.0
141
0.0
143
0.0394
147
1.0
172
     1
173
     1
174
     1
175
     1
178
     7
271
     1
340
F706
341
F770
343
F770
344
F770
  0
DIMSTYLE
105
11907
330
746F
100
AcDbSymbolTableRecord
100
AcDbDimStyleTableRecord
  2
INABA_S50
 70
     0
 40
50.0
 41
0.5
 42
0.5
 43
7.0
 44
1.0
 73
     0
 74
     0
 77
     3
 78
     8
140
2.5
141
0.0
143
0.0394
147
0.8
172
     1
173
     1
174
     1
175
     1
178
     7
271
     2
272
     2
289
     0
340
7475
341
F744
343
F744
344
F744
  0
DIMSTYLE
105
11908
330
746F
100
AcDbSymbolTableRecord
100
AcDbDimStyleTableRecord
  2
INABA_S50G
 70
     0
 41
125.0
 42
25.0
 43
7.0
 44
75.0
 73
     0
 74
     0
 77
     3
 78
     8
140
150.0
141
0.0
143
0.0394
147
25.0
172
     1
173
     1
174
     1
175
     1
178
     7
271
     1
340
F706
341
F770
343
F770
344
F770
  0
DIMSTYLE
105
14B23
330
746F
100
AcDbSymbolTableRecord
100
AcDbDimStyleTableRecord
  2
INABA_S20G
 70
     0
 40
20.0
 41
2.5
 42
0.5
 43
7.0
 44
1.5
 73
     0
 74
     0
 77
     3
 78
     8
140
3.0
141
0.0
143
0.0394
147
1.0
172
     1
173
     1
174
     1
178
     7
271
     1
340
F706
341
F770
343
F770
344
F770
  0
ENDTAB
  0
TABLE
  2
BLOCK_RECORD
  5
7466
330
0
100
AcDbSymbolTable
 70
    32
  0
BLOCK_RECORD
  5
747D
330
7466
100
AcDbSymbolTableRecord
100
AcDbBlockTableRecord
  2
*MODEL_SPACE
340
1309D
  0
BLOCK_RECORD
  5
747A
330
7466
100
AcDbSymbolTableRecord
100
AcDbBlockTableRecord
  2
*PAPER_SPACE
340
1309E
  0
BLOCK_RECORD
  5
ECB3
330
7466
100
AcDbSymbolTableRecord
100
AcDbBlockTableRecord
  2
作図枠S50
340
0
310
2800000020000000200000000100040000000000000200000000000000000000000000000000000000000000000080000080000000808000800000008000800080800000C0C0C000808080000000FF0000FF000000FFFF00FF000000FF00FF00FFFF0000FFFFFF00FFFFFFFFFFFFFFFFFFFFFFFFFFFFFFFFFFFFFFFFFFFFFF
310
FFFFFFFFFFFFFFFFFFFFFFFFFFFFFFFFFFFFFFFFFFFFFFFFFFFFFFFFFFFFFFFFFFFFFFFFFFFFFFFFFFFFFFFFFFFFFFFFFFFFFFFFFFFFFFFFFFFFFFFFFFFFFFFFFFFFFFFFFFFFFFFFFF999999999999999999999999999999999FFFFFFFFFFFFFFFFFFFFFFFFFFFFFF99FFFFFFFFFFFFFFFFFFFFFFFFFFFFFF99FFFFFFFFFFF
310
FFFFFFFFFFFFFFFFFFF99FFFFFFFFFFFFFFFFFFFFFFFFFFFFFF99FFFFFFFFFFFFFFFFFFFFFFFFFFFFFF99FFFFFFFFFFFFFFFFFFFFFFFFFFFFFF99FFFFFFFFFFFFFFFFFFFFFFFFFFFFFF99FFFFFFFFFFFFFFFFFFFFFFFFFFFFFF99FFFFFFFFFFFFFFFFFFFFFFFFFFFFFF99FFFFFFFFFFFFFFFFFFFFFFFFFFFFFF99FFFFFFFFF
310
FFFFFFFFFFFFFFFFFFFFF99FFFFFFFFFFFFFFFFFFFFFFFFFFFFFF99FFFFFFFFFFFFFFFFFFFFFFFFFFFFFF99FFFFFFFFFFFFFFFFFFFFFFFFFFFFFF99FFFFFFFFFFFFFFFFFFFFFFFFFFFFFF99FFFFFFFFFFFFFFFFFFFFFFFFFFFFFF99FFFFFFFFFFFFFFFFFFFFFFFFFFFFFF99FFFFFFFFFFFFFFFFFFFFF99999999999FFFFFFF
310
FFFFFFFFFFFFFF9FFFFFFFFF99999999999999999999999FFFFFFFFFFFFFFFFFFFFFFFFFFFFFFFFFFFFFFFFFFFFFFFFFFFFFFFFFFFFFFFFFFFFFFFFFFFFFFFFFFFFFFFFFFFFFFFFFFFFFFFFFFFFFFFFFFFFFFFFFFFFFFFFFFFFFFFFFFFFFFFFFFFFFFFFFFFFFFFFFFFFFFFFF
102
{BLKREFS
331
F235
102
}
  0
BLOCK_RECORD
  5
F744
330
7466
100
AcDbSymbolTableRecord
100
AcDbBlockTableRecord
  2
_DOT
340
0
102
{BLKREFS
331
14290
331
14291
331
14A5E
331
14A5F
331
14A67
331
14A68
331
14A70
331
14A71
331
14A79
331
14A7A
331
14A84
331
14A85
331
14A8D
331
14A8E
331
14A98
331
14A99
331
14AA1
331
14AA2
331
14AAC
331
14AAD
331
14AB5
331
14AB6
331
14ABE
331
14ABF
331
14AC9
331
14ACA
331
14AD2
331
14AD3
331
14ADB
331
14ADC
102
}
  0
BLOCK_RECORD
  5
F770
330
7466
100
AcDbSymbolTableRecord
100
AcDbBlockTableRecord
  2
_DOTSMALL
340
0
102
{BLKREFS
331
1423A
331
1423B
331
14244
331
14245
331
1424D
331
1424E
331
14258
331
14259
331
14261
331
14262
331
1426C
331
1426D
331
14275
331
14276
331
1427E
331
1427F
331
14287
331
14288
331
14321
331
14322
331
1432A
331
1432B
331
14335
331
14336
331
14340
331
14341
331
14A53
331
14A54
102
}
  0
BLOCK_RECORD
  5
13899
330
7466
100
AcDbSymbolTableRecord
100
AcDbBlockTableRecord
  2
*D3
340
0
  0
BLOCK_RECORD
  5
138A7
330
7466
100
AcDbSymbolTableRecord
100
AcDbBlockTableRecord
  2
*D4
340
0
  0
BLOCK_RECORD
  5
138B5
330
7466
100
AcDbSymbolTableRecord
100
AcDbBlockTableRecord
  2
*D5
340
0
  0
BLOCK_RECORD
  5
138C1
330
7466
100
AcDbSymbolTableRecord
100
AcDbBlockTableRecord
  2
*D6
340
0
  0
BLOCK_RECORD
  5
138E7
330
7466
100
AcDbSymbolTableRecord
100
AcDbBlockTableRecord
  2
*D7
340
0
  0
BLOCK_RECORD
  5
138F3
330
7466
100
AcDbSymbolTableRecord
100
AcDbBlockTableRecord
  2
*D8
340
0
  0
BLOCK_RECORD
  5
1390B
330
7466
100
AcDbSymbolTableRecord
100
AcDbBlockTableRecord
  2
*D9
340
0
  0
BLOCK_RECORD
  5
13925
330
7466
100
AcDbSymbolTableRecord
100
AcDbBlockTableRecord
  2
*D10
340
0
  0
BLOCK_RECORD
  5
13931
330
7466
100
AcDbSymbolTableRecord
100
AcDbBlockTableRecord
  2
*D11
340
0
  0
BLOCK_RECORD
  5
1393D
330
7466
100
AcDbSymbolTableRecord
100
AcDbBlockTableRecord
  2
*D12
340
0
  0
BLOCK_RECORD
  5
1394B
330
7466
100
AcDbSymbolTableRecord
100
AcDbBlockTableRecord
  2
*D13
340
0
  0
BLOCK_RECORD
  5
13957
330
7466
100
AcDbSymbolTableRecord
100
AcDbBlockTableRecord
  2
*D14
340
0
  0
BLOCK_RECORD
  5
13965
330
7466
100
AcDbSymbolTableRecord
100
AcDbBlockTableRecord
  2
*D15
340
0
  0
BLOCK_RECORD
  5
13971
330
7466
100
AcDbSymbolTableRecord
100
AcDbBlockTableRecord
  2
*D16
340
0
  0
BLOCK_RECORD
  5
1409B
330
7466
100
AcDbSymbolTableRecord
100
AcDbBlockTableRecord
  2
*D17
340
0
  0
BLOCK_RECORD
  5
140A7
330
7466
100
AcDbSymbolTableRecord
100
AcDbBlockTableRecord
  2
*D18
340
0
  0
BLOCK_RECORD
  5
140B3
330
7466
100
AcDbSymbolTableRecord
100
AcDbBlockTableRecord
  2
*D19
340
0
  0
BLOCK_RECORD
  5
140BF
330
7466
100
AcDbSymbolTableRecord
100
AcDbBlockTableRecord
  2
*D20
340
0
  0
BLOCK_RECORD
  5
140CB
330
7466
100
AcDbSymbolTableRecord
100
AcDbBlockTableRecord
  2
*D21
340
0
  0
BLOCK_RECORD
  5
140D9
330
7466
100
AcDbSymbolTableRecord
100
AcDbBlockTableRecord
  2
*D22
340
0
  0
BLOCK_RECORD
  5
140E5
330
7466
100
AcDbSymbolTableRecord
100
AcDbBlockTableRecord
  2
*D23
340
0
  0
BLOCK_RECORD
  5
140F3
330
7466
100
AcDbSymbolTableRecord
100
AcDbBlockTableRecord
  2
*D24
340
0
  0
BLOCK_RECORD
  5
140FF
330
7466
100
AcDbSymbolTableRecord
100
AcDbBlockTableRecord
  2
*D25
340
0
  0
BLOCK_RECORD
  5
1410C
330
7466
100
AcDbSymbolTableRecord
100
AcDbBlockTableRecord
  2
*D26
340
0
  0
BLOCK_RECORD
  5
14543
330
7466
100
AcDbSymbolTableRecord
100
AcDbBlockTableRecord
  2
*D27
340
0
  0
BLOCK_RECORD
  5
148DB
330
7466
100
AcDbSymbolTableRecord
100
AcDbBlockTableRecord
  2
*D28
340
0
  0
BLOCK_RECORD
  5
148E7
330
7466
100
AcDbSymbolTableRecord
100
AcDbBlockTableRecord
  2
*D29
340
0
  0
BLOCK_RECORD
  5
148F3
330
7466
100
AcDbSymbolTableRecord
100
AcDbBlockTableRecord
  2
*D30
340
0
  0
BLOCK_RECORD
  5
14901
330
7466
100
AcDbSymbolTableRecord
100
AcDbBlockTableRecord
  2
*D31
340
0
  0
ENDTAB
  0
ENDSEC
  0
SECTION
  2
BLOCKS
  0
BLOCK
  5
7489
330
747D
100
AcDbEntity
  8
0
100
AcDbBlockBegin
  2
*MODEL_SPACE
 70
     0
 10
0.0
 20
0.0
 30
0.0
  3
*MODEL_SPACE
  1

  0
ENDBLK
  5
748A
330
747D
100
AcDbEntity
  8
0
100
AcDbBlockEnd
  0
BLOCK
  5
7487
330
747A
100
AcDbEntity
 67
     1
  8
0
100
AcDbBlockBegin
  2
*PAPER_SPACE
 70
     0
 10
0.0
 20
0.0
 30
0.0
  3
*PAPER_SPACE
  1

  0
ENDBLK
  5
7488
330
747A
100
AcDbEntity
 67
     1
  8
0
100
AcDbBlockEnd
  0
BLOCK
  5
ECB4
330
ECB3
100
AcDbEntity
  8
0
100
AcDbBlockBegin
  2
作図枠S50
 70
     0
 10
0.0
 20
0.0
 30
0.0
  3
作図枠S50
  1

  4
作図領域枠 縮尺 1/50
  0
LINE
  5
ECB5
330
ECB3
100
AcDbEntity
  8
補助
100
AcDbLine
 10
14364.0
 20
14262.0
 30
0.0
 11
174.9999999999993
 21
14262.0
 31
0.0
  0
LINE
  5
ECB6
330
ECB3
100
AcDbEntity
  8
補助
100
AcDbLine
 10
174.9999999999993
 20
14262.0
 30
0.0
 11
174.9999999999993
 21
1520.0
 31
0.0
  0
LINE
  5
ECB7
330
ECB3
100
AcDbEntity
  8
補助
100
AcDbLine
 10
174.9999999999993
 20
1520.0
 30
0.0
 11
20384.0
 21
1520.0
 31
0.0
  0
LINE
  5
ECB8
330
ECB3
100
AcDbEntity
  8
補助
100
AcDbLine
 10
20384.0
 20
1520.0
 30
0.0
 11
20384.0
 21
13042.0
 31
0.0
  0
LINE
  5
ECB9
330
ECB3
100
AcDbEntity
  8
補助
100
AcDbLine
 10
20384.0
 20
13042.0
 30
0.0
 11
14364.0
 21
13042.0
 31
0.0
  0
LINE
  5
ECBA
330
ECB3
100
AcDbEntity
  8
補助
100
AcDbLine
 10
14364.0
 20
13042.0
 30
0.0
 11
14364.0
 21
14262.0
 31
0.0
  0
ENDBLK
  5
ECBB
330
ECB3
100
AcDbEntity
  8
0
100
AcDbBlockEnd
  0
BLOCK
  5
F745
330
F744
100
AcDbEntity
  8
0
 48
50.0
100
AcDbBlockBegin
  2
_DOT
 70
     0
 10
0.0
 20
0.0
 30
0.0
  3
_DOT
  1

  0
LWPOLYLINE
  5
F746
330
F744
100
AcDbEntity
  8
0
  6
ByBlock
 62
     0
 48
50.0
100
AcDbPolyline
 90
        2
 70
     1
 43
0.5
 10
-0.25
 20
0.0
 42
1.0
 10
0.25
 20
0.0
 42
1.0
  0
LINE
  5
F74A
330
F744
100
AcDbEntity
  8
0
  6
ByBlock
 62
     0
 48
50.0
100
AcDbLine
 10
-0.5
 20
0.0
 30
0.0
 11
-1.0
 21
0.0
 31
0.0
  0
ENDBLK
  5
F74B
330
F744
100
AcDbEntity
  8
0
 48
50.0
100
AcDbBlockEnd
  0
BLOCK
  5
F771
330
F770
100
AcDbEntity
  8
0
 48
50.0
100
AcDbBlockBegin
  2
_DOTSMALL
 70
     0
 10
0.0
 20
0.0
 30
0.0
  3
_DOTSMALL
  1

  0
LWPOLYLINE
  5
F772
330
F770
100
AcDbEntity
  8
0
  6
ByBlock
 62
     0
 48
50.0
100
AcDbPolyline
 90
        2
 70
     1
 43
0.5
 10
-0.0625
 20
0.0
 42
1.0
 10
0.0625
 20
0.0
 42
1.0
  0
ENDBLK
  5
F776
330
F770
100
AcDbEntity
  8
0
 48
50.0
100
AcDbBlockEnd
  0
BLOCK
  5
138A5
330
13899
100
AcDbEntity
  8
0
 48
50.0
100
AcDbBlockBegin
  2
*D3
 70
     1
 10
0.0
 20
0.0
 30
0.0
  3
*D3
  1

  0
LINE
  5
1433B
330
13899
100
AcDbEntity
  8
寸法
 62
     0
 48
50.0
370
    -2
100
AcDbLine
 10
8222.753461421261
 20
4683.112805903258
 30
0.0
 11
8222.753461421261
 21
4935.654391161499
 31
0.0
  0
LINE
  5
1433C
330
13899
100
AcDbEntity
  8
寸法
 62
     0
 48
50.0
370
    -2
100
AcDbLine
 10
8172.75346142126
 20
4683.11280590326
 30
0.0
 11
8172.75346142126
 21
4935.654391161499
 31
0.0
  0
LINE
  5
1433D
330
13899
100
AcDbEntity
  8
寸法
 62
     0
 48
50.0
370
    -2
100
AcDbLine
 10
8172.75346142126
 20
4875.654391161499
 30
0.0
 11
8072.75346142126
 21
4875.654391161499
 31
0.0
  0
LINE
  5
1433E
330
13899
100
AcDbEntity
  8
寸法
 62
     0
 48
50.0
370
    -2
100
AcDbLine
 10
8222.753461421261
 20
4875.654391161499
 30
0.0
 11
8642.285986889984
 21
4875.654391161499
 31
0.0
  0
LINE
  5
1433F
330
13899
100
AcDbEntity
  8
寸法
 62
     0
 48
50.0
370
    -2
100
AcDbLine
 10
8172.75346142126
 20
4875.654391161499
 30
0.0
 11
8222.753461421261
 21
4875.654391161499
 31
0.0
  0
INSERT
  5
14340
330
13899
100
AcDbEntity
  8
寸法
 62
     0
 48
50.0
370
    -2
100
AcDbBlockReference
  2
_DOTSMALL
 10
8172.75346142126
 20
4875.654391161499
 30
0.0
 41
100.0
 42
100.0
 43
100.0
  0
INSERT
  5
14341
330
13899
100
AcDbEntity
  8
寸法
 62
     0
 48
50.0
370
    -2
100
AcDbBlockReference
  2
_DOTSMALL
 10
8222.753461421261
 20
4875.654391161499
 30
0.0
 41
100.0
 42
100.0
 43
100.0
 50
180.0
  0
MTEXT
  5
14342
330
13899
100
AcDbEntity
  8
寸法
 62
     7
 48
50.0
100
AcDbMText
 10
8536.238742795497
 20
4975.654391161499
 30
0.0
 40
120.0
 41
0.0
 71
     5
 72
     1
  1
\A1;50
  7
STYLE1
 73
     1
 44
1.0
1001
ACAD
1000
MTEXTBEGIN
1070
    73
1070
     1
1070
    44
1040
1.0
1070
    74
1070
     0
1000
MTEXTEND
  0
POINT
  5
14343
330
13899
100
AcDbEntity
  8
DEFPOINTS
 62
     0
 48
50.0
100
AcDbPoint
 10
8222.753461421261
 20
4663.112805903258
 30
0.0
  0
POINT
  5
14344
330
13899
100
AcDbEntity
  8
DEFPOINTS
 62
     0
 48
50.0
100
AcDbPoint
 10
8172.75346142126
 20
4663.112805903259
 30
0.0
  0
POINT
  5
14345
330
13899
100
AcDbEntity
  8
DEFPOINTS
 62
     0
 48
50.0
100
AcDbPoint
 10
8172.75346142126
 20
4875.654391161499
 30
0.0
  0
ENDBLK
  5
138A6
330
13899
100
AcDbEntity
  8
0
 48
50.0
100
AcDbBlockEnd
  0
BLOCK
  5
138B3
330
138A7
100
AcDbEntity
  8
0
 48
50.0
100
AcDbBlockBegin
  2
*D4
 70
     1
 10
0.0
 20
0.0
 30
0.0
  3
*D4
  1

  0
LINE
  5
14330
330
138A7
100
AcDbEntity
  8
寸法
 62
     0
 48
50.0
370
    -2
100
AcDbLine
 10
2912.753461421257
 20
4683.112805903264
 30
0.0
 11
2912.753461421257
 21
4935.654391161502
 31
0.0
  0
LINE
  5
14331
330
138A7
100
AcDbEntity
  8
寸法
 62
     0
 48
50.0
370
    -2
100
AcDbLine
 10
2862.753461421256
 20
4683.112805903262
 30
0.0
 11
2862.753461421256
 21
4935.654391161502
 31
0.0
  0
LINE
  5
14332
330
138A7
100
AcDbEntity
  8
寸法
 62
     0
 48
50.0
370
    -2
100
AcDbLine
 10
2912.753461421257
 20
4875.654391161502
 30
0.0
 11
3012.753461421257
 21
4875.654391161502
 31
0.0
  0
LINE
  5
14333
330
138A7
100
AcDbEntity
  8
寸法
 62
     0
 48
50.0
370
    -2
100
AcDbLine
 10
2862.753461421256
 20
4875.654391161502
 30
0.0
 11
2443.220935952521
 21
4875.654391161502
 31
0.0
  0
LINE
  5
14334
330
138A7
100
AcDbEntity
  8
寸法
 62
     0
 48
50.0
370
    -2
100
AcDbLine
 10
2912.753461421257
 20
4875.654391161502
 30
0.0
 11
2862.753461421256
 21
4875.654391161502
 31
0.0
  0
INSERT
  5
14335
330
138A7
100
AcDbEntity
  8
寸法
 62
     0
 48
50.0
370
    -2
100
AcDbBlockReference
  2
_DOTSMALL
 10
2912.753461421257
 20
4875.654391161502
 30
0.0
 41
100.0
 42
100.0
 43
100.0
 50
180.0
  0
INSERT
  5
14336
330
138A7
100
AcDbEntity
  8
寸法
 62
     0
 48
50.0
370
    -2
100
AcDbBlockReference
  2
_DOTSMALL
 10
2862.753461421256
 20
4875.654391161502
 30
0.0
 41
100.0
 42
100.0
 43
100.0
  0
MTEXT
  5
14337
330
138A7
100
AcDbEntity
  8
寸法
 62
     7
 48
50.0
100
AcDbMText
 10
2549.268180047009
 20
4975.654391161501
 30
0.0
 40
120.0
 41
0.0
 71
     5
 72
     1
  1
\A1;50
  7
STYLE1
 73
     1
 44
1.0
1001
ACAD
1000
MTEXTBEGIN
1070
    73
1070
     1
1070
    44
1040
1.0
1070
    74
1070
     0
1000
MTEXTEND
  0
POINT
  5
14338
330
138A7
100
AcDbEntity
  8
DEFPOINTS
 62
     0
 48
50.0
100
AcDbPoint
 10
2912.753461421257
 20
4663.112805903264
 30
0.0
  0
POINT
  5
14339
330
138A7
100
AcDbEntity
  8
DEFPOINTS
 62
     0
 48
50.0
100
AcDbPoint
 10
2862.753461421256
 20
4663.112805903263
 30
0.0
  0
POINT
  5
1433A
330
138A7
100
AcDbEntity
  8
DEFPOINTS
 62
     0
 48
50.0
100
AcDbPoint
 10
2862.753461421256
 20
4875.654391161502
 30
0.0
  0
ENDBLK
  5
138B4
330
138A7
100
AcDbEntity
  8
0
 48
50.0
100
AcDbBlockEnd
  0
BLOCK
  5
138BF
330
138B5
100
AcDbEntity
  8
0
 48
50.0
100
AcDbBlockBegin
  2
*D5
 70
     1
 10
0.0
 20
0.0
 30
0.0
  3
*D5
  1

  0
LINE
  5
14327
330
138B5
100
AcDbEntity
  8
寸法
 62
     0
 48
50.0
370
    -2
100
AcDbLine
 10
2862.753461421256
 20
4683.112805903262
 30
0.0
 11
2862.753461421256
 21
5156.55969163525
 31
0.0
  0
LINE
  5
14328
330
138B5
100
AcDbEntity
  8
寸法
 62
     0
 48
50.0
370
    -2
100
AcDbLine
 10
8222.753461421261
 20
4683.112805903258
 30
0.0
 11
8222.753461421261
 21
5156.55969163525
 31
0.0
  0
LINE
  5
14329
330
138B5
100
AcDbEntity
  8
寸法
 62
     0
 48
50.0
370
    -2
100
AcDbLine
 10
2862.753461421256
 20
5096.559691635249
 30
0.0
 11
8222.753461421261
 21
5096.559691635249
 31
0.0
  0
INSERT
  5
1432A
330
138B5
100
AcDbEntity
  8
寸法
 62
     0
 48
50.0
370
    -2
100
AcDbBlockReference
  2
_DOTSMALL
 10
2862.753461421256
 20
5096.559691635249
 30
0.0
 41
100.0
 42
100.0
 43
100.0
 50
180.0
  0
INSERT
  5
1432B
330
138B5
100
AcDbEntity
  8
寸法
 62
     0
 48
50.0
370
    -2
100
AcDbBlockReference
  2
_DOTSMALL
 10
8222.753461421261
 20
5096.559691635249
 30
0.0
 41
100.0
 42
100.0
 43
100.0
  0
MTEXT
  5
1432C
330
138B5
100
AcDbEntity
  8
寸法
 62
     7
 48
50.0
100
AcDbMText
 10
5542.753461421256
 20
5196.55969163525
 30
0.0
 40
120.0
 41
0.0
 71
     5
 72
     1
  1
\A1;5360
  7
STYLE1
 73
     1
 44
1.0
1001
ACAD
1000
MTEXTBEGIN
1070
    73
1070
     1
1070
    44
1040
1.0
1070
    74
1070
     0
1000
MTEXTEND
  0
POINT
  5
1432D
330
138B5
100
AcDbEntity
  8
DEFPOINTS
 62
     0
 48
50.0
100
AcDbPoint
 10
2862.753461421256
 20
4663.112805903263
 30
0.0
  0
POINT
  5
1432E
330
138B5
100
AcDbEntity
  8
DEFPOINTS
 62
     0
 48
50.0
100
AcDbPoint
 10
8222.753461421261
 20
4663.112805903258
 30
0.0
  0
POINT
  5
1432F
330
138B5
100
AcDbEntity
  8
DEFPOINTS
 62
     0
 48
50.0
100
AcDbPoint
 10
8222.753461421261
 20
5096.559691635249
 30
0.0
  0
ENDBLK
  5
138C0
330
138B5
100
AcDbEntity
  8
0
 48
50.0
100
AcDbBlockEnd
  0
BLOCK
  5
138CB
330
138C1
100
AcDbEntity
  8
0
 48
50.0
100
AcDbBlockBegin
  2
*D6
 70
     1
 10
0.0
 20
0.0
 30
0.0
  3
*D6
  1

  0
LINE
  5
1431E
330
138C1
100
AcDbEntity
  8
寸法
 62
     0
 48
50.0
370
    -2
100
AcDbLine
 10
8172.75346142126
 20
4683.11280590326
 30
0.0
 11
8172.75346142126
 21
4935.6543911615
 31
0.0
  0
LINE
  5
1431F
330
138C1
100
AcDbEntity
  8
寸法
 62
     0
 48
50.0
370
    -2
100
AcDbLine
 10
2912.753461421257
 20
4683.112805903264
 30
0.0
 11
2912.753461421257
 21
4935.6543911615
 31
0.0
  0
LINE
  5
14320
330
138C1
100
AcDbEntity
  8
寸法
 62
     0
 48
50.0
370
    -2
100
AcDbLine
 10
8172.75346142126
 20
4875.6543911615
 30
0.0
 11
2912.753461421257
 21
4875.6543911615
 31
0.0
  0
INSERT
  5
14321
330
138C1
100
AcDbEntity
  8
寸法
 62
     0
 48
50.0
370
    -2
100
AcDbBlockReference
  2
_DOTSMALL
 10
8172.75346142126
 20
4875.6543911615
 30
0.0
 41
100.0
 42
100.0
 43
100.0
  0
INSERT
  5
14322
330
138C1
100
AcDbEntity
  8
寸法
 62
     0
 48
50.0
370
    -2
100
AcDbBlockReference
  2
_DOTSMALL
 10
2912.753461421257
 20
4875.6543911615
 30
0.0
 41
100.0
 42
100.0
 43
100.0
 50
180.0
  0
MTEXT
  5
14323
330
138C1
100
AcDbEntity
  8
寸法
 62
     7
 48
50.0
100
AcDbMText
 10
5542.753461421256
 20
4975.666202185122
 30
0.0
 40
120.0
 41
0.0
 71
     5
 72
     1
  1
\A1;柱外寸法5260
  7
STYLE1
 73
     1
 44
1.0
1001
ACAD
1000
MTEXTBEGIN
1070
    73
1070
     1
1070
    44
1040
1.0
1070
    74
1070
     0
1000
MTEXTEND
  0
POINT
  5
14324
330
138C1
100
AcDbEntity
  8
DEFPOINTS
 62
     0
 48
50.0
100
AcDbPoint
 10
8172.75346142126
 20
4663.112805903259
 30
0.0
  0
POINT
  5
14325
330
138C1
100
AcDbEntity
  8
DEFPOINTS
 62
     0
 48
50.0
100
AcDbPoint
 10
2912.753461421257
 20
4663.112805903264
 30
0.0
  0
POINT
  5
14326
330
138C1
100
AcDbEntity
  8
DEFPOINTS
 62
     0
 48
50.0
100
AcDbPoint
 10
2912.753461421257
 20
4875.6543911615
 30
0.0
  0
ENDBLK
  5
138CC
330
138C1
100
AcDbEntity
  8
0
 48
50.0
100
AcDbBlockEnd
  0
BLOCK
  5
138F1
330
138E7
100
AcDbEntity
  8
0
 48
50.0
100
AcDbBlockBegin
  2
*D7
 70
     1
 10
0.0
 20
0.0
 30
0.0
  3
*D7
  1

  0
LINE
  5
14AD8
330
138E7
100
AcDbEntity
  8
寸法
 62
     0
 48
50.0
370
    -2
100
AcDbLine
 10
5487.753461421256
 20
10355.05468780507
 30
0.0
 11
5487.753461421256
 21
10749.76709782387
 31
0.0
  0
LINE
  5
14AD9
330
138E7
100
AcDbEntity
  8
寸法
 62
     0
 48
50.0
370
    -2
100
AcDbLine
 10
5597.753461421256
 20
10355.05468780507
 30
0.0
 11
5597.753461421256
 21
10749.76709782387
 31
0.0
  0
LINE
  5
14ADA
330
138E7
100
AcDbEntity
  8
寸法
 62
     0
 48
50.0
370
    -2
100
AcDbLine
 10
5507.753461421256
 20
10709.76709782387
 30
0.0
 11
5577.753461421256
 21
10709.76709782387
 31
0.0
  0
INSERT
  5
14ADB
330
138E7
100
AcDbEntity
  8
寸法
 62
     0
 48
50.0
370
    -2
100
AcDbBlockReference
  2
_DOT
 10
5487.753461421256
 20
10709.76709782387
 30
0.0
 41
20.0
 42
20.0
 43
20.0
 50
180.0
  0
INSERT
  5
14ADC
330
138E7
100
AcDbEntity
  8
寸法
 62
     0
 48
50.0
370
    -2
100
AcDbBlockReference
  2
_DOT
 10
5597.753461421256
 20
10709.76709782387
 30
0.0
 41
20.0
 42
20.0
 43
20.0
  0
MTEXT
  5
14ADD
330
138E7
100
AcDbEntity
  8
寸法
 62
     7
 48
50.0
100
AcDbMText
 10
5542.753461421256
 20
10801.76709782387
 30
0.0
 40
120.0
 41
0.0
 71
     5
 72
     1
  1
\A1;110
  7
STYLE1
 73
     1
 44
1.0
1001
ACAD
1000
MTEXTBEGIN
1070
    73
1070
     1
1070
    44
1040
1.0
1070
    74
1070
     0
1000
MTEXTEND
  0
POINT
  5
14ADE
330
138E7
100
AcDbEntity
  8
DEFPOINTS
 62
     0
 48
50.0
100
AcDbPoint
 10
5487.753461421256
 20
10335.05468780507
 30
0.0
  0
POINT
  5
14ADF
330
138E7
100
AcDbEntity
  8
DEFPOINTS
 62
     0
 48
50.0
100
AcDbPoint
 10
5597.753461421256
 20
10335.05468780507
 30
0.0
  0
POINT
  5
14AE0
330
138E7
100
AcDbEntity
  8
DEFPOINTS
 62
     0
 48
50.0
100
AcDbPoint
 10
5597.753461421256
 20
10709.76709782387
 30
0.0
  0
ENDBLK
  5
138F2
330
138E7
100
AcDbEntity
  8
0
 48
50.0
100
AcDbBlockEnd
  0
BLOCK
  5
138FD
330
138F3
100
AcDbEntity
  8
0
 48
50.0
100
AcDbBlockBegin
  2
*D8
 70
     1
 10
0.0
 20
0.0
 30
0.0
  3
*D8
  1

  0
LINE
  5
14ACF
330
138F3
100
AcDbEntity
  8
寸法
 62
     0
 48
50.0
370
    -2
100
AcDbLine
 10
5597.753461421256
 20
10355.05468780507
 30
0.0
 11
5597.753461421256
 21
10749.76709782387
 31
0.0
  0
LINE
  5
14AD0
330
138F3
100
AcDbEntity
  8
寸法
 62
     0
 48
50.0
370
    -2
100
AcDbLine
 10
8117.753461421257
 20
10355.05468780507
 30
0.0
 11
8117.753461421257
 21
10749.76709782387
 31
0.0
  0
LINE
  5
14AD1
330
138F3
100
AcDbEntity
  8
寸法
 62
     0
 48
50.0
370
    -2
100
AcDbLine
 10
5617.753461421256
 20
10709.76709782387
 30
0.0
 11
8097.753461421255
 21
10709.76709782387
 31
0.0
  0
INSERT
  5
14AD2
330
138F3
100
AcDbEntity
  8
寸法
 62
     0
 48
50.0
370
    -2
100
AcDbBlockReference
  2
_DOT
 10
5597.753461421256
 20
10709.76709782387
 30
0.0
 41
20.0
 42
20.0
 43
20.0
 50
180.0
  0
INSERT
  5
14AD3
330
138F3
100
AcDbEntity
  8
寸法
 62
     0
 48
50.0
370
    -2
100
AcDbBlockReference
  2
_DOT
 10
8117.753461421257
 20
10709.76709782387
 30
0.0
 41
20.0
 42
20.0
 43
20.0
  0
MTEXT
  5
14AD4
330
138F3
100
AcDbEntity
  8
寸法
 62
     7
 48
50.0
100
AcDbMText
 10
6857.753461421257
 20
10801.77890884749
 30
0.0
 40
120.0
 41
0.0
 71
     5
 72
     1
  1
\A1;6X420=2520
  7
STYLE1
 73
     1
 44
1.0
1001
ACAD
1000
MTEXTBEGIN
1070
    73
1070
     1
1070
    44
1040
1.0
1070
    74
1070
     0
1000
MTEXTEND
  0
POINT
  5
14AD5
330
138F3
100
AcDbEntity
  8
DEFPOINTS
 62
     0
 48
50.0
100
AcDbPoint
 10
5597.753461421256
 20
10335.05468780507
 30
0.0
  0
POINT
  5
14AD6
330
138F3
100
AcDbEntity
  8
DEFPOINTS
 62
     0
 48
50.0
100
AcDbPoint
 10
8117.753461421257
 20
10335.05468780507
 30
0.0
  0
POINT
  5
14AD7
330
138F3
100
AcDbEntity
  8
DEFPOINTS
 62
     0
 48
50.0
100
AcDbPoint
 10
8117.753461421257
 20
10709.76709782387
 30
0.0
  0
ENDBLK
  5
138FE
330
138F3
100
AcDbEntity
  8
0
 48
50.0
100
AcDbBlockEnd
  0
BLOCK
  5
13917
330
1390B
100
AcDbEntity
  8
0
 48
50.0
100
AcDbBlockBegin
  2
*D9
 70
     1
 10
0.0
 20
0.0
 30
0.0
  3
*D9
  1

  0
LINE
  5
14AC4
330
1390B
100
AcDbEntity
  8
寸法
 62
     0
 48
50.0
370
    -2
100
AcDbLine
 10
2912.753461421257
 20
10355.05468780507
 30
0.0
 11
2912.753461421257
 21
10749.76709782387
 31
0.0
  0
LINE
  5
14AC5
330
1390B
100
AcDbEntity
  8
寸法
 62
     0
 48
50.0
370
    -2
100
AcDbLine
 10
2967.753461421257
 20
10355.05468780507
 30
0.0
 11
2967.753461421257
 21
10749.76709782387
 31
0.0
  0
LINE
  5
14AC6
330
1390B
100
AcDbEntity
  8
寸法
 62
     0
 48
50.0
370
    -2
100
AcDbLine
 10
2987.753461421256
 20
10709.76709782387
 30
0.0
 11
3007.753461421256
 21
10709.76709782387
 31
0.0
  0
LINE
  5
14AC7
330
1390B
100
AcDbEntity
  8
寸法
 62
     0
 48
50.0
370
    -2
100
AcDbLine
 10
2892.753461421257
 20
10709.76709782387
 30
0.0
 11
2418.101513380353
 21
10709.76709782387
 31
0.0
  0
LINE
  5
14AC8
330
1390B
100
AcDbEntity
  8
寸法
 62
     0
 48
50.0
370
    -2
100
AcDbLine
 10
2967.753461421257
 20
10709.76709782387
 30
0.0
 11
2912.753461421257
 21
10709.76709782387
 31
0.0
  0
INSERT
  5
14AC9
330
1390B
100
AcDbEntity
  8
寸法
 62
     0
 48
50.0
370
    -2
100
AcDbBlockReference
  2
_DOT
 10
2967.753461421257
 20
10709.76709782387
 30
0.0
 41
20.0
 42
20.0
 43
20.0
 50
180.0
  0
INSERT
  5
14ACA
330
1390B
100
AcDbEntity
  8
寸法
 62
     0
 48
50.0
370
    -2
100
AcDbBlockReference
  2
_DOT
 10
2912.753461421257
 20
10709.76709782387
 30
0.0
 41
20.0
 42
20.0
 43
20.0
  0
MTEXT
  5
14ACB
330
1390B
100
AcDbEntity
  8
寸法
 62
     7
 48
50.0
100
AcDbMText
 10
2518.586794754592
 20
10801.76709782387
 30
0.0
 40
120.0
 41
0.0
 71
     5
 72
     1
  1
\A1;55
  7
STYLE1
 73
     1
 44
1.0
1001
ACAD
1000
MTEXTBEGIN
1070
    73
1070
     1
1070
    44
1040
1.0
1070
    74
1070
     0
1000
MTEXTEND
  0
POINT
  5
14ACC
330
1390B
100
AcDbEntity
  8
DEFPOINTS
 62
     0
 48
50.0
100
AcDbPoint
 10
2912.753461421257
 20
10335.05468780507
 30
0.0
  0
POINT
  5
14ACD
330
1390B
100
AcDbEntity
  8
DEFPOINTS
 62
     0
 48
50.0
100
AcDbPoint
 10
2967.753461421257
 20
10335.05468780507
 30
0.0
  0
POINT
  5
14ACE
330
1390B
100
AcDbEntity
  8
DEFPOINTS
 62
     0
 48
50.0
100
AcDbPoint
 10
2967.753461421257
 20
10709.76709782387
 30
0.0
  0
ENDBLK
  5
13918
330
1390B
100
AcDbEntity
  8
0
 48
50.0
100
AcDbBlockEnd
  0
BLOCK
  5
1392F
330
13925
100
AcDbEntity
  8
0
 48
50.0
100
AcDbBlockBegin
  2
*D10
 70
     1
 10
0.0
 20
0.0
 30
0.0
  3
*D10
  1

  0
LINE
  5
14ABB
330
13925
100
AcDbEntity
  8
寸法
 62
     0
 48
50.0
370
    -2
100
AcDbLine
 10
2967.753461421257
 20
10355.05468780507
 30
0.0
 11
2967.753461421257
 21
10749.76709782387
 31
0.0
  0
LINE
  5
14ABC
330
13925
100
AcDbEntity
  8
寸法
 62
     0
 48
50.0
370
    -2
100
AcDbLine
 10
5487.753461421256
 20
10355.05468780507
 30
0.0
 11
5487.753461421256
 21
10749.76709782387
 31
0.0
  0
LINE
  5
14ABD
330
13925
100
AcDbEntity
  8
寸法
 62
     0
 48
50.0
370
    -2
100
AcDbLine
 10
2987.753461421256
 20
10709.76709782387
 30
0.0
 11
5467.753461421256
 21
10709.76709782387
 31
0.0
  0
INSERT
  5
14ABE
330
13925
100
AcDbEntity
  8
寸法
 62
     0
 48
50.0
370
    -2
100
AcDbBlockReference
  2
_DOT
 10
2967.753461421257
 20
10709.76709782387
 30
0.0
 41
20.0
 42
20.0
 43
20.0
 50
180.0
  0
INSERT
  5
14ABF
330
13925
100
AcDbEntity
  8
寸法
 62
     0
 48
50.0
370
    -2
100
AcDbBlockReference
  2
_DOT
 10
5487.753461421256
 20
10709.76709782387
 30
0.0
 41
20.0
 42
20.0
 43
20.0
  0
MTEXT
  5
14AC0
330
13925
100
AcDbEntity
  8
寸法
 62
     7
 48
50.0
100
AcDbMText
 10
4227.753461421256
 20
10801.77890884749
 30
0.0
 40
120.0
 41
0.0
 71
     5
 72
     1
  1
\A1;6X420=2520
  7
STYLE1
 73
     1
 44
1.0
1001
ACAD
1000
MTEXTBEGIN
1070
    73
1070
     1
1070
    44
1040
1.0
1070
    74
1070
     0
1000
MTEXTEND
  0
POINT
  5
14AC1
330
13925
100
AcDbEntity
  8
DEFPOINTS
 62
     0
 48
50.0
100
AcDbPoint
 10
2967.753461421257
 20
10335.05468780507
 30
0.0
  0
POINT
  5
14AC2
330
13925
100
AcDbEntity
  8
DEFPOINTS
 62
     0
 48
50.0
100
AcDbPoint
 10
5487.753461421256
 20
10335.05468780507
 30
0.0
  0
POINT
  5
14AC3
330
13925
100
AcDbEntity
  8
DEFPOINTS
 62
     0
 48
50.0
100
AcDbPoint
 10
5487.753461421256
 20
10709.76709782387
 30
0.0
  0
ENDBLK
  5
13930
330
13925
100
AcDbEntity
  8
0
 48
50.0
100
AcDbBlockEnd
  0
BLOCK
  5
1393B
330
13931
100
AcDbEntity
  8
0
 48
50.0
100
AcDbBlockBegin
  2
*D11
 70
     1
 10
0.0
 20
0.0
 30
0.0
  3
*D11
  1

  0
LINE
  5
14AB2
330
13931
100
AcDbEntity
  8
寸法
 62
     0
 48
50.0
370
    -2
100
AcDbLine
 10
2912.753461421257
 20
10355.05468780507
 30
0.0
 11
2912.753461421257
 21
11049.76709782387
 31
0.0
  0
LINE
  5
14AB3
330
13931
100
AcDbEntity
  8
寸法
 62
     0
 48
50.0
370
    -2
100
AcDbLine
 10
8172.753461421256
 20
10355.05468780507
 30
0.0
 11
8172.753461421256
 21
11049.76709782387
 31
0.0
  0
LINE
  5
14AB4
330
13931
100
AcDbEntity
  8
寸法
 62
     0
 48
50.0
370
    -2
100
AcDbLine
 10
2932.753461421257
 20
11009.76709782387
 30
0.0
 11
8152.753461421257
 21
11009.76709782387
 31
0.0
  0
INSERT
  5
14AB5
330
13931
100
AcDbEntity
  8
寸法
 62
     0
 48
50.0
370
    -2
100
AcDbBlockReference
  2
_DOT
 10
2912.753461421257
 20
11009.76709782387
 30
0.0
 41
20.0
 42
20.0
 43
20.0
 50
180.0
  0
INSERT
  5
14AB6
330
13931
100
AcDbEntity
  8
寸法
 62
     0
 48
50.0
370
    -2
100
AcDbBlockReference
  2
_DOT
 10
8172.753461421256
 20
11009.76709782387
 30
0.0
 41
20.0
 42
20.0
 43
20.0
  0
MTEXT
  5
14AB7
330
13931
100
AcDbEntity
  8
寸法
 62
     7
 48
50.0
100
AcDbMText
 10
5542.753461421256
 20
11101.77890884749
 30
0.0
 40
120.0
 41
0.0
 71
     5
 72
     1
  1
\A1;5260
  7
STYLE1
 73
     1
 44
1.0
1001
ACAD
1000
MTEXTBEGIN
1070
    73
1070
     1
1070
    44
1040
1.0
1070
    74
1070
     0
1000
MTEXTEND
  0
POINT
  5
14AB8
330
13931
100
AcDbEntity
  8
DEFPOINTS
 62
     0
 48
50.0
100
AcDbPoint
 10
2912.753461421257
 20
10335.05468780507
 30
0.0
  0
POINT
  5
14AB9
330
13931
100
AcDbEntity
  8
DEFPOINTS
 62
     0
 48
50.0
100
AcDbPoint
 10
8172.753461421256
 20
10335.05468780507
 30
0.0
  0
POINT
  5
14ABA
330
13931
100
AcDbEntity
  8
DEFPOINTS
 62
     0
 48
50.0
100
AcDbPoint
 10
8172.753461421256
 20
11009.76709782387
 30
0.0
  0
ENDBLK
  5
1393C
330
13931
100
AcDbEntity
  8
0
 48
50.0
100
AcDbBlockEnd
  0
BLOCK
  5
13949
330
1393D
100
AcDbEntity
  8
0
 48
50.0
100
AcDbBlockBegin
  2
*D12
 70
     1
 10
0.0
 20
0.0
 30
0.0
  3
*D12
  1

  0
LINE
  5
14AA7
330
1393D
100
AcDbEntity
  8
寸法
 62
     0
 48
50.0
370
    -2
100
AcDbLine
 10
8192.753461421254
 20
10335.05468780507
 30
0.0
 11
8983.500578465612
 21
10335.05468780507
 31
0.0
  0
LINE
  5
14AA8
330
1393D
100
AcDbEntity
  8
寸法
 62
     0
 48
50.0
370
    -2
100
AcDbLine
 10
8192.753461421254
 20
10280.05468780508
 30
0.0
 11
8983.500578465612
 21
10280.05468780508
 31
0.0
  0
LINE
  5
14AA9
330
1393D
100
AcDbEntity
  8
寸法
 62
     0
 48
50.0
370
    -2
100
AcDbLine
 10
8943.500578465611
 20
10260.05468780508
 30
0.0
 11
8943.500578465611
 21
10240.05468780508
 31
0.0
  0
LINE
  5
14AAA
330
1393D
100
AcDbEntity
  8
寸法
 62
     0
 48
50.0
370
    -2
100
AcDbLine
 10
8943.500578465611
 20
10355.05468780507
 30
0.0
 11
8943.500578465611
 21
10829.70663584598
 31
0.0
  0
LINE
  5
14AAB
330
1393D
100
AcDbEntity
  8
寸法
 62
     0
 48
50.0
370
    -2
100
AcDbLine
 10
8943.500578465611
 20
10280.05468780508
 30
0.0
 11
8943.500578465611
 21
10335.05468780507
 31
0.0
  0
INSERT
  5
14AAC
330
1393D
100
AcDbEntity
  8
寸法
 62
     0
 48
50.0
370
    -2
100
AcDbBlockReference
  2
_DOT
 10
8943.500578465611
 20
10280.05468780508
 30
0.0
 41
20.0
 42
20.0
 43
20.0
 50
90.0
  0
INSERT
  5
14AAD
330
1393D
100
AcDbEntity
  8
寸法
 62
     0
 48
50.0
370
    -2
100
AcDbBlockReference
  2
_DOT
 10
8943.500578465611
 20
10335.05468780507
 30
0.0
 41
20.0
 42
20.0
 43
20.0
 50
270.0
  0
MTEXT
  5
14AAE
330
1393D
100
AcDbEntity
  8
寸法
 62
     7
 48
50.0
100
AcDbMText
 10
8851.500578465609
 20
10729.22135447174
 30
0.0
 40
120.0
 41
0.0
 71
     5
 72
     1
  1
\A1;55
  7
STYLE1
 11
0.0000000000000001
 21
1.0
 31
0.0
 73
     1
 44
1.0
1001
ACAD
1000
MTEXTBEGIN
1070
    73
1070
     1
1070
    44
1040
1.0
1070
    74
1070
     0
1000
MTEXTEND
  0
POINT
  5
14AAF
330
1393D
100
AcDbEntity
  8
DEFPOINTS
 62
     0
 48
50.0
100
AcDbPoint
 10
8172.753461421256
 20
10335.05468780507
 30
0.0
  0
POINT
  5
14AB0
330
1393D
100
AcDbEntity
  8
DEFPOINTS
 62
     0
 48
50.0
100
AcDbPoint
 10
8172.753461421256
 20
10280.05468780508
 30
0.0
  0
POINT
  5
14AB1
330
1393D
100
AcDbEntity
  8
DEFPOINTS
 62
     0
 48
50.0
100
AcDbPoint
 10
8943.500578465611
 20
10280.05468780508
 30
0.0
  0
ENDBLK
  5
1394A
330
1393D
100
AcDbEntity
  8
0
 48
50.0
100
AcDbBlockEnd
  0
BLOCK
  5
13955
330
1394B
100
AcDbEntity
  8
0
 48
50.0
100
AcDbBlockBegin
  2
*D13
 70
     1
 10
0.0
 20
0.0
 30
0.0
  3
*D13
  1

  0
LINE
  5
14A9E
330
1394B
100
AcDbEntity
  8
寸法
 62
     0
 48
50.0
370
    -2
100
AcDbLine
 10
8192.753461421254
 20
10280.05468780508
 30
0.0
 11
8983.50057846561
 21
10280.05468780508
 31
0.0
  0
LINE
  5
14A9F
330
1394B
100
AcDbEntity
  8
寸法
 62
     0
 48
50.0
370
    -2
100
AcDbLine
 10
8192.753461421256
 20
7340.05468780507
 30
0.0
 11
8983.50057846561
 21
7340.05468780507
 31
0.0
  0
LINE
  5
14AA0
330
1394B
100
AcDbEntity
  8
寸法
 62
     0
 48
50.0
370
    -2
100
AcDbLine
 10
8943.500578465609
 20
10260.05468780508
 30
0.0
 11
8943.500578465609
 21
7360.054687805071
 31
0.0
  0
INSERT
  5
14AA1
330
1394B
100
AcDbEntity
  8
寸法
 62
     0
 48
50.0
370
    -2
100
AcDbBlockReference
  2
_DOT
 10
8943.500578465609
 20
10280.05468780508
 30
0.0
 41
20.0
 42
20.0
 43
20.0
 50
90.0
  0
INSERT
  5
14AA2
330
1394B
100
AcDbEntity
  8
寸法
 62
     0
 48
50.0
370
    -2
100
AcDbBlockReference
  2
_DOT
 10
8943.500578465609
 20
7340.05468780507
 30
0.0
 41
20.0
 42
20.0
 43
20.0
 50
270.0
  0
MTEXT
  5
14AA3
330
1394B
100
AcDbEntity
  8
寸法
 62
     7
 48
50.0
100
AcDbMText
 10
8851.488767441987
 20
8810.054687805076
 30
0.0
 40
120.0
 41
0.0
 71
     5
 72
     1
  1
\A1;7X420=2940
  7
STYLE1
 11
0.0000000000000001
 21
1.0
 31
0.0
 73
     1
 44
1.0
1001
ACAD
1000
MTEXTBEGIN
1070
    73
1070
     1
1070
    44
1040
1.0
1070
    74
1070
     0
1000
MTEXTEND
  0
POINT
  5
14AA4
330
1394B
100
AcDbEntity
  8
DEFPOINTS
 62
     0
 48
50.0
100
AcDbPoint
 10
8172.753461421256
 20
10280.05468780508
 30
0.0
  0
POINT
  5
14AA5
330
1394B
100
AcDbEntity
  8
DEFPOINTS
 62
     0
 48
50.0
100
AcDbPoint
 10
8172.753461421256
 20
7340.05468780507
 30
0.0
  0
POINT
  5
14AA6
330
1394B
100
AcDbEntity
  8
DEFPOINTS
 62
     0
 48
50.0
100
AcDbPoint
 10
8943.500578465609
 20
7340.05468780507
 30
0.0
  0
ENDBLK
  5
13956
330
1394B
100
AcDbEntity
  8
0
 48
50.0
100
AcDbBlockEnd
  0
BLOCK
  5
13963
330
13957
100
AcDbEntity
  8
0
 48
50.0
100
AcDbBlockBegin
  2
*D14
 70
     1
 10
0.0
 20
0.0
 30
0.0
  3
*D14
  1

  0
LINE
  5
14A93
330
13957
100
AcDbEntity
  8
寸法
 62
     0
 48
50.0
370
    -2
100
AcDbLine
 10
8192.753461421256
 20
7340.05468780507
 30
0.0
 11
8983.500578465612
 21
7340.05468780507
 31
0.0
  0
LINE
  5
14A94
330
13957
100
AcDbEntity
  8
寸法
 62
     0
 48
50.0
370
    -2
100
AcDbLine
 10
8192.753461421256
 20
7285.054687805073
 30
0.0
 11
8983.500578465612
 21
7285.054687805073
 31
0.0
  0
LINE
  5
14A95
330
13957
100
AcDbEntity
  8
寸法
 62
     0
 48
50.0
370
    -2
100
AcDbLine
 10
8943.500578465611
 20
7360.054687805071
 30
0.0
 11
8943.500578465611
 21
7380.05468780507
 31
0.0
  0
LINE
  5
14A96
330
13957
100
AcDbEntity
  8
寸法
 62
     0
 48
50.0
370
    -2
100
AcDbLine
 10
8943.500578465611
 20
7265.054687805073
 30
0.0
 11
8943.500578465611
 21
6790.402739764168
 31
0.0
  0
LINE
  5
14A97
330
13957
100
AcDbEntity
  8
寸法
 62
     0
 48
50.0
370
    -2
100
AcDbLine
 10
8943.500578465611
 20
7340.05468780507
 30
0.0
 11
8943.500578465611
 21
7285.054687805073
 31
0.0
  0
INSERT
  5
14A98
330
13957
100
AcDbEntity
  8
寸法
 62
     0
 48
50.0
370
    -2
100
AcDbBlockReference
  2
_DOT
 10
8943.500578465611
 20
7340.05468780507
 30
0.0
 41
20.0
 42
20.0
 43
20.0
 50
270.0
  0
INSERT
  5
14A99
330
13957
100
AcDbEntity
  8
寸法
 62
     0
 48
50.0
370
    -2
100
AcDbBlockReference
  2
_DOT
 10
8943.500578465611
 20
7285.054687805073
 30
0.0
 41
20.0
 42
20.0
 43
20.0
 50
90.0
  0
MTEXT
  5
14A9A
330
13957
100
AcDbEntity
  8
寸法
 62
     7
 48
50.0
100
AcDbMText
 10
8851.500578465609
 20
6890.888021138408
 30
0.0
 40
120.0
 41
0.0
 71
     5
 72
     1
  1
\A1;55
  7
STYLE1
 11
0.0000000000000001
 21
1.0
 31
0.0
 73
     1
 44
1.0
1001
ACAD
1000
MTEXTBEGIN
1070
    73
1070
     1
1070
    44
1040
1.0
1070
    74
1070
     0
1000
MTEXTEND
  0
POINT
  5
14A9B
330
13957
100
AcDbEntity
  8
DEFPOINTS
 62
     0
 48
50.0
100
AcDbPoint
 10
8172.753461421256
 20
7340.05468780507
 30
0.0
  0
POINT
  5
14A9C
330
13957
100
AcDbEntity
  8
DEFPOINTS
 62
     0
 48
50.0
100
AcDbPoint
 10
8172.753461421256
 20
7285.054687805073
 30
0.0
  0
POINT
  5
14A9D
330
13957
100
AcDbEntity
  8
DEFPOINTS
 62
     0
 48
50.0
100
AcDbPoint
 10
8943.500578465611
 20
7285.054687805073
 30
0.0
  0
ENDBLK
  5
13964
330
13957
100
AcDbEntity
  8
0
 48
50.0
100
AcDbBlockEnd
  0
BLOCK
  5
1396F
330
13965
100
AcDbEntity
  8
0
 48
50.0
100
AcDbBlockBegin
  2
*D15
 70
     1
 10
0.0
 20
0.0
 30
0.0
  3
*D15
  1

  0
LINE
  5
14A8A
330
13965
100
AcDbEntity
  8
寸法
 62
     0
 48
50.0
370
    -2
100
AcDbLine
 10
8192.753461421254
 20
10335.05468780507
 30
0.0
 11
9283.500578465611
 21
10335.05468780507
 31
0.0
  0
LINE
  5
14A8B
330
13965
100
AcDbEntity
  8
寸法
 62
     0
 48
50.0
370
    -2
100
AcDbLine
 10
8192.753461421256
 20
7285.054687805073
 30
0.0
 11
9283.500578465611
 21
7285.054687805073
 31
0.0
  0
LINE
  5
14A8C
330
13965
100
AcDbEntity
  8
寸法
 62
     0
 48
50.0
370
    -2
100
AcDbLine
 10
9243.50057846561
 20
10315.05468780507
 30
0.0
 11
9243.50057846561
 21
7305.054687805072
 31
0.0
  0
INSERT
  5
14A8D
330
13965
100
AcDbEntity
  8
寸法
 62
     0
 48
50.0
370
    -2
100
AcDbBlockReference
  2
_DOT
 10
9243.50057846561
 20
10335.05468780507
 30
0.0
 41
20.0
 42
20.0
 43
20.0
 50
90.0
  0
INSERT
  5
14A8E
330
13965
100
AcDbEntity
  8
寸法
 62
     0
 48
50.0
370
    -2
100
AcDbBlockReference
  2
_DOT
 10
9243.50057846561
 20
7285.054687805073
 30
0.0
 41
20.0
 42
20.0
 43
20.0
 50
270.0
  0
MTEXT
  5
14A8F
330
13965
100
AcDbEntity
  8
寸法
 62
     7
 48
50.0
100
AcDbMText
 10
9151.500578465608
 20
8810.054687805076
 30
0.0
 40
120.0
 41
0.0
 71
     5
 72
     1
  1
\A1;3050
  7
STYLE1
 11
0.0000000000000001
 21
1.0
 31
0.0
 73
     1
 44
1.0
1001
ACAD
1000
MTEXTBEGIN
1070
    73
1070
     1
1070
    44
1040
1.0
1070
    74
1070
     0
1000
MTEXTEND
  0
POINT
  5
14A90
330
13965
100
AcDbEntity
  8
DEFPOINTS
 62
     0
 48
50.0
100
AcDbPoint
 10
8172.753461421256
 20
10335.05468780507
 30
0.0
  0
POINT
  5
14A91
330
13965
100
AcDbEntity
  8
DEFPOINTS
 62
     0
 48
50.0
100
AcDbPoint
 10
8172.753461421256
 20
7285.054687805073
 30
0.0
  0
POINT
  5
14A92
330
13965
100
AcDbEntity
  8
DEFPOINTS
 62
     0
 48
50.0
100
AcDbPoint
 10
9243.50057846561
 20
7285.054687805073
 30
0.0
  0
ENDBLK
  5
13970
330
13965
100
AcDbEntity
  8
0
 48
50.0
100
AcDbBlockEnd
  0
BLOCK
  5
1397D
330
13971
100
AcDbEntity
  8
0
 48
50.0
100
AcDbBlockBegin
  2
*D16
 70
     1
 10
0.0
 20
0.0
 30
0.0
  3
*D16
  1

  0
LINE
  5
14A7F
330
13971
100
AcDbEntity
  8
寸法
 62
     0
 48
50.0
370
    -2
100
AcDbLine
 10
8117.753461421257
 20
10355.05468780507
 30
0.0
 11
8117.753461421257
 21
10749.76709782387
 31
0.0
  0
LINE
  5
14A80
330
13971
100
AcDbEntity
  8
寸法
 62
     0
 48
50.0
370
    -2
100
AcDbLine
 10
8172.753461421256
 20
10355.05468780507
 30
0.0
 11
8172.753461421256
 21
10749.76709782387
 31
0.0
  0
LINE
  5
14A81
330
13971
100
AcDbEntity
  8
寸法
 62
     0
 48
50.0
370
    -2
100
AcDbLine
 10
8097.753461421255
 20
10709.76709782387
 30
0.0
 11
8077.753461421258
 21
10709.76709782387
 31
0.0
  0
LINE
  5
14A82
330
13971
100
AcDbEntity
  8
寸法
 62
     0
 48
50.0
370
    -2
100
AcDbLine
 10
8192.753461421256
 20
10709.76709782387
 30
0.0
 11
8667.405409462162
 21
10709.76709782387
 31
0.0
  0
LINE
  5
14A83
330
13971
100
AcDbEntity
  8
寸法
 62
     0
 48
50.0
370
    -2
100
AcDbLine
 10
8117.753461421257
 20
10709.76709782387
 30
0.0
 11
8172.753461421256
 21
10709.76709782387
 31
0.0
  0
INSERT
  5
14A84
330
13971
100
AcDbEntity
  8
寸法
 62
     0
 48
50.0
370
    -2
100
AcDbBlockReference
  2
_DOT
 10
8117.753461421257
 20
10709.76709782387
 30
0.0
 41
20.0
 42
20.0
 43
20.0
  0
INSERT
  5
14A85
330
13971
100
AcDbEntity
  8
寸法
 62
     0
 48
50.0
370
    -2
100
AcDbBlockReference
  2
_DOT
 10
8172.753461421256
 20
10709.76709782387
 30
0.0
 41
20.0
 42
20.0
 43
20.0
 50
180.0
  0
MTEXT
  5
14A86
330
13971
100
AcDbEntity
  8
寸法
 62
     7
 48
50.0
100
AcDbMText
 10
8566.920128087925
 20
10801.76709782387
 30
0.0
 40
120.0
 41
0.0
 71
     5
 72
     1
  1
\A1;55
  7
STYLE1
 73
     1
 44
1.0
1001
ACAD
1000
MTEXTBEGIN
1070
    73
1070
     1
1070
    44
1040
1.0
1070
    74
1070
     0
1000
MTEXTEND
  0
POINT
  5
14A87
330
13971
100
AcDbEntity
  8
DEFPOINTS
 62
     0
 48
50.0
100
AcDbPoint
 10
8117.753461421257
 20
10335.05468780507
 30
0.0
  0
POINT
  5
14A88
330
13971
100
AcDbEntity
  8
DEFPOINTS
 62
     0
 48
50.0
100
AcDbPoint
 10
8172.753461421256
 20
10335.05468780507
 30
0.0
  0
POINT
  5
14A89
330
13971
100
AcDbEntity
  8
DEFPOINTS
 62
     0
 48
50.0
100
AcDbPoint
 10
8172.753461421256
 20
10709.76709782387
 30
0.0
  0
ENDBLK
  5
1397E
330
13971
100
AcDbEntity
  8
0
 48
50.0
100
AcDbBlockEnd
  0
BLOCK
  5
140A5
330
1409B
100
AcDbEntity
  8
0
 48
50.0
100
AcDbBlockBegin
  2
*D17
 70
     1
 10
0.0
 20
0.0
 30
0.0
  3
*D17
  1

  0
LINE
  5
1428D
330
1409B
100
AcDbEntity
  8
寸法
 62
     0
 48
50.0
370
    -2
100
AcDbLine
 10
11112.10786956492
 20
4379.112805903254
 30
0.0
 11
10624.19922816767
 21
4379.112805903254
 31
0.0
  0
LINE
  5
1428E
330
1409B
100
AcDbEntity
  8
寸法
 62
     0
 48
50.0
370
    -2
100
AcDbLine
 10
11112.10786956492
 20
2354.112805903255
 30
0.0
 11
10624.19922816766
 21
2354.112805903255
 31
0.0
  0
LINE
  5
1428F
330
1409B
100
AcDbEntity
  8
寸法
 62
     0
 48
50.0
370
    -2
100
AcDbLine
 10
10664.19922816767
 20
4359.112805903254
 30
0.0
 11
10664.19922816766
 21
2374.112805903255
 31
0.0
  0
INSERT
  5
14290
330
1409B
100
AcDbEntity
  8
寸法
 62
     0
 48
50.0
370
    -2
100
AcDbBlockReference
  2
_DOT
 10
10664.19922816767
 20
4379.112805903254
 30
0.0
 41
20.0
 42
20.0
 43
20.0
 50
90.0
  0
INSERT
  5
14291
330
1409B
100
AcDbEntity
  8
寸法
 62
     0
 48
50.0
370
    -2
100
AcDbBlockReference
  2
_DOT
 10
10664.19922816766
 20
2354.112805903255
 30
0.0
 41
20.0
 42
20.0
 43
20.0
 50
270.0
  0
MTEXT
  5
14292
330
1409B
100
AcDbEntity
  8
寸法
 62
     7
 48
50.0
100
AcDbMText
 10
10572.18741714404
 20
3366.612805903257
 30
0.0
 40
120.0
 41
0.0
 71
     5
 72
     1
  1
\A1;有効開口部高サ2025
  7
STYLE1
 11
0.0000000000000001
 21
1.0
 31
0.0
 73
     1
 44
1.0
1001
ACAD
1000
MTEXTBEGIN
1070
    73
1070
     1
1070
    44
1040
1.0
1070
    74
1070
     0
1000
MTEXTEND
  0
POINT
  5
14293
330
1409B
100
AcDbEntity
  8
DEFPOINTS
 62
     0
 48
50.0
100
AcDbPoint
 10
11132.10786956492
 20
4379.112805903254
 30
0.0
  0
POINT
  5
14294
330
1409B
100
AcDbEntity
  8
DEFPOINTS
 62
     0
 48
50.0
100
AcDbPoint
 10
11132.10786956492
 20
2354.112805903255
 30
0.0
  0
POINT
  5
14295
330
1409B
100
AcDbEntity
  8
DEFPOINTS
 62
     0
 48
50.0
100
AcDbPoint
 10
10664.19922816766
 20
2354.112805903255
 30
0.0
  0
ENDBLK
  5
140A6
330
1409B
100
AcDbEntity
  8
0
 48
50.0
100
AcDbBlockEnd
  0
BLOCK
  5
140B1
330
140A7
100
AcDbEntity
  8
0
 48
50.0
100
AcDbBlockBegin
  2
*D18
 70
     1
 10
0.0
 20
0.0
 30
0.0
  3
*D18
  1

  0
LINE
  5
14284
330
140A7
100
AcDbEntity
  8
寸法
 62
     0
 48
50.0
370
    -2
100
AcDbLine
 10
11189.10786956492
 20
4428.112805903251
 30
0.0
 11
10305.35774038166
 21
4428.112805903251
 31
0.0
  0
LINE
  5
14285
330
140A7
100
AcDbEntity
  8
寸法
 62
     0
 48
50.0
370
    -2
100
AcDbLine
 10
11189.10786956492
 20
2338.11280590325
 30
0.0
 11
10305.35774038166
 21
2338.11280590325
 31
0.0
  0
LINE
  5
14286
330
140A7
100
AcDbEntity
  8
寸法
 62
     0
 48
50.0
370
    -2
100
AcDbLine
 10
10365.35774038166
 20
4428.112805903251
 30
0.0
 11
10365.35774038166
 21
2338.11280590325
 31
0.0
  0
INSERT
  5
14287
330
140A7
100
AcDbEntity
  8
寸法
 62
     0
 48
50.0
370
    -2
100
AcDbBlockReference
  2
_DOTSMALL
 10
10365.35774038166
 20
4428.112805903251
 30
0.0
 41
100.0
 42
100.0
 43
100.0
 50
90.0
  0
INSERT
  5
14288
330
140A7
100
AcDbEntity
  8
寸法
 62
     0
 48
50.0
370
    -2
100
AcDbBlockReference
  2
_DOTSMALL
 10
10365.35774038166
 20
2338.11280590325
 30
0.0
 41
100.0
 42
100.0
 43
100.0
 50
270.0
  0
MTEXT
  5
14289
330
140A7
100
AcDbEntity
  8
寸法
 62
     7
 48
50.0
100
AcDbMText
 10
10265.34592935804
 20
3383.112805903252
 30
0.0
 40
120.0
 41
0.0
 71
     5
 72
     1
  1
\A1;2090
  7
STYLE1
 11
0.0000000000000001
 21
1.0
 31
0.0
 73
     1
 44
1.0
1001
ACAD
1000
MTEXTBEGIN
1070
    73
1070
     1
1070
    44
1040
1.0
1070
    74
1070
     0
1000
MTEXTEND
  0
POINT
  5
1428A
330
140A7
100
AcDbEntity
  8
DEFPOINTS
 62
     0
 48
50.0
100
AcDbPoint
 10
11209.10786956492
 20
4428.112805903251
 30
0.0
  0
POINT
  5
1428B
330
140A7
100
AcDbEntity
  8
DEFPOINTS
 62
     0
 48
50.0
100
AcDbPoint
 10
11209.10786956492
 20
2338.11280590325
 30
0.0
  0
POINT
  5
1428C
330
140A7
100
AcDbEntity
  8
DEFPOINTS
 62
     0
 48
50.0
100
AcDbPoint
 10
10365.35774038166
 20
2338.11280590325
 30
0.0
  0
ENDBLK
  5
140B2
330
140A7
100
AcDbEntity
  8
0
 48
50.0
100
AcDbBlockEnd
  0
BLOCK
  5
140BD
330
140B3
100
AcDbEntity
  8
0
 48
50.0
100
AcDbBlockBegin
  2
*D19
 70
     1
 10
0.0
 20
0.0
 30
0.0
  3
*D19
  1

  0
LINE
  5
1427B
330
140B3
100
AcDbEntity
  8
寸法
 62
     0
 48
50.0
370
    -2
100
AcDbLine
 10
11112.10786956492
 20
2288.11280590325
 30
0.0
 11
10005.35774038166
 21
2288.11280590325
 31
0.0
  0
LINE
  5
1427C
330
140B3
100
AcDbEntity
  8
寸法
 62
     0
 48
50.0
370
    -2
100
AcDbLine
 10
11129.10786956492
 20
4663.112805903255
 30
0.0
 11
10005.35774038166
 21
4663.112805903256
 31
0.0
  0
LINE
  5
1427D
330
140B3
100
AcDbEntity
  8
寸法
 62
     0
 48
50.0
370
    -2
100
AcDbLine
 10
10065.35774038166
 20
2288.11280590325
 30
0.0
 11
10065.35774038166
 21
4663.112805903256
 31
0.0
  0
INSERT
  5
1427E
330
140B3
100
AcDbEntity
  8
寸法
 62
     0
 48
50.0
370
    -2
100
AcDbBlockReference
  2
_DOTSMALL
 10
10065.35774038166
 20
2288.11280590325
 30
0.0
 41
100.0
 42
100.0
 43
100.0
 50
270.0
  0
INSERT
  5
1427F
330
140B3
100
AcDbEntity
  8
寸法
 62
     0
 48
50.0
370
    -2
100
AcDbBlockReference
  2
_DOTSMALL
 10
10065.35774038166
 20
4663.112805903256
 30
0.0
 41
100.0
 42
100.0
 43
100.0
 50
90.0
  0
MTEXT
  5
14280
330
140B3
100
AcDbEntity
  8
寸法
 62
     7
 48
50.0
100
AcDbMText
 10
9965.34592935804
 20
3475.612805903254
 30
0.0
 40
120.0
 41
0.0
 71
     5
 72
     1
  1
\A1;2375
  7
STYLE1
 11
0.0000000000000001
 21
1.0
 31
0.0
 73
     1
 44
1.0
1001
ACAD
1000
MTEXTBEGIN
1070
    73
1070
     1
1070
    44
1040
1.0
1070
    74
1070
     0
1000
MTEXTEND
  0
POINT
  5
14281
330
140B3
100
AcDbEntity
  8
DEFPOINTS
 62
     0
 48
50.0
100
AcDbPoint
 10
11132.10786956492
 20
2288.11280590325
 30
0.0
  0
POINT
  5
14282
330
140B3
100
AcDbEntity
  8
DEFPOINTS
 62
     0
 48
50.0
100
AcDbPoint
 10
11149.10786956492
 20
4663.112805903255
 30
0.0
  0
POINT
  5
14283
330
140B3
100
AcDbEntity
  8
DEFPOINTS
 62
     0
 48
50.0
100
AcDbPoint
 10
10065.35774038166
 20
4663.112805903256
 30
0.0
  0
ENDBLK
  5
140BE
330
140B3
100
AcDbEntity
  8
0
 48
50.0
100
AcDbBlockEnd
  0
BLOCK
  5
140C9
330
140BF
100
AcDbEntity
  8
0
 48
50.0
100
AcDbBlockBegin
  2
*D20
 70
     1
 10
0.0
 20
0.0
 30
0.0
  3
*D20
  1

  0
LINE
  5
14272
330
140BF
100
AcDbEntity
  8
寸法
 62
     0
 48
50.0
370
    -2
100
AcDbLine
 10
14279.10786956492
 20
2288.112805903256
 30
0.0
 11
15024.03502753705
 21
2288.112805903256
 31
0.0
  0
LINE
  5
14273
330
140BF
100
AcDbEntity
  8
寸法
 62
     0
 48
50.0
370
    -2
100
AcDbLine
 10
14359.10786956492
 20
4608.112805903256
 30
0.0
 11
15024.03502753705
 21
4608.112805903256
 31
0.0
  0
LINE
  5
14274
330
140BF
100
AcDbEntity
  8
寸法
 62
     0
 48
50.0
370
    -2
100
AcDbLine
 10
14964.03502753705
 20
2288.112805903256
 30
0.0
 11
14964.03502753705
 21
4608.112805903256
 31
0.0
  0
INSERT
  5
14275
330
140BF
100
AcDbEntity
  8
寸法
 62
     0
 48
50.0
370
    -2
100
AcDbBlockReference
  2
_DOTSMALL
 10
14964.03502753705
 20
2288.112805903256
 30
0.0
 41
100.0
 42
100.0
 43
100.0
 50
270.0
  0
INSERT
  5
14276
330
140BF
100
AcDbEntity
  8
寸法
 62
     0
 48
50.0
370
    -2
100
AcDbBlockReference
  2
_DOTSMALL
 10
14964.03502753705
 20
4608.112805903256
 30
0.0
 41
100.0
 42
100.0
 43
100.0
 50
90.0
  0
MTEXT
  5
14277
330
140BF
100
AcDbEntity
  8
寸法
 62
     7
 48
50.0
100
AcDbMText
 10
14864.02321651343
 20
3448.112805903259
 30
0.0
 40
120.0
 41
0.0
 71
     5
 72
     1
  1
\A1;2320
  7
STYLE1
 11
0.0000000000000001
 21
1.0
 31
0.0
 73
     1
 44
1.0
1001
ACAD
1000
MTEXTBEGIN
1070
    73
1070
     1
1070
    44
1040
1.0
1070
    74
1070
     0
1000
MTEXTEND
  0
POINT
  5
14278
330
140BF
100
AcDbEntity
  8
DEFPOINTS
 62
     0
 48
50.0
100
AcDbPoint
 10
14259.10786956492
 20
2288.112805903256
 30
0.0
  0
POINT
  5
14279
330
140BF
100
AcDbEntity
  8
DEFPOINTS
 62
     0
 48
50.0
100
AcDbPoint
 10
14339.10786956492
 20
4608.112805903256
 30
0.0
  0
POINT
  5
1427A
330
140BF
100
AcDbEntity
  8
DEFPOINTS
 62
     0
 48
50.0
100
AcDbPoint
 10
14964.03502753705
 20
4608.112805903256
 30
0.0
  0
ENDBLK
  5
140CA
330
140BF
100
AcDbEntity
  8
0
 48
50.0
100
AcDbBlockEnd
  0
BLOCK
  5
140D7
330
140CB
100
AcDbEntity
  8
0
 48
50.0
100
AcDbBlockBegin
  2
*D21
 70
     1
 10
0.0
 20
0.0
 30
0.0
  3
*D21
  1

  0
LINE
  5
14267
330
140CB
100
AcDbEntity
  8
寸法
 62
     0
 48
50.0
370
    -2
100
AcDbLine
 10
11189.10786956492
 20
2338.112805903254
 30
0.0
 11
10305.35774038166
 21
2338.112805903254
 31
0.0
  0
LINE
  5
14268
330
140CB
100
AcDbEntity
  8
寸法
 62
     0
 48
50.0
370
    -2
100
AcDbLine
 10
11112.10786956492
 20
2288.11280590325
 30
0.0
 11
10305.35774038166
 21
2288.11280590325
 31
0.0
  0
LINE
  5
14269
330
140CB
100
AcDbEntity
  8
寸法
 62
     0
 48
50.0
370
    -2
100
AcDbLine
 10
10365.35774038166
 20
2338.112805903254
 30
0.0
 11
10365.35774038166
 21
2438.112805903255
 31
0.0
  0
LINE
  5
1426A
330
140CB
100
AcDbEntity
  8
寸法
 62
     0
 48
50.0
370
    -2
100
AcDbLine
 10
10365.35774038166
 20
2288.11280590325
 30
0.0
 11
10365.35774038166
 21
1876.018317714271
 31
0.0
  0
LINE
  5
1426B
330
140CB
100
AcDbEntity
  8
寸法
 62
     0
 48
50.0
370
    -2
100
AcDbLine
 10
10365.35774038166
 20
2338.112805903254
 30
0.0
 11
10365.35774038166
 21
2288.11280590325
 31
0.0
  0
INSERT
  5
1426C
330
140CB
100
AcDbEntity
  8
寸法
 62
     0
 48
50.0
370
    -2
100
AcDbBlockReference
  2
_DOTSMALL
 10
10365.35774038166
 20
2338.112805903254
 30
0.0
 41
100.0
 42
100.0
 43
100.0
 50
270.0
  0
INSERT
  5
1426D
330
140CB
100
AcDbEntity
  8
寸法
 62
     0
 48
50.0
370
    -2
100
AcDbBlockReference
  2
_DOTSMALL
 10
10365.35774038166
 20
2288.11280590325
 30
0.0
 41
100.0
 42
100.0
 43
100.0
 50
90.0
  0
MTEXT
  5
1426E
330
140CB
100
AcDbEntity
  8
寸法
 62
     7
 48
50.0
100
AcDbMText
 10
10265.35774038166
 20
1982.065561808761
 30
0.0
 40
120.0
 41
0.0
 71
     5
 72
     1
  1
\A1;50
  7
STYLE1
 11
0.0000000000000001
 21
1.0
 31
0.0
 73
     1
 44
1.0
1001
ACAD
1000
MTEXTBEGIN
1070
    73
1070
     1
1070
    44
1040
1.0
1070
    74
1070
     0
1000
MTEXTEND
  0
POINT
  5
1426F
330
140CB
100
AcDbEntity
  8
DEFPOINTS
 62
     0
 48
50.0
100
AcDbPoint
 10
11209.10786956492
 20
2338.112805903254
 30
0.0
  0
POINT
  5
14270
330
140CB
100
AcDbEntity
  8
DEFPOINTS
 62
     0
 48
50.0
100
AcDbPoint
 10
11132.10786956492
 20
2288.11280590325
 30
0.0
  0
POINT
  5
14271
330
140CB
100
AcDbEntity
  8
DEFPOINTS
 62
     0
 48
50.0
100
AcDbPoint
 10
10365.35774038166
 20
2288.11280590325
 30
0.0
  0
ENDBLK
  5
140D8
330
140CB
100
AcDbEntity
  8
0
 48
50.0
100
AcDbBlockEnd
  0
BLOCK
  5
140E3
330
140D9
100
AcDbEntity
  8
0
 48
50.0
100
AcDbBlockBegin
  2
*D22
 70
     1
 10
0.0
 20
0.0
 30
0.0
  3
*D22
  1

  0
LINE
  5
1425E
330
140D9
100
AcDbEntity
  8
寸法
 62
     0
 48
50.0
370
    -2
100
AcDbLine
 10
14259.10786956492
 20
4629.92348551491
 30
0.0
 11
14259.10786956492
 21
5121.77025948256
 31
0.0
  0
LINE
  5
1425F
330
140D9
100
AcDbEntity
  8
寸法
 62
     0
 48
50.0
370
    -2
100
AcDbLine
 10
11209.10786956492
 20
4679.114424026231
 30
0.0
 11
11209.10786956492
 21
5121.77025948256
 31
0.0
  0
LINE
  5
14260
330
140D9
100
AcDbEntity
  8
寸法
 62
     0
 48
50.0
370
    -2
100
AcDbLine
 10
14259.10786956492
 20
5061.77025948256
 30
0.0
 11
11209.10786956492
 21
5061.77025948256
 31
0.0
  0
INSERT
  5
14261
330
140D9
100
AcDbEntity
  8
寸法
 62
     0
 48
50.0
370
    -2
100
AcDbBlockReference
  2
_DOTSMALL
 10
14259.10786956492
 20
5061.77025948256
 30
0.0
 41
100.0
 42
100.0
 43
100.0
  0
INSERT
  5
14262
330
140D9
100
AcDbEntity
  8
寸法
 62
     0
 48
50.0
370
    -2
100
AcDbBlockReference
  2
_DOTSMALL
 10
11209.10786956492
 20
5061.77025948256
 30
0.0
 41
100.0
 42
100.0
 43
100.0
 50
180.0
  0
MTEXT
  5
14263
330
140D9
100
AcDbEntity
  8
寸法
 62
     7
 48
50.0
100
AcDbMText
 10
12779.16624412433
 20
5161.770259482561
 30
0.0
 40
120.0
 41
0.0
 71
     5
 72
     1
  1
\A1;柱外寸法3050
  7
STYLE1
 73
     1
 44
1.0
1001
ACAD
1000
MTEXTBEGIN
1070
    73
1070
     1
1070
    44
1040
1.0
1070
    74
1070
     0
1000
MTEXTEND
  0
POINT
  5
14264
330
140D9
100
AcDbEntity
  8
DEFPOINTS
 62
     0
 48
50.0
100
AcDbPoint
 10
14259.10786956492
 20
4609.92348551491
 30
0.0
  0
POINT
  5
14265
330
140D9
100
AcDbEntity
  8
DEFPOINTS
 62
     0
 48
50.0
100
AcDbPoint
 10
11209.10786956492
 20
4659.11442402623
 30
0.0
  0
POINT
  5
14266
330
140D9
100
AcDbEntity
  8
DEFPOINTS
 62
     0
 48
50.0
100
AcDbPoint
 10
11209.10786956492
 20
5061.77025948256
 30
0.0
  0
ENDBLK
  5
140E4
330
140D9
100
AcDbEntity
  8
0
 48
50.0
100
AcDbBlockEnd
  0
BLOCK
  5
140F1
330
140E5
100
AcDbEntity
  8
0
 48
50.0
100
AcDbBlockBegin
  2
*D23
 70
     1
 10
0.0
 20
0.0
 30
0.0
  3
*D23
  1

  0
LINE
  5
14253
330
140E5
100
AcDbEntity
  8
寸法
 62
     0
 48
50.0
370
    -2
100
AcDbLine
 10
11209.10786956492
 20
4679.114424026231
 30
0.0
 11
11209.10786956492
 21
5121.770259482559
 31
0.0
  0
LINE
  5
14254
330
140E5
100
AcDbEntity
  8
寸法
 62
     0
 48
50.0
370
    -2
100
AcDbLine
 10
11149.10786956492
 20
4683.112805903259
 30
0.0
 11
11149.10786956492
 21
5121.770259482559
 31
0.0
  0
LINE
  5
14255
330
140E5
100
AcDbEntity
  8
寸法
 62
     0
 48
50.0
370
    -2
100
AcDbLine
 10
11209.10786956492
 20
5061.770259482559
 30
0.0
 11
11309.10786956492
 21
5061.770259482559
 31
0.0
  0
LINE
  5
14256
330
140E5
100
AcDbEntity
  8
寸法
 62
     0
 48
50.0
370
    -2
100
AcDbLine
 10
11149.10786956492
 20
5061.770259482559
 30
0.0
 11
10729.83227901374
 21
5061.770259482559
 31
0.0
  0
LINE
  5
14257
330
140E5
100
AcDbEntity
  8
寸法
 62
     0
 48
50.0
370
    -2
100
AcDbLine
 10
11209.10786956492
 20
5061.770259482559
 30
0.0
 11
11149.10786956492
 21
5061.770259482559
 31
0.0
  0
INSERT
  5
14258
330
140E5
100
AcDbEntity
  8
寸法
 62
     0
 48
50.0
370
    -2
100
AcDbBlockReference
  2
_DOTSMALL
 10
11209.10786956492
 20
5061.770259482559
 30
0.0
 41
100.0
 42
100.0
 43
100.0
 50
180.0
  0
INSERT
  5
14259
330
140E5
100
AcDbEntity
  8
寸法
 62
     0
 48
50.0
370
    -2
100
AcDbBlockReference
  2
_DOTSMALL
 10
11149.10786956492
 20
5061.770259482559
 30
0.0
 41
100.0
 42
100.0
 43
100.0
  0
MTEXT
  5
1425A
330
140E5
100
AcDbEntity
  8
寸法
 62
     7
 48
50.0
100
AcDbMText
 10
10839.47007428933
 20
5161.770259482558
 30
0.0
 40
120.0
 41
0.0
 71
     5
 72
     1
  1
\A1;60
  7
STYLE1
 73
     1
 44
1.0
1001
ACAD
1000
MTEXTBEGIN
1070
    73
1070
     1
1070
    44
1040
1.0
1070
    74
1070
     0
1000
MTEXTEND
  0
POINT
  5
1425B
330
140E5
100
AcDbEntity
  8
DEFPOINTS
 62
     0
 48
50.0
100
AcDbPoint
 10
11209.10786956492
 20
4659.11442402623
 30
0.0
  0
POINT
  5
1425C
330
140E5
100
AcDbEntity
  8
DEFPOINTS
 62
     0
 48
50.0
100
AcDbPoint
 10
11149.10786956492
 20
4663.112805903259
 30
0.0
  0
POINT
  5
1425D
330
140E5
100
AcDbEntity
  8
DEFPOINTS
 62
     0
 48
50.0
100
AcDbPoint
 10
11149.10786956492
 20
5061.770259482559
 30
0.0
  0
ENDBLK
  5
140F2
330
140E5
100
AcDbEntity
  8
0
 48
50.0
100
AcDbBlockEnd
  0
BLOCK
  5
140FD
330
140F3
100
AcDbEntity
  8
0
 48
50.0
100
AcDbBlockBegin
  2
*D24
 70
     1
 10
0.0
 20
0.0
 30
0.0
  3
*D24
  1

  0
LINE
  5
1424A
330
140F3
100
AcDbEntity
  8
寸法
 62
     0
 48
50.0
370
    -2
100
AcDbLine
 10
14339.10786956492
 20
4628.112805903255
 30
0.0
 11
14339.10786956492
 21
5351.883852268837
 31
0.0
  0
LINE
  5
1424B
330
140F3
100
AcDbEntity
  8
寸法
 62
     0
 48
50.0
370
    -2
100
AcDbLine
 10
11149.10786956492
 20
4683.112805903259
 30
0.0
 11
11149.10786956492
 21
5351.883852268837
 31
0.0
  0
LINE
  5
1424C
330
140F3
100
AcDbEntity
  8
寸法
 62
     0
 48
50.0
370
    -2
100
AcDbLine
 10
14339.10786956492
 20
5291.883852268837
 30
0.0
 11
11149.10786956492
 21
5291.883852268837
 31
0.0
  0
INSERT
  5
1424D
330
140F3
100
AcDbEntity
  8
寸法
 62
     0
 48
50.0
370
    -2
100
AcDbBlockReference
  2
_DOTSMALL
 10
14339.10786956492
 20
5291.883852268837
 30
0.0
 41
100.0
 42
100.0
 43
100.0
  0
INSERT
  5
1424E
330
140F3
100
AcDbEntity
  8
寸法
 62
     0
 48
50.0
370
    -2
100
AcDbBlockReference
  2
_DOTSMALL
 10
11149.10786956492
 20
5291.883852268837
 30
0.0
 41
100.0
 42
100.0
 43
100.0
 50
180.0
  0
MTEXT
  5
1424F
330
140F3
100
AcDbEntity
  8
寸法
 62
     7
 48
50.0
100
AcDbMText
 10
12820.81367587444
 20
5391.883852268836
 30
0.0
 40
120.0
 41
0.0
 71
     5
 72
     1
  1
\A1;3190
  7
STYLE1
 73
     1
 44
1.0
1001
ACAD
1000
MTEXTBEGIN
1070
    73
1070
     1
1070
    44
1040
1.0
1070
    74
1070
     0
1000
MTEXTEND
  0
POINT
  5
14250
330
140F3
100
AcDbEntity
  8
DEFPOINTS
 62
     0
 48
50.0
100
AcDbPoint
 10
14339.10786956492
 20
4608.112805903256
 30
0.0
  0
POINT
  5
14251
330
140F3
100
AcDbEntity
  8
DEFPOINTS
 62
     0
 48
50.0
100
AcDbPoint
 10
11149.10786956492
 20
4663.112805903259
 30
0.0
  0
POINT
  5
14252
330
140F3
100
AcDbEntity
  8
DEFPOINTS
 62
     0
 48
50.0
100
AcDbPoint
 10
11149.10786956492
 20
5291.883852268837
 30
0.0
  0
ENDBLK
  5
140FE
330
140F3
100
AcDbEntity
  8
0
 48
50.0
100
AcDbBlockEnd
  0
BLOCK
  5
1410A
330
140FF
100
AcDbEntity
  8
0
 48
50.0
100
AcDbBlockBegin
  2
*D25
 70
     1
 10
0.0
 20
0.0
 30
0.0
  3
*D25
  1

  0
LINE
  5
14240
330
140FF
100
AcDbEntity
  8
寸法
 62
     0
 48
50.0
370
    -2
100
AcDbLine
 10
14259.10786956492
 20
4629.92348551491
 30
0.0
 11
14259.10786956492
 21
5121.77025948256
 31
0.0
  0
LINE
  5
14241
330
140FF
100
AcDbEntity
  8
寸法
 62
     0
 48
50.0
370
    -2
100
AcDbLine
 10
14339.10786956492
 20
4628.112805903258
 30
0.0
 11
14339.10786956492
 21
5121.77025948256
 31
0.0
  0
LINE
  5
14242
330
140FF
100
AcDbEntity
  8
寸法
 62
     0
 48
50.0
370
    -2
100
AcDbLine
 10
14259.10786956492
 20
5061.77025948256
 30
0.0
 11
14339.10786956492
 21
5061.77025948256
 31
0.0
  0
LINE
  5
14243
330
140FF
100
AcDbEntity
  8
寸法
 62
     0
 48
50.0
370
    -2
100
AcDbLine
 10
14339.10786956492
 20
5061.77025948256
 30
0.0
 11
14651.2023577539
 21
5061.77025948256
 31
0.0
  0
INSERT
  5
14244
330
140FF
100
AcDbEntity
  8
寸法
 62
     0
 48
50.0
370
    -2
100
AcDbBlockReference
  2
_DOTSMALL
 10
14259.10786956492
 20
5061.77025948256
 30
0.0
 41
100.0
 42
100.0
 43
100.0
 50
180.0
  0
INSERT
  5
14245
330
140FF
100
AcDbEntity
  8
寸法
 62
     0
 48
50.0
370
    -2
100
AcDbBlockReference
  2
_DOTSMALL
 10
14339.10786956492
 20
5061.77025948256
 30
0.0
 41
100.0
 42
100.0
 43
100.0
  0
MTEXT
  5
14246
330
140FF
100
AcDbEntity
  8
寸法
 62
     7
 48
50.0
100
AcDbMText
 10
14545.15511365941
 20
5161.770259482561
 30
0.0
 40
120.0
 41
0.0
 71
     5
 72
     1
  1
\A1;80
  7
STYLE1
 73
     1
 44
1.0
1001
ACAD
1000
MTEXTBEGIN
1070
    73
1070
     1
1070
    44
1040
1.0
1070
    74
1070
     0
1000
MTEXTEND
  0
POINT
  5
14247
330
140FF
100
AcDbEntity
  8
DEFPOINTS
 62
     0
 48
50.0
100
AcDbPoint
 10
14259.10786956492
 20
4609.92348551491
 30
0.0
  0
POINT
  5
14248
330
140FF
100
AcDbEntity
  8
DEFPOINTS
 62
     0
 48
50.0
100
AcDbPoint
 10
14339.10786956492
 20
4608.112805903258
 30
0.0
  0
POINT
  5
14249
330
140FF
100
AcDbEntity
  8
DEFPOINTS
 62
     0
 48
50.0
100
AcDbPoint
 10
14339.10786956492
 20
5061.77025948256
 30
0.0
  0
ENDBLK
  5
1410B
330
140FF
100
AcDbEntity
  8
0
 48
50.0
100
AcDbBlockEnd
  0
BLOCK
  5
14117
330
1410C
100
AcDbEntity
  8
0
 48
50.0
100
AcDbBlockBegin
  2
*D26
 70
     1
 10
0.0
 20
0.0
 30
0.0
  3
*D26
  1

  0
LINE
  5
14236
330
1410C
100
AcDbEntity
  8
寸法
 62
     0
 48
50.0
370
    -2
100
AcDbLine
 10
11148.51215585602
 20
4662.410512972916
 30
0.0
 11
10532.57771675074
 21
4680.124663247244
 31
0.0
  0
LINE
  5
14237
330
1410C
100
AcDbEntity
  8
寸法
 62
     0
 48
50.0
370
    -2
100
AcDbLine
 10
11144.4587002994
 20
4521.468789207204
 30
0.0
 11
10528.52426119412
 21
4539.182939481533
 31
0.0
  0
LINE
  5
14238
330
1410C
100
AcDbEntity
  8
寸法
 62
     0
 48
50.0
370
    -2
100
AcDbLine
 10
10588.49946279655
 20
4537.458064776585
 30
0.0
 11
10592.55291835317
 21
4678.399788542297
 31
0.0
  0
LINE
  5
14239
330
1410C
100
AcDbEntity
  8
寸法
 62
     0
 48
50.0
370
    -2
100
AcDbLine
 10
10592.55291835317
 20
4678.399788542297
 30
0.0
 11
10602.90216658286
 21
5038.250998156883
 31
0.0
  0
INSERT
  5
1423A
330
1410C
100
AcDbEntity
  8
寸法
 62
     0
 48
50.0
370
    -2
100
AcDbBlockReference
  2
_DOTSMALL
 10
10588.49946279655
 20
4537.458064776585
 30
0.0
 41
100.0
 42
100.0
 43
100.0
 50
268.3526390256378
  0
INSERT
  5
1423B
330
1410C
100
AcDbEntity
  8
寸法
 62
     0
 48
50.0
370
    -2
100
AcDbBlockReference
  2
_DOTSMALL
 10
10592.55291835317
 20
4678.399788542297
 30
0.0
 41
100.0
 42
100.0
 43
100.0
 50
88.35263902563776
  0
MTEXT
  5
1423C
330
1410C
100
AcDbEntity
  8
寸法
 62
     7
 48
50.0
100
AcDbMText
 10
10499.20626871809
 20
4911.179519193197
 30
0.0
 40
120.0
 41
0.0
 71
     5
 72
     1
  1
\A1;141
  7
STYLE1
 11
0.0287479117491237
 21
0.9995866933738488
 31
0.0
 73
     1
 44
1.0
1001
ACAD
1000
MTEXTBEGIN
1070
    73
1070
     1
1070
    44
1040
1.0
1070
    74
1070
     0
1000
MTEXTEND
  0
POINT
  5
1423D
330
1410C
100
AcDbEntity
  8
DEFPOINTS
 62
     0
 48
50.0
100
AcDbPoint
 10
11168.5038897235
 20
4661.835554737932
 30
0.0
  0
POINT
  5
1423E
330
1410C
100
AcDbEntity
  8
DEFPOINTS
 62
     0
 48
50.0
100
AcDbPoint
 10
11164.45043416687
 20
4520.893830972221
 30
0.0
  0
POINT
  5
1423F
330
1410C
100
AcDbEntity
  8
DEFPOINTS
 62
     0
 48
50.0
100
AcDbPoint
 10
10588.49946279655
 20
4537.458064776585
 30
0.0
  0
ENDBLK
  5
14118
330
1410C
100
AcDbEntity
  8
0
 48
50.0
100
AcDbBlockEnd
  0
BLOCK
  5
1454D
330
14543
100
AcDbEntity
  8
0
 48
50.0
100
AcDbBlockBegin
  2
*D27
 70
     1
 10
0.0
 20
0.0
 30
0.0
  3
*D27
  1

  0
LINE
  5
14A76
330
14543
100
AcDbEntity
  8
寸法
 62
     0
 48
50.0
370
    -2
100
AcDbLine
 10
3399.753461421258
 20
7188.054687805079
 30
0.0
 11
3399.753461421258
 21
6491.452014532457
 31
0.0
  0
LINE
  5
14A77
330
14543
100
AcDbEntity
  8
寸法
 62
     0
 48
50.0
370
    -2
100
AcDbLine
 10
4665.753461421257
 20
7188.054687805079
 30
0.0
 11
4665.753461421257
 21
6491.452014532457
 31
0.0
  0
LINE
  5
14A78
330
14543
100
AcDbEntity
  8
寸法
 62
     0
 48
50.0
370
    -2
100
AcDbLine
 10
3419.753461421257
 20
6531.452014532456
 30
0.0
 11
4645.753461421257
 21
6531.452014532456
 31
0.0
  0
INSERT
  5
14A79
330
14543
100
AcDbEntity
  8
寸法
 62
     0
 48
50.0
370
    -2
100
AcDbBlockReference
  2
_DOT
 10
3399.753461421258
 20
6531.452014532456
 30
0.0
 41
20.0
 42
20.0
 43
20.0
 50
180.0
  0
INSERT
  5
14A7A
330
14543
100
AcDbEntity
  8
寸法
 62
     0
 48
50.0
370
    -2
100
AcDbBlockReference
  2
_DOT
 10
4665.753461421257
 20
6531.452014532456
 30
0.0
 41
20.0
 42
20.0
 43
20.0
  0
MTEXT
  5
14A7B
330
14543
100
AcDbEntity
  8
寸法
 62
     7
 48
50.0
100
AcDbMText
 10
4038.414560620483
 20
6723.463825556078
 30
0.0
 40
120.0
 41
0.0
 71
     5
 72
     1
  1
\A1;有効開口部間口\P1266
  7
STYLE1
 73
     1
 44
1.0
1001
ACAD
1000
MTEXTBEGIN
1070
    73
1070
     1
1070
    44
1040
1.0
1070
    74
1070
     0
1000
MTEXTEND
  0
POINT
  5
14A7C
330
14543
100
AcDbEntity
  8
DEFPOINTS
 62
     0
 48
50.0
100
AcDbPoint
 10
3399.753461421258
 20
7208.05468780508
 30
0.0
  0
POINT
  5
14A7D
330
14543
100
AcDbEntity
  8
DEFPOINTS
 62
     0
 48
50.0
100
AcDbPoint
 10
4665.753461421257
 20
7208.05468780508
 30
0.0
  0
POINT
  5
14A7E
330
14543
100
AcDbEntity
  8
DEFPOINTS
 62
     0
 48
50.0
100
AcDbPoint
 10
4665.753461421257
 20
6531.452014532456
 30
0.0
  0
ENDBLK
  5
1454E
330
14543
100
AcDbEntity
  8
0
 48
50.0
100
AcDbBlockEnd
  0
BLOCK
  5
148E5
330
148DB
100
AcDbEntity
  8
0
 48
50.0
100
AcDbBlockBegin
  2
*D28
 70
     1
 10
0.0
 20
0.0
 30
0.0
  3
*D28
  1

  0
LINE
  5
14A6D
330
148DB
100
AcDbEntity
  8
寸法
 62
     0
 48
50.0
370
    -2
100
AcDbLine
 10
2912.753461421255
 20
7265.054687805073
 30
0.0
 11
2912.753461421255
 21
5919.972730302227
 31
0.0
  0
LINE
  5
14A6E
330
148DB
100
AcDbEntity
  8
寸法
 62
     0
 48
50.0
370
    -2
100
AcDbLine
 10
5542.753461421257
 20
7320.054687805073
 30
0.0
 11
5542.753461421257
 21
5919.972730302227
 31
0.0
  0
LINE
  5
14A6F
330
148DB
100
AcDbEntity
  8
寸法
 62
     0
 48
50.0
370
    -2
100
AcDbLine
 10
2932.753461421256
 20
5959.972730302228
 30
0.0
 11
5522.753461421257
 21
5959.972730302228
 31
0.0
  0
INSERT
  5
14A70
330
148DB
100
AcDbEntity
  8
寸法
 62
     0
 48
50.0
370
    -2
100
AcDbBlockReference
  2
_DOT
 10
2912.753461421255
 20
5959.972730302228
 30
0.0
 41
20.0
 42
20.0
 43
20.0
 50
180.0
  0
INSERT
  5
14A71
330
148DB
100
AcDbEntity
  8
寸法
 62
     0
 48
50.0
370
    -2
100
AcDbBlockReference
  2
_DOT
 10
5542.753461421257
 20
5959.972730302228
 30
0.0
 41
20.0
 42
20.0
 43
20.0
  0
MTEXT
  5
14A72
330
148DB
100
AcDbEntity
  8
寸法
 62
     7
 48
50.0
100
AcDbMText
 10
4227.753461421256
 20
6051.984541325849
 30
0.0
 40
120.0
 41
0.0
 71
     5
 72
     1
  1
\A1;2630
  7
STYLE1
 73
     1
 44
1.0
1001
ACAD
1000
MTEXTBEGIN
1070
    73
1070
     1
1070
    44
1040
1.0
1070
    74
1070
     0
1000
MTEXTEND
  0
POINT
  5
14A73
330
148DB
100
AcDbEntity
  8
DEFPOINTS
 62
     0
 48
50.0
100
AcDbPoint
 10
2912.753461421255
 20
7285.054687805073
 30
0.0
  0
POINT
  5
14A74
330
148DB
100
AcDbEntity
  8
DEFPOINTS
 62
     0
 48
50.0
100
AcDbPoint
 10
5542.753461421257
 20
7340.054687805073
 30
0.0
  0
POINT
  5
14A75
330
148DB
100
AcDbEntity
  8
DEFPOINTS
 62
     0
 48
50.0
100
AcDbPoint
 10
5542.753461421257
 20
5959.972730302228
 30
0.0
  0
ENDBLK
  5
148E6
330
148DB
100
AcDbEntity
  8
0
 48
50.0
100
AcDbBlockEnd
  0
BLOCK
  5
148F1
330
148E7
100
AcDbEntity
  8
0
 48
50.0
100
AcDbBlockBegin
  2
*D29
 70
     1
 10
0.0
 20
0.0
 30
0.0
  3
*D29
  1

  0
LINE
  5
14A64
330
148E7
100
AcDbEntity
  8
寸法
 62
     0
 48
50.0
370
    -2
100
AcDbLine
 10
5542.753461421257
 20
7320.054687805068
 30
0.0
 11
5542.753461421257
 21
5919.972730302227
 31
0.0
  0
LINE
  5
14A65
330
148E7
100
AcDbEntity
  8
寸法
 62
     0
 48
50.0
370
    -2
100
AcDbLine
 10
8172.753461421256
 20
7265.054687805073
 30
0.0
 11
8172.753461421256
 21
5919.972730302227
 31
0.0
  0
LINE
  5
14A66
330
148E7
100
AcDbEntity
  8
寸法
 62
     0
 48
50.0
370
    -2
100
AcDbLine
 10
5562.753461421257
 20
5959.972730302228
 30
0.0
 11
8152.753461421257
 21
5959.972730302228
 31
0.0
  0
INSERT
  5
14A67
330
148E7
100
AcDbEntity
  8
寸法
 62
     0
 48
50.0
370
    -2
100
AcDbBlockReference
  2
_DOT
 10
5542.753461421257
 20
5959.972730302228
 30
0.0
 41
20.0
 42
20.0
 43
20.0
 50
180.0
  0
INSERT
  5
14A68
330
148E7
100
AcDbEntity
  8
寸法
 62
     0
 48
50.0
370
    -2
100
AcDbBlockReference
  2
_DOT
 10
8172.753461421256
 20
5959.972730302228
 30
0.0
 41
20.0
 42
20.0
 43
20.0
  0
MTEXT
  5
14A69
330
148E7
100
AcDbEntity
  8
寸法
 62
     7
 48
50.0
100
AcDbMText
 10
6857.753461421257
 20
6051.984541325849
 30
0.0
 40
120.0
 41
0.0
 71
     5
 72
     1
  1
\A1;2630
  7
STYLE1
 73
     1
 44
1.0
1001
ACAD
1000
MTEXTBEGIN
1070
    73
1070
     1
1070
    44
1040
1.0
1070
    74
1070
     0
1000
MTEXTEND
  0
POINT
  5
14A6A
330
148E7
100
AcDbEntity
  8
DEFPOINTS
 62
     0
 48
50.0
100
AcDbPoint
 10
5542.753461421257
 20
7340.054687805069
 30
0.0
  0
POINT
  5
14A6B
330
148E7
100
AcDbEntity
  8
DEFPOINTS
 62
     0
 48
50.0
100
AcDbPoint
 10
8172.753461421256
 20
7285.054687805073
 30
0.0
  0
POINT
  5
14A6C
330
148E7
100
AcDbEntity
  8
DEFPOINTS
 62
     0
 48
50.0
100
AcDbPoint
 10
8172.753461421256
 20
5959.972730302228
 30
0.0
  0
ENDBLK
  5
148F2
330
148E7
100
AcDbEntity
  8
0
 48
50.0
100
AcDbBlockEnd
  0
BLOCK
  5
148FF
330
148F3
100
AcDbEntity
  8
0
 48
50.0
100
AcDbBlockBegin
  2
*D30
 70
     1
 10
0.0
 20
0.0
 30
0.0
  3
*D30
  1

  0
LINE
  5
14A59
330
148F3
100
AcDbEntity
  8
寸法
 62
     0
 48
50.0
370
    -2
100
AcDbLine
 10
2892.753461421257
 20
7285.054687805073
 30
0.0
 11
2541.434647517208
 21
7285.054687805073
 31
0.0
  0
LINE
  5
14A5A
330
148F3
100
AcDbEntity
  8
寸法
 62
     0
 48
50.0
370
    -2
100
AcDbLine
 10
3340.753461421257
 20
7210.054687805045
 30
0.0
 11
2541.434647517208
 21
7210.054687805045
 31
0.0
  0
LINE
  5
14A5B
330
148F3
100
AcDbEntity
  8
寸法
 62
     0
 48
50.0
370
    -2
100
AcDbLine
 10
2581.434647517208
 20
7305.054687805072
 30
0.0
 11
2581.434647517208
 21
7325.054687805073
 31
0.0
  0
LINE
  5
14A5C
330
148F3
100
AcDbEntity
  8
寸法
 62
     0
 48
50.0
370
    -2
100
AcDbLine
 10
2581.434647517208
 20
7190.054687805046
 30
0.0
 11
2581.434647517207
 21
6969.084125056567
 31
0.0
  0
LINE
  5
14A5D
330
148F3
100
AcDbEntity
  8
寸法
 62
     0
 48
50.0
370
    -2
100
AcDbLine
 10
2581.434647517208
 20
7285.054687805073
 30
0.0
 11
2581.434647517208
 21
7210.054687805045
 31
0.0
  0
INSERT
  5
14A5E
330
148F3
100
AcDbEntity
  8
寸法
 62
     0
 48
50.0
370
    -2
100
AcDbBlockReference
  2
_DOT
 10
2581.434647517208
 20
7285.054687805073
 30
0.0
 41
20.0
 42
20.0
 43
20.0
 50
270.0
  0
INSERT
  5
14A5F
330
148F3
100
AcDbEntity
  8
寸法
 62
     0
 48
50.0
370
    -2
100
AcDbBlockReference
  2
_DOT
 10
2581.434647517208
 20
7210.054687805045
 30
0.0
 41
20.0
 42
20.0
 43
20.0
 50
90.0
  0
MTEXT
  5
14A60
330
148F3
100
AcDbEntity
  8
寸法
 62
     7
 48
50.0
100
AcDbMText
 10
2489.434647517206
 20
7069.569406430807
 30
0.0
 40
120.0
 41
0.0
 71
     5
 72
     1
  1
\A1;75
  7
STYLE1
 11
0.0000000000000001
 21
1.0
 31
0.0
 73
     1
 44
1.0
1001
ACAD
1000
MTEXTBEGIN
1070
    73
1070
     1
1070
    44
1040
1.0
1070
    74
1070
     0
1000
MTEXTEND
  0
POINT
  5
14A61
330
148F3
100
AcDbEntity
  8
DEFPOINTS
 62
     0
 48
50.0
100
AcDbPoint
 10
2912.753461421257
 20
7285.054687805073
 30
0.0
  0
POINT
  5
14A62
330
148F3
100
AcDbEntity
  8
DEFPOINTS
 62
     0
 48
50.0
100
AcDbPoint
 10
3360.753461421257
 20
7210.054687805045
 30
0.0
  0
POINT
  5
14A63
330
148F3
100
AcDbEntity
  8
DEFPOINTS
 62
     0
 48
50.0
100
AcDbPoint
 10
2581.434647517208
 20
7210.054687805045
 30
0.0
  0
ENDBLK
  5
14900
330
148F3
100
AcDbEntity
  8
0
 48
50.0
100
AcDbBlockEnd
  0
BLOCK
  5
1490B
330
14901
100
AcDbEntity
  8
0
 48
50.0
100
AcDbBlockBegin
  2
*D31
 70
     1
 10
0.0
 20
0.0
 30
0.0
  3
*D31
  1

  0
LINE
  5
14A50
330
14901
100
AcDbEntity
  8
寸法
 62
     0
 48
50.0
370
    -2
100
AcDbLine
 10
3360.753461421257
 20
7188.054687805077
 30
0.0
 11
3360.753461421257
 21
6189.097680295824
 31
0.0
  0
LINE
  5
14A51
330
14901
100
AcDbEntity
  8
寸法
 62
     0
 48
50.0
370
    -2
100
AcDbLine
 10
5514.753461421257
 20
7188.054687805077
 30
0.0
 11
5514.753461421257
 21
6189.097680295824
 31
0.0
  0
LINE
  5
14A52
330
14901
100
AcDbEntity
  8
寸法
 62
     0
 48
50.0
370
    -2
100
AcDbLine
 10
3360.753461421257
 20
6249.097680295824
 30
0.0
 11
5514.753461421257
 21
6249.097680295824
 31
0.0
  0
INSERT
  5
14A53
330
14901
100
AcDbEntity
  8
寸法
 62
     0
 48
50.0
370
    -2
100
AcDbBlockReference
  2
_DOTSMALL
 10
3360.753461421257
 20
6249.097680295824
 30
0.0
 41
100.0
 42
100.0
 43
100.0
 50
180.0
  0
INSERT
  5
14A54
330
14901
100
AcDbEntity
  8
寸法
 62
     0
 48
50.0
370
    -2
100
AcDbBlockReference
  2
_DOTSMALL
 10
5514.753461421257
 20
6249.097680295824
 30
0.0
 41
100.0
 42
100.0
 43
100.0
  0
MTEXT
  5
14A55
330
14901
100
AcDbEntity
  8
寸法
 62
     7
 48
50.0
100
AcDbMText
 10
4414.875462070114
 20
6349.109491319445
 30
0.0
 40
120.0
 41
0.0
 71
     5
 72
     1
  1
\A1;2154
  7
STYLE1
 73
     1
 44
1.0
1001
ACAD
1000
MTEXTBEGIN
1070
    73
1070
     1
1070
    44
1040
1.0
1070
    74
1070
     0
1000
MTEXTEND
  0
POINT
  5
14A56
330
14901
100
AcDbEntity
  8
DEFPOINTS
 62
     0
 48
50.0
100
AcDbPoint
 10
3360.753461421257
 20
7208.054687805078
 30
0.0
  0
POINT
  5
14A57
330
14901
100
AcDbEntity
  8
DEFPOINTS
 62
     0
 48
50.0
100
AcDbPoint
 10
5514.753461421257
 20
7208.054687805078
 30
0.0
  0
POINT
  5
14A58
330
14901
100
AcDbEntity
  8
DEFPOINTS
 62
     0
 48
50.0
100
AcDbPoint
 10
5514.753461421257
 20
6249.097680295824
 30
0.0
  0
ENDBLK
  5
1490C
330
14901
100
AcDbEntity
  8
0
 48
50.0
100
AcDbBlockEnd
  0
ENDSEC
  0
SECTION
  2
ENTITIES
  0
MTEXT
  5
763F
330
747D
100
AcDbEntity
  8
0
100
AcDbMText
 10
302.846345836809
 20
280.1983726409901
 30
0.0
 40
3.5
 41
5.323721266742722
 71
     1
 72
     5
  1

  7
MSMINCHO
 73
     1
 44
1.0
1001
ACAD
1000
MTEXTBEGIN
1070
    73
1070
     1
1070
    44
1040
1.0
1070
    74
1070
     0
1000
MTEXTEND
  0
INSERT
  5
F235
330
747D
100
AcDbEntity
  8
0
100
AcDbBlockReference
  2
作図枠S50
 10
0.0
 20
0.0
 30
0.0
 41
0.8
 42
0.8
 43
0.8
  0
LINE
  5
10B56
330
747D
100
AcDbEntity
  8
補助
  6
PHANTOM
 62
   230
 48
50.0
100
AcDbLine
 10
140.0
 20
0.0
 30
0.0
 11
139.9999999999995
 21
11409.6
 31
0.0
  0
LINE
  5
10B57
330
747D
100
AcDbEntity
  8
補助
  6
PHANTOM
 62
   230
 48
50.0
100
AcDbLine
 10
139.9999999999995
 20
11409.6
 30
0.0
 11
16307.2
 21
11409.6
 31
0.0
  0
LINE
  5
10B59
330
747D
100
AcDbEntity
  8
仕様書枠
  6
Continuous
 48
50.0
100
AcDbLine
 10
13107.2
 20
1200.0
 30
0.0
 11
13107.2
 21
-0.0000000000000729
 31
0.0
  0
LINE
  5
10B5C
330
747D
100
AcDbEntity
  8
仕様書枠
 48
50.0
100
AcDbLine
 10
16307.2
 20
1200.0
 30
0.0
 11
16307.2
 21
-0.0000000000000909
 31
0.0
  0
LINE
  5
10B5D
330
747D
100
AcDbEntity
  8
仕様書枠
 48
50.0
100
AcDbLine
 10
140.0
 20
0.0
 30
0.0
 11
16307.2
 21
-0.0000000000000909
 31
0.0
  0
LINE
  5
10B5E
330
747D
100
AcDbEntity
  8
補助
  6
PHANTOM
 62
   230
 48
50.0
100
AcDbLine
 10
16307.2
 20
11409.6
 30
0.0
 11
16307.2
 21
1200.0
 31
0.0
  0
LINE
  5
10B6C
330
747D
100
AcDbEntity
  8
仕様書枠
 48
50.0
100
AcDbLine
 10
13107.2
 20
1200.0
 30
0.0
 11
16307.2
 21
1200.0
 31
0.0
  0
LINE
  5
10B6D
330
747D
100
AcDbEntity
  8
補助
  6
PHANTOM
 62
   230
 48
50.0
100
AcDbLine
 10
13107.2
 20
11409.6
 30
0.0
 11
13107.2
 21
4800.0
 31
0.0
  0
LINE
  5
10B6F
330
747D
100
AcDbEntity
  8
補助
  6
PHANTOM
 62
   230
 48
50.0
100
AcDbLine
 10
13107.2
 20
4800.0
 30
0.0
 11
16307.2
 21
4800.0
 31
0.0
  0
LINE
  5
10B72
330
747D
100
AcDbEntity
  8
文字
 62
     7
 48
50.0
100
AcDbLine
 10
13187.2
 20
400.0
 30
0.0
 11
16227.2
 21
400.0
 31
0.0
  0
TEXT
  5
10B73
330
747D
100
AcDbEntity
  8
文字
 62
     7
 48
50.0
100
AcDbText
 10
13162.9790565769
 20
895.0906074299405
 30
0.0
 40
200.0
  1
外 形 図
  7
STYLE2
100
AcDbText
  0
TEXT
  5
10B74
330
747D
100
AcDbEntity
  8
文字
 62
     7
 48
50.0
100
AcDbText
 10
13201.43669998441
 20
477.2740661031255
 30
0.0
 40
160.0
  1
機種名
  7
STYLE2
100
AcDbText
  0
TEXT
  5
10B76
330
747D
100
AcDbEntity
  8
文字
 62
     7
 48
50.0
100
AcDbText
 10
13209.4053442172
 20
76.09434707649343
 30
0.0
 40
100.0
  1
○床面積 ： 16.20㎡(4.91坪) 　
  7
STYLE2
100
AcDbText
  0
TEXT
  5
10B79
330
747D
100
AcDbEntity
  8
文字
 62
     7
 48
50.0
100
AcDbText
 10
14524.131837222
 20
1031.557706291228
 30
0.0
 40
100.0
  1
NO.22     <縮尺> S=1/40
  7
STYLE2
100
AcDbText
  0
LINE
  5
10B7B
330
747D
100
AcDbEntity
  8
仕様書枠
 48
50.0
100
AcDbLine
 10
13107.2
 20
800.0
 30
0.0
 11
14251.2
 21
800.0
 31
0.0
  0
LINE
  5
10B88
330
747D
100
AcDbEntity
  8
仕様書枠
  6
Continuous
 48
50.0
100
AcDbLine
 10
14251.2
 20
1200.0
 30
0.0
 11
14251.2
 21
800.0
 31
0.0
  0
TEXT
  5
10EA8
330
747D
100
AcDbEntity
  8
文字
 62
     7
 48
50.0
100
AcDbText
 10
14615.96327487435
 20
838.2527270729188
 30
0.0
 40
100.0
  1
～一般型～
  7
STYLE2
100
AcDbText
  0
LINE
  5
13578
330
747D
100
AcDbEntity
  8
部品1
100
AcDbLine
 10
8144.753461421254
 20
9440.054687805078
 30
0.0
 11
8172.753461421256
 21
9440.054687805078
 31
0.0
  0
LINE
  5
13579
330
747D
100
AcDbEntity
  8
部品1
100
AcDbLine
 10
5597.753461421256
 20
9440.054687805076
 30
0.0
 11
8117.753461421257
 21
9440.054687805076
 31
0.0
  0
LINE
  5
1357A
330
747D
100
AcDbEntity
  8
部品1
100
AcDbLine
 10
2940.753461421257
 20
9440.054687805078
 30
0.0
 11
2912.753461421257
 21
9440.054687805078
 31
0.0
  0
LINE
  5
1357B
330
747D
100
AcDbEntity
  8
部品1
100
AcDbLine
 10
5487.753461421256
 20
9440.054687805076
 30
0.0
 11
2967.753461421257
 21
9440.054687805071
 31
0.0
  0
ARC
  5
1357C
330
747D
100
AcDbEntity
  8
部品1
 48
0.01
100
AcDbCircle
 10
6330.753461421249
 20
4460.612805903254
 30
0.0
 40
2.0
100
AcDbArc
 50
270.0
 51
0.0
  0
ARC
  5
1357D
330
747D
100
AcDbEntity
  8
部品1
 48
0.01
100
AcDbCircle
 10
6330.753461421249
 20
4492.112805903254
 30
0.0
 40
2.0
100
AcDbArc
 50
0.0
 51
90.0
  0
ARC
  5
1357E
330
747D
100
AcDbEntity
  8
部品1
 48
0.01
100
AcDbCircle
 10
6154.75346142125
 20
4460.612805903254
 30
0.0
 40
2.0
100
AcDbArc
 50
180.0
 51
270.0
  0
ARC
  5
1357F
330
747D
100
AcDbEntity
  8
部品1
 48
0.01
100
AcDbCircle
 10
6154.75346142125
 20
4492.112805903254
 30
0.0
 40
2.0
100
AcDbArc
 50
90.0
 51
180.0
  0
LINE
  5
13580
330
747D
100
AcDbEntity
  8
細線
100
AcDbLine
 10
6242.753461421249
 20
4464.612805903254
 30
0.0
 11
6316.753461421249
 21
4464.612805903254
 31
0.0
  0
LINE
  5
13581
330
747D
100
AcDbEntity
  8
細線
100
AcDbLine
 10
6242.753461421249
 20
4487.612805903254
 30
0.0
 11
6168.75346142125
 21
4487.612805903254
 31
0.0
  0
LINE
  5
13582
330
747D
100
AcDbEntity
  8
細線
100
AcDbLine
 10
6168.75346142125
 20
4464.612805903254
 30
0.0
 11
6242.753461421249
 21
4464.612805903254
 31
0.0
  0
LINE
  5
13583
330
747D
100
AcDbEntity
  8
細線
100
AcDbLine
 10
6316.753461421249
 20
4487.612805903254
 30
0.0
 11
6242.753461421249
 21
4487.612805903254
 31
0.0
  0
LINE
  5
13584
330
747D
100
AcDbEntity
  8
細線
100
AcDbLine
 10
6316.753461421249
 20
4464.612805903254
 30
0.0
 11
6316.753461421249
 21
4487.612805903254
 31
0.0
  0
LINE
  5
13585
330
747D
100
AcDbEntity
  8
細線
100
AcDbLine
 10
6168.75346142125
 20
4487.612805903254
 30
0.0
 11
6168.75346142125
 21
4464.612805903254
 31
0.0
  0
LINE
  5
13586
330
747D
100
AcDbEntity
  8
部品1
 48
0.01
100
AcDbLine
 10
6332.753461421249
 20
4460.612805903254
 30
0.0
 11
6332.753461421249
 21
4492.112805903254
 31
0.0
  0
LINE
  5
13587
330
747D
100
AcDbEntity
  8
部品1
 48
0.01
100
AcDbLine
 10
6154.75346142125
 20
4458.612805903254
 30
0.0
 11
6330.753461421249
 21
4458.612805903254
 31
0.0
  0
LINE
  5
13588
330
747D
100
AcDbEntity
  8
部品1
 48
0.01
100
AcDbLine
 10
6152.753461421249
 20
4492.112805903254
 30
0.0
 11
6152.753461421249
 21
4460.612805903254
 31
0.0
  0
LINE
  5
13589
330
747D
100
AcDbEntity
  8
部品1
 48
0.01
100
AcDbLine
 10
6330.753461421249
 20
4494.112805903254
 30
0.0
 11
6154.75346142125
 21
4494.112805903254
 31
0.0
  0
LINE
  5
1358A
330
747D
100
AcDbEntity
  8
細線
100
AcDbLine
 10
6168.75346142125
 20
4481.612805903254
 30
0.0
 11
6242.753461421249
 21
4481.612805903254
 31
0.0
  0
LINE
  5
1358B
330
747D
100
AcDbEntity
  8
細線
100
AcDbLine
 10
6168.75346142125
 20
4475.612805903255
 30
0.0
 11
6242.753461421249
 21
4475.612805903255
 31
0.0
  0
LINE
  5
1358C
330
747D
100
AcDbEntity
  8
細線
100
AcDbLine
 10
6168.75346142125
 20
4469.612805903254
 30
0.0
 11
6242.753461421249
 21
4469.612805903254
 31
0.0
  0
LINE
  5
1358D
330
747D
100
AcDbEntity
  8
細線
100
AcDbLine
 10
6168.75346142125
 20
4481.612805903254
 30
0.0
 11
6237.753461421249
 21
4481.612805903254
 31
0.0
  0
LINE
  5
1358E
330
747D
100
AcDbEntity
  8
細線
100
AcDbLine
 10
6316.753461421249
 20
4481.612805903252
 30
0.0
 11
6242.753461421249
 21
4481.612805903254
 31
0.0
  0
LINE
  5
1358F
330
747D
100
AcDbEntity
  8
細線
100
AcDbLine
 10
6316.753461421249
 20
4469.612805903252
 30
0.0
 11
6242.753461421249
 21
4469.612805903254
 31
0.0
  0
LINE
  5
13590
330
747D
100
AcDbEntity
  8
細線
100
AcDbLine
 10
6316.753461421249
 20
4475.612805903255
 30
0.0
 11
6242.753461421249
 21
4475.612805903255
 31
0.0
  0
LINE
  5
13591
330
747D
100
AcDbEntity
  8
細線
100
AcDbLine
 10
6242.753461421249
 20
4487.612805903254
 30
0.0
 11
6242.753461421249
 21
4464.612805903254
 31
0.0
  0
LINE
  5
13592
330
747D
100
AcDbEntity
  8
細線
100
AcDbLine
 10
7472.753461421267
 20
4487.612805903256
 30
0.0
 11
7472.753461421267
 21
4464.612805903256
 31
0.0
  0
LINE
  5
13593
330
747D
100
AcDbEntity
  8
細線
100
AcDbLine
 10
7398.753461421268
 20
4475.612805903256
 30
0.0
 11
7472.753461421267
 21
4475.612805903256
 31
0.0
  0
LINE
  5
13594
330
747D
100
AcDbEntity
  8
細線
100
AcDbLine
 10
7398.753461421268
 20
4469.612805903254
 30
0.0
 11
7472.753461421267
 21
4469.612805903255
 31
0.0
  0
LINE
  5
13595
330
747D
100
AcDbEntity
  8
細線
100
AcDbLine
 10
7398.753461421268
 20
4481.612805903254
 30
0.0
 11
7472.753461421267
 21
4481.612805903256
 31
0.0
  0
LINE
  5
13596
330
747D
100
AcDbEntity
  8
細線
100
AcDbLine
 10
7546.753461421268
 20
4481.612805903256
 30
0.0
 11
7477.753461421267
 21
4481.612805903256
 31
0.0
  0
LINE
  5
13597
330
747D
100
AcDbEntity
  8
細線
100
AcDbLine
 10
7546.753461421268
 20
4469.612805903255
 30
0.0
 11
7472.753461421267
 21
4469.612805903255
 31
0.0
  0
LINE
  5
13598
330
747D
100
AcDbEntity
  8
細線
100
AcDbLine
 10
7546.753461421268
 20
4475.612805903256
 30
0.0
 11
7472.753461421267
 21
4475.612805903256
 31
0.0
  0
LINE
  5
13599
330
747D
100
AcDbEntity
  8
細線
100
AcDbLine
 10
7546.753461421268
 20
4481.612805903256
 30
0.0
 11
7472.753461421267
 21
4481.612805903256
 31
0.0
  0
LINE
  5
1359A
330
747D
100
AcDbEntity
  8
部品1
 48
0.01
100
AcDbLine
 10
7384.753461421268
 20
4494.112805903256
 30
0.0
 11
7560.753461421267
 21
4494.112805903256
 31
0.0
  0
LINE
  5
1359B
330
747D
100
AcDbEntity
  8
部品1
 48
0.01
100
AcDbLine
 10
7562.753461421268
 20
4492.112805903256
 30
0.0
 11
7562.753461421268
 21
4460.612805903256
 31
0.0
  0
LINE
  5
1359C
330
747D
100
AcDbEntity
  8
部品1
 48
0.01
100
AcDbLine
 10
7560.753461421267
 20
4458.612805903256
 30
0.0
 11
7384.753461421268
 21
4458.612805903256
 31
0.0
  0
LINE
  5
1359D
330
747D
100
AcDbEntity
  8
部品1
 48
0.01
100
AcDbLine
 10
7382.753461421268
 20
4460.612805903256
 30
0.0
 11
7382.753461421268
 21
4492.112805903256
 31
0.0
  0
LINE
  5
1359E
330
747D
100
AcDbEntity
  8
細線
100
AcDbLine
 10
7546.753461421268
 20
4487.612805903256
 30
0.0
 11
7546.753461421268
 21
4464.612805903256
 31
0.0
  0
LINE
  5
1359F
330
747D
100
AcDbEntity
  8
細線
100
AcDbLine
 10
7398.753461421268
 20
4464.612805903256
 30
0.0
 11
7398.753461421268
 21
4487.612805903256
 31
0.0
  0
LINE
  5
135A0
330
747D
100
AcDbEntity
  8
細線
100
AcDbLine
 10
7398.753461421268
 20
4487.612805903256
 30
0.0
 11
7472.753461421267
 21
4487.612805903256
 31
0.0
  0
LINE
  5
135A1
330
747D
100
AcDbEntity
  8
細線
100
AcDbLine
 10
7546.753461421268
 20
4464.612805903256
 30
0.0
 11
7472.753461421267
 21
4464.612805903256
 31
0.0
  0
LINE
  5
135A2
330
747D
100
AcDbEntity
  8
細線
100
AcDbLine
 10
7472.753461421267
 20
4487.612805903256
 30
0.0
 11
7546.753461421268
 21
4487.612805903256
 31
0.0
  0
LINE
  5
135A3
330
747D
100
AcDbEntity
  8
細線
100
AcDbLine
 10
7472.753461421267
 20
4464.612805903256
 30
0.0
 11
7398.753461421268
 21
4464.612805903256
 31
0.0
  0
ARC
  5
135A4
330
747D
100
AcDbEntity
  8
部品1
 48
0.01
100
AcDbCircle
 10
7560.753461421267
 20
4492.112805903256
 30
0.0
 40
2.0
100
AcDbArc
 50
0.0
 51
90.0
  0
ARC
  5
135A5
330
747D
100
AcDbEntity
  8
部品1
 48
0.01
100
AcDbCircle
 10
7560.753461421267
 20
4460.612805903256
 30
0.0
 40
2.0
100
AcDbArc
 50
270.0
 51
0.0
  0
ARC
  5
135A6
330
747D
100
AcDbEntity
  8
部品1
 48
0.01
100
AcDbCircle
 10
7384.753461421268
 20
4492.112805903256
 30
0.0
 40
2.0
100
AcDbArc
 50
90.0
 51
180.0
  0
ARC
  5
135A7
330
747D
100
AcDbEntity
  8
部品1
 48
0.01
100
AcDbCircle
 10
7384.753461421268
 20
4460.612805903256
 30
0.0
 40
2.0
100
AcDbArc
 50
180.0
 51
270.0
  0
LINE
  5
135A8
330
747D
100
AcDbEntity
  8
細線
100
AcDbLine
 10
3612.753461421249
 20
4487.612805903254
 30
0.0
 11
3612.753461421249
 21
4464.612805903254
 31
0.0
  0
LINE
  5
135A9
330
747D
100
AcDbEntity
  8
細線
100
AcDbLine
 10
3686.75346142125
 20
4475.612805903255
 30
0.0
 11
3612.753461421249
 21
4475.612805903255
 31
0.0
  0
LINE
  5
135AA
330
747D
100
AcDbEntity
  8
細線
100
AcDbLine
 10
3686.75346142125
 20
4469.612805903252
 30
0.0
 11
3612.753461421249
 21
4469.612805903254
 31
0.0
  0
LINE
  5
135AB
330
747D
100
AcDbEntity
  8
細線
100
AcDbLine
 10
3686.75346142125
 20
4481.612805903252
 30
0.0
 11
3612.753461421249
 21
4481.612805903254
 31
0.0
  0
LINE
  5
135AC
330
747D
100
AcDbEntity
  8
細線
100
AcDbLine
 10
3538.753461421249
 20
4481.612805903254
 30
0.0
 11
3607.753461421249
 21
4481.612805903254
 31
0.0
  0
LINE
  5
135AD
330
747D
100
AcDbEntity
  8
細線
100
AcDbLine
 10
3538.753461421249
 20
4469.612805903254
 30
0.0
 11
3612.753461421249
 21
4469.612805903254
 31
0.0
  0
LINE
  5
135AE
330
747D
100
AcDbEntity
  8
細線
100
AcDbLine
 10
3538.753461421249
 20
4475.612805903255
 30
0.0
 11
3612.753461421249
 21
4475.612805903255
 31
0.0
  0
LINE
  5
135AF
330
747D
100
AcDbEntity
  8
細線
100
AcDbLine
 10
3538.753461421249
 20
4481.612805903254
 30
0.0
 11
3612.753461421249
 21
4481.612805903254
 31
0.0
  0
LINE
  5
135B0
330
747D
100
AcDbEntity
  8
部品1
 48
0.01
100
AcDbLine
 10
3700.753461421249
 20
4494.112805903254
 30
0.0
 11
3524.753461421249
 21
4494.112805903254
 31
0.0
  0
LINE
  5
135B1
330
747D
100
AcDbEntity
  8
部品1
 48
0.01
100
AcDbLine
 10
3522.753461421249
 20
4492.112805903254
 30
0.0
 11
3522.753461421249
 21
4460.612805903254
 31
0.0
  0
LINE
  5
135B2
330
747D
100
AcDbEntity
  8
部品1
 48
0.01
100
AcDbLine
 10
3524.753461421249
 20
4458.612805903254
 30
0.0
 11
3700.753461421249
 21
4458.612805903254
 31
0.0
  0
LINE
  5
135B3
330
747D
100
AcDbEntity
  8
部品1
 48
0.01
100
AcDbLine
 10
3702.753461421249
 20
4460.612805903254
 30
0.0
 11
3702.753461421249
 21
4492.112805903254
 31
0.0
  0
LINE
  5
135B4
330
747D
100
AcDbEntity
  8
細線
100
AcDbLine
 10
3538.753461421249
 20
4487.612805903254
 30
0.0
 11
3538.753461421249
 21
4464.612805903254
 31
0.0
  0
LINE
  5
135B5
330
747D
100
AcDbEntity
  8
細線
100
AcDbLine
 10
3686.75346142125
 20
4464.612805903254
 30
0.0
 11
3686.75346142125
 21
4487.612805903254
 31
0.0
  0
LINE
  5
135B6
330
747D
100
AcDbEntity
  8
細線
100
AcDbLine
 10
3686.75346142125
 20
4487.612805903254
 30
0.0
 11
3612.753461421249
 21
4487.612805903254
 31
0.0
  0
LINE
  5
135B7
330
747D
100
AcDbEntity
  8
細線
100
AcDbLine
 10
3538.753461421249
 20
4464.612805903254
 30
0.0
 11
3612.753461421249
 21
4464.612805903254
 31
0.0
  0
LINE
  5
135B8
330
747D
100
AcDbEntity
  8
細線
100
AcDbLine
 10
3612.753461421249
 20
4487.612805903254
 30
0.0
 11
3538.753461421249
 21
4487.612805903254
 31
0.0
  0
LINE
  5
135B9
330
747D
100
AcDbEntity
  8
細線
100
AcDbLine
 10
3612.753461421249
 20
4464.612805903254
 30
0.0
 11
3686.75346142125
 21
4464.612805903254
 31
0.0
  0
ARC
  5
135BA
330
747D
100
AcDbEntity
  8
部品1
 48
0.01
100
AcDbCircle
 10
3524.753461421249
 20
4492.112805903254
 30
0.0
 40
2.0
100
AcDbArc
 50
90.0
 51
180.0
  0
ARC
  5
135BB
330
747D
100
AcDbEntity
  8
部品1
 48
0.01
100
AcDbCircle
 10
3524.753461421249
 20
4460.612805903254
 30
0.0
 40
2.0
100
AcDbArc
 50
180.0
 51
270.0
  0
ARC
  5
135BC
330
747D
100
AcDbEntity
  8
部品1
 48
0.01
100
AcDbCircle
 10
3700.753461421249
 20
4492.112805903254
 30
0.0
 40
2.0
100
AcDbArc
 50
0.0
 51
90.0
  0
ARC
  5
135BD
330
747D
100
AcDbEntity
  8
部品1
 48
0.01
100
AcDbCircle
 10
3700.753461421249
 20
4460.612805903254
 30
0.0
 40
2.0
100
AcDbArc
 50
270.0
 51
0.0
  0
ARC
  5
135BE
330
747D
100
AcDbEntity
  8
部品1
 48
0.01
100
AcDbCircle
 10
4754.753461421267
 20
4460.612805903256
 30
0.0
 40
2.0
100
AcDbArc
 50
180.0
 51
270.0
  0
ARC
  5
135BF
330
747D
100
AcDbEntity
  8
部品1
 48
0.01
100
AcDbCircle
 10
4754.753461421267
 20
4492.112805903256
 30
0.0
 40
2.0
100
AcDbArc
 50
90.0
 51
180.0
  0
ARC
  5
135C0
330
747D
100
AcDbEntity
  8
部品1
 48
0.01
100
AcDbCircle
 10
4930.753461421267
 20
4460.612805903256
 30
0.0
 40
2.0
100
AcDbArc
 50
270.0
 51
0.0
  0
ARC
  5
135C1
330
747D
100
AcDbEntity
  8
部品1
 48
0.01
100
AcDbCircle
 10
4930.753461421267
 20
4492.112805903256
 30
0.0
 40
2.0
100
AcDbArc
 50
0.0
 51
90.0
  0
LINE
  5
135C2
330
747D
100
AcDbEntity
  8
細線
100
AcDbLine
 10
4842.753461421267
 20
4464.612805903256
 30
0.0
 11
4768.753461421267
 21
4464.612805903256
 31
0.0
  0
LINE
  5
135C3
330
747D
100
AcDbEntity
  8
細線
100
AcDbLine
 10
4842.753461421267
 20
4487.612805903256
 30
0.0
 11
4916.753461421268
 21
4487.612805903256
 31
0.0
  0
LINE
  5
135C4
330
747D
100
AcDbEntity
  8
細線
100
AcDbLine
 10
4916.753461421268
 20
4464.612805903256
 30
0.0
 11
4842.753461421267
 21
4464.612805903256
 31
0.0
  0
LINE
  5
135C5
330
747D
100
AcDbEntity
  8
細線
100
AcDbLine
 10
4768.753461421267
 20
4487.612805903256
 30
0.0
 11
4842.753461421267
 21
4487.612805903256
 31
0.0
  0
LINE
  5
135C6
330
747D
100
AcDbEntity
  8
細線
100
AcDbLine
 10
4768.753461421267
 20
4464.612805903256
 30
0.0
 11
4768.753461421267
 21
4487.612805903256
 31
0.0
  0
LINE
  5
135C7
330
747D
100
AcDbEntity
  8
細線
100
AcDbLine
 10
4916.753461421268
 20
4487.612805903256
 30
0.0
 11
4916.753461421268
 21
4464.612805903256
 31
0.0
  0
LINE
  5
135C8
330
747D
100
AcDbEntity
  8
部品1
 48
0.01
100
AcDbLine
 10
4752.753461421267
 20
4460.612805903256
 30
0.0
 11
4752.753461421267
 21
4492.112805903256
 31
0.0
  0
LINE
  5
135C9
330
747D
100
AcDbEntity
  8
部品1
 48
0.01
100
AcDbLine
 10
4930.753461421267
 20
4458.612805903256
 30
0.0
 11
4754.753461421267
 21
4458.612805903256
 31
0.0
  0
LINE
  5
135CA
330
747D
100
AcDbEntity
  8
部品1
 48
0.01
100
AcDbLine
 10
4932.753461421267
 20
4492.112805903256
 30
0.0
 11
4932.753461421267
 21
4460.612805903256
 31
0.0
  0
LINE
  5
135CB
330
747D
100
AcDbEntity
  8
部品1
 48
0.01
100
AcDbLine
 10
4754.753461421267
 20
4494.112805903256
 30
0.0
 11
4930.753461421267
 21
4494.112805903256
 31
0.0
  0
LINE
  5
135CC
330
747D
100
AcDbEntity
  8
細線
100
AcDbLine
 10
4916.753461421268
 20
4481.612805903256
 30
0.0
 11
4842.753461421267
 21
4481.612805903256
 31
0.0
  0
LINE
  5
135CD
330
747D
100
AcDbEntity
  8
細線
100
AcDbLine
 10
4916.753461421268
 20
4475.612805903256
 30
0.0
 11
4842.753461421267
 21
4475.612805903256
 31
0.0
  0
LINE
  5
135CE
330
747D
100
AcDbEntity
  8
細線
100
AcDbLine
 10
4916.753461421268
 20
4469.612805903255
 30
0.0
 11
4842.753461421267
 21
4469.612805903255
 31
0.0
  0
LINE
  5
135CF
330
747D
100
AcDbEntity
  8
細線
100
AcDbLine
 10
4916.753461421268
 20
4481.612805903256
 30
0.0
 11
4847.753461421267
 21
4481.612805903256
 31
0.0
  0
LINE
  5
135D0
330
747D
100
AcDbEntity
  8
細線
100
AcDbLine
 10
4768.753461421267
 20
4481.612805903254
 30
0.0
 11
4842.753461421267
 21
4481.612805903256
 31
0.0
  0
LINE
  5
135D1
330
747D
100
AcDbEntity
  8
細線
100
AcDbLine
 10
4768.753461421267
 20
4469.612805903254
 30
0.0
 11
4842.753461421267
 21
4469.612805903255
 31
0.0
  0
LINE
  5
135D2
330
747D
100
AcDbEntity
  8
細線
100
AcDbLine
 10
4768.753461421267
 20
4475.612805903256
 30
0.0
 11
4842.753461421267
 21
4475.612805903256
 31
0.0
  0
LINE
  5
135D3
330
747D
100
AcDbEntity
  8
細線
100
AcDbLine
 10
4842.753461421267
 20
4487.612805903256
 30
0.0
 11
4842.753461421267
 21
4464.612805903256
 31
0.0
  0
LINE
  5
135D4
330
747D
100
AcDbEntity
  8
細線
 48
50.0
100
AcDbLine
 10
5675.253461421259
 20
4428.112805903256
 30
0.0
 11
5675.253461421263
 21
2338.112805903256
 31
0.0
  0
LINE
  5
135D5
330
747D
100
AcDbEntity
  8
細線
 48
50.0
100
AcDbLine
 10
5660.25346142126
 20
4428.112805903256
 30
0.0
 11
5660.253461421263
 21
2338.112805903256
 31
0.0
  0
LINE
  5
135D6
330
747D
100
AcDbEntity
  8
細線
 48
50.0
100
AcDbLine
 10
5800.253461421259
 20
4428.112805903256
 30
0.0
 11
5800.253461421263
 21
2338.112805903256
 31
0.0
  0
LINE
  5
135D7
330
747D
100
AcDbEntity
  8
細線
 48
50.0
100
AcDbLine
 10
5815.25346142126
 20
4428.112805903256
 30
0.0
 11
5815.253461421264
 21
2338.112805903256
 31
0.0
  0
LINE
  5
135D8
330
747D
100
AcDbEntity
  8
細線
 48
50.0
100
AcDbLine
 10
5955.253461421261
 20
4428.112805903256
 30
0.0
 11
5955.253461421264
 21
2338.112805903256
 31
0.0
  0
LINE
  5
135D9
330
747D
100
AcDbEntity
  8
細線
 48
50.0
100
AcDbLine
 10
5940.25346142126
 20
4428.112805903256
 30
0.0
 11
5940.253461421264
 21
2338.112805903256
 31
0.0
  0
LINE
  5
135DA
330
747D
100
AcDbEntity
  8
細線
 48
50.0
100
AcDbLine
 10
6360.25346142126
 20
4428.112805903256
 30
0.0
 11
6360.253461421264
 21
2338.112805903256
 31
0.0
  0
LINE
  5
135DB
330
747D
100
AcDbEntity
  8
細線
 48
50.0
100
AcDbLine
 10
6375.25346142126
 20
4428.112805903256
 30
0.0
 11
6375.253461421263
 21
2338.112805903256
 31
0.0
  0
LINE
  5
135DC
330
747D
100
AcDbEntity
  8
細線
 48
50.0
100
AcDbLine
 10
6235.25346142126
 20
4428.112805903256
 30
0.0
 11
6235.253461421264
 21
2338.112805903256
 31
0.0
  0
LINE
  5
135DD
330
747D
100
AcDbEntity
  8
細線
 48
50.0
100
AcDbLine
 10
6220.25346142126
 20
4428.112805903256
 30
0.0
 11
6220.253461421264
 21
2338.112805903256
 31
0.0
  0
LINE
  5
135DE
330
747D
100
AcDbEntity
  8
細線
 48
50.0
100
AcDbLine
 10
6080.253461421261
 20
4428.112805903256
 30
0.0
 11
6080.253461421264
 21
2338.112805903256
 31
0.0
  0
LINE
  5
135DF
330
747D
100
AcDbEntity
  8
細線
 48
50.0
100
AcDbLine
 10
6095.25346142126
 20
4428.112805903256
 30
0.0
 11
6095.253461421264
 21
2338.112805903256
 31
0.0
  0
LINE
  5
135E0
330
747D
100
AcDbEntity
  8
細線
 48
50.0
100
AcDbLine
 10
6515.253461421259
 20
4428.112805903256
 30
0.0
 11
6515.253461421264
 21
2338.112805903256
 31
0.0
  0
LINE
  5
135E1
330
747D
100
AcDbEntity
  8
細線
 48
50.0
100
AcDbLine
 10
6500.253461421261
 20
4428.112805903256
 30
0.0
 11
6500.253461421263
 21
2338.112805903256
 31
0.0
  0
LINE
  5
135E2
330
747D
100
AcDbEntity
  8
細線
 48
50.0
100
AcDbLine
 10
6640.253461421259
 20
4428.112805903256
 30
0.0
 11
6640.253461421264
 21
2338.112805903256
 31
0.0
  0
LINE
  5
135E3
330
747D
100
AcDbEntity
  8
細線
 48
50.0
100
AcDbLine
 10
6655.25346142126
 20
4428.112805903256
 30
0.0
 11
6655.253461421263
 21
2338.112805903256
 31
0.0
  0
LINE
  5
135E4
330
747D
100
AcDbEntity
  8
細線
 48
50.0
100
AcDbLine
 10
6795.25346142126
 20
4428.112805903256
 30
0.0
 11
6795.253461421264
 21
2338.112805903256
 31
0.0
  0
LINE
  5
135E5
330
747D
100
AcDbEntity
  8
細線
 48
50.0
100
AcDbLine
 10
6780.25346142126
 20
4428.112805903256
 30
0.0
 11
6780.253461421263
 21
2338.112805903256
 31
0.0
  0
LINE
  5
135E6
330
747D
100
AcDbEntity
  8
細線
 48
50.0
100
AcDbLine
 10
7200.253461421261
 20
4428.112805903256
 30
0.0
 11
7200.253461421263
 21
2338.112805903256
 31
0.0
  0
LINE
  5
135E7
330
747D
100
AcDbEntity
  8
細線
 48
50.0
100
AcDbLine
 10
7215.25346142126
 20
4428.112805903256
 30
0.0
 11
7215.253461421264
 21
2338.112805903256
 31
0.0
  0
LINE
  5
135E8
330
747D
100
AcDbEntity
  8
細線
 48
50.0
100
AcDbLine
 10
7075.253461421261
 20
4428.112805903256
 30
0.0
 11
7075.253461421263
 21
2338.112805903256
 31
0.0
  0
LINE
  5
135E9
330
747D
100
AcDbEntity
  8
細線
 48
50.0
100
AcDbLine
 10
7060.25346142126
 20
4428.112805903256
 30
0.0
 11
7060.253461421265
 21
2338.112805903256
 31
0.0
  0
LINE
  5
135EA
330
747D
100
AcDbEntity
  8
細線
 48
50.0
100
AcDbLine
 10
6920.25346142126
 20
4428.112805903256
 30
0.0
 11
6920.253461421264
 21
2338.112805903256
 31
0.0
  0
LINE
  5
135EB
330
747D
100
AcDbEntity
  8
細線
 48
50.0
100
AcDbLine
 10
6935.25346142126
 20
4428.112805903256
 30
0.0
 11
6935.253461421265
 21
2338.112805903256
 31
0.0
  0
LINE
  5
135EC
330
747D
100
AcDbEntity
  8
細線
 48
50.0
100
AcDbLine
 10
7620.25346142126
 20
4428.112805903256
 30
0.0
 11
7620.253461421263
 21
2338.112805903256
 31
0.0
  0
LINE
  5
135ED
330
747D
100
AcDbEntity
  8
細線
 48
50.0
100
AcDbLine
 10
7635.25346142126
 20
4428.112805903256
 30
0.0
 11
7635.253461421264
 21
2338.112805903256
 31
0.0
  0
LINE
  5
135EE
330
747D
100
AcDbEntity
  8
細線
 48
50.0
100
AcDbLine
 10
7495.25346142126
 20
4428.112805903256
 30
0.0
 11
7495.253461421263
 21
2338.112805903256
 31
0.0
  0
LINE
  5
135EF
330
747D
100
AcDbEntity
  8
細線
 48
50.0
100
AcDbLine
 10
7480.25346142126
 20
4428.112805903256
 30
0.0
 11
7480.253461421263
 21
2338.112805903256
 31
0.0
  0
LINE
  5
135F0
330
747D
100
AcDbEntity
  8
細線
 48
50.0
100
AcDbLine
 10
7340.25346142126
 20
4428.112805903256
 30
0.0
 11
7340.253461421264
 21
2338.112805903256
 31
0.0
  0
LINE
  5
135F1
330
747D
100
AcDbEntity
  8
細線
 48
50.0
100
AcDbLine
 10
7355.25346142126
 20
4428.112805903256
 30
0.0
 11
7355.253461421263
 21
2338.112805903256
 31
0.0
  0
LINE
  5
135F2
330
747D
100
AcDbEntity
  8
細線
 48
50.0
100
AcDbLine
 10
7775.253461421261
 20
4428.112805903256
 30
0.0
 11
7775.253461421264
 21
2338.112805903256
 31
0.0
  0
LINE
  5
135F3
330
747D
100
AcDbEntity
  8
細線
 48
50.0
100
AcDbLine
 10
7760.25346142126
 20
4428.112805903256
 30
0.0
 11
7760.253461421264
 21
2338.112805903256
 31
0.0
  0
LINE
  5
135F4
330
747D
100
AcDbEntity
  8
細線
 48
50.0
100
AcDbLine
 10
7900.253461421261
 20
4428.112805903256
 30
0.0
 11
7900.253461421262
 21
2338.112805903256
 31
0.0
  0
LINE
  5
135F5
330
747D
100
AcDbEntity
  8
細線
 48
50.0
100
AcDbLine
 10
7915.25346142126
 20
4428.112805903256
 30
0.0
 11
7915.253461421262
 21
2338.112805903256
 31
0.0
  0
LINE
  5
135F6
330
747D
100
AcDbEntity
  8
細線
 48
50.0
100
AcDbLine
 10
8055.25346142126
 20
4428.112805903256
 30
0.0
 11
8055.253461421262
 21
2338.112805903256
 31
0.0
  0
LINE
  5
135F7
330
747D
100
AcDbEntity
  8
細線
 48
50.0
100
AcDbLine
 10
8040.25346142126
 20
4428.112805903256
 30
0.0
 11
8040.253461421263
 21
2338.112805903256
 31
0.0
  0
LINE
  5
135F8
330
747D
100
AcDbEntity
  8
部品1
100
AcDbLine
 10
3387.753461421257
 20
4428.112805903256
 30
0.0
 11
3387.753461421257
 21
4423.112805903254
 31
0.0
  0
LINE
  5
135F9
330
747D
100
AcDbEntity
  8
部品1
100
AcDbLine
 10
5487.753461421256
 20
4428.112805903256
 30
0.0
 11
5487.753461421256
 21
4423.112805903254
 31
0.0
  0
LINE
  5
135FA
330
747D
100
AcDbEntity
  8
部品1
 48
50.0
100
AcDbLine
 10
3390.753461421257
 20
4379.112805903254
 30
0.0
 11
3360.753461421256
 21
4379.112805903254
 31
0.0
  0
LINE
  5
135FB
330
747D
100
AcDbEntity
  8
細線
 48
50.0
100
AcDbLine
 10
5484.753461421256
 20
4371.112805903254
 30
0.0
 11
3390.753461421257
 21
4371.112805903254
 31
0.0
  0
LINE
  5
135FC
330
747D
100
AcDbEntity
  8
細線
 48
50.0
100
AcDbLine
 10
5484.753461421256
 20
4380.612805903254
 30
0.0
 11
3390.753461421257
 21
4380.612805903254
 31
0.0
  0
LINE
  5
135FD
330
747D
100
AcDbEntity
  8
部品1
 48
50.0
100
AcDbLine
 10
5514.753461421257
 20
4423.112805903254
 30
0.0
 11
3360.753461421256
 21
4423.112805903254
 31
0.0
  0
LINE
  5
135FE
330
747D
100
AcDbEntity
  8
細線
 48
50.0
100
AcDbLine
 10
5514.753461421257
 20
4413.112805903255
 30
0.0
 11
3360.753461421256
 21
4413.112805903255
 31
0.0
  0
LINE
  5
135FF
330
747D
100
AcDbEntity
  8
部品1
 48
50.0
100
AcDbLine
 10
5514.753461421257
 20
4379.112805903254
 30
0.0
 11
5484.753461421256
 21
4379.112805903254
 31
0.0
  0
LINE
  5
13600
330
747D
100
AcDbEntity
  8
細線
 48
50.0
100
AcDbLine
 10
4188.753461421256
 20
2345.612805903254
 30
0.0
 11
5458.753461421256
 21
2345.612805903254
 31
0.0
  0
LINE
  5
13601
330
747D
100
AcDbEntity
  8
細線
 48
50.0
100
AcDbLine
 10
5462.753461421256
 20
2335.112805903254
 30
0.0
 11
5458.753461421256
 21
2345.612805903254
 31
0.0
  0
LINE
  5
13602
330
747D
100
AcDbEntity
  8
部品1
 48
50.0
100
AcDbLine
 10
3360.753461421256
 20
4423.112805903254
 30
0.0
 11
3360.753461421256
 21
2188.112805903255
 31
0.0
  0
LINE
  5
13603
330
747D
100
AcDbEntity
  8
部品1
 48
50.0
100
AcDbLine
 10
3390.753461421257
 20
2338.112805903254
 30
0.0
 11
3390.753461421257
 21
4371.112805903254
 31
0.0
  0
LINE
  5
13604
330
747D
100
AcDbEntity
  8
細線
 48
50.0
100
AcDbLine
 10
3390.753461421257
 20
4380.612805903254
 30
0.0
 11
3390.753461421257
 21
2288.112805903255
 31
0.0
  0
LINE
  5
13605
330
747D
100
AcDbEntity
  8
部品1
 48
50.0
100
AcDbLine
 10
3399.753461421256
 20
2338.112805903254
 30
0.0
 11
3399.753461421256
 21
2335.112805903254
 31
0.0
  0
LINE
  5
13606
330
747D
100
AcDbEntity
  8
細線
 48
50.0
100
AcDbLine
 10
3390.753461421257
 20
2331.112805903254
 30
0.0
 11
5484.753461421256
 21
2331.112805903254
 31
0.0
  0
LINE
  5
13607
330
747D
100
AcDbEntity
  8
細線
 48
50.0
100
AcDbLine
 10
3390.753461421257
 20
2335.112805903254
 30
0.0
 11
5484.753461421256
 21
2335.112805903254
 31
0.0
  0
LINE
  5
13608
330
747D
100
AcDbEntity
  8
部品1
 48
50.0
100
AcDbLine
 10
3390.753461421257
 20
2338.112805903254
 30
0.0
 11
4188.753461421256
 21
2338.112805903254
 31
0.0
  0
LINE
  5
13609
330
747D
100
AcDbEntity
  8
部品1
 48
50.0
100
AcDbLine
 10
4188.753461421256
 20
4371.112805903254
 30
0.0
 11
4188.753461421256
 21
2338.112805903254
 31
0.0
  0
LINE
  5
1360A
330
747D
100
AcDbEntity
  8
部品1
 48
50.0
100
AcDbLine
 10
5475.753461421256
 20
2335.112805903254
 30
0.0
 11
5475.753461421256
 21
4371.112805903254
 31
0.0
  0
LINE
  5
1360B
330
747D
100
AcDbEntity
  8
細線
 48
50.0
100
AcDbLine
 10
5484.753461421256
 20
2288.112805903255
 30
0.0
 11
5484.753461421256
 21
4380.612805903254
 31
0.0
  0
LINE
  5
1360C
330
747D
100
AcDbEntity
  8
部品1
 48
50.0
100
AcDbLine
 10
5514.753461421257
 20
2188.112805903255
 30
0.0
 11
5514.753461421257
 21
4423.112805903254
 31
0.0
  0
LINE
  5
1360D
330
747D
100
AcDbEntity
  8
部品1
 48
50.0
100
AcDbLine
 10
4839.753461421256
 20
4371.112805903254
 30
0.0
 11
4839.753461421256
 21
2345.612805903254
 31
0.0
  0
LINE
  5
1360E
330
747D
100
AcDbEntity
  8
細線
100
AcDbLine
 10
4974.253461421256
 20
4371.112805903256
 30
0.0
 11
4974.253461421256
 21
2345.612805903273
 31
0.0
  0
LINE
  5
1360F
330
747D
100
AcDbEntity
  8
細線
100
AcDbLine
 10
4248.753461421256
 20
4371.112805903256
 30
0.0
 11
4248.753461421256
 21
2345.612805903268
 31
0.0
  0
LINE
  5
13610
330
747D
100
AcDbEntity
  8
細線
100
AcDbLine
 10
4318.753461421256
 20
4371.112805903256
 30
0.0
 11
4318.753461421256
 21
2345.612805903268
 31
0.0
  0
LINE
  5
13611
330
747D
100
AcDbEntity
  8
細線
100
AcDbLine
 10
3604.753461421257
 20
4371.112805903256
 30
0.0
 11
3604.753461421257
 21
2338.112805903259
 31
0.0
  0
LINE
  5
13612
330
747D
100
AcDbEntity
  8
細線
100
AcDbLine
 10
3674.753461421256
 20
4371.112805903256
 30
0.0
 11
3674.753461421256
 21
2338.112805903259
 31
0.0
  0
LINE
  5
1362C
330
747D
100
AcDbEntity
  8
部品1
 48
50.0
100
AcDbLine
 10
3434.753461421256
 20
3419.612805903256
 30
0.0
 11
3487.753461421256
 21
3419.612805903256
 31
0.0
  0
LINE
  5
13630
330
747D
100
AcDbEntity
  8
細線
100
AcDbLine
 10
5044.253461421256
 20
4371.112805903256
 30
0.0
 11
5044.253461421256
 21
2345.612805903273
 31
0.0
  0
LINE
  5
13631
330
747D
100
AcDbEntity
  8
細線
100
AcDbLine
 10
5114.253461421256
 20
4371.112805903256
 30
0.0
 11
5114.253461421256
 21
2345.612805903273
 31
0.0
  0
LINE
  5
13632
330
747D
100
AcDbEntity
  8
細線
100
AcDbLine
 10
5184.253461421256
 20
4371.112805903256
 30
0.0
 11
5184.253461421256
 21
2345.612805903273
 31
0.0
  0
LINE
  5
13633
330
747D
100
AcDbEntity
  8
細線
100
AcDbLine
 10
5254.253461421257
 20
4371.112805903256
 30
0.0
 11
5254.253461421257
 21
2345.612805903273
 31
0.0
  0
LINE
  5
13634
330
747D
100
AcDbEntity
  8
細線
100
AcDbLine
 10
5324.253461421257
 20
4371.112805903256
 30
0.0
 11
5324.253461421257
 21
2345.612805903273
 31
0.0
  0
LINE
  5
13635
330
747D
100
AcDbEntity
  8
細線
100
AcDbLine
 10
4388.753461421256
 20
4371.112805903256
 30
0.0
 11
4388.753461421256
 21
2345.612805903268
 31
0.0
  0
LINE
  5
13636
330
747D
100
AcDbEntity
  8
細線
100
AcDbLine
 10
4458.753461421256
 20
4371.112805903256
 30
0.0
 11
4458.753461421256
 21
2345.612805903268
 31
0.0
  0
LINE
  5
13637
330
747D
100
AcDbEntity
  8
細線
100
AcDbLine
 10
4528.753461421256
 20
4371.112805903256
 30
0.0
 11
4528.753461421256
 21
2345.612805903268
 31
0.0
  0
LINE
  5
13638
330
747D
100
AcDbEntity
  8
細線
100
AcDbLine
 10
4598.753461421256
 20
4371.112805903256
 30
0.0
 11
4598.753461421256
 21
2345.612805903268
 31
0.0
  0
LINE
  5
13639
330
747D
100
AcDbEntity
  8
細線
100
AcDbLine
 10
4668.753461421256
 20
4371.112805903256
 30
0.0
 11
4668.753461421256
 21
2345.612805903268
 31
0.0
  0
LINE
  5
1363A
330
747D
100
AcDbEntity
  8
細線
100
AcDbLine
 10
4738.753461421256
 20
4371.112805903256
 30
0.0
 11
4738.753461421256
 21
2345.612805903268
 31
0.0
  0
LINE
  5
1363B
330
747D
100
AcDbEntity
  8
細線
100
AcDbLine
 10
3518.753461421257
 20
4371.112805903256
 30
0.0
 11
3518.753461421257
 21
2338.112805903261
 31
0.0
  0
LINE
  5
1363C
330
747D
100
AcDbEntity
  8
細線
100
AcDbLine
 10
3552.753461421256
 20
4371.112805903256
 30
0.0
 11
3552.753461421256
 21
2338.112805903261
 31
0.0
  0
LINE
  5
1363D
330
747D
100
AcDbEntity
  8
部品1
100
AcDbLine
 10
3510.753461421256
 20
4371.112805903256
 30
0.0
 11
3510.753461421256
 21
2338.112805903261
 31
0.0
  0
LINE
  5
1363E
330
747D
100
AcDbEntity
  8
部品1
100
AcDbLine
 10
3560.753461421256
 20
4371.112805903256
 30
0.0
 11
3560.753461421256
 21
2338.112805903261
 31
0.0
  0
LINE
  5
1363F
330
747D
100
AcDbEntity
  8
細線
100
AcDbLine
 10
3744.753461421256
 20
4371.112805903256
 30
0.0
 11
3744.753461421256
 21
2338.112805903259
 31
0.0
  0
LINE
  5
13640
330
747D
100
AcDbEntity
  8
細線
100
AcDbLine
 10
3814.753461421257
 20
4371.112805903256
 30
0.0
 11
3814.753461421257
 21
2338.112805903259
 31
0.0
  0
LINE
  5
13641
330
747D
100
AcDbEntity
  8
細線
100
AcDbLine
 10
3884.753461421257
 20
4371.112805903256
 30
0.0
 11
3884.753461421257
 21
2338.112805903259
 31
0.0
  0
LINE
  5
13642
330
747D
100
AcDbEntity
  8
細線
100
AcDbLine
 10
3954.753461421257
 20
4371.112805903256
 30
0.0
 11
3954.753461421257
 21
2338.112805903261
 31
0.0
  0
LINE
  5
13643
330
747D
100
AcDbEntity
  8
細線
100
AcDbLine
 10
4024.753461421256
 20
4371.112805903256
 30
0.0
 11
4024.753461421256
 21
2338.112805903262
 31
0.0
  0
LINE
  5
13644
330
747D
100
AcDbEntity
  8
細線
100
AcDbLine
 10
4094.753461421256
 20
4371.112805903256
 30
0.0
 11
4094.753461421256
 21
2338.112805903262
 31
0.0
  0
LINE
  5
13645
330
747D
100
AcDbEntity
  8
部品1
100
AcDbLine
 10
4839.753461421249
 20
4371.112805903256
 30
0.0
 11
4839.753461421256
 21
2345.61280590327
 31
0.0
  0
LINE
  5
13646
330
747D
100
AcDbEntity
  8
部品1
 48
50.0
100
AcDbLine
 10
4188.753461421256
 20
4371.112805903256
 30
0.0
 11
4188.753461421256
 21
2338.112805903255
 31
0.0
  0
TEXT
  5
1364A
330
747D
100
AcDbEntity
  8
文字
 62
     7
 48
50.0
100
AcDbText
 10
13583.11819016569
 20
9570.013745883729
 30
0.0
 40
100.0
  1
母屋中
  7
STYLE1
100
AcDbText
  0
TEXT
  5
1364B
330
747D
100
AcDbEntity
  8
文字
 62
     7
 48
50.0
100
AcDbText
 10
13248.77747366447
 20
8720.013745883729
 30
0.0
 40
100.0
  1
15
  7
STYLE1
100
AcDbText
  0
LINE
  5
1364C
330
747D
100
AcDbEntity
  8
仕様書枠
 48
50.0
100
AcDbLine
 10
16307.19999999998
 20
8009.600000000004
 30
0.0
 11
13127.19999999999
 21
8009.600000000007
 31
0.0
  0
TEXT
  5
1364D
330
747D
100
AcDbEntity
  8
文字
 62
     7
 48
50.0
100
AcDbText
 10
13583.11819016569
 20
8550.013745883733
 30
0.0
 40
100.0
  1
扉
  7
STYLE1
100
AcDbText
  0
TEXT
  5
1364E
330
747D
100
AcDbEntity
  8
文字
 62
     7
 48
50.0
100
AcDbText
 10
15022.63965474516
 20
8550.013745883729
 30
0.0
 40
100.0
  1
F12            0.8
  7
STYLE1
100
AcDbText
  0
TEXT
  5
1364F
330
747D
100
AcDbEntity
  8
文字
 62
     7
 48
50.0
100
AcDbText
 10
13583.11819016568
 20
8720.013745883733
 30
0.0
 40
100.0
  1
正面パネル
  7
STYLE1
100
AcDbText
  0
TEXT
  5
13650
330
747D
100
AcDbEntity
  8
文字
 62
     7
 48
50.0
100
AcDbText
 10
15022.63965474515
 20
8720.013745883729
 30
0.0
 40
100.0
  1
F12            0.7
  7
STYLE1
100
AcDbText
  0
TEXT
  5
13651
330
747D
100
AcDbEntity
  8
文字
 62
     7
 48
50.0
100
AcDbText
 10
15022.63965474517
 20
10590.01374588372
 30
0.0
 40
100.0
  1
F12            1.0
  7
STYLE1
100
AcDbText
  0
TEXT
  5
13652
330
747D
100
AcDbEntity
  8
文字
 62
     7
 48
50.0
100
AcDbText
 10
15022.63965474516
 20
10930.01374588372
 30
0.0
 40
100.0
  1
F12            1.2
  7
STYLE1
100
AcDbText
  0
TEXT
  5
13653
330
747D
100
AcDbEntity
  8
文字
 62
     7
 48
50.0
100
AcDbText
 10
13248.77747366448
 20
8890.013745883729
 30
0.0
 40
100.0
  1
14
  7
STYLE1
100
AcDbText
  0
TEXT
  5
13654
330
747D
100
AcDbEntity
  8
文字
 62
     7
 48
50.0
100
AcDbText
 10
13583.11819016569
 20
10930.01374588373
 30
0.0
 40
100.0
  1
根太
  7
STYLE1
100
AcDbText
  0
TEXT
  5
13655
330
747D
100
AcDbEntity
  8
文字
 62
     7
 48
50.0
100
AcDbText
 10
13583.1181901657
 20
10590.01374588373
 30
0.0
 40
100.0
  1
床パネル
 41
0.9
  7
STYLE1
100
AcDbText
  0
LINE
  5
13656
330
747D
100
AcDbEntity
  8
仕様書枠
 48
50.0
100
AcDbLine
 10
16307.19999999999
 20
9029.6
 30
0.0
 11
13127.2
 21
9029.600000000003
 31
0.0
  0
LINE
  5
13657
330
747D
100
AcDbEntity
  8
仕様書枠
 48
50.0
100
AcDbLine
 10
13127.2
 20
11409.6
 30
0.0
 11
13127.19999999999
 21
8009.600000000006
 31
0.0
  0
TEXT
  5
13658
330
747D
100
AcDbEntity
  8
文字
 62
     7
 48
50.0
100
AcDbText
 10
13229.83081656554
 20
8040.013745883733
 30
0.0
 40
100.0
  1
Y10→溶融亜鉛-5％アルミニウム合金めっき鋼板(JIS G 3317)
 41
0.9
  7
STYLE1
100
AcDbText
  0
TEXT
  5
13659
330
747D
100
AcDbEntity
  8
文字
 62
     7
 48
50.0
100
AcDbText
 10
13229.83081656554
 20
8210.013745883735
 30
0.0
 40
100.0
  1
F12→溶融亜鉛めっき鋼板(JIS G 3302)
  7
STYLE1
100
AcDbText
  0
LINE
  5
1365A
330
747D
100
AcDbEntity
  8
仕様書枠
 48
50.0
100
AcDbLine
 10
16307.19999999999
 20
8179.600000000005
 30
0.0
 11
13127.19999999999
 21
8179.600000000005
 31
0.0
  0
LINE
  5
1365B
330
747D
100
AcDbEntity
  8
仕様書枠
 48
50.0
100
AcDbLine
 10
16307.19999999999
 20
8349.600000000004
 30
0.0
 11
13127.19999999999
 21
8349.600000000007
 31
0.0
  0
TEXT
  5
1365C
330
747D
100
AcDbEntity
  8
文字
 62
     7
 48
50.0
100
AcDbText
 10
15022.63965474515
 20
9400.013745883725
 30
0.0
 40
100.0
  1
F12            0.7
  7
STYLE1
100
AcDbText
  0
TEXT
  5
1365D
330
747D
100
AcDbEntity
  8
文字
 62
     7
 48
50.0
100
AcDbText
 10
15022.63965474517
 20
9740.013745883725
 30
0.0
 40
100.0
  1
Y10            0.5
  7
STYLE1
100
AcDbText
  0
TEXT
  5
1365E
330
747D
100
AcDbEntity
  8
文字
 62
     7
 48
50.0
100
AcDbText
 10
15022.63965474516
 20
10080.01374588372
 30
0.0
 40
100.0
  1
Y10            0.7
  7
STYLE1
100
AcDbText
  0
TEXT
  5
1365F
330
747D
100
AcDbEntity
  8
文字
 62
     7
 48
50.0
100
AcDbText
 10
15022.63965474516
 20
10250.01374588372
 30
0.0
 40
100.0
  1
Y10            0.7
  7
STYLE1
100
AcDbText
  0
TEXT
  5
13660
330
747D
100
AcDbEntity
  8
文字
 62
     7
 48
50.0
100
AcDbText
 10
15022.63965474516
 20
10420.01374588372
 30
0.0
 40
100.0
  1
Y10            1.0
  7
STYLE1
100
AcDbText
  0
TEXT
  5
13661
330
747D
100
AcDbEntity
  8
文字
 62
     7
 48
50.0
100
AcDbText
 10
15022.63965474518
 20
10760.01374588372
 30
0.0
 40
100.0
  1
F12            1.0
  7
STYLE1
100
AcDbText
  0
TEXT
  5
13662
330
747D
100
AcDbEntity
  8
文字
 62
     7
 48
50.0
100
AcDbText
 10
15022.63965474517
 20
11100.01374588372
 30
0.0
 40
100.0
  1
F12            1.2
  7
STYLE1
100
AcDbText
  0
TEXT
  5
13663
330
747D
100
AcDbEntity
  8
文字
 62
     7
 48
50.0
100
AcDbText
 10
13248.77747366448
 20
9230.013745883729
 30
0.0
 40
100.0
  1
12
  7
STYLE1
100
AcDbText
  0
TEXT
  5
13664
330
747D
100
AcDbEntity
  8
文字
 62
     7
 48
50.0
100
AcDbText
 10
13248.77747366448
 20
9060.013745883729
 30
0.0
 40
100.0
  1
13
  7
STYLE1
100
AcDbText
  0
LINE
  5
13665
330
747D
100
AcDbEntity
  8
仕様書枠
 48
50.0
100
AcDbLine
 10
16307.19999999999
 20
8859.6
 30
0.0
 11
13127.2
 21
8859.600000000005
 31
0.0
  0
LINE
  5
13666
330
747D
100
AcDbEntity
  8
仕様書枠
 48
50.0
100
AcDbLine
 10
16307.19999999999
 20
9199.600000000001
 30
0.0
 11
13127.2
 21
9199.600000000001
 31
0.0
  0
TEXT
  5
13667
330
747D
100
AcDbEntity
  8
文字
 62
     7
 48
50.0
100
AcDbText
 10
13248.77747366447
 20
9400.013745883729
 30
0.0
 40
100.0
  1
11
  7
STYLE1
100
AcDbText
  0
LINE
  5
13668
330
747D
100
AcDbEntity
  8
仕様書枠
 48
50.0
100
AcDbLine
 10
16307.2
 20
9879.600000000001
 30
0.0
 11
13127.2
 21
9879.600000000001
 31
0.0
  0
LINE
  5
13669
330
747D
100
AcDbEntity
  8
仕様書枠
 48
50.0
100
AcDbLine
 10
16307.2
 20
10219.6
 30
0.0
 11
13127.2
 21
10219.6
 31
0.0
  0
LINE
  5
1366A
330
747D
100
AcDbEntity
  8
仕様書枠
 48
50.0
100
AcDbLine
 10
16307.19999999999
 20
9539.6
 30
0.0
 11
13127.2
 21
9539.6
 31
0.0
  0
LINE
  5
1366B
330
747D
100
AcDbEntity
  8
仕様書枠
 48
50.0
100
AcDbLine
 10
16307.19999999999
 20
9369.600000000001
 30
0.0
 11
13127.2
 21
9369.600000000001
 31
0.0
  0
LINE
  5
1366C
330
747D
100
AcDbEntity
  8
仕様書枠
 48
50.0
100
AcDbLine
 10
16307.19999999999
 20
9709.600000000001
 30
0.0
 11
13127.2
 21
9709.600000000001
 31
0.0
  0
TEXT
  5
1366D
330
747D
100
AcDbEntity
  8
文字
 62
     7
 48
50.0
100
AcDbText
 10
13271.19032244792
 20
10250.01374588373
 30
0.0
 40
100.0
  1
6
  7
STYLE1
100
AcDbText
  0
TEXT
  5
1366E
330
747D
100
AcDbEntity
  8
文字
 62
     7
 48
50.0
100
AcDbText
 10
13271.19032244792
 20
10080.01374588373
 30
0.0
 40
100.0
  1
7
  7
STYLE1
100
AcDbText
  0
TEXT
  5
1366F
330
747D
100
AcDbEntity
  8
文字
 62
     7
 48
50.0
100
AcDbText
 10
13271.19032244792
 20
9740.013745883729
 30
0.0
 40
100.0
  1
9
  7
STYLE1
100
AcDbText
  0
TEXT
  5
13670
330
747D
100
AcDbEntity
  8
文字
 62
     7
 48
50.0
100
AcDbText
 10
13271.19032244792
 20
9910.01374588373
 30
0.0
 40
100.0
  1
8
  7
STYLE1
100
AcDbText
  0
TEXT
  5
13671
330
747D
100
AcDbEntity
  8
文字
 62
     7
 48
50.0
100
AcDbText
 10
13583.11819016569
 20
10080.01374588373
 30
0.0
 40
100.0
  1
鼻隠シ前後
  7
STYLE1
100
AcDbText
  0
TEXT
  5
13672
330
747D
100
AcDbEntity
  8
文字
 62
     7
 48
50.0
100
AcDbText
 10
13583.11819016569
 20
9740.013745883729
 30
0.0
 40
100.0
  1
屋根パネル
  7
STYLE1
100
AcDbText
  0
TEXT
  5
13673
330
747D
100
AcDbEntity
  8
文字
 62
     7
 48
50.0
100
AcDbText
 10
13583.11819016568
 20
9400.013745883729
 30
0.0
 40
100.0
  1
壁パネル
  7
STYLE1
100
AcDbText
  0
TEXT
  5
13674
330
747D
100
AcDbEntity
  8
文字
 62
     7
 48
50.0
100
AcDbText
 10
13248.77747366447
 20
9570.013745883729
 30
0.0
 40
100.0
  1
10
  7
STYLE1
100
AcDbText
  0
TEXT
  5
13675
330
747D
100
AcDbEntity
  8
文字
 62
     7
 48
50.0
100
AcDbText
 10
13583.11819016569
 20
10250.01374588373
 30
0.0
 40
100.0
  1
妻板左右
  7
STYLE1
100
AcDbText
  0
TEXT
  5
13676
330
747D
100
AcDbEntity
  8
文字
 62
     7
 48
50.0
100
AcDbText
 10
13271.19032244792
 20
10420.01374588373
 30
0.0
 40
100.0
  1
5
  7
STYLE1
100
AcDbText
  0
TEXT
  5
13677
330
747D
100
AcDbEntity
  8
文字
 62
     7
 48
50.0
100
AcDbText
 10
13583.11819016569
 20
10420.01374588373
 30
0.0
 40
100.0
  1
桁前後
  7
STYLE1
100
AcDbText
  0
TEXT
  5
13678
330
747D
100
AcDbEntity
  8
文字
 62
     7
 48
50.0
100
AcDbText
 10
13583.1181901657
 20
10760.01374588373
 30
0.0
 40
100.0
  1
柱
  7
STYLE1
100
AcDbText
  0
TEXT
  5
13679
330
747D
100
AcDbEntity
  8
文字
 62
     7
 48
50.0
100
AcDbText
 10
13583.11819016569
 20
11100.01374588373
 30
0.0
 40
100.0
  1
土台枠
  7
STYLE1
100
AcDbText
  0
TEXT
  5
1367A
330
747D
100
AcDbEntity
  8
文字
 62
     7
 48
50.0
100
AcDbText
 10
14859.79774614482
 20
11270.01374588373
 30
0.0
 40
100.0
  1
材料（材質）　　単位mm
  7
STYLE1
100
AcDbText
  0
TEXT
  5
1367B
330
747D
100
AcDbEntity
  8
文字
 62
     7
 48
50.0
100
AcDbText
 10
13732.03840939434
 20
11270.01374588373
 30
0.0
 40
100.0
  1
部　　品　　名
  7
STYLE1
100
AcDbText
  0
TEXT
  5
1367C
330
747D
100
AcDbEntity
  8
文字
 62
     7
 48
50.0
100
AcDbText
 10
13271.19032244792
 20
10760.01374588373
 30
0.0
 40
100.0
  1
3
  7
STYLE1
100
AcDbText
  0
TEXT
  5
1367D
330
747D
100
AcDbEntity
  8
文字
 62
     7
 48
50.0
100
AcDbText
 10
13271.19032244792
 20
10590.01374588373
 30
0.0
 40
100.0
  1
4
  7
STYLE1
100
AcDbText
  0
TEXT
  5
1367E
330
747D
100
AcDbEntity
  8
文字
 62
     7
 48
50.0
100
AcDbText
 10
13271.19032244792
 20
10930.01374588373
 30
0.0
 40
100.0
  1
2
  7
STYLE1
100
AcDbText
  0
TEXT
  5
1367F
330
747D
100
AcDbEntity
  8
文字
 62
     7
 48
50.0
100
AcDbText
 10
13271.19032244792
 20
11100.01374588373
 30
0.0
 40
100.0
  1
1
  7
STYLE1
100
AcDbText
  0
TEXT
  5
13680
330
747D
100
AcDbEntity
  8
文字
 62
     7
 48
50.0
100
AcDbText
 10
13197.42518560407
 20
11270.01374588373
 30
0.0
 40
100.0
  1
品番
  7
STYLE1
100
AcDbText
  0
LINE
  5
13681
330
747D
100
AcDbEntity
  8
仕様書枠
 48
50.0
100
AcDbLine
 10
16307.19999999999
 20
10729.6
 30
0.0
 11
13127.2
 21
10729.6
 31
0.0
  0
LINE
  5
13682
330
747D
100
AcDbEntity
  8
仕様書枠
 48
50.0
100
AcDbLine
 10
16307.19999999999
 20
10389.6
 30
0.0
 11
13127.2
 21
10389.6
 31
0.0
  0
LINE
  5
13683
330
747D
100
AcDbEntity
  8
仕様書枠
 48
50.0
100
AcDbLine
 10
16307.19999999999
 20
10559.6
 30
0.0
 11
13127.2
 21
10559.6
 31
0.0
  0
LINE
  5
13684
330
747D
100
AcDbEntity
  8
仕様書枠
 48
50.0
100
AcDbLine
 10
16307.2
 20
11069.6
 30
0.0
 11
13127.2
 21
11069.6
 31
0.0
  0
LINE
  5
13685
330
747D
100
AcDbEntity
  8
仕様書枠
 48
50.0
100
AcDbLine
 10
16307.2
 20
10899.6
 30
0.0
 11
13127.2
 21
10899.6
 31
0.0
  0
LINE
  5
13686
330
747D
100
AcDbEntity
  8
仕様書枠
 48
50.0
100
AcDbLine
 10
16307.2
 20
11239.6
 30
0.0
 11
13127.2
 21
11239.6
 31
0.0
  0
LINE
  5
13687
330
747D
100
AcDbEntity
  8
仕様書枠
 48
50.0
100
AcDbLine
 10
13490.2
 20
11409.6
 30
0.0
 11
13490.20000000001
 21
8349.600000000007
 31
0.0
  0
LINE
  5
13688
330
747D
100
AcDbEntity
  8
仕様書枠
 48
50.0
100
AcDbLine
 10
14785.2
 20
11409.59999999999
 30
0.0
 11
14785.2
 21
8349.600000000004
 31
0.0
  0
LINE
  5
13689
330
747D
100
AcDbEntity
  8
仕様書枠
 48
50.0
100
AcDbLine
 10
16307.19999999999
 20
8009.600000000004
 30
0.0
 11
16307.2
 21
11409.6
 31
0.0
  0
LINE
  5
1368A
330
747D
100
AcDbEntity
  8
仕様書枠
 48
50.0
100
AcDbLine
 10
16307.2
 20
11409.6
 30
0.0
 11
13127.2
 21
11409.6
 31
0.0
  0
LINE
  5
1368B
330
747D
100
AcDbEntity
  8
仕様書枠
 48
50.0
100
AcDbLine
 10
16307.2
 20
10049.6
 30
0.0
 11
13127.2
 21
10049.6
 31
0.0
  0
TEXT
  5
1368C
330
747D
100
AcDbEntity
  8
文字
 62
     7
 48
50.0
100
AcDbText
 10
15022.63965474515
 20
8380.013745883726
 30
0.0
 40
100.0
  1
F12            2.3
  7
STYLE1
100
AcDbText
  0
TEXT
  5
1368D
330
747D
100
AcDbEntity
  8
文字
 62
     7
 48
50.0
100
AcDbText
 10
13583.11819016569
 20
8380.013745883728
 30
0.0
 40
100.0
  1
アンカープレート
  7
STYLE1
100
AcDbText
  0
LINE
  5
1368E
330
747D
100
AcDbEntity
  8
仕様書枠
 48
50.0
100
AcDbLine
 10
16307.19999999999
 20
8519.600000000004
 30
0.0
 11
13127.2
 21
8519.600000000009
 31
0.0
  0
LINE
  5
1368F
330
747D
100
AcDbEntity
  8
仕様書枠
 48
50.0
100
AcDbLine
 10
16307.19999999999
 20
8689.600000000003
 30
0.0
 11
13127.2
 21
8689.600000000007
 31
0.0
  0
TEXT
  5
13690
330
747D
100
AcDbEntity
  8
文字
 62
     7
 48
50.0
100
AcDbText
 10
13583.11819016569
 20
9230.013745883729
 30
0.0
 40
100.0
  1
壁面扉鴨居
  7
STYLE1
100
AcDbText
  0
TEXT
  5
13691
330
747D
100
AcDbEntity
  8
文字
 62
     7
 48
50.0
100
AcDbText
 10
13583.11819016569
 20
9060.013745883733
 30
0.0
 40
100.0
  1
壁面扉敷居
  7
STYLE1
100
AcDbText
  0
TEXT
  5
13692
330
747D
100
AcDbEntity
  8
文字
 62
     7
 48
50.0
100
AcDbText
 10
15022.63965474515
 20
9230.013745883729
 30
0.0
 40
100.0
  1
F12            0.7
  7
STYLE1
100
AcDbText
  0
TEXT
  5
13693
330
747D
100
AcDbEntity
  8
文字
 62
     7
 48
50.0
100
AcDbText
 10
15022.63965474517
 20
9060.013745883725
 30
0.0
 40
100.0
  1
F12            1.0
  7
STYLE1
100
AcDbText
  0
TEXT
  5
13694
330
747D
100
AcDbEntity
  8
文字
 62
     7
 48
50.0
100
AcDbText
 10
13583.11819016569
 20
8890.013745883733
 30
0.0
 40
100.0
  1
壁面扉枠左右
  7
STYLE1
100
AcDbText
  0
TEXT
  5
13695
330
747D
100
AcDbEntity
  8
文字
 62
     7
 48
50.0
100
AcDbText
 10
15022.63965474517
 20
8890.013745883726
 30
0.0
 40
100.0
  1
F12            1.0
  7
STYLE1
100
AcDbText
  0
TEXT
  5
13696
330
747D
100
AcDbEntity
  8
文字
 62
     7
 48
50.0
100
AcDbText
 10
13248.77747366447
 20
8550.013745883729
 30
0.0
 40
100.0
  1
16
  7
STYLE1
100
AcDbText
  0
TEXT
  5
13697
330
747D
100
AcDbEntity
  8
文字
 62
     7
 48
50.0
100
AcDbText
 10
13248.77747366447
 20
8380.013745883728
 30
0.0
 40
100.0
  1
17
  7
STYLE1
100
AcDbText
  0
TEXT
  5
13698
330
747D
100
AcDbEntity
  8
文字
 62
     7
 48
50.0
100
AcDbText
 10
13583.1181901657
 20
9910.01374588373
 30
0.0
 40
100.0
  1
梁中
 41
0.9
  7
STYLE1
100
AcDbText
  0
TEXT
  5
13699
330
747D
100
AcDbEntity
  8
文字
 62
     7
 48
50.0
100
AcDbText
 10
15022.63965474517
 20
9910.01374588373
 30
0.0
 40
100.0
  1
F12,Y10      1.2+1.6
  7
STYLE1
100
AcDbText
  0
LINE
  5
1369A
330
747D
100
AcDbEntity
  8
部品1
100
AcDbLine
 10
5532.753461421257
 20
4522.11280590326
 30
0.0
 11
5532.753461421253
 21
4663.112805903258
 31
0.0
  0
LINE
  5
1369B
330
747D
100
AcDbEntity
  8
部品1
100
AcDbLine
 10
8222.333800405925
 20
4655.716280508019
 30
0.0
 11
8221.200403073581
 21
4635.740152525419
 31
0.0
  0
LINE
  5
1369C
330
747D
100
AcDbEntity
  8
細線
 48
50.0
100
AcDbLine
 10
8189.753461421259
 20
4663.112805903258
 30
0.0
 11
8189.753461421259
 21
4522.112805903257
 31
0.0
  0
LINE
  5
1369D
330
747D
100
AcDbEntity
  8
部品1
100
AcDbLine
 10
8209.763382752004
 20
4540.08274535836
 30
0.0
 11
8209.118476944892
 21
4528.71628050802
 31
0.0
  0
LINE
  5
1369E
330
747D
100
AcDbEntity
  8
部品1
100
AcDbLine
 10
8217.999413276848
 20
4632.282745358361
 30
0.0
 11
8212.964372548738
 21
4543.540152525419
 31
0.0
  0
ARC
  5
1369F
330
747D
100
AcDbEntity
  8
部品1
 48
50.0
100
AcDbCircle
 10
8220.994596173033
 20
4632.11280590326
 30
0.0
 40
3.0
100
AcDbArc
 50
97.65812720736519
 51
176.7526572096623
  0
ARC
  5
136A0
330
747D
100
AcDbEntity
  8
部品1
 48
50.0
100
AcDbCircle
 10
8212.75856564819
 20
4539.912805903258
 30
0.0
 40
3.0
100
AcDbArc
 50
97.65812720736519
 51
176.7526572096623
  0
ARC
  5
136A1
330
747D
100
AcDbEntity
  8
部品1
 48
50.0
100
AcDbCircle
 10
8212.265496539629
 20
4543.579805064941
 30
0.0
 40
0.7
100
AcDbArc
 50
277.6581272073652
 51
356.7526572097143
  0
ARC
  5
136A2
330
747D
100
AcDbEntity
  8
部品1
 48
50.0
100
AcDbCircle
 10
8220.501527064472
 20
4635.779805064945
 30
0.0
 40
0.7
100
AcDbArc
 50
277.6581272073652
 51
356.7526572096103
  0
ARC
  5
136A3
330
747D
100
AcDbEntity
  8
部品1
100
AcDbCircle
 10
8202.129716853793
 20
4529.11280590326
 30
0.0
 40
7.0
100
AcDbArc
 50
270.0
 51
356.7526572096623
  0
ARC
  5
136A4
330
747D
100
AcDbEntity
  8
部品1
100
AcDbCircle
 10
8215.345040314828
 20
4656.112805903258
 30
0.0
 40
7.0
100
AcDbArc
 50
356.7526572096623
 51
90.0
  0
DIMENSION
  5
136A5
330
747D
100
AcDbEntity
  8
寸法
 48
50.0
100
AcDbDimension
  2
*D3
 10
8172.75346142126
 20
4875.654391161499
 30
0.0
 11
8536.238742795497
 21
4875.654391161499
 31
0.0
 70
   160
 71
     5
 42
50.0
  3
INABA_S40G
100
AcDbAlignedDimension
 13
8222.753461421261
 23
4663.112805903258
 33
0.0
 14
8172.75346142126
 24
4663.112805903259
 34
0.0
100
AcDbRotatedDimension
  0
LINE
  5
136A6
330
747D
100
AcDbEntity
  8
細線
 48
50.0
100
AcDbLine
 10
2895.753461421256
 20
4663.112805903261
 30
0.0
 11
2895.753461421256
 21
4522.112805903261
 31
0.0
  0
ARC
  5
136A7
330
747D
100
AcDbEntity
  8
部品1
100
AcDbCircle
 10
2870.161882527686
 20
4656.112805903261
 30
0.0
 40
7.0
100
AcDbArc
 50
90.0
 51
183.2473427903377
  0
ARC
  5
136A8
330
747D
100
AcDbEntity
  8
部品1
100
AcDbCircle
 10
2883.37720598872
 20
4529.112805903262
 30
0.0
 40
7.0
100
AcDbArc
 50
183.2473427903377
 51
270.0
  0
ARC
  5
136A9
330
747D
100
AcDbEntity
  8
部品1
 48
50.0
100
AcDbCircle
 10
2865.005395778044
 20
4635.779805064948
 30
0.0
 40
0.7
100
AcDbArc
 50
183.2473427903897
 51
262.3418727926349
  0
ARC
  5
136AA
330
747D
100
AcDbEntity
  8
部品1
 48
50.0
100
AcDbCircle
 10
2873.241426302884
 20
4543.579805064943
 30
0.0
 40
0.7
100
AcDbArc
 50
183.2473427902856
 51
262.3418727926349
  0
ARC
  5
136AB
330
747D
100
AcDbEntity
  8
部品1
 48
50.0
100
AcDbCircle
 10
2872.748357194323
 20
4539.912805903259
 30
0.0
 40
3.0
100
AcDbArc
 50
3.247342790337682
 51
82.3418727926348
  0
ARC
  5
136AC
330
747D
100
AcDbEntity
  8
部品1
 48
50.0
100
AcDbCircle
 10
2864.512326669479
 20
4632.112805903262
 30
0.0
 40
3.0
100
AcDbArc
 50
3.247342790337682
 51
82.3418727926348
  0
LINE
  5
136AD
330
747D
100
AcDbEntity
  8
部品1
100
AcDbLine
 10
2867.507509565665
 20
4632.282745358364
 30
0.0
 11
2872.542550293776
 21
4543.540152525421
 31
0.0
  0
LINE
  5
136AE
330
747D
100
AcDbEntity
  8
部品1
100
AcDbLine
 10
2875.743540090513
 20
4540.082745358364
 30
0.0
 11
2876.388445897621
 21
4528.716280508024
 31
0.0
  0
LINE
  5
136AF
330
747D
100
AcDbEntity
  8
部品1
100
AcDbLine
 10
2863.173122436587
 20
4655.716280508022
 30
0.0
 11
2864.306519768936
 21
4635.740152525421
 31
0.0
  0
LINE
  5
136B0
330
747D
100
AcDbEntity
  8
部品1
 48
50.0
100
AcDbLine
 10
8215.345040314828
 20
4663.112805903258
 30
0.0
 11
2870.161882527686
 21
4663.112805903258
 31
0.0
  0
LINE
  5
136B1
330
747D
100
AcDbEntity
  8
細線
 48
50.0
100
AcDbLine
 10
8189.753461421259
 20
4635.086048466631
 30
0.0
 11
2864.91211243167
 21
4635.086048467257
 31
0.0
  0
LINE
  5
136B2
330
747D
100
AcDbEntity
  8
細線
 48
50.0
100
AcDbLine
 10
8189.753461421261
 20
4542.88604846663
 30
0.0
 11
2873.148142956503
 21
4542.886048467256
 31
0.0
  0
LINE
  5
136B3
330
747D
100
AcDbEntity
  8
部品1
 48
50.0
100
AcDbLine
 10
8202.129716853793
 20
4522.11280590326
 30
0.0
 11
2883.37720598872
 21
4522.112805903261
 31
0.0
  0
DIMENSION
  5
136B4
330
747D
100
AcDbEntity
  8
寸法
 48
50.0
100
AcDbDimension
  2
*D4
 10
2862.753461421256
 20
4875.654391161502
 30
0.0
 11
2549.268180047009
 21
4875.654391161502
 31
0.0
 70
   160
 71
     5
 42
50.0
  3
INABA_S40G
100
AcDbAlignedDimension
 13
2912.753461421257
 23
4663.112805903264
 33
0.0
 14
2862.753461421256
 24
4663.112805903263
 34
0.0
100
AcDbRotatedDimension
1001
ACAD
1000
DSTYLE
1002
{
1002
}
  0
DIMENSION
  5
136B5
330
747D
100
AcDbEntity
  8
寸法
 48
50.0
100
AcDbDimension
  2
*D5
 10
8222.753461421261
 20
5096.559691635249
 30
0.0
 11
5542.753461421256
 21
5096.559691635249
 31
0.0
 70
   160
 71
     5
 42
5360.000000000003
  3
INABA_S40G
100
AcDbAlignedDimension
 13
2862.753461421256
 23
4663.112805903263
 33
0.0
 14
8222.753461421261
 24
4663.112805903258
 34
0.0
100
AcDbRotatedDimension
  0
DIMENSION
  5
136B6
330
747D
100
AcDbEntity
  8
寸法
 48
50.0
100
AcDbDimension
  2
*D6
 10
2912.753461421257
 20
4875.6543911615
 30
0.0
 11
5542.753461421256
 21
4875.6543911615
 31
0.0
 70
   160
  1
柱外寸法<>
 71
     5
 42
5260.000000000004
  3
INABA_S40G
100
AcDbAlignedDimension
 13
8172.75346142126
 23
4663.112805903259
 33
0.0
 14
2912.753461421257
 24
4663.112805903264
 34
0.0
100
AcDbRotatedDimension
  0
TEXT
  5
136B7
330
747D
100
AcDbEntity
  8
文字
 62
     7
 48
50.0
100
AcDbText
 10
13209.4053442172
 20
228.5435242569015
 30
0.0
 40
100.0
  1
○有効開口寸法 ： 1266×2025(mm)
  7
STYLE2
100
AcDbText
  0
TEXT
  5
136B8
330
747D
100
AcDbEntity
  8
文字
 62
     7
 48
50.0
100
AcDbText
 10
14505.34213575793
 20
483.8967129911411
 30
0.0
 40
160.0
  1
ＮＸＮ－１６０Ｈ
  7
STYLE2
100
AcDbText
  0
LWPOLYLINE
  5
136B9
330
747D
100
AcDbEntity
  8
部品1
100
AcDbPolyline
 90
        4
 70
     1
 43
0.0
 10
5161.018128307034
 20
1828.710439851414
 10
5161.018128307034
 20
1588.818118305881
 10
5924.488794535478
 20
1588.818118305881
 10
5924.488794535478
 20
1828.710439851414
  0
TEXT
  5
136BA
330
747D
100
AcDbEntity
  8
部品1
100
AcDbText
 10
5251.543532044991
 20
1635.81691063289
 30
0.0
 40
135.0
  1
正面図
  7
STYLE2
100
AcDbText
  0
LINE
  5
1376E
330
747D
100
AcDbEntity
  8
部品1
 48
50.0
100
AcDbLine
 10
3387.753461421257
 20
7313.054687805069
 30
0.0
 11
5487.753461421256
 21
7313.05468780507
 31
0.0
  0
LINE
  5
1376F
330
747D
100
AcDbEntity
  8
部品1
100
AcDbLine
 10
5514.753463664828
 20
10307.05469138224
 30
0.0
 11
5542.753463664826
 21
10307.05469138224
 31
0.0
  0
LINE
  5
13770
330
747D
100
AcDbEntity
  8
部品1
100
AcDbLine
 10
5570.753463664827
 20
10307.05469138224
 30
0.0
 11
5570.753463664827
 21
10335.05469138224
 31
0.0
  0
LINE
  5
13771
330
747D
100
AcDbEntity
  8
部品1
100
AcDbLine
 10
5514.753463664828
 20
10307.05469138224
 30
0.0
 11
5514.753463664828
 21
10335.05469138224
 31
0.0
  0
LINE
  5
13772
330
747D
100
AcDbEntity
  8
部品1
 48
50.0
100
AcDbLine
 10
5542.753463664826
 20
10307.05469138224
 30
0.0
 11
5514.753463664828
 21
10335.05469138224
 31
0.0
  0
LINE
  5
13773
330
747D
100
AcDbEntity
  8
破線
  6
HIDDEN
 48
10.0
100
AcDbLine
 10
7248.25346142126
 20
10280.05468780508
 30
0.0
 11
7248.25346142126
 21
7340.054687805073
 31
0.0
  0
LINE
  5
13774
330
747D
100
AcDbEntity
  8
破線
  6
HIDDEN
 48
10.0
100
AcDbLine
 10
7298.253461421257
 20
10280.05468780508
 30
0.0
 11
7298.253461421264
 21
7340.054687805076
 31
0.0
  0
LINE
  5
13775
330
747D
100
AcDbEntity
  8
破線
  6
HIDDEN
 48
10.0
100
AcDbLine
 10
6467.253461421259
 20
10280.05468780508
 30
0.0
 11
6467.253461421259
 21
7340.054687805076
 31
0.0
  0
LINE
  5
13776
330
747D
100
AcDbEntity
  8
破線
  6
HIDDEN
 48
10.0
100
AcDbLine
 10
6417.253461421259
 20
10280.05468780508
 30
0.0
 11
6417.253461421259
 21
7340.054687805073
 31
0.0
  0
LINE
  5
13777
330
747D
100
AcDbEntity
  8
破線
  6
HIDDEN
 48
10.0
100
AcDbLine
 10
4668.253461421253
 20
10280.05468780508
 30
0.0
 11
4668.253461421249
 21
7340.054687805073
 31
0.0
  0
LINE
  5
13778
330
747D
100
AcDbEntity
  8
破線
  6
HIDDEN
 48
10.0
100
AcDbLine
 10
4618.253461421253
 20
10280.05468780508
 30
0.0
 11
4618.253461421249
 21
7340.054687805076
 31
0.0
  0
LINE
  5
13779
330
747D
100
AcDbEntity
  8
部品1
100
AcDbLine
 10
8144.753461421254
 20
10280.05468780508
 30
0.0
 11
8172.753461421256
 21
10280.05468780508
 31
0.0
  0
LINE
  5
1377A
330
747D
100
AcDbEntity
  8
部品1
100
AcDbLine
 10
8117.753461421257
 20
10335.05468780507
 30
0.0
 11
8117.753461421257
 21
10307.05468780507
 31
0.0
  0
LINE
  5
1377B
330
747D
100
AcDbEntity
  8
部品1
 48
50.0
100
AcDbLine
 10
8144.753461421254
 20
10307.05468780507
 30
0.0
 11
8117.753461421257
 21
10280.05468780508
 31
0.0
  0
LINE
  5
1377C
330
747D
100
AcDbEntity
  8
部品1
100
AcDbLine
 10
7697.753461421256
 20
10335.05468780507
 30
0.0
 11
7697.753461421256
 21
10307.05468780507
 31
0.0
  0
LINE
  5
1377D
330
747D
100
AcDbEntity
  8
部品1
100
AcDbLine
 10
7277.753461421257
 20
10335.05468780507
 30
0.0
 11
7277.753461421257
 21
10307.05468780507
 31
0.0
  0
LINE
  5
1377E
330
747D
100
AcDbEntity
  8
部品1
100
AcDbLine
 10
7277.753461421257
 20
10307.05468780507
 30
0.0
 11
8144.753461421254
 21
10307.05468780507
 31
0.0
  0
LINE
  5
1377F
330
747D
100
AcDbEntity
  8
破線
  6
HIDDEN
 48
10.0
100
AcDbLine
 10
8094.253461421256
 20
10256.55468780508
 30
0.0
 11
7298.253461421257
 21
10256.55468780507
 31
0.0
  0
LINE
  5
13780
330
747D
100
AcDbEntity
  8
部品1
100
AcDbLine
 10
6857.753461421257
 20
10335.05468780507
 30
0.0
 11
6857.753461421257
 21
10307.05468780507
 31
0.0
  0
LINE
  5
13781
330
747D
100
AcDbEntity
  8
部品1
100
AcDbLine
 10
6437.753461421256
 20
10335.05468780507
 30
0.0
 11
6437.753461421256
 21
10307.05468780507
 31
0.0
  0
LINE
  5
13782
330
747D
100
AcDbEntity
  8
部品1
100
AcDbLine
 10
7080.253461421256
 20
10307.05468780507
 30
0.0
 11
7475.253461421257
 21
10307.05468780507
 31
0.0
  0
LINE
  5
13783
330
747D
100
AcDbEntity
  8
破線
  6
HIDDEN
 48
10.0
100
AcDbLine
 10
7248.25346142126
 20
10256.55468780507
 30
0.0
 11
6467.253461421259
 21
10256.55468780507
 31
0.0
  0
LINE
  5
13784
330
747D
100
AcDbEntity
  8
部品1
100
AcDbLine
 10
6017.753461421256
 20
10335.05468780507
 30
0.0
 11
6017.753461421256
 21
10307.05468780507
 31
0.0
  0
LINE
  5
13785
330
747D
100
AcDbEntity
  8
部品1
100
AcDbLine
 10
5597.753461421256
 20
10335.05468780507
 30
0.0
 11
5597.753461421256
 21
10307.05468780507
 31
0.0
  0
LINE
  5
13786
330
747D
100
AcDbEntity
  8
部品1
100
AcDbLine
 10
5597.753461421256
 20
10335.05468780507
 30
0.0
 11
5597.753461421256
 21
10307.05468780507
 31
0.0
  0
LINE
  5
13787
330
747D
100
AcDbEntity
  8
部品1
100
AcDbLine
 10
5514.753461421257
 20
10280.05468780508
 30
0.0
 11
5542.753461421256
 21
10280.05468780508
 31
0.0
  0
LINE
  5
13788
330
747D
100
AcDbEntity
  8
部品1
100
AcDbLine
 10
5487.753461421256
 20
10335.05468780507
 30
0.0
 11
5487.753461421256
 21
10307.05468780507
 31
0.0
  0
LINE
  5
13789
330
747D
100
AcDbEntity
  8
部品1
100
AcDbLine
 10
5570.753461421256
 20
10280.05468780508
 30
0.0
 11
5542.753461421256
 21
10280.05468780508
 31
0.0
  0
LINE
  5
1378A
330
747D
100
AcDbEntity
  8
部品1
 48
50.0
100
AcDbLine
 10
5514.753461421257
 20
10307.05468780507
 30
0.0
 11
5487.753461421256
 21
10280.05468780508
 31
0.0
  0
LINE
  5
1378B
330
747D
100
AcDbEntity
  8
部品1
 48
50.0
100
AcDbLine
 10
5570.753461421256
 20
10307.05468780507
 30
0.0
 11
5597.753461421256
 21
10280.05468780507
 31
0.0
  0
DIMENSION
  5
1378C
330
747D
100
AcDbEntity
  8
寸法
 48
50.0
100
AcDbDimension
  2
*D7
 10
5597.753461421256
 20
10709.76709782387
 30
0.0
 11
5542.753461421256
 21
10709.76709782387
 31
0.0
 70
   160
 71
     5
 42
110.0
  3
INABA_S40
100
AcDbAlignedDimension
 13
5487.753461421256
 23
10335.05468780507
 33
0.0
 14
5597.753461421256
 24
10335.05468780507
 34
0.0
100
AcDbRotatedDimension
1001
ACAD
1000
DSTYLE
1002
{
1070
   287
1070
     3
1070
    41
1040
0.5
1070
    44
1040
1.0
1070
   147
1040
0.8
1070
   271
1070
     2
1070
   272
1070
     2
1070
   289
1070
     3
1070
   340
1005
F706
1070
     6
1000
DOT
1070
     7
1000
DOT
1002
}
  0
LINE
  5
1378D
330
747D
100
AcDbEntity
  8
部品1
100
AcDbLine
 10
5487.753461421256
 20
10335.05468780507
 30
0.0
 11
5487.753461421256
 21
10307.05468780507
 31
0.0
  0
LINE
  5
1378E
330
747D
100
AcDbEntity
  8
部品1
100
AcDbLine
 10
5067.753461421256
 20
10335.05468780507
 30
0.0
 11
5067.753461421256
 21
10307.05468780507
 31
0.0
  0
LINE
  5
1378F
330
747D
100
AcDbEntity
  8
部品1
100
AcDbLine
 10
5514.753461421257
 20
10307.05468780507
 30
0.0
 11
5067.753461421256
 21
10307.05468780507
 31
0.0
  0
LINE
  5
13790
330
747D
100
AcDbEntity
  8
破線
  6
HIDDEN
 48
10.0
100
AcDbLine
 10
4668.253461421253
 20
10256.55468780508
 30
0.0
 11
5464.253461421257
 21
10256.55468780508
 31
0.0
  0
LINE
  5
13791
330
747D
100
AcDbEntity
  8
部品1
100
AcDbLine
 10
4647.753461421256
 20
10335.05468780507
 30
0.0
 11
4647.753461421256
 21
10307.05468780507
 31
0.0
  0
LINE
  5
13792
330
747D
100
AcDbEntity
  8
部品1
100
AcDbLine
 10
4227.753461421256
 20
10335.05468780507
 30
0.0
 11
4227.753461421256
 21
10307.05468780507
 31
0.0
  0
LINE
  5
13793
330
747D
100
AcDbEntity
  8
部品1
100
AcDbLine
 10
3807.753461421257
 20
10335.05468780507
 30
0.0
 11
3807.753461421257
 21
10307.05468780507
 31
0.0
  0
LINE
  5
13794
330
747D
100
AcDbEntity
  8
部品1
100
AcDbLine
 10
5067.753461421256
 20
10307.05468780507
 30
0.0
 11
3807.753461421257
 21
10307.05468780508
 31
0.0
  0
LINE
  5
13795
330
747D
100
AcDbEntity
  8
破線
  6
HIDDEN
 48
10.0
100
AcDbLine
 10
3837.253461421253
 20
10256.55468780507
 30
0.0
 11
4618.253461421256
 21
10256.55468780507
 31
0.0
  0
LINE
  5
13796
330
747D
100
AcDbEntity
  8
部品1
100
AcDbLine
 10
5542.753461421256
 20
10335.05468780507
 30
0.0
 11
8172.753461421256
 21
10335.05468780507
 31
0.0
  0
DIMENSION
  5
13797
330
747D
100
AcDbEntity
  8
寸法
 48
50.0
100
AcDbDimension
  2
*D8
 10
8117.753461421257
 20
10709.76709782387
 30
0.0
 11
6857.753461421257
 21
10801.77890884749
 31
0.0
 70
    32
  1
6X420=<>
 71
     5
 42
2520.0
  3
INABA_S40
100
AcDbAlignedDimension
 13
5597.753461421256
 23
10335.05468780507
 33
0.0
 14
8117.753461421257
 24
10335.05468780507
 34
0.0
100
AcDbRotatedDimension
1001
ACAD
1000
DSTYLE
1002
{
1070
   287
1070
     3
1070
    41
1040
0.5
1070
    44
1040
1.0
1070
   147
1040
0.8
1070
   271
1070
     2
1070
   272
1070
     2
1070
   289
1070
     3
1070
   340
1005
F706
1070
     6
1000
DOT
1070
     7
1000
DOT
1002
}
  0
LINE
  5
13798
330
747D
100
AcDbEntity
  8
部品1
100
AcDbLine
 10
5570.753461421256
 20
10307.05468780507
 30
0.0
 11
7277.753461421257
 21
10307.05468780507
 31
0.0
  0
LINE
  5
13799
330
747D
100
AcDbEntity
  8
部品1
100
AcDbLine
 10
8117.753461421257
 20
10280.05468780508
 30
0.0
 11
5597.753461421256
 21
10280.05468780507
 31
0.0
  0
LINE
  5
1379A
330
747D
100
AcDbEntity
  8
破線
  6
HIDDEN
 48
10.0
100
AcDbLine
 10
6417.253461421259
 20
10256.55468780507
 30
0.0
 11
5621.25346142126
 21
10256.55468780507
 31
0.0
  0
LINE
  5
1379B
330
747D
100
AcDbEntity
  8
部品1
100
AcDbLine
 10
8144.753461421254
 20
8600.054687805076
 30
0.0
 11
8172.753461421256
 21
8600.054687805076
 31
0.0
  0
LINE
  5
1379C
330
747D
100
AcDbEntity
  8
部品1
100
AcDbLine
 10
8144.753461421254
 20
8180.054687805078
 30
0.0
 11
8172.753461421256
 21
8180.054687805078
 31
0.0
  0
LINE
  5
1379D
330
747D
100
AcDbEntity
  8
部品1
100
AcDbLine
 10
8144.753461421254
 20
7760.054687805078
 30
0.0
 11
8172.753461421256
 21
7760.054687805078
 31
0.0
  0
LINE
  5
1379E
330
747D
100
AcDbEntity
  8
部品1
100
AcDbLine
 10
8144.753461421254
 20
7340.05468780507
 30
0.0
 11
8172.753461421256
 21
7340.05468780507
 31
0.0
  0
LINE
  5
1379F
330
747D
100
AcDbEntity
  8
部品1
100
AcDbLine
 10
8117.753461421257
 20
7285.054687805071
 30
0.0
 11
8117.753461421257
 21
7313.054687805072
 31
0.0
  0
LINE
  5
137A0
330
747D
100
AcDbEntity
  8
部品1
 48
50.0
100
AcDbLine
 10
8144.753461421254
 20
7313.054687805072
 30
0.0
 11
8117.753461421257
 21
7340.054687805073
 31
0.0
  0
LINE
  5
137A1
330
747D
100
AcDbEntity
  8
部品1
100
AcDbLine
 10
7697.753461421256
 20
7285.054687805071
 30
0.0
 11
7697.753461421256
 21
7313.054687805072
 31
0.0
  0
LINE
  5
137A2
330
747D
100
AcDbEntity
  8
部品1
100
AcDbLine
 10
7277.753461421257
 20
7285.054687805071
 30
0.0
 11
7277.753461421257
 21
7313.054687805072
 31
0.0
  0
LINE
  5
137A3
330
747D
100
AcDbEntity
  8
破線
  6
HIDDEN
 48
10.0
100
AcDbLine
 10
8094.253461421256
 20
7363.55468780507
 30
0.0
 11
7298.253461421264
 21
7363.554687805073
 31
0.0
  0
LINE
  5
137A4
330
747D
100
AcDbEntity
  8
部品1
100
AcDbLine
 10
6857.753461421257
 20
7285.054687805071
 30
0.0
 11
6857.753461421257
 21
7313.054687805072
 31
0.0
  0
LINE
  5
137A5
330
747D
100
AcDbEntity
  8
部品1
100
AcDbLine
 10
6437.753461421256
 20
7285.054687805071
 30
0.0
 11
6437.753461421256
 21
7313.054687805072
 31
0.0
  0
LINE
  5
137A6
330
747D
100
AcDbEntity
  8
破線
  6
HIDDEN
 48
10.0
100
AcDbLine
 10
7248.253461421263
 20
7363.554687805073
 30
0.0
 11
6467.253461421259
 21
7363.554687805076
 31
0.0
  0
LINE
  5
137A7
330
747D
100
AcDbEntity
  8
部品1
100
AcDbLine
 10
8144.753461421254
 20
10280.05468780508
 30
0.0
 11
8144.753461421254
 21
7313.054687805072
 31
0.0
  0
LINE
  5
137A8
330
747D
100
AcDbEntity
  8
部品1
100
AcDbLine
 10
6017.753461421256
 20
7285.054687805071
 30
0.0
 11
6017.753461421256
 21
7313.054687805072
 31
0.0
  0
LINE
  5
137A9
330
747D
100
AcDbEntity
  8
部品1
100
AcDbLine
 10
5514.753461421257
 20
7340.05468780507
 30
0.0
 11
5542.753461421256
 21
7340.05468780507
 31
0.0
  0
LINE
  5
137AA
330
747D
100
AcDbEntity
  8
部品1
100
AcDbLine
 10
5570.753461421256
 20
7340.05468780507
 30
0.0
 11
5542.753461421256
 21
7340.05468780507
 31
0.0
  0
LINE
  5
137AB
330
747D
100
AcDbEntity
  8
部品1
100
AcDbLine
 10
5597.753461421256
 20
7285.054687805071
 30
0.0
 11
5597.753461421256
 21
7313.054687805072
 31
0.0
  0
LINE
  5
137AC
330
747D
100
AcDbEntity
  8
部品1
100
AcDbLine
 10
5487.753461421256
 20
7285.054687805071
 30
0.0
 11
5487.753461421256
 21
7313.054687805072
 31
0.0
  0
LINE
  5
137AD
330
747D
100
AcDbEntity
  8
部品1
100
AcDbLine
 10
5597.753461421256
 20
7285.054687805076
 30
0.0
 11
5487.753461421256
 21
7285.054687805071
 31
0.0
  0
LINE
  5
137AE
330
747D
100
AcDbEntity
  8
部品1
 48
50.0
100
AcDbLine
 10
5514.753461421257
 20
7313.054687805077
 30
0.0
 11
5487.753461421256
 21
7340.05468780507
 31
0.0
  0
LINE
  5
137AF
330
747D
100
AcDbEntity
  8
部品1
 48
50.0
100
AcDbLine
 10
5570.753461421256
 20
7313.054687805072
 30
0.0
 11
5597.753461421256
 21
7340.054687805073
 31
0.0
  0
LINE
  5
137B0
330
747D
100
AcDbEntity
  8
部品1
100
AcDbLine
 10
5487.753461421256
 20
7285.054687805071
 30
0.0
 11
5487.753461421256
 21
7313.054687805072
 31
0.0
  0
LINE
  5
137B1
330
747D
100
AcDbEntity
  8
部品1
100
AcDbLine
 10
5487.753461421256
 20
7285.054687805071
 30
0.0
 11
5487.753461421256
 21
7313.054687805072
 31
0.0
  0
LINE
  5
137B2
330
747D
100
AcDbEntity
  8
破線
  6
HIDDEN
 48
10.0
100
AcDbLine
 10
4668.253461421249
 20
7363.554687805076
 30
0.0
 11
5464.253461421257
 21
7363.55468780507
 31
0.0
  0
LINE
  5
137B3
330
747D
100
AcDbEntity
  8
破線
  6
HIDDEN
 48
10.0
100
AcDbLine
 10
3837.253461421249
 20
7363.554687805073
 30
0.0
 11
4618.253461421249
 21
7363.55468780507
 31
0.0
  0
LINE
  5
137B5
330
747D
100
AcDbEntity
  8
部品1
100
AcDbLine
 10
8144.753461421254
 20
7313.054687805072
 30
0.0
 11
5570.753461421256
 21
7313.054687805077
 31
0.0
  0
LINE
  5
137B6
330
747D
100
AcDbEntity
  8
部品1
100
AcDbLine
 10
8117.753461421257
 20
7340.054687805073
 30
0.0
 11
5597.753461421256
 21
7340.054687805076
 31
0.0
  0
LINE
  5
137B7
330
747D
100
AcDbEntity
  8
部品1
100
AcDbLine
 10
8172.753461421256
 20
7285.054687805073
 30
0.0
 11
5597.753461421256
 21
7285.054687805073
 31
0.0
  0
LINE
  5
137B8
330
747D
100
AcDbEntity
  8
部品1
100
AcDbLine
 10
5597.753461421256
 20
8600.054687805075
 30
0.0
 11
8117.753461421257
 21
8600.054687805075
 31
0.0
  0
LINE
  5
137B9
330
747D
100
AcDbEntity
  8
部品1
100
AcDbLine
 10
5597.753461421256
 20
8180.054687805078
 30
0.0
 11
8117.753461421257
 21
8180.054687805078
 31
0.0
  0
LINE
  5
137BA
330
747D
100
AcDbEntity
  8
部品1
100
AcDbLine
 10
5597.753461421256
 20
7760.054687805078
 30
0.0
 11
8117.753461421257
 21
7760.054687805078
 31
0.0
  0
LINE
  5
137BB
330
747D
100
AcDbEntity
  8
破線
  6
HIDDEN
 48
10.0
100
AcDbLine
 10
6417.253461421259
 20
7363.554687805076
 30
0.0
 11
5621.25346142126
 21
7363.554687805076
 31
0.0
  0
LINE
  5
137BC
330
747D
100
AcDbEntity
  8
部品1
100
AcDbLine
 10
8144.753461421254
 20
10307.05468780507
 30
0.0
 11
8144.753461421254
 21
8818.054687805076
 31
0.0
  0
LINE
  5
137BD
330
747D
100
AcDbEntity
  8
部品1
100
AcDbLine
 10
8172.753461421256
 20
10335.05468780507
 30
0.0
 11
8172.753461421256
 21
7285.054687805073
 31
0.0
  0
LINE
  5
137BE
330
747D
100
AcDbEntity
  8
破線
  6
HIDDEN
 48
10.0
100
AcDbLine
 10
8094.253461421256
 20
10256.55468780508
 30
0.0
 11
8094.253461421256
 21
7363.55468780507
 31
0.0
  0
LINE
  5
137BF
330
747D
100
AcDbEntity
  8
部品1
100
AcDbLine
 10
5514.753461421257
 20
7313.054687805077
 30
0.0
 11
5514.753461421257
 21
10307.05468780507
 31
0.0
  0
LINE
  5
137C0
330
747D
100
AcDbEntity
  8
部品1
100
AcDbLine
 10
5487.753461421256
 20
7340.05468780507
 30
0.0
 11
5487.753461421252
 21
10280.05468780508
 31
0.0
  0
LINE
  5
137C1
330
747D
100
AcDbEntity
  8
破線
  6
HIDDEN
 48
10.0
100
AcDbLine
 10
5464.253461421257
 20
7363.55468780507
 30
0.0
 11
5464.253461421253
 21
10256.55468780508
 31
0.0
  0
LINE
  5
137C2
330
747D
100
AcDbEntity
  8
部品1
100
AcDbLine
 10
5570.753461421256
 20
7313.054687805072
 30
0.0
 11
5570.753461421256
 21
10307.05468780508
 31
0.0
  0
LINE
  5
137C3
330
747D
100
AcDbEntity
  8
破線
  6
HIDDEN
 48
10.0
100
AcDbLine
 10
5621.253461421257
 20
7363.554687805076
 30
0.0
 11
5621.253461421257
 21
10256.55468780507
 31
0.0
  0
LINE
  5
137C4
330
747D
100
AcDbEntity
  8
部品1
100
AcDbLine
 10
5597.753461421256
 20
7340.054687805073
 30
0.0
 11
5597.753461421256
 21
10280.05468780507
 31
0.0
  0
LINE
  5
137C5
330
747D
100
AcDbEntity
  8
部品1
100
AcDbLine
 10
8117.753461421257
 20
10280.05468780508
 30
0.0
 11
8117.753461421257
 21
7340.054687805073
 31
0.0
  0
LINE
  5
137C6
330
747D
100
AcDbEntity
  8
部品1
100
AcDbLine
 10
3387.753461421257
 20
10335.05468780507
 30
0.0
 11
3387.753461421257
 21
10307.05468780507
 31
0.0
  0
LINE
  5
137C7
330
747D
100
AcDbEntity
  8
部品1
100
AcDbLine
 10
2940.753461421257
 20
10280.05468780508
 30
0.0
 11
2912.753461421257
 21
10280.05468780508
 31
0.0
  0
LINE
  5
137C8
330
747D
100
AcDbEntity
  8
部品1
100
AcDbLine
 10
2967.753461421257
 20
10335.05468780507
 30
0.0
 11
2967.753461421257
 21
10307.05468780507
 31
0.0
  0
LINE
  5
137C9
330
747D
100
AcDbEntity
  8
部品1
 48
50.0
100
AcDbLine
 10
2940.753461421257
 20
10307.05468780507
 30
0.0
 11
2967.753461421253
 21
10280.05468780507
 31
0.0
  0
DIMENSION
  5
137CA
330
747D
100
AcDbEntity
  8
寸法
 48
50.0
100
AcDbDimension
  2
*D9
 10
2967.753461421257
 20
10709.76709782387
 30
0.0
 11
2518.586794754592
 21
10709.76709782387
 31
0.0
 70
   160
 71
     5
 42
55.0
  3
INABA_S40
100
AcDbAlignedDimension
 13
2912.753461421257
 23
10335.05468780507
 33
0.0
 14
2967.753461421257
 24
10335.05468780507
 34
0.0
100
AcDbRotatedDimension
1001
ACAD
1000
DSTYLE
1002
{
1070
   287
1070
     3
1070
    41
1040
0.5
1070
    44
1040
1.0
1070
   147
1040
0.8
1070
   271
1070
     2
1070
   272
1070
     2
1070
   289
1070
     3
1070
   340
1005
F706
1070
     6
1000
DOT
1070
     7
1000
DOT
1002
}
  0
LINE
  5
137CB
330
747D
100
AcDbEntity
  8
破線
  6
HIDDEN
 48
10.0
100
AcDbLine
 10
2991.253461421253
 20
10256.55468780507
 30
0.0
 11
3787.253461421256
 21
10256.55468780507
 31
0.0
  0
LINE
  5
137CC
330
747D
100
AcDbEntity
  8
部品1
100
AcDbLine
 10
2940.753461421257
 20
8600.054687805076
 30
0.0
 11
2912.753461421257
 21
8600.054687805076
 31
0.0
  0
LINE
  5
137CD
330
747D
100
AcDbEntity
  8
部品1
100
AcDbLine
 10
2940.753461421257
 20
8180.054687805078
 30
0.0
 11
2912.753461421257
 21
8180.054687805078
 31
0.0
  0
LINE
  5
137CE
330
747D
100
AcDbEntity
  8
部品1
100
AcDbLine
 10
2940.753461421257
 20
7760.054687805078
 30
0.0
 11
2912.753461421257
 21
7760.054687805078
 31
0.0
  0
LINE
  5
137CF
330
747D
100
AcDbEntity
  8
部品1
100
AcDbLine
 10
3387.753461421257
 20
7285.054687805071
 30
0.0
 11
3387.753461421257
 21
7313.054687805072
 31
0.0
  0
LINE
  5
137D0
330
747D
100
AcDbEntity
  8
部品1
100
AcDbLine
 10
3387.753461421257
 20
7285.054687805079
 30
0.0
 11
3387.753461421257
 21
7313.054687805081
 31
0.0
  0
LINE
  5
137D1
330
747D
100
AcDbEntity
  8
部品1
100
AcDbLine
 10
2940.753461421257
 20
7340.05468780507
 30
0.0
 11
2912.753461421257
 21
7340.05468780507
 31
0.0
  0
LINE
  5
137D2
330
747D
100
AcDbEntity
  8
部品1
100
AcDbLine
 10
2967.753461421257
 20
7285.054687805071
 30
0.0
 11
2967.753461421257
 21
7313.054687805072
 31
0.0
  0
LINE
  5
137D3
330
747D
100
AcDbEntity
  8
部品1
 48
50.0
100
AcDbLine
 10
2940.753461421257
 20
7313.054687805072
 30
0.0
 11
2967.753461421253
 21
7340.054687805076
 31
0.0
  0
LINE
  5
137D4
330
747D
100
AcDbEntity
  8
部品1
100
AcDbLine
 10
2912.753461421257
 20
7285.054687805073
 30
0.0
 11
3387.753461421257
 21
7285.054687805071
 31
0.0
  0
LINE
  5
137D5
330
747D
100
AcDbEntity
  8
破線
  6
HIDDEN
 48
10.0
100
AcDbLine
 10
2991.253461421253
 20
7363.554687805076
 30
0.0
 11
3787.253461421249
 21
7363.554687805073
 31
0.0
  0
LINE
  5
137D6
330
747D
100
AcDbEntity
  8
部品1
100
AcDbLine
 10
2940.753461421257
 20
10280.05468780508
 30
0.0
 11
2940.753461421257
 21
7313.054687805072
 31
0.0
  0
LINE
  5
137D7
330
747D
100
AcDbEntity
  8
部品1
100
AcDbLine
 10
2940.753461421257
 20
10307.05468780507
 30
0.0
 11
2940.753461421257
 21
8818.054687805076
 31
0.0
  0
LINE
  5
137D8
330
747D
100
AcDbEntity
  8
部品1
100
AcDbLine
 10
2912.753461421257
 20
10335.05468780507
 30
0.0
 11
2912.753461421257
 21
7285.054687805073
 31
0.0
  0
LINE
  5
137D9
330
747D
100
AcDbEntity
  8
破線
  6
HIDDEN
 48
10.0
100
AcDbLine
 10
2991.253461421264
 20
10256.55468780507
 30
0.0
 11
2991.253461421253
 21
7363.554687805076
 31
0.0
  0
LINE
  5
137DA
330
747D
100
AcDbEntity
  8
部品1
100
AcDbLine
 10
2967.753461421264
 20
10280.05468780507
 30
0.0
 11
2967.753461421253
 21
7340.054687805076
 31
0.0
  0
LINE
  5
137DB
330
747D
100
AcDbEntity
  8
破線
  6
HIDDEN
 48
10.0
100
AcDbLine
 10
3787.253461421256
 20
10280.05468780508
 30
0.0
 11
3787.253461421249
 21
7340.054687805076
 31
0.0
  0
LINE
  5
137DC
330
747D
100
AcDbEntity
  8
破線
  6
HIDDEN
 48
10.0
100
AcDbLine
 10
3837.253461421253
 20
10280.05468780508
 30
0.0
 11
3837.253461421249
 21
7340.054687805073
 31
0.0
  0
DIMENSION
  5
137DE
330
747D
100
AcDbEntity
  8
寸法
 48
50.0
100
AcDbDimension
  2
*D10
 10
5487.753461421256
 20
10709.76709782387
 30
0.0
 11
4227.753461421256
 21
10801.77890884749
 31
0.0
 70
    32
  1
6X420=<>
 71
     5
 42
2520.0
  3
INABA_S40
100
AcDbAlignedDimension
 13
2967.753461421257
 23
10335.05468780507
 33
0.0
 14
5487.753461421256
 24
10335.05468780507
 34
0.0
100
AcDbRotatedDimension
1001
ACAD
1000
DSTYLE
1002
{
1070
   287
1070
     3
1070
    41
1040
0.5
1070
    44
1040
1.0
1070
   147
1040
0.8
1070
   271
1070
     2
1070
   272
1070
     2
1070
   289
1070
     3
1070
   340
1005
F706
1070
     6
1000
DOT
1070
     7
1000
DOT
1002
}
  0
DIMENSION
  5
137DF
330
747D
100
AcDbEntity
  8
寸法
 48
50.0
100
AcDbDimension
  2
*D11
 10
8172.753461421256
 20
11009.76709782387
 30
0.0
 11
5542.753461421256
 21
11101.77890884749
 31
0.0
 70
    32
 71
     5
 42
5260.0
  3
INABA_S40
100
AcDbAlignedDimension
 13
2912.753461421257
 23
10335.05468780507
 33
0.0
 14
8172.753461421256
 24
10335.05468780507
 34
0.0
100
AcDbRotatedDimension
1001
ACAD
1000
DSTYLE
1002
{
1070
   287
1070
     3
1070
    41
1040
0.5
1070
    44
1040
1.0
1070
   147
1040
0.8
1070
   271
1070
     2
1070
   272
1070
     2
1070
   289
1070
     3
1070
   340
1005
F706
1070
     6
1000
DOT
1070
     7
1000
DOT
1002
}
  0
LINE
  5
137E0
330
747D
100
AcDbEntity
  8
部品1
100
AcDbLine
 10
2940.753461421257
 20
7313.054687805072
 30
0.0
 11
5514.753461421257
 21
7313.054687805077
 31
0.0
  0
LINE
  5
137E1
330
747D
100
AcDbEntity
  8
部品1
100
AcDbLine
 10
2967.753461421253
 20
7340.054687805076
 30
0.0
 11
5487.753461421256
 21
7340.05468780507
 31
0.0
  0
LINE
  5
137E2
330
747D
100
AcDbEntity
  8
部品1
100
AcDbLine
 10
5542.753461421256
 20
10335.05468780507
 30
0.0
 11
2912.753461421257
 21
10335.05468780507
 31
0.0
  0
LINE
  5
137E3
330
747D
100
AcDbEntity
  8
部品1
100
AcDbLine
 10
5487.753461421256
 20
8600.054687805075
 30
0.0
 11
2967.753461421257
 21
8600.054687805071
 31
0.0
  0
LINE
  5
137E4
330
747D
100
AcDbEntity
  8
部品1
100
AcDbLine
 10
5487.753461421256
 20
8180.054687805078
 30
0.0
 11
2967.753461421257
 21
8180.054687805073
 31
0.0
  0
LINE
  5
137E5
330
747D
100
AcDbEntity
  8
部品1
100
AcDbLine
 10
5487.753461421256
 20
7760.054687805078
 30
0.0
 11
2967.753461421257
 21
7760.05468780507
 31
0.0
  0
LINE
  5
137E6
330
747D
100
AcDbEntity
  8
部品1
100
AcDbLine
 10
3807.753461421257
 20
10307.05468780508
 30
0.0
 11
2940.753461421257
 21
10307.05468780507
 31
0.0
  0
LINE
  5
137E7
330
747D
100
AcDbEntity
  8
部品1
100
AcDbLine
 10
2967.753461421253
 20
10280.05468780507
 30
0.0
 11
5487.753461421256
 21
10280.05468780508
 31
0.0
  0
LINE
  5
137E8
330
747D
100
AcDbEntity
  8
部品1
100
AcDbLine
 10
8172.753461421256
 20
4522.112805903261
 30
0.0
 11
8172.753461421256
 21
2188.112805903255
 31
0.0
  0
LINE
  5
137E9
330
747D
100
AcDbEntity
  8
部品1
100
AcDbLine
 10
8117.753461421257
 20
4428.112805903256
 30
0.0
 11
8117.753461421255
 21
2338.112805903254
 31
0.0
  0
LINE
  5
137EA
330
747D
100
AcDbEntity
  8
部品1
100
AcDbLine
 10
7697.753461421256
 20
4428.112805903257
 30
0.0
 11
7697.753461421242
 21
2338.112805903254
 31
0.0
  0
LINE
  5
137EB
330
747D
100
AcDbEntity
  8
部品1
100
AcDbLine
 10
6437.753461421256
 20
4428.112805903256
 30
0.0
 11
6437.753461421256
 21
2338.112805903254
 31
0.0
  0
LINE
  5
137EC
330
747D
100
AcDbEntity
  8
部品1
100
AcDbLine
 10
6857.753461421257
 20
4428.112805903256
 30
0.0
 11
6857.753461421257
 21
2338.112805903254
 31
0.0
  0
LINE
  5
137ED
330
747D
100
AcDbEntity
  8
部品1
100
AcDbLine
 10
6857.753461421271
 20
4428.112805903256
 30
0.0
 11
6857.753461421268
 21
2338.112805903254
 31
0.0
  0
LINE
  5
137EE
330
747D
100
AcDbEntity
  8
部品1
100
AcDbLine
 10
7277.753461421271
 20
4428.112805903256
 30
0.0
 11
7277.753461421267
 21
2338.112805903254
 31
0.0
  0
LINE
  5
137EF
330
747D
100
AcDbEntity
  8
部品1
100
AcDbLine
 10
5542.753461421256
 20
4428.112805903256
 30
0.0
 11
5542.753461421256
 21
4522.11280590326
 31
0.0
  0
LINE
  5
137F0
330
747D
100
AcDbEntity
  8
部品1
100
AcDbLine
 10
5542.753461421256
 20
2338.112805903254
 30
0.0
 11
5542.753461421256
 21
2288.112805903256
 31
0.0
  0
LINE
  5
137F1
330
747D
100
AcDbEntity
  8
部品1
 48
50.0
100
AcDbLine
 10
5542.753461421256
 20
2338.112805903254
 30
0.0
 11
5514.753461421257
 21
2338.112805903254
 31
0.0
  0
LINE
  5
137F2
330
747D
100
AcDbEntity
  8
部品1
100
AcDbLine
 10
6017.753461421256
 20
4428.112805903256
 30
0.0
 11
6017.753461421256
 21
2338.112805903254
 31
0.0
  0
LINE
  5
137F3
330
747D
100
AcDbEntity
  8
部品1
100
AcDbLine
 10
5597.753461421256
 20
4428.112805903256
 30
0.0
 11
5597.753461421256
 21
2338.112805903254
 31
0.0
  0
LINE
  5
137F4
330
747D
100
AcDbEntity
  8
部品1
 48
50.0
100
AcDbLine
 10
5542.753461421256
 20
2338.112805903254
 30
0.0
 11
8172.753461421256
 21
2338.112805903254
 31
0.0
  0
LINE
  5
137F5
330
747D
100
AcDbEntity
  8
部品1
100
AcDbLine
 10
5542.753461421256
 20
2288.112805903256
 30
0.0
 11
8172.753461421256
 21
2288.112805903256
 31
0.0
  0
LINE
  5
137F6
330
747D
100
AcDbEntity
  8
部品1
 48
50.0
100
AcDbLine
 10
3360.753461421256
 20
2338.112805903254
 30
0.0
 11
2912.753461421257
 21
2338.112805903254
 31
0.0
  0
LINE
  5
137F7
330
747D
100
AcDbEntity
  8
部品1
100
AcDbLine
 10
1997.338812373702
 20
2188.112805903255
 30
0.0
 11
1937.338812373702
 21
2292.035854357388
 31
0.0
  0
LINE
  5
137F8
330
747D
100
AcDbEntity
  8
部品1
100
AcDbLine
 10
2057.338812373702
 20
2292.035854357388
 30
0.0
 11
1997.338812373702
 21
2188.112805903255
 31
0.0
  0
LINE
  5
137F9
330
747D
100
AcDbEntity
  8
部品1
100
AcDbLine
 10
1937.338812373702
 20
2292.035854357388
 30
0.0
 11
2057.338812373702
 21
2292.035854357388
 31
0.0
  0
TEXT
  5
137FA
330
747D
100
AcDbEntity
  8
部品1
100
AcDbText
 10
2079.822766073521
 20
2202.954510774245
 30
0.0
 40
125.0
  1
G.L
  7
MSGOTHIC
100
AcDbText
  0
LINE
  5
137FB
330
747D
100
AcDbEntity
  8
部品1
100
AcDbLine
 10
2912.753461421257
 20
4522.112805903261
 30
0.0
 11
2912.753461421257
 21
2188.112805903255
 31
0.0
  0
LINE
  5
137FC
330
747D
100
AcDbEntity
  8
部品1
100
AcDbLine
 10
2967.753461421257
 20
4428.112805903256
 30
0.0
 11
2967.753461421257
 21
2338.112805903254
 31
0.0
  0
LINE
  5
137FD
330
747D
100
AcDbEntity
  8
部品1
100
AcDbLine
 10
2912.753461421257
 20
2288.112805903256
 30
0.0
 11
5542.753461421256
 21
2288.112805903256
 31
0.0
  0
LINE
  5
137FE
330
747D
100
AcDbEntity
  8
部品1
100
AcDbLine
 10
2912.753461421257
 20
4428.112805903256
 30
0.0
 11
8172.753461421256
 21
4428.112805903256
 31
0.0
  0
LINE
  5
137FF
330
747D
100
AcDbEntity
  8
Ｇ_Ｌ
 48
50.0
100
AcDbLine
 10
1648.886074195114
 20
2188.112805903255
 30
0.0
 11
15190.85437986741
 21
2188.112805903255
 31
0.0
  0
DIMENSION
  5
13800
330
747D
100
AcDbEntity
  8
寸法
 48
50.0
100
AcDbDimension
  2
*D12
 10
8943.500578465611
 20
10280.05468780508
 30
0.0
 11
8943.500578465609
 21
10729.22135447174
 31
0.0
 70
   160
 71
     5
 42
54.99999999999636
  3
INABA_S40
100
AcDbAlignedDimension
 13
8172.753461421256
 23
10335.05468780507
 33
0.0
 14
8172.753461421256
 24
10280.05468780508
 34
0.0
 50
90.0
100
AcDbRotatedDimension
1001
ACAD
1000
DSTYLE
1002
{
1070
   287
1070
     3
1070
    41
1040
0.5
1070
    44
1040
1.0
1070
   147
1040
0.8
1070
   271
1070
     2
1070
   272
1070
     2
1070
   289
1070
     3
1070
   340
1005
F706
1070
     6
1000
DOT
1070
     7
1000
DOT
1002
}
  0
DIMENSION
  5
13801
330
747D
100
AcDbEntity
  8
寸法
 48
50.0
100
AcDbDimension
  2
*D13
 10
8943.500578465609
 20
7340.05468780507
 30
0.0
 11
8851.488767441987
 21
8810.054687805076
 31
0.0
 70
    32
  1
7X420=<>
 71
     5
 42
2940.000000000008
  3
INABA_S40
100
AcDbAlignedDimension
 13
8172.753461421256
 23
10280.05468780508
 33
0.0
 14
8172.753461421256
 24
7340.05468780507
 34
0.0
 50
90.0
100
AcDbRotatedDimension
1001
ACAD
1000
DSTYLE
1002
{
1070
   287
1070
     3
1070
    41
1040
0.5
1070
    44
1040
1.0
1070
   147
1040
0.8
1070
   271
1070
     2
1070
   272
1070
     2
1070
   289
1070
     3
1070
   340
1005
F706
1070
     6
1000
DOT
1070
     7
1000
DOT
1002
}
  0
DIMENSION
  5
13802
330
747D
100
AcDbEntity
  8
寸法
 48
50.0
100
AcDbDimension
  2
*D14
 10
8943.500578465611
 20
7285.054687805073
 30
0.0
 11
8943.500578465609
 21
6890.888021138408
 31
0.0
 70
   160
 71
     5
 42
54.99999999999727
  3
INABA_S40
100
AcDbAlignedDimension
 13
8172.753461421256
 23
7340.05468780507
 33
0.0
 14
8172.753461421256
 24
7285.054687805073
 34
0.0
 50
90.0
100
AcDbRotatedDimension
1001
ACAD
1000
DSTYLE
1002
{
1070
   287
1070
     3
1070
    41
1040
0.5
1070
    44
1040
1.0
1070
   147
1040
0.8
1070
   271
1070
     2
1070
   272
1070
     2
1070
   289
1070
     3
1070
   340
1005
F706
1070
     6
1000
DOT
1070
     7
1000
DOT
1002
}
  0
DIMENSION
  5
13803
330
747D
100
AcDbEntity
  8
寸法
 48
50.0
100
AcDbDimension
  2
*D15
 10
9243.50057846561
 20
7285.054687805073
 30
0.0
 11
9151.500578465608
 21
8810.054687805076
 31
0.0
 70
    32
 71
     5
 42
3050.000000000001
  3
INABA_S40
100
AcDbAlignedDimension
 13
8172.753461421256
 23
10335.05468780507
 33
0.0
 14
8172.753461421256
 24
7285.054687805073
 34
0.0
 50
90.0
100
AcDbRotatedDimension
1001
ACAD
1000
DSTYLE
1002
{
1070
   287
1070
     3
1070
    41
1040
0.5
1070
    44
1040
1.0
1070
   147
1040
0.8
1070
   271
1070
     2
1070
   272
1070
     2
1070
   289
1070
     3
1070
   340
1005
F706
1070
     6
1000
DOT
1070
     7
1000
DOT
1002
}
  0
DIMENSION
  5
13804
330
747D
100
AcDbEntity
  8
寸法
 48
50.0
100
AcDbDimension
  2
*D16
 10
8172.753461421256
 20
10709.76709782387
 30
0.0
 11
8566.920128087925
 21
10709.76709782387
 31
0.0
 70
   160
 71
     5
 42
55.0
  3
INABA_S40
100
AcDbAlignedDimension
 13
8117.753461421257
 23
10335.05468780507
 33
0.0
 14
8172.753461421256
 24
10335.05468780507
 34
0.0
100
AcDbRotatedDimension
1001
ACAD
1000
DSTYLE
1002
{
1070
   287
1070
     3
1070
    41
1040
0.5
1070
    44
1040
1.0
1070
   147
1040
0.8
1070
   271
1070
     2
1070
   272
1070
     2
1070
   289
1070
     3
1070
   340
1005
F706
1070
     6
1000
DOT
1070
     7
1000
DOT
1002
}
  0
LINE
  5
13805
330
747D
100
AcDbEntity
  8
部品1
100
AcDbLine
 10
5487.753461421256
 20
9020.054687805076
 30
0.0
 11
2967.753461421257
 21
9020.054687805071
 31
0.0
  0
LINE
  5
13806
330
747D
100
AcDbEntity
  8
部品1
100
AcDbLine
 10
2940.753461421257
 20
9020.054687805076
 30
0.0
 11
2912.753461421257
 21
9020.054687805076
 31
0.0
  0
LINE
  5
13807
330
747D
100
AcDbEntity
  8
部品1
100
AcDbLine
 10
5597.753461421256
 20
9020.054687805076
 30
0.0
 11
8117.753461421257
 21
9020.054687805076
 31
0.0
  0
LINE
  5
13808
330
747D
100
AcDbEntity
  8
部品1
100
AcDbLine
 10
8144.753461421254
 20
9020.054687805076
 30
0.0
 11
8172.753461421256
 21
9020.054687805076
 31
0.0
  0
LINE
  5
13809
330
747D
100
AcDbEntity
  8
細線
 48
50.0
100
AcDbLine
 10
3045.25346142126
 20
4428.112805903256
 30
0.0
 11
3045.253461421264
 21
2338.112805903256
 31
0.0
  0
LINE
  5
1380A
330
747D
100
AcDbEntity
  8
細線
 48
50.0
100
AcDbLine
 10
3030.25346142126
 20
4428.112805903256
 30
0.0
 11
3030.253461421264
 21
2338.112805903256
 31
0.0
  0
LINE
  5
1380B
330
747D
100
AcDbEntity
  8
細線
 48
50.0
100
AcDbLine
 10
3170.25346142126
 20
4428.112805903256
 30
0.0
 11
3170.253461421264
 21
2338.112805903256
 31
0.0
  0
LINE
  5
1380C
330
747D
100
AcDbEntity
  8
細線
 48
50.0
100
AcDbLine
 10
3185.25346142126
 20
4428.112805903256
 30
0.0
 11
3185.253461421264
 21
2338.112805903256
 31
0.0
  0
LINE
  5
1380D
330
747D
100
AcDbEntity
  8
細線
 48
50.0
100
AcDbLine
 10
3325.25346142126
 20
4428.112805903256
 30
0.0
 11
3325.253461421264
 21
2338.112805903256
 31
0.0
  0
LINE
  5
1380E
330
747D
100
AcDbEntity
  8
細線
 48
50.0
100
AcDbLine
 10
3310.25346142126
 20
4428.112805903256
 30
0.0
 11
3310.253461421264
 21
2338.112805903256
 31
0.0
  0
LINE
  5
13D1B
330
747D
100
AcDbEntity
  8
部品1
100
AcDbLine
 10
5487.753461421256
 20
9860.054687805074
 30
0.0
 11
2967.753461421257
 21
9860.054687805073
 31
0.0
  0
LINE
  5
13D1C
330
747D
100
AcDbEntity
  8
部品1
100
AcDbLine
 10
2940.753461421257
 20
9860.054687805078
 30
0.0
 11
2912.753461421257
 21
9860.054687805078
 31
0.0
  0
LINE
  5
13D1D
330
747D
100
AcDbEntity
  8
部品1
100
AcDbLine
 10
5597.753461421256
 20
9860.054687805074
 30
0.0
 11
8117.753461421257
 21
9860.054687805074
 31
0.0
  0
LINE
  5
13D1E
330
747D
100
AcDbEntity
  8
部品1
100
AcDbLine
 10
8144.753461421254
 20
9860.054687805078
 30
0.0
 11
8172.753461421256
 21
9860.054687805078
 31
0.0
  0
LINE
  5
13F39
330
747D
100
AcDbEntity
  8
部品1
100
AcDbLine
 10
11209.10786956492
 20
2288.112805903255
 30
0.0
 11
11132.10786956492
 21
2288.112805903255
 31
0.0
  0
LINE
  5
13F3A
330
747D
100
AcDbEntity
  8
部品1
100
AcDbLine
 10
11132.10786956492
 20
4413.799910811657
 30
0.0
 11
11209.10786956492
 21
4428.112805903254
 31
0.0
  0
LINE
  5
13F3B
330
747D
100
AcDbEntity
  8
部品1
100
AcDbLine
 10
11132.10786956492
 20
4413.799910811657
 30
0.0
 11
11132.10786956492
 21
2188.112805903255
 31
0.0
  0
DIMENSION
  5
13F3C
330
747D
100
AcDbEntity
  8
寸法
 48
50.0
100
AcDbDimension
  2
*D17
 10
10664.19922816766
 20
2354.112805903255
 30
0.0
 11
10572.18741714404
 21
3366.612805903257
 31
0.0
 70
    32
  1
有効開口部高サ<>
 71
     5
 42
2025.0
  3
INABA_S40
100
AcDbAlignedDimension
 13
11132.10786956492
 23
4379.112805903254
 33
0.0
 14
11132.10786956492
 24
2354.112805903255
 34
0.0
 50
90.0
100
AcDbRotatedDimension
1001
ACAD
1000
DSTYLE
1002
{
1070
    41
1040
0.5
1070
    44
1040
1.0
1070
   147
1040
0.8
1070
   271
1070
     2
1070
   272
1070
     2
1070
   289
1070
     3
1070
   340
1005
F706
1070
   343
1005
F744
1070
   344
1005
F744
1002
}
  0
TEXT
  5
13F3D
330
747D
100
AcDbEntity
  8
部品1
100
AcDbText
 10
12451.81863787431
 20
1669.858311332602
 30
0.0
 40
135.0
  1
側面図
  7
STYLE2
100
AcDbText
  0
LWPOLYLINE
  5
13F3E
330
747D
100
AcDbEntity
  8
部品1
100
AcDbPolyline
 90
        4
 70
     1
 43
0.0
 10
12362.3725364507
 20
1862.751840551126
 10
12362.3725364507
 20
1622.859519005594
 10
13125.84320267914
 20
1622.859519005594
 10
13125.84320267914
 20
1862.751840551126
  0
DIMENSION
  5
13F3F
330
747D
100
AcDbEntity
  8
寸法
100
AcDbDimension
  2
*D18
 10
10365.35774038166
 20
2338.11280590325
 30
0.0
 11
10265.34592935804
 21
3383.112805903252
 31
0.0
 70
    32
 71
     5
 42
2090.000000000001
  3
INABA_S40G
100
AcDbAlignedDimension
 13
11209.10786956492
 23
4428.112805903251
 33
0.0
 14
11209.10786956492
 24
2338.11280590325
 34
0.0
 50
90.0
100
AcDbRotatedDimension
1001
ACAD
1000
DSTYLE
1002
{
1070
   174
1070
     0
1070
   272
1070
     1
1070
   288
1070
     0
1070
   341
1005
0
1002
}
  0
DIMENSION
  5
13F40
330
747D
100
AcDbEntity
  8
寸法
100
AcDbDimension
  2
*D19
 10
10065.35774038166
 20
4663.112805903256
 30
0.0
 11
9965.34592935804
 21
3475.612805903254
 31
0.0
 70
    32
 71
     5
 42
2375.000000000005
  3
INABA_S40G
100
AcDbAlignedDimension
 13
11132.10786956492
 23
2288.11280590325
 33
0.0
 14
11149.10786956492
 24
4663.112805903255
 34
0.0
 50
90.0
100
AcDbRotatedDimension
1001
ACAD
1000
DSTYLE
1002
{
1070
   174
1070
     0
1070
   272
1070
     1
1070
   288
1070
     0
1070
   341
1005
0
1002
}
  0
DIMENSION
  5
13F41
330
747D
100
AcDbEntity
  8
寸法
100
AcDbDimension
  2
*D20
 10
14964.03502753705
 20
4608.112805903256
 30
0.0
 11
14864.02321651343
 21
3448.112805903259
 31
0.0
 70
    32
 71
     5
 42
2320.000000000001
  3
INABA_S40G
100
AcDbAlignedDimension
 13
14259.10786956492
 23
2288.112805903256
 33
0.0
 14
14339.10786956492
 24
4608.112805903256
 34
0.0
 50
90.0
100
AcDbRotatedDimension
1001
ACAD
1000
DSTYLE
1002
{
1070
   174
1070
     0
1070
   272
1070
     1
1070
   288
1070
     0
1070
   341
1005
0
1002
}
  0
LINE
  5
13F42
330
747D
100
AcDbEntity
  8
細線
 48
50.0
100
AcDbLine
 10
13286.60786956492
 20
4428.112805903254
 30
0.0
 11
13286.60786956493
 21
2338.112805903256
 31
0.0
  0
LINE
  5
13F43
330
747D
100
AcDbEntity
  8
細線
 48
50.0
100
AcDbLine
 10
13301.60786956492
 20
4428.112805903254
 30
0.0
 11
13301.60786956492
 21
2338.112805903256
 31
0.0
  0
LINE
  5
13F44
330
747D
100
AcDbEntity
  8
細線
 48
50.0
100
AcDbLine
 10
13161.60786956492
 20
4428.112805903254
 30
0.0
 11
13161.60786956492
 21
2338.112805903256
 31
0.0
  0
LINE
  5
13F45
330
747D
100
AcDbEntity
  8
細線
 48
50.0
100
AcDbLine
 10
13146.60786956492
 20
4428.112805903254
 30
0.0
 11
13146.60786956493
 21
2338.112805903256
 31
0.0
  0
LINE
  5
13F46
330
747D
100
AcDbEntity
  8
細線
 48
50.0
100
AcDbLine
 10
13006.60786956492
 20
4428.112805903254
 30
0.0
 11
13006.60786956493
 21
2338.112805903256
 31
0.0
  0
LINE
  5
13F47
330
747D
100
AcDbEntity
  8
細線
 48
50.0
100
AcDbLine
 10
13021.60786956492
 20
4428.112805903254
 30
0.0
 11
13021.60786956492
 21
2338.112805903256
 31
0.0
  0
LINE
  5
13F48
330
747D
100
AcDbEntity
  8
部品1
100
AcDbLine
 10
12944.10786956492
 20
4428.112805903254
 30
0.0
 11
12944.10786956492
 21
2338.112805903256
 31
0.0
  0
LINE
  5
13F49
330
747D
100
AcDbEntity
  8
部品1
100
AcDbLine
 10
12587.62114208843
 20
4788.317193866272
 30
0.0
 11
12913.07615573147
 21
4770.799134907412
 31
0.0
  0
ARC
  5
13F4A
330
747D
100
AcDbEntity
  8
部品1
100
AcDbCircle
 10
14324.73540537886
 20
4502.136563169048
 30
0.0
 40
0.7
100
AcDbArc
 50
275.0921697642079
 51
354.1866997667087
  0
ARC
  5
13F4B
330
747D
100
AcDbEntity
  8
部品1
100
AcDbCircle
 10
14335.59475112818
 20
4579.179817986971
 30
0.0
 40
0.7
100
AcDbArc
 50
275.0921697642079
 51
354.1866997665532
  0
ARC
  5
13F4C
330
747D
100
AcDbEntity
  8
部品1
100
AcDbCircle
 10
14335.92315637079
 20
4575.494421129882
 30
0.0
 40
3.0
100
AcDbArc
 50
95.09216976420788
 51
174.1866997665532
  0
ARC
  5
13F4D
330
747D
100
AcDbEntity
  8
部品1
100
AcDbCircle
 10
14325.06381062146
 20
4498.451166311958
 30
0.0
 40
3.0
100
AcDbArc
 50
95.09216976420788
 51
174.1866997665532
  0
ARC
  5
13F4E
330
747D
100
AcDbEntity
  8
部品1
 48
50.0
100
AcDbCircle
 10
14314.03567534635
 20
4488.860421708075
 30
0.0
 40
7.0
100
AcDbArc
 50
267.8377559869492
 51
354.1866997665532
  0
ARC
  5
13F4F
330
747D
100
AcDbEntity
  8
部品1
 48
50.0
100
AcDbCircle
 10
14331.35777181087
 20
4599.762968850249
 30
0.0
 40
7.0
100
AcDbArc
 50
354.1866997665532
 51
87.03587545283228
  0
LINE
  5
13F50
330
747D
100
AcDbEntity
  8
部品1
 48
50.0
100
AcDbLine
 10
14322.07923895085
 20
4498.755028028861
 30
0.0
 11
14320.99967591111
 21
4488.151411035302
 31
0.0
  0
LINE
  5
13F51
330
747D
100
AcDbEntity
  8
部品1
 48
50.0
100
AcDbLine
 10
14332.93858470017
 20
4575.798282846784
 30
0.0
 11
14325.43180543534
 21
4502.065662101773
 31
0.0
  0
LINE
  5
13F52
330
747D
100
AcDbEntity
  8
部品1
 48
50.0
100
AcDbLine
 10
14338.32177237563
 20
4599.053958177473
 30
0.0
 11
14336.29115118466
 21
4579.108916919693
 31
0.0
  0
ARC
  5
13F53
330
747D
100
AcDbEntity
  8
部品1
100
AcDbCircle
 10
11155.14496143629
 20
4541.926964862159
 30
0.0
 40
0.7
100
AcDbArc
 50
181.0932240292635
 51
260.1877540314845
  0
ARC
  5
13F54
330
747D
100
AcDbEntity
  8
部品1
100
AcDbCircle
 10
11150.37228783868
 20
4634.792743062277
 30
0.0
 40
0.7
100
AcDbArc
 50
181.0932240292114
 51
260.1877540314845
  0
ARC
  5
13F55
330
747D
100
AcDbEntity
  8
部品1
100
AcDbCircle
 10
11149.74173343566
 20
4631.14686852488
 30
0.0
 40
3.0
100
AcDbArc
 50
1.093224029315636
 51
80.18775403169875
  0
ARC
  5
13F56
330
747D
100
AcDbEntity
  8
部品1
100
AcDbCircle
 10
11154.51440703326
 20
4538.281090324761
 30
0.0
 40
3.0
100
AcDbArc
 50
1.093224029315636
 51
80.18775403169875
  0
ARC
  5
13F57
330
747D
100
AcDbEntity
  8
部品1
 48
50.0
100
AcDbCircle
 10
11164.71453940846
 20
4527.88884694228
 30
0.0
 40
7.0
100
AcDbArc
 50
181.0932240293156
 51
267.8377559869492
  0
ARC
  5
13F58
330
747D
100
AcDbEntity
  8
部品1
 48
50.0
100
AcDbCircle
 10
11156.29088130637
 20
4654.839906475375
 30
0.0
 40
7.0
100
AcDbArc
 50
87.03587545283228
 51
181.0932240293156
  0
LINE
  5
13F59
330
747D
100
AcDbEntity
  8
部品1
 48
50.0
100
AcDbLine
 10
11157.51386095969
 20
4538.338327927944
 30
0.0
 11
11157.71581358012
 21
4527.755292534851
 31
0.0
  0
LINE
  5
13F5A
330
747D
100
AcDbEntity
  8
細線
 48
50.0
100
AcDbLine
 10
11154.90776790302
 20
4541.268376046752
 30
0.0
 11
14324.91143233366
 21
4501.459057072259
 31
0.0
  0
LINE
  5
13F5B
330
747D
100
AcDbEntity
  8
細線
 48
50.0
100
AcDbLine
 10
11150.14729266573
 20
4634.129887744616
 30
0.0
 11
14335.78327741091
 21
4578.505683103788
 31
0.0
  0
LINE
  5
13F5C
330
747D
100
AcDbEntity
  8
部品1
 48
50.0
100
AcDbLine
 10
11152.74118736208
 20
4631.204106128063
 30
0.0
 11
11154.44508885345
 21
4541.913609421416
 31
0.0
  0
LINE
  5
13F5D
330
747D
100
AcDbEntity
  8
部品1
 48
50.0
100
AcDbLine
 10
11149.29215547803
 20
4654.706352067948
 30
0.0
 11
11149.67241525584
 21
4634.779387621535
 31
0.0
  0
LINE
  5
13F5E
330
747D
100
AcDbEntity
  8
細線
 48
50.0
100
AcDbLine
 10
14306.07715275861
 20
4607.266228382724
 30
0.0
 11
14301.36018667693
 21
4482.334012447807
 31
0.0
  0
LINE
  5
13F5F
330
747D
100
AcDbEntity
  8
細線
 48
50.0
100
AcDbLine
 10
11182.10786956492
 20
4660.512482278659
 30
0.0
 11
11176.81876800941
 21
4520.426849651305
 31
0.0
  0
LINE
  5
13F60
330
747D
100
AcDbEntity
  8
部品1
100
AcDbLine
 10
11164.45043416687
 20
4520.893830972221
 30
0.0
 11
14313.77157010477
 21
4481.865405738016
 31
0.0
  0
LINE
  5
13F61
330
747D
100
AcDbEntity
  8
部品1
100
AcDbLine
 10
11156.65285592188
 20
4661.830541237521
 30
0.0
 11
14331.71974642639
 21
4606.753603612394
 31
0.0
  0
LINE
  5
13F62
330
747D
100
AcDbEntity
  8
部品1
 48
50.0
100
AcDbLine
 10
12613.07615573147
 20
4786.99913490741
 30
0.0
 11
12913.07615573147
 21
4786.99913490741
 31
0.0
  0
LINE
  5
13F63
330
747D
100
AcDbEntity
  8
部品1
 48
50.0
100
AcDbLine
 10
12913.07615573147
 20
4786.99913490741
 30
0.0
 11
12913.07615573147
 21
4770.799134907412
 31
0.0
  0
TEXT
  5
13F64
330
747D
100
AcDbEntity
  8
部品1
 48
50.0
100
AcDbText
 10
12601.3439909552
 20
4822.883157059845
 30
0.0
 40
120.0
  1
1000
  7
STYLE1
100
AcDbText
  0
TEXT
  5
13F65
330
747D
100
AcDbEntity
  8
部品1
 48
50.0
100
AcDbText
 10
13078.97701362029
 20
4685.381898841561
 30
0.0
 40
120.0
  1
32
 50
90.0
  7
STYLE1
100
AcDbText
  0
LINE
  5
13F66
330
747D
100
AcDbEntity
  8
細線
 48
50.0
100
AcDbLine
 10
12601.60786956492
 20
4428.112805903254
 30
0.0
 11
12601.60786956493
 21
2338.112805903254
 31
0.0
  0
LINE
  5
13F67
330
747D
100
AcDbEntity
  8
細線
 48
50.0
100
AcDbLine
 10
12586.60786956492
 20
4428.112805903254
 30
0.0
 11
12586.60786956492
 21
2338.112805903254
 31
0.0
  0
LINE
  5
13F68
330
747D
100
AcDbEntity
  8
細線
 48
50.0
100
AcDbLine
 10
12726.60786956492
 20
4428.112805903254
 30
0.0
 11
12726.60786956492
 21
2338.112805903254
 31
0.0
  0
LINE
  5
13F69
330
747D
100
AcDbEntity
  8
細線
 48
50.0
100
AcDbLine
 10
12741.60786956492
 20
4428.112805903254
 30
0.0
 11
12741.60786956493
 21
2338.112805903254
 31
0.0
  0
LINE
  5
13F6A
330
747D
100
AcDbEntity
  8
細線
 48
50.0
100
AcDbLine
 10
12881.60786956492
 20
4428.112805903254
 30
0.0
 11
12881.60786956493
 21
2338.112805903254
 31
0.0
  0
LINE
  5
13F6B
330
747D
100
AcDbEntity
  8
細線
 48
50.0
100
AcDbLine
 10
12866.60786956492
 20
4428.112805903254
 30
0.0
 11
12866.60786956493
 21
2338.112805903254
 31
0.0
  0
LINE
  5
13F6C
330
747D
100
AcDbEntity
  8
部品1
100
AcDbLine
 10
14204.10786956491
 20
4428.112805903258
 30
0.0
 11
14204.10786956491
 21
2338.112805903258
 31
0.0
  0
LINE
  5
13F6D
330
747D
100
AcDbEntity
  8
部品1
100
AcDbLine
 10
11209.10786956492
 20
4428.112805903254
 30
0.0
 11
14259.10786956491
 21
4428.112805903254
 31
0.0
  0
LINE
  5
13F6E
330
747D
100
AcDbEntity
  8
部品1
100
AcDbLine
 10
11209.10786956492
 20
2338.112805903254
 30
0.0
 11
14259.10786956492
 21
2338.112805903256
 31
0.0
  0
LINE
  5
13F6F
330
747D
100
AcDbEntity
  8
部品1
100
AcDbLine
 10
11264.10786956492
 20
4428.112805903254
 30
0.0
 11
11264.10786956492
 21
2338.112805903254
 31
0.0
  0
LINE
  5
13F70
330
747D
100
AcDbEntity
  8
部品1
100
AcDbLine
 10
11209.10786956492
 20
4520.255243832132
 30
0.0
 11
11209.10786956492
 21
2188.112805903255
 31
0.0
  0
DIMENSION
  5
13F71
330
747D
100
AcDbEntity
  8
寸法
100
AcDbDimension
  2
*D21
 10
10365.35774038166
 20
2288.11280590325
 30
0.0
 11
10365.35774038166
 21
1982.065561808761
 31
0.0
 70
   160
 71
     5
 42
50.00000000000454
  3
INABA_S40G
100
AcDbAlignedDimension
 13
11209.10786956492
 23
2338.112805903254
 33
0.0
 14
11132.10786956492
 24
2288.11280590325
 34
0.0
 50
90.0
100
AcDbRotatedDimension
1001
ACAD
1000
DSTYLE
1002
{
1070
   174
1070
     0
1070
   272
1070
     1
1070
   288
1070
     0
1070
   341
1005
0
1002
}
  0
LINE
  5
13F72
330
747D
100
AcDbEntity
  8
部品1
100
AcDbLine
 10
11684.10786956492
 20
4428.112805903254
 30
0.0
 11
11684.10786956492
 21
2338.112805903254
 31
0.0
  0
LINE
  5
13F73
330
747D
100
AcDbEntity
  8
部品1
100
AcDbLine
 10
14259.10786956492
 20
4482.542833684375
 30
0.0
 11
14259.10786956492
 21
2188.112805903256
 31
0.0
  0
LINE
  5
13F74
330
747D
100
AcDbEntity
  8
部品1
100
AcDbLine
 10
14204.10786956492
 20
4428.112805903256
 30
0.0
 11
14204.10786956492
 21
2338.112805903256
 31
0.0
  0
DIMENSION
  5
13F75
330
747D
100
AcDbEntity
  8
寸法
 48
50.0
100
AcDbDimension
  2
*D22
 10
11209.10786956492
 20
5061.77025948256
 30
0.0
 11
12779.16624412433
 21
5061.77025948256
 31
0.0
 70
   160
  1
柱外寸法<>
 71
     5
 42
3049.999999999997
  3
INABA_S40G
100
AcDbAlignedDimension
 13
14259.10786956492
 23
4609.92348551491
 33
0.0
 14
11209.10786956492
 24
4659.11442402623
 34
0.0
100
AcDbRotatedDimension
1001
ACAD
1000
DSTYLE
1002
{
1070
   174
1070
     0
1070
   272
1070
     1
1070
   288
1070
     0
1070
   341
1005
0
1002
}
  0
DIMENSION
  5
13F76
330
747D
100
AcDbEntity
  8
寸法
 48
50.0
100
AcDbDimension
  2
*D23
 10
11149.10786956492
 20
5061.770259482559
 30
0.0
 11
10839.47007428933
 21
5061.770259482559
 31
0.0
 70
   160
 71
     5
 42
60.0
  3
INABA_S40G
100
AcDbAlignedDimension
 13
11209.10786956492
 23
4659.11442402623
 33
0.0
 14
11149.10786956492
 24
4663.112805903259
 34
0.0
100
AcDbRotatedDimension
1001
ACAD
1000
DSTYLE
1002
{
1070
   174
1070
     0
1070
   272
1070
     1
1070
   288
1070
     0
1070
   341
1005
0
1002
}
  0
DIMENSION
  5
13F77
330
747D
100
AcDbEntity
  8
寸法
 48
50.0
100
AcDbDimension
  2
*D24
 10
11149.10786956492
 20
5291.883852268837
 30
0.0
 11
12820.81367587444
 21
5291.883852268837
 31
0.0
 70
   160
 71
     5
 42
3189.999999999996
  3
INABA_S40G
100
AcDbAlignedDimension
 13
14339.10786956492
 23
4608.112805903256
 33
0.0
 14
11149.10786956492
 24
4663.112805903259
 34
0.0
100
AcDbRotatedDimension
1001
ACAD
1000
DSTYLE
1002
{
1070
   174
1070
     0
1070
   272
1070
     1
1070
   288
1070
     0
1070
   341
1005
0
1002
}
  0
LINE
  5
13F78
330
747D
100
AcDbEntity
  8
部品1
100
AcDbLine
 10
11209.10786956492
 20
2288.112805903255
 30
0.0
 11
14259.10786956492
 21
2288.112805903255
 31
0.0
  0
LINE
  5
13F79
330
747D
100
AcDbEntity
  8
細線
 48
50.0
100
AcDbLine
 10
11761.60786956492
 20
4428.112805903254
 30
0.0
 11
11761.60786956492
 21
2338.112805903254
 31
0.0
  0
LINE
  5
13F7A
330
747D
100
AcDbEntity
  8
細線
 48
50.0
100
AcDbLine
 10
11746.60786956492
 20
4428.112805903254
 30
0.0
 11
11746.60786956492
 21
2338.112805903254
 31
0.0
  0
LINE
  5
13F7B
330
747D
100
AcDbEntity
  8
細線
 48
50.0
100
AcDbLine
 10
11886.60786956492
 20
4428.112805903254
 30
0.0
 11
11886.60786956492
 21
2338.112805903254
 31
0.0
  0
LINE
  5
13F7C
330
747D
100
AcDbEntity
  8
細線
 48
50.0
100
AcDbLine
 10
11901.60786956492
 20
4428.112805903254
 30
0.0
 11
11901.60786956492
 21
2338.112805903254
 31
0.0
  0
LINE
  5
13F7D
330
747D
100
AcDbEntity
  8
細線
 48
50.0
100
AcDbLine
 10
12041.60786956492
 20
4428.112805903254
 30
0.0
 11
12041.60786956492
 21
2338.112805903254
 31
0.0
  0
LINE
  5
13F7E
330
747D
100
AcDbEntity
  8
細線
 48
50.0
100
AcDbLine
 10
12026.60786956492
 20
4428.112805903254
 30
0.0
 11
12026.60786956492
 21
2338.112805903254
 31
0.0
  0
LINE
  5
13F7F
330
747D
100
AcDbEntity
  8
細線
 48
50.0
100
AcDbLine
 10
11606.60786956492
 20
4428.112805903254
 30
0.0
 11
11606.60786956492
 21
2338.112805903254
 31
0.0
  0
LINE
  5
13F80
330
747D
100
AcDbEntity
  8
細線
 48
50.0
100
AcDbLine
 10
11621.60786956492
 20
4428.112805903254
 30
0.0
 11
11621.60786956492
 21
2338.112805903254
 31
0.0
  0
LINE
  5
13F81
330
747D
100
AcDbEntity
  8
細線
 48
50.0
100
AcDbLine
 10
11481.60786956492
 20
4428.112805903254
 30
0.0
 11
11481.60786956492
 21
2338.112805903254
 31
0.0
  0
LINE
  5
13F82
330
747D
100
AcDbEntity
  8
細線
 48
50.0
100
AcDbLine
 10
11466.60786956492
 20
4428.112805903254
 30
0.0
 11
11466.60786956492
 21
2338.112805903254
 31
0.0
  0
LINE
  5
13F83
330
747D
100
AcDbEntity
  8
細線
 48
50.0
100
AcDbLine
 10
11326.60786956492
 20
4428.112805903254
 30
0.0
 11
11326.60786956492
 21
2338.112805903254
 31
0.0
  0
LINE
  5
13F84
330
747D
100
AcDbEntity
  8
細線
 48
50.0
100
AcDbLine
 10
11341.60786956492
 20
4428.112805903254
 30
0.0
 11
11341.60786956492
 21
2338.112805903254
 31
0.0
  0
DIMENSION
  5
13F85
330
747D
100
AcDbEntity
  8
寸法
 48
50.0
100
AcDbDimension
  2
*D25
 10
14339.10786956492
 20
5061.77025948256
 30
0.0
 11
14545.15511365941
 21
5061.77025948256
 31
0.0
 70
   160
 71
     5
 42
80.0
  3
INABA_S40G
100
AcDbAlignedDimension
 13
14259.10786956492
 23
4609.92348551491
 33
0.0
 14
14339.10786956492
 24
4608.112805903258
 34
0.0
100
AcDbRotatedDimension
1001
ACAD
1000
DSTYLE
1002
{
1070
   174
1070
     0
1070
   272
1070
     1
1070
   288
1070
     0
1070
   341
1005
0
1002
}
  0
LINE
  5
13F86
330
747D
100
AcDbEntity
  8
部品1
100
AcDbLine
 10
12104.10786956492
 20
4428.112805903254
 30
0.0
 11
12104.10786956492
 21
2338.112805903254
 31
0.0
  0
LINE
  5
13F87
330
747D
100
AcDbEntity
  8
細線
 48
50.0
100
AcDbLine
 10
12446.60786956492
 20
4428.112805903254
 30
0.0
 11
12446.60786956492
 21
2338.112805903254
 31
0.0
  0
LINE
  5
13F88
330
747D
100
AcDbEntity
  8
細線
 48
50.0
100
AcDbLine
 10
12461.60786956492
 20
4428.112805903254
 30
0.0
 11
12461.60786956493
 21
2338.112805903254
 31
0.0
  0
LINE
  5
13F89
330
747D
100
AcDbEntity
  8
細線
 48
50.0
100
AcDbLine
 10
12321.60786956492
 20
4428.112805903254
 30
0.0
 11
12321.60786956493
 21
2338.112805903254
 31
0.0
  0
LINE
  5
13F8A
330
747D
100
AcDbEntity
  8
細線
 48
50.0
100
AcDbLine
 10
12306.60786956492
 20
4428.112805903254
 30
0.0
 11
12306.60786956492
 21
2338.112805903254
 31
0.0
  0
LINE
  5
13F8B
330
747D
100
AcDbEntity
  8
細線
 48
50.0
100
AcDbLine
 10
12166.60786956492
 20
4428.112805903254
 30
0.0
 11
12166.60786956492
 21
2338.112805903254
 31
0.0
  0
LINE
  5
13F8C
330
747D
100
AcDbEntity
  8
細線
 48
50.0
100
AcDbLine
 10
12181.60786956492
 20
4428.112805903254
 30
0.0
 11
12181.60786956492
 21
2338.112805903254
 31
0.0
  0
LINE
  5
13F8D
330
747D
100
AcDbEntity
  8
部品1
100
AcDbLine
 10
12524.10786956492
 20
4428.112805903254
 30
0.0
 11
12524.10786956492
 21
2338.112805903254
 31
0.0
  0
LINE
  5
13F8E
330
747D
100
AcDbEntity
  8
細線
 48
50.0
100
AcDbLine
 10
13861.60786956492
 20
4428.112805903256
 30
0.0
 11
13861.60786956492
 21
2338.112805903256
 31
0.0
  0
LINE
  5
13F8F
330
747D
100
AcDbEntity
  8
細線
 48
50.0
100
AcDbLine
 10
13846.60786956492
 20
4428.112805903256
 30
0.0
 11
13846.60786956492
 21
2338.112805903256
 31
0.0
  0
LINE
  5
13F90
330
747D
100
AcDbEntity
  8
細線
 48
50.0
100
AcDbLine
 10
13986.60786956492
 20
4428.112805903256
 30
0.0
 11
13986.60786956492
 21
2338.112805903256
 31
0.0
  0
LINE
  5
13F91
330
747D
100
AcDbEntity
  8
細線
 48
50.0
100
AcDbLine
 10
14001.60786956492
 20
4428.112805903256
 30
0.0
 11
14001.60786956492
 21
2338.112805903256
 31
0.0
  0
LINE
  5
13F92
330
747D
100
AcDbEntity
  8
細線
 48
50.0
100
AcDbLine
 10
14141.60786956492
 20
4428.112805903256
 30
0.0
 11
14141.60786956492
 21
2338.112805903256
 31
0.0
  0
LINE
  5
13F93
330
747D
100
AcDbEntity
  8
細線
 48
50.0
100
AcDbLine
 10
14126.60786956492
 20
4428.112805903256
 30
0.0
 11
14126.60786956492
 21
2338.112805903256
 31
0.0
  0
DIMENSION
  5
13F94
330
747D
100
AcDbEntity
  8
寸法
 48
50.0
100
AcDbDimension
  2
*D26
 10
10588.49946279655
 20
4537.458064776585
 30
0.0
 11
10599.16493805547
 21
4908.304728018284
 31
0.0
 70
   161
 71
     5
 42
140.9999999999991
  3
INABA_S40G
100
AcDbAlignedDimension
 13
11168.5038897235
 23
4661.835554737934
 33
0.0
 14
11164.45043416687
 24
4520.893830972221
 34
0.0
1001
ACAD
1000
DSTYLE
1002
{
1070
   174
1070
     0
1070
   272
1070
     1
1070
   288
1070
     0
1070
   341
1005
0
1002
}
  0
LINE
  5
13F95
330
747D
100
AcDbEntity
  8
部品1
100
AcDbLine
 10
13364.10786956491
 20
4428.112805903254
 30
0.0
 11
13364.10786956491
 21
2338.112805903256
 31
0.0
  0
LINE
  5
13F96
330
747D
100
AcDbEntity
  8
細線
 48
50.0
100
AcDbLine
 10
13441.60786956492
 20
4428.112805903254
 30
0.0
 11
13441.60786956492
 21
2338.112805903256
 31
0.0
  0
LINE
  5
13F97
330
747D
100
AcDbEntity
  8
細線
 48
50.0
100
AcDbLine
 10
13426.60786956492
 20
4428.112805903254
 30
0.0
 11
13426.60786956492
 21
2338.112805903256
 31
0.0
  0
LINE
  5
13F98
330
747D
100
AcDbEntity
  8
細線
 48
50.0
100
AcDbLine
 10
13566.60786956492
 20
4428.112805903254
 30
0.0
 11
13566.60786956492
 21
2338.112805903256
 31
0.0
  0
LINE
  5
13F99
330
747D
100
AcDbEntity
  8
細線
 48
50.0
100
AcDbLine
 10
13581.60786956492
 20
4428.112805903254
 30
0.0
 11
13581.60786956492
 21
2338.112805903256
 31
0.0
  0
LINE
  5
13F9A
330
747D
100
AcDbEntity
  8
細線
 48
50.0
100
AcDbLine
 10
13721.60786956492
 20
4428.112805903254
 30
0.0
 11
13721.60786956492
 21
2338.112805903256
 31
0.0
  0
LINE
  5
13F9B
330
747D
100
AcDbEntity
  8
細線
 48
50.0
100
AcDbLine
 10
13706.60786956492
 20
4428.112805903254
 30
0.0
 11
13706.60786956492
 21
2338.112805903256
 31
0.0
  0
LINE
  5
13F9C
330
747D
100
AcDbEntity
  8
部品1
100
AcDbLine
 10
13784.10786956491
 20
4428.112805903256
 30
0.0
 11
13784.10786956491
 21
2338.112805903258
 31
0.0
  0
LINE
  5
14486
330
747D
100
AcDbEntity
  8
寸法
 48
50.0
100
AcDbLine
 10
3822.956467703102
 20
7063.091439373941
 30
0.0
 11
3771.550459792999
 21
7063.091439373941
 31
0.0
  0
LINE
  5
14487
330
747D
100
AcDbEntity
  8
寸法
 48
50.0
100
AcDbLine
 10
3771.550459792999
 20
7063.091439373941
 30
0.0
 11
3771.550459792999
 21
7094.401598026109
 31
0.0
  0
LINE
  5
14488
330
747D
100
AcDbEntity
  8
寸法
 48
50.0
100
AcDbLine
 10
3771.550459792999
 20
7094.401598026109
 30
0.0
 11
3741.789127801575
 21
7094.401598026109
 31
0.0
  0
LINE
  5
14489
330
747D
100
AcDbEntity
  8
寸法
 48
50.0
100
AcDbLine
 10
3741.789127801575
 20
7094.401598026109
 30
0.0
 11
3797.253463748051
 21
7131.981048954718
 31
0.0
  0
LINE
  5
1448A
330
747D
100
AcDbEntity
  8
寸法
 48
50.0
100
AcDbLine
 10
3852.717799694526
 20
7094.401598026109
 30
0.0
 11
3797.253463748051
 21
7131.981048954718
 31
0.0
  0
LINE
  5
1448B
330
747D
100
AcDbEntity
  8
寸法
 48
50.0
100
AcDbLine
 10
3822.956467703102
 20
7094.401598026109
 30
0.0
 11
3852.717799694526
 21
7094.401598026109
 31
0.0
  0
LINE
  5
1448C
330
747D
100
AcDbEntity
  8
寸法
 48
50.0
100
AcDbLine
 10
3822.956467703102
 20
7063.091439373941
 30
0.0
 11
3822.956467703102
 21
7094.401598026109
 31
0.0
  0
LINE
  5
1448D
330
747D
100
AcDbEntity
  8
寸法
 48
50.0
100
AcDbLine
 10
3771.550459792999
 20
7063.091439373941
 30
0.0
 11
3822.956467703102
 21
7063.091439373941
 31
0.0
  0
LINE
  5
1448E
330
747D
100
AcDbEntity
  8
寸法
 48
50.0
100
AcDbLine
 10
4102.122001979959
 20
7120.237030128764
 30
0.0
 11
4102.122001979959
 21
7066.573395546974
 31
0.0
  0
LINE
  5
1448F
330
747D
100
AcDbEntity
  8
寸法
 48
50.0
100
AcDbLine
 10
4191.40622057538
 20
7096.313395859279
 30
0.0
 11
4102.122001979959
 21
7120.237030128764
 31
0.0
  0
LINE
  5
14490
330
747D
100
AcDbEntity
  8
寸法
 48
50.0
100
AcDbLine
 10
3972.254280399656
 20
7096.313395859279
 30
0.0
 11
4191.40622057538
 21
7096.313395859279
 31
0.0
  0
LINE
  5
14491
330
747D
100
AcDbEntity
  8
細線
 48
50.0
100
AcDbLine
 10
4848.753461421261
 20
7261.554802753804
 30
0.0
 11
5475.753461421257
 21
7261.554802753804
 31
0.0
  0
LINE
  5
14492
330
747D
100
AcDbEntity
  8
細線
 48
50.0
100
AcDbLine
 10
4194.753466074847
 20
7227.846034199728
 30
0.0
 11
5475.753461421257
 21
7227.846034199728
 31
0.0
  0
LINE
  5
14493
330
747D
100
AcDbEntity
  8
細線
 48
50.0
100
AcDbLine
 10
4153.75346607485
 20
7257.250942195982
 30
0.0
 11
3399.753461421258
 21
7257.250942195979
 31
0.0
  0
LINE
  5
14494
330
747D
100
AcDbEntity
  8
細線
100
AcDbLine
 10
5251.503452004801
 20
7281.054702718813
 30
0.0
 11
5253.83499152661
 21
7286.054705358775
 31
0.0
  0
LINE
  5
14495
330
747D
100
AcDbEntity
  8
細線
100
AcDbLine
 10
5321.503461421258
 20
7281.054687805078
 30
0.0
 11
5319.171914945071
 21
7286.054705358759
 31
0.0
  0
LINE
  5
14496
330
747D
100
AcDbEntity
  8
細線
100
AcDbLine
 10
5319.171914945071
 20
7286.054705358759
 30
0.0
 11
5253.834991526595
 21
7286.054705358745
 31
0.0
  0
LINE
  5
14497
330
747D
100
AcDbEntity
  8
細線
100
AcDbLine
 10
5179.171914945071
 20
7286.054705358759
 30
0.0
 11
5113.834991526595
 21
7286.054705358745
 31
0.0
  0
LINE
  5
14498
330
747D
100
AcDbEntity
  8
細線
100
AcDbLine
 10
5181.503461421258
 20
7281.054687805078
 30
0.0
 11
5179.171914945071
 21
7286.054705358759
 31
0.0
  0
LINE
  5
14499
330
747D
100
AcDbEntity
  8
細線
100
AcDbLine
 10
5111.503452004801
 20
7281.054702718813
 30
0.0
 11
5113.834991526609
 21
7286.054705358775
 31
0.0
  0
LINE
  5
1449A
330
747D
100
AcDbEntity
  8
細線
100
AcDbLine
 10
4971.503461421258
 20
7281.054687805078
 30
0.0
 11
4973.83500094307
 21
7286.05469044504
 31
0.0
  0
LINE
  5
1449B
330
747D
100
AcDbEntity
  8
細線
100
AcDbLine
 10
5041.503470837719
 20
7281.054672891345
 30
0.0
 11
5039.171924361529
 21
7286.054690445026
 31
0.0
  0
LINE
  5
1449C
330
747D
100
AcDbEntity
  8
細線
100
AcDbLine
 10
5039.171924361532
 20
7286.054690445026
 30
0.0
 11
4973.835000943056
 21
7286.054690445012
 31
0.0
  0
LINE
  5
1449D
330
747D
100
AcDbEntity
  8
細線
100
AcDbLine
 10
4743.921945610365
 20
7252.054727142407
 30
0.0
 11
4678.585022191889
 21
7252.054727142393
 31
0.0
  0
LINE
  5
1449E
330
747D
100
AcDbEntity
  8
細線
100
AcDbLine
 10
4746.253492086552
 20
7247.054709588727
 30
0.0
 11
4743.921945610365
 21
7252.054727142407
 31
0.0
  0
LINE
  5
1449F
330
747D
100
AcDbEntity
  8
細線
100
AcDbLine
 10
4676.253482670094
 20
7247.054724502461
 30
0.0
 11
4678.585022191903
 21
7252.054727142422
 31
0.0
  0
LINE
  5
144A0
330
747D
100
AcDbEntity
  8
細線
 48
50.0
100
AcDbLine
 10
4517.636840669271
 20
7265.325550958159
 30
0.0
 11
4523.392358251939
 21
7247.054699667673
 31
0.0
  0
LINE
  5
144A1
330
747D
100
AcDbEntity
  8
細線
 48
50.0
100
AcDbLine
 10
4506.708392188842
 20
7265.325550958159
 30
0.0
 11
4517.636840669271
 21
7265.325550958159
 31
0.0
  0
ARC
  5
144A2
330
747D
100
AcDbEntity
  8
細線
 48
50.0
100
AcDbCircle
 10
4501.254036131519
 20
7266.825550958159
 30
0.0
 40
5.0
100
AcDbArc
 50
204.6243183521277
 51
335.3756816478722
  0
ARC
  5
144A3
330
747D
100
AcDbEntity
  8
細線
 48
50.0
100
AcDbCircle
 10
4506.708392188842
 20
7264.325550958159
 30
0.0
 40
1.0
100
AcDbArc
 50
90.0
 51
155.3756816478722
  0
ARC
  5
144A4
330
747D
100
AcDbEntity
  8
細線
 48
50.0
100
AcDbCircle
 10
4495.799680074205
 20
7264.325550958159
 30
0.0
 40
1.0
100
AcDbArc
 50
24.62431835212777
 51
90.0
  0
LINE
  5
144A5
330
747D
100
AcDbEntity
  8
細線
 48
50.0
100
AcDbLine
 10
4484.87123159377
 20
7265.325550958159
 30
0.0
 11
4495.799680074205
 21
7265.325550958159
 31
0.0
  0
LINE
  5
144A6
330
747D
100
AcDbEntity
  8
細線
 48
50.0
100
AcDbLine
 10
4479.115714011103
 20
7247.054699667666
 30
0.0
 11
4484.87123159377
 21
7265.325550958159
 31
0.0
  0
LINE
  5
144A7
330
747D
100
AcDbEntity
  8
細線
100
AcDbLine
 10
4536.253483901136
 20
7247.054697033469
 30
0.0
 11
4538.585023422949
 21
7252.054699673431
 31
0.0
  0
LINE
  5
144A8
330
747D
100
AcDbEntity
  8
細線
100
AcDbLine
 10
4606.253493317597
 20
7247.054682119736
 30
0.0
 11
4603.921946841405
 21
7252.054699673417
 31
0.0
  0
LINE
  5
144A9
330
747D
100
AcDbEntity
  8
細線
100
AcDbLine
 10
4603.921946841405
 20
7252.054699673417
 30
0.0
 11
4538.585023422934
 21
7252.054699673402
 31
0.0
  0
LINE
  5
144AA
330
747D
100
AcDbEntity
  8
細線
100
AcDbLine
 10
4463.921918476889
 20
7252.054699667637
 30
0.0
 11
4398.584995058413
 21
7252.054699667621
 31
0.0
  0
LINE
  5
144AB
330
747D
100
AcDbEntity
  8
細線
100
AcDbLine
 10
4466.253464953076
 20
7247.054682113956
 30
0.0
 11
4463.921918476889
 21
7252.054699667637
 31
0.0
  0
LINE
  5
144AC
330
747D
100
AcDbEntity
  8
細線
100
AcDbLine
 10
4396.25345676766
 20
7247.054699667666
 30
0.0
 11
4398.584995058428
 21
7252.054699667652
 31
0.0
  0
LINE
  5
144AD
330
747D
100
AcDbEntity
  8
細線
100
AcDbLine
 10
4256.253492086552
 20
7247.054707855035
 30
0.0
 11
4258.58503037732
 21
7252.054707855021
 31
0.0
  0
LINE
  5
144AE
330
747D
100
AcDbEntity
  8
細線
100
AcDbLine
 10
4326.253500271968
 20
7247.054690301325
 30
0.0
 11
4323.921953795781
 21
7252.054707855002
 31
0.0
  0
LINE
  5
144AF
330
747D
100
AcDbEntity
  8
細線
100
AcDbLine
 10
4323.921953795781
 20
7252.054707855002
 30
0.0
 11
4258.585030377305
 21
7252.054707854992
 31
0.0
  0
LINE
  5
144B0
330
747D
100
AcDbEntity
  8
細線
100
AcDbLine
 10
3884.753457889431
 20
7213.054879535748
 30
0.0
 11
3887.084996180199
 21
7218.054879535734
 31
0.0
  0
LINE
  5
144B1
330
747D
100
AcDbEntity
  8
細線
100
AcDbLine
 10
3954.753466074847
 20
7213.054861982034
 30
0.0
 11
3952.421919598659
 21
7218.054879535713
 31
0.0
  0
LINE
  5
144B2
330
747D
100
AcDbEntity
  8
細線
100
AcDbLine
 10
3952.421919598659
 20
7218.054879535713
 30
0.0
 11
3887.084996180188
 21
7218.054879535704
 31
0.0
  0
LINE
  5
144B3
330
747D
100
AcDbEntity
  8
細線
100
AcDbLine
 10
4092.42191959866
 20
7218.054879535713
 30
0.0
 11
4027.084996180188
 21
7218.054879535704
 31
0.0
  0
LINE
  5
144B4
330
747D
100
AcDbEntity
  8
細線
100
AcDbLine
 10
4094.753466074847
 20
7213.054861982034
 30
0.0
 11
4092.42191959866
 21
7218.054879535713
 31
0.0
  0
LINE
  5
144B5
330
747D
100
AcDbEntity
  8
細線
100
AcDbLine
 10
4024.75345788943
 20
7213.054879535748
 30
0.0
 11
4027.084996180199
 21
7218.054879535734
 31
0.0
  0
LINE
  5
144B6
330
747D
100
AcDbEntity
  8
細線
100
AcDbLine
 10
3812.42191959866
 20
7218.054879535713
 30
0.0
 11
3747.084996180188
 21
7218.054879535701
 31
0.0
  0
LINE
  5
144B7
330
747D
100
AcDbEntity
  8
細線
100
AcDbLine
 10
3814.753466074847
 20
7213.054861982034
 30
0.0
 11
3812.42191959866
 21
7218.054879535713
 31
0.0
  0
LINE
  5
144B8
330
747D
100
AcDbEntity
  8
細線
100
AcDbLine
 10
3744.753457889431
 20
7213.054879535744
 30
0.0
 11
3747.084996180199
 21
7218.054879535729
 31
0.0
  0
LINE
  5
144B9
330
747D
100
AcDbEntity
  8
細線
100
AcDbLine
 10
3604.753466074847
 20
7213.054879535748
 30
0.0
 11
3607.085004365615
 21
7218.054879535734
 31
0.0
  0
LINE
  5
144BA
330
747D
100
AcDbEntity
  8
細線
100
AcDbLine
 10
3674.753474260263
 20
7213.054861982034
 30
0.0
 11
3672.421927784076
 21
7218.054879535713
 31
0.0
  0
LINE
  5
144BB
330
747D
100
AcDbEntity
  8
細線
100
AcDbLine
 10
3672.421927784076
 20
7218.054879535713
 30
0.0
 11
3607.085004365604
 21
7218.054879535704
 31
0.0
  0
ARC
  5
144BC
330
747D
100
AcDbEntity
  8
部品1
 48
0.01
100
AcDbCircle
 10
3560.253354822512
 20
7212.053757350675
 30
0.0
 40
0.5
100
AcDbArc
 50
270.0
 51
0.0
  0
LINE
  5
144BD
330
747D
100
AcDbEntity
  8
部品1
 48
0.01
100
AcDbLine
 10
3560.753354822512
 20
7213.053757350675
 30
0.0
 11
3560.753354822512
 21
7212.053757350675
 31
0.0
  0
LINE
  5
144BE
330
747D
100
AcDbEntity
  8
部品1
 48
0.01
100
AcDbLine
 10
3560.753354822512
 20
7213.053757350675
 30
0.0
 11
3560.753354822512
 21
7212.053757350675
 31
0.0
  0
LINE
  5
144BF
330
747D
100
AcDbEntity
  8
部品1
 48
0.01
100
AcDbLine
 10
3560.253354822512
 20
7211.553757350675
 30
0.0
 11
3553.640849392448
 21
7211.553757350675
 31
0.0
  0
ARC
  5
144C0
330
747D
100
AcDbEntity
  8
部品1
100
AcDbCircle
 10
3553.709198945229
 20
7212.553757350676
 30
0.0
 40
1.0
100
AcDbArc
 50
160.5287793655822
 51
270.0
  0
ARC
  5
144C1
330
747D
100
AcDbEntity
  8
部品1
100
AcDbCircle
 10
3528.253354822512
 20
7221.553757350675
 30
0.0
 40
26.0
100
AcDbArc
 50
340.5287793655822
 51
0.0
  0
LINE
  5
144C2
330
747D
100
AcDbEntity
  8
部品1
100
AcDbLine
 10
3554.253354822512
 20
7221.553757350675
 30
0.0
 11
3554.253354822512
 21
7226.553757350676
 31
0.0
  0
ARC
  5
144C3
330
747D
100
AcDbEntity
  8
部品1
 48
0.01
100
AcDbCircle
 10
3552.253354822512
 20
7226.553757350676
 30
0.0
 40
2.0
100
AcDbArc
 50
0.0
 51
90.0
  0
ARC
  5
144C4
330
747D
100
AcDbEntity
  8
部品1
100
AcDbCircle
 10
3550.644963197702
 20
7225.553757350676
 30
0.0
 40
3.0
100
AcDbArc
 50
90.0
 51
141.6069559807873
  0
LINE
  5
144C5
330
747D
100
AcDbEntity
  8
部品1
 48
0.01
100
AcDbLine
 10
3552.253354822512
 20
7228.553757350676
 30
0.0
 11
3550.644963197702
 21
7228.553757350676
 31
0.0
  0
ARC
  5
144C6
330
747D
100
AcDbEntity
  8
部品1
100
AcDbCircle
 10
3532.182640608241
 20
7224.853757350678
 30
0.0
 40
3.0
100
AcDbArc
 50
254.0576313943215
 51
270.0
  0
ARC
  5
144C7
330
747D
100
AcDbEntity
  8
部品1
100
AcDbCircle
 10
3539.324069036783
 20
7224.853757350678
 30
0.0
 40
3.0
100
AcDbArc
 50
270.0
 51
285.9423686056786
  0
LINE
  5
144C8
330
747D
100
AcDbEntity
  8
部品1
100
AcDbLine
 10
3539.324069036783
 20
7221.853757350678
 30
0.0
 11
3532.182640608241
 21
7221.853757350678
 31
0.0
  0
ARC
  5
144C9
330
747D
100
AcDbEntity
  8
部品1
100
AcDbCircle
 10
3535.753354822512
 20
7237.353757350678
 30
0.0
 40
16.0
100
AcDbArc
 50
285.9423686056786
 51
321.6069559807873
  0
LINE
  5
144CA
330
747D
100
AcDbEntity
  8
部品1
 48
0.01
100
AcDbLine
 10
3519.253354822512
 20
7228.553757350676
 30
0.0
 11
3520.861746447322
 21
7228.553757350676
 31
0.0
  0
ARC
  5
144CB
330
747D
100
AcDbEntity
  8
部品1
100
AcDbCircle
 10
3520.861746447322
 20
7225.553757350676
 30
0.0
 40
3.0
100
AcDbArc
 50
38.39304401921267
 51
90.0
  0
ARC
  5
144CC
330
747D
100
AcDbEntity
  8
部品1
100
AcDbCircle
 10
3535.753354822512
 20
7237.353757350678
 30
0.0
 40
16.0
100
AcDbArc
 50
218.3930440192126
 51
254.0576313943215
  0
LINE
  5
144CD
330
747D
100
AcDbEntity
  8
部品1
100
AcDbLine
 10
3517.253354822512
 20
7221.553757350675
 30
0.0
 11
3517.253354822512
 21
7226.553757350676
 31
0.0
  0
ARC
  5
144CE
330
747D
100
AcDbEntity
  8
部品1
 48
0.01
100
AcDbCircle
 10
3519.253354822512
 20
7226.553757350676
 30
0.0
 40
2.0
100
AcDbArc
 50
90.0
 51
180.0
  0
ARC
  5
144CF
330
747D
100
AcDbEntity
  8
部品1
100
AcDbCircle
 10
3543.253354822513
 20
7221.553757350675
 30
0.0
 40
26.0
100
AcDbArc
 50
180.0
 51
199.4712206344178
  0
ARC
  5
144D0
330
747D
100
AcDbEntity
  8
部品1
 48
0.01
100
AcDbCircle
 10
3511.253354822513
 20
7212.053757350675
 30
0.0
 40
0.5
100
AcDbArc
 50
180.0
 51
270.0
  0
LINE
  5
144D1
330
747D
100
AcDbEntity
  8
部品1
 48
0.01
100
AcDbLine
 10
3511.253354822513
 20
7211.553757350675
 30
0.0
 11
3517.797510699796
 21
7211.553757350675
 31
0.0
  0
LINE
  5
144D2
330
747D
100
AcDbEntity
  8
部品1
 48
0.01
100
AcDbLine
 10
3510.753354822512
 20
7213.053757350675
 30
0.0
 11
3510.753354822512
 21
7212.053757350675
 31
0.0
  0
ARC
  5
144D3
330
747D
100
AcDbEntity
  8
部品1
100
AcDbCircle
 10
3517.797510699796
 20
7212.553757350676
 30
0.0
 40
1.0
100
AcDbArc
 50
270.0
 51
19.4712206344178
  0
LINE
  5
144D4
330
747D
100
AcDbEntity
  8
細線
100
AcDbLine
 10
3556.253354822519
 20
7231.053757350679
 30
0.0
 11
3515.253354822519
 21
7231.053757350672
 31
0.0
  0
LINE
  5
144D5
330
747D
100
AcDbEntity
  8
細線
100
AcDbLine
 10
3515.253354822519
 20
7231.053757350672
 30
0.0
 11
3515.253354822519
 21
7213.053757350654
 31
0.0
  0
LINE
  5
144D6
330
747D
100
AcDbEntity
  8
細線
100
AcDbLine
 10
3556.253354822519
 20
7231.053757350679
 30
0.0
 11
3556.253354822519
 21
7213.053757350654
 31
0.0
  0
LINE
  5
144D7
330
747D
100
AcDbEntity
  8
細線
100
AcDbLine
 10
3399.753461421258
 20
7217.054687805078
 30
0.0
 11
3399.753461421258
 21
7213.054687805126
 31
0.0
  0
DIMENSION
  5
144D8
330
747D
100
AcDbEntity
  8
寸法
 48
50.0
100
AcDbDimension
  2
*D27
 10
4665.753461421257
 20
6531.452014532456
 30
0.0
 11
4038.414560620483
 21
6531.452014532456
 31
0.0
 70
   160
  1
有効開口部間口\P<>
 71
     5
 42
1266.0
  3
INABA_S40
100
AcDbAlignedDimension
 13
3399.753461421258
 23
7208.05468780508
 33
0.0
 14
4665.753461421257
 24
7208.05468780508
 34
0.0
100
AcDbRotatedDimension
1001
ACAD
1000
DSTYLE
1002
{
1070
    41
1040
0.5
1070
    44
1040
1.0
1070
   147
1040
0.8
1070
   271
1070
     2
1070
   272
1070
     2
1070
   289
1070
     3
1070
   340
1005
F706
1070
   343
1005
F744
1070
   344
1005
F744
1002
}
  0
LINE
  5
144D9
330
747D
100
AcDbEntity
  8
部品1
100
AcDbLine
 10
5487.753461421257
 20
7285.054687805078
 30
0.0
 11
5514.753461421257
 21
7285.054687805079
 31
0.0
  0
LINE
  5
144DB
330
747D
100
AcDbEntity
  8
部品1
100
AcDbLine
 10
5514.753461421257
 20
7208.05468780508
 30
0.0
 11
5514.753461421257
 21
7285.054687805079
 31
0.0
  0
LINE
  5
144DC
330
747D
100
AcDbEntity
  8
部品1
100
AcDbLine
 10
5475.753461421257
 20
7281.054687805078
 30
0.0
 11
5487.753461421257
 21
7281.054687805078
 31
0.0
  0
LINE
  5
144DD
330
747D
100
AcDbEntity
  8
部品1
100
AcDbLine
 10
5484.753461421258
 20
7217.054687805078
 30
0.0
 11
5484.753461421258
 21
7208.05468780508
 31
0.0
  0
LINE
  5
144DE
330
747D
100
AcDbEntity
  8
部品1
100
AcDbLine
 10
5475.753461421257
 20
7217.054687805078
 30
0.0
 11
5484.753461421258
 21
7217.054687805078
 31
0.0
  0
LINE
  5
144DF
330
747D
100
AcDbEntity
  8
部品1
100
AcDbLine
 10
5475.753461421257
 20
7281.054687805078
 30
0.0
 11
5475.753461421257
 21
7217.054687805078
 31
0.0
  0
LINE
  5
144E0
330
747D
100
AcDbEntity
  8
部品1
100
AcDbLine
 10
5487.753461421257
 20
7312.05468780508
 30
0.0
 11
5487.753461421257
 21
7281.054687805078
 31
0.0
  0
LINE
  5
144E1
330
747D
100
AcDbEntity
  8
部品1
100
AcDbLine
 10
3399.753461421258
 20
7281.054687805078
 30
0.0
 11
3387.753461421257
 21
7281.054687805078
 31
0.0
  0
LINE
  5
144E2
330
747D
100
AcDbEntity
  8
部品1
100
AcDbLine
 10
3360.753461421257
 20
7285.054687805079
 30
0.0
 11
3387.753461421257
 21
7285.054687805079
 31
0.0
  0
LINE
  5
144E3
330
747D
100
AcDbEntity
  8
部品1
100
AcDbLine
 10
3390.753461421257
 20
7217.054687805078
 30
0.0
 11
3390.753461421257
 21
7208.05468780508
 31
0.0
  0
LINE
  5
144E4
330
747D
100
AcDbEntity
  8
部品1
100
AcDbLine
 10
3399.753461421258
 20
7217.054687805078
 30
0.0
 11
3390.753461421257
 21
7217.054687805078
 31
0.0
  0
LINE
  5
144E5
330
747D
100
AcDbEntity
  8
部品1
100
AcDbLine
 10
3390.753461421257
 20
7208.05468780508
 30
0.0
 11
3360.753461421257
 21
7208.05468780508
 31
0.0
  0
LINE
  5
144E6
330
747D
100
AcDbEntity
  8
部品1
100
AcDbLine
 10
3360.753461421257
 20
7208.05468780508
 30
0.0
 11
3360.753461421257
 21
7285.054687805079
 31
0.0
  0
LINE
  5
144E7
330
747D
100
AcDbEntity
  8
部品1
100
AcDbLine
 10
3399.753461421258
 20
7281.054687805078
 30
0.0
 11
3399.753461421258
 21
7217.054687805078
 31
0.0
  0
LINE
  5
144E8
330
747D
100
AcDbEntity
  8
部品1
100
AcDbLine
 10
3387.753461421257
 20
7312.054687805076
 30
0.0
 11
3387.753461421257
 21
7281.054687805078
 31
0.0
  0
LINE
  5
144E9
330
747D
100
AcDbEntity
  8
部品1
100
AcDbLine
 10
3387.753461421257
 20
7312.054687805076
 30
0.0
 11
5487.753461421257
 21
7312.05468780508
 31
0.0
  0
LINE
  5
144EA
330
747D
100
AcDbEntity
  8
部品1
100
AcDbLine
 10
5484.753461421258
 20
7208.05468780508
 30
0.0
 11
5514.753461421257
 21
7208.05468780508
 31
0.0
  0
LINE
  5
144EB
330
747D
100
AcDbEntity
  8
部品1
100
AcDbLine
 10
3390.753461421257
 20
7208.05468780508
 30
0.0
 11
5487.753461421257
 21
7208.05468780508
 31
0.0
  0
LINE
  5
144EC
330
747D
100
AcDbEntity
  8
細線
  6
Continuous
 62
     5
100
AcDbLine
 10
4766.753461421261
 20
7247.054687805075
 30
0.0
 11
4766.753461421261
 21
7247.054687805075
 31
0.0
  0
LINE
  5
144ED
330
747D
100
AcDbEntity
  8
細線
  6
Continuous
 62
     5
100
AcDbLine
 10
4759.253496740153
 20
7247.054697726134
 30
0.0
 11
4759.253496740153
 21
7247.054697726134
 31
0.0
  0
LINE
  5
144EE
330
747D
100
AcDbEntity
  8
細線
  6
Continuous
 62
     5
100
AcDbLine
 10
4753.253496740152
 20
7247.054697726134
 30
0.0
 11
4753.253496740152
 21
7247.054697726134
 31
0.0
  0
LINE
  5
144EF
330
747D
100
AcDbEntity
  8
細線
  6
Continuous
 62
     5
100
AcDbLine
 10
4820.753461421261
 20
7266.054687805075
 30
0.0
 11
4820.753461421261
 21
7266.054687805075
 31
0.0
  0
LINE
  5
144F0
330
747D
100
AcDbEntity
  8
細線
 48
50.0
100
AcDbLine
 10
3413.753466074851
 20
7233.654861982033
 30
0.0
 11
3413.753466074851
 21
7242.051012389673
 31
0.0
  0
LINE
  5
144F1
330
747D
100
AcDbEntity
  8
細線
 48
50.0
100
AcDbLine
 10
3413.753466074851
 20
7242.051012389673
 30
0.0
 11
3399.753461421258
 21
7242.051012389669
 31
0.0
  0
LINE
  5
144F2
330
747D
100
AcDbEntity
  8
細線
 48
50.0
100
AcDbLine
 10
4164.753466074847
 20
7230.204861982032
 30
0.0
 11
4164.753466074847
 21
7235.054861982034
 31
0.0
  0
LINE
  5
144F3
330
747D
100
AcDbEntity
  8
細線
 48
50.0
100
AcDbLine
 10
4164.753466074847
 20
7235.054861982034
 30
0.0
 11
4179.753466074846
 21
7235.054861982034
 31
0.0
  0
LINE
  5
144F4
330
747D
100
AcDbEntity
  8
細線
 48
50.0
100
AcDbLine
 10
4179.753466074846
 20
7235.054861982034
 30
0.0
 11
4179.75346607485
 21
7242.054861982035
 31
0.0
  0
LINE
  5
144F5
330
747D
100
AcDbEntity
  8
細線
 48
50.0
100
AcDbLine
 10
4179.75346607485
 20
7242.054861982035
 30
0.0
 11
4194.753466074847
 21
7242.054861982035
 31
0.0
  0
LINE
  5
144F6
330
747D
100
AcDbEntity
  8
細線
 48
50.0
100
AcDbLine
 10
4194.753466074847
 20
7242.054861982035
 30
0.0
 11
4194.753466074847
 21
7213.054861982034
 31
0.0
  0
LINE
  5
144F7
330
747D
100
AcDbEntity
  8
細線
 48
50.0
100
AcDbLine
 10
3390.753461421257
 20
7213.052196325503
 30
0.0
 11
3604.753466074847
 21
7213.054879535748
 31
0.0
  0
LINE
  5
144F8
330
747D
100
AcDbEntity
  8
細線
 48
50.0
100
AcDbLine
 10
4094.753466074847
 20
7213.054861982034
 30
0.0
 11
4194.753466074847
 21
7213.054861982034
 31
0.0
  0
LINE
  5
144F9
330
747D
100
AcDbEntity
  8
細線
 48
50.0
100
AcDbLine
 10
3814.753466074847
 20
7213.054861982034
 30
0.0
 11
3884.753466074847
 21
7213.054861982034
 31
0.0
  0
LINE
  5
144FA
330
747D
100
AcDbEntity
  8
細線
 48
50.0
100
AcDbLine
 10
3827.615431087377
 20
7213.054861982034
 30
0.0
 11
3833.370948670044
 21
7231.325713272529
 31
0.0
  0
LINE
  5
144FB
330
747D
100
AcDbEntity
  8
細線
 48
50.0
100
AcDbLine
 10
3833.370948670044
 20
7231.325713272529
 30
0.0
 11
3844.299397150478
 21
7231.325713272525
 31
0.0
  0
ARC
  5
144FC
330
747D
100
AcDbEntity
  8
細線
 48
50.0
100
AcDbCircle
 10
3844.299397150478
 20
7230.325713272525
 30
0.0
 40
1.0
100
AcDbArc
 50
24.62431835212777
 51
90.0
  0
ARC
  5
144FD
330
747D
100
AcDbEntity
  8
細線
 48
50.0
100
AcDbCircle
 10
3855.208109265111
 20
7230.325713272525
 30
0.0
 40
1.0
100
AcDbArc
 50
90.0
 51
155.3756816478722
  0
ARC
  5
144FE
330
747D
100
AcDbEntity
  8
細線
 48
50.0
100
AcDbCircle
 10
3849.753753207792
 20
7232.825713272525
 30
0.0
 40
5.0
100
AcDbArc
 50
204.6243183521277
 51
335.3756816478722
  0
LINE
  5
144FF
330
747D
100
AcDbEntity
  8
細線
 48
50.0
100
AcDbLine
 10
3855.208109265111
 20
7231.325713272525
 30
0.0
 11
3866.136557745545
 21
7231.325713272529
 31
0.0
  0
LINE
  5
14500
330
747D
100
AcDbEntity
  8
細線
 48
50.0
100
AcDbLine
 10
3866.136557745545
 20
7231.325713272529
 30
0.0
 11
3871.892075328212
 21
7213.054861982034
 31
0.0
  0
LINE
  5
14501
330
747D
100
AcDbEntity
  8
細線
 48
50.0
100
AcDbLine
 10
4164.753466074847
 20
7233.654861982033
 30
0.0
 11
3413.753466074851
 21
7233.654861982033
 31
0.0
  0
LINE
  5
14502
330
747D
100
AcDbEntity
  8
細線
 48
50.0
100
AcDbLine
 10
4024.753466074847
 20
7213.054861982034
 30
0.0
 11
3954.753466074847
 21
7213.054861982034
 31
0.0
  0
LINE
  5
14503
330
747D
100
AcDbEntity
  8
細線
100
AcDbLine
 10
3744.753466074847
 20
7213.054861982034
 30
0.0
 11
3674.753474260263
 21
7213.054861982034
 31
0.0
  0
LINE
  5
14504
330
747D
100
AcDbEntity
  8
細線
 48
50.0
100
AcDbLine
 10
4818.753456767671
 20
7267.654905839902
 30
0.0
 11
4183.753466074846
 21
7267.654905839897
 31
0.0
  0
LINE
  5
14505
330
747D
100
AcDbEntity
  8
細線
 48
50.0
100
AcDbLine
 10
4183.753466074846
 20
7264.55105624754
 30
0.0
 11
4183.753466074846
 21
7269.05105624754
 31
0.0
  0
LINE
  5
14506
330
747D
100
AcDbEntity
  8
細線
 48
50.0
100
AcDbLine
 10
4183.753466074846
 20
7269.05105624754
 30
0.0
 11
4168.753466074846
 21
7269.05105624754
 31
0.0
  0
LINE
  5
14507
330
747D
100
AcDbEntity
  8
細線
 48
50.0
100
AcDbLine
 10
4168.753466074846
 20
7269.05105624754
 30
0.0
 11
4168.753466074846
 21
7276.051056247542
 31
0.0
  0
LINE
  5
14508
330
747D
100
AcDbEntity
  8
細線
 48
50.0
100
AcDbLine
 10
4168.753466074846
 20
7276.051056247542
 30
0.0
 11
4153.75346607485
 21
7276.051056247538
 31
0.0
  0
LINE
  5
14509
330
747D
100
AcDbEntity
  8
細線
 48
50.0
100
AcDbLine
 10
4153.75346607485
 20
7276.051056247538
 30
0.0
 11
4153.75346607485
 21
7238.450828144427
 31
0.0
  0
LINE
  5
1450A
330
747D
100
AcDbEntity
  8
細線
 48
50.0
100
AcDbLine
 10
4153.75346607485
 20
7238.450828144427
 30
0.0
 11
4173.753473376023
 21
7238.450869693969
 31
0.0
  0
LINE
  5
1450B
330
747D
100
AcDbEntity
  8
細線
 48
50.0
100
AcDbLine
 10
4173.75342850708
 20
7247.054331329777
 30
0.0
 11
4173.753473376023
 21
7238.450869693969
 31
0.0
  0
LINE
  5
1450C
330
747D
100
AcDbEntity
  8
細線
 48
50.0
100
AcDbLine
 10
4818.753456767671
 20
7264.204905839901
 30
0.0
 11
4818.753456767671
 21
7269.0549058399
 31
0.0
  0
LINE
  5
1450D
330
747D
100
AcDbEntity
  8
細線
 48
50.0
100
AcDbLine
 10
4818.753456767671
 20
7269.0549058399
 30
0.0
 11
4833.753456767667
 21
7269.0549058399
 31
0.0
  0
LINE
  5
1450E
330
747D
100
AcDbEntity
  8
細線
 48
50.0
100
AcDbLine
 10
4833.753456767667
 20
7269.0549058399
 30
0.0
 11
4833.753468401644
 21
7276.054905839943
 31
0.0
  0
LINE
  5
1450F
330
747D
100
AcDbEntity
  8
細線
 48
50.0
100
AcDbLine
 10
4833.753468401644
 20
7276.054905839943
 30
0.0
 11
4848.753466572173
 21
7276.054905839943
 31
0.0
  0
LINE
  5
14510
330
747D
100
AcDbEntity
  8
細線
 48
50.0
100
AcDbLine
 10
4848.753466572173
 20
7276.054905839943
 30
0.0
 11
4848.753456270352
 21
7247.05469966767
 31
0.0
  0
LINE
  5
14511
330
747D
100
AcDbEntity
  8
細線
 48
50.0
100
AcDbLine
 10
4536.253483901136
 20
7247.054707855035
 30
0.0
 11
4466.253735983552
 21
7247.054702417698
 31
0.0
  0
LINE
  5
14512
330
747D
100
AcDbEntity
  8
細線
 48
50.0
100
AcDbLine
 10
4173.75342850708
 20
7247.054331329777
 30
0.0
 11
4184.986117861791
 21
7247.054514282924
 31
0.0
  0
ARC
  5
14513
330
747D
100
AcDbEntity
  8
細線
 48
50.0
100
AcDbCircle
 10
4191.568410169127
 20
7245.854678196536
 30
0.0
 40
1.8
100
AcDbArc
 50
270.0006665777295
 51
345.0005554812987
  0
LINE
  5
14514
330
747D
100
AcDbEntity
  8
細線
 48
50.0
100
AcDbLine
 10
4193.554843615206
 20
7246.313518653815
 30
0.0
 11
4193.307081173007
 21
7245.388820771708
 31
0.0
  0
LINE
  5
14515
330
747D
100
AcDbEntity
  8
細線
 48
50.0
100
AcDbLine
 10
4191.568431110282
 20
7244.054678196658
 30
0.0
 11
4187.938503691513
 21
7244.054635966176
 31
0.0
  0
ARC
  5
14516
330
747D
100
AcDbEntity
  8
細線
 48
50.0
100
AcDbCircle
 10
4187.93848275036
 20
7245.854635966056
 30
0.0
 40
1.8
100
AcDbArc
 50
195.0010443049445
 51
270.0006665777295
  0
LINE
  5
14517
330
747D
100
AcDbEntity
  8
細線
 48
50.0
100
AcDbLine
 10
4185.952055258102
 20
7246.31335093362
 30
0.0
 11
4186.199824754615
 21
7245.388729995038
 31
0.0
  0
ARC
  5
14518
330
747D
100
AcDbEntity
  8
細線
 48
50.0
100
AcDbCircle
 10
4184.986134149354
 20
7246.054514283058
 30
0.0
 40
1.0
100
AcDbArc
 50
15.00104430494449
 51
90.00093320877969
  0
LINE
  5
14519
330
747D
100
AcDbEntity
  8
細線
 48
50.0
100
AcDbLine
 10
4194.520764970309
 20
7247.054708973329
 30
0.0
 11
4195.462525121214
 21
7247.054715547178
 31
0.0
  0
ARC
  5
1451A
330
747D
100
AcDbEntity
  8
細線
 48
50.0
100
AcDbCircle
 10
4194.520771950695
 20
7246.054708973353
 30
0.0
 40
1.0
100
AcDbArc
 50
90.0003999466794
 51
165.0005554812987
  0
LINE
  5
1451B
330
747D
100
AcDbEntity
  8
細線
 48
50.0
100
AcDbLine
 10
4746.25345676766
 20
7247.05469966767
 30
0.0
 11
4848.753456270352
 21
7247.05469966767
 31
0.0
  0
LINE
  5
1451C
330
747D
100
AcDbEntity
  8
細線
 48
50.0
100
AcDbLine
 10
4256.253492086552
 20
7247.054707855035
 30
0.0
 11
4195.153430859632
 21
7247.054715547178
 31
0.0
  0
LINE
  5
1451D
330
747D
100
AcDbEntity
  8
細線
 48
50.0
100
AcDbLine
 10
4676.253492086551
 20
7247.054744696118
 30
0.0
 11
4606.253485132167
 21
7247.05469967345
 31
0.0
  0
LINE
  5
1451E
330
747D
100
AcDbEntity
  8
細線
 48
50.0
100
AcDbLine
 10
4396.25345676766
 20
7247.054699667666
 30
0.0
 11
4326.253439479784
 21
7247.054699667673
 31
0.0
  0
ARC
  5
1451F
330
747D
100
AcDbEntity
  8
細線
 48
50.0
100
AcDbCircle
 10
4832.953461421269
 20
7280.25468780508
 30
0.0
 40
0.8
100
AcDbArc
 50
359.9997333689499
 51
89.99986668437072
  0
ARC
  5
14520
330
747D
100
AcDbEntity
  8
細線
 48
50.0
100
AcDbCircle
 10
4840.553468246363
 20
7280.254698973696
 30
0.0
 40
0.8
100
AcDbArc
 50
90.00014387753465
 51
179.9997333689498
  0
LINE
  5
14521
330
747D
100
AcDbEntity
  8
細線
 48
50.0
100
AcDbLine
 10
4832.953463282702
 20
7281.054687805078
 30
0.0
 11
4827.753461421258
 21
7281.054687805078
 31
0.0
  0
ARC
  5
14522
330
747D
100
AcDbEntity
  8
細線
 48
50.0
100
AcDbCircle
 10
4834.453461421258
 20
7278.75468780508
 30
0.0
 40
0.7
100
AcDbArc
 50
180.0
 51
270.0
  0
ARC
  5
14523
330
747D
100
AcDbEntity
  8
細線
 48
50.0
100
AcDbCircle
 10
4839.053461421261
 20
7278.75468780508
 30
0.0
 40
0.7
100
AcDbArc
 50
270.0
 51
0.0
  0
LINE
  5
14524
330
747D
100
AcDbEntity
  8
細線
 48
50.0
100
AcDbLine
 10
4839.753461421257
 20
7278.75468780508
 30
0.0
 11
4839.753468246374
 21
7280.254702696568
 31
0.0
  0
LINE
  5
14525
330
747D
100
AcDbEntity
  8
細線
 48
50.0
100
AcDbLine
 10
4834.453461421258
 20
7278.05468780508
 30
0.0
 11
4839.053461421261
 21
7278.05468780508
 31
0.0
  0
LINE
  5
14526
330
747D
100
AcDbEntity
  8
細線
 48
50.0
100
AcDbLine
 10
4833.753461421257
 20
7280.25468780508
 30
0.0
 11
4833.753461421257
 21
7278.75468780508
 31
0.0
  0
LINE
  5
14527
330
747D
100
AcDbEntity
  8
細線
 48
50.0
100
AcDbLine
 10
5459.353461421263
 20
7311.054687805079
 30
0.0
 11
4822.753461421257
 21
7311.054687805075
 31
0.0
  0
LINE
  5
14528
330
747D
100
AcDbEntity
  8
細線
 48
50.0
100
AcDbLine
 10
5485.253461421257
 20
7306.054687805083
 30
0.0
 11
5469.353461421263
 21
7306.054687805079
 31
0.0
  0
LINE
  5
14529
330
747D
100
AcDbEntity
  8
細線
 48
50.0
100
AcDbLine
 10
5469.35346142126
 20
7306.054687805079
 30
0.0
 11
5459.353461421263
 21
7311.054687805079
 31
0.0
  0
LINE
  5
1452A
330
747D
100
AcDbEntity
  8
細線
100
AcDbLine
 10
5070.253461421258
 20
7281.054687805078
 30
0.0
 11
5070.253461421258
 21
7310.354687805078
 31
0.0
  0
LINE
  5
1452B
330
747D
100
AcDbEntity
  8
細線
100
AcDbLine
 10
5070.253461421258
 20
7310.354687805078
 30
0.0
 11
5090.253461421259
 21
7310.354687805078
 31
0.0
  0
LINE
  5
1452C
330
747D
100
AcDbEntity
  8
細線
100
AcDbLine
 10
5090.253461421259
 20
7281.054687805078
 30
0.0
 11
5090.253461421259
 21
7310.354687805078
 31
0.0
  0
LINE
  5
1452D
330
747D
100
AcDbEntity
  8
細線
100
AcDbLine
 10
5251.503461421258
 20
7281.054687805078
 30
0.0
 11
5181.503461421258
 21
7281.054687805078
 31
0.0
  0
LINE
  5
1452E
330
747D
100
AcDbEntity
  8
細線
 48
50.0
100
AcDbLine
 10
4971.503461421257
 20
7281.054687805078
 30
0.0
 11
4840.549240994101
 21
7281.054687805078
 31
0.0
  0
LINE
  5
1452F
330
747D
100
AcDbEntity
  8
細線
100
AcDbLine
 10
5111.503461421258
 20
7281.054687805078
 30
0.0
 11
5041.503461421258
 21
7281.054687805078
 31
0.0
  0
LINE
  5
14530
330
747D
100
AcDbEntity
  8
細線
 48
50.0
100
AcDbLine
 10
4827.753461421258
 20
7273.054687805078
 30
0.0
 11
4827.753461421258
 21
7281.054687805078
 31
0.0
  0
LINE
  5
14531
330
747D
100
AcDbEntity
  8
細線
 48
50.0
100
AcDbLine
 10
4807.753461421257
 20
7273.054687805083
 30
0.0
 11
4827.753461421258
 21
7273.054687805078
 31
0.0
  0
LINE
  5
14532
330
747D
100
AcDbEntity
  8
細線
 48
50.0
100
AcDbLine
 10
4822.753461421257
 20
7311.054687805079
 30
0.0
 11
4822.753461421257
 21
7306.054687805079
 31
0.0
  0
LINE
  5
14533
330
747D
100
AcDbEntity
  8
細線
 48
50.0
100
AcDbLine
 10
4807.753461421257
 20
7311.054687805075
 30
0.0
 11
4822.753461421257
 21
7311.054687805079
 31
0.0
  0
LINE
  5
14534
330
747D
100
AcDbEntity
  8
細線
 48
50.0
100
AcDbLine
 10
4807.753461421257
 20
7273.054687805083
 30
0.0
 11
4807.753461421257
 21
7311.054687805075
 31
0.0
  0
LINE
  5
14535
330
747D
100
AcDbEntity
  8
細線
100
AcDbLine
 10
5475.753461421257
 20
7281.054687805078
 30
0.0
 11
5321.503461421258
 21
7281.054687805078
 31
0.0
  0
LINE
  5
14536
330
747D
100
AcDbEntity
  8
細線
 48
50.0
100
AcDbLine
 10
5485.253461421257
 20
7306.054687805083
 30
0.0
 11
5485.253461421257
 21
7281.054687805078
 31
0.0
  0
DIMENSION
  5
147A4
330
747D
100
AcDbEntity
  8
寸法
 48
50.0
100
AcDbDimension
  2
*D28
 10
5542.753461421257
 20
5959.972730302228
 30
0.0
 11
4227.753461421256
 21
6051.984541325849
 31
0.0
 70
    32
 71
     5
 42
2630.000000000002
  3
INABA_S40
100
AcDbAlignedDimension
 13
2912.753461421255
 23
7285.054687805073
 33
0.0
 14
5542.753461421257
 24
7340.054687805073
 34
0.0
100
AcDbRotatedDimension
1001
ACAD
1000
DSTYLE
1002
{
1070
   287
1070
     3
1070
    41
1040
0.5
1070
    44
1040
1.0
1070
   147
1040
0.8
1070
   271
1070
     2
1070
   272
1070
     2
1070
   289
1070
     3
1070
   340
1005
F706
1070
     6
1000
DOT
1070
     7
1000
DOT
1002
}
  0
DIMENSION
  5
147A5
330
747D
100
AcDbEntity
  8
寸法
 48
50.0
100
AcDbDimension
  2
*D29
 10
8172.753461421256
 20
5959.972730302228
 30
0.0
 11
6857.753461421257
 21
6051.984541325849
 31
0.0
 70
    32
 71
     5
 42
2629.999999999999
  3
INABA_S40
100
AcDbAlignedDimension
 13
5542.753461421257
 23
7340.054687805069
 33
0.0
 14
8172.753461421256
 24
7285.054687805073
 34
0.0
100
AcDbRotatedDimension
1001
ACAD
1000
DSTYLE
1002
{
1070
   287
1070
     3
1070
    41
1040
0.5
1070
    44
1040
1.0
1070
   147
1040
0.8
1070
   271
1070
     2
1070
   272
1070
     2
1070
   289
1070
     3
1070
   340
1005
F706
1070
     6
1000
DOT
1070
     7
1000
DOT
1002
}
  0
LWPOLYLINE
  5
147A6
330
747D
100
AcDbEntity
  8
部品1
100
AcDbPolyline
 90
        4
 70
     1
 43
0.0
 10
5161.018128307051
 20
5773.406134769067
 10
5161.018128307051
 20
5533.513813223534
 10
5924.488794535491
 20
5533.513813223534
 10
5924.488794535491
 20
5773.406134769067
  0
TEXT
  5
147A7
330
747D
100
AcDbEntity
  8
部品1
100
AcDbText
 10
5250.937738136092
 20
5580.512605550543
 30
0.0
 40
135.0
  1
平面図
  7
STYLE2
100
AcDbText
  0
DIMENSION
  5
147A8
330
747D
100
AcDbEntity
  8
寸法
100
AcDbDimension
  2
*D30
 10
2581.434647517208
 20
7210.054687805045
 30
0.0
 11
2581.434647517206
 21
7069.569406430807
 31
0.0
 70
   160
 71
     5
 42
75.00000000002728
  3
INABA_S40
100
AcDbAlignedDimension
 13
2912.753461421257
 23
7285.054687805073
 33
0.0
 14
3360.753461421257
 24
7210.054687805045
 34
0.0
 50
90.0
100
AcDbRotatedDimension
1001
ACAD
1000
DSTYLE
1002
{
1070
    41
1040
0.5
1070
    44
1040
1.0
1070
   147
1040
0.8
1070
   271
1070
     2
1070
   272
1070
     2
1070
   289
1070
     3
1070
   340
1005
F706
1070
   343
1005
F744
1070
   344
1005
F744
1002
}
  0
DIMENSION
  5
147A9
330
747D
100
AcDbEntity
  8
寸法
 48
50.0
100
AcDbDimension
  2
*D31
 10
5514.753461421257
 20
6249.097680295824
 30
0.0
 11
4414.875462070114
 21
6249.097680295824
 31
0.0
 70
   160
 71
     5
 42
2154.0
  3
INABA_S40G
100
AcDbAlignedDimension
 13
3360.753461421257
 23
7208.054687805078
 33
0.0
 14
5514.753461421257
 24
7208.054687805078
 34
0.0
100
AcDbRotatedDimension
1001
ACAD
1000
DSTYLE
1002
{
1070
   341
1005
0
1002
}
  0
TEXT
  5
14AEC
330
747D
100
AcDbEntity
  8
文字
 62
     7
 48
50.0
100
AcDbText
 10
15022.63965474516
 20
9570.013745883725
 30
0.0
 40
100.0
  1
F12            1.2
  7
STYLE1
100
AcDbText
  0
LWPOLYLINE
  5
14B53
330
747D
100
AcDbEntity
  8
部品1
 48
50.0
100
AcDbPolyline
 90
        4
 70
     1
 43
0.0
 10
3459.803461421256
 20
3334.362805903256
 10
3462.703461421257
 20
3334.362805903256
 10
3462.703461421257
 20
3343.862805903256
 10
3459.803461421256
 20
3343.862805903256
  0
CIRCLE
  5
14B54
330
747D
100
AcDbEntity
  8
部品1
 48
50.0
100
AcDbCircle
 10
3461.253461421256
 20
3339.112805903256
 30
0.0
 40
9.0
  0
ARC
  5
14B55
330
747D
100
AcDbEntity
  8
細線
 48
50.0
100
AcDbCircle
 10
3461.253461421256
 20
3339.112805903256
 30
0.0
 40
4.0
100
AcDbArc
 50
111.2538091853375
 51
248.7461908146625
  0
ARC
  5
14B56
330
747D
100
AcDbEntity
  8
細線
 48
50.0
100
AcDbCircle
 10
3461.253461421256
 20
3339.112805903256
 30
0.0
 40
17.5
100
AcDbArc
 50
306.4837370612677
 51
233.5162629387323
  0
LINE
  5
14B57
330
747D
100
AcDbEntity
  8
細線
 48
50.0
100
AcDbLine
 10
3471.253461421253
 20
3315.253845322374
 30
0.0
 11
3471.253461421257
 21
3324.238331122615
 31
0.0
  0
LINE
  5
14B58
330
747D
100
AcDbEntity
  8
細線
 48
50.0
100
AcDbLine
 10
3451.253461421256
 20
3315.253845322376
 30
0.0
 11
3451.253461421256
 21
3324.238331122611
 31
0.0
  0
ARC
  5
14B59
330
747D
100
AcDbEntity
  8
細線
 48
50.0
100
AcDbCircle
 10
3461.253461421256
 20
3339.112805903256
 30
0.0
 40
26.5
100
AcDbArc
 50
249.3326835063939
 51
290.6673164933835
  0
ARC
  5
14B5A
330
747D
100
AcDbEntity
  8
細線
 48
50.0
100
AcDbCircle
 10
3470.253461421249
 20
3315.253845322374
 30
0.0
 40
1.0
100
AcDbArc
 50
290.6673164936062
 51
359.9999999998958
  0
ARC
  5
14B5B
330
747D
100
AcDbEntity
  8
細線
 48
50.0
100
AcDbCircle
 10
3452.253461421257
 20
3315.253845322376
 30
0.0
 40
1.0
100
AcDbArc
 50
180.0
 51
249.3326835066164
  0
ARC
  5
14B5C
330
747D
100
AcDbEntity
  8
細線
 48
50.0
100
AcDbCircle
 10
3450.253461421257
 20
3324.238331122611
 30
0.0
 40
1.0
100
AcDbArc
 50
0.0
 51
53.51626293873231
  0
ARC
  5
14B5D
330
747D
100
AcDbEntity
  8
細線
 48
50.0
100
AcDbCircle
 10
3472.25346142126
 20
3324.238331122615
 30
0.0
 40
1.0
100
AcDbArc
 50
126.4837370614917
 51
180.0
  0
ARC
  5
14B5E
330
747D
100
AcDbEntity
  8
細線
 48
50.0
100
AcDbCircle
 10
3461.253461421256
 20
3339.112805903256
 30
0.0
 40
21.5
100
AcDbArc
 50
255.8014401250294
 51
284.1985598749706
  0
ARC
  5
14B5F
330
747D
100
AcDbEntity
  8
細線
 48
50.0
100
AcDbCircle
 10
3461.253461421256
 20
3339.112805903256
 30
0.0
 40
16.5
100
AcDbArc
 50
251.9694646069326
 51
288.0305353930674
  0
LINE
  5
14B60
330
747D
100
AcDbEntity
  8
細線
 48
50.0
100
AcDbLine
 10
3466.753461421256
 20
3318.560433777449
 30
0.0
 11
3466.753461421256
 21
3323.137825464787
 31
0.0
  0
LINE
  5
14B61
330
747D
100
AcDbEntity
  8
細線
 48
50.0
100
AcDbLine
 10
3455.753461421256
 20
3318.560433777449
 30
0.0
 11
3455.753461421256
 21
3323.137825464784
 31
0.0
  0
ARC
  5
14B62
330
747D
100
AcDbEntity
  8
細線
 48
50.0
100
AcDbCircle
 10
3456.053461421259
 20
3323.137825464784
 30
0.0
 40
0.3
100
AcDbArc
 50
71.96946460693259
 51
180.0
  0
ARC
  5
14B63
330
747D
100
AcDbEntity
  8
細線
 48
50.0
100
AcDbCircle
 10
3466.453461421257
 20
3323.137825464787
 30
0.0
 40
0.3
100
AcDbArc
 50
0.0
 51
108.0305353930674
  0
ARC
  5
14B64
330
747D
100
AcDbEntity
  8
細線
 48
50.0
100
AcDbCircle
 10
3466.453461421254
 20
3318.560433777449
 30
0.0
 40
0.3
100
AcDbArc
 50
284.1985598747622
 51
0.0000000001042204
  0
ARC
  5
14B65
330
747D
100
AcDbEntity
  8
細線
 48
50.0
100
AcDbCircle
 10
3456.053461421259
 20
3318.560433777449
 30
0.0
 40
0.3
100
AcDbArc
 50
180.0
 51
255.8014401248081
  0
CIRCLE
  5
14B66
330
747D
100
AcDbEntity
  8
細線
 48
50.0
100
AcDbCircle
 10
3461.253461421256
 20
3339.112805903256
 30
0.0
 40
12.0
  0
ARC
  5
14B67
330
747D
100
AcDbEntity
  8
部品1
 48
50.0
100
AcDbCircle
 10
3461.253461421256
 20
3389.112805903256
 30
0.0
 40
8.5
100
AcDbArc
 50
114.315739171091
 51
245.684260828909
  0
CIRCLE
  5
14B68
330
747D
100
AcDbEntity
  8
細線
 48
50.0
100
AcDbCircle
 10
3461.253461421256
 20
3389.112805903256
 30
0.0
 40
4.5
  0
LWPOLYLINE
  5
14B69
330
747D
100
AcDbEntity
  8
部品1
 48
50.0
100
AcDbPolyline
 90
        2
 70
     0
 43
0.0
 10
3457.753461421257
 20
3407.787655300239
 10
3457.753461421257
 20
3396.858772595672
  0
CIRCLE
  5
14B6A
330
747D
100
AcDbEntity
  8
部品1
 48
50.0
100
AcDbCircle
 10
3461.253461421256
 20
3389.112805903256
 30
0.0
 40
19.0
  0
LWPOLYLINE
  5
14B6B
330
747D
100
AcDbEntity
  8
部品1
 48
50.0
100
AcDbPolyline
 90
        2
 70
     0
 43
0.0
 10
3457.753461421257
 20
3381.366839210841
 10
3457.753461421257
 20
3370.437956506274
  0
LWPOLYLINE
  5
14B6C
330
747D
100
AcDbEntity
  8
部品1
 48
50.0
100
AcDbPolyline
 90
        2
 70
     0
 43
0.0
 10
3464.753461421257
 20
3396.858772595672
 10
3464.753461421257
 20
3407.787655300239
  0
ARC
  5
14B6D
330
747D
100
AcDbEntity
  8
部品1
 48
50.0
100
AcDbCircle
 10
3461.253461421256
 20
3389.112805903256
 30
0.0
 40
8.5
100
AcDbArc
 50
294.315739171091
 51
65.68426082890896
  0
LWPOLYLINE
  5
14B6E
330
747D
100
AcDbEntity
  8
部品1
 48
50.0
100
AcDbPolyline
 90
        2
 70
     0
 43
0.0
 10
3464.753461421257
 20
3370.437956506274
 10
3464.753461421257
 20
3381.366839210841
  0
ARC
  5
14B6F
330
747D
100
AcDbEntity
  8
細線
 48
50.0
100
AcDbCircle
 10
3461.253461421256
 20
3389.112805903256
 30
0.0
 40
16.5
100
AcDbArc
 50
332.0012352654316
 51
27.99876473456844
  0
ARC
  5
14B70
330
747D
100
AcDbEntity
  8
細線
 48
50.0
100
AcDbCircle
 10
3461.253461421256
 20
3389.112805903256
 30
0.0
 40
14.0
100
AcDbArc
 50
326.4074436112843
 51
33.59255638871576
  0
LINE
  5
14B71
330
747D
100
AcDbEntity
  8
細線
 48
50.0
100
AcDbLine
 10
3446.684659136925
 20
3396.858772595672
 30
0.0
 11
3449.591557631567
 21
3396.858772595672
 31
0.0
  0
LINE
  5
14B72
330
747D
100
AcDbEntity
  8
細線
 48
50.0
100
AcDbLine
 10
3446.684659136925
 20
3381.366839210841
 30
0.0
 11
3449.591557631567
 21
3381.366839210841
 31
0.0
  0
LINE
  5
14B73
330
747D
100
AcDbEntity
  8
細線
 48
50.0
100
AcDbLine
 10
3472.915365210945
 20
3396.858772595672
 30
0.0
 11
3475.822263705591
 21
3396.858772595672
 31
0.0
  0
LINE
  5
14B74
330
747D
100
AcDbEntity
  8
細線
 48
50.0
100
AcDbLine
 10
3472.915365210945
 20
3381.366839210841
 30
0.0
 11
3475.822263705591
 21
3381.366839210841
 31
0.0
  0
ARC
  5
14B75
330
747D
100
AcDbEntity
  8
細線
 48
50.0
100
AcDbCircle
 10
3461.253461421256
 20
3389.112805903256
 30
0.0
 40
14.0
100
AcDbArc
 50
146.4074436112842
 51
213.5925563887158
  0
ARC
  5
14B76
330
747D
100
AcDbEntity
  8
細線
 48
50.0
100
AcDbCircle
 10
3461.253461421256
 20
3389.112805903256
 30
0.0
 40
16.5
100
AcDbArc
 50
152.0012352654315
 51
207.9987647345685
  0
ARC
  5
14B77
330
747D
100
AcDbEntity
  8
部品1
 48
50.0
100
AcDbCircle
 10
3434.753461421256
 20
3414.612805903256
 30
0.0
 40
5.0
100
AcDbArc
 50
90.0
 51
180.0
  0
ARC
  5
14B78
330
747D
100
AcDbEntity
  8
部品1
 48
50.0
100
AcDbCircle
 10
3434.753461421256
 20
3303.612805903256
 30
0.0
 40
5.0
100
AcDbArc
 50
180.0
 51
270.0
  0
ARC
  5
14B79
330
747D
100
AcDbEntity
  8
部品1
 48
50.0
100
AcDbCircle
 10
3487.753461421256
 20
3303.612805903256
 30
0.0
 40
5.0
100
AcDbArc
 50
270.0
 51
0.0
  0
ARC
  5
14B7A
330
747D
100
AcDbEntity
  8
部品1
 48
50.0
100
AcDbCircle
 10
3487.753461421256
 20
3414.612805903256
 30
0.0
 40
5.0
100
AcDbArc
 50
0.0
 51
90.0
  0
LINE
  5
14B7B
330
747D
100
AcDbEntity
  8
部品1
 48
50.0
100
AcDbLine
 10
3429.753461421257
 20
3303.612805903256
 30
0.0
 11
3429.753461421257
 21
3414.612805903256
 31
0.0
  0
LINE
  5
14B7C
330
747D
100
AcDbEntity
  8
部品1
 48
50.0
100
AcDbLine
 10
3487.753461421256
 20
3298.612805903257
 30
0.0
 11
3434.753461421256
 21
3298.612805903257
 31
0.0
  0
LINE
  5
14B7D
330
747D
100
AcDbEntity
  8
部品1
 48
50.0
100
AcDbLine
 10
3492.753461421256
 20
3414.612805903256
 30
0.0
 11
3492.753461421256
 21
3303.612805903256
 31
0.0
  0
ENDSEC
  0
SECTION
  2
OBJECTS
  0
DICTIONARY
  5
7471
330
0
100
AcDbDictionary
281
     1
  3
ACAD_COLOR
350
1309A
  3
ACAD_GROUP
350
7472
  3
ACAD_LAYOUT
350
1309B
  3
ACAD_MATERIAL
350
13099
  3
ACAD_MLINESTYLE
350
7473
  3
ACAD_PLOTSETTINGS
350
1309C
  3
ACAD_PLOTSTYLENAME
350
13097
  3
ACDBHEADERROUNDTRIPXREC
350
14B8D
  3
AcDbVariableDictionary
350
14B89
  3
CONTENTDICTIONARY
350
E71C
  3
DRAWINGVARIABLESDICT
350
F3B9
  0
DICTIONARY
  5
13217
330
7467
100
AcDbDictionary
280
     1
281
     1
  3
ACAD_LAYERSTATES
360
13218
  0
DICTIONARY
  5
1309A
102
{ACAD_REACTORS
330
7471
102
}
330
7471
100
AcDbDictionary
281
     1
  0
DICTIONARY
  5
7472
102
{ACAD_REACTORS
330
7471
102
}
330
7471
100
AcDbDictionary
281
     1
  0
DICTIONARY
  5
1309B
102
{ACAD_REACTORS
330
7471
102
}
330
7471
100
AcDbDictionary
281
     1
  3
Model
350
1309D
  3
レイアウト1
350
1309E
  0
DICTIONARY
  5
13099
102
{ACAD_REACTORS
330
7471
102
}
330
7471
100
AcDbDictionary
281
     1
  0
DICTIONARY
  5
7473
102
{ACAD_REACTORS
330
7471
102
}
330
7471
100
AcDbDictionary
281
     1
  3
STANDARD
350
7480
  0
DICTIONARY
  5
1309C
102
{ACAD_REACTORS
330
7471
102
}
330
7471
100
AcDbDictionary
281
     1
  0
ACDBDICTIONARYWDFLT
  5
13097
102
{ACAD_REACTORS
330
7471
102
}
330
7471
100
AcDbDictionary
281
     1
  3
Normal
350
13098
100
AcDbDictionaryWithDefault
340
13098
  0
DICTIONARY
  5
14B8D
102
{ACAD_REACTORS
330
7471
102
}
330
7471
100
AcDbDictionary
281
     1
  3
COLORDICT
350
14B8F
  3
MATERIALDICT
350
14B8E
  0
DICTIONARY
  5
14B89
102
{ACAD_REACTORS
330
7471
102
}
330
7471
100
AcDbDictionary
281
     1
  3
DIMASSOC
350
14B8A
  3
PROJECTNAME
350
14B8B
  0
DICTIONARY
  5
E71C
102
{ACAD_REACTORS
330
7471
102
}
330
7471
100
AcDbDictionary
281
     1
  0
DICTIONARY
  5
F3B9
102
{ACAD_REACTORS
330
7471
102
}
330
7471
100
AcDbDictionary
281
     1
1001
DRAWINGVARIABLESXDATA
1000
POLARMODE
1000
1
  0
DICTIONARY
  5
13218
102
{ACAD_REACTORS
330
13217
102
}
330
13217
100
AcDbDictionary
281
     1
  0
LAYOUT
  5
1309D
102
{ACAD_XDICTIONARY
360
14B90
102
}
102
{ACAD_REACTORS
330
1309B
102
}
330
1309B
100
AcDbPlotSettings
  1

  2
EPSON LP-7000C
  4

  6

 40
0.0
 41
0.0
 42
0.0
 43
0.0
 44
0.0
 45
0.0
 46
0.0
 47
0.0
 48
0.0
 49
0.0
140
0.0
141
0.0
142
1.0
143
1.0
 70
  1712
 72
     0
 73
     0
 74
     0
  7

 75
     0
147
1.0
148
0.0
149
0.0
100
AcDbLayout
  1
Model
 70
     1
 71
     0
 10
0.0
 20
0.0
 11
12.0
 21
9.0
 12
0.0
 22
0.0
 32
0.0
 14
0.0
 24
0.0
 34
0.0
 15
0.0
 25
0.0
 35
0.0
146
0.0
 13
0.0
 23
0.0
 33
0.0
 16
1.0
 26
0.0
 36
0.0
 17
0.0
 27
1.0
 37
0.0
 76
     0
330
747D
  0
LAYOUT
  5
1309E
102
{ACAD_XDICTIONARY
360
14B92
102
}
102
{ACAD_REACTORS
330
1309B
102
}
330
1309B
100
AcDbPlotSettings
  1

  2
EPSON LP-7000C
  4

  6

 40
0.0
 41
0.0
 42
0.0
 43
0.0
 44
0.0
 45
0.0
 46
0.0
 47
0.0
 48
0.0
 49
0.0
140
0.0
141
0.0
142
1.0
143
1.0
 70
   688
 72
     0
 73
     0
 74
     5
  7

 75
    16
147
1.0
148
0.0
149
0.0
100
AcDbLayout
  1
レイアウト1
 70
     0
 71
     1
 10
0.0
 20
0.0
 11
420.0
 21
297.0
 12
0.0
 22
0.0
 32
0.0
 14
1.000000000000000E+20
 24
1.000000000000000E+20
 34
1.000000000000000E+20
 15
-1.000000000000000E+20
 25
-1.000000000000000E+20
 35
-1.000000000000000E+20
146
0.0
 13
0.0
 23
0.0
 33
0.0
 16
1.0
 26
0.0
 36
0.0
 17
0.0
 27
1.0
 37
0.0
 76
     0
330
747A
  0
MLINESTYLE
  5
7480
102
{ACAD_REACTORS
330
7473
102
}
330
7473
100
AcDbMlineStyle
  2
STANDARD
 70
     0
  3

 62
     0
 51
90.0
 52
90.0
 71
     2
 49
0.5
 62
   256
  6
BYLAYER
 49
-0.5
 62
   256
  6
BYLAYER
  0
ACDBPLACEHOLDER
  5
13098
102
{ACAD_REACTORS
330
13097
102
}
330
13097
  0
XRECORD
  5
14B8F
102
{ACAD_REACTORS
330
14B8D
102
}
330
14B8D
100
AcDbXrecord
280
     1
340
1309A
  0
XRECORD
  5
14B8E
102
{ACAD_REACTORS
330
14B8D
102
}
330
14B8D
100
AcDbXrecord
280
     1
340
13099
  0
DICTIONARYVAR
  5
14B8A
102
{ACAD_REACTORS
330
14B89
102
}
330
14B89
100
DictionaryVariables
280
     0
  1
1
  0
DICTIONARYVAR
  5
14B8B
102
{ACAD_REACTORS
330
14B89
102
}
330
14B89
100
DictionaryVariables
280
     0
  1

  0
DICTIONARY
  5
14B90
330
1309D
100
AcDbDictionary
280
     1
281
     1
  3
ACAD_XREC_ROUNDTRIP
360
14B91
  0
DICTIONARY
  5
14B92
330
1309E
100
AcDbDictionary
280
     1
281
     1
  3
ACAD_XREC_ROUNDTRIP
360
14B93
  0
XRECORD
  5
14B91
102
{ACAD_REACTORS
330
14B90
102
}
330
14B90
100
AcDbXrecord
280
     1
102
SHADEPLOT
 70
     0
102
SHADEPLOTRESLEVEL
 70
     2
102
SHADEPLOTCUSTOMDPI
 70
   300
  0
XRECORD
  5
14B93
102
{ACAD_REACTORS
330
14B92
102
}
330
14B92
100
AcDbXrecord
280
     1
102
SHADEPLOT
 70
     0
102
SHADEPLOTRESLEVEL
 70
     2
102
SHADEPLOTCUSTOMDPI
 70
   300
  0
ENDSEC
  0
EOF
