  0
SECTION
  2
HEADER
  9
$ACADVER
  1
AC1015
  9
$ACADMAINTVER
 70
    20
  9
$DWGCODEPAGE
  3
ANSI_932
  9
$INSBASE
 10
0.0
 20
0.0
 30
0.0
  9
$EXTMIN
 10
139.9999999999995
 20
-0.0000000000000909
 30
0.0
  9
$EXTMAX
 10
16307.2
 20
11409.6
 30
0.0
  9
$LIMMIN
 10
0.0
 20
0.0
  9
$LIMMAX
 10
16800.0
 20
11880.0
  9
$ORTHOMODE
 70
     0
  9
$REGENMODE
 70
     1
  9
$FILLMODE
 70
     1
  9
$QTEXTMODE
 70
     0
  9
$MIRRTEXT
 70
     1
  9
$LTSCALE
 40
20.0
  9
$ATTMODE
 70
     1
  9
$TEXTSIZE
 40
100.0
  9
$TRACEWID
 40
1.0
  9
$TEXTSTYLE
  7
STYLE3
  9
$CLAYER
  8
部品1
  9
$CELTYPE
  6
BYLAYER
  9
$CECOLOR
 62
   256
  9
$CELTSCALE
 40
50.0
  9
$DISPSILH
 70
     0
  9
$DIMSCALE
 40
40.0
  9
$DIMASZ
 40
0.5
  9
$DIMEXO
 40
0.5
  9
$DIMDLI
 40
7.0
  9
$DIMRND
 40
0.0
  9
$DIMDLE
 40
0.0
  9
$DIMEXE
 40
1.0
  9
$DIMTP
 40
0.0
  9
$DIMTM
 40
0.0
  9
$DIMTXT
 40
3.0
  9
$DIMCEN
 40
0.0
  9
$DIMTSZ
 40
0.0
  9
$DIMTOL
 70
     0
  9
$DIMLIM
 70
     0
  9
$DIMTIH
 70
     0
  9
$DIMTOH
 70
     0
  9
$DIMSE1
 70
     0
  9
$DIMSE2
 70
     0
  9
$DIMTAD
 70
     3
  9
$DIMZIN
 70
     8
  9
$DIMBLK
  1

  9
$DIMASO
 70
     1
  9
$DIMSHO
 70
     1
  9
$DIMPOST
  1

  9
$DIMAPOST
  1

  9
$DIMALT
 70
     0
  9
$DIMALTD
 70
     2
  9
$DIMALTF
 40
0.0394
  9
$DIMLFAC
 40
1.0
  9
$DIMTOFL
 70
     1
  9
$DIMTVP
 40
0.0
  9
$DIMTIX
 70
     1
  9
$DIMSOXD
 70
     1
  9
$DIMSAH
 70
     1
  9
$DIMBLK1
  1
DOT
  9
$DIMBLK2
  1
DOT
  9
$DIMSTYLE
  2
INABA_S40
  9
$DIMCLRD
 70
     0
  9
$DIMCLRE
 70
     0
  9
$DIMCLRT
 70
     7
  9
$DIMTFAC
 40
1.0
  9
$DIMGAP
 40
0.8
  9
$DIMJUST
 70
     0
  9
$DIMSD1
 70
     0
  9
$DIMSD2
 70
     0
  9
$DIMTOLJ
 70
     1
  9
$DIMTZIN
 70
     0
  9
$DIMALTZ
 70
     0
  9
$DIMALTTZ
 70
     0
  9
$DIMUPT
 70
     0
  9
$DIMDEC
 70
     2
  9
$DIMTDEC
 70
     2
  9
$DIMALTU
 70
     2
  9
$DIMALTTD
 70
     2
  9
$DIMTXSTY
  7
STYLE1
  9
$DIMAUNIT
 70
     0
  9
$DIMADEC
 70
     0
  9
$DIMALTRND
 40
0.0
  9
$DIMAZIN
 70
     0
  9
$DIMDSEP
 70
    46
  9
$DIMATFIT
 70
     3
  9
$DIMFRAC
 70
     0
  9
$DIMLDRBLK
  1

  9
$DIMLUNIT
 70
     2
  9
$DIMLWD
 70
    -2
  9
$DIMLWE
 70
    -2
  9
$DIMTMOVE
 70
     0
  9
$LUNITS
 70
     2
  9
$LUPREC
 70
     1
  9
$SKETCHINC
 40
1.0
  9
$FILLETRAD
 40
5.0
  9
$AUNITS
 70
     0
  9
$AUPREC
 70
     0
  9
$MENU
  1
acad
  9
$ELEVATION
 40
0.0
  9
$PELEVATION
 40
0.0
  9
$THICKNESS
 40
0.0
  9
$LIMCHECK
 70
     0
  9
$CHAMFERA
 40
0.0
  9
$CHAMFERB
 40
0.0
  9
$CHAMFERC
 40
0.0
  9
$CHAMFERD
 40
0.0
  9
$SKPOLY
 70
     0
  9
$TDCREATE
 40
2451590.492424190
  9
$TDUCREATE
 40
2451590.117424190
  9
$TDUPDATE
 40
2455575.701388704
  9
$TDUUPDATE
 40
2455575.326388704
  9
$TDINDWG
 40
0.0966043287
  9
$TDUSRTIMER
 40
0.0966043287
  9
$USRTIMER
 70
     1
  9
$ANGBASE
 50
0.0
  9
$ANGDIR
 70
     0
  9
$PDMODE
 70
     3
  9
$PDSIZE
 40
2.0
  9
$PLINEWID
 40
0.0
  9
$SPLFRAME
 70
     0
  9
$SPLINETYPE
 70
     6
  9
$SPLINESEGS
 70
     8
  9
$HANDSEED
  5
14733
  9
$SURFTAB1
 70
     6
  9
$SURFTAB2
 70
     6
  9
$SURFTYPE
 70
     6
  9
$SURFU
 70
     6
  9
$SURFV
 70
     6
  9
$UCSBASE
  2

  9
$UCSNAME
  2

  9
$UCSORG
 10
0.0
 20
0.0
 30
0.0
  9
$UCSXDIR
 10
1.0
 20
0.0
 30
0.0
  9
$UCSYDIR
 10
0.0
 20
1.0
 30
0.0
  9
$UCSORTHOREF
  2

  9
$UCSORTHOVIEW
 70
     0
  9
$UCSORGTOP
 10
0.0
 20
0.0
 30
0.0
  9
$UCSORGBOTTOM
 10
0.0
 20
0.0
 30
0.0
  9
$UCSORGLEFT
 10
0.0
 20
0.0
 30
0.0
  9
$UCSORGRIGHT
 10
0.0
 20
0.0
 30
0.0
  9
$UCSORGFRONT
 10
0.0
 20
0.0
 30
0.0
  9
$UCSORGBACK
 10
0.0
 20
0.0
 30
0.0
  9
$PUCSBASE
  2

  9
$PUCSNAME
  2

  9
$PUCSORG
 10
0.0
 20
0.0
 30
0.0
  9
$PUCSXDIR
 10
1.0
 20
0.0
 30
0.0
  9
$PUCSYDIR
 10
0.0
 20
1.0
 30
0.0
  9
$PUCSORTHOREF
  2

  9
$PUCSORTHOVIEW
 70
     0
  9
$PUCSORGTOP
 10
0.0
 20
0.0
 30
0.0
  9
$PUCSORGBOTTOM
 10
0.0
 20
0.0
 30
0.0
  9
$PUCSORGLEFT
 10
0.0
 20
0.0
 30
0.0
  9
$PUCSORGRIGHT
 10
0.0
 20
0.0
 30
0.0
  9
$PUCSORGFRONT
 10
0.0
 20
0.0
 30
0.0
  9
$PUCSORGBACK
 10
0.0
 20
0.0
 30
0.0
  9
$USERI1
 70
     0
  9
$USERI2
 70
     0
  9
$USERI3
 70
     0
  9
$USERI4
 70
     0
  9
$USERI5
 70
     0
  9
$USERR1
 40
0.0
  9
$USERR2
 40
0.0
  9
$USERR3
 40
0.0
  9
$USERR4
 40
0.0
  9
$USERR5
 40
0.0
  9
$WORLDVIEW
 70
     1
  9
$SHADEDGE
 70
     3
  9
$SHADEDIF
 70
    70
  9
$TILEMODE
 70
     1
  9
$MAXACTVP
 70
    16
  9
$PINSBASE
 10
0.0
 20
0.0
 30
0.0
  9
$PLIMCHECK
 70
     0
  9
$PEXTMIN
 10
1.000000000000000E+20
 20
1.000000000000000E+20
 30
1.000000000000000E+20
  9
$PEXTMAX
 10
-1.000000000000000E+20
 20
-1.000000000000000E+20
 30
-1.000000000000000E+20
  9
$PLIMMIN
 10
0.0
 20
0.0
  9
$PLIMMAX
 10
420.0
 20
297.0
  9
$UNITMODE
 70
     0
  9
$VISRETAIN
 70
     0
  9
$PLINEGEN
 70
     0
  9
$PSLTSCALE
 70
     0
  9
$TREEDEPTH
 70
  3020
  9
$CMLSTYLE
  2
STANDARD
  9
$CMLJUST
 70
     0
  9
$CMLSCALE
 40
1.0
  9
$PROXYGRAPHICS
 70
     1
  9
$MEASUREMENT
 70
     1
  9
$CELWEIGHT
370
    -1
  9
$ENDCAPS
280
     0
  9
$JOINSTYLE
280
     0
  9
$LWDISPLAY
290
     0
  9
$INSUNITS
 70
     0
  9
$HYPERLINKBASE
  1

  9
$STYLESHEET
  1

  9
$XEDIT
290
     1
  9
$CEPSNTYPE
380
     0
  9
$PSTYLEMODE
290
     1
  9
$FINGERPRINTGUID
  2
{21513052-7D14-4FF1-8CD8-F8EE16604013}
  9
$VERSIONGUID
  2
{E6776872-AF56-4311-ABA2-B9FA80435AF6}
  9
$EXTNAMES
290
     1
  9
$PSVPSCALE
 40
0.0
  9
$OLESTARTUP
290
     0
  0
ENDSEC
  0
SECTION
  2
CLASSES
  0
CLASS
  1
ACDBDICTIONARYWDFLT
  2
AcDbDictionaryWithDefault
  3
ObjectDBX Classes
 90
        0
280
     0
281
     0
  0
CLASS
  1
DICTIONARYVAR
  2
AcDbDictionaryVar
  3
ObjectDBX Classes
 90
        0
280
     0
281
     0
  0
CLASS
  1
ACDBPLACEHOLDER
  2
AcDbPlaceHolder
  3
ObjectDBX Classes
 90
        0
280
     0
281
     0
  0
CLASS
  1
LAYOUT
  2
AcDbLayout
  3
ObjectDBX Classes
 90
        0
280
     0
281
     0
  0
ENDSEC
  0
SECTION
  2
TABLES
  0
TABLE
  2
VPORT
  5
746D
330
0
100
AcDbSymbolTable
 70
     2
  0
VPORT
  5
1472B
330
746D
100
AcDbSymbolTableRecord
100
AcDbViewportTableRecord
  2
*Active
 70
     0
 10
0.0
 20
0.0
 11
1.0
 21
1.0
 12
8223.761025238502
 22
6348.683291179126
 13
0.0
 23
0.0
 14
10.0
 24
10.0
 15
10.0
 25
10.0
 16
0.0
 26
0.0
 36
1.0
 17
0.0
 27
0.0
 37
0.0
 40
12805.56644836532
 41
1.525925925925925
 42
50.0
 43
0.0
 44
0.0
 50
0.0
 51
0.0
 71
     0
 72
     0
 73
     1
 74
     0
 75
     0
 76
     0
 77
     0
 78
     0
281
     0
 65
     1
110
0.0
120
0.0
130
0.0
111
1.0
121
0.0
131
0.0
112
0.0
122
1.0
132
0.0
 79
     0
146
0.0
  0
ENDTAB
  0
TABLE
  2
LTYPE
  5
746A
330
0
100
AcDbSymbolTable
 70
     4
  0
LTYPE
  5
7477
330
746A
100
AcDbSymbolTableRecord
100
AcDbLinetypeTableRecord
  2
BYBLOCK
 70
     0
  3

 72
    65
 73
     0
 40
0.0
  0
LTYPE
  5
7478
330
746A
100
AcDbSymbolTableRecord
100
AcDbLinetypeTableRecord
  2
BYLAYER
 70
     0
  3

 72
    65
 73
     0
 40
0.0
  0
LTYPE
  5
7479
330
746A
100
AcDbSymbolTableRecord
100
AcDbLinetypeTableRecord
  2
CONTINUOUS
 70
     0
  3
Solid line
 72
    65
 73
     0
 40
0.0
  0
LTYPE
  5
7816
330
746A
100
AcDbSymbolTableRecord
100
AcDbLinetypeTableRecord
  2
CENTER
 70
     0
  3
____ _ ____ _ ____ _ ____ _ ____ _ ____ _ ____ 
 72
    65
 73
     4
 40
2.0
 49
1.25
 74
     0
 49
-0.25
 74
     0
 49
0.25
 74
     0
 49
-0.25
 74
     0
  0
LTYPE
  5
781A
330
746A
100
AcDbSymbolTableRecord
100
AcDbLinetypeTableRecord
  2
HIDDEN
 70
     0
  3
__ __ __ __ __ __ __ __ __ __ __ __ __ __ __ __
 72
    65
 73
     2
 40
0.375
 49
0.25
 74
     0
 49
-0.125
 74
     0
  0
LTYPE
  5
781B
330
746A
100
AcDbSymbolTableRecord
100
AcDbLinetypeTableRecord
  2
PHANTOM
 70
     0
  3
______  __  __  ______  __  __  ______  __  __ 
 72
    65
 73
     6
 40
2.5
 49
1.25
 74
     0
 49
-0.25
 74
     0
 49
0.25
 74
     0
 49
-0.25
 74
     0
 49
0.25
 74
     0
 49
-0.25
 74
     0
  0
ENDTAB
  0
TABLE
  2
LAYER
  5
7467
102
{ACAD_XDICTIONARY
360
12EF1
102
}
330
0
100
AcDbSymbolTable
 70
    13
  0
LAYER
  5
7474
330
7467
100
AcDbSymbolTableRecord
100
AcDbLayerTableRecord
  2
0
 70
     0
 62
     7
  6
CONTINUOUS
370
    -3
390
12D72
  0
LAYER
  5
DEB2
330
7467
100
AcDbSymbolTableRecord
100
AcDbLayerTableRecord
  2
センター
 70
     0
 62
     3
  6
CENTER
370
    -3
390
12D72
  0
LAYER
  5
DEB3
330
7467
100
AcDbSymbolTableRecord
100
AcDbLayerTableRecord
  2
寸法
 70
     0
 62
     4
  6
CONTINUOUS
370
    -3
390
12D72
  0
LAYER
  5
DEB4
330
7467
100
AcDbSymbolTableRecord
100
AcDbLayerTableRecord
  2
部品1
 70
     0
 62
     7
  6
CONTINUOUS
370
    -3
390
12D72
  0
LAYER
  5
DEB5
330
7467
100
AcDbSymbolTableRecord
100
AcDbLayerTableRecord
  2
補助
 70
     0
 62
    -1
  6
CONTINUOUS
370
    -3
390
12D72
  0
LAYER
  5
DEB6
330
7467
100
AcDbSymbolTableRecord
100
AcDbLayerTableRecord
  2
文字
 70
     0
 62
     7
  6
CONTINUOUS
370
    -3
390
12D72
  0
LAYER
  5
F255
330
7467
100
AcDbSymbolTableRecord
100
AcDbLayerTableRecord
  2
DEFPOINTS
 70
     0
 62
     7
  6
CONTINUOUS
290
     0
370
    -3
390
12D72
  0
LAYER
  5
10B54
330
7467
100
AcDbSymbolTableRecord
100
AcDbLayerTableRecord
  2
仕様書枠
 70
     0
 62
   230
  6
CONTINUOUS
370
    -3
390
12D72
  0
LAYER
  5
11729
330
7467
100
AcDbSymbolTableRecord
100
AcDbLayerTableRecord
  2
Ｇ．Ｌ
 70
     0
 62
    30
  6
CONTINUOUS
370
    -3
390
12D72
  0
LAYER
  5
1173F
330
7467
100
AcDbSymbolTableRecord
100
AcDbLayerTableRecord
  2
細線
 70
     0
 62
     5
  6
CONTINUOUS
370
    -3
390
12D72
  0
LAYER
  5
11740
330
7467
100
AcDbSymbolTableRecord
100
AcDbLayerTableRecord
  2
点線
 70
     0
 62
     2
  6
HIDDEN
370
    -3
390
12D72
  0
LAYER
  5
11905
330
7467
100
AcDbSymbolTableRecord
100
AcDbLayerTableRecord
  2
破線
 70
     0
 62
     2
  6
HIDDEN
370
    -3
390
12D72
  0
LAYER
  5
12EF0
330
7467
100
AcDbSymbolTableRecord
100
AcDbLayerTableRecord
  2
Ｇ_Ｌ
 70
     0
 62
    30
  6
CONTINUOUS
370
    -3
390
12D72
  0
ENDTAB
  0
TABLE
  2
STYLE
  5
7468
330
0
100
AcDbSymbolTable
 70
     7
  0
STYLE
  5
7475
330
7468
100
AcDbSymbolTableRecord
100
AcDbTextStyleTableRecord
  2
STANDARD
 70
     0
 40
0.0
 41
1.0
 50
0.0
 71
     0
 42
4.0
  3
txt
  4
C:\AutoCAD LT\bigfont.shx
  0
STYLE
  5
763C
330
7468
100
AcDbSymbolTableRecord
100
AcDbTextStyleTableRecord
  2
MSMINCHO
 70
     0
 40
0.0
 41
1.0
 50
0.0
 71
     0
 42
1.199999999999999
  3
C:\AutoCAD LT\msminch2.TTF
  4

  0
STYLE
  5
F5E9
330
7468
100
AcDbSymbolTableRecord
100
AcDbTextStyleTableRecord
  2

 70
     1
 40
0.0
 41
1.0
 50
0.0
 71
     0
 42
4.0
  3
ltypeshp.shx
  4

  0
STYLE
  5
F706
330
7468
100
AcDbSymbolTableRecord
100
AcDbTextStyleTableRecord
  2
STYLE1
 70
     0
 40
0.0
 41
1.0
 50
0.0
 71
     0
 42
4.0
  3
isocp.shx
  4
bigfont.shx
  0
STYLE
  5
103BF
330
7468
100
AcDbSymbolTableRecord
100
AcDbTextStyleTableRecord
  2
STYLE2
 70
     0
 40
0.0
 41
1.0
 50
0.0
 71
     0
 42
100.0
  3
MS PGothic.ttf
  4

1001
ACAD
1000
MS PGothic
1071
    32818
  0
STYLE
  5
10BAA
330
7468
100
AcDbSymbolTableRecord
100
AcDbTextStyleTableRecord
  2
STYLE3
 70
     0
 40
0.0
 41
1.0
 50
0.0
 71
     0
 42
100.0
  3

  4

1001
ACAD
1000
DFPGothic-EB
1071
    32818
  0
STYLE
  5
11906
330
7468
100
AcDbSymbolTableRecord
100
AcDbTextStyleTableRecord
  2
MSGOTHIC
 70
     0
 40
0.0
 41
1.0
 50
0.0
 71
     0
 42
3.5
  3
msgothi2.ttf
  4

  0
ENDTAB
  0
TABLE
  2
VIEW
  5
746B
330
0
100
AcDbSymbolTable
 70
     0
  0
ENDTAB
  0
TABLE
  2
UCS
  5
746C
330
0
100
AcDbSymbolTable
 70
     0
  0
ENDTAB
  0
TABLE
  2
APPID
  5
746E
330
0
100
AcDbSymbolTable
 70
     6
  0
APPID
  5
7476
330
746E
100
AcDbSymbolTableRecord
100
AcDbRegAppTableRecord
  2
ACAD
 70
     0
  0
APPID
  5
DEA9
330
746E
100
AcDbSymbolTableRecord
100
AcDbRegAppTableRecord
  2
CONTENTBLOCKICON
 70
     0
  0
APPID
  5
DEAA
330
746E
100
AcDbSymbolTableRecord
100
AcDbRegAppTableRecord
  2
CONTENTBLOCKDESCRIPTION
 70
     0
  0
APPID
  5
E71D
330
746E
100
AcDbSymbolTableRecord
100
AcDbRegAppTableRecord
  2
CONTENTTABDATA
 70
     0
  0
APPID
  5
E71E
330
746E
100
AcDbSymbolTableRecord
100
AcDbRegAppTableRecord
  2
CONTENTCURRENTTAB
 70
     0
  0
APPID
  5
F3BA
330
746E
100
AcDbSymbolTableRecord
100
AcDbRegAppTableRecord
  2
DRAWINGVARIABLESXDATA
 70
     0
  0
ENDTAB
  0
TABLE
  2
DIMSTYLE
  5
746F
330
0
100
AcDbSymbolTable
 70
     6
100
AcDbDimStyleTable
 71
     0
  0
DIMSTYLE
105
7484
330
746F
100
AcDbSymbolTableRecord
100
AcDbDimStyleTableRecord
  2
JIS
 70
     0
 41
2.5
 42
1.0
 43
7.0
 44
1.0
 73
     0
 74
     0
 77
     1
 78
     8
140
2.5
141
0.0
143
0.0394
147
0.0
172
     1
174
     1
175
     1
340
7475
  0
DIMSTYLE
105
F236
102
{ACAD_REACTORS
330
1324A
330
1324B
330
1324C
330
1324D
330
1324E
330
1326F
330
13270
330
13284
330
132B7
330
132C2
330
13A39
330
140C7
330
14393
330
14394
330
14397
102
}
330
746F
100
AcDbSymbolTableRecord
100
AcDbDimStyleTableRecord
  2
INABA_S40
 70
     0
 40
40.0
 41
2.5
 42
0.5
 43
7.0
 44
1.5
 73
     0
 74
     0
 77
     3
 78
     8
140
3.0
141
0.0
143
0.0394
147
1.0
172
     1
173
     1
174
     1
175
     1
178
     7
289
     0
340
7475
  0
DIMSTYLE
105
F71F
102
{ACAD_REACTORS
330
13398
330
13399
330
1339A
330
133A9
330
139CA
330
139D9
330
139E9
330
139EA
330
139EB
330
139EF
330
13A1F
330
13A20
330
13A21
330
14398
330
1467B
102
}
330
746F
100
AcDbSymbolTableRecord
100
AcDbDimStyleTableRecord
  2
INABA_S40G
 70
     0
 40
40.0
 41
2.5
 42
0.5
 43
7.0
 44
1.5
 73
     0
 74
     0
 77
     3
 78
     8
140
3.0
141
0.0
143
0.0394
147
1.0
172
     1
173
     1
174
     1
175
     1
178
     7
271
     1
340
F706
341
F770
343
F770
344
F770
  0
DIMSTYLE
105
11907
330
746F
100
AcDbSymbolTableRecord
100
AcDbDimStyleTableRecord
  2
INABA_S50
 70
     0
 40
50.0
 41
0.5
 42
0.5
 43
7.0
 44
1.0
 73
     0
 74
     0
 77
     3
 78
     8
140
2.5
141
0.0
143
0.0394
147
0.8
172
     1
173
     1
174
     1
175
     1
178
     7
271
     2
272
     2
289
     0
340
7475
341
F744
343
F744
344
F744
  0
DIMSTYLE
105
11908
330
746F
100
AcDbSymbolTableRecord
100
AcDbDimStyleTableRecord
  2
INABA_S50G
 70
     0
 41
125.0
 42
25.0
 43
7.0
 44
75.0
 73
     0
 74
     0
 77
     3
 78
     8
140
150.0
141
0.0
143
0.0394
147
25.0
172
     1
173
     1
174
     1
175
     1
178
     7
271
     1
340
F706
341
F770
343
F770
344
F770
  0
DIMSTYLE
105
146C2
330
746F
100
AcDbSymbolTableRecord
100
AcDbDimStyleTableRecord
  2
INABA_S20G
 70
     0
 40
20.0
 41
2.5
 42
0.5
 43
7.0
 44
1.5
 73
     0
 74
     0
 77
     3
 78
     8
140
3.0
141
0.0
143
0.0394
147
1.0
172
     1
173
     1
174
     1
178
     7
271
     1
340
F706
341
F770
343
F770
344
F770
  0
ENDTAB
  0
TABLE
  2
BLOCK_RECORD
  5
7466
330
0
100
AcDbSymbolTable
 70
    33
  0
BLOCK_RECORD
  5
747D
330
7466
100
AcDbSymbolTableRecord
100
AcDbBlockTableRecord
  2
*MODEL_SPACE
340
12D77
  0
BLOCK_RECORD
  5
747A
330
7466
100
AcDbSymbolTableRecord
100
AcDbBlockTableRecord
  2
*PAPER_SPACE
340
12D78
  0
BLOCK_RECORD
  5
ECB3
330
7466
100
AcDbSymbolTableRecord
100
AcDbBlockTableRecord
  2
作図枠S50
340
0
310
2800000020000000200000000100040000000000000200000000000000000000000000000000000000000000000080000080000000808000800000008000800080800000C0C0C000808080000000FF0000FF000000FFFF00FF000000FF00FF00FFFF0000FFFFFF00FFFFFFFFFFFFFFFFFFFFFFFFFFFFFFFFFFFFFFFFFFFFFF
310
FFFFFFFFFFFFFFFFFFFFFFFFFFFFFFFFFFFFFFFFFFFFFFFFFFFFFFFFFFFFFFFFFFFFFFFFFFFFFFFFFFFFFFFFFFFFFFFFFFFFFFFFFFFFFFFFFFFFFFFFFFFFFFFFFFFFFFFFFFFFFFFFFF999999999999999999999999999999999FFFFFFFFFFFFFFFFFFFFFFFFFFFFFF99FFFFFFFFFFFFFFFFFFFFFFFFFFFFFF99FFFFFFFFFFF
310
FFFFFFFFFFFFFFFFFFF99FFFFFFFFFFFFFFFFFFFFFFFFFFFFFF99FFFFFFFFFFFFFFFFFFFFFFFFFFFFFF99FFFFFFFFFFFFFFFFFFFFFFFFFFFFFF99FFFFFFFFFFFFFFFFFFFFFFFFFFFFFF99FFFFFFFFFFFFFFFFFFFFFFFFFFFFFF99FFFFFFFFFFFFFFFFFFFFFFFFFFFFFF99FFFFFFFFFFFFFFFFFFFFFFFFFFFFFF99FFFFFFFFF
310
FFFFFFFFFFFFFFFFFFFFF99FFFFFFFFFFFFFFFFFFFFFFFFFFFFFF99FFFFFFFFFFFFFFFFFFFFFFFFFFFFFF99FFFFFFFFFFFFFFFFFFFFFFFFFFFFFF99FFFFFFFFFFFFFFFFFFFFFFFFFFFFFF99FFFFFFFFFFFFFFFFFFFFFFFFFFFFFF99FFFFFFFFFFFFFFFFFFFFFFFFFFFFFF99FFFFFFFFFFFFFFFFFFFFF99999999999FFFFFFF
310
FFFFFFFFFFFFFF9FFFFFFFFF99999999999999999999999FFFFFFFFFFFFFFFFFFFFFFFFFFFFFFFFFFFFFFFFFFFFFFFFFFFFFFFFFFFFFFFFFFFFFFFFFFFFFFFFFFFFFFFFFFFFFFFFFFFFFFFFFFFFFFFFFFFFFFFFFFFFFFFFFFFFFFFFFFFFFFFFFFFFFFFFFFFFFFFFFFFFFFFFF
102
{BLKREFS
331
F235
102
}
  0
BLOCK_RECORD
  5
F744
330
7466
100
AcDbSymbolTableRecord
100
AcDbBlockTableRecord
  2
_DOT
340
0
102
{BLKREFS
331
13E3B
331
13E3C
331
13F1A
331
13F1B
331
13F23
331
13F24
331
13F2E
331
13F2F
331
13F37
331
13F38
331
13F56
331
13F57
331
13F5F
331
13F60
331
13F6A
331
13F6B
331
13F73
331
13F74
331
13F7C
331
13F7D
331
13F87
331
13F88
331
14189
331
1418A
331
14625
331
14626
331
1462E
331
1462F
331
14639
331
1463A
102
}
  0
BLOCK_RECORD
  5
F770
330
7466
100
AcDbSymbolTableRecord
100
AcDbBlockTableRecord
  2
_DOTSMALL
340
0
102
{BLKREFS
331
13E44
331
13E45
331
13E4D
331
13E4E
331
13E56
331
13E57
331
13E61
331
13E62
331
13E6A
331
13E6B
331
13E75
331
13E76
331
13E7E
331
13E7F
331
13E88
331
13E89
331
13E92
331
13E93
331
13E9D
331
13E9E
331
13EA8
331
13EA9
331
13EB1
331
13EB2
331
13EBA
331
13EBB
331
1461C
331
1461D
331
14691
331
14692
102
}
  0
BLOCK_RECORD
  5
1355D
330
7466
100
AcDbSymbolTableRecord
100
AcDbBlockTableRecord
  2
*D3
340
0
  0
BLOCK_RECORD
  5
1356B
330
7466
100
AcDbSymbolTableRecord
100
AcDbBlockTableRecord
  2
*D4
340
0
  0
BLOCK_RECORD
  5
13577
330
7466
100
AcDbSymbolTableRecord
100
AcDbBlockTableRecord
  2
*D5
340
0
  0
BLOCK_RECORD
  5
13585
330
7466
100
AcDbSymbolTableRecord
100
AcDbBlockTableRecord
  2
*D6
340
0
  0
BLOCK_RECORD
  5
13591
330
7466
100
AcDbSymbolTableRecord
100
AcDbBlockTableRecord
  2
*D7
340
0
  0
BLOCK_RECORD
  5
1359F
330
7466
100
AcDbSymbolTableRecord
100
AcDbBlockTableRecord
  2
*D8
340
0
  0
BLOCK_RECORD
  5
135AB
330
7466
100
AcDbSymbolTableRecord
100
AcDbBlockTableRecord
  2
*D9
340
0
  0
BLOCK_RECORD
  5
135C3
330
7466
100
AcDbSymbolTableRecord
100
AcDbBlockTableRecord
  2
*D10
340
0
  0
BLOCK_RECORD
  5
135DD
330
7466
100
AcDbSymbolTableRecord
100
AcDbBlockTableRecord
  2
*D11
340
0
  0
BLOCK_RECORD
  5
135E9
330
7466
100
AcDbSymbolTableRecord
100
AcDbBlockTableRecord
  2
*D12
340
0
  0
BLOCK_RECORD
  5
1360F
330
7466
100
AcDbSymbolTableRecord
100
AcDbBlockTableRecord
  2
*D13
340
0
  0
BLOCK_RECORD
  5
1361B
330
7466
100
AcDbSymbolTableRecord
100
AcDbBlockTableRecord
  2
*D14
340
0
  0
BLOCK_RECORD
  5
13627
330
7466
100
AcDbSymbolTableRecord
100
AcDbBlockTableRecord
  2
*D15
340
0
  0
BLOCK_RECORD
  5
13635
330
7466
100
AcDbSymbolTableRecord
100
AcDbBlockTableRecord
  2
*D16
340
0
  0
BLOCK_RECORD
  5
13B23
330
7466
100
AcDbSymbolTableRecord
100
AcDbBlockTableRecord
  2
*D17
340
0
  0
BLOCK_RECORD
  5
13B30
330
7466
100
AcDbSymbolTableRecord
100
AcDbBlockTableRecord
  2
*D18
340
0
  0
BLOCK_RECORD
  5
13B3D
330
7466
100
AcDbSymbolTableRecord
100
AcDbBlockTableRecord
  2
*D19
340
0
  0
BLOCK_RECORD
  5
13B49
330
7466
100
AcDbSymbolTableRecord
100
AcDbBlockTableRecord
  2
*D20
340
0
  0
BLOCK_RECORD
  5
13B57
330
7466
100
AcDbSymbolTableRecord
100
AcDbBlockTableRecord
  2
*D21
340
0
  0
BLOCK_RECORD
  5
13B63
330
7466
100
AcDbSymbolTableRecord
100
AcDbBlockTableRecord
  2
*D22
340
0
  0
BLOCK_RECORD
  5
13B71
330
7466
100
AcDbSymbolTableRecord
100
AcDbBlockTableRecord
  2
*D23
340
0
  0
BLOCK_RECORD
  5
13B7D
330
7466
100
AcDbSymbolTableRecord
100
AcDbBlockTableRecord
  2
*D24
340
0
  0
BLOCK_RECORD
  5
13B89
330
7466
100
AcDbSymbolTableRecord
100
AcDbBlockTableRecord
  2
*D25
340
0
  0
BLOCK_RECORD
  5
13B95
330
7466
100
AcDbSymbolTableRecord
100
AcDbBlockTableRecord
  2
*D26
340
0
  0
BLOCK_RECORD
  5
14132
330
7466
100
AcDbSymbolTableRecord
100
AcDbBlockTableRecord
  2
*D27
340
0
  0
BLOCK_RECORD
  5
144CA
330
7466
100
AcDbSymbolTableRecord
100
AcDbBlockTableRecord
  2
*D28
340
0
  0
BLOCK_RECORD
  5
144D6
330
7466
100
AcDbSymbolTableRecord
100
AcDbBlockTableRecord
  2
*D29
340
0
  0
BLOCK_RECORD
  5
144E2
330
7466
100
AcDbSymbolTableRecord
100
AcDbBlockTableRecord
  2
*D30
340
0
  0
BLOCK_RECORD
  5
144F0
330
7466
100
AcDbSymbolTableRecord
100
AcDbBlockTableRecord
  2
*D31
340
0
  0
BLOCK_RECORD
  5
14682
330
7466
100
AcDbSymbolTableRecord
100
AcDbBlockTableRecord
  2
*D32
340
0
  0
ENDTAB
  0
ENDSEC
  0
SECTION
  2
BLOCKS
  0
BLOCK
  5
7489
330
747D
100
AcDbEntity
  8
0
100
AcDbBlockBegin
  2
*MODEL_SPACE
 70
     0
 10
0.0
 20
0.0
 30
0.0
  3
*MODEL_SPACE
  1

  0
ENDBLK
  5
748A
330
747D
100
AcDbEntity
  8
0
100
AcDbBlockEnd
  0
BLOCK
  5
7487
330
747A
100
AcDbEntity
 67
     1
  8
0
100
AcDbBlockBegin
  2
*PAPER_SPACE
 70
     0
 10
0.0
 20
0.0
 30
0.0
  3
*PAPER_SPACE
  1

  0
ENDBLK
  5
7488
330
747A
100
AcDbEntity
 67
     1
  8
0
100
AcDbBlockEnd
  0
BLOCK
  5
ECB4
330
ECB3
100
AcDbEntity
  8
0
100
AcDbBlockBegin
  2
作図枠S50
 70
     0
 10
0.0
 20
0.0
 30
0.0
  3
作図枠S50
  1

  4
作図領域枠 縮尺 1/50
  0
LINE
  5
ECB5
330
ECB3
100
AcDbEntity
  8
補助
100
AcDbLine
 10
14364.0
 20
14262.0
 30
0.0
 11
174.9999999999993
 21
14262.0
 31
0.0
  0
LINE
  5
ECB6
330
ECB3
100
AcDbEntity
  8
補助
100
AcDbLine
 10
174.9999999999993
 20
14262.0
 30
0.0
 11
174.9999999999993
 21
1520.0
 31
0.0
  0
LINE
  5
ECB7
330
ECB3
100
AcDbEntity
  8
補助
100
AcDbLine
 10
174.9999999999993
 20
1520.0
 30
0.0
 11
20384.0
 21
1520.0
 31
0.0
  0
LINE
  5
ECB8
330
ECB3
100
AcDbEntity
  8
補助
100
AcDbLine
 10
20384.0
 20
1520.0
 30
0.0
 11
20384.0
 21
13042.0
 31
0.0
  0
LINE
  5
ECB9
330
ECB3
100
AcDbEntity
  8
補助
100
AcDbLine
 10
20384.0
 20
13042.0
 30
0.0
 11
14364.0
 21
13042.0
 31
0.0
  0
LINE
  5
ECBA
330
ECB3
100
AcDbEntity
  8
補助
100
AcDbLine
 10
14364.0
 20
13042.0
 30
0.0
 11
14364.0
 21
14262.0
 31
0.0
  0
ENDBLK
  5
ECBB
330
ECB3
100
AcDbEntity
  8
0
100
AcDbBlockEnd
  0
BLOCK
  5
F745
330
F744
100
AcDbEntity
  8
0
 48
50.0
100
AcDbBlockBegin
  2
_DOT
 70
     0
 10
0.0
 20
0.0
 30
0.0
  3
_DOT
  1

  0
LWPOLYLINE
  5
F746
330
F744
100
AcDbEntity
  8
0
  6
ByBlock
 62
     0
 48
50.0
100
AcDbPolyline
 90
        2
 70
     1
 43
0.5
 10
-0.25
 20
0.0
 42
1.0
 10
0.25
 20
0.0
 42
1.0
  0
LINE
  5
F74A
330
F744
100
AcDbEntity
  8
0
  6
ByBlock
 62
     0
 48
50.0
100
AcDbLine
 10
-0.5
 20
0.0
 30
0.0
 11
-1.0
 21
0.0
 31
0.0
  0
ENDBLK
  5
F74B
330
F744
100
AcDbEntity
  8
0
 48
50.0
100
AcDbBlockEnd
  0
BLOCK
  5
F771
330
F770
100
AcDbEntity
  8
0
 48
50.0
100
AcDbBlockBegin
  2
_DOTSMALL
 70
     0
 10
0.0
 20
0.0
 30
0.0
  3
_DOTSMALL
  1

  0
LWPOLYLINE
  5
F772
330
F770
100
AcDbEntity
  8
0
  6
ByBlock
 62
     0
 48
50.0
100
AcDbPolyline
 90
        2
 70
     1
 43
0.5
 10
-0.0625
 20
0.0
 42
1.0
 10
0.0625
 20
0.0
 42
1.0
  0
ENDBLK
  5
F776
330
F770
100
AcDbEntity
  8
0
 48
50.0
100
AcDbBlockEnd
  0
BLOCK
  5
13569
330
1355D
100
AcDbEntity
  8
0
 48
50.0
100
AcDbBlockBegin
  2
*D3
 70
     1
 10
0.0
 20
0.0
 30
0.0
  3
*D3
  1

  0
LINE
  5
13F82
330
1355D
100
AcDbEntity
  8
寸法
 62
     0
 48
50.0
370
    -2
100
AcDbLine
 10
8186.350663344681
 20
9790.729096344959
 30
0.0
 11
8186.350663344681
 21
10185.44150636375
 31
0.0
  0
LINE
  5
13F83
330
1355D
100
AcDbEntity
  8
寸法
 62
     0
 48
50.0
370
    -2
100
AcDbLine
 10
8241.350663344681
 20
9790.729096344955
 30
0.0
 11
8241.350663344681
 21
10185.44150636375
 31
0.0
  0
LINE
  5
13F84
330
1355D
100
AcDbEntity
  8
寸法
 62
     0
 48
50.0
370
    -2
100
AcDbLine
 10
8166.350663344681
 20
10145.44150636375
 30
0.0
 11
8146.350663344682
 21
10145.44150636375
 31
0.0
  0
LINE
  5
13F85
330
1355D
100
AcDbEntity
  8
寸法
 62
     0
 48
50.0
370
    -2
100
AcDbLine
 10
8261.350663344682
 20
10145.44150636375
 30
0.0
 11
8736.002611385588
 21
10145.44150636375
 31
0.0
  0
LINE
  5
13F86
330
1355D
100
AcDbEntity
  8
寸法
 62
     0
 48
50.0
370
    -2
100
AcDbLine
 10
8186.350663344681
 20
10145.44150636375
 30
0.0
 11
8241.350663344681
 21
10145.44150636375
 31
0.0
  0
INSERT
  5
13F87
330
1355D
100
AcDbEntity
  8
寸法
 62
     0
 48
50.0
370
    -2
100
AcDbBlockReference
  2
_DOT
 10
8186.350663344681
 20
10145.44150636375
 30
0.0
 41
20.0
 42
20.0
 43
20.0
  0
INSERT
  5
13F88
330
1355D
100
AcDbEntity
  8
寸法
 62
     0
 48
50.0
370
    -2
100
AcDbBlockReference
  2
_DOT
 10
8241.350663344681
 20
10145.44150636375
 30
0.0
 41
20.0
 42
20.0
 43
20.0
 50
180.0
  0
MTEXT
  5
13F89
330
1355D
100
AcDbEntity
  8
寸法
 62
     7
 48
50.0
100
AcDbMText
 10
8635.517330011349
 20
10237.44150636375
 30
0.0
 40
120.0
 41
0.0
 71
     5
 72
     1
  1
\A1;55
  7
STYLE1
 73
     1
 44
1.0
1001
ACAD
1000
MTEXTBEGIN
1070
    73
1070
     1
1070
    44
1040
1.0
1070
    74
1070
     0
1000
MTEXTEND
  0
POINT
  5
13F8A
330
1355D
100
AcDbEntity
  8
DEFPOINTS
 62
     0
 48
50.0
100
AcDbPoint
 10
8186.350663344681
 20
9770.729096344958
 30
0.0
  0
POINT
  5
13F8B
330
1355D
100
AcDbEntity
  8
DEFPOINTS
 62
     0
 48
50.0
100
AcDbPoint
 10
8241.350663344681
 20
9770.729096344958
 30
0.0
  0
POINT
  5
13F8C
330
1355D
100
AcDbEntity
  8
DEFPOINTS
 62
     0
 48
50.0
100
AcDbPoint
 10
8241.350663344681
 20
10145.44150636375
 30
0.0
  0
ENDBLK
  5
1356A
330
1355D
100
AcDbEntity
  8
0
 48
50.0
100
AcDbBlockEnd
  0
BLOCK
  5
13575
330
1356B
100
AcDbEntity
  8
0
 48
50.0
100
AcDbBlockBegin
  2
*D4
 70
     1
 10
0.0
 20
0.0
 30
0.0
  3
*D4
  1

  0
LINE
  5
13F34
330
1356B
100
AcDbEntity
  8
寸法
 62
     0
 48
50.0
370
    -2
100
AcDbLine
 10
8261.350663344682
 20
9770.729096344958
 30
0.0
 11
9352.097780389035
 21
9770.729096344958
 31
0.0
  0
LINE
  5
13F35
330
1356B
100
AcDbEntity
  8
寸法
 62
     0
 48
50.0
370
    -2
100
AcDbLine
 10
8261.350663344682
 20
7140.729096344955
 30
0.0
 11
9352.097780389035
 21
7140.729096344955
 31
0.0
  0
LINE
  5
13F36
330
1356B
100
AcDbEntity
  8
寸法
 62
     0
 48
50.0
370
    -2
100
AcDbLine
 10
9312.097780389034
 20
9750.729096344956
 30
0.0
 11
9312.097780389034
 21
7160.729096344955
 31
0.0
  0
INSERT
  5
13F37
330
1356B
100
AcDbEntity
  8
寸法
 62
     0
 48
50.0
370
    -2
100
AcDbBlockReference
  2
_DOT
 10
9312.097780389034
 20
9770.729096344958
 30
0.0
 41
20.0
 42
20.0
 43
20.0
 50
90.0
  0
INSERT
  5
13F38
330
1356B
100
AcDbEntity
  8
寸法
 62
     0
 48
50.0
370
    -2
100
AcDbBlockReference
  2
_DOT
 10
9312.097780389034
 20
7140.729096344955
 30
0.0
 41
20.0
 42
20.0
 43
20.0
 50
270.0
  0
MTEXT
  5
13F39
330
1356B
100
AcDbEntity
  8
寸法
 62
     7
 48
50.0
100
AcDbMText
 10
9220.085969365412
 20
8455.729096344958
 30
0.0
 40
120.0
 41
0.0
 71
     5
 72
     1
  1
\A1;2630
  7
STYLE1
 11
0.0000000000000001
 21
1.0
 31
0.0
 73
     1
 44
1.0
1001
ACAD
1000
MTEXTBEGIN
1070
    73
1070
     1
1070
    44
1040
1.0
1070
    74
1070
     0
1000
MTEXTEND
  0
POINT
  5
13F3A
330
1356B
100
AcDbEntity
  8
DEFPOINTS
 62
     0
 48
50.0
100
AcDbPoint
 10
8241.350663344681
 20
9770.729096344958
 30
0.0
  0
POINT
  5
13F3B
330
1356B
100
AcDbEntity
  8
DEFPOINTS
 62
     0
 48
50.0
100
AcDbPoint
 10
8241.350663344681
 20
7140.729096344955
 30
0.0
  0
POINT
  5
13F3C
330
1356B
100
AcDbEntity
  8
DEFPOINTS
 62
     0
 48
50.0
100
AcDbPoint
 10
9312.097780389034
 20
7140.729096344955
 30
0.0
  0
ENDBLK
  5
13576
330
1356B
100
AcDbEntity
  8
0
 48
50.0
100
AcDbBlockEnd
  0
BLOCK
  5
13583
330
13577
100
AcDbEntity
  8
0
 48
50.0
100
AcDbBlockBegin
  2
*D5
 70
     1
 10
0.0
 20
0.0
 30
0.0
  3
*D5
  1

  0
LINE
  5
13F29
330
13577
100
AcDbEntity
  8
寸法
 62
     0
 48
50.0
370
    -2
100
AcDbLine
 10
8261.350663344682
 20
7195.729096344952
 30
0.0
 11
9052.097780389036
 21
7195.729096344952
 31
0.0
  0
LINE
  5
13F2A
330
13577
100
AcDbEntity
  8
寸法
 62
     0
 48
50.0
370
    -2
100
AcDbLine
 10
8261.350663344682
 20
7140.729096344955
 30
0.0
 11
9052.097780389036
 21
7140.729096344955
 31
0.0
  0
LINE
  5
13F2B
330
13577
100
AcDbEntity
  8
寸法
 62
     0
 48
50.0
370
    -2
100
AcDbLine
 10
9012.097780389037
 20
7215.729096344952
 30
0.0
 11
9012.097780389037
 21
7235.729096344953
 31
0.0
  0
LINE
  5
13F2C
330
13577
100
AcDbEntity
  8
寸法
 62
     0
 48
50.0
370
    -2
100
AcDbLine
 10
9012.097780389037
 20
7120.729096344955
 30
0.0
 11
9012.097780389037
 21
6646.07714830405
 31
0.0
  0
LINE
  5
13F2D
330
13577
100
AcDbEntity
  8
寸法
 62
     0
 48
50.0
370
    -2
100
AcDbLine
 10
9012.097780389037
 20
7195.729096344952
 30
0.0
 11
9012.097780389037
 21
7140.729096344955
 31
0.0
  0
INSERT
  5
13F2E
330
13577
100
AcDbEntity
  8
寸法
 62
     0
 48
50.0
370
    -2
100
AcDbBlockReference
  2
_DOT
 10
9012.097780389037
 20
7195.729096344952
 30
0.0
 41
20.0
 42
20.0
 43
20.0
 50
270.0
  0
INSERT
  5
13F2F
330
13577
100
AcDbEntity
  8
寸法
 62
     0
 48
50.0
370
    -2
100
AcDbBlockReference
  2
_DOT
 10
9012.097780389037
 20
7140.729096344955
 30
0.0
 41
20.0
 42
20.0
 43
20.0
 50
90.0
  0
MTEXT
  5
13F30
330
13577
100
AcDbEntity
  8
寸法
 62
     7
 48
50.0
100
AcDbMText
 10
8920.097780389035
 20
6746.562429678291
 30
0.0
 40
120.0
 41
0.0
 71
     5
 72
     1
  1
\A1;55
  7
STYLE1
 11
0.0000000000000001
 21
1.0
 31
0.0
 73
     1
 44
1.0
1001
ACAD
1000
MTEXTBEGIN
1070
    73
1070
     1
1070
    44
1040
1.0
1070
    74
1070
     0
1000
MTEXTEND
  0
POINT
  5
13F31
330
13577
100
AcDbEntity
  8
DEFPOINTS
 62
     0
 48
50.0
100
AcDbPoint
 10
8241.350663344681
 20
7195.729096344952
 30
0.0
  0
POINT
  5
13F32
330
13577
100
AcDbEntity
  8
DEFPOINTS
 62
     0
 48
50.0
100
AcDbPoint
 10
8241.350663344681
 20
7140.729096344955
 30
0.0
  0
POINT
  5
13F33
330
13577
100
AcDbEntity
  8
DEFPOINTS
 62
     0
 48
50.0
100
AcDbPoint
 10
9012.097780389037
 20
7140.729096344955
 30
0.0
  0
ENDBLK
  5
13584
330
13577
100
AcDbEntity
  8
0
 48
50.0
100
AcDbBlockEnd
  0
BLOCK
  5
1358F
330
13585
100
AcDbEntity
  8
0
 48
50.0
100
AcDbBlockBegin
  2
*D6
 70
     1
 10
0.0
 20
0.0
 30
0.0
  3
*D6
  1

  0
LINE
  5
13F20
330
13585
100
AcDbEntity
  8
寸法
 62
     0
 48
50.0
370
    -2
100
AcDbLine
 10
8261.350663344682
 20
9715.72909634496
 30
0.0
 11
9052.097780389035
 21
9715.72909634496
 31
0.0
  0
LINE
  5
13F21
330
13585
100
AcDbEntity
  8
寸法
 62
     0
 48
50.0
370
    -2
100
AcDbLine
 10
8261.350663344682
 20
7195.729096344952
 30
0.0
 11
9052.097780389035
 21
7195.729096344952
 31
0.0
  0
LINE
  5
13F22
330
13585
100
AcDbEntity
  8
寸法
 62
     0
 48
50.0
370
    -2
100
AcDbLine
 10
9012.097780389034
 20
9695.72909634496
 30
0.0
 11
9012.097780389034
 21
7215.729096344952
 31
0.0
  0
INSERT
  5
13F23
330
13585
100
AcDbEntity
  8
寸法
 62
     0
 48
50.0
370
    -2
100
AcDbBlockReference
  2
_DOT
 10
9012.097780389034
 20
9715.72909634496
 30
0.0
 41
20.0
 42
20.0
 43
20.0
 50
90.0
  0
INSERT
  5
13F24
330
13585
100
AcDbEntity
  8
寸法
 62
     0
 48
50.0
370
    -2
100
AcDbBlockReference
  2
_DOT
 10
9012.097780389034
 20
7195.729096344952
 30
0.0
 41
20.0
 42
20.0
 43
20.0
 50
270.0
  0
MTEXT
  5
13F25
330
13585
100
AcDbEntity
  8
寸法
 62
     7
 48
50.0
100
AcDbMText
 10
8920.085969365411
 20
8455.729096344958
 30
0.0
 40
120.0
 41
0.0
 71
     5
 72
     1
  1
\A1;6X420=2520
  7
STYLE1
 11
0.0000000000000001
 21
1.0
 31
0.0
 73
     1
 44
1.0
1001
ACAD
1000
MTEXTBEGIN
1070
    73
1070
     1
1070
    44
1040
1.0
1070
    74
1070
     0
1000
MTEXTEND
  0
POINT
  5
13F26
330
13585
100
AcDbEntity
  8
DEFPOINTS
 62
     0
 48
50.0
100
AcDbPoint
 10
8241.350663344681
 20
9715.72909634496
 30
0.0
  0
POINT
  5
13F27
330
13585
100
AcDbEntity
  8
DEFPOINTS
 62
     0
 48
50.0
100
AcDbPoint
 10
8241.350663344681
 20
7195.729096344952
 30
0.0
  0
POINT
  5
13F28
330
13585
100
AcDbEntity
  8
DEFPOINTS
 62
     0
 48
50.0
100
AcDbPoint
 10
9012.097780389034
 20
7195.729096344952
 30
0.0
  0
ENDBLK
  5
13590
330
13585
100
AcDbEntity
  8
0
 48
50.0
100
AcDbBlockEnd
  0
BLOCK
  5
1359D
330
13591
100
AcDbEntity
  8
0
 48
50.0
100
AcDbBlockBegin
  2
*D7
 70
     1
 10
0.0
 20
0.0
 30
0.0
  3
*D7
  1

  0
LINE
  5
13F15
330
13591
100
AcDbEntity
  8
寸法
 62
     0
 48
50.0
370
    -2
100
AcDbLine
 10
8261.350663344682
 20
9770.729096344958
 30
0.0
 11
9052.097780389036
 21
9770.729096344958
 31
0.0
  0
LINE
  5
13F16
330
13591
100
AcDbEntity
  8
寸法
 62
     0
 48
50.0
370
    -2
100
AcDbLine
 10
8261.350663344682
 20
9715.72909634496
 30
0.0
 11
9052.097780389036
 21
9715.72909634496
 31
0.0
  0
LINE
  5
13F17
330
13591
100
AcDbEntity
  8
寸法
 62
     0
 48
50.0
370
    -2
100
AcDbLine
 10
9012.097780389037
 20
9695.72909634496
 30
0.0
 11
9012.097780389037
 21
9675.729096344959
 31
0.0
  0
LINE
  5
13F18
330
13591
100
AcDbEntity
  8
寸法
 62
     0
 48
50.0
370
    -2
100
AcDbLine
 10
9012.097780389037
 20
9790.729096344955
 30
0.0
 11
9012.097780389037
 21
10265.38104438586
 31
0.0
  0
LINE
  5
13F19
330
13591
100
AcDbEntity
  8
寸法
 62
     0
 48
50.0
370
    -2
100
AcDbLine
 10
9012.097780389037
 20
9715.72909634496
 30
0.0
 11
9012.097780389037
 21
9770.729096344958
 31
0.0
  0
INSERT
  5
13F1A
330
13591
100
AcDbEntity
  8
寸法
 62
     0
 48
50.0
370
    -2
100
AcDbBlockReference
  2
_DOT
 10
9012.097780389037
 20
9715.72909634496
 30
0.0
 41
20.0
 42
20.0
 43
20.0
 50
90.0
  0
INSERT
  5
13F1B
330
13591
100
AcDbEntity
  8
寸法
 62
     0
 48
50.0
370
    -2
100
AcDbBlockReference
  2
_DOT
 10
9012.097780389037
 20
9770.729096344958
 30
0.0
 41
20.0
 42
20.0
 43
20.0
 50
270.0
  0
MTEXT
  5
13F1C
330
13591
100
AcDbEntity
  8
寸法
 62
     7
 48
50.0
100
AcDbMText
 10
8920.097780389035
 20
10164.89576301162
 30
0.0
 40
120.0
 41
0.0
 71
     5
 72
     1
  1
\A1;55
  7
STYLE1
 11
0.0000000000000001
 21
1.0
 31
0.0
 73
     1
 44
1.0
1001
ACAD
1000
MTEXTBEGIN
1070
    73
1070
     1
1070
    44
1040
1.0
1070
    74
1070
     0
1000
MTEXTEND
  0
POINT
  5
13F1D
330
13591
100
AcDbEntity
  8
DEFPOINTS
 62
     0
 48
50.0
100
AcDbPoint
 10
8241.350663344681
 20
9770.729096344958
 30
0.0
  0
POINT
  5
13F1E
330
13591
100
AcDbEntity
  8
DEFPOINTS
 62
     0
 48
50.0
100
AcDbPoint
 10
8241.350663344681
 20
9715.72909634496
 30
0.0
  0
POINT
  5
13F1F
330
13591
100
AcDbEntity
  8
DEFPOINTS
 62
     0
 48
50.0
100
AcDbPoint
 10
9012.097780389037
 20
9715.72909634496
 30
0.0
  0
ENDBLK
  5
1359E
330
13591
100
AcDbEntity
  8
0
 48
50.0
100
AcDbBlockEnd
  0
BLOCK
  5
135A9
330
1359F
100
AcDbEntity
  8
0
 48
50.0
100
AcDbBlockBegin
  2
*D8
 70
     1
 10
0.0
 20
0.0
 30
0.0
  3
*D8
  1

  0
LINE
  5
13F79
330
1359F
100
AcDbEntity
  8
寸法
 62
     0
 48
50.0
370
    -2
100
AcDbLine
 10
2981.350663344681
 20
9790.729096344955
 30
0.0
 11
2981.350663344681
 21
10485.44150636375
 31
0.0
  0
LINE
  5
13F7A
330
1359F
100
AcDbEntity
  8
寸法
 62
     0
 48
50.0
370
    -2
100
AcDbLine
 10
8241.350663344681
 20
9790.729096344955
 30
0.0
 11
8241.350663344681
 21
10485.44150636375
 31
0.0
  0
LINE
  5
13F7B
330
1359F
100
AcDbEntity
  8
寸法
 62
     0
 48
50.0
370
    -2
100
AcDbLine
 10
3001.350663344681
 20
10445.44150636375
 30
0.0
 11
8221.350663344681
 21
10445.44150636375
 31
0.0
  0
INSERT
  5
13F7C
330
1359F
100
AcDbEntity
  8
寸法
 62
     0
 48
50.0
370
    -2
100
AcDbBlockReference
  2
_DOT
 10
2981.350663344681
 20
10445.44150636375
 30
0.0
 41
20.0
 42
20.0
 43
20.0
 50
180.0
  0
INSERT
  5
13F7D
330
1359F
100
AcDbEntity
  8
寸法
 62
     0
 48
50.0
370
    -2
100
AcDbBlockReference
  2
_DOT
 10
8241.350663344681
 20
10445.44150636375
 30
0.0
 41
20.0
 42
20.0
 43
20.0
  0
MTEXT
  5
13F7E
330
1359F
100
AcDbEntity
  8
寸法
 62
     7
 48
50.0
100
AcDbMText
 10
5611.350663344682
 20
10537.45331738737
 30
0.0
 40
120.0
 41
0.0
 71
     5
 72
     1
  1
\A1;5260
  7
STYLE1
 73
     1
 44
1.0
1001
ACAD
1000
MTEXTBEGIN
1070
    73
1070
     1
1070
    44
1040
1.0
1070
    74
1070
     0
1000
MTEXTEND
  0
POINT
  5
13F7F
330
1359F
100
AcDbEntity
  8
DEFPOINTS
 62
     0
 48
50.0
100
AcDbPoint
 10
2981.350663344681
 20
9770.729096344958
 30
0.0
  0
POINT
  5
13F80
330
1359F
100
AcDbEntity
  8
DEFPOINTS
 62
     0
 48
50.0
100
AcDbPoint
 10
8241.350663344681
 20
9770.729096344958
 30
0.0
  0
POINT
  5
13F81
330
1359F
100
AcDbEntity
  8
DEFPOINTS
 62
     0
 48
50.0
100
AcDbPoint
 10
8241.350663344681
 20
10445.44150636375
 30
0.0
  0
ENDBLK
  5
135AA
330
1359F
100
AcDbEntity
  8
0
 48
50.0
100
AcDbBlockEnd
  0
BLOCK
  5
135B5
330
135AB
100
AcDbEntity
  8
0
 48
50.0
100
AcDbBlockBegin
  2
*D9
 70
     1
 10
0.0
 20
0.0
 30
0.0
  3
*D9
  1

  0
LINE
  5
13F70
330
135AB
100
AcDbEntity
  8
寸法
 62
     0
 48
50.0
370
    -2
100
AcDbLine
 10
3036.350663344681
 20
9790.729096344959
 30
0.0
 11
3036.350663344681
 21
10185.44150636375
 31
0.0
  0
LINE
  5
13F71
330
135AB
100
AcDbEntity
  8
寸法
 62
     0
 48
50.0
370
    -2
100
AcDbLine
 10
5556.350663344681
 20
9790.729096344959
 30
0.0
 11
5556.350663344681
 21
10185.44150636375
 31
0.0
  0
LINE
  5
13F72
330
135AB
100
AcDbEntity
  8
寸法
 62
     0
 48
50.0
370
    -2
100
AcDbLine
 10
3056.350663344681
 20
10145.44150636375
 30
0.0
 11
5536.350663344681
 21
10145.44150636375
 31
0.0
  0
INSERT
  5
13F73
330
135AB
100
AcDbEntity
  8
寸法
 62
     0
 48
50.0
370
    -2
100
AcDbBlockReference
  2
_DOT
 10
3036.350663344681
 20
10145.44150636375
 30
0.0
 41
20.0
 42
20.0
 43
20.0
 50
180.0
  0
INSERT
  5
13F74
330
135AB
100
AcDbEntity
  8
寸法
 62
     0
 48
50.0
370
    -2
100
AcDbBlockReference
  2
_DOT
 10
5556.350663344681
 20
10145.44150636375
 30
0.0
 41
20.0
 42
20.0
 43
20.0
  0
MTEXT
  5
13F75
330
135AB
100
AcDbEntity
  8
寸法
 62
     7
 48
50.0
100
AcDbMText
 10
4296.350663344681
 20
10237.45331738737
 30
0.0
 40
120.0
 41
0.0
 71
     5
 72
     1
  1
\A1;6X420=2520
  7
STYLE1
 73
     1
 44
1.0
1001
ACAD
1000
MTEXTBEGIN
1070
    73
1070
     1
1070
    44
1040
1.0
1070
    74
1070
     0
1000
MTEXTEND
  0
POINT
  5
13F76
330
135AB
100
AcDbEntity
  8
DEFPOINTS
 62
     0
 48
50.0
100
AcDbPoint
 10
3036.350663344681
 20
9770.729096344958
 30
0.0
  0
POINT
  5
13F77
330
135AB
100
AcDbEntity
  8
DEFPOINTS
 62
     0
 48
50.0
100
AcDbPoint
 10
5556.350663344681
 20
9770.729096344958
 30
0.0
  0
POINT
  5
13F78
330
135AB
100
AcDbEntity
  8
DEFPOINTS
 62
     0
 48
50.0
100
AcDbPoint
 10
5556.350663344681
 20
10145.44150636375
 30
0.0
  0
ENDBLK
  5
135B6
330
135AB
100
AcDbEntity
  8
0
 48
50.0
100
AcDbBlockEnd
  0
BLOCK
  5
135CF
330
135C3
100
AcDbEntity
  8
0
 48
50.0
100
AcDbBlockBegin
  2
*D10
 70
     1
 10
0.0
 20
0.0
 30
0.0
  3
*D10
  1

  0
LINE
  5
13F65
330
135C3
100
AcDbEntity
  8
寸法
 62
     0
 48
50.0
370
    -2
100
AcDbLine
 10
2981.350663344681
 20
9790.729096344955
 30
0.0
 11
2981.350663344681
 21
10185.44150636375
 31
0.0
  0
LINE
  5
13F66
330
135C3
100
AcDbEntity
  8
寸法
 62
     0
 48
50.0
370
    -2
100
AcDbLine
 10
3036.350663344681
 20
9790.729096344959
 30
0.0
 11
3036.350663344681
 21
10185.44150636375
 31
0.0
  0
LINE
  5
13F67
330
135C3
100
AcDbEntity
  8
寸法
 62
     0
 48
50.0
370
    -2
100
AcDbLine
 10
3056.350663344681
 20
10145.44150636375
 30
0.0
 11
3076.350663344681
 21
10145.44150636375
 31
0.0
  0
LINE
  5
13F68
330
135C3
100
AcDbEntity
  8
寸法
 62
     0
 48
50.0
370
    -2
100
AcDbLine
 10
2961.350663344682
 20
10145.44150636375
 30
0.0
 11
2486.698715303779
 21
10145.44150636375
 31
0.0
  0
LINE
  5
13F69
330
135C3
100
AcDbEntity
  8
寸法
 62
     0
 48
50.0
370
    -2
100
AcDbLine
 10
3036.350663344681
 20
10145.44150636375
 30
0.0
 11
2981.350663344681
 21
10145.44150636375
 31
0.0
  0
INSERT
  5
13F6A
330
135C3
100
AcDbEntity
  8
寸法
 62
     0
 48
50.0
370
    -2
100
AcDbBlockReference
  2
_DOT
 10
3036.350663344681
 20
10145.44150636375
 30
0.0
 41
20.0
 42
20.0
 43
20.0
 50
180.0
  0
INSERT
  5
13F6B
330
135C3
100
AcDbEntity
  8
寸法
 62
     0
 48
50.0
370
    -2
100
AcDbBlockReference
  2
_DOT
 10
2981.350663344681
 20
10145.44150636375
 30
0.0
 41
20.0
 42
20.0
 43
20.0
  0
MTEXT
  5
13F6C
330
135C3
100
AcDbEntity
  8
寸法
 62
     7
 48
50.0
100
AcDbMText
 10
2587.183996678017
 20
10237.44150636375
 30
0.0
 40
120.0
 41
0.0
 71
     5
 72
     1
  1
\A1;55
  7
STYLE1
 73
     1
 44
1.0
1001
ACAD
1000
MTEXTBEGIN
1070
    73
1070
     1
1070
    44
1040
1.0
1070
    74
1070
     0
1000
MTEXTEND
  0
POINT
  5
13F6D
330
135C3
100
AcDbEntity
  8
DEFPOINTS
 62
     0
 48
50.0
100
AcDbPoint
 10
2981.350663344681
 20
9770.729096344958
 30
0.0
  0
POINT
  5
13F6E
330
135C3
100
AcDbEntity
  8
DEFPOINTS
 62
     0
 48
50.0
100
AcDbPoint
 10
3036.350663344681
 20
9770.729096344958
 30
0.0
  0
POINT
  5
13F6F
330
135C3
100
AcDbEntity
  8
DEFPOINTS
 62
     0
 48
50.0
100
AcDbPoint
 10
3036.350663344681
 20
10145.44150636375
 30
0.0
  0
ENDBLK
  5
135D0
330
135C3
100
AcDbEntity
  8
0
 48
50.0
100
AcDbBlockEnd
  0
BLOCK
  5
135E7
330
135DD
100
AcDbEntity
  8
0
 48
50.0
100
AcDbBlockBegin
  2
*D11
 70
     1
 10
0.0
 20
0.0
 30
0.0
  3
*D11
  1

  0
LINE
  5
13F5C
330
135DD
100
AcDbEntity
  8
寸法
 62
     0
 48
50.0
370
    -2
100
AcDbLine
 10
5666.350663344681
 20
9790.729096344959
 30
0.0
 11
5666.350663344681
 21
10185.44150636375
 31
0.0
  0
LINE
  5
13F5D
330
135DD
100
AcDbEntity
  8
寸法
 62
     0
 48
50.0
370
    -2
100
AcDbLine
 10
8186.350663344681
 20
9790.729096344959
 30
0.0
 11
8186.350663344681
 21
10185.44150636375
 31
0.0
  0
LINE
  5
13F5E
330
135DD
100
AcDbEntity
  8
寸法
 62
     0
 48
50.0
370
    -2
100
AcDbLine
 10
5686.350663344682
 20
10145.44150636375
 30
0.0
 11
8166.350663344681
 21
10145.44150636375
 31
0.0
  0
INSERT
  5
13F5F
330
135DD
100
AcDbEntity
  8
寸法
 62
     0
 48
50.0
370
    -2
100
AcDbBlockReference
  2
_DOT
 10
5666.350663344681
 20
10145.44150636375
 30
0.0
 41
20.0
 42
20.0
 43
20.0
 50
180.0
  0
INSERT
  5
13F60
330
135DD
100
AcDbEntity
  8
寸法
 62
     0
 48
50.0
370
    -2
100
AcDbBlockReference
  2
_DOT
 10
8186.350663344681
 20
10145.44150636375
 30
0.0
 41
20.0
 42
20.0
 43
20.0
  0
MTEXT
  5
13F61
330
135DD
100
AcDbEntity
  8
寸法
 62
     7
 48
50.0
100
AcDbMText
 10
6926.350663344681
 20
10237.45331738737
 30
0.0
 40
120.0
 41
0.0
 71
     5
 72
     1
  1
\A1;6X420=2520
  7
STYLE1
 73
     1
 44
1.0
1001
ACAD
1000
MTEXTBEGIN
1070
    73
1070
     1
1070
    44
1040
1.0
1070
    74
1070
     0
1000
MTEXTEND
  0
POINT
  5
13F62
330
135DD
100
AcDbEntity
  8
DEFPOINTS
 62
     0
 48
50.0
100
AcDbPoint
 10
5666.350663344681
 20
9770.729096344958
 30
0.0
  0
POINT
  5
13F63
330
135DD
100
AcDbEntity
  8
DEFPOINTS
 62
     0
 48
50.0
100
AcDbPoint
 10
8186.350663344681
 20
9770.729096344958
 30
0.0
  0
POINT
  5
13F64
330
135DD
100
AcDbEntity
  8
DEFPOINTS
 62
     0
 48
50.0
100
AcDbPoint
 10
8186.350663344681
 20
10145.44150636375
 30
0.0
  0
ENDBLK
  5
135E8
330
135DD
100
AcDbEntity
  8
0
 48
50.0
100
AcDbBlockEnd
  0
BLOCK
  5
135F3
330
135E9
100
AcDbEntity
  8
0
 48
50.0
100
AcDbBlockBegin
  2
*D12
 70
     1
 10
0.0
 20
0.0
 30
0.0
  3
*D12
  1

  0
LINE
  5
13F53
330
135E9
100
AcDbEntity
  8
寸法
 62
     0
 48
50.0
370
    -2
100
AcDbLine
 10
5556.350663344681
 20
9790.729096344959
 30
0.0
 11
5556.350663344681
 21
10185.44150636375
 31
0.0
  0
LINE
  5
13F54
330
135E9
100
AcDbEntity
  8
寸法
 62
     0
 48
50.0
370
    -2
100
AcDbLine
 10
5666.350663344681
 20
9790.729096344959
 30
0.0
 11
5666.350663344681
 21
10185.44150636375
 31
0.0
  0
LINE
  5
13F55
330
135E9
100
AcDbEntity
  8
寸法
 62
     0
 48
50.0
370
    -2
100
AcDbLine
 10
5576.350663344681
 20
10145.44150636375
 30
0.0
 11
5646.350663344681
 21
10145.44150636375
 31
0.0
  0
INSERT
  5
13F56
330
135E9
100
AcDbEntity
  8
寸法
 62
     0
 48
50.0
370
    -2
100
AcDbBlockReference
  2
_DOT
 10
5556.350663344681
 20
10145.44150636375
 30
0.0
 41
20.0
 42
20.0
 43
20.0
 50
180.0
  0
INSERT
  5
13F57
330
135E9
100
AcDbEntity
  8
寸法
 62
     0
 48
50.0
370
    -2
100
AcDbBlockReference
  2
_DOT
 10
5666.350663344681
 20
10145.44150636375
 30
0.0
 41
20.0
 42
20.0
 43
20.0
  0
MTEXT
  5
13F58
330
135E9
100
AcDbEntity
  8
寸法
 62
     7
 48
50.0
100
AcDbMText
 10
5611.350663344682
 20
10237.44150636375
 30
0.0
 40
120.0
 41
0.0
 71
     5
 72
     1
  1
\A1;110
  7
STYLE1
 73
     1
 44
1.0
1001
ACAD
1000
MTEXTBEGIN
1070
    73
1070
     1
1070
    44
1040
1.0
1070
    74
1070
     0
1000
MTEXTEND
  0
POINT
  5
13F59
330
135E9
100
AcDbEntity
  8
DEFPOINTS
 62
     0
 48
50.0
100
AcDbPoint
 10
5556.350663344681
 20
9770.729096344958
 30
0.0
  0
POINT
  5
13F5A
330
135E9
100
AcDbEntity
  8
DEFPOINTS
 62
     0
 48
50.0
100
AcDbPoint
 10
5666.350663344681
 20
9770.729096344958
 30
0.0
  0
POINT
  5
13F5B
330
135E9
100
AcDbEntity
  8
DEFPOINTS
 62
     0
 48
50.0
100
AcDbPoint
 10
5666.350663344681
 20
10145.44150636375
 30
0.0
  0
ENDBLK
  5
135F4
330
135E9
100
AcDbEntity
  8
0
 48
50.0
100
AcDbBlockEnd
  0
BLOCK
  5
13619
330
1360F
100
AcDbEntity
  8
0
 48
50.0
100
AcDbBlockBegin
  2
*D13
 70
     1
 10
0.0
 20
0.0
 30
0.0
  3
*D13
  1

  0
LINE
  5
13EB7
330
1360F
100
AcDbEntity
  8
寸法
 62
     0
 48
50.0
370
    -2
100
AcDbLine
 10
8241.350663344686
 20
4683.11280590326
 30
0.0
 11
8241.350663344686
 21
4935.6543911615
 31
0.0
  0
LINE
  5
13EB8
330
1360F
100
AcDbEntity
  8
寸法
 62
     0
 48
50.0
370
    -2
100
AcDbLine
 10
2981.350663344681
 20
4683.112805903264
 30
0.0
 11
2981.350663344681
 21
4935.6543911615
 31
0.0
  0
LINE
  5
13EB9
330
1360F
100
AcDbEntity
  8
寸法
 62
     0
 48
50.0
370
    -2
100
AcDbLine
 10
8241.350663344686
 20
4875.6543911615
 30
0.0
 11
2981.350663344681
 21
4875.6543911615
 31
0.0
  0
INSERT
  5
13EBA
330
1360F
100
AcDbEntity
  8
寸法
 62
     0
 48
50.0
370
    -2
100
AcDbBlockReference
  2
_DOTSMALL
 10
8241.350663344686
 20
4875.6543911615
 30
0.0
 41
100.0
 42
100.0
 43
100.0
  0
INSERT
  5
13EBB
330
1360F
100
AcDbEntity
  8
寸法
 62
     0
 48
50.0
370
    -2
100
AcDbBlockReference
  2
_DOTSMALL
 10
2981.350663344681
 20
4875.6543911615
 30
0.0
 41
100.0
 42
100.0
 43
100.0
 50
180.0
  0
MTEXT
  5
13EBC
330
1360F
100
AcDbEntity
  8
寸法
 62
     7
 48
50.0
100
AcDbMText
 10
5611.350663344682
 20
4975.666202185122
 30
0.0
 40
120.0
 41
0.0
 71
     5
 72
     1
  1
\A1;柱外寸法5260
  7
STYLE1
 73
     1
 44
1.0
1001
ACAD
1000
MTEXTBEGIN
1070
    73
1070
     1
1070
    44
1040
1.0
1070
    74
1070
     0
1000
MTEXTEND
  0
POINT
  5
13EBD
330
1360F
100
AcDbEntity
  8
DEFPOINTS
 62
     0
 48
50.0
100
AcDbPoint
 10
8241.350663344686
 20
4663.112805903259
 30
0.0
  0
POINT
  5
13EBE
330
1360F
100
AcDbEntity
  8
DEFPOINTS
 62
     0
 48
50.0
100
AcDbPoint
 10
2981.350663344681
 20
4663.112805903264
 30
0.0
  0
POINT
  5
13EBF
330
1360F
100
AcDbEntity
  8
DEFPOINTS
 62
     0
 48
50.0
100
AcDbPoint
 10
2981.350663344681
 20
4875.6543911615
 30
0.0
  0
ENDBLK
  5
1361A
330
1360F
100
AcDbEntity
  8
0
 48
50.0
100
AcDbBlockEnd
  0
BLOCK
  5
13625
330
1361B
100
AcDbEntity
  8
0
 48
50.0
100
AcDbBlockBegin
  2
*D14
 70
     1
 10
0.0
 20
0.0
 30
0.0
  3
*D14
  1

  0
LINE
  5
13EAE
330
1361B
100
AcDbEntity
  8
寸法
 62
     0
 48
50.0
370
    -2
100
AcDbLine
 10
2931.350663344682
 20
4683.112805903262
 30
0.0
 11
2931.350663344682
 21
5156.55969163525
 31
0.0
  0
LINE
  5
13EAF
330
1361B
100
AcDbEntity
  8
寸法
 62
     0
 48
50.0
370
    -2
100
AcDbLine
 10
8291.350663344685
 20
4683.112805903258
 30
0.0
 11
8291.350663344685
 21
5156.55969163525
 31
0.0
  0
LINE
  5
13EB0
330
1361B
100
AcDbEntity
  8
寸法
 62
     0
 48
50.0
370
    -2
100
AcDbLine
 10
2931.350663344682
 20
5096.559691635249
 30
0.0
 11
8291.350663344685
 21
5096.559691635249
 31
0.0
  0
INSERT
  5
13EB1
330
1361B
100
AcDbEntity
  8
寸法
 62
     0
 48
50.0
370
    -2
100
AcDbBlockReference
  2
_DOTSMALL
 10
2931.350663344682
 20
5096.559691635249
 30
0.0
 41
100.0
 42
100.0
 43
100.0
 50
180.0
  0
INSERT
  5
13EB2
330
1361B
100
AcDbEntity
  8
寸法
 62
     0
 48
50.0
370
    -2
100
AcDbBlockReference
  2
_DOTSMALL
 10
8291.350663344685
 20
5096.559691635249
 30
0.0
 41
100.0
 42
100.0
 43
100.0
  0
MTEXT
  5
13EB3
330
1361B
100
AcDbEntity
  8
寸法
 62
     7
 48
50.0
100
AcDbMText
 10
5611.350663344682
 20
5196.55969163525
 30
0.0
 40
120.0
 41
0.0
 71
     5
 72
     1
  1
\A1;5360
  7
STYLE1
 73
     1
 44
1.0
1001
ACAD
1000
MTEXTBEGIN
1070
    73
1070
     1
1070
    44
1040
1.0
1070
    74
1070
     0
1000
MTEXTEND
  0
POINT
  5
13EB4
330
1361B
100
AcDbEntity
  8
DEFPOINTS
 62
     0
 48
50.0
100
AcDbPoint
 10
2931.350663344682
 20
4663.112805903263
 30
0.0
  0
POINT
  5
13EB5
330
1361B
100
AcDbEntity
  8
DEFPOINTS
 62
     0
 48
50.0
100
AcDbPoint
 10
8291.350663344685
 20
4663.112805903258
 30
0.0
  0
POINT
  5
13EB6
330
1361B
100
AcDbEntity
  8
DEFPOINTS
 62
     0
 48
50.0
100
AcDbPoint
 10
8291.350663344685
 20
5096.559691635249
 30
0.0
  0
ENDBLK
  5
13626
330
1361B
100
AcDbEntity
  8
0
 48
50.0
100
AcDbBlockEnd
  0
BLOCK
  5
13633
330
13627
100
AcDbEntity
  8
0
 48
50.0
100
AcDbBlockBegin
  2
*D15
 70
     1
 10
0.0
 20
0.0
 30
0.0
  3
*D15
  1

  0
LINE
  5
13EA3
330
13627
100
AcDbEntity
  8
寸法
 62
     0
 48
50.0
370
    -2
100
AcDbLine
 10
2981.350663344681
 20
4683.112805903264
 30
0.0
 11
2981.350663344681
 21
4935.654391161502
 31
0.0
  0
LINE
  5
13EA4
330
13627
100
AcDbEntity
  8
寸法
 62
     0
 48
50.0
370
    -2
100
AcDbLine
 10
2931.350663344682
 20
4683.112805903262
 30
0.0
 11
2931.350663344682
 21
4935.654391161502
 31
0.0
  0
LINE
  5
13EA5
330
13627
100
AcDbEntity
  8
寸法
 62
     0
 48
50.0
370
    -2
100
AcDbLine
 10
2981.350663344681
 20
4875.654391161502
 30
0.0
 11
3081.350663344681
 21
4875.654391161502
 31
0.0
  0
LINE
  5
13EA6
330
13627
100
AcDbEntity
  8
寸法
 62
     0
 48
50.0
370
    -2
100
AcDbLine
 10
2931.350663344682
 20
4875.654391161502
 30
0.0
 11
2511.818137875946
 21
4875.654391161502
 31
0.0
  0
LINE
  5
13EA7
330
13627
100
AcDbEntity
  8
寸法
 62
     0
 48
50.0
370
    -2
100
AcDbLine
 10
2981.350663344681
 20
4875.654391161502
 30
0.0
 11
2931.350663344682
 21
4875.654391161502
 31
0.0
  0
INSERT
  5
13EA8
330
13627
100
AcDbEntity
  8
寸法
 62
     0
 48
50.0
370
    -2
100
AcDbBlockReference
  2
_DOTSMALL
 10
2981.350663344681
 20
4875.654391161502
 30
0.0
 41
100.0
 42
100.0
 43
100.0
 50
180.0
  0
INSERT
  5
13EA9
330
13627
100
AcDbEntity
  8
寸法
 62
     0
 48
50.0
370
    -2
100
AcDbBlockReference
  2
_DOTSMALL
 10
2931.350663344682
 20
4875.654391161502
 30
0.0
 41
100.0
 42
100.0
 43
100.0
  0
MTEXT
  5
13EAA
330
13627
100
AcDbEntity
  8
寸法
 62
     7
 48
50.0
100
AcDbMText
 10
2617.865381970434
 20
4975.654391161501
 30
0.0
 40
120.0
 41
0.0
 71
     5
 72
     1
  1
\A1;50
  7
STYLE1
 73
     1
 44
1.0
1001
ACAD
1000
MTEXTBEGIN
1070
    73
1070
     1
1070
    44
1040
1.0
1070
    74
1070
     0
1000
MTEXTEND
  0
POINT
  5
13EAB
330
13627
100
AcDbEntity
  8
DEFPOINTS
 62
     0
 48
50.0
100
AcDbPoint
 10
2981.350663344681
 20
4663.112805903264
 30
0.0
  0
POINT
  5
13EAC
330
13627
100
AcDbEntity
  8
DEFPOINTS
 62
     0
 48
50.0
100
AcDbPoint
 10
2931.350663344682
 20
4663.112805903263
 30
0.0
  0
POINT
  5
13EAD
330
13627
100
AcDbEntity
  8
DEFPOINTS
 62
     0
 48
50.0
100
AcDbPoint
 10
2931.350663344682
 20
4875.654391161502
 30
0.0
  0
ENDBLK
  5
13634
330
13627
100
AcDbEntity
  8
0
 48
50.0
100
AcDbBlockEnd
  0
BLOCK
  5
13641
330
13635
100
AcDbEntity
  8
0
 48
50.0
100
AcDbBlockBegin
  2
*D16
 70
     1
 10
0.0
 20
0.0
 30
0.0
  3
*D16
  1

  0
LINE
  5
13E98
330
13635
100
AcDbEntity
  8
寸法
 62
     0
 48
50.0
370
    -2
100
AcDbLine
 10
8291.350663344685
 20
4683.112805903258
 30
0.0
 11
8291.350663344685
 21
4935.654391161499
 31
0.0
  0
LINE
  5
13E99
330
13635
100
AcDbEntity
  8
寸法
 62
     0
 48
50.0
370
    -2
100
AcDbLine
 10
8241.350663344686
 20
4683.11280590326
 30
0.0
 11
8241.350663344686
 21
4935.654391161499
 31
0.0
  0
LINE
  5
13E9A
330
13635
100
AcDbEntity
  8
寸法
 62
     0
 48
50.0
370
    -2
100
AcDbLine
 10
8241.350663344686
 20
4875.654391161499
 30
0.0
 11
8141.350663344686
 21
4875.654391161499
 31
0.0
  0
LINE
  5
13E9B
330
13635
100
AcDbEntity
  8
寸法
 62
     0
 48
50.0
370
    -2
100
AcDbLine
 10
8291.350663344685
 20
4875.654391161499
 30
0.0
 11
8710.883188813408
 21
4875.654391161499
 31
0.0
  0
LINE
  5
13E9C
330
13635
100
AcDbEntity
  8
寸法
 62
     0
 48
50.0
370
    -2
100
AcDbLine
 10
8241.350663344686
 20
4875.654391161499
 30
0.0
 11
8291.350663344685
 21
4875.654391161499
 31
0.0
  0
INSERT
  5
13E9D
330
13635
100
AcDbEntity
  8
寸法
 62
     0
 48
50.0
370
    -2
100
AcDbBlockReference
  2
_DOTSMALL
 10
8241.350663344686
 20
4875.654391161499
 30
0.0
 41
100.0
 42
100.0
 43
100.0
  0
INSERT
  5
13E9E
330
13635
100
AcDbEntity
  8
寸法
 62
     0
 48
50.0
370
    -2
100
AcDbBlockReference
  2
_DOTSMALL
 10
8291.350663344685
 20
4875.654391161499
 30
0.0
 41
100.0
 42
100.0
 43
100.0
 50
180.0
  0
MTEXT
  5
13E9F
330
13635
100
AcDbEntity
  8
寸法
 62
     7
 48
50.0
100
AcDbMText
 10
8604.835944718921
 20
4975.654391161499
 30
0.0
 40
120.0
 41
0.0
 71
     5
 72
     1
  1
\A1;50
  7
STYLE1
 73
     1
 44
1.0
1001
ACAD
1000
MTEXTBEGIN
1070
    73
1070
     1
1070
    44
1040
1.0
1070
    74
1070
     0
1000
MTEXTEND
  0
POINT
  5
13EA0
330
13635
100
AcDbEntity
  8
DEFPOINTS
 62
     0
 48
50.0
100
AcDbPoint
 10
8291.350663344685
 20
4663.112805903258
 30
0.0
  0
POINT
  5
13EA1
330
13635
100
AcDbEntity
  8
DEFPOINTS
 62
     0
 48
50.0
100
AcDbPoint
 10
8241.350663344686
 20
4663.112805903259
 30
0.0
  0
POINT
  5
13EA2
330
13635
100
AcDbEntity
  8
DEFPOINTS
 62
     0
 48
50.0
100
AcDbPoint
 10
8241.350663344686
 20
4875.654391161499
 30
0.0
  0
ENDBLK
  5
13642
330
13635
100
AcDbEntity
  8
0
 48
50.0
100
AcDbBlockEnd
  0
BLOCK
  5
13B2E
330
13B23
100
AcDbEntity
  8
0
 48
50.0
100
AcDbBlockBegin
  2
*D17
 70
     1
 10
0.0
 20
0.0
 30
0.0
  3
*D17
  1

  0
LINE
  5
13E8E
330
13B23
100
AcDbEntity
  8
寸法
 62
     0
 48
50.0
370
    -2
100
AcDbLine
 10
11063.15471247879
 20
4662.410512972916
 30
0.0
 11
10447.22027337352
 21
4680.124663247245
 31
0.0
  0
LINE
  5
13E8F
330
13B23
100
AcDbEntity
  8
寸法
 62
     0
 48
50.0
370
    -2
100
AcDbLine
 10
11059.10125692216
 20
4521.468789207204
 30
0.0
 11
10443.16681781689
 21
4539.182939481533
 31
0.0
  0
LINE
  5
13E90
330
13B23
100
AcDbEntity
  8
寸法
 62
     0
 48
50.0
370
    -2
100
AcDbLine
 10
10503.14201941932
 20
4537.458064776585
 30
0.0
 11
10507.19547497594
 21
4678.399788542297
 31
0.0
  0
LINE
  5
13E91
330
13B23
100
AcDbEntity
  8
寸法
 62
     0
 48
50.0
370
    -2
100
AcDbLine
 10
10507.19547497594
 20
4678.399788542297
 30
0.0
 11
10517.54472320563
 21
5038.250998156883
 31
0.0
  0
INSERT
  5
13E92
330
13B23
100
AcDbEntity
  8
寸法
 62
     0
 48
50.0
370
    -2
100
AcDbBlockReference
  2
_DOTSMALL
 10
10503.14201941932
 20
4537.458064776585
 30
0.0
 41
100.0
 42
100.0
 43
100.0
 50
268.3526390256378
  0
INSERT
  5
13E93
330
13B23
100
AcDbEntity
  8
寸法
 62
     0
 48
50.0
370
    -2
100
AcDbBlockReference
  2
_DOTSMALL
 10
10507.19547497594
 20
4678.399788542297
 30
0.0
 41
100.0
 42
100.0
 43
100.0
 50
88.35263902563776
  0
MTEXT
  5
13E94
330
13B23
100
AcDbEntity
  8
寸法
 62
     7
 48
50.0
100
AcDbMText
 10
10413.84882534086
 20
4911.179519193197
 30
0.0
 40
120.0
 41
0.0
 71
     5
 72
     1
  1
\A1;141
  7
STYLE1
 11
0.0287479117491237
 21
0.9995866933738488
 31
0.0
 73
     1
 44
1.0
1001
ACAD
1000
MTEXTBEGIN
1070
    73
1070
     1
1070
    44
1040
1.0
1070
    74
1070
     0
1000
MTEXTEND
  0
POINT
  5
13E95
330
13B23
100
AcDbEntity
  8
DEFPOINTS
 62
     0
 48
50.0
100
AcDbPoint
 10
11083.14644634627
 20
4661.835554737932
 30
0.0
  0
POINT
  5
13E96
330
13B23
100
AcDbEntity
  8
DEFPOINTS
 62
     0
 48
50.0
100
AcDbPoint
 10
11079.09299078964
 20
4520.89383097222
 30
0.0
  0
POINT
  5
13E97
330
13B23
100
AcDbEntity
  8
DEFPOINTS
 62
     0
 48
50.0
100
AcDbPoint
 10
10503.14201941932
 20
4537.458064776585
 30
0.0
  0
ENDBLK
  5
13B2F
330
13B23
100
AcDbEntity
  8
0
 48
50.0
100
AcDbBlockEnd
  0
BLOCK
  5
13B3B
330
13B30
100
AcDbEntity
  8
0
 48
50.0
100
AcDbBlockBegin
  2
*D18
 70
     1
 10
0.0
 20
0.0
 30
0.0
  3
*D18
  1

  0
LINE
  5
13E84
330
13B30
100
AcDbEntity
  8
寸法
 62
     0
 48
50.0
370
    -2
100
AcDbLine
 10
13753.75042618769
 20
4629.923485514908
 30
0.0
 11
13753.75042618769
 21
5121.770259482559
 31
0.0
  0
LINE
  5
13E85
330
13B30
100
AcDbEntity
  8
寸法
 62
     0
 48
50.0
370
    -2
100
AcDbLine
 10
13833.75042618769
 20
4628.112805903255
 30
0.0
 11
13833.75042618769
 21
5121.770259482559
 31
0.0
  0
LINE
  5
13E86
330
13B30
100
AcDbEntity
  8
寸法
 62
     0
 48
50.0
370
    -2
100
AcDbLine
 10
13753.75042618769
 20
5061.770259482559
 30
0.0
 11
13833.75042618769
 21
5061.770259482559
 31
0.0
  0
LINE
  5
13E87
330
13B30
100
AcDbEntity
  8
寸法
 62
     0
 48
50.0
370
    -2
100
AcDbLine
 10
13833.75042618769
 20
5061.770259482559
 30
0.0
 11
14145.84491437667
 21
5061.770259482559
 31
0.0
  0
INSERT
  5
13E88
330
13B30
100
AcDbEntity
  8
寸法
 62
     0
 48
50.0
370
    -2
100
AcDbBlockReference
  2
_DOTSMALL
 10
13753.75042618769
 20
5061.770259482559
 30
0.0
 41
100.0
 42
100.0
 43
100.0
 50
180.0
  0
INSERT
  5
13E89
330
13B30
100
AcDbEntity
  8
寸法
 62
     0
 48
50.0
370
    -2
100
AcDbBlockReference
  2
_DOTSMALL
 10
13833.75042618769
 20
5061.770259482559
 30
0.0
 41
100.0
 42
100.0
 43
100.0
  0
MTEXT
  5
13E8A
330
13B30
100
AcDbEntity
  8
寸法
 62
     7
 48
50.0
100
AcDbMText
 10
14039.79767028218
 20
5161.770259482559
 30
0.0
 40
120.0
 41
0.0
 71
     5
 72
     1
  1
\A1;80
  7
STYLE1
 73
     1
 44
1.0
1001
ACAD
1000
MTEXTBEGIN
1070
    73
1070
     1
1070
    44
1040
1.0
1070
    74
1070
     0
1000
MTEXTEND
  0
POINT
  5
13E8B
330
13B30
100
AcDbEntity
  8
DEFPOINTS
 62
     0
 48
50.0
100
AcDbPoint
 10
13753.75042618769
 20
4609.923485514909
 30
0.0
  0
POINT
  5
13E8C
330
13B30
100
AcDbEntity
  8
DEFPOINTS
 62
     0
 48
50.0
100
AcDbPoint
 10
13833.75042618769
 20
4608.112805903256
 30
0.0
  0
POINT
  5
13E8D
330
13B30
100
AcDbEntity
  8
DEFPOINTS
 62
     0
 48
50.0
100
AcDbPoint
 10
13833.75042618769
 20
5061.770259482559
 30
0.0
  0
ENDBLK
  5
13B3C
330
13B30
100
AcDbEntity
  8
0
 48
50.0
100
AcDbBlockEnd
  0
BLOCK
  5
13B47
330
13B3D
100
AcDbEntity
  8
0
 48
50.0
100
AcDbBlockBegin
  2
*D19
 70
     1
 10
0.0
 20
0.0
 30
0.0
  3
*D19
  1

  0
LINE
  5
13E7B
330
13B3D
100
AcDbEntity
  8
寸法
 62
     0
 48
50.0
370
    -2
100
AcDbLine
 10
13833.75042618769
 20
4628.112805903255
 30
0.0
 11
13833.75042618769
 21
5341.980946214176
 31
0.0
  0
LINE
  5
13E7C
330
13B3D
100
AcDbEntity
  8
寸法
 62
     0
 48
50.0
370
    -2
100
AcDbLine
 10
11063.75042618769
 20
4683.112805903259
 30
0.0
 11
11063.75042618769
 21
5341.980946214176
 31
0.0
  0
LINE
  5
13E7D
330
13B3D
100
AcDbEntity
  8
寸法
 62
     0
 48
50.0
370
    -2
100
AcDbLine
 10
13833.75042618769
 20
5281.980946214177
 30
0.0
 11
11063.75042618769
 21
5281.980946214177
 31
0.0
  0
INSERT
  5
13E7E
330
13B3D
100
AcDbEntity
  8
寸法
 62
     0
 48
50.0
370
    -2
100
AcDbBlockReference
  2
_DOTSMALL
 10
13833.75042618769
 20
5281.980946214177
 30
0.0
 41
100.0
 42
100.0
 43
100.0
  0
INSERT
  5
13E7F
330
13B3D
100
AcDbEntity
  8
寸法
 62
     0
 48
50.0
370
    -2
100
AcDbBlockReference
  2
_DOTSMALL
 10
11063.75042618769
 20
5281.980946214177
 30
0.0
 41
100.0
 42
100.0
 43
100.0
 50
180.0
  0
MTEXT
  5
13E80
330
13B3D
100
AcDbEntity
  8
寸法
 62
     7
 48
50.0
100
AcDbMText
 10
12467.10935107506
 20
5381.992757237799
 30
0.0
 40
120.0
 41
0.0
 71
     5
 72
     1
  1
\A1;2770
  7
STYLE1
 73
     1
 44
1.0
1001
ACAD
1000
MTEXTBEGIN
1070
    73
1070
     1
1070
    44
1040
1.0
1070
    74
1070
     0
1000
MTEXTEND
  0
POINT
  5
13E81
330
13B3D
100
AcDbEntity
  8
DEFPOINTS
 62
     0
 48
50.0
100
AcDbPoint
 10
13833.75042618769
 20
4608.112805903256
 30
0.0
  0
POINT
  5
13E82
330
13B3D
100
AcDbEntity
  8
DEFPOINTS
 62
     0
 48
50.0
100
AcDbPoint
 10
11063.75042618769
 20
4663.112805903259
 30
0.0
  0
POINT
  5
13E83
330
13B3D
100
AcDbEntity
  8
DEFPOINTS
 62
     0
 48
50.0
100
AcDbPoint
 10
11063.75042618769
 20
5281.980946214177
 30
0.0
  0
ENDBLK
  5
13B48
330
13B3D
100
AcDbEntity
  8
0
 48
50.0
100
AcDbBlockEnd
  0
BLOCK
  5
13B55
330
13B49
100
AcDbEntity
  8
0
 48
50.0
100
AcDbBlockBegin
  2
*D20
 70
     1
 10
0.0
 20
0.0
 30
0.0
  3
*D20
  1

  0
LINE
  5
13E70
330
13B49
100
AcDbEntity
  8
寸法
 62
     0
 48
50.0
370
    -2
100
AcDbLine
 10
11123.75042618769
 20
4679.114424026231
 30
0.0
 11
11123.75042618769
 21
5121.770259482559
 31
0.0
  0
LINE
  5
13E71
330
13B49
100
AcDbEntity
  8
寸法
 62
     0
 48
50.0
370
    -2
100
AcDbLine
 10
11063.75042618769
 20
4683.112805903259
 30
0.0
 11
11063.75042618769
 21
5121.770259482559
 31
0.0
  0
LINE
  5
13E72
330
13B49
100
AcDbEntity
  8
寸法
 62
     0
 48
50.0
370
    -2
100
AcDbLine
 10
11123.75042618769
 20
5061.770259482559
 30
0.0
 11
11223.75042618769
 21
5061.770259482559
 31
0.0
  0
LINE
  5
13E73
330
13B49
100
AcDbEntity
  8
寸法
 62
     0
 48
50.0
370
    -2
100
AcDbLine
 10
11063.75042618769
 20
5061.770259482559
 30
0.0
 11
10644.47483563651
 21
5061.770259482559
 31
0.0
  0
LINE
  5
13E74
330
13B49
100
AcDbEntity
  8
寸法
 62
     0
 48
50.0
370
    -2
100
AcDbLine
 10
11123.75042618769
 20
5061.770259482559
 30
0.0
 11
11063.75042618769
 21
5061.770259482559
 31
0.0
  0
INSERT
  5
13E75
330
13B49
100
AcDbEntity
  8
寸法
 62
     0
 48
50.0
370
    -2
100
AcDbBlockReference
  2
_DOTSMALL
 10
11123.75042618769
 20
5061.770259482559
 30
0.0
 41
100.0
 42
100.0
 43
100.0
 50
180.0
  0
INSERT
  5
13E76
330
13B49
100
AcDbEntity
  8
寸法
 62
     0
 48
50.0
370
    -2
100
AcDbBlockReference
  2
_DOTSMALL
 10
11063.75042618769
 20
5061.770259482559
 30
0.0
 41
100.0
 42
100.0
 43
100.0
  0
MTEXT
  5
13E77
330
13B49
100
AcDbEntity
  8
寸法
 62
     7
 48
50.0
100
AcDbMText
 10
10754.1126309121
 20
5161.770259482558
 30
0.0
 40
120.0
 41
0.0
 71
     5
 72
     1
  1
\A1;60
  7
STYLE1
 73
     1
 44
1.0
1001
ACAD
1000
MTEXTBEGIN
1070
    73
1070
     1
1070
    44
1040
1.0
1070
    74
1070
     0
1000
MTEXTEND
  0
POINT
  5
13E78
330
13B49
100
AcDbEntity
  8
DEFPOINTS
 62
     0
 48
50.0
100
AcDbPoint
 10
11123.75042618769
 20
4659.11442402623
 30
0.0
  0
POINT
  5
13E79
330
13B49
100
AcDbEntity
  8
DEFPOINTS
 62
     0
 48
50.0
100
AcDbPoint
 10
11063.75042618769
 20
4663.112805903259
 30
0.0
  0
POINT
  5
13E7A
330
13B49
100
AcDbEntity
  8
DEFPOINTS
 62
     0
 48
50.0
100
AcDbPoint
 10
11063.75042618769
 20
5061.770259482559
 30
0.0
  0
ENDBLK
  5
13B56
330
13B49
100
AcDbEntity
  8
0
 48
50.0
100
AcDbBlockEnd
  0
BLOCK
  5
13B61
330
13B57
100
AcDbEntity
  8
0
 48
50.0
100
AcDbBlockBegin
  2
*D21
 70
     1
 10
0.0
 20
0.0
 30
0.0
  3
*D21
  1

  0
LINE
  5
13E67
330
13B57
100
AcDbEntity
  8
寸法
 62
     0
 48
50.0
370
    -2
100
AcDbLine
 10
13753.75042618769
 20
4629.923485514908
 30
0.0
 11
13753.75042618769
 21
5121.770259482559
 31
0.0
  0
LINE
  5
13E68
330
13B57
100
AcDbEntity
  8
寸法
 62
     0
 48
50.0
370
    -2
100
AcDbLine
 10
11123.75042618769
 20
4679.114424026231
 30
0.0
 11
11123.75042618769
 21
5121.770259482559
 31
0.0
  0
LINE
  5
13E69
330
13B57
100
AcDbEntity
  8
寸法
 62
     0
 48
50.0
370
    -2
100
AcDbLine
 10
13753.75042618769
 20
5061.770259482559
 30
0.0
 11
11123.75042618769
 21
5061.770259482559
 31
0.0
  0
INSERT
  5
13E6A
330
13B57
100
AcDbEntity
  8
寸法
 62
     0
 48
50.0
370
    -2
100
AcDbBlockReference
  2
_DOTSMALL
 10
13753.75042618769
 20
5061.770259482559
 30
0.0
 41
100.0
 42
100.0
 43
100.0
  0
INSERT
  5
13E6B
330
13B57
100
AcDbEntity
  8
寸法
 62
     0
 48
50.0
370
    -2
100
AcDbBlockReference
  2
_DOTSMALL
 10
11123.75042618769
 20
5061.770259482559
 30
0.0
 41
100.0
 42
100.0
 43
100.0
 50
180.0
  0
MTEXT
  5
13E6C
330
13B57
100
AcDbEntity
  8
寸法
 62
     7
 48
50.0
100
AcDbMText
 10
12478.52061721688
 20
5161.782070506181
 30
0.0
 40
120.0
 41
0.0
 71
     5
 72
     1
  1
\A1;柱外寸法2630
  7
STYLE1
 73
     1
 44
1.0
1001
ACAD
1000
MTEXTBEGIN
1070
    73
1070
     1
1070
    44
1040
1.0
1070
    74
1070
     0
1000
MTEXTEND
  0
POINT
  5
13E6D
330
13B57
100
AcDbEntity
  8
DEFPOINTS
 62
     0
 48
50.0
100
AcDbPoint
 10
13753.75042618769
 20
4609.923485514909
 30
0.0
  0
POINT
  5
13E6E
330
13B57
100
AcDbEntity
  8
DEFPOINTS
 62
     0
 48
50.0
100
AcDbPoint
 10
11123.75042618769
 20
4659.11442402623
 30
0.0
  0
POINT
  5
13E6F
330
13B57
100
AcDbEntity
  8
DEFPOINTS
 62
     0
 48
50.0
100
AcDbPoint
 10
11123.75042618769
 20
5061.770259482559
 30
0.0
  0
ENDBLK
  5
13B62
330
13B57
100
AcDbEntity
  8
0
 48
50.0
100
AcDbBlockEnd
  0
BLOCK
  5
13B6F
330
13B63
100
AcDbEntity
  8
0
 48
50.0
100
AcDbBlockBegin
  2
*D22
 70
     1
 10
0.0
 20
0.0
 30
0.0
  3
*D22
  1

  0
LINE
  5
13E5C
330
13B63
100
AcDbEntity
  8
寸法
 62
     0
 48
50.0
370
    -2
100
AcDbLine
 10
11103.75042618769
 20
2338.112805903254
 30
0.0
 11
10220.00029700443
 21
2338.112805903254
 31
0.0
  0
LINE
  5
13E5D
330
13B63
100
AcDbEntity
  8
寸法
 62
     0
 48
50.0
370
    -2
100
AcDbLine
 10
11048.75042618769
 20
2288.112805903255
 30
0.0
 11
10220.00029700443
 21
2288.112805903255
 31
0.0
  0
LINE
  5
13E5E
330
13B63
100
AcDbEntity
  8
寸法
 62
     0
 48
50.0
370
    -2
100
AcDbLine
 10
10280.00029700443
 20
2338.112805903254
 30
0.0
 11
10280.00029700443
 21
2438.112805903255
 31
0.0
  0
LINE
  5
13E5F
330
13B63
100
AcDbEntity
  8
寸法
 62
     0
 48
50.0
370
    -2
100
AcDbLine
 10
10280.00029700443
 20
2288.112805903255
 30
0.0
 11
10280.00029700443
 21
1876.018317714275
 31
0.0
  0
LINE
  5
13E60
330
13B63
100
AcDbEntity
  8
寸法
 62
     0
 48
50.0
370
    -2
100
AcDbLine
 10
10280.00029700443
 20
2338.112805903254
 30
0.0
 11
10280.00029700443
 21
2288.112805903255
 31
0.0
  0
INSERT
  5
13E61
330
13B63
100
AcDbEntity
  8
寸法
 62
     0
 48
50.0
370
    -2
100
AcDbBlockReference
  2
_DOTSMALL
 10
10280.00029700443
 20
2338.112805903254
 30
0.0
 41
100.0
 42
100.0
 43
100.0
 50
270.0
  0
INSERT
  5
13E62
330
13B63
100
AcDbEntity
  8
寸法
 62
     0
 48
50.0
370
    -2
100
AcDbBlockReference
  2
_DOTSMALL
 10
10280.00029700443
 20
2288.112805903255
 30
0.0
 41
100.0
 42
100.0
 43
100.0
 50
90.0
  0
MTEXT
  5
13E63
330
13B63
100
AcDbEntity
  8
寸法
 62
     7
 48
50.0
100
AcDbMText
 10
10180.00029700443
 20
1982.065561808765
 30
0.0
 40
120.0
 41
0.0
 71
     5
 72
     1
  1
\A1;50
  7
STYLE1
 11
0.0000000000000001
 21
1.0
 31
0.0
 73
     1
 44
1.0
1001
ACAD
1000
MTEXTBEGIN
1070
    73
1070
     1
1070
    44
1040
1.0
1070
    74
1070
     0
1000
MTEXTEND
  0
POINT
  5
13E64
330
13B63
100
AcDbEntity
  8
DEFPOINTS
 62
     0
 48
50.0
100
AcDbPoint
 10
11123.75042618769
 20
2338.112805903254
 30
0.0
  0
POINT
  5
13E65
330
13B63
100
AcDbEntity
  8
DEFPOINTS
 62
     0
 48
50.0
100
AcDbPoint
 10
11068.75042618769
 20
2288.112805903255
 30
0.0
  0
POINT
  5
13E66
330
13B63
100
AcDbEntity
  8
DEFPOINTS
 62
     0
 48
50.0
100
AcDbPoint
 10
10280.00029700443
 20
2288.112805903255
 30
0.0
  0
ENDBLK
  5
13B70
330
13B63
100
AcDbEntity
  8
0
 48
50.0
100
AcDbBlockEnd
  0
BLOCK
  5
13B7B
330
13B71
100
AcDbEntity
  8
0
 48
50.0
100
AcDbBlockBegin
  2
*D23
 70
     1
 10
0.0
 20
0.0
 30
0.0
  3
*D23
  1

  0
LINE
  5
13E53
330
13B71
100
AcDbEntity
  8
寸法
 62
     0
 48
50.0
370
    -2
100
AcDbLine
 10
13773.75042618769
 20
2288.112805903256
 30
0.0
 11
14518.67758415982
 21
2288.112805903256
 31
0.0
  0
LINE
  5
13E54
330
13B71
100
AcDbEntity
  8
寸法
 62
     0
 48
50.0
370
    -2
100
AcDbLine
 10
13853.75042618769
 20
4608.112805903255
 30
0.0
 11
14518.67758415982
 21
4608.112805903254
 31
0.0
  0
LINE
  5
13E55
330
13B71
100
AcDbEntity
  8
寸法
 62
     0
 48
50.0
370
    -2
100
AcDbLine
 10
14458.67758415982
 20
2288.112805903256
 30
0.0
 11
14458.67758415982
 21
4608.112805903254
 31
0.0
  0
INSERT
  5
13E56
330
13B71
100
AcDbEntity
  8
寸法
 62
     0
 48
50.0
370
    -2
100
AcDbBlockReference
  2
_DOTSMALL
 10
14458.67758415982
 20
2288.112805903256
 30
0.0
 41
100.0
 42
100.0
 43
100.0
 50
270.0
  0
INSERT
  5
13E57
330
13B71
100
AcDbEntity
  8
寸法
 62
     0
 48
50.0
370
    -2
100
AcDbBlockReference
  2
_DOTSMALL
 10
14458.67758415982
 20
4608.112805903254
 30
0.0
 41
100.0
 42
100.0
 43
100.0
 50
90.0
  0
MTEXT
  5
13E58
330
13B71
100
AcDbEntity
  8
寸法
 62
     7
 48
50.0
100
AcDbMText
 10
14358.6657731362
 20
3448.112805903257
 30
0.0
 40
120.0
 41
0.0
 71
     5
 72
     1
  1
\A1;2320
  7
STYLE1
 11
0.0000000000000001
 21
1.0
 31
0.0
 73
     1
 44
1.0
1001
ACAD
1000
MTEXTBEGIN
1070
    73
1070
     1
1070
    44
1040
1.0
1070
    74
1070
     0
1000
MTEXTEND
  0
POINT
  5
13E59
330
13B71
100
AcDbEntity
  8
DEFPOINTS
 62
     0
 48
50.0
100
AcDbPoint
 10
13753.75042618769
 20
2288.112805903256
 30
0.0
  0
POINT
  5
13E5A
330
13B71
100
AcDbEntity
  8
DEFPOINTS
 62
     0
 48
50.0
100
AcDbPoint
 10
13833.75042618769
 20
4608.112805903255
 30
0.0
  0
POINT
  5
13E5B
330
13B71
100
AcDbEntity
  8
DEFPOINTS
 62
     0
 48
50.0
100
AcDbPoint
 10
14458.67758415982
 20
4608.112805903254
 30
0.0
  0
ENDBLK
  5
13B7C
330
13B71
100
AcDbEntity
  8
0
 48
50.0
100
AcDbBlockEnd
  0
BLOCK
  5
13B87
330
13B7D
100
AcDbEntity
  8
0
 48
50.0
100
AcDbBlockBegin
  2
*D24
 70
     1
 10
0.0
 20
0.0
 30
0.0
  3
*D24
  1

  0
LINE
  5
13E4A
330
13B7D
100
AcDbEntity
  8
寸法
 62
     0
 48
50.0
370
    -2
100
AcDbLine
 10
11103.75042618769
 20
2288.11280590325
 30
0.0
 11
9920.000297004429
 21
2288.11280590325
 31
0.0
  0
LINE
  5
13E4B
330
13B7D
100
AcDbEntity
  8
寸法
 62
     0
 48
50.0
370
    -2
100
AcDbLine
 10
11043.75042618769
 20
4663.112805903255
 30
0.0
 11
9920.000297004433
 21
4663.112805903256
 31
0.0
  0
LINE
  5
13E4C
330
13B7D
100
AcDbEntity
  8
寸法
 62
     0
 48
50.0
370
    -2
100
AcDbLine
 10
9980.00029700443
 20
2288.11280590325
 30
0.0
 11
9980.000297004432
 21
4663.112805903256
 31
0.0
  0
INSERT
  5
13E4D
330
13B7D
100
AcDbEntity
  8
寸法
 62
     0
 48
50.0
370
    -2
100
AcDbBlockReference
  2
_DOTSMALL
 10
9980.00029700443
 20
2288.11280590325
 30
0.0
 41
100.0
 42
100.0
 43
100.0
 50
270.0
  0
INSERT
  5
13E4E
330
13B7D
100
AcDbEntity
  8
寸法
 62
     0
 48
50.0
370
    -2
100
AcDbBlockReference
  2
_DOTSMALL
 10
9980.000297004432
 20
4663.112805903256
 30
0.0
 41
100.0
 42
100.0
 43
100.0
 50
90.0
  0
MTEXT
  5
13E4F
330
13B7D
100
AcDbEntity
  8
寸法
 62
     7
 48
50.0
100
AcDbMText
 10
9879.98848598081
 20
3475.612805903254
 30
0.0
 40
120.0
 41
0.0
 71
     5
 72
     1
  1
\A1;2375
  7
STYLE1
 11
0.0000000000000001
 21
1.0
 31
0.0
 73
     1
 44
1.0
1001
ACAD
1000
MTEXTBEGIN
1070
    73
1070
     1
1070
    44
1040
1.0
1070
    74
1070
     0
1000
MTEXTEND
  0
POINT
  5
13E50
330
13B7D
100
AcDbEntity
  8
DEFPOINTS
 62
     0
 48
50.0
100
AcDbPoint
 10
11123.75042618769
 20
2288.11280590325
 30
0.0
  0
POINT
  5
13E51
330
13B7D
100
AcDbEntity
  8
DEFPOINTS
 62
     0
 48
50.0
100
AcDbPoint
 10
11063.75042618769
 20
4663.112805903255
 30
0.0
  0
POINT
  5
13E52
330
13B7D
100
AcDbEntity
  8
DEFPOINTS
 62
     0
 48
50.0
100
AcDbPoint
 10
9980.000297004432
 20
4663.112805903256
 30
0.0
  0
ENDBLK
  5
13B88
330
13B7D
100
AcDbEntity
  8
0
 48
50.0
100
AcDbBlockEnd
  0
BLOCK
  5
13B93
330
13B89
100
AcDbEntity
  8
0
 48
50.0
100
AcDbBlockBegin
  2
*D25
 70
     1
 10
0.0
 20
0.0
 30
0.0
  3
*D25
  1

  0
LINE
  5
13E41
330
13B89
100
AcDbEntity
  8
寸法
 62
     0
 48
50.0
370
    -2
100
AcDbLine
 10
11103.75042618769
 20
4428.112805903251
 30
0.0
 11
10220.00029700443
 21
4428.112805903252
 31
0.0
  0
LINE
  5
13E42
330
13B89
100
AcDbEntity
  8
寸法
 62
     0
 48
50.0
370
    -2
100
AcDbLine
 10
11103.75042618769
 20
2338.11280590325
 30
0.0
 11
10220.00029700443
 21
2338.11280590325
 31
0.0
  0
LINE
  5
13E43
330
13B89
100
AcDbEntity
  8
寸法
 62
     0
 48
50.0
370
    -2
100
AcDbLine
 10
10280.00029700443
 20
4428.112805903251
 30
0.0
 11
10280.00029700443
 21
2338.11280590325
 31
0.0
  0
INSERT
  5
13E44
330
13B89
100
AcDbEntity
  8
寸法
 62
     0
 48
50.0
370
    -2
100
AcDbBlockReference
  2
_DOTSMALL
 10
10280.00029700443
 20
4428.112805903251
 30
0.0
 41
100.0
 42
100.0
 43
100.0
 50
90.0
  0
INSERT
  5
13E45
330
13B89
100
AcDbEntity
  8
寸法
 62
     0
 48
50.0
370
    -2
100
AcDbBlockReference
  2
_DOTSMALL
 10
10280.00029700443
 20
2338.11280590325
 30
0.0
 41
100.0
 42
100.0
 43
100.0
 50
270.0
  0
MTEXT
  5
13E46
330
13B89
100
AcDbEntity
  8
寸法
 62
     7
 48
50.0
100
AcDbMText
 10
10179.98848598081
 20
3383.112805903252
 30
0.0
 40
120.0
 41
0.0
 71
     5
 72
     1
  1
\A1;2090
  7
STYLE1
 11
0.0000000000000001
 21
1.0
 31
0.0
 73
     1
 44
1.0
1001
ACAD
1000
MTEXTBEGIN
1070
    73
1070
     1
1070
    44
1040
1.0
1070
    74
1070
     0
1000
MTEXTEND
  0
POINT
  5
13E47
330
13B89
100
AcDbEntity
  8
DEFPOINTS
 62
     0
 48
50.0
100
AcDbPoint
 10
11123.75042618769
 20
4428.112805903251
 30
0.0
  0
POINT
  5
13E48
330
13B89
100
AcDbEntity
  8
DEFPOINTS
 62
     0
 48
50.0
100
AcDbPoint
 10
11123.75042618769
 20
2338.11280590325
 30
0.0
  0
POINT
  5
13E49
330
13B89
100
AcDbEntity
  8
DEFPOINTS
 62
     0
 48
50.0
100
AcDbPoint
 10
10280.00029700443
 20
2338.11280590325
 30
0.0
  0
ENDBLK
  5
13B94
330
13B89
100
AcDbEntity
  8
0
 48
50.0
100
AcDbBlockEnd
  0
BLOCK
  5
13B9F
330
13B95
100
AcDbEntity
  8
0
 48
50.0
100
AcDbBlockBegin
  2
*D26
 70
     1
 10
0.0
 20
0.0
 30
0.0
  3
*D26
  1

  0
LINE
  5
13E38
330
13B95
100
AcDbEntity
  8
寸法
 62
     0
 48
50.0
370
    -2
100
AcDbLine
 10
11026.75042618769
 20
4379.112805903254
 30
0.0
 11
10538.84178479044
 21
4379.112805903254
 31
0.0
  0
LINE
  5
13E39
330
13B95
100
AcDbEntity
  8
寸法
 62
     0
 48
50.0
370
    -2
100
AcDbLine
 10
11026.75042618769
 20
2354.112805903255
 30
0.0
 11
10538.84178479043
 21
2354.112805903255
 31
0.0
  0
LINE
  5
13E3A
330
13B95
100
AcDbEntity
  8
寸法
 62
     0
 48
50.0
370
    -2
100
AcDbLine
 10
10578.84178479044
 20
4359.112805903254
 30
0.0
 11
10578.84178479043
 21
2374.112805903255
 31
0.0
  0
INSERT
  5
13E3B
330
13B95
100
AcDbEntity
  8
寸法
 62
     0
 48
50.0
370
    -2
100
AcDbBlockReference
  2
_DOT
 10
10578.84178479044
 20
4379.112805903254
 30
0.0
 41
20.0
 42
20.0
 43
20.0
 50
90.0
  0
INSERT
  5
13E3C
330
13B95
100
AcDbEntity
  8
寸法
 62
     0
 48
50.0
370
    -2
100
AcDbBlockReference
  2
_DOT
 10
10578.84178479043
 20
2354.112805903255
 30
0.0
 41
20.0
 42
20.0
 43
20.0
 50
270.0
  0
MTEXT
  5
13E3D
330
13B95
100
AcDbEntity
  8
寸法
 62
     7
 48
50.0
100
AcDbMText
 10
10486.82997376681
 20
3366.612805903257
 30
0.0
 40
120.0
 41
0.0
 71
     5
 72
     1
  1
\A1;有効開口部高サ2025
  7
STYLE1
 11
0.0000000000000001
 21
1.0
 31
0.0
 73
     1
 44
1.0
1001
ACAD
1000
MTEXTBEGIN
1070
    73
1070
     1
1070
    44
1040
1.0
1070
    74
1070
     0
1000
MTEXTEND
  0
POINT
  5
13E3E
330
13B95
100
AcDbEntity
  8
DEFPOINTS
 62
     0
 48
50.0
100
AcDbPoint
 10
11046.75042618769
 20
4379.112805903254
 30
0.0
  0
POINT
  5
13E3F
330
13B95
100
AcDbEntity
  8
DEFPOINTS
 62
     0
 48
50.0
100
AcDbPoint
 10
11046.75042618769
 20
2354.112805903255
 30
0.0
  0
POINT
  5
13E40
330
13B95
100
AcDbEntity
  8
DEFPOINTS
 62
     0
 48
50.0
100
AcDbPoint
 10
10578.84178479043
 20
2354.112805903255
 30
0.0
  0
ENDBLK
  5
13BA0
330
13B95
100
AcDbEntity
  8
0
 48
50.0
100
AcDbBlockEnd
  0
BLOCK
  5
1413C
330
14132
100
AcDbEntity
  8
0
 48
50.0
100
AcDbBlockBegin
  2
*D27
 70
     1
 10
0.0
 20
0.0
 30
0.0
  3
*D27
  1

  0
LINE
  5
14186
330
14132
100
AcDbEntity
  8
寸法
 62
     0
 48
50.0
370
    -2
100
AcDbLine
 10
3468.350663344683
 20
7043.729096344953
 30
0.0
 11
3468.350663344683
 21
6345.847884737821
 31
0.0
  0
LINE
  5
14187
330
14132
100
AcDbEntity
  8
寸法
 62
     0
 48
50.0
370
    -2
100
AcDbLine
 10
4734.350663344682
 20
7043.729096344953
 30
0.0
 11
4734.350663344682
 21
6345.847884737821
 31
0.0
  0
LINE
  5
14188
330
14132
100
AcDbEntity
  8
寸法
 62
     0
 48
50.0
370
    -2
100
AcDbLine
 10
3488.350663344682
 20
6385.84788473782
 30
0.0
 11
4714.350663344682
 21
6385.84788473782
 31
0.0
  0
INSERT
  5
14189
330
14132
100
AcDbEntity
  8
寸法
 62
     0
 48
50.0
370
    -2
100
AcDbBlockReference
  2
_DOT
 10
3468.350663344683
 20
6385.84788473782
 30
0.0
 41
20.0
 42
20.0
 43
20.0
 50
180.0
  0
INSERT
  5
1418A
330
14132
100
AcDbEntity
  8
寸法
 62
     0
 48
50.0
370
    -2
100
AcDbBlockReference
  2
_DOT
 10
4734.350663344682
 20
6385.84788473782
 30
0.0
 41
20.0
 42
20.0
 43
20.0
  0
MTEXT
  5
1418B
330
14132
100
AcDbEntity
  8
寸法
 62
     7
 48
50.0
100
AcDbMText
 10
4107.142056535056
 20
6577.859695761443
 30
0.0
 40
120.0
 41
0.0
 71
     5
 72
     1
  1
\A1;有効開口部間口\P1266
  7
STYLE1
 73
     1
 44
1.0
1001
ACAD
1000
MTEXTBEGIN
1070
    73
1070
     1
1070
    44
1040
1.0
1070
    74
1070
     0
1000
MTEXTEND
  0
POINT
  5
1418C
330
14132
100
AcDbEntity
  8
DEFPOINTS
 62
     0
 48
50.0
100
AcDbPoint
 10
3468.350663344683
 20
7063.729096344953
 30
0.0
  0
POINT
  5
1418D
330
14132
100
AcDbEntity
  8
DEFPOINTS
 62
     0
 48
50.0
100
AcDbPoint
 10
4734.350663344682
 20
7063.729096344953
 30
0.0
  0
POINT
  5
1418E
330
14132
100
AcDbEntity
  8
DEFPOINTS
 62
     0
 48
50.0
100
AcDbPoint
 10
4734.350663344682
 20
6385.84788473782
 30
0.0
  0
ENDBLK
  5
1413D
330
14132
100
AcDbEntity
  8
0
 48
50.0
100
AcDbBlockEnd
  0
BLOCK
  5
144D4
330
144CA
100
AcDbEntity
  8
0
 48
50.0
100
AcDbBlockBegin
  2
*D28
 70
     1
 10
0.0
 20
0.0
 30
0.0
  3
*D28
  1

  0
LINE
  5
1462B
330
144CA
100
AcDbEntity
  8
寸法
 62
     0
 48
50.0
370
    -2
100
AcDbLine
 10
2981.350663344681
 20
7120.729096344955
 30
0.0
 11
2981.350663344681
 21
5775.64713884211
 31
0.0
  0
LINE
  5
1462C
330
144CA
100
AcDbEntity
  8
寸法
 62
     0
 48
50.0
370
    -2
100
AcDbLine
 10
5611.350663344683
 20
7175.729096344955
 30
0.0
 11
5611.350663344683
 21
5775.64713884211
 31
0.0
  0
LINE
  5
1462D
330
144CA
100
AcDbEntity
  8
寸法
 62
     0
 48
50.0
370
    -2
100
AcDbLine
 10
3001.350663344681
 20
5815.647138842109
 30
0.0
 11
5591.350663344682
 21
5815.647138842109
 31
0.0
  0
INSERT
  5
1462E
330
144CA
100
AcDbEntity
  8
寸法
 62
     0
 48
50.0
370
    -2
100
AcDbBlockReference
  2
_DOT
 10
2981.350663344681
 20
5815.647138842109
 30
0.0
 41
20.0
 42
20.0
 43
20.0
 50
180.0
  0
INSERT
  5
1462F
330
144CA
100
AcDbEntity
  8
寸法
 62
     0
 48
50.0
370
    -2
100
AcDbBlockReference
  2
_DOT
 10
5611.350663344683
 20
5815.647138842109
 30
0.0
 41
20.0
 42
20.0
 43
20.0
  0
MTEXT
  5
14630
330
144CA
100
AcDbEntity
  8
寸法
 62
     7
 48
50.0
100
AcDbMText
 10
4296.350663344681
 20
5907.658949865731
 30
0.0
 40
120.0
 41
0.0
 71
     5
 72
     1
  1
\A1;2630
  7
STYLE1
 73
     1
 44
1.0
1001
ACAD
1000
MTEXTBEGIN
1070
    73
1070
     1
1070
    44
1040
1.0
1070
    74
1070
     0
1000
MTEXTEND
  0
POINT
  5
14631
330
144CA
100
AcDbEntity
  8
DEFPOINTS
 62
     0
 48
50.0
100
AcDbPoint
 10
2981.350663344681
 20
7140.729096344955
 30
0.0
  0
POINT
  5
14632
330
144CA
100
AcDbEntity
  8
DEFPOINTS
 62
     0
 48
50.0
100
AcDbPoint
 10
5611.350663344683
 20
7195.729096344955
 30
0.0
  0
POINT
  5
14633
330
144CA
100
AcDbEntity
  8
DEFPOINTS
 62
     0
 48
50.0
100
AcDbPoint
 10
5611.350663344683
 20
5815.647138842109
 30
0.0
  0
ENDBLK
  5
144D5
330
144CA
100
AcDbEntity
  8
0
 48
50.0
100
AcDbBlockEnd
  0
BLOCK
  5
144E0
330
144D6
100
AcDbEntity
  8
0
 48
50.0
100
AcDbBlockBegin
  2
*D29
 70
     1
 10
0.0
 20
0.0
 30
0.0
  3
*D29
  1

  0
LINE
  5
14622
330
144D6
100
AcDbEntity
  8
寸法
 62
     0
 48
50.0
370
    -2
100
AcDbLine
 10
5611.350663344683
 20
7175.729096344952
 30
0.0
 11
5611.350663344683
 21
5775.64713884211
 31
0.0
  0
LINE
  5
14623
330
144D6
100
AcDbEntity
  8
寸法
 62
     0
 48
50.0
370
    -2
100
AcDbLine
 10
8241.350663344681
 20
7120.729096344955
 30
0.0
 11
8241.350663344681
 21
5775.64713884211
 31
0.0
  0
LINE
  5
14624
330
144D6
100
AcDbEntity
  8
寸法
 62
     0
 48
50.0
370
    -2
100
AcDbLine
 10
5631.350663344682
 20
5815.647138842109
 30
0.0
 11
8221.350663344681
 21
5815.647138842109
 31
0.0
  0
INSERT
  5
14625
330
144D6
100
AcDbEntity
  8
寸法
 62
     0
 48
50.0
370
    -2
100
AcDbBlockReference
  2
_DOT
 10
5611.350663344683
 20
5815.647138842109
 30
0.0
 41
20.0
 42
20.0
 43
20.0
 50
180.0
  0
INSERT
  5
14626
330
144D6
100
AcDbEntity
  8
寸法
 62
     0
 48
50.0
370
    -2
100
AcDbBlockReference
  2
_DOT
 10
8241.350663344681
 20
5815.647138842109
 30
0.0
 41
20.0
 42
20.0
 43
20.0
  0
MTEXT
  5
14627
330
144D6
100
AcDbEntity
  8
寸法
 62
     7
 48
50.0
100
AcDbMText
 10
6926.350663344681
 20
5907.658949865731
 30
0.0
 40
120.0
 41
0.0
 71
     5
 72
     1
  1
\A1;2630
  7
STYLE1
 73
     1
 44
1.0
1001
ACAD
1000
MTEXTBEGIN
1070
    73
1070
     1
1070
    44
1040
1.0
1070
    74
1070
     0
1000
MTEXTEND
  0
POINT
  5
14628
330
144D6
100
AcDbEntity
  8
DEFPOINTS
 62
     0
 48
50.0
100
AcDbPoint
 10
5611.350663344683
 20
7195.729096344951
 30
0.0
  0
POINT
  5
14629
330
144D6
100
AcDbEntity
  8
DEFPOINTS
 62
     0
 48
50.0
100
AcDbPoint
 10
8241.350663344681
 20
7140.729096344955
 30
0.0
  0
POINT
  5
1462A
330
144D6
100
AcDbEntity
  8
DEFPOINTS
 62
     0
 48
50.0
100
AcDbPoint
 10
8241.350663344681
 20
5815.647138842109
 30
0.0
  0
ENDBLK
  5
144E1
330
144D6
100
AcDbEntity
  8
0
 48
50.0
100
AcDbBlockEnd
  0
BLOCK
  5
144EE
330
144E2
100
AcDbEntity
  8
0
 48
50.0
100
AcDbBlockBegin
  2
*D30
 70
     1
 10
0.0
 20
0.0
 30
0.0
  3
*D30
  1

  0
LINE
  5
14634
330
144E2
100
AcDbEntity
  8
寸法
 62
     0
 48
50.0
370
    -2
100
AcDbLine
 10
2961.350663344682
 20
7140.729096344955
 30
0.0
 11
2610.031849440632
 21
7140.729096344955
 31
0.0
  0
LINE
  5
14635
330
144E2
100
AcDbEntity
  8
寸法
 62
     0
 48
50.0
370
    -2
100
AcDbLine
 10
3409.350663344682
 20
7065.729096344928
 30
0.0
 11
2610.031849440632
 21
7065.729096344928
 31
0.0
  0
LINE
  5
14636
330
144E2
100
AcDbEntity
  8
寸法
 62
     0
 48
50.0
370
    -2
100
AcDbLine
 10
2650.031849440632
 20
7160.729096344955
 30
0.0
 11
2650.031849440633
 21
7180.729096344954
 31
0.0
  0
LINE
  5
14637
330
144E2
100
AcDbEntity
  8
寸法
 62
     0
 48
50.0
370
    -2
100
AcDbLine
 10
2650.031849440632
 20
7045.729096344928
 30
0.0
 11
2650.031849440632
 21
6824.758533596448
 31
0.0
  0
LINE
  5
14638
330
144E2
100
AcDbEntity
  8
寸法
 62
     0
 48
50.0
370
    -2
100
AcDbLine
 10
2650.031849440632
 20
7140.729096344955
 30
0.0
 11
2650.031849440632
 21
7065.729096344928
 31
0.0
  0
INSERT
  5
14639
330
144E2
100
AcDbEntity
  8
寸法
 62
     0
 48
50.0
370
    -2
100
AcDbBlockReference
  2
_DOT
 10
2650.031849440632
 20
7140.729096344955
 30
0.0
 41
20.0
 42
20.0
 43
20.0
 50
270.0
  0
INSERT
  5
1463A
330
144E2
100
AcDbEntity
  8
寸法
 62
     0
 48
50.0
370
    -2
100
AcDbBlockReference
  2
_DOT
 10
2650.031849440632
 20
7065.729096344928
 30
0.0
 41
20.0
 42
20.0
 43
20.0
 50
90.0
  0
MTEXT
  5
1463B
330
144E2
100
AcDbEntity
  8
寸法
 62
     7
 48
50.0
100
AcDbMText
 10
2558.031849440631
 20
6925.243814970689
 30
0.0
 40
120.0
 41
0.0
 71
     5
 72
     1
  1
\A1;75
  7
STYLE1
 11
0.0000000000000001
 21
1.0
 31
0.0
 73
     1
 44
1.0
1001
ACAD
1000
MTEXTBEGIN
1070
    73
1070
     1
1070
    44
1040
1.0
1070
    74
1070
     0
1000
MTEXTEND
  0
POINT
  5
1463C
330
144E2
100
AcDbEntity
  8
DEFPOINTS
 62
     0
 48
50.0
100
AcDbPoint
 10
2981.350663344681
 20
7140.729096344955
 30
0.0
  0
POINT
  5
1463D
330
144E2
100
AcDbEntity
  8
DEFPOINTS
 62
     0
 48
50.0
100
AcDbPoint
 10
3429.350663344683
 20
7065.729096344928
 30
0.0
  0
POINT
  5
1463E
330
144E2
100
AcDbEntity
  8
DEFPOINTS
 62
     0
 48
50.0
100
AcDbPoint
 10
2650.031849440632
 20
7065.729096344928
 30
0.0
  0
ENDBLK
  5
144EF
330
144E2
100
AcDbEntity
  8
0
 48
50.0
100
AcDbBlockEnd
  0
BLOCK
  5
144FA
330
144F0
100
AcDbEntity
  8
0
 48
50.0
100
AcDbBlockBegin
  2
*D31
 70
     1
 10
0.0
 20
0.0
 30
0.0
  3
*D31
  1

  0
LINE
  5
14619
330
144F0
100
AcDbEntity
  8
寸法
 62
     0
 48
50.0
370
    -2
100
AcDbLine
 10
3429.350663344683
 20
7043.729096344961
 30
0.0
 11
3429.350663344683
 21
6044.772088835706
 31
0.0
  0
LINE
  5
1461A
330
144F0
100
AcDbEntity
  8
寸法
 62
     0
 48
50.0
370
    -2
100
AcDbLine
 10
5583.350663344682
 20
7043.729096344961
 30
0.0
 11
5583.350663344682
 21
6044.772088835706
 31
0.0
  0
LINE
  5
1461B
330
144F0
100
AcDbEntity
  8
寸法
 62
     0
 48
50.0
370
    -2
100
AcDbLine
 10
3429.350663344683
 20
6104.772088835706
 30
0.0
 11
5583.350663344682
 21
6104.772088835706
 31
0.0
  0
INSERT
  5
1461C
330
144F0
100
AcDbEntity
  8
寸法
 62
     0
 48
50.0
370
    -2
100
AcDbBlockReference
  2
_DOTSMALL
 10
3429.350663344683
 20
6104.772088835706
 30
0.0
 41
100.0
 42
100.0
 43
100.0
 50
180.0
  0
INSERT
  5
1461D
330
144F0
100
AcDbEntity
  8
寸法
 62
     0
 48
50.0
370
    -2
100
AcDbBlockReference
  2
_DOTSMALL
 10
5583.350663344682
 20
6104.772088835706
 30
0.0
 41
100.0
 42
100.0
 43
100.0
  0
MTEXT
  5
1461E
330
144F0
100
AcDbEntity
  8
寸法
 62
     7
 48
50.0
100
AcDbMText
 10
4483.47266399354
 20
6204.783899859328
 30
0.0
 40
120.0
 41
0.0
 71
     5
 72
     1
  1
\A1;2154
  7
STYLE1
 73
     1
 44
1.0
1001
ACAD
1000
MTEXTBEGIN
1070
    73
1070
     1
1070
    44
1040
1.0
1070
    74
1070
     0
1000
MTEXTEND
  0
POINT
  5
1461F
330
144F0
100
AcDbEntity
  8
DEFPOINTS
 62
     0
 48
50.0
100
AcDbPoint
 10
3429.350663344683
 20
7063.72909634496
 30
0.0
  0
POINT
  5
14620
330
144F0
100
AcDbEntity
  8
DEFPOINTS
 62
     0
 48
50.0
100
AcDbPoint
 10
5583.350663344682
 20
7063.72909634496
 30
0.0
  0
POINT
  5
14621
330
144F0
100
AcDbEntity
  8
DEFPOINTS
 62
     0
 48
50.0
100
AcDbPoint
 10
5583.350663344682
 20
6104.772088835706
 30
0.0
  0
ENDBLK
  5
144FB
330
144F0
100
AcDbEntity
  8
0
 48
50.0
100
AcDbBlockEnd
  0
BLOCK
  5
1468C
330
14682
100
AcDbEntity
  8
0
 48
50.0
100
AcDbBlockBegin
  2
*D32
 70
     1
 10
0.0
 20
0.0
 30
0.0
  3
*D32
  1

  0
LINE
  5
1468E
330
14682
100
AcDbEntity
  8
寸法
 62
     0
 48
50.0
370
    -2
100
AcDbLine
 10
5656.350665587841
 20
9054.229096344922
 30
0.0
 11
6008.192025848678
 21
9054.229096344922
 31
0.0
  0
LINE
  5
1468F
330
14682
100
AcDbEntity
  8
寸法
 62
     0
 48
50.0
370
    -2
100
AcDbLine
 10
5686.350665588076
 20
9770.729099922098
 30
0.0
 11
6008.192025848678
 21
9770.729099922098
 31
0.0
  0
LINE
  5
14690
330
14682
100
AcDbEntity
  8
寸法
 62
     0
 48
50.0
370
    -2
100
AcDbLine
 10
5948.192025848678
 20
9054.229096344922
 30
0.0
 11
5948.192025848678
 21
9770.729099922098
 31
0.0
  0
INSERT
  5
14691
330
14682
100
AcDbEntity
  8
寸法
 62
     0
 48
50.0
370
    -2
100
AcDbBlockReference
  2
_DOTSMALL
 10
5948.192025848678
 20
9054.229096344922
 30
0.0
 41
100.0
 42
100.0
 43
100.0
 50
270.0
  0
INSERT
  5
14692
330
14682
100
AcDbEntity
  8
寸法
 62
     0
 48
50.0
370
    -2
100
AcDbBlockReference
  2
_DOTSMALL
 10
5948.192025848678
 20
9770.729099922098
 30
0.0
 41
100.0
 42
100.0
 43
100.0
 50
90.0
  0
MTEXT
  5
14693
330
14682
100
AcDbEntity
  8
寸法
 62
     7
 48
50.0
100
AcDbMText
 10
5848.192025848677
 20
9387.967955558362
 30
0.0
 40
120.0
 41
0.0
 71
     5
 72
     1
  1
\A1;716.5
  7
STYLE1
 11
0.0000000000000001
 21
1.0
 31
0.0
 73
     1
 44
1.0
1001
ACAD
1000
MTEXTBEGIN
1070
    73
1070
     1
1070
    44
1040
1.0
1070
    74
1070
     0
1000
MTEXTEND
  0
POINT
  5
14694
330
14682
100
AcDbEntity
  8
DEFPOINTS
 62
     0
 48
50.0
100
AcDbPoint
 10
5636.350665587841
 20
9054.229096344922
 30
0.0
  0
POINT
  5
14695
330
14682
100
AcDbEntity
  8
DEFPOINTS
 62
     0
 48
50.0
100
AcDbPoint
 10
5666.350665588076
 20
9770.729099922098
 30
0.0
  0
POINT
  5
14696
330
14682
100
AcDbEntity
  8
DEFPOINTS
 62
     0
 48
50.0
100
AcDbPoint
 10
5948.192025848678
 20
9770.729099922098
 30
0.0
  0
ENDBLK
  5
1468D
330
14682
100
AcDbEntity
  8
0
 48
50.0
100
AcDbBlockEnd
  0
ENDSEC
  0
SECTION
  2
ENTITIES
  0
MTEXT
  5
763F
330
747D
100
AcDbEntity
  8
0
100
AcDbMText
 10
302.846345836809
 20
280.1983726409901
 30
0.0
 40
3.5
 41
5.323721266742722
 71
     1
 72
     5
  1

  7
MSMINCHO
 73
     1
 44
1.0
1001
ACAD
1000
MTEXTBEGIN
1070
    73
1070
     1
1070
    44
1040
1.0
1070
    74
1070
     0
1000
MTEXTEND
  0
INSERT
  5
F235
330
747D
100
AcDbEntity
  8
0
100
AcDbBlockReference
  2
作図枠S50
 10
0.0
 20
0.0
 30
0.0
 41
0.8
 42
0.8
 43
0.8
  0
LINE
  5
10B56
330
747D
100
AcDbEntity
  8
補助
  6
PHANTOM
 62
   230
 48
50.0
100
AcDbLine
 10
140.0
 20
0.0
 30
0.0
 11
139.9999999999995
 21
11409.6
 31
0.0
  0
LINE
  5
10B57
330
747D
100
AcDbEntity
  8
補助
  6
PHANTOM
 62
   230
 48
50.0
100
AcDbLine
 10
139.9999999999995
 20
11409.6
 30
0.0
 11
16307.2
 21
11409.6
 31
0.0
  0
LINE
  5
10B59
330
747D
100
AcDbEntity
  8
仕様書枠
  6
Continuous
 48
50.0
100
AcDbLine
 10
13107.2
 20
1200.0
 30
0.0
 11
13107.2
 21
-0.0000000000000729
 31
0.0
  0
LINE
  5
10B5C
330
747D
100
AcDbEntity
  8
仕様書枠
 48
50.0
100
AcDbLine
 10
16307.2
 20
1200.0
 30
0.0
 11
16307.2
 21
-0.0000000000000909
 31
0.0
  0
LINE
  5
10B5D
330
747D
100
AcDbEntity
  8
仕様書枠
 48
50.0
100
AcDbLine
 10
140.0
 20
0.0
 30
0.0
 11
16307.2
 21
-0.0000000000000909
 31
0.0
  0
LINE
  5
10B5E
330
747D
100
AcDbEntity
  8
補助
  6
PHANTOM
 62
   230
 48
50.0
100
AcDbLine
 10
16307.2
 20
11409.6
 30
0.0
 11
16307.2
 21
1200.0
 31
0.0
  0
LINE
  5
10B6C
330
747D
100
AcDbEntity
  8
仕様書枠
 48
50.0
100
AcDbLine
 10
13107.2
 20
1200.0
 30
0.0
 11
16307.2
 21
1200.0
 31
0.0
  0
LINE
  5
10B6D
330
747D
100
AcDbEntity
  8
補助
  6
PHANTOM
 62
   230
 48
50.0
100
AcDbLine
 10
13107.2
 20
11409.6
 30
0.0
 11
13107.2
 21
4800.0
 31
0.0
  0
LINE
  5
10B6F
330
747D
100
AcDbEntity
  8
補助
  6
PHANTOM
 62
   230
 48
50.0
100
AcDbLine
 10
13107.2
 20
4800.0
 30
0.0
 11
16307.2
 21
4800.0
 31
0.0
  0
LINE
  5
10B72
330
747D
100
AcDbEntity
  8
文字
 62
     7
 48
50.0
100
AcDbLine
 10
13187.2
 20
400.0
 30
0.0
 11
16227.2
 21
400.0
 31
0.0
  0
TEXT
  5
10B73
330
747D
100
AcDbEntity
  8
文字
 62
     7
 48
50.0
100
AcDbText
 10
13162.9790565769
 20
895.0906074299405
 30
0.0
 40
200.0
  1
外 形 図
  7
STYLE2
100
AcDbText
  0
TEXT
  5
10B74
330
747D
100
AcDbEntity
  8
文字
 62
     7
 48
50.0
100
AcDbText
 10
13201.43669998441
 20
477.2740661031255
 30
0.0
 40
160.0
  1
機種名
  7
STYLE2
100
AcDbText
  0
TEXT
  5
10B76
330
747D
100
AcDbEntity
  8
文字
 62
     7
 48
50.0
100
AcDbText
 10
13209.4053442172
 20
76.09434707649343
 30
0.0
 40
100.0
  1
○床面積 ： 14.00㎡(4.24坪) 　
  7
STYLE2
100
AcDbText
  0
TEXT
  5
10B79
330
747D
100
AcDbEntity
  8
文字
 62
     7
 48
50.0
100
AcDbText
 10
14524.131837222
 20
1031.557706291228
 30
0.0
 40
100.0
  1
NO.21     <縮尺> S=1/40
  7
STYLE2
100
AcDbText
  0
LINE
  5
10B7B
330
747D
100
AcDbEntity
  8
仕様書枠
 48
50.0
100
AcDbLine
 10
13107.2
 20
800.0
 30
0.0
 11
14251.2
 21
800.0
 31
0.0
  0
LINE
  5
10B88
330
747D
100
AcDbEntity
  8
仕様書枠
  6
Continuous
 48
50.0
100
AcDbLine
 10
14251.2
 20
1200.0
 30
0.0
 11
14251.2
 21
800.0
 31
0.0
  0
TEXT
  5
10EA8
330
747D
100
AcDbEntity
  8
文字
 62
     7
 48
50.0
100
AcDbText
 10
14606.49559096696
 20
838.2527270729188
 30
0.0
 40
100.0
  1
～多雪地型～
  7
STYLE2
100
AcDbText
  0
LINE
  5
13240
330
747D
100
AcDbEntity
  8
細線
 48
50.0
100
AcDbLine
 10
3378.850663344685
 20
4428.112805903256
 30
0.0
 11
3378.850663344689
 21
2338.112805903256
 31
0.0
  0
LINE
  5
13241
330
747D
100
AcDbEntity
  8
細線
 48
50.0
100
AcDbLine
 10
3393.850663344685
 20
4428.112805903256
 30
0.0
 11
3393.850663344688
 21
2338.112805903256
 31
0.0
  0
LINE
  5
13242
330
747D
100
AcDbEntity
  8
細線
 48
50.0
100
AcDbLine
 10
3253.850663344685
 20
4428.112805903256
 30
0.0
 11
3253.850663344689
 21
2338.112805903256
 31
0.0
  0
LINE
  5
13243
330
747D
100
AcDbEntity
  8
細線
 48
50.0
100
AcDbLine
 10
3238.850663344685
 20
4428.112805903256
 30
0.0
 11
3238.850663344689
 21
2338.112805903256
 31
0.0
  0
LINE
  5
13244
330
747D
100
AcDbEntity
  8
細線
 48
50.0
100
AcDbLine
 10
3098.850663344685
 20
4428.112805903256
 30
0.0
 11
3098.850663344689
 21
2338.112805903256
 31
0.0
  0
LINE
  5
13245
330
747D
100
AcDbEntity
  8
細線
 48
50.0
100
AcDbLine
 10
3113.850663344685
 20
4428.112805903256
 30
0.0
 11
3113.850663344689
 21
2338.112805903256
 31
0.0
  0
LINE
  5
13246
330
747D
100
AcDbEntity
  8
部品1
100
AcDbLine
 10
8213.35066334468
 20
8875.72909634496
 30
0.0
 11
8241.350663344681
 21
8875.72909634496
 31
0.0
  0
LINE
  5
13247
330
747D
100
AcDbEntity
  8
部品1
100
AcDbLine
 10
5666.350663344681
 20
8875.729096344958
 30
0.0
 11
8186.350663344681
 21
8875.729096344958
 31
0.0
  0
LINE
  5
13248
330
747D
100
AcDbEntity
  8
部品1
100
AcDbLine
 10
3009.350663344682
 20
8875.72909634496
 30
0.0
 11
2981.350663344681
 21
8875.72909634496
 31
0.0
  0
LINE
  5
13249
330
747D
100
AcDbEntity
  8
部品1
100
AcDbLine
 10
5556.350663344681
 20
8875.729096344958
 30
0.0
 11
3036.350663344681
 21
8875.729096344954
 31
0.0
  0
DIMENSION
  5
1324A
330
747D
100
AcDbEntity
  8
寸法
 48
50.0
100
AcDbDimension
  2
*D3
 10
8241.350663344681
 20
10145.44150636375
 30
0.0
 11
8635.517330011349
 21
10145.44150636375
 31
0.0
 70
   160
 71
     5
 42
55.0
  3
INABA_S40
100
AcDbAlignedDimension
 13
8186.350663344681
 23
9770.729096344958
 33
0.0
 14
8241.350663344681
 24
9770.729096344958
 34
0.0
100
AcDbRotatedDimension
1001
ACAD
1000
DSTYLE
1002
{
1070
   287
1070
     3
1070
    41
1040
0.5
1070
    44
1040
1.0
1070
   147
1040
0.8
1070
   271
1070
     2
1070
   272
1070
     2
1070
   289
1070
     3
1070
   340
1005
F706
1070
     6
1000
DOT
1070
     7
1000
DOT
1002
}
  0
DIMENSION
  5
1324B
330
747D
100
AcDbEntity
  8
寸法
 48
50.0
100
AcDbDimension
  2
*D4
 10
9312.097780389034
 20
7140.729096344955
 30
0.0
 11
9220.085969365412
 21
8455.729096344958
 31
0.0
 70
    32
 71
     5
 42
2630.000000000001
  3
INABA_S40
100
AcDbAlignedDimension
 13
8241.350663344681
 23
9770.729096344958
 33
0.0
 14
8241.350663344681
 24
7140.729096344955
 34
0.0
 50
90.0
100
AcDbRotatedDimension
1001
ACAD
1000
DSTYLE
1002
{
1070
   287
1070
     3
1070
    41
1040
0.5
1070
    44
1040
1.0
1070
   147
1040
0.8
1070
   271
1070
     2
1070
   272
1070
     2
1070
   289
1070
     3
1070
   340
1005
F706
1070
     6
1000
DOT
1070
     7
1000
DOT
1002
}
  0
DIMENSION
  5
1324C
330
747D
100
AcDbEntity
  8
寸法
 48
50.0
100
AcDbDimension
  2
*D5
 10
9012.097780389037
 20
7140.729096344955
 30
0.0
 11
9012.097780389034
 21
6746.562429678291
 31
0.0
 70
   160
 71
     5
 42
54.99999999999727
  3
INABA_S40
100
AcDbAlignedDimension
 13
8241.350663344681
 23
7195.729096344952
 33
0.0
 14
8241.350663344681
 24
7140.729096344955
 34
0.0
 50
90.0
100
AcDbRotatedDimension
1001
ACAD
1000
DSTYLE
1002
{
1070
   287
1070
     3
1070
    41
1040
0.5
1070
    44
1040
1.0
1070
   147
1040
0.8
1070
   271
1070
     2
1070
   272
1070
     2
1070
   289
1070
     3
1070
   340
1005
F706
1070
     6
1000
DOT
1070
     7
1000
DOT
1002
}
  0
DIMENSION
  5
1324D
330
747D
100
AcDbEntity
  8
寸法
 48
50.0
100
AcDbDimension
  2
*D6
 10
9012.097780389034
 20
7195.729096344952
 30
0.0
 11
8920.085969365411
 21
8455.729096344958
 31
0.0
 70
    32
  1
6X420=<>
 71
     5
 42
2520.000000000008
  3
INABA_S40
100
AcDbAlignedDimension
 13
8241.350663344681
 23
9715.72909634496
 33
0.0
 14
8241.350663344681
 24
7195.729096344952
 34
0.0
 50
90.0
100
AcDbRotatedDimension
1001
ACAD
1000
DSTYLE
1002
{
1070
   287
1070
     3
1070
    41
1040
0.5
1070
    44
1040
1.0
1070
   147
1040
0.8
1070
   271
1070
     2
1070
   272
1070
     2
1070
   289
1070
     3
1070
   340
1005
F706
1070
     6
1000
DOT
1070
     7
1000
DOT
1002
}
  0
DIMENSION
  5
1324E
330
747D
100
AcDbEntity
  8
寸法
 48
50.0
100
AcDbDimension
  2
*D7
 10
9012.097780389037
 20
9715.72909634496
 30
0.0
 11
9012.097780389034
 21
10164.89576301162
 31
0.0
 70
   160
 71
     5
 42
54.99999999999636
  3
INABA_S40
100
AcDbAlignedDimension
 13
8241.350663344681
 23
9770.729096344958
 33
0.0
 14
8241.350663344681
 24
9715.72909634496
 34
0.0
 50
90.0
100
AcDbRotatedDimension
1001
ACAD
1000
DSTYLE
1002
{
1070
   287
1070
     3
1070
    41
1040
0.5
1070
    44
1040
1.0
1070
   147
1040
0.8
1070
   271
1070
     2
1070
   272
1070
     2
1070
   289
1070
     3
1070
   340
1005
F706
1070
     6
1000
DOT
1070
     7
1000
DOT
1002
}
  0
LINE
  5
1324F
330
747D
100
AcDbEntity
  8
Ｇ_Ｌ
 48
50.0
100
AcDbLine
 10
1717.483276118539
 20
2188.112805903255
 30
0.0
 11
14588.71307283783
 21
2188.112805903255
 31
0.0
  0
LINE
  5
13250
330
747D
100
AcDbEntity
  8
部品1
100
AcDbLine
 10
2981.350663344681
 20
4428.112805903256
 30
0.0
 11
8241.350663344681
 21
4428.112805903256
 31
0.0
  0
LINE
  5
13251
330
747D
100
AcDbEntity
  8
部品1
100
AcDbLine
 10
2981.350663344681
 20
2288.112805903256
 30
0.0
 11
5611.350663344683
 21
2288.112805903256
 31
0.0
  0
LINE
  5
13252
330
747D
100
AcDbEntity
  8
部品1
100
AcDbLine
 10
3036.350663344681
 20
4428.112805903256
 30
0.0
 11
3036.350663344681
 21
2338.112805903254
 31
0.0
  0
LINE
  5
13253
330
747D
100
AcDbEntity
  8
部品1
100
AcDbLine
 10
2981.350663344681
 20
4522.112805903261
 30
0.0
 11
2981.350663344681
 21
2188.112805903255
 31
0.0
  0
TEXT
  5
13254
330
747D
100
AcDbEntity
  8
部品1
100
AcDbText
 10
2148.419967996946
 20
2202.954510774245
 30
0.0
 40
125.0
  1
G.L
  7
MSGOTHIC
100
AcDbText
  0
LINE
  5
13255
330
747D
100
AcDbEntity
  8
部品1
100
AcDbLine
 10
2005.936014297127
 20
2292.035854357388
 30
0.0
 11
2125.936014297127
 21
2292.035854357388
 31
0.0
  0
LINE
  5
13256
330
747D
100
AcDbEntity
  8
部品1
100
AcDbLine
 10
2125.936014297127
 20
2292.035854357388
 30
0.0
 11
2065.936014297127
 21
2188.112805903255
 31
0.0
  0
LINE
  5
13257
330
747D
100
AcDbEntity
  8
部品1
100
AcDbLine
 10
2065.936014297127
 20
2188.112805903255
 30
0.0
 11
2005.936014297127
 21
2292.035854357388
 31
0.0
  0
LINE
  5
13258
330
747D
100
AcDbEntity
  8
部品1
 48
50.0
100
AcDbLine
 10
3429.350663344682
 20
2338.112805903254
 30
0.0
 11
2981.350663344681
 21
2338.112805903254
 31
0.0
  0
LINE
  5
13259
330
747D
100
AcDbEntity
  8
部品1
100
AcDbLine
 10
5611.350663344682
 20
2288.112805903256
 30
0.0
 11
8241.350663344681
 21
2288.112805903256
 31
0.0
  0
LINE
  5
1325A
330
747D
100
AcDbEntity
  8
部品1
 48
50.0
100
AcDbLine
 10
5611.350663344682
 20
2338.112805903254
 30
0.0
 11
8241.350663344681
 21
2338.112805903254
 31
0.0
  0
LINE
  5
1325B
330
747D
100
AcDbEntity
  8
部品1
100
AcDbLine
 10
5666.350663344681
 20
4428.112805903256
 30
0.0
 11
5666.350663344681
 21
2338.112805903254
 31
0.0
  0
LINE
  5
1325C
330
747D
100
AcDbEntity
  8
部品1
100
AcDbLine
 10
6086.350663344681
 20
4428.112805903256
 30
0.0
 11
6086.350663344681
 21
2338.112805903254
 31
0.0
  0
LINE
  5
1325D
330
747D
100
AcDbEntity
  8
部品1
 48
50.0
100
AcDbLine
 10
5611.350663344682
 20
2338.112805903254
 30
0.0
 11
5583.350663344681
 21
2338.112805903254
 31
0.0
  0
LINE
  5
1325E
330
747D
100
AcDbEntity
  8
部品1
100
AcDbLine
 10
5611.350663344682
 20
2338.112805903254
 30
0.0
 11
5611.350663344683
 21
2288.112805903256
 31
0.0
  0
LINE
  5
1325F
330
747D
100
AcDbEntity
  8
部品1
100
AcDbLine
 10
5611.350663344682
 20
4428.112805903256
 30
0.0
 11
5611.350663344682
 21
4522.11280590326
 31
0.0
  0
LINE
  5
13260
330
747D
100
AcDbEntity
  8
部品1
100
AcDbLine
 10
7346.350663344695
 20
4428.112805903256
 30
0.0
 11
7346.350663344693
 21
2338.112805903254
 31
0.0
  0
LINE
  5
13261
330
747D
100
AcDbEntity
  8
部品1
100
AcDbLine
 10
6926.350663344696
 20
4428.112805903256
 30
0.0
 11
6926.350663344692
 21
2338.112805903254
 31
0.0
  0
LINE
  5
13262
330
747D
100
AcDbEntity
  8
部品1
100
AcDbLine
 10
6926.350663344681
 20
4428.112805903256
 30
0.0
 11
6926.350663344681
 21
2338.112805903254
 31
0.0
  0
LINE
  5
13263
330
747D
100
AcDbEntity
  8
部品1
100
AcDbLine
 10
6506.350663344682
 20
4428.112805903256
 30
0.0
 11
6506.350663344682
 21
2338.112805903254
 31
0.0
  0
LINE
  5
13264
330
747D
100
AcDbEntity
  8
部品1
100
AcDbLine
 10
7766.350663344681
 20
4428.112805903257
 30
0.0
 11
7766.350663344667
 21
2338.112805903254
 31
0.0
  0
LINE
  5
13265
330
747D
100
AcDbEntity
  8
部品1
100
AcDbLine
 10
8186.350663344681
 20
4428.112805903256
 30
0.0
 11
8186.350663344681
 21
2338.112805903254
 31
0.0
  0
LINE
  5
13266
330
747D
100
AcDbEntity
  8
部品1
100
AcDbLine
 10
8241.350663344681
 20
4522.112805903261
 30
0.0
 11
8241.350663344681
 21
2188.112805903255
 31
0.0
  0
LINE
  5
13267
330
747D
100
AcDbEntity
  8
部品1
100
AcDbLine
 10
3036.350663344678
 20
9715.729096344958
 30
0.0
 11
5556.350663344681
 21
9715.729096344965
 31
0.0
  0
LINE
  5
13268
330
747D
100
AcDbEntity
  8
部品1
100
AcDbLine
 10
3876.350663344682
 20
9742.729096344964
 30
0.0
 11
3009.350663344682
 21
9742.729096344959
 31
0.0
  0
LINE
  5
13269
330
747D
100
AcDbEntity
  8
部品1
100
AcDbLine
 10
5556.350663344681
 20
7615.72909634496
 30
0.0
 11
3036.350663344681
 21
7615.729096344953
 31
0.0
  0
LINE
  5
1326A
330
747D
100
AcDbEntity
  8
部品1
100
AcDbLine
 10
5556.350663344681
 20
8035.72909634496
 30
0.0
 11
3036.350663344681
 21
8035.729096344956
 31
0.0
  0
LINE
  5
1326B
330
747D
100
AcDbEntity
  8
部品1
100
AcDbLine
 10
5556.350663344681
 20
8455.729096344958
 30
0.0
 11
3036.350663344681
 21
8455.729096344954
 31
0.0
  0
LINE
  5
1326C
330
747D
100
AcDbEntity
  8
部品1
100
AcDbLine
 10
5611.350663344682
 20
9770.729096344958
 30
0.0
 11
2981.350663344681
 21
9770.729096344958
 31
0.0
  0
LINE
  5
1326D
330
747D
100
AcDbEntity
  8
部品1
100
AcDbLine
 10
3036.350663344678
 20
7195.729096344959
 30
0.0
 11
5556.350663344681
 21
7195.729096344952
 31
0.0
  0
LINE
  5
1326E
330
747D
100
AcDbEntity
  8
部品1
100
AcDbLine
 10
3009.350663344682
 20
7168.729096344955
 30
0.0
 11
5583.350663344681
 21
7168.729096344958
 31
0.0
  0
DIMENSION
  5
1326F
330
747D
100
AcDbEntity
  8
寸法
 48
50.0
100
AcDbDimension
  2
*D8
 10
8241.350663344681
 20
10445.44150636375
 30
0.0
 11
5611.350663344682
 21
10537.45331738737
 31
0.0
 70
    32
 71
     5
 42
5260.0
  3
INABA_S40
100
AcDbAlignedDimension
 13
2981.350663344681
 23
9770.729096344958
 33
0.0
 14
8241.350663344681
 24
9770.729096344958
 34
0.0
100
AcDbRotatedDimension
1001
ACAD
1000
DSTYLE
1002
{
1070
   287
1070
     3
1070
    41
1040
0.5
1070
    44
1040
1.0
1070
   147
1040
0.8
1070
   271
1070
     2
1070
   272
1070
     2
1070
   289
1070
     3
1070
   340
1005
F706
1070
     6
1000
DOT
1070
     7
1000
DOT
1002
}
  0
DIMENSION
  5
13270
330
747D
100
AcDbEntity
  8
寸法
 48
50.0
100
AcDbDimension
  2
*D9
 10
5556.350663344681
 20
10145.44150636375
 30
0.0
 11
4296.350663344681
 21
10237.45331738737
 31
0.0
 70
    32
  1
6X420=<>
 71
     5
 42
2520.0
  3
INABA_S40
100
AcDbAlignedDimension
 13
3036.350663344681
 23
9770.729096344958
 33
0.0
 14
5556.350663344681
 24
9770.729096344958
 34
0.0
100
AcDbRotatedDimension
1001
ACAD
1000
DSTYLE
1002
{
1070
   287
1070
     3
1070
    41
1040
0.5
1070
    44
1040
1.0
1070
   147
1040
0.8
1070
   271
1070
     2
1070
   272
1070
     2
1070
   289
1070
     3
1070
   340
1005
F706
1070
     6
1000
DOT
1070
     7
1000
DOT
1002
}
  0
LINE
  5
13272
330
747D
100
AcDbEntity
  8
破線
  6
HIDDEN
 48
10.0
100
AcDbLine
 10
3905.850663344678
 20
9715.72909634496
 30
0.0
 11
3905.850663344674
 21
7195.729096344956
 31
0.0
  0
LINE
  5
13273
330
747D
100
AcDbEntity
  8
破線
  6
HIDDEN
 48
10.0
100
AcDbLine
 10
3855.850663344682
 20
9715.72909634496
 30
0.0
 11
3855.850663344674
 21
7195.729096344959
 31
0.0
  0
LINE
  5
13274
330
747D
100
AcDbEntity
  8
部品1
100
AcDbLine
 10
3036.350663344689
 20
9715.729096344956
 30
0.0
 11
3036.350663344678
 21
7195.729096344959
 31
0.0
  0
LINE
  5
13275
330
747D
100
AcDbEntity
  8
破線
  6
HIDDEN
 48
10.0
100
AcDbLine
 10
3059.850663344689
 20
9692.229096344959
 30
0.0
 11
3059.850663344678
 21
7219.229096344959
 31
0.0
  0
LINE
  5
13276
330
747D
100
AcDbEntity
  8
部品1
100
AcDbLine
 10
2981.350663344681
 20
9770.729096344958
 30
0.0
 11
2981.350663344681
 21
7140.729096344955
 31
0.0
  0
LINE
  5
13277
330
747D
100
AcDbEntity
  8
部品1
100
AcDbLine
 10
3009.350663344682
 20
9742.729096344959
 30
0.0
 11
3009.350663344682
 21
8673.729096344958
 31
0.0
  0
LINE
  5
13278
330
747D
100
AcDbEntity
  8
部品1
100
AcDbLine
 10
3009.350663344682
 20
9715.72909634496
 30
0.0
 11
3009.350663344682
 21
7168.729096344955
 31
0.0
  0
LINE
  5
13279
330
747D
100
AcDbEntity
  8
破線
  6
HIDDEN
 48
10.0
100
AcDbLine
 10
3059.850663344678
 20
7219.229096344959
 30
0.0
 11
3855.850663344674
 21
7219.229096344955
 31
0.0
  0
LINE
  5
1327A
330
747D
100
AcDbEntity
  8
部品1
100
AcDbLine
 10
2981.350663344681
 20
7140.729096344955
 30
0.0
 11
3456.350663344681
 21
7140.729096344954
 31
0.0
  0
LINE
  5
1327B
330
747D
100
AcDbEntity
  8
部品1
 48
50.0
100
AcDbLine
 10
3009.350663344682
 20
7168.729096344955
 30
0.0
 11
3036.350663344678
 21
7195.729096344959
 31
0.0
  0
LINE
  5
1327C
330
747D
100
AcDbEntity
  8
部品1
100
AcDbLine
 10
3036.350663344681
 20
7140.729096344954
 30
0.0
 11
3036.350663344681
 21
7168.729096344955
 31
0.0
  0
LINE
  5
1327D
330
747D
100
AcDbEntity
  8
部品1
100
AcDbLine
 10
3009.350663344682
 20
7195.729096344952
 30
0.0
 11
2981.350663344681
 21
7195.729096344952
 31
0.0
  0
LINE
  5
1327E
330
747D
100
AcDbEntity
  8
部品1
100
AcDbLine
 10
3456.350663344681
 20
7140.729096344961
 30
0.0
 11
3456.350663344681
 21
7168.729096344963
 31
0.0
  0
LINE
  5
1327F
330
747D
100
AcDbEntity
  8
部品1
100
AcDbLine
 10
3456.350663344681
 20
7140.729096344954
 30
0.0
 11
3456.350663344681
 21
7168.729096344955
 31
0.0
  0
LINE
  5
13280
330
747D
100
AcDbEntity
  8
部品1
100
AcDbLine
 10
3009.350663344682
 20
7615.72909634496
 30
0.0
 11
2981.350663344681
 21
7615.72909634496
 31
0.0
  0
LINE
  5
13281
330
747D
100
AcDbEntity
  8
部品1
100
AcDbLine
 10
3009.350663344682
 20
8035.72909634496
 30
0.0
 11
2981.350663344681
 21
8035.72909634496
 31
0.0
  0
LINE
  5
13282
330
747D
100
AcDbEntity
  8
部品1
100
AcDbLine
 10
3009.350663344682
 20
8455.72909634496
 30
0.0
 11
2981.350663344681
 21
8455.72909634496
 31
0.0
  0
LINE
  5
13283
330
747D
100
AcDbEntity
  8
破線
  6
HIDDEN
 48
10.0
100
AcDbLine
 10
3059.850663344678
 20
9692.229096344959
 30
0.0
 11
3855.850663344682
 21
9692.229096344956
 31
0.0
  0
DIMENSION
  5
13284
330
747D
100
AcDbEntity
  8
寸法
 48
50.0
100
AcDbDimension
  2
*D10
 10
3036.350663344681
 20
10145.44150636375
 30
0.0
 11
2587.183996678017
 21
10145.44150636375
 31
0.0
 70
   160
 71
     5
 42
55.0
  3
INABA_S40
100
AcDbAlignedDimension
 13
2981.350663344681
 23
9770.729096344958
 33
0.0
 14
3036.350663344681
 24
9770.729096344958
 34
0.0
100
AcDbRotatedDimension
1001
ACAD
1000
DSTYLE
1002
{
1070
   287
1070
     3
1070
    41
1040
0.5
1070
    44
1040
1.0
1070
   147
1040
0.8
1070
   271
1070
     2
1070
   272
1070
     2
1070
   289
1070
     3
1070
   340
1005
F706
1070
     6
1000
DOT
1070
     7
1000
DOT
1002
}
  0
LINE
  5
13285
330
747D
100
AcDbEntity
  8
部品1
 48
50.0
100
AcDbLine
 10
3009.350663344682
 20
9742.729096344959
 30
0.0
 11
3036.350663344678
 21
9715.729096344958
 31
0.0
  0
LINE
  5
13286
330
747D
100
AcDbEntity
  8
部品1
100
AcDbLine
 10
3036.350663344681
 20
9770.729096344958
 30
0.0
 11
3036.350663344681
 21
9742.729096344953
 31
0.0
  0
LINE
  5
13287
330
747D
100
AcDbEntity
  8
部品1
100
AcDbLine
 10
3009.350663344682
 20
9715.72909634496
 30
0.0
 11
2981.350663344681
 21
9715.72909634496
 31
0.0
  0
LINE
  5
13288
330
747D
100
AcDbEntity
  8
部品1
100
AcDbLine
 10
3456.350663344681
 20
9770.729096344958
 30
0.0
 11
3456.350663344681
 21
9742.729096344953
 31
0.0
  0
LINE
  5
13289
330
747D
100
AcDbEntity
  8
部品1
100
AcDbLine
 10
8186.350663344681
 20
9715.72909634496
 30
0.0
 11
8186.350663344681
 21
7195.729096344956
 31
0.0
  0
LINE
  5
1328A
330
747D
100
AcDbEntity
  8
部品1
100
AcDbLine
 10
5666.350663344681
 20
7195.729096344956
 30
0.0
 11
5666.350663344681
 21
9715.729096344956
 31
0.0
  0
LINE
  5
1328B
330
747D
100
AcDbEntity
  8
破線
  6
HIDDEN
 48
10.0
100
AcDbLine
 10
5689.850663344682
 20
7219.229096344959
 30
0.0
 11
5689.850663344682
 21
9692.229096344956
 31
0.0
  0
LINE
  5
1328C
330
747D
100
AcDbEntity
  8
部品1
100
AcDbLine
 10
5639.350663344681
 20
7168.729096344955
 30
0.0
 11
5639.350663344681
 21
9742.729096344962
 31
0.0
  0
LINE
  5
1328D
330
747D
100
AcDbEntity
  8
破線
  6
HIDDEN
 48
10.0
100
AcDbLine
 10
5532.850663344682
 20
7219.229096344952
 30
0.0
 11
5532.850663344678
 21
9692.229096344961
 31
0.0
  0
LINE
  5
1328E
330
747D
100
AcDbEntity
  8
部品1
100
AcDbLine
 10
5556.350663344681
 20
7195.729096344952
 30
0.0
 11
5556.350663344677
 21
9715.729096344961
 31
0.0
  0
LINE
  5
1328F
330
747D
100
AcDbEntity
  8
部品1
100
AcDbLine
 10
5583.350663344681
 20
7168.729096344958
 30
0.0
 11
5583.350663344681
 21
9742.729096344959
 31
0.0
  0
LINE
  5
13290
330
747D
100
AcDbEntity
  8
破線
  6
HIDDEN
 48
10.0
100
AcDbLine
 10
8162.850663344682
 20
9692.229096344965
 30
0.0
 11
8162.850663344682
 21
7219.229096344952
 31
0.0
  0
LINE
  5
13291
330
747D
100
AcDbEntity
  8
部品1
100
AcDbLine
 10
8241.350663344681
 20
9770.729096344958
 30
0.0
 11
8241.350663344681
 21
7140.729096344955
 31
0.0
  0
LINE
  5
13292
330
747D
100
AcDbEntity
  8
部品1
100
AcDbLine
 10
8213.35066334468
 20
9742.729096344953
 30
0.0
 11
8213.35066334468
 21
8673.729096344958
 31
0.0
  0
LINE
  5
13293
330
747D
100
AcDbEntity
  8
破線
  6
HIDDEN
 48
10.0
100
AcDbLine
 10
6485.850663344685
 20
7219.229096344959
 30
0.0
 11
5689.850663344685
 21
7219.229096344959
 31
0.0
  0
LINE
  5
13294
330
747D
100
AcDbEntity
  8
部品1
100
AcDbLine
 10
5666.350663344681
 20
7615.72909634496
 30
0.0
 11
8186.350663344681
 21
7615.72909634496
 31
0.0
  0
LINE
  5
13295
330
747D
100
AcDbEntity
  8
部品1
100
AcDbLine
 10
5666.350663344681
 20
8035.72909634496
 30
0.0
 11
8186.350663344681
 21
8035.72909634496
 31
0.0
  0
LINE
  5
13296
330
747D
100
AcDbEntity
  8
部品1
100
AcDbLine
 10
5666.350663344681
 20
8455.729096344958
 30
0.0
 11
8186.350663344681
 21
8455.729096344958
 31
0.0
  0
LINE
  5
13297
330
747D
100
AcDbEntity
  8
部品1
100
AcDbLine
 10
8241.350663344681
 20
7140.729096344955
 30
0.0
 11
5666.350663344681
 21
7140.729096344955
 31
0.0
  0
LINE
  5
13298
330
747D
100
AcDbEntity
  8
部品1
100
AcDbLine
 10
8186.350663344681
 20
7195.729096344956
 30
0.0
 11
5666.350663344681
 21
7195.729096344959
 31
0.0
  0
LINE
  5
13299
330
747D
100
AcDbEntity
  8
部品1
100
AcDbLine
 10
8213.35066334468
 20
7168.729096344955
 30
0.0
 11
5639.350663344681
 21
7168.729096344958
 31
0.0
  0
LINE
  5
1329B
330
747D
100
AcDbEntity
  8
破線
  6
HIDDEN
 48
10.0
100
AcDbLine
 10
3905.850663344674
 20
7219.229096344955
 30
0.0
 11
4686.850663344674
 21
7219.229096344952
 31
0.0
  0
LINE
  5
1329C
330
747D
100
AcDbEntity
  8
破線
  6
HIDDEN
 48
10.0
100
AcDbLine
 10
4736.850663344674
 20
7219.229096344959
 30
0.0
 11
5532.850663344682
 21
7219.229096344952
 31
0.0
  0
LINE
  5
1329D
330
747D
100
AcDbEntity
  8
部品1
100
AcDbLine
 10
5556.350663344681
 20
7140.729096344954
 30
0.0
 11
5556.350663344681
 21
7168.729096344955
 31
0.0
  0
LINE
  5
1329E
330
747D
100
AcDbEntity
  8
部品1
100
AcDbLine
 10
5556.350663344681
 20
7140.729096344954
 30
0.0
 11
5556.350663344681
 21
7168.729096344955
 31
0.0
  0
LINE
  5
1329F
330
747D
100
AcDbEntity
  8
部品1
 48
50.0
100
AcDbLine
 10
5639.350663344681
 20
7168.729096344955
 30
0.0
 11
5666.350663344681
 21
7195.729096344956
 31
0.0
  0
LINE
  5
132A0
330
747D
100
AcDbEntity
  8
部品1
 48
50.0
100
AcDbLine
 10
5583.350663344681
 20
7168.729096344958
 30
0.0
 11
5556.350663344681
 21
7195.729096344952
 31
0.0
  0
LINE
  5
132A1
330
747D
100
AcDbEntity
  8
部品1
100
AcDbLine
 10
5666.350663344681
 20
7140.729096344959
 30
0.0
 11
5556.350663344681
 21
7140.729096344954
 31
0.0
  0
LINE
  5
132A2
330
747D
100
AcDbEntity
  8
部品1
100
AcDbLine
 10
5556.350663344681
 20
7140.729096344954
 30
0.0
 11
5556.350663344681
 21
7168.729096344955
 31
0.0
  0
LINE
  5
132A3
330
747D
100
AcDbEntity
  8
部品1
100
AcDbLine
 10
5666.350663344681
 20
7140.729096344954
 30
0.0
 11
5666.350663344681
 21
7168.729096344955
 31
0.0
  0
LINE
  5
132A4
330
747D
100
AcDbEntity
  8
部品1
100
AcDbLine
 10
5639.350663344681
 20
7195.729096344952
 30
0.0
 11
5611.350663344682
 21
7195.729096344952
 31
0.0
  0
LINE
  5
132A5
330
747D
100
AcDbEntity
  8
部品1
100
AcDbLine
 10
5583.350663344681
 20
7195.729096344952
 30
0.0
 11
5611.350663344682
 21
7195.729096344952
 31
0.0
  0
LINE
  5
132A6
330
747D
100
AcDbEntity
  8
部品1
100
AcDbLine
 10
6086.350663344681
 20
7140.729096344954
 30
0.0
 11
6086.350663344681
 21
7168.729096344955
 31
0.0
  0
LINE
  5
132A7
330
747D
100
AcDbEntity
  8
部品1
100
AcDbLine
 10
8213.35066334468
 20
9715.72909634496
 30
0.0
 11
8213.35066334468
 21
7168.729096344955
 31
0.0
  0
LINE
  5
132A8
330
747D
100
AcDbEntity
  8
破線
  6
HIDDEN
 48
10.0
100
AcDbLine
 10
7316.850663344688
 20
7219.229096344955
 30
0.0
 11
6535.850663344685
 21
7219.229096344959
 31
0.0
  0
LINE
  5
132A9
330
747D
100
AcDbEntity
  8
部品1
100
AcDbLine
 10
6506.350663344682
 20
7140.729096344954
 30
0.0
 11
6506.350663344682
 21
7168.729096344955
 31
0.0
  0
LINE
  5
132AA
330
747D
100
AcDbEntity
  8
部品1
100
AcDbLine
 10
6926.350663344681
 20
7140.729096344954
 30
0.0
 11
6926.350663344681
 21
7168.729096344955
 31
0.0
  0
LINE
  5
132AB
330
747D
100
AcDbEntity
  8
破線
  6
HIDDEN
 48
10.0
100
AcDbLine
 10
8162.850663344682
 20
7219.229096344952
 30
0.0
 11
7366.850663344688
 21
7219.229096344955
 31
0.0
  0
LINE
  5
132AC
330
747D
100
AcDbEntity
  8
部品1
100
AcDbLine
 10
7346.350663344681
 20
7140.729096344954
 30
0.0
 11
7346.350663344681
 21
7168.729096344955
 31
0.0
  0
LINE
  5
132AD
330
747D
100
AcDbEntity
  8
部品1
100
AcDbLine
 10
7766.350663344681
 20
7140.729096344954
 30
0.0
 11
7766.350663344681
 21
7168.729096344955
 31
0.0
  0
LINE
  5
132AE
330
747D
100
AcDbEntity
  8
部品1
 48
50.0
100
AcDbLine
 10
8213.35066334468
 20
7168.729096344955
 30
0.0
 11
8186.350663344681
 21
7195.729096344956
 31
0.0
  0
LINE
  5
132AF
330
747D
100
AcDbEntity
  8
部品1
100
AcDbLine
 10
8186.350663344681
 20
7140.729096344954
 30
0.0
 11
8186.350663344681
 21
7168.729096344955
 31
0.0
  0
LINE
  5
132B0
330
747D
100
AcDbEntity
  8
部品1
100
AcDbLine
 10
8213.35066334468
 20
7195.729096344952
 30
0.0
 11
8241.350663344681
 21
7195.729096344952
 31
0.0
  0
LINE
  5
132B1
330
747D
100
AcDbEntity
  8
部品1
100
AcDbLine
 10
8213.35066334468
 20
7615.72909634496
 30
0.0
 11
8241.350663344681
 21
7615.72909634496
 31
0.0
  0
LINE
  5
132B2
330
747D
100
AcDbEntity
  8
部品1
100
AcDbLine
 10
8213.35066334468
 20
8035.72909634496
 30
0.0
 11
8241.350663344681
 21
8035.72909634496
 31
0.0
  0
LINE
  5
132B3
330
747D
100
AcDbEntity
  8
部品1
100
AcDbLine
 10
8213.35066334468
 20
8455.72909634496
 30
0.0
 11
8241.350663344681
 21
8455.72909634496
 31
0.0
  0
LINE
  5
132B4
330
747D
100
AcDbEntity
  8
破線
  6
HIDDEN
 48
10.0
100
AcDbLine
 10
6485.850663344685
 20
9692.229096344959
 30
0.0
 11
5689.850663344685
 21
9692.229096344959
 31
0.0
  0
LINE
  5
132B5
330
747D
100
AcDbEntity
  8
部品1
100
AcDbLine
 10
8186.350663344681
 20
9715.72909634496
 30
0.0
 11
5666.350663344681
 21
9715.729096344958
 31
0.0
  0
LINE
  5
132B6
330
747D
100
AcDbEntity
  8
部品1
100
AcDbLine
 10
5639.350663344681
 20
9742.729096344959
 30
0.0
 11
7346.350663344681
 21
9742.729096344959
 31
0.0
  0
DIMENSION
  5
132B7
330
747D
100
AcDbEntity
  8
寸法
 48
50.0
100
AcDbDimension
  2
*D11
 10
8186.350663344681
 20
10145.44150636375
 30
0.0
 11
6926.350663344681
 21
10237.45331738737
 31
0.0
 70
    32
  1
6X420=<>
 71
     5
 42
2520.0
  3
INABA_S40
100
AcDbAlignedDimension
 13
5666.350663344681
 23
9770.729096344958
 33
0.0
 14
8186.350663344681
 24
9770.729096344958
 34
0.0
100
AcDbRotatedDimension
1001
ACAD
1000
DSTYLE
1002
{
1070
   287
1070
     3
1070
    41
1040
0.5
1070
    44
1040
1.0
1070
   147
1040
0.8
1070
   271
1070
     2
1070
   272
1070
     2
1070
   289
1070
     3
1070
   340
1005
F706
1070
     6
1000
DOT
1070
     7
1000
DOT
1002
}
  0
LINE
  5
132B8
330
747D
100
AcDbEntity
  8
部品1
100
AcDbLine
 10
5611.350663344682
 20
9770.729096344958
 30
0.0
 11
8241.350663344681
 21
9770.729096344958
 31
0.0
  0
LINE
  5
132B9
330
747D
100
AcDbEntity
  8
破線
  6
HIDDEN
 48
10.0
100
AcDbLine
 10
3905.850663344678
 20
9692.229096344952
 30
0.0
 11
4686.850663344681
 21
9692.229096344959
 31
0.0
  0
LINE
  5
132BA
330
747D
100
AcDbEntity
  8
部品1
100
AcDbLine
 10
5136.350663344682
 20
9742.729096344959
 30
0.0
 11
3876.350663344682
 21
9742.729096344962
 31
0.0
  0
LINE
  5
132BB
330
747D
100
AcDbEntity
  8
部品1
100
AcDbLine
 10
3876.350663344682
 20
9770.729096344958
 30
0.0
 11
3876.350663344682
 21
9742.729096344953
 31
0.0
  0
LINE
  5
132BC
330
747D
100
AcDbEntity
  8
部品1
100
AcDbLine
 10
4296.350663344681
 20
9770.729096344958
 30
0.0
 11
4296.350663344681
 21
9742.729096344953
 31
0.0
  0
LINE
  5
132BD
330
747D
100
AcDbEntity
  8
部品1
100
AcDbLine
 10
4716.350663344681
 20
9770.729096344958
 30
0.0
 11
4716.350663344681
 21
9742.729096344953
 31
0.0
  0
LINE
  5
132BE
330
747D
100
AcDbEntity
  8
破線
  6
HIDDEN
 48
10.0
100
AcDbLine
 10
4736.850663344678
 20
9692.229096344965
 30
0.0
 11
5532.850663344682
 21
9692.229096344965
 31
0.0
  0
LINE
  5
132BF
330
747D
100
AcDbEntity
  8
部品1
100
AcDbLine
 10
5583.350663344681
 20
9742.729096344959
 30
0.0
 11
5136.350663344682
 21
9742.729096344959
 31
0.0
  0
LINE
  5
132C0
330
747D
100
AcDbEntity
  8
部品1
100
AcDbLine
 10
5136.350663344682
 20
9770.729096344958
 30
0.0
 11
5136.350663344682
 21
9742.729096344953
 31
0.0
  0
LINE
  5
132C1
330
747D
100
AcDbEntity
  8
部品1
100
AcDbLine
 10
5556.350663344681
 20
9770.729096344958
 30
0.0
 11
5556.350663344681
 21
9742.729096344953
 31
0.0
  0
DIMENSION
  5
132C2
330
747D
100
AcDbEntity
  8
寸法
 48
50.0
100
AcDbDimension
  2
*D12
 10
5666.350663344681
 20
10145.44150636375
 30
0.0
 11
5611.350663344682
 21
10145.44150636375
 31
0.0
 70
   160
 71
     5
 42
110.0
  3
INABA_S40
100
AcDbAlignedDimension
 13
5556.350663344681
 23
9770.729096344958
 33
0.0
 14
5666.350663344681
 24
9770.729096344958
 34
0.0
100
AcDbRotatedDimension
1001
ACAD
1000
DSTYLE
1002
{
1070
   287
1070
     3
1070
    41
1040
0.5
1070
    44
1040
1.0
1070
   147
1040
0.8
1070
   271
1070
     2
1070
   272
1070
     2
1070
   289
1070
     3
1070
   340
1005
F706
1070
     6
1000
DOT
1070
     7
1000
DOT
1002
}
  0
LINE
  5
132C3
330
747D
100
AcDbEntity
  8
部品1
 48
50.0
100
AcDbLine
 10
5639.350663344681
 20
9742.729096344959
 30
0.0
 11
5666.350663344681
 21
9715.729096344958
 31
0.0
  0
LINE
  5
132C4
330
747D
100
AcDbEntity
  8
部品1
 48
50.0
100
AcDbLine
 10
5583.350663344681
 20
9742.729096344959
 30
0.0
 11
5556.350663344681
 21
9715.729096344965
 31
0.0
  0
LINE
  5
132C5
330
747D
100
AcDbEntity
  8
部品1
100
AcDbLine
 10
5639.350663344681
 20
9715.72909634496
 30
0.0
 11
5611.350663344682
 21
9715.72909634496
 31
0.0
  0
LINE
  5
132C6
330
747D
100
AcDbEntity
  8
部品1
100
AcDbLine
 10
5556.350663344681
 20
9770.729096344958
 30
0.0
 11
5556.350663344681
 21
9742.729096344953
 31
0.0
  0
LINE
  5
132C7
330
747D
100
AcDbEntity
  8
部品1
100
AcDbLine
 10
5583.350663344681
 20
9715.72909634496
 30
0.0
 11
5611.350663344682
 21
9715.72909634496
 31
0.0
  0
LINE
  5
132C8
330
747D
100
AcDbEntity
  8
部品1
100
AcDbLine
 10
5666.350663344681
 20
9770.729096344958
 30
0.0
 11
5666.350663344681
 21
9742.729096344953
 31
0.0
  0
LINE
  5
132C9
330
747D
100
AcDbEntity
  8
部品1
100
AcDbLine
 10
5666.350663344681
 20
9770.729096344958
 30
0.0
 11
5666.350663344681
 21
9742.729096344953
 31
0.0
  0
LINE
  5
132CA
330
747D
100
AcDbEntity
  8
部品1
100
AcDbLine
 10
6086.350663344681
 20
9770.729096344958
 30
0.0
 11
6086.350663344681
 21
9742.729096344953
 31
0.0
  0
LINE
  5
132CB
330
747D
100
AcDbEntity
  8
破線
  6
HIDDEN
 48
10.0
100
AcDbLine
 10
7316.850663344685
 20
9692.229096344959
 30
0.0
 11
6535.850663344685
 21
9692.229096344954
 31
0.0
  0
LINE
  5
132CC
330
747D
100
AcDbEntity
  8
部品1
100
AcDbLine
 10
7148.850663344681
 20
9742.729096344959
 30
0.0
 11
7543.850663344682
 21
9742.729096344953
 31
0.0
  0
LINE
  5
132CD
330
747D
100
AcDbEntity
  8
部品1
100
AcDbLine
 10
6506.350663344682
 20
9770.729096344958
 30
0.0
 11
6506.350663344682
 21
9742.729096344953
 31
0.0
  0
LINE
  5
132CE
330
747D
100
AcDbEntity
  8
部品1
100
AcDbLine
 10
6926.350663344681
 20
9770.729096344958
 30
0.0
 11
6926.350663344681
 21
9742.729096344953
 31
0.0
  0
LINE
  5
132CF
330
747D
100
AcDbEntity
  8
破線
  6
HIDDEN
 48
10.0
100
AcDbLine
 10
8162.850663344682
 20
9692.229096344961
 30
0.0
 11
7366.850663344681
 21
9692.229096344959
 31
0.0
  0
LINE
  5
132D0
330
747D
100
AcDbEntity
  8
部品1
100
AcDbLine
 10
7346.350663344681
 20
9742.729096344953
 30
0.0
 11
8213.35066334468
 21
9742.729096344953
 31
0.0
  0
LINE
  5
132D1
330
747D
100
AcDbEntity
  8
部品1
100
AcDbLine
 10
7346.350663344681
 20
9770.729096344958
 30
0.0
 11
7346.350663344681
 21
9742.729096344953
 31
0.0
  0
LINE
  5
132D2
330
747D
100
AcDbEntity
  8
部品1
100
AcDbLine
 10
7766.350663344681
 20
9770.729096344958
 30
0.0
 11
7766.350663344681
 21
9742.729096344953
 31
0.0
  0
LINE
  5
132D3
330
747D
100
AcDbEntity
  8
部品1
 48
50.0
100
AcDbLine
 10
8213.35066334468
 20
9742.729096344953
 30
0.0
 11
8186.350663344681
 21
9715.72909634496
 31
0.0
  0
LINE
  5
132D4
330
747D
100
AcDbEntity
  8
部品1
100
AcDbLine
 10
8186.350663344681
 20
9770.729096344958
 30
0.0
 11
8186.350663344681
 21
9742.729096344953
 31
0.0
  0
LINE
  5
132D5
330
747D
100
AcDbEntity
  8
部品1
100
AcDbLine
 10
8213.35066334468
 20
9715.72909634496
 30
0.0
 11
8241.350663344681
 21
9715.72909634496
 31
0.0
  0
LINE
  5
132D6
330
747D
100
AcDbEntity
  8
破線
  6
HIDDEN
 48
10.0
100
AcDbLine
 10
4686.850663344677
 20
9715.72909634496
 30
0.0
 11
4686.850663344674
 21
7195.729096344959
 31
0.0
  0
LINE
  5
132D7
330
747D
100
AcDbEntity
  8
破線
  6
HIDDEN
 48
10.0
100
AcDbLine
 10
4736.850663344678
 20
9715.72909634496
 30
0.0
 11
4736.850663344674
 21
7195.729096344956
 31
0.0
  0
LINE
  5
132D8
330
747D
100
AcDbEntity
  8
破線
  6
HIDDEN
 48
10.0
100
AcDbLine
 10
6485.850663344685
 20
9715.72909634496
 30
0.0
 11
6485.850663344685
 21
7195.729096344956
 31
0.0
  0
LINE
  5
132D9
330
747D
100
AcDbEntity
  8
破線
  6
HIDDEN
 48
10.0
100
AcDbLine
 10
6535.850663344685
 20
9715.72909634496
 30
0.0
 11
6535.850663344685
 21
7195.729096344959
 31
0.0
  0
LINE
  5
132DA
330
747D
100
AcDbEntity
  8
破線
  6
HIDDEN
 48
10.0
100
AcDbLine
 10
7366.850663344681
 20
9715.72909634496
 30
0.0
 11
7366.850663344688
 21
7195.729096344959
 31
0.0
  0
LINE
  5
132DB
330
747D
100
AcDbEntity
  8
破線
  6
HIDDEN
 48
10.0
100
AcDbLine
 10
7316.850663344685
 20
9715.72909634496
 30
0.0
 11
7316.850663344685
 21
7195.729096344956
 31
0.0
  0
LINE
  5
132DC
330
747D
100
AcDbEntity
  8
部品1
 48
50.0
100
AcDbLine
 10
5611.350665588252
 20
9742.729099922126
 30
0.0
 11
5583.350665588252
 21
9770.729099922126
 31
0.0
  0
LINE
  5
132DD
330
747D
100
AcDbEntity
  8
部品1
100
AcDbLine
 10
5583.350665588252
 20
9742.729099922126
 30
0.0
 11
5583.350665588252
 21
9770.729099922128
 31
0.0
  0
LINE
  5
132DE
330
747D
100
AcDbEntity
  8
部品1
100
AcDbLine
 10
5639.350665588252
 20
9742.729099922126
 30
0.0
 11
5639.350665588252
 21
9770.729099922123
 31
0.0
  0
LINE
  5
132DF
330
747D
100
AcDbEntity
  8
部品1
100
AcDbLine
 10
5583.350665588252
 20
9742.729099922126
 30
0.0
 11
5611.350665588252
 21
9742.729099922126
 31
0.0
  0
LINE
  5
132E0
330
747D
100
AcDbEntity
  8
部品1
 48
50.0
100
AcDbLine
 10
3456.350663344681
 20
7168.729096344951
 30
0.0
 11
5556.350663344681
 21
7168.729096344953
 31
0.0
  0
TEXT
  5
13394
330
747D
100
AcDbEntity
  8
部品1
100
AcDbText
 10
5320.140733968416
 20
1635.81691063289
 30
0.0
 40
135.0
  1
正面図
  7
STYLE2
100
AcDbText
  0
LWPOLYLINE
  5
13395
330
747D
100
AcDbEntity
  8
部品1
100
AcDbPolyline
 90
        4
 70
     1
 43
0.0
 10
5229.615330230459
 20
1828.710439851414
 10
5229.615330230459
 20
1588.818118305881
 10
5993.085996458904
 20
1588.818118305881
 10
5993.085996458904
 20
1828.710439851414
  0
TEXT
  5
13396
330
747D
100
AcDbEntity
  8
文字
 62
     7
 48
50.0
100
AcDbText
 10
14505.34213575793
 20
483.8967129911411
 30
0.0
 40
160.0
  1
ＮＸＮ－１４０Ｈ
  7
STYLE2
100
AcDbText
  0
TEXT
  5
13397
330
747D
100
AcDbEntity
  8
文字
 62
     7
 48
50.0
100
AcDbText
 10
13209.4053442172
 20
228.5435242569015
 30
0.0
 40
100.0
  1
○有効開口寸法 ： 1266×2025(mm)
  7
STYLE2
100
AcDbText
  0
DIMENSION
  5
13398
330
747D
100
AcDbEntity
  8
寸法
 48
50.0
100
AcDbDimension
  2
*D13
 10
2981.350663344681
 20
4875.6543911615
 30
0.0
 11
5611.350663344682
 21
4875.6543911615
 31
0.0
 70
   160
  1
柱外寸法<>
 71
     5
 42
5260.000000000004
  3
INABA_S40G
100
AcDbAlignedDimension
 13
8241.350663344686
 23
4663.112805903259
 33
0.0
 14
2981.350663344681
 24
4663.112805903264
 34
0.0
100
AcDbRotatedDimension
  0
DIMENSION
  5
13399
330
747D
100
AcDbEntity
  8
寸法
 48
50.0
100
AcDbDimension
  2
*D14
 10
8291.350663344685
 20
5096.559691635249
 30
0.0
 11
5611.350663344682
 21
5096.559691635249
 31
0.0
 70
   160
 71
     5
 42
5360.000000000003
  3
INABA_S40G
100
AcDbAlignedDimension
 13
2931.350663344682
 23
4663.112805903263
 33
0.0
 14
8291.350663344685
 24
4663.112805903258
 34
0.0
100
AcDbRotatedDimension
  0
DIMENSION
  5
1339A
330
747D
100
AcDbEntity
  8
寸法
 48
50.0
100
AcDbDimension
  2
*D15
 10
2931.350663344682
 20
4875.654391161502
 30
0.0
 11
2617.865381970434
 21
4875.654391161502
 31
0.0
 70
   160
 71
     5
 42
50.0
  3
INABA_S40G
100
AcDbAlignedDimension
 13
2981.350663344681
 23
4663.112805903264
 33
0.0
 14
2931.350663344682
 24
4663.112805903263
 34
0.0
100
AcDbRotatedDimension
1001
ACAD
1000
DSTYLE
1002
{
1002
}
  0
LINE
  5
1339B
330
747D
100
AcDbEntity
  8
部品1
 48
50.0
100
AcDbLine
 10
8270.726918777219
 20
4522.11280590326
 30
0.0
 11
2951.974407912145
 21
4522.112805903261
 31
0.0
  0
LINE
  5
1339C
330
747D
100
AcDbEntity
  8
細線
 48
50.0
100
AcDbLine
 10
8258.350663344687
 20
4542.88604846663
 30
0.0
 11
2941.745344879928
 21
4542.886048467256
 31
0.0
  0
LINE
  5
1339D
330
747D
100
AcDbEntity
  8
細線
 48
50.0
100
AcDbLine
 10
8258.350663344684
 20
4635.086048466631
 30
0.0
 11
2933.509314355095
 21
4635.086048467257
 31
0.0
  0
LINE
  5
1339E
330
747D
100
AcDbEntity
  8
部品1
 48
50.0
100
AcDbLine
 10
8283.942242238252
 20
4663.112805903258
 30
0.0
 11
2938.759084451111
 21
4663.112805903258
 31
0.0
  0
LINE
  5
1339F
330
747D
100
AcDbEntity
  8
部品1
100
AcDbLine
 10
2931.770324360012
 20
4655.716280508022
 30
0.0
 11
2932.903721692361
 21
4635.740152525421
 31
0.0
  0
LINE
  5
133A0
330
747D
100
AcDbEntity
  8
部品1
100
AcDbLine
 10
2944.340742013938
 20
4540.082745358364
 30
0.0
 11
2944.985647821046
 21
4528.716280508024
 31
0.0
  0
LINE
  5
133A1
330
747D
100
AcDbEntity
  8
部品1
100
AcDbLine
 10
2936.10471148909
 20
4632.282745358364
 30
0.0
 11
2941.139752217201
 21
4543.540152525421
 31
0.0
  0
ARC
  5
133A2
330
747D
100
AcDbEntity
  8
部品1
 48
50.0
100
AcDbCircle
 10
2933.109528592904
 20
4632.112805903262
 30
0.0
 40
3.0
100
AcDbArc
 50
3.247342790340932
 51
82.3418727926362
  0
ARC
  5
133A3
330
747D
100
AcDbEntity
  8
部品1
 48
50.0
100
AcDbCircle
 10
2941.345559117748
 20
4539.912805903259
 30
0.0
 40
3.0
100
AcDbArc
 50
3.247342790340932
 51
82.3418727926362
  0
ARC
  5
133A4
330
747D
100
AcDbEntity
  8
部品1
 48
50.0
100
AcDbCircle
 10
2941.838628226309
 20
4543.579805064943
 30
0.0
 40
0.7
100
AcDbArc
 50
183.2473427902889
 51
262.3418727926362
  0
ARC
  5
133A5
330
747D
100
AcDbEntity
  8
部品1
 48
50.0
100
AcDbCircle
 10
2933.602597701469
 20
4635.779805064948
 30
0.0
 40
0.7
100
AcDbArc
 50
183.2473427903929
 51
262.3418727926362
  0
ARC
  5
133A6
330
747D
100
AcDbEntity
  8
部品1
100
AcDbCircle
 10
2951.974407912145
 20
4529.112805903262
 30
0.0
 40
7.0
100
AcDbArc
 50
183.247342790341
 51
270.0
  0
ARC
  5
133A7
330
747D
100
AcDbEntity
  8
部品1
100
AcDbCircle
 10
2938.759084451111
 20
4656.112805903261
 30
0.0
 40
7.0
100
AcDbArc
 50
90.0
 51
183.247342790341
  0
LINE
  5
133A8
330
747D
100
AcDbEntity
  8
細線
 48
50.0
100
AcDbLine
 10
2964.350663344682
 20
4663.112805903261
 30
0.0
 11
2964.350663344682
 21
4522.112805903261
 31
0.0
  0
DIMENSION
  5
133A9
330
747D
100
AcDbEntity
  8
寸法
 48
50.0
100
AcDbDimension
  2
*D16
 10
8241.350663344686
 20
4875.654391161499
 30
0.0
 11
8604.835944718921
 21
4875.654391161499
 31
0.0
 70
   160
 71
     5
 42
50.0
  3
INABA_S40G
100
AcDbAlignedDimension
 13
8291.350663344685
 23
4663.112805903258
 33
0.0
 14
8241.350663344686
 24
4663.112805903259
 34
0.0
100
AcDbRotatedDimension
  0
ARC
  5
133AA
330
747D
100
AcDbEntity
  8
部品1
100
AcDbCircle
 10
8283.942242238252
 20
4656.112805903258
 30
0.0
 40
7.0
100
AcDbArc
 50
356.752657209659
 51
90.0
  0
ARC
  5
133AB
330
747D
100
AcDbEntity
  8
部品1
100
AcDbCircle
 10
8270.726918777219
 20
4529.11280590326
 30
0.0
 40
7.0
100
AcDbArc
 50
270.0
 51
356.752657209659
  0
ARC
  5
133AC
330
747D
100
AcDbEntity
  8
部品1
 48
50.0
100
AcDbCircle
 10
8289.098728987898
 20
4635.779805064945
 30
0.0
 40
0.7
100
AcDbArc
 50
277.6581272073638
 51
356.752657209607
  0
ARC
  5
133AD
330
747D
100
AcDbEntity
  8
部品1
 48
50.0
100
AcDbCircle
 10
8280.862698463053
 20
4543.579805064941
 30
0.0
 40
0.7
100
AcDbArc
 50
277.6581272073638
 51
356.7526572097111
  0
ARC
  5
133AE
330
747D
100
AcDbEntity
  8
部品1
 48
50.0
100
AcDbCircle
 10
8281.355767571616
 20
4539.912805903258
 30
0.0
 40
3.0
100
AcDbArc
 50
97.65812720736379
 51
176.752657209659
  0
ARC
  5
133AF
330
747D
100
AcDbEntity
  8
部品1
 48
50.0
100
AcDbCircle
 10
8289.591798096457
 20
4632.11280590326
 30
0.0
 40
3.0
100
AcDbArc
 50
97.65812720736379
 51
176.752657209659
  0
LINE
  5
133B0
330
747D
100
AcDbEntity
  8
部品1
100
AcDbLine
 10
8286.596615200272
 20
4632.282745358361
 30
0.0
 11
8281.561574472162
 21
4543.540152525419
 31
0.0
  0
LINE
  5
133B1
330
747D
100
AcDbEntity
  8
部品1
100
AcDbLine
 10
8278.36058467543
 20
4540.08274535836
 30
0.0
 11
8277.715678868316
 21
4528.71628050802
 31
0.0
  0
LINE
  5
133B2
330
747D
100
AcDbEntity
  8
細線
 48
50.0
100
AcDbLine
 10
8258.350663344684
 20
4663.112805903258
 30
0.0
 11
8258.350663344684
 21
4522.112805903257
 31
0.0
  0
LINE
  5
133B3
330
747D
100
AcDbEntity
  8
部品1
100
AcDbLine
 10
8290.931002329351
 20
4655.716280508019
 30
0.0
 11
8289.797604997005
 21
4635.740152525419
 31
0.0
  0
LINE
  5
133B4
330
747D
100
AcDbEntity
  8
部品1
100
AcDbLine
 10
5601.350663344682
 20
4522.11280590326
 30
0.0
 11
5601.350663344678
 21
4663.112805903258
 31
0.0
  0
TEXT
  5
133B5
330
747D
100
AcDbEntity
  8
文字
 62
     7
 48
50.0
100
AcDbText
 10
15022.63965474517
 20
9910.01374588373
 30
0.0
 40
100.0
  1
F12,Y10        1.0
  7
STYLE1
100
AcDbText
  0
TEXT
  5
133B6
330
747D
100
AcDbEntity
  8
文字
 62
     7
 48
50.0
100
AcDbText
 10
13583.1181901657
 20
9910.01374588373
 30
0.0
 40
100.0
  1
梁中
 41
0.9
  7
STYLE1
100
AcDbText
  0
TEXT
  5
133B7
330
747D
100
AcDbEntity
  8
文字
 62
     7
 48
50.0
100
AcDbText
 10
13248.77747366447
 20
8380.013745883728
 30
0.0
 40
100.0
  1
17
  7
STYLE1
100
AcDbText
  0
TEXT
  5
133B8
330
747D
100
AcDbEntity
  8
文字
 62
     7
 48
50.0
100
AcDbText
 10
13248.77747366447
 20
8550.013745883729
 30
0.0
 40
100.0
  1
16
  7
STYLE1
100
AcDbText
  0
TEXT
  5
133B9
330
747D
100
AcDbEntity
  8
文字
 62
     7
 48
50.0
100
AcDbText
 10
15022.63965474517
 20
8720.013745883726
 30
0.0
 40
100.0
  1
F12            1.0
  7
STYLE1
100
AcDbText
  0
TEXT
  5
133BA
330
747D
100
AcDbEntity
  8
文字
 62
     7
 48
50.0
100
AcDbText
 10
13583.11819016569
 20
8720.013745883733
 30
0.0
 40
100.0
  1
壁面扉枠左右
  7
STYLE1
100
AcDbText
  0
TEXT
  5
133BB
330
747D
100
AcDbEntity
  8
文字
 62
     7
 48
50.0
100
AcDbText
 10
15022.63965474517
 20
8890.013745883726
 30
0.0
 40
100.0
  1
F12            1.0
  7
STYLE1
100
AcDbText
  0
TEXT
  5
133BC
330
747D
100
AcDbEntity
  8
文字
 62
     7
 48
50.0
100
AcDbText
 10
15022.63965474515
 20
9060.013745883729
 30
0.0
 40
100.0
  1
F12            0.7
  7
STYLE1
100
AcDbText
  0
TEXT
  5
133BD
330
747D
100
AcDbEntity
  8
文字
 62
     7
 48
50.0
100
AcDbText
 10
13583.11819016569
 20
8890.013745883733
 30
0.0
 40
100.0
  1
壁面扉敷居
  7
STYLE1
100
AcDbText
  0
TEXT
  5
133BE
330
747D
100
AcDbEntity
  8
文字
 62
     7
 48
50.0
100
AcDbText
 10
13583.11819016569
 20
9060.013745883729
 30
0.0
 40
100.0
  1
壁面扉鴨居
  7
STYLE1
100
AcDbText
  0
LINE
  5
133BF
330
747D
100
AcDbEntity
  8
仕様書枠
 48
50.0
100
AcDbLine
 10
16307.19999999999
 20
8689.600000000003
 30
0.0
 11
13127.2
 21
8689.600000000007
 31
0.0
  0
LINE
  5
133C0
330
747D
100
AcDbEntity
  8
仕様書枠
 48
50.0
100
AcDbLine
 10
16307.19999999999
 20
8519.600000000004
 30
0.0
 11
13127.2
 21
8519.600000000009
 31
0.0
  0
TEXT
  5
133C1
330
747D
100
AcDbEntity
  8
文字
 62
     7
 48
50.0
100
AcDbText
 10
13583.11819016569
 20
8210.013745883729
 30
0.0
 40
100.0
  1
アンカープレート
  7
STYLE1
100
AcDbText
  0
TEXT
  5
133C2
330
747D
100
AcDbEntity
  8
文字
 62
     7
 48
50.0
100
AcDbText
 10
15022.63965474515
 20
8210.013745883726
 30
0.0
 40
100.0
  1
F12            2.3
  7
STYLE1
100
AcDbText
  0
LINE
  5
133C3
330
747D
100
AcDbEntity
  8
仕様書枠
 48
50.0
100
AcDbLine
 10
16307.2
 20
10049.6
 30
0.0
 11
13127.2
 21
10049.6
 31
0.0
  0
LINE
  5
133C4
330
747D
100
AcDbEntity
  8
仕様書枠
 48
50.0
100
AcDbLine
 10
16307.2
 20
11409.6
 30
0.0
 11
13127.2
 21
11409.6
 31
0.0
  0
LINE
  5
133C5
330
747D
100
AcDbEntity
  8
仕様書枠
 48
50.0
100
AcDbLine
 10
16307.19999999999
 20
7839.600000000006
 30
0.0
 11
16307.2
 21
11409.6
 31
0.0
  0
LINE
  5
133C6
330
747D
100
AcDbEntity
  8
仕様書枠
 48
50.0
100
AcDbLine
 10
14785.2
 20
11409.59999999999
 30
0.0
 11
14785.19999999999
 21
8179.600000000005
 31
0.0
  0
LINE
  5
133C7
330
747D
100
AcDbEntity
  8
仕様書枠
 48
50.0
100
AcDbLine
 10
13490.2
 20
11409.6
 30
0.0
 11
13490.20000000001
 21
8179.600000000005
 31
0.0
  0
LINE
  5
133C8
330
747D
100
AcDbEntity
  8
仕様書枠
 48
50.0
100
AcDbLine
 10
16307.2
 20
11239.6
 30
0.0
 11
13127.2
 21
11239.6
 31
0.0
  0
LINE
  5
133C9
330
747D
100
AcDbEntity
  8
仕様書枠
 48
50.0
100
AcDbLine
 10
16307.2
 20
10899.6
 30
0.0
 11
13127.2
 21
10899.6
 31
0.0
  0
LINE
  5
133CA
330
747D
100
AcDbEntity
  8
仕様書枠
 48
50.0
100
AcDbLine
 10
16307.2
 20
11069.6
 30
0.0
 11
13127.2
 21
11069.6
 31
0.0
  0
LINE
  5
133CB
330
747D
100
AcDbEntity
  8
仕様書枠
 48
50.0
100
AcDbLine
 10
16307.19999999999
 20
10559.6
 30
0.0
 11
13127.2
 21
10559.6
 31
0.0
  0
LINE
  5
133CC
330
747D
100
AcDbEntity
  8
仕様書枠
 48
50.0
100
AcDbLine
 10
16307.19999999999
 20
10389.6
 30
0.0
 11
13127.2
 21
10389.6
 31
0.0
  0
LINE
  5
133CD
330
747D
100
AcDbEntity
  8
仕様書枠
 48
50.0
100
AcDbLine
 10
16307.19999999999
 20
10729.6
 30
0.0
 11
13127.2
 21
10729.6
 31
0.0
  0
TEXT
  5
133CE
330
747D
100
AcDbEntity
  8
文字
 62
     7
 48
50.0
100
AcDbText
 10
13197.42518560407
 20
11270.01374588373
 30
0.0
 40
100.0
  1
品番
  7
STYLE1
100
AcDbText
  0
TEXT
  5
133CF
330
747D
100
AcDbEntity
  8
文字
 62
     7
 48
50.0
100
AcDbText
 10
13271.19032244792
 20
11100.01374588373
 30
0.0
 40
100.0
  1
1
  7
STYLE1
100
AcDbText
  0
TEXT
  5
133D0
330
747D
100
AcDbEntity
  8
文字
 62
     7
 48
50.0
100
AcDbText
 10
13271.19032244792
 20
10930.01374588373
 30
0.0
 40
100.0
  1
2
  7
STYLE1
100
AcDbText
  0
TEXT
  5
133D1
330
747D
100
AcDbEntity
  8
文字
 62
     7
 48
50.0
100
AcDbText
 10
13271.19032244792
 20
10590.01374588373
 30
0.0
 40
100.0
  1
4
  7
STYLE1
100
AcDbText
  0
TEXT
  5
133D2
330
747D
100
AcDbEntity
  8
文字
 62
     7
 48
50.0
100
AcDbText
 10
13271.19032244792
 20
10760.01374588373
 30
0.0
 40
100.0
  1
3
  7
STYLE1
100
AcDbText
  0
TEXT
  5
133D3
330
747D
100
AcDbEntity
  8
文字
 62
     7
 48
50.0
100
AcDbText
 10
13732.03840939434
 20
11270.01374588373
 30
0.0
 40
100.0
  1
部　　品　　名
  7
STYLE1
100
AcDbText
  0
TEXT
  5
133D4
330
747D
100
AcDbEntity
  8
文字
 62
     7
 48
50.0
100
AcDbText
 10
14859.79774614482
 20
11270.01374588373
 30
0.0
 40
100.0
  1
材料（材質）　　単位mm
  7
STYLE1
100
AcDbText
  0
TEXT
  5
133D5
330
747D
100
AcDbEntity
  8
文字
 62
     7
 48
50.0
100
AcDbText
 10
13583.11819016569
 20
11100.01374588373
 30
0.0
 40
100.0
  1
土台枠
  7
STYLE1
100
AcDbText
  0
TEXT
  5
133D6
330
747D
100
AcDbEntity
  8
文字
 62
     7
 48
50.0
100
AcDbText
 10
13583.1181901657
 20
10760.01374588373
 30
0.0
 40
100.0
  1
柱
  7
STYLE1
100
AcDbText
  0
TEXT
  5
133D7
330
747D
100
AcDbEntity
  8
文字
 62
     7
 48
50.0
100
AcDbText
 10
13583.11819016569
 20
10420.01374588373
 30
0.0
 40
100.0
  1
桁前後
  7
STYLE1
100
AcDbText
  0
TEXT
  5
133D8
330
747D
100
AcDbEntity
  8
文字
 62
     7
 48
50.0
100
AcDbText
 10
13271.19032244792
 20
10420.01374588373
 30
0.0
 40
100.0
  1
5
  7
STYLE1
100
AcDbText
  0
TEXT
  5
133D9
330
747D
100
AcDbEntity
  8
文字
 62
     7
 48
50.0
100
AcDbText
 10
13583.11819016569
 20
10250.01374588373
 30
0.0
 40
100.0
  1
妻板左右
  7
STYLE1
100
AcDbText
  0
TEXT
  5
133DA
330
747D
100
AcDbEntity
  8
文字
 62
     7
 48
50.0
100
AcDbText
 10
13248.77747366447
 20
9570.013745883729
 30
0.0
 40
100.0
  1
10
  7
STYLE1
100
AcDbText
  0
TEXT
  5
133DB
330
747D
100
AcDbEntity
  8
文字
 62
     7
 48
50.0
100
AcDbText
 10
13583.11819016568
 20
9400.013745883729
 30
0.0
 40
100.0
  1
壁パネル
  7
STYLE1
100
AcDbText
  0
TEXT
  5
133DC
330
747D
100
AcDbEntity
  8
文字
 62
     7
 48
50.0
100
AcDbText
 10
13583.11819016569
 20
9740.013745883729
 30
0.0
 40
100.0
  1
屋根パネル
  7
STYLE1
100
AcDbText
  0
TEXT
  5
133DD
330
747D
100
AcDbEntity
  8
文字
 62
     7
 48
50.0
100
AcDbText
 10
13583.11819016569
 20
10080.01374588373
 30
0.0
 40
100.0
  1
鼻隠シ前後
  7
STYLE1
100
AcDbText
  0
TEXT
  5
133DE
330
747D
100
AcDbEntity
  8
文字
 62
     7
 48
50.0
100
AcDbText
 10
13271.19032244792
 20
9910.01374588373
 30
0.0
 40
100.0
  1
8
  7
STYLE1
100
AcDbText
  0
TEXT
  5
133DF
330
747D
100
AcDbEntity
  8
文字
 62
     7
 48
50.0
100
AcDbText
 10
13271.19032244792
 20
9740.013745883729
 30
0.0
 40
100.0
  1
9
  7
STYLE1
100
AcDbText
  0
TEXT
  5
133E0
330
747D
100
AcDbEntity
  8
文字
 62
     7
 48
50.0
100
AcDbText
 10
13271.19032244792
 20
10080.01374588373
 30
0.0
 40
100.0
  1
7
  7
STYLE1
100
AcDbText
  0
TEXT
  5
133E1
330
747D
100
AcDbEntity
  8
文字
 62
     7
 48
50.0
100
AcDbText
 10
13271.19032244792
 20
10250.01374588373
 30
0.0
 40
100.0
  1
6
  7
STYLE1
100
AcDbText
  0
LINE
  5
133E2
330
747D
100
AcDbEntity
  8
仕様書枠
 48
50.0
100
AcDbLine
 10
16307.19999999999
 20
9709.600000000001
 30
0.0
 11
13127.2
 21
9709.600000000001
 31
0.0
  0
LINE
  5
133E3
330
747D
100
AcDbEntity
  8
仕様書枠
 48
50.0
100
AcDbLine
 10
16307.19999999999
 20
9369.600000000001
 30
0.0
 11
13127.2
 21
9369.600000000001
 31
0.0
  0
LINE
  5
133E4
330
747D
100
AcDbEntity
  8
仕様書枠
 48
50.0
100
AcDbLine
 10
16307.19999999999
 20
9539.6
 30
0.0
 11
13127.2
 21
9539.6
 31
0.0
  0
LINE
  5
133E5
330
747D
100
AcDbEntity
  8
仕様書枠
 48
50.0
100
AcDbLine
 10
16307.2
 20
10219.6
 30
0.0
 11
13127.2
 21
10219.6
 31
0.0
  0
LINE
  5
133E6
330
747D
100
AcDbEntity
  8
仕様書枠
 48
50.0
100
AcDbLine
 10
16307.2
 20
9879.600000000001
 30
0.0
 11
13127.2
 21
9879.600000000001
 31
0.0
  0
TEXT
  5
133E7
330
747D
100
AcDbEntity
  8
文字
 62
     7
 48
50.0
100
AcDbText
 10
13248.77747366447
 20
9400.013745883729
 30
0.0
 40
100.0
  1
11
  7
STYLE1
100
AcDbText
  0
LINE
  5
133E8
330
747D
100
AcDbEntity
  8
仕様書枠
 48
50.0
100
AcDbLine
 10
16307.19999999999
 20
9199.600000000001
 30
0.0
 11
13127.2
 21
9199.600000000001
 31
0.0
  0
LINE
  5
133E9
330
747D
100
AcDbEntity
  8
仕様書枠
 48
50.0
100
AcDbLine
 10
16307.19999999999
 20
8859.6
 30
0.0
 11
13127.2
 21
8859.600000000005
 31
0.0
  0
TEXT
  5
133EA
330
747D
100
AcDbEntity
  8
文字
 62
     7
 48
50.0
100
AcDbText
 10
13248.77747366448
 20
9060.013745883729
 30
0.0
 40
100.0
  1
13
  7
STYLE1
100
AcDbText
  0
TEXT
  5
133EB
330
747D
100
AcDbEntity
  8
文字
 62
     7
 48
50.0
100
AcDbText
 10
13248.77747366448
 20
9230.013745883729
 30
0.0
 40
100.0
  1
12
  7
STYLE1
100
AcDbText
  0
TEXT
  5
133EC
330
747D
100
AcDbEntity
  8
文字
 62
     7
 48
50.0
100
AcDbText
 10
15022.63965474517
 20
11100.01374588372
 30
0.0
 40
100.0
  1
F12            1.2
  7
STYLE1
100
AcDbText
  0
TEXT
  5
133ED
330
747D
100
AcDbEntity
  8
文字
 62
     7
 48
50.0
100
AcDbText
 10
15022.63965474518
 20
10760.01374588372
 30
0.0
 40
100.0
  1
F12            1.0
  7
STYLE1
100
AcDbText
  0
TEXT
  5
133EE
330
747D
100
AcDbEntity
  8
文字
 62
     7
 48
50.0
100
AcDbText
 10
15022.63965474516
 20
10420.01374588372
 30
0.0
 40
100.0
  1
Y10            1.0
  7
STYLE1
100
AcDbText
  0
TEXT
  5
133EF
330
747D
100
AcDbEntity
  8
文字
 62
     7
 48
50.0
100
AcDbText
 10
15022.63965474516
 20
10250.01374588372
 30
0.0
 40
100.0
  1
Y10            0.7
  7
STYLE1
100
AcDbText
  0
TEXT
  5
133F0
330
747D
100
AcDbEntity
  8
文字
 62
     7
 48
50.0
100
AcDbText
 10
15022.63965474516
 20
10080.01374588372
 30
0.0
 40
100.0
  1
Y10            0.7
  7
STYLE1
100
AcDbText
  0
TEXT
  5
133F1
330
747D
100
AcDbEntity
  8
文字
 62
     7
 48
50.0
100
AcDbText
 10
15022.63965474517
 20
9740.013745883725
 30
0.0
 40
100.0
  1
Y10            0.5
  7
STYLE1
100
AcDbText
  0
TEXT
  5
133F2
330
747D
100
AcDbEntity
  8
文字
 62
     7
 48
50.0
100
AcDbText
 10
15022.63965474515
 20
9400.013745883725
 30
0.0
 40
100.0
  1
F12            0.7
  7
STYLE1
100
AcDbText
  0
LINE
  5
133F3
330
747D
100
AcDbEntity
  8
仕様書枠
 48
50.0
100
AcDbLine
 10
16307.19999999999
 20
8349.600000000004
 30
0.0
 11
13127.19999999999
 21
8349.600000000007
 31
0.0
  0
LINE
  5
133F4
330
747D
100
AcDbEntity
  8
仕様書枠
 48
50.0
100
AcDbLine
 10
16307.19999999999
 20
8009.600000000004
 30
0.0
 11
13127.2
 21
8009.600000000007
 31
0.0
  0
TEXT
  5
133F5
330
747D
100
AcDbEntity
  8
文字
 62
     7
 48
50.0
100
AcDbText
 10
13229.83081656554
 20
8040.013745883735
 30
0.0
 40
100.0
  1
F12→溶融亜鉛めっき鋼板(JIS G 3302)
  7
STYLE1
100
AcDbText
  0
TEXT
  5
133F6
330
747D
100
AcDbEntity
  8
文字
 62
     7
 48
50.0
100
AcDbText
 10
13229.83081656554
 20
7870.013745883733
 30
0.0
 40
100.0
  1
Y10→溶融亜鉛-5％アルミニウム合金めっき鋼板(JIS G 3317)
 41
0.9
  7
STYLE1
100
AcDbText
  0
LINE
  5
133F7
330
747D
100
AcDbEntity
  8
仕様書枠
 48
50.0
100
AcDbLine
 10
13127.2
 20
11409.6
 30
0.0
 11
13127.19999999999
 21
7839.600000000008
 31
0.0
  0
LINE
  5
133F8
330
747D
100
AcDbEntity
  8
仕様書枠
 48
50.0
100
AcDbLine
 10
16307.19999999999
 20
9029.6
 30
0.0
 11
13127.2
 21
9029.600000000003
 31
0.0
  0
TEXT
  5
133F9
330
747D
100
AcDbEntity
  8
文字
 62
     7
 48
50.0
100
AcDbText
 10
13583.1181901657
 20
10590.01374588373
 30
0.0
 40
100.0
  1
床パネル
 41
0.9
  7
STYLE1
100
AcDbText
  0
TEXT
  5
133FA
330
747D
100
AcDbEntity
  8
文字
 62
     7
 48
50.0
100
AcDbText
 10
13583.11819016569
 20
10930.01374588373
 30
0.0
 40
100.0
  1
根太
  7
STYLE1
100
AcDbText
  0
TEXT
  5
133FB
330
747D
100
AcDbEntity
  8
文字
 62
     7
 48
50.0
100
AcDbText
 10
13248.77747366448
 20
8890.013745883729
 30
0.0
 40
100.0
  1
14
  7
STYLE1
100
AcDbText
  0
TEXT
  5
133FC
330
747D
100
AcDbEntity
  8
文字
 62
     7
 48
50.0
100
AcDbText
 10
15022.63965474516
 20
10930.01374588372
 30
0.0
 40
100.0
  1
F12            1.2
  7
STYLE1
100
AcDbText
  0
TEXT
  5
133FD
330
747D
100
AcDbEntity
  8
文字
 62
     7
 48
50.0
100
AcDbText
 10
15022.63965474517
 20
10590.01374588372
 30
0.0
 40
100.0
  1
F12            1.0
  7
STYLE1
100
AcDbText
  0
TEXT
  5
133FE
330
747D
100
AcDbEntity
  8
文字
 62
     7
 48
50.0
100
AcDbText
 10
15022.63965474515
 20
8550.013745883729
 30
0.0
 40
100.0
  1
F12            0.7
  7
STYLE1
100
AcDbText
  0
TEXT
  5
133FF
330
747D
100
AcDbEntity
  8
文字
 62
     7
 48
50.0
100
AcDbText
 10
13583.11819016568
 20
8550.013745883733
 30
0.0
 40
100.0
  1
正面パネル
  7
STYLE1
100
AcDbText
  0
TEXT
  5
13400
330
747D
100
AcDbEntity
  8
文字
 62
     7
 48
50.0
100
AcDbText
 10
15022.63965474516
 20
8380.013745883728
 30
0.0
 40
100.0
  1
F12            0.8
  7
STYLE1
100
AcDbText
  0
TEXT
  5
13401
330
747D
100
AcDbEntity
  8
文字
 62
     7
 48
50.0
100
AcDbText
 10
13583.11819016569
 20
8380.013745883733
 30
0.0
 40
100.0
  1
扉
  7
STYLE1
100
AcDbText
  0
LINE
  5
13402
330
747D
100
AcDbEntity
  8
仕様書枠
 48
50.0
100
AcDbLine
 10
16307.19999999998
 20
7839.600000000006
 30
0.0
 11
13127.19999999999
 21
7839.600000000007
 31
0.0
  0
TEXT
  5
13403
330
747D
100
AcDbEntity
  8
文字
 62
     7
 48
50.0
100
AcDbText
 10
13248.77747366447
 20
8720.013745883729
 30
0.0
 40
100.0
  1
15
  7
STYLE1
100
AcDbText
  0
TEXT
  5
13404
330
747D
100
AcDbEntity
  8
文字
 62
     7
 48
50.0
100
AcDbText
 10
13583.11819016569
 20
9570.013745883729
 30
0.0
 40
100.0
  1
母屋中
  7
STYLE1
100
AcDbText
  0
LINE
  5
13408
330
747D
100
AcDbEntity
  8
部品1
 48
50.0
100
AcDbLine
 10
4257.350663344681
 20
4371.112805903256
 30
0.0
 11
4257.350663344681
 21
2338.112805903255
 31
0.0
  0
LINE
  5
13409
330
747D
100
AcDbEntity
  8
部品1
100
AcDbLine
 10
4908.350663344674
 20
4371.112805903256
 30
0.0
 11
4908.350663344681
 21
2345.61280590327
 31
0.0
  0
LINE
  5
1340A
330
747D
100
AcDbEntity
  8
細線
100
AcDbLine
 10
4163.350663344681
 20
4371.112805903256
 30
0.0
 11
4163.350663344681
 21
2338.112805903262
 31
0.0
  0
LINE
  5
1340B
330
747D
100
AcDbEntity
  8
細線
100
AcDbLine
 10
4093.350663344682
 20
4371.112805903256
 30
0.0
 11
4093.350663344682
 21
2338.112805903262
 31
0.0
  0
LINE
  5
1340C
330
747D
100
AcDbEntity
  8
細線
100
AcDbLine
 10
4023.350663344682
 20
4371.112805903256
 30
0.0
 11
4023.350663344682
 21
2338.112805903261
 31
0.0
  0
LINE
  5
1340D
330
747D
100
AcDbEntity
  8
細線
100
AcDbLine
 10
3953.350663344681
 20
4371.112805903256
 30
0.0
 11
3953.350663344681
 21
2338.112805903259
 31
0.0
  0
LINE
  5
1340E
330
747D
100
AcDbEntity
  8
細線
100
AcDbLine
 10
3883.350663344682
 20
4371.112805903256
 30
0.0
 11
3883.350663344682
 21
2338.112805903259
 31
0.0
  0
LINE
  5
1340F
330
747D
100
AcDbEntity
  8
細線
100
AcDbLine
 10
3813.350663344682
 20
4371.112805903256
 30
0.0
 11
3813.350663344682
 21
2338.112805903259
 31
0.0
  0
LINE
  5
13410
330
747D
100
AcDbEntity
  8
部品1
100
AcDbLine
 10
3629.350663344682
 20
4371.112805903256
 30
0.0
 11
3629.350663344682
 21
2338.112805903261
 31
0.0
  0
LINE
  5
13411
330
747D
100
AcDbEntity
  8
部品1
100
AcDbLine
 10
3579.350663344682
 20
4371.112805903256
 30
0.0
 11
3579.350663344682
 21
2338.112805903261
 31
0.0
  0
LINE
  5
13412
330
747D
100
AcDbEntity
  8
細線
100
AcDbLine
 10
3621.350663344681
 20
4371.112805903256
 30
0.0
 11
3621.350663344681
 21
2338.112805903261
 31
0.0
  0
LINE
  5
13413
330
747D
100
AcDbEntity
  8
細線
100
AcDbLine
 10
3587.350663344682
 20
4371.112805903256
 30
0.0
 11
3587.350663344682
 21
2338.112805903261
 31
0.0
  0
LINE
  5
13414
330
747D
100
AcDbEntity
  8
細線
100
AcDbLine
 10
4807.350663344681
 20
4371.112805903256
 30
0.0
 11
4807.350663344681
 21
2345.612805903268
 31
0.0
  0
LINE
  5
13415
330
747D
100
AcDbEntity
  8
細線
100
AcDbLine
 10
4737.350663344681
 20
4371.112805903256
 30
0.0
 11
4737.350663344681
 21
2345.612805903268
 31
0.0
  0
LINE
  5
13416
330
747D
100
AcDbEntity
  8
細線
100
AcDbLine
 10
4667.350663344681
 20
4371.112805903256
 30
0.0
 11
4667.350663344681
 21
2345.612805903268
 31
0.0
  0
LINE
  5
13417
330
747D
100
AcDbEntity
  8
細線
100
AcDbLine
 10
4597.350663344681
 20
4371.112805903256
 30
0.0
 11
4597.350663344681
 21
2345.612805903268
 31
0.0
  0
LINE
  5
13418
330
747D
100
AcDbEntity
  8
細線
100
AcDbLine
 10
4527.350663344681
 20
4371.112805903256
 30
0.0
 11
4527.350663344681
 21
2345.612805903268
 31
0.0
  0
LINE
  5
13419
330
747D
100
AcDbEntity
  8
細線
100
AcDbLine
 10
4457.350663344681
 20
4371.112805903256
 30
0.0
 11
4457.350663344681
 21
2345.612805903268
 31
0.0
  0
LINE
  5
1341A
330
747D
100
AcDbEntity
  8
細線
100
AcDbLine
 10
5392.850663344681
 20
4371.112805903256
 30
0.0
 11
5392.850663344681
 21
2345.612805903273
 31
0.0
  0
LINE
  5
1341B
330
747D
100
AcDbEntity
  8
細線
100
AcDbLine
 10
5322.850663344681
 20
4371.112805903256
 30
0.0
 11
5322.850663344681
 21
2345.612805903273
 31
0.0
  0
LINE
  5
1341C
330
747D
100
AcDbEntity
  8
細線
100
AcDbLine
 10
5252.850663344681
 20
4371.112805903256
 30
0.0
 11
5252.850663344681
 21
2345.612805903273
 31
0.0
  0
LINE
  5
1341D
330
747D
100
AcDbEntity
  8
細線
100
AcDbLine
 10
5182.850663344681
 20
4371.112805903256
 30
0.0
 11
5182.850663344681
 21
2345.612805903273
 31
0.0
  0
LINE
  5
1341E
330
747D
100
AcDbEntity
  8
細線
100
AcDbLine
 10
5112.850663344682
 20
4371.112805903256
 30
0.0
 11
5112.850663344682
 21
2345.612805903273
 31
0.0
  0
LINE
  5
13422
330
747D
100
AcDbEntity
  8
部品1
 48
50.0
100
AcDbLine
 10
3503.350663344682
 20
3419.612805903256
 30
0.0
 11
3556.350663344681
 21
3419.612805903256
 31
0.0
  0
LINE
  5
1343C
330
747D
100
AcDbEntity
  8
細線
100
AcDbLine
 10
3743.350663344682
 20
4371.112805903256
 30
0.0
 11
3743.350663344682
 21
2338.112805903259
 31
0.0
  0
LINE
  5
1343D
330
747D
100
AcDbEntity
  8
細線
100
AcDbLine
 10
3673.350663344681
 20
4371.112805903256
 30
0.0
 11
3673.350663344681
 21
2338.112805903259
 31
0.0
  0
LINE
  5
1343E
330
747D
100
AcDbEntity
  8
細線
100
AcDbLine
 10
4387.350663344681
 20
4371.112805903256
 30
0.0
 11
4387.350663344681
 21
2345.612805903268
 31
0.0
  0
LINE
  5
1343F
330
747D
100
AcDbEntity
  8
細線
100
AcDbLine
 10
4317.350663344681
 20
4371.112805903256
 30
0.0
 11
4317.350663344681
 21
2345.612805903268
 31
0.0
  0
LINE
  5
13440
330
747D
100
AcDbEntity
  8
細線
100
AcDbLine
 10
5042.850663344681
 20
4371.112805903256
 30
0.0
 11
5042.850663344681
 21
2345.612805903273
 31
0.0
  0
LINE
  5
13441
330
747D
100
AcDbEntity
  8
部品1
 48
50.0
100
AcDbLine
 10
4908.350663344681
 20
4371.112805903254
 30
0.0
 11
4908.350663344681
 21
2345.612805903254
 31
0.0
  0
LINE
  5
13442
330
747D
100
AcDbEntity
  8
部品1
 48
50.0
100
AcDbLine
 10
5583.350663344679
 20
2188.112805903255
 30
0.0
 11
5583.350663344681
 21
4423.112805903254
 31
0.0
  0
LINE
  5
13443
330
747D
100
AcDbEntity
  8
細線
 48
50.0
100
AcDbLine
 10
5553.350663344681
 20
2288.112805903255
 30
0.0
 11
5553.350663344681
 21
4380.612805903254
 31
0.0
  0
LINE
  5
13444
330
747D
100
AcDbEntity
  8
部品1
 48
50.0
100
AcDbLine
 10
5544.350663344681
 20
2335.112805903254
 30
0.0
 11
5544.350663344681
 21
4371.112805903254
 31
0.0
  0
LINE
  5
13445
330
747D
100
AcDbEntity
  8
部品1
 48
50.0
100
AcDbLine
 10
4257.350663344681
 20
4371.112805903254
 30
0.0
 11
4257.350663344681
 21
2338.112805903254
 31
0.0
  0
LINE
  5
13446
330
747D
100
AcDbEntity
  8
部品1
 48
50.0
100
AcDbLine
 10
3459.350663344681
 20
2338.112805903254
 30
0.0
 11
4257.350663344681
 21
2338.112805903254
 31
0.0
  0
LINE
  5
13447
330
747D
100
AcDbEntity
  8
細線
 48
50.0
100
AcDbLine
 10
3459.350663344681
 20
2335.112805903254
 30
0.0
 11
5553.350663344681
 21
2335.112805903254
 31
0.0
  0
LINE
  5
13448
330
747D
100
AcDbEntity
  8
細線
 48
50.0
100
AcDbLine
 10
3459.350663344681
 20
2331.112805903254
 30
0.0
 11
5553.350663344681
 21
2331.112805903254
 31
0.0
  0
LINE
  5
13449
330
747D
100
AcDbEntity
  8
部品1
 48
50.0
100
AcDbLine
 10
3468.350663344682
 20
2338.112805903254
 30
0.0
 11
3468.350663344682
 21
2335.112805903254
 31
0.0
  0
LINE
  5
1344A
330
747D
100
AcDbEntity
  8
細線
 48
50.0
100
AcDbLine
 10
3459.350663344681
 20
4380.612805903254
 30
0.0
 11
3459.350663344681
 21
2288.112805903255
 31
0.0
  0
LINE
  5
1344B
330
747D
100
AcDbEntity
  8
部品1
 48
50.0
100
AcDbLine
 10
3459.350663344681
 20
2338.112805903254
 30
0.0
 11
3459.350663344681
 21
4371.112805903254
 31
0.0
  0
LINE
  5
1344C
330
747D
100
AcDbEntity
  8
部品1
 48
50.0
100
AcDbLine
 10
3429.350663344682
 20
4423.112805903254
 30
0.0
 11
3429.35066334468
 21
2188.112805903255
 31
0.0
  0
LINE
  5
1344D
330
747D
100
AcDbEntity
  8
細線
 48
50.0
100
AcDbLine
 10
5531.350663344682
 20
2335.112805903254
 30
0.0
 11
5527.350663344681
 21
2345.612805903254
 31
0.0
  0
LINE
  5
1344E
330
747D
100
AcDbEntity
  8
細線
 48
50.0
100
AcDbLine
 10
4257.350663344681
 20
2345.612805903254
 30
0.0
 11
5527.350663344681
 21
2345.612805903254
 31
0.0
  0
LINE
  5
1344F
330
747D
100
AcDbEntity
  8
部品1
 48
50.0
100
AcDbLine
 10
5583.350663344681
 20
4379.112805903254
 30
0.0
 11
5553.350663344681
 21
4379.112805903254
 31
0.0
  0
LINE
  5
13450
330
747D
100
AcDbEntity
  8
細線
 48
50.0
100
AcDbLine
 10
5583.350663344681
 20
4413.112805903255
 30
0.0
 11
3429.350663344682
 21
4413.112805903255
 31
0.0
  0
LINE
  5
13451
330
747D
100
AcDbEntity
  8
部品1
 48
50.0
100
AcDbLine
 10
5583.350663344681
 20
4423.112805903254
 30
0.0
 11
3429.350663344682
 21
4423.112805903254
 31
0.0
  0
LINE
  5
13452
330
747D
100
AcDbEntity
  8
細線
 48
50.0
100
AcDbLine
 10
5553.350663344681
 20
4380.612805903254
 30
0.0
 11
3459.350663344681
 21
4380.612805903254
 31
0.0
  0
LINE
  5
13453
330
747D
100
AcDbEntity
  8
細線
 48
50.0
100
AcDbLine
 10
5553.350663344681
 20
4371.112805903254
 30
0.0
 11
3459.350663344681
 21
4371.112805903254
 31
0.0
  0
LINE
  5
13454
330
747D
100
AcDbEntity
  8
部品1
 48
50.0
100
AcDbLine
 10
3459.350663344681
 20
4379.112805903254
 30
0.0
 11
3429.350663344682
 21
4379.112805903254
 31
0.0
  0
LINE
  5
13455
330
747D
100
AcDbEntity
  8
部品1
100
AcDbLine
 10
5556.350663344681
 20
4428.112805903256
 30
0.0
 11
5556.350663344681
 21
4423.112805903254
 31
0.0
  0
LINE
  5
13456
330
747D
100
AcDbEntity
  8
部品1
100
AcDbLine
 10
3456.350663344681
 20
4428.112805903256
 30
0.0
 11
3456.350663344681
 21
4423.112805903254
 31
0.0
  0
LINE
  5
13457
330
747D
100
AcDbEntity
  8
細線
 48
50.0
100
AcDbLine
 10
8108.850663344686
 20
4428.112805903256
 30
0.0
 11
8108.850663344687
 21
2338.112805903256
 31
0.0
  0
LINE
  5
13458
330
747D
100
AcDbEntity
  8
細線
 48
50.0
100
AcDbLine
 10
8123.850663344684
 20
4428.112805903256
 30
0.0
 11
8123.850663344688
 21
2338.112805903256
 31
0.0
  0
LINE
  5
13459
330
747D
100
AcDbEntity
  8
細線
 48
50.0
100
AcDbLine
 10
7983.850663344686
 20
4428.112805903256
 30
0.0
 11
7983.850663344687
 21
2338.112805903256
 31
0.0
  0
LINE
  5
1345A
330
747D
100
AcDbEntity
  8
細線
 48
50.0
100
AcDbLine
 10
7968.850663344685
 20
4428.112805903256
 30
0.0
 11
7968.850663344686
 21
2338.112805903256
 31
0.0
  0
LINE
  5
1345B
330
747D
100
AcDbEntity
  8
細線
 48
50.0
100
AcDbLine
 10
7828.850663344685
 20
4428.112805903256
 30
0.0
 11
7828.850663344688
 21
2338.112805903256
 31
0.0
  0
LINE
  5
1345C
330
747D
100
AcDbEntity
  8
細線
 48
50.0
100
AcDbLine
 10
7843.850663344685
 20
4428.112805903256
 30
0.0
 11
7843.850663344689
 21
2338.112805903256
 31
0.0
  0
LINE
  5
1345D
330
747D
100
AcDbEntity
  8
細線
 48
50.0
100
AcDbLine
 10
7423.850663344684
 20
4428.112805903256
 30
0.0
 11
7423.850663344689
 21
2338.112805903256
 31
0.0
  0
LINE
  5
1345E
330
747D
100
AcDbEntity
  8
細線
 48
50.0
100
AcDbLine
 10
7408.850663344686
 20
4428.112805903256
 30
0.0
 11
7408.850663344688
 21
2338.112805903256
 31
0.0
  0
LINE
  5
1345F
330
747D
100
AcDbEntity
  8
細線
 48
50.0
100
AcDbLine
 10
7548.850663344684
 20
4428.112805903256
 30
0.0
 11
7548.850663344689
 21
2338.112805903256
 31
0.0
  0
LINE
  5
13460
330
747D
100
AcDbEntity
  8
細線
 48
50.0
100
AcDbLine
 10
7563.850663344685
 20
4428.112805903256
 30
0.0
 11
7563.850663344689
 21
2338.112805903256
 31
0.0
  0
LINE
  5
13461
330
747D
100
AcDbEntity
  8
細線
 48
50.0
100
AcDbLine
 10
7703.850663344685
 20
4428.112805903256
 30
0.0
 11
7703.850663344688
 21
2338.112805903256
 31
0.0
  0
LINE
  5
13462
330
747D
100
AcDbEntity
  8
細線
 48
50.0
100
AcDbLine
 10
7688.850663344685
 20
4428.112805903256
 30
0.0
 11
7688.850663344689
 21
2338.112805903256
 31
0.0
  0
LINE
  5
13463
330
747D
100
AcDbEntity
  8
細線
 48
50.0
100
AcDbLine
 10
7003.850663344685
 20
4428.112805903256
 30
0.0
 11
7003.850663344689
 21
2338.112805903256
 31
0.0
  0
LINE
  5
13464
330
747D
100
AcDbEntity
  8
細線
 48
50.0
100
AcDbLine
 10
6988.850663344685
 20
4428.112805903256
 30
0.0
 11
6988.850663344689
 21
2338.112805903256
 31
0.0
  0
LINE
  5
13465
330
747D
100
AcDbEntity
  8
細線
 48
50.0
100
AcDbLine
 10
7128.850663344685
 20
4428.112805903256
 30
0.0
 11
7128.850663344689
 21
2338.112805903256
 31
0.0
  0
LINE
  5
13466
330
747D
100
AcDbEntity
  8
細線
 48
50.0
100
AcDbLine
 10
7143.850663344685
 20
4428.112805903256
 30
0.0
 11
7143.850663344689
 21
2338.112805903256
 31
0.0
  0
LINE
  5
13467
330
747D
100
AcDbEntity
  8
細線
 48
50.0
100
AcDbLine
 10
7283.850663344686
 20
4428.112805903256
 30
0.0
 11
7283.850663344688
 21
2338.112805903256
 31
0.0
  0
LINE
  5
13468
330
747D
100
AcDbEntity
  8
細線
 48
50.0
100
AcDbLine
 10
7268.850663344685
 20
4428.112805903256
 30
0.0
 11
7268.850663344689
 21
2338.112805903256
 31
0.0
  0
LINE
  5
13469
330
747D
100
AcDbEntity
  8
細線
 48
50.0
100
AcDbLine
 10
6848.850663344684
 20
4428.112805903256
 30
0.0
 11
6848.850663344689
 21
2338.112805903256
 31
0.0
  0
LINE
  5
1346A
330
747D
100
AcDbEntity
  8
細線
 48
50.0
100
AcDbLine
 10
6863.850663344685
 20
4428.112805903256
 30
0.0
 11
6863.850663344689
 21
2338.112805903256
 31
0.0
  0
LINE
  5
1346B
330
747D
100
AcDbEntity
  8
細線
 48
50.0
100
AcDbLine
 10
6723.850663344684
 20
4428.112805903256
 30
0.0
 11
6723.850663344689
 21
2338.112805903256
 31
0.0
  0
LINE
  5
1346C
330
747D
100
AcDbEntity
  8
細線
 48
50.0
100
AcDbLine
 10
6708.850663344685
 20
4428.112805903256
 30
0.0
 11
6708.850663344688
 21
2338.112805903256
 31
0.0
  0
LINE
  5
1346D
330
747D
100
AcDbEntity
  8
細線
 48
50.0
100
AcDbLine
 10
6568.850663344685
 20
4428.112805903256
 30
0.0
 11
6568.850663344689
 21
2338.112805903256
 31
0.0
  0
LINE
  5
1346E
330
747D
100
AcDbEntity
  8
細線
 48
50.0
100
AcDbLine
 10
6583.850663344685
 20
4428.112805903256
 30
0.0
 11
6583.850663344688
 21
2338.112805903256
 31
0.0
  0
LINE
  5
1346F
330
747D
100
AcDbEntity
  8
細線
 48
50.0
100
AcDbLine
 10
6163.850663344685
 20
4428.112805903256
 30
0.0
 11
6163.850663344689
 21
2338.112805903256
 31
0.0
  0
LINE
  5
13470
330
747D
100
AcDbEntity
  8
細線
 48
50.0
100
AcDbLine
 10
6148.850663344685
 20
4428.112805903256
 30
0.0
 11
6148.850663344688
 21
2338.112805903256
 31
0.0
  0
LINE
  5
13471
330
747D
100
AcDbEntity
  8
細線
 48
50.0
100
AcDbLine
 10
6288.850663344685
 20
4428.112805903256
 30
0.0
 11
6288.850663344689
 21
2338.112805903256
 31
0.0
  0
LINE
  5
13472
330
747D
100
AcDbEntity
  8
細線
 48
50.0
100
AcDbLine
 10
6303.850663344685
 20
4428.112805903256
 30
0.0
 11
6303.850663344689
 21
2338.112805903256
 31
0.0
  0
LINE
  5
13473
330
747D
100
AcDbEntity
  8
細線
 48
50.0
100
AcDbLine
 10
6443.850663344685
 20
4428.112805903256
 30
0.0
 11
6443.850663344689
 21
2338.112805903256
 31
0.0
  0
LINE
  5
13474
330
747D
100
AcDbEntity
  8
細線
 48
50.0
100
AcDbLine
 10
6428.850663344686
 20
4428.112805903256
 30
0.0
 11
6428.850663344689
 21
2338.112805903256
 31
0.0
  0
LINE
  5
13475
330
747D
100
AcDbEntity
  8
細線
 48
50.0
100
AcDbLine
 10
6008.850663344685
 20
4428.112805903256
 30
0.0
 11
6008.850663344689
 21
2338.112805903256
 31
0.0
  0
LINE
  5
13476
330
747D
100
AcDbEntity
  8
細線
 48
50.0
100
AcDbLine
 10
6023.850663344685
 20
4428.112805903256
 30
0.0
 11
6023.850663344688
 21
2338.112805903256
 31
0.0
  0
LINE
  5
13477
330
747D
100
AcDbEntity
  8
細線
 48
50.0
100
AcDbLine
 10
5883.850663344685
 20
4428.112805903256
 30
0.0
 11
5883.850663344689
 21
2338.112805903256
 31
0.0
  0
LINE
  5
13478
330
747D
100
AcDbEntity
  8
細線
 48
50.0
100
AcDbLine
 10
5868.850663344685
 20
4428.112805903256
 30
0.0
 11
5868.850663344688
 21
2338.112805903256
 31
0.0
  0
LINE
  5
13479
330
747D
100
AcDbEntity
  8
細線
 48
50.0
100
AcDbLine
 10
5728.850663344685
 20
4428.112805903256
 30
0.0
 11
5728.850663344688
 21
2338.112805903256
 31
0.0
  0
LINE
  5
1347A
330
747D
100
AcDbEntity
  8
細線
 48
50.0
100
AcDbLine
 10
5743.850663344685
 20
4428.112805903256
 30
0.0
 11
5743.850663344688
 21
2338.112805903256
 31
0.0
  0
LINE
  5
1347B
330
747D
100
AcDbEntity
  8
細線
100
AcDbLine
 10
4911.350663344692
 20
4487.612805903256
 30
0.0
 11
4911.350663344692
 21
4464.612805903256
 31
0.0
  0
LINE
  5
1347C
330
747D
100
AcDbEntity
  8
細線
100
AcDbLine
 10
4837.350663344692
 20
4475.612805903256
 30
0.0
 11
4911.350663344692
 21
4475.612805903256
 31
0.0
  0
LINE
  5
1347D
330
747D
100
AcDbEntity
  8
細線
100
AcDbLine
 10
4837.350663344692
 20
4469.612805903254
 30
0.0
 11
4911.350663344692
 21
4469.612805903255
 31
0.0
  0
LINE
  5
1347E
330
747D
100
AcDbEntity
  8
細線
100
AcDbLine
 10
4837.350663344692
 20
4481.612805903254
 30
0.0
 11
4911.350663344692
 21
4481.612805903256
 31
0.0
  0
LINE
  5
1347F
330
747D
100
AcDbEntity
  8
細線
100
AcDbLine
 10
4985.350663344693
 20
4481.612805903256
 30
0.0
 11
4916.350663344692
 21
4481.612805903256
 31
0.0
  0
LINE
  5
13480
330
747D
100
AcDbEntity
  8
細線
100
AcDbLine
 10
4985.350663344693
 20
4469.612805903255
 30
0.0
 11
4911.350663344692
 21
4469.612805903255
 31
0.0
  0
LINE
  5
13481
330
747D
100
AcDbEntity
  8
細線
100
AcDbLine
 10
4985.350663344693
 20
4475.612805903256
 30
0.0
 11
4911.350663344692
 21
4475.612805903256
 31
0.0
  0
LINE
  5
13482
330
747D
100
AcDbEntity
  8
細線
100
AcDbLine
 10
4985.350663344693
 20
4481.612805903256
 30
0.0
 11
4911.350663344692
 21
4481.612805903256
 31
0.0
  0
LINE
  5
13483
330
747D
100
AcDbEntity
  8
部品1
 48
0.01
100
AcDbLine
 10
4823.350663344692
 20
4494.112805903256
 30
0.0
 11
4999.350663344692
 21
4494.112805903256
 31
0.0
  0
LINE
  5
13484
330
747D
100
AcDbEntity
  8
部品1
 48
0.01
100
AcDbLine
 10
5001.350663344692
 20
4492.112805903256
 30
0.0
 11
5001.350663344692
 21
4460.612805903256
 31
0.0
  0
LINE
  5
13485
330
747D
100
AcDbEntity
  8
部品1
 48
0.01
100
AcDbLine
 10
4999.350663344692
 20
4458.612805903256
 30
0.0
 11
4823.350663344692
 21
4458.612805903256
 31
0.0
  0
LINE
  5
13486
330
747D
100
AcDbEntity
  8
部品1
 48
0.01
100
AcDbLine
 10
4821.350663344692
 20
4460.612805903256
 30
0.0
 11
4821.350663344692
 21
4492.112805903256
 31
0.0
  0
LINE
  5
13487
330
747D
100
AcDbEntity
  8
細線
100
AcDbLine
 10
4985.350663344693
 20
4487.612805903256
 30
0.0
 11
4985.350663344693
 21
4464.612805903256
 31
0.0
  0
LINE
  5
13488
330
747D
100
AcDbEntity
  8
細線
100
AcDbLine
 10
4837.350663344692
 20
4464.612805903256
 30
0.0
 11
4837.350663344692
 21
4487.612805903256
 31
0.0
  0
LINE
  5
13489
330
747D
100
AcDbEntity
  8
細線
100
AcDbLine
 10
4837.350663344692
 20
4487.612805903256
 30
0.0
 11
4911.350663344692
 21
4487.612805903256
 31
0.0
  0
LINE
  5
1348A
330
747D
100
AcDbEntity
  8
細線
100
AcDbLine
 10
4985.350663344693
 20
4464.612805903256
 30
0.0
 11
4911.350663344692
 21
4464.612805903256
 31
0.0
  0
LINE
  5
1348B
330
747D
100
AcDbEntity
  8
細線
100
AcDbLine
 10
4911.350663344692
 20
4487.612805903256
 30
0.0
 11
4985.350663344693
 21
4487.612805903256
 31
0.0
  0
LINE
  5
1348C
330
747D
100
AcDbEntity
  8
細線
100
AcDbLine
 10
4911.350663344692
 20
4464.612805903256
 30
0.0
 11
4837.350663344692
 21
4464.612805903256
 31
0.0
  0
ARC
  5
1348D
330
747D
100
AcDbEntity
  8
部品1
 48
0.01
100
AcDbCircle
 10
4999.350663344692
 20
4492.112805903256
 30
0.0
 40
2.0
100
AcDbArc
 50
0.0
 51
90.0
  0
ARC
  5
1348E
330
747D
100
AcDbEntity
  8
部品1
 48
0.01
100
AcDbCircle
 10
4999.350663344692
 20
4460.612805903256
 30
0.0
 40
2.0
100
AcDbArc
 50
270.0
 51
0.0
  0
ARC
  5
1348F
330
747D
100
AcDbEntity
  8
部品1
 48
0.01
100
AcDbCircle
 10
4823.350663344692
 20
4492.112805903256
 30
0.0
 40
2.0
100
AcDbArc
 50
90.0
 51
180.0
  0
ARC
  5
13490
330
747D
100
AcDbEntity
  8
部品1
 48
0.01
100
AcDbCircle
 10
4823.350663344692
 20
4460.612805903256
 30
0.0
 40
2.0
100
AcDbArc
 50
180.0
 51
270.0
  0
ARC
  5
13491
330
747D
100
AcDbEntity
  8
部品1
 48
0.01
100
AcDbCircle
 10
3769.350663344674
 20
4460.612805903254
 30
0.0
 40
2.0
100
AcDbArc
 50
270.0
 51
0.0
  0
ARC
  5
13492
330
747D
100
AcDbEntity
  8
部品1
 48
0.01
100
AcDbCircle
 10
3769.350663344674
 20
4492.112805903254
 30
0.0
 40
2.0
100
AcDbArc
 50
0.0
 51
90.0
  0
ARC
  5
13493
330
747D
100
AcDbEntity
  8
部品1
 48
0.01
100
AcDbCircle
 10
3593.350663344674
 20
4460.612805903254
 30
0.0
 40
2.0
100
AcDbArc
 50
180.0
 51
270.0
  0
ARC
  5
13494
330
747D
100
AcDbEntity
  8
部品1
 48
0.01
100
AcDbCircle
 10
3593.350663344674
 20
4492.112805903254
 30
0.0
 40
2.0
100
AcDbArc
 50
90.0
 51
180.0
  0
LINE
  5
13495
330
747D
100
AcDbEntity
  8
細線
100
AcDbLine
 10
3681.350663344674
 20
4464.612805903254
 30
0.0
 11
3755.350663344675
 21
4464.612805903254
 31
0.0
  0
LINE
  5
13496
330
747D
100
AcDbEntity
  8
細線
100
AcDbLine
 10
3681.350663344674
 20
4487.612805903254
 30
0.0
 11
3607.350663344674
 21
4487.612805903254
 31
0.0
  0
LINE
  5
13497
330
747D
100
AcDbEntity
  8
細線
100
AcDbLine
 10
3607.350663344674
 20
4464.612805903254
 30
0.0
 11
3681.350663344674
 21
4464.612805903254
 31
0.0
  0
LINE
  5
13498
330
747D
100
AcDbEntity
  8
細線
100
AcDbLine
 10
3755.350663344675
 20
4487.612805903254
 30
0.0
 11
3681.350663344674
 21
4487.612805903254
 31
0.0
  0
LINE
  5
13499
330
747D
100
AcDbEntity
  8
細線
100
AcDbLine
 10
3755.350663344675
 20
4464.612805903254
 30
0.0
 11
3755.350663344675
 21
4487.612805903254
 31
0.0
  0
LINE
  5
1349A
330
747D
100
AcDbEntity
  8
細線
100
AcDbLine
 10
3607.350663344674
 20
4487.612805903254
 30
0.0
 11
3607.350663344674
 21
4464.612805903254
 31
0.0
  0
LINE
  5
1349B
330
747D
100
AcDbEntity
  8
部品1
 48
0.01
100
AcDbLine
 10
3771.350663344674
 20
4460.612805903254
 30
0.0
 11
3771.350663344674
 21
4492.112805903254
 31
0.0
  0
LINE
  5
1349C
330
747D
100
AcDbEntity
  8
部品1
 48
0.01
100
AcDbLine
 10
3593.350663344674
 20
4458.612805903254
 30
0.0
 11
3769.350663344674
 21
4458.612805903254
 31
0.0
  0
LINE
  5
1349D
330
747D
100
AcDbEntity
  8
部品1
 48
0.01
100
AcDbLine
 10
3591.350663344675
 20
4492.112805903254
 30
0.0
 11
3591.350663344675
 21
4460.612805903254
 31
0.0
  0
LINE
  5
1349E
330
747D
100
AcDbEntity
  8
部品1
 48
0.01
100
AcDbLine
 10
3769.350663344674
 20
4494.112805903254
 30
0.0
 11
3593.350663344674
 21
4494.112805903254
 31
0.0
  0
LINE
  5
1349F
330
747D
100
AcDbEntity
  8
細線
100
AcDbLine
 10
3607.350663344674
 20
4481.612805903254
 30
0.0
 11
3681.350663344674
 21
4481.612805903254
 31
0.0
  0
LINE
  5
134A0
330
747D
100
AcDbEntity
  8
細線
100
AcDbLine
 10
3607.350663344674
 20
4475.612805903255
 30
0.0
 11
3681.350663344674
 21
4475.612805903255
 31
0.0
  0
LINE
  5
134A1
330
747D
100
AcDbEntity
  8
細線
100
AcDbLine
 10
3607.350663344674
 20
4469.612805903254
 30
0.0
 11
3681.350663344674
 21
4469.612805903254
 31
0.0
  0
LINE
  5
134A2
330
747D
100
AcDbEntity
  8
細線
100
AcDbLine
 10
3607.350663344674
 20
4481.612805903254
 30
0.0
 11
3676.350663344674
 21
4481.612805903254
 31
0.0
  0
LINE
  5
134A3
330
747D
100
AcDbEntity
  8
細線
100
AcDbLine
 10
3755.350663344675
 20
4481.612805903252
 30
0.0
 11
3681.350663344674
 21
4481.612805903254
 31
0.0
  0
LINE
  5
134A4
330
747D
100
AcDbEntity
  8
細線
100
AcDbLine
 10
3755.350663344675
 20
4469.612805903252
 30
0.0
 11
3681.350663344674
 21
4469.612805903254
 31
0.0
  0
LINE
  5
134A5
330
747D
100
AcDbEntity
  8
細線
100
AcDbLine
 10
3755.350663344675
 20
4475.612805903255
 30
0.0
 11
3681.350663344674
 21
4475.612805903255
 31
0.0
  0
LINE
  5
134A6
330
747D
100
AcDbEntity
  8
細線
100
AcDbLine
 10
3681.350663344674
 20
4487.612805903254
 30
0.0
 11
3681.350663344674
 21
4464.612805903254
 31
0.0
  0
ARC
  5
134A7
330
747D
100
AcDbEntity
  8
部品1
 48
0.01
100
AcDbCircle
 10
7453.350663344692
 20
4460.612805903256
 30
0.0
 40
2.0
100
AcDbArc
 50
180.0
 51
270.0
  0
ARC
  5
134A8
330
747D
100
AcDbEntity
  8
部品1
 48
0.01
100
AcDbCircle
 10
7453.350663344692
 20
4492.112805903256
 30
0.0
 40
2.0
100
AcDbArc
 50
90.0
 51
180.0
  0
ARC
  5
134A9
330
747D
100
AcDbEntity
  8
部品1
 48
0.01
100
AcDbCircle
 10
7629.350663344692
 20
4460.612805903256
 30
0.0
 40
2.0
100
AcDbArc
 50
270.0
 51
0.0
  0
ARC
  5
134AA
330
747D
100
AcDbEntity
  8
部品1
 48
0.01
100
AcDbCircle
 10
7629.350663344692
 20
4492.112805903256
 30
0.0
 40
2.0
100
AcDbArc
 50
0.0
 51
90.0
  0
LINE
  5
134AB
330
747D
100
AcDbEntity
  8
細線
100
AcDbLine
 10
7541.350663344693
 20
4464.612805903256
 30
0.0
 11
7467.350663344692
 21
4464.612805903256
 31
0.0
  0
LINE
  5
134AC
330
747D
100
AcDbEntity
  8
細線
100
AcDbLine
 10
7541.350663344693
 20
4487.612805903256
 30
0.0
 11
7615.350663344692
 21
4487.612805903256
 31
0.0
  0
LINE
  5
134AD
330
747D
100
AcDbEntity
  8
細線
100
AcDbLine
 10
7615.350663344692
 20
4464.612805903256
 30
0.0
 11
7541.350663344693
 21
4464.612805903256
 31
0.0
  0
LINE
  5
134AE
330
747D
100
AcDbEntity
  8
細線
100
AcDbLine
 10
7467.350663344692
 20
4487.612805903256
 30
0.0
 11
7541.350663344693
 21
4487.612805903256
 31
0.0
  0
LINE
  5
134AF
330
747D
100
AcDbEntity
  8
細線
100
AcDbLine
 10
7467.350663344692
 20
4464.612805903256
 30
0.0
 11
7467.350663344692
 21
4487.612805903256
 31
0.0
  0
LINE
  5
134B0
330
747D
100
AcDbEntity
  8
細線
100
AcDbLine
 10
7615.350663344692
 20
4487.612805903256
 30
0.0
 11
7615.350663344692
 21
4464.612805903256
 31
0.0
  0
LINE
  5
134B1
330
747D
100
AcDbEntity
  8
部品1
 48
0.01
100
AcDbLine
 10
7451.350663344692
 20
4460.612805903256
 30
0.0
 11
7451.350663344692
 21
4492.112805903256
 31
0.0
  0
LINE
  5
134B2
330
747D
100
AcDbEntity
  8
部品1
 48
0.01
100
AcDbLine
 10
7629.350663344692
 20
4458.612805903256
 30
0.0
 11
7453.350663344692
 21
4458.612805903256
 31
0.0
  0
LINE
  5
134B3
330
747D
100
AcDbEntity
  8
部品1
 48
0.01
100
AcDbLine
 10
7631.350663344692
 20
4492.112805903256
 30
0.0
 11
7631.350663344692
 21
4460.612805903256
 31
0.0
  0
LINE
  5
134B4
330
747D
100
AcDbEntity
  8
部品1
 48
0.01
100
AcDbLine
 10
7453.350663344692
 20
4494.112805903256
 30
0.0
 11
7629.350663344692
 21
4494.112805903256
 31
0.0
  0
LINE
  5
134B5
330
747D
100
AcDbEntity
  8
細線
100
AcDbLine
 10
7615.350663344692
 20
4481.612805903256
 30
0.0
 11
7541.350663344693
 21
4481.612805903256
 31
0.0
  0
LINE
  5
134B6
330
747D
100
AcDbEntity
  8
細線
100
AcDbLine
 10
7615.350663344692
 20
4475.612805903256
 30
0.0
 11
7541.350663344693
 21
4475.612805903256
 31
0.0
  0
LINE
  5
134B7
330
747D
100
AcDbEntity
  8
細線
100
AcDbLine
 10
7615.350663344692
 20
4469.612805903255
 30
0.0
 11
7541.350663344693
 21
4469.612805903255
 31
0.0
  0
LINE
  5
134B8
330
747D
100
AcDbEntity
  8
細線
100
AcDbLine
 10
7615.350663344692
 20
4481.612805903256
 30
0.0
 11
7546.350663344693
 21
4481.612805903256
 31
0.0
  0
LINE
  5
134B9
330
747D
100
AcDbEntity
  8
細線
100
AcDbLine
 10
7467.350663344692
 20
4481.612805903254
 30
0.0
 11
7541.350663344693
 21
4481.612805903256
 31
0.0
  0
LINE
  5
134BA
330
747D
100
AcDbEntity
  8
細線
100
AcDbLine
 10
7467.350663344692
 20
4469.612805903254
 30
0.0
 11
7541.350663344693
 21
4469.612805903255
 31
0.0
  0
LINE
  5
134BB
330
747D
100
AcDbEntity
  8
細線
100
AcDbLine
 10
7467.350663344692
 20
4475.612805903256
 30
0.0
 11
7541.350663344693
 21
4475.612805903256
 31
0.0
  0
LINE
  5
134BC
330
747D
100
AcDbEntity
  8
細線
100
AcDbLine
 10
7541.350663344693
 20
4487.612805903256
 30
0.0
 11
7541.350663344693
 21
4464.612805903256
 31
0.0
  0
LINE
  5
134BD
330
747D
100
AcDbEntity
  8
細線
100
AcDbLine
 10
6311.350663344674
 20
4487.612805903254
 30
0.0
 11
6311.350663344674
 21
4464.612805903254
 31
0.0
  0
LINE
  5
134BE
330
747D
100
AcDbEntity
  8
細線
100
AcDbLine
 10
6385.350663344674
 20
4475.612805903255
 30
0.0
 11
6311.350663344674
 21
4475.612805903255
 31
0.0
  0
LINE
  5
134BF
330
747D
100
AcDbEntity
  8
細線
100
AcDbLine
 10
6385.350663344674
 20
4469.612805903252
 30
0.0
 11
6311.350663344674
 21
4469.612805903254
 31
0.0
  0
LINE
  5
134C0
330
747D
100
AcDbEntity
  8
細線
100
AcDbLine
 10
6385.350663344674
 20
4481.612805903252
 30
0.0
 11
6311.350663344674
 21
4481.612805903254
 31
0.0
  0
LINE
  5
134C1
330
747D
100
AcDbEntity
  8
細線
100
AcDbLine
 10
6237.350663344674
 20
4481.612805903254
 30
0.0
 11
6306.350663344674
 21
4481.612805903254
 31
0.0
  0
LINE
  5
134C2
330
747D
100
AcDbEntity
  8
細線
100
AcDbLine
 10
6237.350663344674
 20
4469.612805903254
 30
0.0
 11
6311.350663344674
 21
4469.612805903254
 31
0.0
  0
LINE
  5
134C3
330
747D
100
AcDbEntity
  8
細線
100
AcDbLine
 10
6237.350663344674
 20
4475.612805903255
 30
0.0
 11
6311.350663344674
 21
4475.612805903255
 31
0.0
  0
LINE
  5
134C4
330
747D
100
AcDbEntity
  8
細線
100
AcDbLine
 10
6237.350663344674
 20
4481.612805903254
 30
0.0
 11
6311.350663344674
 21
4481.612805903254
 31
0.0
  0
LINE
  5
134C5
330
747D
100
AcDbEntity
  8
部品1
 48
0.01
100
AcDbLine
 10
6399.350663344674
 20
4494.112805903254
 30
0.0
 11
6223.350663344675
 21
4494.112805903254
 31
0.0
  0
LINE
  5
134C6
330
747D
100
AcDbEntity
  8
部品1
 48
0.01
100
AcDbLine
 10
6221.350663344674
 20
4492.112805903254
 30
0.0
 11
6221.350663344674
 21
4460.612805903254
 31
0.0
  0
LINE
  5
134C7
330
747D
100
AcDbEntity
  8
部品1
 48
0.01
100
AcDbLine
 10
6223.350663344675
 20
4458.612805903254
 30
0.0
 11
6399.350663344674
 21
4458.612805903254
 31
0.0
  0
LINE
  5
134C8
330
747D
100
AcDbEntity
  8
部品1
 48
0.01
100
AcDbLine
 10
6401.350663344674
 20
4460.612805903254
 30
0.0
 11
6401.350663344674
 21
4492.112805903254
 31
0.0
  0
LINE
  5
134C9
330
747D
100
AcDbEntity
  8
細線
100
AcDbLine
 10
6237.350663344674
 20
4487.612805903254
 30
0.0
 11
6237.350663344674
 21
4464.612805903254
 31
0.0
  0
LINE
  5
134CA
330
747D
100
AcDbEntity
  8
細線
100
AcDbLine
 10
6385.350663344674
 20
4464.612805903254
 30
0.0
 11
6385.350663344674
 21
4487.612805903254
 31
0.0
  0
LINE
  5
134CB
330
747D
100
AcDbEntity
  8
細線
100
AcDbLine
 10
6385.350663344674
 20
4487.612805903254
 30
0.0
 11
6311.350663344674
 21
4487.612805903254
 31
0.0
  0
LINE
  5
134CC
330
747D
100
AcDbEntity
  8
細線
100
AcDbLine
 10
6237.350663344674
 20
4464.612805903254
 30
0.0
 11
6311.350663344674
 21
4464.612805903254
 31
0.0
  0
LINE
  5
134CD
330
747D
100
AcDbEntity
  8
細線
100
AcDbLine
 10
6311.350663344674
 20
4487.612805903254
 30
0.0
 11
6237.350663344674
 21
4487.612805903254
 31
0.0
  0
LINE
  5
134CE
330
747D
100
AcDbEntity
  8
細線
100
AcDbLine
 10
6311.350663344674
 20
4464.612805903254
 30
0.0
 11
6385.350663344674
 21
4464.612805903254
 31
0.0
  0
ARC
  5
134CF
330
747D
100
AcDbEntity
  8
部品1
 48
0.01
100
AcDbCircle
 10
6223.350663344675
 20
4492.112805903254
 30
0.0
 40
2.0
100
AcDbArc
 50
90.0
 51
180.0
  0
ARC
  5
134D0
330
747D
100
AcDbEntity
  8
部品1
 48
0.01
100
AcDbCircle
 10
6223.350663344675
 20
4460.612805903254
 30
0.0
 40
2.0
100
AcDbArc
 50
180.0
 51
270.0
  0
ARC
  5
134D1
330
747D
100
AcDbEntity
  8
部品1
 48
0.01
100
AcDbCircle
 10
6399.350663344674
 20
4492.112805903254
 30
0.0
 40
2.0
100
AcDbArc
 50
0.0
 51
90.0
  0
ARC
  5
134D2
330
747D
100
AcDbEntity
  8
部品1
 48
0.01
100
AcDbCircle
 10
6399.350663344674
 20
4460.612805903254
 30
0.0
 40
2.0
100
AcDbArc
 50
270.0
 51
0.0
  0
LINE
  5
137B5
330
747D
100
AcDbEntity
  8
部品1
100
AcDbLine
 10
5556.350663344681
 20
9295.729096344958
 30
0.0
 11
3036.350663344681
 21
9295.729096344954
 31
0.0
  0
LINE
  5
137B6
330
747D
100
AcDbEntity
  8
部品1
100
AcDbLine
 10
3009.350663344682
 20
9295.72909634496
 30
0.0
 11
2981.350663344681
 21
9295.72909634496
 31
0.0
  0
LINE
  5
137B7
330
747D
100
AcDbEntity
  8
部品1
100
AcDbLine
 10
5666.350663344681
 20
9295.729096344958
 30
0.0
 11
8186.350663344681
 21
9295.729096344958
 31
0.0
  0
LINE
  5
137B8
330
747D
100
AcDbEntity
  8
部品1
100
AcDbLine
 10
8213.35066334468
 20
9295.72909634496
 30
0.0
 11
8241.350663344681
 21
9295.72909634496
 31
0.0
  0
DIMENSION
  5
139CA
330
747D
100
AcDbEntity
  8
寸法
 48
50.0
100
AcDbDimension
  2
*D17
 10
10503.14201941932
 20
4537.458064776585
 30
0.0
 11
10513.80749467824
 21
4908.304728018284
 31
0.0
 70
   161
 71
     5
 42
141.0
  3
INABA_S40G
100
AcDbAlignedDimension
 13
11083.14644634627
 23
4661.835554737934
 33
0.0
 14
11079.09299078964
 24
4520.893830972221
 34
0.0
1001
ACAD
1000
DSTYLE
1002
{
1070
   174
1070
     0
1070
   272
1070
     1
1070
   288
1070
     0
1070
   341
1005
0
1002
}
  0
LINE
  5
139CB
330
747D
100
AcDbEntity
  8
細線
 48
50.0
100
AcDbLine
 10
13621.2504261877
 20
4428.112805903254
 30
0.0
 11
13621.2504261877
 21
2338.112805903255
 31
0.0
  0
LINE
  5
139CC
330
747D
100
AcDbEntity
  8
細線
 48
50.0
100
AcDbLine
 10
13636.2504261877
 20
4428.112805903254
 30
0.0
 11
13636.2504261877
 21
2338.112805903255
 31
0.0
  0
LINE
  5
139CD
330
747D
100
AcDbEntity
  8
細線
 48
50.0
100
AcDbLine
 10
13496.2504261877
 20
4428.112805903254
 30
0.0
 11
13496.2504261877
 21
2338.112805903255
 31
0.0
  0
LINE
  5
139CE
330
747D
100
AcDbEntity
  8
細線
 48
50.0
100
AcDbLine
 10
13481.2504261877
 20
4428.112805903254
 30
0.0
 11
13481.2504261877
 21
2338.112805903255
 31
0.0
  0
LINE
  5
139CF
330
747D
100
AcDbEntity
  8
細線
 48
50.0
100
AcDbLine
 10
13341.2504261877
 20
4428.112805903254
 30
0.0
 11
13341.2504261877
 21
2338.112805903255
 31
0.0
  0
LINE
  5
139D0
330
747D
100
AcDbEntity
  8
細線
 48
50.0
100
AcDbLine
 10
13356.2504261877
 20
4428.112805903254
 30
0.0
 11
13356.2504261877
 21
2338.112805903255
 31
0.0
  0
LINE
  5
139D1
330
747D
100
AcDbEntity
  8
部品1
100
AcDbLine
 10
12438.75042618769
 20
4428.112805903254
 30
0.0
 11
12438.75042618769
 21
2338.112805903254
 31
0.0
  0
LINE
  5
139D2
330
747D
100
AcDbEntity
  8
細線
 48
50.0
100
AcDbLine
 10
12096.25042618769
 20
4428.112805903254
 30
0.0
 11
12096.25042618769
 21
2338.112805903254
 31
0.0
  0
LINE
  5
139D3
330
747D
100
AcDbEntity
  8
細線
 48
50.0
100
AcDbLine
 10
12081.25042618769
 20
4428.112805903254
 30
0.0
 11
12081.25042618769
 21
2338.112805903254
 31
0.0
  0
LINE
  5
139D4
330
747D
100
AcDbEntity
  8
細線
 48
50.0
100
AcDbLine
 10
12221.25042618769
 20
4428.112805903254
 30
0.0
 11
12221.25042618769
 21
2338.112805903254
 31
0.0
  0
LINE
  5
139D5
330
747D
100
AcDbEntity
  8
細線
 48
50.0
100
AcDbLine
 10
12236.25042618769
 20
4428.112805903254
 30
0.0
 11
12236.25042618769
 21
2338.112805903254
 31
0.0
  0
LINE
  5
139D6
330
747D
100
AcDbEntity
  8
細線
 48
50.0
100
AcDbLine
 10
12376.25042618769
 20
4428.112805903254
 30
0.0
 11
12376.25042618769
 21
2338.112805903254
 31
0.0
  0
LINE
  5
139D7
330
747D
100
AcDbEntity
  8
細線
 48
50.0
100
AcDbLine
 10
12361.25042618769
 20
4428.112805903254
 30
0.0
 11
12361.25042618769
 21
2338.112805903254
 31
0.0
  0
LINE
  5
139D8
330
747D
100
AcDbEntity
  8
部品1
100
AcDbLine
 10
12018.75042618769
 20
4428.112805903254
 30
0.0
 11
12018.75042618769
 21
2338.112805903254
 31
0.0
  0
DIMENSION
  5
139D9
330
747D
100
AcDbEntity
  8
寸法
 48
50.0
100
AcDbDimension
  2
*D18
 10
13833.75042618769
 20
5061.770259482559
 30
0.0
 11
14039.79767028218
 21
5061.770259482559
 31
0.0
 70
   160
 71
     5
 42
80.0
  3
INABA_S40G
100
AcDbAlignedDimension
 13
13753.75042618769
 23
4609.923485514909
 33
0.0
 14
13833.75042618769
 24
4608.112805903256
 34
0.0
100
AcDbRotatedDimension
1001
ACAD
1000
DSTYLE
1002
{
1070
   174
1070
     0
1070
   272
1070
     1
1070
   288
1070
     0
1070
   341
1005
0
1002
}
  0
LINE
  5
139DA
330
747D
100
AcDbEntity
  8
細線
 48
50.0
100
AcDbLine
 10
11256.25042618769
 20
4428.112805903254
 30
0.0
 11
11256.25042618769
 21
2338.112805903254
 31
0.0
  0
LINE
  5
139DB
330
747D
100
AcDbEntity
  8
細線
 48
50.0
100
AcDbLine
 10
11241.25042618769
 20
4428.112805903254
 30
0.0
 11
11241.25042618769
 21
2338.112805903254
 31
0.0
  0
LINE
  5
139DC
330
747D
100
AcDbEntity
  8
細線
 48
50.0
100
AcDbLine
 10
11381.25042618769
 20
4428.112805903254
 30
0.0
 11
11381.25042618769
 21
2338.112805903254
 31
0.0
  0
LINE
  5
139DD
330
747D
100
AcDbEntity
  8
細線
 48
50.0
100
AcDbLine
 10
11396.25042618769
 20
4428.112805903254
 30
0.0
 11
11396.25042618769
 21
2338.112805903254
 31
0.0
  0
LINE
  5
139DE
330
747D
100
AcDbEntity
  8
細線
 48
50.0
100
AcDbLine
 10
11536.25042618769
 20
4428.112805903254
 30
0.0
 11
11536.25042618769
 21
2338.112805903254
 31
0.0
  0
LINE
  5
139DF
330
747D
100
AcDbEntity
  8
細線
 48
50.0
100
AcDbLine
 10
11521.25042618769
 20
4428.112805903254
 30
0.0
 11
11521.25042618769
 21
2338.112805903254
 31
0.0
  0
LINE
  5
139E0
330
747D
100
AcDbEntity
  8
細線
 48
50.0
100
AcDbLine
 10
11941.25042618769
 20
4428.112805903254
 30
0.0
 11
11941.25042618769
 21
2338.112805903254
 31
0.0
  0
LINE
  5
139E1
330
747D
100
AcDbEntity
  8
細線
 48
50.0
100
AcDbLine
 10
11956.25042618769
 20
4428.112805903254
 30
0.0
 11
11956.25042618769
 21
2338.112805903254
 31
0.0
  0
LINE
  5
139E2
330
747D
100
AcDbEntity
  8
細線
 48
50.0
100
AcDbLine
 10
11816.25042618769
 20
4428.112805903254
 30
0.0
 11
11816.25042618769
 21
2338.112805903254
 31
0.0
  0
LINE
  5
139E3
330
747D
100
AcDbEntity
  8
細線
 48
50.0
100
AcDbLine
 10
11801.25042618769
 20
4428.112805903254
 30
0.0
 11
11801.25042618769
 21
2338.112805903254
 31
0.0
  0
LINE
  5
139E4
330
747D
100
AcDbEntity
  8
細線
 48
50.0
100
AcDbLine
 10
11661.25042618769
 20
4428.112805903254
 30
0.0
 11
11661.25042618769
 21
2338.112805903254
 31
0.0
  0
LINE
  5
139E5
330
747D
100
AcDbEntity
  8
細線
 48
50.0
100
AcDbLine
 10
11676.25042618769
 20
4428.112805903254
 30
0.0
 11
11676.25042618769
 21
2338.112805903254
 31
0.0
  0
LWPOLYLINE
  5
139E6
330
747D
100
AcDbEntity
  8
部品1
100
AcDbPolyline
 90
        4
 70
     1
 43
0.0
 10
12067.01509307346
 20
1828.710439851414
 10
12067.01509307346
 20
1588.818118305881
 10
12830.48575930191
 20
1588.818118305881
 10
12830.48575930191
 20
1828.710439851414
  0
TEXT
  5
139E7
330
747D
100
AcDbEntity
  8
部品1
100
AcDbText
 10
12156.46119449707
 20
1635.81691063289
 30
0.0
 40
135.0
  1
側面図
  7
STYLE2
100
AcDbText
  0
LINE
  5
139E8
330
747D
100
AcDbEntity
  8
部品1
100
AcDbLine
 10
11123.75042618769
 20
2288.112805903255
 30
0.0
 11
13753.7504261877
 21
2288.112805903255
 31
0.0
  0
DIMENSION
  5
139E9
330
747D
100
AcDbEntity
  8
寸法
 48
50.0
100
AcDbDimension
  2
*D19
 10
11063.75042618769
 20
5281.980946214177
 30
0.0
 11
12467.10935107506
 21
5281.980946214177
 31
0.0
 70
   160
 71
     5
 42
2770.0
  3
INABA_S40G
100
AcDbAlignedDimension
 13
13833.75042618769
 23
4608.112805903256
 33
0.0
 14
11063.75042618769
 24
4663.112805903259
 34
0.0
100
AcDbRotatedDimension
1001
ACAD
1000
DSTYLE
1002
{
1070
   174
1070
     0
1070
   272
1070
     1
1070
   288
1070
     0
1070
   341
1005
0
1002
}
  0
DIMENSION
  5
139EA
330
747D
100
AcDbEntity
  8
寸法
 48
50.0
100
AcDbDimension
  2
*D20
 10
11063.75042618769
 20
5061.770259482559
 30
0.0
 11
10754.1126309121
 21
5061.770259482559
 31
0.0
 70
   160
 71
     5
 42
60.0
  3
INABA_S40G
100
AcDbAlignedDimension
 13
11123.75042618769
 23
4659.11442402623
 33
0.0
 14
11063.75042618769
 24
4663.112805903259
 34
0.0
100
AcDbRotatedDimension
1001
ACAD
1000
DSTYLE
1002
{
1070
   174
1070
     0
1070
   272
1070
     1
1070
   288
1070
     0
1070
   341
1005
0
1002
}
  0
DIMENSION
  5
139EB
330
747D
100
AcDbEntity
  8
寸法
 48
50.0
100
AcDbDimension
  2
*D21
 10
11123.75042618769
 20
5061.770259482559
 30
0.0
 11
12478.52061721688
 21
5061.770259482559
 31
0.0
 70
   160
  1
柱外寸法<>
 71
     5
 42
2630.0
  3
INABA_S40G
100
AcDbAlignedDimension
 13
13753.75042618769
 23
4609.923485514909
 33
0.0
 14
11123.75042618769
 24
4659.11442402623
 34
0.0
100
AcDbRotatedDimension
1001
ACAD
1000
DSTYLE
1002
{
1070
   174
1070
     0
1070
   272
1070
     1
1070
   288
1070
     0
1070
   341
1005
0
1002
}
  0
LINE
  5
139EC
330
747D
100
AcDbEntity
  8
部品1
100
AcDbLine
 10
13698.75042618769
 20
4428.112805903254
 30
0.0
 11
13698.75042618769
 21
2338.112805903255
 31
0.0
  0
LINE
  5
139ED
330
747D
100
AcDbEntity
  8
部品1
100
AcDbLine
 10
13753.75042618769
 20
4482.647079290993
 30
0.0
 11
13753.75042618769
 21
2188.112805903255
 31
0.0
  0
LINE
  5
139EE
330
747D
100
AcDbEntity
  8
部品1
100
AcDbLine
 10
11598.75042618769
 20
4428.112805903254
 30
0.0
 11
11598.75042618769
 21
2338.112805903254
 31
0.0
  0
DIMENSION
  5
139EF
330
747D
100
AcDbEntity
  8
寸法
100
AcDbDimension
  2
*D22
 10
10280.00029700443
 20
2288.112805903255
 30
0.0
 11
10280.00029700443
 21
1982.065561808765
 31
0.0
 70
   160
 71
     5
 42
50.0
  3
INABA_S40G
100
AcDbAlignedDimension
 13
11123.75042618769
 23
2338.112805903254
 33
0.0
 14
11068.75042618769
 24
2288.112805903255
 34
0.0
 50
90.0
100
AcDbRotatedDimension
1001
ACAD
1000
DSTYLE
1002
{
1070
   174
1070
     0
1070
   272
1070
     1
1070
   288
1070
     0
1070
   341
1005
0
1002
}
  0
LINE
  5
139F0
330
747D
100
AcDbEntity
  8
部品1
100
AcDbLine
 10
11123.75042618769
 20
4520.255243832132
 30
0.0
 11
11123.75042618769
 21
2188.112805903255
 31
0.0
  0
LINE
  5
139F1
330
747D
100
AcDbEntity
  8
部品1
100
AcDbLine
 10
11178.75042618769
 20
4428.112805903254
 30
0.0
 11
11178.75042618769
 21
2338.112805903254
 31
0.0
  0
LINE
  5
139F2
330
747D
100
AcDbEntity
  8
部品1
100
AcDbLine
 10
11123.75042618769
 20
2338.112805903254
 30
0.0
 11
13753.75042618769
 21
2338.112805903255
 31
0.0
  0
LINE
  5
139F3
330
747D
100
AcDbEntity
  8
部品1
100
AcDbLine
 10
11123.75042618769
 20
4428.112805903254
 30
0.0
 11
13753.75042618769
 21
4428.112805903254
 31
0.0
  0
LINE
  5
139F4
330
747D
100
AcDbEntity
  8
部品1
100
AcDbLine
 10
13278.75042618769
 20
4428.112805903254
 30
0.0
 11
13278.75042618769
 21
2338.112805903255
 31
0.0
  0
LINE
  5
139F5
330
747D
100
AcDbEntity
  8
細線
 48
50.0
100
AcDbLine
 10
12781.25042618769
 20
4428.112805903254
 30
0.0
 11
12781.25042618769
 21
2338.112805903254
 31
0.0
  0
LINE
  5
139F6
330
747D
100
AcDbEntity
  8
細線
 48
50.0
100
AcDbLine
 10
12796.25042618769
 20
4428.112805903254
 30
0.0
 11
12796.25042618769
 21
2338.112805903254
 31
0.0
  0
LINE
  5
139F7
330
747D
100
AcDbEntity
  8
細線
 48
50.0
100
AcDbLine
 10
12656.25042618769
 20
4428.112805903254
 30
0.0
 11
12656.25042618769
 21
2338.112805903254
 31
0.0
  0
LINE
  5
139F8
330
747D
100
AcDbEntity
  8
細線
 48
50.0
100
AcDbLine
 10
12641.25042618769
 20
4428.112805903254
 30
0.0
 11
12641.25042618769
 21
2338.112805903254
 31
0.0
  0
LINE
  5
139F9
330
747D
100
AcDbEntity
  8
細線
 48
50.0
100
AcDbLine
 10
12501.25042618769
 20
4428.112805903254
 30
0.0
 11
12501.25042618769
 21
2338.112805903254
 31
0.0
  0
LINE
  5
139FA
330
747D
100
AcDbEntity
  8
細線
 48
50.0
100
AcDbLine
 10
12516.25042618769
 20
4428.112805903254
 30
0.0
 11
12516.25042618769
 21
2338.112805903254
 31
0.0
  0
TEXT
  5
139FB
330
747D
100
AcDbEntity
  8
部品1
 48
50.0
100
AcDbText
 10
12790.33142814878
 20
4685.381898841561
 30
0.0
 40
120.0
  1
37
 50
90.0
  7
STYLE1
100
AcDbText
  0
TEXT
  5
139FC
330
747D
100
AcDbEntity
  8
部品1
 48
50.0
100
AcDbText
 10
12312.69840548369
 20
4822.883157059845
 30
0.0
 40
120.0
  1
1000
  7
STYLE1
100
AcDbText
  0
LINE
  5
139FD
330
747D
100
AcDbEntity
  8
部品1
 48
50.0
100
AcDbLine
 10
12624.43057025997
 20
4786.99913490741
 30
0.0
 11
12624.43057025997
 21
4770.799134907412
 31
0.0
  0
LINE
  5
139FE
330
747D
100
AcDbEntity
  8
部品1
 48
50.0
100
AcDbLine
 10
12324.43057025997
 20
4786.99913490741
 30
0.0
 11
12624.43057025997
 21
4786.99913490741
 31
0.0
  0
LINE
  5
139FF
330
747D
100
AcDbEntity
  8
部品1
100
AcDbLine
 10
11071.29541254465
 20
4661.830541237521
 30
0.0
 11
13826.36230304916
 21
4606.753603612394
 31
0.0
  0
LINE
  5
13A00
330
747D
100
AcDbEntity
  8
部品1
100
AcDbLine
 10
11079.09299078964
 20
4520.893830972221
 30
0.0
 11
13808.41412672754
 21
4481.865405738016
 31
0.0
  0
LINE
  5
13A01
330
747D
100
AcDbEntity
  8
細線
 48
50.0
100
AcDbLine
 10
11096.75042618769
 20
4660.512482278659
 30
0.0
 11
11091.46132463218
 21
4520.426849651305
 31
0.0
  0
LINE
  5
13A02
330
747D
100
AcDbEntity
  8
細線
 48
50.0
100
AcDbLine
 10
13800.71970938138
 20
4607.266228382724
 30
0.0
 11
13796.00274329969
 21
4482.334012447807
 31
0.0
  0
LINE
  5
13A03
330
747D
100
AcDbEntity
  8
部品1
 48
50.0
100
AcDbLine
 10
11063.9347121008
 20
4654.706352067948
 30
0.0
 11
11064.31497187861
 21
4634.779387621535
 31
0.0
  0
LINE
  5
13A04
330
747D
100
AcDbEntity
  8
部品1
 48
50.0
100
AcDbLine
 10
11067.38374398485
 20
4631.204106128063
 30
0.0
 11
11069.08764547622
 21
4541.913609421416
 31
0.0
  0
LINE
  5
13A05
330
747D
100
AcDbEntity
  8
細線
 48
50.0
100
AcDbLine
 10
11064.7898492885
 20
4634.129887744616
 30
0.0
 11
13830.42583403367
 21
4578.505683103788
 31
0.0
  0
LINE
  5
13A06
330
747D
100
AcDbEntity
  8
細線
 48
50.0
100
AcDbLine
 10
11069.55032452579
 20
4541.268376046752
 30
0.0
 11
13819.55398895643
 21
4501.459057072259
 31
0.0
  0
LINE
  5
13A07
330
747D
100
AcDbEntity
  8
部品1
 48
50.0
100
AcDbLine
 10
11072.15641758246
 20
4538.338327927944
 30
0.0
 11
11072.35837020289
 21
4527.755292534851
 31
0.0
  0
ARC
  5
13A08
330
747D
100
AcDbEntity
  8
部品1
 48
50.0
100
AcDbCircle
 10
11070.93343792914
 20
4654.839906475375
 30
0.0
 40
7.0
100
AcDbArc
 50
87.03587545283228
 51
181.0932240293156
  0
ARC
  5
13A09
330
747D
100
AcDbEntity
  8
部品1
 48
50.0
100
AcDbCircle
 10
11079.35709603123
 20
4527.88884694228
 30
0.0
 40
7.0
100
AcDbArc
 50
181.0932240293156
 51
267.8377559869492
  0
ARC
  5
13A0A
330
747D
100
AcDbEntity
  8
部品1
100
AcDbCircle
 10
11069.15696365603
 20
4538.281090324761
 30
0.0
 40
3.0
100
AcDbArc
 50
1.093224029315636
 51
80.18775403169875
  0
ARC
  5
13A0B
330
747D
100
AcDbEntity
  8
部品1
100
AcDbCircle
 10
11064.38429005842
 20
4631.14686852488
 30
0.0
 40
3.0
100
AcDbArc
 50
1.093224029315636
 51
80.18775403169875
  0
ARC
  5
13A0C
330
747D
100
AcDbEntity
  8
部品1
100
AcDbCircle
 10
11065.01484446145
 20
4634.792743062277
 30
0.0
 40
0.7
100
AcDbArc
 50
181.0932240292114
 51
260.1877540314845
  0
ARC
  5
13A0D
330
747D
100
AcDbEntity
  8
部品1
100
AcDbCircle
 10
11069.78751805905
 20
4541.926964862159
 30
0.0
 40
0.7
100
AcDbArc
 50
181.0932240292635
 51
260.1877540314845
  0
LINE
  5
13A0E
330
747D
100
AcDbEntity
  8
部品1
 48
50.0
100
AcDbLine
 10
13832.96432899839
 20
4599.053958177473
 30
0.0
 11
13830.93370780742
 21
4579.108916919693
 31
0.0
  0
LINE
  5
13A0F
330
747D
100
AcDbEntity
  8
部品1
 48
50.0
100
AcDbLine
 10
13827.58114132294
 20
4575.798282846784
 30
0.0
 11
13820.07436205811
 21
4502.065662101773
 31
0.0
  0
LINE
  5
13A10
330
747D
100
AcDbEntity
  8
部品1
 48
50.0
100
AcDbLine
 10
13816.72179557362
 20
4498.755028028861
 30
0.0
 11
13815.64223253388
 21
4488.151411035302
 31
0.0
  0
ARC
  5
13A11
330
747D
100
AcDbEntity
  8
部品1
 48
50.0
100
AcDbCircle
 10
13826.00032843364
 20
4599.762968850249
 30
0.0
 40
7.0
100
AcDbArc
 50
354.1866997665532
 51
87.03587545283228
  0
ARC
  5
13A12
330
747D
100
AcDbEntity
  8
部品1
 48
50.0
100
AcDbCircle
 10
13808.67823196912
 20
4488.860421708075
 30
0.0
 40
7.0
100
AcDbArc
 50
267.8377559869492
 51
354.1866997665532
  0
ARC
  5
13A13
330
747D
100
AcDbEntity
  8
部品1
100
AcDbCircle
 10
13819.70636724423
 20
4498.451166311958
 30
0.0
 40
3.0
100
AcDbArc
 50
95.09216976420788
 51
174.1866997665532
  0
ARC
  5
13A14
330
747D
100
AcDbEntity
  8
部品1
100
AcDbCircle
 10
13830.56571299355
 20
4575.494421129882
 30
0.0
 40
3.0
100
AcDbArc
 50
95.09216976420788
 51
174.1866997665532
  0
ARC
  5
13A15
330
747D
100
AcDbEntity
  8
部品1
100
AcDbCircle
 10
13830.23730775095
 20
4579.179817986971
 30
0.0
 40
0.7
100
AcDbArc
 50
275.0921697642079
 51
354.1866997665532
  0
ARC
  5
13A16
330
747D
100
AcDbEntity
  8
部品1
100
AcDbCircle
 10
13819.37796200163
 20
4502.136563169048
 30
0.0
 40
0.7
100
AcDbArc
 50
275.0921697642079
 51
354.1866997667087
  0
LINE
  5
13A17
330
747D
100
AcDbEntity
  8
部品1
100
AcDbLine
 10
12298.97555661693
 20
4788.317193866272
 30
0.0
 11
12624.43057025997
 21
4770.799134907412
 31
0.0
  0
LINE
  5
13A18
330
747D
100
AcDbEntity
  8
部品1
100
AcDbLine
 10
12858.75042618769
 20
4428.112805903254
 30
0.0
 11
12858.75042618769
 21
2338.112805903256
 31
0.0
  0
LINE
  5
13A19
330
747D
100
AcDbEntity
  8
細線
 48
50.0
100
AcDbLine
 10
12936.25042618769
 20
4428.112805903254
 30
0.0
 11
12936.25042618769
 21
2338.112805903256
 31
0.0
  0
LINE
  5
13A1A
330
747D
100
AcDbEntity
  8
細線
 48
50.0
100
AcDbLine
 10
12921.25042618769
 20
4428.112805903254
 30
0.0
 11
12921.25042618769
 21
2338.112805903256
 31
0.0
  0
LINE
  5
13A1B
330
747D
100
AcDbEntity
  8
細線
 48
50.0
100
AcDbLine
 10
13061.25042618769
 20
4428.112805903254
 30
0.0
 11
13061.25042618769
 21
2338.112805903256
 31
0.0
  0
LINE
  5
13A1C
330
747D
100
AcDbEntity
  8
細線
 48
50.0
100
AcDbLine
 10
13076.25042618769
 20
4428.112805903254
 30
0.0
 11
13076.25042618769
 21
2338.112805903256
 31
0.0
  0
LINE
  5
13A1D
330
747D
100
AcDbEntity
  8
細線
 48
50.0
100
AcDbLine
 10
13216.25042618769
 20
4428.112805903254
 30
0.0
 11
13216.25042618769
 21
2338.112805903256
 31
0.0
  0
LINE
  5
13A1E
330
747D
100
AcDbEntity
  8
細線
 48
50.0
100
AcDbLine
 10
13201.25042618769
 20
4428.112805903254
 30
0.0
 11
13201.25042618769
 21
2338.112805903256
 31
0.0
  0
DIMENSION
  5
13A1F
330
747D
100
AcDbEntity
  8
寸法
100
AcDbDimension
  2
*D23
 10
14458.67758415982
 20
4608.112805903254
 30
0.0
 11
14358.6657731362
 21
3448.112805903257
 31
0.0
 70
    32
 71
     5
 42
2320.0
  3
INABA_S40G
100
AcDbAlignedDimension
 13
13753.75042618769
 23
2288.112805903256
 33
0.0
 14
13833.75042618769
 24
4608.112805903255
 34
0.0
 50
90.0
100
AcDbRotatedDimension
1001
ACAD
1000
DSTYLE
1002
{
1070
   174
1070
     0
1070
   272
1070
     1
1070
   288
1070
     0
1070
   341
1005
0
1002
}
  0
DIMENSION
  5
13A20
330
747D
100
AcDbEntity
  8
寸法
100
AcDbDimension
  2
*D24
 10
9980.000297004432
 20
4663.112805903256
 30
0.0
 11
9879.98848598081
 21
3475.612805903254
 31
0.0
 70
    32
 71
     5
 42
2375.000000000005
  3
INABA_S40G
100
AcDbAlignedDimension
 13
11123.75042618769
 23
2288.11280590325
 33
0.0
 14
11063.75042618769
 24
4663.112805903255
 34
0.0
 50
90.0
100
AcDbRotatedDimension
1001
ACAD
1000
DSTYLE
1002
{
1070
   174
1070
     0
1070
   272
1070
     1
1070
   288
1070
     0
1070
   341
1005
0
1002
}
  0
DIMENSION
  5
13A21
330
747D
100
AcDbEntity
  8
寸法
100
AcDbDimension
  2
*D25
 10
10280.00029700443
 20
2338.11280590325
 30
0.0
 11
10179.98848598081
 21
3383.112805903252
 31
0.0
 70
    32
 71
     5
 42
2090.000000000001
  3
INABA_S40G
100
AcDbAlignedDimension
 13
11123.75042618769
 23
4428.112805903251
 33
0.0
 14
11123.75042618769
 24
2338.11280590325
 34
0.0
 50
90.0
100
AcDbRotatedDimension
1001
ACAD
1000
DSTYLE
1002
{
1070
   174
1070
     0
1070
   272
1070
     1
1070
   288
1070
     0
1070
   341
1005
0
1002
}
  0
LINE
  5
13A38
330
747D
100
AcDbEntity
  8
部品1
100
AcDbLine
 10
11046.75042618769
 20
4413.799910811657
 30
0.0
 11
11046.75042618769
 21
2188.112805903255
 31
0.0
  0
DIMENSION
  5
13A39
330
747D
100
AcDbEntity
  8
寸法
 48
50.0
100
AcDbDimension
  2
*D26
 10
10578.84178479043
 20
2354.112805903255
 30
0.0
 11
10486.82997376681
 21
3366.612805903257
 31
0.0
 70
    32
  1
有効開口部高サ<>
 71
     5
 42
2025.0
  3
INABA_S40
100
AcDbAlignedDimension
 13
11046.75042618769
 23
4379.112805903254
 33
0.0
 14
11046.75042618769
 24
2354.112805903255
 34
0.0
 50
90.0
100
AcDbRotatedDimension
1001
ACAD
1000
DSTYLE
1002
{
1070
    41
1040
0.5
1070
    44
1040
1.0
1070
   147
1040
0.8
1070
   271
1070
     2
1070
   272
1070
     2
1070
   289
1070
     3
1070
   340
1005
F706
1070
   343
1005
F744
1070
   344
1005
F744
1002
}
  0
LINE
  5
13A3A
330
747D
100
AcDbEntity
  8
部品1
100
AcDbLine
 10
11123.75042618769
 20
2288.112805903255
 30
0.0
 11
11046.75042618769
 21
2288.112805903255
 31
0.0
  0
LINE
  5
13B21
330
747D
100
AcDbEntity
  8
部品1
100
AcDbLine
 10
11046.75042618769
 20
4413.799910811657
 30
0.0
 11
11123.75042618769
 21
4428.112805903254
 31
0.0
  0
LINE
  5
14075
330
747D
100
AcDbEntity
  8
寸法
 48
50.0
100
AcDbLine
 10
3891.553669626527
 20
6918.765847913816
 30
0.0
 11
3840.147661716424
 21
6918.765847913816
 31
0.0
  0
LINE
  5
14076
330
747D
100
AcDbEntity
  8
寸法
 48
50.0
100
AcDbLine
 10
3840.147661716424
 20
6918.765847913816
 30
0.0
 11
3840.147661716424
 21
6950.076006565983
 31
0.0
  0
LINE
  5
14077
330
747D
100
AcDbEntity
  8
寸法
 48
50.0
100
AcDbLine
 10
3840.147661716424
 20
6950.076006565983
 30
0.0
 11
3810.386329725
 21
6950.076006565983
 31
0.0
  0
LINE
  5
14078
330
747D
100
AcDbEntity
  8
寸法
 48
50.0
100
AcDbLine
 10
3810.386329725
 20
6950.076006565983
 30
0.0
 11
3865.850665671476
 21
6987.655457494593
 31
0.0
  0
LINE
  5
14079
330
747D
100
AcDbEntity
  8
寸法
 48
50.0
100
AcDbLine
 10
3921.31500161795
 20
6950.076006565983
 30
0.0
 11
3865.850665671476
 21
6987.655457494593
 31
0.0
  0
LINE
  5
1407A
330
747D
100
AcDbEntity
  8
寸法
 48
50.0
100
AcDbLine
 10
3891.553669626527
 20
6950.076006565983
 30
0.0
 11
3921.31500161795
 21
6950.076006565983
 31
0.0
  0
LINE
  5
1407B
330
747D
100
AcDbEntity
  8
寸法
 48
50.0
100
AcDbLine
 10
3891.553669626527
 20
6918.765847913816
 30
0.0
 11
3891.553669626527
 21
6950.076006565983
 31
0.0
  0
LINE
  5
1407C
330
747D
100
AcDbEntity
  8
寸法
 48
50.0
100
AcDbLine
 10
3840.147661716424
 20
6918.765847913816
 30
0.0
 11
3891.553669626527
 21
6918.765847913816
 31
0.0
  0
LINE
  5
1407D
330
747D
100
AcDbEntity
  8
寸法
 48
50.0
100
AcDbLine
 10
4170.719203903384
 20
6975.911438668639
 30
0.0
 11
4170.719203903384
 21
6922.24780408685
 31
0.0
  0
LINE
  5
1407E
330
747D
100
AcDbEntity
  8
寸法
 48
50.0
100
AcDbLine
 10
4260.003422498805
 20
6951.987804399152
 30
0.0
 11
4170.719203903384
 21
6975.911438668639
 31
0.0
  0
LINE
  5
1407F
330
747D
100
AcDbEntity
  8
寸法
 48
50.0
100
AcDbLine
 10
4040.851482323081
 20
6951.987804399152
 30
0.0
 11
4260.003422498805
 21
6951.987804399152
 31
0.0
  0
LINE
  5
14080
330
747D
100
AcDbEntity
  8
細線
 48
50.0
100
AcDbLine
 10
4917.350663344686
 20
7117.229211293679
 30
0.0
 11
5544.350663344682
 21
7117.229211293679
 31
0.0
  0
LINE
  5
14081
330
747D
100
AcDbEntity
  8
細線
 48
50.0
100
AcDbLine
 10
4263.350667998272
 20
7083.520442739604
 30
0.0
 11
5544.350663344682
 21
7083.520442739604
 31
0.0
  0
LINE
  5
14082
330
747D
100
AcDbEntity
  8
細線
 48
50.0
100
AcDbLine
 10
4222.350667998275
 20
7112.925350735856
 30
0.0
 11
3468.350663344683
 21
7112.925350735853
 31
0.0
  0
LINE
  5
14083
330
747D
100
AcDbEntity
  8
細線
100
AcDbLine
 10
5320.100653928226
 20
7136.729111258687
 30
0.0
 11
5322.432193450035
 21
7141.729113898648
 31
0.0
  0
LINE
  5
14084
330
747D
100
AcDbEntity
  8
細線
100
AcDbLine
 10
5390.100663344683
 20
7136.729096344954
 30
0.0
 11
5387.769116868496
 21
7141.729113898634
 31
0.0
  0
LINE
  5
14085
330
747D
100
AcDbEntity
  8
細線
100
AcDbLine
 10
5387.769116868496
 20
7141.729113898634
 30
0.0
 11
5322.43219345002
 21
7141.72911389862
 31
0.0
  0
LINE
  5
14086
330
747D
100
AcDbEntity
  8
細線
100
AcDbLine
 10
5247.769116868497
 20
7141.729113898634
 30
0.0
 11
5182.43219345002
 21
7141.72911389862
 31
0.0
  0
LINE
  5
14087
330
747D
100
AcDbEntity
  8
細線
100
AcDbLine
 10
5250.100663344683
 20
7136.729096344954
 30
0.0
 11
5247.769116868497
 21
7141.729113898634
 31
0.0
  0
LINE
  5
14088
330
747D
100
AcDbEntity
  8
細線
100
AcDbLine
 10
5180.100653928226
 20
7136.729111258687
 30
0.0
 11
5182.432193450035
 21
7141.729113898648
 31
0.0
  0
LINE
  5
14089
330
747D
100
AcDbEntity
  8
細線
100
AcDbLine
 10
5040.100663344683
 20
7136.729096344954
 30
0.0
 11
5042.432202866496
 21
7141.729098984915
 31
0.0
  0
LINE
  5
1408A
330
747D
100
AcDbEntity
  8
細線
100
AcDbLine
 10
5110.100672761144
 20
7136.729081431219
 30
0.0
 11
5107.769126284953
 21
7141.7290989849
 31
0.0
  0
LINE
  5
1408B
330
747D
100
AcDbEntity
  8
細線
100
AcDbLine
 10
5107.769126284956
 20
7141.7290989849
 30
0.0
 11
5042.432202866481
 21
7141.729098984885
 31
0.0
  0
LINE
  5
1408C
330
747D
100
AcDbEntity
  8
細線
100
AcDbLine
 10
4812.51914753379
 20
7107.729135682281
 30
0.0
 11
4747.182224115314
 21
7107.729135682267
 31
0.0
  0
LINE
  5
1408D
330
747D
100
AcDbEntity
  8
細線
100
AcDbLine
 10
4814.850694009977
 20
7102.729118128602
 30
0.0
 11
4812.51914753379
 21
7107.729135682281
 31
0.0
  0
LINE
  5
1408E
330
747D
100
AcDbEntity
  8
細線
100
AcDbLine
 10
4744.85068459352
 20
7102.729133042335
 30
0.0
 11
4747.182224115328
 21
7107.729135682297
 31
0.0
  0
LINE
  5
1408F
330
747D
100
AcDbEntity
  8
細線
 48
50.0
100
AcDbLine
 10
4586.234042592696
 20
7120.999959498033
 30
0.0
 11
4591.989560175364
 21
7102.729108207547
 31
0.0
  0
LINE
  5
14090
330
747D
100
AcDbEntity
  8
細線
 48
50.0
100
AcDbLine
 10
4575.305594112267
 20
7120.999959498033
 30
0.0
 11
4586.234042592696
 21
7120.999959498033
 31
0.0
  0
ARC
  5
14091
330
747D
100
AcDbEntity
  8
細線
 48
50.0
100
AcDbCircle
 10
4569.851238054944
 20
7122.499959498033
 30
0.0
 40
5.0
100
AcDbArc
 50
204.6243183521264
 51
335.3756816478736
  0
ARC
  5
14092
330
747D
100
AcDbEntity
  8
細線
 48
50.0
100
AcDbCircle
 10
4575.305594112267
 20
7119.999959498034
 30
0.0
 40
1.0
100
AcDbArc
 50
90.0
 51
155.3756816478736
  0
ARC
  5
14093
330
747D
100
AcDbEntity
  8
細線
 48
50.0
100
AcDbCircle
 10
4564.396881997629
 20
7119.999959498034
 30
0.0
 40
1.0
100
AcDbArc
 50
24.62431835212641
 51
90.0
  0
LINE
  5
14094
330
747D
100
AcDbEntity
  8
細線
 48
50.0
100
AcDbLine
 10
4553.468433517195
 20
7120.999959498033
 30
0.0
 11
4564.396881997629
 21
7120.999959498033
 31
0.0
  0
LINE
  5
14095
330
747D
100
AcDbEntity
  8
細線
 48
50.0
100
AcDbLine
 10
4547.712915934528
 20
7102.729108207539
 30
0.0
 11
4553.468433517195
 21
7120.999959498033
 31
0.0
  0
LINE
  5
14096
330
747D
100
AcDbEntity
  8
細線
100
AcDbLine
 10
4604.850685824561
 20
7102.729105573344
 30
0.0
 11
4607.182225346373
 21
7107.729108213305
 31
0.0
  0
LINE
  5
14097
330
747D
100
AcDbEntity
  8
細線
100
AcDbLine
 10
4674.850695241022
 20
7102.729090659611
 30
0.0
 11
4672.51914876483
 21
7107.72910821329
 31
0.0
  0
LINE
  5
14098
330
747D
100
AcDbEntity
  8
細線
100
AcDbLine
 10
4672.51914876483
 20
7107.72910821329
 30
0.0
 11
4607.182225346359
 21
7107.729108213276
 31
0.0
  0
LINE
  5
14099
330
747D
100
AcDbEntity
  8
細線
100
AcDbLine
 10
4532.519120400314
 20
7107.729108207511
 30
0.0
 11
4467.182196981838
 21
7107.729108207497
 31
0.0
  0
LINE
  5
1409A
330
747D
100
AcDbEntity
  8
細線
100
AcDbLine
 10
4534.850666876501
 20
7102.72909065383
 30
0.0
 11
4532.519120400314
 21
7107.729108207511
 31
0.0
  0
LINE
  5
1409B
330
747D
100
AcDbEntity
  8
細線
100
AcDbLine
 10
4464.850658691085
 20
7102.729108207539
 30
0.0
 11
4467.182196981853
 21
7107.729108207525
 31
0.0
  0
LINE
  5
1409C
330
747D
100
AcDbEntity
  8
細線
100
AcDbLine
 10
4324.850694009977
 20
7102.72911639491
 30
0.0
 11
4327.182232300745
 21
7107.729116394896
 31
0.0
  0
LINE
  5
1409D
330
747D
100
AcDbEntity
  8
細線
100
AcDbLine
 10
4394.850702195393
 20
7102.729098841199
 30
0.0
 11
4392.519155719205
 21
7107.729116394877
 31
0.0
  0
LINE
  5
1409E
330
747D
100
AcDbEntity
  8
細線
100
AcDbLine
 10
4392.519155719205
 20
7107.729116394877
 30
0.0
 11
4327.18223230073
 21
7107.729116394866
 31
0.0
  0
LINE
  5
1409F
330
747D
100
AcDbEntity
  8
細線
100
AcDbLine
 10
3953.350659812856
 20
7068.729288075622
 30
0.0
 11
3955.682198103624
 21
7073.729288075607
 31
0.0
  0
LINE
  5
140A0
330
747D
100
AcDbEntity
  8
細線
100
AcDbLine
 10
4023.350667998271
 20
7068.72927052191
 30
0.0
 11
4021.019121522084
 21
7073.729288075586
 31
0.0
  0
LINE
  5
140A1
330
747D
100
AcDbEntity
  8
細線
100
AcDbLine
 10
4021.019121522084
 20
7073.729288075586
 30
0.0
 11
3955.682198103613
 21
7073.729288075579
 31
0.0
  0
LINE
  5
140A2
330
747D
100
AcDbEntity
  8
細線
100
AcDbLine
 10
4161.019121522085
 20
7073.729288075586
 30
0.0
 11
4095.682198103612
 21
7073.729288075579
 31
0.0
  0
LINE
  5
140A3
330
747D
100
AcDbEntity
  8
細線
100
AcDbLine
 10
4163.350667998272
 20
7068.72927052191
 30
0.0
 11
4161.019121522085
 21
7073.729288075586
 31
0.0
  0
LINE
  5
140A4
330
747D
100
AcDbEntity
  8
細線
100
AcDbLine
 10
4093.350659812855
 20
7068.729288075622
 30
0.0
 11
4095.682198103623
 21
7073.729288075607
 31
0.0
  0
LINE
  5
140A5
330
747D
100
AcDbEntity
  8
細線
100
AcDbLine
 10
3881.019121522085
 20
7073.729288075586
 30
0.0
 11
3815.682198103613
 21
7073.729288075575
 31
0.0
  0
LINE
  5
140A6
330
747D
100
AcDbEntity
  8
細線
100
AcDbLine
 10
3883.350667998272
 20
7068.72927052191
 30
0.0
 11
3881.019121522085
 21
7073.729288075586
 31
0.0
  0
LINE
  5
140A7
330
747D
100
AcDbEntity
  8
細線
100
AcDbLine
 10
3813.350659812856
 20
7068.729288075619
 30
0.0
 11
3815.682198103624
 21
7073.729288075604
 31
0.0
  0
LINE
  5
140A8
330
747D
100
AcDbEntity
  8
細線
100
AcDbLine
 10
3673.350667998272
 20
7068.729288075622
 30
0.0
 11
3675.68220628904
 21
7073.729288075607
 31
0.0
  0
LINE
  5
140A9
330
747D
100
AcDbEntity
  8
細線
100
AcDbLine
 10
3743.350676183688
 20
7068.72927052191
 30
0.0
 11
3741.019129707501
 21
7073.729288075586
 31
0.0
  0
LINE
  5
140AA
330
747D
100
AcDbEntity
  8
細線
100
AcDbLine
 10
3741.019129707501
 20
7073.729288075586
 30
0.0
 11
3675.682206289029
 21
7073.729288075579
 31
0.0
  0
ARC
  5
140AB
330
747D
100
AcDbEntity
  8
部品1
 48
0.01
100
AcDbCircle
 10
3628.850556745937
 20
7067.728165890549
 30
0.0
 40
0.5
100
AcDbArc
 50
270.0
 51
0.0
  0
LINE
  5
140AC
330
747D
100
AcDbEntity
  8
部品1
 48
0.01
100
AcDbLine
 10
3629.350556745937
 20
7068.728165890549
 30
0.0
 11
3629.350556745937
 21
7067.728165890549
 31
0.0
  0
LINE
  5
140AD
330
747D
100
AcDbEntity
  8
部品1
 48
0.01
100
AcDbLine
 10
3629.350556745937
 20
7068.728165890549
 30
0.0
 11
3629.350556745937
 21
7067.728165890549
 31
0.0
  0
LINE
  5
140AE
330
747D
100
AcDbEntity
  8
部品1
 48
0.01
100
AcDbLine
 10
3628.850556745937
 20
7067.228165890549
 30
0.0
 11
3622.238051315873
 21
7067.228165890549
 31
0.0
  0
ARC
  5
140AF
330
747D
100
AcDbEntity
  8
部品1
100
AcDbCircle
 10
3622.306400868654
 20
7068.228165890549
 30
0.0
 40
1.0
100
AcDbArc
 50
160.5287793655822
 51
270.0
  0
ARC
  5
140B0
330
747D
100
AcDbEntity
  8
部品1
100
AcDbCircle
 10
3596.850556745937
 20
7077.22816589055
 30
0.0
 40
26.0
100
AcDbArc
 50
340.5287793655822
 51
0.0
  0
LINE
  5
140B1
330
747D
100
AcDbEntity
  8
部品1
100
AcDbLine
 10
3622.850556745937
 20
7077.22816589055
 30
0.0
 11
3622.850556745937
 21
7082.228165890549
 31
0.0
  0
ARC
  5
140B2
330
747D
100
AcDbEntity
  8
部品1
 48
0.01
100
AcDbCircle
 10
3620.850556745937
 20
7082.228165890549
 30
0.0
 40
2.0
100
AcDbArc
 50
0.0
 51
90.0
  0
ARC
  5
140B3
330
747D
100
AcDbEntity
  8
部品1
100
AcDbCircle
 10
3619.242165121127
 20
7081.228165890549
 30
0.0
 40
3.0
100
AcDbArc
 50
90.0
 51
141.6069559807883
  0
LINE
  5
140B4
330
747D
100
AcDbEntity
  8
部品1
 48
0.01
100
AcDbLine
 10
3620.850556745937
 20
7084.228165890549
 30
0.0
 11
3619.242165121127
 21
7084.228165890549
 31
0.0
  0
ARC
  5
140B5
330
747D
100
AcDbEntity
  8
部品1
100
AcDbCircle
 10
3600.779842531666
 20
7080.528165890553
 30
0.0
 40
3.0
100
AcDbArc
 50
254.0576313943199
 51
270.0
  0
ARC
  5
140B6
330
747D
100
AcDbEntity
  8
部品1
100
AcDbCircle
 10
3607.921270960208
 20
7080.528165890553
 30
0.0
 40
3.0
100
AcDbArc
 50
270.0
 51
285.9423686056802
  0
LINE
  5
140B7
330
747D
100
AcDbEntity
  8
部品1
100
AcDbLine
 10
3607.921270960208
 20
7077.528165890552
 30
0.0
 11
3600.779842531666
 21
7077.528165890552
 31
0.0
  0
ARC
  5
140B8
330
747D
100
AcDbEntity
  8
部品1
100
AcDbCircle
 10
3604.350556745937
 20
7093.028165890553
 30
0.0
 40
16.0
100
AcDbArc
 50
285.9423686056802
 51
321.6069559807884
  0
LINE
  5
140B9
330
747D
100
AcDbEntity
  8
部品1
 48
0.01
100
AcDbLine
 10
3587.850556745937
 20
7084.228165890549
 30
0.0
 11
3589.458948370747
 21
7084.228165890549
 31
0.0
  0
ARC
  5
140BA
330
747D
100
AcDbEntity
  8
部品1
100
AcDbCircle
 10
3589.458948370747
 20
7081.228165890549
 30
0.0
 40
3.0
100
AcDbArc
 50
38.39304401921166
 51
90.0
  0
ARC
  5
140BB
330
747D
100
AcDbEntity
  8
部品1
100
AcDbCircle
 10
3604.350556745937
 20
7093.028165890553
 30
0.0
 40
16.0
100
AcDbArc
 50
218.3930440192117
 51
254.0576313943199
  0
LINE
  5
140BC
330
747D
100
AcDbEntity
  8
部品1
100
AcDbLine
 10
3585.850556745937
 20
7077.22816589055
 30
0.0
 11
3585.850556745937
 21
7082.228165890549
 31
0.0
  0
ARC
  5
140BD
330
747D
100
AcDbEntity
  8
部品1
 48
0.01
100
AcDbCircle
 10
3587.850556745937
 20
7082.228165890549
 30
0.0
 40
2.0
100
AcDbArc
 50
90.0
 51
180.0
  0
ARC
  5
140BE
330
747D
100
AcDbEntity
  8
部品1
100
AcDbCircle
 10
3611.850556745937
 20
7077.22816589055
 30
0.0
 40
26.0
100
AcDbArc
 50
180.0
 51
199.4712206344178
  0
ARC
  5
140BF
330
747D
100
AcDbEntity
  8
部品1
 48
0.01
100
AcDbCircle
 10
3579.850556745937
 20
7067.728165890549
 30
0.0
 40
0.5
100
AcDbArc
 50
180.0
 51
270.0
  0
LINE
  5
140C0
330
747D
100
AcDbEntity
  8
部品1
 48
0.01
100
AcDbLine
 10
3579.850556745937
 20
7067.228165890549
 30
0.0
 11
3586.394712623221
 21
7067.228165890549
 31
0.0
  0
LINE
  5
140C1
330
747D
100
AcDbEntity
  8
部品1
 48
0.01
100
AcDbLine
 10
3579.350556745937
 20
7068.728165890549
 30
0.0
 11
3579.350556745937
 21
7067.728165890549
 31
0.0
  0
ARC
  5
140C2
330
747D
100
AcDbEntity
  8
部品1
100
AcDbCircle
 10
3586.394712623221
 20
7068.228165890549
 30
0.0
 40
1.0
100
AcDbArc
 50
270.0
 51
19.4712206344178
  0
LINE
  5
140C3
330
747D
100
AcDbEntity
  8
細線
100
AcDbLine
 10
3624.850556745945
 20
7086.728165890552
 30
0.0
 11
3583.850556745944
 21
7086.728165890545
 31
0.0
  0
LINE
  5
140C4
330
747D
100
AcDbEntity
  8
細線
100
AcDbLine
 10
3583.850556745944
 20
7086.728165890545
 30
0.0
 11
3583.850556745944
 21
7068.728165890528
 31
0.0
  0
LINE
  5
140C5
330
747D
100
AcDbEntity
  8
細線
100
AcDbLine
 10
3624.850556745945
 20
7086.728165890552
 30
0.0
 11
3624.850556745945
 21
7068.728165890528
 31
0.0
  0
LINE
  5
140C6
330
747D
100
AcDbEntity
  8
細線
100
AcDbLine
 10
3468.350663344683
 20
7072.729096344954
 30
0.0
 11
3468.350663344683
 21
7068.729096345001
 31
0.0
  0
DIMENSION
  5
140C7
330
747D
100
AcDbEntity
  8
寸法
 48
50.0
100
AcDbDimension
  2
*D27
 10
4734.350663344682
 20
6385.84788473782
 30
0.0
 11
4107.142056535056
 21
6385.84788473782
 31
0.0
 70
   160
  1
有効開口部間口\P<>
 71
     5
 42
1266.0
  3
INABA_S40
100
AcDbAlignedDimension
 13
3468.350663344683
 23
7063.729096344953
 33
0.0
 14
4734.350663344682
 24
7063.729096344953
 34
0.0
100
AcDbRotatedDimension
1001
ACAD
1000
DSTYLE
1002
{
1070
    41
1040
0.5
1070
    44
1040
1.0
1070
   147
1040
0.8
1070
   271
1070
     2
1070
   272
1070
     2
1070
   289
1070
     3
1070
   340
1005
F706
1070
   343
1005
F744
1070
   344
1005
F744
1002
}
  0
LINE
  5
140C8
330
747D
100
AcDbEntity
  8
部品1
100
AcDbLine
 10
5556.350663344682
 20
7140.729096344952
 30
0.0
 11
5583.350663344682
 21
7140.729096344954
 31
0.0
  0
LINE
  5
140CA
330
747D
100
AcDbEntity
  8
部品1
100
AcDbLine
 10
5583.350663344682
 20
7063.729096344953
 30
0.0
 11
5583.350663344682
 21
7140.729096344954
 31
0.0
  0
LINE
  5
140CB
330
747D
100
AcDbEntity
  8
部品1
100
AcDbLine
 10
5544.350663344682
 20
7136.729096344954
 30
0.0
 11
5556.350663344682
 21
7136.729096344954
 31
0.0
  0
LINE
  5
140CC
330
747D
100
AcDbEntity
  8
部品1
100
AcDbLine
 10
5553.350663344683
 20
7072.729096344954
 30
0.0
 11
5553.350663344683
 21
7063.729096344953
 31
0.0
  0
LINE
  5
140CD
330
747D
100
AcDbEntity
  8
部品1
100
AcDbLine
 10
5544.350663344682
 20
7072.729096344954
 30
0.0
 11
5553.350663344683
 21
7072.729096344954
 31
0.0
  0
LINE
  5
140CE
330
747D
100
AcDbEntity
  8
部品1
100
AcDbLine
 10
5544.350663344682
 20
7136.729096344954
 30
0.0
 11
5544.350663344682
 21
7072.729096344954
 31
0.0
  0
LINE
  5
140CF
330
747D
100
AcDbEntity
  8
部品1
100
AcDbLine
 10
5556.350663344682
 20
7167.729096344953
 30
0.0
 11
5556.350663344682
 21
7136.729096344954
 31
0.0
  0
LINE
  5
140D0
330
747D
100
AcDbEntity
  8
部品1
100
AcDbLine
 10
3468.350663344683
 20
7136.729096344954
 30
0.0
 11
3456.350663344682
 21
7136.729096344954
 31
0.0
  0
LINE
  5
140D1
330
747D
100
AcDbEntity
  8
部品1
100
AcDbLine
 10
3429.350663344683
 20
7140.729096344954
 30
0.0
 11
3456.350663344681
 21
7140.729096344954
 31
0.0
  0
LINE
  5
140D2
330
747D
100
AcDbEntity
  8
部品1
100
AcDbLine
 10
3459.350663344682
 20
7072.729096344954
 30
0.0
 11
3459.350663344682
 21
7063.729096344953
 31
0.0
  0
LINE
  5
140D3
330
747D
100
AcDbEntity
  8
部品1
100
AcDbLine
 10
3468.350663344683
 20
7072.729096344954
 30
0.0
 11
3459.350663344682
 21
7072.729096344954
 31
0.0
  0
LINE
  5
140D4
330
747D
100
AcDbEntity
  8
部品1
100
AcDbLine
 10
3459.350663344682
 20
7063.729096344953
 30
0.0
 11
3429.350663344683
 21
7063.729096344953
 31
0.0
  0
LINE
  5
140D5
330
747D
100
AcDbEntity
  8
部品1
100
AcDbLine
 10
3429.350663344683
 20
7063.729096344953
 30
0.0
 11
3429.350663344683
 21
7140.729096344954
 31
0.0
  0
LINE
  5
140D6
330
747D
100
AcDbEntity
  8
部品1
100
AcDbLine
 10
3468.350663344683
 20
7136.729096344954
 30
0.0
 11
3468.350663344683
 21
7072.729096344954
 31
0.0
  0
LINE
  5
140D7
330
747D
100
AcDbEntity
  8
部品1
100
AcDbLine
 10
3456.350663344681
 20
7167.729096344949
 30
0.0
 11
3456.350663344682
 21
7136.729096344954
 31
0.0
  0
LINE
  5
140D8
330
747D
100
AcDbEntity
  8
部品1
100
AcDbLine
 10
3456.350663344681
 20
7167.729096344949
 30
0.0
 11
5556.350663344682
 21
7167.729096344953
 31
0.0
  0
LINE
  5
140D9
330
747D
100
AcDbEntity
  8
部品1
100
AcDbLine
 10
5553.350663344683
 20
7063.729096344953
 30
0.0
 11
5583.350663344682
 21
7063.729096344953
 31
0.0
  0
LINE
  5
140DA
330
747D
100
AcDbEntity
  8
部品1
100
AcDbLine
 10
3459.350663344682
 20
7063.729096344953
 30
0.0
 11
5556.350663344682
 21
7063.729096344953
 31
0.0
  0
LINE
  5
140DB
330
747D
100
AcDbEntity
  8
細線
  6
Continuous
 62
     5
100
AcDbLine
 10
4835.350663344686
 20
7102.72909634495
 30
0.0
 11
4835.350663344686
 21
7102.72909634495
 31
0.0
  0
LINE
  5
140DC
330
747D
100
AcDbEntity
  8
細線
  6
Continuous
 62
     5
100
AcDbLine
 10
4827.850698663578
 20
7102.729106266007
 30
0.0
 11
4827.850698663578
 21
7102.729106266007
 31
0.0
  0
LINE
  5
140DD
330
747D
100
AcDbEntity
  8
細線
  6
Continuous
 62
     5
100
AcDbLine
 10
4821.850698663578
 20
7102.729106266007
 30
0.0
 11
4821.850698663578
 21
7102.729106266007
 31
0.0
  0
LINE
  5
140DE
330
747D
100
AcDbEntity
  8
細線
  6
Continuous
 62
     5
100
AcDbLine
 10
4889.350663344686
 20
7121.729096344949
 30
0.0
 11
4889.350663344686
 21
7121.729096344949
 31
0.0
  0
LINE
  5
140DF
330
747D
100
AcDbEntity
  8
細線
 48
50.0
100
AcDbLine
 10
3482.350667998276
 20
7089.329270521908
 30
0.0
 11
3482.350667998276
 21
7097.725420929546
 31
0.0
  0
LINE
  5
140E0
330
747D
100
AcDbEntity
  8
細線
 48
50.0
100
AcDbLine
 10
3482.350667998276
 20
7097.725420929546
 30
0.0
 11
3468.350663344683
 21
7097.725420929544
 31
0.0
  0
LINE
  5
140E1
330
747D
100
AcDbEntity
  8
細線
 48
50.0
100
AcDbLine
 10
4233.350667998272
 20
7085.879270521907
 30
0.0
 11
4233.350667998272
 21
7090.729270521909
 31
0.0
  0
LINE
  5
140E2
330
747D
100
AcDbEntity
  8
細線
 48
50.0
100
AcDbLine
 10
4233.350667998272
 20
7090.729270521909
 30
0.0
 11
4248.350667998272
 21
7090.729270521909
 31
0.0
  0
LINE
  5
140E3
330
747D
100
AcDbEntity
  8
細線
 48
50.0
100
AcDbLine
 10
4248.350667998272
 20
7090.729270521909
 30
0.0
 11
4248.350667998276
 21
7097.729270521909
 31
0.0
  0
LINE
  5
140E4
330
747D
100
AcDbEntity
  8
細線
 48
50.0
100
AcDbLine
 10
4248.350667998276
 20
7097.729270521909
 30
0.0
 11
4263.350667998272
 21
7097.729270521909
 31
0.0
  0
LINE
  5
140E5
330
747D
100
AcDbEntity
  8
細線
 48
50.0
100
AcDbLine
 10
4263.350667998272
 20
7097.729270521909
 30
0.0
 11
4263.350667998272
 21
7068.72927052191
 31
0.0
  0
LINE
  5
140E6
330
747D
100
AcDbEntity
  8
細線
 48
50.0
100
AcDbLine
 10
3459.350663344682
 20
7068.726604865377
 30
0.0
 11
3673.350667998272
 21
7068.729288075622
 31
0.0
  0
LINE
  5
140E7
330
747D
100
AcDbEntity
  8
細線
 48
50.0
100
AcDbLine
 10
4163.350667998272
 20
7068.72927052191
 30
0.0
 11
4263.350667998272
 21
7068.72927052191
 31
0.0
  0
LINE
  5
140E8
330
747D
100
AcDbEntity
  8
細線
 48
50.0
100
AcDbLine
 10
3883.350667998272
 20
7068.72927052191
 30
0.0
 11
3953.350667998272
 21
7068.72927052191
 31
0.0
  0
LINE
  5
140E9
330
747D
100
AcDbEntity
  8
細線
 48
50.0
100
AcDbLine
 10
3896.212633010801
 20
7068.72927052191
 30
0.0
 11
3901.968150593468
 21
7087.000121812403
 31
0.0
  0
LINE
  5
140EA
330
747D
100
AcDbEntity
  8
細線
 48
50.0
100
AcDbLine
 10
3901.968150593468
 20
7087.000121812403
 30
0.0
 11
3912.896599073903
 21
7087.000121812399
 31
0.0
  0
ARC
  5
140EB
330
747D
100
AcDbEntity
  8
細線
 48
50.0
100
AcDbCircle
 10
3912.896599073903
 20
7086.0001218124
 30
0.0
 40
1.0
100
AcDbArc
 50
24.62431835212641
 51
90.0
  0
ARC
  5
140EC
330
747D
100
AcDbEntity
  8
細線
 48
50.0
100
AcDbCircle
 10
3923.805311188536
 20
7086.0001218124
 30
0.0
 40
1.0
100
AcDbArc
 50
90.0
 51
155.3756816478736
  0
ARC
  5
140ED
330
747D
100
AcDbEntity
  8
細線
 48
50.0
100
AcDbCircle
 10
3918.350955131217
 20
7088.500121812399
 30
0.0
 40
5.0
100
AcDbArc
 50
204.6243183521264
 51
335.3756816478736
  0
LINE
  5
140EE
330
747D
100
AcDbEntity
  8
細線
 48
50.0
100
AcDbLine
 10
3923.805311188536
 20
7087.000121812399
 30
0.0
 11
3934.73375966897
 21
7087.000121812403
 31
0.0
  0
LINE
  5
140EF
330
747D
100
AcDbEntity
  8
細線
 48
50.0
100
AcDbLine
 10
3934.73375966897
 20
7087.000121812403
 30
0.0
 11
3940.489277251637
 21
7068.72927052191
 31
0.0
  0
LINE
  5
140F0
330
747D
100
AcDbEntity
  8
細線
 48
50.0
100
AcDbLine
 10
4233.350667998272
 20
7089.329270521908
 30
0.0
 11
3482.350667998276
 21
7089.329270521908
 31
0.0
  0
LINE
  5
140F1
330
747D
100
AcDbEntity
  8
細線
 48
50.0
100
AcDbLine
 10
4093.350667998271
 20
7068.72927052191
 30
0.0
 11
4023.350667998271
 21
7068.72927052191
 31
0.0
  0
LINE
  5
140F2
330
747D
100
AcDbEntity
  8
細線
100
AcDbLine
 10
3813.350667998273
 20
7068.72927052191
 30
0.0
 11
3743.350676183688
 21
7068.72927052191
 31
0.0
  0
LINE
  5
140F3
330
747D
100
AcDbEntity
  8
細線
 48
50.0
100
AcDbLine
 10
4887.350658691096
 20
7123.329314379775
 30
0.0
 11
4252.350667998272
 21
7123.329314379772
 31
0.0
  0
LINE
  5
140F4
330
747D
100
AcDbEntity
  8
細線
 48
50.0
100
AcDbLine
 10
4252.350667998272
 20
7120.225464787416
 30
0.0
 11
4252.350667998272
 21
7124.725464787416
 31
0.0
  0
LINE
  5
140F5
330
747D
100
AcDbEntity
  8
細線
 48
50.0
100
AcDbLine
 10
4252.350667998272
 20
7124.725464787416
 30
0.0
 11
4237.350667998271
 21
7124.725464787416
 31
0.0
  0
LINE
  5
140F6
330
747D
100
AcDbEntity
  8
細線
 48
50.0
100
AcDbLine
 10
4237.350667998271
 20
7124.725464787416
 30
0.0
 11
4237.350667998271
 21
7131.725464787415
 31
0.0
  0
LINE
  5
140F7
330
747D
100
AcDbEntity
  8
細線
 48
50.0
100
AcDbLine
 10
4237.350667998271
 20
7131.725464787415
 30
0.0
 11
4222.350667998275
 21
7131.725464787412
 31
0.0
  0
LINE
  5
140F8
330
747D
100
AcDbEntity
  8
細線
 48
50.0
100
AcDbLine
 10
4222.350667998275
 20
7131.725464787412
 30
0.0
 11
4222.350667998275
 21
7094.125236684302
 31
0.0
  0
LINE
  5
140F9
330
747D
100
AcDbEntity
  8
細線
 48
50.0
100
AcDbLine
 10
4222.350667998275
 20
7094.125236684302
 30
0.0
 11
4242.350675299448
 21
7094.125278233843
 31
0.0
  0
LINE
  5
140FA
330
747D
100
AcDbEntity
  8
細線
 48
50.0
100
AcDbLine
 10
4242.350630430506
 20
7102.728739869651
 30
0.0
 11
4242.350675299448
 21
7094.125278233843
 31
0.0
  0
LINE
  5
140FB
330
747D
100
AcDbEntity
  8
細線
 48
50.0
100
AcDbLine
 10
4887.350658691096
 20
7119.879314379774
 30
0.0
 11
4887.350658691096
 21
7124.729314379774
 31
0.0
  0
LINE
  5
140FC
330
747D
100
AcDbEntity
  8
細線
 48
50.0
100
AcDbLine
 10
4887.350658691096
 20
7124.729314379774
 30
0.0
 11
4902.350658691092
 21
7124.729314379774
 31
0.0
  0
LINE
  5
140FD
330
747D
100
AcDbEntity
  8
細線
 48
50.0
100
AcDbLine
 10
4902.350658691092
 20
7124.729314379774
 30
0.0
 11
4902.350670325069
 21
7131.729314379817
 31
0.0
  0
LINE
  5
140FE
330
747D
100
AcDbEntity
  8
細線
 48
50.0
100
AcDbLine
 10
4902.350670325069
 20
7131.729314379817
 30
0.0
 11
4917.350668495598
 21
7131.729314379817
 31
0.0
  0
LINE
  5
140FF
330
747D
100
AcDbEntity
  8
細線
 48
50.0
100
AcDbLine
 10
4917.350668495598
 20
7131.729314379817
 30
0.0
 11
4917.350658193777
 21
7102.729108207544
 31
0.0
  0
LINE
  5
14100
330
747D
100
AcDbEntity
  8
細線
 48
50.0
100
AcDbLine
 10
4604.850685824561
 20
7102.72911639491
 30
0.0
 11
4534.850937906977
 21
7102.729110957572
 31
0.0
  0
LINE
  5
14101
330
747D
100
AcDbEntity
  8
細線
 48
50.0
100
AcDbLine
 10
4242.350630430506
 20
7102.728739869651
 30
0.0
 11
4253.583319785216
 21
7102.728922822797
 31
0.0
  0
ARC
  5
14102
330
747D
100
AcDbEntity
  8
細線
 48
50.0
100
AcDbCircle
 10
4260.165612092552
 20
7101.52908673641
 30
0.0
 40
1.8
100
AcDbArc
 50
270.0006665777295
 51
345.0005554812979
  0
LINE
  5
14103
330
747D
100
AcDbEntity
  8
細線
 48
50.0
100
AcDbLine
 10
4262.152045538631
 20
7101.987927193689
 30
0.0
 11
4261.904283096432
 21
7101.063229311582
 31
0.0
  0
LINE
  5
14104
330
747D
100
AcDbEntity
  8
細線
 48
50.0
100
AcDbLine
 10
4260.165633033706
 20
7099.72908673653
 30
0.0
 11
4256.535705614938
 21
7099.729044506052
 31
0.0
  0
ARC
  5
14105
330
747D
100
AcDbEntity
  8
細線
 48
50.0
100
AcDbCircle
 10
4256.535684673786
 20
7101.52904450593
 30
0.0
 40
1.8
100
AcDbArc
 50
195.0010443049453
 51
270.0006665777295
  0
LINE
  5
14106
330
747D
100
AcDbEntity
  8
細線
 48
50.0
100
AcDbLine
 10
4254.549257181527
 20
7101.987759473495
 30
0.0
 11
4254.79702667804
 21
7101.063138534913
 31
0.0
  0
ARC
  5
14107
330
747D
100
AcDbEntity
  8
細線
 48
50.0
100
AcDbCircle
 10
4253.583336072778
 20
7101.728922822932
 30
0.0
 40
1.0
100
AcDbArc
 50
15.00104430494533
 51
90.00093320877969
  0
LINE
  5
14108
330
747D
100
AcDbEntity
  8
細線
 48
50.0
100
AcDbLine
 10
4263.117966893734
 20
7102.729117513202
 30
0.0
 11
4264.059727044638
 21
7102.729124087052
 31
0.0
  0
ARC
  5
14109
330
747D
100
AcDbEntity
  8
細線
 48
50.0
100
AcDbCircle
 10
4263.11797387412
 20
7101.729117513229
 30
0.0
 40
1.0
100
AcDbArc
 50
90.0003999466794
 51
165.0005554812978
  0
LINE
  5
1410A
330
747D
100
AcDbEntity
  8
細線
 48
50.0
100
AcDbLine
 10
4814.850658691085
 20
7102.729108207544
 30
0.0
 11
4917.350658193777
 21
7102.729108207544
 31
0.0
  0
LINE
  5
1410B
330
747D
100
AcDbEntity
  8
細線
 48
50.0
100
AcDbLine
 10
4324.850694009977
 20
7102.72911639491
 30
0.0
 11
4263.750632783056
 21
7102.729124087052
 31
0.0
  0
LINE
  5
1410C
330
747D
100
AcDbEntity
  8
細線
 48
50.0
100
AcDbLine
 10
4744.850694009977
 20
7102.729153235992
 30
0.0
 11
4674.850687055591
 21
7102.729108213324
 31
0.0
  0
LINE
  5
1410D
330
747D
100
AcDbEntity
  8
細線
 48
50.0
100
AcDbLine
 10
4464.850658691085
 20
7102.729108207539
 30
0.0
 11
4394.85064140321
 21
7102.729108207547
 31
0.0
  0
ARC
  5
1410E
330
747D
100
AcDbEntity
  8
細線
 48
50.0
100
AcDbCircle
 10
4901.550663344694
 20
7135.929096344954
 30
0.0
 40
0.8
100
AcDbArc
 50
359.9997333689499
 51
89.99986668437072
  0
ARC
  5
1410F
330
747D
100
AcDbEntity
  8
細線
 48
50.0
100
AcDbCircle
 10
4909.150670169788
 20
7135.929107513572
 30
0.0
 40
0.8
100
AcDbArc
 50
90.00014387753465
 51
179.9997333689498
  0
LINE
  5
14110
330
747D
100
AcDbEntity
  8
細線
 48
50.0
100
AcDbLine
 10
4901.550665206127
 20
7136.729096344954
 30
0.0
 11
4896.350663344683
 21
7136.729096344954
 31
0.0
  0
ARC
  5
14111
330
747D
100
AcDbEntity
  8
細線
 48
50.0
100
AcDbCircle
 10
4903.050663344683
 20
7134.429096344954
 30
0.0
 40
0.7
100
AcDbArc
 50
180.0
 51
270.0
  0
ARC
  5
14112
330
747D
100
AcDbEntity
  8
細線
 48
50.0
100
AcDbCircle
 10
4907.650663344686
 20
7134.429096344954
 30
0.0
 40
0.7
100
AcDbArc
 50
270.0
 51
0.0
  0
LINE
  5
14113
330
747D
100
AcDbEntity
  8
細線
 48
50.0
100
AcDbLine
 10
4908.350663344682
 20
7134.429096344954
 30
0.0
 11
4908.3506701698
 21
7135.929111236442
 31
0.0
  0
LINE
  5
14114
330
747D
100
AcDbEntity
  8
細線
 48
50.0
100
AcDbLine
 10
4903.050663344683
 20
7133.729096344954
 30
0.0
 11
4907.650663344686
 21
7133.729096344954
 31
0.0
  0
LINE
  5
14115
330
747D
100
AcDbEntity
  8
細線
 48
50.0
100
AcDbLine
 10
4902.350663344682
 20
7135.929096344954
 30
0.0
 11
4902.350663344682
 21
7134.429096344954
 31
0.0
  0
LINE
  5
14116
330
747D
100
AcDbEntity
  8
細線
 48
50.0
100
AcDbLine
 10
5527.950663344689
 20
7166.729096344953
 30
0.0
 11
4891.350663344682
 21
7166.72909634495
 31
0.0
  0
LINE
  5
14117
330
747D
100
AcDbEntity
  8
細線
 48
50.0
100
AcDbLine
 10
5553.850663344682
 20
7161.729096344958
 30
0.0
 11
5537.950663344687
 21
7161.729096344953
 31
0.0
  0
LINE
  5
14118
330
747D
100
AcDbEntity
  8
細線
 48
50.0
100
AcDbLine
 10
5537.950663344684
 20
7161.729096344953
 30
0.0
 11
5527.950663344689
 21
7166.729096344953
 31
0.0
  0
LINE
  5
14119
330
747D
100
AcDbEntity
  8
細線
100
AcDbLine
 10
5138.850663344683
 20
7136.729096344954
 30
0.0
 11
5138.850663344683
 21
7166.029096344953
 31
0.0
  0
LINE
  5
1411A
330
747D
100
AcDbEntity
  8
細線
100
AcDbLine
 10
5138.850663344683
 20
7166.029096344953
 30
0.0
 11
5158.850663344683
 21
7166.029096344953
 31
0.0
  0
LINE
  5
1411B
330
747D
100
AcDbEntity
  8
細線
100
AcDbLine
 10
5158.850663344683
 20
7136.729096344954
 30
0.0
 11
5158.850663344683
 21
7166.029096344953
 31
0.0
  0
LINE
  5
1411C
330
747D
100
AcDbEntity
  8
細線
100
AcDbLine
 10
5320.100663344683
 20
7136.729096344954
 30
0.0
 11
5250.100663344683
 21
7136.729096344954
 31
0.0
  0
LINE
  5
1411D
330
747D
100
AcDbEntity
  8
細線
 48
50.0
100
AcDbLine
 10
5040.100663344682
 20
7136.729096344954
 30
0.0
 11
4909.146442917526
 21
7136.729096344954
 31
0.0
  0
LINE
  5
1411E
330
747D
100
AcDbEntity
  8
細線
100
AcDbLine
 10
5180.100663344683
 20
7136.729096344954
 30
0.0
 11
5110.100663344684
 21
7136.729096344954
 31
0.0
  0
LINE
  5
1411F
330
747D
100
AcDbEntity
  8
細線
 48
50.0
100
AcDbLine
 10
4896.350663344683
 20
7128.729096344954
 30
0.0
 11
4896.350663344683
 21
7136.729096344954
 31
0.0
  0
LINE
  5
14120
330
747D
100
AcDbEntity
  8
細線
 48
50.0
100
AcDbLine
 10
4876.350663344682
 20
7128.729096344956
 30
0.0
 11
4896.350663344683
 21
7128.729096344954
 31
0.0
  0
LINE
  5
14121
330
747D
100
AcDbEntity
  8
細線
 48
50.0
100
AcDbLine
 10
4891.350663344682
 20
7166.729096344953
 30
0.0
 11
4891.350663344682
 21
7161.729096344953
 31
0.0
  0
LINE
  5
14122
330
747D
100
AcDbEntity
  8
細線
 48
50.0
100
AcDbLine
 10
4876.350663344682
 20
7166.72909634495
 30
0.0
 11
4891.350663344682
 21
7166.729096344953
 31
0.0
  0
LINE
  5
14123
330
747D
100
AcDbEntity
  8
細線
 48
50.0
100
AcDbLine
 10
4876.350663344682
 20
7128.729096344956
 30
0.0
 11
4876.350663344682
 21
7166.72909634495
 31
0.0
  0
LINE
  5
14124
330
747D
100
AcDbEntity
  8
細線
100
AcDbLine
 10
5544.350663344682
 20
7136.729096344954
 30
0.0
 11
5390.100663344683
 21
7136.729096344954
 31
0.0
  0
LINE
  5
14125
330
747D
100
AcDbEntity
  8
細線
 48
50.0
100
AcDbLine
 10
5553.850663344682
 20
7161.729096344958
 30
0.0
 11
5553.850663344682
 21
7136.729096344954
 31
0.0
  0
DIMENSION
  5
14393
330
747D
100
AcDbEntity
  8
寸法
 48
50.0
100
AcDbDimension
  2
*D28
 10
5611.350663344683
 20
5815.647138842109
 30
0.0
 11
4296.350663344681
 21
5907.658949865731
 31
0.0
 70
    32
 71
     5
 42
2630.000000000002
  3
INABA_S40
100
AcDbAlignedDimension
 13
2981.350663344681
 23
7140.729096344955
 33
0.0
 14
5611.350663344683
 24
7195.729096344955
 34
0.0
100
AcDbRotatedDimension
1001
ACAD
1000
DSTYLE
1002
{
1070
   287
1070
     3
1070
    41
1040
0.5
1070
    44
1040
1.0
1070
   147
1040
0.8
1070
   271
1070
     2
1070
   272
1070
     2
1070
   289
1070
     3
1070
   340
1005
F706
1070
     6
1000
DOT
1070
     7
1000
DOT
1002
}
  0
DIMENSION
  5
14394
330
747D
100
AcDbEntity
  8
寸法
 48
50.0
100
AcDbDimension
  2
*D29
 10
8241.350663344681
 20
5815.647138842109
 30
0.0
 11
6926.350663344681
 21
5907.658949865731
 31
0.0
 70
    32
 71
     5
 42
2629.999999999999
  3
INABA_S40
100
AcDbAlignedDimension
 13
5611.350663344683
 23
7195.729096344951
 33
0.0
 14
8241.350663344681
 24
7140.729096344955
 34
0.0
100
AcDbRotatedDimension
1001
ACAD
1000
DSTYLE
1002
{
1070
   287
1070
     3
1070
    41
1040
0.5
1070
    44
1040
1.0
1070
   147
1040
0.8
1070
   271
1070
     2
1070
   272
1070
     2
1070
   289
1070
     3
1070
   340
1005
F706
1070
     6
1000
DOT
1070
     7
1000
DOT
1002
}
  0
LWPOLYLINE
  5
14395
330
747D
100
AcDbEntity
  8
部品1
100
AcDbPolyline
 90
        4
 70
     1
 43
0.0
 10
5229.615330230476
 20
5629.080543308949
 10
5229.615330230476
 20
5389.188221763417
 10
5993.085996458916
 20
5389.188221763417
 10
5993.085996458916
 20
5629.080543308949
  0
TEXT
  5
14396
330
747D
100
AcDbEntity
  8
部品1
100
AcDbText
 10
5319.534940059517
 20
5436.187014090426
 30
0.0
 40
135.0
  1
平面図
  7
STYLE2
100
AcDbText
  0
DIMENSION
  5
14397
330
747D
100
AcDbEntity
  8
寸法
100
AcDbDimension
  2
*D30
 10
2650.031849440632
 20
7065.729096344928
 30
0.0
 11
2650.031849440631
 21
6925.243814970689
 31
0.0
 70
   160
 71
     5
 42
75.00000000002728
  3
INABA_S40
100
AcDbAlignedDimension
 13
2981.350663344681
 23
7140.729096344955
 33
0.0
 14
3429.350663344683
 24
7065.729096344928
 34
0.0
 50
90.0
100
AcDbRotatedDimension
1001
ACAD
1000
DSTYLE
1002
{
1070
    41
1040
0.5
1070
    44
1040
1.0
1070
   147
1040
0.8
1070
   271
1070
     2
1070
   272
1070
     2
1070
   289
1070
     3
1070
   340
1005
F706
1070
   343
1005
F744
1070
   344
1005
F744
1002
}
  0
DIMENSION
  5
14398
330
747D
100
AcDbEntity
  8
寸法
 48
50.0
100
AcDbDimension
  2
*D31
 10
5583.350663344682
 20
6104.772088835706
 30
0.0
 11
4483.47266399354
 21
6104.772088835706
 31
0.0
 70
   160
 71
     5
 42
2154.0
  3
INABA_S40G
100
AcDbAlignedDimension
 13
3429.350663344683
 23
7063.72909634496
 33
0.0
 14
5583.350663344682
 24
7063.72909634496
 34
0.0
100
AcDbRotatedDimension
1001
ACAD
1000
DSTYLE
1002
{
1070
   341
1005
0
1002
}
  0
TEXT
  5
1464A
330
747D
100
AcDbEntity
  8
文字
 62
     7
 48
50.0
100
AcDbText
 10
15022.63965474516
 20
9570.013745883725
 30
0.0
 40
100.0
  1
F12            2.3
  7
STYLE1
100
AcDbText
  0
LINE
  5
14657
330
747D
100
AcDbEntity
  8
仕様書枠
 48
50.0
100
AcDbLine
 10
16307.19999999999
 20
8179.600000000004
 30
0.0
 11
13127.19999999999
 21
8179.600000000007
 31
0.0
  0
TEXT
  5
14658
330
747D
100
AcDbEntity
  8
文字
 62
     7
 48
50.0
100
AcDbText
 10
13248.77747366447
 20
8210.013745883729
 30
0.0
 40
100.0
  1
18
  7
STYLE1
100
AcDbText
  0
TEXT
  5
14662
330
747D
100
AcDbEntity
  8
文字
 62
     7
 48
50.0
100
AcDbText
 10
13583.11819016569
 20
9224.407396633495
 30
0.0
 40
100.0
  1
梁中補強パネル
  7
STYLE1
100
AcDbText
  0
TEXT
  5
14663
330
747D
100
AcDbEntity
  8
文字
 62
     7
 48
50.0
100
AcDbText
 10
15022.63965474516
 20
9224.407396633491
 30
0.0
 40
100.0
  1
F12         0.7+1.2
  7
STYLE1
100
AcDbText
  0
DIMENSION
  5
1467B
330
747D
100
AcDbEntity
  8
寸法
 48
50.0
100
AcDbDimension
  2
*D32
 10
5948.192025848678
 20
9770.729099922098
 30
0.0
 11
5948.192025848677
 21
9387.967955558362
 31
0.0
 70
   160
 71
     5
 42
716.5000035771754
  3
INABA_S40G
100
AcDbAlignedDimension
 13
5636.350665587841
 23
9054.229096344922
 33
0.0
 14
5666.350665588076
 24
9770.729099922098
 34
0.0
 50
90.0
100
AcDbRotatedDimension
1001
ACAD
1000
DSTYLE
1002
{
1070
   174
1070
     0
1070
   272
1070
     1
1070
   341
1005
0
1002
}
  0
LINE
  5
1467C
330
747D
100
AcDbEntity
  8
部品1
 48
50.0
100
AcDbLine
 10
5586.350665587841
 20
9715.729096344922
 30
0.0
 11
5586.350665587841
 21
9054.229096344922
 31
0.0
  0
LINE
  5
1467D
330
747D
100
AcDbEntity
  8
部品1
 48
50.0
100
AcDbLine
 10
5636.350665587841
 20
9054.229096344922
 30
0.0
 11
5636.350665587841
 21
9715.729096344922
 31
0.0
  0
LINE
  5
1467E
330
747D
100
AcDbEntity
  8
部品1
 48
50.0
100
AcDbLine
 10
5586.350665587841
 20
9054.229096344922
 30
0.0
 11
5636.350665587841
 21
9054.229096344922
 31
0.0
  0
LINE
  5
1467F
330
747D
100
AcDbEntity
  8
部品1
100
AcDbLine
 10
5636.350665587841
 20
9331.405079781777
 30
0.0
 11
5586.350665587839
 21
9326.229096344922
 31
0.0
  0
LINE
  5
14680
330
747D
100
AcDbEntity
  8
部品1
100
AcDbLine
 10
5636.350665587841
 20
9291.053112908068
 30
0.0
 11
5586.350665587839
 21
9296.229096344921
 31
0.0
  0
LINE
  5
14681
330
747D
100
AcDbEntity
  8
部品1
100
AcDbLine
 10
5586.350665587841
 20
9136.229096344921
 30
0.0
 11
5636.350665587839
 21
9148.9409607517
 31
0.0
  0
LWPOLYLINE
  5
146F2
330
747D
100
AcDbEntity
  8
部品1
 48
50.0
100
AcDbPolyline
 90
        4
 70
     1
 43
0.0
 10
3528.400663344681
 20
3334.362805903256
 10
3531.300663344683
 20
3334.362805903256
 10
3531.300663344683
 20
3343.862805903256
 10
3528.400663344681
 20
3343.862805903256
  0
CIRCLE
  5
146F3
330
747D
100
AcDbEntity
  8
部品1
 48
50.0
100
AcDbCircle
 10
3529.850663344682
 20
3339.112805903256
 30
0.0
 40
9.0
  0
ARC
  5
146F4
330
747D
100
AcDbEntity
  8
細線
 48
50.0
100
AcDbCircle
 10
3529.850663344682
 20
3339.112805903256
 30
0.0
 40
4.0
100
AcDbArc
 50
111.2538091853375
 51
248.7461908146625
  0
ARC
  5
146F5
330
747D
100
AcDbEntity
  8
細線
 48
50.0
100
AcDbCircle
 10
3529.850663344682
 20
3339.112805903256
 30
0.0
 40
17.5
100
AcDbArc
 50
306.4837370612677
 51
233.5162629387323
  0
LINE
  5
146F6
330
747D
100
AcDbEntity
  8
細線
 48
50.0
100
AcDbLine
 10
3539.850663344678
 20
3315.253845322374
 30
0.0
 11
3539.850663344682
 21
3324.238331122615
 31
0.0
  0
LINE
  5
146F7
330
747D
100
AcDbEntity
  8
細線
 48
50.0
100
AcDbLine
 10
3519.850663344681
 20
3315.253845322376
 30
0.0
 11
3519.850663344681
 21
3324.238331122611
 31
0.0
  0
ARC
  5
146F8
330
747D
100
AcDbEntity
  8
細線
 48
50.0
100
AcDbCircle
 10
3529.850663344682
 20
3339.112805903256
 30
0.0
 40
26.5
100
AcDbArc
 50
249.3326835063939
 51
290.6673164933835
  0
ARC
  5
146F9
330
747D
100
AcDbEntity
  8
細線
 48
50.0
100
AcDbCircle
 10
3538.850663344675
 20
3315.253845322374
 30
0.0
 40
1.0
100
AcDbArc
 50
290.6673164936062
 51
359.9999999998958
  0
ARC
  5
146FA
330
747D
100
AcDbEntity
  8
細線
 48
50.0
100
AcDbCircle
 10
3520.850663344682
 20
3315.253845322376
 30
0.0
 40
1.0
100
AcDbArc
 50
180.0
 51
249.3326835066164
  0
ARC
  5
146FB
330
747D
100
AcDbEntity
  8
細線
 48
50.0
100
AcDbCircle
 10
3518.850663344681
 20
3324.238331122611
 30
0.0
 40
1.0
100
AcDbArc
 50
0.0
 51
53.51626293873231
  0
ARC
  5
146FC
330
747D
100
AcDbEntity
  8
細線
 48
50.0
100
AcDbCircle
 10
3540.850663344685
 20
3324.238331122615
 30
0.0
 40
1.0
100
AcDbArc
 50
126.4837370614917
 51
180.0
  0
ARC
  5
146FD
330
747D
100
AcDbEntity
  8
細線
 48
50.0
100
AcDbCircle
 10
3529.850663344682
 20
3339.112805903256
 30
0.0
 40
21.5
100
AcDbArc
 50
255.8014401250294
 51
284.1985598749706
  0
ARC
  5
146FE
330
747D
100
AcDbEntity
  8
細線
 48
50.0
100
AcDbCircle
 10
3529.850663344682
 20
3339.112805903256
 30
0.0
 40
16.5
100
AcDbArc
 50
251.9694646069326
 51
288.0305353930674
  0
LINE
  5
146FF
330
747D
100
AcDbEntity
  8
細線
 48
50.0
100
AcDbLine
 10
3535.350663344682
 20
3318.560433777449
 30
0.0
 11
3535.350663344682
 21
3323.137825464787
 31
0.0
  0
LINE
  5
14700
330
747D
100
AcDbEntity
  8
細線
 48
50.0
100
AcDbLine
 10
3524.350663344681
 20
3318.560433777449
 30
0.0
 11
3524.350663344681
 21
3323.137825464784
 31
0.0
  0
ARC
  5
14701
330
747D
100
AcDbEntity
  8
細線
 48
50.0
100
AcDbCircle
 10
3524.650663344684
 20
3323.137825464784
 30
0.0
 40
0.3
100
AcDbArc
 50
71.96946460693259
 51
180.0
  0
ARC
  5
14702
330
747D
100
AcDbEntity
  8
細線
 48
50.0
100
AcDbCircle
 10
3535.050663344682
 20
3323.137825464787
 30
0.0
 40
0.3
100
AcDbArc
 50
0.0
 51
108.0305353930674
  0
ARC
  5
14703
330
747D
100
AcDbEntity
  8
細線
 48
50.0
100
AcDbCircle
 10
3535.050663344679
 20
3318.560433777449
 30
0.0
 40
0.3
100
AcDbArc
 50
284.1985598747622
 51
0.0000000001042204
  0
ARC
  5
14704
330
747D
100
AcDbEntity
  8
細線
 48
50.0
100
AcDbCircle
 10
3524.650663344684
 20
3318.560433777449
 30
0.0
 40
0.3
100
AcDbArc
 50
180.0
 51
255.8014401248081
  0
CIRCLE
  5
14705
330
747D
100
AcDbEntity
  8
細線
 48
50.0
100
AcDbCircle
 10
3529.850663344682
 20
3339.112805903256
 30
0.0
 40
12.0
  0
ARC
  5
14706
330
747D
100
AcDbEntity
  8
部品1
 48
50.0
100
AcDbCircle
 10
3529.850663344682
 20
3389.112805903256
 30
0.0
 40
8.5
100
AcDbArc
 50
114.315739171091
 51
245.684260828909
  0
CIRCLE
  5
14707
330
747D
100
AcDbEntity
  8
細線
 48
50.0
100
AcDbCircle
 10
3529.850663344682
 20
3389.112805903256
 30
0.0
 40
4.5
  0
LWPOLYLINE
  5
14708
330
747D
100
AcDbEntity
  8
部品1
 48
50.0
100
AcDbPolyline
 90
        2
 70
     0
 43
0.0
 10
3526.350663344682
 20
3407.787655300239
 10
3526.350663344682
 20
3396.858772595672
  0
CIRCLE
  5
14709
330
747D
100
AcDbEntity
  8
部品1
 48
50.0
100
AcDbCircle
 10
3529.850663344682
 20
3389.112805903256
 30
0.0
 40
19.0
  0
LWPOLYLINE
  5
1470A
330
747D
100
AcDbEntity
  8
部品1
 48
50.0
100
AcDbPolyline
 90
        2
 70
     0
 43
0.0
 10
3526.350663344682
 20
3381.366839210841
 10
3526.350663344682
 20
3370.437956506274
  0
LWPOLYLINE
  5
1470B
330
747D
100
AcDbEntity
  8
部品1
 48
50.0
100
AcDbPolyline
 90
        2
 70
     0
 43
0.0
 10
3533.350663344682
 20
3396.858772595672
 10
3533.350663344682
 20
3407.787655300239
  0
ARC
  5
1470C
330
747D
100
AcDbEntity
  8
部品1
 48
50.0
100
AcDbCircle
 10
3529.850663344682
 20
3389.112805903256
 30
0.0
 40
8.5
100
AcDbArc
 50
294.315739171091
 51
65.68426082890896
  0
LWPOLYLINE
  5
1470D
330
747D
100
AcDbEntity
  8
部品1
 48
50.0
100
AcDbPolyline
 90
        2
 70
     0
 43
0.0
 10
3533.350663344682
 20
3370.437956506274
 10
3533.350663344682
 20
3381.366839210841
  0
ARC
  5
1470E
330
747D
100
AcDbEntity
  8
細線
 48
50.0
100
AcDbCircle
 10
3529.850663344682
 20
3389.112805903256
 30
0.0
 40
16.5
100
AcDbArc
 50
332.0012352654316
 51
27.99876473456844
  0
ARC
  5
1470F
330
747D
100
AcDbEntity
  8
細線
 48
50.0
100
AcDbCircle
 10
3529.850663344682
 20
3389.112805903256
 30
0.0
 40
14.0
100
AcDbArc
 50
326.4074436112843
 51
33.59255638871576
  0
LINE
  5
14710
330
747D
100
AcDbEntity
  8
細線
 48
50.0
100
AcDbLine
 10
3515.28186106035
 20
3396.858772595672
 30
0.0
 11
3518.188759554992
 21
3396.858772595672
 31
0.0
  0
LINE
  5
14711
330
747D
100
AcDbEntity
  8
細線
 48
50.0
100
AcDbLine
 10
3515.28186106035
 20
3381.366839210841
 30
0.0
 11
3518.188759554992
 21
3381.366839210841
 31
0.0
  0
LINE
  5
14712
330
747D
100
AcDbEntity
  8
細線
 48
50.0
100
AcDbLine
 10
3541.512567134371
 20
3396.858772595672
 30
0.0
 11
3544.419465629017
 21
3396.858772595672
 31
0.0
  0
LINE
  5
14713
330
747D
100
AcDbEntity
  8
細線
 48
50.0
100
AcDbLine
 10
3541.512567134371
 20
3381.366839210841
 30
0.0
 11
3544.419465629017
 21
3381.366839210841
 31
0.0
  0
ARC
  5
14714
330
747D
100
AcDbEntity
  8
細線
 48
50.0
100
AcDbCircle
 10
3529.850663344682
 20
3389.112805903256
 30
0.0
 40
14.0
100
AcDbArc
 50
146.4074436112842
 51
213.5925563887158
  0
ARC
  5
14715
330
747D
100
AcDbEntity
  8
細線
 48
50.0
100
AcDbCircle
 10
3529.850663344682
 20
3389.112805903256
 30
0.0
 40
16.5
100
AcDbArc
 50
152.0012352654315
 51
207.9987647345685
  0
ARC
  5
14716
330
747D
100
AcDbEntity
  8
部品1
 48
50.0
100
AcDbCircle
 10
3503.350663344682
 20
3414.612805903256
 30
0.0
 40
5.0
100
AcDbArc
 50
90.0
 51
180.0
  0
ARC
  5
14717
330
747D
100
AcDbEntity
  8
部品1
 48
50.0
100
AcDbCircle
 10
3503.350663344682
 20
3303.612805903256
 30
0.0
 40
5.0
100
AcDbArc
 50
180.0
 51
270.0
  0
ARC
  5
14718
330
747D
100
AcDbEntity
  8
部品1
 48
50.0
100
AcDbCircle
 10
3556.350663344681
 20
3303.612805903256
 30
0.0
 40
5.0
100
AcDbArc
 50
270.0
 51
0.0
  0
ARC
  5
14719
330
747D
100
AcDbEntity
  8
部品1
 48
50.0
100
AcDbCircle
 10
3556.350663344681
 20
3414.612805903256
 30
0.0
 40
5.0
100
AcDbArc
 50
0.0
 51
90.0
  0
LINE
  5
1471A
330
747D
100
AcDbEntity
  8
部品1
 48
50.0
100
AcDbLine
 10
3498.350663344682
 20
3303.612805903256
 30
0.0
 11
3498.350663344682
 21
3414.612805903256
 31
0.0
  0
LINE
  5
1471B
330
747D
100
AcDbEntity
  8
部品1
 48
50.0
100
AcDbLine
 10
3556.350663344681
 20
3298.612805903257
 30
0.0
 11
3503.350663344682
 21
3298.612805903257
 31
0.0
  0
LINE
  5
1471C
330
747D
100
AcDbEntity
  8
部品1
 48
50.0
100
AcDbLine
 10
3561.350663344682
 20
3414.612805903256
 30
0.0
 11
3561.350663344682
 21
3303.612805903256
 31
0.0
  0
ENDSEC
  0
SECTION
  2
OBJECTS
  0
DICTIONARY
  5
7471
330
0
100
AcDbDictionary
281
     1
  3
ACAD_COLOR
350
12D74
  3
ACAD_GROUP
350
7472
  3
ACAD_LAYOUT
350
12D75
  3
ACAD_MATERIAL
350
12D73
  3
ACAD_MLINESTYLE
350
7473
  3
ACAD_PLOTSETTINGS
350
12D76
  3
ACAD_PLOTSTYLENAME
350
12D71
  3
ACDBHEADERROUNDTRIPXREC
350
1472C
  3
AcDbVariableDictionary
350
14728
  3
CONTENTDICTIONARY
350
E71C
  3
DRAWINGVARIABLESDICT
350
F3B9
  0
DICTIONARY
  5
12EF1
330
7467
100
AcDbDictionary
280
     1
281
     1
  3
ACAD_LAYERSTATES
360
12EF2
  0
DICTIONARY
  5
12D74
102
{ACAD_REACTORS
330
7471
102
}
330
7471
100
AcDbDictionary
281
     1
  0
DICTIONARY
  5
7472
102
{ACAD_REACTORS
330
7471
102
}
330
7471
100
AcDbDictionary
281
     1
  0
DICTIONARY
  5
12D75
102
{ACAD_REACTORS
330
7471
102
}
330
7471
100
AcDbDictionary
281
     1
  3
Model
350
12D77
  3
レイアウト1
350
12D78
  0
DICTIONARY
  5
12D73
102
{ACAD_REACTORS
330
7471
102
}
330
7471
100
AcDbDictionary
281
     1
  0
DICTIONARY
  5
7473
102
{ACAD_REACTORS
330
7471
102
}
330
7471
100
AcDbDictionary
281
     1
  3
STANDARD
350
7480
  0
DICTIONARY
  5
12D76
102
{ACAD_REACTORS
330
7471
102
}
330
7471
100
AcDbDictionary
281
     1
  0
ACDBDICTIONARYWDFLT
  5
12D71
102
{ACAD_REACTORS
330
7471
102
}
330
7471
100
AcDbDictionary
281
     1
  3
Normal
350
12D72
100
AcDbDictionaryWithDefault
340
12D72
  0
DICTIONARY
  5
1472C
102
{ACAD_REACTORS
330
7471
102
}
330
7471
100
AcDbDictionary
281
     1
  3
COLORDICT
350
1472E
  3
MATERIALDICT
350
1472D
  0
DICTIONARY
  5
14728
102
{ACAD_REACTORS
330
7471
102
}
330
7471
100
AcDbDictionary
281
     1
  3
DIMASSOC
350
14729
  3
PROJECTNAME
350
1472A
  0
DICTIONARY
  5
E71C
102
{ACAD_REACTORS
330
7471
102
}
330
7471
100
AcDbDictionary
281
     1
  0
DICTIONARY
  5
F3B9
102
{ACAD_REACTORS
330
7471
102
}
330
7471
100
AcDbDictionary
281
     1
1001
DRAWINGVARIABLESXDATA
1000
POLARMODE
1000
1
  0
DICTIONARY
  5
12EF2
102
{ACAD_REACTORS
330
12EF1
102
}
330
12EF1
100
AcDbDictionary
281
     1
  0
LAYOUT
  5
12D77
102
{ACAD_XDICTIONARY
360
1472F
102
}
102
{ACAD_REACTORS
330
12D75
102
}
330
12D75
100
AcDbPlotSettings
  1

  2
EPSON LP-7000C
  4

  6

 40
0.0
 41
0.0
 42
0.0
 43
0.0
 44
0.0
 45
0.0
 46
0.0
 47
0.0
 48
0.0
 49
0.0
140
0.0
141
0.0
142
1.0
143
1.0
 70
  1712
 72
     0
 73
     0
 74
     0
  7

 75
     0
147
1.0
148
0.0
149
0.0
100
AcDbLayout
  1
Model
 70
     1
 71
     0
 10
0.0
 20
0.0
 11
12.0
 21
9.0
 12
0.0
 22
0.0
 32
0.0
 14
0.0
 24
0.0
 34
0.0
 15
0.0
 25
0.0
 35
0.0
146
0.0
 13
0.0
 23
0.0
 33
0.0
 16
1.0
 26
0.0
 36
0.0
 17
0.0
 27
1.0
 37
0.0
 76
     0
330
747D
  0
LAYOUT
  5
12D78
102
{ACAD_XDICTIONARY
360
14731
102
}
102
{ACAD_REACTORS
330
12D75
102
}
330
12D75
100
AcDbPlotSettings
  1

  2
EPSON LP-7000C
  4

  6

 40
0.0
 41
0.0
 42
0.0
 43
0.0
 44
0.0
 45
0.0
 46
0.0
 47
0.0
 48
0.0
 49
0.0
140
0.0
141
0.0
142
1.0
143
1.0
 70
   688
 72
     0
 73
     0
 74
     5
  7

 75
    16
147
1.0
148
0.0
149
0.0
100
AcDbLayout
  1
レイアウト1
 70
     0
 71
     1
 10
0.0
 20
0.0
 11
420.0
 21
297.0
 12
0.0
 22
0.0
 32
0.0
 14
1.000000000000000E+20
 24
1.000000000000000E+20
 34
1.000000000000000E+20
 15
-1.000000000000000E+20
 25
-1.000000000000000E+20
 35
-1.000000000000000E+20
146
0.0
 13
0.0
 23
0.0
 33
0.0
 16
1.0
 26
0.0
 36
0.0
 17
0.0
 27
1.0
 37
0.0
 76
     0
330
747A
  0
MLINESTYLE
  5
7480
102
{ACAD_REACTORS
330
7473
102
}
330
7473
100
AcDbMlineStyle
  2
STANDARD
 70
     0
  3

 62
     0
 51
90.0
 52
90.0
 71
     2
 49
0.5
 62
   256
  6
BYLAYER
 49
-0.5
 62
   256
  6
BYLAYER
  0
ACDBPLACEHOLDER
  5
12D72
102
{ACAD_REACTORS
330
12D71
102
}
330
12D71
  0
XRECORD
  5
1472E
102
{ACAD_REACTORS
330
1472C
102
}
330
1472C
100
AcDbXrecord
280
     1
340
12D74
  0
XRECORD
  5
1472D
102
{ACAD_REACTORS
330
1472C
102
}
330
1472C
100
AcDbXrecord
280
     1
340
12D73
  0
DICTIONARYVAR
  5
14729
102
{ACAD_REACTORS
330
14728
102
}
330
14728
100
DictionaryVariables
280
     0
  1
1
  0
DICTIONARYVAR
  5
1472A
102
{ACAD_REACTORS
330
14728
102
}
330
14728
100
DictionaryVariables
280
     0
  1

  0
DICTIONARY
  5
1472F
330
12D77
100
AcDbDictionary
280
     1
281
     1
  3
ACAD_XREC_ROUNDTRIP
360
14730
  0
DICTIONARY
  5
14731
330
12D78
100
AcDbDictionary
280
     1
281
     1
  3
ACAD_XREC_ROUNDTRIP
360
14732
  0
XRECORD
  5
14730
102
{ACAD_REACTORS
330
1472F
102
}
330
1472F
100
AcDbXrecord
280
     1
102
SHADEPLOT
 70
     0
102
SHADEPLOTRESLEVEL
 70
     2
102
SHADEPLOTCUSTOMDPI
 70
   300
  0
XRECORD
  5
14732
102
{ACAD_REACTORS
330
14731
102
}
330
14731
100
AcDbXrecord
280
     1
102
SHADEPLOT
 70
     0
102
SHADEPLOTRESLEVEL
 70
     2
102
SHADEPLOTCUSTOMDPI
 70
   300
  0
ENDSEC
  0
EOF
