  0
SECTION
  2
HEADER
  9
$ACADVER
  1
AC1015
  9
$ACADMAINTVER
 70
    20
  9
$DWGCODEPAGE
  3
ANSI_932
  9
$INSBASE
 10
0.0
 20
0.0
 30
0.0
  9
$EXTMIN
 10
139.9999999999994
 20
-0.0000000000000909
 30
0.0
  9
$EXTMAX
 10
16307.2
 20
11409.6
 30
0.0
  9
$LIMMIN
 10
0.0
 20
0.0
  9
$LIMMAX
 10
16800.0
 20
11880.0
  9
$ORTHOMODE
 70
     0
  9
$REGENMODE
 70
     1
  9
$FILLMODE
 70
     1
  9
$QTEXTMODE
 70
     0
  9
$MIRRTEXT
 70
     1
  9
$LTSCALE
 40
20.0
  9
$ATTMODE
 70
     1
  9
$TEXTSIZE
 40
100.0
  9
$TRACEWID
 40
1.0
  9
$TEXTSTYLE
  7
STYLE3
  9
$CLAYER
  8
寸法
  9
$CELTYPE
  6
BYLAYER
  9
$CECOLOR
 62
   256
  9
$CELTSCALE
 40
50.0
  9
$DISPSILH
 70
     0
  9
$DIMSCALE
 40
40.0
  9
$DIMASZ
 40
0.5
  9
$DIMEXO
 40
0.5
  9
$DIMDLI
 40
7.0
  9
$DIMRND
 40
0.0
  9
$DIMDLE
 40
0.0
  9
$DIMEXE
 40
1.0
  9
$DIMTP
 40
0.0
  9
$DIMTM
 40
0.0
  9
$DIMTXT
 40
3.0
  9
$DIMCEN
 40
0.0
  9
$DIMTSZ
 40
0.0
  9
$DIMTOL
 70
     0
  9
$DIMLIM
 70
     0
  9
$DIMTIH
 70
     0
  9
$DIMTOH
 70
     0
  9
$DIMSE1
 70
     0
  9
$DIMSE2
 70
     0
  9
$DIMTAD
 70
     3
  9
$DIMZIN
 70
     8
  9
$DIMBLK
  1

  9
$DIMASO
 70
     1
  9
$DIMSHO
 70
     1
  9
$DIMPOST
  1

  9
$DIMAPOST
  1

  9
$DIMALT
 70
     0
  9
$DIMALTD
 70
     2
  9
$DIMALTF
 40
0.0394
  9
$DIMLFAC
 40
1.0
  9
$DIMTOFL
 70
     1
  9
$DIMTVP
 40
0.0
  9
$DIMTIX
 70
     1
  9
$DIMSOXD
 70
     1
  9
$DIMSAH
 70
     1
  9
$DIMBLK1
  1
DOT
  9
$DIMBLK2
  1
DOT
  9
$DIMSTYLE
  2
INABA_S40
  9
$DIMCLRD
 70
     0
  9
$DIMCLRE
 70
     0
  9
$DIMCLRT
 70
     7
  9
$DIMTFAC
 40
1.0
  9
$DIMGAP
 40
0.8
  9
$DIMJUST
 70
     0
  9
$DIMSD1
 70
     0
  9
$DIMSD2
 70
     0
  9
$DIMTOLJ
 70
     1
  9
$DIMTZIN
 70
     0
  9
$DIMALTZ
 70
     0
  9
$DIMALTTZ
 70
     0
  9
$DIMUPT
 70
     0
  9
$DIMDEC
 70
     2
  9
$DIMTDEC
 70
     2
  9
$DIMALTU
 70
     2
  9
$DIMALTTD
 70
     2
  9
$DIMTXSTY
  7
STYLE1
  9
$DIMAUNIT
 70
     0
  9
$DIMADEC
 70
     0
  9
$DIMALTRND
 40
0.0
  9
$DIMAZIN
 70
     0
  9
$DIMDSEP
 70
    46
  9
$DIMATFIT
 70
     3
  9
$DIMFRAC
 70
     0
  9
$DIMLDRBLK
  1
DOT
  9
$DIMLUNIT
 70
     2
  9
$DIMLWD
 70
    -2
  9
$DIMLWE
 70
    -2
  9
$DIMTMOVE
 70
     0
  9
$LUNITS
 70
     2
  9
$LUPREC
 70
     1
  9
$SKETCHINC
 40
1.0
  9
$FILLETRAD
 40
5.0
  9
$AUNITS
 70
     0
  9
$AUPREC
 70
     0
  9
$MENU
  1
acad
  9
$ELEVATION
 40
0.0
  9
$PELEVATION
 40
0.0
  9
$THICKNESS
 40
0.0
  9
$LIMCHECK
 70
     0
  9
$CHAMFERA
 40
0.0
  9
$CHAMFERB
 40
0.0
  9
$CHAMFERC
 40
0.0
  9
$CHAMFERD
 40
0.0
  9
$SKPOLY
 70
     0
  9
$TDCREATE
 40
2451590.492424190
  9
$TDUCREATE
 40
2451590.117424190
  9
$TDUPDATE
 40
2455575.701261748
  9
$TDUUPDATE
 40
2455575.326261748
  9
$TDINDWG
 40
0.1786681366
  9
$TDUSRTIMER
 40
0.1786668750
  9
$USRTIMER
 70
     1
  9
$ANGBASE
 50
0.0
  9
$ANGDIR
 70
     0
  9
$PDMODE
 70
     3
  9
$PDSIZE
 40
2.0
  9
$PLINEWID
 40
0.0
  9
$SPLFRAME
 70
     0
  9
$SPLINETYPE
 70
     6
  9
$SPLINESEGS
 70
     8
  9
$HANDSEED
  5
14EC4
  9
$SURFTAB1
 70
     6
  9
$SURFTAB2
 70
     6
  9
$SURFTYPE
 70
     6
  9
$SURFU
 70
     6
  9
$SURFV
 70
     6
  9
$UCSBASE
  2

  9
$UCSNAME
  2

  9
$UCSORG
 10
0.0
 20
0.0
 30
0.0
  9
$UCSXDIR
 10
1.0
 20
0.0
 30
0.0
  9
$UCSYDIR
 10
0.0
 20
1.0
 30
0.0
  9
$UCSORTHOREF
  2

  9
$UCSORTHOVIEW
 70
     0
  9
$UCSORGTOP
 10
0.0
 20
0.0
 30
0.0
  9
$UCSORGBOTTOM
 10
0.0
 20
0.0
 30
0.0
  9
$UCSORGLEFT
 10
0.0
 20
0.0
 30
0.0
  9
$UCSORGRIGHT
 10
0.0
 20
0.0
 30
0.0
  9
$UCSORGFRONT
 10
0.0
 20
0.0
 30
0.0
  9
$UCSORGBACK
 10
0.0
 20
0.0
 30
0.0
  9
$PUCSBASE
  2

  9
$PUCSNAME
  2

  9
$PUCSORG
 10
0.0
 20
0.0
 30
0.0
  9
$PUCSXDIR
 10
1.0
 20
0.0
 30
0.0
  9
$PUCSYDIR
 10
0.0
 20
1.0
 30
0.0
  9
$PUCSORTHOREF
  2

  9
$PUCSORTHOVIEW
 70
     0
  9
$PUCSORGTOP
 10
0.0
 20
0.0
 30
0.0
  9
$PUCSORGBOTTOM
 10
0.0
 20
0.0
 30
0.0
  9
$PUCSORGLEFT
 10
0.0
 20
0.0
 30
0.0
  9
$PUCSORGRIGHT
 10
0.0
 20
0.0
 30
0.0
  9
$PUCSORGFRONT
 10
0.0
 20
0.0
 30
0.0
  9
$PUCSORGBACK
 10
0.0
 20
0.0
 30
0.0
  9
$USERI1
 70
     0
  9
$USERI2
 70
     0
  9
$USERI3
 70
     0
  9
$USERI4
 70
     0
  9
$USERI5
 70
     0
  9
$USERR1
 40
0.0
  9
$USERR2
 40
0.0
  9
$USERR3
 40
0.0
  9
$USERR4
 40
0.0
  9
$USERR5
 40
0.0
  9
$WORLDVIEW
 70
     1
  9
$SHADEDGE
 70
     3
  9
$SHADEDIF
 70
    70
  9
$TILEMODE
 70
     1
  9
$MAXACTVP
 70
    16
  9
$PINSBASE
 10
0.0
 20
0.0
 30
0.0
  9
$PLIMCHECK
 70
     0
  9
$PEXTMIN
 10
1.000000000000000E+20
 20
1.000000000000000E+20
 30
1.000000000000000E+20
  9
$PEXTMAX
 10
-1.000000000000000E+20
 20
-1.000000000000000E+20
 30
-1.000000000000000E+20
  9
$PLIMMIN
 10
0.0
 20
0.0
  9
$PLIMMAX
 10
420.0
 20
297.0
  9
$UNITMODE
 70
     0
  9
$VISRETAIN
 70
     0
  9
$PLINEGEN
 70
     0
  9
$PSLTSCALE
 70
     0
  9
$TREEDEPTH
 70
  3020
  9
$CMLSTYLE
  2
STANDARD
  9
$CMLJUST
 70
     0
  9
$CMLSCALE
 40
1.0
  9
$PROXYGRAPHICS
 70
     1
  9
$MEASUREMENT
 70
     0
  9
$CELWEIGHT
370
    -1
  9
$ENDCAPS
280
     0
  9
$JOINSTYLE
280
     0
  9
$LWDISPLAY
290
     0
  9
$INSUNITS
 70
     0
  9
$HYPERLINKBASE
  1

  9
$STYLESHEET
  1

  9
$XEDIT
290
     1
  9
$CEPSNTYPE
380
     0
  9
$PSTYLEMODE
290
     1
  9
$FINGERPRINTGUID
  2
{C02450CA-808B-4A44-978D-E900095893EC}
  9
$VERSIONGUID
  2
{EAB42DFA-A6C9-4264-A1CB-44187F75349F}
  9
$EXTNAMES
290
     1
  9
$PSVPSCALE
 40
0.0
  9
$OLESTARTUP
290
     0
  0
ENDSEC
  0
SECTION
  2
CLASSES
  0
CLASS
  1
ACDBDICTIONARYWDFLT
  2
AcDbDictionaryWithDefault
  3
ObjectDBX Classes
 90
        0
280
     0
281
     0
  0
CLASS
  1
ACDBPLACEHOLDER
  2
AcDbPlaceHolder
  3
ObjectDBX Classes
 90
        0
280
     0
281
     0
  0
CLASS
  1
LAYOUT
  2
AcDbLayout
  3
ObjectDBX Classes
 90
        0
280
     0
281
     0
  0
CLASS
  1
DICTIONARYVAR
  2
AcDbDictionaryVar
  3
ObjectDBX Classes
 90
        0
280
     0
281
     0
  0
ENDSEC
  0
SECTION
  2
TABLES
  0
TABLE
  2
VPORT
  5
746D
330
0
100
AcDbSymbolTable
 70
     2
  0
VPORT
  5
14EBC
330
746D
100
AcDbSymbolTableRecord
100
AcDbViewportTableRecord
  2
*Active
 70
     0
 10
0.0
 20
0.0
 11
1.0
 21
1.0
 12
8223.761025238502
 22
6348.450019463587
 13
0.0
 23
0.0
 14
10.0
 24
10.0
 15
10.0
 25
10.0
 16
0.0
 26
0.0
 36
1.0
 17
0.0
 27
0.0
 37
0.0
 40
12806.19294782812
 41
1.525925925925925
 42
50.0
 43
0.0
 44
0.0
 50
0.0
 51
0.0
 71
     0
 72
     0
 73
     1
 74
     0
 75
     0
 76
     0
 77
     0
 78
     0
281
     0
 65
     1
110
0.0
120
0.0
130
0.0
111
1.0
121
0.0
131
0.0
112
0.0
122
1.0
132
0.0
 79
     0
146
0.0
  0
ENDTAB
  0
TABLE
  2
LTYPE
  5
746A
330
0
100
AcDbSymbolTable
 70
     4
  0
LTYPE
  5
7477
330
746A
100
AcDbSymbolTableRecord
100
AcDbLinetypeTableRecord
  2
BYBLOCK
 70
     0
  3

 72
    65
 73
     0
 40
0.0
  0
LTYPE
  5
7478
330
746A
100
AcDbSymbolTableRecord
100
AcDbLinetypeTableRecord
  2
BYLAYER
 70
     0
  3

 72
    65
 73
     0
 40
0.0
  0
LTYPE
  5
7479
330
746A
100
AcDbSymbolTableRecord
100
AcDbLinetypeTableRecord
  2
CONTINUOUS
 70
     0
  3
Solid line
 72
    65
 73
     0
 40
0.0
  0
LTYPE
  5
7816
330
746A
100
AcDbSymbolTableRecord
100
AcDbLinetypeTableRecord
  2
CENTER
 70
     0
  3
____ _ ____ _ ____ _ ____ _ ____ _ ____ _ ____ 
 72
    65
 73
     4
 40
2.0
 49
1.25
 74
     0
 49
-0.25
 74
     0
 49
0.25
 74
     0
 49
-0.25
 74
     0
  0
LTYPE
  5
781A
330
746A
100
AcDbSymbolTableRecord
100
AcDbLinetypeTableRecord
  2
HIDDEN
 70
     0
  3
__ __ __ __ __ __ __ __ __ __ __ __ __ __ __ __
 72
    65
 73
     2
 40
0.375
 49
0.25
 74
     0
 49
-0.125
 74
     0
  0
LTYPE
  5
781B
330
746A
100
AcDbSymbolTableRecord
100
AcDbLinetypeTableRecord
  2
PHANTOM
 70
     0
  3
______  __  __  ______  __  __  ______  __  __ 
 72
    65
 73
     6
 40
2.5
 49
1.25
 74
     0
 49
-0.25
 74
     0
 49
0.25
 74
     0
 49
-0.25
 74
     0
 49
0.25
 74
     0
 49
-0.25
 74
     0
  0
ENDTAB
  0
TABLE
  2
LAYER
  5
7467
102
{ACAD_XDICTIONARY
360
13159
102
}
330
0
100
AcDbSymbolTable
 70
    13
  0
LAYER
  5
7474
330
7467
100
AcDbSymbolTableRecord
100
AcDbLayerTableRecord
  2
0
 70
     0
 62
     7
  6
CONTINUOUS
370
    -3
390
12F88
  0
LAYER
  5
DEB2
330
7467
100
AcDbSymbolTableRecord
100
AcDbLayerTableRecord
  2
センター
 70
     0
 62
     3
  6
CENTER
370
    -3
390
12F88
  0
LAYER
  5
DEB3
330
7467
100
AcDbSymbolTableRecord
100
AcDbLayerTableRecord
  2
寸法
 70
     0
 62
     4
  6
CONTINUOUS
370
    -3
390
12F88
  0
LAYER
  5
DEB4
330
7467
100
AcDbSymbolTableRecord
100
AcDbLayerTableRecord
  2
部品1
 70
     0
 62
     7
  6
CONTINUOUS
370
    -3
390
12F88
  0
LAYER
  5
DEB5
330
7467
100
AcDbSymbolTableRecord
100
AcDbLayerTableRecord
  2
補助
 70
     0
 62
    -1
  6
CONTINUOUS
370
    -3
390
12F88
  0
LAYER
  5
DEB6
330
7467
100
AcDbSymbolTableRecord
100
AcDbLayerTableRecord
  2
文字
 70
     0
 62
     7
  6
CONTINUOUS
370
    -3
390
12F88
  0
LAYER
  5
F255
330
7467
100
AcDbSymbolTableRecord
100
AcDbLayerTableRecord
  2
DEFPOINTS
 70
     0
 62
     7
  6
CONTINUOUS
290
     0
370
    -3
390
12F88
  0
LAYER
  5
10B54
330
7467
100
AcDbSymbolTableRecord
100
AcDbLayerTableRecord
  2
仕様書枠
 70
     0
 62
   230
  6
CONTINUOUS
370
    -3
390
12F88
  0
LAYER
  5
11729
330
7467
100
AcDbSymbolTableRecord
100
AcDbLayerTableRecord
  2
Ｇ_Ｌ
 70
     0
 62
    30
  6
CONTINUOUS
370
    -3
390
12F88
  0
LAYER
  5
1173F
330
7467
100
AcDbSymbolTableRecord
100
AcDbLayerTableRecord
  2
細線
 70
     0
 62
     5
  6
CONTINUOUS
370
    -3
390
12F88
  0
LAYER
  5
11740
330
7467
100
AcDbSymbolTableRecord
100
AcDbLayerTableRecord
  2
点線
 70
     0
 62
     2
  6
HIDDEN
370
    -3
390
12F88
  0
LAYER
  5
11905
330
7467
100
AcDbSymbolTableRecord
100
AcDbLayerTableRecord
  2
破線
 70
     0
 62
     2
  6
HIDDEN
370
    -3
390
12F88
  0
LAYER
  5
13158
330
7467
100
AcDbSymbolTableRecord
100
AcDbLayerTableRecord
  2
Ｇ．Ｌ
 70
     0
 62
    30
  6
CONTINUOUS
370
    -3
390
12F88
  0
ENDTAB
  0
TABLE
  2
STYLE
  5
7468
330
0
100
AcDbSymbolTable
 70
     7
  0
STYLE
  5
7475
330
7468
100
AcDbSymbolTableRecord
100
AcDbTextStyleTableRecord
  2
STANDARD
 70
     0
 40
0.0
 41
1.0
 50
0.0
 71
     0
 42
4.0
  3
txt
  4
C:\AutoCAD LT\bigfont.shx
  0
STYLE
  5
763C
330
7468
100
AcDbSymbolTableRecord
100
AcDbTextStyleTableRecord
  2
MSMINCHO
 70
     0
 40
0.0
 41
1.0
 50
0.0
 71
     0
 42
1.199999999999999
  3
C:\AutoCAD LT\msminch2.TTF
  4

  0
STYLE
  5
F5E9
330
7468
100
AcDbSymbolTableRecord
100
AcDbTextStyleTableRecord
  2

 70
     1
 40
0.0
 41
1.0
 50
0.0
 71
     0
 42
4.0
  3
ltypeshp.shx
  4

  0
STYLE
  5
F706
330
7468
100
AcDbSymbolTableRecord
100
AcDbTextStyleTableRecord
  2
STYLE1
 70
     0
 40
0.0
 41
1.0
 50
0.0
 71
     0
 42
4.0
  3
isocp.shx
  4
bigfont.shx
  0
STYLE
  5
103BF
330
7468
100
AcDbSymbolTableRecord
100
AcDbTextStyleTableRecord
  2
STYLE2
 70
     0
 40
0.0
 41
1.0
 50
0.0
 71
     0
 42
100.0
  3
MS PGothic.ttf
  4

1001
ACAD
1000
MS PGothic
1071
    32818
  0
STYLE
  5
10BAA
330
7468
100
AcDbSymbolTableRecord
100
AcDbTextStyleTableRecord
  2
STYLE3
 70
     0
 40
0.0
 41
1.0
 50
0.0
 71
     0
 42
100.0
  3

  4

1001
ACAD
1000
DFPGothic-EB
1071
    32818
  0
STYLE
  5
11906
330
7468
100
AcDbSymbolTableRecord
100
AcDbTextStyleTableRecord
  2
MSGOTHIC
 70
     0
 40
0.0
 41
1.0
 50
0.0
 71
     0
 42
3.5
  3
msgothi2.ttf
  4

  0
ENDTAB
  0
TABLE
  2
VIEW
  5
746B
330
0
100
AcDbSymbolTable
 70
     0
  0
ENDTAB
  0
TABLE
  2
UCS
  5
746C
330
0
100
AcDbSymbolTable
 70
     0
  0
ENDTAB
  0
TABLE
  2
APPID
  5
746E
330
0
100
AcDbSymbolTable
 70
     6
  0
APPID
  5
7476
330
746E
100
AcDbSymbolTableRecord
100
AcDbRegAppTableRecord
  2
ACAD
 70
     0
  0
APPID
  5
DEA9
330
746E
100
AcDbSymbolTableRecord
100
AcDbRegAppTableRecord
  2
CONTENTBLOCKICON
 70
     0
  0
APPID
  5
DEAA
330
746E
100
AcDbSymbolTableRecord
100
AcDbRegAppTableRecord
  2
CONTENTBLOCKDESCRIPTION
 70
     0
  0
APPID
  5
E71D
330
746E
100
AcDbSymbolTableRecord
100
AcDbRegAppTableRecord
  2
CONTENTTABDATA
 70
     0
  0
APPID
  5
E71E
330
746E
100
AcDbSymbolTableRecord
100
AcDbRegAppTableRecord
  2
CONTENTCURRENTTAB
 70
     0
  0
APPID
  5
F3BA
330
746E
100
AcDbSymbolTableRecord
100
AcDbRegAppTableRecord
  2
DRAWINGVARIABLESXDATA
 70
     0
  0
ENDTAB
  0
TABLE
  2
DIMSTYLE
  5
746F
330
0
100
AcDbSymbolTable
 70
     6
100
AcDbDimStyleTable
 71
     1
340
F236
  0
DIMSTYLE
105
7484
330
746F
100
AcDbSymbolTableRecord
100
AcDbDimStyleTableRecord
  2
JIS
 70
     0
 41
2.5
 42
1.0
 43
7.0
 44
1.0
 73
     0
 74
     0
 77
     1
 78
     8
140
2.5
141
0.0
143
0.0394
147
0.0
172
     1
174
     1
175
     1
340
7475
  0
DIMSTYLE
105
F236
102
{ACAD_REACTORS
330
120D6
330
120D7
330
120D8
330
120D9
330
120DA
330
12121
330
121FB
330
121FC
330
121FD
330
1221B
330
12240
330
12294
330
1229F
330
1383F
330
13840
330
13854
330
13856
330
13857
330
13858
330
13864
330
146DA
330
149A9
102
}
330
746F
100
AcDbSymbolTableRecord
100
AcDbDimStyleTableRecord
  2
INABA_S40
 70
     0
 40
40.0
 41
2.5
 42
0.5
 43
7.0
 44
1.5
 73
     0
 74
     0
 77
     3
 78
     8
140
3.0
141
0.0
143
0.0394
147
1.0
172
     1
173
     1
174
     1
175
     1
178
     7
340
7475
  0
DIMSTYLE
105
F71F
102
{ACAD_REACTORS
330
135E1
330
135FF
330
13600
330
13601
330
13602
330
13603
330
13C55
330
13C54
330
13C53
330
13CB1
330
149AA
330
14E09
102
}
330
746F
100
AcDbSymbolTableRecord
100
AcDbDimStyleTableRecord
  2
INABA_S40G
 70
     0
 40
40.0
 41
2.5
 42
0.5
 43
7.0
 44
1.5
 73
     0
 74
     0
 77
     3
 78
     8
140
3.0
141
0.0
143
0.0394
147
1.0
172
     1
173
     1
174
     1
175
     1
178
     7
271
     1
340
F706
341
F770
343
F770
344
F770
  0
DIMSTYLE
105
11907
102
{ACAD_REACTORS
330
12121
102
}
330
746F
100
AcDbSymbolTableRecord
100
AcDbDimStyleTableRecord
  2
INABA_S50
 70
     0
 40
50.0
 41
0.5
 42
0.5
 43
7.0
 44
1.0
 73
     0
 74
     0
 77
     3
 78
     8
140
2.5
141
0.0
143
0.0394
147
0.8
172
     1
173
     1
174
     1
175
     1
178
     7
271
     2
272
     2
340
7475
341
F744
343
F744
344
F744
  0
DIMSTYLE
105
11908
102
{ACAD_REACTORS
330
120D6
330
120D7
330
120D8
330
120D9
330
120DA
330
121FB
330
121FC
330
121FD
330
1221B
330
12240
330
12294
330
1229F
102
}
330
746F
100
AcDbSymbolTableRecord
100
AcDbDimStyleTableRecord
  2
INABA_S50G
 70
     0
 41
125.0
 42
25.0
 43
7.0
 44
75.0
 73
     0
 74
     0
 77
     3
 78
     8
140
150.0
141
0.0
143
0.0394
147
25.0
172
     1
173
     1
174
     1
175
     1
178
     7
271
     1
340
F706
341
F770
343
F770
344
F770
  0
DIMSTYLE
105
14E53
330
746F
100
AcDbSymbolTableRecord
100
AcDbDimStyleTableRecord
  2
INABA_S20G
 70
     0
 40
20.0
 41
2.5
 42
0.5
 43
7.0
 44
1.5
 73
     0
 74
     0
 77
     3
 78
     8
140
3.0
141
0.0
143
0.0394
147
1.0
172
     1
173
     1
174
     1
178
     7
271
     1
340
F706
341
F770
343
F770
344
F770
  0
ENDTAB
  0
TABLE
  2
BLOCK_RECORD
  5
7466
330
0
100
AcDbSymbolTable
 70
    38
  0
BLOCK_RECORD
  5
747D
102
{ACAD_XDICTIONARY
360
12E48
102
}
330
7466
100
AcDbSymbolTableRecord
100
AcDbBlockTableRecord
  2
*MODEL_SPACE
340
12F89
  0
BLOCK_RECORD
  5
747A
102
{ACAD_XDICTIONARY
360
12E46
102
}
330
7466
100
AcDbSymbolTableRecord
100
AcDbBlockTableRecord
  2
*PAPER_SPACE
340
12F8A
  0
BLOCK_RECORD
  5
ECB3
330
7466
100
AcDbSymbolTableRecord
100
AcDbBlockTableRecord
  2
作図枠S50
340
0
310
2800000020000000200000000100040000000000000200000000000000000000000000000000000000000000000080000080000000808000800000008000800080800000C0C0C000808080000000FF0000FF000000FFFF00FF000000FF00FF00FFFF0000FFFFFF00FFFFFFFFFFFFFFFFFFFFFFFFFFFFFFFFFFFFFFFFFFFFFF
310
FFFFFFFFFFFFFFFFFFFFFFFFFFFFFFFFFFFFFFFFFFFFFFFFFFFFFFFFFFFFFFFFFFFFFFFFFFFFFFFFFFFFFFFFFFFFFFFFFFFFFFFFFFFFFFFFFFFFFFFFFFFFFFFFFFFFFFFFFFFFFFFFFF999999999999999999999999999999999FFFFFFFFFFFFFFFFFFFFFFFFFFFFFF99FFFFFFFFFFFFFFFFFFFFFFFFFFFFFF99FFFFFFFFFFF
310
FFFFFFFFFFFFFFFFFFF99FFFFFFFFFFFFFFFFFFFFFFFFFFFFFF99FFFFFFFFFFFFFFFFFFFFFFFFFFFFFF99FFFFFFFFFFFFFFFFFFFFFFFFFFFFFF99FFFFFFFFFFFFFFFFFFFFFFFFFFFFFF99FFFFFFFFFFFFFFFFFFFFFFFFFFFFFF99FFFFFFFFFFFFFFFFFFFFFFFFFFFFFF99FFFFFFFFFFFFFFFFFFFFFFFFFFFFFF99FFFFFFFFF
310
FFFFFFFFFFFFFFFFFFFFF99FFFFFFFFFFFFFFFFFFFFFFFFFFFFFF99FFFFFFFFFFFFFFFFFFFFFFFFFFFFFF99FFFFFFFFFFFFFFFFFFFFFFFFFFFFFF99FFFFFFFFFFFFFFFFFFFFFFFFFFFFFF99FFFFFFFFFFFFFFFFFFFFFFFFFFFFFF99FFFFFFFFFFFFFFFFFFFFFFFFFFFFFF99FFFFFFFFFFFFFFFFFFFFF99999999999FFFFFFF
310
FFFFFFFFFFFFFF9FFFFFFFFF99999999999999999999999FFFFFFFFFFFFFFFFFFFFFFFFFFFFFFFFFFFFFFFFFFFFFFFFFFFFFFFFFFFFFFFFFFFFFFFFFFFFFFFFFFFFFFFFFFFFFFFFFFFFFFFFFFFFFFFFFFFFFFFFFFFFFFFFFFFFFFFFFFFFFFFFFFFFFFFFFFFFFFFFFFFFFFFFF
102
{BLKREFS
331
F235
102
}
  0
BLOCK_RECORD
  5
F744
330
7466
100
AcDbSymbolTableRecord
100
AcDbBlockTableRecord
  2
_DOT
340
0
102
{BLKREFS
331
14189
331
1418A
331
14194
331
14195
331
1419F
331
141A0
331
141A8
331
141A9
331
141B1
331
141B2
331
141BA
331
141BB
331
141C3
331
141C4
331
14206
331
14207
331
14D33
331
14D34
331
14D3C
331
14D3D
331
14D45
331
14D46
331
14D4E
331
14D4F
331
14D59
331
14D5A
331
14D62
331
14D63
331
14D6B
331
14D6C
331
14D74
331
14D75
331
14D7F
331
14D80
331
14D88
331
14D89
331
14D93
331
14D94
331
14D9C
331
14D9D
331
14DA7
331
14DA8
331
14DD6
331
14DD7
102
}
  0
BLOCK_RECORD
  5
F770
330
7466
100
AcDbSymbolTableRecord
100
AcDbBlockTableRecord
  2
_DOTSMALL
340
0
102
{BLKREFS
331
14163
331
14164
331
1416E
331
1416F
331
14177
331
14178
331
14180
331
14181
331
141CD
331
141CE
331
141D6
331
141D7
331
141DF
331
141E0
331
141EA
331
141EB
331
141F4
331
141F5
331
141FD
331
141FE
331
14D1F
331
14D20
331
14E19
331
14E1A
102
}
  0
BLOCK_RECORD
  5
12352
330
7466
100
AcDbSymbolTableRecord
100
AcDbBlockTableRecord
  2
*D3
340
0
  0
BLOCK_RECORD
  5
1235F
330
7466
100
AcDbSymbolTableRecord
100
AcDbBlockTableRecord
  2
*D4
340
0
  0
BLOCK_RECORD
  5
1236B
330
7466
100
AcDbSymbolTableRecord
100
AcDbBlockTableRecord
  2
*D5
340
0
  0
BLOCK_RECORD
  5
12378
330
7466
100
AcDbSymbolTableRecord
100
AcDbBlockTableRecord
  2
*D6
340
0
  0
BLOCK_RECORD
  5
12384
330
7466
100
AcDbSymbolTableRecord
100
AcDbBlockTableRecord
  2
*D7
340
0
  0
BLOCK_RECORD
  5
123B7
330
7466
100
AcDbSymbolTableRecord
100
AcDbBlockTableRecord
  2
*D8
340
0
  0
BLOCK_RECORD
  5
123CF
330
7466
100
AcDbSymbolTableRecord
100
AcDbBlockTableRecord
  2
*D9
340
0
  0
BLOCK_RECORD
  5
123DB
330
7466
100
AcDbSymbolTableRecord
100
AcDbBlockTableRecord
  2
*D10
340
0
  0
BLOCK_RECORD
  5
123E7
330
7466
100
AcDbSymbolTableRecord
100
AcDbBlockTableRecord
  2
*D11
340
0
  0
BLOCK_RECORD
  5
123F3
330
7466
100
AcDbSymbolTableRecord
100
AcDbBlockTableRecord
  2
*D12
340
0
  0
BLOCK_RECORD
  5
12400
330
7466
100
AcDbSymbolTableRecord
100
AcDbBlockTableRecord
  2
*D13
340
0
  0
BLOCK_RECORD
  5
1240C
330
7466
100
AcDbSymbolTableRecord
100
AcDbBlockTableRecord
  2
*D14
340
0
  0
BLOCK_RECORD
  5
12418
330
7466
100
AcDbSymbolTableRecord
100
AcDbBlockTableRecord
  2
*D15
340
0
  0
BLOCK_RECORD
  5
1390D
330
7466
100
AcDbSymbolTableRecord
100
AcDbBlockTableRecord
  2
*D16
340
0
  0
BLOCK_RECORD
  5
13919
330
7466
100
AcDbSymbolTableRecord
100
AcDbBlockTableRecord
  2
*D17
340
0
  0
BLOCK_RECORD
  5
13926
330
7466
100
AcDbSymbolTableRecord
100
AcDbBlockTableRecord
  2
*D18
340
0
  0
BLOCK_RECORD
  5
13934
330
7466
100
AcDbSymbolTableRecord
100
AcDbBlockTableRecord
  2
*D19
340
0
  0
BLOCK_RECORD
  5
13940
330
7466
100
AcDbSymbolTableRecord
100
AcDbBlockTableRecord
  2
*D20
340
0
  0
BLOCK_RECORD
  5
1394C
330
7466
100
AcDbSymbolTableRecord
100
AcDbBlockTableRecord
  2
*D21
340
0
  0
BLOCK_RECORD
  5
13A41
330
7466
100
AcDbSymbolTableRecord
100
AcDbBlockTableRecord
  2
*D22
340
0
  0
BLOCK_RECORD
  5
13A4D
330
7466
100
AcDbSymbolTableRecord
100
AcDbBlockTableRecord
  2
*D23
340
0
  0
BLOCK_RECORD
  5
13A59
330
7466
100
AcDbSymbolTableRecord
100
AcDbBlockTableRecord
  2
*D24
340
0
  0
BLOCK_RECORD
  5
13A65
330
7466
100
AcDbSymbolTableRecord
100
AcDbBlockTableRecord
  2
*D25
340
0
  0
BLOCK_RECORD
  5
13A71
330
7466
100
AcDbSymbolTableRecord
100
AcDbBlockTableRecord
  2
*D26
340
0
  0
BLOCK_RECORD
  5
13A7F
330
7466
100
AcDbSymbolTableRecord
100
AcDbBlockTableRecord
  2
*D27
340
0
  0
BLOCK_RECORD
  5
13A8D
330
7466
100
AcDbSymbolTableRecord
100
AcDbBlockTableRecord
  2
*D28
340
0
  0
BLOCK_RECORD
  5
13C6E
330
7466
100
AcDbSymbolTableRecord
100
AcDbBlockTableRecord
  2
*D29
340
0
  0
BLOCK_RECORD
  5
13C7C
330
7466
100
AcDbSymbolTableRecord
100
AcDbBlockTableRecord
  2
*D30
340
0
  0
BLOCK_RECORD
  5
13C88
330
7466
100
AcDbSymbolTableRecord
100
AcDbBlockTableRecord
  2
*D31
340
0
  0
BLOCK_RECORD
  5
13CBC
330
7466
100
AcDbSymbolTableRecord
100
AcDbBlockTableRecord
  2
*D32
340
0
  0
BLOCK_RECORD
  5
1420C
330
7466
100
AcDbSymbolTableRecord
100
AcDbBlockTableRecord
  2
A$C1DBC49FF
340
0
  0
BLOCK_RECORD
  5
14745
330
7466
100
AcDbSymbolTableRecord
100
AcDbBlockTableRecord
  2
*D34
340
0
  0
BLOCK_RECORD
  5
14ADA
330
7466
100
AcDbSymbolTableRecord
100
AcDbBlockTableRecord
  2
*D35
340
0
  0
BLOCK_RECORD
  5
14AE8
330
7466
100
AcDbSymbolTableRecord
100
AcDbBlockTableRecord
  2
*D36
340
0
  0
BLOCK_RECORD
  5
14E0A
330
7466
100
AcDbSymbolTableRecord
100
AcDbBlockTableRecord
  2
*D37
340
0
  0
ENDTAB
  0
ENDSEC
  0
SECTION
  2
BLOCKS
  0
BLOCK
  5
7489
330
747D
100
AcDbEntity
  8
0
100
AcDbBlockBegin
  2
*MODEL_SPACE
 70
     0
 10
0.0
 20
0.0
 30
0.0
  3
*MODEL_SPACE
  1

  0
ENDBLK
  5
748A
330
747D
100
AcDbEntity
  8
0
100
AcDbBlockEnd
  0
BLOCK
  5
7487
330
747A
100
AcDbEntity
 67
     1
  8
0
100
AcDbBlockBegin
  2
*PAPER_SPACE
 70
     0
 10
0.0
 20
0.0
 30
0.0
  3
*PAPER_SPACE
  1

  0
ENDBLK
  5
7488
330
747A
100
AcDbEntity
 67
     1
  8
0
100
AcDbBlockEnd
  0
BLOCK
  5
ECB4
330
ECB3
100
AcDbEntity
  8
0
100
AcDbBlockBegin
  2
作図枠S50
 70
     0
 10
0.0
 20
0.0
 30
0.0
  3
作図枠S50
  1

  4
作図領域枠 縮尺 1/50
  0
LINE
  5
ECB5
330
ECB3
100
AcDbEntity
  8
補助
100
AcDbLine
 10
14364.0
 20
14262.0
 30
0.0
 11
174.9999999999993
 21
14262.0
 31
0.0
  0
LINE
  5
ECB6
330
ECB3
100
AcDbEntity
  8
補助
100
AcDbLine
 10
174.9999999999993
 20
14262.0
 30
0.0
 11
174.9999999999993
 21
1520.0
 31
0.0
  0
LINE
  5
ECB7
330
ECB3
100
AcDbEntity
  8
補助
100
AcDbLine
 10
174.9999999999993
 20
1520.0
 30
0.0
 11
20384.0
 21
1520.0
 31
0.0
  0
LINE
  5
ECB8
330
ECB3
100
AcDbEntity
  8
補助
100
AcDbLine
 10
20384.0
 20
1520.0
 30
0.0
 11
20384.0
 21
13041.99999999999
 31
0.0
  0
LINE
  5
ECB9
330
ECB3
100
AcDbEntity
  8
補助
100
AcDbLine
 10
20384.0
 20
13041.99999999999
 30
0.0
 11
14364.0
 21
13041.99999999999
 31
0.0
  0
LINE
  5
ECBA
330
ECB3
100
AcDbEntity
  8
補助
100
AcDbLine
 10
14364.0
 20
13041.99999999999
 30
0.0
 11
14364.0
 21
14262.0
 31
0.0
  0
ENDBLK
  5
ECBB
330
ECB3
100
AcDbEntity
  8
0
100
AcDbBlockEnd
  0
BLOCK
  5
F745
330
F744
100
AcDbEntity
  8
0
 48
50.0
100
AcDbBlockBegin
  2
_DOT
 70
     0
 10
0.0
 20
0.0
 30
0.0
  3
_DOT
  1

  0
LWPOLYLINE
  5
F746
330
F744
100
AcDbEntity
  8
0
  6
ByBlock
 62
     0
 48
50.0
100
AcDbPolyline
 90
        2
 70
     1
 43
0.5
 10
-0.25
 20
0.0
 42
1.0
 10
0.25
 20
0.0
 42
1.0
  0
LINE
  5
F74A
330
F744
100
AcDbEntity
  8
0
  6
ByBlock
 62
     0
 48
50.0
100
AcDbLine
 10
-0.5
 20
0.0
 30
0.0
 11
-1.0
 21
0.0
 31
0.0
  0
ENDBLK
  5
F74B
330
F744
100
AcDbEntity
  8
0
 48
50.0
100
AcDbBlockEnd
  0
BLOCK
  5
F771
330
F770
100
AcDbEntity
  8
0
 48
50.0
100
AcDbBlockBegin
  2
_DOTSMALL
 70
     0
 10
0.0
 20
0.0
 30
0.0
  3
_DOTSMALL
  1

  0
LWPOLYLINE
  5
F772
330
F770
100
AcDbEntity
  8
0
  6
ByBlock
 62
     0
 48
50.0
100
AcDbPolyline
 90
        2
 70
     1
 43
0.5
 10
-0.0625
 20
0.0
 42
1.0
 10
0.0625
 20
0.0
 42
1.0
  0
ENDBLK
  5
F776
330
F770
100
AcDbEntity
  8
0
 48
50.0
100
AcDbBlockEnd
  0
BLOCK
  5
129B7
330
12352
100
AcDbEntity
  8
0
 48
50.0
100
AcDbBlockBegin
  2
*D3
 70
     1
 10
0.0
 20
0.0
 30
0.0
  3
*D3
  1

  0
LINE
  5
14DA2
330
12352
100
AcDbEntity
  8
寸法
 62
     0
 48
50.0
370
    -2
100
AcDbLine
 10
8363.904397928898
 20
9946.291881376444
 30
0.0
 11
8363.904397928898
 21
10341.00429139523
 31
0.0
  0
LINE
  5
14DA3
330
12352
100
AcDbEntity
  8
寸法
 62
     0
 48
50.0
370
    -2
100
AcDbLine
 10
8418.904397928898
 20
9946.291881376442
 30
0.0
 11
8418.904397928898
 21
10341.00429139523
 31
0.0
  0
LINE
  5
14DA4
330
12352
100
AcDbEntity
  8
寸法
 62
     0
 48
50.0
370
    -2
100
AcDbLine
 10
8343.904397928898
 20
10301.00429139523
 30
0.0
 11
8323.904397928897
 21
10301.00429139523
 31
0.0
  0
LINE
  5
14DA5
330
12352
100
AcDbEntity
  8
寸法
 62
     0
 48
50.0
370
    -2
100
AcDbLine
 10
8438.904397928899
 20
10301.00429139523
 30
0.0
 11
8913.556345969805
 21
10301.00429139523
 31
0.0
  0
LINE
  5
14DA6
330
12352
100
AcDbEntity
  8
寸法
 62
     0
 48
50.0
370
    -2
100
AcDbLine
 10
8363.904397928898
 20
10301.00429139523
 30
0.0
 11
8418.904397928898
 21
10301.00429139523
 31
0.0
  0
INSERT
  5
14DA7
330
12352
100
AcDbEntity
  8
寸法
 62
     0
 48
50.0
370
    -2
100
AcDbBlockReference
  2
_DOT
 10
8363.904397928898
 20
10301.00429139523
 30
0.0
 41
20.0
 42
20.0
 43
20.0
  0
INSERT
  5
14DA8
330
12352
100
AcDbEntity
  8
寸法
 62
     0
 48
50.0
370
    -2
100
AcDbBlockReference
  2
_DOT
 10
8418.904397928898
 20
10301.00429139523
 30
0.0
 41
20.0
 42
20.0
 43
20.0
 50
180.0
  0
MTEXT
  5
14DA9
330
12352
100
AcDbEntity
  8
寸法
 62
     7
 48
50.0
100
AcDbMText
 10
8813.071064595566
 20
10393.00429139524
 30
0.0
 40
120.0
 41
0.0
 71
     5
 72
     1
  1
\A1;55
  7
STYLE1
 73
     1
 44
1.0
1001
ACAD
1000
MTEXTBEGIN
1070
    73
1070
     1
1070
    44
1040
1.0
1070
    74
1070
     0
1000
MTEXTEND
  0
POINT
  5
14DAA
330
12352
100
AcDbEntity
  8
DEFPOINTS
 62
     0
 48
50.0
100
AcDbPoint
 10
8363.904397928898
 20
9926.291881376442
 30
0.0
  0
POINT
  5
14DAB
330
12352
100
AcDbEntity
  8
DEFPOINTS
 62
     0
 48
50.0
100
AcDbPoint
 10
8418.904397928898
 20
9926.291881376442
 30
0.0
  0
POINT
  5
14DAC
330
12352
100
AcDbEntity
  8
DEFPOINTS
 62
     0
 48
50.0
100
AcDbPoint
 10
8418.904397928898
 20
10301.00429139523
 30
0.0
  0
ENDBLK
  5
129C3
330
12352
100
AcDbEntity
  8
0
 48
50.0
100
AcDbBlockEnd
  0
BLOCK
  5
12BE6
330
1235F
100
AcDbEntity
  8
0
 48
50.0
100
AcDbBlockBegin
  2
*D4
 70
     1
 10
0.0
 20
0.0
 30
0.0
  3
*D4
  1

  0
LINE
  5
14D99
330
1235F
100
AcDbEntity
  8
寸法
 62
     0
 48
50.0
370
    -2
100
AcDbLine
 10
8438.904397928899
 20
9926.291881376442
 30
0.0
 11
9529.651514973251
 21
9926.291881376442
 31
0.0
  0
LINE
  5
14D9A
330
1235F
100
AcDbEntity
  8
寸法
 62
     0
 48
50.0
370
    -2
100
AcDbLine
 10
8438.904397928899
 20
8136.291881376441
 30
0.0
 11
9529.651514973251
 21
8136.291881376441
 31
0.0
  0
LINE
  5
14D9B
330
1235F
100
AcDbEntity
  8
寸法
 62
     0
 48
50.0
370
    -2
100
AcDbLine
 10
9489.651514973251
 20
9906.291881376441
 30
0.0
 11
9489.651514973251
 21
8156.291881376441
 31
0.0
  0
INSERT
  5
14D9C
330
1235F
100
AcDbEntity
  8
寸法
 62
     0
 48
50.0
370
    -2
100
AcDbBlockReference
  2
_DOT
 10
9489.651514973251
 20
9926.291881376442
 30
0.0
 41
20.0
 42
20.0
 43
20.0
 50
90.0
  0
INSERT
  5
14D9D
330
1235F
100
AcDbEntity
  8
寸法
 62
     0
 48
50.0
370
    -2
100
AcDbBlockReference
  2
_DOT
 10
9489.651514973251
 20
8136.291881376441
 30
0.0
 41
20.0
 42
20.0
 43
20.0
 50
270.0
  0
MTEXT
  5
14D9E
330
1235F
100
AcDbEntity
  8
寸法
 62
     7
 48
50.0
100
AcDbMText
 10
9397.651514973249
 20
9031.291881376443
 30
0.0
 40
120.0
 41
0.0
 71
     5
 72
     1
  1
\A1;1790
  7
STYLE1
 11
0.0000000000000001
 21
1.0
 31
0.0
 73
     1
 44
1.0
1001
ACAD
1000
MTEXTBEGIN
1070
    73
1070
     1
1070
    44
1040
1.0
1070
    74
1070
     0
1000
MTEXTEND
  0
POINT
  5
14D9F
330
1235F
100
AcDbEntity
  8
DEFPOINTS
 62
     0
 48
50.0
100
AcDbPoint
 10
8418.904397928898
 20
9926.291881376442
 30
0.0
  0
POINT
  5
14DA0
330
1235F
100
AcDbEntity
  8
DEFPOINTS
 62
     0
 48
50.0
100
AcDbPoint
 10
8418.904397928898
 20
8136.291881376441
 30
0.0
  0
POINT
  5
14DA1
330
1235F
100
AcDbEntity
  8
DEFPOINTS
 62
     0
 48
50.0
100
AcDbPoint
 10
9489.651514973251
 20
8136.291881376441
 30
0.0
  0
ENDBLK
  5
12BF0
330
1235F
100
AcDbEntity
  8
0
 48
50.0
100
AcDbBlockEnd
  0
BLOCK
  5
1299D
330
1236B
100
AcDbEntity
  8
0
 48
50.0
100
AcDbBlockBegin
  2
*D5
 70
     1
 10
0.0
 20
0.0
 30
0.0
  3
*D5
  1

  0
LINE
  5
14D8E
330
1236B
100
AcDbEntity
  8
寸法
 62
     0
 48
50.0
370
    -2
100
AcDbLine
 10
8438.904397928899
 20
8191.291881376438
 30
0.0
 11
9229.651514973253
 21
8191.291881376438
 31
0.0
  0
LINE
  5
14D8F
330
1236B
100
AcDbEntity
  8
寸法
 62
     0
 48
50.0
370
    -2
100
AcDbLine
 10
8438.904397928899
 20
8136.291881376441
 30
0.0
 11
9229.651514973253
 21
8136.291881376441
 31
0.0
  0
LINE
  5
14D90
330
1236B
100
AcDbEntity
  8
寸法
 62
     0
 48
50.0
370
    -2
100
AcDbLine
 10
9189.651514973254
 20
8211.291881376437
 30
0.0
 11
9189.651514973254
 21
8231.291881376437
 31
0.0
  0
LINE
  5
14D91
330
1236B
100
AcDbEntity
  8
寸法
 62
     0
 48
50.0
370
    -2
100
AcDbLine
 10
9189.651514973254
 20
8116.29188137644
 30
0.0
 11
9189.651514973254
 21
7641.639933335536
 31
0.0
  0
LINE
  5
14D92
330
1236B
100
AcDbEntity
  8
寸法
 62
     0
 48
50.0
370
    -2
100
AcDbLine
 10
9189.651514973254
 20
8191.291881376438
 30
0.0
 11
9189.651514973254
 21
8136.291881376441
 31
0.0
  0
INSERT
  5
14D93
330
1236B
100
AcDbEntity
  8
寸法
 62
     0
 48
50.0
370
    -2
100
AcDbBlockReference
  2
_DOT
 10
9189.651514973254
 20
8191.291881376438
 30
0.0
 41
20.0
 42
20.0
 43
20.0
 50
270.0
  0
INSERT
  5
14D94
330
1236B
100
AcDbEntity
  8
寸法
 62
     0
 48
50.0
370
    -2
100
AcDbBlockReference
  2
_DOT
 10
9189.651514973254
 20
8136.291881376441
 30
0.0
 41
20.0
 42
20.0
 43
20.0
 50
90.0
  0
MTEXT
  5
14D95
330
1236B
100
AcDbEntity
  8
寸法
 62
     7
 48
50.0
100
AcDbMText
 10
9097.651514973252
 20
7742.125214709776
 30
0.0
 40
120.0
 41
0.0
 71
     5
 72
     1
  1
\A1;55
  7
STYLE1
 11
0.0000000000000001
 21
1.0
 31
0.0
 73
     1
 44
1.0
1001
ACAD
1000
MTEXTBEGIN
1070
    73
1070
     1
1070
    44
1040
1.0
1070
    74
1070
     0
1000
MTEXTEND
  0
POINT
  5
14D96
330
1236B
100
AcDbEntity
  8
DEFPOINTS
 62
     0
 48
50.0
100
AcDbPoint
 10
8418.904397928898
 20
8191.291881376438
 30
0.0
  0
POINT
  5
14D97
330
1236B
100
AcDbEntity
  8
DEFPOINTS
 62
     0
 48
50.0
100
AcDbPoint
 10
8418.904397928898
 20
8136.291881376441
 30
0.0
  0
POINT
  5
14D98
330
1236B
100
AcDbEntity
  8
DEFPOINTS
 62
     0
 48
50.0
100
AcDbPoint
 10
9189.651514973254
 20
8136.291881376441
 30
0.0
  0
ENDBLK
  5
129A9
330
1236B
100
AcDbEntity
  8
0
 48
50.0
100
AcDbBlockEnd
  0
BLOCK
  5
12BF1
330
12378
100
AcDbEntity
  8
0
 48
50.0
100
AcDbBlockBegin
  2
*D6
 70
     1
 10
0.0
 20
0.0
 30
0.0
  3
*D6
  1

  0
LINE
  5
14D85
330
12378
100
AcDbEntity
  8
寸法
 62
     0
 48
50.0
370
    -2
100
AcDbLine
 10
8438.904397928899
 20
9871.291881376444
 30
0.0
 11
9229.651514973252
 21
9871.291881376444
 31
0.0
  0
LINE
  5
14D86
330
12378
100
AcDbEntity
  8
寸法
 62
     0
 48
50.0
370
    -2
100
AcDbLine
 10
8438.904397928899
 20
8191.291881376438
 30
0.0
 11
9229.651514973252
 21
8191.291881376438
 31
0.0
  0
LINE
  5
14D87
330
12378
100
AcDbEntity
  8
寸法
 62
     0
 48
50.0
370
    -2
100
AcDbLine
 10
9189.651514973251
 20
9851.291881376445
 30
0.0
 11
9189.651514973251
 21
8211.291881376437
 31
0.0
  0
INSERT
  5
14D88
330
12378
100
AcDbEntity
  8
寸法
 62
     0
 48
50.0
370
    -2
100
AcDbBlockReference
  2
_DOT
 10
9189.651514973251
 20
9871.291881376444
 30
0.0
 41
20.0
 42
20.0
 43
20.0
 50
90.0
  0
INSERT
  5
14D89
330
12378
100
AcDbEntity
  8
寸法
 62
     0
 48
50.0
370
    -2
100
AcDbBlockReference
  2
_DOT
 10
9189.651514973251
 20
8191.291881376438
 30
0.0
 41
20.0
 42
20.0
 43
20.0
 50
270.0
  0
MTEXT
  5
14D8A
330
12378
100
AcDbEntity
  8
寸法
 62
     7
 48
50.0
100
AcDbMText
 10
9097.639703949628
 20
9031.291881376443
 30
0.0
 40
120.0
 41
0.0
 71
     5
 72
     1
  1
\A1;4X420=1680
  7
STYLE1
 11
0.0000000000000001
 21
1.0
 31
0.0
 73
     1
 44
1.0
1001
ACAD
1000
MTEXTBEGIN
1070
    73
1070
     1
1070
    44
1040
1.0
1070
    74
1070
     0
1000
MTEXTEND
  0
POINT
  5
14D8B
330
12378
100
AcDbEntity
  8
DEFPOINTS
 62
     0
 48
50.0
100
AcDbPoint
 10
8418.904397928898
 20
9871.291881376444
 30
0.0
  0
POINT
  5
14D8C
330
12378
100
AcDbEntity
  8
DEFPOINTS
 62
     0
 48
50.0
100
AcDbPoint
 10
8418.904397928898
 20
8191.291881376438
 30
0.0
  0
POINT
  5
14D8D
330
12378
100
AcDbEntity
  8
DEFPOINTS
 62
     0
 48
50.0
100
AcDbPoint
 10
9189.651514973251
 20
8191.291881376438
 30
0.0
  0
ENDBLK
  5
12BFB
330
12378
100
AcDbEntity
  8
0
 48
50.0
100
AcDbBlockEnd
  0
BLOCK
  5
129AA
330
12384
100
AcDbEntity
  8
0
 48
50.0
100
AcDbBlockBegin
  2
*D7
 70
     1
 10
0.0
 20
0.0
 30
0.0
  3
*D7
  1

  0
LINE
  5
14D7A
330
12384
100
AcDbEntity
  8
寸法
 62
     0
 48
50.0
370
    -2
100
AcDbLine
 10
8438.904397928899
 20
9926.291881376442
 30
0.0
 11
9229.651514973253
 21
9926.291881376442
 31
0.0
  0
LINE
  5
14D7B
330
12384
100
AcDbEntity
  8
寸法
 62
     0
 48
50.0
370
    -2
100
AcDbLine
 10
8438.904397928899
 20
9871.291881376444
 30
0.0
 11
9229.651514973253
 21
9871.291881376444
 31
0.0
  0
LINE
  5
14D7C
330
12384
100
AcDbEntity
  8
寸法
 62
     0
 48
50.0
370
    -2
100
AcDbLine
 10
9189.651514973254
 20
9851.291881376445
 30
0.0
 11
9189.651514973254
 21
9831.291881376444
 31
0.0
  0
LINE
  5
14D7D
330
12384
100
AcDbEntity
  8
寸法
 62
     0
 48
50.0
370
    -2
100
AcDbLine
 10
9189.651514973254
 20
9946.291881376442
 30
0.0
 11
9189.651514973254
 21
10420.94382941734
 31
0.0
  0
LINE
  5
14D7E
330
12384
100
AcDbEntity
  8
寸法
 62
     0
 48
50.0
370
    -2
100
AcDbLine
 10
9189.651514973254
 20
9871.291881376444
 30
0.0
 11
9189.651514973254
 21
9926.291881376442
 31
0.0
  0
INSERT
  5
14D7F
330
12384
100
AcDbEntity
  8
寸法
 62
     0
 48
50.0
370
    -2
100
AcDbBlockReference
  2
_DOT
 10
9189.651514973254
 20
9871.291881376444
 30
0.0
 41
20.0
 42
20.0
 43
20.0
 50
90.0
  0
INSERT
  5
14D80
330
12384
100
AcDbEntity
  8
寸法
 62
     0
 48
50.0
370
    -2
100
AcDbBlockReference
  2
_DOT
 10
9189.651514973254
 20
9926.291881376442
 30
0.0
 41
20.0
 42
20.0
 43
20.0
 50
270.0
  0
MTEXT
  5
14D81
330
12384
100
AcDbEntity
  8
寸法
 62
     7
 48
50.0
100
AcDbMText
 10
9097.651514973252
 20
10320.45854804311
 30
0.0
 40
120.0
 41
0.0
 71
     5
 72
     1
  1
\A1;55
  7
STYLE1
 11
0.0000000000000001
 21
1.0
 31
0.0
 73
     1
 44
1.0
1001
ACAD
1000
MTEXTBEGIN
1070
    73
1070
     1
1070
    44
1040
1.0
1070
    74
1070
     0
1000
MTEXTEND
  0
POINT
  5
14D82
330
12384
100
AcDbEntity
  8
DEFPOINTS
 62
     0
 48
50.0
100
AcDbPoint
 10
8418.904397928898
 20
9926.291881376442
 30
0.0
  0
POINT
  5
14D83
330
12384
100
AcDbEntity
  8
DEFPOINTS
 62
     0
 48
50.0
100
AcDbPoint
 10
8418.904397928898
 20
9871.291881376444
 30
0.0
  0
POINT
  5
14D84
330
12384
100
AcDbEntity
  8
DEFPOINTS
 62
     0
 48
50.0
100
AcDbPoint
 10
9189.651514973254
 20
9871.291881376444
 30
0.0
  0
ENDBLK
  5
129B6
330
12384
100
AcDbEntity
  8
0
 48
50.0
100
AcDbBlockEnd
  0
BLOCK
  5
12A7B
330
123B7
100
AcDbEntity
  8
0
 48
50.0
100
AcDbBlockBegin
  2
*D8
 70
     1
 10
0.0
 20
0.0
 30
0.0
  3
*D8
  1

  0
LINE
  5
14203
330
123B7
100
AcDbEntity
  8
寸法
 62
     0
 48
50.0
370
    -2
100
AcDbLine
 10
8518.904397928897
 20
2474.732394739148
 30
0.0
 11
8518.904397928897
 21
2119.542010499936
 31
0.0
  0
LINE
  5
14204
330
123B7
100
AcDbEntity
  8
寸法
 62
     0
 48
50.0
370
    -2
100
AcDbLine
 10
8318.904397928896
 20
2474.732394739148
 30
0.0
 11
8318.904397928896
 21
2119.542010499936
 31
0.0
  0
LINE
  5
14205
330
123B7
100
AcDbEntity
  8
寸法
 62
     0
 48
50.0
370
    -2
100
AcDbLine
 10
8498.904397928896
 20
2159.542010499936
 30
0.0
 11
8338.904397928898
 21
2159.542010499936
 31
0.0
  0
INSERT
  5
14206
330
123B7
100
AcDbEntity
  8
寸法
 62
     0
 48
50.0
370
    -2
100
AcDbBlockReference
  2
_DOT
 10
8518.904397928897
 20
2159.542010499936
 30
0.0
 41
20.0
 42
20.0
 43
20.0
  0
INSERT
  5
14207
330
123B7
100
AcDbEntity
  8
寸法
 62
     0
 48
50.0
370
    -2
100
AcDbBlockReference
  2
_DOT
 10
8318.904397928896
 20
2159.542010499936
 30
0.0
 41
20.0
 42
20.0
 43
20.0
 50
180.0
  0
MTEXT
  5
14208
330
123B7
100
AcDbEntity
  8
寸法
 62
     7
 48
50.0
100
AcDbMText
 10
8418.904397928896
 20
2251.553821523558
 30
0.0
 40
120.0
 41
0.0
 71
     5
 72
     1
  1
\A1;200
  7
STYLE1
 73
     1
 44
1.0
1001
ACAD
1000
MTEXTBEGIN
1070
    73
1070
     1
1070
    44
1040
1.0
1070
    74
1070
     0
1000
MTEXTEND
  0
POINT
  5
14209
330
123B7
100
AcDbEntity
  8
DEFPOINTS
 62
     0
 48
50.0
100
AcDbPoint
 10
8518.904397928897
 20
2494.732394739148
 30
0.0
  0
POINT
  5
1420A
330
123B7
100
AcDbEntity
  8
DEFPOINTS
 62
     0
 48
50.0
100
AcDbPoint
 10
8318.904397928896
 20
2494.732394739148
 30
0.0
  0
POINT
  5
1420B
330
123B7
100
AcDbEntity
  8
DEFPOINTS
 62
     0
 48
50.0
100
AcDbPoint
 10
8318.904397928896
 20
2159.542010499936
 30
0.0
  0
ENDBLK
  5
12A85
330
123B7
100
AcDbEntity
  8
0
 48
50.0
100
AcDbBlockEnd
  0
BLOCK
  5
12AF7
330
123CF
100
AcDbEntity
  8
0
 48
50.0
100
AcDbBlockBegin
  2
*D9
 70
     1
 10
0.0
 20
0.0
 30
0.0
  3
*D9
  1

  0
LINE
  5
14D71
330
123CF
100
AcDbEntity
  8
寸法
 62
     0
 48
50.0
370
    -2
100
AcDbLine
 10
3158.904397928897
 20
9946.291881376442
 30
0.0
 11
3158.904397928897
 21
10641.00429139523
 31
0.0
  0
LINE
  5
14D72
330
123CF
100
AcDbEntity
  8
寸法
 62
     0
 48
50.0
370
    -2
100
AcDbLine
 10
8418.904397928898
 20
9946.291881376442
 30
0.0
 11
8418.904397928898
 21
10641.00429139523
 31
0.0
  0
LINE
  5
14D73
330
123CF
100
AcDbEntity
  8
寸法
 62
     0
 48
50.0
370
    -2
100
AcDbLine
 10
3178.904397928898
 20
10601.00429139523
 30
0.0
 11
8398.904397928898
 21
10601.00429139523
 31
0.0
  0
INSERT
  5
14D74
330
123CF
100
AcDbEntity
  8
寸法
 62
     0
 48
50.0
370
    -2
100
AcDbBlockReference
  2
_DOT
 10
3158.904397928897
 20
10601.00429139523
 30
0.0
 41
20.0
 42
20.0
 43
20.0
 50
180.0
  0
INSERT
  5
14D75
330
123CF
100
AcDbEntity
  8
寸法
 62
     0
 48
50.0
370
    -2
100
AcDbBlockReference
  2
_DOT
 10
8418.904397928898
 20
10601.00429139523
 30
0.0
 41
20.0
 42
20.0
 43
20.0
  0
MTEXT
  5
14D76
330
123CF
100
AcDbEntity
  8
寸法
 62
     7
 48
50.0
100
AcDbMText
 10
5788.904397928899
 20
10693.01610241886
 30
0.0
 40
120.0
 41
0.0
 71
     5
 72
     1
  1
\A1;5260
  7
STYLE1
 73
     1
 44
1.0
1001
ACAD
1000
MTEXTBEGIN
1070
    73
1070
     1
1070
    44
1040
1.0
1070
    74
1070
     0
1000
MTEXTEND
  0
POINT
  5
14D77
330
123CF
100
AcDbEntity
  8
DEFPOINTS
 62
     0
 48
50.0
100
AcDbPoint
 10
3158.904397928897
 20
9926.291881376442
 30
0.0
  0
POINT
  5
14D78
330
123CF
100
AcDbEntity
  8
DEFPOINTS
 62
     0
 48
50.0
100
AcDbPoint
 10
8418.904397928898
 20
9926.291881376442
 30
0.0
  0
POINT
  5
14D79
330
123CF
100
AcDbEntity
  8
DEFPOINTS
 62
     0
 48
50.0
100
AcDbPoint
 10
8418.904397928898
 20
10601.00429139523
 30
0.0
  0
ENDBLK
  5
12B01
330
123CF
100
AcDbEntity
  8
0
 48
50.0
100
AcDbBlockEnd
  0
BLOCK
  5
12B68
330
123DB
100
AcDbEntity
  8
0
 48
50.0
100
AcDbBlockBegin
  2
*D10
 70
     1
 10
0.0
 20
0.0
 30
0.0
  3
*D10
  1

  0
LINE
  5
14D68
330
123DB
100
AcDbEntity
  8
寸法
 62
     0
 48
50.0
370
    -2
100
AcDbLine
 10
3213.904397928898
 20
9946.291881376444
 30
0.0
 11
3213.904397928898
 21
10341.00429139523
 31
0.0
  0
LINE
  5
14D69
330
123DB
100
AcDbEntity
  8
寸法
 62
     0
 48
50.0
370
    -2
100
AcDbLine
 10
5733.904397928898
 20
9946.291881376444
 30
0.0
 11
5733.904397928898
 21
10341.00429139523
 31
0.0
  0
LINE
  5
14D6A
330
123DB
100
AcDbEntity
  8
寸法
 62
     0
 48
50.0
370
    -2
100
AcDbLine
 10
3233.904397928898
 20
10301.00429139523
 30
0.0
 11
5713.904397928899
 21
10301.00429139523
 31
0.0
  0
INSERT
  5
14D6B
330
123DB
100
AcDbEntity
  8
寸法
 62
     0
 48
50.0
370
    -2
100
AcDbBlockReference
  2
_DOT
 10
3213.904397928898
 20
10301.00429139523
 30
0.0
 41
20.0
 42
20.0
 43
20.0
 50
180.0
  0
INSERT
  5
14D6C
330
123DB
100
AcDbEntity
  8
寸法
 62
     0
 48
50.0
370
    -2
100
AcDbBlockReference
  2
_DOT
 10
5733.904397928898
 20
10301.00429139523
 30
0.0
 41
20.0
 42
20.0
 43
20.0
  0
MTEXT
  5
14D6D
330
123DB
100
AcDbEntity
  8
寸法
 62
     7
 48
50.0
100
AcDbMText
 10
4473.904397928897
 20
10393.01610241886
 30
0.0
 40
120.0
 41
0.0
 71
     5
 72
     1
  1
\A1;6X420=2520
  7
STYLE1
 73
     1
 44
1.0
1001
ACAD
1000
MTEXTBEGIN
1070
    73
1070
     1
1070
    44
1040
1.0
1070
    74
1070
     0
1000
MTEXTEND
  0
POINT
  5
14D6E
330
123DB
100
AcDbEntity
  8
DEFPOINTS
 62
     0
 48
50.0
100
AcDbPoint
 10
3213.904397928898
 20
9926.291881376442
 30
0.0
  0
POINT
  5
14D6F
330
123DB
100
AcDbEntity
  8
DEFPOINTS
 62
     0
 48
50.0
100
AcDbPoint
 10
5733.904397928898
 20
9926.291881376442
 30
0.0
  0
POINT
  5
14D70
330
123DB
100
AcDbEntity
  8
DEFPOINTS
 62
     0
 48
50.0
100
AcDbPoint
 10
5733.904397928898
 20
10301.00429139523
 30
0.0
  0
ENDBLK
  5
12B72
330
123DB
100
AcDbEntity
  8
0
 48
50.0
100
AcDbBlockEnd
  0
BLOCK
  5
12AEC
330
123E7
100
AcDbEntity
  8
0
 48
50.0
100
AcDbBlockBegin
  2
*D11
 70
     1
 10
0.0
 20
0.0
 30
0.0
  3
*D11
  1

  0
LINE
  5
14D5F
330
123E7
100
AcDbEntity
  8
寸法
 62
     0
 48
50.0
370
    -2
100
AcDbLine
 10
3158.904397928897
 20
8116.29188137644
 30
0.0
 11
3158.904397928897
 21
6771.209923873596
 31
0.0
  0
LINE
  5
14D60
330
123E7
100
AcDbEntity
  8
寸法
 62
     0
 48
50.0
370
    -2
100
AcDbLine
 10
5788.904397928899
 20
8171.29188137644
 30
0.0
 11
5788.904397928899
 21
6771.209923873596
 31
0.0
  0
LINE
  5
14D61
330
123E7
100
AcDbEntity
  8
寸法
 62
     0
 48
50.0
370
    -2
100
AcDbLine
 10
3178.904397928898
 20
6811.209923873595
 30
0.0
 11
5768.904397928899
 21
6811.209923873595
 31
0.0
  0
INSERT
  5
14D62
330
123E7
100
AcDbEntity
  8
寸法
 62
     0
 48
50.0
370
    -2
100
AcDbBlockReference
  2
_DOT
 10
3158.904397928897
 20
6811.209923873595
 30
0.0
 41
20.0
 42
20.0
 43
20.0
 50
180.0
  0
INSERT
  5
14D63
330
123E7
100
AcDbEntity
  8
寸法
 62
     0
 48
50.0
370
    -2
100
AcDbBlockReference
  2
_DOT
 10
5788.904397928899
 20
6811.209923873595
 30
0.0
 41
20.0
 42
20.0
 43
20.0
  0
MTEXT
  5
14D64
330
123E7
100
AcDbEntity
  8
寸法
 62
     7
 48
50.0
100
AcDbMText
 10
4473.904397928897
 20
6903.221734897217
 30
0.0
 40
120.0
 41
0.0
 71
     5
 72
     1
  1
\A1;2630
  7
STYLE1
 73
     1
 44
1.0
1001
ACAD
1000
MTEXTBEGIN
1070
    73
1070
     1
1070
    44
1040
1.0
1070
    74
1070
     0
1000
MTEXTEND
  0
POINT
  5
14D65
330
123E7
100
AcDbEntity
  8
DEFPOINTS
 62
     0
 48
50.0
100
AcDbPoint
 10
3158.904397928897
 20
8136.291881376441
 30
0.0
  0
POINT
  5
14D66
330
123E7
100
AcDbEntity
  8
DEFPOINTS
 62
     0
 48
50.0
100
AcDbPoint
 10
5788.904397928899
 20
8191.291881376441
 30
0.0
  0
POINT
  5
14D67
330
123E7
100
AcDbEntity
  8
DEFPOINTS
 62
     0
 48
50.0
100
AcDbPoint
 10
5788.904397928899
 20
6811.209923873595
 30
0.0
  0
ENDBLK
  5
12AF6
330
123E7
100
AcDbEntity
  8
0
 48
50.0
100
AcDbBlockEnd
  0
BLOCK
  5
1296F
330
123F3
100
AcDbEntity
  8
0
 48
50.0
100
AcDbBlockBegin
  2
*D12
 70
     1
 10
0.0
 20
0.0
 30
0.0
  3
*D12
  1

  0
LINE
  5
14D54
330
123F3
100
AcDbEntity
  8
寸法
 62
     0
 48
50.0
370
    -2
100
AcDbLine
 10
3158.904397928897
 20
9946.291881376442
 30
0.0
 11
3158.904397928897
 21
10341.00429139523
 31
0.0
  0
LINE
  5
14D55
330
123F3
100
AcDbEntity
  8
寸法
 62
     0
 48
50.0
370
    -2
100
AcDbLine
 10
3213.904397928898
 20
9946.291881376444
 30
0.0
 11
3213.904397928898
 21
10341.00429139523
 31
0.0
  0
LINE
  5
14D56
330
123F3
100
AcDbEntity
  8
寸法
 62
     0
 48
50.0
370
    -2
100
AcDbLine
 10
3233.904397928898
 20
10301.00429139523
 30
0.0
 11
3253.904397928898
 21
10301.00429139523
 31
0.0
  0
LINE
  5
14D57
330
123F3
100
AcDbEntity
  8
寸法
 62
     0
 48
50.0
370
    -2
100
AcDbLine
 10
3138.904397928897
 20
10301.00429139523
 30
0.0
 11
2664.252449887994
 21
10301.00429139523
 31
0.0
  0
LINE
  5
14D58
330
123F3
100
AcDbEntity
  8
寸法
 62
     0
 48
50.0
370
    -2
100
AcDbLine
 10
3213.904397928898
 20
10301.00429139523
 30
0.0
 11
3158.904397928897
 21
10301.00429139523
 31
0.0
  0
INSERT
  5
14D59
330
123F3
100
AcDbEntity
  8
寸法
 62
     0
 48
50.0
370
    -2
100
AcDbBlockReference
  2
_DOT
 10
3213.904397928898
 20
10301.00429139523
 30
0.0
 41
20.0
 42
20.0
 43
20.0
 50
180.0
  0
INSERT
  5
14D5A
330
123F3
100
AcDbEntity
  8
寸法
 62
     0
 48
50.0
370
    -2
100
AcDbBlockReference
  2
_DOT
 10
3158.904397928897
 20
10301.00429139523
 30
0.0
 41
20.0
 42
20.0
 43
20.0
  0
MTEXT
  5
14D5B
330
123F3
100
AcDbEntity
  8
寸法
 62
     7
 48
50.0
100
AcDbMText
 10
2764.737731262232
 20
10393.00429139524
 30
0.0
 40
120.0
 41
0.0
 71
     5
 72
     1
  1
\A1;55
  7
STYLE1
 73
     1
 44
1.0
1001
ACAD
1000
MTEXTBEGIN
1070
    73
1070
     1
1070
    44
1040
1.0
1070
    74
1070
     0
1000
MTEXTEND
  0
POINT
  5
14D5C
330
123F3
100
AcDbEntity
  8
DEFPOINTS
 62
     0
 48
50.0
100
AcDbPoint
 10
3158.904397928897
 20
9926.291881376442
 30
0.0
  0
POINT
  5
14D5D
330
123F3
100
AcDbEntity
  8
DEFPOINTS
 62
     0
 48
50.0
100
AcDbPoint
 10
3213.904397928898
 20
9926.291881376442
 30
0.0
  0
POINT
  5
14D5E
330
123F3
100
AcDbEntity
  8
DEFPOINTS
 62
     0
 48
50.0
100
AcDbPoint
 10
3213.904397928898
 20
10301.00429139523
 30
0.0
  0
ENDBLK
  5
1297B
330
123F3
100
AcDbEntity
  8
0
 48
50.0
100
AcDbBlockEnd
  0
BLOCK
  5
12A9F
330
12400
100
AcDbEntity
  8
0
 48
50.0
100
AcDbBlockBegin
  2
*D13
 70
     1
 10
0.0
 20
0.0
 30
0.0
  3
*D13
  1

  0
LINE
  5
14D4B
330
12400
100
AcDbEntity
  8
寸法
 62
     0
 48
50.0
370
    -2
100
AcDbLine
 10
5788.904397928899
 20
8171.291881376438
 30
0.0
 11
5788.904397928899
 21
6771.209923873596
 31
0.0
  0
LINE
  5
14D4C
330
12400
100
AcDbEntity
  8
寸法
 62
     0
 48
50.0
370
    -2
100
AcDbLine
 10
8418.904397928898
 20
8116.29188137644
 30
0.0
 11
8418.904397928898
 21
6771.209923873596
 31
0.0
  0
LINE
  5
14D4D
330
12400
100
AcDbEntity
  8
寸法
 62
     0
 48
50.0
370
    -2
100
AcDbLine
 10
5808.904397928898
 20
6811.209923873595
 30
0.0
 11
8398.904397928898
 21
6811.209923873595
 31
0.0
  0
INSERT
  5
14D4E
330
12400
100
AcDbEntity
  8
寸法
 62
     0
 48
50.0
370
    -2
100
AcDbBlockReference
  2
_DOT
 10
5788.904397928899
 20
6811.209923873595
 30
0.0
 41
20.0
 42
20.0
 43
20.0
 50
180.0
  0
INSERT
  5
14D4F
330
12400
100
AcDbEntity
  8
寸法
 62
     0
 48
50.0
370
    -2
100
AcDbBlockReference
  2
_DOT
 10
8418.904397928898
 20
6811.209923873595
 30
0.0
 41
20.0
 42
20.0
 43
20.0
  0
MTEXT
  5
14D50
330
12400
100
AcDbEntity
  8
寸法
 62
     7
 48
50.0
100
AcDbMText
 10
7103.904397928897
 20
6903.221734897217
 30
0.0
 40
120.0
 41
0.0
 71
     5
 72
     1
  1
\A1;2630
  7
STYLE1
 73
     1
 44
1.0
1001
ACAD
1000
MTEXTBEGIN
1070
    73
1070
     1
1070
    44
1040
1.0
1070
    74
1070
     0
1000
MTEXTEND
  0
POINT
  5
14D51
330
12400
100
AcDbEntity
  8
DEFPOINTS
 62
     0
 48
50.0
100
AcDbPoint
 10
5788.904397928899
 20
8191.291881376438
 30
0.0
  0
POINT
  5
14D52
330
12400
100
AcDbEntity
  8
DEFPOINTS
 62
     0
 48
50.0
100
AcDbPoint
 10
8418.904397928898
 20
8136.291881376441
 30
0.0
  0
POINT
  5
14D53
330
12400
100
AcDbEntity
  8
DEFPOINTS
 62
     0
 48
50.0
100
AcDbPoint
 10
8418.904397928898
 20
6811.209923873595
 30
0.0
  0
ENDBLK
  5
12AA9
330
12400
100
AcDbEntity
  8
0
 48
50.0
100
AcDbBlockEnd
  0
BLOCK
  5
12AB5
330
1240C
100
AcDbEntity
  8
0
 48
50.0
100
AcDbBlockBegin
  2
*D14
 70
     1
 10
0.0
 20
0.0
 30
0.0
  3
*D14
  1

  0
LINE
  5
14D42
330
1240C
100
AcDbEntity
  8
寸法
 62
     0
 48
50.0
370
    -2
100
AcDbLine
 10
5843.904397928898
 20
9946.291881376444
 30
0.0
 11
5843.904397928898
 21
10341.00429139523
 31
0.0
  0
LINE
  5
14D43
330
1240C
100
AcDbEntity
  8
寸法
 62
     0
 48
50.0
370
    -2
100
AcDbLine
 10
8363.904397928898
 20
9946.291881376444
 30
0.0
 11
8363.904397928898
 21
10341.00429139523
 31
0.0
  0
LINE
  5
14D44
330
1240C
100
AcDbEntity
  8
寸法
 62
     0
 48
50.0
370
    -2
100
AcDbLine
 10
5863.904397928898
 20
10301.00429139523
 30
0.0
 11
8343.904397928898
 21
10301.00429139523
 31
0.0
  0
INSERT
  5
14D45
330
1240C
100
AcDbEntity
  8
寸法
 62
     0
 48
50.0
370
    -2
100
AcDbBlockReference
  2
_DOT
 10
5843.904397928898
 20
10301.00429139523
 30
0.0
 41
20.0
 42
20.0
 43
20.0
 50
180.0
  0
INSERT
  5
14D46
330
1240C
100
AcDbEntity
  8
寸法
 62
     0
 48
50.0
370
    -2
100
AcDbBlockReference
  2
_DOT
 10
8363.904397928898
 20
10301.00429139523
 30
0.0
 41
20.0
 42
20.0
 43
20.0
  0
MTEXT
  5
14D47
330
1240C
100
AcDbEntity
  8
寸法
 62
     7
 48
50.0
100
AcDbMText
 10
7103.904397928897
 20
10393.01610241886
 30
0.0
 40
120.0
 41
0.0
 71
     5
 72
     1
  1
\A1;6X420=2520
  7
STYLE1
 73
     1
 44
1.0
1001
ACAD
1000
MTEXTBEGIN
1070
    73
1070
     1
1070
    44
1040
1.0
1070
    74
1070
     0
1000
MTEXTEND
  0
POINT
  5
14D48
330
1240C
100
AcDbEntity
  8
DEFPOINTS
 62
     0
 48
50.0
100
AcDbPoint
 10
5843.904397928898
 20
9926.291881376442
 30
0.0
  0
POINT
  5
14D49
330
1240C
100
AcDbEntity
  8
DEFPOINTS
 62
     0
 48
50.0
100
AcDbPoint
 10
8363.904397928898
 20
9926.291881376442
 30
0.0
  0
POINT
  5
14D4A
330
1240C
100
AcDbEntity
  8
DEFPOINTS
 62
     0
 48
50.0
100
AcDbPoint
 10
8363.904397928898
 20
10301.00429139523
 30
0.0
  0
ENDBLK
  5
12ABF
330
1240C
100
AcDbEntity
  8
0
 48
50.0
100
AcDbBlockEnd
  0
BLOCK
  5
1297C
330
12418
100
AcDbEntity
  8
0
 48
50.0
100
AcDbBlockBegin
  2
*D15
 70
     1
 10
0.0
 20
0.0
 30
0.0
  3
*D15
  1

  0
LINE
  5
14D39
330
12418
100
AcDbEntity
  8
寸法
 62
     0
 48
50.0
370
    -2
100
AcDbLine
 10
5733.904397928898
 20
9946.291881376444
 30
0.0
 11
5733.904397928898
 21
10341.00429139523
 31
0.0
  0
LINE
  5
14D3A
330
12418
100
AcDbEntity
  8
寸法
 62
     0
 48
50.0
370
    -2
100
AcDbLine
 10
5843.904397928898
 20
9946.291881376444
 30
0.0
 11
5843.904397928898
 21
10341.00429139523
 31
0.0
  0
LINE
  5
14D3B
330
12418
100
AcDbEntity
  8
寸法
 62
     0
 48
50.0
370
    -2
100
AcDbLine
 10
5753.904397928899
 20
10301.00429139523
 30
0.0
 11
5823.904397928898
 21
10301.00429139523
 31
0.0
  0
INSERT
  5
14D3C
330
12418
100
AcDbEntity
  8
寸法
 62
     0
 48
50.0
370
    -2
100
AcDbBlockReference
  2
_DOT
 10
5733.904397928898
 20
10301.00429139523
 30
0.0
 41
20.0
 42
20.0
 43
20.0
 50
180.0
  0
INSERT
  5
14D3D
330
12418
100
AcDbEntity
  8
寸法
 62
     0
 48
50.0
370
    -2
100
AcDbBlockReference
  2
_DOT
 10
5843.904397928898
 20
10301.00429139523
 30
0.0
 41
20.0
 42
20.0
 43
20.0
  0
MTEXT
  5
14D3E
330
12418
100
AcDbEntity
  8
寸法
 62
     7
 48
50.0
100
AcDbMText
 10
5788.904397928899
 20
10393.00429139524
 30
0.0
 40
120.0
 41
0.0
 71
     5
 72
     1
  1
\A1;110
  7
STYLE1
 73
     1
 44
1.0
1001
ACAD
1000
MTEXTBEGIN
1070
    73
1070
     1
1070
    44
1040
1.0
1070
    74
1070
     0
1000
MTEXTEND
  0
POINT
  5
14D3F
330
12418
100
AcDbEntity
  8
DEFPOINTS
 62
     0
 48
50.0
100
AcDbPoint
 10
5733.904397928898
 20
9926.291881376442
 30
0.0
  0
POINT
  5
14D40
330
12418
100
AcDbEntity
  8
DEFPOINTS
 62
     0
 48
50.0
100
AcDbPoint
 10
5843.904397928898
 20
9926.291881376442
 30
0.0
  0
POINT
  5
14D41
330
12418
100
AcDbEntity
  8
DEFPOINTS
 62
     0
 48
50.0
100
AcDbPoint
 10
5843.904397928898
 20
10301.00429139523
 30
0.0
  0
ENDBLK
  5
12986
330
12418
100
AcDbEntity
  8
0
 48
50.0
100
AcDbBlockEnd
  0
BLOCK
  5
13917
330
1390D
100
AcDbEntity
  8
0
 48
50.0
100
AcDbBlockBegin
  2
*D16
 70
     1
 10
0.0
 20
0.0
 30
0.0
  3
*D16
  1

  0
LINE
  5
141FA
330
1390D
100
AcDbEntity
  8
寸法
 62
     0
 48
50.0
370
    -2
100
AcDbLine
 10
11488.14422886714
 20
2794.732394739148
 30
0.0
 11
10381.39409968388
 21
2794.732394739148
 31
0.0
  0
LINE
  5
141FB
330
1390D
100
AcDbEntity
  8
寸法
 62
     0
 48
50.0
370
    -2
100
AcDbLine
 10
11505.14422886714
 20
5169.732394739153
 30
0.0
 11
10381.39409968388
 21
5169.732394739153
 31
0.0
  0
LINE
  5
141FC
330
1390D
100
AcDbEntity
  8
寸法
 62
     0
 48
50.0
370
    -2
100
AcDbLine
 10
10441.39409968388
 20
2794.732394739148
 30
0.0
 11
10441.39409968388
 21
5169.732394739153
 31
0.0
  0
INSERT
  5
141FD
330
1390D
100
AcDbEntity
  8
寸法
 62
     0
 48
50.0
370
    -2
100
AcDbBlockReference
  2
_DOTSMALL
 10
10441.39409968388
 20
2794.732394739148
 30
0.0
 41
100.0
 42
100.0
 43
100.0
 50
270.0
  0
INSERT
  5
141FE
330
1390D
100
AcDbEntity
  8
寸法
 62
     0
 48
50.0
370
    -2
100
AcDbBlockReference
  2
_DOTSMALL
 10
10441.39409968388
 20
5169.732394739153
 30
0.0
 41
100.0
 42
100.0
 43
100.0
 50
90.0
  0
MTEXT
  5
141FF
330
1390D
100
AcDbEntity
  8
寸法
 62
     7
 48
50.0
100
AcDbMText
 10
10341.38228866025
 20
3982.232394739152
 30
0.0
 40
120.0
 41
0.0
 71
     5
 72
     1
  1
\A1;2375
  7
STYLE1
 11
0.0000000000000001
 21
1.0
 31
0.0
 73
     1
 44
1.0
1001
ACAD
1000
MTEXTBEGIN
1070
    73
1070
     1
1070
    44
1040
1.0
1070
    74
1070
     0
1000
MTEXTEND
  0
POINT
  5
14200
330
1390D
100
AcDbEntity
  8
DEFPOINTS
 62
     0
 48
50.0
100
AcDbPoint
 10
11508.14422886714
 20
2794.732394739148
 30
0.0
  0
POINT
  5
14201
330
1390D
100
AcDbEntity
  8
DEFPOINTS
 62
     0
 48
50.0
100
AcDbPoint
 10
11525.14422886714
 20
5169.732394739153
 30
0.0
  0
POINT
  5
14202
330
1390D
100
AcDbEntity
  8
DEFPOINTS
 62
     0
 48
50.0
100
AcDbPoint
 10
10441.39409968388
 20
5169.732394739153
 30
0.0
  0
ENDBLK
  5
13918
330
1390D
100
AcDbEntity
  8
0
 48
50.0
100
AcDbBlockEnd
  0
BLOCK
  5
13924
330
13919
100
AcDbEntity
  8
0
 48
50.0
100
AcDbBlockBegin
  2
*D17
 70
     1
 10
0.0
 20
0.0
 30
0.0
  3
*D17
  1

  0
LINE
  5
141F0
330
13919
100
AcDbEntity
  8
寸法
 62
     0
 48
50.0
370
    -2
100
AcDbLine
 10
11524.54851515824
 20
5169.030101808808
 30
0.0
 11
10908.61407605297
 21
5186.744252083129
 31
0.0
  0
LINE
  5
141F1
330
13919
100
AcDbEntity
  8
寸法
 62
     0
 48
50.0
370
    -2
100
AcDbLine
 10
11520.49505960161
 20
5028.088378043096
 30
0.0
 11
10904.56062049635
 21
5045.802528317417
 31
0.0
  0
LINE
  5
141F2
330
13919
100
AcDbEntity
  8
寸法
 62
     0
 48
50.0
370
    -2
100
AcDbLine
 10
10964.53582209878
 20
5044.07765361247
 30
0.0
 11
10968.58927765541
 21
5185.019377378182
 31
0.0
  0
LINE
  5
141F3
330
13919
100
AcDbEntity
  8
寸法
 62
     0
 48
50.0
370
    -2
100
AcDbLine
 10
10968.58927765541
 20
5185.019377378182
 30
0.0
 11
10978.93852588509
 21
5544.870586992771
 31
0.0
  0
INSERT
  5
141F4
330
13919
100
AcDbEntity
  8
寸法
 62
     0
 48
50.0
370
    -2
100
AcDbBlockReference
  2
_DOTSMALL
 10
10964.53582209878
 20
5044.07765361247
 30
0.0
 41
100.0
 42
100.0
 43
100.0
 50
268.3526390256385
  0
INSERT
  5
141F5
330
13919
100
AcDbEntity
  8
寸法
 62
     0
 48
50.0
370
    -2
100
AcDbBlockReference
  2
_DOTSMALL
 10
10968.58927765541
 20
5185.019377378182
 30
0.0
 41
100.0
 42
100.0
 43
100.0
 50
88.35263902563855
  0
MTEXT
  5
141F6
330
13919
100
AcDbEntity
  8
寸法
 62
     7
 48
50.0
100
AcDbMText
 10
10875.24262802032
 20
5417.799108029083
 30
0.0
 40
120.0
 41
0.0
 71
     5
 72
     1
  1
\A1;141
  7
STYLE1
 11
0.0287479117491103
 21
0.999586693373849
 31
0.0
 73
     1
 44
1.0
1001
ACAD
1000
MTEXTBEGIN
1070
    73
1070
     1
1070
    44
1040
1.0
1070
    74
1070
     0
1000
MTEXTEND
  0
POINT
  5
141F7
330
13919
100
AcDbEntity
  8
DEFPOINTS
 62
     0
 48
50.0
100
AcDbPoint
 10
11544.54024902571
 20
5168.455143573826
 30
0.0
  0
POINT
  5
141F8
330
13919
100
AcDbEntity
  8
DEFPOINTS
 62
     0
 48
50.0
100
AcDbPoint
 10
11540.48679346909
 20
5027.513419808114
 30
0.0
  0
POINT
  5
141F9
330
13919
100
AcDbEntity
  8
DEFPOINTS
 62
     0
 48
50.0
100
AcDbPoint
 10
10964.53582209878
 20
5044.07765361247
 30
0.0
  0
ENDBLK
  5
13925
330
13919
100
AcDbEntity
  8
0
 48
50.0
100
AcDbBlockEnd
  0
BLOCK
  5
13932
330
13926
100
AcDbEntity
  8
0
 48
50.0
100
AcDbBlockBegin
  2
*D18
 70
     1
 10
0.0
 20
0.0
 30
0.0
  3
*D18
  1

  0
LINE
  5
141E5
330
13926
100
AcDbEntity
  8
寸法
 62
     0
 48
50.0
370
    -2
100
AcDbLine
 10
11585.14422886714
 20
5185.734012862123
 30
0.0
 11
11585.14422886714
 21
5628.389848318452
 31
0.0
  0
LINE
  5
141E6
330
13926
100
AcDbEntity
  8
寸法
 62
     0
 48
50.0
370
    -2
100
AcDbLine
 10
11525.14422886714
 20
5189.732394739152
 30
0.0
 11
11525.14422886714
 21
5628.389848318452
 31
0.0
  0
LINE
  5
141E7
330
13926
100
AcDbEntity
  8
寸法
 62
     0
 48
50.0
370
    -2
100
AcDbLine
 10
11585.14422886714
 20
5568.389848318451
 30
0.0
 11
11685.14422886714
 21
5568.389848318451
 31
0.0
  0
LINE
  5
141E8
330
13926
100
AcDbEntity
  8
寸法
 62
     0
 48
50.0
370
    -2
100
AcDbLine
 10
11525.14422886714
 20
5568.389848318451
 30
0.0
 11
11105.86863831596
 21
5568.389848318451
 31
0.0
  0
LINE
  5
141E9
330
13926
100
AcDbEntity
  8
寸法
 62
     0
 48
50.0
370
    -2
100
AcDbLine
 10
11585.14422886714
 20
5568.389848318451
 30
0.0
 11
11525.14422886714
 21
5568.389848318451
 31
0.0
  0
INSERT
  5
141EA
330
13926
100
AcDbEntity
  8
寸法
 62
     0
 48
50.0
370
    -2
100
AcDbBlockReference
  2
_DOTSMALL
 10
11585.14422886714
 20
5568.389848318451
 30
0.0
 41
100.0
 42
100.0
 43
100.0
 50
180.0
  0
INSERT
  5
141EB
330
13926
100
AcDbEntity
  8
寸法
 62
     0
 48
50.0
370
    -2
100
AcDbBlockReference
  2
_DOTSMALL
 10
11525.14422886714
 20
5568.389848318451
 30
0.0
 41
100.0
 42
100.0
 43
100.0
  0
MTEXT
  5
141EC
330
13926
100
AcDbEntity
  8
寸法
 62
     7
 48
50.0
100
AcDbMText
 10
11215.50643359155
 20
5668.389848318451
 30
0.0
 40
120.0
 41
0.0
 71
     5
 72
     1
  1
\A1;60
  7
STYLE1
 73
     1
 44
1.0
1001
ACAD
1000
MTEXTBEGIN
1070
    73
1070
     1
1070
    44
1040
1.0
1070
    74
1070
     0
1000
MTEXTEND
  0
POINT
  5
141ED
330
13926
100
AcDbEntity
  8
DEFPOINTS
 62
     0
 48
50.0
100
AcDbPoint
 10
11585.14422886714
 20
5165.734012862124
 30
0.0
  0
POINT
  5
141EE
330
13926
100
AcDbEntity
  8
DEFPOINTS
 62
     0
 48
50.0
100
AcDbPoint
 10
11525.14422886714
 20
5169.732394739153
 30
0.0
  0
POINT
  5
141EF
330
13926
100
AcDbEntity
  8
DEFPOINTS
 62
     0
 48
50.0
100
AcDbPoint
 10
11525.14422886714
 20
5568.389848318451
 30
0.0
  0
ENDBLK
  5
13933
330
13926
100
AcDbEntity
  8
0
 48
50.0
100
AcDbBlockEnd
  0
BLOCK
  5
1393E
330
13934
100
AcDbEntity
  8
0
 48
50.0
100
AcDbBlockBegin
  2
*D19
 70
     1
 10
0.0
 20
0.0
 30
0.0
  3
*D19
  1

  0
LINE
  5
141DC
330
13934
100
AcDbEntity
  8
寸法
 62
     0
 48
50.0
370
    -2
100
AcDbLine
 10
13375.14422886714
 20
5136.5430743508
 30
0.0
 11
13375.14422886714
 21
5628.825564078621
 31
0.0
  0
LINE
  5
141DD
330
13934
100
AcDbEntity
  8
寸法
 62
     0
 48
50.0
370
    -2
100
AcDbLine
 10
11585.14422886714
 20
5185.734012862123
 30
0.0
 11
11585.14422886714
 21
5628.825564078621
 31
0.0
  0
LINE
  5
141DE
330
13934
100
AcDbEntity
  8
寸法
 62
     0
 48
50.0
370
    -2
100
AcDbLine
 10
13375.14422886714
 20
5568.825564078621
 30
0.0
 11
11585.14422886714
 21
5568.825564078621
 31
0.0
  0
INSERT
  5
141DF
330
13934
100
AcDbEntity
  8
寸法
 62
     0
 48
50.0
370
    -2
100
AcDbBlockReference
  2
_DOTSMALL
 10
13375.14422886714
 20
5568.825564078621
 30
0.0
 41
100.0
 42
100.0
 43
100.0
  0
INSERT
  5
141E0
330
13934
100
AcDbEntity
  8
寸法
 62
     0
 48
50.0
370
    -2
100
AcDbBlockReference
  2
_DOTSMALL
 10
11585.14422886714
 20
5568.825564078621
 30
0.0
 41
100.0
 42
100.0
 43
100.0
 50
180.0
  0
MTEXT
  5
141E1
330
13934
100
AcDbEntity
  8
寸法
 62
     7
 48
50.0
100
AcDbMText
 10
12494.73987754362
 20
5668.825564078621
 30
0.0
 40
120.0
 41
0.0
 71
     5
 72
     1
  1
\A1;柱外寸法1790
  7
STYLE1
 73
     1
 44
1.0
1001
ACAD
1000
MTEXTBEGIN
1070
    73
1070
     1
1070
    44
1040
1.0
1070
    74
1070
     0
1000
MTEXTEND
  0
POINT
  5
141E2
330
13934
100
AcDbEntity
  8
DEFPOINTS
 62
     0
 48
50.0
100
AcDbPoint
 10
13375.14422886714
 20
5116.543074350801
 30
0.0
  0
POINT
  5
141E3
330
13934
100
AcDbEntity
  8
DEFPOINTS
 62
     0
 48
50.0
100
AcDbPoint
 10
11585.14422886714
 20
5165.734012862124
 30
0.0
  0
POINT
  5
141E4
330
13934
100
AcDbEntity
  8
DEFPOINTS
 62
     0
 48
50.0
100
AcDbPoint
 10
11585.14422886714
 20
5568.825564078621
 30
0.0
  0
ENDBLK
  5
1393F
330
13934
100
AcDbEntity
  8
0
 48
50.0
100
AcDbBlockEnd
  0
BLOCK
  5
1394A
330
13940
100
AcDbEntity
  8
0
 48
50.0
100
AcDbBlockBegin
  2
*D20
 70
     1
 10
0.0
 20
0.0
 30
0.0
  3
*D20
  1

  0
LINE
  5
141D3
330
13940
100
AcDbEntity
  8
寸法
 62
     0
 48
50.0
370
    -2
100
AcDbLine
 10
13455.14422886714
 20
5134.732394739149
 30
0.0
 11
13455.14422886714
 21
5845.351663697066
 31
0.0
  0
LINE
  5
141D4
330
13940
100
AcDbEntity
  8
寸法
 62
     0
 48
50.0
370
    -2
100
AcDbLine
 10
11525.14422886714
 20
5189.732394739152
 30
0.0
 11
11525.14422886714
 21
5845.351663697066
 31
0.0
  0
LINE
  5
141D5
330
13940
100
AcDbEntity
  8
寸法
 62
     0
 48
50.0
370
    -2
100
AcDbLine
 10
13455.14422886714
 20
5785.351663697065
 30
0.0
 11
11525.14422886714
 21
5785.351663697065
 31
0.0
  0
INSERT
  5
141D6
330
13940
100
AcDbEntity
  8
寸法
 62
     0
 48
50.0
370
    -2
100
AcDbBlockReference
  2
_DOTSMALL
 10
13455.14422886714
 20
5785.351663697065
 30
0.0
 41
100.0
 42
100.0
 43
100.0
  0
INSERT
  5
141D7
330
13940
100
AcDbEntity
  8
寸法
 62
     0
 48
50.0
370
    -2
100
AcDbBlockReference
  2
_DOTSMALL
 10
11525.14422886714
 20
5785.351663697065
 30
0.0
 41
100.0
 42
100.0
 43
100.0
 50
180.0
  0
MTEXT
  5
141D8
330
13940
100
AcDbEntity
  8
寸法
 62
     7
 48
50.0
100
AcDbMText
 10
12430.94998011811
 20
5885.351663697065
 30
0.0
 40
120.0
 41
0.0
 71
     5
 72
     1
  1
\A1;1930
  7
STYLE1
 73
     1
 44
1.0
1001
ACAD
1000
MTEXTBEGIN
1070
    73
1070
     1
1070
    44
1040
1.0
1070
    74
1070
     0
1000
MTEXTEND
  0
POINT
  5
141D9
330
13940
100
AcDbEntity
  8
DEFPOINTS
 62
     0
 48
50.0
100
AcDbPoint
 10
13455.14422886714
 20
5114.732394739149
 30
0.0
  0
POINT
  5
141DA
330
13940
100
AcDbEntity
  8
DEFPOINTS
 62
     0
 48
50.0
100
AcDbPoint
 10
11525.14422886714
 20
5169.732394739153
 30
0.0
  0
POINT
  5
141DB
330
13940
100
AcDbEntity
  8
DEFPOINTS
 62
     0
 48
50.0
100
AcDbPoint
 10
11525.14422886714
 20
5785.351663697065
 30
0.0
  0
ENDBLK
  5
1394B
330
13940
100
AcDbEntity
  8
0
 48
50.0
100
AcDbBlockEnd
  0
BLOCK
  5
13957
330
1394C
100
AcDbEntity
  8
0
 48
50.0
100
AcDbBlockBegin
  2
*D21
 70
     1
 10
0.0
 20
0.0
 30
0.0
  3
*D21
  1

  0
LINE
  5
141C9
330
1394C
100
AcDbEntity
  8
寸法
 62
     0
 48
50.0
370
    -2
100
AcDbLine
 10
13375.14422886714
 20
5136.5430743508
 30
0.0
 11
13375.14422886714
 21
5628.389848318452
 31
0.0
  0
LINE
  5
141CA
330
1394C
100
AcDbEntity
  8
寸法
 62
     0
 48
50.0
370
    -2
100
AcDbLine
 10
13455.14422886714
 20
5134.732394739149
 30
0.0
 11
13455.14422886714
 21
5628.389848318452
 31
0.0
  0
LINE
  5
141CB
330
1394C
100
AcDbEntity
  8
寸法
 62
     0
 48
50.0
370
    -2
100
AcDbLine
 10
13375.14422886714
 20
5568.389848318451
 30
0.0
 11
13455.14422886714
 21
5568.389848318451
 31
0.0
  0
LINE
  5
141CC
330
1394C
100
AcDbEntity
  8
寸法
 62
     0
 48
50.0
370
    -2
100
AcDbLine
 10
13455.14422886714
 20
5568.389848318451
 30
0.0
 11
13767.23871705612
 21
5568.389848318451
 31
0.0
  0
INSERT
  5
141CD
330
1394C
100
AcDbEntity
  8
寸法
 62
     0
 48
50.0
370
    -2
100
AcDbBlockReference
  2
_DOTSMALL
 10
13375.14422886714
 20
5568.389848318451
 30
0.0
 41
100.0
 42
100.0
 43
100.0
 50
180.0
  0
INSERT
  5
141CE
330
1394C
100
AcDbEntity
  8
寸法
 62
     0
 48
50.0
370
    -2
100
AcDbBlockReference
  2
_DOTSMALL
 10
13455.14422886714
 20
5568.389848318451
 30
0.0
 41
100.0
 42
100.0
 43
100.0
  0
MTEXT
  5
141CF
330
1394C
100
AcDbEntity
  8
寸法
 62
     7
 48
50.0
100
AcDbMText
 10
13661.19147296163
 20
5668.389848318451
 30
0.0
 40
120.0
 41
0.0
 71
     5
 72
     1
  1
\A1;80
  7
STYLE1
 73
     1
 44
1.0
1001
ACAD
1000
MTEXTBEGIN
1070
    73
1070
     1
1070
    44
1040
1.0
1070
    74
1070
     0
1000
MTEXTEND
  0
POINT
  5
141D0
330
1394C
100
AcDbEntity
  8
DEFPOINTS
 62
     0
 48
50.0
100
AcDbPoint
 10
13375.14422886714
 20
5116.543074350801
 30
0.0
  0
POINT
  5
141D1
330
1394C
100
AcDbEntity
  8
DEFPOINTS
 62
     0
 48
50.0
100
AcDbPoint
 10
13455.14422886714
 20
5114.732394739149
 30
0.0
  0
POINT
  5
141D2
330
1394C
100
AcDbEntity
  8
DEFPOINTS
 62
     0
 48
50.0
100
AcDbPoint
 10
13455.14422886714
 20
5568.389848318451
 30
0.0
  0
ENDBLK
  5
13958
330
1394C
100
AcDbEntity
  8
0
 48
50.0
100
AcDbBlockEnd
  0
BLOCK
  5
13A4B
330
13A41
100
AcDbEntity
  8
0
 48
50.0
100
AcDbBlockBegin
  2
*D22
 70
     1
 10
0.0
 20
0.0
 30
0.0
  3
*D22
  1

  0
LINE
  5
141C0
330
13A41
100
AcDbEntity
  8
寸法
 62
     0
 48
50.0
370
    -2
100
AcDbLine
 10
11565.14422886714
 20
4934.732394739147
 30
0.0
 11
10701.39409968388
 21
4934.732394739147
 31
0.0
  0
LINE
  5
141C1
330
13A41
100
AcDbEntity
  8
寸法
 62
     0
 48
50.0
370
    -2
100
AcDbLine
 10
11565.14422886714
 20
2844.732394739148
 30
0.0
 11
10701.39409968388
 21
2844.732394739148
 31
0.0
  0
LINE
  5
141C2
330
13A41
100
AcDbEntity
  8
寸法
 62
     0
 48
50.0
370
    -2
100
AcDbLine
 10
10741.39409968388
 20
4914.732394739147
 30
0.0
 11
10741.39409968388
 21
2864.732394739148
 31
0.0
  0
INSERT
  5
141C3
330
13A41
100
AcDbEntity
  8
寸法
 62
     0
 48
50.0
370
    -2
100
AcDbBlockReference
  2
_DOT
 10
10741.39409968388
 20
4934.732394739147
 30
0.0
 41
20.0
 42
20.0
 43
20.0
 50
90.0
  0
INSERT
  5
141C4
330
13A41
100
AcDbEntity
  8
寸法
 62
     0
 48
50.0
370
    -2
100
AcDbBlockReference
  2
_DOT
 10
10741.39409968388
 20
2844.732394739148
 30
0.0
 41
20.0
 42
20.0
 43
20.0
 50
270.0
  0
MTEXT
  5
141C5
330
13A41
100
AcDbEntity
  8
寸法
 62
     7
 48
50.0
100
AcDbMText
 10
10649.38228866026
 20
3889.732394739149
 30
0.0
 40
120.0
 41
0.0
 71
     5
 72
     1
  1
\A1;2090
  7
STYLE1
 11
0.0000000000000001
 21
1.0
 31
0.0
 73
     1
 44
1.0
1001
ACAD
1000
MTEXTBEGIN
1070
    73
1070
     1
1070
    44
1040
1.0
1070
    74
1070
     0
1000
MTEXTEND
  0
POINT
  5
141C6
330
13A41
100
AcDbEntity
  8
DEFPOINTS
 62
     0
 48
50.0
100
AcDbPoint
 10
11585.14422886714
 20
4934.732394739147
 30
0.0
  0
POINT
  5
141C7
330
13A41
100
AcDbEntity
  8
DEFPOINTS
 62
     0
 48
50.0
100
AcDbPoint
 10
11585.14422886714
 20
2844.732394739148
 30
0.0
  0
POINT
  5
141C8
330
13A41
100
AcDbEntity
  8
DEFPOINTS
 62
     0
 48
50.0
100
AcDbPoint
 10
10741.39409968388
 20
2844.732394739148
 30
0.0
  0
ENDBLK
  5
13A4C
330
13A41
100
AcDbEntity
  8
0
 48
50.0
100
AcDbBlockEnd
  0
BLOCK
  5
13A57
330
13A4D
100
AcDbEntity
  8
0
 48
50.0
100
AcDbBlockBegin
  2
*D23
 70
     1
 10
0.0
 20
0.0
 30
0.0
  3
*D23
  1

  0
LINE
  5
141B7
330
13A4D
100
AcDbEntity
  8
寸法
 62
     0
 48
50.0
370
    -2
100
AcDbLine
 10
11488.14422886714
 20
4885.732394739147
 30
0.0
 11
11000.23558746988
 21
4885.732394739147
 31
0.0
  0
LINE
  5
141B8
330
13A4D
100
AcDbEntity
  8
寸法
 62
     0
 48
50.0
370
    -2
100
AcDbLine
 10
11488.14422886714
 20
2860.732394739148
 30
0.0
 11
11000.23558746988
 21
2860.732394739148
 31
0.0
  0
LINE
  5
141B9
330
13A4D
100
AcDbEntity
  8
寸法
 62
     0
 48
50.0
370
    -2
100
AcDbLine
 10
11040.23558746988
 20
4865.732394739147
 30
0.0
 11
11040.23558746988
 21
2880.732394739148
 31
0.0
  0
INSERT
  5
141BA
330
13A4D
100
AcDbEntity
  8
寸法
 62
     0
 48
50.0
370
    -2
100
AcDbBlockReference
  2
_DOT
 10
11040.23558746988
 20
4885.732394739147
 30
0.0
 41
20.0
 42
20.0
 43
20.0
 50
90.0
  0
INSERT
  5
141BB
330
13A4D
100
AcDbEntity
  8
寸法
 62
     0
 48
50.0
370
    -2
100
AcDbBlockReference
  2
_DOT
 10
11040.23558746988
 20
2860.732394739148
 30
0.0
 41
20.0
 42
20.0
 43
20.0
 50
270.0
  0
MTEXT
  5
141BC
330
13A4D
100
AcDbEntity
  8
寸法
 62
     7
 48
50.0
100
AcDbMText
 10
10948.22377644626
 20
3873.232394739149
 30
0.0
 40
120.0
 41
0.0
 71
     5
 72
     1
  1
\A1;有効開口部高サ2025
  7
STYLE1
 11
0.0000000000000001
 21
1.0
 31
0.0
 73
     1
 44
1.0
1001
ACAD
1000
MTEXTBEGIN
1070
    73
1070
     1
1070
    44
1040
1.0
1070
    74
1070
     0
1000
MTEXTEND
  0
POINT
  5
141BD
330
13A4D
100
AcDbEntity
  8
DEFPOINTS
 62
     0
 48
50.0
100
AcDbPoint
 10
11508.14422886714
 20
4885.732394739147
 30
0.0
  0
POINT
  5
141BE
330
13A4D
100
AcDbEntity
  8
DEFPOINTS
 62
     0
 48
50.0
100
AcDbPoint
 10
11508.14422886714
 20
2860.732394739148
 30
0.0
  0
POINT
  5
141BF
330
13A4D
100
AcDbEntity
  8
DEFPOINTS
 62
     0
 48
50.0
100
AcDbPoint
 10
11040.23558746988
 20
2860.732394739148
 30
0.0
  0
ENDBLK
  5
13A58
330
13A4D
100
AcDbEntity
  8
0
 48
50.0
100
AcDbBlockEnd
  0
BLOCK
  5
13A63
330
13A59
100
AcDbEntity
  8
0
 48
50.0
100
AcDbBlockBegin
  2
*D24
 70
     1
 10
0.0
 20
0.0
 30
0.0
  3
*D24
  1

  0
LINE
  5
141AE
330
13A59
100
AcDbEntity
  8
寸法
 62
     0
 48
50.0
370
    -2
100
AcDbLine
 10
11512.64422886714
 20
2474.732394739147
 30
0.0
 11
11512.64422886714
 21
2119.542010499934
 31
0.0
  0
LINE
  5
141AF
330
13A59
100
AcDbEntity
  8
寸法
 62
     0
 48
50.0
370
    -2
100
AcDbLine
 10
11712.64422886714
 20
2474.732394739146
 30
0.0
 11
11712.64422886714
 21
2119.542010499934
 31
0.0
  0
LINE
  5
141B0
330
13A59
100
AcDbEntity
  8
寸法
 62
     0
 48
50.0
370
    -2
100
AcDbLine
 10
11532.64422886714
 20
2159.542010499935
 30
0.0
 11
11692.64422886714
 21
2159.542010499935
 31
0.0
  0
INSERT
  5
141B1
330
13A59
100
AcDbEntity
  8
寸法
 62
     0
 48
50.0
370
    -2
100
AcDbBlockReference
  2
_DOT
 10
11512.64422886714
 20
2159.542010499935
 30
0.0
 41
20.0
 42
20.0
 43
20.0
 50
180.0
  0
INSERT
  5
141B2
330
13A59
100
AcDbEntity
  8
寸法
 62
     0
 48
50.0
370
    -2
100
AcDbBlockReference
  2
_DOT
 10
11712.64422886714
 20
2159.542010499935
 30
0.0
 41
20.0
 42
20.0
 43
20.0
  0
MTEXT
  5
141B3
330
13A59
100
AcDbEntity
  8
寸法
 62
     7
 48
50.0
100
AcDbMText
 10
11612.64422886714
 20
2251.553821523557
 30
0.0
 40
120.0
 41
0.0
 71
     5
 72
     1
  1
\A1;200
  7
STYLE1
 73
     1
 44
1.0
1001
ACAD
1000
MTEXTBEGIN
1070
    73
1070
     1
1070
    44
1040
1.0
1070
    74
1070
     0
1000
MTEXTEND
  0
POINT
  5
141B4
330
13A59
100
AcDbEntity
  8
DEFPOINTS
 62
     0
 48
50.0
100
AcDbPoint
 10
11512.64422886714
 20
2494.732394739147
 30
0.0
  0
POINT
  5
141B5
330
13A59
100
AcDbEntity
  8
DEFPOINTS
 62
     0
 48
50.0
100
AcDbPoint
 10
11712.64422886714
 20
2494.732394739146
 30
0.0
  0
POINT
  5
141B6
330
13A59
100
AcDbEntity
  8
DEFPOINTS
 62
     0
 48
50.0
100
AcDbPoint
 10
11712.64422886714
 20
2159.542010499935
 30
0.0
  0
ENDBLK
  5
13A64
330
13A59
100
AcDbEntity
  8
0
 48
50.0
100
AcDbBlockEnd
  0
BLOCK
  5
13A6F
330
13A65
100
AcDbEntity
  8
0
 48
50.0
100
AcDbBlockBegin
  2
*D25
 70
     1
 10
0.0
 20
0.0
 30
0.0
  3
*D25
  1

  0
LINE
  5
141A5
330
13A65
100
AcDbEntity
  8
寸法
 62
     0
 48
50.0
370
    -2
100
AcDbLine
 10
11492.64422886714
 20
2494.732394739147
 30
0.0
 11
11065.39965278266
 21
2494.732394739148
 31
0.0
  0
LINE
  5
141A6
330
13A65
100
AcDbEntity
  8
寸法
 62
     0
 48
50.0
370
    -2
100
AcDbLine
 10
11492.64422886714
 20
2694.732394739148
 30
0.0
 11
11065.39965278266
 21
2694.732394739148
 31
0.0
  0
LINE
  5
141A7
330
13A65
100
AcDbEntity
  8
寸法
 62
     0
 48
50.0
370
    -2
100
AcDbLine
 10
11105.39965278266
 20
2514.732394739148
 30
0.0
 11
11105.39965278266
 21
2674.732394739148
 31
0.0
  0
INSERT
  5
141A8
330
13A65
100
AcDbEntity
  8
寸法
 62
     0
 48
50.0
370
    -2
100
AcDbBlockReference
  2
_DOT
 10
11105.39965278266
 20
2494.732394739148
 30
0.0
 41
20.0
 42
20.0
 43
20.0
 50
270.0
  0
INSERT
  5
141A9
330
13A65
100
AcDbEntity
  8
寸法
 62
     0
 48
50.0
370
    -2
100
AcDbBlockReference
  2
_DOT
 10
11105.39965278266
 20
2694.732394739148
 30
0.0
 41
20.0
 42
20.0
 43
20.0
 50
90.0
  0
MTEXT
  5
141AA
330
13A65
100
AcDbEntity
  8
寸法
 62
     7
 48
50.0
100
AcDbMText
 10
11013.38784175904
 20
2552.293717952713
 30
0.0
 40
120.0
 41
0.0
 71
     5
 72
     1
  1
\A1;200
  7
STYLE1
 11
0.0000000000000001
 21
1.0
 31
0.0
 73
     1
 44
1.0
1001
ACAD
1000
MTEXTBEGIN
1070
    73
1070
     1
1070
    44
1040
1.0
1070
    74
1070
     0
1000
MTEXTEND
  0
POINT
  5
141AB
330
13A65
100
AcDbEntity
  8
DEFPOINTS
 62
     0
 48
50.0
100
AcDbPoint
 10
11512.64422886714
 20
2494.732394739147
 30
0.0
  0
POINT
  5
141AC
330
13A65
100
AcDbEntity
  8
DEFPOINTS
 62
     0
 48
50.0
100
AcDbPoint
 10
11512.64422886714
 20
2694.732394739148
 30
0.0
  0
POINT
  5
141AD
330
13A65
100
AcDbEntity
  8
DEFPOINTS
 62
     0
 48
50.0
100
AcDbPoint
 10
11105.39965278266
 20
2694.732394739148
 30
0.0
  0
ENDBLK
  5
13A70
330
13A65
100
AcDbEntity
  8
0
 48
50.0
100
AcDbBlockEnd
  0
BLOCK
  5
13A7D
330
13A71
100
AcDbEntity
  8
0
 48
50.0
100
AcDbBlockBegin
  2
*D26
 70
     1
 10
0.0
 20
0.0
 30
0.0
  3
*D26
  1

  0
LINE
  5
1419A
330
13A71
100
AcDbEntity
  8
寸法
 62
     0
 48
50.0
370
    -2
100
AcDbLine
 10
11488.14422886714
 20
2794.732394739148
 30
0.0
 11
10401.39409968388
 21
2794.732394739148
 31
0.0
  0
LINE
  5
1419B
330
13A71
100
AcDbEntity
  8
寸法
 62
     0
 48
50.0
370
    -2
100
AcDbLine
 10
10508.64315297201
 20
2694.732394739148
 30
0.0
 11
10401.39409968388
 21
2694.732394739148
 31
0.0
  0
LINE
  5
1419C
330
13A71
100
AcDbEntity
  8
寸法
 62
     0
 48
50.0
370
    -2
100
AcDbLine
 10
10441.39409968388
 20
2814.732394739148
 30
0.0
 11
10441.39409968388
 21
2834.732394739148
 31
0.0
  0
LINE
  5
1419D
330
13A71
100
AcDbEntity
  8
寸法
 62
     0
 48
50.0
370
    -2
100
AcDbLine
 10
10441.39409968388
 20
2674.732394739148
 30
0.0
 11
10441.39409968388
 21
2151.685150644658
 31
0.0
  0
LINE
  5
1419E
330
13A71
100
AcDbEntity
  8
寸法
 62
     0
 48
50.0
370
    -2
100
AcDbLine
 10
10441.39409968388
 20
2794.732394739148
 30
0.0
 11
10441.39409968388
 21
2694.732394739148
 31
0.0
  0
INSERT
  5
1419F
330
13A71
100
AcDbEntity
  8
寸法
 62
     0
 48
50.0
370
    -2
100
AcDbBlockReference
  2
_DOT
 10
10441.39409968388
 20
2794.732394739148
 30
0.0
 41
20.0
 42
20.0
 43
20.0
 50
270.0
  0
INSERT
  5
141A0
330
13A71
100
AcDbEntity
  8
寸法
 62
     0
 48
50.0
370
    -2
100
AcDbBlockReference
  2
_DOT
 10
10441.39409968388
 20
2694.732394739148
 30
0.0
 41
20.0
 42
20.0
 43
20.0
 50
90.0
  0
MTEXT
  5
141A1
330
13A71
100
AcDbEntity
  8
寸法
 62
     7
 48
50.0
100
AcDbMText
 10
10349.39409968388
 20
2279.732394739147
 30
0.0
 40
120.0
 41
0.0
 71
     5
 72
     1
  1
\A1;100
  7
STYLE1
 11
0.0000000000000001
 21
1.0
 31
0.0
 73
     1
 44
1.0
1001
ACAD
1000
MTEXTBEGIN
1070
    73
1070
     1
1070
    44
1040
1.0
1070
    74
1070
     0
1000
MTEXTEND
  0
POINT
  5
141A2
330
13A71
100
AcDbEntity
  8
DEFPOINTS
 62
     0
 48
50.0
100
AcDbPoint
 10
11508.14422886714
 20
2794.732394739148
 30
0.0
  0
POINT
  5
141A3
330
13A71
100
AcDbEntity
  8
DEFPOINTS
 62
     0
 48
50.0
100
AcDbPoint
 10
10528.64315297201
 20
2694.732394739148
 30
0.0
  0
POINT
  5
141A4
330
13A71
100
AcDbEntity
  8
DEFPOINTS
 62
     0
 48
50.0
100
AcDbPoint
 10
10441.39409968388
 20
2694.732394739148
 30
0.0
  0
ENDBLK
  5
13A7E
330
13A71
100
AcDbEntity
  8
0
 48
50.0
100
AcDbBlockEnd
  0
BLOCK
  5
13A8B
330
13A7F
100
AcDbEntity
  8
0
 48
50.0
100
AcDbBlockBegin
  2
*D27
 70
     1
 10
0.0
 20
0.0
 30
0.0
  3
*D27
  1

  0
LINE
  5
1418F
330
13A7F
100
AcDbEntity
  8
寸法
 62
     0
 48
50.0
370
    -2
100
AcDbLine
 10
11565.14422886714
 20
2844.732394739148
 30
0.0
 11
10701.39409968388
 21
2844.732394739148
 31
0.0
  0
LINE
  5
14190
330
13A7F
100
AcDbEntity
  8
寸法
 62
     0
 48
50.0
370
    -2
100
AcDbLine
 10
11488.14422886714
 20
2794.732394739148
 30
0.0
 11
10701.39409968388
 21
2794.732394739148
 31
0.0
  0
LINE
  5
14191
330
13A7F
100
AcDbEntity
  8
寸法
 62
     0
 48
50.0
370
    -2
100
AcDbLine
 10
10741.39409968388
 20
2864.732394739148
 30
0.0
 11
10741.39409968388
 21
2884.732394739148
 31
0.0
  0
LINE
  5
14192
330
13A7F
100
AcDbEntity
  8
寸法
 62
     0
 48
50.0
370
    -2
100
AcDbLine
 10
10741.39409968388
 20
2774.732394739148
 30
0.0
 11
10741.39409968388
 21
2312.935150644658
 31
0.0
  0
LINE
  5
14193
330
13A7F
100
AcDbEntity
  8
寸法
 62
     0
 48
50.0
370
    -2
100
AcDbLine
 10
10741.39409968388
 20
2844.732394739148
 30
0.0
 11
10741.39409968388
 21
2794.732394739148
 31
0.0
  0
INSERT
  5
14194
330
13A7F
100
AcDbEntity
  8
寸法
 62
     0
 48
50.0
370
    -2
100
AcDbBlockReference
  2
_DOT
 10
10741.39409968388
 20
2844.732394739148
 30
0.0
 41
20.0
 42
20.0
 43
20.0
 50
270.0
  0
INSERT
  5
14195
330
13A7F
100
AcDbEntity
  8
寸法
 62
     0
 48
50.0
370
    -2
100
AcDbBlockReference
  2
_DOT
 10
10741.39409968388
 20
2794.732394739148
 30
0.0
 41
20.0
 42
20.0
 43
20.0
 50
90.0
  0
MTEXT
  5
14196
330
13A7F
100
AcDbEntity
  8
寸法
 62
     7
 48
50.0
100
AcDbMText
 10
10649.39409968388
 20
2410.982394739148
 30
0.0
 40
120.0
 41
0.0
 71
     5
 72
     1
  1
\A1;50
  7
STYLE1
 11
0.0000000000000001
 21
1.0
 31
0.0
 73
     1
 44
1.0
1001
ACAD
1000
MTEXTBEGIN
1070
    73
1070
     1
1070
    44
1040
1.0
1070
    74
1070
     0
1000
MTEXTEND
  0
POINT
  5
14197
330
13A7F
100
AcDbEntity
  8
DEFPOINTS
 62
     0
 48
50.0
100
AcDbPoint
 10
11585.14422886714
 20
2844.732394739148
 30
0.0
  0
POINT
  5
14198
330
13A7F
100
AcDbEntity
  8
DEFPOINTS
 62
     0
 48
50.0
100
AcDbPoint
 10
11508.14422886714
 20
2794.732394739148
 30
0.0
  0
POINT
  5
14199
330
13A7F
100
AcDbEntity
  8
DEFPOINTS
 62
     0
 48
50.0
100
AcDbPoint
 10
10741.39409968388
 20
2794.732394739148
 30
0.0
  0
ENDBLK
  5
13A8C
330
13A7F
100
AcDbEntity
  8
0
 48
50.0
100
AcDbBlockEnd
  0
BLOCK
  5
13A97
330
13A8D
100
AcDbEntity
  8
0
 48
50.0
100
AcDbBlockBegin
  2
*D28
 70
     1
 10
0.0
 20
0.0
 30
0.0
  3
*D28
  1

  0
LINE
  5
14186
330
13A8D
100
AcDbEntity
  8
寸法
 62
     0
 48
50.0
370
    -2
100
AcDbLine
 10
13395.14422886714
 20
2794.732394739148
 30
0.0
 11
14106.3578078532
 21
2794.732394739148
 31
0.0
  0
LINE
  5
14187
330
13A8D
100
AcDbEntity
  8
寸法
 62
     0
 48
50.0
370
    -2
100
AcDbLine
 10
13475.14422886715
 20
5114.732394739147
 30
0.0
 11
14106.35780785321
 21
5114.732394739147
 31
0.0
  0
LINE
  5
14188
330
13A8D
100
AcDbEntity
  8
寸法
 62
     0
 48
50.0
370
    -2
100
AcDbLine
 10
14066.3578078532
 20
2814.732394739147
 30
0.0
 11
14066.35780785321
 21
5094.732394739146
 31
0.0
  0
INSERT
  5
14189
330
13A8D
100
AcDbEntity
  8
寸法
 62
     0
 48
50.0
370
    -2
100
AcDbBlockReference
  2
_DOT
 10
14066.3578078532
 20
2794.732394739148
 30
0.0
 41
20.0
 42
20.0
 43
20.0
 50
270.0
  0
INSERT
  5
1418A
330
13A8D
100
AcDbEntity
  8
寸法
 62
     0
 48
50.0
370
    -2
100
AcDbBlockReference
  2
_DOT
 10
14066.35780785321
 20
5114.732394739147
 30
0.0
 41
20.0
 42
20.0
 43
20.0
 50
90.0
  0
MTEXT
  5
1418B
330
13A8D
100
AcDbEntity
  8
寸法
 62
     7
 48
50.0
100
AcDbMText
 10
13974.34599682958
 20
3954.732394739149
 30
0.0
 40
120.0
 41
0.0
 71
     5
 72
     1
  1
\A1;2320
  7
STYLE1
 11
0.0000000000000001
 21
1.0
 31
0.0
 73
     1
 44
1.0
1001
ACAD
1000
MTEXTBEGIN
1070
    73
1070
     1
1070
    44
1040
1.0
1070
    74
1070
     0
1000
MTEXTEND
  0
POINT
  5
1418C
330
13A8D
100
AcDbEntity
  8
DEFPOINTS
 62
     0
 48
50.0
100
AcDbPoint
 10
13375.14422886714
 20
2794.732394739148
 30
0.0
  0
POINT
  5
1418D
330
13A8D
100
AcDbEntity
  8
DEFPOINTS
 62
     0
 48
50.0
100
AcDbPoint
 10
13455.14422886715
 20
5114.732394739147
 30
0.0
  0
POINT
  5
1418E
330
13A8D
100
AcDbEntity
  8
DEFPOINTS
 62
     0
 48
50.0
100
AcDbPoint
 10
14066.35780785321
 20
5114.732394739147
 30
0.0
  0
ENDBLK
  5
13A98
330
13A8D
100
AcDbEntity
  8
0
 48
50.0
100
AcDbBlockEnd
  0
BLOCK
  5
13C7A
330
13C6E
100
AcDbEntity
  8
0
 48
50.0
100
AcDbBlockBegin
  2
*D29
 70
     1
 10
0.0
 20
0.0
 30
0.0
  3
*D29
  1

  0
LINE
  5
14169
330
13C6E
100
AcDbEntity
  8
寸法
 62
     0
 48
50.0
370
    -2
100
AcDbLine
 10
3158.904397928898
 20
5189.732394739157
 30
0.0
 11
3158.904397928898
 21
5442.273979997395
 31
0.0
  0
LINE
  5
1416A
330
13C6E
100
AcDbEntity
  8
寸法
 62
     0
 48
50.0
370
    -2
100
AcDbLine
 10
3108.904397928898
 20
5189.732394739156
 30
0.0
 11
3108.904397928898
 21
5442.273979997395
 31
0.0
  0
LINE
  5
1416B
330
13C6E
100
AcDbEntity
  8
寸法
 62
     0
 48
50.0
370
    -2
100
AcDbLine
 10
3158.904397928898
 20
5382.273979997394
 30
0.0
 11
3258.904397928898
 21
5382.273979997394
 31
0.0
  0
LINE
  5
1416C
330
13C6E
100
AcDbEntity
  8
寸法
 62
     0
 48
50.0
370
    -2
100
AcDbLine
 10
3108.904397928898
 20
5382.273979997394
 30
0.0
 11
2689.371872460163
 21
5382.273979997394
 31
0.0
  0
LINE
  5
1416D
330
13C6E
100
AcDbEntity
  8
寸法
 62
     0
 48
50.0
370
    -2
100
AcDbLine
 10
3158.904397928898
 20
5382.273979997394
 30
0.0
 11
3108.904397928898
 21
5382.273979997394
 31
0.0
  0
INSERT
  5
1416E
330
13C6E
100
AcDbEntity
  8
寸法
 62
     0
 48
50.0
370
    -2
100
AcDbBlockReference
  2
_DOTSMALL
 10
3158.904397928898
 20
5382.273979997394
 30
0.0
 41
100.0
 42
100.0
 43
100.0
 50
180.0
  0
INSERT
  5
1416F
330
13C6E
100
AcDbEntity
  8
寸法
 62
     0
 48
50.0
370
    -2
100
AcDbBlockReference
  2
_DOTSMALL
 10
3108.904397928898
 20
5382.273979997394
 30
0.0
 41
100.0
 42
100.0
 43
100.0
  0
MTEXT
  5
14170
330
13C6E
100
AcDbEntity
  8
寸法
 62
     7
 48
50.0
100
AcDbMText
 10
2795.419116554651
 20
5482.273979997394
 30
0.0
 40
120.0
 41
0.0
 71
     5
 72
     1
  1
\A1;50
  7
STYLE1
 73
     1
 44
1.0
1001
ACAD
1000
MTEXTBEGIN
1070
    73
1070
     1
1070
    44
1040
1.0
1070
    74
1070
     0
1000
MTEXTEND
  0
POINT
  5
14171
330
13C6E
100
AcDbEntity
  8
DEFPOINTS
 62
     0
 48
50.0
100
AcDbPoint
 10
3158.904397928898
 20
5169.732394739156
 30
0.0
  0
POINT
  5
14172
330
13C6E
100
AcDbEntity
  8
DEFPOINTS
 62
     0
 48
50.0
100
AcDbPoint
 10
3108.904397928898
 20
5169.732394739155
 30
0.0
  0
POINT
  5
14173
330
13C6E
100
AcDbEntity
  8
DEFPOINTS
 62
     0
 48
50.0
100
AcDbPoint
 10
3108.904397928898
 20
5382.273979997394
 30
0.0
  0
ENDBLK
  5
13C7B
330
13C6E
100
AcDbEntity
  8
0
 48
50.0
100
AcDbBlockEnd
  0
BLOCK
  5
13C86
330
13C7C
100
AcDbEntity
  8
0
 48
50.0
100
AcDbBlockBegin
  2
*D30
 70
     1
 10
0.0
 20
0.0
 30
0.0
  3
*D30
  1

  0
LINE
  5
14174
330
13C7C
100
AcDbEntity
  8
寸法
 62
     0
 48
50.0
370
    -2
100
AcDbLine
 10
3108.904397928898
 20
5189.732394739156
 30
0.0
 11
3108.904397928898
 21
5663.179280471142
 31
0.0
  0
LINE
  5
14175
330
13C7C
100
AcDbEntity
  8
寸法
 62
     0
 48
50.0
370
    -2
100
AcDbLine
 10
8468.904397928902
 20
5189.73239473915
 30
0.0
 11
8468.904397928902
 21
5663.179280471142
 31
0.0
  0
LINE
  5
14176
330
13C7C
100
AcDbEntity
  8
寸法
 62
     0
 48
50.0
370
    -2
100
AcDbLine
 10
3108.904397928898
 20
5603.179280471142
 30
0.0
 11
8468.904397928902
 21
5603.179280471142
 31
0.0
  0
INSERT
  5
14177
330
13C7C
100
AcDbEntity
  8
寸法
 62
     0
 48
50.0
370
    -2
100
AcDbBlockReference
  2
_DOTSMALL
 10
3108.904397928898
 20
5603.179280471142
 30
0.0
 41
100.0
 42
100.0
 43
100.0
 50
180.0
  0
INSERT
  5
14178
330
13C7C
100
AcDbEntity
  8
寸法
 62
     0
 48
50.0
370
    -2
100
AcDbBlockReference
  2
_DOTSMALL
 10
8468.904397928902
 20
5603.179280471142
 30
0.0
 41
100.0
 42
100.0
 43
100.0
  0
MTEXT
  5
14179
330
13C7C
100
AcDbEntity
  8
寸法
 62
     7
 48
50.0
100
AcDbMText
 10
5788.904397928899
 20
5703.179280471142
 30
0.0
 40
120.0
 41
0.0
 71
     5
 72
     1
  1
\A1;5360
  7
STYLE1
 73
     1
 44
1.0
1001
ACAD
1000
MTEXTBEGIN
1070
    73
1070
     1
1070
    44
1040
1.0
1070
    74
1070
     0
1000
MTEXTEND
  0
POINT
  5
1417A
330
13C7C
100
AcDbEntity
  8
DEFPOINTS
 62
     0
 48
50.0
100
AcDbPoint
 10
3108.904397928898
 20
5169.732394739155
 30
0.0
  0
POINT
  5
1417B
330
13C7C
100
AcDbEntity
  8
DEFPOINTS
 62
     0
 48
50.0
100
AcDbPoint
 10
8468.904397928902
 20
5169.732394739151
 30
0.0
  0
POINT
  5
1417C
330
13C7C
100
AcDbEntity
  8
DEFPOINTS
 62
     0
 48
50.0
100
AcDbPoint
 10
8468.904397928902
 20
5603.179280471142
 30
0.0
  0
ENDBLK
  5
13C87
330
13C7C
100
AcDbEntity
  8
0
 48
50.0
100
AcDbBlockEnd
  0
BLOCK
  5
13C92
330
13C88
100
AcDbEntity
  8
0
 48
50.0
100
AcDbBlockBegin
  2
*D31
 70
     1
 10
0.0
 20
0.0
 30
0.0
  3
*D31
  1

  0
LINE
  5
1417D
330
13C88
100
AcDbEntity
  8
寸法
 62
     0
 48
50.0
370
    -2
100
AcDbLine
 10
8418.904397928903
 20
5189.732394739152
 30
0.0
 11
8418.904397928903
 21
5442.273979997392
 31
0.0
  0
LINE
  5
1417E
330
13C88
100
AcDbEntity
  8
寸法
 62
     0
 48
50.0
370
    -2
100
AcDbLine
 10
3158.904397928898
 20
5189.732394739157
 30
0.0
 11
3158.904397928898
 21
5442.273979997392
 31
0.0
  0
LINE
  5
1417F
330
13C88
100
AcDbEntity
  8
寸法
 62
     0
 48
50.0
370
    -2
100
AcDbLine
 10
8418.904397928903
 20
5382.273979997393
 30
0.0
 11
3158.904397928898
 21
5382.273979997393
 31
0.0
  0
INSERT
  5
14180
330
13C88
100
AcDbEntity
  8
寸法
 62
     0
 48
50.0
370
    -2
100
AcDbBlockReference
  2
_DOTSMALL
 10
8418.904397928903
 20
5382.273979997393
 30
0.0
 41
100.0
 42
100.0
 43
100.0
  0
INSERT
  5
14181
330
13C88
100
AcDbEntity
  8
寸法
 62
     0
 48
50.0
370
    -2
100
AcDbBlockReference
  2
_DOTSMALL
 10
3158.904397928898
 20
5382.273979997393
 30
0.0
 41
100.0
 42
100.0
 43
100.0
 50
180.0
  0
MTEXT
  5
14182
330
13C88
100
AcDbEntity
  8
寸法
 62
     7
 48
50.0
100
AcDbMText
 10
5788.9043979289
 20
5482.285791021014
 30
0.0
 40
120.0
 41
0.0
 71
     5
 72
     1
  1
\A1;柱外寸法5260
  7
STYLE1
 73
     1
 44
1.0
1001
ACAD
1000
MTEXTBEGIN
1070
    73
1070
     1
1070
    44
1040
1.0
1070
    74
1070
     0
1000
MTEXTEND
  0
POINT
  5
14183
330
13C88
100
AcDbEntity
  8
DEFPOINTS
 62
     0
 48
50.0
100
AcDbPoint
 10
8418.904397928903
 20
5169.732394739153
 30
0.0
  0
POINT
  5
14184
330
13C88
100
AcDbEntity
  8
DEFPOINTS
 62
     0
 48
50.0
100
AcDbPoint
 10
3158.904397928898
 20
5169.732394739156
 30
0.0
  0
POINT
  5
14185
330
13C88
100
AcDbEntity
  8
DEFPOINTS
 62
     0
 48
50.0
100
AcDbPoint
 10
3158.904397928898
 20
5382.273979997393
 30
0.0
  0
ENDBLK
  5
13C93
330
13C88
100
AcDbEntity
  8
0
 48
50.0
100
AcDbBlockEnd
  0
BLOCK
  5
13CC8
330
13CBC
100
AcDbEntity
  8
0
 48
50.0
100
AcDbBlockBegin
  2
*D32
 70
     1
 10
0.0
 20
0.0
 30
0.0
  3
*D32
  1

  0
LINE
  5
1415E
330
13CBC
100
AcDbEntity
  8
寸法
 62
     0
 48
50.0
370
    -2
100
AcDbLine
 10
8468.904397928902
 20
5189.73239473915
 30
0.0
 11
8468.904397928902
 21
5442.273979997391
 31
0.0
  0
LINE
  5
1415F
330
13CBC
100
AcDbEntity
  8
寸法
 62
     0
 48
50.0
370
    -2
100
AcDbLine
 10
8418.904397928903
 20
5189.732394739152
 30
0.0
 11
8418.904397928903
 21
5442.273979997391
 31
0.0
  0
LINE
  5
14160
330
13CBC
100
AcDbEntity
  8
寸法
 62
     0
 48
50.0
370
    -2
100
AcDbLine
 10
8418.904397928903
 20
5382.273979997392
 30
0.0
 11
8318.904397928902
 21
5382.273979997392
 31
0.0
  0
LINE
  5
14161
330
13CBC
100
AcDbEntity
  8
寸法
 62
     0
 48
50.0
370
    -2
100
AcDbLine
 10
8468.904397928902
 20
5382.273979997392
 30
0.0
 11
8888.436923397625
 21
5382.273979997392
 31
0.0
  0
LINE
  5
14162
330
13CBC
100
AcDbEntity
  8
寸法
 62
     0
 48
50.0
370
    -2
100
AcDbLine
 10
8418.904397928903
 20
5382.273979997392
 30
0.0
 11
8468.904397928902
 21
5382.273979997392
 31
0.0
  0
INSERT
  5
14163
330
13CBC
100
AcDbEntity
  8
寸法
 62
     0
 48
50.0
370
    -2
100
AcDbBlockReference
  2
_DOTSMALL
 10
8418.904397928903
 20
5382.273979997392
 30
0.0
 41
100.0
 42
100.0
 43
100.0
  0
INSERT
  5
14164
330
13CBC
100
AcDbEntity
  8
寸法
 62
     0
 48
50.0
370
    -2
100
AcDbBlockReference
  2
_DOTSMALL
 10
8468.904397928902
 20
5382.273979997392
 30
0.0
 41
100.0
 42
100.0
 43
100.0
 50
180.0
  0
MTEXT
  5
14165
330
13CBC
100
AcDbEntity
  8
寸法
 62
     7
 48
50.0
100
AcDbMText
 10
8782.389679303138
 20
5482.273979997391
 30
0.0
 40
120.0
 41
0.0
 71
     5
 72
     1
  1
\A1;50
  7
STYLE1
 73
     1
 44
1.0
1001
ACAD
1000
MTEXTBEGIN
1070
    73
1070
     1
1070
    44
1040
1.0
1070
    74
1070
     0
1000
MTEXTEND
  0
POINT
  5
14166
330
13CBC
100
AcDbEntity
  8
DEFPOINTS
 62
     0
 48
50.0
100
AcDbPoint
 10
8468.904397928902
 20
5169.732394739151
 30
0.0
  0
POINT
  5
14167
330
13CBC
100
AcDbEntity
  8
DEFPOINTS
 62
     0
 48
50.0
100
AcDbPoint
 10
8418.904397928903
 20
5169.732394739153
 30
0.0
  0
POINT
  5
14168
330
13CBC
100
AcDbEntity
  8
DEFPOINTS
 62
     0
 48
50.0
100
AcDbPoint
 10
8418.904397928903
 20
5382.273979997392
 30
0.0
  0
ENDBLK
  5
13CC9
330
13CBC
100
AcDbEntity
  8
0
 48
50.0
100
AcDbBlockEnd
  0
BLOCK
  5
14260
330
1420C
100
AcDbEntity
  8
0
 48
50.0
100
AcDbBlockBegin
  2
A$C1DBC49FF
 70
     0
 10
0.0
 20
0.0
 30
0.0
  3
A$C1DBC49FF
  1

  0
TEXT
  5
1420D
330
1420C
100
AcDbEntity
  8
文字
 62
     7
 48
50.0
100
AcDbText
 10
1895.439682665757
 20
2070.413723851751
 30
0.0
 40
100.0
  1
F12,Y10        1.0
  7
STYLE1
100
AcDbText
  0
TEXT
  5
1420E
330
1420C
100
AcDbEntity
  8
文字
 62
     7
 48
50.0
100
AcDbText
 10
455.918218086288
 20
2070.413723851753
 30
0.0
 40
100.0
  1
梁中
 41
0.9
  7
STYLE1
100
AcDbText
  0
TEXT
  5
1420F
330
1420C
100
AcDbEntity
  8
文字
 62
     7
 48
50.0
100
AcDbText
 10
121.5775015850595
 20
540.4137238517523
 30
0.0
 40
100.0
  1
17
  7
STYLE1
100
AcDbText
  0
TEXT
  5
14210
330
1420C
100
AcDbEntity
  8
文字
 62
     7
 48
50.0
100
AcDbText
 10
121.5775015850595
 20
710.4137238517523
 30
0.0
 40
100.0
  1
16
  7
STYLE1
100
AcDbText
  0
TEXT
  5
14211
330
1420C
100
AcDbEntity
  8
文字
 62
     7
 48
50.0
100
AcDbText
 10
1895.439682665761
 20
1050.413723851749
 30
0.0
 40
100.0
  1
F12            1.0
  7
STYLE1
100
AcDbText
  0
TEXT
  5
14212
330
1420C
100
AcDbEntity
  8
文字
 62
     7
 48
50.0
100
AcDbText
 10
455.9182180862771
 20
1050.413723851756
 30
0.0
 40
100.0
  1
壁面扉枠左右
  7
STYLE1
100
AcDbText
  0
TEXT
  5
14213
330
1420C
100
AcDbEntity
  8
文字
 62
     7
 48
50.0
100
AcDbText
 10
1895.439682665761
 20
1220.413723851749
 30
0.0
 40
100.0
  1
F12            1.0
  7
STYLE1
100
AcDbText
  0
TEXT
  5
14214
330
1420C
100
AcDbEntity
  8
文字
 62
     7
 48
50.0
100
AcDbText
 10
1895.439682665743
 20
1390.41372385175
 30
0.0
 40
100.0
  1
F12            0.7
  7
STYLE1
100
AcDbText
  0
TEXT
  5
14215
330
1420C
100
AcDbEntity
  8
文字
 62
     7
 48
50.0
100
AcDbText
 10
455.9182180862771
 20
1220.413723851756
 30
0.0
 40
100.0
  1
壁面扉敷居
  7
STYLE1
100
AcDbText
  0
TEXT
  5
14216
330
1420C
100
AcDbEntity
  8
文字
 62
     7
 48
50.0
100
AcDbText
 10
455.9182180862771
 20
1390.413723851752
 30
0.0
 40
100.0
  1
壁面扉鴨居
  7
STYLE1
100
AcDbText
  0
LINE
  5
14217
330
1420C
100
AcDbEntity
  8
仕様書枠
 48
50.0
100
AcDbLine
 10
3180.000027920582
 20
849.9999779680274
 30
0.0
 11
0.0000279205887637
 21
849.9999779680292
 31
0.0
  0
LINE
  5
14218
330
1420C
100
AcDbEntity
  8
仕様書枠
 48
50.0
100
AcDbLine
 10
3180.000027920582
 20
679.9999779680274
 30
0.0
 11
0.0000279205887637
 21
679.9999779680292
 31
0.0
  0
TEXT
  5
14219
330
1420C
100
AcDbEntity
  8
文字
 62
     7
 48
50.0
100
AcDbText
 10
455.9182180862771
 20
540.4137238517523
 30
0.0
 40
100.0
  1
アンカープレート
  7
STYLE1
100
AcDbText
  0
TEXT
  5
1421A
330
1420C
100
AcDbEntity
  8
文字
 62
     7
 48
50.0
100
AcDbText
 10
1895.439682665739
 20
540.4137238517469
 30
0.0
 40
100.0
  1
F12            2.3
  7
STYLE1
100
AcDbText
  0
LINE
  5
1421B
330
1420C
100
AcDbEntity
  8
仕様書枠
 48
50.0
100
AcDbLine
 10
3180.000027920589
 20
2209.999977968022
 30
0.0
 11
0.0000279205887637
 21
2209.999977968024
 31
0.0
  0
LINE
  5
1421C
330
1420C
100
AcDbEntity
  8
仕様書枠
 48
50.0
100
AcDbLine
 10
3180.000027920589
 20
3569.999977968022
 30
0.0
 11
0.0000279205887637
 21
3569.999977968024
 31
0.0
  0
LINE
  5
1421D
330
1420C
100
AcDbEntity
  8
仕様書枠
 48
50.0
100
AcDbLine
 10
3180.000027920578
 20
-0.0000220319734581
 30
0.0
 11
3180.000027920589
 21
3569.999977968024
 31
0.0
  0
LINE
  5
1421E
330
1420C
100
AcDbEntity
  8
仕様書枠
 48
50.0
100
AcDbLine
 10
1658.000027920589
 20
3569.99997796802
 30
0.0
 11
1658.000027920585
 21
509.9999779680274
 31
0.0
  0
LINE
  5
1421F
330
1420C
100
AcDbEntity
  8
仕様書枠
 48
50.0
100
AcDbLine
 10
363.0000279205888
 20
3569.999977968022
 30
0.0
 11
363.0000279206033
 21
509.9999779680293
 31
0.0
  0
LINE
  5
14220
330
1420C
100
AcDbEntity
  8
仕様書枠
 48
50.0
100
AcDbLine
 10
3180.000027920589
 20
3399.999977968022
 30
0.0
 11
0.0000279205887637
 21
3399.999977968024
 31
0.0
  0
LINE
  5
14221
330
1420C
100
AcDbEntity
  8
仕様書枠
 48
50.0
100
AcDbLine
 10
3180.000027920589
 20
3059.999977968022
 30
0.0
 11
0.0000279205887637
 21
3059.999977968024
 31
0.0
  0
LINE
  5
14222
330
1420C
100
AcDbEntity
  8
仕様書枠
 48
50.0
100
AcDbLine
 10
3180.000027920589
 20
3229.999977968022
 30
0.0
 11
0.0000279205887637
 21
3229.999977968024
 31
0.0
  0
LINE
  5
14223
330
1420C
100
AcDbEntity
  8
仕様書枠
 48
50.0
100
AcDbLine
 10
3180.000027920582
 20
2719.999977968022
 30
0.0
 11
0.0000279205887637
 21
2719.999977968024
 31
0.0
  0
LINE
  5
14224
330
1420C
100
AcDbEntity
  8
仕様書枠
 48
50.0
100
AcDbLine
 10
3180.000027920582
 20
2549.999977968022
 30
0.0
 11
0.0000279205887637
 21
2549.999977968024
 31
0.0
  0
LINE
  5
14225
330
1420C
100
AcDbEntity
  8
仕様書枠
 48
50.0
100
AcDbLine
 10
3180.000027920582
 20
2889.999977968022
 30
0.0
 11
0.0000279205887637
 21
2889.999977968024
 31
0.0
  0
TEXT
  5
14226
330
1420C
100
AcDbEntity
  8
文字
 62
     7
 48
50.0
100
AcDbText
 10
70.22521352465628
 20
3430.413723851751
 30
0.0
 40
100.0
  1
品番
  7
STYLE1
100
AcDbText
  0
TEXT
  5
14227
330
1420C
100
AcDbEntity
  8
文字
 62
     7
 48
50.0
100
AcDbText
 10
143.9903503685091
 20
3260.413723851752
 30
0.0
 40
100.0
  1
1
  7
STYLE1
100
AcDbText
  0
TEXT
  5
14228
330
1420C
100
AcDbEntity
  8
文字
 62
     7
 48
50.0
100
AcDbText
 10
143.9903503685091
 20
3090.413723851753
 30
0.0
 40
100.0
  1
2
  7
STYLE1
100
AcDbText
  0
TEXT
  5
14229
330
1420C
100
AcDbEntity
  8
文字
 62
     7
 48
50.0
100
AcDbText
 10
143.9903503685091
 20
2750.413723851753
 30
0.0
 40
100.0
  1
4
  7
STYLE1
100
AcDbText
  0
TEXT
  5
1422A
330
1420C
100
AcDbEntity
  8
文字
 62
     7
 48
50.0
100
AcDbText
 10
143.9903503685091
 20
2920.413723851753
 30
0.0
 40
100.0
  1
3
  7
STYLE1
100
AcDbText
  0
TEXT
  5
1422B
330
1420C
100
AcDbEntity
  8
文字
 62
     7
 48
50.0
100
AcDbText
 10
604.8384373149347
 20
3430.413723851751
 30
0.0
 40
100.0
  1
部　　品　　名
  7
STYLE1
100
AcDbText
  0
TEXT
  5
1422C
330
1420C
100
AcDbEntity
  8
文字
 62
     7
 48
50.0
100
AcDbText
 10
1732.597774065409
 20
3430.413723851751
 30
0.0
 40
100.0
  1
材料（材質）　　単位mm
  7
STYLE1
100
AcDbText
  0
TEXT
  5
1422D
330
1420C
100
AcDbEntity
  8
文字
 62
     7
 48
50.0
100
AcDbText
 10
455.9182180862808
 20
3260.413723851751
 30
0.0
 40
100.0
  1
土台枠
  7
STYLE1
100
AcDbText
  0
TEXT
  5
1422E
330
1420C
100
AcDbEntity
  8
文字
 62
     7
 48
50.0
100
AcDbText
 10
455.918218086288
 20
2920.413723851751
 30
0.0
 40
100.0
  1
柱
  7
STYLE1
100
AcDbText
  0
TEXT
  5
1422F
330
1420C
100
AcDbEntity
  8
文字
 62
     7
 48
50.0
100
AcDbText
 10
455.9182180862844
 20
2580.413723851752
 30
0.0
 40
100.0
  1
桁前後
  7
STYLE1
100
AcDbText
  0
TEXT
  5
14230
330
1420C
100
AcDbEntity
  8
文字
 62
     7
 48
50.0
100
AcDbText
 10
143.9903503685091
 20
2580.413723851751
 30
0.0
 40
100.0
  1
5
  7
STYLE1
100
AcDbText
  0
TEXT
  5
14231
330
1420C
100
AcDbEntity
  8
文字
 62
     7
 48
50.0
100
AcDbText
 10
455.9182180862844
 20
2410.413723851751
 30
0.0
 40
100.0
  1
妻板左右
  7
STYLE1
100
AcDbText
  0
TEXT
  5
14232
330
1420C
100
AcDbEntity
  8
文字
 62
     7
 48
50.0
100
AcDbText
 10
121.5775015850631
 20
1730.41372385175
 30
0.0
 40
100.0
  1
10
  7
STYLE1
100
AcDbText
  0
TEXT
  5
14233
330
1420C
100
AcDbEntity
  8
文字
 62
     7
 48
50.0
100
AcDbText
 10
455.9182180862735
 20
1560.413723851752
 30
0.0
 40
100.0
  1
壁パネル
  7
STYLE1
100
AcDbText
  0
TEXT
  5
14234
330
1420C
100
AcDbEntity
  8
文字
 62
     7
 48
50.0
100
AcDbText
 10
455.9182180862808
 20
1900.41372385175
 30
0.0
 40
100.0
  1
屋根パネル
  7
STYLE1
100
AcDbText
  0
TEXT
  5
14235
330
1420C
100
AcDbEntity
  8
文字
 62
     7
 48
50.0
100
AcDbText
 10
455.9182180862844
 20
2240.413723851751
 30
0.0
 40
100.0
  1
鼻隠シ前後
  7
STYLE1
100
AcDbText
  0
TEXT
  5
14236
330
1420C
100
AcDbEntity
  8
文字
 62
     7
 48
50.0
100
AcDbText
 10
143.9903503685091
 20
2070.413723851753
 30
0.0
 40
100.0
  1
8
  7
STYLE1
100
AcDbText
  0
TEXT
  5
14237
330
1420C
100
AcDbEntity
  8
文字
 62
     7
 48
50.0
100
AcDbText
 10
143.9903503685091
 20
1900.413723851752
 30
0.0
 40
100.0
  1
9
  7
STYLE1
100
AcDbText
  0
TEXT
  5
14238
330
1420C
100
AcDbEntity
  8
文字
 62
     7
 48
50.0
100
AcDbText
 10
143.9903503685091
 20
2240.413723851752
 30
0.0
 40
100.0
  1
7
  7
STYLE1
100
AcDbText
  0
TEXT
  5
14239
330
1420C
100
AcDbEntity
  8
文字
 62
     7
 48
50.0
100
AcDbText
 10
143.9903503685091
 20
2410.413723851752
 30
0.0
 40
100.0
  1
6
  7
STYLE1
100
AcDbText
  0
LINE
  5
1423A
330
1420C
100
AcDbEntity
  8
仕様書枠
 48
50.0
100
AcDbLine
 10
3180.000027920582
 20
1869.999977968022
 30
0.0
 11
0.0000279205887637
 21
1869.999977968024
 31
0.0
  0
LINE
  5
1423B
330
1420C
100
AcDbEntity
  8
仕様書枠
 48
50.0
100
AcDbLine
 10
3180.000027920582
 20
1529.999977968022
 30
0.0
 11
0.0000279205887637
 21
1529.999977968024
 31
0.0
  0
LINE
  5
1423C
330
1420C
100
AcDbEntity
  8
仕様書枠
 48
50.0
100
AcDbLine
 10
3180.000027920582
 20
1699.999977968022
 30
0.0
 11
0.0000279205887637
 21
1699.999977968024
 31
0.0
  0
LINE
  5
1423D
330
1420C
100
AcDbEntity
  8
仕様書枠
 48
50.0
100
AcDbLine
 10
3180.000027920589
 20
2379.999977968022
 30
0.0
 11
0.0000279205887637
 21
2379.999977968024
 31
0.0
  0
LINE
  5
1423E
330
1420C
100
AcDbEntity
  8
仕様書枠
 48
50.0
100
AcDbLine
 10
3180.000027920589
 20
2039.999977968022
 30
0.0
 11
0.0000279205887637
 21
2039.999977968024
 31
0.0
  0
TEXT
  5
1423F
330
1420C
100
AcDbEntity
  8
文字
 62
     7
 48
50.0
100
AcDbText
 10
121.5775015850631
 20
1560.41372385175
 30
0.0
 40
100.0
  1
11
  7
STYLE1
100
AcDbText
  0
LINE
  5
14240
330
1420C
100
AcDbEntity
  8
仕様書枠
 48
50.0
100
AcDbLine
 10
3180.000027920582
 20
1359.999977968022
 30
0.0
 11
0.0000279205887637
 21
1359.999977968024
 31
0.0
  0
LINE
  5
14241
330
1420C
100
AcDbEntity
  8
仕様書枠
 48
50.0
100
AcDbLine
 10
3180.000027920582
 20
1019.999977968024
 30
0.0
 11
0.0000279205887637
 21
1019.999977968025
 31
0.0
  0
TEXT
  5
14242
330
1420C
100
AcDbEntity
  8
文字
 62
     7
 48
50.0
100
AcDbText
 10
121.5775015850668
 20
1220.41372385175
 30
0.0
 40
100.0
  1
13
  7
STYLE1
100
AcDbText
  0
TEXT
  5
14243
330
1420C
100
AcDbEntity
  8
文字
 62
     7
 48
50.0
100
AcDbText
 10
121.5775015850668
 20
1390.41372385175
 30
0.0
 40
100.0
  1
12
  7
STYLE1
100
AcDbText
  0
TEXT
  5
14244
330
1420C
100
AcDbEntity
  8
文字
 62
     7
 48
50.0
100
AcDbText
 10
1895.439682665757
 20
3260.413723851749
 30
0.0
 40
100.0
  1
F12            1.2
  7
STYLE1
100
AcDbText
  0
TEXT
  5
14245
330
1420C
100
AcDbEntity
  8
文字
 62
     7
 48
50.0
100
AcDbText
 10
1895.439682665765
 20
2920.413723851749
 30
0.0
 40
100.0
  1
F12            1.0
  7
STYLE1
100
AcDbText
  0
TEXT
  5
14246
330
1420C
100
AcDbEntity
  8
文字
 62
     7
 48
50.0
100
AcDbText
 10
1895.439682665754
 20
2580.413723851749
 30
0.0
 40
100.0
  1
Y10            1.0
  7
STYLE1
100
AcDbText
  0
TEXT
  5
14247
330
1420C
100
AcDbEntity
  8
文字
 62
     7
 48
50.0
100
AcDbText
 10
1895.439682665754
 20
2410.413723851749
 30
0.0
 40
100.0
  1
Y10            0.7
  7
STYLE1
100
AcDbText
  0
TEXT
  5
14248
330
1420C
100
AcDbEntity
  8
文字
 62
     7
 48
50.0
100
AcDbText
 10
1895.439682665754
 20
2240.413723851749
 30
0.0
 40
100.0
  1
Y10            0.7
  7
STYLE1
100
AcDbText
  0
TEXT
  5
14249
330
1420C
100
AcDbEntity
  8
文字
 62
     7
 48
50.0
100
AcDbText
 10
1895.439682665757
 20
1900.413723851748
 30
0.0
 40
100.0
  1
Y10            0.5
  7
STYLE1
100
AcDbText
  0
TEXT
  5
1424A
330
1420C
100
AcDbEntity
  8
文字
 62
     7
 48
50.0
100
AcDbText
 10
1895.439682665743
 20
1560.413723851748
 30
0.0
 40
100.0
  1
F12            0.7
  7
STYLE1
100
AcDbText
  0
LINE
  5
1424B
330
1420C
100
AcDbEntity
  8
仕様書枠
 48
50.0
100
AcDbLine
 10
3180.000027920578
 20
509.9999779680274
 30
0.0
 11
0.0000279205851257
 21
509.9999779680293
 31
0.0
  0
LINE
  5
1424C
330
1420C
100
AcDbEntity
  8
仕様書枠
 48
50.0
100
AcDbLine
 10
3180.000027920578
 20
169.9999779680274
 30
0.0
 11
0.0000279205851257
 21
169.9999779680292
 31
0.0
  0
TEXT
  5
1424D
330
1420C
100
AcDbEntity
  8
文字
 62
     7
 48
50.0
100
AcDbText
 10
102.6308444861279
 20
200.413723851756
 30
0.0
 40
100.0
  1
F12→溶融亜鉛めっき鋼板(JIS G 3302)
  7
STYLE1
100
AcDbText
  0
TEXT
  5
1424E
330
1420C
100
AcDbEntity
  8
文字
 62
     7
 48
50.0
100
AcDbText
 10
102.6308444861279
 20
30.41372385175601
 30
0.0
 40
100.0
  1
Y10→溶融亜鉛-5％アルミニウム合金めっき鋼板(JIS G 3317)
 41
0.9
  7
STYLE1
100
AcDbText
  0
LINE
  5
1424F
330
1420C
100
AcDbEntity
  8
仕様書枠
 48
50.0
100
AcDbLine
 10
0.0000279205887637
 20
3569.999977968024
 30
0.0
 11
0.0000279205851257
 21
-0.0000220319698201
 31
0.0
  0
LINE
  5
14250
330
1420C
100
AcDbEntity
  8
仕様書枠
 48
50.0
100
AcDbLine
 10
3180.000027920582
 20
1189.999977968024
 30
0.0
 11
0.0000279205887637
 21
1189.999977968025
 31
0.0
  0
TEXT
  5
14251
330
1420C
100
AcDbEntity
  8
文字
 62
     7
 48
50.0
100
AcDbText
 10
455.918218086288
 20
2750.41372385175
 30
0.0
 40
100.0
  1
床パネル
 41
0.9
  7
STYLE1
100
AcDbText
  0
TEXT
  5
14252
330
1420C
100
AcDbEntity
  8
文字
 62
     7
 48
50.0
100
AcDbText
 10
455.9182180862808
 20
3090.413723851751
 30
0.0
 40
100.0
  1
根太
  7
STYLE1
100
AcDbText
  0
TEXT
  5
14253
330
1420C
100
AcDbEntity
  8
文字
 62
     7
 48
50.0
100
AcDbText
 10
121.5775015850668
 20
1050.41372385175
 30
0.0
 40
100.0
  1
14
  7
STYLE1
100
AcDbText
  0
TEXT
  5
14254
330
1420C
100
AcDbEntity
  8
文字
 62
     7
 48
50.0
100
AcDbText
 10
1895.43968266575
 20
3090.413723851747
 30
0.0
 40
100.0
  1
F12            1.2
  7
STYLE1
100
AcDbText
  0
TEXT
  5
14255
330
1420C
100
AcDbEntity
  8
文字
 62
     7
 48
50.0
100
AcDbText
 10
1895.439682665757
 20
2750.413723851749
 30
0.0
 40
100.0
  1
F12            1.0
  7
STYLE1
100
AcDbText
  0
TEXT
  5
14256
330
1420C
100
AcDbEntity
  8
文字
 62
     7
 48
50.0
100
AcDbText
 10
1895.439682665739
 20
880.4137238517505
 30
0.0
 40
100.0
  1
F12            0.7
  7
STYLE1
100
AcDbText
  0
TEXT
  5
14257
330
1420C
100
AcDbEntity
  8
文字
 62
     7
 48
50.0
100
AcDbText
 10
455.9182180862698
 20
880.4137238517542
 30
0.0
 40
100.0
  1
正面パネル
  7
STYLE1
100
AcDbText
  0
TEXT
  5
14258
330
1420C
100
AcDbEntity
  8
文字
 62
     7
 48
50.0
100
AcDbText
 10
1895.439682665747
 20
710.4137238517505
 30
0.0
 40
100.0
  1
F12            0.8
  7
STYLE1
100
AcDbText
  0
TEXT
  5
14259
330
1420C
100
AcDbEntity
  8
文字
 62
     7
 48
50.0
100
AcDbText
 10
455.9182180862771
 20
710.4137238517542
 30
0.0
 40
100.0
  1
扉
  7
STYLE1
100
AcDbText
  0
LINE
  5
1425A
330
1420C
100
AcDbEntity
  8
仕様書枠
 48
50.0
100
AcDbLine
 10
3180.000027920571
 20
-0.0000220319725486
 30
0.0
 11
0.0000279205778497
 21
-0.0000220319707296
 31
0.0
  0
TEXT
  5
1425B
330
1420C
100
AcDbEntity
  8
文字
 62
     7
 48
50.0
100
AcDbText
 10
121.5775015850595
 20
880.4137238517524
 30
0.0
 40
100.0
  1
15
  7
STYLE1
100
AcDbText
  0
TEXT
  5
1425C
330
1420C
100
AcDbEntity
  8
文字
 62
     7
 48
50.0
100
AcDbText
 10
455.9182180862808
 20
1730.41372385175
 30
0.0
 40
100.0
  1
母屋中
  7
STYLE1
100
AcDbText
  0
TEXT
  5
1425D
330
1420C
100
AcDbEntity
  8
文字
 62
     7
 48
50.0
100
AcDbText
 10
1671.524050492935
 20
1730.413723851748
 30
0.0
 40
100.0
  1
F12(一般型1.0/多雪地型2.3)
  7
STYLE1
100
AcDbText
  0
LINE
  5
1425E
330
1420C
100
AcDbEntity
  8
仕様書枠
 48
50.0
100
AcDbLine
 10
3180.000027920578
 20
339.9999779680284
 30
0.0
 11
0.0000279205851257
 21
339.9999779680302
 31
0.0
  0
TEXT
  5
1425F
330
1420C
100
AcDbEntity
  8
文字
 62
     7
 48
50.0
100
AcDbText
 10
102.6308444861279
 20
370.4137238517542
 30
0.0
 40
100.0
  1
※多雪地型は、梁中補強パネルが必要です。
  7
STYLE1
100
AcDbText
  0
ENDBLK
  5
14261
330
1420C
100
AcDbEntity
  8
0
 48
50.0
100
AcDbBlockEnd
  0
BLOCK
  5
1474F
330
14745
100
AcDbEntity
  8
0
 48
50.0
100
AcDbBlockBegin
  2
*D34
 70
     1
 10
0.0
 20
0.0
 30
0.0
  3
*D34
  1

  0
LINE
  5
14D30
330
14745
100
AcDbEntity
  8
寸法
 62
     0
 48
50.0
370
    -2
100
AcDbLine
 10
3645.904397928899
 20
8039.291881376447
 30
0.0
 11
3645.904397928899
 21
7344.289987085066
 31
0.0
  0
LINE
  5
14D31
330
14745
100
AcDbEntity
  8
寸法
 62
     0
 48
50.0
370
    -2
100
AcDbLine
 10
4911.904397928899
 20
8039.291881376447
 30
0.0
 11
4911.904397928899
 21
7344.289987085066
 31
0.0
  0
LINE
  5
14D32
330
14745
100
AcDbEntity
  8
寸法
 62
     0
 48
50.0
370
    -2
100
AcDbLine
 10
3665.904397928899
 20
7384.289987085067
 30
0.0
 11
4891.904397928899
 21
7384.289987085067
 31
0.0
  0
INSERT
  5
14D33
330
14745
100
AcDbEntity
  8
寸法
 62
     0
 48
50.0
370
    -2
100
AcDbBlockReference
  2
_DOT
 10
3645.904397928899
 20
7384.289987085067
 30
0.0
 41
20.0
 42
20.0
 43
20.0
 50
180.0
  0
INSERT
  5
14D34
330
14745
100
AcDbEntity
  8
寸法
 62
     0
 48
50.0
370
    -2
100
AcDbBlockReference
  2
_DOT
 10
4911.904397928899
 20
7384.289987085067
 30
0.0
 41
20.0
 42
20.0
 43
20.0
  0
MTEXT
  5
14D35
330
14745
100
AcDbEntity
  8
寸法
 62
     7
 48
50.0
100
AcDbMText
 10
4289.299804419919
 20
7576.301798108689
 30
0.0
 40
120.0
 41
0.0
 71
     5
 72
     1
  1
\A1;有効開口部間口\P1266
  7
STYLE1
 73
     1
 44
1.0
1001
ACAD
1000
MTEXTBEGIN
1070
    73
1070
     1
1070
    44
1040
1.0
1070
    74
1070
     0
1000
MTEXTEND
  0
POINT
  5
14D36
330
14745
100
AcDbEntity
  8
DEFPOINTS
 62
     0
 48
50.0
100
AcDbPoint
 10
3645.904397928899
 20
8059.291881376447
 30
0.0
  0
POINT
  5
14D37
330
14745
100
AcDbEntity
  8
DEFPOINTS
 62
     0
 48
50.0
100
AcDbPoint
 10
4911.904397928899
 20
8059.291881376447
 30
0.0
  0
POINT
  5
14D38
330
14745
100
AcDbEntity
  8
DEFPOINTS
 62
     0
 48
50.0
100
AcDbPoint
 10
4911.904397928899
 20
7384.289987085067
 30
0.0
  0
ENDBLK
  5
14750
330
14745
100
AcDbEntity
  8
0
 48
50.0
100
AcDbBlockEnd
  0
BLOCK
  5
14AE6
330
14ADA
100
AcDbEntity
  8
0
 48
50.0
100
AcDbBlockBegin
  2
*D35
 70
     1
 10
0.0
 20
0.0
 30
0.0
  3
*D35
  1

  0
LINE
  5
14DD1
330
14ADA
100
AcDbEntity
  8
寸法
 62
     0
 48
50.0
370
    -2
100
AcDbLine
 10
3138.904397928898
 20
8136.291881376447
 30
0.0
 11
2742.22190146972
 21
8136.291881376447
 31
0.0
  0
LINE
  5
14DD2
330
14ADA
100
AcDbEntity
  8
寸法
 62
     0
 48
50.0
370
    -2
100
AcDbLine
 10
3586.904397928899
 20
8061.291881376414
 30
0.0
 11
2742.22190146972
 21
8061.291881376414
 31
0.0
  0
LINE
  5
14DD3
330
14ADA
100
AcDbEntity
  8
寸法
 62
     0
 48
50.0
370
    -2
100
AcDbLine
 10
2782.22190146972
 20
8156.291881376446
 30
0.0
 11
2782.22190146972
 21
8176.291881376448
 31
0.0
  0
LINE
  5
14DD4
330
14ADA
100
AcDbEntity
  8
寸法
 62
     0
 48
50.0
370
    -2
100
AcDbLine
 10
2782.22190146972
 20
8041.291881376414
 30
0.0
 11
2782.22190146972
 21
7820.321318627937
 31
0.0
  0
LINE
  5
14DD5
330
14ADA
100
AcDbEntity
  8
寸法
 62
     0
 48
50.0
370
    -2
100
AcDbLine
 10
2782.22190146972
 20
8136.291881376447
 30
0.0
 11
2782.22190146972
 21
8061.291881376414
 31
0.0
  0
INSERT
  5
14DD6
330
14ADA
100
AcDbEntity
  8
寸法
 62
     0
 48
50.0
370
    -2
100
AcDbBlockReference
  2
_DOT
 10
2782.22190146972
 20
8136.291881376447
 30
0.0
 41
20.0
 42
20.0
 43
20.0
 50
270.0
  0
INSERT
  5
14DD7
330
14ADA
100
AcDbEntity
  8
寸法
 62
     0
 48
50.0
370
    -2
100
AcDbBlockReference
  2
_DOT
 10
2782.22190146972
 20
8061.291881376414
 30
0.0
 41
20.0
 42
20.0
 43
20.0
 50
90.0
  0
MTEXT
  5
14DD8
330
14ADA
100
AcDbEntity
  8
寸法
 62
     7
 48
50.0
100
AcDbMText
 10
2690.221901469719
 20
7920.806600002176
 30
0.0
 40
120.0
 41
0.0
 71
     5
 72
     1
  1
\A1;75
  7
STYLE1
 11
0.0000000000000001
 21
1.0
 31
0.0
 73
     1
 44
1.0
1001
ACAD
1000
MTEXTBEGIN
1070
    73
1070
     1
1070
    44
1040
1.0
1070
    74
1070
     0
1000
MTEXTEND
  0
POINT
  5
14DD9
330
14ADA
100
AcDbEntity
  8
DEFPOINTS
 62
     0
 48
50.0
100
AcDbPoint
 10
3158.904397928898
 20
8136.291881376447
 30
0.0
  0
POINT
  5
14DDA
330
14ADA
100
AcDbEntity
  8
DEFPOINTS
 62
     0
 48
50.0
100
AcDbPoint
 10
3606.904397928899
 20
8061.291881376414
 30
0.0
  0
POINT
  5
14DDB
330
14ADA
100
AcDbEntity
  8
DEFPOINTS
 62
     0
 48
50.0
100
AcDbPoint
 10
2782.22190146972
 20
8061.291881376414
 30
0.0
  0
ENDBLK
  5
14AE7
330
14ADA
100
AcDbEntity
  8
0
 48
50.0
100
AcDbBlockEnd
  0
BLOCK
  5
14AF2
330
14AE8
100
AcDbEntity
  8
0
 48
50.0
100
AcDbBlockBegin
  2
*D36
 70
     1
 10
0.0
 20
0.0
 30
0.0
  3
*D36
  1

  0
LINE
  5
14D1C
330
14AE8
100
AcDbEntity
  8
寸法
 62
     0
 48
50.0
370
    -2
100
AcDbLine
 10
3606.904397928899
 20
8039.291881376447
 30
0.0
 11
3606.904397928899
 21
7040.334873867192
 31
0.0
  0
LINE
  5
14D1D
330
14AE8
100
AcDbEntity
  8
寸法
 62
     0
 48
50.0
370
    -2
100
AcDbLine
 10
5760.904397928899
 20
8039.291881376447
 30
0.0
 11
5760.904397928899
 21
7040.334873867192
 31
0.0
  0
LINE
  5
14D1E
330
14AE8
100
AcDbEntity
  8
寸法
 62
     0
 48
50.0
370
    -2
100
AcDbLine
 10
3606.904397928899
 20
7100.334873867192
 30
0.0
 11
5760.904397928899
 21
7100.334873867192
 31
0.0
  0
INSERT
  5
14D1F
330
14AE8
100
AcDbEntity
  8
寸法
 62
     0
 48
50.0
370
    -2
100
AcDbBlockReference
  2
_DOTSMALL
 10
3606.904397928899
 20
7100.334873867192
 30
0.0
 41
100.0
 42
100.0
 43
100.0
 50
180.0
  0
INSERT
  5
14D20
330
14AE8
100
AcDbEntity
  8
寸法
 62
     0
 48
50.0
370
    -2
100
AcDbBlockReference
  2
_DOTSMALL
 10
5760.904397928899
 20
7100.334873867192
 30
0.0
 41
100.0
 42
100.0
 43
100.0
  0
MTEXT
  5
14D21
330
14AE8
100
AcDbEntity
  8
寸法
 62
     7
 48
50.0
100
AcDbMText
 10
4661.026398577756
 20
7200.346684890813
 30
0.0
 40
120.0
 41
0.0
 71
     5
 72
     1
  1
\A1;2154
  7
STYLE1
 73
     1
 44
1.0
1001
ACAD
1000
MTEXTBEGIN
1070
    73
1070
     1
1070
    44
1040
1.0
1070
    74
1070
     0
1000
MTEXTEND
  0
POINT
  5
14D22
330
14AE8
100
AcDbEntity
  8
DEFPOINTS
 62
     0
 48
50.0
100
AcDbPoint
 10
3606.904397928899
 20
8059.291881376447
 30
0.0
  0
POINT
  5
14D23
330
14AE8
100
AcDbEntity
  8
DEFPOINTS
 62
     0
 48
50.0
100
AcDbPoint
 10
5760.904397928899
 20
8059.291881376447
 30
0.0
  0
POINT
  5
14D24
330
14AE8
100
AcDbEntity
  8
DEFPOINTS
 62
     0
 48
50.0
100
AcDbPoint
 10
5760.904397928899
 20
7100.334873867192
 30
0.0
  0
ENDBLK
  5
14AF3
330
14AE8
100
AcDbEntity
  8
0
 48
50.0
100
AcDbBlockEnd
  0
BLOCK
  5
14E14
330
14E0A
100
AcDbEntity
  8
0
 48
50.0
100
AcDbBlockBegin
  2
*D37
 70
     1
 10
0.0
 20
0.0
 30
0.0
  3
*D37
  1

  0
LINE
  5
14E16
330
14E0A
100
AcDbEntity
  8
寸法
 62
     0
 48
50.0
370
    -2
100
AcDbLine
 10
5833.904400172058
 20
9209.791881376407
 30
0.0
 11
6185.745760432895
 21
9209.791881376407
 31
0.0
  0
LINE
  5
14E17
330
14E0A
100
AcDbEntity
  8
寸法
 62
     0
 48
50.0
370
    -2
100
AcDbLine
 10
5863.904400172292
 20
9926.291884953583
 30
0.0
 11
6185.745760432895
 21
9926.291884953583
 31
0.0
  0
LINE
  5
14E18
330
14E0A
100
AcDbEntity
  8
寸法
 62
     0
 48
50.0
370
    -2
100
AcDbLine
 10
6125.745760432895
 20
9209.791881376407
 30
0.0
 11
6125.745760432895
 21
9926.291884953583
 31
0.0
  0
INSERT
  5
14E19
330
14E0A
100
AcDbEntity
  8
寸法
 62
     0
 48
50.0
370
    -2
100
AcDbBlockReference
  2
_DOTSMALL
 10
6125.745760432895
 20
9209.791881376407
 30
0.0
 41
100.0
 42
100.0
 43
100.0
 50
270.0
  0
INSERT
  5
14E1A
330
14E0A
100
AcDbEntity
  8
寸法
 62
     0
 48
50.0
370
    -2
100
AcDbBlockReference
  2
_DOTSMALL
 10
6125.745760432895
 20
9926.291884953583
 30
0.0
 41
100.0
 42
100.0
 43
100.0
 50
90.0
  0
MTEXT
  5
14E1B
330
14E0A
100
AcDbEntity
  8
寸法
 62
     7
 48
50.0
100
AcDbMText
 10
6025.745760432894
 20
9543.530740589847
 30
0.0
 40
120.0
 41
0.0
 71
     5
 72
     1
  1
\A1;716.5
  7
STYLE1
 11
0.0000000000000001
 21
1.0
 31
0.0
 73
     1
 44
1.0
1001
ACAD
1000
MTEXTBEGIN
1070
    73
1070
     1
1070
    44
1040
1.0
1070
    74
1070
     0
1000
MTEXTEND
  0
POINT
  5
14E1C
330
14E0A
100
AcDbEntity
  8
DEFPOINTS
 62
     0
 48
50.0
100
AcDbPoint
 10
5813.904400172058
 20
9209.791881376407
 30
0.0
  0
POINT
  5
14E1D
330
14E0A
100
AcDbEntity
  8
DEFPOINTS
 62
     0
 48
50.0
100
AcDbPoint
 10
5843.904400172292
 20
9926.291884953583
 30
0.0
  0
POINT
  5
14E1E
330
14E0A
100
AcDbEntity
  8
DEFPOINTS
 62
     0
 48
50.0
100
AcDbPoint
 10
6125.745760432895
 20
9926.291884953583
 30
0.0
  0
ENDBLK
  5
14E15
330
14E0A
100
AcDbEntity
  8
0
 48
50.0
100
AcDbBlockEnd
  0
ENDSEC
  0
SECTION
  2
ENTITIES
  0
MTEXT
  5
763F
330
747D
100
AcDbEntity
  8
0
100
AcDbMText
 10
302.8463458368089
 20
280.1983726409901
 30
0.0
 40
3.5
 41
5.323721266742722
 71
     1
 72
     5
  1

  7
MSMINCHO
 73
     1
 44
1.0
1001
ACAD
1000
MTEXTBEGIN
1070
    73
1070
     1
1070
    44
1040
1.0
1070
    74
1070
     0
1000
MTEXTEND
  0
INSERT
  5
F235
330
747D
100
AcDbEntity
  8
0
100
AcDbBlockReference
  2
作図枠S50
 10
0.0
 20
0.0
 30
0.0
 41
0.8
 42
0.8
 43
0.8
  0
LINE
  5
10B56
330
747D
100
AcDbEntity
  8
補助
  6
PHANTOM
 62
   230
 48
50.0
100
AcDbLine
 10
140.0
 20
0.0
 30
0.0
 11
139.9999999999994
 21
11409.6
 31
0.0
  0
LINE
  5
10B57
330
747D
100
AcDbEntity
  8
補助
  6
PHANTOM
 62
   230
 48
50.0
100
AcDbLine
 10
139.9999999999994
 20
11409.6
 30
0.0
 11
16307.2
 21
11409.6
 31
0.0
  0
LINE
  5
10B59
330
747D
100
AcDbEntity
  8
仕様書枠
  6
Continuous
 48
50.0
100
AcDbLine
 10
13107.2
 20
1200.0
 30
0.0
 11
13107.2
 21
-0.0000000000000729
 31
0.0
  0
LINE
  5
10B5C
330
747D
100
AcDbEntity
  8
仕様書枠
 48
50.0
100
AcDbLine
 10
16307.2
 20
1200.0
 30
0.0
 11
16307.2
 21
-0.0000000000000909
 31
0.0
  0
LINE
  5
10B5D
330
747D
100
AcDbEntity
  8
仕様書枠
 48
50.0
100
AcDbLine
 10
140.0
 20
0.0
 30
0.0
 11
16307.2
 21
-0.0000000000000909
 31
0.0
  0
LINE
  5
10B5E
330
747D
100
AcDbEntity
  8
補助
  6
PHANTOM
 62
   230
 48
50.0
100
AcDbLine
 10
16307.2
 20
11409.6
 30
0.0
 11
16307.2
 21
1200.0
 31
0.0
  0
LINE
  5
10B6C
330
747D
100
AcDbEntity
  8
仕様書枠
 48
50.0
100
AcDbLine
 10
13107.2
 20
1200.0
 30
0.0
 11
16307.2
 21
1200.0
 31
0.0
  0
LINE
  5
10B6D
330
747D
100
AcDbEntity
  8
補助
  6
PHANTOM
 62
   230
 48
50.0
100
AcDbLine
 10
13107.2
 20
11409.6
 30
0.0
 11
13107.2
 21
4800.0
 31
0.0
  0
LINE
  5
10B6F
330
747D
100
AcDbEntity
  8
補助
  6
PHANTOM
 62
   230
 48
50.0
100
AcDbLine
 10
13107.2
 20
4800.0
 30
0.0
 11
16307.2
 21
4800.0
 31
0.0
  0
LINE
  5
10B72
330
747D
100
AcDbEntity
  8
文字
 62
     7
 48
50.0
100
AcDbLine
 10
13187.2
 20
400.0
 30
0.0
 11
16227.2
 21
400.0
 31
0.0
  0
TEXT
  5
10B73
330
747D
100
AcDbEntity
  8
文字
 62
     7
 48
50.0
100
AcDbText
 10
13162.9790565769
 20
895.0906074299405
 30
0.0
 40
200.0
  1
外 形 図
  7
STYLE2
100
AcDbText
  0
TEXT
  5
10B74
330
747D
100
AcDbEntity
  8
文字
 62
     7
 48
50.0
100
AcDbText
 10
13201.43669998441
 20
477.2740661031255
 30
0.0
 40
160.0
  1
機種名
  7
STYLE2
100
AcDbText
  0
TEXT
  5
10B76
330
747D
100
AcDbEntity
  8
文字
 62
     7
 48
50.0
100
AcDbText
 10
13209.40534421719
 20
76.09434707649343
 30
0.0
 40
100.0
  1
○床面積 ： 9.58㎡(2.90坪) 　
  7
STYLE2
100
AcDbText
  0
TEXT
  5
10B79
330
747D
100
AcDbEntity
  8
文字
 62
     7
 48
50.0
100
AcDbText
 10
14524.13183722199
 20
1031.557706291228
 30
0.0
 40
100.0
  1
NO.17     <縮尺> S=1/40
  7
STYLE2
100
AcDbText
  0
LINE
  5
10B7B
330
747D
100
AcDbEntity
  8
仕様書枠
 48
50.0
100
AcDbLine
 10
13107.2
 20
800.0
 30
0.0
 11
14251.2
 21
800.0
 31
0.0
  0
LINE
  5
10B88
330
747D
100
AcDbEntity
  8
仕様書枠
  6
Continuous
 48
50.0
100
AcDbLine
 10
14251.2
 20
1200.0
 30
0.0
 11
14251.2
 21
800.0
 31
0.0
  0
TEXT
  5
10EA8
330
747D
100
AcDbEntity
  8
文字
 62
     7
 48
50.0
100
AcDbText
 10
14613.85709251928
 20
838.2527270729186
 30
0.0
 40
100.0
  1
～多雪地型～
  7
STYLE2
100
AcDbText
  0
DIMENSION
  5
120D6
330
747D
100
AcDbEntity
  8
寸法
 48
50.0
100
AcDbDimension
  2
*D3
 10
8418.904397928898
 20
10301.00429139523
 30
0.0
 11
8813.071064595566
 21
10301.00429139523
 31
0.0
 70
   160
 71
     5
 42
55.0
  3
INABA_S40
100
AcDbAlignedDimension
 13
8363.904397928898
 23
9926.291881376442
 33
0.0
 14
8418.904397928898
 24
9926.291881376442
 34
0.0
100
AcDbRotatedDimension
1001
ACAD
1000
DSTYLE
1002
{
1070
   287
1070
     3
1070
    41
1040
0.5
1070
    44
1040
1.0
1070
   147
1040
0.8
1070
   271
1070
     2
1070
   272
1070
     2
1070
   289
1070
     3
1070
   340
1005
F706
1070
     6
1000
DOT
1070
     7
1000
DOT
1002
}
  0
DIMENSION
  5
120D7
330
747D
100
AcDbEntity
  8
寸法
 48
50.0
100
AcDbDimension
  2
*D4
 10
9489.651514973251
 20
8136.291881376441
 30
0.0
 11
9397.651514973249
 21
9031.291881376443
 31
0.0
 70
    32
 71
     5
 42
1790.0
  3
INABA_S40
100
AcDbAlignedDimension
 13
8418.904397928898
 23
9926.291881376442
 33
0.0
 14
8418.904397928898
 24
8136.291881376441
 34
0.0
 50
90.0
100
AcDbRotatedDimension
1001
ACAD
1000
DSTYLE
1002
{
1070
   287
1070
     3
1070
    41
1040
0.5
1070
    44
1040
1.0
1070
   147
1040
0.8
1070
   271
1070
     2
1070
   272
1070
     2
1070
   289
1070
     3
1070
   340
1005
F706
1070
     6
1000
DOT
1070
     7
1000
DOT
1002
}
  0
DIMENSION
  5
120D8
330
747D
100
AcDbEntity
  8
寸法
 48
50.0
100
AcDbDimension
  2
*D5
 10
9189.651514973254
 20
8136.291881376441
 30
0.0
 11
9189.651514973251
 21
7742.125214709776
 31
0.0
 70
   160
 71
     5
 42
54.99999999999636
  3
INABA_S40
100
AcDbAlignedDimension
 13
8418.904397928898
 23
8191.291881376438
 33
0.0
 14
8418.904397928898
 24
8136.291881376441
 34
0.0
 50
90.0
100
AcDbRotatedDimension
1001
ACAD
1000
DSTYLE
1002
{
1070
   287
1070
     3
1070
    41
1040
0.5
1070
    44
1040
1.0
1070
   147
1040
0.8
1070
   271
1070
     2
1070
   272
1070
     2
1070
   289
1070
     3
1070
   340
1005
F706
1070
     6
1000
DOT
1070
     7
1000
DOT
1002
}
  0
DIMENSION
  5
120D9
330
747D
100
AcDbEntity
  8
寸法
 48
50.0
100
AcDbDimension
  2
*D6
 10
9189.651514973251
 20
8191.291881376438
 30
0.0
 11
9097.639703949628
 21
9031.291881376443
 31
0.0
 70
    32
  1
4X420=<>
 71
     5
 42
1680.000000000007
  3
INABA_S40
100
AcDbAlignedDimension
 13
8418.904397928898
 23
9871.291881376444
 33
0.0
 14
8418.904397928898
 24
8191.291881376438
 34
0.0
 50
90.0
100
AcDbRotatedDimension
1001
ACAD
1000
DSTYLE
1002
{
1070
   287
1070
     3
1070
    41
1040
0.5
1070
    44
1040
1.0
1070
   147
1040
0.8
1070
   271
1070
     2
1070
   272
1070
     2
1070
   289
1070
     3
1070
   340
1005
F706
1070
     6
1000
DOT
1070
     7
1000
DOT
1002
}
  0
DIMENSION
  5
120DA
330
747D
100
AcDbEntity
  8
寸法
 48
50.0
100
AcDbDimension
  2
*D7
 10
9189.651514973254
 20
9871.291881376444
 30
0.0
 11
9189.651514973251
 21
10320.45854804311
 31
0.0
 70
   160
 71
     5
 42
54.99999999999636
  3
INABA_S40
100
AcDbAlignedDimension
 13
8418.904397928898
 23
9926.291881376442
 33
0.0
 14
8418.904397928898
 24
9871.291881376444
 34
0.0
 50
90.0
100
AcDbRotatedDimension
1001
ACAD
1000
DSTYLE
1002
{
1070
   287
1070
     3
1070
    41
1040
0.5
1070
    44
1040
1.0
1070
   147
1040
0.8
1070
   271
1070
     2
1070
   272
1070
     2
1070
   289
1070
     3
1070
   340
1005
F706
1070
     6
1000
DOT
1070
     7
1000
DOT
1002
}
  0
LINE
  5
120DB
330
747D
100
AcDbEntity
  8
Ｇ_Ｌ
 48
50.0
100
AcDbLine
 10
1895.037010702755
 20
2694.732394739148
 30
0.0
 11
14766.26680742205
 21
2694.732394739148
 31
0.0
  0
LINE
  5
120F0
330
747D
100
AcDbEntity
  8
部品1
100
AcDbLine
 10
3158.904397928898
 20
4934.732394739149
 30
0.0
 11
8418.904397928898
 21
4934.732394739149
 31
0.0
  0
LINE
  5
120F1
330
747D
100
AcDbEntity
  8
部品1
100
AcDbLine
 10
3158.904397928898
 20
2794.732394739148
 30
0.0
 11
5763.9043979289
 21
2794.732394739148
 31
0.0
  0
LINE
  5
120FB
330
747D
100
AcDbEntity
  8
部品1
100
AcDbLine
 10
3213.904397928899
 20
4934.732394739149
 30
0.0
 11
3213.904397928899
 21
2844.732394739148
 31
0.0
  0
LINE
  5
12102
330
747D
100
AcDbEntity
  8
部品1
100
AcDbLine
 10
3158.904397928898
 20
5028.732394739154
 30
0.0
 11
3158.904397928898
 21
2694.732394739148
 31
0.0
  0
TEXT
  5
12103
330
747D
100
AcDbEntity
  8
部品1
100
AcDbText
 10
2325.973702581161
 20
2709.574099610138
 30
0.0
 40
125.0
  1
G.L
  7
MSGOTHIC
100
AcDbText
  0
LINE
  5
12104
330
747D
100
AcDbEntity
  8
部品1
100
AcDbLine
 10
2183.489748881344
 20
2798.655443193281
 30
0.0
 11
2303.489748881344
 21
2798.655443193281
 31
0.0
  0
LINE
  5
12105
330
747D
100
AcDbEntity
  8
部品1
100
AcDbLine
 10
2303.489748881344
 20
2798.655443193281
 30
0.0
 11
2243.489748881344
 21
2694.732394739148
 31
0.0
  0
LINE
  5
12106
330
747D
100
AcDbEntity
  8
部品1
100
AcDbLine
 10
2243.489748881344
 20
2694.732394739148
 30
0.0
 11
2183.489748881344
 21
2798.655443193281
 31
0.0
  0
LINE
  5
12107
330
747D
100
AcDbEntity
  8
部品1
 48
50.0
100
AcDbLine
 10
3606.904397928899
 20
2844.732394739148
 30
0.0
 11
3158.904397928898
 21
2844.732394739148
 31
0.0
  0
LINE
  5
12108
330
747D
100
AcDbEntity
  8
破線
 48
5.0
100
AcDbLine
 10
3153.904397928898
 20
2694.732394739148
 30
0.0
 11
3153.904397928898
 21
2539.732394739149
 31
0.0
  0
LINE
  5
12109
330
747D
100
AcDbEntity
  8
破線
 48
5.0
100
AcDbLine
 10
3058.904397928898
 20
2694.732394739148
 30
0.0
 11
3058.904397928898
 21
2494.732394739148
 31
0.0
  0
LINE
  5
1210A
330
747D
100
AcDbEntity
  8
破線
 48
5.0
100
AcDbLine
 10
3258.904397928898
 20
2694.732394739148
 30
0.0
 11
3258.904397928898
 21
2494.732394739149
 31
0.0
  0
LINE
  5
1210B
330
747D
100
AcDbEntity
  8
破線
 48
5.0
100
AcDbLine
 10
3058.904397928898
 20
2494.732394739148
 30
0.0
 11
3258.9043979289
 21
2494.732394739149
 31
0.0
  0
LINE
  5
1210C
330
747D
100
AcDbEntity
  8
破線
 48
5.0
100
AcDbLine
 10
3133.904397928898
 20
2539.732394739149
 30
0.0
 11
3153.9043979289
 21
2539.732394739149
 31
0.0
  0
LINE
  5
1210D
330
747D
100
AcDbEntity
  8
部品1
100
AcDbLine
 10
3153.904397928898
 20
2839.732394739148
 30
0.0
 11
3153.904397928898
 21
2694.732394739148
 31
0.0
  0
LINE
  5
1210E
330
747D
100
AcDbEntity
  8
部品1
 48
50.0
100
AcDbLine
 10
3558.904397928898
 20
2794.732394739148
 30
0.0
 11
3558.904397928898
 21
2694.732394739148
 31
0.0
  0
DIMENSION
  5
12121
330
747D
100
AcDbEntity
  8
寸法
 48
50.0
100
AcDbDimension
  2
*D8
 10
8318.904397928896
 20
2159.542010499936
 30
0.0
 11
8418.904397928896
 21
2159.542010499936
 31
0.0
 70
   160
 71
     5
 42
200.0
  3
INABA_S40
100
AcDbAlignedDimension
 13
8518.904397928897
 23
2494.732394739148
 33
0.0
 14
8318.904397928896
 24
2494.732394739148
 34
0.0
100
AcDbRotatedDimension
1001
ACAD
1000
DSTYLE
1002
{
1070
   287
1070
     3
1070
    41
1040
0.5
1070
    44
1040
1.0
1070
   147
1040
0.8
1070
   271
1070
     2
1070
   272
1070
     2
1070
   289
1070
     3
1070
   340
1005
F706
1070
     6
1000
DOT
1070
     7
1000
DOT
1002
}
  0
LINE
  5
12124
330
747D
100
AcDbEntity
  8
部品1
100
AcDbLine
 10
5813.904397928898
 20
2794.732394739148
 30
0.0
 11
8418.904397928898
 21
2794.732394739148
 31
0.0
  0
LINE
  5
12125
330
747D
100
AcDbEntity
  8
部品1
 48
50.0
100
AcDbLine
 10
5788.904397928899
 20
2844.732394739148
 30
0.0
 11
8418.904397928898
 21
2844.732394739148
 31
0.0
  0
LINE
  5
12130
330
747D
100
AcDbEntity
  8
部品1
100
AcDbLine
 10
5843.904397928898
 20
4934.732394739149
 30
0.0
 11
5843.904397928898
 21
2844.732394739148
 31
0.0
  0
LINE
  5
12131
330
747D
100
AcDbEntity
  8
部品1
100
AcDbLine
 10
6263.904397928898
 20
4934.732394739149
 30
0.0
 11
6263.904397928897
 21
2844.732394739147
 31
0.0
  0
LINE
  5
12141
330
747D
100
AcDbEntity
  8
部品1
 48
50.0
100
AcDbLine
 10
3958.9043979289
 20
2794.732394739148
 30
0.0
 11
3958.9043979289
 21
2694.732394739148
 31
0.0
  0
LINE
  5
12142
330
747D
100
AcDbEntity
  8
部品1
 48
50.0
100
AcDbLine
 10
4158.9043979289
 20
2794.732394739148
 30
0.0
 11
4158.9043979289
 21
2694.732394739148
 31
0.0
  0
LINE
  5
12143
330
747D
100
AcDbEntity
  8
部品1
 48
50.0
100
AcDbLine
 10
4788.9043979289
 20
2794.732394739148
 30
0.0
 11
4788.9043979289
 21
2694.732394739148
 31
0.0
  0
LINE
  5
12161
330
747D
100
AcDbEntity
  8
部品1
 48
50.0
100
AcDbLine
 10
5788.904397928899
 20
2844.732394739148
 30
0.0
 11
5760.904397928898
 21
2844.732394739148
 31
0.0
  0
LINE
  5
12162
330
747D
100
AcDbEntity
  8
部品1
 48
50.0
100
AcDbLine
 10
4988.9043979289
 20
2794.732394739148
 30
0.0
 11
4988.9043979289
 21
2694.732394739148
 31
0.0
  0
LINE
  5
12163
330
747D
100
AcDbEntity
  8
部品1
 48
50.0
100
AcDbLine
 10
5588.904397928899
 20
2794.732394739148
 30
0.0
 11
5588.904397928899
 21
2694.732394739148
 31
0.0
  0
LINE
  5
12164
330
747D
100
AcDbEntity
  8
破線
  6
HIDDEN
 48
5.0
100
AcDbLine
 10
5813.904397928898
 20
2694.732394739148
 30
0.0
 11
5813.904397928898
 21
2554.732394739148
 31
0.0
  0
LINE
  5
12165
330
747D
100
AcDbEntity
  8
破線
  6
HIDDEN
 48
5.0
100
AcDbLine
 10
5763.904397928898
 20
2694.732394739148
 30
0.0
 11
5763.904397928898
 21
2554.732394739147
 31
0.0
  0
LINE
  5
12166
330
747D
100
AcDbEntity
  8
破線
  6
HIDDEN
 48
5.0
100
AcDbLine
 10
5888.904397928898
 20
2694.732394739148
 30
0.0
 11
5888.904397928898
 21
2494.732394739149
 31
0.0
  0
LINE
  5
12167
330
747D
100
AcDbEntity
  8
破線
  6
HIDDEN
 48
5.0
100
AcDbLine
 10
5688.904397928898
 20
2694.732394739148
 30
0.0
 11
5688.904397928898
 21
2494.732394739148
 31
0.0
  0
LINE
  5
12168
330
747D
100
AcDbEntity
  8
破線
  6
HIDDEN
 48
5.0
100
AcDbLine
 10
5813.904397928898
 20
2554.732394739147
 30
0.0
 11
5763.904397928898
 21
2554.732394739148
 31
0.0
  0
LINE
  5
12169
330
747D
100
AcDbEntity
  8
破線
  6
HIDDEN
 48
5.0
100
AcDbLine
 10
5688.904397928898
 20
2494.732394739148
 30
0.0
 11
5888.9043979289
 21
2494.732394739149
 31
0.0
  0
ARC
  5
1216A
330
747D
100
AcDbEntity
  8
部品1
 48
50.0
100
AcDbCircle
 10
5808.904397928898
 20
2834.732394739147
 30
0.0
 40
5.0
100
AcDbArc
 50
0.0
 51
89.99999999999957
  0
ARC
  5
1216B
330
747D
100
AcDbEntity
  8
部品1
 48
50.0
100
AcDbCircle
 10
5768.904397928898
 20
2834.732394739147
 30
0.0
 40
5.0
100
AcDbArc
 50
89.9999999999996
 51
180.0
  0
LINE
  5
1216C
330
747D
100
AcDbEntity
  8
部品1
 48
50.0
100
AcDbLine
 10
5808.904397928898
 20
2839.732394739147
 30
0.0
 11
5768.904397928898
 21
2839.732394739148
 31
0.0
  0
LINE
  5
1216D
330
747D
100
AcDbEntity
  8
部品1
 48
50.0
100
AcDbLine
 10
5763.904397928898
 20
2834.732394739147
 30
0.0
 11
5763.904397928898
 21
2694.732394739148
 31
0.0
  0
LINE
  5
1216E
330
747D
100
AcDbEntity
  8
部品1
100
AcDbLine
 10
5788.904397928899
 20
2844.732394739148
 30
0.0
 11
5788.904397928896
 21
2839.732394739148
 31
0.0
  0
LINE
  5
1216F
330
747D
100
AcDbEntity
  8
部品1
 48
50.0
100
AcDbLine
 10
5813.904397928898
 20
2834.732394739147
 30
0.0
 11
5813.904397928898
 21
2694.732394739148
 31
0.0
  0
LINE
  5
12170
330
747D
100
AcDbEntity
  8
部品1
 48
50.0
100
AcDbLine
 10
5988.904397928898
 20
2794.732394739148
 30
0.0
 11
5988.904397928898
 21
2694.732394739148
 31
0.0
  0
LINE
  5
12184
330
747D
100
AcDbEntity
  8
部品1
100
AcDbLine
 10
5788.904397928899
 20
4934.732394739149
 30
0.0
 11
5788.904397928899
 21
5028.732394739153
 31
0.0
  0
LINE
  5
12185
330
747D
100
AcDbEntity
  8
部品1
100
AcDbLine
 10
7523.904397928911
 20
4934.732394739149
 30
0.0
 11
7523.904397928909
 21
2844.732394739148
 31
0.0
  0
LINE
  5
12192
330
747D
100
AcDbEntity
  8
部品1
100
AcDbLine
 10
7103.904397928911
 20
4934.732394739149
 30
0.0
 11
7103.904397928909
 21
2844.732394739148
 31
0.0
  0
LINE
  5
121A0
330
747D
100
AcDbEntity
  8
部品1
100
AcDbLine
 10
7103.904397928896
 20
4934.732394739149
 30
0.0
 11
7103.904397928896
 21
2844.732394739148
 31
0.0
  0
LINE
  5
121A7
330
747D
100
AcDbEntity
  8
部品1
100
AcDbLine
 10
6683.904397928898
 20
4934.732394739149
 30
0.0
 11
6683.904397928896
 21
2844.732394739148
 31
0.0
  0
LINE
  5
121B4
330
747D
100
AcDbEntity
  8
部品1
100
AcDbLine
 10
7943.904397928898
 20
4934.73239473915
 30
0.0
 11
7943.904397928884
 21
2844.732394739148
 31
0.0
  0
LINE
  5
121B5
330
747D
100
AcDbEntity
  8
部品1
100
AcDbLine
 10
8363.904397928898
 20
4934.732394739149
 30
0.0
 11
8363.904397928896
 21
2844.732394739148
 31
0.0
  0
LINE
  5
121B6
330
747D
100
AcDbEntity
  8
部品1
100
AcDbLine
 10
8418.904397928898
 20
5028.732394739154
 30
0.0
 11
8418.904397928898
 21
2694.732394739148
 31
0.0
  0
LINE
  5
121BD
330
747D
100
AcDbEntity
  8
破線
  6
HIDDEN
 48
5.0
100
AcDbLine
 10
8518.904397928897
 20
2494.732394739148
 30
0.0
 11
8318.904397928896
 21
2494.732394739149
 31
0.0
  0
LINE
  5
121BE
330
747D
100
AcDbEntity
  8
破線
  6
HIDDEN
 48
5.0
100
AcDbLine
 10
8318.904397928898
 20
2694.732394739148
 30
0.0
 11
8318.904397928898
 21
2494.732394739149
 31
0.0
  0
LINE
  5
121BF
330
747D
100
AcDbEntity
  8
部品1
100
AcDbLine
 10
8018.904397928897
 20
2794.732394739148
 30
0.0
 11
8018.904397928897
 21
2694.732394739148
 31
0.0
  0
LINE
  5
121C0
330
747D
100
AcDbEntity
  8
破線
 48
5.0
100
AcDbLine
 10
8423.904397928899
 20
2694.732394739148
 30
0.0
 11
8423.904397928899
 21
2539.732394739149
 31
0.0
  0
LINE
  5
121C1
330
747D
100
AcDbEntity
  8
破線
  6
HIDDEN
 48
5.0
100
AcDbLine
 10
8518.904397928897
 20
2694.732394739148
 30
0.0
 11
8518.904397928897
 21
2494.732394739148
 31
0.0
  0
LINE
  5
121C2
330
747D
100
AcDbEntity
  8
破線
 48
5.0
100
AcDbLine
 10
8443.904397928898
 20
2539.732394739149
 30
0.0
 11
8423.904397928897
 21
2539.732394739149
 31
0.0
  0
LINE
  5
121C3
330
747D
100
AcDbEntity
  8
部品1
100
AcDbLine
 10
8423.904397928899
 20
2839.732394739148
 30
0.0
 11
8423.904397928899
 21
2694.732394739148
 31
0.0
  0
LINE
  5
121F1
330
747D
100
AcDbEntity
  8
部品1
100
AcDbLine
 10
3213.904397928895
 20
9871.291881376443
 30
0.0
 11
5733.904397928898
 21
9871.29188137645
 31
0.0
  0
LINE
  5
121F2
330
747D
100
AcDbEntity
  8
部品1
100
AcDbLine
 10
4053.904397928898
 20
9898.291881376449
 30
0.0
 11
3186.904397928898
 21
9898.291881376444
 31
0.0
  0
LINE
  5
121F3
330
747D
100
AcDbEntity
  8
部品1
100
AcDbLine
 10
5733.904397928896
 20
8611.291881376445
 30
0.0
 11
3213.904397928899
 21
8611.291881376438
 31
0.0
  0
LINE
  5
121F4
330
747D
100
AcDbEntity
  8
部品1
100
AcDbLine
 10
5733.904397928896
 20
9031.291881376445
 30
0.0
 11
3213.904397928899
 21
9031.291881376441
 31
0.0
  0
LINE
  5
121F5
330
747D
100
AcDbEntity
  8
部品1
100
AcDbLine
 10
5733.904397928896
 20
9451.291881376443
 30
0.0
 11
3213.904397928899
 21
9451.291881376439
 31
0.0
  0
LINE
  5
121F8
330
747D
100
AcDbEntity
  8
部品1
100
AcDbLine
 10
5788.904397928899
 20
9926.291881376442
 30
0.0
 11
3158.904397928898
 21
9926.291881376442
 31
0.0
  0
LINE
  5
121F9
330
747D
100
AcDbEntity
  8
部品1
100
AcDbLine
 10
3213.904397928895
 20
8191.291881376445
 30
0.0
 11
5733.904397928898
 21
8191.291881376438
 31
0.0
  0
LINE
  5
121FA
330
747D
100
AcDbEntity
  8
部品1
100
AcDbLine
 10
3186.904397928897
 20
8164.29188137644
 30
0.0
 11
5760.904397928898
 21
8164.291881376446
 31
0.0
  0
DIMENSION
  5
121FB
330
747D
100
AcDbEntity
  8
寸法
 48
50.0
100
AcDbDimension
  2
*D9
 10
8418.904397928898
 20
10601.00429139523
 30
0.0
 11
5788.904397928899
 21
10693.01610241886
 31
0.0
 70
    32
 71
     5
 42
5260.000000000001
  3
INABA_S40
100
AcDbAlignedDimension
 13
3158.904397928897
 23
9926.291881376442
 33
0.0
 14
8418.904397928898
 24
9926.291881376442
 34
0.0
100
AcDbRotatedDimension
1001
ACAD
1000
DSTYLE
1002
{
1070
   287
1070
     3
1070
    41
1040
0.5
1070
    44
1040
1.0
1070
   147
1040
0.8
1070
   271
1070
     2
1070
   272
1070
     2
1070
   289
1070
     3
1070
   340
1005
F706
1070
     6
1000
DOT
1070
     7
1000
DOT
1002
}
  0
DIMENSION
  5
121FC
330
747D
100
AcDbEntity
  8
寸法
 48
50.0
100
AcDbDimension
  2
*D10
 10
5733.904397928898
 20
10301.00429139523
 30
0.0
 11
4473.904397928897
 21
10393.01610241886
 31
0.0
 70
    32
  1
6X420=<>
 71
     5
 42
2520.000000000001
  3
INABA_S40
100
AcDbAlignedDimension
 13
3213.904397928898
 23
9926.291881376442
 33
0.0
 14
5733.904397928898
 24
9926.291881376442
 34
0.0
100
AcDbRotatedDimension
1001
ACAD
1000
DSTYLE
1002
{
1070
   287
1070
     3
1070
    41
1040
0.5
1070
    44
1040
1.0
1070
   147
1040
0.8
1070
   271
1070
     2
1070
   272
1070
     2
1070
   289
1070
     3
1070
   340
1005
F706
1070
     6
1000
DOT
1070
     7
1000
DOT
1002
}
  0
DIMENSION
  5
121FD
330
747D
100
AcDbEntity
  8
寸法
 48
50.0
100
AcDbDimension
  2
*D11
 10
5788.904397928899
 20
6811.209923873595
 30
0.0
 11
4473.904397928897
 21
6903.221734897217
 31
0.0
 70
    32
 71
     5
 42
2630.000000000002
  3
INABA_S40
100
AcDbAlignedDimension
 13
3158.904397928897
 23
8136.291881376441
 33
0.0
 14
5788.904397928899
 24
8191.291881376441
 34
0.0
100
AcDbRotatedDimension
1001
ACAD
1000
DSTYLE
1002
{
1070
   287
1070
     3
1070
    41
1040
0.5
1070
    44
1040
1.0
1070
   147
1040
0.8
1070
   271
1070
     2
1070
   272
1070
     2
1070
   289
1070
     3
1070
   340
1005
F706
1070
     6
1000
DOT
1070
     7
1000
DOT
1002
}
  0
LINE
  5
121FE
330
747D
100
AcDbEntity
  8
破線
  6
HIDDEN
 48
10.0
100
AcDbLine
 10
4083.404397928894
 20
9871.291881376444
 30
0.0
 11
4083.404397928893
 21
8191.291881376441
 31
0.0
  0
LINE
  5
121FF
330
747D
100
AcDbEntity
  8
破線
  6
HIDDEN
 48
10.0
100
AcDbLine
 10
4033.404397928896
 20
9871.291881376444
 30
0.0
 11
4033.404397928893
 21
8191.291881376445
 31
0.0
  0
LINE
  5
12200
330
747D
100
AcDbEntity
  8
部品1
100
AcDbLine
 10
3213.904397928903
 20
9871.291881376443
 30
0.0
 11
3213.904397928895
 21
8191.291881376445
 31
0.0
  0
LINE
  5
12201
330
747D
100
AcDbEntity
  8
破線
  6
HIDDEN
 48
10.0
100
AcDbLine
 10
3237.404397928904
 20
9847.791881376444
 30
0.0
 11
3237.404397928894
 21
8214.791881376445
 31
0.0
  0
LINE
  5
12202
330
747D
100
AcDbEntity
  8
部品1
100
AcDbLine
 10
3158.904397928898
 20
9926.291881376442
 30
0.0
 11
3158.904397928898
 21
8136.291881376441
 31
0.0
  0
LINE
  5
12203
330
747D
100
AcDbEntity
  8
部品1
100
AcDbLine
 10
3186.904397928898
 20
9898.291881376444
 30
0.0
 11
3186.904397928898
 21
9669.291881376445
 31
0.0
  0
LINE
  5
12204
330
747D
100
AcDbEntity
  8
部品1
100
AcDbLine
 10
3186.9043979289
 20
9871.291881376444
 30
0.0
 11
3186.904397928897
 21
8164.29188137644
 31
0.0
  0
LINE
  5
12205
330
747D
100
AcDbEntity
  8
破線
  6
HIDDEN
 48
10.0
100
AcDbLine
 10
3237.404397928894
 20
8214.791881376445
 30
0.0
 11
4033.404397928893
 21
8214.79188137644
 31
0.0
  0
LINE
  5
12206
330
747D
100
AcDbEntity
  8
部品1
100
AcDbLine
 10
3158.904397928898
 20
8136.291881376441
 30
0.0
 11
3633.904397928898
 21
8136.291881376438
 31
0.0
  0
LINE
  5
12207
330
747D
100
AcDbEntity
  8
部品1
 48
50.0
100
AcDbLine
 10
3186.904397928897
 20
8164.29188137644
 30
0.0
 11
3213.904397928895
 21
8191.291881376445
 31
0.0
  0
LINE
  5
12208
330
747D
100
AcDbEntity
  8
部品1
100
AcDbLine
 10
3213.904397928899
 20
8136.291881376438
 30
0.0
 11
3213.904397928899
 21
8164.29188137644
 31
0.0
  0
LINE
  5
12209
330
747D
100
AcDbEntity
  8
部品1
100
AcDbLine
 10
3186.904397928898
 20
8191.291881376438
 30
0.0
 11
3158.904397928898
 21
8191.291881376438
 31
0.0
  0
LINE
  5
12210
330
747D
100
AcDbEntity
  8
部品1
100
AcDbLine
 10
3633.904397928898
 20
8136.291881376447
 30
0.0
 11
3633.904397928898
 21
8164.291881376447
 31
0.0
  0
LINE
  5
12214
330
747D
100
AcDbEntity
  8
部品1
100
AcDbLine
 10
3633.904397928898
 20
8136.291881376438
 30
0.0
 11
3633.904397928898
 21
8164.29188137644
 31
0.0
  0
LINE
  5
12215
330
747D
100
AcDbEntity
  8
部品1
100
AcDbLine
 10
3186.904397928898
 20
8611.291881376445
 30
0.0
 11
3158.904397928898
 21
8611.291881376445
 31
0.0
  0
LINE
  5
12216
330
747D
100
AcDbEntity
  8
部品1
100
AcDbLine
 10
3186.904397928898
 20
9031.291881376445
 30
0.0
 11
3158.904397928898
 21
9031.291881376445
 31
0.0
  0
LINE
  5
12217
330
747D
100
AcDbEntity
  8
部品1
100
AcDbLine
 10
3186.904397928898
 20
9451.291881376445
 30
0.0
 11
3158.904397928898
 21
9451.291881376445
 31
0.0
  0
LINE
  5
1221A
330
747D
100
AcDbEntity
  8
破線
  6
HIDDEN
 48
10.0
100
AcDbLine
 10
3237.404397928894
 20
9847.791881376444
 30
0.0
 11
4033.404397928896
 21
9847.791881376441
 31
0.0
  0
DIMENSION
  5
1221B
330
747D
100
AcDbEntity
  8
寸法
 48
50.0
100
AcDbDimension
  2
*D12
 10
3213.904397928898
 20
10301.00429139523
 30
0.0
 11
2764.737731262232
 21
10301.00429139523
 31
0.0
 70
   160
 71
     5
 42
55.00000000000046
  3
INABA_S40
100
AcDbAlignedDimension
 13
3158.904397928897
 23
9926.291881376442
 33
0.0
 14
3213.904397928898
 24
9926.291881376442
 34
0.0
100
AcDbRotatedDimension
1001
ACAD
1000
DSTYLE
1002
{
1070
   287
1070
     3
1070
    41
1040
0.5
1070
    44
1040
1.0
1070
   147
1040
0.8
1070
   271
1070
     2
1070
   272
1070
     2
1070
   289
1070
     3
1070
   340
1005
F706
1070
     6
1000
DOT
1070
     7
1000
DOT
1002
}
  0
LINE
  5
1221C
330
747D
100
AcDbEntity
  8
部品1
 48
50.0
100
AcDbLine
 10
3186.904397928898
 20
9898.291881376444
 30
0.0
 11
3213.904397928895
 21
9871.291881376443
 31
0.0
  0
LINE
  5
1221D
330
747D
100
AcDbEntity
  8
部品1
100
AcDbLine
 10
3213.904397928899
 20
9926.291881376442
 30
0.0
 11
3213.904397928899
 21
9898.29188137644
 31
0.0
  0
LINE
  5
1221E
330
747D
100
AcDbEntity
  8
部品1
100
AcDbLine
 10
3186.904397928898
 20
9871.291881376444
 30
0.0
 11
3158.904397928898
 21
9871.291881376444
 31
0.0
  0
LINE
  5
12220
330
747D
100
AcDbEntity
  8
部品1
100
AcDbLine
 10
3633.904397928898
 20
9926.291881376442
 30
0.0
 11
3633.904397928898
 21
9898.29188137644
 31
0.0
  0
LINE
  5
12227
330
747D
100
AcDbEntity
  8
部品1
100
AcDbLine
 10
8363.904397928898
 20
9871.291881376444
 30
0.0
 11
8363.904397928898
 21
8191.291881376441
 31
0.0
  0
LINE
  5
1222D
330
747D
100
AcDbEntity
  8
部品1
100
AcDbLine
 10
5843.904397928898
 20
8191.291881376441
 30
0.0
 11
5843.904397928898
 21
9871.291881376443
 31
0.0
  0
LINE
  5
1222E
330
747D
100
AcDbEntity
  8
破線
  6
HIDDEN
 48
10.0
100
AcDbLine
 10
5867.404397928898
 20
8214.791881376445
 30
0.0
 11
5867.404397928897
 21
9847.791881376441
 31
0.0
  0
LINE
  5
1222F
330
747D
100
AcDbEntity
  8
部品1
100
AcDbLine
 10
5816.904397928897
 20
8164.29188137644
 30
0.0
 11
5816.904397928897
 21
9898.291881376447
 31
0.0
  0
LINE
  5
12231
330
747D
100
AcDbEntity
  8
破線
  6
HIDDEN
 48
10.0
100
AcDbLine
 10
5710.404397928898
 20
8214.791881376438
 30
0.0
 11
5710.404397928894
 21
9847.791881376446
 31
0.0
  0
LINE
  5
12232
330
747D
100
AcDbEntity
  8
部品1
100
AcDbLine
 10
5733.904397928898
 20
8191.291881376438
 30
0.0
 11
5733.904397928895
 21
9871.291881376446
 31
0.0
  0
LINE
  5
12233
330
747D
100
AcDbEntity
  8
部品1
100
AcDbLine
 10
5760.904397928898
 20
8164.291881376446
 30
0.0
 11
5760.904397928898
 21
9898.291881376444
 31
0.0
  0
LINE
  5
12234
330
747D
100
AcDbEntity
  8
破線
  6
HIDDEN
 48
10.0
100
AcDbLine
 10
8340.404397928898
 20
9847.79188137645
 30
0.0
 11
8340.404397928898
 21
8214.791881376438
 31
0.0
  0
LINE
  5
12235
330
747D
100
AcDbEntity
  8
部品1
100
AcDbLine
 10
8418.904397928898
 20
9926.291881376442
 30
0.0
 11
8418.904397928898
 21
8136.291881376441
 31
0.0
  0
LINE
  5
12236
330
747D
100
AcDbEntity
  8
部品1
100
AcDbLine
 10
8390.904397928897
 20
9898.29188137644
 30
0.0
 11
8390.904397928897
 21
9669.291881376445
 31
0.0
  0
LINE
  5
12237
330
747D
100
AcDbEntity
  8
破線
  6
HIDDEN
 48
10.0
100
AcDbLine
 10
6663.404397928902
 20
8214.791881376445
 30
0.0
 11
5867.404397928901
 21
8214.791881376445
 31
0.0
  0
LINE
  5
12239
330
747D
100
AcDbEntity
  8
部品1
100
AcDbLine
 10
5843.904397928898
 20
8611.291881376445
 30
0.0
 11
8363.904397928898
 21
8611.291881376445
 31
0.0
  0
LINE
  5
1223A
330
747D
100
AcDbEntity
  8
部品1
100
AcDbLine
 10
5843.904397928898
 20
9031.291881376445
 30
0.0
 11
8363.904397928898
 21
9031.291881376445
 31
0.0
  0
LINE
  5
1223B
330
747D
100
AcDbEntity
  8
部品1
100
AcDbLine
 10
5843.904397928898
 20
9451.291881376443
 30
0.0
 11
8363.904397928898
 21
9451.291881376443
 31
0.0
  0
LINE
  5
1223D
330
747D
100
AcDbEntity
  8
部品1
100
AcDbLine
 10
8418.904397928898
 20
8136.291881376441
 30
0.0
 11
5843.904397928898
 21
8136.291881376441
 31
0.0
  0
LINE
  5
1223E
330
747D
100
AcDbEntity
  8
部品1
100
AcDbLine
 10
8363.904397928898
 20
8191.291881376441
 30
0.0
 11
5843.904397928898
 21
8191.291881376445
 31
0.0
  0
LINE
  5
1223F
330
747D
100
AcDbEntity
  8
部品1
100
AcDbLine
 10
8390.904397928897
 20
8164.29188137644
 30
0.0
 11
5816.904397928897
 21
8164.291881376446
 31
0.0
  0
DIMENSION
  5
12240
330
747D
100
AcDbEntity
  8
寸法
 48
50.0
100
AcDbDimension
  2
*D13
 10
8418.904397928898
 20
6811.209923873595
 30
0.0
 11
7103.904397928897
 21
6903.221734897217
 31
0.0
 70
    32
 71
     5
 42
2629.999999999999
  3
INABA_S40
100
AcDbAlignedDimension
 13
5788.904397928899
 23
8191.291881376438
 33
0.0
 14
8418.904397928898
 24
8136.291881376441
 34
0.0
100
AcDbRotatedDimension
1001
ACAD
1000
DSTYLE
1002
{
1070
   287
1070
     3
1070
    41
1040
0.5
1070
    44
1040
1.0
1070
   147
1040
0.8
1070
   271
1070
     2
1070
   272
1070
     2
1070
   289
1070
     3
1070
   340
1005
F706
1070
     6
1000
DOT
1070
     7
1000
DOT
1002
}
  0
LINE
  5
12241
330
747D
100
AcDbEntity
  8
破線
  6
HIDDEN
 48
10.0
100
AcDbLine
 10
4083.404397928893
 20
8214.79188137644
 30
0.0
 11
4864.404397928893
 21
8214.791881376438
 31
0.0
  0
LINE
  5
1226B
330
747D
100
AcDbEntity
  8
破線
  6
HIDDEN
 48
10.0
100
AcDbLine
 10
4914.404397928893
 20
8214.791881376445
 30
0.0
 11
5710.404397928898
 21
8214.791881376438
 31
0.0
  0
LINE
  5
12272
330
747D
100
AcDbEntity
  8
部品1
100
AcDbLine
 10
5733.904397928898
 20
8136.291881376438
 30
0.0
 11
5733.904397928898
 21
8164.29188137644
 31
0.0
  0
LINE
  5
12276
330
747D
100
AcDbEntity
  8
部品1
100
AcDbLine
 10
5733.904397928898
 20
8136.291881376438
 30
0.0
 11
5733.904397928898
 21
8164.29188137644
 31
0.0
  0
LINE
  5
12277
330
747D
100
AcDbEntity
  8
部品1
 48
50.0
100
AcDbLine
 10
5816.904397928897
 20
8164.29188137644
 30
0.0
 11
5843.904397928898
 21
8191.291881376441
 31
0.0
  0
LINE
  5
12278
330
747D
100
AcDbEntity
  8
部品1
 48
50.0
100
AcDbLine
 10
5760.904397928898
 20
8164.291881376446
 30
0.0
 11
5733.904397928898
 21
8191.291881376438
 31
0.0
  0
LINE
  5
12279
330
747D
100
AcDbEntity
  8
部品1
100
AcDbLine
 10
5843.904397928898
 20
8136.291881376445
 30
0.0
 11
5733.904397928898
 21
8136.291881376438
 31
0.0
  0
LINE
  5
1227A
330
747D
100
AcDbEntity
  8
部品1
100
AcDbLine
 10
5733.904397928898
 20
8136.291881376438
 30
0.0
 11
5733.904397928898
 21
8164.29188137644
 31
0.0
  0
LINE
  5
1227B
330
747D
100
AcDbEntity
  8
部品1
100
AcDbLine
 10
5843.904397928898
 20
8136.291881376438
 30
0.0
 11
5843.904397928898
 21
8164.29188137644
 31
0.0
  0
LINE
  5
1227C
330
747D
100
AcDbEntity
  8
部品1
100
AcDbLine
 10
5816.904397928897
 20
8191.291881376438
 30
0.0
 11
5788.904397928899
 21
8191.291881376438
 31
0.0
  0
LINE
  5
1227D
330
747D
100
AcDbEntity
  8
部品1
100
AcDbLine
 10
5760.904397928898
 20
8191.291881376438
 30
0.0
 11
5788.904397928899
 21
8191.291881376438
 31
0.0
  0
LINE
  5
1227E
330
747D
100
AcDbEntity
  8
部品1
100
AcDbLine
 10
6263.904397928898
 20
8136.291881376438
 30
0.0
 11
6263.904397928898
 21
8164.29188137644
 31
0.0
  0
LINE
  5
1227F
330
747D
100
AcDbEntity
  8
部品1
100
AcDbLine
 10
8390.904397928897
 20
9871.291881376444
 30
0.0
 11
8390.904397928897
 21
8164.29188137644
 31
0.0
  0
LINE
  5
12280
330
747D
100
AcDbEntity
  8
破線
  6
HIDDEN
 48
10.0
100
AcDbLine
 10
7494.404397928905
 20
8214.79188137644
 30
0.0
 11
6713.404397928901
 21
8214.791881376445
 31
0.0
  0
LINE
  5
12282
330
747D
100
AcDbEntity
  8
部品1
100
AcDbLine
 10
6683.904397928898
 20
8136.291881376438
 30
0.0
 11
6683.904397928898
 21
8164.29188137644
 31
0.0
  0
LINE
  5
12283
330
747D
100
AcDbEntity
  8
部品1
100
AcDbLine
 10
7103.904397928896
 20
8136.291881376438
 30
0.0
 11
7103.904397928896
 21
8164.29188137644
 31
0.0
  0
LINE
  5
12286
330
747D
100
AcDbEntity
  8
破線
  6
HIDDEN
 48
10.0
100
AcDbLine
 10
8340.404397928898
 20
8214.791881376438
 30
0.0
 11
7544.404397928905
 21
8214.79188137644
 31
0.0
  0
LINE
  5
12287
330
747D
100
AcDbEntity
  8
部品1
100
AcDbLine
 10
7523.904397928898
 20
8136.291881376438
 30
0.0
 11
7523.904397928898
 21
8164.29188137644
 31
0.0
  0
LINE
  5
12288
330
747D
100
AcDbEntity
  8
部品1
100
AcDbLine
 10
7943.904397928898
 20
8136.291881376438
 30
0.0
 11
7943.904397928898
 21
8164.29188137644
 31
0.0
  0
LINE
  5
12289
330
747D
100
AcDbEntity
  8
部品1
 48
50.0
100
AcDbLine
 10
8390.904397928897
 20
8164.29188137644
 30
0.0
 11
8363.904397928898
 21
8191.291881376441
 31
0.0
  0
LINE
  5
1228A
330
747D
100
AcDbEntity
  8
部品1
100
AcDbLine
 10
8363.904397928898
 20
8136.291881376438
 30
0.0
 11
8363.904397928898
 21
8164.29188137644
 31
0.0
  0
LINE
  5
1228B
330
747D
100
AcDbEntity
  8
部品1
100
AcDbLine
 10
8390.904397928897
 20
8191.291881376438
 30
0.0
 11
8418.904397928898
 21
8191.291881376438
 31
0.0
  0
LINE
  5
1228C
330
747D
100
AcDbEntity
  8
部品1
100
AcDbLine
 10
8390.904397928897
 20
8611.291881376445
 30
0.0
 11
8418.904397928898
 21
8611.291881376445
 31
0.0
  0
LINE
  5
1228D
330
747D
100
AcDbEntity
  8
部品1
100
AcDbLine
 10
8390.904397928897
 20
9031.291881376445
 30
0.0
 11
8418.904397928898
 21
9031.291881376445
 31
0.0
  0
LINE
  5
1228E
330
747D
100
AcDbEntity
  8
部品1
100
AcDbLine
 10
8390.904397928897
 20
9451.291881376445
 30
0.0
 11
8418.904397928898
 21
9451.291881376445
 31
0.0
  0
LINE
  5
12291
330
747D
100
AcDbEntity
  8
破線
  6
HIDDEN
 48
10.0
100
AcDbLine
 10
6663.404397928902
 20
9847.791881376444
 30
0.0
 11
5867.404397928901
 21
9847.791881376444
 31
0.0
  0
LINE
  5
12292
330
747D
100
AcDbEntity
  8
部品1
100
AcDbLine
 10
8363.904397928898
 20
9871.291881376444
 30
0.0
 11
5843.904397928898
 21
9871.291881376443
 31
0.0
  0
LINE
  5
12293
330
747D
100
AcDbEntity
  8
部品1
100
AcDbLine
 10
5816.904397928897
 20
9898.291881376444
 30
0.0
 11
7523.904397928898
 21
9898.291881376444
 31
0.0
  0
DIMENSION
  5
12294
330
747D
100
AcDbEntity
  8
寸法
 48
50.0
100
AcDbDimension
  2
*D14
 10
8363.904397928898
 20
10301.00429139523
 30
0.0
 11
7103.904397928897
 21
10393.01610241886
 31
0.0
 70
    32
  1
6X420=<>
 71
     5
 42
2520.0
  3
INABA_S40
100
AcDbAlignedDimension
 13
5843.904397928898
 23
9926.291881376442
 33
0.0
 14
8363.904397928898
 24
9926.291881376442
 34
0.0
100
AcDbRotatedDimension
1001
ACAD
1000
DSTYLE
1002
{
1070
   287
1070
     3
1070
    41
1040
0.5
1070
    44
1040
1.0
1070
   147
1040
0.8
1070
   271
1070
     2
1070
   272
1070
     2
1070
   289
1070
     3
1070
   340
1005
F706
1070
     6
1000
DOT
1070
     7
1000
DOT
1002
}
  0
LINE
  5
12295
330
747D
100
AcDbEntity
  8
部品1
100
AcDbLine
 10
5788.904397928899
 20
9926.291881376442
 30
0.0
 11
8418.904397928898
 21
9926.291881376442
 31
0.0
  0
LINE
  5
12296
330
747D
100
AcDbEntity
  8
破線
  6
HIDDEN
 48
10.0
100
AcDbLine
 10
4083.404397928894
 20
9847.791881376437
 30
0.0
 11
4864.404397928898
 21
9847.791881376444
 31
0.0
  0
LINE
  5
12297
330
747D
100
AcDbEntity
  8
部品1
100
AcDbLine
 10
5313.904397928898
 20
9898.291881376444
 30
0.0
 11
4053.904397928898
 21
9898.291881376447
 31
0.0
  0
LINE
  5
12298
330
747D
100
AcDbEntity
  8
部品1
100
AcDbLine
 10
4053.904397928898
 20
9926.291881376442
 30
0.0
 11
4053.904397928898
 21
9898.29188137644
 31
0.0
  0
LINE
  5
12299
330
747D
100
AcDbEntity
  8
部品1
100
AcDbLine
 10
4473.904397928897
 20
9926.291881376442
 30
0.0
 11
4473.904397928897
 21
9898.29188137644
 31
0.0
  0
LINE
  5
1229A
330
747D
100
AcDbEntity
  8
部品1
100
AcDbLine
 10
4893.904397928898
 20
9926.291881376442
 30
0.0
 11
4893.904397928898
 21
9898.29188137644
 31
0.0
  0
LINE
  5
1229B
330
747D
100
AcDbEntity
  8
破線
  6
HIDDEN
 48
10.0
100
AcDbLine
 10
4914.404397928894
 20
9847.79188137645
 30
0.0
 11
5710.404397928898
 21
9847.79188137645
 31
0.0
  0
LINE
  5
1229C
330
747D
100
AcDbEntity
  8
部品1
100
AcDbLine
 10
5760.904397928898
 20
9898.291881376444
 30
0.0
 11
5313.904397928898
 21
9898.291881376444
 31
0.0
  0
LINE
  5
1229D
330
747D
100
AcDbEntity
  8
部品1
100
AcDbLine
 10
5313.904397928898
 20
9926.291881376442
 30
0.0
 11
5313.904397928898
 21
9898.29188137644
 31
0.0
  0
LINE
  5
1229E
330
747D
100
AcDbEntity
  8
部品1
100
AcDbLine
 10
5733.904397928898
 20
9926.291881376442
 30
0.0
 11
5733.904397928898
 21
9898.29188137644
 31
0.0
  0
DIMENSION
  5
1229F
330
747D
100
AcDbEntity
  8
寸法
 48
50.0
100
AcDbDimension
  2
*D15
 10
5843.904397928898
 20
10301.00429139523
 30
0.0
 11
5788.904397928899
 21
10301.00429139523
 31
0.0
 70
   160
 71
     5
 42
110.0
  3
INABA_S40
100
AcDbAlignedDimension
 13
5733.904397928898
 23
9926.291881376442
 33
0.0
 14
5843.904397928898
 24
9926.291881376442
 34
0.0
100
AcDbRotatedDimension
1001
ACAD
1000
DSTYLE
1002
{
1070
   287
1070
     3
1070
    41
1040
0.5
1070
    44
1040
1.0
1070
   147
1040
0.8
1070
   271
1070
     2
1070
   272
1070
     2
1070
   289
1070
     3
1070
   340
1005
F706
1070
     6
1000
DOT
1070
     7
1000
DOT
1002
}
  0
LINE
  5
122A0
330
747D
100
AcDbEntity
  8
部品1
 48
50.0
100
AcDbLine
 10
5816.904397928897
 20
9898.291881376444
 30
0.0
 11
5843.904397928898
 21
9871.291881376443
 31
0.0
  0
LINE
  5
122A1
330
747D
100
AcDbEntity
  8
部品1
 48
50.0
100
AcDbLine
 10
5760.904397928898
 20
9898.291881376444
 30
0.0
 11
5733.904397928898
 21
9871.29188137645
 31
0.0
  0
LINE
  5
122A2
330
747D
100
AcDbEntity
  8
部品1
100
AcDbLine
 10
5816.904397928897
 20
9871.291881376444
 30
0.0
 11
5788.904397928899
 21
9871.291881376444
 31
0.0
  0
LINE
  5
122A3
330
747D
100
AcDbEntity
  8
部品1
100
AcDbLine
 10
5733.904397928898
 20
9926.291881376442
 30
0.0
 11
5733.904397928898
 21
9898.29188137644
 31
0.0
  0
LINE
  5
122A4
330
747D
100
AcDbEntity
  8
部品1
100
AcDbLine
 10
5760.904397928898
 20
9871.291881376444
 30
0.0
 11
5788.904397928899
 21
9871.291881376444
 31
0.0
  0
LINE
  5
122A5
330
747D
100
AcDbEntity
  8
部品1
100
AcDbLine
 10
5843.904397928898
 20
9926.291881376442
 30
0.0
 11
5843.904397928898
 21
9898.29188137644
 31
0.0
  0
LINE
  5
122A6
330
747D
100
AcDbEntity
  8
部品1
100
AcDbLine
 10
5843.904397928898
 20
9926.291881376442
 30
0.0
 11
5843.904397928898
 21
9898.29188137644
 31
0.0
  0
LINE
  5
122A7
330
747D
100
AcDbEntity
  8
部品1
100
AcDbLine
 10
6263.904397928898
 20
9926.291881376442
 30
0.0
 11
6263.904397928898
 21
9898.29188137644
 31
0.0
  0
LINE
  5
122A8
330
747D
100
AcDbEntity
  8
破線
  6
HIDDEN
 48
10.0
100
AcDbLine
 10
7494.404397928902
 20
9847.791881376444
 30
0.0
 11
6713.404397928901
 21
9847.791881376439
 31
0.0
  0
LINE
  5
122A9
330
747D
100
AcDbEntity
  8
部品1
100
AcDbLine
 10
7326.404397928898
 20
9898.291881376444
 30
0.0
 11
7721.404397928899
 21
9898.29188137644
 31
0.0
  0
LINE
  5
122AB
330
747D
100
AcDbEntity
  8
部品1
100
AcDbLine
 10
6683.904397928898
 20
9926.291881376442
 30
0.0
 11
6683.904397928898
 21
9898.29188137644
 31
0.0
  0
LINE
  5
122AC
330
747D
100
AcDbEntity
  8
部品1
100
AcDbLine
 10
7103.904397928896
 20
9926.291881376442
 30
0.0
 11
7103.904397928896
 21
9898.29188137644
 31
0.0
  0
LINE
  5
122AF
330
747D
100
AcDbEntity
  8
破線
  6
HIDDEN
 48
10.0
100
AcDbLine
 10
8340.404397928898
 20
9847.791881376446
 30
0.0
 11
7544.4043979289
 21
9847.791881376444
 31
0.0
  0
LINE
  5
122B0
330
747D
100
AcDbEntity
  8
部品1
100
AcDbLine
 10
7523.904397928898
 20
9898.29188137644
 30
0.0
 11
8390.904397928897
 21
9898.29188137644
 31
0.0
  0
LINE
  5
122B1
330
747D
100
AcDbEntity
  8
部品1
100
AcDbLine
 10
7523.904397928898
 20
9926.291881376442
 30
0.0
 11
7523.904397928898
 21
9898.29188137644
 31
0.0
  0
LINE
  5
122B2
330
747D
100
AcDbEntity
  8
部品1
100
AcDbLine
 10
7943.904397928898
 20
9926.291881376442
 30
0.0
 11
7943.904397928898
 21
9898.29188137644
 31
0.0
  0
LINE
  5
122B3
330
747D
100
AcDbEntity
  8
部品1
 48
50.0
100
AcDbLine
 10
8390.904397928897
 20
9898.29188137644
 30
0.0
 11
8363.904397928898
 21
9871.291881376444
 31
0.0
  0
LINE
  5
122B4
330
747D
100
AcDbEntity
  8
部品1
100
AcDbLine
 10
8363.904397928898
 20
9926.291881376442
 30
0.0
 11
8363.904397928898
 21
9898.29188137644
 31
0.0
  0
LINE
  5
122B5
330
747D
100
AcDbEntity
  8
部品1
100
AcDbLine
 10
8390.904397928897
 20
9871.291881376444
 30
0.0
 11
8418.904397928898
 21
9871.291881376444
 31
0.0
  0
LINE
  5
12B5A
330
747D
100
AcDbEntity
  8
破線
  6
HIDDEN
 48
10.0
100
AcDbLine
 10
4864.404397928894
 20
9871.291881376444
 30
0.0
 11
4864.404397928893
 21
8191.291881376445
 31
0.0
  0
LINE
  5
12B5B
330
747D
100
AcDbEntity
  8
破線
  6
HIDDEN
 48
10.0
100
AcDbLine
 10
4914.404397928894
 20
9871.291881376444
 30
0.0
 11
4914.404397928893
 21
8191.291881376441
 31
0.0
  0
LINE
  5
12B5C
330
747D
100
AcDbEntity
  8
破線
  6
HIDDEN
 48
10.0
100
AcDbLine
 10
6663.404397928902
 20
9871.291881376444
 30
0.0
 11
6663.404397928902
 21
8191.291881376441
 31
0.0
  0
LINE
  5
12B5D
330
747D
100
AcDbEntity
  8
破線
  6
HIDDEN
 48
10.0
100
AcDbLine
 10
6713.404397928901
 20
9871.291881376444
 30
0.0
 11
6713.404397928901
 21
8191.291881376445
 31
0.0
  0
LINE
  5
12B5E
330
747D
100
AcDbEntity
  8
破線
  6
HIDDEN
 48
10.0
100
AcDbLine
 10
7544.4043979289
 20
9871.291881376444
 30
0.0
 11
7544.404397928904
 21
8191.291881376445
 31
0.0
  0
LINE
  5
12B5F
330
747D
100
AcDbEntity
  8
破線
  6
HIDDEN
 48
10.0
100
AcDbLine
 10
7494.404397928902
 20
9871.291881376444
 30
0.0
 11
7494.404397928902
 21
8191.291881376441
 31
0.0
  0
LINE
  5
12B60
330
747D
100
AcDbEntity
  8
部品1
 48
50.0
100
AcDbLine
 10
7418.904397928897
 20
2794.732394739148
 30
0.0
 11
7418.904397928897
 21
2694.732394739148
 31
0.0
  0
LINE
  5
12B61
330
747D
100
AcDbEntity
  8
部品1
 48
50.0
100
AcDbLine
 10
7618.904397928897
 20
2794.732394739148
 30
0.0
 11
7618.904397928897
 21
2694.732394739148
 31
0.0
  0
LINE
  5
12B62
330
747D
100
AcDbEntity
  8
部品1
 48
50.0
100
AcDbLine
 10
6788.904397928897
 20
2794.732394739148
 30
0.0
 11
6788.904397928897
 21
2694.732394739148
 31
0.0
  0
LINE
  5
12B63
330
747D
100
AcDbEntity
  8
部品1
 48
50.0
100
AcDbLine
 10
6588.904397928897
 20
2794.732394739148
 30
0.0
 11
6588.904397928897
 21
2694.732394739148
 31
0.0
  0
LINE
  5
12C67
330
747D
100
AcDbEntity
  8
部品1
 48
50.0
100
AcDbLine
 10
5788.904400172469
 20
9898.291884953611
 30
0.0
 11
5760.904400172471
 21
9926.291884953611
 31
0.0
  0
LINE
  5
12C68
330
747D
100
AcDbEntity
  8
部品1
100
AcDbLine
 10
5760.904400172471
 20
9898.291884953611
 30
0.0
 11
5760.904400172471
 21
9926.291884953613
 31
0.0
  0
LINE
  5
12C69
330
747D
100
AcDbEntity
  8
部品1
100
AcDbLine
 10
5816.904400172468
 20
9898.291884953611
 30
0.0
 11
5816.904400172468
 21
9926.291884953608
 31
0.0
  0
LINE
  5
12C6A
330
747D
100
AcDbEntity
  8
部品1
100
AcDbLine
 10
5760.904400172471
 20
9898.291884953611
 30
0.0
 11
5788.904400172469
 21
9898.291884953611
 31
0.0
  0
LINE
  5
12D6F
330
747D
100
AcDbEntity
  8
部品1
 48
50.0
100
AcDbLine
 10
3633.904397928898
 20
8164.291881376437
 30
0.0
 11
5733.904397928898
 21
8164.291881376437
 31
0.0
  0
LINE
  5
13564
330
747D
100
AcDbEntity
  8
部品1
100
AcDbLine
 10
11508.14422886714
 20
4920.419499647549
 30
0.0
 11
11585.14422886714
 21
4934.732394739147
 31
0.0
  0
DIMENSION
  5
135E1
330
747D
100
AcDbEntity
  8
寸法
100
AcDbDimension
  2
*D16
 10
10441.39409968388
 20
5169.732394739153
 30
0.0
 11
10341.38228866025
 21
3982.232394739152
 31
0.0
 70
    32
 71
     5
 42
2375.000000000005
  3
INABA_S40G
100
AcDbAlignedDimension
 13
11508.14422886714
 23
2794.732394739148
 33
0.0
 14
11525.14422886714
 24
5169.732394739153
 34
0.0
 50
90.0
100
AcDbRotatedDimension
1001
ACAD
1000
DSTYLE
1002
{
1070
   174
1070
     0
1070
   272
1070
     1
1070
   288
1070
     0
1070
   341
1005
0
1002
}
  0
TEXT
  5
135E2
330
747D
100
AcDbEntity
  8
部品1
 48
50.0
100
AcDbText
 10
12318.41206409086
 20
5336.48455599286
 30
0.0
 40
120.0
  1
1000
  7
STYLE1
100
AcDbText
  0
LINE
  5
135E3
330
747D
100
AcDbEntity
  8
部品1
100
AcDbLine
 10
11532.6892152241
 20
5168.450130073414
 30
0.0
 11
13447.7561057286
 21
5113.373192448287
 31
0.0
  0
LINE
  5
135E4
330
747D
100
AcDbEntity
  8
部品1
100
AcDbLine
 10
11540.48679346909
 20
5027.513419808114
 30
0.0
 11
13429.80792940698
 21
4988.48499457391
 31
0.0
  0
LINE
  5
135E5
330
747D
100
AcDbEntity
  8
細線
 48
50.0
100
AcDbLine
 10
11558.14422886714
 20
5167.132071114552
 30
0.0
 11
11552.85512731163
 21
5027.046438487198
 31
0.0
  0
LINE
  5
135E6
330
747D
100
AcDbEntity
  8
細線
 48
50.0
100
AcDbLine
 10
13422.14422886714
 20
5114.699373774443
 30
0.0
 11
13417.39654597914
 21
4988.9536012837
 31
0.0
  0
LINE
  5
135E7
330
747D
100
AcDbEntity
  8
部品1
 48
50.0
100
AcDbLine
 10
11525.32851478025
 20
5161.325940903839
 30
0.0
 11
11525.70877455806
 21
5141.398976457429
 31
0.0
  0
LINE
  5
135E8
330
747D
100
AcDbEntity
  8
部品1
 48
50.0
100
AcDbLine
 10
11528.7775466643
 20
5137.823694963955
 30
0.0
 11
11530.48144815567
 21
5048.53319825731
 31
0.0
  0
LINE
  5
135E9
330
747D
100
AcDbEntity
  8
細線
 48
50.0
100
AcDbLine
 10
11526.18365196795
 20
5140.749476580509
 30
0.0
 11
13451.81963671312
 21
5085.125271939682
 31
0.0
  0
LINE
  5
135EA
330
747D
100
AcDbEntity
  8
細線
 48
50.0
100
AcDbLine
 10
11530.94412720524
 20
5047.887964882646
 30
0.0
 11
13440.94779163587
 21
5008.078645908152
 31
0.0
  0
LINE
  5
135EB
330
747D
100
AcDbEntity
  8
部品1
 48
50.0
100
AcDbLine
 10
11533.55022026191
 20
5044.957916763837
 30
0.0
 11
11533.75217288234
 21
5034.374881370744
 31
0.0
  0
ARC
  5
135EC
330
747D
100
AcDbEntity
  8
部品1
 48
50.0
100
AcDbCircle
 10
11532.32724060858
 20
5161.459495311269
 30
0.0
 40
7.0
100
AcDbArc
 50
87.03587545303976
 51
181.0932240292635
  0
ARC
  5
135ED
330
747D
100
AcDbEntity
  8
部品1
 48
50.0
100
AcDbCircle
 10
11540.75089871068
 20
5034.508435778173
 30
0.0
 40
7.0
100
AcDbArc
 50
181.0932240292635
 51
267.8377559871574
  0
ARC
  5
135EE
330
747D
100
AcDbEntity
  8
部品1
100
AcDbCircle
 10
11530.55076633548
 20
5044.900679160654
 30
0.0
 40
3.0
100
AcDbArc
 50
1.093224029263536
 51
80.18775403148671
  0
ARC
  5
135EF
330
747D
100
AcDbEntity
  8
部品1
100
AcDbCircle
 10
11525.77809273787
 20
5137.766457360772
 30
0.0
 40
3.0
100
AcDbArc
 50
1.093224029263536
 51
80.18775403148671
  0
ARC
  5
135F0
330
747D
100
AcDbEntity
  8
部品1
100
AcDbCircle
 10
11526.40864714089
 20
5141.412331898171
 30
0.0
 40
0.7
100
AcDbArc
 50
181.0932240292114
 51
260.1877540314867
  0
ARC
  5
135F1
330
747D
100
AcDbEntity
  8
部品1
100
AcDbCircle
 10
11531.1813207385
 20
5048.546553698052
 30
0.0
 40
0.7
100
AcDbArc
 50
181.0932240292114
 51
260.1877540314867
  0
LINE
  5
135F2
330
747D
100
AcDbEntity
  8
部品1
 48
50.0
100
AcDbLine
 10
13454.35813167784
 20
5105.673547013367
 30
0.0
 11
13452.32751048687
 21
5085.728505755586
 31
0.0
  0
LINE
  5
135F3
330
747D
100
AcDbEntity
  8
部品1
 48
50.0
100
AcDbLine
 10
13448.97494400238
 20
5082.417871682677
 30
0.0
 11
13441.46816473755
 21
5008.685250937664
 31
0.0
  0
LINE
  5
135F4
330
747D
100
AcDbEntity
  8
部品1
 48
50.0
100
AcDbLine
 10
13438.11559825306
 20
5005.374616864752
 30
0.0
 11
13437.03603521332
 21
4994.770999871194
 31
0.0
  0
ARC
  5
135F5
330
747D
100
AcDbEntity
  8
部品1
 48
50.0
100
AcDbCircle
 10
13447.39413111308
 20
5106.38255768614
 30
0.0
 40
7.0
100
AcDbArc
 50
354.1866997665532
 51
87.03587545303976
  0
ARC
  5
135F6
330
747D
100
AcDbEntity
  8
部品1
 48
50.0
100
AcDbCircle
 10
13430.07203464857
 20
4995.480010543968
 30
0.0
 40
7.0
100
AcDbArc
 50
267.8377559871574
 51
354.1866997665532
  0
ARC
  5
135F7
330
747D
100
AcDbEntity
  8
部品1
100
AcDbCircle
 10
13441.10016992367
 20
5005.07075514785
 30
0.0
 40
3.0
100
AcDbArc
 50
95.0921697642102
 51
174.1866997665532
  0
ARC
  5
135F8
330
747D
100
AcDbEntity
  8
部品1
100
AcDbCircle
 10
13451.959515673
 20
5082.114009965773
 30
0.0
 40
3.0
100
AcDbArc
 50
95.09216976441896
 51
174.1866997665532
  0
ARC
  5
135F9
330
747D
100
AcDbEntity
  8
部品1
100
AcDbCircle
 10
13451.63111043039
 20
5085.799406822864
 30
0.0
 40
0.7
100
AcDbArc
 50
275.0921697642102
 51
354.1866997665532
  0
ARC
  5
135FA
330
747D
100
AcDbEntity
  8
部品1
100
AcDbCircle
 10
13440.77176468107
 20
5008.756152004941
 30
0.0
 40
0.7
100
AcDbArc
 50
275.0921697642102
 51
354.1866997667087
  0
LINE
  5
135FB
330
747D
100
AcDbEntity
  8
部品1
 48
50.0
100
AcDbLine
 10
12330.14422886714
 20
5300.600533840427
 30
0.0
 11
12630.14422886714
 21
5300.600533840427
 31
0.0
  0
LINE
  5
135FC
330
747D
100
AcDbEntity
  8
部品1
 48
50.0
100
AcDbLine
 10
12630.14422886714
 20
5300.600533840427
 30
0.0
 11
12630.14422886714
 21
5284.400533840428
 31
0.0
  0
TEXT
  5
135FD
330
747D
100
AcDbEntity
  8
部品1
 48
50.0
100
AcDbText
 10
12807.237076155
 20
5198.983297774578
 30
0.0
 40
120.0
  1
54
 50
90.0
  7
STYLE1
100
AcDbText
  0
LINE
  5
135FE
330
747D
100
AcDbEntity
  8
部品1
 48
50.0
100
AcDbLine
 10
12330.14422886714
 20
5300.600533840427
 30
0.0
 11
12630.14422886714
 21
5284.400533840428
 31
0.0
  0
DIMENSION
  5
135FF
330
747D
100
AcDbEntity
  8
寸法
 48
50.0
100
AcDbDimension
  2
*D17
 10
10964.53582209878
 20
5044.07765361247
 30
0.0
 11
10975.2012973577
 21
5414.924316854172
 31
0.0
 70
   161
 71
     5
 42
140.9999999999991
  3
INABA_S40G
100
AcDbAlignedDimension
 13
11544.54024902572
 23
5168.455143573827
 33
0.0
 14
11540.48679346909
 24
5027.513419808114
 34
0.0
1001
ACAD
1000
DSTYLE
1002
{
1070
   174
1070
     0
1070
   272
1070
     1
1070
   288
1070
     0
1070
   341
1005
0
1002
}
  0
DIMENSION
  5
13600
330
747D
100
AcDbEntity
  8
寸法
 48
50.0
100
AcDbDimension
  2
*D18
 10
11525.14422886714
 20
5568.389848318451
 30
0.0
 11
11215.50643359155
 21
5568.389848318451
 31
0.0
 70
   160
 71
     5
 42
60.0
  3
INABA_S40G
100
AcDbAlignedDimension
 13
11585.14422886714
 23
5165.734012862124
 33
0.0
 14
11525.14422886714
 24
5169.732394739153
 34
0.0
100
AcDbRotatedDimension
1001
ACAD
1000
DSTYLE
1002
{
1070
   174
1070
     0
1070
   272
1070
     1
1070
   288
1070
     0
1070
   341
1005
0
1002
}
  0
DIMENSION
  5
13601
330
747D
100
AcDbEntity
  8
寸法
 48
50.0
100
AcDbDimension
  2
*D19
 10
11585.14422886714
 20
5568.825564078621
 30
0.0
 11
12494.73987754362
 21
5568.825564078621
 31
0.0
 70
   160
  1
柱外寸法<>
 71
     5
 42
1790.0
  3
INABA_S40G
100
AcDbAlignedDimension
 13
13375.14422886714
 23
5116.543074350801
 33
0.0
 14
11585.14422886714
 24
5165.734012862124
 34
0.0
100
AcDbRotatedDimension
1001
ACAD
1000
DSTYLE
1002
{
1070
   174
1070
     0
1070
   272
1070
     1
1070
   288
1070
     0
1070
   341
1005
0
1002
}
  0
DIMENSION
  5
13602
330
747D
100
AcDbEntity
  8
寸法
 48
50.0
100
AcDbDimension
  2
*D20
 10
11525.14422886714
 20
5785.351663697065
 30
0.0
 11
12430.94998011811
 21
5785.351663697065
 31
0.0
 70
   160
 71
     5
 42
1930.0
  3
INABA_S40G
100
AcDbAlignedDimension
 13
13455.14422886714
 23
5114.732394739149
 33
0.0
 14
11525.14422886714
 24
5169.732394739153
 34
0.0
100
AcDbRotatedDimension
1001
ACAD
1000
DSTYLE
1002
{
1070
   174
1070
     0
1070
   272
1070
     1
1070
   288
1070
     0
1070
   341
1005
0
1002
}
  0
DIMENSION
  5
13603
330
747D
100
AcDbEntity
  8
寸法
 48
50.0
100
AcDbDimension
  2
*D21
 10
13455.14422886714
 20
5568.389848318451
 30
0.0
 11
13661.19147296163
 21
5568.389848318451
 31
0.0
 70
   160
 71
     5
 42
80.0
  3
INABA_S40G
100
AcDbAlignedDimension
 13
13375.14422886714
 23
5116.543074350801
 33
0.0
 14
13455.14422886714
 24
5114.732394739149
 34
0.0
100
AcDbRotatedDimension
1001
ACAD
1000
DSTYLE
1002
{
1070
   174
1070
     0
1070
   272
1070
     1
1070
   288
1070
     0
1070
   341
1005
0
1002
}
  0
LINE
  5
13604
330
747D
100
AcDbEntity
  8
細線
 48
50.0
100
AcDbLine
 10
11717.64422886714
 20
4934.732394739147
 30
0.0
 11
11717.64422886714
 21
2844.732394739148
 31
0.0
  0
LINE
  5
13605
330
747D
100
AcDbEntity
  8
細線
 48
50.0
100
AcDbLine
 10
11702.64422886714
 20
4934.732394739147
 30
0.0
 11
11702.64422886714
 21
2844.732394739148
 31
0.0
  0
LINE
  5
13606
330
747D
100
AcDbEntity
  8
細線
 48
50.0
100
AcDbLine
 10
11842.64422886714
 20
4934.732394739147
 30
0.0
 11
11842.64422886714
 21
2844.732394739148
 31
0.0
  0
LINE
  5
13607
330
747D
100
AcDbEntity
  8
細線
 48
50.0
100
AcDbLine
 10
11857.64422886714
 20
4934.732394739147
 30
0.0
 11
11857.64422886714
 21
2844.732394739148
 31
0.0
  0
LINE
  5
13608
330
747D
100
AcDbEntity
  8
細線
 48
50.0
100
AcDbLine
 10
11997.64422886714
 20
4934.732394739147
 30
0.0
 11
11997.64422886714
 21
2844.732394739148
 31
0.0
  0
LINE
  5
13609
330
747D
100
AcDbEntity
  8
細線
 48
50.0
100
AcDbLine
 10
11982.64422886714
 20
4934.732394739147
 30
0.0
 11
11982.64422886714
 21
2844.732394739148
 31
0.0
  0
LINE
  5
1360A
330
747D
100
AcDbEntity
  8
細線
 48
50.0
100
AcDbLine
 10
12137.64422886714
 20
4934.732394739147
 30
0.0
 11
12137.64422886714
 21
2844.732394739148
 31
0.0
  0
LINE
  5
1360B
330
747D
100
AcDbEntity
  8
細線
 48
50.0
100
AcDbLine
 10
12122.64422886714
 20
4934.732394739147
 30
0.0
 11
12122.64422886714
 21
2844.732394739148
 31
0.0
  0
LINE
  5
1360C
330
747D
100
AcDbEntity
  8
細線
 48
50.0
100
AcDbLine
 10
12262.64422886714
 20
4934.732394739147
 30
0.0
 11
12262.64422886714
 21
2844.732394739148
 31
0.0
  0
LINE
  5
1360D
330
747D
100
AcDbEntity
  8
細線
 48
50.0
100
AcDbLine
 10
12277.64422886714
 20
4934.732394739147
 30
0.0
 11
12277.64422886714
 21
2844.732394739148
 31
0.0
  0
LINE
  5
1360E
330
747D
100
AcDbEntity
  8
細線
 48
50.0
100
AcDbLine
 10
12417.64422886714
 20
4934.732394739147
 30
0.0
 11
12417.64422886714
 21
2844.732394739148
 31
0.0
  0
LINE
  5
1360F
330
747D
100
AcDbEntity
  8
細線
 48
50.0
100
AcDbLine
 10
12402.64422886714
 20
4934.732394739147
 30
0.0
 11
12402.64422886714
 21
2844.732394739148
 31
0.0
  0
LINE
  5
13610
330
747D
100
AcDbEntity
  8
細線
 48
50.0
100
AcDbLine
 10
12822.64422886714
 20
4934.732394739147
 30
0.0
 11
12822.64422886714
 21
2844.732394739148
 31
0.0
  0
LINE
  5
13611
330
747D
100
AcDbEntity
  8
細線
 48
50.0
100
AcDbLine
 10
12837.64422886714
 20
4934.732394739147
 30
0.0
 11
12837.64422886714
 21
2844.732394739148
 31
0.0
  0
LINE
  5
13612
330
747D
100
AcDbEntity
  8
細線
 48
50.0
100
AcDbLine
 10
12697.64422886714
 20
4934.732394739147
 30
0.0
 11
12697.64422886714
 21
2844.732394739148
 31
0.0
  0
LINE
  5
13613
330
747D
100
AcDbEntity
  8
細線
 48
50.0
100
AcDbLine
 10
12682.64422886714
 20
4934.732394739147
 30
0.0
 11
12682.64422886714
 21
2844.732394739148
 31
0.0
  0
LINE
  5
13614
330
747D
100
AcDbEntity
  8
細線
 48
50.0
100
AcDbLine
 10
12542.64422886714
 20
4934.732394739147
 30
0.0
 11
12542.64422886714
 21
2844.732394739148
 31
0.0
  0
LINE
  5
13615
330
747D
100
AcDbEntity
  8
細線
 48
50.0
100
AcDbLine
 10
12557.64422886714
 20
4934.732394739147
 30
0.0
 11
12557.64422886714
 21
2844.732394739148
 31
0.0
  0
LINE
  5
13616
330
747D
100
AcDbEntity
  8
細線
 48
50.0
100
AcDbLine
 10
13242.64422886714
 20
4934.732394739147
 30
0.0
 11
13242.64422886714
 21
2844.732394739148
 31
0.0
  0
LINE
  5
13617
330
747D
100
AcDbEntity
  8
細線
 48
50.0
100
AcDbLine
 10
13257.64422886714
 20
4934.732394739147
 30
0.0
 11
13257.64422886714
 21
2844.732394739148
 31
0.0
  0
LINE
  5
13618
330
747D
100
AcDbEntity
  8
細線
 48
50.0
100
AcDbLine
 10
13117.64422886714
 20
4934.732394739147
 30
0.0
 11
13117.64422886714
 21
2844.732394739148
 31
0.0
  0
LINE
  5
13619
330
747D
100
AcDbEntity
  8
細線
 48
50.0
100
AcDbLine
 10
13102.64422886714
 20
4934.732394739147
 30
0.0
 11
13102.64422886714
 21
2844.732394739148
 31
0.0
  0
LINE
  5
1361A
330
747D
100
AcDbEntity
  8
細線
 48
50.0
100
AcDbLine
 10
12962.64422886714
 20
4934.732394739147
 30
0.0
 11
12962.64422886714
 21
2844.732394739148
 31
0.0
  0
LINE
  5
1361B
330
747D
100
AcDbEntity
  8
細線
 48
50.0
100
AcDbLine
 10
12977.64422886714
 20
4934.732394739147
 30
0.0
 11
12977.64422886714
 21
2844.732394739148
 31
0.0
  0
LWPOLYLINE
  5
137DA
330
747D
100
AcDbEntity
  8
部品1
100
AcDbPolyline
 90
        4
 70
     1
 43
0.0
 10
5407.169064814692
 20
6624.643328340434
 10
5407.169064814692
 20
6384.751006794902
 10
6170.639731043134
 20
6384.751006794902
 10
6170.639731043134
 20
6624.643328340434
  0
TEXT
  5
137DB
330
747D
100
AcDbEntity
  8
部品1
100
AcDbText
 10
5497.088674643734
 20
6431.749799121911
 30
0.0
 40
135.0
  1
平面図
  7
STYLE2
100
AcDbText
  0
TEXT
  5
137DC
330
747D
100
AcDbEntity
  8
部品1
100
AcDbText
 10
5497.694468552634
 20
1966.904524775516
 30
0.0
 40
135.0
  1
正面図
  7
STYLE2
100
AcDbText
  0
LWPOLYLINE
  5
137DD
330
747D
100
AcDbEntity
  8
部品1
100
AcDbPolyline
 90
        4
 70
     1
 43
0.0
 10
5407.169064814677
 20
2159.798053994041
 10
5407.169064814677
 20
1919.905732448508
 10
6170.639731043118
 20
1919.905732448508
 10
6170.639731043118
 20
2159.798053994041
  0
TEXT
  5
137DE
330
747D
100
AcDbEntity
  8
文字
 62
     7
 48
50.0
100
AcDbText
 10
14505.34213575793
 20
483.8967129911411
 30
0.0
 40
160.0
  1
ＮＸＮ－１００Ｈ
  7
STYLE2
100
AcDbText
  0
LWPOLYLINE
  5
13824
330
747D
100
AcDbEntity
  8
部品1
100
AcDbPolyline
 90
        4
 70
     1
 43
0.0
 10
12108.40889575292
 20
2159.798053994038
 10
12108.40889575292
 20
1919.905732448505
 10
12871.87956198136
 20
1919.905732448505
 10
12871.87956198136
 20
2159.798053994038
  0
TEXT
  5
13825
330
747D
100
AcDbEntity
  8
部品1
100
AcDbText
 10
12197.85499717653
 20
1966.904524775513
 30
0.0
 40
135.0
  1
側面図
  7
STYLE2
100
AcDbText
  0
LINE
  5
1382D
330
747D
100
AcDbEntity
  8
部品1
100
AcDbLine
 10
11585.14422886714
 20
4934.732394739147
 30
0.0
 11
13375.14422886714
 21
4934.732394739147
 31
0.0
  0
LINE
  5
1382E
330
747D
100
AcDbEntity
  8
部品1
100
AcDbLine
 10
13367.64422886714
 20
2794.732394739148
 30
0.0
 11
13375.14422886714
 21
2794.732394739148
 31
0.0
  0
ARC
  5
1382F
330
747D
100
AcDbEntity
  8
部品1
 48
50.0
100
AcDbCircle
 10
13362.64422886714
 20
2834.732394739147
 30
0.0
 40
5.0
100
AcDbArc
 50
0.0
 51
90.0
  0
LINE
  5
13830
330
747D
100
AcDbEntity
  8
部品1
100
AcDbLine
 10
13362.64422886714
 20
2839.732394739148
 30
0.0
 11
13332.64422886713
 21
2839.732394739148
 31
0.0
  0
ARC
  5
13831
330
747D
100
AcDbEntity
  8
部品1
 48
50.0
100
AcDbCircle
 10
13332.64422886713
 20
2834.732394739147
 30
0.0
 40
5.0
100
AcDbArc
 50
90.0
 51
180.0
  0
LINE
  5
13832
330
747D
100
AcDbEntity
  8
部品1
100
AcDbLine
 10
13375.14422886713
 20
2794.732394739148
 30
0.0
 11
13367.64422886714
 21
2794.732394739148
 31
0.0
  0
ARC
  5
13833
330
747D
100
AcDbEntity
  8
部品1
 48
50.0
100
AcDbCircle
 10
11627.64422886714
 20
2834.732394739147
 30
0.0
 40
5.0
100
AcDbArc
 50
0.0
 51
90.0
  0
ARC
  5
13834
330
747D
100
AcDbEntity
  8
部品1
 48
50.0
100
AcDbCircle
 10
11597.64422886713
 20
2834.732394739147
 30
0.0
 40
5.0
100
AcDbArc
 50
90.0
 51
180.0
  0
LINE
  5
13835
330
747D
100
AcDbEntity
  8
部品1
100
AcDbLine
 10
11597.64422886713
 20
2839.732394739148
 30
0.0
 11
11627.64422886714
 21
2839.732394739148
 31
0.0
  0
LINE
  5
13836
330
747D
100
AcDbEntity
  8
部品1
100
AcDbLine
 10
11585.14422886714
 20
2794.732394739148
 30
0.0
 11
11592.64422886713
 21
2794.732394739148
 31
0.0
  0
LINE
  5
13837
330
747D
100
AcDbEntity
  8
部品1
100
AcDbLine
 10
11585.14422886714
 20
2794.732394739148
 30
0.0
 11
11508.14422886714
 21
2794.732394739148
 31
0.0
  0
LINE
  5
13838
330
747D
100
AcDbEntity
  8
部品1
100
AcDbLine
 10
11632.64422886714
 20
2794.732394739148
 30
0.0
 11
13327.64422886714
 21
2794.732394739148
 31
0.0
  0
LINE
  5
13839
330
747D
100
AcDbEntity
  8
部品1
100
AcDbLine
 10
11585.14422886714
 20
2844.732394739148
 30
0.0
 11
13375.14422886714
 21
2844.732394739148
 31
0.0
  0
LINE
  5
1383A
330
747D
100
AcDbEntity
  8
部品1
100
AcDbLine
 10
12060.14422886714
 20
4934.732394739147
 30
0.0
 11
12060.14422886714
 21
2844.732394739148
 31
0.0
  0
LINE
  5
1383B
330
747D
100
AcDbEntity
  8
部品1
100
AcDbLine
 10
11640.14422886714
 20
4934.732394739147
 30
0.0
 11
11640.14422886714
 21
2844.732394739148
 31
0.0
  0
LINE
  5
1383C
330
747D
100
AcDbEntity
  8
部品1
100
AcDbLine
 10
12900.14422886714
 20
4934.732394739147
 30
0.0
 11
12900.14422886714
 21
2844.732394739148
 31
0.0
  0
LINE
  5
1383D
330
747D
100
AcDbEntity
  8
部品1
100
AcDbLine
 10
13320.14422886714
 20
4934.732394739147
 30
0.0
 11
13320.14422886714
 21
2844.732394739148
 31
0.0
  0
LINE
  5
1383E
330
747D
100
AcDbEntity
  8
部品1
100
AcDbLine
 10
12480.14422886714
 20
4934.732394739147
 30
0.0
 11
12480.14422886714
 21
2844.732394739148
 31
0.0
  0
DIMENSION
  5
1383F
330
747D
100
AcDbEntity
  8
寸法
 48
50.0
100
AcDbDimension
  2
*D22
 10
10741.39409968388
 20
2844.732394739148
 30
0.0
 11
10649.38228866026
 21
3889.732394739149
 31
0.0
 70
    32
 71
     5
 42
2089.999999999999
  3
INABA_S40
100
AcDbAlignedDimension
 13
11585.14422886714
 23
4934.732394739147
 33
0.0
 14
11585.14422886714
 24
2844.732394739148
 34
0.0
 50
90.0
100
AcDbRotatedDimension
1001
ACAD
1000
DSTYLE
1002
{
1070
    41
1040
0.5
1070
    44
1040
1.0
1070
   147
1040
0.8
1070
   271
1070
     2
1070
   272
1070
     2
1070
   289
1070
     3
1070
   340
1005
F706
1070
   343
1005
F744
1070
   344
1005
F744
1002
}
  0
DIMENSION
  5
13840
330
747D
100
AcDbEntity
  8
寸法
 48
50.0
100
AcDbDimension
  2
*D23
 10
11040.23558746988
 20
2860.732394739148
 30
0.0
 11
10948.22377644626
 21
3873.232394739149
 31
0.0
 70
    32
  1
有効開口部高サ<>
 71
     5
 42
2025.0
  3
INABA_S40
100
AcDbAlignedDimension
 13
11508.14422886714
 23
4885.732394739147
 33
0.0
 14
11508.14422886714
 24
2860.732394739148
 34
0.0
 50
90.0
100
AcDbRotatedDimension
1001
ACAD
1000
DSTYLE
1002
{
1070
    41
1040
0.5
1070
    44
1040
1.0
1070
   147
1040
0.8
1070
   271
1070
     2
1070
   272
1070
     2
1070
   289
1070
     3
1070
   340
1005
F706
1070
   343
1005
F744
1070
   344
1005
F744
1002
}
  0
LINE
  5
13841
330
747D
100
AcDbEntity
  8
破線
  6
HIDDEN
 48
5.0
100
AcDbLine
 10
13367.64422886714
 20
2689.732394739147
 30
0.0
 11
13382.64422886714
 21
2542.032394739148
 31
0.0
  0
LINE
  5
13842
330
747D
100
AcDbEntity
  8
破線
  6
HIDDEN
 48
5.0
100
AcDbLine
 10
13382.64422886714
 20
2542.032394739148
 30
0.0
 11
13382.64422886714
 21
2539.732394739147
 31
0.0
  0
LINE
  5
13843
330
747D
100
AcDbEntity
  8
破線
  6
HIDDEN
 48
50.0
100
AcDbLine
 10
13367.64422886713
 20
2694.732394739148
 30
0.0
 11
13367.64422886713
 21
2689.732394739147
 31
0.0
  0
LINE
  5
13844
330
747D
100
AcDbEntity
  8
破線
  6
HIDDEN
 48
50.0
100
AcDbLine
 10
13327.64422886714
 20
2694.732394739148
 30
0.0
 11
13327.64422886714
 21
2689.732394739147
 31
0.0
  0
LINE
  5
13845
330
747D
100
AcDbEntity
  8
破線
  6
HIDDEN
 48
5.0
100
AcDbLine
 10
13447.64422886714
 20
2694.732394739148
 30
0.0
 11
13447.64422886714
 21
2494.732394739147
 31
0.0
  0
LINE
  5
13846
330
747D
100
AcDbEntity
  8
破線
  6
HIDDEN
 48
5.0
100
AcDbLine
 10
13312.64422886714
 20
2542.032394739148
 30
0.0
 11
13312.64422886714
 21
2539.732394739147
 31
0.0
  0
LINE
  5
13847
330
747D
100
AcDbEntity
  8
破線
  6
HIDDEN
 48
5.0
100
AcDbLine
 10
13247.64422886713
 20
2694.732394739148
 30
0.0
 11
13247.64422886714
 21
2494.732394739147
 31
0.0
  0
LINE
  5
13848
330
747D
100
AcDbEntity
  8
破線
  6
HIDDEN
 48
5.0
100
AcDbLine
 10
13327.64422886713
 20
2689.732394739147
 30
0.0
 11
13312.64422886714
 21
2542.032394739148
 31
0.0
  0
LINE
  5
13849
330
747D
100
AcDbEntity
  8
破線
  6
HIDDEN
 48
5.0
100
AcDbLine
 10
13447.64422886714
 20
2494.732394739147
 30
0.0
 11
13247.64422886714
 21
2494.732394739147
 31
0.0
  0
LINE
  5
1384A
330
747D
100
AcDbEntity
  8
破線
  6
HIDDEN
 48
5.0
100
AcDbLine
 10
13382.64422886714
 20
2539.732394739147
 30
0.0
 11
13312.64422886714
 21
2539.732394739147
 31
0.0
  0
LINE
  5
1384B
330
747D
100
AcDbEntity
  8
破線
  6
HIDDEN
 48
5.0
100
AcDbLine
 10
11712.64422886714
 20
2694.732394739148
 30
0.0
 11
11712.64422886714
 21
2494.732394739146
 31
0.0
  0
LINE
  5
1384C
330
747D
100
AcDbEntity
  8
破線
  6
HIDDEN
 48
5.0
100
AcDbLine
 10
11592.64422886714
 20
2689.732394739147
 30
0.0
 11
11577.64422886714
 21
2542.032394739147
 31
0.0
  0
LINE
  5
1384D
330
747D
100
AcDbEntity
  8
破線
  6
HIDDEN
 48
5.0
100
AcDbLine
 10
11632.64422886714
 20
2689.732394739147
 30
0.0
 11
11647.64422886714
 21
2542.032394739147
 31
0.0
  0
LINE
  5
1384E
330
747D
100
AcDbEntity
  8
破線
  6
HIDDEN
 48
5.0
100
AcDbLine
 10
11577.64422886714
 20
2539.732394739147
 30
0.0
 11
11647.64422886714
 21
2539.732394739147
 31
0.0
  0
LINE
  5
1384F
330
747D
100
AcDbEntity
  8
破線
  6
HIDDEN
 48
5.0
100
AcDbLine
 10
11577.64422886714
 20
2542.032394739147
 30
0.0
 11
11577.64422886714
 21
2539.732394739147
 31
0.0
  0
LINE
  5
13850
330
747D
100
AcDbEntity
  8
破線
  6
HIDDEN
 48
5.0
100
AcDbLine
 10
11647.64422886714
 20
2542.032394739147
 30
0.0
 11
11647.64422886714
 21
2539.732394739147
 31
0.0
  0
LINE
  5
13851
330
747D
100
AcDbEntity
  8
破線
  6
HIDDEN
 48
5.0
100
AcDbLine
 10
11592.64422886715
 20
2694.732394739148
 30
0.0
 11
11592.64422886715
 21
2689.732394739147
 31
0.0
  0
LINE
  5
13852
330
747D
100
AcDbEntity
  8
破線
  6
HIDDEN
 48
5.0
100
AcDbLine
 10
11632.64422886714
 20
2694.732394739148
 30
0.0
 11
11632.64422886714
 21
2689.732394739147
 31
0.0
  0
LINE
  5
13853
330
747D
100
AcDbEntity
  8
破線
  6
HIDDEN
 48
5.0
100
AcDbLine
 10
11512.64422886714
 20
2694.732394739148
 30
0.0
 11
11512.64422886714
 21
2494.732394739147
 31
0.0
  0
DIMENSION
  5
13854
330
747D
100
AcDbEntity
  8
寸法
 48
50.0
100
AcDbDimension
  2
*D24
 10
11712.64422886714
 20
2159.542010499935
 30
0.0
 11
11612.64422886714
 21
2159.542010499935
 31
0.0
 70
   160
 71
     5
 42
200.0
  3
INABA_S40
100
AcDbAlignedDimension
 13
11512.64422886714
 23
2494.732394739147
 33
0.0
 14
11712.64422886714
 24
2494.732394739146
 34
0.0
100
AcDbRotatedDimension
1001
ACAD
1000
DSTYLE
1002
{
1070
    41
1040
0.5
1070
    44
1040
1.0
1070
   147
1040
0.8
1070
   271
1070
     2
1070
   272
1070
     2
1070
   289
1070
     3
1070
   340
1005
F706
1070
   343
1005
F744
1070
   344
1005
F744
1002
}
  0
LINE
  5
13855
330
747D
100
AcDbEntity
  8
破線
  6
HIDDEN
 48
5.0
100
AcDbLine
 10
11512.64422886714
 20
2494.732394739147
 30
0.0
 11
11712.64422886714
 21
2494.732394739146
 31
0.0
  0
DIMENSION
  5
13856
330
747D
100
AcDbEntity
  8
寸法
 48
50.0
100
AcDbDimension
  2
*D25
 10
11105.39965278266
 20
2694.732394739148
 30
0.0
 11
11105.39965278266
 21
2552.293717952713
 31
0.0
 70
   160
 71
     5
 42
200.0
  3
INABA_S40
100
AcDbAlignedDimension
 13
11512.64422886714
 23
2494.732394739147
 33
0.0
 14
11512.64422886714
 24
2694.732394739148
 34
0.0
 50
90.0
100
AcDbRotatedDimension
1001
ACAD
1000
DSTYLE
1002
{
1070
    41
1040
0.5
1070
    44
1040
1.0
1070
   147
1040
0.8
1070
   271
1070
     2
1070
   272
1070
     2
1070
   289
1070
     3
1070
   340
1005
F706
1070
   343
1005
F744
1070
   344
1005
F744
1002
}
  0
DIMENSION
  5
13857
330
747D
100
AcDbEntity
  8
寸法
 48
50.0
100
AcDbDimension
  2
*D26
 10
10441.39409968388
 20
2694.732394739148
 30
0.0
 11
10441.39409968388
 21
2279.732394739147
 31
0.0
 70
   160
 71
     5
 42
100.0000000000004
  3
INABA_S40
100
AcDbAlignedDimension
 13
11508.14422886714
 23
2794.732394739148
 33
0.0
 14
10528.64315297201
 24
2694.732394739148
 34
0.0
 50
90.0
100
AcDbRotatedDimension
1001
ACAD
1000
DSTYLE
1002
{
1070
    41
1040
0.5
1070
    44
1040
1.0
1070
   147
1040
0.8
1070
   271
1070
     2
1070
   272
1070
     2
1070
   289
1070
     3
1070
   340
1005
F706
1070
   343
1005
F744
1070
   344
1005
F744
1002
}
  0
DIMENSION
  5
13858
330
747D
100
AcDbEntity
  8
寸法
 48
50.0
100
AcDbDimension
  2
*D27
 10
10741.39409968388
 20
2794.732394739148
 30
0.0
 11
10741.39409968388
 21
2410.982394739148
 31
0.0
 70
   160
 71
     5
 42
50.0
  3
INABA_S40
100
AcDbAlignedDimension
 13
11585.14422886714
 23
2844.732394739148
 33
0.0
 14
11508.14422886714
 24
2794.732394739148
 34
0.0
 50
90.0
100
AcDbRotatedDimension
1001
ACAD
1000
DSTYLE
1002
{
1070
    41
1040
0.5
1070
    44
1040
1.0
1070
   147
1040
0.8
1070
   271
1070
     2
1070
   272
1070
     2
1070
   289
1070
     3
1070
   340
1005
F706
1070
   343
1005
F744
1070
   344
1005
F744
1002
}
  0
LINE
  5
13859
330
747D
100
AcDbEntity
  8
部品1
100
AcDbLine
 10
11585.14422886714
 20
5026.590914181394
 30
0.0
 11
11585.14422886714
 21
2694.732394739148
 31
0.0
  0
LINE
  5
1385A
330
747D
100
AcDbEntity
  8
部品1
100
AcDbLine
 10
11508.14422886714
 20
4920.419499647549
 30
0.0
 11
11508.14422886714
 21
2694.732394739148
 31
0.0
  0
LINE
  5
1385B
330
747D
100
AcDbEntity
  8
部品1
 48
50.0
100
AcDbLine
 10
11632.64422886714
 20
2834.732394739147
 30
0.0
 11
11632.64422886713
 21
2694.732394739148
 31
0.0
  0
LINE
  5
1385C
330
747D
100
AcDbEntity
  8
部品1
 48
50.0
100
AcDbLine
 10
11592.64422886713
 20
2834.732394739147
 30
0.0
 11
11592.64422886714
 21
2694.732394739148
 31
0.0
  0
LINE
  5
1385D
330
747D
100
AcDbEntity
  8
部品1
100
AcDbLine
 10
11785.14422886714
 20
2794.732394739148
 30
0.0
 11
11785.14422886714
 21
2694.732394739148
 31
0.0
  0
LINE
  5
1385E
330
747D
100
AcDbEntity
  8
部品1
100
AcDbLine
 10
13375.14422886714
 20
4989.614203425153
 30
0.0
 11
13375.14422886714
 21
2694.732394739148
 31
0.0
  0
LINE
  5
1385F
330
747D
100
AcDbEntity
  8
部品1
 48
50.0
100
AcDbLine
 10
12380.14422886714
 20
2794.732394739148
 30
0.0
 11
12380.14422886714
 21
2694.732394739148
 31
0.0
  0
LINE
  5
13860
330
747D
100
AcDbEntity
  8
部品1
 48
50.0
100
AcDbLine
 10
12580.14422886714
 20
2794.732394739148
 30
0.0
 11
12580.14422886714
 21
2694.732394739148
 31
0.0
  0
LINE
  5
13861
330
747D
100
AcDbEntity
  8
部品1
100
AcDbLine
 10
13175.14422886714
 20
2794.732394739148
 30
0.0
 11
13175.14422886714
 21
2694.732394739148
 31
0.0
  0
LINE
  5
13862
330
747D
100
AcDbEntity
  8
部品1
 48
50.0
100
AcDbLine
 10
13367.64422886714
 20
2834.732394739147
 30
0.0
 11
13367.64422886713
 21
2694.732394739148
 31
0.0
  0
LINE
  5
13863
330
747D
100
AcDbEntity
  8
部品1
 48
50.0
100
AcDbLine
 10
13327.64422886713
 20
2834.732394739147
 30
0.0
 11
13327.64422886714
 21
2694.732394739148
 31
0.0
  0
DIMENSION
  5
13864
330
747D
100
AcDbEntity
  8
寸法
 48
50.0
100
AcDbDimension
  2
*D28
 10
14066.35780785321
 20
5114.732394739147
 30
0.0
 11
13974.34599682958
 21
3954.732394739149
 31
0.0
 70
    32
 71
     5
 42
2319.999999999999
  3
INABA_S40
100
AcDbAlignedDimension
 13
13375.14422886714
 23
2794.732394739148
 33
0.0
 14
13455.14422886715
 24
5114.732394739147
 34
0.0
 50
90.0
100
AcDbRotatedDimension
1001
ACAD
1000
DSTYLE
1002
{
1070
    41
1040
0.5
1070
    44
1040
1.0
1070
   147
1040
0.8
1070
   271
1070
     2
1070
   272
1070
     2
1070
   289
1070
     3
1070
   340
1005
F706
1070
   343
1005
F744
1070
   344
1005
F744
1002
}
  0
TEXT
  5
13905
330
747D
100
AcDbEntity
  8
文字
 62
     7
 48
50.0
100
AcDbText
 10
13209.4053442172
 20
228.5435242569015
 30
0.0
 40
100.0
  1
○有効開口寸法 ： 1266×2025(mm)
  7
STYLE2
100
AcDbText
  0
DIMENSION
  5
13C53
330
747D
100
AcDbEntity
  8
寸法
 48
50.0
100
AcDbDimension
  2
*D31
 10
3158.904397928898
 20
5382.273979997393
 30
0.0
 11
5788.9043979289
 21
5382.273979997393
 31
0.0
 70
   160
  1
柱外寸法<>
 71
     5
 42
5260.000000000004
  3
INABA_S40G
100
AcDbAlignedDimension
 13
8418.904397928903
 23
5169.732394739153
 33
0.0
 14
3158.904397928898
 24
5169.732394739156
 34
0.0
100
AcDbRotatedDimension
  0
DIMENSION
  5
13C54
330
747D
100
AcDbEntity
  8
寸法
 48
50.0
100
AcDbDimension
  2
*D30
 10
8468.904397928902
 20
5603.179280471142
 30
0.0
 11
5788.904397928899
 21
5603.179280471142
 31
0.0
 70
   160
 71
     5
 42
5360.000000000003
  3
INABA_S40G
100
AcDbAlignedDimension
 13
3108.904397928898
 23
5169.732394739155
 33
0.0
 14
8468.904397928902
 24
5169.732394739151
 34
0.0
100
AcDbRotatedDimension
  0
DIMENSION
  5
13C55
330
747D
100
AcDbEntity
  8
寸法
 48
50.0
100
AcDbDimension
  2
*D29
 10
3108.904397928898
 20
5382.273979997394
 30
0.0
 11
2795.419116554651
 21
5382.273979997394
 31
0.0
 70
   160
 71
     5
 42
50.0
  3
INABA_S40G
100
AcDbAlignedDimension
 13
3158.904397928898
 23
5169.732394739156
 33
0.0
 14
3108.904397928898
 24
5169.732394739155
 34
0.0
100
AcDbRotatedDimension
1001
ACAD
1000
DSTYLE
1002
{
1002
}
  0
LINE
  5
13C60
330
747D
100
AcDbEntity
  8
部品1
 48
50.0
100
AcDbLine
 10
8448.280653361434
 20
5028.732394739153
 30
0.0
 11
3129.528142496362
 21
5028.732394739154
 31
0.0
  0
LINE
  5
13C61
330
747D
100
AcDbEntity
  8
細線
 48
50.0
100
AcDbLine
 10
8435.904397928904
 20
5049.505637302522
 30
0.0
 11
3119.299079464143
 21
5049.505637303148
 31
0.0
  0
LINE
  5
13C62
330
747D
100
AcDbEntity
  8
細線
 48
50.0
100
AcDbLine
 10
8435.904397928901
 20
5141.705637302523
 30
0.0
 11
3111.063048939312
 21
5141.70563730315
 31
0.0
  0
LINE
  5
13C63
330
747D
100
AcDbEntity
  8
部品1
 48
50.0
100
AcDbLine
 10
8461.495976822469
 20
5169.732394739151
 30
0.0
 11
3116.312819035327
 21
5169.732394739151
 31
0.0
  0
LINE
  5
13C64
330
747D
100
AcDbEntity
  8
部品1
100
AcDbLine
 10
3109.324058944229
 20
5162.335869343914
 30
0.0
 11
3110.457456276578
 21
5142.359741361314
 31
0.0
  0
LINE
  5
13C65
330
747D
100
AcDbEntity
  8
部品1
100
AcDbLine
 10
3121.894476598154
 20
5046.702334194256
 30
0.0
 11
3122.539382405263
 21
5035.335869343916
 31
0.0
  0
LINE
  5
13C66
330
747D
100
AcDbEntity
  8
部品1
100
AcDbLine
 10
3113.658446073307
 20
5138.902334194257
 30
0.0
 11
3118.693486801418
 21
5050.159741361313
 31
0.0
  0
ARC
  5
13C67
330
747D
100
AcDbEntity
  8
部品1
 48
50.0
100
AcDbCircle
 10
3110.663263177121
 20
5138.732394739155
 30
0.0
 40
3.0
100
AcDbArc
 50
3.247342790337682
 51
82.34187279263654
  0
ARC
  5
13C68
330
747D
100
AcDbEntity
  8
部品1
 48
50.0
100
AcDbCircle
 10
3118.899293701965
 20
5046.532394739152
 30
0.0
 40
3.0
100
AcDbArc
 50
3.247342790337682
 51
82.34187279263654
  0
ARC
  5
13C69
330
747D
100
AcDbEntity
  8
部品1
 48
50.0
100
AcDbCircle
 10
3119.392362810526
 20
5050.199393900836
 30
0.0
 40
0.7
100
AcDbArc
 50
183.2473427902856
 51
262.3418727926365
  0
ARC
  5
13C6A
330
747D
100
AcDbEntity
  8
部品1
 48
50.0
100
AcDbCircle
 10
3111.156332285686
 20
5142.39939390084
 30
0.0
 40
0.7
100
AcDbArc
 50
183.2473427903897
 51
262.3418727926365
  0
ARC
  5
13C6B
330
747D
100
AcDbEntity
  8
部品1
100
AcDbCircle
 10
3129.528142496362
 20
5035.732394739155
 30
0.0
 40
7.0
100
AcDbArc
 50
183.2473427903377
 51
270.0
  0
ARC
  5
13C6C
330
747D
100
AcDbEntity
  8
部品1
100
AcDbCircle
 10
3116.312819035327
 20
5162.732394739153
 30
0.0
 40
7.0
100
AcDbArc
 50
90.0
 51
183.2473427903377
  0
LINE
  5
13C6D
330
747D
100
AcDbEntity
  8
細線
 48
50.0
100
AcDbLine
 10
3141.904397928898
 20
5169.732394739153
 30
0.0
 11
3141.904397928898
 21
5028.732394739154
 31
0.0
  0
DIMENSION
  5
13CB1
330
747D
100
AcDbEntity
  8
寸法
 48
50.0
100
AcDbDimension
  2
*D32
 10
8418.904397928903
 20
5382.273979997392
 30
0.0
 11
8782.389679303138
 21
5382.273979997392
 31
0.0
 70
   160
 71
     5
 42
50.0
  3
INABA_S40G
100
AcDbAlignedDimension
 13
8468.904397928902
 23
5169.732394739151
 33
0.0
 14
8418.904397928903
 24
5169.732394739153
 34
0.0
100
AcDbRotatedDimension
  0
ARC
  5
13CB2
330
747D
100
AcDbEntity
  8
部品1
100
AcDbCircle
 10
8461.495976822469
 20
5162.732394739151
 30
0.0
 40
7.0
100
AcDbArc
 50
356.7526572096623
 51
90.0
  0
ARC
  5
13CB3
330
747D
100
AcDbEntity
  8
部品1
100
AcDbCircle
 10
8448.280653361434
 20
5035.732394739152
 30
0.0
 40
7.0
100
AcDbArc
 50
270.0
 51
356.7526572096623
  0
ARC
  5
13CB4
330
747D
100
AcDbEntity
  8
部品1
 48
50.0
100
AcDbCircle
 10
8466.652463572115
 20
5142.399393900838
 30
0.0
 40
0.7
100
AcDbArc
 50
277.6581272073635
 51
356.7526572096103
  0
ARC
  5
13CB5
330
747D
100
AcDbEntity
  8
部品1
 48
50.0
100
AcDbCircle
 10
8458.41643304727
 20
5050.199393900833
 30
0.0
 40
0.7
100
AcDbArc
 50
277.6581272073635
 51
356.7526572097143
  0
ARC
  5
13CB6
330
747D
100
AcDbEntity
  8
部品1
 48
50.0
100
AcDbCircle
 10
8458.909502155831
 20
5046.532394739149
 30
0.0
 40
3.0
100
AcDbArc
 50
97.65812720736347
 51
176.7526572096623
  0
ARC
  5
13CB7
330
747D
100
AcDbEntity
  8
部品1
 48
50.0
100
AcDbCircle
 10
8467.145532680675
 20
5138.732394739152
 30
0.0
 40
3.0
100
AcDbArc
 50
97.65812720736347
 51
176.7526572096623
  0
LINE
  5
13CB8
330
747D
100
AcDbEntity
  8
部品1
100
AcDbLine
 10
8464.150349784489
 20
5138.902334194254
 30
0.0
 11
8459.115309056379
 21
5050.159741361311
 31
0.0
  0
LINE
  5
13CB9
330
747D
100
AcDbEntity
  8
部品1
100
AcDbLine
 10
8455.914319259646
 20
5046.702334194254
 30
0.0
 11
8455.269413452533
 21
5035.335869343914
 31
0.0
  0
LINE
  5
13CBA
330
747D
100
AcDbEntity
  8
細線
 48
50.0
100
AcDbLine
 10
8435.904397928901
 20
5169.732394739151
 30
0.0
 11
8435.904397928901
 21
5028.732394739151
 31
0.0
  0
LINE
  5
13CBB
330
747D
100
AcDbEntity
  8
部品1
100
AcDbLine
 10
8468.484736913568
 20
5162.335869343912
 30
0.0
 11
8467.351339581222
 21
5142.359741361311
 31
0.0
  0
LINE
  5
13F21
330
747D
100
AcDbEntity
  8
部品1
100
AcDbLine
 10
5778.904397928898
 20
5028.732394739153
 30
0.0
 11
5778.904397928894
 21
5169.732394739151
 31
0.0
  0
TEXT
  5
14003
330
747D
100
AcDbEntity
  8
文字
 62
     7
 48
50.0
100
AcDbText
 10
15022.63965474517
 20
9910.013745883727
 30
0.0
 40
100.0
  1
F12,Y10        1.0
  7
STYLE1
100
AcDbText
  0
TEXT
  5
14004
330
747D
100
AcDbEntity
  8
文字
 62
     7
 48
50.0
100
AcDbText
 10
13583.1181901657
 20
9910.01374588373
 30
0.0
 40
100.0
  1
梁中
 41
0.9
  7
STYLE1
100
AcDbText
  0
TEXT
  5
14005
330
747D
100
AcDbEntity
  8
文字
 62
     7
 48
50.0
100
AcDbText
 10
13248.77747366447
 20
8380.013745883728
 30
0.0
 40
100.0
  1
17
  7
STYLE1
100
AcDbText
  0
TEXT
  5
14006
330
747D
100
AcDbEntity
  8
文字
 62
     7
 48
50.0
100
AcDbText
 10
13248.77747366447
 20
8550.013745883729
 30
0.0
 40
100.0
  1
16
  7
STYLE1
100
AcDbText
  0
TEXT
  5
14007
330
747D
100
AcDbEntity
  8
文字
 62
     7
 48
50.0
100
AcDbText
 10
15022.63965474517
 20
8720.013745883726
 30
0.0
 40
100.0
  1
F12            1.0
  7
STYLE1
100
AcDbText
  0
TEXT
  5
14008
330
747D
100
AcDbEntity
  8
文字
 62
     7
 48
50.0
100
AcDbText
 10
13583.11819016569
 20
8720.013745883733
 30
0.0
 40
100.0
  1
壁面扉枠左右
  7
STYLE1
100
AcDbText
  0
TEXT
  5
14009
330
747D
100
AcDbEntity
  8
文字
 62
     7
 48
50.0
100
AcDbText
 10
15022.63965474517
 20
8890.013745883727
 30
0.0
 40
100.0
  1
F12            1.0
  7
STYLE1
100
AcDbText
  0
TEXT
  5
1400A
330
747D
100
AcDbEntity
  8
文字
 62
     7
 48
50.0
100
AcDbText
 10
15022.63965474516
 20
9060.013745883727
 30
0.0
 40
100.0
  1
F12            0.7
  7
STYLE1
100
AcDbText
  0
TEXT
  5
1400B
330
747D
100
AcDbEntity
  8
文字
 62
     7
 48
50.0
100
AcDbText
 10
13583.11819016569
 20
8890.013745883733
 30
0.0
 40
100.0
  1
壁面扉敷居
  7
STYLE1
100
AcDbText
  0
TEXT
  5
1400C
330
747D
100
AcDbEntity
  8
文字
 62
     7
 48
50.0
100
AcDbText
 10
13583.11819016569
 20
9060.013745883729
 30
0.0
 40
100.0
  1
壁面扉鴨居
  7
STYLE1
100
AcDbText
  0
LINE
  5
1400D
330
747D
100
AcDbEntity
  8
仕様書枠
 48
50.0
100
AcDbLine
 10
16307.19999999999
 20
8689.600000000003
 30
0.0
 11
13127.2
 21
8689.600000000005
 31
0.0
  0
LINE
  5
1400E
330
747D
100
AcDbEntity
  8
仕様書枠
 48
50.0
100
AcDbLine
 10
16307.19999999999
 20
8519.600000000004
 30
0.0
 11
13127.2
 21
8519.600000000005
 31
0.0
  0
TEXT
  5
1400F
330
747D
100
AcDbEntity
  8
文字
 62
     7
 48
50.0
100
AcDbText
 10
13583.11819016569
 20
8210.013745883729
 30
0.0
 40
100.0
  1
アンカープレート
  7
STYLE1
100
AcDbText
  0
TEXT
  5
14010
330
747D
100
AcDbEntity
  8
文字
 62
     7
 48
50.0
100
AcDbText
 10
15022.63965474515
 20
8210.013745883724
 30
0.0
 40
100.0
  1
F12            2.3
  7
STYLE1
100
AcDbText
  0
LINE
  5
14011
330
747D
100
AcDbEntity
  8
仕様書枠
 48
50.0
100
AcDbLine
 10
16307.2
 20
10049.6
 30
0.0
 11
13127.2
 21
10049.6
 31
0.0
  0
LINE
  5
14012
330
747D
100
AcDbEntity
  8
仕様書枠
 48
50.0
100
AcDbLine
 10
16307.2
 20
11409.6
 30
0.0
 11
13127.2
 21
11409.6
 31
0.0
  0
LINE
  5
14013
330
747D
100
AcDbEntity
  8
仕様書枠
 48
50.0
100
AcDbLine
 10
16307.19999999999
 20
7839.6
 30
0.0
 11
16307.2
 21
11409.6
 31
0.0
  0
LINE
  5
14014
330
747D
100
AcDbEntity
  8
仕様書枠
 48
50.0
100
AcDbLine
 10
14785.2
 20
11409.59999999999
 30
0.0
 11
14785.19999999999
 21
8179.600000000002
 31
0.0
  0
LINE
  5
14015
330
747D
100
AcDbEntity
  8
仕様書枠
 48
50.0
100
AcDbLine
 10
13490.2
 20
11409.6
 30
0.0
 11
13490.20000000001
 21
8179.600000000002
 31
0.0
  0
LINE
  5
14016
330
747D
100
AcDbEntity
  8
仕様書枠
 48
50.0
100
AcDbLine
 10
16307.2
 20
11239.6
 30
0.0
 11
13127.2
 21
11239.6
 31
0.0
  0
LINE
  5
14017
330
747D
100
AcDbEntity
  8
仕様書枠
 48
50.0
100
AcDbLine
 10
16307.2
 20
10899.6
 30
0.0
 11
13127.2
 21
10899.6
 31
0.0
  0
LINE
  5
14018
330
747D
100
AcDbEntity
  8
仕様書枠
 48
50.0
100
AcDbLine
 10
16307.2
 20
11069.6
 30
0.0
 11
13127.2
 21
11069.6
 31
0.0
  0
LINE
  5
14019
330
747D
100
AcDbEntity
  8
仕様書枠
 48
50.0
100
AcDbLine
 10
16307.19999999999
 20
10559.6
 30
0.0
 11
13127.2
 21
10559.6
 31
0.0
  0
LINE
  5
1401A
330
747D
100
AcDbEntity
  8
仕様書枠
 48
50.0
100
AcDbLine
 10
16307.19999999999
 20
10389.6
 30
0.0
 11
13127.2
 21
10389.6
 31
0.0
  0
LINE
  5
1401B
330
747D
100
AcDbEntity
  8
仕様書枠
 48
50.0
100
AcDbLine
 10
16307.19999999999
 20
10729.6
 30
0.0
 11
13127.2
 21
10729.6
 31
0.0
  0
TEXT
  5
1401C
330
747D
100
AcDbEntity
  8
文字
 62
     7
 48
50.0
100
AcDbText
 10
13197.42518560407
 20
11270.01374588372
 30
0.0
 40
100.0
  1
品番
  7
STYLE1
100
AcDbText
  0
TEXT
  5
1401D
330
747D
100
AcDbEntity
  8
文字
 62
     7
 48
50.0
100
AcDbText
 10
13271.19032244792
 20
11100.01374588373
 30
0.0
 40
100.0
  1
1
  7
STYLE1
100
AcDbText
  0
TEXT
  5
1401E
330
747D
100
AcDbEntity
  8
文字
 62
     7
 48
50.0
100
AcDbText
 10
13271.19032244792
 20
10930.01374588373
 30
0.0
 40
100.0
  1
2
  7
STYLE1
100
AcDbText
  0
TEXT
  5
1401F
330
747D
100
AcDbEntity
  8
文字
 62
     7
 48
50.0
100
AcDbText
 10
13271.19032244792
 20
10590.01374588373
 30
0.0
 40
100.0
  1
4
  7
STYLE1
100
AcDbText
  0
TEXT
  5
14020
330
747D
100
AcDbEntity
  8
文字
 62
     7
 48
50.0
100
AcDbText
 10
13271.19032244792
 20
10760.01374588373
 30
0.0
 40
100.0
  1
3
  7
STYLE1
100
AcDbText
  0
TEXT
  5
14021
330
747D
100
AcDbEntity
  8
文字
 62
     7
 48
50.0
100
AcDbText
 10
13732.03840939434
 20
11270.01374588372
 30
0.0
 40
100.0
  1
部　　品　　名
  7
STYLE1
100
AcDbText
  0
TEXT
  5
14022
330
747D
100
AcDbEntity
  8
文字
 62
     7
 48
50.0
100
AcDbText
 10
14859.79774614482
 20
11270.01374588372
 30
0.0
 40
100.0
  1
材料（材質）　　単位mm
  7
STYLE1
100
AcDbText
  0
TEXT
  5
14023
330
747D
100
AcDbEntity
  8
文字
 62
     7
 48
50.0
100
AcDbText
 10
13583.11819016569
 20
11100.01374588373
 30
0.0
 40
100.0
  1
土台枠
  7
STYLE1
100
AcDbText
  0
TEXT
  5
14024
330
747D
100
AcDbEntity
  8
文字
 62
     7
 48
50.0
100
AcDbText
 10
13583.1181901657
 20
10760.01374588372
 30
0.0
 40
100.0
  1
柱
  7
STYLE1
100
AcDbText
  0
TEXT
  5
14025
330
747D
100
AcDbEntity
  8
文字
 62
     7
 48
50.0
100
AcDbText
 10
13583.11819016569
 20
10420.01374588373
 30
0.0
 40
100.0
  1
桁前後
  7
STYLE1
100
AcDbText
  0
TEXT
  5
14026
330
747D
100
AcDbEntity
  8
文字
 62
     7
 48
50.0
100
AcDbText
 10
13271.19032244792
 20
10420.01374588372
 30
0.0
 40
100.0
  1
5
  7
STYLE1
100
AcDbText
  0
TEXT
  5
14027
330
747D
100
AcDbEntity
  8
文字
 62
     7
 48
50.0
100
AcDbText
 10
13583.11819016569
 20
10250.01374588373
 30
0.0
 40
100.0
  1
妻板左右
  7
STYLE1
100
AcDbText
  0
TEXT
  5
14028
330
747D
100
AcDbEntity
  8
文字
 62
     7
 48
50.0
100
AcDbText
 10
13248.77747366447
 20
9570.013745883727
 30
0.0
 40
100.0
  1
10
  7
STYLE1
100
AcDbText
  0
TEXT
  5
14029
330
747D
100
AcDbEntity
  8
文字
 62
     7
 48
50.0
100
AcDbText
 10
13583.11819016568
 20
9400.013745883729
 30
0.0
 40
100.0
  1
壁パネル
  7
STYLE1
100
AcDbText
  0
TEXT
  5
1402A
330
747D
100
AcDbEntity
  8
文字
 62
     7
 48
50.0
100
AcDbText
 10
13583.11819016569
 20
9740.013745883729
 30
0.0
 40
100.0
  1
屋根パネル
  7
STYLE1
100
AcDbText
  0
TEXT
  5
1402B
330
747D
100
AcDbEntity
  8
文字
 62
     7
 48
50.0
100
AcDbText
 10
13583.11819016569
 20
10080.01374588372
 30
0.0
 40
100.0
  1
鼻隠シ前後
  7
STYLE1
100
AcDbText
  0
TEXT
  5
1402C
330
747D
100
AcDbEntity
  8
文字
 62
     7
 48
50.0
100
AcDbText
 10
13271.19032244792
 20
9910.01374588373
 30
0.0
 40
100.0
  1
8
  7
STYLE1
100
AcDbText
  0
TEXT
  5
1402D
330
747D
100
AcDbEntity
  8
文字
 62
     7
 48
50.0
100
AcDbText
 10
13271.19032244792
 20
9740.013745883729
 30
0.0
 40
100.0
  1
9
  7
STYLE1
100
AcDbText
  0
TEXT
  5
1402E
330
747D
100
AcDbEntity
  8
文字
 62
     7
 48
50.0
100
AcDbText
 10
13271.19032244792
 20
10080.01374588373
 30
0.0
 40
100.0
  1
7
  7
STYLE1
100
AcDbText
  0
TEXT
  5
1402F
330
747D
100
AcDbEntity
  8
文字
 62
     7
 48
50.0
100
AcDbText
 10
13271.19032244792
 20
10250.01374588373
 30
0.0
 40
100.0
  1
6
  7
STYLE1
100
AcDbText
  0
LINE
  5
14030
330
747D
100
AcDbEntity
  8
仕様書枠
 48
50.0
100
AcDbLine
 10
16307.19999999999
 20
9709.6
 30
0.0
 11
13127.2
 21
9709.600000000001
 31
0.0
  0
LINE
  5
14031
330
747D
100
AcDbEntity
  8
仕様書枠
 48
50.0
100
AcDbLine
 10
16307.19999999999
 20
9369.599999999998
 30
0.0
 11
13127.2
 21
9369.600000000001
 31
0.0
  0
LINE
  5
14032
330
747D
100
AcDbEntity
  8
仕様書枠
 48
50.0
100
AcDbLine
 10
16307.19999999999
 20
9539.599999999998
 30
0.0
 11
13127.2
 21
9539.6
 31
0.0
  0
LINE
  5
14033
330
747D
100
AcDbEntity
  8
仕様書枠
 48
50.0
100
AcDbLine
 10
16307.2
 20
10219.6
 30
0.0
 11
13127.2
 21
10219.6
 31
0.0
  0
LINE
  5
14034
330
747D
100
AcDbEntity
  8
仕様書枠
 48
50.0
100
AcDbLine
 10
16307.2
 20
9879.599999999999
 30
0.0
 11
13127.2
 21
9879.600000000001
 31
0.0
  0
TEXT
  5
14035
330
747D
100
AcDbEntity
  8
文字
 62
     7
 48
50.0
100
AcDbText
 10
13248.77747366447
 20
9400.013745883727
 30
0.0
 40
100.0
  1
11
  7
STYLE1
100
AcDbText
  0
LINE
  5
14036
330
747D
100
AcDbEntity
  8
仕様書枠
 48
50.0
100
AcDbLine
 10
16307.19999999999
 20
9199.599999999998
 30
0.0
 11
13127.2
 21
9199.600000000001
 31
0.0
  0
LINE
  5
14037
330
747D
100
AcDbEntity
  8
仕様書枠
 48
50.0
100
AcDbLine
 10
16307.19999999999
 20
8859.6
 30
0.0
 11
13127.2
 21
8859.600000000002
 31
0.0
  0
TEXT
  5
14038
330
747D
100
AcDbEntity
  8
文字
 62
     7
 48
50.0
100
AcDbText
 10
13248.77747366448
 20
9060.013745883727
 30
0.0
 40
100.0
  1
13
  7
STYLE1
100
AcDbText
  0
TEXT
  5
14039
330
747D
100
AcDbEntity
  8
文字
 62
     7
 48
50.0
100
AcDbText
 10
13248.77747366448
 20
9230.013745883727
 30
0.0
 40
100.0
  1
12
  7
STYLE1
100
AcDbText
  0
TEXT
  5
1403A
330
747D
100
AcDbEntity
  8
文字
 62
     7
 48
50.0
100
AcDbText
 10
15022.63965474517
 20
11100.01374588372
 30
0.0
 40
100.0
  1
F12            1.2
  7
STYLE1
100
AcDbText
  0
TEXT
  5
1403B
330
747D
100
AcDbEntity
  8
文字
 62
     7
 48
50.0
100
AcDbText
 10
15022.63965474518
 20
10760.01374588372
 30
0.0
 40
100.0
  1
F12            1.0
  7
STYLE1
100
AcDbText
  0
TEXT
  5
1403C
330
747D
100
AcDbEntity
  8
文字
 62
     7
 48
50.0
100
AcDbText
 10
15022.63965474516
 20
10420.01374588372
 30
0.0
 40
100.0
  1
Y10            1.0
  7
STYLE1
100
AcDbText
  0
TEXT
  5
1403D
330
747D
100
AcDbEntity
  8
文字
 62
     7
 48
50.0
100
AcDbText
 10
15022.63965474516
 20
10250.01374588372
 30
0.0
 40
100.0
  1
Y10            0.7
  7
STYLE1
100
AcDbText
  0
TEXT
  5
1403E
330
747D
100
AcDbEntity
  8
文字
 62
     7
 48
50.0
100
AcDbText
 10
15022.63965474516
 20
10080.01374588372
 30
0.0
 40
100.0
  1
Y10            0.7
  7
STYLE1
100
AcDbText
  0
TEXT
  5
1403F
330
747D
100
AcDbEntity
  8
文字
 62
     7
 48
50.0
100
AcDbText
 10
15022.63965474517
 20
9740.013745883725
 30
0.0
 40
100.0
  1
Y10            0.5
  7
STYLE1
100
AcDbText
  0
TEXT
  5
14040
330
747D
100
AcDbEntity
  8
文字
 62
     7
 48
50.0
100
AcDbText
 10
15022.63965474515
 20
9400.013745883725
 30
0.0
 40
100.0
  1
F12            0.7
  7
STYLE1
100
AcDbText
  0
LINE
  5
14041
330
747D
100
AcDbEntity
  8
仕様書枠
 48
50.0
100
AcDbLine
 10
16307.19999999999
 20
8349.600000000004
 30
0.0
 11
13127.19999999999
 21
8349.600000000007
 31
0.0
  0
LINE
  5
14042
330
747D
100
AcDbEntity
  8
仕様書枠
 48
50.0
100
AcDbLine
 10
16307.19999999999
 20
8009.6
 30
0.0
 11
13127.2
 21
8009.600000000002
 31
0.0
  0
TEXT
  5
14043
330
747D
100
AcDbEntity
  8
文字
 62
     7
 48
50.0
100
AcDbText
 10
13229.83081656554
 20
8040.013745883729
 30
0.0
 40
100.0
  1
F12→溶融亜鉛めっき鋼板(JIS G 3302)
  7
STYLE1
100
AcDbText
  0
TEXT
  5
14044
330
747D
100
AcDbEntity
  8
文字
 62
     7
 48
50.0
100
AcDbText
 10
13229.83081656554
 20
7870.013745883729
 30
0.0
 40
100.0
  1
Y10→溶融亜鉛-5％アルミニウム合金めっき鋼板(JIS G 3317)
 41
0.9
  7
STYLE1
100
AcDbText
  0
LINE
  5
14045
330
747D
100
AcDbEntity
  8
仕様書枠
 48
50.0
100
AcDbLine
 10
13127.2
 20
11409.6
 30
0.0
 11
13127.19999999999
 21
7839.600000000003
 31
0.0
  0
LINE
  5
14046
330
747D
100
AcDbEntity
  8
仕様書枠
 48
50.0
100
AcDbLine
 10
16307.19999999999
 20
9029.6
 30
0.0
 11
13127.2
 21
9029.600000000002
 31
0.0
  0
TEXT
  5
14047
330
747D
100
AcDbEntity
  8
文字
 62
     7
 48
50.0
100
AcDbText
 10
13583.1181901657
 20
10590.01374588373
 30
0.0
 40
100.0
  1
床パネル
 41
0.9
  7
STYLE1
100
AcDbText
  0
TEXT
  5
14048
330
747D
100
AcDbEntity
  8
文字
 62
     7
 48
50.0
100
AcDbText
 10
13583.11819016569
 20
10930.01374588372
 30
0.0
 40
100.0
  1
根太
  7
STYLE1
100
AcDbText
  0
TEXT
  5
14049
330
747D
100
AcDbEntity
  8
文字
 62
     7
 48
50.0
100
AcDbText
 10
13248.77747366448
 20
8890.013745883727
 30
0.0
 40
100.0
  1
14
  7
STYLE1
100
AcDbText
  0
TEXT
  5
1404A
330
747D
100
AcDbEntity
  8
文字
 62
     7
 48
50.0
100
AcDbText
 10
15022.63965474516
 20
10930.01374588372
 30
0.0
 40
100.0
  1
F12            1.2
  7
STYLE1
100
AcDbText
  0
TEXT
  5
1404B
330
747D
100
AcDbEntity
  8
文字
 62
     7
 48
50.0
100
AcDbText
 10
15022.63965474517
 20
10590.01374588372
 30
0.0
 40
100.0
  1
F12            1.0
  7
STYLE1
100
AcDbText
  0
TEXT
  5
1404C
330
747D
100
AcDbEntity
  8
文字
 62
     7
 48
50.0
100
AcDbText
 10
15022.63965474515
 20
8550.013745883727
 30
0.0
 40
100.0
  1
F12            0.7
  7
STYLE1
100
AcDbText
  0
TEXT
  5
1404D
330
747D
100
AcDbEntity
  8
文字
 62
     7
 48
50.0
100
AcDbText
 10
13583.11819016568
 20
8550.013745883731
 30
0.0
 40
100.0
  1
正面パネル
  7
STYLE1
100
AcDbText
  0
TEXT
  5
1404E
330
747D
100
AcDbEntity
  8
文字
 62
     7
 48
50.0
100
AcDbText
 10
15022.63965474516
 20
8380.013745883728
 30
0.0
 40
100.0
  1
F12            0.8
  7
STYLE1
100
AcDbText
  0
TEXT
  5
1404F
330
747D
100
AcDbEntity
  8
文字
 62
     7
 48
50.0
100
AcDbText
 10
13583.11819016569
 20
8380.013745883731
 30
0.0
 40
100.0
  1
扉
  7
STYLE1
100
AcDbText
  0
LINE
  5
14050
330
747D
100
AcDbEntity
  8
仕様書枠
 48
50.0
100
AcDbLine
 10
16307.19999999998
 20
7839.6
 30
0.0
 11
13127.19999999999
 21
7839.600000000003
 31
0.0
  0
TEXT
  5
14051
330
747D
100
AcDbEntity
  8
文字
 62
     7
 48
50.0
100
AcDbText
 10
13248.77747366447
 20
8720.013745883729
 30
0.0
 40
100.0
  1
15
  7
STYLE1
100
AcDbText
  0
TEXT
  5
14052
330
747D
100
AcDbEntity
  8
文字
 62
     7
 48
50.0
100
AcDbText
 10
13583.11819016569
 20
9570.013745883727
 30
0.0
 40
100.0
  1
母屋中
  7
STYLE1
100
AcDbText
  0
LINE
  5
14062
330
747D
100
AcDbEntity
  8
部品1
 48
50.0
100
AcDbLine
 10
4434.9043979289
 20
4877.732394739148
 30
0.0
 11
4434.9043979289
 21
2844.732394739148
 31
0.0
  0
LINE
  5
14063
330
747D
100
AcDbEntity
  8
部品1
100
AcDbLine
 10
5085.904397928892
 20
4877.732394739148
 30
0.0
 11
5085.904397928896
 21
2852.232394739163
 31
0.0
  0
LINE
  5
14064
330
747D
100
AcDbEntity
  8
細線
100
AcDbLine
 10
4340.9043979289
 20
4877.732394739148
 30
0.0
 11
4340.904397928897
 21
2844.732394739155
 31
0.0
  0
LINE
  5
14065
330
747D
100
AcDbEntity
  8
細線
100
AcDbLine
 10
4270.9043979289
 20
4877.732394739148
 30
0.0
 11
4270.904397928896
 21
2844.732394739155
 31
0.0
  0
LINE
  5
14066
330
747D
100
AcDbEntity
  8
細線
100
AcDbLine
 10
4200.9043979289
 20
4877.732394739148
 30
0.0
 11
4200.904397928896
 21
2844.732394739154
 31
0.0
  0
LINE
  5
14067
330
747D
100
AcDbEntity
  8
細線
100
AcDbLine
 10
4130.9043979289
 20
4877.732394739148
 30
0.0
 11
4130.904397928897
 21
2844.732394739152
 31
0.0
  0
LINE
  5
14068
330
747D
100
AcDbEntity
  8
細線
100
AcDbLine
 10
4060.9043979289
 20
4877.732394739148
 30
0.0
 11
4060.904397928896
 21
2844.732394739152
 31
0.0
  0
LINE
  5
14069
330
747D
100
AcDbEntity
  8
細線
100
AcDbLine
 10
3990.9043979289
 20
4877.732394739148
 30
0.0
 11
3990.904397928897
 21
2844.732394739152
 31
0.0
  0
LINE
  5
1406A
330
747D
100
AcDbEntity
  8
部品1
100
AcDbLine
 10
3806.904397928896
 20
4877.732394739148
 30
0.0
 11
3806.9043979289
 21
2844.732394739154
 31
0.0
  0
LINE
  5
1406B
330
747D
100
AcDbEntity
  8
部品1
100
AcDbLine
 10
3756.904397928896
 20
4877.732394739148
 30
0.0
 11
3756.9043979289
 21
2844.732394739154
 31
0.0
  0
LINE
  5
1406C
330
747D
100
AcDbEntity
  8
細線
100
AcDbLine
 10
3798.904397928897
 20
4877.732394739148
 30
0.0
 11
3798.9043979289
 21
2844.732394739154
 31
0.0
  0
LINE
  5
1406D
330
747D
100
AcDbEntity
  8
細線
100
AcDbLine
 10
3764.904397928896
 20
4877.732394739148
 30
0.0
 11
3764.9043979289
 21
2844.732394739154
 31
0.0
  0
LINE
  5
1406E
330
747D
100
AcDbEntity
  8
細線
100
AcDbLine
 10
4984.9043979289
 20
4877.732394739148
 30
0.0
 11
4984.9043979289
 21
2852.232394739161
 31
0.0
  0
LINE
  5
1406F
330
747D
100
AcDbEntity
  8
細線
100
AcDbLine
 10
4914.9043979289
 20
4877.732394739148
 30
0.0
 11
4914.9043979289
 21
2852.232394739161
 31
0.0
  0
LINE
  5
14070
330
747D
100
AcDbEntity
  8
細線
100
AcDbLine
 10
4844.9043979289
 20
4877.732394739148
 30
0.0
 11
4844.9043979289
 21
2852.232394739161
 31
0.0
  0
LINE
  5
14071
330
747D
100
AcDbEntity
  8
細線
100
AcDbLine
 10
4774.904397928899
 20
4877.732394739148
 30
0.0
 11
4774.904397928899
 21
2852.232394739161
 31
0.0
  0
LINE
  5
14072
330
747D
100
AcDbEntity
  8
細線
100
AcDbLine
 10
4704.9043979289
 20
4877.732394739148
 30
0.0
 11
4704.9043979289
 21
2852.232394739161
 31
0.0
  0
LINE
  5
14073
330
747D
100
AcDbEntity
  8
細線
100
AcDbLine
 10
4634.9043979289
 20
4877.732394739148
 30
0.0
 11
4634.9043979289
 21
2852.232394739161
 31
0.0
  0
LINE
  5
14074
330
747D
100
AcDbEntity
  8
細線
100
AcDbLine
 10
5570.4043979289
 20
4877.732394739148
 30
0.0
 11
5570.4043979289
 21
2852.232394739166
 31
0.0
  0
LINE
  5
14075
330
747D
100
AcDbEntity
  8
細線
100
AcDbLine
 10
5500.4043979289
 20
4877.732394739148
 30
0.0
 11
5500.4043979289
 21
2852.232394739166
 31
0.0
  0
LINE
  5
14076
330
747D
100
AcDbEntity
  8
細線
100
AcDbLine
 10
5430.404397928899
 20
4877.732394739148
 30
0.0
 11
5430.404397928899
 21
2852.232394739166
 31
0.0
  0
LINE
  5
14077
330
747D
100
AcDbEntity
  8
細線
100
AcDbLine
 10
5360.4043979289
 20
4877.732394739148
 30
0.0
 11
5360.4043979289
 21
2852.232394739166
 31
0.0
  0
LINE
  5
14078
330
747D
100
AcDbEntity
  8
細線
100
AcDbLine
 10
5290.4043979289
 20
4877.732394739148
 30
0.0
 11
5290.4043979289
 21
2852.232394739166
 31
0.0
  0
LINE
  5
1407C
330
747D
100
AcDbEntity
  8
部品1
 48
50.0
100
AcDbLine
 10
3680.9043979289
 20
3926.232394739149
 30
0.0
 11
3733.9043979289
 21
3926.232394739149
 31
0.0
  0
LINE
  5
14096
330
747D
100
AcDbEntity
  8
細線
100
AcDbLine
 10
3920.9043979289
 20
4877.732394739148
 30
0.0
 11
3920.904397928897
 21
2844.732394739152
 31
0.0
  0
LINE
  5
14097
330
747D
100
AcDbEntity
  8
細線
100
AcDbLine
 10
3850.9043979289
 20
4877.732394739148
 30
0.0
 11
3850.904397928896
 21
2844.732394739152
 31
0.0
  0
LINE
  5
14098
330
747D
100
AcDbEntity
  8
細線
100
AcDbLine
 10
4564.904397928899
 20
4877.732394739148
 30
0.0
 11
4564.904397928899
 21
2852.232394739161
 31
0.0
  0
LINE
  5
14099
330
747D
100
AcDbEntity
  8
細線
100
AcDbLine
 10
4494.9043979289
 20
4877.732394739148
 30
0.0
 11
4494.9043979289
 21
2852.232394739161
 31
0.0
  0
LINE
  5
1409A
330
747D
100
AcDbEntity
  8
細線
100
AcDbLine
 10
5220.404397928899
 20
4877.732394739148
 30
0.0
 11
5220.404397928899
 21
2852.232394739166
 31
0.0
  0
LINE
  5
1409B
330
747D
100
AcDbEntity
  8
部品1
 48
50.0
100
AcDbLine
 10
5085.904397928899
 20
4877.732394739147
 30
0.0
 11
5085.904397928899
 21
2852.232394739147
 31
0.0
  0
LINE
  5
1409C
330
747D
100
AcDbEntity
  8
部品1
 48
50.0
100
AcDbLine
 10
5760.9043979289
 20
2794.732394739147
 30
0.0
 11
5760.9043979289
 21
4929.732394739147
 31
0.0
  0
LINE
  5
1409D
330
747D
100
AcDbEntity
  8
細線
 48
50.0
100
AcDbLine
 10
5730.9043979289
 20
2794.732394739147
 30
0.0
 11
5730.9043979289
 21
4887.232394739147
 31
0.0
  0
LINE
  5
1409E
330
747D
100
AcDbEntity
  8
部品1
 48
50.0
100
AcDbLine
 10
5721.904397928899
 20
2841.732394739147
 30
0.0
 11
5721.904397928899
 21
4877.732394739147
 31
0.0
  0
LINE
  5
1409F
330
747D
100
AcDbEntity
  8
部品1
 48
50.0
100
AcDbLine
 10
4434.9043979289
 20
4877.732394739147
 30
0.0
 11
4434.9043979289
 21
2844.732394739147
 31
0.0
  0
LINE
  5
140A0
330
747D
100
AcDbEntity
  8
部品1
 48
50.0
100
AcDbLine
 10
3636.9043979289
 20
2844.732394739147
 30
0.0
 11
4434.9043979289
 21
2844.732394739147
 31
0.0
  0
LINE
  5
140A1
330
747D
100
AcDbEntity
  8
細線
 48
50.0
100
AcDbLine
 10
3636.9043979289
 20
2841.732394739147
 30
0.0
 11
5730.9043979289
 21
2841.732394739147
 31
0.0
  0
LINE
  5
140A2
330
747D
100
AcDbEntity
  8
細線
 48
50.0
100
AcDbLine
 10
3636.9043979289
 20
2837.732394739147
 30
0.0
 11
5730.9043979289
 21
2837.732394739147
 31
0.0
  0
LINE
  5
140A3
330
747D
100
AcDbEntity
  8
部品1
 48
50.0
100
AcDbLine
 10
3645.9043979289
 20
2844.732394739147
 30
0.0
 11
3645.9043979289
 21
2841.732394739147
 31
0.0
  0
LINE
  5
140A4
330
747D
100
AcDbEntity
  8
細線
 48
50.0
100
AcDbLine
 10
3636.9043979289
 20
4887.232394739147
 30
0.0
 11
3636.9043979289
 21
2794.732394739147
 31
0.0
  0
LINE
  5
140A5
330
747D
100
AcDbEntity
  8
部品1
 48
50.0
100
AcDbLine
 10
3636.9043979289
 20
2844.732394739147
 30
0.0
 11
3636.9043979289
 21
4877.732394739147
 31
0.0
  0
LINE
  5
140A6
330
747D
100
AcDbEntity
  8
部品1
 48
50.0
100
AcDbLine
 10
3606.9043979289
 20
4929.732394739147
 30
0.0
 11
3606.9043979289
 21
2794.732394739147
 31
0.0
  0
LINE
  5
140A7
330
747D
100
AcDbEntity
  8
細線
 48
50.0
100
AcDbLine
 10
5708.9043979289
 20
2841.732394739147
 30
0.0
 11
5704.9043979289
 21
2852.232394739147
 31
0.0
  0
LINE
  5
140A8
330
747D
100
AcDbEntity
  8
細線
 48
50.0
100
AcDbLine
 10
4434.9043979289
 20
2852.232394739147
 30
0.0
 11
5704.9043979289
 21
2852.232394739147
 31
0.0
  0
LINE
  5
140A9
330
747D
100
AcDbEntity
  8
部品1
 48
50.0
100
AcDbLine
 10
5760.9043979289
 20
4885.732394739147
 30
0.0
 11
5730.9043979289
 21
4885.732394739147
 31
0.0
  0
LINE
  5
140AA
330
747D
100
AcDbEntity
  8
細線
 48
50.0
100
AcDbLine
 10
5760.9043979289
 20
4919.732394739146
 30
0.0
 11
3606.9043979289
 21
4919.732394739146
 31
0.0
  0
LINE
  5
140AB
330
747D
100
AcDbEntity
  8
部品1
 48
50.0
100
AcDbLine
 10
5760.9043979289
 20
4929.732394739147
 30
0.0
 11
3606.9043979289
 21
4929.732394739147
 31
0.0
  0
LINE
  5
140AC
330
747D
100
AcDbEntity
  8
細線
 48
50.0
100
AcDbLine
 10
5730.9043979289
 20
4887.232394739147
 30
0.0
 11
3636.9043979289
 21
4887.232394739147
 31
0.0
  0
LINE
  5
140AD
330
747D
100
AcDbEntity
  8
細線
 48
50.0
100
AcDbLine
 10
5730.9043979289
 20
4877.732394739147
 30
0.0
 11
3636.9043979289
 21
4877.732394739147
 31
0.0
  0
LINE
  5
140AE
330
747D
100
AcDbEntity
  8
部品1
 48
50.0
100
AcDbLine
 10
3636.9043979289
 20
4885.732394739147
 30
0.0
 11
3606.9043979289
 21
4885.732394739147
 31
0.0
  0
LINE
  5
140AF
330
747D
100
AcDbEntity
  8
部品1
100
AcDbLine
 10
5733.904397928898
 20
4934.732394739149
 30
0.0
 11
5733.904397928898
 21
4929.732394739147
 31
0.0
  0
LINE
  5
140B0
330
747D
100
AcDbEntity
  8
部品1
100
AcDbLine
 10
3633.904397928898
 20
4934.732394739149
 30
0.0
 11
3633.904397928898
 21
4929.732394739147
 31
0.0
  0
LINE
  5
140B1
330
747D
100
AcDbEntity
  8
細線
 48
50.0
100
AcDbLine
 10
8286.404397928903
 20
4934.732394739149
 30
0.0
 11
8286.404397928903
 21
2844.732394739149
 31
0.0
  0
LINE
  5
140B2
330
747D
100
AcDbEntity
  8
細線
 48
50.0
100
AcDbLine
 10
8301.404397928902
 20
4934.732394739149
 30
0.0
 11
8301.404397928903
 21
2844.732394739149
 31
0.0
  0
LINE
  5
140B3
330
747D
100
AcDbEntity
  8
細線
 48
50.0
100
AcDbLine
 10
8161.404397928903
 20
4934.732394739149
 30
0.0
 11
8161.404397928903
 21
2844.732394739149
 31
0.0
  0
LINE
  5
140B4
330
747D
100
AcDbEntity
  8
細線
 48
50.0
100
AcDbLine
 10
8146.404397928902
 20
4934.732394739149
 30
0.0
 11
8146.404397928902
 21
2844.732394739149
 31
0.0
  0
LINE
  5
140B5
330
747D
100
AcDbEntity
  8
細線
 48
50.0
100
AcDbLine
 10
8006.404397928902
 20
4934.732394739149
 30
0.0
 11
8006.404397928903
 21
2844.732394739149
 31
0.0
  0
LINE
  5
140B6
330
747D
100
AcDbEntity
  8
細線
 48
50.0
100
AcDbLine
 10
8021.404397928902
 20
4934.732394739149
 30
0.0
 11
8021.404397928902
 21
2844.732394739149
 31
0.0
  0
LINE
  5
140B7
330
747D
100
AcDbEntity
  8
細線
 48
50.0
100
AcDbLine
 10
7601.404397928901
 20
4934.732394739149
 30
0.0
 11
7601.404397928904
 21
2844.732394739149
 31
0.0
  0
LINE
  5
140B8
330
747D
100
AcDbEntity
  8
細線
 48
50.0
100
AcDbLine
 10
7586.404397928902
 20
4934.732394739149
 30
0.0
 11
7586.404397928903
 21
2844.732394739149
 31
0.0
  0
LINE
  5
140B9
330
747D
100
AcDbEntity
  8
細線
 48
50.0
100
AcDbLine
 10
7726.404397928901
 20
4934.732394739149
 30
0.0
 11
7726.404397928904
 21
2844.732394739149
 31
0.0
  0
LINE
  5
140BA
330
747D
100
AcDbEntity
  8
細線
 48
50.0
100
AcDbLine
 10
7741.404397928902
 20
4934.732394739149
 30
0.0
 11
7741.404397928903
 21
2844.732394739149
 31
0.0
  0
LINE
  5
140BB
330
747D
100
AcDbEntity
  8
細線
 48
50.0
100
AcDbLine
 10
7881.404397928903
 20
4934.732394739149
 30
0.0
 11
7881.404397928903
 21
2844.732394739149
 31
0.0
  0
LINE
  5
140BC
330
747D
100
AcDbEntity
  8
細線
 48
50.0
100
AcDbLine
 10
7866.404397928902
 20
4934.732394739149
 30
0.0
 11
7866.404397928903
 21
2844.732394739149
 31
0.0
  0
LINE
  5
140BD
330
747D
100
AcDbEntity
  8
細線
 48
50.0
100
AcDbLine
 10
7181.404397928902
 20
4934.732394739149
 30
0.0
 11
7181.404397928904
 21
2844.732394739149
 31
0.0
  0
LINE
  5
140BE
330
747D
100
AcDbEntity
  8
細線
 48
50.0
100
AcDbLine
 10
7166.404397928902
 20
4934.732394739149
 30
0.0
 11
7166.404397928904
 21
2844.732394739149
 31
0.0
  0
LINE
  5
140BF
330
747D
100
AcDbEntity
  8
細線
 48
50.0
100
AcDbLine
 10
7306.404397928902
 20
4934.732394739149
 30
0.0
 11
7306.404397928904
 21
2844.732394739149
 31
0.0
  0
LINE
  5
140C0
330
747D
100
AcDbEntity
  8
細線
 48
50.0
100
AcDbLine
 10
7321.404397928901
 20
4934.732394739149
 30
0.0
 11
7321.404397928903
 21
2844.732394739149
 31
0.0
  0
LINE
  5
140C1
330
747D
100
AcDbEntity
  8
細線
 48
50.0
100
AcDbLine
 10
7461.404397928902
 20
4934.732394739149
 30
0.0
 11
7461.404397928903
 21
2844.732394739149
 31
0.0
  0
LINE
  5
140C2
330
747D
100
AcDbEntity
  8
細線
 48
50.0
100
AcDbLine
 10
7446.404397928901
 20
4934.732394739149
 30
0.0
 11
7446.404397928903
 21
2844.732394739149
 31
0.0
  0
LINE
  5
140C3
330
747D
100
AcDbEntity
  8
細線
 48
50.0
100
AcDbLine
 10
7026.404397928901
 20
4934.732394739149
 30
0.0
 11
7026.404397928904
 21
2844.732394739149
 31
0.0
  0
LINE
  5
140C4
330
747D
100
AcDbEntity
  8
細線
 48
50.0
100
AcDbLine
 10
7041.404397928902
 20
4934.732394739149
 30
0.0
 11
7041.404397928904
 21
2844.732394739149
 31
0.0
  0
LINE
  5
140C5
330
747D
100
AcDbEntity
  8
細線
 48
50.0
100
AcDbLine
 10
6901.404397928901
 20
4934.732394739149
 30
0.0
 11
6901.404397928904
 21
2844.732394739149
 31
0.0
  0
LINE
  5
140C6
330
747D
100
AcDbEntity
  8
細線
 48
50.0
100
AcDbLine
 10
6886.404397928902
 20
4934.732394739149
 30
0.0
 11
6886.404397928903
 21
2844.732394739149
 31
0.0
  0
LINE
  5
140C7
330
747D
100
AcDbEntity
  8
細線
 48
50.0
100
AcDbLine
 10
6746.404397928902
 20
4934.732394739149
 30
0.0
 11
6746.404397928903
 21
2844.732394739149
 31
0.0
  0
LINE
  5
140C8
330
747D
100
AcDbEntity
  8
細線
 48
50.0
100
AcDbLine
 10
6761.404397928902
 20
4934.732394739149
 30
0.0
 11
6761.404397928903
 21
2844.732394739149
 31
0.0
  0
LINE
  5
140C9
330
747D
100
AcDbEntity
  8
細線
 48
50.0
100
AcDbLine
 10
6341.404397928902
 20
4934.732394739149
 30
0.0
 11
6341.404397928904
 21
2844.732394739149
 31
0.0
  0
LINE
  5
140CA
330
747D
100
AcDbEntity
  8
細線
 48
50.0
100
AcDbLine
 10
6326.404397928902
 20
4934.732394739149
 30
0.0
 11
6326.404397928904
 21
2844.732394739149
 31
0.0
  0
LINE
  5
140CB
330
747D
100
AcDbEntity
  8
細線
 48
50.0
100
AcDbLine
 10
6466.404397928902
 20
4934.732394739149
 30
0.0
 11
6466.404397928903
 21
2844.732394739149
 31
0.0
  0
LINE
  5
140CC
330
747D
100
AcDbEntity
  8
細線
 48
50.0
100
AcDbLine
 10
6481.404397928902
 20
4934.732394739149
 30
0.0
 11
6481.404397928904
 21
2844.732394739149
 31
0.0
  0
LINE
  5
140CD
330
747D
100
AcDbEntity
  8
細線
 48
50.0
100
AcDbLine
 10
6621.404397928902
 20
4934.732394739149
 30
0.0
 11
6621.404397928903
 21
2844.732394739149
 31
0.0
  0
LINE
  5
140CE
330
747D
100
AcDbEntity
  8
細線
 48
50.0
100
AcDbLine
 10
6606.404397928902
 20
4934.732394739149
 30
0.0
 11
6606.404397928904
 21
2844.732394739149
 31
0.0
  0
LINE
  5
140CF
330
747D
100
AcDbEntity
  8
細線
 48
50.0
100
AcDbLine
 10
6186.404397928902
 20
4934.732394739149
 30
0.0
 11
6186.404397928903
 21
2844.732394739149
 31
0.0
  0
LINE
  5
140D0
330
747D
100
AcDbEntity
  8
細線
 48
50.0
100
AcDbLine
 10
6201.404397928902
 20
4934.732394739149
 30
0.0
 11
6201.404397928904
 21
2844.732394739149
 31
0.0
  0
LINE
  5
140D1
330
747D
100
AcDbEntity
  8
細線
 48
50.0
100
AcDbLine
 10
6061.404397928902
 20
4934.732394739149
 30
0.0
 11
6061.404397928903
 21
2844.732394739149
 31
0.0
  0
LINE
  5
140D2
330
747D
100
AcDbEntity
  8
細線
 48
50.0
100
AcDbLine
 10
6046.404397928902
 20
4934.732394739149
 30
0.0
 11
6046.404397928903
 21
2844.732394739149
 31
0.0
  0
LINE
  5
140D3
330
747D
100
AcDbEntity
  8
細線
 48
50.0
100
AcDbLine
 10
5906.404397928902
 20
4934.732394739149
 30
0.0
 11
5906.404397928904
 21
2844.732394739149
 31
0.0
  0
LINE
  5
140D4
330
747D
100
AcDbEntity
  8
細線
 48
50.0
100
AcDbLine
 10
5921.404397928902
 20
4934.732394739149
 30
0.0
 11
5921.404397928903
 21
2844.732394739149
 31
0.0
  0
LINE
  5
144F2
330
747D
100
AcDbEntity
  8
細線
100
AcDbLine
 10
5088.904397928909
 20
4994.232394739149
 30
0.0
 11
5088.904397928909
 21
4971.232394739149
 31
0.0
  0
LINE
  5
144F3
330
747D
100
AcDbEntity
  8
細線
100
AcDbLine
 10
5014.904397928908
 20
4982.232394739149
 30
0.0
 11
5088.904397928909
 21
4982.232394739149
 31
0.0
  0
LINE
  5
144F4
330
747D
100
AcDbEntity
  8
細線
100
AcDbLine
 10
5014.904397928908
 20
4976.232394739147
 30
0.0
 11
5088.904397928909
 21
4976.232394739149
 31
0.0
  0
LINE
  5
144F5
330
747D
100
AcDbEntity
  8
細線
100
AcDbLine
 10
5014.904397928908
 20
4988.232394739147
 30
0.0
 11
5088.904397928909
 21
4988.232394739149
 31
0.0
  0
LINE
  5
144F6
330
747D
100
AcDbEntity
  8
細線
100
AcDbLine
 10
5162.904397928909
 20
4988.232394739149
 30
0.0
 11
5093.904397928909
 21
4988.232394739149
 31
0.0
  0
LINE
  5
144F7
330
747D
100
AcDbEntity
  8
細線
100
AcDbLine
 10
5162.904397928909
 20
4976.232394739149
 30
0.0
 11
5088.904397928909
 21
4976.232394739149
 31
0.0
  0
LINE
  5
144F8
330
747D
100
AcDbEntity
  8
細線
100
AcDbLine
 10
5162.904397928909
 20
4982.232394739149
 30
0.0
 11
5088.904397928909
 21
4982.232394739149
 31
0.0
  0
LINE
  5
144F9
330
747D
100
AcDbEntity
  8
細線
100
AcDbLine
 10
5162.904397928909
 20
4988.232394739149
 30
0.0
 11
5088.904397928909
 21
4988.232394739149
 31
0.0
  0
LINE
  5
144FA
330
747D
100
AcDbEntity
  8
部品1
 48
0.01
100
AcDbLine
 10
5000.904397928909
 20
5000.732394739149
 30
0.0
 11
5176.904397928909
 21
5000.732394739149
 31
0.0
  0
LINE
  5
144FB
330
747D
100
AcDbEntity
  8
部品1
 48
0.01
100
AcDbLine
 10
5178.904397928909
 20
4998.732394739149
 30
0.0
 11
5178.904397928909
 21
4967.232394739149
 31
0.0
  0
LINE
  5
144FC
330
747D
100
AcDbEntity
  8
部品1
 48
0.01
100
AcDbLine
 10
5176.904397928909
 20
4965.232394739149
 30
0.0
 11
5000.904397928909
 21
4965.232394739149
 31
0.0
  0
LINE
  5
144FD
330
747D
100
AcDbEntity
  8
部品1
 48
0.01
100
AcDbLine
 10
4998.904397928909
 20
4967.232394739149
 30
0.0
 11
4998.904397928909
 21
4998.732394739149
 31
0.0
  0
LINE
  5
144FE
330
747D
100
AcDbEntity
  8
細線
100
AcDbLine
 10
5162.904397928909
 20
4994.232394739149
 30
0.0
 11
5162.904397928909
 21
4971.232394739149
 31
0.0
  0
LINE
  5
144FF
330
747D
100
AcDbEntity
  8
細線
100
AcDbLine
 10
5014.904397928908
 20
4971.232394739149
 30
0.0
 11
5014.904397928908
 21
4994.232394739149
 31
0.0
  0
LINE
  5
14500
330
747D
100
AcDbEntity
  8
細線
100
AcDbLine
 10
5014.904397928908
 20
4994.232394739149
 30
0.0
 11
5088.904397928909
 21
4994.232394739149
 31
0.0
  0
LINE
  5
14501
330
747D
100
AcDbEntity
  8
細線
100
AcDbLine
 10
5162.904397928909
 20
4971.232394739149
 30
0.0
 11
5088.904397928909
 21
4971.232394739149
 31
0.0
  0
LINE
  5
14502
330
747D
100
AcDbEntity
  8
細線
100
AcDbLine
 10
5088.904397928909
 20
4994.232394739149
 30
0.0
 11
5162.904397928909
 21
4994.232394739149
 31
0.0
  0
LINE
  5
14503
330
747D
100
AcDbEntity
  8
細線
100
AcDbLine
 10
5088.904397928909
 20
4971.232394739149
 30
0.0
 11
5014.904397928908
 21
4971.232394739149
 31
0.0
  0
ARC
  5
14504
330
747D
100
AcDbEntity
  8
部品1
 48
0.01
100
AcDbCircle
 10
5176.904397928909
 20
4998.732394739149
 30
0.0
 40
2.0
100
AcDbArc
 50
0.0
 51
90.0
  0
ARC
  5
14505
330
747D
100
AcDbEntity
  8
部品1
 48
0.01
100
AcDbCircle
 10
5176.904397928909
 20
4967.232394739149
 30
0.0
 40
2.0
100
AcDbArc
 50
270.0
 51
0.0
  0
ARC
  5
14506
330
747D
100
AcDbEntity
  8
部品1
 48
0.01
100
AcDbCircle
 10
5000.904397928909
 20
4998.732394739149
 30
0.0
 40
2.0
100
AcDbArc
 50
90.0
 51
180.0
  0
ARC
  5
14507
330
747D
100
AcDbEntity
  8
部品1
 48
0.01
100
AcDbCircle
 10
5000.904397928909
 20
4967.232394739149
 30
0.0
 40
2.0
100
AcDbArc
 50
180.0
 51
270.0
  0
ARC
  5
14508
330
747D
100
AcDbEntity
  8
部品1
 48
0.01
100
AcDbCircle
 10
3946.904397928891
 20
4967.232394739147
 30
0.0
 40
2.0
100
AcDbArc
 50
270.0
 51
0.0
  0
ARC
  5
14509
330
747D
100
AcDbEntity
  8
部品1
 48
0.01
100
AcDbCircle
 10
3946.904397928891
 20
4998.732394739147
 30
0.0
 40
2.0
100
AcDbArc
 50
0.0
 51
90.0
  0
ARC
  5
1450A
330
747D
100
AcDbEntity
  8
部品1
 48
0.01
100
AcDbCircle
 10
3770.904397928891
 20
4967.232394739147
 30
0.0
 40
2.0
100
AcDbArc
 50
180.0
 51
270.0
  0
ARC
  5
1450B
330
747D
100
AcDbEntity
  8
部品1
 48
0.01
100
AcDbCircle
 10
3770.904397928891
 20
4998.732394739147
 30
0.0
 40
2.0
100
AcDbArc
 50
90.0
 51
180.0
  0
LINE
  5
1450C
330
747D
100
AcDbEntity
  8
細線
100
AcDbLine
 10
3858.904397928891
 20
4971.232394739146
 30
0.0
 11
3932.904397928891
 21
4971.232394739146
 31
0.0
  0
LINE
  5
1450D
330
747D
100
AcDbEntity
  8
細線
100
AcDbLine
 10
3858.904397928891
 20
4994.232394739147
 30
0.0
 11
3784.904397928891
 21
4994.232394739147
 31
0.0
  0
LINE
  5
1450E
330
747D
100
AcDbEntity
  8
細線
100
AcDbLine
 10
3784.904397928891
 20
4971.232394739146
 30
0.0
 11
3858.904397928891
 21
4971.232394739146
 31
0.0
  0
LINE
  5
1450F
330
747D
100
AcDbEntity
  8
細線
100
AcDbLine
 10
3932.904397928891
 20
4994.232394739147
 30
0.0
 11
3858.904397928891
 21
4994.232394739147
 31
0.0
  0
LINE
  5
14510
330
747D
100
AcDbEntity
  8
細線
100
AcDbLine
 10
3932.904397928891
 20
4971.232394739146
 30
0.0
 11
3932.904397928891
 21
4994.232394739147
 31
0.0
  0
LINE
  5
14511
330
747D
100
AcDbEntity
  8
細線
100
AcDbLine
 10
3784.904397928891
 20
4994.232394739147
 30
0.0
 11
3784.904397928891
 21
4971.232394739146
 31
0.0
  0
LINE
  5
14512
330
747D
100
AcDbEntity
  8
部品1
 48
0.01
100
AcDbLine
 10
3948.904397928891
 20
4967.232394739147
 30
0.0
 11
3948.904397928891
 21
4998.732394739147
 31
0.0
  0
LINE
  5
14513
330
747D
100
AcDbEntity
  8
部品1
 48
0.01
100
AcDbLine
 10
3770.904397928891
 20
4965.232394739147
 30
0.0
 11
3946.904397928891
 21
4965.232394739147
 31
0.0
  0
LINE
  5
14514
330
747D
100
AcDbEntity
  8
部品1
 48
0.01
100
AcDbLine
 10
3768.904397928891
 20
4998.732394739147
 30
0.0
 11
3768.904397928891
 21
4967.232394739147
 31
0.0
  0
LINE
  5
14515
330
747D
100
AcDbEntity
  8
部品1
 48
0.01
100
AcDbLine
 10
3946.904397928891
 20
5000.732394739147
 30
0.0
 11
3770.904397928891
 21
5000.732394739147
 31
0.0
  0
LINE
  5
14516
330
747D
100
AcDbEntity
  8
細線
100
AcDbLine
 10
3784.904397928891
 20
4988.232394739147
 30
0.0
 11
3858.904397928891
 21
4988.232394739147
 31
0.0
  0
LINE
  5
14517
330
747D
100
AcDbEntity
  8
細線
100
AcDbLine
 10
3784.904397928891
 20
4982.232394739146
 30
0.0
 11
3858.904397928891
 21
4982.232394739146
 31
0.0
  0
LINE
  5
14518
330
747D
100
AcDbEntity
  8
細線
100
AcDbLine
 10
3784.904397928891
 20
4976.232394739147
 30
0.0
 11
3858.904397928891
 21
4976.232394739147
 31
0.0
  0
LINE
  5
14519
330
747D
100
AcDbEntity
  8
細線
100
AcDbLine
 10
3784.904397928891
 20
4988.232394739147
 30
0.0
 11
3853.904397928891
 21
4988.232394739147
 31
0.0
  0
LINE
  5
1451A
330
747D
100
AcDbEntity
  8
細線
100
AcDbLine
 10
3932.904397928891
 20
4988.232394739146
 30
0.0
 11
3858.904397928891
 21
4988.232394739147
 31
0.0
  0
LINE
  5
1451B
330
747D
100
AcDbEntity
  8
細線
100
AcDbLine
 10
3932.904397928891
 20
4976.232394739145
 30
0.0
 11
3858.904397928891
 21
4976.232394739147
 31
0.0
  0
LINE
  5
1451C
330
747D
100
AcDbEntity
  8
細線
100
AcDbLine
 10
3932.904397928891
 20
4982.232394739146
 30
0.0
 11
3858.904397928891
 21
4982.232394739146
 31
0.0
  0
LINE
  5
1451D
330
747D
100
AcDbEntity
  8
細線
100
AcDbLine
 10
3858.904397928891
 20
4994.232394739147
 30
0.0
 11
3858.904397928891
 21
4971.232394739146
 31
0.0
  0
ARC
  5
1451E
330
747D
100
AcDbEntity
  8
部品1
 48
0.01
100
AcDbCircle
 10
7630.904397928908
 20
4967.232394739149
 30
0.0
 40
2.0
100
AcDbArc
 50
180.0
 51
270.0
  0
ARC
  5
1451F
330
747D
100
AcDbEntity
  8
部品1
 48
0.01
100
AcDbCircle
 10
7630.904397928908
 20
4998.732394739149
 30
0.0
 40
2.0
100
AcDbArc
 50
90.0
 51
180.0
  0
ARC
  5
14520
330
747D
100
AcDbEntity
  8
部品1
 48
0.01
100
AcDbCircle
 10
7806.904397928909
 20
4967.232394739149
 30
0.0
 40
2.0
100
AcDbArc
 50
270.0
 51
0.0
  0
ARC
  5
14521
330
747D
100
AcDbEntity
  8
部品1
 48
0.01
100
AcDbCircle
 10
7806.904397928909
 20
4998.732394739149
 30
0.0
 40
2.0
100
AcDbArc
 50
0.0
 51
90.0
  0
LINE
  5
14522
330
747D
100
AcDbEntity
  8
細線
100
AcDbLine
 10
7718.904397928909
 20
4971.232394739149
 30
0.0
 11
7644.904397928908
 21
4971.232394739149
 31
0.0
  0
LINE
  5
14523
330
747D
100
AcDbEntity
  8
細線
100
AcDbLine
 10
7718.904397928909
 20
4994.232394739149
 30
0.0
 11
7792.904397928909
 21
4994.232394739149
 31
0.0
  0
LINE
  5
14524
330
747D
100
AcDbEntity
  8
細線
100
AcDbLine
 10
7792.904397928909
 20
4971.232394739149
 30
0.0
 11
7718.904397928909
 21
4971.232394739149
 31
0.0
  0
LINE
  5
14525
330
747D
100
AcDbEntity
  8
細線
100
AcDbLine
 10
7644.904397928908
 20
4994.232394739149
 30
0.0
 11
7718.904397928909
 21
4994.232394739149
 31
0.0
  0
LINE
  5
14526
330
747D
100
AcDbEntity
  8
細線
100
AcDbLine
 10
7644.904397928908
 20
4971.232394739149
 30
0.0
 11
7644.904397928908
 21
4994.232394739149
 31
0.0
  0
LINE
  5
14527
330
747D
100
AcDbEntity
  8
細線
100
AcDbLine
 10
7792.904397928909
 20
4994.232394739149
 30
0.0
 11
7792.904397928909
 21
4971.232394739149
 31
0.0
  0
LINE
  5
14528
330
747D
100
AcDbEntity
  8
部品1
 48
0.01
100
AcDbLine
 10
7628.904397928909
 20
4967.232394739149
 30
0.0
 11
7628.904397928909
 21
4998.732394739149
 31
0.0
  0
LINE
  5
14529
330
747D
100
AcDbEntity
  8
部品1
 48
0.01
100
AcDbLine
 10
7806.904397928909
 20
4965.232394739149
 30
0.0
 11
7630.904397928908
 21
4965.232394739149
 31
0.0
  0
LINE
  5
1452A
330
747D
100
AcDbEntity
  8
部品1
 48
0.01
100
AcDbLine
 10
7808.904397928909
 20
4998.732394739149
 30
0.0
 11
7808.904397928909
 21
4967.232394739149
 31
0.0
  0
LINE
  5
1452B
330
747D
100
AcDbEntity
  8
部品1
 48
0.01
100
AcDbLine
 10
7630.904397928908
 20
5000.732394739149
 30
0.0
 11
7806.904397928909
 21
5000.732394739149
 31
0.0
  0
LINE
  5
1452C
330
747D
100
AcDbEntity
  8
細線
100
AcDbLine
 10
7792.904397928909
 20
4988.232394739149
 30
0.0
 11
7718.904397928909
 21
4988.232394739149
 31
0.0
  0
LINE
  5
1452D
330
747D
100
AcDbEntity
  8
細線
100
AcDbLine
 10
7792.904397928909
 20
4982.232394739149
 30
0.0
 11
7718.904397928909
 21
4982.232394739149
 31
0.0
  0
LINE
  5
1452E
330
747D
100
AcDbEntity
  8
細線
100
AcDbLine
 10
7792.904397928909
 20
4976.232394739149
 30
0.0
 11
7718.904397928909
 21
4976.232394739149
 31
0.0
  0
LINE
  5
1452F
330
747D
100
AcDbEntity
  8
細線
100
AcDbLine
 10
7792.904397928909
 20
4988.232394739149
 30
0.0
 11
7723.904397928909
 21
4988.232394739149
 31
0.0
  0
LINE
  5
14530
330
747D
100
AcDbEntity
  8
細線
100
AcDbLine
 10
7644.904397928908
 20
4988.232394739147
 30
0.0
 11
7718.904397928909
 21
4988.232394739149
 31
0.0
  0
LINE
  5
14531
330
747D
100
AcDbEntity
  8
細線
100
AcDbLine
 10
7644.904397928908
 20
4976.232394739147
 30
0.0
 11
7718.904397928909
 21
4976.232394739149
 31
0.0
  0
LINE
  5
14532
330
747D
100
AcDbEntity
  8
細線
100
AcDbLine
 10
7644.904397928908
 20
4982.232394739149
 30
0.0
 11
7718.904397928909
 21
4982.232394739149
 31
0.0
  0
LINE
  5
14533
330
747D
100
AcDbEntity
  8
細線
100
AcDbLine
 10
7718.904397928909
 20
4994.232394739149
 30
0.0
 11
7718.904397928909
 21
4971.232394739149
 31
0.0
  0
LINE
  5
14534
330
747D
100
AcDbEntity
  8
細線
100
AcDbLine
 10
6488.904397928891
 20
4994.232394739147
 30
0.0
 11
6488.904397928891
 21
4971.232394739146
 31
0.0
  0
LINE
  5
14535
330
747D
100
AcDbEntity
  8
細線
100
AcDbLine
 10
6562.904397928891
 20
4982.232394739146
 30
0.0
 11
6488.904397928891
 21
4982.232394739146
 31
0.0
  0
LINE
  5
14536
330
747D
100
AcDbEntity
  8
細線
100
AcDbLine
 10
6562.904397928891
 20
4976.232394739145
 30
0.0
 11
6488.904397928891
 21
4976.232394739147
 31
0.0
  0
LINE
  5
14537
330
747D
100
AcDbEntity
  8
細線
100
AcDbLine
 10
6562.904397928891
 20
4988.232394739146
 30
0.0
 11
6488.904397928891
 21
4988.232394739147
 31
0.0
  0
LINE
  5
14538
330
747D
100
AcDbEntity
  8
細線
100
AcDbLine
 10
6414.90439792889
 20
4988.232394739147
 30
0.0
 11
6483.90439792889
 21
4988.232394739147
 31
0.0
  0
LINE
  5
14539
330
747D
100
AcDbEntity
  8
細線
100
AcDbLine
 10
6414.90439792889
 20
4976.232394739147
 30
0.0
 11
6488.904397928891
 21
4976.232394739147
 31
0.0
  0
LINE
  5
1453A
330
747D
100
AcDbEntity
  8
細線
100
AcDbLine
 10
6414.90439792889
 20
4982.232394739146
 30
0.0
 11
6488.904397928891
 21
4982.232394739146
 31
0.0
  0
LINE
  5
1453B
330
747D
100
AcDbEntity
  8
細線
100
AcDbLine
 10
6414.90439792889
 20
4988.232394739147
 30
0.0
 11
6488.904397928891
 21
4988.232394739147
 31
0.0
  0
LINE
  5
1453C
330
747D
100
AcDbEntity
  8
部品1
 48
0.01
100
AcDbLine
 10
6576.904397928891
 20
5000.732394739147
 30
0.0
 11
6400.90439792889
 21
5000.732394739147
 31
0.0
  0
LINE
  5
1453D
330
747D
100
AcDbEntity
  8
部品1
 48
0.01
100
AcDbLine
 10
6398.904397928891
 20
4998.732394739147
 30
0.0
 11
6398.904397928891
 21
4967.232394739147
 31
0.0
  0
LINE
  5
1453E
330
747D
100
AcDbEntity
  8
部品1
 48
0.01
100
AcDbLine
 10
6400.90439792889
 20
4965.232394739147
 30
0.0
 11
6576.904397928891
 21
4965.232394739147
 31
0.0
  0
LINE
  5
1453F
330
747D
100
AcDbEntity
  8
部品1
 48
0.01
100
AcDbLine
 10
6578.904397928891
 20
4967.232394739147
 30
0.0
 11
6578.904397928891
 21
4998.732394739147
 31
0.0
  0
LINE
  5
14540
330
747D
100
AcDbEntity
  8
細線
100
AcDbLine
 10
6414.90439792889
 20
4994.232394739147
 30
0.0
 11
6414.90439792889
 21
4971.232394739146
 31
0.0
  0
LINE
  5
14541
330
747D
100
AcDbEntity
  8
細線
100
AcDbLine
 10
6562.904397928891
 20
4971.232394739146
 30
0.0
 11
6562.904397928891
 21
4994.232394739147
 31
0.0
  0
LINE
  5
14542
330
747D
100
AcDbEntity
  8
細線
100
AcDbLine
 10
6562.904397928891
 20
4994.232394739147
 30
0.0
 11
6488.904397928891
 21
4994.232394739147
 31
0.0
  0
LINE
  5
14543
330
747D
100
AcDbEntity
  8
細線
100
AcDbLine
 10
6414.90439792889
 20
4971.232394739146
 30
0.0
 11
6488.904397928891
 21
4971.232394739146
 31
0.0
  0
LINE
  5
14544
330
747D
100
AcDbEntity
  8
細線
100
AcDbLine
 10
6488.904397928891
 20
4994.232394739147
 30
0.0
 11
6414.90439792889
 21
4994.232394739147
 31
0.0
  0
LINE
  5
14545
330
747D
100
AcDbEntity
  8
細線
100
AcDbLine
 10
6488.904397928891
 20
4971.232394739146
 30
0.0
 11
6562.904397928891
 21
4971.232394739146
 31
0.0
  0
ARC
  5
14546
330
747D
100
AcDbEntity
  8
部品1
 48
0.01
100
AcDbCircle
 10
6400.90439792889
 20
4998.732394739147
 30
0.0
 40
2.0
100
AcDbArc
 50
90.0
 51
180.0
  0
ARC
  5
14547
330
747D
100
AcDbEntity
  8
部品1
 48
0.01
100
AcDbCircle
 10
6400.90439792889
 20
4967.232394739147
 30
0.0
 40
2.0
100
AcDbArc
 50
180.0
 51
270.0
  0
ARC
  5
14548
330
747D
100
AcDbEntity
  8
部品1
 48
0.01
100
AcDbCircle
 10
6576.904397928891
 20
4998.732394739147
 30
0.0
 40
2.0
100
AcDbArc
 50
0.0
 51
90.0
  0
ARC
  5
14549
330
747D
100
AcDbEntity
  8
部品1
 48
0.01
100
AcDbCircle
 10
6576.904397928891
 20
4967.232394739147
 30
0.0
 40
2.0
100
AcDbArc
 50
270.0
 51
0.0
  0
LINE
  5
14555
330
747D
100
AcDbEntity
  8
細線
 48
50.0
100
AcDbLine
 10
3556.404397928902
 20
4934.732394739149
 30
0.0
 11
3556.404397928904
 21
2844.732394739149
 31
0.0
  0
LINE
  5
14556
330
747D
100
AcDbEntity
  8
細線
 48
50.0
100
AcDbLine
 10
3571.404397928902
 20
4934.732394739149
 30
0.0
 11
3571.404397928904
 21
2844.732394739149
 31
0.0
  0
LINE
  5
14557
330
747D
100
AcDbEntity
  8
細線
 48
50.0
100
AcDbLine
 10
3431.404397928902
 20
4934.732394739149
 30
0.0
 11
3431.404397928904
 21
2844.732394739149
 31
0.0
  0
LINE
  5
14558
330
747D
100
AcDbEntity
  8
細線
 48
50.0
100
AcDbLine
 10
3416.404397928902
 20
4934.732394739149
 30
0.0
 11
3416.404397928904
 21
2844.732394739149
 31
0.0
  0
LINE
  5
14559
330
747D
100
AcDbEntity
  8
細線
 48
50.0
100
AcDbLine
 10
3276.404397928902
 20
4934.732394739149
 30
0.0
 11
3276.404397928903
 21
2844.732394739149
 31
0.0
  0
LINE
  5
1455A
330
747D
100
AcDbEntity
  8
細線
 48
50.0
100
AcDbLine
 10
3291.404397928902
 20
4934.732394739149
 30
0.0
 11
3291.404397928904
 21
2844.732394739149
 31
0.0
  0
LINE
  5
14688
330
747D
100
AcDbEntity
  8
寸法
 48
50.0
100
AcDbLine
 10
4069.107404210743
 20
7914.328632945309
 30
0.0
 11
4017.70139630064
 21
7914.328632945309
 31
0.0
  0
LINE
  5
14689
330
747D
100
AcDbEntity
  8
寸法
 48
50.0
100
AcDbLine
 10
4017.70139630064
 20
7914.328632945309
 30
0.0
 11
4017.70139630064
 21
7945.638791597476
 31
0.0
  0
LINE
  5
1468A
330
747D
100
AcDbEntity
  8
寸法
 48
50.0
100
AcDbLine
 10
4017.70139630064
 20
7945.638791597476
 30
0.0
 11
3987.940064309217
 21
7945.638791597476
 31
0.0
  0
LINE
  5
1468B
330
747D
100
AcDbEntity
  8
寸法
 48
50.0
100
AcDbLine
 10
3987.940064309217
 20
7945.638791597476
 30
0.0
 11
4043.404400255692
 21
7983.218242526085
 31
0.0
  0
LINE
  5
1468C
330
747D
100
AcDbEntity
  8
寸法
 48
50.0
100
AcDbLine
 10
4098.868736202167
 20
7945.638791597476
 30
0.0
 11
4043.404400255692
 21
7983.218242526085
 31
0.0
  0
LINE
  5
1468D
330
747D
100
AcDbEntity
  8
寸法
 48
50.0
100
AcDbLine
 10
4069.107404210743
 20
7945.638791597476
 30
0.0
 11
4098.868736202167
 21
7945.638791597476
 31
0.0
  0
LINE
  5
1468E
330
747D
100
AcDbEntity
  8
寸法
 48
50.0
100
AcDbLine
 10
4069.107404210743
 20
7914.328632945309
 30
0.0
 11
4069.107404210743
 21
7945.638791597476
 31
0.0
  0
LINE
  5
1468F
330
747D
100
AcDbEntity
  8
寸法
 48
50.0
100
AcDbLine
 10
4017.70139630064
 20
7914.328632945309
 30
0.0
 11
4069.107404210743
 21
7914.328632945309
 31
0.0
  0
LINE
  5
14690
330
747D
100
AcDbEntity
  8
寸法
 48
50.0
100
AcDbLine
 10
4348.272938487601
 20
7971.474223700131
 30
0.0
 11
4348.272938487601
 21
7917.810589118342
 31
0.0
  0
LINE
  5
14691
330
747D
100
AcDbEntity
  8
寸法
 48
50.0
100
AcDbLine
 10
4437.557157083023
 20
7947.550589430647
 30
0.0
 11
4348.272938487601
 21
7971.474223700131
 31
0.0
  0
LINE
  5
14692
330
747D
100
AcDbEntity
  8
寸法
 48
50.0
100
AcDbLine
 10
4218.405216907298
 20
7947.550589430647
 30
0.0
 11
4437.557157083023
 21
7947.550589430647
 31
0.0
  0
LINE
  5
14693
330
747D
100
AcDbEntity
  8
細線
 48
50.0
100
AcDbLine
 10
5094.904397928903
 20
8112.791996325171
 30
0.0
 11
5721.904397928899
 21
8112.791996325171
 31
0.0
  0
LINE
  5
14694
330
747D
100
AcDbEntity
  8
細線
 48
50.0
100
AcDbLine
 10
4440.904402582488
 20
8079.083227771096
 30
0.0
 11
5721.904397928899
 21
8079.083227771096
 31
0.0
  0
LINE
  5
14695
330
747D
100
AcDbEntity
  8
細線
 48
50.0
100
AcDbLine
 10
4399.904402582492
 20
8108.48813576735
 30
0.0
 11
3645.904397928899
 21
8108.488135767345
 31
0.0
  0
LINE
  5
14696
330
747D
100
AcDbEntity
  8
細線
100
AcDbLine
 10
5497.654388512443
 20
8132.291896290182
 30
0.0
 11
5499.985928034252
 21
8137.291898930142
 31
0.0
  0
LINE
  5
14697
330
747D
100
AcDbEntity
  8
細線
100
AcDbLine
 10
5567.6543979289
 20
8132.291881376445
 30
0.0
 11
5565.322851452712
 21
8137.291898930127
 31
0.0
  0
LINE
  5
14698
330
747D
100
AcDbEntity
  8
細線
100
AcDbLine
 10
5565.322851452712
 20
8137.291898930127
 30
0.0
 11
5499.985928034237
 21
8137.291898930113
 31
0.0
  0
LINE
  5
14699
330
747D
100
AcDbEntity
  8
細線
100
AcDbLine
 10
5425.322851452713
 20
8137.291898930127
 30
0.0
 11
5359.985928034237
 21
8137.291898930113
 31
0.0
  0
LINE
  5
1469A
330
747D
100
AcDbEntity
  8
細線
100
AcDbLine
 10
5427.6543979289
 20
8132.291881376445
 30
0.0
 11
5425.322851452713
 21
8137.291898930127
 31
0.0
  0
LINE
  5
1469B
330
747D
100
AcDbEntity
  8
細線
100
AcDbLine
 10
5357.654388512443
 20
8132.291896290182
 30
0.0
 11
5359.985928034252
 21
8137.291898930142
 31
0.0
  0
LINE
  5
1469C
330
747D
100
AcDbEntity
  8
細線
100
AcDbLine
 10
5217.6543979289
 20
8132.291881376445
 30
0.0
 11
5219.985937450712
 21
8137.291884016407
 31
0.0
  0
LINE
  5
1469D
330
747D
100
AcDbEntity
  8
細線
100
AcDbLine
 10
5287.65440734536
 20
8132.291866462713
 30
0.0
 11
5285.32286086917
 21
8137.291884016393
 31
0.0
  0
LINE
  5
1469E
330
747D
100
AcDbEntity
  8
細線
100
AcDbLine
 10
5285.322860869174
 20
8137.291884016393
 30
0.0
 11
5219.985937450697
 21
8137.291884016379
 31
0.0
  0
LINE
  5
1469F
330
747D
100
AcDbEntity
  8
細線
100
AcDbLine
 10
4990.072882118006
 20
8103.291920713775
 30
0.0
 11
4924.735958699531
 21
8103.291920713761
 31
0.0
  0
LINE
  5
146A0
330
747D
100
AcDbEntity
  8
細線
100
AcDbLine
 10
4992.404428594194
 20
8098.291903160093
 30
0.0
 11
4990.072882118006
 21
8103.291920713775
 31
0.0
  0
LINE
  5
146A1
330
747D
100
AcDbEntity
  8
細線
100
AcDbLine
 10
4922.404419177737
 20
8098.291918073828
 30
0.0
 11
4924.735958699546
 21
8103.29192071379
 31
0.0
  0
LINE
  5
146A2
330
747D
100
AcDbEntity
  8
細線
 48
50.0
100
AcDbLine
 10
4763.787777176913
 20
8116.562744529527
 30
0.0
 11
4769.543294759581
 21
8098.291893239041
 31
0.0
  0
LINE
  5
146A3
330
747D
100
AcDbEntity
  8
細線
 48
50.0
100
AcDbLine
 10
4752.859328696483
 20
8116.562744529527
 30
0.0
 11
4763.787777176913
 21
8116.562744529527
 31
0.0
  0
ARC
  5
146A4
330
747D
100
AcDbEntity
  8
細線
 48
50.0
100
AcDbCircle
 10
4747.404972639161
 20
8118.062744529527
 30
0.0
 40
5.0
100
AcDbArc
 50
204.6243183521251
 51
335.375681647875
  0
ARC
  5
146A5
330
747D
100
AcDbEntity
  8
細線
 48
50.0
100
AcDbCircle
 10
4752.859328696483
 20
8115.562744529526
 30
0.0
 40
1.0
100
AcDbArc
 50
90.0
 51
155.3756816478749
  0
ARC
  5
146A6
330
747D
100
AcDbEntity
  8
細線
 48
50.0
100
AcDbCircle
 10
4741.950616581847
 20
8115.562744529526
 30
0.0
 40
1.0
100
AcDbArc
 50
24.62431835212505
 51
90.0
  0
LINE
  5
146A7
330
747D
100
AcDbEntity
  8
細線
 48
50.0
100
AcDbLine
 10
4731.022168101413
 20
8116.562744529527
 30
0.0
 11
4741.950616581847
 21
8116.562744529527
 31
0.0
  0
LINE
  5
146A8
330
747D
100
AcDbEntity
  8
細線
 48
50.0
100
AcDbLine
 10
4725.266650518745
 20
8098.291893239034
 30
0.0
 11
4731.022168101413
 21
8116.562744529527
 31
0.0
  0
LINE
  5
146A9
330
747D
100
AcDbEntity
  8
細線
100
AcDbLine
 10
4782.404420408777
 20
8098.291890604837
 30
0.0
 11
4784.73595993059
 21
8103.291893244797
 31
0.0
  0
LINE
  5
146AA
330
747D
100
AcDbEntity
  8
細線
100
AcDbLine
 10
4852.404429825238
 20
8098.291875691101
 30
0.0
 11
4850.072883349048
 21
8103.291893244783
 31
0.0
  0
LINE
  5
146AB
330
747D
100
AcDbEntity
  8
細線
100
AcDbLine
 10
4850.072883349048
 20
8103.291893244783
 30
0.0
 11
4784.735959930575
 21
8103.291893244769
 31
0.0
  0
LINE
  5
146AC
330
747D
100
AcDbEntity
  8
細線
100
AcDbLine
 10
4710.07285498453
 20
8103.291893239005
 30
0.0
 11
4644.735931566055
 21
8103.291893238989
 31
0.0
  0
LINE
  5
146AD
330
747D
100
AcDbEntity
  8
細線
100
AcDbLine
 10
4712.404401460718
 20
8098.291875685324
 30
0.0
 11
4710.07285498453
 21
8103.291893239005
 31
0.0
  0
LINE
  5
146AE
330
747D
100
AcDbEntity
  8
細線
100
AcDbLine
 10
4642.404393275302
 20
8098.291893239034
 30
0.0
 11
4644.73593156607
 21
8103.291893239019
 31
0.0
  0
LINE
  5
146AF
330
747D
100
AcDbEntity
  8
細線
100
AcDbLine
 10
4502.404428594194
 20
8098.291901426403
 30
0.0
 11
4504.735966884961
 21
8103.291901426388
 31
0.0
  0
LINE
  5
146B0
330
747D
100
AcDbEntity
  8
細線
100
AcDbLine
 10
4572.404436779609
 20
8098.291883872693
 30
0.0
 11
4570.072890303422
 21
8103.29190142637
 31
0.0
  0
LINE
  5
146B1
330
747D
100
AcDbEntity
  8
細線
100
AcDbLine
 10
4570.072890303422
 20
8103.29190142637
 30
0.0
 11
4504.735966884946
 21
8103.291901426358
 31
0.0
  0
LINE
  5
146B2
330
747D
100
AcDbEntity
  8
細線
100
AcDbLine
 10
4130.904394397073
 20
8064.292073107116
 30
0.0
 11
4133.23593268784
 21
8069.292073107101
 31
0.0
  0
LINE
  5
146B3
330
747D
100
AcDbEntity
  8
細線
100
AcDbLine
 10
4200.904402582488
 20
8064.292055553401
 30
0.0
 11
4198.572856106301
 21
8069.292073107078
 31
0.0
  0
LINE
  5
146B4
330
747D
100
AcDbEntity
  8
細線
100
AcDbLine
 10
4198.572856106301
 20
8069.292073107078
 30
0.0
 11
4133.23593268783
 21
8069.292073107071
 31
0.0
  0
LINE
  5
146B5
330
747D
100
AcDbEntity
  8
細線
100
AcDbLine
 10
4338.572856106302
 20
8069.292073107078
 30
0.0
 11
4273.235932687829
 21
8069.292073107071
 31
0.0
  0
LINE
  5
146B6
330
747D
100
AcDbEntity
  8
細線
100
AcDbLine
 10
4340.904402582489
 20
8064.292055553401
 30
0.0
 11
4338.572856106302
 21
8069.292073107078
 31
0.0
  0
LINE
  5
146B7
330
747D
100
AcDbEntity
  8
細線
100
AcDbLine
 10
4270.904394397073
 20
8064.292073107116
 30
0.0
 11
4273.23593268784
 21
8069.292073107101
 31
0.0
  0
LINE
  5
146B8
330
747D
100
AcDbEntity
  8
細線
100
AcDbLine
 10
4058.572856106301
 20
8069.292073107078
 30
0.0
 11
3993.23593268783
 21
8069.292073107069
 31
0.0
  0
LINE
  5
146B9
330
747D
100
AcDbEntity
  8
細線
100
AcDbLine
 10
4060.904402582488
 20
8064.292055553401
 30
0.0
 11
4058.572856106301
 21
8069.292073107078
 31
0.0
  0
LINE
  5
146BA
330
747D
100
AcDbEntity
  8
細線
100
AcDbLine
 10
3990.904394397073
 20
8064.292073107111
 30
0.0
 11
3993.235932687841
 21
8069.292073107098
 31
0.0
  0
LINE
  5
146BB
330
747D
100
AcDbEntity
  8
細線
100
AcDbLine
 10
3850.904402582489
 20
8064.292073107116
 30
0.0
 11
3853.235940873257
 21
8069.292073107101
 31
0.0
  0
LINE
  5
146BC
330
747D
100
AcDbEntity
  8
細線
100
AcDbLine
 10
3920.904410767905
 20
8064.292055553401
 30
0.0
 11
3918.572864291718
 21
8069.292073107078
 31
0.0
  0
LINE
  5
146BD
330
747D
100
AcDbEntity
  8
細線
100
AcDbLine
 10
3918.572864291718
 20
8069.292073107078
 30
0.0
 11
3853.235940873246
 21
8069.292073107071
 31
0.0
  0
ARC
  5
146BE
330
747D
100
AcDbEntity
  8
部品1
 48
0.01
100
AcDbCircle
 10
3806.404291330153
 20
8063.290950922043
 30
0.0
 40
0.5
100
AcDbArc
 50
270.0
 51
0.0
  0
LINE
  5
146BF
330
747D
100
AcDbEntity
  8
部品1
 48
0.01
100
AcDbLine
 10
3806.904291330154
 20
8064.290950922043
 30
0.0
 11
3806.904291330154
 21
8063.290950922043
 31
0.0
  0
LINE
  5
146C0
330
747D
100
AcDbEntity
  8
部品1
 48
0.01
100
AcDbLine
 10
3806.904291330154
 20
8064.290950922043
 30
0.0
 11
3806.904291330154
 21
8063.290950922043
 31
0.0
  0
LINE
  5
146C1
330
747D
100
AcDbEntity
  8
部品1
 48
0.01
100
AcDbLine
 10
3806.404291330153
 20
8062.790950922043
 30
0.0
 11
3799.791785900089
 21
8062.790950922043
 31
0.0
  0
ARC
  5
146C2
330
747D
100
AcDbEntity
  8
部品1
100
AcDbCircle
 10
3799.86013545287
 20
8063.790950922042
 30
0.0
 40
1.0
100
AcDbArc
 50
160.5287793655822
 51
270.0
  0
ARC
  5
146C3
330
747D
100
AcDbEntity
  8
部品1
100
AcDbCircle
 10
3774.404291330153
 20
8072.790950922042
 30
0.0
 40
26.0
100
AcDbArc
 50
340.5287793655822
 51
0.0
  0
LINE
  5
146C4
330
747D
100
AcDbEntity
  8
部品1
100
AcDbLine
 10
3800.404291330154
 20
8072.790950922042
 30
0.0
 11
3800.404291330154
 21
8077.790950922041
 31
0.0
  0
ARC
  5
146C5
330
747D
100
AcDbEntity
  8
部品1
 48
0.01
100
AcDbCircle
 10
3798.404291330154
 20
8077.790950922041
 30
0.0
 40
2.0
100
AcDbArc
 50
0.0
 51
90.0
  0
ARC
  5
146C6
330
747D
100
AcDbEntity
  8
部品1
100
AcDbCircle
 10
3796.795899705344
 20
8076.790950922044
 30
0.0
 40
3.0
100
AcDbArc
 50
90.0
 51
141.6069559807873
  0
LINE
  5
146C7
330
747D
100
AcDbEntity
  8
部品1
 48
0.01
100
AcDbLine
 10
3798.404291330154
 20
8079.790950922044
 30
0.0
 11
3796.795899705344
 21
8079.790950922044
 31
0.0
  0
ARC
  5
146C8
330
747D
100
AcDbEntity
  8
部品1
100
AcDbCircle
 10
3778.333577115883
 20
8076.090950922045
 30
0.0
 40
3.0
100
AcDbArc
 50
254.0576313943215
 51
270.0
  0
ARC
  5
146C9
330
747D
100
AcDbEntity
  8
部品1
100
AcDbCircle
 10
3785.475005544425
 20
8076.090950922045
 30
0.0
 40
3.0
100
AcDbArc
 50
270.0
 51
285.9423686056786
  0
LINE
  5
146CA
330
747D
100
AcDbEntity
  8
部品1
100
AcDbLine
 10
3785.475005544425
 20
8073.090950922045
 30
0.0
 11
3778.333577115883
 21
8073.090950922045
 31
0.0
  0
ARC
  5
146CB
330
747D
100
AcDbEntity
  8
部品1
100
AcDbCircle
 10
3781.904291330154
 20
8088.590950922045
 30
0.0
 40
16.0
100
AcDbArc
 50
285.9423686056786
 51
321.6069559807873
  0
LINE
  5
146CC
330
747D
100
AcDbEntity
  8
部品1
 48
0.01
100
AcDbLine
 10
3765.404291330154
 20
8079.790950922044
 30
0.0
 11
3767.012682954964
 21
8079.790950922044
 31
0.0
  0
ARC
  5
146CD
330
747D
100
AcDbEntity
  8
部品1
100
AcDbCircle
 10
3767.012682954964
 20
8076.790950922044
 30
0.0
 40
3.0
100
AcDbArc
 50
38.39304401921267
 51
90.0
  0
ARC
  5
146CE
330
747D
100
AcDbEntity
  8
部品1
100
AcDbCircle
 10
3781.904291330154
 20
8088.590950922045
 30
0.0
 40
16.0
100
AcDbArc
 50
218.3930440192126
 51
254.0576313943215
  0
LINE
  5
146CF
330
747D
100
AcDbEntity
  8
部品1
100
AcDbLine
 10
3763.404291330154
 20
8072.790950922042
 30
0.0
 11
3763.404291330154
 21
8077.790950922041
 31
0.0
  0
ARC
  5
146D0
330
747D
100
AcDbEntity
  8
部品1
 48
0.01
100
AcDbCircle
 10
3765.404291330154
 20
8077.790950922041
 30
0.0
 40
2.0
100
AcDbArc
 50
90.0
 51
180.0
  0
ARC
  5
146D1
330
747D
100
AcDbEntity
  8
部品1
100
AcDbCircle
 10
3789.404291330154
 20
8072.790950922042
 30
0.0
 40
26.0
100
AcDbArc
 50
180.0
 51
199.4712206344178
  0
ARC
  5
146D2
330
747D
100
AcDbEntity
  8
部品1
 48
0.01
100
AcDbCircle
 10
3757.404291330154
 20
8063.290950922043
 30
0.0
 40
0.5
100
AcDbArc
 50
180.0
 51
270.0
  0
LINE
  5
146D3
330
747D
100
AcDbEntity
  8
部品1
 48
0.01
100
AcDbLine
 10
3757.404291330154
 20
8062.790950922043
 30
0.0
 11
3763.948447207437
 21
8062.790950922043
 31
0.0
  0
LINE
  5
146D4
330
747D
100
AcDbEntity
  8
部品1
 48
0.01
100
AcDbLine
 10
3756.904291330154
 20
8064.290950922043
 30
0.0
 11
3756.904291330154
 21
8063.290950922043
 31
0.0
  0
ARC
  5
146D5
330
747D
100
AcDbEntity
  8
部品1
100
AcDbCircle
 10
3763.948447207437
 20
8063.790950922042
 30
0.0
 40
1.0
100
AcDbArc
 50
270.0
 51
19.4712206344178
  0
LINE
  5
146D6
330
747D
100
AcDbEntity
  8
細線
100
AcDbLine
 10
3802.404291330161
 20
8082.290950922047
 30
0.0
 11
3761.404291330161
 21
8082.29095092204
 31
0.0
  0
LINE
  5
146D7
330
747D
100
AcDbEntity
  8
細線
100
AcDbLine
 10
3761.404291330161
 20
8082.29095092204
 30
0.0
 11
3761.404291330161
 21
8064.290950922019
 31
0.0
  0
LINE
  5
146D8
330
747D
100
AcDbEntity
  8
細線
100
AcDbLine
 10
3802.404291330161
 20
8082.290950922047
 30
0.0
 11
3802.404291330161
 21
8064.290950922019
 31
0.0
  0
LINE
  5
146D9
330
747D
100
AcDbEntity
  8
細線
100
AcDbLine
 10
3645.904397928899
 20
8068.291881376445
 30
0.0
 11
3645.904397928899
 21
8064.291881376494
 31
0.0
  0
DIMENSION
  5
146DA
330
747D
100
AcDbEntity
  8
寸法
 48
50.0
100
AcDbDimension
  2
*D34
 10
4911.904397928899
 20
7384.289987085067
 30
0.0
 11
4289.299804419919
 21
7384.289987085067
 31
0.0
 70
   160
  1
有効開口部間口\P<>
 71
     5
 42
1266.0
  3
INABA_S40
100
AcDbAlignedDimension
 13
3645.904397928899
 23
8059.291881376447
 33
0.0
 14
4911.904397928899
 24
8059.291881376447
 34
0.0
100
AcDbRotatedDimension
1001
ACAD
1000
DSTYLE
1002
{
1070
    41
1040
0.5
1070
    44
1040
1.0
1070
   147
1040
0.8
1070
   271
1070
     2
1070
   272
1070
     2
1070
   340
1005
F706
1070
   341
1005
F744
1070
   343
1005
F744
1070
   344
1005
F744
1002
}
  0
LINE
  5
146DB
330
747D
100
AcDbEntity
  8
部品1
100
AcDbLine
 10
5733.904397928899
 20
8136.291881376445
 30
0.0
 11
5760.904397928899
 21
8136.291881376447
 31
0.0
  0
LINE
  5
146DD
330
747D
100
AcDbEntity
  8
部品1
100
AcDbLine
 10
5760.904397928899
 20
8059.291881376447
 30
0.0
 11
5760.904397928899
 21
8136.291881376447
 31
0.0
  0
LINE
  5
146DE
330
747D
100
AcDbEntity
  8
部品1
100
AcDbLine
 10
5721.904397928899
 20
8132.291881376445
 30
0.0
 11
5733.904397928899
 21
8132.291881376445
 31
0.0
  0
LINE
  5
146DF
330
747D
100
AcDbEntity
  8
部品1
100
AcDbLine
 10
5730.904397928899
 20
8068.291881376445
 30
0.0
 11
5730.904397928899
 21
8059.291881376447
 31
0.0
  0
LINE
  5
146E0
330
747D
100
AcDbEntity
  8
部品1
100
AcDbLine
 10
5721.904397928899
 20
8068.291881376445
 30
0.0
 11
5730.904397928899
 21
8068.291881376445
 31
0.0
  0
LINE
  5
146E1
330
747D
100
AcDbEntity
  8
部品1
100
AcDbLine
 10
5721.904397928899
 20
8132.291881376445
 30
0.0
 11
5721.904397928899
 21
8068.291881376445
 31
0.0
  0
LINE
  5
146E2
330
747D
100
AcDbEntity
  8
部品1
100
AcDbLine
 10
5733.904397928899
 20
8163.291881376448
 30
0.0
 11
5733.904397928899
 21
8132.291881376445
 31
0.0
  0
LINE
  5
146E3
330
747D
100
AcDbEntity
  8
部品1
100
AcDbLine
 10
3645.904397928899
 20
8132.291881376445
 30
0.0
 11
3633.904397928899
 21
8132.291881376445
 31
0.0
  0
LINE
  5
146E4
330
747D
100
AcDbEntity
  8
部品1
100
AcDbLine
 10
3606.904397928899
 20
8136.291881376447
 30
0.0
 11
3633.904397928898
 21
8136.291881376447
 31
0.0
  0
LINE
  5
146E5
330
747D
100
AcDbEntity
  8
部品1
100
AcDbLine
 10
3636.904397928899
 20
8068.291881376445
 30
0.0
 11
3636.904397928899
 21
8059.291881376447
 31
0.0
  0
LINE
  5
146E6
330
747D
100
AcDbEntity
  8
部品1
100
AcDbLine
 10
3645.904397928899
 20
8068.291881376445
 30
0.0
 11
3636.904397928899
 21
8068.291881376445
 31
0.0
  0
LINE
  5
146E7
330
747D
100
AcDbEntity
  8
部品1
100
AcDbLine
 10
3636.904397928899
 20
8059.291881376447
 30
0.0
 11
3606.904397928899
 21
8059.291881376447
 31
0.0
  0
LINE
  5
146E8
330
747D
100
AcDbEntity
  8
部品1
100
AcDbLine
 10
3606.904397928899
 20
8059.291881376447
 30
0.0
 11
3606.904397928899
 21
8136.291881376447
 31
0.0
  0
LINE
  5
146E9
330
747D
100
AcDbEntity
  8
部品1
100
AcDbLine
 10
3645.904397928899
 20
8132.291881376445
 30
0.0
 11
3645.904397928899
 21
8068.291881376445
 31
0.0
  0
LINE
  5
146EA
330
747D
100
AcDbEntity
  8
部品1
100
AcDbLine
 10
3633.904397928898
 20
8163.291881376443
 30
0.0
 11
3633.904397928899
 21
8132.291881376445
 31
0.0
  0
LINE
  5
146EB
330
747D
100
AcDbEntity
  8
部品1
100
AcDbLine
 10
3633.904397928898
 20
8163.291881376443
 30
0.0
 11
5733.904397928899
 21
8163.291881376448
 31
0.0
  0
LINE
  5
146EC
330
747D
100
AcDbEntity
  8
部品1
100
AcDbLine
 10
5730.904397928899
 20
8059.291881376447
 30
0.0
 11
5760.904397928899
 21
8059.291881376447
 31
0.0
  0
LINE
  5
146ED
330
747D
100
AcDbEntity
  8
部品1
100
AcDbLine
 10
3636.904397928899
 20
8059.291881376447
 30
0.0
 11
5733.904397928899
 21
8059.291881376447
 31
0.0
  0
LINE
  5
146EE
330
747D
100
AcDbEntity
  8
細線
  6
Continuous
 62
     5
100
AcDbLine
 10
5012.904397928902
 20
8098.291881376443
 30
0.0
 11
5012.904397928902
 21
8098.291881376443
 31
0.0
  0
LINE
  5
146EF
330
747D
100
AcDbEntity
  8
細線
  6
Continuous
 62
     5
100
AcDbLine
 10
5005.404433247794
 20
8098.291891297501
 30
0.0
 11
5005.404433247794
 21
8098.291891297501
 31
0.0
  0
LINE
  5
146F0
330
747D
100
AcDbEntity
  8
細線
  6
Continuous
 62
     5
100
AcDbLine
 10
4999.404433247794
 20
8098.291891297501
 30
0.0
 11
4999.404433247794
 21
8098.291891297501
 31
0.0
  0
LINE
  5
146F1
330
747D
100
AcDbEntity
  8
細線
  6
Continuous
 62
     5
100
AcDbLine
 10
5066.904397928903
 20
8117.291881376443
 30
0.0
 11
5066.904397928903
 21
8117.291881376443
 31
0.0
  0
LINE
  5
146F2
330
747D
100
AcDbEntity
  8
細線
 48
50.0
100
AcDbLine
 10
3659.904402582493
 20
8084.892055553401
 30
0.0
 11
3659.904402582493
 21
8093.288205961041
 31
0.0
  0
LINE
  5
146F3
330
747D
100
AcDbEntity
  8
細線
 48
50.0
100
AcDbLine
 10
3659.904402582493
 20
8093.288205961041
 30
0.0
 11
3645.904397928899
 21
8093.288205961036
 31
0.0
  0
LINE
  5
146F4
330
747D
100
AcDbEntity
  8
細線
 48
50.0
100
AcDbLine
 10
4410.904402582488
 20
8081.442055553401
 30
0.0
 11
4410.904402582488
 21
8086.292055553402
 31
0.0
  0
LINE
  5
146F5
330
747D
100
AcDbEntity
  8
細線
 48
50.0
100
AcDbLine
 10
4410.904402582488
 20
8086.292055553402
 30
0.0
 11
4425.904402582488
 21
8086.292055553402
 31
0.0
  0
LINE
  5
146F6
330
747D
100
AcDbEntity
  8
細線
 48
50.0
100
AcDbLine
 10
4425.904402582488
 20
8086.292055553402
 30
0.0
 11
4425.904402582492
 21
8093.292055553403
 31
0.0
  0
LINE
  5
146F7
330
747D
100
AcDbEntity
  8
細線
 48
50.0
100
AcDbLine
 10
4425.904402582492
 20
8093.292055553403
 30
0.0
 11
4440.904402582488
 21
8093.292055553403
 31
0.0
  0
LINE
  5
146F8
330
747D
100
AcDbEntity
  8
細線
 48
50.0
100
AcDbLine
 10
4440.904402582488
 20
8093.292055553403
 30
0.0
 11
4440.904402582488
 21
8064.292055553401
 31
0.0
  0
LINE
  5
146F9
330
747D
100
AcDbEntity
  8
細線
 48
50.0
100
AcDbLine
 10
3636.904397928899
 20
8064.28938989687
 30
0.0
 11
3850.904402582489
 21
8064.292073107116
 31
0.0
  0
LINE
  5
146FA
330
747D
100
AcDbEntity
  8
細線
 48
50.0
100
AcDbLine
 10
4340.904402582489
 20
8064.292055553401
 30
0.0
 11
4440.904402582488
 21
8064.292055553401
 31
0.0
  0
LINE
  5
146FB
330
747D
100
AcDbEntity
  8
細線
 48
50.0
100
AcDbLine
 10
4060.904402582488
 20
8064.292055553401
 30
0.0
 11
4130.904402582489
 21
8064.292055553401
 31
0.0
  0
LINE
  5
146FC
330
747D
100
AcDbEntity
  8
細線
 48
50.0
100
AcDbLine
 10
4073.766367595018
 20
8064.292055553401
 30
0.0
 11
4079.521885177685
 21
8082.562906843895
 31
0.0
  0
LINE
  5
146FD
330
747D
100
AcDbEntity
  8
細線
 48
50.0
100
AcDbLine
 10
4079.521885177685
 20
8082.562906843895
 30
0.0
 11
4090.450333658119
 21
8082.562906843893
 31
0.0
  0
ARC
  5
146FE
330
747D
100
AcDbEntity
  8
細線
 48
50.0
100
AcDbCircle
 10
4090.450333658119
 20
8081.562906843892
 30
0.0
 40
1.0
100
AcDbArc
 50
24.62431835212505
 51
90.0
  0
ARC
  5
146FF
330
747D
100
AcDbEntity
  8
細線
 48
50.0
100
AcDbCircle
 10
4101.359045772752
 20
8081.562906843892
 30
0.0
 40
1.0
100
AcDbArc
 50
90.0
 51
155.3756816478749
  0
ARC
  5
14700
330
747D
100
AcDbEntity
  8
細線
 48
50.0
100
AcDbCircle
 10
4095.904689715434
 20
8084.062906843893
 30
0.0
 40
5.0
100
AcDbArc
 50
204.6243183521251
 51
335.375681647875
  0
LINE
  5
14701
330
747D
100
AcDbEntity
  8
細線
 48
50.0
100
AcDbLine
 10
4101.359045772752
 20
8082.562906843893
 30
0.0
 11
4112.287494253187
 21
8082.562906843895
 31
0.0
  0
LINE
  5
14702
330
747D
100
AcDbEntity
  8
細線
 48
50.0
100
AcDbLine
 10
4112.287494253187
 20
8082.562906843895
 30
0.0
 11
4118.043011835854
 21
8064.292055553401
 31
0.0
  0
LINE
  5
14703
330
747D
100
AcDbEntity
  8
細線
 48
50.0
100
AcDbLine
 10
4410.904402582488
 20
8084.892055553401
 30
0.0
 11
3659.904402582493
 21
8084.892055553401
 31
0.0
  0
LINE
  5
14704
330
747D
100
AcDbEntity
  8
細線
 48
50.0
100
AcDbLine
 10
4270.904402582488
 20
8064.292055553401
 30
0.0
 11
4200.904402582488
 21
8064.292055553401
 31
0.0
  0
LINE
  5
14705
330
747D
100
AcDbEntity
  8
細線
100
AcDbLine
 10
3990.904402582489
 20
8064.292055553401
 30
0.0
 11
3920.904410767905
 21
8064.292055553401
 31
0.0
  0
LINE
  5
14706
330
747D
100
AcDbEntity
  8
細線
 48
50.0
100
AcDbLine
 10
5064.904393275313
 20
8118.892099411269
 30
0.0
 11
4429.904402582489
 21
8118.892099411265
 31
0.0
  0
LINE
  5
14707
330
747D
100
AcDbEntity
  8
細線
 48
50.0
100
AcDbLine
 10
4429.904402582489
 20
8115.788249818908
 30
0.0
 11
4429.904402582489
 21
8120.288249818909
 31
0.0
  0
LINE
  5
14708
330
747D
100
AcDbEntity
  8
細線
 48
50.0
100
AcDbLine
 10
4429.904402582489
 20
8120.288249818909
 30
0.0
 11
4414.904402582489
 21
8120.288249818909
 31
0.0
  0
LINE
  5
14709
330
747D
100
AcDbEntity
  8
細線
 48
50.0
100
AcDbLine
 10
4414.904402582489
 20
8120.288249818909
 30
0.0
 11
4414.904402582489
 21
8127.288249818908
 31
0.0
  0
LINE
  5
1470A
330
747D
100
AcDbEntity
  8
細線
 48
50.0
100
AcDbLine
 10
4414.904402582489
 20
8127.288249818908
 30
0.0
 11
4399.904402582492
 21
8127.288249818905
 31
0.0
  0
LINE
  5
1470B
330
747D
100
AcDbEntity
  8
細線
 48
50.0
100
AcDbLine
 10
4399.904402582492
 20
8127.288249818905
 30
0.0
 11
4399.904402582492
 21
8089.688021715794
 31
0.0
  0
LINE
  5
1470C
330
747D
100
AcDbEntity
  8
細線
 48
50.0
100
AcDbLine
 10
4399.904402582492
 20
8089.688021715794
 30
0.0
 11
4419.904409883665
 21
8089.688063265336
 31
0.0
  0
LINE
  5
1470D
330
747D
100
AcDbEntity
  8
細線
 48
50.0
100
AcDbLine
 10
4419.904365014722
 20
8098.291524901144
 30
0.0
 11
4419.904409883665
 21
8089.688063265336
 31
0.0
  0
LINE
  5
1470E
330
747D
100
AcDbEntity
  8
細線
 48
50.0
100
AcDbLine
 10
5064.904393275313
 20
8115.442099411268
 30
0.0
 11
5064.904393275313
 21
8120.292099411265
 31
0.0
  0
LINE
  5
1470F
330
747D
100
AcDbEntity
  8
細線
 48
50.0
100
AcDbLine
 10
5064.904393275313
 20
8120.292099411265
 30
0.0
 11
5079.90439327531
 21
8120.292099411265
 31
0.0
  0
LINE
  5
14710
330
747D
100
AcDbEntity
  8
細線
 48
50.0
100
AcDbLine
 10
5079.90439327531
 20
8120.292099411265
 30
0.0
 11
5079.904404909285
 21
8127.292099411311
 31
0.0
  0
LINE
  5
14711
330
747D
100
AcDbEntity
  8
細線
 48
50.0
100
AcDbLine
 10
5079.904404909285
 20
8127.292099411311
 30
0.0
 11
5094.904403079815
 21
8127.292099411311
 31
0.0
  0
LINE
  5
14712
330
747D
100
AcDbEntity
  8
細線
 48
50.0
100
AcDbLine
 10
5094.904403079815
 20
8127.292099411311
 30
0.0
 11
5094.904392777994
 21
8098.291893239036
 31
0.0
  0
LINE
  5
14713
330
747D
100
AcDbEntity
  8
細線
 48
50.0
100
AcDbLine
 10
4782.404420408777
 20
8098.291901426403
 30
0.0
 11
4712.404672491194
 21
8098.291895989065
 31
0.0
  0
LINE
  5
14714
330
747D
100
AcDbEntity
  8
細線
 48
50.0
100
AcDbLine
 10
4419.904365014722
 20
8098.291524901144
 30
0.0
 11
4431.137054369433
 21
8098.291707854292
 31
0.0
  0
ARC
  5
14715
330
747D
100
AcDbEntity
  8
細線
 48
50.0
100
AcDbCircle
 10
4437.719346676768
 20
8097.091871767904
 30
0.0
 40
1.8
100
AcDbArc
 50
270.0006665777295
 51
345.0005554812987
  0
LINE
  5
14716
330
747D
100
AcDbEntity
  8
細線
 48
50.0
100
AcDbLine
 10
4439.705780122848
 20
8097.550712225183
 30
0.0
 11
4439.458017680649
 21
8096.626014343076
 31
0.0
  0
LINE
  5
14717
330
747D
100
AcDbEntity
  8
細線
 48
50.0
100
AcDbLine
 10
4437.719367617924
 20
8095.291871768024
 30
0.0
 11
4434.089440199154
 21
8095.291829537544
 31
0.0
  0
ARC
  5
14718
330
747D
100
AcDbEntity
  8
細線
 48
50.0
100
AcDbCircle
 10
4434.089419258003
 20
8097.091829537424
 30
0.0
 40
1.8
100
AcDbArc
 50
195.0010443049461
 51
270.0006665777295
  0
LINE
  5
14719
330
747D
100
AcDbEntity
  8
細線
 48
50.0
100
AcDbLine
 10
4432.102991765744
 20
8097.550544504988
 30
0.0
 11
4432.350761262257
 21
8096.625923566405
 31
0.0
  0
ARC
  5
1471A
330
747D
100
AcDbEntity
  8
細線
 48
50.0
100
AcDbCircle
 10
4431.137070656995
 20
8097.291707854425
 30
0.0
 40
1.0
100
AcDbArc
 50
15.00104430494617
 51
90.00093320877969
  0
LINE
  5
1471B
330
747D
100
AcDbEntity
  8
細線
 48
50.0
100
AcDbLine
 10
4440.671701477951
 20
8098.291902544696
 30
0.0
 11
4441.613461628855
 21
8098.291909118545
 31
0.0
  0
ARC
  5
1471C
330
747D
100
AcDbEntity
  8
細線
 48
50.0
100
AcDbCircle
 10
4440.671708458337
 20
8097.291902544721
 30
0.0
 40
1.0
100
AcDbArc
 50
90.0003999466794
 51
165.0005554812987
  0
LINE
  5
1471D
330
747D
100
AcDbEntity
  8
細線
 48
50.0
100
AcDbLine
 10
4992.404393275302
 20
8098.291893239036
 30
0.0
 11
5094.904392777994
 21
8098.291893239036
 31
0.0
  0
LINE
  5
1471E
330
747D
100
AcDbEntity
  8
細線
 48
50.0
100
AcDbLine
 10
4502.404428594194
 20
8098.291901426403
 30
0.0
 11
4441.304367367274
 21
8098.291909118545
 31
0.0
  0
LINE
  5
1471F
330
747D
100
AcDbEntity
  8
細線
 48
50.0
100
AcDbLine
 10
4922.404428594194
 20
8098.291938267484
 30
0.0
 11
4852.404421639808
 21
8098.291893244818
 31
0.0
  0
LINE
  5
14720
330
747D
100
AcDbEntity
  8
細線
 48
50.0
100
AcDbLine
 10
4642.404393275302
 20
8098.291893239034
 30
0.0
 11
4572.404375987427
 21
8098.291893239041
 31
0.0
  0
ARC
  5
14721
330
747D
100
AcDbEntity
  8
細線
 48
50.0
100
AcDbCircle
 10
5079.104397928911
 20
8131.491881376447
 30
0.0
 40
0.8
100
AcDbArc
 50
359.9997333689499
 51
89.99986668437072
  0
ARC
  5
14722
330
747D
100
AcDbEntity
  8
細線
 48
50.0
100
AcDbCircle
 10
5086.704404754005
 20
8131.491892545064
 30
0.0
 40
0.8
100
AcDbArc
 50
90.00014387753465
 51
179.9997333689498
  0
LINE
  5
14723
330
747D
100
AcDbEntity
  8
細線
 48
50.0
100
AcDbLine
 10
5079.104399790344
 20
8132.291881376445
 30
0.0
 11
5073.904397928899
 21
8132.291881376445
 31
0.0
  0
ARC
  5
14724
330
747D
100
AcDbEntity
  8
細線
 48
50.0
100
AcDbCircle
 10
5080.6043979289
 20
8129.991881376447
 30
0.0
 40
0.7
100
AcDbArc
 50
180.0
 51
270.0
  0
ARC
  5
14725
330
747D
100
AcDbEntity
  8
細線
 48
50.0
100
AcDbCircle
 10
5085.204397928902
 20
8129.991881376447
 30
0.0
 40
0.7
100
AcDbArc
 50
270.0
 51
0.0
  0
LINE
  5
14726
330
747D
100
AcDbEntity
  8
細線
 48
50.0
100
AcDbLine
 10
5085.904397928899
 20
8129.991881376447
 30
0.0
 11
5085.904404754017
 21
8131.491896267936
 31
0.0
  0
LINE
  5
14727
330
747D
100
AcDbEntity
  8
細線
 48
50.0
100
AcDbLine
 10
5080.6043979289
 20
8129.291881376445
 30
0.0
 11
5085.204397928902
 21
8129.291881376445
 31
0.0
  0
LINE
  5
14728
330
747D
100
AcDbEntity
  8
細線
 48
50.0
100
AcDbLine
 10
5079.904397928899
 20
8131.491881376447
 30
0.0
 11
5079.904397928899
 21
8129.991881376447
 31
0.0
  0
LINE
  5
14729
330
747D
100
AcDbEntity
  8
細線
 48
50.0
100
AcDbLine
 10
5705.504397928905
 20
8162.291881376447
 30
0.0
 11
5068.904397928899
 21
8162.291881376443
 31
0.0
  0
LINE
  5
1472A
330
747D
100
AcDbEntity
  8
細線
 48
50.0
100
AcDbLine
 10
5731.404397928899
 20
8157.291881376449
 30
0.0
 11
5715.504397928905
 21
8157.291881376446
 31
0.0
  0
LINE
  5
1472B
330
747D
100
AcDbEntity
  8
細線
 48
50.0
100
AcDbLine
 10
5715.504397928901
 20
8157.291881376446
 30
0.0
 11
5705.504397928905
 21
8162.291881376447
 31
0.0
  0
LINE
  5
1472C
330
747D
100
AcDbEntity
  8
細線
100
AcDbLine
 10
5316.404397928899
 20
8132.291881376445
 30
0.0
 11
5316.404397928899
 21
8161.591881376445
 31
0.0
  0
LINE
  5
1472D
330
747D
100
AcDbEntity
  8
細線
100
AcDbLine
 10
5316.404397928899
 20
8161.591881376445
 30
0.0
 11
5336.4043979289
 21
8161.591881376445
 31
0.0
  0
LINE
  5
1472E
330
747D
100
AcDbEntity
  8
細線
100
AcDbLine
 10
5336.4043979289
 20
8132.291881376445
 30
0.0
 11
5336.4043979289
 21
8161.591881376445
 31
0.0
  0
LINE
  5
1472F
330
747D
100
AcDbEntity
  8
細線
100
AcDbLine
 10
5497.6543979289
 20
8132.291881376445
 30
0.0
 11
5427.6543979289
 21
8132.291881376445
 31
0.0
  0
LINE
  5
14730
330
747D
100
AcDbEntity
  8
細線
 48
50.0
100
AcDbLine
 10
5217.6543979289
 20
8132.291881376445
 30
0.0
 11
5086.700177501743
 21
8132.291881376445
 31
0.0
  0
LINE
  5
14731
330
747D
100
AcDbEntity
  8
細線
100
AcDbLine
 10
5357.6543979289
 20
8132.291881376445
 30
0.0
 11
5287.6543979289
 21
8132.291881376445
 31
0.0
  0
LINE
  5
14732
330
747D
100
AcDbEntity
  8
細線
 48
50.0
100
AcDbLine
 10
5073.904397928899
 20
8124.291881376446
 30
0.0
 11
5073.904397928899
 21
8132.291881376445
 31
0.0
  0
LINE
  5
14733
330
747D
100
AcDbEntity
  8
細線
 48
50.0
100
AcDbLine
 10
5053.904397928899
 20
8124.29188137645
 30
0.0
 11
5073.904397928899
 21
8124.291881376446
 31
0.0
  0
LINE
  5
14734
330
747D
100
AcDbEntity
  8
細線
 48
50.0
100
AcDbLine
 10
5068.904397928899
 20
8162.291881376447
 30
0.0
 11
5068.904397928899
 21
8157.291881376446
 31
0.0
  0
LINE
  5
14735
330
747D
100
AcDbEntity
  8
細線
 48
50.0
100
AcDbLine
 10
5053.904397928899
 20
8162.291881376443
 30
0.0
 11
5068.904397928899
 21
8162.291881376447
 31
0.0
  0
LINE
  5
14736
330
747D
100
AcDbEntity
  8
細線
 48
50.0
100
AcDbLine
 10
5053.904397928899
 20
8124.29188137645
 30
0.0
 11
5053.904397928899
 21
8162.291881376443
 31
0.0
  0
LINE
  5
14737
330
747D
100
AcDbEntity
  8
細線
100
AcDbLine
 10
5721.904397928899
 20
8132.291881376445
 30
0.0
 11
5567.6543979289
 21
8132.291881376445
 31
0.0
  0
LINE
  5
14738
330
747D
100
AcDbEntity
  8
細線
 48
50.0
100
AcDbLine
 10
5731.404397928899
 20
8157.291881376449
 30
0.0
 11
5731.404397928899
 21
8132.291881376445
 31
0.0
  0
DIMENSION
  5
149A9
330
747D
100
AcDbEntity
  8
寸法
100
AcDbDimension
  2
*D35
 10
2782.22190146972
 20
8061.291881376414
 30
0.0
 11
2782.221901469719
 21
7920.806600002176
 31
0.0
 70
   160
 71
     5
 42
75.00000000003274
  3
INABA_S40
100
AcDbAlignedDimension
 13
3158.904397928898
 23
8136.291881376447
 33
0.0
 14
3606.904397928899
 24
8061.291881376414
 34
0.0
 50
90.0
100
AcDbRotatedDimension
1001
ACAD
1000
DSTYLE
1002
{
1070
    41
1040
0.5
1070
    44
1040
1.0
1070
   147
1040
0.8
1070
   271
1070
     2
1070
   272
1070
     2
1070
   289
1070
     3
1070
   340
1005
F706
1070
   343
1005
F744
1070
   344
1005
F744
1002
}
  0
DIMENSION
  5
149AA
330
747D
100
AcDbEntity
  8
寸法
 48
50.0
100
AcDbDimension
  2
*D36
 10
5760.904397928899
 20
7100.334873867192
 30
0.0
 11
4661.026398577756
 21
7100.334873867192
 31
0.0
 70
   160
 71
     5
 42
2154.0
  3
INABA_S40G
100
AcDbAlignedDimension
 13
3606.904397928899
 23
8059.291881376447
 33
0.0
 14
5760.904397928899
 24
8059.291881376447
 34
0.0
100
AcDbRotatedDimension
1001
ACAD
1000
DSTYLE
1002
{
1070
   341
1005
0
1002
}
  0
TEXT
  5
14DE7
330
747D
100
AcDbEntity
  8
文字
 62
     7
 48
50.0
100
AcDbText
 10
15022.63965474516
 20
9570.013745883723
 30
0.0
 40
100.0
  1
F12            2.3
  7
STYLE1
100
AcDbText
  0
TEXT
  5
14DEA
330
747D
100
AcDbEntity
  8
文字
 62
     7
 48
50.0
100
AcDbText
 10
13248.77747366447
 20
8210.013745883729
 30
0.0
 40
100.0
  1
18
  7
STYLE1
100
AcDbText
  0
LINE
  5
14DEB
330
747D
100
AcDbEntity
  8
仕様書枠
 48
50.0
100
AcDbLine
 10
16307.19999999999
 20
8179.6
 30
0.0
 11
13127.2
 21
8179.600000000002
 31
0.0
  0
LINE
  5
14E03
330
747D
100
AcDbEntity
  8
部品1
 48
50.0
100
AcDbLine
 10
5763.904400172058
 20
9871.291881376407
 30
0.0
 11
5763.904400172058
 21
9209.791881376407
 31
0.0
  0
LINE
  5
14E04
330
747D
100
AcDbEntity
  8
部品1
 48
50.0
100
AcDbLine
 10
5813.904400172058
 20
9209.791881376407
 30
0.0
 11
5813.904400172058
 21
9871.291881376407
 31
0.0
  0
LINE
  5
14E05
330
747D
100
AcDbEntity
  8
部品1
100
AcDbLine
 10
5763.904400172058
 20
9291.791881376406
 30
0.0
 11
5813.904400172056
 21
9304.503745783184
 31
0.0
  0
LINE
  5
14E06
330
747D
100
AcDbEntity
  8
部品1
100
AcDbLine
 10
5813.904400172058
 20
9446.615897939553
 30
0.0
 11
5763.904400172055
 21
9451.791881376406
 31
0.0
  0
LINE
  5
14E07
330
747D
100
AcDbEntity
  8
部品1
100
AcDbLine
 10
5813.904400172058
 20
9486.967864813262
 30
0.0
 11
5763.904400172055
 21
9481.791881376407
 31
0.0
  0
LINE
  5
14E08
330
747D
100
AcDbEntity
  8
部品1
 48
50.0
100
AcDbLine
 10
5763.904400172058
 20
9209.791881376407
 30
0.0
 11
5813.904400172058
 21
9209.791881376407
 31
0.0
  0
DIMENSION
  5
14E09
330
747D
100
AcDbEntity
  8
寸法
 48
50.0
100
AcDbDimension
  2
*D37
 10
6125.745760432895
 20
9926.291884953583
 30
0.0
 11
6125.745760432894
 21
9543.530740589847
 31
0.0
 70
   160
 71
     5
 42
716.5000035771754
  3
INABA_S40G
100
AcDbAlignedDimension
 13
5813.904400172058
 23
9209.791881376407
 33
0.0
 14
5843.904400172292
 24
9926.291884953583
 34
0.0
 50
90.0
100
AcDbRotatedDimension
1001
ACAD
1000
DSTYLE
1002
{
1070
   174
1070
     0
1070
   272
1070
     1
1070
   341
1005
0
1002
}
  0
TEXT
  5
14E25
330
747D
100
AcDbEntity
  8
文字
 62
     7
 48
50.0
100
AcDbText
 10
15022.63965474516
 20
9224.407396633491
 30
0.0
 40
100.0
  1
F12         0.7+1.2
  7
STYLE1
100
AcDbText
  0
TEXT
  5
14E26
330
747D
100
AcDbEntity
  8
文字
 62
     7
 48
50.0
100
AcDbText
 10
13583.11819016569
 20
9224.407396633495
 30
0.0
 40
100.0
  1
梁中補強パネル
  7
STYLE1
100
AcDbText
  0
LWPOLYLINE
  5
14E83
330
747D
100
AcDbEntity
  8
部品1
 48
50.0
100
AcDbPolyline
 90
        4
 70
     1
 43
0.0
 10
3705.9543979289
 20
3840.982394739149
 10
3708.854397928901
 20
3840.982394739149
 10
3708.854397928901
 20
3850.482394739149
 10
3705.9543979289
 20
3850.482394739149
  0
CIRCLE
  5
14E84
330
747D
100
AcDbEntity
  8
部品1
 48
50.0
100
AcDbCircle
 10
3707.4043979289
 20
3845.732394739149
 30
0.0
 40
9.0
  0
ARC
  5
14E85
330
747D
100
AcDbEntity
  8
細線
 48
50.0
100
AcDbCircle
 10
3707.4043979289
 20
3845.732394739149
 30
0.0
 40
4.0
100
AcDbArc
 50
111.2538091853375
 51
248.7461908146625
  0
ARC
  5
14E86
330
747D
100
AcDbEntity
  8
細線
 48
50.0
100
AcDbCircle
 10
3707.4043979289
 20
3845.732394739149
 30
0.0
 40
17.5
100
AcDbArc
 50
306.4837370612677
 51
233.5162629387323
  0
LINE
  5
14E87
330
747D
100
AcDbEntity
  8
細線
 48
50.0
100
AcDbLine
 10
3717.404397928896
 20
3821.873434158266
 30
0.0
 11
3717.404397928901
 21
3830.857919958507
 31
0.0
  0
LINE
  5
14E88
330
747D
100
AcDbEntity
  8
細線
 48
50.0
100
AcDbLine
 10
3697.4043979289
 20
3821.873434158268
 30
0.0
 11
3697.4043979289
 21
3830.857919958504
 31
0.0
  0
ARC
  5
14E89
330
747D
100
AcDbEntity
  8
細線
 48
50.0
100
AcDbCircle
 10
3707.4043979289
 20
3845.732394739149
 30
0.0
 40
26.5
100
AcDbArc
 50
249.3326835063939
 51
290.6673164933835
  0
ARC
  5
14E8A
330
747D
100
AcDbEntity
  8
細線
 48
50.0
100
AcDbCircle
 10
3716.404397928893
 20
3821.873434158266
 30
0.0
 40
1.0
100
AcDbArc
 50
290.6673164936062
 51
359.9999999998958
  0
ARC
  5
14E8B
330
747D
100
AcDbEntity
  8
細線
 48
50.0
100
AcDbCircle
 10
3698.4043979289
 20
3821.873434158268
 30
0.0
 40
1.0
100
AcDbArc
 50
180.0
 51
249.3326835066164
  0
ARC
  5
14E8C
330
747D
100
AcDbEntity
  8
細線
 48
50.0
100
AcDbCircle
 10
3696.4043979289
 20
3830.857919958504
 30
0.0
 40
1.0
100
AcDbArc
 50
0.0
 51
53.51626293873231
  0
ARC
  5
14E8D
330
747D
100
AcDbEntity
  8
細線
 48
50.0
100
AcDbCircle
 10
3718.404397928904
 20
3830.857919958507
 30
0.0
 40
1.0
100
AcDbArc
 50
126.4837370614917
 51
180.0
  0
ARC
  5
14E8E
330
747D
100
AcDbEntity
  8
細線
 48
50.0
100
AcDbCircle
 10
3707.4043979289
 20
3845.732394739149
 30
0.0
 40
21.5
100
AcDbArc
 50
255.8014401250294
 51
284.1985598749706
  0
ARC
  5
14E8F
330
747D
100
AcDbEntity
  8
細線
 48
50.0
100
AcDbCircle
 10
3707.4043979289
 20
3845.732394739149
 30
0.0
 40
16.5
100
AcDbArc
 50
251.9694646069326
 51
288.0305353930674
  0
LINE
  5
14E90
330
747D
100
AcDbEntity
  8
細線
 48
50.0
100
AcDbLine
 10
3712.9043979289
 20
3825.180022613342
 30
0.0
 11
3712.9043979289
 21
3829.757414300678
 31
0.0
  0
LINE
  5
14E91
330
747D
100
AcDbEntity
  8
細線
 48
50.0
100
AcDbLine
 10
3701.9043979289
 20
3825.180022613342
 30
0.0
 11
3701.9043979289
 21
3829.757414300677
 31
0.0
  0
ARC
  5
14E92
330
747D
100
AcDbEntity
  8
細線
 48
50.0
100
AcDbCircle
 10
3702.204397928903
 20
3829.757414300677
 30
0.0
 40
0.3
100
AcDbArc
 50
71.96946460693259
 51
180.0
  0
ARC
  5
14E93
330
747D
100
AcDbEntity
  8
細線
 48
50.0
100
AcDbCircle
 10
3712.604397928901
 20
3829.757414300678
 30
0.0
 40
0.3
100
AcDbArc
 50
0.0
 51
108.0305353930674
  0
ARC
  5
14E94
330
747D
100
AcDbEntity
  8
細線
 48
50.0
100
AcDbCircle
 10
3712.604397928898
 20
3825.180022613342
 30
0.0
 40
0.3
100
AcDbArc
 50
284.1985598747622
 51
0.0000000001042204
  0
ARC
  5
14E95
330
747D
100
AcDbEntity
  8
細線
 48
50.0
100
AcDbCircle
 10
3702.204397928903
 20
3825.180022613342
 30
0.0
 40
0.3
100
AcDbArc
 50
180.0
 51
255.8014401248081
  0
CIRCLE
  5
14E96
330
747D
100
AcDbEntity
  8
細線
 48
50.0
100
AcDbCircle
 10
3707.4043979289
 20
3845.732394739149
 30
0.0
 40
12.0
  0
ARC
  5
14E97
330
747D
100
AcDbEntity
  8
部品1
 48
50.0
100
AcDbCircle
 10
3707.4043979289
 20
3895.732394739149
 30
0.0
 40
8.5
100
AcDbArc
 50
114.315739171091
 51
245.684260828909
  0
CIRCLE
  5
14E98
330
747D
100
AcDbEntity
  8
細線
 48
50.0
100
AcDbCircle
 10
3707.4043979289
 20
3895.732394739149
 30
0.0
 40
4.5
  0
LWPOLYLINE
  5
14E99
330
747D
100
AcDbEntity
  8
部品1
 48
50.0
100
AcDbPolyline
 90
        2
 70
     0
 43
0.0
 10
3703.9043979289
 20
3914.407244136132
 10
3703.9043979289
 20
3903.478361431563
  0
CIRCLE
  5
14E9A
330
747D
100
AcDbEntity
  8
部品1
 48
50.0
100
AcDbCircle
 10
3707.4043979289
 20
3895.732394739149
 30
0.0
 40
19.0
  0
LWPOLYLINE
  5
14E9B
330
747D
100
AcDbEntity
  8
部品1
 48
50.0
100
AcDbPolyline
 90
        2
 70
     0
 43
0.0
 10
3703.9043979289
 20
3887.986428046734
 10
3703.9043979289
 20
3877.057545342167
  0
LWPOLYLINE
  5
14E9C
330
747D
100
AcDbEntity
  8
部品1
 48
50.0
100
AcDbPolyline
 90
        2
 70
     0
 43
0.0
 10
3710.9043979289
 20
3903.478361431563
 10
3710.9043979289
 20
3914.407244136132
  0
ARC
  5
14E9D
330
747D
100
AcDbEntity
  8
部品1
 48
50.0
100
AcDbCircle
 10
3707.4043979289
 20
3895.732394739149
 30
0.0
 40
8.5
100
AcDbArc
 50
294.315739171091
 51
65.68426082890896
  0
LWPOLYLINE
  5
14E9E
330
747D
100
AcDbEntity
  8
部品1
 48
50.0
100
AcDbPolyline
 90
        2
 70
     0
 43
0.0
 10
3710.9043979289
 20
3877.057545342167
 10
3710.9043979289
 20
3887.986428046734
  0
ARC
  5
14E9F
330
747D
100
AcDbEntity
  8
細線
 48
50.0
100
AcDbCircle
 10
3707.4043979289
 20
3895.732394739149
 30
0.0
 40
16.5
100
AcDbArc
 50
332.0012352654316
 51
27.99876473456844
  0
ARC
  5
14EA0
330
747D
100
AcDbEntity
  8
細線
 48
50.0
100
AcDbCircle
 10
3707.4043979289
 20
3895.732394739149
 30
0.0
 40
14.0
100
AcDbArc
 50
326.4074436112843
 51
33.59255638871576
  0
LINE
  5
14EA1
330
747D
100
AcDbEntity
  8
細線
 48
50.0
100
AcDbLine
 10
3692.835595644569
 20
3903.478361431563
 30
0.0
 11
3695.742494139211
 21
3903.478361431563
 31
0.0
  0
LINE
  5
14EA2
330
747D
100
AcDbEntity
  8
細線
 48
50.0
100
AcDbLine
 10
3692.835595644569
 20
3887.986428046734
 30
0.0
 11
3695.742494139211
 21
3887.986428046734
 31
0.0
  0
LINE
  5
14EA3
330
747D
100
AcDbEntity
  8
細線
 48
50.0
100
AcDbLine
 10
3719.066301718589
 20
3903.478361431563
 30
0.0
 11
3721.973200213235
 21
3903.478361431563
 31
0.0
  0
LINE
  5
14EA4
330
747D
100
AcDbEntity
  8
細線
 48
50.0
100
AcDbLine
 10
3719.066301718589
 20
3887.986428046734
 30
0.0
 11
3721.973200213235
 21
3887.986428046734
 31
0.0
  0
ARC
  5
14EA5
330
747D
100
AcDbEntity
  8
細線
 48
50.0
100
AcDbCircle
 10
3707.4043979289
 20
3895.732394739149
 30
0.0
 40
14.0
100
AcDbArc
 50
146.4074436112842
 51
213.5925563887158
  0
ARC
  5
14EA6
330
747D
100
AcDbEntity
  8
細線
 48
50.0
100
AcDbCircle
 10
3707.4043979289
 20
3895.732394739149
 30
0.0
 40
16.5
100
AcDbArc
 50
152.0012352654315
 51
207.9987647345685
  0
ARC
  5
14EA7
330
747D
100
AcDbEntity
  8
部品1
 48
50.0
100
AcDbCircle
 10
3680.9043979289
 20
3921.232394739149
 30
0.0
 40
5.0
100
AcDbArc
 50
90.0
 51
180.0
  0
ARC
  5
14EA8
330
747D
100
AcDbEntity
  8
部品1
 48
50.0
100
AcDbCircle
 10
3680.9043979289
 20
3810.232394739149
 30
0.0
 40
5.0
100
AcDbArc
 50
180.0
 51
270.0
  0
ARC
  5
14EA9
330
747D
100
AcDbEntity
  8
部品1
 48
50.0
100
AcDbCircle
 10
3733.9043979289
 20
3810.232394739149
 30
0.0
 40
5.0
100
AcDbArc
 50
270.0
 51
0.0
  0
ARC
  5
14EAA
330
747D
100
AcDbEntity
  8
部品1
 48
50.0
100
AcDbCircle
 10
3733.9043979289
 20
3921.232394739149
 30
0.0
 40
5.0
100
AcDbArc
 50
0.0
 51
90.0
  0
LINE
  5
14EAB
330
747D
100
AcDbEntity
  8
部品1
 48
50.0
100
AcDbLine
 10
3675.9043979289
 20
3810.232394739149
 30
0.0
 11
3675.9043979289
 21
3921.232394739149
 31
0.0
  0
LINE
  5
14EAC
330
747D
100
AcDbEntity
  8
部品1
 48
50.0
100
AcDbLine
 10
3733.9043979289
 20
3805.232394739149
 30
0.0
 11
3680.9043979289
 21
3805.232394739149
 31
0.0
  0
LINE
  5
14EAD
330
747D
100
AcDbEntity
  8
部品1
 48
50.0
100
AcDbLine
 10
3738.9043979289
 20
3921.232394739149
 30
0.0
 11
3738.9043979289
 21
3810.232394739149
 31
0.0
  0
ENDSEC
  0
SECTION
  2
OBJECTS
  0
DICTIONARY
  5
7471
330
0
100
AcDbDictionary
281
     1
  3
ACAD_COLOR
350
12F97
  3
ACAD_GROUP
350
7472
  3
ACAD_LAYOUT
350
12E3A
  3
ACAD_MATERIAL
350
12F96
  3
ACAD_MLINESTYLE
350
7473
  3
ACAD_PLOTSETTINGS
350
12E3B
  3
ACAD_PLOTSTYLENAME
350
12F87
  3
ACDBHEADERROUNDTRIPXREC
350
14EBD
  3
AcDbVariableDictionary
350
14EB9
  3
CONTENTDICTIONARY
350
E71C
  3
DRAWINGVARIABLESDICT
350
F3B9
1001
ACAD
1000
TREAT_AS_HARD
1070
     0
  0
DICTIONARY
  5
13159
330
7467
100
AcDbDictionary
280
     1
281
     1
  3
ACAD_LAYERSTATES
360
1315A
  0
DICTIONARY
  5
12E48
330
747D
100
AcDbDictionary
280
     1
281
     1
  3
ACAD_LAYOUTSELFREF
360
12E49
  0
DICTIONARY
  5
12E46
330
747A
100
AcDbDictionary
280
     1
281
     1
  3
ACAD_LAYOUTSELFREF
360
12E47
  0
DICTIONARY
  5
12F97
102
{ACAD_REACTORS
330
7471
102
}
330
7471
100
AcDbDictionary
281
     1
  0
DICTIONARY
  5
7472
102
{ACAD_REACTORS
330
7471
102
}
330
7471
100
AcDbDictionary
281
     1
1001
ACAD
1000
TREAT_AS_HARD
1070
     0
  0
DICTIONARY
  5
12E3A
102
{ACAD_REACTORS
330
7471
102
}
330
7471
100
AcDbDictionary
281
     1
  3
Model
350
12F89
  3
ﾚｲｱｳﾄ1
350
12F8A
1001
ACAD
1000
TREAT_AS_HARD
1070
     0
  0
DICTIONARY
  5
12F96
102
{ACAD_REACTORS
330
7471
102
}
330
7471
100
AcDbDictionary
281
     1
  0
DICTIONARY
  5
7473
102
{ACAD_REACTORS
330
7471
102
}
330
7471
100
AcDbDictionary
281
     1
  3
STANDARD
350
7480
1001
ACAD
1000
TREAT_AS_HARD
1070
     0
  0
DICTIONARY
  5
12E3B
102
{ACAD_REACTORS
330
7471
102
}
330
7471
100
AcDbDictionary
281
     1
1001
ACAD
1000
TREAT_AS_HARD
1070
     0
  0
ACDBDICTIONARYWDFLT
  5
12F87
102
{ACAD_REACTORS
330
7471
102
}
330
7471
100
AcDbDictionary
281
     1
  3
Normal
350
12F88
100
AcDbDictionaryWithDefault
340
12F88
  0
DICTIONARY
  5
14EBD
102
{ACAD_REACTORS
330
7471
102
}
330
7471
100
AcDbDictionary
281
     1
  3
COLORDICT
350
14EBF
  3
MATERIALDICT
350
14EBE
  0
DICTIONARY
  5
14EB9
102
{ACAD_REACTORS
330
7471
102
}
330
7471
100
AcDbDictionary
281
     1
  3
DIMASSOC
350
14EBA
  3
PROJECTNAME
350
14EBB
  0
DICTIONARY
  5
E71C
102
{ACAD_REACTORS
330
7471
102
}
330
7471
100
AcDbDictionary
281
     1
1001
ACAD
1000
TREAT_AS_HARD
1070
     0
  0
DICTIONARY
  5
F3B9
102
{ACAD_REACTORS
330
7471
102
}
330
7471
100
AcDbDictionary
281
     1
1001
DRAWINGVARIABLESXDATA
1000
POLARMODE
1000
1
1001
ACAD
1000
TREAT_AS_HARD
1070
     0
  0
DICTIONARY
  5
1315A
102
{ACAD_REACTORS
330
13159
102
}
330
13159
100
AcDbDictionary
281
     1
  0
XRECORD
  5
12E49
102
{ACAD_REACTORS
330
12E48
102
}
330
12E48
100
AcDbXrecord
280
     1
340
747D
  0
XRECORD
  5
12E47
102
{ACAD_REACTORS
330
12E46
102
}
330
12E46
100
AcDbXrecord
280
     1
340
747A
  0
LAYOUT
  5
12F89
102
{ACAD_XDICTIONARY
360
14EC0
102
}
102
{ACAD_REACTORS
330
12E3A
102
}
330
12E3A
100
AcDbPlotSettings
  1

  2
\\PS-F598A7\PS-F598A7-P1
  4

  6

 40
0.0
 41
0.0
 42
0.0
 43
0.0
 44
0.0
 45
0.0
 46
0.0
 47
0.0
 48
0.0
 49
0.0
140
0.0
141
0.0
142
1.0
143
1.0
 70
  1712
 72
     0
 73
     0
 74
     0
  7

 75
     0
147
1.0
148
0.0
149
0.0
100
AcDbLayout
  1
Model
 70
     1
 71
     0
 10
0.0
 20
0.0
 11
12.0
 21
9.0
 12
0.0
 22
0.0
 32
0.0
 14
0.0
 24
0.0
 34
0.0
 15
0.0
 25
0.0
 35
0.0
146
0.0
 13
0.0
 23
0.0
 33
0.0
 16
1.0
 26
0.0
 36
0.0
 17
0.0
 27
1.0
 37
0.0
 76
     0
330
747D
  0
LAYOUT
  5
12F8A
102
{ACAD_XDICTIONARY
360
14EC2
102
}
102
{ACAD_REACTORS
330
12E3A
102
}
330
12E3A
100
AcDbPlotSettings
  1

  2
\\PS-F598A7\PS-F598A7-P1
  4

  6

 40
0.0
 41
0.0
 42
0.0
 43
0.0
 44
0.0
 45
0.0
 46
0.0
 47
0.0
 48
0.0
 49
0.0
140
0.0
141
0.0
142
1.0
143
1.0
 70
   688
 72
     0
 73
     0
 74
     5
  7

 75
    16
147
1.0
148
0.0
149
0.0
100
AcDbLayout
  1
ﾚｲｱｳﾄ1
 70
     0
 71
     1
 10
0.0
 20
0.0
 11
420.0
 21
297.0
 12
0.0
 22
0.0
 32
0.0
 14
1.000000000000000E+20
 24
1.000000000000000E+20
 34
1.000000000000000E+20
 15
-1.000000000000000E+20
 25
-1.000000000000000E+20
 35
-1.000000000000000E+20
146
0.0
 13
0.0
 23
0.0
 33
0.0
 16
1.0
 26
0.0
 36
0.0
 17
0.0
 27
1.0
 37
0.0
 76
     0
330
747A
  0
MLINESTYLE
  5
7480
102
{ACAD_REACTORS
330
7473
102
}
330
7473
100
AcDbMlineStyle
  2
STANDARD
 70
     0
  3

 62
     0
 51
90.0
 52
90.0
 71
     2
 49
0.5
 62
   256
  6
BYLAYER
 49
-0.5
 62
   256
  6
BYLAYER
  0
ACDBPLACEHOLDER
  5
12F88
102
{ACAD_REACTORS
330
12F87
102
}
330
12F87
  0
XRECORD
  5
14EBF
102
{ACAD_REACTORS
330
14EBD
102
}
330
14EBD
100
AcDbXrecord
280
     1
340
12F97
  0
XRECORD
  5
14EBE
102
{ACAD_REACTORS
330
14EBD
102
}
330
14EBD
100
AcDbXrecord
280
     1
340
12F96
  0
DICTIONARYVAR
  5
14EBA
102
{ACAD_REACTORS
330
14EB9
102
}
330
14EB9
100
DictionaryVariables
280
     0
  1
1
  0
DICTIONARYVAR
  5
14EBB
102
{ACAD_REACTORS
330
14EB9
102
}
330
14EB9
100
DictionaryVariables
280
     0
  1

  0
DICTIONARY
  5
14EC0
330
12F89
100
AcDbDictionary
280
     1
281
     1
  3
ACAD_XREC_ROUNDTRIP
360
14EC1
  0
DICTIONARY
  5
14EC2
330
12F8A
100
AcDbDictionary
280
     1
281
     1
  3
ACAD_XREC_ROUNDTRIP
360
14EC3
  0
XRECORD
  5
14EC1
102
{ACAD_REACTORS
330
14EC0
102
}
330
14EC0
100
AcDbXrecord
280
     1
102
SHADEPLOT
 70
     0
102
SHADEPLOTRESLEVEL
 70
     2
102
SHADEPLOTCUSTOMDPI
 70
   300
  0
XRECORD
  5
14EC3
102
{ACAD_REACTORS
330
14EC2
102
}
330
14EC2
100
AcDbXrecord
280
     1
102
SHADEPLOT
 70
     0
102
SHADEPLOTRESLEVEL
 70
     2
102
SHADEPLOTCUSTOMDPI
 70
   300
  0
ENDSEC
  0
EOF
