  0
SECTION
  2
HEADER
  9
$ACADVER
  1
AC1015
  9
$ACADMAINTVER
 70
    20
  9
$DWGCODEPAGE
  3
ANSI_932
  9
$INSBASE
 10
0.0
 20
0.0
 30
0.0
  9
$EXTMIN
 10
139.9999999999995
 20
-0.6186260765657195
 30
0.0
  9
$EXTMAX
 10
16308.68407572206
 20
11409.6
 30
0.0
  9
$LIMMIN
 10
0.0
 20
0.0
  9
$LIMMAX
 10
16800.0
 20
11880.0
  9
$ORTHOMODE
 70
     0
  9
$REGENMODE
 70
     1
  9
$FILLMODE
 70
     1
  9
$QTEXTMODE
 70
     0
  9
$MIRRTEXT
 70
     1
  9
$LTSCALE
 40
20.0
  9
$ATTMODE
 70
     1
  9
$TEXTSIZE
 40
4.0
  9
$TRACEWID
 40
1.0
  9
$TEXTSTYLE
  7
STYLE1
  9
$CLAYER
  8
寸法
  9
$CELTYPE
  6
BYLAYER
  9
$CECOLOR
 62
   256
  9
$CELTSCALE
 40
50.0
  9
$DISPSILH
 70
     0
  9
$DIMSCALE
 40
40.0
  9
$DIMASZ
 40
2.5
  9
$DIMEXO
 40
0.5
  9
$DIMDLI
 40
7.0
  9
$DIMRND
 40
0.0
  9
$DIMDLE
 40
0.0
  9
$DIMEXE
 40
1.5
  9
$DIMTP
 40
0.0
  9
$DIMTM
 40
0.0
  9
$DIMTXT
 40
3.0
  9
$DIMCEN
 40
0.0
  9
$DIMTSZ
 40
0.0
  9
$DIMTOL
 70
     0
  9
$DIMLIM
 70
     0
  9
$DIMTIH
 70
     0
  9
$DIMTOH
 70
     0
  9
$DIMSE1
 70
     0
  9
$DIMSE2
 70
     0
  9
$DIMTAD
 70
     3
  9
$DIMZIN
 70
     8
  9
$DIMBLK
  1

  9
$DIMASO
 70
     1
  9
$DIMSHO
 70
     1
  9
$DIMPOST
  1

  9
$DIMAPOST
  1

  9
$DIMALT
 70
     0
  9
$DIMALTD
 70
     2
  9
$DIMALTF
 40
0.0394
  9
$DIMLFAC
 40
1.0
  9
$DIMTOFL
 70
     1
  9
$DIMTVP
 40
0.0
  9
$DIMTIX
 70
     1
  9
$DIMSOXD
 70
     0
  9
$DIMSAH
 70
     1
  9
$DIMBLK1
  1
DOTSMALL
  9
$DIMBLK2
  1
DOTSMALL
  9
$DIMSTYLE
  2
INABA_S40G
  9
$DIMCLRD
 70
     0
  9
$DIMCLRE
 70
     0
  9
$DIMCLRT
 70
     7
  9
$DIMTFAC
 40
1.0
  9
$DIMGAP
 40
1.0
  9
$DIMJUST
 70
     0
  9
$DIMSD1
 70
     0
  9
$DIMSD2
 70
     0
  9
$DIMTOLJ
 70
     1
  9
$DIMTZIN
 70
     0
  9
$DIMALTZ
 70
     0
  9
$DIMALTTZ
 70
     0
  9
$DIMUPT
 70
     0
  9
$DIMDEC
 70
     1
  9
$DIMTDEC
 70
     4
  9
$DIMALTU
 70
     2
  9
$DIMALTTD
 70
     2
  9
$DIMTXSTY
  7
STYLE1
  9
$DIMAUNIT
 70
     0
  9
$DIMADEC
 70
     0
  9
$DIMALTRND
 40
0.0
  9
$DIMAZIN
 70
     0
  9
$DIMDSEP
 70
    46
  9
$DIMATFIT
 70
     3
  9
$DIMFRAC
 70
     0
  9
$DIMLDRBLK
  1
DOTSMALL
  9
$DIMLUNIT
 70
     2
  9
$DIMLWD
 70
    -2
  9
$DIMLWE
 70
    -2
  9
$DIMTMOVE
 70
     0
  9
$LUNITS
 70
     2
  9
$LUPREC
 70
     1
  9
$SKETCHINC
 40
1.0
  9
$FILLETRAD
 40
0.0
  9
$AUNITS
 70
     0
  9
$AUPREC
 70
     0
  9
$MENU
  1
acad
  9
$ELEVATION
 40
0.0
  9
$PELEVATION
 40
0.0
  9
$THICKNESS
 40
0.0
  9
$LIMCHECK
 70
     0
  9
$CHAMFERA
 40
0.0
  9
$CHAMFERB
 40
0.0
  9
$CHAMFERC
 40
0.0
  9
$CHAMFERD
 40
0.0
  9
$SKPOLY
 70
     0
  9
$TDCREATE
 40
2451368.612993866
  9
$TDUCREATE
 40
2451368.237993866
  9
$TDUPDATE
 40
2455827.764673716
  9
$TDUUPDATE
 40
2455827.389673716
  9
$TDINDWG
 40
0.7712311690
  9
$TDUSRTIMER
 40
0.7712311690
  9
$USRTIMER
 70
     1
  9
$ANGBASE
 50
0.0
  9
$ANGDIR
 70
     0
  9
$PDMODE
 70
     3
  9
$PDSIZE
 40
2.0
  9
$PLINEWID
 40
0.0
  9
$SPLFRAME
 70
     0
  9
$SPLINETYPE
 70
     6
  9
$SPLINESEGS
 70
     8
  9
$HANDSEED
  5
24058
  9
$SURFTAB1
 70
     6
  9
$SURFTAB2
 70
     6
  9
$SURFTYPE
 70
     6
  9
$SURFU
 70
     6
  9
$SURFV
 70
     6
  9
$UCSBASE
  2

  9
$UCSNAME
  2

  9
$UCSORG
 10
0.0
 20
0.0
 30
0.0
  9
$UCSXDIR
 10
1.0
 20
0.0
 30
0.0
  9
$UCSYDIR
 10
0.0
 20
1.0
 30
0.0
  9
$UCSORTHOREF
  2

  9
$UCSORTHOVIEW
 70
     0
  9
$UCSORGTOP
 10
0.0
 20
0.0
 30
0.0
  9
$UCSORGBOTTOM
 10
0.0
 20
0.0
 30
0.0
  9
$UCSORGLEFT
 10
0.0
 20
0.0
 30
0.0
  9
$UCSORGRIGHT
 10
0.0
 20
0.0
 30
0.0
  9
$UCSORGFRONT
 10
0.0
 20
0.0
 30
0.0
  9
$UCSORGBACK
 10
0.0
 20
0.0
 30
0.0
  9
$PUCSBASE
  2

  9
$PUCSNAME
  2

  9
$PUCSORG
 10
0.0
 20
0.0
 30
0.0
  9
$PUCSXDIR
 10
1.0
 20
0.0
 30
0.0
  9
$PUCSYDIR
 10
0.0
 20
1.0
 30
0.0
  9
$PUCSORTHOREF
  2

  9
$PUCSORTHOVIEW
 70
     0
  9
$PUCSORGTOP
 10
0.0
 20
0.0
 30
0.0
  9
$PUCSORGBOTTOM
 10
0.0
 20
0.0
 30
0.0
  9
$PUCSORGLEFT
 10
0.0
 20
0.0
 30
0.0
  9
$PUCSORGRIGHT
 10
0.0
 20
0.0
 30
0.0
  9
$PUCSORGFRONT
 10
0.0
 20
0.0
 30
0.0
  9
$PUCSORGBACK
 10
0.0
 20
0.0
 30
0.0
  9
$USERI1
 70
     0
  9
$USERI2
 70
     0
  9
$USERI3
 70
     0
  9
$USERI4
 70
     0
  9
$USERI5
 70
     0
  9
$USERR1
 40
0.0
  9
$USERR2
 40
0.0
  9
$USERR3
 40
0.0
  9
$USERR4
 40
0.0
  9
$USERR5
 40
0.0
  9
$WORLDVIEW
 70
     1
  9
$SHADEDGE
 70
     3
  9
$SHADEDIF
 70
    70
  9
$TILEMODE
 70
     1
  9
$MAXACTVP
 70
    16
  9
$PINSBASE
 10
0.0
 20
0.0
 30
0.0
  9
$PLIMCHECK
 70
     0
  9
$PEXTMIN
 10
1.000000000000000E+20
 20
1.000000000000000E+20
 30
1.000000000000000E+20
  9
$PEXTMAX
 10
-1.000000000000000E+20
 20
-1.000000000000000E+20
 30
-1.000000000000000E+20
  9
$PLIMMIN
 10
0.0
 20
0.0
  9
$PLIMMAX
 10
420.0
 20
297.0
  9
$UNITMODE
 70
     0
  9
$VISRETAIN
 70
     0
  9
$PLINEGEN
 70
     0
  9
$PSLTSCALE
 70
     0
  9
$TREEDEPTH
 70
  3020
  9
$CMLSTYLE
  2
STANDARD
  9
$CMLJUST
 70
     0
  9
$CMLSCALE
 40
1.0
  9
$PROXYGRAPHICS
 70
     1
  9
$MEASUREMENT
 70
     1
  9
$CELWEIGHT
370
    -1
  9
$ENDCAPS
280
     0
  9
$JOINSTYLE
280
     0
  9
$LWDISPLAY
290
     0
  9
$INSUNITS
 70
     0
  9
$HYPERLINKBASE
  1

  9
$STYLESHEET
  1
inaba.ctb
  9
$XEDIT
290
     1
  9
$CEPSNTYPE
380
     0
  9
$PSTYLEMODE
290
     1
  9
$FINGERPRINTGUID
  2
{5EAC461A-2277-4BF8-9AB0-99C43BB394F0}
  9
$VERSIONGUID
  2
{4ADF74B8-E03E-4CB7-9951-024CF3A5B7E6}
  9
$EXTNAMES
290
     1
  9
$PSVPSCALE
 40
0.0
  9
$OLESTARTUP
290
     0
  0
ENDSEC
  0
SECTION
  2
CLASSES
  0
CLASS
  1
ACDBDICTIONARYWDFLT
  2
AcDbDictionaryWithDefault
  3
ObjectDBX Classes
 90
        0
280
     0
281
     0
  0
CLASS
  1
DICTIONARYVAR
  2
AcDbDictionaryVar
  3
ObjectDBX Classes
 90
        0
280
     0
281
     0
  0
CLASS
  1
ACDBPLACEHOLDER
  2
AcDbPlaceHolder
  3
ObjectDBX Classes
 90
        0
280
     0
281
     0
  0
CLASS
  1
LAYOUT
  2
AcDbLayout
  3
ObjectDBX Classes
 90
        0
280
     0
281
     0
  0
ENDSEC
  0
SECTION
  2
TABLES
  0
TABLE
  2
VPORT
  5
746D
330
0
100
AcDbSymbolTable
 70
     2
  0
VPORT
  5
24050
330
746D
100
AcDbSymbolTableRecord
100
AcDbViewportTableRecord
  2
*Active
 70
     0
 10
0.0
 20
0.0
 11
1.0
 21
1.0
 12
9780.511247787
 22
5704.286466681009
 13
0.0
 23
0.0
 14
10.0
 24
10.0
 15
10.0
 25
10.0
 16
0.0
 26
0.0
 36
1.0
 17
0.0
 27
0.0
 37
0.0
 40
11495.68399569972
 41
1.79295154185022
 42
50.0
 43
0.0
 44
0.0
 50
0.0
 51
0.0
 71
     0
 72
     0
 73
     1
 74
     0
 75
     0
 76
     0
 77
     0
 78
     0
281
     0
 65
     1
110
0.0
120
0.0
130
0.0
111
1.0
121
0.0
131
0.0
112
0.0
122
1.0
132
0.0
 79
     0
146
0.0
  0
ENDTAB
  0
TABLE
  2
LTYPE
  5
746A
330
0
100
AcDbSymbolTable
 70
     3
  0
LTYPE
  5
7477
330
746A
100
AcDbSymbolTableRecord
100
AcDbLinetypeTableRecord
  2
BYBLOCK
 70
     0
  3

 72
    65
 73
     0
 40
0.0
  0
LTYPE
  5
7478
330
746A
100
AcDbSymbolTableRecord
100
AcDbLinetypeTableRecord
  2
BYLAYER
 70
     0
  3

 72
    65
 73
     0
 40
0.0
  0
LTYPE
  5
7479
330
746A
100
AcDbSymbolTableRecord
100
AcDbLinetypeTableRecord
  2
CONTINUOUS
 70
     0
  3
Solid line
 72
    65
 73
     0
 40
0.0
  0
LTYPE
  5
7816
330
746A
100
AcDbSymbolTableRecord
100
AcDbLinetypeTableRecord
  2
CENTER
 70
     0
  3
____ _ ____ _ ____ _ ____ _ ____ _ ____ _ ____ 
 72
    65
 73
     4
 40
2.0
 49
1.25
 74
     0
 49
-0.25
 74
     0
 49
0.25
 74
     0
 49
-0.25
 74
     0
  0
LTYPE
  5
781B
330
746A
100
AcDbSymbolTableRecord
100
AcDbLinetypeTableRecord
  2
PHANTOM
 70
     0
  3
______  __  __  ______  __  __  ______  __  __ 
 72
    65
 73
     6
 40
2.5
 49
1.25
 74
     0
 49
-0.25
 74
     0
 49
0.25
 74
     0
 49
-0.25
 74
     0
 49
0.25
 74
     0
 49
-0.25
 74
     0
  0
ENDTAB
  0
TABLE
  2
LAYER
  5
7467
102
{ACAD_XDICTIONARY
360
1758F
102
}
330
0
100
AcDbSymbolTable
 70
    10
  0
LAYER
  5
7474
330
7467
100
AcDbSymbolTableRecord
100
AcDbLayerTableRecord
  2
0
 70
     0
 62
     7
  6
CONTINUOUS
370
    -3
390
173D0
  0
LAYER
  5
DEB2
330
7467
100
AcDbSymbolTableRecord
100
AcDbLayerTableRecord
  2
センター
 70
     0
 62
     3
  6
CENTER
370
    -3
390
173D0
  0
LAYER
  5
DEB3
330
7467
100
AcDbSymbolTableRecord
100
AcDbLayerTableRecord
  2
寸法
 70
     0
 62
     4
  6
CONTINUOUS
370
    -3
390
173D0
  0
LAYER
  5
DEB4
330
7467
100
AcDbSymbolTableRecord
100
AcDbLayerTableRecord
  2
部品1
 70
     0
 62
     7
  6
CONTINUOUS
370
    -3
390
173D0
  0
LAYER
  5
DEB5
330
7467
100
AcDbSymbolTableRecord
100
AcDbLayerTableRecord
  2
補助
 70
     0
 62
    -1
  6
CONTINUOUS
370
    -3
390
173D0
  0
LAYER
  5
DEB6
330
7467
100
AcDbSymbolTableRecord
100
AcDbLayerTableRecord
  2
文字
 70
     0
 62
     7
  6
CONTINUOUS
370
    -3
390
173D0
  0
LAYER
  5
F255
330
7467
100
AcDbSymbolTableRecord
100
AcDbLayerTableRecord
  2
DEFPOINTS
 70
     0
 62
     7
  6
CONTINUOUS
290
     0
370
    -3
390
173D0
  0
LAYER
  5
10B54
330
7467
100
AcDbSymbolTableRecord
100
AcDbLayerTableRecord
  2
仕様書枠
 70
     0
 62
   230
  6
CONTINUOUS
370
    -3
390
173D0
  0
LAYER
  5
1173F
330
7467
100
AcDbSymbolTableRecord
100
AcDbLayerTableRecord
  2
細線
 70
     0
 62
     5
  6
CONTINUOUS
370
    -3
390
173D0
  0
LAYER
  5
12CC4
330
7467
100
AcDbSymbolTableRecord
100
AcDbLayerTableRecord
  2
想像線
 70
     0
 62
     6
  6
PHANTOM
370
    -3
390
173D0
  0
ENDTAB
  0
TABLE
  2
STYLE
  5
7468
330
0
100
AcDbSymbolTable
 70
     4
  0
STYLE
  5
7475
330
7468
100
AcDbSymbolTableRecord
100
AcDbTextStyleTableRecord
  2
STANDARD
 70
     0
 40
0.0
 41
1.0
 50
0.0
 71
     0
 42
4.0
  3
txt
  4
C:\AutoCAD LT\bigfont.shx
  0
STYLE
  5
763C
330
7468
100
AcDbSymbolTableRecord
100
AcDbTextStyleTableRecord
  2
MSMINCHO
 70
     0
 40
0.0
 41
1.0
 50
0.0
 71
     0
 42
1.199999999999999
  3
C:\AutoCAD LT\msminch2.TTF
  4

  0
STYLE
  5
F706
330
7468
100
AcDbSymbolTableRecord
100
AcDbTextStyleTableRecord
  2
STYLE1
 70
     0
 40
0.0
 41
1.0
 50
0.0
 71
     0
 42
4.0
  3
isocp.shx
  4
bigfont.shx
  0
STYLE
  5
103BF
330
7468
100
AcDbSymbolTableRecord
100
AcDbTextStyleTableRecord
  2
STYLE2
 70
     0
 40
0.0
 41
1.0
 50
0.0
 71
     0
 42
100.0
  3
MS PGothic.ttf
  4

1001
ACAD
1000
MS PGothic
1071
    32818
  0
ENDTAB
  0
TABLE
  2
VIEW
  5
746B
330
0
100
AcDbSymbolTable
 70
     0
  0
ENDTAB
  0
TABLE
  2
UCS
  5
746C
330
0
100
AcDbSymbolTable
 70
     0
  0
ENDTAB
  0
TABLE
  2
APPID
  5
746E
330
0
100
AcDbSymbolTable
 70
     6
  0
APPID
  5
7476
330
746E
100
AcDbSymbolTableRecord
100
AcDbRegAppTableRecord
  2
ACAD
 70
     0
  0
APPID
  5
DEA9
330
746E
100
AcDbSymbolTableRecord
100
AcDbRegAppTableRecord
  2
CONTENTBLOCKICON
 70
     0
  0
APPID
  5
DEAA
330
746E
100
AcDbSymbolTableRecord
100
AcDbRegAppTableRecord
  2
CONTENTBLOCKDESCRIPTION
 70
     0
  0
APPID
  5
E71D
330
746E
100
AcDbSymbolTableRecord
100
AcDbRegAppTableRecord
  2
CONTENTTABDATA
 70
     0
  0
APPID
  5
E71E
330
746E
100
AcDbSymbolTableRecord
100
AcDbRegAppTableRecord
  2
CONTENTCURRENTTAB
 70
     0
  0
APPID
  5
F3BA
330
746E
100
AcDbSymbolTableRecord
100
AcDbRegAppTableRecord
  2
DRAWINGVARIABLESXDATA
 70
     0
  0
ENDTAB
  0
TABLE
  2
DIMSTYLE
  5
746F
330
0
100
AcDbSymbolTable
 70
     1
100
AcDbDimStyleTable
 71
     1
340
F71F
  0
DIMSTYLE
105
F71F
102
{ACAD_REACTORS
330
23E16
330
23D68
330
23D53
330
23D21
330
23D1B
330
23D0F
330
23D09
330
23D00
330
23CFE
330
23CFD
330
23CFC
330
23CFA
330
23CF8
330
23CF7
330
23CF4
330
23CEF
330
23CEE
330
23CEC
330
23CEA
330
23CE3
330
226A5
330
21EC8
330
20E3A
330
20E15
330
20DFB
330
20DE1
330
20751
330
206E3
330
1F5A6
330
1F5A4
330
1F594
330
1F593
330
1F592
330
1F50C
330
1F4EE
330
1F4ED
330
1F4EC
330
1F4E6
330
1F4E5
330
1F4E3
330
1F2B9
330
1F2B5
330
1F252
330
1F251
330
1F250
330
1F248
330
1F247
330
1F245
330
1F244
330
1DAC7
330
1D333
330
1D2D6
330
1AC2C
330
1AC27
102
}
330
746F
100
AcDbSymbolTableRecord
100
AcDbDimStyleTableRecord
  2
INABA_S40G
 70
     0
 40
40.0
 41
2.5
 42
0.5
 43
7.0
 44
1.5
 73
     0
 74
     0
 77
     3
 78
     8
140
3.0
141
0.0
143
0.0394
147
1.0
172
     1
173
     1
174
     1
178
     7
271
     1
340
F706
341
F770
343
F770
344
F770
  0
ENDTAB
  0
TABLE
  2
BLOCK_RECORD
  5
7466
330
0
100
AcDbSymbolTable
 70
    37
  0
BLOCK_RECORD
  5
747D
330
7466
100
AcDbSymbolTableRecord
100
AcDbBlockTableRecord
  2
*MODEL_SPACE
340
173D5
  0
BLOCK_RECORD
  5
747A
330
7466
100
AcDbSymbolTableRecord
100
AcDbBlockTableRecord
  2
*PAPER_SPACE
340
173D6
  0
BLOCK_RECORD
  5
F770
330
7466
100
AcDbSymbolTableRecord
100
AcDbBlockTableRecord
  2
_DOTSMALL
340
0
102
{BLKREFS
331
23EBF
331
23EC0
331
23EC8
331
23EC9
331
23ED1
331
23ED2
331
23EDA
331
23EDB
331
23EE5
331
23EE6
331
23EEE
331
23EEF
331
23EF9
331
23EFA
331
23F03
331
23F04
331
23F0E
331
23F0F
331
23F19
331
23F1A
331
23F24
331
23F25
331
23F2F
331
23F30
331
23F38
331
23F39
331
23F41
331
23F42
331
23F4B
331
23F4C
331
23F55
331
23F56
331
23F5E
331
23F5F
331
23F67
331
23F68
331
23F71
331
23F72
331
23F7A
331
23F7B
331
23F84
331
23F85
331
23F8E
331
23F8F
331
23F98
331
23F99
331
23FA2
331
23FA3
331
23FAB
331
23FAC
331
23FB4
331
23FB5
331
23FBE
331
23FBF
331
23FC7
331
23FC8
331
23FD0
331
23FD1
331
23FD9
331
23FDA
331
23FE4
331
23FE5
331
23FED
331
23FEE
331
23FF6
331
23FF7
331
24000
331
24001
331
2400A
331
2400B
331
24015
331
24016
102
}
  0
BLOCK_RECORD
  5
1DAD7
330
7466
100
AcDbSymbolTableRecord
100
AcDbBlockTableRecord
  2
*D1
340
0
  0
BLOCK_RECORD
  5
1F5AA
330
7466
100
AcDbSymbolTableRecord
100
AcDbBlockTableRecord
  2
*D2
340
0
  0
BLOCK_RECORD
  5
1F5B7
330
7466
100
AcDbSymbolTableRecord
100
AcDbBlockTableRecord
  2
*D3
340
0
  0
BLOCK_RECORD
  5
1F5D0
330
7466
100
AcDbSymbolTableRecord
100
AcDbBlockTableRecord
  2
*D4
340
0
  0
BLOCK_RECORD
  5
1F5DB
330
7466
100
AcDbSymbolTableRecord
100
AcDbBlockTableRecord
  2
*D5
340
0
  0
BLOCK_RECORD
  5
1F5E6
330
7466
100
AcDbSymbolTableRecord
100
AcDbBlockTableRecord
  2
*D6
340
0
  0
BLOCK_RECORD
  5
1F5F0
330
7466
100
AcDbSymbolTableRecord
100
AcDbBlockTableRecord
  2
*D7
340
0
  0
BLOCK_RECORD
  5
1F5FC
330
7466
100
AcDbSymbolTableRecord
100
AcDbBlockTableRecord
  2
*D8
340
0
  0
BLOCK_RECORD
  5
1F627
330
7466
100
AcDbSymbolTableRecord
100
AcDbBlockTableRecord
  2
*D9
340
0
  0
BLOCK_RECORD
  5
1F640
330
7466
100
AcDbSymbolTableRecord
100
AcDbBlockTableRecord
  2
*D10
340
0
  0
BLOCK_RECORD
  5
1F664
330
7466
100
AcDbSymbolTableRecord
100
AcDbBlockTableRecord
  2
*D11
340
0
  0
BLOCK_RECORD
  5
1F670
330
7466
100
AcDbSymbolTableRecord
100
AcDbBlockTableRecord
  2
*D12
340
0
  0
BLOCK_RECORD
  5
1F67B
330
7466
100
AcDbSymbolTableRecord
100
AcDbBlockTableRecord
  2
*D13
340
0
  0
BLOCK_RECORD
  5
1F688
330
7466
100
AcDbSymbolTableRecord
100
AcDbBlockTableRecord
  2
*D14
340
0
  0
BLOCK_RECORD
  5
1F695
330
7466
100
AcDbSymbolTableRecord
100
AcDbBlockTableRecord
  2
*D15
340
0
  0
BLOCK_RECORD
  5
1F6A2
330
7466
100
AcDbSymbolTableRecord
100
AcDbBlockTableRecord
  2
*D16
340
0
  0
BLOCK_RECORD
  5
1F6BB
330
7466
100
AcDbSymbolTableRecord
100
AcDbBlockTableRecord
  2
*D17
340
0
  0
BLOCK_RECORD
  5
1F6ED
330
7466
100
AcDbSymbolTableRecord
100
AcDbBlockTableRecord
  2
*D18
340
0
  0
BLOCK_RECORD
  5
1F6FA
330
7466
100
AcDbSymbolTableRecord
100
AcDbBlockTableRecord
  2
*D19
340
0
  0
BLOCK_RECORD
  5
1F706
330
7466
100
AcDbSymbolTableRecord
100
AcDbBlockTableRecord
  2
*D20
340
0
  0
BLOCK_RECORD
  5
1F711
330
7466
100
AcDbSymbolTableRecord
100
AcDbBlockTableRecord
  2
*D21
340
0
  0
BLOCK_RECORD
  5
1F71E
330
7466
100
AcDbSymbolTableRecord
100
AcDbBlockTableRecord
  2
*D22
340
0
  0
BLOCK_RECORD
  5
206E4
330
7466
100
AcDbSymbolTableRecord
100
AcDbBlockTableRecord
  2
*D23
340
0
  0
BLOCK_RECORD
  5
20752
330
7466
100
AcDbSymbolTableRecord
100
AcDbBlockTableRecord
  2
*D24
340
0
  0
BLOCK_RECORD
  5
20DE2
330
7466
100
AcDbSymbolTableRecord
100
AcDbBlockTableRecord
  2
*D25
340
0
  0
BLOCK_RECORD
  5
20DFC
330
7466
100
AcDbSymbolTableRecord
100
AcDbBlockTableRecord
  2
*D26
340
0
  0
BLOCK_RECORD
  5
20E16
330
7466
100
AcDbSymbolTableRecord
100
AcDbBlockTableRecord
  2
*D27
340
0
  0
BLOCK_RECORD
  5
20E3B
330
7466
100
AcDbSymbolTableRecord
100
AcDbBlockTableRecord
  2
*D28
340
0
  0
BLOCK_RECORD
  5
21EC9
330
7466
100
AcDbSymbolTableRecord
100
AcDbBlockTableRecord
  2
*D29
340
0
  0
BLOCK_RECORD
  5
2274E
330
7466
100
AcDbSymbolTableRecord
100
AcDbBlockTableRecord
  2
*D30
340
0
  0
BLOCK_RECORD
  5
23E19
330
7466
100
AcDbSymbolTableRecord
100
AcDbBlockTableRecord
  2
*D31
340
0
  0
BLOCK_RECORD
  5
23E24
330
7466
100
AcDbSymbolTableRecord
100
AcDbBlockTableRecord
  2
*D32
340
0
  0
BLOCK_RECORD
  5
23E32
330
7466
100
AcDbSymbolTableRecord
100
AcDbBlockTableRecord
  2
*D33
340
0
  0
BLOCK_RECORD
  5
23E3E
330
7466
100
AcDbSymbolTableRecord
100
AcDbBlockTableRecord
  2
*D34
340
0
  0
BLOCK_RECORD
  5
23E4A
330
7466
100
AcDbSymbolTableRecord
100
AcDbBlockTableRecord
  2
*D35
340
0
  0
BLOCK_RECORD
  5
23E56
330
7466
100
AcDbSymbolTableRecord
100
AcDbBlockTableRecord
  2
*D36
340
0
  0
ENDTAB
  0
ENDSEC
  0
SECTION
  2
BLOCKS
  0
BLOCK
  5
7489
330
747D
100
AcDbEntity
  8
0
100
AcDbBlockBegin
  2
*MODEL_SPACE
 70
     0
 10
0.0
 20
0.0
 30
0.0
  3
*MODEL_SPACE
  1

  0
ENDBLK
  5
748A
330
747D
100
AcDbEntity
  8
0
100
AcDbBlockEnd
  0
BLOCK
  5
7487
330
747A
100
AcDbEntity
 67
     1
  8
0
100
AcDbBlockBegin
  2
*PAPER_SPACE
 70
     0
 10
0.0
 20
0.0
 30
0.0
  3
*PAPER_SPACE
  1

  0
ENDBLK
  5
7488
330
747A
100
AcDbEntity
 67
     1
  8
0
100
AcDbBlockEnd
  0
BLOCK
  5
F771
330
F770
100
AcDbEntity
  8
0
 48
50.0
100
AcDbBlockBegin
  2
_DOTSMALL
 70
     0
 10
0.0
 20
0.0
 30
0.0
  3
_DOTSMALL
  1

  0
LWPOLYLINE
  5
F772
330
F770
100
AcDbEntity
  8
0
  6
ByBlock
 62
     0
 48
50.0
100
AcDbPolyline
 90
        2
 70
     1
 43
0.5
 10
-0.0625
 20
0.0
 42
1.0
 10
0.0625
 20
0.0
 42
1.0
  0
ENDBLK
  5
F776
330
F770
100
AcDbEntity
  8
0
 48
50.0
100
AcDbBlockEnd
  0
BLOCK
  5
1DAE3
330
1DAD7
100
AcDbEntity
  8
0
 48
50.0
100
AcDbBlockBegin
  2
*D1
 70
     1
 10
0.0
 20
0.0
 30
0.0
  3
*D1
  1

  0
LINE
  5
24010
330
1DAD7
100
AcDbEntity
  8
寸法
 62
     0
 48
50.0
370
    -2
100
AcDbLine
 10
8216.600000000001
 20
6188.211798685403
 30
0.0
 11
8523.202780124334
 21
6188.211798685403
 31
0.0
  0
LINE
  5
24011
330
1DAD7
100
AcDbEntity
  8
寸法
 62
     0
 48
50.0
370
    -2
100
AcDbLine
 10
8216.600000000005
 20
6263.211798685404
 30
0.0
 11
8523.202780124334
 21
6263.211798685404
 31
0.0
  0
LINE
  5
24012
330
1DAD7
100
AcDbEntity
  8
寸法
 62
     0
 48
50.0
370
    -2
100
AcDbLine
 10
8463.202780124335
 20
6263.211798685404
 30
0.0
 11
8463.202780124335
 21
6363.211798685404
 31
0.0
  0
LINE
  5
24013
330
1DAD7
100
AcDbEntity
  8
寸法
 62
     0
 48
50.0
370
    -2
100
AcDbLine
 10
8463.202780124335
 20
6188.211798685403
 30
0.0
 11
8463.202780124335
 21
5321.241235936925
 31
0.0
  0
LINE
  5
24014
330
1DAD7
100
AcDbEntity
  8
寸法
 62
     0
 48
50.0
370
    -2
100
AcDbLine
 10
8463.202780124335
 20
6263.211798685404
 30
0.0
 11
8463.202780124335
 21
6188.211798685403
 31
0.0
  0
INSERT
  5
24015
330
1DAD7
100
AcDbEntity
  8
寸法
 62
     0
 48
50.0
370
    -2
100
AcDbBlockReference
  2
_DOTSMALL
 10
8463.202780124335
 20
6263.211798685404
 30
0.0
 41
100.0
 42
100.0
 43
100.0
 50
270.0
  0
INSERT
  5
24016
330
1DAD7
100
AcDbEntity
  8
寸法
 62
     0
 48
50.0
370
    -2
100
AcDbBlockReference
  2
_DOTSMALL
 10
8463.202780124335
 20
6188.211798685403
 30
0.0
 41
100.0
 42
100.0
 43
100.0
 50
90.0
  0
MTEXT
  5
24017
330
1DAD7
100
AcDbEntity
  8
寸法
 62
     7
 48
50.0
100
AcDbMText
 10
8363.202780124332
 20
5654.726517311164
 30
0.0
 40
120.0
 41
0.0
 71
     5
 72
     1
  1
\A1;扉の出75
  7
STYLE1
 11
0.0000000000000001
 21
1.0
 31
0.0
 73
     1
 44
1.0
1001
ACAD
1000
MTEXTBEGIN
1070
    73
1070
     1
1070
    44
1040
1.0
1070
    74
1070
     0
1000
MTEXTEND
  0
POINT
  5
24018
330
1DAD7
100
AcDbEntity
  8
DEFPOINTS
 62
     0
 48
50.0
100
AcDbPoint
 10
8196.600000000001
 20
6188.211798685403
 30
0.0
  0
POINT
  5
24019
330
1DAD7
100
AcDbEntity
  8
DEFPOINTS
 62
     0
 48
50.0
100
AcDbPoint
 10
8196.600000000003
 20
6263.211798685404
 30
0.0
  0
POINT
  5
2401A
330
1DAD7
100
AcDbEntity
  8
DEFPOINTS
 62
     0
 48
50.0
100
AcDbPoint
 10
8463.202780124335
 20
6263.211798685404
 30
0.0
  0
ENDBLK
  5
1DAE4
330
1DAD7
100
AcDbEntity
  8
0
 48
50.0
100
AcDbBlockEnd
  0
BLOCK
  5
1F5B5
330
1F5AA
100
AcDbEntity
  8
0
 48
50.0
100
AcDbBlockBegin
  2
*D2
 70
     1
 10
0.0
 20
0.0
 30
0.0
  3
*D2
  1

  0
LINE
  5
24006
330
1F5AA
100
AcDbEntity
  8
寸法
 62
     0
 48
50.0
370
    -2
100
AcDbLine
 10
8327.419180988156
 20
6263.211798685425
 30
0.0
 11
8730.144386142111
 21
6263.211798685425
 31
0.0
  0
LINE
  5
24007
330
1F5AA
100
AcDbEntity
  8
寸法
 62
     0
 48
50.0
370
    -2
100
AcDbLine
 10
8660.567870053116
 20
6383.211798685408
 30
0.0
 11
8610.14438614211
 21
6383.211798685408
 31
0.0
  0
LINE
  5
24008
330
1F5AA
100
AcDbEntity
  8
寸法
 62
     0
 48
50.0
370
    -2
100
AcDbLine
 10
8670.14438614211
 20
6383.211798685408
 30
0.0
 11
8670.14438614211
 21
6263.211798685425
 31
0.0
  0
LINE
  5
24009
330
1F5AA
100
AcDbEntity
  8
寸法
 62
     0
 48
50.0
370
    -2
100
AcDbLine
 10
8670.14438614211
 20
6263.211798685425
 30
0.0
 11
8670.14438614211
 21
5790.876249622968
 31
0.0
  0
INSERT
  5
2400A
330
1F5AA
100
AcDbEntity
  8
寸法
 62
     0
 48
50.0
370
    -2
100
AcDbBlockReference
  2
_DOTSMALL
 10
8670.14438614211
 20
6383.211798685408
 30
0.0
 41
100.0
 42
100.0
 43
100.0
 50
90.0
  0
INSERT
  5
2400B
330
1F5AA
100
AcDbEntity
  8
寸法
 62
     0
 48
50.0
370
    -2
100
AcDbBlockReference
  2
_DOTSMALL
 10
8670.14438614211
 20
6263.211798685425
 30
0.0
 41
100.0
 42
100.0
 43
100.0
 50
270.0
  0
MTEXT
  5
2400C
330
1F5AA
100
AcDbEntity
  8
寸法
 62
     7
 48
50.0
100
AcDbMText
 10
8570.132575118487
 20
5926.923493717457
 30
0.0
 40
120.0
 41
0.0
 71
     5
 72
     1
  1
\A1;120
  7
STYLE1
 11
0.0000000000000001
 21
1.0
 31
0.0
 73
     1
 44
1.0
1001
ACAD
1000
MTEXTBEGIN
1070
    73
1070
     1
1070
    44
1040
1.0
1070
    74
1070
     0
1000
MTEXTEND
  0
POINT
  5
2400D
330
1F5AA
100
AcDbEntity
  8
DEFPOINTS
 62
     0
 48
50.0
100
AcDbPoint
 10
8307.419180988159
 20
6263.211798685425
 30
0.0
  0
POINT
  5
2400E
330
1F5AA
100
AcDbEntity
  8
DEFPOINTS
 62
     0
 48
50.0
100
AcDbPoint
 10
8680.567870053115
 20
6383.211798685408
 30
0.0
  0
POINT
  5
2400F
330
1F5AA
100
AcDbEntity
  8
DEFPOINTS
 62
     0
 48
50.0
100
AcDbPoint
 10
8670.14438614211
 20
6383.211798685408
 30
0.0
  0
ENDBLK
  5
1F5B6
330
1F5AA
100
AcDbEntity
  8
0
 48
50.0
100
AcDbBlockEnd
  0
BLOCK
  5
1F5C2
330
1F5B7
100
AcDbEntity
  8
0
 48
50.0
100
AcDbBlockBegin
  2
*D3
 70
     1
 10
0.0
 20
0.0
 30
0.0
  3
*D3
  1

  0
LINE
  5
23FFC
330
1F5B7
100
AcDbEntity
  8
寸法
 62
     0
 48
50.0
370
    -2
100
AcDbLine
 10
8762.599867447319
 20
6383.211798685408
 30
0.0
 11
8610.14438614211
 21
6383.211798685408
 31
0.0
  0
LINE
  5
23FFD
330
1F5B7
100
AcDbEntity
  8
寸法
 62
     0
 48
50.0
370
    -2
100
AcDbLine
 10
8255.600000000001
 20
6493.211798685415
 30
0.0
 11
8730.144386142111
 21
6493.211798685415
 31
0.0
  0
LINE
  5
23FFE
330
1F5B7
100
AcDbEntity
  8
寸法
 62
     0
 48
50.0
370
    -2
100
AcDbLine
 10
8670.14438614211
 20
6383.211798685408
 30
0.0
 11
8670.14438614211
 21
6493.211798685415
 31
0.0
  0
LINE
  5
23FFF
330
1F5B7
100
AcDbEntity
  8
寸法
 62
     0
 48
50.0
370
    -2
100
AcDbLine
 10
8670.14438614211
 20
6493.211798685415
 30
0.0
 11
8670.14438614211
 21
6887.318097898027
 31
0.0
  0
INSERT
  5
24000
330
1F5B7
100
AcDbEntity
  8
寸法
 62
     0
 48
50.0
370
    -2
100
AcDbBlockReference
  2
_DOTSMALL
 10
8670.14438614211
 20
6383.211798685408
 30
0.0
 41
100.0
 42
100.0
 43
100.0
 50
270.0
  0
INSERT
  5
24001
330
1F5B7
100
AcDbEntity
  8
寸法
 62
     0
 48
50.0
370
    -2
100
AcDbBlockReference
  2
_DOTSMALL
 10
8670.14438614211
 20
6493.211798685415
 30
0.0
 41
100.0
 42
100.0
 43
100.0
 50
90.0
  0
MTEXT
  5
24002
330
1F5B7
100
AcDbEntity
  8
寸法
 62
     7
 48
50.0
100
AcDbMText
 10
8570.144386142109
 20
6763.27085380354
 30
0.0
 40
120.0
 41
0.0
 71
     5
 72
     1
  1
\A1;110
  7
STYLE1
 11
0.0000000000000001
 21
1.0
 31
0.0
 73
     1
 44
1.0
1001
ACAD
1000
MTEXTBEGIN
1070
    73
1070
     1
1070
    44
1040
1.0
1070
    74
1070
     0
1000
MTEXTEND
  0
POINT
  5
24003
330
1F5B7
100
AcDbEntity
  8
DEFPOINTS
 62
     0
 48
50.0
100
AcDbPoint
 10
8782.599867447318
 20
6383.211798685408
 30
0.0
  0
POINT
  5
24004
330
1F5B7
100
AcDbEntity
  8
DEFPOINTS
 62
     0
 48
50.0
100
AcDbPoint
 10
8235.600000000001
 20
6493.211798685415
 30
0.0
  0
POINT
  5
24005
330
1F5B7
100
AcDbEntity
  8
DEFPOINTS
 62
     0
 48
50.0
100
AcDbPoint
 10
8670.14438614211
 20
6493.211798685415
 30
0.0
  0
ENDBLK
  5
1F5C3
330
1F5B7
100
AcDbEntity
  8
0
 48
50.0
100
AcDbBlockEnd
  0
BLOCK
  5
1F5D9
330
1F5D0
100
AcDbEntity
  8
0
 48
50.0
100
AcDbBlockBegin
  2
*D4
 70
     1
 10
0.0
 20
0.0
 30
0.0
  3
*D4
  1

  0
LINE
  5
23FF3
330
1F5D0
100
AcDbEntity
  8
寸法
 62
     0
 48
50.0
370
    -2
100
AcDbLine
 10
9895.600000000001
 20
8010.211798685396
 30
0.0
 11
9895.600000000001
 21
8868.971425227481
 31
0.0
  0
LINE
  5
23FF4
330
1F5D0
100
AcDbEntity
  8
寸法
 62
     0
 48
50.0
370
    -2
100
AcDbLine
 10
8105.6
 20
8010.211798685396
 30
0.0
 11
8105.6
 21
8868.971425227481
 31
0.0
  0
LINE
  5
23FF5
330
1F5D0
100
AcDbEntity
  8
寸法
 62
     0
 48
50.0
370
    -2
100
AcDbLine
 10
9895.600000000001
 20
8808.971425227481
 30
0.0
 11
8105.6
 21
8808.971425227481
 31
0.0
  0
INSERT
  5
23FF6
330
1F5D0
100
AcDbEntity
  8
寸法
 62
     0
 48
50.0
370
    -2
100
AcDbBlockReference
  2
_DOTSMALL
 10
9895.600000000001
 20
8808.971425227481
 30
0.0
 41
100.0
 42
100.0
 43
100.0
  0
INSERT
  5
23FF7
330
1F5D0
100
AcDbEntity
  8
寸法
 62
     0
 48
50.0
370
    -2
100
AcDbBlockReference
  2
_DOTSMALL
 10
8105.6
 20
8808.971425227481
 30
0.0
 41
100.0
 42
100.0
 43
100.0
 50
180.0
  0
MTEXT
  5
23FF8
330
1F5D0
100
AcDbEntity
  8
寸法
 62
     7
 48
50.0
100
AcDbMText
 10
9000.6
 20
8908.97142522748
 30
0.0
 40
120.0
 41
0.0
 71
     5
 72
     1
  1
\A1;1790
  7
STYLE1
 73
     1
 44
1.0
1001
ACAD
1000
MTEXTBEGIN
1070
    73
1070
     1
1070
    44
1040
1.0
1070
    74
1070
     0
1000
MTEXTEND
  0
POINT
  5
23FF9
330
1F5D0
100
AcDbEntity
  8
DEFPOINTS
 62
     0
 48
50.0
100
AcDbPoint
 10
9895.600000000001
 20
7990.211798685398
 30
0.0
  0
POINT
  5
23FFA
330
1F5D0
100
AcDbEntity
  8
DEFPOINTS
 62
     0
 48
50.0
100
AcDbPoint
 10
8105.6
 20
7990.211798685398
 30
0.0
  0
POINT
  5
23FFB
330
1F5D0
100
AcDbEntity
  8
DEFPOINTS
 62
     0
 48
50.0
100
AcDbPoint
 10
8105.6
 20
8808.971425227481
 30
0.0
  0
ENDBLK
  5
1F5DA
330
1F5D0
100
AcDbEntity
  8
0
 48
50.0
100
AcDbBlockEnd
  0
BLOCK
  5
1F5E4
330
1F5DB
100
AcDbEntity
  8
0
 48
50.0
100
AcDbBlockBegin
  2
*D5
 70
     1
 10
0.0
 20
0.0
 30
0.0
  3
*D5
  1

  0
LINE
  5
23FEA
330
1F5DB
100
AcDbEntity
  8
寸法
 62
     0
 48
50.0
370
    -2
100
AcDbLine
 10
6428.6
 20
8083.211798685397
 30
0.0
 11
6428.6
 21
9081.432120744317
 31
0.0
  0
LINE
  5
23FEB
330
1F5DB
100
AcDbEntity
  8
寸法
 62
     0
 48
50.0
370
    -2
100
AcDbLine
 10
10018.6
 20
8083.211798685397
 30
0.0
 11
10018.6
 21
9081.432120744317
 31
0.0
  0
LINE
  5
23FEC
330
1F5DB
100
AcDbEntity
  8
寸法
 62
     0
 48
50.0
370
    -2
100
AcDbLine
 10
6428.6
 20
9021.432120744318
 30
0.0
 11
10018.6
 21
9021.432120744318
 31
0.0
  0
INSERT
  5
23FED
330
1F5DB
100
AcDbEntity
  8
寸法
 62
     0
 48
50.0
370
    -2
100
AcDbBlockReference
  2
_DOTSMALL
 10
6428.6
 20
9021.432120744318
 30
0.0
 41
100.0
 42
100.0
 43
100.0
 50
180.0
  0
INSERT
  5
23FEE
330
1F5DB
100
AcDbEntity
  8
寸法
 62
     0
 48
50.0
370
    -2
100
AcDbBlockReference
  2
_DOTSMALL
 10
10018.6
 20
9021.432120744318
 30
0.0
 41
100.0
 42
100.0
 43
100.0
  0
MTEXT
  5
23FEF
330
1F5DB
100
AcDbEntity
  8
寸法
 62
     7
 48
50.0
100
AcDbMText
 10
8223.600000000001
 20
9121.432120744318
 30
0.0
 40
120.0
 41
0.0
 71
     5
 72
     1
  1
\A1;3590
  7
STYLE1
 73
     1
 44
1.0
1001
ACAD
1000
MTEXTBEGIN
1070
    73
1070
     1
1070
    44
1040
1.0
1070
    74
1070
     0
1000
MTEXTEND
  0
POINT
  5
23FF0
330
1F5DB
100
AcDbEntity
  8
DEFPOINTS
 62
     0
 48
50.0
100
AcDbPoint
 10
6428.6
 20
8063.211798685397
 30
0.0
  0
POINT
  5
23FF1
330
1F5DB
100
AcDbEntity
  8
DEFPOINTS
 62
     0
 48
50.0
100
AcDbPoint
 10
10018.6
 20
8063.211798685397
 30
0.0
  0
POINT
  5
23FF2
330
1F5DB
100
AcDbEntity
  8
DEFPOINTS
 62
     0
 48
50.0
100
AcDbPoint
 10
10018.6
 20
9021.432120744318
 30
0.0
  0
ENDBLK
  5
1F5E5
330
1F5DB
100
AcDbEntity
  8
0
 48
50.0
100
AcDbBlockEnd
  0
BLOCK
  5
1F5EE
330
1F5E6
100
AcDbEntity
  8
0
 48
50.0
100
AcDbBlockBegin
  2
*D6
 70
     1
 10
0.0
 20
0.0
 30
0.0
  3
*D6
  1

  0
LINE
  5
23FDF
330
1F5E6
100
AcDbEntity
  8
寸法
 62
     0
 48
50.0
370
    -2
100
AcDbLine
 10
8235.600000000001
 20
6513.211798685415
 30
0.0
 11
8235.600000000001
 21
6866.369337512553
 31
0.0
  0
LINE
  5
23FE0
330
1F5E6
100
AcDbEntity
  8
寸法
 62
     0
 48
50.0
370
    -2
100
AcDbLine
 10
7975.6
 20
6513.211798685415
 30
0.0
 11
7975.6
 21
6866.369337512553
 31
0.0
  0
LINE
  5
23FE1
330
1F5E6
100
AcDbEntity
  8
寸法
 62
     0
 48
50.0
370
    -2
100
AcDbLine
 10
8235.600000000001
 20
6806.369337512554
 30
0.0
 11
8335.600000000001
 21
6806.369337512554
 31
0.0
  0
LINE
  5
23FE2
330
1F5E6
100
AcDbEntity
  8
寸法
 62
     0
 48
50.0
370
    -2
100
AcDbLine
 10
7975.6
 20
6806.369337512554
 30
0.0
 11
7875.6
 21
6806.369337512554
 31
0.0
  0
LINE
  5
23FE3
330
1F5E6
100
AcDbEntity
  8
寸法
 62
     0
 48
50.0
370
    -2
100
AcDbLine
 10
8235.600000000001
 20
6806.369337512554
 30
0.0
 11
7975.6
 21
6806.369337512554
 31
0.0
  0
INSERT
  5
23FE4
330
1F5E6
100
AcDbEntity
  8
寸法
 62
     0
 48
50.0
370
    -2
100
AcDbBlockReference
  2
_DOTSMALL
 10
8235.600000000001
 20
6806.369337512554
 30
0.0
 41
100.0
 42
100.0
 43
100.0
 50
180.0
  0
INSERT
  5
23FE5
330
1F5E6
100
AcDbEntity
  8
寸法
 62
     0
 48
50.0
370
    -2
100
AcDbBlockReference
  2
_DOTSMALL
 10
7975.6
 20
6806.369337512554
 30
0.0
 41
100.0
 42
100.0
 43
100.0
  0
MTEXT
  5
23FE6
330
1F5E6
100
AcDbEntity
  8
寸法
 62
     7
 48
50.0
100
AcDbMText
 10
8105.6
 20
6906.381148536175
 30
0.0
 40
120.0
 41
0.0
 71
     5
 72
     1
  1
\A1;260
  7
STYLE1
 73
     1
 44
1.0
1001
ACAD
1000
MTEXTBEGIN
1070
    73
1070
     1
1070
    44
1040
1.0
1070
    74
1070
     0
1000
MTEXTEND
  0
POINT
  5
23FE7
330
1F5E6
100
AcDbEntity
  8
DEFPOINTS
 62
     0
 48
50.0
100
AcDbPoint
 10
8235.600000000001
 20
6493.211798685415
 30
0.0
  0
POINT
  5
23FE8
330
1F5E6
100
AcDbEntity
  8
DEFPOINTS
 62
     0
 48
50.0
100
AcDbPoint
 10
7975.6
 20
6493.211798685415
 30
0.0
  0
POINT
  5
23FE9
330
1F5E6
100
AcDbEntity
  8
DEFPOINTS
 62
     0
 48
50.0
100
AcDbPoint
 10
7975.6
 20
6806.369337512554
 30
0.0
  0
ENDBLK
  5
1F5EF
330
1F5E6
100
AcDbEntity
  8
0
 48
50.0
100
AcDbBlockEnd
  0
BLOCK
  5
1F5FA
330
1F5F0
100
AcDbEntity
  8
0
 48
50.0
100
AcDbBlockBegin
  2
*D7
 70
     1
 10
0.0
 20
0.0
 30
0.0
  3
*D7
  1

  0
LINE
  5
23FD6
330
1F5F0
100
AcDbEntity
  8
寸法
 62
     0
 48
50.0
370
    -2
100
AcDbLine
 10
6481.6
 20
7940.211798685398
 30
0.0
 11
5872.65773398618
 21
7940.211798685398
 31
0.0
  0
LINE
  5
23FD7
330
1F5F0
100
AcDbEntity
  8
寸法
 62
     0
 48
50.0
370
    -2
100
AcDbLine
 10
6481.600000000007
 20
6386.211798685399
 30
0.0
 11
5872.65773398618
 21
6386.2117986854
 31
0.0
  0
LINE
  5
23FD8
330
1F5F0
100
AcDbEntity
  8
寸法
 62
     0
 48
50.0
370
    -2
100
AcDbLine
 10
5932.65773398618
 20
7940.211798685398
 30
0.0
 11
5932.65773398618
 21
6386.2117986854
 31
0.0
  0
INSERT
  5
23FD9
330
1F5F0
100
AcDbEntity
  8
寸法
 62
     0
 48
50.0
370
    -2
100
AcDbBlockReference
  2
_DOTSMALL
 10
5932.65773398618
 20
7940.211798685398
 30
0.0
 41
100.0
 42
100.0
 43
100.0
 50
90.0
  0
INSERT
  5
23FDA
330
1F5F0
100
AcDbEntity
  8
寸法
 62
     0
 48
50.0
370
    -2
100
AcDbBlockReference
  2
_DOTSMALL
 10
5932.65773398618
 20
6386.2117986854
 30
0.0
 41
100.0
 42
100.0
 43
100.0
 50
270.0
  0
MTEXT
  5
23FDB
330
1F5F0
100
AcDbEntity
  8
寸法
 62
     7
 48
50.0
100
AcDbMText
 10
5832.657733986177
 20
7163.211798685397
 30
0.0
 40
120.0
 41
0.0
 71
     5
 72
     1
  1
\A1;1554
  7
STYLE1
 11
0.0000000000000001
 21
1.0
 31
0.0
 73
     1
 44
1.0
1001
ACAD
1000
MTEXTBEGIN
1070
    73
1070
     1
1070
    44
1040
1.0
1070
    74
1070
     0
1000
MTEXTEND
  0
POINT
  5
23FDC
330
1F5F0
100
AcDbEntity
  8
DEFPOINTS
 62
     0
 48
50.0
100
AcDbPoint
 10
6501.6
 20
7940.211798685398
 30
0.0
  0
POINT
  5
23FDD
330
1F5F0
100
AcDbEntity
  8
DEFPOINTS
 62
     0
 48
50.0
100
AcDbPoint
 10
6501.600000000007
 20
6386.211798685399
 30
0.0
  0
POINT
  5
23FDE
330
1F5F0
100
AcDbEntity
  8
DEFPOINTS
 62
     0
 48
50.0
100
AcDbPoint
 10
5932.65773398618
 20
6386.2117986854
 30
0.0
  0
ENDBLK
  5
1F5FB
330
1F5F0
100
AcDbEntity
  8
0
 48
50.0
100
AcDbBlockEnd
  0
BLOCK
  5
1F605
330
1F5FC
100
AcDbEntity
  8
0
 48
50.0
100
AcDbBlockBegin
  2
*D8
 70
     1
 10
0.0
 20
0.0
 30
0.0
  3
*D8
  1

  0
LINE
  5
23FCD
330
1F5FC
100
AcDbEntity
  8
寸法
 62
     0
 48
50.0
370
    -2
100
AcDbLine
 10
6408.599999999999
 20
8063.211798685397
 30
0.0
 11
5620.714637266781
 21
8063.211798685399
 31
0.0
  0
LINE
  5
23FCE
330
1F5FC
100
AcDbEntity
  8
寸法
 62
     0
 48
50.0
370
    -2
100
AcDbLine
 10
6408.599999999999
 20
6263.211798685397
 30
0.0
 11
5620.714637266781
 21
6263.211798685398
 31
0.0
  0
LINE
  5
23FCF
330
1F5FC
100
AcDbEntity
  8
寸法
 62
     0
 48
50.0
370
    -2
100
AcDbLine
 10
5680.714637266781
 20
8063.211798685399
 30
0.0
 11
5680.714637266781
 21
6263.211798685398
 31
0.0
  0
INSERT
  5
23FD0
330
1F5FC
100
AcDbEntity
  8
寸法
 62
     0
 48
50.0
370
    -2
100
AcDbBlockReference
  2
_DOTSMALL
 10
5680.714637266781
 20
8063.211798685399
 30
0.0
 41
100.0
 42
100.0
 43
100.0
 50
90.0
  0
INSERT
  5
23FD1
330
1F5FC
100
AcDbEntity
  8
寸法
 62
     0
 48
50.0
370
    -2
100
AcDbBlockReference
  2
_DOTSMALL
 10
5680.714637266781
 20
6263.211798685398
 30
0.0
 41
100.0
 42
100.0
 43
100.0
 50
270.0
  0
MTEXT
  5
23FD2
330
1F5FC
100
AcDbEntity
  8
寸法
 62
     7
 48
50.0
100
AcDbMText
 10
5580.71463726678
 20
7163.211798685397
 30
0.0
 40
120.0
 41
0.0
 71
     5
 72
     1
  1
\A1;1800
  7
STYLE1
 11
0.0000000000000001
 21
1.0
 31
0.0
 73
     1
 44
1.0
1001
ACAD
1000
MTEXTBEGIN
1070
    73
1070
     1
1070
    44
1040
1.0
1070
    74
1070
     0
1000
MTEXTEND
  0
POINT
  5
23FD3
330
1F5FC
100
AcDbEntity
  8
DEFPOINTS
 62
     0
 48
50.0
100
AcDbPoint
 10
6428.6
 20
8063.211798685397
 30
0.0
  0
POINT
  5
23FD4
330
1F5FC
100
AcDbEntity
  8
DEFPOINTS
 62
     0
 48
50.0
100
AcDbPoint
 10
6428.6
 20
6263.211798685397
 30
0.0
  0
POINT
  5
23FD5
330
1F5FC
100
AcDbEntity
  8
DEFPOINTS
 62
     0
 48
50.0
100
AcDbPoint
 10
5680.714637266781
 20
6263.211798685398
 30
0.0
  0
ENDBLK
  5
1F606
330
1F5FC
100
AcDbEntity
  8
0
 48
50.0
100
AcDbBlockEnd
  0
BLOCK
  5
1F631
330
1F627
100
AcDbEntity
  8
0
 48
50.0
100
AcDbBlockBegin
  2
*D9
 70
     1
 10
0.0
 20
0.0
 30
0.0
  3
*D9
  1

  0
LINE
  5
23FC4
330
1F627
100
AcDbEntity
  8
寸法
 62
     0
 48
50.0
370
    -2
100
AcDbLine
 10
8196.600000000001
 20
6168.211798685401
 30
0.0
 11
8196.600000000001
 21
5524.226068866642
 31
0.0
  0
LINE
  5
23FC5
330
1F627
100
AcDbEntity
  8
寸法
 62
     0
 48
50.0
370
    -2
100
AcDbLine
 10
6428.6
 20
6168.211798685387
 30
0.0
 11
6428.6
 21
5524.226068866642
 31
0.0
  0
LINE
  5
23FC6
330
1F627
100
AcDbEntity
  8
寸法
 62
     0
 48
50.0
370
    -2
100
AcDbLine
 10
8196.600000000001
 20
5584.226068866643
 30
0.0
 11
6428.6
 21
5584.226068866643
 31
0.0
  0
INSERT
  5
23FC7
330
1F627
100
AcDbEntity
  8
寸法
 62
     0
 48
50.0
370
    -2
100
AcDbBlockReference
  2
_DOTSMALL
 10
8196.600000000001
 20
5584.226068866643
 30
0.0
 41
100.0
 42
100.0
 43
100.0
  0
INSERT
  5
23FC8
330
1F627
100
AcDbEntity
  8
寸法
 62
     0
 48
50.0
370
    -2
100
AcDbBlockReference
  2
_DOTSMALL
 10
6428.6
 20
5584.226068866643
 30
0.0
 41
100.0
 42
100.0
 43
100.0
 50
180.0
  0
MTEXT
  5
23FC9
330
1F627
100
AcDbEntity
  8
寸法
 62
     7
 48
50.0
100
AcDbMText
 10
7564.546747560801
 20
5684.226068866642
 30
0.0
 40
120.0
 41
0.0
 71
     5
 72
     1
  1
\A1;扉の幅 1768
  7
STYLE1
 73
     1
 44
1.0
1001
ACAD
1000
MTEXTBEGIN
1070
    73
1070
     1
1070
    44
1040
1.0
1070
    74
1070
     0
1000
MTEXTEND
  0
POINT
  5
23FCA
330
1F627
100
AcDbEntity
  8
DEFPOINTS
 62
     0
 48
50.0
100
AcDbPoint
 10
8196.600000000001
 20
6188.211798685401
 30
0.0
  0
POINT
  5
23FCB
330
1F627
100
AcDbEntity
  8
DEFPOINTS
 62
     0
 48
50.0
100
AcDbPoint
 10
6428.6
 20
6188.211798685387
 30
0.0
  0
POINT
  5
23FCC
330
1F627
100
AcDbEntity
  8
DEFPOINTS
 62
     0
 48
50.0
100
AcDbPoint
 10
6428.6
 20
5584.226068866643
 30
0.0
  0
ENDBLK
  5
1F632
330
1F627
100
AcDbEntity
  8
0
 48
50.0
100
AcDbBlockEnd
  0
BLOCK
  5
1F64B
330
1F640
100
AcDbEntity
  8
0
 48
50.0
100
AcDbBlockBegin
  2
*D10
 70
     1
 10
0.0
 20
0.0
 30
0.0
  3
*D10
  1

  0
LINE
  5
23FBA
330
1F640
100
AcDbEntity
  8
寸法
 62
     0
 48
50.0
370
    -2
100
AcDbLine
 10
6481.600000000007
 20
6386.211798685399
 30
0.0
 11
5872.65773398618
 21
6386.2117986854
 31
0.0
  0
LINE
  5
23FBB
330
1F640
100
AcDbEntity
  8
寸法
 62
     0
 48
50.0
370
    -2
100
AcDbLine
 10
6408.599999999999
 20
6263.211798685397
 30
0.0
 11
5872.65773398618
 21
6263.211798685398
 31
0.0
  0
LINE
  5
23FBC
330
1F640
100
AcDbEntity
  8
寸法
 62
     0
 48
50.0
370
    -2
100
AcDbLine
 10
5932.65773398618
 20
6386.2117986854
 30
0.0
 11
5932.65773398618
 21
6263.211798685398
 31
0.0
  0
LINE
  5
23FBD
330
1F640
100
AcDbEntity
  8
寸法
 62
     0
 48
50.0
370
    -2
100
AcDbLine
 10
5932.65773398618
 20
6263.211798685398
 30
0.0
 11
5932.657733986179
 21
5789.195568468565
 31
0.0
  0
INSERT
  5
23FBE
330
1F640
100
AcDbEntity
  8
寸法
 62
     0
 48
50.0
370
    -2
100
AcDbBlockReference
  2
_DOTSMALL
 10
5932.65773398618
 20
6386.2117986854
 30
0.0
 41
100.0
 42
100.0
 43
100.0
 50
90.0
  0
INSERT
  5
23FBF
330
1F640
100
AcDbEntity
  8
寸法
 62
     0
 48
50.0
370
    -2
100
AcDbBlockReference
  2
_DOTSMALL
 10
5932.65773398618
 20
6263.211798685398
 30
0.0
 41
100.0
 42
100.0
 43
100.0
 50
270.0
  0
MTEXT
  5
23FC0
330
1F640
100
AcDbEntity
  8
寸法
 62
     7
 48
50.0
100
AcDbMText
 10
5832.645922962556
 20
5927.680849842805
 30
0.0
 40
120.0
 41
0.0
 71
     5
 72
     1
  1
\A1;123
  7
STYLE1
 11
0.0000000000000001
 21
1.0
 31
0.0
 73
     1
 44
1.0
1001
ACAD
1000
MTEXTBEGIN
1070
    73
1070
     1
1070
    44
1040
1.0
1070
    74
1070
     0
1000
MTEXTEND
  0
POINT
  5
23FC1
330
1F640
100
AcDbEntity
  8
DEFPOINTS
 62
     0
 48
50.0
100
AcDbPoint
 10
6501.600000000007
 20
6386.211798685399
 30
0.0
  0
POINT
  5
23FC2
330
1F640
100
AcDbEntity
  8
DEFPOINTS
 62
     0
 48
50.0
100
AcDbPoint
 10
6428.6
 20
6263.211798685397
 30
0.0
  0
POINT
  5
23FC3
330
1F640
100
AcDbEntity
  8
DEFPOINTS
 62
     0
 48
50.0
100
AcDbPoint
 10
5932.65773398618
 20
6263.211798685398
 30
0.0
  0
ENDBLK
  5
1F64C
330
1F640
100
AcDbEntity
  8
0
 48
50.0
100
AcDbBlockEnd
  0
BLOCK
  5
1F66E
330
1F664
100
AcDbEntity
  8
0
 48
50.0
100
AcDbBlockBegin
  2
*D11
 70
     1
 10
0.0
 20
0.0
 30
0.0
  3
*D11
  1

  0
LINE
  5
23FB1
330
1F664
100
AcDbEntity
  8
寸法
 62
     0
 48
50.0
370
    -2
100
AcDbLine
 10
8105.6
 20
8010.211798685396
 30
0.0
 11
8105.6
 21
8868.971425227481
 31
0.0
  0
LINE
  5
23FB2
330
1F664
100
AcDbEntity
  8
寸法
 62
     0
 48
50.0
370
    -2
100
AcDbLine
 10
6551.6
 20
8010.211798685396
 30
0.0
 11
6551.6
 21
8868.971425227481
 31
0.0
  0
LINE
  5
23FB3
330
1F664
100
AcDbEntity
  8
寸法
 62
     0
 48
50.0
370
    -2
100
AcDbLine
 10
8105.6
 20
8808.971425227481
 30
0.0
 11
6551.6
 21
8808.971425227481
 31
0.0
  0
INSERT
  5
23FB4
330
1F664
100
AcDbEntity
  8
寸法
 62
     0
 48
50.0
370
    -2
100
AcDbBlockReference
  2
_DOTSMALL
 10
8105.6
 20
8808.971425227481
 30
0.0
 41
100.0
 42
100.0
 43
100.0
  0
INSERT
  5
23FB5
330
1F664
100
AcDbEntity
  8
寸法
 62
     0
 48
50.0
370
    -2
100
AcDbBlockReference
  2
_DOTSMALL
 10
6551.6
 20
8808.971425227481
 30
0.0
 41
100.0
 42
100.0
 43
100.0
 50
180.0
  0
MTEXT
  5
23FB6
330
1F664
100
AcDbEntity
  8
寸法
 62
     7
 48
50.0
100
AcDbMText
 10
7328.6
 20
8908.97142522748
 30
0.0
 40
120.0
 41
0.0
 71
     5
 72
     1
  1
\A1;1554
  7
STYLE1
 73
     1
 44
1.0
1001
ACAD
1000
MTEXTBEGIN
1070
    73
1070
     1
1070
    44
1040
1.0
1070
    74
1070
     0
1000
MTEXTEND
  0
POINT
  5
23FB7
330
1F664
100
AcDbEntity
  8
DEFPOINTS
 62
     0
 48
50.0
100
AcDbPoint
 10
8105.6
 20
7990.211798685398
 30
0.0
  0
POINT
  5
23FB8
330
1F664
100
AcDbEntity
  8
DEFPOINTS
 62
     0
 48
50.0
100
AcDbPoint
 10
6551.6
 20
7990.211798685398
 30
0.0
  0
POINT
  5
23FB9
330
1F664
100
AcDbEntity
  8
DEFPOINTS
 62
     0
 48
50.0
100
AcDbPoint
 10
6551.6
 20
8808.971425227481
 30
0.0
  0
ENDBLK
  5
1F66F
330
1F664
100
AcDbEntity
  8
0
 48
50.0
100
AcDbBlockEnd
  0
BLOCK
  5
1F679
330
1F670
100
AcDbEntity
  8
0
 48
50.0
100
AcDbBlockBegin
  2
*D12
 70
     1
 10
0.0
 20
0.0
 30
0.0
  3
*D12
  1

  0
LINE
  5
23FA8
330
1F670
100
AcDbEntity
  8
寸法
 62
     0
 48
50.0
370
    -2
100
AcDbLine
 10
7326.599999999996
 20
7233.211798685406
 30
0.0
 11
7326.599999999996
 21
8650.121564333726
 31
0.0
  0
LINE
  5
23FA9
330
1F670
100
AcDbEntity
  8
寸法
 62
     0
 48
50.0
370
    -2
100
AcDbLine
 10
6428.6
 20
8083.211798685397
 30
0.0
 11
6428.6
 21
8650.121564333726
 31
0.0
  0
LINE
  5
23FAA
330
1F670
100
AcDbEntity
  8
寸法
 62
     0
 48
50.0
370
    -2
100
AcDbLine
 10
7326.599999999996
 20
8590.121564333726
 30
0.0
 11
6428.6
 21
8590.121564333726
 31
0.0
  0
INSERT
  5
23FAB
330
1F670
100
AcDbEntity
  8
寸法
 62
     0
 48
50.0
370
    -2
100
AcDbBlockReference
  2
_DOTSMALL
 10
7326.599999999996
 20
8590.121564333726
 30
0.0
 41
100.0
 42
100.0
 43
100.0
  0
INSERT
  5
23FAC
330
1F670
100
AcDbEntity
  8
寸法
 62
     0
 48
50.0
370
    -2
100
AcDbBlockReference
  2
_DOTSMALL
 10
6428.6
 20
8590.121564333726
 30
0.0
 41
100.0
 42
100.0
 43
100.0
 50
180.0
  0
MTEXT
  5
23FAD
330
1F670
100
AcDbEntity
  8
寸法
 62
     7
 48
50.0
100
AcDbMText
 10
6877.599999999998
 20
8690.121564333725
 30
0.0
 40
120.0
 41
0.0
 71
     5
 72
     1
  1
\A1;898
  7
STYLE1
 73
     1
 44
1.0
1001
ACAD
1000
MTEXTBEGIN
1070
    73
1070
     1
1070
    44
1040
1.0
1070
    74
1070
     0
1000
MTEXTEND
  0
POINT
  5
23FAE
330
1F670
100
AcDbEntity
  8
DEFPOINTS
 62
     0
 48
50.0
100
AcDbPoint
 10
7326.599999999996
 20
7213.211798685406
 30
0.0
  0
POINT
  5
23FAF
330
1F670
100
AcDbEntity
  8
DEFPOINTS
 62
     0
 48
50.0
100
AcDbPoint
 10
6428.6
 20
8063.211798685397
 30
0.0
  0
POINT
  5
23FB0
330
1F670
100
AcDbEntity
  8
DEFPOINTS
 62
     0
 48
50.0
100
AcDbPoint
 10
6428.6
 20
8590.121564333726
 30
0.0
  0
ENDBLK
  5
1F67A
330
1F670
100
AcDbEntity
  8
0
 48
50.0
100
AcDbBlockEnd
  0
BLOCK
  5
1F686
330
1F67B
100
AcDbEntity
  8
0
 48
50.0
100
AcDbBlockBegin
  2
*D13
 70
     1
 10
0.0
 20
0.0
 30
0.0
  3
*D13
  1

  0
LINE
  5
23F9E
330
1F67B
100
AcDbEntity
  8
寸法
 62
     0
 48
50.0
370
    -2
100
AcDbLine
 10
6678.6
 20
7943.211798685398
 30
0.0
 11
6935.307249876098
 21
7943.211798685398
 31
0.0
  0
LINE
  5
23F9F
330
1F67B
100
AcDbEntity
  8
寸法
 62
     0
 48
50.0
370
    -2
100
AcDbLine
 10
6678.6
 20
7833.211798685394
 30
0.0
 11
6935.307249876098
 21
7833.211798685394
 31
0.0
  0
LINE
  5
23FA0
330
1F67B
100
AcDbEntity
  8
寸法
 62
     0
 48
50.0
370
    -2
100
AcDbLine
 10
6875.307249876098
 20
7943.211798685398
 30
0.0
 11
6875.307249876098
 21
7833.211798685394
 31
0.0
  0
LINE
  5
23FA1
330
1F67B
100
AcDbEntity
  8
寸法
 62
     0
 48
50.0
370
    -2
100
AcDbLine
 10
6875.307249876098
 20
7833.211798685394
 30
0.0
 11
6875.307249876098
 21
7369.105499472794
 31
0.0
  0
INSERT
  5
23FA2
330
1F67B
100
AcDbEntity
  8
寸法
 62
     0
 48
50.0
370
    -2
100
AcDbBlockReference
  2
_DOTSMALL
 10
6875.307249876098
 20
7943.211798685398
 30
0.0
 41
100.0
 42
100.0
 43
100.0
 50
90.0
  0
INSERT
  5
23FA3
330
1F67B
100
AcDbEntity
  8
寸法
 62
     0
 48
50.0
370
    -2
100
AcDbBlockReference
  2
_DOTSMALL
 10
6875.307249876098
 20
7833.211798685394
 30
0.0
 41
100.0
 42
100.0
 43
100.0
 50
270.0
  0
MTEXT
  5
23FA4
330
1F67B
100
AcDbEntity
  8
寸法
 62
     7
 48
50.0
100
AcDbMText
 10
6775.307249876097
 20
7493.152743567283
 30
0.0
 40
120.0
 41
0.0
 71
     5
 72
     1
  1
\A1;110
  7
STYLE1
 11
0.0000000000000001
 21
1.0
 31
0.0
 73
     1
 44
1.0
1001
ACAD
1000
MTEXTBEGIN
1070
    73
1070
     1
1070
    44
1040
1.0
1070
    74
1070
     0
1000
MTEXTEND
  0
POINT
  5
23FA5
330
1F67B
100
AcDbEntity
  8
DEFPOINTS
 62
     0
 48
50.0
100
AcDbPoint
 10
6658.599999999999
 20
7943.211798685398
 30
0.0
  0
POINT
  5
23FA6
330
1F67B
100
AcDbEntity
  8
DEFPOINTS
 62
     0
 48
50.0
100
AcDbPoint
 10
6658.599999999999
 20
7833.211798685394
 30
0.0
  0
POINT
  5
23FA7
330
1F67B
100
AcDbEntity
  8
DEFPOINTS
 62
     0
 48
50.0
100
AcDbPoint
 10
6875.307249876098
 20
7833.211798685394
 30
0.0
  0
ENDBLK
  5
1F687
330
1F67B
100
AcDbEntity
  8
0
 48
50.0
100
AcDbBlockEnd
  0
BLOCK
  5
1F693
330
1F688
100
AcDbEntity
  8
0
 48
50.0
100
AcDbBlockBegin
  2
*D14
 70
     1
 10
0.0
 20
0.0
 30
0.0
  3
*D14
  1

  0
LINE
  5
23F94
330
1F688
100
AcDbEntity
  8
寸法
 62
     0
 48
50.0
370
    -2
100
AcDbLine
 10
6408.599999999999
 20
8063.211798685397
 30
0.0
 11
5872.657733986179
 21
8063.211798685399
 31
0.0
  0
LINE
  5
23F95
330
1F688
100
AcDbEntity
  8
寸法
 62
     0
 48
50.0
370
    -2
100
AcDbLine
 10
6481.6
 20
7940.211798685398
 30
0.0
 11
5872.657733986179
 21
7940.211798685398
 31
0.0
  0
LINE
  5
23F96
330
1F688
100
AcDbEntity
  8
寸法
 62
     0
 48
50.0
370
    -2
100
AcDbLine
 10
5932.657733986179
 20
7940.211798685398
 30
0.0
 11
5932.657733986179
 21
8063.211798685399
 31
0.0
  0
LINE
  5
23F97
330
1F688
100
AcDbEntity
  8
寸法
 62
     0
 48
50.0
370
    -2
100
AcDbLine
 10
5932.657733986179
 20
8063.211798685399
 30
0.0
 11
5932.657733986179
 21
8474.803681777434
 31
0.0
  0
INSERT
  5
23F98
330
1F688
100
AcDbEntity
  8
寸法
 62
     0
 48
50.0
370
    -2
100
AcDbBlockReference
  2
_DOTSMALL
 10
5932.657733986179
 20
7940.211798685398
 30
0.0
 41
100.0
 42
100.0
 43
100.0
 50
270.0
  0
INSERT
  5
23F99
330
1F688
100
AcDbEntity
  8
寸法
 62
     0
 48
50.0
370
    -2
100
AcDbBlockReference
  2
_DOTSMALL
 10
5932.657733986179
 20
8063.211798685399
 30
0.0
 41
100.0
 42
100.0
 43
100.0
 50
90.0
  0
MTEXT
  5
23F9A
330
1F688
100
AcDbEntity
  8
寸法
 62
     7
 48
50.0
100
AcDbMText
 10
5832.645922962556
 20
8336.318400403198
 30
0.0
 40
120.0
 41
0.0
 71
     5
 72
     1
  1
\A1;123
  7
STYLE1
 11
0.0000000000000001
 21
1.0
 31
0.0
 73
     1
 44
1.0
1001
ACAD
1000
MTEXTBEGIN
1070
    73
1070
     1
1070
    44
1040
1.0
1070
    74
1070
     0
1000
MTEXTEND
  0
POINT
  5
23F9B
330
1F688
100
AcDbEntity
  8
DEFPOINTS
 62
     0
 48
50.0
100
AcDbPoint
 10
6428.6
 20
8063.211798685397
 30
0.0
  0
POINT
  5
23F9C
330
1F688
100
AcDbEntity
  8
DEFPOINTS
 62
     0
 48
50.0
100
AcDbPoint
 10
6501.6
 20
7940.211798685398
 30
0.0
  0
POINT
  5
23F9D
330
1F688
100
AcDbEntity
  8
DEFPOINTS
 62
     0
 48
50.0
100
AcDbPoint
 10
5932.657733986179
 20
7940.211798685398
 30
0.0
  0
ENDBLK
  5
1F694
330
1F688
100
AcDbEntity
  8
0
 48
50.0
100
AcDbBlockEnd
  0
BLOCK
  5
1F6A0
330
1F695
100
AcDbEntity
  8
0
 48
50.0
100
AcDbBlockBegin
  2
*D15
 70
     1
 10
0.0
 20
0.0
 30
0.0
  3
*D15
  1

  0
LINE
  5
23F8A
330
1F695
100
AcDbEntity
  8
寸法
 62
     0
 48
50.0
370
    -2
100
AcDbLine
 10
6551.6
 20
8010.211798685396
 30
0.0
 11
6551.6
 21
8868.971425227481
 31
0.0
  0
LINE
  5
23F8B
330
1F695
100
AcDbEntity
  8
寸法
 62
     0
 48
50.0
370
    -2
100
AcDbLine
 10
6428.6
 20
8083.211798685397
 30
0.0
 11
6428.6
 21
8868.971425227481
 31
0.0
  0
LINE
  5
23F8C
330
1F695
100
AcDbEntity
  8
寸法
 62
     0
 48
50.0
370
    -2
100
AcDbLine
 10
6551.6
 20
8808.971425227481
 30
0.0
 11
6428.6
 21
8808.971425227481
 31
0.0
  0
LINE
  5
23F8D
330
1F695
100
AcDbEntity
  8
寸法
 62
     0
 48
50.0
370
    -2
100
AcDbLine
 10
6428.6
 20
8808.971425227481
 30
0.0
 11
6017.008116907963
 21
8808.971425227481
 31
0.0
  0
INSERT
  5
23F8E
330
1F695
100
AcDbEntity
  8
寸法
 62
     0
 48
50.0
370
    -2
100
AcDbBlockReference
  2
_DOTSMALL
 10
6551.6
 20
8808.971425227481
 30
0.0
 41
100.0
 42
100.0
 43
100.0
  0
INSERT
  5
23F8F
330
1F695
100
AcDbEntity
  8
寸法
 62
     0
 48
50.0
370
    -2
100
AcDbBlockReference
  2
_DOTSMALL
 10
6428.6
 20
8808.971425227481
 30
0.0
 41
100.0
 42
100.0
 43
100.0
 50
180.0
  0
MTEXT
  5
23F90
330
1F695
100
AcDbEntity
  8
寸法
 62
     7
 48
50.0
100
AcDbMText
 10
6155.493398282202
 20
8908.983236251103
 30
0.0
 40
120.0
 41
0.0
 71
     5
 72
     1
  1
\A1;123
  7
STYLE1
 73
     1
 44
1.0
1001
ACAD
1000
MTEXTBEGIN
1070
    73
1070
     1
1070
    44
1040
1.0
1070
    74
1070
     0
1000
MTEXTEND
  0
POINT
  5
23F91
330
1F695
100
AcDbEntity
  8
DEFPOINTS
 62
     0
 48
50.0
100
AcDbPoint
 10
6551.6
 20
7990.211798685398
 30
0.0
  0
POINT
  5
23F92
330
1F695
100
AcDbEntity
  8
DEFPOINTS
 62
     0
 48
50.0
100
AcDbPoint
 10
6428.6
 20
8063.211798685397
 30
0.0
  0
POINT
  5
23F93
330
1F695
100
AcDbEntity
  8
DEFPOINTS
 62
     0
 48
50.0
100
AcDbPoint
 10
6428.6
 20
8808.971425227481
 30
0.0
  0
ENDBLK
  5
1F6A1
330
1F695
100
AcDbEntity
  8
0
 48
50.0
100
AcDbBlockEnd
  0
BLOCK
  5
1F6AD
330
1F6A2
100
AcDbEntity
  8
0
 48
50.0
100
AcDbBlockBegin
  2
*D16
 70
     1
 10
0.0
 20
0.0
 30
0.0
  3
*D16
  1

  0
LINE
  5
23F80
330
1F6A2
100
AcDbEntity
  8
寸法
 62
     0
 48
50.0
370
    -2
100
AcDbLine
 10
6678.6
 20
7943.211798685398
 30
0.0
 11
6935.307249876098
 21
7943.211798685398
 31
0.0
  0
LINE
  5
23F81
330
1F6A2
100
AcDbEntity
  8
寸法
 62
     0
 48
50.0
370
    -2
100
AcDbLine
 10
6678.6
 20
8063.211798685395
 30
0.0
 11
6935.307249876098
 21
8063.211798685395
 31
0.0
  0
LINE
  5
23F82
330
1F6A2
100
AcDbEntity
  8
寸法
 62
     0
 48
50.0
370
    -2
100
AcDbLine
 10
6875.307249876098
 20
7943.211798685398
 30
0.0
 11
6875.307249876098
 21
8063.211798685395
 31
0.0
  0
LINE
  5
23F83
330
1F6A2
100
AcDbEntity
  8
寸法
 62
     0
 48
50.0
370
    -2
100
AcDbLine
 10
6875.307249876098
 20
8063.211798685395
 30
0.0
 11
6875.307249876098
 21
8477.342586052769
 31
0.0
  0
INSERT
  5
23F84
330
1F6A2
100
AcDbEntity
  8
寸法
 62
     0
 48
50.0
370
    -2
100
AcDbBlockReference
  2
_DOTSMALL
 10
6875.307249876098
 20
7943.211798685398
 30
0.0
 41
100.0
 42
100.0
 43
100.0
 50
270.0
  0
INSERT
  5
23F85
330
1F6A2
100
AcDbEntity
  8
寸法
 62
     0
 48
50.0
370
    -2
100
AcDbBlockReference
  2
_DOTSMALL
 10
6875.307249876098
 20
8063.211798685395
 30
0.0
 41
100.0
 42
100.0
 43
100.0
 50
90.0
  0
MTEXT
  5
23F86
330
1F6A2
100
AcDbEntity
  8
寸法
 62
     7
 48
50.0
100
AcDbMText
 10
6775.295438852475
 20
8341.295341958284
 30
0.0
 40
120.0
 41
0.0
 71
     5
 72
     1
  1
\A1;120
  7
STYLE1
 11
0.0000000000000001
 21
1.0
 31
0.0
 73
     1
 44
1.0
1001
ACAD
1000
MTEXTBEGIN
1070
    73
1070
     1
1070
    44
1040
1.0
1070
    74
1070
     0
1000
MTEXTEND
  0
POINT
  5
23F87
330
1F6A2
100
AcDbEntity
  8
DEFPOINTS
 62
     0
 48
50.0
100
AcDbPoint
 10
6658.599999999999
 20
7943.211798685398
 30
0.0
  0
POINT
  5
23F88
330
1F6A2
100
AcDbEntity
  8
DEFPOINTS
 62
     0
 48
50.0
100
AcDbPoint
 10
6658.599999999999
 20
8063.211798685395
 30
0.0
  0
POINT
  5
23F89
330
1F6A2
100
AcDbEntity
  8
DEFPOINTS
 62
     0
 48
50.0
100
AcDbPoint
 10
6875.307249876098
 20
8063.211798685395
 30
0.0
  0
ENDBLK
  5
1F6AE
330
1F6A2
100
AcDbEntity
  8
0
 48
50.0
100
AcDbBlockEnd
  0
BLOCK
  5
1F6C5
330
1F6BB
100
AcDbEntity
  8
0
 48
50.0
100
AcDbBlockBegin
  2
*D17
 70
     1
 10
0.0
 20
0.0
 30
0.0
  3
*D17
  1

  0
LINE
  5
23F77
330
1F6BB
100
AcDbEntity
  8
寸法
 62
     0
 48
50.0
370
    -2
100
AcDbLine
 10
8691.600000000011
 20
6263.211798685412
 30
0.0
 11
8987.970132415947
 21
6263.211798685412
 31
0.0
  0
LINE
  5
23F78
330
1F6BB
100
AcDbEntity
  8
寸法
 62
     0
 48
50.0
370
    -2
100
AcDbLine
 10
9050.600000000001
 20
7163.211798685406
 30
0.0
 11
8867.970132415946
 21
7163.211798685406
 31
0.0
  0
LINE
  5
23F79
330
1F6BB
100
AcDbEntity
  8
寸法
 62
     0
 48
50.0
370
    -2
100
AcDbLine
 10
8927.970132415948
 20
6263.211798685412
 30
0.0
 11
8927.970132415948
 21
7163.211798685406
 31
0.0
  0
INSERT
  5
23F7A
330
1F6BB
100
AcDbEntity
  8
寸法
 62
     0
 48
50.0
370
    -2
100
AcDbBlockReference
  2
_DOTSMALL
 10
8927.970132415948
 20
6263.211798685412
 30
0.0
 41
100.0
 42
100.0
 43
100.0
 50
270.0
  0
INSERT
  5
23F7B
330
1F6BB
100
AcDbEntity
  8
寸法
 62
     0
 48
50.0
370
    -2
100
AcDbBlockReference
  2
_DOTSMALL
 10
8927.970132415948
 20
7163.211798685406
 30
0.0
 41
100.0
 42
100.0
 43
100.0
 50
90.0
  0
MTEXT
  5
23F7C
330
1F6BB
100
AcDbEntity
  8
寸法
 62
     7
 48
50.0
100
AcDbMText
 10
8827.970132415945
 20
6713.21179868541
 30
0.0
 40
120.0
 41
0.0
 71
     5
 72
     1
  1
\A1;900
  7
STYLE1
 11
0.0000000000000001
 21
1.0
 31
0.0
 73
     1
 44
1.0
1001
ACAD
1000
MTEXTBEGIN
1070
    73
1070
     1
1070
    44
1040
1.0
1070
    74
1070
     0
1000
MTEXTEND
  0
POINT
  5
23F7D
330
1F6BB
100
AcDbEntity
  8
DEFPOINTS
 62
     0
 48
50.0
100
AcDbPoint
 10
8671.60000000001
 20
6263.211798685412
 30
0.0
  0
POINT
  5
23F7E
330
1F6BB
100
AcDbEntity
  8
DEFPOINTS
 62
     0
 48
50.0
100
AcDbPoint
 10
9070.6
 20
7163.211798685406
 30
0.0
  0
POINT
  5
23F7F
330
1F6BB
100
AcDbEntity
  8
DEFPOINTS
 62
     0
 48
50.0
100
AcDbPoint
 10
8927.970132415948
 20
7163.211798685406
 30
0.0
  0
ENDBLK
  5
1F6C6
330
1F6BB
100
AcDbEntity
  8
0
 48
50.0
100
AcDbBlockEnd
  0
BLOCK
  5
1F6F8
330
1F6ED
100
AcDbEntity
  8
0
 48
50.0
100
AcDbBlockBegin
  2
*D18
 70
     1
 10
0.0
 20
0.0
 30
0.0
  3
*D18
  1

  0
LINE
  5
23F6D
330
1F6ED
100
AcDbEntity
  8
寸法
 62
     0
 48
50.0
370
    -2
100
AcDbLine
 10
9898.6
 20
7602.496395223854
 30
0.0
 11
9898.6
 21
7545.503131185023
 31
0.0
  0
LINE
  5
23F6E
330
1F6ED
100
AcDbEntity
  8
寸法
 62
     0
 48
50.0
370
    -2
100
AcDbLine
 10
9788.600000000002
 20
7813.211798685395
 30
0.0
 11
9788.600000000002
 21
7545.503131185023
 31
0.0
  0
LINE
  5
23F6F
330
1F6ED
100
AcDbEntity
  8
寸法
 62
     0
 48
50.0
370
    -2
100
AcDbLine
 10
9898.6
 20
7605.503131185024
 30
0.0
 11
9788.600000000002
 21
7605.503131185024
 31
0.0
  0
LINE
  5
23F70
330
1F6ED
100
AcDbEntity
  8
寸法
 62
     0
 48
50.0
370
    -2
100
AcDbLine
 10
9788.600000000002
 20
7605.503131185024
 30
0.0
 11
9394.493700787402
 21
7605.503131185024
 31
0.0
  0
INSERT
  5
23F71
330
1F6ED
100
AcDbEntity
  8
寸法
 62
     0
 48
50.0
370
    -2
100
AcDbBlockReference
  2
_DOTSMALL
 10
9898.6
 20
7605.503131185024
 30
0.0
 41
100.0
 42
100.0
 43
100.0
  0
INSERT
  5
23F72
330
1F6ED
100
AcDbEntity
  8
寸法
 62
     0
 48
50.0
370
    -2
100
AcDbBlockReference
  2
_DOTSMALL
 10
9788.600000000002
 20
7605.503131185024
 30
0.0
 41
100.0
 42
100.0
 43
100.0
 50
180.0
  0
MTEXT
  5
23F73
330
1F6ED
100
AcDbEntity
  8
寸法
 62
     7
 48
50.0
100
AcDbMText
 10
9518.540944881889
 20
7705.503131185024
 30
0.0
 40
120.0
 41
0.0
 71
     5
 72
     1
  1
\A1;110
  7
STYLE1
 73
     1
 44
1.0
1001
ACAD
1000
MTEXTBEGIN
1070
    73
1070
     1
1070
    44
1040
1.0
1070
    74
1070
     0
1000
MTEXTEND
  0
POINT
  5
23F74
330
1F6ED
100
AcDbEntity
  8
DEFPOINTS
 62
     0
 48
50.0
100
AcDbPoint
 10
9898.6
 20
7622.496395223854
 30
0.0
  0
POINT
  5
23F75
330
1F6ED
100
AcDbEntity
  8
DEFPOINTS
 62
     0
 48
50.0
100
AcDbPoint
 10
9788.600000000002
 20
7833.211798685396
 30
0.0
  0
POINT
  5
23F76
330
1F6ED
100
AcDbEntity
  8
DEFPOINTS
 62
     0
 48
50.0
100
AcDbPoint
 10
9788.600000000002
 20
7605.503131185024
 30
0.0
  0
ENDBLK
  5
1F6F9
330
1F6ED
100
AcDbEntity
  8
0
 48
50.0
100
AcDbBlockEnd
  0
BLOCK
  5
1F704
330
1F6FA
100
AcDbEntity
  8
0
 48
50.0
100
AcDbBlockBegin
  2
*D19
 70
     1
 10
0.0
 20
0.0
 30
0.0
  3
*D19
  1

  0
LINE
  5
23F64
330
1F6FA
100
AcDbEntity
  8
寸法
 62
     0
 48
50.0
370
    -2
100
AcDbLine
 10
10018.6
 20
8083.211798685397
 30
0.0
 11
10018.6
 21
8650.121564333726
 31
0.0
  0
LINE
  5
23F65
330
1F6FA
100
AcDbEntity
  8
寸法
 62
     0
 48
50.0
370
    -2
100
AcDbLine
 10
9120.600000000001
 20
7233.211798685406
 30
0.0
 11
9120.600000000001
 21
8650.121564333726
 31
0.0
  0
LINE
  5
23F66
330
1F6FA
100
AcDbEntity
  8
寸法
 62
     0
 48
50.0
370
    -2
100
AcDbLine
 10
10018.6
 20
8590.121564333726
 30
0.0
 11
9120.600000000001
 21
8590.121564333726
 31
0.0
  0
INSERT
  5
23F67
330
1F6FA
100
AcDbEntity
  8
寸法
 62
     0
 48
50.0
370
    -2
100
AcDbBlockReference
  2
_DOTSMALL
 10
10018.6
 20
8590.121564333726
 30
0.0
 41
100.0
 42
100.0
 43
100.0
  0
INSERT
  5
23F68
330
1F6FA
100
AcDbEntity
  8
寸法
 62
     0
 48
50.0
370
    -2
100
AcDbBlockReference
  2
_DOTSMALL
 10
9120.600000000001
 20
8590.121564333726
 30
0.0
 41
100.0
 42
100.0
 43
100.0
 50
180.0
  0
MTEXT
  5
23F69
330
1F6FA
100
AcDbEntity
  8
寸法
 62
     7
 48
50.0
100
AcDbMText
 10
9569.600000000001
 20
8690.121564333725
 30
0.0
 40
120.0
 41
0.0
 71
     5
 72
     1
  1
\A1;898
  7
STYLE1
 73
     1
 44
1.0
1001
ACAD
1000
MTEXTBEGIN
1070
    73
1070
     1
1070
    44
1040
1.0
1070
    74
1070
     0
1000
MTEXTEND
  0
POINT
  5
23F6A
330
1F6FA
100
AcDbEntity
  8
DEFPOINTS
 62
     0
 48
50.0
100
AcDbPoint
 10
10018.6
 20
8063.211798685397
 30
0.0
  0
POINT
  5
23F6B
330
1F6FA
100
AcDbEntity
  8
DEFPOINTS
 62
     0
 48
50.0
100
AcDbPoint
 10
9120.600000000001
 20
7213.211798685406
 30
0.0
  0
POINT
  5
23F6C
330
1F6FA
100
AcDbEntity
  8
DEFPOINTS
 62
     0
 48
50.0
100
AcDbPoint
 10
9120.600000000001
 20
8590.121564333726
 30
0.0
  0
ENDBLK
  5
1F705
330
1F6FA
100
AcDbEntity
  8
0
 48
50.0
100
AcDbBlockEnd
  0
BLOCK
  5
1F70F
330
1F706
100
AcDbEntity
  8
0
 48
50.0
100
AcDbBlockBegin
  2
*D20
 70
     1
 10
0.0
 20
0.0
 30
0.0
  3
*D20
  1

  0
LINE
  5
23F5B
330
1F706
100
AcDbEntity
  8
寸法
 62
     0
 48
50.0
370
    -2
100
AcDbLine
 10
9050.600000000001
 20
7163.211798685406
 30
0.0
 11
8867.970132415946
 21
7163.211798685406
 31
0.0
  0
LINE
  5
23F5C
330
1F706
100
AcDbEntity
  8
寸法
 62
     0
 48
50.0
370
    -2
100
AcDbLine
 10
8691.600000000001
 20
8063.211798685395
 30
0.0
 11
8987.970132415947
 21
8063.211798685395
 31
0.0
  0
LINE
  5
23F5D
330
1F706
100
AcDbEntity
  8
寸法
 62
     0
 48
50.0
370
    -2
100
AcDbLine
 10
8927.970132415948
 20
7163.211798685406
 30
0.0
 11
8927.970132415948
 21
8063.211798685395
 31
0.0
  0
INSERT
  5
23F5E
330
1F706
100
AcDbEntity
  8
寸法
 62
     0
 48
50.0
370
    -2
100
AcDbBlockReference
  2
_DOTSMALL
 10
8927.970132415948
 20
7163.211798685406
 30
0.0
 41
100.0
 42
100.0
 43
100.0
 50
270.0
  0
INSERT
  5
23F5F
330
1F706
100
AcDbEntity
  8
寸法
 62
     0
 48
50.0
370
    -2
100
AcDbBlockReference
  2
_DOTSMALL
 10
8927.970132415948
 20
8063.211798685395
 30
0.0
 41
100.0
 42
100.0
 43
100.0
 50
90.0
  0
MTEXT
  5
23F60
330
1F706
100
AcDbEntity
  8
寸法
 62
     7
 48
50.0
100
AcDbMText
 10
8827.970132415945
 20
7613.211798685402
 30
0.0
 40
120.0
 41
0.0
 71
     5
 72
     1
  1
\A1;900
  7
STYLE1
 11
0.0000000000000001
 21
1.0
 31
0.0
 73
     1
 44
1.0
1001
ACAD
1000
MTEXTBEGIN
1070
    73
1070
     1
1070
    44
1040
1.0
1070
    74
1070
     0
1000
MTEXTEND
  0
POINT
  5
23F61
330
1F706
100
AcDbEntity
  8
DEFPOINTS
 62
     0
 48
50.0
100
AcDbPoint
 10
9070.6
 20
7163.211798685406
 30
0.0
  0
POINT
  5
23F62
330
1F706
100
AcDbEntity
  8
DEFPOINTS
 62
     0
 48
50.0
100
AcDbPoint
 10
8671.600000000001
 20
8063.211798685395
 30
0.0
  0
POINT
  5
23F63
330
1F706
100
AcDbEntity
  8
DEFPOINTS
 62
     0
 48
50.0
100
AcDbPoint
 10
8927.970132415948
 20
8063.211798685395
 30
0.0
  0
ENDBLK
  5
1F710
330
1F706
100
AcDbEntity
  8
0
 48
50.0
100
AcDbBlockEnd
  0
BLOCK
  5
1F71C
330
1F711
100
AcDbEntity
  8
0
 48
50.0
100
AcDbBlockBegin
  2
*D21
 70
     1
 10
0.0
 20
0.0
 30
0.0
  3
*D21
  1

  0
LINE
  5
23F51
330
1F711
100
AcDbEntity
  8
寸法
 62
     0
 48
50.0
370
    -2
100
AcDbLine
 10
10018.6
 20
7602.496395223854
 30
0.0
 11
10018.6
 21
7545.503131185023
 31
0.0
  0
LINE
  5
23F52
330
1F711
100
AcDbEntity
  8
寸法
 62
     0
 48
50.0
370
    -2
100
AcDbLine
 10
9898.6
 20
7602.496395223854
 30
0.0
 11
9898.6
 21
7545.503131185023
 31
0.0
  0
LINE
  5
23F53
330
1F711
100
AcDbEntity
  8
寸法
 62
     0
 48
50.0
370
    -2
100
AcDbLine
 10
9898.6
 20
7605.503131185024
 30
0.0
 11
10018.6
 21
7605.503131185024
 31
0.0
  0
LINE
  5
23F54
330
1F711
100
AcDbEntity
  8
寸法
 62
     0
 48
50.0
370
    -2
100
AcDbLine
 10
10018.6
 20
7605.503131185024
 30
0.0
 11
10424.7062992126
 21
7605.503131185024
 31
0.0
  0
INSERT
  5
23F55
330
1F711
100
AcDbEntity
  8
寸法
 62
     0
 48
50.0
370
    -2
100
AcDbBlockReference
  2
_DOTSMALL
 10
9898.6
 20
7605.503131185024
 30
0.0
 41
100.0
 42
100.0
 43
100.0
 50
180.0
  0
INSERT
  5
23F56
330
1F711
100
AcDbEntity
  8
寸法
 62
     0
 48
50.0
370
    -2
100
AcDbBlockReference
  2
_DOTSMALL
 10
10018.6
 20
7605.503131185024
 30
0.0
 41
100.0
 42
100.0
 43
100.0
  0
MTEXT
  5
23F57
330
1F711
100
AcDbEntity
  8
寸法
 62
     7
 48
50.0
100
AcDbMText
 10
10288.65905511811
 20
7705.514942208646
 30
0.0
 40
120.0
 41
0.0
 71
     5
 72
     1
  1
\A1;120
  7
STYLE1
 73
     1
 44
1.0
1001
ACAD
1000
MTEXTBEGIN
1070
    73
1070
     1
1070
    44
1040
1.0
1070
    74
1070
     0
1000
MTEXTEND
  0
POINT
  5
23F58
330
1F711
100
AcDbEntity
  8
DEFPOINTS
 62
     0
 48
50.0
100
AcDbPoint
 10
10018.6
 20
7622.496395223854
 30
0.0
  0
POINT
  5
23F59
330
1F711
100
AcDbEntity
  8
DEFPOINTS
 62
     0
 48
50.0
100
AcDbPoint
 10
9898.6
 20
7622.496395223854
 30
0.0
  0
POINT
  5
23F5A
330
1F711
100
AcDbEntity
  8
DEFPOINTS
 62
     0
 48
50.0
100
AcDbPoint
 10
9898.6
 20
7605.503131185024
 30
0.0
  0
ENDBLK
  5
1F71D
330
1F711
100
AcDbEntity
  8
0
 48
50.0
100
AcDbBlockEnd
  0
BLOCK
  5
1F729
330
1F71E
100
AcDbEntity
  8
0
 48
50.0
100
AcDbBlockBegin
  2
*D22
 70
     1
 10
0.0
 20
0.0
 30
0.0
  3
*D22
  1

  0
LINE
  5
23F47
330
1F71E
100
AcDbEntity
  8
寸法
 62
     0
 48
50.0
370
    -2
100
AcDbLine
 10
10018.6
 20
8083.211798685397
 30
0.0
 11
10018.6
 21
8868.971425227481
 31
0.0
  0
LINE
  5
23F48
330
1F71E
100
AcDbEntity
  8
寸法
 62
     0
 48
50.0
370
    -2
100
AcDbLine
 10
9895.600000000001
 20
8010.211798685396
 30
0.0
 11
9895.600000000001
 21
8868.971425227481
 31
0.0
  0
LINE
  5
23F49
330
1F71E
100
AcDbEntity
  8
寸法
 62
     0
 48
50.0
370
    -2
100
AcDbLine
 10
9895.600000000001
 20
8808.971425227481
 30
0.0
 11
10018.6
 21
8808.971425227481
 31
0.0
  0
LINE
  5
23F4A
330
1F71E
100
AcDbEntity
  8
寸法
 62
     0
 48
50.0
370
    -2
100
AcDbLine
 10
10018.6
 20
8808.971425227481
 30
0.0
 11
10430.19188309203
 21
8808.971425227481
 31
0.0
  0
INSERT
  5
23F4B
330
1F71E
100
AcDbEntity
  8
寸法
 62
     0
 48
50.0
370
    -2
100
AcDbBlockReference
  2
_DOTSMALL
 10
9895.600000000001
 20
8808.971425227481
 30
0.0
 41
100.0
 42
100.0
 43
100.0
 50
180.0
  0
INSERT
  5
23F4C
330
1F71E
100
AcDbEntity
  8
寸法
 62
     0
 48
50.0
370
    -2
100
AcDbBlockReference
  2
_DOTSMALL
 10
10018.6
 20
8808.971425227481
 30
0.0
 41
100.0
 42
100.0
 43
100.0
  0
MTEXT
  5
23F4D
330
1F71E
100
AcDbEntity
  8
寸法
 62
     7
 48
50.0
100
AcDbMText
 10
10291.7066017178
 20
8908.983236251103
 30
0.0
 40
120.0
 41
0.0
 71
     5
 72
     1
  1
\A1;123
  7
STYLE1
 73
     1
 44
1.0
1001
ACAD
1000
MTEXTBEGIN
1070
    73
1070
     1
1070
    44
1040
1.0
1070
    74
1070
     0
1000
MTEXTEND
  0
POINT
  5
23F4E
330
1F71E
100
AcDbEntity
  8
DEFPOINTS
 62
     0
 48
50.0
100
AcDbPoint
 10
10018.6
 20
8063.211798685397
 30
0.0
  0
POINT
  5
23F4F
330
1F71E
100
AcDbEntity
  8
DEFPOINTS
 62
     0
 48
50.0
100
AcDbPoint
 10
9895.600000000001
 20
7990.211798685398
 30
0.0
  0
POINT
  5
23F50
330
1F71E
100
AcDbEntity
  8
DEFPOINTS
 62
     0
 48
50.0
100
AcDbPoint
 10
9895.600000000001
 20
8808.971425227481
 30
0.0
  0
ENDBLK
  5
1F72A
330
1F71E
100
AcDbEntity
  8
0
 48
50.0
100
AcDbBlockEnd
  0
BLOCK
  5
206EE
330
206E4
100
AcDbEntity
  8
0
 48
50.0
100
AcDbBlockBegin
  2
*D23
 70
     1
 10
0.0
 20
0.0
 30
0.0
  3
*D23
  1

  0
LINE
  5
23F3E
330
206E4
100
AcDbEntity
  8
寸法
 62
     0
 48
50.0
370
    -2
100
AcDbLine
 10
8223.600000000001
 20
7233.211798685397
 30
0.0
 11
8223.600000000001
 21
8650.121564333726
 31
0.0
  0
LINE
  5
23F3F
330
206E4
100
AcDbEntity
  8
寸法
 62
     0
 48
50.0
370
    -2
100
AcDbLine
 10
7326.599999999996
 20
7233.211798685406
 30
0.0
 11
7326.599999999996
 21
8650.121564333726
 31
0.0
  0
LINE
  5
23F40
330
206E4
100
AcDbEntity
  8
寸法
 62
     0
 48
50.0
370
    -2
100
AcDbLine
 10
8223.600000000001
 20
8590.121564333726
 30
0.0
 11
7326.599999999996
 21
8590.121564333726
 31
0.0
  0
INSERT
  5
23F41
330
206E4
100
AcDbEntity
  8
寸法
 62
     0
 48
50.0
370
    -2
100
AcDbBlockReference
  2
_DOTSMALL
 10
8223.600000000001
 20
8590.121564333726
 30
0.0
 41
100.0
 42
100.0
 43
100.0
  0
INSERT
  5
23F42
330
206E4
100
AcDbEntity
  8
寸法
 62
     0
 48
50.0
370
    -2
100
AcDbBlockReference
  2
_DOTSMALL
 10
7326.599999999996
 20
8590.121564333726
 30
0.0
 41
100.0
 42
100.0
 43
100.0
 50
180.0
  0
MTEXT
  5
23F43
330
206E4
100
AcDbEntity
  8
寸法
 62
     7
 48
50.0
100
AcDbMText
 10
7775.099999999999
 20
8690.121564333725
 30
0.0
 40
120.0
 41
0.0
 71
     5
 72
     1
  1
\A1;897
  7
STYLE1
 73
     1
 44
1.0
1001
ACAD
1000
MTEXTBEGIN
1070
    73
1070
     1
1070
    44
1040
1.0
1070
    74
1070
     0
1000
MTEXTEND
  0
POINT
  5
23F44
330
206E4
100
AcDbEntity
  8
DEFPOINTS
 62
     0
 48
50.0
100
AcDbPoint
 10
8223.600000000001
 20
7213.211798685397
 30
0.0
  0
POINT
  5
23F45
330
206E4
100
AcDbEntity
  8
DEFPOINTS
 62
     0
 48
50.0
100
AcDbPoint
 10
7326.599999999996
 20
7213.211798685406
 30
0.0
  0
POINT
  5
23F46
330
206E4
100
AcDbEntity
  8
DEFPOINTS
 62
     0
 48
50.0
100
AcDbPoint
 10
7326.599999999996
 20
8590.121564333726
 30
0.0
  0
ENDBLK
  5
206EF
330
206E4
100
AcDbEntity
  8
0
 48
50.0
100
AcDbBlockEnd
  0
BLOCK
  5
2075C
330
20752
100
AcDbEntity
  8
0
 48
50.0
100
AcDbBlockBegin
  2
*D24
 70
     1
 10
0.0
 20
0.0
 30
0.0
  3
*D24
  1

  0
LINE
  5
23F35
330
20752
100
AcDbEntity
  8
寸法
 62
     0
 48
50.0
370
    -2
100
AcDbLine
 10
9120.600000000001
 20
7233.211798685406
 30
0.0
 11
9120.600000000001
 21
8650.121564333726
 31
0.0
  0
LINE
  5
23F36
330
20752
100
AcDbEntity
  8
寸法
 62
     0
 48
50.0
370
    -2
100
AcDbLine
 10
8223.600000000001
 20
7233.211798685397
 30
0.0
 11
8223.600000000001
 21
8650.121564333726
 31
0.0
  0
LINE
  5
23F37
330
20752
100
AcDbEntity
  8
寸法
 62
     0
 48
50.0
370
    -2
100
AcDbLine
 10
9120.600000000001
 20
8590.121564333726
 30
0.0
 11
8223.600000000001
 21
8590.121564333726
 31
0.0
  0
INSERT
  5
23F38
330
20752
100
AcDbEntity
  8
寸法
 62
     0
 48
50.0
370
    -2
100
AcDbBlockReference
  2
_DOTSMALL
 10
9120.600000000001
 20
8590.121564333726
 30
0.0
 41
100.0
 42
100.0
 43
100.0
  0
INSERT
  5
23F39
330
20752
100
AcDbEntity
  8
寸法
 62
     0
 48
50.0
370
    -2
100
AcDbBlockReference
  2
_DOTSMALL
 10
8223.600000000001
 20
8590.121564333726
 30
0.0
 41
100.0
 42
100.0
 43
100.0
 50
180.0
  0
MTEXT
  5
23F3A
330
20752
100
AcDbEntity
  8
寸法
 62
     7
 48
50.0
100
AcDbMText
 10
8672.1
 20
8690.121564333725
 30
0.0
 40
120.0
 41
0.0
 71
     5
 72
     1
  1
\A1;897
  7
STYLE1
 73
     1
 44
1.0
1001
ACAD
1000
MTEXTBEGIN
1070
    73
1070
     1
1070
    44
1040
1.0
1070
    74
1070
     0
1000
MTEXTEND
  0
POINT
  5
23F3B
330
20752
100
AcDbEntity
  8
DEFPOINTS
 62
     0
 48
50.0
100
AcDbPoint
 10
9120.600000000001
 20
7213.211798685406
 30
0.0
  0
POINT
  5
23F3C
330
20752
100
AcDbEntity
  8
DEFPOINTS
 62
     0
 48
50.0
100
AcDbPoint
 10
8223.600000000001
 20
7213.211798685397
 30
0.0
  0
POINT
  5
23F3D
330
20752
100
AcDbEntity
  8
DEFPOINTS
 62
     0
 48
50.0
100
AcDbPoint
 10
8223.600000000001
 20
8590.121564333726
 30
0.0
  0
ENDBLK
  5
2075D
330
20752
100
AcDbEntity
  8
0
 48
50.0
100
AcDbBlockEnd
  0
BLOCK
  5
20DEE
330
20DE2
100
AcDbEntity
  8
0
 48
50.0
100
AcDbBlockBegin
  2
*D25
 70
     1
 10
0.0
 20
0.0
 30
0.0
  3
*D25
  1

  0
LINE
  5
23F2A
330
20DE2
100
AcDbEntity
  8
寸法
 62
     0
 48
50.0
370
    -2
100
AcDbLine
 10
10018.6
 20
8083.211798685397
 30
0.0
 11
10018.6
 21
9081.432120744318
 31
0.0
  0
LINE
  5
23F2B
330
20DE2
100
AcDbEntity
  8
寸法
 62
     0
 48
50.0
370
    -2
100
AcDbLine
 10
10063.6
 20
8828.97142522748
 30
0.0
 11
10063.6
 21
9081.432120744318
 31
0.0
  0
LINE
  5
23F2C
330
20DE2
100
AcDbEntity
  8
寸法
 62
     0
 48
50.0
370
    -2
100
AcDbLine
 10
10018.6
 20
9021.43212074432
 30
0.0
 11
9918.600000000001
 21
9021.43212074432
 31
0.0
  0
LINE
  5
23F2D
330
20DE2
100
AcDbEntity
  8
寸法
 62
     0
 48
50.0
370
    -2
100
AcDbLine
 10
10063.6
 20
9021.43212074432
 30
0.0
 11
10400.94924240492
 21
9021.43212074432
 31
0.0
  0
LINE
  5
23F2E
330
20DE2
100
AcDbEntity
  8
寸法
 62
     0
 48
50.0
370
    -2
100
AcDbLine
 10
10018.6
 20
9021.43212074432
 30
0.0
 11
10063.6
 21
9021.43212074432
 31
0.0
  0
INSERT
  5
23F2F
330
20DE2
100
AcDbEntity
  8
寸法
 62
     0
 48
50.0
370
    -2
100
AcDbBlockReference
  2
_DOTSMALL
 10
10018.6
 20
9021.43212074432
 30
0.0
 41
100.0
 42
100.0
 43
100.0
  0
INSERT
  5
23F30
330
20DE2
100
AcDbEntity
  8
寸法
 62
     0
 48
50.0
370
    -2
100
AcDbBlockReference
  2
_DOTSMALL
 10
10063.6
 20
9021.43212074432
 30
0.0
 41
100.0
 42
100.0
 43
100.0
 50
180.0
  0
MTEXT
  5
23F31
330
20DE2
100
AcDbEntity
  8
寸法
 62
     7
 48
50.0
100
AcDbMText
 10
10334.77462120246
 20
9121.432120744319
 30
0.0
 40
120.0
 41
0.0
 71
     5
 72
     1
  1
\A1;a
  7
STYLE1
 73
     1
 44
1.0
1001
ACAD
1000
MTEXTBEGIN
1070
    73
1070
     1
1070
    44
1040
1.0
1070
    74
1070
     0
1000
MTEXTEND
  0
POINT
  5
23F32
330
20DE2
100
AcDbEntity
  8
DEFPOINTS
 62
     0
 48
50.0
100
AcDbPoint
 10
10018.6
 20
8063.211798685397
 30
0.0
  0
POINT
  5
23F33
330
20DE2
100
AcDbEntity
  8
DEFPOINTS
 62
     0
 48
50.0
100
AcDbPoint
 10
10063.6
 20
8808.971425227481
 30
0.0
  0
POINT
  5
23F34
330
20DE2
100
AcDbEntity
  8
DEFPOINTS
 62
     0
 48
50.0
100
AcDbPoint
 10
10063.6
 20
9021.43212074432
 30
0.0
  0
ENDBLK
  5
20DEF
330
20DE2
100
AcDbEntity
  8
0
 48
50.0
100
AcDbBlockEnd
  0
BLOCK
  5
20E08
330
20DFC
100
AcDbEntity
  8
0
 48
50.0
100
AcDbBlockBegin
  2
*D26
 70
     1
 10
0.0
 20
0.0
 30
0.0
  3
*D26
  1

  0
LINE
  5
23F1F
330
20DFC
100
AcDbEntity
  8
寸法
 62
     0
 48
50.0
370
    -2
100
AcDbLine
 10
6383.600000000004
 20
8828.97142522748
 30
0.0
 11
6383.600000000004
 21
9081.432120744318
 31
0.0
  0
LINE
  5
23F20
330
20DFC
100
AcDbEntity
  8
寸法
 62
     0
 48
50.0
370
    -2
100
AcDbLine
 10
6428.6
 20
8083.211798685397
 30
0.0
 11
6428.6
 21
9081.432120744318
 31
0.0
  0
LINE
  5
23F21
330
20DFC
100
AcDbEntity
  8
寸法
 62
     0
 48
50.0
370
    -2
100
AcDbLine
 10
6428.6
 20
9021.43212074432
 30
0.0
 11
6528.6
 21
9021.43212074432
 31
0.0
  0
LINE
  5
23F22
330
20DFC
100
AcDbEntity
  8
寸法
 62
     0
 48
50.0
370
    -2
100
AcDbLine
 10
6383.600000000004
 20
9021.43212074432
 30
0.0
 11
6046.250757595083
 21
9021.43212074432
 31
0.0
  0
LINE
  5
23F23
330
20DFC
100
AcDbEntity
  8
寸法
 62
     0
 48
50.0
370
    -2
100
AcDbLine
 10
6428.6
 20
9021.43212074432
 30
0.0
 11
6383.600000000004
 21
9021.43212074432
 31
0.0
  0
INSERT
  5
23F24
330
20DFC
100
AcDbEntity
  8
寸法
 62
     0
 48
50.0
370
    -2
100
AcDbBlockReference
  2
_DOTSMALL
 10
6428.6
 20
9021.43212074432
 30
0.0
 41
100.0
 42
100.0
 43
100.0
 50
180.0
  0
INSERT
  5
23F25
330
20DFC
100
AcDbEntity
  8
寸法
 62
     0
 48
50.0
370
    -2
100
AcDbBlockReference
  2
_DOTSMALL
 10
6383.600000000004
 20
9021.43212074432
 30
0.0
 41
100.0
 42
100.0
 43
100.0
  0
MTEXT
  5
23F26
330
20DFC
100
AcDbEntity
  8
寸法
 62
     7
 48
50.0
100
AcDbMText
 10
6112.425378797541
 20
9121.432120744319
 30
0.0
 40
120.0
 41
0.0
 71
     5
 72
     1
  1
\A1;a
  7
STYLE1
 73
     1
 44
1.0
1001
ACAD
1000
MTEXTBEGIN
1070
    73
1070
     1
1070
    44
1040
1.0
1070
    74
1070
     0
1000
MTEXTEND
  0
POINT
  5
23F27
330
20DFC
100
AcDbEntity
  8
DEFPOINTS
 62
     0
 48
50.0
100
AcDbPoint
 10
6383.600000000004
 20
8808.971425227481
 30
0.0
  0
POINT
  5
23F28
330
20DFC
100
AcDbEntity
  8
DEFPOINTS
 62
     0
 48
50.0
100
AcDbPoint
 10
6428.6
 20
8063.211798685397
 30
0.0
  0
POINT
  5
23F29
330
20DFC
100
AcDbEntity
  8
DEFPOINTS
 62
     0
 48
50.0
100
AcDbPoint
 10
6428.6
 20
9021.43212074432
 30
0.0
  0
ENDBLK
  5
20E09
330
20DFC
100
AcDbEntity
  8
0
 48
50.0
100
AcDbBlockEnd
  0
BLOCK
  5
20E22
330
20E16
100
AcDbEntity
  8
0
 48
50.0
100
AcDbBlockBegin
  2
*D27
 70
     1
 10
0.0
 20
0.0
 30
0.0
  3
*D27
  1

  0
LINE
  5
23F14
330
20E16
100
AcDbEntity
  8
寸法
 62
     0
 48
50.0
370
    -2
100
AcDbLine
 10
5912.657733986179
 20
8138.211798685402
 30
0.0
 11
5620.714637266781
 21
8138.211798685402
 31
0.0
  0
LINE
  5
23F15
330
20E16
100
AcDbEntity
  8
寸法
 62
     0
 48
50.0
370
    -2
100
AcDbLine
 10
6408.599999999999
 20
8063.211798685397
 30
0.0
 11
5620.714637266781
 21
8063.211798685399
 31
0.0
  0
LINE
  5
23F16
330
20E16
100
AcDbEntity
  8
寸法
 62
     0
 48
50.0
370
    -2
100
AcDbLine
 10
5680.714637266781
 20
8138.211798685402
 30
0.0
 11
5680.714637266781
 21
8238.211798685401
 31
0.0
  0
LINE
  5
23F17
330
20E16
100
AcDbEntity
  8
寸法
 62
     0
 48
50.0
370
    -2
100
AcDbLine
 10
5680.714637266781
 20
8063.211798685399
 30
0.0
 11
5680.714637266781
 21
7963.211798685398
 31
0.0
  0
LINE
  5
23F18
330
20E16
100
AcDbEntity
  8
寸法
 62
     0
 48
50.0
370
    -2
100
AcDbLine
 10
5680.714637266781
 20
8138.211798685402
 30
0.0
 11
5680.714637266781
 21
8063.211798685399
 31
0.0
  0
INSERT
  5
23F19
330
20E16
100
AcDbEntity
  8
寸法
 62
     0
 48
50.0
370
    -2
100
AcDbBlockReference
  2
_DOTSMALL
 10
5680.714637266781
 20
8138.211798685402
 30
0.0
 41
100.0
 42
100.0
 43
100.0
 50
270.0
  0
INSERT
  5
23F1A
330
20E16
100
AcDbEntity
  8
寸法
 62
     0
 48
50.0
370
    -2
100
AcDbBlockReference
  2
_DOTSMALL
 10
5680.714637266781
 20
8063.211798685399
 30
0.0
 41
100.0
 42
100.0
 43
100.0
 50
90.0
  0
MTEXT
  5
23F1B
330
20E16
100
AcDbEntity
  8
寸法
 62
     7
 48
50.0
100
AcDbMText
 10
5580.71463726678
 20
8100.7117986854
 30
0.0
 40
120.0
 41
0.0
 71
     5
 72
     1
  1
\A1;c
  7
STYLE1
 11
0.0000000000000001
 21
1.0
 31
0.0
 73
     1
 44
1.0
1001
ACAD
1000
MTEXTBEGIN
1070
    73
1070
     1
1070
    44
1040
1.0
1070
    74
1070
     0
1000
MTEXTEND
  0
POINT
  5
23F1C
330
20E16
100
AcDbEntity
  8
DEFPOINTS
 62
     0
 48
50.0
100
AcDbPoint
 10
5932.657733986179
 20
8138.211798685402
 30
0.0
  0
POINT
  5
23F1D
330
20E16
100
AcDbEntity
  8
DEFPOINTS
 62
     0
 48
50.0
100
AcDbPoint
 10
6428.6
 20
8063.211798685397
 30
0.0
  0
POINT
  5
23F1E
330
20E16
100
AcDbEntity
  8
DEFPOINTS
 62
     0
 48
50.0
100
AcDbPoint
 10
5680.714637266781
 20
8063.211798685399
 30
0.0
  0
ENDBLK
  5
20E23
330
20E16
100
AcDbEntity
  8
0
 48
50.0
100
AcDbBlockEnd
  0
BLOCK
  5
20E47
330
20E3B
100
AcDbEntity
  8
0
 48
50.0
100
AcDbBlockBegin
  2
*D28
 70
     1
 10
0.0
 20
0.0
 30
0.0
  3
*D28
  1

  0
LINE
  5
23F09
330
20E3B
100
AcDbEntity
  8
寸法
 62
     0
 48
50.0
370
    -2
100
AcDbLine
 10
6408.599999999999
 20
6263.211798685386
 30
0.0
 11
5620.714637266781
 21
6263.211798685388
 31
0.0
  0
LINE
  5
23F0A
330
20E3B
100
AcDbEntity
  8
寸法
 62
     0
 48
50.0
370
    -2
100
AcDbLine
 10
5912.657733986179
 20
6208.211798685408
 30
0.0
 11
5620.714637266781
 21
6208.211798685408
 31
0.0
  0
LINE
  5
23F0B
330
20E3B
100
AcDbEntity
  8
寸法
 62
     0
 48
50.0
370
    -2
100
AcDbLine
 10
5680.714637266781
 20
6263.211798685388
 30
0.0
 11
5680.714637266781
 21
6363.211798685387
 31
0.0
  0
LINE
  5
23F0C
330
20E3B
100
AcDbEntity
  8
寸法
 62
     0
 48
50.0
370
    -2
100
AcDbLine
 10
5680.714637266781
 20
6208.211798685408
 30
0.0
 11
5680.71463726678
 21
6108.211798685409
 31
0.0
  0
LINE
  5
23F0D
330
20E3B
100
AcDbEntity
  8
寸法
 62
     0
 48
50.0
370
    -2
100
AcDbLine
 10
5680.714637266781
 20
6263.211798685388
 30
0.0
 11
5680.714637266781
 21
6208.211798685408
 31
0.0
  0
INSERT
  5
23F0E
330
20E3B
100
AcDbEntity
  8
寸法
 62
     0
 48
50.0
370
    -2
100
AcDbBlockReference
  2
_DOTSMALL
 10
5680.714637266781
 20
6263.211798685388
 30
0.0
 41
100.0
 42
100.0
 43
100.0
 50
270.0
  0
INSERT
  5
23F0F
330
20E3B
100
AcDbEntity
  8
寸法
 62
     0
 48
50.0
370
    -2
100
AcDbBlockReference
  2
_DOTSMALL
 10
5680.714637266781
 20
6208.211798685408
 30
0.0
 41
100.0
 42
100.0
 43
100.0
 50
90.0
  0
MTEXT
  5
23F10
330
20E3B
100
AcDbEntity
  8
寸法
 62
     7
 48
50.0
100
AcDbMText
 10
5580.71463726678
 20
6235.711798685399
 30
0.0
 40
120.0
 41
0.0
 71
     5
 72
     1
  1
\A1;b
  7
STYLE1
 11
0.0000000000000001
 21
1.0
 31
0.0
 73
     1
 44
1.0
1001
ACAD
1000
MTEXTBEGIN
1070
    73
1070
     1
1070
    44
1040
1.0
1070
    74
1070
     0
1000
MTEXTEND
  0
POINT
  5
23F11
330
20E3B
100
AcDbEntity
  8
DEFPOINTS
 62
     0
 48
50.0
100
AcDbPoint
 10
6428.6
 20
6263.211798685386
 30
0.0
  0
POINT
  5
23F12
330
20E3B
100
AcDbEntity
  8
DEFPOINTS
 62
     0
 48
50.0
100
AcDbPoint
 10
5932.65773398618
 20
6208.211798685408
 30
0.0
  0
POINT
  5
23F13
330
20E3B
100
AcDbEntity
  8
DEFPOINTS
 62
     0
 48
50.0
100
AcDbPoint
 10
5680.714637266781
 20
6208.211798685408
 30
0.0
  0
ENDBLK
  5
20E48
330
20E3B
100
AcDbEntity
  8
0
 48
50.0
100
AcDbBlockEnd
  0
BLOCK
  5
21ED5
330
21EC9
100
AcDbEntity
  8
0
 48
50.0
100
AcDbBlockBegin
  2
*D29
 70
     1
 10
0.0
 20
0.0
 30
0.0
  3
*D29
  1

  0
LINE
  5
23EFF
330
21EC9
100
AcDbEntity
  8
寸法
 62
     0
 48
50.0
370
    -2
100
AcDbLine
 10
6678.600000000002
 20
6383.211798685403
 30
0.0
 11
6967.722911041356
 21
6383.211798685403
 31
0.0
  0
LINE
  5
23F00
330
21EC9
100
AcDbEntity
  8
寸法
 62
     0
 48
50.0
370
    -2
100
AcDbLine
 10
6678.600000000002
 20
6188.211798685388
 30
0.0
 11
6967.722911041356
 21
6188.211798685388
 31
0.0
  0
LINE
  5
23F01
330
21EC9
100
AcDbEntity
  8
寸法
 62
     0
 48
50.0
370
    -2
100
AcDbLine
 10
6907.722911041355
 20
6383.211798685403
 30
0.0
 11
6907.722911041355
 21
6188.211798685388
 31
0.0
  0
LINE
  5
23F02
330
21EC9
100
AcDbEntity
  8
寸法
 62
     0
 48
50.0
370
    -2
100
AcDbLine
 10
6907.722911041355
 20
6188.211798685388
 30
0.0
 11
6907.722911041354
 21
5810.821916277598
 31
0.0
  0
INSERT
  5
23F03
330
21EC9
100
AcDbEntity
  8
寸法
 62
     0
 48
50.0
370
    -2
100
AcDbBlockReference
  2
_DOTSMALL
 10
6907.722911041355
 20
6383.211798685403
 30
0.0
 41
100.0
 42
100.0
 43
100.0
 50
90.0
  0
INSERT
  5
23F04
330
21EC9
100
AcDbEntity
  8
寸法
 62
     0
 48
50.0
370
    -2
100
AcDbBlockReference
  2
_DOTSMALL
 10
6907.722911041355
 20
6188.211798685388
 30
0.0
 41
100.0
 42
100.0
 43
100.0
 50
270.0
  0
MTEXT
  5
23F05
330
21EC9
100
AcDbEntity
  8
寸法
 62
     7
 48
50.0
100
AcDbMText
 10
6807.722911041354
 20
5949.516857481495
 30
0.0
 40
120.0
 41
0.0
 71
     5
 72
     1
  1
\A1;195
  7
STYLE1
 11
0.0000000000000001
 21
1.0
 31
0.0
 73
     1
 44
1.0
1001
ACAD
1000
MTEXTBEGIN
1070
    73
1070
     1
1070
    44
1040
1.0
1070
    74
1070
     0
1000
MTEXTEND
  0
POINT
  5
23F06
330
21EC9
100
AcDbEntity
  8
DEFPOINTS
 62
     0
 48
50.0
100
AcDbPoint
 10
6658.600000000001
 20
6383.211798685403
 30
0.0
  0
POINT
  5
23F07
330
21EC9
100
AcDbEntity
  8
DEFPOINTS
 62
     0
 48
50.0
100
AcDbPoint
 10
6658.600000000001
 20
6188.211798685388
 30
0.0
  0
POINT
  5
23F08
330
21EC9
100
AcDbEntity
  8
DEFPOINTS
 62
     0
 48
50.0
100
AcDbPoint
 10
6907.722911041355
 20
6188.211798685388
 30
0.0
  0
ENDBLK
  5
21ED6
330
21EC9
100
AcDbEntity
  8
0
 48
50.0
100
AcDbBlockEnd
  0
BLOCK
  5
2275A
330
2274E
100
AcDbEntity
  8
0
 48
50.0
100
AcDbBlockBegin
  2
*D30
 70
     1
 10
0.0
 20
0.0
 30
0.0
  3
*D30
  1

  0
LINE
  5
23EF4
330
2274E
100
AcDbEntity
  8
寸法
 62
     0
 48
50.0
370
    -2
100
AcDbLine
 10
6408.599999999999
 20
6188.211798685437
 30
0.0
 11
6132.312481891148
 21
6188.211798685438
 31
0.0
  0
LINE
  5
23EF5
330
2274E
100
AcDbEntity
  8
寸法
 62
     0
 48
50.0
370
    -2
100
AcDbLine
 10
6408.600000000008
 20
6263.211798685438
 30
0.0
 11
6132.312481891148
 21
6263.211798685439
 31
0.0
  0
LINE
  5
23EF6
330
2274E
100
AcDbEntity
  8
寸法
 62
     0
 48
50.0
370
    -2
100
AcDbLine
 10
6192.312481891147
 20
6263.211798685438
 30
0.0
 11
6192.312481891147
 21
6363.211798685438
 31
0.0
  0
LINE
  5
23EF7
330
2274E
100
AcDbEntity
  8
寸法
 62
     0
 48
50.0
370
    -2
100
AcDbLine
 10
6192.312481891147
 20
6188.211798685437
 30
0.0
 11
6192.312481891146
 21
5321.241235936958
 31
0.0
  0
LINE
  5
23EF8
330
2274E
100
AcDbEntity
  8
寸法
 62
     0
 48
50.0
370
    -2
100
AcDbLine
 10
6192.312481891147
 20
6263.211798685438
 30
0.0
 11
6192.312481891147
 21
6188.211798685437
 31
0.0
  0
INSERT
  5
23EF9
330
2274E
100
AcDbEntity
  8
寸法
 62
     0
 48
50.0
370
    -2
100
AcDbBlockReference
  2
_DOTSMALL
 10
6192.312481891147
 20
6263.211798685438
 30
0.0
 41
100.0
 42
100.0
 43
100.0
 50
270.0
  0
INSERT
  5
23EFA
330
2274E
100
AcDbEntity
  8
寸法
 62
     0
 48
50.0
370
    -2
100
AcDbBlockReference
  2
_DOTSMALL
 10
6192.312481891147
 20
6188.211798685437
 30
0.0
 41
100.0
 42
100.0
 43
100.0
 50
90.0
  0
MTEXT
  5
23EFB
330
2274E
100
AcDbEntity
  8
寸法
 62
     7
 48
50.0
100
AcDbMText
 10
6092.312481891145
 20
5654.7265173112
 30
0.0
 40
120.0
 41
0.0
 71
     5
 72
     1
  1
\A1;扉の出75
  7
STYLE1
 11
0.0000000000000001
 21
1.0
 31
0.0
 73
     1
 44
1.0
1001
ACAD
1000
MTEXTBEGIN
1070
    73
1070
     1
1070
    44
1040
1.0
1070
    74
1070
     0
1000
MTEXTEND
  0
POINT
  5
23EFC
330
2274E
100
AcDbEntity
  8
DEFPOINTS
 62
     0
 48
50.0
100
AcDbPoint
 10
6428.6
 20
6188.211798685437
 30
0.0
  0
POINT
  5
23EFD
330
2274E
100
AcDbEntity
  8
DEFPOINTS
 62
     0
 48
50.0
100
AcDbPoint
 10
6428.600000000007
 20
6263.211798685438
 30
0.0
  0
POINT
  5
23EFE
330
2274E
100
AcDbEntity
  8
DEFPOINTS
 62
     0
 48
50.0
100
AcDbPoint
 10
6192.312481891147
 20
6263.211798685438
 30
0.0
  0
ENDBLK
  5
2275B
330
2274E
100
AcDbEntity
  8
0
 48
50.0
100
AcDbBlockEnd
  0
BLOCK
  5
23E22
330
23E19
100
AcDbEntity
  8
0
 48
50.0
100
AcDbBlockBegin
  2
*D31
 70
     1
 10
0.0
 20
0.0
 30
0.0
  3
*D31
  1

  0
LINE
  5
23EEB
330
23E19
100
AcDbEntity
  8
寸法
 62
     0
 48
50.0
370
    -2
100
AcDbLine
 10
8015.965877449115
 20
2247.058554410158
 30
0.0
 11
8683.301627160167
 21
2247.058554410158
 31
0.0
  0
LINE
  5
23EEC
330
23E19
100
AcDbEntity
  8
寸法
 62
     0
 48
50.0
370
    -2
100
AcDbLine
 10
8015.965877449115
 20
1842.058554410156
 30
0.0
 11
8683.301627160167
 21
1842.058554410156
 31
0.0
  0
LINE
  5
23EED
330
23E19
100
AcDbEntity
  8
寸法
 62
     0
 48
50.0
370
    -2
100
AcDbLine
 10
8623.301627160168
 20
2247.058554410158
 30
0.0
 11
8623.301627160168
 21
1842.058554410156
 31
0.0
  0
INSERT
  5
23EEE
330
23E19
100
AcDbEntity
  8
寸法
 62
     0
 48
50.0
370
    -2
100
AcDbBlockReference
  2
_DOTSMALL
 10
8623.301627160168
 20
2247.058554410158
 30
0.0
 41
100.0
 42
100.0
 43
100.0
 50
90.0
  0
INSERT
  5
23EEF
330
23E19
100
AcDbEntity
  8
寸法
 62
     0
 48
50.0
370
    -2
100
AcDbBlockReference
  2
_DOTSMALL
 10
8623.301627160168
 20
1842.058554410156
 30
0.0
 41
100.0
 42
100.0
 43
100.0
 50
270.0
  0
MTEXT
  5
23EF0
330
23E19
100
AcDbEntity
  8
寸法
 62
     7
 48
50.0
100
AcDbMText
 10
8523.301627160169
 20
2044.558554410158
 30
0.0
 40
120.0
 41
0.0
 71
     5
 72
     1
  1
\A1;180
  7
STYLE1
 11
0.0000000000000001
 21
1.0
 31
0.0
 73
     1
 44
1.0
1001
ACAD
1000
MTEXTBEGIN
1070
    73
1070
     1
1070
    44
1040
1.0
1070
    74
1070
     0
1000
MTEXTEND
  0
POINT
  5
23EF1
330
23E19
100
AcDbEntity
  8
DEFPOINTS
 62
     0
 48
50.0
100
AcDbPoint
 10
7995.965877449115
 20
2247.058554410158
 30
0.0
  0
POINT
  5
23EF2
330
23E19
100
AcDbEntity
  8
DEFPOINTS
 62
     0
 48
50.0
100
AcDbPoint
 10
7995.965877449115
 20
1842.058554410156
 30
0.0
  0
POINT
  5
23EF3
330
23E19
100
AcDbEntity
  8
DEFPOINTS
 62
     0
 48
50.0
100
AcDbPoint
 10
8623.301627160168
 20
1842.058554410156
 30
0.0
  0
ENDBLK
  5
23E23
330
23E19
100
AcDbEntity
  8
0
 48
50.0
100
AcDbBlockEnd
  0
BLOCK
  5
23E30
330
23E24
100
AcDbEntity
  8
0
 48
50.0
100
AcDbBlockBegin
  2
*D32
 70
     1
 10
0.0
 20
0.0
 30
0.0
  3
*D32
  1

  0
LINE
  5
23EE0
330
23E24
100
AcDbEntity
  8
寸法
 62
     0
 48
50.0
370
    -2
100
AcDbLine
 10
7781.965877449113
 20
2313.008554410158
 30
0.0
 11
9028.369959808948
 21
2313.008554410158
 31
0.0
  0
LINE
  5
23EE1
330
23E24
100
AcDbEntity
  8
寸法
 62
     0
 48
50.0
370
    -2
100
AcDbLine
 10
8015.965877449115
 20
2247.058554410158
 30
0.0
 11
9028.369959808948
 21
2247.058554410158
 31
0.0
  0
LINE
  5
23EE2
330
23E24
100
AcDbEntity
  8
寸法
 62
     0
 48
50.0
370
    -2
100
AcDbLine
 10
8968.369959808947
 20
2313.008554410158
 30
0.0
 11
8968.369959808947
 21
2413.008554410158
 31
0.0
  0
LINE
  5
23EE3
330
23E24
100
AcDbEntity
  8
寸法
 62
     0
 48
50.0
370
    -2
100
AcDbLine
 10
8968.369959808947
 20
2247.058554410158
 30
0.0
 11
8968.369959808947
 21
1515.040747567192
 31
0.0
  0
LINE
  5
23EE4
330
23E24
100
AcDbEntity
  8
寸法
 62
     0
 48
50.0
370
    -2
100
AcDbLine
 10
8968.369959808947
 20
2313.008554410158
 30
0.0
 11
8968.369959808947
 21
2247.058554410158
 31
0.0
  0
INSERT
  5
23EE5
330
23E24
100
AcDbEntity
  8
寸法
 62
     0
 48
50.0
370
    -2
100
AcDbBlockReference
  2
_DOTSMALL
 10
8968.369959808947
 20
2313.008554410158
 30
0.0
 41
100.0
 42
100.0
 43
100.0
 50
270.0
  0
INSERT
  5
23EE6
330
23E24
100
AcDbEntity
  8
寸法
 62
     0
 48
50.0
370
    -2
100
AcDbBlockReference
  2
_DOTSMALL
 10
8968.369959808947
 20
2247.058554410158
 30
0.0
 41
100.0
 42
100.0
 43
100.0
 50
90.0
  0
MTEXT
  5
23EE7
330
23E24
100
AcDbEntity
  8
寸法
 62
     7
 48
50.0
100
AcDbMText
 10
8868.358148785326
 20
1781.049650988676
 30
0.0
 40
120.0
 41
0.0
 71
     5
 72
     1
  1
\A1;20～25
  7
STYLE1
 11
0.0000000000000001
 21
1.0
 31
0.0
 73
     1
 44
1.0
1001
ACAD
1000
MTEXTBEGIN
1070
    73
1070
     1
1070
    44
1040
1.0
1070
    74
1070
     0
1000
MTEXTEND
  0
POINT
  5
23EE8
330
23E24
100
AcDbEntity
  8
DEFPOINTS
 62
     0
 48
50.0
100
AcDbPoint
 10
7761.965877449113
 20
2313.008554410158
 30
0.0
  0
POINT
  5
23EE9
330
23E24
100
AcDbEntity
  8
DEFPOINTS
 62
     0
 48
50.0
100
AcDbPoint
 10
7995.965877449115
 20
2247.058554410158
 30
0.0
  0
POINT
  5
23EEA
330
23E24
100
AcDbEntity
  8
DEFPOINTS
 62
     0
 48
50.0
100
AcDbPoint
 10
8968.369959808947
 20
2247.058554410158
 30
0.0
  0
ENDBLK
  5
23E31
330
23E24
100
AcDbEntity
  8
0
 48
50.0
100
AcDbBlockEnd
  0
BLOCK
  5
23E3C
330
23E32
100
AcDbEntity
  8
0
 48
50.0
100
AcDbBlockBegin
  2
*D33
 70
     1
 10
0.0
 20
0.0
 30
0.0
  3
*D33
  1

  0
LINE
  5
23ED7
330
23E32
100
AcDbEntity
  8
寸法
 62
     0
 48
50.0
370
    -2
100
AcDbLine
 10
5333.416735977619
 20
2247.058554410158
 30
0.0
 11
4532.771797941556
 21
2247.058554410158
 31
0.0
  0
LINE
  5
23ED8
330
23E32
100
AcDbEntity
  8
寸法
 62
     0
 48
50.0
370
    -2
100
AcDbLine
 10
5073.416735977625
 20
1267.058554410158
 30
0.0
 11
4532.771797941555
 21
1267.058554410158
 31
0.0
  0
LINE
  5
23ED9
330
23E32
100
AcDbEntity
  8
寸法
 62
     0
 48
50.0
370
    -2
100
AcDbLine
 10
4592.771797941557
 20
2247.058554410158
 30
0.0
 11
4592.771797941555
 21
1267.058554410158
 31
0.0
  0
INSERT
  5
23EDA
330
23E32
100
AcDbEntity
  8
寸法
 62
     0
 48
50.0
370
    -2
100
AcDbBlockReference
  2
_DOTSMALL
 10
4592.771797941557
 20
2247.058554410158
 30
0.0
 41
100.0
 42
100.0
 43
100.0
 50
90.0
  0
INSERT
  5
23EDB
330
23E32
100
AcDbEntity
  8
寸法
 62
     0
 48
50.0
370
    -2
100
AcDbBlockReference
  2
_DOTSMALL
 10
4592.771797941555
 20
1267.058554410158
 30
0.0
 41
100.0
 42
100.0
 43
100.0
 50
270.0
  0
MTEXT
  5
23EDC
330
23E32
100
AcDbEntity
  8
寸法
 62
     7
 48
50.0
100
AcDbMText
 10
4492.771797941555
 20
1757.058554410158
 30
0.0
 40
120.0
 41
0.0
 71
     5
 72
     1
  1
\A1;540
  7
STYLE1
 11
0.0000000000000001
 21
1.0
 31
0.0
 73
     1
 44
1.0
1001
ACAD
1000
MTEXTBEGIN
1070
    73
1070
     1
1070
    44
1040
1.0
1070
    74
1070
     0
1000
MTEXTEND
  0
POINT
  5
23EDD
330
23E32
100
AcDbEntity
  8
DEFPOINTS
 62
     0
 48
50.0
100
AcDbPoint
 10
5353.416735977619
 20
2247.058554410158
 30
0.0
  0
POINT
  5
23EDE
330
23E32
100
AcDbEntity
  8
DEFPOINTS
 62
     0
 48
50.0
100
AcDbPoint
 10
5093.416735977625
 20
1267.058554410158
 30
0.0
  0
POINT
  5
23EDF
330
23E32
100
AcDbEntity
  8
DEFPOINTS
 62
     0
 48
50.0
100
AcDbPoint
 10
4592.771797941555
 20
1267.058554410158
 30
0.0
  0
ENDBLK
  5
23E3D
330
23E32
100
AcDbEntity
  8
0
 48
50.0
100
AcDbBlockEnd
  0
BLOCK
  5
23E48
330
23E3E
100
AcDbEntity
  8
0
 48
50.0
100
AcDbBlockBegin
  2
*D34
 70
     1
 10
0.0
 20
0.0
 30
0.0
  3
*D34
  1

  0
LINE
  5
23ECE
330
23E3E
100
AcDbEntity
  8
寸法
 62
     0
 48
50.0
370
    -2
100
AcDbLine
 10
5193.41673597762
 20
1087.058554410158
 30
0.0
 11
5193.41673597762
 21
748.1064479542237
 31
0.0
  0
LINE
  5
23ECF
330
23E3E
100
AcDbEntity
  8
寸法
 62
     0
 48
50.0
370
    -2
100
AcDbLine
 10
5753.416735977621
 20
1087.058554410158
 30
0.0
 11
5753.416735977621
 21
748.1064479542237
 31
0.0
  0
LINE
  5
23ED0
330
23E3E
100
AcDbEntity
  8
寸法
 62
     0
 48
50.0
370
    -2
100
AcDbLine
 10
5193.41673597762
 20
808.1064479542238
 30
0.0
 11
5753.416735977621
 21
808.1064479542238
 31
0.0
  0
INSERT
  5
23ED1
330
23E3E
100
AcDbEntity
  8
寸法
 62
     0
 48
50.0
370
    -2
100
AcDbBlockReference
  2
_DOTSMALL
 10
5193.41673597762
 20
808.1064479542238
 30
0.0
 41
100.0
 42
100.0
 43
100.0
 50
180.0
  0
INSERT
  5
23ED2
330
23E3E
100
AcDbEntity
  8
寸法
 62
     0
 48
50.0
370
    -2
100
AcDbBlockReference
  2
_DOTSMALL
 10
5753.416735977621
 20
808.1064479542238
 30
0.0
 41
100.0
 42
100.0
 43
100.0
  0
MTEXT
  5
23ED3
330
23E3E
100
AcDbEntity
  8
寸法
 62
     7
 48
50.0
100
AcDbMText
 10
5473.41673597762
 20
908.1064479542238
 30
0.0
 40
120.0
 41
0.0
 71
     5
 72
     1
  1
\A1;300
  7
STYLE1
 73
     1
 44
1.0
1001
ACAD
1000
MTEXTBEGIN
1070
    73
1070
     1
1070
    44
1040
1.0
1070
    74
1070
     0
1000
MTEXTEND
  0
POINT
  5
23ED4
330
23E3E
100
AcDbEntity
  8
DEFPOINTS
 62
     0
 48
50.0
100
AcDbPoint
 10
5193.41673597762
 20
1107.058554410158
 30
0.0
  0
POINT
  5
23ED5
330
23E3E
100
AcDbEntity
  8
DEFPOINTS
 62
     0
 48
50.0
100
AcDbPoint
 10
5753.416735977621
 20
1107.058554410158
 30
0.0
  0
POINT
  5
23ED6
330
23E3E
100
AcDbEntity
  8
DEFPOINTS
 62
     0
 48
50.0
100
AcDbPoint
 10
5753.416735977621
 20
808.1064479542238
 30
0.0
  0
ENDBLK
  5
23E49
330
23E3E
100
AcDbEntity
  8
0
 48
50.0
100
AcDbBlockEnd
  0
BLOCK
  5
23E54
330
23E4A
100
AcDbEntity
  8
0
 48
50.0
100
AcDbBlockBegin
  2
*D35
 70
     1
 10
0.0
 20
0.0
 30
0.0
  3
*D35
  1

  0
LINE
  5
23EC5
330
23E4A
100
AcDbEntity
  8
寸法
 62
     0
 48
50.0
370
    -2
100
AcDbLine
 10
5173.416735977619
 20
1567.058554410158
 30
0.0
 11
4955.391343812046
 21
1567.058554410158
 31
0.0
  0
LINE
  5
23EC6
330
23E4A
100
AcDbEntity
  8
寸法
 62
     0
 48
50.0
370
    -2
100
AcDbLine
 10
5073.416735977625
 20
1267.058554410158
 30
0.0
 11
4955.391343812046
 21
1267.058554410158
 31
0.0
  0
LINE
  5
23EC7
330
23E4A
100
AcDbEntity
  8
寸法
 62
     0
 48
50.0
370
    -2
100
AcDbLine
 10
5015.391343812045
 20
1567.058554410158
 30
0.0
 11
5015.391343812045
 21
1267.058554410158
 31
0.0
  0
INSERT
  5
23EC8
330
23E4A
100
AcDbEntity
  8
寸法
 62
     0
 48
50.0
370
    -2
100
AcDbBlockReference
  2
_DOTSMALL
 10
5015.391343812045
 20
1567.058554410158
 30
0.0
 41
100.0
 42
100.0
 43
100.0
 50
90.0
  0
INSERT
  5
23EC9
330
23E4A
100
AcDbEntity
  8
寸法
 62
     0
 48
50.0
370
    -2
100
AcDbBlockReference
  2
_DOTSMALL
 10
5015.391343812045
 20
1267.058554410158
 30
0.0
 41
100.0
 42
100.0
 43
100.0
 50
270.0
  0
MTEXT
  5
23ECA
330
23E4A
100
AcDbEntity
  8
寸法
 62
     7
 48
50.0
100
AcDbMText
 10
4915.391343812046
 20
1417.058554410157
 30
0.0
 40
120.0
 41
0.0
 71
     5
 72
     1
  1
\A1;150
  7
STYLE1
 11
0.0000000000000001
 21
1.0
 31
0.0
 73
     1
 44
1.0
1001
ACAD
1000
MTEXTBEGIN
1070
    73
1070
     1
1070
    44
1040
1.0
1070
    74
1070
     0
1000
MTEXTEND
  0
POINT
  5
23ECB
330
23E4A
100
AcDbEntity
  8
DEFPOINTS
 62
     0
 48
50.0
100
AcDbPoint
 10
5193.41673597762
 20
1567.058554410158
 30
0.0
  0
POINT
  5
23ECC
330
23E4A
100
AcDbEntity
  8
DEFPOINTS
 62
     0
 48
50.0
100
AcDbPoint
 10
5093.416735977625
 20
1267.058554410158
 30
0.0
  0
POINT
  5
23ECD
330
23E4A
100
AcDbEntity
  8
DEFPOINTS
 62
     0
 48
50.0
100
AcDbPoint
 10
5015.391343812045
 20
1267.058554410158
 30
0.0
  0
ENDBLK
  5
23E55
330
23E4A
100
AcDbEntity
  8
0
 48
50.0
100
AcDbBlockEnd
  0
BLOCK
  5
23E60
330
23E56
100
AcDbEntity
  8
0
 48
50.0
100
AcDbBlockBegin
  2
*D36
 70
     1
 10
0.0
 20
0.0
 30
0.0
  3
*D36
  1

  0
LINE
  5
23EBC
330
23E56
100
AcDbEntity
  8
寸法
 62
     0
 48
50.0
370
    -2
100
AcDbLine
 10
5593.41673597762
 20
2267.058554410158
 30
0.0
 11
5593.41673597762
 21
2707.058554410158
 31
0.0
  0
LINE
  5
23EBD
330
23E56
100
AcDbEntity
  8
寸法
 62
     0
 48
50.0
370
    -2
100
AcDbLine
 10
5353.416735977619
 20
2267.058554410158
 30
0.0
 11
5353.416735977619
 21
2707.058554410158
 31
0.0
  0
LINE
  5
23EBE
330
23E56
100
AcDbEntity
  8
寸法
 62
     0
 48
50.0
370
    -2
100
AcDbLine
 10
5593.41673597762
 20
2647.058554410158
 30
0.0
 11
5353.416735977619
 21
2647.058554410158
 31
0.0
  0
INSERT
  5
23EBF
330
23E56
100
AcDbEntity
  8
寸法
 62
     0
 48
50.0
370
    -2
100
AcDbBlockReference
  2
_DOTSMALL
 10
5593.41673597762
 20
2647.058554410158
 30
0.0
 41
100.0
 42
100.0
 43
100.0
  0
INSERT
  5
23EC0
330
23E56
100
AcDbEntity
  8
寸法
 62
     0
 48
50.0
370
    -2
100
AcDbBlockReference
  2
_DOTSMALL
 10
5353.416735977619
 20
2647.058554410158
 30
0.0
 41
100.0
 42
100.0
 43
100.0
 50
180.0
  0
MTEXT
  5
23EC1
330
23E56
100
AcDbEntity
  8
寸法
 62
     7
 48
50.0
100
AcDbMText
 10
5473.41673597762
 20
2853.099366974962
 30
0.0
 40
120.0
 41
0.0
 71
     5
 72
     1
  1
\A1;120\P(195)
  7
STYLE1
 73
     1
 44
1.0
1001
ACAD
1000
MTEXTBEGIN
1070
    73
1070
     1
1070
    44
1040
1.0
1070
    74
1070
     0
1000
MTEXTEND
  0
POINT
  5
23EC2
330
23E56
100
AcDbEntity
  8
DEFPOINTS
 62
     0
 48
50.0
100
AcDbPoint
 10
5593.41673597762
 20
2247.058554410158
 30
0.0
  0
POINT
  5
23EC3
330
23E56
100
AcDbEntity
  8
DEFPOINTS
 62
     0
 48
50.0
100
AcDbPoint
 10
5353.416735977619
 20
2247.058554410158
 30
0.0
  0
POINT
  5
23EC4
330
23E56
100
AcDbEntity
  8
DEFPOINTS
 62
     0
 48
50.0
100
AcDbPoint
 10
5353.416735977619
 20
2647.058554410158
 30
0.0
  0
ENDBLK
  5
23E61
330
23E56
100
AcDbEntity
  8
0
 48
50.0
100
AcDbBlockEnd
  0
ENDSEC
  0
SECTION
  2
ENTITIES
  0
MTEXT
  5
763F
330
747D
100
AcDbEntity
  8
0
100
AcDbMText
 10
302.846345836809
 20
280.1983726409901
 30
0.0
 40
3.5
 41
5.323721266742722
 71
     1
 72
     5
  1

  7
MSMINCHO
 73
     1
 44
1.0
1001
ACAD
1000
MTEXTBEGIN
1070
    73
1070
     1
1070
    44
1040
1.0
1070
    74
1070
     0
1000
MTEXTEND
  0
LINE
  5
10B57
330
747D
100
AcDbEntity
  8
補助
  6
PHANTOM
 62
   230
 48
50.0
100
AcDbLine
 10
139.9999999999995
 20
11409.6
 30
0.0
 11
16307.2
 21
11409.6
 31
0.0
  0
LINE
  5
10B59
330
747D
100
AcDbEntity
  8
仕様書枠
  6
Continuous
 48
50.0
100
AcDbLine
 10
13107.2
 20
1200.0
 30
0.0
 11
13107.2
 21
-0.0000000000000729
 31
0.0
  0
LINE
  5
10B5D
330
747D
100
AcDbEntity
  8
仕様書枠
 48
50.0
100
AcDbLine
 10
140.0
 20
0.0
 30
0.0
 11
16307.2
 21
-0.0000000000000909
 31
0.0
  0
LINE
  5
10B5E
330
747D
100
AcDbEntity
  8
補助
  6
PHANTOM
 62
   230
 48
50.0
100
AcDbLine
 10
16307.2
 20
11409.6
 30
0.0
 11
16307.2
 21
1200.0
 31
0.0
  0
LINE
  5
10B6C
330
747D
100
AcDbEntity
  8
仕様書枠
 48
50.0
100
AcDbLine
 10
13107.2
 20
1200.0
 30
0.0
 11
16307.2
 21
1200.0
 31
0.0
  0
TEXT
  5
10B73
330
747D
100
AcDbEntity
  8
文字
 62
     7
 48
50.0
100
AcDbText
 10
13162.9790565769
 20
895.0906074299405
 30
0.0
 40
200.0
  1
基 礎 図
  7
STYLE2
100
AcDbText
  0
LINE
  5
10B7B
330
747D
100
AcDbEntity
  8
仕様書枠
 48
50.0
100
AcDbLine
 10
13107.2
 20
800.0
 30
0.0
 11
14251.2
 21
800.0
 31
0.0
  0
LINE
  5
10B88
330
747D
100
AcDbEntity
  8
仕様書枠
  6
Continuous
 48
50.0
100
AcDbLine
 10
14251.2
 20
1200.0
 30
0.0
 11
14251.2
 21
800.0
 31
0.0
  0
LINE
  5
16462
330
747D
100
AcDbEntity
  8
仕様書枠
 48
50.0
100
AcDbLine
 10
16307.2
 20
1200.0
 30
0.0
 11
16307.2
 21
-0.0000000000000909
 31
0.0
  0
LINE
  5
1903B
330
747D
100
AcDbEntity
  8
補助
  6
PHANTOM
 62
   230
 48
50.0
100
AcDbLine
 10
140.0
 20
0.0
 30
0.0
 11
139.9999999999995
 21
11409.6
 31
0.0
  0
LEADER
  5
1AC27
330
747D
100
AcDbEntity
  8
寸法
 48
50.0
100
AcDbLeader
  3
INABA_S40G
 73
     0
 74
     0
 75
     1
 40
120.0
 41
720.0000000000001
 76
     3
 10
10018.69549961499
 20
7222.315249872557
 30
0.0
 10
10185.46907400128
 20
6946.301336304724
 30
0.0
 10
10285.46907400128
 20
6946.301336304724
 30
0.0
340
1AC28
1001
ACAD
1000
DSTYLE
1002
{
1070
   341
1005
0
1002
}
  0
MTEXT
  5
1AC28
102
{ACAD_REACTORS
330
1AC27
102
}
330
747D
100
AcDbEntity
  8
部品1
 62
     7
 48
50.0
100
AcDbMText
 10
11045.46907400128
 20
7046.301336304724
 30
0.0
 40
120.0
 41
0.0
 71
     6
 72
     1
  1
\A1;床下換気口
  7
STYLE1
 73
     1
 44
1.0
1001
ACAD
1000
MTEXTBEGIN
1070
    73
1070
     1
1070
    44
1040
1.0
1070
    74
1070
     0
1000
MTEXTEND
  0
TEXT
  5
1AC29
330
747D
100
AcDbEntity
  8
部品1
 48
50.0
100
AcDbText
 10
10367.43013846118
 20
5988.120897348607
 30
0.0
 40
80.0
  1
(a=45,b=55,c=75)
  7
STYLE1
100
AcDbText
  0
TEXT
  5
1AC2A
330
747D
100
AcDbEntity
  8
部品1
 48
50.0
100
AcDbText
 10
10208.85112970688
 20
6094.96611821736
 30
0.0
 40
80.0
  1
※a,b,cは屋根の出幅です。
  7
STYLE1
100
AcDbText
  0
MTEXT
  5
1AC2B
102
{ACAD_REACTORS
330
1AC2C
102
}
330
747D
100
AcDbEntity
  8
部品1
 62
     7
 48
50.0
100
AcDbMText
 10
11006.63832569548
 20
6274.276805150435
 30
0.0
 40
120.0
 41
0.0
 71
     6
 72
     1
  1
\A1;屋根の外寸
  7
STYLE1
 73
     1
 44
1.0
1001
ACAD
1000
MTEXTBEGIN
1070
    73
1070
     1
1070
    44
1040
1.0
1070
    74
1070
     0
1000
MTEXTEND
  0
LEADER
  5
1AC2C
330
747D
100
AcDbEntity
  8
寸法
 48
50.0
100
AcDbLeader
  3
INABA_S40G
 73
     0
 74
     0
 75
     1
 40
120.0
 41
672.0
 76
     3
 10
10068.69831350344
 20
6448.166148614011
 30
0.0
 10
10194.63832569548
 20
6174.276805150435
 30
0.0
 10
10294.63832569548
 20
6174.276805150435
 30
0.0
340
1AC2B
1001
ACAD
1000
DSTYLE
1002
{
1070
   341
1005
0
1002
}
  0
TEXT
  5
1C7A1
330
747D
100
AcDbEntity
  8
文字
 62
     7
 48
50.0
100
AcDbText
 10
13188.16259899338
 20
79.80631269190417
 30
0.0
 40
80.0
  1
※布基礎には換気口を設けてください。
  7
STYLE2
100
AcDbText
  0
TEXT
  5
1C7E7
330
747D
100
AcDbEntity
  8
文字
 62
     7
 48
50.0
100
AcDbText
 10
13188.16259899338
 20
246.7109242801889
 30
0.0
 40
80.0
  1
※寒冷地等は地域の実情に合わせた基礎にして下さい。
  7
STYLE2
100
AcDbText
  0
TEXT
  5
1C7E8
330
747D
100
AcDbEntity
  8
文字
 62
     7
 48
50.0
100
AcDbText
 10
14478.98566430227
 20
499.5983841039506
 30
0.0
 40
160.0
  1
ＮＸＮ－６４Ｈ
  7
STYLE2
100
AcDbText
  0
TEXT
  5
1C7E9
330
747D
100
AcDbEntity
  8
文字
 62
     7
 48
50.0
100
AcDbText
 10
14641.2525855784
 20
871.1744590657927
 30
0.0
 40
100.0
  1
～一般型・多雪地型～
  7
STYLE2
100
AcDbText
  0
TEXT
  5
1C7EC
330
747D
100
AcDbEntity
  8
文字
 62
     7
 48
50.0
100
AcDbText
 10
14524.131837222
 20
1031.557706291229
 30
0.0
 40
100.0
  1
     <縮尺> S=1/40
  7
STYLE2
100
AcDbText
  0
TEXT
  5
1C7ED
330
747D
100
AcDbEntity
  8
文字
 62
     7
 48
50.0
100
AcDbText
 10
13201.43669998441
 20
477.2740661031257
 30
0.0
 40
160.0
  1
機種名
  7
STYLE2
100
AcDbText
  0
LINE
  5
1C7EF
330
747D
100
AcDbEntity
  8
文字
 62
     7
 48
50.0
100
AcDbLine
 10
13187.2
 20
400.0
 30
0.0
 11
16227.2
 21
400.0
 31
0.0
  0
MTEXT
  5
1D2D5
102
{ACAD_REACTORS
330
1D2D6
102
}
330
747D
100
AcDbEntity
  8
部品1
 62
     7
 48
50.0
100
AcDbMText
 10
11213.99523070988
 20
8378.824542927903
 30
0.0
 40
120.0
 41
0.0
 71
     6
 72
     1
  1
アンカーボルト
  7
STYLE1
 73
     1
 44
1.0
1001
ACAD
1000
MTEXTBEGIN
1070
    73
1070
     1
1070
    44
1040
1.0
1070
    74
1070
     0
1000
MTEXTEND
  0
LEADER
  5
1D2D6
330
747D
100
AcDbEntity
  8
寸法
 48
50.0
100
AcDbLeader
  3
INABA_S40G
 73
     0
 74
     0
 75
     1
 40
120.0
 41
994.3492424049171
 76
     3
 10
9895.680085757
 20
7940.419643044106
 30
0.0
 10
10079.64598830496
 20
8278.824542927903
 30
0.0
 10
10179.64598830496
 20
8278.824542927903
 30
0.0
340
1D2D5
1001
ACAD
1000
DSTYLE
1002
{
1070
   341
1005
0
1002
}
  0
MTEXT
  5
1D332
102
{ACAD_REACTORS
330
1D333
102
}
330
747D
100
AcDbEntity
  8
部品1
 62
     7
 48
50.0
100
AcDbMText
 10
7728.440328953415
 20
6911.031857207877
 30
0.0
 40
120.0
 41
0.0
 71
     6
 72
     1
  1
CB
  7
STYLE1
 73
     1
 44
1.0
1001
ACAD
1000
MTEXTBEGIN
1070
    73
1070
     1
1070
    44
1040
1.0
1070
    74
1070
     0
1000
MTEXTEND
  0
LEADER
  5
1D333
330
747D
100
AcDbEntity
  8
寸法
 48
50.0
100
AcDbLeader
  3
INABA_S40G
 73
     0
 74
     0
 75
     1
 40
120.0
 41
149.591883092037
 76
     3
 10
7301.565642998735
 20
7087.045770775709
 30
0.0
 10
7438.848445861378
 20
6811.031857207876
 30
0.0
 10
7538.848445861377
 20
6811.031857207876
 30
0.0
340
1D332
1001
ACAD
1000
DSTYLE
1002
{
1070
   341
1005
0
1002
}
  0
DIMENSION
  5
1DAC7
330
747D
100
AcDbEntity
  8
寸法
 48
50.0
100
AcDbDimension
  2
*D1
 10
8463.202780124335
 20
6263.211798685404
 30
0.0
 11
8463.202780124332
 21
5654.726517311164
 31
0.0
 70
   160
  1
扉の出<>
 71
     5
 42
75.00000000000091
  3
INABA_S40G
100
AcDbAlignedDimension
 13
8196.600000000001
 23
6188.211798685403
 33
0.0
 14
8196.600000000003
 24
6263.211798685404
 34
0.0
 50
90.0
100
AcDbRotatedDimension
1001
ACAD
1000
DSTYLE
1002
{
1070
   341
1005
0
1002
}
  0
DIMENSION
  5
1F244
330
747D
100
AcDbEntity
  8
寸法
 48
50.0
100
AcDbDimension
  2
*D2
 10
8670.14438614211
 20
6383.211798685408
 30
0.0
 11
8670.144386142109
 21
5926.923493717457
 31
0.0
 70
   160
 71
     5
 42
119.9999999999836
  3
INABA_S40G
100
AcDbAlignedDimension
 13
8307.419180988159
 23
6263.211798685425
 33
0.0
 14
8680.567870053115
 24
6383.211798685408
 34
0.0
 50
90.0
100
AcDbRotatedDimension
1001
ACAD
1000
DSTYLE
1002
{
1070
   341
1005
0
1002
}
  0
DIMENSION
  5
1F245
330
747D
100
AcDbEntity
  8
寸法
 48
50.0
100
AcDbDimension
  2
*D3
 10
8670.14438614211
 20
6493.211798685415
 30
0.0
 11
8670.144386142109
 21
6763.27085380354
 31
0.0
 70
   160
 71
     5
 42
110.0000000000072
  3
INABA_S40G
100
AcDbAlignedDimension
 13
8782.599867447318
 23
6383.211798685408
 33
0.0
 14
8235.600000000001
 24
6493.211798685415
 34
0.0
 50
90.0
100
AcDbRotatedDimension
1001
ACAD
1000
DSTYLE
1002
{
1070
   341
1005
0
1002
}
  0
DIMENSION
  5
1F247
330
747D
100
AcDbEntity
  8
寸法
 48
50.0
100
AcDbDimension
  2
*D4
 10
8105.6
 20
8808.971425227481
 30
0.0
 11
9000.6
 21
8908.97142522748
 31
0.0
 70
    32
 71
     5
 42
1790.0
  3
INABA_S40G
100
AcDbAlignedDimension
 13
9895.600000000001
 23
7990.211798685398
 33
0.0
 14
8105.6
 24
7990.211798685398
 34
0.0
100
AcDbRotatedDimension
1001
ACAD
1000
DSTYLE
1002
{
1070
   341
1005
0
1002
}
  0
DIMENSION
  5
1F248
330
747D
100
AcDbEntity
  8
寸法
 48
50.0
100
AcDbDimension
  2
*D5
 10
10018.6
 20
9021.432120744318
 30
0.0
 11
8223.600000000001
 21
9121.432120744318
 31
0.0
 70
    32
 71
     5
 42
3590.000000000002
  3
INABA_S40G
100
AcDbAlignedDimension
 13
6428.6
 23
8063.211798685397
 33
0.0
 14
10018.6
 24
8063.211798685397
 34
0.0
100
AcDbRotatedDimension
1001
ACAD
1000
DSTYLE
1002
{
1070
   341
1005
0
1002
}
  0
LINE
  5
1F24B
330
747D
100
AcDbEntity
  8
部品1
 48
50.0
100
AcDbLine
 10
10018.6
 20
6263.211798685411
 30
0.0
 11
8196.600000000001
 21
6263.211798685397
 31
0.0
  0
LINE
  5
1F24C
330
747D
100
AcDbEntity
  8
部品1
 48
50.0
100
AcDbLine
 10
10018.6
 20
8063.211798685399
 30
0.0
 11
6428.6
 21
8063.211798685397
 31
0.0
  0
DIMENSION
  5
1F250
330
747D
100
AcDbEntity
  8
寸法
 48
50.0
100
AcDbDimension
  2
*D6
 10
7975.6
 20
6806.369337512554
 30
0.0
 11
8105.6
 21
6906.381148536175
 31
0.0
 70
    32
 71
     5
 42
260.0
  3
INABA_S40G
100
AcDbAlignedDimension
 13
8235.600000000001
 23
6493.211798685415
 33
0.0
 14
7975.6
 24
6493.211798685415
 34
0.0
100
AcDbRotatedDimension
1001
ACAD
1000
DSTYLE
1002
{
1070
   341
1005
0
1002
}
  0
DIMENSION
  5
1F251
330
747D
100
AcDbEntity
  8
寸法
 48
50.0
100
AcDbDimension
  2
*D7
 10
5932.65773398618
 20
6386.2117986854
 30
0.0
 11
5932.657733986178
 21
7163.211798685397
 31
0.0
 70
   160
 71
     5
 42
1553.999999999998
  3
INABA_S40G
100
AcDbAlignedDimension
 13
6501.6
 23
7940.211798685398
 33
0.0
 14
6501.600000000007
 24
6386.211798685399
 34
0.0
 50
90.0
100
AcDbRotatedDimension
1001
ACAD
1000
DSTYLE
1002
{
1070
   341
1005
0
1002
}
  0
DIMENSION
  5
1F252
330
747D
100
AcDbEntity
  8
寸法
 48
50.0
100
AcDbDimension
  2
*D8
 10
5680.714637266781
 20
6263.211798685398
 30
0.0
 11
5680.714637266779
 21
7163.211798685397
 31
0.0
 70
   160
 71
     5
 42
1800.0
  3
INABA_S40G
100
AcDbAlignedDimension
 13
6428.6
 23
8063.211798685397
 33
0.0
 14
6428.6
 24
6263.211798685397
 34
0.0
 50
90.0
100
AcDbRotatedDimension
1001
ACAD
1000
DSTYLE
1002
{
1070
   341
1005
0
1002
}
  0
LINE
  5
1F254
330
747D
100
AcDbEntity
  8
部品1
 48
50.0
100
AcDbLine
 10
6428.6
 20
6263.211798685397
 30
0.0
 11
6428.6
 21
8063.211798685397
 31
0.0
  0
DIMENSION
  5
1F2B5
330
747D
100
AcDbEntity
  8
寸法
 48
50.0
100
AcDbDimension
  2
*D9
 10
6428.6
 20
5584.226068866643
 30
0.0
 11
7564.546747560801
 21
5584.226068866643
 31
0.0
 70
   160
  1
扉の幅 <>
 71
     5
 42
1768.0
  3
INABA_S40G
100
AcDbAlignedDimension
 13
8196.600000000001
 23
6188.211798685401
 33
0.0
 14
6428.6
 24
6188.211798685387
 34
0.0
100
AcDbRotatedDimension
1001
ACAD
1000
DSTYLE
1002
{
1070
   341
1005
0
1002
}
  0
LINE
  5
1F2B6
330
747D
100
AcDbEntity
  8
部品1
 48
50.0
100
AcDbLine
 10
8196.600000000001
 20
6188.211798685401
 30
0.0
 11
6428.6
 21
6188.211798685389
 31
0.0
  0
DIMENSION
  5
1F2B9
330
747D
100
AcDbEntity
  8
寸法
 48
50.0
100
AcDbDimension
  2
*D10
 10
5932.65773398618
 20
6263.211798685398
 30
0.0
 11
5932.657733986178
 21
5927.680849842805
 31
0.0
 70
   160
 71
     5
 42
123.0000000000018
  3
INABA_S40G
100
AcDbAlignedDimension
 13
6501.600000000007
 23
6386.211798685399
 33
0.0
 14
6428.6
 24
6263.211798685397
 34
0.0
 50
90.0
100
AcDbRotatedDimension
1001
ACAD
1000
DSTYLE
1002
{
1070
   341
1005
0
1002
}
  0
LINE
  5
1F2BB
330
747D
100
AcDbEntity
  8
センター
 48
2.0
100
AcDbLine
 10
6551.600000000007
 20
6436.211798685398
 30
0.0
 11
6551.600000000007
 21
6336.2117986854
 31
0.0
  0
LINE
  5
1F2BC
330
747D
100
AcDbEntity
  8
部品1
 48
50.0
100
AcDbLine
 10
6658.600000000001
 20
6383.211798685403
 30
0.0
 11
6658.599999999999
 21
6493.2117986854
 31
0.0
  0
CIRCLE
  5
1F2BD
330
747D
100
AcDbEntity
  8
部品1
 48
50.0
100
AcDbCircle
 10
6551.600000000007
 20
6386.211798685399
 30
0.0
 40
35.0
  0
LINE
  5
1F2F5
330
747D
100
AcDbEntity
  8
部品1
 48
50.0
100
AcDbLine
 10
6428.6
 20
6188.211798685403
 30
0.0
 11
6428.6
 21
6263.211798685386
 31
0.0
  0
LINE
  5
1F2F6
330
747D
100
AcDbEntity
  8
センター
 48
2.0
100
AcDbLine
 10
6501.600000000007
 20
6386.211798685399
 30
0.0
 11
6601.600000000008
 21
6386.211798685399
 31
0.0
  0
LINE
  5
1F338
330
747D
100
AcDbEntity
  8
部品1
 48
50.0
100
AcDbLine
 10
6658.599999999999
 20
6493.2117986854
 30
0.0
 11
6548.600000000002
 21
6493.2117986854
 31
0.0
  0
LINE
  5
1F3A4
330
747D
100
AcDbEntity
  8
部品1
 48
50.0
100
AcDbLine
 10
7228.600000000001
 20
6383.211798685405
 30
0.0
 11
7228.6
 21
6188.21179868539
 31
0.0
  0
LINE
  5
1F3E4
330
747D
100
AcDbEntity
  8
部品1
 48
50.0
100
AcDbLine
 10
7428.6
 20
6383.211798685407
 30
0.0
 11
7428.6
 21
6188.211798685394
 31
0.0
  0
LINE
  5
1F426
330
747D
100
AcDbEntity
  8
部品1
 48
50.0
100
AcDbLine
 10
8235.600000000001
 20
6493.211798685415
 30
0.0
 11
7975.6
 21
6493.211798685415
 31
0.0
  0
LINE
  5
1F427
330
747D
100
AcDbEntity
  8
部品1
 48
50.0
100
AcDbLine
 10
7975.6
 20
6383.211798685407
 30
0.0
 11
7975.6
 21
6493.211798685415
 31
0.0
  0
LINE
  5
1F4AA
330
747D
100
AcDbEntity
  8
部品1
 48
50.0
100
AcDbLine
 10
8235.600000000003
 20
6383.211798685407
 30
0.0
 11
8235.600000000001
 21
6493.211798685415
 31
0.0
  0
CIRCLE
  5
1F4AB
330
747D
100
AcDbEntity
  8
部品1
 48
50.0
100
AcDbCircle
 10
8105.600000000007
 20
6386.211798685399
 30
0.0
 40
35.0
  0
LINE
  5
1F4AC
330
747D
100
AcDbEntity
  8
センター
 48
2.0
100
AcDbLine
 10
8105.600000000007
 20
6436.211798685398
 30
0.0
 11
8105.600000000007
 21
6336.2117986854
 31
0.0
  0
LINE
  5
1F4DF
330
747D
100
AcDbEntity
  8
センター
 48
2.0
100
AcDbLine
 10
8055.600000000008
 20
6386.211798685399
 30
0.0
 11
8155.600000000008
 21
6386.211798685399
 31
0.0
  0
LINE
  5
1F4E0
330
747D
100
AcDbEntity
  8
部品1
 48
50.0
100
AcDbLine
 10
8196.600000000001
 20
6188.211798685403
 30
0.0
 11
8196.600000000001
 21
6263.211798685399
 31
0.0
  0
DIMENSION
  5
1F4E3
330
747D
100
AcDbEntity
  8
寸法
 48
50.0
100
AcDbDimension
  2
*D11
 10
6551.6
 20
8808.971425227481
 30
0.0
 11
7328.6
 21
8908.97142522748
 31
0.0
 70
    32
 71
     5
 42
1554.0
  3
INABA_S40G
100
AcDbAlignedDimension
 13
8105.6
 23
7990.211798685398
 33
0.0
 14
6551.6
 24
7990.211798685398
 34
0.0
100
AcDbRotatedDimension
1001
ACAD
1000
DSTYLE
1002
{
1070
   341
1005
0
1002
}
  0
DIMENSION
  5
1F4E5
330
747D
100
AcDbEntity
  8
寸法
 48
50.0
100
AcDbDimension
  2
*D12
 10
6428.6
 20
8590.121564333726
 30
0.0
 11
6877.599999999998
 21
8690.121564333725
 31
0.0
 70
    32
 71
     5
 42
897.9999999999963
  3
INABA_S40G
100
AcDbAlignedDimension
 13
7326.599999999996
 23
7213.211798685406
 33
0.0
 14
6428.6
 24
8063.211798685397
 34
0.0
100
AcDbRotatedDimension
1001
ACAD
1000
DSTYLE
1002
{
1070
   341
1005
0
1002
}
  0
DIMENSION
  5
1F4E6
330
747D
100
AcDbEntity
  8
寸法
 48
50.0
100
AcDbDimension
  2
*D13
 10
6875.307249876098
 20
7833.211798685394
 30
0.0
 11
6875.307249876097
 21
7493.152743567283
 31
0.0
 70
   160
 71
     5
 42
110.0000000000045
  3
INABA_S40G
100
AcDbAlignedDimension
 13
6658.599999999999
 23
7943.211798685398
 33
0.0
 14
6658.599999999999
 24
7833.211798685394
 34
0.0
 50
90.0
100
AcDbRotatedDimension
1001
ACAD
1000
DSTYLE
1002
{
1070
   341
1005
0
1002
}
  0
LINE
  5
1F4E7
330
747D
100
AcDbEntity
  8
部品1
 48
50.0
100
AcDbLine
 10
6658.599999999999
 20
7833.211798685394
 30
0.0
 11
6658.599999999999
 21
7943.211798685398
 31
0.0
  0
LINE
  5
1F4E8
330
747D
100
AcDbEntity
  8
部品1
 48
50.0
100
AcDbLine
 10
6548.6
 20
7063.211798685395
 30
0.0
 11
6428.6
 21
7063.211798685397
 31
0.0
  0
LINE
  5
1F4E9
330
747D
100
AcDbEntity
  8
部品1
 48
50.0
100
AcDbLine
 10
6548.599999999999
 20
7263.211798685397
 30
0.0
 11
6428.6
 21
7263.211798685397
 31
0.0
  0
LINE
  5
1F4EB
330
747D
100
AcDbEntity
  8
部品1
 48
50.0
100
AcDbLine
 10
6658.599999999999
 20
7833.211798685394
 30
0.0
 11
6548.6
 21
7833.211798685396
 31
0.0
  0
DIMENSION
  5
1F4EC
330
747D
100
AcDbEntity
  8
寸法
 48
50.0
100
AcDbDimension
  2
*D14
 10
5932.657733986179
 20
7940.211798685398
 30
0.0
 11
5932.657733986178
 21
8336.318400403198
 31
0.0
 70
   160
 71
     5
 42
123.0
  3
INABA_S40G
100
AcDbAlignedDimension
 13
6428.6
 23
8063.211798685397
 33
0.0
 14
6501.6
 24
7940.211798685398
 34
0.0
 50
90.0
100
AcDbRotatedDimension
1001
ACAD
1000
DSTYLE
1002
{
1070
   341
1005
0
1002
}
  0
DIMENSION
  5
1F4ED
330
747D
100
AcDbEntity
  8
寸法
 48
50.0
100
AcDbDimension
  2
*D15
 10
6428.6
 20
8808.971425227481
 30
0.0
 11
6155.493398282202
 21
8808.971425227481
 31
0.0
 70
   160
 71
     5
 42
123.0
  3
INABA_S40G
100
AcDbAlignedDimension
 13
6551.6
 23
7990.211798685398
 33
0.0
 14
6428.6
 24
8063.211798685397
 34
0.0
100
AcDbRotatedDimension
1001
ACAD
1000
DSTYLE
1002
{
1070
   341
1005
0
1002
}
  0
DIMENSION
  5
1F4EE
330
747D
100
AcDbEntity
  8
寸法
 48
50.0
100
AcDbDimension
  2
*D16
 10
6875.307249876098
 20
8063.211798685395
 30
0.0
 11
6875.307249876097
 21
8341.295341958284
 31
0.0
 70
   160
 71
     5
 42
119.9999999999972
  3
INABA_S40G
100
AcDbAlignedDimension
 13
6658.599999999999
 23
7943.211798685398
 33
0.0
 14
6658.599999999999
 24
8063.211798685395
 34
0.0
 50
90.0
100
AcDbRotatedDimension
1001
ACAD
1000
DSTYLE
1002
{
1070
   341
1005
0
1002
}
  0
LINE
  5
1F4EF
330
747D
100
AcDbEntity
  8
部品1
 48
50.0
100
AcDbLine
 10
6827.928907166849
 20
8063.211798685394
 30
0.0
 11
6428.6
 21
8063.211798685397
 31
0.0
  0
LINE
  5
1F4F0
330
747D
100
AcDbEntity
  8
センター
 48
2.0
100
AcDbLine
 10
6501.6
 20
7940.211798685398
 30
0.0
 11
6601.600000000001
 21
7940.211798685398
 31
0.0
  0
LINE
  5
1F4F1
330
747D
100
AcDbEntity
  8
センター
 48
2.0
100
AcDbLine
 10
6551.6
 20
7990.211798685398
 30
0.0
 11
6551.6
 21
7890.211798685398
 31
0.0
  0
CIRCLE
  5
1F4F2
330
747D
100
AcDbEntity
  8
部品1
 48
50.0
100
AcDbCircle
 10
6551.6
 20
7940.211798685398
 30
0.0
 40
35.0
  0
LINE
  5
1F4F3
330
747D
100
AcDbEntity
  8
部品1
 48
50.0
100
AcDbLine
 10
8235.600000000003
 20
7943.211798685398
 30
0.0
 11
8235.600000000001
 21
7833.211798685379
 31
0.0
  0
LINE
  5
1F4F4
330
747D
100
AcDbEntity
  8
部品1
 48
50.0
100
AcDbLine
 10
7975.6
 20
7943.211798685398
 30
0.0
 11
7975.6
 21
7833.211798685379
 31
0.0
  0
LINE
  5
1F4FE
330
747D
100
AcDbEntity
  8
センター
 48
2.0
100
AcDbLine
 10
8173.6
 20
7163.211798685397
 30
0.0
 11
8273.6
 21
7163.211798685397
 31
0.0
  0
LINE
  5
1F4FF
330
747D
100
AcDbEntity
  8
部品1
 48
50.0
100
AcDbLine
 10
8323.6
 20
7263.211798685397
 30
0.0
 11
8123.600000000001
 21
7263.211798685397
 31
0.0
  0
LINE
  5
1F500
330
747D
100
AcDbEntity
  8
部品1
 48
50.0
100
AcDbLine
 10
8323.6
 20
7063.211798685395
 30
0.0
 11
8123.600000000001
 21
7063.211798685395
 31
0.0
  0
LINE
  5
1F501
330
747D
100
AcDbEntity
  8
センター
 48
2.0
100
AcDbLine
 10
8223.600000000001
 20
7213.211798685397
 30
0.0
 11
8223.600000000001
 21
7113.211798685397
 31
0.0
  0
LINE
  5
1F502
330
747D
100
AcDbEntity
  8
部品1
 48
50.0
100
AcDbLine
 10
8123.600000000001
 20
7063.211798685397
 30
0.0
 11
8123.600000000001
 21
7263.211798685397
 31
0.0
  0
LINE
  5
1F503
330
747D
100
AcDbEntity
  8
部品1
 48
50.0
100
AcDbLine
 10
8323.6
 20
7063.211798685395
 30
0.0
 11
8323.6
 21
7263.211798685397
 31
0.0
  0
LINE
  5
1F504
330
747D
100
AcDbEntity
  8
部品1
 48
50.0
100
AcDbLine
 10
8235.600000000001
 20
7833.211798685379
 30
0.0
 11
7975.6
 21
7833.211798685379
 31
0.0
  0
LINE
  5
1F507
330
747D
100
AcDbEntity
  8
部品1
 48
50.0
100
AcDbLine
 10
7228.6
 20
8063.211798685397
 30
0.0
 11
7228.600000000001
 21
7943.2117986854
 31
0.0
  0
LINE
  5
1F508
330
747D
100
AcDbEntity
  8
部品1
 48
50.0
100
AcDbLine
 10
7428.6
 20
8063.211798685397
 30
0.0
 11
7428.6
 21
7943.2117986854
 31
0.0
  0
LINE
  5
1F509
330
747D
100
AcDbEntity
  8
センター
 48
2.0
100
AcDbLine
 10
8055.600000000001
 20
7940.211798685398
 30
0.0
 11
8155.600000000001
 21
7940.211798685398
 31
0.0
  0
CIRCLE
  5
1F50A
330
747D
100
AcDbEntity
  8
部品1
 48
50.0
100
AcDbCircle
 10
8105.6
 20
7940.211798685398
 30
0.0
 40
35.0
  0
LINE
  5
1F50B
330
747D
100
AcDbEntity
  8
センター
 48
2.0
100
AcDbLine
 10
8105.6
 20
7990.211798685398
 30
0.0
 11
8105.6
 21
7890.211798685398
 31
0.0
  0
DIMENSION
  5
1F50C
330
747D
100
AcDbEntity
  8
寸法
 48
50.0
100
AcDbDimension
  2
*D17
 10
8927.970132415948
 20
7163.211798685406
 30
0.0
 11
8827.970132415945
 21
6713.21179868541
 31
0.0
 70
    32
 71
     5
 42
899.9999999999936
  3
INABA_S40G
100
AcDbAlignedDimension
 13
8671.60000000001
 23
6263.211798685412
 33
0.0
 14
9070.6
 24
7163.211798685406
 34
0.0
 50
90.0
100
AcDbRotatedDimension
1001
ACAD
1000
DSTYLE
1002
{
1070
   341
1005
0
1002
}
  0
LINE
  5
1F50E
330
747D
100
AcDbEntity
  8
部品1
 48
50.0
100
AcDbLine
 10
10018.6
 20
6263.211798685415
 30
0.0
 11
10018.6
 21
8063.211798685397
 31
0.0
  0
LINE
  5
1F582
330
747D
100
AcDbEntity
  8
部品1
 48
50.0
100
AcDbLine
 10
9018.600000000011
 20
6383.211798685408
 30
0.0
 11
9018.600000000011
 21
6263.211798685412
 31
0.0
  0
LINE
  5
1F583
330
747D
100
AcDbEntity
  8
部品1
 48
50.0
100
AcDbLine
 10
9218.600000000012
 20
6383.211798685409
 30
0.0
 11
9218.600000000012
 21
6263.211798685412
 31
0.0
  0
CIRCLE
  5
1F588
330
747D
100
AcDbEntity
  8
部品1
 48
50.0
100
AcDbCircle
 10
9895.600000000008
 20
6386.211798685399
 30
0.0
 40
35.0
  0
LINE
  5
1F589
330
747D
100
AcDbEntity
  8
部品1
 48
50.0
100
AcDbLine
 10
9788.600000000002
 20
6383.211798685412
 30
0.0
 11
9788.600000000002
 21
6493.211798685415
 31
0.0
  0
LINE
  5
1F58A
330
747D
100
AcDbEntity
  8
センター
 48
2.0
100
AcDbLine
 10
9895.600000000008
 20
6436.211798685398
 30
0.0
 11
9895.600000000008
 21
6336.2117986854
 31
0.0
  0
LINE
  5
1F58B
330
747D
100
AcDbEntity
  8
センター
 48
2.0
100
AcDbLine
 10
9845.600000000008
 20
6386.211798685399
 30
0.0
 11
9945.600000000007
 21
6386.211798685399
 31
0.0
  0
LINE
  5
1F58C
330
747D
100
AcDbEntity
  8
部品1
 48
50.0
100
AcDbLine
 10
9898.600000000001
 20
6493.211798685415
 30
0.0
 11
9788.600000000002
 21
6493.211798685415
 31
0.0
  0
DIMENSION
  5
1F592
330
747D
100
AcDbEntity
  8
寸法
 48
50.0
100
AcDbDimension
  2
*D18
 10
9788.600000000002
 20
7605.503131185024
 30
0.0
 11
9518.540944881889
 21
7605.503131185024
 31
0.0
 70
   160
 71
     5
 42
109.9999999999982
  3
INABA_S40G
100
AcDbAlignedDimension
 13
9898.6
 23
7622.496395223854
 33
0.0
 14
9788.600000000002
 24
7833.211798685396
 34
0.0
100
AcDbRotatedDimension
1001
ACAD
1000
DSTYLE
1002
{
1070
   341
1005
0
1002
}
  0
DIMENSION
  5
1F593
330
747D
100
AcDbEntity
  8
寸法
 48
50.0
100
AcDbDimension
  2
*D19
 10
9120.600000000001
 20
8590.121564333726
 30
0.0
 11
9569.600000000001
 21
8690.121564333725
 31
0.0
 70
    32
 71
     5
 42
898.0
  3
INABA_S40G
100
AcDbAlignedDimension
 13
10018.6
 23
8063.211798685397
 33
0.0
 14
9120.600000000001
 24
7213.211798685406
 34
0.0
100
AcDbRotatedDimension
1001
ACAD
1000
DSTYLE
1002
{
1070
   341
1005
0
1002
}
  0
DIMENSION
  5
1F594
330
747D
100
AcDbEntity
  8
寸法
 48
50.0
100
AcDbDimension
  2
*D20
 10
8927.970132415948
 20
8063.211798685395
 30
0.0
 11
8827.970132415945
 21
7613.211798685402
 31
0.0
 70
    32
 71
     5
 42
899.99999999999
  3
INABA_S40G
100
AcDbAlignedDimension
 13
9070.6
 23
7163.211798685406
 33
0.0
 14
8671.600000000001
 24
8063.211798685395
 34
0.0
 50
90.0
100
AcDbRotatedDimension
1001
ACAD
1000
DSTYLE
1002
{
1070
   341
1005
0
1002
}
  0
LINE
  5
1F59C
330
747D
100
AcDbEntity
  8
部品1
 48
50.0
100
AcDbLine
 10
9018.600000000001
 20
8063.211798685395
 30
0.0
 11
9018.599999999999
 21
7943.211798685396
 31
0.0
  0
LINE
  5
1F59D
330
747D
100
AcDbEntity
  8
部品1
 48
50.0
100
AcDbLine
 10
9218.6
 20
8063.211798685395
 30
0.0
 11
9218.6
 21
7943.211798685396
 31
0.0
  0
LINE
  5
1F59E
330
747D
100
AcDbEntity
  8
部品1
 48
50.0
100
AcDbLine
 10
9788.600000000002
 20
7833.211798685396
 30
0.0
 11
9788.600000000002
 21
7943.211798685398
 31
0.0
  0
LINE
  5
1F5A1
330
747D
100
AcDbEntity
  8
部品1
 48
50.0
100
AcDbLine
 10
10018.6
 20
7263.2117986854
 30
0.0
 11
9898.600000000001
 21
7263.2117986854
 31
0.0
  0
LINE
  5
1F5A2
330
747D
100
AcDbEntity
  8
部品1
 48
50.0
100
AcDbLine
 10
10018.6
 20
7063.2117986854
 30
0.0
 11
9898.600000000001
 21
7063.2117986854
 31
0.0
  0
DIMENSION
  5
1F5A4
330
747D
100
AcDbEntity
  8
寸法
 48
50.0
100
AcDbDimension
  2
*D21
 10
9898.6
 20
7605.503131185024
 30
0.0
 11
10288.65905511811
 21
7605.503131185024
 31
0.0
 70
   160
 71
     5
 42
120.0000000000018
  3
INABA_S40G
100
AcDbAlignedDimension
 13
10018.6
 23
7622.496395223854
 33
0.0
 14
9898.6
 24
7622.496395223854
 34
0.0
100
AcDbRotatedDimension
1001
ACAD
1000
DSTYLE
1002
{
1070
   341
1005
0
1002
}
  0
LINE
  5
1F5A5
330
747D
100
AcDbEntity
  8
部品1
 48
50.0
100
AcDbLine
 10
9898.6
 20
7833.211798685396
 30
0.0
 11
9788.600000000002
 21
7833.211798685396
 31
0.0
  0
DIMENSION
  5
1F5A6
330
747D
100
AcDbEntity
  8
寸法
 48
50.0
100
AcDbDimension
  2
*D22
 10
9895.600000000001
 20
8808.971425227481
 30
0.0
 11
10291.7066017178
 21
8808.971425227481
 31
0.0
 70
   160
 71
     5
 42
123.0
  3
INABA_S40G
100
AcDbAlignedDimension
 13
10018.6
 23
8063.211798685397
 33
0.0
 14
9895.600000000001
 24
7990.211798685398
 34
0.0
100
AcDbRotatedDimension
1001
ACAD
1000
DSTYLE
1002
{
1070
   341
1005
0
1002
}
  0
LINE
  5
1F5A7
330
747D
100
AcDbEntity
  8
センター
 48
2.0
100
AcDbLine
 10
9845.600000000001
 20
7940.211798685398
 30
0.0
 11
9945.6
 21
7940.211798685398
 31
0.0
  0
CIRCLE
  5
1F5A8
330
747D
100
AcDbEntity
  8
部品1
 48
50.0
100
AcDbCircle
 10
9895.600000000001
 20
7940.211798685398
 30
0.0
 40
35.0
  0
LINE
  5
1F5A9
330
747D
100
AcDbEntity
  8
センター
 48
2.0
100
AcDbLine
 10
9895.600000000001
 20
7990.211798685398
 30
0.0
 11
9895.600000000001
 21
7890.211798685398
 31
0.0
  0
LINE
  5
206BA
330
747D
100
AcDbEntity
  8
センター
 48
2.0
100
AcDbLine
 10
7276.599999999996
 20
7163.211798685406
 30
0.0
 11
7376.599999999996
 21
7163.211798685406
 31
0.0
  0
LINE
  5
206BB
330
747D
100
AcDbEntity
  8
部品1
 48
50.0
100
AcDbLine
 10
7226.599999999996
 20
6963.211798685398
 30
0.0
 11
7226.599999999996
 21
7363.2117986854
 31
0.0
  0
LINE
  5
206BC
330
747D
100
AcDbEntity
  8
部品1
 48
50.0
100
AcDbLine
 10
7426.599999999995
 20
6963.211798685398
 30
0.0
 11
7426.599999999999
 21
7363.2117986854
 31
0.0
  0
LINE
  5
206BD
330
747D
100
AcDbEntity
  8
センター
 48
2.0
100
AcDbLine
 10
7326.599999999996
 20
7213.211798685406
 30
0.0
 11
7326.599999999996
 21
7113.211798685405
 31
0.0
  0
DIMENSION
  5
206E3
330
747D
100
AcDbEntity
  8
寸法
 48
50.0
100
AcDbDimension
  2
*D23
 10
7326.599999999996
 20
8590.121564333726
 30
0.0
 11
7775.099999999999
 21
8690.121564333725
 31
0.0
 70
    32
 71
     5
 42
897.0000000000036
  3
INABA_S40G
100
AcDbAlignedDimension
 13
8223.600000000001
 23
7213.211798685397
 33
0.0
 14
7326.599999999996
 24
7213.211798685406
 34
0.0
100
AcDbRotatedDimension
1001
ACAD
1000
DSTYLE
1002
{
1070
   341
1005
0
1002
}
  0
LINE
  5
20715
330
747D
100
AcDbEntity
  8
センター
 48
2.0
100
AcDbLine
 10
9120.600000000001
 20
7213.211798685406
 30
0.0
 11
9120.600000000001
 21
7113.211798685405
 31
0.0
  0
LINE
  5
20716
330
747D
100
AcDbEntity
  8
部品1
 48
50.0
100
AcDbLine
 10
9220.600000000001
 20
6963.211798685404
 30
0.0
 11
9220.600000000001
 21
7363.211798685404
 31
0.0
  0
LINE
  5
20717
330
747D
100
AcDbEntity
  8
部品1
 48
50.0
100
AcDbLine
 10
9020.600000000001
 20
6963.211798685404
 30
0.0
 11
9020.600000000007
 21
7363.211798685405
 31
0.0
  0
LINE
  5
20718
330
747D
100
AcDbEntity
  8
センター
 48
2.0
100
AcDbLine
 10
9070.6
 20
7163.211798685406
 30
0.0
 11
9170.6
 21
7163.211798685406
 31
0.0
  0
LINE
  5
20719
330
747D
100
AcDbEntity
  8
部品1
 48
50.0
100
AcDbLine
 10
9220.600000000001
 20
6963.211798685404
 30
0.0
 11
9020.599999999999
 21
6963.211798685404
 31
0.0
  0
LINE
  5
2071A
330
747D
100
AcDbEntity
  8
部品1
 48
50.0
100
AcDbLine
 10
9220.600000000001
 20
7363.211798685405
 30
0.0
 11
9020.599999999999
 21
7363.211798685405
 31
0.0
  0
DIMENSION
  5
20751
330
747D
100
AcDbEntity
  8
寸法
 48
50.0
100
AcDbDimension
  2
*D24
 10
8223.600000000001
 20
8590.121564333726
 30
0.0
 11
8672.1
 21
8690.121564333725
 31
0.0
 70
    32
 71
     5
 42
897.0
  3
INABA_S40G
100
AcDbAlignedDimension
 13
9120.600000000001
 23
7213.211798685406
 33
0.0
 14
8223.600000000001
 24
7213.211798685397
 34
0.0
100
AcDbRotatedDimension
1001
ACAD
1000
DSTYLE
1002
{
1070
   341
1005
0
1002
}
  0
LINE
  5
20992
330
747D
100
AcDbEntity
  8
想像線
 48
10.0
100
AcDbLine
 10
10063.6
 20
6208.211798685414
 30
0.0
 11
10063.6
 21
8138.211798685397
 31
0.0
  0
DIMENSION
  5
20DE1
330
747D
100
AcDbEntity
  8
寸法
 48
50.0
100
AcDbDimension
  2
*D25
 10
10063.6
 20
9021.43212074432
 30
0.0
 11
10334.77462120246
 21
9021.43212074432
 31
0.0
 70
   160
  1
a
 71
     5
 42
45.0
  3
INABA_S40G
100
AcDbAlignedDimension
 13
10018.6
 23
8063.211798685397
 33
0.0
 14
10063.6
 24
8808.971425227481
 34
0.0
100
AcDbRotatedDimension
1001
ACAD
1000
DSTYLE
1002
{
1070
   341
1005
0
1002
}
  0
DIMENSION
  5
20DFB
330
747D
100
AcDbEntity
  8
寸法
 48
50.0
100
AcDbDimension
  2
*D26
 10
6428.6
 20
9021.43212074432
 30
0.0
 11
6112.425378797541
 21
9021.43212074432
 31
0.0
 70
   160
  1
a
 71
     5
 42
44.99999999999636
  3
INABA_S40G
100
AcDbAlignedDimension
 13
6383.600000000004
 23
8808.971425227481
 33
0.0
 14
6428.6
 24
8063.211798685397
 34
0.0
100
AcDbRotatedDimension
1001
ACAD
1000
DSTYLE
1002
{
1070
   341
1005
0
1002
}
  0
DIMENSION
  5
20E15
330
747D
100
AcDbEntity
  8
寸法
 48
50.0
100
AcDbDimension
  2
*D27
 10
5680.714637266781
 20
8063.211798685399
 30
0.0
 11
5580.71463726678
 21
8100.7117986854
 31
0.0
 70
    32
  1
c
 71
     5
 42
75.00000000000273
  3
INABA_S40G
100
AcDbAlignedDimension
 13
5932.657733986179
 23
8138.211798685402
 33
0.0
 14
6428.6
 24
8063.211798685397
 34
0.0
 50
90.0
100
AcDbRotatedDimension
1001
ACAD
1000
DSTYLE
1002
{
1070
   341
1005
0
1002
}
  0
DIMENSION
  5
20E3A
330
747D
100
AcDbEntity
  8
寸法
 48
50.0
100
AcDbDimension
  2
*D28
 10
5680.714637266781
 20
6208.211798685408
 30
0.0
 11
5580.71463726678
 21
6235.711798685399
 31
0.0
 70
    32
  1
b
 71
     5
 42
54.99999999997908
  3
INABA_S40G
100
AcDbAlignedDimension
 13
6428.6
 23
6263.211798685386
 33
0.0
 14
5932.65773398618
 24
6208.211798685408
 34
0.0
 50
90.0
100
AcDbRotatedDimension
1001
ACAD
1000
DSTYLE
1002
{
1070
   341
1005
0
1002
}
  0
LINE
  5
21E7C
330
747D
100
AcDbEntity
  8
部品1
 48
50.0
100
AcDbLine
 10
7426.599999999996
 20
6963.211798685398
 30
0.0
 11
7226.599999999996
 21
6963.211798685398
 31
0.0
  0
LINE
  5
21E7D
330
747D
100
AcDbEntity
  8
部品1
 48
50.0
100
AcDbLine
 10
7426.599999999996
 20
7363.2117986854
 30
0.0
 11
7226.599999999996
 21
7363.2117986854
 31
0.0
  0
DIMENSION
  5
21EC8
330
747D
100
AcDbEntity
  8
寸法
 48
50.0
100
AcDbDimension
  2
*D29
 10
6907.722911041355
 20
6188.211798685388
 30
0.0
 11
6907.722911041354
 21
5949.516857481495
 31
0.0
 70
   160
 71
     5
 42
195.0000000000145
  3
INABA_S40G
100
AcDbAlignedDimension
 13
6658.600000000001
 23
6383.211798685403
 33
0.0
 14
6658.600000000001
 24
6188.211798685388
 34
0.0
 50
90.0
100
AcDbRotatedDimension
1001
ACAD
1000
DSTYLE
1002
{
1070
   341
1005
0
1002
}
  0
TEXT
  5
22157
330
747D
100
AcDbEntity
  8
寸法
 62
     7
100
AcDbText
 10
6953.456352585792
 20
4932.779523287181
 30
0.0
 40
120.0
  1
扉の位置に合わせた基礎形状として下さい。
  7
STYLE1
100
AcDbText
  0
LWPOLYLINE
  5
22158
330
747D
100
AcDbEntity
  8
寸法
 48
50.0
100
AcDbPolyline
 90
        3
 70
     0
 43
0.0
 10
-7177.850857895411
 20
6188.211798685389
 10
-6836.840393393038
 20
5082.115338622187
 10
-9650.904806324682
 20
5082.115338622187
210
0.0
220
0.0
230
-1.0
1001
ACAD
1000
DSTYLE
1002
{
1070
   341
1005
0
1070
    40
1040
1.0
1070
   343
1005
0
1070
   344
1005
0
1002
}
  0
SOLID
  5
22159
330
747D
100
AcDbEntity
  8
寸法
 48
50.0
100
AcDbTrace
 10
-7160.941652225425
 20
6062.620769780503
 30
0.0
 11
-7177.850857895411
 21
6188.211798685389
 31
0.0
 12
-7121.123437751947
 22
6074.893540749411
 32
0.0
 13
-7121.123437751947
 23
6074.893540749411
 33
0.0
210
0.0
220
0.0
230
-1.0
1001
ACAD
1000
DSTYLE
1002
{
1070
   341
1005
0
1070
    40
1040
1.0
1070
   343
1005
0
1070
   344
1005
0
1002
}
  0
TEXT
  5
2215A
330
747D
100
AcDbEntity
  8
寸法
 62
     7
100
AcDbText
 10
6953.456352585792
 20
5104.383286170507
 30
0.0
 40
120.0
  1
扉位置 (1768x75)
  7
STYLE1
100
AcDbText
  0
LINE
  5
2243E
330
747D
100
AcDbEntity
  8
想像線
 48
10.0
100
AcDbLine
 10
9147.16214885316
 20
8138.2117986854
 30
0.0
 11
10063.6
 21
8138.211798685397
 31
0.0
  0
LINE
  5
2243F
330
747D
100
AcDbEntity
  8
想像線
 48
10.0
100
AcDbLine
 10
9147.16214885316
 20
6208.211798685416
 30
0.0
 11
10063.6
 21
6208.211798685415
 31
0.0
  0
DIMENSION
  5
226A5
330
747D
100
AcDbEntity
  8
寸法
 48
50.0
100
AcDbDimension
  2
*D30
 10
6192.312481891147
 20
6263.211798685438
 30
0.0
 11
6192.312481891145
 21
5654.7265173112
 31
0.0
 70
   160
  1
扉の出<>
 71
     5
 42
75.00000000000091
  3
INABA_S40G
100
AcDbAlignedDimension
 13
6428.6
 23
6188.211798685437
 33
0.0
 14
6428.600000000007
 24
6263.211798685438
 34
0.0
 50
90.0
100
AcDbRotatedDimension
1001
ACAD
1000
DSTYLE
1002
{
1070
   341
1005
0
1002
}
  0
LINE
  5
23AE3
330
747D
100
AcDbEntity
  8
部品1
 48
50.0
100
AcDbLine
 10
7975.6
 20
7943.211798685398
 30
0.0
 11
6658.599999999999
 21
7943.211798685398
 31
0.0
  0
LINE
  5
23AE4
330
747D
100
AcDbEntity
  8
部品1
 48
50.0
100
AcDbLine
 10
9788.600000000002
 20
7943.211798685398
 30
0.0
 11
8235.600000000003
 21
7943.211798685398
 31
0.0
  0
LINE
  5
23AE5
330
747D
100
AcDbEntity
  8
部品1
 48
50.0
100
AcDbLine
 10
6548.600000000002
 20
6493.2117986854
 30
0.0
 11
6548.6
 21
7833.211798685396
 31
0.0
  0
LINE
  5
23AE6
330
747D
100
AcDbEntity
  8
部品1
 48
50.0
100
AcDbLine
 10
7975.6
 20
6383.211798685407
 30
0.0
 11
6658.600000000001
 21
6383.211798685403
 31
0.0
  0
LINE
  5
23AE7
330
747D
100
AcDbEntity
  8
部品1
 48
50.0
100
AcDbLine
 10
9788.600000000002
 20
6383.211798685412
 30
0.0
 11
8235.600000000003
 21
6383.211798685407
 31
0.0
  0
LINE
  5
23AE8
330
747D
100
AcDbEntity
  8
部品1
 48
50.0
100
AcDbLine
 10
9898.600000000001
 20
6493.211798685415
 30
0.0
 11
9898.6
 21
7833.211798685396
 31
0.0
  0
LINE
  5
23B2F
330
747D
100
AcDbEntity
  8
細線
 48
50.0
100
AcDbLine
 10
6428.6
 20
7257.252877874076
 30
0.0
 11
6434.558920811321
 21
7263.211798685397
 31
0.0
  0
LINE
  5
23B30
330
747D
100
AcDbEntity
  8
細線
 48
50.0
100
AcDbLine
 10
6428.6
 20
7212.35159726873
 30
0.0
 11
6479.460201416668
 21
7263.211798685397
 31
0.0
  0
LINE
  5
23B31
330
747D
100
AcDbEntity
  8
細線
 48
50.0
100
AcDbLine
 10
6428.600000000002
 20
7167.450316663385
 30
0.0
 11
6524.361482022015
 21
7263.211798685398
 31
0.0
  0
LINE
  5
23B32
330
747D
100
AcDbEntity
  8
細線
 48
50.0
100
AcDbLine
 10
6428.6
 20
7122.549036058039
 30
0.0
 11
6548.599999999999
 21
7242.549036058038
 31
0.0
  0
LINE
  5
23B33
330
747D
100
AcDbEntity
  8
細線
 48
50.0
100
AcDbLine
 10
6428.6
 20
7077.647755452693
 30
0.0
 11
6548.6
 21
7197.647755452692
 31
0.0
  0
LINE
  5
23B34
330
747D
100
AcDbEntity
  8
細線
 48
50.0
100
AcDbLine
 10
6459.065323838051
 20
7063.211798685397
 30
0.0
 11
6548.600000000002
 21
7152.746474847347
 31
0.0
  0
LINE
  5
23B35
330
747D
100
AcDbEntity
  8
細線
 48
50.0
100
AcDbLine
 10
6503.966604443395
 20
7063.211798685397
 30
0.0
 11
6548.6
 21
7107.845194242002
 31
0.0
  0
LINE
  5
23B36
330
747D
100
AcDbEntity
  8
細線
 48
50.0
100
AcDbLine
 10
7228.6
 20
8028.240071820617
 30
0.0
 11
7263.571726864777
 21
8063.211798685394
 31
0.0
  0
LINE
  5
23B37
330
747D
100
AcDbEntity
  8
細線
 48
50.0
100
AcDbLine
 10
7228.6
 20
7983.338791215271
 30
0.0
 11
7308.473007470124
 21
8063.211798685394
 31
0.0
  0
LINE
  5
23B38
330
747D
100
AcDbEntity
  8
細線
 48
50.0
100
AcDbLine
 10
7233.374288075471
 20
7943.211798685398
 30
0.0
 11
7353.374288075468
 21
8063.211798685395
 31
0.0
  0
LINE
  5
23B39
330
747D
100
AcDbEntity
  8
細線
 48
50.0
100
AcDbLine
 10
7278.275568680818
 20
7943.2117986854
 30
0.0
 11
7398.275568680816
 21
8063.211798685397
 31
0.0
  0
LINE
  5
23B3A
330
747D
100
AcDbEntity
  8
細線
 48
50.0
100
AcDbLine
 10
7323.176849286165
 20
7943.2117986854
 30
0.0
 11
7428.6
 21
8048.634949399234
 31
0.0
  0
LINE
  5
23B3B
330
747D
100
AcDbEntity
  8
細線
 48
50.0
100
AcDbLine
 10
7368.078129891511
 20
7943.211798685398
 30
0.0
 11
7428.6
 21
8003.73366879389
 31
0.0
  0
LINE
  5
23B3C
330
747D
100
AcDbEntity
  8
細線
 48
50.0
100
AcDbLine
 10
9018.600000000001
 20
8028.240071820617
 30
0.0
 11
9053.571726864777
 21
8063.211798685392
 31
0.0
  0
LINE
  5
23B3D
330
747D
100
AcDbEntity
  8
細線
 48
50.0
100
AcDbLine
 10
9018.600000000001
 20
7983.33879121527
 30
0.0
 11
9098.473007470122
 21
8063.211798685392
 31
0.0
  0
LINE
  5
23B3E
330
747D
100
AcDbEntity
  8
細線
 48
50.0
100
AcDbLine
 10
9023.374288075475
 20
7943.211798685398
 30
0.0
 11
9143.374288075468
 21
8063.211798685394
 31
0.0
  0
LINE
  5
23B3F
330
747D
100
AcDbEntity
  8
細線
 48
50.0
100
AcDbLine
 10
9068.275568680819
 20
7943.211798685398
 30
0.0
 11
9188.275568680813
 21
8063.211798685392
 31
0.0
  0
LINE
  5
23B40
330
747D
100
AcDbEntity
  8
細線
 48
50.0
100
AcDbLine
 10
9113.176849286166
 20
7943.211798685398
 30
0.0
 11
9218.6
 21
8048.634949399234
 31
0.0
  0
LINE
  5
23B41
330
747D
100
AcDbEntity
  8
細線
 48
50.0
100
AcDbLine
 10
9158.078129891514
 20
7943.211798685398
 30
0.0
 11
9218.6
 21
8003.733668793888
 31
0.0
  0
LINE
  5
23B42
330
747D
100
AcDbEntity
  8
細線
 48
50.0
100
AcDbLine
 10
9898.600000000001
 20
7237.252877874073
 30
0.0
 11
9924.558920811319
 21
7263.2117986854
 31
0.0
  0
LINE
  5
23B43
330
747D
100
AcDbEntity
  8
細線
 48
50.0
100
AcDbLine
 10
9898.6
 20
7192.351597268736
 30
0.0
 11
9969.460201416664
 21
7263.211798685397
 31
0.0
  0
LINE
  5
23B44
330
747D
100
AcDbEntity
  8
細線
 48
50.0
100
AcDbLine
 10
9898.6
 20
7147.450316663387
 30
0.0
 11
10014.36148202201
 21
7263.211798685398
 31
0.0
  0
LINE
  5
23B45
330
747D
100
AcDbEntity
  8
細線
 48
50.0
100
AcDbLine
 10
9898.600000000001
 20
7102.549036058045
 30
0.0
 11
10018.6
 21
7222.549036058045
 31
0.0
  0
LINE
  5
23B46
330
747D
100
AcDbEntity
  8
細線
 48
50.0
100
AcDbLine
 10
9904.1640432327
 20
7063.2117986854
 30
0.0
 11
10018.6
 21
7177.647755452699
 31
0.0
  0
LINE
  5
23B47
330
747D
100
AcDbEntity
  8
細線
 48
50.0
100
AcDbLine
 10
9949.065323838048
 20
7063.211798685398
 30
0.0
 11
10018.6
 21
7132.746474847353
 31
0.0
  0
LINE
  5
23B48
330
747D
100
AcDbEntity
  8
細線
 48
50.0
100
AcDbLine
 10
9993.966604443391
 20
7063.211798685397
 30
0.0
 11
10018.6
 21
7087.845194242007
 31
0.0
  0
LINE
  5
23B49
330
747D
100
AcDbEntity
  8
細線
 48
50.0
100
AcDbLine
 10
9018.600000000009
 20
6328.240071820633
 30
0.0
 11
9073.571726864786
 21
6383.211798685409
 31
0.0
  0
LINE
  5
23B4A
330
747D
100
AcDbEntity
  8
細線
 48
50.0
100
AcDbLine
 10
9018.600000000013
 20
6283.338791215289
 30
0.0
 11
9118.473007470134
 21
6383.21179868541
 31
0.0
  0
LINE
  5
23B4B
330
747D
100
AcDbEntity
  8
細線
 48
50.0
100
AcDbLine
 10
9043.374288075481
 20
6263.211798685412
 30
0.0
 11
9163.374288075477
 21
6383.21179868541
 31
0.0
  0
LINE
  5
23B4C
330
747D
100
AcDbEntity
  8
細線
 48
50.0
100
AcDbLine
 10
9088.275568680826
 20
6263.211798685412
 30
0.0
 11
9208.275568680825
 21
6383.211798685411
 31
0.0
  0
LINE
  5
23B4D
330
747D
100
AcDbEntity
  8
細線
 48
50.0
100
AcDbLine
 10
9133.176849286172
 20
6263.211798685412
 30
0.0
 11
9218.600000000009
 21
6348.634949399251
 31
0.0
  0
LINE
  5
23B4E
330
747D
100
AcDbEntity
  8
細線
 48
50.0
100
AcDbLine
 10
9178.078129891517
 20
6263.211798685412
 30
0.0
 11
9218.600000000014
 21
6303.733668793906
 31
0.0
  0
LINE
  5
23B4F
330
747D
100
AcDbEntity
  8
細線
 48
50.0
100
AcDbLine
 10
7228.6
 20
6353.768357921257
 30
0.0
 11
7258.043440764151
 21
6383.211798685406
 31
0.0
  0
LINE
  5
23B50
330
747D
100
AcDbEntity
  8
細線
 48
50.0
100
AcDbLine
 10
7228.600000000001
 20
6308.867077315913
 30
0.0
 11
7302.944721369494
 21
6383.211798685406
 31
0.0
  0
LINE
  5
23B51
330
747D
100
AcDbEntity
  8
細線
 48
50.0
100
AcDbLine
 10
7228.6
 20
6263.965796710567
 30
0.0
 11
7347.846001974843
 21
6383.211798685406
 31
0.0
  0
LINE
  5
23B52
330
747D
100
AcDbEntity
  8
細線
 48
50.0
100
AcDbLine
 10
7228.6
 20
6219.06451610522
 30
0.0
 11
7392.747282580187
 21
6383.211798685407
 31
0.0
  0
LINE
  5
23B53
330
747D
100
AcDbEntity
  8
細線
 48
50.0
100
AcDbLine
 10
7242.648563185515
 20
6188.211798685389
 30
0.0
 11
7428.600000000002
 21
6374.163235499875
 31
0.0
  0
LINE
  5
23B54
330
747D
100
AcDbEntity
  8
細線
 48
50.0
100
AcDbLine
 10
7287.549843790863
 20
6188.211798685391
 30
0.0
 11
7428.6
 21
6329.26195489453
 31
0.0
  0
LINE
  5
23B55
330
747D
100
AcDbEntity
  8
細線
 48
50.0
100
AcDbLine
 10
7332.451124396209
 20
6188.211798685392
 30
0.0
 11
7428.6
 21
6284.360674289183
 31
0.0
  0
LINE
  5
23B56
330
747D
100
AcDbEntity
  8
細線
 48
50.0
100
AcDbLine
 10
7377.352405001555
 20
6188.211798685393
 30
0.0
 11
7428.6
 21
6239.459393683837
 31
0.0
  0
LINE
  5
23B57
330
747D
100
AcDbEntity
  8
細線
 48
50.0
100
AcDbLine
 10
7422.253685606903
 20
6188.211798685394
 30
0.0
 11
7428.6
 21
6194.558113078492
 31
0.0
  0
LWPOLYLINE
  5
23CDF
330
747D
100
AcDbEntity
  8
部品1
 48
50.0
100
AcDbPolyline
 90
        2
 70
     0
 43
10.0
 10
7995.965877449115
 20
1947.058554410159
 10
8363.093956698342
 20
1947.058554410159
  0
TEXT
  5
23CE0
330
747D
100
AcDbEntity
  8
部品1
 48
50.0
100
AcDbText
 10
8001.407857804649
 20
2691.906905362909
 30
0.0
 40
100.0
  1
基礎ボルト(市販品)
  7
STYLE2
100
AcDbText
  0
LINE
  5
23CE1
330
747D
100
AcDbEntity
  8
部品1
 48
50.0
100
AcDbLine
 10
7995.965877449115
 20
1567.058554410158
 30
0.0
 11
8155.965877449112
 21
1567.058554410158
 31
0.0
  0
LINE
  5
23CE2
330
747D
100
AcDbEntity
  8
細線
 48
50.0
100
AcDbLine
 10
7928.130496142621
 20
1267.058554410158
 30
0.0
 11
8155.965877449112
 21
1494.893935716653
 31
0.0
  0
DIMENSION
  5
23CE3
330
747D
100
AcDbEntity
  8
寸法
 48
50.0
100
AcDbDimension
  2
*D31
 10
8623.301627160168
 20
1842.058554410156
 30
0.0
 11
8523.301627160169
 21
2044.558554410158
 31
0.0
 70
    32
  1
180
 71
     5
 42
405.0000000000018
  3
INABA_S40G
100
AcDbAlignedDimension
 13
7995.965877449115
 23
2247.058554410158
 33
0.0
 14
7995.965877449115
 24
1842.058554410156
 34
0.0
 50
90.0
100
AcDbRotatedDimension
1001
ACAD
1000
DSTYLE
1002
{
1070
   341
1005
0
1002
}
  0
LINE
  5
23CE4
330
747D
100
AcDbEntity
  8
部品1
100
AcDbLine
 10
11131.09074052387
 20
3898.273079131214
 30
0.0
 11
4234.616044425837
 21
3898.273079131214
 31
0.0
  0
LINE
  5
23CE5
330
747D
100
AcDbEntity
  8
部品1
100
AcDbLine
 10
11131.09074052387
 20
3598.273079131214
 30
0.0
 11
4234.616044425837
 21
3598.273079131214
 31
0.0
  0
LINE
  5
23CE6
330
747D
100
AcDbEntity
  8
部品1
100
AcDbLine
 10
4234.616044425837
 20
639.203579776526
 30
0.0
 11
11131.09074052387
 21
639.203579776526
 31
0.0
  0
LINE
  5
23CE7
330
747D
100
AcDbEntity
  8
部品1
 48
50.0
100
AcDbLine
 10
8255.965877449114
 20
1267.058554410158
 30
0.0
 11
7218.465877449116
 21
1267.058554410158
 31
0.0
  0
LINE
  5
23CE8
330
747D
100
AcDbEntity
  8
部品1
 48
50.0
100
AcDbLine
 10
8255.965877449114
 20
1107.058554410158
 30
0.0
 11
7218.465877449116
 21
1107.058554410158
 31
0.0
  0
LINE
  5
23CE9
330
747D
100
AcDbEntity
  8
細線
 48
50.0
100
AcDbLine
 10
7860.778575234604
 20
1267.058554410158
 30
0.0
 11
8155.965877449112
 21
1562.245856624667
 31
0.0
  0
DIMENSION
  5
23CEA
330
747D
100
AcDbEntity
  8
寸法
 48
50.0
100
AcDbDimension
  2
*D32
 10
8968.369959808947
 20
2247.058554410158
 30
0.0
 11
8968.369959808947
 21
1781.049650988676
 31
0.0
 70
   160
  1
20～25
 71
     5
 42
65.94999999999981
  3
INABA_S40G
100
AcDbAlignedDimension
 13
7761.965877449113
 23
2313.008554410158
 33
0.0
 14
7995.965877449115
 24
2247.058554410158
 34
0.0
 50
90.0
100
AcDbRotatedDimension
1001
ACAD
1000
DSTYLE
1002
{
1070
   341
1005
0
1002
}
  0
MTEXT
  5
23CEB
102
{ACAD_REACTORS
330
23CEC
102
}
330
747D
100
AcDbEntity
  8
部品1
 62
     7
 48
50.0
100
AcDbMText
 10
8007.146455473261
 20
2577.537712101696
 30
0.0
 40
100.0
 41
1.0
 71
     4
 72
     1
  1
M10X160
  7
STYLE2
 73
     1
 44
1.0
1001
ACAD
1000
MTEXTBEGIN
1070
    73
1070
     1
1070
    44
1040
1.0
1070
    74
1070
     0
1000
MTEXTEND
  0
LEADER
  5
23CEC
330
747D
100
AcDbEntity
  8
寸法
 48
50.0
100
AcDbLeader
  3
INABA_S40G
 73
     0
 74
     0
 75
     1
 40
100.0
 41
543.75
 76
     3
 10
7766.465877449113
 20
2308.508554410158
 30
0.0
 10
7867.14645547326
 20
2487.537712101696
 30
0.0
 10
7967.146455473261
 20
2487.537712101696
 30
0.0
340
23CEB
1001
ACAD
1000
DSTYLE
1002
{
1070
   341
1005
0
1002
}
  0
MTEXT
  5
23CED
102
{ACAD_REACTORS
330
23CEE
102
}
330
747D
100
AcDbEntity
  8
部品1
 62
     7
 48
50.0
100
AcDbMText
 10
8005.65834134081
 20
3353.889124225218
 30
0.0
 40
100.0
 41
1.0
 71
     4
 72
     1
  1
\A1;ナット(市販品)
  7
STYLE2
 73
     1
 44
1.0
1001
ACAD
1000
MTEXTBEGIN
1070
    73
1070
     1
1070
    44
1040
1.0
1070
    74
1070
     0
1000
MTEXTEND
  0
LEADER
  5
23CEE
330
747D
100
AcDbEntity
  8
寸法
 48
50.0
100
AcDbLeader
  3
INABA_S40G
 73
     0
 74
     0
 75
     1
 40
127.8409090909091
 41
850.0
 76
     3
 10
7775.215877449112
 20
2745.652655796587
 30
0.0
 10
7865.65834134081
 20
3249.968669679764
 30
0.0
 10
7965.65834134081
 20
3249.968669679764
 30
0.0
340
23CED
1001
ACAD
1000
DSTYLE
1002
{
1070
   341
1005
0
1002
}
  0
LEADER
  5
23CEF
330
747D
100
AcDbEntity
  8
寸法
 48
50.0
100
AcDbLeader
  3
INABA_S40G
 73
     0
 74
     0
 75
     1
 40
127.8409090909091
 41
1133.522727272727
 76
     3
 10
7805.215877449113
 20
2583.462664965508
 30
0.0
 10
7905.055365410165
 20
3018.757316223779
 30
0.0
 10
8005.055365410164
 20
3018.757316223779
 30
0.0
340
23CF0
1001
ACAD
1000
DSTYLE
1002
{
1070
   341
1005
0
1002
}
  0
MTEXT
  5
23CF0
102
{ACAD_REACTORS
330
23CEF
102
}
330
747D
100
AcDbEntity
  8
部品1
 62
     7
 48
50.0
100
AcDbMText
 10
8045.055365410163
 20
3122.677770769233
 30
0.0
 40
100.0
 41
1.0
 71
     4
 72
     1
  1
\A1;ワッシャー(市販品)
  7
STYLE2
 73
     1
 44
1.0
1001
ACAD
1000
MTEXTBEGIN
1070
    73
1070
     1
1070
    44
1040
1.0
1070
    74
1070
     0
1000
MTEXTEND
  0
LINE
  5
23CF1
330
747D
100
AcDbEntity
  8
細線
 48
50.0
100
AcDbLine
 10
7894.454535688615
 20
1267.058554410158
 30
0.0
 11
8155.965877449112
 21
1528.56989617065
 31
0.0
  0
TEXT
  5
23CF2
330
747D
100
AcDbEntity
  8
部品1
100
AcDbText
 10
7240.545152942484
 20
3673.833164191929
 30
0.0
 40
150.0
  1
基礎詳細
  7
STYLE2
100
AcDbText
  0
LINE
  5
23CF3
330
747D
100
AcDbEntity
  8
部品1
100
AcDbLine
 10
4234.616044425841
 20
3898.273079131214
 30
0.0
 11
4234.616044425841
 21
639.203579776526
 31
0.0
  0
LEADER
  5
23CF4
330
747D
100
AcDbEntity
  8
寸法
 48
50.0
100
AcDbLeader
  3
INABA_S40G
 73
     0
 75
     1
 40
141.4772727272727
 41
760.7954545454546
 76
     3
 10
7716.136815121673
 20
2183.953146108006
 30
0.0
 10
7501.382029257493
 20
3239.426999053602
 30
0.0
 10
7401.382029257494
 20
3239.426999053602
 30
0.0
340
23CF5
1001
ACAD
1000
DSTYLE
1002
{
1070
   341
1005
0
1002
}
  0
MTEXT
  5
23CF5
102
{ACAD_REACTORS
330
23CF4
102
}
330
747D
100
AcDbEntity
  8
寸法
 62
     7
 48
50.0
100
AcDbMText
 10
7361.382029257493
 20
3350.165635417239
 30
0.0
 40
100.0
 41
1.0
 71
     6
 72
     1
  1
\A1;φ70スリーブ
  7
STYLE2
 73
     1
 44
1.0
1001
ACAD
1000
MTEXTBEGIN
1070
    73
1070
     1
1070
    44
1040
1.0
1070
    74
1070
     0
1000
MTEXTEND
  0
MTEXT
  5
23CF6
102
{ACAD_REACTORS
330
23CF7
102
}
330
747D
100
AcDbEntity
  8
寸法
 62
     7
 48
50.0
100
AcDbMText
 10
5241.854168199114
 20
1748.684307931978
 30
0.0
 40
100.0
 41
1.0
 71
     6
 72
     1
  1
\A1;D10@300
  7
STYLE2
 73
     1
 44
1.0
1001
ACAD
1000
MTEXTBEGIN
1070
    73
1070
     1
1070
    44
1040
1.0
1070
    74
1070
     0
1000
MTEXTEND
  0
LEADER
  5
23CF7
330
747D
100
AcDbEntity
  8
寸法
 48
50.0
100
AcDbLeader
  3
INABA_S40G
 71
     0
 73
     0
 75
     1
 40
100.0
 41
540.3409090909091
 76
     3
 10
5483.416735977621
 20
1944.717572781561
 30
0.0
 10
5354.688940316749
 20
1667.879662105556
 30
0.0
 10
5254.688940316749
 20
1667.879662105556
 30
0.0
213
-12.16522788236671
223
-5.804645826423211
233
0.0
1001
ACAD
1000
DSTYLE
1002
{
1070
   341
1005
0
1002
}
  0
LEADER
  5
23CF8
330
747D
100
AcDbEntity
  8
寸法
 48
50.0
100
AcDbLeader
  3
INABA_S40G
 71
     0
 73
     0
 75
     1
 40
130.1136363636363
 41
651.1363636363636
 76
     3
 10
5453.416735977621
 20
2247.058554410158
 30
0.0
 10
5394.49873605934
 20
2422.647011230892
 30
0.0
 10
5294.498736059339
 20
2422.647011230892
 30
0.0
1001
ACAD
1000
DSTYLE
1002
{
1070
   341
1005
0
1002
}
  0
MTEXT
  5
23CF9
102
{ACAD_REACTORS
330
23CF8
102
}
330
747D
100
AcDbEntity
  8
寸法
 62
     7
 48
50.0
100
AcDbMText
 10
5269.498736059339
 20
2512.703829412711
 30
0.0
 40
100.0
 41
1.0
 71
     6
 72
     1
  1
\A1;金コテ押エ
  7
STYLE2
 73
     1
 44
1.0
1001
ACAD
1000
MTEXTBEGIN
1070
    73
1070
     1
1070
    44
1040
1.0
1070
    74
1070
     0
1000
MTEXTEND
  0
DIMENSION
  5
23CFA
330
747D
100
AcDbEntity
  8
寸法
 48
50.0
100
AcDbDimension
  2
*D33
 10
4592.771797941555
 20
1267.058554410158
 30
0.0
 11
4592.771797941555
 21
1757.058554410158
 31
0.0
 70
   160
  1
540
 71
     5
 42
980.0000000000002
  3
INABA_S40G
100
AcDbAlignedDimension
 13
5353.416735977619
 23
2247.058554410158
 33
0.0
 14
5093.416735977625
 24
1267.058554410158
 34
0.0
 50
90.0
100
AcDbRotatedDimension
1001
ACAD
1000
DSTYLE
1002
{
1070
   341
1005
0
1002
}
  0
MTEXT
  5
23CFB
102
{ACAD_REACTORS
330
23CFC
102
}
330
747D
100
AcDbEntity
  8
寸法
 62
     7
 48
50.0
100
AcDbMText
 10
5014.901362680421
 20
937.2599967128079
 30
0.0
 40
100.0
 41
1.0
 71
     6
 72
     1
  1
D13
  7
STYLE2
 73
     1
 44
1.0
1001
ACAD
1000
MTEXTBEGIN
1070
    73
1070
     1
1070
    44
1040
1.0
1070
    74
1070
     0
1000
MTEXTEND
  0
LEADER
  5
23CFC
330
747D
100
AcDbEntity
  8
寸法
 48
50.0
100
AcDbLeader
  3
INABA_S40G
 71
     0
 73
     0
 75
     1
 40
100.0
 41
222.7272727272727
 76
     3
 10
5473.41673597762
 20
1417.058554410157
 30
0.0
 10
5139.901362680421
 20
862.2599967128081
 30
0.0
 10
5039.901362680421
 20
862.2599967128081
 30
0.0
1001
ACAD
1000
DSTYLE
1002
{
1070
   341
1005
0
1002
}
  0
DIMENSION
  5
23CFD
330
747D
100
AcDbEntity
  8
寸法
 48
50.0
100
AcDbDimension
  2
*D34
 10
5753.416735977621
 20
808.1064479542238
 30
0.0
 11
5473.41673597762
 21
808.1064479542238
 31
0.0
 70
   160
  1
300
 71
     5
 42
560.0000000000018
  3
INABA_S40G
100
AcDbAlignedDimension
 13
5193.41673597762
 23
1107.058554410158
 33
0.0
 14
5753.416735977621
 24
1107.058554410158
 34
0.0
100
AcDbRotatedDimension
1001
ACAD
1000
DSTYLE
1002
{
1070
   341
1005
0
1002
}
  0
LEADER
  5
23CFE
330
747D
100
AcDbEntity
  8
寸法
 48
50.0
100
AcDbLeader
  3
INABA_S40G
 73
     0
 75
     1
 40
132.9545454545455
 41
1129.404378023068
 76
     3
 10
7642.71587744911
 20
2334.008554410158
 30
0.0
 10
7534.685787017941
 20
2792.833022805574
 30
0.0
 10
7434.68578701794
 20
2792.833022805574
 30
0.0
340
23CFF
1001
ACAD
1000
DSTYLE
1002
{
1070
   341
1005
0
1002
}
  0
MTEXT
  5
23CFF
102
{ACAD_REACTORS
330
23CFE
102
}
330
747D
100
AcDbEntity
  8
寸法
 62
     7
 48
50.0
100
AcDbMText
 10
7394.685787017941
 20
2899.310295532847
 30
0.0
 40
100.0
 41
1.0
 71
     6
 72
     1
  1
アンカープレート {\fArial|b0|i0|c0|p32;U}
  7
STYLE2
 73
     1
 44
1.0
1001
ACAD
1000
MTEXTBEGIN
1070
    73
1070
     1
1070
    44
1040
1.0
1070
    74
1070
     0
1000
MTEXTEND
  0
LEADER
  5
23D00
330
747D
100
AcDbEntity
  8
寸法
 48
50.0
100
AcDbLeader
  3
INABA_S40G
 71
     0
 73
     0
 74
     0
 75
     1
 40
100.0
 41
540.3409090909091
 76
     3
 10
5565.848197244086
 20
1396.13289139325
 30
0.0
 10
5770.589805804185
 20
969.094368899629
 30
0.0
 10
5870.589805804184
 20
969.094368899629
 30
0.0
213
0.0
223
-1.277828345336728
233
0.0
1001
ACAD
1000
DSTYLE
1002
{
1070
   341
1005
0
1002
}
  0
MTEXT
  5
23D01
102
{ACAD_REACTORS
330
23D00
102
}
330
747D
100
AcDbEntity
  8
寸法
 62
     7
 48
50.0
100
AcDbMText
 10
5895.589805804184
 20
1045.372197244965
 30
0.0
 40
100.0
 41
1.0
 71
     4
 72
     1
  1
\A1;D10@300
  7
STYLE2
 73
     1
 44
1.0
1001
ACAD
1000
MTEXTBEGIN
1070
    73
1070
     1
1070
    44
1040
1.0
1070
    74
1070
     0
1000
MTEXTEND
  0
CIRCLE
  5
23D02
330
747D
100
AcDbEntity
  8
部品1
 48
50.0
100
AcDbCircle
 10
5473.41673597762
 20
2072.376591152964
 30
0.0
 40
10.0
  0
LINE
  5
23D03
330
747D
100
AcDbEntity
  8
細線
 48
50.0
100
AcDbLine
 10
5503.416735977621
 20
2045.024670244946
 30
0.0
 11
5593.41673597762
 21
2135.024670244946
 31
0.0
  0
MTEXT
  5
23D04
102
{ACAD_REACTORS
330
23D09
102
}
330
747D
100
AcDbEntity
  8
寸法
 62
     7
 48
50.0
100
AcDbMText
 10
5697.024157261863
 20
2073.643006033817
 30
0.0
 40
100.0
 41
1.0
 71
     4
 72
     1
  1
D13
  7
STYLE2
 73
     1
 44
1.0
1001
ACAD
1000
MTEXTBEGIN
1070
    73
1070
     1
1070
    44
1040
1.0
1070
    74
1070
     0
1000
MTEXTEND
  0
TEXT
  5
23D05
330
747D
100
AcDbEntity
  8
部品1
 48
50.0
100
AcDbText
 10
4835.741858686425
 20
1961.107294764227
 30
0.0
 40
100.0
  1
▽G.L
  7
STYLE2
100
AcDbText
  0
ARC
  5
23D06
330
747D
100
AcDbEntity
  8
部品1
 48
50.0
100
AcDbCircle
 10
5473.41673597762
 20
2072.376591152964
 30
0.0
 40
30.0
100
AcDbArc
 50
0.0
 51
180.0
  0
LINE
  5
23D07
330
747D
100
AcDbEntity
  8
部品1
 48
50.0
100
AcDbLine
 10
5353.416735977619
 20
1567.058554410158
 30
0.0
 11
5353.416735977619
 21
2247.058554410158
 31
0.0
  0
LINE
  5
23D08
330
747D
100
AcDbEntity
  8
部品1
 48
50.0
100
AcDbLine
 10
5593.41673597762
 20
2247.058554410158
 30
0.0
 11
5593.41673597762
 21
1567.058554410158
 31
0.0
  0
LEADER
  5
23D09
330
747D
100
AcDbEntity
  8
寸法
 48
50.0
100
AcDbLeader
  3
INABA_S40G
 71
     0
 73
     0
 74
     0
 75
     1
 40
100.0
 41
222.7272727272727
 76
     3
 10
5473.41673597762
 20
2072.376591152964
 30
0.0
 10
5572.024157261863
 20
1998.643006033817
 30
0.0
 10
5672.024157261863
 20
1998.643006033817
 30
0.0
1001
ACAD
1000
DSTYLE
1002
{
1070
   341
1005
0
1002
}
  0
LINE
  5
23D0A
330
747D
100
AcDbEntity
  8
細線
 48
50.0
100
AcDbLine
 10
5503.416735977627
 20
1775.61698661287
 30
0.0
 11
5593.416735977613
 21
1865.61698661287
 31
0.0
  0
LINE
  5
23D0B
330
747D
100
AcDbEntity
  8
細線
 48
50.0
100
AcDbLine
 10
5503.416735977627
 20
1809.292947066884
 30
0.0
 11
5593.416735977613
 21
1899.292947066877
 31
0.0
  0
LINE
  5
23D0C
330
747D
100
AcDbEntity
  8
細線
 48
50.0
100
AcDbLine
 10
5503.416735977627
 20
1506.209302980797
 30
0.0
 11
5593.416735977613
 21
1596.209302980796
 31
0.0
  0
LINE
  5
23D0D
330
747D
100
AcDbEntity
  8
細線
 48
50.0
100
AcDbLine
 10
5503.416735977627
 20
1573.561223888819
 30
0.0
 11
5593.416735977613
 21
1663.561223888814
 31
0.0
  0
LINE
  5
23D0E
330
747D
100
AcDbEntity
  8
細線
 48
50.0
100
AcDbLine
 10
5503.416735977627
 20
1539.885263434809
 30
0.0
 11
5593.416735977613
 21
1629.885263434802
 31
0.0
  0
LEADER
  5
23D0F
330
747D
100
AcDbEntity
  8
寸法
 48
50.0
100
AcDbLeader
  3
INABA_S40G
 71
     0
 73
     0
 74
     0
 75
     1
 40
100.0
 41
222.7272727272727
 76
     3
 10
5473.416735977629
 20
1744.717572781561
 30
0.0
 10
5572.024157261872
 20
1670.983987662413
 30
0.0
 10
5672.024157261873
 20
1670.983987662413
 30
0.0
1001
ACAD
1000
DSTYLE
1002
{
1070
   341
1005
0
1002
}
  0
LINE
  5
23D10
330
747D
100
AcDbEntity
  8
細線
 48
50.0
100
AcDbLine
 10
5548.505341531697
 20
1107.058554410158
 30
0.0
 11
5591.377212320678
 21
1267.058554410156
 31
0.0
  0
LINE
  5
23D11
330
747D
100
AcDbEntity
  8
細線
 48
50.0
100
AcDbLine
 10
5556.543817304638
 20
1137.058554410158
 30
0.0
 11
5564.582293077571
 21
1107.058554410158
 31
0.0
  0
LINE
  5
23D12
330
747D
100
AcDbEntity
  8
細線
 48
50.0
100
AcDbLine
 10
5466.321750131038
 20
1267.058554410158
 30
0.0
 11
5586.321750131038
 21
1387.058554410158
 31
0.0
  0
LINE
  5
23D13
330
747D
100
AcDbEntity
  8
細線
 48
50.0
100
AcDbLine
 10
5499.99771058505
 20
1267.058554410158
 30
0.0
 11
5619.99771058505
 21
1387.058554410158
 31
0.0
  0
LINE
  5
23D14
330
747D
100
AcDbEntity
  8
細線
 48
50.0
100
AcDbLine
 10
5533.673671039057
 20
1267.058554410158
 30
0.0
 11
5653.674780845477
 21
1387.059664216582
 31
0.0
  0
LINE
  5
23D15
330
747D
100
AcDbEntity
  8
部品1
 48
50.0
100
AcDbLine
 10
5853.416735977624
 20
1107.058554410158
 30
0.0
 11
5093.416735977625
 21
1107.058554410158
 31
0.0
  0
LINE
  5
23D16
330
747D
100
AcDbEntity
  8
部品1
 48
50.0
100
AcDbLine
 10
5853.416735977624
 20
1267.058554410158
 30
0.0
 11
5093.416735977625
 21
1267.058554410158
 31
0.0
  0
LINE
  5
23D17
330
747D
100
AcDbEntity
  8
部品1
 48
50.0
100
AcDbLine
 10
5263.416735977619
 20
1387.058554410158
 30
0.0
 11
5683.416735977621
 21
1387.058554410158
 31
0.0
  0
LINE
  5
23D18
330
747D
100
AcDbEntity
  8
部品1
 48
50.0
100
AcDbLine
 10
5263.416735977619
 20
1407.058554410158
 30
0.0
 11
5683.416735977621
 21
1407.058554410158
 31
0.0
  0
LINE
  5
23D19
330
747D
100
AcDbEntity
  8
細線
 48
50.0
100
AcDbLine
 10
5503.416735977621
 20
1842.96890752089
 30
0.0
 11
5593.41673597762
 21
1932.96890752089
 31
0.0
  0
LINE
  5
23D1A
330
747D
100
AcDbEntity
  8
細線
 48
50.0
100
AcDbLine
 10
5193.416735977613
 20
1465.616986612872
 30
0.0
 11
5294.858303774907
 21
1567.058554410158
 31
0.0
  0
DIMENSION
  5
23D1B
330
747D
100
AcDbEntity
  8
寸法
 48
50.0
100
AcDbDimension
  2
*D35
 10
5015.391343812045
 20
1267.058554410158
 30
0.0
 11
5015.391343812045
 21
1417.058554410157
 31
0.0
 70
   160
  1
150
 71
     5
 42
300.0
  3
INABA_S40G
100
AcDbAlignedDimension
 13
5193.41673597762
 23
1567.058554410158
 33
0.0
 14
5093.416735977625
 24
1267.058554410158
 34
0.0
 50
90.0
100
AcDbRotatedDimension
1001
ACAD
1000
DSTYLE
1002
{
1070
   341
1005
0
1002
}
  0
LINE
  5
23D1C
330
747D
100
AcDbEntity
  8
部品1
 48
50.0
100
AcDbLine
 10
5193.41673597762
 20
1267.058554410158
 30
0.0
 11
5193.41673597762
 21
1567.058554410158
 31
0.0
  0
LINE
  5
23D1D
330
747D
100
AcDbEntity
  8
細線
 48
50.0
100
AcDbLine
 10
5453.249045324375
 20
1489.717572781561
 30
0.0
 11
5483.416735977627
 21
1519.885263434808
 31
0.0
  0
LINE
  5
23D1E
330
747D
100
AcDbEntity
  8
細線
 48
50.0
100
AcDbLine
 10
5336.914066498962
 20
1407.058554410158
 30
0.0
 11
5483.416735977621
 21
1553.561223888815
 31
0.0
  0
LINE
  5
23D1F
330
747D
100
AcDbEntity
  8
部品1
 48
50.0
100
AcDbLine
 10
5503.416735977627
 20
1417.058554410157
 30
0.0
 11
5503.416735977621
 21
2072.376591152964
 31
0.0
  0
LINE
  5
23D20
330
747D
100
AcDbEntity
  8
部品1
 48
50.0
100
AcDbLine
 10
5483.416735977627
 20
1417.058554410157
 30
0.0
 11
5483.416735977613
 21
2072.376591152964
 31
0.0
  0
LEADER
  5
23D21
330
747D
100
AcDbEntity
  8
寸法
 48
50.0
100
AcDbLeader
  3
INABA_S40G
 71
     0
 73
     0
 75
     1
 40
100.0
 41
225.0
 76
     3
 10
5313.295426417798
 20
1417.058554410157
 30
0.0
 10
5104.747953233626
 20
1087.655187387112
 30
0.0
 10
5004.747953233627
 20
1087.655187387112
 30
0.0
1001
ACAD
1000
DSTYLE
1002
{
1070
   341
1005
0
1002
}
  0
LINE
  5
23D22
330
747D
100
AcDbEntity
  8
部品1
 48
50.0
100
AcDbLine
 10
5093.416735977625
 20
1107.058554410158
 30
0.0
 11
5093.416735977625
 21
1267.058554410158
 31
0.0
  0
MTEXT
  5
23D23
102
{ACAD_REACTORS
330
23D21
102
}
330
747D
100
AcDbEntity
  8
寸法
 62
     7
 48
50.0
100
AcDbMText
 10
4979.747953233627
 20
1162.655187387112
 30
0.0
 40
100.0
 41
1.0
 71
     6
 72
     1
  1
D10
  7
STYLE2
 73
     1
 44
1.0
1001
ACAD
1000
MTEXTBEGIN
1070
    73
1070
     1
1070
    44
1040
1.0
1070
    74
1070
     0
1000
MTEXTEND
  0
LINE
  5
23D24
330
747D
100
AcDbEntity
  8
細線
 48
50.0
100
AcDbLine
 10
5093.416735977619
 20
1248.733455617383
 30
0.0
 11
5098.326931400364
 21
1267.058554410158
 31
0.0
  0
LINE
  5
23D25
330
747D
100
AcDbEntity
  8
細線
 48
50.0
100
AcDbLine
 10
5351.285229163574
 20
1107.058554410156
 30
0.0
 11
5394.157099952553
 21
1267.058554410156
 31
0.0
  0
LINE
  5
23D26
330
747D
100
AcDbEntity
  8
細線
 48
50.0
100
AcDbLine
 10
5154.065116795443
 20
1107.058554410156
 30
0.0
 11
5196.936987584422
 21
1267.058554410156
 31
0.0
  0
LINE
  5
23D27
330
747D
100
AcDbEntity
  8
細線
 48
50.0
100
AcDbLine
 10
5252.675172979516
 20
1107.058554410158
 30
0.0
 11
5295.547043768494
 21
1267.058554410158
 31
0.0
  0
LINE
  5
23D28
330
747D
100
AcDbEntity
  8
細線
 48
50.0
100
AcDbLine
 10
5449.895285347636
 20
1107.058554410158
 30
0.0
 11
5492.767156136617
 21
1267.058554410158
 31
0.0
  0
LINE
  5
23D29
330
747D
100
AcDbEntity
  8
細線
 48
50.0
100
AcDbLine
 10
5260.713648752449
 20
1137.058554410158
 30
0.0
 11
5268.752124525382
 21
1107.058554410158
 31
0.0
  0
LINE
  5
23D2A
330
747D
100
AcDbEntity
  8
細線
 48
50.0
100
AcDbLine
 10
5162.103592568385
 20
1137.058554410158
 30
0.0
 11
5170.142068341319
 21
1107.058554410158
 31
0.0
  0
LINE
  5
23D2B
330
747D
100
AcDbEntity
  8
細線
 48
50.0
100
AcDbLine
 10
5359.323704936514
 20
1137.058554410158
 30
0.0
 11
5367.362180709447
 21
1107.058554410158
 31
0.0
  0
LINE
  5
23D2C
330
747D
100
AcDbEntity
  8
細線
 48
50.0
100
AcDbLine
 10
5457.93376112058
 20
1137.058554410158
 30
0.0
 11
5465.972236893513
 21
1107.058554410158
 31
0.0
  0
LINE
  5
23D2D
330
747D
100
AcDbEntity
  8
細線
 48
50.0
100
AcDbLine
 10
5264.265987406981
 20
1267.058554410158
 30
0.0
 11
5384.265987406982
 21
1387.058554410158
 31
0.0
  0
LINE
  5
23D2E
330
747D
100
AcDbEntity
  8
部品1
 48
50.0
100
AcDbLine
 10
5263.416735977619
 20
1407.058554410158
 30
0.0
 11
5263.416735977619
 21
1387.058554410158
 31
0.0
  0
CIRCLE
  5
23D2F
330
747D
100
AcDbEntity
  8
部品1
 48
50.0
100
AcDbCircle
 10
5313.416735977619
 20
1417.058554410157
 30
0.0
 40
10.0
  0
LINE
  5
23D30
330
747D
100
AcDbEntity
  8
細線
 48
50.0
100
AcDbLine
 10
5287.508567995561
 20
1237.058554410158
 30
0.0
 11
5279.470092222627
 21
1267.058554410158
 31
0.0
  0
LINE
  5
23D31
330
747D
100
AcDbEntity
  8
細線
 48
50.0
100
AcDbLine
 10
5188.898511811496
 20
1237.058554410158
 30
0.0
 11
5180.860036038563
 21
1267.058554410158
 31
0.0
  0
LINE
  5
23D32
330
747D
100
AcDbEntity
  8
細線
 48
50.0
100
AcDbLine
 10
5230.590026952976
 20
1267.058554410158
 30
0.0
 11
5350.590026952976
 21
1387.058554410158
 31
0.0
  0
LINE
  5
23D33
330
747D
100
AcDbEntity
  8
細線
 48
50.0
100
AcDbLine
 10
5196.914066498963
 20
1267.058554410158
 30
0.0
 11
5316.914066498963
 21
1387.058554410158
 31
0.0
  0
LINE
  5
23D34
330
747D
100
AcDbEntity
  8
細線
 48
50.0
100
AcDbLine
 10
5463.416735977621
 20
1466.209302980796
 30
0.0
 11
5483.416735977627
 21
1486.209302980796
 31
0.0
  0
CIRCLE
  5
23D35
330
747D
100
AcDbEntity
  8
部品1
 48
50.0
100
AcDbCircle
 10
5473.41673597762
 20
1417.058554410157
 30
0.0
 40
10.0
  0
LINE
  5
23D36
330
747D
100
AcDbEntity
  8
部品1
 48
50.0
100
AcDbLine
 10
5463.416735977621
 20
1489.717572781561
 30
0.0
 11
5463.416735977621
 21
1417.058554410157
 31
0.0
  0
ARC
  5
23D37
330
747D
100
AcDbEntity
  8
部品1
 48
50.0
100
AcDbCircle
 10
5473.41673597762
 20
1417.058554410157
 30
0.0
 40
30.0
100
AcDbArc
 50
340.5287793655164
 51
0.0
  0
LINE
  5
23D38
330
747D
100
AcDbEntity
  8
細線
 48
50.0
100
AcDbLine
 10
5484.728680363691
 20
1237.058554410158
 30
0.0
 11
5476.690204590757
 21
1267.058554410158
 31
0.0
  0
LINE
  5
23D39
330
747D
100
AcDbEntity
  8
部品1
 48
50.0
100
AcDbLine
 10
5443.41673597762
 20
1489.717572781561
 30
0.0
 11
5443.41673597762
 21
1417.058554410157
 31
0.0
  0
ARC
  5
23D3A
330
747D
100
AcDbEntity
  8
部品1
 48
50.0
100
AcDbCircle
 10
5473.41673597762
 20
1417.058554410157
 30
0.0
 40
30.0
100
AcDbArc
 50
180.0
 51
199.4712206344835
  0
LINE
  5
23D3B
330
747D
100
AcDbEntity
  8
細線
 48
50.0
100
AcDbLine
 10
5370.590026952976
 20
1407.058554410158
 30
0.0
 11
5443.41673597762
 21
1479.885263434806
 31
0.0
  0
LINE
  5
23D3C
330
747D
100
AcDbEntity
  8
細線
 48
50.0
100
AcDbLine
 10
5404.265987406981
 20
1407.058554410158
 30
0.0
 11
5443.41673597762
 21
1446.209302980796
 31
0.0
  0
LINE
  5
23D3D
330
747D
100
AcDbEntity
  8
細線
 48
50.0
100
AcDbLine
 10
5386.118624179626
 20
1237.058554410158
 30
0.0
 11
5378.080148406692
 21
1267.058554410158
 31
0.0
  0
LINE
  5
23D3E
330
747D
100
AcDbEntity
  8
部品1
 48
50.0
100
AcDbLine
 10
5463.416735977621
 20
1489.717572781561
 30
0.0
 11
5443.41673597762
 21
1489.717572781561
 31
0.0
  0
LWPOLYLINE
  5
23D3F
330
747D
100
AcDbEntity
  8
部品1
 48
50.0
100
AcDbPolyline
 90
        2
 70
     0
 43
10.0
 10
4835.741858686425
 20
1947.058554410159
 10
5353.416735977619
 20
1947.058554410159
  0
LINE
  5
23D40
330
747D
100
AcDbEntity
  8
細線
 48
50.0
100
AcDbLine
 10
5353.416735977619
 20
1659.29294706688
 30
0.0
 11
5483.416735977627
 21
1789.292947066884
 31
0.0
  0
LINE
  5
23D41
330
747D
100
AcDbEntity
  8
細線
 48
50.0
100
AcDbLine
 10
5353.416735977619
 20
1692.96890752089
 30
0.0
 11
5483.416735977621
 21
1822.96890752089
 31
0.0
  0
LINE
  5
23D42
330
747D
100
AcDbEntity
  8
細線
 48
50.0
100
AcDbLine
 10
5353.416735977619
 20
1625.616986612871
 30
0.0
 11
5465.910276006209
 21
1738.110526641456
 31
0.0
  0
LINE
  5
23D43
330
747D
100
AcDbEntity
  8
細線
 48
50.0
100
AcDbLine
 10
5193.416735977613
 20
1532.96890752089
 30
0.0
 11
5227.506382866887
 21
1567.058554410158
 31
0.0
  0
LINE
  5
23D44
330
747D
100
AcDbEntity
  8
部品1
 48
50.0
100
AcDbLine
 10
5193.41673597762
 20
1567.058554410158
 30
0.0
 11
5353.416735977619
 21
1567.058554410158
 31
0.0
  0
LINE
  5
23D45
330
747D
100
AcDbEntity
  8
細線
 48
50.0
100
AcDbLine
 10
5193.416735977613
 20
1499.292947066877
 30
0.0
 11
5261.182343320902
 21
1567.058554410158
 31
0.0
  0
LINE
  5
23D46
330
747D
100
AcDbEntity
  8
細線
 48
50.0
100
AcDbLine
 10
5480.023782117736
 20
1752.224032752979
 30
0.0
 11
5483.416735977627
 21
1755.616986612871
 31
0.0
  0
CIRCLE
  5
23D47
330
747D
100
AcDbEntity
  8
部品1
 48
50.0
100
AcDbCircle
 10
5473.416735977629
 20
1744.717572781561
 30
0.0
 40
10.0
  0
LINE
  5
23D48
330
747D
100
AcDbEntity
  8
細線
 48
50.0
100
AcDbLine
 10
5353.416735977619
 20
1962.376591152964
 30
0.0
 11
5443.41673597762
 21
2052.376591152965
 31
0.0
  0
LINE
  5
23D49
330
747D
100
AcDbEntity
  8
細線
 48
50.0
100
AcDbLine
 10
5353.416735977619
 20
1928.700630698955
 30
0.0
 11
5443.41673597762
 21
2018.700630698955
 31
0.0
  0
LINE
  5
23D4A
330
747D
100
AcDbEntity
  8
細線
 48
50.0
100
AcDbLine
 10
5353.416735977619
 20
1895.024670244946
 30
0.0
 11
5458.109638514238
 21
1999.71757278156
 31
0.0
  0
LINE
  5
23D4B
330
747D
100
AcDbEntity
  8
細線
 48
50.0
100
AcDbLine
 10
5463.416735977621
 20
2005.024670244946
 30
0.0
 11
5483.416735977621
 21
2025.024670244946
 31
0.0
  0
LINE
  5
23D4C
330
747D
100
AcDbEntity
  8
細線
 48
50.0
100
AcDbLine
 10
5463.416735977621
 20
2038.700630698955
 30
0.0
 11
5483.416735977621
 21
2058.700630698955
 31
0.0
  0
LINE
  5
23D4D
330
747D
100
AcDbEntity
  8
部品1
 48
50.0
100
AcDbLine
 10
5463.416735977621
 20
1999.71757278156
 30
0.0
 11
5463.416735977621
 21
2072.376591152964
 31
0.0
  0
LINE
  5
23D4E
330
747D
100
AcDbEntity
  8
部品1
 48
50.0
100
AcDbLine
 10
5443.41673597762
 20
1999.717572781564
 30
0.0
 11
5443.41673597762
 21
2072.376591152964
 31
0.0
  0
LINE
  5
23D4F
330
747D
100
AcDbEntity
  8
部品1
 48
50.0
100
AcDbLine
 10
5463.416735977621
 20
1999.71757278156
 30
0.0
 11
5443.41673597762
 21
1999.717572781564
 31
0.0
  0
LINE
  5
23D50
330
747D
100
AcDbEntity
  8
細線
 48
50.0
100
AcDbLine
 10
5639.99771058505
 20
1407.058554410158
 30
0.0
 11
5753.416735977621
 21
1520.47757980273
 31
0.0
  0
LINE
  5
23D51
330
747D
100
AcDbEntity
  8
細線
 48
50.0
100
AcDbLine
 10
5606.321750131029
 20
1407.058554410158
 30
0.0
 11
5753.416735977621
 21
1554.153540256741
 31
0.0
  0
LINE
  5
23D52
330
747D
100
AcDbEntity
  8
部品1
 48
50.0
100
AcDbLine
 10
5753.416735977621
 20
1567.058554410158
 30
0.0
 11
5753.416735977621
 21
1267.058554410158
 31
0.0
  0
LEADER
  5
23D53
330
747D
100
AcDbEntity
  8
寸法
 48
50.0
100
AcDbLeader
  3
INABA_S40G
 71
     0
 73
     0
 74
     0
 75
     1
 40
100.0
 41
225.0
 76
     3
 10
5633.2954264178
 20
1417.058554410157
 30
0.0
 10
5757.576310735977
 20
1297.812218231442
 30
0.0
 10
5857.576310735977
 20
1297.812218231442
 30
0.0
1001
ACAD
1000
DSTYLE
1002
{
1070
   341
1005
0
1002
}
  0
MTEXT
  5
23D54
102
{ACAD_REACTORS
330
23D53
102
}
330
747D
100
AcDbEntity
  8
寸法
 62
     7
 48
50.0
100
AcDbMText
 10
5882.576310735977
 20
1372.812218231442
 30
0.0
 40
100.0
 41
1.0
 71
     4
 72
     1
  1
D10
  7
STYLE2
 73
     1
 44
1.0
1001
ACAD
1000
MTEXTBEGIN
1070
    73
1070
     1
1070
    44
1040
1.0
1070
    74
1070
     0
1000
MTEXTEND
  0
LINE
  5
23D55
330
747D
100
AcDbEntity
  8
部品1
 48
50.0
100
AcDbLine
 10
5853.416735977624
 20
1267.058554410158
 30
0.0
 11
5853.416735977624
 21
1107.058554410158
 31
0.0
  0
LINE
  5
23D56
330
747D
100
AcDbEntity
  8
細線
 48
50.0
100
AcDbLine
 10
5745.725453899812
 20
1107.058554410158
 30
0.0
 11
5788.597324688794
 21
1267.058554410156
 31
0.0
  0
LINE
  5
23D57
330
747D
100
AcDbEntity
  8
細線
 48
50.0
100
AcDbLine
 10
5647.115397715758
 20
1107.058554410156
 30
0.0
 11
5689.987268504736
 21
1267.058554410156
 31
0.0
  0
LINE
  5
23D58
330
747D
100
AcDbEntity
  8
細線
 48
50.0
100
AcDbLine
 10
5753.763929672752
 20
1137.058554410158
 30
0.0
 11
5761.802405445685
 21
1107.058554410158
 31
0.0
  0
LINE
  5
23D59
330
747D
100
AcDbEntity
  8
細線
 48
50.0
100
AcDbLine
 10
5655.153873488695
 20
1137.058554410158
 30
0.0
 11
5663.192349261628
 21
1107.058554410158
 31
0.0
  0
LINE
  5
23D5A
330
747D
100
AcDbEntity
  8
細線
 48
50.0
100
AcDbLine
 10
5852.373985856807
 20
1137.058554410158
 30
0.0
 11
5853.416735977621
 21
1133.166957979702
 31
0.0
  0
LINE
  5
23D5B
330
747D
100
AcDbEntity
  8
細線
 48
50.0
100
AcDbLine
 10
5844.335510083872
 20
1107.058554410156
 30
0.0
 11
5853.416735977621
 21
1140.950150840643
 31
0.0
  0
LINE
  5
23D5C
330
747D
100
AcDbEntity
  8
細線
 48
50.0
100
AcDbLine
 10
5673.673671039055
 20
1407.058554410158
 30
0.0
 11
5753.416735977621
 21
1486.801619348722
 31
0.0
  0
LINE
  5
23D5D
330
747D
100
AcDbEntity
  8
部品1
 48
50.0
100
AcDbLine
 10
5683.416735977621
 20
1407.058554410158
 30
0.0
 11
5683.416735977621
 21
1387.058554410158
 31
0.0
  0
CIRCLE
  5
23D5E
330
747D
100
AcDbEntity
  8
部品1
 48
50.0
100
AcDbCircle
 10
5633.416735977621
 20
1417.058554410157
 30
0.0
 40
10.0
  0
LINE
  5
23D5F
330
747D
100
AcDbEntity
  8
細線
 48
50.0
100
AcDbLine
 10
5681.948792731807
 20
1237.058554410158
 30
0.0
 11
5673.910316958872
 21
1267.058554410158
 31
0.0
  0
LINE
  5
23D60
330
747D
100
AcDbEntity
  8
細線
 48
50.0
100
AcDbLine
 10
5735.729433763113
 20
1267.058554410158
 30
0.0
 11
5753.416735977621
 21
1284.745856624666
 31
0.0
  0
LINE
  5
23D61
330
747D
100
AcDbEntity
  8
細線
 48
50.0
100
AcDbLine
 10
5583.338736547748
 20
1237.058554410158
 30
0.0
 11
5575.300260774815
 21
1267.058554410158
 31
0.0
  0
LINE
  5
23D62
330
747D
100
AcDbEntity
  8
細線
 48
50.0
100
AcDbLine
 10
5780.558848915863
 20
1237.058554410158
 30
0.0
 11
5772.52037314293
 21
1267.058554410158
 31
0.0
  0
LWPOLYLINE
  5
23D63
330
747D
100
AcDbEntity
  8
部品1
 48
50.0
100
AcDbPolyline
 90
        2
 70
     0
 43
10.0
 10
5593.41673597762
 20
1947.058554410159
 10
6111.091613268816
 20
1947.058554410159
  0
MTEXT
  5
23D64
102
{ACAD_REACTORS
330
23D0F
102
}
330
747D
100
AcDbEntity
  8
寸法
 62
     7
 48
50.0
100
AcDbMText
 10
5697.024157261875
 20
1745.983987662413
 30
0.0
 40
100.0
 41
1.0
 71
     4
 72
     1
  1
D13
  7
STYLE2
 73
     1
 44
1.0
1001
ACAD
1000
MTEXTBEGIN
1070
    73
1070
     1
1070
    44
1040
1.0
1070
    74
1070
     0
1000
MTEXTEND
  0
LINE
  5
23D65
330
747D
100
AcDbEntity
  8
部品1
 48
50.0
100
AcDbLine
 10
5593.41673597762
 20
1567.058554410158
 30
0.0
 11
5753.416735977621
 21
1567.058554410158
 31
0.0
  0
LINE
  5
23D66
330
747D
100
AcDbEntity
  8
細線
 48
50.0
100
AcDbLine
 10
5502.857620060104
 20
2078.141514781435
 30
0.0
 11
5593.41673597762
 21
2168.700630698955
 31
0.0
  0
LINE
  5
23D67
330
747D
100
AcDbEntity
  8
細線
 48
50.0
100
AcDbLine
 10
5489.032264105708
 20
2097.992119281053
 30
0.0
 11
5593.41673597762
 21
2202.376591152964
 31
0.0
  0
DIMENSION
  5
23D68
330
747D
100
AcDbEntity
  8
寸法
 48
50.0
100
AcDbDimension
  2
*D36
 10
5353.416735977619
 20
2647.058554410158
 30
0.0
 11
5473.41673597762
 21
2647.058554410158
 31
0.0
 70
   160
  1
120\P(195)
 71
     5
 42
240.0000000000009
  3
INABA_S40G
100
AcDbAlignedDimension
 13
5593.41673597762
 23
2247.058554410158
 33
0.0
 14
5353.416735977619
 24
2247.058554410158
 34
0.0
100
AcDbRotatedDimension
1001
ACAD
1000
DSTYLE
1002
{
1070
   341
1005
0
1002
}
  0
LINE
  5
23D69
330
747D
100
AcDbEntity
  8
部品1
 48
50.0
100
AcDbLine
 10
5353.416735977619
 20
2247.058554410158
 30
0.0
 11
5593.41673597762
 21
2247.058554410158
 31
0.0
  0
LINE
  5
23D6A
330
747D
100
AcDbEntity
  8
細線
 48
50.0
100
AcDbLine
 10
5353.416735977619
 20
2231.784274785039
 30
0.0
 11
5368.69101560274
 21
2247.058554410158
 31
0.0
  0
LINE
  5
23D6B
330
747D
100
AcDbEntity
  8
細線
 48
50.0
100
AcDbLine
 10
5353.416735977619
 20
2198.10831433103
 30
0.0
 11
5402.366976056752
 21
2247.058554410158
 31
0.0
  0
LINE
  5
23D6C
330
747D
100
AcDbEntity
  8
細線
 48
50.0
100
AcDbLine
 10
5353.416735977619
 20
2164.432353877021
 30
0.0
 11
5436.042936510756
 21
2247.058554410158
 31
0.0
  0
LINE
  5
23D6D
330
747D
100
AcDbEntity
  8
部品1
100
AcDbLine
 10
7995.96587744911
 20
1567.058554410158
 30
0.0
 11
7995.965877449115
 21
2247.058554410158
 31
0.0
  0
LINE
  5
23D6E
330
747D
100
AcDbEntity
  8
部品1
100
AcDbLine
 10
7766.465877449113
 20
1965.808554410157
 30
0.0
 11
7766.465877449107
 21
2308.508554410158
 31
0.0
  0
LINE
  5
23D6F
330
747D
100
AcDbEntity
  8
部品1
100
AcDbLine
 10
7743.965877449112
 20
1965.808554410157
 30
0.0
 11
7743.96587744911
 21
2308.508554410158
 31
0.0
  0
LINE
  5
23D70
330
747D
100
AcDbEntity
  8
細線
 48
50.0
100
AcDbLine
 10
7478.46587744911
 20
1962.376591152964
 30
0.0
 11
7676.465877449111
 21
2160.376591152962
 31
0.0
  0
LINE
  5
23D71
330
747D
100
AcDbEntity
  8
細線
 48
50.0
100
AcDbLine
 10
7478.46587744911
 20
1928.700630698955
 30
0.0
 11
7676.465877449111
 21
2126.700630698952
 31
0.0
  0
TEXT
  5
23D72
330
747D
100
AcDbEntity
  8
部品1
 48
50.0
100
AcDbText
 10
6960.791000157917
 20
1961.107294764227
 30
0.0
 40
100.0
  1
▽G.L
  7
STYLE2
100
AcDbText
  0
LINE
  5
23D73
330
747D
100
AcDbEntity
  8
細線
 48
50.0
100
AcDbLine
 10
7478.46587744911
 20
1895.024670244946
 30
0.0
 11
7676.465877449107
 21
2093.024670244937
 31
0.0
  0
LINE
  5
23D74
330
747D
100
AcDbEntity
  8
部品1
 48
50.0
100
AcDbLine
 10
7478.46587744911
 20
1567.058554410158
 30
0.0
 11
7478.46587744911
 21
2247.058554410158
 31
0.0
  0
LINE
  5
23D75
330
747D
100
AcDbEntity
  8
部品1
100
AcDbLine
 10
7833.965877449113
 20
1842.058554410158
 30
0.0
 11
7833.965877449113
 21
2247.058554410158
 31
0.0
  0
LINE
  5
23D76
330
747D
100
AcDbEntity
  8
部品1
100
AcDbLine
 10
7676.465877449105
 20
1842.058554410158
 30
0.0
 11
7676.465877449112
 21
2247.058554410158
 31
0.0
  0
LINE
  5
23D77
330
747D
100
AcDbEntity
  8
細線
 48
50.0
100
AcDbLine
 10
7833.965877449114
 20
1981.116986612856
 30
0.0
 11
7995.965877449115
 21
2143.116986612845
 31
0.0
  0
LINE
  5
23D78
330
747D
100
AcDbEntity
  8
細線
 48
50.0
100
AcDbLine
 10
7833.965877449114
 20
2014.792947066871
 30
0.0
 11
7995.965877449115
 21
2176.792947066868
 31
0.0
  0
LINE
  5
23D79
330
747D
100
AcDbEntity
  8
細線
 48
50.0
100
AcDbLine
 10
7833.965877449114
 20
2048.468907520893
 30
0.0
 11
7995.965877449115
 21
2210.468907520892
 31
0.0
  0
LWPOLYLINE
  5
23D7A
330
747D
100
AcDbEntity
  8
部品1
 48
50.0
100
AcDbPolyline
 90
        2
 70
     0
 43
10.0
 10
6960.791000157917
 20
1947.058554410159
 10
7478.46587744911
 20
1947.058554410159
  0
LINE
  5
23D7B
330
747D
100
AcDbEntity
  8
細線
 48
50.0
100
AcDbLine
 10
7318.465877449106
 20
1465.616986612872
 30
0.0
 11
7419.907445246399
 21
1567.058554410158
 31
0.0
  0
LINE
  5
23D7C
330
747D
100
AcDbEntity
  8
部品1
 48
50.0
100
AcDbLine
 10
7318.465877449113
 20
1267.058554410158
 30
0.0
 11
7318.465877449113
 21
1567.058554410158
 31
0.0
  0
LINE
  5
23D7D
330
747D
100
AcDbEntity
  8
細線
 48
50.0
100
AcDbLine
 10
7321.963207970455
 20
1267.058554410158
 30
0.0
 11
7995.96587744911
 21
1941.061223888815
 31
0.0
  0
LINE
  5
23D7E
330
747D
100
AcDbEntity
  8
細線
 48
50.0
100
AcDbLine
 10
7389.315128878472
 20
1267.058554410158
 30
0.0
 11
7995.965877449115
 21
1873.709302980793
 31
0.0
  0
LINE
  5
23D7F
330
747D
100
AcDbEntity
  8
細線
 48
50.0
100
AcDbLine
 10
7355.639168424469
 20
1267.058554410158
 30
0.0
 11
7995.965877449115
 21
1907.3852634348
 31
0.0
  0
LINE
  5
23D80
330
747D
100
AcDbEntity
  8
細線
 48
50.0
100
AcDbLine
 10
7625.046852056541
 20
1267.058554410158
 30
0.0
 11
7995.965877449115
 21
1637.977579802724
 31
0.0
  0
LINE
  5
23D81
330
747D
100
AcDbEntity
  8
細線
 48
50.0
100
AcDbLine
 10
7658.722812510548
 20
1267.058554410158
 30
0.0
 11
7995.965877449115
 21
1604.30161934873
 31
0.0
  0
LINE
  5
23D82
330
747D
100
AcDbEntity
  8
細線
 48
50.0
100
AcDbLine
 10
7591.370891602531
 20
1267.058554410158
 30
0.0
 11
7995.96587744911
 21
1671.65354025674
 31
0.0
  0
LINE
  5
23D83
330
747D
100
AcDbEntity
  8
細線
 48
50.0
100
AcDbLine
 10
7574.944426819131
 20
1107.058554410158
 30
0.0
 11
7617.81629760811
 21
1267.058554410158
 31
0.0
  0
LINE
  5
23D84
330
747D
100
AcDbEntity
  8
細線
 48
50.0
100
AcDbLine
 10
7377.724314451008
 20
1107.058554410158
 30
0.0
 11
7420.596185239986
 21
1267.058554410158
 31
0.0
  0
LINE
  5
23D85
330
747D
100
AcDbEntity
  8
部品1
 48
50.0
100
AcDbLine
 10
7218.465877449116
 20
1107.058554410158
 30
0.0
 11
7218.465877449116
 21
1267.058554410158
 31
0.0
  0
LINE
  5
23D86
330
747D
100
AcDbEntity
  8
細線
 48
50.0
100
AcDbLine
 10
7279.114258266936
 20
1107.058554410156
 30
0.0
 11
7321.986129055916
 21
1267.058554410156
 31
0.0
  0
LINE
  5
23D87
330
747D
100
AcDbEntity
  8
細線
 48
50.0
100
AcDbLine
 10
7476.334370635064
 20
1107.058554410156
 30
0.0
 11
7519.206241424045
 21
1267.058554410156
 31
0.0
  0
LINE
  5
23D88
330
747D
100
AcDbEntity
  8
細線
 48
50.0
100
AcDbLine
 10
7385.762790223941
 20
1137.058554410158
 30
0.0
 11
7393.801265996875
 21
1107.058554410158
 31
0.0
  0
LINE
  5
23D89
330
747D
100
AcDbEntity
  8
細線
 48
50.0
100
AcDbLine
 10
7287.152734039877
 20
1137.058554410158
 30
0.0
 11
7295.19120981281
 21
1107.058554410158
 31
0.0
  0
LINE
  5
23D8A
330
747D
100
AcDbEntity
  8
細線
 48
50.0
100
AcDbLine
 10
7582.982902592071
 20
1137.058554410158
 30
0.0
 11
7591.021378365003
 21
1107.058554410158
 31
0.0
  0
LINE
  5
23D8B
330
747D
100
AcDbEntity
  8
細線
 48
50.0
100
AcDbLine
 10
7484.372846408009
 20
1137.058554410158
 30
0.0
 11
7492.411322180941
 21
1107.058554410158
 31
0.0
  0
LINE
  5
23D8C
330
747D
100
AcDbEntity
  8
細線
 48
50.0
100
AcDbLine
 10
7412.557709467053
 20
1237.058554410158
 30
0.0
 11
7404.51923369412
 21
1267.058554410158
 31
0.0
  0
LINE
  5
23D8D
330
747D
100
AcDbEntity
  8
細線
 48
50.0
100
AcDbLine
 10
7218.465877449112
 20
1248.733455617383
 30
0.0
 11
7223.376072871857
 21
1267.058554410158
 31
0.0
  0
LINE
  5
23D8E
330
747D
100
AcDbEntity
  8
細線
 48
50.0
100
AcDbLine
 10
7313.947653282987
 20
1237.058554410158
 30
0.0
 11
7305.909177510056
 21
1267.058554410158
 31
0.0
  0
LINE
  5
23D8F
330
747D
100
AcDbEntity
  8
細線
 48
50.0
100
AcDbLine
 10
7609.777821835184
 20
1237.058554410158
 30
0.0
 11
7601.73934606225
 21
1267.058554410158
 31
0.0
  0
LINE
  5
23D90
330
747D
100
AcDbEntity
  8
細線
 48
50.0
100
AcDbLine
 10
7511.167765651116
 20
1237.058554410158
 30
0.0
 11
7503.129289878185
 21
1267.058554410158
 31
0.0
  0
LINE
  5
23D91
330
747D
100
AcDbEntity
  8
細線
 48
50.0
100
AcDbLine
 10
7969.384651555365
 20
1107.058554410156
 30
0.0
 11
8012.25652234433
 21
1267.058554410158
 31
0.0
  0
LINE
  5
23D92
330
747D
100
AcDbEntity
  8
細線
 48
50.0
100
AcDbLine
 10
7772.16453918725
 20
1107.058554410156
 30
0.0
 11
7815.036409976229
 21
1267.058554410156
 31
0.0
  0
LINE
  5
23D93
330
747D
100
AcDbEntity
  8
細線
 48
50.0
100
AcDbLine
 10
7870.774595371301
 20
1107.058554410158
 30
0.0
 11
7913.646466160286
 21
1267.058554410156
 31
0.0
  0
LINE
  5
23D94
330
747D
100
AcDbEntity
  8
細線
 48
50.0
100
AcDbLine
 10
7673.554483003186
 20
1107.058554410158
 30
0.0
 11
7716.426353792171
 21
1267.058554410156
 31
0.0
  0
LINE
  5
23D95
330
747D
100
AcDbEntity
  8
細線
 48
50.0
100
AcDbLine
 10
7780.203014960187
 20
1137.058554410158
 30
0.0
 11
7788.241490733118
 21
1107.058554410158
 31
0.0
  0
LINE
  5
23D96
330
747D
100
AcDbEntity
  8
細線
 48
50.0
100
AcDbLine
 10
7681.592958776128
 20
1137.058554410158
 30
0.0
 11
7689.631434549062
 21
1107.058554410158
 31
0.0
  0
LINE
  5
23D97
330
747D
100
AcDbEntity
  8
細線
 48
50.0
100
AcDbLine
 10
7977.4231273283
 20
1137.058554410158
 30
0.0
 11
7985.461603101248
 21
1107.058554410158
 31
0.0
  0
LINE
  5
23D98
330
747D
100
AcDbEntity
  8
細線
 48
50.0
100
AcDbLine
 10
7878.813071144245
 20
1137.058554410158
 30
0.0
 11
7886.851546917178
 21
1107.058554410158
 31
0.0
  0
LINE
  5
23D99
330
747D
100
AcDbEntity
  8
細線
 48
50.0
100
AcDbLine
 10
7806.997934203298
 20
1237.058554410158
 30
0.0
 11
7798.959458430364
 21
1267.058554410158
 31
0.0
  0
LINE
  5
23D9A
330
747D
100
AcDbEntity
  8
細線
 48
50.0
100
AcDbLine
 10
7708.387878019241
 20
1237.058554410158
 30
0.0
 11
7700.349402246307
 21
1267.058554410158
 31
0.0
  0
LINE
  5
23D9B
330
747D
100
AcDbEntity
  8
細線
 48
50.0
100
AcDbLine
 10
8004.2180465714
 20
1237.058554410158
 30
0.0
 11
7996.179570798469
 21
1267.058554410158
 31
0.0
  0
LINE
  5
23D9C
330
747D
100
AcDbEntity
  8
細線
 48
50.0
100
AcDbLine
 10
7905.607990387354
 20
1237.058554410158
 30
0.0
 11
7897.569514614423
 21
1267.058554410158
 31
0.0
  0
LINE
  5
23D9D
330
747D
100
AcDbEntity
  8
細線
 48
50.0
100
AcDbLine
 10
7478.46587744911
 20
1625.616986612871
 30
0.0
 11
7694.907445246409
 21
1842.058554410156
 31
0.0
  0
LINE
  5
23D9E
330
747D
100
AcDbEntity
  8
細線
 48
50.0
100
AcDbLine
 10
7478.46587744911
 20
1659.29294706688
 30
0.0
 11
7676.465877449103
 21
1857.292947066866
 31
0.0
  0
LINE
  5
23D9F
330
747D
100
AcDbEntity
  8
細線
 48
50.0
100
AcDbLine
 10
7478.46587744911
 20
1692.96890752089
 30
0.0
 11
7676.465877449103
 21
1890.968907520883
 31
0.0
  0
LINE
  5
23DA0
330
747D
100
AcDbEntity
  8
部品1
 48
50.0
100
AcDbLine
 10
7318.465877449113
 20
1567.058554410158
 30
0.0
 11
7478.46587744911
 21
1567.058554410158
 31
0.0
  0
LINE
  5
23DA1
330
747D
100
AcDbEntity
  8
細線
 48
50.0
100
AcDbLine
 10
7318.465877449106
 20
1499.292947066877
 30
0.0
 11
7386.231484792395
 21
1567.058554410158
 31
0.0
  0
LINE
  5
23DA2
330
747D
100
AcDbEntity
  8
細線
 48
50.0
100
AcDbLine
 10
7318.465877449106
 20
1532.96890752089
 30
0.0
 11
7352.555524338381
 21
1567.058554410158
 31
0.0
  0
LINE
  5
23DA3
330
747D
100
AcDbEntity
  8
部品1
100
AcDbLine
 10
7833.965877449113
 20
1842.058554410156
 30
0.0
 11
7676.465877449105
 21
1842.058554410156
 31
0.0
  0
LINE
  5
23DA4
330
747D
100
AcDbEntity
  8
部品1
100
AcDbLine
 10
7811.465877449113
 20
1943.308554410157
 30
0.0
 11
7811.465877449113
 21
1965.808554410157
 31
0.0
  0
ARC
  5
23DA5
330
747D
100
AcDbEntity
  8
部品1
100
AcDbCircle
 10
7766.465877449113
 20
1965.808554410157
 30
0.0
 40
22.5
100
AcDbArc
 50
180.0
 51
270.0
  0
LINE
  5
23DA6
330
747D
100
AcDbEntity
  8
部品1
100
AcDbLine
 10
7766.465877449113
 20
1943.308554410157
 30
0.0
 11
7811.465877449113
 21
1943.308554410157
 31
0.0
  0
LINE
  5
23DA7
330
747D
100
AcDbEntity
  8
部品1
100
AcDbLine
 10
7766.465877449113
 20
1965.808554410157
 30
0.0
 11
7811.465877449113
 21
1965.808554410157
 31
0.0
  0
TEXT
  5
23DA8
330
747D
100
AcDbEntity
  8
部品1
 48
50.0
100
AcDbText
 10
6945.408256724748
 20
2660.259205785753
 30
0.0
 40
100.0
  1
※(別売)
  7
STYLE2
100
AcDbText
  0
ARC
  5
23DA9
330
747D
100
AcDbEntity
  8
部品1
100
AcDbCircle
 10
7610.090877449114
 20
2383.183554410155
 30
0.0
 40
3.375
100
AcDbArc
 50
0.0
 51
90.0
  0
LINE
  5
23DAA
330
747D
100
AcDbEntity
  8
部品1
 48
50.0
100
AcDbLine
 10
7478.46587744911
 20
2247.058554410158
 30
0.0
 11
7995.965877449115
 21
2247.058554410158
 31
0.0
  0
LINE
  5
23DAB
330
747D
100
AcDbEntity
  8
部品1
100
AcDbLine
 10
7550.46587744911
 20
2359.558554410158
 30
0.0
 11
7550.46587744911
 21
2369.683554410158
 31
0.0
  0
LINE
  5
23DAC
330
747D
100
AcDbEntity
  8
部品1
100
AcDbLine
 10
7499.840877449113
 20
2346.058554410157
 30
0.0
 11
7499.840877449113
 21
2356.183554410158
 31
0.0
  0
ARC
  5
23DAD
330
747D
100
AcDbEntity
  8
部品1
100
AcDbCircle
 10
7503.215877449112
 20
2356.183554410158
 30
0.0
 40
3.375
100
AcDbArc
 50
90.0
 51
180.0
  0
ARC
  5
23DAE
330
747D
100
AcDbEntity
  8
部品1
100
AcDbCircle
 10
7489.715877449114
 20
2262.383554410158
 30
0.0
 40
3.375
100
AcDbArc
 50
180.0
 51
270.0
  0
ARC
  5
23DAF
330
747D
100
AcDbEntity
  8
部品1
100
AcDbCircle
 10
7489.715877449114
 20
2340.048434038543
 30
0.0
 40
3.375
100
AcDbArc
 50
104.0362434679059
 51
180.0
  0
LINE
  5
23DB0
330
747D
100
AcDbEntity
  8
部品1
100
AcDbLine
 10
7486.340877449113
 20
2262.383554410158
 30
0.0
 11
7486.340877449113
 21
2340.048434038543
 31
0.0
  0
LINE
  5
23DB1
330
747D
100
AcDbEntity
  8
細線
 48
50.0
100
AcDbLine
 10
7478.46587744911
 20
2231.784274785039
 30
0.0
 11
7493.740157074231
 21
2247.058554410158
 31
0.0
  0
LINE
  5
23DB2
330
747D
100
AcDbEntity
  8
部品1
100
AcDbLine
 10
7488.897319714613
 20
2343.322664976533
 30
0.0
 11
7499.840877449113
 21
2346.058554410157
 31
0.0
  0
LINE
  5
23DB3
330
747D
100
AcDbEntity
  8
部品1
100
AcDbLine
 10
7489.715877449114
 20
2259.008554410158
 30
0.0
 11
7504.340877449106
 21
2259.008554410158
 31
0.0
  0
LINE
  5
23DB4
330
747D
100
AcDbEntity
  8
細線
 48
50.0
100
AcDbLine
 10
7478.46587744911
 20
2198.10831433103
 30
0.0
 11
7527.416117528246
 21
2247.058554410158
 31
0.0
  0
LINE
  5
23DB5
330
747D
100
AcDbEntity
  8
細線
 48
50.0
100
AcDbLine
 10
7478.46587744911
 20
2164.432353877021
 30
0.0
 11
7561.092077982251
 21
2247.058554410158
 31
0.0
  0
LINE
  5
23DB6
330
747D
100
AcDbEntity
  8
部品1
100
AcDbLine
 10
7503.215877449112
 20
2359.558554410158
 30
0.0
 11
7550.46587744911
 21
2359.558554410158
 31
0.0
  0
ARC
  5
23DB7
330
747D
100
AcDbEntity
  8
部品1
100
AcDbCircle
 10
7557.215877449114
 20
2383.183554410158
 30
0.0
 40
3.375
100
AcDbArc
 50
90.0
 51
180.0
  0
LINE
  5
23DB8
330
747D
100
AcDbEntity
  8
部品1
100
AcDbLine
 10
7553.840877449113
 20
2373.058554410158
 30
0.0
 11
7553.840877449113
 21
2373.058554410158
 31
0.0
  0
LINE
  5
23DB9
330
747D
100
AcDbEntity
  8
部品1
100
AcDbLine
 10
7553.840877449113
 20
2373.058554410158
 30
0.0
 11
7553.840877449113
 21
2383.183554410158
 31
0.0
  0
LINE
  5
23DBA
330
747D
100
AcDbEntity
  8
部品1
100
AcDbLine
 10
7557.215877449114
 20
2386.558554410158
 30
0.0
 11
7610.090877449114
 21
2386.558554410155
 31
0.0
  0
ARC
  5
23DBB
330
747D
100
AcDbEntity
  8
部品1
100
AcDbCircle
 10
7553.840877449113
 20
2369.683554410158
 30
0.0
 40
3.375
100
AcDbArc
 50
90.0
 51
180.0
  0
LINE
  5
23DBC
330
747D
100
AcDbEntity
  8
部品1
100
AcDbLine
 10
7613.465877449114
 20
2383.183554410155
 30
0.0
 11
7613.465877449114
 21
2319.058554410158
 31
0.0
  0
LINE
  5
23DBD
330
747D
100
AcDbEntity
  8
部品1
100
AcDbLine
 10
7684.665877449107
 20
2259.008554410158
 30
0.0
 11
7936.340877449104
 21
2259.008554410158
 31
0.0
  0
LINE
  5
23DBE
330
747D
100
AcDbEntity
  8
細線
100
AcDbLine
 10
7761.965877449113
 20
2259.008554410158
 30
0.0
 11
7761.965877449113
 21
2313.008554410158
 31
0.0
  0
LINE
  5
23DBF
330
747D
100
AcDbEntity
  8
細線
100
AcDbLine
 10
7748.465877449117
 20
2259.008554410158
 30
0.0
 11
7748.465877449112
 21
2313.008554410158
 31
0.0
  0
LINE
  5
23DC0
330
747D
100
AcDbEntity
  8
部品1
100
AcDbLine
 10
7743.965877449112
 20
2308.508554410158
 30
0.0
 11
7766.465877449113
 21
2308.508554410158
 31
0.0
  0
LINE
  5
23DC1
330
747D
100
AcDbEntity
  8
部品1
100
AcDbLine
 10
7748.465877449112
 20
2313.008554410158
 30
0.0
 11
7761.965877449113
 21
2313.008554410158
 31
0.0
  0
LINE
  5
23DC2
330
747D
100
AcDbEntity
  8
部品1
100
AcDbLine
 10
7642.71587744911
 20
2334.008554410158
 30
0.0
 11
7677.915877449115
 21
2334.008554410158
 31
0.0
  0
LINE
  5
23DC3
330
747D
100
AcDbEntity
  8
部品1
100
AcDbLine
 10
7648.340877449112
 20
2259.008554410158
 30
0.0
 11
7662.96587744911
 21
2259.008554410158
 31
0.0
  0
LINE
  5
23DC4
330
747D
100
AcDbEntity
  8
部品1
100
AcDbLine
 10
7613.465877449114
 20
2319.058554410158
 30
0.0
 11
7662.96587744911
 21
2319.058554410158
 31
0.0
  0
ARC
  5
23DC5
330
747D
100
AcDbEntity
  8
部品1
100
AcDbCircle
 10
7642.71587744911
 20
2330.633554410157
 30
0.0
 40
3.375
100
AcDbArc
 50
90.0
 51
180.0
  0
LINE
  5
23DC6
330
747D
100
AcDbEntity
  8
部品1
100
AcDbLine
 10
7639.340877449114
 20
2330.633554410157
 30
0.0
 11
7639.340877449114
 21
2309.258554410158
 31
0.0
  0
ARC
  5
23DC7
330
747D
100
AcDbEntity
  8
部品1
100
AcDbCircle
 10
7684.665877449107
 20
2262.383554410158
 30
0.0
 40
3.375
100
AcDbArc
 50
180.0
 51
270.0
  0
ARC
  5
23DC8
330
747D
100
AcDbEntity
  8
部品1
100
AcDbCircle
 10
7677.915877449115
 20
2330.633554410157
 30
0.0
 40
3.375
100
AcDbArc
 50
0.0
 51
90.0
  0
LINE
  5
23DC9
330
747D
100
AcDbEntity
  8
部品1
100
AcDbLine
 10
7681.290877449114
 20
2330.633554410157
 30
0.0
 11
7681.290877449107
 21
2262.383554410158
 31
0.0
  0
ARC
  5
23DCA
330
747D
100
AcDbEntity
  8
部品1
100
AcDbCircle
 10
7662.96587744911
 20
2262.383554410158
 30
0.0
 40
3.375
100
AcDbArc
 50
270.0
 51
0.0
  0
ARC
  5
23DCB
330
747D
100
AcDbEntity
  8
部品1
100
AcDbCircle
 10
7662.96587744911
 20
2315.683554410158
 30
0.0
 40
3.375
100
AcDbArc
 50
0.0
 51
90.0
  0
LINE
  5
23DCC
330
747D
100
AcDbEntity
  8
部品1
100
AcDbLine
 10
7666.340877449115
 20
2315.683554410158
 30
0.0
 11
7666.340877449115
 21
2262.383554410158
 31
0.0
  0
ELLIPSE
  5
23DCD
330
747D
100
AcDbEntity
  8
部品1
 48
50.0
100
AcDbEllipse
 10
7755.21587744911
 20
2583.462664965499
 30
0.0
 11
23.0
 21
0.0
 31
0.0
210
0.0
220
0.0
230
1.0
 40
0.3478260869565217
 41
0.0
 42
6.283185307179585
  0
LINE
  5
23DCE
330
747D
100
AcDbEntity
  8
部品1
 48
50.0
100
AcDbLine
 10
7805.215877449113
 20
2571.462664965499
 30
0.0
 11
7805.215877449113
 21
2583.462664965499
 31
0.0
  0
LINE
  5
23DCF
330
747D
100
AcDbEntity
  8
部品1
 48
50.0
100
AcDbLine
 10
7705.21587744911
 20
2583.462664965499
 30
0.0
 11
7705.21587744911
 21
2571.462664965499
 31
0.0
  0
ELLIPSE
  5
23DD0
330
747D
100
AcDbEntity
  8
部品1
 48
50.0
100
AcDbEllipse
 10
7755.21587744911
 20
2571.462664965499
 30
0.0
 11
50.0
 21
0.0
 31
0.0
210
0.0
220
0.0
230
1.0
 40
0.4
 41
3.141592653589792
 42
6.283185307179585
  0
ELLIPSE
  5
23DD1
330
747D
100
AcDbEntity
  8
部品1
 48
50.0
100
AcDbEllipse
 10
7755.21587744911
 20
2583.462664965499
 30
0.0
 11
50.0
 21
0.0
 31
0.0
210
0.0
220
0.0
230
1.0
 40
0.4
 41
0.0
 42
6.283185307179585
  0
LINE
  5
23DD2
330
747D
100
AcDbEntity
  8
部品1
 48
50.0
100
AcDbLine
 10
7735.215877449113
 20
2745.652655796587
 30
0.0
 11
7775.215877449112
 21
2745.652655796587
 31
0.0
  0
ELLIPSE
  5
23DD3
330
747D
100
AcDbEntity
  8
細線
 48
50.0
100
AcDbEllipse
 10
7755.21587744911
 20
2735.652655796586
 30
0.0
 11
18.45838483258558
 21
0.0
 31
0.0
210
0.0
220
0.0
230
1.0
 40
0.2071254069489396
 41
0.0
 42
6.283185307179585
  0
LINE
  5
23DD4
330
747D
100
AcDbEntity
  8
部品1
 48
50.0
100
AcDbLine
 10
7735.215877449113
 20
2685.652655796586
 30
0.0
 11
7775.215877449112
 21
2685.652655796586
 31
0.0
  0
LINE
  5
23DD5
330
747D
100
AcDbEntity
  8
部品1
 48
50.0
100
AcDbLine
 10
7735.215877449113
 20
2725.652655796586
 30
0.0
 11
7775.215877449112
 21
2725.652655796586
 31
0.0
  0
LINE
  5
23DD6
330
747D
100
AcDbEntity
  8
細線
 48
50.0
100
AcDbLine
 10
7735.215877449113
 20
2685.652655796586
 30
0.0
 11
7735.215877449113
 21
2725.652655796586
 31
0.0
  0
LINE
  5
23DD7
330
747D
100
AcDbEntity
  8
部品1
 48
50.0
100
AcDbLine
 10
7775.215877449112
 20
2685.652655796586
 30
0.0
 11
7795.215877449113
 21
2695.652655796586
 31
0.0
  0
LINE
  5
23DD8
330
747D
100
AcDbEntity
  8
部品1
 48
50.0
100
AcDbLine
 10
7775.215877449112
 20
2725.652655796586
 30
0.0
 11
7795.215877449113
 21
2735.652655796587
 31
0.0
  0
LINE
  5
23DD9
330
747D
100
AcDbEntity
  8
細線
 48
50.0
100
AcDbLine
 10
7775.215877449112
 20
2685.652655796586
 30
0.0
 11
7775.215877449112
 21
2725.652655796586
 31
0.0
  0
LINE
  5
23DDA
330
747D
100
AcDbEntity
  8
部品1
 48
50.0
100
AcDbLine
 10
7795.215877449113
 20
2695.652655796586
 30
0.0
 11
7795.215877449113
 21
2735.652655796587
 31
0.0
  0
LINE
  5
23DDB
330
747D
100
AcDbEntity
  8
部品1
 48
50.0
100
AcDbLine
 10
7775.215877449112
 20
2745.652655796587
 30
0.0
 11
7795.215877449113
 21
2735.652655796587
 31
0.0
  0
LINE
  5
23DDC
330
747D
100
AcDbEntity
  8
部品1
 48
50.0
100
AcDbLine
 10
7715.215877449113
 20
2695.652655796586
 30
0.0
 11
7715.215877449113
 21
2735.652655796587
 31
0.0
  0
LINE
  5
23DDD
330
747D
100
AcDbEntity
  8
部品1
 48
50.0
100
AcDbLine
 10
7715.215877449113
 20
2735.652655796587
 30
0.0
 11
7735.215877449113
 21
2725.652655796586
 31
0.0
  0
LINE
  5
23DDE
330
747D
100
AcDbEntity
  8
部品1
 48
50.0
100
AcDbLine
 10
7715.215877449113
 20
2695.652655796586
 30
0.0
 11
7735.215877449113
 21
2685.652655796586
 31
0.0
  0
LINE
  5
23DDF
330
747D
100
AcDbEntity
  8
部品1
 48
50.0
100
AcDbLine
 10
7715.215877449113
 20
2735.652655796587
 30
0.0
 11
7735.215877449113
 21
2745.652655796587
 31
0.0
  0
LINE
  5
23DE0
330
747D
100
AcDbEntity
  8
部品1
100
AcDbLine
 10
11131.09074052387
 20
639.2035763831249
 30
0.0
 11
11131.09074052387
 21
3898.273079131214
 31
0.0
  0
LINE
  5
23DE1
330
747D
100
AcDbEntity
  8
部品1
100
AcDbLine
 10
9640.579812704732
 20
1672.434909843466
 30
0.0
 11
10540.57981270472
 21
1672.43490984347
 31
0.0
  0
LINE
  5
23DE2
330
747D
100
AcDbEntity
  8
部品1
100
AcDbLine
 10
9640.579812704732
 20
1832.434909843469
 30
0.0
 11
10540.57981270472
 21
1832.434909843474
 31
0.0
  0
LWPOLYLINE
  5
23DE3
330
747D
100
AcDbEntity
  8
部品1
 48
50.0
100
AcDbPolyline
 90
        2
 70
     0
 43
15.0
 10
9309.815735079245
 20
1947.058554410158
 10
10811.18111399378
 20
1947.058554410158
  0
TEXT
  5
23DE4
330
747D
100
AcDbEntity
  8
部品1
 48
50.0
100
AcDbText
 10
9165.238184379431
 20
1613.558878613521
 30
0.0
 40
100.0
  1
ボルトの出
 50
90.0
  7
STYLE2
100
AcDbText
  0
LINE
  5
23DE5
330
747D
100
AcDbEntity
  8
部品1
 48
50.0
100
AcDbLine
 10
8155.965877449112
 20
1567.058554410158
 30
0.0
 11
8155.965877449112
 21
1267.058554410158
 31
0.0
  0
LINE
  5
23DE6
330
747D
100
AcDbEntity
  8
部品1
 48
50.0
100
AcDbLine
 10
8255.965877449114
 20
1267.058554410158
 30
0.0
 11
8255.965877449114
 21
1107.058554410158
 31
0.0
  0
LINE
  5
23DE7
330
747D
100
AcDbEntity
  8
細線
 48
50.0
100
AcDbLine
 10
8166.604763923478
 20
1107.058554410156
 30
0.0
 11
8209.476634712462
 21
1267.058554410154
 31
0.0
  0
LINE
  5
23DE8
330
747D
100
AcDbEntity
  8
細線
 48
50.0
100
AcDbLine
 10
8067.994707739426
 20
1107.058554410154
 30
0.0
 11
8110.866578528405
 21
1267.058554410154
 31
0.0
  0
LINE
  5
23DE9
330
747D
100
AcDbEntity
  8
細線
 48
50.0
100
AcDbLine
 10
8174.64323969642
 20
1137.058554410156
 30
0.0
 11
8182.681715469355
 21
1107.058554410156
 31
0.0
  0
LINE
  5
23DEA
330
747D
100
AcDbEntity
  8
細線
 48
50.0
100
AcDbLine
 10
8076.033183512365
 20
1137.058554410156
 30
0.0
 11
8084.071659285298
 21
1107.058554410156
 31
0.0
  0
LINE
  5
23DEB
330
747D
100
AcDbEntity
  8
細線
 48
50.0
100
AcDbLine
 10
8201.438158939533
 20
1237.058554410156
 30
0.0
 11
8193.3996831666
 21
1267.058554410156
 31
0.0
  0
LINE
  5
23DEC
330
747D
100
AcDbEntity
  8
細線
 48
50.0
100
AcDbLine
 10
8102.828102755472
 20
1237.058554410156
 30
0.0
 11
8094.789626982539
 21
1267.058554410156
 31
0.0
  0
LINE
  5
23DED
330
747D
100
AcDbEntity
  8
部品1
100
AcDbLine
 10
9640.579812704732
 20
1672.434909843466
 30
0.0
 11
9640.579812704732
 21
1947.058554410158
 31
0.0
  0
LINE
  5
23DEE
330
747D
100
AcDbEntity
  8
部品1
100
AcDbLine
 10
10390.57981270472
 20
2247.058554410157
 30
0.0
 11
10390.57981270472
 21
1947.058554410158
 31
0.0
  0
LINE
  5
23DEF
330
747D
100
AcDbEntity
  8
細線
100
AcDbLine
 10
10309.64312446346
 20
1947.058554410158
 30
0.0
 11
10009.64312446347
 21
2247.058554410157
 31
0.0
  0
LINE
  5
23DF0
330
747D
100
AcDbEntity
  8
細線
100
AcDbLine
 10
10373.28273477025
 20
1947.058554410159
 30
0.0
 11
10073.28273477026
 21
2247.058554410157
 31
0.0
  0
LINE
  5
23DF1
330
747D
100
AcDbEntity
  8
細線
100
AcDbLine
 10
9970.23186949392
 20
1947.058554410158
 30
0.0
 11
9790.579812704734
 21
2126.710611199349
 31
0.0
  0
LINE
  5
23DF2
330
747D
100
AcDbEntity
  8
部品1
100
AcDbLine
 10
9790.579812704734
 20
1947.058554410158
 30
0.0
 11
9790.579812704734
 21
2247.058554410157
 31
0.0
  0
LINE
  5
23DF3
330
747D
100
AcDbEntity
  8
細線
100
AcDbLine
 10
10033.87147980071
 20
1947.058554410158
 30
0.0
 11
9790.579812704732
 21
2190.350221506137
 31
0.0
  0
LINE
  5
23DF4
330
747D
100
AcDbEntity
  8
細線
 48
50.0
100
AcDbLine
 10
10486.05209419515
 20
1802.434909843467
 30
0.0
 11
10478.01361842221
 21
1832.434909843468
 31
0.0
  0
LINE
  5
23DF5
330
747D
100
AcDbEntity
  8
細線
 48
50.0
100
AcDbLine
 10
10451.21869917909
 20
1672.434909843468
 30
0.0
 11
10494.09056996808
 21
1832.434909843466
 31
0.0
  0
LINE
  5
23DF6
330
747D
100
AcDbEntity
  8
細線
 48
50.0
100
AcDbLine
 10
10064.8169502158
 20
1702.434909843469
 30
0.0
 11
10072.85542598873
 21
1672.43490984347
 31
0.0
  0
LINE
  5
23DF7
330
747D
100
AcDbEntity
  8
細線
 48
50.0
100
AcDbLine
 10
10056.77847444286
 20
1672.434909843468
 30
0.0
 11
10099.65034523184
 21
1832.434909843468
 31
0.0
  0
LINE
  5
23DF8
330
747D
100
AcDbEntity
  8
細線
 48
50.0
100
AcDbLine
 10
9859.558362074746
 20
1672.43490984347
 30
0.0
 11
9902.430232863725
 21
1832.434909843469
 31
0.0
  0
LINE
  5
23DF9
330
747D
100
AcDbEntity
  8
細線
 48
50.0
100
AcDbLine
 10
9662.338249706623
 20
1672.43490984347
 30
0.0
 11
9705.210120495602
 21
1832.434909843469
 31
0.0
  0
LINE
  5
23DFA
330
747D
100
AcDbEntity
  8
細線
 48
50.0
100
AcDbLine
 10
9760.94830589068
 20
1672.434909843468
 30
0.0
 11
9803.820176679659
 21
1832.434909843468
 31
0.0
  0
LINE
  5
23DFB
330
747D
100
AcDbEntity
  8
細線
 48
50.0
100
AcDbLine
 10
9958.1684182588
 20
1672.43490984347
 30
0.0
 11
10001.04028904779
 21
1832.434909843468
 31
0.0
  0
LINE
  5
23DFC
330
747D
100
AcDbEntity
  8
細線
 48
50.0
100
AcDbLine
 10
9768.986781663622
 20
1702.434909843469
 30
0.0
 11
9777.025257436557
 21
1672.43490984347
 31
0.0
  0
LINE
  5
23DFD
330
747D
100
AcDbEntity
  8
細線
 48
50.0
100
AcDbLine
 10
9670.376725479556
 20
1702.434909843469
 30
0.0
 11
9678.415201252491
 21
1672.43490984347
 31
0.0
  0
LINE
  5
23DFE
330
747D
100
AcDbEntity
  8
細線
 48
50.0
100
AcDbLine
 10
9867.596837847687
 20
1702.434909843469
 30
0.0
 11
9875.63531362062
 21
1672.43490984347
 31
0.0
  0
LINE
  5
23DFF
330
747D
100
AcDbEntity
  8
細線
 48
50.0
100
AcDbLine
 10
9966.206894031737
 20
1702.434909843469
 30
0.0
 11
9974.245369804677
 21
1672.43490984347
 31
0.0
  0
LINE
  5
23E00
330
747D
100
AcDbEntity
  8
細線
100
AcDbLine
 10
9781.875305828894
 20
1832.434909843469
 30
0.0
 11
9896.498950395576
 21
1947.058554410157
 31
0.0
  0
LINE
  5
23E01
330
747D
100
AcDbEntity
  8
細線
100
AcDbLine
 10
9824.301712700091
 20
1832.43490984347
 30
0.0
 11
9938.925357266773
 21
1947.058554410158
 31
0.0
  0
LINE
  5
23E02
330
747D
100
AcDbEntity
  8
細線
 48
50.0
100
AcDbLine
 10
9795.781700906733
 20
1802.434909843469
 30
0.0
 11
9787.7432251338
 21
1832.434909843469
 31
0.0
  0
LINE
  5
23E03
330
747D
100
AcDbEntity
  8
細線
 48
50.0
100
AcDbLine
 10
9697.171644722669
 20
1802.434909843469
 30
0.0
 11
9689.133168949737
 21
1832.434909843469
 31
0.0
  0
LINE
  5
23E04
330
747D
100
AcDbEntity
  8
細線
 48
50.0
100
AcDbLine
 10
9993.001813274849
 20
1802.434909843469
 30
0.0
 11
9984.963337501918
 21
1832.434909843469
 31
0.0
  0
LINE
  5
23E05
330
747D
100
AcDbEntity
  8
細線
 48
50.0
100
AcDbLine
 10
9894.391757090799
 20
1802.434909843469
 30
0.0
 11
9886.353281317866
 21
1832.434909843469
 31
0.0
  0
LINE
  5
23E06
330
747D
100
AcDbEntity
  8
細線
100
AcDbLine
 10
9866.728119571284
 20
1832.43490984347
 30
0.0
 11
9981.351764137968
 21
1947.058554410158
 31
0.0
  0
LINE
  5
23E07
330
747D
100
AcDbEntity
  8
細線
 48
50.0
100
AcDbLine
 10
10253.99858681098
 20
1672.434909843468
 30
0.0
 11
10296.87045759995
 21
1832.434909843469
 31
0.0
  0
LINE
  5
23E08
330
747D
100
AcDbEntity
  8
細線
 48
50.0
100
AcDbLine
 10
10155.38853062692
 20
1672.43490984347
 30
0.0
 11
10198.2604014159
 21
1832.434909843468
 31
0.0
  0
LINE
  5
23E09
330
747D
100
AcDbEntity
  8
細線
 48
50.0
100
AcDbLine
 10
10352.60864299504
 20
1672.434909843467
 30
0.0
 11
10395.48051378402
 21
1832.434909843466
 31
0.0
  0
LINE
  5
23E0A
330
747D
100
AcDbEntity
  8
細線
 48
50.0
100
AcDbLine
 10
10262.03706258392
 20
1702.434909843469
 30
0.0
 11
10270.07553835685
 21
1672.43490984347
 31
0.0
  0
LINE
  5
23E0B
330
747D
100
AcDbEntity
  8
細線
 48
50.0
100
AcDbLine
 10
10163.42700639986
 20
1702.434909843469
 30
0.0
 11
10171.46548217279
 21
1672.43490984347
 31
0.0
  0
LINE
  5
23E0C
330
747D
100
AcDbEntity
  8
細線
 48
50.0
100
AcDbLine
 10
10459.25717495204
 20
1702.434909843467
 30
0.0
 11
10467.29565072497
 21
1672.434909843468
 31
0.0
  0
LINE
  5
23E0D
330
747D
100
AcDbEntity
  8
細線
 48
50.0
100
AcDbLine
 10
10360.64711876798
 20
1702.434909843467
 30
0.0
 11
10368.6855945409
 21
1672.434909843468
 31
0.0
  0
LINE
  5
23E0E
330
747D
100
AcDbEntity
  8
細線
100
AcDbLine
 10
10274.30171270009
 20
1832.434909843473
 30
0.0
 11
10388.92535726677
 21
1947.058554410158
 31
0.0
  0
LINE
  5
23E0F
330
747D
100
AcDbEntity
  8
細線
100
AcDbLine
 10
10231.8753058289
 20
1832.434909843473
 30
0.0
 11
10346.49895039558
 21
1947.058554410158
 31
0.0
  0
LINE
  5
23E10
330
747D
100
AcDbEntity
  8
細線
 48
50.0
100
AcDbLine
 10
10190.22192564297
 20
1802.434909843469
 30
0.0
 11
10182.18344987003
 21
1832.434909843469
 31
0.0
  0
LINE
  5
23E11
330
747D
100
AcDbEntity
  8
細線
 48
50.0
100
AcDbLine
 10
10091.6118694589
 20
1802.434909843469
 30
0.0
 11
10083.57339368598
 21
1832.434909843469
 31
0.0
  0
LINE
  5
23E12
330
747D
100
AcDbEntity
  8
細線
 48
50.0
100
AcDbLine
 10
10288.83198182702
 20
1802.434909843469
 30
0.0
 11
10280.79350605408
 21
1832.434909843469
 31
0.0
  0
LINE
  5
23E13
330
747D
100
AcDbEntity
  8
細線
 48
50.0
100
AcDbLine
 10
10387.44203801108
 20
1802.434909843467
 30
0.0
 11
10379.40356223816
 21
1832.434909843468
 31
0.0
  0
LINE
  5
23E14
330
747D
100
AcDbEntity
  8
細線
100
AcDbLine
 10
10316.72811957128
 20
1832.434909843473
 30
0.0
 11
10431.35176413796
 21
1947.058554410158
 31
0.0
  0
LINE
  5
23E15
330
747D
100
AcDbEntity
  8
部品1
100
AcDbLine
 10
10540.57981270472
 20
1947.058554410158
 30
0.0
 11
10540.57981270472
 21
1672.43490984347
 31
0.0
  0
LEADER
  5
23E16
330
747D
100
AcDbEntity
  8
寸法
 48
50.0
100
AcDbLeader
  3
INABA_S40G
 73
     0
 74
     0
 75
     1
 40
150.0
 41
231.9898538650463
 76
     3
 10
10303.98532722462
 20
2247.058554410158
 30
0.0
 10
10392.90808551669
 20
2453.49145526158
 30
0.0
 10
10492.90808551669
 20
2453.49145526158
 30
0.0
340
23E17
1001
ACAD
1000
DSTYLE
1002
{
1070
   341
1005
0
1002
}
  0
MTEXT
  5
23E17
102
{ACAD_REACTORS
330
23E16
102
}
330
747D
100
AcDbEntity
  8
寸法
 62
     7
 48
50.0
100
AcDbMText
 10
10532.90808551669
 20
2568.49145526158
 30
0.0
 40
150.0
 41
1.0
 71
     4
 72
     1
  1
\A1;C.B
  7
STYLE1
 73
     1
 44
1.0
1001
ACAD
1000
MTEXTBEGIN
1070
    73
1070
     1
1070
    44
1040
1.0
1070
    74
1070
     0
1000
MTEXTEND
  0
LINE
  5
23E18
330
747D
100
AcDbEntity
  8
部品1
100
AcDbLine
 10
9790.579812704734
 20
2247.058554410157
 30
0.0
 11
10390.57981270472
 21
2247.058554410157
 31
0.0
  0
TEXT
  5
23E9E
330
747D
100
AcDbEntity
  8
文字
 62
     7
 48
50.0
100
AcDbText
 10
16307.32043935843
 20
-0.4140806220202649
 30
0.0
 40
1.0
  1
sy
  7
STYLE2
100
AcDbText
  0
ENDSEC
  0
SECTION
  2
OBJECTS
  0
DICTIONARY
  5
7471
330
0
100
AcDbDictionary
281
     1
  3
ACAD_COLOR
350
173D2
  3
ACAD_GROUP
350
7472
  3
ACAD_LAYOUT
350
173D3
  3
ACAD_MATERIAL
350
173D1
  3
ACAD_MLINESTYLE
350
7473
  3
ACAD_PLOTSETTINGS
350
173D4
  3
ACAD_PLOTSTYLENAME
350
173CF
  3
ACDBHEADERROUNDTRIPXREC
350
24051
  3
AcDbVariableDictionary
350
2404D
  3
CONTENTDICTIONARY
350
E71C
  3
DRAWINGVARIABLESDICT
350
F3B9
  0
DICTIONARY
  5
1758F
330
7467
100
AcDbDictionary
280
     1
281
     1
  3
ACAD_LAYERSTATES
360
17590
  0
DICTIONARY
  5
173D2
102
{ACAD_REACTORS
330
7471
102
}
330
7471
100
AcDbDictionary
281
     1
  0
DICTIONARY
  5
7472
102
{ACAD_REACTORS
330
7471
102
}
330
7471
100
AcDbDictionary
281
     1
  3
*A1
350
1D2A9
  3
*A2
350
234E6
  3
*A3
350
23AC9
  3
*A4
350
23ACA
  0
DICTIONARY
  5
173D3
102
{ACAD_REACTORS
330
7471
102
}
330
7471
100
AcDbDictionary
281
     1
  3
Model
350
173D5
  3
レイアウト1
350
173D6
  0
DICTIONARY
  5
173D1
102
{ACAD_REACTORS
330
7471
102
}
330
7471
100
AcDbDictionary
281
     1
  0
DICTIONARY
  5
7473
102
{ACAD_REACTORS
330
7471
102
}
330
7471
100
AcDbDictionary
281
     1
  3
STANDARD
350
7480
  0
DICTIONARY
  5
173D4
102
{ACAD_REACTORS
330
7471
102
}
330
7471
100
AcDbDictionary
281
     1
  0
ACDBDICTIONARYWDFLT
  5
173CF
102
{ACAD_REACTORS
330
7471
102
}
330
7471
100
AcDbDictionary
281
     1
  3
Normal
350
173D0
100
AcDbDictionaryWithDefault
340
173D0
  0
DICTIONARY
  5
24051
102
{ACAD_REACTORS
330
7471
102
}
330
7471
100
AcDbDictionary
281
     1
  3
COLORDICT
350
24053
  3
MATERIALDICT
350
24052
  0
DICTIONARY
  5
2404D
102
{ACAD_REACTORS
330
7471
102
}
330
7471
100
AcDbDictionary
281
     1
  3
DIMASSOC
350
2404E
  3
PROJECTNAME
350
2404F
  0
DICTIONARY
  5
E71C
102
{ACAD_REACTORS
330
7471
102
}
330
7471
100
AcDbDictionary
281
     1
  0
DICTIONARY
  5
F3B9
102
{ACAD_REACTORS
330
7471
102
}
330
7471
100
AcDbDictionary
281
     1
1001
DRAWINGVARIABLESXDATA
1000
POLARMODE
1000
1
  0
DICTIONARY
  5
17590
102
{ACAD_REACTORS
330
1758F
102
}
330
1758F
100
AcDbDictionary
281
     1
  0
GROUP
  5
1D2A9
102
{ACAD_REACTORS
330
7472
102
}
330
7472
100
AcDbGroup
300

 70
     1
 71
     1
  0
GROUP
  5
234E6
102
{ACAD_REACTORS
330
7472
102
}
330
7472
100
AcDbGroup
300

 70
     1
 71
     1
  0
GROUP
  5
23AC9
102
{ACAD_REACTORS
330
7472
102
}
330
7472
100
AcDbGroup
300

 70
     1
 71
     1
  0
GROUP
  5
23ACA
102
{ACAD_REACTORS
330
7472
102
}
330
7472
100
AcDbGroup
300

 70
     1
 71
     1
  0
LAYOUT
  5
173D5
102
{ACAD_XDICTIONARY
360
24054
102
}
102
{ACAD_REACTORS
330
173D3
102
}
330
173D3
100
AcDbPlotSettings
  1

  2
クセロPDF
  4
A3
  6

 40
3.174999952316284
 41
3.174999952316284
 42
3.17498779296875
 43
3.17498779296875
 44
419.9466552734374
 45
296.9259948730469
 46
0.0
 47
0.0
 48
0.0
 49
0.0
140
0.0
141
0.0
142
1.0
143
40.0
 70
 11952
 72
     1
 73
     0
 74
     2
  7
inaba.ctb
 75
    24
147
0.025
148
0.0
149
0.0
100
AcDbLayout
  1
Model
 70
     1
 71
     0
 10
0.0
 20
0.0
 11
12.0
 21
9.0
 12
0.0
 22
0.0
 32
0.0
 14
0.0
 24
0.0
 34
0.0
 15
0.0
 25
0.0
 35
0.0
146
0.0
 13
0.0
 23
0.0
 33
0.0
 16
1.0
 26
0.0
 36
0.0
 17
0.0
 27
1.0
 37
0.0
 76
     0
330
747D
  0
LAYOUT
  5
173D6
102
{ACAD_XDICTIONARY
360
24056
102
}
102
{ACAD_REACTORS
330
173D3
102
}
330
173D3
100
AcDbPlotSettings
  1

  2
Microsoft Office Document Image Writer
  4

  6

 40
0.0
 41
0.0
 42
0.0
 43
0.0
 44
0.0
 45
0.0
 46
0.0
 47
0.0
 48
0.0
 49
0.0
140
0.0
141
0.0
142
1.0
143
1.0
 70
   688
 72
     0
 73
     0
 74
     5
  7
inaba.ctb
 75
    16
147
1.0
148
0.0
149
0.0
100
AcDbLayout
  1
レイアウト1
 70
     0
 71
     1
 10
0.0
 20
0.0
 11
420.0
 21
297.0
 12
0.0
 22
0.0
 32
0.0
 14
1.000000000000000E+20
 24
1.000000000000000E+20
 34
1.000000000000000E+20
 15
-1.000000000000000E+20
 25
-1.000000000000000E+20
 35
-1.000000000000000E+20
146
0.0
 13
0.0
 23
0.0
 33
0.0
 16
1.0
 26
0.0
 36
0.0
 17
0.0
 27
1.0
 37
0.0
 76
     0
330
747A
  0
MLINESTYLE
  5
7480
102
{ACAD_REACTORS
330
7473
102
}
330
7473
100
AcDbMlineStyle
  2
STANDARD
 70
     0
  3

 62
     0
 51
90.0
 52
90.0
 71
     2
 49
0.5
 62
   256
  6
BYLAYER
 49
-0.5
 62
   256
  6
BYLAYER
  0
ACDBPLACEHOLDER
  5
173D0
102
{ACAD_REACTORS
330
173CF
102
}
330
173CF
  0
XRECORD
  5
24053
102
{ACAD_REACTORS
330
24051
102
}
330
24051
100
AcDbXrecord
280
     1
340
173D2
  0
XRECORD
  5
24052
102
{ACAD_REACTORS
330
24051
102
}
330
24051
100
AcDbXrecord
280
     1
340
173D1
  0
DICTIONARYVAR
  5
2404E
102
{ACAD_REACTORS
330
2404D
102
}
330
2404D
100
DictionaryVariables
280
     0
  1
1
  0
DICTIONARYVAR
  5
2404F
102
{ACAD_REACTORS
330
2404D
102
}
330
2404D
100
DictionaryVariables
280
     0
  1

  0
DICTIONARY
  5
24054
330
173D5
100
AcDbDictionary
280
     1
281
     1
  3
ACAD_XREC_ROUNDTRIP
360
24055
  0
DICTIONARY
  5
24056
330
173D6
100
AcDbDictionary
280
     1
281
     1
  3
ACAD_XREC_ROUNDTRIP
360
24057
  0
XRECORD
  5
24055
102
{ACAD_REACTORS
330
24054
102
}
330
24054
100
AcDbXrecord
280
     1
102
SHADEPLOT
 70
     0
102
SHADEPLOTRESLEVEL
 70
     2
102
SHADEPLOTCUSTOMDPI
 70
   150
  0
XRECORD
  5
24057
102
{ACAD_REACTORS
330
24056
102
}
330
24056
100
AcDbXrecord
280
     1
102
SHADEPLOT
 70
     0
102
SHADEPLOTRESLEVEL
 70
     2
102
SHADEPLOTCUSTOMDPI
 70
   300
  0
ENDSEC
  0
EOF
