  0
SECTION
  2
HEADER
  9
$ACADVER
  1
AC1015
  9
$ACADMAINTVER
 70
    20
  9
$DWGCODEPAGE
  3
ANSI_932
  9
$INSBASE
 10
0.0
 20
0.0
 30
0.0
  9
$EXTMIN
 10
139.9999999999995
 20
-0.0000000000000909
 30
0.0
  9
$EXTMAX
 10
16307.2
 20
11409.6
 30
0.0
  9
$LIMMIN
 10
0.0
 20
0.0
  9
$LIMMAX
 10
16800.0
 20
11880.0
  9
$ORTHOMODE
 70
     0
  9
$REGENMODE
 70
     1
  9
$FILLMODE
 70
     1
  9
$QTEXTMODE
 70
     0
  9
$MIRRTEXT
 70
     1
  9
$LTSCALE
 40
20.0
  9
$ATTMODE
 70
     1
  9
$TEXTSIZE
 40
4.0
  9
$TRACEWID
 40
1.0
  9
$TEXTSTYLE
  7
STYLE1
  9
$CLAYER
  8
細線
  9
$CELTYPE
  6
BYLAYER
  9
$CECOLOR
 62
   256
  9
$CELTSCALE
 40
50.0
  9
$DISPSILH
 70
     0
  9
$DIMSCALE
 40
40.0
  9
$DIMASZ
 40
2.5
  9
$DIMEXO
 40
0.5
  9
$DIMDLI
 40
7.0
  9
$DIMRND
 40
0.0
  9
$DIMDLE
 40
0.0
  9
$DIMEXE
 40
1.5
  9
$DIMTP
 40
0.0
  9
$DIMTM
 40
0.0
  9
$DIMTXT
 40
3.0
  9
$DIMCEN
 40
0.0
  9
$DIMTSZ
 40
0.0
  9
$DIMTOL
 70
     0
  9
$DIMLIM
 70
     0
  9
$DIMTIH
 70
     0
  9
$DIMTOH
 70
     0
  9
$DIMSE1
 70
     0
  9
$DIMSE2
 70
     0
  9
$DIMTAD
 70
     3
  9
$DIMZIN
 70
     8
  9
$DIMBLK
  1

  9
$DIMASO
 70
     1
  9
$DIMSHO
 70
     1
  9
$DIMPOST
  1

  9
$DIMAPOST
  1

  9
$DIMALT
 70
     0
  9
$DIMALTD
 70
     2
  9
$DIMALTF
 40
0.0394
  9
$DIMLFAC
 40
1.0
  9
$DIMTOFL
 70
     1
  9
$DIMTVP
 40
0.0
  9
$DIMTIX
 70
     1
  9
$DIMSOXD
 70
     0
  9
$DIMSAH
 70
     1
  9
$DIMBLK1
  1
DOTSMALL
  9
$DIMBLK2
  1
DOTSMALL
  9
$DIMSTYLE
  2
INABA_S40G
  9
$DIMCLRD
 70
     0
  9
$DIMCLRE
 70
     0
  9
$DIMCLRT
 70
     7
  9
$DIMTFAC
 40
1.0
  9
$DIMGAP
 40
1.0
  9
$DIMJUST
 70
     0
  9
$DIMSD1
 70
     0
  9
$DIMSD2
 70
     0
  9
$DIMTOLJ
 70
     1
  9
$DIMTZIN
 70
     0
  9
$DIMALTZ
 70
     0
  9
$DIMALTTZ
 70
     0
  9
$DIMUPT
 70
     0
  9
$DIMDEC
 70
     1
  9
$DIMTDEC
 70
     4
  9
$DIMALTU
 70
     2
  9
$DIMALTTD
 70
     2
  9
$DIMTXSTY
  7
STYLE1
  9
$DIMAUNIT
 70
     0
  9
$DIMADEC
 70
     0
  9
$DIMALTRND
 40
0.0
  9
$DIMAZIN
 70
     0
  9
$DIMDSEP
 70
    46
  9
$DIMATFIT
 70
     3
  9
$DIMFRAC
 70
     0
  9
$DIMLDRBLK
  1

  9
$DIMLUNIT
 70
     2
  9
$DIMLWD
 70
    -2
  9
$DIMLWE
 70
    -2
  9
$DIMTMOVE
 70
     0
  9
$LUNITS
 70
     2
  9
$LUPREC
 70
     1
  9
$SKETCHINC
 40
1.0
  9
$FILLETRAD
 40
3.0
  9
$AUNITS
 70
     0
  9
$AUPREC
 70
     0
  9
$MENU
  1
acad
  9
$ELEVATION
 40
0.0
  9
$PELEVATION
 40
0.0
  9
$THICKNESS
 40
0.0
  9
$LIMCHECK
 70
     0
  9
$CHAMFERA
 40
0.0
  9
$CHAMFERB
 40
0.0
  9
$CHAMFERC
 40
0.0
  9
$CHAMFERD
 40
0.0
  9
$SKPOLY
 70
     0
  9
$TDCREATE
 40
2451368.612993866
  9
$TDUCREATE
 40
2451368.237993866
  9
$TDUPDATE
 40
2455827.764612048
  9
$TDUUPDATE
 40
2455827.389612049
  9
$TDINDWG
 40
0.9150189005
  9
$TDUSRTIMER
 40
0.9150172801
  9
$USRTIMER
 70
     1
  9
$ANGBASE
 50
0.0
  9
$ANGDIR
 70
     0
  9
$PDMODE
 70
     3
  9
$PDSIZE
 40
2.0
  9
$PLINEWID
 40
0.0
  9
$SPLFRAME
 70
     0
  9
$SPLINETYPE
 70
     6
  9
$SPLINESEGS
 70
     8
  9
$HANDSEED
  5
2E124
  9
$SURFTAB1
 70
     6
  9
$SURFTAB2
 70
     6
  9
$SURFTYPE
 70
     6
  9
$SURFU
 70
     6
  9
$SURFV
 70
     6
  9
$UCSBASE
  2

  9
$UCSNAME
  2

  9
$UCSORG
 10
0.0
 20
0.0
 30
0.0
  9
$UCSXDIR
 10
1.0
 20
0.0
 30
0.0
  9
$UCSYDIR
 10
0.0
 20
1.0
 30
0.0
  9
$UCSORTHOREF
  2

  9
$UCSORTHOVIEW
 70
     0
  9
$UCSORGTOP
 10
0.0
 20
0.0
 30
0.0
  9
$UCSORGBOTTOM
 10
0.0
 20
0.0
 30
0.0
  9
$UCSORGLEFT
 10
0.0
 20
0.0
 30
0.0
  9
$UCSORGRIGHT
 10
0.0
 20
0.0
 30
0.0
  9
$UCSORGFRONT
 10
0.0
 20
0.0
 30
0.0
  9
$UCSORGBACK
 10
0.0
 20
0.0
 30
0.0
  9
$PUCSBASE
  2

  9
$PUCSNAME
  2

  9
$PUCSORG
 10
0.0
 20
0.0
 30
0.0
  9
$PUCSXDIR
 10
1.0
 20
0.0
 30
0.0
  9
$PUCSYDIR
 10
0.0
 20
1.0
 30
0.0
  9
$PUCSORTHOREF
  2

  9
$PUCSORTHOVIEW
 70
     0
  9
$PUCSORGTOP
 10
0.0
 20
0.0
 30
0.0
  9
$PUCSORGBOTTOM
 10
0.0
 20
0.0
 30
0.0
  9
$PUCSORGLEFT
 10
0.0
 20
0.0
 30
0.0
  9
$PUCSORGRIGHT
 10
0.0
 20
0.0
 30
0.0
  9
$PUCSORGFRONT
 10
0.0
 20
0.0
 30
0.0
  9
$PUCSORGBACK
 10
0.0
 20
0.0
 30
0.0
  9
$USERI1
 70
     0
  9
$USERI2
 70
     0
  9
$USERI3
 70
     0
  9
$USERI4
 70
     0
  9
$USERI5
 70
     0
  9
$USERR1
 40
0.0
  9
$USERR2
 40
0.0
  9
$USERR3
 40
0.0
  9
$USERR4
 40
0.0
  9
$USERR5
 40
0.0
  9
$WORLDVIEW
 70
     1
  9
$SHADEDGE
 70
     3
  9
$SHADEDIF
 70
    70
  9
$TILEMODE
 70
     1
  9
$MAXACTVP
 70
    16
  9
$PINSBASE
 10
0.0
 20
0.0
 30
0.0
  9
$PLIMCHECK
 70
     0
  9
$PEXTMIN
 10
1.000000000000000E+20
 20
1.000000000000000E+20
 30
1.000000000000000E+20
  9
$PEXTMAX
 10
-1.000000000000000E+20
 20
-1.000000000000000E+20
 30
-1.000000000000000E+20
  9
$PLIMMIN
 10
0.0
 20
0.0
  9
$PLIMMAX
 10
420.0
 20
297.0
  9
$UNITMODE
 70
     0
  9
$VISRETAIN
 70
     0
  9
$PLINEGEN
 70
     0
  9
$PSLTSCALE
 70
     0
  9
$TREEDEPTH
 70
  3020
  9
$CMLSTYLE
  2
STANDARD
  9
$CMLJUST
 70
     0
  9
$CMLSCALE
 40
1.0
  9
$PROXYGRAPHICS
 70
     1
  9
$MEASUREMENT
 70
     1
  9
$CELWEIGHT
370
    -1
  9
$ENDCAPS
280
     0
  9
$JOINSTYLE
280
     0
  9
$LWDISPLAY
290
     0
  9
$INSUNITS
 70
     0
  9
$HYPERLINKBASE
  1

  9
$STYLESHEET
  1
inaba.ctb
  9
$XEDIT
290
     1
  9
$CEPSNTYPE
380
     0
  9
$PSTYLEMODE
290
     1
  9
$FINGERPRINTGUID
  2
{5EAC461A-2277-4BF8-9AB0-99C43BB394F0}
  9
$VERSIONGUID
  2
{7625775A-7ADD-4E43-BF18-2AA53D1BAC1A}
  9
$EXTNAMES
290
     1
  9
$PSVPSCALE
 40
0.0
  9
$OLESTARTUP
290
     0
  0
ENDSEC
  0
SECTION
  2
CLASSES
  0
CLASS
  1
ACDBDICTIONARYWDFLT
  2
AcDbDictionaryWithDefault
  3
ObjectDBX Classes
 90
        0
280
     0
281
     0
  0
CLASS
  1
DICTIONARYVAR
  2
AcDbDictionaryVar
  3
ObjectDBX Classes
 90
        0
280
     0
281
     0
  0
CLASS
  1
ACDBPLACEHOLDER
  2
AcDbPlaceHolder
  3
ObjectDBX Classes
 90
        0
280
     0
281
     0
  0
CLASS
  1
LAYOUT
  2
AcDbLayout
  3
ObjectDBX Classes
 90
        0
280
     0
281
     0
  0
ENDSEC
  0
SECTION
  2
TABLES
  0
TABLE
  2
VPORT
  5
746D
330
0
100
AcDbSymbolTable
 70
     2
  0
VPORT
  5
2E11C
330
746D
100
AcDbSymbolTableRecord
100
AcDbViewportTableRecord
  2
*Active
 70
     0
 10
0.0
 20
0.0
 11
1.0
 21
1.0
 12
9779.741870590704
 22
5704.796475140369
 13
0.0
 23
0.0
 14
10.0
 24
10.0
 15
10.0
 25
10.0
 16
0.0
 26
0.0
 36
1.0
 17
0.0
 27
0.0
 37
0.0
 40
11494.73464854293
 41
1.79295154185022
 42
50.0
 43
0.0
 44
0.0
 50
0.0
 51
0.0
 71
     0
 72
     0
 73
     1
 74
     0
 75
     0
 76
     0
 77
     0
 78
     0
281
     0
 65
     1
110
0.0
120
0.0
130
0.0
111
1.0
121
0.0
131
0.0
112
0.0
122
1.0
132
0.0
 79
     0
146
0.0
  0
ENDTAB
  0
TABLE
  2
LTYPE
  5
746A
330
0
100
AcDbSymbolTable
 70
     3
  0
LTYPE
  5
7477
330
746A
100
AcDbSymbolTableRecord
100
AcDbLinetypeTableRecord
  2
BYBLOCK
 70
     0
  3

 72
    65
 73
     0
 40
0.0
  0
LTYPE
  5
7478
330
746A
100
AcDbSymbolTableRecord
100
AcDbLinetypeTableRecord
  2
BYLAYER
 70
     0
  3

 72
    65
 73
     0
 40
0.0
  0
LTYPE
  5
7479
330
746A
100
AcDbSymbolTableRecord
100
AcDbLinetypeTableRecord
  2
CONTINUOUS
 70
     0
  3
Solid line
 72
    65
 73
     0
 40
0.0
  0
LTYPE
  5
7816
330
746A
100
AcDbSymbolTableRecord
100
AcDbLinetypeTableRecord
  2
CENTER
 70
     0
  3
____ _ ____ _ ____ _ ____ _ ____ _ ____ _ ____ 
 72
    65
 73
     4
 40
2.0
 49
1.25
 74
     0
 49
-0.25
 74
     0
 49
0.25
 74
     0
 49
-0.25
 74
     0
  0
LTYPE
  5
781B
330
746A
100
AcDbSymbolTableRecord
100
AcDbLinetypeTableRecord
  2
PHANTOM
 70
     0
  3
______  __  __  ______  __  __  ______  __  __ 
 72
    65
 73
     6
 40
2.5
 49
1.25
 74
     0
 49
-0.25
 74
     0
 49
0.25
 74
     0
 49
-0.25
 74
     0
 49
0.25
 74
     0
 49
-0.25
 74
     0
  0
ENDTAB
  0
TABLE
  2
LAYER
  5
7467
102
{ACAD_XDICTIONARY
360
1758F
102
}
330
0
100
AcDbSymbolTable
 70
    10
  0
LAYER
  5
7474
330
7467
100
AcDbSymbolTableRecord
100
AcDbLayerTableRecord
  2
0
 70
     0
 62
     7
  6
CONTINUOUS
370
    -3
390
173D0
  0
LAYER
  5
DEB2
330
7467
100
AcDbSymbolTableRecord
100
AcDbLayerTableRecord
  2
センター
 70
     0
 62
     3
  6
CENTER
370
    -3
390
173D0
  0
LAYER
  5
DEB3
330
7467
100
AcDbSymbolTableRecord
100
AcDbLayerTableRecord
  2
寸法
 70
     0
 62
     4
  6
CONTINUOUS
370
    -3
390
173D0
  0
LAYER
  5
DEB4
330
7467
100
AcDbSymbolTableRecord
100
AcDbLayerTableRecord
  2
部品1
 70
     0
 62
     7
  6
CONTINUOUS
370
    -3
390
173D0
  0
LAYER
  5
DEB5
330
7467
100
AcDbSymbolTableRecord
100
AcDbLayerTableRecord
  2
補助
 70
     0
 62
    -1
  6
CONTINUOUS
370
    -3
390
173D0
  0
LAYER
  5
DEB6
330
7467
100
AcDbSymbolTableRecord
100
AcDbLayerTableRecord
  2
文字
 70
     0
 62
     7
  6
CONTINUOUS
370
    -3
390
173D0
  0
LAYER
  5
F255
330
7467
100
AcDbSymbolTableRecord
100
AcDbLayerTableRecord
  2
DEFPOINTS
 70
     0
 62
     7
  6
CONTINUOUS
290
     0
370
    -3
390
173D0
  0
LAYER
  5
10B54
330
7467
100
AcDbSymbolTableRecord
100
AcDbLayerTableRecord
  2
仕様書枠
 70
     0
 62
   230
  6
CONTINUOUS
370
    -3
390
173D0
  0
LAYER
  5
1173F
330
7467
100
AcDbSymbolTableRecord
100
AcDbLayerTableRecord
  2
細線
 70
     0
 62
     5
  6
CONTINUOUS
370
    -3
390
173D0
  0
LAYER
  5
12CC4
330
7467
100
AcDbSymbolTableRecord
100
AcDbLayerTableRecord
  2
想像線
 70
     0
 62
     6
  6
PHANTOM
370
    -3
390
173D0
  0
ENDTAB
  0
TABLE
  2
STYLE
  5
7468
330
0
100
AcDbSymbolTable
 70
     4
  0
STYLE
  5
7475
330
7468
100
AcDbSymbolTableRecord
100
AcDbTextStyleTableRecord
  2
STANDARD
 70
     0
 40
0.0
 41
1.0
 50
0.0
 71
     0
 42
4.0
  3
txt
  4
C:\AutoCAD LT\bigfont.shx
  0
STYLE
  5
763C
330
7468
100
AcDbSymbolTableRecord
100
AcDbTextStyleTableRecord
  2
MSMINCHO
 70
     0
 40
0.0
 41
1.0
 50
0.0
 71
     0
 42
1.199999999999999
  3
C:\AutoCAD LT\msminch2.TTF
  4

  0
STYLE
  5
F706
330
7468
100
AcDbSymbolTableRecord
100
AcDbTextStyleTableRecord
  2
STYLE1
 70
     0
 40
0.0
 41
1.0
 50
0.0
 71
     0
 42
4.0
  3
isocp.shx
  4
bigfont.shx
  0
STYLE
  5
103BF
330
7468
100
AcDbSymbolTableRecord
100
AcDbTextStyleTableRecord
  2
STYLE2
 70
     0
 40
0.0
 41
1.0
 50
0.0
 71
     0
 42
100.0
  3
MS PGothic.ttf
  4

1001
ACAD
1000
MS PGothic
1071
    32818
  0
ENDTAB
  0
TABLE
  2
VIEW
  5
746B
330
0
100
AcDbSymbolTable
 70
     0
  0
ENDTAB
  0
TABLE
  2
UCS
  5
746C
330
0
100
AcDbSymbolTable
 70
     0
  0
ENDTAB
  0
TABLE
  2
APPID
  5
746E
330
0
100
AcDbSymbolTable
 70
     6
  0
APPID
  5
7476
330
746E
100
AcDbSymbolTableRecord
100
AcDbRegAppTableRecord
  2
ACAD
 70
     0
  0
APPID
  5
DEA9
330
746E
100
AcDbSymbolTableRecord
100
AcDbRegAppTableRecord
  2
CONTENTBLOCKICON
 70
     0
  0
APPID
  5
DEAA
330
746E
100
AcDbSymbolTableRecord
100
AcDbRegAppTableRecord
  2
CONTENTBLOCKDESCRIPTION
 70
     0
  0
APPID
  5
E71D
330
746E
100
AcDbSymbolTableRecord
100
AcDbRegAppTableRecord
  2
CONTENTTABDATA
 70
     0
  0
APPID
  5
E71E
330
746E
100
AcDbSymbolTableRecord
100
AcDbRegAppTableRecord
  2
CONTENTCURRENTTAB
 70
     0
  0
APPID
  5
F3BA
330
746E
100
AcDbSymbolTableRecord
100
AcDbRegAppTableRecord
  2
DRAWINGVARIABLESXDATA
 70
     0
  0
ENDTAB
  0
TABLE
  2
DIMSTYLE
  5
746F
330
0
100
AcDbSymbolTable
 70
     1
100
AcDbDimStyleTable
 71
     1
340
F71F
  0
DIMSTYLE
105
F71F
102
{ACAD_REACTORS
330
2DDDA
330
2DDD7
330
2DDD6
330
2DDD4
330
2DDD1
330
2DDCE
330
2DDCD
330
2DDCB
330
2DDCA
330
2DDC7
330
2DDC6
330
2DDB9
330
2DDB8
330
2DDB7
330
2DD75
330
2DD60
330
2DD5E
330
2DD58
330
2DCBF
330
2D78F
330
2C930
330
2B134
330
2B133
330
2B132
330
2A558
330
2A548
330
2A52F
330
2A52E
330
2A52D
330
2A529
330
2A528
330
2A524
330
2A4A1
330
2A466
330
2A465
330
2A461
330
2A456
330
2A455
330
2A452
330
2A451
330
2A450
330
2A44F
330
2A233
330
2A231
330
2A1CF
330
2A1CE
330
2A1B7
330
2A1B6
330
2A1B2
330
29997
330
2701E
330
26F7E
330
26F64
330
26F3F
330
26F1A
330
26F00
330
1D2D6
330
1AC2C
330
1AC27
102
}
330
746F
100
AcDbSymbolTableRecord
100
AcDbDimStyleTableRecord
  2
INABA_S40G
 70
     0
 40
40.0
 41
2.5
 42
0.5
 43
7.0
 44
1.5
 73
     0
 74
     0
 77
     3
 78
     8
140
3.0
141
0.0
143
0.0394
147
1.0
172
     1
173
     1
174
     1
178
     7
271
     1
340
F706
341
F770
343
F770
344
F770
  0
ENDTAB
  0
TABLE
  2
BLOCK_RECORD
  5
7466
330
0
100
AcDbSymbolTable
 70
    43
  0
BLOCK_RECORD
  5
747D
330
7466
100
AcDbSymbolTableRecord
100
AcDbBlockTableRecord
  2
*MODEL_SPACE
340
173D5
  0
BLOCK_RECORD
  5
747A
330
7466
100
AcDbSymbolTableRecord
100
AcDbBlockTableRecord
  2
*PAPER_SPACE
340
173D6
  0
BLOCK_RECORD
  5
F770
330
7466
100
AcDbSymbolTableRecord
100
AcDbBlockTableRecord
  2
_DOTSMALL
340
0
102
{BLKREFS
331
2DF6A
331
2DF6B
331
2DF73
331
2DF74
331
2DF7C
331
2DF7D
331
2DF85
331
2DF86
331
2DF8E
331
2DF8F
331
2DF99
331
2DF9A
331
2DFA2
331
2DFA3
331
2DFAB
331
2DFAC
331
2DFB5
331
2DFB6
331
2DFBF
331
2DFC0
331
2DFC8
331
2DFC9
331
2DFD2
331
2DFD3
331
2DFDB
331
2DFDC
331
2DFE4
331
2DFE5
331
2DFED
331
2DFEE
331
2DFF6
331
2DFF7
331
2DFFF
331
2E000
331
2E009
331
2E00A
331
2E013
331
2E014
331
2E01C
331
2E01D
331
2E025
331
2E026
331
2E02E
331
2E02F
331
2E037
331
2E038
331
2E041
331
2E042
331
2E04B
331
2E04C
331
2E054
331
2E055
331
2E05E
331
2E05F
331
2E067
331
2E068
331
2E071
331
2E072
331
2E07B
331
2E07C
331
2E084
331
2E085
331
2E08D
331
2E08E
331
2E096
331
2E097
331
2E09F
331
2E0A0
331
2E0A8
331
2E0A9
331
2E0B1
331
2E0B2
331
2E0BB
331
2E0BC
331
2E0C6
331
2E0C7
331
2E0D1
331
2E0D2
331
2E0DC
331
2E0DD
331
2E0E7
331
2E0E8
331
2E0F2
331
2E0F3
102
}
  0
BLOCK_RECORD
  5
26F01
330
7466
100
AcDbSymbolTableRecord
100
AcDbBlockTableRecord
  2
*D1
340
0
  0
BLOCK_RECORD
  5
26F1B
330
7466
100
AcDbSymbolTableRecord
100
AcDbBlockTableRecord
  2
*D2
340
0
  0
BLOCK_RECORD
  5
26F40
330
7466
100
AcDbSymbolTableRecord
100
AcDbBlockTableRecord
  2
*D3
340
0
  0
BLOCK_RECORD
  5
26F65
330
7466
100
AcDbSymbolTableRecord
100
AcDbBlockTableRecord
  2
*D4
340
0
  0
BLOCK_RECORD
  5
26F7F
330
7466
100
AcDbSymbolTableRecord
100
AcDbBlockTableRecord
  2
*D5
340
0
  0
BLOCK_RECORD
  5
2701F
330
7466
100
AcDbSymbolTableRecord
100
AcDbBlockTableRecord
  2
*D6
340
0
  0
BLOCK_RECORD
  5
2A56B
330
7466
100
AcDbSymbolTableRecord
100
AcDbBlockTableRecord
  2
*D7
340
0
  0
BLOCK_RECORD
  5
2A576
330
7466
100
AcDbSymbolTableRecord
100
AcDbBlockTableRecord
  2
*D8
340
0
  0
BLOCK_RECORD
  5
2A581
330
7466
100
AcDbSymbolTableRecord
100
AcDbBlockTableRecord
  2
*D9
340
0
  0
BLOCK_RECORD
  5
2A5A3
330
7466
100
AcDbSymbolTableRecord
100
AcDbBlockTableRecord
  2
*D10
340
0
  0
BLOCK_RECORD
  5
2A5AE
330
7466
100
AcDbSymbolTableRecord
100
AcDbBlockTableRecord
  2
*D11
340
0
  0
BLOCK_RECORD
  5
2A5DB
330
7466
100
AcDbSymbolTableRecord
100
AcDbBlockTableRecord
  2
*D12
340
0
  0
BLOCK_RECORD
  5
2A5F2
330
7466
100
AcDbSymbolTableRecord
100
AcDbBlockTableRecord
  2
*D13
340
0
  0
BLOCK_RECORD
  5
2A60B
330
7466
100
AcDbSymbolTableRecord
100
AcDbBlockTableRecord
  2
*D14
340
0
  0
BLOCK_RECORD
  5
2A618
330
7466
100
AcDbSymbolTableRecord
100
AcDbBlockTableRecord
  2
*D15
340
0
  0
BLOCK_RECORD
  5
2A623
330
7466
100
AcDbSymbolTableRecord
100
AcDbBlockTableRecord
  2
*D16
340
0
  0
BLOCK_RECORD
  5
2A630
330
7466
100
AcDbSymbolTableRecord
100
AcDbBlockTableRecord
  2
*D17
340
0
  0
BLOCK_RECORD
  5
2A646
330
7466
100
AcDbSymbolTableRecord
100
AcDbBlockTableRecord
  2
*D18
340
0
  0
BLOCK_RECORD
  5
2A653
330
7466
100
AcDbSymbolTableRecord
100
AcDbBlockTableRecord
  2
*D19
340
0
  0
BLOCK_RECORD
  5
2A66D
330
7466
100
AcDbSymbolTableRecord
100
AcDbBlockTableRecord
  2
*D20
340
0
  0
BLOCK_RECORD
  5
2A678
330
7466
100
AcDbSymbolTableRecord
100
AcDbBlockTableRecord
  2
*D21
340
0
  0
BLOCK_RECORD
  5
2A684
330
7466
100
AcDbSymbolTableRecord
100
AcDbBlockTableRecord
  2
*D22
340
0
  0
BLOCK_RECORD
  5
2A690
330
7466
100
AcDbSymbolTableRecord
100
AcDbBlockTableRecord
  2
*D23
340
0
  0
BLOCK_RECORD
  5
2A6B5
330
7466
100
AcDbSymbolTableRecord
100
AcDbBlockTableRecord
  2
*D24
340
0
  0
BLOCK_RECORD
  5
2A6CF
330
7466
100
AcDbSymbolTableRecord
100
AcDbBlockTableRecord
  2
*D25
340
0
  0
BLOCK_RECORD
  5
2A6DC
330
7466
100
AcDbSymbolTableRecord
100
AcDbBlockTableRecord
  2
*D26
340
0
  0
BLOCK_RECORD
  5
2A6E8
330
7466
100
AcDbSymbolTableRecord
100
AcDbBlockTableRecord
  2
*D27
340
0
  0
BLOCK_RECORD
  5
2A6F4
330
7466
100
AcDbSymbolTableRecord
100
AcDbBlockTableRecord
  2
*D28
340
0
  0
BLOCK_RECORD
  5
2A700
330
7466
100
AcDbSymbolTableRecord
100
AcDbBlockTableRecord
  2
*D29
340
0
  0
BLOCK_RECORD
  5
2A70B
330
7466
100
AcDbSymbolTableRecord
100
AcDbBlockTableRecord
  2
*D30
340
0
  0
BLOCK_RECORD
  5
2A717
330
7466
100
AcDbSymbolTableRecord
100
AcDbBlockTableRecord
  2
*D31
340
0
  0
BLOCK_RECORD
  5
2B135
330
7466
100
AcDbSymbolTableRecord
100
AcDbBlockTableRecord
  2
*D32
340
0
  0
BLOCK_RECORD
  5
2B142
330
7466
100
AcDbSymbolTableRecord
100
AcDbBlockTableRecord
  2
*D33
340
0
  0
BLOCK_RECORD
  5
2B14F
330
7466
100
AcDbSymbolTableRecord
100
AcDbBlockTableRecord
  2
*D34
340
0
  0
BLOCK_RECORD
  5
2C931
330
7466
100
AcDbSymbolTableRecord
100
AcDbBlockTableRecord
  2
*D35
340
0
  0
BLOCK_RECORD
  5
2D836
330
7466
100
AcDbSymbolTableRecord
100
AcDbBlockTableRecord
  2
*D36
340
0
  0
BLOCK_RECORD
  5
2DDE5
330
7466
100
AcDbSymbolTableRecord
100
AcDbBlockTableRecord
  2
*D37
340
0
  0
BLOCK_RECORD
  5
2DDF3
330
7466
100
AcDbSymbolTableRecord
100
AcDbBlockTableRecord
  2
*D38
340
0
  0
BLOCK_RECORD
  5
2DDFE
330
7466
100
AcDbSymbolTableRecord
100
AcDbBlockTableRecord
  2
*D39
340
0
  0
BLOCK_RECORD
  5
2DE0A
330
7466
100
AcDbSymbolTableRecord
100
AcDbBlockTableRecord
  2
*D40
340
0
  0
BLOCK_RECORD
  5
2DE16
330
7466
100
AcDbSymbolTableRecord
100
AcDbBlockTableRecord
  2
*D41
340
0
  0
BLOCK_RECORD
  5
2DE22
330
7466
100
AcDbSymbolTableRecord
100
AcDbBlockTableRecord
  2
*D42
340
0
  0
ENDTAB
  0
ENDSEC
  0
SECTION
  2
BLOCKS
  0
BLOCK
  5
7489
330
747D
100
AcDbEntity
  8
0
100
AcDbBlockBegin
  2
*MODEL_SPACE
 70
     0
 10
0.0
 20
0.0
 30
0.0
  3
*MODEL_SPACE
  1

  0
ENDBLK
  5
748A
330
747D
100
AcDbEntity
  8
0
100
AcDbBlockEnd
  0
BLOCK
  5
7487
330
747A
100
AcDbEntity
 67
     1
  8
0
100
AcDbBlockBegin
  2
*PAPER_SPACE
 70
     0
 10
0.0
 20
0.0
 30
0.0
  3
*PAPER_SPACE
  1

  0
ENDBLK
  5
7488
330
747A
100
AcDbEntity
 67
     1
  8
0
100
AcDbBlockEnd
  0
BLOCK
  5
F771
330
F770
100
AcDbEntity
  8
0
 48
50.0
100
AcDbBlockBegin
  2
_DOTSMALL
 70
     0
 10
0.0
 20
0.0
 30
0.0
  3
_DOTSMALL
  1

  0
LWPOLYLINE
  5
F772
330
F770
100
AcDbEntity
  8
0
  6
ByBlock
 62
     0
 48
50.0
100
AcDbPolyline
 90
        2
 70
     1
 43
0.5
 10
-0.0625
 20
0.0
 42
1.0
 10
0.0625
 20
0.0
 42
1.0
  0
ENDBLK
  5
F776
330
F770
100
AcDbEntity
  8
0
 48
50.0
100
AcDbBlockEnd
  0
BLOCK
  5
26F0D
330
26F01
100
AcDbEntity
  8
0
 48
50.0
100
AcDbBlockBegin
  2
*D1
 70
     1
 10
0.0
 20
0.0
 30
0.0
  3
*D1
  1

  0
LINE
  5
2E0ED
330
26F01
100
AcDbEntity
  8
寸法
 62
     0
 48
50.0
370
    -2
100
AcDbLine
 10
7796.600000000001
 20
5383.059189782745
 30
0.0
 11
8103.202780124334
 21
5383.059189782745
 31
0.0
  0
LINE
  5
2E0EE
330
26F01
100
AcDbEntity
  8
寸法
 62
     0
 48
50.0
370
    -2
100
AcDbLine
 10
7796.600000000009
 20
5458.059189782744
 30
0.0
 11
8103.202780124334
 21
5458.059189782744
 31
0.0
  0
LINE
  5
2E0EF
330
26F01
100
AcDbEntity
  8
寸法
 62
     0
 48
50.0
370
    -2
100
AcDbLine
 10
8043.202780124335
 20
5458.059189782744
 30
0.0
 11
8043.202780124335
 21
5558.059189782745
 31
0.0
  0
LINE
  5
2E0F0
330
26F01
100
AcDbEntity
  8
寸法
 62
     0
 48
50.0
370
    -2
100
AcDbLine
 10
8043.202780124335
 20
5383.059189782745
 30
0.0
 11
8043.202780124335
 21
4516.088627034267
 31
0.0
  0
LINE
  5
2E0F1
330
26F01
100
AcDbEntity
  8
寸法
 62
     0
 48
50.0
370
    -2
100
AcDbLine
 10
8043.202780124335
 20
5458.059189782744
 30
0.0
 11
8043.202780124335
 21
5383.059189782745
 31
0.0
  0
INSERT
  5
2E0F2
330
26F01
100
AcDbEntity
  8
寸法
 62
     0
 48
50.0
370
    -2
100
AcDbBlockReference
  2
_DOTSMALL
 10
8043.202780124335
 20
5458.059189782744
 30
0.0
 41
100.0
 42
100.0
 43
100.0
 50
270.0
  0
INSERT
  5
2E0F3
330
26F01
100
AcDbEntity
  8
寸法
 62
     0
 48
50.0
370
    -2
100
AcDbBlockReference
  2
_DOTSMALL
 10
8043.202780124335
 20
5383.059189782745
 30
0.0
 41
100.0
 42
100.0
 43
100.0
 50
90.0
  0
MTEXT
  5
2E0F4
330
26F01
100
AcDbEntity
  8
寸法
 62
     7
 48
50.0
100
AcDbMText
 10
7943.202780124334
 20
4849.573908408505
 30
0.0
 40
120.0
 41
0.0
 71
     5
 72
     1
  1
\A1;扉の出75
  7
STYLE1
 11
0.0000000000000001
 21
1.0
 31
0.0
 73
     1
 44
1.0
1001
ACAD
1000
MTEXTBEGIN
1070
    73
1070
     1
1070
    44
1040
1.0
1070
    74
1070
     0
1000
MTEXTEND
  0
POINT
  5
2E0F5
330
26F01
100
AcDbEntity
  8
DEFPOINTS
 62
     0
 48
50.0
100
AcDbPoint
 10
7776.600000000001
 20
5383.059189782745
 30
0.0
  0
POINT
  5
2E0F6
330
26F01
100
AcDbEntity
  8
DEFPOINTS
 62
     0
 48
50.0
100
AcDbPoint
 10
7776.600000000009
 20
5458.059189782744
 30
0.0
  0
POINT
  5
2E0F7
330
26F01
100
AcDbEntity
  8
DEFPOINTS
 62
     0
 48
50.0
100
AcDbPoint
 10
8043.202780124335
 20
5458.059189782744
 30
0.0
  0
ENDBLK
  5
26F0E
330
26F01
100
AcDbEntity
  8
0
 48
50.0
100
AcDbBlockEnd
  0
BLOCK
  5
26F27
330
26F1B
100
AcDbEntity
  8
0
 48
50.0
100
AcDbBlockBegin
  2
*D2
 70
     1
 10
0.0
 20
0.0
 30
0.0
  3
*D2
  1

  0
LINE
  5
2E0E2
330
26F1B
100
AcDbEntity
  8
寸法
 62
     0
 48
50.0
370
    -2
100
AcDbLine
 10
4232.657733986182
 20
8593.059189782721
 30
0.0
 11
3947.164931848215
 21
8593.059189782724
 31
0.0
  0
LINE
  5
2E0E3
330
26F1B
100
AcDbEntity
  8
寸法
 62
     0
 48
50.0
370
    -2
100
AcDbLine
 10
4728.600000000004
 20
8518.059189782718
 30
0.0
 11
3947.164931848215
 21
8518.05918978272
 31
0.0
  0
LINE
  5
2E0E4
330
26F1B
100
AcDbEntity
  8
寸法
 62
     0
 48
50.0
370
    -2
100
AcDbLine
 10
4007.164931848214
 20
8593.059189782724
 30
0.0
 11
4007.164931848214
 21
8693.059189782724
 31
0.0
  0
LINE
  5
2E0E5
330
26F1B
100
AcDbEntity
  8
寸法
 62
     0
 48
50.0
370
    -2
100
AcDbLine
 10
4007.164931848214
 20
8518.05918978272
 30
0.0
 11
4007.164931848214
 21
8418.05918978272
 31
0.0
  0
LINE
  5
2E0E6
330
26F1B
100
AcDbEntity
  8
寸法
 62
     0
 48
50.0
370
    -2
100
AcDbLine
 10
4007.164931848214
 20
8593.059189782724
 30
0.0
 11
4007.164931848214
 21
8518.05918978272
 31
0.0
  0
INSERT
  5
2E0E7
330
26F1B
100
AcDbEntity
  8
寸法
 62
     0
 48
50.0
370
    -2
100
AcDbBlockReference
  2
_DOTSMALL
 10
4007.164931848214
 20
8593.059189782724
 30
0.0
 41
100.0
 42
100.0
 43
100.0
 50
270.0
  0
INSERT
  5
2E0E8
330
26F1B
100
AcDbEntity
  8
寸法
 62
     0
 48
50.0
370
    -2
100
AcDbBlockReference
  2
_DOTSMALL
 10
4007.164931848214
 20
8518.05918978272
 30
0.0
 41
100.0
 42
100.0
 43
100.0
 50
90.0
  0
MTEXT
  5
2E0E9
330
26F1B
100
AcDbEntity
  8
寸法
 62
     7
 48
50.0
100
AcDbMText
 10
3907.164931848213
 20
8555.559189782721
 30
0.0
 40
120.0
 41
0.0
 71
     5
 72
     1
  1
\A1;c
  7
STYLE1
 11
0.0000000000000001
 21
1.0
 31
0.0
 73
     1
 44
1.0
1001
ACAD
1000
MTEXTBEGIN
1070
    73
1070
     1
1070
    44
1040
1.0
1070
    74
1070
     0
1000
MTEXTEND
  0
POINT
  5
2E0EA
330
26F1B
100
AcDbEntity
  8
DEFPOINTS
 62
     0
 48
50.0
100
AcDbPoint
 10
4252.657733986182
 20
8593.059189782721
 30
0.0
  0
POINT
  5
2E0EB
330
26F1B
100
AcDbEntity
  8
DEFPOINTS
 62
     0
 48
50.0
100
AcDbPoint
 10
4748.600000000004
 20
8518.059189782718
 30
0.0
  0
POINT
  5
2E0EC
330
26F1B
100
AcDbEntity
  8
DEFPOINTS
 62
     0
 48
50.0
100
AcDbPoint
 10
4007.164931848214
 20
8518.05918978272
 30
0.0
  0
ENDBLK
  5
26F28
330
26F1B
100
AcDbEntity
  8
0
 48
50.0
100
AcDbBlockEnd
  0
BLOCK
  5
26F4C
330
26F40
100
AcDbEntity
  8
0
 48
50.0
100
AcDbBlockBegin
  2
*D3
 70
     1
 10
0.0
 20
0.0
 30
0.0
  3
*D3
  1

  0
LINE
  5
2E0D7
330
26F40
100
AcDbEntity
  8
寸法
 62
     0
 48
50.0
370
    -2
100
AcDbLine
 10
4735.050294581424
 20
5458.059189782719
 30
0.0
 11
3947.164931848211
 21
5458.059189782719
 31
0.0
  0
LINE
  5
2E0D8
330
26F40
100
AcDbEntity
  8
寸法
 62
     0
 48
50.0
370
    -2
100
AcDbLine
 10
4232.657733986182
 20
5403.059189782741
 30
0.0
 11
3947.164931848211
 21
5403.059189782741
 31
0.0
  0
LINE
  5
2E0D9
330
26F40
100
AcDbEntity
  8
寸法
 62
     0
 48
50.0
370
    -2
100
AcDbLine
 10
4007.164931848211
 20
5458.059189782719
 30
0.0
 11
4007.164931848211
 21
5558.059189782719
 31
0.0
  0
LINE
  5
2E0DA
330
26F40
100
AcDbEntity
  8
寸法
 62
     0
 48
50.0
370
    -2
100
AcDbLine
 10
4007.164931848211
 20
5403.059189782741
 30
0.0
 11
4007.164931848211
 21
5303.05918978274
 31
0.0
  0
LINE
  5
2E0DB
330
26F40
100
AcDbEntity
  8
寸法
 62
     0
 48
50.0
370
    -2
100
AcDbLine
 10
4007.164931848211
 20
5458.059189782719
 30
0.0
 11
4007.164931848211
 21
5403.059189782741
 31
0.0
  0
INSERT
  5
2E0DC
330
26F40
100
AcDbEntity
  8
寸法
 62
     0
 48
50.0
370
    -2
100
AcDbBlockReference
  2
_DOTSMALL
 10
4007.164931848211
 20
5458.059189782719
 30
0.0
 41
100.0
 42
100.0
 43
100.0
 50
270.0
  0
INSERT
  5
2E0DD
330
26F40
100
AcDbEntity
  8
寸法
 62
     0
 48
50.0
370
    -2
100
AcDbBlockReference
  2
_DOTSMALL
 10
4007.164931848211
 20
5403.059189782741
 30
0.0
 41
100.0
 42
100.0
 43
100.0
 50
90.0
  0
MTEXT
  5
2E0DE
330
26F40
100
AcDbEntity
  8
寸法
 62
     7
 48
50.0
100
AcDbMText
 10
3907.16493184821
 20
5430.55918978273
 30
0.0
 40
120.0
 41
0.0
 71
     5
 72
     1
  1
\A1;b
  7
STYLE1
 11
0.0000000000000001
 21
1.0
 31
0.0
 73
     1
 44
1.0
1001
ACAD
1000
MTEXTBEGIN
1070
    73
1070
     1
1070
    44
1040
1.0
1070
    74
1070
     0
1000
MTEXTEND
  0
POINT
  5
2E0DF
330
26F40
100
AcDbEntity
  8
DEFPOINTS
 62
     0
 48
50.0
100
AcDbPoint
 10
4755.050294581424
 20
5458.059189782719
 30
0.0
  0
POINT
  5
2E0E0
330
26F40
100
AcDbEntity
  8
DEFPOINTS
 62
     0
 48
50.0
100
AcDbPoint
 10
4252.657733986182
 20
5403.059189782741
 30
0.0
  0
POINT
  5
2E0E1
330
26F40
100
AcDbEntity
  8
DEFPOINTS
 62
     0
 48
50.0
100
AcDbPoint
 10
4007.164931848211
 20
5403.059189782741
 30
0.0
  0
ENDBLK
  5
26F4D
330
26F40
100
AcDbEntity
  8
0
 48
50.0
100
AcDbBlockEnd
  0
BLOCK
  5
26F71
330
26F65
100
AcDbEntity
  8
0
 48
50.0
100
AcDbBlockBegin
  2
*D4
 70
     1
 10
0.0
 20
0.0
 30
0.0
  3
*D4
  1

  0
LINE
  5
2E0CC
330
26F65
100
AcDbEntity
  8
寸法
 62
     0
 48
50.0
370
    -2
100
AcDbLine
 10
11698.6
 20
8538.059189782719
 30
0.0
 11
11698.6
 21
9536.279511841639
 31
0.0
  0
LINE
  5
2E0CD
330
26F65
100
AcDbEntity
  8
寸法
 62
     0
 48
50.0
370
    -2
100
AcDbLine
 10
11743.6
 20
9283.818816324801
 30
0.0
 11
11743.6
 21
9536.279511841639
 31
0.0
  0
LINE
  5
2E0CE
330
26F65
100
AcDbEntity
  8
寸法
 62
     0
 48
50.0
370
    -2
100
AcDbLine
 10
11698.6
 20
9476.27951184164
 30
0.0
 11
11598.6
 21
9476.27951184164
 31
0.0
  0
LINE
  5
2E0CF
330
26F65
100
AcDbEntity
  8
寸法
 62
     0
 48
50.0
370
    -2
100
AcDbLine
 10
11743.6
 20
9476.27951184164
 30
0.0
 11
12080.94924240491
 21
9476.27951184164
 31
0.0
  0
LINE
  5
2E0D0
330
26F65
100
AcDbEntity
  8
寸法
 62
     0
 48
50.0
370
    -2
100
AcDbLine
 10
11698.6
 20
9476.27951184164
 30
0.0
 11
11743.6
 21
9476.27951184164
 31
0.0
  0
INSERT
  5
2E0D1
330
26F65
100
AcDbEntity
  8
寸法
 62
     0
 48
50.0
370
    -2
100
AcDbBlockReference
  2
_DOTSMALL
 10
11698.6
 20
9476.27951184164
 30
0.0
 41
100.0
 42
100.0
 43
100.0
  0
INSERT
  5
2E0D2
330
26F65
100
AcDbEntity
  8
寸法
 62
     0
 48
50.0
370
    -2
100
AcDbBlockReference
  2
_DOTSMALL
 10
11743.6
 20
9476.27951184164
 30
0.0
 41
100.0
 42
100.0
 43
100.0
 50
180.0
  0
MTEXT
  5
2E0D3
330
26F65
100
AcDbEntity
  8
寸法
 62
     7
 48
50.0
100
AcDbMText
 10
12014.77462120245
 20
9576.27951184164
 30
0.0
 40
120.0
 41
0.0
 71
     5
 72
     1
  1
\A1;a
  7
STYLE1
 73
     1
 44
1.0
1001
ACAD
1000
MTEXTBEGIN
1070
    73
1070
     1
1070
    44
1040
1.0
1070
    74
1070
     0
1000
MTEXTEND
  0
POINT
  5
2E0D4
330
26F65
100
AcDbEntity
  8
DEFPOINTS
 62
     0
 48
50.0
100
AcDbPoint
 10
11698.6
 20
8518.059189782718
 30
0.0
  0
POINT
  5
2E0D5
330
26F65
100
AcDbEntity
  8
DEFPOINTS
 62
     0
 48
50.0
100
AcDbPoint
 10
11743.6
 20
9263.818816324802
 30
0.0
  0
POINT
  5
2E0D6
330
26F65
100
AcDbEntity
  8
DEFPOINTS
 62
     0
 48
50.0
100
AcDbPoint
 10
11743.6
 20
9476.27951184164
 30
0.0
  0
ENDBLK
  5
26F72
330
26F65
100
AcDbEntity
  8
0
 48
50.0
100
AcDbBlockEnd
  0
BLOCK
  5
26F8B
330
26F7F
100
AcDbEntity
  8
0
 48
50.0
100
AcDbBlockBegin
  2
*D5
 70
     1
 10
0.0
 20
0.0
 30
0.0
  3
*D5
  1

  0
LINE
  5
2E0C1
330
26F7F
100
AcDbEntity
  8
寸法
 62
     0
 48
50.0
370
    -2
100
AcDbLine
 10
4703.600000000005
 20
9283.818816324801
 30
0.0
 11
4703.600000000005
 21
9536.279511841639
 31
0.0
  0
LINE
  5
2E0C2
330
26F7F
100
AcDbEntity
  8
寸法
 62
     0
 48
50.0
370
    -2
100
AcDbLine
 10
4748.6
 20
8538.059189782719
 30
0.0
 11
4748.6
 21
9536.279511841639
 31
0.0
  0
LINE
  5
2E0C3
330
26F7F
100
AcDbEntity
  8
寸法
 62
     0
 48
50.0
370
    -2
100
AcDbLine
 10
4748.6
 20
9476.27951184164
 30
0.0
 11
4848.600000000001
 21
9476.27951184164
 31
0.0
  0
LINE
  5
2E0C4
330
26F7F
100
AcDbEntity
  8
寸法
 62
     0
 48
50.0
370
    -2
100
AcDbLine
 10
4703.600000000005
 20
9476.27951184164
 30
0.0
 11
4366.250757595084
 21
9476.27951184164
 31
0.0
  0
LINE
  5
2E0C5
330
26F7F
100
AcDbEntity
  8
寸法
 62
     0
 48
50.0
370
    -2
100
AcDbLine
 10
4748.6
 20
9476.27951184164
 30
0.0
 11
4703.600000000005
 21
9476.27951184164
 31
0.0
  0
INSERT
  5
2E0C6
330
26F7F
100
AcDbEntity
  8
寸法
 62
     0
 48
50.0
370
    -2
100
AcDbBlockReference
  2
_DOTSMALL
 10
4748.6
 20
9476.27951184164
 30
0.0
 41
100.0
 42
100.0
 43
100.0
 50
180.0
  0
INSERT
  5
2E0C7
330
26F7F
100
AcDbEntity
  8
寸法
 62
     0
 48
50.0
370
    -2
100
AcDbBlockReference
  2
_DOTSMALL
 10
4703.600000000005
 20
9476.27951184164
 30
0.0
 41
100.0
 42
100.0
 43
100.0
  0
MTEXT
  5
2E0C8
330
26F7F
100
AcDbEntity
  8
寸法
 62
     7
 48
50.0
100
AcDbMText
 10
4432.425378797542
 20
9576.27951184164
 30
0.0
 40
120.0
 41
0.0
 71
     5
 72
     1
  1
\A1;a
  7
STYLE1
 73
     1
 44
1.0
1001
ACAD
1000
MTEXTBEGIN
1070
    73
1070
     1
1070
    44
1040
1.0
1070
    74
1070
     0
1000
MTEXTEND
  0
POINT
  5
2E0C9
330
26F7F
100
AcDbEntity
  8
DEFPOINTS
 62
     0
 48
50.0
100
AcDbPoint
 10
4703.600000000005
 20
9263.818816324802
 30
0.0
  0
POINT
  5
2E0CA
330
26F7F
100
AcDbEntity
  8
DEFPOINTS
 62
     0
 48
50.0
100
AcDbPoint
 10
4748.6
 20
8518.059189782718
 30
0.0
  0
POINT
  5
2E0CB
330
26F7F
100
AcDbEntity
  8
DEFPOINTS
 62
     0
 48
50.0
100
AcDbPoint
 10
4748.6
 20
9476.27951184164
 30
0.0
  0
ENDBLK
  5
26F8C
330
26F7F
100
AcDbEntity
  8
0
 48
50.0
100
AcDbBlockEnd
  0
BLOCK
  5
2702B
330
2701F
100
AcDbEntity
  8
0
 48
50.0
100
AcDbBlockBegin
  2
*D6
 70
     1
 10
0.0
 20
0.0
 30
0.0
  3
*D6
  1

  0
LINE
  5
2E0B7
330
2701F
100
AcDbEntity
  8
寸法
 62
     0
 48
50.0
370
    -2
100
AcDbLine
 10
5641.6
 20
5383.059189782731
 30
0.0
 11
5949.18320630424
 21
5383.059189782731
 31
0.0
  0
LINE
  5
2E0B8
330
2701F
100
AcDbEntity
  8
寸法
 62
     0
 48
50.0
370
    -2
100
AcDbLine
 10
5641.6
 20
5578.059189782724
 30
0.0
 11
5949.18320630424
 21
5578.059189782724
 31
0.0
  0
LINE
  5
2E0B9
330
2701F
100
AcDbEntity
  8
寸法
 62
     0
 48
50.0
370
    -2
100
AcDbLine
 10
5889.18320630424
 20
5578.059189782724
 30
0.0
 11
5889.18320630424
 21
5383.059189782731
 31
0.0
  0
LINE
  5
2E0BA
330
2701F
100
AcDbEntity
  8
寸法
 62
     0
 48
50.0
370
    -2
100
AcDbLine
 10
5889.18320630424
 20
5383.059189782731
 30
0.0
 11
5889.18320630424
 21
5005.66930737494
 31
0.0
  0
INSERT
  5
2E0BB
330
2701F
100
AcDbEntity
  8
寸法
 62
     0
 48
50.0
370
    -2
100
AcDbBlockReference
  2
_DOTSMALL
 10
5889.18320630424
 20
5578.059189782724
 30
0.0
 41
100.0
 42
100.0
 43
100.0
 50
90.0
  0
INSERT
  5
2E0BC
330
2701F
100
AcDbEntity
  8
寸法
 62
     0
 48
50.0
370
    -2
100
AcDbBlockReference
  2
_DOTSMALL
 10
5889.18320630424
 20
5383.059189782731
 30
0.0
 41
100.0
 42
100.0
 43
100.0
 50
270.0
  0
MTEXT
  5
2E0BD
330
2701F
100
AcDbEntity
  8
寸法
 62
     7
 48
50.0
100
AcDbMText
 10
5789.183206304239
 20
5144.364248578837
 30
0.0
 40
120.0
 41
0.0
 71
     5
 72
     1
  1
\A1;195
  7
STYLE1
 11
0.0000000000000001
 21
1.0
 31
0.0
 73
     1
 44
1.0
1001
ACAD
1000
MTEXTBEGIN
1070
    73
1070
     1
1070
    44
1040
1.0
1070
    74
1070
     0
1000
MTEXTEND
  0
POINT
  5
2E0BE
330
2701F
100
AcDbEntity
  8
DEFPOINTS
 62
     0
 48
50.0
100
AcDbPoint
 10
5621.6
 20
5383.059189782731
 30
0.0
  0
POINT
  5
2E0BF
330
2701F
100
AcDbEntity
  8
DEFPOINTS
 62
     0
 48
50.0
100
AcDbPoint
 10
5621.6
 20
5578.059189782724
 30
0.0
  0
POINT
  5
2E0C0
330
2701F
100
AcDbEntity
  8
DEFPOINTS
 62
     0
 48
50.0
100
AcDbPoint
 10
5889.18320630424
 20
5578.059189782724
 30
0.0
  0
ENDBLK
  5
2702C
330
2701F
100
AcDbEntity
  8
0
 48
50.0
100
AcDbBlockEnd
  0
BLOCK
  5
2A574
330
2A56B
100
AcDbEntity
  8
0
 48
50.0
100
AcDbBlockBegin
  2
*D7
 70
     1
 10
0.0
 20
0.0
 30
0.0
  3
*D7
  1

  0
LINE
  5
2E0AE
330
2A56B
100
AcDbEntity
  8
寸法
 62
     0
 48
50.0
370
    -2
100
AcDbLine
 10
9126.600000000001
 20
7863.05918978272
 30
0.0
 11
9126.600000000001
 21
9104.968955431047
 31
0.0
  0
LINE
  5
2E0AF
330
2A56B
100
AcDbEntity
  8
寸法
 62
     0
 48
50.0
370
    -2
100
AcDbLine
 10
8223.600000000001
 20
7863.05918978272
 30
0.0
 11
8223.600000000001
 21
9104.968955431047
 31
0.0
  0
LINE
  5
2E0B0
330
2A56B
100
AcDbEntity
  8
寸法
 62
     0
 48
50.0
370
    -2
100
AcDbLine
 10
9126.600000000001
 20
9044.968955431048
 30
0.0
 11
8223.600000000001
 21
9044.968955431048
 31
0.0
  0
INSERT
  5
2E0B1
330
2A56B
100
AcDbEntity
  8
寸法
 62
     0
 48
50.0
370
    -2
100
AcDbBlockReference
  2
_DOTSMALL
 10
9126.600000000001
 20
9044.968955431048
 30
0.0
 41
100.0
 42
100.0
 43
100.0
  0
INSERT
  5
2E0B2
330
2A56B
100
AcDbEntity
  8
寸法
 62
     0
 48
50.0
370
    -2
100
AcDbBlockReference
  2
_DOTSMALL
 10
8223.600000000001
 20
9044.968955431048
 30
0.0
 41
100.0
 42
100.0
 43
100.0
 50
180.0
  0
MTEXT
  5
2E0B3
330
2A56B
100
AcDbEntity
  8
寸法
 62
     7
 48
50.0
100
AcDbMText
 10
8675.1
 20
9144.968955431048
 30
0.0
 40
120.0
 41
0.0
 71
     5
 72
     1
  1
\A1;903
  7
STYLE1
 73
     1
 44
1.0
1001
ACAD
1000
MTEXTBEGIN
1070
    73
1070
     1
1070
    44
1040
1.0
1070
    74
1070
     0
1000
MTEXTEND
  0
POINT
  5
2E0B4
330
2A56B
100
AcDbEntity
  8
DEFPOINTS
 62
     0
 48
50.0
100
AcDbPoint
 10
9126.600000000001
 20
7843.05918978272
 30
0.0
  0
POINT
  5
2E0B5
330
2A56B
100
AcDbEntity
  8
DEFPOINTS
 62
     0
 48
50.0
100
AcDbPoint
 10
8223.600000000001
 20
7843.05918978272
 30
0.0
  0
POINT
  5
2E0B6
330
2A56B
100
AcDbEntity
  8
DEFPOINTS
 62
     0
 48
50.0
100
AcDbPoint
 10
8223.600000000001
 20
9044.968955431048
 30
0.0
  0
ENDBLK
  5
2A575
330
2A56B
100
AcDbEntity
  8
0
 48
50.0
100
AcDbBlockEnd
  0
BLOCK
  5
2A57F
330
2A576
100
AcDbEntity
  8
0
 48
50.0
100
AcDbBlockBegin
  2
*D8
 70
     1
 10
0.0
 20
0.0
 30
0.0
  3
*D8
  1

  0
LINE
  5
2E0A5
330
2A576
100
AcDbEntity
  8
寸法
 62
     0
 48
50.0
370
    -2
100
AcDbLine
 10
11575.6
 20
8465.059189782719
 30
0.0
 11
11575.6
 21
9323.818816324804
 31
0.0
  0
LINE
  5
2E0A6
330
2A576
100
AcDbEntity
  8
寸法
 62
     0
 48
50.0
370
    -2
100
AcDbLine
 10
8105.6
 20
8465.059189782719
 30
0.0
 11
8105.6
 21
9323.818816324804
 31
0.0
  0
LINE
  5
2E0A7
330
2A576
100
AcDbEntity
  8
寸法
 62
     0
 48
50.0
370
    -2
100
AcDbLine
 10
11575.6
 20
9263.818816324803
 30
0.0
 11
8105.6
 21
9263.818816324803
 31
0.0
  0
INSERT
  5
2E0A8
330
2A576
100
AcDbEntity
  8
寸法
 62
     0
 48
50.0
370
    -2
100
AcDbBlockReference
  2
_DOTSMALL
 10
11575.6
 20
9263.818816324803
 30
0.0
 41
100.0
 42
100.0
 43
100.0
  0
INSERT
  5
2E0A9
330
2A576
100
AcDbEntity
  8
寸法
 62
     0
 48
50.0
370
    -2
100
AcDbBlockReference
  2
_DOTSMALL
 10
8105.6
 20
9263.818816324803
 30
0.0
 41
100.0
 42
100.0
 43
100.0
 50
180.0
  0
MTEXT
  5
2E0AA
330
2A576
100
AcDbEntity
  8
寸法
 62
     7
 48
50.0
100
AcDbMText
 10
9840.600000000002
 20
9363.818816324803
 30
0.0
 40
120.0
 41
0.0
 71
     5
 72
     1
  1
\A1;3470
  7
STYLE1
 73
     1
 44
1.0
1001
ACAD
1000
MTEXTBEGIN
1070
    73
1070
     1
1070
    44
1040
1.0
1070
    74
1070
     0
1000
MTEXTEND
  0
POINT
  5
2E0AB
330
2A576
100
AcDbEntity
  8
DEFPOINTS
 62
     0
 48
50.0
100
AcDbPoint
 10
11575.6
 20
8445.059189782718
 30
0.0
  0
POINT
  5
2E0AC
330
2A576
100
AcDbEntity
  8
DEFPOINTS
 62
     0
 48
50.0
100
AcDbPoint
 10
8105.6
 20
8445.059189782718
 30
0.0
  0
POINT
  5
2E0AD
330
2A576
100
AcDbEntity
  8
DEFPOINTS
 62
     0
 48
50.0
100
AcDbPoint
 10
8105.6
 20
9263.818816324803
 30
0.0
  0
ENDBLK
  5
2A580
330
2A576
100
AcDbEntity
  8
0
 48
50.0
100
AcDbBlockEnd
  0
BLOCK
  5
2A58A
330
2A581
100
AcDbEntity
  8
0
 48
50.0
100
AcDbBlockBegin
  2
*D9
 70
     1
 10
0.0
 20
0.0
 30
0.0
  3
*D9
  1

  0
LINE
  5
2E09C
330
2A581
100
AcDbEntity
  8
寸法
 62
     0
 48
50.0
370
    -2
100
AcDbLine
 10
4748.6
 20
8538.059189782719
 30
0.0
 11
4748.6
 21
9536.279511841639
 31
0.0
  0
LINE
  5
2E09D
330
2A581
100
AcDbEntity
  8
寸法
 62
     0
 48
50.0
370
    -2
100
AcDbLine
 10
11698.6
 20
8538.059189782719
 30
0.0
 11
11698.6
 21
9536.279511841639
 31
0.0
  0
LINE
  5
2E09E
330
2A581
100
AcDbEntity
  8
寸法
 62
     0
 48
50.0
370
    -2
100
AcDbLine
 10
4748.6
 20
9476.27951184164
 30
0.0
 11
11698.6
 21
9476.27951184164
 31
0.0
  0
INSERT
  5
2E09F
330
2A581
100
AcDbEntity
  8
寸法
 62
     0
 48
50.0
370
    -2
100
AcDbBlockReference
  2
_DOTSMALL
 10
4748.6
 20
9476.27951184164
 30
0.0
 41
100.0
 42
100.0
 43
100.0
 50
180.0
  0
INSERT
  5
2E0A0
330
2A581
100
AcDbEntity
  8
寸法
 62
     0
 48
50.0
370
    -2
100
AcDbBlockReference
  2
_DOTSMALL
 10
11698.6
 20
9476.27951184164
 30
0.0
 41
100.0
 42
100.0
 43
100.0
  0
MTEXT
  5
2E0A1
330
2A581
100
AcDbEntity
  8
寸法
 62
     7
 48
50.0
100
AcDbMText
 10
8223.600000000001
 20
9576.27951184164
 30
0.0
 40
120.0
 41
0.0
 71
     5
 72
     1
  1
\A1;6950
  7
STYLE1
 73
     1
 44
1.0
1001
ACAD
1000
MTEXTBEGIN
1070
    73
1070
     1
1070
    44
1040
1.0
1070
    74
1070
     0
1000
MTEXTEND
  0
POINT
  5
2E0A2
330
2A581
100
AcDbEntity
  8
DEFPOINTS
 62
     0
 48
50.0
100
AcDbPoint
 10
4748.6
 20
8518.05918978272
 30
0.0
  0
POINT
  5
2E0A3
330
2A581
100
AcDbEntity
  8
DEFPOINTS
 62
     0
 48
50.0
100
AcDbPoint
 10
11698.6
 20
8518.05918978272
 30
0.0
  0
POINT
  5
2E0A4
330
2A581
100
AcDbEntity
  8
DEFPOINTS
 62
     0
 48
50.0
100
AcDbPoint
 10
11698.6
 20
9476.27951184164
 30
0.0
  0
ENDBLK
  5
2A58B
330
2A581
100
AcDbEntity
  8
0
 48
50.0
100
AcDbBlockEnd
  0
BLOCK
  5
2A5AC
330
2A5A3
100
AcDbEntity
  8
0
 48
50.0
100
AcDbBlockBegin
  2
*D10
 70
     1
 10
0.0
 20
0.0
 30
0.0
  3
*D10
  1

  0
LINE
  5
2E093
330
2A5A3
100
AcDbEntity
  8
寸法
 62
     0
 48
50.0
370
    -2
100
AcDbLine
 10
4728.6
 20
8518.05918978272
 30
0.0
 11
3947.164931848212
 21
8518.059189782722
 31
0.0
  0
LINE
  5
2E094
330
2A5A3
100
AcDbEntity
  8
寸法
 62
     0
 48
50.0
370
    -2
100
AcDbLine
 10
4728.6
 20
5458.059189782719
 30
0.0
 11
3947.164931848211
 21
5458.059189782719
 31
0.0
  0
LINE
  5
2E095
330
2A5A3
100
AcDbEntity
  8
寸法
 62
     0
 48
50.0
370
    -2
100
AcDbLine
 10
4007.164931848211
 20
8518.059189782722
 30
0.0
 11
4007.164931848211
 21
5458.059189782719
 31
0.0
  0
INSERT
  5
2E096
330
2A5A3
100
AcDbEntity
  8
寸法
 62
     0
 48
50.0
370
    -2
100
AcDbBlockReference
  2
_DOTSMALL
 10
4007.164931848211
 20
8518.059189782722
 30
0.0
 41
100.0
 42
100.0
 43
100.0
 50
90.0
  0
INSERT
  5
2E097
330
2A5A3
100
AcDbEntity
  8
寸法
 62
     0
 48
50.0
370
    -2
100
AcDbBlockReference
  2
_DOTSMALL
 10
4007.164931848211
 20
5458.059189782719
 30
0.0
 41
100.0
 42
100.0
 43
100.0
 50
270.0
  0
MTEXT
  5
2E098
330
2A5A3
100
AcDbEntity
  8
寸法
 62
     7
 48
50.0
100
AcDbMText
 10
3907.16493184821
 20
6988.059189782721
 30
0.0
 40
120.0
 41
0.0
 71
     5
 72
     1
  1
\A1;3060
  7
STYLE1
 11
0.0000000000000001
 21
1.0
 31
0.0
 73
     1
 44
1.0
1001
ACAD
1000
MTEXTBEGIN
1070
    73
1070
     1
1070
    44
1040
1.0
1070
    74
1070
     0
1000
MTEXTEND
  0
POINT
  5
2E099
330
2A5A3
100
AcDbEntity
  8
DEFPOINTS
 62
     0
 48
50.0
100
AcDbPoint
 10
4748.6
 20
8518.05918978272
 30
0.0
  0
POINT
  5
2E09A
330
2A5A3
100
AcDbEntity
  8
DEFPOINTS
 62
     0
 48
50.0
100
AcDbPoint
 10
4748.6
 20
5458.059189782719
 30
0.0
  0
POINT
  5
2E09B
330
2A5A3
100
AcDbEntity
  8
DEFPOINTS
 62
     0
 48
50.0
100
AcDbPoint
 10
4007.164931848211
 20
5458.059189782719
 30
0.0
  0
ENDBLK
  5
2A5AD
330
2A5A3
100
AcDbEntity
  8
0
 48
50.0
100
AcDbBlockEnd
  0
BLOCK
  5
2A5B8
330
2A5AE
100
AcDbEntity
  8
0
 48
50.0
100
AcDbBlockBegin
  2
*D11
 70
     1
 10
0.0
 20
0.0
 30
0.0
  3
*D11
  1

  0
LINE
  5
2E08A
330
2A5AE
100
AcDbEntity
  8
寸法
 62
     0
 48
50.0
370
    -2
100
AcDbLine
 10
4801.6
 20
8395.059189782719
 30
0.0
 11
4192.657733986176
 21
8395.059189782719
 31
0.0
  0
LINE
  5
2E08B
330
2A5AE
100
AcDbEntity
  8
寸法
 62
     0
 48
50.0
370
    -2
100
AcDbLine
 10
4801.600000000007
 20
5581.05918978272
 30
0.0
 11
4192.657733986175
 21
5581.05918978272
 31
0.0
  0
LINE
  5
2E08C
330
2A5AE
100
AcDbEntity
  8
寸法
 62
     0
 48
50.0
370
    -2
100
AcDbLine
 10
4252.657733986175
 20
8395.059189782719
 30
0.0
 11
4252.657733986175
 21
5581.05918978272
 31
0.0
  0
INSERT
  5
2E08D
330
2A5AE
100
AcDbEntity
  8
寸法
 62
     0
 48
50.0
370
    -2
100
AcDbBlockReference
  2
_DOTSMALL
 10
4252.657733986175
 20
8395.059189782719
 30
0.0
 41
100.0
 42
100.0
 43
100.0
 50
90.0
  0
INSERT
  5
2E08E
330
2A5AE
100
AcDbEntity
  8
寸法
 62
     0
 48
50.0
370
    -2
100
AcDbBlockReference
  2
_DOTSMALL
 10
4252.657733986175
 20
5581.05918978272
 30
0.0
 41
100.0
 42
100.0
 43
100.0
 50
270.0
  0
MTEXT
  5
2E08F
330
2A5AE
100
AcDbEntity
  8
寸法
 62
     7
 48
50.0
100
AcDbMText
 10
4152.645922962552
 20
6988.05918978272
 30
0.0
 40
120.0
 41
0.0
 71
     5
 72
     1
  1
\A1;2814
  7
STYLE1
 11
0.0000000000000001
 21
1.0
 31
0.0
 73
     1
 44
1.0
1001
ACAD
1000
MTEXTBEGIN
1070
    73
1070
     1
1070
    44
1040
1.0
1070
    74
1070
     0
1000
MTEXTEND
  0
POINT
  5
2E090
330
2A5AE
100
AcDbEntity
  8
DEFPOINTS
 62
     0
 48
50.0
100
AcDbPoint
 10
4821.6
 20
8395.059189782719
 30
0.0
  0
POINT
  5
2E091
330
2A5AE
100
AcDbEntity
  8
DEFPOINTS
 62
     0
 48
50.0
100
AcDbPoint
 10
4821.600000000008
 20
5581.05918978272
 30
0.0
  0
POINT
  5
2E092
330
2A5AE
100
AcDbEntity
  8
DEFPOINTS
 62
     0
 48
50.0
100
AcDbPoint
 10
4252.657733986175
 20
5581.05918978272
 30
0.0
  0
ENDBLK
  5
2A5B9
330
2A5AE
100
AcDbEntity
  8
0
 48
50.0
100
AcDbBlockEnd
  0
BLOCK
  5
2A5E4
330
2A5DB
100
AcDbEntity
  8
0
 48
50.0
100
AcDbBlockBegin
  2
*D12
 70
     1
 10
0.0
 20
0.0
 30
0.0
  3
*D12
  1

  0
LINE
  5
2E081
330
2A5DB
100
AcDbEntity
  8
寸法
 62
     0
 48
50.0
370
    -2
100
AcDbLine
 10
5621.6
 20
5363.059189782709
 30
0.0
 11
5621.6
 21
4779.052800128
 31
0.0
  0
LINE
  5
2E082
330
2A5DB
100
AcDbEntity
  8
寸法
 62
     0
 48
50.0
370
    -2
100
AcDbLine
 10
4748.6
 20
5438.059189782719
 30
0.0
 11
4748.6
 21
4779.052800128
 31
0.0
  0
LINE
  5
2E083
330
2A5DB
100
AcDbEntity
  8
寸法
 62
     0
 48
50.0
370
    -2
100
AcDbLine
 10
5621.6
 20
4839.052800128
 30
0.0
 11
4748.6
 21
4839.052800128
 31
0.0
  0
INSERT
  5
2E084
330
2A5DB
100
AcDbEntity
  8
寸法
 62
     0
 48
50.0
370
    -2
100
AcDbBlockReference
  2
_DOTSMALL
 10
5621.6
 20
4839.052800128
 30
0.0
 41
100.0
 42
100.0
 43
100.0
  0
INSERT
  5
2E085
330
2A5DB
100
AcDbEntity
  8
寸法
 62
     0
 48
50.0
370
    -2
100
AcDbBlockReference
  2
_DOTSMALL
 10
4748.6
 20
4839.052800128
 30
0.0
 41
100.0
 42
100.0
 43
100.0
 50
180.0
  0
MTEXT
  5
2E086
330
2A5DB
100
AcDbEntity
  8
寸法
 62
     7
 48
50.0
100
AcDbMText
 10
5185.100000000001
 20
4939.052800128
 30
0.0
 40
120.0
 41
0.0
 71
     5
 72
     1
  1
\A1;873
  7
STYLE1
 73
     1
 44
1.0
1001
ACAD
1000
MTEXTBEGIN
1070
    73
1070
     1
1070
    44
1040
1.0
1070
    74
1070
     0
1000
MTEXTEND
  0
POINT
  5
2E087
330
2A5DB
100
AcDbEntity
  8
DEFPOINTS
 62
     0
 48
50.0
100
AcDbPoint
 10
5621.6
 20
5383.059189782709
 30
0.0
  0
POINT
  5
2E088
330
2A5DB
100
AcDbEntity
  8
DEFPOINTS
 62
     0
 48
50.0
100
AcDbPoint
 10
4748.6
 20
5458.059189782719
 30
0.0
  0
POINT
  5
2E089
330
2A5DB
100
AcDbEntity
  8
DEFPOINTS
 62
     0
 48
50.0
100
AcDbPoint
 10
4748.6
 20
4839.052800128
 30
0.0
  0
ENDBLK
  5
2A5E5
330
2A5DB
100
AcDbEntity
  8
0
 48
50.0
100
AcDbBlockEnd
  0
BLOCK
  5
2A5FD
330
2A5F2
100
AcDbEntity
  8
0
 48
50.0
100
AcDbBlockBegin
  2
*D13
 70
     1
 10
0.0
 20
0.0
 30
0.0
  3
*D13
  1

  0
LINE
  5
2E077
330
2A5F2
100
AcDbEntity
  8
寸法
 62
     0
 48
50.0
370
    -2
100
AcDbLine
 10
4801.600000000007
 20
5581.05918978272
 30
0.0
 11
4192.657733986179
 21
5581.05918978272
 31
0.0
  0
LINE
  5
2E078
330
2A5F2
100
AcDbEntity
  8
寸法
 62
     0
 48
50.0
370
    -2
100
AcDbLine
 10
4728.6
 20
5458.059189782719
 30
0.0
 11
4192.657733986179
 21
5458.059189782719
 31
0.0
  0
LINE
  5
2E079
330
2A5F2
100
AcDbEntity
  8
寸法
 62
     0
 48
50.0
370
    -2
100
AcDbLine
 10
4252.657733986178
 20
5581.05918978272
 30
0.0
 11
4252.657733986178
 21
5458.059189782719
 31
0.0
  0
LINE
  5
2E07A
330
2A5F2
100
AcDbEntity
  8
寸法
 62
     0
 48
50.0
370
    -2
100
AcDbLine
 10
4252.657733986178
 20
5458.059189782719
 30
0.0
 11
4252.657733986178
 21
4984.042959565888
 31
0.0
  0
INSERT
  5
2E07B
330
2A5F2
100
AcDbEntity
  8
寸法
 62
     0
 48
50.0
370
    -2
100
AcDbBlockReference
  2
_DOTSMALL
 10
4252.657733986178
 20
5581.05918978272
 30
0.0
 41
100.0
 42
100.0
 43
100.0
 50
90.0
  0
INSERT
  5
2E07C
330
2A5F2
100
AcDbEntity
  8
寸法
 62
     0
 48
50.0
370
    -2
100
AcDbBlockReference
  2
_DOTSMALL
 10
4252.657733986178
 20
5458.059189782719
 30
0.0
 41
100.0
 42
100.0
 43
100.0
 50
270.0
  0
MTEXT
  5
2E07D
330
2A5F2
100
AcDbEntity
  8
寸法
 62
     7
 48
50.0
100
AcDbMText
 10
4152.645922962556
 20
5122.528240940128
 30
0.0
 40
120.0
 41
0.0
 71
     5
 72
     1
  1
\A1;123
  7
STYLE1
 11
0.0000000000000001
 21
1.0
 31
0.0
 73
     1
 44
1.0
1001
ACAD
1000
MTEXTBEGIN
1070
    73
1070
     1
1070
    44
1040
1.0
1070
    74
1070
     0
1000
MTEXTEND
  0
POINT
  5
2E07E
330
2A5F2
100
AcDbEntity
  8
DEFPOINTS
 62
     0
 48
50.0
100
AcDbPoint
 10
4821.600000000008
 20
5581.05918978272
 30
0.0
  0
POINT
  5
2E07F
330
2A5F2
100
AcDbEntity
  8
DEFPOINTS
 62
     0
 48
50.0
100
AcDbPoint
 10
4748.6
 20
5458.059189782719
 30
0.0
  0
POINT
  5
2E080
330
2A5F2
100
AcDbEntity
  8
DEFPOINTS
 62
     0
 48
50.0
100
AcDbPoint
 10
4252.657733986178
 20
5458.059189782719
 30
0.0
  0
ENDBLK
  5
2A5FE
330
2A5F2
100
AcDbEntity
  8
0
 48
50.0
100
AcDbBlockEnd
  0
BLOCK
  5
2A616
330
2A60B
100
AcDbEntity
  8
0
 48
50.0
100
AcDbBlockBegin
  2
*D14
 70
     1
 10
0.0
 20
0.0
 30
0.0
  3
*D14
  1

  0
LINE
  5
2E06D
330
2A60B
100
AcDbEntity
  8
寸法
 62
     0
 48
50.0
370
    -2
100
AcDbLine
 10
5000.349773270519
 20
8398.059189782719
 30
0.0
 11
5255.3072498761
 21
8398.059189782719
 31
0.0
  0
LINE
  5
2E06E
330
2A60B
100
AcDbEntity
  8
寸法
 62
     0
 48
50.0
370
    -2
100
AcDbLine
 10
4998.600000000003
 20
8518.059189782718
 30
0.0
 11
5255.3072498761
 21
8518.059189782718
 31
0.0
  0
LINE
  5
2E06F
330
2A60B
100
AcDbEntity
  8
寸法
 62
     0
 48
50.0
370
    -2
100
AcDbLine
 10
5195.3072498761
 20
8398.059189782719
 30
0.0
 11
5195.3072498761
 21
8518.059189782718
 31
0.0
  0
LINE
  5
2E070
330
2A60B
100
AcDbEntity
  8
寸法
 62
     0
 48
50.0
370
    -2
100
AcDbLine
 10
5195.3072498761
 20
8518.059189782718
 30
0.0
 11
5195.3072498761
 21
8932.189977150093
 31
0.0
  0
INSERT
  5
2E071
330
2A60B
100
AcDbEntity
  8
寸法
 62
     0
 48
50.0
370
    -2
100
AcDbBlockReference
  2
_DOTSMALL
 10
5195.3072498761
 20
8398.059189782719
 30
0.0
 41
100.0
 42
100.0
 43
100.0
 50
270.0
  0
INSERT
  5
2E072
330
2A60B
100
AcDbEntity
  8
寸法
 62
     0
 48
50.0
370
    -2
100
AcDbBlockReference
  2
_DOTSMALL
 10
5195.3072498761
 20
8518.059189782718
 30
0.0
 41
100.0
 42
100.0
 43
100.0
 50
90.0
  0
MTEXT
  5
2E073
330
2A60B
100
AcDbEntity
  8
寸法
 62
     7
 48
50.0
100
AcDbMText
 10
5095.295438852478
 20
8796.142733055605
 30
0.0
 40
120.0
 41
0.0
 71
     5
 72
     1
  1
\A1;120
  7
STYLE1
 11
0.0000000000000001
 21
1.0
 31
0.0
 73
     1
 44
1.0
1001
ACAD
1000
MTEXTBEGIN
1070
    73
1070
     1
1070
    44
1040
1.0
1070
    74
1070
     0
1000
MTEXTEND
  0
POINT
  5
2E074
330
2A60B
100
AcDbEntity
  8
DEFPOINTS
 62
     0
 48
50.0
100
AcDbPoint
 10
4980.349773270519
 20
8398.059189782719
 30
0.0
  0
POINT
  5
2E075
330
2A60B
100
AcDbEntity
  8
DEFPOINTS
 62
     0
 48
50.0
100
AcDbPoint
 10
4978.600000000002
 20
8518.059189782718
 30
0.0
  0
POINT
  5
2E076
330
2A60B
100
AcDbEntity
  8
DEFPOINTS
 62
     0
 48
50.0
100
AcDbPoint
 10
5195.3072498761
 20
8518.059189782718
 30
0.0
  0
ENDBLK
  5
2A617
330
2A60B
100
AcDbEntity
  8
0
 48
50.0
100
AcDbBlockEnd
  0
BLOCK
  5
2A621
330
2A618
100
AcDbEntity
  8
0
 48
50.0
100
AcDbBlockBegin
  2
*D15
 70
     1
 10
0.0
 20
0.0
 30
0.0
  3
*D15
  1

  0
LINE
  5
2E064
330
2A618
100
AcDbEntity
  8
寸法
 62
     0
 48
50.0
370
    -2
100
AcDbLine
 10
5656.6
 20
7863.05918978272
 30
0.0
 11
5656.6
 21
9104.968955431047
 31
0.0
  0
LINE
  5
2E065
330
2A618
100
AcDbEntity
  8
寸法
 62
     0
 48
50.0
370
    -2
100
AcDbLine
 10
4748.6
 20
8538.059189782719
 30
0.0
 11
4748.6
 21
9104.968955431047
 31
0.0
  0
LINE
  5
2E066
330
2A618
100
AcDbEntity
  8
寸法
 62
     0
 48
50.0
370
    -2
100
AcDbLine
 10
5656.6
 20
9044.968955431048
 30
0.0
 11
4748.6
 21
9044.968955431048
 31
0.0
  0
INSERT
  5
2E067
330
2A618
100
AcDbEntity
  8
寸法
 62
     0
 48
50.0
370
    -2
100
AcDbBlockReference
  2
_DOTSMALL
 10
5656.6
 20
9044.968955431048
 30
0.0
 41
100.0
 42
100.0
 43
100.0
  0
INSERT
  5
2E068
330
2A618
100
AcDbEntity
  8
寸法
 62
     0
 48
50.0
370
    -2
100
AcDbBlockReference
  2
_DOTSMALL
 10
4748.6
 20
9044.968955431048
 30
0.0
 41
100.0
 42
100.0
 43
100.0
 50
180.0
  0
MTEXT
  5
2E069
330
2A618
100
AcDbEntity
  8
寸法
 62
     7
 48
50.0
100
AcDbMText
 10
5202.6
 20
9144.968955431048
 30
0.0
 40
120.0
 41
0.0
 71
     5
 72
     1
  1
\A1;908
  7
STYLE1
 73
     1
 44
1.0
1001
ACAD
1000
MTEXTBEGIN
1070
    73
1070
     1
1070
    44
1040
1.0
1070
    74
1070
     0
1000
MTEXTEND
  0
POINT
  5
2E06A
330
2A618
100
AcDbEntity
  8
DEFPOINTS
 62
     0
 48
50.0
100
AcDbPoint
 10
5656.6
 20
7843.05918978272
 30
0.0
  0
POINT
  5
2E06B
330
2A618
100
AcDbEntity
  8
DEFPOINTS
 62
     0
 48
50.0
100
AcDbPoint
 10
4748.6
 20
8518.05918978272
 30
0.0
  0
POINT
  5
2E06C
330
2A618
100
AcDbEntity
  8
DEFPOINTS
 62
     0
 48
50.0
100
AcDbPoint
 10
4748.6
 20
9044.968955431048
 30
0.0
  0
ENDBLK
  5
2A622
330
2A618
100
AcDbEntity
  8
0
 48
50.0
100
AcDbBlockEnd
  0
BLOCK
  5
2A62E
330
2A623
100
AcDbEntity
  8
0
 48
50.0
100
AcDbBlockBegin
  2
*D16
 70
     1
 10
0.0
 20
0.0
 30
0.0
  3
*D16
  1

  0
LINE
  5
2E05A
330
2A623
100
AcDbEntity
  8
寸法
 62
     0
 48
50.0
370
    -2
100
AcDbLine
 10
5000.349773270519
 20
8398.059189782719
 30
0.0
 11
5255.3072498761
 21
8398.059189782719
 31
0.0
  0
LINE
  5
2E05B
330
2A623
100
AcDbEntity
  8
寸法
 62
     0
 48
50.0
370
    -2
100
AcDbLine
 10
4998.6
 20
8288.059189782716
 30
0.0
 11
5255.3072498761
 21
8288.059189782716
 31
0.0
  0
LINE
  5
2E05C
330
2A623
100
AcDbEntity
  8
寸法
 62
     0
 48
50.0
370
    -2
100
AcDbLine
 10
5195.3072498761
 20
8398.059189782719
 30
0.0
 11
5195.3072498761
 21
8288.059189782716
 31
0.0
  0
LINE
  5
2E05D
330
2A623
100
AcDbEntity
  8
寸法
 62
     0
 48
50.0
370
    -2
100
AcDbLine
 10
5195.3072498761
 20
8288.059189782716
 30
0.0
 11
5195.3072498761
 21
7823.952890570118
 31
0.0
  0
INSERT
  5
2E05E
330
2A623
100
AcDbEntity
  8
寸法
 62
     0
 48
50.0
370
    -2
100
AcDbBlockReference
  2
_DOTSMALL
 10
5195.3072498761
 20
8398.059189782719
 30
0.0
 41
100.0
 42
100.0
 43
100.0
 50
90.0
  0
INSERT
  5
2E05F
330
2A623
100
AcDbEntity
  8
寸法
 62
     0
 48
50.0
370
    -2
100
AcDbBlockReference
  2
_DOTSMALL
 10
5195.3072498761
 20
8288.059189782716
 30
0.0
 41
100.0
 42
100.0
 43
100.0
 50
270.0
  0
MTEXT
  5
2E060
330
2A623
100
AcDbEntity
  8
寸法
 62
     7
 48
50.0
100
AcDbMText
 10
5095.3072498761
 20
7948.000134664606
 30
0.0
 40
120.0
 41
0.0
 71
     5
 72
     1
  1
\A1;110
  7
STYLE1
 11
0.0000000000000001
 21
1.0
 31
0.0
 73
     1
 44
1.0
1001
ACAD
1000
MTEXTBEGIN
1070
    73
1070
     1
1070
    44
1040
1.0
1070
    74
1070
     0
1000
MTEXTEND
  0
POINT
  5
2E061
330
2A623
100
AcDbEntity
  8
DEFPOINTS
 62
     0
 48
50.0
100
AcDbPoint
 10
4980.349773270519
 20
8398.059189782719
 30
0.0
  0
POINT
  5
2E062
330
2A623
100
AcDbEntity
  8
DEFPOINTS
 62
     0
 48
50.0
100
AcDbPoint
 10
4978.6
 20
8288.059189782716
 30
0.0
  0
POINT
  5
2E063
330
2A623
100
AcDbEntity
  8
DEFPOINTS
 62
     0
 48
50.0
100
AcDbPoint
 10
5195.3072498761
 20
8288.059189782716
 30
0.0
  0
ENDBLK
  5
2A62F
330
2A623
100
AcDbEntity
  8
0
 48
50.0
100
AcDbBlockEnd
  0
BLOCK
  5
2A63A
330
2A630
100
AcDbEntity
  8
0
 48
50.0
100
AcDbBlockBegin
  2
*D17
 70
     1
 10
0.0
 20
0.0
 30
0.0
  3
*D17
  1

  0
LINE
  5
2E051
330
2A630
100
AcDbEntity
  8
寸法
 62
     0
 48
50.0
370
    -2
100
AcDbLine
 10
8105.6
 20
8465.059189782719
 30
0.0
 11
8105.6
 21
9323.818816324804
 31
0.0
  0
LINE
  5
2E052
330
2A630
100
AcDbEntity
  8
寸法
 62
     0
 48
50.0
370
    -2
100
AcDbLine
 10
4871.6
 20
8465.059189782719
 30
0.0
 11
4871.6
 21
9323.818816324804
 31
0.0
  0
LINE
  5
2E053
330
2A630
100
AcDbEntity
  8
寸法
 62
     0
 48
50.0
370
    -2
100
AcDbLine
 10
8105.6
 20
9263.818816324803
 30
0.0
 11
4871.6
 21
9263.818816324803
 31
0.0
  0
INSERT
  5
2E054
330
2A630
100
AcDbEntity
  8
寸法
 62
     0
 48
50.0
370
    -2
100
AcDbBlockReference
  2
_DOTSMALL
 10
8105.6
 20
9263.818816324803
 30
0.0
 41
100.0
 42
100.0
 43
100.0
  0
INSERT
  5
2E055
330
2A630
100
AcDbEntity
  8
寸法
 62
     0
 48
50.0
370
    -2
100
AcDbBlockReference
  2
_DOTSMALL
 10
4871.6
 20
9263.818816324803
 30
0.0
 41
100.0
 42
100.0
 43
100.0
 50
180.0
  0
MTEXT
  5
2E056
330
2A630
100
AcDbEntity
  8
寸法
 62
     7
 48
50.0
100
AcDbMText
 10
6488.600000000001
 20
9363.830627348425
 30
0.0
 40
120.0
 41
0.0
 71
     5
 72
     1
  1
\A1;3234
  7
STYLE1
 73
     1
 44
1.0
1001
ACAD
1000
MTEXTBEGIN
1070
    73
1070
     1
1070
    44
1040
1.0
1070
    74
1070
     0
1000
MTEXTEND
  0
POINT
  5
2E057
330
2A630
100
AcDbEntity
  8
DEFPOINTS
 62
     0
 48
50.0
100
AcDbPoint
 10
8105.6
 20
8445.059189782718
 30
0.0
  0
POINT
  5
2E058
330
2A630
100
AcDbEntity
  8
DEFPOINTS
 62
     0
 48
50.0
100
AcDbPoint
 10
4871.6
 20
8445.059189782718
 30
0.0
  0
POINT
  5
2E059
330
2A630
100
AcDbEntity
  8
DEFPOINTS
 62
     0
 48
50.0
100
AcDbPoint
 10
4871.6
 20
9263.818816324803
 30
0.0
  0
ENDBLK
  5
2A63B
330
2A630
100
AcDbEntity
  8
0
 48
50.0
100
AcDbBlockEnd
  0
BLOCK
  5
2A651
330
2A646
100
AcDbEntity
  8
0
 48
50.0
100
AcDbBlockBegin
  2
*D18
 70
     1
 10
0.0
 20
0.0
 30
0.0
  3
*D18
  1

  0
LINE
  5
2E047
330
2A646
100
AcDbEntity
  8
寸法
 62
     0
 48
50.0
370
    -2
100
AcDbLine
 10
4728.6
 20
8518.05918978272
 30
0.0
 11
4192.657733986179
 21
8518.05918978272
 31
0.0
  0
LINE
  5
2E048
330
2A646
100
AcDbEntity
  8
寸法
 62
     0
 48
50.0
370
    -2
100
AcDbLine
 10
4801.6
 20
8395.059189782719
 30
0.0
 11
4192.657733986179
 21
8395.059189782719
 31
0.0
  0
LINE
  5
2E049
330
2A646
100
AcDbEntity
  8
寸法
 62
     0
 48
50.0
370
    -2
100
AcDbLine
 10
4252.657733986178
 20
8395.059189782719
 30
0.0
 11
4252.657733986178
 21
8518.05918978272
 31
0.0
  0
LINE
  5
2E04A
330
2A646
100
AcDbEntity
  8
寸法
 62
     0
 48
50.0
370
    -2
100
AcDbLine
 10
4252.657733986178
 20
8518.05918978272
 30
0.0
 11
4252.657733986178
 21
8929.651072874754
 31
0.0
  0
INSERT
  5
2E04B
330
2A646
100
AcDbEntity
  8
寸法
 62
     0
 48
50.0
370
    -2
100
AcDbBlockReference
  2
_DOTSMALL
 10
4252.657733986178
 20
8395.059189782719
 30
0.0
 41
100.0
 42
100.0
 43
100.0
 50
270.0
  0
INSERT
  5
2E04C
330
2A646
100
AcDbEntity
  8
寸法
 62
     0
 48
50.0
370
    -2
100
AcDbBlockReference
  2
_DOTSMALL
 10
4252.657733986178
 20
8518.05918978272
 30
0.0
 41
100.0
 42
100.0
 43
100.0
 50
90.0
  0
MTEXT
  5
2E04D
330
2A646
100
AcDbEntity
  8
寸法
 62
     7
 48
50.0
100
AcDbMText
 10
4152.645922962556
 20
8791.165791500517
 30
0.0
 40
120.0
 41
0.0
 71
     5
 72
     1
  1
\A1;123
  7
STYLE1
 11
0.0000000000000001
 21
1.0
 31
0.0
 73
     1
 44
1.0
1001
ACAD
1000
MTEXTBEGIN
1070
    73
1070
     1
1070
    44
1040
1.0
1070
    74
1070
     0
1000
MTEXTEND
  0
POINT
  5
2E04E
330
2A646
100
AcDbEntity
  8
DEFPOINTS
 62
     0
 48
50.0
100
AcDbPoint
 10
4748.6
 20
8518.05918978272
 30
0.0
  0
POINT
  5
2E04F
330
2A646
100
AcDbEntity
  8
DEFPOINTS
 62
     0
 48
50.0
100
AcDbPoint
 10
4821.6
 20
8395.059189782719
 30
0.0
  0
POINT
  5
2E050
330
2A646
100
AcDbEntity
  8
DEFPOINTS
 62
     0
 48
50.0
100
AcDbPoint
 10
4252.657733986178
 20
8395.059189782719
 30
0.0
  0
ENDBLK
  5
2A652
330
2A646
100
AcDbEntity
  8
0
 48
50.0
100
AcDbBlockEnd
  0
BLOCK
  5
2A65E
330
2A653
100
AcDbEntity
  8
0
 48
50.0
100
AcDbBlockBegin
  2
*D19
 70
     1
 10
0.0
 20
0.0
 30
0.0
  3
*D19
  1

  0
LINE
  5
2E03D
330
2A653
100
AcDbEntity
  8
寸法
 62
     0
 48
50.0
370
    -2
100
AcDbLine
 10
4871.6
 20
8465.059189782719
 30
0.0
 11
4871.6
 21
9323.818816324804
 31
0.0
  0
LINE
  5
2E03E
330
2A653
100
AcDbEntity
  8
寸法
 62
     0
 48
50.0
370
    -2
100
AcDbLine
 10
4748.6
 20
8538.059189782719
 30
0.0
 11
4748.6
 21
9323.818816324804
 31
0.0
  0
LINE
  5
2E03F
330
2A653
100
AcDbEntity
  8
寸法
 62
     0
 48
50.0
370
    -2
100
AcDbLine
 10
4871.6
 20
9263.818816324803
 30
0.0
 11
4748.6
 21
9263.818816324803
 31
0.0
  0
LINE
  5
2E040
330
2A653
100
AcDbEntity
  8
寸法
 62
     0
 48
50.0
370
    -2
100
AcDbLine
 10
4748.6
 20
9263.818816324803
 30
0.0
 11
4337.008116907963
 21
9263.818816324803
 31
0.0
  0
INSERT
  5
2E041
330
2A653
100
AcDbEntity
  8
寸法
 62
     0
 48
50.0
370
    -2
100
AcDbBlockReference
  2
_DOTSMALL
 10
4871.6
 20
9263.818816324803
 30
0.0
 41
100.0
 42
100.0
 43
100.0
  0
INSERT
  5
2E042
330
2A653
100
AcDbEntity
  8
寸法
 62
     0
 48
50.0
370
    -2
100
AcDbBlockReference
  2
_DOTSMALL
 10
4748.6
 20
9263.818816324803
 30
0.0
 41
100.0
 42
100.0
 43
100.0
 50
180.0
  0
MTEXT
  5
2E043
330
2A653
100
AcDbEntity
  8
寸法
 62
     7
 48
50.0
100
AcDbMText
 10
4475.493398282202
 20
9363.830627348425
 30
0.0
 40
120.0
 41
0.0
 71
     5
 72
     1
  1
\A1;123
  7
STYLE1
 73
     1
 44
1.0
1001
ACAD
1000
MTEXTBEGIN
1070
    73
1070
     1
1070
    44
1040
1.0
1070
    74
1070
     0
1000
MTEXTEND
  0
POINT
  5
2E044
330
2A653
100
AcDbEntity
  8
DEFPOINTS
 62
     0
 48
50.0
100
AcDbPoint
 10
4871.6
 20
8445.059189782718
 30
0.0
  0
POINT
  5
2E045
330
2A653
100
AcDbEntity
  8
DEFPOINTS
 62
     0
 48
50.0
100
AcDbPoint
 10
4748.6
 20
8518.05918978272
 30
0.0
  0
POINT
  5
2E046
330
2A653
100
AcDbEntity
  8
DEFPOINTS
 62
     0
 48
50.0
100
AcDbPoint
 10
4748.6
 20
9263.818816324803
 30
0.0
  0
ENDBLK
  5
2A65F
330
2A653
100
AcDbEntity
  8
0
 48
50.0
100
AcDbBlockEnd
  0
BLOCK
  5
2A676
330
2A66D
100
AcDbEntity
  8
0
 48
50.0
100
AcDbBlockBegin
  2
*D20
 70
     1
 10
0.0
 20
0.0
 30
0.0
  3
*D20
  1

  0
LINE
  5
2E034
330
2A66D
100
AcDbEntity
  8
寸法
 62
     0
 48
50.0
370
    -2
100
AcDbLine
 10
8223.600000000001
 20
7863.05918978272
 30
0.0
 11
8223.600000000001
 21
9104.968955431047
 31
0.0
  0
LINE
  5
2E035
330
2A66D
100
AcDbEntity
  8
寸法
 62
     0
 48
50.0
370
    -2
100
AcDbLine
 10
7320.6
 20
7863.05918978272
 30
0.0
 11
7320.6
 21
9104.968955431047
 31
0.0
  0
LINE
  5
2E036
330
2A66D
100
AcDbEntity
  8
寸法
 62
     0
 48
50.0
370
    -2
100
AcDbLine
 10
8223.600000000001
 20
9044.968955431048
 30
0.0
 11
7320.6
 21
9044.968955431048
 31
0.0
  0
INSERT
  5
2E037
330
2A66D
100
AcDbEntity
  8
寸法
 62
     0
 48
50.0
370
    -2
100
AcDbBlockReference
  2
_DOTSMALL
 10
8223.600000000001
 20
9044.968955431048
 30
0.0
 41
100.0
 42
100.0
 43
100.0
  0
INSERT
  5
2E038
330
2A66D
100
AcDbEntity
  8
寸法
 62
     0
 48
50.0
370
    -2
100
AcDbBlockReference
  2
_DOTSMALL
 10
7320.6
 20
9044.968955431048
 30
0.0
 41
100.0
 42
100.0
 43
100.0
 50
180.0
  0
MTEXT
  5
2E039
330
2A66D
100
AcDbEntity
  8
寸法
 62
     7
 48
50.0
100
AcDbMText
 10
7772.1
 20
9144.968955431048
 30
0.0
 40
120.0
 41
0.0
 71
     5
 72
     1
  1
\A1;903
  7
STYLE1
 73
     1
 44
1.0
1001
ACAD
1000
MTEXTBEGIN
1070
    73
1070
     1
1070
    44
1040
1.0
1070
    74
1070
     0
1000
MTEXTEND
  0
POINT
  5
2E03A
330
2A66D
100
AcDbEntity
  8
DEFPOINTS
 62
     0
 48
50.0
100
AcDbPoint
 10
8223.600000000001
 20
7843.05918978272
 30
0.0
  0
POINT
  5
2E03B
330
2A66D
100
AcDbEntity
  8
DEFPOINTS
 62
     0
 48
50.0
100
AcDbPoint
 10
7320.6
 20
7843.05918978272
 30
0.0
  0
POINT
  5
2E03C
330
2A66D
100
AcDbEntity
  8
DEFPOINTS
 62
     0
 48
50.0
100
AcDbPoint
 10
7320.6
 20
9044.968955431048
 30
0.0
  0
ENDBLK
  5
2A677
330
2A66D
100
AcDbEntity
  8
0
 48
50.0
100
AcDbBlockEnd
  0
BLOCK
  5
2A682
330
2A678
100
AcDbEntity
  8
0
 48
50.0
100
AcDbBlockBegin
  2
*D21
 70
     1
 10
0.0
 20
0.0
 30
0.0
  3
*D21
  1

  0
LINE
  5
2E02B
330
2A678
100
AcDbEntity
  8
寸法
 62
     0
 48
50.0
370
    -2
100
AcDbLine
 10
6488.600000000001
 20
7863.05918978272
 30
0.0
 11
6488.600000000001
 21
9104.968955431047
 31
0.0
  0
LINE
  5
2E02C
330
2A678
100
AcDbEntity
  8
寸法
 62
     0
 48
50.0
370
    -2
100
AcDbLine
 10
5656.6
 20
7863.05918978272
 30
0.0
 11
5656.6
 21
9104.968955431047
 31
0.0
  0
LINE
  5
2E02D
330
2A678
100
AcDbEntity
  8
寸法
 62
     0
 48
50.0
370
    -2
100
AcDbLine
 10
6488.600000000001
 20
9044.968955431048
 30
0.0
 11
5656.6
 21
9044.968955431048
 31
0.0
  0
INSERT
  5
2E02E
330
2A678
100
AcDbEntity
  8
寸法
 62
     0
 48
50.0
370
    -2
100
AcDbBlockReference
  2
_DOTSMALL
 10
6488.600000000001
 20
9044.968955431048
 30
0.0
 41
100.0
 42
100.0
 43
100.0
  0
INSERT
  5
2E02F
330
2A678
100
AcDbEntity
  8
寸法
 62
     0
 48
50.0
370
    -2
100
AcDbBlockReference
  2
_DOTSMALL
 10
5656.6
 20
9044.968955431048
 30
0.0
 41
100.0
 42
100.0
 43
100.0
 50
180.0
  0
MTEXT
  5
2E030
330
2A678
100
AcDbEntity
  8
寸法
 62
     7
 48
50.0
100
AcDbMText
 10
6072.600000000001
 20
9144.98076645467
 30
0.0
 40
120.0
 41
0.0
 71
     5
 72
     1
  1
\A1;832
  7
STYLE1
 73
     1
 44
1.0
1001
ACAD
1000
MTEXTBEGIN
1070
    73
1070
     1
1070
    44
1040
1.0
1070
    74
1070
     0
1000
MTEXTEND
  0
POINT
  5
2E031
330
2A678
100
AcDbEntity
  8
DEFPOINTS
 62
     0
 48
50.0
100
AcDbPoint
 10
6488.600000000001
 20
7843.05918978272
 30
0.0
  0
POINT
  5
2E032
330
2A678
100
AcDbEntity
  8
DEFPOINTS
 62
     0
 48
50.0
100
AcDbPoint
 10
5656.6
 20
7843.05918978272
 30
0.0
  0
POINT
  5
2E033
330
2A678
100
AcDbEntity
  8
DEFPOINTS
 62
     0
 48
50.0
100
AcDbPoint
 10
5656.6
 20
9044.968955431048
 30
0.0
  0
ENDBLK
  5
2A683
330
2A678
100
AcDbEntity
  8
0
 48
50.0
100
AcDbBlockEnd
  0
BLOCK
  5
2A68E
330
2A684
100
AcDbEntity
  8
0
 48
50.0
100
AcDbBlockBegin
  2
*D22
 70
     1
 10
0.0
 20
0.0
 30
0.0
  3
*D22
  1

  0
LINE
  5
2E022
330
2A684
100
AcDbEntity
  8
寸法
 62
     0
 48
50.0
370
    -2
100
AcDbLine
 10
7320.6
 20
7863.05918978272
 30
0.0
 11
7320.6
 21
9104.968955431047
 31
0.0
  0
LINE
  5
2E023
330
2A684
100
AcDbEntity
  8
寸法
 62
     0
 48
50.0
370
    -2
100
AcDbLine
 10
6488.600000000001
 20
7863.05918978272
 30
0.0
 11
6488.600000000001
 21
9104.968955431047
 31
0.0
  0
LINE
  5
2E024
330
2A684
100
AcDbEntity
  8
寸法
 62
     0
 48
50.0
370
    -2
100
AcDbLine
 10
7320.6
 20
9044.968955431048
 30
0.0
 11
6488.600000000001
 21
9044.968955431048
 31
0.0
  0
INSERT
  5
2E025
330
2A684
100
AcDbEntity
  8
寸法
 62
     0
 48
50.0
370
    -2
100
AcDbBlockReference
  2
_DOTSMALL
 10
7320.6
 20
9044.968955431048
 30
0.0
 41
100.0
 42
100.0
 43
100.0
  0
INSERT
  5
2E026
330
2A684
100
AcDbEntity
  8
寸法
 62
     0
 48
50.0
370
    -2
100
AcDbBlockReference
  2
_DOTSMALL
 10
6488.600000000001
 20
9044.968955431048
 30
0.0
 41
100.0
 42
100.0
 43
100.0
 50
180.0
  0
MTEXT
  5
2E027
330
2A684
100
AcDbEntity
  8
寸法
 62
     7
 48
50.0
100
AcDbMText
 10
6904.600000000001
 20
9144.98076645467
 30
0.0
 40
120.0
 41
0.0
 71
     5
 72
     1
  1
\A1;832
  7
STYLE1
 73
     1
 44
1.0
1001
ACAD
1000
MTEXTBEGIN
1070
    73
1070
     1
1070
    44
1040
1.0
1070
    74
1070
     0
1000
MTEXTEND
  0
POINT
  5
2E028
330
2A684
100
AcDbEntity
  8
DEFPOINTS
 62
     0
 48
50.0
100
AcDbPoint
 10
7320.6
 20
7843.05918978272
 30
0.0
  0
POINT
  5
2E029
330
2A684
100
AcDbEntity
  8
DEFPOINTS
 62
     0
 48
50.0
100
AcDbPoint
 10
6488.600000000001
 20
7843.05918978272
 30
0.0
  0
POINT
  5
2E02A
330
2A684
100
AcDbEntity
  8
DEFPOINTS
 62
     0
 48
50.0
100
AcDbPoint
 10
6488.600000000001
 20
9044.968955431048
 30
0.0
  0
ENDBLK
  5
2A68F
330
2A684
100
AcDbEntity
  8
0
 48
50.0
100
AcDbBlockEnd
  0
BLOCK
  5
2A69A
330
2A690
100
AcDbEntity
  8
0
 48
50.0
100
AcDbBlockBegin
  2
*D23
 70
     1
 10
0.0
 20
0.0
 30
0.0
  3
*D23
  1

  0
LINE
  5
2E019
330
2A690
100
AcDbEntity
  8
寸法
 62
     0
 48
50.0
370
    -2
100
AcDbLine
 10
10244.04593925956
 20
5458.059189782728
 30
0.0
 11
10538.85510029273
 21
5458.059189782728
 31
0.0
  0
LINE
  5
2E01A
330
2A690
100
AcDbEntity
  8
寸法
 62
     0
 48
50.0
370
    -2
100
AcDbLine
 10
10670.6
 20
6188.059189782709
 30
0.0
 11
10418.85510029273
 21
6188.059189782709
 31
0.0
  0
LINE
  5
2E01B
330
2A690
100
AcDbEntity
  8
寸法
 62
     0
 48
50.0
370
    -2
100
AcDbLine
 10
10478.85510029273
 20
5458.059189782728
 30
0.0
 11
10478.85510029273
 21
6188.059189782709
 31
0.0
  0
INSERT
  5
2E01C
330
2A690
100
AcDbEntity
  8
寸法
 62
     0
 48
50.0
370
    -2
100
AcDbBlockReference
  2
_DOTSMALL
 10
10478.85510029273
 20
5458.059189782728
 30
0.0
 41
100.0
 42
100.0
 43
100.0
 50
270.0
  0
INSERT
  5
2E01D
330
2A690
100
AcDbEntity
  8
寸法
 62
     0
 48
50.0
370
    -2
100
AcDbBlockReference
  2
_DOTSMALL
 10
10478.85510029273
 20
6188.059189782709
 30
0.0
 41
100.0
 42
100.0
 43
100.0
 50
90.0
  0
MTEXT
  5
2E01E
330
2A690
100
AcDbEntity
  8
寸法
 62
     7
 48
50.0
100
AcDbMText
 10
10378.85510029272
 20
5823.059189782721
 30
0.0
 40
120.0
 41
0.0
 71
     5
 72
     1
  1
\A1;730
  7
STYLE1
 11
0.0000000000000001
 21
1.0
 31
0.0
 73
     1
 44
1.0
1001
ACAD
1000
MTEXTBEGIN
1070
    73
1070
     1
1070
    44
1040
1.0
1070
    74
1070
     0
1000
MTEXTEND
  0
POINT
  5
2E01F
330
2A690
100
AcDbEntity
  8
DEFPOINTS
 62
     0
 48
50.0
100
AcDbPoint
 10
10224.04593925956
 20
5458.059189782729
 30
0.0
  0
POINT
  5
2E020
330
2A690
100
AcDbEntity
  8
DEFPOINTS
 62
     0
 48
50.0
100
AcDbPoint
 10
10690.6
 20
6188.059189782709
 30
0.0
  0
POINT
  5
2E021
330
2A690
100
AcDbEntity
  8
DEFPOINTS
 62
     0
 48
50.0
100
AcDbPoint
 10
10478.85510029273
 20
6188.059189782709
 30
0.0
  0
ENDBLK
  5
2A69B
330
2A690
100
AcDbEntity
  8
0
 48
50.0
100
AcDbBlockEnd
  0
BLOCK
  5
2A6C0
330
2A6B5
100
AcDbEntity
  8
0
 48
50.0
100
AcDbBlockBegin
  2
*D24
 70
     1
 10
0.0
 20
0.0
 30
0.0
  3
*D24
  1

  0
LINE
  5
2E00F
330
2A6B5
100
AcDbEntity
  8
寸法
 62
     0
 48
50.0
370
    -2
100
AcDbLine
 10
11698.6
 20
8538.059189782719
 30
0.0
 11
11698.6
 21
9323.818816324804
 31
0.0
  0
LINE
  5
2E010
330
2A6B5
100
AcDbEntity
  8
寸法
 62
     0
 48
50.0
370
    -2
100
AcDbLine
 10
11575.6
 20
8465.059189782719
 30
0.0
 11
11575.6
 21
9323.818816324804
 31
0.0
  0
LINE
  5
2E011
330
2A6B5
100
AcDbEntity
  8
寸法
 62
     0
 48
50.0
370
    -2
100
AcDbLine
 10
11575.6
 20
9263.818816324803
 30
0.0
 11
11698.6
 21
9263.818816324803
 31
0.0
  0
LINE
  5
2E012
330
2A6B5
100
AcDbEntity
  8
寸法
 62
     0
 48
50.0
370
    -2
100
AcDbLine
 10
11698.6
 20
9263.818816324803
 30
0.0
 11
12110.19188309204
 21
9263.818816324803
 31
0.0
  0
INSERT
  5
2E013
330
2A6B5
100
AcDbEntity
  8
寸法
 62
     0
 48
50.0
370
    -2
100
AcDbBlockReference
  2
_DOTSMALL
 10
11575.6
 20
9263.818816324803
 30
0.0
 41
100.0
 42
100.0
 43
100.0
 50
180.0
  0
INSERT
  5
2E014
330
2A6B5
100
AcDbEntity
  8
寸法
 62
     0
 48
50.0
370
    -2
100
AcDbBlockReference
  2
_DOTSMALL
 10
11698.6
 20
9263.818816324803
 30
0.0
 41
100.0
 42
100.0
 43
100.0
  0
MTEXT
  5
2E015
330
2A6B5
100
AcDbEntity
  8
寸法
 62
     7
 48
50.0
100
AcDbMText
 10
11971.7066017178
 20
9363.830627348425
 30
0.0
 40
120.0
 41
0.0
 71
     5
 72
     1
  1
\A1;123
  7
STYLE1
 73
     1
 44
1.0
1001
ACAD
1000
MTEXTBEGIN
1070
    73
1070
     1
1070
    44
1040
1.0
1070
    74
1070
     0
1000
MTEXTEND
  0
POINT
  5
2E016
330
2A6B5
100
AcDbEntity
  8
DEFPOINTS
 62
     0
 48
50.0
100
AcDbPoint
 10
11698.6
 20
8518.05918978272
 30
0.0
  0
POINT
  5
2E017
330
2A6B5
100
AcDbEntity
  8
DEFPOINTS
 62
     0
 48
50.0
100
AcDbPoint
 10
11575.6
 20
8445.059189782718
 30
0.0
  0
POINT
  5
2E018
330
2A6B5
100
AcDbEntity
  8
DEFPOINTS
 62
     0
 48
50.0
100
AcDbPoint
 10
11575.6
 20
9263.818816324803
 30
0.0
  0
ENDBLK
  5
2A6C1
330
2A6B5
100
AcDbEntity
  8
0
 48
50.0
100
AcDbBlockEnd
  0
BLOCK
  5
2A6DA
330
2A6CF
100
AcDbEntity
  8
0
 48
50.0
100
AcDbBlockBegin
  2
*D25
 70
     1
 10
0.0
 20
0.0
 30
0.0
  3
*D25
  1

  0
LINE
  5
2E005
330
2A6CF
100
AcDbEntity
  8
寸法
 62
     0
 48
50.0
370
    -2
100
AcDbLine
 10
11698.6
 20
8057.343786321176
 30
0.0
 11
11698.6
 21
8000.350522282346
 31
0.0
  0
LINE
  5
2E006
330
2A6CF
100
AcDbEntity
  8
寸法
 62
     0
 48
50.0
370
    -2
100
AcDbLine
 10
11578.6
 20
8268.059189782718
 30
0.0
 11
11578.6
 21
8000.350522282346
 31
0.0
  0
LINE
  5
2E007
330
2A6CF
100
AcDbEntity
  8
寸法
 62
     0
 48
50.0
370
    -2
100
AcDbLine
 10
11578.6
 20
8060.350522282346
 30
0.0
 11
11698.6
 21
8060.350522282346
 31
0.0
  0
LINE
  5
2E008
330
2A6CF
100
AcDbEntity
  8
寸法
 62
     0
 48
50.0
370
    -2
100
AcDbLine
 10
11698.6
 20
8060.350522282346
 30
0.0
 11
12104.7062992126
 21
8060.350522282346
 31
0.0
  0
INSERT
  5
2E009
330
2A6CF
100
AcDbEntity
  8
寸法
 62
     0
 48
50.0
370
    -2
100
AcDbBlockReference
  2
_DOTSMALL
 10
11578.6
 20
8060.350522282346
 30
0.0
 41
100.0
 42
100.0
 43
100.0
 50
180.0
  0
INSERT
  5
2E00A
330
2A6CF
100
AcDbEntity
  8
寸法
 62
     0
 48
50.0
370
    -2
100
AcDbBlockReference
  2
_DOTSMALL
 10
11698.6
 20
8060.350522282346
 30
0.0
 41
100.0
 42
100.0
 43
100.0
  0
MTEXT
  5
2E00B
330
2A6CF
100
AcDbEntity
  8
寸法
 62
     7
 48
50.0
100
AcDbMText
 10
11968.65905511811
 20
8160.362333305966
 30
0.0
 40
120.0
 41
0.0
 71
     5
 72
     1
  1
\A1;120
  7
STYLE1
 73
     1
 44
1.0
1001
ACAD
1000
MTEXTBEGIN
1070
    73
1070
     1
1070
    44
1040
1.0
1070
    74
1070
     0
1000
MTEXTEND
  0
POINT
  5
2E00C
330
2A6CF
100
AcDbEntity
  8
DEFPOINTS
 62
     0
 48
50.0
100
AcDbPoint
 10
11698.6
 20
8077.343786321177
 30
0.0
  0
POINT
  5
2E00D
330
2A6CF
100
AcDbEntity
  8
DEFPOINTS
 62
     0
 48
50.0
100
AcDbPoint
 10
11578.6
 20
8288.059189782719
 30
0.0
  0
POINT
  5
2E00E
330
2A6CF
100
AcDbEntity
  8
DEFPOINTS
 62
     0
 48
50.0
100
AcDbPoint
 10
11578.6
 20
8060.350522282346
 30
0.0
  0
ENDBLK
  5
2A6DB
330
2A6CF
100
AcDbEntity
  8
0
 48
50.0
100
AcDbBlockEnd
  0
BLOCK
  5
2A6E6
330
2A6DC
100
AcDbEntity
  8
0
 48
50.0
100
AcDbBlockBegin
  2
*D26
 70
     1
 10
0.0
 20
0.0
 30
0.0
  3
*D26
  1

  0
LINE
  5
2DFFC
330
2A6DC
100
AcDbEntity
  8
寸法
 62
     0
 48
50.0
370
    -2
100
AcDbLine
 10
11698.6
 20
8538.059189782719
 30
0.0
 11
11698.6
 21
9104.968955431047
 31
0.0
  0
LINE
  5
2DFFD
330
2A6DC
100
AcDbEntity
  8
寸法
 62
     0
 48
50.0
370
    -2
100
AcDbLine
 10
10790.6
 20
7863.05918978272
 30
0.0
 11
10790.6
 21
9104.968955431047
 31
0.0
  0
LINE
  5
2DFFE
330
2A6DC
100
AcDbEntity
  8
寸法
 62
     0
 48
50.0
370
    -2
100
AcDbLine
 10
11698.6
 20
9044.968955431048
 30
0.0
 11
10790.6
 21
9044.968955431048
 31
0.0
  0
INSERT
  5
2DFFF
330
2A6DC
100
AcDbEntity
  8
寸法
 62
     0
 48
50.0
370
    -2
100
AcDbBlockReference
  2
_DOTSMALL
 10
11698.6
 20
9044.968955431048
 30
0.0
 41
100.0
 42
100.0
 43
100.0
  0
INSERT
  5
2E000
330
2A6DC
100
AcDbEntity
  8
寸法
 62
     0
 48
50.0
370
    -2
100
AcDbBlockReference
  2
_DOTSMALL
 10
10790.6
 20
9044.968955431048
 30
0.0
 41
100.0
 42
100.0
 43
100.0
 50
180.0
  0
MTEXT
  5
2E001
330
2A6DC
100
AcDbEntity
  8
寸法
 62
     7
 48
50.0
100
AcDbMText
 10
11244.6
 20
9144.968955431048
 30
0.0
 40
120.0
 41
0.0
 71
     5
 72
     1
  1
\A1;908
  7
STYLE1
 73
     1
 44
1.0
1001
ACAD
1000
MTEXTBEGIN
1070
    73
1070
     1
1070
    44
1040
1.0
1070
    74
1070
     0
1000
MTEXTEND
  0
POINT
  5
2E002
330
2A6DC
100
AcDbEntity
  8
DEFPOINTS
 62
     0
 48
50.0
100
AcDbPoint
 10
11698.6
 20
8518.05918978272
 30
0.0
  0
POINT
  5
2E003
330
2A6DC
100
AcDbEntity
  8
DEFPOINTS
 62
     0
 48
50.0
100
AcDbPoint
 10
10790.6
 20
7843.05918978272
 30
0.0
  0
POINT
  5
2E004
330
2A6DC
100
AcDbEntity
  8
DEFPOINTS
 62
     0
 48
50.0
100
AcDbPoint
 10
10790.6
 20
9044.968955431048
 30
0.0
  0
ENDBLK
  5
2A6E7
330
2A6DC
100
AcDbEntity
  8
0
 48
50.0
100
AcDbBlockEnd
  0
BLOCK
  5
2A6F2
330
2A6E8
100
AcDbEntity
  8
0
 48
50.0
100
AcDbBlockBegin
  2
*D27
 70
     1
 10
0.0
 20
0.0
 30
0.0
  3
*D27
  1

  0
LINE
  5
2DFF3
330
2A6E8
100
AcDbEntity
  8
寸法
 62
     0
 48
50.0
370
    -2
100
AcDbLine
 10
9958.600000000004
 20
7863.05918978272
 30
0.0
 11
9958.600000000004
 21
9104.968955431047
 31
0.0
  0
LINE
  5
2DFF4
330
2A6E8
100
AcDbEntity
  8
寸法
 62
     0
 48
50.0
370
    -2
100
AcDbLine
 10
9126.600000000001
 20
7863.05918978272
 30
0.0
 11
9126.600000000001
 21
9104.968955431047
 31
0.0
  0
LINE
  5
2DFF5
330
2A6E8
100
AcDbEntity
  8
寸法
 62
     0
 48
50.0
370
    -2
100
AcDbLine
 10
9958.600000000004
 20
9044.968955431048
 30
0.0
 11
9126.600000000001
 21
9044.968955431048
 31
0.0
  0
INSERT
  5
2DFF6
330
2A6E8
100
AcDbEntity
  8
寸法
 62
     0
 48
50.0
370
    -2
100
AcDbBlockReference
  2
_DOTSMALL
 10
9958.600000000004
 20
9044.968955431048
 30
0.0
 41
100.0
 42
100.0
 43
100.0
  0
INSERT
  5
2DFF7
330
2A6E8
100
AcDbEntity
  8
寸法
 62
     0
 48
50.0
370
    -2
100
AcDbBlockReference
  2
_DOTSMALL
 10
9126.600000000001
 20
9044.968955431048
 30
0.0
 41
100.0
 42
100.0
 43
100.0
 50
180.0
  0
MTEXT
  5
2DFF8
330
2A6E8
100
AcDbEntity
  8
寸法
 62
     7
 48
50.0
100
AcDbMText
 10
9542.600000000003
 20
9144.98076645467
 30
0.0
 40
120.0
 41
0.0
 71
     5
 72
     1
  1
\A1;832
  7
STYLE1
 73
     1
 44
1.0
1001
ACAD
1000
MTEXTBEGIN
1070
    73
1070
     1
1070
    44
1040
1.0
1070
    74
1070
     0
1000
MTEXTEND
  0
POINT
  5
2DFF9
330
2A6E8
100
AcDbEntity
  8
DEFPOINTS
 62
     0
 48
50.0
100
AcDbPoint
 10
9958.600000000004
 20
7843.05918978272
 30
0.0
  0
POINT
  5
2DFFA
330
2A6E8
100
AcDbEntity
  8
DEFPOINTS
 62
     0
 48
50.0
100
AcDbPoint
 10
9126.600000000001
 20
7843.05918978272
 30
0.0
  0
POINT
  5
2DFFB
330
2A6E8
100
AcDbEntity
  8
DEFPOINTS
 62
     0
 48
50.0
100
AcDbPoint
 10
9126.600000000001
 20
9044.968955431048
 30
0.0
  0
ENDBLK
  5
2A6F3
330
2A6E8
100
AcDbEntity
  8
0
 48
50.0
100
AcDbBlockEnd
  0
BLOCK
  5
2A6FE
330
2A6F4
100
AcDbEntity
  8
0
 48
50.0
100
AcDbBlockBegin
  2
*D28
 70
     1
 10
0.0
 20
0.0
 30
0.0
  3
*D28
  1

  0
LINE
  5
2DFEA
330
2A6F4
100
AcDbEntity
  8
寸法
 62
     0
 48
50.0
370
    -2
100
AcDbLine
 10
10790.6
 20
7863.05918978272
 30
0.0
 11
10790.6
 21
9104.968955431047
 31
0.0
  0
LINE
  5
2DFEB
330
2A6F4
100
AcDbEntity
  8
寸法
 62
     0
 48
50.0
370
    -2
100
AcDbLine
 10
9958.600000000004
 20
7863.05918978272
 30
0.0
 11
9958.600000000004
 21
9104.968955431047
 31
0.0
  0
LINE
  5
2DFEC
330
2A6F4
100
AcDbEntity
  8
寸法
 62
     0
 48
50.0
370
    -2
100
AcDbLine
 10
10790.6
 20
9044.968955431048
 30
0.0
 11
9958.600000000004
 21
9044.968955431048
 31
0.0
  0
INSERT
  5
2DFED
330
2A6F4
100
AcDbEntity
  8
寸法
 62
     0
 48
50.0
370
    -2
100
AcDbBlockReference
  2
_DOTSMALL
 10
10790.6
 20
9044.968955431048
 30
0.0
 41
100.0
 42
100.0
 43
100.0
  0
INSERT
  5
2DFEE
330
2A6F4
100
AcDbEntity
  8
寸法
 62
     0
 48
50.0
370
    -2
100
AcDbBlockReference
  2
_DOTSMALL
 10
9958.600000000004
 20
9044.968955431048
 30
0.0
 41
100.0
 42
100.0
 43
100.0
 50
180.0
  0
MTEXT
  5
2DFEF
330
2A6F4
100
AcDbEntity
  8
寸法
 62
     7
 48
50.0
100
AcDbMText
 10
10374.6
 20
9144.98076645467
 30
0.0
 40
120.0
 41
0.0
 71
     5
 72
     1
  1
\A1;832
  7
STYLE1
 73
     1
 44
1.0
1001
ACAD
1000
MTEXTBEGIN
1070
    73
1070
     1
1070
    44
1040
1.0
1070
    74
1070
     0
1000
MTEXTEND
  0
POINT
  5
2DFF0
330
2A6F4
100
AcDbEntity
  8
DEFPOINTS
 62
     0
 48
50.0
100
AcDbPoint
 10
10790.6
 20
7843.05918978272
 30
0.0
  0
POINT
  5
2DFF1
330
2A6F4
100
AcDbEntity
  8
DEFPOINTS
 62
     0
 48
50.0
100
AcDbPoint
 10
9958.600000000004
 20
7843.05918978272
 30
0.0
  0
POINT
  5
2DFF2
330
2A6F4
100
AcDbEntity
  8
DEFPOINTS
 62
     0
 48
50.0
100
AcDbPoint
 10
9958.600000000004
 20
9044.968955431048
 30
0.0
  0
ENDBLK
  5
2A6FF
330
2A6F4
100
AcDbEntity
  8
0
 48
50.0
100
AcDbBlockEnd
  0
BLOCK
  5
2A709
330
2A700
100
AcDbEntity
  8
0
 48
50.0
100
AcDbBlockBegin
  2
*D29
 70
     1
 10
0.0
 20
0.0
 30
0.0
  3
*D29
  1

  0
LINE
  5
2DFE1
330
2A700
100
AcDbEntity
  8
寸法
 62
     0
 48
50.0
370
    -2
100
AcDbLine
 10
10670.6
 20
7788.059189782718
 30
0.0
 11
10418.85510029273
 21
7788.059189782718
 31
0.0
  0
LINE
  5
2DFE2
330
2A700
100
AcDbEntity
  8
寸法
 62
     0
 48
50.0
370
    -2
100
AcDbLine
 10
10148.15743105835
 20
8518.05918978272
 30
0.0
 11
10538.85510029273
 21
8518.05918978272
 31
0.0
  0
LINE
  5
2DFE3
330
2A700
100
AcDbEntity
  8
寸法
 62
     0
 48
50.0
370
    -2
100
AcDbLine
 10
10478.85510029273
 20
7788.059189782718
 30
0.0
 11
10478.85510029273
 21
8518.05918978272
 31
0.0
  0
INSERT
  5
2DFE4
330
2A700
100
AcDbEntity
  8
寸法
 62
     0
 48
50.0
370
    -2
100
AcDbBlockReference
  2
_DOTSMALL
 10
10478.85510029273
 20
7788.059189782718
 30
0.0
 41
100.0
 42
100.0
 43
100.0
 50
270.0
  0
INSERT
  5
2DFE5
330
2A700
100
AcDbEntity
  8
寸法
 62
     0
 48
50.0
370
    -2
100
AcDbBlockReference
  2
_DOTSMALL
 10
10478.85510029273
 20
8518.05918978272
 30
0.0
 41
100.0
 42
100.0
 43
100.0
 50
90.0
  0
MTEXT
  5
2DFE6
330
2A700
100
AcDbEntity
  8
寸法
 62
     7
 48
50.0
100
AcDbMText
 10
10378.85510029272
 20
8153.059189782721
 30
0.0
 40
120.0
 41
0.0
 71
     5
 72
     1
  1
\A1;730
  7
STYLE1
 11
0.0000000000000001
 21
1.0
 31
0.0
 73
     1
 44
1.0
1001
ACAD
1000
MTEXTBEGIN
1070
    73
1070
     1
1070
    44
1040
1.0
1070
    74
1070
     0
1000
MTEXTEND
  0
POINT
  5
2DFE7
330
2A700
100
AcDbEntity
  8
DEFPOINTS
 62
     0
 48
50.0
100
AcDbPoint
 10
10690.6
 20
7788.059189782718
 30
0.0
  0
POINT
  5
2DFE8
330
2A700
100
AcDbEntity
  8
DEFPOINTS
 62
     0
 48
50.0
100
AcDbPoint
 10
10128.15743105835
 20
8518.05918978272
 30
0.0
  0
POINT
  5
2DFE9
330
2A700
100
AcDbEntity
  8
DEFPOINTS
 62
     0
 48
50.0
100
AcDbPoint
 10
10478.85510029273
 20
8518.05918978272
 30
0.0
  0
ENDBLK
  5
2A70A
330
2A700
100
AcDbEntity
  8
0
 48
50.0
100
AcDbBlockEnd
  0
BLOCK
  5
2A715
330
2A70B
100
AcDbEntity
  8
0
 48
50.0
100
AcDbBlockBegin
  2
*D30
 70
     1
 10
0.0
 20
0.0
 30
0.0
  3
*D30
  1

  0
LINE
  5
2DFD8
330
2A70B
100
AcDbEntity
  8
寸法
 62
     0
 48
50.0
370
    -2
100
AcDbLine
 10
10670.6
 20
6188.059189782719
 30
0.0
 11
10418.85510029273
 21
6188.059189782719
 31
0.0
  0
LINE
  5
2DFD9
330
2A70B
100
AcDbEntity
  8
寸法
 62
     0
 48
50.0
370
    -2
100
AcDbLine
 10
10670.6
 20
6988.059189782719
 30
0.0
 11
10418.85510029273
 21
6988.059189782719
 31
0.0
  0
LINE
  5
2DFDA
330
2A70B
100
AcDbEntity
  8
寸法
 62
     0
 48
50.0
370
    -2
100
AcDbLine
 10
10478.85510029273
 20
6188.059189782719
 30
0.0
 11
10478.85510029273
 21
6988.059189782719
 31
0.0
  0
INSERT
  5
2DFDB
330
2A70B
100
AcDbEntity
  8
寸法
 62
     0
 48
50.0
370
    -2
100
AcDbBlockReference
  2
_DOTSMALL
 10
10478.85510029273
 20
6188.059189782719
 30
0.0
 41
100.0
 42
100.0
 43
100.0
 50
270.0
  0
INSERT
  5
2DFDC
330
2A70B
100
AcDbEntity
  8
寸法
 62
     0
 48
50.0
370
    -2
100
AcDbBlockReference
  2
_DOTSMALL
 10
10478.85510029273
 20
6988.059189782719
 30
0.0
 41
100.0
 42
100.0
 43
100.0
 50
90.0
  0
MTEXT
  5
2DFDD
330
2A70B
100
AcDbEntity
  8
寸法
 62
     7
 48
50.0
100
AcDbMText
 10
10378.85510029272
 20
6588.05918978272
 30
0.0
 40
120.0
 41
0.0
 71
     5
 72
     1
  1
\A1;800
  7
STYLE1
 11
0.0000000000000001
 21
1.0
 31
0.0
 73
     1
 44
1.0
1001
ACAD
1000
MTEXTBEGIN
1070
    73
1070
     1
1070
    44
1040
1.0
1070
    74
1070
     0
1000
MTEXTEND
  0
POINT
  5
2DFDE
330
2A70B
100
AcDbEntity
  8
DEFPOINTS
 62
     0
 48
50.0
100
AcDbPoint
 10
10690.6
 20
6188.059189782719
 30
0.0
  0
POINT
  5
2DFDF
330
2A70B
100
AcDbEntity
  8
DEFPOINTS
 62
     0
 48
50.0
100
AcDbPoint
 10
10690.6
 20
6988.059189782719
 30
0.0
  0
POINT
  5
2DFE0
330
2A70B
100
AcDbEntity
  8
DEFPOINTS
 62
     0
 48
50.0
100
AcDbPoint
 10
10478.85510029273
 20
6988.059189782719
 30
0.0
  0
ENDBLK
  5
2A716
330
2A70B
100
AcDbEntity
  8
0
 48
50.0
100
AcDbBlockEnd
  0
BLOCK
  5
2A722
330
2A717
100
AcDbEntity
  8
0
 48
50.0
100
AcDbBlockBegin
  2
*D31
 70
     1
 10
0.0
 20
0.0
 30
0.0
  3
*D31
  1

  0
LINE
  5
2DFCE
330
2A717
100
AcDbEntity
  8
寸法
 62
     0
 48
50.0
370
    -2
100
AcDbLine
 10
11578.6
 20
8268.059189782718
 30
0.0
 11
11578.6
 21
8000.350522282346
 31
0.0
  0
LINE
  5
2DFCF
330
2A717
100
AcDbEntity
  8
寸法
 62
     0
 48
50.0
370
    -2
100
AcDbLine
 10
11468.6
 20
8268.059189782718
 30
0.0
 11
11468.6
 21
8000.350522282346
 31
0.0
  0
LINE
  5
2DFD0
330
2A717
100
AcDbEntity
  8
寸法
 62
     0
 48
50.0
370
    -2
100
AcDbLine
 10
11578.6
 20
8060.350522282346
 30
0.0
 11
11468.6
 21
8060.350522282346
 31
0.0
  0
LINE
  5
2DFD1
330
2A717
100
AcDbEntity
  8
寸法
 62
     0
 48
50.0
370
    -2
100
AcDbLine
 10
11468.6
 20
8060.350522282346
 30
0.0
 11
11074.4937007874
 21
8060.350522282346
 31
0.0
  0
INSERT
  5
2DFD2
330
2A717
100
AcDbEntity
  8
寸法
 62
     0
 48
50.0
370
    -2
100
AcDbBlockReference
  2
_DOTSMALL
 10
11578.6
 20
8060.350522282346
 30
0.0
 41
100.0
 42
100.0
 43
100.0
  0
INSERT
  5
2DFD3
330
2A717
100
AcDbEntity
  8
寸法
 62
     0
 48
50.0
370
    -2
100
AcDbBlockReference
  2
_DOTSMALL
 10
11468.6
 20
8060.350522282346
 30
0.0
 41
100.0
 42
100.0
 43
100.0
 50
180.0
  0
MTEXT
  5
2DFD4
330
2A717
100
AcDbEntity
  8
寸法
 62
     7
 48
50.0
100
AcDbMText
 10
11198.54094488189
 20
8160.350522282346
 30
0.0
 40
120.0
 41
0.0
 71
     5
 72
     1
  1
\A1;110
  7
STYLE1
 73
     1
 44
1.0
1001
ACAD
1000
MTEXTBEGIN
1070
    73
1070
     1
1070
    44
1040
1.0
1070
    74
1070
     0
1000
MTEXTEND
  0
POINT
  5
2DFD5
330
2A717
100
AcDbEntity
  8
DEFPOINTS
 62
     0
 48
50.0
100
AcDbPoint
 10
11578.6
 20
8288.059189782719
 30
0.0
  0
POINT
  5
2DFD6
330
2A717
100
AcDbEntity
  8
DEFPOINTS
 62
     0
 48
50.0
100
AcDbPoint
 10
11468.6
 20
8288.059189782719
 30
0.0
  0
POINT
  5
2DFD7
330
2A717
100
AcDbEntity
  8
DEFPOINTS
 62
     0
 48
50.0
100
AcDbPoint
 10
11468.6
 20
8060.350522282346
 30
0.0
  0
ENDBLK
  5
2A723
330
2A717
100
AcDbEntity
  8
0
 48
50.0
100
AcDbBlockEnd
  0
BLOCK
  5
2B140
330
2B135
100
AcDbEntity
  8
0
 48
50.0
100
AcDbBlockBegin
  2
*D32
 70
     1
 10
0.0
 20
0.0
 30
0.0
  3
*D32
  1

  0
LINE
  5
2DFB1
330
2B135
100
AcDbEntity
  8
寸法
 62
     0
 48
50.0
370
    -2
100
AcDbLine
 10
8255.600000000001
 20
5458.059189782748
 30
0.0
 11
8730.144386142111
 21
5458.059189782748
 31
0.0
  0
LINE
  5
2DFB2
330
2B135
100
AcDbEntity
  8
寸法
 62
     0
 48
50.0
370
    -2
100
AcDbLine
 10
8255.600000000001
 20
5578.059189782731
 30
0.0
 11
8730.144386142111
 21
5578.059189782731
 31
0.0
  0
LINE
  5
2DFB3
330
2B135
100
AcDbEntity
  8
寸法
 62
     0
 48
50.0
370
    -2
100
AcDbLine
 10
8670.14438614211
 20
5578.059189782731
 30
0.0
 11
8670.14438614211
 21
5458.059189782748
 31
0.0
  0
LINE
  5
2DFB4
330
2B135
100
AcDbEntity
  8
寸法
 62
     0
 48
50.0
370
    -2
100
AcDbLine
 10
8670.14438614211
 20
5458.059189782748
 30
0.0
 11
8670.14438614211
 21
4999.179872345145
 31
0.0
  0
INSERT
  5
2DFB5
330
2B135
100
AcDbEntity
  8
寸法
 62
     0
 48
50.0
370
    -2
100
AcDbBlockReference
  2
_DOTSMALL
 10
8670.14438614211
 20
5578.059189782731
 30
0.0
 41
100.0
 42
100.0
 43
100.0
 50
90.0
  0
INSERT
  5
2DFB6
330
2B135
100
AcDbEntity
  8
寸法
 62
     0
 48
50.0
370
    -2
100
AcDbBlockReference
  2
_DOTSMALL
 10
8670.14438614211
 20
5458.059189782748
 30
0.0
 41
100.0
 42
100.0
 43
100.0
 50
270.0
  0
MTEXT
  5
2DFB7
330
2B135
100
AcDbEntity
  8
寸法
 62
     7
 48
50.0
100
AcDbMText
 10
8570.132575118487
 20
5135.227116439633
 30
0.0
 40
120.0
 41
0.0
 71
     5
 72
     1
  1
\A1;120
  7
STYLE1
 11
0.0000000000000001
 21
1.0
 31
0.0
 73
     1
 44
1.0
1001
ACAD
1000
MTEXTBEGIN
1070
    73
1070
     1
1070
    44
1040
1.0
1070
    74
1070
     0
1000
MTEXTEND
  0
POINT
  5
2DFB8
330
2B135
100
AcDbEntity
  8
DEFPOINTS
 62
     0
 48
50.0
100
AcDbPoint
 10
8235.600000000001
 20
5458.059189782748
 30
0.0
  0
POINT
  5
2DFB9
330
2B135
100
AcDbEntity
  8
DEFPOINTS
 62
     0
 48
50.0
100
AcDbPoint
 10
8235.600000000001
 20
5578.059189782731
 30
0.0
  0
POINT
  5
2DFBA
330
2B135
100
AcDbEntity
  8
DEFPOINTS
 62
     0
 48
50.0
100
AcDbPoint
 10
8670.14438614211
 20
5578.059189782731
 30
0.0
  0
ENDBLK
  5
2B141
330
2B135
100
AcDbEntity
  8
0
 48
50.0
100
AcDbBlockEnd
  0
BLOCK
  5
2B14D
330
2B142
100
AcDbEntity
  8
0
 48
50.0
100
AcDbBlockBegin
  2
*D33
 70
     1
 10
0.0
 20
0.0
 30
0.0
  3
*D33
  1

  0
LINE
  5
2DFBB
330
2B142
100
AcDbEntity
  8
寸法
 62
     0
 48
50.0
370
    -2
100
AcDbLine
 10
8255.600000000001
 20
5578.059189782731
 30
0.0
 11
8730.144386142111
 21
5578.059189782731
 31
0.0
  0
LINE
  5
2DFBC
330
2B142
100
AcDbEntity
  8
寸法
 62
     0
 48
50.0
370
    -2
100
AcDbLine
 10
8255.600000000001
 20
5688.059189782737
 30
0.0
 11
8730.144386142111
 21
5688.059189782737
 31
0.0
  0
LINE
  5
2DFBD
330
2B142
100
AcDbEntity
  8
寸法
 62
     0
 48
50.0
370
    -2
100
AcDbLine
 10
8670.14438614211
 20
5578.059189782731
 30
0.0
 11
8670.14438614211
 21
5688.059189782737
 31
0.0
  0
LINE
  5
2DFBE
330
2B142
100
AcDbEntity
  8
寸法
 62
     0
 48
50.0
370
    -2
100
AcDbLine
 10
8670.14438614211
 20
5688.059189782737
 30
0.0
 11
8670.14438614211
 21
6048.153677971718
 31
0.0
  0
INSERT
  5
2DFBF
330
2B142
100
AcDbEntity
  8
寸法
 62
     0
 48
50.0
370
    -2
100
AcDbBlockReference
  2
_DOTSMALL
 10
8670.14438614211
 20
5578.059189782731
 30
0.0
 41
100.0
 42
100.0
 43
100.0
 50
270.0
  0
INSERT
  5
2DFC0
330
2B142
100
AcDbEntity
  8
寸法
 62
     0
 48
50.0
370
    -2
100
AcDbBlockReference
  2
_DOTSMALL
 10
8670.14438614211
 20
5688.059189782737
 30
0.0
 41
100.0
 42
100.0
 43
100.0
 50
90.0
  0
MTEXT
  5
2DFC1
330
2B142
100
AcDbEntity
  8
寸法
 62
     7
 48
50.0
100
AcDbMText
 10
8570.144386142109
 20
5924.106433877231
 30
0.0
 40
120.0
 41
0.0
 71
     5
 72
     1
  1
\A1;110
  7
STYLE1
 11
0.0000000000000001
 21
1.0
 31
0.0
 73
     1
 44
1.0
1001
ACAD
1000
MTEXTBEGIN
1070
    73
1070
     1
1070
    44
1040
1.0
1070
    74
1070
     0
1000
MTEXTEND
  0
POINT
  5
2DFC2
330
2B142
100
AcDbEntity
  8
DEFPOINTS
 62
     0
 48
50.0
100
AcDbPoint
 10
8235.600000000001
 20
5578.059189782731
 30
0.0
  0
POINT
  5
2DFC3
330
2B142
100
AcDbEntity
  8
DEFPOINTS
 62
     0
 48
50.0
100
AcDbPoint
 10
8235.600000000001
 20
5688.059189782737
 30
0.0
  0
POINT
  5
2DFC4
330
2B142
100
AcDbEntity
  8
DEFPOINTS
 62
     0
 48
50.0
100
AcDbPoint
 10
8670.14438614211
 20
5688.059189782737
 30
0.0
  0
ENDBLK
  5
2B14E
330
2B142
100
AcDbEntity
  8
0
 48
50.0
100
AcDbBlockEnd
  0
BLOCK
  5
2B159
330
2B14F
100
AcDbEntity
  8
0
 48
50.0
100
AcDbBlockBegin
  2
*D34
 70
     1
 10
0.0
 20
0.0
 30
0.0
  3
*D34
  1

  0
LINE
  5
2DFC5
330
2B14F
100
AcDbEntity
  8
寸法
 62
     0
 48
50.0
370
    -2
100
AcDbLine
 10
8235.600000000001
 20
5708.059189782737
 30
0.0
 11
8235.600000000001
 21
5926.483764743982
 31
0.0
  0
LINE
  5
2DFC6
330
2B14F
100
AcDbEntity
  8
寸法
 62
     0
 48
50.0
370
    -2
100
AcDbLine
 10
7975.6
 20
5708.059189782737
 30
0.0
 11
7975.6
 21
5926.483764743982
 31
0.0
  0
LINE
  5
2DFC7
330
2B14F
100
AcDbEntity
  8
寸法
 62
     0
 48
50.0
370
    -2
100
AcDbLine
 10
8235.600000000001
 20
5866.483764743982
 30
0.0
 11
7975.6
 21
5866.483764743982
 31
0.0
  0
INSERT
  5
2DFC8
330
2B14F
100
AcDbEntity
  8
寸法
 62
     0
 48
50.0
370
    -2
100
AcDbBlockReference
  2
_DOTSMALL
 10
8235.600000000001
 20
5866.483764743982
 30
0.0
 41
100.0
 42
100.0
 43
100.0
  0
INSERT
  5
2DFC9
330
2B14F
100
AcDbEntity
  8
寸法
 62
     0
 48
50.0
370
    -2
100
AcDbBlockReference
  2
_DOTSMALL
 10
7975.6
 20
5866.483764743982
 30
0.0
 41
100.0
 42
100.0
 43
100.0
 50
180.0
  0
MTEXT
  5
2DFCA
330
2B14F
100
AcDbEntity
  8
寸法
 62
     7
 48
50.0
100
AcDbMText
 10
8105.6
 20
5966.495575767603
 30
0.0
 40
120.0
 41
0.0
 71
     5
 72
     1
  1
\A1;260
  7
STYLE1
 73
     1
 44
1.0
1001
ACAD
1000
MTEXTBEGIN
1070
    73
1070
     1
1070
    44
1040
1.0
1070
    74
1070
     0
1000
MTEXTEND
  0
POINT
  5
2DFCB
330
2B14F
100
AcDbEntity
  8
DEFPOINTS
 62
     0
 48
50.0
100
AcDbPoint
 10
8235.600000000001
 20
5688.059189782737
 30
0.0
  0
POINT
  5
2DFCC
330
2B14F
100
AcDbEntity
  8
DEFPOINTS
 62
     0
 48
50.0
100
AcDbPoint
 10
7975.6
 20
5688.059189782737
 30
0.0
  0
POINT
  5
2DFCD
330
2B14F
100
AcDbEntity
  8
DEFPOINTS
 62
     0
 48
50.0
100
AcDbPoint
 10
7975.6
 20
5866.483764743982
 30
0.0
  0
ENDBLK
  5
2B15A
330
2B14F
100
AcDbEntity
  8
0
 48
50.0
100
AcDbBlockEnd
  0
BLOCK
  5
2C93B
330
2C931
100
AcDbEntity
  8
0
 48
50.0
100
AcDbBlockBegin
  2
*D35
 70
     1
 10
0.0
 20
0.0
 30
0.0
  3
*D35
  1

  0
LINE
  5
2DFA8
330
2C931
100
AcDbEntity
  8
寸法
 62
     0
 48
50.0
370
    -2
100
AcDbLine
 10
10670.6
 20
6988.059189782719
 30
0.0
 11
10418.85510029273
 21
6988.059189782719
 31
0.0
  0
LINE
  5
2DFA9
330
2C931
100
AcDbEntity
  8
寸法
 62
     0
 48
50.0
370
    -2
100
AcDbLine
 10
10670.6
 20
7788.059189782718
 30
0.0
 11
10418.85510029273
 21
7788.059189782718
 31
0.0
  0
LINE
  5
2DFAA
330
2C931
100
AcDbEntity
  8
寸法
 62
     0
 48
50.0
370
    -2
100
AcDbLine
 10
10478.85510029273
 20
6988.059189782719
 30
0.0
 11
10478.85510029273
 21
7788.059189782718
 31
0.0
  0
INSERT
  5
2DFAB
330
2C931
100
AcDbEntity
  8
寸法
 62
     0
 48
50.0
370
    -2
100
AcDbBlockReference
  2
_DOTSMALL
 10
10478.85510029273
 20
6988.059189782719
 30
0.0
 41
100.0
 42
100.0
 43
100.0
 50
270.0
  0
INSERT
  5
2DFAC
330
2C931
100
AcDbEntity
  8
寸法
 62
     0
 48
50.0
370
    -2
100
AcDbBlockReference
  2
_DOTSMALL
 10
10478.85510029273
 20
7788.059189782718
 30
0.0
 41
100.0
 42
100.0
 43
100.0
 50
90.0
  0
MTEXT
  5
2DFAD
330
2C931
100
AcDbEntity
  8
寸法
 62
     7
 48
50.0
100
AcDbMText
 10
10378.85510029272
 20
7388.059189782722
 30
0.0
 40
120.0
 41
0.0
 71
     5
 72
     1
  1
\A1;800
  7
STYLE1
 11
0.0000000000000001
 21
1.0
 31
0.0
 73
     1
 44
1.0
1001
ACAD
1000
MTEXTBEGIN
1070
    73
1070
     1
1070
    44
1040
1.0
1070
    74
1070
     0
1000
MTEXTEND
  0
POINT
  5
2DFAE
330
2C931
100
AcDbEntity
  8
DEFPOINTS
 62
     0
 48
50.0
100
AcDbPoint
 10
10690.6
 20
6988.059189782719
 30
0.0
  0
POINT
  5
2DFAF
330
2C931
100
AcDbEntity
  8
DEFPOINTS
 62
     0
 48
50.0
100
AcDbPoint
 10
10690.6
 20
7788.059189782718
 30
0.0
  0
POINT
  5
2DFB0
330
2C931
100
AcDbEntity
  8
DEFPOINTS
 62
     0
 48
50.0
100
AcDbPoint
 10
10478.85510029273
 20
7788.059189782718
 30
0.0
  0
ENDBLK
  5
2C93C
330
2C931
100
AcDbEntity
  8
0
 48
50.0
100
AcDbBlockEnd
  0
BLOCK
  5
2D840
330
2D836
100
AcDbEntity
  8
0
 48
50.0
100
AcDbBlockBegin
  2
*D36
 70
     1
 10
0.0
 20
0.0
 30
0.0
  3
*D36
  1

  0
LINE
  5
2DF9F
330
2D836
100
AcDbEntity
  8
寸法
 62
     0
 48
50.0
370
    -2
100
AcDbLine
 10
7776.600000000001
 20
5363.059189782724
 30
0.0
 11
7776.600000000001
 21
4779.052800128
 31
0.0
  0
LINE
  5
2DFA0
330
2D836
100
AcDbEntity
  8
寸法
 62
     0
 48
50.0
370
    -2
100
AcDbLine
 10
5621.6
 20
5303.897814470196
 30
0.0
 11
5621.6
 21
4779.052800128
 31
0.0
  0
LINE
  5
2DFA1
330
2D836
100
AcDbEntity
  8
寸法
 62
     0
 48
50.0
370
    -2
100
AcDbLine
 10
7776.600000000001
 20
4839.052800128
 30
0.0
 11
5621.6
 21
4839.052800128
 31
0.0
  0
INSERT
  5
2DFA2
330
2D836
100
AcDbEntity
  8
寸法
 62
     0
 48
50.0
370
    -2
100
AcDbBlockReference
  2
_DOTSMALL
 10
7776.600000000001
 20
4839.052800128
 30
0.0
 41
100.0
 42
100.0
 43
100.0
  0
INSERT
  5
2DFA3
330
2D836
100
AcDbEntity
  8
寸法
 62
     0
 48
50.0
370
    -2
100
AcDbBlockReference
  2
_DOTSMALL
 10
5621.6
 20
4839.052800128
 30
0.0
 41
100.0
 42
100.0
 43
100.0
 50
180.0
  0
MTEXT
  5
2DFA4
330
2D836
100
AcDbEntity
  8
寸法
 62
     7
 48
50.0
100
AcDbMText
 10
6699.1
 20
4939.064611151621
 30
0.0
 40
120.0
 41
0.0
 71
     5
 72
     1
  1
\A1;扉の幅 2155
  7
STYLE1
 73
     1
 44
1.0
1001
ACAD
1000
MTEXTBEGIN
1070
    73
1070
     1
1070
    44
1040
1.0
1070
    74
1070
     0
1000
MTEXTEND
  0
POINT
  5
2DFA5
330
2D836
100
AcDbEntity
  8
DEFPOINTS
 62
     0
 48
50.0
100
AcDbPoint
 10
7776.600000000001
 20
5383.059189782724
 30
0.0
  0
POINT
  5
2DFA6
330
2D836
100
AcDbEntity
  8
DEFPOINTS
 62
     0
 48
50.0
100
AcDbPoint
 10
5621.6
 20
5323.897814470196
 30
0.0
  0
POINT
  5
2DFA7
330
2D836
100
AcDbEntity
  8
DEFPOINTS
 62
     0
 48
50.0
100
AcDbPoint
 10
5621.6
 20
4839.052800128
 30
0.0
  0
ENDBLK
  5
2D841
330
2D836
100
AcDbEntity
  8
0
 48
50.0
100
AcDbBlockEnd
  0
BLOCK
  5
2DDF1
330
2DDE5
100
AcDbEntity
  8
0
 48
50.0
100
AcDbBlockBegin
  2
*D37
 70
     1
 10
0.0
 20
0.0
 30
0.0
  3
*D37
  1

  0
LINE
  5
2DF94
330
2DDE5
100
AcDbEntity
  8
寸法
 62
     0
 48
50.0
370
    -2
100
AcDbLine
 10
7418.522739241888
 20
1909.052224239992
 30
0.0
 11
8664.926821601728
 21
1909.052224239992
 31
0.0
  0
LINE
  5
2DF95
330
2DDE5
100
AcDbEntity
  8
寸法
 62
     0
 48
50.0
370
    -2
100
AcDbLine
 10
7652.522739241888
 20
1843.102224239992
 30
0.0
 11
8664.926821601728
 21
1843.102224239992
 31
0.0
  0
LINE
  5
2DF96
330
2DDE5
100
AcDbEntity
  8
寸法
 62
     0
 48
50.0
370
    -2
100
AcDbLine
 10
8604.926821601727
 20
1909.052224239992
 30
0.0
 11
8604.926821601727
 21
2009.052224239992
 31
0.0
  0
LINE
  5
2DF97
330
2DDE5
100
AcDbEntity
  8
寸法
 62
     0
 48
50.0
370
    -2
100
AcDbLine
 10
8604.926821601727
 20
1843.102224239992
 30
0.0
 11
8604.926821601727
 21
1111.084417397026
 31
0.0
  0
LINE
  5
2DF98
330
2DDE5
100
AcDbEntity
  8
寸法
 62
     0
 48
50.0
370
    -2
100
AcDbLine
 10
8604.926821601727
 20
1909.052224239992
 30
0.0
 11
8604.926821601727
 21
1843.102224239992
 31
0.0
  0
INSERT
  5
2DF99
330
2DDE5
100
AcDbEntity
  8
寸法
 62
     0
 48
50.0
370
    -2
100
AcDbBlockReference
  2
_DOTSMALL
 10
8604.926821601727
 20
1909.052224239992
 30
0.0
 41
100.0
 42
100.0
 43
100.0
 50
270.0
  0
INSERT
  5
2DF9A
330
2DDE5
100
AcDbEntity
  8
寸法
 62
     0
 48
50.0
370
    -2
100
AcDbBlockReference
  2
_DOTSMALL
 10
8604.926821601727
 20
1843.102224239992
 30
0.0
 41
100.0
 42
100.0
 43
100.0
 50
90.0
  0
MTEXT
  5
2DF9B
330
2DDE5
100
AcDbEntity
  8
寸法
 62
     7
 48
50.0
100
AcDbMText
 10
8504.915010578107
 20
1377.09332081851
 30
0.0
 40
120.0
 41
0.0
 71
     5
 72
     1
  1
\A1;20～25
  7
STYLE1
 11
0.0000000000000001
 21
1.0
 31
0.0
 73
     1
 44
1.0
1001
ACAD
1000
MTEXTBEGIN
1070
    73
1070
     1
1070
    44
1040
1.0
1070
    74
1070
     0
1000
MTEXTEND
  0
POINT
  5
2DF9C
330
2DDE5
100
AcDbEntity
  8
DEFPOINTS
 62
     0
 48
50.0
100
AcDbPoint
 10
7398.522739241887
 20
1909.052224239992
 30
0.0
  0
POINT
  5
2DF9D
330
2DDE5
100
AcDbEntity
  8
DEFPOINTS
 62
     0
 48
50.0
100
AcDbPoint
 10
7632.522739241888
 20
1843.102224239992
 30
0.0
  0
POINT
  5
2DF9E
330
2DDE5
100
AcDbEntity
  8
DEFPOINTS
 62
     0
 48
50.0
100
AcDbPoint
 10
8604.926821601727
 20
1843.102224239992
 30
0.0
  0
ENDBLK
  5
2DDF2
330
2DDE5
100
AcDbEntity
  8
0
 48
50.0
100
AcDbBlockEnd
  0
BLOCK
  5
2DDFC
330
2DDF3
100
AcDbEntity
  8
0
 48
50.0
100
AcDbBlockBegin
  2
*D38
 70
     1
 10
0.0
 20
0.0
 30
0.0
  3
*D38
  1

  0
LINE
  5
2DF8B
330
2DDF3
100
AcDbEntity
  8
寸法
 62
     0
 48
50.0
370
    -2
100
AcDbLine
 10
7652.522739241888
 20
1843.102224239992
 30
0.0
 11
8319.858488952943
 21
1843.102224239992
 31
0.0
  0
LINE
  5
2DF8C
330
2DDF3
100
AcDbEntity
  8
寸法
 62
     0
 48
50.0
370
    -2
100
AcDbLine
 10
7652.522739241888
 20
1438.102224239989
 30
0.0
 11
8319.858488952943
 21
1438.102224239989
 31
0.0
  0
LINE
  5
2DF8D
330
2DDF3
100
AcDbEntity
  8
寸法
 62
     0
 48
50.0
370
    -2
100
AcDbLine
 10
8259.858488952943
 20
1843.102224239992
 30
0.0
 11
8259.858488952943
 21
1438.102224239989
 31
0.0
  0
INSERT
  5
2DF8E
330
2DDF3
100
AcDbEntity
  8
寸法
 62
     0
 48
50.0
370
    -2
100
AcDbBlockReference
  2
_DOTSMALL
 10
8259.858488952943
 20
1843.102224239992
 30
0.0
 41
100.0
 42
100.0
 43
100.0
 50
90.0
  0
INSERT
  5
2DF8F
330
2DDF3
100
AcDbEntity
  8
寸法
 62
     0
 48
50.0
370
    -2
100
AcDbBlockReference
  2
_DOTSMALL
 10
8259.858488952943
 20
1438.102224239989
 30
0.0
 41
100.0
 42
100.0
 43
100.0
 50
270.0
  0
MTEXT
  5
2DF90
330
2DDF3
100
AcDbEntity
  8
寸法
 62
     7
 48
50.0
100
AcDbMText
 10
8159.858488952943
 20
1640.602224239992
 30
0.0
 40
120.0
 41
0.0
 71
     5
 72
     1
  1
\A1;180
  7
STYLE1
 11
0.0000000000000001
 21
1.0
 31
0.0
 73
     1
 44
1.0
1001
ACAD
1000
MTEXTBEGIN
1070
    73
1070
     1
1070
    44
1040
1.0
1070
    74
1070
     0
1000
MTEXTEND
  0
POINT
  5
2DF91
330
2DDF3
100
AcDbEntity
  8
DEFPOINTS
 62
     0
 48
50.0
100
AcDbPoint
 10
7632.522739241888
 20
1843.102224239992
 30
0.0
  0
POINT
  5
2DF92
330
2DDF3
100
AcDbEntity
  8
DEFPOINTS
 62
     0
 48
50.0
100
AcDbPoint
 10
7632.522739241888
 20
1438.102224239989
 30
0.0
  0
POINT
  5
2DF93
330
2DDF3
100
AcDbEntity
  8
DEFPOINTS
 62
     0
 48
50.0
100
AcDbPoint
 10
8259.858488952943
 20
1438.102224239989
 30
0.0
  0
ENDBLK
  5
2DDFD
330
2DDF3
100
AcDbEntity
  8
0
 48
50.0
100
AcDbBlockEnd
  0
BLOCK
  5
2DE08
330
2DDFE
100
AcDbEntity
  8
0
 48
50.0
100
AcDbBlockBegin
  2
*D39
 70
     1
 10
0.0
 20
0.0
 30
0.0
  3
*D39
  1

  0
LINE
  5
2DF82
330
2DDFE
100
AcDbEntity
  8
寸法
 62
     0
 48
50.0
370
    -2
100
AcDbLine
 10
4829.973597770393
 20
683.1022242399902
 30
0.0
 11
4829.973597770393
 21
344.1501177840573
 31
0.0
  0
LINE
  5
2DF83
330
2DDFE
100
AcDbEntity
  8
寸法
 62
     0
 48
50.0
370
    -2
100
AcDbLine
 10
5389.973597770395
 20
683.1022242399902
 30
0.0
 11
5389.973597770395
 21
344.1501177840573
 31
0.0
  0
LINE
  5
2DF84
330
2DDFE
100
AcDbEntity
  8
寸法
 62
     0
 48
50.0
370
    -2
100
AcDbLine
 10
4829.973597770393
 20
404.1501177840573
 30
0.0
 11
5389.973597770395
 21
404.1501177840573
 31
0.0
  0
INSERT
  5
2DF85
330
2DDFE
100
AcDbEntity
  8
寸法
 62
     0
 48
50.0
370
    -2
100
AcDbBlockReference
  2
_DOTSMALL
 10
4829.973597770393
 20
404.1501177840573
 30
0.0
 41
100.0
 42
100.0
 43
100.0
 50
180.0
  0
INSERT
  5
2DF86
330
2DDFE
100
AcDbEntity
  8
寸法
 62
     0
 48
50.0
370
    -2
100
AcDbBlockReference
  2
_DOTSMALL
 10
5389.973597770395
 20
404.1501177840573
 30
0.0
 41
100.0
 42
100.0
 43
100.0
  0
MTEXT
  5
2DF87
330
2DDFE
100
AcDbEntity
  8
寸法
 62
     7
 48
50.0
100
AcDbMText
 10
5109.973597770395
 20
504.1501177840573
 30
0.0
 40
120.0
 41
0.0
 71
     5
 72
     1
  1
\A1;300
  7
STYLE1
 73
     1
 44
1.0
1001
ACAD
1000
MTEXTBEGIN
1070
    73
1070
     1
1070
    44
1040
1.0
1070
    74
1070
     0
1000
MTEXTEND
  0
POINT
  5
2DF88
330
2DDFE
100
AcDbEntity
  8
DEFPOINTS
 62
     0
 48
50.0
100
AcDbPoint
 10
4829.973597770393
 20
703.1022242399902
 30
0.0
  0
POINT
  5
2DF89
330
2DDFE
100
AcDbEntity
  8
DEFPOINTS
 62
     0
 48
50.0
100
AcDbPoint
 10
5389.973597770395
 20
703.1022242399902
 30
0.0
  0
POINT
  5
2DF8A
330
2DDFE
100
AcDbEntity
  8
DEFPOINTS
 62
     0
 48
50.0
100
AcDbPoint
 10
5389.973597770395
 20
404.1501177840573
 30
0.0
  0
ENDBLK
  5
2DE09
330
2DDFE
100
AcDbEntity
  8
0
 48
50.0
100
AcDbBlockEnd
  0
BLOCK
  5
2DE14
330
2DE0A
100
AcDbEntity
  8
0
 48
50.0
100
AcDbBlockBegin
  2
*D40
 70
     1
 10
0.0
 20
0.0
 30
0.0
  3
*D40
  1

  0
LINE
  5
2DF79
330
2DE0A
100
AcDbEntity
  8
寸法
 62
     0
 48
50.0
370
    -2
100
AcDbLine
 10
4969.973597770394
 20
1843.102224239992
 30
0.0
 11
4169.328659734329
 21
1843.102224239992
 31
0.0
  0
LINE
  5
2DF7A
330
2DE0A
100
AcDbEntity
  8
寸法
 62
     0
 48
50.0
370
    -2
100
AcDbLine
 10
4709.973597770396
 20
863.1022242399904
 30
0.0
 11
4169.328659734329
 21
863.1022242399906
 31
0.0
  0
LINE
  5
2DF7B
330
2DE0A
100
AcDbEntity
  8
寸法
 62
     0
 48
50.0
370
    -2
100
AcDbLine
 10
4229.32865973433
 20
1843.102224239992
 30
0.0
 11
4229.32865973433
 21
863.1022242399906
 31
0.0
  0
INSERT
  5
2DF7C
330
2DE0A
100
AcDbEntity
  8
寸法
 62
     0
 48
50.0
370
    -2
100
AcDbBlockReference
  2
_DOTSMALL
 10
4229.32865973433
 20
1843.102224239992
 30
0.0
 41
100.0
 42
100.0
 43
100.0
 50
90.0
  0
INSERT
  5
2DF7D
330
2DE0A
100
AcDbEntity
  8
寸法
 62
     0
 48
50.0
370
    -2
100
AcDbBlockReference
  2
_DOTSMALL
 10
4229.32865973433
 20
863.1022242399906
 30
0.0
 41
100.0
 42
100.0
 43
100.0
 50
270.0
  0
MTEXT
  5
2DF7E
330
2DE0A
100
AcDbEntity
  8
寸法
 62
     7
 48
50.0
100
AcDbMText
 10
4129.328659734329
 20
1353.102224239991
 30
0.0
 40
120.0
 41
0.0
 71
     5
 72
     1
  1
\A1;540
  7
STYLE1
 11
0.0000000000000001
 21
1.0
 31
0.0
 73
     1
 44
1.0
1001
ACAD
1000
MTEXTBEGIN
1070
    73
1070
     1
1070
    44
1040
1.0
1070
    74
1070
     0
1000
MTEXTEND
  0
POINT
  5
2DF7F
330
2DE0A
100
AcDbEntity
  8
DEFPOINTS
 62
     0
 48
50.0
100
AcDbPoint
 10
4989.973597770394
 20
1843.102224239992
 30
0.0
  0
POINT
  5
2DF80
330
2DE0A
100
AcDbEntity
  8
DEFPOINTS
 62
     0
 48
50.0
100
AcDbPoint
 10
4729.973597770396
 20
863.1022242399904
 30
0.0
  0
POINT
  5
2DF81
330
2DE0A
100
AcDbEntity
  8
DEFPOINTS
 62
     0
 48
50.0
100
AcDbPoint
 10
4229.32865973433
 20
863.1022242399906
 30
0.0
  0
ENDBLK
  5
2DE15
330
2DE0A
100
AcDbEntity
  8
0
 48
50.0
100
AcDbBlockEnd
  0
BLOCK
  5
2DE20
330
2DE16
100
AcDbEntity
  8
0
 48
50.0
100
AcDbBlockBegin
  2
*D41
 70
     1
 10
0.0
 20
0.0
 30
0.0
  3
*D41
  1

  0
LINE
  5
2DF70
330
2DE16
100
AcDbEntity
  8
寸法
 62
     0
 48
50.0
370
    -2
100
AcDbLine
 10
4809.973597770393
 20
1163.10222423999
 30
0.0
 11
4591.948205604821
 21
1163.10222423999
 31
0.0
  0
LINE
  5
2DF71
330
2DE16
100
AcDbEntity
  8
寸法
 62
     0
 48
50.0
370
    -2
100
AcDbLine
 10
4709.973597770396
 20
863.1022242399904
 30
0.0
 11
4591.948205604821
 21
863.1022242399904
 31
0.0
  0
LINE
  5
2DF72
330
2DE16
100
AcDbEntity
  8
寸法
 62
     0
 48
50.0
370
    -2
100
AcDbLine
 10
4651.948205604821
 20
1163.10222423999
 30
0.0
 11
4651.948205604821
 21
863.1022242399904
 31
0.0
  0
INSERT
  5
2DF73
330
2DE16
100
AcDbEntity
  8
寸法
 62
     0
 48
50.0
370
    -2
100
AcDbBlockReference
  2
_DOTSMALL
 10
4651.948205604821
 20
1163.10222423999
 30
0.0
 41
100.0
 42
100.0
 43
100.0
 50
90.0
  0
INSERT
  5
2DF74
330
2DE16
100
AcDbEntity
  8
寸法
 62
     0
 48
50.0
370
    -2
100
AcDbBlockReference
  2
_DOTSMALL
 10
4651.948205604821
 20
863.1022242399904
 30
0.0
 41
100.0
 42
100.0
 43
100.0
 50
270.0
  0
MTEXT
  5
2DF75
330
2DE16
100
AcDbEntity
  8
寸法
 62
     7
 48
50.0
100
AcDbMText
 10
4551.948205604821
 20
1013.10222423999
 30
0.0
 40
120.0
 41
0.0
 71
     5
 72
     1
  1
\A1;150
  7
STYLE1
 11
0.0000000000000001
 21
1.0
 31
0.0
 73
     1
 44
1.0
1001
ACAD
1000
MTEXTBEGIN
1070
    73
1070
     1
1070
    44
1040
1.0
1070
    74
1070
     0
1000
MTEXTEND
  0
POINT
  5
2DF76
330
2DE16
100
AcDbEntity
  8
DEFPOINTS
 62
     0
 48
50.0
100
AcDbPoint
 10
4829.973597770393
 20
1163.10222423999
 30
0.0
  0
POINT
  5
2DF77
330
2DE16
100
AcDbEntity
  8
DEFPOINTS
 62
     0
 48
50.0
100
AcDbPoint
 10
4729.973597770396
 20
863.1022242399904
 30
0.0
  0
POINT
  5
2DF78
330
2DE16
100
AcDbEntity
  8
DEFPOINTS
 62
     0
 48
50.0
100
AcDbPoint
 10
4651.948205604821
 20
863.1022242399904
 30
0.0
  0
ENDBLK
  5
2DE21
330
2DE16
100
AcDbEntity
  8
0
 48
50.0
100
AcDbBlockEnd
  0
BLOCK
  5
2DE2C
330
2DE22
100
AcDbEntity
  8
0
 48
50.0
100
AcDbBlockBegin
  2
*D42
 70
     1
 10
0.0
 20
0.0
 30
0.0
  3
*D42
  1

  0
LINE
  5
2DF67
330
2DE22
100
AcDbEntity
  8
寸法
 62
     0
 48
50.0
370
    -2
100
AcDbLine
 10
5229.973597770394
 20
1863.102224239992
 30
0.0
 11
5229.973597770394
 21
2427.686984135467
 31
0.0
  0
LINE
  5
2DF68
330
2DE22
100
AcDbEntity
  8
寸法
 62
     0
 48
50.0
370
    -2
100
AcDbLine
 10
4989.973597770394
 20
1863.102224239992
 30
0.0
 11
4989.973597770394
 21
2427.686984135467
 31
0.0
  0
LINE
  5
2DF69
330
2DE22
100
AcDbEntity
  8
寸法
 62
     0
 48
50.0
370
    -2
100
AcDbLine
 10
5229.973597770394
 20
2367.686984135467
 30
0.0
 11
4989.973597770394
 21
2367.686984135467
 31
0.0
  0
INSERT
  5
2DF6A
330
2DE22
100
AcDbEntity
  8
寸法
 62
     0
 48
50.0
370
    -2
100
AcDbBlockReference
  2
_DOTSMALL
 10
5229.973597770394
 20
2367.686984135467
 30
0.0
 41
100.0
 42
100.0
 43
100.0
  0
INSERT
  5
2DF6B
330
2DE22
100
AcDbEntity
  8
寸法
 62
     0
 48
50.0
370
    -2
100
AcDbBlockReference
  2
_DOTSMALL
 10
4989.973597770394
 20
2367.686984135467
 30
0.0
 41
100.0
 42
100.0
 43
100.0
 50
180.0
  0
MTEXT
  5
2DF6C
330
2DE22
100
AcDbEntity
  8
寸法
 62
     7
 48
50.0
100
AcDbMText
 10
5109.973597770395
 20
2573.727796700271
 30
0.0
 40
120.0
 41
0.0
 71
     5
 72
     1
  1
\A1;120\P(195)
  7
STYLE1
 73
     1
 44
1.0
1001
ACAD
1000
MTEXTBEGIN
1070
    73
1070
     1
1070
    44
1040
1.0
1070
    74
1070
     0
1000
MTEXTEND
  0
POINT
  5
2DF6D
330
2DE22
100
AcDbEntity
  8
DEFPOINTS
 62
     0
 48
50.0
100
AcDbPoint
 10
5229.973597770394
 20
1843.102224239992
 30
0.0
  0
POINT
  5
2DF6E
330
2DE22
100
AcDbEntity
  8
DEFPOINTS
 62
     0
 48
50.0
100
AcDbPoint
 10
4989.973597770394
 20
1843.102224239992
 30
0.0
  0
POINT
  5
2DF6F
330
2DE22
100
AcDbEntity
  8
DEFPOINTS
 62
     0
 48
50.0
100
AcDbPoint
 10
4989.973597770394
 20
2367.686984135467
 30
0.0
  0
ENDBLK
  5
2DE2D
330
2DE22
100
AcDbEntity
  8
0
 48
50.0
100
AcDbBlockEnd
  0
ENDSEC
  0
SECTION
  2
ENTITIES
  0
MTEXT
  5
763F
330
747D
100
AcDbEntity
  8
0
100
AcDbMText
 10
302.846345836809
 20
280.1983726409901
 30
0.0
 40
3.5
 41
5.323721266742722
 71
     1
 72
     5
  1

  7
MSMINCHO
 73
     1
 44
1.0
1001
ACAD
1000
MTEXTBEGIN
1070
    73
1070
     1
1070
    44
1040
1.0
1070
    74
1070
     0
1000
MTEXTEND
  0
LINE
  5
10B57
330
747D
100
AcDbEntity
  8
補助
  6
PHANTOM
 62
   230
 48
50.0
100
AcDbLine
 10
139.9999999999995
 20
11409.6
 30
0.0
 11
16307.2
 21
11409.6
 31
0.0
  0
LINE
  5
10B59
330
747D
100
AcDbEntity
  8
仕様書枠
  6
Continuous
 48
50.0
100
AcDbLine
 10
13107.2
 20
1200.0
 30
0.0
 11
13107.2
 21
-0.0000000000000729
 31
0.0
  0
LINE
  5
10B5D
330
747D
100
AcDbEntity
  8
仕様書枠
 48
50.0
100
AcDbLine
 10
140.0
 20
0.0
 30
0.0
 11
16307.2
 21
-0.0000000000000909
 31
0.0
  0
LINE
  5
10B5E
330
747D
100
AcDbEntity
  8
補助
  6
PHANTOM
 62
   230
 48
50.0
100
AcDbLine
 10
16307.2
 20
11409.6
 30
0.0
 11
16307.2
 21
1200.0
 31
0.0
  0
LINE
  5
10B6C
330
747D
100
AcDbEntity
  8
仕様書枠
 48
50.0
100
AcDbLine
 10
13107.2
 20
1200.0
 30
0.0
 11
16307.2
 21
1200.0
 31
0.0
  0
TEXT
  5
10B73
330
747D
100
AcDbEntity
  8
文字
 62
     7
 48
50.0
100
AcDbText
 10
13162.9790565769
 20
895.0906074299405
 30
0.0
 40
200.0
  1
基 礎 図
  7
STYLE2
100
AcDbText
  0
LINE
  5
10B7B
330
747D
100
AcDbEntity
  8
仕様書枠
 48
50.0
100
AcDbLine
 10
13107.2
 20
800.0
 30
0.0
 11
14251.2
 21
800.0
 31
0.0
  0
LINE
  5
10B88
330
747D
100
AcDbEntity
  8
仕様書枠
  6
Continuous
 48
50.0
100
AcDbLine
 10
14251.2
 20
1200.0
 30
0.0
 11
14251.2
 21
800.0
 31
0.0
  0
LINE
  5
16462
330
747D
100
AcDbEntity
  8
仕様書枠
 48
50.0
100
AcDbLine
 10
16307.2
 20
1200.0
 30
0.0
 11
16307.2
 21
-0.0000000000000909
 31
0.0
  0
LINE
  5
1903B
330
747D
100
AcDbEntity
  8
補助
  6
PHANTOM
 62
   230
 48
50.0
100
AcDbLine
 10
140.0
 20
0.0
 30
0.0
 11
139.9999999999995
 21
11409.6
 31
0.0
  0
LEADER
  5
1AC27
330
747D
100
AcDbEntity
  8
寸法
 48
50.0
100
AcDbLeader
  3
INABA_S40G
 73
     0
 74
     0
 75
     1
 40
120.0
 41
720.0000000000001
 76
     3
 10
11698.695499615
 20
7002.261360364534
 30
0.0
 10
11865.46907400128
 20
6726.247446796701
 30
0.0
 10
11965.46907400128
 20
6726.247446796701
 30
0.0
340
1AC28
1001
ACAD
1000
DSTYLE
1002
{
1070
   341
1005
0
1002
}
  0
MTEXT
  5
1AC28
102
{ACAD_REACTORS
330
1AC27
102
}
330
747D
100
AcDbEntity
  8
部品1
 62
     7
 48
50.0
100
AcDbMText
 10
12725.46907400128
 20
6826.247446796701
 30
0.0
 40
120.0
 41
0.0
 71
     6
 72
     1
  1
\A1;床下換気口
  7
STYLE1
 73
     1
 44
1.0
1001
ACAD
1000
MTEXTBEGIN
1070
    73
1070
     1
1070
    44
1040
1.0
1070
    74
1070
     0
1000
MTEXTEND
  0
TEXT
  5
1AC29
330
747D
100
AcDbEntity
  8
部品1
 48
50.0
100
AcDbText
 10
12042.50116389397
 20
5182.96828844593
 30
0.0
 40
80.0
  1
(a=45,b=55,c=75)
  7
STYLE1
100
AcDbText
  0
TEXT
  5
1AC2A
330
747D
100
AcDbEntity
  8
部品1
 48
50.0
100
AcDbText
 10
11883.92215513967
 20
5289.813509314685
 30
0.0
 40
80.0
  1
※a,b,cは屋根の出幅です。
  7
STYLE1
100
AcDbText
  0
MTEXT
  5
1AC2B
102
{ACAD_REACTORS
330
1AC2C
102
}
330
747D
100
AcDbEntity
  8
部品1
 62
     7
 48
50.0
100
AcDbMText
 10
12681.70935112828
 20
5469.12419624776
 30
0.0
 40
120.0
 41
0.0
 71
     6
 72
     1
  1
\A1;屋根の外寸
  7
STYLE1
 73
     1
 44
1.0
1001
ACAD
1000
MTEXTBEGIN
1070
    73
1070
     1
1070
    44
1040
1.0
1070
    74
1070
     0
1000
MTEXTEND
  0
LEADER
  5
1AC2C
330
747D
100
AcDbEntity
  8
寸法
 48
50.0
100
AcDbLeader
  3
INABA_S40G
 73
     0
 74
     0
 75
     1
 40
120.0
 41
672.0
 76
     3
 10
11743.76933893624
 20
5643.013539711335
 30
0.0
 10
11869.70935112828
 20
5369.12419624776
 30
0.0
 10
11969.70935112828
 20
5369.12419624776
 30
0.0
340
1AC2B
1001
ACAD
1000
DSTYLE
1002
{
1070
   341
1005
0
1002
}
  0
TEXT
  5
1C7A1
330
747D
100
AcDbEntity
  8
文字
 62
     7
 48
50.0
100
AcDbText
 10
13188.16259899338
 20
79.80631269190417
 30
0.0
 40
80.0
  1
※布基礎には換気口を設けてください。
  7
STYLE2
100
AcDbText
  0
TEXT
  5
1C7E7
330
747D
100
AcDbEntity
  8
文字
 62
     7
 48
50.0
100
AcDbText
 10
13188.16259899338
 20
246.7109242801889
 30
0.0
 40
80.0
  1
※寒冷地等は地域の実情に合わせた基礎にして下さい。
  7
STYLE2
100
AcDbText
  0
TEXT
  5
1C7E8
330
747D
100
AcDbEntity
  8
文字
 62
     7
 48
50.0
100
AcDbText
 10
14366.22652727586
 20
499.5983841039506
 30
0.0
 40
160.0
  1
ＮＸＮ－２２０Ｈ
  7
STYLE2
100
AcDbText
  0
TEXT
  5
1C7EC
330
747D
100
AcDbEntity
  8
文字
 62
     7
 48
50.0
100
AcDbText
 10
14524.131837222
 20
1031.557706291229
 30
0.0
 40
100.0
  1
      <縮尺> S=1/40
  7
STYLE2
100
AcDbText
  0
TEXT
  5
1C7ED
330
747D
100
AcDbEntity
  8
文字
 62
     7
 48
50.0
100
AcDbText
 10
13201.43669998441
 20
477.2740661031257
 30
0.0
 40
160.0
  1
機種名
  7
STYLE2
100
AcDbText
  0
LINE
  5
1C7EF
330
747D
100
AcDbEntity
  8
文字
 62
     7
 48
50.0
100
AcDbLine
 10
13187.2
 20
400.0
 30
0.0
 11
16227.2
 21
400.0
 31
0.0
  0
MTEXT
  5
1D2D5
102
{ACAD_REACTORS
330
1D2D6
102
}
330
747D
100
AcDbEntity
  8
部品1
 62
     7
 48
50.0
100
AcDbMText
 10
12893.99523070988
 20
8802.775100420602
 30
0.0
 40
120.0
 41
0.0
 71
     6
 72
     1
  1
アンカーボルト
  7
STYLE1
 73
     1
 44
1.0
1001
ACAD
1000
MTEXTBEGIN
1070
    73
1070
     1
1070
    44
1040
1.0
1070
    74
1070
     0
1000
MTEXTEND
  0
LEADER
  5
1D2D6
330
747D
100
AcDbEntity
  8
寸法
 48
50.0
100
AcDbLeader
  3
INABA_S40G
 73
     0
 74
     0
 75
     1
 40
120.0
 41
994.3492424049171
 76
     3
 10
11575.680085757
 20
8395.267034141429
 30
0.0
 10
11759.64598830496
 20
8702.775100420602
 30
0.0
 10
11859.64598830496
 20
8702.775100420602
 30
0.0
340
1D2D5
1001
ACAD
1000
DSTYLE
1002
{
1070
   341
1005
0
1002
}
  0
DIMENSION
  5
26F00
330
747D
100
AcDbEntity
  8
寸法
 48
50.0
100
AcDbDimension
  2
*D1
 10
8043.202780124335
 20
5458.059189782744
 30
0.0
 11
8043.202780124333
 21
4849.573908408505
 31
0.0
 70
   160
  1
扉の出<>
 71
     5
 42
75.0
  3
INABA_S40G
100
AcDbAlignedDimension
 13
7776.600000000001
 23
5383.059189782745
 33
0.0
 14
7776.600000000009
 24
5458.059189782744
 34
0.0
 50
90.0
100
AcDbRotatedDimension
1001
ACAD
1000
DSTYLE
1002
{
1070
   341
1005
0
1002
}
  0
DIMENSION
  5
26F1A
330
747D
100
AcDbEntity
  8
寸法
 48
50.0
100
AcDbDimension
  2
*D2
 10
4007.164931848214
 20
8518.05918978272
 30
0.0
 11
3907.164931848213
 21
8555.559189782721
 31
0.0
 70
    32
  1
c
 71
     5
 42
75.00000000000364
  3
INABA_S40G
100
AcDbAlignedDimension
 13
4252.657733986182
 23
8593.059189782721
 33
0.0
 14
4748.600000000004
 24
8518.059189782718
 34
0.0
 50
90.0
100
AcDbRotatedDimension
1001
ACAD
1000
DSTYLE
1002
{
1070
   341
1005
0
1002
}
  0
DIMENSION
  5
26F3F
330
747D
100
AcDbEntity
  8
寸法
 48
50.0
100
AcDbDimension
  2
*D3
 10
4007.164931848211
 20
5403.059189782741
 30
0.0
 11
3907.16493184821
 21
5430.55918978273
 31
0.0
 70
    32
  1
b
 71
     5
 42
54.99999999997817
  3
INABA_S40G
100
AcDbAlignedDimension
 13
4755.050294581424
 23
5458.059189782719
 33
0.0
 14
4252.657733986182
 24
5403.059189782741
 34
0.0
 50
90.0
100
AcDbRotatedDimension
1001
ACAD
1000
DSTYLE
1002
{
1070
   341
1005
0
1002
}
  0
DIMENSION
  5
26F64
330
747D
100
AcDbEntity
  8
寸法
 48
50.0
100
AcDbDimension
  2
*D4
 10
11743.6
 20
9476.27951184164
 30
0.0
 11
12014.77462120245
 21
9476.27951184164
 31
0.0
 70
   160
  1
a
 71
     5
 42
45.0
  3
INABA_S40G
100
AcDbAlignedDimension
 13
11698.6
 23
8518.059189782718
 33
0.0
 14
11743.6
 24
9263.818816324802
 34
0.0
100
AcDbRotatedDimension
1001
ACAD
1000
DSTYLE
1002
{
1070
   341
1005
0
1002
}
  0
DIMENSION
  5
26F7E
330
747D
100
AcDbEntity
  8
寸法
 48
50.0
100
AcDbDimension
  2
*D5
 10
4748.6
 20
9476.27951184164
 30
0.0
 11
4432.425378797542
 21
9476.27951184164
 31
0.0
 70
   160
  1
a
 71
     5
 42
44.99999999999454
  3
INABA_S40G
100
AcDbAlignedDimension
 13
4703.600000000005
 23
9263.818816324802
 33
0.0
 14
4748.6
 24
8518.059189782718
 34
0.0
100
AcDbRotatedDimension
1001
ACAD
1000
DSTYLE
1002
{
1070
   341
1005
0
1002
}
  0
DIMENSION
  5
2701E
330
747D
100
AcDbEntity
  8
寸法
 48
50.0
100
AcDbDimension
  2
*D6
 10
5889.18320630424
 20
5578.059189782724
 30
0.0
 11
5889.183206304239
 21
5144.364248578837
 31
0.0
 70
   160
 71
     5
 42
194.9999999999936
  3
INABA_S40G
100
AcDbAlignedDimension
 13
5621.6
 23
5383.059189782731
 33
0.0
 14
5621.6
 24
5578.059189782724
 34
0.0
 50
90.0
100
AcDbRotatedDimension
1001
ACAD
1000
DSTYLE
1002
{
1070
   341
1005
0
1002
}
  0
MTEXT
  5
29996
102
{ACAD_REACTORS
330
29997
102
}
330
747D
100
AcDbEntity
  8
部品1
 62
     7
 48
50.0
100
AcDbMText
 10
6058.440328953422
 20
6650.069953519191
 30
0.0
 40
120.0
 41
0.0
 71
     6
 72
     1
  1
CB
  7
STYLE1
 73
     1
 44
1.0
1001
ACAD
1000
MTEXTBEGIN
1070
    73
1070
     1
1070
    44
1040
1.0
1070
    74
1070
     0
1000
MTEXTEND
  0
LEADER
  5
29997
330
747D
100
AcDbEntity
  8
寸法
 48
50.0
100
AcDbLeader
  3
INABA_S40G
 73
     0
 74
     0
 75
     1
 40
120.0
 41
149.591883092037
 76
     3
 10
5631.565642998741
 20
6826.083867087025
 30
0.0
 10
5768.848445861385
 20
6550.069953519191
 30
0.0
 10
5868.848445861384
 20
6550.069953519191
 30
0.0
340
29996
1001
ACAD
1000
DSTYLE
1002
{
1070
   341
1005
0
1002
}
  0
DIMENSION
  5
2A1B2
330
747D
100
AcDbEntity
  8
寸法
 48
50.0
100
AcDbDimension
  2
*D7
 10
8223.600000000001
 20
9044.968955431048
 30
0.0
 11
8675.1
 21
9144.968955431048
 31
0.0
 70
    32
 71
     5
 42
903.0
  3
INABA_S40G
100
AcDbAlignedDimension
 13
9126.600000000001
 23
7843.05918978272
 33
0.0
 14
8223.600000000001
 24
7843.05918978272
 34
0.0
100
AcDbRotatedDimension
1001
ACAD
1000
DSTYLE
1002
{
1070
   341
1005
0
1002
}
  0
LINE
  5
2A1B3
102
{ACAD_REACTORS
330
2DEF0
102
}
330
747D
100
AcDbEntity
  8
部品1
 48
50.0
100
AcDbLine
 10
11468.6
 20
5578.059189782735
 30
0.0
 11
8235.600000000001
 21
5578.059189782731
 31
0.0
  0
LINE
  5
2A1B4
102
{ACAD_REACTORS
330
2DEF0
102
}
330
747D
100
AcDbEntity
  8
部品1
 48
50.0
100
AcDbLine
 10
11698.6
 20
5458.059189782738
 30
0.0
 11
7776.600000000001
 21
5458.059189782719
 31
0.0
  0
LINE
  5
2A1B5
102
{ACAD_REACTORS
330
2DEF0
102
}
330
747D
100
AcDbEntity
  8
部品1
 48
50.0
100
AcDbLine
 10
11468.6
 20
8398.059189782719
 30
0.0
 11
8235.600000000001
 21
8398.059189782719
 31
0.0
  0
DIMENSION
  5
2A1B6
330
747D
100
AcDbEntity
  8
寸法
 48
50.0
100
AcDbDimension
  2
*D8
 10
8105.6
 20
9263.818816324803
 30
0.0
 11
9840.600000000002
 21
9363.818816324803
 31
0.0
 70
    32
 71
     5
 42
3470.0
  3
INABA_S40G
100
AcDbAlignedDimension
 13
11575.6
 23
8445.059189782718
 33
0.0
 14
8105.6
 24
8445.059189782718
 34
0.0
100
AcDbRotatedDimension
1001
ACAD
1000
DSTYLE
1002
{
1070
   341
1005
0
1002
}
  0
DIMENSION
  5
2A1B7
330
747D
100
AcDbEntity
  8
寸法
 48
50.0
100
AcDbDimension
  2
*D9
 10
11698.6
 20
9476.27951184164
 30
0.0
 11
8223.600000000001
 21
9576.27951184164
 31
0.0
 70
    32
 71
     5
 42
6950.0
  3
INABA_S40G
100
AcDbAlignedDimension
 13
4748.6
 23
8518.05918978272
 33
0.0
 14
11698.6
 24
8518.05918978272
 34
0.0
100
AcDbRotatedDimension
1001
ACAD
1000
DSTYLE
1002
{
1070
   341
1005
0
1002
}
  0
LINE
  5
2A1B8
102
{ACAD_REACTORS
330
2DEF0
102
}
330
747D
100
AcDbEntity
  8
部品1
 48
50.0
100
AcDbLine
 10
11698.6
 20
8518.05918978272
 30
0.0
 11
4748.6
 21
8518.05918978272
 31
0.0
  0
LINE
  5
2A1CC
102
{ACAD_REACTORS
330
2DEF0
102
}
330
747D
100
AcDbEntity
  8
部品1
 48
50.0
100
AcDbLine
 10
4748.6
 20
5458.059189782719
 30
0.0
 11
4748.6
 21
8518.05918978272
 31
0.0
  0
LINE
  5
2A1CD
102
{ACAD_REACTORS
330
2DEF0
102
}
330
747D
100
AcDbEntity
  8
部品1
 48
50.0
100
AcDbLine
 10
4868.6
 20
5688.059189782721
 30
0.0
 11
4868.6
 21
8288.059189782716
 31
0.0
  0
DIMENSION
  5
2A1CE
330
747D
100
AcDbEntity
  8
寸法
 48
50.0
100
AcDbDimension
  2
*D10
 10
4007.164931848211
 20
5458.059189782719
 30
0.0
 11
3907.16493184821
 21
6988.059189782721
 31
0.0
 70
    32
 71
     5
 42
3060.000000000002
  3
INABA_S40G
100
AcDbAlignedDimension
 13
4748.6
 23
8518.05918978272
 33
0.0
 14
4748.6
 24
5458.059189782719
 34
0.0
 50
90.0
100
AcDbRotatedDimension
1001
ACAD
1000
DSTYLE
1002
{
1070
   341
1005
0
1002
}
  0
DIMENSION
  5
2A1CF
330
747D
100
AcDbEntity
  8
寸法
 48
50.0
100
AcDbDimension
  2
*D11
 10
4252.657733986175
 20
5581.05918978272
 30
0.0
 11
4152.645922962552
 21
6988.05918978272
 31
0.0
 70
    32
 71
     5
 42
2813.999999999999
  3
INABA_S40G
100
AcDbAlignedDimension
 13
4821.6
 23
8395.059189782719
 33
0.0
 14
4821.600000000008
 24
5581.05918978272
 34
0.0
 50
90.0
100
AcDbRotatedDimension
1001
ACAD
1000
DSTYLE
1002
{
1070
   341
1005
0
1002
}
  0
LINE
  5
2A22E
330
747D
100
AcDbEntity
  8
部品1
 48
50.0
100
AcDbLine
 10
4748.6
 20
5458.059189782719
 30
0.0
 11
5621.6
 21
5458.059189782719
 31
0.0
  0
LINE
  5
2A22F
102
{ACAD_REACTORS
330
2DEF0
102
}
330
747D
100
AcDbEntity
  8
部品1
 48
50.0
100
AcDbLine
 10
7975.6
 20
5578.05918978273
 30
0.0
 11
4978.6
 21
5578.059189782724
 31
0.0
  0
DIMENSION
  5
2A231
330
747D
100
AcDbEntity
  8
寸法
 48
50.0
100
AcDbDimension
  2
*D12
 10
4748.6
 20
4839.052800128
 30
0.0
 11
5185.100000000001
 21
4939.052800128
 31
0.0
 70
    32
 71
     5
 42
873.0
  3
INABA_S40G
100
AcDbAlignedDimension
 13
5621.6
 23
5383.059189782709
 33
0.0
 14
4748.6
 24
5458.059189782719
 34
0.0
100
AcDbRotatedDimension
1001
ACAD
1000
DSTYLE
1002
{
1070
   341
1005
0
1002
}
  0
DIMENSION
  5
2A233
330
747D
100
AcDbEntity
  8
寸法
 48
50.0
100
AcDbDimension
  2
*D13
 10
4252.657733986178
 20
5458.059189782719
 30
0.0
 11
4252.657733986178
 21
5122.528240940128
 31
0.0
 70
   160
 71
     5
 42
123.0000000000009
  3
INABA_S40G
100
AcDbAlignedDimension
 13
4821.600000000008
 23
5581.05918978272
 33
0.0
 14
4748.6
 24
5458.059189782719
 34
0.0
 50
90.0
100
AcDbRotatedDimension
1001
ACAD
1000
DSTYLE
1002
{
1070
   341
1005
0
1002
}
  0
LINE
  5
2A234
330
747D
100
AcDbEntity
  8
部品1
 48
50.0
100
AcDbLine
 10
4978.6
 20
5688.059189782723
 30
0.0
 11
4868.6
 21
5688.059189782721
 31
0.0
  0
LINE
  5
2A235
330
747D
100
AcDbEntity
  8
センター
 48
2.0
100
AcDbLine
 10
4821.600000000008
 20
5581.05918978272
 30
0.0
 11
4921.600000000008
 21
5581.05918978272
 31
0.0
  0
CIRCLE
  5
2A236
330
747D
100
AcDbEntity
  8
部品1
 48
50.0
100
AcDbCircle
 10
4871.600000000007
 20
5581.05918978272
 30
0.0
 40
35.0
  0
LINE
  5
2A237
330
747D
100
AcDbEntity
  8
センター
 48
2.0
100
AcDbLine
 10
4871.600000000007
 20
5631.059189782721
 30
0.0
 11
4871.600000000007
 21
5531.059189782721
 31
0.0
  0
LINE
  5
2A238
330
747D
100
AcDbEntity
  8
部品1
 48
50.0
100
AcDbLine
 10
4978.6
 20
5578.059189782724
 30
0.0
 11
4978.6
 21
5688.059189782723
 31
0.0
  0
LINE
  5
2A23A
102
{ACAD_REACTORS
330
2DEF0
102
}
330
747D
100
AcDbEntity
  8
部品1
 48
50.0
100
AcDbLine
 10
7776.600000000001
 20
5383.059189782724
 30
0.0
 11
5621.6
 21
5383.059189782709
 31
0.0
  0
LINE
  5
2A23D
330
747D
100
AcDbEntity
  8
部品1
 48
50.0
100
AcDbLine
 10
5621.6
 20
5383.059189782725
 30
0.0
 11
5621.6
 21
5458.059189782709
 31
0.0
  0
LINE
  5
2A2B2
102
{ACAD_REACTORS
330
2DEF0
102
}
330
747D
100
AcDbEntity
  8
部品1
 48
50.0
100
AcDbLine
 10
6388.600000000009
 20
5578.059189782726
 30
0.0
 11
6388.600000000009
 21
5383.059189782716
 31
0.0
  0
LINE
  5
2A333
102
{ACAD_REACTORS
330
2DEF0
102
}
330
747D
100
AcDbEntity
  8
部品1
 48
50.0
100
AcDbLine
 10
6588.600000000008
 20
5578.059189782726
 30
0.0
 11
6588.600000000005
 21
5383.059189782716
 31
0.0
  0
LINE
  5
2A418
330
747D
100
AcDbEntity
  8
部品1
 48
50.0
100
AcDbLine
 10
8235.600000000001
 20
5688.059189782737
 30
0.0
 11
7975.6
 21
5688.059189782737
 31
0.0
  0
LINE
  5
2A419
330
747D
100
AcDbEntity
  8
部品1
 48
50.0
100
AcDbLine
 10
7776.600000000001
 20
5383.059189782725
 30
0.0
 11
7776.600000000001
 21
5458.059189782723
 31
0.0
  0
LINE
  5
2A44A
330
747D
100
AcDbEntity
  8
部品1
 48
50.0
100
AcDbLine
 10
7975.599999999999
 20
5578.05918978273
 30
0.0
 11
7975.6
 21
5688.059189782737
 31
0.0
  0
LINE
  5
2A44B
330
747D
100
AcDbEntity
  8
部品1
 48
50.0
100
AcDbLine
 10
8235.600000000003
 20
5578.059189782731
 30
0.0
 11
8235.600000000001
 21
5688.059189782737
 31
0.0
  0
LINE
  5
2A44C
330
747D
100
AcDbEntity
  8
センター
 48
2.0
100
AcDbLine
 10
8105.600000000007
 20
5631.059189782721
 30
0.0
 11
8105.600000000007
 21
5531.059189782721
 31
0.0
  0
CIRCLE
  5
2A44D
330
747D
100
AcDbEntity
  8
部品1
 48
50.0
100
AcDbCircle
 10
8105.600000000007
 20
5581.05918978272
 30
0.0
 40
35.0
  0
LINE
  5
2A44E
330
747D
100
AcDbEntity
  8
センター
 48
2.0
100
AcDbLine
 10
8055.600000000008
 20
5581.05918978272
 30
0.0
 11
8155.600000000008
 21
5581.05918978272
 31
0.0
  0
DIMENSION
  5
2A44F
330
747D
100
AcDbEntity
  8
寸法
 48
50.0
100
AcDbDimension
  2
*D14
 10
5195.3072498761
 20
8518.059189782718
 30
0.0
 11
5195.307249876099
 21
8796.142733055605
 31
0.0
 70
   160
 71
     5
 42
120.0
  3
INABA_S40G
100
AcDbAlignedDimension
 13
4980.349773270519
 23
8398.059189782719
 33
0.0
 14
4978.600000000002
 24
8518.059189782718
 34
0.0
 50
90.0
100
AcDbRotatedDimension
1001
ACAD
1000
DSTYLE
1002
{
1070
   341
1005
0
1002
}
  0
DIMENSION
  5
2A450
330
747D
100
AcDbEntity
  8
寸法
 48
50.0
100
AcDbDimension
  2
*D15
 10
4748.6
 20
9044.968955431048
 30
0.0
 11
5202.6
 21
9144.968955431048
 31
0.0
 70
    32
 71
     5
 42
908.0
  3
INABA_S40G
100
AcDbAlignedDimension
 13
5656.6
 23
7843.05918978272
 33
0.0
 14
4748.6
 24
8518.05918978272
 34
0.0
100
AcDbRotatedDimension
1001
ACAD
1000
DSTYLE
1002
{
1070
   341
1005
0
1002
}
  0
DIMENSION
  5
2A451
330
747D
100
AcDbEntity
  8
寸法
 48
50.0
100
AcDbDimension
  2
*D16
 10
5195.3072498761
 20
8288.059189782716
 30
0.0
 11
5195.307249876099
 21
7948.000134664606
 31
0.0
 70
   160
 71
     5
 42
110.0000000000018
  3
INABA_S40G
100
AcDbAlignedDimension
 13
4980.349773270519
 23
8398.059189782719
 33
0.0
 14
4978.6
 24
8288.059189782716
 34
0.0
 50
90.0
100
AcDbRotatedDimension
1001
ACAD
1000
DSTYLE
1002
{
1070
   341
1005
0
1002
}
  0
DIMENSION
  5
2A452
330
747D
100
AcDbEntity
  8
寸法
 48
50.0
100
AcDbDimension
  2
*D17
 10
4871.6
 20
9263.818816324803
 30
0.0
 11
6488.600000000001
 21
9363.830627348425
 31
0.0
 70
    32
 71
     5
 42
3234.0
  3
INABA_S40G
100
AcDbAlignedDimension
 13
8105.6
 23
8445.059189782718
 33
0.0
 14
4871.6
 24
8445.059189782718
 34
0.0
100
AcDbRotatedDimension
1001
ACAD
1000
DSTYLE
1002
{
1070
   341
1005
0
1002
}
  0
LINE
  5
2A453
102
{ACAD_REACTORS
330
2DEF0
102
}
330
747D
100
AcDbEntity
  8
部品1
 48
50.0
100
AcDbLine
 10
7975.6
 20
8398.059189782719
 30
0.0
 11
4978.6
 21
8398.059189782719
 31
0.0
  0
DIMENSION
  5
2A455
330
747D
100
AcDbEntity
  8
寸法
 48
50.0
100
AcDbDimension
  2
*D18
 10
4252.657733986178
 20
8395.059189782719
 30
0.0
 11
4252.657733986178
 21
8791.165791500517
 31
0.0
 70
   160
 71
     5
 42
123.0000000000018
  3
INABA_S40G
100
AcDbAlignedDimension
 13
4748.6
 23
8518.05918978272
 33
0.0
 14
4821.6
 24
8395.059189782719
 34
0.0
 50
90.0
100
AcDbRotatedDimension
1001
ACAD
1000
DSTYLE
1002
{
1070
   341
1005
0
1002
}
  0
DIMENSION
  5
2A456
330
747D
100
AcDbEntity
  8
寸法
 48
50.0
100
AcDbDimension
  2
*D19
 10
4748.6
 20
9263.818816324803
 30
0.0
 11
4475.493398282202
 21
9263.818816324803
 31
0.0
 70
   160
 71
     5
 42
123.0
  3
INABA_S40G
100
AcDbAlignedDimension
 13
4871.6
 23
8445.059189782718
 33
0.0
 14
4748.6
 24
8518.05918978272
 34
0.0
100
AcDbRotatedDimension
1001
ACAD
1000
DSTYLE
1002
{
1070
   341
1005
0
1002
}
  0
LINE
  5
2A457
102
{ACAD_REACTORS
330
2DEF0
102
}
330
747D
100
AcDbEntity
  8
部品1
 48
50.0
100
AcDbLine
 10
4868.6
 20
7088.059189782723
 30
0.0
 11
4748.6
 21
7088.059189782723
 31
0.0
  0
LINE
  5
2A458
102
{ACAD_REACTORS
330
2DEF0
102
}
330
747D
100
AcDbEntity
  8
部品1
 48
50.0
100
AcDbLine
 10
4868.6
 20
6888.059189782723
 30
0.0
 11
4748.6
 21
6888.059189782723
 31
0.0
  0
LINE
  5
2A45A
330
747D
100
AcDbEntity
  8
部品1
 48
50.0
100
AcDbLine
 10
4978.599999999999
 20
8288.059189782716
 30
0.0
 11
4868.599999999998
 21
8288.059189782719
 31
0.0
  0
LINE
  5
2A45B
330
747D
100
AcDbEntity
  8
センター
 48
2.0
100
AcDbLine
 10
4821.6
 20
8395.059189782719
 30
0.0
 11
4921.600000000001
 21
8395.059189782719
 31
0.0
  0
CIRCLE
  5
2A45C
330
747D
100
AcDbEntity
  8
部品1
 48
50.0
100
AcDbCircle
 10
4871.6
 20
8395.059189782719
 30
0.0
 40
35.0
  0
LINE
  5
2A45D
330
747D
100
AcDbEntity
  8
センター
 48
2.0
100
AcDbLine
 10
4871.6
 20
8445.059189782718
 30
0.0
 11
4871.6
 21
8345.05918978272
 31
0.0
  0
LINE
  5
2A45E
330
747D
100
AcDbEntity
  8
部品1
 48
50.0
100
AcDbLine
 10
4978.599999999999
 20
8288.059189782716
 30
0.0
 11
4978.6
 21
8398.059189782719
 31
0.0
  0
LINE
  5
2A460
330
747D
100
AcDbEntity
  8
部品1
 48
50.0
100
AcDbLine
 10
5147.928907166848
 20
8518.059189782716
 30
0.0
 11
4748.6
 21
8518.05918978272
 31
0.0
  0
DIMENSION
  5
2A461
330
747D
100
AcDbEntity
  8
寸法
 48
50.0
100
AcDbDimension
  2
*D20
 10
7320.6
 20
9044.968955431048
 30
0.0
 11
7772.1
 21
9144.968955431048
 31
0.0
 70
    32
 71
     5
 42
903.0
  3
INABA_S40G
100
AcDbAlignedDimension
 13
8223.600000000001
 23
7843.05918978272
 33
0.0
 14
7320.6
 24
7843.05918978272
 34
0.0
100
AcDbRotatedDimension
1001
ACAD
1000
DSTYLE
1002
{
1070
   341
1005
0
1002
}
  0
LINE
  5
2A462
102
{ACAD_REACTORS
330
2DEF0
102
}
330
747D
100
AcDbEntity
  8
部品1
 48
50.0
100
AcDbLine
 10
6588.600000000003
 20
8518.05918978272
 30
0.0
 11
6588.600000000003
 21
8398.059189782719
 31
0.0
  0
LINE
  5
2A463
102
{ACAD_REACTORS
330
2DEF0
102
}
330
747D
100
AcDbEntity
  8
部品1
 48
50.0
100
AcDbLine
 10
6388.600000000002
 20
8518.05918978272
 30
0.0
 11
6388.600000000002
 21
8398.059189782719
 31
0.0
  0
DIMENSION
  5
2A465
330
747D
100
AcDbEntity
  8
寸法
 48
50.0
100
AcDbDimension
  2
*D21
 10
5656.6
 20
9044.968955431048
 30
0.0
 11
6072.600000000001
 21
9144.98076645467
 31
0.0
 70
    32
 71
     5
 42
832.0000000000009
  3
INABA_S40G
100
AcDbAlignedDimension
 13
6488.600000000001
 23
7843.05918978272
 33
0.0
 14
5656.6
 24
7843.05918978272
 34
0.0
100
AcDbRotatedDimension
1001
ACAD
1000
DSTYLE
1002
{
1070
   341
1005
0
1002
}
  0
DIMENSION
  5
2A466
330
747D
100
AcDbEntity
  8
寸法
 48
50.0
100
AcDbDimension
  2
*D22
 10
6488.600000000001
 20
9044.968955431048
 30
0.0
 11
6904.600000000001
 21
9144.98076645467
 31
0.0
 70
    32
 71
     5
 42
831.9999999999991
  3
INABA_S40G
100
AcDbAlignedDimension
 13
7320.6
 23
7843.05918978272
 33
0.0
 14
6488.600000000001
 24
7843.05918978272
 34
0.0
100
AcDbRotatedDimension
1001
ACAD
1000
DSTYLE
1002
{
1070
   341
1005
0
1002
}
  0
LINE
  5
2A499
330
747D
100
AcDbEntity
  8
部品1
 48
50.0
100
AcDbLine
 10
8235.600000000001
 20
8288.059189782702
 30
0.0
 11
7975.6
 21
8288.059189782702
 31
0.0
  0
LINE
  5
2A49A
330
747D
100
AcDbEntity
  8
部品1
 48
50.0
100
AcDbLine
 10
7975.599999999999
 20
8398.059189782719
 30
0.0
 11
7975.6
 21
8288.059189782702
 31
0.0
  0
LINE
  5
2A49B
330
747D
100
AcDbEntity
  8
部品1
 48
50.0
100
AcDbLine
 10
8235.600000000003
 20
8398.059189782719
 30
0.0
 11
8235.600000000001
 21
8288.059189782702
 31
0.0
  0
LINE
  5
2A49C
330
747D
100
AcDbEntity
  8
センター
 48
2.0
100
AcDbLine
 10
8055.600000000001
 20
8395.059189782719
 30
0.0
 11
8155.600000000001
 21
8395.059189782719
 31
0.0
  0
LINE
  5
2A49D
330
747D
100
AcDbEntity
  8
センター
 48
2.0
100
AcDbLine
 10
8105.6
 20
8445.059189782718
 30
0.0
 11
8105.6
 21
8345.05918978272
 31
0.0
  0
CIRCLE
  5
2A49E
330
747D
100
AcDbEntity
  8
部品1
 48
50.0
100
AcDbCircle
 10
8105.6
 20
8395.059189782719
 30
0.0
 40
35.0
  0
LINE
  5
2A49F
102
{ACAD_REACTORS
330
2DEF0
102
}
330
747D
100
AcDbEntity
  8
部品1
 48
50.0
100
AcDbLine
 10
11578.6
 20
5688.059189782739
 30
0.0
 11
11578.6
 21
8288.059189782719
 31
0.0
  0
LINE
  5
2A4A0
102
{ACAD_REACTORS
330
2DEF0
102
}
330
747D
100
AcDbEntity
  8
部品1
 48
50.0
100
AcDbLine
 10
11698.6
 20
5458.059189782738
 30
0.0
 11
11698.6
 21
8518.05918978272
 31
0.0
  0
DIMENSION
  5
2A4A1
330
747D
100
AcDbEntity
  8
寸法
 48
50.0
100
AcDbDimension
  2
*D23
 10
10478.85510029273
 20
6188.059189782709
 30
0.0
 11
10378.85510029272
 21
5823.059189782721
 31
0.0
 70
    32
 71
     5
 42
729.9999999999808
  3
INABA_S40G
100
AcDbAlignedDimension
 13
10224.04593925956
 23
5458.059189782729
 33
0.0
 14
10690.6
 24
6188.059189782709
 34
0.0
 50
90.0
100
AcDbRotatedDimension
1001
ACAD
1000
DSTYLE
1002
{
1070
   341
1005
0
1002
}
  0
LINE
  5
2A519
102
{ACAD_REACTORS
330
2DEF0
102
}
330
747D
100
AcDbEntity
  8
部品1
 48
50.0
100
AcDbLine
 10
9858.600000000016
 20
5578.059189782734
 30
0.0
 11
9858.600000000016
 21
5458.059189782733
 31
0.0
  0
LINE
  5
2A51A
102
{ACAD_REACTORS
330
2DEF0
102
}
330
747D
100
AcDbEntity
  8
部品1
 48
50.0
100
AcDbLine
 10
10058.60000000001
 20
5578.059189782734
 30
0.0
 11
10058.60000000001
 21
5458.059189782733
 31
0.0
  0
LINE
  5
2A51B
330
747D
100
AcDbEntity
  8
部品1
 48
50.0
100
AcDbLine
 10
11578.6
 20
5688.059189782737
 30
0.0
 11
11468.6
 21
5688.059189782737
 31
0.0
  0
LINE
  5
2A51C
330
747D
100
AcDbEntity
  8
部品1
 48
50.0
100
AcDbLine
 10
11468.6
 20
5578.059189782735
 30
0.0
 11
11468.6
 21
5688.059189782737
 31
0.0
  0
LINE
  5
2A51D
330
747D
100
AcDbEntity
  8
センター
 48
2.0
100
AcDbLine
 10
11525.60000000001
 20
5581.05918978272
 30
0.0
 11
11625.60000000001
 21
5581.05918978272
 31
0.0
  0
CIRCLE
  5
2A51E
330
747D
100
AcDbEntity
  8
部品1
 48
50.0
100
AcDbCircle
 10
11575.60000000001
 20
5581.05918978272
 30
0.0
 40
35.0
  0
LINE
  5
2A51F
330
747D
100
AcDbEntity
  8
センター
 48
2.0
100
AcDbLine
 10
11575.60000000001
 20
5631.059189782721
 30
0.0
 11
11575.60000000001
 21
5531.059189782721
 31
0.0
  0
DIMENSION
  5
2A524
330
747D
100
AcDbEntity
  8
寸法
 48
50.0
100
AcDbDimension
  2
*D24
 10
11575.6
 20
9263.818816324803
 30
0.0
 11
11971.7066017178
 21
9263.818816324803
 31
0.0
 70
   160
 71
     5
 42
123.0
  3
INABA_S40G
100
AcDbAlignedDimension
 13
11698.6
 23
8518.05918978272
 33
0.0
 14
11575.6
 24
8445.059189782718
 34
0.0
100
AcDbRotatedDimension
1001
ACAD
1000
DSTYLE
1002
{
1070
   341
1005
0
1002
}
  0
DIMENSION
  5
2A528
330
747D
100
AcDbEntity
  8
寸法
 48
50.0
100
AcDbDimension
  2
*D25
 10
11578.6
 20
8060.350522282346
 30
0.0
 11
11968.65905511811
 21
8060.350522282346
 31
0.0
 70
   160
 71
     5
 42
120.0
  3
INABA_S40G
100
AcDbAlignedDimension
 13
11698.6
 23
8077.343786321177
 33
0.0
 14
11578.6
 24
8288.059189782719
 34
0.0
100
AcDbRotatedDimension
1001
ACAD
1000
DSTYLE
1002
{
1070
   341
1005
0
1002
}
  0
DIMENSION
  5
2A529
330
747D
100
AcDbEntity
  8
寸法
 48
50.0
100
AcDbDimension
  2
*D26
 10
10790.6
 20
9044.968955431048
 30
0.0
 11
11244.6
 21
9144.968955431048
 31
0.0
 70
    32
 71
     5
 42
908.0
  3
INABA_S40G
100
AcDbAlignedDimension
 13
11698.6
 23
8518.05918978272
 33
0.0
 14
10790.6
 24
7843.05918978272
 34
0.0
100
AcDbRotatedDimension
1001
ACAD
1000
DSTYLE
1002
{
1070
   341
1005
0
1002
}
  0
LINE
  5
2A52A
102
{ACAD_REACTORS
330
2DEF0
102
}
330
747D
100
AcDbEntity
  8
部品1
 48
50.0
100
AcDbLine
 10
10058.6
 20
8518.05918978272
 30
0.0
 11
10058.6
 21
8398.059189782719
 31
0.0
  0
LINE
  5
2A52B
102
{ACAD_REACTORS
330
2DEF0
102
}
330
747D
100
AcDbEntity
  8
部品1
 48
50.0
100
AcDbLine
 10
9858.600000000002
 20
8518.05918978272
 30
0.0
 11
9858.600000000004
 21
8398.059189782719
 31
0.0
  0
DIMENSION
  5
2A52D
330
747D
100
AcDbEntity
  8
寸法
 48
50.0
100
AcDbDimension
  2
*D27
 10
9126.600000000001
 20
9044.968955431048
 30
0.0
 11
9542.600000000003
 21
9144.98076645467
 31
0.0
 70
    32
 71
     5
 42
832.0000000000035
  3
INABA_S40G
100
AcDbAlignedDimension
 13
9958.600000000004
 23
7843.05918978272
 33
0.0
 14
9126.600000000001
 24
7843.05918978272
 34
0.0
100
AcDbRotatedDimension
1001
ACAD
1000
DSTYLE
1002
{
1070
   341
1005
0
1002
}
  0
DIMENSION
  5
2A52E
330
747D
100
AcDbEntity
  8
寸法
 48
50.0
100
AcDbDimension
  2
*D28
 10
9958.600000000004
 20
9044.968955431048
 30
0.0
 11
10374.6
 21
9144.98076645467
 31
0.0
 70
    32
 71
     5
 42
831.9999999999962
  3
INABA_S40G
100
AcDbAlignedDimension
 13
10790.6
 23
7843.05918978272
 33
0.0
 14
9958.600000000004
 24
7843.05918978272
 34
0.0
100
AcDbRotatedDimension
1001
ACAD
1000
DSTYLE
1002
{
1070
   341
1005
0
1002
}
  0
DIMENSION
  5
2A52F
330
747D
100
AcDbEntity
  8
寸法
 48
50.0
100
AcDbDimension
  2
*D29
 10
10478.85510029273
 20
8518.05918978272
 30
0.0
 11
10378.85510029272
 21
8153.059189782721
 31
0.0
 70
    32
 71
     5
 42
730.0
  3
INABA_S40G
100
AcDbAlignedDimension
 13
10690.6
 23
7788.059189782718
 33
0.0
 14
10128.15743105835
 24
8518.05918978272
 34
0.0
 50
90.0
100
AcDbRotatedDimension
1001
ACAD
1000
DSTYLE
1002
{
1070
   341
1005
0
1002
}
  0
DIMENSION
  5
2A548
330
747D
100
AcDbEntity
  8
寸法
 48
50.0
100
AcDbDimension
  2
*D30
 10
10478.85510029273
 20
6988.059189782719
 30
0.0
 11
10378.85510029272
 21
6588.05918978272
 31
0.0
 70
    32
 71
     5
 42
800.0
  3
INABA_S40G
100
AcDbAlignedDimension
 13
10690.6
 23
6188.059189782719
 33
0.0
 14
10690.6
 24
6988.059189782719
 34
0.0
 50
90.0
100
AcDbRotatedDimension
1001
ACAD
1000
DSTYLE
1002
{
1070
   341
1005
0
1002
}
  0
LINE
  5
2A54F
102
{ACAD_REACTORS
330
2DEF0
102
}
330
747D
100
AcDbEntity
  8
部品1
 48
50.0
100
AcDbLine
 10
11698.6
 20
7088.059189782723
 30
0.0
 11
11578.6
 21
7088.059189782723
 31
0.0
  0
LINE
  5
2A550
102
{ACAD_REACTORS
330
2DEF0
102
}
330
747D
100
AcDbEntity
  8
部品1
 48
50.0
100
AcDbLine
 10
11698.6
 20
6888.059189782723
 30
0.0
 11
11578.6
 21
6888.059189782723
 31
0.0
  0
DIMENSION
  5
2A558
330
747D
100
AcDbEntity
  8
寸法
 48
50.0
100
AcDbDimension
  2
*D31
 10
11468.6
 20
8060.350522282346
 30
0.0
 11
11198.54094488189
 21
8060.350522282346
 31
0.0
 70
   160
 71
     5
 42
110.0
  3
INABA_S40G
100
AcDbAlignedDimension
 13
11578.6
 23
8288.059189782719
 33
0.0
 14
11468.6
 24
8288.059189782719
 34
0.0
100
AcDbRotatedDimension
1001
ACAD
1000
DSTYLE
1002
{
1070
   341
1005
0
1002
}
  0
LINE
  5
2A559
330
747D
100
AcDbEntity
  8
部品1
 48
50.0
100
AcDbLine
 10
11578.6
 20
8288.059189782721
 30
0.0
 11
11468.6
 21
8288.059189782719
 31
0.0
  0
LINE
  5
2A55A
330
747D
100
AcDbEntity
  8
部品1
 48
50.0
100
AcDbLine
 10
11468.6
 20
8288.059189782719
 30
0.0
 11
11468.6
 21
8398.059189782719
 31
0.0
  0
LINE
  5
2A55B
330
747D
100
AcDbEntity
  8
センター
 48
2.0
100
AcDbLine
 10
11525.6
 20
8395.059189782719
 30
0.0
 11
11625.6
 21
8395.059189782719
 31
0.0
  0
CIRCLE
  5
2A55C
330
747D
100
AcDbEntity
  8
部品1
 48
50.0
100
AcDbCircle
 10
11575.6
 20
8395.059189782719
 30
0.0
 40
35.0
  0
LINE
  5
2A55D
330
747D
100
AcDbEntity
  8
センター
 48
2.0
100
AcDbLine
 10
11575.6
 20
8445.059189782718
 30
0.0
 11
11575.6
 21
8345.05918978272
 31
0.0
  0
DIMENSION
  5
2B132
330
747D
100
AcDbEntity
  8
寸法
 48
50.0
100
AcDbDimension
  2
*D34
 10
7975.6
 20
5866.483764743982
 30
0.0
 11
8105.6
 21
5866.483764743982
 31
0.0
 70
   160
 71
     5
 42
260.0
  3
INABA_S40G
100
AcDbAlignedDimension
 13
8235.600000000001
 23
5688.059189782737
 33
0.0
 14
7975.6
 24
5688.059189782737
 34
0.0
100
AcDbRotatedDimension
1001
ACAD
1000
DSTYLE
1002
{
1070
   341
1005
0
1002
}
  0
DIMENSION
  5
2B133
330
747D
100
AcDbEntity
  8
寸法
 48
50.0
100
AcDbDimension
  2
*D33
 10
8670.14438614211
 20
5688.059189782737
 30
0.0
 11
8670.144386142109
 21
5924.106433877231
 31
0.0
 70
   160
 71
     5
 42
110.0000000000063
  3
INABA_S40G
100
AcDbAlignedDimension
 13
8235.600000000001
 23
5578.059189782731
 33
0.0
 14
8235.600000000001
 24
5688.059189782737
 34
0.0
 50
90.0
100
AcDbRotatedDimension
1001
ACAD
1000
DSTYLE
1002
{
1070
   341
1005
0
1002
}
  0
DIMENSION
  5
2B134
330
747D
100
AcDbEntity
  8
寸法
 48
50.0
100
AcDbDimension
  2
*D32
 10
8670.14438614211
 20
5578.059189782731
 30
0.0
 11
8670.144386142109
 21
5135.227116439633
 31
0.0
 70
   160
 71
     5
 42
119.9999999999827
  3
INABA_S40G
100
AcDbAlignedDimension
 13
8235.600000000001
 23
5458.059189782748
 33
0.0
 14
8235.600000000001
 24
5578.059189782731
 34
0.0
 50
90.0
100
AcDbRotatedDimension
1001
ACAD
1000
DSTYLE
1002
{
1070
   341
1005
0
1002
}
  0
LINE
  5
2B1B2
330
747D
100
AcDbEntity
  8
想像線
 48
10.0
100
AcDbLine
 10
11743.6
 20
5403.05918978274
 30
0.0
 11
11743.6
 21
8593.059189782721
 31
0.0
  0
LINE
  5
2C885
330
747D
100
AcDbEntity
  8
センター
 48
2.0
100
AcDbLine
 10
7270.600000000005
 20
6988.059189782719
 30
0.0
 11
7370.600000000004
 21
6988.059189782719
 31
0.0
  0
LINE
  5
2C886
330
747D
100
AcDbEntity
  8
部品1
 48
50.0
100
AcDbLine
 10
7420.600000000004
 20
7188.059189782719
 30
0.0
 11
7220.600000000004
 21
7188.059189782719
 31
0.0
  0
LINE
  5
2C887
330
747D
100
AcDbEntity
  8
部品1
 48
50.0
100
AcDbLine
 10
7420.600000000004
 20
6788.059189782716
 30
0.0
 11
7220.600000000004
 21
6788.059189782716
 31
0.0
  0
LINE
  5
2C888
330
747D
100
AcDbEntity
  8
部品1
 48
50.0
100
AcDbLine
 10
7220.600000000004
 20
6788.059189782718
 30
0.0
 11
7220.600000000004
 21
7188.059189782719
 31
0.0
  0
LINE
  5
2C889
330
747D
100
AcDbEntity
  8
部品1
 48
50.0
100
AcDbLine
 10
7420.600000000004
 20
6788.059189782716
 30
0.0
 11
7420.600000000004
 21
7188.059189782719
 31
0.0
  0
LINE
  5
2C88A
330
747D
100
AcDbEntity
  8
センター
 48
2.0
100
AcDbLine
 10
7320.600000000005
 20
7038.059189782718
 30
0.0
 11
7320.600000000005
 21
6938.059189782719
 31
0.0
  0
LINE
  5
2C88B
330
747D
100
AcDbEntity
  8
センター
 48
2.0
100
AcDbLine
 10
7270.600000000005
 20
6188.059189782719
 30
0.0
 11
7370.600000000004
 21
6188.059189782719
 31
0.0
  0
LINE
  5
2C88C
330
747D
100
AcDbEntity
  8
センター
 48
2.0
100
AcDbLine
 10
7320.600000000005
 20
6238.059189782719
 30
0.0
 11
7320.600000000005
 21
6138.059189782719
 31
0.0
  0
LINE
  5
2C88D
330
747D
100
AcDbEntity
  8
部品1
 48
50.0
100
AcDbLine
 10
7420.600000000004
 20
6288.059189782718
 30
0.0
 11
7220.600000000004
 21
6288.059189782718
 31
0.0
  0
LINE
  5
2C88E
330
747D
100
AcDbEntity
  8
部品1
 48
50.0
100
AcDbLine
 10
7420.600000000004
 20
6088.059189782716
 30
0.0
 11
7220.600000000004
 21
6088.059189782716
 31
0.0
  0
LINE
  5
2C88F
330
747D
100
AcDbEntity
  8
部品1
 48
50.0
100
AcDbLine
 10
7220.600000000004
 20
6088.059189782718
 30
0.0
 11
7220.600000000004
 21
6288.059189782718
 31
0.0
  0
LINE
  5
2C890
330
747D
100
AcDbEntity
  8
部品1
 48
50.0
100
AcDbLine
 10
7420.600000000004
 20
6088.059189782716
 30
0.0
 11
7420.600000000004
 21
6288.059189782718
 31
0.0
  0
LINE
  5
2C891
330
747D
100
AcDbEntity
  8
センター
 48
2.0
100
AcDbLine
 10
6438.600000000004
 20
6988.059189782719
 30
0.0
 11
6538.600000000004
 21
6988.059189782719
 31
0.0
  0
LINE
  5
2C892
330
747D
100
AcDbEntity
  8
部品1
 48
50.0
100
AcDbLine
 10
6588.600000000004
 20
7188.059189782719
 30
0.0
 11
6388.600000000002
 21
7188.059189782719
 31
0.0
  0
LINE
  5
2C893
330
747D
100
AcDbEntity
  8
部品1
 48
50.0
100
AcDbLine
 10
6588.600000000004
 20
6788.059189782716
 30
0.0
 11
6388.600000000002
 21
6788.059189782716
 31
0.0
  0
LINE
  5
2C894
330
747D
100
AcDbEntity
  8
部品1
 48
50.0
100
AcDbLine
 10
6388.600000000002
 20
6788.059189782718
 30
0.0
 11
6388.600000000002
 21
7188.059189782719
 31
0.0
  0
LINE
  5
2C895
330
747D
100
AcDbEntity
  8
センター
 48
2.0
100
AcDbLine
 10
6488.600000000004
 20
7038.059189782718
 30
0.0
 11
6488.600000000004
 21
6938.059189782719
 31
0.0
  0
LINE
  5
2C896
330
747D
100
AcDbEntity
  8
部品1
 48
50.0
100
AcDbLine
 10
6588.600000000004
 20
6788.059189782716
 30
0.0
 11
6588.600000000004
 21
7188.059189782719
 31
0.0
  0
LINE
  5
2C897
330
747D
100
AcDbEntity
  8
センター
 48
2.0
100
AcDbLine
 10
5606.600000000002
 20
6988.059189782719
 30
0.0
 11
5706.600000000004
 21
6988.059189782719
 31
0.0
  0
LINE
  5
2C898
330
747D
100
AcDbEntity
  8
部品1
 48
50.0
100
AcDbLine
 10
5756.600000000004
 20
6788.059189782716
 30
0.0
 11
5756.600000000004
 21
7188.059189782719
 31
0.0
  0
LINE
  5
2C899
330
747D
100
AcDbEntity
  8
センター
 48
2.0
100
AcDbLine
 10
5656.600000000004
 20
7038.059189782718
 30
0.0
 11
5656.600000000004
 21
6938.059189782719
 31
0.0
  0
LINE
  5
2C89A
330
747D
100
AcDbEntity
  8
部品1
 48
50.0
100
AcDbLine
 10
5556.600000000003
 20
6788.059189782718
 30
0.0
 11
5556.600000000003
 21
7188.059189782719
 31
0.0
  0
LINE
  5
2C89B
330
747D
100
AcDbEntity
  8
部品1
 48
50.0
100
AcDbLine
 10
5756.600000000004
 20
7188.059189782719
 30
0.0
 11
5556.600000000003
 21
7188.059189782719
 31
0.0
  0
LINE
  5
2C89C
330
747D
100
AcDbEntity
  8
部品1
 48
50.0
100
AcDbLine
 10
5756.600000000004
 20
6788.059189782716
 30
0.0
 11
5556.600000000003
 21
6788.059189782716
 31
0.0
  0
LINE
  5
2C89D
330
747D
100
AcDbEntity
  8
センター
 48
2.0
100
AcDbLine
 10
6438.600000000004
 20
6188.059189782719
 30
0.0
 11
6538.600000000004
 21
6188.059189782719
 31
0.0
  0
LINE
  5
2C89E
330
747D
100
AcDbEntity
  8
センター
 48
2.0
100
AcDbLine
 10
6488.600000000004
 20
6238.059189782719
 30
0.0
 11
6488.600000000004
 21
6138.059189782719
 31
0.0
  0
LINE
  5
2C89F
330
747D
100
AcDbEntity
  8
部品1
 48
50.0
100
AcDbLine
 10
6588.600000000004
 20
6288.059189782718
 30
0.0
 11
6388.600000000002
 21
6288.059189782718
 31
0.0
  0
LINE
  5
2C8A0
330
747D
100
AcDbEntity
  8
部品1
 48
50.0
100
AcDbLine
 10
6588.600000000004
 20
6088.059189782716
 30
0.0
 11
6388.600000000002
 21
6088.059189782716
 31
0.0
  0
LINE
  5
2C8A1
330
747D
100
AcDbEntity
  8
部品1
 48
50.0
100
AcDbLine
 10
6388.600000000002
 20
6088.059189782718
 30
0.0
 11
6388.600000000002
 21
6288.059189782718
 31
0.0
  0
LINE
  5
2C8A2
330
747D
100
AcDbEntity
  8
部品1
 48
50.0
100
AcDbLine
 10
6588.600000000004
 20
6088.059189782716
 30
0.0
 11
6588.600000000004
 21
6288.059189782718
 31
0.0
  0
LINE
  5
2C8A3
330
747D
100
AcDbEntity
  8
センター
 48
2.0
100
AcDbLine
 10
5606.600000000002
 20
6188.059189782719
 30
0.0
 11
5706.600000000004
 21
6188.059189782719
 31
0.0
  0
LINE
  5
2C8A4
330
747D
100
AcDbEntity
  8
センター
 48
2.0
100
AcDbLine
 10
5656.600000000004
 20
6238.059189782719
 30
0.0
 11
5656.600000000004
 21
6138.059189782719
 31
0.0
  0
LINE
  5
2C8A5
330
747D
100
AcDbEntity
  8
部品1
 48
50.0
100
AcDbLine
 10
5756.600000000004
 20
6288.059189782718
 30
0.0
 11
5556.600000000003
 21
6288.059189782718
 31
0.0
  0
LINE
  5
2C8A6
330
747D
100
AcDbEntity
  8
部品1
 48
50.0
100
AcDbLine
 10
5756.600000000004
 20
6088.059189782716
 30
0.0
 11
5556.600000000003
 21
6088.059189782716
 31
0.0
  0
LINE
  5
2C8A7
330
747D
100
AcDbEntity
  8
部品1
 48
50.0
100
AcDbLine
 10
5556.600000000003
 20
6088.059189782718
 30
0.0
 11
5556.600000000003
 21
6288.059189782718
 31
0.0
  0
LINE
  5
2C8A8
330
747D
100
AcDbEntity
  8
部品1
 48
50.0
100
AcDbLine
 10
5756.600000000004
 20
6088.059189782716
 30
0.0
 11
5756.600000000004
 21
6288.059189782718
 31
0.0
  0
LINE
  5
2C8A9
330
747D
100
AcDbEntity
  8
部品1
 48
50.0
100
AcDbLine
 10
7420.600000000004
 20
7888.059189782719
 30
0.0
 11
7220.600000000004
 21
7888.059189782719
 31
0.0
  0
LINE
  5
2C8AA
330
747D
100
AcDbEntity
  8
部品1
 48
50.0
100
AcDbLine
 10
6588.600000000004
 20
7888.059189782719
 30
0.0
 11
6388.600000000002
 21
7888.059189782719
 31
0.0
  0
LINE
  5
2C8AB
330
747D
100
AcDbEntity
  8
部品1
 48
50.0
100
AcDbLine
 10
5756.600000000004
 20
7888.059189782719
 30
0.0
 11
5556.600000000003
 21
7888.059189782719
 31
0.0
  0
LINE
  5
2C8AC
330
747D
100
AcDbEntity
  8
センター
 48
2.0
100
AcDbLine
 10
7270.600000000005
 20
7788.059189782718
 30
0.0
 11
7370.600000000004
 21
7788.059189782718
 31
0.0
  0
LINE
  5
2C8AD
330
747D
100
AcDbEntity
  8
センター
 48
2.0
100
AcDbLine
 10
7320.600000000005
 20
7838.059189782718
 30
0.0
 11
7320.600000000005
 21
7738.059189782719
 31
0.0
  0
LINE
  5
2C8AE
330
747D
100
AcDbEntity
  8
部品1
 48
50.0
100
AcDbLine
 10
7420.600000000004
 20
7688.059189782716
 30
0.0
 11
7220.600000000004
 21
7688.059189782716
 31
0.0
  0
LINE
  5
2C8AF
330
747D
100
AcDbEntity
  8
センター
 48
2.0
100
AcDbLine
 10
6438.600000000004
 20
7788.059189782718
 30
0.0
 11
6538.600000000004
 21
7788.059189782718
 31
0.0
  0
LINE
  5
2C8B0
330
747D
100
AcDbEntity
  8
センター
 48
2.0
100
AcDbLine
 10
6488.600000000004
 20
7838.059189782718
 30
0.0
 11
6488.600000000004
 21
7738.059189782719
 31
0.0
  0
LINE
  5
2C8B1
330
747D
100
AcDbEntity
  8
部品1
 48
50.0
100
AcDbLine
 10
6588.600000000004
 20
7688.059189782716
 30
0.0
 11
6388.600000000002
 21
7688.059189782716
 31
0.0
  0
LINE
  5
2C8B2
330
747D
100
AcDbEntity
  8
センター
 48
2.0
100
AcDbLine
 10
5606.600000000002
 20
7788.059189782718
 30
0.0
 11
5706.600000000004
 21
7788.059189782718
 31
0.0
  0
LINE
  5
2C8B3
330
747D
100
AcDbEntity
  8
センター
 48
2.0
100
AcDbLine
 10
5656.600000000004
 20
7838.059189782718
 30
0.0
 11
5656.600000000004
 21
7738.059189782719
 31
0.0
  0
LINE
  5
2C8B4
330
747D
100
AcDbEntity
  8
部品1
 48
50.0
100
AcDbLine
 10
5756.600000000004
 20
7688.059189782716
 30
0.0
 11
5556.600000000003
 21
7688.059189782716
 31
0.0
  0
LINE
  5
2C8B5
330
747D
100
AcDbEntity
  8
部品1
 48
50.0
100
AcDbLine
 10
5756.600000000004
 20
7688.059189782716
 30
0.0
 11
5756.600000000004
 21
7888.059189782719
 31
0.0
  0
LINE
  5
2C8B6
330
747D
100
AcDbEntity
  8
部品1
 48
50.0
100
AcDbLine
 10
6388.600000000002
 20
7688.059189782719
 30
0.0
 11
6388.600000000002
 21
7888.059189782719
 31
0.0
  0
LINE
  5
2C8B7
330
747D
100
AcDbEntity
  8
部品1
 48
50.0
100
AcDbLine
 10
5556.600000000003
 20
7688.059189782719
 30
0.0
 11
5556.600000000003
 21
7888.059189782719
 31
0.0
  0
LINE
  5
2C8B8
330
747D
100
AcDbEntity
  8
部品1
 48
50.0
100
AcDbLine
 10
7420.600000000004
 20
7688.059189782716
 30
0.0
 11
7420.600000000004
 21
7888.059189782719
 31
0.0
  0
LINE
  5
2C8B9
330
747D
100
AcDbEntity
  8
部品1
 48
50.0
100
AcDbLine
 10
7220.600000000004
 20
7688.059189782719
 30
0.0
 11
7220.600000000004
 21
7888.059189782719
 31
0.0
  0
LINE
  5
2C8BA
330
747D
100
AcDbEntity
  8
部品1
 48
50.0
100
AcDbLine
 10
6588.600000000004
 20
7688.059189782716
 30
0.0
 11
6588.600000000004
 21
7888.059189782719
 31
0.0
  0
LINE
  5
2C8BB
330
747D
100
AcDbEntity
  8
部品1
 48
50.0
100
AcDbLine
 10
8323.600000000004
 20
7888.059189782719
 30
0.0
 11
8123.600000000005
 21
7888.059189782719
 31
0.0
  0
LINE
  5
2C8BC
330
747D
100
AcDbEntity
  8
センター
 48
2.0
100
AcDbLine
 10
8223.600000000004
 20
7838.059189782718
 30
0.0
 11
8223.600000000004
 21
7738.059189782719
 31
0.0
  0
LINE
  5
2C8BD
330
747D
100
AcDbEntity
  8
部品1
 48
50.0
100
AcDbLine
 10
8323.600000000004
 20
7688.059189782716
 30
0.0
 11
8123.600000000005
 21
7688.059189782716
 31
0.0
  0
LINE
  5
2C8BE
330
747D
100
AcDbEntity
  8
センター
 48
2.0
100
AcDbLine
 10
8173.600000000005
 20
7788.059189782718
 30
0.0
 11
8273.600000000005
 21
7788.059189782718
 31
0.0
  0
LINE
  5
2C8BF
330
747D
100
AcDbEntity
  8
センター
 48
2.0
100
AcDbLine
 10
8173.600000000005
 20
6988.059189782719
 30
0.0
 11
8273.600000000005
 21
6988.059189782719
 31
0.0
  0
LINE
  5
2C8C0
330
747D
100
AcDbEntity
  8
部品1
 48
50.0
100
AcDbLine
 10
8323.600000000004
 20
7188.059189782719
 30
0.0
 11
8123.600000000005
 21
7188.059189782719
 31
0.0
  0
LINE
  5
2C8C1
330
747D
100
AcDbEntity
  8
部品1
 48
50.0
100
AcDbLine
 10
8323.600000000004
 20
6788.059189782716
 30
0.0
 11
8123.600000000005
 21
6788.059189782716
 31
0.0
  0
LINE
  5
2C8C2
330
747D
100
AcDbEntity
  8
センター
 48
2.0
100
AcDbLine
 10
8223.600000000004
 20
7038.059189782718
 30
0.0
 11
8223.600000000004
 21
6938.059189782719
 31
0.0
  0
LINE
  5
2C8C3
330
747D
100
AcDbEntity
  8
部品1
 48
50.0
100
AcDbLine
 10
8323.600000000004
 20
6788.059189782716
 30
0.0
 11
8323.600000000004
 21
7188.059189782719
 31
0.0
  0
LINE
  5
2C8C4
330
747D
100
AcDbEntity
  8
部品1
 48
50.0
100
AcDbLine
 10
8123.600000000005
 20
6788.059189782718
 30
0.0
 11
8123.600000000005
 21
7188.059189782719
 31
0.0
  0
LINE
  5
2C8C5
330
747D
100
AcDbEntity
  8
センター
 48
2.0
100
AcDbLine
 10
8223.600000000004
 20
6238.059189782719
 30
0.0
 11
8223.600000000004
 21
6138.059189782719
 31
0.0
  0
LINE
  5
2C8C6
330
747D
100
AcDbEntity
  8
部品1
 48
50.0
100
AcDbLine
 10
8323.600000000004
 20
6288.059189782718
 30
0.0
 11
8123.600000000005
 21
6288.059189782718
 31
0.0
  0
LINE
  5
2C8C7
330
747D
100
AcDbEntity
  8
センター
 48
2.0
100
AcDbLine
 10
8173.600000000005
 20
6188.059189782719
 30
0.0
 11
8273.600000000005
 21
6188.059189782719
 31
0.0
  0
LINE
  5
2C8C8
330
747D
100
AcDbEntity
  8
部品1
 48
50.0
100
AcDbLine
 10
8323.600000000004
 20
6088.059189782716
 30
0.0
 11
8123.600000000005
 21
6088.059189782716
 31
0.0
  0
LINE
  5
2C8C9
330
747D
100
AcDbEntity
  8
部品1
 48
50.0
100
AcDbLine
 10
8323.600000000004
 20
6088.059189782716
 30
0.0
 11
8323.600000000004
 21
6288.059189782718
 31
0.0
  0
LINE
  5
2C8CA
330
747D
100
AcDbEntity
  8
部品1
 48
50.0
100
AcDbLine
 10
8123.600000000005
 20
6088.059189782718
 30
0.0
 11
8123.600000000005
 21
6288.059189782718
 31
0.0
  0
LINE
  5
2C8CB
330
747D
100
AcDbEntity
  8
部品1
 48
50.0
100
AcDbLine
 10
8323.600000000004
 20
7688.059189782716
 30
0.0
 11
8323.600000000004
 21
7888.059189782719
 31
0.0
  0
LINE
  5
2C8CC
330
747D
100
AcDbEntity
  8
部品1
 48
50.0
100
AcDbLine
 10
8123.600000000005
 20
7688.059189782719
 30
0.0
 11
8123.600000000005
 21
7888.059189782719
 31
0.0
  0
LINE
  5
2C8CD
330
747D
100
AcDbEntity
  8
部品1
 48
50.0
100
AcDbLine
 10
10058.6
 20
7888.059189782719
 30
0.0
 11
9858.600000000006
 21
7888.059189782719
 31
0.0
  0
LINE
  5
2C8CE
330
747D
100
AcDbEntity
  8
部品1
 48
50.0
100
AcDbLine
 10
9226.600000000006
 20
7888.059189782719
 30
0.0
 11
9026.600000000005
 21
7888.059189782719
 31
0.0
  0
LINE
  5
2C8CF
330
747D
100
AcDbEntity
  8
センター
 48
2.0
100
AcDbLine
 10
9908.600000000006
 20
7788.059189782718
 30
0.0
 11
10008.6
 21
7788.059189782718
 31
0.0
  0
LINE
  5
2C8D0
330
747D
100
AcDbEntity
  8
センター
 48
2.0
100
AcDbLine
 10
9958.600000000004
 20
7838.059189782718
 30
0.0
 11
9958.600000000004
 21
7738.059189782719
 31
0.0
  0
LINE
  5
2C8D1
330
747D
100
AcDbEntity
  8
部品1
 48
50.0
100
AcDbLine
 10
10058.6
 20
7688.059189782716
 30
0.0
 11
9858.600000000006
 21
7688.059189782716
 31
0.0
  0
LINE
  5
2C8D2
330
747D
100
AcDbEntity
  8
センター
 48
2.0
100
AcDbLine
 10
9908.600000000006
 20
6988.059189782719
 30
0.0
 11
10008.6
 21
6988.059189782719
 31
0.0
  0
LINE
  5
2C8D3
330
747D
100
AcDbEntity
  8
部品1
 48
50.0
100
AcDbLine
 10
10058.6
 20
7188.059189782719
 30
0.0
 11
9858.600000000006
 21
7188.059189782719
 31
0.0
  0
LINE
  5
2C8D4
330
747D
100
AcDbEntity
  8
部品1
 48
50.0
100
AcDbLine
 10
10058.6
 20
6788.059189782716
 30
0.0
 11
9858.600000000006
 21
6788.059189782716
 31
0.0
  0
LINE
  5
2C8D5
330
747D
100
AcDbEntity
  8
センター
 48
2.0
100
AcDbLine
 10
9958.600000000004
 20
7038.059189782718
 30
0.0
 11
9958.600000000004
 21
6938.059189782719
 31
0.0
  0
LINE
  5
2C8D6
330
747D
100
AcDbEntity
  8
部品1
 48
50.0
100
AcDbLine
 10
9858.600000000006
 20
6788.059189782718
 30
0.0
 11
9858.600000000006
 21
7188.059189782719
 31
0.0
  0
LINE
  5
2C8D7
330
747D
100
AcDbEntity
  8
部品1
 48
50.0
100
AcDbLine
 10
10058.6
 20
6788.059189782716
 30
0.0
 11
10058.6
 21
7188.059189782719
 31
0.0
  0
LINE
  5
2C8D8
330
747D
100
AcDbEntity
  8
センター
 48
2.0
100
AcDbLine
 10
9076.600000000006
 20
7788.059189782718
 30
0.0
 11
9176.600000000005
 21
7788.059189782718
 31
0.0
  0
LINE
  5
2C8D9
330
747D
100
AcDbEntity
  8
センター
 48
2.0
100
AcDbLine
 10
9126.600000000006
 20
7838.059189782718
 30
0.0
 11
9126.600000000006
 21
7738.059189782719
 31
0.0
  0
LINE
  5
2C8DA
330
747D
100
AcDbEntity
  8
部品1
 48
50.0
100
AcDbLine
 10
9226.600000000006
 20
7688.059189782716
 30
0.0
 11
9026.600000000005
 21
7688.059189782716
 31
0.0
  0
LINE
  5
2C8DB
330
747D
100
AcDbEntity
  8
センター
 48
2.0
100
AcDbLine
 10
9076.600000000006
 20
6988.059189782719
 30
0.0
 11
9176.600000000005
 21
6988.059189782719
 31
0.0
  0
LINE
  5
2C8DC
330
747D
100
AcDbEntity
  8
部品1
 48
50.0
100
AcDbLine
 10
9226.600000000006
 20
7188.059189782719
 30
0.0
 11
9026.600000000005
 21
7188.059189782719
 31
0.0
  0
LINE
  5
2C8DD
330
747D
100
AcDbEntity
  8
部品1
 48
50.0
100
AcDbLine
 10
9226.600000000006
 20
6788.059189782716
 30
0.0
 11
9026.600000000005
 21
6788.059189782716
 31
0.0
  0
LINE
  5
2C8DE
330
747D
100
AcDbEntity
  8
センター
 48
2.0
100
AcDbLine
 10
9126.600000000006
 20
7038.059189782718
 30
0.0
 11
9126.600000000006
 21
6938.059189782719
 31
0.0
  0
LINE
  5
2C8DF
330
747D
100
AcDbEntity
  8
部品1
 48
50.0
100
AcDbLine
 10
9026.600000000005
 20
6788.059189782718
 30
0.0
 11
9026.600000000005
 21
7188.059189782719
 31
0.0
  0
LINE
  5
2C8E0
330
747D
100
AcDbEntity
  8
部品1
 48
50.0
100
AcDbLine
 10
9226.600000000006
 20
6788.059189782716
 30
0.0
 11
9226.600000000006
 21
7188.059189782719
 31
0.0
  0
LINE
  5
2C8E1
330
747D
100
AcDbEntity
  8
センター
 48
2.0
100
AcDbLine
 10
9958.600000000004
 20
6238.059189782719
 30
0.0
 11
9958.600000000004
 21
6138.059189782719
 31
0.0
  0
LINE
  5
2C8E2
330
747D
100
AcDbEntity
  8
センター
 48
2.0
100
AcDbLine
 10
9908.600000000006
 20
6188.059189782719
 30
0.0
 11
10008.6
 21
6188.059189782719
 31
0.0
  0
LINE
  5
2C8E3
330
747D
100
AcDbEntity
  8
部品1
 48
50.0
100
AcDbLine
 10
10058.6
 20
6288.059189782718
 30
0.0
 11
9858.600000000006
 21
6288.059189782718
 31
0.0
  0
LINE
  5
2C8E4
330
747D
100
AcDbEntity
  8
部品1
 48
50.0
100
AcDbLine
 10
10058.6
 20
6088.059189782716
 30
0.0
 11
9858.600000000006
 21
6088.059189782716
 31
0.0
  0
LINE
  5
2C8E5
330
747D
100
AcDbEntity
  8
部品1
 48
50.0
100
AcDbLine
 10
10058.6
 20
6088.059189782716
 30
0.0
 11
10058.6
 21
6288.059189782718
 31
0.0
  0
LINE
  5
2C8E6
330
747D
100
AcDbEntity
  8
部品1
 48
50.0
100
AcDbLine
 10
9858.600000000006
 20
6088.059189782718
 30
0.0
 11
9858.600000000006
 21
6288.059189782718
 31
0.0
  0
LINE
  5
2C8E7
330
747D
100
AcDbEntity
  8
センター
 48
2.0
100
AcDbLine
 10
9126.600000000006
 20
6238.059189782719
 30
0.0
 11
9126.600000000006
 21
6138.059189782719
 31
0.0
  0
LINE
  5
2C8E8
330
747D
100
AcDbEntity
  8
センター
 48
2.0
100
AcDbLine
 10
9076.600000000006
 20
6188.059189782719
 30
0.0
 11
9176.600000000005
 21
6188.059189782719
 31
0.0
  0
LINE
  5
2C8E9
330
747D
100
AcDbEntity
  8
部品1
 48
50.0
100
AcDbLine
 10
9226.600000000006
 20
6288.059189782718
 30
0.0
 11
9026.600000000005
 21
6288.059189782718
 31
0.0
  0
LINE
  5
2C8EA
330
747D
100
AcDbEntity
  8
部品1
 48
50.0
100
AcDbLine
 10
9226.600000000006
 20
6088.059189782716
 30
0.0
 11
9026.600000000005
 21
6088.059189782716
 31
0.0
  0
LINE
  5
2C8EB
330
747D
100
AcDbEntity
  8
部品1
 48
50.0
100
AcDbLine
 10
9226.600000000006
 20
6088.059189782716
 30
0.0
 11
9226.600000000006
 21
6288.059189782718
 31
0.0
  0
LINE
  5
2C8EC
330
747D
100
AcDbEntity
  8
部品1
 48
50.0
100
AcDbLine
 10
9026.600000000005
 20
6088.059189782718
 30
0.0
 11
9026.600000000005
 21
6288.059189782718
 31
0.0
  0
LINE
  5
2C8ED
330
747D
100
AcDbEntity
  8
部品1
 48
50.0
100
AcDbLine
 10
9226.600000000006
 20
7688.059189782716
 30
0.0
 11
9226.600000000006
 21
7888.059189782719
 31
0.0
  0
LINE
  5
2C8EE
330
747D
100
AcDbEntity
  8
部品1
 48
50.0
100
AcDbLine
 10
9026.600000000005
 20
7688.059189782719
 30
0.0
 11
9026.600000000005
 21
7888.059189782719
 31
0.0
  0
LINE
  5
2C8EF
330
747D
100
AcDbEntity
  8
部品1
 48
50.0
100
AcDbLine
 10
9858.600000000006
 20
7688.059189782719
 30
0.0
 11
9858.600000000006
 21
7888.059189782719
 31
0.0
  0
LINE
  5
2C8F0
330
747D
100
AcDbEntity
  8
部品1
 48
50.0
100
AcDbLine
 10
10058.6
 20
7688.059189782716
 30
0.0
 11
10058.6
 21
7888.059189782719
 31
0.0
  0
LINE
  5
2C8F1
330
747D
100
AcDbEntity
  8
部品1
 48
50.0
100
AcDbLine
 10
10890.6
 20
7888.059189782719
 30
0.0
 11
10690.6
 21
7888.059189782719
 31
0.0
  0
LINE
  5
2C8F2
330
747D
100
AcDbEntity
  8
センター
 48
2.0
100
AcDbLine
 10
10740.6
 20
7788.059189782718
 30
0.0
 11
10840.6
 21
7788.059189782718
 31
0.0
  0
LINE
  5
2C8F3
330
747D
100
AcDbEntity
  8
部品1
 48
50.0
100
AcDbLine
 10
10890.6
 20
7688.059189782716
 30
0.0
 11
10690.6
 21
7688.059189782716
 31
0.0
  0
LINE
  5
2C8F4
330
747D
100
AcDbEntity
  8
センター
 48
2.0
100
AcDbLine
 10
10790.6
 20
7838.059189782718
 30
0.0
 11
10790.6
 21
7738.059189782719
 31
0.0
  0
LINE
  5
2C8F5
330
747D
100
AcDbEntity
  8
センター
 48
2.0
100
AcDbLine
 10
10740.6
 20
6988.059189782719
 30
0.0
 11
10840.6
 21
6988.059189782719
 31
0.0
  0
LINE
  5
2C8F6
330
747D
100
AcDbEntity
  8
部品1
 48
50.0
100
AcDbLine
 10
10890.6
 20
7188.059189782719
 30
0.0
 11
10690.6
 21
7188.059189782719
 31
0.0
  0
LINE
  5
2C8F7
330
747D
100
AcDbEntity
  8
部品1
 48
50.0
100
AcDbLine
 10
10890.6
 20
6788.059189782716
 30
0.0
 11
10690.6
 21
6788.059189782716
 31
0.0
  0
LINE
  5
2C8F8
330
747D
100
AcDbEntity
  8
センター
 48
2.0
100
AcDbLine
 10
10790.6
 20
7038.059189782718
 30
0.0
 11
10790.6
 21
6938.059189782719
 31
0.0
  0
LINE
  5
2C8F9
330
747D
100
AcDbEntity
  8
部品1
 48
50.0
100
AcDbLine
 10
10690.6
 20
6788.059189782718
 30
0.0
 11
10690.6
 21
7188.059189782719
 31
0.0
  0
LINE
  5
2C8FA
330
747D
100
AcDbEntity
  8
部品1
 48
50.0
100
AcDbLine
 10
10890.6
 20
6788.059189782716
 30
0.0
 11
10890.6
 21
7188.059189782719
 31
0.0
  0
LINE
  5
2C8FB
330
747D
100
AcDbEntity
  8
センター
 48
2.0
100
AcDbLine
 10
10790.6
 20
6238.059189782719
 30
0.0
 11
10790.6
 21
6138.059189782719
 31
0.0
  0
LINE
  5
2C8FC
330
747D
100
AcDbEntity
  8
部品1
 48
50.0
100
AcDbLine
 10
10890.6
 20
6288.059189782718
 30
0.0
 11
10690.6
 21
6288.059189782718
 31
0.0
  0
LINE
  5
2C8FD
330
747D
100
AcDbEntity
  8
センター
 48
2.0
100
AcDbLine
 10
10740.6
 20
6188.059189782719
 30
0.0
 11
10840.6
 21
6188.059189782719
 31
0.0
  0
LINE
  5
2C8FE
330
747D
100
AcDbEntity
  8
部品1
 48
50.0
100
AcDbLine
 10
10890.6
 20
6088.059189782716
 30
0.0
 11
10690.6
 21
6088.059189782716
 31
0.0
  0
LINE
  5
2C8FF
330
747D
100
AcDbEntity
  8
部品1
 48
50.0
100
AcDbLine
 10
10890.6
 20
6088.059189782716
 30
0.0
 11
10890.6
 21
6288.059189782718
 31
0.0
  0
LINE
  5
2C900
330
747D
100
AcDbEntity
  8
部品1
 48
50.0
100
AcDbLine
 10
10690.6
 20
6088.059189782718
 30
0.0
 11
10690.6
 21
6288.059189782718
 31
0.0
  0
LINE
  5
2C901
330
747D
100
AcDbEntity
  8
部品1
 48
50.0
100
AcDbLine
 10
10690.6
 20
7688.059189782719
 30
0.0
 11
10690.6
 21
7888.059189782719
 31
0.0
  0
LINE
  5
2C902
330
747D
100
AcDbEntity
  8
部品1
 48
50.0
100
AcDbLine
 10
10890.6
 20
7688.059189782716
 30
0.0
 11
10890.6
 21
7888.059189782719
 31
0.0
  0
DIMENSION
  5
2C930
330
747D
100
AcDbEntity
  8
寸法
 48
50.0
100
AcDbDimension
  2
*D35
 10
10478.85510029273
 20
7788.059189782718
 30
0.0
 11
10378.85510029272
 21
7388.059189782722
 31
0.0
 70
    32
 71
     5
 42
800.0
  3
INABA_S40G
100
AcDbAlignedDimension
 13
10690.6
 23
6988.059189782719
 33
0.0
 14
10690.6
 24
7788.059189782718
 34
0.0
 50
90.0
100
AcDbRotatedDimension
1001
ACAD
1000
DSTYLE
1002
{
1070
   341
1005
0
1002
}
  0
LINE
  5
2D78D
330
747D
100
AcDbEntity
  8
想像線
 48
10.0
100
AcDbLine
 10
10162.4854543892
 20
5403.059189782743
 30
0.0
 11
11743.6
 21
5403.05918978274
 31
0.0
  0
LINE
  5
2D78E
330
747D
100
AcDbEntity
  8
想像線
 48
10.0
100
AcDbLine
 10
10162.4854543892
 20
8593.059189782721
 30
0.0
 11
11743.6
 21
8593.059189782721
 31
0.0
  0
DIMENSION
  5
2D78F
330
747D
100
AcDbEntity
  8
寸法
 48
50.0
100
AcDbDimension
  2
*D36
 10
5621.6
 20
4839.052800128
 30
0.0
 11
6699.1
 21
4939.064611151621
 31
0.0
 70
    32
  1
扉の幅 <>
 71
     5
 42
2155.000000000001
  3
INABA_S40G
100
AcDbAlignedDimension
 13
7776.600000000001
 23
5383.059189782724
 33
0.0
 14
5621.6
 24
5323.897814470196
 34
0.0
100
AcDbRotatedDimension
1001
ACAD
1000
DSTYLE
1002
{
1070
   341
1005
0
1002
}
  0
TEXT
  5
2D790
330
747D
100
AcDbEntity
  8
寸法
 62
     7
100
AcDbText
 10
5994.25075436352
 20
4299.230677267829
 30
0.0
 40
120.0
  1
扉位置 (2155x75)
  7
STYLE1
100
AcDbText
  0
SOLID
  5
2D791
330
747D
100
AcDbEntity
  8
寸法
 48
50.0
100
AcDbTrace
 10
-6201.736054003149
 20
5257.468160877825
 30
0.0
 11
-6218.645259673139
 21
5383.059189782713
 31
0.0
 12
-6161.917839529674
 22
5269.740931846735
 32
0.0
 13
-6161.917839529674
 23
5269.740931846735
 33
0.0
210
0.0
220
0.0
230
-1.0
1001
ACAD
1000
DSTYLE
1002
{
1070
   341
1005
0
1070
    40
1040
1.0
1070
   343
1005
0
1070
   344
1005
0
1002
}
  0
LWPOLYLINE
  5
2D792
330
747D
100
AcDbEntity
  8
寸法
 48
50.0
100
AcDbPolyline
 90
        3
 70
     0
 43
0.0
 10
-6218.645259673139
 20
5383.059189782713
 10
-5877.634795170767
 20
4276.962729719509
 10
-8691.699208102409
 20
4276.962729719509
210
0.0
220
0.0
230
-1.0
1001
ACAD
1000
DSTYLE
1002
{
1070
   341
1005
0
1070
    40
1040
1.0
1070
   343
1005
0
1070
   344
1005
0
1002
}
  0
TEXT
  5
2D793
330
747D
100
AcDbEntity
  8
寸法
 62
     7
100
AcDbText
 10
5994.25075436352
 20
4127.626914384505
 30
0.0
 40
120.0
  1
扉の位置に合わせた基礎形状として下さい。
  7
STYLE1
100
AcDbText
  0
LINE
  5
2DCB0
330
747D
100
AcDbEntity
  8
細線
 48
50.0
100
AcDbLine
 10
10122.60895598792
 20
1398.478579673301
 30
0.0
 11
10114.57048021498
 21
1428.478579673301
 31
0.0
  0
LINE
  5
2DCB1
330
747D
100
AcDbEntity
  8
細線
100
AcDbLine
 10
9910.858574492865
 20
1428.478579673306
 30
0.0
 11
10025.48221905954
 21
1543.102224239991
 31
0.0
  0
LINE
  5
2DCB2
330
747D
100
AcDbEntity
  8
細線
100
AcDbLine
 10
9868.432167621676
 20
1428.478579673306
 30
0.0
 11
9983.055812188355
 21
1543.102224239991
 31
0.0
  0
LINE
  5
2DCB3
330
747D
100
AcDbEntity
  8
細線
100
AcDbLine
 10
9953.284981364054
 20
1428.478579673306
 30
0.0
 11
10067.90862593073
 21
1543.102224239991
 31
0.0
  0
LINE
  5
2DCB4
330
747D
100
AcDbEntity
  8
細線
 48
50.0
100
AcDbLine
 10
9925.388843619794
 20
1398.478579673303
 30
0.0
 11
9917.350367846855
 21
1428.478579673303
 31
0.0
  0
LINE
  5
2DCB5
330
747D
100
AcDbEntity
  8
細線
 48
50.0
100
AcDbLine
 10
10023.99889980386
 20
1398.478579673301
 30
0.0
 11
10015.96042403092
 21
1428.478579673301
 31
0.0
  0
LINE
  5
2DCB6
330
747D
100
AcDbEntity
  8
部品1
100
AcDbLine
 10
10027.1366744975
 20
1843.102224239992
 30
0.0
 11
10027.1366744975
 21
1543.102224239991
 31
0.0
  0
LINE
  5
2DCB7
330
747D
100
AcDbEntity
  8
細線
 48
50.0
100
AcDbLine
 10
9728.168731251685
 20
1398.478579673303
 30
0.0
 11
9720.130255478753
 21
1428.478579673303
 31
0.0
  0
LINE
  5
2DCB8
330
747D
100
AcDbEntity
  8
細線
 48
50.0
100
AcDbLine
 10
9826.778787435744
 20
1398.478579673303
 30
0.0
 11
9818.740311662814
 21
1428.478579673303
 31
0.0
  0
LINE
  5
2DCB9
330
747D
100
AcDbEntity
  8
細線
100
AcDbLine
 10
9460.858574492865
 20
1428.478579673304
 30
0.0
 11
9575.482219059542
 21
1543.102224239991
 31
0.0
  0
LINE
  5
2DCBA
330
747D
100
AcDbEntity
  8
細線
100
AcDbLine
 10
9503.284981364052
 20
1428.478579673304
 30
0.0
 11
9617.908625930734
 21
1543.102224239991
 31
0.0
  0
LINE
  5
2DCBB
330
747D
100
AcDbEntity
  8
細線
 48
50.0
100
AcDbLine
 10
9629.558675067627
 20
1398.478579673303
 30
0.0
 11
9621.520199294693
 21
1428.478579673303
 31
0.0
  0
LINE
  5
2DCBC
330
747D
100
AcDbEntity
  8
細線
 48
50.0
100
AcDbLine
 10
9530.948618883575
 20
1398.478579673303
 30
0.0
 11
9522.910143110632
 21
1428.478579673303
 31
0.0
  0
LINE
  5
2DCBD
330
747D
100
AcDbEntity
  8
細線
100
AcDbLine
 10
9946.199986256246
 20
1543.102224239991
 30
0.0
 11
9646.199986256245
 21
1843.102224239992
 31
0.0
  0
LINE
  5
2DCBE
330
747D
100
AcDbEntity
  8
細線
100
AcDbLine
 10
10009.83959656302
 20
1543.102224239993
 30
0.0
 11
9709.839596563034
 21
1843.102224239992
 31
0.0
  0
LEADER
  5
2DCBF
330
747D
100
AcDbEntity
  8
寸法
 48
50.0
100
AcDbLeader
  3
INABA_S40G
 73
     0
 74
     0
 75
     1
 40
150.0
 41
231.9898538650463
 76
     3
 10
9940.542189017405
 20
1843.102224239992
 30
0.0
 10
10029.46494730946
 20
2049.535125091413
 30
0.0
 10
10129.46494730946
 20
2049.535125091413
 30
0.0
340
2DCC0
1001
ACAD
1000
DSTYLE
1002
{
1070
   341
1005
0
1002
}
  0
MTEXT
  5
2DCC0
102
{ACAD_REACTORS
330
2DCBF
102
}
330
747D
100
AcDbEntity
  8
寸法
 62
     7
 48
50.0
100
AcDbMText
 10
10169.46494730946
 20
2164.535125091413
 30
0.0
 40
150.0
 41
1.0
 71
     4
 72
     1
  1
\A1;C.B
  7
STYLE1
 73
     1
 44
1.0
1001
ACAD
1000
MTEXTBEGIN
1070
    73
1070
     1
1070
    44
1040
1.0
1070
    74
1070
     0
1000
MTEXTEND
  0
LINE
  5
2DCC1
330
747D
100
AcDbEntity
  8
細線
 48
50.0
100
AcDbLine
 10
10095.81403674481
 20
1298.478579673301
 30
0.0
 11
10103.85251251774
 21
1268.478579673301
 31
0.0
  0
LINE
  5
2DCC2
330
747D
100
AcDbEntity
  8
細線
 48
50.0
100
AcDbLine
 10
9898.593924376696
 20
1298.478579673303
 30
0.0
 11
9906.632400149634
 21
1268.478579673304
 31
0.0
  0
LINE
  5
2DCC3
330
747D
100
AcDbEntity
  8
細線
 48
50.0
100
AcDbLine
 10
9997.203980560756
 20
1298.478579673301
 30
0.0
 11
10005.24245633368
 21
1268.478579673301
 31
0.0
  0
LINE
  5
2DCC4
330
747D
100
AcDbEntity
  8
細線
 48
50.0
100
AcDbLine
 10
9701.373812008576
 20
1298.478579673303
 30
0.0
 11
9709.412287781503
 21
1268.478579673304
 31
0.0
  0
LINE
  5
2DCC5
330
747D
100
AcDbEntity
  8
細線
 48
50.0
100
AcDbLine
 10
9799.983868192637
 20
1298.478579673303
 30
0.0
 11
9808.022343965564
 21
1268.478579673304
 31
0.0
  0
LINE
  5
2DCC6
330
747D
100
AcDbEntity
  8
細線
 48
50.0
100
AcDbLine
 10
9504.153699640465
 20
1298.478579673303
 30
0.0
 11
9512.192175413394
 21
1268.478579673304
 31
0.0
  0
LINE
  5
2DCC7
330
747D
100
AcDbEntity
  8
細線
 48
50.0
100
AcDbLine
 10
9602.763755824511
 20
1298.478579673303
 30
0.0
 11
9610.802231597453
 21
1268.478579673304
 31
0.0
  0
LINE
  5
2DCC8
330
747D
100
AcDbEntity
  8
細線
 48
50.0
100
AcDbLine
 10
9693.335336235634
 20
1268.478579673301
 30
0.0
 11
9736.207207024612
 21
1428.478579673301
 31
0.0
  0
LINE
  5
2DCC9
330
747D
100
AcDbEntity
  8
細線
 48
50.0
100
AcDbLine
 10
9496.115223867525
 20
1268.478579673304
 30
0.0
 11
9538.987094656494
 21
1428.478579673303
 31
0.0
  0
LINE
  5
2DCCA
330
747D
100
AcDbEntity
  8
細線
 48
50.0
100
AcDbLine
 10
9594.725280051573
 20
1268.478579673304
 30
0.0
 11
9637.597150840555
 21
1428.478579673301
 31
0.0
  0
LINE
  5
2DCCB
330
747D
100
AcDbEntity
  8
細線
 48
50.0
100
AcDbLine
 10
9890.555448603755
 20
1268.478579673301
 30
0.0
 11
9933.427319392725
 21
1428.478579673303
 31
0.0
  0
LINE
  5
2DCCC
330
747D
100
AcDbEntity
  8
細線
 48
50.0
100
AcDbLine
 10
9791.945392419693
 20
1268.478579673304
 30
0.0
 11
9834.817263208677
 21
1428.478579673301
 31
0.0
  0
LINE
  5
2DCCD
330
747D
100
AcDbEntity
  8
細線
 48
50.0
100
AcDbLine
 10
10087.77556097186
 20
1268.478579673301
 30
0.0
 11
10130.64743176085
 21
1428.478579673299
 31
0.0
  0
LINE
  5
2DCCE
330
747D
100
AcDbEntity
  8
細線
 48
50.0
100
AcDbLine
 10
9989.165504787814
 20
1268.478579673299
 30
0.0
 11
10032.03737557679
 21
1428.478579673299
 31
0.0
  0
LINE
  5
2DCCF
330
747D
100
AcDbEntity
  8
部品1
100
AcDbLine
 10
10177.1366744975
 20
1543.102224239991
 30
0.0
 11
10177.1366744975
 21
1268.478579673304
 31
0.0
  0
LINE
  5
2DCD0
330
747D
100
AcDbEntity
  8
部品1
100
AcDbLine
 10
10767.64760231664
 20
235.2472462129581
 30
0.0
 11
10767.64760231664
 21
3494.316748961048
 31
0.0
  0
TEXT
  5
2DCD1
330
747D
100
AcDbEntity
  8
部品1
100
AcDbText
 10
6877.102014735259
 20
3269.876834021762
 30
0.0
 40
150.0
  1
基礎詳細
  7
STYLE2
100
AcDbText
  0
LINE
  5
2DCD2
330
747D
100
AcDbEntity
  8
細線
 48
50.0
100
AcDbLine
 10
9432.338562699504
 20
1398.478579673303
 30
0.0
 11
9424.300086926573
 21
1428.478579673303
 31
0.0
  0
LINE
  5
2DCD3
330
747D
100
AcDbEntity
  8
細線
 48
50.0
100
AcDbLine
 10
9333.728506515445
 20
1398.478579673303
 30
0.0
 11
9325.690030742505
 21
1428.478579673303
 31
0.0
  0
LINE
  5
2DCD4
330
747D
100
AcDbEntity
  8
部品1
100
AcDbLine
 10
9427.136674497504
 20
1543.102224239991
 30
0.0
 11
9427.136674497504
 21
1843.102224239992
 31
0.0
  0
LINE
  5
2DCD5
330
747D
100
AcDbEntity
  8
細線
 48
50.0
100
AcDbLine
 10
9306.933587272331
 20
1298.478579673303
 30
0.0
 11
9314.972063045264
 21
1268.478579673304
 31
0.0
  0
LINE
  5
2DCD6
330
747D
100
AcDbEntity
  8
細線
 48
50.0
100
AcDbLine
 10
9405.543643456391
 20
1298.478579673303
 30
0.0
 11
9413.582119229324
 21
1268.478579673304
 31
0.0
  0
LINE
  5
2DCD7
330
747D
100
AcDbEntity
  8
細線
 48
50.0
100
AcDbLine
 10
7837.995020732307
 20
833.1022242399892
 30
0.0
 11
7829.956544959377
 21
863.1022242399895
 31
0.0
  0
LINE
  5
2DCD8
330
747D
100
AcDbEntity
  8
部品1
 48
50.0
100
AcDbLine
 10
7892.522739241892
 20
863.1022242399904
 30
0.0
 11
7892.522739241892
 21
703.1022242399902
 31
0.0
  0
LINE
  5
2DCD9
330
747D
100
AcDbEntity
  8
細線
 48
50.0
100
AcDbLine
 10
9298.895111499392
 20
1268.478579673304
 30
0.0
 11
9341.766982288371
 21
1428.478579673303
 31
0.0
  0
LINE
  5
2DCDA
330
747D
100
AcDbEntity
  8
部品1
100
AcDbLine
 10
9277.136674497503
 20
1268.478579673299
 30
0.0
 11
9277.136674497503
 21
1543.102224239991
 31
0.0
  0
TEXT
  5
2DCDB
330
747D
100
AcDbEntity
  8
部品1
 48
50.0
100
AcDbText
 10
8801.795046172205
 20
1209.602548443355
 30
0.0
 40
100.0
  1
ボルトの出
 50
90.0
  7
STYLE2
100
AcDbText
  0
LINE
  5
2DCDC
330
747D
100
AcDbEntity
  8
細線
 48
50.0
100
AcDbLine
 10
9397.505167683453
 20
1268.478579673301
 30
0.0
 11
9440.377038472432
 21
1428.478579673301
 31
0.0
  0
LINE
  5
2DCDD
330
747D
100
AcDbEntity
  8
部品1
 48
50.0
100
AcDbLine
 10
7411.772739241887
 20
2281.69632562642
 30
0.0
 11
7431.772739241887
 21
2291.69632562642
 31
0.0
  0
LINE
  5
2DCDE
330
747D
100
AcDbEntity
  8
部品1
 48
50.0
100
AcDbLine
 10
7411.772739241887
 20
2321.69632562642
 30
0.0
 11
7431.772739241887
 21
2331.696325626421
 31
0.0
  0
LINE
  5
2DCDF
330
747D
100
AcDbEntity
  8
細線
 48
50.0
100
AcDbLine
 10
7411.772739241887
 20
2281.69632562642
 30
0.0
 11
7411.772739241887
 21
2321.69632562642
 31
0.0
  0
LINE
  5
2DCE0
330
747D
100
AcDbEntity
  8
部品1
 48
50.0
100
AcDbLine
 10
7431.772739241887
 20
2291.69632562642
 30
0.0
 11
7431.772739241887
 21
2331.696325626421
 31
0.0
  0
LINE
  5
2DCE1
330
747D
100
AcDbEntity
  8
部品1
 48
50.0
100
AcDbLine
 10
7411.772739241887
 20
2341.69632562642
 30
0.0
 11
7431.772739241887
 21
2331.696325626421
 31
0.0
  0
LINE
  5
2DCE2
330
747D
100
AcDbEntity
  8
部品1
 48
50.0
100
AcDbLine
 10
7441.772739241888
 20
2167.506334795332
 30
0.0
 11
7441.772739241888
 21
2179.506334795331
 31
0.0
  0
LINE
  5
2DCE3
330
747D
100
AcDbEntity
  8
細線
 48
50.0
100
AcDbLine
 10
7371.772739241888
 20
2281.69632562642
 30
0.0
 11
7371.772739241888
 21
2321.69632562642
 31
0.0
  0
LINE
  5
2DCE4
330
747D
100
AcDbEntity
  8
部品1
 48
50.0
100
AcDbLine
 10
7351.772739241887
 20
2291.69632562642
 30
0.0
 11
7351.772739241887
 21
2331.696325626421
 31
0.0
  0
LINE
  5
2DCE5
330
747D
100
AcDbEntity
  8
部品1
 48
50.0
100
AcDbLine
 10
7351.772739241887
 20
2331.696325626421
 30
0.0
 11
7371.772739241888
 21
2321.69632562642
 31
0.0
  0
LINE
  5
2DCE6
330
747D
100
AcDbEntity
  8
部品1
 48
50.0
100
AcDbLine
 10
7351.772739241887
 20
2291.69632562642
 30
0.0
 11
7371.772739241888
 21
2281.69632562642
 31
0.0
  0
LINE
  5
2DCE7
330
747D
100
AcDbEntity
  8
部品1
 48
50.0
100
AcDbLine
 10
7351.772739241887
 20
2331.696325626421
 30
0.0
 11
7371.772739241888
 21
2341.69632562642
 31
0.0
  0
LINE
  5
2DCE8
330
747D
100
AcDbEntity
  8
部品1
100
AcDbLine
 10
7250.022739241888
 20
1915.102224239992
 30
0.0
 11
7299.522739241885
 21
1915.102224239992
 31
0.0
  0
ARC
  5
2DCE9
330
747D
100
AcDbEntity
  8
部品1
100
AcDbCircle
 10
7246.647739241888
 20
1979.227224239988
 30
0.0
 40
3.375
100
AcDbArc
 50
0.0
 51
90.0
  0
LINE
  5
2DCEA
330
747D
100
AcDbEntity
  8
部品1
100
AcDbLine
 10
7250.022739241888
 20
1979.227224239988
 30
0.0
 11
7250.022739241888
 21
1915.102224239992
 31
0.0
  0
LINE
  5
2DCEB
330
747D
100
AcDbEntity
  8
部品1
 48
50.0
100
AcDbLine
 10
7341.772739241888
 20
2179.506334795331
 30
0.0
 11
7341.772739241888
 21
2167.506334795332
 31
0.0
  0
LINE
  5
2DCEC
330
747D
100
AcDbEntity
  8
部品1
100
AcDbLine
 10
7279.272739241888
 20
1930.052224239991
 30
0.0
 11
7314.472739241892
 21
1930.052224239991
 31
0.0
  0
ARC
  5
2DCED
330
747D
100
AcDbEntity
  8
部品1
100
AcDbCircle
 10
7279.272739241888
 20
1926.677224239993
 30
0.0
 40
3.375
100
AcDbArc
 50
90.0
 51
180.0
  0
ARC
  5
2DCEE
330
747D
100
AcDbEntity
  8
部品1
100
AcDbCircle
 10
7314.472739241892
 20
1926.677224239993
 30
0.0
 40
3.375
100
AcDbArc
 50
0.0
 51
90.0
  0
LINE
  5
2DCEF
330
747D
100
AcDbEntity
  8
部品1
100
AcDbLine
 10
7380.522739241887
 20
1904.552224239991
 30
0.0
 11
7403.022739241888
 21
1904.552224239991
 31
0.0
  0
LINE
  5
2DCF0
330
747D
100
AcDbEntity
  8
部品1
100
AcDbLine
 10
7385.022739241887
 20
1909.052224239992
 30
0.0
 11
7398.522739241887
 21
1909.052224239992
 31
0.0
  0
ARC
  5
2DCF1
330
747D
100
AcDbEntity
  8
部品1
100
AcDbCircle
 10
7299.522739241885
 20
1911.727224239992
 30
0.0
 40
3.375
100
AcDbArc
 50
0.0
 51
90.0
  0
LINE
  5
2DCF2
330
747D
100
AcDbEntity
  8
部品1
100
AcDbLine
 10
7275.897739241887
 20
1926.677224239993
 30
0.0
 11
7275.897739241887
 21
1905.302224239991
 31
0.0
  0
ARC
  5
2DCF3
330
747D
100
AcDbEntity
  8
部品1
100
AcDbCircle
 10
7193.772739241888
 20
1979.227224239991
 30
0.0
 40
3.375
100
AcDbArc
 50
90.0
 51
180.0
  0
LINE
  5
2DCF4
330
747D
100
AcDbEntity
  8
部品1
100
AcDbLine
 10
7190.397739241888
 20
1969.102224239992
 30
0.0
 11
7190.397739241888
 21
1969.102224239992
 31
0.0
  0
LINE
  5
2DCF5
330
747D
100
AcDbEntity
  8
部品1
100
AcDbLine
 10
7190.397739241888
 20
1969.102224239992
 30
0.0
 11
7190.397739241888
 21
1979.227224239991
 31
0.0
  0
LINE
  5
2DCF6
330
747D
100
AcDbEntity
  8
部品1
100
AcDbLine
 10
7187.022739241887
 20
1955.602224239992
 30
0.0
 11
7187.022739241887
 21
1965.727224239992
 31
0.0
  0
ARC
  5
2DCF7
330
747D
100
AcDbEntity
  8
部品1
100
AcDbCircle
 10
7190.397739241888
 20
1965.727224239992
 30
0.0
 40
3.375
100
AcDbArc
 50
90.0
 51
180.0
  0
LINE
  5
2DCF8
330
747D
100
AcDbEntity
  8
部品1
100
AcDbLine
 10
7136.397739241887
 20
1942.102224239992
 30
0.0
 11
7136.397739241887
 21
1952.227224239992
 31
0.0
  0
ARC
  5
2DCF9
330
747D
100
AcDbEntity
  8
部品1
100
AcDbCircle
 10
7139.772739241887
 20
1952.227224239992
 30
0.0
 40
3.375
100
AcDbArc
 50
90.0
 51
180.0
  0
ARC
  5
2DCFA
330
747D
100
AcDbEntity
  8
部品1
100
AcDbCircle
 10
7126.272739241888
 20
1936.092103868376
 30
0.0
 40
3.375
100
AcDbArc
 50
104.0362434679075
 51
180.0
  0
LINE
  5
2DCFB
330
747D
100
AcDbEntity
  8
部品1
100
AcDbLine
 10
7125.454181507388
 20
1939.366334806367
 30
0.0
 11
7136.397739241887
 21
1942.102224239992
 31
0.0
  0
LINE
  5
2DCFC
330
747D
100
AcDbEntity
  8
部品1
100
AcDbLine
 10
7139.772739241887
 20
1955.602224239992
 30
0.0
 11
7187.022739241887
 21
1955.602224239992
 31
0.0
  0
LINE
  5
2DCFD
330
747D
100
AcDbEntity
  8
部品1
100
AcDbLine
 10
7193.772739241888
 20
1982.602224239991
 30
0.0
 11
7246.647739241888
 21
1982.602224239987
 31
0.0
  0
ELLIPSE
  5
2DCFE
330
747D
100
AcDbEntity
  8
部品1
 48
50.0
100
AcDbEllipse
 10
7391.772739241888
 20
2179.506334795331
 30
0.0
 11
23.0
 21
0.0
 31
0.0
210
0.0
220
0.0
230
1.0
 40
0.3478260869565217
 41
0.0
 42
6.283185307179584
  0
ELLIPSE
  5
2DCFF
330
747D
100
AcDbEntity
  8
部品1
 48
50.0
100
AcDbEllipse
 10
7391.772739241888
 20
2179.506334795331
 30
0.0
 11
50.0
 21
0.0
 31
0.0
210
0.0
220
0.0
230
1.0
 40
0.4
 41
0.0
 42
6.283185307179584
  0
ELLIPSE
  5
2DD00
330
747D
100
AcDbEntity
  8
部品1
 48
50.0
100
AcDbEllipse
 10
7391.772739241888
 20
2167.506334795332
 30
0.0
 11
50.0
 21
0.0
 31
0.0
210
0.0
220
0.0
230
1.0
 40
0.4
 41
3.141592653589792
 42
6.283185307179584
  0
LINE
  5
2DD01
330
747D
100
AcDbEntity
  8
部品1
 48
50.0
100
AcDbLine
 10
7371.772739241888
 20
2341.69632562642
 30
0.0
 11
7411.772739241887
 21
2341.69632562642
 31
0.0
  0
ELLIPSE
  5
2DD02
330
747D
100
AcDbEntity
  8
細線
 48
50.0
100
AcDbEllipse
 10
7391.772739241888
 20
2331.696325626421
 30
0.0
 11
18.45838483258558
 21
0.0
 31
0.0
210
0.0
220
0.0
230
1.0
 40
0.2071254069489396
 41
0.0
 42
6.283185307179584
  0
LINE
  5
2DD03
330
747D
100
AcDbEntity
  8
部品1
 48
50.0
100
AcDbLine
 10
7371.772739241888
 20
2281.69632562642
 30
0.0
 11
7411.772739241887
 21
2281.69632562642
 31
0.0
  0
LINE
  5
2DD04
330
747D
100
AcDbEntity
  8
部品1
 48
50.0
100
AcDbLine
 10
7371.772739241888
 20
2321.69632562642
 30
0.0
 11
7411.772739241887
 21
2321.69632562642
 31
0.0
  0
LINE
  5
2DD05
330
747D
100
AcDbEntity
  8
細線
 48
50.0
100
AcDbLine
 10
7470.522739241889
 20
1644.512577350727
 30
0.0
 11
7632.522739241888
 21
1806.512577350726
 31
0.0
  0
LINE
  5
2DD06
330
747D
100
AcDbEntity
  8
細線
 48
50.0
100
AcDbLine
 10
7470.522739241889
 20
1610.836616896706
 30
0.0
 11
7632.522739241888
 21
1772.836616896702
 31
0.0
  0
LINE
  5
2DD07
330
747D
100
AcDbEntity
  8
部品1
100
AcDbLine
 10
7448.022739241888
 20
1539.35222423999
 30
0.0
 11
7448.022739241888
 21
1561.852224239991
 31
0.0
  0
LINE
  5
2DD08
330
747D
100
AcDbEntity
  8
部品1
100
AcDbLine
 10
7470.522739241889
 20
1438.10222423999
 30
0.0
 11
7470.522739241889
 21
1843.102224239992
 31
0.0
  0
LINE
  5
2DD09
330
747D
100
AcDbEntity
  8
細線
 48
50.0
100
AcDbLine
 10
7470.522739241889
 20
1577.160656442689
 30
0.0
 11
7632.522739241888
 21
1739.160656442678
 31
0.0
  0
LINE
  5
2DD0A
330
747D
100
AcDbEntity
  8
部品1
100
AcDbLine
 10
7284.897739241888
 20
1855.052224239992
 30
0.0
 11
7299.522739241885
 21
1855.052224239992
 31
0.0
  0
ARC
  5
2DD0B
330
747D
100
AcDbEntity
  8
部品1
100
AcDbCircle
 10
7321.222739241881
 20
1858.427224239991
 30
0.0
 40
3.375
100
AcDbArc
 50
180.0
 51
270.0
  0
ARC
  5
2DD0C
330
747D
100
AcDbEntity
  8
部品1
100
AcDbCircle
 10
7299.522739241885
 20
1858.427224239991
 30
0.0
 40
3.375
100
AcDbArc
 50
270.0
 51
0.0
  0
ARC
  5
2DD0D
330
747D
100
AcDbEntity
  8
部品1
100
AcDbCircle
 10
7126.272739241888
 20
1858.427224239991
 30
0.0
 40
3.375
100
AcDbArc
 50
180.0
 51
270.0
  0
LINE
  5
2DD0E
330
747D
100
AcDbEntity
  8
細線
 48
50.0
100
AcDbLine
 10
7115.022739241886
 20
1827.827944614872
 30
0.0
 11
7130.297018867008
 21
1843.102224239992
 31
0.0
  0
LINE
  5
2DD0F
330
747D
100
AcDbEntity
  8
部品1
100
AcDbLine
 10
7126.272739241888
 20
1855.052224239992
 30
0.0
 11
7140.89773924188
 21
1855.052224239992
 31
0.0
  0
LINE
  5
2DD10
330
747D
100
AcDbEntity
  8
細線
 48
50.0
100
AcDbLine
 10
7115.022739241886
 20
1794.151984160864
 30
0.0
 11
7163.97297932102
 21
1843.102224239992
 31
0.0
  0
LINE
  5
2DD11
330
747D
100
AcDbEntity
  8
細線
 48
50.0
100
AcDbLine
 10
7115.022739241886
 20
1760.476023706854
 30
0.0
 11
7197.648939775024
 21
1843.102224239992
 31
0.0
  0
ARC
  5
2DD12
330
747D
100
AcDbEntity
  8
部品1
100
AcDbCircle
 10
7403.022739241888
 20
1561.852224239991
 30
0.0
 40
22.5
100
AcDbArc
 50
180.0
 51
270.0
  0
LINE
  5
2DD13
330
747D
100
AcDbEntity
  8
細線
 48
50.0
100
AcDbLine
 10
7115.022739241886
 20
1491.06834007478
 30
0.0
 11
7313.022739241884
 21
1689.06834007477
 31
0.0
  0
LINE
  5
2DD14
330
747D
100
AcDbEntity
  8
部品1
100
AcDbLine
 10
7313.02273924188
 20
1438.10222423999
 30
0.0
 11
7313.022739241887
 21
1843.102224239992
 31
0.0
  0
LINE
  5
2DD15
330
747D
100
AcDbEntity
  8
細線
 48
50.0
100
AcDbLine
 10
7115.022739241886
 20
1558.420260982797
 30
0.0
 11
7313.022739241886
 21
1756.420260982794
 31
0.0
  0
LINE
  5
2DD16
330
747D
100
AcDbEntity
  8
細線
 48
50.0
100
AcDbLine
 10
7115.022739241886
 20
1524.744300528789
 30
0.0
 11
7313.022739241886
 21
1722.744300528785
 31
0.0
  0
LINE
  5
2DD17
330
747D
100
AcDbEntity
  8
部品1
100
AcDbLine
 10
7470.522739241889
 20
1438.102224239989
 30
0.0
 11
7313.02273924188
 21
1438.102224239989
 31
0.0
  0
LINE
  5
2DD18
330
747D
100
AcDbEntity
  8
部品1
 48
50.0
100
AcDbLine
 10
7115.022739241886
 20
1843.102224239992
 30
0.0
 11
7632.522739241891
 21
1843.102224239992
 31
0.0
  0
LINE
  5
2DD19
330
747D
100
AcDbEntity
  8
部品1
100
AcDbLine
 10
7321.222739241881
 20
1855.052224239992
 30
0.0
 11
7572.89773924188
 21
1855.052224239992
 31
0.0
  0
LINE
  5
2DD1A
330
747D
100
AcDbEntity
  8
部品1
100
AcDbLine
 10
7403.022739241888
 20
1539.35222423999
 30
0.0
 11
7448.022739241888
 21
1539.35222423999
 31
0.0
  0
LINE
  5
2DD1B
330
747D
100
AcDbEntity
  8
部品1
100
AcDbLine
 10
7403.022739241888
 20
1561.852224239991
 30
0.0
 11
7448.022739241888
 21
1561.852224239991
 31
0.0
  0
LINE
  5
2DD1C
330
747D
100
AcDbEntity
  8
部品1
100
AcDbLine
 10
7122.897739241887
 20
1858.427224239991
 30
0.0
 11
7122.897739241887
 21
1936.092103868376
 31
0.0
  0
LINE
  5
2DD1D
330
747D
100
AcDbEntity
  8
細線
100
AcDbLine
 10
7398.522739241887
 20
1855.052224239992
 30
0.0
 11
7398.522739241887
 21
1909.052224239992
 31
0.0
  0
LINE
  5
2DD1E
330
747D
100
AcDbEntity
  8
細線
100
AcDbLine
 10
7385.022739241891
 20
1855.052224239992
 30
0.0
 11
7385.022739241887
 21
1909.052224239992
 31
0.0
  0
LINE
  5
2DD1F
330
747D
100
AcDbEntity
  8
部品1
100
AcDbLine
 10
7302.897739241888
 20
1911.727224239992
 30
0.0
 11
7302.897739241888
 21
1858.427224239991
 31
0.0
  0
LINE
  5
2DD20
330
747D
100
AcDbEntity
  8
部品1
100
AcDbLine
 10
7317.847739241891
 20
1926.677224239993
 30
0.0
 11
7317.847739241884
 21
1858.427224239991
 31
0.0
  0
LINE
  5
2DD21
330
747D
100
AcDbEntity
  8
部品1
100
AcDbLine
 10
7403.022739241888
 20
1561.852224239991
 30
0.0
 11
7403.022739241883
 21
1904.552224239991
 31
0.0
  0
LINE
  5
2DD22
330
747D
100
AcDbEntity
  8
部品1
100
AcDbLine
 10
7380.522739241887
 20
1561.852224239991
 30
0.0
 11
7380.522739241884
 21
1904.552224239991
 31
0.0
  0
TEXT
  5
2DD23
330
747D
100
AcDbEntity
  8
部品1
 48
50.0
100
AcDbText
 10
6597.347861950692
 20
1557.15096459406
 30
0.0
 40
100.0
  1
▽G.L
  7
STYLE2
100
AcDbText
  0
LWPOLYLINE
  5
2DD24
330
747D
100
AcDbEntity
  8
部品1
 48
50.0
100
AcDbPolyline
 90
        2
 70
     0
 43
10.0
 10
6597.347861950692
 20
1543.102224239993
 10
7115.022739241886
 20
1543.102224239993
  0
LINE
  5
2DD25
330
747D
100
AcDbEntity
  8
部品1
 48
50.0
100
AcDbLine
 10
7632.522739241888
 20
1163.10222423999
 30
0.0
 11
7792.522739241888
 21
1163.10222423999
 31
0.0
  0
LINE
  5
2DD26
330
747D
100
AcDbEntity
  8
細線
 48
50.0
100
AcDbLine
 10
7640.774908364176
 20
833.1022242399917
 30
0.0
 11
7632.736432591244
 21
863.1022242399904
 31
0.0
  0
LINE
  5
2DD27
330
747D
100
AcDbEntity
  8
細線
 48
50.0
100
AcDbLine
 10
7739.384964548247
 20
833.1022242399892
 30
0.0
 11
7731.346488775317
 21
863.1022242399895
 31
0.0
  0
LINE
  5
2DD28
330
747D
100
AcDbEntity
  8
細線
 48
50.0
100
AcDbLine
 10
7443.554795996073
 20
833.1022242399917
 30
0.0
 11
7435.516320223142
 21
863.1022242399904
 31
0.0
  0
LINE
  5
2DD29
330
747D
100
AcDbEntity
  8
細線
 48
50.0
100
AcDbLine
 10
7542.164852180132
 20
833.1022242399917
 30
0.0
 11
7534.126376407197
 21
863.1022242399904
 31
0.0
  0
LINE
  5
2DD2A
330
747D
100
AcDbEntity
  8
細線
 48
50.0
100
AcDbLine
 10
7497.33543702738
 20
863.1022242399904
 30
0.0
 11
7792.522739241888
 21
1158.2895264545
 31
0.0
  0
LINE
  5
2DD2B
330
747D
100
AcDbEntity
  8
細線
 48
50.0
100
AcDbLine
 10
7531.011397481392
 20
863.1022242399904
 30
0.0
 11
7792.522739241888
 21
1124.613566000484
 31
0.0
  0
LINE
  5
2DD2C
330
747D
100
AcDbEntity
  8
細線
 48
50.0
100
AcDbLine
 10
7564.687357935397
 20
863.1022242399904
 30
0.0
 11
7792.522739241888
 21
1090.937605546486
 31
0.0
  0
LINE
  5
2DD2D
330
747D
100
AcDbEntity
  8
部品1
 48
50.0
100
AcDbLine
 10
7792.522739241888
 20
1163.10222423999
 30
0.0
 11
7792.522739241888
 21
863.1022242399904
 31
0.0
  0
LINE
  5
2DD2E
330
747D
100
AcDbEntity
  8
細線
 48
50.0
100
AcDbLine
 10
7246.334683627958
 20
833.1022242399917
 30
0.0
 11
7238.296207855025
 21
863.1022242399904
 31
0.0
  0
LINE
  5
2DD2F
330
747D
100
AcDbEntity
  8
細線
 48
50.0
100
AcDbLine
 10
7344.944739812017
 20
833.1022242399917
 30
0.0
 11
7336.906264039082
 21
863.1022242399904
 31
0.0
  0
LINE
  5
2DD30
330
747D
100
AcDbEntity
  8
細線
 48
50.0
100
AcDbLine
 10
7049.114571259827
 20
833.1022242399917
 30
0.0
 11
7041.076095486895
 21
863.1022242399904
 31
0.0
  0
LINE
  5
2DD31
330
747D
100
AcDbEntity
  8
細線
 48
50.0
100
AcDbLine
 10
7147.724627443891
 20
833.1022242399917
 30
0.0
 11
7139.686151670959
 21
863.1022242399904
 31
0.0
  0
LINE
  5
2DD32
330
747D
100
AcDbEntity
  8
細線
 48
50.0
100
AcDbLine
 10
7227.927753395305
 20
863.1022242399904
 30
0.0
 11
7632.522739241885
 21
1267.697210086574
 31
0.0
  0
LINE
  5
2DD33
330
747D
100
AcDbEntity
  8
細線
 48
50.0
100
AcDbLine
 10
7261.603713849315
 20
863.1022242399904
 30
0.0
 11
7632.522739241888
 21
1234.021249632556
 31
0.0
  0
LINE
  5
2DD34
330
747D
100
AcDbEntity
  8
細線
 48
50.0
100
AcDbLine
 10
7295.279674303323
 20
863.1022242399904
 30
0.0
 11
7632.522739241888
 21
1200.345289178563
 31
0.0
  0
LINE
  5
2DD35
330
747D
100
AcDbEntity
  8
細線
 48
50.0
100
AcDbLine
 10
7613.979989121077
 20
733.1022242399902
 30
0.0
 11
7622.018464894025
 21
703.1022242399902
 31
0.0
  0
LINE
  5
2DD36
330
747D
100
AcDbEntity
  8
細線
 48
50.0
100
AcDbLine
 10
7712.590045305138
 20
733.1022242399893
 30
0.0
 11
7720.628521078072
 21
703.1022242399894
 31
0.0
  0
LINE
  5
2DD37
330
747D
100
AcDbEntity
  8
細線
 48
50.0
100
AcDbLine
 10
7416.759876752959
 20
733.1022242399902
 30
0.0
 11
7424.798352525896
 21
703.1022242399902
 31
0.0
  0
LINE
  5
2DD38
330
747D
100
AcDbEntity
  8
細線
 48
50.0
100
AcDbLine
 10
7515.369932937019
 20
733.1022242399902
 30
0.0
 11
7523.408408709953
 21
703.1022242399902
 31
0.0
  0
LINE
  5
2DD39
330
747D
100
AcDbEntity
  8
細線
 48
50.0
100
AcDbLine
 10
7219.539764384848
 20
733.1022242399902
 30
0.0
 11
7227.57824015778
 21
703.1022242399902
 31
0.0
  0
LINE
  5
2DD3A
330
747D
100
AcDbEntity
  8
細線
 48
50.0
100
AcDbLine
 10
7318.149820568904
 20
733.1022242399902
 30
0.0
 11
7326.188296341837
 21
703.1022242399902
 31
0.0
  0
LINE
  5
2DD3B
330
747D
100
AcDbEntity
  8
細線
 48
50.0
100
AcDbLine
 10
7022.319652016718
 20
733.1022242399902
 30
0.0
 11
7030.358127789651
 21
703.1022242399902
 31
0.0
  0
LINE
  5
2DD3C
330
747D
100
AcDbEntity
  8
細線
 48
50.0
100
AcDbLine
 10
7120.92970820078
 20
733.1022242399902
 30
0.0
 11
7128.968183973717
 21
703.1022242399902
 31
0.0
  0
LINE
  5
2DD3D
330
747D
100
AcDbEntity
  8
細線
 48
50.0
100
AcDbLine
 10
7605.941513348139
 20
703.1022242399894
 30
0.0
 11
7648.813384137108
 21
863.1022242399904
 31
0.0
  0
LINE
  5
2DD3E
330
747D
100
AcDbEntity
  8
細線
 48
50.0
100
AcDbLine
 10
7704.551569532201
 20
703.1022242399878
 30
0.0
 11
7747.423440321179
 21
863.1022242399877
 31
0.0
  0
LINE
  5
2DD3F
330
747D
100
AcDbEntity
  8
細線
 48
50.0
100
AcDbLine
 10
7408.721400980025
 20
703.1022242399894
 30
0.0
 11
7451.593271769005
 21
863.1022242399895
 31
0.0
  0
LINE
  5
2DD40
330
747D
100
AcDbEntity
  8
細線
 48
50.0
100
AcDbLine
 10
7211.501288611906
 20
703.1022242399902
 30
0.0
 11
7254.373159400884
 21
863.1022242399904
 31
0.0
  0
LINE
  5
2DD41
330
747D
100
AcDbEntity
  8
細線
 48
50.0
100
AcDbLine
 10
7310.111344795963
 20
703.1022242399902
 30
0.0
 11
7352.983215584946
 21
863.1022242399895
 31
0.0
  0
LINE
  5
2DD42
330
747D
100
AcDbEntity
  8
細線
 48
50.0
100
AcDbLine
 10
7507.331457164077
 20
703.1022242399902
 30
0.0
 11
7550.20332795306
 21
863.1022242399895
 31
0.0
  0
LINE
  5
2DD43
330
747D
100
AcDbEntity
  8
細線
 48
50.0
100
AcDbLine
 10
7014.281176243783
 20
703.1022242399902
 30
0.0
 11
7057.153047032759
 21
863.1022242399904
 31
0.0
  0
LINE
  5
2DD44
330
747D
100
AcDbEntity
  8
細線
 48
50.0
100
AcDbLine
 10
7112.891232427839
 20
703.1022242399894
 30
0.0
 11
7155.763103216819
 21
863.1022242399895
 31
0.0
  0
LINE
  5
2DD45
330
747D
100
AcDbEntity
  8
細線
 48
50.0
100
AcDbLine
 10
6955.022739241882
 20
1129.012577350723
 30
0.0
 11
6989.112386131157
 21
1163.10222423999
 31
0.0
  0
LINE
  5
2DD46
330
747D
100
AcDbEntity
  8
細線
 48
50.0
100
AcDbLine
 10
6855.022739241888
 20
844.7771254472154
 30
0.0
 11
6859.932934664631
 21
863.1022242399904
 31
0.0
  0
LINE
  5
2DD47
330
747D
100
AcDbEntity
  8
細線
 48
50.0
100
AcDbLine
 10
6950.504515075763
 20
833.1022242399917
 30
0.0
 11
6942.46603930283
 21
863.1022242399904
 31
0.0
  0
LINE
  5
2DD48
330
747D
100
AcDbEntity
  8
部品1
 48
50.0
100
AcDbLine
 10
6955.022739241889
 20
863.1022242399904
 30
0.0
 11
6955.022739241889
 21
1163.10222423999
 31
0.0
  0
LINE
  5
2DD49
330
747D
100
AcDbEntity
  8
細線
 48
50.0
100
AcDbLine
 10
6923.709595832653
 20
733.1022242399902
 30
0.0
 11
6931.748071605587
 21
703.1022242399902
 31
0.0
  0
LINE
  5
2DD4A
330
747D
100
AcDbEntity
  8
部品1
 48
50.0
100
AcDbLine
 10
6855.022739241892
 20
703.1022242399902
 30
0.0
 11
6855.022739241892
 21
863.1022242399904
 31
0.0
  0
LINE
  5
2DD4B
330
747D
100
AcDbEntity
  8
細線
 48
50.0
100
AcDbLine
 10
6915.671120059712
 20
703.1022242399894
 30
0.0
 11
6958.54299084869
 21
863.1022242399895
 31
0.0
  0
LINE
  5
2DD4C
330
747D
100
AcDbEntity
  8
細線
 48
50.0
100
AcDbLine
 10
6955.022739241882
 20
1095.33661689671
 30
0.0
 11
7022.788346585167
 21
1163.10222423999
 31
0.0
  0
LINE
  5
2DD4D
330
747D
100
AcDbEntity
  8
細線
 48
50.0
100
AcDbLine
 10
6955.022739241882
 20
1061.660656442705
 30
0.0
 11
7056.464307039175
 21
1163.10222423999
 31
0.0
  0
LINE
  5
2DD4E
330
747D
100
AcDbEntity
  8
部品1
 48
50.0
100
AcDbLine
 10
6955.022739241889
 20
1163.10222423999
 30
0.0
 11
7115.022739241886
 21
1163.10222423999
 31
0.0
  0
LINE
  5
2DD4F
330
747D
100
AcDbEntity
  8
細線
 48
50.0
100
AcDbLine
 10
6958.52006976323
 20
863.1022242399904
 30
0.0
 11
7632.522739241885
 21
1537.104893718648
 31
0.0
  0
LINE
  5
2DD50
330
747D
100
AcDbEntity
  8
部品1
100
AcDbLine
 10
7632.522739241885
 20
1163.10222423999
 30
0.0
 11
7632.522739241888
 21
1843.102224239992
 31
0.0
  0
LINE
  5
2DD51
330
747D
100
AcDbEntity
  8
部品1
 48
50.0
100
AcDbLine
 10
7115.022739241886
 20
1163.10222423999
 30
0.0
 11
7115.022739241886
 21
1843.102224239992
 31
0.0
  0
LINE
  5
2DD52
330
747D
100
AcDbEntity
  8
細線
 48
50.0
100
AcDbLine
 10
7115.022739241886
 20
1255.336616896713
 30
0.0
 11
7313.022739241879
 21
1453.336616896699
 31
0.0
  0
LINE
  5
2DD53
330
747D
100
AcDbEntity
  8
細線
 48
50.0
100
AcDbLine
 10
7115.022739241886
 20
1221.660656442705
 30
0.0
 11
7331.464307039181
 21
1438.102224239989
 31
0.0
  0
LINE
  5
2DD54
330
747D
100
AcDbEntity
  8
細線
 48
50.0
100
AcDbLine
 10
7115.022739241886
 20
1289.012577350723
 30
0.0
 11
7313.022739241879
 21
1487.012577350716
 31
0.0
  0
LINE
  5
2DD55
330
747D
100
AcDbEntity
  8
細線
 48
50.0
100
AcDbLine
 10
7025.871990671247
 20
863.1022242399904
 30
0.0
 11
7632.522739241888
 21
1469.752972810626
 31
0.0
  0
LINE
  5
2DD56
330
747D
100
AcDbEntity
  8
細線
 48
50.0
100
AcDbLine
 10
6992.196030217241
 20
863.1022242399904
 30
0.0
 11
7632.522739241891
 21
1503.428933264634
 31
0.0
  0
TEXT
  5
2DD57
330
747D
100
AcDbEntity
  8
部品1
 48
50.0
100
AcDbText
 10
7637.964719597423
 20
2287.950575192741
 30
0.0
 40
100.0
  1
基礎ボルト(市販品)
  7
STYLE2
100
AcDbText
  0
DIMENSION
  5
2DD58
330
747D
100
AcDbEntity
  8
寸法
 48
50.0
100
AcDbDimension
  2
*D37
 10
8604.926821601727
 20
1843.102224239992
 30
0.0
 11
8604.926821601727
 21
1377.09332081851
 31
0.0
 70
   160
  1
20～25
 71
     5
 42
65.95000000000005
  3
INABA_S40G
100
AcDbAlignedDimension
 13
7398.522739241887
 23
1909.052224239992
 33
0.0
 14
7632.522739241888
 24
1843.102224239992
 34
0.0
 50
90.0
100
AcDbRotatedDimension
1001
ACAD
1000
DSTYLE
1002
{
1070
   341
1005
0
1002
}
  0
LINE
  5
2DD59
330
747D
100
AcDbEntity
  8
細線
 48
50.0
100
AcDbLine
 10
7803.161625716255
 20
703.1022242399894
 30
0.0
 11
7846.033496505237
 21
863.1022242399877
 31
0.0
  0
LINE
  5
2DD5A
330
747D
100
AcDbEntity
  8
部品1
 48
50.0
100
AcDbLine
 10
7892.522739241892
 20
703.1022242399902
 30
0.0
 11
6855.022739241892
 21
703.1022242399902
 31
0.0
  0
LINE
  5
2DD5B
330
747D
100
AcDbEntity
  8
細線
 48
50.0
100
AcDbLine
 10
7811.200101489196
 20
733.1022242399893
 30
0.0
 11
7819.23857726213
 21
703.1022242399894
 31
0.0
  0
LINE
  5
2DD5C
330
747D
100
AcDbEntity
  8
部品1
 48
50.0
100
AcDbLine
 10
7892.522739241892
 20
863.1022242399904
 30
0.0
 11
6855.022739241892
 21
863.1022242399904
 31
0.0
  0
LWPOLYLINE
  5
2DD5D
330
747D
100
AcDbEntity
  8
部品1
 48
50.0
100
AcDbPolyline
 90
        2
 70
     0
 43
10.0
 10
7632.522739241888
 20
1543.102224239993
 10
7999.650818491118
 20
1543.102224239993
  0
DIMENSION
  5
2DD5E
330
747D
100
AcDbEntity
  8
寸法
 48
50.0
100
AcDbDimension
  2
*D38
 10
8259.858488952943
 20
1438.102224239989
 30
0.0
 11
8159.858488952943
 21
1640.602224239992
 31
0.0
 70
    32
  1
180
 71
     5
 42
405.000000000003
  3
INABA_S40G
100
AcDbAlignedDimension
 13
7632.522739241888
 23
1843.102224239992
 33
0.0
 14
7632.522739241888
 24
1438.102224239989
 34
0.0
 50
90.0
100
AcDbRotatedDimension
1001
ACAD
1000
DSTYLE
1002
{
1070
   341
1005
0
1002
}
  0
MTEXT
  5
2DD5F
102
{ACAD_REACTORS
330
2DD60
102
}
330
747D
100
AcDbEntity
  8
部品1
 62
     7
 48
50.0
100
AcDbMText
 10
7643.703317266036
 20
2173.581381931529
 30
0.0
 40
100.0
 41
1.0
 71
     4
 72
     1
  1
M10X160
  7
STYLE2
 73
     1
 44
1.0
1001
ACAD
1000
MTEXTBEGIN
1070
    73
1070
     1
1070
    44
1040
1.0
1070
    74
1070
     0
1000
MTEXTEND
  0
LEADER
  5
2DD60
330
747D
100
AcDbEntity
  8
寸法
 48
50.0
100
AcDbLeader
  3
INABA_S40G
 73
     0
 74
     0
 75
     1
 40
100.0
 41
543.75
 76
     3
 10
7403.022739241888
 20
1904.552224239991
 30
0.0
 10
7503.703317266037
 20
2083.581381931529
 30
0.0
 10
7603.703317266037
 20
2083.581381931529
 30
0.0
340
2DD5F
1001
ACAD
1000
DSTYLE
1002
{
1070
   341
1005
0
1002
}
  0
LINE
  5
2DD61
330
747D
100
AcDbEntity
  8
細線
 48
50.0
100
AcDbLine
 10
4989.973597770394
 20
1794.151984160864
 30
0.0
 11
5038.923837849527
 21
1843.102224239992
 31
0.0
  0
LINE
  5
2DD62
330
747D
100
AcDbEntity
  8
細線
 48
50.0
100
AcDbLine
 10
4989.973597770394
 20
1760.476023706854
 30
0.0
 11
5072.599798303532
 21
1843.102224239992
 31
0.0
  0
LINE
  5
2DD63
330
747D
100
AcDbEntity
  8
細線
 48
50.0
100
AcDbLine
 10
4989.973597770394
 20
1827.827944614872
 30
0.0
 11
5005.247877395516
 21
1843.102224239992
 31
0.0
  0
ARC
  5
2DD64
330
747D
100
AcDbEntity
  8
部品1
 48
50.0
100
AcDbCircle
 10
5109.973597770395
 20
1668.420260982798
 30
0.0
 40
30.0
100
AcDbArc
 50
0.0
 51
180.0
  0
CIRCLE
  5
2DD65
330
747D
100
AcDbEntity
  8
部品1
 48
50.0
100
AcDbCircle
 10
5109.973597770395
 20
1668.420260982798
 30
0.0
 40
10.0
  0
LINE
  5
2DD66
330
747D
100
AcDbEntity
  8
細線
 48
50.0
100
AcDbLine
 10
5099.973597770395
 20
1634.744300528788
 30
0.0
 11
5119.973597770395
 21
1654.744300528789
 31
0.0
  0
LINE
  5
2DD67
330
747D
100
AcDbEntity
  8
細線
 48
50.0
100
AcDbLine
 10
5139.973597770395
 20
1641.068340074778
 30
0.0
 11
5229.973597770394
 21
1731.06834007478
 31
0.0
  0
LINE
  5
2DD68
330
747D
100
AcDbEntity
  8
細線
 48
50.0
100
AcDbLine
 10
5139.414481852877
 20
1674.185184611269
 30
0.0
 11
5229.973597770394
 21
1764.744300528789
 31
0.0
  0
LINE
  5
2DD69
330
747D
100
AcDbEntity
  8
細線
 48
50.0
100
AcDbLine
 10
5125.589125898484
 20
1694.035789110886
 30
0.0
 11
5229.973597770394
 21
1798.420260982797
 31
0.0
  0
LINE
  5
2DD6A
330
747D
100
AcDbEntity
  8
部品1
 48
50.0
100
AcDbLine
 10
4989.973597770394
 20
1843.102224239992
 30
0.0
 11
5229.973597770394
 21
1843.102224239992
 31
0.0
  0
LINE
  5
2DD6B
330
747D
100
AcDbEntity
  8
細線
 48
50.0
100
AcDbLine
 10
4989.973597770394
 20
1491.06834007478
 30
0.0
 11
5094.666500307013
 21
1595.761242611394
 31
0.0
  0
LINE
  5
2DD6C
330
747D
100
AcDbEntity
  8
部品1
 48
50.0
100
AcDbLine
 10
5099.973597770395
 20
1595.761242611394
 30
0.0
 11
5079.973597770393
 21
1595.761242611399
 31
0.0
  0
LINE
  5
2DD6D
330
747D
100
AcDbEntity
  8
細線
 48
50.0
100
AcDbLine
 10
5139.973597770403
 20
1371.660656442705
 30
0.0
 11
5229.973597770388
 21
1461.660656442704
 31
0.0
  0
LINE
  5
2DD6E
330
747D
100
AcDbEntity
  8
細線
 48
50.0
100
AcDbLine
 10
5139.973597770395
 20
1439.012577350722
 30
0.0
 11
5229.973597770394
 21
1529.012577350723
 31
0.0
  0
LINE
  5
2DD6F
330
747D
100
AcDbEntity
  8
細線
 48
50.0
100
AcDbLine
 10
5139.973597770403
 20
1405.336616896718
 30
0.0
 11
5229.973597770388
 21
1495.33661689671
 31
0.0
  0
LINE
  5
2DD70
330
747D
100
AcDbEntity
  8
細線
 48
50.0
100
AcDbLine
 10
4989.973597770394
 20
1524.744300528789
 30
0.0
 11
5079.973597770393
 21
1614.744300528788
 31
0.0
  0
LINE
  5
2DD71
330
747D
100
AcDbEntity
  8
細線
 48
50.0
100
AcDbLine
 10
4989.973597770394
 20
1558.420260982797
 30
0.0
 11
5079.973597770393
 21
1648.420260982797
 31
0.0
  0
LINE
  5
2DD72
330
747D
100
AcDbEntity
  8
細線
 48
50.0
100
AcDbLine
 10
5099.973597770395
 20
1601.06834007478
 30
0.0
 11
5119.973597770395
 21
1621.06834007478
 31
0.0
  0
LINE
  5
2DD73
330
747D
100
AcDbEntity
  8
部品1
 48
50.0
100
AcDbLine
 10
5079.973597770393
 20
1595.761242611399
 30
0.0
 11
5079.973597770393
 21
1668.420260982798
 31
0.0
  0
LINE
  5
2DD74
330
747D
100
AcDbEntity
  8
部品1
 48
50.0
100
AcDbLine
 10
5099.973597770395
 20
1595.761242611394
 30
0.0
 11
5099.973597770395
 21
1668.420260982798
 31
0.0
  0
LEADER
  5
2DD75
330
747D
100
AcDbEntity
  8
寸法
 48
50.0
100
AcDbLeader
  3
INABA_S40G
 71
     0
 73
     0
 74
     0
 75
     1
 40
100.0
 41
222.7272727272727
 76
     3
 10
5109.973597770395
 20
1668.420260982798
 30
0.0
 10
5208.581019054638
 20
1594.68667586365
 30
0.0
 10
5308.581019054638
 20
1594.68667586365
 30
0.0
1001
ACAD
1000
DSTYLE
1002
{
1070
   341
1005
0
1002
}
  0
LWPOLYLINE
  5
2DD76
330
747D
100
AcDbEntity
  8
部品1
 48
50.0
100
AcDbPolyline
 90
        2
 70
     0
 43
10.0
 10
5229.973597770394
 20
1543.102224239993
 10
5747.648475061591
 20
1543.102224239993
  0
MTEXT
  5
2DD77
102
{ACAD_REACTORS
330
2DD75
102
}
330
747D
100
AcDbEntity
  8
寸法
 62
     7
 48
50.0
100
AcDbMText
 10
5333.581019054638
 20
1669.686675863651
 30
0.0
 40
100.0
 41
1.0
 71
     4
 72
     1
  1
D13
  7
STYLE2
 73
     1
 44
1.0
1001
ACAD
1000
MTEXTBEGIN
1070
    73
1070
     1
1070
    44
1040
1.0
1070
    74
1070
     0
1000
MTEXTEND
  0
LINE
  5
2DD78
330
747D
100
AcDbEntity
  8
細線
 48
50.0
100
AcDbLine
 10
5417.11571070864
 20
833.1022242399917
 30
0.0
 11
5409.077234935706
 21
863.1022242399904
 31
0.0
  0
LINE
  5
2DD79
330
747D
100
AcDbEntity
  8
細線
 48
50.0
100
AcDbLine
 10
5372.286295555887
 20
863.1022242399904
 30
0.0
 11
5389.973597770395
 21
880.7895264544995
 31
0.0
  0
MTEXT
  5
2DD7A
102
{ACAD_REACTORS
330
2DDB9
102
}
330
747D
100
AcDbEntity
  8
寸法
 62
     7
 48
50.0
100
AcDbMText
 10
5519.133172528751
 20
968.8558880612744
 30
0.0
 40
100.0
 41
1.0
 71
     4
 72
     1
  1
D10
  7
STYLE2
 73
     1
 44
1.0
1001
ACAD
1000
MTEXTBEGIN
1070
    73
1070
     1
1070
    44
1040
1.0
1070
    74
1070
     0
1000
MTEXTEND
  0
LINE
  5
2DD7B
330
747D
100
AcDbEntity
  8
部品1
 48
50.0
100
AcDbLine
 10
5389.973597770395
 20
1163.10222423999
 30
0.0
 11
5389.973597770395
 21
863.1022242399904
 31
0.0
  0
LINE
  5
2DD7C
330
747D
100
AcDbEntity
  8
細線
 48
50.0
100
AcDbLine
 10
5390.320791465526
 20
733.1022242399902
 30
0.0
 11
5398.35926723846
 21
703.1022242399902
 31
0.0
  0
LINE
  5
2DD7D
330
747D
100
AcDbEntity
  8
細線
 48
50.0
100
AcDbLine
 10
5488.930847649584
 20
733.1022242399902
 30
0.0
 11
5489.973597770394
 21
729.2106278095348
 31
0.0
  0
LINE
  5
2DD7E
330
747D
100
AcDbEntity
  8
細線
 48
50.0
100
AcDbLine
 10
5480.892371876649
 20
703.1022242399894
 30
0.0
 11
5489.973597770394
 21
736.9938206704762
 31
0.0
  0
MTEXT
  5
2DD7F
102
{ACAD_REACTORS
330
2DDB7
102
}
330
747D
100
AcDbEntity
  8
寸法
 62
     7
 48
50.0
100
AcDbMText
 10
5532.146667596959
 20
641.4158670747992
 30
0.0
 40
100.0
 41
1.0
 71
     4
 72
     1
  1
\A1;D10@300
  7
STYLE2
 73
     1
 44
1.0
1001
ACAD
1000
MTEXTBEGIN
1070
    73
1070
     1
1070
    44
1040
1.0
1070
    74
1070
     0
1000
MTEXTEND
  0
LINE
  5
2DD80
330
747D
100
AcDbEntity
  8
部品1
 48
50.0
100
AcDbLine
 10
5489.973597770397
 20
863.1022242399904
 30
0.0
 11
5489.973597770397
 21
703.1022242399902
 31
0.0
  0
LINE
  5
2DD81
330
747D
100
AcDbEntity
  8
細線
 48
50.0
100
AcDbLine
 10
5382.282315692586
 20
703.1022242399902
 30
0.0
 11
5425.154186481567
 21
863.1022242399895
 31
0.0
  0
LINE
  5
2DD82
330
747D
100
AcDbEntity
  8
部品1
 48
50.0
100
AcDbLine
 10
5099.973597770395
 20
1085.761242611394
 30
0.0
 11
5079.973597770393
 21
1085.761242611394
 31
0.0
  0
LINE
  5
2DD83
330
747D
100
AcDbEntity
  8
細線
 48
50.0
100
AcDbLine
 10
5089.805907117151
 20
1085.761242611394
 30
0.0
 11
5119.973597770402
 21
1115.928933264643
 31
0.0
  0
LINE
  5
2DD84
330
747D
100
AcDbEntity
  8
細線
 48
50.0
100
AcDbLine
 10
5099.973597770395
 20
1062.25297281063
 30
0.0
 11
5119.973597770402
 21
1082.252972810629
 31
0.0
  0
LINE
  5
2DD85
330
747D
100
AcDbEntity
  8
細線
 48
50.0
100
AcDbLine
 10
5139.973597770403
 20
1135.928933264643
 30
0.0
 11
5229.973597770388
 21
1225.928933264636
 31
0.0
  0
LINE
  5
2DD86
330
747D
100
AcDbEntity
  8
細線
 48
50.0
100
AcDbLine
 10
5139.973597770403
 20
1169.604893718653
 30
0.0
 11
5229.973597770388
 21
1259.604893718649
 31
0.0
  0
LINE
  5
2DD87
330
747D
100
AcDbEntity
  8
細線
 48
50.0
100
AcDbLine
 10
5139.973597770403
 20
1102.25297281063
 30
0.0
 11
5229.973597770388
 21
1192.252972810629
 31
0.0
  0
LINE
  5
2DD88
330
747D
100
AcDbEntity
  8
細線
 48
50.0
100
AcDbLine
 10
5170.230532831831
 20
863.1022242399904
 30
0.0
 11
5290.23164263825
 21
983.1033340464156
 31
0.0
  0
LINE
  5
2DD89
330
747D
100
AcDbEntity
  8
部品1
 48
50.0
100
AcDbLine
 10
5319.973597770395
 20
1003.10222423999
 30
0.0
 11
5319.973597770395
 21
983.1022242399903
 31
0.0
  0
LINE
  5
2DD8A
330
747D
100
AcDbEntity
  8
細線
 48
50.0
100
AcDbLine
 10
5318.505654524582
 20
833.1022242399917
 30
0.0
 11
5310.467178751648
 21
863.1022242399904
 31
0.0
  0
CIRCLE
  5
2DD8B
330
747D
100
AcDbEntity
  8
部品1
 48
50.0
100
AcDbCircle
 10
5269.973597770394
 20
1013.10222423999
 30
0.0
 40
10.0
  0
LINE
  5
2DD8C
330
747D
100
AcDbEntity
  8
細線
 48
50.0
100
AcDbLine
 10
5219.895598340522
 20
833.1022242399917
 30
0.0
 11
5211.857122567589
 21
863.1022242399904
 31
0.0
  0
ARC
  5
2DD8D
330
747D
100
AcDbEntity
  8
部品1
 48
50.0
100
AcDbCircle
 10
5109.973597770395
 20
1013.10222423999
 30
0.0
 40
30.0
100
AcDbArc
 50
340.5287793654709
 51
0.0
  0
LINE
  5
2DD8E
330
747D
100
AcDbEntity
  8
細線
 48
50.0
100
AcDbLine
 10
5121.285542156464
 20
833.1022242399917
 30
0.0
 11
5113.247066383532
 21
863.1022242399904
 31
0.0
  0
ARC
  5
2DD8F
330
747D
100
AcDbEntity
  8
部品1
 48
50.0
100
AcDbCircle
 10
5109.973597770395
 20
1013.10222423999
 30
0.0
 40
30.0
100
AcDbArc
 50
180.0
 51
199.471220634529
  0
LINE
  5
2DD90
330
747D
100
AcDbEntity
  8
細線
 48
50.0
100
AcDbLine
 10
5022.675485972399
 20
833.1022242399917
 30
0.0
 11
5014.637010199467
 21
863.1022242399904
 31
0.0
  0
CIRCLE
  5
2DD91
330
747D
100
AcDbEntity
  8
部品1
 48
50.0
100
AcDbCircle
 10
5109.973597770395
 20
1013.10222423999
 30
0.0
 40
10.0
  0
LINE
  5
2DD92
330
747D
100
AcDbEntity
  8
細線
 48
50.0
100
AcDbLine
 10
5136.554572377826
 20
863.1022242399904
 30
0.0
 11
5256.554572377826
 21
983.1022242399903
 31
0.0
  0
LINE
  5
2DD93
330
747D
100
AcDbEntity
  8
細線
 48
50.0
100
AcDbLine
 10
5102.878611923812
 20
863.1022242399904
 30
0.0
 11
5222.878611923812
 21
983.1022242399903
 31
0.0
  0
LINE
  5
2DD94
330
747D
100
AcDbEntity
  8
細線
 48
50.0
100
AcDbLine
 10
4973.470928291735
 20
1003.10222423999
 30
0.0
 11
5119.973597770395
 21
1149.604893718649
 31
0.0
  0
LINE
  5
2DD95
330
747D
100
AcDbEntity
  8
細線
 48
50.0
100
AcDbLine
 10
5040.822849199756
 20
1003.10222423999
 30
0.0
 11
5079.973597770393
 21
1042.252972810629
 31
0.0
  0
LINE
  5
2DD96
330
747D
100
AcDbEntity
  8
部品1
 48
50.0
100
AcDbLine
 10
5079.973597770393
 20
1085.761242611394
 30
0.0
 11
5079.973597770393
 21
1013.10222423999
 31
0.0
  0
LINE
  5
2DD97
330
747D
100
AcDbEntity
  8
細線
 48
50.0
100
AcDbLine
 10
5007.146888745751
 20
1003.10222423999
 30
0.0
 11
5079.973597770393
 21
1075.928933264639
 31
0.0
  0
LINE
  5
2DD98
330
747D
100
AcDbEntity
  8
部品1
 48
50.0
100
AcDbLine
 10
5099.973597770395
 20
1085.761242611394
 30
0.0
 11
5099.973597770395
 21
1013.10222423999
 31
0.0
  0
LINE
  5
2DD99
330
747D
100
AcDbEntity
  8
細線
 48
50.0
100
AcDbLine
 10
4829.973597770386
 20
1095.33661689671
 30
0.0
 11
4897.739205113676
 21
1163.10222423999
 31
0.0
  0
LINE
  5
2DD9A
330
747D
100
AcDbEntity
  8
細線
 48
50.0
100
AcDbLine
 10
4829.973597770386
 20
1129.012577350723
 30
0.0
 11
4864.063244659662
 21
1163.10222423999
 31
0.0
  0
LINE
  5
2DD9B
330
747D
100
AcDbEntity
  8
細線
 48
50.0
100
AcDbLine
 10
4829.973597770386
 20
1061.660656442705
 30
0.0
 11
4931.415165567681
 21
1163.10222423999
 31
0.0
  0
LINE
  5
2DD9C
330
747D
100
AcDbEntity
  8
部品1
 48
50.0
100
AcDbLine
 10
4899.973597770394
 20
1003.10222423999
 30
0.0
 11
4899.973597770394
 21
983.1022242399903
 31
0.0
  0
LINE
  5
2DD9D
330
747D
100
AcDbEntity
  8
細線
 48
50.0
100
AcDbLine
 10
4924.065429788337
 20
833.1022242399917
 30
0.0
 11
4916.026954015404
 21
863.1022242399904
 31
0.0
  0
LINE
  5
2DD9E
330
747D
100
AcDbEntity
  8
細線
 48
50.0
100
AcDbLine
 10
4825.45537360427
 20
833.1022242399917
 30
0.0
 11
4817.416897831337
 21
863.1022242399904
 31
0.0
  0
LINE
  5
2DD9F
330
747D
100
AcDbEntity
  8
細線
 48
50.0
100
AcDbLine
 10
4729.973597770394
 20
844.7771254472154
 30
0.0
 11
4734.883793193139
 21
863.1022242399904
 31
0.0
  0
LINE
  5
2DDA0
330
747D
100
AcDbEntity
  8
部品1
 48
50.0
100
AcDbLine
 10
4829.973597770393
 20
863.1022242399904
 30
0.0
 11
4829.973597770393
 21
1163.10222423999
 31
0.0
  0
LINE
  5
2DDA1
330
747D
100
AcDbEntity
  8
部品1
 48
50.0
100
AcDbLine
 10
4899.973597770394
 20
983.1022242399903
 30
0.0
 11
5319.973597770395
 21
983.1022242399903
 31
0.0
  0
LINE
  5
2DDA2
330
747D
100
AcDbEntity
  8
部品1
 48
50.0
100
AcDbLine
 10
4899.973597770394
 20
1003.10222423999
 30
0.0
 11
5319.973597770395
 21
1003.10222423999
 31
0.0
  0
LINE
  5
2DDA3
330
747D
100
AcDbEntity
  8
細線
 48
50.0
100
AcDbLine
 10
4900.822849199757
 20
863.1022242399904
 30
0.0
 11
5020.822849199757
 21
983.1022242399903
 31
0.0
  0
CIRCLE
  5
2DDA4
330
747D
100
AcDbEntity
  8
部品1
 48
50.0
100
AcDbCircle
 10
4949.973597770394
 20
1013.10222423999
 30
0.0
 40
10.0
  0
LINE
  5
2DDA5
330
747D
100
AcDbEntity
  8
細線
 48
50.0
100
AcDbLine
 10
4867.14688874575
 20
863.1022242399904
 30
0.0
 11
4987.14688874575
 21
983.1022242399903
 31
0.0
  0
LINE
  5
2DDA6
330
747D
100
AcDbEntity
  8
細線
 48
50.0
100
AcDbLine
 10
4833.470928291736
 20
863.1022242399904
 30
0.0
 11
4953.470928291737
 21
983.1022242399903
 31
0.0
  0
LINE
  5
2DDA7
330
747D
100
AcDbEntity
  8
部品1
 48
50.0
100
AcDbLine
 10
4829.973597770393
 20
1163.10222423999
 30
0.0
 11
4989.973597770394
 21
1163.10222423999
 31
0.0
  0
LINE
  5
2DDA8
330
747D
100
AcDbEntity
  8
細線
 48
50.0
100
AcDbLine
 10
5193.100679097412
 20
733.1022242399902
 30
0.0
 11
5201.139154870345
 21
703.1022242399902
 31
0.0
  0
LINE
  5
2DDA9
330
747D
100
AcDbEntity
  8
細線
 48
50.0
100
AcDbLine
 10
5291.710735281469
 20
733.1022242399902
 30
0.0
 11
5299.749211054403
 21
703.1022242399902
 31
0.0
  0
LINE
  5
2DDAA
330
747D
100
AcDbEntity
  8
細線
 48
50.0
100
AcDbLine
 10
4995.880566729289
 20
733.1022242399902
 30
0.0
 11
5003.919042502222
 21
703.1022242399902
 31
0.0
  0
LINE
  5
2DDAB
330
747D
100
AcDbEntity
  8
細線
 48
50.0
100
AcDbLine
 10
5094.490622913353
 20
733.1022242399902
 30
0.0
 11
5102.529098686286
 21
703.1022242399902
 31
0.0
  0
LINE
  5
2DDAC
330
747D
100
AcDbEntity
  8
細線
 48
50.0
100
AcDbLine
 10
4798.660454361159
 20
733.1022242399902
 30
0.0
 11
4806.698930134093
 21
703.1022242399902
 31
0.0
  0
LINE
  5
2DDAD
330
747D
100
AcDbEntity
  8
細線
 48
50.0
100
AcDbLine
 10
4897.270510545224
 20
733.1022242399902
 30
0.0
 11
4905.308986318157
 21
703.1022242399902
 31
0.0
  0
LINE
  5
2DDAE
330
747D
100
AcDbEntity
  8
細線
 48
50.0
100
AcDbLine
 10
5185.062203324471
 20
703.1022242399902
 30
0.0
 11
5227.934074113452
 21
863.1022242399895
 31
0.0
  0
LINE
  5
2DDAF
330
747D
100
AcDbEntity
  8
細線
 48
50.0
100
AcDbLine
 10
4889.232034772291
 20
703.1022242399902
 30
0.0
 11
4932.10390556127
 21
863.1022242399904
 31
0.0
  0
LINE
  5
2DDB0
330
747D
100
AcDbEntity
  8
細線
 48
50.0
100
AcDbLine
 10
4987.842090956348
 20
703.1022242399894
 30
0.0
 11
5030.713961745327
 21
863.1022242399895
 31
0.0
  0
LINE
  5
2DDB1
330
747D
100
AcDbEntity
  8
細線
 48
50.0
100
AcDbLine
 10
4790.621978588219
 20
703.1022242399894
 30
0.0
 11
4833.493849377197
 21
863.1022242399895
 31
0.0
  0
LINE
  5
2DDB2
330
747D
100
AcDbEntity
  8
部品1
 48
50.0
100
AcDbLine
 10
4729.973597770396
 20
703.1022242399902
 30
0.0
 11
4729.973597770396
 21
863.1022242399904
 31
0.0
  0
LINE
  5
2DDB3
330
747D
100
AcDbEntity
  8
細線
 48
50.0
100
AcDbLine
 10
5086.452147140413
 20
703.1022242399902
 30
0.0
 11
5129.324017929391
 21
863.1022242399904
 31
0.0
  0
LINE
  5
2DDB4
330
747D
100
AcDbEntity
  8
細線
 48
50.0
100
AcDbLine
 10
5283.672259508531
 20
703.1022242399894
 30
0.0
 11
5326.54413029751
 21
863.1022242399895
 31
0.0
  0
LINE
  5
2DDB5
330
747D
100
AcDbEntity
  8
部品1
 48
50.0
100
AcDbLine
 10
5489.973597770397
 20
703.1022242399902
 30
0.0
 11
4729.973597770396
 21
703.1022242399902
 31
0.0
  0
LINE
  5
2DDB6
330
747D
100
AcDbEntity
  8
部品1
 48
50.0
100
AcDbLine
 10
5489.973597770397
 20
863.1022242399904
 30
0.0
 11
4729.973597770396
 21
863.1022242399904
 31
0.0
  0
LEADER
  5
2DDB7
330
747D
100
AcDbEntity
  8
寸法
 48
50.0
100
AcDbLeader
  3
INABA_S40G
 71
     0
 73
     0
 74
     0
 75
     1
 40
100.0
 41
540.3409090909091
 76
     3
 10
5202.405059036863
 20
992.1765612230839
 30
0.0
 10
5407.146667596959
 20
565.1380387294625
 30
0.0
 10
5507.146667596959
 20
565.1380387294625
 30
0.0
213
0.0
223
-1.277828345336728
233
0.0
1001
ACAD
1000
DSTYLE
1002
{
1070
   341
1005
0
1002
}
  0
DIMENSION
  5
2DDB8
330
747D
100
AcDbEntity
  8
寸法
 48
50.0
100
AcDbDimension
  2
*D39
 10
5389.973597770395
 20
404.1501177840573
 30
0.0
 11
5109.973597770395
 21
404.1501177840573
 31
0.0
 70
   160
  1
300
 71
     5
 42
560.0000000000018
  3
INABA_S40G
100
AcDbAlignedDimension
 13
4829.973597770393
 23
703.1022242399902
 33
0.0
 14
5389.973597770395
 24
703.1022242399902
 34
0.0
100
AcDbRotatedDimension
1001
ACAD
1000
DSTYLE
1002
{
1070
   341
1005
0
1002
}
  0
LEADER
  5
2DDB9
330
747D
100
AcDbEntity
  8
寸法
 48
50.0
100
AcDbLeader
  3
INABA_S40G
 71
     0
 73
     0
 74
     0
 75
     1
 40
100.0
 41
225.0
 76
     3
 10
5269.852288210573
 20
1013.10222423999
 30
0.0
 10
5394.133172528751
 20
893.8558880612752
 30
0.0
 10
5494.133172528751
 20
893.8558880612752
 30
0.0
1001
ACAD
1000
DSTYLE
1002
{
1070
   341
1005
0
1002
}
  0
LINE
  5
2DDBA
330
747D
100
AcDbEntity
  8
細線
 48
50.0
100
AcDbLine
 10
5242.878611923805
 20
1003.10222423999
 30
0.0
 11
5389.973597770395
 21
1150.197210086574
 31
0.0
  0
LINE
  5
2DDBB
330
747D
100
AcDbEntity
  8
細線
 48
50.0
100
AcDbLine
 10
5310.23053283183
 20
1003.10222423999
 30
0.0
 11
5389.973597770395
 21
1082.845289178555
 31
0.0
  0
LINE
  5
2DDBC
330
747D
100
AcDbEntity
  8
細線
 48
50.0
100
AcDbLine
 10
5276.554572377825
 20
1003.10222423999
 30
0.0
 11
5389.973597770395
 21
1116.521249632565
 31
0.0
  0
LINE
  5
2DDBD
330
747D
100
AcDbEntity
  8
部品1
 48
50.0
100
AcDbLine
 10
5229.973597770394
 20
1163.10222423999
 30
0.0
 11
5389.973597770395
 21
1163.10222423999
 31
0.0
  0
LINE
  5
2DDBE
330
747D
100
AcDbEntity
  8
部品1
 48
50.0
100
AcDbLine
 10
5139.973597770403
 20
1013.10222423999
 30
0.0
 11
5139.973597770395
 21
1668.420260982798
 31
0.0
  0
LINE
  5
2DDBF
330
747D
100
AcDbEntity
  8
部品1
 48
50.0
100
AcDbLine
 10
5119.973597770402
 20
1013.10222423999
 30
0.0
 11
5119.973597770389
 21
1668.420260982798
 31
0.0
  0
LINE
  5
2DDC0
330
747D
100
AcDbEntity
  8
部品1
 48
50.0
100
AcDbLine
 10
4989.973597770394
 20
1163.10222423999
 30
0.0
 11
4989.973597770394
 21
1843.102224239992
 31
0.0
  0
LINE
  5
2DDC1
330
747D
100
AcDbEntity
  8
細線
 48
50.0
100
AcDbLine
 10
4989.973597770394
 20
1255.336616896713
 30
0.0
 11
5119.973597770402
 21
1385.336616896718
 31
0.0
  0
LINE
  5
2DDC2
330
747D
100
AcDbEntity
  8
細線
 48
50.0
100
AcDbLine
 10
4989.973597770394
 20
1289.012577350723
 30
0.0
 11
5119.973597770395
 21
1419.012577350723
 31
0.0
  0
LINE
  5
2DDC3
330
747D
100
AcDbEntity
  8
細線
 48
50.0
100
AcDbLine
 10
4989.973597770394
 20
1221.660656442705
 30
0.0
 11
5119.973597770402
 21
1351.660656442705
 31
0.0
  0
LINE
  5
2DDC4
330
747D
100
AcDbEntity
  8
部品1
 48
50.0
100
AcDbLine
 10
5229.973597770394
 20
1843.102224239992
 30
0.0
 11
5229.973597770394
 21
1163.10222423999
 31
0.0
  0
MTEXT
  5
2DDC5
102
{ACAD_REACTORS
330
2DDC6
102
}
330
747D
100
AcDbEntity
  8
寸法
 62
     7
 48
50.0
100
AcDbMText
 10
4616.304815026402
 20
758.6988572169458
 30
0.0
 40
100.0
 41
1.0
 71
     6
 72
     1
  1
D10
  7
STYLE2
 73
     1
 44
1.0
1001
ACAD
1000
MTEXTBEGIN
1070
    73
1070
     1
1070
    44
1040
1.0
1070
    74
1070
     0
1000
MTEXTEND
  0
LEADER
  5
2DDC6
330
747D
100
AcDbEntity
  8
寸法
 48
50.0
100
AcDbLeader
  3
INABA_S40G
 71
     0
 73
     0
 75
     1
 40
100.0
 41
225.0
 76
     3
 10
4949.852288210574
 20
1013.10222423999
 30
0.0
 10
4741.3048150264
 20
683.6988572169457
 30
0.0
 10
4641.3048150264
 20
683.6988572169457
 30
0.0
1001
ACAD
1000
DSTYLE
1002
{
1070
   341
1005
0
1002
}
  0
LEADER
  5
2DDC7
330
747D
100
AcDbEntity
  8
寸法
 48
50.0
100
AcDbLeader
  3
INABA_S40G
 71
     0
 73
     0
 75
     1
 40
100.0
 41
222.7272727272727
 76
     3
 10
5109.973597770395
 20
1013.10222423999
 30
0.0
 10
4776.458224473195
 20
458.3036665426416
 30
0.0
 10
4676.458224473195
 20
458.3036665426416
 30
0.0
1001
ACAD
1000
DSTYLE
1002
{
1070
   341
1005
0
1002
}
  0
MTEXT
  5
2DDC8
102
{ACAD_REACTORS
330
2DDC7
102
}
330
747D
100
AcDbEntity
  8
寸法
 62
     7
 48
50.0
100
AcDbMText
 10
4651.458224473195
 20
533.3036665426416
 30
0.0
 40
100.0
 41
1.0
 71
     6
 72
     1
  1
D13
  7
STYLE2
 73
     1
 44
1.0
1001
ACAD
1000
MTEXTBEGIN
1070
    73
1070
     1
1070
    44
1040
1.0
1070
    74
1070
     0
1000
MTEXTEND
  0
MTEXT
  5
2DDC9
102
{ACAD_REACTORS
330
2DDCA
102
}
330
747D
100
AcDbEntity
  8
寸法
 62
     7
 48
50.0
100
AcDbMText
 10
4878.411029991887
 20
1344.727977761811
 30
0.0
 40
100.0
 41
1.0
 71
     6
 72
     1
  1
\A1;D10@300
  7
STYLE2
 73
     1
 44
1.0
1001
ACAD
1000
MTEXTBEGIN
1070
    73
1070
     1
1070
    44
1040
1.0
1070
    74
1070
     0
1000
MTEXTEND
  0
LEADER
  5
2DDCA
330
747D
100
AcDbEntity
  8
寸法
 48
50.0
100
AcDbLeader
  3
INABA_S40G
 71
     0
 73
     0
 75
     1
 40
100.0
 41
540.3409090909091
 76
     3
 10
5119.973597770395
 20
1540.761242611394
 30
0.0
 10
4991.245802109522
 20
1263.92333193539
 30
0.0
 10
4891.245802109523
 20
1263.92333193539
 30
0.0
213
-12.16522788236671
223
-5.804645826423211
233
0.0
1001
ACAD
1000
DSTYLE
1002
{
1070
   341
1005
0
1002
}
  0
LEADER
  5
2DDCB
330
747D
100
AcDbEntity
  8
寸法
 48
50.0
100
AcDbLeader
  3
INABA_S40G
 71
     0
 73
     0
 75
     1
 40
130.1136363636363
 41
651.1363636363636
 76
     3
 10
5089.973597770395
 20
1843.102224239992
 30
0.0
 10
5031.055597852112
 20
2018.690681060726
 30
0.0
 10
4931.055597852111
 20
2018.690681060726
 30
0.0
1001
ACAD
1000
DSTYLE
1002
{
1070
   341
1005
0
1002
}
  0
MTEXT
  5
2DDCC
102
{ACAD_REACTORS
330
2DDCB
102
}
330
747D
100
AcDbEntity
  8
寸法
 62
     7
 48
50.0
100
AcDbMText
 10
4906.055597852112
 20
2108.747499242545
 30
0.0
 40
100.0
 41
1.0
 71
     6
 72
     1
  1
\A1;金コテ押エ
  7
STYLE2
 73
     1
 44
1.0
1001
ACAD
1000
MTEXTBEGIN
1070
    73
1070
     1
1070
    44
1040
1.0
1070
    74
1070
     0
1000
MTEXTEND
  0
DIMENSION
  5
2DDCD
330
747D
100
AcDbEntity
  8
寸法
 48
50.0
100
AcDbDimension
  2
*D40
 10
4229.32865973433
 20
863.1022242399906
 30
0.0
 11
4229.32865973433
 21
1353.102224239991
 31
0.0
 70
   160
  1
540
 71
     5
 42
980.0000000000016
  3
INABA_S40G
100
AcDbAlignedDimension
 13
4989.973597770394
 23
1843.102224239992
 33
0.0
 14
4729.973597770396
 24
863.1022242399904
 34
0.0
 50
90.0
100
AcDbRotatedDimension
1001
ACAD
1000
DSTYLE
1002
{
1070
   341
1005
0
1002
}
  0
DIMENSION
  5
2DDCE
330
747D
100
AcDbEntity
  8
寸法
 48
50.0
100
AcDbDimension
  2
*D41
 10
4651.948205604821
 20
863.1022242399904
 30
0.0
 11
4651.948205604821
 21
1013.10222423999
 31
0.0
 70
   160
  1
150
 71
     5
 42
299.9999999999999
  3
INABA_S40G
100
AcDbAlignedDimension
 13
4829.973597770393
 23
1163.10222423999
 33
0.0
 14
4729.973597770396
 24
863.1022242399904
 34
0.0
 50
90.0
100
AcDbRotatedDimension
1001
ACAD
1000
DSTYLE
1002
{
1070
   341
1005
0
1002
}
  0
LWPOLYLINE
  5
2DDCF
330
747D
100
AcDbEntity
  8
部品1
 48
50.0
100
AcDbPolyline
 90
        2
 70
     0
 43
10.0
 10
4472.298720479199
 20
1543.102224239993
 10
4989.973597770394
 20
1543.102224239993
  0
TEXT
  5
2DDD0
330
747D
100
AcDbEntity
  8
部品1
 48
50.0
100
AcDbText
 10
4472.298720479199
 20
1557.15096459406
 30
0.0
 40
100.0
  1
▽G.L
  7
STYLE2
100
AcDbText
  0
LEADER
  5
2DDD1
330
747D
100
AcDbEntity
  8
寸法
 48
50.0
100
AcDbLeader
  3
INABA_S40G
 73
     0
 75
     1
 40
132.9545454545455
 41
1116.477272727273
 76
     3
 10
7279.272739241888
 20
1930.052224239991
 30
0.0
 10
7171.242648810714
 20
2388.876692635407
 30
0.0
 10
7071.242648810714
 20
2388.876692635407
 30
0.0
340
2DDD2
1001
ACAD
1000
DSTYLE
1002
{
1070
   341
1005
0
1002
}
  0
MTEXT
  5
2DDD2
102
{ACAD_REACTORS
330
2DDD1
102
}
330
747D
100
AcDbEntity
  8
寸法
 62
     7
 48
50.0
100
AcDbMText
 10
7031.242648810714
 20
2495.35396536268
 30
0.0
 40
100.0
 41
1.0
 71
     6
 72
     1
  1
\A1;アンカープレート L
  7
STYLE2
 73
     1
 44
1.0
1001
ACAD
1000
MTEXTBEGIN
1070
    73
1070
     1
1070
    44
1040
1.0
1070
    74
1070
     0
1000
MTEXTEND
  0
MTEXT
  5
2DDD3
102
{ACAD_REACTORS
330
2DDD4
102
}
330
747D
100
AcDbEntity
  8
部品1
 62
     7
 48
50.0
100
AcDbMText
 10
7642.215203133584
 20
2949.932794055051
 30
0.0
 40
100.0
 41
1.0
 71
     4
 72
     1
  1
\A1;ナット(市販品)
  7
STYLE2
 73
     1
 44
1.0
1001
ACAD
1000
MTEXTBEGIN
1070
    73
1070
     1
1070
    44
1040
1.0
1070
    74
1070
     0
1000
MTEXTEND
  0
LEADER
  5
2DDD4
330
747D
100
AcDbEntity
  8
寸法
 48
50.0
100
AcDbLeader
  3
INABA_S40G
 73
     0
 74
     0
 75
     1
 40
127.8409090909091
 41
850.0
 76
     3
 10
7411.772739241887
 20
2341.69632562642
 30
0.0
 10
7502.215203133584
 20
2846.012339509597
 30
0.0
 10
7602.215203133583
 20
2846.012339509597
 30
0.0
340
2DDD3
1001
ACAD
1000
DSTYLE
1002
{
1070
   341
1005
0
1002
}
  0
MTEXT
  5
2DDD5
102
{ACAD_REACTORS
330
2DDD6
102
}
330
747D
100
AcDbEntity
  8
部品1
 62
     7
 48
50.0
100
AcDbMText
 10
7681.61222720294
 20
2718.721440599067
 30
0.0
 40
100.0
 41
1.0
 71
     4
 72
     1
  1
\A1;ワッシャー(市販品)
  7
STYLE2
 73
     1
 44
1.0
1001
ACAD
1000
MTEXTBEGIN
1070
    73
1070
     1
1070
    44
1040
1.0
1070
    74
1070
     0
1000
MTEXTEND
  0
LEADER
  5
2DDD6
330
747D
100
AcDbEntity
  8
寸法
 48
50.0
100
AcDbLeader
  3
INABA_S40G
 73
     0
 74
     0
 75
     1
 40
127.8409090909091
 41
1133.522727272727
 76
     3
 10
7441.772739241888
 20
2179.506334795342
 30
0.0
 10
7541.612227202941
 20
2614.800986053613
 30
0.0
 10
7641.612227202941
 20
2614.800986053613
 30
0.0
340
2DDD5
1001
ACAD
1000
DSTYLE
1002
{
1070
   341
1005
0
1002
}
  0
DIMENSION
  5
2DDD7
330
747D
100
AcDbEntity
  8
寸法
 48
50.0
100
AcDbDimension
  2
*D42
 10
4989.973597770394
 20
2367.686984135467
 30
0.0
 11
5109.973597770395
 21
2367.686984135467
 31
0.0
 70
   160
  1
120\P(195)
 71
     5
 42
240.0
  3
INABA_S40G
100
AcDbAlignedDimension
 13
5229.973597770394
 23
1843.102224239992
 33
0.0
 14
4989.973597770394
 24
1843.102224239992
 34
0.0
100
AcDbRotatedDimension
1001
ACAD
1000
DSTYLE
1002
{
1070
   341
1005
0
1002
}
  0
LINE
  5
2DDD8
330
747D
100
AcDbEntity
  8
部品1
100
AcDbLine
 10
3871.172906218616
 20
3494.316748961047
 30
0.0
 11
3871.172906218616
 21
235.2472496063592
 31
0.0
  0
MTEXT
  5
2DDD9
102
{ACAD_REACTORS
330
2DDDA
102
}
330
747D
100
AcDbEntity
  8
寸法
 62
     7
 48
50.0
100
AcDbMText
 10
6997.938891050266
 20
2946.209305247074
 30
0.0
 40
100.0
 41
1.0
 71
     6
 72
     1
  1
\A1;φ70スリーブ
  7
STYLE2
 73
     1
 44
1.0
1001
ACAD
1000
MTEXTBEGIN
1070
    73
1070
     1
1070
    44
1040
1.0
1070
    74
1070
     0
1000
MTEXTEND
  0
LEADER
  5
2DDDA
330
747D
100
AcDbEntity
  8
寸法
 48
50.0
100
AcDbLeader
  3
INABA_S40G
 73
     0
 75
     1
 40
141.4772727272727
 41
760.7954545454546
 76
     3
 10
7352.693676914448
 20
1779.99681593784
 30
0.0
 10
7137.938891050265
 20
2835.470668883438
 30
0.0
 10
7037.938891050266
 20
2835.470668883438
 30
0.0
340
2DDD9
1001
ACAD
1000
DSTYLE
1002
{
1070
   341
1005
0
1002
}
  0
LINE
  5
2DDDB
330
747D
100
AcDbEntity
  8
部品1
100
AcDbLine
 10
10767.64760231664
 20
3494.316748961048
 30
0.0
 11
3871.172906218612
 21
3494.316748961047
 31
0.0
  0
LINE
  5
2DDDC
330
747D
100
AcDbEntity
  8
部品1
100
AcDbLine
 10
10767.64760231664
 20
3194.316748961046
 30
0.0
 11
3871.172906218612
 21
3194.316748961046
 31
0.0
  0
LINE
  5
2DDDD
330
747D
100
AcDbEntity
  8
部品1
100
AcDbLine
 10
3871.172906218612
 20
235.2472496063592
 30
0.0
 11
10767.64760231664
 21
235.2472496063592
 31
0.0
  0
LINE
  5
2DDDE
330
747D
100
AcDbEntity
  8
部品1
100
AcDbLine
 10
9277.136674497503
 20
1268.478579673299
 30
0.0
 11
10177.1366744975
 21
1268.478579673304
 31
0.0
  0
LINE
  5
2DDDF
330
747D
100
AcDbEntity
  8
部品1
100
AcDbLine
 10
9277.136674497503
 20
1428.478579673303
 30
0.0
 11
10177.1366744975
 21
1428.478579673307
 31
0.0
  0
LWPOLYLINE
  5
2DDE0
330
747D
100
AcDbEntity
  8
部品1
 48
50.0
100
AcDbPolyline
 90
        2
 70
     0
 43
15.0
 10
8946.372596872022
 20
1543.102224239991
 10
10447.73797578655
 20
1543.102224239991
  0
LINE
  5
2DDE1
330
747D
100
AcDbEntity
  8
細線
100
AcDbLine
 10
9418.432167621665
 20
1428.478579673303
 30
0.0
 11
9533.055812188356
 21
1543.10222423999
 31
0.0
  0
LINE
  5
2DDE2
330
747D
100
AcDbEntity
  8
部品1
100
AcDbLine
 10
9427.136674497504
 20
1843.102224239992
 30
0.0
 11
10027.1366744975
 21
1843.102224239992
 31
0.0
  0
LINE
  5
2DDE3
330
747D
100
AcDbEntity
  8
細線
100
AcDbLine
 10
9606.788731286691
 20
1543.102224239991
 30
0.0
 11
9427.136674497504
 21
1722.754281029181
 31
0.0
  0
LINE
  5
2DDE4
330
747D
100
AcDbEntity
  8
細線
100
AcDbLine
 10
9670.428341593485
 20
1543.102224239991
 30
0.0
 11
9427.136674497504
 21
1786.39389133597
 31
0.0
  0
HATCH
  5
2DEF0
330
747D
100
AcDbEntity
  8
細線
 48
50.0
100
AcDbHatch
 10
0.0
 20
0.0
 30
0.0
210
0.0
220
0.0
230
1.0
  2
LINE
 70
     0
 71
     1
 91
        6
 92
        7
 72
     0
 73
     1
 93
        4
 10
6588.600000000003
 20
8518.05918978272
 10
6388.600000000002
 20
8518.059189782718
 10
6388.600000000002
 20
8398.059189782719
 10
6588.600000000003
 20
8398.059189782719
 97
        4
330
2A1B8
330
2A463
330
2A453
330
2A462
 92
        7
 72
     0
 73
     1
 93
        4
 10
10058.6
 20
8518.05918978272
 10
9858.600000000002
 20
8518.059189782718
 10
9858.600000000004
 20
8398.059189782719
 10
10058.6
 20
8398.059189782719
 97
        4
330
2A1B8
330
2A52B
330
2A1B5
330
2A52A
 92
        7
 72
     0
 73
     1
 93
        4
 10
11698.6
 20
7088.059189782723
 10
11578.6
 20
7088.059189782723
 10
11578.6
 20
6888.05918978272
 10
11698.6
 20
6888.059189782723
 97
        4
330
2A54F
330
2A49F
330
2A550
330
2A4A0
 92
        7
 72
     0
 73
     1
 93
        4
 10
10058.60000000001
 20
5578.059189782734
 10
9858.600000000016
 20
5578.059189782734
 10
9858.600000000016
 20
5458.059189782731
 10
10058.60000000001
 20
5458.059189782731
 97
        4
330
2A1B3
330
2A519
330
2A1B4
330
2A51A
 92
        7
 72
     0
 73
     1
 93
        4
 10
6588.60000000001
 20
5578.059189782727
 10
6388.600000000009
 20
5578.059189782726
 10
6388.600000000009
 20
5383.059189782713
 10
6588.600000000005
 20
5383.059189782716
 97
        4
330
2A22F
330
2A2B2
330
2A23A
330
2A333
 92
        7
 72
     0
 73
     1
 93
        4
 10
4868.600000000001
 20
7088.059189782723
 10
4748.599999999998
 20
7088.059189782723
 10
4748.599999999998
 20
6888.059189782723
 10
4868.6
 20
6888.059189782723
 97
        4
330
2A457
330
2A1CC
330
2A458
330
2A1CD
 75
     0
 76
     1
 52
45.0
 41
10.0
 77
     0
 78
     1
 53
45.0
 43
0.0
 44
0.0
 45
-22.45064030267288
 46
22.45064030267288
 79
     0
 47
7.325911134962963
 98
        6
 10
6492.024002253035
 20
8456.943664933373
 10
9944.012684029432
 20
8420.314125143027
 10
11637.02627084848
 20
6977.10960675477
 10
9987.987040960092
 20
5548.556953788539
 10
6535.998359183692
 20
5467.971923816172
 10
4835.655721962094
 20
6955.131897025101
  0
TEXT
  5
2DF4B
330
747D
100
AcDbEntity
  8
文字
 62
     7
 48
50.0
100
AcDbText
 10
14773.51716161636
 20
871.1744590657927
 30
0.0
 40
100.0
  1
～一般型～
  7
STYLE2
100
AcDbText
  0
ENDSEC
  0
SECTION
  2
OBJECTS
  0
DICTIONARY
  5
7471
330
0
100
AcDbDictionary
281
     1
  3
ACAD_COLOR
350
173D2
  3
ACAD_GROUP
350
7472
  3
ACAD_LAYOUT
350
173D3
  3
ACAD_MATERIAL
350
173D1
  3
ACAD_MLINESTYLE
350
7473
  3
ACAD_PLOTSETTINGS
350
173D4
  3
ACAD_PLOTSTYLENAME
350
173CF
  3
ACDBHEADERROUNDTRIPXREC
350
2E11D
  3
AcDbVariableDictionary
350
2DF32
  3
CONTENTDICTIONARY
350
E71C
  3
DRAWINGVARIABLESDICT
350
F3B9
  0
DICTIONARY
  5
1758F
330
7467
100
AcDbDictionary
280
     1
281
     1
  3
ACAD_LAYERSTATES
360
17590
  0
DICTIONARY
  5
173D2
102
{ACAD_REACTORS
330
7471
102
}
330
7471
100
AcDbDictionary
281
     1
  0
DICTIONARY
  5
7472
102
{ACAD_REACTORS
330
7471
102
}
330
7471
100
AcDbDictionary
281
     1
  3
*A1
350
1D2A9
  0
DICTIONARY
  5
173D3
102
{ACAD_REACTORS
330
7471
102
}
330
7471
100
AcDbDictionary
281
     1
  3
Model
350
173D5
  3
レイアウト1
350
173D6
  0
DICTIONARY
  5
173D1
102
{ACAD_REACTORS
330
7471
102
}
330
7471
100
AcDbDictionary
281
     1
  0
DICTIONARY
  5
7473
102
{ACAD_REACTORS
330
7471
102
}
330
7471
100
AcDbDictionary
281
     1
  3
STANDARD
350
7480
  0
DICTIONARY
  5
173D4
102
{ACAD_REACTORS
330
7471
102
}
330
7471
100
AcDbDictionary
281
     1
  0
ACDBDICTIONARYWDFLT
  5
173CF
102
{ACAD_REACTORS
330
7471
102
}
330
7471
100
AcDbDictionary
281
     1
  3
Normal
350
173D0
100
AcDbDictionaryWithDefault
340
173D0
  0
DICTIONARY
  5
2E11D
102
{ACAD_REACTORS
330
7471
102
}
330
7471
100
AcDbDictionary
281
     1
  3
COLORDICT
350
2E11F
  3
MATERIALDICT
350
2E11E
  0
DICTIONARY
  5
2DF32
102
{ACAD_REACTORS
330
7471
102
}
330
7471
100
AcDbDictionary
281
     1
  3
DIMASSOC
350
2DF33
  3
PROJECTNAME
350
2DF34
  0
DICTIONARY
  5
E71C
102
{ACAD_REACTORS
330
7471
102
}
330
7471
100
AcDbDictionary
281
     1
  0
DICTIONARY
  5
F3B9
102
{ACAD_REACTORS
330
7471
102
}
330
7471
100
AcDbDictionary
281
     1
1001
DRAWINGVARIABLESXDATA
1000
POLARMODE
1000
1
  0
DICTIONARY
  5
17590
102
{ACAD_REACTORS
330
1758F
102
}
330
1758F
100
AcDbDictionary
281
     1
  0
GROUP
  5
1D2A9
102
{ACAD_REACTORS
330
7472
102
}
330
7472
100
AcDbGroup
300

 70
     1
 71
     1
  0
LAYOUT
  5
173D5
102
{ACAD_XDICTIONARY
360
2E120
102
}
102
{ACAD_REACTORS
330
173D3
102
}
330
173D3
100
AcDbPlotSettings
  1

  2
クセロPDF
  4
A3
  6

 40
3.174999999999999
 41
3.174999999999999
 42
3.174987999999999
 43
3.174987999999999
 44
419.946655
 45
296.925995
 46
0.0
 47
0.0
 48
0.0
 49
0.0
140
0.0
141
0.0
142
1.0
143
40.88431155294937
 70
 11952
 72
     1
 73
     0
 74
     2
  7
inaba.ctb
 75
     0
147
0.0244592598484849
148
0.0
149
0.0
100
AcDbLayout
  1
Model
 70
     1
 71
     0
 10
0.0
 20
0.0
 11
12.0
 21
9.0
 12
0.0
 22
0.0
 32
0.0
 14
0.0
 24
0.0
 34
0.0
 15
0.0
 25
0.0
 35
0.0
146
0.0
 13
0.0
 23
0.0
 33
0.0
 16
1.0
 26
0.0
 36
0.0
 17
0.0
 27
1.0
 37
0.0
 76
     0
330
747D
  0
LAYOUT
  5
173D6
102
{ACAD_XDICTIONARY
360
2E122
102
}
102
{ACAD_REACTORS
330
173D3
102
}
330
173D3
100
AcDbPlotSettings
  1

  2
Microsoft Office Document Image Writer
  4

  6

 40
0.0
 41
0.0
 42
0.0
 43
0.0
 44
0.0
 45
0.0
 46
0.0
 47
0.0
 48
0.0
 49
0.0
140
0.0
141
0.0
142
1.0
143
1.0
 70
   688
 72
     0
 73
     0
 74
     5
  7

 75
    16
147
1.0
148
0.0
149
0.0
100
AcDbLayout
  1
レイアウト1
 70
     0
 71
     1
 10
0.0
 20
0.0
 11
420.0
 21
297.0
 12
0.0
 22
0.0
 32
0.0
 14
1.000000000000000E+20
 24
1.000000000000000E+20
 34
1.000000000000000E+20
 15
-1.000000000000000E+20
 25
-1.000000000000000E+20
 35
-1.000000000000000E+20
146
0.0
 13
0.0
 23
0.0
 33
0.0
 16
1.0
 26
0.0
 36
0.0
 17
0.0
 27
1.0
 37
0.0
 76
     0
330
747A
  0
MLINESTYLE
  5
7480
102
{ACAD_REACTORS
330
7473
102
}
330
7473
100
AcDbMlineStyle
  2
STANDARD
 70
     0
  3

 62
     0
 51
90.0
 52
90.0
 71
     2
 49
0.5
 62
   256
  6
BYLAYER
 49
-0.5
 62
   256
  6
BYLAYER
  0
ACDBPLACEHOLDER
  5
173D0
102
{ACAD_REACTORS
330
173CF
102
}
330
173CF
  0
XRECORD
  5
2E11F
102
{ACAD_REACTORS
330
2E11D
102
}
330
2E11D
100
AcDbXrecord
280
     1
340
173D2
  0
XRECORD
  5
2E11E
102
{ACAD_REACTORS
330
2E11D
102
}
330
2E11D
100
AcDbXrecord
280
     1
340
173D1
  0
DICTIONARYVAR
  5
2DF33
102
{ACAD_REACTORS
330
2DF32
102
}
330
2DF32
100
DictionaryVariables
280
     0
  1
1
  0
DICTIONARYVAR
  5
2DF34
102
{ACAD_REACTORS
330
2DF32
102
}
330
2DF32
100
DictionaryVariables
280
     0
  1

  0
DICTIONARY
  5
2E120
330
173D5
100
AcDbDictionary
280
     1
281
     1
  3
ACAD_XREC_ROUNDTRIP
360
2E121
  0
DICTIONARY
  5
2E122
330
173D6
100
AcDbDictionary
280
     1
281
     1
  3
ACAD_XREC_ROUNDTRIP
360
2E123
  0
XRECORD
  5
2E121
102
{ACAD_REACTORS
330
2E120
102
}
330
2E120
100
AcDbXrecord
280
     1
102
SHADEPLOT
 70
     1
102
SHADEPLOTRESLEVEL
 70
     2
102
SHADEPLOTCUSTOMDPI
 70
   300
  0
XRECORD
  5
2E123
102
{ACAD_REACTORS
330
2E122
102
}
330
2E122
100
AcDbXrecord
280
     1
102
SHADEPLOT
 70
     0
102
SHADEPLOTRESLEVEL
 70
     2
102
SHADEPLOTCUSTOMDPI
 70
   300
  0
ENDSEC
  0
EOF
