  0
SECTION
  2
HEADER
  9
$ACADVER
  1
AC1015
  9
$ACADMAINTVER
 70
    20
  9
$DWGCODEPAGE
  3
ANSI_932
  9
$INSBASE
 10
0.0
 20
0.0
 30
0.0
  9
$EXTMIN
 10
139.9999999999995
 20
-0.0000000000000909
 30
0.0
  9
$EXTMAX
 10
16307.2
 20
11409.6
 30
0.0
  9
$LIMMIN
 10
0.0
 20
0.0
  9
$LIMMAX
 10
16800.0
 20
11880.0
  9
$ORTHOMODE
 70
     0
  9
$REGENMODE
 70
     1
  9
$FILLMODE
 70
     1
  9
$QTEXTMODE
 70
     0
  9
$MIRRTEXT
 70
     1
  9
$LTSCALE
 40
20.0
  9
$ATTMODE
 70
     1
  9
$TEXTSIZE
 40
4.0
  9
$TRACEWID
 40
1.0
  9
$TEXTSTYLE
  7
STYLE1
  9
$CLAYER
  8
寸法
  9
$CELTYPE
  6
BYLAYER
  9
$CECOLOR
 62
   256
  9
$CELTSCALE
 40
50.0
  9
$DISPSILH
 70
     0
  9
$DIMSCALE
 40
40.0
  9
$DIMASZ
 40
2.5
  9
$DIMEXO
 40
0.5
  9
$DIMDLI
 40
7.0
  9
$DIMRND
 40
0.0
  9
$DIMDLE
 40
0.0
  9
$DIMEXE
 40
1.5
  9
$DIMTP
 40
0.0
  9
$DIMTM
 40
0.0
  9
$DIMTXT
 40
3.0
  9
$DIMCEN
 40
0.0
  9
$DIMTSZ
 40
0.0
  9
$DIMTOL
 70
     0
  9
$DIMLIM
 70
     0
  9
$DIMTIH
 70
     0
  9
$DIMTOH
 70
     0
  9
$DIMSE1
 70
     0
  9
$DIMSE2
 70
     0
  9
$DIMTAD
 70
     3
  9
$DIMZIN
 70
     8
  9
$DIMBLK
  1

  9
$DIMASO
 70
     1
  9
$DIMSHO
 70
     1
  9
$DIMPOST
  1

  9
$DIMAPOST
  1

  9
$DIMALT
 70
     0
  9
$DIMALTD
 70
     2
  9
$DIMALTF
 40
0.0394
  9
$DIMLFAC
 40
1.0
  9
$DIMTOFL
 70
     1
  9
$DIMTVP
 40
0.0
  9
$DIMTIX
 70
     1
  9
$DIMSOXD
 70
     0
  9
$DIMSAH
 70
     1
  9
$DIMBLK1
  1
DOTSMALL
  9
$DIMBLK2
  1
DOTSMALL
  9
$DIMSTYLE
  2
INABA_S40G
  9
$DIMCLRD
 70
     0
  9
$DIMCLRE
 70
     0
  9
$DIMCLRT
 70
     7
  9
$DIMTFAC
 40
1.0
  9
$DIMGAP
 40
1.0
  9
$DIMJUST
 70
     0
  9
$DIMSD1
 70
     0
  9
$DIMSD2
 70
     0
  9
$DIMTOLJ
 70
     1
  9
$DIMTZIN
 70
     0
  9
$DIMALTZ
 70
     0
  9
$DIMALTTZ
 70
     0
  9
$DIMUPT
 70
     0
  9
$DIMDEC
 70
     1
  9
$DIMTDEC
 70
     4
  9
$DIMALTU
 70
     2
  9
$DIMALTTD
 70
     2
  9
$DIMTXSTY
  7
STYLE1
  9
$DIMAUNIT
 70
     0
  9
$DIMADEC
 70
     0
  9
$DIMALTRND
 40
0.0
  9
$DIMAZIN
 70
     0
  9
$DIMDSEP
 70
    46
  9
$DIMATFIT
 70
     3
  9
$DIMFRAC
 70
     0
  9
$DIMLDRBLK
  1
DOTSMALL
  9
$DIMLUNIT
 70
     2
  9
$DIMLWD
 70
    -2
  9
$DIMLWE
 70
    -2
  9
$DIMTMOVE
 70
     0
  9
$LUNITS
 70
     2
  9
$LUPREC
 70
     1
  9
$SKETCHINC
 40
1.0
  9
$FILLETRAD
 40
3.0
  9
$AUNITS
 70
     0
  9
$AUPREC
 70
     0
  9
$MENU
  1
acad
  9
$ELEVATION
 40
0.0
  9
$PELEVATION
 40
0.0
  9
$THICKNESS
 40
0.0
  9
$LIMCHECK
 70
     0
  9
$CHAMFERA
 40
0.0
  9
$CHAMFERB
 40
0.0
  9
$CHAMFERC
 40
0.0
  9
$CHAMFERD
 40
0.0
  9
$SKPOLY
 70
     0
  9
$TDCREATE
 40
2451368.612993866
  9
$TDUCREATE
 40
2451368.237993866
  9
$TDUPDATE
 40
2455827.764241493
  9
$TDUUPDATE
 40
2455827.389241493
  9
$TDINDWG
 40
0.8591300810
  9
$TDUSRTIMER
 40
0.8591291782
  9
$USRTIMER
 70
     1
  9
$ANGBASE
 50
0.0
  9
$ANGDIR
 70
     0
  9
$PDMODE
 70
     3
  9
$PDSIZE
 40
2.0
  9
$PLINEWID
 40
0.0
  9
$SPLFRAME
 70
     0
  9
$SPLINETYPE
 70
     6
  9
$SPLINESEGS
 70
     8
  9
$HANDSEED
  5
25379
  9
$SURFTAB1
 70
     6
  9
$SURFTAB2
 70
     6
  9
$SURFTYPE
 70
     6
  9
$SURFU
 70
     6
  9
$SURFV
 70
     6
  9
$UCSBASE
  2

  9
$UCSNAME
  2

  9
$UCSORG
 10
0.0
 20
0.0
 30
0.0
  9
$UCSXDIR
 10
1.0
 20
0.0
 30
0.0
  9
$UCSYDIR
 10
0.0
 20
1.0
 30
0.0
  9
$UCSORTHOREF
  2

  9
$UCSORTHOVIEW
 70
     0
  9
$UCSORGTOP
 10
0.0
 20
0.0
 30
0.0
  9
$UCSORGBOTTOM
 10
0.0
 20
0.0
 30
0.0
  9
$UCSORGLEFT
 10
0.0
 20
0.0
 30
0.0
  9
$UCSORGRIGHT
 10
0.0
 20
0.0
 30
0.0
  9
$UCSORGFRONT
 10
0.0
 20
0.0
 30
0.0
  9
$UCSORGBACK
 10
0.0
 20
0.0
 30
0.0
  9
$PUCSBASE
  2

  9
$PUCSNAME
  2

  9
$PUCSORG
 10
0.0
 20
0.0
 30
0.0
  9
$PUCSXDIR
 10
1.0
 20
0.0
 30
0.0
  9
$PUCSYDIR
 10
0.0
 20
1.0
 30
0.0
  9
$PUCSORTHOREF
  2

  9
$PUCSORTHOVIEW
 70
     0
  9
$PUCSORGTOP
 10
0.0
 20
0.0
 30
0.0
  9
$PUCSORGBOTTOM
 10
0.0
 20
0.0
 30
0.0
  9
$PUCSORGLEFT
 10
0.0
 20
0.0
 30
0.0
  9
$PUCSORGRIGHT
 10
0.0
 20
0.0
 30
0.0
  9
$PUCSORGFRONT
 10
0.0
 20
0.0
 30
0.0
  9
$PUCSORGBACK
 10
0.0
 20
0.0
 30
0.0
  9
$USERI1
 70
     0
  9
$USERI2
 70
     0
  9
$USERI3
 70
     0
  9
$USERI4
 70
     0
  9
$USERI5
 70
     0
  9
$USERR1
 40
0.0
  9
$USERR2
 40
0.0
  9
$USERR3
 40
0.0
  9
$USERR4
 40
0.0
  9
$USERR5
 40
0.0
  9
$WORLDVIEW
 70
     1
  9
$SHADEDGE
 70
     3
  9
$SHADEDIF
 70
    70
  9
$TILEMODE
 70
     1
  9
$MAXACTVP
 70
    16
  9
$PINSBASE
 10
0.0
 20
0.0
 30
0.0
  9
$PLIMCHECK
 70
     0
  9
$PEXTMIN
 10
1.000000000000000E+20
 20
1.000000000000000E+20
 30
1.000000000000000E+20
  9
$PEXTMAX
 10
-1.000000000000000E+20
 20
-1.000000000000000E+20
 30
-1.000000000000000E+20
  9
$PLIMMIN
 10
0.0
 20
0.0
  9
$PLIMMAX
 10
420.0
 20
297.0
  9
$UNITMODE
 70
     0
  9
$VISRETAIN
 70
     0
  9
$PLINEGEN
 70
     0
  9
$PSLTSCALE
 70
     0
  9
$TREEDEPTH
 70
  3020
  9
$CMLSTYLE
  2
STANDARD
  9
$CMLJUST
 70
     0
  9
$CMLSCALE
 40
1.0
  9
$PROXYGRAPHICS
 70
     1
  9
$MEASUREMENT
 70
     1
  9
$CELWEIGHT
370
    -1
  9
$ENDCAPS
280
     0
  9
$JOINSTYLE
280
     0
  9
$LWDISPLAY
290
     0
  9
$INSUNITS
 70
     0
  9
$HYPERLINKBASE
  1

  9
$STYLESHEET
  1
inaba.ctb
  9
$XEDIT
290
     1
  9
$CEPSNTYPE
380
     0
  9
$PSTYLEMODE
290
     1
  9
$FINGERPRINTGUID
  2
{5EAC461A-2277-4BF8-9AB0-99C43BB394F0}
  9
$VERSIONGUID
  2
{ED33F932-448E-4891-AA01-89C77BCC6B01}
  9
$EXTNAMES
290
     1
  9
$PSVPSCALE
 40
0.0
  9
$OLESTARTUP
290
     0
  0
ENDSEC
  0
SECTION
  2
CLASSES
  0
CLASS
  1
ACDBDICTIONARYWDFLT
  2
AcDbDictionaryWithDefault
  3
ObjectDBX Classes
 90
        0
280
     0
281
     0
  0
CLASS
  1
DICTIONARYVAR
  2
AcDbDictionaryVar
  3
ObjectDBX Classes
 90
        0
280
     0
281
     0
  0
CLASS
  1
ACDBPLACEHOLDER
  2
AcDbPlaceHolder
  3
ObjectDBX Classes
 90
        0
280
     0
281
     0
  0
CLASS
  1
LAYOUT
  2
AcDbLayout
  3
ObjectDBX Classes
 90
        0
280
     0
281
     0
  0
ENDSEC
  0
SECTION
  2
TABLES
  0
TABLE
  2
VPORT
  5
746D
330
0
100
AcDbSymbolTable
 70
     2
  0
VPORT
  5
25371
330
746D
100
AcDbSymbolTableRecord
100
AcDbViewportTableRecord
  2
*Active
 70
     0
 10
0.0
 20
0.0
 11
1.0
 21
1.0
 12
9416.756133178425
 22
6056.983989045004
 13
0.0
 23
0.0
 14
10.0
 24
10.0
 15
10.0
 25
10.0
 16
0.0
 26
0.0
 36
1.0
 17
0.0
 27
0.0
 37
0.0
 40
13020.38934578428
 41
1.79295154185022
 42
50.0
 43
0.0
 44
0.0
 50
0.0
 51
0.0
 71
     0
 72
     0
 73
     1
 74
     0
 75
     0
 76
     0
 77
     0
 78
     0
281
     0
 65
     1
110
0.0
120
0.0
130
0.0
111
1.0
121
0.0
131
0.0
112
0.0
122
1.0
132
0.0
 79
     0
146
0.0
  0
ENDTAB
  0
TABLE
  2
LTYPE
  5
746A
330
0
100
AcDbSymbolTable
 70
     3
  0
LTYPE
  5
7477
330
746A
100
AcDbSymbolTableRecord
100
AcDbLinetypeTableRecord
  2
BYBLOCK
 70
     0
  3

 72
    65
 73
     0
 40
0.0
  0
LTYPE
  5
7478
330
746A
100
AcDbSymbolTableRecord
100
AcDbLinetypeTableRecord
  2
BYLAYER
 70
     0
  3

 72
    65
 73
     0
 40
0.0
  0
LTYPE
  5
7479
330
746A
100
AcDbSymbolTableRecord
100
AcDbLinetypeTableRecord
  2
CONTINUOUS
 70
     0
  3
Solid line
 72
    65
 73
     0
 40
0.0
  0
LTYPE
  5
7816
330
746A
100
AcDbSymbolTableRecord
100
AcDbLinetypeTableRecord
  2
CENTER
 70
     0
  3
____ _ ____ _ ____ _ ____ _ ____ _ ____ _ ____ 
 72
    65
 73
     4
 40
2.0
 49
1.25
 74
     0
 49
-0.25
 74
     0
 49
0.25
 74
     0
 49
-0.25
 74
     0
  0
LTYPE
  5
781B
330
746A
100
AcDbSymbolTableRecord
100
AcDbLinetypeTableRecord
  2
PHANTOM
 70
     0
  3
______  __  __  ______  __  __  ______  __  __ 
 72
    65
 73
     6
 40
2.5
 49
1.25
 74
     0
 49
-0.25
 74
     0
 49
0.25
 74
     0
 49
-0.25
 74
     0
 49
0.25
 74
     0
 49
-0.25
 74
     0
  0
ENDTAB
  0
TABLE
  2
LAYER
  5
7467
102
{ACAD_XDICTIONARY
360
1758F
102
}
330
0
100
AcDbSymbolTable
 70
    10
  0
LAYER
  5
7474
330
7467
100
AcDbSymbolTableRecord
100
AcDbLayerTableRecord
  2
0
 70
     0
 62
     7
  6
CONTINUOUS
370
    -3
390
173D0
  0
LAYER
  5
DEB2
330
7467
100
AcDbSymbolTableRecord
100
AcDbLayerTableRecord
  2
センター
 70
     0
 62
     3
  6
CENTER
370
    -3
390
173D0
  0
LAYER
  5
DEB3
330
7467
100
AcDbSymbolTableRecord
100
AcDbLayerTableRecord
  2
寸法
 70
     0
 62
     4
  6
CONTINUOUS
370
    -3
390
173D0
  0
LAYER
  5
DEB4
330
7467
100
AcDbSymbolTableRecord
100
AcDbLayerTableRecord
  2
部品1
 70
     0
 62
     7
  6
CONTINUOUS
370
    -3
390
173D0
  0
LAYER
  5
DEB5
330
7467
100
AcDbSymbolTableRecord
100
AcDbLayerTableRecord
  2
補助
 70
     0
 62
    -1
  6
CONTINUOUS
370
    -3
390
173D0
  0
LAYER
  5
DEB6
330
7467
100
AcDbSymbolTableRecord
100
AcDbLayerTableRecord
  2
文字
 70
     0
 62
     7
  6
CONTINUOUS
370
    -3
390
173D0
  0
LAYER
  5
F255
330
7467
100
AcDbSymbolTableRecord
100
AcDbLayerTableRecord
  2
DEFPOINTS
 70
     0
 62
     7
  6
CONTINUOUS
290
     0
370
    -3
390
173D0
  0
LAYER
  5
10B54
330
7467
100
AcDbSymbolTableRecord
100
AcDbLayerTableRecord
  2
仕様書枠
 70
     0
 62
   230
  6
CONTINUOUS
370
    -3
390
173D0
  0
LAYER
  5
1173F
330
7467
100
AcDbSymbolTableRecord
100
AcDbLayerTableRecord
  2
細線
 70
     0
 62
     5
  6
CONTINUOUS
370
    -3
390
173D0
  0
LAYER
  5
12CC4
330
7467
100
AcDbSymbolTableRecord
100
AcDbLayerTableRecord
  2
想像線
 70
     0
 62
     6
  6
PHANTOM
370
    -3
390
173D0
  0
ENDTAB
  0
TABLE
  2
STYLE
  5
7468
330
0
100
AcDbSymbolTable
 70
     4
  0
STYLE
  5
7475
330
7468
100
AcDbSymbolTableRecord
100
AcDbTextStyleTableRecord
  2
STANDARD
 70
     0
 40
0.0
 41
1.0
 50
0.0
 71
     0
 42
4.0
  3
txt
  4
C:\AutoCAD LT\bigfont.shx
  0
STYLE
  5
763C
330
7468
100
AcDbSymbolTableRecord
100
AcDbTextStyleTableRecord
  2
MSMINCHO
 70
     0
 40
0.0
 41
1.0
 50
0.0
 71
     0
 42
1.199999999999999
  3
C:\AutoCAD LT\msminch2.TTF
  4

  0
STYLE
  5
F706
330
7468
100
AcDbSymbolTableRecord
100
AcDbTextStyleTableRecord
  2
STYLE1
 70
     0
 40
0.0
 41
1.0
 50
0.0
 71
     0
 42
4.0
  3
isocp.shx
  4
bigfont.shx
  0
STYLE
  5
103BF
330
7468
100
AcDbSymbolTableRecord
100
AcDbTextStyleTableRecord
  2
STYLE2
 70
     0
 40
0.0
 41
1.0
 50
0.0
 71
     0
 42
100.0
  3
MS PGothic.ttf
  4

1001
ACAD
1000
MS PGothic
1071
    32818
  0
ENDTAB
  0
TABLE
  2
VIEW
  5
746B
330
0
100
AcDbSymbolTable
 70
     0
  0
ENDTAB
  0
TABLE
  2
UCS
  5
746C
330
0
100
AcDbSymbolTable
 70
     0
  0
ENDTAB
  0
TABLE
  2
APPID
  5
746E
330
0
100
AcDbSymbolTable
 70
     6
  0
APPID
  5
7476
330
746E
100
AcDbSymbolTableRecord
100
AcDbRegAppTableRecord
  2
ACAD
 70
     0
  0
APPID
  5
DEA9
330
746E
100
AcDbSymbolTableRecord
100
AcDbRegAppTableRecord
  2
CONTENTBLOCKICON
 70
     0
  0
APPID
  5
DEAA
330
746E
100
AcDbSymbolTableRecord
100
AcDbRegAppTableRecord
  2
CONTENTBLOCKDESCRIPTION
 70
     0
  0
APPID
  5
E71D
330
746E
100
AcDbSymbolTableRecord
100
AcDbRegAppTableRecord
  2
CONTENTTABDATA
 70
     0
  0
APPID
  5
E71E
330
746E
100
AcDbSymbolTableRecord
100
AcDbRegAppTableRecord
  2
CONTENTCURRENTTAB
 70
     0
  0
APPID
  5
F3BA
330
746E
100
AcDbSymbolTableRecord
100
AcDbRegAppTableRecord
  2
DRAWINGVARIABLESXDATA
 70
     0
  0
ENDTAB
  0
TABLE
  2
DIMSTYLE
  5
746F
330
0
100
AcDbSymbolTable
 70
     1
100
AcDbDimStyleTable
 71
     1
340
F71F
  0
DIMSTYLE
105
F71F
102
{ACAD_REACTORS
330
250A9
330
24FFB
330
24FE6
330
24FB4
330
24FAE
330
24FA2
330
24F9C
330
24F93
330
24F91
330
24F90
330
24F8F
330
24F8D
330
24F8B
330
24F8A
330
24F87
330
24F82
330
24F81
330
24F7F
330
24F7D
330
24F76
330
249BD
330
249BC
330
246B7
330
222D5
330
2227B
330
21966
330
21964
330
21959
330
21958
330
21957
330
21942
330
218CC
330
218B2
330
218AA
330
218A9
330
218A8
330
218A6
330
218A5
330
218A4
330
217E5
330
21671
330
2160C
330
21608
330
215F5
330
215F4
330
215F3
330
215EF
330
215ED
330
20E3A
330
20E15
330
20DFB
330
20DE1
330
1DAC7
330
1D333
330
1D2D6
330
1AC2C
330
1AC27
102
}
330
746F
100
AcDbSymbolTableRecord
100
AcDbDimStyleTableRecord
  2
INABA_S40G
 70
     0
 40
40.0
 41
2.5
 42
0.5
 43
7.0
 44
1.5
 73
     0
 74
     0
 77
     3
 78
     8
140
3.0
141
0.0
143
0.0394
147
1.0
172
     1
173
     1
174
     1
178
     7
271
     1
340
F706
341
F770
343
F770
344
F770
  0
ENDTAB
  0
TABLE
  2
BLOCK_RECORD
  5
7466
330
0
100
AcDbSymbolTable
 70
    40
  0
BLOCK_RECORD
  5
747D
330
7466
100
AcDbSymbolTableRecord
100
AcDbBlockTableRecord
  2
*MODEL_SPACE
340
173D5
  0
BLOCK_RECORD
  5
747A
330
7466
100
AcDbSymbolTableRecord
100
AcDbBlockTableRecord
  2
*PAPER_SPACE
340
173D6
  0
BLOCK_RECORD
  5
F770
330
7466
100
AcDbSymbolTableRecord
100
AcDbBlockTableRecord
  2
_DOTSMALL
340
0
102
{BLKREFS
331
251CF
331
251D0
331
251D8
331
251D9
331
251E1
331
251E2
331
251EA
331
251EB
331
251F5
331
251F6
331
251FE
331
251FF
331
25207
331
25208
331
25212
331
25213
331
2521C
331
2521D
331
25225
331
25226
331
2522E
331
2522F
331
25238
331
25239
331
25242
331
25243
331
2524B
331
2524C
331
25254
331
25255
331
2525E
331
2525F
331
25267
331
25268
331
25270
331
25271
331
25279
331
2527A
331
25283
331
25284
331
2528D
331
2528E
331
25297
331
25298
331
252A1
331
252A2
331
252AA
331
252AB
331
252B3
331
252B4
331
252BC
331
252BD
331
252C6
331
252C7
331
252CF
331
252D0
331
252D8
331
252D9
331
252E1
331
252E2
331
252EA
331
252EB
331
252F3
331
252F4
331
252FD
331
252FE
331
25307
331
25308
331
25312
331
25313
331
2531D
331
2531E
331
25328
331
25329
331
25333
331
25334
331
2533E
331
2533F
102
}
  0
BLOCK_RECORD
  5
1DAD7
330
7466
100
AcDbSymbolTableRecord
100
AcDbBlockTableRecord
  2
*D1
340
0
  0
BLOCK_RECORD
  5
20DE2
330
7466
100
AcDbSymbolTableRecord
100
AcDbBlockTableRecord
  2
*D2
340
0
  0
BLOCK_RECORD
  5
20DFC
330
7466
100
AcDbSymbolTableRecord
100
AcDbBlockTableRecord
  2
*D3
340
0
  0
BLOCK_RECORD
  5
20E16
330
7466
100
AcDbSymbolTableRecord
100
AcDbBlockTableRecord
  2
*D4
340
0
  0
BLOCK_RECORD
  5
20E3B
330
7466
100
AcDbSymbolTableRecord
100
AcDbBlockTableRecord
  2
*D5
340
0
  0
BLOCK_RECORD
  5
2196C
330
7466
100
AcDbSymbolTableRecord
100
AcDbBlockTableRecord
  2
*D6
340
0
  0
BLOCK_RECORD
  5
21979
330
7466
100
AcDbSymbolTableRecord
100
AcDbBlockTableRecord
  2
*D7
340
0
  0
BLOCK_RECORD
  5
21986
330
7466
100
AcDbSymbolTableRecord
100
AcDbBlockTableRecord
  2
*D8
340
0
  0
BLOCK_RECORD
  5
21991
330
7466
100
AcDbSymbolTableRecord
100
AcDbBlockTableRecord
  2
*D9
340
0
  0
BLOCK_RECORD
  5
2199D
330
7466
100
AcDbSymbolTableRecord
100
AcDbBlockTableRecord
  2
*D10
340
0
  0
BLOCK_RECORD
  5
219A8
330
7466
100
AcDbSymbolTableRecord
100
AcDbBlockTableRecord
  2
*D11
340
0
  0
BLOCK_RECORD
  5
219B4
330
7466
100
AcDbSymbolTableRecord
100
AcDbBlockTableRecord
  2
*D12
340
0
  0
BLOCK_RECORD
  5
219DD
330
7466
100
AcDbSymbolTableRecord
100
AcDbBlockTableRecord
  2
*D13
340
0
  0
BLOCK_RECORD
  5
219E8
330
7466
100
AcDbSymbolTableRecord
100
AcDbBlockTableRecord
  2
*D14
340
0
  0
BLOCK_RECORD
  5
219F4
330
7466
100
AcDbSymbolTableRecord
100
AcDbBlockTableRecord
  2
*D15
340
0
  0
BLOCK_RECORD
  5
21A0E
330
7466
100
AcDbSymbolTableRecord
100
AcDbBlockTableRecord
  2
*D16
340
0
  0
BLOCK_RECORD
  5
21A1B
330
7466
100
AcDbSymbolTableRecord
100
AcDbBlockTableRecord
  2
*D17
340
0
  0
BLOCK_RECORD
  5
21A28
330
7466
100
AcDbSymbolTableRecord
100
AcDbBlockTableRecord
  2
*D18
340
0
  0
BLOCK_RECORD
  5
21A35
330
7466
100
AcDbSymbolTableRecord
100
AcDbBlockTableRecord
  2
*D19
340
0
  0
BLOCK_RECORD
  5
21A41
330
7466
100
AcDbSymbolTableRecord
100
AcDbBlockTableRecord
  2
*D20
340
0
  0
BLOCK_RECORD
  5
21A66
330
7466
100
AcDbSymbolTableRecord
100
AcDbBlockTableRecord
  2
*D21
340
0
  0
BLOCK_RECORD
  5
21A72
330
7466
100
AcDbSymbolTableRecord
100
AcDbBlockTableRecord
  2
*D22
340
0
  0
BLOCK_RECORD
  5
21A7F
330
7466
100
AcDbSymbolTableRecord
100
AcDbBlockTableRecord
  2
*D23
340
0
  0
BLOCK_RECORD
  5
21A8B
330
7466
100
AcDbSymbolTableRecord
100
AcDbBlockTableRecord
  2
*D24
340
0
  0
BLOCK_RECORD
  5
21AA3
330
7466
100
AcDbSymbolTableRecord
100
AcDbBlockTableRecord
  2
*D25
340
0
  0
BLOCK_RECORD
  5
21AB0
330
7466
100
AcDbSymbolTableRecord
100
AcDbBlockTableRecord
  2
*D26
340
0
  0
BLOCK_RECORD
  5
21AE2
330
7466
100
AcDbSymbolTableRecord
100
AcDbBlockTableRecord
  2
*D27
340
0
  0
BLOCK_RECORD
  5
21AEF
330
7466
100
AcDbSymbolTableRecord
100
AcDbBlockTableRecord
  2
*D28
340
0
  0
BLOCK_RECORD
  5
2227C
330
7466
100
AcDbSymbolTableRecord
100
AcDbBlockTableRecord
  2
*D29
340
0
  0
BLOCK_RECORD
  5
222D6
330
7466
100
AcDbSymbolTableRecord
100
AcDbBlockTableRecord
  2
*D30
340
0
  0
BLOCK_RECORD
  5
246B8
330
7466
100
AcDbSymbolTableRecord
100
AcDbBlockTableRecord
  2
*D31
340
0
  0
BLOCK_RECORD
  5
24A65
330
7466
100
AcDbSymbolTableRecord
100
AcDbBlockTableRecord
  2
*D32
340
0
  0
BLOCK_RECORD
  5
24A73
330
7466
100
AcDbSymbolTableRecord
100
AcDbBlockTableRecord
  2
*D33
340
0
  0
BLOCK_RECORD
  5
250AC
330
7466
100
AcDbSymbolTableRecord
100
AcDbBlockTableRecord
  2
*D34
340
0
  0
BLOCK_RECORD
  5
250B7
330
7466
100
AcDbSymbolTableRecord
100
AcDbBlockTableRecord
  2
*D35
340
0
  0
BLOCK_RECORD
  5
250C5
330
7466
100
AcDbSymbolTableRecord
100
AcDbBlockTableRecord
  2
*D36
340
0
  0
BLOCK_RECORD
  5
250D1
330
7466
100
AcDbSymbolTableRecord
100
AcDbBlockTableRecord
  2
*D37
340
0
  0
BLOCK_RECORD
  5
250DD
330
7466
100
AcDbSymbolTableRecord
100
AcDbBlockTableRecord
  2
*D38
340
0
  0
BLOCK_RECORD
  5
250E9
330
7466
100
AcDbSymbolTableRecord
100
AcDbBlockTableRecord
  2
*D39
340
0
  0
ENDTAB
  0
ENDSEC
  0
SECTION
  2
BLOCKS
  0
BLOCK
  5
7489
330
747D
100
AcDbEntity
  8
0
100
AcDbBlockBegin
  2
*MODEL_SPACE
 70
     0
 10
0.0
 20
0.0
 30
0.0
  3
*MODEL_SPACE
  1

  0
ENDBLK
  5
748A
330
747D
100
AcDbEntity
  8
0
100
AcDbBlockEnd
  0
BLOCK
  5
7487
330
747A
100
AcDbEntity
 67
     1
  8
0
100
AcDbBlockBegin
  2
*PAPER_SPACE
 70
     0
 10
0.0
 20
0.0
 30
0.0
  3
*PAPER_SPACE
  1

  0
ENDBLK
  5
7488
330
747A
100
AcDbEntity
 67
     1
  8
0
100
AcDbBlockEnd
  0
BLOCK
  5
F771
330
F770
100
AcDbEntity
  8
0
 48
50.0
100
AcDbBlockBegin
  2
_DOTSMALL
 70
     0
 10
0.0
 20
0.0
 30
0.0
  3
_DOTSMALL
  1

  0
LWPOLYLINE
  5
F772
330
F770
100
AcDbEntity
  8
0
  6
ByBlock
 62
     0
 48
50.0
100
AcDbPolyline
 90
        2
 70
     1
 43
0.5
 10
-0.0625
 20
0.0
 42
1.0
 10
0.0625
 20
0.0
 42
1.0
  0
ENDBLK
  5
F776
330
F770
100
AcDbEntity
  8
0
 48
50.0
100
AcDbBlockEnd
  0
BLOCK
  5
1DAE3
330
1DAD7
100
AcDbEntity
  8
0
 48
50.0
100
AcDbBlockBegin
  2
*D1
 70
     1
 10
0.0
 20
0.0
 30
0.0
  3
*D1
  1

  0
LINE
  5
25339
330
1DAD7
100
AcDbEntity
  8
寸法
 62
     0
 48
50.0
370
    -2
100
AcDbLine
 10
8216.600000000001
 20
5792.807155537342
 30
0.0
 11
8523.202780124334
 21
5792.807155537342
 31
0.0
  0
LINE
  5
2533A
330
1DAD7
100
AcDbEntity
  8
寸法
 62
     0
 48
50.0
370
    -2
100
AcDbLine
 10
8216.600000000008
 20
5867.807155537343
 30
0.0
 11
8523.202780124334
 21
5867.807155537343
 31
0.0
  0
LINE
  5
2533B
330
1DAD7
100
AcDbEntity
  8
寸法
 62
     0
 48
50.0
370
    -2
100
AcDbLine
 10
8463.202780124335
 20
5867.807155537343
 30
0.0
 11
8463.202780124335
 21
5967.807155537343
 31
0.0
  0
LINE
  5
2533C
330
1DAD7
100
AcDbEntity
  8
寸法
 62
     0
 48
50.0
370
    -2
100
AcDbLine
 10
8463.202780124335
 20
5792.807155537342
 30
0.0
 11
8463.202780124335
 21
4925.836592788865
 31
0.0
  0
LINE
  5
2533D
330
1DAD7
100
AcDbEntity
  8
寸法
 62
     0
 48
50.0
370
    -2
100
AcDbLine
 10
8463.202780124335
 20
5867.807155537343
 30
0.0
 11
8463.202780124335
 21
5792.807155537342
 31
0.0
  0
INSERT
  5
2533E
330
1DAD7
100
AcDbEntity
  8
寸法
 62
     0
 48
50.0
370
    -2
100
AcDbBlockReference
  2
_DOTSMALL
 10
8463.202780124335
 20
5867.807155537343
 30
0.0
 41
100.0
 42
100.0
 43
100.0
 50
270.0
  0
INSERT
  5
2533F
330
1DAD7
100
AcDbEntity
  8
寸法
 62
     0
 48
50.0
370
    -2
100
AcDbBlockReference
  2
_DOTSMALL
 10
8463.202780124335
 20
5792.807155537342
 30
0.0
 41
100.0
 42
100.0
 43
100.0
 50
90.0
  0
MTEXT
  5
25340
330
1DAD7
100
AcDbEntity
  8
寸法
 62
     7
 48
50.0
100
AcDbMText
 10
8363.202780124332
 20
5259.321874163105
 30
0.0
 40
120.0
 41
0.0
 71
     5
 72
     1
  1
\A1;扉の出75
  7
STYLE1
 11
0.0000000000000001
 21
1.0
 31
0.0
 73
     1
 44
1.0
1001
ACAD
1000
MTEXTBEGIN
1070
    73
1070
     1
1070
    44
1040
1.0
1070
    74
1070
     0
1000
MTEXTEND
  0
POINT
  5
25341
330
1DAD7
100
AcDbEntity
  8
DEFPOINTS
 62
     0
 48
50.0
100
AcDbPoint
 10
8196.600000000001
 20
5792.807155537342
 30
0.0
  0
POINT
  5
25342
330
1DAD7
100
AcDbEntity
  8
DEFPOINTS
 62
     0
 48
50.0
100
AcDbPoint
 10
8196.600000000008
 20
5867.807155537343
 30
0.0
  0
POINT
  5
25343
330
1DAD7
100
AcDbEntity
  8
DEFPOINTS
 62
     0
 48
50.0
100
AcDbPoint
 10
8463.202780124335
 20
5867.807155537343
 30
0.0
  0
ENDBLK
  5
1DAE4
330
1DAD7
100
AcDbEntity
  8
0
 48
50.0
100
AcDbBlockEnd
  0
BLOCK
  5
20DEE
330
20DE2
100
AcDbEntity
  8
0
 48
50.0
100
AcDbBlockBegin
  2
*D2
 70
     1
 10
0.0
 20
0.0
 30
0.0
  3
*D2
  1

  0
LINE
  5
2532E
330
20DE2
100
AcDbEntity
  8
寸法
 62
     0
 48
50.0
370
    -2
100
AcDbLine
 10
10438.6
 20
8527.807155537319
 30
0.0
 11
10438.6
 21
9526.027477596242
 31
0.0
  0
LINE
  5
2532F
330
20DE2
100
AcDbEntity
  8
寸法
 62
     0
 48
50.0
370
    -2
100
AcDbLine
 10
10483.6
 20
9273.566782079404
 30
0.0
 11
10483.6
 21
9526.027477596242
 31
0.0
  0
LINE
  5
25330
330
20DE2
100
AcDbEntity
  8
寸法
 62
     0
 48
50.0
370
    -2
100
AcDbLine
 10
10438.6
 20
9466.02747759624
 30
0.0
 11
10338.6
 21
9466.02747759624
 31
0.0
  0
LINE
  5
25331
330
20DE2
100
AcDbEntity
  8
寸法
 62
     0
 48
50.0
370
    -2
100
AcDbLine
 10
10483.6
 20
9466.02747759624
 30
0.0
 11
10820.94924240492
 21
9466.02747759624
 31
0.0
  0
LINE
  5
25332
330
20DE2
100
AcDbEntity
  8
寸法
 62
     0
 48
50.0
370
    -2
100
AcDbLine
 10
10438.6
 20
9466.02747759624
 30
0.0
 11
10483.6
 21
9466.02747759624
 31
0.0
  0
INSERT
  5
25333
330
20DE2
100
AcDbEntity
  8
寸法
 62
     0
 48
50.0
370
    -2
100
AcDbBlockReference
  2
_DOTSMALL
 10
10438.6
 20
9466.02747759624
 30
0.0
 41
100.0
 42
100.0
 43
100.0
  0
INSERT
  5
25334
330
20DE2
100
AcDbEntity
  8
寸法
 62
     0
 48
50.0
370
    -2
100
AcDbBlockReference
  2
_DOTSMALL
 10
10483.6
 20
9466.02747759624
 30
0.0
 41
100.0
 42
100.0
 43
100.0
 50
180.0
  0
MTEXT
  5
25335
330
20DE2
100
AcDbEntity
  8
寸法
 62
     7
 48
50.0
100
AcDbMText
 10
10754.77462120246
 20
9566.027477596241
 30
0.0
 40
120.0
 41
0.0
 71
     5
 72
     1
  1
\A1;a
  7
STYLE1
 73
     1
 44
1.0
1001
ACAD
1000
MTEXTBEGIN
1070
    73
1070
     1
1070
    44
1040
1.0
1070
    74
1070
     0
1000
MTEXTEND
  0
POINT
  5
25336
330
20DE2
100
AcDbEntity
  8
DEFPOINTS
 62
     0
 48
50.0
100
AcDbPoint
 10
10438.6
 20
8507.807155537319
 30
0.0
  0
POINT
  5
25337
330
20DE2
100
AcDbEntity
  8
DEFPOINTS
 62
     0
 48
50.0
100
AcDbPoint
 10
10483.6
 20
9253.566782079404
 30
0.0
  0
POINT
  5
25338
330
20DE2
100
AcDbEntity
  8
DEFPOINTS
 62
     0
 48
50.0
100
AcDbPoint
 10
10483.6
 20
9466.02747759624
 30
0.0
  0
ENDBLK
  5
20DEF
330
20DE2
100
AcDbEntity
  8
0
 48
50.0
100
AcDbBlockEnd
  0
BLOCK
  5
20E08
330
20DFC
100
AcDbEntity
  8
0
 48
50.0
100
AcDbBlockBegin
  2
*D3
 70
     1
 10
0.0
 20
0.0
 30
0.0
  3
*D3
  1

  0
LINE
  5
25323
330
20DFC
100
AcDbEntity
  8
寸法
 62
     0
 48
50.0
370
    -2
100
AcDbLine
 10
5963.600000000009
 20
9273.566782079404
 30
0.0
 11
5963.600000000009
 21
9526.027477596242
 31
0.0
  0
LINE
  5
25324
330
20DFC
100
AcDbEntity
  8
寸法
 62
     0
 48
50.0
370
    -2
100
AcDbLine
 10
6008.600000000001
 20
8527.807155537319
 30
0.0
 11
6008.600000000001
 21
9526.027477596242
 31
0.0
  0
LINE
  5
25325
330
20DFC
100
AcDbEntity
  8
寸法
 62
     0
 48
50.0
370
    -2
100
AcDbLine
 10
6008.600000000001
 20
9466.02747759624
 30
0.0
 11
6108.600000000001
 21
9466.02747759624
 31
0.0
  0
LINE
  5
25326
330
20DFC
100
AcDbEntity
  8
寸法
 62
     0
 48
50.0
370
    -2
100
AcDbLine
 10
5963.600000000009
 20
9466.02747759624
 30
0.0
 11
5626.250757595084
 21
9466.02747759624
 31
0.0
  0
LINE
  5
25327
330
20DFC
100
AcDbEntity
  8
寸法
 62
     0
 48
50.0
370
    -2
100
AcDbLine
 10
6008.600000000001
 20
9466.02747759624
 30
0.0
 11
5963.600000000009
 21
9466.02747759624
 31
0.0
  0
INSERT
  5
25328
330
20DFC
100
AcDbEntity
  8
寸法
 62
     0
 48
50.0
370
    -2
100
AcDbBlockReference
  2
_DOTSMALL
 10
6008.600000000001
 20
9466.02747759624
 30
0.0
 41
100.0
 42
100.0
 43
100.0
 50
180.0
  0
INSERT
  5
25329
330
20DFC
100
AcDbEntity
  8
寸法
 62
     0
 48
50.0
370
    -2
100
AcDbBlockReference
  2
_DOTSMALL
 10
5963.600000000009
 20
9466.02747759624
 30
0.0
 41
100.0
 42
100.0
 43
100.0
  0
MTEXT
  5
2532A
330
20DFC
100
AcDbEntity
  8
寸法
 62
     7
 48
50.0
100
AcDbMText
 10
5692.425378797541
 20
9566.027477596241
 30
0.0
 40
120.0
 41
0.0
 71
     5
 72
     1
  1
\A1;a
  7
STYLE1
 73
     1
 44
1.0
1001
ACAD
1000
MTEXTBEGIN
1070
    73
1070
     1
1070
    44
1040
1.0
1070
    74
1070
     0
1000
MTEXTEND
  0
POINT
  5
2532B
330
20DFC
100
AcDbEntity
  8
DEFPOINTS
 62
     0
 48
50.0
100
AcDbPoint
 10
5963.600000000009
 20
9253.566782079404
 30
0.0
  0
POINT
  5
2532C
330
20DFC
100
AcDbEntity
  8
DEFPOINTS
 62
     0
 48
50.0
100
AcDbPoint
 10
6008.600000000001
 20
8507.807155537319
 30
0.0
  0
POINT
  5
2532D
330
20DFC
100
AcDbEntity
  8
DEFPOINTS
 62
     0
 48
50.0
100
AcDbPoint
 10
6008.600000000001
 20
9466.02747759624
 30
0.0
  0
ENDBLK
  5
20E09
330
20DFC
100
AcDbEntity
  8
0
 48
50.0
100
AcDbBlockEnd
  0
BLOCK
  5
20E22
330
20E16
100
AcDbEntity
  8
0
 48
50.0
100
AcDbBlockBegin
  2
*D4
 70
     1
 10
0.0
 20
0.0
 30
0.0
  3
*D4
  1

  0
LINE
  5
25318
330
20E16
100
AcDbEntity
  8
寸法
 62
     0
 48
50.0
370
    -2
100
AcDbLine
 10
5492.657733986181
 20
8582.807155537324
 30
0.0
 11
5207.164931848213
 21
8582.807155537324
 31
0.0
  0
LINE
  5
25319
330
20E16
100
AcDbEntity
  8
寸法
 62
     0
 48
50.0
370
    -2
100
AcDbLine
 10
5988.600000000004
 20
8507.807155537321
 30
0.0
 11
5207.164931848213
 21
8507.807155537321
 31
0.0
  0
LINE
  5
2531A
330
20E16
100
AcDbEntity
  8
寸法
 62
     0
 48
50.0
370
    -2
100
AcDbLine
 10
5267.164931848213
 20
8582.807155537324
 30
0.0
 11
5267.164931848213
 21
8682.807155537323
 31
0.0
  0
LINE
  5
2531B
330
20E16
100
AcDbEntity
  8
寸法
 62
     0
 48
50.0
370
    -2
100
AcDbLine
 10
5267.164931848213
 20
8507.807155537321
 30
0.0
 11
5267.164931848213
 21
8407.807155537321
 31
0.0
  0
LINE
  5
2531C
330
20E16
100
AcDbEntity
  8
寸法
 62
     0
 48
50.0
370
    -2
100
AcDbLine
 10
5267.164931848213
 20
8582.807155537324
 30
0.0
 11
5267.164931848213
 21
8507.807155537321
 31
0.0
  0
INSERT
  5
2531D
330
20E16
100
AcDbEntity
  8
寸法
 62
     0
 48
50.0
370
    -2
100
AcDbBlockReference
  2
_DOTSMALL
 10
5267.164931848213
 20
8582.807155537324
 30
0.0
 41
100.0
 42
100.0
 43
100.0
 50
270.0
  0
INSERT
  5
2531E
330
20E16
100
AcDbEntity
  8
寸法
 62
     0
 48
50.0
370
    -2
100
AcDbBlockReference
  2
_DOTSMALL
 10
5267.164931848213
 20
8507.807155537321
 30
0.0
 41
100.0
 42
100.0
 43
100.0
 50
90.0
  0
MTEXT
  5
2531F
330
20E16
100
AcDbEntity
  8
寸法
 62
     7
 48
50.0
100
AcDbMText
 10
5167.164931848212
 20
8545.307155537324
 30
0.0
 40
120.0
 41
0.0
 71
     5
 72
     1
  1
\A1;c
  7
STYLE1
 11
0.0000000000000001
 21
1.0
 31
0.0
 73
     1
 44
1.0
1001
ACAD
1000
MTEXTBEGIN
1070
    73
1070
     1
1070
    44
1040
1.0
1070
    74
1070
     0
1000
MTEXTEND
  0
POINT
  5
25320
330
20E16
100
AcDbEntity
  8
DEFPOINTS
 62
     0
 48
50.0
100
AcDbPoint
 10
5512.657733986181
 20
8582.807155537324
 30
0.0
  0
POINT
  5
25321
330
20E16
100
AcDbEntity
  8
DEFPOINTS
 62
     0
 48
50.0
100
AcDbPoint
 10
6008.600000000004
 20
8507.807155537321
 30
0.0
  0
POINT
  5
25322
330
20E16
100
AcDbEntity
  8
DEFPOINTS
 62
     0
 48
50.0
100
AcDbPoint
 10
5267.164931848213
 20
8507.807155537321
 30
0.0
  0
ENDBLK
  5
20E23
330
20E16
100
AcDbEntity
  8
0
 48
50.0
100
AcDbBlockEnd
  0
BLOCK
  5
20E47
330
20E3B
100
AcDbEntity
  8
0
 48
50.0
100
AcDbBlockBegin
  2
*D5
 70
     1
 10
0.0
 20
0.0
 30
0.0
  3
*D5
  1

  0
LINE
  5
2530D
330
20E3B
100
AcDbEntity
  8
寸法
 62
     0
 48
50.0
370
    -2
100
AcDbLine
 10
5988.600000000008
 20
5867.807155537362
 30
0.0
 11
5207.164931848213
 21
5867.807155537362
 31
0.0
  0
LINE
  5
2530E
330
20E3B
100
AcDbEntity
  8
寸法
 62
     0
 48
50.0
370
    -2
100
AcDbLine
 10
5492.657733986181
 20
5812.807155537331
 30
0.0
 11
5207.164931848213
 21
5812.807155537331
 31
0.0
  0
LINE
  5
2530F
330
20E3B
100
AcDbEntity
  8
寸法
 62
     0
 48
50.0
370
    -2
100
AcDbLine
 10
5267.164931848213
 20
5867.807155537362
 30
0.0
 11
5267.164931848213
 21
5967.807155537362
 31
0.0
  0
LINE
  5
25310
330
20E3B
100
AcDbEntity
  8
寸法
 62
     0
 48
50.0
370
    -2
100
AcDbLine
 10
5267.164931848213
 20
5812.807155537331
 30
0.0
 11
5267.164931848213
 21
5712.807155537332
 31
0.0
  0
LINE
  5
25311
330
20E3B
100
AcDbEntity
  8
寸法
 62
     0
 48
50.0
370
    -2
100
AcDbLine
 10
5267.164931848213
 20
5867.807155537362
 30
0.0
 11
5267.164931848213
 21
5812.807155537331
 31
0.0
  0
INSERT
  5
25312
330
20E3B
100
AcDbEntity
  8
寸法
 62
     0
 48
50.0
370
    -2
100
AcDbBlockReference
  2
_DOTSMALL
 10
5267.164931848213
 20
5867.807155537362
 30
0.0
 41
100.0
 42
100.0
 43
100.0
 50
270.0
  0
INSERT
  5
25313
330
20E3B
100
AcDbEntity
  8
寸法
 62
     0
 48
50.0
370
    -2
100
AcDbBlockReference
  2
_DOTSMALL
 10
5267.164931848213
 20
5812.807155537331
 30
0.0
 41
100.0
 42
100.0
 43
100.0
 50
90.0
  0
MTEXT
  5
25314
330
20E3B
100
AcDbEntity
  8
寸法
 62
     7
 48
50.0
100
AcDbMText
 10
5167.164931848212
 20
5840.307155537348
 30
0.0
 40
120.0
 41
0.0
 71
     5
 72
     1
  1
\A1;b
  7
STYLE1
 11
0.0000000000000001
 21
1.0
 31
0.0
 73
     1
 44
1.0
1001
ACAD
1000
MTEXTBEGIN
1070
    73
1070
     1
1070
    44
1040
1.0
1070
    74
1070
     0
1000
MTEXTEND
  0
POINT
  5
25315
330
20E3B
100
AcDbEntity
  8
DEFPOINTS
 62
     0
 48
50.0
100
AcDbPoint
 10
6008.600000000008
 20
5867.807155537362
 30
0.0
  0
POINT
  5
25316
330
20E3B
100
AcDbEntity
  8
DEFPOINTS
 62
     0
 48
50.0
100
AcDbPoint
 10
5512.657733986181
 20
5812.807155537331
 30
0.0
  0
POINT
  5
25317
330
20E3B
100
AcDbEntity
  8
DEFPOINTS
 62
     0
 48
50.0
100
AcDbPoint
 10
5267.164931848213
 20
5812.807155537331
 30
0.0
  0
ENDBLK
  5
20E48
330
20E3B
100
AcDbEntity
  8
0
 48
50.0
100
AcDbBlockEnd
  0
BLOCK
  5
21977
330
2196C
100
AcDbEntity
  8
0
 48
50.0
100
AcDbBlockBegin
  2
*D6
 70
     1
 10
0.0
 20
0.0
 30
0.0
  3
*D6
  1

  0
LINE
  5
25303
330
2196C
100
AcDbEntity
  8
寸法
 62
     0
 48
50.0
370
    -2
100
AcDbLine
 10
8762.599867447319
 20
5987.807155537335
 30
0.0
 11
8610.14438614211
 21
5987.807155537335
 31
0.0
  0
LINE
  5
25304
330
2196C
100
AcDbEntity
  8
寸法
 62
     0
 48
50.0
370
    -2
100
AcDbLine
 10
8255.600000000001
 20
6097.807155537338
 30
0.0
 11
8730.144386142111
 21
6097.807155537338
 31
0.0
  0
LINE
  5
25305
330
2196C
100
AcDbEntity
  8
寸法
 62
     0
 48
50.0
370
    -2
100
AcDbLine
 10
8670.14438614211
 20
5987.807155537335
 30
0.0
 11
8670.14438614211
 21
6097.807155537338
 31
0.0
  0
LINE
  5
25306
330
2196C
100
AcDbEntity
  8
寸法
 62
     0
 48
50.0
370
    -2
100
AcDbLine
 10
8670.14438614211
 20
6097.807155537338
 30
0.0
 11
8670.14438614211
 21
6491.913454749949
 31
0.0
  0
INSERT
  5
25307
330
2196C
100
AcDbEntity
  8
寸法
 62
     0
 48
50.0
370
    -2
100
AcDbBlockReference
  2
_DOTSMALL
 10
8670.14438614211
 20
5987.807155537335
 30
0.0
 41
100.0
 42
100.0
 43
100.0
 50
270.0
  0
INSERT
  5
25308
330
2196C
100
AcDbEntity
  8
寸法
 62
     0
 48
50.0
370
    -2
100
AcDbBlockReference
  2
_DOTSMALL
 10
8670.14438614211
 20
6097.807155537338
 30
0.0
 41
100.0
 42
100.0
 43
100.0
 50
90.0
  0
MTEXT
  5
25309
330
2196C
100
AcDbEntity
  8
寸法
 62
     7
 48
50.0
100
AcDbMText
 10
8570.144386142109
 20
6367.866210655463
 30
0.0
 40
120.0
 41
0.0
 71
     5
 72
     1
  1
\A1;110
  7
STYLE1
 11
0.0000000000000001
 21
1.0
 31
0.0
 73
     1
 44
1.0
1001
ACAD
1000
MTEXTBEGIN
1070
    73
1070
     1
1070
    44
1040
1.0
1070
    74
1070
     0
1000
MTEXTEND
  0
POINT
  5
2530A
330
2196C
100
AcDbEntity
  8
DEFPOINTS
 62
     0
 48
50.0
100
AcDbPoint
 10
8782.599867447318
 20
5987.807155537335
 30
0.0
  0
POINT
  5
2530B
330
2196C
100
AcDbEntity
  8
DEFPOINTS
 62
     0
 48
50.0
100
AcDbPoint
 10
8235.600000000001
 20
6097.807155537338
 30
0.0
  0
POINT
  5
2530C
330
2196C
100
AcDbEntity
  8
DEFPOINTS
 62
     0
 48
50.0
100
AcDbPoint
 10
8670.14438614211
 20
6097.807155537338
 30
0.0
  0
ENDBLK
  5
21978
330
2196C
100
AcDbEntity
  8
0
 48
50.0
100
AcDbBlockEnd
  0
BLOCK
  5
21984
330
21979
100
AcDbEntity
  8
0
 48
50.0
100
AcDbBlockBegin
  2
*D7
 70
     1
 10
0.0
 20
0.0
 30
0.0
  3
*D7
  1

  0
LINE
  5
252F9
330
21979
100
AcDbEntity
  8
寸法
 62
     0
 48
50.0
370
    -2
100
AcDbLine
 10
8327.41918098816
 20
5867.807155537349
 30
0.0
 11
8730.144386142111
 21
5867.807155537349
 31
0.0
  0
LINE
  5
252FA
330
21979
100
AcDbEntity
  8
寸法
 62
     0
 48
50.0
370
    -2
100
AcDbLine
 10
8762.599867447319
 20
5987.807155537335
 30
0.0
 11
8610.14438614211
 21
5987.807155537335
 31
0.0
  0
LINE
  5
252FB
330
21979
100
AcDbEntity
  8
寸法
 62
     0
 48
50.0
370
    -2
100
AcDbLine
 10
8670.14438614211
 20
5987.807155537335
 30
0.0
 11
8670.14438614211
 21
5867.807155537349
 31
0.0
  0
LINE
  5
252FC
330
21979
100
AcDbEntity
  8
寸法
 62
     0
 48
50.0
370
    -2
100
AcDbLine
 10
8670.14438614211
 20
5867.807155537349
 30
0.0
 11
8670.14438614211
 21
5395.471606474891
 31
0.0
  0
INSERT
  5
252FD
330
21979
100
AcDbEntity
  8
寸法
 62
     0
 48
50.0
370
    -2
100
AcDbBlockReference
  2
_DOTSMALL
 10
8670.14438614211
 20
5987.807155537335
 30
0.0
 41
100.0
 42
100.0
 43
100.0
 50
90.0
  0
INSERT
  5
252FE
330
21979
100
AcDbEntity
  8
寸法
 62
     0
 48
50.0
370
    -2
100
AcDbBlockReference
  2
_DOTSMALL
 10
8670.14438614211
 20
5867.807155537349
 30
0.0
 41
100.0
 42
100.0
 43
100.0
 50
270.0
  0
MTEXT
  5
252FF
330
21979
100
AcDbEntity
  8
寸法
 62
     7
 48
50.0
100
AcDbMText
 10
8570.132575118487
 20
5531.51885056938
 30
0.0
 40
120.0
 41
0.0
 71
     5
 72
     1
  1
\A1;120
  7
STYLE1
 11
0.0000000000000001
 21
1.0
 31
0.0
 73
     1
 44
1.0
1001
ACAD
1000
MTEXTBEGIN
1070
    73
1070
     1
1070
    44
1040
1.0
1070
    74
1070
     0
1000
MTEXTEND
  0
POINT
  5
25300
330
21979
100
AcDbEntity
  8
DEFPOINTS
 62
     0
 48
50.0
100
AcDbPoint
 10
8307.41918098816
 20
5867.807155537349
 30
0.0
  0
POINT
  5
25301
330
21979
100
AcDbEntity
  8
DEFPOINTS
 62
     0
 48
50.0
100
AcDbPoint
 10
8782.599867447318
 20
5987.807155537335
 30
0.0
  0
POINT
  5
25302
330
21979
100
AcDbEntity
  8
DEFPOINTS
 62
     0
 48
50.0
100
AcDbPoint
 10
8670.14438614211
 20
5987.807155537335
 30
0.0
  0
ENDBLK
  5
21985
330
21979
100
AcDbEntity
  8
0
 48
50.0
100
AcDbBlockEnd
  0
BLOCK
  5
2198F
330
21986
100
AcDbEntity
  8
0
 48
50.0
100
AcDbBlockBegin
  2
*D8
 70
     1
 10
0.0
 20
0.0
 30
0.0
  3
*D8
  1

  0
LINE
  5
252F0
330
21986
100
AcDbEntity
  8
寸法
 62
     0
 48
50.0
370
    -2
100
AcDbLine
 10
6008.600000000001
 20
8527.807155537322
 30
0.0
 11
6008.600000000001
 21
9526.027477596242
 31
0.0
  0
LINE
  5
252F1
330
21986
100
AcDbEntity
  8
寸法
 62
     0
 48
50.0
370
    -2
100
AcDbLine
 10
10438.6
 20
8527.807155537322
 30
0.0
 11
10438.6
 21
9526.027477596242
 31
0.0
  0
LINE
  5
252F2
330
21986
100
AcDbEntity
  8
寸法
 62
     0
 48
50.0
370
    -2
100
AcDbLine
 10
6008.600000000001
 20
9466.02747759624
 30
0.0
 11
10438.6
 21
9466.02747759624
 31
0.0
  0
INSERT
  5
252F3
330
21986
100
AcDbEntity
  8
寸法
 62
     0
 48
50.0
370
    -2
100
AcDbBlockReference
  2
_DOTSMALL
 10
6008.600000000001
 20
9466.02747759624
 30
0.0
 41
100.0
 42
100.0
 43
100.0
 50
180.0
  0
INSERT
  5
252F4
330
21986
100
AcDbEntity
  8
寸法
 62
     0
 48
50.0
370
    -2
100
AcDbBlockReference
  2
_DOTSMALL
 10
10438.6
 20
9466.02747759624
 30
0.0
 41
100.0
 42
100.0
 43
100.0
  0
MTEXT
  5
252F5
330
21986
100
AcDbEntity
  8
寸法
 62
     7
 48
50.0
100
AcDbMText
 10
8223.600000000001
 20
9566.027477596241
 30
0.0
 40
120.0
 41
0.0
 71
     5
 72
     1
  1
\A1;4430
  7
STYLE1
 73
     1
 44
1.0
1001
ACAD
1000
MTEXTBEGIN
1070
    73
1070
     1
1070
    44
1040
1.0
1070
    74
1070
     0
1000
MTEXTEND
  0
POINT
  5
252F6
330
21986
100
AcDbEntity
  8
DEFPOINTS
 62
     0
 48
50.0
100
AcDbPoint
 10
6008.600000000001
 20
8507.807155537321
 30
0.0
  0
POINT
  5
252F7
330
21986
100
AcDbEntity
  8
DEFPOINTS
 62
     0
 48
50.0
100
AcDbPoint
 10
10438.6
 20
8507.807155537321
 30
0.0
  0
POINT
  5
252F8
330
21986
100
AcDbEntity
  8
DEFPOINTS
 62
     0
 48
50.0
100
AcDbPoint
 10
10438.6
 20
9466.02747759624
 30
0.0
  0
ENDBLK
  5
21990
330
21986
100
AcDbEntity
  8
0
 48
50.0
100
AcDbBlockEnd
  0
BLOCK
  5
2199B
330
21991
100
AcDbEntity
  8
0
 48
50.0
100
AcDbBlockBegin
  2
*D9
 70
     1
 10
0.0
 20
0.0
 30
0.0
  3
*D9
  1

  0
LINE
  5
252E7
330
21991
100
AcDbEntity
  8
寸法
 62
     0
 48
50.0
370
    -2
100
AcDbLine
 10
8983.6
 20
7852.807155537323
 30
0.0
 11
8983.6
 21
9094.716921185648
 31
0.0
  0
LINE
  5
252E8
330
21991
100
AcDbEntity
  8
寸法
 62
     0
 48
50.0
370
    -2
100
AcDbLine
 10
8223.600000000001
 20
7852.807155537324
 30
0.0
 11
8223.600000000001
 21
9094.716921185648
 31
0.0
  0
LINE
  5
252E9
330
21991
100
AcDbEntity
  8
寸法
 62
     0
 48
50.0
370
    -2
100
AcDbLine
 10
8983.6
 20
9034.716921185649
 30
0.0
 11
8223.600000000001
 21
9034.716921185649
 31
0.0
  0
INSERT
  5
252EA
330
21991
100
AcDbEntity
  8
寸法
 62
     0
 48
50.0
370
    -2
100
AcDbBlockReference
  2
_DOTSMALL
 10
8983.6
 20
9034.716921185649
 30
0.0
 41
100.0
 42
100.0
 43
100.0
  0
INSERT
  5
252EB
330
21991
100
AcDbEntity
  8
寸法
 62
     0
 48
50.0
370
    -2
100
AcDbBlockReference
  2
_DOTSMALL
 10
8223.600000000001
 20
9034.716921185649
 30
0.0
 41
100.0
 42
100.0
 43
100.0
 50
180.0
  0
MTEXT
  5
252EC
330
21991
100
AcDbEntity
  8
寸法
 62
     7
 48
50.0
100
AcDbMText
 10
8603.6
 20
9134.716921185649
 30
0.0
 40
120.0
 41
0.0
 71
     5
 72
     1
  1
\A1;760
  7
STYLE1
 73
     1
 44
1.0
1001
ACAD
1000
MTEXTBEGIN
1070
    73
1070
     1
1070
    44
1040
1.0
1070
    74
1070
     0
1000
MTEXTEND
  0
POINT
  5
252ED
330
21991
100
AcDbEntity
  8
DEFPOINTS
 62
     0
 48
50.0
100
AcDbPoint
 10
8983.6
 20
7832.807155537323
 30
0.0
  0
POINT
  5
252EE
330
21991
100
AcDbEntity
  8
DEFPOINTS
 62
     0
 48
50.0
100
AcDbPoint
 10
8223.600000000001
 20
7832.807155537324
 30
0.0
  0
POINT
  5
252EF
330
21991
100
AcDbEntity
  8
DEFPOINTS
 62
     0
 48
50.0
100
AcDbPoint
 10
8223.600000000001
 20
9034.716921185649
 30
0.0
  0
ENDBLK
  5
2199C
330
21991
100
AcDbEntity
  8
0
 48
50.0
100
AcDbBlockEnd
  0
BLOCK
  5
219A6
330
2199D
100
AcDbEntity
  8
0
 48
50.0
100
AcDbBlockBegin
  2
*D10
 70
     1
 10
0.0
 20
0.0
 30
0.0
  3
*D10
  1

  0
LINE
  5
252DE
330
2199D
100
AcDbEntity
  8
寸法
 62
     0
 48
50.0
370
    -2
100
AcDbLine
 10
10315.6
 20
8454.807155537322
 30
0.0
 11
10315.6
 21
9313.566782079403
 31
0.0
  0
LINE
  5
252DF
330
2199D
100
AcDbEntity
  8
寸法
 62
     0
 48
50.0
370
    -2
100
AcDbLine
 10
8105.6
 20
8454.807155537322
 30
0.0
 11
8105.6
 21
9313.566782079403
 31
0.0
  0
LINE
  5
252E0
330
2199D
100
AcDbEntity
  8
寸法
 62
     0
 48
50.0
370
    -2
100
AcDbLine
 10
10315.6
 20
9253.566782079404
 30
0.0
 11
8105.6
 21
9253.566782079404
 31
0.0
  0
INSERT
  5
252E1
330
2199D
100
AcDbEntity
  8
寸法
 62
     0
 48
50.0
370
    -2
100
AcDbBlockReference
  2
_DOTSMALL
 10
10315.6
 20
9253.566782079404
 30
0.0
 41
100.0
 42
100.0
 43
100.0
  0
INSERT
  5
252E2
330
2199D
100
AcDbEntity
  8
寸法
 62
     0
 48
50.0
370
    -2
100
AcDbBlockReference
  2
_DOTSMALL
 10
8105.6
 20
9253.566782079404
 30
0.0
 41
100.0
 42
100.0
 43
100.0
 50
180.0
  0
MTEXT
  5
252E3
330
2199D
100
AcDbEntity
  8
寸法
 62
     7
 48
50.0
100
AcDbMText
 10
9210.600000000001
 20
9353.578593103026
 30
0.0
 40
120.0
 41
0.0
 71
     5
 72
     1
  1
\A1;2210
  7
STYLE1
 73
     1
 44
1.0
1001
ACAD
1000
MTEXTBEGIN
1070
    73
1070
     1
1070
    44
1040
1.0
1070
    74
1070
     0
1000
MTEXTEND
  0
POINT
  5
252E4
330
2199D
100
AcDbEntity
  8
DEFPOINTS
 62
     0
 48
50.0
100
AcDbPoint
 10
10315.6
 20
8434.80715553732
 30
0.0
  0
POINT
  5
252E5
330
2199D
100
AcDbEntity
  8
DEFPOINTS
 62
     0
 48
50.0
100
AcDbPoint
 10
8105.6
 20
8434.80715553732
 30
0.0
  0
POINT
  5
252E6
330
2199D
100
AcDbEntity
  8
DEFPOINTS
 62
     0
 48
50.0
100
AcDbPoint
 10
8105.6
 20
9253.566782079404
 30
0.0
  0
ENDBLK
  5
219A7
330
2199D
100
AcDbEntity
  8
0
 48
50.0
100
AcDbBlockEnd
  0
BLOCK
  5
219B2
330
219A8
100
AcDbEntity
  8
0
 48
50.0
100
AcDbBlockBegin
  2
*D11
 70
     1
 10
0.0
 20
0.0
 30
0.0
  3
*D11
  1

  0
LINE
  5
252D5
330
219A8
100
AcDbEntity
  8
寸法
 62
     0
 48
50.0
370
    -2
100
AcDbLine
 10
6061.600000000001
 20
8384.807155537322
 30
0.0
 11
5452.657733986178
 21
8384.807155537322
 31
0.0
  0
LINE
  5
252D6
330
219A8
100
AcDbEntity
  8
寸法
 62
     0
 48
50.0
370
    -2
100
AcDbLine
 10
6061.600000000009
 20
5990.807155537321
 30
0.0
 11
5452.657733986178
 21
5990.807155537321
 31
0.0
  0
LINE
  5
252D7
330
219A8
100
AcDbEntity
  8
寸法
 62
     0
 48
50.0
370
    -2
100
AcDbLine
 10
5512.657733986179
 20
8384.807155537322
 30
0.0
 11
5512.657733986178
 21
5990.807155537321
 31
0.0
  0
INSERT
  5
252D8
330
219A8
100
AcDbEntity
  8
寸法
 62
     0
 48
50.0
370
    -2
100
AcDbBlockReference
  2
_DOTSMALL
 10
5512.657733986179
 20
8384.807155537322
 30
0.0
 41
100.0
 42
100.0
 43
100.0
 50
90.0
  0
INSERT
  5
252D9
330
219A8
100
AcDbEntity
  8
寸法
 62
     0
 48
50.0
370
    -2
100
AcDbBlockReference
  2
_DOTSMALL
 10
5512.657733986178
 20
5990.807155537321
 30
0.0
 41
100.0
 42
100.0
 43
100.0
 50
270.0
  0
MTEXT
  5
252DA
330
219A8
100
AcDbEntity
  8
寸法
 62
     7
 48
50.0
100
AcDbMText
 10
5412.645922962555
 20
7187.807155537324
 30
0.0
 40
120.0
 41
0.0
 71
     5
 72
     1
  1
\A1;2394
  7
STYLE1
 11
0.0000000000000001
 21
1.0
 31
0.0
 73
     1
 44
1.0
1001
ACAD
1000
MTEXTBEGIN
1070
    73
1070
     1
1070
    44
1040
1.0
1070
    74
1070
     0
1000
MTEXTEND
  0
POINT
  5
252DB
330
219A8
100
AcDbEntity
  8
DEFPOINTS
 62
     0
 48
50.0
100
AcDbPoint
 10
6081.6
 20
8384.807155537322
 30
0.0
  0
POINT
  5
252DC
330
219A8
100
AcDbEntity
  8
DEFPOINTS
 62
     0
 48
50.0
100
AcDbPoint
 10
6081.600000000008
 20
5990.807155537321
 30
0.0
  0
POINT
  5
252DD
330
219A8
100
AcDbEntity
  8
DEFPOINTS
 62
     0
 48
50.0
100
AcDbPoint
 10
5512.657733986178
 20
5990.807155537321
 30
0.0
  0
ENDBLK
  5
219B3
330
219A8
100
AcDbEntity
  8
0
 48
50.0
100
AcDbBlockEnd
  0
BLOCK
  5
219BD
330
219B4
100
AcDbEntity
  8
0
 48
50.0
100
AcDbBlockBegin
  2
*D12
 70
     1
 10
0.0
 20
0.0
 30
0.0
  3
*D12
  1

  0
LINE
  5
252CC
330
219B4
100
AcDbEntity
  8
寸法
 62
     0
 48
50.0
370
    -2
100
AcDbLine
 10
5988.600000000001
 20
8507.807155537321
 30
0.0
 11
5207.164931848211
 21
8507.807155537321
 31
0.0
  0
LINE
  5
252CD
330
219B4
100
AcDbEntity
  8
寸法
 62
     0
 48
50.0
370
    -2
100
AcDbLine
 10
5988.600000000001
 20
5867.80715553732
 30
0.0
 11
5207.164931848211
 21
5867.80715553732
 31
0.0
  0
LINE
  5
252CE
330
219B4
100
AcDbEntity
  8
寸法
 62
     0
 48
50.0
370
    -2
100
AcDbLine
 10
5267.164931848212
 20
8507.807155537321
 30
0.0
 11
5267.16493184821
 21
5867.80715553732
 31
0.0
  0
INSERT
  5
252CF
330
219B4
100
AcDbEntity
  8
寸法
 62
     0
 48
50.0
370
    -2
100
AcDbBlockReference
  2
_DOTSMALL
 10
5267.164931848212
 20
8507.807155537321
 30
0.0
 41
100.0
 42
100.0
 43
100.0
 50
90.0
  0
INSERT
  5
252D0
330
219B4
100
AcDbEntity
  8
寸法
 62
     0
 48
50.0
370
    -2
100
AcDbBlockReference
  2
_DOTSMALL
 10
5267.16493184821
 20
5867.80715553732
 30
0.0
 41
100.0
 42
100.0
 43
100.0
 50
270.0
  0
MTEXT
  5
252D1
330
219B4
100
AcDbEntity
  8
寸法
 62
     7
 48
50.0
100
AcDbMText
 10
5167.153120824588
 20
7187.807155537322
 30
0.0
 40
120.0
 41
0.0
 71
     5
 72
     1
  1
\A1;2640
  7
STYLE1
 11
0.0000000000000001
 21
1.0
 31
0.0
 73
     1
 44
1.0
1001
ACAD
1000
MTEXTBEGIN
1070
    73
1070
     1
1070
    44
1040
1.0
1070
    74
1070
     0
1000
MTEXTEND
  0
POINT
  5
252D2
330
219B4
100
AcDbEntity
  8
DEFPOINTS
 62
     0
 48
50.0
100
AcDbPoint
 10
6008.600000000001
 20
8507.807155537321
 30
0.0
  0
POINT
  5
252D3
330
219B4
100
AcDbEntity
  8
DEFPOINTS
 62
     0
 48
50.0
100
AcDbPoint
 10
6008.600000000001
 20
5867.80715553732
 30
0.0
  0
POINT
  5
252D4
330
219B4
100
AcDbEntity
  8
DEFPOINTS
 62
     0
 48
50.0
100
AcDbPoint
 10
5267.16493184821
 20
5867.80715553732
 30
0.0
  0
ENDBLK
  5
219BE
330
219B4
100
AcDbEntity
  8
0
 48
50.0
100
AcDbBlockEnd
  0
BLOCK
  5
219E6
330
219DD
100
AcDbEntity
  8
0
 48
50.0
100
AcDbBlockBegin
  2
*D13
 70
     1
 10
0.0
 20
0.0
 30
0.0
  3
*D13
  1

  0
LINE
  5
252B0
330
219DD
100
AcDbEntity
  8
寸法
 62
     0
 48
50.0
370
    -2
100
AcDbLine
 10
6773.6
 20
7952.807155537323
 30
0.0
 11
6773.6
 21
9094.716921185648
 31
0.0
  0
LINE
  5
252B1
330
219DD
100
AcDbEntity
  8
寸法
 62
     0
 48
50.0
370
    -2
100
AcDbLine
 10
6008.600000000001
 20
8527.807155537322
 30
0.0
 11
6008.600000000001
 21
9094.716921185648
 31
0.0
  0
LINE
  5
252B2
330
219DD
100
AcDbEntity
  8
寸法
 62
     0
 48
50.0
370
    -2
100
AcDbLine
 10
6773.6
 20
9034.716921185649
 30
0.0
 11
6008.600000000001
 21
9034.716921185649
 31
0.0
  0
INSERT
  5
252B3
330
219DD
100
AcDbEntity
  8
寸法
 62
     0
 48
50.0
370
    -2
100
AcDbBlockReference
  2
_DOTSMALL
 10
6773.6
 20
9034.716921185649
 30
0.0
 41
100.0
 42
100.0
 43
100.0
  0
INSERT
  5
252B4
330
219DD
100
AcDbEntity
  8
寸法
 62
     0
 48
50.0
370
    -2
100
AcDbBlockReference
  2
_DOTSMALL
 10
6008.600000000001
 20
9034.716921185649
 30
0.0
 41
100.0
 42
100.0
 43
100.0
 50
180.0
  0
MTEXT
  5
252B5
330
219DD
100
AcDbEntity
  8
寸法
 62
     7
 48
50.0
100
AcDbMText
 10
6391.100000000001
 20
9134.716921185649
 30
0.0
 40
120.0
 41
0.0
 71
     5
 72
     1
  1
\A1;765
  7
STYLE1
 73
     1
 44
1.0
1001
ACAD
1000
MTEXTBEGIN
1070
    73
1070
     1
1070
    44
1040
1.0
1070
    74
1070
     0
1000
MTEXTEND
  0
POINT
  5
252B6
330
219DD
100
AcDbEntity
  8
DEFPOINTS
 62
     0
 48
50.0
100
AcDbPoint
 10
6773.6
 20
7932.807155537322
 30
0.0
  0
POINT
  5
252B7
330
219DD
100
AcDbEntity
  8
DEFPOINTS
 62
     0
 48
50.0
100
AcDbPoint
 10
6008.600000000001
 20
8507.807155537321
 30
0.0
  0
POINT
  5
252B8
330
219DD
100
AcDbEntity
  8
DEFPOINTS
 62
     0
 48
50.0
100
AcDbPoint
 10
6008.600000000001
 20
9034.716921185649
 30
0.0
  0
ENDBLK
  5
219E7
330
219DD
100
AcDbEntity
  8
0
 48
50.0
100
AcDbBlockEnd
  0
BLOCK
  5
219F2
330
219E8
100
AcDbEntity
  8
0
 48
50.0
100
AcDbBlockBegin
  2
*D14
 70
     1
 10
0.0
 20
0.0
 30
0.0
  3
*D14
  1

  0
LINE
  5
252A7
330
219E8
100
AcDbEntity
  8
寸法
 62
     0
 48
50.0
370
    -2
100
AcDbLine
 10
8105.6
 20
8454.807155537322
 30
0.0
 11
8105.6
 21
9313.566782079403
 31
0.0
  0
LINE
  5
252A8
330
219E8
100
AcDbEntity
  8
寸法
 62
     0
 48
50.0
370
    -2
100
AcDbLine
 10
6131.6
 20
8454.807155537322
 30
0.0
 11
6131.6
 21
9313.566782079403
 31
0.0
  0
LINE
  5
252A9
330
219E8
100
AcDbEntity
  8
寸法
 62
     0
 48
50.0
370
    -2
100
AcDbLine
 10
8105.6
 20
9253.566782079404
 30
0.0
 11
6131.6
 21
9253.566782079404
 31
0.0
  0
INSERT
  5
252AA
330
219E8
100
AcDbEntity
  8
寸法
 62
     0
 48
50.0
370
    -2
100
AcDbBlockReference
  2
_DOTSMALL
 10
8105.6
 20
9253.566782079404
 30
0.0
 41
100.0
 42
100.0
 43
100.0
  0
INSERT
  5
252AB
330
219E8
100
AcDbEntity
  8
寸法
 62
     0
 48
50.0
370
    -2
100
AcDbBlockReference
  2
_DOTSMALL
 10
6131.6
 20
9253.566782079404
 30
0.0
 41
100.0
 42
100.0
 43
100.0
 50
180.0
  0
MTEXT
  5
252AC
330
219E8
100
AcDbEntity
  8
寸法
 62
     7
 48
50.0
100
AcDbMText
 10
7118.6
 20
9353.566782079404
 30
0.0
 40
120.0
 41
0.0
 71
     5
 72
     1
  1
\A1;1974
  7
STYLE1
 73
     1
 44
1.0
1001
ACAD
1000
MTEXTBEGIN
1070
    73
1070
     1
1070
    44
1040
1.0
1070
    74
1070
     0
1000
MTEXTEND
  0
POINT
  5
252AD
330
219E8
100
AcDbEntity
  8
DEFPOINTS
 62
     0
 48
50.0
100
AcDbPoint
 10
8105.6
 20
8434.80715553732
 30
0.0
  0
POINT
  5
252AE
330
219E8
100
AcDbEntity
  8
DEFPOINTS
 62
     0
 48
50.0
100
AcDbPoint
 10
6131.6
 20
8434.80715553732
 30
0.0
  0
POINT
  5
252AF
330
219E8
100
AcDbEntity
  8
DEFPOINTS
 62
     0
 48
50.0
100
AcDbPoint
 10
6131.6
 20
9253.566782079404
 30
0.0
  0
ENDBLK
  5
219F3
330
219E8
100
AcDbEntity
  8
0
 48
50.0
100
AcDbBlockEnd
  0
BLOCK
  5
219FF
330
219F4
100
AcDbEntity
  8
0
 48
50.0
100
AcDbBlockBegin
  2
*D15
 70
     1
 10
0.0
 20
0.0
 30
0.0
  3
*D15
  1

  0
LINE
  5
2529D
330
219F4
100
AcDbEntity
  8
寸法
 62
     0
 48
50.0
370
    -2
100
AcDbLine
 10
6131.6
 20
8454.807155537322
 30
0.0
 11
6131.6
 21
9313.566782079403
 31
0.0
  0
LINE
  5
2529E
330
219F4
100
AcDbEntity
  8
寸法
 62
     0
 48
50.0
370
    -2
100
AcDbLine
 10
6008.600000000001
 20
8527.807155537322
 30
0.0
 11
6008.600000000001
 21
9313.566782079403
 31
0.0
  0
LINE
  5
2529F
330
219F4
100
AcDbEntity
  8
寸法
 62
     0
 48
50.0
370
    -2
100
AcDbLine
 10
6131.6
 20
9253.566782079404
 30
0.0
 11
6008.600000000001
 21
9253.566782079404
 31
0.0
  0
LINE
  5
252A0
330
219F4
100
AcDbEntity
  8
寸法
 62
     0
 48
50.0
370
    -2
100
AcDbLine
 10
6008.600000000001
 20
9253.566782079404
 30
0.0
 11
5597.008116907967
 21
9253.566782079404
 31
0.0
  0
INSERT
  5
252A1
330
219F4
100
AcDbEntity
  8
寸法
 62
     0
 48
50.0
370
    -2
100
AcDbBlockReference
  2
_DOTSMALL
 10
6131.6
 20
9253.566782079404
 30
0.0
 41
100.0
 42
100.0
 43
100.0
  0
INSERT
  5
252A2
330
219F4
100
AcDbEntity
  8
寸法
 62
     0
 48
50.0
370
    -2
100
AcDbBlockReference
  2
_DOTSMALL
 10
6008.600000000001
 20
9253.566782079404
 30
0.0
 41
100.0
 42
100.0
 43
100.0
 50
180.0
  0
MTEXT
  5
252A3
330
219F4
100
AcDbEntity
  8
寸法
 62
     7
 48
50.0
100
AcDbMText
 10
5735.493398282206
 20
9353.578593103026
 30
0.0
 40
120.0
 41
0.0
 71
     5
 72
     1
  1
\A1;123
  7
STYLE1
 73
     1
 44
1.0
1001
ACAD
1000
MTEXTBEGIN
1070
    73
1070
     1
1070
    44
1040
1.0
1070
    74
1070
     0
1000
MTEXTEND
  0
POINT
  5
252A4
330
219F4
100
AcDbEntity
  8
DEFPOINTS
 62
     0
 48
50.0
100
AcDbPoint
 10
6131.6
 20
8434.80715553732
 30
0.0
  0
POINT
  5
252A5
330
219F4
100
AcDbEntity
  8
DEFPOINTS
 62
     0
 48
50.0
100
AcDbPoint
 10
6008.600000000001
 20
8507.807155537321
 30
0.0
  0
POINT
  5
252A6
330
219F4
100
AcDbEntity
  8
DEFPOINTS
 62
     0
 48
50.0
100
AcDbPoint
 10
6008.600000000001
 20
9253.566782079404
 30
0.0
  0
ENDBLK
  5
21A00
330
219F4
100
AcDbEntity
  8
0
 48
50.0
100
AcDbBlockEnd
  0
BLOCK
  5
21A19
330
21A0E
100
AcDbEntity
  8
0
 48
50.0
100
AcDbBlockBegin
  2
*D16
 70
     1
 10
0.0
 20
0.0
 30
0.0
  3
*D16
  1

  0
LINE
  5
25293
330
21A0E
100
AcDbEntity
  8
寸法
 62
     0
 48
50.0
370
    -2
100
AcDbLine
 10
5988.600000000001
 20
8507.807155537321
 30
0.0
 11
5452.657733986178
 21
8507.807155537321
 31
0.0
  0
LINE
  5
25294
330
21A0E
100
AcDbEntity
  8
寸法
 62
     0
 48
50.0
370
    -2
100
AcDbLine
 10
6061.600000000001
 20
8384.807155537322
 30
0.0
 11
5452.657733986178
 21
8384.807155537322
 31
0.0
  0
LINE
  5
25295
330
21A0E
100
AcDbEntity
  8
寸法
 62
     0
 48
50.0
370
    -2
100
AcDbLine
 10
5512.657733986179
 20
8384.807155537322
 30
0.0
 11
5512.657733986179
 21
8507.807155537321
 31
0.0
  0
LINE
  5
25296
330
21A0E
100
AcDbEntity
  8
寸法
 62
     0
 48
50.0
370
    -2
100
AcDbLine
 10
5512.657733986179
 20
8507.807155537321
 30
0.0
 11
5512.657733986179
 21
8919.399038629357
 31
0.0
  0
INSERT
  5
25297
330
21A0E
100
AcDbEntity
  8
寸法
 62
     0
 48
50.0
370
    -2
100
AcDbBlockReference
  2
_DOTSMALL
 10
5512.657733986179
 20
8384.807155537322
 30
0.0
 41
100.0
 42
100.0
 43
100.0
 50
270.0
  0
INSERT
  5
25298
330
21A0E
100
AcDbEntity
  8
寸法
 62
     0
 48
50.0
370
    -2
100
AcDbBlockReference
  2
_DOTSMALL
 10
5512.657733986179
 20
8507.807155537321
 30
0.0
 41
100.0
 42
100.0
 43
100.0
 50
90.0
  0
MTEXT
  5
25299
330
21A0E
100
AcDbEntity
  8
寸法
 62
     7
 48
50.0
100
AcDbMText
 10
5412.645922962556
 20
8780.91375725512
 30
0.0
 40
120.0
 41
0.0
 71
     5
 72
     1
  1
\A1;123
  7
STYLE1
 11
0.0000000000000001
 21
1.0
 31
0.0
 73
     1
 44
1.0
1001
ACAD
1000
MTEXTBEGIN
1070
    73
1070
     1
1070
    44
1040
1.0
1070
    74
1070
     0
1000
MTEXTEND
  0
POINT
  5
2529A
330
21A0E
100
AcDbEntity
  8
DEFPOINTS
 62
     0
 48
50.0
100
AcDbPoint
 10
6008.600000000001
 20
8507.807155537321
 30
0.0
  0
POINT
  5
2529B
330
21A0E
100
AcDbEntity
  8
DEFPOINTS
 62
     0
 48
50.0
100
AcDbPoint
 10
6081.6
 20
8384.807155537322
 30
0.0
  0
POINT
  5
2529C
330
21A0E
100
AcDbEntity
  8
DEFPOINTS
 62
     0
 48
50.0
100
AcDbPoint
 10
5512.657733986179
 20
8384.807155537322
 30
0.0
  0
ENDBLK
  5
21A1A
330
21A0E
100
AcDbEntity
  8
0
 48
50.0
100
AcDbBlockEnd
  0
BLOCK
  5
21A26
330
21A1B
100
AcDbEntity
  8
0
 48
50.0
100
AcDbBlockBegin
  2
*D17
 70
     1
 10
0.0
 20
0.0
 30
0.0
  3
*D17
  1

  0
LINE
  5
25289
330
21A1B
100
AcDbEntity
  8
寸法
 62
     0
 48
50.0
370
    -2
100
AcDbLine
 10
6258.599999999998
 20
8387.807155537322
 30
0.0
 11
6515.307249876099
 21
8387.807155537322
 31
0.0
  0
LINE
  5
2528A
330
21A1B
100
AcDbEntity
  8
寸法
 62
     0
 48
50.0
370
    -2
100
AcDbLine
 10
6258.600000000001
 20
8507.807155537319
 30
0.0
 11
6515.307249876099
 21
8507.807155537319
 31
0.0
  0
LINE
  5
2528B
330
21A1B
100
AcDbEntity
  8
寸法
 62
     0
 48
50.0
370
    -2
100
AcDbLine
 10
6455.307249876098
 20
8387.807155537322
 30
0.0
 11
6455.307249876098
 21
8507.807155537319
 31
0.0
  0
LINE
  5
2528C
330
21A1B
100
AcDbEntity
  8
寸法
 62
     0
 48
50.0
370
    -2
100
AcDbLine
 10
6455.307249876098
 20
8507.807155537319
 30
0.0
 11
6455.307249876098
 21
8921.937942904694
 31
0.0
  0
INSERT
  5
2528D
330
21A1B
100
AcDbEntity
  8
寸法
 62
     0
 48
50.0
370
    -2
100
AcDbBlockReference
  2
_DOTSMALL
 10
6455.307249876098
 20
8387.807155537322
 30
0.0
 41
100.0
 42
100.0
 43
100.0
 50
270.0
  0
INSERT
  5
2528E
330
21A1B
100
AcDbEntity
  8
寸法
 62
     0
 48
50.0
370
    -2
100
AcDbBlockReference
  2
_DOTSMALL
 10
6455.307249876098
 20
8507.807155537319
 30
0.0
 41
100.0
 42
100.0
 43
100.0
 50
90.0
  0
MTEXT
  5
2528F
330
21A1B
100
AcDbEntity
  8
寸法
 62
     7
 48
50.0
100
AcDbMText
 10
6355.295438852476
 20
8785.890698810206
 30
0.0
 40
120.0
 41
0.0
 71
     5
 72
     1
  1
\A1;120
  7
STYLE1
 11
0.0000000000000001
 21
1.0
 31
0.0
 73
     1
 44
1.0
1001
ACAD
1000
MTEXTBEGIN
1070
    73
1070
     1
1070
    44
1040
1.0
1070
    74
1070
     0
1000
MTEXTEND
  0
POINT
  5
25290
330
21A1B
100
AcDbEntity
  8
DEFPOINTS
 62
     0
 48
50.0
100
AcDbPoint
 10
6238.599999999999
 20
8387.807155537322
 30
0.0
  0
POINT
  5
25291
330
21A1B
100
AcDbEntity
  8
DEFPOINTS
 62
     0
 48
50.0
100
AcDbPoint
 10
6238.6
 20
8507.807155537319
 30
0.0
  0
POINT
  5
25292
330
21A1B
100
AcDbEntity
  8
DEFPOINTS
 62
     0
 48
50.0
100
AcDbPoint
 10
6455.307249876098
 20
8507.807155537319
 30
0.0
  0
ENDBLK
  5
21A27
330
21A1B
100
AcDbEntity
  8
0
 48
50.0
100
AcDbBlockEnd
  0
BLOCK
  5
21A33
330
21A28
100
AcDbEntity
  8
0
 48
50.0
100
AcDbBlockBegin
  2
*D18
 70
     1
 10
0.0
 20
0.0
 30
0.0
  3
*D18
  1

  0
LINE
  5
2527F
330
21A28
100
AcDbEntity
  8
寸法
 62
     0
 48
50.0
370
    -2
100
AcDbLine
 10
6258.599999999998
 20
8387.807155537322
 30
0.0
 11
6515.307249876099
 21
8387.807155537322
 31
0.0
  0
LINE
  5
25280
330
21A28
100
AcDbEntity
  8
寸法
 62
     0
 48
50.0
370
    -2
100
AcDbLine
 10
6258.600000000001
 20
8277.807155537317
 30
0.0
 11
6515.307249876099
 21
8277.807155537317
 31
0.0
  0
LINE
  5
25281
330
21A28
100
AcDbEntity
  8
寸法
 62
     0
 48
50.0
370
    -2
100
AcDbLine
 10
6455.307249876098
 20
8387.807155537322
 30
0.0
 11
6455.307249876098
 21
8277.807155537317
 31
0.0
  0
LINE
  5
25282
330
21A28
100
AcDbEntity
  8
寸法
 62
     0
 48
50.0
370
    -2
100
AcDbLine
 10
6455.307249876098
 20
8277.807155537317
 30
0.0
 11
6455.307249876098
 21
7813.700856324718
 31
0.0
  0
INSERT
  5
25283
330
21A28
100
AcDbEntity
  8
寸法
 62
     0
 48
50.0
370
    -2
100
AcDbBlockReference
  2
_DOTSMALL
 10
6455.307249876098
 20
8387.807155537322
 30
0.0
 41
100.0
 42
100.0
 43
100.0
 50
90.0
  0
INSERT
  5
25284
330
21A28
100
AcDbEntity
  8
寸法
 62
     0
 48
50.0
370
    -2
100
AcDbBlockReference
  2
_DOTSMALL
 10
6455.307249876098
 20
8277.807155537317
 30
0.0
 41
100.0
 42
100.0
 43
100.0
 50
270.0
  0
MTEXT
  5
25285
330
21A28
100
AcDbEntity
  8
寸法
 62
     7
 48
50.0
100
AcDbMText
 10
6355.307249876098
 20
7937.748100419206
 30
0.0
 40
120.0
 41
0.0
 71
     5
 72
     1
  1
\A1;110
  7
STYLE1
 11
0.0000000000000001
 21
1.0
 31
0.0
 73
     1
 44
1.0
1001
ACAD
1000
MTEXTBEGIN
1070
    73
1070
     1
1070
    44
1040
1.0
1070
    74
1070
     0
1000
MTEXTEND
  0
POINT
  5
25286
330
21A28
100
AcDbEntity
  8
DEFPOINTS
 62
     0
 48
50.0
100
AcDbPoint
 10
6238.599999999999
 20
8387.807155537322
 30
0.0
  0
POINT
  5
25287
330
21A28
100
AcDbEntity
  8
DEFPOINTS
 62
     0
 48
50.0
100
AcDbPoint
 10
6238.6
 20
8277.807155537317
 30
0.0
  0
POINT
  5
25288
330
21A28
100
AcDbEntity
  8
DEFPOINTS
 62
     0
 48
50.0
100
AcDbPoint
 10
6455.307249876098
 20
8277.807155537317
 30
0.0
  0
ENDBLK
  5
21A34
330
21A28
100
AcDbEntity
  8
0
 48
50.0
100
AcDbBlockEnd
  0
BLOCK
  5
21A3F
330
21A35
100
AcDbEntity
  8
0
 48
50.0
100
AcDbBlockBegin
  2
*D19
 70
     1
 10
0.0
 20
0.0
 30
0.0
  3
*D19
  1

  0
LINE
  5
25276
330
21A35
100
AcDbEntity
  8
寸法
 62
     0
 48
50.0
370
    -2
100
AcDbLine
 10
8223.600000000001
 20
7852.807155537324
 30
0.0
 11
8223.600000000001
 21
9094.716921185648
 31
0.0
  0
LINE
  5
25277
330
21A35
100
AcDbEntity
  8
寸法
 62
     0
 48
50.0
370
    -2
100
AcDbLine
 10
7463.600000000001
 20
7852.807155537322
 30
0.0
 11
7463.600000000001
 21
9094.716921185648
 31
0.0
  0
LINE
  5
25278
330
21A35
100
AcDbEntity
  8
寸法
 62
     0
 48
50.0
370
    -2
100
AcDbLine
 10
8223.600000000001
 20
9034.716921185649
 30
0.0
 11
7463.600000000001
 21
9034.716921185649
 31
0.0
  0
INSERT
  5
25279
330
21A35
100
AcDbEntity
  8
寸法
 62
     0
 48
50.0
370
    -2
100
AcDbBlockReference
  2
_DOTSMALL
 10
8223.600000000001
 20
9034.716921185649
 30
0.0
 41
100.0
 42
100.0
 43
100.0
  0
INSERT
  5
2527A
330
21A35
100
AcDbEntity
  8
寸法
 62
     0
 48
50.0
370
    -2
100
AcDbBlockReference
  2
_DOTSMALL
 10
7463.600000000001
 20
9034.716921185649
 30
0.0
 41
100.0
 42
100.0
 43
100.0
 50
180.0
  0
MTEXT
  5
2527B
330
21A35
100
AcDbEntity
  8
寸法
 62
     7
 48
50.0
100
AcDbMText
 10
7843.600000000001
 20
9134.716921185649
 30
0.0
 40
120.0
 41
0.0
 71
     5
 72
     1
  1
\A1;760
  7
STYLE1
 73
     1
 44
1.0
1001
ACAD
1000
MTEXTBEGIN
1070
    73
1070
     1
1070
    44
1040
1.0
1070
    74
1070
     0
1000
MTEXTEND
  0
POINT
  5
2527C
330
21A35
100
AcDbEntity
  8
DEFPOINTS
 62
     0
 48
50.0
100
AcDbPoint
 10
8223.600000000001
 20
7832.807155537324
 30
0.0
  0
POINT
  5
2527D
330
21A35
100
AcDbEntity
  8
DEFPOINTS
 62
     0
 48
50.0
100
AcDbPoint
 10
7463.600000000001
 20
7832.807155537321
 30
0.0
  0
POINT
  5
2527E
330
21A35
100
AcDbEntity
  8
DEFPOINTS
 62
     0
 48
50.0
100
AcDbPoint
 10
7463.600000000001
 20
9034.716921185649
 30
0.0
  0
ENDBLK
  5
21A40
330
21A35
100
AcDbEntity
  8
0
 48
50.0
100
AcDbBlockEnd
  0
BLOCK
  5
21A4B
330
21A41
100
AcDbEntity
  8
0
 48
50.0
100
AcDbBlockBegin
  2
*D20
 70
     1
 10
0.0
 20
0.0
 30
0.0
  3
*D20
  1

  0
LINE
  5
2526D
330
21A41
100
AcDbEntity
  8
寸法
 62
     0
 48
50.0
370
    -2
100
AcDbLine
 10
9553.600000000001
 20
7632.807155537321
 30
0.0
 11
9249.531448609053
 21
7632.807155537321
 31
0.0
  0
LINE
  5
2526E
330
21A41
100
AcDbEntity
  8
寸法
 62
     0
 48
50.0
370
    -2
100
AcDbLine
 10
9553.600000000001
 20
6742.807155537335
 30
0.0
 11
9249.531448609053
 21
6742.807155537335
 31
0.0
  0
LINE
  5
2526F
330
21A41
100
AcDbEntity
  8
寸法
 62
     0
 48
50.0
370
    -2
100
AcDbLine
 10
9309.531448609051
 20
7632.807155537321
 30
0.0
 11
9309.531448609051
 21
6742.807155537335
 31
0.0
  0
INSERT
  5
25270
330
21A41
100
AcDbEntity
  8
寸法
 62
     0
 48
50.0
370
    -2
100
AcDbBlockReference
  2
_DOTSMALL
 10
9309.531448609051
 20
7632.807155537321
 30
0.0
 41
100.0
 42
100.0
 43
100.0
 50
90.0
  0
INSERT
  5
25271
330
21A41
100
AcDbEntity
  8
寸法
 62
     0
 48
50.0
370
    -2
100
AcDbBlockReference
  2
_DOTSMALL
 10
9309.531448609051
 20
6742.807155537335
 30
0.0
 41
100.0
 42
100.0
 43
100.0
 50
270.0
  0
MTEXT
  5
25272
330
21A41
100
AcDbEntity
  8
寸法
 62
     7
 48
50.0
100
AcDbMText
 10
9209.53144860905
 20
7187.807155537329
 30
0.0
 40
120.0
 41
0.0
 71
     5
 72
     1
  1
\A1;890
  7
STYLE1
 11
0.0000000000000001
 21
1.0
 31
0.0
 73
     1
 44
1.0
1001
ACAD
1000
MTEXTBEGIN
1070
    73
1070
     1
1070
    44
1040
1.0
1070
    74
1070
     0
1000
MTEXTEND
  0
POINT
  5
25273
330
21A41
100
AcDbEntity
  8
DEFPOINTS
 62
     0
 48
50.0
100
AcDbPoint
 10
9573.6
 20
7632.807155537321
 30
0.0
  0
POINT
  5
25274
330
21A41
100
AcDbEntity
  8
DEFPOINTS
 62
     0
 48
50.0
100
AcDbPoint
 10
9573.6
 20
6742.807155537335
 30
0.0
  0
POINT
  5
25275
330
21A41
100
AcDbEntity
  8
DEFPOINTS
 62
     0
 48
50.0
100
AcDbPoint
 10
9309.531448609051
 20
6742.807155537335
 30
0.0
  0
ENDBLK
  5
21A4C
330
21A41
100
AcDbEntity
  8
0
 48
50.0
100
AcDbBlockEnd
  0
BLOCK
  5
21A70
330
21A66
100
AcDbEntity
  8
0
 48
50.0
100
AcDbBlockBegin
  2
*D21
 70
     1
 10
0.0
 20
0.0
 30
0.0
  3
*D21
  1

  0
LINE
  5
25264
330
21A66
100
AcDbEntity
  8
寸法
 62
     0
 48
50.0
370
    -2
100
AcDbLine
 10
9230.045939259559
 20
5867.807155537332
 30
0.0
 11
9369.531448609052
 21
5867.807155537332
 31
0.0
  0
LINE
  5
25265
330
21A66
100
AcDbEntity
  8
寸法
 62
     0
 48
50.0
370
    -2
100
AcDbLine
 10
9553.600000000001
 20
6742.807155537335
 30
0.0
 11
9249.531448609053
 21
6742.807155537335
 31
0.0
  0
LINE
  5
25266
330
21A66
100
AcDbEntity
  8
寸法
 62
     0
 48
50.0
370
    -2
100
AcDbLine
 10
9309.531448609051
 20
5867.807155537332
 30
0.0
 11
9309.531448609051
 21
6742.807155537335
 31
0.0
  0
INSERT
  5
25267
330
21A66
100
AcDbEntity
  8
寸法
 62
     0
 48
50.0
370
    -2
100
AcDbBlockReference
  2
_DOTSMALL
 10
9309.531448609051
 20
5867.807155537332
 30
0.0
 41
100.0
 42
100.0
 43
100.0
 50
270.0
  0
INSERT
  5
25268
330
21A66
100
AcDbEntity
  8
寸法
 62
     0
 48
50.0
370
    -2
100
AcDbBlockReference
  2
_DOTSMALL
 10
9309.531448609051
 20
6742.807155537335
 30
0.0
 41
100.0
 42
100.0
 43
100.0
 50
90.0
  0
MTEXT
  5
25269
330
21A66
100
AcDbEntity
  8
寸法
 62
     7
 48
50.0
100
AcDbMText
 10
9209.53144860905
 20
6305.307155537335
 30
0.0
 40
120.0
 41
0.0
 71
     5
 72
     1
  1
\A1;875
  7
STYLE1
 11
0.0000000000000001
 21
1.0
 31
0.0
 73
     1
 44
1.0
1001
ACAD
1000
MTEXTBEGIN
1070
    73
1070
     1
1070
    44
1040
1.0
1070
    74
1070
     0
1000
MTEXTEND
  0
POINT
  5
2526A
330
21A66
100
AcDbEntity
  8
DEFPOINTS
 62
     0
 48
50.0
100
AcDbPoint
 10
9210.045939259561
 20
5867.807155537332
 30
0.0
  0
POINT
  5
2526B
330
21A66
100
AcDbEntity
  8
DEFPOINTS
 62
     0
 48
50.0
100
AcDbPoint
 10
9573.6
 20
6742.807155537335
 30
0.0
  0
POINT
  5
2526C
330
21A66
100
AcDbEntity
  8
DEFPOINTS
 62
     0
 48
50.0
100
AcDbPoint
 10
9309.531448609051
 20
6742.807155537335
 30
0.0
  0
ENDBLK
  5
21A71
330
21A66
100
AcDbEntity
  8
0
 48
50.0
100
AcDbBlockEnd
  0
BLOCK
  5
21A7D
330
21A72
100
AcDbEntity
  8
0
 48
50.0
100
AcDbBlockBegin
  2
*D22
 70
     1
 10
0.0
 20
0.0
 30
0.0
  3
*D22
  1

  0
LINE
  5
2525A
330
21A72
100
AcDbEntity
  8
寸法
 62
     0
 48
50.0
370
    -2
100
AcDbLine
 10
10318.59999999998
 20
8257.807155537323
 30
0.0
 11
10318.59999999998
 21
7936.78136459866
 31
0.0
  0
LINE
  5
2525B
330
21A72
100
AcDbEntity
  8
寸法
 62
     0
 48
50.0
370
    -2
100
AcDbLine
 10
10208.6
 20
8257.807155537319
 30
0.0
 11
10208.6
 21
7936.78136459866
 31
0.0
  0
LINE
  5
2525C
330
21A72
100
AcDbEntity
  8
寸法
 62
     0
 48
50.0
370
    -2
100
AcDbLine
 10
10318.59999999998
 20
7996.78136459866
 30
0.0
 11
10208.6
 21
7996.78136459866
 31
0.0
  0
LINE
  5
2525D
330
21A72
100
AcDbEntity
  8
寸法
 62
     0
 48
50.0
370
    -2
100
AcDbLine
 10
10208.6
 20
7996.78136459866
 30
0.0
 11
9848.505511811024
 21
7996.78136459866
 31
0.0
  0
INSERT
  5
2525E
330
21A72
100
AcDbEntity
  8
寸法
 62
     0
 48
50.0
370
    -2
100
AcDbBlockReference
  2
_DOTSMALL
 10
10318.59999999998
 20
7996.78136459866
 30
0.0
 41
100.0
 42
100.0
 43
100.0
  0
INSERT
  5
2525F
330
21A72
100
AcDbEntity
  8
寸法
 62
     0
 48
50.0
370
    -2
100
AcDbBlockReference
  2
_DOTSMALL
 10
10208.6
 20
7996.78136459866
 30
0.0
 41
100.0
 42
100.0
 43
100.0
 50
180.0
  0
MTEXT
  5
25260
330
21A72
100
AcDbEntity
  8
寸法
 62
     7
 48
50.0
100
AcDbMText
 10
9972.552755905512
 20
8096.78136459866
 30
0.0
 40
120.0
 41
0.0
 71
     5
 72
     1
  1
\A1;110
  7
STYLE1
 73
     1
 44
1.0
1001
ACAD
1000
MTEXTBEGIN
1070
    73
1070
     1
1070
    44
1040
1.0
1070
    74
1070
     0
1000
MTEXTEND
  0
POINT
  5
25261
330
21A72
100
AcDbEntity
  8
DEFPOINTS
 62
     0
 48
50.0
100
AcDbPoint
 10
10318.59999999998
 20
8277.807155537322
 30
0.0
  0
POINT
  5
25262
330
21A72
100
AcDbEntity
  8
DEFPOINTS
 62
     0
 48
50.0
100
AcDbPoint
 10
10208.6
 20
8277.807155537319
 30
0.0
  0
POINT
  5
25263
330
21A72
100
AcDbEntity
  8
DEFPOINTS
 62
     0
 48
50.0
100
AcDbPoint
 10
10208.6
 20
7996.78136459866
 30
0.0
  0
ENDBLK
  5
21A7E
330
21A72
100
AcDbEntity
  8
0
 48
50.0
100
AcDbBlockEnd
  0
BLOCK
  5
21A89
330
21A7F
100
AcDbEntity
  8
0
 48
50.0
100
AcDbBlockBegin
  2
*D23
 70
     1
 10
0.0
 20
0.0
 30
0.0
  3
*D23
  1

  0
LINE
  5
25251
330
21A7F
100
AcDbEntity
  8
寸法
 62
     0
 48
50.0
370
    -2
100
AcDbLine
 10
10438.6
 20
8527.807155537322
 30
0.0
 11
10438.6
 21
9094.716921185648
 31
0.0
  0
LINE
  5
25252
330
21A7F
100
AcDbEntity
  8
寸法
 62
     0
 48
50.0
370
    -2
100
AcDbLine
 10
9673.6
 20
7852.807155537322
 30
0.0
 11
9673.6
 21
9094.716921185648
 31
0.0
  0
LINE
  5
25253
330
21A7F
100
AcDbEntity
  8
寸法
 62
     0
 48
50.0
370
    -2
100
AcDbLine
 10
10438.6
 20
9034.716921185649
 30
0.0
 11
9673.6
 21
9034.716921185649
 31
0.0
  0
INSERT
  5
25254
330
21A7F
100
AcDbEntity
  8
寸法
 62
     0
 48
50.0
370
    -2
100
AcDbBlockReference
  2
_DOTSMALL
 10
10438.6
 20
9034.716921185649
 30
0.0
 41
100.0
 42
100.0
 43
100.0
  0
INSERT
  5
25255
330
21A7F
100
AcDbEntity
  8
寸法
 62
     0
 48
50.0
370
    -2
100
AcDbBlockReference
  2
_DOTSMALL
 10
9673.6
 20
9034.716921185649
 30
0.0
 41
100.0
 42
100.0
 43
100.0
 50
180.0
  0
MTEXT
  5
25256
330
21A7F
100
AcDbEntity
  8
寸法
 62
     7
 48
50.0
100
AcDbMText
 10
10056.1
 20
9134.716921185649
 30
0.0
 40
120.0
 41
0.0
 71
     5
 72
     1
  1
\A1;765
  7
STYLE1
 73
     1
 44
1.0
1001
ACAD
1000
MTEXTBEGIN
1070
    73
1070
     1
1070
    44
1040
1.0
1070
    74
1070
     0
1000
MTEXTEND
  0
POINT
  5
25257
330
21A7F
100
AcDbEntity
  8
DEFPOINTS
 62
     0
 48
50.0
100
AcDbPoint
 10
10438.6
 20
8507.807155537321
 30
0.0
  0
POINT
  5
25258
330
21A7F
100
AcDbEntity
  8
DEFPOINTS
 62
     0
 48
50.0
100
AcDbPoint
 10
9673.6
 20
7832.807155537321
 30
0.0
  0
POINT
  5
25259
330
21A7F
100
AcDbEntity
  8
DEFPOINTS
 62
     0
 48
50.0
100
AcDbPoint
 10
9673.6
 20
9034.716921185649
 30
0.0
  0
ENDBLK
  5
21A8A
330
21A7F
100
AcDbEntity
  8
0
 48
50.0
100
AcDbBlockEnd
  0
BLOCK
  5
21A94
330
21A8B
100
AcDbEntity
  8
0
 48
50.0
100
AcDbBlockBegin
  2
*D24
 70
     1
 10
0.0
 20
0.0
 30
0.0
  3
*D24
  1

  0
LINE
  5
25248
330
21A8B
100
AcDbEntity
  8
寸法
 62
     0
 48
50.0
370
    -2
100
AcDbLine
 10
9553.600000000001
 20
7632.807155537321
 30
0.0
 11
9249.531448609053
 21
7632.807155537321
 31
0.0
  0
LINE
  5
25249
330
21A8B
100
AcDbEntity
  8
寸法
 62
     0
 48
50.0
370
    -2
100
AcDbLine
 10
9134.157431058357
 20
8507.807155537323
 30
0.0
 11
9369.531448609052
 21
8507.807155537323
 31
0.0
  0
LINE
  5
2524A
330
21A8B
100
AcDbEntity
  8
寸法
 62
     0
 48
50.0
370
    -2
100
AcDbLine
 10
9309.531448609051
 20
7632.807155537321
 30
0.0
 11
9309.531448609051
 21
8507.807155537323
 31
0.0
  0
INSERT
  5
2524B
330
21A8B
100
AcDbEntity
  8
寸法
 62
     0
 48
50.0
370
    -2
100
AcDbBlockReference
  2
_DOTSMALL
 10
9309.531448609051
 20
7632.807155537321
 30
0.0
 41
100.0
 42
100.0
 43
100.0
 50
270.0
  0
INSERT
  5
2524C
330
21A8B
100
AcDbEntity
  8
寸法
 62
     0
 48
50.0
370
    -2
100
AcDbBlockReference
  2
_DOTSMALL
 10
9309.531448609051
 20
8507.807155537323
 30
0.0
 41
100.0
 42
100.0
 43
100.0
 50
90.0
  0
MTEXT
  5
2524D
330
21A8B
100
AcDbEntity
  8
寸法
 62
     7
 48
50.0
100
AcDbMText
 10
9209.53144860905
 20
8070.307155537323
 30
0.0
 40
120.0
 41
0.0
 71
     5
 72
     1
  1
\A1;875
  7
STYLE1
 11
0.0000000000000001
 21
1.0
 31
0.0
 73
     1
 44
1.0
1001
ACAD
1000
MTEXTBEGIN
1070
    73
1070
     1
1070
    44
1040
1.0
1070
    74
1070
     0
1000
MTEXTEND
  0
POINT
  5
2524E
330
21A8B
100
AcDbEntity
  8
DEFPOINTS
 62
     0
 48
50.0
100
AcDbPoint
 10
9573.6
 20
7632.807155537321
 30
0.0
  0
POINT
  5
2524F
330
21A8B
100
AcDbEntity
  8
DEFPOINTS
 62
     0
 48
50.0
100
AcDbPoint
 10
9114.157431058357
 20
8507.807155537323
 30
0.0
  0
POINT
  5
25250
330
21A8B
100
AcDbEntity
  8
DEFPOINTS
 62
     0
 48
50.0
100
AcDbPoint
 10
9309.531448609051
 20
8507.807155537323
 30
0.0
  0
ENDBLK
  5
21A95
330
21A8B
100
AcDbEntity
  8
0
 48
50.0
100
AcDbBlockEnd
  0
BLOCK
  5
21AAE
330
21AA3
100
AcDbEntity
  8
0
 48
50.0
100
AcDbBlockBegin
  2
*D25
 70
     1
 10
0.0
 20
0.0
 30
0.0
  3
*D25
  1

  0
LINE
  5
2523E
330
21AA3
100
AcDbEntity
  8
寸法
 62
     0
 48
50.0
370
    -2
100
AcDbLine
 10
10438.6
 20
8527.807155537322
 30
0.0
 11
10438.6
 21
9313.566782079403
 31
0.0
  0
LINE
  5
2523F
330
21AA3
100
AcDbEntity
  8
寸法
 62
     0
 48
50.0
370
    -2
100
AcDbLine
 10
10315.6
 20
8454.807155537322
 30
0.0
 11
10315.6
 21
9313.566782079403
 31
0.0
  0
LINE
  5
25240
330
21AA3
100
AcDbEntity
  8
寸法
 62
     0
 48
50.0
370
    -2
100
AcDbLine
 10
10315.6
 20
9253.566782079404
 30
0.0
 11
10438.6
 21
9253.566782079404
 31
0.0
  0
LINE
  5
25241
330
21AA3
100
AcDbEntity
  8
寸法
 62
     0
 48
50.0
370
    -2
100
AcDbLine
 10
10438.6
 20
9253.566782079404
 30
0.0
 11
10850.19188309204
 21
9253.566782079404
 31
0.0
  0
INSERT
  5
25242
330
21AA3
100
AcDbEntity
  8
寸法
 62
     0
 48
50.0
370
    -2
100
AcDbBlockReference
  2
_DOTSMALL
 10
10315.6
 20
9253.566782079404
 30
0.0
 41
100.0
 42
100.0
 43
100.0
 50
180.0
  0
INSERT
  5
25243
330
21AA3
100
AcDbEntity
  8
寸法
 62
     0
 48
50.0
370
    -2
100
AcDbBlockReference
  2
_DOTSMALL
 10
10438.6
 20
9253.566782079404
 30
0.0
 41
100.0
 42
100.0
 43
100.0
  0
MTEXT
  5
25244
330
21AA3
100
AcDbEntity
  8
寸法
 62
     7
 48
50.0
100
AcDbMText
 10
10711.7066017178
 20
9353.578593103026
 30
0.0
 40
120.0
 41
0.0
 71
     5
 72
     1
  1
\A1;123
  7
STYLE1
 73
     1
 44
1.0
1001
ACAD
1000
MTEXTBEGIN
1070
    73
1070
     1
1070
    44
1040
1.0
1070
    74
1070
     0
1000
MTEXTEND
  0
POINT
  5
25245
330
21AA3
100
AcDbEntity
  8
DEFPOINTS
 62
     0
 48
50.0
100
AcDbPoint
 10
10438.6
 20
8507.807155537321
 30
0.0
  0
POINT
  5
25246
330
21AA3
100
AcDbEntity
  8
DEFPOINTS
 62
     0
 48
50.0
100
AcDbPoint
 10
10315.6
 20
8434.80715553732
 30
0.0
  0
POINT
  5
25247
330
21AA3
100
AcDbEntity
  8
DEFPOINTS
 62
     0
 48
50.0
100
AcDbPoint
 10
10315.6
 20
9253.566782079404
 30
0.0
  0
ENDBLK
  5
21AAF
330
21AA3
100
AcDbEntity
  8
0
 48
50.0
100
AcDbBlockEnd
  0
BLOCK
  5
21ABB
330
21AB0
100
AcDbEntity
  8
0
 48
50.0
100
AcDbBlockBegin
  2
*D26
 70
     1
 10
0.0
 20
0.0
 30
0.0
  3
*D26
  1

  0
LINE
  5
25234
330
21AB0
100
AcDbEntity
  8
寸法
 62
     0
 48
50.0
370
    -2
100
AcDbLine
 10
10438.6
 20
8257.807155537323
 30
0.0
 11
10438.6
 21
7936.78136459866
 31
0.0
  0
LINE
  5
25235
330
21AB0
100
AcDbEntity
  8
寸法
 62
     0
 48
50.0
370
    -2
100
AcDbLine
 10
10318.6
 20
8257.807155537323
 30
0.0
 11
10318.6
 21
7936.78136459866
 31
0.0
  0
LINE
  5
25236
330
21AB0
100
AcDbEntity
  8
寸法
 62
     0
 48
50.0
370
    -2
100
AcDbLine
 10
10318.6
 20
7996.78136459866
 30
0.0
 11
10438.6
 21
7996.78136459866
 31
0.0
  0
LINE
  5
25237
330
21AB0
100
AcDbEntity
  8
寸法
 62
     0
 48
50.0
370
    -2
100
AcDbLine
 10
10438.6
 20
7996.78136459866
 30
0.0
 11
10844.7062992126
 21
7996.78136459866
 31
0.0
  0
INSERT
  5
25238
330
21AB0
100
AcDbEntity
  8
寸法
 62
     0
 48
50.0
370
    -2
100
AcDbBlockReference
  2
_DOTSMALL
 10
10318.6
 20
7996.78136459866
 30
0.0
 41
100.0
 42
100.0
 43
100.0
 50
180.0
  0
INSERT
  5
25239
330
21AB0
100
AcDbEntity
  8
寸法
 62
     0
 48
50.0
370
    -2
100
AcDbBlockReference
  2
_DOTSMALL
 10
10438.6
 20
7996.78136459866
 30
0.0
 41
100.0
 42
100.0
 43
100.0
  0
MTEXT
  5
2523A
330
21AB0
100
AcDbEntity
  8
寸法
 62
     7
 48
50.0
100
AcDbMText
 10
10708.65905511811
 20
8096.793175622281
 30
0.0
 40
120.0
 41
0.0
 71
     5
 72
     1
  1
\A1;120
  7
STYLE1
 73
     1
 44
1.0
1001
ACAD
1000
MTEXTBEGIN
1070
    73
1070
     1
1070
    44
1040
1.0
1070
    74
1070
     0
1000
MTEXTEND
  0
POINT
  5
2523B
330
21AB0
100
AcDbEntity
  8
DEFPOINTS
 62
     0
 48
50.0
100
AcDbPoint
 10
10438.6
 20
8277.807155537322
 30
0.0
  0
POINT
  5
2523C
330
21AB0
100
AcDbEntity
  8
DEFPOINTS
 62
     0
 48
50.0
100
AcDbPoint
 10
10318.6
 20
8277.807155537322
 30
0.0
  0
POINT
  5
2523D
330
21AB0
100
AcDbEntity
  8
DEFPOINTS
 62
     0
 48
50.0
100
AcDbPoint
 10
10318.6
 20
7996.78136459866
 30
0.0
  0
ENDBLK
  5
21ABC
330
21AB0
100
AcDbEntity
  8
0
 48
50.0
100
AcDbBlockEnd
  0
BLOCK
  5
21AED
330
21AE2
100
AcDbEntity
  8
0
 48
50.0
100
AcDbBlockBegin
  2
*D27
 70
     1
 10
0.0
 20
0.0
 30
0.0
  3
*D27
  1

  0
LINE
  5
252C2
330
21AE2
100
AcDbEntity
  8
寸法
 62
     0
 48
50.0
370
    -2
100
AcDbLine
 10
6061.600000000009
 20
5990.807155537321
 30
0.0
 11
5452.657733986178
 21
5990.807155537321
 31
0.0
  0
LINE
  5
252C3
330
21AE2
100
AcDbEntity
  8
寸法
 62
     0
 48
50.0
370
    -2
100
AcDbLine
 10
5988.600000000001
 20
5867.80715553732
 30
0.0
 11
5452.657733986178
 21
5867.80715553732
 31
0.0
  0
LINE
  5
252C4
330
21AE2
100
AcDbEntity
  8
寸法
 62
     0
 48
50.0
370
    -2
100
AcDbLine
 10
5512.657733986179
 20
5990.807155537321
 30
0.0
 11
5512.657733986179
 21
5867.80715553732
 31
0.0
  0
LINE
  5
252C5
330
21AE2
100
AcDbEntity
  8
寸法
 62
     0
 48
50.0
370
    -2
100
AcDbLine
 10
5512.657733986179
 20
5867.80715553732
 30
0.0
 11
5512.657733986179
 21
5393.790925320489
 31
0.0
  0
INSERT
  5
252C6
330
21AE2
100
AcDbEntity
  8
寸法
 62
     0
 48
50.0
370
    -2
100
AcDbBlockReference
  2
_DOTSMALL
 10
5512.657733986179
 20
5990.807155537321
 30
0.0
 41
100.0
 42
100.0
 43
100.0
 50
90.0
  0
INSERT
  5
252C7
330
21AE2
100
AcDbEntity
  8
寸法
 62
     0
 48
50.0
370
    -2
100
AcDbBlockReference
  2
_DOTSMALL
 10
5512.657733986179
 20
5867.80715553732
 30
0.0
 41
100.0
 42
100.0
 43
100.0
 50
270.0
  0
MTEXT
  5
252C8
330
21AE2
100
AcDbEntity
  8
寸法
 62
     7
 48
50.0
100
AcDbMText
 10
5412.645922962556
 20
5532.276206694729
 30
0.0
 40
120.0
 41
0.0
 71
     5
 72
     1
  1
\A1;123
  7
STYLE1
 11
0.0000000000000001
 21
1.0
 31
0.0
 73
     1
 44
1.0
1001
ACAD
1000
MTEXTBEGIN
1070
    73
1070
     1
1070
    44
1040
1.0
1070
    74
1070
     0
1000
MTEXTEND
  0
POINT
  5
252C9
330
21AE2
100
AcDbEntity
  8
DEFPOINTS
 62
     0
 48
50.0
100
AcDbPoint
 10
6081.600000000008
 20
5990.807155537321
 30
0.0
  0
POINT
  5
252CA
330
21AE2
100
AcDbEntity
  8
DEFPOINTS
 62
     0
 48
50.0
100
AcDbPoint
 10
6008.600000000001
 20
5867.80715553732
 30
0.0
  0
POINT
  5
252CB
330
21AE2
100
AcDbEntity
  8
DEFPOINTS
 62
     0
 48
50.0
100
AcDbPoint
 10
5512.657733986179
 20
5867.80715553732
 30
0.0
  0
ENDBLK
  5
21AEE
330
21AE2
100
AcDbEntity
  8
0
 48
50.0
100
AcDbBlockEnd
  0
BLOCK
  5
21AF7
330
21AEF
100
AcDbEntity
  8
0
 48
50.0
100
AcDbBlockBegin
  2
*D28
 70
     1
 10
0.0
 20
0.0
 30
0.0
  3
*D28
  1

  0
LINE
  5
252B9
330
21AEF
100
AcDbEntity
  8
寸法
 62
     0
 48
50.0
370
    -2
100
AcDbLine
 10
8235.600000000001
 20
6117.807155537338
 30
0.0
 11
8235.600000000001
 21
6351.781044834439
 31
0.0
  0
LINE
  5
252BA
330
21AEF
100
AcDbEntity
  8
寸法
 62
     0
 48
50.0
370
    -2
100
AcDbLine
 10
7975.6
 20
6117.807155537338
 30
0.0
 11
7975.6
 21
6351.781044834439
 31
0.0
  0
LINE
  5
252BB
330
21AEF
100
AcDbEntity
  8
寸法
 62
     0
 48
50.0
370
    -2
100
AcDbLine
 10
8235.600000000001
 20
6291.781044834438
 30
0.0
 11
7975.6
 21
6291.781044834438
 31
0.0
  0
INSERT
  5
252BC
330
21AEF
100
AcDbEntity
  8
寸法
 62
     0
 48
50.0
370
    -2
100
AcDbBlockReference
  2
_DOTSMALL
 10
8235.600000000001
 20
6291.781044834438
 30
0.0
 41
100.0
 42
100.0
 43
100.0
  0
INSERT
  5
252BD
330
21AEF
100
AcDbEntity
  8
寸法
 62
     0
 48
50.0
370
    -2
100
AcDbBlockReference
  2
_DOTSMALL
 10
7975.6
 20
6291.781044834438
 30
0.0
 41
100.0
 42
100.0
 43
100.0
 50
180.0
  0
MTEXT
  5
252BE
330
21AEF
100
AcDbEntity
  8
寸法
 62
     7
 48
50.0
100
AcDbMText
 10
8105.6
 20
6391.79285585806
 30
0.0
 40
120.0
 41
0.0
 71
     5
 72
     1
  1
\A1;260
  7
STYLE1
 73
     1
 44
1.0
1001
ACAD
1000
MTEXTBEGIN
1070
    73
1070
     1
1070
    44
1040
1.0
1070
    74
1070
     0
1000
MTEXTEND
  0
POINT
  5
252BF
330
21AEF
100
AcDbEntity
  8
DEFPOINTS
 62
     0
 48
50.0
100
AcDbPoint
 10
8235.600000000001
 20
6097.807155537338
 30
0.0
  0
POINT
  5
252C0
330
21AEF
100
AcDbEntity
  8
DEFPOINTS
 62
     0
 48
50.0
100
AcDbPoint
 10
7975.6
 20
6097.807155537338
 30
0.0
  0
POINT
  5
252C1
330
21AEF
100
AcDbEntity
  8
DEFPOINTS
 62
     0
 48
50.0
100
AcDbPoint
 10
7975.6
 20
6291.781044834438
 30
0.0
  0
ENDBLK
  5
21AF8
330
21AEF
100
AcDbEntity
  8
0
 48
50.0
100
AcDbBlockEnd
  0
BLOCK
  5
22286
330
2227C
100
AcDbEntity
  8
0
 48
50.0
100
AcDbBlockBegin
  2
*D29
 70
     1
 10
0.0
 20
0.0
 30
0.0
  3
*D29
  1

  0
LINE
  5
2522B
330
2227C
100
AcDbEntity
  8
寸法
 62
     0
 48
50.0
370
    -2
100
AcDbLine
 10
7463.600000000001
 20
7852.807155537322
 30
0.0
 11
7463.600000000001
 21
9094.716921185648
 31
0.0
  0
LINE
  5
2522C
330
2227C
100
AcDbEntity
  8
寸法
 62
     0
 48
50.0
370
    -2
100
AcDbLine
 10
6773.6
 20
7852.807155537322
 30
0.0
 11
6773.6
 21
9094.716921185648
 31
0.0
  0
LINE
  5
2522D
330
2227C
100
AcDbEntity
  8
寸法
 62
     0
 48
50.0
370
    -2
100
AcDbLine
 10
7463.600000000001
 20
9034.716921185649
 30
0.0
 11
6773.6
 21
9034.716921185649
 31
0.0
  0
INSERT
  5
2522E
330
2227C
100
AcDbEntity
  8
寸法
 62
     0
 48
50.0
370
    -2
100
AcDbBlockReference
  2
_DOTSMALL
 10
7463.600000000001
 20
9034.716921185649
 30
0.0
 41
100.0
 42
100.0
 43
100.0
  0
INSERT
  5
2522F
330
2227C
100
AcDbEntity
  8
寸法
 62
     0
 48
50.0
370
    -2
100
AcDbBlockReference
  2
_DOTSMALL
 10
6773.6
 20
9034.716921185649
 30
0.0
 41
100.0
 42
100.0
 43
100.0
 50
180.0
  0
MTEXT
  5
25230
330
2227C
100
AcDbEntity
  8
寸法
 62
     7
 48
50.0
100
AcDbMText
 10
7118.6
 20
9134.716921185649
 30
0.0
 40
120.0
 41
0.0
 71
     5
 72
     1
  1
\A1;690
  7
STYLE1
 73
     1
 44
1.0
1001
ACAD
1000
MTEXTBEGIN
1070
    73
1070
     1
1070
    44
1040
1.0
1070
    74
1070
     0
1000
MTEXTEND
  0
POINT
  5
25231
330
2227C
100
AcDbEntity
  8
DEFPOINTS
 62
     0
 48
50.0
100
AcDbPoint
 10
7463.600000000001
 20
7832.807155537321
 30
0.0
  0
POINT
  5
25232
330
2227C
100
AcDbEntity
  8
DEFPOINTS
 62
     0
 48
50.0
100
AcDbPoint
 10
6773.6
 20
7832.807155537321
 30
0.0
  0
POINT
  5
25233
330
2227C
100
AcDbEntity
  8
DEFPOINTS
 62
     0
 48
50.0
100
AcDbPoint
 10
6773.6
 20
9034.716921185649
 30
0.0
  0
ENDBLK
  5
22287
330
2227C
100
AcDbEntity
  8
0
 48
50.0
100
AcDbBlockEnd
  0
BLOCK
  5
222E0
330
222D6
100
AcDbEntity
  8
0
 48
50.0
100
AcDbBlockBegin
  2
*D30
 70
     1
 10
0.0
 20
0.0
 30
0.0
  3
*D30
  1

  0
LINE
  5
25222
330
222D6
100
AcDbEntity
  8
寸法
 62
     0
 48
50.0
370
    -2
100
AcDbLine
 10
9673.6
 20
7852.807155537322
 30
0.0
 11
9673.6
 21
9094.716921185648
 31
0.0
  0
LINE
  5
25223
330
222D6
100
AcDbEntity
  8
寸法
 62
     0
 48
50.0
370
    -2
100
AcDbLine
 10
8983.6
 20
7852.807155537322
 30
0.0
 11
8983.6
 21
9094.716921185648
 31
0.0
  0
LINE
  5
25224
330
222D6
100
AcDbEntity
  8
寸法
 62
     0
 48
50.0
370
    -2
100
AcDbLine
 10
9673.6
 20
9034.716921185649
 30
0.0
 11
8983.6
 21
9034.716921185649
 31
0.0
  0
INSERT
  5
25225
330
222D6
100
AcDbEntity
  8
寸法
 62
     0
 48
50.0
370
    -2
100
AcDbBlockReference
  2
_DOTSMALL
 10
9673.6
 20
9034.716921185649
 30
0.0
 41
100.0
 42
100.0
 43
100.0
  0
INSERT
  5
25226
330
222D6
100
AcDbEntity
  8
寸法
 62
     0
 48
50.0
370
    -2
100
AcDbBlockReference
  2
_DOTSMALL
 10
8983.6
 20
9034.716921185649
 30
0.0
 41
100.0
 42
100.0
 43
100.0
 50
180.0
  0
MTEXT
  5
25227
330
222D6
100
AcDbEntity
  8
寸法
 62
     7
 48
50.0
100
AcDbMText
 10
9328.599999999999
 20
9134.716921185649
 30
0.0
 40
120.0
 41
0.0
 71
     5
 72
     1
  1
\A1;690
  7
STYLE1
 73
     1
 44
1.0
1001
ACAD
1000
MTEXTBEGIN
1070
    73
1070
     1
1070
    44
1040
1.0
1070
    74
1070
     0
1000
MTEXTEND
  0
POINT
  5
25228
330
222D6
100
AcDbEntity
  8
DEFPOINTS
 62
     0
 48
50.0
100
AcDbPoint
 10
9673.6
 20
7832.807155537321
 30
0.0
  0
POINT
  5
25229
330
222D6
100
AcDbEntity
  8
DEFPOINTS
 62
     0
 48
50.0
100
AcDbPoint
 10
8983.6
 20
7832.807155537321
 30
0.0
  0
POINT
  5
2522A
330
222D6
100
AcDbEntity
  8
DEFPOINTS
 62
     0
 48
50.0
100
AcDbPoint
 10
8983.6
 20
9034.716921185649
 30
0.0
  0
ENDBLK
  5
222E1
330
222D6
100
AcDbEntity
  8
0
 48
50.0
100
AcDbBlockEnd
  0
BLOCK
  5
246C4
330
246B8
100
AcDbEntity
  8
0
 48
50.0
100
AcDbBlockBegin
  2
*D31
 70
     1
 10
0.0
 20
0.0
 30
0.0
  3
*D31
  1

  0
LINE
  5
25218
330
246B8
100
AcDbEntity
  8
寸法
 62
     0
 48
50.0
370
    -2
100
AcDbLine
 10
6258.600000000001
 20
5987.807155537325
 30
0.0
 11
6501.316884067375
 21
5987.807155537325
 31
0.0
  0
LINE
  5
25219
330
246B8
100
AcDbEntity
  8
寸法
 62
     0
 48
50.0
370
    -2
100
AcDbLine
 10
6258.600000000001
 20
5792.80715553731
 30
0.0
 11
6501.316884067375
 21
5792.80715553731
 31
0.0
  0
LINE
  5
2521A
330
246B8
100
AcDbEntity
  8
寸法
 62
     0
 48
50.0
370
    -2
100
AcDbLine
 10
6441.316884067376
 20
5987.807155537325
 30
0.0
 11
6441.316884067376
 21
5792.80715553731
 31
0.0
  0
LINE
  5
2521B
330
246B8
100
AcDbEntity
  8
寸法
 62
     0
 48
50.0
370
    -2
100
AcDbLine
 10
6441.316884067376
 20
5792.80715553731
 30
0.0
 11
6441.316884067376
 21
5415.41727312952
 31
0.0
  0
INSERT
  5
2521C
330
246B8
100
AcDbEntity
  8
寸法
 62
     0
 48
50.0
370
    -2
100
AcDbBlockReference
  2
_DOTSMALL
 10
6441.316884067376
 20
5987.807155537325
 30
0.0
 41
100.0
 42
100.0
 43
100.0
 50
90.0
  0
INSERT
  5
2521D
330
246B8
100
AcDbEntity
  8
寸法
 62
     0
 48
50.0
370
    -2
100
AcDbBlockReference
  2
_DOTSMALL
 10
6441.316884067376
 20
5792.80715553731
 30
0.0
 41
100.0
 42
100.0
 43
100.0
 50
270.0
  0
MTEXT
  5
2521E
330
246B8
100
AcDbEntity
  8
寸法
 62
     7
 48
50.0
100
AcDbMText
 10
6341.316884067375
 20
5554.112214333418
 30
0.0
 40
120.0
 41
0.0
 71
     5
 72
     1
  1
\A1;195
  7
STYLE1
 11
0.0000000000000001
 21
1.0
 31
0.0
 73
     1
 44
1.0
1001
ACAD
1000
MTEXTBEGIN
1070
    73
1070
     1
1070
    44
1040
1.0
1070
    74
1070
     0
1000
MTEXTEND
  0
POINT
  5
2521F
330
246B8
100
AcDbEntity
  8
DEFPOINTS
 62
     0
 48
50.0
100
AcDbPoint
 10
6238.6
 20
5987.807155537325
 30
0.0
  0
POINT
  5
25220
330
246B8
100
AcDbEntity
  8
DEFPOINTS
 62
     0
 48
50.0
100
AcDbPoint
 10
6238.600000000001
 20
5792.80715553731
 30
0.0
  0
POINT
  5
25221
330
246B8
100
AcDbEntity
  8
DEFPOINTS
 62
     0
 48
50.0
100
AcDbPoint
 10
6441.316884067376
 20
5792.80715553731
 30
0.0
  0
ENDBLK
  5
246C5
330
246B8
100
AcDbEntity
  8
0
 48
50.0
100
AcDbBlockEnd
  0
BLOCK
  5
24A71
330
24A65
100
AcDbEntity
  8
0
 48
50.0
100
AcDbBlockBegin
  2
*D32
 70
     1
 10
0.0
 20
0.0
 30
0.0
  3
*D32
  1

  0
LINE
  5
2520D
330
24A65
100
AcDbEntity
  8
寸法
 62
     0
 48
50.0
370
    -2
100
AcDbLine
 10
5988.600000000001
 20
5792.80715553736
 30
0.0
 11
5712.312481891146
 21
5792.80715553736
 31
0.0
  0
LINE
  5
2520E
330
24A65
100
AcDbEntity
  8
寸法
 62
     0
 48
50.0
370
    -2
100
AcDbLine
 10
5988.600000000008
 20
5867.807155537362
 30
0.0
 11
5712.312481891146
 21
5867.807155537362
 31
0.0
  0
LINE
  5
2520F
330
24A65
100
AcDbEntity
  8
寸法
 62
     0
 48
50.0
370
    -2
100
AcDbLine
 10
5772.312481891145
 20
5867.807155537362
 30
0.0
 11
5772.312481891145
 21
5967.807155537362
 31
0.0
  0
LINE
  5
25210
330
24A65
100
AcDbEntity
  8
寸法
 62
     0
 48
50.0
370
    -2
100
AcDbLine
 10
5772.312481891145
 20
5792.80715553736
 30
0.0
 11
5772.312481891145
 21
4925.836592788881
 31
0.0
  0
LINE
  5
25211
330
24A65
100
AcDbEntity
  8
寸法
 62
     0
 48
50.0
370
    -2
100
AcDbLine
 10
5772.312481891145
 20
5867.807155537362
 30
0.0
 11
5772.312481891145
 21
5792.80715553736
 31
0.0
  0
INSERT
  5
25212
330
24A65
100
AcDbEntity
  8
寸法
 62
     0
 48
50.0
370
    -2
100
AcDbBlockReference
  2
_DOTSMALL
 10
5772.312481891145
 20
5867.807155537362
 30
0.0
 41
100.0
 42
100.0
 43
100.0
 50
270.0
  0
INSERT
  5
25213
330
24A65
100
AcDbEntity
  8
寸法
 62
     0
 48
50.0
370
    -2
100
AcDbBlockReference
  2
_DOTSMALL
 10
5772.312481891145
 20
5792.80715553736
 30
0.0
 41
100.0
 42
100.0
 43
100.0
 50
90.0
  0
MTEXT
  5
25214
330
24A65
100
AcDbEntity
  8
寸法
 62
     7
 48
50.0
100
AcDbMText
 10
5672.312481891145
 20
5259.321874163121
 30
0.0
 40
120.0
 41
0.0
 71
     5
 72
     1
  1
\A1;扉の出75
  7
STYLE1
 11
0.0000000000000001
 21
1.0
 31
0.0
 73
     1
 44
1.0
1001
ACAD
1000
MTEXTBEGIN
1070
    73
1070
     1
1070
    44
1040
1.0
1070
    74
1070
     0
1000
MTEXTEND
  0
POINT
  5
25215
330
24A65
100
AcDbEntity
  8
DEFPOINTS
 62
     0
 48
50.0
100
AcDbPoint
 10
6008.600000000001
 20
5792.80715553736
 30
0.0
  0
POINT
  5
25216
330
24A65
100
AcDbEntity
  8
DEFPOINTS
 62
     0
 48
50.0
100
AcDbPoint
 10
6008.600000000008
 20
5867.807155537362
 30
0.0
  0
POINT
  5
25217
330
24A65
100
AcDbEntity
  8
DEFPOINTS
 62
     0
 48
50.0
100
AcDbPoint
 10
5772.312481891145
 20
5867.807155537362
 30
0.0
  0
ENDBLK
  5
24A72
330
24A65
100
AcDbEntity
  8
0
 48
50.0
100
AcDbBlockEnd
  0
BLOCK
  5
24A7D
330
24A73
100
AcDbEntity
  8
0
 48
50.0
100
AcDbBlockBegin
  2
*D33
 70
     1
 10
0.0
 20
0.0
 30
0.0
  3
*D33
  1

  0
LINE
  5
25204
330
24A73
100
AcDbEntity
  8
寸法
 62
     0
 48
50.0
370
    -2
100
AcDbLine
 10
8196.600000000001
 20
5772.807155537342
 30
0.0
 11
8196.600000000001
 21
5128.821425718582
 31
0.0
  0
LINE
  5
25205
330
24A73
100
AcDbEntity
  8
寸法
 62
     0
 48
50.0
370
    -2
100
AcDbLine
 10
6008.600000000001
 20
5772.807155537325
 30
0.0
 11
6008.600000000001
 21
5128.821425718582
 31
0.0
  0
LINE
  5
25206
330
24A73
100
AcDbEntity
  8
寸法
 62
     0
 48
50.0
370
    -2
100
AcDbLine
 10
8196.600000000001
 20
5188.821425718582
 30
0.0
 11
6008.600000000001
 21
5188.821425718582
 31
0.0
  0
INSERT
  5
25207
330
24A73
100
AcDbEntity
  8
寸法
 62
     0
 48
50.0
370
    -2
100
AcDbBlockReference
  2
_DOTSMALL
 10
8196.600000000001
 20
5188.821425718582
 30
0.0
 41
100.0
 42
100.0
 43
100.0
  0
INSERT
  5
25208
330
24A73
100
AcDbEntity
  8
寸法
 62
     0
 48
50.0
370
    -2
100
AcDbBlockReference
  2
_DOTSMALL
 10
6008.600000000001
 20
5188.821425718582
 30
0.0
 41
100.0
 42
100.0
 43
100.0
 50
180.0
  0
MTEXT
  5
25209
330
24A73
100
AcDbEntity
  8
寸法
 62
     7
 48
50.0
100
AcDbMText
 10
7098.766762832856
 20
5288.833236742203
 30
0.0
 40
120.0
 41
0.0
 71
     5
 72
     1
  1
\A1;扉の幅 2188
  7
STYLE1
 73
     1
 44
1.0
1001
ACAD
1000
MTEXTBEGIN
1070
    73
1070
     1
1070
    44
1040
1.0
1070
    74
1070
     0
1000
MTEXTEND
  0
POINT
  5
2520A
330
24A73
100
AcDbEntity
  8
DEFPOINTS
 62
     0
 48
50.0
100
AcDbPoint
 10
8196.600000000001
 20
5792.807155537342
 30
0.0
  0
POINT
  5
2520B
330
24A73
100
AcDbEntity
  8
DEFPOINTS
 62
     0
 48
50.0
100
AcDbPoint
 10
6008.600000000001
 20
5792.807155537325
 30
0.0
  0
POINT
  5
2520C
330
24A73
100
AcDbEntity
  8
DEFPOINTS
 62
     0
 48
50.0
100
AcDbPoint
 10
6008.600000000001
 20
5188.821425718582
 30
0.0
  0
ENDBLK
  5
24A7E
330
24A73
100
AcDbEntity
  8
0
 48
50.0
100
AcDbBlockEnd
  0
BLOCK
  5
250B5
330
250AC
100
AcDbEntity
  8
0
 48
50.0
100
AcDbBlockBegin
  2
*D34
 70
     1
 10
0.0
 20
0.0
 30
0.0
  3
*D34
  1

  0
LINE
  5
251FB
330
250AC
100
AcDbEntity
  8
寸法
 62
     0
 48
50.0
370
    -2
100
AcDbLine
 10
8065.391820363887
 20
1922.971436712056
 30
0.0
 11
8732.72757007494
 21
1922.971436712056
 31
0.0
  0
LINE
  5
251FC
330
250AC
100
AcDbEntity
  8
寸法
 62
     0
 48
50.0
370
    -2
100
AcDbLine
 10
8065.391820363887
 20
1517.971436712054
 30
0.0
 11
8732.72757007494
 21
1517.971436712054
 31
0.0
  0
LINE
  5
251FD
330
250AC
100
AcDbEntity
  8
寸法
 62
     0
 48
50.0
370
    -2
100
AcDbLine
 10
8672.72757007494
 20
1922.971436712056
 30
0.0
 11
8672.72757007494
 21
1517.971436712054
 31
0.0
  0
INSERT
  5
251FE
330
250AC
100
AcDbEntity
  8
寸法
 62
     0
 48
50.0
370
    -2
100
AcDbBlockReference
  2
_DOTSMALL
 10
8672.72757007494
 20
1922.971436712056
 30
0.0
 41
100.0
 42
100.0
 43
100.0
 50
90.0
  0
INSERT
  5
251FF
330
250AC
100
AcDbEntity
  8
寸法
 62
     0
 48
50.0
370
    -2
100
AcDbBlockReference
  2
_DOTSMALL
 10
8672.72757007494
 20
1517.971436712054
 30
0.0
 41
100.0
 42
100.0
 43
100.0
 50
270.0
  0
MTEXT
  5
25200
330
250AC
100
AcDbEntity
  8
寸法
 62
     7
 48
50.0
100
AcDbMText
 10
8572.72757007494
 20
1720.471436712056
 30
0.0
 40
120.0
 41
0.0
 71
     5
 72
     1
  1
\A1;180
  7
STYLE1
 11
0.0000000000000001
 21
1.0
 31
0.0
 73
     1
 44
1.0
1001
ACAD
1000
MTEXTBEGIN
1070
    73
1070
     1
1070
    44
1040
1.0
1070
    74
1070
     0
1000
MTEXTEND
  0
POINT
  5
25201
330
250AC
100
AcDbEntity
  8
DEFPOINTS
 62
     0
 48
50.0
100
AcDbPoint
 10
8045.391820363887
 20
1922.971436712056
 30
0.0
  0
POINT
  5
25202
330
250AC
100
AcDbEntity
  8
DEFPOINTS
 62
     0
 48
50.0
100
AcDbPoint
 10
8045.391820363887
 20
1517.971436712054
 30
0.0
  0
POINT
  5
25203
330
250AC
100
AcDbEntity
  8
DEFPOINTS
 62
     0
 48
50.0
100
AcDbPoint
 10
8672.72757007494
 20
1517.971436712054
 30
0.0
  0
ENDBLK
  5
250B6
330
250AC
100
AcDbEntity
  8
0
 48
50.0
100
AcDbBlockEnd
  0
BLOCK
  5
250C3
330
250B7
100
AcDbEntity
  8
0
 48
50.0
100
AcDbBlockBegin
  2
*D35
 70
     1
 10
0.0
 20
0.0
 30
0.0
  3
*D35
  1

  0
LINE
  5
251F0
330
250B7
100
AcDbEntity
  8
寸法
 62
     0
 48
50.0
370
    -2
100
AcDbLine
 10
7831.391820363885
 20
1988.921436712056
 30
0.0
 11
9077.795902723719
 21
1988.921436712056
 31
0.0
  0
LINE
  5
251F1
330
250B7
100
AcDbEntity
  8
寸法
 62
     0
 48
50.0
370
    -2
100
AcDbLine
 10
8065.391820363887
 20
1922.971436712056
 30
0.0
 11
9077.795902723719
 21
1922.971436712056
 31
0.0
  0
LINE
  5
251F2
330
250B7
100
AcDbEntity
  8
寸法
 62
     0
 48
50.0
370
    -2
100
AcDbLine
 10
9017.795902723719
 20
1988.921436712056
 30
0.0
 11
9017.795902723719
 21
2088.921436712056
 31
0.0
  0
LINE
  5
251F3
330
250B7
100
AcDbEntity
  8
寸法
 62
     0
 48
50.0
370
    -2
100
AcDbLine
 10
9017.795902723719
 20
1922.971436712056
 30
0.0
 11
9017.795902723719
 21
1190.95362986909
 31
0.0
  0
LINE
  5
251F4
330
250B7
100
AcDbEntity
  8
寸法
 62
     0
 48
50.0
370
    -2
100
AcDbLine
 10
9017.795902723719
 20
1988.921436712056
 30
0.0
 11
9017.795902723719
 21
1922.971436712056
 31
0.0
  0
INSERT
  5
251F5
330
250B7
100
AcDbEntity
  8
寸法
 62
     0
 48
50.0
370
    -2
100
AcDbBlockReference
  2
_DOTSMALL
 10
9017.795902723719
 20
1988.921436712056
 30
0.0
 41
100.0
 42
100.0
 43
100.0
 50
270.0
  0
INSERT
  5
251F6
330
250B7
100
AcDbEntity
  8
寸法
 62
     0
 48
50.0
370
    -2
100
AcDbBlockReference
  2
_DOTSMALL
 10
9017.795902723719
 20
1922.971436712056
 30
0.0
 41
100.0
 42
100.0
 43
100.0
 50
90.0
  0
MTEXT
  5
251F7
330
250B7
100
AcDbEntity
  8
寸法
 62
     7
 48
50.0
100
AcDbMText
 10
8917.784091700097
 20
1456.962533290574
 30
0.0
 40
120.0
 41
0.0
 71
     5
 72
     1
  1
\A1;20～25
  7
STYLE1
 11
0.0000000000000001
 21
1.0
 31
0.0
 73
     1
 44
1.0
1001
ACAD
1000
MTEXTBEGIN
1070
    73
1070
     1
1070
    44
1040
1.0
1070
    74
1070
     0
1000
MTEXTEND
  0
POINT
  5
251F8
330
250B7
100
AcDbEntity
  8
DEFPOINTS
 62
     0
 48
50.0
100
AcDbPoint
 10
7811.391820363884
 20
1988.921436712056
 30
0.0
  0
POINT
  5
251F9
330
250B7
100
AcDbEntity
  8
DEFPOINTS
 62
     0
 48
50.0
100
AcDbPoint
 10
8045.391820363887
 20
1922.971436712056
 30
0.0
  0
POINT
  5
251FA
330
250B7
100
AcDbEntity
  8
DEFPOINTS
 62
     0
 48
50.0
100
AcDbPoint
 10
9017.795902723719
 20
1922.971436712056
 30
0.0
  0
ENDBLK
  5
250C4
330
250B7
100
AcDbEntity
  8
0
 48
50.0
100
AcDbBlockEnd
  0
BLOCK
  5
250CF
330
250C5
100
AcDbEntity
  8
0
 48
50.0
100
AcDbBlockBegin
  2
*D36
 70
     1
 10
0.0
 20
0.0
 30
0.0
  3
*D36
  1

  0
LINE
  5
251E7
330
250C5
100
AcDbEntity
  8
寸法
 62
     0
 48
50.0
370
    -2
100
AcDbLine
 10
5382.842678892391
 20
1922.971436712056
 30
0.0
 11
4582.197740856327
 21
1922.971436712056
 31
0.0
  0
LINE
  5
251E8
330
250C5
100
AcDbEntity
  8
寸法
 62
     0
 48
50.0
370
    -2
100
AcDbLine
 10
5122.842678892396
 20
942.971436712056
 30
0.0
 11
4582.197740856327
 21
942.971436712056
 31
0.0
  0
LINE
  5
251E9
330
250C5
100
AcDbEntity
  8
寸法
 62
     0
 48
50.0
370
    -2
100
AcDbLine
 10
4642.197740856327
 20
1922.971436712056
 30
0.0
 11
4642.197740856327
 21
942.971436712056
 31
0.0
  0
INSERT
  5
251EA
330
250C5
100
AcDbEntity
  8
寸法
 62
     0
 48
50.0
370
    -2
100
AcDbBlockReference
  2
_DOTSMALL
 10
4642.197740856327
 20
1922.971436712056
 30
0.0
 41
100.0
 42
100.0
 43
100.0
 50
90.0
  0
INSERT
  5
251EB
330
250C5
100
AcDbEntity
  8
寸法
 62
     0
 48
50.0
370
    -2
100
AcDbBlockReference
  2
_DOTSMALL
 10
4642.197740856327
 20
942.971436712056
 30
0.0
 41
100.0
 42
100.0
 43
100.0
 50
270.0
  0
MTEXT
  5
251EC
330
250C5
100
AcDbEntity
  8
寸法
 62
     7
 48
50.0
100
AcDbMText
 10
4542.197740856327
 20
1432.971436712056
 30
0.0
 40
120.0
 41
0.0
 71
     5
 72
     1
  1
\A1;540
  7
STYLE1
 11
0.0000000000000001
 21
1.0
 31
0.0
 73
     1
 44
1.0
1001
ACAD
1000
MTEXTBEGIN
1070
    73
1070
     1
1070
    44
1040
1.0
1070
    74
1070
     0
1000
MTEXTEND
  0
POINT
  5
251ED
330
250C5
100
AcDbEntity
  8
DEFPOINTS
 62
     0
 48
50.0
100
AcDbPoint
 10
5402.84267889239
 20
1922.971436712056
 30
0.0
  0
POINT
  5
251EE
330
250C5
100
AcDbEntity
  8
DEFPOINTS
 62
     0
 48
50.0
100
AcDbPoint
 10
5142.842678892396
 20
942.971436712056
 30
0.0
  0
POINT
  5
251EF
330
250C5
100
AcDbEntity
  8
DEFPOINTS
 62
     0
 48
50.0
100
AcDbPoint
 10
4642.197740856327
 20
942.971436712056
 30
0.0
  0
ENDBLK
  5
250D0
330
250C5
100
AcDbEntity
  8
0
 48
50.0
100
AcDbBlockEnd
  0
BLOCK
  5
250DB
330
250D1
100
AcDbEntity
  8
0
 48
50.0
100
AcDbBlockBegin
  2
*D37
 70
     1
 10
0.0
 20
0.0
 30
0.0
  3
*D37
  1

  0
LINE
  5
251DE
330
250D1
100
AcDbEntity
  8
寸法
 62
     0
 48
50.0
370
    -2
100
AcDbLine
 10
5242.84267889239
 20
762.9714367120558
 30
0.0
 11
5242.84267889239
 21
424.0193302561219
 31
0.0
  0
LINE
  5
251DF
330
250D1
100
AcDbEntity
  8
寸法
 62
     0
 48
50.0
370
    -2
100
AcDbLine
 10
5802.842678892393
 20
762.9714367120558
 30
0.0
 11
5802.842678892393
 21
424.0193302561219
 31
0.0
  0
LINE
  5
251E0
330
250D1
100
AcDbEntity
  8
寸法
 62
     0
 48
50.0
370
    -2
100
AcDbLine
 10
5242.84267889239
 20
484.0193302561218
 30
0.0
 11
5802.842678892393
 21
484.0193302561218
 31
0.0
  0
INSERT
  5
251E1
330
250D1
100
AcDbEntity
  8
寸法
 62
     0
 48
50.0
370
    -2
100
AcDbBlockReference
  2
_DOTSMALL
 10
5242.84267889239
 20
484.0193302561218
 30
0.0
 41
100.0
 42
100.0
 43
100.0
 50
180.0
  0
INSERT
  5
251E2
330
250D1
100
AcDbEntity
  8
寸法
 62
     0
 48
50.0
370
    -2
100
AcDbBlockReference
  2
_DOTSMALL
 10
5802.842678892393
 20
484.0193302561218
 30
0.0
 41
100.0
 42
100.0
 43
100.0
  0
MTEXT
  5
251E3
330
250D1
100
AcDbEntity
  8
寸法
 62
     7
 48
50.0
100
AcDbMText
 10
5522.842678892391
 20
584.0193302561219
 30
0.0
 40
120.0
 41
0.0
 71
     5
 72
     1
  1
\A1;300
  7
STYLE1
 73
     1
 44
1.0
1001
ACAD
1000
MTEXTBEGIN
1070
    73
1070
     1
1070
    44
1040
1.0
1070
    74
1070
     0
1000
MTEXTEND
  0
POINT
  5
251E4
330
250D1
100
AcDbEntity
  8
DEFPOINTS
 62
     0
 48
50.0
100
AcDbPoint
 10
5242.84267889239
 20
782.9714367120558
 30
0.0
  0
POINT
  5
251E5
330
250D1
100
AcDbEntity
  8
DEFPOINTS
 62
     0
 48
50.0
100
AcDbPoint
 10
5802.842678892393
 20
782.9714367120558
 30
0.0
  0
POINT
  5
251E6
330
250D1
100
AcDbEntity
  8
DEFPOINTS
 62
     0
 48
50.0
100
AcDbPoint
 10
5802.842678892393
 20
484.0193302561218
 30
0.0
  0
ENDBLK
  5
250DC
330
250D1
100
AcDbEntity
  8
0
 48
50.0
100
AcDbBlockEnd
  0
BLOCK
  5
250E7
330
250DD
100
AcDbEntity
  8
0
 48
50.0
100
AcDbBlockBegin
  2
*D38
 70
     1
 10
0.0
 20
0.0
 30
0.0
  3
*D38
  1

  0
LINE
  5
251D5
330
250DD
100
AcDbEntity
  8
寸法
 62
     0
 48
50.0
370
    -2
100
AcDbLine
 10
5222.842678892391
 20
1242.971436712056
 30
0.0
 11
5004.817286726817
 21
1242.971436712056
 31
0.0
  0
LINE
  5
251D6
330
250DD
100
AcDbEntity
  8
寸法
 62
     0
 48
50.0
370
    -2
100
AcDbLine
 10
5122.842678892396
 20
942.971436712056
 30
0.0
 11
5004.817286726817
 21
942.971436712056
 31
0.0
  0
LINE
  5
251D7
330
250DD
100
AcDbEntity
  8
寸法
 62
     0
 48
50.0
370
    -2
100
AcDbLine
 10
5064.817286726817
 20
1242.971436712056
 30
0.0
 11
5064.817286726817
 21
942.971436712056
 31
0.0
  0
INSERT
  5
251D8
330
250DD
100
AcDbEntity
  8
寸法
 62
     0
 48
50.0
370
    -2
100
AcDbBlockReference
  2
_DOTSMALL
 10
5064.817286726817
 20
1242.971436712056
 30
0.0
 41
100.0
 42
100.0
 43
100.0
 50
90.0
  0
INSERT
  5
251D9
330
250DD
100
AcDbEntity
  8
寸法
 62
     0
 48
50.0
370
    -2
100
AcDbBlockReference
  2
_DOTSMALL
 10
5064.817286726817
 20
942.971436712056
 30
0.0
 41
100.0
 42
100.0
 43
100.0
 50
270.0
  0
MTEXT
  5
251DA
330
250DD
100
AcDbEntity
  8
寸法
 62
     7
 48
50.0
100
AcDbMText
 10
4964.817286726816
 20
1092.971436712056
 30
0.0
 40
120.0
 41
0.0
 71
     5
 72
     1
  1
\A1;150
  7
STYLE1
 11
0.0000000000000001
 21
1.0
 31
0.0
 73
     1
 44
1.0
1001
ACAD
1000
MTEXTBEGIN
1070
    73
1070
     1
1070
    44
1040
1.0
1070
    74
1070
     0
1000
MTEXTEND
  0
POINT
  5
251DB
330
250DD
100
AcDbEntity
  8
DEFPOINTS
 62
     0
 48
50.0
100
AcDbPoint
 10
5242.84267889239
 20
1242.971436712056
 30
0.0
  0
POINT
  5
251DC
330
250DD
100
AcDbEntity
  8
DEFPOINTS
 62
     0
 48
50.0
100
AcDbPoint
 10
5142.842678892396
 20
942.971436712056
 30
0.0
  0
POINT
  5
251DD
330
250DD
100
AcDbEntity
  8
DEFPOINTS
 62
     0
 48
50.0
100
AcDbPoint
 10
5064.817286726817
 20
942.971436712056
 30
0.0
  0
ENDBLK
  5
250E8
330
250DD
100
AcDbEntity
  8
0
 48
50.0
100
AcDbBlockEnd
  0
BLOCK
  5
250F3
330
250E9
100
AcDbEntity
  8
0
 48
50.0
100
AcDbBlockBegin
  2
*D39
 70
     1
 10
0.0
 20
0.0
 30
0.0
  3
*D39
  1

  0
LINE
  5
251CC
330
250E9
100
AcDbEntity
  8
寸法
 62
     0
 48
50.0
370
    -2
100
AcDbLine
 10
5642.842678892391
 20
1942.971436712056
 30
0.0
 11
5642.842678892391
 21
2382.971436712056
 31
0.0
  0
LINE
  5
251CD
330
250E9
100
AcDbEntity
  8
寸法
 62
     0
 48
50.0
370
    -2
100
AcDbLine
 10
5402.84267889239
 20
1942.971436712056
 30
0.0
 11
5402.84267889239
 21
2382.971436712056
 31
0.0
  0
LINE
  5
251CE
330
250E9
100
AcDbEntity
  8
寸法
 62
     0
 48
50.0
370
    -2
100
AcDbLine
 10
5642.842678892391
 20
2322.971436712056
 30
0.0
 11
5402.84267889239
 21
2322.971436712056
 31
0.0
  0
INSERT
  5
251CF
330
250E9
100
AcDbEntity
  8
寸法
 62
     0
 48
50.0
370
    -2
100
AcDbBlockReference
  2
_DOTSMALL
 10
5642.842678892391
 20
2322.971436712056
 30
0.0
 41
100.0
 42
100.0
 43
100.0
  0
INSERT
  5
251D0
330
250E9
100
AcDbEntity
  8
寸法
 62
     0
 48
50.0
370
    -2
100
AcDbBlockReference
  2
_DOTSMALL
 10
5402.84267889239
 20
2322.971436712056
 30
0.0
 41
100.0
 42
100.0
 43
100.0
 50
180.0
  0
MTEXT
  5
251D1
330
250E9
100
AcDbEntity
  8
寸法
 62
     7
 48
50.0
100
AcDbMText
 10
5522.842678892391
 20
2529.01224927686
 30
0.0
 40
120.0
 41
0.0
 71
     5
 72
     1
  1
\A1;120\P(195)
  7
STYLE1
 73
     1
 44
1.0
1001
ACAD
1000
MTEXTBEGIN
1070
    73
1070
     1
1070
    44
1040
1.0
1070
    74
1070
     0
1000
MTEXTEND
  0
POINT
  5
251D2
330
250E9
100
AcDbEntity
  8
DEFPOINTS
 62
     0
 48
50.0
100
AcDbPoint
 10
5642.842678892391
 20
1922.971436712056
 30
0.0
  0
POINT
  5
251D3
330
250E9
100
AcDbEntity
  8
DEFPOINTS
 62
     0
 48
50.0
100
AcDbPoint
 10
5402.84267889239
 20
1922.971436712056
 30
0.0
  0
POINT
  5
251D4
330
250E9
100
AcDbEntity
  8
DEFPOINTS
 62
     0
 48
50.0
100
AcDbPoint
 10
5402.84267889239
 20
2322.971436712056
 30
0.0
  0
ENDBLK
  5
250F4
330
250E9
100
AcDbEntity
  8
0
 48
50.0
100
AcDbBlockEnd
  0
ENDSEC
  0
SECTION
  2
ENTITIES
  0
MTEXT
  5
763F
330
747D
100
AcDbEntity
  8
0
100
AcDbMText
 10
302.846345836809
 20
280.1983726409901
 30
0.0
 40
3.5
 41
5.323721266742722
 71
     1
 72
     5
  1

  7
MSMINCHO
 73
     1
 44
1.0
1001
ACAD
1000
MTEXTBEGIN
1070
    73
1070
     1
1070
    44
1040
1.0
1070
    74
1070
     0
1000
MTEXTEND
  0
LINE
  5
10B57
330
747D
100
AcDbEntity
  8
補助
  6
PHANTOM
 62
   230
 48
50.0
100
AcDbLine
 10
139.9999999999995
 20
11409.6
 30
0.0
 11
16307.2
 21
11409.6
 31
0.0
  0
LINE
  5
10B59
330
747D
100
AcDbEntity
  8
仕様書枠
  6
Continuous
 48
50.0
100
AcDbLine
 10
13107.2
 20
1200.0
 30
0.0
 11
13107.2
 21
-0.0000000000000729
 31
0.0
  0
LINE
  5
10B5D
330
747D
100
AcDbEntity
  8
仕様書枠
 48
50.0
100
AcDbLine
 10
140.0
 20
0.0
 30
0.0
 11
16307.2
 21
-0.0000000000000909
 31
0.0
  0
LINE
  5
10B5E
330
747D
100
AcDbEntity
  8
補助
  6
PHANTOM
 62
   230
 48
50.0
100
AcDbLine
 10
16307.2
 20
11409.6
 30
0.0
 11
16307.2
 21
1200.0
 31
0.0
  0
LINE
  5
10B6C
330
747D
100
AcDbEntity
  8
仕様書枠
 48
50.0
100
AcDbLine
 10
13107.2
 20
1200.0
 30
0.0
 11
16307.2
 21
1200.0
 31
0.0
  0
TEXT
  5
10B73
330
747D
100
AcDbEntity
  8
文字
 62
     7
 48
50.0
100
AcDbText
 10
13162.9790565769
 20
895.0906074299405
 30
0.0
 40
200.0
  1
基 礎 図
  7
STYLE2
100
AcDbText
  0
LINE
  5
10B7B
330
747D
100
AcDbEntity
  8
仕様書枠
 48
50.0
100
AcDbLine
 10
13107.2
 20
800.0
 30
0.0
 11
14251.2
 21
800.0
 31
0.0
  0
LINE
  5
10B88
330
747D
100
AcDbEntity
  8
仕様書枠
  6
Continuous
 48
50.0
100
AcDbLine
 10
14251.2
 20
1200.0
 30
0.0
 11
14251.2
 21
800.0
 31
0.0
  0
LINE
  5
16462
330
747D
100
AcDbEntity
  8
仕様書枠
 48
50.0
100
AcDbLine
 10
16307.2
 20
1200.0
 30
0.0
 11
16307.2
 21
-0.0000000000000909
 31
0.0
  0
LINE
  5
1903B
330
747D
100
AcDbEntity
  8
補助
  6
PHANTOM
 62
   230
 48
50.0
100
AcDbLine
 10
140.0
 20
0.0
 30
0.0
 11
139.9999999999995
 21
11409.6
 31
0.0
  0
LEADER
  5
1AC27
330
747D
100
AcDbEntity
  8
寸法
 48
50.0
100
AcDbLeader
  3
INABA_S40G
 73
     0
 74
     0
 75
     1
 40
120.0
 41
720.0000000000001
 76
     3
 10
10438.695499615
 20
7202.009326119133
 30
0.0
 10
10605.46907400128
 20
6925.995412551301
 30
0.0
 10
10705.46907400128
 20
6925.995412551301
 30
0.0
340
1AC28
1001
ACAD
1000
DSTYLE
1002
{
1070
   341
1005
0
1002
}
  0
MTEXT
  5
1AC28
102
{ACAD_REACTORS
330
1AC27
102
}
330
747D
100
AcDbEntity
  8
部品1
 62
     7
 48
50.0
100
AcDbMText
 10
11465.46907400128
 20
7025.9954125513
 30
0.0
 40
120.0
 41
0.0
 71
     6
 72
     1
  1
\A1;床下換気口
  7
STYLE1
 73
     1
 44
1.0
1001
ACAD
1000
MTEXTBEGIN
1070
    73
1070
     1
1070
    44
1040
1.0
1070
    74
1070
     0
1000
MTEXTEND
  0
TEXT
  5
1AC29
330
747D
100
AcDbEntity
  8
部品1
 48
50.0
100
AcDbText
 10
10782.50116389398
 20
5592.71625420053
 30
0.0
 40
80.0
  1
(a=45,b=55,c=75)
  7
STYLE1
100
AcDbText
  0
TEXT
  5
1AC2A
330
747D
100
AcDbEntity
  8
部品1
 48
50.0
100
AcDbText
 10
10623.92215513968
 20
5699.561475069283
 30
0.0
 40
80.0
  1
※a,b,cは屋根の出幅です。
  7
STYLE1
100
AcDbText
  0
MTEXT
  5
1AC2B
102
{ACAD_REACTORS
330
1AC2C
102
}
330
747D
100
AcDbEntity
  8
部品1
 62
     7
 48
50.0
100
AcDbMText
 10
11421.70935112828
 20
5878.872162002358
 30
0.0
 40
120.0
 41
0.0
 71
     6
 72
     1
  1
\A1;屋根の外寸
  7
STYLE1
 73
     1
 44
1.0
1001
ACAD
1000
MTEXTBEGIN
1070
    73
1070
     1
1070
    44
1040
1.0
1070
    74
1070
     0
1000
MTEXTEND
  0
LEADER
  5
1AC2C
330
747D
100
AcDbEntity
  8
寸法
 48
50.0
100
AcDbLeader
  3
INABA_S40G
 73
     0
 74
     0
 75
     1
 40
120.0
 41
672.0
 76
     3
 10
10483.76933893624
 20
6052.761505465936
 30
0.0
 10
10609.70935112828
 20
5778.872162002357
 30
0.0
 10
10709.70935112828
 20
5778.872162002357
 30
0.0
340
1AC2B
1001
ACAD
1000
DSTYLE
1002
{
1070
   341
1005
0
1002
}
  0
TEXT
  5
1C7A1
330
747D
100
AcDbEntity
  8
文字
 62
     7
 48
50.0
100
AcDbText
 10
13188.16259899338
 20
79.80631269190417
 30
0.0
 40
80.0
  1
※布基礎には換気口を設けてください。
  7
STYLE2
100
AcDbText
  0
TEXT
  5
1C7E7
330
747D
100
AcDbEntity
  8
文字
 62
     7
 48
50.0
100
AcDbText
 10
13188.16259899338
 20
246.7109242801889
 30
0.0
 40
80.0
  1
※寒冷地等は地域の実情に合わせた基礎にして下さい。
  7
STYLE2
100
AcDbText
  0
TEXT
  5
1C7E8
330
747D
100
AcDbEntity
  8
文字
 62
     7
 48
50.0
100
AcDbText
 10
14478.98566430227
 20
499.5983841039506
 30
0.0
 40
160.0
  1
ＮＸＮ－１１８Ｈ
  7
STYLE2
100
AcDbText
  0
TEXT
  5
1C7E9
330
747D
100
AcDbEntity
  8
文字
 62
     7
 48
50.0
100
AcDbText
 10
14641.2525855784
 20
871.1744590657927
 30
0.0
 40
100.0
  1
～一般型・多雪地型～
  7
STYLE2
100
AcDbText
  0
TEXT
  5
1C7EC
330
747D
100
AcDbEntity
  8
文字
 62
     7
 48
50.0
100
AcDbText
 10
14524.131837222
 20
1031.557706291229
 30
0.0
 40
100.0
  1
      <縮尺> S=1/40
  7
STYLE2
100
AcDbText
  0
TEXT
  5
1C7ED
330
747D
100
AcDbEntity
  8
文字
 62
     7
 48
50.0
100
AcDbText
 10
13201.43669998441
 20
477.2740661031257
 30
0.0
 40
160.0
  1
機種名
  7
STYLE2
100
AcDbText
  0
LINE
  5
1C7EF
330
747D
100
AcDbEntity
  8
文字
 62
     7
 48
50.0
100
AcDbLine
 10
13187.2
 20
400.0
 30
0.0
 11
16227.2
 21
400.0
 31
0.0
  0
MTEXT
  5
1D2D5
102
{ACAD_REACTORS
330
1D2D6
102
}
330
747D
100
AcDbEntity
  8
部品1
 62
     7
 48
50.0
100
AcDbMText
 10
11633.99523070988
 20
8791.672801444885
 30
0.0
 40
120.0
 41
0.0
 71
     6
 72
     1
  1
アンカーボルト
  7
STYLE1
 73
     1
 44
1.0
1001
ACAD
1000
MTEXTBEGIN
1070
    73
1070
     1
1070
    44
1040
1.0
1070
    74
1070
     0
1000
MTEXTEND
  0
LEADER
  5
1D2D6
330
747D
100
AcDbEntity
  8
寸法
 48
50.0
100
AcDbLeader
  3
INABA_S40G
 73
     0
 74
     0
 75
     1
 40
120.0
 41
994.3492424049171
 76
     3
 10
10315.680085757
 20
8385.01499989603
 30
0.0
 10
10499.64598830496
 20
8691.672801444886
 30
0.0
 10
10599.64598830496
 20
8691.672801444886
 30
0.0
340
1D2D5
1001
ACAD
1000
DSTYLE
1002
{
1070
   341
1005
0
1002
}
  0
MTEXT
  5
1D332
102
{ACAD_REACTORS
330
1D333
102
}
330
747D
100
AcDbEntity
  8
部品1
 62
     7
 48
50.0
100
AcDbMText
 10
7175.440328953418
 20
6404.81791927381
 30
0.0
 40
120.0
 41
0.0
 71
     6
 72
     1
  1
CB
  7
STYLE1
 73
     1
 44
1.0
1001
ACAD
1000
MTEXTBEGIN
1070
    73
1070
     1
1070
    44
1040
1.0
1070
    74
1070
     0
1000
MTEXTEND
  0
LEADER
  5
1D333
330
747D
100
AcDbEntity
  8
寸法
 48
50.0
100
AcDbLeader
  3
INABA_S40G
 73
     0
 74
     0
 75
     1
 40
120.0
 41
149.591883092037
 76
     3
 10
6748.565642998737
 20
6580.831832841645
 30
0.0
 10
6885.84844586138
 20
6304.817919273809
 30
0.0
 10
6985.84844586138
 20
6304.817919273809
 30
0.0
340
1D332
1001
ACAD
1000
DSTYLE
1002
{
1070
   341
1005
0
1002
}
  0
DIMENSION
  5
1DAC7
330
747D
100
AcDbEntity
  8
寸法
 48
50.0
100
AcDbDimension
  2
*D1
 10
8463.202780124335
 20
5867.807155537343
 30
0.0
 11
8463.202780124332
 21
5259.321874163105
 31
0.0
 70
   160
  1
扉の出<>
 71
     5
 42
75.0
  3
INABA_S40G
100
AcDbAlignedDimension
 13
8196.600000000001
 23
5792.807155537342
 33
0.0
 14
8196.600000000008
 24
5867.807155537343
 34
0.0
 50
90.0
100
AcDbRotatedDimension
1001
ACAD
1000
DSTYLE
1002
{
1070
   341
1005
0
1002
}
  0
LINE
  5
20992
330
747D
100
AcDbEntity
  8
想像線
 48
10.0
100
AcDbLine
 10
10483.6
 20
5812.807155537325
 30
0.0
 11
10483.6
 21
8582.807155537318
 31
0.0
  0
DIMENSION
  5
20DE1
330
747D
100
AcDbEntity
  8
寸法
 48
50.0
100
AcDbDimension
  2
*D2
 10
10483.6
 20
9466.02747759624
 30
0.0
 11
10754.77462120246
 21
9466.02747759624
 31
0.0
 70
   160
  1
a
 71
     5
 42
45.0
  3
INABA_S40G
100
AcDbAlignedDimension
 13
10438.6
 23
8507.807155537319
 33
0.0
 14
10483.6
 24
9253.566782079404
 34
0.0
100
AcDbRotatedDimension
1001
ACAD
1000
DSTYLE
1002
{
1070
   341
1005
0
1002
}
  0
DIMENSION
  5
20DFB
330
747D
100
AcDbEntity
  8
寸法
 48
50.0
100
AcDbDimension
  2
*D3
 10
6008.600000000001
 20
9466.02747759624
 30
0.0
 11
5692.425378797541
 21
9466.02747759624
 31
0.0
 70
   160
  1
a
 71
     5
 42
44.99999999999272
  3
INABA_S40G
100
AcDbAlignedDimension
 13
5963.600000000009
 23
9253.566782079404
 33
0.0
 14
6008.600000000001
 24
8507.807155537319
 34
0.0
100
AcDbRotatedDimension
1001
ACAD
1000
DSTYLE
1002
{
1070
   341
1005
0
1002
}
  0
DIMENSION
  5
20E15
330
747D
100
AcDbEntity
  8
寸法
 48
50.0
100
AcDbDimension
  2
*D4
 10
5267.164931848213
 20
8507.807155537321
 30
0.0
 11
5167.164931848212
 21
8545.307155537324
 31
0.0
 70
    32
  1
c
 71
     5
 42
75.00000000000364
  3
INABA_S40G
100
AcDbAlignedDimension
 13
5512.657733986181
 23
8582.807155537324
 33
0.0
 14
6008.600000000004
 24
8507.807155537321
 34
0.0
 50
90.0
100
AcDbRotatedDimension
1001
ACAD
1000
DSTYLE
1002
{
1070
   341
1005
0
1002
}
  0
DIMENSION
  5
20E3A
330
747D
100
AcDbEntity
  8
寸法
 48
50.0
100
AcDbDimension
  2
*D5
 10
5267.164931848213
 20
5812.807155537331
 30
0.0
 11
5167.164931848212
 21
5840.307155537348
 31
0.0
 70
    32
  1
b
 71
     5
 42
55.00000000003002
  3
INABA_S40G
100
AcDbAlignedDimension
 13
6008.600000000008
 23
5867.807155537362
 33
0.0
 14
5512.657733986181
 24
5812.807155537331
 34
0.0
 50
90.0
100
AcDbRotatedDimension
1001
ACAD
1000
DSTYLE
1002
{
1070
   341
1005
0
1002
}
  0
LINE
  5
215EC
330
747D
100
AcDbEntity
  8
部品1
 48
50.0
100
AcDbLine
 10
10208.6
 20
5987.807155537336
 30
0.0
 11
8235.600000000001
 21
5987.807155537332
 31
0.0
  0
DIMENSION
  5
215ED
330
747D
100
AcDbEntity
  8
寸法
 48
50.0
100
AcDbDimension
  2
*D6
 10
8670.14438614211
 20
6097.807155537338
 30
0.0
 11
8670.144386142109
 21
6367.866210655463
 31
0.0
 70
   160
 71
     5
 42
110.0000000000036
  3
INABA_S40G
100
AcDbAlignedDimension
 13
8782.599867447318
 23
5987.807155537335
 33
0.0
 14
8235.600000000001
 24
6097.807155537338
 34
0.0
 50
90.0
100
AcDbRotatedDimension
1001
ACAD
1000
DSTYLE
1002
{
1070
   341
1005
0
1002
}
  0
LINE
  5
215EE
330
747D
100
AcDbEntity
  8
部品1
 48
50.0
100
AcDbLine
 10
10208.6
 20
8387.807155537322
 30
0.0
 11
8235.600000000001
 21
8387.807155537322
 31
0.0
  0
DIMENSION
  5
215EF
330
747D
100
AcDbEntity
  8
寸法
 48
50.0
100
AcDbDimension
  2
*D7
 10
8670.14438614211
 20
5987.807155537335
 30
0.0
 11
8670.144386142109
 21
5531.51885056938
 31
0.0
 70
   160
 71
     5
 42
119.9999999999854
  3
INABA_S40G
100
AcDbAlignedDimension
 13
8307.41918098816
 23
5867.807155537349
 33
0.0
 14
8782.599867447318
 24
5987.807155537335
 34
0.0
 50
90.0
100
AcDbRotatedDimension
1001
ACAD
1000
DSTYLE
1002
{
1070
   341
1005
0
1002
}
  0
LINE
  5
215F0
330
747D
100
AcDbEntity
  8
部品1
 48
50.0
100
AcDbLine
 10
10438.6
 20
5867.807155537339
 30
0.0
 11
8196.600000000001
 21
5867.807155537319
 31
0.0
  0
LINE
  5
215F2
330
747D
100
AcDbEntity
  8
部品1
 48
50.0
100
AcDbLine
 10
10438.6
 20
8507.807155537321
 30
0.0
 11
6008.600000000001
 21
8507.807155537321
 31
0.0
  0
DIMENSION
  5
215F3
330
747D
100
AcDbEntity
  8
寸法
 48
50.0
100
AcDbDimension
  2
*D8
 10
10438.6
 20
9466.02747759624
 30
0.0
 11
8223.600000000001
 21
9566.027477596241
 31
0.0
 70
    32
 71
     5
 42
4429.999999999998
  3
INABA_S40G
100
AcDbAlignedDimension
 13
6008.600000000001
 23
8507.807155537321
 33
0.0
 14
10438.6
 24
8507.807155537321
 34
0.0
100
AcDbRotatedDimension
1001
ACAD
1000
DSTYLE
1002
{
1070
   341
1005
0
1002
}
  0
DIMENSION
  5
215F4
330
747D
100
AcDbEntity
  8
寸法
 48
50.0
100
AcDbDimension
  2
*D9
 10
8223.600000000001
 20
9034.716921185649
 30
0.0
 11
8603.6
 21
9134.716921185649
 31
0.0
 70
    32
 71
     5
 42
760.0
  3
INABA_S40G
100
AcDbAlignedDimension
 13
8983.6
 23
7832.807155537323
 33
0.0
 14
8223.600000000001
 24
7832.807155537324
 34
0.0
100
AcDbRotatedDimension
1001
ACAD
1000
DSTYLE
1002
{
1070
   341
1005
0
1002
}
  0
DIMENSION
  5
215F5
330
747D
100
AcDbEntity
  8
寸法
 48
50.0
100
AcDbDimension
  2
*D10
 10
8105.6
 20
9253.566782079404
 30
0.0
 11
9210.600000000001
 21
9353.578593103026
 31
0.0
 70
    32
 71
     5
 42
2210.0
  3
INABA_S40G
100
AcDbAlignedDimension
 13
10315.6
 23
8434.80715553732
 33
0.0
 14
8105.6
 24
8434.80715553732
 34
0.0
100
AcDbRotatedDimension
1001
ACAD
1000
DSTYLE
1002
{
1070
   341
1005
0
1002
}
  0
LINE
  5
21605
330
747D
100
AcDbEntity
  8
部品1
 48
50.0
100
AcDbLine
 10
8123.600000000001
 20
7432.807155537324
 30
0.0
 11
8123.600000000001
 21
7832.807155537324
 31
0.0
  0
LINE
  5
21606
330
747D
100
AcDbEntity
  8
センター
 48
2.0
100
AcDbLine
 10
8223.600000000001
 20
7682.807155537324
 30
0.0
 11
8223.600000000001
 21
7582.807155537324
 31
0.0
  0
LINE
  5
21607
330
747D
100
AcDbEntity
  8
部品1
 48
50.0
100
AcDbLine
 10
8323.6
 20
7432.807155537324
 30
0.0
 11
8323.6
 21
7832.807155537324
 31
0.0
  0
DIMENSION
  5
21608
330
747D
100
AcDbEntity
  8
寸法
 48
50.0
100
AcDbDimension
  2
*D11
 10
5512.657733986178
 20
5990.807155537321
 30
0.0
 11
5412.645922962555
 21
7187.807155537324
 31
0.0
 70
    32
 71
     5
 42
2394.000000000002
  3
INABA_S40G
100
AcDbAlignedDimension
 13
6081.6
 23
8384.807155537322
 33
0.0
 14
6081.600000000008
 24
5990.807155537321
 34
0.0
 50
90.0
100
AcDbRotatedDimension
1001
ACAD
1000
DSTYLE
1002
{
1070
   341
1005
0
1002
}
  0
LINE
  5
21609
330
747D
100
AcDbEntity
  8
部品1
 48
50.0
100
AcDbLine
 10
6128.6
 20
6097.807155537322
 30
0.0
 11
6128.6
 21
8277.807155537317
 31
0.0
  0
LINE
  5
2160A
330
747D
100
AcDbEntity
  8
部品1
 48
50.0
100
AcDbLine
 10
6008.600000000001
 20
5867.80715553732
 30
0.0
 11
6008.600000000001
 21
8507.807155537321
 31
0.0
  0
DIMENSION
  5
2160C
330
747D
100
AcDbEntity
  8
寸法
 48
50.0
100
AcDbDimension
  2
*D12
 10
5267.16493184821
 20
5867.80715553732
 30
0.0
 11
5167.153120824588
 21
7187.807155537322
 31
0.0
 70
    32
 71
     5
 42
2640.000000000001
  3
INABA_S40G
100
AcDbAlignedDimension
 13
6008.600000000001
 23
8507.807155537321
 33
0.0
 14
6008.600000000001
 24
5867.80715553732
 34
0.0
 50
90.0
100
AcDbRotatedDimension
1001
ACAD
1000
DSTYLE
1002
{
1070
   341
1005
0
1002
}
  0
LINE
  5
2166C
330
747D
100
AcDbEntity
  8
部品1
 48
50.0
100
AcDbLine
 10
7975.6
 20
5987.807155537328
 30
0.0
 11
6238.6
 21
5987.807155537325
 31
0.0
  0
LINE
  5
2166D
330
747D
100
AcDbEntity
  8
部品1
 48
50.0
100
AcDbLine
 10
8196.600000000001
 20
5792.807155537325
 30
0.0
 11
6008.600000000001
 21
5792.80715553731
 31
0.0
  0
DIMENSION
  5
21671
330
747D
100
AcDbEntity
  8
寸法
 48
50.0
100
AcDbDimension
  2
*D27
 10
5512.657733986179
 20
5867.80715553732
 30
0.0
 11
5512.657733986178
 21
5532.276206694729
 31
0.0
 70
   160
 71
     5
 42
123.0000000000009
  3
INABA_S40G
100
AcDbAlignedDimension
 13
6081.600000000008
 23
5990.807155537321
 33
0.0
 14
6008.600000000001
 24
5867.80715553732
 34
0.0
 50
90.0
100
AcDbRotatedDimension
1001
ACAD
1000
DSTYLE
1002
{
1070
   341
1005
0
1002
}
  0
LINE
  5
21673
330
747D
100
AcDbEntity
  8
部品1
 48
50.0
100
AcDbLine
 10
6238.6
 20
5987.807155537325
 30
0.0
 11
6238.6
 21
6097.807155537324
 31
0.0
  0
LINE
  5
2167B
330
747D
100
AcDbEntity
  8
センター
 48
2.0
100
AcDbLine
 10
6131.600000000009
 20
6040.807155537322
 30
0.0
 11
6131.600000000009
 21
5940.807155537322
 31
0.0
  0
LINE
  5
216AC
330
747D
100
AcDbEntity
  8
センター
 48
2.0
100
AcDbLine
 10
6081.600000000008
 20
5990.807155537321
 30
0.0
 11
6181.600000000009
 21
5990.807155537321
 31
0.0
  0
CIRCLE
  5
216AD
330
747D
100
AcDbEntity
  8
部品1
 48
50.0
100
AcDbCircle
 10
6131.600000000009
 20
5990.807155537321
 30
0.0
 40
35.0
  0
LINE
  5
216AE
330
747D
100
AcDbEntity
  8
部品1
 48
50.0
100
AcDbLine
 10
6008.600000000001
 20
5792.807155537325
 30
0.0
 11
6008.600000000001
 21
5867.80715553731
 31
0.0
  0
LINE
  5
216F0
330
747D
100
AcDbEntity
  8
部品1
 48
50.0
100
AcDbLine
 10
6238.6
 20
6097.807155537324
 30
0.0
 11
6128.6
 21
6097.807155537322
 31
0.0
  0
LINE
  5
2175A
330
747D
100
AcDbEntity
  8
部品1
 48
50.0
100
AcDbLine
 10
6128.6
 20
7087.807155537321
 30
0.0
 11
6008.600000000001
 21
7087.807155537323
 31
0.0
  0
LINE
  5
2175D
330
747D
100
AcDbEntity
  8
部品1
 48
50.0
100
AcDbLine
 10
7018.599999999999
 20
5987.807155537325
 30
0.0
 11
7018.600000000002
 21
5792.807155537314
 31
0.0
  0
LINE
  5
2179D
330
747D
100
AcDbEntity
  8
部品1
 48
50.0
100
AcDbLine
 10
7218.600000000002
 20
5987.807155537328
 30
0.0
 11
7218.600000000002
 21
5792.807155537317
 31
0.0
  0
LINE
  5
217DF
330
747D
100
AcDbEntity
  8
部品1
 48
50.0
100
AcDbLine
 10
6873.6
 20
6942.807155537339
 30
0.0
 11
6673.6
 21
6942.807155537339
 31
0.0
  0
LINE
  5
217E0
330
747D
100
AcDbEntity
  8
部品1
 48
50.0
100
AcDbLine
 10
6873.6
 20
6542.807155537335
 30
0.0
 11
6673.6
 21
6542.807155537335
 31
0.0
  0
LINE
  5
217E1
330
747D
100
AcDbEntity
  8
センター
 48
2.0
100
AcDbLine
 10
6773.6
 20
6792.807155537339
 30
0.0
 11
6773.6
 21
6692.807155537339
 31
0.0
  0
LINE
  5
217E2
330
747D
100
AcDbEntity
  8
部品1
 48
50.0
100
AcDbLine
 10
6673.6
 20
6542.807155537335
 30
0.0
 11
6673.6
 21
6942.807155537339
 31
0.0
  0
LINE
  5
217E3
330
747D
100
AcDbEntity
  8
センター
 48
2.0
100
AcDbLine
 10
6723.600000000002
 20
6742.807155537339
 30
0.0
 11
6823.6
 21
6742.807155537339
 31
0.0
  0
LINE
  5
217E4
330
747D
100
AcDbEntity
  8
部品1
 48
50.0
100
AcDbLine
 10
6873.6
 20
6542.807155537335
 30
0.0
 11
6873.6
 21
6942.807155537339
 31
0.0
  0
DIMENSION
  5
217E5
330
747D
100
AcDbEntity
  8
寸法
 48
50.0
100
AcDbDimension
  2
*D28
 10
7975.6
 20
6291.781044834438
 30
0.0
 11
8105.6
 21
6291.781044834438
 31
0.0
 70
   160
 71
     5
 42
260.0
  3
INABA_S40G
100
AcDbAlignedDimension
 13
8235.600000000001
 23
6097.807155537338
 33
0.0
 14
7975.6
 24
6097.807155537338
 34
0.0
100
AcDbRotatedDimension
1001
ACAD
1000
DSTYLE
1002
{
1070
   341
1005
0
1002
}
  0
LINE
  5
217E6
330
747D
100
AcDbEntity
  8
部品1
 48
50.0
100
AcDbLine
 10
8235.600000000001
 20
6097.807155537338
 30
0.0
 11
7975.6
 21
6097.807155537338
 31
0.0
  0
LINE
  5
217E7
330
747D
100
AcDbEntity
  8
部品1
 48
50.0
100
AcDbLine
 10
7975.6
 20
5987.807155537328
 30
0.0
 11
7975.6
 21
6097.807155537338
 31
0.0
  0
LINE
  5
2186A
330
747D
100
AcDbEntity
  8
部品1
 48
50.0
100
AcDbLine
 10
8235.600000000003
 20
5987.807155537332
 30
0.0
 11
8235.600000000001
 21
6097.807155537338
 31
0.0
  0
LINE
  5
2186B
330
747D
100
AcDbEntity
  8
センター
 48
2.0
100
AcDbLine
 10
8055.600000000008
 20
5990.807155537321
 30
0.0
 11
8155.600000000008
 21
5990.807155537321
 31
0.0
  0
CIRCLE
  5
2186C
330
747D
100
AcDbEntity
  8
部品1
 48
50.0
100
AcDbCircle
 10
8105.600000000007
 20
5990.807155537321
 30
0.0
 40
35.0
  0
LINE
  5
2186D
330
747D
100
AcDbEntity
  8
センター
 48
2.0
100
AcDbLine
 10
8105.600000000007
 20
6040.807155537322
 30
0.0
 11
8105.600000000007
 21
5940.807155537322
 31
0.0
  0
LINE
  5
218A0
330
747D
100
AcDbEntity
  8
部品1
 48
50.0
100
AcDbLine
 10
8196.600000000001
 20
5792.807155537325
 30
0.0
 11
8196.600000000001
 21
5867.807155537323
 31
0.0
  0
LINE
  5
218A1
330
747D
100
AcDbEntity
  8
部品1
 48
50.0
100
AcDbLine
 10
8323.6
 20
7432.807155537324
 30
0.0
 11
8123.600000000001
 21
7432.807155537324
 31
0.0
  0
LINE
  5
218A3
330
747D
100
AcDbEntity
  8
部品1
 48
50.0
100
AcDbLine
 10
7975.6
 20
8387.807155537322
 30
0.0
 11
6238.6
 21
8387.807155537322
 31
0.0
  0
DIMENSION
  5
218A4
330
747D
100
AcDbEntity
  8
寸法
 48
50.0
100
AcDbDimension
  2
*D13
 10
6008.600000000001
 20
9034.716921185649
 30
0.0
 11
6391.100000000001
 21
9134.716921185649
 31
0.0
 70
    32
 71
     5
 42
764.9999999999991
  3
INABA_S40G
100
AcDbAlignedDimension
 13
6773.6
 23
7932.807155537322
 33
0.0
 14
6008.600000000001
 24
8507.807155537321
 34
0.0
100
AcDbRotatedDimension
1001
ACAD
1000
DSTYLE
1002
{
1070
   341
1005
0
1002
}
  0
DIMENSION
  5
218A5
330
747D
100
AcDbEntity
  8
寸法
 48
50.0
100
AcDbDimension
  2
*D14
 10
6131.6
 20
9253.566782079404
 30
0.0
 11
7118.6
 21
9353.566782079404
 31
0.0
 70
    32
 71
     5
 42
1974.0
  3
INABA_S40G
100
AcDbAlignedDimension
 13
8105.6
 23
8434.80715553732
 33
0.0
 14
6131.6
 24
8434.80715553732
 34
0.0
100
AcDbRotatedDimension
1001
ACAD
1000
DSTYLE
1002
{
1070
   341
1005
0
1002
}
  0
DIMENSION
  5
218A6
330
747D
100
AcDbEntity
  8
寸法
 48
50.0
100
AcDbDimension
  2
*D15
 10
6008.600000000001
 20
9253.566782079404
 30
0.0
 11
5735.493398282206
 21
9253.566782079404
 31
0.0
 70
   160
 71
     5
 42
122.9999999999991
  3
INABA_S40G
100
AcDbAlignedDimension
 13
6131.6
 23
8434.80715553732
 33
0.0
 14
6008.600000000001
 24
8507.807155537321
 34
0.0
100
AcDbRotatedDimension
1001
ACAD
1000
DSTYLE
1002
{
1070
   341
1005
0
1002
}
  0
DIMENSION
  5
218A8
330
747D
100
AcDbEntity
  8
寸法
 48
50.0
100
AcDbDimension
  2
*D16
 10
5512.657733986179
 20
8384.807155537322
 30
0.0
 11
5512.657733986178
 21
8780.91375725512
 31
0.0
 70
   160
 71
     5
 42
122.9999999999981
  3
INABA_S40G
100
AcDbAlignedDimension
 13
6008.600000000001
 23
8507.807155537321
 33
0.0
 14
6081.6
 24
8384.807155537322
 34
0.0
 50
90.0
100
AcDbRotatedDimension
1001
ACAD
1000
DSTYLE
1002
{
1070
   341
1005
0
1002
}
  0
DIMENSION
  5
218A9
330
747D
100
AcDbEntity
  8
寸法
 48
50.0
100
AcDbDimension
  2
*D17
 10
6455.307249876098
 20
8507.807155537319
 30
0.0
 11
6455.307249876098
 21
8785.890698810206
 31
0.0
 70
   160
 71
     5
 42
119.9999999999981
  3
INABA_S40G
100
AcDbAlignedDimension
 13
6238.599999999999
 23
8387.807155537322
 33
0.0
 14
6238.6
 24
8507.807155537319
 34
0.0
 50
90.0
100
AcDbRotatedDimension
1001
ACAD
1000
DSTYLE
1002
{
1070
   341
1005
0
1002
}
  0
DIMENSION
  5
218AA
330
747D
100
AcDbEntity
  8
寸法
 48
50.0
100
AcDbDimension
  2
*D18
 10
6455.307249876098
 20
8277.807155537317
 30
0.0
 11
6455.307249876098
 21
7937.748100419206
 31
0.0
 70
   160
 71
     5
 42
110.0000000000054
  3
INABA_S40G
100
AcDbAlignedDimension
 13
6238.599999999999
 23
8387.807155537322
 33
0.0
 14
6238.6
 24
8277.807155537317
 34
0.0
 50
90.0
100
AcDbRotatedDimension
1001
ACAD
1000
DSTYLE
1002
{
1070
   341
1005
0
1002
}
  0
LINE
  5
218AB
330
747D
100
AcDbEntity
  8
部品1
 48
50.0
100
AcDbLine
 10
6128.6
 20
7287.807155537322
 30
0.0
 11
6008.600000000001
 21
7287.807155537322
 31
0.0
  0
LINE
  5
218AC
330
747D
100
AcDbEntity
  8
部品1
 48
50.0
100
AcDbLine
 10
6407.928907166848
 20
8507.807155537317
 30
0.0
 11
6008.600000000001
 21
8507.807155537321
 31
0.0
  0
LINE
  5
218AD
330
747D
100
AcDbEntity
  8
部品1
 48
50.0
100
AcDbLine
 10
6238.6
 20
8277.807155537317
 30
0.0
 11
6128.6
 21
8277.807155537319
 31
0.0
  0
LINE
  5
218AE
330
747D
100
AcDbEntity
  8
センター
 48
2.0
100
AcDbLine
 10
6131.6
 20
8434.80715553732
 30
0.0
 11
6131.6
 21
8334.807155537321
 31
0.0
  0
LINE
  5
218AF
330
747D
100
AcDbEntity
  8
センター
 48
2.0
100
AcDbLine
 10
6081.6
 20
8384.807155537322
 30
0.0
 11
6181.6
 21
8384.807155537322
 31
0.0
  0
CIRCLE
  5
218B0
330
747D
100
AcDbEntity
  8
部品1
 48
50.0
100
AcDbCircle
 10
6131.6
 20
8384.807155537322
 30
0.0
 40
35.0
  0
LINE
  5
218B1
330
747D
100
AcDbEntity
  8
部品1
 48
50.0
100
AcDbLine
 10
6238.6
 20
8277.807155537317
 30
0.0
 11
6238.599999999999
 21
8387.807155537322
 31
0.0
  0
DIMENSION
  5
218B2
330
747D
100
AcDbEntity
  8
寸法
 48
50.0
100
AcDbDimension
  2
*D19
 10
7463.600000000001
 20
9034.716921185649
 30
0.0
 11
7843.600000000001
 21
9134.716921185649
 31
0.0
 70
    32
 71
     5
 42
759.999999999999
  3
INABA_S40G
100
AcDbAlignedDimension
 13
8223.600000000001
 23
7832.807155537324
 33
0.0
 14
7463.600000000001
 24
7832.807155537321
 34
0.0
100
AcDbRotatedDimension
1001
ACAD
1000
DSTYLE
1002
{
1070
   341
1005
0
1002
}
  0
LINE
  5
218B3
330
747D
100
AcDbEntity
  8
部品1
 48
50.0
100
AcDbLine
 10
6673.6
 20
7432.807155537318
 30
0.0
 11
6673.6
 21
7832.807155537321
 31
0.0
  0
LINE
  5
218B4
330
747D
100
AcDbEntity
  8
部品1
 48
50.0
100
AcDbLine
 10
6873.6
 20
7432.807155537318
 30
0.0
 11
6873.6
 21
7832.807155537321
 31
0.0
  0
LINE
  5
218B5
330
747D
100
AcDbEntity
  8
部品1
 48
50.0
100
AcDbLine
 10
6873.6
 20
7432.807155537318
 30
0.0
 11
6673.6
 21
7432.807155537318
 31
0.0
  0
LINE
  5
218B8
330
747D
100
AcDbEntity
  8
センター
 48
2.0
100
AcDbLine
 10
6723.600000000002
 20
7632.807155537323
 30
0.0
 11
6823.6
 21
7632.807155537323
 31
0.0
  0
LINE
  5
218B9
330
747D
100
AcDbEntity
  8
センター
 48
2.0
100
AcDbLine
 10
6773.6
 20
7682.807155537322
 30
0.0
 11
6773.6
 21
7582.807155537323
 31
0.0
  0
LINE
  5
218BC
330
747D
100
AcDbEntity
  8
部品1
 48
50.0
100
AcDbLine
 10
6873.6
 20
7832.807155537321
 30
0.0
 11
6673.6
 21
7832.807155537321
 31
0.0
  0
LINE
  5
218BD
330
747D
100
AcDbEntity
  8
部品1
 48
50.0
100
AcDbLine
 10
7018.600000000009
 20
8507.807155537321
 30
0.0
 11
7018.600000000009
 21
8387.807155537322
 31
0.0
  0
LINE
  5
218BE
330
747D
100
AcDbEntity
  8
部品1
 48
50.0
100
AcDbLine
 10
7218.600000000009
 20
8507.807155537321
 30
0.0
 11
7218.600000000009
 21
8387.807155537322
 31
0.0
  0
LINE
  5
218BF
330
747D
100
AcDbEntity
  8
センター
 48
2.0
100
AcDbLine
 10
8173.6
 20
7632.807155537324
 30
0.0
 11
8273.6
 21
7632.807155537324
 31
0.0
  0
LINE
  5
218C0
330
747D
100
AcDbEntity
  8
部品1
 48
50.0
100
AcDbLine
 10
8323.6
 20
7832.807155537324
 30
0.0
 11
8123.600000000001
 21
7832.807155537324
 31
0.0
  0
LINE
  5
218C1
330
747D
100
AcDbEntity
  8
部品1
 48
50.0
100
AcDbLine
 10
8235.600000000001
 20
8277.807155537303
 30
0.0
 11
7975.6
 21
8277.807155537303
 31
0.0
  0
LINE
  5
218C2
330
747D
100
AcDbEntity
  8
部品1
 48
50.0
100
AcDbLine
 10
7975.6
 20
8387.807155537322
 30
0.0
 11
7975.6
 21
8277.807155537303
 31
0.0
  0
LINE
  5
218C3
330
747D
100
AcDbEntity
  8
部品1
 48
50.0
100
AcDbLine
 10
8235.600000000003
 20
8387.807155537322
 30
0.0
 11
8235.600000000001
 21
8277.807155537303
 31
0.0
  0
CIRCLE
  5
218C4
330
747D
100
AcDbEntity
  8
部品1
 48
50.0
100
AcDbCircle
 10
8105.6
 20
8384.807155537322
 30
0.0
 40
35.0
  0
LINE
  5
218C5
330
747D
100
AcDbEntity
  8
センター
 48
2.0
100
AcDbLine
 10
8105.6
 20
8434.80715553732
 30
0.0
 11
8105.6
 21
8334.807155537321
 31
0.0
  0
LINE
  5
218C6
330
747D
100
AcDbEntity
  8
センター
 48
2.0
100
AcDbLine
 10
8055.600000000001
 20
8384.807155537322
 30
0.0
 11
8155.600000000001
 21
8384.807155537322
 31
0.0
  0
LINE
  5
218C7
330
747D
100
AcDbEntity
  8
部品1
 48
50.0
100
AcDbLine
 10
10438.6
 20
5867.807155537339
 30
0.0
 11
10438.6
 21
8507.807155537321
 31
0.0
  0
LINE
  5
218C8
330
747D
100
AcDbEntity
  8
部品1
 48
50.0
100
AcDbLine
 10
10318.6
 20
6097.807155537342
 30
0.0
 11
10318.6
 21
8277.807155537322
 31
0.0
  0
DIMENSION
  5
218CC
330
747D
100
AcDbEntity
  8
寸法
 48
50.0
100
AcDbDimension
  2
*D20
 10
9309.531448609051
 20
6742.807155537335
 30
0.0
 11
9209.53144860905
 21
7187.807155537329
 31
0.0
 70
    32
 71
     5
 42
889.9999999999854
  3
INABA_S40G
100
AcDbAlignedDimension
 13
9573.6
 23
7632.807155537321
 33
0.0
 14
9573.6
 24
6742.807155537335
 34
0.0
 50
90.0
100
AcDbRotatedDimension
1001
ACAD
1000
DSTYLE
1002
{
1070
   341
1005
0
1002
}
  0
LINE
  5
2193F
330
747D
100
AcDbEntity
  8
部品1
 48
50.0
100
AcDbLine
 10
9773.600000000001
 20
6942.807155537339
 30
0.0
 11
9573.6
 21
6942.807155537339
 31
0.0
  0
LINE
  5
21940
330
747D
100
AcDbEntity
  8
部品1
 48
50.0
100
AcDbLine
 10
9773.600000000001
 20
6542.807155537335
 30
0.0
 11
9573.6
 21
6542.807155537335
 31
0.0
  0
DIMENSION
  5
21942
330
747D
100
AcDbEntity
  8
寸法
 48
50.0
100
AcDbDimension
  2
*D21
 10
9309.531448609051
 20
6742.807155537335
 30
0.0
 11
9209.53144860905
 21
6305.307155537335
 31
0.0
 70
    32
 71
     5
 42
875.0000000000037
  3
INABA_S40G
100
AcDbAlignedDimension
 13
9210.045939259561
 23
5867.807155537332
 33
0.0
 14
9573.6
 24
6742.807155537335
 34
0.0
 50
90.0
100
AcDbRotatedDimension
1001
ACAD
1000
DSTYLE
1002
{
1070
   341
1005
0
1002
}
  0
LINE
  5
21943
330
747D
100
AcDbEntity
  8
部品1
 48
50.0
100
AcDbLine
 10
9228.600000000017
 20
5987.807155537336
 30
0.0
 11
9228.600000000017
 21
5867.807155537335
 31
0.0
  0
LINE
  5
21944
330
747D
100
AcDbEntity
  8
部品1
 48
50.0
100
AcDbLine
 10
9573.6
 20
6542.807155537335
 30
0.0
 11
9573.6
 21
6942.807155537339
 31
0.0
  0
LINE
  5
21945
330
747D
100
AcDbEntity
  8
部品1
 48
50.0
100
AcDbLine
 10
9428.600000000017
 20
5987.807155537336
 30
0.0
 11
9428.600000000017
 21
5867.807155537335
 31
0.0
  0
LINE
  5
21946
330
747D
100
AcDbEntity
  8
センター
 48
2.0
100
AcDbLine
 10
9673.6
 20
6792.807155537339
 30
0.0
 11
9673.6
 21
6692.807155537339
 31
0.0
  0
LINE
  5
21947
330
747D
100
AcDbEntity
  8
部品1
 48
50.0
100
AcDbLine
 10
9773.600000000001
 20
6542.807155537335
 30
0.0
 11
9773.600000000001
 21
6942.807155537339
 31
0.0
  0
LINE
  5
21948
330
747D
100
AcDbEntity
  8
センター
 48
2.0
100
AcDbLine
 10
9623.600000000001
 20
6742.807155537339
 30
0.0
 11
9723.600000000001
 21
6742.807155537339
 31
0.0
  0
LINE
  5
2194D
330
747D
100
AcDbEntity
  8
部品1
 48
50.0
100
AcDbLine
 10
10208.6
 20
5987.807155537336
 30
0.0
 11
10208.6
 21
6097.807155537338
 31
0.0
  0
CIRCLE
  5
2194E
330
747D
100
AcDbEntity
  8
部品1
 48
50.0
100
AcDbCircle
 10
10315.60000000001
 20
5990.807155537321
 30
0.0
 40
35.0
  0
LINE
  5
2194F
330
747D
100
AcDbEntity
  8
センター
 48
2.0
100
AcDbLine
 10
10265.60000000001
 20
5990.807155537321
 30
0.0
 11
10365.60000000001
 21
5990.807155537321
 31
0.0
  0
LINE
  5
21950
330
747D
100
AcDbEntity
  8
センター
 48
2.0
100
AcDbLine
 10
10315.60000000001
 20
6040.807155537322
 30
0.0
 11
10315.60000000001
 21
5940.807155537322
 31
0.0
  0
LINE
  5
21951
330
747D
100
AcDbEntity
  8
部品1
 48
50.0
100
AcDbLine
 10
10318.6
 20
6097.807155537338
 30
0.0
 11
10208.6
 21
6097.807155537338
 31
0.0
  0
LINE
  5
21952
330
747D
100
AcDbEntity
  8
部品1
 48
50.0
100
AcDbLine
 10
10438.6
 20
7087.807155537324
 30
0.0
 11
10318.6
 21
7087.807155537324
 31
0.0
  0
DIMENSION
  5
21957
330
747D
100
AcDbEntity
  8
寸法
 48
50.0
100
AcDbDimension
  2
*D22
 10
10208.6
 20
7996.78136459866
 30
0.0
 11
9972.552755905512
 21
7996.78136459866
 31
0.0
 70
   160
 71
     5
 42
109.9999999999782
  3
INABA_S40G
100
AcDbAlignedDimension
 13
10318.59999999998
 23
8277.807155537322
 33
0.0
 14
10208.6
 24
8277.807155537319
 34
0.0
100
AcDbRotatedDimension
1001
ACAD
1000
DSTYLE
1002
{
1070
   341
1005
0
1002
}
  0
DIMENSION
  5
21958
330
747D
100
AcDbEntity
  8
寸法
 48
50.0
100
AcDbDimension
  2
*D23
 10
9673.6
 20
9034.716921185649
 30
0.0
 11
10056.1
 21
9134.716921185649
 31
0.0
 70
    32
 71
     5
 42
765.0
  3
INABA_S40G
100
AcDbAlignedDimension
 13
10438.6
 23
8507.807155537321
 33
0.0
 14
9673.6
 24
7832.807155537321
 34
0.0
100
AcDbRotatedDimension
1001
ACAD
1000
DSTYLE
1002
{
1070
   341
1005
0
1002
}
  0
DIMENSION
  5
21959
330
747D
100
AcDbEntity
  8
寸法
 48
50.0
100
AcDbDimension
  2
*D24
 10
9309.531448609051
 20
8507.807155537323
 30
0.0
 11
9209.53144860905
 21
8070.307155537323
 31
0.0
 70
    32
 71
     5
 42
875.0000000000017
  3
INABA_S40G
100
AcDbAlignedDimension
 13
9573.6
 23
7632.807155537321
 33
0.0
 14
9114.157431058357
 24
8507.807155537323
 34
0.0
 50
90.0
100
AcDbRotatedDimension
1001
ACAD
1000
DSTYLE
1002
{
1070
   341
1005
0
1002
}
  0
LINE
  5
2195B
330
747D
100
AcDbEntity
  8
部品1
 48
50.0
100
AcDbLine
 10
9773.600000000001
 20
7832.807155537321
 30
0.0
 11
9573.6
 21
7832.807155537321
 31
0.0
  0
LINE
  5
2195C
330
747D
100
AcDbEntity
  8
部品1
 48
50.0
100
AcDbLine
 10
9773.600000000001
 20
7432.807155537318
 30
0.0
 11
9573.6
 21
7432.807155537318
 31
0.0
  0
LINE
  5
2195D
330
747D
100
AcDbEntity
  8
部品1
 48
50.0
100
AcDbLine
 10
9573.6
 20
7432.807155537318
 30
0.0
 11
9573.6
 21
7832.807155537321
 31
0.0
  0
LINE
  5
2195E
330
747D
100
AcDbEntity
  8
部品1
 48
50.0
100
AcDbLine
 10
9228.600000000007
 20
8507.807155537319
 30
0.0
 11
9228.600000000007
 21
8387.807155537322
 31
0.0
  0
LINE
  5
2195F
330
747D
100
AcDbEntity
  8
部品1
 48
50.0
100
AcDbLine
 10
9773.600000000001
 20
7432.807155537318
 30
0.0
 11
9773.600000000001
 21
7832.807155537321
 31
0.0
  0
LINE
  5
21960
330
747D
100
AcDbEntity
  8
センター
 48
2.0
100
AcDbLine
 10
9623.600000000001
 20
7632.807155537323
 30
0.0
 11
9723.600000000001
 21
7632.807155537323
 31
0.0
  0
LINE
  5
21961
330
747D
100
AcDbEntity
  8
センター
 48
2.0
100
AcDbLine
 10
9673.6
 20
7682.807155537322
 30
0.0
 11
9673.6
 21
7582.807155537323
 31
0.0
  0
LINE
  5
21962
330
747D
100
AcDbEntity
  8
部品1
 48
50.0
100
AcDbLine
 10
9428.600000000008
 20
8507.807155537319
 30
0.0
 11
9428.600000000008
 21
8387.807155537322
 31
0.0
  0
DIMENSION
  5
21964
330
747D
100
AcDbEntity
  8
寸法
 48
50.0
100
AcDbDimension
  2
*D25
 10
10315.6
 20
9253.566782079404
 30
0.0
 11
10711.7066017178
 21
9253.566782079404
 31
0.0
 70
   160
 71
     5
 42
123.0
  3
INABA_S40G
100
AcDbAlignedDimension
 13
10438.6
 23
8507.807155537321
 33
0.0
 14
10315.6
 24
8434.80715553732
 34
0.0
100
AcDbRotatedDimension
1001
ACAD
1000
DSTYLE
1002
{
1070
   341
1005
0
1002
}
  0
LINE
  5
21965
330
747D
100
AcDbEntity
  8
部品1
 48
50.0
100
AcDbLine
 10
10438.6
 20
7287.807155537324
 30
0.0
 11
10318.6
 21
7287.807155537324
 31
0.0
  0
DIMENSION
  5
21966
330
747D
100
AcDbEntity
  8
寸法
 48
50.0
100
AcDbDimension
  2
*D26
 10
10318.6
 20
7996.78136459866
 30
0.0
 11
10708.65905511811
 21
7996.78136459866
 31
0.0
 70
   160
 71
     5
 42
120.0
  3
INABA_S40G
100
AcDbAlignedDimension
 13
10438.6
 23
8277.807155537322
 33
0.0
 14
10318.6
 24
8277.807155537322
 34
0.0
100
AcDbRotatedDimension
1001
ACAD
1000
DSTYLE
1002
{
1070
   341
1005
0
1002
}
  0
CIRCLE
  5
21967
330
747D
100
AcDbEntity
  8
部品1
 48
50.0
100
AcDbCircle
 10
10315.6
 20
8384.807155537322
 30
0.0
 40
35.0
  0
LINE
  5
21968
330
747D
100
AcDbEntity
  8
センター
 48
2.0
100
AcDbLine
 10
10265.6
 20
8384.807155537322
 30
0.0
 11
10365.6
 21
8384.807155537322
 31
0.0
  0
LINE
  5
21969
330
747D
100
AcDbEntity
  8
部品1
 48
50.0
100
AcDbLine
 10
10318.6
 20
8277.807155537322
 30
0.0
 11
10208.6
 21
8277.807155537319
 31
0.0
  0
LINE
  5
2196A
330
747D
100
AcDbEntity
  8
部品1
 48
50.0
100
AcDbLine
 10
10208.6
 20
8277.807155537319
 30
0.0
 11
10208.6
 21
8387.807155537322
 31
0.0
  0
LINE
  5
2196B
330
747D
100
AcDbEntity
  8
センター
 48
2.0
100
AcDbLine
 10
10315.6
 20
8434.80715553732
 30
0.0
 11
10315.6
 21
8334.807155537321
 31
0.0
  0
LINE
  5
22266
330
747D
100
AcDbEntity
  8
部品1
 48
50.0
100
AcDbLine
 10
7563.6
 20
7832.807155537321
 30
0.0
 11
7363.600000000001
 21
7832.807155537321
 31
0.0
  0
LINE
  5
22267
330
747D
100
AcDbEntity
  8
センター
 48
2.0
100
AcDbLine
 10
7463.600000000001
 20
7682.807155537322
 30
0.0
 11
7463.600000000001
 21
7582.807155537323
 31
0.0
  0
LINE
  5
22268
330
747D
100
AcDbEntity
  8
センター
 48
2.0
100
AcDbLine
 10
7413.600000000001
 20
7632.807155537323
 30
0.0
 11
7513.600000000001
 21
7632.807155537323
 31
0.0
  0
LINE
  5
22269
330
747D
100
AcDbEntity
  8
部品1
 48
50.0
100
AcDbLine
 10
7563.6
 20
7432.807155537318
 30
0.0
 11
7363.600000000001
 21
7432.807155537318
 31
0.0
  0
LINE
  5
2226A
330
747D
100
AcDbEntity
  8
部品1
 48
50.0
100
AcDbLine
 10
7563.6
 20
7432.807155537318
 30
0.0
 11
7563.6
 21
7832.807155537321
 31
0.0
  0
LINE
  5
2226B
330
747D
100
AcDbEntity
  8
部品1
 48
50.0
100
AcDbLine
 10
7363.600000000001
 20
7432.807155537318
 30
0.0
 11
7363.600000000001
 21
7832.807155537321
 31
0.0
  0
LINE
  5
2226C
330
747D
100
AcDbEntity
  8
部品1
 48
50.0
100
AcDbLine
 10
7563.6
 20
6542.807155537336
 30
0.0
 11
7563.6
 21
6942.807155537337
 31
0.0
  0
LINE
  5
2226D
330
747D
100
AcDbEntity
  8
センター
 48
2.0
100
AcDbLine
 10
7413.600000000001
 20
6742.807155537339
 30
0.0
 11
7513.600000000001
 21
6742.807155537339
 31
0.0
  0
LINE
  5
2226E
330
747D
100
AcDbEntity
  8
部品1
 48
50.0
100
AcDbLine
 10
7363.600000000001
 20
6542.807155537336
 30
0.0
 11
7363.599999999998
 21
6942.807155537337
 31
0.0
  0
LINE
  5
2226F
330
747D
100
AcDbEntity
  8
センター
 48
2.0
100
AcDbLine
 10
7463.600000000001
 20
6792.807155537339
 30
0.0
 11
7463.600000000001
 21
6692.807155537339
 31
0.0
  0
LINE
  5
22270
330
747D
100
AcDbEntity
  8
部品1
 48
50.0
100
AcDbLine
 10
7563.6
 20
6542.807155537335
 30
0.0
 11
7363.600000000001
 21
6542.807155537335
 31
0.0
  0
LINE
  5
22271
330
747D
100
AcDbEntity
  8
部品1
 48
50.0
100
AcDbLine
 10
7563.6
 20
6942.807155537339
 30
0.0
 11
7363.600000000001
 21
6942.807155537339
 31
0.0
  0
DIMENSION
  5
2227B
330
747D
100
AcDbEntity
  8
寸法
 48
50.0
100
AcDbDimension
  2
*D29
 10
6773.6
 20
9034.716921185649
 30
0.0
 11
7118.6
 21
9134.716921185649
 31
0.0
 70
    32
 71
     5
 42
690.0000000000009
  3
INABA_S40G
100
AcDbAlignedDimension
 13
7463.600000000001
 23
7832.807155537321
 33
0.0
 14
6773.6
 24
7832.807155537321
 34
0.0
100
AcDbRotatedDimension
1001
ACAD
1000
DSTYLE
1002
{
1070
   341
1005
0
1002
}
  0
LINE
  5
222C0
330
747D
100
AcDbEntity
  8
部品1
 48
50.0
100
AcDbLine
 10
9083.6
 20
7832.807155537321
 30
0.0
 11
8883.599999999999
 21
7832.807155537321
 31
0.0
  0
LINE
  5
222C1
330
747D
100
AcDbEntity
  8
センター
 48
2.0
100
AcDbLine
 10
8983.6
 20
7682.807155537322
 30
0.0
 11
8983.6
 21
7582.807155537323
 31
0.0
  0
LINE
  5
222C2
330
747D
100
AcDbEntity
  8
センター
 48
2.0
100
AcDbLine
 10
8933.6
 20
7632.807155537323
 30
0.0
 11
9033.599999999999
 21
7632.807155537323
 31
0.0
  0
LINE
  5
222C3
330
747D
100
AcDbEntity
  8
部品1
 48
50.0
100
AcDbLine
 10
9083.6
 20
7432.807155537318
 30
0.0
 11
8883.599999999999
 21
7432.807155537318
 31
0.0
  0
LINE
  5
222C4
330
747D
100
AcDbEntity
  8
部品1
 48
50.0
100
AcDbLine
 10
9083.599999999997
 20
7432.807155537318
 30
0.0
 11
9083.6
 21
7832.807155537321
 31
0.0
  0
LINE
  5
222C5
330
747D
100
AcDbEntity
  8
部品1
 48
50.0
100
AcDbLine
 10
8883.599999999999
 20
7432.807155537318
 30
0.0
 11
8883.599999999999
 21
7832.807155537321
 31
0.0
  0
LINE
  5
222C6
330
747D
100
AcDbEntity
  8
部品1
 48
50.0
100
AcDbLine
 10
9083.6
 20
6542.807155537336
 30
0.0
 11
9083.599999999997
 21
6942.807155537337
 31
0.0
  0
LINE
  5
222C7
330
747D
100
AcDbEntity
  8
センター
 48
2.0
100
AcDbLine
 10
8933.6
 20
6742.807155537339
 30
0.0
 11
9033.599999999999
 21
6742.807155537339
 31
0.0
  0
LINE
  5
222C8
330
747D
100
AcDbEntity
  8
部品1
 48
50.0
100
AcDbLine
 10
8883.599999999999
 20
6542.807155537335
 30
0.0
 11
8883.599999999999
 21
6942.807155537339
 31
0.0
  0
LINE
  5
222C9
330
747D
100
AcDbEntity
  8
センター
 48
2.0
100
AcDbLine
 10
8983.6
 20
6792.807155537339
 30
0.0
 11
8983.6
 21
6692.807155537339
 31
0.0
  0
LINE
  5
222CA
330
747D
100
AcDbEntity
  8
部品1
 48
50.0
100
AcDbLine
 10
9083.6
 20
6542.807155537335
 30
0.0
 11
8883.599999999999
 21
6542.807155537335
 31
0.0
  0
LINE
  5
222CB
330
747D
100
AcDbEntity
  8
部品1
 48
50.0
100
AcDbLine
 10
9083.6
 20
6942.807155537339
 30
0.0
 11
8883.599999999999
 21
6942.807155537339
 31
0.0
  0
DIMENSION
  5
222D5
330
747D
100
AcDbEntity
  8
寸法
 48
50.0
100
AcDbDimension
  2
*D30
 10
8983.6
 20
9034.716921185649
 30
0.0
 11
9328.599999999999
 21
9134.716921185649
 31
0.0
 70
    32
 71
     5
 42
690.0
  3
INABA_S40G
100
AcDbAlignedDimension
 13
9673.6
 23
7832.807155537321
 33
0.0
 14
8983.6
 24
7832.807155537321
 34
0.0
100
AcDbRotatedDimension
1001
ACAD
1000
DSTYLE
1002
{
1070
   341
1005
0
1002
}
  0
LINE
  5
23A5A
330
747D
100
AcDbEntity
  8
部品1
 48
50.0
100
AcDbLine
 10
8323.600000000004
 20
6942.807155537342
 30
0.0
 11
8123.600000000005
 21
6942.807155537342
 31
0.0
  0
LINE
  5
23A5B
330
747D
100
AcDbEntity
  8
センター
 48
2.0
100
AcDbLine
 10
8173.600000000005
 20
6742.807155537342
 30
0.0
 11
8273.600000000005
 21
6742.807155537342
 31
0.0
  0
LINE
  5
23A5C
330
747D
100
AcDbEntity
  8
部品1
 48
50.0
100
AcDbLine
 10
8323.600000000004
 20
6542.807155537342
 30
0.0
 11
8123.600000000005
 21
6542.807155537342
 31
0.0
  0
LINE
  5
23A5D
330
747D
100
AcDbEntity
  8
部品1
 48
50.0
100
AcDbLine
 10
8323.600000000004
 20
6542.807155537342
 30
0.0
 11
8323.600000000004
 21
6942.807155537342
 31
0.0
  0
LINE
  5
23A5E
330
747D
100
AcDbEntity
  8
センター
 48
2.0
100
AcDbLine
 10
8223.600000000004
 20
6792.807155537342
 30
0.0
 11
8223.600000000004
 21
6692.807155537342
 31
0.0
  0
LINE
  5
23A5F
330
747D
100
AcDbEntity
  8
部品1
 48
50.0
100
AcDbLine
 10
8123.600000000005
 20
6542.807155537342
 30
0.0
 11
8123.600000000005
 21
6942.807155537342
 31
0.0
  0
DIMENSION
  5
246B7
330
747D
100
AcDbEntity
  8
寸法
 48
50.0
100
AcDbDimension
  2
*D31
 10
6441.316884067376
 20
5792.80715553731
 30
0.0
 11
6441.316884067375
 21
5554.112214333418
 31
0.0
 70
   160
 71
     5
 42
195.0000000000145
  3
INABA_S40G
100
AcDbAlignedDimension
 13
6238.6
 23
5987.807155537325
 33
0.0
 14
6238.600000000001
 24
5792.80715553731
 34
0.0
 50
90.0
100
AcDbRotatedDimension
1001
ACAD
1000
DSTYLE
1002
{
1070
   341
1005
0
1002
}
  0
DIMENSION
  5
249BC
330
747D
100
AcDbEntity
  8
寸法
 48
50.0
100
AcDbDimension
  2
*D32
 10
5772.312481891145
 20
5867.807155537362
 30
0.0
 11
5772.312481891145
 21
5259.321874163121
 31
0.0
 70
   160
  1
扉の出<>
 71
     5
 42
75.00000000000182
  3
INABA_S40G
100
AcDbAlignedDimension
 13
6008.600000000001
 23
5792.80715553736
 33
0.0
 14
6008.600000000008
 24
5867.807155537362
 34
0.0
 50
90.0
100
AcDbRotatedDimension
1001
ACAD
1000
DSTYLE
1002
{
1070
   341
1005
0
1002
}
  0
DIMENSION
  5
249BD
330
747D
100
AcDbEntity
  8
寸法
 48
50.0
100
AcDbDimension
  2
*D33
 10
6008.600000000001
 20
5188.821425718582
 30
0.0
 11
7098.766762832856
 21
5188.821425718582
 31
0.0
 70
   160
  1
扉の幅 <>
 71
     5
 42
2187.999999999999
  3
INABA_S40G
100
AcDbAlignedDimension
 13
8196.600000000001
 23
5792.807155537342
 33
0.0
 14
6008.600000000001
 24
5792.807155537325
 34
0.0
100
AcDbRotatedDimension
1001
ACAD
1000
DSTYLE
1002
{
1070
   341
1005
0
1002
}
  0
TEXT
  5
249BE
330
747D
100
AcDbEntity
  8
寸法
 62
     7
100
AcDbText
 10
6533.456352585791
 20
4537.37488013911
 30
0.0
 40
120.0
  1
扉の位置に合わせた基礎形状として下さい。
  7
STYLE1
100
AcDbText
  0
LWPOLYLINE
  5
249BF
330
747D
100
AcDbEntity
  8
寸法
 48
50.0
100
AcDbPolyline
 90
        3
 70
     0
 43
0.0
 10
-6757.850857895411
 20
5792.807155537317
 10
-6416.840393393039
 20
4686.710695474117
 10
-9230.90480632468
 20
4686.710695474117
210
0.0
220
0.0
230
-1.0
1001
ACAD
1000
DSTYLE
1002
{
1070
   341
1005
0
1070
    40
1040
1.0
1070
   343
1005
0
1070
   344
1005
0
1002
}
  0
SOLID
  5
249C0
330
747D
100
AcDbEntity
  8
寸法
 48
50.0
100
AcDbTrace
 10
-6740.941652225425
 20
5667.216126632432
 30
0.0
 11
-6757.850857895411
 21
5792.807155537317
 31
0.0
 12
-6701.123437751947
 22
5679.488897601341
 32
0.0
 13
-6701.123437751947
 23
5679.488897601341
 33
0.0
210
0.0
220
0.0
230
-1.0
1001
ACAD
1000
DSTYLE
1002
{
1070
   341
1005
0
1070
    40
1040
1.0
1070
   343
1005
0
1070
   344
1005
0
1002
}
  0
TEXT
  5
249C1
330
747D
100
AcDbEntity
  8
寸法
 62
     7
100
AcDbText
 10
6533.456352585791
 20
4708.978643022436
 30
0.0
 40
120.0
  1
扉位置 (2188x75)
  7
STYLE1
100
AcDbText
  0
LINE
  5
249C2
330
747D
100
AcDbEntity
  8
想像線
 48
10.0
100
AcDbLine
 10
9147.16214885316
 20
8582.807155537322
 30
0.0
 11
10483.6
 21
8582.807155537318
 31
0.0
  0
LINE
  5
24D67
330
747D
100
AcDbEntity
  8
想像線
 48
10.0
100
AcDbLine
 10
9147.16214885316
 20
5812.807155537329
 30
0.0
 11
10483.6
 21
5812.807155537325
 31
0.0
  0
LINE
  5
24DB9
330
747D
100
AcDbEntity
  8
細線
 48
50.0
100
AcDbLine
 10
7018.600000000002
 20
5958.363714773179
 30
0.0
 11
7048.043440764148
 21
5987.807155537328
 31
0.0
  0
LINE
  5
24DBA
330
747D
100
AcDbEntity
  8
細線
 48
50.0
100
AcDbLine
 10
7018.600000000002
 20
5913.462434167835
 30
0.0
 11
7092.944721369493
 21
5987.807155537328
 31
0.0
  0
LINE
  5
24DBB
330
747D
100
AcDbEntity
  8
細線
 48
50.0
100
AcDbLine
 10
7018.600000000002
 20
5868.561153562488
 30
0.0
 11
7137.846001974839
 21
5987.807155537328
 31
0.0
  0
LINE
  5
24DBC
330
747D
100
AcDbEntity
  8
細線
 48
50.0
100
AcDbLine
 10
7018.600000000002
 20
5823.659872957143
 30
0.0
 11
7182.747282580185
 21
5987.807155537328
 31
0.0
  0
LINE
  5
24DBD
330
747D
100
AcDbEntity
  8
細線
 48
50.0
100
AcDbLine
 10
7032.648563185516
 20
5792.807155537314
 30
0.0
 11
7218.600000000002
 21
5978.758592351795
 31
0.0
  0
LINE
  5
24DBE
330
747D
100
AcDbEntity
  8
細線
 48
50.0
100
AcDbLine
 10
7077.549843790865
 20
5792.807155537314
 30
0.0
 11
7218.600000000002
 21
5933.857311746451
 31
0.0
  0
LINE
  5
24DBF
330
747D
100
AcDbEntity
  8
細線
 48
50.0
100
AcDbLine
 10
7122.451124396211
 20
5792.807155537314
 30
0.0
 11
7218.600000000002
 21
5888.956031141105
 31
0.0
  0
LINE
  5
24DC0
330
747D
100
AcDbEntity
  8
細線
 48
50.0
100
AcDbLine
 10
7167.352405001557
 20
5792.807155537314
 30
0.0
 11
7218.600000000002
 21
5844.054750535759
 31
0.0
  0
LINE
  5
24DC1
330
747D
100
AcDbEntity
  8
細線
 48
50.0
100
AcDbLine
 10
7212.253685606903
 20
5792.807155537317
 30
0.0
 11
7218.600000000002
 21
5799.153469930414
 31
0.0
  0
LINE
  5
24DC2
330
747D
100
AcDbEntity
  8
細線
 48
50.0
100
AcDbLine
 10
9228.600000000017
 20
5932.835428672559
 30
0.0
 11
9283.57172686479
 21
5987.807155537336
 31
0.0
  0
LINE
  5
24DC3
330
747D
100
AcDbEntity
  8
細線
 48
50.0
100
AcDbLine
 10
9228.600000000017
 20
5887.934148067212
 30
0.0
 11
9328.473007470135
 21
5987.807155537336
 31
0.0
  0
LINE
  5
24DC4
330
747D
100
AcDbEntity
  8
細線
 48
50.0
100
AcDbLine
 10
9253.374288075484
 20
5867.807155537335
 30
0.0
 11
9373.374288075488
 21
5987.807155537336
 31
0.0
  0
LINE
  5
24DC5
330
747D
100
AcDbEntity
  8
細線
 48
50.0
100
AcDbLine
 10
9298.27556868083
 20
5867.807155537335
 30
0.0
 11
9418.275568680826
 21
5987.807155537336
 31
0.0
  0
LINE
  5
24DC6
330
747D
100
AcDbEntity
  8
細線
 48
50.0
100
AcDbLine
 10
9343.176849286177
 20
5867.807155537335
 30
0.0
 11
9428.600000000017
 21
5953.230306251175
 31
0.0
  0
LINE
  5
24DC7
330
747D
100
AcDbEntity
  8
細線
 48
50.0
100
AcDbLine
 10
9388.078129891519
 20
5867.807155537335
 30
0.0
 11
9428.600000000017
 21
5908.32902564583
 31
0.0
  0
LINE
  5
24DC8
330
747D
100
AcDbEntity
  8
細線
 48
50.0
100
AcDbLine
 10
10318.6
 20
7261.848234726004
 30
0.0
 11
10344.55892081132
 21
7287.807155537322
 31
0.0
  0
LINE
  5
24DC9
330
747D
100
AcDbEntity
  8
細線
 48
50.0
100
AcDbLine
 10
10318.6
 20
7216.946954120659
 30
0.0
 11
10389.46020141666
 21
7287.807155537324
 31
0.0
  0
LINE
  5
24DCA
330
747D
100
AcDbEntity
  8
細線
 48
50.0
100
AcDbLine
 10
10318.6
 20
7172.045673515309
 30
0.0
 11
10434.36148202201
 21
7287.807155537324
 31
0.0
  0
LINE
  5
24DCB
330
747D
100
AcDbEntity
  8
細線
 48
50.0
100
AcDbLine
 10
10318.6
 20
7127.144392909966
 30
0.0
 11
10438.6
 21
7247.144392909969
 31
0.0
  0
LINE
  5
24DCC
330
747D
100
AcDbEntity
  8
細線
 48
50.0
100
AcDbLine
 10
10324.1640432327
 20
7087.807155537323
 30
0.0
 11
10438.6
 21
7202.243112304623
 31
0.0
  0
LINE
  5
24DCD
330
747D
100
AcDbEntity
  8
細線
 48
50.0
100
AcDbLine
 10
10369.06532383805
 20
7087.807155537324
 30
0.0
 11
10438.6
 21
7157.341831699277
 31
0.0
  0
LINE
  5
24DCE
330
747D
100
AcDbEntity
  8
細線
 48
50.0
100
AcDbLine
 10
10413.96660444339
 20
7087.807155537323
 30
0.0
 11
10438.6
 21
7112.440551093931
 31
0.0
  0
LINE
  5
24DCF
330
747D
100
AcDbEntity
  8
細線
 48
50.0
100
AcDbLine
 10
9228.600000000007
 20
8472.83542867254
 30
0.0
 11
9263.571726864782
 21
8507.807155537317
 31
0.0
  0
LINE
  5
24DD0
330
747D
100
AcDbEntity
  8
細線
 48
50.0
100
AcDbLine
 10
9228.60000000001
 20
8427.934148067196
 30
0.0
 11
9308.473007470125
 21
8507.807155537316
 31
0.0
  0
LINE
  5
24DD1
330
747D
100
AcDbEntity
  8
細線
 48
50.0
100
AcDbLine
 10
9233.374288075479
 20
8387.807155537322
 30
0.0
 11
9353.374288075476
 21
8507.807155537317
 31
0.0
  0
LINE
  5
24DD2
330
747D
100
AcDbEntity
  8
細線
 48
50.0
100
AcDbLine
 10
9278.275568680827
 20
8387.807155537322
 30
0.0
 11
9398.275568680821
 21
8507.807155537317
 31
0.0
  0
LINE
  5
24DD3
330
747D
100
AcDbEntity
  8
細線
 48
50.0
100
AcDbLine
 10
9323.176849286172
 20
8387.807155537322
 30
0.0
 11
9428.60000000001
 21
8493.230306251161
 31
0.0
  0
LINE
  5
24DD4
330
747D
100
AcDbEntity
  8
細線
 48
50.0
100
AcDbLine
 10
9368.078129891515
 20
8387.807155537322
 30
0.0
 11
9428.60000000001
 21
8448.329025645813
 31
0.0
  0
LINE
  5
24DD5
330
747D
100
AcDbEntity
  8
細線
 48
50.0
100
AcDbLine
 10
7018.600000000009
 20
8472.835428672544
 30
0.0
 11
7053.571726864783
 21
8507.807155537317
 31
0.0
  0
LINE
  5
24DD6
330
747D
100
AcDbEntity
  8
細線
 48
50.0
100
AcDbLine
 10
7018.600000000009
 20
8427.934148067199
 30
0.0
 11
7098.473007470129
 21
8507.807155537317
 31
0.0
  0
LINE
  5
24DD7
330
747D
100
AcDbEntity
  8
細線
 48
50.0
100
AcDbLine
 10
7023.374288075477
 20
8387.807155537322
 30
0.0
 11
7143.374288075475
 21
8507.807155537319
 31
0.0
  0
LINE
  5
24DD8
330
747D
100
AcDbEntity
  8
細線
 48
50.0
100
AcDbLine
 10
7068.275568680822
 20
8387.807155537322
 30
0.0
 11
7188.275568680818
 21
8507.807155537317
 31
0.0
  0
LINE
  5
24DD9
330
747D
100
AcDbEntity
  8
細線
 48
50.0
100
AcDbLine
 10
7113.176849286168
 20
8387.807155537322
 30
0.0
 11
7218.600000000006
 21
8493.230306251161
 31
0.0
  0
LINE
  5
24DDA
330
747D
100
AcDbEntity
  8
細線
 48
50.0
100
AcDbLine
 10
7158.078129891515
 20
8387.807155537322
 30
0.0
 11
7218.600000000009
 21
8448.329025645815
 31
0.0
  0
LINE
  5
24DDB
330
747D
100
AcDbEntity
  8
細線
 48
50.0
100
AcDbLine
 10
6008.600000000001
 20
7281.848234725996
 30
0.0
 11
6014.558920811326
 21
7287.807155537321
 31
0.0
  0
LINE
  5
24DDC
330
747D
100
AcDbEntity
  8
細線
 48
50.0
100
AcDbLine
 10
6008.600000000001
 20
7236.94695412065
 30
0.0
 11
6059.460201416674
 21
7287.807155537321
 31
0.0
  0
LINE
  5
24DDD
330
747D
100
AcDbEntity
  8
細線
 48
50.0
100
AcDbLine
 10
6008.600000000001
 20
7192.045673515305
 30
0.0
 11
6104.361482022018
 21
7287.807155537322
 31
0.0
  0
LINE
  5
24DDE
330
747D
100
AcDbEntity
  8
細線
 48
50.0
100
AcDbLine
 10
6008.600000000001
 20
7147.144392909959
 30
0.0
 11
6128.6
 21
7267.144392909959
 31
0.0
  0
LINE
  5
24DDF
330
747D
100
AcDbEntity
  8
細線
 48
50.0
100
AcDbLine
 10
6008.600000000001
 20
7102.243112304613
 30
0.0
 11
6128.6
 21
7222.243112304612
 31
0.0
  0
LINE
  5
24DE0
330
747D
100
AcDbEntity
  8
細線
 48
50.0
100
AcDbLine
 10
6039.065323838055
 20
7087.807155537323
 30
0.0
 11
6128.600000000002
 21
7177.341831699266
 31
0.0
  0
LINE
  5
24DE1
330
747D
100
AcDbEntity
  8
細線
 48
50.0
100
AcDbLine
 10
6083.966604443401
 20
7087.807155537321
 30
0.0
 11
6128.6
 21
7132.44055109392
 31
0.0
  0
LWPOLYLINE
  5
24F72
330
747D
100
AcDbEntity
  8
部品1
 48
50.0
100
AcDbPolyline
 90
        2
 70
     0
 43
10.0
 10
8045.391820363887
 20
1622.971436712057
 10
8412.519899613114
 20
1622.971436712057
  0
TEXT
  5
24F73
330
747D
100
AcDbEntity
  8
部品1
 48
50.0
100
AcDbText
 10
8050.83380071942
 20
2367.819787664807
 30
0.0
 40
100.0
  1
基礎ボルト(市販品)
  7
STYLE2
100
AcDbText
  0
LINE
  5
24F74
330
747D
100
AcDbEntity
  8
部品1
 48
50.0
100
AcDbLine
 10
8045.391820363887
 20
1242.971436712056
 30
0.0
 11
8205.391820363884
 21
1242.971436712056
 31
0.0
  0
LINE
  5
24F75
330
747D
100
AcDbEntity
  8
細線
 48
50.0
100
AcDbLine
 10
7977.556439057393
 20
942.9714367120563
 30
0.0
 11
8205.391820363884
 21
1170.806818018551
 31
0.0
  0
DIMENSION
  5
24F76
330
747D
100
AcDbEntity
  8
寸法
 48
50.0
100
AcDbDimension
  2
*D34
 10
8672.72757007494
 20
1517.971436712054
 30
0.0
 11
8572.72757007494
 21
1720.471436712056
 31
0.0
 70
    32
  1
180
 71
     5
 42
405.0000000000018
  3
INABA_S40G
100
AcDbAlignedDimension
 13
8045.391820363887
 23
1922.971436712056
 33
0.0
 14
8045.391820363887
 24
1517.971436712054
 34
0.0
 50
90.0
100
AcDbRotatedDimension
1001
ACAD
1000
DSTYLE
1002
{
1070
   341
1005
0
1002
}
  0
LINE
  5
24F77
330
747D
100
AcDbEntity
  8
部品1
100
AcDbLine
 10
11180.51668343864
 20
3574.185961433112
 30
0.0
 11
4284.041987340608
 21
3574.185961433112
 31
0.0
  0
LINE
  5
24F78
330
747D
100
AcDbEntity
  8
部品1
100
AcDbLine
 10
11180.51668343864
 20
3274.185961433111
 30
0.0
 11
4284.041987340608
 21
3274.185961433111
 31
0.0
  0
LINE
  5
24F79
330
747D
100
AcDbEntity
  8
部品1
100
AcDbLine
 10
4284.041987340608
 20
315.1164620784243
 30
0.0
 11
11180.51668343864
 21
315.1164620784243
 31
0.0
  0
LINE
  5
24F7A
330
747D
100
AcDbEntity
  8
部品1
 48
50.0
100
AcDbLine
 10
8305.391820363885
 20
942.9714367120563
 30
0.0
 11
7267.891820363887
 21
942.9714367120563
 31
0.0
  0
LINE
  5
24F7B
330
747D
100
AcDbEntity
  8
部品1
 48
50.0
100
AcDbLine
 10
8305.391820363885
 20
782.9714367120564
 30
0.0
 11
7267.891820363887
 21
782.9714367120564
 31
0.0
  0
LINE
  5
24F7C
330
747D
100
AcDbEntity
  8
細線
 48
50.0
100
AcDbLine
 10
7910.204518149376
 20
942.9714367120563
 30
0.0
 11
8205.391820363884
 21
1238.158738926565
 31
0.0
  0
DIMENSION
  5
24F7D
330
747D
100
AcDbEntity
  8
寸法
 48
50.0
100
AcDbDimension
  2
*D35
 10
9017.795902723719
 20
1922.971436712056
 30
0.0
 11
9017.795902723719
 21
1456.962533290574
 31
0.0
 70
   160
  1
20～25
 71
     5
 42
65.95000000000005
  3
INABA_S40G
100
AcDbAlignedDimension
 13
7811.391820363884
 23
1988.921436712056
 33
0.0
 14
8045.391820363887
 24
1922.971436712056
 34
0.0
 50
90.0
100
AcDbRotatedDimension
1001
ACAD
1000
DSTYLE
1002
{
1070
   341
1005
0
1002
}
  0
MTEXT
  5
24F7E
102
{ACAD_REACTORS
330
24F7F
102
}
330
747D
100
AcDbEntity
  8
部品1
 62
     7
 48
50.0
100
AcDbMText
 10
8056.572398388032
 20
2253.450594403594
 30
0.0
 40
100.0
 41
1.0
 71
     4
 72
     1
  1
M10X160
  7
STYLE2
 73
     1
 44
1.0
1001
ACAD
1000
MTEXTBEGIN
1070
    73
1070
     1
1070
    44
1040
1.0
1070
    74
1070
     0
1000
MTEXTEND
  0
LEADER
  5
24F7F
330
747D
100
AcDbEntity
  8
寸法
 48
50.0
100
AcDbLeader
  3
INABA_S40G
 73
     0
 74
     0
 75
     1
 40
100.0
 41
543.75
 76
     3
 10
7815.891820363884
 20
1984.421436712057
 30
0.0
 10
7916.572398388033
 20
2163.450594403594
 30
0.0
 10
8016.572398388033
 20
2163.450594403594
 30
0.0
340
24F7E
1001
ACAD
1000
DSTYLE
1002
{
1070
   341
1005
0
1002
}
  0
MTEXT
  5
24F80
102
{ACAD_REACTORS
330
24F81
102
}
330
747D
100
AcDbEntity
  8
部品1
 62
     7
 48
50.0
100
AcDbMText
 10
8055.084284255581
 20
3029.802006527117
 30
0.0
 40
100.0
 41
1.0
 71
     4
 72
     1
  1
\A1;ナット(市販品)
  7
STYLE2
 73
     1
 44
1.0
1001
ACAD
1000
MTEXTBEGIN
1070
    73
1070
     1
1070
    44
1040
1.0
1070
    74
1070
     0
1000
MTEXTEND
  0
LEADER
  5
24F81
330
747D
100
AcDbEntity
  8
寸法
 48
50.0
100
AcDbLeader
  3
INABA_S40G
 73
     0
 74
     0
 75
     1
 40
127.8409090909091
 41
850.0
 76
     3
 10
7824.641820363884
 20
2421.565538098485
 30
0.0
 10
7915.084284255581
 20
2925.881551981662
 30
0.0
 10
8015.084284255582
 20
2925.881551981662
 30
0.0
340
24F80
1001
ACAD
1000
DSTYLE
1002
{
1070
   341
1005
0
1002
}
  0
LEADER
  5
24F82
330
747D
100
AcDbEntity
  8
寸法
 48
50.0
100
AcDbLeader
  3
INABA_S40G
 73
     0
 74
     0
 75
     1
 40
127.8409090909091
 41
1133.522727272727
 76
     3
 10
7854.641820363884
 20
2259.375547267406
 30
0.0
 10
7954.481308324935
 20
2694.670198525677
 30
0.0
 10
8054.481308324936
 20
2694.670198525677
 30
0.0
340
24F83
1001
ACAD
1000
DSTYLE
1002
{
1070
   341
1005
0
1002
}
  0
MTEXT
  5
24F83
102
{ACAD_REACTORS
330
24F82
102
}
330
747D
100
AcDbEntity
  8
部品1
 62
     7
 48
50.0
100
AcDbMText
 10
8094.481308324935
 20
2798.590653071131
 30
0.0
 40
100.0
 41
1.0
 71
     4
 72
     1
  1
\A1;ワッシャー(市販品)
  7
STYLE2
 73
     1
 44
1.0
1001
ACAD
1000
MTEXTBEGIN
1070
    73
1070
     1
1070
    44
1040
1.0
1070
    74
1070
     0
1000
MTEXTEND
  0
LINE
  5
24F84
330
747D
100
AcDbEntity
  8
細線
 48
50.0
100
AcDbLine
 10
7943.880478603387
 20
942.9714367120563
 30
0.0
 11
8205.391820363884
 21
1204.482778472548
 31
0.0
  0
TEXT
  5
24F85
330
747D
100
AcDbEntity
  8
部品1
100
AcDbText
 10
7289.971095857255
 20
3349.746046493827
 30
0.0
 40
150.0
  1
基礎詳細
  7
STYLE2
100
AcDbText
  0
LINE
  5
24F86
330
747D
100
AcDbEntity
  8
部品1
100
AcDbLine
 10
4284.041987340613
 20
3574.185961433112
 30
0.0
 11
4284.041987340613
 21
315.1164620784243
 31
0.0
  0
LEADER
  5
24F87
330
747D
100
AcDbEntity
  8
寸法
 48
50.0
100
AcDbLeader
  3
INABA_S40G
 73
     0
 75
     1
 40
141.4772727272727
 41
760.7954545454546
 76
     3
 10
7765.562758036447
 20
1859.866028409904
 30
0.0
 10
7550.807972172264
 20
2915.339881355501
 30
0.0
 10
7450.807972172263
 20
2915.339881355501
 30
0.0
340
24F88
1001
ACAD
1000
DSTYLE
1002
{
1070
   341
1005
0
1002
}
  0
MTEXT
  5
24F88
102
{ACAD_REACTORS
330
24F87
102
}
330
747D
100
AcDbEntity
  8
寸法
 62
     7
 48
50.0
100
AcDbMText
 10
7410.807972172263
 20
3026.078517719137
 30
0.0
 40
100.0
 41
1.0
 71
     6
 72
     1
  1
\A1;φ70スリーブ
  7
STYLE2
 73
     1
 44
1.0
1001
ACAD
1000
MTEXTBEGIN
1070
    73
1070
     1
1070
    44
1040
1.0
1070
    74
1070
     0
1000
MTEXTEND
  0
MTEXT
  5
24F89
102
{ACAD_REACTORS
330
24F8A
102
}
330
747D
100
AcDbEntity
  8
寸法
 62
     7
 48
50.0
100
AcDbMText
 10
5291.280111113885
 20
1424.597190233877
 30
0.0
 40
100.0
 41
1.0
 71
     6
 72
     1
  1
\A1;D10@300
  7
STYLE2
 73
     1
 44
1.0
1001
ACAD
1000
MTEXTBEGIN
1070
    73
1070
     1
1070
    44
1040
1.0
1070
    74
1070
     0
1000
MTEXTEND
  0
LEADER
  5
24F8A
330
747D
100
AcDbEntity
  8
寸法
 48
50.0
100
AcDbLeader
  3
INABA_S40G
 71
     0
 73
     0
 75
     1
 40
100.0
 41
540.3409090909091
 76
     3
 10
5532.842678892393
 20
1620.630455083459
 30
0.0
 10
5404.11488323152
 20
1343.792544407454
 30
0.0
 10
5304.11488323152
 20
1343.792544407454
 30
0.0
213
-12.16522788236671
223
-5.804645826423211
233
0.0
1001
ACAD
1000
DSTYLE
1002
{
1070
   341
1005
0
1002
}
  0
LEADER
  5
24F8B
330
747D
100
AcDbEntity
  8
寸法
 48
50.0
100
AcDbLeader
  3
INABA_S40G
 71
     0
 73
     0
 75
     1
 40
130.1136363636363
 41
651.1363636363636
 76
     3
 10
5502.842678892392
 20
1922.971436712056
 30
0.0
 10
5443.924678974111
 20
2098.55989353279
 30
0.0
 10
5343.924678974111
 20
2098.55989353279
 30
0.0
1001
ACAD
1000
DSTYLE
1002
{
1070
   341
1005
0
1002
}
  0
MTEXT
  5
24F8C
102
{ACAD_REACTORS
330
24F8B
102
}
330
747D
100
AcDbEntity
  8
寸法
 62
     7
 48
50.0
100
AcDbMText
 10
5318.92467897411
 20
2188.61671171461
 30
0.0
 40
100.0
 41
1.0
 71
     6
 72
     1
  1
\A1;金コテ押エ
  7
STYLE2
 73
     1
 44
1.0
1001
ACAD
1000
MTEXTBEGIN
1070
    73
1070
     1
1070
    44
1040
1.0
1070
    74
1070
     0
1000
MTEXTEND
  0
DIMENSION
  5
24F8D
330
747D
100
AcDbEntity
  8
寸法
 48
50.0
100
AcDbDimension
  2
*D36
 10
4642.197740856327
 20
942.971436712056
 30
0.0
 11
4642.197740856327
 21
1432.971436712056
 31
0.0
 70
   160
  1
540
 71
     5
 42
980.0
  3
INABA_S40G
100
AcDbAlignedDimension
 13
5402.84267889239
 23
1922.971436712056
 33
0.0
 14
5142.842678892396
 24
942.971436712056
 34
0.0
 50
90.0
100
AcDbRotatedDimension
1001
ACAD
1000
DSTYLE
1002
{
1070
   341
1005
0
1002
}
  0
MTEXT
  5
24F8E
102
{ACAD_REACTORS
330
24F8F
102
}
330
747D
100
AcDbEntity
  8
寸法
 62
     7
 48
50.0
100
AcDbMText
 10
5064.327305595192
 20
613.1728790147063
 30
0.0
 40
100.0
 41
1.0
 71
     6
 72
     1
  1
D13
  7
STYLE2
 73
     1
 44
1.0
1001
ACAD
1000
MTEXTBEGIN
1070
    73
1070
     1
1070
    44
1040
1.0
1070
    74
1070
     0
1000
MTEXTEND
  0
LEADER
  5
24F8F
330
747D
100
AcDbEntity
  8
寸法
 48
50.0
100
AcDbLeader
  3
INABA_S40G
 71
     0
 73
     0
 75
     1
 40
100.0
 41
222.7272727272727
 76
     3
 10
5522.842678892391
 20
1092.971436712056
 30
0.0
 10
5189.327305595192
 20
538.1728790147064
 30
0.0
 10
5089.327305595192
 20
538.1728790147064
 30
0.0
1001
ACAD
1000
DSTYLE
1002
{
1070
   341
1005
0
1002
}
  0
DIMENSION
  5
24F90
330
747D
100
AcDbEntity
  8
寸法
 48
50.0
100
AcDbDimension
  2
*D37
 10
5802.842678892393
 20
484.0193302561218
 30
0.0
 11
5522.842678892391
 21
484.0193302561218
 31
0.0
 70
   160
  1
300
 71
     5
 42
560.0000000000018
  3
INABA_S40G
100
AcDbAlignedDimension
 13
5242.84267889239
 23
782.9714367120558
 33
0.0
 14
5802.842678892393
 24
782.9714367120558
 34
0.0
100
AcDbRotatedDimension
1001
ACAD
1000
DSTYLE
1002
{
1070
   341
1005
0
1002
}
  0
LEADER
  5
24F91
330
747D
100
AcDbEntity
  8
寸法
 48
50.0
100
AcDbLeader
  3
INABA_S40G
 73
     0
 75
     1
 40
132.9545454545455
 41
1116.477272727273
 76
     3
 10
7692.141820363883
 20
2009.921436712057
 30
0.0
 10
7584.111729932712
 20
2468.745905107472
 30
0.0
 10
7484.111729932712
 20
2468.745905107472
 30
0.0
340
24F92
1001
ACAD
1000
DSTYLE
1002
{
1070
   341
1005
0
1002
}
  0
MTEXT
  5
24F92
102
{ACAD_REACTORS
330
24F91
102
}
330
747D
100
AcDbEntity
  8
寸法
 62
     7
 48
50.0
100
AcDbMText
 10
7444.111729932711
 20
2575.223177834745
 30
0.0
 40
100.0
 41
1.0
 71
     6
 72
     1
  1
\A1;アンカープレート L
  7
STYLE2
 73
     1
 44
1.0
1001
ACAD
1000
MTEXTBEGIN
1070
    73
1070
     1
1070
    44
1040
1.0
1070
    74
1070
     0
1000
MTEXTEND
  0
LEADER
  5
24F93
330
747D
100
AcDbEntity
  8
寸法
 48
50.0
100
AcDbLeader
  3
INABA_S40G
 71
     0
 73
     0
 74
     0
 75
     1
 40
100.0
 41
540.3409090909091
 76
     3
 10
5615.274140158859
 20
1072.045773695148
 30
0.0
 10
5820.015748718956
 20
645.0072512015272
 30
0.0
 10
5920.015748718956
 20
645.0072512015272
 30
0.0
213
0.0
223
-1.277828345336728
233
0.0
1001
ACAD
1000
DSTYLE
1002
{
1070
   341
1005
0
1002
}
  0
MTEXT
  5
24F94
102
{ACAD_REACTORS
330
24F93
102
}
330
747D
100
AcDbEntity
  8
寸法
 62
     7
 48
50.0
100
AcDbMText
 10
5945.015748718955
 20
721.2850795468638
 30
0.0
 40
100.0
 41
1.0
 71
     4
 72
     1
  1
\A1;D10@300
  7
STYLE2
 73
     1
 44
1.0
1001
ACAD
1000
MTEXTBEGIN
1070
    73
1070
     1
1070
    44
1040
1.0
1070
    74
1070
     0
1000
MTEXTEND
  0
CIRCLE
  5
24F95
330
747D
100
AcDbEntity
  8
部品1
 48
50.0
100
AcDbCircle
 10
5522.842678892391
 20
1748.289473454862
 30
0.0
 40
10.0
  0
LINE
  5
24F96
330
747D
100
AcDbEntity
  8
細線
 48
50.0
100
AcDbLine
 10
5552.842678892393
 20
1720.937552546844
 30
0.0
 11
5642.842678892391
 21
1810.937552546844
 31
0.0
  0
MTEXT
  5
24F97
102
{ACAD_REACTORS
330
24F9C
102
}
330
747D
100
AcDbEntity
  8
寸法
 62
     7
 48
50.0
100
AcDbMText
 10
5746.450100176635
 20
1749.555888335715
 30
0.0
 40
100.0
 41
1.0
 71
     4
 72
     1
  1
D13
  7
STYLE2
 73
     1
 44
1.0
1001
ACAD
1000
MTEXTBEGIN
1070
    73
1070
     1
1070
    44
1040
1.0
1070
    74
1070
     0
1000
MTEXTEND
  0
TEXT
  5
24F98
330
747D
100
AcDbEntity
  8
部品1
 48
50.0
100
AcDbText
 10
4885.167801601197
 20
1637.020177066125
 30
0.0
 40
100.0
  1
▽G.L
  7
STYLE2
100
AcDbText
  0
ARC
  5
24F99
330
747D
100
AcDbEntity
  8
部品1
 48
50.0
100
AcDbCircle
 10
5522.842678892391
 20
1748.289473454862
 30
0.0
 40
30.0
100
AcDbArc
 50
0.0
 51
180.0
  0
LINE
  5
24F9A
330
747D
100
AcDbEntity
  8
部品1
 48
50.0
100
AcDbLine
 10
5402.84267889239
 20
1242.971436712056
 30
0.0
 11
5402.84267889239
 21
1922.971436712056
 31
0.0
  0
LINE
  5
24F9B
330
747D
100
AcDbEntity
  8
部品1
 48
50.0
100
AcDbLine
 10
5642.842678892391
 20
1922.971436712056
 30
0.0
 11
5642.842678892391
 21
1242.971436712056
 31
0.0
  0
LEADER
  5
24F9C
330
747D
100
AcDbEntity
  8
寸法
 48
50.0
100
AcDbLeader
  3
INABA_S40G
 71
     0
 73
     0
 74
     0
 75
     1
 40
100.0
 41
222.7272727272727
 76
     3
 10
5522.842678892391
 20
1748.289473454862
 30
0.0
 10
5621.450100176635
 20
1674.555888335715
 30
0.0
 10
5721.450100176635
 20
1674.555888335715
 30
0.0
1001
ACAD
1000
DSTYLE
1002
{
1070
   341
1005
0
1002
}
  0
LINE
  5
24F9D
330
747D
100
AcDbEntity
  8
細線
 48
50.0
100
AcDbLine
 10
5552.842678892399
 20
1451.529868914769
 30
0.0
 11
5642.842678892384
 21
1541.529868914769
 31
0.0
  0
LINE
  5
24F9E
330
747D
100
AcDbEntity
  8
細線
 48
50.0
100
AcDbLine
 10
5552.842678892399
 20
1485.205829368782
 30
0.0
 11
5642.842678892384
 21
1575.205829368775
 31
0.0
  0
LINE
  5
24F9F
330
747D
100
AcDbEntity
  8
細線
 48
50.0
100
AcDbLine
 10
5552.842678892399
 20
1182.122185282695
 30
0.0
 11
5642.842678892384
 21
1272.122185282695
 31
0.0
  0
LINE
  5
24FA0
330
747D
100
AcDbEntity
  8
細線
 48
50.0
100
AcDbLine
 10
5552.842678892399
 20
1249.474106190717
 30
0.0
 11
5642.842678892384
 21
1339.474106190713
 31
0.0
  0
LINE
  5
24FA1
330
747D
100
AcDbEntity
  8
細線
 48
50.0
100
AcDbLine
 10
5552.842678892399
 20
1215.798145736707
 30
0.0
 11
5642.842678892384
 21
1305.7981457367
 31
0.0
  0
LEADER
  5
24FA2
330
747D
100
AcDbEntity
  8
寸法
 48
50.0
100
AcDbLeader
  3
INABA_S40G
 71
     0
 73
     0
 74
     0
 75
     1
 40
100.0
 41
222.7272727272727
 76
     3
 10
5522.842678892401
 20
1420.630455083459
 30
0.0
 10
5621.450100176645
 20
1346.896869964311
 30
0.0
 10
5721.450100176644
 20
1346.896869964311
 30
0.0
1001
ACAD
1000
DSTYLE
1002
{
1070
   341
1005
0
1002
}
  0
LINE
  5
24FA3
330
747D
100
AcDbEntity
  8
細線
 48
50.0
100
AcDbLine
 10
5597.931284446469
 20
782.9714367120564
 30
0.0
 11
5640.803155235449
 21
942.9714367120546
 31
0.0
  0
LINE
  5
24FA4
330
747D
100
AcDbEntity
  8
細線
 48
50.0
100
AcDbLine
 10
5605.969760219409
 20
812.9714367120564
 30
0.0
 11
5614.008235992343
 21
782.9714367120564
 31
0.0
  0
LINE
  5
24FA5
330
747D
100
AcDbEntity
  8
細線
 48
50.0
100
AcDbLine
 10
5515.74769304581
 20
942.9714367120563
 30
0.0
 11
5635.74769304581
 21
1062.971436712056
 31
0.0
  0
LINE
  5
24FA6
330
747D
100
AcDbEntity
  8
細線
 48
50.0
100
AcDbLine
 10
5549.423653499822
 20
942.9714367120563
 30
0.0
 11
5669.423653499822
 21
1062.971436712056
 31
0.0
  0
LINE
  5
24FA7
330
747D
100
AcDbEntity
  8
細線
 48
50.0
100
AcDbLine
 10
5583.099613953828
 20
942.9714367120563
 30
0.0
 11
5703.100723760248
 21
1062.97254651848
 31
0.0
  0
LINE
  5
24FA8
330
747D
100
AcDbEntity
  8
部品1
 48
50.0
100
AcDbLine
 10
5902.842678892395
 20
782.9714367120564
 30
0.0
 11
5142.842678892396
 21
782.9714367120564
 31
0.0
  0
LINE
  5
24FA9
330
747D
100
AcDbEntity
  8
部品1
 48
50.0
100
AcDbLine
 10
5902.842678892395
 20
942.9714367120563
 30
0.0
 11
5142.842678892396
 21
942.9714367120563
 31
0.0
  0
LINE
  5
24FAA
330
747D
100
AcDbEntity
  8
部品1
 48
50.0
100
AcDbLine
 10
5312.842678892391
 20
1062.971436712056
 30
0.0
 11
5732.842678892392
 21
1062.971436712056
 31
0.0
  0
LINE
  5
24FAB
330
747D
100
AcDbEntity
  8
部品1
 48
50.0
100
AcDbLine
 10
5312.842678892391
 20
1082.971436712056
 30
0.0
 11
5732.842678892392
 21
1082.971436712056
 31
0.0
  0
LINE
  5
24FAC
330
747D
100
AcDbEntity
  8
細線
 48
50.0
100
AcDbLine
 10
5552.842678892393
 20
1518.881789822788
 30
0.0
 11
5642.842678892391
 21
1608.881789822788
 31
0.0
  0
LINE
  5
24FAD
330
747D
100
AcDbEntity
  8
細線
 48
50.0
100
AcDbLine
 10
5242.842678892384
 20
1141.52986891477
 30
0.0
 11
5344.284246689678
 21
1242.971436712056
 31
0.0
  0
DIMENSION
  5
24FAE
330
747D
100
AcDbEntity
  8
寸法
 48
50.0
100
AcDbDimension
  2
*D38
 10
5064.817286726817
 20
942.971436712056
 30
0.0
 11
5064.817286726817
 21
1092.971436712056
 31
0.0
 70
   160
  1
150
 71
     5
 42
300.0
  3
INABA_S40G
100
AcDbAlignedDimension
 13
5242.84267889239
 23
1242.971436712056
 33
0.0
 14
5142.842678892396
 24
942.971436712056
 34
0.0
 50
90.0
100
AcDbRotatedDimension
1001
ACAD
1000
DSTYLE
1002
{
1070
   341
1005
0
1002
}
  0
LINE
  5
24FAF
330
747D
100
AcDbEntity
  8
部品1
 48
50.0
100
AcDbLine
 10
5242.84267889239
 20
942.9714367120563
 30
0.0
 11
5242.84267889239
 21
1242.971436712056
 31
0.0
  0
LINE
  5
24FB0
330
747D
100
AcDbEntity
  8
細線
 48
50.0
100
AcDbLine
 10
5502.674988239147
 20
1165.630455083459
 30
0.0
 11
5532.842678892399
 21
1195.798145736707
 31
0.0
  0
LINE
  5
24FB1
330
747D
100
AcDbEntity
  8
細線
 48
50.0
100
AcDbLine
 10
5386.340009413734
 20
1082.971436712056
 30
0.0
 11
5532.842678892393
 21
1229.474106190713
 31
0.0
  0
LINE
  5
24FB2
330
747D
100
AcDbEntity
  8
部品1
 48
50.0
100
AcDbLine
 10
5552.842678892399
 20
1092.971436712056
 30
0.0
 11
5552.842678892393
 21
1748.289473454862
 31
0.0
  0
LINE
  5
24FB3
330
747D
100
AcDbEntity
  8
部品1
 48
50.0
100
AcDbLine
 10
5532.842678892399
 20
1092.971436712056
 30
0.0
 11
5532.842678892384
 21
1748.289473454862
 31
0.0
  0
LEADER
  5
24FB4
330
747D
100
AcDbEntity
  8
寸法
 48
50.0
100
AcDbLeader
  3
INABA_S40G
 71
     0
 73
     0
 75
     1
 40
100.0
 41
225.0
 76
     3
 10
5362.72136933257
 20
1092.971436712056
 30
0.0
 10
5154.173896148398
 20
763.5680696890102
 30
0.0
 10
5054.173896148398
 20
763.5680696890102
 30
0.0
1001
ACAD
1000
DSTYLE
1002
{
1070
   341
1005
0
1002
}
  0
LINE
  5
24FB5
330
747D
100
AcDbEntity
  8
部品1
 48
50.0
100
AcDbLine
 10
5142.842678892396
 20
782.9714367120564
 30
0.0
 11
5142.842678892396
 21
942.9714367120563
 31
0.0
  0
MTEXT
  5
24FB6
102
{ACAD_REACTORS
330
24FB4
102
}
330
747D
100
AcDbEntity
  8
寸法
 62
     7
 48
50.0
100
AcDbMText
 10
5029.173896148399
 20
838.5680696890101
 30
0.0
 40
100.0
 41
1.0
 71
     6
 72
     1
  1
D10
  7
STYLE2
 73
     1
 44
1.0
1001
ACAD
1000
MTEXTBEGIN
1070
    73
1070
     1
1070
    44
1040
1.0
1070
    74
1070
     0
1000
MTEXTEND
  0
LINE
  5
24FB7
330
747D
100
AcDbEntity
  8
細線
 48
50.0
100
AcDbLine
 10
5142.842678892391
 20
924.6463379192814
 30
0.0
 11
5147.752874315136
 21
942.9714367120563
 31
0.0
  0
LINE
  5
24FB8
330
747D
100
AcDbEntity
  8
細線
 48
50.0
100
AcDbLine
 10
5400.711172078345
 20
782.9714367120544
 30
0.0
 11
5443.583042867324
 21
942.9714367120546
 31
0.0
  0
LINE
  5
24FB9
330
747D
100
AcDbEntity
  8
細線
 48
50.0
100
AcDbLine
 10
5203.491059710215
 20
782.9714367120544
 30
0.0
 11
5246.362930499194
 21
942.9714367120546
 31
0.0
  0
LINE
  5
24FBA
330
747D
100
AcDbEntity
  8
細線
 48
50.0
100
AcDbLine
 10
5302.101115894288
 20
782.9714367120564
 30
0.0
 11
5344.972986683266
 21
942.9714367120563
 31
0.0
  0
LINE
  5
24FBB
330
747D
100
AcDbEntity
  8
細線
 48
50.0
100
AcDbLine
 10
5499.321228262409
 20
782.9714367120564
 30
0.0
 11
5542.193099051388
 21
942.9714367120563
 31
0.0
  0
LINE
  5
24FBC
330
747D
100
AcDbEntity
  8
細線
 48
50.0
100
AcDbLine
 10
5310.139591667221
 20
812.9714367120564
 30
0.0
 11
5318.178067440154
 21
782.9714367120564
 31
0.0
  0
LINE
  5
24FBD
330
747D
100
AcDbEntity
  8
細線
 48
50.0
100
AcDbLine
 10
5211.529535483156
 20
812.9714367120564
 30
0.0
 11
5219.56801125609
 21
782.9714367120564
 31
0.0
  0
LINE
  5
24FBE
330
747D
100
AcDbEntity
  8
細線
 48
50.0
100
AcDbLine
 10
5408.749647851286
 20
812.9714367120564
 30
0.0
 11
5416.788123624218
 21
782.9714367120564
 31
0.0
  0
LINE
  5
24FBF
330
747D
100
AcDbEntity
  8
細線
 48
50.0
100
AcDbLine
 10
5507.359704035351
 20
812.9714367120564
 30
0.0
 11
5515.398179808284
 21
782.9714367120564
 31
0.0
  0
LINE
  5
24FC0
330
747D
100
AcDbEntity
  8
細線
 48
50.0
100
AcDbLine
 10
5313.691930321753
 20
942.9714367120563
 30
0.0
 11
5433.691930321753
 21
1062.971436712056
 31
0.0
  0
LINE
  5
24FC1
330
747D
100
AcDbEntity
  8
部品1
 48
50.0
100
AcDbLine
 10
5312.842678892391
 20
1082.971436712056
 30
0.0
 11
5312.842678892391
 21
1062.971436712056
 31
0.0
  0
CIRCLE
  5
24FC2
330
747D
100
AcDbEntity
  8
部品1
 48
50.0
100
AcDbCircle
 10
5362.842678892391
 20
1092.971436712056
 30
0.0
 40
10.0
  0
LINE
  5
24FC3
330
747D
100
AcDbEntity
  8
細線
 48
50.0
100
AcDbLine
 10
5336.934510910332
 20
912.9714367120564
 30
0.0
 11
5328.896035137399
 21
942.9714367120563
 31
0.0
  0
LINE
  5
24FC4
330
747D
100
AcDbEntity
  8
細線
 48
50.0
100
AcDbLine
 10
5238.324454726267
 20
912.9714367120564
 30
0.0
 11
5230.285978953334
 21
942.9714367120563
 31
0.0
  0
LINE
  5
24FC5
330
747D
100
AcDbEntity
  8
細線
 48
50.0
100
AcDbLine
 10
5280.015969867747
 20
942.9714367120563
 30
0.0
 11
5400.015969867747
 21
1062.971436712056
 31
0.0
  0
LINE
  5
24FC6
330
747D
100
AcDbEntity
  8
細線
 48
50.0
100
AcDbLine
 10
5246.340009413734
 20
942.9714367120563
 30
0.0
 11
5366.340009413734
 21
1062.971436712056
 31
0.0
  0
LINE
  5
24FC7
330
747D
100
AcDbEntity
  8
細線
 48
50.0
100
AcDbLine
 10
5512.842678892392
 20
1142.122185282695
 30
0.0
 11
5532.842678892399
 21
1162.122185282695
 31
0.0
  0
CIRCLE
  5
24FC8
330
747D
100
AcDbEntity
  8
部品1
 48
50.0
100
AcDbCircle
 10
5522.842678892391
 20
1092.971436712056
 30
0.0
 40
10.0
  0
LINE
  5
24FC9
330
747D
100
AcDbEntity
  8
部品1
 48
50.0
100
AcDbLine
 10
5512.842678892392
 20
1165.630455083459
 30
0.0
 11
5512.842678892392
 21
1092.971436712056
 31
0.0
  0
ARC
  5
24FCA
330
747D
100
AcDbEntity
  8
部品1
 48
50.0
100
AcDbCircle
 10
5522.842678892391
 20
1092.971436712056
 30
0.0
 40
30.0
100
AcDbArc
 50
340.5287793655042
 51
0.0
  0
LINE
  5
24FCB
330
747D
100
AcDbEntity
  8
細線
 48
50.0
100
AcDbLine
 10
5534.154623278462
 20
912.9714367120564
 30
0.0
 11
5526.116147505529
 21
942.9714367120563
 31
0.0
  0
LINE
  5
24FCC
330
747D
100
AcDbEntity
  8
部品1
 48
50.0
100
AcDbLine
 10
5492.84267889239
 20
1165.630455083459
 30
0.0
 11
5492.84267889239
 21
1092.971436712056
 31
0.0
  0
ARC
  5
24FCD
330
747D
100
AcDbEntity
  8
部品1
 48
50.0
100
AcDbCircle
 10
5522.842678892391
 20
1092.971436712056
 30
0.0
 40
30.0
100
AcDbArc
 50
180.0
 51
199.4712206344958
  0
LINE
  5
24FCE
330
747D
100
AcDbEntity
  8
細線
 48
50.0
100
AcDbLine
 10
5420.015969867748
 20
1082.971436712056
 30
0.0
 11
5492.84267889239
 21
1155.798145736704
 31
0.0
  0
LINE
  5
24FCF
330
747D
100
AcDbEntity
  8
細線
 48
50.0
100
AcDbLine
 10
5453.691930321753
 20
1082.971436712056
 30
0.0
 11
5492.84267889239
 21
1122.122185282695
 31
0.0
  0
LINE
  5
24FD0
330
747D
100
AcDbEntity
  8
細線
 48
50.0
100
AcDbLine
 10
5435.544567094397
 20
912.9714367120564
 30
0.0
 11
5427.506091321464
 21
942.9714367120563
 31
0.0
  0
LINE
  5
24FD1
330
747D
100
AcDbEntity
  8
部品1
 48
50.0
100
AcDbLine
 10
5512.842678892392
 20
1165.630455083459
 30
0.0
 11
5492.84267889239
 21
1165.630455083459
 31
0.0
  0
LWPOLYLINE
  5
24FD2
330
747D
100
AcDbEntity
  8
部品1
 48
50.0
100
AcDbPolyline
 90
        2
 70
     0
 43
10.0
 10
4885.167801601197
 20
1622.971436712057
 10
5402.84267889239
 20
1622.971436712057
  0
LINE
  5
24FD3
330
747D
100
AcDbEntity
  8
細線
 48
50.0
100
AcDbLine
 10
5402.84267889239
 20
1335.205829368779
 30
0.0
 11
5532.842678892399
 21
1465.205829368782
 31
0.0
  0
LINE
  5
24FD4
330
747D
100
AcDbEntity
  8
細線
 48
50.0
100
AcDbLine
 10
5402.84267889239
 20
1368.881789822788
 30
0.0
 11
5532.842678892393
 21
1498.881789822788
 31
0.0
  0
LINE
  5
24FD5
330
747D
100
AcDbEntity
  8
細線
 48
50.0
100
AcDbLine
 10
5402.84267889239
 20
1301.529868914769
 30
0.0
 11
5515.336218920982
 21
1414.023408943354
 31
0.0
  0
LINE
  5
24FD6
330
747D
100
AcDbEntity
  8
細線
 48
50.0
100
AcDbLine
 10
5242.842678892384
 20
1208.881789822788
 30
0.0
 11
5276.932325781658
 21
1242.971436712056
 31
0.0
  0
LINE
  5
24FD7
330
747D
100
AcDbEntity
  8
部品1
 48
50.0
100
AcDbLine
 10
5242.84267889239
 20
1242.971436712056
 30
0.0
 11
5402.84267889239
 21
1242.971436712056
 31
0.0
  0
LINE
  5
24FD8
330
747D
100
AcDbEntity
  8
細線
 48
50.0
100
AcDbLine
 10
5242.842678892384
 20
1175.205829368775
 30
0.0
 11
5310.608286235673
 21
1242.971436712056
 31
0.0
  0
LINE
  5
24FD9
330
747D
100
AcDbEntity
  8
細線
 48
50.0
100
AcDbLine
 10
5529.449725032509
 20
1428.136915054877
 30
0.0
 11
5532.842678892399
 21
1431.529868914769
 31
0.0
  0
CIRCLE
  5
24FDA
330
747D
100
AcDbEntity
  8
部品1
 48
50.0
100
AcDbCircle
 10
5522.842678892401
 20
1420.630455083459
 30
0.0
 40
10.0
  0
LINE
  5
24FDB
330
747D
100
AcDbEntity
  8
細線
 48
50.0
100
AcDbLine
 10
5402.84267889239
 20
1638.289473454863
 30
0.0
 11
5492.84267889239
 21
1728.289473454863
 31
0.0
  0
LINE
  5
24FDC
330
747D
100
AcDbEntity
  8
細線
 48
50.0
100
AcDbLine
 10
5402.84267889239
 20
1604.613513000853
 30
0.0
 11
5492.84267889239
 21
1694.613513000853
 31
0.0
  0
LINE
  5
24FDD
330
747D
100
AcDbEntity
  8
細線
 48
50.0
100
AcDbLine
 10
5402.84267889239
 20
1570.937552546844
 30
0.0
 11
5507.53558142901
 21
1675.630455083459
 31
0.0
  0
LINE
  5
24FDE
330
747D
100
AcDbEntity
  8
細線
 48
50.0
100
AcDbLine
 10
5512.842678892392
 20
1680.937552546844
 30
0.0
 11
5532.842678892393
 21
1700.937552546844
 31
0.0
  0
LINE
  5
24FDF
330
747D
100
AcDbEntity
  8
細線
 48
50.0
100
AcDbLine
 10
5512.842678892392
 20
1714.613513000853
 30
0.0
 11
5532.842678892393
 21
1734.613513000853
 31
0.0
  0
LINE
  5
24FE0
330
747D
100
AcDbEntity
  8
部品1
 48
50.0
100
AcDbLine
 10
5512.842678892392
 20
1675.630455083459
 30
0.0
 11
5512.842678892392
 21
1748.289473454862
 31
0.0
  0
LINE
  5
24FE1
330
747D
100
AcDbEntity
  8
部品1
 48
50.0
100
AcDbLine
 10
5492.84267889239
 20
1675.630455083463
 30
0.0
 11
5492.84267889239
 21
1748.289473454862
 31
0.0
  0
LINE
  5
24FE2
330
747D
100
AcDbEntity
  8
部品1
 48
50.0
100
AcDbLine
 10
5512.842678892392
 20
1675.630455083459
 30
0.0
 11
5492.84267889239
 21
1675.630455083463
 31
0.0
  0
LINE
  5
24FE3
330
747D
100
AcDbEntity
  8
細線
 48
50.0
100
AcDbLine
 10
5689.423653499822
 20
1082.971436712056
 30
0.0
 11
5802.842678892393
 21
1196.390462104629
 31
0.0
  0
LINE
  5
24FE4
330
747D
100
AcDbEntity
  8
細線
 48
50.0
100
AcDbLine
 10
5655.747693045801
 20
1082.971436712056
 30
0.0
 11
5802.842678892393
 21
1230.066422558639
 31
0.0
  0
LINE
  5
24FE5
330
747D
100
AcDbEntity
  8
部品1
 48
50.0
100
AcDbLine
 10
5802.842678892393
 20
1242.971436712056
 30
0.0
 11
5802.842678892393
 21
942.9714367120563
 31
0.0
  0
LEADER
  5
24FE6
330
747D
100
AcDbEntity
  8
寸法
 48
50.0
100
AcDbLeader
  3
INABA_S40G
 71
     0
 73
     0
 74
     0
 75
     1
 40
100.0
 41
225.0
 76
     3
 10
5682.721369332571
 20
1092.971436712056
 30
0.0
 10
5807.002253650749
 20
973.72510053334
 30
0.0
 10
5907.002253650748
 20
973.72510053334
 30
0.0
1001
ACAD
1000
DSTYLE
1002
{
1070
   341
1005
0
1002
}
  0
MTEXT
  5
24FE7
102
{ACAD_REACTORS
330
24FE6
102
}
330
747D
100
AcDbEntity
  8
寸法
 62
     7
 48
50.0
100
AcDbMText
 10
5932.002253650749
 20
1048.72510053334
 30
0.0
 40
100.0
 41
1.0
 71
     4
 72
     1
  1
D10
  7
STYLE2
 73
     1
 44
1.0
1001
ACAD
1000
MTEXTBEGIN
1070
    73
1070
     1
1070
    44
1040
1.0
1070
    74
1070
     0
1000
MTEXTEND
  0
LINE
  5
24FE8
330
747D
100
AcDbEntity
  8
部品1
 48
50.0
100
AcDbLine
 10
5902.842678892395
 20
942.9714367120563
 30
0.0
 11
5902.842678892395
 21
782.9714367120564
 31
0.0
  0
LINE
  5
24FE9
330
747D
100
AcDbEntity
  8
細線
 48
50.0
100
AcDbLine
 10
5795.151396814583
 20
782.9714367120564
 30
0.0
 11
5838.023267603564
 21
942.9714367120546
 31
0.0
  0
LINE
  5
24FEA
330
747D
100
AcDbEntity
  8
細線
 48
50.0
100
AcDbLine
 10
5696.541340630528
 20
782.9714367120544
 30
0.0
 11
5739.413211419507
 21
942.9714367120546
 31
0.0
  0
LINE
  5
24FEB
330
747D
100
AcDbEntity
  8
細線
 48
50.0
100
AcDbLine
 10
5803.189872587523
 20
812.9714367120564
 30
0.0
 11
5811.228348360457
 21
782.9714367120564
 31
0.0
  0
LINE
  5
24FEC
330
747D
100
AcDbEntity
  8
細線
 48
50.0
100
AcDbLine
 10
5704.579816403466
 20
812.9714367120564
 30
0.0
 11
5712.618292176399
 21
782.9714367120564
 31
0.0
  0
LINE
  5
24FED
330
747D
100
AcDbEntity
  8
細線
 48
50.0
100
AcDbLine
 10
5901.79992877158
 20
812.9714367120564
 30
0.0
 11
5902.842678892391
 21
809.0798402816004
 31
0.0
  0
LINE
  5
24FEE
330
747D
100
AcDbEntity
  8
細線
 48
50.0
100
AcDbLine
 10
5893.761452998644
 20
782.9714367120544
 30
0.0
 11
5902.842678892391
 21
816.8630331425415
 31
0.0
  0
LINE
  5
24FEF
330
747D
100
AcDbEntity
  8
細線
 48
50.0
100
AcDbLine
 10
5723.099613953826
 20
1082.971436712056
 30
0.0
 11
5802.842678892393
 21
1162.71450165062
 31
0.0
  0
LINE
  5
24FF0
330
747D
100
AcDbEntity
  8
部品1
 48
50.0
100
AcDbLine
 10
5732.842678892392
 20
1082.971436712056
 30
0.0
 11
5732.842678892392
 21
1062.971436712056
 31
0.0
  0
CIRCLE
  5
24FF1
330
747D
100
AcDbEntity
  8
部品1
 48
50.0
100
AcDbCircle
 10
5682.842678892392
 20
1092.971436712056
 30
0.0
 40
10.0
  0
LINE
  5
24FF2
330
747D
100
AcDbEntity
  8
細線
 48
50.0
100
AcDbLine
 10
5731.374735646578
 20
912.9714367120564
 30
0.0
 11
5723.336259873644
 21
942.9714367120563
 31
0.0
  0
LINE
  5
24FF3
330
747D
100
AcDbEntity
  8
細線
 48
50.0
100
AcDbLine
 10
5785.155376677884
 20
942.9714367120563
 30
0.0
 11
5802.842678892393
 21
960.6587389265646
 31
0.0
  0
LINE
  5
24FF4
330
747D
100
AcDbEntity
  8
細線
 48
50.0
100
AcDbLine
 10
5632.764679462519
 20
912.9714367120564
 30
0.0
 11
5624.726203689586
 21
942.9714367120563
 31
0.0
  0
LINE
  5
24FF5
330
747D
100
AcDbEntity
  8
細線
 48
50.0
100
AcDbLine
 10
5829.984791830635
 20
912.9714367120564
 30
0.0
 11
5821.946316057701
 21
942.9714367120563
 31
0.0
  0
LWPOLYLINE
  5
24FF6
330
747D
100
AcDbEntity
  8
部品1
 48
50.0
100
AcDbPolyline
 90
        2
 70
     0
 43
10.0
 10
5642.842678892391
 20
1622.971436712057
 10
6160.517556183588
 20
1622.971436712057
  0
MTEXT
  5
24FF7
102
{ACAD_REACTORS
330
24FA2
102
}
330
747D
100
AcDbEntity
  8
寸法
 62
     7
 48
50.0
100
AcDbMText
 10
5746.450100176645
 20
1421.896869964311
 30
0.0
 40
100.0
 41
1.0
 71
     4
 72
     1
  1
D13
  7
STYLE2
 73
     1
 44
1.0
1001
ACAD
1000
MTEXTBEGIN
1070
    73
1070
     1
1070
    44
1040
1.0
1070
    74
1070
     0
1000
MTEXTEND
  0
LINE
  5
24FF8
330
747D
100
AcDbEntity
  8
部品1
 48
50.0
100
AcDbLine
 10
5642.842678892391
 20
1242.971436712056
 30
0.0
 11
5802.842678892393
 21
1242.971436712056
 31
0.0
  0
LINE
  5
24FF9
330
747D
100
AcDbEntity
  8
細線
 48
50.0
100
AcDbLine
 10
5552.283562974875
 20
1754.054397083333
 30
0.0
 11
5642.842678892391
 21
1844.613513000853
 31
0.0
  0
LINE
  5
24FFA
330
747D
100
AcDbEntity
  8
細線
 48
50.0
100
AcDbLine
 10
5538.45820702048
 20
1773.905001582951
 30
0.0
 11
5642.842678892391
 21
1878.289473454863
 31
0.0
  0
DIMENSION
  5
24FFB
330
747D
100
AcDbEntity
  8
寸法
 48
50.0
100
AcDbDimension
  2
*D39
 10
5402.84267889239
 20
2322.971436712056
 30
0.0
 11
5522.842678892391
 21
2322.971436712056
 31
0.0
 70
   160
  1
120\P(195)
 71
     5
 42
240.0000000000009
  3
INABA_S40G
100
AcDbAlignedDimension
 13
5642.842678892391
 23
1922.971436712056
 33
0.0
 14
5402.84267889239
 24
1922.971436712056
 34
0.0
100
AcDbRotatedDimension
1001
ACAD
1000
DSTYLE
1002
{
1070
   341
1005
0
1002
}
  0
LINE
  5
24FFC
330
747D
100
AcDbEntity
  8
部品1
 48
50.0
100
AcDbLine
 10
5402.84267889239
 20
1922.971436712056
 30
0.0
 11
5642.842678892391
 21
1922.971436712056
 31
0.0
  0
LINE
  5
24FFD
330
747D
100
AcDbEntity
  8
細線
 48
50.0
100
AcDbLine
 10
5402.84267889239
 20
1907.697157086937
 30
0.0
 11
5418.116958517511
 21
1922.971436712056
 31
0.0
  0
LINE
  5
24FFE
330
747D
100
AcDbEntity
  8
細線
 48
50.0
100
AcDbLine
 10
5402.84267889239
 20
1874.021196632928
 30
0.0
 11
5451.792918971523
 21
1922.971436712056
 31
0.0
  0
LINE
  5
24FFF
330
747D
100
AcDbEntity
  8
細線
 48
50.0
100
AcDbLine
 10
5402.84267889239
 20
1840.345236178919
 30
0.0
 11
5485.468879425528
 21
1922.971436712056
 31
0.0
  0
LINE
  5
25000
330
747D
100
AcDbEntity
  8
部品1
100
AcDbLine
 10
8045.391820363882
 20
1242.971436712056
 30
0.0
 11
8045.391820363887
 21
1922.971436712056
 31
0.0
  0
LINE
  5
25001
330
747D
100
AcDbEntity
  8
部品1
100
AcDbLine
 10
7815.891820363884
 20
1641.721436712056
 30
0.0
 11
7815.891820363879
 21
1984.421436712057
 31
0.0
  0
LINE
  5
25002
330
747D
100
AcDbEntity
  8
部品1
100
AcDbLine
 10
7793.391820363884
 20
1641.721436712056
 30
0.0
 11
7793.391820363881
 21
1984.421436712057
 31
0.0
  0
LINE
  5
25003
330
747D
100
AcDbEntity
  8
細線
 48
50.0
100
AcDbLine
 10
7527.891820363883
 20
1638.289473454863
 30
0.0
 11
7725.891820363883
 21
1836.28947345486
 31
0.0
  0
LINE
  5
25004
330
747D
100
AcDbEntity
  8
細線
 48
50.0
100
AcDbLine
 10
7527.891820363883
 20
1604.613513000853
 30
0.0
 11
7725.891820363883
 21
1802.613513000849
 31
0.0
  0
TEXT
  5
25005
330
747D
100
AcDbEntity
  8
部品1
 48
50.0
100
AcDbText
 10
7010.216943072689
 20
1637.020177066125
 30
0.0
 40
100.0
  1
▽G.L
  7
STYLE2
100
AcDbText
  0
LINE
  5
25006
330
747D
100
AcDbEntity
  8
細線
 48
50.0
100
AcDbLine
 10
7527.891820363883
 20
1570.937552546844
 30
0.0
 11
7725.89182036388
 21
1768.937552546835
 31
0.0
  0
LINE
  5
25007
330
747D
100
AcDbEntity
  8
部品1
 48
50.0
100
AcDbLine
 10
7527.891820363883
 20
1242.971436712056
 30
0.0
 11
7527.891820363883
 21
1922.971436712056
 31
0.0
  0
LINE
  5
25008
330
747D
100
AcDbEntity
  8
部品1
100
AcDbLine
 10
7883.391820363884
 20
1517.971436712056
 30
0.0
 11
7883.391820363884
 21
1922.971436712056
 31
0.0
  0
LINE
  5
25009
330
747D
100
AcDbEntity
  8
部品1
100
AcDbLine
 10
7725.891820363877
 20
1517.971436712056
 30
0.0
 11
7725.891820363884
 21
1922.971436712056
 31
0.0
  0
LINE
  5
2500A
330
747D
100
AcDbEntity
  8
細線
 48
50.0
100
AcDbLine
 10
7883.391820363886
 20
1657.029868914754
 30
0.0
 11
8045.391820363887
 21
1819.029868914743
 31
0.0
  0
LINE
  5
2500B
330
747D
100
AcDbEntity
  8
細線
 48
50.0
100
AcDbLine
 10
7883.391820363886
 20
1690.70582936877
 30
0.0
 11
8045.391820363887
 21
1852.705829368766
 31
0.0
  0
LINE
  5
2500C
330
747D
100
AcDbEntity
  8
細線
 48
50.0
100
AcDbLine
 10
7883.391820363886
 20
1724.381789822791
 30
0.0
 11
8045.391820363887
 21
1886.38178982279
 31
0.0
  0
LWPOLYLINE
  5
2500D
330
747D
100
AcDbEntity
  8
部品1
 48
50.0
100
AcDbPolyline
 90
        2
 70
     0
 43
10.0
 10
7010.216943072689
 20
1622.971436712057
 10
7527.891820363883
 20
1622.971436712057
  0
LINE
  5
2500E
330
747D
100
AcDbEntity
  8
細線
 48
50.0
100
AcDbLine
 10
7367.891820363877
 20
1141.52986891477
 30
0.0
 11
7469.333388161171
 21
1242.971436712056
 31
0.0
  0
LINE
  5
2500F
330
747D
100
AcDbEntity
  8
部品1
 48
50.0
100
AcDbLine
 10
7367.891820363884
 20
942.9714367120563
 30
0.0
 11
7367.891820363884
 21
1242.971436712056
 31
0.0
  0
LINE
  5
25010
330
747D
100
AcDbEntity
  8
細線
 48
50.0
100
AcDbLine
 10
7371.389150885227
 20
942.9714367120563
 30
0.0
 11
8045.391820363882
 21
1616.974106190713
 31
0.0
  0
LINE
  5
25011
330
747D
100
AcDbEntity
  8
細線
 48
50.0
100
AcDbLine
 10
7438.741071793244
 20
942.9714367120563
 30
0.0
 11
8045.391820363887
 21
1549.622185282691
 31
0.0
  0
LINE
  5
25012
330
747D
100
AcDbEntity
  8
細線
 48
50.0
100
AcDbLine
 10
7405.065111339239
 20
942.9714367120563
 30
0.0
 11
8045.391820363887
 21
1583.298145736699
 31
0.0
  0
LINE
  5
25013
330
747D
100
AcDbEntity
  8
細線
 48
50.0
100
AcDbLine
 10
7674.472794971314
 20
942.9714367120563
 30
0.0
 11
8045.391820363887
 21
1313.890462104622
 31
0.0
  0
LINE
  5
25014
330
747D
100
AcDbEntity
  8
細線
 48
50.0
100
AcDbLine
 10
7708.14875542532
 20
942.9714367120563
 30
0.0
 11
8045.391820363887
 21
1280.214501650628
 31
0.0
  0
LINE
  5
25015
330
747D
100
AcDbEntity
  8
細線
 48
50.0
100
AcDbLine
 10
7640.796834517302
 20
942.9714367120563
 30
0.0
 11
8045.391820363882
 21
1347.566422558639
 31
0.0
  0
LINE
  5
25016
330
747D
100
AcDbEntity
  8
細線
 48
50.0
100
AcDbLine
 10
7624.370369733902
 20
782.9714367120564
 30
0.0
 11
7667.242240522881
 21
942.9714367120563
 31
0.0
  0
LINE
  5
25017
330
747D
100
AcDbEntity
  8
細線
 48
50.0
100
AcDbLine
 10
7427.15025736578
 20
782.9714367120564
 30
0.0
 11
7470.022128154758
 21
942.9714367120563
 31
0.0
  0
LINE
  5
25018
330
747D
100
AcDbEntity
  8
部品1
 48
50.0
100
AcDbLine
 10
7267.891820363887
 20
782.9714367120564
 30
0.0
 11
7267.891820363887
 21
942.9714367120563
 31
0.0
  0
LINE
  5
25019
330
747D
100
AcDbEntity
  8
細線
 48
50.0
100
AcDbLine
 10
7328.540201181708
 20
782.9714367120544
 30
0.0
 11
7371.412071970687
 21
942.9714367120546
 31
0.0
  0
LINE
  5
2501A
330
747D
100
AcDbEntity
  8
細線
 48
50.0
100
AcDbLine
 10
7525.760313549837
 20
782.9714367120544
 30
0.0
 11
7568.632184338816
 21
942.9714367120546
 31
0.0
  0
LINE
  5
2501B
330
747D
100
AcDbEntity
  8
細線
 48
50.0
100
AcDbLine
 10
7435.188733138713
 20
812.9714367120564
 30
0.0
 11
7443.227208911647
 21
782.9714367120564
 31
0.0
  0
LINE
  5
2501C
330
747D
100
AcDbEntity
  8
細線
 48
50.0
100
AcDbLine
 10
7336.578676954649
 20
812.9714367120564
 30
0.0
 11
7344.617152727582
 21
782.9714367120564
 31
0.0
  0
LINE
  5
2501D
330
747D
100
AcDbEntity
  8
細線
 48
50.0
100
AcDbLine
 10
7632.408845506843
 20
812.9714367120564
 30
0.0
 11
7640.447321279776
 21
782.9714367120564
 31
0.0
  0
LINE
  5
2501E
330
747D
100
AcDbEntity
  8
細線
 48
50.0
100
AcDbLine
 10
7533.798789322779
 20
812.9714367120564
 30
0.0
 11
7541.837265095712
 21
782.9714367120564
 31
0.0
  0
LINE
  5
2501F
330
747D
100
AcDbEntity
  8
細線
 48
50.0
100
AcDbLine
 10
7461.983652381825
 20
912.9714367120564
 30
0.0
 11
7453.945176608891
 21
942.9714367120563
 31
0.0
  0
LINE
  5
25020
330
747D
100
AcDbEntity
  8
細線
 48
50.0
100
AcDbLine
 10
7267.891820363884
 20
924.6463379192814
 30
0.0
 11
7272.802015786628
 21
942.9714367120563
 31
0.0
  0
LINE
  5
25021
330
747D
100
AcDbEntity
  8
細線
 48
50.0
100
AcDbLine
 10
7363.373596197759
 20
912.9714367120564
 30
0.0
 11
7355.335120424827
 21
942.9714367120563
 31
0.0
  0
LINE
  5
25022
330
747D
100
AcDbEntity
  8
細線
 48
50.0
100
AcDbLine
 10
7659.203764749955
 20
912.9714367120564
 30
0.0
 11
7651.165288977022
 21
942.9714367120563
 31
0.0
  0
LINE
  5
25023
330
747D
100
AcDbEntity
  8
細線
 48
50.0
100
AcDbLine
 10
7560.593708565889
 20
912.9714367120564
 30
0.0
 11
7552.555232792956
 21
942.9714367120563
 31
0.0
  0
LINE
  5
25024
330
747D
100
AcDbEntity
  8
細線
 48
50.0
100
AcDbLine
 10
8018.810594470137
 20
782.9714367120544
 30
0.0
 11
8061.682465259103
 21
942.9714367120563
 31
0.0
  0
LINE
  5
25025
330
747D
100
AcDbEntity
  8
細線
 48
50.0
100
AcDbLine
 10
7821.590482102021
 20
782.9714367120544
 30
0.0
 11
7864.462352891
 21
942.9714367120546
 31
0.0
  0
LINE
  5
25026
330
747D
100
AcDbEntity
  8
細線
 48
50.0
100
AcDbLine
 10
7920.200538286074
 20
782.9714367120564
 30
0.0
 11
7963.072409075057
 21
942.9714367120546
 31
0.0
  0
LINE
  5
25027
330
747D
100
AcDbEntity
  8
細線
 48
50.0
100
AcDbLine
 10
7722.980425917959
 20
782.9714367120564
 30
0.0
 11
7765.852296706942
 21
942.9714367120546
 31
0.0
  0
LINE
  5
25028
330
747D
100
AcDbEntity
  8
細線
 48
50.0
100
AcDbLine
 10
7829.628957874958
 20
812.9714367120564
 30
0.0
 11
7837.667433647891
 21
782.9714367120564
 31
0.0
  0
LINE
  5
25029
330
747D
100
AcDbEntity
  8
細線
 48
50.0
100
AcDbLine
 10
7731.018901690901
 20
812.9714367120564
 30
0.0
 11
7739.057377463834
 21
782.9714367120564
 31
0.0
  0
LINE
  5
2502A
330
747D
100
AcDbEntity
  8
細線
 48
50.0
100
AcDbLine
 10
8026.849070243072
 20
812.9714367120564
 30
0.0
 11
8034.887546016021
 21
782.9714367120564
 31
0.0
  0
LINE
  5
2502B
330
747D
100
AcDbEntity
  8
細線
 48
50.0
100
AcDbLine
 10
7928.239014059016
 20
812.9714367120564
 30
0.0
 11
7936.27748983195
 21
782.9714367120564
 31
0.0
  0
LINE
  5
2502C
330
747D
100
AcDbEntity
  8
細線
 48
50.0
100
AcDbLine
 10
7856.42387711807
 20
912.9714367120564
 30
0.0
 11
7848.385401345137
 21
942.9714367120563
 31
0.0
  0
LINE
  5
2502D
330
747D
100
AcDbEntity
  8
細線
 48
50.0
100
AcDbLine
 10
7757.813820934012
 20
912.9714367120564
 30
0.0
 11
7749.775345161079
 21
942.9714367120563
 31
0.0
  0
LINE
  5
2502E
330
747D
100
AcDbEntity
  8
細線
 48
50.0
100
AcDbLine
 10
8053.643989486173
 20
912.9714367120564
 30
0.0
 11
8045.60551371324
 21
942.9714367120563
 31
0.0
  0
LINE
  5
2502F
330
747D
100
AcDbEntity
  8
細線
 48
50.0
100
AcDbLine
 10
7955.033933302127
 20
912.9714367120564
 30
0.0
 11
7946.995457529194
 21
942.9714367120563
 31
0.0
  0
LINE
  5
25030
330
747D
100
AcDbEntity
  8
細線
 48
50.0
100
AcDbLine
 10
7527.891820363883
 20
1301.529868914769
 30
0.0
 11
7744.333388161179
 21
1517.971436712054
 31
0.0
  0
LINE
  5
25031
330
747D
100
AcDbEntity
  8
細線
 48
50.0
100
AcDbLine
 10
7527.891820363883
 20
1335.205829368779
 30
0.0
 11
7725.891820363876
 21
1533.205829368764
 31
0.0
  0
LINE
  5
25032
330
747D
100
AcDbEntity
  8
細線
 48
50.0
100
AcDbLine
 10
7527.891820363883
 20
1368.881789822788
 30
0.0
 11
7725.891820363876
 21
1566.881789822782
 31
0.0
  0
LINE
  5
25033
330
747D
100
AcDbEntity
  8
部品1
 48
50.0
100
AcDbLine
 10
7367.891820363884
 20
1242.971436712056
 30
0.0
 11
7527.891820363883
 21
1242.971436712056
 31
0.0
  0
LINE
  5
25034
330
747D
100
AcDbEntity
  8
細線
 48
50.0
100
AcDbLine
 10
7367.891820363877
 20
1175.205829368775
 30
0.0
 11
7435.657427707166
 21
1242.971436712056
 31
0.0
  0
LINE
  5
25035
330
747D
100
AcDbEntity
  8
細線
 48
50.0
100
AcDbLine
 10
7367.891820363877
 20
1208.881789822788
 30
0.0
 11
7401.981467253152
 21
1242.971436712056
 31
0.0
  0
LINE
  5
25036
330
747D
100
AcDbEntity
  8
部品1
100
AcDbLine
 10
7883.391820363884
 20
1517.971436712054
 30
0.0
 11
7725.891820363877
 21
1517.971436712054
 31
0.0
  0
LINE
  5
25037
330
747D
100
AcDbEntity
  8
部品1
100
AcDbLine
 10
7860.891820363884
 20
1619.221436712056
 30
0.0
 11
7860.891820363884
 21
1641.721436712056
 31
0.0
  0
ARC
  5
25038
330
747D
100
AcDbEntity
  8
部品1
100
AcDbCircle
 10
7815.891820363884
 20
1641.721436712056
 30
0.0
 40
22.5
100
AcDbArc
 50
180.0
 51
270.0
  0
LINE
  5
25039
330
747D
100
AcDbEntity
  8
部品1
100
AcDbLine
 10
7815.891820363884
 20
1619.221436712056
 30
0.0
 11
7860.891820363884
 21
1619.221436712056
 31
0.0
  0
LINE
  5
2503A
330
747D
100
AcDbEntity
  8
部品1
100
AcDbLine
 10
7815.891820363884
 20
1641.721436712056
 30
0.0
 11
7860.891820363884
 21
1641.721436712056
 31
0.0
  0
ARC
  5
2503C
330
747D
100
AcDbEntity
  8
部品1
100
AcDbCircle
 10
7659.516820363887
 20
2059.096436712053
 30
0.0
 40
3.375
100
AcDbArc
 50
0.0
 51
90.0
  0
LINE
  5
2503D
330
747D
100
AcDbEntity
  8
部品1
 48
50.0
100
AcDbLine
 10
7527.891820363883
 20
1922.971436712056
 30
0.0
 11
8045.391820363887
 21
1922.971436712056
 31
0.0
  0
LINE
  5
2503E
330
747D
100
AcDbEntity
  8
部品1
100
AcDbLine
 10
7599.891820363883
 20
2035.471436712056
 30
0.0
 11
7599.891820363883
 21
2045.596436712056
 31
0.0
  0
LINE
  5
2503F
330
747D
100
AcDbEntity
  8
部品1
100
AcDbLine
 10
7549.266820363884
 20
2021.971436712056
 30
0.0
 11
7549.266820363884
 21
2032.096436712056
 31
0.0
  0
ARC
  5
25040
330
747D
100
AcDbEntity
  8
部品1
100
AcDbCircle
 10
7552.641820363884
 20
2032.096436712056
 30
0.0
 40
3.375
100
AcDbArc
 50
90.0
 51
180.0
  0
ARC
  5
25041
330
747D
100
AcDbEntity
  8
部品1
100
AcDbCircle
 10
7539.141820363886
 20
1938.296436712057
 30
0.0
 40
3.375
100
AcDbArc
 50
180.0
 51
270.0
  0
ARC
  5
25042
330
747D
100
AcDbEntity
  8
部品1
100
AcDbCircle
 10
7539.141820363886
 20
2015.961316340441
 30
0.0
 40
3.375
100
AcDbArc
 50
104.0362434679075
 51
180.0
  0
LINE
  5
25043
330
747D
100
AcDbEntity
  8
部品1
100
AcDbLine
 10
7535.766820363884
 20
1938.296436712057
 30
0.0
 11
7535.766820363884
 21
2015.961316340441
 31
0.0
  0
LINE
  5
25044
330
747D
100
AcDbEntity
  8
細線
 48
50.0
100
AcDbLine
 10
7527.891820363883
 20
1907.697157086937
 30
0.0
 11
7543.166099989003
 21
1922.971436712056
 31
0.0
  0
LINE
  5
25045
330
747D
100
AcDbEntity
  8
部品1
100
AcDbLine
 10
7538.323262629385
 20
2019.235547278431
 30
0.0
 11
7549.266820363884
 21
2021.971436712056
 31
0.0
  0
LINE
  5
25046
330
747D
100
AcDbEntity
  8
部品1
100
AcDbLine
 10
7539.141820363886
 20
1934.921436712057
 30
0.0
 11
7553.766820363877
 21
1934.921436712057
 31
0.0
  0
LINE
  5
25047
330
747D
100
AcDbEntity
  8
細線
 48
50.0
100
AcDbLine
 10
7527.891820363883
 20
1874.021196632928
 30
0.0
 11
7576.842060443016
 21
1922.971436712056
 31
0.0
  0
LINE
  5
25048
330
747D
100
AcDbEntity
  8
細線
 48
50.0
100
AcDbLine
 10
7527.891820363883
 20
1840.345236178919
 30
0.0
 11
7610.518020897021
 21
1922.971436712056
 31
0.0
  0
LINE
  5
25049
330
747D
100
AcDbEntity
  8
部品1
100
AcDbLine
 10
7552.641820363884
 20
2035.471436712056
 30
0.0
 11
7599.891820363883
 21
2035.471436712056
 31
0.0
  0
ARC
  5
2504A
330
747D
100
AcDbEntity
  8
部品1
100
AcDbCircle
 10
7606.641820363886
 20
2059.096436712056
 30
0.0
 40
3.375
100
AcDbArc
 50
90.0
 51
180.0
  0
LINE
  5
2504B
330
747D
100
AcDbEntity
  8
部品1
100
AcDbLine
 10
7603.266820363884
 20
2048.971436712056
 30
0.0
 11
7603.266820363884
 21
2048.971436712056
 31
0.0
  0
LINE
  5
2504C
330
747D
100
AcDbEntity
  8
部品1
100
AcDbLine
 10
7603.266820363884
 20
2048.971436712056
 30
0.0
 11
7603.266820363884
 21
2059.096436712056
 31
0.0
  0
LINE
  5
2504D
330
747D
100
AcDbEntity
  8
部品1
100
AcDbLine
 10
7606.641820363886
 20
2062.471436712056
 30
0.0
 11
7659.516820363887
 21
2062.471436712053
 31
0.0
  0
ARC
  5
2504E
330
747D
100
AcDbEntity
  8
部品1
100
AcDbCircle
 10
7603.266820363884
 20
2045.596436712056
 30
0.0
 40
3.375
100
AcDbArc
 50
90.0
 51
180.0
  0
LINE
  5
2504F
330
747D
100
AcDbEntity
  8
部品1
100
AcDbLine
 10
7662.891820363886
 20
2059.096436712053
 30
0.0
 11
7662.891820363886
 21
1994.971436712056
 31
0.0
  0
LINE
  5
25050
330
747D
100
AcDbEntity
  8
部品1
100
AcDbLine
 10
7734.091820363879
 20
1934.921436712057
 30
0.0
 11
7985.766820363877
 21
1934.921436712057
 31
0.0
  0
LINE
  5
25051
330
747D
100
AcDbEntity
  8
細線
100
AcDbLine
 10
7811.391820363884
 20
1934.921436712057
 30
0.0
 11
7811.391820363884
 21
1988.921436712056
 31
0.0
  0
LINE
  5
25052
330
747D
100
AcDbEntity
  8
細線
100
AcDbLine
 10
7797.891820363888
 20
1934.921436712057
 30
0.0
 11
7797.891820363884
 21
1988.921436712056
 31
0.0
  0
LINE
  5
25053
330
747D
100
AcDbEntity
  8
部品1
100
AcDbLine
 10
7793.391820363884
 20
1984.421436712057
 30
0.0
 11
7815.891820363884
 21
1984.421436712057
 31
0.0
  0
LINE
  5
25054
330
747D
100
AcDbEntity
  8
部品1
100
AcDbLine
 10
7797.891820363884
 20
1988.921436712056
 30
0.0
 11
7811.391820363884
 21
1988.921436712056
 31
0.0
  0
LINE
  5
25055
330
747D
100
AcDbEntity
  8
部品1
100
AcDbLine
 10
7692.141820363883
 20
2009.921436712057
 30
0.0
 11
7727.341820363886
 21
2009.921436712057
 31
0.0
  0
LINE
  5
25056
330
747D
100
AcDbEntity
  8
部品1
100
AcDbLine
 10
7697.766820363884
 20
1934.921436712057
 30
0.0
 11
7712.391820363883
 21
1934.921436712057
 31
0.0
  0
LINE
  5
25057
330
747D
100
AcDbEntity
  8
部品1
100
AcDbLine
 10
7662.891820363886
 20
1994.971436712056
 30
0.0
 11
7712.391820363883
 21
1994.971436712056
 31
0.0
  0
ARC
  5
25058
330
747D
100
AcDbEntity
  8
部品1
100
AcDbCircle
 10
7692.141820363883
 20
2006.546436712056
 30
0.0
 40
3.375
100
AcDbArc
 50
90.0
 51
180.0
  0
LINE
  5
25059
330
747D
100
AcDbEntity
  8
部品1
100
AcDbLine
 10
7688.766820363884
 20
2006.546436712056
 30
0.0
 11
7688.766820363884
 21
1985.171436712057
 31
0.0
  0
ARC
  5
2505A
330
747D
100
AcDbEntity
  8
部品1
100
AcDbCircle
 10
7734.091820363879
 20
1938.296436712057
 30
0.0
 40
3.375
100
AcDbArc
 50
180.0
 51
270.0
  0
ARC
  5
2505B
330
747D
100
AcDbEntity
  8
部品1
100
AcDbCircle
 10
7727.341820363886
 20
2006.546436712056
 30
0.0
 40
3.375
100
AcDbArc
 50
0.0
 51
90.0
  0
LINE
  5
2505C
330
747D
100
AcDbEntity
  8
部品1
100
AcDbLine
 10
7730.716820363885
 20
2006.546436712056
 30
0.0
 11
7730.71682036388
 21
1938.296436712057
 31
0.0
  0
ARC
  5
2505D
330
747D
100
AcDbEntity
  8
部品1
100
AcDbCircle
 10
7712.391820363883
 20
1938.296436712057
 30
0.0
 40
3.375
100
AcDbArc
 50
270.0
 51
0.0
  0
ARC
  5
2505E
330
747D
100
AcDbEntity
  8
部品1
100
AcDbCircle
 10
7712.391820363883
 20
1991.596436712056
 30
0.0
 40
3.375
100
AcDbArc
 50
0.0
 51
90.0
  0
LINE
  5
2505F
330
747D
100
AcDbEntity
  8
部品1
100
AcDbLine
 10
7715.766820363886
 20
1991.596436712056
 30
0.0
 11
7715.766820363886
 21
1938.296436712057
 31
0.0
  0
ELLIPSE
  5
25060
330
747D
100
AcDbEntity
  8
部品1
 48
50.0
100
AcDbEllipse
 10
7804.641820363883
 20
2259.375547267397
 30
0.0
 11
23.0
 21
0.0
 31
0.0
210
0.0
220
0.0
230
1.0
 40
0.3478260869565217
 41
0.0
 42
6.283185307179585
  0
LINE
  5
25061
330
747D
100
AcDbEntity
  8
部品1
 48
50.0
100
AcDbLine
 10
7854.641820363884
 20
2247.375547267397
 30
0.0
 11
7854.641820363884
 21
2259.375547267397
 31
0.0
  0
LINE
  5
25062
330
747D
100
AcDbEntity
  8
部品1
 48
50.0
100
AcDbLine
 10
7754.641820363883
 20
2259.375547267397
 30
0.0
 11
7754.641820363883
 21
2247.375547267397
 31
0.0
  0
ELLIPSE
  5
25063
330
747D
100
AcDbEntity
  8
部品1
 48
50.0
100
AcDbEllipse
 10
7804.641820363883
 20
2247.375547267397
 30
0.0
 11
50.0
 21
0.0
 31
0.0
210
0.0
220
0.0
230
1.0
 40
0.4
 41
3.141592653589792
 42
6.283185307179585
  0
ELLIPSE
  5
25064
330
747D
100
AcDbEntity
  8
部品1
 48
50.0
100
AcDbEllipse
 10
7804.641820363883
 20
2259.375547267397
 30
0.0
 11
50.0
 21
0.0
 31
0.0
210
0.0
220
0.0
230
1.0
 40
0.4
 41
0.0
 42
6.283185307179585
  0
LINE
  5
25065
330
747D
100
AcDbEntity
  8
部品1
 48
50.0
100
AcDbLine
 10
7784.641820363884
 20
2421.565538098485
 30
0.0
 11
7824.641820363884
 21
2421.565538098485
 31
0.0
  0
ELLIPSE
  5
25066
330
747D
100
AcDbEntity
  8
細線
 48
50.0
100
AcDbEllipse
 10
7804.641820363883
 20
2411.565538098484
 30
0.0
 11
18.45838483258558
 21
0.0
 31
0.0
210
0.0
220
0.0
230
1.0
 40
0.2071254069489396
 41
0.0
 42
6.283185307179585
  0
LINE
  5
25067
330
747D
100
AcDbEntity
  8
部品1
 48
50.0
100
AcDbLine
 10
7784.641820363884
 20
2361.565538098485
 30
0.0
 11
7824.641820363884
 21
2361.565538098485
 31
0.0
  0
LINE
  5
25068
330
747D
100
AcDbEntity
  8
部品1
 48
50.0
100
AcDbLine
 10
7784.641820363884
 20
2401.565538098485
 30
0.0
 11
7824.641820363884
 21
2401.565538098485
 31
0.0
  0
LINE
  5
25069
330
747D
100
AcDbEntity
  8
細線
 48
50.0
100
AcDbLine
 10
7784.641820363884
 20
2361.565538098485
 30
0.0
 11
7784.641820363884
 21
2401.565538098485
 31
0.0
  0
LINE
  5
2506A
330
747D
100
AcDbEntity
  8
部品1
 48
50.0
100
AcDbLine
 10
7824.641820363884
 20
2361.565538098485
 30
0.0
 11
7844.641820363884
 21
2371.565538098485
 31
0.0
  0
LINE
  5
2506B
330
747D
100
AcDbEntity
  8
部品1
 48
50.0
100
AcDbLine
 10
7824.641820363884
 20
2401.565538098485
 30
0.0
 11
7844.641820363884
 21
2411.565538098485
 31
0.0
  0
LINE
  5
2506C
330
747D
100
AcDbEntity
  8
細線
 48
50.0
100
AcDbLine
 10
7824.641820363884
 20
2361.565538098485
 30
0.0
 11
7824.641820363884
 21
2401.565538098485
 31
0.0
  0
LINE
  5
2506D
330
747D
100
AcDbEntity
  8
部品1
 48
50.0
100
AcDbLine
 10
7844.641820363884
 20
2371.565538098485
 30
0.0
 11
7844.641820363884
 21
2411.565538098485
 31
0.0
  0
LINE
  5
2506E
330
747D
100
AcDbEntity
  8
部品1
 48
50.0
100
AcDbLine
 10
7824.641820363884
 20
2421.565538098485
 30
0.0
 11
7844.641820363884
 21
2411.565538098485
 31
0.0
  0
LINE
  5
2506F
330
747D
100
AcDbEntity
  8
部品1
 48
50.0
100
AcDbLine
 10
7764.641820363884
 20
2371.565538098485
 30
0.0
 11
7764.641820363884
 21
2411.565538098485
 31
0.0
  0
LINE
  5
25070
330
747D
100
AcDbEntity
  8
部品1
 48
50.0
100
AcDbLine
 10
7764.641820363884
 20
2411.565538098485
 30
0.0
 11
7784.641820363884
 21
2401.565538098485
 31
0.0
  0
LINE
  5
25071
330
747D
100
AcDbEntity
  8
部品1
 48
50.0
100
AcDbLine
 10
7764.641820363884
 20
2371.565538098485
 30
0.0
 11
7784.641820363884
 21
2361.565538098485
 31
0.0
  0
LINE
  5
25072
330
747D
100
AcDbEntity
  8
部品1
 48
50.0
100
AcDbLine
 10
7764.641820363884
 20
2411.565538098485
 30
0.0
 11
7784.641820363884
 21
2421.565538098485
 31
0.0
  0
LINE
  5
25073
330
747D
100
AcDbEntity
  8
部品1
100
AcDbLine
 10
11180.51668343864
 20
315.1164586850232
 30
0.0
 11
11180.51668343864
 21
3574.185961433112
 31
0.0
  0
LINE
  5
25074
330
747D
100
AcDbEntity
  8
部品1
100
AcDbLine
 10
9690.005755619502
 20
1348.347792145364
 30
0.0
 11
10590.0057556195
 21
1348.347792145368
 31
0.0
  0
LINE
  5
25075
330
747D
100
AcDbEntity
  8
部品1
100
AcDbLine
 10
9690.005755619502
 20
1508.347792145368
 30
0.0
 11
10590.0057556195
 21
1508.347792145372
 31
0.0
  0
LWPOLYLINE
  5
25076
330
747D
100
AcDbEntity
  8
部品1
 48
50.0
100
AcDbPolyline
 90
        2
 70
     0
 43
15.0
 10
9359.241677994017
 20
1622.971436712056
 10
10860.60705690855
 20
1622.971436712056
  0
TEXT
  5
25077
330
747D
100
AcDbEntity
  8
部品1
 48
50.0
100
AcDbText
 10
9214.664127294202
 20
1289.471760915419
 30
0.0
 40
100.0
  1
ボルトの出
 50
90.0
  7
STYLE2
100
AcDbText
  0
LINE
  5
25078
330
747D
100
AcDbEntity
  8
部品1
 48
50.0
100
AcDbLine
 10
8205.391820363884
 20
1242.971436712056
 30
0.0
 11
8205.391820363884
 21
942.9714367120563
 31
0.0
  0
LINE
  5
25079
330
747D
100
AcDbEntity
  8
部品1
 48
50.0
100
AcDbLine
 10
8305.391820363885
 20
942.9714367120563
 30
0.0
 11
8305.391820363885
 21
782.9714367120564
 31
0.0
  0
LINE
  5
2507A
330
747D
100
AcDbEntity
  8
細線
 48
50.0
100
AcDbLine
 10
8216.03070683825
 20
782.9714367120544
 30
0.0
 11
8258.902577627234
 21
942.9714367120528
 31
0.0
  0
LINE
  5
2507B
330
747D
100
AcDbEntity
  8
細線
 48
50.0
100
AcDbLine
 10
8117.420650654198
 20
782.9714367120527
 30
0.0
 11
8160.292521443176
 21
942.9714367120528
 31
0.0
  0
LINE
  5
2507C
330
747D
100
AcDbEntity
  8
細線
 48
50.0
100
AcDbLine
 10
8224.069182611193
 20
812.9714367120545
 30
0.0
 11
8232.107658384126
 21
782.9714367120544
 31
0.0
  0
LINE
  5
2507D
330
747D
100
AcDbEntity
  8
細線
 48
50.0
100
AcDbLine
 10
8125.459126427136
 20
812.9714367120545
 30
0.0
 11
8133.497602200069
 21
782.9714367120544
 31
0.0
  0
LINE
  5
2507E
330
747D
100
AcDbEntity
  8
細線
 48
50.0
100
AcDbLine
 10
8250.864101854304
 20
912.9714367120545
 30
0.0
 11
8242.825626081371
 21
942.9714367120546
 31
0.0
  0
LINE
  5
2507F
330
747D
100
AcDbEntity
  8
細線
 48
50.0
100
AcDbLine
 10
8152.254045670245
 20
912.9714367120545
 30
0.0
 11
8144.215569897312
 21
942.9714367120546
 31
0.0
  0
LINE
  5
25080
330
747D
100
AcDbEntity
  8
部品1
100
AcDbLine
 10
9690.005755619502
 20
1348.347792145364
 30
0.0
 11
9690.005755619502
 21
1622.971436712056
 31
0.0
  0
LINE
  5
25081
330
747D
100
AcDbEntity
  8
部品1
100
AcDbLine
 10
10440.0057556195
 20
1922.971436712055
 30
0.0
 11
10440.0057556195
 21
1622.971436712056
 31
0.0
  0
LINE
  5
25082
330
747D
100
AcDbEntity
  8
細線
100
AcDbLine
 10
10359.06906737823
 20
1622.971436712056
 30
0.0
 11
10059.06906737824
 21
1922.971436712055
 31
0.0
  0
LINE
  5
25083
330
747D
100
AcDbEntity
  8
細線
100
AcDbLine
 10
10422.70867768502
 20
1622.971436712057
 30
0.0
 11
10122.70867768503
 21
1922.971436712055
 31
0.0
  0
LINE
  5
25084
330
747D
100
AcDbEntity
  8
細線
100
AcDbLine
 10
10019.65781240869
 20
1622.971436712056
 30
0.0
 11
9840.005755619507
 21
1802.623493501247
 31
0.0
  0
LINE
  5
25085
330
747D
100
AcDbEntity
  8
部品1
100
AcDbLine
 10
9840.005755619507
 20
1622.971436712056
 30
0.0
 11
9840.005755619507
 21
1922.971436712055
 31
0.0
  0
LINE
  5
25086
330
747D
100
AcDbEntity
  8
細線
100
AcDbLine
 10
10083.29742271548
 20
1622.971436712056
 30
0.0
 11
9840.005755619502
 21
1866.263103808035
 31
0.0
  0
LINE
  5
25087
330
747D
100
AcDbEntity
  8
細線
 48
50.0
100
AcDbLine
 10
10535.47803710992
 20
1478.347792145366
 30
0.0
 11
10527.43956133698
 21
1508.347792145366
 31
0.0
  0
LINE
  5
25088
330
747D
100
AcDbEntity
  8
細線
 48
50.0
100
AcDbLine
 10
10500.64464209386
 20
1348.347792145366
 30
0.0
 11
10543.51651288285
 21
1508.347792145364
 31
0.0
  0
LINE
  5
25089
330
747D
100
AcDbEntity
  8
細線
 48
50.0
100
AcDbLine
 10
10114.24289313057
 20
1378.347792145368
 30
0.0
 11
10122.2813689035
 21
1348.347792145368
 31
0.0
  0
LINE
  5
2508A
330
747D
100
AcDbEntity
  8
細線
 48
50.0
100
AcDbLine
 10
10106.20441735763
 20
1348.347792145366
 30
0.0
 11
10149.07628814661
 21
1508.347792145366
 31
0.0
  0
LINE
  5
2508B
330
747D
100
AcDbEntity
  8
細線
 48
50.0
100
AcDbLine
 10
9908.984304989518
 20
1348.347792145368
 30
0.0
 11
9951.856175778495
 21
1508.347792145368
 31
0.0
  0
LINE
  5
2508C
330
747D
100
AcDbEntity
  8
細線
 48
50.0
100
AcDbLine
 10
9711.764192621394
 20
1348.347792145368
 30
0.0
 11
9754.636063410373
 21
1508.347792145368
 31
0.0
  0
LINE
  5
2508D
330
747D
100
AcDbEntity
  8
細線
 48
50.0
100
AcDbLine
 10
9810.374248805452
 20
1348.347792145366
 30
0.0
 11
9853.24611959443
 21
1508.347792145366
 31
0.0
  0
LINE
  5
2508E
330
747D
100
AcDbEntity
  8
細線
 48
50.0
100
AcDbLine
 10
10007.59436117357
 20
1348.347792145368
 30
0.0
 11
10050.46623196256
 21
1508.347792145366
 31
0.0
  0
LINE
  5
2508F
330
747D
100
AcDbEntity
  8
細線
 48
50.0
100
AcDbLine
 10
9818.412724578394
 20
1378.347792145368
 30
0.0
 11
9826.451200351328
 21
1348.347792145368
 31
0.0
  0
LINE
  5
25090
330
747D
100
AcDbEntity
  8
細線
 48
50.0
100
AcDbLine
 10
9719.802668394329
 20
1378.347792145368
 30
0.0
 11
9727.841144167262
 21
1348.347792145368
 31
0.0
  0
LINE
  5
25091
330
747D
100
AcDbEntity
  8
細線
 48
50.0
100
AcDbLine
 10
9917.022780762458
 20
1378.347792145368
 30
0.0
 11
9925.061256535393
 21
1348.347792145368
 31
0.0
  0
LINE
  5
25092
330
747D
100
AcDbEntity
  8
細線
 48
50.0
100
AcDbLine
 10
10015.63283694651
 20
1378.347792145368
 30
0.0
 11
10023.67131271945
 21
1348.347792145368
 31
0.0
  0
LINE
  5
25093
330
747D
100
AcDbEntity
  8
細線
100
AcDbLine
 10
9831.301248743665
 20
1508.347792145368
 30
0.0
 11
9945.924893310348
 21
1622.971436712055
 31
0.0
  0
LINE
  5
25094
330
747D
100
AcDbEntity
  8
細線
100
AcDbLine
 10
9873.727655614864
 20
1508.347792145369
 30
0.0
 11
9988.351300181545
 21
1622.971436712056
 31
0.0
  0
LINE
  5
25095
330
747D
100
AcDbEntity
  8
細線
 48
50.0
100
AcDbLine
 10
9845.207643821504
 20
1478.347792145368
 30
0.0
 11
9837.169168048571
 21
1508.347792145368
 31
0.0
  0
LINE
  5
25096
330
747D
100
AcDbEntity
  8
細線
 48
50.0
100
AcDbLine
 10
9746.59758763744
 20
1478.347792145368
 30
0.0
 11
9738.559111864509
 21
1508.347792145368
 31
0.0
  0
LINE
  5
25097
330
747D
100
AcDbEntity
  8
細線
 48
50.0
100
AcDbLine
 10
10042.42775618962
 20
1478.347792145368
 30
0.0
 11
10034.38928041669
 21
1508.347792145368
 31
0.0
  0
LINE
  5
25098
330
747D
100
AcDbEntity
  8
細線
 48
50.0
100
AcDbLine
 10
9943.81770000557
 20
1478.347792145368
 30
0.0
 11
9935.779224232636
 21
1508.347792145368
 31
0.0
  0
LINE
  5
25099
330
747D
100
AcDbEntity
  8
細線
100
AcDbLine
 10
9916.154062486056
 20
1508.347792145369
 30
0.0
 11
10030.77770705274
 21
1622.971436712056
 31
0.0
  0
LINE
  5
2509A
330
747D
100
AcDbEntity
  8
細線
 48
50.0
100
AcDbLine
 10
10303.42452972575
 20
1348.347792145366
 30
0.0
 11
10346.29640051472
 21
1508.347792145368
 31
0.0
  0
LINE
  5
2509B
330
747D
100
AcDbEntity
  8
細線
 48
50.0
100
AcDbLine
 10
10204.81447354169
 20
1348.347792145368
 30
0.0
 11
10247.68634433067
 21
1508.347792145366
 31
0.0
  0
LINE
  5
2509C
330
747D
100
AcDbEntity
  8
細線
 48
50.0
100
AcDbLine
 10
10402.03458590981
 20
1348.347792145365
 30
0.0
 11
10444.90645669879
 21
1508.347792145364
 31
0.0
  0
LINE
  5
2509D
330
747D
100
AcDbEntity
  8
細線
 48
50.0
100
AcDbLine
 10
10311.46300549869
 20
1378.347792145368
 30
0.0
 11
10319.50148127163
 21
1348.347792145368
 31
0.0
  0
LINE
  5
2509E
330
747D
100
AcDbEntity
  8
細線
 48
50.0
100
AcDbLine
 10
10212.85294931463
 20
1378.347792145368
 30
0.0
 11
10220.89142508756
 21
1348.347792145368
 31
0.0
  0
LINE
  5
2509F
330
747D
100
AcDbEntity
  8
細線
 48
50.0
100
AcDbLine
 10
10508.68311786681
 20
1378.347792145366
 30
0.0
 11
10516.72159363974
 21
1348.347792145366
 31
0.0
  0
LINE
  5
250A0
330
747D
100
AcDbEntity
  8
細線
 48
50.0
100
AcDbLine
 10
10410.07306168275
 20
1378.347792145366
 30
0.0
 11
10418.11153745568
 21
1348.347792145366
 31
0.0
  0
LINE
  5
250A1
330
747D
100
AcDbEntity
  8
細線
100
AcDbLine
 10
10323.72765561486
 20
1508.347792145371
 30
0.0
 11
10438.35130018154
 21
1622.971436712056
 31
0.0
  0
LINE
  5
250A2
330
747D
100
AcDbEntity
  8
細線
100
AcDbLine
 10
10281.30124874367
 20
1508.347792145371
 30
0.0
 11
10395.92489331035
 21
1622.971436712056
 31
0.0
  0
LINE
  5
250A3
330
747D
100
AcDbEntity
  8
細線
 48
50.0
100
AcDbLine
 10
10239.64786855774
 20
1478.347792145368
 30
0.0
 11
10231.60939278481
 21
1508.347792145368
 31
0.0
  0
LINE
  5
250A4
330
747D
100
AcDbEntity
  8
細線
 48
50.0
100
AcDbLine
 10
10141.03781237368
 20
1478.347792145368
 30
0.0
 11
10132.99933660075
 21
1508.347792145368
 31
0.0
  0
LINE
  5
250A5
330
747D
100
AcDbEntity
  8
細線
 48
50.0
100
AcDbLine
 10
10338.25792474179
 20
1478.347792145368
 30
0.0
 11
10330.21944896885
 21
1508.347792145368
 31
0.0
  0
LINE
  5
250A6
330
747D
100
AcDbEntity
  8
細線
 48
50.0
100
AcDbLine
 10
10436.86798092586
 20
1478.347792145366
 30
0.0
 11
10428.82950515293
 21
1508.347792145366
 31
0.0
  0
LINE
  5
250A7
330
747D
100
AcDbEntity
  8
細線
100
AcDbLine
 10
10366.15406248605
 20
1508.347792145371
 30
0.0
 11
10480.77770705273
 21
1622.971436712056
 31
0.0
  0
LINE
  5
250A8
330
747D
100
AcDbEntity
  8
部品1
100
AcDbLine
 10
10590.0057556195
 20
1622.971436712056
 30
0.0
 11
10590.0057556195
 21
1348.347792145368
 31
0.0
  0
LEADER
  5
250A9
330
747D
100
AcDbEntity
  8
寸法
 48
50.0
100
AcDbLeader
  3
INABA_S40G
 73
     0
 74
     0
 75
     1
 40
150.0
 41
231.9898538650463
 76
     3
 10
10353.4112701394
 20
1922.971436712056
 30
0.0
 10
10442.33402843146
 20
2129.404337563478
 30
0.0
 10
10542.33402843146
 20
2129.404337563478
 30
0.0
340
250AA
1001
ACAD
1000
DSTYLE
1002
{
1070
   341
1005
0
1002
}
  0
MTEXT
  5
250AA
102
{ACAD_REACTORS
330
250A9
102
}
330
747D
100
AcDbEntity
  8
寸法
 62
     7
 48
50.0
100
AcDbMText
 10
10582.33402843146
 20
2244.404337563478
 30
0.0
 40
150.0
 41
1.0
 71
     4
 72
     1
  1
\A1;C.B
  7
STYLE1
 73
     1
 44
1.0
1001
ACAD
1000
MTEXTBEGIN
1070
    73
1070
     1
1070
    44
1040
1.0
1070
    74
1070
     0
1000
MTEXTEND
  0
LINE
  5
250AB
330
747D
100
AcDbEntity
  8
部品1
100
AcDbLine
 10
9840.005755619507
 20
1922.971436712055
 30
0.0
 11
10440.0057556195
 21
1922.971436712055
 31
0.0
  0
ENDSEC
  0
SECTION
  2
OBJECTS
  0
DICTIONARY
  5
7471
330
0
100
AcDbDictionary
281
     1
  3
ACAD_COLOR
350
173D2
  3
ACAD_GROUP
350
7472
  3
ACAD_LAYOUT
350
173D3
  3
ACAD_MATERIAL
350
173D1
  3
ACAD_MLINESTYLE
350
7473
  3
ACAD_PLOTSETTINGS
350
173D4
  3
ACAD_PLOTSTYLENAME
350
173CF
  3
ACDBHEADERROUNDTRIPXREC
350
25372
  3
AcDbVariableDictionary
350
2516E
  3
CONTENTDICTIONARY
350
E71C
  3
DRAWINGVARIABLESDICT
350
F3B9
  0
DICTIONARY
  5
1758F
330
7467
100
AcDbDictionary
280
     1
281
     1
  3
ACAD_LAYERSTATES
360
17590
  0
DICTIONARY
  5
173D2
102
{ACAD_REACTORS
330
7471
102
}
330
7471
100
AcDbDictionary
281
     1
  0
DICTIONARY
  5
7472
102
{ACAD_REACTORS
330
7471
102
}
330
7471
100
AcDbDictionary
281
     1
  3
*A1
350
1D2A9
  0
DICTIONARY
  5
173D3
102
{ACAD_REACTORS
330
7471
102
}
330
7471
100
AcDbDictionary
281
     1
  3
Model
350
173D5
  3
レイアウト1
350
173D6
  0
DICTIONARY
  5
173D1
102
{ACAD_REACTORS
330
7471
102
}
330
7471
100
AcDbDictionary
281
     1
  0
DICTIONARY
  5
7473
102
{ACAD_REACTORS
330
7471
102
}
330
7471
100
AcDbDictionary
281
     1
  3
STANDARD
350
7480
  0
DICTIONARY
  5
173D4
102
{ACAD_REACTORS
330
7471
102
}
330
7471
100
AcDbDictionary
281
     1
  0
ACDBDICTIONARYWDFLT
  5
173CF
102
{ACAD_REACTORS
330
7471
102
}
330
7471
100
AcDbDictionary
281
     1
  3
Normal
350
173D0
100
AcDbDictionaryWithDefault
340
173D0
  0
DICTIONARY
  5
25372
102
{ACAD_REACTORS
330
7471
102
}
330
7471
100
AcDbDictionary
281
     1
  3
COLORDICT
350
25374
  3
MATERIALDICT
350
25373
  0
DICTIONARY
  5
2516E
102
{ACAD_REACTORS
330
7471
102
}
330
7471
100
AcDbDictionary
281
     1
  3
DIMASSOC
350
2516F
  3
PROJECTNAME
350
25170
  0
DICTIONARY
  5
E71C
102
{ACAD_REACTORS
330
7471
102
}
330
7471
100
AcDbDictionary
281
     1
  0
DICTIONARY
  5
F3B9
102
{ACAD_REACTORS
330
7471
102
}
330
7471
100
AcDbDictionary
281
     1
1001
DRAWINGVARIABLESXDATA
1000
POLARMODE
1000
1
  0
DICTIONARY
  5
17590
102
{ACAD_REACTORS
330
1758F
102
}
330
1758F
100
AcDbDictionary
281
     1
  0
GROUP
  5
1D2A9
102
{ACAD_REACTORS
330
7472
102
}
330
7472
100
AcDbGroup
300

 70
     1
 71
     1
  0
LAYOUT
  5
173D5
102
{ACAD_XDICTIONARY
360
25375
102
}
102
{ACAD_REACTORS
330
173D3
102
}
330
173D3
100
AcDbPlotSettings
  1

  2
クセロPDF
  4
A3
  6

 40
3.174999999999999
 41
3.174999999999999
 42
3.174987999999999
 43
3.174987999999999
 44
419.946655
 45
296.925995
 46
0.0
 47
0.0
 48
0.0
 49
0.0
140
0.0
141
0.0
142
1.0
143
40.88431155294937
 70
 11952
 72
     1
 73
     0
 74
     2
  7
inaba.ctb
 75
     0
147
0.0244592598484849
148
0.0
149
0.0
100
AcDbLayout
  1
Model
 70
     1
 71
     0
 10
0.0
 20
0.0
 11
12.0
 21
9.0
 12
0.0
 22
0.0
 32
0.0
 14
0.0
 24
0.0
 34
0.0
 15
0.0
 25
0.0
 35
0.0
146
0.0
 13
0.0
 23
0.0
 33
0.0
 16
1.0
 26
0.0
 36
0.0
 17
0.0
 27
1.0
 37
0.0
 76
     0
330
747D
  0
LAYOUT
  5
173D6
102
{ACAD_XDICTIONARY
360
25377
102
}
102
{ACAD_REACTORS
330
173D3
102
}
330
173D3
100
AcDbPlotSettings
  1

  2
Microsoft Office Document Image Writer
  4

  6

 40
0.0
 41
0.0
 42
0.0
 43
0.0
 44
0.0
 45
0.0
 46
0.0
 47
0.0
 48
0.0
 49
0.0
140
0.0
141
0.0
142
1.0
143
1.0
 70
   688
 72
     0
 73
     0
 74
     5
  7

 75
    16
147
1.0
148
0.0
149
0.0
100
AcDbLayout
  1
レイアウト1
 70
     0
 71
     1
 10
0.0
 20
0.0
 11
420.0
 21
297.0
 12
0.0
 22
0.0
 32
0.0
 14
1.000000000000000E+20
 24
1.000000000000000E+20
 34
1.000000000000000E+20
 15
-1.000000000000000E+20
 25
-1.000000000000000E+20
 35
-1.000000000000000E+20
146
0.0
 13
0.0
 23
0.0
 33
0.0
 16
1.0
 26
0.0
 36
0.0
 17
0.0
 27
1.0
 37
0.0
 76
     0
330
747A
  0
MLINESTYLE
  5
7480
102
{ACAD_REACTORS
330
7473
102
}
330
7473
100
AcDbMlineStyle
  2
STANDARD
 70
     0
  3

 62
     0
 51
90.0
 52
90.0
 71
     2
 49
0.5
 62
   256
  6
BYLAYER
 49
-0.5
 62
   256
  6
BYLAYER
  0
ACDBPLACEHOLDER
  5
173D0
102
{ACAD_REACTORS
330
173CF
102
}
330
173CF
  0
XRECORD
  5
25374
102
{ACAD_REACTORS
330
25372
102
}
330
25372
100
AcDbXrecord
280
     1
340
173D2
  0
XRECORD
  5
25373
102
{ACAD_REACTORS
330
25372
102
}
330
25372
100
AcDbXrecord
280
     1
340
173D1
  0
DICTIONARYVAR
  5
2516F
102
{ACAD_REACTORS
330
2516E
102
}
330
2516E
100
DictionaryVariables
280
     0
  1
1
  0
DICTIONARYVAR
  5
25170
102
{ACAD_REACTORS
330
2516E
102
}
330
2516E
100
DictionaryVariables
280
     0
  1

  0
DICTIONARY
  5
25375
330
173D5
100
AcDbDictionary
280
     1
281
     1
  3
ACAD_XREC_ROUNDTRIP
360
25376
  0
DICTIONARY
  5
25377
330
173D6
100
AcDbDictionary
280
     1
281
     1
  3
ACAD_XREC_ROUNDTRIP
360
25378
  0
XRECORD
  5
25376
102
{ACAD_REACTORS
330
25375
102
}
330
25375
100
AcDbXrecord
280
     1
102
SHADEPLOT
 70
     1
102
SHADEPLOTRESLEVEL
 70
     2
102
SHADEPLOTCUSTOMDPI
 70
   300
  0
XRECORD
  5
25378
102
{ACAD_REACTORS
330
25377
102
}
330
25377
100
AcDbXrecord
280
     1
102
SHADEPLOT
 70
     0
102
SHADEPLOTRESLEVEL
 70
     2
102
SHADEPLOTCUSTOMDPI
 70
   300
  0
ENDSEC
  0
EOF
