  0
SECTION
  2
HEADER
  9
$ACADVER
  1
AC1015
  9
$ACADMAINTVER
 70
    20
  9
$DWGCODEPAGE
  3
ANSI_932
  9
$INSBASE
 10
0.0
 20
0.0
 30
0.0
  9
$EXTMIN
 10
139.9999999999995
 20
-0.0000000000000909
 30
0.0
  9
$EXTMAX
 10
16307.2
 20
11409.6
 30
0.0
  9
$LIMMIN
 10
0.0
 20
0.0
  9
$LIMMAX
 10
16800.0
 20
11880.0
  9
$ORTHOMODE
 70
     0
  9
$REGENMODE
 70
     1
  9
$FILLMODE
 70
     1
  9
$QTEXTMODE
 70
     0
  9
$MIRRTEXT
 70
     1
  9
$LTSCALE
 40
20.0
  9
$ATTMODE
 70
     1
  9
$TEXTSIZE
 40
4.0
  9
$TRACEWID
 40
1.0
  9
$TEXTSTYLE
  7
STYLE1
  9
$CLAYER
  8
細線
  9
$CELTYPE
  6
BYLAYER
  9
$CECOLOR
 62
   256
  9
$CELTSCALE
 40
50.0
  9
$DISPSILH
 70
     0
  9
$DIMSCALE
 40
40.0
  9
$DIMASZ
 40
2.5
  9
$DIMEXO
 40
0.5
  9
$DIMDLI
 40
7.0
  9
$DIMRND
 40
0.0
  9
$DIMDLE
 40
0.0
  9
$DIMEXE
 40
1.5
  9
$DIMTP
 40
0.0
  9
$DIMTM
 40
0.0
  9
$DIMTXT
 40
3.0
  9
$DIMCEN
 40
0.0
  9
$DIMTSZ
 40
0.0
  9
$DIMTOL
 70
     0
  9
$DIMLIM
 70
     0
  9
$DIMTIH
 70
     0
  9
$DIMTOH
 70
     0
  9
$DIMSE1
 70
     0
  9
$DIMSE2
 70
     0
  9
$DIMTAD
 70
     3
  9
$DIMZIN
 70
     8
  9
$DIMBLK
  1

  9
$DIMASO
 70
     1
  9
$DIMSHO
 70
     1
  9
$DIMPOST
  1

  9
$DIMAPOST
  1

  9
$DIMALT
 70
     0
  9
$DIMALTD
 70
     2
  9
$DIMALTF
 40
0.0394
  9
$DIMLFAC
 40
1.0
  9
$DIMTOFL
 70
     1
  9
$DIMTVP
 40
0.0
  9
$DIMTIX
 70
     1
  9
$DIMSOXD
 70
     0
  9
$DIMSAH
 70
     1
  9
$DIMBLK1
  1
DOTSMALL
  9
$DIMBLK2
  1
DOTSMALL
  9
$DIMSTYLE
  2
INABA_S40G
  9
$DIMCLRD
 70
     0
  9
$DIMCLRE
 70
     0
  9
$DIMCLRT
 70
     7
  9
$DIMTFAC
 40
1.0
  9
$DIMGAP
 40
1.0
  9
$DIMJUST
 70
     0
  9
$DIMSD1
 70
     0
  9
$DIMSD2
 70
     0
  9
$DIMTOLJ
 70
     1
  9
$DIMTZIN
 70
     0
  9
$DIMALTZ
 70
     0
  9
$DIMALTTZ
 70
     0
  9
$DIMUPT
 70
     0
  9
$DIMDEC
 70
     1
  9
$DIMTDEC
 70
     4
  9
$DIMALTU
 70
     2
  9
$DIMALTTD
 70
     2
  9
$DIMTXSTY
  7
STYLE1
  9
$DIMAUNIT
 70
     0
  9
$DIMADEC
 70
     0
  9
$DIMALTRND
 40
0.0
  9
$DIMAZIN
 70
     0
  9
$DIMDSEP
 70
    46
  9
$DIMATFIT
 70
     3
  9
$DIMFRAC
 70
     0
  9
$DIMLDRBLK
  1
DOTSMALL
  9
$DIMLUNIT
 70
     2
  9
$DIMLWD
 70
    -2
  9
$DIMLWE
 70
    -2
  9
$DIMTMOVE
 70
     0
  9
$LUNITS
 70
     2
  9
$LUPREC
 70
     1
  9
$SKETCHINC
 40
1.0
  9
$FILLETRAD
 40
3.0
  9
$AUNITS
 70
     0
  9
$AUPREC
 70
     0
  9
$MENU
  1
acad
  9
$ELEVATION
 40
0.0
  9
$PELEVATION
 40
0.0
  9
$THICKNESS
 40
0.0
  9
$LIMCHECK
 70
     0
  9
$CHAMFERA
 40
0.0
  9
$CHAMFERB
 40
0.0
  9
$CHAMFERC
 40
0.0
  9
$CHAMFERD
 40
0.0
  9
$SKPOLY
 70
     0
  9
$TDCREATE
 40
2451368.612993866
  9
$TDUCREATE
 40
2451368.237993866
  9
$TDUPDATE
 40
2455827.764210209
  9
$TDUUPDATE
 40
2455827.389210209
  9
$TDINDWG
 40
0.9027457986
  9
$TDUSRTIMER
 40
0.9027457986
  9
$USRTIMER
 70
     1
  9
$ANGBASE
 50
0.0
  9
$ANGDIR
 70
     0
  9
$PDMODE
 70
     3
  9
$PDSIZE
 40
2.0
  9
$PLINEWID
 40
0.0
  9
$SPLFRAME
 70
     0
  9
$SPLINETYPE
 70
     6
  9
$SPLINESEGS
 70
     8
  9
$HANDSEED
  5
25EFA
  9
$SURFTAB1
 70
     6
  9
$SURFTAB2
 70
     6
  9
$SURFTYPE
 70
     6
  9
$SURFU
 70
     6
  9
$SURFV
 70
     6
  9
$UCSBASE
  2

  9
$UCSNAME
  2

  9
$UCSORG
 10
0.0
 20
0.0
 30
0.0
  9
$UCSXDIR
 10
1.0
 20
0.0
 30
0.0
  9
$UCSYDIR
 10
0.0
 20
1.0
 30
0.0
  9
$UCSORTHOREF
  2

  9
$UCSORTHOVIEW
 70
     0
  9
$UCSORGTOP
 10
0.0
 20
0.0
 30
0.0
  9
$UCSORGBOTTOM
 10
0.0
 20
0.0
 30
0.0
  9
$UCSORGLEFT
 10
0.0
 20
0.0
 30
0.0
  9
$UCSORGRIGHT
 10
0.0
 20
0.0
 30
0.0
  9
$UCSORGFRONT
 10
0.0
 20
0.0
 30
0.0
  9
$UCSORGBACK
 10
0.0
 20
0.0
 30
0.0
  9
$PUCSBASE
  2

  9
$PUCSNAME
  2

  9
$PUCSORG
 10
0.0
 20
0.0
 30
0.0
  9
$PUCSXDIR
 10
1.0
 20
0.0
 30
0.0
  9
$PUCSYDIR
 10
0.0
 20
1.0
 30
0.0
  9
$PUCSORTHOREF
  2

  9
$PUCSORTHOVIEW
 70
     0
  9
$PUCSORGTOP
 10
0.0
 20
0.0
 30
0.0
  9
$PUCSORGBOTTOM
 10
0.0
 20
0.0
 30
0.0
  9
$PUCSORGLEFT
 10
0.0
 20
0.0
 30
0.0
  9
$PUCSORGRIGHT
 10
0.0
 20
0.0
 30
0.0
  9
$PUCSORGFRONT
 10
0.0
 20
0.0
 30
0.0
  9
$PUCSORGBACK
 10
0.0
 20
0.0
 30
0.0
  9
$USERI1
 70
     0
  9
$USERI2
 70
     0
  9
$USERI3
 70
     0
  9
$USERI4
 70
     0
  9
$USERI5
 70
     0
  9
$USERR1
 40
0.0
  9
$USERR2
 40
0.0
  9
$USERR3
 40
0.0
  9
$USERR4
 40
0.0
  9
$USERR5
 40
0.0
  9
$WORLDVIEW
 70
     1
  9
$SHADEDGE
 70
     3
  9
$SHADEDIF
 70
    70
  9
$TILEMODE
 70
     1
  9
$MAXACTVP
 70
    16
  9
$PINSBASE
 10
0.0
 20
0.0
 30
0.0
  9
$PLIMCHECK
 70
     0
  9
$PEXTMIN
 10
1.000000000000000E+20
 20
1.000000000000000E+20
 30
1.000000000000000E+20
  9
$PEXTMAX
 10
-1.000000000000000E+20
 20
-1.000000000000000E+20
 30
-1.000000000000000E+20
  9
$PLIMMIN
 10
0.0
 20
0.0
  9
$PLIMMAX
 10
420.0
 20
297.0
  9
$UNITMODE
 70
     0
  9
$VISRETAIN
 70
     0
  9
$PLINEGEN
 70
     0
  9
$PSLTSCALE
 70
     0
  9
$TREEDEPTH
 70
  3020
  9
$CMLSTYLE
  2
STANDARD
  9
$CMLJUST
 70
     0
  9
$CMLSCALE
 40
1.0
  9
$PROXYGRAPHICS
 70
     1
  9
$MEASUREMENT
 70
     1
  9
$CELWEIGHT
370
    -1
  9
$ENDCAPS
280
     0
  9
$JOINSTYLE
280
     0
  9
$LWDISPLAY
290
     0
  9
$INSUNITS
 70
     0
  9
$HYPERLINKBASE
  1

  9
$STYLESHEET
  1
inaba.ctb
  9
$XEDIT
290
     1
  9
$CEPSNTYPE
380
     0
  9
$PSTYLEMODE
290
     1
  9
$FINGERPRINTGUID
  2
{5EAC461A-2277-4BF8-9AB0-99C43BB394F0}
  9
$VERSIONGUID
  2
{AD13EC94-6A1E-4392-A053-132AC941340C}
  9
$EXTNAMES
290
     1
  9
$PSVPSCALE
 40
0.0
  9
$OLESTARTUP
290
     0
  0
ENDSEC
  0
SECTION
  2
CLASSES
  0
CLASS
  1
ACDBDICTIONARYWDFLT
  2
AcDbDictionaryWithDefault
  3
ObjectDBX Classes
 90
        0
280
     0
281
     0
  0
CLASS
  1
DICTIONARYVAR
  2
AcDbDictionaryVar
  3
ObjectDBX Classes
 90
        0
280
     0
281
     0
  0
CLASS
  1
ACDBPLACEHOLDER
  2
AcDbPlaceHolder
  3
ObjectDBX Classes
 90
        0
280
     0
281
     0
  0
CLASS
  1
LAYOUT
  2
AcDbLayout
  3
ObjectDBX Classes
 90
        0
280
     0
281
     0
  0
ENDSEC
  0
SECTION
  2
TABLES
  0
TABLE
  2
VPORT
  5
746D
330
0
100
AcDbSymbolTable
 70
     2
  0
VPORT
  5
25EF2
330
746D
100
AcDbSymbolTableRecord
100
AcDbViewportTableRecord
  2
*Active
 70
     0
 10
0.0
 20
0.0
 11
1.0
 21
1.0
 12
9779.741870590704
 22
5704.796475140369
 13
0.0
 23
0.0
 14
10.0
 24
10.0
 15
10.0
 25
10.0
 16
0.0
 26
0.0
 36
1.0
 17
0.0
 27
0.0
 37
0.0
 40
11494.73464854293
 41
1.79295154185022
 42
50.0
 43
0.0
 44
0.0
 50
0.0
 51
0.0
 71
     0
 72
     0
 73
     1
 74
     0
 75
     0
 76
     0
 77
     0
 78
     0
281
     0
 65
     1
110
0.0
120
0.0
130
0.0
111
1.0
121
0.0
131
0.0
112
0.0
122
1.0
132
0.0
 79
     0
146
0.0
  0
ENDTAB
  0
TABLE
  2
LTYPE
  5
746A
330
0
100
AcDbSymbolTable
 70
     3
  0
LTYPE
  5
7477
330
746A
100
AcDbSymbolTableRecord
100
AcDbLinetypeTableRecord
  2
BYBLOCK
 70
     0
  3

 72
    65
 73
     0
 40
0.0
  0
LTYPE
  5
7478
330
746A
100
AcDbSymbolTableRecord
100
AcDbLinetypeTableRecord
  2
BYLAYER
 70
     0
  3

 72
    65
 73
     0
 40
0.0
  0
LTYPE
  5
7479
330
746A
100
AcDbSymbolTableRecord
100
AcDbLinetypeTableRecord
  2
CONTINUOUS
 70
     0
  3
Solid line
 72
    65
 73
     0
 40
0.0
  0
LTYPE
  5
7816
330
746A
100
AcDbSymbolTableRecord
100
AcDbLinetypeTableRecord
  2
CENTER
 70
     0
  3
____ _ ____ _ ____ _ ____ _ ____ _ ____ _ ____ 
 72
    65
 73
     4
 40
2.0
 49
1.25
 74
     0
 49
-0.25
 74
     0
 49
0.25
 74
     0
 49
-0.25
 74
     0
  0
LTYPE
  5
781B
330
746A
100
AcDbSymbolTableRecord
100
AcDbLinetypeTableRecord
  2
PHANTOM
 70
     0
  3
______  __  __  ______  __  __  ______  __  __ 
 72
    65
 73
     6
 40
2.5
 49
1.25
 74
     0
 49
-0.25
 74
     0
 49
0.25
 74
     0
 49
-0.25
 74
     0
 49
0.25
 74
     0
 49
-0.25
 74
     0
  0
ENDTAB
  0
TABLE
  2
LAYER
  5
7467
102
{ACAD_XDICTIONARY
360
1758F
102
}
330
0
100
AcDbSymbolTable
 70
    10
  0
LAYER
  5
7474
330
7467
100
AcDbSymbolTableRecord
100
AcDbLayerTableRecord
  2
0
 70
     0
 62
     7
  6
CONTINUOUS
370
    -3
390
173D0
  0
LAYER
  5
DEB2
330
7467
100
AcDbSymbolTableRecord
100
AcDbLayerTableRecord
  2
センター
 70
     0
 62
     3
  6
CENTER
370
    -3
390
173D0
  0
LAYER
  5
DEB3
330
7467
100
AcDbSymbolTableRecord
100
AcDbLayerTableRecord
  2
寸法
 70
     0
 62
     4
  6
CONTINUOUS
370
    -3
390
173D0
  0
LAYER
  5
DEB4
330
7467
100
AcDbSymbolTableRecord
100
AcDbLayerTableRecord
  2
部品1
 70
     0
 62
     7
  6
CONTINUOUS
370
    -3
390
173D0
  0
LAYER
  5
DEB5
330
7467
100
AcDbSymbolTableRecord
100
AcDbLayerTableRecord
  2
補助
 70
     0
 62
    -1
  6
CONTINUOUS
370
    -3
390
173D0
  0
LAYER
  5
DEB6
330
7467
100
AcDbSymbolTableRecord
100
AcDbLayerTableRecord
  2
文字
 70
     0
 62
     7
  6
CONTINUOUS
370
    -3
390
173D0
  0
LAYER
  5
F255
330
7467
100
AcDbSymbolTableRecord
100
AcDbLayerTableRecord
  2
DEFPOINTS
 70
     0
 62
     7
  6
CONTINUOUS
290
     0
370
    -3
390
173D0
  0
LAYER
  5
10B54
330
7467
100
AcDbSymbolTableRecord
100
AcDbLayerTableRecord
  2
仕様書枠
 70
     0
 62
   230
  6
CONTINUOUS
370
    -3
390
173D0
  0
LAYER
  5
1173F
330
7467
100
AcDbSymbolTableRecord
100
AcDbLayerTableRecord
  2
細線
 70
     0
 62
     5
  6
CONTINUOUS
370
    -3
390
173D0
  0
LAYER
  5
12CC4
330
7467
100
AcDbSymbolTableRecord
100
AcDbLayerTableRecord
  2
想像線
 70
     0
 62
     6
  6
PHANTOM
370
    -3
390
173D0
  0
ENDTAB
  0
TABLE
  2
STYLE
  5
7468
330
0
100
AcDbSymbolTable
 70
     4
  0
STYLE
  5
7475
330
7468
100
AcDbSymbolTableRecord
100
AcDbTextStyleTableRecord
  2
STANDARD
 70
     0
 40
0.0
 41
1.0
 50
0.0
 71
     0
 42
4.0
  3
txt
  4
C:\AutoCAD LT\bigfont.shx
  0
STYLE
  5
763C
330
7468
100
AcDbSymbolTableRecord
100
AcDbTextStyleTableRecord
  2
MSMINCHO
 70
     0
 40
0.0
 41
1.0
 50
0.0
 71
     0
 42
1.199999999999999
  3
C:\AutoCAD LT\msminch2.TTF
  4

  0
STYLE
  5
F706
330
7468
100
AcDbSymbolTableRecord
100
AcDbTextStyleTableRecord
  2
STYLE1
 70
     0
 40
0.0
 41
1.0
 50
0.0
 71
     0
 42
4.0
  3
isocp.shx
  4
bigfont.shx
  0
STYLE
  5
103BF
330
7468
100
AcDbSymbolTableRecord
100
AcDbTextStyleTableRecord
  2
STYLE2
 70
     0
 40
0.0
 41
1.0
 50
0.0
 71
     0
 42
100.0
  3
MS PGothic.ttf
  4

1001
ACAD
1000
MS PGothic
1071
    32818
  0
ENDTAB
  0
TABLE
  2
VIEW
  5
746B
330
0
100
AcDbSymbolTable
 70
     0
  0
ENDTAB
  0
TABLE
  2
UCS
  5
746C
330
0
100
AcDbSymbolTable
 70
     0
  0
ENDTAB
  0
TABLE
  2
APPID
  5
746E
330
0
100
AcDbSymbolTable
 70
     6
  0
APPID
  5
7476
330
746E
100
AcDbSymbolTableRecord
100
AcDbRegAppTableRecord
  2
ACAD
 70
     0
  0
APPID
  5
DEA9
330
746E
100
AcDbSymbolTableRecord
100
AcDbRegAppTableRecord
  2
CONTENTBLOCKICON
 70
     0
  0
APPID
  5
DEAA
330
746E
100
AcDbSymbolTableRecord
100
AcDbRegAppTableRecord
  2
CONTENTBLOCKDESCRIPTION
 70
     0
  0
APPID
  5
E71D
330
746E
100
AcDbSymbolTableRecord
100
AcDbRegAppTableRecord
  2
CONTENTTABDATA
 70
     0
  0
APPID
  5
E71E
330
746E
100
AcDbSymbolTableRecord
100
AcDbRegAppTableRecord
  2
CONTENTCURRENTTAB
 70
     0
  0
APPID
  5
F3BA
330
746E
100
AcDbSymbolTableRecord
100
AcDbRegAppTableRecord
  2
DRAWINGVARIABLESXDATA
 70
     0
  0
ENDTAB
  0
TABLE
  2
DIMSTYLE
  5
746F
330
0
100
AcDbSymbolTable
 70
     1
100
AcDbDimStyleTable
 71
     1
340
F71F
  0
DIMSTYLE
105
F71F
102
{ACAD_REACTORS
330
25CB8
330
25C1F
330
25C19
330
25C17
330
25C02
330
25BC0
330
25BBF
330
25BBE
330
25BB1
330
25BB0
330
25BAD
330
25BAC
330
25BAA
330
25BA9
330
25BA6
330
25BA3
330
25BA1
330
25BA0
330
25B9D
330
24FFF
330
24CFE
330
24B74
330
21966
330
21964
330
21959
330
21958
330
21957
330
21942
330
218CC
330
218B2
330
218AA
330
218A9
330
218A8
330
218A6
330
218A5
330
218A4
330
217E5
330
21671
330
2160C
330
21608
330
215F5
330
215F4
330
215F3
330
215EF
330
215ED
330
20E3A
330
20E15
330
20DFB
330
20DE1
330
1F2B5
330
1DAC7
330
1D333
330
1D2D6
330
1AC2C
330
1AC27
102
}
330
746F
100
AcDbSymbolTableRecord
100
AcDbDimStyleTableRecord
  2
INABA_S40G
 70
     0
 40
40.0
 41
2.5
 42
0.5
 43
7.0
 44
1.5
 73
     0
 74
     0
 77
     3
 78
     8
140
3.0
141
0.0
143
0.0394
147
1.0
172
     1
173
     1
174
     1
178
     7
271
     1
340
F706
341
F770
343
F770
344
F770
  0
ENDTAB
  0
TABLE
  2
BLOCK_RECORD
  5
7466
330
0
100
AcDbSymbolTable
 70
    39
  0
BLOCK_RECORD
  5
747D
330
7466
100
AcDbSymbolTableRecord
100
AcDbBlockTableRecord
  2
*MODEL_SPACE
340
173D5
  0
BLOCK_RECORD
  5
747A
330
7466
100
AcDbSymbolTableRecord
100
AcDbBlockTableRecord
  2
*PAPER_SPACE
340
173D6
  0
BLOCK_RECORD
  5
F770
330
7466
100
AcDbSymbolTableRecord
100
AcDbBlockTableRecord
  2
_DOTSMALL
340
0
102
{BLKREFS
331
25D61
331
25D62
331
25D6A
331
25D6B
331
25D73
331
25D74
331
25D7C
331
25D7D
331
25D85
331
25D86
331
25D8E
331
25D8F
331
25D99
331
25D9A
331
25DA3
331
25DA4
331
25DAC
331
25DAD
331
25DB6
331
25DB7
331
25DC0
331
25DC1
331
25DC9
331
25DCA
331
25DD2
331
25DD3
331
25DDC
331
25DDD
331
25DE5
331
25DE6
331
25DEE
331
25DEF
331
25DF7
331
25DF8
331
25E01
331
25E02
331
25E0B
331
25E0C
331
25E15
331
25E16
331
25E1F
331
25E20
331
25E28
331
25E29
331
25E31
331
25E32
331
25E3A
331
25E3B
331
25E44
331
25E45
331
25E4D
331
25E4E
331
25E56
331
25E57
331
25E5F
331
25E60
331
25E68
331
25E69
331
25E71
331
25E72
331
25E7B
331
25E7C
331
25E85
331
25E86
331
25E90
331
25E91
331
25E9B
331
25E9C
331
25EA6
331
25EA7
331
25EB1
331
25EB2
331
25EBA
331
25EBB
331
25EC5
331
25EC6
102
}
  0
BLOCK_RECORD
  5
1DAD7
330
7466
100
AcDbSymbolTableRecord
100
AcDbBlockTableRecord
  2
*D1
340
0
  0
BLOCK_RECORD
  5
1F627
330
7466
100
AcDbSymbolTableRecord
100
AcDbBlockTableRecord
  2
*D2
340
0
  0
BLOCK_RECORD
  5
20DE2
330
7466
100
AcDbSymbolTableRecord
100
AcDbBlockTableRecord
  2
*D3
340
0
  0
BLOCK_RECORD
  5
20DFC
330
7466
100
AcDbSymbolTableRecord
100
AcDbBlockTableRecord
  2
*D4
340
0
  0
BLOCK_RECORD
  5
20E16
330
7466
100
AcDbSymbolTableRecord
100
AcDbBlockTableRecord
  2
*D5
340
0
  0
BLOCK_RECORD
  5
20E3B
330
7466
100
AcDbSymbolTableRecord
100
AcDbBlockTableRecord
  2
*D6
340
0
  0
BLOCK_RECORD
  5
2196C
330
7466
100
AcDbSymbolTableRecord
100
AcDbBlockTableRecord
  2
*D7
340
0
  0
BLOCK_RECORD
  5
21979
330
7466
100
AcDbSymbolTableRecord
100
AcDbBlockTableRecord
  2
*D8
340
0
  0
BLOCK_RECORD
  5
21986
330
7466
100
AcDbSymbolTableRecord
100
AcDbBlockTableRecord
  2
*D9
340
0
  0
BLOCK_RECORD
  5
21991
330
7466
100
AcDbSymbolTableRecord
100
AcDbBlockTableRecord
  2
*D10
340
0
  0
BLOCK_RECORD
  5
2199D
330
7466
100
AcDbSymbolTableRecord
100
AcDbBlockTableRecord
  2
*D11
340
0
  0
BLOCK_RECORD
  5
219A8
330
7466
100
AcDbSymbolTableRecord
100
AcDbBlockTableRecord
  2
*D12
340
0
  0
BLOCK_RECORD
  5
219B4
330
7466
100
AcDbSymbolTableRecord
100
AcDbBlockTableRecord
  2
*D13
340
0
  0
BLOCK_RECORD
  5
219DD
330
7466
100
AcDbSymbolTableRecord
100
AcDbBlockTableRecord
  2
*D14
340
0
  0
BLOCK_RECORD
  5
219E8
330
7466
100
AcDbSymbolTableRecord
100
AcDbBlockTableRecord
  2
*D15
340
0
  0
BLOCK_RECORD
  5
219F4
330
7466
100
AcDbSymbolTableRecord
100
AcDbBlockTableRecord
  2
*D16
340
0
  0
BLOCK_RECORD
  5
21A0E
330
7466
100
AcDbSymbolTableRecord
100
AcDbBlockTableRecord
  2
*D17
340
0
  0
BLOCK_RECORD
  5
21A1B
330
7466
100
AcDbSymbolTableRecord
100
AcDbBlockTableRecord
  2
*D18
340
0
  0
BLOCK_RECORD
  5
21A28
330
7466
100
AcDbSymbolTableRecord
100
AcDbBlockTableRecord
  2
*D19
340
0
  0
BLOCK_RECORD
  5
21A35
330
7466
100
AcDbSymbolTableRecord
100
AcDbBlockTableRecord
  2
*D20
340
0
  0
BLOCK_RECORD
  5
21A41
330
7466
100
AcDbSymbolTableRecord
100
AcDbBlockTableRecord
  2
*D21
340
0
  0
BLOCK_RECORD
  5
21A66
330
7466
100
AcDbSymbolTableRecord
100
AcDbBlockTableRecord
  2
*D22
340
0
  0
BLOCK_RECORD
  5
21A72
330
7466
100
AcDbSymbolTableRecord
100
AcDbBlockTableRecord
  2
*D23
340
0
  0
BLOCK_RECORD
  5
21A7F
330
7466
100
AcDbSymbolTableRecord
100
AcDbBlockTableRecord
  2
*D24
340
0
  0
BLOCK_RECORD
  5
21A8B
330
7466
100
AcDbSymbolTableRecord
100
AcDbBlockTableRecord
  2
*D25
340
0
  0
BLOCK_RECORD
  5
21AA3
330
7466
100
AcDbSymbolTableRecord
100
AcDbBlockTableRecord
  2
*D26
340
0
  0
BLOCK_RECORD
  5
21AB0
330
7466
100
AcDbSymbolTableRecord
100
AcDbBlockTableRecord
  2
*D27
340
0
  0
BLOCK_RECORD
  5
21AE2
330
7466
100
AcDbSymbolTableRecord
100
AcDbBlockTableRecord
  2
*D28
340
0
  0
BLOCK_RECORD
  5
21AEF
330
7466
100
AcDbSymbolTableRecord
100
AcDbBlockTableRecord
  2
*D29
340
0
  0
BLOCK_RECORD
  5
24B75
330
7466
100
AcDbSymbolTableRecord
100
AcDbBlockTableRecord
  2
*D30
340
0
  0
BLOCK_RECORD
  5
24CFF
330
7466
100
AcDbSymbolTableRecord
100
AcDbBlockTableRecord
  2
*D31
340
0
  0
BLOCK_RECORD
  5
250A8
330
7466
100
AcDbSymbolTableRecord
100
AcDbBlockTableRecord
  2
*D32
340
0
  0
BLOCK_RECORD
  5
25CC8
330
7466
100
AcDbSymbolTableRecord
100
AcDbBlockTableRecord
  2
*D33
340
0
  0
BLOCK_RECORD
  5
25CD4
330
7466
100
AcDbSymbolTableRecord
100
AcDbBlockTableRecord
  2
*D34
340
0
  0
BLOCK_RECORD
  5
25CDF
330
7466
100
AcDbSymbolTableRecord
100
AcDbBlockTableRecord
  2
*D35
340
0
  0
BLOCK_RECORD
  5
25CED
330
7466
100
AcDbSymbolTableRecord
100
AcDbBlockTableRecord
  2
*D36
340
0
  0
BLOCK_RECORD
  5
25CF9
330
7466
100
AcDbSymbolTableRecord
100
AcDbBlockTableRecord
  2
*D37
340
0
  0
BLOCK_RECORD
  5
25D05
330
7466
100
AcDbSymbolTableRecord
100
AcDbBlockTableRecord
  2
*D38
340
0
  0
ENDTAB
  0
ENDSEC
  0
SECTION
  2
BLOCKS
  0
BLOCK
  5
7489
330
747D
100
AcDbEntity
  8
0
100
AcDbBlockBegin
  2
*MODEL_SPACE
 70
     0
 10
0.0
 20
0.0
 30
0.0
  3
*MODEL_SPACE
  1

  0
ENDBLK
  5
748A
330
747D
100
AcDbEntity
  8
0
100
AcDbBlockEnd
  0
BLOCK
  5
7487
330
747A
100
AcDbEntity
 67
     1
  8
0
100
AcDbBlockBegin
  2
*PAPER_SPACE
 70
     0
 10
0.0
 20
0.0
 30
0.0
  3
*PAPER_SPACE
  1

  0
ENDBLK
  5
7488
330
747A
100
AcDbEntity
 67
     1
  8
0
100
AcDbBlockEnd
  0
BLOCK
  5
F771
330
F770
100
AcDbEntity
  8
0
 48
50.0
100
AcDbBlockBegin
  2
_DOTSMALL
 70
     0
 10
0.0
 20
0.0
 30
0.0
  3
_DOTSMALL
  1

  0
LWPOLYLINE
  5
F772
330
F770
100
AcDbEntity
  8
0
  6
ByBlock
 62
     0
 48
50.0
100
AcDbPolyline
 90
        2
 70
     1
 43
0.5
 10
-0.0625
 20
0.0
 42
1.0
 10
0.0625
 20
0.0
 42
1.0
  0
ENDBLK
  5
F776
330
F770
100
AcDbEntity
  8
0
 48
50.0
100
AcDbBlockEnd
  0
BLOCK
  5
1DAE3
330
1DAD7
100
AcDbEntity
  8
0
 48
50.0
100
AcDbBlockBegin
  2
*D1
 70
     1
 10
0.0
 20
0.0
 30
0.0
  3
*D1
  1

  0
LINE
  5
25EC0
330
1DAD7
100
AcDbEntity
  8
寸法
 62
     0
 48
50.0
370
    -2
100
AcDbLine
 10
8216.600000000001
 20
5591.957947811573
 30
0.0
 11
8495.094525716943
 21
5591.957947811573
 31
0.0
  0
LINE
  5
25EC1
330
1DAD7
100
AcDbEntity
  8
寸法
 62
     0
 48
50.0
370
    -2
100
AcDbLine
 10
8216.600000000008
 20
5666.957947811575
 30
0.0
 11
8495.094525716943
 21
5666.957947811575
 31
0.0
  0
LINE
  5
25EC2
330
1DAD7
100
AcDbEntity
  8
寸法
 62
     0
 48
50.0
370
    -2
100
AcDbLine
 10
8435.094525716944
 20
5666.957947811575
 30
0.0
 11
8435.094525716944
 21
5766.957947811575
 31
0.0
  0
LINE
  5
25EC3
330
1DAD7
100
AcDbEntity
  8
寸法
 62
     0
 48
50.0
370
    -2
100
AcDbLine
 10
8435.094525716944
 20
5591.957947811573
 30
0.0
 11
8435.094525716944
 21
4724.987385063097
 31
0.0
  0
LINE
  5
25EC4
330
1DAD7
100
AcDbEntity
  8
寸法
 62
     0
 48
50.0
370
    -2
100
AcDbLine
 10
8435.094525716944
 20
5666.957947811575
 30
0.0
 11
8435.094525716944
 21
5591.957947811573
 31
0.0
  0
INSERT
  5
25EC5
330
1DAD7
100
AcDbEntity
  8
寸法
 62
     0
 48
50.0
370
    -2
100
AcDbBlockReference
  2
_DOTSMALL
 10
8435.094525716944
 20
5666.957947811575
 30
0.0
 41
100.0
 42
100.0
 43
100.0
 50
270.0
  0
INSERT
  5
25EC6
330
1DAD7
100
AcDbEntity
  8
寸法
 62
     0
 48
50.0
370
    -2
100
AcDbBlockReference
  2
_DOTSMALL
 10
8435.094525716944
 20
5591.957947811573
 30
0.0
 41
100.0
 42
100.0
 43
100.0
 50
90.0
  0
MTEXT
  5
25EC7
330
1DAD7
100
AcDbEntity
  8
寸法
 62
     7
 48
50.0
100
AcDbMText
 10
8335.094525716943
 20
5058.472666437335
 30
0.0
 40
120.0
 41
0.0
 71
     5
 72
     1
  1
\A1;扉の出75
  7
STYLE1
 11
0.0000000000000001
 21
1.0
 31
0.0
 73
     1
 44
1.0
1001
ACAD
1000
MTEXTBEGIN
1070
    73
1070
     1
1070
    44
1040
1.0
1070
    74
1070
     0
1000
MTEXTEND
  0
POINT
  5
25EC8
330
1DAD7
100
AcDbEntity
  8
DEFPOINTS
 62
     0
 48
50.0
100
AcDbPoint
 10
8196.600000000001
 20
5591.957947811573
 30
0.0
  0
POINT
  5
25EC9
330
1DAD7
100
AcDbEntity
  8
DEFPOINTS
 62
     0
 48
50.0
100
AcDbPoint
 10
8196.600000000008
 20
5666.957947811575
 30
0.0
  0
POINT
  5
25ECA
330
1DAD7
100
AcDbEntity
  8
DEFPOINTS
 62
     0
 48
50.0
100
AcDbPoint
 10
8435.094525716944
 20
5666.957947811575
 30
0.0
  0
ENDBLK
  5
1DAE4
330
1DAD7
100
AcDbEntity
  8
0
 48
50.0
100
AcDbBlockEnd
  0
BLOCK
  5
1F631
330
1F627
100
AcDbEntity
  8
0
 48
50.0
100
AcDbBlockBegin
  2
*D2
 70
     1
 10
0.0
 20
0.0
 30
0.0
  3
*D2
  1

  0
LINE
  5
25EB7
330
1F627
100
AcDbEntity
  8
寸法
 62
     0
 48
50.0
370
    -2
100
AcDbLine
 10
8196.600000000001
 20
5571.957947811572
 30
0.0
 11
8196.600000000001
 21
5051.222285907243
 31
0.0
  0
LINE
  5
25EB8
330
1F627
100
AcDbEntity
  8
寸法
 62
     0
 48
50.0
370
    -2
100
AcDbLine
 10
6428.6
 20
5571.957947811576
 30
0.0
 11
6428.6
 21
5051.222285907243
 31
0.0
  0
LINE
  5
25EB9
330
1F627
100
AcDbEntity
  8
寸法
 62
     0
 48
50.0
370
    -2
100
AcDbLine
 10
8196.600000000001
 20
5111.222285907242
 30
0.0
 11
6428.6
 21
5111.222285907242
 31
0.0
  0
INSERT
  5
25EBA
330
1F627
100
AcDbEntity
  8
寸法
 62
     0
 48
50.0
370
    -2
100
AcDbBlockReference
  2
_DOTSMALL
 10
8196.600000000001
 20
5111.222285907242
 30
0.0
 41
100.0
 42
100.0
 43
100.0
  0
INSERT
  5
25EBB
330
1F627
100
AcDbEntity
  8
寸法
 62
     0
 48
50.0
370
    -2
100
AcDbBlockReference
  2
_DOTSMALL
 10
6428.6
 20
5111.222285907242
 30
0.0
 41
100.0
 42
100.0
 43
100.0
 50
180.0
  0
MTEXT
  5
25EBC
330
1F627
100
AcDbEntity
  8
寸法
 62
     7
 48
50.0
100
AcDbMText
 10
7312.6
 20
5211.222285907243
 30
0.0
 40
120.0
 41
0.0
 71
     5
 72
     1
  1
\A1;1768
  7
STYLE1
 73
     1
 44
1.0
1001
ACAD
1000
MTEXTBEGIN
1070
    73
1070
     1
1070
    44
1040
1.0
1070
    74
1070
     0
1000
MTEXTEND
  0
POINT
  5
25EBD
330
1F627
100
AcDbEntity
  8
DEFPOINTS
 62
     0
 48
50.0
100
AcDbPoint
 10
8196.600000000001
 20
5591.957947811572
 30
0.0
  0
POINT
  5
25EBE
330
1F627
100
AcDbEntity
  8
DEFPOINTS
 62
     0
 48
50.0
100
AcDbPoint
 10
6428.6
 20
5591.957947811575
 30
0.0
  0
POINT
  5
25EBF
330
1F627
100
AcDbEntity
  8
DEFPOINTS
 62
     0
 48
50.0
100
AcDbPoint
 10
6428.6
 20
5111.222285907242
 30
0.0
  0
ENDBLK
  5
1F632
330
1F627
100
AcDbEntity
  8
0
 48
50.0
100
AcDbBlockEnd
  0
BLOCK
  5
20DEE
330
20DE2
100
AcDbEntity
  8
0
 48
50.0
100
AcDbBlockBegin
  2
*D3
 70
     1
 10
0.0
 20
0.0
 30
0.0
  3
*D3
  1

  0
LINE
  5
25EAC
330
20DE2
100
AcDbEntity
  8
寸法
 62
     0
 48
50.0
370
    -2
100
AcDbLine
 10
10018.6
 20
8746.95794781155
 30
0.0
 11
10018.6
 21
9745.178269870471
 31
0.0
  0
LINE
  5
25EAD
330
20DE2
100
AcDbEntity
  8
寸法
 62
     0
 48
50.0
370
    -2
100
AcDbLine
 10
10063.6
 20
9492.717574353633
 30
0.0
 11
10063.6
 21
9745.178269870471
 31
0.0
  0
LINE
  5
25EAE
330
20DE2
100
AcDbEntity
  8
寸法
 62
     0
 48
50.0
370
    -2
100
AcDbLine
 10
10018.6
 20
9685.178269870473
 30
0.0
 11
9918.600000000001
 21
9685.178269870473
 31
0.0
  0
LINE
  5
25EAF
330
20DE2
100
AcDbEntity
  8
寸法
 62
     0
 48
50.0
370
    -2
100
AcDbLine
 10
10063.6
 20
9685.178269870473
 30
0.0
 11
10400.94924240492
 21
9685.178269870473
 31
0.0
  0
LINE
  5
25EB0
330
20DE2
100
AcDbEntity
  8
寸法
 62
     0
 48
50.0
370
    -2
100
AcDbLine
 10
10018.6
 20
9685.178269870473
 30
0.0
 11
10063.6
 21
9685.178269870473
 31
0.0
  0
INSERT
  5
25EB1
330
20DE2
100
AcDbEntity
  8
寸法
 62
     0
 48
50.0
370
    -2
100
AcDbBlockReference
  2
_DOTSMALL
 10
10018.6
 20
9685.178269870473
 30
0.0
 41
100.0
 42
100.0
 43
100.0
  0
INSERT
  5
25EB2
330
20DE2
100
AcDbEntity
  8
寸法
 62
     0
 48
50.0
370
    -2
100
AcDbBlockReference
  2
_DOTSMALL
 10
10063.6
 20
9685.178269870473
 30
0.0
 41
100.0
 42
100.0
 43
100.0
 50
180.0
  0
MTEXT
  5
25EB3
330
20DE2
100
AcDbEntity
  8
寸法
 62
     7
 48
50.0
100
AcDbMText
 10
10334.77462120246
 20
9785.178269870472
 30
0.0
 40
120.0
 41
0.0
 71
     5
 72
     1
  1
\A1;a
  7
STYLE1
 73
     1
 44
1.0
1001
ACAD
1000
MTEXTBEGIN
1070
    73
1070
     1
1070
    44
1040
1.0
1070
    74
1070
     0
1000
MTEXTEND
  0
POINT
  5
25EB4
330
20DE2
100
AcDbEntity
  8
DEFPOINTS
 62
     0
 48
50.0
100
AcDbPoint
 10
10018.6
 20
8726.95794781155
 30
0.0
  0
POINT
  5
25EB5
330
20DE2
100
AcDbEntity
  8
DEFPOINTS
 62
     0
 48
50.0
100
AcDbPoint
 10
10063.6
 20
9472.717574353634
 30
0.0
  0
POINT
  5
25EB6
330
20DE2
100
AcDbEntity
  8
DEFPOINTS
 62
     0
 48
50.0
100
AcDbPoint
 10
10063.6
 20
9685.178269870473
 30
0.0
  0
ENDBLK
  5
20DEF
330
20DE2
100
AcDbEntity
  8
0
 48
50.0
100
AcDbBlockEnd
  0
BLOCK
  5
20E08
330
20DFC
100
AcDbEntity
  8
0
 48
50.0
100
AcDbBlockBegin
  2
*D4
 70
     1
 10
0.0
 20
0.0
 30
0.0
  3
*D4
  1

  0
LINE
  5
25EA1
330
20DFC
100
AcDbEntity
  8
寸法
 62
     0
 48
50.0
370
    -2
100
AcDbLine
 10
6383.600000000008
 20
9492.717574353633
 30
0.0
 11
6383.600000000008
 21
9745.178269870471
 31
0.0
  0
LINE
  5
25EA2
330
20DFC
100
AcDbEntity
  8
寸法
 62
     0
 48
50.0
370
    -2
100
AcDbLine
 10
6428.6
 20
8746.95794781155
 30
0.0
 11
6428.6
 21
9745.178269870471
 31
0.0
  0
LINE
  5
25EA3
330
20DFC
100
AcDbEntity
  8
寸法
 62
     0
 48
50.0
370
    -2
100
AcDbLine
 10
6428.6
 20
9685.178269870473
 30
0.0
 11
6528.6
 21
9685.178269870473
 31
0.0
  0
LINE
  5
25EA4
330
20DFC
100
AcDbEntity
  8
寸法
 62
     0
 48
50.0
370
    -2
100
AcDbLine
 10
6383.600000000008
 20
9685.178269870473
 30
0.0
 11
6046.250757595083
 21
9685.178269870473
 31
0.0
  0
LINE
  5
25EA5
330
20DFC
100
AcDbEntity
  8
寸法
 62
     0
 48
50.0
370
    -2
100
AcDbLine
 10
6428.6
 20
9685.178269870473
 30
0.0
 11
6383.600000000008
 21
9685.178269870473
 31
0.0
  0
INSERT
  5
25EA6
330
20DFC
100
AcDbEntity
  8
寸法
 62
     0
 48
50.0
370
    -2
100
AcDbBlockReference
  2
_DOTSMALL
 10
6428.6
 20
9685.178269870473
 30
0.0
 41
100.0
 42
100.0
 43
100.0
 50
180.0
  0
INSERT
  5
25EA7
330
20DFC
100
AcDbEntity
  8
寸法
 62
     0
 48
50.0
370
    -2
100
AcDbBlockReference
  2
_DOTSMALL
 10
6383.600000000008
 20
9685.178269870473
 30
0.0
 41
100.0
 42
100.0
 43
100.0
  0
MTEXT
  5
25EA8
330
20DFC
100
AcDbEntity
  8
寸法
 62
     7
 48
50.0
100
AcDbMText
 10
6112.425378797541
 20
9785.178269870472
 30
0.0
 40
120.0
 41
0.0
 71
     5
 72
     1
  1
\A1;a
  7
STYLE1
 73
     1
 44
1.0
1001
ACAD
1000
MTEXTBEGIN
1070
    73
1070
     1
1070
    44
1040
1.0
1070
    74
1070
     0
1000
MTEXTEND
  0
POINT
  5
25EA9
330
20DFC
100
AcDbEntity
  8
DEFPOINTS
 62
     0
 48
50.0
100
AcDbPoint
 10
6383.600000000008
 20
9472.717574353634
 30
0.0
  0
POINT
  5
25EAA
330
20DFC
100
AcDbEntity
  8
DEFPOINTS
 62
     0
 48
50.0
100
AcDbPoint
 10
6428.6
 20
8726.95794781155
 30
0.0
  0
POINT
  5
25EAB
330
20DFC
100
AcDbEntity
  8
DEFPOINTS
 62
     0
 48
50.0
100
AcDbPoint
 10
6428.6
 20
9685.178269870473
 30
0.0
  0
ENDBLK
  5
20E09
330
20DFC
100
AcDbEntity
  8
0
 48
50.0
100
AcDbBlockEnd
  0
BLOCK
  5
20E22
330
20E16
100
AcDbEntity
  8
0
 48
50.0
100
AcDbBlockBegin
  2
*D5
 70
     1
 10
0.0
 20
0.0
 30
0.0
  3
*D5
  1

  0
LINE
  5
25E96
330
20E16
100
AcDbEntity
  8
寸法
 62
     0
 48
50.0
370
    -2
100
AcDbLine
 10
5912.657733986182
 20
8801.957947811557
 30
0.0
 11
5627.164931848214
 21
8801.957947811557
 31
0.0
  0
LINE
  5
25E97
330
20E16
100
AcDbEntity
  8
寸法
 62
     0
 48
50.0
370
    -2
100
AcDbLine
 10
6408.600000000004
 20
8726.957947811552
 30
0.0
 11
5627.164931848214
 21
8726.957947811552
 31
0.0
  0
LINE
  5
25E98
330
20E16
100
AcDbEntity
  8
寸法
 62
     0
 48
50.0
370
    -2
100
AcDbLine
 10
5687.164931848214
 20
8801.957947811557
 30
0.0
 11
5687.164931848214
 21
8901.957947811556
 31
0.0
  0
LINE
  5
25E99
330
20E16
100
AcDbEntity
  8
寸法
 62
     0
 48
50.0
370
    -2
100
AcDbLine
 10
5687.164931848214
 20
8726.957947811552
 30
0.0
 11
5687.164931848214
 21
8626.957947811552
 31
0.0
  0
LINE
  5
25E9A
330
20E16
100
AcDbEntity
  8
寸法
 62
     0
 48
50.0
370
    -2
100
AcDbLine
 10
5687.164931848214
 20
8801.957947811557
 30
0.0
 11
5687.164931848214
 21
8726.957947811552
 31
0.0
  0
INSERT
  5
25E9B
330
20E16
100
AcDbEntity
  8
寸法
 62
     0
 48
50.0
370
    -2
100
AcDbBlockReference
  2
_DOTSMALL
 10
5687.164931848214
 20
8801.957947811557
 30
0.0
 41
100.0
 42
100.0
 43
100.0
 50
270.0
  0
INSERT
  5
25E9C
330
20E16
100
AcDbEntity
  8
寸法
 62
     0
 48
50.0
370
    -2
100
AcDbBlockReference
  2
_DOTSMALL
 10
5687.164931848214
 20
8726.957947811552
 30
0.0
 41
100.0
 42
100.0
 43
100.0
 50
90.0
  0
MTEXT
  5
25E9D
330
20E16
100
AcDbEntity
  8
寸法
 62
     7
 48
50.0
100
AcDbMText
 10
5587.164931848214
 20
8764.457947811555
 30
0.0
 40
120.0
 41
0.0
 71
     5
 72
     1
  1
\A1;c
  7
STYLE1
 11
0.0000000000000001
 21
1.0
 31
0.0
 73
     1
 44
1.0
1001
ACAD
1000
MTEXTBEGIN
1070
    73
1070
     1
1070
    44
1040
1.0
1070
    74
1070
     0
1000
MTEXTEND
  0
POINT
  5
25E9E
330
20E16
100
AcDbEntity
  8
DEFPOINTS
 62
     0
 48
50.0
100
AcDbPoint
 10
5932.657733986181
 20
8801.957947811557
 30
0.0
  0
POINT
  5
25E9F
330
20E16
100
AcDbEntity
  8
DEFPOINTS
 62
     0
 48
50.0
100
AcDbPoint
 10
6428.600000000004
 20
8726.957947811552
 30
0.0
  0
POINT
  5
25EA0
330
20E16
100
AcDbEntity
  8
DEFPOINTS
 62
     0
 48
50.0
100
AcDbPoint
 10
5687.164931848214
 20
8726.957947811552
 30
0.0
  0
ENDBLK
  5
20E23
330
20E16
100
AcDbEntity
  8
0
 48
50.0
100
AcDbBlockEnd
  0
BLOCK
  5
20E47
330
20E3B
100
AcDbEntity
  8
0
 48
50.0
100
AcDbBlockBegin
  2
*D6
 70
     1
 10
0.0
 20
0.0
 30
0.0
  3
*D6
  1

  0
LINE
  5
25E8B
330
20E3B
100
AcDbEntity
  8
寸法
 62
     0
 48
50.0
370
    -2
100
AcDbLine
 10
6408.599999999999
 20
5666.957947811541
 30
0.0
 11
5627.164931848214
 21
5666.957947811543
 31
0.0
  0
LINE
  5
25E8C
330
20E3B
100
AcDbEntity
  8
寸法
 62
     0
 48
50.0
370
    -2
100
AcDbLine
 10
5912.657733986182
 20
5611.957947811563
 30
0.0
 11
5627.164931848214
 21
5611.957947811563
 31
0.0
  0
LINE
  5
25E8D
330
20E3B
100
AcDbEntity
  8
寸法
 62
     0
 48
50.0
370
    -2
100
AcDbLine
 10
5687.164931848214
 20
5666.957947811543
 30
0.0
 11
5687.164931848214
 21
5766.957947811542
 31
0.0
  0
LINE
  5
25E8E
330
20E3B
100
AcDbEntity
  8
寸法
 62
     0
 48
50.0
370
    -2
100
AcDbLine
 10
5687.164931848214
 20
5611.957947811563
 30
0.0
 11
5687.164931848214
 21
5511.957947811563
 31
0.0
  0
LINE
  5
25E8F
330
20E3B
100
AcDbEntity
  8
寸法
 62
     0
 48
50.0
370
    -2
100
AcDbLine
 10
5687.164931848214
 20
5666.957947811543
 30
0.0
 11
5687.164931848214
 21
5611.957947811563
 31
0.0
  0
INSERT
  5
25E90
330
20E3B
100
AcDbEntity
  8
寸法
 62
     0
 48
50.0
370
    -2
100
AcDbBlockReference
  2
_DOTSMALL
 10
5687.164931848214
 20
5666.957947811543
 30
0.0
 41
100.0
 42
100.0
 43
100.0
 50
270.0
  0
INSERT
  5
25E91
330
20E3B
100
AcDbEntity
  8
寸法
 62
     0
 48
50.0
370
    -2
100
AcDbBlockReference
  2
_DOTSMALL
 10
5687.164931848214
 20
5611.957947811563
 30
0.0
 41
100.0
 42
100.0
 43
100.0
 50
90.0
  0
MTEXT
  5
25E92
330
20E3B
100
AcDbEntity
  8
寸法
 62
     7
 48
50.0
100
AcDbMText
 10
5587.164931848214
 20
5639.457947811553
 30
0.0
 40
120.0
 41
0.0
 71
     5
 72
     1
  1
\A1;b
  7
STYLE1
 11
0.0000000000000001
 21
1.0
 31
0.0
 73
     1
 44
1.0
1001
ACAD
1000
MTEXTBEGIN
1070
    73
1070
     1
1070
    44
1040
1.0
1070
    74
1070
     0
1000
MTEXTEND
  0
POINT
  5
25E93
330
20E3B
100
AcDbEntity
  8
DEFPOINTS
 62
     0
 48
50.0
100
AcDbPoint
 10
6428.6
 20
5666.957947811541
 30
0.0
  0
POINT
  5
25E94
330
20E3B
100
AcDbEntity
  8
DEFPOINTS
 62
     0
 48
50.0
100
AcDbPoint
 10
5932.657733986181
 20
5611.957947811563
 30
0.0
  0
POINT
  5
25E95
330
20E3B
100
AcDbEntity
  8
DEFPOINTS
 62
     0
 48
50.0
100
AcDbPoint
 10
5687.164931848214
 20
5611.957947811563
 30
0.0
  0
ENDBLK
  5
20E48
330
20E3B
100
AcDbEntity
  8
0
 48
50.0
100
AcDbBlockEnd
  0
BLOCK
  5
21977
330
2196C
100
AcDbEntity
  8
0
 48
50.0
100
AcDbBlockBegin
  2
*D7
 70
     1
 10
0.0
 20
0.0
 30
0.0
  3
*D7
  1

  0
LINE
  5
25E81
330
2196C
100
AcDbEntity
  8
寸法
 62
     0
 48
50.0
370
    -2
100
AcDbLine
 10
8766.118451399387
 20
5786.957947811565
 30
0.0
 11
8594.417229771323
 21
5786.957947811565
 31
0.0
  0
LINE
  5
25E82
330
2196C
100
AcDbEntity
  8
寸法
 62
     0
 48
50.0
370
    -2
100
AcDbLine
 10
8255.600000000001
 20
5896.957947811571
 30
0.0
 11
8714.417229771322
 21
5896.957947811571
 31
0.0
  0
LINE
  5
25E83
330
2196C
100
AcDbEntity
  8
寸法
 62
     0
 48
50.0
370
    -2
100
AcDbLine
 10
8654.417229771324
 20
5786.957947811565
 30
0.0
 11
8654.417229771324
 21
5896.957947811571
 31
0.0
  0
LINE
  5
25E84
330
2196C
100
AcDbEntity
  8
寸法
 62
     0
 48
50.0
370
    -2
100
AcDbLine
 10
8654.417229771324
 20
5896.957947811571
 30
0.0
 11
8654.417229771324
 21
6291.064247024181
 31
0.0
  0
INSERT
  5
25E85
330
2196C
100
AcDbEntity
  8
寸法
 62
     0
 48
50.0
370
    -2
100
AcDbBlockReference
  2
_DOTSMALL
 10
8654.417229771324
 20
5786.957947811565
 30
0.0
 41
100.0
 42
100.0
 43
100.0
 50
270.0
  0
INSERT
  5
25E86
330
2196C
100
AcDbEntity
  8
寸法
 62
     0
 48
50.0
370
    -2
100
AcDbBlockReference
  2
_DOTSMALL
 10
8654.417229771324
 20
5896.957947811571
 30
0.0
 41
100.0
 42
100.0
 43
100.0
 50
90.0
  0
MTEXT
  5
25E87
330
2196C
100
AcDbEntity
  8
寸法
 62
     7
 48
50.0
100
AcDbMText
 10
8554.417229771322
 20
6167.017002929696
 30
0.0
 40
120.0
 41
0.0
 71
     5
 72
     1
  1
\A1;110
  7
STYLE1
 11
0.0000000000000001
 21
1.0
 31
0.0
 73
     1
 44
1.0
1001
ACAD
1000
MTEXTBEGIN
1070
    73
1070
     1
1070
    44
1040
1.0
1070
    74
1070
     0
1000
MTEXTEND
  0
POINT
  5
25E88
330
2196C
100
AcDbEntity
  8
DEFPOINTS
 62
     0
 48
50.0
100
AcDbPoint
 10
8786.118451399387
 20
5786.957947811565
 30
0.0
  0
POINT
  5
25E89
330
2196C
100
AcDbEntity
  8
DEFPOINTS
 62
     0
 48
50.0
100
AcDbPoint
 10
8235.600000000001
 20
5896.957947811571
 30
0.0
  0
POINT
  5
25E8A
330
2196C
100
AcDbEntity
  8
DEFPOINTS
 62
     0
 48
50.0
100
AcDbPoint
 10
8654.417229771324
 20
5896.957947811571
 30
0.0
  0
ENDBLK
  5
21978
330
2196C
100
AcDbEntity
  8
0
 48
50.0
100
AcDbBlockEnd
  0
BLOCK
  5
21984
330
21979
100
AcDbEntity
  8
0
 48
50.0
100
AcDbBlockBegin
  2
*D8
 70
     1
 10
0.0
 20
0.0
 30
0.0
  3
*D8
  1

  0
LINE
  5
25E77
330
21979
100
AcDbEntity
  8
寸法
 62
     0
 48
50.0
370
    -2
100
AcDbLine
 10
8327.419180988162
 20
5666.957947811579
 30
0.0
 11
8714.417229771322
 21
5666.957947811579
 31
0.0
  0
LINE
  5
25E78
330
21979
100
AcDbEntity
  8
寸法
 62
     0
 48
50.0
370
    -2
100
AcDbLine
 10
8766.118451399387
 20
5786.957947811565
 30
0.0
 11
8594.417229771323
 21
5786.957947811565
 31
0.0
  0
LINE
  5
25E79
330
21979
100
AcDbEntity
  8
寸法
 62
     0
 48
50.0
370
    -2
100
AcDbLine
 10
8654.417229771324
 20
5786.957947811565
 30
0.0
 11
8654.417229771324
 21
5666.957947811579
 31
0.0
  0
LINE
  5
25E7A
330
21979
100
AcDbEntity
  8
寸法
 62
     0
 48
50.0
370
    -2
100
AcDbLine
 10
8654.417229771324
 20
5666.957947811579
 30
0.0
 11
8654.417229771324
 21
5194.622398749123
 31
0.0
  0
INSERT
  5
25E7B
330
21979
100
AcDbEntity
  8
寸法
 62
     0
 48
50.0
370
    -2
100
AcDbBlockReference
  2
_DOTSMALL
 10
8654.417229771324
 20
5786.957947811565
 30
0.0
 41
100.0
 42
100.0
 43
100.0
 50
90.0
  0
INSERT
  5
25E7C
330
21979
100
AcDbEntity
  8
寸法
 62
     0
 48
50.0
370
    -2
100
AcDbBlockReference
  2
_DOTSMALL
 10
8654.417229771324
 20
5666.957947811579
 30
0.0
 41
100.0
 42
100.0
 43
100.0
 50
270.0
  0
MTEXT
  5
25E7D
330
21979
100
AcDbEntity
  8
寸法
 62
     7
 48
50.0
100
AcDbMText
 10
8554.4054187477
 20
5330.669642843612
 30
0.0
 40
120.0
 41
0.0
 71
     5
 72
     1
  1
\A1;120
  7
STYLE1
 11
0.0000000000000001
 21
1.0
 31
0.0
 73
     1
 44
1.0
1001
ACAD
1000
MTEXTBEGIN
1070
    73
1070
     1
1070
    44
1040
1.0
1070
    74
1070
     0
1000
MTEXTEND
  0
POINT
  5
25E7E
330
21979
100
AcDbEntity
  8
DEFPOINTS
 62
     0
 48
50.0
100
AcDbPoint
 10
8307.41918098816
 20
5666.957947811579
 30
0.0
  0
POINT
  5
25E7F
330
21979
100
AcDbEntity
  8
DEFPOINTS
 62
     0
 48
50.0
100
AcDbPoint
 10
8786.118451399387
 20
5786.957947811565
 30
0.0
  0
POINT
  5
25E80
330
21979
100
AcDbEntity
  8
DEFPOINTS
 62
     0
 48
50.0
100
AcDbPoint
 10
8654.417229771324
 20
5786.957947811565
 30
0.0
  0
ENDBLK
  5
21985
330
21979
100
AcDbEntity
  8
0
 48
50.0
100
AcDbBlockEnd
  0
BLOCK
  5
2198F
330
21986
100
AcDbEntity
  8
0
 48
50.0
100
AcDbBlockBegin
  2
*D9
 70
     1
 10
0.0
 20
0.0
 30
0.0
  3
*D9
  1

  0
LINE
  5
25E6E
330
21986
100
AcDbEntity
  8
寸法
 62
     0
 48
50.0
370
    -2
100
AcDbLine
 10
6428.6
 20
8746.957947811552
 30
0.0
 11
6428.6
 21
9745.178269870471
 31
0.0
  0
LINE
  5
25E6F
330
21986
100
AcDbEntity
  8
寸法
 62
     0
 48
50.0
370
    -2
100
AcDbLine
 10
10018.6
 20
8746.957947811552
 30
0.0
 11
10018.6
 21
9745.178269870471
 31
0.0
  0
LINE
  5
25E70
330
21986
100
AcDbEntity
  8
寸法
 62
     0
 48
50.0
370
    -2
100
AcDbLine
 10
6428.6
 20
9685.178269870473
 30
0.0
 11
10018.6
 21
9685.178269870473
 31
0.0
  0
INSERT
  5
25E71
330
21986
100
AcDbEntity
  8
寸法
 62
     0
 48
50.0
370
    -2
100
AcDbBlockReference
  2
_DOTSMALL
 10
6428.6
 20
9685.178269870473
 30
0.0
 41
100.0
 42
100.0
 43
100.0
 50
180.0
  0
INSERT
  5
25E72
330
21986
100
AcDbEntity
  8
寸法
 62
     0
 48
50.0
370
    -2
100
AcDbBlockReference
  2
_DOTSMALL
 10
10018.6
 20
9685.178269870473
 30
0.0
 41
100.0
 42
100.0
 43
100.0
  0
MTEXT
  5
25E73
330
21986
100
AcDbEntity
  8
寸法
 62
     7
 48
50.0
100
AcDbMText
 10
8223.600000000001
 20
9785.178269870472
 30
0.0
 40
120.0
 41
0.0
 71
     5
 72
     1
  1
\A1;3590
  7
STYLE1
 73
     1
 44
1.0
1001
ACAD
1000
MTEXTBEGIN
1070
    73
1070
     1
1070
    44
1040
1.0
1070
    74
1070
     0
1000
MTEXTEND
  0
POINT
  5
25E74
330
21986
100
AcDbEntity
  8
DEFPOINTS
 62
     0
 48
50.0
100
AcDbPoint
 10
6428.6
 20
8726.957947811552
 30
0.0
  0
POINT
  5
25E75
330
21986
100
AcDbEntity
  8
DEFPOINTS
 62
     0
 48
50.0
100
AcDbPoint
 10
10018.6
 20
8726.957947811552
 30
0.0
  0
POINT
  5
25E76
330
21986
100
AcDbEntity
  8
DEFPOINTS
 62
     0
 48
50.0
100
AcDbPoint
 10
10018.6
 20
9685.178269870473
 30
0.0
  0
ENDBLK
  5
21990
330
21986
100
AcDbEntity
  8
0
 48
50.0
100
AcDbBlockEnd
  0
BLOCK
  5
2199B
330
21991
100
AcDbEntity
  8
0
 48
50.0
100
AcDbBlockBegin
  2
*D10
 70
     1
 10
0.0
 20
0.0
 30
0.0
  3
*D10
  1

  0
LINE
  5
25E65
330
21991
100
AcDbEntity
  8
寸法
 62
     0
 48
50.0
370
    -2
100
AcDbLine
 10
9118.6
 20
8116.957947811552
 30
0.0
 11
9118.6
 21
9313.867713459881
 31
0.0
  0
LINE
  5
25E66
330
21991
100
AcDbEntity
  8
寸法
 62
     0
 48
50.0
370
    -2
100
AcDbLine
 10
8223.600000000001
 20
8116.957947811552
 30
0.0
 11
8223.600000000001
 21
9313.867713459881
 31
0.0
  0
LINE
  5
25E67
330
21991
100
AcDbEntity
  8
寸法
 62
     0
 48
50.0
370
    -2
100
AcDbLine
 10
9118.6
 20
9253.867713459881
 30
0.0
 11
8223.600000000001
 21
9253.867713459881
 31
0.0
  0
INSERT
  5
25E68
330
21991
100
AcDbEntity
  8
寸法
 62
     0
 48
50.0
370
    -2
100
AcDbBlockReference
  2
_DOTSMALL
 10
9118.6
 20
9253.867713459881
 30
0.0
 41
100.0
 42
100.0
 43
100.0
  0
INSERT
  5
25E69
330
21991
100
AcDbEntity
  8
寸法
 62
     0
 48
50.0
370
    -2
100
AcDbBlockReference
  2
_DOTSMALL
 10
8223.600000000001
 20
9253.867713459881
 30
0.0
 41
100.0
 42
100.0
 43
100.0
 50
180.0
  0
MTEXT
  5
25E6A
330
21991
100
AcDbEntity
  8
寸法
 62
     7
 48
50.0
100
AcDbMText
 10
8671.1
 20
9353.86771345988
 30
0.0
 40
120.0
 41
0.0
 71
     5
 72
     1
  1
\A1;895
  7
STYLE1
 73
     1
 44
1.0
1001
ACAD
1000
MTEXTBEGIN
1070
    73
1070
     1
1070
    44
1040
1.0
1070
    74
1070
     0
1000
MTEXTEND
  0
POINT
  5
25E6B
330
21991
100
AcDbEntity
  8
DEFPOINTS
 62
     0
 48
50.0
100
AcDbPoint
 10
9118.6
 20
8096.957947811551
 30
0.0
  0
POINT
  5
25E6C
330
21991
100
AcDbEntity
  8
DEFPOINTS
 62
     0
 48
50.0
100
AcDbPoint
 10
8223.600000000001
 20
8096.957947811551
 30
0.0
  0
POINT
  5
25E6D
330
21991
100
AcDbEntity
  8
DEFPOINTS
 62
     0
 48
50.0
100
AcDbPoint
 10
8223.600000000001
 20
9253.867713459881
 30
0.0
  0
ENDBLK
  5
2199C
330
21991
100
AcDbEntity
  8
0
 48
50.0
100
AcDbBlockEnd
  0
BLOCK
  5
219A6
330
2199D
100
AcDbEntity
  8
0
 48
50.0
100
AcDbBlockBegin
  2
*D11
 70
     1
 10
0.0
 20
0.0
 30
0.0
  3
*D11
  1

  0
LINE
  5
25E5C
330
2199D
100
AcDbEntity
  8
寸法
 62
     0
 48
50.0
370
    -2
100
AcDbLine
 10
9895.600000000001
 20
8673.957947811551
 30
0.0
 11
9895.600000000001
 21
9532.717574353636
 31
0.0
  0
LINE
  5
25E5D
330
2199D
100
AcDbEntity
  8
寸法
 62
     0
 48
50.0
370
    -2
100
AcDbLine
 10
8105.6
 20
8673.957947811551
 30
0.0
 11
8105.6
 21
9532.717574353636
 31
0.0
  0
LINE
  5
25E5E
330
2199D
100
AcDbEntity
  8
寸法
 62
     0
 48
50.0
370
    -2
100
AcDbLine
 10
9895.600000000001
 20
9472.717574353636
 30
0.0
 11
8105.6
 21
9472.717574353636
 31
0.0
  0
INSERT
  5
25E5F
330
2199D
100
AcDbEntity
  8
寸法
 62
     0
 48
50.0
370
    -2
100
AcDbBlockReference
  2
_DOTSMALL
 10
9895.600000000001
 20
9472.717574353636
 30
0.0
 41
100.0
 42
100.0
 43
100.0
  0
INSERT
  5
25E60
330
2199D
100
AcDbEntity
  8
寸法
 62
     0
 48
50.0
370
    -2
100
AcDbBlockReference
  2
_DOTSMALL
 10
8105.6
 20
9472.717574353636
 30
0.0
 41
100.0
 42
100.0
 43
100.0
 50
180.0
  0
MTEXT
  5
25E61
330
2199D
100
AcDbEntity
  8
寸法
 62
     7
 48
50.0
100
AcDbMText
 10
9000.6
 20
9572.717574353635
 30
0.0
 40
120.0
 41
0.0
 71
     5
 72
     1
  1
\A1;1790
  7
STYLE1
 73
     1
 44
1.0
1001
ACAD
1000
MTEXTBEGIN
1070
    73
1070
     1
1070
    44
1040
1.0
1070
    74
1070
     0
1000
MTEXTEND
  0
POINT
  5
25E62
330
2199D
100
AcDbEntity
  8
DEFPOINTS
 62
     0
 48
50.0
100
AcDbPoint
 10
9895.600000000001
 20
8653.957947811553
 30
0.0
  0
POINT
  5
25E63
330
2199D
100
AcDbEntity
  8
DEFPOINTS
 62
     0
 48
50.0
100
AcDbPoint
 10
8105.6
 20
8653.957947811553
 30
0.0
  0
POINT
  5
25E64
330
2199D
100
AcDbEntity
  8
DEFPOINTS
 62
     0
 48
50.0
100
AcDbPoint
 10
8105.6
 20
9472.717574353636
 30
0.0
  0
ENDBLK
  5
219A7
330
2199D
100
AcDbEntity
  8
0
 48
50.0
100
AcDbBlockEnd
  0
BLOCK
  5
219B2
330
219A8
100
AcDbEntity
  8
0
 48
50.0
100
AcDbBlockBegin
  2
*D12
 70
     1
 10
0.0
 20
0.0
 30
0.0
  3
*D12
  1

  0
LINE
  5
25E53
330
219A8
100
AcDbEntity
  8
寸法
 62
     0
 48
50.0
370
    -2
100
AcDbLine
 10
6481.6
 20
8603.957947811553
 30
0.0
 11
5872.657733986177
 21
8603.957947811553
 31
0.0
  0
LINE
  5
25E54
330
219A8
100
AcDbEntity
  8
寸法
 62
     0
 48
50.0
370
    -2
100
AcDbLine
 10
6481.600000000007
 20
5789.957947811554
 30
0.0
 11
5872.657733986176
 21
5789.957947811554
 31
0.0
  0
LINE
  5
25E55
330
219A8
100
AcDbEntity
  8
寸法
 62
     0
 48
50.0
370
    -2
100
AcDbLine
 10
5932.657733986178
 20
8603.957947811553
 30
0.0
 11
5932.657733986177
 21
5789.957947811554
 31
0.0
  0
INSERT
  5
25E56
330
219A8
100
AcDbEntity
  8
寸法
 62
     0
 48
50.0
370
    -2
100
AcDbBlockReference
  2
_DOTSMALL
 10
5932.657733986178
 20
8603.957947811553
 30
0.0
 41
100.0
 42
100.0
 43
100.0
 50
90.0
  0
INSERT
  5
25E57
330
219A8
100
AcDbEntity
  8
寸法
 62
     0
 48
50.0
370
    -2
100
AcDbBlockReference
  2
_DOTSMALL
 10
5932.657733986177
 20
5789.957947811554
 30
0.0
 41
100.0
 42
100.0
 43
100.0
 50
270.0
  0
MTEXT
  5
25E58
330
219A8
100
AcDbEntity
  8
寸法
 62
     7
 48
50.0
100
AcDbMText
 10
5832.645922962554
 20
7196.957947811554
 30
0.0
 40
120.0
 41
0.0
 71
     5
 72
     1
  1
\A1;2814
  7
STYLE1
 11
0.0000000000000001
 21
1.0
 31
0.0
 73
     1
 44
1.0
1001
ACAD
1000
MTEXTBEGIN
1070
    73
1070
     1
1070
    44
1040
1.0
1070
    74
1070
     0
1000
MTEXTEND
  0
POINT
  5
25E59
330
219A8
100
AcDbEntity
  8
DEFPOINTS
 62
     0
 48
50.0
100
AcDbPoint
 10
6501.6
 20
8603.957947811553
 30
0.0
  0
POINT
  5
25E5A
330
219A8
100
AcDbEntity
  8
DEFPOINTS
 62
     0
 48
50.0
100
AcDbPoint
 10
6501.600000000007
 20
5789.957947811554
 30
0.0
  0
POINT
  5
25E5B
330
219A8
100
AcDbEntity
  8
DEFPOINTS
 62
     0
 48
50.0
100
AcDbPoint
 10
5932.657733986177
 20
5789.957947811554
 30
0.0
  0
ENDBLK
  5
219B3
330
219A8
100
AcDbEntity
  8
0
 48
50.0
100
AcDbBlockEnd
  0
BLOCK
  5
219BD
330
219B4
100
AcDbEntity
  8
0
 48
50.0
100
AcDbBlockBegin
  2
*D13
 70
     1
 10
0.0
 20
0.0
 30
0.0
  3
*D13
  1

  0
LINE
  5
25E4A
330
219B4
100
AcDbEntity
  8
寸法
 62
     0
 48
50.0
370
    -2
100
AcDbLine
 10
6408.599999999999
 20
8726.957947811552
 30
0.0
 11
5627.16493184821
 21
8726.957947811552
 31
0.0
  0
LINE
  5
25E4B
330
219B4
100
AcDbEntity
  8
寸法
 62
     0
 48
50.0
370
    -2
100
AcDbLine
 10
6408.599999999999
 20
5666.957947811552
 30
0.0
 11
5627.164931848209
 21
5666.957947811553
 31
0.0
  0
LINE
  5
25E4C
330
219B4
100
AcDbEntity
  8
寸法
 62
     0
 48
50.0
370
    -2
100
AcDbLine
 10
5687.164931848211
 20
8726.957947811552
 30
0.0
 11
5687.16493184821
 21
5666.957947811553
 31
0.0
  0
INSERT
  5
25E4D
330
219B4
100
AcDbEntity
  8
寸法
 62
     0
 48
50.0
370
    -2
100
AcDbBlockReference
  2
_DOTSMALL
 10
5687.164931848211
 20
8726.957947811552
 30
0.0
 41
100.0
 42
100.0
 43
100.0
 50
90.0
  0
INSERT
  5
25E4E
330
219B4
100
AcDbEntity
  8
寸法
 62
     0
 48
50.0
370
    -2
100
AcDbBlockReference
  2
_DOTSMALL
 10
5687.16493184821
 20
5666.957947811553
 30
0.0
 41
100.0
 42
100.0
 43
100.0
 50
270.0
  0
MTEXT
  5
25E4F
330
219B4
100
AcDbEntity
  8
寸法
 62
     7
 48
50.0
100
AcDbMText
 10
5587.164931848208
 20
7196.957947811553
 30
0.0
 40
120.0
 41
0.0
 71
     5
 72
     1
  1
\A1;3060
  7
STYLE1
 11
0.0000000000000001
 21
1.0
 31
0.0
 73
     1
 44
1.0
1001
ACAD
1000
MTEXTBEGIN
1070
    73
1070
     1
1070
    44
1040
1.0
1070
    74
1070
     0
1000
MTEXTEND
  0
POINT
  5
25E50
330
219B4
100
AcDbEntity
  8
DEFPOINTS
 62
     0
 48
50.0
100
AcDbPoint
 10
6428.6
 20
8726.957947811552
 30
0.0
  0
POINT
  5
25E51
330
219B4
100
AcDbEntity
  8
DEFPOINTS
 62
     0
 48
50.0
100
AcDbPoint
 10
6428.6
 20
5666.957947811552
 30
0.0
  0
POINT
  5
25E52
330
219B4
100
AcDbEntity
  8
DEFPOINTS
 62
     0
 48
50.0
100
AcDbPoint
 10
5687.16493184821
 20
5666.957947811553
 30
0.0
  0
ENDBLK
  5
219BE
330
219B4
100
AcDbEntity
  8
0
 48
50.0
100
AcDbBlockEnd
  0
BLOCK
  5
219E6
330
219DD
100
AcDbEntity
  8
0
 48
50.0
100
AcDbBlockBegin
  2
*D14
 70
     1
 10
0.0
 20
0.0
 30
0.0
  3
*D14
  1

  0
LINE
  5
25E2E
330
219DD
100
AcDbEntity
  8
寸法
 62
     0
 48
50.0
370
    -2
100
AcDbLine
 10
7328.6
 20
8116.957947811552
 30
0.0
 11
7328.6
 21
9313.867713459881
 31
0.0
  0
LINE
  5
25E2F
330
219DD
100
AcDbEntity
  8
寸法
 62
     0
 48
50.0
370
    -2
100
AcDbLine
 10
6428.6
 20
8746.957947811552
 30
0.0
 11
6428.6
 21
9313.867713459881
 31
0.0
  0
LINE
  5
25E30
330
219DD
100
AcDbEntity
  8
寸法
 62
     0
 48
50.0
370
    -2
100
AcDbLine
 10
7328.6
 20
9253.867713459881
 30
0.0
 11
6428.6
 21
9253.867713459881
 31
0.0
  0
INSERT
  5
25E31
330
219DD
100
AcDbEntity
  8
寸法
 62
     0
 48
50.0
370
    -2
100
AcDbBlockReference
  2
_DOTSMALL
 10
7328.6
 20
9253.867713459881
 30
0.0
 41
100.0
 42
100.0
 43
100.0
  0
INSERT
  5
25E32
330
219DD
100
AcDbEntity
  8
寸法
 62
     0
 48
50.0
370
    -2
100
AcDbBlockReference
  2
_DOTSMALL
 10
6428.6
 20
9253.867713459881
 30
0.0
 41
100.0
 42
100.0
 43
100.0
 50
180.0
  0
MTEXT
  5
25E33
330
219DD
100
AcDbEntity
  8
寸法
 62
     7
 48
50.0
100
AcDbMText
 10
6878.6
 20
9353.86771345988
 30
0.0
 40
120.0
 41
0.0
 71
     5
 72
     1
  1
\A1;900
  7
STYLE1
 73
     1
 44
1.0
1001
ACAD
1000
MTEXTBEGIN
1070
    73
1070
     1
1070
    44
1040
1.0
1070
    74
1070
     0
1000
MTEXTEND
  0
POINT
  5
25E34
330
219DD
100
AcDbEntity
  8
DEFPOINTS
 62
     0
 48
50.0
100
AcDbPoint
 10
7328.6
 20
8096.957947811551
 30
0.0
  0
POINT
  5
25E35
330
219DD
100
AcDbEntity
  8
DEFPOINTS
 62
     0
 48
50.0
100
AcDbPoint
 10
6428.6
 20
8726.957947811552
 30
0.0
  0
POINT
  5
25E36
330
219DD
100
AcDbEntity
  8
DEFPOINTS
 62
     0
 48
50.0
100
AcDbPoint
 10
6428.6
 20
9253.867713459881
 30
0.0
  0
ENDBLK
  5
219E7
330
219DD
100
AcDbEntity
  8
0
 48
50.0
100
AcDbBlockEnd
  0
BLOCK
  5
219F2
330
219E8
100
AcDbEntity
  8
0
 48
50.0
100
AcDbBlockBegin
  2
*D15
 70
     1
 10
0.0
 20
0.0
 30
0.0
  3
*D15
  1

  0
LINE
  5
25E25
330
219E8
100
AcDbEntity
  8
寸法
 62
     0
 48
50.0
370
    -2
100
AcDbLine
 10
8105.6
 20
8673.957947811551
 30
0.0
 11
8105.6
 21
9532.717574353636
 31
0.0
  0
LINE
  5
25E26
330
219E8
100
AcDbEntity
  8
寸法
 62
     0
 48
50.0
370
    -2
100
AcDbLine
 10
6551.6
 20
8673.957947811551
 30
0.0
 11
6551.6
 21
9532.717574353636
 31
0.0
  0
LINE
  5
25E27
330
219E8
100
AcDbEntity
  8
寸法
 62
     0
 48
50.0
370
    -2
100
AcDbLine
 10
8105.6
 20
9472.717574353636
 30
0.0
 11
6551.6
 21
9472.717574353636
 31
0.0
  0
INSERT
  5
25E28
330
219E8
100
AcDbEntity
  8
寸法
 62
     0
 48
50.0
370
    -2
100
AcDbBlockReference
  2
_DOTSMALL
 10
8105.6
 20
9472.717574353636
 30
0.0
 41
100.0
 42
100.0
 43
100.0
  0
INSERT
  5
25E29
330
219E8
100
AcDbEntity
  8
寸法
 62
     0
 48
50.0
370
    -2
100
AcDbBlockReference
  2
_DOTSMALL
 10
6551.6
 20
9472.717574353636
 30
0.0
 41
100.0
 42
100.0
 43
100.0
 50
180.0
  0
MTEXT
  5
25E2A
330
219E8
100
AcDbEntity
  8
寸法
 62
     7
 48
50.0
100
AcDbMText
 10
7328.6
 20
9572.717574353635
 30
0.0
 40
120.0
 41
0.0
 71
     5
 72
     1
  1
\A1;1554
  7
STYLE1
 73
     1
 44
1.0
1001
ACAD
1000
MTEXTBEGIN
1070
    73
1070
     1
1070
    44
1040
1.0
1070
    74
1070
     0
1000
MTEXTEND
  0
POINT
  5
25E2B
330
219E8
100
AcDbEntity
  8
DEFPOINTS
 62
     0
 48
50.0
100
AcDbPoint
 10
8105.6
 20
8653.957947811553
 30
0.0
  0
POINT
  5
25E2C
330
219E8
100
AcDbEntity
  8
DEFPOINTS
 62
     0
 48
50.0
100
AcDbPoint
 10
6551.6
 20
8653.957947811553
 30
0.0
  0
POINT
  5
25E2D
330
219E8
100
AcDbEntity
  8
DEFPOINTS
 62
     0
 48
50.0
100
AcDbPoint
 10
6551.6
 20
9472.717574353636
 30
0.0
  0
ENDBLK
  5
219F3
330
219E8
100
AcDbEntity
  8
0
 48
50.0
100
AcDbBlockEnd
  0
BLOCK
  5
219FF
330
219F4
100
AcDbEntity
  8
0
 48
50.0
100
AcDbBlockBegin
  2
*D16
 70
     1
 10
0.0
 20
0.0
 30
0.0
  3
*D16
  1

  0
LINE
  5
25E1B
330
219F4
100
AcDbEntity
  8
寸法
 62
     0
 48
50.0
370
    -2
100
AcDbLine
 10
6551.6
 20
8673.957947811551
 30
0.0
 11
6551.6
 21
9532.717574353636
 31
0.0
  0
LINE
  5
25E1C
330
219F4
100
AcDbEntity
  8
寸法
 62
     0
 48
50.0
370
    -2
100
AcDbLine
 10
6428.6
 20
8746.957947811552
 30
0.0
 11
6428.6
 21
9532.717574353636
 31
0.0
  0
LINE
  5
25E1D
330
219F4
100
AcDbEntity
  8
寸法
 62
     0
 48
50.0
370
    -2
100
AcDbLine
 10
6551.6
 20
9472.717574353636
 30
0.0
 11
6428.6
 21
9472.717574353636
 31
0.0
  0
LINE
  5
25E1E
330
219F4
100
AcDbEntity
  8
寸法
 62
     0
 48
50.0
370
    -2
100
AcDbLine
 10
6428.6
 20
9472.717574353636
 30
0.0
 11
6017.008116907966
 21
9472.717574353636
 31
0.0
  0
INSERT
  5
25E1F
330
219F4
100
AcDbEntity
  8
寸法
 62
     0
 48
50.0
370
    -2
100
AcDbBlockReference
  2
_DOTSMALL
 10
6551.6
 20
9472.717574353636
 30
0.0
 41
100.0
 42
100.0
 43
100.0
  0
INSERT
  5
25E20
330
219F4
100
AcDbEntity
  8
寸法
 62
     0
 48
50.0
370
    -2
100
AcDbBlockReference
  2
_DOTSMALL
 10
6428.6
 20
9472.717574353636
 30
0.0
 41
100.0
 42
100.0
 43
100.0
 50
180.0
  0
MTEXT
  5
25E21
330
219F4
100
AcDbEntity
  8
寸法
 62
     7
 48
50.0
100
AcDbMText
 10
6155.493398282206
 20
9572.729385377257
 30
0.0
 40
120.0
 41
0.0
 71
     5
 72
     1
  1
\A1;123
  7
STYLE1
 73
     1
 44
1.0
1001
ACAD
1000
MTEXTBEGIN
1070
    73
1070
     1
1070
    44
1040
1.0
1070
    74
1070
     0
1000
MTEXTEND
  0
POINT
  5
25E22
330
219F4
100
AcDbEntity
  8
DEFPOINTS
 62
     0
 48
50.0
100
AcDbPoint
 10
6551.6
 20
8653.957947811553
 30
0.0
  0
POINT
  5
25E23
330
219F4
100
AcDbEntity
  8
DEFPOINTS
 62
     0
 48
50.0
100
AcDbPoint
 10
6428.6
 20
8726.957947811552
 30
0.0
  0
POINT
  5
25E24
330
219F4
100
AcDbEntity
  8
DEFPOINTS
 62
     0
 48
50.0
100
AcDbPoint
 10
6428.6
 20
9472.717574353636
 30
0.0
  0
ENDBLK
  5
21A00
330
219F4
100
AcDbEntity
  8
0
 48
50.0
100
AcDbBlockEnd
  0
BLOCK
  5
21A19
330
21A0E
100
AcDbEntity
  8
0
 48
50.0
100
AcDbBlockBegin
  2
*D17
 70
     1
 10
0.0
 20
0.0
 30
0.0
  3
*D17
  1

  0
LINE
  5
25E11
330
21A0E
100
AcDbEntity
  8
寸法
 62
     0
 48
50.0
370
    -2
100
AcDbLine
 10
6408.599999999999
 20
8726.957947811552
 30
0.0
 11
5872.657733986179
 21
8726.957947811552
 31
0.0
  0
LINE
  5
25E12
330
21A0E
100
AcDbEntity
  8
寸法
 62
     0
 48
50.0
370
    -2
100
AcDbLine
 10
6481.6
 20
8603.957947811553
 30
0.0
 11
5872.657733986179
 21
8603.957947811553
 31
0.0
  0
LINE
  5
25E13
330
21A0E
100
AcDbEntity
  8
寸法
 62
     0
 48
50.0
370
    -2
100
AcDbLine
 10
5932.657733986179
 20
8603.957947811553
 30
0.0
 11
5932.657733986179
 21
8726.957947811552
 31
0.0
  0
LINE
  5
25E14
330
21A0E
100
AcDbEntity
  8
寸法
 62
     0
 48
50.0
370
    -2
100
AcDbLine
 10
5932.657733986179
 20
8726.957947811552
 30
0.0
 11
5932.657733986179
 21
9138.549830903588
 31
0.0
  0
INSERT
  5
25E15
330
21A0E
100
AcDbEntity
  8
寸法
 62
     0
 48
50.0
370
    -2
100
AcDbBlockReference
  2
_DOTSMALL
 10
5932.657733986179
 20
8603.957947811553
 30
0.0
 41
100.0
 42
100.0
 43
100.0
 50
270.0
  0
INSERT
  5
25E16
330
21A0E
100
AcDbEntity
  8
寸法
 62
     0
 48
50.0
370
    -2
100
AcDbBlockReference
  2
_DOTSMALL
 10
5932.657733986179
 20
8726.957947811552
 30
0.0
 41
100.0
 42
100.0
 43
100.0
 50
90.0
  0
MTEXT
  5
25E17
330
21A0E
100
AcDbEntity
  8
寸法
 62
     7
 48
50.0
100
AcDbMText
 10
5832.645922962556
 20
9000.064549529353
 30
0.0
 40
120.0
 41
0.0
 71
     5
 72
     1
  1
\A1;123
  7
STYLE1
 11
0.0000000000000001
 21
1.0
 31
0.0
 73
     1
 44
1.0
1001
ACAD
1000
MTEXTBEGIN
1070
    73
1070
     1
1070
    44
1040
1.0
1070
    74
1070
     0
1000
MTEXTEND
  0
POINT
  5
25E18
330
21A0E
100
AcDbEntity
  8
DEFPOINTS
 62
     0
 48
50.0
100
AcDbPoint
 10
6428.6
 20
8726.957947811552
 30
0.0
  0
POINT
  5
25E19
330
21A0E
100
AcDbEntity
  8
DEFPOINTS
 62
     0
 48
50.0
100
AcDbPoint
 10
6501.6
 20
8603.957947811553
 30
0.0
  0
POINT
  5
25E1A
330
21A0E
100
AcDbEntity
  8
DEFPOINTS
 62
     0
 48
50.0
100
AcDbPoint
 10
5932.657733986179
 20
8603.957947811553
 30
0.0
  0
ENDBLK
  5
21A1A
330
21A0E
100
AcDbEntity
  8
0
 48
50.0
100
AcDbBlockEnd
  0
BLOCK
  5
21A26
330
21A1B
100
AcDbEntity
  8
0
 48
50.0
100
AcDbBlockBegin
  2
*D18
 70
     1
 10
0.0
 20
0.0
 30
0.0
  3
*D18
  1

  0
LINE
  5
25E07
330
21A1B
100
AcDbEntity
  8
寸法
 62
     0
 48
50.0
370
    -2
100
AcDbLine
 10
6678.6
 20
8606.957947811549
 30
0.0
 11
6935.307249876098
 21
8606.957947811549
 31
0.0
  0
LINE
  5
25E08
330
21A1B
100
AcDbEntity
  8
寸法
 62
     0
 48
50.0
370
    -2
100
AcDbLine
 10
6678.6
 20
8726.95794781155
 30
0.0
 11
6935.307249876098
 21
8726.95794781155
 31
0.0
  0
LINE
  5
25E09
330
21A1B
100
AcDbEntity
  8
寸法
 62
     0
 48
50.0
370
    -2
100
AcDbLine
 10
6875.307249876098
 20
8606.957947811549
 30
0.0
 11
6875.307249876098
 21
8726.95794781155
 31
0.0
  0
LINE
  5
25E0A
330
21A1B
100
AcDbEntity
  8
寸法
 62
     0
 48
50.0
370
    -2
100
AcDbLine
 10
6875.307249876098
 20
8726.95794781155
 30
0.0
 11
6875.307249876098
 21
9141.088735178923
 31
0.0
  0
INSERT
  5
25E0B
330
21A1B
100
AcDbEntity
  8
寸法
 62
     0
 48
50.0
370
    -2
100
AcDbBlockReference
  2
_DOTSMALL
 10
6875.307249876098
 20
8606.957947811549
 30
0.0
 41
100.0
 42
100.0
 43
100.0
 50
270.0
  0
INSERT
  5
25E0C
330
21A1B
100
AcDbEntity
  8
寸法
 62
     0
 48
50.0
370
    -2
100
AcDbBlockReference
  2
_DOTSMALL
 10
6875.307249876098
 20
8726.95794781155
 30
0.0
 41
100.0
 42
100.0
 43
100.0
 50
90.0
  0
MTEXT
  5
25E0D
330
21A1B
100
AcDbEntity
  8
寸法
 62
     7
 48
50.0
100
AcDbMText
 10
6775.295438852475
 20
9005.041491084439
 30
0.0
 40
120.0
 41
0.0
 71
     5
 72
     1
  1
\A1;120
  7
STYLE1
 11
0.0000000000000001
 21
1.0
 31
0.0
 73
     1
 44
1.0
1001
ACAD
1000
MTEXTBEGIN
1070
    73
1070
     1
1070
    44
1040
1.0
1070
    74
1070
     0
1000
MTEXTEND
  0
POINT
  5
25E0E
330
21A1B
100
AcDbEntity
  8
DEFPOINTS
 62
     0
 48
50.0
100
AcDbPoint
 10
6658.599999999999
 20
8606.957947811549
 30
0.0
  0
POINT
  5
25E0F
330
21A1B
100
AcDbEntity
  8
DEFPOINTS
 62
     0
 48
50.0
100
AcDbPoint
 10
6658.599999999999
 20
8726.95794781155
 30
0.0
  0
POINT
  5
25E10
330
21A1B
100
AcDbEntity
  8
DEFPOINTS
 62
     0
 48
50.0
100
AcDbPoint
 10
6875.307249876098
 20
8726.95794781155
 30
0.0
  0
ENDBLK
  5
21A27
330
21A1B
100
AcDbEntity
  8
0
 48
50.0
100
AcDbBlockEnd
  0
BLOCK
  5
21A33
330
21A28
100
AcDbEntity
  8
0
 48
50.0
100
AcDbBlockBegin
  2
*D19
 70
     1
 10
0.0
 20
0.0
 30
0.0
  3
*D19
  1

  0
LINE
  5
25DFD
330
21A28
100
AcDbEntity
  8
寸法
 62
     0
 48
50.0
370
    -2
100
AcDbLine
 10
6678.6
 20
8606.957947811549
 30
0.0
 11
6935.307249876098
 21
8606.957947811549
 31
0.0
  0
LINE
  5
25DFE
330
21A28
100
AcDbEntity
  8
寸法
 62
     0
 48
50.0
370
    -2
100
AcDbLine
 10
6678.6
 20
8496.95794781155
 30
0.0
 11
6935.307249876098
 21
8496.95794781155
 31
0.0
  0
LINE
  5
25DFF
330
21A28
100
AcDbEntity
  8
寸法
 62
     0
 48
50.0
370
    -2
100
AcDbLine
 10
6875.307249876098
 20
8606.957947811549
 30
0.0
 11
6875.307249876098
 21
8496.95794781155
 31
0.0
  0
LINE
  5
25E00
330
21A28
100
AcDbEntity
  8
寸法
 62
     0
 48
50.0
370
    -2
100
AcDbLine
 10
6875.307249876098
 20
8496.95794781155
 30
0.0
 11
6875.307249876098
 21
8032.851648598947
 31
0.0
  0
INSERT
  5
25E01
330
21A28
100
AcDbEntity
  8
寸法
 62
     0
 48
50.0
370
    -2
100
AcDbBlockReference
  2
_DOTSMALL
 10
6875.307249876098
 20
8606.957947811549
 30
0.0
 41
100.0
 42
100.0
 43
100.0
 50
90.0
  0
INSERT
  5
25E02
330
21A28
100
AcDbEntity
  8
寸法
 62
     0
 48
50.0
370
    -2
100
AcDbBlockReference
  2
_DOTSMALL
 10
6875.307249876098
 20
8496.95794781155
 30
0.0
 41
100.0
 42
100.0
 43
100.0
 50
270.0
  0
MTEXT
  5
25E03
330
21A28
100
AcDbEntity
  8
寸法
 62
     7
 48
50.0
100
AcDbMText
 10
6775.307249876097
 20
8156.898892693439
 30
0.0
 40
120.0
 41
0.0
 71
     5
 72
     1
  1
\A1;110
  7
STYLE1
 11
0.0000000000000001
 21
1.0
 31
0.0
 73
     1
 44
1.0
1001
ACAD
1000
MTEXTBEGIN
1070
    73
1070
     1
1070
    44
1040
1.0
1070
    74
1070
     0
1000
MTEXTEND
  0
POINT
  5
25E04
330
21A28
100
AcDbEntity
  8
DEFPOINTS
 62
     0
 48
50.0
100
AcDbPoint
 10
6658.599999999999
 20
8606.957947811549
 30
0.0
  0
POINT
  5
25E05
330
21A28
100
AcDbEntity
  8
DEFPOINTS
 62
     0
 48
50.0
100
AcDbPoint
 10
6658.599999999999
 20
8496.95794781155
 30
0.0
  0
POINT
  5
25E06
330
21A28
100
AcDbEntity
  8
DEFPOINTS
 62
     0
 48
50.0
100
AcDbPoint
 10
6875.307249876098
 20
8496.95794781155
 30
0.0
  0
ENDBLK
  5
21A34
330
21A28
100
AcDbEntity
  8
0
 48
50.0
100
AcDbBlockEnd
  0
BLOCK
  5
21A3F
330
21A35
100
AcDbEntity
  8
0
 48
50.0
100
AcDbBlockBegin
  2
*D20
 70
     1
 10
0.0
 20
0.0
 30
0.0
  3
*D20
  1

  0
LINE
  5
25DF4
330
21A35
100
AcDbEntity
  8
寸法
 62
     0
 48
50.0
370
    -2
100
AcDbLine
 10
8223.600000000001
 20
8116.957947811552
 30
0.0
 11
8223.600000000001
 21
9313.867713459881
 31
0.0
  0
LINE
  5
25DF5
330
21A35
100
AcDbEntity
  8
寸法
 62
     0
 48
50.0
370
    -2
100
AcDbLine
 10
7328.6
 20
8116.957947811552
 30
0.0
 11
7328.6
 21
9313.867713459881
 31
0.0
  0
LINE
  5
25DF6
330
21A35
100
AcDbEntity
  8
寸法
 62
     0
 48
50.0
370
    -2
100
AcDbLine
 10
8223.600000000001
 20
9253.867713459881
 30
0.0
 11
7328.6
 21
9253.867713459881
 31
0.0
  0
INSERT
  5
25DF7
330
21A35
100
AcDbEntity
  8
寸法
 62
     0
 48
50.0
370
    -2
100
AcDbBlockReference
  2
_DOTSMALL
 10
8223.600000000001
 20
9253.867713459881
 30
0.0
 41
100.0
 42
100.0
 43
100.0
  0
INSERT
  5
25DF8
330
21A35
100
AcDbEntity
  8
寸法
 62
     0
 48
50.0
370
    -2
100
AcDbBlockReference
  2
_DOTSMALL
 10
7328.6
 20
9253.867713459881
 30
0.0
 41
100.0
 42
100.0
 43
100.0
 50
180.0
  0
MTEXT
  5
25DF9
330
21A35
100
AcDbEntity
  8
寸法
 62
     7
 48
50.0
100
AcDbMText
 10
7776.100000000001
 20
9353.86771345988
 30
0.0
 40
120.0
 41
0.0
 71
     5
 72
     1
  1
\A1;895
  7
STYLE1
 73
     1
 44
1.0
1001
ACAD
1000
MTEXTBEGIN
1070
    73
1070
     1
1070
    44
1040
1.0
1070
    74
1070
     0
1000
MTEXTEND
  0
POINT
  5
25DFA
330
21A35
100
AcDbEntity
  8
DEFPOINTS
 62
     0
 48
50.0
100
AcDbPoint
 10
8223.600000000001
 20
8096.957947811551
 30
0.0
  0
POINT
  5
25DFB
330
21A35
100
AcDbEntity
  8
DEFPOINTS
 62
     0
 48
50.0
100
AcDbPoint
 10
7328.6
 20
8096.957947811551
 30
0.0
  0
POINT
  5
25DFC
330
21A35
100
AcDbEntity
  8
DEFPOINTS
 62
     0
 48
50.0
100
AcDbPoint
 10
7328.6
 20
9253.867713459881
 30
0.0
  0
ENDBLK
  5
21A40
330
21A35
100
AcDbEntity
  8
0
 48
50.0
100
AcDbBlockEnd
  0
BLOCK
  5
21A4B
330
21A41
100
AcDbEntity
  8
0
 48
50.0
100
AcDbBlockBegin
  2
*D21
 70
     1
 10
0.0
 20
0.0
 30
0.0
  3
*D21
  1

  0
LINE
  5
25DEB
330
21A41
100
AcDbEntity
  8
寸法
 62
     0
 48
50.0
370
    -2
100
AcDbLine
 10
8998.600000000001
 20
7996.957947811552
 30
0.0
 11
8858.973698583076
 21
7996.957947811552
 31
0.0
  0
LINE
  5
25DEC
330
21A41
100
AcDbEntity
  8
寸法
 62
     0
 48
50.0
370
    -2
100
AcDbLine
 10
8998.600000000001
 20
7196.957947811568
 30
0.0
 11
8858.973698583076
 21
7196.957947811568
 31
0.0
  0
LINE
  5
25DED
330
21A41
100
AcDbEntity
  8
寸法
 62
     0
 48
50.0
370
    -2
100
AcDbLine
 10
8918.973698583075
 20
7996.957947811552
 30
0.0
 11
8918.973698583075
 21
7196.957947811568
 31
0.0
  0
INSERT
  5
25DEE
330
21A41
100
AcDbEntity
  8
寸法
 62
     0
 48
50.0
370
    -2
100
AcDbBlockReference
  2
_DOTSMALL
 10
8918.973698583075
 20
7996.957947811552
 30
0.0
 41
100.0
 42
100.0
 43
100.0
 50
90.0
  0
INSERT
  5
25DEF
330
21A41
100
AcDbEntity
  8
寸法
 62
     0
 48
50.0
370
    -2
100
AcDbBlockReference
  2
_DOTSMALL
 10
8918.973698583075
 20
7196.957947811568
 30
0.0
 41
100.0
 42
100.0
 43
100.0
 50
270.0
  0
MTEXT
  5
25DF0
330
21A41
100
AcDbEntity
  8
寸法
 62
     7
 48
50.0
100
AcDbMText
 10
8818.973698583073
 20
7596.95794781156
 30
0.0
 40
120.0
 41
0.0
 71
     5
 72
     1
  1
\A1;800
  7
STYLE1
 11
0.0000000000000001
 21
1.0
 31
0.0
 73
     1
 44
1.0
1001
ACAD
1000
MTEXTBEGIN
1070
    73
1070
     1
1070
    44
1040
1.0
1070
    74
1070
     0
1000
MTEXTEND
  0
POINT
  5
25DF1
330
21A41
100
AcDbEntity
  8
DEFPOINTS
 62
     0
 48
50.0
100
AcDbPoint
 10
9018.600000000001
 20
7996.957947811552
 30
0.0
  0
POINT
  5
25DF2
330
21A41
100
AcDbEntity
  8
DEFPOINTS
 62
     0
 48
50.0
100
AcDbPoint
 10
9018.600000000001
 20
7196.957947811568
 30
0.0
  0
POINT
  5
25DF3
330
21A41
100
AcDbEntity
  8
DEFPOINTS
 62
     0
 48
50.0
100
AcDbPoint
 10
8918.973698583075
 20
7196.957947811568
 30
0.0
  0
ENDBLK
  5
21A4C
330
21A41
100
AcDbEntity
  8
0
 48
50.0
100
AcDbBlockEnd
  0
BLOCK
  5
21A70
330
21A66
100
AcDbEntity
  8
0
 48
50.0
100
AcDbBlockBegin
  2
*D22
 70
     1
 10
0.0
 20
0.0
 30
0.0
  3
*D22
  1

  0
LINE
  5
25DE2
330
21A66
100
AcDbEntity
  8
寸法
 62
     0
 48
50.0
370
    -2
100
AcDbLine
 10
8675.045939259559
 20
5666.957947811562
 30
0.0
 11
8978.97369858307
 21
5666.957947811562
 31
0.0
  0
LINE
  5
25DE3
330
21A66
100
AcDbEntity
  8
寸法
 62
     0
 48
50.0
370
    -2
100
AcDbLine
 10
8998.600000000001
 20
6396.957947811568
 30
0.0
 11
8858.973698583069
 21
6396.957947811568
 31
0.0
  0
LINE
  5
25DE4
330
21A66
100
AcDbEntity
  8
寸法
 62
     0
 48
50.0
370
    -2
100
AcDbLine
 10
8918.973698583069
 20
5666.957947811562
 30
0.0
 11
8918.973698583069
 21
6396.957947811568
 31
0.0
  0
INSERT
  5
25DE5
330
21A66
100
AcDbEntity
  8
寸法
 62
     0
 48
50.0
370
    -2
100
AcDbBlockReference
  2
_DOTSMALL
 10
8918.973698583069
 20
5666.957947811562
 30
0.0
 41
100.0
 42
100.0
 43
100.0
 50
270.0
  0
INSERT
  5
25DE6
330
21A66
100
AcDbEntity
  8
寸法
 62
     0
 48
50.0
370
    -2
100
AcDbBlockReference
  2
_DOTSMALL
 10
8918.973698583069
 20
6396.957947811568
 30
0.0
 41
100.0
 42
100.0
 43
100.0
 50
90.0
  0
MTEXT
  5
25DE7
330
21A66
100
AcDbEntity
  8
寸法
 62
     7
 48
50.0
100
AcDbMText
 10
8818.973698583068
 20
6031.957947811566
 30
0.0
 40
120.0
 41
0.0
 71
     5
 72
     1
  1
\A1;730
  7
STYLE1
 11
0.0000000000000001
 21
1.0
 31
0.0
 73
     1
 44
1.0
1001
ACAD
1000
MTEXTBEGIN
1070
    73
1070
     1
1070
    44
1040
1.0
1070
    74
1070
     0
1000
MTEXTEND
  0
POINT
  5
25DE8
330
21A66
100
AcDbEntity
  8
DEFPOINTS
 62
     0
 48
50.0
100
AcDbPoint
 10
8655.04593925956
 20
5666.957947811562
 30
0.0
  0
POINT
  5
25DE9
330
21A66
100
AcDbEntity
  8
DEFPOINTS
 62
     0
 48
50.0
100
AcDbPoint
 10
9018.600000000001
 20
6396.957947811568
 30
0.0
  0
POINT
  5
25DEA
330
21A66
100
AcDbEntity
  8
DEFPOINTS
 62
     0
 48
50.0
100
AcDbPoint
 10
8918.973698583069
 20
6396.957947811568
 30
0.0
  0
ENDBLK
  5
21A71
330
21A66
100
AcDbEntity
  8
0
 48
50.0
100
AcDbBlockEnd
  0
BLOCK
  5
21A7D
330
21A72
100
AcDbEntity
  8
0
 48
50.0
100
AcDbBlockBegin
  2
*D23
 70
     1
 10
0.0
 20
0.0
 30
0.0
  3
*D23
  1

  0
LINE
  5
25DD8
330
21A72
100
AcDbEntity
  8
寸法
 62
     0
 48
50.0
370
    -2
100
AcDbLine
 10
9898.600000000001
 20
8148.960905834766
 30
0.0
 11
9898.600000000001
 21
8281.066703136827
 31
0.0
  0
LINE
  5
25DD9
330
21A72
100
AcDbEntity
  8
寸法
 62
     0
 48
50.0
370
    -2
100
AcDbLine
 10
9788.600000000002
 20
8476.95794781155
 30
0.0
 11
9788.600000000002
 21
8161.066703136828
 31
0.0
  0
LINE
  5
25DDA
330
21A72
100
AcDbEntity
  8
寸法
 62
     0
 48
50.0
370
    -2
100
AcDbLine
 10
9898.600000000001
 20
8221.066703136829
 30
0.0
 11
9788.600000000002
 21
8221.066703136829
 31
0.0
  0
LINE
  5
25DDB
330
21A72
100
AcDbEntity
  8
寸法
 62
     0
 48
50.0
370
    -2
100
AcDbLine
 10
9788.600000000002
 20
8221.066703136829
 30
0.0
 11
9428.505511811023
 21
8221.066703136829
 31
0.0
  0
INSERT
  5
25DDC
330
21A72
100
AcDbEntity
  8
寸法
 62
     0
 48
50.0
370
    -2
100
AcDbBlockReference
  2
_DOTSMALL
 10
9898.600000000001
 20
8221.066703136829
 30
0.0
 41
100.0
 42
100.0
 43
100.0
  0
INSERT
  5
25DDD
330
21A72
100
AcDbEntity
  8
寸法
 62
     0
 48
50.0
370
    -2
100
AcDbBlockReference
  2
_DOTSMALL
 10
9788.600000000002
 20
8221.066703136829
 30
0.0
 41
100.0
 42
100.0
 43
100.0
 50
180.0
  0
MTEXT
  5
25DDE
330
21A72
100
AcDbEntity
  8
寸法
 62
     7
 48
50.0
100
AcDbMText
 10
9552.552755905512
 20
8321.066703136828
 30
0.0
 40
120.0
 41
0.0
 71
     5
 72
     1
  1
\A1;110
  7
STYLE1
 73
     1
 44
1.0
1001
ACAD
1000
MTEXTBEGIN
1070
    73
1070
     1
1070
    44
1040
1.0
1070
    74
1070
     0
1000
MTEXTEND
  0
POINT
  5
25DDF
330
21A72
100
AcDbEntity
  8
DEFPOINTS
 62
     0
 48
50.0
100
AcDbPoint
 10
9898.600000000001
 20
8128.960905834764
 30
0.0
  0
POINT
  5
25DE0
330
21A72
100
AcDbEntity
  8
DEFPOINTS
 62
     0
 48
50.0
100
AcDbPoint
 10
9788.600000000002
 20
8496.95794781155
 30
0.0
  0
POINT
  5
25DE1
330
21A72
100
AcDbEntity
  8
DEFPOINTS
 62
     0
 48
50.0
100
AcDbPoint
 10
9788.600000000002
 20
8221.066703136829
 30
0.0
  0
ENDBLK
  5
21A7E
330
21A72
100
AcDbEntity
  8
0
 48
50.0
100
AcDbBlockEnd
  0
BLOCK
  5
21A89
330
21A7F
100
AcDbEntity
  8
0
 48
50.0
100
AcDbBlockBegin
  2
*D24
 70
     1
 10
0.0
 20
0.0
 30
0.0
  3
*D24
  1

  0
LINE
  5
25DCF
330
21A7F
100
AcDbEntity
  8
寸法
 62
     0
 48
50.0
370
    -2
100
AcDbLine
 10
10018.6
 20
8746.957947811552
 30
0.0
 11
10018.6
 21
9313.867713459881
 31
0.0
  0
LINE
  5
25DD0
330
21A7F
100
AcDbEntity
  8
寸法
 62
     0
 48
50.0
370
    -2
100
AcDbLine
 10
9118.6
 20
8116.957947811552
 30
0.0
 11
9118.6
 21
9313.867713459881
 31
0.0
  0
LINE
  5
25DD1
330
21A7F
100
AcDbEntity
  8
寸法
 62
     0
 48
50.0
370
    -2
100
AcDbLine
 10
10018.6
 20
9253.867713459881
 30
0.0
 11
9118.6
 21
9253.867713459881
 31
0.0
  0
INSERT
  5
25DD2
330
21A7F
100
AcDbEntity
  8
寸法
 62
     0
 48
50.0
370
    -2
100
AcDbBlockReference
  2
_DOTSMALL
 10
10018.6
 20
9253.867713459881
 30
0.0
 41
100.0
 42
100.0
 43
100.0
  0
INSERT
  5
25DD3
330
21A7F
100
AcDbEntity
  8
寸法
 62
     0
 48
50.0
370
    -2
100
AcDbBlockReference
  2
_DOTSMALL
 10
9118.6
 20
9253.867713459881
 30
0.0
 41
100.0
 42
100.0
 43
100.0
 50
180.0
  0
MTEXT
  5
25DD4
330
21A7F
100
AcDbEntity
  8
寸法
 62
     7
 48
50.0
100
AcDbMText
 10
9568.600000000001
 20
9353.86771345988
 30
0.0
 40
120.0
 41
0.0
 71
     5
 72
     1
  1
\A1;900
  7
STYLE1
 73
     1
 44
1.0
1001
ACAD
1000
MTEXTBEGIN
1070
    73
1070
     1
1070
    44
1040
1.0
1070
    74
1070
     0
1000
MTEXTEND
  0
POINT
  5
25DD5
330
21A7F
100
AcDbEntity
  8
DEFPOINTS
 62
     0
 48
50.0
100
AcDbPoint
 10
10018.6
 20
8726.957947811552
 30
0.0
  0
POINT
  5
25DD6
330
21A7F
100
AcDbEntity
  8
DEFPOINTS
 62
     0
 48
50.0
100
AcDbPoint
 10
9118.6
 20
8096.957947811551
 30
0.0
  0
POINT
  5
25DD7
330
21A7F
100
AcDbEntity
  8
DEFPOINTS
 62
     0
 48
50.0
100
AcDbPoint
 10
9118.6
 20
9253.867713459881
 30
0.0
  0
ENDBLK
  5
21A8A
330
21A7F
100
AcDbEntity
  8
0
 48
50.0
100
AcDbBlockEnd
  0
BLOCK
  5
21A94
330
21A8B
100
AcDbEntity
  8
0
 48
50.0
100
AcDbBlockBegin
  2
*D25
 70
     1
 10
0.0
 20
0.0
 30
0.0
  3
*D25
  1

  0
LINE
  5
25DC6
330
21A8B
100
AcDbEntity
  8
寸法
 62
     0
 48
50.0
370
    -2
100
AcDbLine
 10
8998.600000000001
 20
7996.957947811552
 30
0.0
 11
8858.973698583076
 21
7996.957947811552
 31
0.0
  0
LINE
  5
25DC7
330
21A8B
100
AcDbEntity
  8
寸法
 62
     0
 48
50.0
370
    -2
100
AcDbLine
 10
8579.157431058353
 20
8726.957947811554
 30
0.0
 11
8978.973698583075
 21
8726.957947811554
 31
0.0
  0
LINE
  5
25DC8
330
21A8B
100
AcDbEntity
  8
寸法
 62
     0
 48
50.0
370
    -2
100
AcDbLine
 10
8918.973698583075
 20
7996.957947811552
 30
0.0
 11
8918.973698583075
 21
8726.957947811554
 31
0.0
  0
INSERT
  5
25DC9
330
21A8B
100
AcDbEntity
  8
寸法
 62
     0
 48
50.0
370
    -2
100
AcDbBlockReference
  2
_DOTSMALL
 10
8918.973698583075
 20
7996.957947811552
 30
0.0
 41
100.0
 42
100.0
 43
100.0
 50
270.0
  0
INSERT
  5
25DCA
330
21A8B
100
AcDbEntity
  8
寸法
 62
     0
 48
50.0
370
    -2
100
AcDbBlockReference
  2
_DOTSMALL
 10
8918.973698583075
 20
8726.957947811554
 30
0.0
 41
100.0
 42
100.0
 43
100.0
 50
90.0
  0
MTEXT
  5
25DCB
330
21A8B
100
AcDbEntity
  8
寸法
 62
     7
 48
50.0
100
AcDbMText
 10
8818.973698583073
 20
8361.957947811555
 30
0.0
 40
120.0
 41
0.0
 71
     5
 72
     1
  1
\A1;730
  7
STYLE1
 11
0.0000000000000001
 21
1.0
 31
0.0
 73
     1
 44
1.0
1001
ACAD
1000
MTEXTBEGIN
1070
    73
1070
     1
1070
    44
1040
1.0
1070
    74
1070
     0
1000
MTEXTEND
  0
POINT
  5
25DCC
330
21A8B
100
AcDbEntity
  8
DEFPOINTS
 62
     0
 48
50.0
100
AcDbPoint
 10
9018.600000000001
 20
7996.957947811552
 30
0.0
  0
POINT
  5
25DCD
330
21A8B
100
AcDbEntity
  8
DEFPOINTS
 62
     0
 48
50.0
100
AcDbPoint
 10
8559.157431058356
 20
8726.957947811554
 30
0.0
  0
POINT
  5
25DCE
330
21A8B
100
AcDbEntity
  8
DEFPOINTS
 62
     0
 48
50.0
100
AcDbPoint
 10
8918.973698583075
 20
8726.957947811554
 30
0.0
  0
ENDBLK
  5
21A95
330
21A8B
100
AcDbEntity
  8
0
 48
50.0
100
AcDbBlockEnd
  0
BLOCK
  5
21AAE
330
21AA3
100
AcDbEntity
  8
0
 48
50.0
100
AcDbBlockBegin
  2
*D26
 70
     1
 10
0.0
 20
0.0
 30
0.0
  3
*D26
  1

  0
LINE
  5
25DBC
330
21AA3
100
AcDbEntity
  8
寸法
 62
     0
 48
50.0
370
    -2
100
AcDbLine
 10
10018.6
 20
8746.957947811552
 30
0.0
 11
10018.6
 21
9532.717574353636
 31
0.0
  0
LINE
  5
25DBD
330
21AA3
100
AcDbEntity
  8
寸法
 62
     0
 48
50.0
370
    -2
100
AcDbLine
 10
9895.600000000001
 20
8673.957947811551
 30
0.0
 11
9895.600000000001
 21
9532.717574353636
 31
0.0
  0
LINE
  5
25DBE
330
21AA3
100
AcDbEntity
  8
寸法
 62
     0
 48
50.0
370
    -2
100
AcDbLine
 10
9895.600000000001
 20
9472.717574353636
 30
0.0
 11
10018.6
 21
9472.717574353636
 31
0.0
  0
LINE
  5
25DBF
330
21AA3
100
AcDbEntity
  8
寸法
 62
     0
 48
50.0
370
    -2
100
AcDbLine
 10
10018.6
 20
9472.717574353636
 30
0.0
 11
10430.19188309204
 21
9472.717574353636
 31
0.0
  0
INSERT
  5
25DC0
330
21AA3
100
AcDbEntity
  8
寸法
 62
     0
 48
50.0
370
    -2
100
AcDbBlockReference
  2
_DOTSMALL
 10
9895.600000000001
 20
9472.717574353636
 30
0.0
 41
100.0
 42
100.0
 43
100.0
 50
180.0
  0
INSERT
  5
25DC1
330
21AA3
100
AcDbEntity
  8
寸法
 62
     0
 48
50.0
370
    -2
100
AcDbBlockReference
  2
_DOTSMALL
 10
10018.6
 20
9472.717574353636
 30
0.0
 41
100.0
 42
100.0
 43
100.0
  0
MTEXT
  5
25DC2
330
21AA3
100
AcDbEntity
  8
寸法
 62
     7
 48
50.0
100
AcDbMText
 10
10291.7066017178
 20
9572.729385377257
 30
0.0
 40
120.0
 41
0.0
 71
     5
 72
     1
  1
\A1;123
  7
STYLE1
 73
     1
 44
1.0
1001
ACAD
1000
MTEXTBEGIN
1070
    73
1070
     1
1070
    44
1040
1.0
1070
    74
1070
     0
1000
MTEXTEND
  0
POINT
  5
25DC3
330
21AA3
100
AcDbEntity
  8
DEFPOINTS
 62
     0
 48
50.0
100
AcDbPoint
 10
10018.6
 20
8726.957947811552
 30
0.0
  0
POINT
  5
25DC4
330
21AA3
100
AcDbEntity
  8
DEFPOINTS
 62
     0
 48
50.0
100
AcDbPoint
 10
9895.600000000001
 20
8653.957947811553
 30
0.0
  0
POINT
  5
25DC5
330
21AA3
100
AcDbEntity
  8
DEFPOINTS
 62
     0
 48
50.0
100
AcDbPoint
 10
9895.600000000001
 20
9472.717574353636
 30
0.0
  0
ENDBLK
  5
21AAF
330
21AA3
100
AcDbEntity
  8
0
 48
50.0
100
AcDbBlockEnd
  0
BLOCK
  5
21ABB
330
21AB0
100
AcDbEntity
  8
0
 48
50.0
100
AcDbBlockBegin
  2
*D27
 70
     1
 10
0.0
 20
0.0
 30
0.0
  3
*D27
  1

  0
LINE
  5
25DB2
330
21AB0
100
AcDbEntity
  8
寸法
 62
     0
 48
50.0
370
    -2
100
AcDbLine
 10
10018.6
 20
8476.957947811552
 30
0.0
 11
10018.6
 21
8161.066703136828
 31
0.0
  0
LINE
  5
25DB3
330
21AB0
100
AcDbEntity
  8
寸法
 62
     0
 48
50.0
370
    -2
100
AcDbLine
 10
9898.600000000001
 20
8476.957947811554
 30
0.0
 11
9898.600000000001
 21
8161.066703136828
 31
0.0
  0
LINE
  5
25DB4
330
21AB0
100
AcDbEntity
  8
寸法
 62
     0
 48
50.0
370
    -2
100
AcDbLine
 10
9898.600000000001
 20
8221.066703136829
 30
0.0
 11
10018.6
 21
8221.066703136829
 31
0.0
  0
LINE
  5
25DB5
330
21AB0
100
AcDbEntity
  8
寸法
 62
     0
 48
50.0
370
    -2
100
AcDbLine
 10
10018.6
 20
8221.066703136829
 30
0.0
 11
10424.7062992126
 21
8221.066703136829
 31
0.0
  0
INSERT
  5
25DB6
330
21AB0
100
AcDbEntity
  8
寸法
 62
     0
 48
50.0
370
    -2
100
AcDbBlockReference
  2
_DOTSMALL
 10
9898.600000000001
 20
8221.066703136829
 30
0.0
 41
100.0
 42
100.0
 43
100.0
 50
180.0
  0
INSERT
  5
25DB7
330
21AB0
100
AcDbEntity
  8
寸法
 62
     0
 48
50.0
370
    -2
100
AcDbBlockReference
  2
_DOTSMALL
 10
10018.6
 20
8221.066703136829
 30
0.0
 41
100.0
 42
100.0
 43
100.0
  0
MTEXT
  5
25DB8
330
21AB0
100
AcDbEntity
  8
寸法
 62
     7
 48
50.0
100
AcDbMText
 10
10288.65905511811
 20
8321.078514160451
 30
0.0
 40
120.0
 41
0.0
 71
     5
 72
     1
  1
\A1;120
  7
STYLE1
 73
     1
 44
1.0
1001
ACAD
1000
MTEXTBEGIN
1070
    73
1070
     1
1070
    44
1040
1.0
1070
    74
1070
     0
1000
MTEXTEND
  0
POINT
  5
25DB9
330
21AB0
100
AcDbEntity
  8
DEFPOINTS
 62
     0
 48
50.0
100
AcDbPoint
 10
10018.6
 20
8496.957947811552
 30
0.0
  0
POINT
  5
25DBA
330
21AB0
100
AcDbEntity
  8
DEFPOINTS
 62
     0
 48
50.0
100
AcDbPoint
 10
9898.600000000001
 20
8496.957947811553
 30
0.0
  0
POINT
  5
25DBB
330
21AB0
100
AcDbEntity
  8
DEFPOINTS
 62
     0
 48
50.0
100
AcDbPoint
 10
9898.600000000001
 20
8221.066703136829
 30
0.0
  0
ENDBLK
  5
21ABC
330
21AB0
100
AcDbEntity
  8
0
 48
50.0
100
AcDbBlockEnd
  0
BLOCK
  5
21AED
330
21AE2
100
AcDbEntity
  8
0
 48
50.0
100
AcDbBlockBegin
  2
*D28
 70
     1
 10
0.0
 20
0.0
 30
0.0
  3
*D28
  1

  0
LINE
  5
25E40
330
21AE2
100
AcDbEntity
  8
寸法
 62
     0
 48
50.0
370
    -2
100
AcDbLine
 10
6481.600000000007
 20
5789.957947811554
 30
0.0
 11
5872.657733986179
 21
5789.957947811554
 31
0.0
  0
LINE
  5
25E41
330
21AE2
100
AcDbEntity
  8
寸法
 62
     0
 48
50.0
370
    -2
100
AcDbLine
 10
6408.599999999999
 20
5666.957947811552
 30
0.0
 11
5872.657733986179
 21
5666.957947811553
 31
0.0
  0
LINE
  5
25E42
330
21AE2
100
AcDbEntity
  8
寸法
 62
     0
 48
50.0
370
    -2
100
AcDbLine
 10
5932.657733986179
 20
5789.957947811554
 30
0.0
 11
5932.657733986179
 21
5666.957947811553
 31
0.0
  0
LINE
  5
25E43
330
21AE2
100
AcDbEntity
  8
寸法
 62
     0
 48
50.0
370
    -2
100
AcDbLine
 10
5932.657733986179
 20
5666.957947811553
 30
0.0
 11
5932.657733986179
 21
5192.94171759472
 31
0.0
  0
INSERT
  5
25E44
330
21AE2
100
AcDbEntity
  8
寸法
 62
     0
 48
50.0
370
    -2
100
AcDbBlockReference
  2
_DOTSMALL
 10
5932.657733986179
 20
5789.957947811554
 30
0.0
 41
100.0
 42
100.0
 43
100.0
 50
90.0
  0
INSERT
  5
25E45
330
21AE2
100
AcDbEntity
  8
寸法
 62
     0
 48
50.0
370
    -2
100
AcDbBlockReference
  2
_DOTSMALL
 10
5932.657733986179
 20
5666.957947811553
 30
0.0
 41
100.0
 42
100.0
 43
100.0
 50
270.0
  0
MTEXT
  5
25E46
330
21AE2
100
AcDbEntity
  8
寸法
 62
     7
 48
50.0
100
AcDbMText
 10
5832.645922962556
 20
5331.42699896896
 30
0.0
 40
120.0
 41
0.0
 71
     5
 72
     1
  1
\A1;123
  7
STYLE1
 11
0.0000000000000001
 21
1.0
 31
0.0
 73
     1
 44
1.0
1001
ACAD
1000
MTEXTBEGIN
1070
    73
1070
     1
1070
    44
1040
1.0
1070
    74
1070
     0
1000
MTEXTEND
  0
POINT
  5
25E47
330
21AE2
100
AcDbEntity
  8
DEFPOINTS
 62
     0
 48
50.0
100
AcDbPoint
 10
6501.600000000007
 20
5789.957947811554
 30
0.0
  0
POINT
  5
25E48
330
21AE2
100
AcDbEntity
  8
DEFPOINTS
 62
     0
 48
50.0
100
AcDbPoint
 10
6428.6
 20
5666.957947811552
 30
0.0
  0
POINT
  5
25E49
330
21AE2
100
AcDbEntity
  8
DEFPOINTS
 62
     0
 48
50.0
100
AcDbPoint
 10
5932.657733986179
 20
5666.957947811553
 30
0.0
  0
ENDBLK
  5
21AEE
330
21AE2
100
AcDbEntity
  8
0
 48
50.0
100
AcDbBlockEnd
  0
BLOCK
  5
21AF7
330
21AEF
100
AcDbEntity
  8
0
 48
50.0
100
AcDbBlockBegin
  2
*D29
 70
     1
 10
0.0
 20
0.0
 30
0.0
  3
*D29
  1

  0
LINE
  5
25E37
330
21AEF
100
AcDbEntity
  8
寸法
 62
     0
 48
50.0
370
    -2
100
AcDbLine
 10
8235.600000000001
 20
5916.95794781157
 30
0.0
 11
8235.600000000001
 21
6129.190527259598
 31
0.0
  0
LINE
  5
25E38
330
21AEF
100
AcDbEntity
  8
寸法
 62
     0
 48
50.0
370
    -2
100
AcDbLine
 10
7975.6
 20
5916.95794781157
 30
0.0
 11
7975.6
 21
6129.190527259598
 31
0.0
  0
LINE
  5
25E39
330
21AEF
100
AcDbEntity
  8
寸法
 62
     0
 48
50.0
370
    -2
100
AcDbLine
 10
8235.600000000001
 20
6069.190527259598
 30
0.0
 11
7975.6
 21
6069.190527259598
 31
0.0
  0
INSERT
  5
25E3A
330
21AEF
100
AcDbEntity
  8
寸法
 62
     0
 48
50.0
370
    -2
100
AcDbBlockReference
  2
_DOTSMALL
 10
8235.600000000001
 20
6069.190527259598
 30
0.0
 41
100.0
 42
100.0
 43
100.0
  0
INSERT
  5
25E3B
330
21AEF
100
AcDbEntity
  8
寸法
 62
     0
 48
50.0
370
    -2
100
AcDbBlockReference
  2
_DOTSMALL
 10
7975.6
 20
6069.190527259598
 30
0.0
 41
100.0
 42
100.0
 43
100.0
 50
180.0
  0
MTEXT
  5
25E3C
330
21AEF
100
AcDbEntity
  8
寸法
 62
     7
 48
50.0
100
AcDbMText
 10
8105.6
 20
6169.20233828322
 30
0.0
 40
120.0
 41
0.0
 71
     5
 72
     1
  1
\A1;260
  7
STYLE1
 73
     1
 44
1.0
1001
ACAD
1000
MTEXTBEGIN
1070
    73
1070
     1
1070
    44
1040
1.0
1070
    74
1070
     0
1000
MTEXTEND
  0
POINT
  5
25E3D
330
21AEF
100
AcDbEntity
  8
DEFPOINTS
 62
     0
 48
50.0
100
AcDbPoint
 10
8235.600000000001
 20
5896.957947811571
 30
0.0
  0
POINT
  5
25E3E
330
21AEF
100
AcDbEntity
  8
DEFPOINTS
 62
     0
 48
50.0
100
AcDbPoint
 10
7975.6
 20
5896.957947811571
 30
0.0
  0
POINT
  5
25E3F
330
21AEF
100
AcDbEntity
  8
DEFPOINTS
 62
     0
 48
50.0
100
AcDbPoint
 10
7975.6
 20
6069.190527259598
 30
0.0
  0
ENDBLK
  5
21AF8
330
21AEF
100
AcDbEntity
  8
0
 48
50.0
100
AcDbBlockEnd
  0
BLOCK
  5
24B7F
330
24B75
100
AcDbEntity
  8
0
 48
50.0
100
AcDbBlockBegin
  2
*D30
 70
     1
 10
0.0
 20
0.0
 30
0.0
  3
*D30
  1

  0
LINE
  5
25DA9
330
24B75
100
AcDbEntity
  8
寸法
 62
     0
 48
50.0
370
    -2
100
AcDbLine
 10
8998.600000000006
 20
7196.957947811546
 30
0.0
 11
8858.973698583076
 21
7196.957947811546
 31
0.0
  0
LINE
  5
25DAA
330
24B75
100
AcDbEntity
  8
寸法
 62
     0
 48
50.0
370
    -2
100
AcDbLine
 10
8998.600000000006
 20
6396.957947811562
 30
0.0
 11
8858.973698583076
 21
6396.957947811562
 31
0.0
  0
LINE
  5
25DAB
330
24B75
100
AcDbEntity
  8
寸法
 62
     0
 48
50.0
370
    -2
100
AcDbLine
 10
8918.973698583075
 20
7196.957947811546
 30
0.0
 11
8918.973698583075
 21
6396.957947811562
 31
0.0
  0
INSERT
  5
25DAC
330
24B75
100
AcDbEntity
  8
寸法
 62
     0
 48
50.0
370
    -2
100
AcDbBlockReference
  2
_DOTSMALL
 10
8918.973698583075
 20
7196.957947811546
 30
0.0
 41
100.0
 42
100.0
 43
100.0
 50
90.0
  0
INSERT
  5
25DAD
330
24B75
100
AcDbEntity
  8
寸法
 62
     0
 48
50.0
370
    -2
100
AcDbBlockReference
  2
_DOTSMALL
 10
8918.973698583075
 20
6396.957947811562
 30
0.0
 41
100.0
 42
100.0
 43
100.0
 50
270.0
  0
MTEXT
  5
25DAE
330
24B75
100
AcDbEntity
  8
寸法
 62
     7
 48
50.0
100
AcDbMText
 10
8818.973698583073
 20
6796.957947811555
 30
0.0
 40
120.0
 41
0.0
 71
     5
 72
     1
  1
\A1;800
  7
STYLE1
 11
0.0000000000000001
 21
1.0
 31
0.0
 73
     1
 44
1.0
1001
ACAD
1000
MTEXTBEGIN
1070
    73
1070
     1
1070
    44
1040
1.0
1070
    74
1070
     0
1000
MTEXTEND
  0
POINT
  5
25DAF
330
24B75
100
AcDbEntity
  8
DEFPOINTS
 62
     0
 48
50.0
100
AcDbPoint
 10
9018.600000000006
 20
7196.957947811546
 30
0.0
  0
POINT
  5
25DB0
330
24B75
100
AcDbEntity
  8
DEFPOINTS
 62
     0
 48
50.0
100
AcDbPoint
 10
9018.600000000006
 20
6396.957947811562
 30
0.0
  0
POINT
  5
25DB1
330
24B75
100
AcDbEntity
  8
DEFPOINTS
 62
     0
 48
50.0
100
AcDbPoint
 10
8918.973698583075
 20
6396.957947811562
 30
0.0
  0
ENDBLK
  5
24B80
330
24B75
100
AcDbEntity
  8
0
 48
50.0
100
AcDbBlockEnd
  0
BLOCK
  5
24D0B
330
24CFF
100
AcDbEntity
  8
0
 48
50.0
100
AcDbBlockBegin
  2
*D31
 70
     1
 10
0.0
 20
0.0
 30
0.0
  3
*D31
  1

  0
LINE
  5
25D9F
330
24CFF
100
AcDbEntity
  8
寸法
 62
     0
 48
50.0
370
    -2
100
AcDbLine
 10
6678.6
 20
5786.957947811558
 30
0.0
 11
6961.96183728971
 21
5786.957947811558
 31
0.0
  0
LINE
  5
25DA0
330
24CFF
100
AcDbEntity
  8
寸法
 62
     0
 48
50.0
370
    -2
100
AcDbLine
 10
6678.600000000002
 20
5591.957947811543
 30
0.0
 11
6961.96183728971
 21
5591.957947811543
 31
0.0
  0
LINE
  5
25DA1
330
24CFF
100
AcDbEntity
  8
寸法
 62
     0
 48
50.0
370
    -2
100
AcDbLine
 10
6901.96183728971
 20
5786.957947811558
 30
0.0
 11
6901.96183728971
 21
5591.957947811543
 31
0.0
  0
LINE
  5
25DA2
330
24CFF
100
AcDbEntity
  8
寸法
 62
     0
 48
50.0
370
    -2
100
AcDbLine
 10
6901.96183728971
 20
5591.957947811543
 30
0.0
 11
6901.96183728971
 21
5214.568065403753
 31
0.0
  0
INSERT
  5
25DA3
330
24CFF
100
AcDbEntity
  8
寸法
 62
     0
 48
50.0
370
    -2
100
AcDbBlockReference
  2
_DOTSMALL
 10
6901.96183728971
 20
5786.957947811558
 30
0.0
 41
100.0
 42
100.0
 43
100.0
 50
90.0
  0
INSERT
  5
25DA4
330
24CFF
100
AcDbEntity
  8
寸法
 62
     0
 48
50.0
370
    -2
100
AcDbBlockReference
  2
_DOTSMALL
 10
6901.96183728971
 20
5591.957947811543
 30
0.0
 41
100.0
 42
100.0
 43
100.0
 50
270.0
  0
MTEXT
  5
25DA5
330
24CFF
100
AcDbEntity
  8
寸法
 62
     7
 48
50.0
100
AcDbMText
 10
6801.961837289709
 20
5353.26300660765
 30
0.0
 40
120.0
 41
0.0
 71
     5
 72
     1
  1
\A1;195
  7
STYLE1
 11
0.0000000000000001
 21
1.0
 31
0.0
 73
     1
 44
1.0
1001
ACAD
1000
MTEXTBEGIN
1070
    73
1070
     1
1070
    44
1040
1.0
1070
    74
1070
     0
1000
MTEXTEND
  0
POINT
  5
25DA6
330
24CFF
100
AcDbEntity
  8
DEFPOINTS
 62
     0
 48
50.0
100
AcDbPoint
 10
6658.599999999999
 20
5786.957947811558
 30
0.0
  0
POINT
  5
25DA7
330
24CFF
100
AcDbEntity
  8
DEFPOINTS
 62
     0
 48
50.0
100
AcDbPoint
 10
6658.600000000001
 20
5591.957947811543
 30
0.0
  0
POINT
  5
25DA8
330
24CFF
100
AcDbEntity
  8
DEFPOINTS
 62
     0
 48
50.0
100
AcDbPoint
 10
6901.96183728971
 20
5591.957947811543
 30
0.0
  0
ENDBLK
  5
24D0C
330
24CFF
100
AcDbEntity
  8
0
 48
50.0
100
AcDbBlockEnd
  0
BLOCK
  5
250B4
330
250A8
100
AcDbEntity
  8
0
 48
50.0
100
AcDbBlockBegin
  2
*D32
 70
     1
 10
0.0
 20
0.0
 30
0.0
  3
*D32
  1

  0
LINE
  5
25D94
330
250A8
100
AcDbEntity
  8
寸法
 62
     0
 48
50.0
370
    -2
100
AcDbLine
 10
6408.599999999999
 20
5591.957947811575
 30
0.0
 11
6132.312481891147
 21
5591.957947811576
 31
0.0
  0
LINE
  5
25D95
330
250A8
100
AcDbEntity
  8
寸法
 62
     0
 48
50.0
370
    -2
100
AcDbLine
 10
6408.600000000008
 20
5666.957947811576
 30
0.0
 11
6132.312481891147
 21
5666.957947811578
 31
0.0
  0
LINE
  5
25D96
330
250A8
100
AcDbEntity
  8
寸法
 62
     0
 48
50.0
370
    -2
100
AcDbLine
 10
6192.312481891146
 20
5666.957947811576
 30
0.0
 11
6192.312481891146
 21
5766.957947811576
 31
0.0
  0
LINE
  5
25D97
330
250A8
100
AcDbEntity
  8
寸法
 62
     0
 48
50.0
370
    -2
100
AcDbLine
 10
6192.312481891146
 20
5591.957947811575
 30
0.0
 11
6192.312481891146
 21
4724.987385063097
 31
0.0
  0
LINE
  5
25D98
330
250A8
100
AcDbEntity
  8
寸法
 62
     0
 48
50.0
370
    -2
100
AcDbLine
 10
6192.312481891146
 20
5666.957947811576
 30
0.0
 11
6192.312481891146
 21
5591.957947811575
 31
0.0
  0
INSERT
  5
25D99
330
250A8
100
AcDbEntity
  8
寸法
 62
     0
 48
50.0
370
    -2
100
AcDbBlockReference
  2
_DOTSMALL
 10
6192.312481891146
 20
5666.957947811576
 30
0.0
 41
100.0
 42
100.0
 43
100.0
 50
270.0
  0
INSERT
  5
25D9A
330
250A8
100
AcDbEntity
  8
寸法
 62
     0
 48
50.0
370
    -2
100
AcDbBlockReference
  2
_DOTSMALL
 10
6192.312481891146
 20
5591.957947811575
 30
0.0
 41
100.0
 42
100.0
 43
100.0
 50
90.0
  0
MTEXT
  5
25D9B
330
250A8
100
AcDbEntity
  8
寸法
 62
     7
 48
50.0
100
AcDbMText
 10
6092.312481891145
 20
5058.472666437338
 30
0.0
 40
120.0
 41
0.0
 71
     5
 72
     1
  1
\A1;扉の出75
  7
STYLE1
 11
0.0000000000000001
 21
1.0
 31
0.0
 73
     1
 44
1.0
1001
ACAD
1000
MTEXTBEGIN
1070
    73
1070
     1
1070
    44
1040
1.0
1070
    74
1070
     0
1000
MTEXTEND
  0
POINT
  5
25D9C
330
250A8
100
AcDbEntity
  8
DEFPOINTS
 62
     0
 48
50.0
100
AcDbPoint
 10
6428.6
 20
5591.957947811575
 30
0.0
  0
POINT
  5
25D9D
330
250A8
100
AcDbEntity
  8
DEFPOINTS
 62
     0
 48
50.0
100
AcDbPoint
 10
6428.600000000007
 20
5666.957947811576
 30
0.0
  0
POINT
  5
25D9E
330
250A8
100
AcDbEntity
  8
DEFPOINTS
 62
     0
 48
50.0
100
AcDbPoint
 10
6192.312481891146
 20
5666.957947811576
 30
0.0
  0
ENDBLK
  5
250B5
330
250A8
100
AcDbEntity
  8
0
 48
50.0
100
AcDbBlockEnd
  0
BLOCK
  5
25CD2
330
25CC8
100
AcDbEntity
  8
0
 48
50.0
100
AcDbBlockBegin
  2
*D33
 70
     1
 10
0.0
 20
0.0
 30
0.0
  3
*D33
  1

  0
LINE
  5
25D70
330
25CC8
100
AcDbEntity
  8
寸法
 62
     0
 48
50.0
370
    -2
100
AcDbLine
 10
5663.305445523475
 20
795.7015029406216
 30
0.0
 11
5663.305445523475
 21
456.7493964846885
 31
0.0
  0
LINE
  5
25D71
330
25CC8
100
AcDbEntity
  8
寸法
 62
     0
 48
50.0
370
    -2
100
AcDbLine
 10
6223.305445523476
 20
795.7015029406216
 30
0.0
 11
6223.305445523476
 21
456.7493964846885
 31
0.0
  0
LINE
  5
25D72
330
25CC8
100
AcDbEntity
  8
寸法
 62
     0
 48
50.0
370
    -2
100
AcDbLine
 10
5663.305445523475
 20
516.7493964846885
 30
0.0
 11
6223.305445523476
 21
516.7493964846885
 31
0.0
  0
INSERT
  5
25D73
330
25CC8
100
AcDbEntity
  8
寸法
 62
     0
 48
50.0
370
    -2
100
AcDbBlockReference
  2
_DOTSMALL
 10
5663.305445523475
 20
516.7493964846885
 30
0.0
 41
100.0
 42
100.0
 43
100.0
 50
180.0
  0
INSERT
  5
25D74
330
25CC8
100
AcDbEntity
  8
寸法
 62
     0
 48
50.0
370
    -2
100
AcDbBlockReference
  2
_DOTSMALL
 10
6223.305445523476
 20
516.7493964846885
 30
0.0
 41
100.0
 42
100.0
 43
100.0
  0
MTEXT
  5
25D75
330
25CC8
100
AcDbEntity
  8
寸法
 62
     7
 48
50.0
100
AcDbMText
 10
5943.305445523475
 20
616.7493964846885
 30
0.0
 40
120.0
 41
0.0
 71
     5
 72
     1
  1
\A1;300
  7
STYLE1
 73
     1
 44
1.0
1001
ACAD
1000
MTEXTBEGIN
1070
    73
1070
     1
1070
    44
1040
1.0
1070
    74
1070
     0
1000
MTEXTEND
  0
POINT
  5
25D76
330
25CC8
100
AcDbEntity
  8
DEFPOINTS
 62
     0
 48
50.0
100
AcDbPoint
 10
5663.305445523475
 20
815.7015029406215
 30
0.0
  0
POINT
  5
25D77
330
25CC8
100
AcDbEntity
  8
DEFPOINTS
 62
     0
 48
50.0
100
AcDbPoint
 10
6223.305445523476
 20
815.7015029406215
 30
0.0
  0
POINT
  5
25D78
330
25CC8
100
AcDbEntity
  8
DEFPOINTS
 62
     0
 48
50.0
100
AcDbPoint
 10
6223.305445523476
 20
516.7493964846885
 30
0.0
  0
ENDBLK
  5
25CD3
330
25CC8
100
AcDbEntity
  8
0
 48
50.0
100
AcDbBlockEnd
  0
BLOCK
  5
25CDD
330
25CD4
100
AcDbEntity
  8
0
 48
50.0
100
AcDbBlockBegin
  2
*D34
 70
     1
 10
0.0
 20
0.0
 30
0.0
  3
*D34
  1

  0
LINE
  5
25D67
330
25CD4
100
AcDbEntity
  8
寸法
 62
     0
 48
50.0
370
    -2
100
AcDbLine
 10
8485.854586994967
 20
1955.701502940623
 30
0.0
 11
9153.190336706026
 21
1955.701502940623
 31
0.0
  0
LINE
  5
25D68
330
25CD4
100
AcDbEntity
  8
寸法
 62
     0
 48
50.0
370
    -2
100
AcDbLine
 10
8485.854586994967
 20
1550.70150294062
 30
0.0
 11
9153.190336706026
 21
1550.70150294062
 31
0.0
  0
LINE
  5
25D69
330
25CD4
100
AcDbEntity
  8
寸法
 62
     0
 48
50.0
370
    -2
100
AcDbLine
 10
9093.190336706026
 20
1955.701502940623
 30
0.0
 11
9093.190336706026
 21
1550.70150294062
 31
0.0
  0
INSERT
  5
25D6A
330
25CD4
100
AcDbEntity
  8
寸法
 62
     0
 48
50.0
370
    -2
100
AcDbBlockReference
  2
_DOTSMALL
 10
9093.190336706026
 20
1955.701502940623
 30
0.0
 41
100.0
 42
100.0
 43
100.0
 50
90.0
  0
INSERT
  5
25D6B
330
25CD4
100
AcDbEntity
  8
寸法
 62
     0
 48
50.0
370
    -2
100
AcDbBlockReference
  2
_DOTSMALL
 10
9093.190336706026
 20
1550.70150294062
 30
0.0
 41
100.0
 42
100.0
 43
100.0
 50
270.0
  0
MTEXT
  5
25D6C
330
25CD4
100
AcDbEntity
  8
寸法
 62
     7
 48
50.0
100
AcDbMText
 10
8993.190336706026
 20
1753.201502940623
 30
0.0
 40
120.0
 41
0.0
 71
     5
 72
     1
  1
\A1;180
  7
STYLE1
 11
0.0000000000000001
 21
1.0
 31
0.0
 73
     1
 44
1.0
1001
ACAD
1000
MTEXTBEGIN
1070
    73
1070
     1
1070
    44
1040
1.0
1070
    74
1070
     0
1000
MTEXTEND
  0
POINT
  5
25D6D
330
25CD4
100
AcDbEntity
  8
DEFPOINTS
 62
     0
 48
50.0
100
AcDbPoint
 10
8465.85458699497
 20
1955.701502940623
 30
0.0
  0
POINT
  5
25D6E
330
25CD4
100
AcDbEntity
  8
DEFPOINTS
 62
     0
 48
50.0
100
AcDbPoint
 10
8465.85458699497
 20
1550.70150294062
 30
0.0
  0
POINT
  5
25D6F
330
25CD4
100
AcDbEntity
  8
DEFPOINTS
 62
     0
 48
50.0
100
AcDbPoint
 10
9093.190336706026
 20
1550.70150294062
 30
0.0
  0
ENDBLK
  5
25CDE
330
25CD4
100
AcDbEntity
  8
0
 48
50.0
100
AcDbBlockEnd
  0
BLOCK
  5
25CEB
330
25CDF
100
AcDbEntity
  8
0
 48
50.0
100
AcDbBlockBegin
  2
*D35
 70
     1
 10
0.0
 20
0.0
 30
0.0
  3
*D35
  1

  0
LINE
  5
25D5C
330
25CDF
100
AcDbEntity
  8
寸法
 62
     0
 48
50.0
370
    -2
100
AcDbLine
 10
8251.854586994969
 20
2021.651502940622
 30
0.0
 11
9498.258669354807
 21
2021.651502940622
 31
0.0
  0
LINE
  5
25D5D
330
25CDF
100
AcDbEntity
  8
寸法
 62
     0
 48
50.0
370
    -2
100
AcDbLine
 10
8485.854586994967
 20
1955.701502940623
 30
0.0
 11
9498.258669354807
 21
1955.701502940623
 31
0.0
  0
LINE
  5
25D5E
330
25CDF
100
AcDbEntity
  8
寸法
 62
     0
 48
50.0
370
    -2
100
AcDbLine
 10
9438.258669354807
 20
2021.651502940622
 30
0.0
 11
9438.258669354807
 21
2121.651502940621
 31
0.0
  0
LINE
  5
25D5F
330
25CDF
100
AcDbEntity
  8
寸法
 62
     0
 48
50.0
370
    -2
100
AcDbLine
 10
9438.258669354807
 20
1955.701502940623
 30
0.0
 11
9438.258669354807
 21
1223.683696097658
 31
0.0
  0
LINE
  5
25D60
330
25CDF
100
AcDbEntity
  8
寸法
 62
     0
 48
50.0
370
    -2
100
AcDbLine
 10
9438.258669354807
 20
2021.651502940622
 30
0.0
 11
9438.258669354807
 21
1955.701502940623
 31
0.0
  0
INSERT
  5
25D61
330
25CDF
100
AcDbEntity
  8
寸法
 62
     0
 48
50.0
370
    -2
100
AcDbBlockReference
  2
_DOTSMALL
 10
9438.258669354807
 20
2021.651502940622
 30
0.0
 41
100.0
 42
100.0
 43
100.0
 50
270.0
  0
INSERT
  5
25D62
330
25CDF
100
AcDbEntity
  8
寸法
 62
     0
 48
50.0
370
    -2
100
AcDbBlockReference
  2
_DOTSMALL
 10
9438.258669354807
 20
1955.701502940623
 30
0.0
 41
100.0
 42
100.0
 43
100.0
 50
90.0
  0
MTEXT
  5
25D63
330
25CDF
100
AcDbEntity
  8
寸法
 62
     7
 48
50.0
100
AcDbMText
 10
9338.246858331187
 20
1489.692599519141
 30
0.0
 40
120.0
 41
0.0
 71
     5
 72
     1
  1
\A1;20～25
  7
STYLE1
 11
0.0000000000000001
 21
1.0
 31
0.0
 73
     1
 44
1.0
1001
ACAD
1000
MTEXTBEGIN
1070
    73
1070
     1
1070
    44
1040
1.0
1070
    74
1070
     0
1000
MTEXTEND
  0
POINT
  5
25D64
330
25CDF
100
AcDbEntity
  8
DEFPOINTS
 62
     0
 48
50.0
100
AcDbPoint
 10
8231.854586994968
 20
2021.651502940622
 30
0.0
  0
POINT
  5
25D65
330
25CDF
100
AcDbEntity
  8
DEFPOINTS
 62
     0
 48
50.0
100
AcDbPoint
 10
8465.85458699497
 20
1955.701502940623
 30
0.0
  0
POINT
  5
25D66
330
25CDF
100
AcDbEntity
  8
DEFPOINTS
 62
     0
 48
50.0
100
AcDbPoint
 10
9438.258669354807
 20
1955.701502940623
 30
0.0
  0
ENDBLK
  5
25CEC
330
25CDF
100
AcDbEntity
  8
0
 48
50.0
100
AcDbBlockEnd
  0
BLOCK
  5
25CF7
330
25CED
100
AcDbEntity
  8
0
 48
50.0
100
AcDbBlockBegin
  2
*D36
 70
     1
 10
0.0
 20
0.0
 30
0.0
  3
*D36
  1

  0
LINE
  5
25D8B
330
25CED
100
AcDbEntity
  8
寸法
 62
     0
 48
50.0
370
    -2
100
AcDbLine
 10
6063.305445523476
 20
1975.701502940623
 30
0.0
 11
6063.305445523476
 21
2540.286262836098
 31
0.0
  0
LINE
  5
25D8C
330
25CED
100
AcDbEntity
  8
寸法
 62
     0
 48
50.0
370
    -2
100
AcDbLine
 10
5823.305445523477
 20
1975.701502940623
 30
0.0
 11
5823.305445523477
 21
2540.286262836098
 31
0.0
  0
LINE
  5
25D8D
330
25CED
100
AcDbEntity
  8
寸法
 62
     0
 48
50.0
370
    -2
100
AcDbLine
 10
6063.305445523476
 20
2480.286262836098
 30
0.0
 11
5823.305445523477
 21
2480.286262836098
 31
0.0
  0
INSERT
  5
25D8E
330
25CED
100
AcDbEntity
  8
寸法
 62
     0
 48
50.0
370
    -2
100
AcDbBlockReference
  2
_DOTSMALL
 10
6063.305445523476
 20
2480.286262836098
 30
0.0
 41
100.0
 42
100.0
 43
100.0
  0
INSERT
  5
25D8F
330
25CED
100
AcDbEntity
  8
寸法
 62
     0
 48
50.0
370
    -2
100
AcDbBlockReference
  2
_DOTSMALL
 10
5823.305445523477
 20
2480.286262836098
 30
0.0
 41
100.0
 42
100.0
 43
100.0
 50
180.0
  0
MTEXT
  5
25D90
330
25CED
100
AcDbEntity
  8
寸法
 62
     7
 48
50.0
100
AcDbMText
 10
5943.305445523476
 20
2686.327075400902
 30
0.0
 40
120.0
 41
0.0
 71
     5
 72
     1
  1
\A1;120\P(195)
  7
STYLE1
 73
     1
 44
1.0
1001
ACAD
1000
MTEXTBEGIN
1070
    73
1070
     1
1070
    44
1040
1.0
1070
    74
1070
     0
1000
MTEXTEND
  0
POINT
  5
25D91
330
25CED
100
AcDbEntity
  8
DEFPOINTS
 62
     0
 48
50.0
100
AcDbPoint
 10
6063.305445523476
 20
1955.701502940623
 30
0.0
  0
POINT
  5
25D92
330
25CED
100
AcDbEntity
  8
DEFPOINTS
 62
     0
 48
50.0
100
AcDbPoint
 10
5823.305445523477
 20
1955.701502940623
 30
0.0
  0
POINT
  5
25D93
330
25CED
100
AcDbEntity
  8
DEFPOINTS
 62
     0
 48
50.0
100
AcDbPoint
 10
5823.305445523477
 20
2480.286262836098
 30
0.0
  0
ENDBLK
  5
25CF8
330
25CED
100
AcDbEntity
  8
0
 48
50.0
100
AcDbBlockEnd
  0
BLOCK
  5
25D03
330
25CF9
100
AcDbEntity
  8
0
 48
50.0
100
AcDbBlockBegin
  2
*D37
 70
     1
 10
0.0
 20
0.0
 30
0.0
  3
*D37
  1

  0
LINE
  5
25D82
330
25CF9
100
AcDbEntity
  8
寸法
 62
     0
 48
50.0
370
    -2
100
AcDbLine
 10
5643.305445523475
 20
1275.701502940621
 30
0.0
 11
5425.280053357901
 21
1275.701502940621
 31
0.0
  0
LINE
  5
25D83
330
25CF9
100
AcDbEntity
  8
寸法
 62
     0
 48
50.0
370
    -2
100
AcDbLine
 10
5543.305445523479
 20
975.7015029406217
 30
0.0
 11
5425.280053357901
 21
975.7015029406217
 31
0.0
  0
LINE
  5
25D84
330
25CF9
100
AcDbEntity
  8
寸法
 62
     0
 48
50.0
370
    -2
100
AcDbLine
 10
5485.280053357901
 20
1275.701502940621
 30
0.0
 11
5485.280053357901
 21
975.7015029406217
 31
0.0
  0
INSERT
  5
25D85
330
25CF9
100
AcDbEntity
  8
寸法
 62
     0
 48
50.0
370
    -2
100
AcDbBlockReference
  2
_DOTSMALL
 10
5485.280053357901
 20
1275.701502940621
 30
0.0
 41
100.0
 42
100.0
 43
100.0
 50
90.0
  0
INSERT
  5
25D86
330
25CF9
100
AcDbEntity
  8
寸法
 62
     0
 48
50.0
370
    -2
100
AcDbBlockReference
  2
_DOTSMALL
 10
5485.280053357901
 20
975.7015029406217
 30
0.0
 41
100.0
 42
100.0
 43
100.0
 50
270.0
  0
MTEXT
  5
25D87
330
25CF9
100
AcDbEntity
  8
寸法
 62
     7
 48
50.0
100
AcDbMText
 10
5385.280053357901
 20
1125.701502940621
 30
0.0
 40
120.0
 41
0.0
 71
     5
 72
     1
  1
\A1;150
  7
STYLE1
 11
0.0000000000000001
 21
1.0
 31
0.0
 73
     1
 44
1.0
1001
ACAD
1000
MTEXTBEGIN
1070
    73
1070
     1
1070
    44
1040
1.0
1070
    74
1070
     0
1000
MTEXTEND
  0
POINT
  5
25D88
330
25CF9
100
AcDbEntity
  8
DEFPOINTS
 62
     0
 48
50.0
100
AcDbPoint
 10
5663.305445523475
 20
1275.701502940621
 30
0.0
  0
POINT
  5
25D89
330
25CF9
100
AcDbEntity
  8
DEFPOINTS
 62
     0
 48
50.0
100
AcDbPoint
 10
5563.305445523479
 20
975.7015029406217
 30
0.0
  0
POINT
  5
25D8A
330
25CF9
100
AcDbEntity
  8
DEFPOINTS
 62
     0
 48
50.0
100
AcDbPoint
 10
5485.280053357901
 20
975.7015029406217
 30
0.0
  0
ENDBLK
  5
25D04
330
25CF9
100
AcDbEntity
  8
0
 48
50.0
100
AcDbBlockEnd
  0
BLOCK
  5
25D0F
330
25D05
100
AcDbEntity
  8
0
 48
50.0
100
AcDbBlockBegin
  2
*D38
 70
     1
 10
0.0
 20
0.0
 30
0.0
  3
*D38
  1

  0
LINE
  5
25D79
330
25D05
100
AcDbEntity
  8
寸法
 62
     0
 48
50.0
370
    -2
100
AcDbLine
 10
5803.305445523476
 20
1955.701502940623
 30
0.0
 11
5002.660507487411
 21
1955.701502940623
 31
0.0
  0
LINE
  5
25D7A
330
25D05
100
AcDbEntity
  8
寸法
 62
     0
 48
50.0
370
    -2
100
AcDbLine
 10
5543.305445523479
 20
975.7015029406217
 30
0.0
 11
5002.660507487411
 21
975.7015029406217
 31
0.0
  0
LINE
  5
25D7B
330
25D05
100
AcDbEntity
  8
寸法
 62
     0
 48
50.0
370
    -2
100
AcDbLine
 10
5062.660507487411
 20
1955.701502940623
 30
0.0
 11
5062.660507487411
 21
975.7015029406217
 31
0.0
  0
INSERT
  5
25D7C
330
25D05
100
AcDbEntity
  8
寸法
 62
     0
 48
50.0
370
    -2
100
AcDbBlockReference
  2
_DOTSMALL
 10
5062.660507487411
 20
1955.701502940623
 30
0.0
 41
100.0
 42
100.0
 43
100.0
 50
90.0
  0
INSERT
  5
25D7D
330
25D05
100
AcDbEntity
  8
寸法
 62
     0
 48
50.0
370
    -2
100
AcDbBlockReference
  2
_DOTSMALL
 10
5062.660507487411
 20
975.7015029406217
 30
0.0
 41
100.0
 42
100.0
 43
100.0
 50
270.0
  0
MTEXT
  5
25D7E
330
25D05
100
AcDbEntity
  8
寸法
 62
     7
 48
50.0
100
AcDbMText
 10
4962.660507487411
 20
1465.701502940622
 30
0.0
 40
120.0
 41
0.0
 71
     5
 72
     1
  1
\A1;540
  7
STYLE1
 11
0.0000000000000001
 21
1.0
 31
0.0
 73
     1
 44
1.0
1001
ACAD
1000
MTEXTBEGIN
1070
    73
1070
     1
1070
    44
1040
1.0
1070
    74
1070
     0
1000
MTEXTEND
  0
POINT
  5
25D7F
330
25D05
100
AcDbEntity
  8
DEFPOINTS
 62
     0
 48
50.0
100
AcDbPoint
 10
5823.305445523477
 20
1955.701502940623
 30
0.0
  0
POINT
  5
25D80
330
25D05
100
AcDbEntity
  8
DEFPOINTS
 62
     0
 48
50.0
100
AcDbPoint
 10
5563.305445523479
 20
975.7015029406217
 30
0.0
  0
POINT
  5
25D81
330
25D05
100
AcDbEntity
  8
DEFPOINTS
 62
     0
 48
50.0
100
AcDbPoint
 10
5062.660507487411
 20
975.7015029406217
 30
0.0
  0
ENDBLK
  5
25D10
330
25D05
100
AcDbEntity
  8
0
 48
50.0
100
AcDbBlockEnd
  0
ENDSEC
  0
SECTION
  2
ENTITIES
  0
MTEXT
  5
763F
330
747D
100
AcDbEntity
  8
0
100
AcDbMText
 10
302.846345836809
 20
280.1983726409901
 30
0.0
 40
3.5
 41
5.323721266742722
 71
     1
 72
     5
  1

  7
MSMINCHO
 73
     1
 44
1.0
1001
ACAD
1000
MTEXTBEGIN
1070
    73
1070
     1
1070
    44
1040
1.0
1070
    74
1070
     0
1000
MTEXTEND
  0
LINE
  5
10B57
330
747D
100
AcDbEntity
  8
補助
  6
PHANTOM
 62
   230
 48
50.0
100
AcDbLine
 10
139.9999999999995
 20
11409.6
 30
0.0
 11
16307.2
 21
11409.6
 31
0.0
  0
LINE
  5
10B59
330
747D
100
AcDbEntity
  8
仕様書枠
  6
Continuous
 48
50.0
100
AcDbLine
 10
13107.2
 20
1200.0
 30
0.0
 11
13107.2
 21
-0.0000000000000729
 31
0.0
  0
LINE
  5
10B5D
330
747D
100
AcDbEntity
  8
仕様書枠
 48
50.0
100
AcDbLine
 10
140.0
 20
0.0
 30
0.0
 11
16307.2
 21
-0.0000000000000909
 31
0.0
  0
LINE
  5
10B5E
330
747D
100
AcDbEntity
  8
補助
  6
PHANTOM
 62
   230
 48
50.0
100
AcDbLine
 10
16307.2
 20
11409.6
 30
0.0
 11
16307.2
 21
1200.0
 31
0.0
  0
LINE
  5
10B6C
330
747D
100
AcDbEntity
  8
仕様書枠
 48
50.0
100
AcDbLine
 10
13107.2
 20
1200.0
 30
0.0
 11
16307.2
 21
1200.0
 31
0.0
  0
TEXT
  5
10B73
330
747D
100
AcDbEntity
  8
文字
 62
     7
 48
50.0
100
AcDbText
 10
13162.9790565769
 20
895.0906074299405
 30
0.0
 40
200.0
  1
基 礎 図
  7
STYLE2
100
AcDbText
  0
LINE
  5
10B7B
330
747D
100
AcDbEntity
  8
仕様書枠
 48
50.0
100
AcDbLine
 10
13107.2
 20
800.0
 30
0.0
 11
14251.2
 21
800.0
 31
0.0
  0
LINE
  5
10B88
330
747D
100
AcDbEntity
  8
仕様書枠
  6
Continuous
 48
50.0
100
AcDbLine
 10
14251.2
 20
1200.0
 30
0.0
 11
14251.2
 21
800.0
 31
0.0
  0
LINE
  5
16462
330
747D
100
AcDbEntity
  8
仕様書枠
 48
50.0
100
AcDbLine
 10
16307.2
 20
1200.0
 30
0.0
 11
16307.2
 21
-0.0000000000000909
 31
0.0
  0
LINE
  5
1903B
330
747D
100
AcDbEntity
  8
補助
  6
PHANTOM
 62
   230
 48
50.0
100
AcDbLine
 10
140.0
 20
0.0
 30
0.0
 11
139.9999999999995
 21
11409.6
 31
0.0
  0
LEADER
  5
1AC27
330
747D
100
AcDbEntity
  8
寸法
 48
50.0
100
AcDbLeader
  3
INABA_S40G
 73
     0
 74
     0
 75
     1
 40
120.0
 41
720.0000000000001
 76
     3
 10
10018.69549961499
 20
7211.160118393362
 30
0.0
 10
10185.46907400128
 20
6935.146204825528
 30
0.0
 10
10285.46907400128
 20
6935.146204825528
 30
0.0
340
1AC28
1001
ACAD
1000
DSTYLE
1002
{
1070
   341
1005
0
1002
}
  0
MTEXT
  5
1AC28
102
{ACAD_REACTORS
330
1AC27
102
}
330
747D
100
AcDbEntity
  8
部品1
 62
     7
 48
50.0
100
AcDbMText
 10
11045.46907400128
 20
7035.146204825529
 30
0.0
 40
120.0
 41
0.0
 71
     6
 72
     1
  1
\A1;床下換気口
  7
STYLE1
 73
     1
 44
1.0
1001
ACAD
1000
MTEXTBEGIN
1070
    73
1070
     1
1070
    44
1040
1.0
1070
    74
1070
     0
1000
MTEXTEND
  0
TEXT
  5
1AC29
330
747D
100
AcDbEntity
  8
部品1
 48
50.0
100
AcDbText
 10
10362.50116389398
 20
5391.867046474761
 30
0.0
 40
80.0
  1
(a=45,b=55,c=75)
  7
STYLE1
100
AcDbText
  0
TEXT
  5
1AC2A
330
747D
100
AcDbEntity
  8
部品1
 48
50.0
100
AcDbText
 10
10203.92215513968
 20
5498.712267343515
 30
0.0
 40
80.0
  1
※a,b,cは屋根の出幅です。
  7
STYLE1
100
AcDbText
  0
MTEXT
  5
1AC2B
102
{ACAD_REACTORS
330
1AC2C
102
}
330
747D
100
AcDbEntity
  8
部品1
 62
     7
 48
50.0
100
AcDbMText
 10
11001.70935112828
 20
5678.02295427659
 30
0.0
 40
120.0
 41
0.0
 71
     6
 72
     1
  1
\A1;屋根の外寸
  7
STYLE1
 73
     1
 44
1.0
1001
ACAD
1000
MTEXTBEGIN
1070
    73
1070
     1
1070
    44
1040
1.0
1070
    74
1070
     0
1000
MTEXTEND
  0
LEADER
  5
1AC2C
330
747D
100
AcDbEntity
  8
寸法
 48
50.0
100
AcDbLeader
  3
INABA_S40G
 73
     0
 74
     0
 75
     1
 40
120.0
 41
672.0
 76
     3
 10
10063.76933893624
 20
5851.912297740166
 30
0.0
 10
10189.70935112828
 20
5578.02295427659
 30
0.0
 10
10289.70935112828
 20
5578.02295427659
 30
0.0
340
1AC2B
1001
ACAD
1000
DSTYLE
1002
{
1070
   341
1005
0
1002
}
  0
TEXT
  5
1C7A1
330
747D
100
AcDbEntity
  8
文字
 62
     7
 48
50.0
100
AcDbText
 10
13188.16259899338
 20
79.80631269190417
 30
0.0
 40
80.0
  1
※布基礎には換気口を設けてください。
  7
STYLE2
100
AcDbText
  0
TEXT
  5
1C7E7
330
747D
100
AcDbEntity
  8
文字
 62
     7
 48
50.0
100
AcDbText
 10
13188.16259899338
 20
246.7109242801889
 30
0.0
 40
80.0
  1
※寒冷地等は地域の実情に合わせた基礎にして下さい。
  7
STYLE2
100
AcDbText
  0
TEXT
  5
1C7E8
330
747D
100
AcDbEntity
  8
文字
 62
     7
 48
50.0
100
AcDbText
 10
14478.98566430227
 20
499.5983841039506
 30
0.0
 40
160.0
  1
ＮＸＮ－１１０Ｈ
  7
STYLE2
100
AcDbText
  0
TEXT
  5
1C7E9
330
747D
100
AcDbEntity
  8
文字
 62
     7
 48
50.0
100
AcDbText
 10
14641.2525855784
 20
871.1744590657927
 30
0.0
 40
100.0
  1
～一般型・多雪地型～
  7
STYLE2
100
AcDbText
  0
TEXT
  5
1C7EC
330
747D
100
AcDbEntity
  8
文字
 62
     7
 48
50.0
100
AcDbText
 10
14524.131837222
 20
1031.557706291229
 30
0.0
 40
100.0
  1
      <縮尺> S=1/40
  7
STYLE2
100
AcDbText
  0
TEXT
  5
1C7ED
330
747D
100
AcDbEntity
  8
文字
 62
     7
 48
50.0
100
AcDbText
 10
13201.43669998441
 20
477.2740661031257
 30
0.0
 40
160.0
  1
機種名
  7
STYLE2
100
AcDbText
  0
LINE
  5
1C7EF
330
747D
100
AcDbEntity
  8
文字
 62
     7
 48
50.0
100
AcDbLine
 10
13187.2
 20
400.0
 30
0.0
 11
16227.2
 21
400.0
 31
0.0
  0
MTEXT
  5
1D2D5
102
{ACAD_REACTORS
330
1D2D6
102
}
330
747D
100
AcDbEntity
  8
部品1
 62
     7
 48
50.0
100
AcDbMText
 10
11213.99523070988
 20
9065.880237751578
 30
0.0
 40
120.0
 41
0.0
 71
     6
 72
     1
  1
アンカーボルト
  7
STYLE1
 73
     1
 44
1.0
1001
ACAD
1000
MTEXTBEGIN
1070
    73
1070
     1
1070
    44
1040
1.0
1070
    74
1070
     0
1000
MTEXTEND
  0
LEADER
  5
1D2D6
330
747D
100
AcDbEntity
  8
寸法
 48
50.0
100
AcDbLeader
  3
INABA_S40G
 73
     0
 74
     0
 75
     1
 40
120.0
 41
994.3492424049171
 76
     3
 10
9895.680085757
 20
8604.165792170261
 30
0.0
 10
10079.64598830496
 20
8965.880237751578
 30
0.0
 10
10179.64598830496
 20
8965.880237751578
 30
0.0
340
1D2D5
1001
ACAD
1000
DSTYLE
1002
{
1070
   341
1005
0
1002
}
  0
MTEXT
  5
1D332
102
{ACAD_REACTORS
330
1D333
102
}
330
747D
100
AcDbEntity
  8
部品1
 62
     7
 48
50.0
100
AcDbMText
 10
7749.409691558231
 20
6960.411788144345
 30
0.0
 40
120.0
 41
0.0
 71
     6
 72
     1
  1
CB
  7
STYLE1
 73
     1
 44
1.0
1001
ACAD
1000
MTEXTBEGIN
1070
    73
1070
     1
1070
    44
1040
1.0
1070
    74
1070
     0
1000
MTEXTEND
  0
LEADER
  5
1D333
330
747D
100
AcDbEntity
  8
寸法
 48
50.0
100
AcDbLeader
  3
INABA_S40G
 73
     0
 74
     0
 75
     1
 40
120.0
 41
149.591883092037
 76
     3
 10
7322.535005603549
 20
7136.425701712176
 30
0.0
 10
7459.817808466194
 20
6860.411788144344
 30
0.0
 10
7559.817808466194
 20
6860.411788144344
 30
0.0
340
1D332
1001
ACAD
1000
DSTYLE
1002
{
1070
   341
1005
0
1002
}
  0
DIMENSION
  5
1DAC7
330
747D
100
AcDbEntity
  8
寸法
 48
50.0
100
AcDbDimension
  2
*D1
 10
8435.094525716944
 20
5666.957947811575
 30
0.0
 11
8435.094525716943
 21
5058.472666437335
 31
0.0
 70
   160
  1
扉の出<>
 71
     5
 42
75.00000000000091
  3
INABA_S40G
100
AcDbAlignedDimension
 13
8196.600000000001
 23
5591.957947811573
 33
0.0
 14
8196.600000000008
 24
5666.957947811575
 34
0.0
 50
90.0
100
AcDbRotatedDimension
1001
ACAD
1000
DSTYLE
1002
{
1070
   341
1005
0
1002
}
  0
DIMENSION
  5
1F2B5
330
747D
100
AcDbEntity
  8
寸法
 48
50.0
100
AcDbDimension
  2
*D2
 10
6428.6
 20
5111.222285907242
 30
0.0
 11
7312.6
 21
5111.222285907242
 31
0.0
 70
   160
 71
     5
 42
1768.0
  3
INABA_S40G
100
AcDbAlignedDimension
 13
8196.600000000001
 23
5591.957947811572
 33
0.0
 14
6428.6
 24
5591.957947811575
 34
0.0
100
AcDbRotatedDimension
1001
ACAD
1000
DSTYLE
1002
{
1070
   341
1005
0
1002
}
  0
LINE
  5
20992
330
747D
100
AcDbEntity
  8
想像線
 48
10.0
100
AcDbLine
 10
10063.6
 20
5611.957947811557
 30
0.0
 11
10063.6
 21
8801.957947811549
 31
0.0
  0
DIMENSION
  5
20DE1
330
747D
100
AcDbEntity
  8
寸法
 48
50.0
100
AcDbDimension
  2
*D3
 10
10063.6
 20
9685.178269870473
 30
0.0
 11
10334.77462120246
 21
9685.178269870473
 31
0.0
 70
   160
  1
a
 71
     5
 42
45.0
  3
INABA_S40G
100
AcDbAlignedDimension
 13
10018.6
 23
8726.95794781155
 33
0.0
 14
10063.6
 24
9472.717574353634
 34
0.0
100
AcDbRotatedDimension
1001
ACAD
1000
DSTYLE
1002
{
1070
   341
1005
0
1002
}
  0
DIMENSION
  5
20DFB
330
747D
100
AcDbEntity
  8
寸法
 48
50.0
100
AcDbDimension
  2
*D4
 10
6428.6
 20
9685.178269870473
 30
0.0
 11
6112.425378797541
 21
9685.178269870473
 31
0.0
 70
   160
  1
a
 71
     5
 42
44.99999999999272
  3
INABA_S40G
100
AcDbAlignedDimension
 13
6383.600000000008
 23
9472.717574353634
 33
0.0
 14
6428.6
 24
8726.95794781155
 34
0.0
100
AcDbRotatedDimension
1001
ACAD
1000
DSTYLE
1002
{
1070
   341
1005
0
1002
}
  0
DIMENSION
  5
20E15
330
747D
100
AcDbEntity
  8
寸法
 48
50.0
100
AcDbDimension
  2
*D5
 10
5687.164931848214
 20
8726.957947811552
 30
0.0
 11
5587.164931848214
 21
8764.457947811555
 31
0.0
 70
    32
  1
c
 71
     5
 42
75.00000000000364
  3
INABA_S40G
100
AcDbAlignedDimension
 13
5932.657733986181
 23
8801.957947811557
 33
0.0
 14
6428.600000000004
 24
8726.957947811552
 34
0.0
 50
90.0
100
AcDbRotatedDimension
1001
ACAD
1000
DSTYLE
1002
{
1070
   341
1005
0
1002
}
  0
DIMENSION
  5
20E3A
330
747D
100
AcDbEntity
  8
寸法
 48
50.0
100
AcDbDimension
  2
*D6
 10
5687.164931848214
 20
5611.957947811563
 30
0.0
 11
5587.164931848214
 21
5639.457947811553
 31
0.0
 70
    32
  1
b
 71
     5
 42
54.99999999997908
  3
INABA_S40G
100
AcDbAlignedDimension
 13
6428.6
 23
5666.957947811541
 33
0.0
 14
5932.657733986181
 24
5611.957947811563
 34
0.0
 50
90.0
100
AcDbRotatedDimension
1001
ACAD
1000
DSTYLE
1002
{
1070
   341
1005
0
1002
}
  0
LINE
  5
215EC
330
747D
100
AcDbEntity
  8
部品1
 48
50.0
100
AcDbLine
 10
9788.600000000002
 20
5786.957947811568
 30
0.0
 11
8235.600000000001
 21
5786.957947811563
 31
0.0
  0
DIMENSION
  5
215ED
330
747D
100
AcDbEntity
  8
寸法
 48
50.0
100
AcDbDimension
  2
*D7
 10
8654.417229771324
 20
5896.957947811571
 30
0.0
 11
8654.417229771322
 21
6167.017002929696
 31
0.0
 70
   160
 71
     5
 42
110.0000000000054
  3
INABA_S40G
100
AcDbAlignedDimension
 13
8786.118451399387
 23
5786.957947811565
 33
0.0
 14
8235.600000000001
 24
5896.957947811571
 34
0.0
 50
90.0
100
AcDbRotatedDimension
1001
ACAD
1000
DSTYLE
1002
{
1070
   341
1005
0
1002
}
  0
LINE
  5
215EE
330
747D
100
AcDbEntity
  8
部品1
 48
50.0
100
AcDbLine
 10
9788.600000000002
 20
8606.957947811553
 30
0.0
 11
8235.600000000001
 21
8606.957947811553
 31
0.0
  0
DIMENSION
  5
215EF
330
747D
100
AcDbEntity
  8
寸法
 48
50.0
100
AcDbDimension
  2
*D8
 10
8654.417229771324
 20
5786.957947811565
 30
0.0
 11
8654.417229771322
 21
5330.669642843612
 31
0.0
 70
   160
 71
     5
 42
119.9999999999854
  3
INABA_S40G
100
AcDbAlignedDimension
 13
8307.41918098816
 23
5666.957947811579
 33
0.0
 14
8786.118451399387
 24
5786.957947811565
 34
0.0
 50
90.0
100
AcDbRotatedDimension
1001
ACAD
1000
DSTYLE
1002
{
1070
   341
1005
0
1002
}
  0
LINE
  5
215F2
330
747D
100
AcDbEntity
  8
部品1
 48
50.0
100
AcDbLine
 10
10018.6
 20
8726.95794781155
 30
0.0
 11
6428.6
 21
8726.95794781155
 31
0.0
  0
DIMENSION
  5
215F3
330
747D
100
AcDbEntity
  8
寸法
 48
50.0
100
AcDbDimension
  2
*D9
 10
10018.6
 20
9685.178269870473
 30
0.0
 11
8223.600000000001
 21
9785.178269870472
 31
0.0
 70
    32
 71
     5
 42
3590.0
  3
INABA_S40G
100
AcDbAlignedDimension
 13
6428.6
 23
8726.957947811552
 33
0.0
 14
10018.6
 24
8726.957947811552
 34
0.0
100
AcDbRotatedDimension
1001
ACAD
1000
DSTYLE
1002
{
1070
   341
1005
0
1002
}
  0
DIMENSION
  5
215F4
330
747D
100
AcDbEntity
  8
寸法
 48
50.0
100
AcDbDimension
  2
*D10
 10
8223.600000000001
 20
9253.867713459881
 30
0.0
 11
8671.1
 21
9353.86771345988
 31
0.0
 70
    32
 71
     5
 42
895.0
  3
INABA_S40G
100
AcDbAlignedDimension
 13
9118.6
 23
8096.957947811551
 33
0.0
 14
8223.600000000001
 24
8096.957947811551
 34
0.0
100
AcDbRotatedDimension
1001
ACAD
1000
DSTYLE
1002
{
1070
   341
1005
0
1002
}
  0
DIMENSION
  5
215F5
330
747D
100
AcDbEntity
  8
寸法
 48
50.0
100
AcDbDimension
  2
*D11
 10
8105.6
 20
9472.717574353636
 30
0.0
 11
9000.6
 21
9572.717574353635
 31
0.0
 70
    32
 71
     5
 42
1790.0
  3
INABA_S40G
100
AcDbAlignedDimension
 13
9895.600000000001
 23
8653.957947811553
 33
0.0
 14
8105.6
 24
8653.957947811553
 34
0.0
100
AcDbRotatedDimension
1001
ACAD
1000
DSTYLE
1002
{
1070
   341
1005
0
1002
}
  0
LINE
  5
21605
330
747D
100
AcDbEntity
  8
部品1
 48
50.0
100
AcDbLine
 10
8123.600000000001
 20
7896.957947811552
 30
0.0
 11
8123.600000000001
 21
8096.957947811551
 31
0.0
  0
LINE
  5
21606
330
747D
100
AcDbEntity
  8
センター
 48
2.0
100
AcDbLine
 10
8223.600000000001
 20
8046.957947811552
 30
0.0
 11
8223.600000000001
 21
7946.957947811552
 31
0.0
  0
LINE
  5
21607
330
747D
100
AcDbEntity
  8
部品1
 48
50.0
100
AcDbLine
 10
8323.6
 20
7896.957947811552
 30
0.0
 11
8323.6
 21
8096.957947811551
 31
0.0
  0
DIMENSION
  5
21608
330
747D
100
AcDbEntity
  8
寸法
 48
50.0
100
AcDbDimension
  2
*D12
 10
5932.657733986177
 20
5789.957947811554
 30
0.0
 11
5832.645922962554
 21
7196.957947811554
 31
0.0
 70
    32
 71
     5
 42
2813.999999999998
  3
INABA_S40G
100
AcDbAlignedDimension
 13
6501.6
 23
8603.957947811553
 33
0.0
 14
6501.600000000007
 24
5789.957947811554
 34
0.0
 50
90.0
100
AcDbRotatedDimension
1001
ACAD
1000
DSTYLE
1002
{
1070
   341
1005
0
1002
}
  0
LINE
  5
21609
330
747D
100
AcDbEntity
  8
部品1
 48
50.0
100
AcDbLine
 10
6548.6
 20
5896.957947811554
 30
0.0
 11
6548.6
 21
8496.95794781155
 31
0.0
  0
LINE
  5
2160A
330
747D
100
AcDbEntity
  8
部品1
 48
50.0
100
AcDbLine
 10
6428.6
 20
5666.957947811552
 30
0.0
 11
6428.6
 21
8726.957947811552
 31
0.0
  0
DIMENSION
  5
2160C
330
747D
100
AcDbEntity
  8
寸法
 48
50.0
100
AcDbDimension
  2
*D13
 10
5687.16493184821
 20
5666.957947811553
 30
0.0
 11
5587.164931848208
 21
7196.957947811553
 31
0.0
 70
    32
 71
     5
 42
3060.0
  3
INABA_S40G
100
AcDbAlignedDimension
 13
6428.6
 23
8726.957947811552
 33
0.0
 14
6428.6
 24
5666.957947811552
 34
0.0
 50
90.0
100
AcDbRotatedDimension
1001
ACAD
1000
DSTYLE
1002
{
1070
   341
1005
0
1002
}
  0
LINE
  5
2166C
330
747D
100
AcDbEntity
  8
部品1
 48
50.0
100
AcDbLine
 10
7975.6
 20
5786.957947811561
 30
0.0
 11
6658.599999999999
 21
5786.957947811558
 31
0.0
  0
LINE
  5
2166D
330
747D
100
AcDbEntity
  8
部品1
 48
50.0
100
AcDbLine
 10
8196.600000000001
 20
5591.957947811556
 30
0.0
 11
6428.6
 21
5591.957947811543
 31
0.0
  0
DIMENSION
  5
21671
330
747D
100
AcDbEntity
  8
寸法
 48
50.0
100
AcDbDimension
  2
*D28
 10
5932.657733986179
 20
5666.957947811553
 30
0.0
 11
5932.657733986178
 21
5331.42699896896
 31
0.0
 70
   160
 71
     5
 42
123.0000000000018
  3
INABA_S40G
100
AcDbAlignedDimension
 13
6501.600000000007
 23
5789.957947811554
 33
0.0
 14
6428.6
 24
5666.957947811552
 34
0.0
 50
90.0
100
AcDbRotatedDimension
1001
ACAD
1000
DSTYLE
1002
{
1070
   341
1005
0
1002
}
  0
LINE
  5
21673
330
747D
100
AcDbEntity
  8
部品1
 48
50.0
100
AcDbLine
 10
6658.599999999999
 20
5786.957947811558
 30
0.0
 11
6658.599999999999
 21
5896.957947811555
 31
0.0
  0
LINE
  5
2167B
330
747D
100
AcDbEntity
  8
センター
 48
2.0
100
AcDbLine
 10
6551.600000000007
 20
5839.957947811554
 30
0.0
 11
6551.600000000007
 21
5739.957947811554
 31
0.0
  0
LINE
  5
216AC
330
747D
100
AcDbEntity
  8
センター
 48
2.0
100
AcDbLine
 10
6501.600000000007
 20
5789.957947811554
 30
0.0
 11
6601.600000000008
 21
5789.957947811554
 31
0.0
  0
CIRCLE
  5
216AD
330
747D
100
AcDbEntity
  8
部品1
 48
50.0
100
AcDbCircle
 10
6551.600000000007
 20
5789.957947811554
 30
0.0
 40
35.0
  0
LINE
  5
216AE
330
747D
100
AcDbEntity
  8
部品1
 48
50.0
100
AcDbLine
 10
6428.6
 20
5591.957947811557
 30
0.0
 11
6428.6
 21
5666.957947811541
 31
0.0
  0
LINE
  5
216F0
330
747D
100
AcDbEntity
  8
部品1
 48
50.0
100
AcDbLine
 10
6658.599999999999
 20
5896.957947811555
 30
0.0
 11
6548.600000000002
 21
5896.957947811555
 31
0.0
  0
LINE
  5
2175A
330
747D
100
AcDbEntity
  8
部品1
 48
50.0
100
AcDbLine
 10
6548.600000000002
 20
7096.95794781155
 30
0.0
 11
6428.6
 21
7096.95794781155
 31
0.0
  0
LINE
  5
2175D
330
747D
100
AcDbEntity
  8
部品1
 48
50.0
100
AcDbLine
 10
7228.6
 20
5786.957947811558
 30
0.0
 11
7228.6
 21
5591.957947811545
 31
0.0
  0
LINE
  5
2179D
330
747D
100
AcDbEntity
  8
部品1
 48
50.0
100
AcDbLine
 10
7428.6
 20
5786.95794781156
 30
0.0
 11
7428.6
 21
5591.957947811549
 31
0.0
  0
DIMENSION
  5
217E5
330
747D
100
AcDbEntity
  8
寸法
 48
50.0
100
AcDbDimension
  2
*D29
 10
7975.6
 20
6069.190527259598
 30
0.0
 11
8105.6
 21
6069.190527259598
 31
0.0
 70
   160
 71
     5
 42
260.0
  3
INABA_S40G
100
AcDbAlignedDimension
 13
8235.600000000001
 23
5896.957947811571
 33
0.0
 14
7975.6
 24
5896.957947811571
 34
0.0
100
AcDbRotatedDimension
1001
ACAD
1000
DSTYLE
1002
{
1070
   341
1005
0
1002
}
  0
LINE
  5
217E6
330
747D
100
AcDbEntity
  8
部品1
 48
50.0
100
AcDbLine
 10
8235.600000000001
 20
5896.957947811571
 30
0.0
 11
7975.6
 21
5896.957947811571
 31
0.0
  0
LINE
  5
217E7
330
747D
100
AcDbEntity
  8
部品1
 48
50.0
100
AcDbLine
 10
7975.6
 20
5786.957947811561
 30
0.0
 11
7975.6
 21
5896.957947811571
 31
0.0
  0
LINE
  5
2186A
330
747D
100
AcDbEntity
  8
部品1
 48
50.0
100
AcDbLine
 10
8235.600000000001
 20
5786.957947811563
 30
0.0
 11
8235.600000000001
 21
5896.957947811571
 31
0.0
  0
LINE
  5
2186B
330
747D
100
AcDbEntity
  8
センター
 48
2.0
100
AcDbLine
 10
8055.600000000008
 20
5789.957947811554
 30
0.0
 11
8155.600000000008
 21
5789.957947811554
 31
0.0
  0
CIRCLE
  5
2186C
330
747D
100
AcDbEntity
  8
部品1
 48
50.0
100
AcDbCircle
 10
8105.600000000007
 20
5789.957947811554
 30
0.0
 40
35.0
  0
LINE
  5
2186D
330
747D
100
AcDbEntity
  8
センター
 48
2.0
100
AcDbLine
 10
8105.600000000007
 20
5839.957947811554
 30
0.0
 11
8105.600000000007
 21
5739.957947811554
 31
0.0
  0
LINE
  5
218A0
330
747D
100
AcDbEntity
  8
部品1
 48
50.0
100
AcDbLine
 10
8196.600000000001
 20
5591.957947811557
 30
0.0
 11
8196.600000000001
 21
5666.957947811553
 31
0.0
  0
LINE
  5
218A1
330
747D
100
AcDbEntity
  8
部品1
 48
50.0
100
AcDbLine
 10
8323.6
 20
7896.957947811552
 30
0.0
 11
8123.600000000001
 21
7896.957947811552
 31
0.0
  0
LINE
  5
218A3
330
747D
100
AcDbEntity
  8
部品1
 48
50.0
100
AcDbLine
 10
7975.6
 20
8606.957947811553
 30
0.0
 11
6658.599999999999
 21
8606.957947811553
 31
0.0
  0
DIMENSION
  5
218A4
330
747D
100
AcDbEntity
  8
寸法
 48
50.0
100
AcDbDimension
  2
*D14
 10
6428.6
 20
9253.867713459881
 30
0.0
 11
6878.6
 21
9353.86771345988
 31
0.0
 70
    32
 71
     5
 42
900.0
  3
INABA_S40G
100
AcDbAlignedDimension
 13
7328.6
 23
8096.957947811551
 33
0.0
 14
6428.6
 24
8726.957947811552
 34
0.0
100
AcDbRotatedDimension
1001
ACAD
1000
DSTYLE
1002
{
1070
   341
1005
0
1002
}
  0
DIMENSION
  5
218A5
330
747D
100
AcDbEntity
  8
寸法
 48
50.0
100
AcDbDimension
  2
*D15
 10
6551.6
 20
9472.717574353636
 30
0.0
 11
7328.6
 21
9572.717574353635
 31
0.0
 70
    32
 71
     5
 42
1554.0
  3
INABA_S40G
100
AcDbAlignedDimension
 13
8105.6
 23
8653.957947811553
 33
0.0
 14
6551.6
 24
8653.957947811553
 34
0.0
100
AcDbRotatedDimension
1001
ACAD
1000
DSTYLE
1002
{
1070
   341
1005
0
1002
}
  0
DIMENSION
  5
218A6
330
747D
100
AcDbEntity
  8
寸法
 48
50.0
100
AcDbDimension
  2
*D16
 10
6428.6
 20
9472.717574353636
 30
0.0
 11
6155.493398282206
 21
9472.717574353636
 31
0.0
 70
   160
 71
     5
 42
123.0
  3
INABA_S40G
100
AcDbAlignedDimension
 13
6551.6
 23
8653.957947811553
 33
0.0
 14
6428.6
 24
8726.957947811552
 34
0.0
100
AcDbRotatedDimension
1001
ACAD
1000
DSTYLE
1002
{
1070
   341
1005
0
1002
}
  0
DIMENSION
  5
218A8
330
747D
100
AcDbEntity
  8
寸法
 48
50.0
100
AcDbDimension
  2
*D17
 10
5932.657733986179
 20
8603.957947811553
 30
0.0
 11
5932.657733986178
 21
9000.064549529353
 31
0.0
 70
   160
 71
     5
 42
123.0
  3
INABA_S40G
100
AcDbAlignedDimension
 13
6428.6
 23
8726.957947811552
 33
0.0
 14
6501.6
 24
8603.957947811553
 34
0.0
 50
90.0
100
AcDbRotatedDimension
1001
ACAD
1000
DSTYLE
1002
{
1070
   341
1005
0
1002
}
  0
DIMENSION
  5
218A9
330
747D
100
AcDbEntity
  8
寸法
 48
50.0
100
AcDbDimension
  2
*D18
 10
6875.307249876098
 20
8726.95794781155
 30
0.0
 11
6875.307249876097
 21
9005.041491084439
 31
0.0
 70
   160
 71
     5
 42
120.0000000000018
  3
INABA_S40G
100
AcDbAlignedDimension
 13
6658.599999999999
 23
8606.957947811549
 33
0.0
 14
6658.599999999999
 24
8726.95794781155
 34
0.0
 50
90.0
100
AcDbRotatedDimension
1001
ACAD
1000
DSTYLE
1002
{
1070
   341
1005
0
1002
}
  0
DIMENSION
  5
218AA
330
747D
100
AcDbEntity
  8
寸法
 48
50.0
100
AcDbDimension
  2
*D19
 10
6875.307249876098
 20
8496.95794781155
 30
0.0
 11
6875.307249876097
 21
8156.898892693439
 31
0.0
 70
   160
 71
     5
 42
110.0000000000018
  3
INABA_S40G
100
AcDbAlignedDimension
 13
6658.599999999999
 23
8606.957947811549
 33
0.0
 14
6658.599999999999
 24
8496.95794781155
 34
0.0
 50
90.0
100
AcDbRotatedDimension
1001
ACAD
1000
DSTYLE
1002
{
1070
   341
1005
0
1002
}
  0
LINE
  5
218AB
330
747D
100
AcDbEntity
  8
部品1
 48
50.0
100
AcDbLine
 10
6548.600000000002
 20
7296.95794781155
 30
0.0
 11
6428.6
 21
7296.95794781155
 31
0.0
  0
LINE
  5
218AC
330
747D
100
AcDbEntity
  8
部品1
 48
50.0
100
AcDbLine
 10
6827.928907166849
 20
8726.957947811548
 30
0.0
 11
6428.6
 21
8726.957947811552
 31
0.0
  0
LINE
  5
218AD
330
747D
100
AcDbEntity
  8
部品1
 48
50.0
100
AcDbLine
 10
6658.599999999999
 20
8496.95794781155
 30
0.0
 11
6548.600000000002
 21
8496.957947811552
 31
0.0
  0
LINE
  5
218AE
330
747D
100
AcDbEntity
  8
センター
 48
2.0
100
AcDbLine
 10
6551.6
 20
8653.957947811553
 30
0.0
 11
6551.6
 21
8553.957947811552
 31
0.0
  0
LINE
  5
218AF
330
747D
100
AcDbEntity
  8
センター
 48
2.0
100
AcDbLine
 10
6501.6
 20
8603.957947811553
 30
0.0
 11
6601.600000000001
 21
8603.957947811553
 31
0.0
  0
CIRCLE
  5
218B0
330
747D
100
AcDbEntity
  8
部品1
 48
50.0
100
AcDbCircle
 10
6551.6
 20
8603.957947811553
 30
0.0
 40
35.0
  0
LINE
  5
218B1
330
747D
100
AcDbEntity
  8
部品1
 48
50.0
100
AcDbLine
 10
6658.599999999999
 20
8496.95794781155
 30
0.0
 11
6658.599999999999
 21
8606.957947811549
 31
0.0
  0
DIMENSION
  5
218B2
330
747D
100
AcDbEntity
  8
寸法
 48
50.0
100
AcDbDimension
  2
*D20
 10
7328.6
 20
9253.867713459881
 30
0.0
 11
7776.100000000001
 21
9353.86771345988
 31
0.0
 70
    32
 71
     5
 42
895.0
  3
INABA_S40G
100
AcDbAlignedDimension
 13
8223.600000000001
 23
8096.957947811551
 33
0.0
 14
7328.6
 24
8096.957947811551
 34
0.0
100
AcDbRotatedDimension
1001
ACAD
1000
DSTYLE
1002
{
1070
   341
1005
0
1002
}
  0
LINE
  5
218BD
330
747D
100
AcDbEntity
  8
部品1
 48
50.0
100
AcDbLine
 10
7228.600000000007
 20
8726.957947811552
 30
0.0
 11
7228.60000000001
 21
8606.957947811553
 31
0.0
  0
LINE
  5
218BE
330
747D
100
AcDbEntity
  8
部品1
 48
50.0
100
AcDbLine
 10
7428.600000000007
 20
8726.957947811552
 30
0.0
 11
7428.600000000009
 21
8606.957947811553
 31
0.0
  0
LINE
  5
218BF
330
747D
100
AcDbEntity
  8
センター
 48
2.0
100
AcDbLine
 10
8173.6
 20
7996.957947811552
 30
0.0
 11
8273.6
 21
7996.957947811552
 31
0.0
  0
LINE
  5
218C0
330
747D
100
AcDbEntity
  8
部品1
 48
50.0
100
AcDbLine
 10
8323.6
 20
8096.957947811551
 30
0.0
 11
8123.600000000001
 21
8096.957947811551
 31
0.0
  0
LINE
  5
218C1
330
747D
100
AcDbEntity
  8
部品1
 48
50.0
100
AcDbLine
 10
8235.600000000001
 20
8496.957947811534
 30
0.0
 11
7975.6
 21
8496.957947811534
 31
0.0
  0
LINE
  5
218C2
330
747D
100
AcDbEntity
  8
部品1
 48
50.0
100
AcDbLine
 10
7975.6
 20
8606.957947811553
 30
0.0
 11
7975.6
 21
8496.957947811534
 31
0.0
  0
LINE
  5
218C3
330
747D
100
AcDbEntity
  8
部品1
 48
50.0
100
AcDbLine
 10
8235.600000000001
 20
8606.957947811549
 30
0.0
 11
8235.600000000001
 21
8496.957947811534
 31
0.0
  0
CIRCLE
  5
218C4
330
747D
100
AcDbEntity
  8
部品1
 48
50.0
100
AcDbCircle
 10
8105.6
 20
8603.957947811553
 30
0.0
 40
35.0
  0
LINE
  5
218C5
330
747D
100
AcDbEntity
  8
センター
 48
2.0
100
AcDbLine
 10
8105.6
 20
8653.957947811553
 30
0.0
 11
8105.6
 21
8553.957947811552
 31
0.0
  0
LINE
  5
218C6
330
747D
100
AcDbEntity
  8
センター
 48
2.0
100
AcDbLine
 10
8055.600000000001
 20
8603.957947811553
 30
0.0
 11
8155.600000000001
 21
8603.957947811553
 31
0.0
  0
LINE
  5
218C7
330
747D
100
AcDbEntity
  8
部品1
 48
50.0
100
AcDbLine
 10
10018.6
 20
5666.95794781157
 30
0.0
 11
10018.6
 21
8726.957947811552
 31
0.0
  0
LINE
  5
218C8
330
747D
100
AcDbEntity
  8
部品1
 48
50.0
100
AcDbLine
 10
9898.600000000001
 20
5896.957947811571
 30
0.0
 11
9898.600000000001
 21
8496.957947811552
 31
0.0
  0
DIMENSION
  5
218CC
330
747D
100
AcDbEntity
  8
寸法
 48
50.0
100
AcDbDimension
  2
*D21
 10
8918.973698583075
 20
7196.957947811568
 30
0.0
 11
8818.973698583073
 21
7596.95794781156
 31
0.0
 70
    32
 71
     5
 42
799.9999999999845
  3
INABA_S40G
100
AcDbAlignedDimension
 13
9018.600000000001
 23
7996.957947811552
 33
0.0
 14
9018.600000000001
 24
7196.957947811568
 34
0.0
 50
90.0
100
AcDbRotatedDimension
1001
ACAD
1000
DSTYLE
1002
{
1070
   341
1005
0
1002
}
  0
DIMENSION
  5
21942
330
747D
100
AcDbEntity
  8
寸法
 48
50.0
100
AcDbDimension
  2
*D22
 10
8918.973698583069
 20
6396.957947811568
 30
0.0
 11
8818.973698583068
 21
6031.957947811566
 31
0.0
 70
    32
 71
     5
 42
730.0000000000054
  3
INABA_S40G
100
AcDbAlignedDimension
 13
8655.04593925956
 23
5666.957947811562
 33
0.0
 14
9018.600000000001
 24
6396.957947811568
 34
0.0
 50
90.0
100
AcDbRotatedDimension
1001
ACAD
1000
DSTYLE
1002
{
1070
   341
1005
0
1002
}
  0
LINE
  5
21943
330
747D
100
AcDbEntity
  8
部品1
 48
50.0
100
AcDbLine
 10
9018.600000000015
 20
5786.957947811565
 30
0.0
 11
9018.600000000015
 21
5666.957947811567
 31
0.0
  0
LINE
  5
21945
330
747D
100
AcDbEntity
  8
部品1
 48
50.0
100
AcDbLine
 10
9218.600000000014
 20
5786.957947811566
 30
0.0
 11
9218.600000000014
 21
5666.957947811567
 31
0.0
  0
LINE
  5
2194D
330
747D
100
AcDbEntity
  8
部品1
 48
50.0
100
AcDbLine
 10
9788.600000000002
 20
5786.957947811568
 30
0.0
 11
9788.600000000002
 21
5896.957947811571
 31
0.0
  0
CIRCLE
  5
2194E
330
747D
100
AcDbEntity
  8
部品1
 48
50.0
100
AcDbCircle
 10
9895.600000000008
 20
5789.957947811554
 30
0.0
 40
35.0
  0
LINE
  5
2194F
330
747D
100
AcDbEntity
  8
センター
 48
2.0
100
AcDbLine
 10
9845.600000000008
 20
5789.957947811554
 30
0.0
 11
9945.600000000007
 21
5789.957947811554
 31
0.0
  0
LINE
  5
21950
330
747D
100
AcDbEntity
  8
センター
 48
2.0
100
AcDbLine
 10
9895.600000000008
 20
5839.957947811554
 30
0.0
 11
9895.600000000008
 21
5739.957947811554
 31
0.0
  0
LINE
  5
21951
330
747D
100
AcDbEntity
  8
部品1
 48
50.0
100
AcDbLine
 10
9898.600000000001
 20
5896.957947811571
 30
0.0
 11
9788.600000000002
 21
5896.957947811571
 31
0.0
  0
LINE
  5
21952
330
747D
100
AcDbEntity
  8
部品1
 48
50.0
100
AcDbLine
 10
10018.6
 20
7096.957947811552
 30
0.0
 11
9898.600000000001
 21
7096.95794781155
 31
0.0
  0
DIMENSION
  5
21957
330
747D
100
AcDbEntity
  8
寸法
 48
50.0
100
AcDbDimension
  2
*D23
 10
9788.600000000002
 20
8221.066703136829
 30
0.0
 11
9552.552755905512
 21
8221.066703136829
 31
0.0
 70
   160
 71
     5
 42
110.0
  3
INABA_S40G
100
AcDbAlignedDimension
 13
9898.600000000001
 23
8128.960905834764
 33
0.0
 14
9788.600000000002
 24
8496.95794781155
 34
0.0
100
AcDbRotatedDimension
1001
ACAD
1000
DSTYLE
1002
{
1070
   341
1005
0
1002
}
  0
DIMENSION
  5
21958
330
747D
100
AcDbEntity
  8
寸法
 48
50.0
100
AcDbDimension
  2
*D24
 10
9118.6
 20
9253.867713459881
 30
0.0
 11
9568.600000000001
 21
9353.86771345988
 31
0.0
 70
    32
 71
     5
 42
900.0
  3
INABA_S40G
100
AcDbAlignedDimension
 13
10018.6
 23
8726.957947811552
 33
0.0
 14
9118.6
 24
8096.957947811551
 34
0.0
100
AcDbRotatedDimension
1001
ACAD
1000
DSTYLE
1002
{
1070
   341
1005
0
1002
}
  0
DIMENSION
  5
21959
330
747D
100
AcDbEntity
  8
寸法
 48
50.0
100
AcDbDimension
  2
*D25
 10
8918.973698583075
 20
8726.957947811554
 30
0.0
 11
8818.973698583073
 21
8361.957947811555
 31
0.0
 70
    32
 71
     5
 42
730.0000000000018
  3
INABA_S40G
100
AcDbAlignedDimension
 13
9018.600000000001
 23
7996.957947811552
 33
0.0
 14
8559.157431058356
 24
8726.957947811554
 34
0.0
 50
90.0
100
AcDbRotatedDimension
1001
ACAD
1000
DSTYLE
1002
{
1070
   341
1005
0
1002
}
  0
LINE
  5
2195E
330
747D
100
AcDbEntity
  8
部品1
 48
50.0
100
AcDbLine
 10
9018.600000000008
 20
8726.95794781155
 30
0.0
 11
9018.600000000008
 21
8606.957947811553
 31
0.0
  0
LINE
  5
21962
330
747D
100
AcDbEntity
  8
部品1
 48
50.0
100
AcDbLine
 10
9218.600000000007
 20
8726.95794781155
 30
0.0
 11
9218.600000000007
 21
8606.957947811553
 31
0.0
  0
DIMENSION
  5
21964
330
747D
100
AcDbEntity
  8
寸法
 48
50.0
100
AcDbDimension
  2
*D26
 10
9895.600000000001
 20
9472.717574353636
 30
0.0
 11
10291.7066017178
 21
9472.717574353636
 31
0.0
 70
   160
 71
     5
 42
123.0
  3
INABA_S40G
100
AcDbAlignedDimension
 13
10018.6
 23
8726.957947811552
 33
0.0
 14
9895.600000000001
 24
8653.957947811553
 34
0.0
100
AcDbRotatedDimension
1001
ACAD
1000
DSTYLE
1002
{
1070
   341
1005
0
1002
}
  0
LINE
  5
21965
330
747D
100
AcDbEntity
  8
部品1
 48
50.0
100
AcDbLine
 10
10018.6
 20
7296.957947811552
 30
0.0
 11
9898.600000000001
 21
7296.95794781155
 31
0.0
  0
DIMENSION
  5
21966
330
747D
100
AcDbEntity
  8
寸法
 48
50.0
100
AcDbDimension
  2
*D27
 10
9898.600000000001
 20
8221.066703136829
 30
0.0
 11
10288.65905511811
 21
8221.066703136829
 31
0.0
 70
   160
 71
     5
 42
120.0
  3
INABA_S40G
100
AcDbAlignedDimension
 13
10018.6
 23
8496.957947811552
 33
0.0
 14
9898.600000000001
 24
8496.957947811553
 34
0.0
100
AcDbRotatedDimension
1001
ACAD
1000
DSTYLE
1002
{
1070
   341
1005
0
1002
}
  0
CIRCLE
  5
21967
330
747D
100
AcDbEntity
  8
部品1
 48
50.0
100
AcDbCircle
 10
9895.600000000001
 20
8603.957947811553
 30
0.0
 40
35.0
  0
LINE
  5
21968
330
747D
100
AcDbEntity
  8
センター
 48
2.0
100
AcDbLine
 10
9845.600000000001
 20
8603.957947811553
 30
0.0
 11
9945.6
 21
8603.957947811553
 31
0.0
  0
LINE
  5
21969
330
747D
100
AcDbEntity
  8
部品1
 48
50.0
100
AcDbLine
 10
9898.600000000001
 20
8496.957947811553
 30
0.0
 11
9788.600000000002
 21
8496.95794781155
 31
0.0
  0
LINE
  5
2196A
330
747D
100
AcDbEntity
  8
部品1
 48
50.0
100
AcDbLine
 10
9788.600000000002
 20
8496.95794781155
 30
0.0
 11
9788.600000000002
 21
8606.957947811549
 31
0.0
  0
LINE
  5
2196B
330
747D
100
AcDbEntity
  8
センター
 48
2.0
100
AcDbLine
 10
9895.600000000001
 20
8653.957947811553
 30
0.0
 11
9895.600000000001
 21
8553.957947811552
 31
0.0
  0
LINE
  5
23A5A
330
747D
100
AcDbEntity
  8
部品1
 48
50.0
100
AcDbLine
 10
8323.600000000006
 20
6496.957947811562
 30
0.0
 11
8123.600000000006
 21
6496.957947811562
 31
0.0
  0
LINE
  5
23A5B
330
747D
100
AcDbEntity
  8
センター
 48
2.0
100
AcDbLine
 10
8173.600000000005
 20
6396.957947811562
 30
0.0
 11
8273.600000000007
 21
6396.957947811562
 31
0.0
  0
LINE
  5
23A5C
330
747D
100
AcDbEntity
  8
部品1
 48
50.0
100
AcDbLine
 10
8323.600000000006
 20
6296.957947811562
 30
0.0
 11
8123.600000000006
 21
6296.957947811562
 31
0.0
  0
LINE
  5
23A5D
330
747D
100
AcDbEntity
  8
部品1
 48
50.0
100
AcDbLine
 10
8323.600000000006
 20
6296.957947811562
 30
0.0
 11
8323.600000000006
 21
6496.957947811562
 31
0.0
  0
LINE
  5
23A5E
330
747D
100
AcDbEntity
  8
センター
 48
2.0
100
AcDbLine
 10
8223.600000000006
 20
6446.957947811561
 30
0.0
 11
8223.600000000006
 21
6346.957947811562
 31
0.0
  0
LINE
  5
23A5F
330
747D
100
AcDbEntity
  8
部品1
 48
50.0
100
AcDbLine
 10
8123.600000000006
 20
6296.957947811562
 30
0.0
 11
8123.600000000006
 21
6496.957947811562
 31
0.0
  0
LINE
  5
24AB8
330
747D
100
AcDbEntity
  8
部品1
 48
50.0
100
AcDbLine
 10
7428.6
 20
8096.957947811551
 30
0.0
 11
7228.6
 21
8096.957947811551
 31
0.0
  0
LINE
  5
24AB9
330
747D
100
AcDbEntity
  8
センター
 48
2.0
100
AcDbLine
 10
7278.6
 20
7996.957947811552
 30
0.0
 11
7378.6
 21
7996.957947811552
 31
0.0
  0
LINE
  5
24ABA
330
747D
100
AcDbEntity
  8
部品1
 48
50.0
100
AcDbLine
 10
7428.6
 20
7896.957947811552
 30
0.0
 11
7228.6
 21
7896.957947811552
 31
0.0
  0
LINE
  5
24ABB
330
747D
100
AcDbEntity
  8
部品1
 48
50.0
100
AcDbLine
 10
7428.6
 20
7896.957947811552
 30
0.0
 11
7428.6
 21
8096.957947811551
 31
0.0
  0
LINE
  5
24ABC
330
747D
100
AcDbEntity
  8
センター
 48
2.0
100
AcDbLine
 10
7328.6
 20
8046.957947811552
 30
0.0
 11
7328.6
 21
7946.957947811552
 31
0.0
  0
LINE
  5
24ABD
330
747D
100
AcDbEntity
  8
部品1
 48
50.0
100
AcDbLine
 10
7228.6
 20
7896.957947811552
 30
0.0
 11
7228.6
 21
8096.957947811551
 31
0.0
  0
LINE
  5
24AEE
330
747D
100
AcDbEntity
  8
部品1
 48
50.0
100
AcDbLine
 10
7228.600000000006
 20
6296.957947811562
 30
0.0
 11
7228.600000000006
 21
6496.957947811562
 31
0.0
  0
LINE
  5
24AEF
330
747D
100
AcDbEntity
  8
センター
 48
2.0
100
AcDbLine
 10
7328.600000000005
 20
6446.957947811561
 30
0.0
 11
7328.600000000005
 21
6346.957947811562
 31
0.0
  0
LINE
  5
24AF0
330
747D
100
AcDbEntity
  8
部品1
 48
50.0
100
AcDbLine
 10
7428.600000000006
 20
6296.957947811562
 30
0.0
 11
7428.600000000006
 21
6496.957947811562
 31
0.0
  0
LINE
  5
24AF1
330
747D
100
AcDbEntity
  8
部品1
 48
50.0
100
AcDbLine
 10
7428.600000000006
 20
6296.957947811562
 30
0.0
 11
7228.600000000006
 21
6296.957947811562
 31
0.0
  0
LINE
  5
24AF2
330
747D
100
AcDbEntity
  8
センター
 48
2.0
100
AcDbLine
 10
7278.600000000006
 20
6396.957947811562
 30
0.0
 11
7378.600000000005
 21
6396.957947811562
 31
0.0
  0
LINE
  5
24AF3
330
747D
100
AcDbEntity
  8
部品1
 48
50.0
100
AcDbLine
 10
7428.600000000006
 20
6496.957947811562
 30
0.0
 11
7228.600000000006
 21
6496.957947811562
 31
0.0
  0
LINE
  5
24AF6
330
747D
100
AcDbEntity
  8
センター
 48
2.0
100
AcDbLine
 10
7278.600000000004
 20
7196.957947811561
 30
0.0
 11
7378.600000000004
 21
7196.957947811561
 31
0.0
  0
LINE
  5
24AF9
330
747D
100
AcDbEntity
  8
センター
 48
2.0
100
AcDbLine
 10
7328.600000000005
 20
7246.957947811562
 30
0.0
 11
7328.600000000005
 21
7146.957947811562
 31
0.0
  0
LINE
  5
24B01
330
747D
100
AcDbEntity
  8
部品1
 48
50.0
100
AcDbLine
 10
8123.600000000005
 20
7096.957947811562
 30
0.0
 11
8123.600000000005
 21
7296.957947811562
 31
0.0
  0
LINE
  5
24B02
330
747D
100
AcDbEntity
  8
センター
 48
2.0
100
AcDbLine
 10
8223.600000000004
 20
7246.957947811562
 30
0.0
 11
8223.600000000004
 21
7146.957947811562
 31
0.0
  0
LINE
  5
24B03
330
747D
100
AcDbEntity
  8
部品1
 48
50.0
100
AcDbLine
 10
8323.600000000004
 20
7096.957947811562
 30
0.0
 11
8323.600000000004
 21
7296.957947811562
 31
0.0
  0
LINE
  5
24B04
330
747D
100
AcDbEntity
  8
部品1
 48
50.0
100
AcDbLine
 10
8323.600000000004
 20
7096.957947811562
 30
0.0
 11
8123.600000000005
 21
7096.957947811562
 31
0.0
  0
LINE
  5
24B05
330
747D
100
AcDbEntity
  8
センター
 48
2.0
100
AcDbLine
 10
8173.600000000005
 20
7196.957947811561
 30
0.0
 11
8273.600000000005
 21
7196.957947811561
 31
0.0
  0
LINE
  5
24B06
330
747D
100
AcDbEntity
  8
部品1
 48
50.0
100
AcDbLine
 10
8323.600000000004
 20
7296.957947811562
 30
0.0
 11
8123.600000000005
 21
7296.957947811562
 31
0.0
  0
LINE
  5
24B12
330
747D
100
AcDbEntity
  8
センター
 48
2.0
100
AcDbLine
 10
9068.600000000003
 20
7196.957947811561
 30
0.0
 11
9168.600000000003
 21
7196.957947811561
 31
0.0
  0
LINE
  5
24B15
330
747D
100
AcDbEntity
  8
センター
 48
2.0
100
AcDbLine
 10
9118.600000000004
 20
7246.957947811562
 30
0.0
 11
9118.600000000004
 21
7146.957947811562
 31
0.0
  0
LINE
  5
24B17
330
747D
100
AcDbEntity
  8
部品1
 48
50.0
100
AcDbLine
 10
9018.600000000006
 20
6296.957947811562
 30
0.0
 11
9018.600000000006
 21
6496.957947811562
 31
0.0
  0
LINE
  5
24B18
330
747D
100
AcDbEntity
  8
センター
 48
2.0
100
AcDbLine
 10
9118.600000000006
 20
6446.957947811561
 30
0.0
 11
9118.600000000006
 21
6346.957947811562
 31
0.0
  0
LINE
  5
24B19
330
747D
100
AcDbEntity
  8
部品1
 48
50.0
100
AcDbLine
 10
9218.600000000007
 20
6296.957947811562
 30
0.0
 11
9218.600000000007
 21
6496.957947811562
 31
0.0
  0
LINE
  5
24B1A
330
747D
100
AcDbEntity
  8
部品1
 48
50.0
100
AcDbLine
 10
9218.600000000007
 20
6296.957947811562
 30
0.0
 11
9018.600000000006
 21
6296.957947811562
 31
0.0
  0
LINE
  5
24B1B
330
747D
100
AcDbEntity
  8
センター
 48
2.0
100
AcDbLine
 10
9068.600000000007
 20
6396.957947811562
 30
0.0
 11
9168.600000000006
 21
6396.957947811562
 31
0.0
  0
LINE
  5
24B1C
330
747D
100
AcDbEntity
  8
部品1
 48
50.0
100
AcDbLine
 10
9218.600000000007
 20
6496.957947811562
 30
0.0
 11
9018.600000000006
 21
6496.957947811562
 31
0.0
  0
LINE
  5
24B1D
330
747D
100
AcDbEntity
  8
部品1
 48
50.0
100
AcDbLine
 10
9218.6
 20
8096.957947811551
 30
0.0
 11
9018.600000000001
 21
8096.957947811551
 31
0.0
  0
LINE
  5
24B1E
330
747D
100
AcDbEntity
  8
センター
 48
2.0
100
AcDbLine
 10
9068.600000000001
 20
7996.957947811552
 30
0.0
 11
9168.600000000001
 21
7996.957947811552
 31
0.0
  0
LINE
  5
24B1F
330
747D
100
AcDbEntity
  8
部品1
 48
50.0
100
AcDbLine
 10
9218.6
 20
7896.957947811552
 30
0.0
 11
9018.600000000001
 21
7896.957947811552
 31
0.0
  0
LINE
  5
24B20
330
747D
100
AcDbEntity
  8
部品1
 48
50.0
100
AcDbLine
 10
9218.6
 20
7896.957947811552
 30
0.0
 11
9218.6
 21
8096.957947811551
 31
0.0
  0
LINE
  5
24B21
330
747D
100
AcDbEntity
  8
センター
 48
2.0
100
AcDbLine
 10
9118.6
 20
8046.957947811552
 30
0.0
 11
9118.6
 21
7946.957947811552
 31
0.0
  0
LINE
  5
24B22
330
747D
100
AcDbEntity
  8
部品1
 48
50.0
100
AcDbLine
 10
9018.600000000001
 20
7896.957947811552
 30
0.0
 11
9018.600000000001
 21
8096.957947811551
 31
0.0
  0
DIMENSION
  5
24B74
330
747D
100
AcDbEntity
  8
寸法
 48
50.0
100
AcDbDimension
  2
*D30
 10
8918.973698583075
 20
6396.957947811562
 30
0.0
 11
8818.973698583073
 21
6796.957947811555
 31
0.0
 70
    32
 71
     5
 42
799.9999999999845
  3
INABA_S40G
100
AcDbAlignedDimension
 13
9018.600000000006
 23
7196.957947811546
 33
0.0
 14
9018.600000000006
 24
6396.957947811562
 34
0.0
 50
90.0
100
AcDbRotatedDimension
1001
ACAD
1000
DSTYLE
1002
{
1070
   341
1005
0
1002
}
  0
DIMENSION
  5
24CFE
330
747D
100
AcDbEntity
  8
寸法
 48
50.0
100
AcDbDimension
  2
*D31
 10
6901.96183728971
 20
5591.957947811543
 30
0.0
 11
6901.96183728971
 21
5353.26300660765
 31
0.0
 70
   160
 71
     5
 42
195.0000000000145
  3
INABA_S40G
100
AcDbAlignedDimension
 13
6658.599999999999
 23
5786.957947811558
 33
0.0
 14
6658.600000000001
 24
5591.957947811543
 34
0.0
 50
90.0
100
AcDbRotatedDimension
1001
ACAD
1000
DSTYLE
1002
{
1070
   341
1005
0
1002
}
  0
DIMENSION
  5
24FFF
330
747D
100
AcDbEntity
  8
寸法
 48
50.0
100
AcDbDimension
  2
*D32
 10
6192.312481891146
 20
5666.957947811576
 30
0.0
 11
6192.312481891145
 21
5058.472666437338
 31
0.0
 70
   160
  1
扉の出<>
 71
     5
 42
75.00000000000091
  3
INABA_S40G
100
AcDbAlignedDimension
 13
6428.6
 23
5591.957947811575
 33
0.0
 14
6428.600000000007
 24
5666.957947811576
 34
0.0
 50
90.0
100
AcDbRotatedDimension
1001
ACAD
1000
DSTYLE
1002
{
1070
   341
1005
0
1002
}
  0
TEXT
  5
25001
330
747D
100
AcDbEntity
  8
寸法
 62
     7
100
AcDbText
 10
7583.456352585791
 20
4336.525672413339
 30
0.0
 40
120.0
  1
扉の位置に合わせた基礎形状として下さい。
  7
STYLE1
100
AcDbText
  0
LWPOLYLINE
  5
25002
330
747D
100
AcDbEntity
  8
寸法
 48
50.0
100
AcDbPolyline
 90
        3
 70
     0
 43
0.0
 10
-7807.850857895411
 20
5591.957947811547
 10
-7466.840393393039
 20
4485.861487748343
 10
-10280.90480632468
 20
4485.861487748343
210
0.0
220
0.0
230
-1.0
1001
ACAD
1000
DSTYLE
1002
{
1070
   341
1005
0
1070
    40
1040
1.0
1070
   343
1005
0
1070
   344
1005
0
1002
}
  0
SOLID
  5
25003
330
747D
100
AcDbEntity
  8
寸法
 48
50.0
100
AcDbTrace
 10
-7790.941652225424
 20
5466.36691890666
 30
0.0
 11
-7807.850857895411
 21
5591.957947811547
 31
0.0
 12
-7751.123437751947
 22
5478.63968987557
 32
0.0
 13
-7751.123437751947
 23
5478.63968987557
 33
0.0
210
0.0
220
0.0
230
-1.0
1001
ACAD
1000
DSTYLE
1002
{
1070
   341
1005
0
1070
    40
1040
1.0
1070
   343
1005
0
1070
   344
1005
0
1002
}
  0
TEXT
  5
25004
330
747D
100
AcDbEntity
  8
寸法
 62
     7
100
AcDbText
 10
7583.456352585791
 20
4508.129435296664
 30
0.0
 40
120.0
  1
扉位置 (1768x75)
  7
STYLE1
100
AcDbText
  0
LINE
  5
25005
330
747D
100
AcDbEntity
  8
想像線
 48
10.0
100
AcDbLine
 10
8727.16214885316
 20
8801.957947811551
 30
0.0
 11
10063.6
 21
8801.957947811549
 31
0.0
  0
LINE
  5
2538B
330
747D
100
AcDbEntity
  8
想像線
 48
10.0
100
AcDbLine
 10
8727.16214885316
 20
5611.95794781156
 30
0.0
 11
10063.6
 21
5611.957947811557
 31
0.0
  0
LINE
  5
25439
330
747D
100
AcDbEntity
  8
部品1
 48
50.0
100
AcDbLine
 10
10018.6
 20
5666.957947811567
 30
0.0
 11
8196.600000000001
 21
5666.95794781155
 31
0.0
  0
LINE
  5
2591F
330
747D
100
AcDbEntity
  8
部品1
 48
50.0
100
AcDbLine
 10
7423.599999999997
 20
7001.957947811551
 30
0.0
 11
7233.599999999997
 21
7001.957947811551
 31
0.0
  0
LINE
  5
25920
330
747D
100
AcDbEntity
  8
部品1
 48
50.0
100
AcDbLine
 10
7233.599999999997
 20
7001.957947811551
 30
0.0
 11
7233.599999999997
 21
7391.957947811551
 31
0.0
  0
LINE
  5
25921
330
747D
100
AcDbEntity
  8
部品1
 48
50.0
100
AcDbLine
 10
7423.599999999997
 20
7001.957947811551
 30
0.0
 11
7423.599999999997
 21
7391.957947811551
 31
0.0
  0
LINE
  5
25922
330
747D
100
AcDbEntity
  8
部品1
 48
50.0
100
AcDbLine
 10
7423.599999999997
 20
7391.957947811551
 30
0.0
 11
7233.599999999997
 21
7391.957947811551
 31
0.0
  0
LINE
  5
25927
330
747D
100
AcDbEntity
  8
部品1
 48
50.0
100
AcDbLine
 10
9213.599999999997
 20
7391.957947811551
 30
0.0
 11
9023.599999999998
 21
7391.957947811551
 31
0.0
  0
LINE
  5
25928
330
747D
100
AcDbEntity
  8
部品1
 48
50.0
100
AcDbLine
 10
9213.599999999997
 20
7001.957947811551
 30
0.0
 11
9213.599999999997
 21
7391.957947811551
 31
0.0
  0
LINE
  5
25929
330
747D
100
AcDbEntity
  8
部品1
 48
50.0
100
AcDbLine
 10
9023.599999999998
 20
7001.957947811551
 30
0.0
 11
9023.599999999998
 21
7391.957947811551
 31
0.0
  0
LINE
  5
2592A
330
747D
100
AcDbEntity
  8
部品1
 48
50.0
100
AcDbLine
 10
9213.599999999997
 20
7001.957947811551
 30
0.0
 11
9023.599999999998
 21
7001.957947811551
 31
0.0
  0
HATCH
  5
25985
330
747D
100
AcDbEntity
  8
細線
 48
50.0
100
AcDbHatch
 10
0.0
 20
0.0
 30
0.0
210
0.0
220
0.0
230
1.0
  2
LINE
 70
     0
 71
     0
 91
        1
 92
        7
 72
     0
 73
     1
 93
        4
 10
10018.6
 20
7296.957947811552
 10
9898.6
 20
7296.95794781155
 10
9898.6
 20
7096.957947811552
 10
10018.6
 20
7096.957947811553
 97
        0
 75
     0
 76
     1
 52
45.0
 41
10.0
 77
     0
 78
     1
 53
45.0
 43
0.0
 44
0.0
 45
-22.45064030267288
 46
22.45064030267288
 79
     0
 47
2.764399221619746
 98
        2
 10
9973.71393665205
 20
7234.223510913181
 10
9954.354900252184
 20
7209.343887391726
  0
HATCH
  5
259AA
330
747D
100
AcDbEntity
  8
細線
 48
50.0
100
AcDbHatch
 10
0.0
 20
0.0
 30
0.0
210
0.0
220
0.0
230
1.0
  2
LINE
 70
     0
 71
     0
 91
        1
 92
        7
 72
     0
 73
     1
 93
        4
 10
9218.600000000007
 20
8726.95794781155
 10
9018.600000000006
 20
8726.957947811548
 10
9018.600000000008
 20
8606.957947811553
 10
9218.600000000007
 20
8606.957947811553
 97
        0
 75
     0
 76
     1
 52
45.0
 41
10.0
 77
     0
 78
     1
 53
45.0
 43
0.0
 44
0.0
 45
-22.45064030267288
 46
22.45064030267288
 79
     0
 47
4.962540332277405
 98
        1
 10
9188.566205682931
 20
8666.13780891854
  0
HATCH
  5
259CF
330
747D
100
AcDbEntity
  8
細線
 48
50.0
100
AcDbHatch
 10
0.0
 20
0.0
 30
0.0
210
0.0
220
0.0
230
1.0
  2
LINE
 70
     0
 71
     0
 91
        1
 92
        7
 72
     0
 73
     1
 93
        4
 10
7428.600000000007
 20
8726.957947811548
 10
7228.600000000007
 20
8726.957947811548
 10
7228.60000000001
 20
8606.957947811553
 10
7428.600000000009
 20
8606.957947811553
 97
        0
 75
     0
 76
     1
 52
45.0
 41
10.0
 77
     0
 78
     1
 53
45.0
 43
0.0
 44
0.0
 45
-22.45064030267288
 46
22.45064030267288
 79
     0
 47
4.962540332277405
 98
        1
 10
7341.716287799215
 20
8671.100341043835
  0
HATCH
  5
259EA
330
747D
100
AcDbEntity
  8
細線
 48
50.0
100
AcDbHatch
 10
0.0
 20
0.0
 30
0.0
210
0.0
220
0.0
230
1.0
  2
LINE
 70
     0
 71
     0
 91
        1
 92
        7
 72
     0
 73
     1
 93
        4
 10
6548.600000000002
 20
7296.957947811552
 10
6428.6
 20
7296.95794781155
 10
6428.6
 20
7096.95794781155
 10
6548.600000000002
 20
7096.95794781155
 97
        0
 75
     0
 76
     1
 52
45.0
 41
10.0
 77
     0
 78
     1
 53
45.0
 43
0.0
 44
0.0
 45
-22.45064030267288
 46
22.45064030267288
 79
     0
 47
4.962540332277409
 98
        1
 10
6510.932684675317
 20
7186.087701969395
  0
HATCH
  5
259FD
330
747D
100
AcDbEntity
  8
細線
 48
50.0
100
AcDbHatch
 10
0.0
 20
0.0
 30
0.0
210
0.0
220
0.0
230
1.0
  2
LINE
 70
     0
 71
     0
 91
        1
 92
        7
 72
     0
 73
     1
 93
        4
 10
7428.6
 20
5786.95794781156
 10
7228.6
 20
5786.95794781156
 10
7228.6
 20
5591.957947811549
 10
7428.600000000002
 20
5591.957947811552
 97
        0
 75
     0
 76
     1
 52
45.0
 41
10.0
 77
     0
 78
     1
 53
45.0
 43
0.0
 44
0.0
 45
-22.45064030267288
 46
22.45064030267288
 79
     0
 47
4.962540332277411
 98
        1
 10
7295.925839880524
 20
5666.349561156578
  0
HATCH
  5
25A10
330
747D
100
AcDbEntity
  8
細線
 48
50.0
100
AcDbHatch
 10
0.0
 20
0.0
 30
0.0
210
0.0
220
0.0
230
1.0
  2
LINE
 70
     0
 71
     0
 91
        1
 92
        7
 72
     0
 73
     1
 93
        4
 10
9218.600000000014
 20
5786.957947811565
 10
9018.600000000015
 20
5786.957947811565
 10
9018.600000000015
 20
5666.957947811557
 10
9218.600000000014
 20
5666.957947811559
 97
        0
 75
     0
 76
     1
 52
45.0
 41
10.0
 77
     0
 78
     1
 53
45.0
 43
0.0
 44
0.0
 45
-22.45064030267288
 46
22.45064030267288
 79
     0
 47
4.962540332277411
 98
        1
 10
9058.376678774882
 20
5715.974975716006
  0
LINE
  5
25B93
330
747D
100
AcDbEntity
  8
細線
100
AcDbLine
 10
10503.76018934656
 20
1655.701502940622
 30
0.0
 11
10260.46852225058
 21
1898.993170036601
 31
0.0
  0
LINE
  5
25B94
330
747D
100
AcDbEntity
  8
細線
100
AcDbLine
 10
10440.12057903977
 20
1655.701502940622
 30
0.0
 11
10260.46852225058
 21
1835.353559729813
 31
0.0
  0
LINE
  5
25B95
330
747D
100
AcDbEntity
  8
部品1
100
AcDbLine
 10
10260.46852225058
 20
1955.701502940623
 30
0.0
 11
10860.46852225058
 21
1955.701502940623
 31
0.0
  0
LINE
  5
25B96
330
747D
100
AcDbEntity
  8
細線
100
AcDbLine
 10
10251.76401537474
 20
1541.077858373934
 30
0.0
 11
10366.38765994143
 21
1655.701502940621
 31
0.0
  0
LWPOLYLINE
  5
25B97
330
747D
100
AcDbEntity
  8
部品1
 48
50.0
100
AcDbPolyline
 90
        2
 70
     0
 43
15.0
 10
9779.704444625103
 20
1655.701502940622
 10
11281.06982353963
 20
1655.701502940622
  0
LINE
  5
25B98
330
747D
100
AcDbEntity
  8
部品1
100
AcDbLine
 10
10110.46852225058
 20
1541.077858373934
 30
0.0
 11
11010.46852225058
 21
1541.077858373938
 31
0.0
  0
LINE
  5
25B99
330
747D
100
AcDbEntity
  8
部品1
100
AcDbLine
 10
10110.46852225058
 20
1381.077858373931
 30
0.0
 11
11010.46852225058
 21
1381.077858373935
 31
0.0
  0
LINE
  5
25B9A
330
747D
100
AcDbEntity
  8
部品1
100
AcDbLine
 10
4704.504753971693
 20
347.8465283069904
 30
0.0
 11
11600.97945006972
 21
347.8465283069904
 31
0.0
  0
LINE
  5
25B9B
330
747D
100
AcDbEntity
  8
部品1
100
AcDbLine
 10
11600.97945006972
 20
3306.916027661677
 30
0.0
 11
4704.504753971693
 21
3306.916027661677
 31
0.0
  0
LINE
  5
25B9C
330
747D
100
AcDbEntity
  8
部品1
100
AcDbLine
 10
11600.97945006972
 20
3606.916027661679
 30
0.0
 11
4704.504753971693
 21
3606.916027661679
 31
0.0
  0
LEADER
  5
25B9D
330
747D
100
AcDbEntity
  8
寸法
 48
50.0
100
AcDbLeader
  3
INABA_S40G
 73
     0
 75
     1
 40
141.4772727272727
 41
760.7954545454546
 76
     3
 10
8186.025524667529
 20
1892.596094638471
 30
0.0
 10
7971.270738803347
 20
2948.06994758407
 30
0.0
 10
7871.270738803346
 20
2948.06994758407
 30
0.0
340
25B9E
1001
ACAD
1000
DSTYLE
1002
{
1070
   341
1005
0
1002
}
  0
MTEXT
  5
25B9E
102
{ACAD_REACTORS
330
25B9D
102
}
330
747D
100
AcDbEntity
  8
寸法
 62
     7
 48
50.0
100
AcDbMText
 10
7831.270738803347
 20
3058.808583947705
 30
0.0
 40
100.0
 41
1.0
 71
     6
 72
     1
  1
\A1;φ70スリーブ
  7
STYLE2
 73
     1
 44
1.0
1001
ACAD
1000
MTEXTBEGIN
1070
    73
1070
     1
1070
    44
1040
1.0
1070
    74
1070
     0
1000
MTEXTEND
  0
LINE
  5
25B9F
330
747D
100
AcDbEntity
  8
部品1
100
AcDbLine
 10
4704.504753971698
 20
3606.916027661679
 30
0.0
 11
4704.504753971698
 21
347.8465283069904
 31
0.0
  0
DIMENSION
  5
25BA0
330
747D
100
AcDbEntity
  8
寸法
 48
50.0
100
AcDbDimension
  2
*D36
 10
5823.305445523477
 20
2480.286262836098
 30
0.0
 11
5943.305445523476
 21
2480.286262836098
 31
0.0
 70
   160
  1
120\P(195)
 71
     5
 42
240.0
  3
INABA_S40G
100
AcDbAlignedDimension
 13
6063.305445523476
 23
1955.701502940623
 33
0.0
 14
5823.305445523477
 24
1955.701502940623
 34
0.0
100
AcDbRotatedDimension
1001
ACAD
1000
DSTYLE
1002
{
1070
   341
1005
0
1002
}
  0
LEADER
  5
25BA1
330
747D
100
AcDbEntity
  8
寸法
 48
50.0
100
AcDbLeader
  3
INABA_S40G
 73
     0
 74
     0
 75
     1
 40
127.8409090909091
 41
1133.522727272727
 76
     3
 10
8275.104586994967
 20
2292.105613495972
 30
0.0
 10
8374.944074956021
 20
2727.400264754244
 30
0.0
 10
8474.94407495602
 20
2727.400264754244
 30
0.0
340
25BA2
1001
ACAD
1000
DSTYLE
1002
{
1070
   341
1005
0
1002
}
  0
MTEXT
  5
25BA2
102
{ACAD_REACTORS
330
25BA1
102
}
330
747D
100
AcDbEntity
  8
部品1
 62
     7
 48
50.0
100
AcDbMText
 10
8514.944074956019
 20
2831.320719299698
 30
0.0
 40
100.0
 41
1.0
 71
     4
 72
     1
  1
\A1;ワッシャー(市販品)
  7
STYLE2
 73
     1
 44
1.0
1001
ACAD
1000
MTEXTBEGIN
1070
    73
1070
     1
1070
    44
1040
1.0
1070
    74
1070
     0
1000
MTEXTEND
  0
LEADER
  5
25BA3
330
747D
100
AcDbEntity
  8
寸法
 48
50.0
100
AcDbLeader
  3
INABA_S40G
 73
     0
 74
     0
 75
     1
 40
127.8409090909091
 41
850.0
 76
     3
 10
8245.104586994967
 20
2454.295604327051
 30
0.0
 10
8335.547050886665
 20
2958.611618210229
 30
0.0
 10
8435.547050886665
 20
2958.611618210229
 30
0.0
340
25BA4
1001
ACAD
1000
DSTYLE
1002
{
1070
   341
1005
0
1002
}
  0
MTEXT
  5
25BA4
102
{ACAD_REACTORS
330
25BA3
102
}
330
747D
100
AcDbEntity
  8
部品1
 62
     7
 48
50.0
100
AcDbMText
 10
8475.547050886664
 20
3062.532072755683
 30
0.0
 40
100.0
 41
1.0
 71
     4
 72
     1
  1
\A1;ナット(市販品)
  7
STYLE2
 73
     1
 44
1.0
1001
ACAD
1000
MTEXTBEGIN
1070
    73
1070
     1
1070
    44
1040
1.0
1070
    74
1070
     0
1000
MTEXTEND
  0
MTEXT
  5
25BA5
102
{ACAD_REACTORS
330
25BA6
102
}
330
747D
100
AcDbEntity
  8
寸法
 62
     7
 48
50.0
100
AcDbMText
 10
7864.574496563794
 20
2607.953244063311
 30
0.0
 40
100.0
 41
1.0
 71
     6
 72
     1
  1
\A1;アンカープレート L
  7
STYLE2
 73
     1
 44
1.0
1001
ACAD
1000
MTEXTBEGIN
1070
    73
1070
     1
1070
    44
1040
1.0
1070
    74
1070
     0
1000
MTEXTEND
  0
LEADER
  5
25BA6
330
747D
100
AcDbEntity
  8
寸法
 48
50.0
100
AcDbLeader
  3
INABA_S40G
 73
     0
 75
     1
 40
132.9545454545455
 41
1116.477272727273
 76
     3
 10
8112.604586994967
 20
2042.651502940623
 30
0.0
 10
8004.574496563794
 20
2501.475971336038
 30
0.0
 10
7904.574496563793
 20
2501.475971336038
 30
0.0
340
25BA5
1001
ACAD
1000
DSTYLE
1002
{
1070
   341
1005
0
1002
}
  0
TEXT
  5
25BA7
330
747D
100
AcDbEntity
  8
部品1
 48
50.0
100
AcDbText
 10
5305.63056823228
 20
1669.750243294691
 30
0.0
 40
100.0
  1
▽G.L
  7
STYLE2
100
AcDbText
  0
LWPOLYLINE
  5
25BA8
330
747D
100
AcDbEntity
  8
部品1
 48
50.0
100
AcDbPolyline
 90
        2
 70
     0
 43
10.0
 10
5305.63056823228
 20
1655.701502940624
 10
5823.305445523477
 20
1655.701502940624
  0
DIMENSION
  5
25BA9
330
747D
100
AcDbEntity
  8
寸法
 48
50.0
100
AcDbDimension
  2
*D37
 10
5485.280053357901
 20
975.7015029406217
 30
0.0
 11
5485.280053357901
 21
1125.701502940621
 31
0.0
 70
   160
  1
150
 71
     5
 42
299.9999999999996
  3
INABA_S40G
100
AcDbAlignedDimension
 13
5663.305445523475
 23
1275.701502940621
 33
0.0
 14
5563.305445523479
 24
975.7015029406217
 34
0.0
 50
90.0
100
AcDbRotatedDimension
1001
ACAD
1000
DSTYLE
1002
{
1070
   341
1005
0
1002
}
  0
DIMENSION
  5
25BAA
330
747D
100
AcDbEntity
  8
寸法
 48
50.0
100
AcDbDimension
  2
*D38
 10
5062.660507487411
 20
975.7015029406217
 30
0.0
 11
5062.660507487411
 21
1465.701502940622
 31
0.0
 70
   160
  1
540
 71
     5
 42
980.0000000000016
  3
INABA_S40G
100
AcDbAlignedDimension
 13
5823.305445523477
 23
1955.701502940623
 33
0.0
 14
5563.305445523479
 24
975.7015029406217
 34
0.0
 50
90.0
100
AcDbRotatedDimension
1001
ACAD
1000
DSTYLE
1002
{
1070
   341
1005
0
1002
}
  0
MTEXT
  5
25BAB
102
{ACAD_REACTORS
330
25BAC
102
}
330
747D
100
AcDbEntity
  8
寸法
 62
     7
 48
50.0
100
AcDbMText
 10
5739.387445605194
 20
2221.346777943177
 30
0.0
 40
100.0
 41
1.0
 71
     6
 72
     1
  1
\A1;金コテ押エ
  7
STYLE2
 73
     1
 44
1.0
1001
ACAD
1000
MTEXTBEGIN
1070
    73
1070
     1
1070
    44
1040
1.0
1070
    74
1070
     0
1000
MTEXTEND
  0
LEADER
  5
25BAC
330
747D
100
AcDbEntity
  8
寸法
 48
50.0
100
AcDbLeader
  3
INABA_S40G
 71
     0
 73
     0
 75
     1
 40
130.1136363636363
 41
651.1363636363636
 76
     3
 10
5923.305445523476
 20
1955.701502940623
 30
0.0
 10
5864.387445605194
 20
2131.289959761357
 30
0.0
 10
5764.387445605194
 20
2131.289959761357
 30
0.0
1001
ACAD
1000
DSTYLE
1002
{
1070
   341
1005
0
1002
}
  0
LEADER
  5
25BAD
330
747D
100
AcDbEntity
  8
寸法
 48
50.0
100
AcDbLeader
  3
INABA_S40G
 71
     0
 73
     0
 75
     1
 40
100.0
 41
540.3409090909091
 76
     3
 10
5953.305445523476
 20
1653.360521312026
 30
0.0
 10
5824.577649862604
 20
1376.522610636021
 30
0.0
 10
5724.577649862603
 20
1376.522610636021
 30
0.0
213
-12.16522788236671
223
-5.804645826423211
233
0.0
1001
ACAD
1000
DSTYLE
1002
{
1070
   341
1005
0
1002
}
  0
MTEXT
  5
25BAE
102
{ACAD_REACTORS
330
25BAD
102
}
330
747D
100
AcDbEntity
  8
寸法
 62
     7
 48
50.0
100
AcDbMText
 10
5711.742877744969
 20
1457.327256462442
 30
0.0
 40
100.0
 41
1.0
 71
     6
 72
     1
  1
\A1;D10@300
  7
STYLE2
 73
     1
 44
1.0
1001
ACAD
1000
MTEXTBEGIN
1070
    73
1070
     1
1070
    44
1040
1.0
1070
    74
1070
     0
1000
MTEXTEND
  0
MTEXT
  5
25BAF
102
{ACAD_REACTORS
330
25BB0
102
}
330
747D
100
AcDbEntity
  8
寸法
 62
     7
 48
50.0
100
AcDbMText
 10
5484.790072226276
 20
645.9029452432728
 30
0.0
 40
100.0
 41
1.0
 71
     6
 72
     1
  1
D13
  7
STYLE2
 73
     1
 44
1.0
1001
ACAD
1000
MTEXTBEGIN
1070
    73
1070
     1
1070
    44
1040
1.0
1070
    74
1070
     0
1000
MTEXTEND
  0
LEADER
  5
25BB0
330
747D
100
AcDbEntity
  8
寸法
 48
50.0
100
AcDbLeader
  3
INABA_S40G
 71
     0
 73
     0
 75
     1
 40
100.0
 41
222.7272727272727
 76
     3
 10
5943.305445523475
 20
1125.701502940621
 30
0.0
 10
5609.790072226275
 20
570.9029452432728
 30
0.0
 10
5509.790072226276
 20
570.9029452432728
 30
0.0
1001
ACAD
1000
DSTYLE
1002
{
1070
   341
1005
0
1002
}
  0
LEADER
  5
25BB1
330
747D
100
AcDbEntity
  8
寸法
 48
50.0
100
AcDbLeader
  3
INABA_S40G
 71
     0
 73
     0
 75
     1
 40
100.0
 41
225.0
 76
     3
 10
5783.184135963654
 20
1125.701502940621
 30
0.0
 10
5574.636662779481
 20
796.2981359175768
 30
0.0
 10
5474.636662779481
 20
796.2981359175768
 30
0.0
1001
ACAD
1000
DSTYLE
1002
{
1070
   341
1005
0
1002
}
  0
MTEXT
  5
25BB2
102
{ACAD_REACTORS
330
25BB1
102
}
330
747D
100
AcDbEntity
  8
寸法
 62
     7
 48
50.0
100
AcDbMText
 10
5449.636662779483
 20
871.2981359175769
 30
0.0
 40
100.0
 41
1.0
 71
     6
 72
     1
  1
D10
  7
STYLE2
 73
     1
 44
1.0
1001
ACAD
1000
MTEXTBEGIN
1070
    73
1070
     1
1070
    44
1040
1.0
1070
    74
1070
     0
1000
MTEXTEND
  0
LINE
  5
25BB3
330
747D
100
AcDbEntity
  8
部品1
 48
50.0
100
AcDbLine
 10
6063.305445523476
 20
1955.701502940623
 30
0.0
 11
6063.305445523476
 21
1275.701502940621
 31
0.0
  0
LINE
  5
25BB4
330
747D
100
AcDbEntity
  8
細線
 48
50.0
100
AcDbLine
 10
5823.305445523477
 20
1334.259935143336
 30
0.0
 11
5953.305445523483
 21
1464.259935143336
 31
0.0
  0
LINE
  5
25BB5
330
747D
100
AcDbEntity
  8
細線
 48
50.0
100
AcDbLine
 10
5823.305445523477
 20
1401.611856051354
 30
0.0
 11
5953.305445523476
 21
1531.611856051354
 31
0.0
  0
LINE
  5
25BB6
330
747D
100
AcDbEntity
  8
細線
 48
50.0
100
AcDbLine
 10
5823.305445523477
 20
1367.935895597344
 30
0.0
 11
5953.305445523483
 21
1497.935895597349
 31
0.0
  0
LINE
  5
25BB7
330
747D
100
AcDbEntity
  8
部品1
 48
50.0
100
AcDbLine
 10
5823.305445523477
 20
1275.701502940621
 30
0.0
 11
5823.305445523477
 21
1955.701502940623
 31
0.0
  0
LINE
  5
25BB8
330
747D
100
AcDbEntity
  8
部品1
 48
50.0
100
AcDbLine
 10
5953.305445523483
 20
1125.701502940621
 30
0.0
 11
5953.305445523469
 21
1781.019539683428
 31
0.0
  0
LINE
  5
25BB9
330
747D
100
AcDbEntity
  8
部品1
 48
50.0
100
AcDbLine
 10
5973.305445523482
 20
1125.701502940621
 30
0.0
 11
5973.305445523476
 21
1781.019539683428
 31
0.0
  0
LINE
  5
25BBA
330
747D
100
AcDbEntity
  8
部品1
 48
50.0
100
AcDbLine
 10
6063.305445523476
 20
1275.701502940621
 30
0.0
 11
6223.305445523476
 21
1275.701502940621
 31
0.0
  0
LINE
  5
25BBB
330
747D
100
AcDbEntity
  8
細線
 48
50.0
100
AcDbLine
 10
6109.886420130906
 20
1115.701502940621
 30
0.0
 11
6223.305445523476
 21
1229.120528333196
 31
0.0
  0
LINE
  5
25BBC
330
747D
100
AcDbEntity
  8
細線
 48
50.0
100
AcDbLine
 10
6143.562380584911
 20
1115.701502940621
 30
0.0
 11
6223.305445523476
 21
1195.444567879186
 31
0.0
  0
LINE
  5
25BBD
330
747D
100
AcDbEntity
  8
細線
 48
50.0
100
AcDbLine
 10
6076.210459676887
 20
1115.701502940621
 30
0.0
 11
6223.305445523476
 21
1262.796488787205
 31
0.0
  0
LEADER
  5
25BBE
330
747D
100
AcDbEntity
  8
寸法
 48
50.0
100
AcDbLeader
  3
INABA_S40G
 71
     0
 73
     0
 74
     0
 75
     1
 40
100.0
 41
225.0
 76
     3
 10
6103.184135963655
 20
1125.701502940621
 30
0.0
 10
6227.465020281832
 20
1006.455166761906
 30
0.0
 10
6327.465020281832
 20
1006.455166761906
 30
0.0
1001
ACAD
1000
DSTYLE
1002
{
1070
   341
1005
0
1002
}
  0
DIMENSION
  5
25BBF
330
747D
100
AcDbEntity
  8
寸法
 48
50.0
100
AcDbDimension
  2
*D33
 10
6223.305445523476
 20
516.7493964846885
 30
0.0
 11
5943.305445523475
 21
516.7493964846885
 31
0.0
 70
   160
  1
300
 71
     5
 42
560.0000000000009
  3
INABA_S40G
100
AcDbAlignedDimension
 13
5663.305445523475
 23
815.7015029406215
 33
0.0
 14
6223.305445523476
 24
815.7015029406215
 34
0.0
100
AcDbRotatedDimension
1001
ACAD
1000
DSTYLE
1002
{
1070
   341
1005
0
1002
}
  0
LEADER
  5
25BC0
330
747D
100
AcDbEntity
  8
寸法
 48
50.0
100
AcDbLeader
  3
INABA_S40G
 71
     0
 73
     0
 74
     0
 75
     1
 40
100.0
 41
540.3409090909091
 76
     3
 10
6035.736906789943
 20
1104.775839923715
 30
0.0
 10
6240.478515350039
 20
677.7373174300937
 30
0.0
 10
6340.478515350039
 20
677.7373174300937
 30
0.0
213
0.0
223
-1.277828345336728
233
0.0
1001
ACAD
1000
DSTYLE
1002
{
1070
   341
1005
0
1002
}
  0
LINE
  5
25BC1
330
747D
100
AcDbEntity
  8
部品1
 48
50.0
100
AcDbLine
 10
6323.30544552348
 20
975.7015029406217
 30
0.0
 11
5563.305445523479
 21
975.7015029406217
 31
0.0
  0
LINE
  5
25BC2
330
747D
100
AcDbEntity
  8
部品1
 48
50.0
100
AcDbLine
 10
6323.30544552348
 20
815.7015029406215
 30
0.0
 11
5563.305445523479
 21
815.7015029406215
 31
0.0
  0
LINE
  5
25BC3
330
747D
100
AcDbEntity
  8
細線
 48
50.0
100
AcDbLine
 10
6117.004107261614
 20
815.7015029406206
 30
0.0
 11
6159.875978050592
 21
975.7015029406208
 31
0.0
  0
LINE
  5
25BC4
330
747D
100
AcDbEntity
  8
細線
 48
50.0
100
AcDbLine
 10
5919.783994893496
 20
815.7015029406215
 30
0.0
 11
5962.655865682473
 21
975.7015029406217
 31
0.0
  0
LINE
  5
25BC5
330
747D
100
AcDbEntity
  8
部品1
 48
50.0
100
AcDbLine
 10
5563.305445523479
 20
815.7015029406215
 30
0.0
 11
5563.305445523479
 21
975.7015029406217
 31
0.0
  0
LINE
  5
25BC6
330
747D
100
AcDbEntity
  8
細線
 48
50.0
100
AcDbLine
 10
5623.953826341299
 20
815.7015029406206
 30
0.0
 11
5666.825697130276
 21
975.7015029406208
 31
0.0
  0
LINE
  5
25BC7
330
747D
100
AcDbEntity
  8
細線
 48
50.0
100
AcDbLine
 10
5821.173938709428
 20
815.7015029406206
 30
0.0
 11
5864.045809498407
 21
975.7015029406208
 31
0.0
  0
LINE
  5
25BC8
330
747D
100
AcDbEntity
  8
細線
 48
50.0
100
AcDbLine
 10
5722.563882525371
 20
815.7015029406215
 30
0.0
 11
5765.43575331435
 21
975.7015029406217
 31
0.0
  0
LINE
  5
25BC9
330
747D
100
AcDbEntity
  8
細線
 48
50.0
100
AcDbLine
 10
6018.394051077552
 20
815.7015029406215
 30
0.0
 11
6061.265921866534
 21
975.7015029406208
 31
0.0
  0
LINE
  5
25BCA
330
747D
100
AcDbEntity
  8
細線
 48
50.0
100
AcDbLine
 10
5730.602358298305
 20
845.7015029406216
 30
0.0
 11
5738.640834071238
 21
815.7015029406215
 31
0.0
  0
LINE
  5
25BCB
330
747D
100
AcDbEntity
  8
細線
 48
50.0
100
AcDbLine
 10
5631.992302114241
 20
845.7015029406216
 30
0.0
 11
5640.030777887174
 21
815.7015029406215
 31
0.0
  0
LINE
  5
25BCC
330
747D
100
AcDbEntity
  8
細線
 48
50.0
100
AcDbLine
 10
5927.822470666435
 20
845.7015029406216
 30
0.0
 11
5935.860946439369
 21
815.7015029406215
 31
0.0
  0
LINE
  5
25BCD
330
747D
100
AcDbEntity
  8
細線
 48
50.0
100
AcDbLine
 10
5829.21241448237
 20
845.7015029406216
 30
0.0
 11
5837.250890255303
 21
815.7015029406215
 31
0.0
  0
LINE
  5
25BCE
330
747D
100
AcDbEntity
  8
細線
 48
50.0
100
AcDbLine
 10
6125.042583034549
 20
845.7015029406216
 30
0.0
 11
6133.081058807483
 21
815.7015029406215
 31
0.0
  0
LINE
  5
25BCF
330
747D
100
AcDbEntity
  8
細線
 48
50.0
100
AcDbLine
 10
6026.432526850492
 20
845.7015029406216
 30
0.0
 11
6034.471002623426
 21
815.7015029406215
 31
0.0
  0
LINE
  5
25BD0
330
747D
100
AcDbEntity
  8
部品1
 48
50.0
100
AcDbLine
 10
5663.305445523477
 20
1275.701502940621
 30
0.0
 11
5823.305445523477
 21
1275.701502940621
 31
0.0
  0
LINE
  5
25BD1
330
747D
100
AcDbEntity
  8
細線
 48
50.0
100
AcDbLine
 10
5666.802776044818
 20
975.7015029406217
 30
0.0
 11
5786.802776044819
 21
1095.701502940621
 31
0.0
  0
LINE
  5
25BD2
330
747D
100
AcDbEntity
  8
細線
 48
50.0
100
AcDbLine
 10
5700.478736498831
 20
975.7015029406217
 30
0.0
 11
5820.478736498831
 21
1095.701502940621
 31
0.0
  0
CIRCLE
  5
25BD3
330
747D
100
AcDbEntity
  8
部品1
 48
50.0
100
AcDbCircle
 10
5783.305445523476
 20
1125.701502940621
 30
0.0
 40
10.0
  0
LINE
  5
25BD4
330
747D
100
AcDbEntity
  8
細線
 48
50.0
100
AcDbLine
 10
5734.154696952837
 20
975.7015029406217
 30
0.0
 11
5854.154696952837
 21
1095.701502940621
 31
0.0
  0
LINE
  5
25BD5
330
747D
100
AcDbEntity
  8
部品1
 48
50.0
100
AcDbLine
 10
5733.305445523477
 20
1115.701502940621
 30
0.0
 11
6153.305445523476
 21
1115.701502940621
 31
0.0
  0
LINE
  5
25BD6
330
747D
100
AcDbEntity
  8
部品1
 48
50.0
100
AcDbLine
 10
5733.305445523477
 20
1095.701502940621
 30
0.0
 11
6153.305445523476
 21
1095.701502940621
 31
0.0
  0
LINE
  5
25BD7
330
747D
100
AcDbEntity
  8
部品1
 48
50.0
100
AcDbLine
 10
5663.305445523477
 20
975.7015029406217
 30
0.0
 11
5663.305445523477
 21
1275.701502940621
 31
0.0
  0
LINE
  5
25BD8
330
747D
100
AcDbEntity
  8
細線
 48
50.0
100
AcDbLine
 10
5563.305445523476
 20
957.3764041478467
 30
0.0
 11
5568.21564094622
 21
975.7015029406217
 31
0.0
  0
LINE
  5
25BD9
330
747D
100
AcDbEntity
  8
細線
 48
50.0
100
AcDbLine
 10
5658.787221357351
 20
945.701502940623
 30
0.0
 11
5650.748745584418
 21
975.7015029406217
 31
0.0
  0
LINE
  5
25BDA
330
747D
100
AcDbEntity
  8
細線
 48
50.0
100
AcDbLine
 10
5757.397277541417
 20
945.701502940623
 30
0.0
 11
5749.358801768483
 21
975.7015029406217
 31
0.0
  0
LINE
  5
25BDB
330
747D
100
AcDbEntity
  8
部品1
 48
50.0
100
AcDbLine
 10
5733.305445523477
 20
1115.701502940621
 30
0.0
 11
5733.305445523477
 21
1095.701502940621
 31
0.0
  0
LINE
  5
25BDC
330
747D
100
AcDbEntity
  8
細線
 48
50.0
100
AcDbLine
 10
5663.305445523469
 20
1174.259935143336
 30
0.0
 11
5764.747013320762
 21
1275.701502940621
 31
0.0
  0
LINE
  5
25BDD
330
747D
100
AcDbEntity
  8
細線
 48
50.0
100
AcDbLine
 10
5663.305445523469
 20
1241.611856051354
 30
0.0
 11
5697.395092412744
 21
1275.701502940621
 31
0.0
  0
LINE
  5
25BDE
330
747D
100
AcDbEntity
  8
細線
 48
50.0
100
AcDbLine
 10
5663.305445523469
 20
1207.935895597341
 30
0.0
 11
5731.071052866756
 21
1275.701502940621
 31
0.0
  0
LINE
  5
25BDF
330
747D
100
AcDbEntity
  8
部品1
 48
50.0
100
AcDbLine
 10
5933.305445523476
 20
1198.360521312025
 30
0.0
 11
5933.305445523476
 21
1125.701502940621
 31
0.0
  0
LINE
  5
25BE0
330
747D
100
AcDbEntity
  8
細線
 48
50.0
100
AcDbLine
 10
5840.47873649883
 20
1115.701502940621
 30
0.0
 11
5913.305445523477
 21
1188.52821196527
 31
0.0
  0
LINE
  5
25BE1
330
747D
100
AcDbEntity
  8
部品1
 48
50.0
100
AcDbLine
 10
5913.305445523477
 20
1198.360521312025
 30
0.0
 11
5913.305445523477
 21
1125.701502940621
 31
0.0
  0
LINE
  5
25BE2
330
747D
100
AcDbEntity
  8
細線
 48
50.0
100
AcDbLine
 10
5874.154696952837
 20
1115.701502940621
 30
0.0
 11
5913.305445523477
 21
1154.852251511261
 31
0.0
  0
LINE
  5
25BE3
330
747D
100
AcDbEntity
  8
細線
 48
50.0
100
AcDbLine
 10
5806.802776044817
 20
1115.701502940621
 30
0.0
 11
5953.305445523476
 21
1262.20417241928
 31
0.0
  0
LINE
  5
25BE4
330
747D
100
AcDbEntity
  8
細線
 48
50.0
100
AcDbLine
 10
5936.210459676892
 20
975.7015029406217
 30
0.0
 11
6056.210459676893
 21
1095.701502940621
 31
0.0
  0
LINE
  5
25BE5
330
747D
100
AcDbEntity
  8
細線
 48
50.0
100
AcDbLine
 10
5969.886420130906
 20
975.7015029406217
 30
0.0
 11
6089.886420130905
 21
1095.701502940621
 31
0.0
  0
CIRCLE
  5
25BE6
330
747D
100
AcDbEntity
  8
部品1
 48
50.0
100
AcDbCircle
 10
5943.305445523476
 20
1125.701502940621
 30
0.0
 40
10.0
  0
LINE
  5
25BE7
330
747D
100
AcDbEntity
  8
細線
 48
50.0
100
AcDbLine
 10
5856.007333725482
 20
945.701502940623
 30
0.0
 11
5847.968857952547
 21
975.7015029406217
 31
0.0
  0
ARC
  5
25BE8
330
747D
100
AcDbEntity
  8
部品1
 48
50.0
100
AcDbCircle
 10
5943.305445523476
 20
1125.701502940621
 30
0.0
 40
30.0
100
AcDbArc
 50
180.0
 51
199.4712206345235
  0
LINE
  5
25BE9
330
747D
100
AcDbEntity
  8
細線
 48
50.0
100
AcDbLine
 10
5954.617389909547
 20
945.701502940623
 30
0.0
 11
5946.578914136612
 21
975.7015029406217
 31
0.0
  0
ARC
  5
25BEA
330
747D
100
AcDbEntity
  8
部品1
 48
50.0
100
AcDbCircle
 10
5943.305445523476
 20
1125.701502940621
 30
0.0
 40
30.0
100
AcDbArc
 50
340.5287793654766
 51
0.0
  0
LINE
  5
25BEB
330
747D
100
AcDbEntity
  8
細線
 48
50.0
100
AcDbLine
 10
6053.227446093605
 20
945.701502940623
 30
0.0
 11
6045.188970320671
 21
975.7015029406217
 31
0.0
  0
CIRCLE
  5
25BEC
330
747D
100
AcDbEntity
  8
部品1
 48
50.0
100
AcDbCircle
 10
6103.305445523476
 20
1125.701502940621
 30
0.0
 40
10.0
  0
LINE
  5
25BED
330
747D
100
AcDbEntity
  8
細線
 48
50.0
100
AcDbLine
 10
6151.837502277661
 20
945.701502940623
 30
0.0
 11
6143.799026504729
 21
975.7015029406217
 31
0.0
  0
LINE
  5
25BEE
330
747D
100
AcDbEntity
  8
部品1
 48
50.0
100
AcDbLine
 10
6153.305445523476
 20
1115.701502940621
 30
0.0
 11
6153.305445523476
 21
1095.701502940621
 31
0.0
  0
LINE
  5
25BEF
330
747D
100
AcDbEntity
  8
細線
 48
50.0
100
AcDbLine
 10
6003.562380584912
 20
975.7015029406217
 30
0.0
 11
6123.563490391333
 21
1095.702612747047
 31
0.0
  0
LINE
  5
25BF0
330
747D
100
AcDbEntity
  8
細線
 48
50.0
100
AcDbLine
 10
5973.305445523482
 20
1214.852251511261
 30
0.0
 11
6063.305445523468
 21
1304.852251511261
 31
0.0
  0
LINE
  5
25BF1
330
747D
100
AcDbEntity
  8
細線
 48
50.0
100
AcDbLine
 10
5973.305445523482
 20
1282.204172419284
 30
0.0
 11
6063.305445523468
 21
1372.20417241928
 31
0.0
  0
LINE
  5
25BF2
330
747D
100
AcDbEntity
  8
細線
 48
50.0
100
AcDbLine
 10
5973.305445523482
 20
1248.528211965274
 30
0.0
 11
6063.305445523468
 21
1338.528211965267
 31
0.0
  0
LINE
  5
25BF3
330
747D
100
AcDbEntity
  8
細線
 48
50.0
100
AcDbLine
 10
5933.305445523476
 20
1174.852251511261
 30
0.0
 11
5953.305445523483
 21
1194.852251511261
 31
0.0
  0
LINE
  5
25BF4
330
747D
100
AcDbEntity
  8
細線
 48
50.0
100
AcDbLine
 10
5923.137754870232
 20
1198.360521312025
 30
0.0
 11
5953.305445523483
 21
1228.528211965274
 31
0.0
  0
LINE
  5
25BF5
330
747D
100
AcDbEntity
  8
部品1
 48
50.0
100
AcDbLine
 10
5933.305445523476
 20
1198.360521312025
 30
0.0
 11
5913.305445523477
 21
1198.360521312025
 31
0.0
  0
LINE
  5
25BF6
330
747D
100
AcDbEntity
  8
細線
 48
50.0
100
AcDbLine
 10
6215.614163445667
 20
815.7015029406215
 30
0.0
 11
6258.48603423465
 21
975.7015029406208
 31
0.0
  0
LINE
  5
25BF7
330
747D
100
AcDbEntity
  8
部品1
 48
50.0
100
AcDbLine
 10
6323.30544552348
 20
975.7015029406217
 30
0.0
 11
6323.30544552348
 21
815.7015029406215
 31
0.0
  0
MTEXT
  5
25BF8
102
{ACAD_REACTORS
330
25BC0
102
}
330
747D
100
AcDbEntity
  8
寸法
 62
     7
 48
50.0
100
AcDbMText
 10
6365.47851535004
 20
754.0151457754303
 30
0.0
 40
100.0
 41
1.0
 71
     4
 72
     1
  1
\A1;D10@300
  7
STYLE2
 73
     1
 44
1.0
1001
ACAD
1000
MTEXTBEGIN
1070
    73
1070
     1
1070
    44
1040
1.0
1070
    74
1070
     0
1000
MTEXTEND
  0
LINE
  5
25BF9
330
747D
100
AcDbEntity
  8
細線
 48
50.0
100
AcDbLine
 10
6314.224219629729
 20
815.7015029406206
 30
0.0
 11
6323.305445523477
 21
849.5930993711075
 31
0.0
  0
LINE
  5
25BFA
330
747D
100
AcDbEntity
  8
細線
 48
50.0
100
AcDbLine
 10
6322.262695402667
 20
845.7015029406216
 30
0.0
 11
6323.305445523477
 21
841.8099065101658
 31
0.0
  0
LINE
  5
25BFB
330
747D
100
AcDbEntity
  8
細線
 48
50.0
100
AcDbLine
 10
6223.652639218608
 20
845.7015029406216
 30
0.0
 11
6231.691114991541
 21
815.7015029406215
 31
0.0
  0
LINE
  5
25BFC
330
747D
100
AcDbEntity
  8
部品1
 48
50.0
100
AcDbLine
 10
6223.305445523476
 20
1275.701502940621
 30
0.0
 11
6223.305445523476
 21
975.7015029406217
 31
0.0
  0
MTEXT
  5
25BFD
102
{ACAD_REACTORS
330
25BBE
102
}
330
747D
100
AcDbEntity
  8
寸法
 62
     7
 48
50.0
100
AcDbMText
 10
6352.465020281832
 20
1081.455166761905
 30
0.0
 40
100.0
 41
1.0
 71
     4
 72
     1
  1
D10
  7
STYLE2
 73
     1
 44
1.0
1001
ACAD
1000
MTEXTBEGIN
1070
    73
1070
     1
1070
    44
1040
1.0
1070
    74
1070
     0
1000
MTEXTEND
  0
LINE
  5
25BFE
330
747D
100
AcDbEntity
  8
細線
 48
50.0
100
AcDbLine
 10
6205.618143308967
 20
975.7015029406217
 30
0.0
 11
6223.305445523476
 21
993.3888051551306
 31
0.0
  0
LINE
  5
25BFF
330
747D
100
AcDbEntity
  8
細線
 48
50.0
100
AcDbLine
 10
6250.447558461722
 20
945.701502940623
 30
0.0
 11
6242.409082688786
 21
975.7015029406217
 31
0.0
  0
MTEXT
  5
25C00
102
{ACAD_REACTORS
330
25C02
102
}
330
747D
100
AcDbEntity
  8
寸法
 62
     7
 48
50.0
100
AcDbMText
 10
6166.912866807718
 20
1782.285954564282
 30
0.0
 40
100.0
 41
1.0
 71
     4
 72
     1
  1
D13
  7
STYLE2
 73
     1
 44
1.0
1001
ACAD
1000
MTEXTBEGIN
1070
    73
1070
     1
1070
    44
1040
1.0
1070
    74
1070
     0
1000
MTEXTEND
  0
LWPOLYLINE
  5
25C01
330
747D
100
AcDbEntity
  8
部品1
 48
50.0
100
AcDbPolyline
 90
        2
 70
     0
 43
10.0
 10
6063.305445523476
 20
1655.701502940624
 10
6580.980322814673
 20
1655.701502940624
  0
LEADER
  5
25C02
330
747D
100
AcDbEntity
  8
寸法
 48
50.0
100
AcDbLeader
  3
INABA_S40G
 71
     0
 73
     0
 74
     0
 75
     1
 40
100.0
 41
222.7272727272727
 76
     3
 10
5943.305445523475
 20
1781.019539683428
 30
0.0
 10
6041.912866807718
 20
1707.285954564282
 30
0.0
 10
6141.912866807718
 20
1707.285954564282
 30
0.0
1001
ACAD
1000
DSTYLE
1002
{
1070
   341
1005
0
1002
}
  0
LINE
  5
25C03
330
747D
100
AcDbEntity
  8
部品1
 48
50.0
100
AcDbLine
 10
5933.305445523476
 20
1708.360521312026
 30
0.0
 11
5933.305445523476
 21
1781.019539683428
 31
0.0
  0
LINE
  5
25C04
330
747D
100
AcDbEntity
  8
部品1
 48
50.0
100
AcDbLine
 10
5913.305445523477
 20
1708.36052131203
 30
0.0
 11
5913.305445523477
 21
1781.019539683428
 31
0.0
  0
LINE
  5
25C05
330
747D
100
AcDbEntity
  8
細線
 48
50.0
100
AcDbLine
 10
5933.305445523476
 20
1713.667618775411
 30
0.0
 11
5953.305445523476
 21
1733.667618775411
 31
0.0
  0
LINE
  5
25C06
330
747D
100
AcDbEntity
  8
細線
 48
50.0
100
AcDbLine
 10
5823.305445523477
 20
1671.019539683429
 30
0.0
 11
5913.305445523477
 21
1761.019539683429
 31
0.0
  0
LINE
  5
25C07
330
747D
100
AcDbEntity
  8
細線
 48
50.0
100
AcDbLine
 10
5823.305445523477
 20
1637.34357922942
 30
0.0
 11
5913.305445523477
 21
1727.34357922942
 31
0.0
  0
LINE
  5
25C08
330
747D
100
AcDbEntity
  8
細線
 48
50.0
100
AcDbLine
 10
5973.305445523482
 20
1517.935895597349
 30
0.0
 11
6063.305445523468
 21
1607.935895597341
 31
0.0
  0
LINE
  5
25C09
330
747D
100
AcDbEntity
  8
細線
 48
50.0
100
AcDbLine
 10
5973.305445523476
 20
1551.611856051353
 30
0.0
 11
6063.305445523476
 21
1641.611856051354
 31
0.0
  0
LINE
  5
25C0A
330
747D
100
AcDbEntity
  8
細線
 48
50.0
100
AcDbLine
 10
5973.305445523482
 20
1484.259935143336
 30
0.0
 11
6063.305445523468
 21
1574.259935143336
 31
0.0
  0
LINE
  5
25C0B
330
747D
100
AcDbEntity
  8
部品1
 48
50.0
100
AcDbLine
 10
5933.305445523476
 20
1708.360521312026
 30
0.0
 11
5913.305445523477
 21
1708.36052131203
 31
0.0
  0
LINE
  5
25C0C
330
747D
100
AcDbEntity
  8
細線
 48
50.0
100
AcDbLine
 10
5823.305445523477
 20
1603.667618775411
 30
0.0
 11
5927.998348060095
 21
1708.360521312026
 31
0.0
  0
LINE
  5
25C0D
330
747D
100
AcDbEntity
  8
部品1
 48
50.0
100
AcDbLine
 10
5823.305445523477
 20
1955.701502940623
 30
0.0
 11
6063.305445523476
 21
1955.701502940623
 31
0.0
  0
LINE
  5
25C0E
330
747D
100
AcDbEntity
  8
細線
 48
50.0
100
AcDbLine
 10
5958.920973651564
 20
1806.635067811517
 30
0.0
 11
6063.305445523476
 21
1911.019539683429
 31
0.0
  0
LINE
  5
25C0F
330
747D
100
AcDbEntity
  8
細線
 48
50.0
100
AcDbLine
 10
5972.746329605959
 20
1786.7844633119
 30
0.0
 11
6063.305445523476
 21
1877.34357922942
 31
0.0
  0
LINE
  5
25C10
330
747D
100
AcDbEntity
  8
細線
 48
50.0
100
AcDbLine
 10
5973.305445523476
 20
1753.667618775409
 30
0.0
 11
6063.305445523476
 21
1843.667618775411
 31
0.0
  0
LINE
  5
25C11
330
747D
100
AcDbEntity
  8
細線
 48
50.0
100
AcDbLine
 10
5933.305445523476
 20
1747.34357922942
 30
0.0
 11
5953.305445523476
 21
1767.343579229419
 31
0.0
  0
CIRCLE
  5
25C12
330
747D
100
AcDbEntity
  8
部品1
 48
50.0
100
AcDbCircle
 10
5943.305445523476
 20
1781.019539683428
 30
0.0
 40
10.0
  0
ARC
  5
25C13
330
747D
100
AcDbEntity
  8
部品1
 48
50.0
100
AcDbCircle
 10
5943.305445523476
 20
1781.019539683428
 30
0.0
 40
30.0
100
AcDbArc
 50
0.0
 51
180.0
  0
LINE
  5
25C14
330
747D
100
AcDbEntity
  8
細線
 48
50.0
100
AcDbLine
 10
5823.305445523477
 20
1940.427223315504
 30
0.0
 11
5838.579725148594
 21
1955.701502940623
 31
0.0
  0
LINE
  5
25C15
330
747D
100
AcDbEntity
  8
細線
 48
50.0
100
AcDbLine
 10
5823.305445523477
 20
1873.075302407485
 30
0.0
 11
5905.931646056615
 21
1955.701502940623
 31
0.0
  0
LINE
  5
25C16
330
747D
100
AcDbEntity
  8
細線
 48
50.0
100
AcDbLine
 10
5823.305445523477
 20
1906.751262861495
 30
0.0
 11
5872.255685602607
 21
1955.701502940623
 31
0.0
  0
LEADER
  5
25C17
330
747D
100
AcDbEntity
  8
寸法
 48
50.0
100
AcDbLeader
  3
INABA_S40G
 73
     0
 74
     0
 75
     1
 40
100.0
 41
543.75
 76
     3
 10
8236.354586994968
 20
2017.151502940623
 30
0.0
 10
8337.035165019116
 20
2196.180660632161
 30
0.0
 10
8437.035165019116
 20
2196.180660632161
 30
0.0
340
25C18
1001
ACAD
1000
DSTYLE
1002
{
1070
   341
1005
0
1002
}
  0
MTEXT
  5
25C18
102
{ACAD_REACTORS
330
25C17
102
}
330
747D
100
AcDbEntity
  8
部品1
 62
     7
 48
50.0
100
AcDbMText
 10
8477.035165019117
 20
2286.180660632161
 30
0.0
 40
100.0
 41
1.0
 71
     4
 72
     1
  1
M10X160
  7
STYLE2
 73
     1
 44
1.0
1001
ACAD
1000
MTEXTBEGIN
1070
    73
1070
     1
1070
    44
1040
1.0
1070
    74
1070
     0
1000
MTEXTEND
  0
DIMENSION
  5
25C19
330
747D
100
AcDbEntity
  8
寸法
 48
50.0
100
AcDbDimension
  2
*D34
 10
9093.190336706026
 20
1550.70150294062
 30
0.0
 11
8993.190336706026
 21
1753.201502940623
 31
0.0
 70
    32
  1
180
 71
     5
 42
405.0000000000031
  3
INABA_S40G
100
AcDbAlignedDimension
 13
8465.85458699497
 23
1955.701502940623
 33
0.0
 14
8465.85458699497
 24
1550.70150294062
 34
0.0
 50
90.0
100
AcDbRotatedDimension
1001
ACAD
1000
DSTYLE
1002
{
1070
   341
1005
0
1002
}
  0
LWPOLYLINE
  5
25C1A
330
747D
100
AcDbEntity
  8
部品1
 48
50.0
100
AcDbPolyline
 90
        2
 70
     0
 43
10.0
 10
8465.85458699497
 20
1655.701502940624
 10
8832.982666244198
 20
1655.701502940624
  0
LINE
  5
25C1B
330
747D
100
AcDbEntity
  8
部品1
 48
50.0
100
AcDbLine
 10
8725.854586994969
 20
975.7015029406217
 30
0.0
 11
7688.354586994972
 21
975.7015029406217
 31
0.0
  0
LINE
  5
25C1C
330
747D
100
AcDbEntity
  8
細線
 48
50.0
100
AcDbLine
 10
8644.531949242276
 20
845.7015029406207
 30
0.0
 11
8652.570425015211
 21
815.7015029406206
 31
0.0
  0
LINE
  5
25C1D
330
747D
100
AcDbEntity
  8
部品1
 48
50.0
100
AcDbLine
 10
8725.854586994969
 20
815.7015029406215
 30
0.0
 11
7688.354586994972
 21
815.7015029406215
 31
0.0
  0
LINE
  5
25C1E
330
747D
100
AcDbEntity
  8
細線
 48
50.0
100
AcDbLine
 10
8636.493473469338
 20
815.7015029406206
 30
0.0
 11
8679.36534425832
 21
975.7015029406188
 31
0.0
  0
DIMENSION
  5
25C1F
330
747D
100
AcDbEntity
  8
寸法
 48
50.0
100
AcDbDimension
  2
*D35
 10
9438.258669354807
 20
1955.701502940623
 30
0.0
 11
9438.258669354807
 21
1489.692599519141
 31
0.0
 70
   160
  1
20～25
 71
     5
 42
65.94999999999891
  3
INABA_S40G
100
AcDbAlignedDimension
 13
8231.854586994968
 23
2021.651502940622
 33
0.0
 14
8465.85458699497
 24
1955.701502940623
 34
0.0
 50
90.0
100
AcDbRotatedDimension
1001
ACAD
1000
DSTYLE
1002
{
1070
   341
1005
0
1002
}
  0
TEXT
  5
25C20
330
747D
100
AcDbEntity
  8
部品1
 48
50.0
100
AcDbText
 10
8471.296567350503
 20
2400.549853893373
 30
0.0
 40
100.0
  1
基礎ボルト(市販品)
  7
STYLE2
100
AcDbText
  0
LINE
  5
25C21
330
747D
100
AcDbEntity
  8
細線
 48
50.0
100
AcDbLine
 10
7825.527877970322
 20
975.7015029406217
 30
0.0
 11
8465.85458699497
 21
1616.028211965265
 31
0.0
  0
LINE
  5
25C22
330
747D
100
AcDbEntity
  8
細線
 48
50.0
100
AcDbLine
 10
7859.203838424329
 20
975.7015029406217
 30
0.0
 11
8465.85458699497
 21
1582.352251511257
 31
0.0
  0
LINE
  5
25C23
330
747D
100
AcDbEntity
  8
細線
 48
50.0
100
AcDbLine
 10
7948.354586994968
 20
1401.611856051354
 30
0.0
 11
8146.354586994958
 21
1599.611856051347
 31
0.0
  0
LINE
  5
25C24
330
747D
100
AcDbEntity
  8
細線
 48
50.0
100
AcDbLine
 10
7948.354586994968
 20
1334.259935143336
 30
0.0
 11
8164.796154792261
 21
1550.70150294062
 31
0.0
  0
LINE
  5
25C25
330
747D
100
AcDbEntity
  8
細線
 48
50.0
100
AcDbLine
 10
7948.354586994968
 20
1367.935895597344
 30
0.0
 11
8146.354586994958
 21
1565.93589559733
 31
0.0
  0
LINE
  5
25C26
330
747D
100
AcDbEntity
  8
部品1
 48
50.0
100
AcDbLine
 10
7948.354586994968
 20
1275.701502940621
 30
0.0
 11
7948.354586994968
 21
1955.701502940623
 31
0.0
  0
LINE
  5
25C27
330
747D
100
AcDbEntity
  8
部品1
100
AcDbLine
 10
8465.854586994966
 20
1275.701502940621
 30
0.0
 11
8465.85458699497
 21
1955.701502940623
 31
0.0
  0
LINE
  5
25C28
330
747D
100
AcDbEntity
  8
細線
 48
50.0
100
AcDbLine
 10
7791.85191751631
 20
975.7015029406217
 30
0.0
 11
8465.854586994966
 21
1649.704172419279
 31
0.0
  0
LINE
  5
25C29
330
747D
100
AcDbEntity
  8
部品1
 48
50.0
100
AcDbLine
 10
7788.354586994969
 20
1275.701502940621
 30
0.0
 11
7948.354586994968
 21
1275.701502940621
 31
0.0
  0
LINE
  5
25C2A
330
747D
100
AcDbEntity
  8
細線
 48
50.0
100
AcDbLine
 10
7788.354586994961
 20
1174.259935143336
 30
0.0
 11
7889.796154792255
 21
1275.701502940621
 31
0.0
  0
LINE
  5
25C2B
330
747D
100
AcDbEntity
  8
細線
 48
50.0
100
AcDbLine
 10
7788.354586994961
 20
1207.935895597341
 30
0.0
 11
7856.12019433825
 21
1275.701502940621
 31
0.0
  0
LINE
  5
25C2C
330
747D
100
AcDbEntity
  8
細線
 48
50.0
100
AcDbLine
 10
7749.002967812792
 20
815.7015029406206
 30
0.0
 11
7791.87483860177
 21
975.7015029406208
 31
0.0
  0
LINE
  5
25C2D
330
747D
100
AcDbEntity
  8
部品1
 48
50.0
100
AcDbLine
 10
7688.354586994972
 20
815.7015029406215
 30
0.0
 11
7688.354586994972
 21
975.7015029406217
 31
0.0
  0
LINE
  5
25C2E
330
747D
100
AcDbEntity
  8
細線
 48
50.0
100
AcDbLine
 10
7757.041443585734
 20
845.7015029406216
 30
0.0
 11
7765.079919358666
 21
815.7015029406215
 31
0.0
  0
LINE
  5
25C2F
330
747D
100
AcDbEntity
  8
部品1
 48
50.0
100
AcDbLine
 10
7788.354586994969
 20
975.7015029406217
 30
0.0
 11
7788.354586994969
 21
1275.701502940621
 31
0.0
  0
LINE
  5
25C30
330
747D
100
AcDbEntity
  8
細線
 48
50.0
100
AcDbLine
 10
7783.836362828843
 20
945.701502940623
 30
0.0
 11
7775.79788705591
 21
975.7015029406217
 31
0.0
  0
LINE
  5
25C31
330
747D
100
AcDbEntity
  8
細線
 48
50.0
100
AcDbLine
 10
7688.354586994968
 20
957.3764041478467
 30
0.0
 11
7693.264782417712
 21
975.7015029406217
 31
0.0
  0
LINE
  5
25C32
330
747D
100
AcDbEntity
  8
細線
 48
50.0
100
AcDbLine
 10
7788.354586994961
 20
1241.611856051354
 30
0.0
 11
7822.444233884237
 21
1275.701502940621
 31
0.0
  0
LINE
  5
25C33
330
747D
100
AcDbEntity
  8
細線
 48
50.0
100
AcDbLine
 10
7946.223080180921
 20
815.7015029406206
 30
0.0
 11
7989.094950969899
 21
975.7015029406208
 31
0.0
  0
LINE
  5
25C34
330
747D
100
AcDbEntity
  8
細線
 48
50.0
100
AcDbLine
 10
7847.613023996864
 20
815.7015029406215
 30
0.0
 11
7890.484894785842
 21
975.7015029406217
 31
0.0
  0
LINE
  5
25C35
330
747D
100
AcDbEntity
  8
細線
 48
50.0
100
AcDbLine
 10
8340.663304917157
 20
815.7015029406215
 30
0.0
 11
8383.535175706141
 21
975.7015029406208
 31
0.0
  0
LINE
  5
25C36
330
747D
100
AcDbEntity
  8
細線
 48
50.0
100
AcDbLine
 10
8143.443192549044
 20
815.7015029406215
 30
0.0
 11
8186.315063338026
 21
975.7015029406208
 31
0.0
  0
LINE
  5
25C37
330
747D
100
AcDbEntity
  8
細線
 48
50.0
100
AcDbLine
 10
8044.833136364987
 20
815.7015029406215
 30
0.0
 11
8087.705007153964
 21
975.7015029406217
 31
0.0
  0
LINE
  5
25C38
330
747D
100
AcDbEntity
  8
細線
 48
50.0
100
AcDbLine
 10
8242.053248733107
 20
815.7015029406206
 30
0.0
 11
8284.925119522085
 21
975.7015029406208
 31
0.0
  0
LINE
  5
25C39
330
747D
100
AcDbEntity
  8
細線
 48
50.0
100
AcDbLine
 10
8537.883417285284
 20
815.7015029406188
 30
0.0
 11
8580.755288074261
 21
975.7015029406188
 31
0.0
  0
LINE
  5
25C3A
330
747D
100
AcDbEntity
  8
細線
 48
50.0
100
AcDbLine
 10
8439.273361101223
 20
815.7015029406206
 30
0.0
 11
8482.145231890186
 21
975.7015029406217
 31
0.0
  0
LINE
  5
25C3B
330
747D
100
AcDbEntity
  8
細線
 48
50.0
100
AcDbLine
 10
7954.261555953862
 20
845.7015029406216
 30
0.0
 11
7962.300031726798
 21
815.7015029406215
 31
0.0
  0
LINE
  5
25C3C
330
747D
100
AcDbEntity
  8
細線
 48
50.0
100
AcDbLine
 10
7855.651499769797
 20
845.7015029406216
 30
0.0
 11
7863.68997554273
 21
815.7015029406215
 31
0.0
  0
LINE
  5
25C3D
330
747D
100
AcDbEntity
  8
細線
 48
50.0
100
AcDbLine
 10
8151.481668321984
 20
845.7015029406216
 30
0.0
 11
8159.520144094917
 21
815.7015029406215
 31
0.0
  0
LINE
  5
25C3E
330
747D
100
AcDbEntity
  8
細線
 48
50.0
100
AcDbLine
 10
8052.871612137927
 20
845.7015029406216
 30
0.0
 11
8060.91008791086
 21
815.7015029406215
 31
0.0
  0
LINE
  5
25C3F
330
747D
100
AcDbEntity
  8
細線
 48
50.0
100
AcDbLine
 10
8348.701780690099
 20
845.7015029406216
 30
0.0
 11
8356.740256463034
 21
815.7015029406215
 31
0.0
  0
LINE
  5
25C40
330
747D
100
AcDbEntity
  8
細線
 48
50.0
100
AcDbLine
 10
8250.09172450604
 20
845.7015029406216
 30
0.0
 11
8258.130200278975
 21
815.7015029406215
 31
0.0
  0
LINE
  5
25C41
330
747D
100
AcDbEntity
  8
細線
 48
50.0
100
AcDbLine
 10
8545.921893058219
 20
845.7015029406207
 30
0.0
 11
8553.960368831154
 21
815.7015029406206
 31
0.0
  0
LINE
  5
25C42
330
747D
100
AcDbEntity
  8
細線
 48
50.0
100
AcDbLine
 10
8447.311836874158
 20
845.7015029406216
 30
0.0
 11
8455.350312647105
 21
815.7015029406215
 31
0.0
  0
LINE
  5
25C43
330
747D
100
AcDbEntity
  8
細線
 48
50.0
100
AcDbLine
 10
8128.611522056404
 20
975.7015029406217
 30
0.0
 11
8465.85458699497
 21
1312.944567879194
 31
0.0
  0
LINE
  5
25C44
330
747D
100
AcDbEntity
  8
細線
 48
50.0
100
AcDbLine
 10
8094.935561602396
 20
975.7015029406217
 30
0.0
 11
8465.85458699497
 21
1346.620528333188
 31
0.0
  0
LINE
  5
25C45
330
747D
100
AcDbEntity
  8
細線
 48
50.0
100
AcDbLine
 10
8061.259601148385
 20
975.7015029406217
 30
0.0
 11
8465.854586994966
 21
1380.296488787205
 31
0.0
  0
LINE
  5
25C46
330
747D
100
AcDbEntity
  8
細線
 48
50.0
100
AcDbLine
 10
7981.056475196973
 20
945.701502940623
 30
0.0
 11
7973.017999424041
 21
975.7015029406217
 31
0.0
  0
LINE
  5
25C47
330
747D
100
AcDbEntity
  8
細線
 48
50.0
100
AcDbLine
 10
7882.446419012909
 20
945.701502940623
 30
0.0
 11
7874.407943239976
 21
975.7015029406217
 31
0.0
  0
LINE
  5
25C48
330
747D
100
AcDbEntity
  8
細線
 48
50.0
100
AcDbLine
 10
8178.276587565097
 20
945.701502940623
 30
0.0
 11
8170.238111792164
 21
975.7015029406217
 31
0.0
  0
LINE
  5
25C49
330
747D
100
AcDbEntity
  8
細線
 48
50.0
100
AcDbLine
 10
8079.66653138104
 20
945.701502940623
 30
0.0
 11
8071.628055608107
 21
975.7015029406217
 31
0.0
  0
LINE
  5
25C4A
330
747D
100
AcDbEntity
  8
部品1
 48
50.0
100
AcDbLine
 10
8625.854586994968
 20
1275.701502940621
 30
0.0
 11
8625.854586994968
 21
975.7015029406217
 31
0.0
  0
LINE
  5
25C4B
330
747D
100
AcDbEntity
  8
細線
 48
50.0
100
AcDbLine
 10
8398.019205688477
 20
975.7015029406217
 30
0.0
 11
8625.854586994968
 21
1203.536884247117
 31
0.0
  0
LINE
  5
25C4C
330
747D
100
AcDbEntity
  8
細線
 48
50.0
100
AcDbLine
 10
8364.343245234474
 20
975.7015029406217
 30
0.0
 11
8625.854586994968
 21
1237.212844701115
 31
0.0
  0
LINE
  5
25C4D
330
747D
100
AcDbEntity
  8
細線
 48
50.0
100
AcDbLine
 10
8330.667284780462
 20
975.7015029406217
 30
0.0
 11
8625.854586994968
 21
1270.888805155131
 31
0.0
  0
LINE
  5
25C4E
330
747D
100
AcDbEntity
  8
細線
 48
50.0
100
AcDbLine
 10
8375.496699933213
 20
945.701502940623
 30
0.0
 11
8367.458224160277
 21
975.7015029406217
 31
0.0
  0
LINE
  5
25C4F
330
747D
100
AcDbEntity
  8
細線
 48
50.0
100
AcDbLine
 10
8276.886643749154
 20
945.701502940623
 30
0.0
 11
8268.848167976223
 21
975.7015029406217
 31
0.0
  0
LINE
  5
25C50
330
747D
100
AcDbEntity
  8
細線
 48
50.0
100
AcDbLine
 10
8572.716812301328
 20
945.7015029406207
 30
0.0
 11
8564.678336528395
 21
975.7015029406208
 31
0.0
  0
LINE
  5
25C51
330
747D
100
AcDbEntity
  8
細線
 48
50.0
100
AcDbLine
 10
8474.106756117256
 20
945.701502940623
 30
0.0
 11
8466.068280344327
 21
975.7015029406217
 31
0.0
  0
LINE
  5
25C52
330
747D
100
AcDbEntity
  8
部品1
 48
50.0
100
AcDbLine
 10
8465.85458699497
 20
1275.701502940621
 30
0.0
 11
8625.854586994968
 21
1275.701502940621
 31
0.0
  0
LWPOLYLINE
  5
25C53
330
747D
100
AcDbEntity
  8
部品1
 48
50.0
100
AcDbPolyline
 90
        2
 70
     0
 43
10.0
 10
7430.679709703774
 20
1655.701502940624
 10
7948.354586994968
 20
1655.701502940624
  0
TEXT
  5
25C54
330
747D
100
AcDbEntity
  8
部品1
 48
50.0
100
AcDbText
 10
7430.679709703773
 20
1669.750243294691
 30
0.0
 40
100.0
  1
▽G.L
  7
STYLE2
100
AcDbText
  0
LINE
  5
25C55
330
747D
100
AcDbEntity
  8
部品1
100
AcDbLine
 10
8213.854586994967
 20
1674.451502940622
 30
0.0
 11
8213.854586994965
 21
2017.151502940623
 31
0.0
  0
LINE
  5
25C56
330
747D
100
AcDbEntity
  8
部品1
100
AcDbLine
 10
8236.354586994968
 20
1674.451502940622
 30
0.0
 11
8236.354586994965
 21
2017.151502940623
 31
0.0
  0
LINE
  5
25C57
330
747D
100
AcDbEntity
  8
部品1
100
AcDbLine
 10
8151.17958699497
 20
2039.276502940624
 30
0.0
 11
8151.179586994963
 21
1971.026502940623
 31
0.0
  0
LINE
  5
25C58
330
747D
100
AcDbEntity
  8
部品1
100
AcDbLine
 10
8136.229586994968
 20
2024.326502940623
 30
0.0
 11
8136.229586994968
 21
1971.026502940623
 31
0.0
  0
LINE
  5
25C59
330
747D
100
AcDbEntity
  8
細線
100
AcDbLine
 10
8218.354586994973
 20
1967.651502940623
 30
0.0
 11
8218.354586994967
 21
2021.651502940622
 31
0.0
  0
LINE
  5
25C5A
330
747D
100
AcDbEntity
  8
細線
100
AcDbLine
 10
8231.854586994968
 20
1967.651502940623
 30
0.0
 11
8231.854586994968
 21
2021.651502940622
 31
0.0
  0
LINE
  5
25C5B
330
747D
100
AcDbEntity
  8
部品1
100
AcDbLine
 10
7956.229586994969
 20
1971.026502940623
 30
0.0
 11
7956.229586994969
 21
2048.691382569007
 31
0.0
  0
LINE
  5
25C5C
330
747D
100
AcDbEntity
  8
部品1
100
AcDbLine
 10
8236.354586994968
 20
1674.451502940622
 30
0.0
 11
8281.35458699497
 21
1674.451502940622
 31
0.0
  0
LINE
  5
25C5D
330
747D
100
AcDbEntity
  8
部品1
100
AcDbLine
 10
8236.354586994968
 20
1651.951502940621
 30
0.0
 11
8281.35458699497
 21
1651.951502940621
 31
0.0
  0
LINE
  5
25C5E
330
747D
100
AcDbEntity
  8
部品1
100
AcDbLine
 10
8154.554586994962
 20
1967.651502940623
 30
0.0
 11
8406.229586994959
 21
1967.651502940623
 31
0.0
  0
LINE
  5
25C5F
330
747D
100
AcDbEntity
  8
部品1
 48
50.0
100
AcDbLine
 10
7948.354586994968
 20
1955.701502940623
 30
0.0
 11
8465.85458699497
 21
1955.701502940623
 31
0.0
  0
LINE
  5
25C60
330
747D
100
AcDbEntity
  8
部品1
100
AcDbLine
 10
8303.854586994971
 20
1550.70150294062
 30
0.0
 11
8146.354586994961
 21
1550.70150294062
 31
0.0
  0
LINE
  5
25C61
330
747D
100
AcDbEntity
  8
細線
 48
50.0
100
AcDbLine
 10
7948.354586994968
 20
1637.34357922942
 30
0.0
 11
8146.354586994966
 21
1835.343579229416
 31
0.0
  0
LINE
  5
25C62
330
747D
100
AcDbEntity
  8
細線
 48
50.0
100
AcDbLine
 10
7948.354586994968
 20
1671.019539683429
 30
0.0
 11
8146.354586994966
 21
1869.019539683426
 31
0.0
  0
LINE
  5
25C63
330
747D
100
AcDbEntity
  8
部品1
100
AcDbLine
 10
8146.354586994961
 20
1550.701502940621
 30
0.0
 11
8146.354586994968
 21
1955.701502940623
 31
0.0
  0
LINE
  5
25C64
330
747D
100
AcDbEntity
  8
細線
 48
50.0
100
AcDbLine
 10
7948.354586994968
 20
1603.667618775411
 30
0.0
 11
8146.354586994965
 21
1801.667618775401
 31
0.0
  0
ARC
  5
25C65
330
747D
100
AcDbEntity
  8
部品1
100
AcDbCircle
 10
8236.354586994968
 20
1674.451502940622
 30
0.0
 40
22.5
100
AcDbArc
 50
180.0
 51
270.0
  0
LINE
  5
25C66
330
747D
100
AcDbEntity
  8
細線
 48
50.0
100
AcDbLine
 10
7948.354586994968
 20
1873.075302407485
 30
0.0
 11
8030.980787528106
 21
1955.701502940623
 31
0.0
  0
LINE
  5
25C67
330
747D
100
AcDbEntity
  8
細線
 48
50.0
100
AcDbLine
 10
7948.354586994968
 20
1906.751262861495
 30
0.0
 11
7997.304827074102
 21
1955.701502940623
 31
0.0
  0
LINE
  5
25C68
330
747D
100
AcDbEntity
  8
部品1
100
AcDbLine
 10
7959.604586994967
 20
1967.651502940623
 30
0.0
 11
7974.229586994962
 21
1967.651502940623
 31
0.0
  0
LINE
  5
25C69
330
747D
100
AcDbEntity
  8
細線
 48
50.0
100
AcDbLine
 10
7948.354586994968
 20
1940.427223315504
 30
0.0
 11
7963.628866620087
 21
1955.701502940623
 31
0.0
  0
ARC
  5
25C6A
330
747D
100
AcDbEntity
  8
部品1
100
AcDbCircle
 10
7959.604586994967
 20
1971.026502940623
 30
0.0
 40
3.375
100
AcDbArc
 50
180.0
 51
270.0
  0
ARC
  5
25C6B
330
747D
100
AcDbEntity
  8
部品1
100
AcDbCircle
 10
8132.854586994968
 20
1971.026502940623
 30
0.0
 40
3.375
100
AcDbArc
 50
270.0
 51
0.0
  0
ARC
  5
25C6C
330
747D
100
AcDbEntity
  8
部品1
100
AcDbCircle
 10
8154.554586994962
 20
1971.026502940623
 30
0.0
 40
3.375
100
AcDbArc
 50
180.0
 51
270.0
  0
LINE
  5
25C6D
330
747D
100
AcDbEntity
  8
部品1
100
AcDbLine
 10
8118.229586994969
 20
1967.651502940623
 30
0.0
 11
8132.854586994968
 21
1967.651502940623
 31
0.0
  0
LINE
  5
25C6E
330
747D
100
AcDbEntity
  8
細線
 48
50.0
100
AcDbLine
 10
8303.854586994971
 20
1689.75993514332
 30
0.0
 11
8465.85458699497
 21
1851.759935143309
 31
0.0
  0
LINE
  5
25C6F
330
747D
100
AcDbEntity
  8
部品1
100
AcDbLine
 10
8303.854586994971
 20
1550.701502940621
 30
0.0
 11
8303.854586994971
 21
1955.701502940623
 31
0.0
  0
LINE
  5
25C70
330
747D
100
AcDbEntity
  8
部品1
100
AcDbLine
 10
8281.35458699497
 20
1651.951502940621
 30
0.0
 11
8281.35458699497
 21
1674.451502940622
 31
0.0
  0
LINE
  5
25C71
330
747D
100
AcDbEntity
  8
細線
 48
50.0
100
AcDbLine
 10
8303.854586994971
 20
1723.435895597337
 30
0.0
 11
8465.85458699497
 21
1885.435895597333
 31
0.0
  0
LINE
  5
25C72
330
747D
100
AcDbEntity
  8
細線
 48
50.0
100
AcDbLine
 10
8303.854586994971
 20
1757.111856051358
 30
0.0
 11
8465.85458699497
 21
1919.111856051357
 31
0.0
  0
LINE
  5
25C73
330
747D
100
AcDbEntity
  8
部品1
 48
50.0
100
AcDbLine
 10
8205.104586994968
 20
2434.295604327051
 30
0.0
 11
8245.104586994967
 21
2434.295604327051
 31
0.0
  0
LINE
  5
25C74
330
747D
100
AcDbEntity
  8
部品1
 48
50.0
100
AcDbLine
 10
8205.104586994968
 20
2394.295604327051
 30
0.0
 11
8245.104586994967
 21
2394.295604327051
 31
0.0
  0
ELLIPSE
  5
25C75
330
747D
100
AcDbEntity
  8
細線
 48
50.0
100
AcDbEllipse
 10
8225.104586994966
 20
2444.295604327053
 30
0.0
 11
18.45838483258558
 21
0.0
 31
0.0
210
0.0
220
0.0
230
1.0
 40
0.2071254069489396
 41
0.0
 42
6.283185307179584
  0
LINE
  5
25C76
330
747D
100
AcDbEntity
  8
部品1
 48
50.0
100
AcDbLine
 10
8205.104586994968
 20
2454.295604327051
 30
0.0
 11
8245.104586994967
 21
2454.295604327051
 31
0.0
  0
ELLIPSE
  5
25C77
330
747D
100
AcDbEntity
  8
部品1
 48
50.0
100
AcDbEllipse
 10
8225.104586994966
 20
2280.105613495963
 30
0.0
 11
50.0
 21
0.0
 31
0.0
210
0.0
220
0.0
230
1.0
 40
0.4
 41
3.141592653589792
 42
6.283185307179584
  0
ELLIPSE
  5
25C78
330
747D
100
AcDbEntity
  8
部品1
 48
50.0
100
AcDbEllipse
 10
8225.104586994966
 20
2292.105613495963
 30
0.0
 11
50.0
 21
0.0
 31
0.0
210
0.0
220
0.0
230
1.0
 40
0.4
 41
0.0
 42
6.283185307179584
  0
ELLIPSE
  5
25C79
330
747D
100
AcDbEntity
  8
部品1
 48
50.0
100
AcDbEllipse
 10
8225.104586994966
 20
2292.105613495963
 30
0.0
 11
23.0
 21
0.0
 31
0.0
210
0.0
220
0.0
230
1.0
 40
0.3478260869565217
 41
0.0
 42
6.283185307179584
  0
LINE
  5
25C7A
330
747D
100
AcDbEntity
  8
部品1
100
AcDbLine
 10
8027.104586994971
 20
2095.201502940622
 30
0.0
 11
8079.979586994967
 21
2095.20150294062
 31
0.0
  0
LINE
  5
25C7B
330
747D
100
AcDbEntity
  8
部品1
100
AcDbLine
 10
7973.104586994968
 20
2068.201502940623
 30
0.0
 11
8020.354586994969
 21
2068.201502940623
 31
0.0
  0
LINE
  5
25C7C
330
747D
100
AcDbEntity
  8
部品1
100
AcDbLine
 10
7958.786029260469
 20
2051.965613506999
 30
0.0
 11
7969.729586994969
 21
2054.701502940623
 31
0.0
  0
ARC
  5
25C7D
330
747D
100
AcDbEntity
  8
部品1
100
AcDbCircle
 10
7959.604586994967
 20
2048.691382569007
 30
0.0
 40
3.375
100
AcDbArc
 50
104.0362434679067
 51
180.0
  0
ARC
  5
25C7E
330
747D
100
AcDbEntity
  8
部品1
100
AcDbCircle
 10
7973.104586994968
 20
2064.826502940623
 30
0.0
 40
3.375
100
AcDbArc
 50
90.0
 51
180.0
  0
LINE
  5
25C7F
330
747D
100
AcDbEntity
  8
部品1
100
AcDbLine
 10
7969.729586994969
 20
2054.701502940623
 30
0.0
 11
7969.729586994969
 21
2064.826502940623
 31
0.0
  0
ARC
  5
25C80
330
747D
100
AcDbEntity
  8
部品1
100
AcDbCircle
 10
8023.729586994967
 20
2078.326502940623
 30
0.0
 40
3.375
100
AcDbArc
 50
90.0
 51
180.0
  0
LINE
  5
25C81
330
747D
100
AcDbEntity
  8
部品1
100
AcDbLine
 10
8020.354586994969
 20
2068.201502940623
 30
0.0
 11
8020.354586994969
 21
2078.326502940623
 31
0.0
  0
LINE
  5
25C82
330
747D
100
AcDbEntity
  8
部品1
100
AcDbLine
 10
8023.729586994967
 20
2081.701502940623
 30
0.0
 11
8023.729586994967
 21
2091.826502940623
 31
0.0
  0
LINE
  5
25C83
330
747D
100
AcDbEntity
  8
部品1
100
AcDbLine
 10
8023.729586994967
 20
2081.701502940623
 30
0.0
 11
8023.729586994967
 21
2081.701502940623
 31
0.0
  0
ARC
  5
25C84
330
747D
100
AcDbEntity
  8
部品1
100
AcDbCircle
 10
8027.104586994971
 20
2091.826502940623
 30
0.0
 40
3.375
100
AcDbArc
 50
90.0
 51
180.0
  0
LINE
  5
25C85
330
747D
100
AcDbEntity
  8
部品1
100
AcDbLine
 10
8109.229586994969
 20
2039.276502940624
 30
0.0
 11
8109.229586994969
 21
2017.901502940623
 31
0.0
  0
ARC
  5
25C86
330
747D
100
AcDbEntity
  8
部品1
100
AcDbCircle
 10
8132.854586994968
 20
2024.326502940623
 30
0.0
 40
3.375
100
AcDbArc
 50
0.0
 51
90.0
  0
LINE
  5
25C87
330
747D
100
AcDbEntity
  8
部品1
100
AcDbLine
 10
8218.354586994967
 20
2021.651502940622
 30
0.0
 11
8231.854586994968
 21
2021.651502940622
 31
0.0
  0
LINE
  5
25C88
330
747D
100
AcDbEntity
  8
部品1
100
AcDbLine
 10
8213.854586994967
 20
2017.151502940623
 30
0.0
 11
8236.354586994968
 21
2017.151502940623
 31
0.0
  0
ARC
  5
25C89
330
747D
100
AcDbEntity
  8
部品1
100
AcDbCircle
 10
8147.80458699497
 20
2039.276502940624
 30
0.0
 40
3.375
100
AcDbArc
 50
0.0
 51
90.0
  0
ARC
  5
25C8A
330
747D
100
AcDbEntity
  8
部品1
100
AcDbCircle
 10
8112.604586994967
 20
2039.276502940624
 30
0.0
 40
3.375
100
AcDbArc
 50
90.0
 51
180.0
  0
LINE
  5
25C8B
330
747D
100
AcDbEntity
  8
部品1
100
AcDbLine
 10
8112.604586994967
 20
2042.651502940623
 30
0.0
 11
8147.80458699497
 21
2042.651502940623
 31
0.0
  0
LINE
  5
25C8C
330
747D
100
AcDbEntity
  8
部品1
 48
50.0
100
AcDbLine
 10
8175.104586994967
 20
2292.105613495963
 30
0.0
 11
8175.104586994967
 21
2280.105613495963
 31
0.0
  0
LINE
  5
25C8D
330
747D
100
AcDbEntity
  8
部品1
100
AcDbLine
 10
8083.354586994969
 20
2091.82650294062
 30
0.0
 11
8083.354586994969
 21
2027.701502940623
 31
0.0
  0
ARC
  5
25C8E
330
747D
100
AcDbEntity
  8
部品1
100
AcDbCircle
 10
8079.979586994967
 20
2091.82650294062
 30
0.0
 40
3.375
100
AcDbArc
 50
0.0
 51
90.0
  0
LINE
  5
25C8F
330
747D
100
AcDbEntity
  8
部品1
100
AcDbLine
 10
8083.354586994969
 20
2027.701502940623
 30
0.0
 11
8132.854586994968
 21
2027.701502940623
 31
0.0
  0
LINE
  5
25C90
330
747D
100
AcDbEntity
  8
部品1
 48
50.0
100
AcDbLine
 10
8185.104586994969
 20
2444.295604327053
 30
0.0
 11
8205.104586994968
 21
2454.295604327051
 31
0.0
  0
LINE
  5
25C91
330
747D
100
AcDbEntity
  8
部品1
 48
50.0
100
AcDbLine
 10
8185.104586994969
 20
2404.295604327051
 30
0.0
 11
8205.104586994968
 21
2394.295604327051
 31
0.0
  0
LINE
  5
25C92
330
747D
100
AcDbEntity
  8
部品1
 48
50.0
100
AcDbLine
 10
8185.104586994969
 20
2444.295604327053
 30
0.0
 11
8205.104586994968
 21
2434.295604327051
 31
0.0
  0
LINE
  5
25C93
330
747D
100
AcDbEntity
  8
部品1
 48
50.0
100
AcDbLine
 10
8185.104586994969
 20
2404.295604327051
 30
0.0
 11
8185.104586994969
 21
2444.295604327053
 31
0.0
  0
LINE
  5
25C94
330
747D
100
AcDbEntity
  8
細線
 48
50.0
100
AcDbLine
 10
8205.104586994968
 20
2394.295604327051
 30
0.0
 11
8205.104586994968
 21
2434.295604327051
 31
0.0
  0
LINE
  5
25C95
330
747D
100
AcDbEntity
  8
部品1
 48
50.0
100
AcDbLine
 10
8275.104586994967
 20
2280.105613495963
 30
0.0
 11
8275.104586994967
 21
2292.105613495963
 31
0.0
  0
LINE
  5
25C96
330
747D
100
AcDbEntity
  8
部品1
 48
50.0
100
AcDbLine
 10
8245.104586994967
 20
2454.295604327051
 30
0.0
 11
8265.104586994969
 21
2444.295604327053
 31
0.0
  0
LINE
  5
25C97
330
747D
100
AcDbEntity
  8
部品1
 48
50.0
100
AcDbLine
 10
8265.104586994969
 20
2404.295604327051
 30
0.0
 11
8265.104586994969
 21
2444.295604327053
 31
0.0
  0
LINE
  5
25C98
330
747D
100
AcDbEntity
  8
細線
 48
50.0
100
AcDbLine
 10
8245.104586994967
 20
2394.295604327051
 30
0.0
 11
8245.104586994967
 21
2434.295604327051
 31
0.0
  0
LINE
  5
25C99
330
747D
100
AcDbEntity
  8
部品1
 48
50.0
100
AcDbLine
 10
8245.104586994967
 20
2434.295604327051
 30
0.0
 11
8265.104586994969
 21
2444.295604327053
 31
0.0
  0
LINE
  5
25C9A
330
747D
100
AcDbEntity
  8
部品1
 48
50.0
100
AcDbLine
 10
8245.104586994967
 20
2394.295604327051
 30
0.0
 11
8265.104586994969
 21
2404.295604327051
 31
0.0
  0
LINE
  5
25C9B
330
747D
100
AcDbEntity
  8
細線
 48
50.0
100
AcDbLine
 10
10230.83701543653
 20
1381.077858373932
 30
0.0
 11
10273.70888622551
 21
1541.077858373932
 31
0.0
  0
TEXT
  5
25C9C
330
747D
100
AcDbEntity
  8
部品1
 48
50.0
100
AcDbText
 10
9635.126893925287
 20
1322.201827143986
 30
0.0
 40
100.0
  1
ボルトの出
 50
90.0
  7
STYLE2
100
AcDbText
  0
LINE
  5
25C9D
330
747D
100
AcDbEntity
  8
部品1
100
AcDbLine
 10
10110.46852225058
 20
1381.077858373931
 30
0.0
 11
10110.46852225058
 21
1655.701502940622
 31
0.0
  0
LINE
  5
25C9E
330
747D
100
AcDbEntity
  8
細線
 48
50.0
100
AcDbLine
 10
10132.22695925247
 20
1381.077858373935
 30
0.0
 11
10175.09883004145
 21
1541.077858373934
 31
0.0
  0
LINE
  5
25C9F
330
747D
100
AcDbEntity
  8
部品1
 48
50.0
100
AcDbLine
 10
8725.854586994969
 20
975.7015029406217
 30
0.0
 11
8725.854586994969
 21
815.7015029406215
 31
0.0
  0
LINE
  5
25CA0
330
747D
100
AcDbEntity
  8
細線
 48
50.0
100
AcDbLine
 10
8671.326868485387
 20
945.7015029406207
 30
0.0
 11
8663.288392712457
 21
975.7015029406208
 31
0.0
  0
LINE
  5
25CA1
330
747D
100
AcDbEntity
  8
細線
 48
50.0
100
AcDbLine
 10
10238.87549120947
 20
1411.077858373934
 30
0.0
 11
10246.9139669824
 21
1381.077858373935
 31
0.0
  0
LINE
  5
25CA2
330
747D
100
AcDbEntity
  8
細線
 48
50.0
100
AcDbLine
 10
10140.26543502541
 20
1411.077858373934
 30
0.0
 11
10148.30391079834
 21
1381.077858373935
 31
0.0
  0
LINE
  5
25CA3
330
747D
100
AcDbEntity
  8
部品1
100
AcDbLine
 10
10260.46852225058
 20
1655.701502940622
 30
0.0
 11
10260.46852225058
 21
1955.701502940623
 31
0.0
  0
LINE
  5
25CA4
330
747D
100
AcDbEntity
  8
細線
 48
50.0
100
AcDbLine
 10
10167.06035426852
 20
1511.077858373934
 30
0.0
 11
10159.02187849558
 21
1541.077858373934
 31
0.0
  0
LINE
  5
25CA5
330
747D
100
AcDbEntity
  8
細線
 48
50.0
100
AcDbLine
 10
10265.67041045258
 20
1511.077858373934
 30
0.0
 11
10257.63193467965
 21
1541.077858373934
 31
0.0
  0
TEXT
  5
25CA6
330
747D
100
AcDbEntity
  8
部品1
100
AcDbText
 10
7710.433862488341
 20
3382.476112722394
 30
0.0
 40
150.0
  1
基礎詳細
  7
STYLE2
100
AcDbText
  0
LINE
  5
25CA7
330
747D
100
AcDbEntity
  8
部品1
100
AcDbLine
 10
11600.97945006972
 20
347.8465249135893
 30
0.0
 11
11600.97945006972
 21
3606.916027661679
 31
0.0
  0
LINE
  5
25CA8
330
747D
100
AcDbEntity
  8
部品1
100
AcDbLine
 10
11010.46852225058
 20
1655.701502940622
 30
0.0
 11
11010.46852225058
 21
1381.077858373935
 31
0.0
  0
LINE
  5
25CA9
330
747D
100
AcDbEntity
  8
細線
 48
50.0
100
AcDbLine
 10
10822.49735254089
 20
1381.077858373931
 30
0.0
 11
10865.36922332987
 21
1541.07785837393
 31
0.0
  0
LINE
  5
25CAA
330
747D
100
AcDbEntity
  8
細線
 48
50.0
100
AcDbLine
 10
10921.10740872495
 20
1381.077858373932
 30
0.0
 11
10963.97927951393
 21
1541.07785837393
 31
0.0
  0
LINE
  5
25CAB
330
747D
100
AcDbEntity
  8
細線
 48
50.0
100
AcDbLine
 10
10625.27724017277
 20
1381.077858373935
 30
0.0
 11
10668.14911096175
 21
1541.077858373932
 31
0.0
  0
LINE
  5
25CAC
330
747D
100
AcDbEntity
  8
細線
 48
50.0
100
AcDbLine
 10
10723.88729635683
 20
1381.077858373932
 30
0.0
 11
10766.7591671458
 21
1541.077858373934
 31
0.0
  0
LINE
  5
25CAD
330
747D
100
AcDbEntity
  8
細線
 48
50.0
100
AcDbLine
 10
10428.05712780465
 20
1381.077858373935
 30
0.0
 11
10470.92899859363
 21
1541.077858373932
 31
0.0
  0
LINE
  5
25CAE
330
747D
100
AcDbEntity
  8
細線
 48
50.0
100
AcDbLine
 10
10329.4470716206
 20
1381.077858373935
 30
0.0
 11
10372.31894240957
 21
1541.077858373934
 31
0.0
  0
LINE
  5
25CAF
330
747D
100
AcDbEntity
  8
細線
 48
50.0
100
AcDbLine
 10
10526.66718398871
 20
1381.077858373932
 30
0.0
 11
10569.53905477769
 21
1541.077858373932
 31
0.0
  0
LINE
  5
25CB0
330
747D
100
AcDbEntity
  8
細線
 48
50.0
100
AcDbLine
 10
10436.09560357759
 20
1411.077858373934
 30
0.0
 11
10444.13407935053
 21
1381.077858373935
 31
0.0
  0
LINE
  5
25CB1
330
747D
100
AcDbEntity
  8
細線
 48
50.0
100
AcDbLine
 10
10337.48554739354
 20
1411.077858373934
 30
0.0
 11
10345.52402316647
 21
1381.077858373935
 31
0.0
  0
LINE
  5
25CB2
330
747D
100
AcDbEntity
  8
細線
 48
50.0
100
AcDbLine
 10
10633.31571594571
 20
1411.077858373934
 30
0.0
 11
10641.35419171865
 21
1381.077858373935
 31
0.0
  0
LINE
  5
25CB3
330
747D
100
AcDbEntity
  8
細線
 48
50.0
100
AcDbLine
 10
10534.70565976165
 20
1411.077858373934
 30
0.0
 11
10542.74413553458
 21
1381.077858373935
 31
0.0
  0
LINE
  5
25CB4
330
747D
100
AcDbEntity
  8
細線
 48
50.0
100
AcDbLine
 10
10830.53582831383
 20
1411.077858373932
 30
0.0
 11
10838.57430408676
 21
1381.077858373932
 31
0.0
  0
LINE
  5
25CB5
330
747D
100
AcDbEntity
  8
細線
 48
50.0
100
AcDbLine
 10
10731.92577212977
 20
1411.077858373934
 30
0.0
 11
10739.96424790271
 21
1381.077858373935
 31
0.0
  0
LINE
  5
25CB6
330
747D
100
AcDbEntity
  8
細線
 48
50.0
100
AcDbLine
 10
10929.14588449789
 20
1411.077858373932
 30
0.0
 11
10937.18436027082
 21
1381.077858373932
 31
0.0
  0
MTEXT
  5
25CB7
102
{ACAD_REACTORS
330
25CB8
102
}
330
747D
100
AcDbEntity
  8
寸法
 62
     7
 48
50.0
100
AcDbMText
 10
11002.79679506254
 20
2277.134403792045
 30
0.0
 40
150.0
 41
1.0
 71
     4
 72
     1
  1
\A1;C.B
  7
STYLE1
 73
     1
 44
1.0
1001
ACAD
1000
MTEXTBEGIN
1070
    73
1070
     1
1070
    44
1040
1.0
1070
    74
1070
     0
1000
MTEXTEND
  0
LEADER
  5
25CB8
330
747D
100
AcDbEntity
  8
寸法
 48
50.0
100
AcDbLeader
  3
INABA_S40G
 73
     0
 74
     0
 75
     1
 40
150.0
 41
231.9898538650463
 76
     3
 10
10773.87403677048
 20
1955.701502940623
 30
0.0
 10
10862.79679506254
 20
2162.134403792046
 30
0.0
 10
10962.79679506254
 20
2162.134403792046
 30
0.0
340
25CB7
1001
ACAD
1000
DSTYLE
1002
{
1070
   341
1005
0
1002
}
  0
LINE
  5
25CB9
330
747D
100
AcDbEntity
  8
細線
100
AcDbLine
 10
10843.17144431611
 20
1655.701502940624
 30
0.0
 11
10543.17144431611
 21
1955.701502940623
 31
0.0
  0
LINE
  5
25CBA
330
747D
100
AcDbEntity
  8
細線
100
AcDbLine
 10
10779.53183400933
 20
1655.701502940622
 30
0.0
 11
10479.53183400932
 21
1955.701502940623
 31
0.0
  0
LINE
  5
25CBB
330
747D
100
AcDbEntity
  8
細線
 48
50.0
100
AcDbLine
 10
10364.28046663665
 20
1511.077858373934
 30
0.0
 11
10356.24199086371
 21
1541.077858373934
 31
0.0
  0
LINE
  5
25CBC
330
747D
100
AcDbEntity
  8
細線
 48
50.0
100
AcDbLine
 10
10462.8905228207
 20
1511.077858373934
 30
0.0
 11
10454.85204704777
 21
1541.077858373934
 31
0.0
  0
LINE
  5
25CBD
330
747D
100
AcDbEntity
  8
細線
100
AcDbLine
 10
10336.61682911713
 20
1541.077858373935
 30
0.0
 11
10451.24047368381
 21
1655.701502940622
 31
0.0
  0
LINE
  5
25CBE
330
747D
100
AcDbEntity
  8
細線
100
AcDbLine
 10
10294.19042224594
 20
1541.077858373935
 30
0.0
 11
10408.81406681262
 21
1655.701502940622
 31
0.0
  0
LINE
  5
25CBF
330
747D
100
AcDbEntity
  8
細線
 48
50.0
100
AcDbLine
 10
10660.11063518882
 20
1511.077858373934
 30
0.0
 11
10652.07215941589
 21
1541.077858373934
 31
0.0
  0
LINE
  5
25CC0
330
747D
100
AcDbEntity
  8
細線
 48
50.0
100
AcDbLine
 10
10561.50057900476
 20
1511.077858373934
 30
0.0
 11
10553.46210323183
 21
1541.077858373934
 31
0.0
  0
LINE
  5
25CC1
330
747D
100
AcDbEntity
  8
部品1
100
AcDbLine
 10
10860.46852225058
 20
1955.701502940623
 30
0.0
 11
10860.46852225058
 21
1655.701502940622
 31
0.0
  0
LINE
  5
25CC2
330
747D
100
AcDbEntity
  8
細線
 48
50.0
100
AcDbLine
 10
10857.33074755694
 20
1511.077858373932
 30
0.0
 11
10849.292271784
 21
1541.077858373932
 31
0.0
  0
LINE
  5
25CC3
330
747D
100
AcDbEntity
  8
細線
 48
50.0
100
AcDbLine
 10
10758.72069137287
 20
1511.077858373934
 30
0.0
 11
10750.68221559993
 21
1541.077858373934
 31
0.0
  0
LINE
  5
25CC4
330
747D
100
AcDbEntity
  8
細線
100
AcDbLine
 10
10786.61682911713
 20
1541.077858373937
 30
0.0
 11
10901.24047368381
 21
1655.701502940622
 31
0.0
  0
LINE
  5
25CC5
330
747D
100
AcDbEntity
  8
細線
100
AcDbLine
 10
10701.76401537475
 20
1541.077858373937
 30
0.0
 11
10816.38765994143
 21
1655.701502940622
 31
0.0
  0
LINE
  5
25CC6
330
747D
100
AcDbEntity
  8
細線
100
AcDbLine
 10
10744.19042224594
 20
1541.077858373937
 30
0.0
 11
10858.81406681262
 21
1655.701502940622
 31
0.0
  0
LINE
  5
25CC7
330
747D
100
AcDbEntity
  8
細線
 48
50.0
100
AcDbLine
 10
10955.940803741
 20
1511.077858373932
 30
0.0
 11
10947.90232796806
 21
1541.077858373932
 31
0.0
  0
ENDSEC
  0
SECTION
  2
OBJECTS
  0
DICTIONARY
  5
7471
330
0
100
AcDbDictionary
281
     1
  3
ACAD_COLOR
350
173D2
  3
ACAD_GROUP
350
7472
  3
ACAD_LAYOUT
350
173D3
  3
ACAD_MATERIAL
350
173D1
  3
ACAD_MLINESTYLE
350
7473
  3
ACAD_PLOTSETTINGS
350
173D4
  3
ACAD_PLOTSTYLENAME
350
173CF
  3
ACDBHEADERROUNDTRIPXREC
350
25EF3
  3
AcDbVariableDictionary
350
25EEF
  3
CONTENTDICTIONARY
350
E71C
  3
DRAWINGVARIABLESDICT
350
F3B9
  0
DICTIONARY
  5
1758F
330
7467
100
AcDbDictionary
280
     1
281
     1
  3
ACAD_LAYERSTATES
360
17590
  0
DICTIONARY
  5
173D2
102
{ACAD_REACTORS
330
7471
102
}
330
7471
100
AcDbDictionary
281
     1
  0
DICTIONARY
  5
7472
102
{ACAD_REACTORS
330
7471
102
}
330
7471
100
AcDbDictionary
281
     1
  3
*A1
350
1D2A9
  3
*A2
350
258D1
  0
DICTIONARY
  5
173D3
102
{ACAD_REACTORS
330
7471
102
}
330
7471
100
AcDbDictionary
281
     1
  3
Model
350
173D5
  3
レイアウト1
350
173D6
  0
DICTIONARY
  5
173D1
102
{ACAD_REACTORS
330
7471
102
}
330
7471
100
AcDbDictionary
281
     1
  0
DICTIONARY
  5
7473
102
{ACAD_REACTORS
330
7471
102
}
330
7471
100
AcDbDictionary
281
     1
  3
STANDARD
350
7480
  0
DICTIONARY
  5
173D4
102
{ACAD_REACTORS
330
7471
102
}
330
7471
100
AcDbDictionary
281
     1
  0
ACDBDICTIONARYWDFLT
  5
173CF
102
{ACAD_REACTORS
330
7471
102
}
330
7471
100
AcDbDictionary
281
     1
  3
Normal
350
173D0
100
AcDbDictionaryWithDefault
340
173D0
  0
DICTIONARY
  5
25EF3
102
{ACAD_REACTORS
330
7471
102
}
330
7471
100
AcDbDictionary
281
     1
  3
COLORDICT
350
25EF5
  3
MATERIALDICT
350
25EF4
  0
DICTIONARY
  5
25EEF
102
{ACAD_REACTORS
330
7471
102
}
330
7471
100
AcDbDictionary
281
     1
  3
DIMASSOC
350
25EF0
  3
PROJECTNAME
350
25EF1
  0
DICTIONARY
  5
E71C
102
{ACAD_REACTORS
330
7471
102
}
330
7471
100
AcDbDictionary
281
     1
  0
DICTIONARY
  5
F3B9
102
{ACAD_REACTORS
330
7471
102
}
330
7471
100
AcDbDictionary
281
     1
1001
DRAWINGVARIABLESXDATA
1000
POLARMODE
1000
1
  0
DICTIONARY
  5
17590
102
{ACAD_REACTORS
330
1758F
102
}
330
1758F
100
AcDbDictionary
281
     1
  0
GROUP
  5
1D2A9
102
{ACAD_REACTORS
330
7472
102
}
330
7472
100
AcDbGroup
300

 70
     1
 71
     1
  0
GROUP
  5
258D1
102
{ACAD_REACTORS
330
7472
102
}
330
7472
100
AcDbGroup
300

 70
     1
 71
     1
  0
LAYOUT
  5
173D5
102
{ACAD_XDICTIONARY
360
25EF6
102
}
102
{ACAD_REACTORS
330
173D3
102
}
330
173D3
100
AcDbPlotSettings
  1

  2
クセロPDF
  4
A3
  6

 40
3.174999999999999
 41
3.174999999999999
 42
3.174987999999999
 43
3.174987999999999
 44
419.946655
 45
296.925995
 46
0.0
 47
0.0
 48
0.0
 49
0.0
140
0.0
141
0.0
142
1.0
143
40.88431155294937
 70
 11952
 72
     1
 73
     0
 74
     2
  7
inaba.ctb
 75
     0
147
0.0244592598484849
148
0.0
149
0.0
100
AcDbLayout
  1
Model
 70
     1
 71
     0
 10
0.0
 20
0.0
 11
12.0
 21
9.0
 12
0.0
 22
0.0
 32
0.0
 14
0.0
 24
0.0
 34
0.0
 15
0.0
 25
0.0
 35
0.0
146
0.0
 13
0.0
 23
0.0
 33
0.0
 16
1.0
 26
0.0
 36
0.0
 17
0.0
 27
1.0
 37
0.0
 76
     0
330
747D
  0
LAYOUT
  5
173D6
102
{ACAD_XDICTIONARY
360
25EF8
102
}
102
{ACAD_REACTORS
330
173D3
102
}
330
173D3
100
AcDbPlotSettings
  1

  2
Microsoft Office Document Image Writer
  4

  6

 40
0.0
 41
0.0
 42
0.0
 43
0.0
 44
0.0
 45
0.0
 46
0.0
 47
0.0
 48
0.0
 49
0.0
140
0.0
141
0.0
142
1.0
143
1.0
 70
   688
 72
     0
 73
     0
 74
     5
  7
inaba.ctb
 75
    16
147
1.0
148
0.0
149
0.0
100
AcDbLayout
  1
レイアウト1
 70
     0
 71
     1
 10
0.0
 20
0.0
 11
420.0
 21
297.0
 12
0.0
 22
0.0
 32
0.0
 14
1.000000000000000E+20
 24
1.000000000000000E+20
 34
1.000000000000000E+20
 15
-1.000000000000000E+20
 25
-1.000000000000000E+20
 35
-1.000000000000000E+20
146
0.0
 13
0.0
 23
0.0
 33
0.0
 16
1.0
 26
0.0
 36
0.0
 17
0.0
 27
1.0
 37
0.0
 76
     0
330
747A
  0
MLINESTYLE
  5
7480
102
{ACAD_REACTORS
330
7473
102
}
330
7473
100
AcDbMlineStyle
  2
STANDARD
 70
     0
  3

 62
     0
 51
90.0
 52
90.0
 71
     2
 49
0.5
 62
   256
  6
BYLAYER
 49
-0.5
 62
   256
  6
BYLAYER
  0
ACDBPLACEHOLDER
  5
173D0
102
{ACAD_REACTORS
330
173CF
102
}
330
173CF
  0
XRECORD
  5
25EF5
102
{ACAD_REACTORS
330
25EF3
102
}
330
25EF3
100
AcDbXrecord
280
     1
340
173D2
  0
XRECORD
  5
25EF4
102
{ACAD_REACTORS
330
25EF3
102
}
330
25EF3
100
AcDbXrecord
280
     1
340
173D1
  0
DICTIONARYVAR
  5
25EF0
102
{ACAD_REACTORS
330
25EEF
102
}
330
25EEF
100
DictionaryVariables
280
     0
  1
1
  0
DICTIONARYVAR
  5
25EF1
102
{ACAD_REACTORS
330
25EEF
102
}
330
25EEF
100
DictionaryVariables
280
     0
  1

  0
DICTIONARY
  5
25EF6
330
173D5
100
AcDbDictionary
280
     1
281
     1
  3
ACAD_XREC_ROUNDTRIP
360
25EF7
  0
DICTIONARY
  5
25EF8
330
173D6
100
AcDbDictionary
280
     1
281
     1
  3
ACAD_XREC_ROUNDTRIP
360
25EF9
  0
XRECORD
  5
25EF7
102
{ACAD_REACTORS
330
25EF6
102
}
330
25EF6
100
AcDbXrecord
280
     1
102
SHADEPLOT
 70
     1
102
SHADEPLOTRESLEVEL
 70
     2
102
SHADEPLOTCUSTOMDPI
 70
   300
  0
XRECORD
  5
25EF9
102
{ACAD_REACTORS
330
25EF8
102
}
330
25EF8
100
AcDbXrecord
280
     1
102
SHADEPLOT
 70
     0
102
SHADEPLOTRESLEVEL
 70
     2
102
SHADEPLOTCUSTOMDPI
 70
   300
  0
ENDSEC
  0
EOF
