  0
SECTION
  2
HEADER
  9
$ACADVER
  1
AC1015
  9
$ACADMAINTVER
 70
    20
  9
$DWGCODEPAGE
  3
ANSI_932
  9
$INSBASE
 10
0.0
 20
0.0
 30
0.0
  9
$EXTMIN
 10
139.9999999999995
 20
-0.0000000000000909
 30
0.0
  9
$EXTMAX
 10
16307.2
 20
11409.6
 30
0.0
  9
$LIMMIN
 10
0.0
 20
0.0
  9
$LIMMAX
 10
16800.0
 20
11880.0
  9
$ORTHOMODE
 70
     0
  9
$REGENMODE
 70
     1
  9
$FILLMODE
 70
     1
  9
$QTEXTMODE
 70
     0
  9
$MIRRTEXT
 70
     1
  9
$LTSCALE
 40
20.0
  9
$ATTMODE
 70
     1
  9
$TEXTSIZE
 40
4.0
  9
$TRACEWID
 40
1.0
  9
$TEXTSTYLE
  7
STYLE1
  9
$CLAYER
  8
細線
  9
$CELTYPE
  6
BYLAYER
  9
$CECOLOR
 62
   256
  9
$CELTSCALE
 40
50.0
  9
$DISPSILH
 70
     0
  9
$DIMSCALE
 40
40.0
  9
$DIMASZ
 40
2.5
  9
$DIMEXO
 40
0.5
  9
$DIMDLI
 40
7.0
  9
$DIMRND
 40
0.0
  9
$DIMDLE
 40
0.0
  9
$DIMEXE
 40
1.5
  9
$DIMTP
 40
0.0
  9
$DIMTM
 40
0.0
  9
$DIMTXT
 40
3.0
  9
$DIMCEN
 40
0.0
  9
$DIMTSZ
 40
0.0
  9
$DIMTOL
 70
     0
  9
$DIMLIM
 70
     0
  9
$DIMTIH
 70
     0
  9
$DIMTOH
 70
     0
  9
$DIMSE1
 70
     0
  9
$DIMSE2
 70
     0
  9
$DIMTAD
 70
     3
  9
$DIMZIN
 70
     8
  9
$DIMBLK
  1

  9
$DIMASO
 70
     1
  9
$DIMSHO
 70
     1
  9
$DIMPOST
  1

  9
$DIMAPOST
  1

  9
$DIMALT
 70
     0
  9
$DIMALTD
 70
     2
  9
$DIMALTF
 40
0.0394
  9
$DIMLFAC
 40
1.0
  9
$DIMTOFL
 70
     1
  9
$DIMTVP
 40
0.0
  9
$DIMTIX
 70
     1
  9
$DIMSOXD
 70
     0
  9
$DIMSAH
 70
     1
  9
$DIMBLK1
  1
DOTSMALL
  9
$DIMBLK2
  1
DOTSMALL
  9
$DIMSTYLE
  2
INABA_S40G
  9
$DIMCLRD
 70
     0
  9
$DIMCLRE
 70
     0
  9
$DIMCLRT
 70
     7
  9
$DIMTFAC
 40
1.0
  9
$DIMGAP
 40
1.0
  9
$DIMJUST
 70
     0
  9
$DIMSD1
 70
     0
  9
$DIMSD2
 70
     0
  9
$DIMTOLJ
 70
     1
  9
$DIMTZIN
 70
     0
  9
$DIMALTZ
 70
     0
  9
$DIMALTTZ
 70
     0
  9
$DIMUPT
 70
     0
  9
$DIMDEC
 70
     1
  9
$DIMTDEC
 70
     4
  9
$DIMALTU
 70
     2
  9
$DIMALTTD
 70
     2
  9
$DIMTXSTY
  7
STYLE1
  9
$DIMAUNIT
 70
     0
  9
$DIMADEC
 70
     0
  9
$DIMALTRND
 40
0.0
  9
$DIMAZIN
 70
     0
  9
$DIMDSEP
 70
    46
  9
$DIMATFIT
 70
     3
  9
$DIMFRAC
 70
     0
  9
$DIMLDRBLK
  1

  9
$DIMLUNIT
 70
     2
  9
$DIMLWD
 70
    -2
  9
$DIMLWE
 70
    -2
  9
$DIMTMOVE
 70
     0
  9
$LUNITS
 70
     2
  9
$LUPREC
 70
     1
  9
$SKETCHINC
 40
1.0
  9
$FILLETRAD
 40
3.0
  9
$AUNITS
 70
     0
  9
$AUPREC
 70
     0
  9
$MENU
  1
acad
  9
$ELEVATION
 40
0.0
  9
$PELEVATION
 40
0.0
  9
$THICKNESS
 40
0.0
  9
$LIMCHECK
 70
     0
  9
$CHAMFERA
 40
0.0
  9
$CHAMFERB
 40
0.0
  9
$CHAMFERC
 40
0.0
  9
$CHAMFERD
 40
0.0
  9
$SKPOLY
 70
     0
  9
$TDCREATE
 40
2451368.612993866
  9
$TDUCREATE
 40
2451368.237993866
  9
$TDUPDATE
 40
2455827.764179468
  9
$TDUUPDATE
 40
2455827.389179468
  9
$TDINDWG
 40
0.8783035880
  9
$TDUSRTIMER
 40
0.8783026852
  9
$USRTIMER
 70
     1
  9
$ANGBASE
 50
0.0
  9
$ANGDIR
 70
     0
  9
$PDMODE
 70
     3
  9
$PDSIZE
 40
2.0
  9
$PLINEWID
 40
0.0
  9
$SPLFRAME
 70
     0
  9
$SPLINETYPE
 70
     6
  9
$SPLINESEGS
 70
     8
  9
$HANDSEED
  5
28024
  9
$SURFTAB1
 70
     6
  9
$SURFTAB2
 70
     6
  9
$SURFTYPE
 70
     6
  9
$SURFU
 70
     6
  9
$SURFV
 70
     6
  9
$UCSBASE
  2

  9
$UCSNAME
  2

  9
$UCSORG
 10
0.0
 20
0.0
 30
0.0
  9
$UCSXDIR
 10
1.0
 20
0.0
 30
0.0
  9
$UCSYDIR
 10
0.0
 20
1.0
 30
0.0
  9
$UCSORTHOREF
  2

  9
$UCSORTHOVIEW
 70
     0
  9
$UCSORGTOP
 10
0.0
 20
0.0
 30
0.0
  9
$UCSORGBOTTOM
 10
0.0
 20
0.0
 30
0.0
  9
$UCSORGLEFT
 10
0.0
 20
0.0
 30
0.0
  9
$UCSORGRIGHT
 10
0.0
 20
0.0
 30
0.0
  9
$UCSORGFRONT
 10
0.0
 20
0.0
 30
0.0
  9
$UCSORGBACK
 10
0.0
 20
0.0
 30
0.0
  9
$PUCSBASE
  2

  9
$PUCSNAME
  2

  9
$PUCSORG
 10
0.0
 20
0.0
 30
0.0
  9
$PUCSXDIR
 10
1.0
 20
0.0
 30
0.0
  9
$PUCSYDIR
 10
0.0
 20
1.0
 30
0.0
  9
$PUCSORTHOREF
  2

  9
$PUCSORTHOVIEW
 70
     0
  9
$PUCSORGTOP
 10
0.0
 20
0.0
 30
0.0
  9
$PUCSORGBOTTOM
 10
0.0
 20
0.0
 30
0.0
  9
$PUCSORGLEFT
 10
0.0
 20
0.0
 30
0.0
  9
$PUCSORGRIGHT
 10
0.0
 20
0.0
 30
0.0
  9
$PUCSORGFRONT
 10
0.0
 20
0.0
 30
0.0
  9
$PUCSORGBACK
 10
0.0
 20
0.0
 30
0.0
  9
$USERI1
 70
     0
  9
$USERI2
 70
     0
  9
$USERI3
 70
     0
  9
$USERI4
 70
     0
  9
$USERI5
 70
     0
  9
$USERR1
 40
0.0
  9
$USERR2
 40
0.0
  9
$USERR3
 40
0.0
  9
$USERR4
 40
0.0
  9
$USERR5
 40
0.0
  9
$WORLDVIEW
 70
     1
  9
$SHADEDGE
 70
     3
  9
$SHADEDIF
 70
    70
  9
$TILEMODE
 70
     1
  9
$MAXACTVP
 70
    16
  9
$PINSBASE
 10
0.0
 20
0.0
 30
0.0
  9
$PLIMCHECK
 70
     0
  9
$PEXTMIN
 10
1.000000000000000E+20
 20
1.000000000000000E+20
 30
1.000000000000000E+20
  9
$PEXTMAX
 10
-1.000000000000000E+20
 20
-1.000000000000000E+20
 30
-1.000000000000000E+20
  9
$PLIMMIN
 10
0.0
 20
0.0
  9
$PLIMMAX
 10
420.0
 20
297.0
  9
$UNITMODE
 70
     0
  9
$VISRETAIN
 70
     0
  9
$PLINEGEN
 70
     0
  9
$PSLTSCALE
 70
     0
  9
$TREEDEPTH
 70
  3020
  9
$CMLSTYLE
  2
STANDARD
  9
$CMLJUST
 70
     0
  9
$CMLSCALE
 40
1.0
  9
$PROXYGRAPHICS
 70
     1
  9
$MEASUREMENT
 70
     1
  9
$CELWEIGHT
370
    -1
  9
$ENDCAPS
280
     0
  9
$JOINSTYLE
280
     0
  9
$LWDISPLAY
290
     0
  9
$INSUNITS
 70
     0
  9
$HYPERLINKBASE
  1

  9
$STYLESHEET
  1
inaba.ctb
  9
$XEDIT
290
     1
  9
$CEPSNTYPE
380
     0
  9
$PSTYLEMODE
290
     1
  9
$FINGERPRINTGUID
  2
{5EAC461A-2277-4BF8-9AB0-99C43BB394F0}
  9
$VERSIONGUID
  2
{347EE8DC-A9EF-40C5-B4CD-8F1D4F327934}
  9
$EXTNAMES
290
     1
  9
$PSVPSCALE
 40
0.0
  9
$OLESTARTUP
290
     0
  0
ENDSEC
  0
SECTION
  2
CLASSES
  0
CLASS
  1
ACDBDICTIONARYWDFLT
  2
AcDbDictionaryWithDefault
  3
ObjectDBX Classes
 90
        0
280
     0
281
     0
  0
CLASS
  1
DICTIONARYVAR
  2
AcDbDictionaryVar
  3
ObjectDBX Classes
 90
        0
280
     0
281
     0
  0
CLASS
  1
ACDBPLACEHOLDER
  2
AcDbPlaceHolder
  3
ObjectDBX Classes
 90
        0
280
     0
281
     0
  0
CLASS
  1
LAYOUT
  2
AcDbLayout
  3
ObjectDBX Classes
 90
        0
280
     0
281
     0
  0
ENDSEC
  0
SECTION
  2
TABLES
  0
TABLE
  2
VPORT
  5
746D
330
0
100
AcDbSymbolTable
 70
     2
  0
VPORT
  5
2801C
330
746D
100
AcDbSymbolTableRecord
100
AcDbViewportTableRecord
  2
*Active
 70
     0
 10
0.0
 20
0.0
 11
1.0
 21
1.0
 12
9780.063278468164
 22
5704.796475140369
 13
0.0
 23
0.0
 14
10.0
 24
10.0
 15
10.0
 25
10.0
 16
0.0
 26
0.0
 36
1.0
 17
0.0
 27
0.0
 37
0.0
 40
11497.10903398372
 41
1.79295154185022
 42
50.0
 43
0.0
 44
0.0
 50
0.0
 51
0.0
 71
     0
 72
     0
 73
     1
 74
     0
 75
     0
 76
     0
 77
     0
 78
     0
281
     0
 65
     1
110
0.0
120
0.0
130
0.0
111
1.0
121
0.0
131
0.0
112
0.0
122
1.0
132
0.0
 79
     0
146
0.0
  0
ENDTAB
  0
TABLE
  2
LTYPE
  5
746A
330
0
100
AcDbSymbolTable
 70
     3
  0
LTYPE
  5
7477
330
746A
100
AcDbSymbolTableRecord
100
AcDbLinetypeTableRecord
  2
BYBLOCK
 70
     0
  3

 72
    65
 73
     0
 40
0.0
  0
LTYPE
  5
7478
330
746A
100
AcDbSymbolTableRecord
100
AcDbLinetypeTableRecord
  2
BYLAYER
 70
     0
  3

 72
    65
 73
     0
 40
0.0
  0
LTYPE
  5
7479
330
746A
100
AcDbSymbolTableRecord
100
AcDbLinetypeTableRecord
  2
CONTINUOUS
 70
     0
  3
Solid line
 72
    65
 73
     0
 40
0.0
  0
LTYPE
  5
7816
330
746A
100
AcDbSymbolTableRecord
100
AcDbLinetypeTableRecord
  2
CENTER
 70
     0
  3
____ _ ____ _ ____ _ ____ _ ____ _ ____ _ ____ 
 72
    65
 73
     4
 40
2.0
 49
1.25
 74
     0
 49
-0.25
 74
     0
 49
0.25
 74
     0
 49
-0.25
 74
     0
  0
LTYPE
  5
781B
330
746A
100
AcDbSymbolTableRecord
100
AcDbLinetypeTableRecord
  2
PHANTOM
 70
     0
  3
______  __  __  ______  __  __  ______  __  __ 
 72
    65
 73
     6
 40
2.5
 49
1.25
 74
     0
 49
-0.25
 74
     0
 49
0.25
 74
     0
 49
-0.25
 74
     0
 49
0.25
 74
     0
 49
-0.25
 74
     0
  0
ENDTAB
  0
TABLE
  2
LAYER
  5
7467
102
{ACAD_XDICTIONARY
360
1758F
102
}
330
0
100
AcDbSymbolTable
 70
    10
  0
LAYER
  5
7474
330
7467
100
AcDbSymbolTableRecord
100
AcDbLayerTableRecord
  2
0
 70
     0
 62
     7
  6
CONTINUOUS
370
    -3
390
173D0
  0
LAYER
  5
DEB2
330
7467
100
AcDbSymbolTableRecord
100
AcDbLayerTableRecord
  2
センター
 70
     0
 62
     3
  6
CENTER
370
    -3
390
173D0
  0
LAYER
  5
DEB3
330
7467
100
AcDbSymbolTableRecord
100
AcDbLayerTableRecord
  2
寸法
 70
     0
 62
     4
  6
CONTINUOUS
370
    -3
390
173D0
  0
LAYER
  5
DEB4
330
7467
100
AcDbSymbolTableRecord
100
AcDbLayerTableRecord
  2
部品1
 70
     0
 62
     7
  6
CONTINUOUS
370
    -3
390
173D0
  0
LAYER
  5
DEB5
330
7467
100
AcDbSymbolTableRecord
100
AcDbLayerTableRecord
  2
補助
 70
     0
 62
    -1
  6
CONTINUOUS
370
    -3
390
173D0
  0
LAYER
  5
DEB6
330
7467
100
AcDbSymbolTableRecord
100
AcDbLayerTableRecord
  2
文字
 70
     0
 62
     7
  6
CONTINUOUS
370
    -3
390
173D0
  0
LAYER
  5
F255
330
7467
100
AcDbSymbolTableRecord
100
AcDbLayerTableRecord
  2
DEFPOINTS
 70
     0
 62
     7
  6
CONTINUOUS
290
     0
370
    -3
390
173D0
  0
LAYER
  5
10B54
330
7467
100
AcDbSymbolTableRecord
100
AcDbLayerTableRecord
  2
仕様書枠
 70
     0
 62
   230
  6
CONTINUOUS
370
    -3
390
173D0
  0
LAYER
  5
1173F
330
7467
100
AcDbSymbolTableRecord
100
AcDbLayerTableRecord
  2
細線
 70
     0
 62
     5
  6
CONTINUOUS
370
    -3
390
173D0
  0
LAYER
  5
12CC4
330
7467
100
AcDbSymbolTableRecord
100
AcDbLayerTableRecord
  2
想像線
 70
     0
 62
     6
  6
PHANTOM
370
    -3
390
173D0
  0
ENDTAB
  0
TABLE
  2
STYLE
  5
7468
330
0
100
AcDbSymbolTable
 70
     4
  0
STYLE
  5
7475
330
7468
100
AcDbSymbolTableRecord
100
AcDbTextStyleTableRecord
  2
STANDARD
 70
     0
 40
0.0
 41
1.0
 50
0.0
 71
     0
 42
4.0
  3
txt
  4
C:\AutoCAD LT\bigfont.shx
  0
STYLE
  5
763C
330
7468
100
AcDbSymbolTableRecord
100
AcDbTextStyleTableRecord
  2
MSMINCHO
 70
     0
 40
0.0
 41
1.0
 50
0.0
 71
     0
 42
1.199999999999999
  3
C:\AutoCAD LT\msminch2.TTF
  4

  0
STYLE
  5
F706
330
7468
100
AcDbSymbolTableRecord
100
AcDbTextStyleTableRecord
  2
STYLE1
 70
     0
 40
0.0
 41
1.0
 50
0.0
 71
     0
 42
4.0
  3
isocp.shx
  4
bigfont.shx
  0
STYLE
  5
103BF
330
7468
100
AcDbSymbolTableRecord
100
AcDbTextStyleTableRecord
  2
STYLE2
 70
     0
 40
0.0
 41
1.0
 50
0.0
 71
     0
 42
100.0
  3
MS PGothic.ttf
  4

1001
ACAD
1000
MS PGothic
1071
    32818
  0
ENDTAB
  0
TABLE
  2
VIEW
  5
746B
330
0
100
AcDbSymbolTable
 70
     0
  0
ENDTAB
  0
TABLE
  2
UCS
  5
746C
330
0
100
AcDbSymbolTable
 70
     0
  0
ENDTAB
  0
TABLE
  2
APPID
  5
746E
330
0
100
AcDbSymbolTable
 70
     6
  0
APPID
  5
7476
330
746E
100
AcDbSymbolTableRecord
100
AcDbRegAppTableRecord
  2
ACAD
 70
     0
  0
APPID
  5
DEA9
330
746E
100
AcDbSymbolTableRecord
100
AcDbRegAppTableRecord
  2
CONTENTBLOCKICON
 70
     0
  0
APPID
  5
DEAA
330
746E
100
AcDbSymbolTableRecord
100
AcDbRegAppTableRecord
  2
CONTENTBLOCKDESCRIPTION
 70
     0
  0
APPID
  5
E71D
330
746E
100
AcDbSymbolTableRecord
100
AcDbRegAppTableRecord
  2
CONTENTTABDATA
 70
     0
  0
APPID
  5
E71E
330
746E
100
AcDbSymbolTableRecord
100
AcDbRegAppTableRecord
  2
CONTENTCURRENTTAB
 70
     0
  0
APPID
  5
F3BA
330
746E
100
AcDbSymbolTableRecord
100
AcDbRegAppTableRecord
  2
DRAWINGVARIABLESXDATA
 70
     0
  0
ENDTAB
  0
TABLE
  2
DIMSTYLE
  5
746F
330
0
100
AcDbSymbolTable
 70
     1
100
AcDbDimStyleTable
 71
     1
340
F71F
  0
DIMSTYLE
105
F71F
102
{ACAD_REACTORS
330
27CBB
330
27C22
330
27C1C
330
27C1A
330
27C05
330
27BC3
330
27BC2
330
27BC1
330
27BB4
330
27BB3
330
27BB0
330
27BAF
330
27BAD
330
27BAC
330
27BA9
330
27BA6
330
27BA4
330
27BA3
330
27BA0
330
279EA
330
2701E
330
26F7E
330
26F64
330
26F3F
330
26F1A
330
26F00
330
26522
330
2651E
330
26519
330
2650D
330
2650C
330
26508
330
2647E
330
2646B
330
26467
330
26459
330
26458
330
26457
330
26454
330
26452
330
26450
330
26236
330
2622F
330
261CE
330
261CD
330
261C9
330
261B9
330
261B5
330
261B2
330
261B1
330
261B0
330
1D333
330
1D2D6
330
1AC2C
330
1AC27
102
}
330
746F
100
AcDbSymbolTableRecord
100
AcDbDimStyleTableRecord
  2
INABA_S40G
 70
     0
 40
40.0
 41
2.5
 42
0.5
 43
7.0
 44
1.5
 73
     0
 74
     0
 77
     3
 78
     8
140
3.0
141
0.0
143
0.0394
147
1.0
172
     1
173
     1
174
     1
178
     7
271
     1
340
F706
341
F770
343
F770
344
F770
  0
ENDTAB
  0
TABLE
  2
BLOCK_RECORD
  5
7466
330
0
100
AcDbSymbolTable
 70
    39
  0
BLOCK_RECORD
  5
747D
330
7466
100
AcDbSymbolTableRecord
100
AcDbBlockTableRecord
  2
*MODEL_SPACE
340
173D5
  0
BLOCK_RECORD
  5
747A
330
7466
100
AcDbSymbolTableRecord
100
AcDbBlockTableRecord
  2
*PAPER_SPACE
340
173D6
  0
BLOCK_RECORD
  5
F770
330
7466
100
AcDbSymbolTableRecord
100
AcDbBlockTableRecord
  2
_DOTSMALL
340
0
102
{BLKREFS
331
27E7A
331
27E7B
331
27E83
331
27E84
331
27E8C
331
27E8D
331
27E95
331
27E96
331
27E9E
331
27E9F
331
27EA7
331
27EA8
331
27EB0
331
27EB1
331
27EBA
331
27EBB
331
27EC5
331
27EC6
331
27ED0
331
27ED1
331
27EDB
331
27EDC
331
27EE6
331
27EE7
331
27EF1
331
27EF2
331
27EFB
331
27EFC
331
27F05
331
27F06
331
27F0F
331
27F10
331
27F18
331
27F19
331
27F21
331
27F22
331
27F2A
331
27F2B
331
27F33
331
27F34
331
27F3C
331
27F3D
331
27F46
331
27F47
331
27F50
331
27F51
331
27F59
331
27F5A
331
27F63
331
27F64
331
27F6C
331
27F6D
331
27F75
331
27F76
331
27F7F
331
27F80
331
27F88
331
27F89
331
27F92
331
27F93
331
27F9B
331
27F9C
331
27FA4
331
27FA5
331
27FAF
331
27FB0
331
27FB8
331
27FB9
331
27FC1
331
27FC2
331
27FCB
331
27FCC
331
27FD5
331
27FD6
331
27FDE
331
27FDF
102
}
  0
BLOCK_RECORD
  5
26523
330
7466
100
AcDbSymbolTableRecord
100
AcDbBlockTableRecord
  2
*D1
340
0
  0
BLOCK_RECORD
  5
2652E
330
7466
100
AcDbSymbolTableRecord
100
AcDbBlockTableRecord
  2
*D2
340
0
  0
BLOCK_RECORD
  5
2653B
330
7466
100
AcDbSymbolTableRecord
100
AcDbBlockTableRecord
  2
*D3
340
0
  0
BLOCK_RECORD
  5
26548
330
7466
100
AcDbSymbolTableRecord
100
AcDbBlockTableRecord
  2
*D4
340
0
  0
BLOCK_RECORD
  5
26553
330
7466
100
AcDbSymbolTableRecord
100
AcDbBlockTableRecord
  2
*D5
340
0
  0
BLOCK_RECORD
  5
2655E
330
7466
100
AcDbSymbolTableRecord
100
AcDbBlockTableRecord
  2
*D6
340
0
  0
BLOCK_RECORD
  5
26568
330
7466
100
AcDbSymbolTableRecord
100
AcDbBlockTableRecord
  2
*D7
340
0
  0
BLOCK_RECORD
  5
26573
330
7466
100
AcDbSymbolTableRecord
100
AcDbBlockTableRecord
  2
*D8
340
0
  0
BLOCK_RECORD
  5
2659F
330
7466
100
AcDbSymbolTableRecord
100
AcDbBlockTableRecord
  2
*D9
340
0
  0
BLOCK_RECORD
  5
265C5
330
7466
100
AcDbSymbolTableRecord
100
AcDbBlockTableRecord
  2
*D10
340
0
  0
BLOCK_RECORD
  5
265DA
330
7466
100
AcDbSymbolTableRecord
100
AcDbBlockTableRecord
  2
*D11
340
0
  0
BLOCK_RECORD
  5
265F4
330
7466
100
AcDbSymbolTableRecord
100
AcDbBlockTableRecord
  2
*D12
340
0
  0
BLOCK_RECORD
  5
26600
330
7466
100
AcDbSymbolTableRecord
100
AcDbBlockTableRecord
  2
*D13
340
0
  0
BLOCK_RECORD
  5
2660C
330
7466
100
AcDbSymbolTableRecord
100
AcDbBlockTableRecord
  2
*D14
340
0
  0
BLOCK_RECORD
  5
26619
330
7466
100
AcDbSymbolTableRecord
100
AcDbBlockTableRecord
  2
*D15
340
0
  0
BLOCK_RECORD
  5
26624
330
7466
100
AcDbSymbolTableRecord
100
AcDbBlockTableRecord
  2
*D16
340
0
  0
BLOCK_RECORD
  5
26631
330
7466
100
AcDbSymbolTableRecord
100
AcDbBlockTableRecord
  2
*D17
340
0
  0
BLOCK_RECORD
  5
2663E
330
7466
100
AcDbSymbolTableRecord
100
AcDbBlockTableRecord
  2
*D18
340
0
  0
BLOCK_RECORD
  5
26649
330
7466
100
AcDbSymbolTableRecord
100
AcDbBlockTableRecord
  2
*D19
340
0
  0
BLOCK_RECORD
  5
2667B
330
7466
100
AcDbSymbolTableRecord
100
AcDbBlockTableRecord
  2
*D20
340
0
  0
BLOCK_RECORD
  5
26687
330
7466
100
AcDbSymbolTableRecord
100
AcDbBlockTableRecord
  2
*D21
340
0
  0
BLOCK_RECORD
  5
26692
330
7466
100
AcDbSymbolTableRecord
100
AcDbBlockTableRecord
  2
*D22
340
0
  0
BLOCK_RECORD
  5
2669E
330
7466
100
AcDbSymbolTableRecord
100
AcDbBlockTableRecord
  2
*D23
340
0
  0
BLOCK_RECORD
  5
266AB
330
7466
100
AcDbSymbolTableRecord
100
AcDbBlockTableRecord
  2
*D24
340
0
  0
BLOCK_RECORD
  5
266B8
330
7466
100
AcDbSymbolTableRecord
100
AcDbBlockTableRecord
  2
*D25
340
0
  0
BLOCK_RECORD
  5
26F01
330
7466
100
AcDbSymbolTableRecord
100
AcDbBlockTableRecord
  2
*D26
340
0
  0
BLOCK_RECORD
  5
26F1B
330
7466
100
AcDbSymbolTableRecord
100
AcDbBlockTableRecord
  2
*D27
340
0
  0
BLOCK_RECORD
  5
26F40
330
7466
100
AcDbSymbolTableRecord
100
AcDbBlockTableRecord
  2
*D28
340
0
  0
BLOCK_RECORD
  5
26F65
330
7466
100
AcDbSymbolTableRecord
100
AcDbBlockTableRecord
  2
*D29
340
0
  0
BLOCK_RECORD
  5
26F7F
330
7466
100
AcDbSymbolTableRecord
100
AcDbBlockTableRecord
  2
*D30
340
0
  0
BLOCK_RECORD
  5
2701F
330
7466
100
AcDbSymbolTableRecord
100
AcDbBlockTableRecord
  2
*D31
340
0
  0
BLOCK_RECORD
  5
279EB
330
7466
100
AcDbSymbolTableRecord
100
AcDbBlockTableRecord
  2
*D32
340
0
  0
BLOCK_RECORD
  5
27CCB
330
7466
100
AcDbSymbolTableRecord
100
AcDbBlockTableRecord
  2
*D33
340
0
  0
BLOCK_RECORD
  5
27CD7
330
7466
100
AcDbSymbolTableRecord
100
AcDbBlockTableRecord
  2
*D34
340
0
  0
BLOCK_RECORD
  5
27CE3
330
7466
100
AcDbSymbolTableRecord
100
AcDbBlockTableRecord
  2
*D35
340
0
  0
BLOCK_RECORD
  5
27CEF
330
7466
100
AcDbSymbolTableRecord
100
AcDbBlockTableRecord
  2
*D36
340
0
  0
BLOCK_RECORD
  5
27CFB
330
7466
100
AcDbSymbolTableRecord
100
AcDbBlockTableRecord
  2
*D37
340
0
  0
BLOCK_RECORD
  5
27D06
330
7466
100
AcDbSymbolTableRecord
100
AcDbBlockTableRecord
  2
*D38
340
0
  0
ENDTAB
  0
ENDSEC
  0
SECTION
  2
BLOCKS
  0
BLOCK
  5
7489
330
747D
100
AcDbEntity
  8
0
100
AcDbBlockBegin
  2
*MODEL_SPACE
 70
     0
 10
0.0
 20
0.0
 30
0.0
  3
*MODEL_SPACE
  1

  0
ENDBLK
  5
748A
330
747D
100
AcDbEntity
  8
0
100
AcDbBlockEnd
  0
BLOCK
  5
7487
330
747A
100
AcDbEntity
 67
     1
  8
0
100
AcDbBlockBegin
  2
*PAPER_SPACE
 70
     0
 10
0.0
 20
0.0
 30
0.0
  3
*PAPER_SPACE
  1

  0
ENDBLK
  5
7488
330
747A
100
AcDbEntity
 67
     1
  8
0
100
AcDbBlockEnd
  0
BLOCK
  5
F771
330
F770
100
AcDbEntity
  8
0
 48
50.0
100
AcDbBlockBegin
  2
_DOTSMALL
 70
     0
 10
0.0
 20
0.0
 30
0.0
  3
_DOTSMALL
  1

  0
LWPOLYLINE
  5
F772
330
F770
100
AcDbEntity
  8
0
  6
ByBlock
 62
     0
 48
50.0
100
AcDbPolyline
 90
        2
 70
     1
 43
0.5
 10
-0.0625
 20
0.0
 42
1.0
 10
0.0625
 20
0.0
 42
1.0
  0
ENDBLK
  5
F776
330
F770
100
AcDbEntity
  8
0
 48
50.0
100
AcDbBlockEnd
  0
BLOCK
  5
2652C
330
26523
100
AcDbEntity
  8
0
 48
50.0
100
AcDbBlockBegin
  2
*D1
 70
     1
 10
0.0
 20
0.0
 30
0.0
  3
*D1
  1

  0
LINE
  5
27FDB
330
26523
100
AcDbEntity
  8
寸法
 62
     0
 48
50.0
370
    -2
100
AcDbLine
 10
10735.6
 20
7504.513207084727
 30
0.0
 11
10735.6
 21
8363.272833626812
 31
0.0
  0
LINE
  5
27FDC
330
26523
100
AcDbEntity
  8
寸法
 62
     0
 48
50.0
370
    -2
100
AcDbLine
 10
8105.6
 20
7504.513207084727
 30
0.0
 11
8105.6
 21
8363.272833626812
 31
0.0
  0
LINE
  5
27FDD
330
26523
100
AcDbEntity
  8
寸法
 62
     0
 48
50.0
370
    -2
100
AcDbLine
 10
10735.6
 20
8303.272833626811
 30
0.0
 11
8105.6
 21
8303.272833626811
 31
0.0
  0
INSERT
  5
27FDE
330
26523
100
AcDbEntity
  8
寸法
 62
     0
 48
50.0
370
    -2
100
AcDbBlockReference
  2
_DOTSMALL
 10
10735.6
 20
8303.272833626811
 30
0.0
 41
100.0
 42
100.0
 43
100.0
  0
INSERT
  5
27FDF
330
26523
100
AcDbEntity
  8
寸法
 62
     0
 48
50.0
370
    -2
100
AcDbBlockReference
  2
_DOTSMALL
 10
8105.6
 20
8303.272833626811
 30
0.0
 41
100.0
 42
100.0
 43
100.0
 50
180.0
  0
MTEXT
  5
27FE0
330
26523
100
AcDbEntity
  8
寸法
 62
     7
 48
50.0
100
AcDbMText
 10
9420.6
 20
8403.284644650433
 30
0.0
 40
120.0
 41
0.0
 71
     5
 72
     1
  1
\A1;2630
  7
STYLE1
 73
     1
 44
1.0
1001
ACAD
1000
MTEXTBEGIN
1070
    73
1070
     1
1070
    44
1040
1.0
1070
    74
1070
     0
1000
MTEXTEND
  0
POINT
  5
27FE1
330
26523
100
AcDbEntity
  8
DEFPOINTS
 62
     0
 48
50.0
100
AcDbPoint
 10
10735.6
 20
7484.513207084727
 30
0.0
  0
POINT
  5
27FE2
330
26523
100
AcDbEntity
  8
DEFPOINTS
 62
     0
 48
50.0
100
AcDbPoint
 10
8105.6
 20
7484.513207084727
 30
0.0
  0
POINT
  5
27FE3
330
26523
100
AcDbEntity
  8
DEFPOINTS
 62
     0
 48
50.0
100
AcDbPoint
 10
8105.6
 20
8303.272833626811
 30
0.0
  0
ENDBLK
  5
2652D
330
26523
100
AcDbEntity
  8
0
 48
50.0
100
AcDbBlockEnd
  0
BLOCK
  5
26539
330
2652E
100
AcDbEntity
  8
0
 48
50.0
100
AcDbBlockBegin
  2
*D2
 70
     1
 10
0.0
 20
0.0
 30
0.0
  3
*D2
  1

  0
LINE
  5
27FD1
330
2652E
100
AcDbEntity
  8
寸法
 62
     0
 48
50.0
370
    -2
100
AcDbLine
 10
8765.623678462391
 20
5877.513207084741
 30
0.0
 11
8610.14438614211
 21
5877.513207084741
 31
0.0
  0
LINE
  5
27FD2
330
2652E
100
AcDbEntity
  8
寸法
 62
     0
 48
50.0
370
    -2
100
AcDbLine
 10
8255.600000000001
 20
5987.513207084749
 30
0.0
 11
8730.144386142111
 21
5987.513207084749
 31
0.0
  0
LINE
  5
27FD3
330
2652E
100
AcDbEntity
  8
寸法
 62
     0
 48
50.0
370
    -2
100
AcDbLine
 10
8670.14438614211
 20
5877.513207084741
 30
0.0
 11
8670.14438614211
 21
5987.513207084749
 31
0.0
  0
LINE
  5
27FD4
330
2652E
100
AcDbEntity
  8
寸法
 62
     0
 48
50.0
370
    -2
100
AcDbLine
 10
8670.14438614211
 20
5987.513207084749
 30
0.0
 11
8670.14438614211
 21
6381.619506297357
 31
0.0
  0
INSERT
  5
27FD5
330
2652E
100
AcDbEntity
  8
寸法
 62
     0
 48
50.0
370
    -2
100
AcDbBlockReference
  2
_DOTSMALL
 10
8670.14438614211
 20
5877.513207084741
 30
0.0
 41
100.0
 42
100.0
 43
100.0
 50
270.0
  0
INSERT
  5
27FD6
330
2652E
100
AcDbEntity
  8
寸法
 62
     0
 48
50.0
370
    -2
100
AcDbBlockReference
  2
_DOTSMALL
 10
8670.14438614211
 20
5987.513207084749
 30
0.0
 41
100.0
 42
100.0
 43
100.0
 50
90.0
  0
MTEXT
  5
27FD7
330
2652E
100
AcDbEntity
  8
寸法
 62
     7
 48
50.0
100
AcDbMText
 10
8570.144386142109
 20
6257.57226220287
 30
0.0
 40
120.0
 41
0.0
 71
     5
 72
     1
  1
\A1;110
  7
STYLE1
 11
0.0000000000000001
 21
1.0
 31
0.0
 73
     1
 44
1.0
1001
ACAD
1000
MTEXTBEGIN
1070
    73
1070
     1
1070
    44
1040
1.0
1070
    74
1070
     0
1000
MTEXTEND
  0
POINT
  5
27FD8
330
2652E
100
AcDbEntity
  8
DEFPOINTS
 62
     0
 48
50.0
100
AcDbPoint
 10
8785.623678462391
 20
5877.513207084741
 30
0.0
  0
POINT
  5
27FD9
330
2652E
100
AcDbEntity
  8
DEFPOINTS
 62
     0
 48
50.0
100
AcDbPoint
 10
8235.600000000001
 20
5987.513207084749
 30
0.0
  0
POINT
  5
27FDA
330
2652E
100
AcDbEntity
  8
DEFPOINTS
 62
     0
 48
50.0
100
AcDbPoint
 10
8670.14438614211
 20
5987.513207084749
 30
0.0
  0
ENDBLK
  5
2653A
330
2652E
100
AcDbEntity
  8
0
 48
50.0
100
AcDbBlockEnd
  0
BLOCK
  5
26546
330
2653B
100
AcDbEntity
  8
0
 48
50.0
100
AcDbBlockBegin
  2
*D3
 70
     1
 10
0.0
 20
0.0
 30
0.0
  3
*D3
  1

  0
LINE
  5
27FC7
330
2653B
100
AcDbEntity
  8
寸法
 62
     0
 48
50.0
370
    -2
100
AcDbLine
 10
8327.41918098816
 20
5757.513207084755
 30
0.0
 11
8730.144386142111
 21
5757.513207084755
 31
0.0
  0
LINE
  5
27FC8
330
2653B
100
AcDbEntity
  8
寸法
 62
     0
 48
50.0
370
    -2
100
AcDbLine
 10
8765.623678462391
 20
5877.513207084741
 30
0.0
 11
8610.14438614211
 21
5877.513207084741
 31
0.0
  0
LINE
  5
27FC9
330
2653B
100
AcDbEntity
  8
寸法
 62
     0
 48
50.0
370
    -2
100
AcDbLine
 10
8670.14438614211
 20
5877.513207084741
 30
0.0
 11
8670.14438614211
 21
5757.513207084755
 31
0.0
  0
LINE
  5
27FCA
330
2653B
100
AcDbEntity
  8
寸法
 62
     0
 48
50.0
370
    -2
100
AcDbLine
 10
8670.14438614211
 20
5757.513207084755
 30
0.0
 11
8670.14438614211
 21
5285.177658022299
 31
0.0
  0
INSERT
  5
27FCB
330
2653B
100
AcDbEntity
  8
寸法
 62
     0
 48
50.0
370
    -2
100
AcDbBlockReference
  2
_DOTSMALL
 10
8670.14438614211
 20
5877.513207084741
 30
0.0
 41
100.0
 42
100.0
 43
100.0
 50
90.0
  0
INSERT
  5
27FCC
330
2653B
100
AcDbEntity
  8
寸法
 62
     0
 48
50.0
370
    -2
100
AcDbBlockReference
  2
_DOTSMALL
 10
8670.14438614211
 20
5757.513207084755
 30
0.0
 41
100.0
 42
100.0
 43
100.0
 50
270.0
  0
MTEXT
  5
27FCD
330
2653B
100
AcDbEntity
  8
寸法
 62
     7
 48
50.0
100
AcDbMText
 10
8570.132575118487
 20
5421.224902116788
 30
0.0
 40
120.0
 41
0.0
 71
     5
 72
     1
  1
\A1;120
  7
STYLE1
 11
0.0000000000000001
 21
1.0
 31
0.0
 73
     1
 44
1.0
1001
ACAD
1000
MTEXTBEGIN
1070
    73
1070
     1
1070
    44
1040
1.0
1070
    74
1070
     0
1000
MTEXTEND
  0
POINT
  5
27FCE
330
2653B
100
AcDbEntity
  8
DEFPOINTS
 62
     0
 48
50.0
100
AcDbPoint
 10
8307.41918098816
 20
5757.513207084755
 30
0.0
  0
POINT
  5
27FCF
330
2653B
100
AcDbEntity
  8
DEFPOINTS
 62
     0
 48
50.0
100
AcDbPoint
 10
8785.623678462391
 20
5877.513207084741
 30
0.0
  0
POINT
  5
27FD0
330
2653B
100
AcDbEntity
  8
DEFPOINTS
 62
     0
 48
50.0
100
AcDbPoint
 10
8670.14438614211
 20
5877.513207084741
 30
0.0
  0
ENDBLK
  5
26547
330
2653B
100
AcDbEntity
  8
0
 48
50.0
100
AcDbBlockEnd
  0
BLOCK
  5
26551
330
26548
100
AcDbEntity
  8
0
 48
50.0
100
AcDbBlockBegin
  2
*D4
 70
     1
 10
0.0
 20
0.0
 30
0.0
  3
*D4
  1

  0
LINE
  5
27FBE
330
26548
100
AcDbEntity
  8
寸法
 62
     0
 48
50.0
370
    -2
100
AcDbLine
 10
9123.600000000001
 20
6877.513207084728
 30
0.0
 11
9123.600000000001
 21
8144.422972733057
 31
0.0
  0
LINE
  5
27FBF
330
26548
100
AcDbEntity
  8
寸法
 62
     0
 48
50.0
370
    -2
100
AcDbLine
 10
8223.600000000001
 20
6777.513207084729
 30
0.0
 11
8223.600000000001
 21
8144.422972733057
 31
0.0
  0
LINE
  5
27FC0
330
26548
100
AcDbEntity
  8
寸法
 62
     0
 48
50.0
370
    -2
100
AcDbLine
 10
9123.600000000001
 20
8084.422972733056
 30
0.0
 11
8223.600000000001
 21
8084.422972733056
 31
0.0
  0
INSERT
  5
27FC1
330
26548
100
AcDbEntity
  8
寸法
 62
     0
 48
50.0
370
    -2
100
AcDbBlockReference
  2
_DOTSMALL
 10
9123.600000000001
 20
8084.422972733056
 30
0.0
 41
100.0
 42
100.0
 43
100.0
  0
INSERT
  5
27FC2
330
26548
100
AcDbEntity
  8
寸法
 62
     0
 48
50.0
370
    -2
100
AcDbBlockReference
  2
_DOTSMALL
 10
8223.600000000001
 20
8084.422972733056
 30
0.0
 41
100.0
 42
100.0
 43
100.0
 50
180.0
  0
MTEXT
  5
27FC3
330
26548
100
AcDbEntity
  8
寸法
 62
     7
 48
50.0
100
AcDbMText
 10
8673.6
 20
8184.422972733056
 30
0.0
 40
120.0
 41
0.0
 71
     5
 72
     1
  1
\A1;900
  7
STYLE1
 73
     1
 44
1.0
1001
ACAD
1000
MTEXTBEGIN
1070
    73
1070
     1
1070
    44
1040
1.0
1070
    74
1070
     0
1000
MTEXTEND
  0
POINT
  5
27FC4
330
26548
100
AcDbEntity
  8
DEFPOINTS
 62
     0
 48
50.0
100
AcDbPoint
 10
9123.600000000001
 20
6857.513207084728
 30
0.0
  0
POINT
  5
27FC5
330
26548
100
AcDbEntity
  8
DEFPOINTS
 62
     0
 48
50.0
100
AcDbPoint
 10
8223.600000000001
 20
6757.513207084729
 30
0.0
  0
POINT
  5
27FC6
330
26548
100
AcDbEntity
  8
DEFPOINTS
 62
     0
 48
50.0
100
AcDbPoint
 10
8223.600000000001
 20
8084.422972733056
 30
0.0
  0
ENDBLK
  5
26552
330
26548
100
AcDbEntity
  8
0
 48
50.0
100
AcDbBlockEnd
  0
BLOCK
  5
2655C
330
26553
100
AcDbEntity
  8
0
 48
50.0
100
AcDbBlockBegin
  2
*D5
 70
     1
 10
0.0
 20
0.0
 30
0.0
  3
*D5
  1

  0
LINE
  5
27FB5
330
26553
100
AcDbEntity
  8
寸法
 62
     0
 48
50.0
370
    -2
100
AcDbLine
 10
5588.6
 20
7577.513207084729
 30
0.0
 11
5588.6
 21
8575.733529143645
 31
0.0
  0
LINE
  5
27FB6
330
26553
100
AcDbEntity
  8
寸法
 62
     0
 48
50.0
370
    -2
100
AcDbLine
 10
10858.6
 20
7577.513207084729
 30
0.0
 11
10858.6
 21
8575.733529143645
 31
0.0
  0
LINE
  5
27FB7
330
26553
100
AcDbEntity
  8
寸法
 62
     0
 48
50.0
370
    -2
100
AcDbLine
 10
5588.6
 20
8515.733529143647
 30
0.0
 11
10858.6
 21
8515.733529143647
 31
0.0
  0
INSERT
  5
27FB8
330
26553
100
AcDbEntity
  8
寸法
 62
     0
 48
50.0
370
    -2
100
AcDbBlockReference
  2
_DOTSMALL
 10
5588.6
 20
8515.733529143647
 30
0.0
 41
100.0
 42
100.0
 43
100.0
 50
180.0
  0
INSERT
  5
27FB9
330
26553
100
AcDbEntity
  8
寸法
 62
     0
 48
50.0
370
    -2
100
AcDbBlockReference
  2
_DOTSMALL
 10
10858.6
 20
8515.733529143647
 30
0.0
 41
100.0
 42
100.0
 43
100.0
  0
MTEXT
  5
27FBA
330
26553
100
AcDbEntity
  8
寸法
 62
     7
 48
50.0
100
AcDbMText
 10
8223.600000000001
 20
8615.745340167269
 30
0.0
 40
120.0
 41
0.0
 71
     5
 72
     1
  1
\A1;5270
  7
STYLE1
 73
     1
 44
1.0
1001
ACAD
1000
MTEXTBEGIN
1070
    73
1070
     1
1070
    44
1040
1.0
1070
    74
1070
     0
1000
MTEXTEND
  0
POINT
  5
27FBB
330
26553
100
AcDbEntity
  8
DEFPOINTS
 62
     0
 48
50.0
100
AcDbPoint
 10
5588.6
 20
7557.513207084729
 30
0.0
  0
POINT
  5
27FBC
330
26553
100
AcDbEntity
  8
DEFPOINTS
 62
     0
 48
50.0
100
AcDbPoint
 10
10858.6
 20
7557.513207084729
 30
0.0
  0
POINT
  5
27FBD
330
26553
100
AcDbEntity
  8
DEFPOINTS
 62
     0
 48
50.0
100
AcDbPoint
 10
10858.6
 20
8515.733529143647
 30
0.0
  0
ENDBLK
  5
2655D
330
26553
100
AcDbEntity
  8
0
 48
50.0
100
AcDbBlockEnd
  0
BLOCK
  5
26566
330
2655E
100
AcDbEntity
  8
0
 48
50.0
100
AcDbBlockBegin
  2
*D6
 70
     1
 10
0.0
 20
0.0
 30
0.0
  3
*D6
  1

  0
LINE
  5
27FAA
330
2655E
100
AcDbEntity
  8
寸法
 62
     0
 48
50.0
370
    -2
100
AcDbLine
 10
8235.600000000001
 20
6007.513207084748
 30
0.0
 11
8235.600000000001
 21
6360.670745911884
 31
0.0
  0
LINE
  5
27FAB
330
2655E
100
AcDbEntity
  8
寸法
 62
     0
 48
50.0
370
    -2
100
AcDbLine
 10
7975.6
 20
6007.513207084748
 30
0.0
 11
7975.6
 21
6360.670745911884
 31
0.0
  0
LINE
  5
27FAC
330
2655E
100
AcDbEntity
  8
寸法
 62
     0
 48
50.0
370
    -2
100
AcDbLine
 10
8235.600000000001
 20
6300.670745911883
 30
0.0
 11
8335.600000000001
 21
6300.670745911883
 31
0.0
  0
LINE
  5
27FAD
330
2655E
100
AcDbEntity
  8
寸法
 62
     0
 48
50.0
370
    -2
100
AcDbLine
 10
7975.6
 20
6300.670745911883
 30
0.0
 11
7875.6
 21
6300.670745911883
 31
0.0
  0
LINE
  5
27FAE
330
2655E
100
AcDbEntity
  8
寸法
 62
     0
 48
50.0
370
    -2
100
AcDbLine
 10
8235.600000000001
 20
6300.670745911883
 30
0.0
 11
7975.6
 21
6300.670745911883
 31
0.0
  0
INSERT
  5
27FAF
330
2655E
100
AcDbEntity
  8
寸法
 62
     0
 48
50.0
370
    -2
100
AcDbBlockReference
  2
_DOTSMALL
 10
8235.600000000001
 20
6300.670745911883
 30
0.0
 41
100.0
 42
100.0
 43
100.0
 50
180.0
  0
INSERT
  5
27FB0
330
2655E
100
AcDbEntity
  8
寸法
 62
     0
 48
50.0
370
    -2
100
AcDbBlockReference
  2
_DOTSMALL
 10
7975.6
 20
6300.670745911883
 30
0.0
 41
100.0
 42
100.0
 43
100.0
  0
MTEXT
  5
27FB1
330
2655E
100
AcDbEntity
  8
寸法
 62
     7
 48
50.0
100
AcDbMText
 10
8105.6
 20
6400.682556935506
 30
0.0
 40
120.0
 41
0.0
 71
     5
 72
     1
  1
\A1;260
  7
STYLE1
 73
     1
 44
1.0
1001
ACAD
1000
MTEXTBEGIN
1070
    73
1070
     1
1070
    44
1040
1.0
1070
    74
1070
     0
1000
MTEXTEND
  0
POINT
  5
27FB2
330
2655E
100
AcDbEntity
  8
DEFPOINTS
 62
     0
 48
50.0
100
AcDbPoint
 10
8235.600000000001
 20
5987.513207084749
 30
0.0
  0
POINT
  5
27FB3
330
2655E
100
AcDbEntity
  8
DEFPOINTS
 62
     0
 48
50.0
100
AcDbPoint
 10
7975.6
 20
5987.513207084749
 30
0.0
  0
POINT
  5
27FB4
330
2655E
100
AcDbEntity
  8
DEFPOINTS
 62
     0
 48
50.0
100
AcDbPoint
 10
7975.6
 20
6300.670745911883
 30
0.0
  0
ENDBLK
  5
26567
330
2655E
100
AcDbEntity
  8
0
 48
50.0
100
AcDbBlockEnd
  0
BLOCK
  5
26571
330
26568
100
AcDbEntity
  8
0
 48
50.0
100
AcDbBlockBegin
  2
*D7
 70
     1
 10
0.0
 20
0.0
 30
0.0
  3
*D7
  1

  0
LINE
  5
27FA1
330
26568
100
AcDbEntity
  8
寸法
 62
     0
 48
50.0
370
    -2
100
AcDbLine
 10
5568.6
 20
7557.513207084729
 30
0.0
 11
4780.714637266782
 21
7557.513207084729
 31
0.0
  0
LINE
  5
27FA2
330
26568
100
AcDbEntity
  8
寸法
 62
     0
 48
50.0
370
    -2
100
AcDbLine
 10
5568.6
 20
5757.513207084731
 30
0.0
 11
4780.71463726678
 21
5757.513207084731
 31
0.0
  0
LINE
  5
27FA3
330
26568
100
AcDbEntity
  8
寸法
 62
     0
 48
50.0
370
    -2
100
AcDbLine
 10
4840.714637266781
 20
7557.513207084729
 30
0.0
 11
4840.71463726678
 21
5757.513207084731
 31
0.0
  0
INSERT
  5
27FA4
330
26568
100
AcDbEntity
  8
寸法
 62
     0
 48
50.0
370
    -2
100
AcDbBlockReference
  2
_DOTSMALL
 10
4840.714637266781
 20
7557.513207084729
 30
0.0
 41
100.0
 42
100.0
 43
100.0
 50
90.0
  0
INSERT
  5
27FA5
330
26568
100
AcDbEntity
  8
寸法
 62
     0
 48
50.0
370
    -2
100
AcDbBlockReference
  2
_DOTSMALL
 10
4840.71463726678
 20
5757.513207084731
 30
0.0
 41
100.0
 42
100.0
 43
100.0
 50
270.0
  0
MTEXT
  5
27FA6
330
26568
100
AcDbEntity
  8
寸法
 62
     7
 48
50.0
100
AcDbMText
 10
4740.714637266779
 20
6657.513207084729
 30
0.0
 40
120.0
 41
0.0
 71
     5
 72
     1
  1
\A1;1800
  7
STYLE1
 11
0.0000000000000001
 21
1.0
 31
0.0
 73
     1
 44
1.0
1001
ACAD
1000
MTEXTBEGIN
1070
    73
1070
     1
1070
    44
1040
1.0
1070
    74
1070
     0
1000
MTEXTEND
  0
POINT
  5
27FA7
330
26568
100
AcDbEntity
  8
DEFPOINTS
 62
     0
 48
50.0
100
AcDbPoint
 10
5588.6
 20
7557.513207084729
 30
0.0
  0
POINT
  5
27FA8
330
26568
100
AcDbEntity
  8
DEFPOINTS
 62
     0
 48
50.0
100
AcDbPoint
 10
5588.6
 20
5757.513207084731
 30
0.0
  0
POINT
  5
27FA9
330
26568
100
AcDbEntity
  8
DEFPOINTS
 62
     0
 48
50.0
100
AcDbPoint
 10
4840.71463726678
 20
5757.513207084731
 30
0.0
  0
ENDBLK
  5
26572
330
26568
100
AcDbEntity
  8
0
 48
50.0
100
AcDbBlockEnd
  0
BLOCK
  5
2657D
330
26573
100
AcDbEntity
  8
0
 48
50.0
100
AcDbBlockBegin
  2
*D8
 70
     1
 10
0.0
 20
0.0
 30
0.0
  3
*D8
  1

  0
LINE
  5
27F98
330
26573
100
AcDbEntity
  8
寸法
 62
     0
 48
50.0
370
    -2
100
AcDbLine
 10
5641.6
 20
7434.513207084727
 30
0.0
 11
5032.65773398618
 21
7434.513207084727
 31
0.0
  0
LINE
  5
27F99
330
26573
100
AcDbEntity
  8
寸法
 62
     0
 48
50.0
370
    -2
100
AcDbLine
 10
5641.600000000007
 20
5880.513207084732
 30
0.0
 11
5032.657733986178
 21
5880.513207084732
 31
0.0
  0
LINE
  5
27F9A
330
26573
100
AcDbEntity
  8
寸法
 62
     0
 48
50.0
370
    -2
100
AcDbLine
 10
5092.65773398618
 20
7434.513207084727
 30
0.0
 11
5092.657733986179
 21
5880.513207084732
 31
0.0
  0
INSERT
  5
27F9B
330
26573
100
AcDbEntity
  8
寸法
 62
     0
 48
50.0
370
    -2
100
AcDbBlockReference
  2
_DOTSMALL
 10
5092.65773398618
 20
7434.513207084727
 30
0.0
 41
100.0
 42
100.0
 43
100.0
 50
90.0
  0
INSERT
  5
27F9C
330
26573
100
AcDbEntity
  8
寸法
 62
     0
 48
50.0
370
    -2
100
AcDbBlockReference
  2
_DOTSMALL
 10
5092.657733986179
 20
5880.513207084732
 30
0.0
 41
100.0
 42
100.0
 43
100.0
 50
270.0
  0
MTEXT
  5
27F9D
330
26573
100
AcDbEntity
  8
寸法
 62
     7
 48
50.0
100
AcDbMText
 10
4992.657733986177
 20
6657.513207084729
 30
0.0
 40
120.0
 41
0.0
 71
     5
 72
     1
  1
\A1;1554
  7
STYLE1
 11
0.0000000000000001
 21
1.0
 31
0.0
 73
     1
 44
1.0
1001
ACAD
1000
MTEXTBEGIN
1070
    73
1070
     1
1070
    44
1040
1.0
1070
    74
1070
     0
1000
MTEXTEND
  0
POINT
  5
27F9E
330
26573
100
AcDbEntity
  8
DEFPOINTS
 62
     0
 48
50.0
100
AcDbPoint
 10
5661.6
 20
7434.513207084727
 30
0.0
  0
POINT
  5
27F9F
330
26573
100
AcDbEntity
  8
DEFPOINTS
 62
     0
 48
50.0
100
AcDbPoint
 10
5661.600000000007
 20
5880.513207084732
 30
0.0
  0
POINT
  5
27FA0
330
26573
100
AcDbEntity
  8
DEFPOINTS
 62
     0
 48
50.0
100
AcDbPoint
 10
5092.657733986179
 20
5880.513207084732
 30
0.0
  0
ENDBLK
  5
2657E
330
26573
100
AcDbEntity
  8
0
 48
50.0
100
AcDbBlockEnd
  0
BLOCK
  5
265AA
330
2659F
100
AcDbEntity
  8
0
 48
50.0
100
AcDbBlockBegin
  2
*D9
 70
     1
 10
0.0
 20
0.0
 30
0.0
  3
*D9
  1

  0
LINE
  5
27F8E
330
2659F
100
AcDbEntity
  8
寸法
 62
     0
 48
50.0
370
    -2
100
AcDbLine
 10
5641.600000000007
 20
5880.513207084732
 30
0.0
 11
5032.657733986178
 21
5880.513207084732
 31
0.0
  0
LINE
  5
27F8F
330
2659F
100
AcDbEntity
  8
寸法
 62
     0
 48
50.0
370
    -2
100
AcDbLine
 10
5568.6
 20
5757.513207084731
 30
0.0
 11
5032.657733986178
 21
5757.513207084731
 31
0.0
  0
LINE
  5
27F90
330
2659F
100
AcDbEntity
  8
寸法
 62
     0
 48
50.0
370
    -2
100
AcDbLine
 10
5092.657733986179
 20
5880.513207084732
 30
0.0
 11
5092.657733986179
 21
5757.513207084731
 31
0.0
  0
LINE
  5
27F91
330
2659F
100
AcDbEntity
  8
寸法
 62
     0
 48
50.0
370
    -2
100
AcDbLine
 10
5092.657733986179
 20
5757.513207084731
 30
0.0
 11
5092.657733986179
 21
5283.496976867897
 31
0.0
  0
INSERT
  5
27F92
330
2659F
100
AcDbEntity
  8
寸法
 62
     0
 48
50.0
370
    -2
100
AcDbBlockReference
  2
_DOTSMALL
 10
5092.657733986179
 20
5880.513207084732
 30
0.0
 41
100.0
 42
100.0
 43
100.0
 50
90.0
  0
INSERT
  5
27F93
330
2659F
100
AcDbEntity
  8
寸法
 62
     0
 48
50.0
370
    -2
100
AcDbBlockReference
  2
_DOTSMALL
 10
5092.657733986179
 20
5757.513207084731
 30
0.0
 41
100.0
 42
100.0
 43
100.0
 50
270.0
  0
MTEXT
  5
27F94
330
2659F
100
AcDbEntity
  8
寸法
 62
     7
 48
50.0
100
AcDbMText
 10
4992.645922962556
 20
5421.982258242136
 30
0.0
 40
120.0
 41
0.0
 71
     5
 72
     1
  1
\A1;123
  7
STYLE1
 11
0.0000000000000001
 21
1.0
 31
0.0
 73
     1
 44
1.0
1001
ACAD
1000
MTEXTBEGIN
1070
    73
1070
     1
1070
    44
1040
1.0
1070
    74
1070
     0
1000
MTEXTEND
  0
POINT
  5
27F95
330
2659F
100
AcDbEntity
  8
DEFPOINTS
 62
     0
 48
50.0
100
AcDbPoint
 10
5661.600000000007
 20
5880.513207084732
 30
0.0
  0
POINT
  5
27F96
330
2659F
100
AcDbEntity
  8
DEFPOINTS
 62
     0
 48
50.0
100
AcDbPoint
 10
5588.6
 20
5757.513207084731
 30
0.0
  0
POINT
  5
27F97
330
2659F
100
AcDbEntity
  8
DEFPOINTS
 62
     0
 48
50.0
100
AcDbPoint
 10
5092.657733986179
 20
5757.513207084731
 30
0.0
  0
ENDBLK
  5
265AB
330
2659F
100
AcDbEntity
  8
0
 48
50.0
100
AcDbBlockEnd
  0
BLOCK
  5
265CE
330
265C5
100
AcDbEntity
  8
0
 48
50.0
100
AcDbBlockBegin
  2
*D10
 70
     1
 10
0.0
 20
0.0
 30
0.0
  3
*D10
  1

  0
LINE
  5
27F85
330
265C5
100
AcDbEntity
  8
寸法
 62
     0
 48
50.0
370
    -2
100
AcDbLine
 10
6041.6
 20
5662.513207084717
 30
0.0
 11
6041.6
 21
5137.668192742538
 31
0.0
  0
LINE
  5
27F86
330
265C5
100
AcDbEntity
  8
寸法
 62
     0
 48
50.0
370
    -2
100
AcDbLine
 10
5588.6
 20
5737.513207084731
 30
0.0
 11
5588.6
 21
5137.668192742538
 31
0.0
  0
LINE
  5
27F87
330
265C5
100
AcDbEntity
  8
寸法
 62
     0
 48
50.0
370
    -2
100
AcDbLine
 10
6041.6
 20
5197.668192742538
 30
0.0
 11
5588.6
 21
5197.668192742538
 31
0.0
  0
INSERT
  5
27F88
330
265C5
100
AcDbEntity
  8
寸法
 62
     0
 48
50.0
370
    -2
100
AcDbBlockReference
  2
_DOTSMALL
 10
6041.6
 20
5197.668192742538
 30
0.0
 41
100.0
 42
100.0
 43
100.0
  0
INSERT
  5
27F89
330
265C5
100
AcDbEntity
  8
寸法
 62
     0
 48
50.0
370
    -2
100
AcDbBlockReference
  2
_DOTSMALL
 10
5588.6
 20
5197.668192742538
 30
0.0
 41
100.0
 42
100.0
 43
100.0
 50
180.0
  0
MTEXT
  5
27F8A
330
265C5
100
AcDbEntity
  8
寸法
 62
     7
 48
50.0
100
AcDbMText
 10
5815.100000000001
 20
5297.668192742538
 30
0.0
 40
120.0
 41
0.0
 71
     5
 72
     1
  1
\A1;453
  7
STYLE1
 73
     1
 44
1.0
1001
ACAD
1000
MTEXTBEGIN
1070
    73
1070
     1
1070
    44
1040
1.0
1070
    74
1070
     0
1000
MTEXTEND
  0
POINT
  5
27F8B
330
265C5
100
AcDbEntity
  8
DEFPOINTS
 62
     0
 48
50.0
100
AcDbPoint
 10
6041.6
 20
5682.513207084717
 30
0.0
  0
POINT
  5
27F8C
330
265C5
100
AcDbEntity
  8
DEFPOINTS
 62
     0
 48
50.0
100
AcDbPoint
 10
5588.6
 20
5757.513207084731
 30
0.0
  0
POINT
  5
27F8D
330
265C5
100
AcDbEntity
  8
DEFPOINTS
 62
     0
 48
50.0
100
AcDbPoint
 10
5588.6
 20
5197.668192742538
 30
0.0
  0
ENDBLK
  5
265CF
330
265C5
100
AcDbEntity
  8
0
 48
50.0
100
AcDbBlockEnd
  0
BLOCK
  5
265E5
330
265DA
100
AcDbEntity
  8
0
 48
50.0
100
AcDbBlockBegin
  2
*D11
 70
     1
 10
0.0
 20
0.0
 30
0.0
  3
*D11
  1

  0
LINE
  5
27F7B
330
265DA
100
AcDbEntity
  8
寸法
 62
     0
 48
50.0
370
    -2
100
AcDbLine
 10
5568.6
 20
7557.513207084729
 30
0.0
 11
5032.657733986178
 21
7557.513207084729
 31
0.0
  0
LINE
  5
27F7C
330
265DA
100
AcDbEntity
  8
寸法
 62
     0
 48
50.0
370
    -2
100
AcDbLine
 10
5641.6
 20
7434.513207084727
 30
0.0
 11
5032.657733986178
 21
7434.513207084727
 31
0.0
  0
LINE
  5
27F7D
330
265DA
100
AcDbEntity
  8
寸法
 62
     0
 48
50.0
370
    -2
100
AcDbLine
 10
5092.657733986179
 20
7434.513207084727
 30
0.0
 11
5092.657733986179
 21
7557.513207084729
 31
0.0
  0
LINE
  5
27F7E
330
265DA
100
AcDbEntity
  8
寸法
 62
     0
 48
50.0
370
    -2
100
AcDbLine
 10
5092.657733986179
 20
7557.513207084729
 30
0.0
 11
5092.657733986179
 21
7969.105090176767
 31
0.0
  0
INSERT
  5
27F7F
330
265DA
100
AcDbEntity
  8
寸法
 62
     0
 48
50.0
370
    -2
100
AcDbBlockReference
  2
_DOTSMALL
 10
5092.657733986179
 20
7434.513207084727
 30
0.0
 41
100.0
 42
100.0
 43
100.0
 50
270.0
  0
INSERT
  5
27F80
330
265DA
100
AcDbEntity
  8
寸法
 62
     0
 48
50.0
370
    -2
100
AcDbBlockReference
  2
_DOTSMALL
 10
5092.657733986179
 20
7557.513207084729
 30
0.0
 41
100.0
 42
100.0
 43
100.0
 50
90.0
  0
MTEXT
  5
27F81
330
265DA
100
AcDbEntity
  8
寸法
 62
     7
 48
50.0
100
AcDbMText
 10
4992.645922962556
 20
7830.619808802528
 30
0.0
 40
120.0
 41
0.0
 71
     5
 72
     1
  1
\A1;123
  7
STYLE1
 11
0.0000000000000001
 21
1.0
 31
0.0
 73
     1
 44
1.0
1001
ACAD
1000
MTEXTBEGIN
1070
    73
1070
     1
1070
    44
1040
1.0
1070
    74
1070
     0
1000
MTEXTEND
  0
POINT
  5
27F82
330
265DA
100
AcDbEntity
  8
DEFPOINTS
 62
     0
 48
50.0
100
AcDbPoint
 10
5588.6
 20
7557.513207084729
 30
0.0
  0
POINT
  5
27F83
330
265DA
100
AcDbEntity
  8
DEFPOINTS
 62
     0
 48
50.0
100
AcDbPoint
 10
5661.6
 20
7434.513207084727
 30
0.0
  0
POINT
  5
27F84
330
265DA
100
AcDbEntity
  8
DEFPOINTS
 62
     0
 48
50.0
100
AcDbPoint
 10
5092.657733986179
 20
7434.513207084727
 30
0.0
  0
ENDBLK
  5
265E6
330
265DA
100
AcDbEntity
  8
0
 48
50.0
100
AcDbBlockEnd
  0
BLOCK
  5
265FE
330
265F4
100
AcDbEntity
  8
0
 48
50.0
100
AcDbBlockBegin
  2
*D12
 70
     1
 10
0.0
 20
0.0
 30
0.0
  3
*D12
  1

  0
LINE
  5
27F72
330
265F4
100
AcDbEntity
  8
寸法
 62
     0
 48
50.0
370
    -2
100
AcDbLine
 10
7323.6
 20
6877.513207084728
 30
0.0
 11
7323.6
 21
8144.422972733057
 31
0.0
  0
LINE
  5
27F73
330
265F4
100
AcDbEntity
  8
寸法
 62
     0
 48
50.0
370
    -2
100
AcDbLine
 10
6493.6
 20
6877.513207084728
 30
0.0
 11
6493.6
 21
8144.422972733057
 31
0.0
  0
LINE
  5
27F74
330
265F4
100
AcDbEntity
  8
寸法
 62
     0
 48
50.0
370
    -2
100
AcDbLine
 10
7323.6
 20
8084.422972733056
 30
0.0
 11
6493.6
 21
8084.422972733056
 31
0.0
  0
INSERT
  5
27F75
330
265F4
100
AcDbEntity
  8
寸法
 62
     0
 48
50.0
370
    -2
100
AcDbBlockReference
  2
_DOTSMALL
 10
7323.6
 20
8084.422972733056
 30
0.0
 41
100.0
 42
100.0
 43
100.0
  0
INSERT
  5
27F76
330
265F4
100
AcDbEntity
  8
寸法
 62
     0
 48
50.0
370
    -2
100
AcDbBlockReference
  2
_DOTSMALL
 10
6493.6
 20
8084.422972733056
 30
0.0
 41
100.0
 42
100.0
 43
100.0
 50
180.0
  0
MTEXT
  5
27F77
330
265F4
100
AcDbEntity
  8
寸法
 62
     7
 48
50.0
100
AcDbMText
 10
6908.599999999999
 20
8184.422972733056
 30
0.0
 40
120.0
 41
0.0
 71
     5
 72
     1
  1
\A1;830
  7
STYLE1
 73
     1
 44
1.0
1001
ACAD
1000
MTEXTBEGIN
1070
    73
1070
     1
1070
    44
1040
1.0
1070
    74
1070
     0
1000
MTEXTEND
  0
POINT
  5
27F78
330
265F4
100
AcDbEntity
  8
DEFPOINTS
 62
     0
 48
50.0
100
AcDbPoint
 10
7323.6
 20
6857.513207084728
 30
0.0
  0
POINT
  5
27F79
330
265F4
100
AcDbEntity
  8
DEFPOINTS
 62
     0
 48
50.0
100
AcDbPoint
 10
6493.6
 20
6857.513207084728
 30
0.0
  0
POINT
  5
27F7A
330
265F4
100
AcDbEntity
  8
DEFPOINTS
 62
     0
 48
50.0
100
AcDbPoint
 10
6493.6
 20
8084.422972733056
 30
0.0
  0
ENDBLK
  5
265FF
330
265F4
100
AcDbEntity
  8
0
 48
50.0
100
AcDbBlockEnd
  0
BLOCK
  5
2660A
330
26600
100
AcDbEntity
  8
0
 48
50.0
100
AcDbBlockBegin
  2
*D13
 70
     1
 10
0.0
 20
0.0
 30
0.0
  3
*D13
  1

  0
LINE
  5
27F69
330
26600
100
AcDbEntity
  8
寸法
 62
     0
 48
50.0
370
    -2
100
AcDbLine
 10
8105.6
 20
7504.513207084727
 30
0.0
 11
8105.6
 21
8363.272833626812
 31
0.0
  0
LINE
  5
27F6A
330
26600
100
AcDbEntity
  8
寸法
 62
     0
 48
50.0
370
    -2
100
AcDbLine
 10
5711.6
 20
7504.513207084727
 30
0.0
 11
5711.6
 21
8363.272833626812
 31
0.0
  0
LINE
  5
27F6B
330
26600
100
AcDbEntity
  8
寸法
 62
     0
 48
50.0
370
    -2
100
AcDbLine
 10
8105.6
 20
8303.272833626811
 30
0.0
 11
5711.6
 21
8303.272833626811
 31
0.0
  0
INSERT
  5
27F6C
330
26600
100
AcDbEntity
  8
寸法
 62
     0
 48
50.0
370
    -2
100
AcDbBlockReference
  2
_DOTSMALL
 10
8105.6
 20
8303.272833626811
 30
0.0
 41
100.0
 42
100.0
 43
100.0
  0
INSERT
  5
27F6D
330
26600
100
AcDbEntity
  8
寸法
 62
     0
 48
50.0
370
    -2
100
AcDbBlockReference
  2
_DOTSMALL
 10
5711.6
 20
8303.272833626811
 30
0.0
 41
100.0
 42
100.0
 43
100.0
 50
180.0
  0
MTEXT
  5
27F6E
330
26600
100
AcDbEntity
  8
寸法
 62
     7
 48
50.0
100
AcDbMText
 10
6908.599999999999
 20
8403.284644650433
 30
0.0
 40
120.0
 41
0.0
 71
     5
 72
     1
  1
\A1;2394
  7
STYLE1
 73
     1
 44
1.0
1001
ACAD
1000
MTEXTBEGIN
1070
    73
1070
     1
1070
    44
1040
1.0
1070
    74
1070
     0
1000
MTEXTEND
  0
POINT
  5
27F6F
330
26600
100
AcDbEntity
  8
DEFPOINTS
 62
     0
 48
50.0
100
AcDbPoint
 10
8105.6
 20
7484.513207084727
 30
0.0
  0
POINT
  5
27F70
330
26600
100
AcDbEntity
  8
DEFPOINTS
 62
     0
 48
50.0
100
AcDbPoint
 10
5711.6
 20
7484.513207084727
 30
0.0
  0
POINT
  5
27F71
330
26600
100
AcDbEntity
  8
DEFPOINTS
 62
     0
 48
50.0
100
AcDbPoint
 10
5711.6
 20
8303.272833626811
 30
0.0
  0
ENDBLK
  5
2660B
330
26600
100
AcDbEntity
  8
0
 48
50.0
100
AcDbBlockEnd
  0
BLOCK
  5
26617
330
2660C
100
AcDbEntity
  8
0
 48
50.0
100
AcDbBlockBegin
  2
*D14
 70
     1
 10
0.0
 20
0.0
 30
0.0
  3
*D14
  1

  0
LINE
  5
27F5F
330
2660C
100
AcDbEntity
  8
寸法
 62
     0
 48
50.0
370
    -2
100
AcDbLine
 10
5838.6
 20
7437.513207084724
 30
0.0
 11
6095.307249876099
 21
7437.513207084724
 31
0.0
  0
LINE
  5
27F60
330
2660C
100
AcDbEntity
  8
寸法
 62
     0
 48
50.0
370
    -2
100
AcDbLine
 10
5838.600000000003
 20
7557.513207084728
 30
0.0
 11
6095.307249876099
 21
7557.513207084728
 31
0.0
  0
LINE
  5
27F61
330
2660C
100
AcDbEntity
  8
寸法
 62
     0
 48
50.0
370
    -2
100
AcDbLine
 10
6035.307249876098
 20
7437.513207084724
 30
0.0
 11
6035.307249876098
 21
7557.513207084728
 31
0.0
  0
LINE
  5
27F62
330
2660C
100
AcDbEntity
  8
寸法
 62
     0
 48
50.0
370
    -2
100
AcDbLine
 10
6035.307249876098
 20
7557.513207084728
 30
0.0
 11
6035.307249876098
 21
7971.643994452101
 31
0.0
  0
INSERT
  5
27F63
330
2660C
100
AcDbEntity
  8
寸法
 62
     0
 48
50.0
370
    -2
100
AcDbBlockReference
  2
_DOTSMALL
 10
6035.307249876098
 20
7437.513207084724
 30
0.0
 41
100.0
 42
100.0
 43
100.0
 50
270.0
  0
INSERT
  5
27F64
330
2660C
100
AcDbEntity
  8
寸法
 62
     0
 48
50.0
370
    -2
100
AcDbBlockReference
  2
_DOTSMALL
 10
6035.307249876098
 20
7557.513207084728
 30
0.0
 41
100.0
 42
100.0
 43
100.0
 50
90.0
  0
MTEXT
  5
27F65
330
2660C
100
AcDbEntity
  8
寸法
 62
     7
 48
50.0
100
AcDbMText
 10
5935.295438852476
 20
7835.596750357614
 30
0.0
 40
120.0
 41
0.0
 71
     5
 72
     1
  1
\A1;120
  7
STYLE1
 11
0.0000000000000001
 21
1.0
 31
0.0
 73
     1
 44
1.0
1001
ACAD
1000
MTEXTBEGIN
1070
    73
1070
     1
1070
    44
1040
1.0
1070
    74
1070
     0
1000
MTEXTEND
  0
POINT
  5
27F66
330
2660C
100
AcDbEntity
  8
DEFPOINTS
 62
     0
 48
50.0
100
AcDbPoint
 10
5818.6
 20
7437.513207084724
 30
0.0
  0
POINT
  5
27F67
330
2660C
100
AcDbEntity
  8
DEFPOINTS
 62
     0
 48
50.0
100
AcDbPoint
 10
5818.600000000002
 20
7557.513207084728
 30
0.0
  0
POINT
  5
27F68
330
2660C
100
AcDbEntity
  8
DEFPOINTS
 62
     0
 48
50.0
100
AcDbPoint
 10
6035.307249876098
 20
7557.513207084728
 30
0.0
  0
ENDBLK
  5
26618
330
2660C
100
AcDbEntity
  8
0
 48
50.0
100
AcDbBlockEnd
  0
BLOCK
  5
26622
330
26619
100
AcDbEntity
  8
0
 48
50.0
100
AcDbBlockBegin
  2
*D15
 70
     1
 10
0.0
 20
0.0
 30
0.0
  3
*D15
  1

  0
LINE
  5
27F56
330
26619
100
AcDbEntity
  8
寸法
 62
     0
 48
50.0
370
    -2
100
AcDbLine
 10
6493.6
 20
6877.513207084728
 30
0.0
 11
6493.6
 21
8144.422972733057
 31
0.0
  0
LINE
  5
27F57
330
26619
100
AcDbEntity
  8
寸法
 62
     0
 48
50.0
370
    -2
100
AcDbLine
 10
5588.6
 20
7577.513207084729
 30
0.0
 11
5588.6
 21
8144.422972733057
 31
0.0
  0
LINE
  5
27F58
330
26619
100
AcDbEntity
  8
寸法
 62
     0
 48
50.0
370
    -2
100
AcDbLine
 10
6493.6
 20
8084.422972733056
 30
0.0
 11
5588.6
 21
8084.422972733056
 31
0.0
  0
INSERT
  5
27F59
330
26619
100
AcDbEntity
  8
寸法
 62
     0
 48
50.0
370
    -2
100
AcDbBlockReference
  2
_DOTSMALL
 10
6493.6
 20
8084.422972733056
 30
0.0
 41
100.0
 42
100.0
 43
100.0
  0
INSERT
  5
27F5A
330
26619
100
AcDbEntity
  8
寸法
 62
     0
 48
50.0
370
    -2
100
AcDbBlockReference
  2
_DOTSMALL
 10
5588.6
 20
8084.422972733056
 30
0.0
 41
100.0
 42
100.0
 43
100.0
 50
180.0
  0
MTEXT
  5
27F5B
330
26619
100
AcDbEntity
  8
寸法
 62
     7
 48
50.0
100
AcDbMText
 10
6041.1
 20
8184.422972733056
 30
0.0
 40
120.0
 41
0.0
 71
     5
 72
     1
  1
\A1;905
  7
STYLE1
 73
     1
 44
1.0
1001
ACAD
1000
MTEXTBEGIN
1070
    73
1070
     1
1070
    44
1040
1.0
1070
    74
1070
     0
1000
MTEXTEND
  0
POINT
  5
27F5C
330
26619
100
AcDbEntity
  8
DEFPOINTS
 62
     0
 48
50.0
100
AcDbPoint
 10
6493.6
 20
6857.513207084728
 30
0.0
  0
POINT
  5
27F5D
330
26619
100
AcDbEntity
  8
DEFPOINTS
 62
     0
 48
50.0
100
AcDbPoint
 10
5588.6
 20
7557.513207084729
 30
0.0
  0
POINT
  5
27F5E
330
26619
100
AcDbEntity
  8
DEFPOINTS
 62
     0
 48
50.0
100
AcDbPoint
 10
5588.6
 20
8084.422972733056
 30
0.0
  0
ENDBLK
  5
26623
330
26619
100
AcDbEntity
  8
0
 48
50.0
100
AcDbBlockEnd
  0
BLOCK
  5
2662F
330
26624
100
AcDbEntity
  8
0
 48
50.0
100
AcDbBlockBegin
  2
*D16
 70
     1
 10
0.0
 20
0.0
 30
0.0
  3
*D16
  1

  0
LINE
  5
27F4C
330
26624
100
AcDbEntity
  8
寸法
 62
     0
 48
50.0
370
    -2
100
AcDbLine
 10
5838.6
 20
7437.513207084727
 30
0.0
 11
6095.3072498761
 21
7437.513207084727
 31
0.0
  0
LINE
  5
27F4D
330
26624
100
AcDbEntity
  8
寸法
 62
     0
 48
50.0
370
    -2
100
AcDbLine
 10
5838.6
 20
7327.513207084726
 30
0.0
 11
6095.3072498761
 21
7327.513207084726
 31
0.0
  0
LINE
  5
27F4E
330
26624
100
AcDbEntity
  8
寸法
 62
     0
 48
50.0
370
    -2
100
AcDbLine
 10
6035.307249876099
 20
7437.513207084727
 30
0.0
 11
6035.307249876099
 21
7327.513207084726
 31
0.0
  0
LINE
  5
27F4F
330
26624
100
AcDbEntity
  8
寸法
 62
     0
 48
50.0
370
    -2
100
AcDbLine
 10
6035.307249876099
 20
7327.513207084726
 30
0.0
 11
6035.307249876099
 21
6863.406907872127
 31
0.0
  0
INSERT
  5
27F50
330
26624
100
AcDbEntity
  8
寸法
 62
     0
 48
50.0
370
    -2
100
AcDbBlockReference
  2
_DOTSMALL
 10
6035.307249876099
 20
7437.513207084727
 30
0.0
 41
100.0
 42
100.0
 43
100.0
 50
90.0
  0
INSERT
  5
27F51
330
26624
100
AcDbEntity
  8
寸法
 62
     0
 48
50.0
370
    -2
100
AcDbBlockReference
  2
_DOTSMALL
 10
6035.307249876099
 20
7327.513207084726
 30
0.0
 41
100.0
 42
100.0
 43
100.0
 50
270.0
  0
MTEXT
  5
27F52
330
26624
100
AcDbEntity
  8
寸法
 62
     7
 48
50.0
100
AcDbMText
 10
5935.307249876098
 20
6987.454151966615
 30
0.0
 40
120.0
 41
0.0
 71
     5
 72
     1
  1
\A1;110
  7
STYLE1
 11
0.0000000000000001
 21
1.0
 31
0.0
 73
     1
 44
1.0
1001
ACAD
1000
MTEXTBEGIN
1070
    73
1070
     1
1070
    44
1040
1.0
1070
    74
1070
     0
1000
MTEXTEND
  0
POINT
  5
27F53
330
26624
100
AcDbEntity
  8
DEFPOINTS
 62
     0
 48
50.0
100
AcDbPoint
 10
5818.6
 20
7437.513207084727
 30
0.0
  0
POINT
  5
27F54
330
26624
100
AcDbEntity
  8
DEFPOINTS
 62
     0
 48
50.0
100
AcDbPoint
 10
5818.6
 20
7327.513207084726
 30
0.0
  0
POINT
  5
27F55
330
26624
100
AcDbEntity
  8
DEFPOINTS
 62
     0
 48
50.0
100
AcDbPoint
 10
6035.307249876099
 20
7327.513207084726
 30
0.0
  0
ENDBLK
  5
26630
330
26624
100
AcDbEntity
  8
0
 48
50.0
100
AcDbBlockEnd
  0
BLOCK
  5
2663C
330
26631
100
AcDbEntity
  8
0
 48
50.0
100
AcDbBlockBegin
  2
*D17
 70
     1
 10
0.0
 20
0.0
 30
0.0
  3
*D17
  1

  0
LINE
  5
27F42
330
26631
100
AcDbEntity
  8
寸法
 62
     0
 48
50.0
370
    -2
100
AcDbLine
 10
5711.6
 20
7504.513207084727
 30
0.0
 11
5711.6
 21
8363.272833626812
 31
0.0
  0
LINE
  5
27F43
330
26631
100
AcDbEntity
  8
寸法
 62
     0
 48
50.0
370
    -2
100
AcDbLine
 10
5588.6
 20
7577.513207084729
 30
0.0
 11
5588.6
 21
8363.272833626812
 31
0.0
  0
LINE
  5
27F44
330
26631
100
AcDbEntity
  8
寸法
 62
     0
 48
50.0
370
    -2
100
AcDbLine
 10
5711.6
 20
8303.272833626811
 30
0.0
 11
5588.6
 21
8303.272833626811
 31
0.0
  0
LINE
  5
27F45
330
26631
100
AcDbEntity
  8
寸法
 62
     0
 48
50.0
370
    -2
100
AcDbLine
 10
5588.6
 20
8303.272833626811
 30
0.0
 11
5177.008116907963
 21
8303.272833626811
 31
0.0
  0
INSERT
  5
27F46
330
26631
100
AcDbEntity
  8
寸法
 62
     0
 48
50.0
370
    -2
100
AcDbBlockReference
  2
_DOTSMALL
 10
5711.6
 20
8303.272833626811
 30
0.0
 41
100.0
 42
100.0
 43
100.0
  0
INSERT
  5
27F47
330
26631
100
AcDbEntity
  8
寸法
 62
     0
 48
50.0
370
    -2
100
AcDbBlockReference
  2
_DOTSMALL
 10
5588.6
 20
8303.272833626811
 30
0.0
 41
100.0
 42
100.0
 43
100.0
 50
180.0
  0
MTEXT
  5
27F48
330
26631
100
AcDbEntity
  8
寸法
 62
     7
 48
50.0
100
AcDbMText
 10
5315.493398282202
 20
8403.284644650433
 30
0.0
 40
120.0
 41
0.0
 71
     5
 72
     1
  1
\A1;123
  7
STYLE1
 73
     1
 44
1.0
1001
ACAD
1000
MTEXTBEGIN
1070
    73
1070
     1
1070
    44
1040
1.0
1070
    74
1070
     0
1000
MTEXTEND
  0
POINT
  5
27F49
330
26631
100
AcDbEntity
  8
DEFPOINTS
 62
     0
 48
50.0
100
AcDbPoint
 10
5711.6
 20
7484.513207084727
 30
0.0
  0
POINT
  5
27F4A
330
26631
100
AcDbEntity
  8
DEFPOINTS
 62
     0
 48
50.0
100
AcDbPoint
 10
5588.6
 20
7557.513207084729
 30
0.0
  0
POINT
  5
27F4B
330
26631
100
AcDbEntity
  8
DEFPOINTS
 62
     0
 48
50.0
100
AcDbPoint
 10
5588.6
 20
8303.272833626811
 30
0.0
  0
ENDBLK
  5
2663D
330
26631
100
AcDbEntity
  8
0
 48
50.0
100
AcDbBlockEnd
  0
BLOCK
  5
26647
330
2663E
100
AcDbEntity
  8
0
 48
50.0
100
AcDbBlockBegin
  2
*D18
 70
     1
 10
0.0
 20
0.0
 30
0.0
  3
*D18
  1

  0
LINE
  5
27F39
330
2663E
100
AcDbEntity
  8
寸法
 62
     0
 48
50.0
370
    -2
100
AcDbLine
 10
8223.600000000001
 20
6777.513207084729
 30
0.0
 11
8223.600000000001
 21
8144.422972733057
 31
0.0
  0
LINE
  5
27F3A
330
2663E
100
AcDbEntity
  8
寸法
 62
     0
 48
50.0
370
    -2
100
AcDbLine
 10
7323.6
 20
6877.513207084728
 30
0.0
 11
7323.6
 21
8144.422972733057
 31
0.0
  0
LINE
  5
27F3B
330
2663E
100
AcDbEntity
  8
寸法
 62
     0
 48
50.0
370
    -2
100
AcDbLine
 10
8223.600000000001
 20
8084.422972733056
 30
0.0
 11
7323.6
 21
8084.422972733056
 31
0.0
  0
INSERT
  5
27F3C
330
2663E
100
AcDbEntity
  8
寸法
 62
     0
 48
50.0
370
    -2
100
AcDbBlockReference
  2
_DOTSMALL
 10
8223.600000000001
 20
8084.422972733056
 30
0.0
 41
100.0
 42
100.0
 43
100.0
  0
INSERT
  5
27F3D
330
2663E
100
AcDbEntity
  8
寸法
 62
     0
 48
50.0
370
    -2
100
AcDbBlockReference
  2
_DOTSMALL
 10
7323.6
 20
8084.422972733056
 30
0.0
 41
100.0
 42
100.0
 43
100.0
 50
180.0
  0
MTEXT
  5
27F3E
330
2663E
100
AcDbEntity
  8
寸法
 62
     7
 48
50.0
100
AcDbMText
 10
7773.6
 20
8184.422972733056
 30
0.0
 40
120.0
 41
0.0
 71
     5
 72
     1
  1
\A1;900
  7
STYLE1
 73
     1
 44
1.0
1001
ACAD
1000
MTEXTBEGIN
1070
    73
1070
     1
1070
    44
1040
1.0
1070
    74
1070
     0
1000
MTEXTEND
  0
POINT
  5
27F3F
330
2663E
100
AcDbEntity
  8
DEFPOINTS
 62
     0
 48
50.0
100
AcDbPoint
 10
8223.600000000001
 20
6757.513207084729
 30
0.0
  0
POINT
  5
27F40
330
2663E
100
AcDbEntity
  8
DEFPOINTS
 62
     0
 48
50.0
100
AcDbPoint
 10
7323.6
 20
6857.513207084728
 30
0.0
  0
POINT
  5
27F41
330
2663E
100
AcDbEntity
  8
DEFPOINTS
 62
     0
 48
50.0
100
AcDbPoint
 10
7323.6
 20
8084.422972733056
 30
0.0
  0
ENDBLK
  5
26648
330
2663E
100
AcDbEntity
  8
0
 48
50.0
100
AcDbBlockEnd
  0
BLOCK
  5
26653
330
26649
100
AcDbEntity
  8
0
 48
50.0
100
AcDbBlockBegin
  2
*D19
 70
     1
 10
0.0
 20
0.0
 30
0.0
  3
*D19
  1

  0
LINE
  5
27F30
330
26649
100
AcDbEntity
  8
寸法
 62
     0
 48
50.0
370
    -2
100
AcDbLine
 10
9552.10000000002
 20
5757.513207084738
 30
0.0
 11
9648.531448609052
 21
5757.513207084738
 31
0.0
  0
LINE
  5
27F31
330
26649
100
AcDbEntity
  8
寸法
 62
     0
 48
50.0
370
    -2
100
AcDbLine
 10
9833.600000000002
 20
6657.513207084729
 30
0.0
 11
9528.531448609053
 21
6657.513207084729
 31
0.0
  0
LINE
  5
27F32
330
26649
100
AcDbEntity
  8
寸法
 62
     0
 48
50.0
370
    -2
100
AcDbLine
 10
9588.531448609051
 20
5757.513207084738
 30
0.0
 11
9588.531448609051
 21
6657.513207084729
 31
0.0
  0
INSERT
  5
27F33
330
26649
100
AcDbEntity
  8
寸法
 62
     0
 48
50.0
370
    -2
100
AcDbBlockReference
  2
_DOTSMALL
 10
9588.531448609051
 20
5757.513207084738
 30
0.0
 41
100.0
 42
100.0
 43
100.0
 50
270.0
  0
INSERT
  5
27F34
330
26649
100
AcDbEntity
  8
寸法
 62
     0
 48
50.0
370
    -2
100
AcDbBlockReference
  2
_DOTSMALL
 10
9588.531448609051
 20
6657.513207084729
 30
0.0
 41
100.0
 42
100.0
 43
100.0
 50
90.0
  0
MTEXT
  5
27F35
330
26649
100
AcDbEntity
  8
寸法
 62
     7
 48
50.0
100
AcDbMText
 10
9488.53144860905
 20
6207.513207084735
 30
0.0
 40
120.0
 41
0.0
 71
     5
 72
     1
  1
\A1;900
  7
STYLE1
 11
0.0000000000000001
 21
1.0
 31
0.0
 73
     1
 44
1.0
1001
ACAD
1000
MTEXTBEGIN
1070
    73
1070
     1
1070
    44
1040
1.0
1070
    74
1070
     0
1000
MTEXTEND
  0
POINT
  5
27F36
330
26649
100
AcDbEntity
  8
DEFPOINTS
 62
     0
 48
50.0
100
AcDbPoint
 10
9532.100000000021
 20
5757.513207084738
 30
0.0
  0
POINT
  5
27F37
330
26649
100
AcDbEntity
  8
DEFPOINTS
 62
     0
 48
50.0
100
AcDbPoint
 10
9853.6
 20
6657.513207084729
 30
0.0
  0
POINT
  5
27F38
330
26649
100
AcDbEntity
  8
DEFPOINTS
 62
     0
 48
50.0
100
AcDbPoint
 10
9588.531448609051
 20
6657.513207084729
 30
0.0
  0
ENDBLK
  5
26654
330
26649
100
AcDbEntity
  8
0
 48
50.0
100
AcDbBlockEnd
  0
BLOCK
  5
26685
330
2667B
100
AcDbEntity
  8
0
 48
50.0
100
AcDbBlockBegin
  2
*D20
 70
     1
 10
0.0
 20
0.0
 30
0.0
  3
*D20
  1

  0
LINE
  5
27F27
330
2667B
100
AcDbEntity
  8
寸法
 62
     0
 48
50.0
370
    -2
100
AcDbLine
 10
10858.6
 20
7577.513207084729
 30
0.0
 11
10858.6
 21
8144.422972733057
 31
0.0
  0
LINE
  5
27F28
330
2667B
100
AcDbEntity
  8
寸法
 62
     0
 48
50.0
370
    -2
100
AcDbLine
 10
9953.600000000001
 20
6877.513207084728
 30
0.0
 11
9953.600000000001
 21
8144.422972733057
 31
0.0
  0
LINE
  5
27F29
330
2667B
100
AcDbEntity
  8
寸法
 62
     0
 48
50.0
370
    -2
100
AcDbLine
 10
10858.6
 20
8084.422972733056
 30
0.0
 11
9953.600000000001
 21
8084.422972733056
 31
0.0
  0
INSERT
  5
27F2A
330
2667B
100
AcDbEntity
  8
寸法
 62
     0
 48
50.0
370
    -2
100
AcDbBlockReference
  2
_DOTSMALL
 10
10858.6
 20
8084.422972733056
 30
0.0
 41
100.0
 42
100.0
 43
100.0
  0
INSERT
  5
27F2B
330
2667B
100
AcDbEntity
  8
寸法
 62
     0
 48
50.0
370
    -2
100
AcDbBlockReference
  2
_DOTSMALL
 10
9953.600000000001
 20
8084.422972733056
 30
0.0
 41
100.0
 42
100.0
 43
100.0
 50
180.0
  0
MTEXT
  5
27F2C
330
2667B
100
AcDbEntity
  8
寸法
 62
     7
 48
50.0
100
AcDbMText
 10
10406.1
 20
8184.422972733056
 30
0.0
 40
120.0
 41
0.0
 71
     5
 72
     1
  1
\A1;905
  7
STYLE1
 73
     1
 44
1.0
1001
ACAD
1000
MTEXTBEGIN
1070
    73
1070
     1
1070
    44
1040
1.0
1070
    74
1070
     0
1000
MTEXTEND
  0
POINT
  5
27F2D
330
2667B
100
AcDbEntity
  8
DEFPOINTS
 62
     0
 48
50.0
100
AcDbPoint
 10
10858.6
 20
7557.513207084729
 30
0.0
  0
POINT
  5
27F2E
330
2667B
100
AcDbEntity
  8
DEFPOINTS
 62
     0
 48
50.0
100
AcDbPoint
 10
9953.600000000001
 20
6857.513207084728
 30
0.0
  0
POINT
  5
27F2F
330
2667B
100
AcDbEntity
  8
DEFPOINTS
 62
     0
 48
50.0
100
AcDbPoint
 10
9953.600000000001
 20
8084.422972733056
 30
0.0
  0
ENDBLK
  5
26686
330
2667B
100
AcDbEntity
  8
0
 48
50.0
100
AcDbBlockEnd
  0
BLOCK
  5
26690
330
26687
100
AcDbEntity
  8
0
 48
50.0
100
AcDbBlockBegin
  2
*D21
 70
     1
 10
0.0
 20
0.0
 30
0.0
  3
*D21
  1

  0
LINE
  5
27F1E
330
26687
100
AcDbEntity
  8
寸法
 62
     0
 48
50.0
370
    -2
100
AcDbLine
 10
9833.600000000002
 20
6657.513207084729
 30
0.0
 11
9528.531448609053
 21
6657.513207084729
 31
0.0
  0
LINE
  5
27F1F
330
26687
100
AcDbEntity
  8
寸法
 62
     0
 48
50.0
370
    -2
100
AcDbLine
 10
9552.099999999997
 20
7557.513207084729
 30
0.0
 11
9648.531448609052
 21
7557.513207084729
 31
0.0
  0
LINE
  5
27F20
330
26687
100
AcDbEntity
  8
寸法
 62
     0
 48
50.0
370
    -2
100
AcDbLine
 10
9588.531448609051
 20
6657.513207084729
 30
0.0
 11
9588.531448609051
 21
7557.513207084729
 31
0.0
  0
INSERT
  5
27F21
330
26687
100
AcDbEntity
  8
寸法
 62
     0
 48
50.0
370
    -2
100
AcDbBlockReference
  2
_DOTSMALL
 10
9588.531448609051
 20
6657.513207084729
 30
0.0
 41
100.0
 42
100.0
 43
100.0
 50
270.0
  0
INSERT
  5
27F22
330
26687
100
AcDbEntity
  8
寸法
 62
     0
 48
50.0
370
    -2
100
AcDbBlockReference
  2
_DOTSMALL
 10
9588.531448609051
 20
7557.513207084729
 30
0.0
 41
100.0
 42
100.0
 43
100.0
 50
90.0
  0
MTEXT
  5
27F23
330
26687
100
AcDbEntity
  8
寸法
 62
     7
 48
50.0
100
AcDbMText
 10
9488.53144860905
 20
7107.51320708473
 30
0.0
 40
120.0
 41
0.0
 71
     5
 72
     1
  1
\A1;900
  7
STYLE1
 11
0.0000000000000001
 21
1.0
 31
0.0
 73
     1
 44
1.0
1001
ACAD
1000
MTEXTBEGIN
1070
    73
1070
     1
1070
    44
1040
1.0
1070
    74
1070
     0
1000
MTEXTEND
  0
POINT
  5
27F24
330
26687
100
AcDbEntity
  8
DEFPOINTS
 62
     0
 48
50.0
100
AcDbPoint
 10
9853.6
 20
6657.513207084729
 30
0.0
  0
POINT
  5
27F25
330
26687
100
AcDbEntity
  8
DEFPOINTS
 62
     0
 48
50.0
100
AcDbPoint
 10
9532.099999999998
 20
7557.513207084729
 30
0.0
  0
POINT
  5
27F26
330
26687
100
AcDbEntity
  8
DEFPOINTS
 62
     0
 48
50.0
100
AcDbPoint
 10
9588.531448609051
 20
7557.513207084729
 30
0.0
  0
ENDBLK
  5
26691
330
26687
100
AcDbEntity
  8
0
 48
50.0
100
AcDbBlockEnd
  0
BLOCK
  5
2669C
330
26692
100
AcDbEntity
  8
0
 48
50.0
100
AcDbBlockBegin
  2
*D22
 70
     1
 10
0.0
 20
0.0
 30
0.0
  3
*D22
  1

  0
LINE
  5
27F15
330
26692
100
AcDbEntity
  8
寸法
 62
     0
 48
50.0
370
    -2
100
AcDbLine
 10
9953.600000000001
 20
6877.513207084728
 30
0.0
 11
9953.600000000001
 21
8144.422972733057
 31
0.0
  0
LINE
  5
27F16
330
26692
100
AcDbEntity
  8
寸法
 62
     0
 48
50.0
370
    -2
100
AcDbLine
 10
9123.600000000001
 20
6877.513207084728
 30
0.0
 11
9123.600000000001
 21
8144.422972733057
 31
0.0
  0
LINE
  5
27F17
330
26692
100
AcDbEntity
  8
寸法
 62
     0
 48
50.0
370
    -2
100
AcDbLine
 10
9953.600000000001
 20
8084.422972733056
 30
0.0
 11
9123.600000000001
 21
8084.422972733056
 31
0.0
  0
INSERT
  5
27F18
330
26692
100
AcDbEntity
  8
寸法
 62
     0
 48
50.0
370
    -2
100
AcDbBlockReference
  2
_DOTSMALL
 10
9953.600000000001
 20
8084.422972733056
 30
0.0
 41
100.0
 42
100.0
 43
100.0
  0
INSERT
  5
27F19
330
26692
100
AcDbEntity
  8
寸法
 62
     0
 48
50.0
370
    -2
100
AcDbBlockReference
  2
_DOTSMALL
 10
9123.600000000001
 20
8084.422972733056
 30
0.0
 41
100.0
 42
100.0
 43
100.0
 50
180.0
  0
MTEXT
  5
27F1A
330
26692
100
AcDbEntity
  8
寸法
 62
     7
 48
50.0
100
AcDbMText
 10
9538.6
 20
8184.422972733056
 30
0.0
 40
120.0
 41
0.0
 71
     5
 72
     1
  1
\A1;830
  7
STYLE1
 73
     1
 44
1.0
1001
ACAD
1000
MTEXTBEGIN
1070
    73
1070
     1
1070
    44
1040
1.0
1070
    74
1070
     0
1000
MTEXTEND
  0
POINT
  5
27F1B
330
26692
100
AcDbEntity
  8
DEFPOINTS
 62
     0
 48
50.0
100
AcDbPoint
 10
9953.600000000001
 20
6857.513207084728
 30
0.0
  0
POINT
  5
27F1C
330
26692
100
AcDbEntity
  8
DEFPOINTS
 62
     0
 48
50.0
100
AcDbPoint
 10
9123.600000000001
 20
6857.513207084728
 30
0.0
  0
POINT
  5
27F1D
330
26692
100
AcDbEntity
  8
DEFPOINTS
 62
     0
 48
50.0
100
AcDbPoint
 10
9123.600000000001
 20
8084.422972733056
 30
0.0
  0
ENDBLK
  5
2669D
330
26692
100
AcDbEntity
  8
0
 48
50.0
100
AcDbBlockEnd
  0
BLOCK
  5
266A9
330
2669E
100
AcDbEntity
  8
0
 48
50.0
100
AcDbBlockBegin
  2
*D23
 70
     1
 10
0.0
 20
0.0
 30
0.0
  3
*D23
  1

  0
LINE
  5
27F0B
330
2669E
100
AcDbEntity
  8
寸法
 62
     0
 48
50.0
370
    -2
100
AcDbLine
 10
10858.6
 20
7096.797803623186
 30
0.0
 11
10858.6
 21
7039.804539584356
 31
0.0
  0
LINE
  5
27F0C
330
2669E
100
AcDbEntity
  8
寸法
 62
     0
 48
50.0
370
    -2
100
AcDbLine
 10
10738.6
 20
7139.835658650984
 30
0.0
 11
10738.6
 21
7039.804539584356
 31
0.0
  0
LINE
  5
27F0D
330
2669E
100
AcDbEntity
  8
寸法
 62
     0
 48
50.0
370
    -2
100
AcDbLine
 10
10738.6
 20
7099.804539584354
 30
0.0
 11
10858.6
 21
7099.804539584354
 31
0.0
  0
LINE
  5
27F0E
330
2669E
100
AcDbEntity
  8
寸法
 62
     0
 48
50.0
370
    -2
100
AcDbLine
 10
10858.6
 20
7099.804539584354
 30
0.0
 11
11264.7062992126
 21
7099.804539584354
 31
0.0
  0
INSERT
  5
27F0F
330
2669E
100
AcDbEntity
  8
寸法
 62
     0
 48
50.0
370
    -2
100
AcDbBlockReference
  2
_DOTSMALL
 10
10738.6
 20
7099.804539584354
 30
0.0
 41
100.0
 42
100.0
 43
100.0
 50
180.0
  0
INSERT
  5
27F10
330
2669E
100
AcDbEntity
  8
寸法
 62
     0
 48
50.0
370
    -2
100
AcDbBlockReference
  2
_DOTSMALL
 10
10858.6
 20
7099.804539584354
 30
0.0
 41
100.0
 42
100.0
 43
100.0
  0
MTEXT
  5
27F11
330
2669E
100
AcDbEntity
  8
寸法
 62
     7
 48
50.0
100
AcDbMText
 10
11128.65905511811
 20
7199.816350607976
 30
0.0
 40
120.0
 41
0.0
 71
     5
 72
     1
  1
\A1;120
  7
STYLE1
 73
     1
 44
1.0
1001
ACAD
1000
MTEXTBEGIN
1070
    73
1070
     1
1070
    44
1040
1.0
1070
    74
1070
     0
1000
MTEXTEND
  0
POINT
  5
27F12
330
2669E
100
AcDbEntity
  8
DEFPOINTS
 62
     0
 48
50.0
100
AcDbPoint
 10
10858.6
 20
7116.797803623185
 30
0.0
  0
POINT
  5
27F13
330
2669E
100
AcDbEntity
  8
DEFPOINTS
 62
     0
 48
50.0
100
AcDbPoint
 10
10738.6
 20
7159.835658650982
 30
0.0
  0
POINT
  5
27F14
330
2669E
100
AcDbEntity
  8
DEFPOINTS
 62
     0
 48
50.0
100
AcDbPoint
 10
10738.6
 20
7099.804539584354
 30
0.0
  0
ENDBLK
  5
266AA
330
2669E
100
AcDbEntity
  8
0
 48
50.0
100
AcDbBlockEnd
  0
BLOCK
  5
266B6
330
266AB
100
AcDbEntity
  8
0
 48
50.0
100
AcDbBlockBegin
  2
*D24
 70
     1
 10
0.0
 20
0.0
 30
0.0
  3
*D24
  1

  0
LINE
  5
27F01
330
266AB
100
AcDbEntity
  8
寸法
 62
     0
 48
50.0
370
    -2
100
AcDbLine
 10
10738.6
 20
7139.835658650984
 30
0.0
 11
10738.6
 21
7039.804539584356
 31
0.0
  0
LINE
  5
27F02
330
266AB
100
AcDbEntity
  8
寸法
 62
     0
 48
50.0
370
    -2
100
AcDbLine
 10
10628.6
 20
7307.513207084728
 30
0.0
 11
10628.6
 21
7039.804539584356
 31
0.0
  0
LINE
  5
27F03
330
266AB
100
AcDbEntity
  8
寸法
 62
     0
 48
50.0
370
    -2
100
AcDbLine
 10
10738.6
 20
7099.804539584354
 30
0.0
 11
10628.6
 21
7099.804539584354
 31
0.0
  0
LINE
  5
27F04
330
266AB
100
AcDbEntity
  8
寸法
 62
     0
 48
50.0
370
    -2
100
AcDbLine
 10
10628.6
 20
7099.804539584354
 30
0.0
 11
10234.4937007874
 21
7099.804539584354
 31
0.0
  0
INSERT
  5
27F05
330
266AB
100
AcDbEntity
  8
寸法
 62
     0
 48
50.0
370
    -2
100
AcDbBlockReference
  2
_DOTSMALL
 10
10738.6
 20
7099.804539584354
 30
0.0
 41
100.0
 42
100.0
 43
100.0
  0
INSERT
  5
27F06
330
266AB
100
AcDbEntity
  8
寸法
 62
     0
 48
50.0
370
    -2
100
AcDbBlockReference
  2
_DOTSMALL
 10
10628.6
 20
7099.804539584354
 30
0.0
 41
100.0
 42
100.0
 43
100.0
 50
180.0
  0
MTEXT
  5
27F07
330
266AB
100
AcDbEntity
  8
寸法
 62
     7
 48
50.0
100
AcDbMText
 10
10358.54094488189
 20
7199.804539584355
 30
0.0
 40
120.0
 41
0.0
 71
     5
 72
     1
  1
\A1;110
  7
STYLE1
 73
     1
 44
1.0
1001
ACAD
1000
MTEXTBEGIN
1070
    73
1070
     1
1070
    44
1040
1.0
1070
    74
1070
     0
1000
MTEXTEND
  0
POINT
  5
27F08
330
266AB
100
AcDbEntity
  8
DEFPOINTS
 62
     0
 48
50.0
100
AcDbPoint
 10
10738.6
 20
7159.835658650982
 30
0.0
  0
POINT
  5
27F09
330
266AB
100
AcDbEntity
  8
DEFPOINTS
 62
     0
 48
50.0
100
AcDbPoint
 10
10628.6
 20
7327.513207084726
 30
0.0
  0
POINT
  5
27F0A
330
266AB
100
AcDbEntity
  8
DEFPOINTS
 62
     0
 48
50.0
100
AcDbPoint
 10
10628.6
 20
7099.804539584354
 30
0.0
  0
ENDBLK
  5
266B7
330
266AB
100
AcDbEntity
  8
0
 48
50.0
100
AcDbBlockEnd
  0
BLOCK
  5
266C3
330
266B8
100
AcDbEntity
  8
0
 48
50.0
100
AcDbBlockBegin
  2
*D25
 70
     1
 10
0.0
 20
0.0
 30
0.0
  3
*D25
  1

  0
LINE
  5
27EF7
330
266B8
100
AcDbEntity
  8
寸法
 62
     0
 48
50.0
370
    -2
100
AcDbLine
 10
10858.6
 20
7577.513207084729
 30
0.0
 11
10858.6
 21
8363.272833626812
 31
0.0
  0
LINE
  5
27EF8
330
266B8
100
AcDbEntity
  8
寸法
 62
     0
 48
50.0
370
    -2
100
AcDbLine
 10
10735.6
 20
7504.513207084727
 30
0.0
 11
10735.6
 21
8363.272833626812
 31
0.0
  0
LINE
  5
27EF9
330
266B8
100
AcDbEntity
  8
寸法
 62
     0
 48
50.0
370
    -2
100
AcDbLine
 10
10735.6
 20
8303.272833626811
 30
0.0
 11
10858.6
 21
8303.272833626811
 31
0.0
  0
LINE
  5
27EFA
330
266B8
100
AcDbEntity
  8
寸法
 62
     0
 48
50.0
370
    -2
100
AcDbLine
 10
10858.6
 20
8303.272833626811
 30
0.0
 11
11270.19188309204
 21
8303.272833626811
 31
0.0
  0
INSERT
  5
27EFB
330
266B8
100
AcDbEntity
  8
寸法
 62
     0
 48
50.0
370
    -2
100
AcDbBlockReference
  2
_DOTSMALL
 10
10735.6
 20
8303.272833626811
 30
0.0
 41
100.0
 42
100.0
 43
100.0
 50
180.0
  0
INSERT
  5
27EFC
330
266B8
100
AcDbEntity
  8
寸法
 62
     0
 48
50.0
370
    -2
100
AcDbBlockReference
  2
_DOTSMALL
 10
10858.6
 20
8303.272833626811
 30
0.0
 41
100.0
 42
100.0
 43
100.0
  0
MTEXT
  5
27EFD
330
266B8
100
AcDbEntity
  8
寸法
 62
     7
 48
50.0
100
AcDbMText
 10
11131.7066017178
 20
8403.284644650433
 30
0.0
 40
120.0
 41
0.0
 71
     5
 72
     1
  1
\A1;123
  7
STYLE1
 73
     1
 44
1.0
1001
ACAD
1000
MTEXTBEGIN
1070
    73
1070
     1
1070
    44
1040
1.0
1070
    74
1070
     0
1000
MTEXTEND
  0
POINT
  5
27EFE
330
266B8
100
AcDbEntity
  8
DEFPOINTS
 62
     0
 48
50.0
100
AcDbPoint
 10
10858.6
 20
7557.513207084729
 30
0.0
  0
POINT
  5
27EFF
330
266B8
100
AcDbEntity
  8
DEFPOINTS
 62
     0
 48
50.0
100
AcDbPoint
 10
10735.6
 20
7484.513207084727
 30
0.0
  0
POINT
  5
27F00
330
266B8
100
AcDbEntity
  8
DEFPOINTS
 62
     0
 48
50.0
100
AcDbPoint
 10
10735.6
 20
8303.272833626811
 30
0.0
  0
ENDBLK
  5
266C4
330
266B8
100
AcDbEntity
  8
0
 48
50.0
100
AcDbBlockEnd
  0
BLOCK
  5
26F0D
330
26F01
100
AcDbEntity
  8
0
 48
50.0
100
AcDbBlockBegin
  2
*D26
 70
     1
 10
0.0
 20
0.0
 30
0.0
  3
*D26
  1

  0
LINE
  5
27EEC
330
26F01
100
AcDbEntity
  8
寸法
 62
     0
 48
50.0
370
    -2
100
AcDbLine
 10
8216.600000000001
 20
5682.513207084749
 30
0.0
 11
8523.202780124334
 21
5682.513207084749
 31
0.0
  0
LINE
  5
27EED
330
26F01
100
AcDbEntity
  8
寸法
 62
     0
 48
50.0
370
    -2
100
AcDbLine
 10
8216.600000000008
 20
5757.513207084752
 30
0.0
 11
8523.202780124334
 21
5757.513207084752
 31
0.0
  0
LINE
  5
27EEE
330
26F01
100
AcDbEntity
  8
寸法
 62
     0
 48
50.0
370
    -2
100
AcDbLine
 10
8463.202780124335
 20
5757.513207084752
 30
0.0
 11
8463.202780124335
 21
5857.513207084752
 31
0.0
  0
LINE
  5
27EEF
330
26F01
100
AcDbEntity
  8
寸法
 62
     0
 48
50.0
370
    -2
100
AcDbLine
 10
8463.202780124335
 20
5682.513207084749
 30
0.0
 11
8463.202780124335
 21
4815.542644336272
 31
0.0
  0
LINE
  5
27EF0
330
26F01
100
AcDbEntity
  8
寸法
 62
     0
 48
50.0
370
    -2
100
AcDbLine
 10
8463.202780124335
 20
5757.513207084752
 30
0.0
 11
8463.202780124335
 21
5682.513207084749
 31
0.0
  0
INSERT
  5
27EF1
330
26F01
100
AcDbEntity
  8
寸法
 62
     0
 48
50.0
370
    -2
100
AcDbBlockReference
  2
_DOTSMALL
 10
8463.202780124335
 20
5757.513207084752
 30
0.0
 41
100.0
 42
100.0
 43
100.0
 50
270.0
  0
INSERT
  5
27EF2
330
26F01
100
AcDbEntity
  8
寸法
 62
     0
 48
50.0
370
    -2
100
AcDbBlockReference
  2
_DOTSMALL
 10
8463.202780124335
 20
5682.513207084749
 30
0.0
 41
100.0
 42
100.0
 43
100.0
 50
90.0
  0
MTEXT
  5
27EF3
330
26F01
100
AcDbEntity
  8
寸法
 62
     7
 48
50.0
100
AcDbMText
 10
8363.202780124332
 20
5149.027925710512
 30
0.0
 40
120.0
 41
0.0
 71
     5
 72
     1
  1
\A1;扉の出75
  7
STYLE1
 11
0.0000000000000001
 21
1.0
 31
0.0
 73
     1
 44
1.0
1001
ACAD
1000
MTEXTBEGIN
1070
    73
1070
     1
1070
    44
1040
1.0
1070
    74
1070
     0
1000
MTEXTEND
  0
POINT
  5
27EF4
330
26F01
100
AcDbEntity
  8
DEFPOINTS
 62
     0
 48
50.0
100
AcDbPoint
 10
8196.600000000001
 20
5682.513207084749
 30
0.0
  0
POINT
  5
27EF5
330
26F01
100
AcDbEntity
  8
DEFPOINTS
 62
     0
 48
50.0
100
AcDbPoint
 10
8196.600000000008
 20
5757.513207084752
 30
0.0
  0
POINT
  5
27EF6
330
26F01
100
AcDbEntity
  8
DEFPOINTS
 62
     0
 48
50.0
100
AcDbPoint
 10
8463.202780124335
 20
5757.513207084752
 30
0.0
  0
ENDBLK
  5
26F0E
330
26F01
100
AcDbEntity
  8
0
 48
50.0
100
AcDbBlockEnd
  0
BLOCK
  5
26F27
330
26F1B
100
AcDbEntity
  8
0
 48
50.0
100
AcDbBlockBegin
  2
*D27
 70
     1
 10
0.0
 20
0.0
 30
0.0
  3
*D27
  1

  0
LINE
  5
27EE1
330
26F1B
100
AcDbEntity
  8
寸法
 62
     0
 48
50.0
370
    -2
100
AcDbLine
 10
5072.657733986179
 20
7632.513207084731
 30
0.0
 11
4780.714637266786
 21
7632.513207084731
 31
0.0
  0
LINE
  5
27EE2
330
26F1B
100
AcDbEntity
  8
寸法
 62
     0
 48
50.0
370
    -2
100
AcDbLine
 10
5562.149705418577
 20
7557.513207084729
 30
0.0
 11
4780.714637266786
 21
7557.513207084729
 31
0.0
  0
LINE
  5
27EE3
330
26F1B
100
AcDbEntity
  8
寸法
 62
     0
 48
50.0
370
    -2
100
AcDbLine
 10
4840.714637266787
 20
7632.513207084731
 30
0.0
 11
4840.714637266787
 21
7732.513207084732
 31
0.0
  0
LINE
  5
27EE4
330
26F1B
100
AcDbEntity
  8
寸法
 62
     0
 48
50.0
370
    -2
100
AcDbLine
 10
4840.714637266787
 20
7557.513207084729
 30
0.0
 11
4840.714637266787
 21
7457.513207084729
 31
0.0
  0
LINE
  5
27EE5
330
26F1B
100
AcDbEntity
  8
寸法
 62
     0
 48
50.0
370
    -2
100
AcDbLine
 10
4840.714637266787
 20
7632.513207084731
 30
0.0
 11
4840.714637266787
 21
7557.513207084729
 31
0.0
  0
INSERT
  5
27EE6
330
26F1B
100
AcDbEntity
  8
寸法
 62
     0
 48
50.0
370
    -2
100
AcDbBlockReference
  2
_DOTSMALL
 10
4840.714637266787
 20
7632.513207084731
 30
0.0
 41
100.0
 42
100.0
 43
100.0
 50
270.0
  0
INSERT
  5
27EE7
330
26F1B
100
AcDbEntity
  8
寸法
 62
     0
 48
50.0
370
    -2
100
AcDbBlockReference
  2
_DOTSMALL
 10
4840.714637266787
 20
7557.513207084729
 30
0.0
 41
100.0
 42
100.0
 43
100.0
 50
90.0
  0
MTEXT
  5
27EE8
330
26F1B
100
AcDbEntity
  8
寸法
 62
     7
 48
50.0
100
AcDbMText
 10
4740.714637266786
 20
7595.013207084732
 30
0.0
 40
120.0
 41
0.0
 71
     5
 72
     1
  1
\A1;c
  7
STYLE1
 11
0.0000000000000001
 21
1.0
 31
0.0
 73
     1
 44
1.0
1001
ACAD
1000
MTEXTBEGIN
1070
    73
1070
     1
1070
    44
1040
1.0
1070
    74
1070
     0
1000
MTEXTEND
  0
POINT
  5
27EE9
330
26F1B
100
AcDbEntity
  8
DEFPOINTS
 62
     0
 48
50.0
100
AcDbPoint
 10
5092.657733986179
 20
7632.513207084731
 30
0.0
  0
POINT
  5
27EEA
330
26F1B
100
AcDbEntity
  8
DEFPOINTS
 62
     0
 48
50.0
100
AcDbPoint
 10
5582.149705418578
 20
7557.513207084729
 30
0.0
  0
POINT
  5
27EEB
330
26F1B
100
AcDbEntity
  8
DEFPOINTS
 62
     0
 48
50.0
100
AcDbPoint
 10
4840.714637266787
 20
7557.513207084729
 30
0.0
  0
ENDBLK
  5
26F28
330
26F1B
100
AcDbEntity
  8
0
 48
50.0
100
AcDbBlockEnd
  0
BLOCK
  5
26F4C
330
26F40
100
AcDbEntity
  8
0
 48
50.0
100
AcDbBlockBegin
  2
*D28
 70
     1
 10
0.0
 20
0.0
 30
0.0
  3
*D28
  1

  0
LINE
  5
27ED6
330
26F40
100
AcDbEntity
  8
寸法
 62
     0
 48
50.0
370
    -2
100
AcDbLine
 10
5568.599999999997
 20
5757.513207084731
 30
0.0
 11
4780.714637266782
 21
5757.513207084731
 31
0.0
  0
LINE
  5
27ED7
330
26F40
100
AcDbEntity
  8
寸法
 62
     0
 48
50.0
370
    -2
100
AcDbLine
 10
5072.657733986179
 20
5702.513207084749
 30
0.0
 11
4780.714637266782
 21
5702.513207084749
 31
0.0
  0
LINE
  5
27ED8
330
26F40
100
AcDbEntity
  8
寸法
 62
     0
 48
50.0
370
    -2
100
AcDbLine
 10
4840.714637266781
 20
5757.513207084731
 30
0.0
 11
4840.714637266781
 21
5857.51320708473
 31
0.0
  0
LINE
  5
27ED9
330
26F40
100
AcDbEntity
  8
寸法
 62
     0
 48
50.0
370
    -2
100
AcDbLine
 10
4840.714637266781
 20
5702.513207084749
 30
0.0
 11
4840.714637266781
 21
5602.513207084748
 31
0.0
  0
LINE
  5
27EDA
330
26F40
100
AcDbEntity
  8
寸法
 62
     0
 48
50.0
370
    -2
100
AcDbLine
 10
4840.714637266781
 20
5757.513207084731
 30
0.0
 11
4840.714637266781
 21
5702.513207084749
 31
0.0
  0
INSERT
  5
27EDB
330
26F40
100
AcDbEntity
  8
寸法
 62
     0
 48
50.0
370
    -2
100
AcDbBlockReference
  2
_DOTSMALL
 10
4840.714637266781
 20
5757.513207084731
 30
0.0
 41
100.0
 42
100.0
 43
100.0
 50
270.0
  0
INSERT
  5
27EDC
330
26F40
100
AcDbEntity
  8
寸法
 62
     0
 48
50.0
370
    -2
100
AcDbBlockReference
  2
_DOTSMALL
 10
4840.714637266781
 20
5702.513207084749
 30
0.0
 41
100.0
 42
100.0
 43
100.0
 50
90.0
  0
MTEXT
  5
27EDD
330
26F40
100
AcDbEntity
  8
寸法
 62
     7
 48
50.0
100
AcDbMText
 10
4740.71463726678
 20
5730.01320708474
 30
0.0
 40
120.0
 41
0.0
 71
     5
 72
     1
  1
\A1;b
  7
STYLE1
 11
0.0000000000000001
 21
1.0
 31
0.0
 73
     1
 44
1.0
1001
ACAD
1000
MTEXTBEGIN
1070
    73
1070
     1
1070
    44
1040
1.0
1070
    74
1070
     0
1000
MTEXTEND
  0
POINT
  5
27EDE
330
26F40
100
AcDbEntity
  8
DEFPOINTS
 62
     0
 48
50.0
100
AcDbPoint
 10
5588.599999999996
 20
5757.513207084731
 30
0.0
  0
POINT
  5
27EDF
330
26F40
100
AcDbEntity
  8
DEFPOINTS
 62
     0
 48
50.0
100
AcDbPoint
 10
5092.657733986179
 20
5702.513207084749
 30
0.0
  0
POINT
  5
27EE0
330
26F40
100
AcDbEntity
  8
DEFPOINTS
 62
     0
 48
50.0
100
AcDbPoint
 10
4840.714637266781
 20
5702.513207084749
 30
0.0
  0
ENDBLK
  5
26F4D
330
26F40
100
AcDbEntity
  8
0
 48
50.0
100
AcDbBlockEnd
  0
BLOCK
  5
26F71
330
26F65
100
AcDbEntity
  8
0
 48
50.0
100
AcDbBlockBegin
  2
*D29
 70
     1
 10
0.0
 20
0.0
 30
0.0
  3
*D29
  1

  0
LINE
  5
27ECB
330
26F65
100
AcDbEntity
  8
寸法
 62
     0
 48
50.0
370
    -2
100
AcDbLine
 10
10858.6
 20
7577.513207084727
 30
0.0
 11
10858.6
 21
8575.733529143645
 31
0.0
  0
LINE
  5
27ECC
330
26F65
100
AcDbEntity
  8
寸法
 62
     0
 48
50.0
370
    -2
100
AcDbLine
 10
10903.6
 20
8323.272833626813
 30
0.0
 11
10903.6
 21
8575.733529143645
 31
0.0
  0
LINE
  5
27ECD
330
26F65
100
AcDbEntity
  8
寸法
 62
     0
 48
50.0
370
    -2
100
AcDbLine
 10
10858.6
 20
8515.733529143647
 30
0.0
 11
10758.6
 21
8515.733529143647
 31
0.0
  0
LINE
  5
27ECE
330
26F65
100
AcDbEntity
  8
寸法
 62
     0
 48
50.0
370
    -2
100
AcDbLine
 10
10903.6
 20
8515.733529143647
 30
0.0
 11
11240.94924240491
 21
8515.733529143647
 31
0.0
  0
LINE
  5
27ECF
330
26F65
100
AcDbEntity
  8
寸法
 62
     0
 48
50.0
370
    -2
100
AcDbLine
 10
10858.6
 20
8515.733529143647
 30
0.0
 11
10903.6
 21
8515.733529143647
 31
0.0
  0
INSERT
  5
27ED0
330
26F65
100
AcDbEntity
  8
寸法
 62
     0
 48
50.0
370
    -2
100
AcDbBlockReference
  2
_DOTSMALL
 10
10858.6
 20
8515.733529143647
 30
0.0
 41
100.0
 42
100.0
 43
100.0
  0
INSERT
  5
27ED1
330
26F65
100
AcDbEntity
  8
寸法
 62
     0
 48
50.0
370
    -2
100
AcDbBlockReference
  2
_DOTSMALL
 10
10903.6
 20
8515.733529143647
 30
0.0
 41
100.0
 42
100.0
 43
100.0
 50
180.0
  0
MTEXT
  5
27ED2
330
26F65
100
AcDbEntity
  8
寸法
 62
     7
 48
50.0
100
AcDbMText
 10
11174.77462120246
 20
8615.733529143646
 30
0.0
 40
120.0
 41
0.0
 71
     5
 72
     1
  1
\A1;a
  7
STYLE1
 73
     1
 44
1.0
1001
ACAD
1000
MTEXTBEGIN
1070
    73
1070
     1
1070
    44
1040
1.0
1070
    74
1070
     0
1000
MTEXTEND
  0
POINT
  5
27ED3
330
26F65
100
AcDbEntity
  8
DEFPOINTS
 62
     0
 48
50.0
100
AcDbPoint
 10
10858.6
 20
7557.513207084728
 30
0.0
  0
POINT
  5
27ED4
330
26F65
100
AcDbEntity
  8
DEFPOINTS
 62
     0
 48
50.0
100
AcDbPoint
 10
10903.6
 20
8303.272833626811
 30
0.0
  0
POINT
  5
27ED5
330
26F65
100
AcDbEntity
  8
DEFPOINTS
 62
     0
 48
50.0
100
AcDbPoint
 10
10903.6
 20
8515.733529143647
 30
0.0
  0
ENDBLK
  5
26F72
330
26F65
100
AcDbEntity
  8
0
 48
50.0
100
AcDbBlockEnd
  0
BLOCK
  5
26F8B
330
26F7F
100
AcDbEntity
  8
0
 48
50.0
100
AcDbBlockBegin
  2
*D30
 70
     1
 10
0.0
 20
0.0
 30
0.0
  3
*D30
  1

  0
LINE
  5
27EC0
330
26F7F
100
AcDbEntity
  8
寸法
 62
     0
 48
50.0
370
    -2
100
AcDbLine
 10
5543.600000000008
 20
8323.272833626813
 30
0.0
 11
5543.600000000008
 21
8575.733529143645
 31
0.0
  0
LINE
  5
27EC1
330
26F7F
100
AcDbEntity
  8
寸法
 62
     0
 48
50.0
370
    -2
100
AcDbLine
 10
5588.6
 20
7577.513207084727
 30
0.0
 11
5588.6
 21
8575.733529143645
 31
0.0
  0
LINE
  5
27EC2
330
26F7F
100
AcDbEntity
  8
寸法
 62
     0
 48
50.0
370
    -2
100
AcDbLine
 10
5588.6
 20
8515.733529143647
 30
0.0
 11
5688.6
 21
8515.733529143647
 31
0.0
  0
LINE
  5
27EC3
330
26F7F
100
AcDbEntity
  8
寸法
 62
     0
 48
50.0
370
    -2
100
AcDbLine
 10
5543.600000000008
 20
8515.733529143647
 30
0.0
 11
5206.250757595083
 21
8515.733529143647
 31
0.0
  0
LINE
  5
27EC4
330
26F7F
100
AcDbEntity
  8
寸法
 62
     0
 48
50.0
370
    -2
100
AcDbLine
 10
5588.6
 20
8515.733529143647
 30
0.0
 11
5543.600000000008
 21
8515.733529143647
 31
0.0
  0
INSERT
  5
27EC5
330
26F7F
100
AcDbEntity
  8
寸法
 62
     0
 48
50.0
370
    -2
100
AcDbBlockReference
  2
_DOTSMALL
 10
5588.6
 20
8515.733529143647
 30
0.0
 41
100.0
 42
100.0
 43
100.0
 50
180.0
  0
INSERT
  5
27EC6
330
26F7F
100
AcDbEntity
  8
寸法
 62
     0
 48
50.0
370
    -2
100
AcDbBlockReference
  2
_DOTSMALL
 10
5543.600000000008
 20
8515.733529143647
 30
0.0
 41
100.0
 42
100.0
 43
100.0
  0
MTEXT
  5
27EC7
330
26F7F
100
AcDbEntity
  8
寸法
 62
     7
 48
50.0
100
AcDbMText
 10
5272.425378797541
 20
8615.733529143646
 30
0.0
 40
120.0
 41
0.0
 71
     5
 72
     1
  1
\A1;a
  7
STYLE1
 73
     1
 44
1.0
1001
ACAD
1000
MTEXTBEGIN
1070
    73
1070
     1
1070
    44
1040
1.0
1070
    74
1070
     0
1000
MTEXTEND
  0
POINT
  5
27EC8
330
26F7F
100
AcDbEntity
  8
DEFPOINTS
 62
     0
 48
50.0
100
AcDbPoint
 10
5543.600000000008
 20
8303.272833626811
 30
0.0
  0
POINT
  5
27EC9
330
26F7F
100
AcDbEntity
  8
DEFPOINTS
 62
     0
 48
50.0
100
AcDbPoint
 10
5588.6
 20
7557.513207084728
 30
0.0
  0
POINT
  5
27ECA
330
26F7F
100
AcDbEntity
  8
DEFPOINTS
 62
     0
 48
50.0
100
AcDbPoint
 10
5588.6
 20
8515.733529143647
 30
0.0
  0
ENDBLK
  5
26F8C
330
26F7F
100
AcDbEntity
  8
0
 48
50.0
100
AcDbBlockEnd
  0
BLOCK
  5
2702B
330
2701F
100
AcDbEntity
  8
0
 48
50.0
100
AcDbBlockBegin
  2
*D31
 70
     1
 10
0.0
 20
0.0
 30
0.0
  3
*D31
  1

  0
LINE
  5
27EB6
330
2701F
100
AcDbEntity
  8
寸法
 62
     0
 48
50.0
370
    -2
100
AcDbLine
 10
6061.600000000001
 20
5682.513207084717
 30
0.0
 11
6369.183206304239
 21
5682.513207084716
 31
0.0
  0
LINE
  5
27EB7
330
2701F
100
AcDbEntity
  8
寸法
 62
     0
 48
50.0
370
    -2
100
AcDbLine
 10
6057.852606370587
 20
5877.513207084733
 30
0.0
 11
6369.183206304239
 21
5877.513207084732
 31
0.0
  0
LINE
  5
27EB8
330
2701F
100
AcDbEntity
  8
寸法
 62
     0
 48
50.0
370
    -2
100
AcDbLine
 10
6309.18320630424
 20
5877.513207084732
 30
0.0
 11
6309.18320630424
 21
5682.513207084716
 31
0.0
  0
LINE
  5
27EB9
330
2701F
100
AcDbEntity
  8
寸法
 62
     0
 48
50.0
370
    -2
100
AcDbLine
 10
6309.18320630424
 20
5682.513207084716
 30
0.0
 11
6309.18320630424
 21
5305.123324676925
 31
0.0
  0
INSERT
  5
27EBA
330
2701F
100
AcDbEntity
  8
寸法
 62
     0
 48
50.0
370
    -2
100
AcDbBlockReference
  2
_DOTSMALL
 10
6309.18320630424
 20
5877.513207084732
 30
0.0
 41
100.0
 42
100.0
 43
100.0
 50
90.0
  0
INSERT
  5
27EBB
330
2701F
100
AcDbEntity
  8
寸法
 62
     0
 48
50.0
370
    -2
100
AcDbBlockReference
  2
_DOTSMALL
 10
6309.18320630424
 20
5682.513207084716
 30
0.0
 41
100.0
 42
100.0
 43
100.0
 50
270.0
  0
MTEXT
  5
27EBC
330
2701F
100
AcDbEntity
  8
寸法
 62
     7
 48
50.0
100
AcDbMText
 10
6209.183206304238
 20
5443.818265880823
 30
0.0
 40
120.0
 41
0.0
 71
     5
 72
     1
  1
\A1;195
  7
STYLE1
 11
0.0000000000000001
 21
1.0
 31
0.0
 73
     1
 44
1.0
1001
ACAD
1000
MTEXTBEGIN
1070
    73
1070
     1
1070
    44
1040
1.0
1070
    74
1070
     0
1000
MTEXTEND
  0
POINT
  5
27EBD
330
2701F
100
AcDbEntity
  8
DEFPOINTS
 62
     0
 48
50.0
100
AcDbPoint
 10
6041.6
 20
5682.513207084717
 30
0.0
  0
POINT
  5
27EBE
330
2701F
100
AcDbEntity
  8
DEFPOINTS
 62
     0
 48
50.0
100
AcDbPoint
 10
6037.852606370587
 20
5877.513207084733
 30
0.0
  0
POINT
  5
27EBF
330
2701F
100
AcDbEntity
  8
DEFPOINTS
 62
     0
 48
50.0
100
AcDbPoint
 10
6309.18320630424
 20
5877.513207084732
 30
0.0
  0
ENDBLK
  5
2702C
330
2701F
100
AcDbEntity
  8
0
 48
50.0
100
AcDbBlockEnd
  0
BLOCK
  5
279F5
330
279EB
100
AcDbEntity
  8
0
 48
50.0
100
AcDbBlockBegin
  2
*D32
 70
     1
 10
0.0
 20
0.0
 30
0.0
  3
*D32
  1

  0
LINE
  5
27EAD
330
279EB
100
AcDbEntity
  8
寸法
 62
     0
 48
50.0
370
    -2
100
AcDbLine
 10
8196.600000000001
 20
5662.513207084732
 30
0.0
 11
8196.600000000001
 21
5137.668192742538
 31
0.0
  0
LINE
  5
27EAE
330
279EB
100
AcDbEntity
  8
寸法
 62
     0
 48
50.0
370
    -2
100
AcDbLine
 10
6041.6
 20
5662.513207084717
 30
0.0
 11
6041.6
 21
5137.668192742538
 31
0.0
  0
LINE
  5
27EAF
330
279EB
100
AcDbEntity
  8
寸法
 62
     0
 48
50.0
370
    -2
100
AcDbLine
 10
8196.600000000001
 20
5197.668192742538
 30
0.0
 11
6041.6
 21
5197.668192742538
 31
0.0
  0
INSERT
  5
27EB0
330
279EB
100
AcDbEntity
  8
寸法
 62
     0
 48
50.0
370
    -2
100
AcDbBlockReference
  2
_DOTSMALL
 10
8196.600000000001
 20
5197.668192742538
 30
0.0
 41
100.0
 42
100.0
 43
100.0
  0
INSERT
  5
27EB1
330
279EB
100
AcDbEntity
  8
寸法
 62
     0
 48
50.0
370
    -2
100
AcDbBlockReference
  2
_DOTSMALL
 10
6041.6
 20
5197.668192742538
 30
0.0
 41
100.0
 42
100.0
 43
100.0
 50
180.0
  0
MTEXT
  5
27EB2
330
279EB
100
AcDbEntity
  8
寸法
 62
     7
 48
50.0
100
AcDbMText
 10
7119.1
 20
5297.68000376616
 30
0.0
 40
120.0
 41
0.0
 71
     5
 72
     1
  1
\A1;扉の幅 2155
  7
STYLE1
 73
     1
 44
1.0
1001
ACAD
1000
MTEXTBEGIN
1070
    73
1070
     1
1070
    44
1040
1.0
1070
    74
1070
     0
1000
MTEXTEND
  0
POINT
  5
27EB3
330
279EB
100
AcDbEntity
  8
DEFPOINTS
 62
     0
 48
50.0
100
AcDbPoint
 10
8196.600000000001
 20
5682.513207084731
 30
0.0
  0
POINT
  5
27EB4
330
279EB
100
AcDbEntity
  8
DEFPOINTS
 62
     0
 48
50.0
100
AcDbPoint
 10
6041.6
 20
5682.513207084717
 30
0.0
  0
POINT
  5
27EB5
330
279EB
100
AcDbEntity
  8
DEFPOINTS
 62
     0
 48
50.0
100
AcDbPoint
 10
6041.6
 20
5197.668192742538
 30
0.0
  0
ENDBLK
  5
279F6
330
279EB
100
AcDbEntity
  8
0
 48
50.0
100
AcDbBlockEnd
  0
BLOCK
  5
27CD5
330
27CCB
100
AcDbEntity
  8
0
 48
50.0
100
AcDbBlockBegin
  2
*D33
 70
     1
 10
0.0
 20
0.0
 30
0.0
  3
*D33
  1

  0
LINE
  5
27EA4
330
27CCB
100
AcDbEntity
  8
寸法
 62
     0
 48
50.0
370
    -2
100
AcDbLine
 10
5440.174012100527
 20
1985.700188709081
 30
0.0
 11
5440.174012100527
 21
2550.284948604557
 31
0.0
  0
LINE
  5
27EA5
330
27CCB
100
AcDbEntity
  8
寸法
 62
     0
 48
50.0
370
    -2
100
AcDbLine
 10
5200.174012100529
 20
1985.700188709081
 30
0.0
 11
5200.174012100529
 21
2550.284948604557
 31
0.0
  0
LINE
  5
27EA6
330
27CCB
100
AcDbEntity
  8
寸法
 62
     0
 48
50.0
370
    -2
100
AcDbLine
 10
5440.174012100527
 20
2490.284948604557
 30
0.0
 11
5200.174012100529
 21
2490.284948604557
 31
0.0
  0
INSERT
  5
27EA7
330
27CCB
100
AcDbEntity
  8
寸法
 62
     0
 48
50.0
370
    -2
100
AcDbBlockReference
  2
_DOTSMALL
 10
5440.174012100527
 20
2490.284948604557
 30
0.0
 41
100.0
 42
100.0
 43
100.0
  0
INSERT
  5
27EA8
330
27CCB
100
AcDbEntity
  8
寸法
 62
     0
 48
50.0
370
    -2
100
AcDbBlockReference
  2
_DOTSMALL
 10
5200.174012100529
 20
2490.284948604557
 30
0.0
 41
100.0
 42
100.0
 43
100.0
 50
180.0
  0
MTEXT
  5
27EA9
330
27CCB
100
AcDbEntity
  8
寸法
 62
     7
 48
50.0
100
AcDbMText
 10
5320.174012100528
 20
2696.325761169361
 30
0.0
 40
120.0
 41
0.0
 71
     5
 72
     1
  1
\A1;120\P(195)
  7
STYLE1
 73
     1
 44
1.0
1001
ACAD
1000
MTEXTBEGIN
1070
    73
1070
     1
1070
    44
1040
1.0
1070
    74
1070
     0
1000
MTEXTEND
  0
POINT
  5
27EAA
330
27CCB
100
AcDbEntity
  8
DEFPOINTS
 62
     0
 48
50.0
100
AcDbPoint
 10
5440.174012100527
 20
1965.700188709081
 30
0.0
  0
POINT
  5
27EAB
330
27CCB
100
AcDbEntity
  8
DEFPOINTS
 62
     0
 48
50.0
100
AcDbPoint
 10
5200.174012100529
 20
1965.700188709081
 30
0.0
  0
POINT
  5
27EAC
330
27CCB
100
AcDbEntity
  8
DEFPOINTS
 62
     0
 48
50.0
100
AcDbPoint
 10
5200.174012100529
 20
2490.284948604557
 30
0.0
  0
ENDBLK
  5
27CD6
330
27CCB
100
AcDbEntity
  8
0
 48
50.0
100
AcDbBlockEnd
  0
BLOCK
  5
27CE1
330
27CD7
100
AcDbEntity
  8
0
 48
50.0
100
AcDbBlockBegin
  2
*D34
 70
     1
 10
0.0
 20
0.0
 30
0.0
  3
*D34
  1

  0
LINE
  5
27E9B
330
27CD7
100
AcDbEntity
  8
寸法
 62
     0
 48
50.0
370
    -2
100
AcDbLine
 10
5020.174012100529
 20
1285.70018870908
 30
0.0
 11
4802.148619934954
 21
1285.70018870908
 31
0.0
  0
LINE
  5
27E9C
330
27CD7
100
AcDbEntity
  8
寸法
 62
     0
 48
50.0
370
    -2
100
AcDbLine
 10
4920.174012100534
 20
985.7001887090804
 30
0.0
 11
4802.148619934954
 21
985.7001887090804
 31
0.0
  0
LINE
  5
27E9D
330
27CD7
100
AcDbEntity
  8
寸法
 62
     0
 48
50.0
370
    -2
100
AcDbLine
 10
4862.148619934955
 20
1285.70018870908
 30
0.0
 11
4862.148619934955
 21
985.7001887090804
 31
0.0
  0
INSERT
  5
27E9E
330
27CD7
100
AcDbEntity
  8
寸法
 62
     0
 48
50.0
370
    -2
100
AcDbBlockReference
  2
_DOTSMALL
 10
4862.148619934955
 20
1285.70018870908
 30
0.0
 41
100.0
 42
100.0
 43
100.0
 50
90.0
  0
INSERT
  5
27E9F
330
27CD7
100
AcDbEntity
  8
寸法
 62
     0
 48
50.0
370
    -2
100
AcDbBlockReference
  2
_DOTSMALL
 10
4862.148619934955
 20
985.7001887090804
 30
0.0
 41
100.0
 42
100.0
 43
100.0
 50
270.0
  0
MTEXT
  5
27EA0
330
27CD7
100
AcDbEntity
  8
寸法
 62
     7
 48
50.0
100
AcDbMText
 10
4762.148619934954
 20
1135.70018870908
 30
0.0
 40
120.0
 41
0.0
 71
     5
 72
     1
  1
\A1;150
  7
STYLE1
 11
0.0000000000000001
 21
1.0
 31
0.0
 73
     1
 44
1.0
1001
ACAD
1000
MTEXTBEGIN
1070
    73
1070
     1
1070
    44
1040
1.0
1070
    74
1070
     0
1000
MTEXTEND
  0
POINT
  5
27EA1
330
27CD7
100
AcDbEntity
  8
DEFPOINTS
 62
     0
 48
50.0
100
AcDbPoint
 10
5040.174012100529
 20
1285.70018870908
 30
0.0
  0
POINT
  5
27EA2
330
27CD7
100
AcDbEntity
  8
DEFPOINTS
 62
     0
 48
50.0
100
AcDbPoint
 10
4940.174012100533
 20
985.7001887090804
 30
0.0
  0
POINT
  5
27EA3
330
27CD7
100
AcDbEntity
  8
DEFPOINTS
 62
     0
 48
50.0
100
AcDbPoint
 10
4862.148619934955
 20
985.7001887090804
 30
0.0
  0
ENDBLK
  5
27CE2
330
27CD7
100
AcDbEntity
  8
0
 48
50.0
100
AcDbBlockEnd
  0
BLOCK
  5
27CED
330
27CE3
100
AcDbEntity
  8
0
 48
50.0
100
AcDbBlockBegin
  2
*D35
 70
     1
 10
0.0
 20
0.0
 30
0.0
  3
*D35
  1

  0
LINE
  5
27E92
330
27CE3
100
AcDbEntity
  8
寸法
 62
     0
 48
50.0
370
    -2
100
AcDbLine
 10
5180.174012100529
 20
1965.700188709081
 30
0.0
 11
4379.529074064465
 21
1965.700188709081
 31
0.0
  0
LINE
  5
27E93
330
27CE3
100
AcDbEntity
  8
寸法
 62
     0
 48
50.0
370
    -2
100
AcDbLine
 10
4920.174012100534
 20
985.7001887090804
 30
0.0
 11
4379.529074064465
 21
985.7001887090804
 31
0.0
  0
LINE
  5
27E94
330
27CE3
100
AcDbEntity
  8
寸法
 62
     0
 48
50.0
370
    -2
100
AcDbLine
 10
4439.529074064465
 20
1965.700188709081
 30
0.0
 11
4439.529074064465
 21
985.7001887090804
 31
0.0
  0
INSERT
  5
27E95
330
27CE3
100
AcDbEntity
  8
寸法
 62
     0
 48
50.0
370
    -2
100
AcDbBlockReference
  2
_DOTSMALL
 10
4439.529074064465
 20
1965.700188709081
 30
0.0
 41
100.0
 42
100.0
 43
100.0
 50
90.0
  0
INSERT
  5
27E96
330
27CE3
100
AcDbEntity
  8
寸法
 62
     0
 48
50.0
370
    -2
100
AcDbBlockReference
  2
_DOTSMALL
 10
4439.529074064465
 20
985.7001887090804
 30
0.0
 41
100.0
 42
100.0
 43
100.0
 50
270.0
  0
MTEXT
  5
27E97
330
27CE3
100
AcDbEntity
  8
寸法
 62
     7
 48
50.0
100
AcDbMText
 10
4339.529074064465
 20
1475.700188709081
 30
0.0
 40
120.0
 41
0.0
 71
     5
 72
     1
  1
\A1;540
  7
STYLE1
 11
0.0000000000000001
 21
1.0
 31
0.0
 73
     1
 44
1.0
1001
ACAD
1000
MTEXTBEGIN
1070
    73
1070
     1
1070
    44
1040
1.0
1070
    74
1070
     0
1000
MTEXTEND
  0
POINT
  5
27E98
330
27CE3
100
AcDbEntity
  8
DEFPOINTS
 62
     0
 48
50.0
100
AcDbPoint
 10
5200.174012100529
 20
1965.700188709081
 30
0.0
  0
POINT
  5
27E99
330
27CE3
100
AcDbEntity
  8
DEFPOINTS
 62
     0
 48
50.0
100
AcDbPoint
 10
4940.174012100533
 20
985.7001887090804
 30
0.0
  0
POINT
  5
27E9A
330
27CE3
100
AcDbEntity
  8
DEFPOINTS
 62
     0
 48
50.0
100
AcDbPoint
 10
4439.529074064465
 20
985.7001887090804
 30
0.0
  0
ENDBLK
  5
27CEE
330
27CE3
100
AcDbEntity
  8
0
 48
50.0
100
AcDbBlockEnd
  0
BLOCK
  5
27CF9
330
27CEF
100
AcDbEntity
  8
0
 48
50.0
100
AcDbBlockBegin
  2
*D36
 70
     1
 10
0.0
 20
0.0
 30
0.0
  3
*D36
  1

  0
LINE
  5
27E89
330
27CEF
100
AcDbEntity
  8
寸法
 62
     0
 48
50.0
370
    -2
100
AcDbLine
 10
5040.174012100529
 20
805.7001887090805
 30
0.0
 11
5040.174012100529
 21
466.7480822531472
 31
0.0
  0
LINE
  5
27E8A
330
27CEF
100
AcDbEntity
  8
寸法
 62
     0
 48
50.0
370
    -2
100
AcDbLine
 10
5600.174012100529
 20
805.7001887090805
 30
0.0
 11
5600.174012100529
 21
466.7480822531472
 31
0.0
  0
LINE
  5
27E8B
330
27CEF
100
AcDbEntity
  8
寸法
 62
     0
 48
50.0
370
    -2
100
AcDbLine
 10
5040.174012100529
 20
526.7480822531472
 30
0.0
 11
5600.174012100529
 21
526.7480822531472
 31
0.0
  0
INSERT
  5
27E8C
330
27CEF
100
AcDbEntity
  8
寸法
 62
     0
 48
50.0
370
    -2
100
AcDbBlockReference
  2
_DOTSMALL
 10
5040.174012100529
 20
526.7480822531472
 30
0.0
 41
100.0
 42
100.0
 43
100.0
 50
180.0
  0
INSERT
  5
27E8D
330
27CEF
100
AcDbEntity
  8
寸法
 62
     0
 48
50.0
370
    -2
100
AcDbBlockReference
  2
_DOTSMALL
 10
5600.174012100529
 20
526.7480822531472
 30
0.0
 41
100.0
 42
100.0
 43
100.0
  0
MTEXT
  5
27E8E
330
27CEF
100
AcDbEntity
  8
寸法
 62
     7
 48
50.0
100
AcDbMText
 10
5320.17401210053
 20
626.7480822531472
 30
0.0
 40
120.0
 41
0.0
 71
     5
 72
     1
  1
\A1;300
  7
STYLE1
 73
     1
 44
1.0
1001
ACAD
1000
MTEXTBEGIN
1070
    73
1070
     1
1070
    44
1040
1.0
1070
    74
1070
     0
1000
MTEXTEND
  0
POINT
  5
27E8F
330
27CEF
100
AcDbEntity
  8
DEFPOINTS
 62
     0
 48
50.0
100
AcDbPoint
 10
5040.174012100529
 20
825.7001887090805
 30
0.0
  0
POINT
  5
27E90
330
27CEF
100
AcDbEntity
  8
DEFPOINTS
 62
     0
 48
50.0
100
AcDbPoint
 10
5600.174012100529
 20
825.7001887090805
 30
0.0
  0
POINT
  5
27E91
330
27CEF
100
AcDbEntity
  8
DEFPOINTS
 62
     0
 48
50.0
100
AcDbPoint
 10
5600.174012100529
 20
526.7480822531472
 30
0.0
  0
ENDBLK
  5
27CFA
330
27CEF
100
AcDbEntity
  8
0
 48
50.0
100
AcDbBlockEnd
  0
BLOCK
  5
27D04
330
27CFB
100
AcDbEntity
  8
0
 48
50.0
100
AcDbBlockBegin
  2
*D37
 70
     1
 10
0.0
 20
0.0
 30
0.0
  3
*D37
  1

  0
LINE
  5
27E80
330
27CFB
100
AcDbEntity
  8
寸法
 62
     0
 48
50.0
370
    -2
100
AcDbLine
 10
7862.723153572021
 20
1965.700188709081
 30
0.0
 11
8530.058903283075
 21
1965.700188709081
 31
0.0
  0
LINE
  5
27E81
330
27CFB
100
AcDbEntity
  8
寸法
 62
     0
 48
50.0
370
    -2
100
AcDbLine
 10
7862.723153572021
 20
1560.700188709079
 30
0.0
 11
8530.058903283075
 21
1560.700188709079
 31
0.0
  0
LINE
  5
27E82
330
27CFB
100
AcDbEntity
  8
寸法
 62
     0
 48
50.0
370
    -2
100
AcDbLine
 10
8470.058903283076
 20
1965.700188709081
 30
0.0
 11
8470.058903283076
 21
1560.700188709079
 31
0.0
  0
INSERT
  5
27E83
330
27CFB
100
AcDbEntity
  8
寸法
 62
     0
 48
50.0
370
    -2
100
AcDbBlockReference
  2
_DOTSMALL
 10
8470.058903283076
 20
1965.700188709081
 30
0.0
 41
100.0
 42
100.0
 43
100.0
 50
90.0
  0
INSERT
  5
27E84
330
27CFB
100
AcDbEntity
  8
寸法
 62
     0
 48
50.0
370
    -2
100
AcDbBlockReference
  2
_DOTSMALL
 10
8470.058903283076
 20
1560.700188709079
 30
0.0
 41
100.0
 42
100.0
 43
100.0
 50
270.0
  0
MTEXT
  5
27E85
330
27CFB
100
AcDbEntity
  8
寸法
 62
     7
 48
50.0
100
AcDbMText
 10
8370.058903283077
 20
1763.200188709081
 30
0.0
 40
120.0
 41
0.0
 71
     5
 72
     1
  1
\A1;180
  7
STYLE1
 11
0.0000000000000001
 21
1.0
 31
0.0
 73
     1
 44
1.0
1001
ACAD
1000
MTEXTBEGIN
1070
    73
1070
     1
1070
    44
1040
1.0
1070
    74
1070
     0
1000
MTEXTEND
  0
POINT
  5
27E86
330
27CFB
100
AcDbEntity
  8
DEFPOINTS
 62
     0
 48
50.0
100
AcDbPoint
 10
7842.723153572021
 20
1965.700188709081
 30
0.0
  0
POINT
  5
27E87
330
27CFB
100
AcDbEntity
  8
DEFPOINTS
 62
     0
 48
50.0
100
AcDbPoint
 10
7842.723153572021
 20
1560.700188709079
 30
0.0
  0
POINT
  5
27E88
330
27CFB
100
AcDbEntity
  8
DEFPOINTS
 62
     0
 48
50.0
100
AcDbPoint
 10
8470.058903283076
 20
1560.700188709079
 30
0.0
  0
ENDBLK
  5
27D05
330
27CFB
100
AcDbEntity
  8
0
 48
50.0
100
AcDbBlockEnd
  0
BLOCK
  5
27D12
330
27D06
100
AcDbEntity
  8
0
 48
50.0
100
AcDbBlockBegin
  2
*D38
 70
     1
 10
0.0
 20
0.0
 30
0.0
  3
*D38
  1

  0
LINE
  5
27E75
330
27D06
100
AcDbEntity
  8
寸法
 62
     0
 48
50.0
370
    -2
100
AcDbLine
 10
7628.723153572021
 20
2031.650188709082
 30
0.0
 11
8875.127235931861
 21
2031.650188709082
 31
0.0
  0
LINE
  5
27E76
330
27D06
100
AcDbEntity
  8
寸法
 62
     0
 48
50.0
370
    -2
100
AcDbLine
 10
7862.723153572021
 20
1965.700188709081
 30
0.0
 11
8875.127235931861
 21
1965.700188709081
 31
0.0
  0
LINE
  5
27E77
330
27D06
100
AcDbEntity
  8
寸法
 62
     0
 48
50.0
370
    -2
100
AcDbLine
 10
8815.127235931861
 20
2031.650188709082
 30
0.0
 11
8815.127235931861
 21
2131.650188709082
 31
0.0
  0
LINE
  5
27E78
330
27D06
100
AcDbEntity
  8
寸法
 62
     0
 48
50.0
370
    -2
100
AcDbLine
 10
8815.127235931861
 20
1965.700188709081
 30
0.0
 11
8815.127235931861
 21
1233.682381866116
 31
0.0
  0
LINE
  5
27E79
330
27D06
100
AcDbEntity
  8
寸法
 62
     0
 48
50.0
370
    -2
100
AcDbLine
 10
8815.127235931861
 20
2031.650188709082
 30
0.0
 11
8815.127235931861
 21
1965.700188709081
 31
0.0
  0
INSERT
  5
27E7A
330
27D06
100
AcDbEntity
  8
寸法
 62
     0
 48
50.0
370
    -2
100
AcDbBlockReference
  2
_DOTSMALL
 10
8815.127235931861
 20
2031.650188709082
 30
0.0
 41
100.0
 42
100.0
 43
100.0
 50
270.0
  0
INSERT
  5
27E7B
330
27D06
100
AcDbEntity
  8
寸法
 62
     0
 48
50.0
370
    -2
100
AcDbBlockReference
  2
_DOTSMALL
 10
8815.127235931861
 20
1965.700188709081
 30
0.0
 41
100.0
 42
100.0
 43
100.0
 50
90.0
  0
MTEXT
  5
27E7C
330
27D06
100
AcDbEntity
  8
寸法
 62
     7
 48
50.0
100
AcDbMText
 10
8715.115424908239
 20
1499.6912852876
 30
0.0
 40
120.0
 41
0.0
 71
     5
 72
     1
  1
\A1;20～25
  7
STYLE1
 11
0.0000000000000001
 21
1.0
 31
0.0
 73
     1
 44
1.0
1001
ACAD
1000
MTEXTBEGIN
1070
    73
1070
     1
1070
    44
1040
1.0
1070
    74
1070
     0
1000
MTEXTEND
  0
POINT
  5
27E7D
330
27D06
100
AcDbEntity
  8
DEFPOINTS
 62
     0
 48
50.0
100
AcDbPoint
 10
7608.723153572021
 20
2031.650188709082
 30
0.0
  0
POINT
  5
27E7E
330
27D06
100
AcDbEntity
  8
DEFPOINTS
 62
     0
 48
50.0
100
AcDbPoint
 10
7842.723153572021
 20
1965.700188709081
 30
0.0
  0
POINT
  5
27E7F
330
27D06
100
AcDbEntity
  8
DEFPOINTS
 62
     0
 48
50.0
100
AcDbPoint
 10
8815.127235931861
 20
1965.700188709081
 30
0.0
  0
ENDBLK
  5
27D13
330
27D06
100
AcDbEntity
  8
0
 48
50.0
100
AcDbBlockEnd
  0
ENDSEC
  0
SECTION
  2
ENTITIES
  0
MTEXT
  5
763F
330
747D
100
AcDbEntity
  8
0
100
AcDbMText
 10
302.846345836809
 20
280.1983726409901
 30
0.0
 40
3.5
 41
5.323721266742722
 71
     1
 72
     5
  1

  7
MSMINCHO
 73
     1
 44
1.0
1001
ACAD
1000
MTEXTBEGIN
1070
    73
1070
     1
1070
    44
1040
1.0
1070
    74
1070
     0
1000
MTEXTEND
  0
LINE
  5
10B57
330
747D
100
AcDbEntity
  8
補助
  6
PHANTOM
 62
   230
 48
50.0
100
AcDbLine
 10
139.9999999999995
 20
11409.6
 30
0.0
 11
16307.2
 21
11409.6
 31
0.0
  0
LINE
  5
10B59
330
747D
100
AcDbEntity
  8
仕様書枠
  6
Continuous
 48
50.0
100
AcDbLine
 10
13107.2
 20
1200.0
 30
0.0
 11
13107.2
 21
-0.0000000000000729
 31
0.0
  0
LINE
  5
10B5D
330
747D
100
AcDbEntity
  8
仕様書枠
 48
50.0
100
AcDbLine
 10
140.0
 20
0.0
 30
0.0
 11
16307.2
 21
-0.0000000000000909
 31
0.0
  0
LINE
  5
10B5E
330
747D
100
AcDbEntity
  8
補助
  6
PHANTOM
 62
   230
 48
50.0
100
AcDbLine
 10
16307.2
 20
11409.6
 30
0.0
 11
16307.2
 21
1200.0
 31
0.0
  0
LINE
  5
10B6C
330
747D
100
AcDbEntity
  8
仕様書枠
 48
50.0
100
AcDbLine
 10
13107.2
 20
1200.0
 30
0.0
 11
16307.2
 21
1200.0
 31
0.0
  0
TEXT
  5
10B73
330
747D
100
AcDbEntity
  8
文字
 62
     7
 48
50.0
100
AcDbText
 10
13162.9790565769
 20
895.0906074299405
 30
0.0
 40
200.0
  1
基 礎 図
  7
STYLE2
100
AcDbText
  0
LINE
  5
10B7B
330
747D
100
AcDbEntity
  8
仕様書枠
 48
50.0
100
AcDbLine
 10
13107.2
 20
800.0
 30
0.0
 11
14251.2
 21
800.0
 31
0.0
  0
LINE
  5
10B88
330
747D
100
AcDbEntity
  8
仕様書枠
  6
Continuous
 48
50.0
100
AcDbLine
 10
14251.2
 20
1200.0
 30
0.0
 11
14251.2
 21
800.0
 31
0.0
  0
LINE
  5
16462
330
747D
100
AcDbEntity
  8
仕様書枠
 48
50.0
100
AcDbLine
 10
16307.2
 20
1200.0
 30
0.0
 11
16307.2
 21
-0.0000000000000909
 31
0.0
  0
LINE
  5
1903B
330
747D
100
AcDbEntity
  8
補助
  6
PHANTOM
 62
   230
 48
50.0
100
AcDbLine
 10
140.0
 20
0.0
 30
0.0
 11
139.9999999999995
 21
11409.6
 31
0.0
  0
LEADER
  5
1AC27
330
747D
100
AcDbEntity
  8
寸法
 48
50.0
100
AcDbLeader
  3
INABA_S40G
 73
     0
 74
     0
 75
     1
 40
120.0
 41
720.0000000000001
 76
     3
 10
10858.69549961499
 20
6671.715377666538
 30
0.0
 10
11025.46907400128
 20
6395.701464098704
 30
0.0
 10
11125.46907400128
 20
6395.701464098704
 30
0.0
340
1AC28
1001
ACAD
1000
DSTYLE
1002
{
1070
   341
1005
0
1002
}
  0
MTEXT
  5
1AC28
102
{ACAD_REACTORS
330
1AC27
102
}
330
747D
100
AcDbEntity
  8
部品1
 62
     7
 48
50.0
100
AcDbMText
 10
11885.46907400128
 20
6495.701464098704
 30
0.0
 40
120.0
 41
0.0
 71
     6
 72
     1
  1
\A1;床下換気口
  7
STYLE1
 73
     1
 44
1.0
1001
ACAD
1000
MTEXTBEGIN
1070
    73
1070
     1
1070
    44
1040
1.0
1070
    74
1070
     0
1000
MTEXTEND
  0
TEXT
  5
1AC29
330
747D
100
AcDbEntity
  8
部品1
 48
50.0
100
AcDbText
 10
11202.50116389398
 20
5482.422305747938
 30
0.0
 40
80.0
  1
(a=45,b=55,c=75)
  7
STYLE1
100
AcDbText
  0
TEXT
  5
1AC2A
330
747D
100
AcDbEntity
  8
部品1
 48
50.0
100
AcDbText
 10
11043.92215513968
 20
5589.267526616692
 30
0.0
 40
80.0
  1
※a,b,cは屋根の出幅です。
  7
STYLE1
100
AcDbText
  0
MTEXT
  5
1AC2B
102
{ACAD_REACTORS
330
1AC2C
102
}
330
747D
100
AcDbEntity
  8
部品1
 62
     7
 48
50.0
100
AcDbMText
 10
11841.70935112828
 20
5768.578213549766
 30
0.0
 40
120.0
 41
0.0
 71
     6
 72
     1
  1
\A1;屋根の外寸
  7
STYLE1
 73
     1
 44
1.0
1001
ACAD
1000
MTEXTBEGIN
1070
    73
1070
     1
1070
    44
1040
1.0
1070
    74
1070
     0
1000
MTEXTEND
  0
LEADER
  5
1AC2C
330
747D
100
AcDbEntity
  8
寸法
 48
50.0
100
AcDbLeader
  3
INABA_S40G
 73
     0
 74
     0
 75
     1
 40
120.0
 41
672.0
 76
     3
 10
10903.76933893624
 20
5942.467557013342
 30
0.0
 10
11029.70935112828
 20
5668.578213549766
 30
0.0
 10
11129.70935112828
 20
5668.578213549766
 30
0.0
340
1AC2B
1001
ACAD
1000
DSTYLE
1002
{
1070
   341
1005
0
1002
}
  0
TEXT
  5
1C7A1
330
747D
100
AcDbEntity
  8
文字
 62
     7
 48
50.0
100
AcDbText
 10
13188.16259899338
 20
79.80631269190417
 30
0.0
 40
80.0
  1
※布基礎には換気口を設けてください。
  7
STYLE2
100
AcDbText
  0
TEXT
  5
1C7E7
330
747D
100
AcDbEntity
  8
文字
 62
     7
 48
50.0
100
AcDbText
 10
13188.16259899338
 20
246.7109242801889
 30
0.0
 40
80.0
  1
※寒冷地等は地域の実情に合わせた基礎にして下さい。
  7
STYLE2
100
AcDbText
  0
TEXT
  5
1C7E8
330
747D
100
AcDbEntity
  8
文字
 62
     7
 48
50.0
100
AcDbText
 10
14478.98566430227
 20
499.5983841039506
 30
0.0
 40
160.0
  1
ＮＸＮ－１００Ｈ
  7
STYLE2
100
AcDbText
  0
TEXT
  5
1C7E9
330
747D
100
AcDbEntity
  8
文字
 62
     7
 48
50.0
100
AcDbText
 10
14641.2525855784
 20
871.1744590657927
 30
0.0
 40
100.0
  1
～一般型・多雪地型～
  7
STYLE2
100
AcDbText
  0
TEXT
  5
1C7EC
330
747D
100
AcDbEntity
  8
文字
 62
     7
 48
50.0
100
AcDbText
 10
14524.131837222
 20
1031.557706291229
 30
0.0
 40
100.0
  1
      <縮尺> S=1/40
  7
STYLE2
100
AcDbText
  0
TEXT
  5
1C7ED
330
747D
100
AcDbEntity
  8
文字
 62
     7
 48
50.0
100
AcDbText
 10
13201.43669998441
 20
477.2740661031257
 30
0.0
 40
160.0
  1
機種名
  7
STYLE2
100
AcDbText
  0
LINE
  5
1C7EF
330
747D
100
AcDbEntity
  8
文字
 62
     7
 48
50.0
100
AcDbLine
 10
13187.2
 20
400.0
 30
0.0
 11
16227.2
 21
400.0
 31
0.0
  0
MTEXT
  5
1D2D5
102
{ACAD_REACTORS
330
1D2D6
102
}
330
747D
100
AcDbEntity
  8
部品1
 62
     7
 48
50.0
100
AcDbMText
 10
12053.99523070988
 20
7878.69873960455
 30
0.0
 40
120.0
 41
0.0
 71
     6
 72
     1
  1
アンカーボルト
  7
STYLE1
 73
     1
 44
1.0
1001
ACAD
1000
MTEXTBEGIN
1070
    73
1070
     1
1070
    44
1040
1.0
1070
    74
1070
     0
1000
MTEXTEND
  0
LEADER
  5
1D2D6
330
747D
100
AcDbEntity
  8
寸法
 48
50.0
100
AcDbLeader
  3
INABA_S40G
 73
     0
 74
     0
 75
     1
 40
120.0
 41
994.3492424049171
 76
     3
 10
10735.680085757
 20
7434.721051443438
 30
0.0
 10
10919.64598830496
 20
7778.69873960455
 30
0.0
 10
11019.64598830496
 20
7778.69873960455
 30
0.0
340
1D2D5
1001
ACAD
1000
DSTYLE
1002
{
1070
   341
1005
0
1002
}
  0
MTEXT
  5
1D332
102
{ACAD_REACTORS
330
1D333
102
}
330
747D
100
AcDbEntity
  8
部品1
 62
     7
 48
50.0
100
AcDbMText
 10
6895.440328953417
 20
6319.523970821201
 30
0.0
 40
120.0
 41
0.0
 71
     6
 72
     1
  1
CB
  7
STYLE1
 73
     1
 44
1.0
1001
ACAD
1000
MTEXTBEGIN
1070
    73
1070
     1
1070
    44
1040
1.0
1070
    74
1070
     0
1000
MTEXTEND
  0
LEADER
  5
1D333
330
747D
100
AcDbEntity
  8
寸法
 48
50.0
100
AcDbLeader
  3
INABA_S40G
 73
     0
 74
     0
 75
     1
 40
120.0
 41
149.591883092037
 76
     3
 10
6468.565642998736
 20
6495.537884389034
 30
0.0
 10
6605.848445861379
 20
6219.523970821201
 30
0.0
 10
6705.848445861379
 20
6219.523970821201
 30
0.0
340
1D332
1001
ACAD
1000
DSTYLE
1002
{
1070
   341
1005
0
1002
}
  0
LINE
  5
20992
330
747D
100
AcDbEntity
  8
想像線
 48
10.0
100
AcDbLine
 10
10903.6
 20
5702.513207084749
 30
0.0
 11
10903.6
 21
7632.513207084729
 31
0.0
  0
LINE
  5
261AF
330
747D
100
AcDbEntity
  8
部品1
 48
50.0
100
AcDbLine
 10
10628.6
 20
7437.513207084727
 30
0.0
 11
8235.600000000001
 21
7437.513207084727
 31
0.0
  0
DIMENSION
  5
261B0
330
747D
100
AcDbEntity
  8
寸法
 48
50.0
100
AcDbDimension
  2
*D1
 10
8105.6
 20
8303.272833626811
 30
0.0
 11
9420.6
 21
8403.284644650433
 31
0.0
 70
    32
 71
     5
 42
2630.0
  3
INABA_S40G
100
AcDbAlignedDimension
 13
10735.6
 23
7484.513207084727
 33
0.0
 14
8105.6
 24
7484.513207084727
 34
0.0
100
AcDbRotatedDimension
1001
ACAD
1000
DSTYLE
1002
{
1070
   341
1005
0
1002
}
  0
DIMENSION
  5
261B1
330
747D
100
AcDbEntity
  8
寸法
 48
50.0
100
AcDbDimension
  2
*D2
 10
8670.14438614211
 20
5987.513207084749
 30
0.0
 11
8670.144386142109
 21
6257.57226220287
 31
0.0
 70
   160
 71
     5
 42
110.0000000000072
  3
INABA_S40G
100
AcDbAlignedDimension
 13
8785.623678462391
 23
5877.513207084741
 33
0.0
 14
8235.600000000001
 24
5987.513207084749
 34
0.0
 50
90.0
100
AcDbRotatedDimension
1001
ACAD
1000
DSTYLE
1002
{
1070
   341
1005
0
1002
}
  0
DIMENSION
  5
261B2
330
747D
100
AcDbEntity
  8
寸法
 48
50.0
100
AcDbDimension
  2
*D3
 10
8670.14438614211
 20
5877.513207084741
 30
0.0
 11
8670.144386142109
 21
5421.224902116788
 31
0.0
 70
   160
 71
     5
 42
119.9999999999863
  3
INABA_S40G
100
AcDbAlignedDimension
 13
8307.41918098816
 23
5757.513207084755
 33
0.0
 14
8785.623678462391
 24
5877.513207084741
 34
0.0
 50
90.0
100
AcDbRotatedDimension
1001
ACAD
1000
DSTYLE
1002
{
1070
   341
1005
0
1002
}
  0
LINE
  5
261B3
330
747D
100
AcDbEntity
  8
部品1
 48
50.0
100
AcDbLine
 10
10858.6
 20
5757.513207084747
 30
0.0
 11
8196.600000000001
 21
5757.513207084731
 31
0.0
  0
LINE
  5
261B4
330
747D
100
AcDbEntity
  8
部品1
 48
50.0
100
AcDbLine
 10
10628.6
 20
5877.513207084745
 30
0.0
 11
8235.600000000001
 21
5877.51320708474
 31
0.0
  0
DIMENSION
  5
261B5
330
747D
100
AcDbEntity
  8
寸法
 48
50.0
100
AcDbDimension
  2
*D4
 10
8223.600000000001
 20
8084.422972733056
 30
0.0
 11
8673.6
 21
8184.422972733056
 31
0.0
 70
    32
 71
     5
 42
900.0
  3
INABA_S40G
100
AcDbAlignedDimension
 13
9123.600000000001
 23
6857.513207084728
 33
0.0
 14
8223.600000000001
 24
6757.513207084729
 34
0.0
100
AcDbRotatedDimension
1001
ACAD
1000
DSTYLE
1002
{
1070
   341
1005
0
1002
}
  0
LINE
  5
261B8
330
747D
100
AcDbEntity
  8
部品1
 48
50.0
100
AcDbLine
 10
10858.6
 20
7557.513207084729
 30
0.0
 11
5588.6
 21
7557.513207084729
 31
0.0
  0
DIMENSION
  5
261B9
330
747D
100
AcDbEntity
  8
寸法
 48
50.0
100
AcDbDimension
  2
*D5
 10
10858.6
 20
8515.733529143647
 30
0.0
 11
8223.600000000001
 21
8615.745340167269
 31
0.0
 70
    32
 71
     5
 42
5270.0
  3
INABA_S40G
100
AcDbAlignedDimension
 13
5588.6
 23
7557.513207084729
 33
0.0
 14
10858.6
 24
7557.513207084729
 34
0.0
100
AcDbRotatedDimension
1001
ACAD
1000
DSTYLE
1002
{
1070
   341
1005
0
1002
}
  0
DIMENSION
  5
261C9
330
747D
100
AcDbEntity
  8
寸法
 48
50.0
100
AcDbDimension
  2
*D6
 10
7975.6
 20
6300.670745911883
 30
0.0
 11
8105.6
 21
6400.682556935506
 31
0.0
 70
    32
 71
     5
 42
260.0
  3
INABA_S40G
100
AcDbAlignedDimension
 13
8235.600000000001
 23
5987.513207084749
 33
0.0
 14
7975.6
 24
5987.513207084749
 34
0.0
100
AcDbRotatedDimension
1001
ACAD
1000
DSTYLE
1002
{
1070
   341
1005
0
1002
}
  0
LINE
  5
261CB
330
747D
100
AcDbEntity
  8
部品1
 48
50.0
100
AcDbLine
 10
5588.6
 20
5757.513207084731
 30
0.0
 11
5588.6
 21
7557.513207084729
 31
0.0
  0
LINE
  5
261CC
330
747D
100
AcDbEntity
  8
部品1
 48
50.0
100
AcDbLine
 10
5708.6
 20
5987.513207084731
 30
0.0
 11
5708.6
 21
7327.513207084726
 31
0.0
  0
DIMENSION
  5
261CD
330
747D
100
AcDbEntity
  8
寸法
 48
50.0
100
AcDbDimension
  2
*D7
 10
4840.71463726678
 20
5757.513207084731
 30
0.0
 11
4840.714637266779
 21
6657.513207084729
 31
0.0
 70
   160
 71
     5
 42
1799.999999999999
  3
INABA_S40G
100
AcDbAlignedDimension
 13
5588.6
 23
7557.513207084729
 33
0.0
 14
5588.6
 24
5757.513207084731
 34
0.0
 50
90.0
100
AcDbRotatedDimension
1001
ACAD
1000
DSTYLE
1002
{
1070
   341
1005
0
1002
}
  0
DIMENSION
  5
261CE
330
747D
100
AcDbEntity
  8
寸法
 48
50.0
100
AcDbDimension
  2
*D8
 10
5092.657733986179
 20
5880.513207084732
 30
0.0
 11
5092.657733986178
 21
6657.513207084729
 31
0.0
 70
   160
 71
     5
 42
1553.999999999995
  3
INABA_S40G
100
AcDbAlignedDimension
 13
5661.6
 23
7434.513207084727
 33
0.0
 14
5661.600000000007
 24
5880.513207084732
 34
0.0
 50
90.0
100
AcDbRotatedDimension
1001
ACAD
1000
DSTYLE
1002
{
1070
   341
1005
0
1002
}
  0
DIMENSION
  5
2622F
330
747D
100
AcDbEntity
  8
寸法
 48
50.0
100
AcDbDimension
  2
*D9
 10
5092.657733986179
 20
5757.513207084731
 30
0.0
 11
5092.657733986178
 21
5421.982258242136
 31
0.0
 70
   160
 71
     5
 42
123.0000000000009
  3
INABA_S40G
100
AcDbAlignedDimension
 13
5661.600000000007
 23
5880.513207084732
 33
0.0
 14
5588.6
 24
5757.513207084731
 34
0.0
 50
90.0
100
AcDbRotatedDimension
1001
ACAD
1000
DSTYLE
1002
{
1070
   341
1005
0
1002
}
  0
LINE
  5
26231
330
747D
100
AcDbEntity
  8
部品1
 48
50.0
100
AcDbLine
 10
8196.600000000001
 20
5682.513207084731
 30
0.0
 11
6041.6
 21
5682.513207084717
 31
0.0
  0
LINE
  5
26233
330
747D
100
AcDbEntity
  8
部品1
 48
50.0
100
AcDbLine
 10
7975.6
 20
5877.513207084738
 30
0.0
 11
5818.6
 21
5877.513207084732
 31
0.0
  0
LINE
  5
26235
330
747D
100
AcDbEntity
  8
部品1
 48
50.0
100
AcDbLine
 10
5588.6
 20
5757.513207084731
 30
0.0
 11
6041.6
 21
5757.513207084731
 31
0.0
  0
DIMENSION
  5
26236
330
747D
100
AcDbEntity
  8
寸法
 48
50.0
100
AcDbDimension
  2
*D10
 10
5588.6
 20
5197.668192742538
 30
0.0
 11
5815.100000000001
 21
5297.668192742538
 31
0.0
 70
    32
 71
     5
 42
453.0
  3
INABA_S40G
100
AcDbAlignedDimension
 13
6041.6
 23
5682.513207084717
 33
0.0
 14
5588.6
 24
5757.513207084731
 34
0.0
100
AcDbRotatedDimension
1001
ACAD
1000
DSTYLE
1002
{
1070
   341
1005
0
1002
}
  0
LINE
  5
26237
330
747D
100
AcDbEntity
  8
部品1
 48
50.0
100
AcDbLine
 10
5818.6
 20
5987.513207084731
 30
0.0
 11
5708.600000000001
 21
5987.513207084731
 31
0.0
  0
CIRCLE
  5
26238
330
747D
100
AcDbEntity
  8
部品1
 48
50.0
100
AcDbCircle
 10
5711.600000000007
 20
5880.513207084732
 30
0.0
 40
35.0
  0
LINE
  5
26239
330
747D
100
AcDbEntity
  8
センター
 48
2.0
100
AcDbLine
 10
5661.600000000007
 20
5880.513207084732
 30
0.0
 11
5761.600000000008
 21
5880.513207084732
 31
0.0
  0
LINE
  5
2623A
330
747D
100
AcDbEntity
  8
センター
 48
2.0
100
AcDbLine
 10
5711.600000000007
 20
5930.513207084731
 30
0.0
 11
5711.600000000007
 21
5830.513207084731
 31
0.0
  0
LINE
  5
2623B
330
747D
100
AcDbEntity
  8
部品1
 48
50.0
100
AcDbLine
 10
5818.6
 20
5877.513207084732
 30
0.0
 11
5818.6
 21
5987.513207084731
 31
0.0
  0
LINE
  5
2623C
330
747D
100
AcDbEntity
  8
部品1
 48
50.0
100
AcDbLine
 10
6041.6
 20
5682.513207084734
 30
0.0
 11
6041.6
 21
5757.513207084716
 31
0.0
  0
LINE
  5
26322
330
747D
100
AcDbEntity
  8
部品1
 48
50.0
100
AcDbLine
 10
6997.100000000009
 20
5877.513207084735
 30
0.0
 11
6997.100000000007
 21
5682.513207084721
 31
0.0
  0
LINE
  5
26324
330
747D
100
AcDbEntity
  8
部品1
 48
50.0
100
AcDbLine
 10
6797.100000000007
 20
5877.513207084735
 30
0.0
 11
6797.100000000007
 21
5682.513207084721
 31
0.0
  0
LINE
  5
26387
330
747D
100
AcDbEntity
  8
部品1
 48
50.0
100
AcDbLine
 10
8196.600000000001
 20
5682.513207084734
 30
0.0
 11
8196.600000000001
 21
5757.513207084731
 31
0.0
  0
LINE
  5
263FC
330
747D
100
AcDbEntity
  8
部品1
 48
50.0
100
AcDbLine
 10
8235.600000000001
 20
5987.513207084749
 30
0.0
 11
7975.6
 21
5987.513207084749
 31
0.0
  0
LINE
  5
26431
330
747D
100
AcDbEntity
  8
部品1
 48
50.0
100
AcDbLine
 10
7975.600000000001
 20
5877.513207084739
 30
0.0
 11
7975.6
 21
5987.513207084749
 31
0.0
  0
LINE
  5
26432
330
747D
100
AcDbEntity
  8
センター
 48
2.0
100
AcDbLine
 10
8105.600000000007
 20
5930.513207084731
 30
0.0
 11
8105.600000000007
 21
5830.513207084731
 31
0.0
  0
CIRCLE
  5
26433
330
747D
100
AcDbEntity
  8
部品1
 48
50.0
100
AcDbCircle
 10
8105.600000000007
 20
5880.513207084732
 30
0.0
 40
35.0
  0
LINE
  5
26434
330
747D
100
AcDbEntity
  8
センター
 48
2.0
100
AcDbLine
 10
8055.600000000008
 20
5880.513207084732
 30
0.0
 11
8155.600000000008
 21
5880.513207084732
 31
0.0
  0
LINE
  5
2644E
330
747D
100
AcDbEntity
  8
部品1
 48
50.0
100
AcDbLine
 10
8235.600000000001
 20
5877.51320708474
 30
0.0
 11
8235.600000000001
 21
5987.513207084749
 31
0.0
  0
DIMENSION
  5
26450
330
747D
100
AcDbEntity
  8
寸法
 48
50.0
100
AcDbDimension
  2
*D11
 10
5092.657733986179
 20
7434.513207084727
 30
0.0
 11
5092.657733986178
 21
7830.619808802528
 31
0.0
 70
   160
 71
     5
 42
123.0000000000027
  3
INABA_S40G
100
AcDbAlignedDimension
 13
5588.6
 23
7557.513207084729
 33
0.0
 14
5661.6
 24
7434.513207084727
 34
0.0
 50
90.0
100
AcDbRotatedDimension
1001
ACAD
1000
DSTYLE
1002
{
1070
   341
1005
0
1002
}
  0
DIMENSION
  5
26452
330
747D
100
AcDbEntity
  8
寸法
 48
50.0
100
AcDbDimension
  2
*D12
 10
6493.6
 20
8084.422972733056
 30
0.0
 11
6908.599999999999
 21
8184.422972733056
 31
0.0
 70
    32
 71
     5
 42
830.0
  3
INABA_S40G
100
AcDbAlignedDimension
 13
7323.6
 23
6857.513207084728
 33
0.0
 14
6493.6
 24
6857.513207084728
 34
0.0
100
AcDbRotatedDimension
1001
ACAD
1000
DSTYLE
1002
{
1070
   341
1005
0
1002
}
  0
LINE
  5
26453
330
747D
100
AcDbEntity
  8
部品1
 48
50.0
100
AcDbLine
 10
7975.6
 20
7437.513207084727
 30
0.0
 11
5818.6
 21
7437.513207084727
 31
0.0
  0
DIMENSION
  5
26454
330
747D
100
AcDbEntity
  8
寸法
 48
50.0
100
AcDbDimension
  2
*D13
 10
5711.6
 20
8303.272833626811
 30
0.0
 11
6908.599999999999
 21
8403.284644650433
 31
0.0
 70
    32
 71
     5
 42
2394.0
  3
INABA_S40G
100
AcDbAlignedDimension
 13
8105.6
 23
7484.513207084727
 33
0.0
 14
5711.6
 24
7484.513207084727
 34
0.0
100
AcDbRotatedDimension
1001
ACAD
1000
DSTYLE
1002
{
1070
   341
1005
0
1002
}
  0
CIRCLE
  5
26455
330
747D
100
AcDbEntity
  8
部品1
 48
50.0
100
AcDbCircle
 10
5711.6
 20
7434.513207084727
 30
0.0
 40
35.0
  0
LINE
  5
26456
330
747D
100
AcDbEntity
  8
センター
 48
2.0
100
AcDbLine
 10
5711.6
 20
7484.513207084727
 30
0.0
 11
5711.6
 21
7384.513207084729
 31
0.0
  0
DIMENSION
  5
26457
330
747D
100
AcDbEntity
  8
寸法
 48
50.0
100
AcDbDimension
  2
*D14
 10
6035.307249876098
 20
7557.513207084728
 30
0.0
 11
6035.307249876098
 21
7835.596750357614
 31
0.0
 70
   160
 71
     5
 42
120.0000000000036
  3
INABA_S40G
100
AcDbAlignedDimension
 13
5818.6
 23
7437.513207084724
 33
0.0
 14
5818.600000000002
 24
7557.513207084728
 34
0.0
 50
90.0
100
AcDbRotatedDimension
1001
ACAD
1000
DSTYLE
1002
{
1070
   341
1005
0
1002
}
  0
DIMENSION
  5
26458
330
747D
100
AcDbEntity
  8
寸法
 48
50.0
100
AcDbDimension
  2
*D15
 10
5588.6
 20
8084.422972733056
 30
0.0
 11
6041.1
 21
8184.422972733056
 31
0.0
 70
    32
 71
     5
 42
905.0
  3
INABA_S40G
100
AcDbAlignedDimension
 13
6493.6
 23
6857.513207084728
 33
0.0
 14
5588.6
 24
7557.513207084729
 34
0.0
100
AcDbRotatedDimension
1001
ACAD
1000
DSTYLE
1002
{
1070
   341
1005
0
1002
}
  0
DIMENSION
  5
26459
330
747D
100
AcDbEntity
  8
寸法
 48
50.0
100
AcDbDimension
  2
*D16
 10
6035.307249876099
 20
7327.513207084726
 30
0.0
 11
6035.307249876098
 21
6987.454151966615
 31
0.0
 70
   160
 71
     5
 42
110.0
  3
INABA_S40G
100
AcDbAlignedDimension
 13
5818.6
 23
7437.513207084727
 33
0.0
 14
5818.6
 24
7327.513207084726
 34
0.0
 50
90.0
100
AcDbRotatedDimension
1001
ACAD
1000
DSTYLE
1002
{
1070
   341
1005
0
1002
}
  0
LINE
  5
2645B
330
747D
100
AcDbEntity
  8
部品1
 48
50.0
100
AcDbLine
 10
5708.6
 20
6557.513207084729
 30
0.0
 11
5588.600000000003
 21
6557.513207084729
 31
0.0
  0
LINE
  5
2645C
330
747D
100
AcDbEntity
  8
部品1
 48
50.0
100
AcDbLine
 10
5708.6
 20
6757.513207084729
 30
0.0
 11
5588.600000000003
 21
6757.513207084729
 31
0.0
  0
LINE
  5
2645D
330
747D
100
AcDbEntity
  8
部品1
 48
50.0
100
AcDbLine
 10
5818.599999999999
 20
7327.513207084726
 30
0.0
 11
5708.6
 21
7327.513207084726
 31
0.0
  0
LINE
  5
2645E
330
747D
100
AcDbEntity
  8
センター
 48
2.0
100
AcDbLine
 10
5661.6
 20
7434.513207084727
 30
0.0
 11
5761.600000000001
 21
7434.513207084727
 31
0.0
  0
LINE
  5
2645F
330
747D
100
AcDbEntity
  8
部品1
 48
50.0
100
AcDbLine
 10
5818.599999999999
 20
7327.513207084726
 30
0.0
 11
5818.6
 21
7437.513207084727
 31
0.0
  0
LINE
  5
26460
330
747D
100
AcDbEntity
  8
部品1
 48
50.0
100
AcDbLine
 10
6593.600000000001
 20
6457.513207084727
 30
0.0
 11
6593.600000000001
 21
6857.513207084728
 31
0.0
  0
LINE
  5
26461
330
747D
100
AcDbEntity
  8
部品1
 48
50.0
100
AcDbLine
 10
6393.600000000001
 20
6457.513207084729
 30
0.0
 11
6393.600000000001
 21
6857.513207084728
 31
0.0
  0
LINE
  5
26462
330
747D
100
AcDbEntity
  8
部品1
 48
50.0
100
AcDbLine
 10
6593.600000000001
 20
6457.513207084727
 30
0.0
 11
6393.600000000001
 21
6457.513207084727
 31
0.0
  0
LINE
  5
26463
330
747D
100
AcDbEntity
  8
部品1
 48
50.0
100
AcDbLine
 10
6593.600000000001
 20
6857.513207084728
 30
0.0
 11
6393.600000000001
 21
6857.513207084728
 31
0.0
  0
LINE
  5
26464
330
747D
100
AcDbEntity
  8
センター
 48
2.0
100
AcDbLine
 10
6493.6
 20
6707.513207084729
 30
0.0
 11
6493.6
 21
6607.513207084728
 31
0.0
  0
LINE
  5
26465
330
747D
100
AcDbEntity
  8
センター
 48
2.0
100
AcDbLine
 10
6443.6
 20
6657.513207084729
 30
0.0
 11
6543.600000000001
 21
6657.513207084729
 31
0.0
  0
LINE
  5
26466
330
747D
100
AcDbEntity
  8
部品1
 48
50.0
100
AcDbLine
 10
5987.928907166848
 20
7557.513207084724
 30
0.0
 11
5588.6
 21
7557.513207084729
 31
0.0
  0
DIMENSION
  5
26467
330
747D
100
AcDbEntity
  8
寸法
 48
50.0
100
AcDbDimension
  2
*D17
 10
5588.6
 20
8303.272833626811
 30
0.0
 11
5315.493398282202
 21
8303.272833626811
 31
0.0
 70
   160
 71
     5
 42
123.0
  3
INABA_S40G
100
AcDbAlignedDimension
 13
5711.6
 23
7484.513207084727
 33
0.0
 14
5588.6
 24
7557.513207084729
 34
0.0
100
AcDbRotatedDimension
1001
ACAD
1000
DSTYLE
1002
{
1070
   341
1005
0
1002
}
  0
LINE
  5
26468
330
747D
100
AcDbEntity
  8
センター
 48
2.0
100
AcDbLine
 10
8105.6
 20
7484.513207084727
 30
0.0
 11
8105.6
 21
7384.513207084729
 31
0.0
  0
CIRCLE
  5
26469
330
747D
100
AcDbEntity
  8
部品1
 48
50.0
100
AcDbCircle
 10
8105.6
 20
7434.513207084727
 30
0.0
 40
35.0
  0
LINE
  5
2646A
330
747D
100
AcDbEntity
  8
部品1
 48
50.0
100
AcDbLine
 10
6997.099999999997
 20
7557.513207084729
 30
0.0
 11
6997.099999999997
 21
7437.513207084727
 31
0.0
  0
DIMENSION
  5
2646B
330
747D
100
AcDbEntity
  8
寸法
 48
50.0
100
AcDbDimension
  2
*D18
 10
7323.6
 20
8084.422972733056
 30
0.0
 11
7773.6
 21
8184.422972733056
 31
0.0
 70
    32
 71
     5
 42
900.0
  3
INABA_S40G
100
AcDbAlignedDimension
 13
8223.600000000001
 23
6757.513207084729
 33
0.0
 14
7323.6
 24
6857.513207084728
 34
0.0
100
AcDbRotatedDimension
1001
ACAD
1000
DSTYLE
1002
{
1070
   341
1005
0
1002
}
  0
LINE
  5
2646C
330
747D
100
AcDbEntity
  8
部品1
 48
50.0
100
AcDbLine
 10
6797.099999999997
 20
7557.513207084729
 30
0.0
 11
6797.099999999997
 21
7437.513207084727
 31
0.0
  0
LINE
  5
2646E
330
747D
100
AcDbEntity
  8
部品1
 48
50.0
100
AcDbLine
 10
7223.600000000002
 20
6457.513207084729
 30
0.0
 11
7223.600000000002
 21
6857.513207084728
 31
0.0
  0
LINE
  5
2646F
330
747D
100
AcDbEntity
  8
部品1
 48
50.0
100
AcDbLine
 10
7423.6
 20
6457.513207084727
 30
0.0
 11
7423.6
 21
6857.513207084728
 31
0.0
  0
LINE
  5
26470
330
747D
100
AcDbEntity
  8
部品1
 48
50.0
100
AcDbLine
 10
7423.6
 20
6457.513207084727
 30
0.0
 11
7223.600000000002
 21
6457.513207084727
 31
0.0
  0
LINE
  5
26471
330
747D
100
AcDbEntity
  8
部品1
 48
50.0
100
AcDbLine
 10
7423.6
 20
6857.513207084728
 30
0.0
 11
7223.600000000002
 21
6857.513207084728
 31
0.0
  0
LINE
  5
26472
330
747D
100
AcDbEntity
  8
センター
 48
2.0
100
AcDbLine
 10
7323.6
 20
6707.513207084729
 30
0.0
 11
7323.6
 21
6607.513207084728
 31
0.0
  0
LINE
  5
26473
330
747D
100
AcDbEntity
  8
センター
 48
2.0
100
AcDbLine
 10
7273.6
 20
6657.513207084729
 30
0.0
 11
7373.6
 21
6657.513207084729
 31
0.0
  0
LINE
  5
26474
330
747D
100
AcDbEntity
  8
部品1
 48
50.0
100
AcDbLine
 10
8323.6
 20
6557.513207084728
 30
0.0
 11
8323.6
 21
6757.513207084729
 31
0.0
  0
LINE
  5
26475
330
747D
100
AcDbEntity
  8
部品1
 48
50.0
100
AcDbLine
 10
8123.600000000001
 20
6557.513207084729
 30
0.0
 11
8123.600000000001
 21
6757.513207084729
 31
0.0
  0
LINE
  5
26476
330
747D
100
AcDbEntity
  8
部品1
 48
50.0
100
AcDbLine
 10
8323.6
 20
6557.513207084728
 30
0.0
 11
8123.600000000001
 21
6557.513207084728
 31
0.0
  0
LINE
  5
26477
330
747D
100
AcDbEntity
  8
部品1
 48
50.0
100
AcDbLine
 10
8323.6
 20
6757.513207084729
 30
0.0
 11
8123.600000000001
 21
6757.513207084729
 31
0.0
  0
LINE
  5
26478
330
747D
100
AcDbEntity
  8
センター
 48
2.0
100
AcDbLine
 10
8173.6
 20
6657.513207084729
 30
0.0
 11
8273.6
 21
6657.513207084729
 31
0.0
  0
LINE
  5
26479
330
747D
100
AcDbEntity
  8
センター
 48
2.0
100
AcDbLine
 10
8223.600000000001
 20
6707.513207084729
 30
0.0
 11
8223.600000000001
 21
6607.513207084728
 31
0.0
  0
LINE
  5
2647A
330
747D
100
AcDbEntity
  8
部品1
 48
50.0
100
AcDbLine
 10
8235.600000000001
 20
7327.513207084709
 30
0.0
 11
7975.6
 21
7327.513207084709
 31
0.0
  0
LINE
  5
2647B
330
747D
100
AcDbEntity
  8
部品1
 48
50.0
100
AcDbLine
 10
7975.600000000001
 20
7437.51320708473
 30
0.0
 11
7975.6
 21
7327.513207084709
 31
0.0
  0
LINE
  5
2647C
330
747D
100
AcDbEntity
  8
センター
 48
2.0
100
AcDbLine
 10
8055.600000000001
 20
7434.513207084727
 30
0.0
 11
8155.600000000001
 21
7434.513207084727
 31
0.0
  0
LINE
  5
2647D
330
747D
100
AcDbEntity
  8
部品1
 48
50.0
100
AcDbLine
 10
8235.600000000001
 20
7437.513207084727
 30
0.0
 11
8235.600000000001
 21
7327.513207084709
 31
0.0
  0
DIMENSION
  5
2647E
330
747D
100
AcDbEntity
  8
寸法
 48
50.0
100
AcDbDimension
  2
*D19
 10
9588.531448609051
 20
6657.513207084729
 30
0.0
 11
9488.53144860905
 21
6207.513207084735
 31
0.0
 70
    32
 71
     5
 42
899.9999999999918
  3
INABA_S40G
100
AcDbAlignedDimension
 13
9532.100000000021
 23
5757.513207084738
 33
0.0
 14
9853.6
 24
6657.513207084729
 34
0.0
 50
90.0
100
AcDbRotatedDimension
1001
ACAD
1000
DSTYLE
1002
{
1070
   341
1005
0
1002
}
  0
LINE
  5
26480
330
747D
100
AcDbEntity
  8
部品1
 48
50.0
100
AcDbLine
 10
10858.6
 20
5757.513207084747
 30
0.0
 11
10858.6
 21
7557.513207084729
 31
0.0
  0
LINE
  5
26481
330
747D
100
AcDbEntity
  8
部品1
 48
50.0
100
AcDbLine
 10
10738.6
 20
5987.513207084749
 30
0.0
 11
10738.6
 21
7327.513207084729
 31
0.0
  0
LINE
  5
264F4
330
747D
100
AcDbEntity
  8
部品1
 48
50.0
100
AcDbLine
 10
9332.100000000018
 20
5877.513207084742
 30
0.0
 11
9332.100000000018
 21
5757.513207084738
 31
0.0
  0
LINE
  5
264F5
330
747D
100
AcDbEntity
  8
部品1
 48
50.0
100
AcDbLine
 10
9532.100000000021
 20
5877.513207084742
 30
0.0
 11
9532.100000000021
 21
5757.513207084738
 31
0.0
  0
LINE
  5
264FA
330
747D
100
AcDbEntity
  8
部品1
 48
50.0
100
AcDbLine
 10
10738.6
 20
5987.513207084745
 30
0.0
 11
10628.6
 21
5987.513207084749
 31
0.0
  0
LINE
  5
264FB
330
747D
100
AcDbEntity
  8
部品1
 48
50.0
100
AcDbLine
 10
10628.6
 20
5877.513207084745
 30
0.0
 11
10628.6
 21
5987.513207084749
 31
0.0
  0
LINE
  5
264FC
330
747D
100
AcDbEntity
  8
センター
 48
2.0
100
AcDbLine
 10
10735.6
 20
5930.513207084731
 30
0.0
 11
10735.6
 21
5830.513207084731
 31
0.0
  0
CIRCLE
  5
264FD
330
747D
100
AcDbEntity
  8
部品1
 48
50.0
100
AcDbCircle
 10
10735.6
 20
5880.513207084732
 30
0.0
 40
35.0
  0
LINE
  5
264FE
330
747D
100
AcDbEntity
  8
センター
 48
2.0
100
AcDbLine
 10
10685.60000000001
 20
5880.513207084732
 30
0.0
 11
10785.60000000001
 21
5880.513207084732
 31
0.0
  0
LINE
  5
26506
330
747D
100
AcDbEntity
  8
部品1
 48
50.0
100
AcDbLine
 10
10053.6
 20
6857.513207084728
 30
0.0
 11
9853.6
 21
6857.513207084728
 31
0.0
  0
LINE
  5
26507
330
747D
100
AcDbEntity
  8
部品1
 48
50.0
100
AcDbLine
 10
10053.6
 20
6457.513207084727
 30
0.0
 11
9853.6
 21
6457.513207084727
 31
0.0
  0
DIMENSION
  5
26508
330
747D
100
AcDbEntity
  8
寸法
 48
50.0
100
AcDbDimension
  2
*D20
 10
9953.600000000001
 20
8084.422972733056
 30
0.0
 11
10406.1
 21
8184.422972733056
 31
0.0
 70
    32
 71
     5
 42
905.0
  3
INABA_S40G
100
AcDbAlignedDimension
 13
10858.6
 23
7557.513207084729
 33
0.0
 14
9953.600000000001
 24
6857.513207084728
 34
0.0
100
AcDbRotatedDimension
1001
ACAD
1000
DSTYLE
1002
{
1070
   341
1005
0
1002
}
  0
LINE
  5
26509
330
747D
100
AcDbEntity
  8
部品1
 48
50.0
100
AcDbLine
 10
9532.099999999998
 20
7557.513207084729
 30
0.0
 11
9532.099999999998
 21
7437.513207084727
 31
0.0
  0
LINE
  5
2650A
330
747D
100
AcDbEntity
  8
部品1
 48
50.0
100
AcDbLine
 10
9332.099999999996
 20
7557.513207084729
 30
0.0
 11
9332.099999999996
 21
7437.513207084727
 31
0.0
  0
DIMENSION
  5
2650C
330
747D
100
AcDbEntity
  8
寸法
 48
50.0
100
AcDbDimension
  2
*D21
 10
9588.531448609051
 20
7557.513207084729
 30
0.0
 11
9488.53144860905
 21
7107.51320708473
 31
0.0
 70
    32
 71
     5
 42
900.0
  3
INABA_S40G
100
AcDbAlignedDimension
 13
9853.6
 23
6657.513207084729
 33
0.0
 14
9532.099999999998
 24
7557.513207084729
 34
0.0
 50
90.0
100
AcDbRotatedDimension
1001
ACAD
1000
DSTYLE
1002
{
1070
   341
1005
0
1002
}
  0
DIMENSION
  5
2650D
330
747D
100
AcDbEntity
  8
寸法
 48
50.0
100
AcDbDimension
  2
*D22
 10
9123.600000000001
 20
8084.422972733056
 30
0.0
 11
9538.6
 21
8184.422972733056
 31
0.0
 70
    32
 71
     5
 42
830.0
  3
INABA_S40G
100
AcDbAlignedDimension
 13
9953.600000000001
 23
6857.513207084728
 33
0.0
 14
9123.600000000001
 24
6857.513207084728
 34
0.0
100
AcDbRotatedDimension
1001
ACAD
1000
DSTYLE
1002
{
1070
   341
1005
0
1002
}
  0
LINE
  5
2650E
330
747D
100
AcDbEntity
  8
部品1
 48
50.0
100
AcDbLine
 10
9223.600000000001
 20
6857.513207084728
 30
0.0
 11
9023.6
 21
6857.513207084728
 31
0.0
  0
LINE
  5
2650F
330
747D
100
AcDbEntity
  8
部品1
 48
50.0
100
AcDbLine
 10
9223.600000000001
 20
6457.513207084727
 30
0.0
 11
9023.6
 21
6457.513207084727
 31
0.0
  0
LINE
  5
26510
330
747D
100
AcDbEntity
  8
部品1
 48
50.0
100
AcDbLine
 10
9023.6
 20
6457.513207084729
 30
0.0
 11
9023.6
 21
6857.513207084728
 31
0.0
  0
LINE
  5
26511
330
747D
100
AcDbEntity
  8
センター
 48
2.0
100
AcDbLine
 10
9073.6
 20
6657.513207084729
 30
0.0
 11
9173.6
 21
6657.513207084729
 31
0.0
  0
LINE
  5
26512
330
747D
100
AcDbEntity
  8
センター
 48
2.0
100
AcDbLine
 10
9123.600000000001
 20
6707.513207084729
 30
0.0
 11
9123.600000000001
 21
6607.513207084728
 31
0.0
  0
LINE
  5
26513
330
747D
100
AcDbEntity
  8
部品1
 48
50.0
100
AcDbLine
 10
9223.600000000001
 20
6457.513207084727
 30
0.0
 11
9223.600000000001
 21
6857.513207084728
 31
0.0
  0
LINE
  5
26514
330
747D
100
AcDbEntity
  8
部品1
 48
50.0
100
AcDbLine
 10
9853.6
 20
6457.513207084729
 30
0.0
 11
9853.6
 21
6857.513207084728
 31
0.0
  0
LINE
  5
26515
330
747D
100
AcDbEntity
  8
センター
 48
2.0
100
AcDbLine
 10
9903.6
 20
6657.513207084729
 30
0.0
 11
10003.6
 21
6657.513207084729
 31
0.0
  0
LINE
  5
26516
330
747D
100
AcDbEntity
  8
センター
 48
2.0
100
AcDbLine
 10
9953.600000000001
 20
6707.513207084729
 30
0.0
 11
9953.600000000001
 21
6607.513207084728
 31
0.0
  0
LINE
  5
26517
330
747D
100
AcDbEntity
  8
センター
 48
2.0
100
AcDbLine
 10
10735.6
 20
7484.513207084727
 30
0.0
 11
10735.6
 21
7384.513207084729
 31
0.0
  0
CIRCLE
  5
26518
330
747D
100
AcDbEntity
  8
部品1
 48
50.0
100
AcDbCircle
 10
10735.6
 20
7434.513207084727
 30
0.0
 40
35.0
  0
DIMENSION
  5
26519
330
747D
100
AcDbEntity
  8
寸法
 48
50.0
100
AcDbDimension
  2
*D23
 10
10738.6
 20
7099.804539584354
 30
0.0
 11
11128.65905511811
 21
7099.804539584354
 31
0.0
 70
   160
 71
     5
 42
120.0
  3
INABA_S40G
100
AcDbAlignedDimension
 13
10858.6
 23
7116.797803623185
 33
0.0
 14
10738.6
 24
7159.835658650982
 34
0.0
100
AcDbRotatedDimension
1001
ACAD
1000
DSTYLE
1002
{
1070
   341
1005
0
1002
}
  0
LINE
  5
2651A
330
747D
100
AcDbEntity
  8
部品1
 48
50.0
100
AcDbLine
 10
10053.6
 20
6457.513207084727
 30
0.0
 11
10053.6
 21
6857.513207084728
 31
0.0
  0
LINE
  5
2651C
330
747D
100
AcDbEntity
  8
部品1
 48
50.0
100
AcDbLine
 10
10858.6
 20
6557.513207084729
 30
0.0
 11
10738.6
 21
6557.513207084729
 31
0.0
  0
LINE
  5
2651D
330
747D
100
AcDbEntity
  8
部品1
 48
50.0
100
AcDbLine
 10
10858.6
 20
6757.513207084729
 30
0.0
 11
10738.6
 21
6757.513207084729
 31
0.0
  0
DIMENSION
  5
2651E
330
747D
100
AcDbEntity
  8
寸法
 48
50.0
100
AcDbDimension
  2
*D24
 10
10628.6
 20
7099.804539584354
 30
0.0
 11
10358.54094488189
 21
7099.804539584354
 31
0.0
 70
   160
 71
     5
 42
110.0
  3
INABA_S40G
100
AcDbAlignedDimension
 13
10738.6
 23
7159.835658650982
 33
0.0
 14
10628.6
 24
7327.513207084726
 34
0.0
100
AcDbRotatedDimension
1001
ACAD
1000
DSTYLE
1002
{
1070
   341
1005
0
1002
}
  0
LINE
  5
2651F
330
747D
100
AcDbEntity
  8
部品1
 48
50.0
100
AcDbLine
 10
10738.6
 20
7327.513207084729
 30
0.0
 11
10628.6
 21
7327.513207084726
 31
0.0
  0
LINE
  5
26520
330
747D
100
AcDbEntity
  8
部品1
 48
50.0
100
AcDbLine
 10
10628.6
 20
7327.513207084726
 30
0.0
 11
10628.6
 21
7437.513207084727
 31
0.0
  0
LINE
  5
26521
330
747D
100
AcDbEntity
  8
センター
 48
2.0
100
AcDbLine
 10
10685.6
 20
7434.513207084727
 30
0.0
 11
10785.6
 21
7434.513207084727
 31
0.0
  0
DIMENSION
  5
26522
330
747D
100
AcDbEntity
  8
寸法
 48
50.0
100
AcDbDimension
  2
*D25
 10
10735.6
 20
8303.272833626811
 30
0.0
 11
11131.7066017178
 21
8303.272833626811
 31
0.0
 70
   160
 71
     5
 42
123.0
  3
INABA_S40G
100
AcDbAlignedDimension
 13
10858.6
 23
7557.513207084729
 33
0.0
 14
10735.6
 24
7484.513207084727
 34
0.0
100
AcDbRotatedDimension
1001
ACAD
1000
DSTYLE
1002
{
1070
   341
1005
0
1002
}
  0
DIMENSION
  5
26F00
330
747D
100
AcDbEntity
  8
寸法
 48
50.0
100
AcDbDimension
  2
*D26
 10
8463.202780124335
 20
5757.513207084752
 30
0.0
 11
8463.202780124332
 21
5149.027925710512
 31
0.0
 70
   160
  1
扉の出<>
 71
     5
 42
75.00000000000364
  3
INABA_S40G
100
AcDbAlignedDimension
 13
8196.600000000001
 23
5682.513207084749
 33
0.0
 14
8196.600000000008
 24
5757.513207084752
 34
0.0
 50
90.0
100
AcDbRotatedDimension
1001
ACAD
1000
DSTYLE
1002
{
1070
   341
1005
0
1002
}
  0
DIMENSION
  5
26F1A
330
747D
100
AcDbEntity
  8
寸法
 48
50.0
100
AcDbDimension
  2
*D27
 10
4840.714637266787
 20
7557.513207084729
 30
0.0
 11
4740.714637266786
 21
7595.013207084732
 31
0.0
 70
    32
  1
c
 71
     5
 42
75.00000000000182
  3
INABA_S40G
100
AcDbAlignedDimension
 13
5092.657733986179
 23
7632.513207084731
 33
0.0
 14
5582.149705418578
 24
7557.513207084729
 34
0.0
 50
90.0
100
AcDbRotatedDimension
1001
ACAD
1000
DSTYLE
1002
{
1070
   341
1005
0
1002
}
  0
DIMENSION
  5
26F3F
330
747D
100
AcDbEntity
  8
寸法
 48
50.0
100
AcDbDimension
  2
*D28
 10
4840.714637266781
 20
5702.513207084749
 30
0.0
 11
4740.71463726678
 21
5730.01320708474
 31
0.0
 70
    32
  1
b
 71
     5
 42
54.99999999998181
  3
INABA_S40G
100
AcDbAlignedDimension
 13
5588.599999999996
 23
5757.513207084731
 33
0.0
 14
5092.657733986179
 24
5702.513207084749
 34
0.0
 50
90.0
100
AcDbRotatedDimension
1001
ACAD
1000
DSTYLE
1002
{
1070
   341
1005
0
1002
}
  0
DIMENSION
  5
26F64
330
747D
100
AcDbEntity
  8
寸法
 48
50.0
100
AcDbDimension
  2
*D29
 10
10903.6
 20
8515.733529143647
 30
0.0
 11
11174.77462120246
 21
8515.733529143647
 31
0.0
 70
   160
  1
a
 71
     5
 42
45.0
  3
INABA_S40G
100
AcDbAlignedDimension
 13
10858.6
 23
7557.513207084728
 33
0.0
 14
10903.6
 24
8303.272833626811
 34
0.0
100
AcDbRotatedDimension
1001
ACAD
1000
DSTYLE
1002
{
1070
   341
1005
0
1002
}
  0
DIMENSION
  5
26F7E
330
747D
100
AcDbEntity
  8
寸法
 48
50.0
100
AcDbDimension
  2
*D30
 10
5588.6
 20
8515.733529143647
 30
0.0
 11
5272.425378797541
 21
8515.733529143647
 31
0.0
 70
   160
  1
a
 71
     5
 42
44.99999999999181
  3
INABA_S40G
100
AcDbAlignedDimension
 13
5543.600000000008
 23
8303.272833626811
 33
0.0
 14
5588.6
 24
7557.513207084728
 34
0.0
100
AcDbRotatedDimension
1001
ACAD
1000
DSTYLE
1002
{
1070
   341
1005
0
1002
}
  0
DIMENSION
  5
2701E
330
747D
100
AcDbEntity
  8
寸法
 48
50.0
100
AcDbDimension
  2
*D31
 10
6309.18320630424
 20
5877.513207084732
 30
0.0
 11
6309.183206304238
 21
5443.818265880823
 31
0.0
 70
   160
 71
     5
 42
195.0000000000164
  3
INABA_S40G
100
AcDbAlignedDimension
 13
6041.6
 23
5682.513207084717
 33
0.0
 14
6037.852606370587
 24
5877.513207084733
 34
0.0
 50
90.0
100
AcDbRotatedDimension
1001
ACAD
1000
DSTYLE
1002
{
1070
   341
1005
0
1002
}
  0
TEXT
  5
27701
330
747D
100
AcDbEntity
  8
寸法
 62
     7
100
AcDbText
 10
6414.250754363519
 20
4427.080931686514
 30
0.0
 40
120.0
  1
扉の位置に合わせた基礎形状として下さい。
  7
STYLE1
100
AcDbText
  0
LWPOLYLINE
  5
27702
330
747D
100
AcDbEntity
  8
寸法
 48
50.0
100
AcDbPolyline
 90
        3
 70
     0
 43
0.0
 10
-6638.645259673137
 20
5682.513207084722
 10
-6297.634795170766
 20
4576.416747021521
 10
-9111.699208102409
 20
4576.416747021521
210
0.0
220
0.0
230
-1.0
1001
ACAD
1000
DSTYLE
1002
{
1070
   341
1005
0
1070
    40
1040
1.0
1070
   343
1005
0
1070
   344
1005
0
1002
}
  0
SOLID
  5
27703
330
747D
100
AcDbEntity
  8
寸法
 48
50.0
100
AcDbTrace
 10
-6621.736054003149
 20
5556.922178179836
 30
0.0
 11
-6638.645259673137
 21
5682.513207084722
 31
0.0
 12
-6581.917839529673
 22
5569.194949148744
 32
0.0
 13
-6581.917839529673
 23
5569.194949148744
 33
0.0
210
0.0
220
0.0
230
-1.0
1001
ACAD
1000
DSTYLE
1002
{
1070
   341
1005
0
1070
    40
1040
1.0
1070
   343
1005
0
1070
   344
1005
0
1002
}
  0
TEXT
  5
27704
330
747D
100
AcDbEntity
  8
寸法
 62
     7
100
AcDbText
 10
6414.250754363519
 20
4598.684694569839
 30
0.0
 40
120.0
  1
扉位置 (2155x75)
  7
STYLE1
100
AcDbText
  0
LINE
  5
279E8
330
747D
100
AcDbEntity
  8
想像線
 48
10.0
100
AcDbLine
 10
9649.1521874092
 20
7632.513207084729
 30
0.0
 11
10903.6
 21
7632.513207084729
 31
0.0
  0
LINE
  5
279E9
330
747D
100
AcDbEntity
  8
想像線
 48
10.0
100
AcDbLine
 10
9649.1521874092
 20
5702.513207084749
 30
0.0
 11
10903.6
 21
5702.513207084749
 31
0.0
  0
DIMENSION
  5
279EA
330
747D
100
AcDbEntity
  8
寸法
 48
50.0
100
AcDbDimension
  2
*D32
 10
6041.6
 20
5197.668192742538
 30
0.0
 11
7119.1
 21
5297.68000376616
 31
0.0
 70
    32
  1
扉の幅 <>
 71
     5
 42
2155.0
  3
INABA_S40G
100
AcDbAlignedDimension
 13
8196.600000000001
 23
5682.513207084731
 33
0.0
 14
6041.6
 24
5682.513207084717
 34
0.0
100
AcDbRotatedDimension
1001
ACAD
1000
DSTYLE
1002
{
1070
   341
1005
0
1002
}
  0
LINE
  5
27B96
330
747D
100
AcDbEntity
  8
細線
100
AcDbLine
 10
9880.628755923623
 20
1665.700188709081
 30
0.0
 11
9637.337088827642
 21
1908.99185580506
 31
0.0
  0
LINE
  5
27B97
330
747D
100
AcDbEntity
  8
細線
100
AcDbLine
 10
9816.98914561683
 20
1665.700188709081
 30
0.0
 11
9637.337088827642
 21
1845.35224549827
 31
0.0
  0
LINE
  5
27B98
330
747D
100
AcDbEntity
  8
部品1
100
AcDbLine
 10
9637.337088827642
 20
1965.700188709081
 30
0.0
 11
10237.33708882764
 21
1965.700188709081
 31
0.0
  0
LINE
  5
27B99
330
747D
100
AcDbEntity
  8
細線
100
AcDbLine
 10
9628.632581951798
 20
1551.076544142393
 30
0.0
 11
9743.256226518489
 21
1665.70018870908
 31
0.0
  0
LWPOLYLINE
  5
27B9A
330
747D
100
AcDbEntity
  8
部品1
 48
50.0
100
AcDbPolyline
 90
        2
 70
     0
 43
15.0
 10
9156.573011202155
 20
1665.700188709081
 10
10657.93839011669
 20
1665.700188709081
  0
LINE
  5
27B9B
330
747D
100
AcDbEntity
  8
部品1
100
AcDbLine
 10
9487.337088827638
 20
1551.076544142393
 30
0.0
 11
10387.33708882764
 21
1551.076544142396
 31
0.0
  0
LINE
  5
27B9C
330
747D
100
AcDbEntity
  8
部品1
100
AcDbLine
 10
9487.337088827638
 20
1391.07654414239
 30
0.0
 11
10387.33708882764
 21
1391.076544142394
 31
0.0
  0
LINE
  5
27B9D
330
747D
100
AcDbEntity
  8
部品1
100
AcDbLine
 10
4081.373320548745
 20
357.8452140754493
 30
0.0
 11
10977.84801664678
 21
357.8452140754493
 31
0.0
  0
LINE
  5
27B9E
330
747D
100
AcDbEntity
  8
部品1
100
AcDbLine
 10
10977.84801664678
 20
3316.914713430137
 30
0.0
 11
4081.373320548745
 21
3316.914713430137
 31
0.0
  0
LINE
  5
27B9F
330
747D
100
AcDbEntity
  8
部品1
100
AcDbLine
 10
10977.84801664678
 20
3616.914713430138
 30
0.0
 11
4081.373320548745
 21
3616.914713430137
 31
0.0
  0
LEADER
  5
27BA0
330
747D
100
AcDbEntity
  8
寸法
 48
50.0
100
AcDbLeader
  3
INABA_S40G
 73
     0
 75
     1
 40
141.4772727272727
 41
760.7954545454546
 76
     3
 10
7562.894091244583
 20
1902.59478040693
 30
0.0
 10
7348.139305380401
 20
2958.068633352529
 30
0.0
 10
7248.139305380401
 20
2958.068633352529
 30
0.0
340
27BA1
1001
ACAD
1000
DSTYLE
1002
{
1070
   341
1005
0
1002
}
  0
MTEXT
  5
27BA1
102
{ACAD_REACTORS
330
27BA0
102
}
330
747D
100
AcDbEntity
  8
寸法
 62
     7
 48
50.0
100
AcDbMText
 10
7208.139305380401
 20
3068.807269716165
 30
0.0
 40
100.0
 41
1.0
 71
     6
 72
     1
  1
\A1;φ70スリーブ
  7
STYLE2
 73
     1
 44
1.0
1001
ACAD
1000
MTEXTBEGIN
1070
    73
1070
     1
1070
    44
1040
1.0
1070
    74
1070
     0
1000
MTEXTEND
  0
LINE
  5
27BA2
330
747D
100
AcDbEntity
  8
部品1
100
AcDbLine
 10
4081.373320548751
 20
3616.914713430137
 30
0.0
 11
4081.373320548751
 21
357.8452140754493
 31
0.0
  0
DIMENSION
  5
27BA3
330
747D
100
AcDbEntity
  8
寸法
 48
50.0
100
AcDbDimension
  2
*D33
 10
5200.174012100529
 20
2490.284948604557
 30
0.0
 11
5320.174012100528
 21
2490.284948604557
 31
0.0
 70
   160
  1
120\P(195)
 71
     5
 42
239.9999999999973
  3
INABA_S40G
100
AcDbAlignedDimension
 13
5440.174012100527
 23
1965.700188709081
 33
0.0
 14
5200.174012100529
 24
1965.700188709081
 34
0.0
100
AcDbRotatedDimension
1001
ACAD
1000
DSTYLE
1002
{
1070
   341
1005
0
1002
}
  0
LEADER
  5
27BA4
330
747D
100
AcDbEntity
  8
寸法
 48
50.0
100
AcDbLeader
  3
INABA_S40G
 73
     0
 74
     0
 75
     1
 40
127.8409090909091
 41
1133.522727272727
 76
     3
 10
7651.973153572021
 20
2302.104299264431
 30
0.0
 10
7751.812641533073
 20
2737.398950522702
 30
0.0
 10
7851.812641533072
 20
2737.398950522702
 30
0.0
340
27BA5
1001
ACAD
1000
DSTYLE
1002
{
1070
   341
1005
0
1002
}
  0
MTEXT
  5
27BA5
102
{ACAD_REACTORS
330
27BA4
102
}
330
747D
100
AcDbEntity
  8
部品1
 62
     7
 48
50.0
100
AcDbMText
 10
7891.812641533073
 20
2841.319405068157
 30
0.0
 40
100.0
 41
1.0
 71
     4
 72
     1
  1
\A1;ワッシャー(市販品)
  7
STYLE2
 73
     1
 44
1.0
1001
ACAD
1000
MTEXTBEGIN
1070
    73
1070
     1
1070
    44
1040
1.0
1070
    74
1070
     0
1000
MTEXTEND
  0
LEADER
  5
27BA6
330
747D
100
AcDbEntity
  8
寸法
 48
50.0
100
AcDbLeader
  3
INABA_S40G
 73
     0
 74
     0
 75
     1
 40
127.8409090909091
 41
850.0
 76
     3
 10
7621.973153572023
 20
2464.294290095511
 30
0.0
 10
7712.415617463719
 20
2968.610303978687
 30
0.0
 10
7812.415617463719
 20
2968.610303978687
 30
0.0
340
27BA7
1001
ACAD
1000
DSTYLE
1002
{
1070
   341
1005
0
1002
}
  0
MTEXT
  5
27BA7
102
{ACAD_REACTORS
330
27BA6
102
}
330
747D
100
AcDbEntity
  8
部品1
 62
     7
 48
50.0
100
AcDbMText
 10
7852.415617463719
 20
3072.530758524142
 30
0.0
 40
100.0
 41
1.0
 71
     4
 72
     1
  1
\A1;ナット(市販品)
  7
STYLE2
 73
     1
 44
1.0
1001
ACAD
1000
MTEXTBEGIN
1070
    73
1070
     1
1070
    44
1040
1.0
1070
    74
1070
     0
1000
MTEXTEND
  0
MTEXT
  5
27BA8
102
{ACAD_REACTORS
330
27BA9
102
}
330
747D
100
AcDbEntity
  8
寸法
 62
     7
 48
50.0
100
AcDbMText
 10
7241.443063140849
 20
2617.95192983177
 30
0.0
 40
100.0
 41
1.0
 71
     6
 72
     1
  1
アンカープレート {\fArial|b0|i0|c0|p32;U}
  7
STYLE2
 73
     1
 44
1.0
1001
ACAD
1000
MTEXTBEGIN
1070
    73
1070
     1
1070
    44
1040
1.0
1070
    74
1070
     0
1000
MTEXTEND
  0
LEADER
  5
27BA9
330
747D
100
AcDbEntity
  8
寸法
 48
50.0
100
AcDbLeader
  3
INABA_S40G
 73
     0
 75
     1
 40
132.9545454545455
 41
1129.404378023068
 76
     3
 10
7489.473153572021
 20
2052.650188709083
 30
0.0
 10
7381.443063140849
 20
2511.474657104497
 30
0.0
 10
7281.44306314085
 20
2511.474657104497
 30
0.0
340
27BA8
1001
ACAD
1000
DSTYLE
1002
{
1070
   341
1005
0
1002
}
  0
TEXT
  5
27BAA
330
747D
100
AcDbEntity
  8
部品1
 48
50.0
100
AcDbText
 10
4682.499134809332
 20
1679.74892906315
 30
0.0
 40
100.0
  1
▽G.L
  7
STYLE2
100
AcDbText
  0
LWPOLYLINE
  5
27BAB
330
747D
100
AcDbEntity
  8
部品1
 48
50.0
100
AcDbPolyline
 90
        2
 70
     0
 43
10.0
 10
4682.499134809332
 20
1665.700188709083
 10
5200.174012100529
 20
1665.700188709083
  0
DIMENSION
  5
27BAC
330
747D
100
AcDbEntity
  8
寸法
 48
50.0
100
AcDbDimension
  2
*D34
 10
4862.148619934955
 20
985.7001887090804
 30
0.0
 11
4862.148619934955
 21
1135.70018870908
 31
0.0
 70
   160
  1
150
 71
     5
 42
299.9999999999996
  3
INABA_S40G
100
AcDbAlignedDimension
 13
5040.174012100529
 23
1285.70018870908
 33
0.0
 14
4940.174012100533
 24
985.7001887090804
 34
0.0
 50
90.0
100
AcDbRotatedDimension
1001
ACAD
1000
DSTYLE
1002
{
1070
   341
1005
0
1002
}
  0
DIMENSION
  5
27BAD
330
747D
100
AcDbEntity
  8
寸法
 48
50.0
100
AcDbDimension
  2
*D35
 10
4439.529074064465
 20
985.7001887090804
 30
0.0
 11
4439.529074064465
 21
1475.700188709081
 31
0.0
 70
   160
  1
540
 71
     5
 42
980.0000000000007
  3
INABA_S40G
100
AcDbAlignedDimension
 13
5200.174012100529
 23
1965.700188709081
 33
0.0
 14
4940.174012100533
 24
985.7001887090804
 34
0.0
 50
90.0
100
AcDbRotatedDimension
1001
ACAD
1000
DSTYLE
1002
{
1070
   341
1005
0
1002
}
  0
MTEXT
  5
27BAE
102
{ACAD_REACTORS
330
27BAF
102
}
330
747D
100
AcDbEntity
  8
寸法
 62
     7
 48
50.0
100
AcDbMText
 10
5116.256012182248
 20
2231.345463711635
 30
0.0
 40
100.0
 41
1.0
 71
     6
 72
     1
  1
\A1;金コテ押エ
  7
STYLE2
 73
     1
 44
1.0
1001
ACAD
1000
MTEXTBEGIN
1070
    73
1070
     1
1070
    44
1040
1.0
1070
    74
1070
     0
1000
MTEXTEND
  0
LEADER
  5
27BAF
330
747D
100
AcDbEntity
  8
寸法
 48
50.0
100
AcDbLeader
  3
INABA_S40G
 71
     0
 73
     0
 75
     1
 40
130.1136363636363
 41
651.1363636363636
 76
     3
 10
5300.17401210053
 20
1965.700188709081
 30
0.0
 10
5241.256012182247
 20
2141.288645529815
 30
0.0
 10
5141.256012182246
 20
2141.288645529815
 30
0.0
1001
ACAD
1000
DSTYLE
1002
{
1070
   341
1005
0
1002
}
  0
LEADER
  5
27BB0
330
747D
100
AcDbEntity
  8
寸法
 48
50.0
100
AcDbLeader
  3
INABA_S40G
 71
     0
 73
     0
 75
     1
 40
100.0
 41
540.3409090909091
 76
     3
 10
5330.174012100531
 20
1663.359207080484
 30
0.0
 10
5201.446216439656
 20
1386.521296404479
 30
0.0
 10
5101.446216439655
 20
1386.521296404479
 30
0.0
213
-12.16522788236671
223
-5.804645826423211
233
0.0
1001
ACAD
1000
DSTYLE
1002
{
1070
   341
1005
0
1002
}
  0
MTEXT
  5
27BB1
102
{ACAD_REACTORS
330
27BB0
102
}
330
747D
100
AcDbEntity
  8
寸法
 62
     7
 48
50.0
100
AcDbMText
 10
5088.611444322022
 20
1467.325942230901
 30
0.0
 40
100.0
 41
1.0
 71
     6
 72
     1
  1
\A1;D10@300
  7
STYLE2
 73
     1
 44
1.0
1001
ACAD
1000
MTEXTBEGIN
1070
    73
1070
     1
1070
    44
1040
1.0
1070
    74
1070
     0
1000
MTEXTEND
  0
MTEXT
  5
27BB2
102
{ACAD_REACTORS
330
27BB3
102
}
330
747D
100
AcDbEntity
  8
寸法
 62
     7
 48
50.0
100
AcDbMText
 10
4861.658638803329
 20
655.9016310117317
 30
0.0
 40
100.0
 41
1.0
 71
     6
 72
     1
  1
D13
  7
STYLE2
 73
     1
 44
1.0
1001
ACAD
1000
MTEXTBEGIN
1070
    73
1070
     1
1070
    44
1040
1.0
1070
    74
1070
     0
1000
MTEXTEND
  0
LEADER
  5
27BB3
330
747D
100
AcDbEntity
  8
寸法
 48
50.0
100
AcDbLeader
  3
INABA_S40G
 71
     0
 73
     0
 75
     1
 40
100.0
 41
222.7272727272727
 76
     3
 10
5320.17401210053
 20
1135.70018870908
 30
0.0
 10
4986.658638803329
 20
580.9016310117317
 30
0.0
 10
4886.658638803329
 20
580.9016310117317
 30
0.0
1001
ACAD
1000
DSTYLE
1002
{
1070
   341
1005
0
1002
}
  0
LEADER
  5
27BB4
330
747D
100
AcDbEntity
  8
寸法
 48
50.0
100
AcDbLeader
  3
INABA_S40G
 71
     0
 73
     0
 75
     1
 40
100.0
 41
225.0
 76
     3
 10
5160.052702540708
 20
1135.70018870908
 30
0.0
 10
4951.505229356536
 20
806.2968216860356
 30
0.0
 10
4851.505229356536
 20
806.2968216860356
 30
0.0
1001
ACAD
1000
DSTYLE
1002
{
1070
   341
1005
0
1002
}
  0
MTEXT
  5
27BB5
102
{ACAD_REACTORS
330
27BB4
102
}
330
747D
100
AcDbEntity
  8
寸法
 62
     7
 48
50.0
100
AcDbMText
 10
4826.505229356537
 20
881.2968216860356
 30
0.0
 40
100.0
 41
1.0
 71
     6
 72
     1
  1
D10
  7
STYLE2
 73
     1
 44
1.0
1001
ACAD
1000
MTEXTBEGIN
1070
    73
1070
     1
1070
    44
1040
1.0
1070
    74
1070
     0
1000
MTEXTEND
  0
LINE
  5
27BB6
330
747D
100
AcDbEntity
  8
部品1
 48
50.0
100
AcDbLine
 10
5440.174012100531
 20
1965.700188709081
 30
0.0
 11
5440.174012100531
 21
1285.70018870908
 31
0.0
  0
LINE
  5
27BB7
330
747D
100
AcDbEntity
  8
細線
 48
50.0
100
AcDbLine
 10
5200.174012100529
 20
1344.258620911794
 30
0.0
 11
5330.174012100536
 21
1474.258620911794
 31
0.0
  0
LINE
  5
27BB8
330
747D
100
AcDbEntity
  8
細線
 48
50.0
100
AcDbLine
 10
5200.174012100529
 20
1411.610541819813
 30
0.0
 11
5330.174012100531
 21
1541.610541819813
 31
0.0
  0
LINE
  5
27BB9
330
747D
100
AcDbEntity
  8
細線
 48
50.0
100
AcDbLine
 10
5200.174012100529
 20
1377.934581365803
 30
0.0
 11
5330.174012100536
 21
1507.934581365807
 31
0.0
  0
LINE
  5
27BBA
330
747D
100
AcDbEntity
  8
部品1
 48
50.0
100
AcDbLine
 10
5200.174012100529
 20
1285.70018870908
 30
0.0
 11
5200.174012100529
 21
1965.700188709081
 31
0.0
  0
LINE
  5
27BBB
330
747D
100
AcDbEntity
  8
部品1
 48
50.0
100
AcDbLine
 10
5330.174012100536
 20
1135.70018870908
 30
0.0
 11
5330.174012100522
 21
1791.018225451887
 31
0.0
  0
LINE
  5
27BBC
330
747D
100
AcDbEntity
  8
部品1
 48
50.0
100
AcDbLine
 10
5350.174012100537
 20
1135.70018870908
 30
0.0
 11
5350.17401210053
 21
1791.018225451887
 31
0.0
  0
LINE
  5
27BBD
330
747D
100
AcDbEntity
  8
部品1
 48
50.0
100
AcDbLine
 10
5440.174012100531
 20
1285.70018870908
 30
0.0
 11
5600.174012100529
 21
1285.70018870908
 31
0.0
  0
LINE
  5
27BBE
330
747D
100
AcDbEntity
  8
細線
 48
50.0
100
AcDbLine
 10
5486.754986707961
 20
1125.70018870908
 30
0.0
 11
5600.174012100529
 21
1239.119214101654
 31
0.0
  0
LINE
  5
27BBF
330
747D
100
AcDbEntity
  8
細線
 48
50.0
100
AcDbLine
 10
5520.430947161965
 20
1125.70018870908
 30
0.0
 11
5600.174012100529
 21
1205.443253647645
 31
0.0
  0
LINE
  5
27BC0
330
747D
100
AcDbEntity
  8
細線
 48
50.0
100
AcDbLine
 10
5453.079026253938
 20
1125.70018870908
 30
0.0
 11
5600.174012100529
 21
1272.795174555663
 31
0.0
  0
LEADER
  5
27BC1
330
747D
100
AcDbEntity
  8
寸法
 48
50.0
100
AcDbLeader
  3
INABA_S40G
 71
     0
 73
     0
 74
     0
 75
     1
 40
100.0
 41
225.0
 76
     3
 10
5480.052702540708
 20
1135.70018870908
 30
0.0
 10
5604.333586858885
 20
1016.453852530365
 30
0.0
 10
5704.333586858886
 20
1016.453852530365
 30
0.0
1001
ACAD
1000
DSTYLE
1002
{
1070
   341
1005
0
1002
}
  0
DIMENSION
  5
27BC2
330
747D
100
AcDbEntity
  8
寸法
 48
50.0
100
AcDbDimension
  2
*D36
 10
5600.174012100529
 20
526.7480822531472
 30
0.0
 11
5320.17401210053
 21
526.7480822531472
 31
0.0
 70
   160
  1
300
 71
     5
 42
559.999999999999
  3
INABA_S40G
100
AcDbAlignedDimension
 13
5040.174012100529
 23
825.7001887090805
 33
0.0
 14
5600.174012100529
 24
825.7001887090805
 34
0.0
100
AcDbRotatedDimension
1001
ACAD
1000
DSTYLE
1002
{
1070
   341
1005
0
1002
}
  0
LEADER
  5
27BC3
330
747D
100
AcDbEntity
  8
寸法
 48
50.0
100
AcDbLeader
  3
INABA_S40G
 71
     0
 73
     0
 74
     0
 75
     1
 40
100.0
 41
540.3409090909091
 76
     3
 10
5412.605473366998
 20
1114.774525692173
 30
0.0
 10
5617.347081927093
 20
687.7360031985525
 30
0.0
 10
5717.347081927092
 20
687.7360031985525
 30
0.0
213
0.0
223
-1.277828345336728
233
0.0
1001
ACAD
1000
DSTYLE
1002
{
1070
   341
1005
0
1002
}
  0
LINE
  5
27BC4
330
747D
100
AcDbEntity
  8
部品1
 48
50.0
100
AcDbLine
 10
5700.174012100532
 20
985.7001887090804
 30
0.0
 11
4940.174012100533
 21
985.7001887090804
 31
0.0
  0
LINE
  5
27BC5
330
747D
100
AcDbEntity
  8
部品1
 48
50.0
100
AcDbLine
 10
5700.174012100532
 20
825.7001887090805
 30
0.0
 11
4940.174012100533
 21
825.7001887090805
 31
0.0
  0
LINE
  5
27BC6
330
747D
100
AcDbEntity
  8
細線
 48
50.0
100
AcDbLine
 10
5493.872673838666
 20
825.7001887090797
 30
0.0
 11
5536.744544627645
 21
985.7001887090795
 31
0.0
  0
LINE
  5
27BC7
330
747D
100
AcDbEntity
  8
細線
 48
50.0
100
AcDbLine
 10
5296.652561470549
 20
825.7001887090805
 30
0.0
 11
5339.524432259525
 21
985.7001887090804
 31
0.0
  0
LINE
  5
27BC8
330
747D
100
AcDbEntity
  8
部品1
 48
50.0
100
AcDbLine
 10
4940.174012100533
 20
825.7001887090805
 30
0.0
 11
4940.174012100533
 21
985.7001887090804
 31
0.0
  0
LINE
  5
27BC9
330
747D
100
AcDbEntity
  8
細線
 48
50.0
100
AcDbLine
 10
5000.822392918355
 20
825.7001887090797
 30
0.0
 11
5043.69426370733
 21
985.7001887090795
 31
0.0
  0
LINE
  5
27BCA
330
747D
100
AcDbEntity
  8
細線
 48
50.0
100
AcDbLine
 10
5198.042505286483
 20
825.7001887090797
 30
0.0
 11
5240.914376075462
 21
985.7001887090795
 31
0.0
  0
LINE
  5
27BCB
330
747D
100
AcDbEntity
  8
細線
 48
50.0
100
AcDbLine
 10
5099.432449102422
 20
825.7001887090805
 30
0.0
 11
5142.304319891404
 21
985.7001887090804
 31
0.0
  0
LINE
  5
27BCC
330
747D
100
AcDbEntity
  8
細線
 48
50.0
100
AcDbLine
 10
5395.262617654605
 20
825.7001887090805
 30
0.0
 11
5438.134488443587
 21
985.7001887090795
 31
0.0
  0
LINE
  5
27BCD
330
747D
100
AcDbEntity
  8
細線
 48
50.0
100
AcDbLine
 10
5107.470924875357
 20
855.7001887090805
 30
0.0
 11
5115.509400648292
 21
825.7001887090805
 31
0.0
  0
LINE
  5
27BCE
330
747D
100
AcDbEntity
  8
細線
 48
50.0
100
AcDbLine
 10
5008.860868691293
 20
855.7001887090805
 30
0.0
 11
5016.899344464228
 21
825.7001887090805
 31
0.0
  0
LINE
  5
27BCF
330
747D
100
AcDbEntity
  8
細線
 48
50.0
100
AcDbLine
 10
5304.691037243491
 20
855.7001887090805
 30
0.0
 11
5312.729513016422
 21
825.7001887090805
 31
0.0
  0
LINE
  5
27BD0
330
747D
100
AcDbEntity
  8
細線
 48
50.0
100
AcDbLine
 10
5206.080981059425
 20
855.7001887090805
 30
0.0
 11
5214.119456832357
 21
825.7001887090805
 31
0.0
  0
LINE
  5
27BD1
330
747D
100
AcDbEntity
  8
細線
 48
50.0
100
AcDbLine
 10
5501.911149611604
 20
855.7001887090805
 30
0.0
 11
5509.949625384537
 21
825.7001887090805
 31
0.0
  0
LINE
  5
27BD2
330
747D
100
AcDbEntity
  8
細線
 48
50.0
100
AcDbLine
 10
5403.301093427547
 20
855.7001887090805
 30
0.0
 11
5411.339569200478
 21
825.7001887090805
 31
0.0
  0
LINE
  5
27BD3
330
747D
100
AcDbEntity
  8
部品1
 48
50.0
100
AcDbLine
 10
5040.174012100529
 20
1285.70018870908
 30
0.0
 11
5200.174012100529
 21
1285.70018870908
 31
0.0
  0
LINE
  5
27BD4
330
747D
100
AcDbEntity
  8
細線
 48
50.0
100
AcDbLine
 10
5043.671342621872
 20
985.7001887090804
 30
0.0
 11
5163.671342621872
 21
1105.70018870908
 31
0.0
  0
LINE
  5
27BD5
330
747D
100
AcDbEntity
  8
細線
 48
50.0
100
AcDbLine
 10
5077.347303075885
 20
985.7001887090804
 30
0.0
 11
5197.347303075885
 21
1105.70018870908
 31
0.0
  0
CIRCLE
  5
27BD6
330
747D
100
AcDbEntity
  8
部品1
 48
50.0
100
AcDbCircle
 10
5160.174012100529
 20
1135.70018870908
 30
0.0
 40
10.0
  0
LINE
  5
27BD7
330
747D
100
AcDbEntity
  8
細線
 48
50.0
100
AcDbLine
 10
5111.02326352989
 20
985.7001887090804
 30
0.0
 11
5231.02326352989
 21
1105.70018870908
 31
0.0
  0
LINE
  5
27BD8
330
747D
100
AcDbEntity
  8
部品1
 48
50.0
100
AcDbLine
 10
5110.17401210053
 20
1125.70018870908
 30
0.0
 11
5530.17401210053
 21
1125.70018870908
 31
0.0
  0
LINE
  5
27BD9
330
747D
100
AcDbEntity
  8
部品1
 48
50.0
100
AcDbLine
 10
5110.17401210053
 20
1105.70018870908
 30
0.0
 11
5530.17401210053
 21
1105.70018870908
 31
0.0
  0
LINE
  5
27BDA
330
747D
100
AcDbEntity
  8
部品1
 48
50.0
100
AcDbLine
 10
5040.174012100529
 20
985.7001887090804
 30
0.0
 11
5040.174012100529
 21
1285.70018870908
 31
0.0
  0
LINE
  5
27BDB
330
747D
100
AcDbEntity
  8
細線
 48
50.0
100
AcDbLine
 10
4940.17401210053
 20
967.3750899163056
 30
0.0
 11
4945.084207523274
 21
985.7001887090804
 31
0.0
  0
LINE
  5
27BDC
330
747D
100
AcDbEntity
  8
細線
 48
50.0
100
AcDbLine
 10
5035.655787934405
 20
955.7001887090818
 30
0.0
 11
5027.617312161472
 21
985.7001887090804
 31
0.0
  0
LINE
  5
27BDD
330
747D
100
AcDbEntity
  8
細線
 48
50.0
100
AcDbLine
 10
5134.26584411847
 20
955.7001887090818
 30
0.0
 11
5126.227368345537
 21
985.7001887090804
 31
0.0
  0
LINE
  5
27BDE
330
747D
100
AcDbEntity
  8
部品1
 48
50.0
100
AcDbLine
 10
5110.17401210053
 20
1125.70018870908
 30
0.0
 11
5110.17401210053
 21
1105.70018870908
 31
0.0
  0
LINE
  5
27BDF
330
747D
100
AcDbEntity
  8
細線
 48
50.0
100
AcDbLine
 10
5040.174012100522
 20
1184.258620911794
 30
0.0
 11
5141.615579897816
 21
1285.70018870908
 31
0.0
  0
LINE
  5
27BE0
330
747D
100
AcDbEntity
  8
細線
 48
50.0
100
AcDbLine
 10
5040.174012100522
 20
1251.610541819813
 30
0.0
 11
5074.263658989798
 21
1285.70018870908
 31
0.0
  0
LINE
  5
27BE1
330
747D
100
AcDbEntity
  8
細線
 48
50.0
100
AcDbLine
 10
5040.174012100522
 20
1217.9345813658
 30
0.0
 11
5107.93961944381
 21
1285.70018870908
 31
0.0
  0
LINE
  5
27BE2
330
747D
100
AcDbEntity
  8
部品1
 48
50.0
100
AcDbLine
 10
5310.174012100528
 20
1208.359207080484
 30
0.0
 11
5310.174012100528
 21
1135.70018870908
 31
0.0
  0
LINE
  5
27BE3
330
747D
100
AcDbEntity
  8
細線
 48
50.0
100
AcDbLine
 10
5217.347303075885
 20
1125.70018870908
 30
0.0
 11
5290.174012100529
 21
1198.52689773373
 31
0.0
  0
LINE
  5
27BE4
330
747D
100
AcDbEntity
  8
部品1
 48
50.0
100
AcDbLine
 10
5290.174012100529
 20
1208.359207080484
 30
0.0
 11
5290.174012100529
 21
1135.70018870908
 31
0.0
  0
LINE
  5
27BE5
330
747D
100
AcDbEntity
  8
細線
 48
50.0
100
AcDbLine
 10
5251.023263529891
 20
1125.70018870908
 30
0.0
 11
5290.174012100529
 21
1164.85093727972
 31
0.0
  0
LINE
  5
27BE6
330
747D
100
AcDbEntity
  8
細線
 48
50.0
100
AcDbLine
 10
5183.671342621872
 20
1125.70018870908
 30
0.0
 11
5330.174012100531
 21
1272.202858187738
 31
0.0
  0
LINE
  5
27BE7
330
747D
100
AcDbEntity
  8
細線
 48
50.0
100
AcDbLine
 10
5313.079026253944
 20
985.7001887090804
 30
0.0
 11
5433.079026253945
 21
1105.70018870908
 31
0.0
  0
LINE
  5
27BE8
330
747D
100
AcDbEntity
  8
細線
 48
50.0
100
AcDbLine
 10
5346.75498670796
 20
985.7001887090804
 30
0.0
 11
5466.754986707957
 21
1105.70018870908
 31
0.0
  0
CIRCLE
  5
27BE9
330
747D
100
AcDbEntity
  8
部品1
 48
50.0
100
AcDbCircle
 10
5320.17401210053
 20
1135.70018870908
 30
0.0
 40
10.0
  0
LINE
  5
27BEA
330
747D
100
AcDbEntity
  8
細線
 48
50.0
100
AcDbLine
 10
5232.875900302534
 20
955.7001887090818
 30
0.0
 11
5224.837424529601
 21
985.7001887090804
 31
0.0
  0
ARC
  5
27BEB
330
747D
100
AcDbEntity
  8
部品1
 48
50.0
100
AcDbCircle
 10
5320.17401210053
 20
1135.70018870908
 30
0.0
 40
30.0
100
AcDbArc
 50
180.0
 51
199.4712206345291
  0
LINE
  5
27BEC
330
747D
100
AcDbEntity
  8
細線
 48
50.0
100
AcDbLine
 10
5331.4859564866
 20
955.7001887090818
 30
0.0
 11
5323.447480713667
 21
985.7001887090804
 31
0.0
  0
ARC
  5
27BED
330
747D
100
AcDbEntity
  8
部品1
 48
50.0
100
AcDbCircle
 10
5320.17401210053
 20
1135.70018870908
 30
0.0
 40
30.0
100
AcDbArc
 50
340.5287793654709
 51
0.0
  0
LINE
  5
27BEE
330
747D
100
AcDbEntity
  8
細線
 48
50.0
100
AcDbLine
 10
5430.096012670658
 20
955.7001887090818
 30
0.0
 11
5422.057536897725
 21
985.7001887090804
 31
0.0
  0
CIRCLE
  5
27BEF
330
747D
100
AcDbEntity
  8
部品1
 48
50.0
100
AcDbCircle
 10
5480.174012100532
 20
1135.70018870908
 30
0.0
 40
10.0
  0
LINE
  5
27BF0
330
747D
100
AcDbEntity
  8
細線
 48
50.0
100
AcDbLine
 10
5528.706068854714
 20
955.7001887090818
 30
0.0
 11
5520.667593081782
 21
985.7001887090804
 31
0.0
  0
LINE
  5
27BF1
330
747D
100
AcDbEntity
  8
部品1
 48
50.0
100
AcDbLine
 10
5530.17401210053
 20
1125.70018870908
 30
0.0
 11
5530.17401210053
 21
1105.70018870908
 31
0.0
  0
LINE
  5
27BF2
330
747D
100
AcDbEntity
  8
細線
 48
50.0
100
AcDbLine
 10
5380.430947161965
 20
985.7001887090804
 30
0.0
 11
5500.432056968385
 21
1105.701298515505
 31
0.0
  0
LINE
  5
27BF3
330
747D
100
AcDbEntity
  8
細線
 48
50.0
100
AcDbLine
 10
5350.174012100537
 20
1224.850937279719
 30
0.0
 11
5440.174012100523
 21
1314.850937279719
 31
0.0
  0
LINE
  5
27BF4
330
747D
100
AcDbEntity
  8
細線
 48
50.0
100
AcDbLine
 10
5350.174012100537
 20
1292.202858187743
 30
0.0
 11
5440.174012100523
 21
1382.202858187738
 31
0.0
  0
LINE
  5
27BF5
330
747D
100
AcDbEntity
  8
細線
 48
50.0
100
AcDbLine
 10
5350.174012100537
 20
1258.526897733733
 30
0.0
 11
5440.174012100523
 21
1348.526897733725
 31
0.0
  0
LINE
  5
27BF6
330
747D
100
AcDbEntity
  8
細線
 48
50.0
100
AcDbLine
 10
5310.174012100528
 20
1184.850937279719
 30
0.0
 11
5330.174012100536
 21
1204.85093727972
 31
0.0
  0
LINE
  5
27BF7
330
747D
100
AcDbEntity
  8
細線
 48
50.0
100
AcDbLine
 10
5300.006321447284
 20
1208.359207080484
 30
0.0
 11
5330.174012100536
 21
1238.526897733733
 31
0.0
  0
LINE
  5
27BF8
330
747D
100
AcDbEntity
  8
部品1
 48
50.0
100
AcDbLine
 10
5310.174012100528
 20
1208.359207080484
 30
0.0
 11
5290.174012100529
 21
1208.359207080484
 31
0.0
  0
LINE
  5
27BF9
330
747D
100
AcDbEntity
  8
細線
 48
50.0
100
AcDbLine
 10
5592.48273002272
 20
825.7001887090805
 30
0.0
 11
5635.354600811703
 21
985.7001887090795
 31
0.0
  0
LINE
  5
27BFA
330
747D
100
AcDbEntity
  8
部品1
 48
50.0
100
AcDbLine
 10
5700.174012100532
 20
985.7001887090804
 30
0.0
 11
5700.174012100532
 21
825.7001887090805
 31
0.0
  0
MTEXT
  5
27BFB
102
{ACAD_REACTORS
330
27BC3
102
}
330
747D
100
AcDbEntity
  8
寸法
 62
     7
 48
50.0
100
AcDbMText
 10
5742.347081927093
 20
764.0138315438893
 30
0.0
 40
100.0
 41
1.0
 71
     4
 72
     1
  1
\A1;D10@300
  7
STYLE2
 73
     1
 44
1.0
1001
ACAD
1000
MTEXTBEGIN
1070
    73
1070
     1
1070
    44
1040
1.0
1070
    74
1070
     0
1000
MTEXTEND
  0
LINE
  5
27BFC
330
747D
100
AcDbEntity
  8
細線
 48
50.0
100
AcDbLine
 10
5691.092786206784
 20
825.7001887090797
 30
0.0
 11
5700.174012100529
 21
859.5917851395665
 31
0.0
  0
LINE
  5
27BFD
330
747D
100
AcDbEntity
  8
細線
 48
50.0
100
AcDbLine
 10
5699.131261979719
 20
855.7001887090805
 30
0.0
 11
5700.174012100529
 21
851.8085922786246
 31
0.0
  0
LINE
  5
27BFE
330
747D
100
AcDbEntity
  8
細線
 48
50.0
100
AcDbLine
 10
5600.521205795661
 20
855.7001887090805
 30
0.0
 11
5608.559681568595
 21
825.7001887090805
 31
0.0
  0
LINE
  5
27BFF
330
747D
100
AcDbEntity
  8
部品1
 48
50.0
100
AcDbLine
 10
5600.174012100529
 20
1285.70018870908
 30
0.0
 11
5600.174012100529
 21
985.7001887090804
 31
0.0
  0
MTEXT
  5
27C00
102
{ACAD_REACTORS
330
27BC1
102
}
330
747D
100
AcDbEntity
  8
寸法
 62
     7
 48
50.0
100
AcDbMText
 10
5729.333586858885
 20
1091.453852530364
 30
0.0
 40
100.0
 41
1.0
 71
     4
 72
     1
  1
D10
  7
STYLE2
 73
     1
 44
1.0
1001
ACAD
1000
MTEXTBEGIN
1070
    73
1070
     1
1070
    44
1040
1.0
1070
    74
1070
     0
1000
MTEXTEND
  0
LINE
  5
27C01
330
747D
100
AcDbEntity
  8
細線
 48
50.0
100
AcDbLine
 10
5582.48670988602
 20
985.7001887090804
 30
0.0
 11
5600.174012100529
 21
1003.387490923589
 31
0.0
  0
LINE
  5
27C02
330
747D
100
AcDbEntity
  8
細線
 48
50.0
100
AcDbLine
 10
5627.316125038775
 20
955.7001887090818
 30
0.0
 11
5619.277649265839
 21
985.7001887090804
 31
0.0
  0
MTEXT
  5
27C03
102
{ACAD_REACTORS
330
27C05
102
}
330
747D
100
AcDbEntity
  8
寸法
 62
     7
 48
50.0
100
AcDbMText
 10
5543.781433384772
 20
1792.28464033274
 30
0.0
 40
100.0
 41
1.0
 71
     4
 72
     1
  1
D13
  7
STYLE2
 73
     1
 44
1.0
1001
ACAD
1000
MTEXTBEGIN
1070
    73
1070
     1
1070
    44
1040
1.0
1070
    74
1070
     0
1000
MTEXTEND
  0
LWPOLYLINE
  5
27C04
330
747D
100
AcDbEntity
  8
部品1
 48
50.0
100
AcDbPolyline
 90
        2
 70
     0
 43
10.0
 10
5440.174012100527
 20
1665.700188709083
 10
5957.848889391726
 20
1665.700188709083
  0
LEADER
  5
27C05
330
747D
100
AcDbEntity
  8
寸法
 48
50.0
100
AcDbLeader
  3
INABA_S40G
 71
     0
 73
     0
 74
     0
 75
     1
 40
100.0
 41
222.7272727272727
 76
     3
 10
5320.17401210053
 20
1791.018225451887
 30
0.0
 10
5418.781433384772
 20
1717.28464033274
 30
0.0
 10
5518.781433384773
 20
1717.28464033274
 30
0.0
1001
ACAD
1000
DSTYLE
1002
{
1070
   341
1005
0
1002
}
  0
LINE
  5
27C06
330
747D
100
AcDbEntity
  8
部品1
 48
50.0
100
AcDbLine
 10
5310.174012100528
 20
1718.359207080484
 30
0.0
 11
5310.174012100528
 21
1791.018225451887
 31
0.0
  0
LINE
  5
27C07
330
747D
100
AcDbEntity
  8
部品1
 48
50.0
100
AcDbLine
 10
5290.174012100529
 20
1718.359207080488
 30
0.0
 11
5290.174012100529
 21
1791.018225451887
 31
0.0
  0
LINE
  5
27C08
330
747D
100
AcDbEntity
  8
細線
 48
50.0
100
AcDbLine
 10
5310.174012100528
 20
1723.666304543869
 30
0.0
 11
5330.174012100531
 21
1743.666304543869
 31
0.0
  0
LINE
  5
27C09
330
747D
100
AcDbEntity
  8
細線
 48
50.0
100
AcDbLine
 10
5200.174012100529
 20
1681.018225451888
 30
0.0
 11
5290.174012100529
 21
1771.018225451888
 31
0.0
  0
LINE
  5
27C0A
330
747D
100
AcDbEntity
  8
細線
 48
50.0
100
AcDbLine
 10
5200.174012100529
 20
1647.342264997879
 30
0.0
 11
5290.174012100529
 21
1737.342264997878
 31
0.0
  0
LINE
  5
27C0B
330
747D
100
AcDbEntity
  8
細線
 48
50.0
100
AcDbLine
 10
5350.174012100537
 20
1527.934581365807
 30
0.0
 11
5440.174012100523
 21
1617.9345813658
 31
0.0
  0
LINE
  5
27C0C
330
747D
100
AcDbEntity
  8
細線
 48
50.0
100
AcDbLine
 10
5350.17401210053
 20
1561.610541819812
 30
0.0
 11
5440.174012100531
 21
1651.610541819813
 31
0.0
  0
LINE
  5
27C0D
330
747D
100
AcDbEntity
  8
細線
 48
50.0
100
AcDbLine
 10
5350.174012100537
 20
1494.258620911794
 30
0.0
 11
5440.174012100523
 21
1584.258620911794
 31
0.0
  0
LINE
  5
27C0E
330
747D
100
AcDbEntity
  8
部品1
 48
50.0
100
AcDbLine
 10
5310.174012100528
 20
1718.359207080484
 30
0.0
 11
5290.174012100529
 21
1718.359207080488
 31
0.0
  0
LINE
  5
27C0F
330
747D
100
AcDbEntity
  8
細線
 48
50.0
100
AcDbLine
 10
5200.174012100529
 20
1613.666304543869
 30
0.0
 11
5304.866914637148
 21
1718.359207080484
 31
0.0
  0
LINE
  5
27C10
330
747D
100
AcDbEntity
  8
部品1
 48
50.0
100
AcDbLine
 10
5200.174012100529
 20
1965.700188709081
 30
0.0
 11
5440.174012100531
 21
1965.700188709081
 31
0.0
  0
LINE
  5
27C11
330
747D
100
AcDbEntity
  8
細線
 48
50.0
100
AcDbLine
 10
5335.789540228617
 20
1816.633753579975
 30
0.0
 11
5440.174012100531
 21
1921.018225451888
 31
0.0
  0
LINE
  5
27C12
330
747D
100
AcDbEntity
  8
細線
 48
50.0
100
AcDbLine
 10
5349.614896183013
 20
1796.783149080358
 30
0.0
 11
5440.174012100531
 21
1887.342264997878
 31
0.0
  0
LINE
  5
27C13
330
747D
100
AcDbEntity
  8
細線
 48
50.0
100
AcDbLine
 10
5350.17401210053
 20
1763.666304543869
 30
0.0
 11
5440.174012100531
 21
1853.666304543869
 31
0.0
  0
LINE
  5
27C14
330
747D
100
AcDbEntity
  8
細線
 48
50.0
100
AcDbLine
 10
5310.174012100528
 20
1757.342264997879
 30
0.0
 11
5330.174012100531
 21
1777.342264997878
 31
0.0
  0
CIRCLE
  5
27C15
330
747D
100
AcDbEntity
  8
部品1
 48
50.0
100
AcDbCircle
 10
5320.17401210053
 20
1791.018225451887
 30
0.0
 40
10.0
  0
ARC
  5
27C16
330
747D
100
AcDbEntity
  8
部品1
 48
50.0
100
AcDbCircle
 10
5320.17401210053
 20
1791.018225451887
 30
0.0
 40
30.0
100
AcDbArc
 50
0.0
 51
180.0
  0
LINE
  5
27C17
330
747D
100
AcDbEntity
  8
細線
 48
50.0
100
AcDbLine
 10
5200.174012100529
 20
1950.425909083962
 30
0.0
 11
5215.448291725648
 21
1965.700188709081
 31
0.0
  0
LINE
  5
27C18
330
747D
100
AcDbEntity
  8
細線
 48
50.0
100
AcDbLine
 10
5200.174012100529
 20
1883.073988175943
 30
0.0
 11
5282.800212633667
 21
1965.700188709081
 31
0.0
  0
LINE
  5
27C19
330
747D
100
AcDbEntity
  8
細線
 48
50.0
100
AcDbLine
 10
5200.174012100529
 20
1916.749948629953
 30
0.0
 11
5249.124252179662
 21
1965.700188709081
 31
0.0
  0
LEADER
  5
27C1A
330
747D
100
AcDbEntity
  8
寸法
 48
50.0
100
AcDbLeader
  3
INABA_S40G
 73
     0
 74
     0
 75
     1
 40
100.0
 41
543.75
 76
     3
 10
7613.223153572021
 20
2027.150188709081
 30
0.0
 10
7713.90373159617
 20
2206.17934640062
 30
0.0
 10
7813.90373159617
 20
2206.17934640062
 30
0.0
340
27C1B
1001
ACAD
1000
DSTYLE
1002
{
1070
   341
1005
0
1002
}
  0
MTEXT
  5
27C1B
102
{ACAD_REACTORS
330
27C1A
102
}
330
747D
100
AcDbEntity
  8
部品1
 62
     7
 48
50.0
100
AcDbMText
 10
7853.903731596171
 20
2296.17934640062
 30
0.0
 40
100.0
 41
1.0
 71
     4
 72
     1
  1
M10X160
  7
STYLE2
 73
     1
 44
1.0
1001
ACAD
1000
MTEXTBEGIN
1070
    73
1070
     1
1070
    44
1040
1.0
1070
    74
1070
     0
1000
MTEXTEND
  0
DIMENSION
  5
27C1C
330
747D
100
AcDbEntity
  8
寸法
 48
50.0
100
AcDbDimension
  2
*D37
 10
8470.058903283076
 20
1560.700188709079
 30
0.0
 11
8370.058903283077
 21
1763.200188709081
 31
0.0
 70
    32
  1
180
 71
     5
 42
405.0000000000022
  3
INABA_S40G
100
AcDbAlignedDimension
 13
7842.723153572021
 23
1965.700188709081
 33
0.0
 14
7842.723153572021
 24
1560.700188709079
 34
0.0
 50
90.0
100
AcDbRotatedDimension
1001
ACAD
1000
DSTYLE
1002
{
1070
   341
1005
0
1002
}
  0
LWPOLYLINE
  5
27C1D
330
747D
100
AcDbEntity
  8
部品1
 48
50.0
100
AcDbPolyline
 90
        2
 70
     0
 43
10.0
 10
7842.723153572021
 20
1665.700188709083
 10
8209.851232821254
 20
1665.700188709083
  0
LINE
  5
27C1E
330
747D
100
AcDbEntity
  8
部品1
 48
50.0
100
AcDbLine
 10
8102.723153572027
 20
985.7001887090804
 30
0.0
 11
7065.223153572026
 21
985.7001887090804
 31
0.0
  0
LINE
  5
27C1F
330
747D
100
AcDbEntity
  8
細線
 48
50.0
100
AcDbLine
 10
8021.40051581933
 20
855.7001887090796
 30
0.0
 11
8029.438991592266
 21
825.7001887090797
 31
0.0
  0
LINE
  5
27C20
330
747D
100
AcDbEntity
  8
部品1
 48
50.0
100
AcDbLine
 10
8102.723153572027
 20
825.7001887090805
 30
0.0
 11
7065.223153572026
 21
825.7001887090805
 31
0.0
  0
LINE
  5
27C21
330
747D
100
AcDbEntity
  8
細線
 48
50.0
100
AcDbLine
 10
8013.362040046388
 20
825.7001887090797
 30
0.0
 11
8056.233910835372
 21
985.7001887090779
 31
0.0
  0
DIMENSION
  5
27C22
330
747D
100
AcDbEntity
  8
寸法
 48
50.0
100
AcDbDimension
  2
*D38
 10
8815.127235931861
 20
1965.700188709081
 30
0.0
 11
8815.127235931861
 21
1499.6912852876
 31
0.0
 70
   160
  1
20～25
 71
     5
 42
65.9500000000005
  3
INABA_S40G
100
AcDbAlignedDimension
 13
7608.723153572021
 23
2031.650188709082
 33
0.0
 14
7842.723153572021
 24
1965.700188709081
 34
0.0
 50
90.0
100
AcDbRotatedDimension
1001
ACAD
1000
DSTYLE
1002
{
1070
   341
1005
0
1002
}
  0
TEXT
  5
27C23
330
747D
100
AcDbEntity
  8
部品1
 48
50.0
100
AcDbText
 10
7848.165133927557
 20
2410.548539661832
 30
0.0
 40
100.0
  1
基礎ボルト(市販品)
  7
STYLE2
100
AcDbText
  0
LINE
  5
27C24
330
747D
100
AcDbEntity
  8
細線
 48
50.0
100
AcDbLine
 10
7202.396444547376
 20
985.7001887090804
 30
0.0
 11
7842.723153572025
 21
1626.026897733724
 31
0.0
  0
LINE
  5
27C25
330
747D
100
AcDbEntity
  8
細線
 48
50.0
100
AcDbLine
 10
7236.072405001383
 20
985.7001887090804
 30
0.0
 11
7842.723153572021
 21
1592.350937279716
 31
0.0
  0
LINE
  5
27C26
330
747D
100
AcDbEntity
  8
細線
 48
50.0
100
AcDbLine
 10
7325.223153572022
 20
1411.610541819813
 30
0.0
 11
7523.223153572009
 21
1609.610541819806
 31
0.0
  0
LINE
  5
27C27
330
747D
100
AcDbEntity
  8
細線
 48
50.0
100
AcDbLine
 10
7325.223153572022
 20
1344.258620911794
 30
0.0
 11
7541.664721369317
 21
1560.700188709079
 31
0.0
  0
LINE
  5
27C28
330
747D
100
AcDbEntity
  8
細線
 48
50.0
100
AcDbLine
 10
7325.223153572022
 20
1377.934581365803
 30
0.0
 11
7523.223153572009
 21
1575.934581365789
 31
0.0
  0
LINE
  5
27C29
330
747D
100
AcDbEntity
  8
部品1
 48
50.0
100
AcDbLine
 10
7325.223153572022
 20
1285.70018870908
 30
0.0
 11
7325.223153572022
 21
1965.700188709081
 31
0.0
  0
LINE
  5
27C2A
330
747D
100
AcDbEntity
  8
部品1
100
AcDbLine
 10
7842.723153572021
 20
1285.70018870908
 30
0.0
 11
7842.723153572021
 21
1965.700188709081
 31
0.0
  0
LINE
  5
27C2B
330
747D
100
AcDbEntity
  8
細線
 48
50.0
100
AcDbLine
 10
7168.720484093366
 20
985.7001887090804
 30
0.0
 11
7842.723153572021
 21
1659.702858187737
 31
0.0
  0
LINE
  5
27C2C
330
747D
100
AcDbEntity
  8
部品1
 48
50.0
100
AcDbLine
 10
7165.223153572021
 20
1285.70018870908
 30
0.0
 11
7325.223153572022
 21
1285.70018870908
 31
0.0
  0
LINE
  5
27C2D
330
747D
100
AcDbEntity
  8
細線
 48
50.0
100
AcDbLine
 10
7165.223153572013
 20
1184.258620911794
 30
0.0
 11
7266.664721369308
 21
1285.70018870908
 31
0.0
  0
LINE
  5
27C2E
330
747D
100
AcDbEntity
  8
細線
 48
50.0
100
AcDbLine
 10
7165.223153572013
 20
1217.9345813658
 30
0.0
 11
7232.988760915303
 21
1285.70018870908
 31
0.0
  0
LINE
  5
27C2F
330
747D
100
AcDbEntity
  8
細線
 48
50.0
100
AcDbLine
 10
7125.871534389847
 20
825.7001887090797
 30
0.0
 11
7168.743405178824
 21
985.7001887090795
 31
0.0
  0
LINE
  5
27C30
330
747D
100
AcDbEntity
  8
部品1
 48
50.0
100
AcDbLine
 10
7065.223153572026
 20
825.7001887090805
 30
0.0
 11
7065.223153572026
 21
985.7001887090804
 31
0.0
  0
LINE
  5
27C31
330
747D
100
AcDbEntity
  8
細線
 48
50.0
100
AcDbLine
 10
7133.910010162786
 20
855.7001887090805
 30
0.0
 11
7141.94848593572
 21
825.7001887090805
 31
0.0
  0
LINE
  5
27C32
330
747D
100
AcDbEntity
  8
部品1
 48
50.0
100
AcDbLine
 10
7165.223153572021
 20
985.7001887090804
 30
0.0
 11
7165.223153572021
 21
1285.70018870908
 31
0.0
  0
LINE
  5
27C33
330
747D
100
AcDbEntity
  8
細線
 48
50.0
100
AcDbLine
 10
7160.704929405899
 20
955.7001887090818
 30
0.0
 11
7152.666453632964
 21
985.7001887090804
 31
0.0
  0
LINE
  5
27C34
330
747D
100
AcDbEntity
  8
細線
 48
50.0
100
AcDbLine
 10
7065.223153572022
 20
967.3750899163056
 30
0.0
 11
7070.133348994764
 21
985.7001887090804
 31
0.0
  0
LINE
  5
27C35
330
747D
100
AcDbEntity
  8
細線
 48
50.0
100
AcDbLine
 10
7165.223153572013
 20
1251.610541819813
 30
0.0
 11
7199.31280046129
 21
1285.70018870908
 31
0.0
  0
LINE
  5
27C36
330
747D
100
AcDbEntity
  8
細線
 48
50.0
100
AcDbLine
 10
7323.091646757973
 20
825.7001887090797
 30
0.0
 11
7365.963517546956
 21
985.7001887090795
 31
0.0
  0
LINE
  5
27C37
330
747D
100
AcDbEntity
  8
細線
 48
50.0
100
AcDbLine
 10
7224.481590573917
 20
825.7001887090805
 30
0.0
 11
7267.353461362896
 21
985.7001887090804
 31
0.0
  0
LINE
  5
27C38
330
747D
100
AcDbEntity
  8
細線
 48
50.0
100
AcDbLine
 10
7717.531871494212
 20
825.7001887090805
 30
0.0
 11
7760.403742283195
 21
985.7001887090795
 31
0.0
  0
LINE
  5
27C39
330
747D
100
AcDbEntity
  8
細線
 48
50.0
100
AcDbLine
 10
7520.311759126098
 20
825.7001887090805
 30
0.0
 11
7563.183629915079
 21
985.7001887090795
 31
0.0
  0
LINE
  5
27C3A
330
747D
100
AcDbEntity
  8
細線
 48
50.0
100
AcDbLine
 10
7421.701702942039
 20
825.7001887090805
 30
0.0
 11
7464.57357373102
 21
985.7001887090804
 31
0.0
  0
LINE
  5
27C3B
330
747D
100
AcDbEntity
  8
細線
 48
50.0
100
AcDbLine
 10
7618.921815310158
 20
825.7001887090797
 30
0.0
 11
7661.793686099141
 21
985.7001887090795
 31
0.0
  0
LINE
  5
27C3C
330
747D
100
AcDbEntity
  8
細線
 48
50.0
100
AcDbLine
 10
7914.751983862337
 20
825.7001887090776
 30
0.0
 11
7957.623854651314
 21
985.7001887090779
 31
0.0
  0
LINE
  5
27C3D
330
747D
100
AcDbEntity
  8
細線
 48
50.0
100
AcDbLine
 10
7816.141927678272
 20
825.7001887090797
 30
0.0
 11
7859.013798467242
 21
985.7001887090804
 31
0.0
  0
LINE
  5
27C3E
330
747D
100
AcDbEntity
  8
細線
 48
50.0
100
AcDbLine
 10
7331.130122530915
 20
855.7001887090805
 30
0.0
 11
7339.168598303851
 21
825.7001887090805
 31
0.0
  0
LINE
  5
27C3F
330
747D
100
AcDbEntity
  8
細線
 48
50.0
100
AcDbLine
 10
7232.52006634685
 20
855.7001887090805
 30
0.0
 11
7240.558542119785
 21
825.7001887090805
 31
0.0
  0
LINE
  5
27C40
330
747D
100
AcDbEntity
  8
細線
 48
50.0
100
AcDbLine
 10
7528.350234899038
 20
855.7001887090805
 30
0.0
 11
7536.388710671973
 21
825.7001887090805
 31
0.0
  0
LINE
  5
27C41
330
747D
100
AcDbEntity
  8
細線
 48
50.0
100
AcDbLine
 10
7429.740178714981
 20
855.7001887090805
 30
0.0
 11
7437.778654487914
 21
825.7001887090805
 31
0.0
  0
LINE
  5
27C42
330
747D
100
AcDbEntity
  8
細線
 48
50.0
100
AcDbLine
 10
7725.570347267155
 20
855.7001887090805
 30
0.0
 11
7733.608823040086
 21
825.7001887090805
 31
0.0
  0
LINE
  5
27C43
330
747D
100
AcDbEntity
  8
細線
 48
50.0
100
AcDbLine
 10
7626.960291083094
 20
855.7001887090805
 30
0.0
 11
7634.998766856027
 21
825.7001887090805
 31
0.0
  0
LINE
  5
27C44
330
747D
100
AcDbEntity
  8
細線
 48
50.0
100
AcDbLine
 10
7922.790459635272
 20
855.7001887090796
 30
0.0
 11
7930.828935408205
 21
825.7001887090797
 31
0.0
  0
LINE
  5
27C45
330
747D
100
AcDbEntity
  8
細線
 48
50.0
100
AcDbLine
 10
7824.180403451213
 20
855.7001887090805
 30
0.0
 11
7832.218879224159
 21
825.7001887090805
 31
0.0
  0
LINE
  5
27C46
330
747D
100
AcDbEntity
  8
細線
 48
50.0
100
AcDbLine
 10
7505.48008863346
 20
985.7001887090804
 30
0.0
 11
7842.723153572021
 21
1322.943253647652
 31
0.0
  0
LINE
  5
27C47
330
747D
100
AcDbEntity
  8
細線
 48
50.0
100
AcDbLine
 10
7471.804128179449
 20
985.7001887090804
 30
0.0
 11
7842.723153572021
 21
1356.619214101646
 31
0.0
  0
LINE
  5
27C48
330
747D
100
AcDbEntity
  8
細線
 48
50.0
100
AcDbLine
 10
7438.128167725437
 20
985.7001887090804
 30
0.0
 11
7842.723153572021
 21
1390.295174555663
 31
0.0
  0
LINE
  5
27C49
330
747D
100
AcDbEntity
  8
細線
 48
50.0
100
AcDbLine
 10
7357.925041774028
 20
955.7001887090818
 30
0.0
 11
7349.886566001092
 21
985.7001887090804
 31
0.0
  0
LINE
  5
27C4A
330
747D
100
AcDbEntity
  8
細線
 48
50.0
100
AcDbLine
 10
7259.314985589965
 20
955.7001887090818
 30
0.0
 11
7251.276509817029
 21
985.7001887090804
 31
0.0
  0
LINE
  5
27C4B
330
747D
100
AcDbEntity
  8
細線
 48
50.0
100
AcDbLine
 10
7555.14515414215
 20
955.7001887090818
 30
0.0
 11
7547.106678369218
 21
985.7001887090804
 31
0.0
  0
LINE
  5
27C4C
330
747D
100
AcDbEntity
  8
細線
 48
50.0
100
AcDbLine
 10
7456.535097958091
 20
955.7001887090818
 30
0.0
 11
7448.49662218516
 21
985.7001887090804
 31
0.0
  0
LINE
  5
27C4D
330
747D
100
AcDbEntity
  8
部品1
 48
50.0
100
AcDbLine
 10
8002.723153572022
 20
1285.70018870908
 30
0.0
 11
8002.723153572022
 21
985.7001887090804
 31
0.0
  0
LINE
  5
27C4E
330
747D
100
AcDbEntity
  8
細線
 48
50.0
100
AcDbLine
 10
7774.887772265535
 20
985.7001887090804
 30
0.0
 11
8002.723153572022
 21
1213.535570015576
 31
0.0
  0
LINE
  5
27C4F
330
747D
100
AcDbEntity
  8
細線
 48
50.0
100
AcDbLine
 10
7741.211811811528
 20
985.7001887090804
 30
0.0
 11
8002.723153572022
 21
1247.211530469573
 31
0.0
  0
LINE
  5
27C50
330
747D
100
AcDbEntity
  8
細線
 48
50.0
100
AcDbLine
 10
7707.535851357512
 20
985.7001887090804
 30
0.0
 11
8002.723153572022
 21
1280.88749092359
 31
0.0
  0
LINE
  5
27C51
330
747D
100
AcDbEntity
  8
細線
 48
50.0
100
AcDbLine
 10
7752.365266510263
 20
955.7001887090818
 30
0.0
 11
7744.326790737332
 21
985.7001887090804
 31
0.0
  0
LINE
  5
27C52
330
747D
100
AcDbEntity
  8
細線
 48
50.0
100
AcDbLine
 10
7653.755210326207
 20
955.7001887090818
 30
0.0
 11
7645.716734553278
 21
985.7001887090804
 31
0.0
  0
LINE
  5
27C53
330
747D
100
AcDbEntity
  8
細線
 48
50.0
100
AcDbLine
 10
7949.585378878383
 20
955.7001887090796
 30
0.0
 11
7941.546903105451
 21
985.7001887090795
 31
0.0
  0
LINE
  5
27C54
330
747D
100
AcDbEntity
  8
細線
 48
50.0
100
AcDbLine
 10
7850.975322694309
 20
955.7001887090818
 30
0.0
 11
7842.936846921381
 21
985.7001887090804
 31
0.0
  0
LINE
  5
27C55
330
747D
100
AcDbEntity
  8
部品1
 48
50.0
100
AcDbLine
 10
7842.723153572021
 20
1285.70018870908
 30
0.0
 11
8002.723153572022
 21
1285.70018870908
 31
0.0
  0
LWPOLYLINE
  5
27C56
330
747D
100
AcDbEntity
  8
部品1
 48
50.0
100
AcDbPolyline
 90
        2
 70
     0
 43
10.0
 10
6807.548276280826
 20
1665.700188709083
 10
7325.223153572022
 20
1665.700188709083
  0
TEXT
  5
27C57
330
747D
100
AcDbEntity
  8
部品1
 48
50.0
100
AcDbText
 10
6807.548276280826
 20
1679.74892906315
 30
0.0
 40
100.0
  1
▽G.L
  7
STYLE2
100
AcDbText
  0
LINE
  5
27C58
330
747D
100
AcDbEntity
  8
部品1
100
AcDbLine
 10
7590.723153572023
 20
1684.450188709081
 30
0.0
 11
7590.723153572017
 21
2027.150188709081
 31
0.0
  0
LINE
  5
27C59
330
747D
100
AcDbEntity
  8
部品1
100
AcDbLine
 10
7613.223153572021
 20
1684.450188709081
 30
0.0
 11
7613.223153572018
 21
2027.150188709081
 31
0.0
  0
LINE
  5
27C5A
330
747D
100
AcDbEntity
  8
部品1
100
AcDbLine
 10
7528.048153572024
 20
2049.275188709084
 30
0.0
 11
7528.048153572017
 21
1981.025188709081
 31
0.0
  0
LINE
  5
27C5B
330
747D
100
AcDbEntity
  8
部品1
100
AcDbLine
 10
7513.098153572021
 20
2034.325188709082
 30
0.0
 11
7513.098153572021
 21
1981.025188709081
 31
0.0
  0
LINE
  5
27C5C
330
747D
100
AcDbEntity
  8
細線
100
AcDbLine
 10
7595.223153572027
 20
1977.650188709082
 30
0.0
 11
7595.223153572021
 21
2031.650188709082
 31
0.0
  0
LINE
  5
27C5D
330
747D
100
AcDbEntity
  8
細線
100
AcDbLine
 10
7608.723153572021
 20
1977.650188709082
 30
0.0
 11
7608.723153572021
 21
2031.650188709082
 31
0.0
  0
LINE
  5
27C5E
330
747D
100
AcDbEntity
  8
部品1
100
AcDbLine
 10
7333.098153572023
 20
1981.025188709081
 30
0.0
 11
7333.098153572023
 21
2058.690068337467
 31
0.0
  0
LINE
  5
27C5F
330
747D
100
AcDbEntity
  8
部品1
100
AcDbLine
 10
7613.223153572021
 20
1684.450188709081
 30
0.0
 11
7658.223153572023
 21
1684.450188709081
 31
0.0
  0
LINE
  5
27C60
330
747D
100
AcDbEntity
  8
部品1
100
AcDbLine
 10
7613.223153572021
 20
1661.95018870908
 30
0.0
 11
7658.223153572023
 21
1661.95018870908
 31
0.0
  0
LINE
  5
27C61
330
747D
100
AcDbEntity
  8
部品1
100
AcDbLine
 10
7531.423153572015
 20
1977.650188709082
 30
0.0
 11
7783.098153572017
 21
1977.650188709082
 31
0.0
  0
LINE
  5
27C62
330
747D
100
AcDbEntity
  8
部品1
 48
50.0
100
AcDbLine
 10
7325.223153572022
 20
1965.700188709081
 30
0.0
 11
7842.723153572025
 21
1965.700188709081
 31
0.0
  0
LINE
  5
27C63
330
747D
100
AcDbEntity
  8
部品1
100
AcDbLine
 10
7680.723153572022
 20
1560.700188709079
 30
0.0
 11
7523.223153572017
 21
1560.700188709079
 31
0.0
  0
LINE
  5
27C64
330
747D
100
AcDbEntity
  8
細線
 48
50.0
100
AcDbLine
 10
7325.223153572022
 20
1647.342264997879
 30
0.0
 11
7523.223153572017
 21
1845.342264997875
 31
0.0
  0
LINE
  5
27C65
330
747D
100
AcDbEntity
  8
細線
 48
50.0
100
AcDbLine
 10
7325.223153572022
 20
1681.018225451888
 30
0.0
 11
7523.223153572017
 21
1879.018225451885
 31
0.0
  0
LINE
  5
27C66
330
747D
100
AcDbEntity
  8
部品1
100
AcDbLine
 10
7523.223153572017
 20
1560.70018870908
 30
0.0
 11
7523.223153572022
 21
1965.700188709081
 31
0.0
  0
LINE
  5
27C67
330
747D
100
AcDbEntity
  8
細線
 48
50.0
100
AcDbLine
 10
7325.223153572022
 20
1613.666304543869
 30
0.0
 11
7523.223153572017
 21
1811.666304543861
 31
0.0
  0
ARC
  5
27C68
330
747D
100
AcDbEntity
  8
部品1
100
AcDbCircle
 10
7613.223153572021
 20
1684.450188709081
 30
0.0
 40
22.5
100
AcDbArc
 50
180.0
 51
270.0
  0
LINE
  5
27C69
330
747D
100
AcDbEntity
  8
細線
 48
50.0
100
AcDbLine
 10
7325.223153572022
 20
1883.073988175943
 30
0.0
 11
7407.849354105159
 21
1965.700188709081
 31
0.0
  0
LINE
  5
27C6A
330
747D
100
AcDbEntity
  8
細線
 48
50.0
100
AcDbLine
 10
7325.223153572022
 20
1916.749948629953
 30
0.0
 11
7374.173393651154
 21
1965.700188709081
 31
0.0
  0
LINE
  5
27C6B
330
747D
100
AcDbEntity
  8
部品1
100
AcDbLine
 10
7336.473153572021
 20
1977.650188709082
 30
0.0
 11
7351.098153572016
 21
1977.650188709082
 31
0.0
  0
LINE
  5
27C6C
330
747D
100
AcDbEntity
  8
細線
 48
50.0
100
AcDbLine
 10
7325.223153572022
 20
1950.425909083962
 30
0.0
 11
7340.49743319714
 21
1965.700188709081
 31
0.0
  0
ARC
  5
27C6D
330
747D
100
AcDbEntity
  8
部品1
100
AcDbCircle
 10
7336.473153572021
 20
1981.025188709081
 30
0.0
 40
3.375
100
AcDbArc
 50
180.0
 51
270.0
  0
ARC
  5
27C6E
330
747D
100
AcDbEntity
  8
部品1
100
AcDbCircle
 10
7509.723153572021
 20
1981.025188709081
 30
0.0
 40
3.375
100
AcDbArc
 50
270.0
 51
0.0
  0
ARC
  5
27C6F
330
747D
100
AcDbEntity
  8
部品1
100
AcDbCircle
 10
7531.423153572015
 20
1981.025188709081
 30
0.0
 40
3.375
100
AcDbArc
 50
180.0
 51
270.0
  0
LINE
  5
27C70
330
747D
100
AcDbEntity
  8
部品1
100
AcDbLine
 10
7495.098153572022
 20
1977.650188709082
 30
0.0
 11
7509.723153572021
 21
1977.650188709082
 31
0.0
  0
LINE
  5
27C71
330
747D
100
AcDbEntity
  8
細線
 48
50.0
100
AcDbLine
 10
7680.723153572023
 20
1699.758620911778
 30
0.0
 11
7842.723153572021
 21
1861.758620911768
 31
0.0
  0
LINE
  5
27C72
330
747D
100
AcDbEntity
  8
部品1
100
AcDbLine
 10
7680.723153572022
 20
1560.70018870908
 30
0.0
 11
7680.723153572022
 21
1965.700188709081
 31
0.0
  0
LINE
  5
27C73
330
747D
100
AcDbEntity
  8
部品1
100
AcDbLine
 10
7658.223153572023
 20
1661.95018870908
 30
0.0
 11
7658.223153572023
 21
1684.450188709081
 31
0.0
  0
LINE
  5
27C74
330
747D
100
AcDbEntity
  8
細線
 48
50.0
100
AcDbLine
 10
7680.723153572023
 20
1733.434581365795
 30
0.0
 11
7842.723153572021
 21
1895.434581365791
 31
0.0
  0
LINE
  5
27C75
330
747D
100
AcDbEntity
  8
細線
 48
50.0
100
AcDbLine
 10
7680.723153572023
 20
1767.110541819818
 30
0.0
 11
7842.723153572021
 21
1929.110541819815
 31
0.0
  0
LINE
  5
27C76
330
747D
100
AcDbEntity
  8
部品1
 48
50.0
100
AcDbLine
 10
7581.973153572021
 20
2444.29429009551
 30
0.0
 11
7621.973153572023
 21
2444.29429009551
 31
0.0
  0
LINE
  5
27C77
330
747D
100
AcDbEntity
  8
部品1
 48
50.0
100
AcDbLine
 10
7581.973153572021
 20
2404.29429009551
 30
0.0
 11
7621.973153572023
 21
2404.29429009551
 31
0.0
  0
ELLIPSE
  5
27C78
330
747D
100
AcDbEntity
  8
細線
 48
50.0
100
AcDbEllipse
 10
7601.973153572021
 20
2454.294290095512
 30
0.0
 11
18.45838483258558
 21
0.0
 31
0.0
210
0.0
220
0.0
230
1.0
 40
0.2071254069489396
 41
0.0
 42
6.283185307179584
  0
LINE
  5
27C79
330
747D
100
AcDbEntity
  8
部品1
 48
50.0
100
AcDbLine
 10
7581.973153572021
 20
2464.294290095511
 30
0.0
 11
7621.973153572023
 21
2464.294290095511
 31
0.0
  0
ELLIPSE
  5
27C7A
330
747D
100
AcDbEntity
  8
部品1
 48
50.0
100
AcDbEllipse
 10
7601.973153572021
 20
2290.104299264422
 30
0.0
 11
50.0
 21
0.0
 31
0.0
210
0.0
220
0.0
230
1.0
 40
0.4
 41
3.141592653589792
 42
6.283185307179584
  0
ELLIPSE
  5
27C7B
330
747D
100
AcDbEntity
  8
部品1
 48
50.0
100
AcDbEllipse
 10
7601.973153572021
 20
2302.104299264422
 30
0.0
 11
50.0
 21
0.0
 31
0.0
210
0.0
220
0.0
230
1.0
 40
0.4
 41
0.0
 42
6.283185307179584
  0
ELLIPSE
  5
27C7C
330
747D
100
AcDbEntity
  8
部品1
 48
50.0
100
AcDbEllipse
 10
7601.973153572021
 20
2302.104299264422
 30
0.0
 11
23.0
 21
0.0
 31
0.0
210
0.0
220
0.0
230
1.0
 40
0.3478260869565217
 41
0.0
 42
6.283185307179584
  0
LINE
  5
27C7D
330
747D
100
AcDbEntity
  8
部品1
100
AcDbLine
 10
7403.973153572021
 20
2105.200188709081
 30
0.0
 11
7456.848153572021
 21
2105.200188709078
 31
0.0
  0
LINE
  5
27C7E
330
747D
100
AcDbEntity
  8
部品1
100
AcDbLine
 10
7349.973153572022
 20
2078.200188709082
 30
0.0
 11
7397.223153572021
 21
2078.200188709082
 31
0.0
  0
LINE
  5
27C7F
330
747D
100
AcDbEntity
  8
部品1
100
AcDbLine
 10
7335.654595837524
 20
2061.964299275457
 30
0.0
 11
7346.598153572021
 21
2064.700188709082
 31
0.0
  0
ARC
  5
27C80
330
747D
100
AcDbEntity
  8
部品1
100
AcDbCircle
 10
7336.473153572021
 20
2058.690068337467
 30
0.0
 40
3.375
100
AcDbArc
 50
104.0362434679067
 51
180.0
  0
ARC
  5
27C81
330
747D
100
AcDbEntity
  8
部品1
100
AcDbCircle
 10
7349.973153572022
 20
2074.825188709081
 30
0.0
 40
3.375
100
AcDbArc
 50
90.0
 51
180.0
  0
LINE
  5
27C82
330
747D
100
AcDbEntity
  8
部品1
100
AcDbLine
 10
7346.598153572021
 20
2064.700188709082
 30
0.0
 11
7346.598153572021
 21
2074.825188709081
 31
0.0
  0
ARC
  5
27C83
330
747D
100
AcDbEntity
  8
部品1
100
AcDbCircle
 10
7400.598153572023
 20
2088.325188709081
 30
0.0
 40
3.375
100
AcDbArc
 50
90.0
 51
180.0
  0
LINE
  5
27C84
330
747D
100
AcDbEntity
  8
部品1
100
AcDbLine
 10
7397.223153572021
 20
2078.200188709082
 30
0.0
 11
7397.223153572021
 21
2088.325188709081
 31
0.0
  0
LINE
  5
27C85
330
747D
100
AcDbEntity
  8
部品1
100
AcDbLine
 10
7400.598153572023
 20
2091.700188709082
 30
0.0
 11
7400.598153572023
 21
2101.825188709082
 31
0.0
  0
LINE
  5
27C86
330
747D
100
AcDbEntity
  8
部品1
100
AcDbLine
 10
7400.598153572023
 20
2091.700188709082
 30
0.0
 11
7400.598153572023
 21
2091.700188709082
 31
0.0
  0
ARC
  5
27C87
330
747D
100
AcDbEntity
  8
部品1
100
AcDbCircle
 10
7403.973153572021
 20
2101.825188709082
 30
0.0
 40
3.375
100
AcDbArc
 50
90.0
 51
180.0
  0
LINE
  5
27C88
330
747D
100
AcDbEntity
  8
部品1
100
AcDbLine
 10
7486.098153572021
 20
2049.275188709084
 30
0.0
 11
7486.098153572021
 21
2027.900188709081
 31
0.0
  0
ARC
  5
27C89
330
747D
100
AcDbEntity
  8
部品1
100
AcDbCircle
 10
7509.723153572021
 20
2034.325188709082
 30
0.0
 40
3.375
100
AcDbArc
 50
0.0
 51
90.0
  0
LINE
  5
27C8A
330
747D
100
AcDbEntity
  8
部品1
100
AcDbLine
 10
7595.223153572021
 20
2031.650188709082
 30
0.0
 11
7608.723153572021
 21
2031.650188709082
 31
0.0
  0
LINE
  5
27C8B
330
747D
100
AcDbEntity
  8
部品1
100
AcDbLine
 10
7590.723153572023
 20
2027.150188709081
 30
0.0
 11
7613.223153572021
 21
2027.150188709081
 31
0.0
  0
ARC
  5
27C8C
330
747D
100
AcDbEntity
  8
部品1
100
AcDbCircle
 10
7524.673153572024
 20
2049.275188709084
 30
0.0
 40
3.375
100
AcDbArc
 50
0.0
 51
90.0
  0
ARC
  5
27C8D
330
747D
100
AcDbEntity
  8
部品1
100
AcDbCircle
 10
7489.473153572021
 20
2049.275188709084
 30
0.0
 40
3.375
100
AcDbArc
 50
90.0
 51
180.0
  0
LINE
  5
27C8E
330
747D
100
AcDbEntity
  8
部品1
100
AcDbLine
 10
7489.473153572021
 20
2052.650188709083
 30
0.0
 11
7524.673153572024
 21
2052.650188709083
 31
0.0
  0
LINE
  5
27C8F
330
747D
100
AcDbEntity
  8
部品1
 48
50.0
100
AcDbLine
 10
7551.973153572021
 20
2302.104299264422
 30
0.0
 11
7551.973153572021
 21
2290.104299264422
 31
0.0
  0
LINE
  5
27C90
330
747D
100
AcDbEntity
  8
部品1
100
AcDbLine
 10
7460.22315357202
 20
2101.825188709078
 30
0.0
 11
7460.22315357202
 21
2037.700188709081
 31
0.0
  0
ARC
  5
27C91
330
747D
100
AcDbEntity
  8
部品1
100
AcDbCircle
 10
7456.848153572021
 20
2101.825188709078
 30
0.0
 40
3.375
100
AcDbArc
 50
0.0
 51
90.0
  0
LINE
  5
27C92
330
747D
100
AcDbEntity
  8
部品1
100
AcDbLine
 10
7460.22315357202
 20
2037.700188709081
 30
0.0
 11
7509.723153572021
 21
2037.700188709081
 31
0.0
  0
LINE
  5
27C93
330
747D
100
AcDbEntity
  8
部品1
 48
50.0
100
AcDbLine
 10
7561.973153572022
 20
2454.294290095512
 30
0.0
 11
7581.973153572021
 21
2464.294290095511
 31
0.0
  0
LINE
  5
27C94
330
747D
100
AcDbEntity
  8
部品1
 48
50.0
100
AcDbLine
 10
7561.973153572022
 20
2414.294290095511
 30
0.0
 11
7581.973153572021
 21
2404.29429009551
 31
0.0
  0
LINE
  5
27C95
330
747D
100
AcDbEntity
  8
部品1
 48
50.0
100
AcDbLine
 10
7561.973153572022
 20
2454.294290095512
 30
0.0
 11
7581.973153572021
 21
2444.29429009551
 31
0.0
  0
LINE
  5
27C96
330
747D
100
AcDbEntity
  8
部品1
 48
50.0
100
AcDbLine
 10
7561.973153572022
 20
2414.294290095511
 30
0.0
 11
7561.973153572022
 21
2454.294290095512
 31
0.0
  0
LINE
  5
27C97
330
747D
100
AcDbEntity
  8
細線
 48
50.0
100
AcDbLine
 10
7581.973153572021
 20
2404.29429009551
 30
0.0
 11
7581.973153572021
 21
2444.29429009551
 31
0.0
  0
LINE
  5
27C98
330
747D
100
AcDbEntity
  8
部品1
 48
50.0
100
AcDbLine
 10
7651.973153572021
 20
2290.104299264422
 30
0.0
 11
7651.973153572021
 21
2302.104299264422
 31
0.0
  0
LINE
  5
27C99
330
747D
100
AcDbEntity
  8
部品1
 48
50.0
100
AcDbLine
 10
7621.973153572023
 20
2464.294290095511
 30
0.0
 11
7641.973153572021
 21
2454.294290095512
 31
0.0
  0
LINE
  5
27C9A
330
747D
100
AcDbEntity
  8
部品1
 48
50.0
100
AcDbLine
 10
7641.973153572021
 20
2414.294290095511
 30
0.0
 11
7641.973153572021
 21
2454.294290095512
 31
0.0
  0
LINE
  5
27C9B
330
747D
100
AcDbEntity
  8
細線
 48
50.0
100
AcDbLine
 10
7621.973153572023
 20
2404.29429009551
 30
0.0
 11
7621.973153572023
 21
2444.29429009551
 31
0.0
  0
LINE
  5
27C9C
330
747D
100
AcDbEntity
  8
部品1
 48
50.0
100
AcDbLine
 10
7621.973153572023
 20
2444.29429009551
 30
0.0
 11
7641.973153572021
 21
2454.294290095512
 31
0.0
  0
LINE
  5
27C9D
330
747D
100
AcDbEntity
  8
部品1
 48
50.0
100
AcDbLine
 10
7621.973153572023
 20
2404.29429009551
 30
0.0
 11
7641.973153572021
 21
2414.294290095511
 31
0.0
  0
LINE
  5
27C9E
330
747D
100
AcDbEntity
  8
細線
 48
50.0
100
AcDbLine
 10
9607.705582013586
 20
1391.076544142391
 30
0.0
 11
9650.577452802568
 21
1551.076544142391
 31
0.0
  0
TEXT
  5
27C9F
330
747D
100
AcDbEntity
  8
部品1
 48
50.0
100
AcDbText
 10
9011.995460502339
 20
1332.200512912444
 30
0.0
 40
100.0
  1
ボルトの出
 50
90.0
  7
STYLE2
100
AcDbText
  0
LINE
  5
27CA0
330
747D
100
AcDbEntity
  8
部品1
100
AcDbLine
 10
9487.337088827638
 20
1391.07654414239
 30
0.0
 11
9487.337088827638
 21
1665.700188709081
 31
0.0
  0
LINE
  5
27CA1
330
747D
100
AcDbEntity
  8
細線
 48
50.0
100
AcDbLine
 10
9509.095525829527
 20
1391.076544142394
 30
0.0
 11
9551.967396618509
 21
1551.076544142393
 31
0.0
  0
LINE
  5
27CA2
330
747D
100
AcDbEntity
  8
部品1
 48
50.0
100
AcDbLine
 10
8102.723153572027
 20
985.7001887090804
 30
0.0
 11
8102.723153572027
 21
825.7001887090805
 31
0.0
  0
LINE
  5
27CA3
330
747D
100
AcDbEntity
  8
細線
 48
50.0
100
AcDbLine
 10
8048.195435062444
 20
955.7001887090796
 30
0.0
 11
8040.156959289509
 21
985.7001887090795
 31
0.0
  0
LINE
  5
27CA4
330
747D
100
AcDbEntity
  8
細線
 48
50.0
100
AcDbLine
 10
9615.744057786528
 20
1421.076544142394
 30
0.0
 11
9623.78253355946
 21
1391.076544142394
 31
0.0
  0
LINE
  5
27CA5
330
747D
100
AcDbEntity
  8
細線
 48
50.0
100
AcDbLine
 10
9517.134001602469
 20
1421.076544142394
 30
0.0
 11
9525.172477375397
 21
1391.076544142394
 31
0.0
  0
LINE
  5
27CA6
330
747D
100
AcDbEntity
  8
部品1
100
AcDbLine
 10
9637.337088827642
 20
1665.700188709081
 30
0.0
 11
9637.337088827642
 21
1965.700188709081
 31
0.0
  0
LINE
  5
27CA7
330
747D
100
AcDbEntity
  8
細線
 48
50.0
100
AcDbLine
 10
9543.928920845578
 20
1521.076544142394
 30
0.0
 11
9535.890445072636
 21
1551.076544142393
 31
0.0
  0
LINE
  5
27CA8
330
747D
100
AcDbEntity
  8
細線
 48
50.0
100
AcDbLine
 10
9642.538977029637
 20
1521.076544142394
 30
0.0
 11
9634.500501256708
 21
1551.076544142393
 31
0.0
  0
TEXT
  5
27CA9
330
747D
100
AcDbEntity
  8
部品1
100
AcDbText
 10
7087.302429065394
 20
3392.474798490852
 30
0.0
 40
150.0
  1
基礎詳細
  7
STYLE2
100
AcDbText
  0
LINE
  5
27CAA
330
747D
100
AcDbEntity
  8
部品1
100
AcDbLine
 10
10977.84801664678
 20
357.8452106820483
 30
0.0
 11
10977.84801664678
 21
3616.914713430138
 31
0.0
  0
LINE
  5
27CAB
330
747D
100
AcDbEntity
  8
部品1
100
AcDbLine
 10
10387.33708882764
 20
1665.700188709081
 30
0.0
 11
10387.33708882764
 21
1391.076544142394
 31
0.0
  0
LINE
  5
27CAC
330
747D
100
AcDbEntity
  8
細線
 48
50.0
100
AcDbLine
 10
10199.36591911795
 20
1391.07654414239
 30
0.0
 11
10242.23778990692
 21
1551.076544142389
 31
0.0
  0
LINE
  5
27CAD
330
747D
100
AcDbEntity
  8
細線
 48
50.0
100
AcDbLine
 10
10297.975975302
 20
1391.076544142391
 30
0.0
 11
10340.84784609098
 21
1551.076544142389
 31
0.0
  0
LINE
  5
27CAE
330
747D
100
AcDbEntity
  8
細線
 48
50.0
100
AcDbLine
 10
10002.14580674983
 20
1391.076544142394
 30
0.0
 11
10045.01767753881
 21
1551.076544142391
 31
0.0
  0
LINE
  5
27CAF
330
747D
100
AcDbEntity
  8
細線
 48
50.0
100
AcDbLine
 10
10100.75586293389
 20
1391.076544142391
 30
0.0
 11
10143.62773372285
 21
1551.076544142393
 31
0.0
  0
LINE
  5
27CB0
330
747D
100
AcDbEntity
  8
細線
 48
50.0
100
AcDbLine
 10
9804.925694381708
 20
1391.076544142394
 30
0.0
 11
9847.797565170694
 21
1551.076544142391
 31
0.0
  0
LINE
  5
27CB1
330
747D
100
AcDbEntity
  8
細線
 48
50.0
100
AcDbLine
 10
9706.315638197658
 20
1391.076544142394
 30
0.0
 11
9749.187508986629
 21
1551.076544142393
 31
0.0
  0
LINE
  5
27CB2
330
747D
100
AcDbEntity
  8
細線
 48
50.0
100
AcDbLine
 10
9903.535750565769
 20
1391.076544142391
 30
0.0
 11
9946.407621354749
 21
1551.076544142391
 31
0.0
  0
LINE
  5
27CB3
330
747D
100
AcDbEntity
  8
細線
 48
50.0
100
AcDbLine
 10
9812.96417015465
 20
1421.076544142394
 30
0.0
 11
9821.002645927592
 21
1391.076544142394
 31
0.0
  0
LINE
  5
27CB4
330
747D
100
AcDbEntity
  8
細線
 48
50.0
100
AcDbLine
 10
9714.354113970602
 20
1421.076544142394
 30
0.0
 11
9722.392589743527
 21
1391.076544142394
 31
0.0
  0
LINE
  5
27CB5
330
747D
100
AcDbEntity
  8
細線
 48
50.0
100
AcDbLine
 10
10010.18428252277
 20
1421.076544142394
 30
0.0
 11
10018.2227582957
 21
1391.076544142394
 31
0.0
  0
LINE
  5
27CB6
330
747D
100
AcDbEntity
  8
細線
 48
50.0
100
AcDbLine
 10
9911.574226338709
 20
1421.076544142394
 30
0.0
 11
9919.612702111642
 21
1391.076544142394
 31
0.0
  0
LINE
  5
27CB7
330
747D
100
AcDbEntity
  8
細線
 48
50.0
100
AcDbLine
 10
10207.40439489088
 20
1421.076544142391
 30
0.0
 11
10215.44287066382
 21
1391.076544142391
 31
0.0
  0
LINE
  5
27CB8
330
747D
100
AcDbEntity
  8
細線
 48
50.0
100
AcDbLine
 10
10108.79433870683
 20
1421.076544142394
 30
0.0
 11
10116.83281447977
 21
1391.076544142394
 31
0.0
  0
LINE
  5
27CB9
330
747D
100
AcDbEntity
  8
細線
 48
50.0
100
AcDbLine
 10
10306.01445107495
 20
1421.076544142391
 30
0.0
 11
10314.05292684788
 21
1391.076544142391
 31
0.0
  0
MTEXT
  5
27CBA
102
{ACAD_REACTORS
330
27CBB
102
}
330
747D
100
AcDbEntity
  8
寸法
 62
     7
 48
50.0
100
AcDbMText
 10
10379.6653616396
 20
2287.133089560504
 30
0.0
 40
150.0
 41
1.0
 71
     4
 72
     1
  1
\A1;C.B
  7
STYLE1
 73
     1
 44
1.0
1001
ACAD
1000
MTEXTBEGIN
1070
    73
1070
     1
1070
    44
1040
1.0
1070
    74
1070
     0
1000
MTEXTEND
  0
LEADER
  5
27CBB
330
747D
100
AcDbEntity
  8
寸法
 48
50.0
100
AcDbLeader
  3
INABA_S40G
 73
     0
 74
     0
 75
     1
 40
150.0
 41
231.9898538650463
 76
     3
 10
10150.74260334754
 20
1965.700188709081
 30
0.0
 10
10239.6653616396
 20
2172.133089560504
 30
0.0
 10
10339.6653616396
 20
2172.133089560504
 30
0.0
340
27CBA
1001
ACAD
1000
DSTYLE
1002
{
1070
   341
1005
0
1002
}
  0
LINE
  5
27CBC
330
747D
100
AcDbEntity
  8
細線
100
AcDbLine
 10
10220.04001089315
 20
1665.700188709083
 30
0.0
 11
9920.040010893169
 21
1965.700188709081
 31
0.0
  0
LINE
  5
27CBD
330
747D
100
AcDbEntity
  8
細線
100
AcDbLine
 10
10156.40040058638
 20
1665.700188709081
 30
0.0
 11
9856.40040058638
 21
1965.700188709081
 31
0.0
  0
LINE
  5
27CBE
330
747D
100
AcDbEntity
  8
細線
 48
50.0
100
AcDbLine
 10
9741.149033213709
 20
1521.076544142394
 30
0.0
 11
9733.110557440769
 21
1551.076544142393
 31
0.0
  0
LINE
  5
27CBF
330
747D
100
AcDbEntity
  8
細線
 48
50.0
100
AcDbLine
 10
9839.759089397759
 20
1521.076544142394
 30
0.0
 11
9831.720613624831
 21
1551.076544142393
 31
0.0
  0
LINE
  5
27CC0
330
747D
100
AcDbEntity
  8
細線
100
AcDbLine
 10
9713.485395694188
 20
1551.076544142394
 30
0.0
 11
9828.109040260869
 21
1665.700188709081
 31
0.0
  0
LINE
  5
27CC1
330
747D
100
AcDbEntity
  8
細線
100
AcDbLine
 10
9671.058988822998
 20
1551.076544142394
 30
0.0
 11
9785.682633389678
 21
1665.700188709081
 31
0.0
  0
LINE
  5
27CC2
330
747D
100
AcDbEntity
  8
細線
 48
50.0
100
AcDbLine
 10
10036.97920176588
 20
1521.076544142394
 30
0.0
 11
10028.94072599295
 21
1551.076544142393
 31
0.0
  0
LINE
  5
27CC3
330
747D
100
AcDbEntity
  8
細線
 48
50.0
100
AcDbLine
 10
9938.369145581816
 20
1521.076544142394
 30
0.0
 11
9930.330669808888
 21
1551.076544142393
 31
0.0
  0
LINE
  5
27CC4
330
747D
100
AcDbEntity
  8
部品1
100
AcDbLine
 10
10237.33708882764
 20
1965.700188709081
 30
0.0
 11
10237.33708882764
 21
1665.700188709081
 31
0.0
  0
LINE
  5
27CC5
330
747D
100
AcDbEntity
  8
細線
 48
50.0
100
AcDbLine
 10
10234.199314134
 20
1521.076544142391
 30
0.0
 11
10226.16083836106
 21
1551.076544142391
 31
0.0
  0
LINE
  5
27CC6
330
747D
100
AcDbEntity
  8
細線
 48
50.0
100
AcDbLine
 10
10135.58925794993
 20
1521.076544142394
 30
0.0
 11
10127.55078217699
 21
1551.076544142393
 31
0.0
  0
LINE
  5
27CC7
330
747D
100
AcDbEntity
  8
細線
100
AcDbLine
 10
10163.48539569418
 20
1551.076544142395
 30
0.0
 11
10278.10904026087
 21
1665.700188709081
 31
0.0
  0
LINE
  5
27CC8
330
747D
100
AcDbEntity
  8
細線
100
AcDbLine
 10
10078.6325819518
 20
1551.076544142395
 30
0.0
 11
10193.25622651849
 21
1665.700188709081
 31
0.0
  0
LINE
  5
27CC9
330
747D
100
AcDbEntity
  8
細線
100
AcDbLine
 10
10121.05898882299
 20
1551.076544142395
 30
0.0
 11
10235.68263338967
 21
1665.700188709081
 31
0.0
  0
LINE
  5
27CCA
330
747D
100
AcDbEntity
  8
細線
 48
50.0
100
AcDbLine
 10
10332.80937031806
 20
1521.076544142391
 30
0.0
 11
10324.77089454512
 21
1551.076544142391
 31
0.0
  0
HATCH
  5
27D68
330
747D
100
AcDbEntity
  8
細線
 48
50.0
100
AcDbHatch
 10
0.0
 20
0.0
 30
0.0
210
0.0
220
0.0
230
1.0
  2
LINE
 70
     0
 71
     0
 91
        1
 92
        7
 72
     0
 73
     1
 93
        4
 10
6997.099999999997
 20
7557.513207084728
 10
6797.099999999997
 20
7557.513207084728
 10
6797.099999999997
 20
7437.513207084727
 10
6997.099999999997
 20
7437.513207084727
 97
        0
 75
     0
 76
     1
 52
45.0
 41
10.0
 77
     0
 78
     1
 53
45.0
 43
0.0
 44
0.0
 45
-22.45064030267288
 46
22.45064030267288
 79
     0
 47
1.391833046411659
 98
        1
 10
6962.326804089221
 20
7523.615301856662
  0
HATCH
  5
27D77
330
747D
100
AcDbEntity
  8
細線
 48
50.0
100
AcDbHatch
 10
0.0
 20
0.0
 30
0.0
210
0.0
220
0.0
230
1.0
  2
LINE
 70
     0
 71
     0
 91
        1
 92
        7
 72
     0
 73
     1
 93
        4
 10
9532.099999999998
 20
7557.513207084728
 10
9332.099999999996
 20
7557.513207084728
 10
9332.099999999996
 20
7437.513207084727
 10
9532.099999999998
 20
7437.513207084727
 97
        0
 75
     0
 76
     1
 52
45.0
 41
10.0
 77
     0
 78
     1
 53
45.0
 43
0.0
 44
0.0
 45
-22.45064030267288
 46
22.45064030267288
 79
     0
 47
1.928541383369758
 98
        1
 10
9407.465457412239
 20
7480.241558563851
  0
HATCH
  5
27D87
330
747D
100
AcDbEntity
  8
細線
 48
50.0
100
AcDbHatch
 10
0.0
 20
0.0
 30
0.0
210
0.0
220
0.0
230
1.0
  2
LINE
 70
     0
 71
     0
 91
        1
 92
        7
 72
     0
 73
     1
 93
        4
 10
10858.59999999999
 20
6757.513207084729
 10
10738.6
 20
6757.513207084729
 10
10738.6
 20
6557.51320708473
 10
10858.6
 20
6557.51320708473
 97
        0
 75
     0
 76
     1
 52
45.0
 41
10.0
 77
     0
 78
     1
 53
45.0
 43
0.0
 44
0.0
 45
-22.45064030267288
 46
22.45064030267288
 79
     0
 47
2.42071175911631
 98
        1
 10
10811.57352990495
 20
6669.768334943525
  0
HATCH
  5
27DA6
330
747D
100
AcDbEntity
  8
細線
 48
50.0
100
AcDbHatch
 10
0.0
 20
0.0
 30
0.0
210
0.0
220
0.0
230
1.0
  2
LINE
 70
     0
 71
     0
 91
        1
 92
        7
 72
     0
 73
     1
 93
        4
 10
9532.100000000021
 20
5877.513207084741
 10
9332.100000000018
 20
5877.51320708474
 10
9332.100000000018
 20
5757.513207084738
 10
9532.100000000017
 20
5757.513207084738
 97
        0
 75
     0
 76
     1
 52
45.0
 41
10.0
 77
     0
 78
     1
 53
45.0
 43
0.0
 44
0.0
 45
-22.45064030267288
 46
22.45064030267288
 79
     0
 47
1.292528823551549
 98
        1
 10
9352.620773750198
 20
5816.881122984065
  0
HATCH
  5
27DBB
330
747D
100
AcDbEntity
  8
細線
 48
50.0
100
AcDbHatch
 10
0.0
 20
0.0
 30
0.0
210
0.0
220
0.0
230
1.0
  2
LINE
 70
     0
 71
     0
 91
        1
 92
        7
 72
     0
 73
     1
 93
        4
 10
6997.100000000009
 20
5877.513207084735
 10
6797.100000000009
 20
5877.513207084735
 10
6797.100000000007
 20
5682.513207084722
 10
6997.100000000006
 20
5682.513207084723
 97
        0
 75
     0
 76
     1
 52
45.0
 41
10.0
 77
     0
 78
     1
 53
45.0
 43
0.0
 44
0.0
 45
-22.45064030267288
 46
22.45064030267288
 79
     0
 47
2.594251161282473
 98
        1
 10
6827.457042833754
 20
5799.29222585811
  0
HATCH
  5
27DD6
330
747D
100
AcDbEntity
  8
細線
 48
50.0
100
AcDbHatch
 10
0.0
 20
0.0
 30
0.0
210
0.0
220
0.0
230
1.0
  2
LINE
 70
     0
 71
     0
 91
        1
 92
        7
 72
     0
 73
     1
 93
        4
 10
5708.600000000001
 20
6757.513207084729
 10
5588.599999999999
 20
6757.513207084727
 10
5588.599999999999
 20
6557.513207084728
 10
5708.6
 20
6557.51320708473
 97
        0
 75
     0
 76
     1
 52
45.0
 41
10.0
 77
     0
 78
     1
 53
45.0
 43
0.0
 44
0.0
 45
-22.45064030267288
 46
22.45064030267288
 79
     0
 47
1.405848560906549
 98
        1
 10
5679.307165334707
 20
6669.139724409141
  0
TEXT
  5
27FF2
330
747D
100
AcDbEntity
  8
部品1
 48
50.0
100
AcDbText
 10
6734.113933572223
 20
2350.469891493341
 30
0.0
 40
100.0
  1
※(別売)
  7
STYLE2
100
AcDbText
  0
ENDSEC
  0
SECTION
  2
OBJECTS
  0
DICTIONARY
  5
7471
330
0
100
AcDbDictionary
281
     1
  3
ACAD_COLOR
350
173D2
  3
ACAD_GROUP
350
7472
  3
ACAD_LAYOUT
350
173D3
  3
ACAD_MATERIAL
350
173D1
  3
ACAD_MLINESTYLE
350
7473
  3
ACAD_PLOTSETTINGS
350
173D4
  3
ACAD_PLOTSTYLENAME
350
173CF
  3
ACDBHEADERROUNDTRIPXREC
350
2801D
  3
AcDbVariableDictionary
350
27DE6
  3
CONTENTDICTIONARY
350
E71C
  3
DRAWINGVARIABLESDICT
350
F3B9
  0
DICTIONARY
  5
1758F
330
7467
100
AcDbDictionary
280
     1
281
     1
  3
ACAD_LAYERSTATES
360
17590
  0
DICTIONARY
  5
173D2
102
{ACAD_REACTORS
330
7471
102
}
330
7471
100
AcDbDictionary
281
     1
  0
DICTIONARY
  5
7472
102
{ACAD_REACTORS
330
7471
102
}
330
7471
100
AcDbDictionary
281
     1
  3
*A1
350
1D2A9
  0
DICTIONARY
  5
173D3
102
{ACAD_REACTORS
330
7471
102
}
330
7471
100
AcDbDictionary
281
     1
  3
Model
350
173D5
  3
レイアウト1
350
173D6
  0
DICTIONARY
  5
173D1
102
{ACAD_REACTORS
330
7471
102
}
330
7471
100
AcDbDictionary
281
     1
  0
DICTIONARY
  5
7473
102
{ACAD_REACTORS
330
7471
102
}
330
7471
100
AcDbDictionary
281
     1
  3
STANDARD
350
7480
  0
DICTIONARY
  5
173D4
102
{ACAD_REACTORS
330
7471
102
}
330
7471
100
AcDbDictionary
281
     1
  0
ACDBDICTIONARYWDFLT
  5
173CF
102
{ACAD_REACTORS
330
7471
102
}
330
7471
100
AcDbDictionary
281
     1
  3
Normal
350
173D0
100
AcDbDictionaryWithDefault
340
173D0
  0
DICTIONARY
  5
2801D
102
{ACAD_REACTORS
330
7471
102
}
330
7471
100
AcDbDictionary
281
     1
  3
COLORDICT
350
2801F
  3
MATERIALDICT
350
2801E
  0
DICTIONARY
  5
27DE6
102
{ACAD_REACTORS
330
7471
102
}
330
7471
100
AcDbDictionary
281
     1
  3
DIMASSOC
350
27DE7
  3
PROJECTNAME
350
27DE8
  0
DICTIONARY
  5
E71C
102
{ACAD_REACTORS
330
7471
102
}
330
7471
100
AcDbDictionary
281
     1
  0
DICTIONARY
  5
F3B9
102
{ACAD_REACTORS
330
7471
102
}
330
7471
100
AcDbDictionary
281
     1
1001
DRAWINGVARIABLESXDATA
1000
POLARMODE
1000
1
  0
DICTIONARY
  5
17590
102
{ACAD_REACTORS
330
1758F
102
}
330
1758F
100
AcDbDictionary
281
     1
  0
GROUP
  5
1D2A9
102
{ACAD_REACTORS
330
7472
102
}
330
7472
100
AcDbGroup
300

 70
     1
 71
     1
  0
LAYOUT
  5
173D5
102
{ACAD_XDICTIONARY
360
28020
102
}
102
{ACAD_REACTORS
330
173D3
102
}
330
173D3
100
AcDbPlotSettings
  1

  2
クセロPDF
  4
A3
  6

 40
3.174999999999999
 41
3.174999999999999
 42
3.174987999999999
 43
3.174987999999999
 44
419.946655
 45
296.925995
 46
0.0
 47
0.0
 48
0.0
 49
0.0
140
0.0
141
0.0
142
1.0
143
40.88431155294937
 70
 11952
 72
     1
 73
     0
 74
     2
  7
inaba.ctb
 75
     0
147
0.0244592598484849
148
0.0
149
0.0
100
AcDbLayout
  1
Model
 70
     1
 71
     0
 10
0.0
 20
0.0
 11
12.0
 21
9.0
 12
0.0
 22
0.0
 32
0.0
 14
0.0
 24
0.0
 34
0.0
 15
0.0
 25
0.0
 35
0.0
146
0.0
 13
0.0
 23
0.0
 33
0.0
 16
1.0
 26
0.0
 36
0.0
 17
0.0
 27
1.0
 37
0.0
 76
     0
330
747D
  0
LAYOUT
  5
173D6
102
{ACAD_XDICTIONARY
360
28022
102
}
102
{ACAD_REACTORS
330
173D3
102
}
330
173D3
100
AcDbPlotSettings
  1

  2
Microsoft Office Document Image Writer
  4

  6

 40
0.0
 41
0.0
 42
0.0
 43
0.0
 44
0.0
 45
0.0
 46
0.0
 47
0.0
 48
0.0
 49
0.0
140
0.0
141
0.0
142
1.0
143
1.0
 70
   688
 72
     0
 73
     0
 74
     5
  7

 75
    16
147
1.0
148
0.0
149
0.0
100
AcDbLayout
  1
レイアウト1
 70
     0
 71
     1
 10
0.0
 20
0.0
 11
420.0
 21
297.0
 12
0.0
 22
0.0
 32
0.0
 14
1.000000000000000E+20
 24
1.000000000000000E+20
 34
1.000000000000000E+20
 15
-1.000000000000000E+20
 25
-1.000000000000000E+20
 35
-1.000000000000000E+20
146
0.0
 13
0.0
 23
0.0
 33
0.0
 16
1.0
 26
0.0
 36
0.0
 17
0.0
 27
1.0
 37
0.0
 76
     0
330
747A
  0
MLINESTYLE
  5
7480
102
{ACAD_REACTORS
330
7473
102
}
330
7473
100
AcDbMlineStyle
  2
STANDARD
 70
     0
  3

 62
     0
 51
90.0
 52
90.0
 71
     2
 49
0.5
 62
   256
  6
BYLAYER
 49
-0.5
 62
   256
  6
BYLAYER
  0
ACDBPLACEHOLDER
  5
173D0
102
{ACAD_REACTORS
330
173CF
102
}
330
173CF
  0
XRECORD
  5
2801F
102
{ACAD_REACTORS
330
2801D
102
}
330
2801D
100
AcDbXrecord
280
     1
340
173D2
  0
XRECORD
  5
2801E
102
{ACAD_REACTORS
330
2801D
102
}
330
2801D
100
AcDbXrecord
280
     1
340
173D1
  0
DICTIONARYVAR
  5
27DE7
102
{ACAD_REACTORS
330
27DE6
102
}
330
27DE6
100
DictionaryVariables
280
     0
  1
1
  0
DICTIONARYVAR
  5
27DE8
102
{ACAD_REACTORS
330
27DE6
102
}
330
27DE6
100
DictionaryVariables
280
     0
  1

  0
DICTIONARY
  5
28020
330
173D5
100
AcDbDictionary
280
     1
281
     1
  3
ACAD_XREC_ROUNDTRIP
360
28021
  0
DICTIONARY
  5
28022
330
173D6
100
AcDbDictionary
280
     1
281
     1
  3
ACAD_XREC_ROUNDTRIP
360
28023
  0
XRECORD
  5
28021
102
{ACAD_REACTORS
330
28020
102
}
330
28020
100
AcDbXrecord
280
     1
102
SHADEPLOT
 70
     1
102
SHADEPLOTRESLEVEL
 70
     2
102
SHADEPLOTCUSTOMDPI
 70
   300
  0
XRECORD
  5
28023
102
{ACAD_REACTORS
330
28022
102
}
330
28022
100
AcDbXrecord
280
     1
102
SHADEPLOT
 70
     0
102
SHADEPLOTRESLEVEL
 70
     2
102
SHADEPLOTCUSTOMDPI
 70
   300
  0
ENDSEC
  0
EOF
