  0
SECTION
  2
HEADER
  9
$ACADVER
  1
AC1015
  9
$ACADMAINTVER
 70
    20
  9
$DWGCODEPAGE
  3
ANSI_932
  9
$INSBASE
 10
0.0
 20
0.0
 30
0.0
  9
$EXTMIN
 10
139.9999999999995
 20
-0.0000000000000909
 30
0.0
  9
$EXTMAX
 10
16307.2
 20
11409.6
 30
0.0
  9
$LIMMIN
 10
-25.79074261211281
 20
-125.8223078213959
  9
$LIMMAX
 10
16471.10331197129
 20
11496.44801950658
  9
$ORTHOMODE
 70
     0
  9
$REGENMODE
 70
     1
  9
$FILLMODE
 70
     1
  9
$QTEXTMODE
 70
     0
  9
$MIRRTEXT
 70
     1
  9
$LTSCALE
 40
20.0
  9
$ATTMODE
 70
     1
  9
$TEXTSIZE
 40
100.0
  9
$TRACEWID
 40
1.0
  9
$TEXTSTYLE
  7
STYLE2
  9
$CLAYER
  8
部品1
  9
$CELTYPE
  6
BYLAYER
  9
$CECOLOR
 62
     1
  9
$CELTSCALE
 40
50.0
  9
$DISPSILH
 70
     0
  9
$DIMSCALE
 40
40.0
  9
$DIMASZ
 40
2.5
  9
$DIMEXO
 40
0.5
  9
$DIMDLI
 40
7.0
  9
$DIMRND
 40
0.0
  9
$DIMDLE
 40
0.0
  9
$DIMEXE
 40
1.5
  9
$DIMTP
 40
0.0
  9
$DIMTM
 40
0.0
  9
$DIMTXT
 40
3.0
  9
$DIMCEN
 40
0.0
  9
$DIMTSZ
 40
0.0
  9
$DIMTOL
 70
     0
  9
$DIMLIM
 70
     0
  9
$DIMTIH
 70
     0
  9
$DIMTOH
 70
     0
  9
$DIMSE1
 70
     0
  9
$DIMSE2
 70
     0
  9
$DIMTAD
 70
     3
  9
$DIMZIN
 70
     8
  9
$DIMBLK
  1

  9
$DIMASO
 70
     1
  9
$DIMSHO
 70
     1
  9
$DIMPOST
  1

  9
$DIMAPOST
  1

  9
$DIMALT
 70
     0
  9
$DIMALTD
 70
     2
  9
$DIMALTF
 40
0.0394
  9
$DIMLFAC
 40
1.0
  9
$DIMTOFL
 70
     1
  9
$DIMTVP
 40
0.0
  9
$DIMTIX
 70
     0
  9
$DIMSOXD
 70
     0
  9
$DIMSAH
 70
     1
  9
$DIMBLK1
  1
DOTSMALL
  9
$DIMBLK2
  1
DOTSMALL
  9
$DIMSTYLE
  2
INABA_S40G
  9
$DIMCLRD
 70
     0
  9
$DIMCLRE
 70
     0
  9
$DIMCLRT
 70
     7
  9
$DIMTFAC
 40
1.0
  9
$DIMGAP
 40
1.0
  9
$DIMJUST
 70
     0
  9
$DIMSD1
 70
     0
  9
$DIMSD2
 70
     0
  9
$DIMTOLJ
 70
     1
  9
$DIMTZIN
 70
     0
  9
$DIMALTZ
 70
     0
  9
$DIMALTTZ
 70
     0
  9
$DIMUPT
 70
     0
  9
$DIMDEC
 70
     1
  9
$DIMTDEC
 70
     1
  9
$DIMALTU
 70
     2
  9
$DIMALTTD
 70
     2
  9
$DIMTXSTY
  7
STYLE1
  9
$DIMAUNIT
 70
     0
  9
$DIMADEC
 70
     0
  9
$DIMALTRND
 40
0.0
  9
$DIMAZIN
 70
     0
  9
$DIMDSEP
 70
    46
  9
$DIMATFIT
 70
     3
  9
$DIMFRAC
 70
     0
  9
$DIMLDRBLK
  1

  9
$DIMLUNIT
 70
     2
  9
$DIMLWD
 70
    -2
  9
$DIMLWE
 70
    -2
  9
$DIMTMOVE
 70
     0
  9
$LUNITS
 70
     2
  9
$LUPREC
 70
     1
  9
$SKETCHINC
 40
1.0
  9
$FILLETRAD
 40
0.0
  9
$AUNITS
 70
     0
  9
$AUPREC
 70
     0
  9
$MENU
  1
acad
  9
$ELEVATION
 40
0.0
  9
$PELEVATION
 40
0.0
  9
$THICKNESS
 40
0.0
  9
$LIMCHECK
 70
     0
  9
$CHAMFERA
 40
3.0
  9
$CHAMFERB
 40
3.0
  9
$CHAMFERC
 40
0.0
  9
$CHAMFERD
 40
0.0
  9
$SKPOLY
 70
     0
  9
$TDCREATE
 40
2451368.612993866
  9
$TDUCREATE
 40
2451368.237993866
  9
$TDUPDATE
 40
2457366.428836354
  9
$TDUUPDATE
 40
2457366.053836354
  9
$TDINDWG
 40
1.3682405440
  9
$TDUSRTIMER
 40
1.3682405440
  9
$USRTIMER
 70
     1
  9
$ANGBASE
 50
0.0
  9
$ANGDIR
 70
     0
  9
$PDMODE
 70
     3
  9
$PDSIZE
 40
2.0
  9
$PLINEWID
 40
0.0
  9
$SPLFRAME
 70
     0
  9
$SPLINETYPE
 70
     6
  9
$SPLINESEGS
 70
     8
  9
$HANDSEED
  5
244E3
  9
$SURFTAB1
 70
     6
  9
$SURFTAB2
 70
     6
  9
$SURFTYPE
 70
     6
  9
$SURFU
 70
     6
  9
$SURFV
 70
     6
  9
$UCSBASE
  2

  9
$UCSNAME
  2

  9
$UCSORG
 10
0.0
 20
0.0
 30
0.0
  9
$UCSXDIR
 10
1.0
 20
0.0
 30
0.0
  9
$UCSYDIR
 10
0.0
 20
1.0
 30
0.0
  9
$UCSORTHOREF
  2

  9
$UCSORTHOVIEW
 70
     0
  9
$UCSORGTOP
 10
0.0
 20
0.0
 30
0.0
  9
$UCSORGBOTTOM
 10
0.0
 20
0.0
 30
0.0
  9
$UCSORGLEFT
 10
0.0
 20
0.0
 30
0.0
  9
$UCSORGRIGHT
 10
0.0
 20
0.0
 30
0.0
  9
$UCSORGFRONT
 10
0.0
 20
0.0
 30
0.0
  9
$UCSORGBACK
 10
0.0
 20
0.0
 30
0.0
  9
$PUCSBASE
  2

  9
$PUCSNAME
  2

  9
$PUCSORG
 10
0.0
 20
0.0
 30
0.0
  9
$PUCSXDIR
 10
1.0
 20
0.0
 30
0.0
  9
$PUCSYDIR
 10
0.0
 20
1.0
 30
0.0
  9
$PUCSORTHOREF
  2

  9
$PUCSORTHOVIEW
 70
     0
  9
$PUCSORGTOP
 10
0.0
 20
0.0
 30
0.0
  9
$PUCSORGBOTTOM
 10
0.0
 20
0.0
 30
0.0
  9
$PUCSORGLEFT
 10
0.0
 20
0.0
 30
0.0
  9
$PUCSORGRIGHT
 10
0.0
 20
0.0
 30
0.0
  9
$PUCSORGFRONT
 10
0.0
 20
0.0
 30
0.0
  9
$PUCSORGBACK
 10
0.0
 20
0.0
 30
0.0
  9
$USERI1
 70
     0
  9
$USERI2
 70
     0
  9
$USERI3
 70
     0
  9
$USERI4
 70
     0
  9
$USERI5
 70
     0
  9
$USERR1
 40
0.0
  9
$USERR2
 40
0.0
  9
$USERR3
 40
0.0
  9
$USERR4
 40
0.0
  9
$USERR5
 40
0.0
  9
$WORLDVIEW
 70
     1
  9
$SHADEDGE
 70
     3
  9
$SHADEDIF
 70
    70
  9
$TILEMODE
 70
     1
  9
$MAXACTVP
 70
    16
  9
$PINSBASE
 10
0.0
 20
0.0
 30
0.0
  9
$PLIMCHECK
 70
     0
  9
$PEXTMIN
 10
1.000000000000000E+20
 20
1.000000000000000E+20
 30
1.000000000000000E+20
  9
$PEXTMAX
 10
-1.000000000000000E+20
 20
-1.000000000000000E+20
 30
-1.000000000000000E+20
  9
$PLIMMIN
 10
0.0
 20
0.0
  9
$PLIMMAX
 10
420.0
 20
297.0
  9
$UNITMODE
 70
     0
  9
$VISRETAIN
 70
     0
  9
$PLINEGEN
 70
     0
  9
$PSLTSCALE
 70
     0
  9
$TREEDEPTH
 70
  3020
  9
$CMLSTYLE
  2
STANDARD
  9
$CMLJUST
 70
     0
  9
$CMLSCALE
 40
1.0
  9
$PROXYGRAPHICS
 70
     1
  9
$MEASUREMENT
 70
     1
  9
$CELWEIGHT
370
    -1
  9
$ENDCAPS
280
     0
  9
$JOINSTYLE
280
     0
  9
$LWDISPLAY
290
     0
  9
$INSUNITS
 70
     0
  9
$HYPERLINKBASE
  1

  9
$STYLESHEET
  1
INABASS.CTB
  9
$XEDIT
290
     1
  9
$CEPSNTYPE
380
     0
  9
$PSTYLEMODE
290
     1
  9
$FINGERPRINTGUID
  2
{3B57B35E-7D77-4BBF-81B7-6C583B9EB24C}
  9
$VERSIONGUID
  2
{11222903-E0CD-4975-9254-10A4C4C2BAA5}
  9
$EXTNAMES
290
     1
  9
$PSVPSCALE
 40
0.0
  9
$OLESTARTUP
290
     0
  0
ENDSEC
  0
SECTION
  2
CLASSES
  0
CLASS
  1
ACDBDICTIONARYWDFLT
  2
AcDbDictionaryWithDefault
  3
ObjectDBX Classes
 90
        0
280
     0
281
     0
  0
CLASS
  1
SORTENTSTABLE
  2
AcDbSortentsTable
  3
ObjectDBX Classes
 90
        0
280
     0
281
     0
  0
CLASS
  1
DICTIONARYVAR
  2
AcDbDictionaryVar
  3
ObjectDBX Classes
 90
        0
280
     0
281
     0
  0
CLASS
  1
ACDBPLACEHOLDER
  2
AcDbPlaceHolder
  3
ObjectDBX Classes
 90
        0
280
     0
281
     0
  0
CLASS
  1
LAYOUT
  2
AcDbLayout
  3
ObjectDBX Classes
 90
        0
280
     0
281
     0
  0
CLASS
  1
MATERIAL
  2
AcDbMaterial
  3
ObjectDBX Classes
 90
     1153
280
     0
281
     0
  0
CLASS
  1
VISUALSTYLE
  2
AcDbVisualStyle
  3
ObjectDBX Classes
 90
     4095
280
     0
281
     0
  0
CLASS
  1
TABLESTYLE
  2
AcDbTableStyle
  3
ObjectDBX Classes
 90
     4095
280
     0
281
     0
  0
CLASS
  1
SCALE
  2
AcDbScale
  3
ObjectDBX Classes
 90
     1153
280
     0
281
     0
  0
CLASS
  1
MLEADERSTYLE
  2
AcDbMLeaderStyle
  3
ACDB_MLEADERSTYLE_CLASS
 90
     4095
280
     0
281
     0
  0
CLASS
  1
ACDBSECTIONVIEWSTYLE
  2
AcDbSectionViewStyle
  3
ObjectDBX Classes
 90
     1025
280
     0
281
     0
  0
CLASS
  1
ACDBDETAILVIEWSTYLE
  2
AcDbDetailViewStyle
  3
ObjectDBX Classes
 90
     1025
280
     0
281
     0
  0
CLASS
  1
CELLSTYLEMAP
  2
AcDbCellStyleMap
  3
ObjectDBX Classes
 90
     1152
280
     0
281
     0
  0
ENDSEC
  0
SECTION
  2
TABLES
  0
TABLE
  2
VPORT
  5
746D
330
0
100
AcDbSymbolTable
 70
     1
  0
VPORT
  5
24427
330
746D
100
AcDbSymbolTableRecord
100
AcDbViewportTableRecord
  2
*Active
 70
     0
 10
0.0
 20
0.0
 11
1.0
 21
1.0
 12
8223.914936223703
 22
5908.52837350687
 13
0.0
 23
0.0
 14
10.0
 24
10.0
 15
10.0
 25
10.0
 16
0.0
 26
0.0
 36
1.0
 17
0.0
 27
0.0
 37
0.0
 40
11912.29972905077
 41
1.648541114058355
 42
50.0
 43
0.0
 44
0.0
 50
0.0
 51
0.0
 71
     0
 72
     0
 73
     1
 74
     0
 75
     0
 76
     0
 77
     0
 78
     0
281
     0
 65
     1
110
0.0
120
0.0
130
0.0
111
1.0
121
0.0
131
0.0
112
0.0
122
1.0
132
0.0
 79
     0
146
0.0
1001
ACAD_NAV_VCDISPLAY
1070
     3
  0
ENDTAB
  0
TABLE
  2
LTYPE
  5
746A
330
0
100
AcDbSymbolTable
 70
     6
  0
LTYPE
  5
7477
330
746A
100
AcDbSymbolTableRecord
100
AcDbLinetypeTableRecord
  2
BYBLOCK
 70
     0
  3

 72
    65
 73
     0
 40
0.0
  0
LTYPE
  5
7478
330
746A
100
AcDbSymbolTableRecord
100
AcDbLinetypeTableRecord
  2
BYLAYER
 70
     0
  3

 72
    65
 73
     0
 40
0.0
  0
LTYPE
  5
7479
330
746A
100
AcDbSymbolTableRecord
100
AcDbLinetypeTableRecord
  2
CONTINUOUS
 70
     0
  3
Solid line
 72
    65
 73
     0
 40
0.0
  0
LTYPE
  5
781A
330
746A
100
AcDbSymbolTableRecord
100
AcDbLinetypeTableRecord
  2
HIDDEN
 70
     0
  3
__ __ __ __ __ __ __ __ __ __ __ __ __ __ __ __
 72
    65
 73
     2
 40
0.375
 49
0.25
 74
     0
 49
-0.125
 74
     0
  0
LTYPE
  5
781B
330
746A
100
AcDbSymbolTableRecord
100
AcDbLinetypeTableRecord
  2
PHANTOM
 70
     0
  3
______  __  __  ______  __  __  ______  __  __ 
 72
    65
 73
     6
 40
2.5
 49
1.25
 74
     0
 49
-0.25
 74
     0
 49
0.25
 74
     0
 49
-0.25
 74
     0
 49
0.25
 74
     0
 49
-0.25
 74
     0
  0
LTYPE
  5
1E61C
330
746A
100
AcDbSymbolTableRecord
100
AcDbLinetypeTableRecord
  2
CENTER
 70
     0
  3
____ _ ____ _ ____ _ ____ _ ____ _ ____ _ ____ 
 72
    65
 73
     4
 40
2.0
 49
1.25
 74
     0
 49
-0.25
 74
     0
 49
0.25
 74
     0
 49
-0.25
 74
     0
  0
ENDTAB
  0
TABLE
  2
LAYER
  5
7467
102
{ACAD_XDICTIONARY
360
1D35E
102
}
330
0
100
AcDbSymbolTable
 70
    20
  0
LAYER
  5
7474
102
{ACAD_XDICTIONARY
360
24485
102
}
330
7467
100
AcDbSymbolTableRecord
100
AcDbLayerTableRecord
  2
0
 70
     0
 62
     7
  6
CONTINUOUS
370
    -3
390
159AE
  0
LAYER
  5
DEB3
102
{ACAD_XDICTIONARY
360
24487
102
}
330
7467
100
AcDbSymbolTableRecord
100
AcDbLayerTableRecord
  2
寸法
 70
     0
 62
     4
  6
CONTINUOUS
370
    -3
390
159AE
  0
LAYER
  5
DEB4
102
{ACAD_XDICTIONARY
360
24489
102
}
330
7467
100
AcDbSymbolTableRecord
100
AcDbLayerTableRecord
  2
部品1
 70
     0
 62
     7
  6
CONTINUOUS
370
    -3
390
159AE
  0
LAYER
  5
DEB5
102
{ACAD_XDICTIONARY
360
2448B
102
}
330
7467
100
AcDbSymbolTableRecord
100
AcDbLayerTableRecord
  2
補助
 70
     0
 62
    -1
  6
CONTINUOUS
370
    -3
390
159AE
  0
LAYER
  5
DEB6
102
{ACAD_XDICTIONARY
360
2448D
102
}
330
7467
100
AcDbSymbolTableRecord
100
AcDbLayerTableRecord
  2
文字
 70
     0
 62
     7
  6
CONTINUOUS
370
    -3
390
159AE
  0
LAYER
  5
F255
330
7467
100
AcDbSymbolTableRecord
100
AcDbLayerTableRecord
  2
DEFPOINTS
 70
     0
 62
     7
  6
CONTINUOUS
290
     0
370
    -3
390
159AE
  0
LAYER
  5
10B54
102
{ACAD_XDICTIONARY
360
2448F
102
}
330
7467
100
AcDbSymbolTableRecord
100
AcDbLayerTableRecord
  2
仕様書枠
 70
     0
 62
   230
  6
CONTINUOUS
370
    -3
390
159AE
  0
LAYER
  5
11729
102
{ACAD_XDICTIONARY
360
24491
102
}
330
7467
100
AcDbSymbolTableRecord
100
AcDbLayerTableRecord
  2
Ｇ．Ｌ
 70
     0
 62
    30
  6
CONTINUOUS
370
    -3
390
159AE
  0
LAYER
  5
1173F
102
{ACAD_XDICTIONARY
360
24493
102
}
330
7467
100
AcDbSymbolTableRecord
100
AcDbLayerTableRecord
  2
細線
 70
     0
 62
     5
  6
CONTINUOUS
370
    -3
390
159AE
  0
LAYER
  5
142E2
102
{ACAD_XDICTIONARY
360
24495
102
}
330
7467
100
AcDbSymbolTableRecord
100
AcDbLayerTableRecord
  2
破線
 70
     0
 62
     2
  6
HIDDEN
370
    -3
390
159AE
  0
LAYER
  5
1E61F
102
{ACAD_XDICTIONARY
360
24497
102
}
330
7467
100
AcDbSymbolTableRecord
100
AcDbLayerTableRecord
  2
センター
 70
     0
 62
     3
  6
CENTER
370
    -3
390
159AE
  0
ENDTAB
  0
TABLE
  2
STYLE
  5
7468
330
0
100
AcDbSymbolTable
 70
     9
  0
STYLE
  5
7475
330
7468
100
AcDbSymbolTableRecord
100
AcDbTextStyleTableRecord
  2
STANDARD
 70
     0
 40
0.0
 41
1.0
 50
0.0
 71
     0
 42
4.0
  3
txt
  4
C:\AutoCAD LT\bigfont.shx
  0
STYLE
  5
F706
330
7468
100
AcDbSymbolTableRecord
100
AcDbTextStyleTableRecord
  2
STYLE1
 70
     0
 40
0.0
 41
1.0
 50
0.0
 71
     0
 42
100.0
  3
isocp.shx
  4
bigfont.shx
  0
STYLE
  5
103BF
330
7468
100
AcDbSymbolTableRecord
100
AcDbTextStyleTableRecord
  2
STYLE2
 70
     0
 40
0.0
 41
1.0
 50
0.0
 71
     0
 42
100.0
  3
MS PGothic.ttf
  4

1001
ACAD
1000
MS PGothic
1071
    32818
  0
ENDTAB
  0
TABLE
  2
VIEW
  5
746B
330
0
100
AcDbSymbolTable
 70
     0
  0
ENDTAB
  0
TABLE
  2
UCS
  5
746C
330
0
100
AcDbSymbolTable
 70
     0
  0
ENDTAB
  0
TABLE
  2
APPID
  5
746E
330
0
100
AcDbSymbolTable
 70
     8
  0
APPID
  5
7476
330
746E
100
AcDbSymbolTableRecord
100
AcDbRegAppTableRecord
  2
ACAD
 70
     0
  0
APPID
  5
DEA9
330
746E
100
AcDbSymbolTableRecord
100
AcDbRegAppTableRecord
  2
CONTENTBLOCKICON
 70
     0
  0
APPID
  5
DEAA
330
746E
100
AcDbSymbolTableRecord
100
AcDbRegAppTableRecord
  2
CONTENTBLOCKDESCRIPTION
 70
     0
  0
APPID
  5
E71D
330
746E
100
AcDbSymbolTableRecord
100
AcDbRegAppTableRecord
  2
CONTENTTABDATA
 70
     0
  0
APPID
  5
E71E
330
746E
100
AcDbSymbolTableRecord
100
AcDbRegAppTableRecord
  2
CONTENTCURRENTTAB
 70
     0
  0
APPID
  5
F3BA
330
746E
100
AcDbSymbolTableRecord
100
AcDbRegAppTableRecord
  2
DRAWINGVARIABLESXDATA
 70
     0
  0
APPID
  5
244A1
330
746E
100
AcDbSymbolTableRecord
100
AcDbRegAppTableRecord
  2
ACAD_NAV_VCDISPLAY
 70
     0
  0
APPID
  5
244DE
330
746E
100
AcDbSymbolTableRecord
100
AcDbRegAppTableRecord
  2
ACAD_MLEADERVER
 70
     0
  0
ENDTAB
  0
TABLE
  2
DIMSTYLE
  5
746F
330
0
100
AcDbSymbolTable
 70
     9
100
AcDbDimStyleTable
 71
     1
340
F71F
  0
DIMSTYLE
105
F71F
102
{ACAD_REACTORS
330
141C3
330
14206
330
146E8
330
13BF0
330
19A46
330
19878
330
13BBF
330
13B6D
330
13B51
330
127A4
330
1277C
330
1277A
330
12779
330
1E1EB
330
1E200
330
1E202
330
1E210
330
1E211
330
1E212
330
1E21A
330
1E21F
330
236FA
330
236C4
330
23E1D
330
23E1E
330
23E1F
330
23F67
330
241C1
330
24252
330
24253
330
24385
102
}
330
746F
100
AcDbSymbolTableRecord
100
AcDbDimStyleTableRecord
  2
INABA_S40G
 70
     0
 40
40.0
 41
2.5
 42
0.5
 43
7.0
 44
1.5
 73
     0
 74
     0
 77
     3
 78
     8
140
3.0
141
0.0
143
0.0394
147
1.0
172
     1
173
     1
174
     1
178
     7
271
     1
288
     1
340
F706
341
F770
343
F770
344
F770
  0
DIMSTYLE
105
1FCC6
102
{ACAD_REACTORS
330
23980
102
}
330
746F
100
AcDbSymbolTableRecord
100
AcDbDimStyleTableRecord
  2
INABA_S40
 70
     0
 40
40.0
 41
2.5
 42
0.5
 43
7.0
 44
1.5
 73
     0
 74
     0
 77
     3
 78
     8
140
3.0
141
0.0
143
0.0394
147
1.0
172
     1
173
     1
174
     1
175
     1
178
     7
289
     0
340
7475
  0
ENDTAB
  0
TABLE
  2
BLOCK_RECORD
  5
7466
330
0
100
AcDbSymbolTable
 70
    76
  0
BLOCK_RECORD
  5
747D
330
7466
100
AcDbSymbolTableRecord
100
AcDbBlockTableRecord
  2
*MODEL_SPACE
340
159B3
  0
BLOCK_RECORD
  5
747A
330
7466
100
AcDbSymbolTableRecord
100
AcDbBlockTableRecord
  2
*PAPER_SPACE
340
159B4
  0
BLOCK_RECORD
  5
F770
330
7466
100
AcDbSymbolTableRecord
100
AcDbBlockTableRecord
  2
_DOTSMALL
340
0
102
{BLKREFS
331
23EEC
331
23EED
331
23EFF
331
23F00
331
23F0A
331
23F0B
331
23F15
331
23F16
331
23F1E
331
23F1F
331
238C0
331
238C1
331
238D4
331
238D5
331
2392D
331
2392E
331
23956
331
23957
331
23F32
331
23F33
331
23F4D
331
23F4E
331
23F56
331
23F57
331
23F9C
331
23F9D
331
23FA7
331
23FA8
331
23FFA
331
23FFB
331
24015
331
24016
331
24031
331
24032
331
2403A
331
2403B
331
24043
331
24044
331
2404C
331
2404D
331
24055
331
24056
331
24060
331
24061
331
24074
331
24075
331
24088
331
24089
331
24091
331
24092
331
2409A
331
2409B
331
240A4
331
240A5
331
241D4
331
241D5
331
24288
331
24289
331
24291
331
24292
331
24395
331
24396
102
}
  0
BLOCK_RECORD
  5
127BE
330
7466
100
AcDbSymbolTableRecord
100
AcDbBlockTableRecord
  2
*D1
340
0
  0
BLOCK_RECORD
  5
127CC
330
7466
100
AcDbSymbolTableRecord
100
AcDbBlockTableRecord
  2
*D2
340
0
  0
BLOCK_RECORD
  5
127E6
330
7466
100
AcDbSymbolTableRecord
100
AcDbBlockTableRecord
  2
*D3
340
0
  0
BLOCK_RECORD
  5
12832
330
7466
100
AcDbSymbolTableRecord
100
AcDbBlockTableRecord
  2
*D4
340
0
  0
BLOCK_RECORD
  5
13B45
330
7466
100
AcDbSymbolTableRecord
100
AcDbBlockTableRecord
  2
*D5
340
0
  0
BLOCK_RECORD
  5
13B60
330
7466
100
AcDbSymbolTableRecord
100
AcDbBlockTableRecord
  2
*D6
340
0
  0
BLOCK_RECORD
  5
13BB3
330
7466
100
AcDbSymbolTableRecord
100
AcDbBlockTableRecord
  2
*D7
340
0
  0
BLOCK_RECORD
  5
13DA8
330
7466
100
AcDbSymbolTableRecord
100
AcDbBlockTableRecord
  2
*D8
340
0
  0
BLOCK_RECORD
  5
141B5
330
7466
100
AcDbSymbolTableRecord
100
AcDbBlockTableRecord
  2
*D9
340
0
  0
BLOCK_RECORD
  5
141F9
330
7466
100
AcDbSymbolTableRecord
100
AcDbBlockTableRecord
  2
*D10
340
0
  0
BLOCK_RECORD
  5
146DC
330
7466
100
AcDbSymbolTableRecord
100
AcDbBlockTableRecord
  2
*D11
340
0
  0
BLOCK_RECORD
  5
19879
330
7466
100
AcDbSymbolTableRecord
100
AcDbBlockTableRecord
  2
*D12
340
0
  0
BLOCK_RECORD
  5
19A47
330
7466
100
AcDbSymbolTableRecord
100
AcDbBlockTableRecord
  2
*D13
340
0
  0
BLOCK_RECORD
  5
1E220
330
7466
100
AcDbSymbolTableRecord
100
AcDbBlockTableRecord
  2
*D14
340
0
  0
BLOCK_RECORD
  5
1E22C
330
7466
100
AcDbSymbolTableRecord
100
AcDbBlockTableRecord
  2
*D15
340
0
  0
BLOCK_RECORD
  5
1E238
330
7466
100
AcDbSymbolTableRecord
100
AcDbBlockTableRecord
  2
*D16
340
0
  0
BLOCK_RECORD
  5
1E246
330
7466
100
AcDbSymbolTableRecord
100
AcDbBlockTableRecord
  2
*D17
340
0
  0
BLOCK_RECORD
  5
1E252
330
7466
100
AcDbSymbolTableRecord
100
AcDbBlockTableRecord
  2
*D18
340
0
  0
BLOCK_RECORD
  5
1E260
330
7466
100
AcDbSymbolTableRecord
100
AcDbBlockTableRecord
  2
*D19
340
0
  0
BLOCK_RECORD
  5
1E26E
330
7466
100
AcDbSymbolTableRecord
100
AcDbBlockTableRecord
  2
*D20
340
0
  0
BLOCK_RECORD
  5
1E27A
330
7466
100
AcDbSymbolTableRecord
100
AcDbBlockTableRecord
  2
*D21
340
0
  0
BLOCK_RECORD
  5
1FBDA
330
7466
100
AcDbSymbolTableRecord
100
AcDbBlockTableRecord
  2
_DOT
340
0
102
{BLKREFS
331
23FE5
331
23FE6
102
}
  0
BLOCK_RECORD
  5
23784
330
7466
100
AcDbSymbolTableRecord
100
AcDbBlockTableRecord
  2
*D65
340
0
  0
BLOCK_RECORD
  5
2379E
330
7466
100
AcDbSymbolTableRecord
100
AcDbBlockTableRecord
  2
*D66
340
0
  0
BLOCK_RECORD
  5
23981
330
7466
100
AcDbSymbolTableRecord
100
AcDbBlockTableRecord
  2
*D67
340
0
  0
BLOCK_RECORD
  5
23E22
330
7466
100
AcDbSymbolTableRecord
100
AcDbBlockTableRecord
  2
*D68
340
0
  0
BLOCK_RECORD
  5
23E2E
330
7466
100
AcDbSymbolTableRecord
100
AcDbBlockTableRecord
  2
*D69
340
0
  0
BLOCK_RECORD
  5
23E3A
330
7466
100
AcDbSymbolTableRecord
100
AcDbBlockTableRecord
  2
*D70
340
0
  0
BLOCK_RECORD
  5
23F68
330
7466
100
AcDbSymbolTableRecord
100
AcDbBlockTableRecord
  2
*D71
340
0
  0
BLOCK_RECORD
  5
241C5
330
7466
100
AcDbSymbolTableRecord
100
AcDbBlockTableRecord
  2
*D72
340
0
  0
BLOCK_RECORD
  5
24262
330
7466
100
AcDbSymbolTableRecord
100
AcDbBlockTableRecord
  2
*D73
340
0
  0
BLOCK_RECORD
  5
2426E
330
7466
100
AcDbSymbolTableRecord
100
AcDbBlockTableRecord
  2
*D74
340
0
  0
BLOCK_RECORD
  5
24386
330
7466
100
AcDbSymbolTableRecord
100
AcDbBlockTableRecord
  2
*D75
340
0
  0
ENDTAB
  0
ENDSEC
  0
SECTION
  2
BLOCKS
  0
BLOCK
  5
7489
330
747D
100
AcDbEntity
  8
0
100
AcDbBlockBegin
  2
*MODEL_SPACE
 70
     0
 10
0.0
 20
0.0
 30
0.0
  3
*MODEL_SPACE
  1

  0
ENDBLK
  5
748A
330
747D
100
AcDbEntity
  8
0
100
AcDbBlockEnd
  0
BLOCK
  5
7487
330
747A
100
AcDbEntity
 67
     1
  8
0
100
AcDbBlockBegin
  2
*PAPER_SPACE
 70
     0
 10
0.0
 20
0.0
 30
0.0
  3
*PAPER_SPACE
  1

  0
ENDBLK
  5
7488
330
747A
100
AcDbEntity
 67
     1
  8
0
100
AcDbBlockEnd
  0
BLOCK
  5
F771
330
F770
100
AcDbEntity
  8
0
 48
50.0
100
AcDbBlockBegin
  2
_DOTSMALL
 70
     0
 10
0.0
 20
0.0
 30
0.0
  3
_DOTSMALL
  1

  0
LWPOLYLINE
  5
F772
330
F770
100
AcDbEntity
  8
0
  6
ByBlock
 62
     0
 48
50.0
100
AcDbPolyline
 90
        2
 70
     1
 43
0.5
 10
-0.0625
 20
0.0
 42
1.0
 10
0.0625
 20
0.0
 42
1.0
  0
ENDBLK
  5
F776
330
F770
100
AcDbEntity
  8
0
 48
50.0
100
AcDbBlockEnd
  0
BLOCK
  5
139E3
330
127BE
100
AcDbEntity
  8
0
 48
50.0
100
AcDbBlockBegin
  2
*D1
 70
     1
 10
0.0
 20
0.0
 30
0.0
  3
*D1
  1

  0
LINE
  5
23951
330
127BE
100
AcDbEntity
  8
寸法
 62
     0
 48
50.0
370
    -2
100
AcDbLine
 10
9335.693956914472
 20
3150.0
 30
0.0
 11
8451.943827731215
 21
3150.0
 31
0.0
  0
LINE
  5
23952
330
127BE
100
AcDbEntity
  8
寸法
 62
     0
 48
50.0
370
    -2
100
AcDbLine
 10
9260.693956914474
 20
3100.0
 30
0.0
 11
8451.943827731215
 21
3100.0
 31
0.0
  0
LINE
  5
23953
330
127BE
100
AcDbEntity
  8
寸法
 62
     0
 48
50.0
370
    -2
100
AcDbLine
 10
8511.943827731213
 20
3150.0
 30
0.0
 11
8511.943827731213
 21
3250.000000000002
 31
0.0
  0
LINE
  5
23954
330
127BE
100
AcDbEntity
  8
寸法
 62
     0
 48
50.0
370
    -2
100
AcDbLine
 10
8511.943827731213
 20
3100.0
 30
0.0
 11
8511.943827731213
 21
2687.905511811024
 31
0.0
  0
LINE
  5
23955
330
127BE
100
AcDbEntity
  8
寸法
 62
     0
 48
50.0
370
    -2
100
AcDbLine
 10
8511.943827731213
 20
3150.0
 30
0.0
 11
8511.943827731213
 21
3100.0
 31
0.0
  0
INSERT
  5
23956
330
127BE
100
AcDbEntity
  8
寸法
 62
     0
 48
50.0
370
    -2
100
AcDbBlockReference
  2
_DOTSMALL
 10
8511.943827731213
 20
3150.0
 30
0.0
 41
100.0
 42
100.0
 43
100.0
 50
270.0
  0
INSERT
  5
23957
330
127BE
100
AcDbEntity
  8
寸法
 62
     0
 48
50.0
370
    -2
100
AcDbBlockReference
  2
_DOTSMALL
 10
8511.943827731213
 20
3100.0
 30
0.0
 41
100.0
 42
100.0
 43
100.0
 50
90.0
  0
MTEXT
  5
23958
330
127BE
100
AcDbEntity
  8
寸法
 62
     7
 48
50.0
100
AcDbMText
 10
8411.943827731214
 20
2793.952755905514
 30
0.0
 40
120.0
 41
0.0
 71
     5
 72
     1
  1
\A1;50
  7
STYLE1
 11
0.0000000000000001
 21
1.0
 31
0.0
 73
     1
 44
1.0
1001
ACAD
1000
MTEXTBEGIN
1070
    73
1070
     1
1070
    44
1040
1.0
1070
    74
1070
     0
1000
MTEXTEND
  0
POINT
  5
23959
330
127BE
100
AcDbEntity
  8
DEFPOINTS
 62
     0
 48
50.0
100
AcDbPoint
 10
9355.693956914477
 20
3150.0
 30
0.0
  0
POINT
  5
2395A
330
127BE
100
AcDbEntity
  8
DEFPOINTS
 62
     0
 48
50.0
100
AcDbPoint
 10
9280.693956914474
 20
3100.0
 30
0.0
  0
POINT
  5
2395B
330
127BE
100
AcDbEntity
  8
DEFPOINTS
 62
     0
 48
50.0
100
AcDbPoint
 10
8511.943827731213
 20
3100.0
 30
0.0
  0
ENDBLK
  5
139EF
330
127BE
100
AcDbEntity
  8
0
 48
50.0
100
AcDbBlockEnd
  0
BLOCK
  5
13B92
330
127CC
100
AcDbEntity
  8
0
 48
50.0
100
AcDbBlockBegin
  2
*D2
 70
     1
 10
0.0
 20
0.0
 30
0.0
  3
*D2
  1

  0
LINE
  5
23F4A
330
127CC
100
AcDbEntity
  8
寸法
 62
     0
 48
50.0
370
    -2
100
AcDbLine
 10
9260.693956914474
 20
3100.0
 30
0.0
 11
8151.943827731214
 21
3100.0
 31
0.0
  0
LINE
  5
23F4B
330
127CC
100
AcDbEntity
  8
寸法
 62
     0
 48
50.0
370
    -2
100
AcDbLine
 10
9275.693956914476
 20
5175.000000000005
 30
0.0
 11
8151.943827731214
 21
5175.000000000005
 31
0.0
  0
LINE
  5
23F4C
330
127CC
100
AcDbEntity
  8
寸法
 62
     0
 48
50.0
370
    -2
100
AcDbLine
 10
8211.943827731213
 20
3100.0
 30
0.0
 11
8211.943827731214
 21
5175.000000000005
 31
0.0
  0
INSERT
  5
23F4D
330
127CC
100
AcDbEntity
  8
寸法
 62
     0
 48
50.0
370
    -2
100
AcDbBlockReference
  2
_DOTSMALL
 10
8211.943827731213
 20
3100.0
 30
0.0
 41
100.0
 42
100.0
 43
100.0
 50
270.0
  0
INSERT
  5
23F4E
330
127CC
100
AcDbEntity
  8
寸法
 62
     0
 48
50.0
370
    -2
100
AcDbBlockReference
  2
_DOTSMALL
 10
8211.943827731214
 20
5175.000000000005
 30
0.0
 41
100.0
 42
100.0
 43
100.0
 50
90.0
  0
MTEXT
  5
23F4F
330
127CC
100
AcDbEntity
  8
寸法
 62
     7
 48
50.0
100
AcDbMText
 10
8111.932016707591
 20
4137.500000000002
 30
0.0
 40
120.0
 41
0.0
 71
     5
 72
     1
  1
\A1;2075
  7
STYLE1
 11
0.0000000000000001
 21
1.0
 31
0.0
 73
     1
 44
1.0
1001
ACAD
1000
MTEXTBEGIN
1070
    73
1070
     1
1070
    44
1040
1.0
1070
    74
1070
     0
1000
MTEXTEND
  0
POINT
  5
23F50
330
127CC
100
AcDbEntity
  8
DEFPOINTS
 62
     0
 48
50.0
100
AcDbPoint
 10
9280.693956914474
 20
3100.0
 30
0.0
  0
POINT
  5
23F51
330
127CC
100
AcDbEntity
  8
DEFPOINTS
 62
     0
 48
50.0
100
AcDbPoint
 10
9295.693956914476
 20
5175.000000000005
 30
0.0
  0
POINT
  5
23F52
330
127CC
100
AcDbEntity
  8
DEFPOINTS
 62
     0
 48
50.0
100
AcDbPoint
 10
8211.943827731214
 20
5175.000000000005
 30
0.0
  0
ENDBLK
  5
13B9C
330
127CC
100
AcDbEntity
  8
0
 48
50.0
100
AcDbBlockEnd
  0
BLOCK
  5
139C1
330
127E6
100
AcDbEntity
  8
0
 48
50.0
100
AcDbBlockBegin
  2
*D3
 70
     1
 10
0.0
 20
0.0
 30
0.0
  3
*D3
  1

  0
LINE
  5
23F53
330
127E6
100
AcDbEntity
  8
寸法
 62
     0
 48
50.0
370
    -2
100
AcDbLine
 10
9335.693956914472
 20
4940.0
 30
0.0
 11
8451.943827731216
 21
4940.0
 31
0.0
  0
LINE
  5
23F54
330
127E6
100
AcDbEntity
  8
寸法
 62
     0
 48
50.0
370
    -2
100
AcDbLine
 10
9335.693956914472
 20
3150.0
 30
0.0
 11
8451.943827731215
 21
3150.0
 31
0.0
  0
LINE
  5
23F55
330
127E6
100
AcDbEntity
  8
寸法
 62
     0
 48
50.0
370
    -2
100
AcDbLine
 10
8511.943827731217
 20
4940.0
 30
0.0
 11
8511.943827731213
 21
3150.0
 31
0.0
  0
INSERT
  5
23F56
330
127E6
100
AcDbEntity
  8
寸法
 62
     0
 48
50.0
370
    -2
100
AcDbBlockReference
  2
_DOTSMALL
 10
8511.943827731217
 20
4940.0
 30
0.0
 41
100.0
 42
100.0
 43
100.0
 50
90.0
  0
INSERT
  5
23F57
330
127E6
100
AcDbEntity
  8
寸法
 62
     0
 48
50.0
370
    -2
100
AcDbBlockReference
  2
_DOTSMALL
 10
8511.943827731213
 20
3150.0
 30
0.0
 41
100.0
 42
100.0
 43
100.0
 50
270.0
  0
MTEXT
  5
23F58
330
127E6
100
AcDbEntity
  8
寸法
 62
     7
 48
50.0
100
AcDbMText
 10
8411.943827731214
 20
4045.000000000001
 30
0.0
 40
120.0
 41
0.0
 71
     5
 72
     1
  1
\A1;1790
  7
STYLE1
 11
0.0000000000000001
 21
1.0
 31
0.0
 73
     1
 44
1.0
1001
ACAD
1000
MTEXTBEGIN
1070
    73
1070
     1
1070
    44
1040
1.0
1070
    74
1070
     0
1000
MTEXTEND
  0
POINT
  5
23F59
330
127E6
100
AcDbEntity
  8
DEFPOINTS
 62
     0
 48
50.0
100
AcDbPoint
 10
9355.693956914477
 20
4940.0
 30
0.0
  0
POINT
  5
23F5A
330
127E6
100
AcDbEntity
  8
DEFPOINTS
 62
     0
 48
50.0
100
AcDbPoint
 10
9355.693956914477
 20
3150.0
 30
0.0
  0
POINT
  5
23F5B
330
127E6
100
AcDbEntity
  8
DEFPOINTS
 62
     0
 48
50.0
100
AcDbPoint
 10
8511.943827731213
 20
3150.0
 30
0.0
  0
ENDBLK
  5
139CB
330
127E6
100
AcDbEntity
  8
0
 48
50.0
100
AcDbBlockEnd
  0
BLOCK
  5
13B9D
330
12832
100
AcDbEntity
  8
0
 48
50.0
100
AcDbBlockBegin
  2
*D4
 70
     1
 10
0.0
 20
0.0
 30
0.0
  3
*D4
  1

  0
LINE
  5
24012
330
12832
100
AcDbEntity
  8
寸法
 62
     0
 48
50.0
370
    -2
100
AcDbLine
 10
11165.69395691447
 20
3100.0
 30
0.0
 11
11910.6211148866
 21
3100.0
 31
0.0
  0
LINE
  5
24013
330
12832
100
AcDbEntity
  8
寸法
 62
     0
 48
50.0
370
    -2
100
AcDbLine
 10
11245.69395691447
 20
5120.0
 30
0.0
 11
11910.6211148866
 21
5120.0
 31
0.0
  0
LINE
  5
24014
330
12832
100
AcDbEntity
  8
寸法
 62
     0
 48
50.0
370
    -2
100
AcDbLine
 10
11850.6211148866
 20
3100.0
 30
0.0
 11
11850.6211148866
 21
5120.0
 31
0.0
  0
INSERT
  5
24015
330
12832
100
AcDbEntity
  8
寸法
 62
     0
 48
50.0
370
    -2
100
AcDbBlockReference
  2
_DOTSMALL
 10
11850.6211148866
 20
3100.0
 30
0.0
 41
100.0
 42
100.0
 43
100.0
 50
270.0
  0
INSERT
  5
24016
330
12832
100
AcDbEntity
  8
寸法
 62
     0
 48
50.0
370
    -2
100
AcDbBlockReference
  2
_DOTSMALL
 10
11850.6211148866
 20
5120.0
 30
0.0
 41
100.0
 42
100.0
 43
100.0
 50
90.0
  0
MTEXT
  5
24017
330
12832
100
AcDbEntity
  8
寸法
 62
     7
 48
50.0
100
AcDbMText
 10
11750.60930386298
 20
4110.000000000002
 30
0.0
 40
120.0
 41
0.0
 71
     5
 72
     1
  1
\A1;2020
  7
STYLE1
 11
0.0000000000000001
 21
1.0
 31
0.0
 73
     1
 44
1.0
1001
ACAD
1000
MTEXTBEGIN
1070
    73
1070
     1
1070
    44
1040
1.0
1070
    74
1070
     0
1000
MTEXTEND
  0
POINT
  5
24018
330
12832
100
AcDbEntity
  8
DEFPOINTS
 62
     0
 48
50.0
100
AcDbPoint
 10
11145.69395691447
 20
3100.0
 30
0.0
  0
POINT
  5
24019
330
12832
100
AcDbEntity
  8
DEFPOINTS
 62
     0
 48
50.0
100
AcDbPoint
 10
11225.69395691447
 20
5120.0
 30
0.0
  0
POINT
  5
2401A
330
12832
100
AcDbEntity
  8
DEFPOINTS
 62
     0
 48
50.0
100
AcDbPoint
 10
11850.6211148866
 20
5120.0
 30
0.0
  0
ENDBLK
  5
13BA7
330
12832
100
AcDbEntity
  8
0
 48
50.0
100
AcDbBlockEnd
  0
BLOCK
  5
14D1F
330
13B45
100
AcDbEntity
  8
0
 48
50.0
100
AcDbBlockBegin
  2
*D5
 70
     1
 10
0.0
 20
0.0
 30
0.0
  3
*D5
  1

  0
LINE
  5
24037
330
13B45
100
AcDbEntity
  8
寸法
 62
     0
 48
50.0
370
    -2
100
AcDbLine
 10
11145.69395691447
 20
5141.810679611655
 30
0.0
 11
11145.69395691447
 21
5633.657453579304
 31
0.0
  0
LINE
  5
24038
330
13B45
100
AcDbEntity
  8
寸法
 62
     0
 48
50.0
370
    -2
100
AcDbLine
 10
9355.693956914477
 20
5191.001618122975
 30
0.0
 11
9355.693956914477
 21
5633.657453579304
 31
0.0
  0
LINE
  5
24039
330
13B45
100
AcDbEntity
  8
寸法
 62
     0
 48
50.0
370
    -2
100
AcDbLine
 10
11145.69395691447
 20
5573.657453579304
 30
0.0
 11
9355.693956914477
 21
5573.657453579304
 31
0.0
  0
INSERT
  5
2403A
330
13B45
100
AcDbEntity
  8
寸法
 62
     0
 48
50.0
370
    -2
100
AcDbBlockReference
  2
_DOTSMALL
 10
11145.69395691447
 20
5573.657453579304
 30
0.0
 41
100.0
 42
100.0
 43
100.0
  0
INSERT
  5
2403B
330
13B45
100
AcDbEntity
  8
寸法
 62
     0
 48
50.0
370
    -2
100
AcDbBlockReference
  2
_DOTSMALL
 10
9355.693956914477
 20
5573.657453579304
 30
0.0
 41
100.0
 42
100.0
 43
100.0
 50
180.0
  0
MTEXT
  5
2403C
330
13B45
100
AcDbEntity
  8
寸法
 62
     7
 48
50.0
100
AcDbMText
 10
10250.69395691447
 20
5673.657453579306
 30
0.0
 40
120.0
 41
0.0
 71
     5
 72
     1
  1
\A1;柱外寸法1790
  7
STYLE1
 73
     1
 44
1.0
1001
ACAD
1000
MTEXTBEGIN
1070
    73
1070
     1
1070
    44
1040
1.0
1070
    74
1070
     0
1000
MTEXTEND
  0
POINT
  5
2403D
330
13B45
100
AcDbEntity
  8
DEFPOINTS
 62
     0
 48
50.0
100
AcDbPoint
 10
11145.69395691447
 20
5121.810679611654
 30
0.0
  0
POINT
  5
2403E
330
13B45
100
AcDbEntity
  8
DEFPOINTS
 62
     0
 48
50.0
100
AcDbPoint
 10
9355.693956914477
 20
5171.001618122978
 30
0.0
  0
POINT
  5
2403F
330
13B45
100
AcDbEntity
  8
DEFPOINTS
 62
     0
 48
50.0
100
AcDbPoint
 10
9355.693956914477
 20
5573.657453579304
 30
0.0
  0
ENDBLK
  5
14D29
330
13B45
100
AcDbEntity
  8
0
 48
50.0
100
AcDbBlockEnd
  0
BLOCK
  5
149C9
330
13B60
100
AcDbEntity
  8
0
 48
50.0
100
AcDbBlockBegin
  2
*D6
 70
     1
 10
0.0
 20
0.0
 30
0.0
  3
*D6
  1

  0
LINE
  5
23F2D
330
13B60
100
AcDbEntity
  8
寸法
 62
     0
 48
50.0
370
    -2
100
AcDbLine
 10
9355.693956914477
 20
5191.001618122975
 30
0.0
 11
9355.693956914477
 21
5633.657453579304
 31
0.0
  0
LINE
  5
23F2E
330
13B60
100
AcDbEntity
  8
寸法
 62
     0
 48
50.0
370
    -2
100
AcDbLine
 10
9295.693956914476
 20
5195.000000000004
 30
0.0
 11
9295.693956914476
 21
5633.657453579304
 31
0.0
  0
LINE
  5
23F2F
330
13B60
100
AcDbEntity
  8
寸法
 62
     0
 48
50.0
370
    -2
100
AcDbLine
 10
9355.693956914477
 20
5573.657453579304
 30
0.0
 11
9455.693956914476
 21
5573.657453579304
 31
0.0
  0
LINE
  5
23F30
330
13B60
100
AcDbEntity
  8
寸法
 62
     0
 48
50.0
370
    -2
100
AcDbLine
 10
9295.693956914476
 20
5573.657453579304
 30
0.0
 11
8876.418366363296
 21
5573.657453579304
 31
0.0
  0
LINE
  5
23F31
330
13B60
100
AcDbEntity
  8
寸法
 62
     0
 48
50.0
370
    -2
100
AcDbLine
 10
9355.693956914477
 20
5573.657453579304
 30
0.0
 11
9295.693956914476
 21
5573.657453579304
 31
0.0
  0
INSERT
  5
23F32
330
13B60
100
AcDbEntity
  8
寸法
 62
     0
 48
50.0
370
    -2
100
AcDbBlockReference
  2
_DOTSMALL
 10
9355.693956914477
 20
5573.657453579304
 30
0.0
 41
100.0
 42
100.0
 43
100.0
 50
180.0
  0
INSERT
  5
23F33
330
13B60
100
AcDbEntity
  8
寸法
 62
     0
 48
50.0
370
    -2
100
AcDbBlockReference
  2
_DOTSMALL
 10
9295.693956914476
 20
5573.657453579304
 30
0.0
 41
100.0
 42
100.0
 43
100.0
  0
MTEXT
  5
23F34
330
13B60
100
AcDbEntity
  8
寸法
 62
     7
 48
50.0
100
AcDbMText
 10
8986.056161638886
 20
5673.657453579306
 30
0.0
 40
120.0
 41
0.0
 71
     5
 72
     1
  1
\A1;60
  7
STYLE1
 73
     1
 44
1.0
1001
ACAD
1000
MTEXTBEGIN
1070
    73
1070
     1
1070
    44
1040
1.0
1070
    74
1070
     0
1000
MTEXTEND
  0
POINT
  5
23F35
330
13B60
100
AcDbEntity
  8
DEFPOINTS
 62
     0
 48
50.0
100
AcDbPoint
 10
9355.693956914477
 20
5171.001618122978
 30
0.0
  0
POINT
  5
23F36
330
13B60
100
AcDbEntity
  8
DEFPOINTS
 62
     0
 48
50.0
100
AcDbPoint
 10
9295.693956914476
 20
5175.000000000005
 30
0.0
  0
POINT
  5
23F37
330
13B60
100
AcDbEntity
  8
DEFPOINTS
 62
     0
 48
50.0
100
AcDbPoint
 10
9295.693956914476
 20
5573.657453579304
 30
0.0
  0
ENDBLK
  5
149D4
330
13B60
100
AcDbEntity
  8
0
 48
50.0
100
AcDbBlockEnd
  0
BLOCK
  5
14D2A
330
13BB3
100
AcDbEntity
  8
0
 48
50.0
100
AcDbBlockBegin
  2
*D7
 70
     1
 10
0.0
 20
0.0
 30
0.0
  3
*D7
  1

  0
LINE
  5
2402E
330
13BB3
100
AcDbEntity
  8
寸法
 62
     0
 48
50.0
370
    -2
100
AcDbLine
 10
11225.69395691447
 20
5140.000000000001
 30
0.0
 11
11225.69395691447
 21
5841.831774771268
 31
0.0
  0
LINE
  5
2402F
330
13BB3
100
AcDbEntity
  8
寸法
 62
     0
 48
50.0
370
    -2
100
AcDbLine
 10
9295.693956914476
 20
5195.000000000004
 30
0.0
 11
9295.693956914476
 21
5841.831774771268
 31
0.0
  0
LINE
  5
24030
330
13BB3
100
AcDbEntity
  8
寸法
 62
     0
 48
50.0
370
    -2
100
AcDbLine
 10
11225.69395691447
 20
5781.831774771268
 30
0.0
 11
9295.693956914476
 21
5781.831774771268
 31
0.0
  0
INSERT
  5
24031
330
13BB3
100
AcDbEntity
  8
寸法
 62
     0
 48
50.0
370
    -2
100
AcDbBlockReference
  2
_DOTSMALL
 10
11225.69395691447
 20
5781.831774771268
 30
0.0
 41
100.0
 42
100.0
 43
100.0
  0
INSERT
  5
24032
330
13BB3
100
AcDbEntity
  8
寸法
 62
     0
 48
50.0
370
    -2
100
AcDbBlockReference
  2
_DOTSMALL
 10
9295.693956914476
 20
5781.831774771268
 30
0.0
 41
100.0
 42
100.0
 43
100.0
 50
180.0
  0
MTEXT
  5
24033
330
13BB3
100
AcDbEntity
  8
寸法
 62
     7
 48
50.0
100
AcDbMText
 10
10260.69395691447
 20
5881.831774771268
 30
0.0
 40
120.0
 41
0.0
 71
     5
 72
     1
  1
\A1;1930
  7
STYLE1
 73
     1
 44
1.0
1001
ACAD
1000
MTEXTBEGIN
1070
    73
1070
     1
1070
    44
1040
1.0
1070
    74
1070
     0
1000
MTEXTEND
  0
POINT
  5
24034
330
13BB3
100
AcDbEntity
  8
DEFPOINTS
 62
     0
 48
50.0
100
AcDbPoint
 10
11225.69395691447
 20
5120.0
 30
0.0
  0
POINT
  5
24035
330
13BB3
100
AcDbEntity
  8
DEFPOINTS
 62
     0
 48
50.0
100
AcDbPoint
 10
9295.693956914476
 20
5175.000000000005
 30
0.0
  0
POINT
  5
24036
330
13BB3
100
AcDbEntity
  8
DEFPOINTS
 62
     0
 48
50.0
100
AcDbPoint
 10
9295.693956914476
 20
5781.831774771268
 30
0.0
  0
ENDBLK
  5
14D34
330
13BB3
100
AcDbEntity
  8
0
 48
50.0
100
AcDbBlockEnd
  0
BLOCK
  5
14A98
330
13DA8
100
AcDbEntity
  8
0
 48
50.0
100
AcDbBlockBegin
  2
*D8
 70
     1
 10
0.0
 20
0.0
 30
0.0
  3
*D8
  1

  0
LINE
  5
23F1B
330
13DA8
100
AcDbEntity
  8
寸法
 62
     0
 48
50.0
370
    -2
100
AcDbLine
 10
5579.896575106992
 20
5195.000000000004
 30
0.0
 11
5579.896575106992
 21
5649.214133848723
 31
0.0
  0
LINE
  5
23F1C
330
13DA8
100
AcDbEntity
  8
寸法
 62
     0
 48
50.0
370
    -2
100
AcDbLine
 10
7469.896575106992
 20
5195.000000000003
 30
0.0
 11
7469.896575106992
 21
5649.214133848723
 31
0.0
  0
LINE
  5
23F1D
330
13DA8
100
AcDbEntity
  8
寸法
 62
     0
 48
50.0
370
    -2
100
AcDbLine
 10
5579.896575106992
 20
5589.214133848725
 30
0.0
 11
7469.896575106992
 21
5589.214133848725
 31
0.0
  0
INSERT
  5
23F1E
330
13DA8
100
AcDbEntity
  8
寸法
 62
     0
 48
50.0
370
    -2
100
AcDbBlockReference
  2
_DOTSMALL
 10
5579.896575106992
 20
5589.214133848725
 30
0.0
 41
100.0
 42
100.0
 43
100.0
 50
180.0
  0
INSERT
  5
23F1F
330
13DA8
100
AcDbEntity
  8
寸法
 62
     0
 48
50.0
370
    -2
100
AcDbBlockReference
  2
_DOTSMALL
 10
7469.896575106992
 20
5589.214133848725
 30
0.0
 41
100.0
 42
100.0
 43
100.0
  0
MTEXT
  5
23F20
330
13DA8
100
AcDbEntity
  8
寸法
 62
     7
 48
50.0
100
AcDbMText
 10
6524.896575106989
 20
5689.214133848723
 30
0.0
 40
120.0
 41
0.0
 71
     5
 72
     1
  1
\A1;1890
  7
STYLE1
 73
     1
 44
1.0
1001
ACAD
1000
MTEXTBEGIN
1070
    73
1070
     1
1070
    44
1040
1.0
1070
    74
1070
     0
1000
MTEXTEND
  0
POINT
  5
23F21
330
13DA8
100
AcDbEntity
  8
DEFPOINTS
 62
     0
 48
50.0
100
AcDbPoint
 10
5579.896575106992
 20
5175.000000000006
 30
0.0
  0
POINT
  5
23F22
330
13DA8
100
AcDbEntity
  8
DEFPOINTS
 62
     0
 48
50.0
100
AcDbPoint
 10
7469.896575106992
 20
5175.000000000003
 30
0.0
  0
POINT
  5
23F23
330
13DA8
100
AcDbEntity
  8
DEFPOINTS
 62
     0
 48
50.0
100
AcDbPoint
 10
7469.896575106992
 20
5589.214133848725
 30
0.0
  0
ENDBLK
  5
14AA2
330
13DA8
100
AcDbEntity
  8
0
 48
50.0
100
AcDbBlockEnd
  0
BLOCK
  5
14A8A
330
141B5
100
AcDbEntity
  8
0
 48
50.0
100
AcDbBlockBegin
  2
*D9
 70
     1
 10
0.0
 20
0.0
 30
0.0
  3
*D9
  1

  0
LINE
  5
23F10
330
141B5
100
AcDbEntity
  8
寸法
 62
     0
 48
50.0
370
    -2
100
AcDbLine
 10
7469.896575106992
 20
5195.000000000003
 30
0.0
 11
7469.896575106992
 21
5439.620259427273
 31
0.0
  0
LINE
  5
23F11
330
141B5
100
AcDbEntity
  8
寸法
 62
     0
 48
50.0
370
    -2
100
AcDbLine
 10
7419.896575106993
 20
5195.000000000004
 30
0.0
 11
7419.896575106993
 21
5439.620259427273
 31
0.0
  0
LINE
  5
23F12
330
141B5
100
AcDbEntity
  8
寸法
 62
     0
 48
50.0
370
    -2
100
AcDbLine
 10
7419.896575106993
 20
5379.620259427273
 30
0.0
 11
7319.896575106993
 21
5379.620259427273
 31
0.0
  0
LINE
  5
23F13
330
141B5
100
AcDbEntity
  8
寸法
 62
     0
 48
50.0
370
    -2
100
AcDbLine
 10
7469.896575106992
 20
5379.620259427273
 30
0.0
 11
7889.429100575718
 21
5379.620259427273
 31
0.0
  0
LINE
  5
23F14
330
141B5
100
AcDbEntity
  8
寸法
 62
     0
 48
50.0
370
    -2
100
AcDbLine
 10
7419.896575106993
 20
5379.620259427273
 30
0.0
 11
7469.896575106992
 21
5379.620259427273
 31
0.0
  0
INSERT
  5
23F15
330
141B5
100
AcDbEntity
  8
寸法
 62
     0
 48
50.0
370
    -2
100
AcDbBlockReference
  2
_DOTSMALL
 10
7419.896575106993
 20
5379.620259427273
 30
0.0
 41
100.0
 42
100.0
 43
100.0
  0
INSERT
  5
23F16
330
141B5
100
AcDbEntity
  8
寸法
 62
     0
 48
50.0
370
    -2
100
AcDbBlockReference
  2
_DOTSMALL
 10
7469.896575106992
 20
5379.620259427273
 30
0.0
 41
100.0
 42
100.0
 43
100.0
 50
180.0
  0
MTEXT
  5
23F17
330
141B5
100
AcDbEntity
  8
寸法
 62
     7
 48
50.0
100
AcDbMText
 10
7783.381856481231
 20
5479.620259427273
 30
0.0
 40
120.0
 41
0.0
 71
     5
 72
     1
  1
\A1;50
  7
STYLE1
 73
     1
 44
1.0
1001
ACAD
1000
MTEXTBEGIN
1070
    73
1070
     1
1070
    44
1040
1.0
1070
    74
1070
     0
1000
MTEXTEND
  0
POINT
  5
23F18
330
141B5
100
AcDbEntity
  8
DEFPOINTS
 62
     0
 48
50.0
100
AcDbPoint
 10
7469.896575106992
 20
5175.000000000003
 30
0.0
  0
POINT
  5
23F19
330
141B5
100
AcDbEntity
  8
DEFPOINTS
 62
     0
 48
50.0
100
AcDbPoint
 10
7419.896575106993
 20
5175.000000000006
 30
0.0
  0
POINT
  5
23F1A
330
141B5
100
AcDbEntity
  8
DEFPOINTS
 62
     0
 48
50.0
100
AcDbPoint
 10
7419.896575106993
 20
5379.620259427273
 30
0.0
  0
ENDBLK
  5
14A96
330
141B5
100
AcDbEntity
  8
0
 48
50.0
100
AcDbBlockEnd
  0
BLOCK
  5
14A7D
330
141F9
100
AcDbEntity
  8
0
 48
50.0
100
AcDbBlockBegin
  2
*D10
 70
     1
 10
0.0
 20
0.0
 30
0.0
  3
*D10
  1

  0
LINE
  5
23F05
330
141F9
100
AcDbEntity
  8
寸法
 62
     0
 48
50.0
370
    -2
100
AcDbLine
 10
5629.896575106992
 20
5195.000000000007
 30
0.0
 11
5629.896575106992
 21
5439.620259427273
 31
0.0
  0
LINE
  5
23F06
330
141F9
100
AcDbEntity
  8
寸法
 62
     0
 48
50.0
370
    -2
100
AcDbLine
 10
5579.896575106992
 20
5195.000000000004
 30
0.0
 11
5579.896575106992
 21
5439.620259427273
 31
0.0
  0
LINE
  5
23F07
330
141F9
100
AcDbEntity
  8
寸法
 62
     0
 48
50.0
370
    -2
100
AcDbLine
 10
5629.896575106992
 20
5379.620259427273
 30
0.0
 11
5729.896575106992
 21
5379.620259427273
 31
0.0
  0
LINE
  5
23F08
330
141F9
100
AcDbEntity
  8
寸法
 62
     0
 48
50.0
370
    -2
100
AcDbLine
 10
5579.896575106992
 20
5379.620259427273
 30
0.0
 11
5160.36404963826
 21
5379.620259427273
 31
0.0
  0
LINE
  5
23F09
330
141F9
100
AcDbEntity
  8
寸法
 62
     0
 48
50.0
370
    -2
100
AcDbLine
 10
5629.896575106992
 20
5379.620259427273
 30
0.0
 11
5579.896575106992
 21
5379.620259427273
 31
0.0
  0
INSERT
  5
23F0A
330
141F9
100
AcDbEntity
  8
寸法
 62
     0
 48
50.0
370
    -2
100
AcDbBlockReference
  2
_DOTSMALL
 10
5629.896575106992
 20
5379.620259427273
 30
0.0
 41
100.0
 42
100.0
 43
100.0
 50
180.0
  0
INSERT
  5
23F0B
330
141F9
100
AcDbEntity
  8
寸法
 62
     0
 48
50.0
370
    -2
100
AcDbBlockReference
  2
_DOTSMALL
 10
5579.896575106992
 20
5379.620259427273
 30
0.0
 41
100.0
 42
100.0
 43
100.0
  0
MTEXT
  5
23F0C
330
141F9
100
AcDbEntity
  8
寸法
 62
     7
 48
50.0
100
AcDbMText
 10
5266.411293732748
 20
5479.620259427273
 30
0.0
 40
120.0
 41
0.0
 71
     5
 72
     1
  1
\A1;50
  7
STYLE1
 73
     1
 44
1.0
1001
ACAD
1000
MTEXTBEGIN
1070
    73
1070
     1
1070
    44
1040
1.0
1070
    74
1070
     0
1000
MTEXTEND
  0
POINT
  5
23F0D
330
141F9
100
AcDbEntity
  8
DEFPOINTS
 62
     0
 48
50.0
100
AcDbPoint
 10
5629.896575106992
 20
5175.000000000006
 30
0.0
  0
POINT
  5
23F0E
330
141F9
100
AcDbEntity
  8
DEFPOINTS
 62
     0
 48
50.0
100
AcDbPoint
 10
5579.896575106992
 20
5175.000000000006
 30
0.0
  0
POINT
  5
23F0F
330
141F9
100
AcDbEntity
  8
DEFPOINTS
 62
     0
 48
50.0
100
AcDbPoint
 10
5579.896575106992
 20
5379.620259427273
 30
0.0
  0
ENDBLK
  5
14A89
330
141F9
100
AcDbEntity
  8
0
 48
50.0
100
AcDbBlockEnd
  0
BLOCK
  5
14A72
330
146DC
100
AcDbEntity
  8
0
 48
50.0
100
AcDbBlockBegin
  2
*D11
 70
     1
 10
0.0
 20
0.0
 30
0.0
  3
*D11
  1

  0
LINE
  5
23EFC
330
146DC
100
AcDbEntity
  8
寸法
 62
     0
 48
50.0
370
    -2
100
AcDbLine
 10
7419.896575106993
 20
5195.000000000004
 30
0.0
 11
7419.896575106993
 21
5439.620259427273
 31
0.0
  0
LINE
  5
23EFD
330
146DC
100
AcDbEntity
  8
寸法
 62
     0
 48
50.0
370
    -2
100
AcDbLine
 10
5629.896575106992
 20
5195.000000000007
 30
0.0
 11
5629.896575106992
 21
5439.620259427273
 31
0.0
  0
LINE
  5
23EFE
330
146DC
100
AcDbEntity
  8
寸法
 62
     0
 48
50.0
370
    -2
100
AcDbLine
 10
7419.896575106993
 20
5379.620259427273
 30
0.0
 11
5629.896575106992
 21
5379.620259427273
 31
0.0
  0
INSERT
  5
23EFF
330
146DC
100
AcDbEntity
  8
寸法
 62
     0
 48
50.0
370
    -2
100
AcDbBlockReference
  2
_DOTSMALL
 10
7419.896575106993
 20
5379.620259427273
 30
0.0
 41
100.0
 42
100.0
 43
100.0
  0
INSERT
  5
23F00
330
146DC
100
AcDbEntity
  8
寸法
 62
     0
 48
50.0
370
    -2
100
AcDbBlockReference
  2
_DOTSMALL
 10
5629.896575106992
 20
5379.620259427273
 30
0.0
 41
100.0
 42
100.0
 43
100.0
 50
180.0
  0
MTEXT
  5
23F01
330
146DC
100
AcDbEntity
  8
寸法
 62
     7
 48
50.0
100
AcDbMText
 10
6499.077414038605
 20
5479.620259427273
 30
0.0
 40
120.0
 41
0.0
 71
     5
 72
     1
  1
\A1;柱外寸法1790
  7
STYLE1
 73
     1
 44
1.0
1001
ACAD
1000
MTEXTBEGIN
1070
    73
1070
     1
1070
    44
1040
1.0
1070
    74
1070
     0
1000
MTEXTEND
  0
POINT
  5
23F02
330
146DC
100
AcDbEntity
  8
DEFPOINTS
 62
     0
 48
50.0
100
AcDbPoint
 10
7419.896575106993
 20
5175.000000000006
 30
0.0
  0
POINT
  5
23F03
330
146DC
100
AcDbEntity
  8
DEFPOINTS
 62
     0
 48
50.0
100
AcDbPoint
 10
5629.896575106992
 20
5175.000000000006
 30
0.0
  0
POINT
  5
23F04
330
146DC
100
AcDbEntity
  8
DEFPOINTS
 62
     0
 48
50.0
100
AcDbPoint
 10
5629.896575106992
 20
5379.620259427273
 30
0.0
  0
ENDBLK
  5
14A7C
330
146DC
100
AcDbEntity
  8
0
 48
50.0
100
AcDbBlockEnd
  0
BLOCK
  5
19885
330
19879
100
AcDbEntity
  8
0
 48
50.0
100
AcDbBlockBegin
  2
*D12
 70
     1
 10
0.0
 20
0.0
 30
0.0
  3
*D12
  1

  0
LINE
  5
23FF6
330
19879
100
AcDbEntity
  8
寸法
 62
     0
 48
50.0
370
    -2
100
AcDbLine
 10
11145.69395691447
 20
5141.810679611655
 30
0.0
 11
11145.69395691447
 21
5633.657453579304
 31
0.0
  0
LINE
  5
23FF7
330
19879
100
AcDbEntity
  8
寸法
 62
     0
 48
50.0
370
    -2
100
AcDbLine
 10
11225.69395691447
 20
5140.000000000001
 30
0.0
 11
11225.69395691447
 21
5633.657453579304
 31
0.0
  0
LINE
  5
23FF8
330
19879
100
AcDbEntity
  8
寸法
 62
     0
 48
50.0
370
    -2
100
AcDbLine
 10
11145.69395691447
 20
5573.657453579304
 30
0.0
 11
11225.69395691447
 21
5573.657453579304
 31
0.0
  0
LINE
  5
23FF9
330
19879
100
AcDbEntity
  8
寸法
 62
     0
 48
50.0
370
    -2
100
AcDbLine
 10
11225.69395691447
 20
5573.657453579304
 30
0.0
 11
11537.78844510345
 21
5573.657453579304
 31
0.0
  0
INSERT
  5
23FFA
330
19879
100
AcDbEntity
  8
寸法
 62
     0
 48
50.0
370
    -2
100
AcDbBlockReference
  2
_DOTSMALL
 10
11145.69395691447
 20
5573.657453579304
 30
0.0
 41
100.0
 42
100.0
 43
100.0
 50
180.0
  0
INSERT
  5
23FFB
330
19879
100
AcDbEntity
  8
寸法
 62
     0
 48
50.0
370
    -2
100
AcDbBlockReference
  2
_DOTSMALL
 10
11225.69395691447
 20
5573.657453579304
 30
0.0
 41
100.0
 42
100.0
 43
100.0
  0
MTEXT
  5
23FFC
330
19879
100
AcDbEntity
  8
寸法
 62
     7
 48
50.0
100
AcDbMText
 10
11431.74120100896
 20
5673.657453579306
 30
0.0
 40
120.0
 41
0.0
 71
     5
 72
     1
  1
\A1;80
  7
STYLE1
 73
     1
 44
1.0
1001
ACAD
1000
MTEXTBEGIN
1070
    73
1070
     1
1070
    44
1040
1.0
1070
    74
1070
     0
1000
MTEXTEND
  0
POINT
  5
23FFD
330
19879
100
AcDbEntity
  8
DEFPOINTS
 62
     0
 48
50.0
100
AcDbPoint
 10
11145.69395691447
 20
5121.810679611654
 30
0.0
  0
POINT
  5
23FFE
330
19879
100
AcDbEntity
  8
DEFPOINTS
 62
     0
 48
50.0
100
AcDbPoint
 10
11225.69395691447
 20
5120.0
 30
0.0
  0
POINT
  5
23FFF
330
19879
100
AcDbEntity
  8
DEFPOINTS
 62
     0
 48
50.0
100
AcDbPoint
 10
11225.69395691447
 20
5573.657453579304
 30
0.0
  0
ENDBLK
  5
19886
330
19879
100
AcDbEntity
  8
0
 48
50.0
100
AcDbBlockEnd
  0
BLOCK
  5
19A52
330
19A47
100
AcDbEntity
  8
0
 48
50.0
100
AcDbBlockBegin
  2
*D13
 70
     1
 10
0.0
 20
0.0
 30
0.0
  3
*D13
  1

  0
LINE
  5
23EE8
330
19A47
100
AcDbEntity
  8
寸法
 62
     0
 48
50.0
370
    -2
100
AcDbLine
 10
9291.050761601978
 20
5033.535611473499
 30
0.0
 11
8638.150591307555
 21
5058.186642714235
 31
0.0
  0
LINE
  5
23EE9
330
19A47
100
AcDbEntity
  8
寸法
 62
     0
 48
50.0
370
    -2
100
AcDbLine
 10
9296.370595753932
 20
5174.435218870383
 30
0.0
 11
8643.47042545951
 21
5199.086250111118
 31
0.0
  0
LINE
  5
23EEA
330
19A47
100
AcDbEntity
  8
寸法
 62
     0
 48
50.0
370
    -2
100
AcDbLine
 10
8698.107871050909
 20
5055.922883500638
 30
0.0
 11
8703.427705202862
 21
5196.82249089752
 31
0.0
  0
LINE
  5
23EEB
330
19A47
100
AcDbEntity
  8
寸法
 62
     0
 48
50.0
370
    -2
100
AcDbLine
 10
8703.427705202862
 20
5196.82249089752
 30
0.0
 11
8717.010260484446
 21
5556.566169357647
 31
0.0
  0
INSERT
  5
23EEC
330
19A47
100
AcDbEntity
  8
寸法
 62
     0
 48
50.0
370
    -2
100
AcDbBlockReference
  2
_DOTSMALL
 10
8698.107871050909
 20
5055.922883500638
 30
0.0
 41
100.0
 42
100.0
 43
100.0
 50
267.8377559870924
  0
INSERT
  5
23EED
330
19A47
100
AcDbEntity
  8
寸法
 62
     0
 48
50.0
370
    -2
100
AcDbBlockReference
  2
_DOTSMALL
 10
8703.427705202862
 20
5196.82249089752
 30
0.0
 41
100.0
 42
100.0
 43
100.0
 50
87.83775598709233
  0
MTEXT
  5
23EEE
330
19A47
100
AcDbEntity
  8
寸法
 62
     7
 48
50.0
100
AcDbMText
 10
8612.176649282726
 20
5430.431661936375
 30
0.0
 40
120.0
 41
0.0
 71
     5
 72
     1
  1
\A1;141
  7
STYLE1
 11
0.0377293202266152
 21
0.9992879957225731
 31
0.0
 73
     1
 44
1.0
1001
ACAD
1000
MTEXTBEGIN
1070
    73
1070
     1
1070
    44
1040
1.0
1070
    74
1070
     0
1000
MTEXTEND
  0
POINT
  5
23EEF
330
19A47
100
AcDbEntity
  8
DEFPOINTS
 62
     0
 48
50.0
100
AcDbPoint
 10
9311.036521516426
 20
5032.781025068967
 30
0.0
  0
POINT
  5
23EF0
330
19A47
100
AcDbEntity
  8
DEFPOINTS
 62
     0
 48
50.0
100
AcDbPoint
 10
9316.35635566838
 20
5173.680632465849
 30
0.0
  0
POINT
  5
23EF1
330
19A47
100
AcDbEntity
  8
DEFPOINTS
 62
     0
 48
50.0
100
AcDbPoint
 10
8703.427705202862
 20
5196.82249089752
 30
0.0
  0
ENDBLK
  5
19A53
330
19A47
100
AcDbEntity
  8
0
 48
50.0
100
AcDbBlockEnd
  0
BLOCK
  5
1E22A
330
1E220
100
AcDbEntity
  8
0
 48
50.0
100
AcDbBlockBegin
  2
*D14
 70
     1
 10
0.0
 20
0.0
 30
0.0
  3
*D14
  1

  0
LINE
  5
2392A
330
1E220
100
AcDbEntity
  8
寸法
 62
     0
 48
50.0
370
    -2
100
AcDbLine
 10
5626.86625886844
 20
8433.973610401597
 30
0.0
 11
5626.86625886844
 21
7203.838784647399
 31
0.0
  0
LINE
  5
2392B
330
1E220
100
AcDbEntity
  8
寸法
 62
     0
 48
50.0
370
    -2
100
AcDbLine
 10
7416.866258868423
 20
8433.973610401729
 30
0.0
 11
7416.866258868423
 21
7203.838784647399
 31
0.0
  0
LINE
  5
2392C
330
1E220
100
AcDbEntity
  8
寸法
 62
     0
 48
50.0
370
    -2
100
AcDbLine
 10
5626.86625886844
 20
7263.838784647401
 30
0.0
 11
7416.866258868423
 21
7263.838784647401
 31
0.0
  0
INSERT
  5
2392D
330
1E220
100
AcDbEntity
  8
寸法
 62
     0
 48
50.0
370
    -2
100
AcDbBlockReference
  2
_DOTSMALL
 10
5626.86625886844
 20
7263.838784647401
 30
0.0
 41
100.0
 42
100.0
 43
100.0
 50
180.0
  0
INSERT
  5
2392E
330
1E220
100
AcDbEntity
  8
寸法
 62
     0
 48
50.0
370
    -2
100
AcDbBlockReference
  2
_DOTSMALL
 10
7416.866258868423
 20
7263.838784647401
 30
0.0
 41
100.0
 42
100.0
 43
100.0
  0
MTEXT
  5
2392F
330
1E220
100
AcDbEntity
  8
寸法
 62
     7
 48
50.0
100
AcDbMText
 10
6521.866258868431
 20
7363.8387846474
 30
0.0
 40
120.0
 41
0.0
 71
     5
 72
     1
  1
\A1;1790
  7
STYLE1
 73
     1
 44
1.0
1001
ACAD
1000
MTEXTBEGIN
1070
    73
1070
     1
1070
    44
1040
1.0
1070
    74
1070
     0
1000
MTEXTEND
  0
POINT
  5
23930
330
1E220
100
AcDbEntity
  8
DEFPOINTS
 62
     0
 48
50.0
100
AcDbPoint
 10
5626.86625886844
 20
8453.973610401597
 30
0.0
  0
POINT
  5
23931
330
1E220
100
AcDbEntity
  8
DEFPOINTS
 62
     0
 48
50.0
100
AcDbPoint
 10
7416.866258868423
 20
8453.973610401728
 30
0.0
  0
POINT
  5
23932
330
1E220
100
AcDbEntity
  8
DEFPOINTS
 62
     0
 48
50.0
100
AcDbPoint
 10
7416.866258868423
 20
7263.838784647401
 30
0.0
  0
ENDBLK
  5
1E22B
330
1E220
100
AcDbEntity
  8
0
 48
50.0
100
AcDbBlockEnd
  0
BLOCK
  5
1E236
330
1E22C
100
AcDbEntity
  8
0
 48
50.0
100
AcDbBlockBegin
  2
*D15
 70
     1
 10
0.0
 20
0.0
 30
0.0
  3
*D15
  1

  0
LINE
  5
2408E
330
1E22C
100
AcDbEntity
  8
寸法
 62
     0
 48
50.0
370
    -2
100
AcDbLine
 10
5681.866258868447
 20
10263.97361040164
 30
0.0
 11
5681.866258868447
 21
10600.78063720996
 31
0.0
  0
LINE
  5
2408F
330
1E22C
100
AcDbEntity
  8
寸法
 62
     0
 48
50.0
370
    -2
100
AcDbLine
 10
7361.866258868447
 20
10263.97361040173
 30
0.0
 11
7361.866258868447
 21
10600.78063720996
 31
0.0
  0
LINE
  5
24090
330
1E22C
100
AcDbEntity
  8
寸法
 62
     0
 48
50.0
370
    -2
100
AcDbLine
 10
5681.866258868447
 20
10540.78063720996
 30
0.0
 11
7361.866258868447
 21
10540.78063720996
 31
0.0
  0
INSERT
  5
24091
330
1E22C
100
AcDbEntity
  8
寸法
 62
     0
 48
50.0
370
    -2
100
AcDbBlockReference
  2
_DOTSMALL
 10
5681.866258868447
 20
10540.78063720996
 30
0.0
 41
100.0
 42
100.0
 43
100.0
 50
180.0
  0
INSERT
  5
24092
330
1E22C
100
AcDbEntity
  8
寸法
 62
     0
 48
50.0
370
    -2
100
AcDbBlockReference
  2
_DOTSMALL
 10
7361.866258868447
 20
10540.78063720996
 30
0.0
 41
100.0
 42
100.0
 43
100.0
  0
MTEXT
  5
24093
330
1E22C
100
AcDbEntity
  8
寸法
 62
     7
 48
50.0
100
AcDbMText
 10
6521.866258868445
 20
10640.79244823358
 30
0.0
 40
120.0
 41
0.0
 71
     5
 72
     1
  1
\A1;4X420=1680
  7
STYLE1
 73
     1
 44
1.0
1001
ACAD
1000
MTEXTBEGIN
1070
    73
1070
     1
1070
    44
1040
1.0
1070
    74
1070
     0
1000
MTEXTEND
  0
POINT
  5
24094
330
1E22C
100
AcDbEntity
  8
DEFPOINTS
 62
     0
 48
50.0
100
AcDbPoint
 10
5681.866258868447
 20
10243.97361040164
 30
0.0
  0
POINT
  5
24095
330
1E22C
100
AcDbEntity
  8
DEFPOINTS
 62
     0
 48
50.0
100
AcDbPoint
 10
7361.866258868447
 20
10243.97361040173
 30
0.0
  0
POINT
  5
24096
330
1E22C
100
AcDbEntity
  8
DEFPOINTS
 62
     0
 48
50.0
100
AcDbPoint
 10
7361.866258868447
 20
10540.78063720996
 30
0.0
  0
ENDBLK
  5
1E237
330
1E22C
100
AcDbEntity
  8
0
 48
50.0
100
AcDbBlockEnd
  0
BLOCK
  5
1E244
330
1E238
100
AcDbEntity
  8
0
 48
50.0
100
AcDbBlockBegin
  2
*D16
 70
     1
 10
0.0
 20
0.0
 30
0.0
  3
*D16
  1

  0
LINE
  5
24083
330
1E238
100
AcDbEntity
  8
寸法
 62
     0
 48
50.0
370
    -2
100
AcDbLine
 10
7361.866258868447
 20
10263.97361040173
 30
0.0
 11
7361.866258868447
 21
10600.78063720995
 31
0.0
  0
LINE
  5
24084
330
1E238
100
AcDbEntity
  8
寸法
 62
     0
 48
50.0
370
    -2
100
AcDbLine
 10
7416.866258868447
 20
10263.97361040173
 30
0.0
 11
7416.866258868447
 21
10600.78063720995
 31
0.0
  0
LINE
  5
24085
330
1E238
100
AcDbEntity
  8
寸法
 62
     0
 48
50.0
370
    -2
100
AcDbLine
 10
7361.866258868447
 20
10540.78063720994
 30
0.0
 11
7261.866258868447
 21
10540.78063720994
 31
0.0
  0
LINE
  5
24086
330
1E238
100
AcDbEntity
  8
寸法
 62
     0
 48
50.0
370
    -2
100
AcDbLine
 10
7416.866258868447
 20
10540.78063720994
 30
0.0
 11
7833.836821616924
 21
10540.78063720994
 31
0.0
  0
LINE
  5
24087
330
1E238
100
AcDbEntity
  8
寸法
 62
     0
 48
50.0
370
    -2
100
AcDbLine
 10
7361.866258868447
 20
10540.78063720994
 30
0.0
 11
7416.866258868447
 21
10540.78063720994
 31
0.0
  0
INSERT
  5
24088
330
1E238
100
AcDbEntity
  8
寸法
 62
     0
 48
50.0
370
    -2
100
AcDbBlockReference
  2
_DOTSMALL
 10
7361.866258868447
 20
10540.78063720994
 30
0.0
 41
100.0
 42
100.0
 43
100.0
  0
INSERT
  5
24089
330
1E238
100
AcDbEntity
  8
寸法
 62
     0
 48
50.0
370
    -2
100
AcDbBlockReference
  2
_DOTSMALL
 10
7416.866258868447
 20
10540.78063720994
 30
0.0
 41
100.0
 42
100.0
 43
100.0
 50
180.0
  0
MTEXT
  5
2408A
330
1E238
100
AcDbEntity
  8
寸法
 62
     7
 48
50.0
100
AcDbMText
 10
7725.351540242685
 20
10640.78063720995
 30
0.0
 40
120.0
 41
0.0
 71
     5
 72
     1
  1
\A1;55
  7
STYLE1
 73
     1
 44
1.0
1001
ACAD
1000
MTEXTBEGIN
1070
    73
1070
     1
1070
    44
1040
1.0
1070
    74
1070
     0
1000
MTEXTEND
  0
POINT
  5
2408B
330
1E238
100
AcDbEntity
  8
DEFPOINTS
 62
     0
 48
50.0
100
AcDbPoint
 10
7361.866258868447
 20
10243.97361040173
 30
0.0
  0
POINT
  5
2408C
330
1E238
100
AcDbEntity
  8
DEFPOINTS
 62
     0
 48
50.0
100
AcDbPoint
 10
7416.866258868447
 20
10243.97361040173
 30
0.0
  0
POINT
  5
2408D
330
1E238
100
AcDbEntity
  8
DEFPOINTS
 62
     0
 48
50.0
100
AcDbPoint
 10
7416.866258868447
 20
10540.78063720994
 30
0.0
  0
ENDBLK
  5
1E245
330
1E238
100
AcDbEntity
  8
0
 48
50.0
100
AcDbBlockEnd
  0
BLOCK
  5
1E250
330
1E246
100
AcDbEntity
  8
0
 48
50.0
100
AcDbBlockBegin
  2
*D17
 70
     1
 10
0.0
 20
0.0
 30
0.0
  3
*D17
  1

  0
LINE
  5
24097
330
1E246
100
AcDbEntity
  8
寸法
 62
     0
 48
50.0
370
    -2
100
AcDbLine
 10
7436.866258868447
 20
10188.97361040174
 30
0.0
 11
8124.292604602858
 21
10188.97361040174
 31
0.0
  0
LINE
  5
24098
330
1E246
100
AcDbEntity
  8
寸法
 62
     0
 48
50.0
370
    -2
100
AcDbLine
 10
7436.866258868422
 20
8508.973610401723
 30
0.0
 11
8124.292604602858
 21
8508.973610401723
 31
0.0
  0
LINE
  5
24099
330
1E246
100
AcDbEntity
  8
寸法
 62
     0
 48
50.0
370
    -2
100
AcDbLine
 10
8064.29260460286
 20
10188.97361040174
 30
0.0
 11
8064.29260460286
 21
8508.973610401723
 31
0.0
  0
INSERT
  5
2409A
330
1E246
100
AcDbEntity
  8
寸法
 62
     0
 48
50.0
370
    -2
100
AcDbBlockReference
  2
_DOTSMALL
 10
8064.29260460286
 20
10188.97361040174
 30
0.0
 41
100.0
 42
100.0
 43
100.0
 50
90.0
  0
INSERT
  5
2409B
330
1E246
100
AcDbEntity
  8
寸法
 62
     0
 48
50.0
370
    -2
100
AcDbBlockReference
  2
_DOTSMALL
 10
8064.29260460286
 20
8508.973610401723
 30
0.0
 41
100.0
 42
100.0
 43
100.0
 50
270.0
  0
MTEXT
  5
2409C
330
1E246
100
AcDbEntity
  8
寸法
 62
     7
 48
50.0
100
AcDbMText
 10
7964.280793579236
 20
9348.973610401733
 30
0.0
 40
120.0
 41
0.0
 71
     5
 72
     1
  1
\A1;4X420=1680
  7
STYLE1
 11
0.0000000000000001
 21
1.0
 31
0.0
 73
     1
 44
1.0
1001
ACAD
1000
MTEXTBEGIN
1070
    73
1070
     1
1070
    44
1040
1.0
1070
    74
1070
     0
1000
MTEXTEND
  0
POINT
  5
2409D
330
1E246
100
AcDbEntity
  8
DEFPOINTS
 62
     0
 48
50.0
100
AcDbPoint
 10
7416.866258868447
 20
10188.97361040174
 30
0.0
  0
POINT
  5
2409E
330
1E246
100
AcDbEntity
  8
DEFPOINTS
 62
     0
 48
50.0
100
AcDbPoint
 10
7416.866258868423
 20
8508.973610401723
 30
0.0
  0
POINT
  5
2409F
330
1E246
100
AcDbEntity
  8
DEFPOINTS
 62
     0
 48
50.0
100
AcDbPoint
 10
8064.29260460286
 20
8508.973610401723
 30
0.0
  0
ENDBLK
  5
1E251
330
1E246
100
AcDbEntity
  8
0
 48
50.0
100
AcDbBlockEnd
  0
BLOCK
  5
1E25E
330
1E252
100
AcDbEntity
  8
0
 48
50.0
100
AcDbBlockBegin
  2
*D18
 70
     1
 10
0.0
 20
0.0
 30
0.0
  3
*D18
  1

  0
LINE
  5
23F97
330
1E252
100
AcDbEntity
  8
寸法
 62
     0
 48
50.0
370
    -2
100
AcDbLine
 10
7436.866258868422
 20
8508.973610401723
 30
0.0
 11
8124.292604602858
 21
8508.973610401723
 31
0.0
  0
LINE
  5
23F98
330
1E252
100
AcDbEntity
  8
寸法
 62
     0
 48
50.0
370
    -2
100
AcDbLine
 10
7436.866258868422
 20
8453.973610401728
 30
0.0
 11
8124.292604602858
 21
8453.973610401728
 31
0.0
  0
LINE
  5
23F99
330
1E252
100
AcDbEntity
  8
寸法
 62
     0
 48
50.0
370
    -2
100
AcDbLine
 10
8064.29260460286
 20
8508.973610401723
 30
0.0
 11
8064.29260460286
 21
8608.973610401724
 31
0.0
  0
LINE
  5
23F9A
330
1E252
100
AcDbEntity
  8
寸法
 62
     0
 48
50.0
370
    -2
100
AcDbLine
 10
8064.29260460286
 20
8453.973610401728
 30
0.0
 11
8064.29260460286
 21
8037.003047653248
 31
0.0
  0
LINE
  5
23F9B
330
1E252
100
AcDbEntity
  8
寸法
 62
     0
 48
50.0
370
    -2
100
AcDbLine
 10
8064.29260460286
 20
8508.973610401723
 30
0.0
 11
8064.29260460286
 21
8453.973610401728
 31
0.0
  0
INSERT
  5
23F9C
330
1E252
100
AcDbEntity
  8
寸法
 62
     0
 48
50.0
370
    -2
100
AcDbBlockReference
  2
_DOTSMALL
 10
8064.29260460286
 20
8508.973610401723
 30
0.0
 41
100.0
 42
100.0
 43
100.0
 50
270.0
  0
INSERT
  5
23F9D
330
1E252
100
AcDbEntity
  8
寸法
 62
     0
 48
50.0
370
    -2
100
AcDbBlockReference
  2
_DOTSMALL
 10
8064.29260460286
 20
8453.973610401728
 30
0.0
 41
100.0
 42
100.0
 43
100.0
 50
90.0
  0
MTEXT
  5
23F9E
330
1E252
100
AcDbEntity
  8
寸法
 62
     7
 48
50.0
100
AcDbMText
 10
7964.292604602857
 20
8145.488329027491
 30
0.0
 40
120.0
 41
0.0
 71
     5
 72
     1
  1
\A1;55
  7
STYLE1
 11
0.0000000000000001
 21
1.0
 31
0.0
 73
     1
 44
1.0
1001
ACAD
1000
MTEXTBEGIN
1070
    73
1070
     1
1070
    44
1040
1.0
1070
    74
1070
     0
1000
MTEXTEND
  0
POINT
  5
23F9F
330
1E252
100
AcDbEntity
  8
DEFPOINTS
 62
     0
 48
50.0
100
AcDbPoint
 10
7416.866258868423
 20
8508.973610401723
 30
0.0
  0
POINT
  5
23FA0
330
1E252
100
AcDbEntity
  8
DEFPOINTS
 62
     0
 48
50.0
100
AcDbPoint
 10
7416.866258868423
 20
8453.973610401728
 30
0.0
  0
POINT
  5
23FA1
330
1E252
100
AcDbEntity
  8
DEFPOINTS
 62
     0
 48
50.0
100
AcDbPoint
 10
8064.29260460286
 20
8453.973610401728
 30
0.0
  0
ENDBLK
  5
1E25F
330
1E252
100
AcDbEntity
  8
0
 48
50.0
100
AcDbBlockEnd
  0
BLOCK
  5
1E26C
330
1E260
100
AcDbEntity
  8
0
 48
50.0
100
AcDbBlockBegin
  2
*D19
 70
     1
 10
0.0
 20
0.0
 30
0.0
  3
*D19
  1

  0
LINE
  5
2406F
330
1E260
100
AcDbEntity
  8
寸法
 62
     0
 48
50.0
370
    -2
100
AcDbLine
 10
7436.866258868447
 20
10243.97361040173
 30
0.0
 11
8124.292604602858
 21
10243.97361040173
 31
0.0
  0
LINE
  5
24070
330
1E260
100
AcDbEntity
  8
寸法
 62
     0
 48
50.0
370
    -2
100
AcDbLine
 10
7436.866258868447
 20
10188.97361040174
 30
0.0
 11
8124.292604602858
 21
10188.97361040174
 31
0.0
  0
LINE
  5
24071
330
1E260
100
AcDbEntity
  8
寸法
 62
     0
 48
50.0
370
    -2
100
AcDbLine
 10
8064.292604602858
 20
10188.97361040174
 30
0.0
 11
8064.292604602858
 21
10088.97361040174
 31
0.0
  0
LINE
  5
24072
330
1E260
100
AcDbEntity
  8
寸法
 62
     0
 48
50.0
370
    -2
100
AcDbLine
 10
8064.29260460286
 20
10243.97361040173
 30
0.0
 11
8064.29260460286
 21
10660.94417315021
 31
0.0
  0
LINE
  5
24073
330
1E260
100
AcDbEntity
  8
寸法
 62
     0
 48
50.0
370
    -2
100
AcDbLine
 10
8064.292604602858
 20
10188.97361040174
 30
0.0
 11
8064.29260460286
 21
10243.97361040173
 31
0.0
  0
INSERT
  5
24074
330
1E260
100
AcDbEntity
  8
寸法
 62
     0
 48
50.0
370
    -2
100
AcDbBlockReference
  2
_DOTSMALL
 10
8064.292604602858
 20
10188.97361040174
 30
0.0
 41
100.0
 42
100.0
 43
100.0
 50
90.0
  0
INSERT
  5
24075
330
1E260
100
AcDbEntity
  8
寸法
 62
     0
 48
50.0
370
    -2
100
AcDbBlockReference
  2
_DOTSMALL
 10
8064.29260460286
 20
10243.97361040173
 30
0.0
 41
100.0
 42
100.0
 43
100.0
 50
270.0
  0
MTEXT
  5
24076
330
1E260
100
AcDbEntity
  8
寸法
 62
     7
 48
50.0
100
AcDbMText
 10
7964.292604602857
 20
10552.45889177597
 30
0.0
 40
120.0
 41
0.0
 71
     5
 72
     1
  1
\A1;55
  7
STYLE1
 11
0.0000000000000001
 21
1.0
 31
0.0
 73
     1
 44
1.0
1001
ACAD
1000
MTEXTBEGIN
1070
    73
1070
     1
1070
    44
1040
1.0
1070
    74
1070
     0
1000
MTEXTEND
  0
POINT
  5
24077
330
1E260
100
AcDbEntity
  8
DEFPOINTS
 62
     0
 48
50.0
100
AcDbPoint
 10
7416.866258868447
 20
10243.97361040173
 30
0.0
  0
POINT
  5
24078
330
1E260
100
AcDbEntity
  8
DEFPOINTS
 62
     0
 48
50.0
100
AcDbPoint
 10
7416.866258868447
 20
10188.97361040174
 30
0.0
  0
POINT
  5
24079
330
1E260
100
AcDbEntity
  8
DEFPOINTS
 62
     0
 48
50.0
100
AcDbPoint
 10
8064.292604602858
 20
10188.97361040174
 30
0.0
  0
ENDBLK
  5
1E26D
330
1E260
100
AcDbEntity
  8
0
 48
50.0
100
AcDbBlockEnd
  0
BLOCK
  5
1E278
330
1E26E
100
AcDbEntity
  8
0
 48
50.0
100
AcDbBlockBegin
  2
*D20
 70
     1
 10
0.0
 20
0.0
 30
0.0
  3
*D20
  1

  0
LINE
  5
240A1
330
1E26E
100
AcDbEntity
  8
寸法
 62
     0
 48
50.0
370
    -2
100
AcDbLine
 10
7436.866258868447
 20
10243.97361040173
 30
0.0
 11
8489.399546342495
 21
10243.97361040173
 31
0.0
  0
LINE
  5
240A2
330
1E26E
100
AcDbEntity
  8
寸法
 62
     0
 48
50.0
370
    -2
100
AcDbLine
 10
7436.866258868422
 20
8453.973610401728
 30
0.0
 11
8489.399546342495
 21
8453.973610401728
 31
0.0
  0
LINE
  5
240A3
330
1E26E
100
AcDbEntity
  8
寸法
 62
     0
 48
50.0
370
    -2
100
AcDbLine
 10
8429.399546342494
 20
10243.97361040173
 30
0.0
 11
8429.399546342494
 21
8453.973610401728
 31
0.0
  0
INSERT
  5
240A4
330
1E26E
100
AcDbEntity
  8
寸法
 62
     0
 48
50.0
370
    -2
100
AcDbBlockReference
  2
_DOTSMALL
 10
8429.399546342494
 20
10243.97361040173
 30
0.0
 41
100.0
 42
100.0
 43
100.0
 50
90.0
  0
INSERT
  5
240A5
330
1E26E
100
AcDbEntity
  8
寸法
 62
     0
 48
50.0
370
    -2
100
AcDbBlockReference
  2
_DOTSMALL
 10
8429.399546342494
 20
8453.973610401728
 30
0.0
 41
100.0
 42
100.0
 43
100.0
 50
270.0
  0
MTEXT
  5
240A6
330
1E26E
100
AcDbEntity
  8
寸法
 62
     7
 48
50.0
100
AcDbMText
 10
8329.399546342493
 20
9348.973610401733
 30
0.0
 40
120.0
 41
0.0
 71
     5
 72
     1
  1
\A1;1790
  7
STYLE1
 11
0.0000000000000001
 21
1.0
 31
0.0
 73
     1
 44
1.0
1001
ACAD
1000
MTEXTBEGIN
1070
    73
1070
     1
1070
    44
1040
1.0
1070
    74
1070
     0
1000
MTEXTEND
  0
POINT
  5
240A7
330
1E26E
100
AcDbEntity
  8
DEFPOINTS
 62
     0
 48
50.0
100
AcDbPoint
 10
7416.866258868447
 20
10243.97361040173
 30
0.0
  0
POINT
  5
240A8
330
1E26E
100
AcDbEntity
  8
DEFPOINTS
 62
     0
 48
50.0
100
AcDbPoint
 10
7416.866258868423
 20
8453.973610401728
 30
0.0
  0
POINT
  5
240A9
330
1E26E
100
AcDbEntity
  8
DEFPOINTS
 62
     0
 48
50.0
100
AcDbPoint
 10
8429.399546342494
 20
8453.973610401728
 30
0.0
  0
ENDBLK
  5
1E279
330
1E26E
100
AcDbEntity
  8
0
 48
50.0
100
AcDbBlockEnd
  0
BLOCK
  5
1E286
330
1E27A
100
AcDbEntity
  8
0
 48
50.0
100
AcDbBlockBegin
  2
*D21
 70
     1
 10
0.0
 20
0.0
 30
0.0
  3
*D21
  1

  0
LINE
  5
2405B
330
1E27A
100
AcDbEntity
  8
寸法
 62
     0
 48
50.0
370
    -2
100
AcDbLine
 10
5626.86625886841
 20
10263.97361040164
 30
0.0
 11
5626.86625886841
 21
10600.78063720985
 31
0.0
  0
LINE
  5
2405C
330
1E27A
100
AcDbEntity
  8
寸法
 62
     0
 48
50.0
370
    -2
100
AcDbLine
 10
5681.866258868447
 20
10263.97361040164
 30
0.0
 11
5681.866258868447
 21
10600.78063720985
 31
0.0
  0
LINE
  5
2405D
330
1E27A
100
AcDbEntity
  8
寸法
 62
     0
 48
50.0
370
    -2
100
AcDbLine
 10
5681.866258868447
 20
10540.78063720985
 30
0.0
 11
5781.866258868447
 21
10540.78063720985
 31
0.0
  0
LINE
  5
2405E
330
1E27A
100
AcDbEntity
  8
寸法
 62
     0
 48
50.0
370
    -2
100
AcDbLine
 10
5626.86625886841
 20
10540.78063720985
 30
0.0
 11
5209.895696119934
 21
10540.78063720985
 31
0.0
  0
LINE
  5
2405F
330
1E27A
100
AcDbEntity
  8
寸法
 62
     0
 48
50.0
370
    -2
100
AcDbLine
 10
5681.866258868447
 20
10540.78063720985
 30
0.0
 11
5626.86625886841
 21
10540.78063720985
 31
0.0
  0
INSERT
  5
24060
330
1E27A
100
AcDbEntity
  8
寸法
 62
     0
 48
50.0
370
    -2
100
AcDbBlockReference
  2
_DOTSMALL
 10
5681.866258868447
 20
10540.78063720985
 30
0.0
 41
100.0
 42
100.0
 43
100.0
 50
180.0
  0
INSERT
  5
24061
330
1E27A
100
AcDbEntity
  8
寸法
 62
     0
 48
50.0
370
    -2
100
AcDbBlockReference
  2
_DOTSMALL
 10
5626.86625886841
 20
10540.78063720985
 30
0.0
 41
100.0
 42
100.0
 43
100.0
  0
MTEXT
  5
24062
330
1E27A
100
AcDbEntity
  8
寸法
 62
     7
 48
50.0
100
AcDbMText
 10
5318.380977494173
 20
10640.78063720985
 30
0.0
 40
120.0
 41
0.0
 71
     5
 72
     1
  1
\A1;55
  7
STYLE1
 73
     1
 44
1.0
1001
ACAD
1000
MTEXTBEGIN
1070
    73
1070
     1
1070
    44
1040
1.0
1070
    74
1070
     0
1000
MTEXTEND
  0
POINT
  5
24063
330
1E27A
100
AcDbEntity
  8
DEFPOINTS
 62
     0
 48
50.0
100
AcDbPoint
 10
5626.86625886841
 20
10243.97361040164
 30
0.0
  0
POINT
  5
24064
330
1E27A
100
AcDbEntity
  8
DEFPOINTS
 62
     0
 48
50.0
100
AcDbPoint
 10
5681.866258868447
 20
10243.97361040164
 30
0.0
  0
POINT
  5
24065
330
1E27A
100
AcDbEntity
  8
DEFPOINTS
 62
     0
 48
50.0
100
AcDbPoint
 10
5681.866258868447
 20
10540.78063720985
 30
0.0
  0
ENDBLK
  5
1E287
330
1E27A
100
AcDbEntity
  8
0
 48
50.0
100
AcDbBlockEnd
  0
BLOCK
  5
1FBDB
330
1FBDA
100
AcDbEntity
  8
0
 48
50.0
100
AcDbBlockBegin
  2
_DOT
 70
     0
 10
0.0
 20
0.0
 30
0.0
  3
_DOT
  1

  0
LWPOLYLINE
  5
1FBDC
330
1FBDA
100
AcDbEntity
  8
0
  6
ByBlock
 62
     0
 48
50.0
100
AcDbPolyline
 90
        2
 70
     1
 43
0.5
 10
-0.25
 20
0.0
 42
1.0
 10
0.25
 20
0.0
 42
1.0
  0
LINE
  5
1FBDD
330
1FBDA
100
AcDbEntity
  8
0
  6
ByBlock
 62
     0
 48
50.0
100
AcDbLine
 10
-0.5
 20
0.0
 30
0.0
 11
-1.0
 21
0.0
 31
0.0
  0
ENDBLK
  5
1FBDE
330
1FBDA
100
AcDbEntity
  8
0
 48
50.0
100
AcDbBlockEnd
  0
BLOCK
  5
2378E
330
23784
100
AcDbEntity
  8
0
 62
     1
 48
50.0
100
AcDbBlockBegin
  2
*D65
 70
     1
 10
0.0
 20
0.0
 30
0.0
  3
*D65
  1

  0
LINE
  5
238D1
330
23784
100
AcDbEntity
  8
寸法
 62
     0
 48
50.0
370
    -2
100
AcDbLine
 10
5693.866258868411
 20
8356.973610401569
 30
0.0
 11
5693.866258868411
 21
7752.339324185161
 31
0.0
  0
LINE
  5
238D2
330
23784
100
AcDbEntity
  8
寸法
 62
     0
 48
50.0
370
    -2
100
AcDbLine
 10
6643.866258868411
 20
8356.973610401569
 30
0.0
 11
6643.866258868411
 21
7752.339324185161
 31
0.0
  0
LINE
  5
238D3
330
23784
100
AcDbEntity
  8
寸法
 62
     0
 48
50.0
370
    -2
100
AcDbLine
 10
5693.866258868411
 20
7812.33932418516
 30
0.0
 11
6643.866258868411
 21
7812.33932418516
 31
0.0
  0
INSERT
  5
238D4
330
23784
100
AcDbEntity
  8
寸法
 62
     0
 48
50.0
370
    -2
100
AcDbBlockReference
  2
_DOTSMALL
 10
5693.866258868411
 20
7812.33932418516
 30
0.0
 41
100.0
 42
100.0
 43
100.0
 50
180.0
  0
INSERT
  5
238D5
330
23784
100
AcDbEntity
  8
寸法
 62
     0
 48
50.0
370
    -2
100
AcDbBlockReference
  2
_DOTSMALL
 10
6643.866258868411
 20
7812.33932418516
 30
0.0
 41
100.0
 42
100.0
 43
100.0
  0
MTEXT
  5
238D6
330
23784
100
AcDbEntity
  8
寸法
 62
     7
 48
50.0
100
AcDbMText
 10
6168.866258868411
 20
8012.339324185161
 30
0.0
 40
120.0
 41
0.0
 71
     5
 72
     1
  1
\A1;有効開口部間口\P950
  7
STYLE1
 73
     1
 44
1.0
1001
ACAD
1000
MTEXTBEGIN
1070
    73
1070
     1
1070
    44
1040
1.0
1070
    74
1070
     0
1000
MTEXTEND
  0
POINT
  5
238D7
330
23784
100
AcDbEntity
  8
DEFPOINTS
 62
     0
 48
50.0
100
AcDbPoint
 10
5693.866258868411
 20
8376.973610401568
 30
0.0
  0
POINT
  5
238D8
330
23784
100
AcDbEntity
  8
DEFPOINTS
 62
     0
 48
50.0
100
AcDbPoint
 10
6643.866258868411
 20
8376.973610401568
 30
0.0
  0
POINT
  5
238D9
330
23784
100
AcDbEntity
  8
DEFPOINTS
 62
     0
 48
50.0
100
AcDbPoint
 10
6643.866258868411
 20
7812.33932418516
 30
0.0
  0
ENDBLK
  5
2378F
330
23784
100
AcDbEntity
  8
0
 62
     1
 48
50.0
100
AcDbBlockEnd
  0
BLOCK
  5
237A8
330
2379E
100
AcDbEntity
  8
0
 62
     1
 48
50.0
100
AcDbBlockBegin
  2
*D66
 70
     1
 10
0.0
 20
0.0
 30
0.0
  3
*D66
  1

  0
LINE
  5
238BD
330
2379E
100
AcDbEntity
  8
寸法
 62
     0
 48
50.0
370
    -2
100
AcDbLine
 10
5654.866258868411
 20
8356.973610401569
 30
0.0
 11
5654.866258868411
 21
7492.903593836421
 31
0.0
  0
LINE
  5
238BE
330
2379E
100
AcDbEntity
  8
寸法
 62
     0
 48
50.0
370
    -2
100
AcDbLine
 10
7388.866258868411
 20
8356.973610401565
 30
0.0
 11
7388.866258868411
 21
7492.903593836421
 31
0.0
  0
LINE
  5
238BF
330
2379E
100
AcDbEntity
  8
寸法
 62
     0
 48
50.0
370
    -2
100
AcDbLine
 10
5654.866258868411
 20
7552.903593836418
 30
0.0
 11
7388.866258868411
 21
7552.903593836418
 31
0.0
  0
INSERT
  5
238C0
330
2379E
100
AcDbEntity
  8
寸法
 62
     0
 48
50.0
370
    -2
100
AcDbBlockReference
  2
_DOTSMALL
 10
5654.866258868411
 20
7552.903593836418
 30
0.0
 41
100.0
 42
100.0
 43
100.0
 50
180.0
  0
INSERT
  5
238C1
330
2379E
100
AcDbEntity
  8
寸法
 62
     0
 48
50.0
370
    -2
100
AcDbBlockReference
  2
_DOTSMALL
 10
7388.866258868411
 20
7552.903593836418
 30
0.0
 41
100.0
 42
100.0
 43
100.0
  0
MTEXT
  5
238C2
330
2379E
100
AcDbEntity
  8
寸法
 62
     7
 48
50.0
100
AcDbMText
 10
6512.837702168027
 20
7652.903593836419
 30
0.0
 40
120.0
 41
0.0
 71
     5
 72
     1
  1
\A1;1734
  7
STYLE1
 73
     1
 44
1.0
1001
ACAD
1000
MTEXTBEGIN
1070
    73
1070
     1
1070
    44
1040
1.0
1070
    74
1070
     0
1000
MTEXTEND
  0
POINT
  5
238C3
330
2379E
100
AcDbEntity
  8
DEFPOINTS
 62
     0
 48
50.0
100
AcDbPoint
 10
5654.866258868411
 20
8376.973610401568
 30
0.0
  0
POINT
  5
238C4
330
2379E
100
AcDbEntity
  8
DEFPOINTS
 62
     0
 48
50.0
100
AcDbPoint
 10
7388.866258868411
 20
8376.973610401565
 30
0.0
  0
POINT
  5
238C5
330
2379E
100
AcDbEntity
  8
DEFPOINTS
 62
     0
 48
50.0
100
AcDbPoint
 10
7388.866258868411
 20
7552.903593836418
 30
0.0
  0
ENDBLK
  5
237A9
330
2379E
100
AcDbEntity
  8
0
 62
     1
 48
50.0
100
AcDbBlockEnd
  0
BLOCK
  5
2398B
330
23981
100
AcDbEntity
  8
0
 62
     1
 48
50.0
100
AcDbBlockBegin
  2
*D67
 70
     1
 10
0.0
 20
0.0
 30
0.0
  3
*D67
  1

  0
LINE
  5
23FE2
330
23981
100
AcDbEntity
  8
寸法
 62
     0
 48
50.0
370
    -2
100
AcDbLine
 10
9258.693956914482
 20
4890.999999999994
 30
0.0
 11
8829.752416464589
 21
4890.999999999994
 31
0.0
  0
LINE
  5
23FE3
330
23981
100
AcDbEntity
  8
寸法
 62
     0
 48
50.0
370
    -2
100
AcDbLine
 10
9258.693956914482
 20
3165.999999999995
 30
0.0
 11
8829.752416464588
 21
3165.999999999995
 31
0.0
  0
LINE
  5
23FE4
330
23981
100
AcDbEntity
  8
寸法
 62
     0
 48
50.0
370
    -2
100
AcDbLine
 10
8869.75241646459
 20
4870.999999999995
 30
0.0
 11
8869.752416464587
 21
3185.999999999995
 31
0.0
  0
INSERT
  5
23FE5
330
23981
100
AcDbEntity
  8
寸法
 62
     0
 48
50.0
370
    -2
100
AcDbBlockReference
  2
_DOT
 10
8869.75241646459
 20
4890.999999999994
 30
0.0
 41
20.0
 42
20.0
 43
20.0
 50
90.0
  0
INSERT
  5
23FE6
330
23981
100
AcDbEntity
  8
寸法
 62
     0
 48
50.0
370
    -2
100
AcDbBlockReference
  2
_DOT
 10
8869.752416464587
 20
3165.999999999995
 30
0.0
 41
20.0
 42
20.0
 43
20.0
 50
270.0
  0
MTEXT
  5
23FE7
330
23981
100
AcDbEntity
  8
寸法
 62
     7
 48
50.0
100
AcDbMText
 10
8777.740605440966
 20
4028.499999999996
 30
0.0
 40
120.0
 41
0.0
 71
     5
 72
     1
  1
\A1;有効開口部高サ1725
  7
STYLE1
 11
0.0000000000000001
 21
1.0
 31
0.0
 73
     1
 44
1.0
1001
ACAD
1000
MTEXTBEGIN
1070
    73
1070
     1
1070
    44
1040
1.0
1070
    74
1070
     0
1000
MTEXTEND
  0
POINT
  5
23FE8
330
23981
100
AcDbEntity
  8
DEFPOINTS
 62
     0
 48
50.0
100
AcDbPoint
 10
9278.693956914482
 20
4890.999999999994
 30
0.0
  0
POINT
  5
23FE9
330
23981
100
AcDbEntity
  8
DEFPOINTS
 62
     0
 48
50.0
100
AcDbPoint
 10
9278.693956914482
 20
3165.999999999995
 30
0.0
  0
POINT
  5
23FEA
330
23981
100
AcDbEntity
  8
DEFPOINTS
 62
     0
 48
50.0
100
AcDbPoint
 10
8869.752416464587
 20
3165.999999999995
 30
0.0
  0
ENDBLK
  5
2398C
330
23981
100
AcDbEntity
  8
0
 62
     1
 48
50.0
100
AcDbBlockEnd
  0
BLOCK
  5
23E2C
330
23E22
100
AcDbEntity
  8
0
 62
     1
 48
50.0
100
AcDbBlockBegin
  2
*D68
 70
     1
 10
0.0
 20
0.0
 30
0.0
  3
*D68
  1

  0
LINE
  5
24052
330
23E22
100
AcDbEntity
  8
寸法
 62
     0
 48
50.0
370
    -2
100
AcDbLine
 10
7407.866258868438
 20
10208.61462655299
 30
0.0
 11
7803.223984730462
 21
10102.67884318685
 31
0.0
  0
LINE
  5
24053
330
23E22
100
AcDbEntity
  8
寸法
 62
     0
 48
50.0
370
    -2
100
AcDbLine
 10
7407.866258868438
 20
9758.614626552992
 30
0.0
 11
7803.223984730462
 21
9652.678843186855
 31
0.0
  0
LINE
  5
24054
330
23E22
100
AcDbEntity
  8
寸法
 62
     0
 48
50.0
370
    -2
100
AcDbLine
 10
7743.223984730462
 20
10118.75579473272
 30
0.0
 11
7743.223984730462
 21
9668.755794732724
 31
0.0
  0
INSERT
  5
24055
330
23E22
100
AcDbEntity
  8
寸法
 62
     0
 48
50.0
370
    -2
100
AcDbBlockReference
  2
_DOTSMALL
 10
7743.223984730462
 20
10118.75579473272
 30
0.0
 41
100.0
 42
100.0
 43
100.0
 50
90.0
  0
INSERT
  5
24056
330
23E22
100
AcDbEntity
  8
寸法
 62
     0
 48
50.0
370
    -2
100
AcDbBlockReference
  2
_DOTSMALL
 10
7743.223984730462
 20
9668.755794732724
 30
0.0
 41
100.0
 42
100.0
 43
100.0
 50
270.0
  0
MTEXT
  5
24057
330
23E22
100
AcDbEntity
  8
寸法
 62
     7
 48
50.0
100
AcDbMText
 10
7643.223984730461
 20
9893.755794732726
 30
0.0
 40
120.0
 41
0.0
 71
     5
 72
     1
  1
\A1;450
  7
STYLE1
 11
0.0000000000000001
 21
1.0
 31
0.0
 73
     1
 44
1.0
1001
ACAD
1000
MTEXTBEGIN
1070
    73
1070
     1
1070
    44
1040
1.0
1070
    74
1070
     0
1000
MTEXTEND
  0
POINT
  5
24058
330
23E22
100
AcDbEntity
  8
DEFPOINTS
 62
     0
 48
50.0
100
AcDbPoint
 10
7387.866258868438
 20
10213.97361040161
 30
0.0
  0
POINT
  5
24059
330
23E22
100
AcDbEntity
  8
DEFPOINTS
 62
     0
 48
50.0
100
AcDbPoint
 10
7387.866258868438
 20
9763.973610401613
 30
0.0
  0
POINT
  5
2405A
330
23E22
100
AcDbEntity
  8
DEFPOINTS
 62
     0
 48
50.0
100
AcDbPoint
 10
7743.223984730462
 20
9668.755794732724
 30
0.0
  0
ENDBLK
  5
23E2D
330
23E22
100
AcDbEntity
  8
0
 62
     1
 48
50.0
100
AcDbBlockEnd
  0
BLOCK
  5
23E38
330
23E2E
100
AcDbEntity
  8
0
 62
     1
 48
50.0
100
AcDbBlockBegin
  2
*D69
 70
     1
 10
0.0
 20
0.0
 30
0.0
  3
*D69
  1

  0
LINE
  5
24049
330
23E2E
100
AcDbEntity
  8
寸法
 62
     0
 48
50.0
370
    -2
100
AcDbLine
 10
6529.507275019814
 20
9743.973610401619
 30
0.0
 11
6460.09581102859
 21
9484.926500158637
 31
0.0
  0
LINE
  5
2404A
330
23E2E
100
AcDbEntity
  8
寸法
 62
     0
 48
50.0
370
    -2
100
AcDbLine
 10
7382.507275019825
 20
9743.973610401617
 30
0.0
 11
7313.095811028604
 21
9484.926500158637
 31
0.0
  0
LINE
  5
2404B
330
23E2E
100
AcDbEntity
  8
寸法
 62
     0
 48
50.0
370
    -2
100
AcDbLine
 10
6476.172762574458
 20
9544.926500158636
 30
0.0
 11
7329.172762574471
 21
9544.926500158636
 31
0.0
  0
INSERT
  5
2404C
330
23E2E
100
AcDbEntity
  8
寸法
 62
     0
 48
50.0
370
    -2
100
AcDbBlockReference
  2
_DOTSMALL
 10
6476.172762574458
 20
9544.926500158636
 30
0.0
 41
100.0
 42
100.0
 43
100.0
 50
180.0
  0
INSERT
  5
2404D
330
23E2E
100
AcDbEntity
  8
寸法
 62
     0
 48
50.0
370
    -2
100
AcDbBlockReference
  2
_DOTSMALL
 10
7329.172762574471
 20
9544.926500158636
 30
0.0
 41
100.0
 42
100.0
 43
100.0
  0
MTEXT
  5
2404E
330
23E2E
100
AcDbEntity
  8
寸法
 62
     7
 48
50.0
100
AcDbMText
 10
6914.213320986705
 20
9644.926500158637
 30
0.0
 40
120.0
 41
0.0
 71
     5
 72
     1
  1
\A1;853
  7
STYLE1
 73
     1
 44
1.0
1001
ACAD
1000
MTEXTBEGIN
1070
    73
1070
     1
1070
    44
1040
1.0
1070
    74
1070
     0
1000
MTEXTEND
  0
POINT
  5
2404F
330
23E2E
100
AcDbEntity
  8
DEFPOINTS
 62
     0
 48
50.0
100
AcDbPoint
 10
6534.866258868436
 20
9763.97361040162
 30
0.0
  0
POINT
  5
24050
330
23E2E
100
AcDbEntity
  8
DEFPOINTS
 62
     0
 48
50.0
100
AcDbPoint
 10
7387.866258868449
 20
9763.973610401615
 30
0.0
  0
POINT
  5
24051
330
23E2E
100
AcDbEntity
  8
DEFPOINTS
 62
     0
 48
50.0
100
AcDbPoint
 10
7329.172762574471
 20
9544.926500158636
 30
0.0
  0
ENDBLK
  5
23E39
330
23E2E
100
AcDbEntity
  8
0
 62
     1
 48
50.0
100
AcDbBlockEnd
  0
BLOCK
  5
23E44
330
23E3A
100
AcDbEntity
  8
0
 62
     1
 48
50.0
100
AcDbBlockBegin
  2
*D70
 70
     1
 10
0.0
 20
0.0
 30
0.0
  3
*D70
  1

  0
LINE
  5
24040
330
23E3A
100
AcDbEntity
  8
寸法
 62
     0
 48
50.0
370
    -2
100
AcDbLine
 10
5649.507275019816
 20
9743.973610401514
 30
0.0
 11
5580.095811028591
 21
9484.926500158527
 31
0.0
  0
LINE
  5
24041
330
23E3A
100
AcDbEntity
  8
寸法
 62
     0
 48
50.0
370
    -2
100
AcDbLine
 10
6502.507275019827
 20
9743.973610401512
 30
0.0
 11
6433.095811028604
 21
9484.926500158527
 31
0.0
  0
LINE
  5
24042
330
23E3A
100
AcDbEntity
  8
寸法
 62
     0
 48
50.0
370
    -2
100
AcDbLine
 10
5596.172762574461
 20
9544.926500158529
 30
0.0
 11
6449.172762574473
 21
9544.926500158529
 31
0.0
  0
INSERT
  5
24043
330
23E3A
100
AcDbEntity
  8
寸法
 62
     0
 48
50.0
370
    -2
100
AcDbBlockReference
  2
_DOTSMALL
 10
5596.172762574461
 20
9544.926500158529
 30
0.0
 41
100.0
 42
100.0
 43
100.0
 50
180.0
  0
INSERT
  5
24044
330
23E3A
100
AcDbEntity
  8
寸法
 62
     0
 48
50.0
370
    -2
100
AcDbBlockReference
  2
_DOTSMALL
 10
6449.172762574473
 20
9544.926500158529
 30
0.0
 41
100.0
 42
100.0
 43
100.0
  0
MTEXT
  5
24045
330
23E3A
100
AcDbEntity
  8
寸法
 62
     7
 48
50.0
100
AcDbMText
 10
6034.213320986706
 20
9644.926500158533
 30
0.0
 40
120.0
 41
0.0
 71
     5
 72
     1
  1
\A1;853
  7
STYLE1
 73
     1
 44
1.0
1001
ACAD
1000
MTEXTBEGIN
1070
    73
1070
     1
1070
    44
1040
1.0
1070
    74
1070
     0
1000
MTEXTEND
  0
POINT
  5
24046
330
23E3A
100
AcDbEntity
  8
DEFPOINTS
 62
     0
 48
50.0
100
AcDbPoint
 10
5654.866258868437
 20
9763.973610401514
 30
0.0
  0
POINT
  5
24047
330
23E3A
100
AcDbEntity
  8
DEFPOINTS
 62
     0
 48
50.0
100
AcDbPoint
 10
6507.866258868451
 20
9763.973610401508
 30
0.0
  0
POINT
  5
24048
330
23E3A
100
AcDbEntity
  8
DEFPOINTS
 62
     0
 48
50.0
100
AcDbPoint
 10
6449.172762574473
 20
9544.926500158529
 30
0.0
  0
ENDBLK
  5
23E45
330
23E3A
100
AcDbEntity
  8
0
 62
     1
 48
50.0
100
AcDbBlockEnd
  0
BLOCK
  5
23F74
330
23F68
100
AcDbEntity
  8
0
 62
     1
 48
50.0
100
AcDbBlockBegin
  2
*D71
 70
     1
 10
0.0
 20
0.0
 30
0.0
  3
*D71
  1

  0
LINE
  5
23FA2
330
23F68
100
AcDbEntity
  8
寸法
 62
     0
 48
50.0
370
    -2
100
AcDbLine
 10
5606.866258868473
 20
8453.973610401728
 30
0.0
 11
5282.953769846193
 21
8453.973610401728
 31
0.0
  0
LINE
  5
23FA3
330
23F68
100
AcDbEntity
  8
寸法
 62
     0
 48
50.0
370
    -2
100
AcDbLine
 10
5637.393473436323
 20
8378.973610401569
 30
0.0
 11
5282.953769846193
 21
8378.973610401569
 31
0.0
  0
LINE
  5
23FA4
330
23F68
100
AcDbEntity
  8
寸法
 62
     0
 48
50.0
370
    -2
100
AcDbLine
 10
5342.953769846193
 20
8453.973610401728
 30
0.0
 11
5342.953769846193
 21
8553.973610401728
 31
0.0
  0
LINE
  5
23FA5
330
23F68
100
AcDbEntity
  8
寸法
 62
     0
 48
50.0
370
    -2
100
AcDbLine
 10
5342.953769846193
 20
8378.973610401569
 30
0.0
 11
5342.953769846193
 21
7962.003047653091
 31
0.0
  0
LINE
  5
23FA6
330
23F68
100
AcDbEntity
  8
寸法
 62
     0
 48
50.0
370
    -2
100
AcDbLine
 10
5342.953769846193
 20
8453.973610401728
 30
0.0
 11
5342.953769846193
 21
8378.973610401569
 31
0.0
  0
INSERT
  5
23FA7
330
23F68
100
AcDbEntity
  8
寸法
 62
     0
 48
50.0
370
    -2
100
AcDbBlockReference
  2
_DOTSMALL
 10
5342.953769846193
 20
8453.973610401728
 30
0.0
 41
100.0
 42
100.0
 43
100.0
 50
270.0
  0
INSERT
  5
23FA8
330
23F68
100
AcDbEntity
  8
寸法
 62
     0
 48
50.0
370
    -2
100
AcDbBlockReference
  2
_DOTSMALL
 10
5342.953769846193
 20
8378.973610401569
 30
0.0
 41
100.0
 42
100.0
 43
100.0
 50
90.0
  0
MTEXT
  5
23FA9
330
23F68
100
AcDbEntity
  8
寸法
 62
     7
 48
50.0
100
AcDbMText
 10
5242.953769846192
 20
8070.488329027332
 30
0.0
 40
120.0
 41
0.0
 71
     5
 72
     1
  1
\A1;75
  7
STYLE1
 11
0.0000000000000001
 21
1.0
 31
0.0
 73
     1
 44
1.0
1001
ACAD
1000
MTEXTBEGIN
1070
    73
1070
     1
1070
    44
1040
1.0
1070
    74
1070
     0
1000
MTEXTEND
  0
POINT
  5
23FAA
330
23F68
100
AcDbEntity
  8
DEFPOINTS
 62
     0
 48
50.0
100
AcDbPoint
 10
5626.866258868473
 20
8453.973610401728
 30
0.0
  0
POINT
  5
23FAB
330
23F68
100
AcDbEntity
  8
DEFPOINTS
 62
     0
 48
50.0
100
AcDbPoint
 10
5657.393473436322
 20
8378.973610401569
 30
0.0
  0
POINT
  5
23FAC
330
23F68
100
AcDbEntity
  8
DEFPOINTS
 62
     0
 48
50.0
100
AcDbPoint
 10
5342.953769846193
 20
8378.973610401569
 30
0.0
  0
ENDBLK
  5
23F75
330
23F68
100
AcDbEntity
  8
0
 62
     1
 48
50.0
100
AcDbBlockEnd
  0
BLOCK
  5
241CF
330
241C5
100
AcDbEntity
  8
0
 62
     1
 48
50.0
100
AcDbBlockBegin
  2
*D72
 70
     1
 10
0.0
 20
0.0
 30
0.0
  3
*D72
  1

  0
LINE
  5
241D1
330
241C5
100
AcDbEntity
  8
寸法
 62
     0
 48
50.0
370
    -2
100
AcDbLine
 10
7519.89657510699
 20
2779.999999999998
 30
0.0
 11
7519.89657510699
 21
2453.952670699622
 31
0.0
  0
LINE
  5
241D2
330
241C5
100
AcDbEntity
  8
寸法
 62
     0
 48
50.0
370
    -2
100
AcDbLine
 10
7319.896575106993
 20
2779.999999999999
 30
0.0
 11
7319.896575106993
 21
2453.952670699622
 31
0.0
  0
LINE
  5
241D3
330
241C5
100
AcDbEntity
  8
寸法
 62
     0
 48
50.0
370
    -2
100
AcDbLine
 10
7519.89657510699
 20
2513.952670699622
 30
0.0
 11
7319.896575106993
 21
2513.952670699622
 31
0.0
  0
INSERT
  5
241D4
330
241C5
100
AcDbEntity
  8
寸法
 62
     0
 48
50.0
370
    -2
100
AcDbBlockReference
  2
_DOTSMALL
 10
7519.89657510699
 20
2513.952670699622
 30
0.0
 41
100.0
 42
100.0
 43
100.0
  0
INSERT
  5
241D5
330
241C5
100
AcDbEntity
  8
寸法
 62
     0
 48
50.0
370
    -2
100
AcDbBlockReference
  2
_DOTSMALL
 10
7319.896575106993
 20
2513.952670699622
 30
0.0
 41
100.0
 42
100.0
 43
100.0
 50
180.0
  0
MTEXT
  5
241D6
330
241C5
100
AcDbEntity
  8
寸法
 62
     7
 48
50.0
100
AcDbMText
 10
7419.896575106992
 20
2613.964481723245
 30
0.0
 40
120.0
 41
0.0
 71
     5
 72
     1
  1
\A1;200
  7
STYLE1
 73
     1
 44
1.0
1001
ACAD
1000
MTEXTBEGIN
1070
    73
1070
     1
1070
    44
1040
1.0
1070
    74
1070
     0
1000
MTEXTEND
  0
POINT
  5
241D7
330
241C5
100
AcDbEntity
  8
DEFPOINTS
 62
     0
 48
50.0
100
AcDbPoint
 10
7519.89657510699
 20
2799.999999999998
 30
0.0
  0
POINT
  5
241D8
330
241C5
100
AcDbEntity
  8
DEFPOINTS
 62
     0
 48
50.0
100
AcDbPoint
 10
7319.896575106993
 20
2799.999999999999
 30
0.0
  0
POINT
  5
241D9
330
241C5
100
AcDbEntity
  8
DEFPOINTS
 62
     0
 48
50.0
100
AcDbPoint
 10
7319.896575106993
 20
2513.952670699622
 30
0.0
  0
ENDBLK
  5
241D0
330
241C5
100
AcDbEntity
  8
0
 62
     1
 48
50.0
100
AcDbBlockEnd
  0
BLOCK
  5
2426C
330
24262
100
AcDbEntity
  8
0
 62
     1
 48
50.0
100
AcDbBlockBegin
  2
*D73
 70
     1
 10
0.0
 20
0.0
 30
0.0
  3
*D73
  1

  0
LINE
  5
24285
330
24262
100
AcDbEntity
  8
寸法
 62
     0
 48
50.0
370
    -2
100
AcDbLine
 10
11218.19395691448
 20
2780.000000000011
 30
0.0
 11
11218.19395691448
 21
2453.952670699635
 31
0.0
  0
LINE
  5
24286
330
24262
100
AcDbEntity
  8
寸法
 62
     0
 48
50.0
370
    -2
100
AcDbLine
 10
11018.19395691448
 20
2780.000000000013
 30
0.0
 11
11018.19395691448
 21
2453.952670699635
 31
0.0
  0
LINE
  5
24287
330
24262
100
AcDbEntity
  8
寸法
 62
     0
 48
50.0
370
    -2
100
AcDbLine
 10
11218.19395691448
 20
2513.952670699635
 30
0.0
 11
11018.19395691448
 21
2513.952670699635
 31
0.0
  0
INSERT
  5
24288
330
24262
100
AcDbEntity
  8
寸法
 62
     0
 48
50.0
370
    -2
100
AcDbBlockReference
  2
_DOTSMALL
 10
11218.19395691448
 20
2513.952670699635
 30
0.0
 41
100.0
 42
100.0
 43
100.0
  0
INSERT
  5
24289
330
24262
100
AcDbEntity
  8
寸法
 62
     0
 48
50.0
370
    -2
100
AcDbBlockReference
  2
_DOTSMALL
 10
11018.19395691448
 20
2513.952670699635
 30
0.0
 41
100.0
 42
100.0
 43
100.0
 50
180.0
  0
MTEXT
  5
2428A
330
24262
100
AcDbEntity
  8
寸法
 62
     7
 48
50.0
100
AcDbMText
 10
11118.19395691448
 20
2613.964481723257
 30
0.0
 40
120.0
 41
0.0
 71
     5
 72
     1
  1
\A1;200
  7
STYLE1
 73
     1
 44
1.0
1001
ACAD
1000
MTEXTBEGIN
1070
    73
1070
     1
1070
    44
1040
1.0
1070
    74
1070
     0
1000
MTEXTEND
  0
POINT
  5
2428B
330
24262
100
AcDbEntity
  8
DEFPOINTS
 62
     0
 48
50.0
100
AcDbPoint
 10
11218.19395691448
 20
2800.000000000011
 30
0.0
  0
POINT
  5
2428C
330
24262
100
AcDbEntity
  8
DEFPOINTS
 62
     0
 48
50.0
100
AcDbPoint
 10
11018.19395691448
 20
2800.000000000013
 30
0.0
  0
POINT
  5
2428D
330
24262
100
AcDbEntity
  8
DEFPOINTS
 62
     0
 48
50.0
100
AcDbPoint
 10
11018.19395691448
 20
2513.952670699635
 30
0.0
  0
ENDBLK
  5
2426D
330
24262
100
AcDbEntity
  8
0
 62
     1
 48
50.0
100
AcDbBlockEnd
  0
BLOCK
  5
24278
330
2426E
100
AcDbEntity
  8
0
 62
     1
 48
50.0
100
AcDbBlockBegin
  2
*D74
 70
     1
 10
0.0
 20
0.0
 30
0.0
  3
*D74
  1

  0
LINE
  5
2428E
330
2426E
100
AcDbEntity
  8
寸法
 62
     0
 48
50.0
370
    -2
100
AcDbLine
 10
10998.19395691448
 20
2800.000000000013
 30
0.0
 11
10808.69395366784
 21
2800.000000000013
 31
0.0
  0
LINE
  5
2428F
330
2426E
100
AcDbEntity
  8
寸法
 62
     0
 48
50.0
370
    -2
100
AcDbLine
 10
10973.19395691448
 20
3000.000000000013
 30
0.0
 11
10808.69395366784
 21
3000.000000000013
 31
0.0
  0
LINE
  5
24290
330
2426E
100
AcDbEntity
  8
寸法
 62
     0
 48
50.0
370
    -2
100
AcDbLine
 10
10868.69395366784
 20
2800.000000000013
 30
0.0
 11
10868.69395366784
 21
3000.000000000013
 31
0.0
  0
INSERT
  5
24291
330
2426E
100
AcDbEntity
  8
寸法
 62
     0
 48
50.0
370
    -2
100
AcDbBlockReference
  2
_DOTSMALL
 10
10868.69395366784
 20
2800.000000000013
 30
0.0
 41
100.0
 42
100.0
 43
100.0
 50
270.0
  0
INSERT
  5
24292
330
2426E
100
AcDbEntity
  8
寸法
 62
     0
 48
50.0
370
    -2
100
AcDbBlockReference
  2
_DOTSMALL
 10
10868.69395366784
 20
3000.000000000013
 30
0.0
 41
100.0
 42
100.0
 43
100.0
 50
90.0
  0
MTEXT
  5
24293
330
2426E
100
AcDbEntity
  8
寸法
 62
     7
 48
50.0
100
AcDbMText
 10
10768.68214264422
 20
2900.000000000014
 30
0.0
 40
120.0
 41
0.0
 71
     5
 72
     1
  1
\A1;200
  7
STYLE1
 11
0.0000000000000001
 21
1.0
 31
0.0
 73
     1
 44
1.0
1001
ACAD
1000
MTEXTBEGIN
1070
    73
1070
     1
1070
    44
1040
1.0
1070
    74
1070
     0
1000
MTEXTEND
  0
POINT
  5
24294
330
2426E
100
AcDbEntity
  8
DEFPOINTS
 62
     0
 48
50.0
100
AcDbPoint
 10
11018.19395691448
 20
2800.000000000013
 30
0.0
  0
POINT
  5
24295
330
2426E
100
AcDbEntity
  8
DEFPOINTS
 62
     0
 48
50.0
100
AcDbPoint
 10
10993.19395691448
 20
3000.000000000013
 30
0.0
  0
POINT
  5
24296
330
2426E
100
AcDbEntity
  8
DEFPOINTS
 62
     0
 48
50.0
100
AcDbPoint
 10
10868.69395366784
 20
3000.000000000013
 30
0.0
  0
ENDBLK
  5
24279
330
2426E
100
AcDbEntity
  8
0
 62
     1
 48
50.0
100
AcDbBlockEnd
  0
BLOCK
  5
24390
330
24386
100
AcDbEntity
  8
0
 62
     1
 48
50.0
100
AcDbBlockBegin
  2
*D75
 70
     1
 10
0.0
 20
0.0
 30
0.0
  3
*D75
  1

  0
LINE
  5
24392
330
24386
100
AcDbEntity
  8
寸法
 62
     0
 48
50.0
370
    -2
100
AcDbLine
 10
11165.69395691448
 20
3150.0
 30
0.0
 11
11647.63969292941
 21
3150.0
 31
0.0
  0
LINE
  5
24393
330
24386
100
AcDbEntity
  8
寸法
 62
     0
 48
50.0
370
    -2
100
AcDbLine
 10
11165.69395691447
 20
4935.0
 30
0.0
 11
11647.63969292941
 21
4935.0
 31
0.0
  0
LINE
  5
24394
330
24386
100
AcDbEntity
  8
寸法
 62
     0
 48
50.0
370
    -2
100
AcDbLine
 10
11587.63969292941
 20
3150.0
 30
0.0
 11
11587.63969292941
 21
4935.0
 31
0.0
  0
INSERT
  5
24395
330
24386
100
AcDbEntity
  8
寸法
 62
     0
 48
50.0
370
    -2
100
AcDbBlockReference
  2
_DOTSMALL
 10
11587.63969292941
 20
3150.0
 30
0.0
 41
100.0
 42
100.0
 43
100.0
 50
270.0
  0
INSERT
  5
24396
330
24386
100
AcDbEntity
  8
寸法
 62
     0
 48
50.0
370
    -2
100
AcDbBlockReference
  2
_DOTSMALL
 10
11587.63969292941
 20
4935.0
 30
0.0
 41
100.0
 42
100.0
 43
100.0
 50
90.0
  0
MTEXT
  5
24397
330
24386
100
AcDbEntity
  8
寸法
 62
     7
 48
50.0
100
AcDbMText
 10
11487.63969292941
 20
4042.500000000002
 30
0.0
 40
120.0
 41
0.0
 71
     5
 72
     1
  1
\A1;内高　1785
  7
STYLE1
 11
0.0000000000000001
 21
1.0
 31
0.0
 73
     1
 44
1.0
1001
ACAD
1000
MTEXTBEGIN
1070
    73
1070
     1
1070
    44
1040
1.0
1070
    74
1070
     0
1000
MTEXTEND
  0
POINT
  5
24398
330
24386
100
AcDbEntity
  8
DEFPOINTS
 62
     0
 48
50.0
100
AcDbPoint
 10
11145.69395691448
 20
3150.0
 30
0.0
  0
POINT
  5
24399
330
24386
100
AcDbEntity
  8
DEFPOINTS
 62
     0
 48
50.0
100
AcDbPoint
 10
11145.69395691447
 20
4935.0
 30
0.0
  0
POINT
  5
2439A
330
24386
100
AcDbEntity
  8
DEFPOINTS
 62
     0
 48
50.0
100
AcDbPoint
 10
11587.63969292941
 20
4935.0
 30
0.0
  0
ENDBLK
  5
24391
330
24386
100
AcDbEntity
  8
0
 62
     1
 48
50.0
100
AcDbBlockEnd
  0
ENDSEC
  0
SECTION
  2
ENTITIES
  0
LINE
  5
10B57
330
747D
100
AcDbEntity
  8
補助
  6
PHANTOM
 62
   230
 48
50.0
100
AcDbLine
 10
139.9999999999995
 20
11409.6
 30
0.0
 11
16307.2
 21
11409.6
 31
0.0
  0
LINE
  5
10B59
330
747D
100
AcDbEntity
  8
仕様書枠
  6
Continuous
 48
50.0
100
AcDbLine
 10
13107.2
 20
1200.0
 30
0.0
 11
13107.2
 21
-0.0000000000000729
 31
0.0
  0
LINE
  5
10B5C
330
747D
100
AcDbEntity
  8
仕様書枠
 48
50.0
100
AcDbLine
 10
16307.2
 20
1200.0
 30
0.0
 11
16307.2
 21
-0.0000000000000909
 31
0.0
  0
LINE
  5
10B5D
330
747D
100
AcDbEntity
  8
仕様書枠
 48
50.0
100
AcDbLine
 10
140.0
 20
0.0
 30
0.0
 11
16307.2
 21
-0.0000000000000909
 31
0.0
  0
LINE
  5
10B5E
330
747D
100
AcDbEntity
  8
補助
  6
PHANTOM
 62
   230
 48
50.0
100
AcDbLine
 10
16307.2
 20
11409.6
 30
0.0
 11
16307.2
 21
1200.0
 31
0.0
  0
LINE
  5
10B6C
330
747D
100
AcDbEntity
  8
仕様書枠
 48
50.0
100
AcDbLine
 10
13107.2
 20
1200.0
 30
0.0
 11
16307.2
 21
1200.0
 31
0.0
  0
LINE
  5
10B6D
330
747D
100
AcDbEntity
  8
補助
  6
PHANTOM
 62
   230
 48
50.0
100
AcDbLine
 10
13107.2
 20
11409.6
 30
0.0
 11
13107.2
 21
4800.0
 31
0.0
  0
LINE
  5
10B6F
330
747D
100
AcDbEntity
  8
補助
  6
PHANTOM
 62
   230
 48
50.0
100
AcDbLine
 10
13107.2
 20
4800.0
 30
0.0
 11
16307.2
 21
4800.0
 31
0.0
  0
LINE
  5
10B72
330
747D
100
AcDbEntity
  8
文字
 62
     7
 48
50.0
100
AcDbLine
 10
13187.2
 20
400.0
 30
0.0
 11
16227.2
 21
400.0
 31
0.0
  0
TEXT
  5
10B73
330
747D
100
AcDbEntity
  8
文字
 62
     7
 48
50.0
100
AcDbText
 10
13162.9790565769
 20
895.0906074299405
 30
0.0
 40
200.0
  1
外 形 図
  7
STYLE2
100
AcDbText
  0
TEXT
  5
10B74
330
747D
100
AcDbEntity
  8
文字
 62
     7
 48
50.0
100
AcDbText
 10
13201.43669998441
 20
477.2740661031255
 30
0.0
 40
160.0
  1
機種名
  7
STYLE2
100
AcDbText
  0
TEXT
  5
10B79
330
747D
100
AcDbEntity
  8
文字
 62
     7
 48
50.0
100
AcDbText
 10
14524.131837222
 20
1031.557706291228
 30
0.0
 40
100.0
  1
NO.03      <縮尺> S=1/40
  7
STYLE2
100
AcDbText
  0
LINE
  5
10B7B
330
747D
100
AcDbEntity
  8
仕様書枠
 48
50.0
100
AcDbLine
 10
13107.2
 20
800.0
 30
0.0
 11
14251.2
 21
800.0
 31
0.0
  0
LINE
  5
10B88
330
747D
100
AcDbEntity
  8
仕様書枠
  6
Continuous
 48
50.0
100
AcDbLine
 10
14251.2
 20
1200.0
 30
0.0
 11
14251.2
 21
800.0
 31
0.0
  0
LINE
  5
12765
330
747D
100
AcDbEntity
  8
Ｇ．Ｌ
100
AcDbLine
 10
4730.637458593498
 20
3000.0
 30
0.0
 11
11799.44238282794
 21
3000.0
 31
0.0
  0
LINE
  5
12766
330
747D
100
AcDbEntity
  8
部品1
100
AcDbLine
 10
9355.693956914477
 20
4940.0
 30
0.0
 11
11145.69395691447
 21
4940.0
 31
0.0
  0
LINE
  5
12767
330
747D
100
AcDbEntity
  8
部品1
100
AcDbLine
 10
9355.693956914477
 20
3150.0
 30
0.0
 11
11145.69395691448
 21
3150.0
 31
0.0
  0
LINE
  5
12773
330
747D
100
AcDbEntity
  8
部品1
100
AcDbLine
 10
9410.693956914474
 20
4940.0
 30
0.0
 11
9410.693956914474
 21
3150.0
 31
0.0
  0
LINE
  5
12777
330
747D
100
AcDbEntity
  8
部品1
100
AcDbLine
 10
9355.69395691448
 20
5031.576893940441
 30
0.0
 11
9355.693956914477
 21
3100.000000000001
 31
0.0
  0
DIMENSION
  5
12779
330
747D
100
AcDbEntity
  8
寸法
100
AcDbDimension
  2
*D3
 10
8511.943827731213
 20
3150.0
 30
0.0
 11
8411.943827731214
 21
4045.000000000001
 31
0.0
 70
    32
 71
     5
 42
1789.999999999999
  3
INABA_S40G
100
AcDbAlignedDimension
 13
9355.693956914477
 23
4940.0
 33
0.0
 14
9355.693956914477
 24
3150.0
 34
0.0
 50
90.0
100
AcDbRotatedDimension
1001
ACAD
1000
DSTYLE
1002
{
1070
   174
1070
     0
1070
   272
1070
     1
1070
   288
1070
     0
1070
   341
1005
0
1002
}
  0
DIMENSION
  5
1277A
330
747D
100
AcDbEntity
  8
寸法
100
AcDbDimension
  2
*D2
 10
8211.943827731214
 20
5175.000000000005
 30
0.0
 11
8111.932016707591
 21
4137.500000000002
 31
0.0
 70
    32
 71
     5
 42
2075.000000000004
  3
INABA_S40G
100
AcDbAlignedDimension
 13
9280.693956914474
 23
3100.0
 33
0.0
 14
9295.693956914476
 24
5175.000000000005
 34
0.0
 50
90.0
100
AcDbRotatedDimension
1001
ACAD
1000
DSTYLE
1002
{
1070
   174
1070
     0
1070
   272
1070
     1
1070
   288
1070
     0
1070
   341
1005
0
1002
}
  0
DIMENSION
  5
1277C
330
747D
100
AcDbEntity
  8
寸法
100
AcDbDimension
  2
*D1
 10
8511.943827731213
 20
3100.0
 30
0.0
 11
8511.943827731213
 21
2793.952755905514
 31
0.0
 70
   160
 71
     5
 42
50.0
  3
INABA_S40G
100
AcDbAlignedDimension
 13
9355.693956914477
 23
3150.0
 33
0.0
 14
9280.693956914474
 24
3100.0
 34
0.0
 50
90.0
100
AcDbRotatedDimension
1001
ACAD
1000
DSTYLE
1002
{
1070
   174
1070
     0
1070
   272
1070
     1
1070
   288
1070
     0
1070
   341
1005
0
1002
}
  0
LINE
  5
12787
330
747D
100
AcDbEntity
  8
部品1
100
AcDbLine
 10
9830.693956914474
 20
4940.0
 30
0.0
 11
9830.693956914474
 21
3150.0
 31
0.0
  0
LINE
  5
1279B
330
747D
100
AcDbEntity
  8
部品1
100
AcDbLine
 10
11145.69395691447
 20
4994.636580835253
 30
0.0
 11
11145.69395691447
 21
3000.0
 31
0.0
  0
LINE
  5
1279C
330
747D
100
AcDbEntity
  8
部品1
100
AcDbLine
 10
11090.69395691448
 20
4940.0
 30
0.0
 11
11090.69395691448
 21
3150.0
 31
0.0
  0
DIMENSION
  5
127A4
330
747D
100
AcDbEntity
  8
寸法
100
AcDbDimension
  2
*D4
 10
11850.6211148866
 20
5120.0
 30
0.0
 11
11750.60930386298
 21
4110.000000000002
 31
0.0
 70
    32
 71
     5
 42
2020.000000000001
  3
INABA_S40G
100
AcDbAlignedDimension
 13
11145.69395691447
 23
3100.0
 33
0.0
 14
11225.69395691447
 24
5120.0
 34
0.0
 50
90.0
100
AcDbRotatedDimension
1001
ACAD
1000
DSTYLE
1002
{
1070
   174
1070
     0
1070
   272
1070
     1
1070
   288
1070
     0
1070
   341
1005
0
1002
}
  0
TEXT
  5
127AA
330
747D
100
AcDbEntity
  8
部品1
100
AcDbText
 10
4788.552733323573
 20
3013.953728039225
 30
0.0
 40
125.0
  1
▽G.L
  7
STYLE2
100
AcDbText
  0
DIMENSION
  5
13B51
330
747D
100
AcDbEntity
  8
寸法
 48
50.0
100
AcDbDimension
  2
*D5
 10
9355.693956914477
 20
5573.657453579304
 30
0.0
 11
10250.69395691447
 21
5673.657453579306
 31
0.0
 70
    32
  1
柱外寸法<>
 71
     5
 42
1790.0
  3
INABA_S40G
100
AcDbAlignedDimension
 13
11145.69395691447
 23
5121.810679611654
 33
0.0
 14
9355.693956914477
 24
5171.001618122978
 34
0.0
100
AcDbRotatedDimension
1001
ACAD
1000
DSTYLE
1002
{
1070
   174
1070
     0
1070
   272
1070
     1
1070
   288
1070
     0
1070
   341
1005
0
1002
}
  0
DIMENSION
  5
13B6D
330
747D
100
AcDbEntity
  8
寸法
 48
50.0
100
AcDbDimension
  2
*D6
 10
9295.693956914476
 20
5573.657453579304
 30
0.0
 11
8986.056161638886
 21
5573.657453579304
 31
0.0
 70
   160
 71
     5
 42
60.0
  3
INABA_S40G
100
AcDbAlignedDimension
 13
9355.693956914477
 23
5171.001618122978
 33
0.0
 14
9295.693956914476
 24
5175.000000000005
 34
0.0
100
AcDbRotatedDimension
1001
ACAD
1000
DSTYLE
1002
{
1070
   174
1070
     0
1070
   272
1070
     1
1070
   288
1070
     0
1070
   341
1005
0
1002
}
  0
DIMENSION
  5
13BBF
330
747D
100
AcDbEntity
  8
寸法
 48
50.0
100
AcDbDimension
  2
*D7
 10
9295.693956914476
 20
5781.831774771268
 30
0.0
 11
10260.69395691447
 21
5881.831774771268
 31
0.0
 70
    32
 71
     5
 42
1930.0
  3
INABA_S40G
100
AcDbAlignedDimension
 13
11225.69395691447
 23
5120.0
 33
0.0
 14
9295.693956914476
 24
5175.000000000005
 34
0.0
100
AcDbRotatedDimension
1001
ACAD
1000
DSTYLE
1002
{
1070
   174
1070
     0
1070
   272
1070
     1
1070
   288
1070
     0
1070
   341
1005
0
1002
}
  0
LINE
  5
13BE8
330
747D
100
AcDbEntity
  8
部品1
100
AcDbLine
 10
5629.896575106992
 20
3100.0
 30
0.0
 11
7419.896575106992
 21
3100.0
 31
0.0
  0
LINE
  5
13BE9
330
747D
100
AcDbEntity
  8
部品1
100
AcDbLine
 10
5629.896575106992
 20
4940.0
 30
0.0
 11
7419.896575106992
 21
4940.0
 31
0.0
  0
DIMENSION
  5
13BF0
330
747D
100
AcDbEntity
  8
寸法
 48
50.0
100
AcDbDimension
  2
*D8
 10
7469.896575106992
 20
5589.214133848725
 30
0.0
 11
6524.896575106989
 21
5589.214133848725
 31
0.0
 70
   160
 71
     5
 42
1889.999999999999
  3
INABA_S40G
100
AcDbAlignedDimension
 13
5579.896575106992
 23
5175.000000000006
 33
0.0
 14
7469.896575106992
 24
5175.000000000003
 34
0.0
100
AcDbRotatedDimension
  0
LINE
  5
13C1F
330
747D
100
AcDbEntity
  8
部品1
100
AcDbLine
 10
5629.896575106993
 20
5034.000000000005
 30
0.0
 11
5629.896575106992
 21
3000.0
 31
0.0
  0
LINE
  5
13D18
330
747D
100
AcDbEntity
  8
部品1
100
AcDbLine
 10
7419.896575106992
 20
5034.000000000005
 30
0.0
 11
7419.896575106992
 21
3000.0
 31
0.0
  0
DIMENSION
  5
141C3
330
747D
100
AcDbEntity
  8
寸法
 48
50.0
100
AcDbDimension
  2
*D9
 10
7419.896575106993
 20
5379.620259427273
 30
0.0
 11
7783.381856481231
 21
5379.620259427273
 31
0.0
 70
   160
 71
     5
 42
49.99999999999909
  3
INABA_S40G
100
AcDbAlignedDimension
 13
7469.896575106992
 23
5175.000000000003
 33
0.0
 14
7419.896575106993
 24
5175.000000000006
 34
0.0
100
AcDbRotatedDimension
  0
DIMENSION
  5
14206
330
747D
100
AcDbEntity
  8
寸法
 48
50.0
100
AcDbDimension
  2
*D10
 10
5579.896575106992
 20
5379.620259427273
 30
0.0
 11
5266.411293732748
 21
5379.620259427273
 31
0.0
 70
   160
 71
     5
 42
49.99999999999909
  3
INABA_S40G
100
AcDbAlignedDimension
 13
5629.896575106992
 23
5175.000000000006
 33
0.0
 14
5579.896575106992
 24
5175.000000000006
 34
0.0
100
AcDbRotatedDimension
1001
ACAD
1000
DSTYLE
1002
{
1002
}
  0
LWPOLYLINE
  5
14534
330
747D
100
AcDbEntity
  8
部品1
100
AcDbPolyline
 90
        4
 70
     1
 43
0.0
 10
6143.161241992779
 20
7083.121502029277
 10
6143.161241992779
 20
6843.229180483745
 10
6906.631908221219
 20
6843.229180483745
 10
6906.631908221219
 20
7083.121502029277
  0
TEXT
  5
14535
330
747D
100
AcDbEntity
  8
部品1
100
AcDbText
 10
6233.080851821816
 20
6890.227972810754
 30
0.0
 40
135.0
  1
平面図
  7
STYLE2
100
AcDbText
  0
DIMENSION
  5
146E8
330
747D
100
AcDbEntity
  8
寸法
 48
50.0
100
AcDbDimension
  2
*D11
 10
5629.896575106992
 20
5379.620259427273
 30
0.0
 11
6499.077414038605
 21
5379.620259427273
 31
0.0
 70
   160
  1
柱外寸法<>
 71
     5
 42
1790.000000000001
  3
INABA_S40G
100
AcDbAlignedDimension
 13
7419.896575106993
 23
5175.000000000006
 33
0.0
 14
5629.896575106992
 24
5175.000000000006
 34
0.0
100
AcDbRotatedDimension
  0
TEXT
  5
149A1
330
747D
100
AcDbEntity
  8
部品1
100
AcDbText
 10
6233.686645730735
 20
2014.21966086888
 30
0.0
 40
135.0
  1
正面図
  7
STYLE2
100
AcDbText
  0
LWPOLYLINE
  5
149A2
330
747D
100
AcDbEntity
  8
部品1
100
AcDbPolyline
 90
        4
 70
     1
 43
0.0
 10
6143.161241992779
 20
2207.113190087403
 10
6143.161241992779
 20
1967.220868541871
 10
6906.631908221219
 20
1967.220868541871
 10
6906.631908221219
 20
2207.113190087403
  0
TEXT
  5
149A3
330
747D
100
AcDbEntity
  8
部品1
100
AcDbText
 10
9968.404725223864
 20
2014.21966086888
 30
0.0
 40
135.0
  1
側面図
  7
STYLE2
100
AcDbText
  0
LWPOLYLINE
  5
149A4
330
747D
100
AcDbEntity
  8
部品1
100
AcDbPolyline
 90
        4
 70
     1
 43
0.0
 10
9878.958623800256
 20
2207.113190087403
 10
9878.958623800256
 20
1967.22086854187
 10
10642.42929002869
 20
1967.22086854187
 10
10642.42929002869
 20
2207.113190087403
  0
LINE
  5
149E3
330
747D
100
AcDbEntity
  8
部品1
100
AcDbLine
 10
5629.896575106992
 20
3150.000000000004
 30
0.0
 11
5657.896575106986
 21
3150.000000000004
 31
0.0
  0
TEXT
  5
14DEF
330
747D
100
AcDbEntity
  8
文字
 62
     7
 48
50.0
100
AcDbText
 10
14641.2525855784
 20
871.1744590657925
 30
0.0
 40
100.0
  1
～一般型・多雪地型～
  7
STYLE2
100
AcDbText
  0
LINE
  5
15A10
330
747D
100
AcDbEntity
  8
仕様書枠
 48
50.0
100
AcDbLine
 10
16307.19999999999
 20
8179.600000000005
 30
0.0
 11
16307.2
 21
11409.6
 31
0.0
  0
TEXT
  5
15A76
330
747D
100
AcDbEntity
  8
文字
 62
     7
 48
50.0
100
AcDbText
 10
14491.96323844892
 20
483.896712991141
 30
0.0
 40
160.0
  1
NXP-32ST
  7
STYLE2
100
AcDbText
  0
LINE
  5
15A9A
330
747D
100
AcDbEntity
  8
細線
 48
50.0
100
AcDbLine
 10
9908.193956914477
 20
4940.0
 30
0.0
 11
9908.193956914477
 21
3150.0
 31
0.0
  0
LINE
  5
15A9B
330
747D
100
AcDbEntity
  8
細線
 48
50.0
100
AcDbLine
 10
9893.193956914474
 20
4940.0
 30
0.0
 11
9893.193956914474
 21
3150.0
 31
0.0
  0
LINE
  5
15A9C
330
747D
100
AcDbEntity
  8
細線
 48
50.0
100
AcDbLine
 10
10033.19395691447
 20
4940.0
 30
0.0
 11
10033.19395691447
 21
3150.0
 31
0.0
  0
LINE
  5
15A9D
330
747D
100
AcDbEntity
  8
細線
 48
50.0
100
AcDbLine
 10
10048.19395691447
 20
4940.0
 30
0.0
 11
10048.19395691447
 21
3150.0
 31
0.0
  0
LINE
  5
15A9E
330
747D
100
AcDbEntity
  8
細線
 48
50.0
100
AcDbLine
 10
10188.19395691447
 20
4940.0
 30
0.0
 11
10188.19395691447
 21
3150.0
 31
0.0
  0
LINE
  5
15A9F
330
747D
100
AcDbEntity
  8
細線
 48
50.0
100
AcDbLine
 10
10173.19395691447
 20
4940.0
 30
0.0
 11
10173.19395691447
 21
3150.0
 31
0.0
  0
LINE
  5
15AA0
330
747D
100
AcDbEntity
  8
細線
 48
50.0
100
AcDbLine
 10
9753.193956914474
 20
4940.0
 30
0.0
 11
9753.193956914474
 21
3150.0
 31
0.0
  0
LINE
  5
15AA1
330
747D
100
AcDbEntity
  8
細線
 48
50.0
100
AcDbLine
 10
9768.193956914474
 20
4940.0
 30
0.0
 11
9768.193956914474
 21
3150.0
 31
0.0
  0
LINE
  5
15AA2
330
747D
100
AcDbEntity
  8
細線
 48
50.0
100
AcDbLine
 10
9628.193956914474
 20
4940.0
 30
0.0
 11
9628.193956914474
 21
3150.0
 31
0.0
  0
LINE
  5
15AA3
330
747D
100
AcDbEntity
  8
細線
 48
50.0
100
AcDbLine
 10
9613.193956914477
 20
4940.0
 30
0.0
 11
9613.193956914477
 21
3150.0
 31
0.0
  0
LINE
  5
15AA4
330
747D
100
AcDbEntity
  8
細線
 48
50.0
100
AcDbLine
 10
9473.193956914474
 20
4940.0
 30
0.0
 11
9473.193956914474
 21
3150.0
 31
0.0
  0
LINE
  5
15AA5
330
747D
100
AcDbEntity
  8
細線
 48
50.0
100
AcDbLine
 10
9488.193956914477
 20
4940.0
 30
0.0
 11
9488.193956914477
 21
3150.0
 31
0.0
  0
LINE
  5
18FE5
330
747D
100
AcDbEntity
  8
部品1
100
AcDbLine
 10
9303.238943271436
 20
5173.717735334267
 30
0.0
 11
11218.30583377594
 21
5118.050841327565
 31
0.0
  0
LINE
  5
18FE6
330
747D
100
AcDbEntity
  8
部品1
100
AcDbLine
 10
9311.036521516427
 20
5032.781025068967
 30
0.0
 11
11200.35765745432
 21
4993.162643453187
 31
0.0
  0
LINE
  5
18FE9
330
747D
100
AcDbEntity
  8
細線
 48
50.0
100
AcDbLine
 10
9328.693956914476
 20
5172.399676375405
 30
0.0
 11
9323.404855358964
 21
5032.31404374805
 31
0.0
  0
LINE
  5
18FEA
330
747D
100
AcDbEntity
  8
細線
 48
50.0
100
AcDbLine
 10
11192.69395691447
 20
5119.377022653722
 30
0.0
 11
11187.94627402647
 21
4993.631250162977
 31
0.0
  0
LINE
  5
1982C
330
747D
100
AcDbEntity
  8
部品1
 48
50.0
100
AcDbLine
 10
9295.878242827582
 20
5166.593546164693
 30
0.0
 11
9296.258502605395
 21
5146.666581718282
 31
0.0
  0
LINE
  5
1982D
330
747D
100
AcDbEntity
  8
部品1
 48
50.0
100
AcDbLine
 10
9299.327274711641
 20
5143.091300224809
 30
0.0
 11
9301.031176203007
 21
5053.800803518162
 31
0.0
  0
LINE
  5
1982F
330
747D
100
AcDbEntity
  8
細線
 48
50.0
100
AcDbLine
 10
9296.733380015288
 20
5146.01708184136
 30
0.0
 11
11222.36936476045
 21
5089.802920818959
 31
0.0
  0
LINE
  5
19830
330
747D
100
AcDbEntity
  8
細線
 48
50.0
100
AcDbLine
 10
9301.493855252576
 20
5053.155570143498
 30
0.0
 11
11211.49751968321
 21
5012.756294787429
 31
0.0
  0
LINE
  5
19831
330
747D
100
AcDbEntity
  8
部品1
 48
50.0
100
AcDbLine
 10
9304.099948309248
 20
5050.22552202469
 30
0.0
 11
9304.301900929678
 21
5039.642486631597
 31
0.0
  0
ARC
  5
19832
330
747D
100
AcDbEntity
  8
部品1
 48
50.0
100
AcDbCircle
 10
9302.876968655921
 20
5166.727100572121
 30
0.0
 40
7.0
100
AcDbArc
 50
87.03587545295626
 51
181.093224029279
  0
ARC
  5
19833
330
747D
100
AcDbEntity
  8
部品1
 48
50.0
100
AcDbCircle
 10
9311.300626758017
 20
5039.776041039026
 30
0.0
 40
7.0
100
AcDbArc
 50
181.0932240292862
 51
267.8377559870786
  0
ARC
  5
19835
330
747D
100
AcDbEntity
  8
部品1
100
AcDbCircle
 10
9301.100494382813
 20
5050.168284421507
 30
0.0
 40
3.0
100
AcDbArc
 50
1.093224029286911
 51
80.18775403152167
  0
ARC
  5
19836
330
747D
100
AcDbEntity
  8
部品1
100
AcDbCircle
 10
9296.327820785212
 20
5143.034062621626
 30
0.0
 40
3.0
100
AcDbArc
 50
1.093224029279532
 51
80.18775403159017
  0
ARC
  5
19837
330
747D
100
AcDbEntity
  8
部品1
100
AcDbCircle
 10
9296.95837518823
 20
5146.679937159023
 30
0.0
 40
0.7
100
AcDbArc
 50
181.0932240292222
 51
260.1877540315805
  0
ARC
  5
19838
330
747D
100
AcDbEntity
  8
部品1
100
AcDbCircle
 10
9301.731048785839
 20
5053.814158958903
 30
0.0
 40
0.7
100
AcDbArc
 50
181.0932240292252
 51
260.1877540315805
  0
LINE
  5
1983C
330
747D
100
AcDbEntity
  8
部品1
 48
50.0
100
AcDbLine
 10
11224.90785972517
 20
5110.351195892643
 30
0.0
 11
11222.8772385342
 21
5090.406154634864
 31
0.0
  0
LINE
  5
1983D
330
747D
100
AcDbEntity
  8
部品1
 48
50.0
100
AcDbLine
 10
11219.52467204972
 20
5087.095520561955
 30
0.0
 11
11212.01789278488
 21
5013.362899816943
 31
0.0
  0
LINE
  5
1983E
330
747D
100
AcDbEntity
  8
部品1
 48
50.0
100
AcDbLine
 10
11208.6653263004
 20
5010.052265744031
 30
0.0
 11
11207.58576326066
 21
4999.448648750473
 31
0.0
  0
ARC
  5
1983F
330
747D
100
AcDbEntity
  8
部品1
 48
50.0
100
AcDbCircle
 10
11217.94385916042
 20
5111.060206565419
 30
0.0
 40
7.0
100
AcDbArc
 50
354.1866997665259
 51
87.03587545295638
  0
ARC
  5
19840
330
747D
100
AcDbEntity
  8
部品1
 48
50.0
100
AcDbCircle
 10
11200.6217626959
 20
5000.157659423246
 30
0.0
 40
7.0
100
AcDbArc
 50
267.8377559870788
 51
354.1866997665298
  0
ARC
  5
19841
330
747D
100
AcDbEntity
  8
部品1
100
AcDbCircle
 10
11211.64989797101
 20
5009.748404027128
 30
0.0
 40
3.0
100
AcDbArc
 50
95.09216976421095
 51
174.1866997665351
  0
ARC
  5
19842
330
747D
100
AcDbEntity
  8
部品1
100
AcDbCircle
 10
11222.50924372033
 20
5086.791658845052
 30
0.0
 40
3.0
100
AcDbArc
 50
95.0921697643148
 51
174.1866997665315
  0
ARC
  5
19843
330
747D
100
AcDbEntity
  8
部品1
100
AcDbCircle
 10
11222.18083847773
 20
5090.477055702141
 30
0.0
 40
0.7
100
AcDbArc
 50
275.0921697642604
 51
354.1866997665291
  0
ARC
  5
19844
330
747D
100
AcDbEntity
  8
部品1
100
AcDbCircle
 10
11211.3214927284
 20
5013.433800884218
 30
0.0
 40
0.7
100
AcDbArc
 50
275.0921697642539
 51
354.1866997666923
  0
DIMENSION
  5
19878
330
747D
100
AcDbEntity
  8
寸法
 48
50.0
100
AcDbDimension
  2
*D12
 10
11225.69395691447
 20
5573.657453579304
 30
0.0
 11
11431.74120100896
 21
5573.657453579304
 31
0.0
 70
   160
 71
     5
 42
80.0
  3
INABA_S40G
100
AcDbAlignedDimension
 13
11145.69395691447
 23
5121.810679611654
 33
0.0
 14
11225.69395691447
 24
5120.0
 34
0.0
100
AcDbRotatedDimension
1001
ACAD
1000
DSTYLE
1002
{
1070
   174
1070
     0
1070
   272
1070
     1
1070
   288
1070
     0
1070
   341
1005
0
1002
}
  0
DIMENSION
  5
19A46
330
747D
100
AcDbEntity
  8
寸法
 48
50.0
100
AcDbDimension
  2
*D13
 10
8703.427705202862
 20
5196.82249089752
 30
0.0
 11
8712.105448854982
 21
5426.658729913714
 31
0.0
 70
   160
 71
     5
 42
141.0
  3
INABA_S40G
100
AcDbAlignedDimension
 13
9311.036521516427
 23
5032.781025068967
 33
0.0
 14
9316.356355668384
 24
5173.68063246585
 34
0.0
 50
87.83775598709233
100
AcDbRotatedDimension
1001
ACAD
1000
DSTYLE
1002
{
1070
   174
1070
     0
1070
   272
1070
     1
1070
   288
1070
     0
1070
   341
1005
0
1002
}
  0
LINE
  5
1BA4E
330
747D
100
AcDbEntity
  8
部品1
 48
50.0
100
AcDbLine
 10
10127.12037778107
 20
5305.86813910128
 30
0.0
 11
10427.12037778107
 21
5305.86813910128
 31
0.0
  0
LINE
  5
1BA4F
330
747D
100
AcDbEntity
  8
部品1
 48
50.0
100
AcDbLine
 10
10427.12037778107
 20
5305.86813910128
 30
0.0
 11
10427.12037778107
 21
5284.26813910128
 31
0.0
  0
TEXT
  5
1BA51
330
747D
100
AcDbEntity
  8
部品1
 48
50.0
100
AcDbText
 10
10115.38821300479
 20
5341.752161253713
 30
0.0
 40
120.0
  1
1000
  7
STYLE1
100
AcDbText
  0
TEXT
  5
1BA52
330
747D
100
AcDbEntity
  8
部品1
 48
50.0
100
AcDbText
 10
10604.21322506893
 20
5204.250903035429
 30
0.0
 40
120.0
  1
54
 50
90.0
  7
STYLE1
100
AcDbText
  0
LINE
  5
1BDE8
330
747D
100
AcDbEntity
  8
部品1
 48
50.0
100
AcDbLine
 10
7462.488154000559
 20
5175.000000000005
 30
0.0
 11
5587.304996213424
 21
5175.000000000006
 31
0.0
  0
LINE
  5
1BDE9
330
747D
100
AcDbEntity
  8
部品1
 48
50.0
100
AcDbLine
 10
7449.272830539527
 20
5034.000000000006
 30
0.0
 11
5600.520319674457
 21
5034.000000000005
 31
0.0
  0
LINE
  5
1BDEA
330
747D
100
AcDbEntity
  8
細線
 48
50.0
100
AcDbLine
 10
7467.857036885551
 20
5147.000000000005
 30
0.0
 11
5581.936113328431
 21
5147.000000000002
 31
0.0
  0
LINE
  5
1BDEB
330
747D
100
AcDbEntity
  8
細線
 48
50.0
100
AcDbLine
 10
7459.621006360714
 20
5054.800000000003
 30
0.0
 11
5590.17214385326
 21
5054.800000000007
 31
0.0
  0
LINE
  5
1BDEC
330
747D
100
AcDbEntity
  8
部品1
100
AcDbLine
 10
7469.476914091659
 20
5167.603474604764
 30
0.0
 11
7468.343516759313
 21
5147.627346622165
 31
0.0
  0
LINE
  5
1BDEE
330
747D
100
AcDbEntity
  8
細線
 48
50.0
100
AcDbLine
 10
7436.896575106992
 20
5175.000000000005
 30
0.0
 11
7436.896575106992
 21
5034.000000000005
 31
0.0
  0
LINE
  5
1BDEF
330
747D
100
AcDbEntity
  8
細線
 48
50.0
100
AcDbLine
 10
5612.896575106994
 20
5175.000000000005
 30
0.0
 11
5612.896575106994
 21
5034.000000000005
 31
0.0
  0
LINE
  5
1BE41
330
747D
100
AcDbEntity
  8
部品1
100
AcDbLine
 10
7456.906496437736
 20
5051.969939455105
 30
0.0
 11
7456.261590630626
 21
5040.603474604766
 31
0.0
  0
LINE
  5
1BE42
330
747D
100
AcDbEntity
  8
部品1
100
AcDbLine
 10
7465.142526962582
 20
5144.169939455108
 30
0.0
 11
7460.10748623447
 21
5055.427346622163
 31
0.0
  0
ARC
  5
1BE44
330
747D
100
AcDbEntity
  8
部品1
 48
50.0
100
AcDbCircle
 10
7468.137709858766
 20
5144.000000000005
 30
0.0
 40
3.0
100
AcDbArc
 50
97.65812720738011
 51
176.7526572096774
  0
ARC
  5
1BE45
330
747D
100
AcDbEntity
  8
部品1
 48
50.0
100
AcDbCircle
 10
7459.901679333923
 20
5051.800000000003
 30
0.0
 40
3.0
100
AcDbArc
 50
97.6581272073629
 51
176.7526572096767
  0
ARC
  5
1BE46
330
747D
100
AcDbEntity
  8
部品1
 48
50.0
100
AcDbCircle
 10
7459.408610225363
 20
5055.466999161687
 30
0.0
 40
0.7
100
AcDbArc
 50
277.6581272073433
 51
356.7526572097019
  0
ARC
  5
1BE47
330
747D
100
AcDbEntity
  8
部品1
 48
50.0
100
AcDbCircle
 10
7467.644640750204
 20
5147.66699916169
 30
0.0
 40
0.7
100
AcDbArc
 50
277.6581272073433
 51
356.7526572096276
  0
ARC
  5
1BE48
330
747D
100
AcDbEntity
  8
部品1
100
AcDbCircle
 10
7449.272830539527
 20
5041.000000000004
 30
0.0
 40
7.0
100
AcDbArc
 50
270.0
 51
356.7526572096773
  0
ARC
  5
1BE49
330
747D
100
AcDbEntity
  8
部品1
100
AcDbCircle
 10
7462.488154000559
 20
5168.000000000005
 30
0.0
 40
7.0
100
AcDbArc
 50
356.752657209676
 51
89.99999999999998
  0
ARC
  5
1BE4A
330
747D
100
AcDbEntity
  8
部品1
100
AcDbCircle
 10
5587.304996213424
 20
5168.000000000005
 30
0.0
 40
7.0
100
AcDbArc
 50
90.00000000000005
 51
183.247342790324
  0
ARC
  5
1BE4B
330
747D
100
AcDbEntity
  8
部品1
100
AcDbCircle
 10
5600.520319674457
 20
5041.000000000004
 30
0.0
 40
7.0
100
AcDbArc
 50
183.2473427903227
 51
270.0
  0
ARC
  5
1BE4C
330
747D
100
AcDbEntity
  8
部品1
 48
50.0
100
AcDbCircle
 10
5582.148509463779
 20
5147.66699916169
 30
0.0
 40
0.7
100
AcDbArc
 50
183.2473427903725
 51
262.3418727926567
  0
ARC
  5
1BE4D
330
747D
100
AcDbEntity
  8
部品1
 48
50.0
100
AcDbCircle
 10
5590.384539988622
 20
5055.466999161687
 30
0.0
 40
0.7
100
AcDbArc
 50
183.2473427902981
 51
262.3418727926567
  0
ARC
  5
1BE4E
330
747D
100
AcDbEntity
  8
部品1
 48
50.0
100
AcDbCircle
 10
5589.891470880059
 20
5051.800000000003
 30
0.0
 40
3.0
100
AcDbArc
 50
3.247342790323342
 51
82.34187279263712
  0
ARC
  5
1BE4F
330
747D
100
AcDbEntity
  8
部品1
 48
50.0
100
AcDbCircle
 10
5581.655440355217
 20
5144.000000000005
 30
0.0
 40
3.0
100
AcDbArc
 50
3.247342790322578
 51
82.34187279261988
  0
LINE
  5
1BE50
330
747D
100
AcDbEntity
  8
部品1
100
AcDbLine
 10
5584.650623251403
 20
5144.169939455108
 30
0.0
 11
5589.685663979513
 21
5055.427346622163
 31
0.0
  0
LINE
  5
1BE51
330
747D
100
AcDbEntity
  8
部品1
100
AcDbLine
 10
5592.886653776248
 20
5051.969939455105
 30
0.0
 11
5593.531559583357
 21
5040.603474604766
 31
0.0
  0
LINE
  5
1BE52
330
747D
100
AcDbEntity
  8
部品1
100
AcDbLine
 10
5580.316236122325
 20
5167.603474604764
 30
0.0
 11
5581.449633454671
 21
5147.627346622165
 31
0.0
  0
TEXT
  5
1C9E3
330
747D
100
AcDbEntity
  8
文字
 62
     7
 48
50.0
100
AcDbText
 10
13209.4053442172
 20
76.09434707649325
 30
0.0
 40
100.0
  1
○床面積 ： 3.34㎡(1.01坪) 　
  7
STYLE2
100
AcDbText
  0
TEXT
  5
1C9E4
330
747D
100
AcDbEntity
  8
文字
 62
     7
 48
50.0
100
AcDbText
 10
13209.4053442172
 20
228.5435242569015
 30
0.0
 40
100.0
  1
○有効開口寸法 ： 950\U+00D71725(mm)
  7
STYLE2
100
AcDbText
  0
LINE
  5
1D09C
330
747D
100
AcDbEntity
  8
部品1
100
AcDbLine
 10
10250.69395691447
 20
4940.0
 30
0.0
 11
10250.69395691447
 21
3150.0
 31
0.0
  0
LINE
  5
1D09D
330
747D
100
AcDbEntity
  8
細線
 48
50.0
100
AcDbLine
 10
10593.19395691447
 20
4940.0
 30
0.0
 11
10593.19395691447
 21
3150.0
 31
0.0
  0
LINE
  5
1D09E
330
747D
100
AcDbEntity
  8
細線
 48
50.0
100
AcDbLine
 10
10608.19395691448
 20
4940.0
 30
0.0
 11
10608.19395691448
 21
3150.0
 31
0.0
  0
LINE
  5
1D09F
330
747D
100
AcDbEntity
  8
細線
 48
50.0
100
AcDbLine
 10
10468.19395691447
 20
4940.0
 30
0.0
 11
10468.19395691447
 21
3150.0
 31
0.0
  0
LINE
  5
1D0A0
330
747D
100
AcDbEntity
  8
細線
 48
50.0
100
AcDbLine
 10
10453.19395691448
 20
4940.0
 30
0.0
 11
10453.19395691448
 21
3150.0
 31
0.0
  0
LINE
  5
1D0A1
330
747D
100
AcDbEntity
  8
細線
 48
50.0
100
AcDbLine
 10
10313.19395691448
 20
4940.0
 30
0.0
 11
10313.19395691448
 21
3150.0
 31
0.0
  0
LINE
  5
1D0A2
330
747D
100
AcDbEntity
  8
細線
 48
50.0
100
AcDbLine
 10
10328.19395691447
 20
4940.0
 30
0.0
 11
10328.19395691447
 21
3150.0
 31
0.0
  0
LINE
  5
1D0AB
330
747D
100
AcDbEntity
  8
部品1
 48
50.0
100
AcDbLine
 10
10127.12037778107
 20
5305.86813910128
 30
0.0
 11
10427.12037778107
 21
5284.26813910128
 31
0.0
  0
LINE
  5
1E169
330
747D
100
AcDbEntity
  8
部品1
100
AcDbLine
 10
5626.866258868439
 20
8508.973610401595
 30
0.0
 11
5626.86625886844
 21
8453.973610401597
 31
0.0
  0
LINE
  5
1E1A2
330
747D
100
AcDbEntity
  8
部品1
100
AcDbLine
 10
5626.866258868416
 20
10188.97361040161
 30
0.0
 11
5626.866258868416
 21
8453.973610401561
 31
0.0
  0
LINE
  5
1E1AB
330
747D
100
AcDbEntity
  8
部品1
100
AcDbLine
 10
5626.866258868416
 20
10215.97361040161
 30
0.0
 11
5626.866258868416
 21
10188.97361040161
 31
0.0
  0
DIMENSION
  5
1E1EB
330
747D
100
AcDbEntity
  8
寸法
100
AcDbDimension
  2
*D14
 10
7416.866258868423
 20
7263.838784647401
 30
0.0
 11
6521.866258868431
 21
7363.8387846474
 31
0.0
 70
    32
 71
     5
 42
1789.999999999982
  3
INABA_S40G
100
AcDbAlignedDimension
 13
5626.86625886844
 23
8453.973610401597
 33
0.0
 14
7416.866258868423
 24
8453.973610401728
 34
0.0
100
AcDbRotatedDimension
1001
ACAD
1000
DSTYLE
1002
{
1002
}
  0
LINE
  5
1E1EC
330
747D
100
AcDbEntity
  8
部品1
100
AcDbLine
 10
7361.866258868412
 20
8453.973610401568
 30
0.0
 11
7388.86625886841
 21
8453.97361040157
 31
0.0
  0
LINE
  5
1E1ED
330
747D
100
AcDbEntity
  8
部品1
100
AcDbLine
 10
5654.866258868411
 20
8453.973610401568
 30
0.0
 11
5681.866258868411
 21
8453.973610401568
 31
0.0
  0
LINE
  5
1E1EE
330
747D
100
AcDbEntity
  8
部品1
 48
50.0
100
AcDbLine
 10
7361.866258868413
 20
8453.973610401725
 30
0.0
 11
7361.866258868412
 21
8481.973610401722
 31
0.0
  0
LINE
  5
1E1EF
330
747D
100
AcDbEntity
  8
部品1
 48
50.0
100
AcDbLine
 10
5681.866258868411
 20
8453.973610401568
 30
0.0
 11
5681.866258868415
 21
8481.973610401569
 31
0.0
  0
LINE
  5
1E1F0
330
747D
100
AcDbEntity
  8
部品1
 48
50.0
100
AcDbLine
 10
7361.866258868447
 20
8453.973610401725
 30
0.0
 11
7416.866258868423
 21
8453.973610401728
 31
0.0
  0
LINE
  5
1E1F1
330
747D
100
AcDbEntity
  8
部品1
 48
50.0
100
AcDbLine
 10
5654.866258868418
 20
8481.973610401565
 30
0.0
 11
7388.86625886842
 21
8481.973610401725
 31
0.0
  0
LINE
  5
1E1F2
330
747D
100
AcDbEntity
  8
部品1
 48
50.0
100
AcDbLine
 10
5626.86625886844
 20
8453.973610401565
 30
0.0
 11
5681.866258868411
 21
8453.973610401568
 31
0.0
  0
LINE
  5
1E1F3
330
747D
100
AcDbEntity
  8
部品1
100
AcDbLine
 10
5654.866258868414
 20
8508.973610401595
 30
0.0
 11
5626.866258868416
 21
8508.973610401595
 31
0.0
  0
LINE
  5
1E1F4
330
747D
100
AcDbEntity
  8
部品1
100
AcDbLine
 10
7388.866258868448
 20
8508.973610401467
 30
0.0
 11
7416.866258868447
 21
8508.973610401467
 31
0.0
  0
LINE
  5
1E1F5
330
747D
100
AcDbEntity
  8
部品1
 48
50.0
100
AcDbLine
 10
5683.366258868431
 20
8510.473610401721
 30
0.0
 11
5654.866258868435
 21
8481.973610401725
 31
0.0
  0
LINE
  5
1E1F8
330
747D
100
AcDbEntity
  8
部品1
 48
50.0
100
AcDbLine
 10
7360.36625886842
 20
8510.473610401721
 30
0.0
 11
7388.86625886842
 21
8481.973610401725
 31
0.0
  0
LINE
  5
1E1FB
330
747D
100
AcDbEntity
  8
破線
 48
10.0
100
AcDbLine
 10
6496.866258868415
 20
8533.973610401673
 30
0.0
 11
5706.866258868434
 21
8533.973610401627
 31
0.0
  0
LINE
  5
1E1FC
330
747D
100
AcDbEntity
  8
破線
 48
10.0
100
AcDbLine
 10
7336.866258868429
 20
8533.973610401721
 30
0.0
 11
6546.866258868416
 21
8533.973610401679
 31
0.0
  0
LINE
  5
1E1FD
330
747D
100
AcDbEntity
  8
部品1
100
AcDbLine
 10
7360.36625886842
 20
8510.473610401721
 30
0.0
 11
5683.366258868337
 21
8510.473610401627
 31
0.0
  0
LINE
  5
1E1FE
330
747D
100
AcDbEntity
  8
破線
 48
10.0
100
AcDbLine
 10
6496.866258868419
 20
8510.473610401673
 30
0.0
 11
6496.866258868415
 21
9763.97361040162
 31
0.0
  0
LINE
  5
1E1FF
330
747D
100
AcDbEntity
  8
破線
 48
10.0
100
AcDbLine
 10
6546.866258868416
 20
8510.47361040168
 30
0.0
 11
6546.866258868419
 21
9763.97361040162
 31
0.0
  0
DIMENSION
  5
1E200
330
747D
100
AcDbEntity
  8
寸法
100
AcDbDimension
  2
*D15
 10
7361.866258868447
 20
10540.78063720996
 30
0.0
 11
6521.866258868445
 21
10540.78063720996
 31
0.0
 70
   160
  1
4X420=<>
 71
     5
 42
1680.0
  3
INABA_S40G
100
AcDbAlignedDimension
 13
5681.866258868447
 23
10243.97361040164
 33
0.0
 14
7361.866258868447
 24
10243.97361040173
 34
0.0
100
AcDbRotatedDimension
1001
ACAD
1000
DSTYLE
1002
{
1002
}
  0
LINE
  5
1E201
330
747D
100
AcDbEntity
  8
部品1
100
AcDbLine
 10
5626.866258868449
 20
10243.97361040164
 30
0.0
 11
7416.866258868447
 21
10243.97361040173
 31
0.0
  0
DIMENSION
  5
1E202
330
747D
100
AcDbEntity
  8
寸法
100
AcDbDimension
  2
*D16
 10
7416.866258868447
 20
10540.78063720994
 30
0.0
 11
7725.351540242685
 21
10540.78063720994
 31
0.0
 70
   160
 71
     5
 42
55.0
  3
INABA_S40G
100
AcDbAlignedDimension
 13
7361.866258868447
 23
10243.97361040173
 33
0.0
 14
7416.866258868447
 24
10243.97361040173
 34
0.0
100
AcDbRotatedDimension
1001
ACAD
1000
DSTYLE
1002
{
1002
}
  0
LINE
  5
1E203
330
747D
100
AcDbEntity
  8
部品1
100
AcDbLine
 10
7388.866258868448
 20
10188.97361040174
 30
0.0
 11
7416.866258868447
 21
10188.97361040174
 31
0.0
  0
LINE
  5
1E204
330
747D
100
AcDbEntity
  8
部品1
100
AcDbLine
 10
7388.866258868448
 20
9768.973610401742
 30
0.0
 11
7416.866258868447
 21
9768.973610401742
 31
0.0
  0
LINE
  5
1E20A
330
747D
100
AcDbEntity
  8
部品1
100
AcDbLine
 10
6521.866258868446
 20
10215.97361040175
 30
0.0
 11
7388.866258868448
 21
10215.97361040173
 31
0.0
  0
LINE
  5
1E20B
330
747D
100
AcDbEntity
  8
部品1
100
AcDbLine
 10
7388.866258868451
 20
9348.97361040174
 30
0.0
 11
7416.866258868451
 21
9348.97361040174
 31
0.0
  0
LINE
  5
1E20C
330
747D
100
AcDbEntity
  8
部品1
100
AcDbLine
 10
7388.866258868448
 20
10215.97361040173
 30
0.0
 11
7388.866258868422
 21
8481.973610401725
 31
0.0
  0
LINE
  5
1E20D
330
747D
100
AcDbEntity
  8
部品1
100
AcDbLine
 10
5654.866258868414
 20
10188.97361040161
 30
0.0
 11
5626.866258868416
 21
10188.97361040161
 31
0.0
  0
LINE
  5
1E20E
330
747D
100
AcDbEntity
  8
部品1
100
AcDbLine
 10
5654.86625886842
 20
8481.973610401565
 30
0.0
 11
5654.866258868447
 21
10215.97361040164
 31
0.0
  0
LINE
  5
1E20F
330
747D
100
AcDbEntity
  8
部品1
100
AcDbLine
 10
5654.866258868447
 20
10215.97361040176
 30
0.0
 11
6521.866258868448
 21
10215.97361040176
 31
0.0
  0
DIMENSION
  5
1E210
330
747D
100
AcDbEntity
  8
寸法
100
AcDbDimension
  2
*D17
 10
8064.29260460286
 20
8508.973610401723
 30
0.0
 11
7964.280793579236
 21
9348.973610401733
 31
0.0
 70
    32
  1
4X420=<>
 71
     5
 42
1680.000000000014
  3
INABA_S40G
100
AcDbAlignedDimension
 13
7416.866258868447
 23
10188.97361040174
 33
0.0
 14
7416.866258868423
 24
8508.973610401723
 34
0.0
 50
90.0
100
AcDbRotatedDimension
1001
ACAD
1000
DSTYLE
1002
{
1002
}
  0
DIMENSION
  5
1E211
330
747D
100
AcDbEntity
  8
寸法
100
AcDbDimension
  2
*D18
 10
8064.29260460286
 20
8453.973610401728
 30
0.0
 11
8064.292604602858
 21
8145.488329027491
 31
0.0
 70
   160
 71
     5
 42
54.99999999999635
  3
INABA_S40G
100
AcDbAlignedDimension
 13
7416.866258868423
 23
8508.973610401723
 33
0.0
 14
7416.866258868423
 24
8453.973610401728
 34
0.0
 50
90.0
100
AcDbRotatedDimension
  0
DIMENSION
  5
1E212
330
747D
100
AcDbEntity
  8
寸法
100
AcDbDimension
  2
*D19
 10
8064.292604602858
 20
10188.97361040174
 30
0.0
 11
8064.292604602858
 21
10552.45889177597
 31
0.0
 70
   160
 71
     5
 42
54.99999999999635
  3
INABA_S40G
100
AcDbAlignedDimension
 13
7416.866258868447
 23
10243.97361040173
 33
0.0
 14
7416.866258868447
 24
10188.97361040174
 34
0.0
 50
90.0
100
AcDbRotatedDimension
1001
ACAD
1000
DSTYLE
1002
{
1002
}
  0
LINE
  5
1E213
330
747D
100
AcDbEntity
  8
部品1
100
AcDbLine
 10
5681.866258868447
 20
10243.97361040164
 30
0.0
 11
5681.866258868447
 21
10215.97361040164
 31
0.0
  0
LINE
  5
1E214
330
747D
100
AcDbEntity
  8
部品1
100
AcDbLine
 10
6101.866258868447
 20
10243.97361040164
 30
0.0
 11
6101.866258868447
 21
10215.97361040164
 31
0.0
  0
LINE
  5
1E215
330
747D
100
AcDbEntity
  8
部品1
100
AcDbLine
 10
6101.866258868447
 20
10243.97361040164
 30
0.0
 11
6101.866258868447
 21
10215.97361040164
 31
0.0
  0
LINE
  5
1E216
330
747D
100
AcDbEntity
  8
部品1
100
AcDbLine
 10
6101.866258868447
 20
10243.97361040175
 30
0.0
 11
6101.866258868447
 21
10215.97361040176
 31
0.0
  0
LINE
  5
1E217
330
747D
100
AcDbEntity
  8
部品1
100
AcDbLine
 10
6521.866258868448
 20
10243.97361040175
 30
0.0
 11
6521.866258868448
 21
10215.97361040176
 31
0.0
  0
LINE
  5
1E218
330
747D
100
AcDbEntity
  8
部品1
100
AcDbLine
 10
6941.866258868447
 20
10243.97361040175
 30
0.0
 11
6941.866258868447
 21
10215.97361040176
 31
0.0
  0
LINE
  5
1E219
330
747D
100
AcDbEntity
  8
部品1
100
AcDbLine
 10
7416.866258868447
 20
10243.97361040173
 30
0.0
 11
7416.866258868423
 21
8453.973610401728
 31
0.0
  0
DIMENSION
  5
1E21A
330
747D
100
AcDbEntity
  8
寸法
100
AcDbDimension
  2
*D20
 10
8429.399546342494
 20
8453.973610401728
 30
0.0
 11
8329.399546342493
 21
9348.973610401733
 31
0.0
 70
    32
 71
     5
 42
1790.000000000007
  3
INABA_S40G
100
AcDbAlignedDimension
 13
7416.866258868447
 23
10243.97361040173
 33
0.0
 14
7416.866258868423
 24
8453.973610401728
 34
0.0
 50
90.0
100
AcDbRotatedDimension
1001
ACAD
1000
DSTYLE
1002
{
1002
}
  0
LINE
  5
1E21B
330
747D
100
AcDbEntity
  8
部品1
100
AcDbLine
 10
7361.866258868447
 20
10243.97361040175
 30
0.0
 11
7361.866258868447
 21
10215.97361040176
 31
0.0
  0
LINE
  5
1E21C
330
747D
100
AcDbEntity
  8
部品1
100
AcDbLine
 10
7361.866258868447
 20
10243.97361040173
 30
0.0
 11
7361.866258868447
 21
10215.97361040173
 31
0.0
  0
LINE
  5
1E21D
330
747D
100
AcDbEntity
  8
部品1
100
AcDbLine
 10
5626.86625886841
 20
10243.97361040161
 30
0.0
 11
5626.866258868413
 21
10188.97361040161
 31
0.0
  0
LINE
  5
1E21E
330
747D
100
AcDbEntity
  8
部品1
100
AcDbLine
 10
5681.866258868411
 20
10243.97361040161
 30
0.0
 11
5681.866258868415
 21
10215.97361040161
 31
0.0
  0
DIMENSION
  5
1E21F
330
747D
100
AcDbEntity
  8
寸法
100
AcDbDimension
  2
*D21
 10
5681.866258868447
 20
10540.78063720985
 30
0.0
 11
5318.380977494173
 21
10540.78063720985
 31
0.0
 70
   160
 71
     5
 42
55.00000000003637
  3
INABA_S40G
100
AcDbAlignedDimension
 13
5626.86625886841
 23
10243.97361040164
 33
0.0
 14
5681.866258868447
 24
10243.97361040164
 34
0.0
100
AcDbRotatedDimension
1001
ACAD
1000
DSTYLE
1002
{
1002
}
  0
LINE
  5
1E31B
330
747D
100
AcDbEntity
  8
部品1
100
AcDbLine
 10
5654.866258868414
 20
9348.973610401591
 30
0.0
 11
5626.866258868416
 21
9348.973610401591
 31
0.0
  0
LINE
  5
1E31C
330
747D
100
AcDbEntity
  8
部品1
100
AcDbLine
 10
5654.866258868414
 20
9768.973610401594
 30
0.0
 11
5626.866258868416
 21
9768.973610401594
 31
0.0
  0
LINE
  5
1E31E
330
747D
100
AcDbEntity
  8
部品1
100
AcDbLine
 10
7360.366258868373
 20
9347.47361040174
 30
0.0
 11
5683.366258868291
 21
9347.473610401838
 31
0.0
  0
LINE
  5
23651
330
747D
100
AcDbEntity
  8
部品1
 48
50.0
100
AcDbLine
 10
9355.693956914482
 20
4935.0
 30
0.0
 11
9278.693956914482
 21
4925.0
 31
0.0
  0
LINE
  5
23653
330
747D
100
AcDbEntity
  8
センター
 48
50.0
100
AcDbLine
 10
9355.693956914482
 20
4935.0
 30
0.0
 11
9355.693956914482
 21
4940.0
 31
0.0
  0
LINE
  5
23654
102
{ACAD_REACTORS
330
23933
102
}
330
747D
100
AcDbEntity
  8
部品1
 48
50.0
100
AcDbLine
 10
7391.89657510699
 20
4891.000000000005
 30
0.0
 11
7361.896575106991
 21
4891.000000000005
 31
0.0
  0
LINE
  5
23655
102
{ACAD_REACTORS
330
23933
102
}
330
747D
100
AcDbEntity
  8
部品1
 48
50.0
100
AcDbLine
 10
5687.896575106988
 20
4891.000000000005
 30
0.0
 11
5657.896575106986
 21
4891.000000000005
 31
0.0
  0
LINE
  5
23656
102
{ACAD_REACTORS
330
23933
102
}
330
747D
100
AcDbEntity
  8
細線
 48
50.0
100
AcDbLine
 10
7361.896575106991
 20
4892.500000000005
 30
0.0
 11
5687.896575106988
 21
4892.500000000005
 31
0.0
  0
LINE
  5
23657
102
{ACAD_REACTORS
330
23933
102
}
330
747D
100
AcDbEntity
  8
細線
 48
50.0
100
AcDbLine
 10
7361.896575106991
 20
4883.000000000005
 30
0.0
 11
5687.896575106988
 21
4883.000000000005
 31
0.0
  0
LINE
  5
23658
102
{ACAD_REACTORS
330
23933
102
}
330
747D
100
AcDbEntity
  8
細線
 48
50.0
100
AcDbLine
 10
7391.89657510699
 20
4925.000000000005
 30
0.0
 11
5657.896575106986
 21
4925.000000000005
 31
0.0
  0
LINE
  5
23659
102
{ACAD_REACTORS
330
23933
102
}
330
747D
100
AcDbEntity
  8
部品1
 48
50.0
100
AcDbLine
 10
7391.89657510699
 20
4935.000000000004
 30
0.0
 11
5657.896575106986
 21
4935.000000000004
 31
0.0
  0
LINE
  5
2365A
102
{ACAD_REACTORS
330
23933
102
}
330
747D
100
AcDbEntity
  8
部品1
 48
50.0
100
AcDbLine
 10
7364.896575106988
 20
4935.000000000004
 30
0.0
 11
7364.896575106988
 21
4940.0
 31
0.0
  0
LINE
  5
2365B
102
{ACAD_REACTORS
330
23933
102
}
330
747D
100
AcDbEntity
  8
部品1
 48
50.0
100
AcDbLine
 10
5684.896575106986
 20
4935.000000000004
 30
0.0
 11
5684.896575106986
 21
4940.0
 31
0.0
  0
ARC
  5
2365C
102
{ACAD_REACTORS
330
23933
102
}
330
747D
100
AcDbEntity
  8
細線
 48
5.0
100
AcDbCircle
 10
5789.800362300866
 20
4133.0
 30
0.0
 40
7.0
100
AcDbArc
 50
0.990134125961185
 51
90.0
  0
LINE
  5
2365D
102
{ACAD_REACTORS
330
23933
102
}
330
747D
100
AcDbEntity
  8
細線
 48
50.0
100
AcDbLine
 10
5761.396575106989
 20
4131.0
 30
0.0
 11
5784.883001416178
 21
4131.0
 31
0.0
  0
ARC
  5
2365E
102
{ACAD_REACTORS
330
23933
102
}
330
747D
100
AcDbEntity
  8
細線
 48
5.0
100
AcDbCircle
 10
5784.883001416178
 20
4128.0
 30
0.0
 40
3.0
100
AcDbArc
 50
0.9195304176512273
 51
90.0
  0
ARC
  5
2365F
102
{ACAD_REACTORS
330
23933
102
}
330
747D
100
AcDbEntity
  8
細線
 48
50.0
100
AcDbCircle
 10
5761.396575106989
 20
4128.0
 30
0.0
 40
3.0
100
AcDbArc
 50
90.0
 51
180.0
  0
ARC
  5
23660
102
{ACAD_REACTORS
330
23933
102
}
330
747D
100
AcDbEntity
  8
細線
 48
5.0
100
AcDbCircle
 10
5789.800362300866
 20
3995.0
 30
0.0
 40
7.0
100
AcDbArc
 50
270.0
 51
359.0098658740388
  0
LINE
  5
23661
102
{ACAD_REACTORS
330
23933
102
}
330
747D
100
AcDbEntity
  8
細線
 48
50.0
100
AcDbLine
 10
5761.396575106989
 20
3997.0
 30
0.0
 11
5784.883001416178
 21
3997.000000000002
 31
0.0
  0
ARC
  5
23662
102
{ACAD_REACTORS
330
23933
102
}
330
747D
100
AcDbEntity
  8
細線
 48
50.0
100
AcDbCircle
 10
5761.396575106989
 20
4000.0
 30
0.0
 40
3.0
100
AcDbArc
 50
180.0
 51
270.0
  0
ARC
  5
23663
102
{ACAD_REACTORS
330
23933
102
}
330
747D
100
AcDbEntity
  8
細線
 48
5.0
100
AcDbCircle
 10
5784.883001416178
 20
4000.000000000002
 30
0.0
 40
3.0
100
AcDbArc
 50
270.0
 51
359.0804695823488
  0
ARC
  5
23664
102
{ACAD_REACTORS
330
23933
102
}
330
747D
100
AcDbEntity
  8
細線
 48
5.0
100
AcDbCircle
 10
1797.39657510699
 20
4064.0
 30
0.0
 40
4000.0
100
AcDbArc
 50
359.0098658740388
 51
0.990134125961185
  0
ARC
  5
23665
102
{ACAD_REACTORS
330
23933
102
}
330
747D
100
AcDbEntity
  8
細線
 48
5.0
100
AcDbCircle
 10
1797.39657510699
 20
4064.0
 30
0.0
 40
3991.0
100
AcDbArc
 50
359.0804695823488
 51
0.9195304176512273
  0
LINE
  5
23666
102
{ACAD_REACTORS
330
23933
102
}
330
747D
100
AcDbEntity
  8
細線
 48
50.0
100
AcDbLine
 10
5758.39657510699
 20
4128.0
 30
0.0
 11
5758.39657510699
 21
4000.0
 31
0.0
  0
LINE
  5
23667
102
{ACAD_REACTORS
330
23933
102
}
330
747D
100
AcDbEntity
  8
細線
 48
2.0
100
AcDbLine
 10
5740.39657510699
 20
4038.0
 30
0.0
 11
5734.396575106994
 21
4038.0
 31
0.0
  0
ARC
  5
23668
102
{ACAD_REACTORS
330
23933
102
}
330
747D
100
AcDbEntity
  8
細線
 48
2.0
100
AcDbCircle
 10
5740.39657510699
 20
4035.0
 30
0.0
 40
3.0
100
AcDbArc
 50
0.0
 51
90.0
  0
ARC
  5
23669
102
{ACAD_REACTORS
330
23933
102
}
330
747D
100
AcDbEntity
  8
細線
 48
2.0
100
AcDbCircle
 10
5734.396575106994
 20
4035.0
 30
0.0
 40
3.0
100
AcDbArc
 50
90.0
 51
180.0
  0
ARC
  5
2366A
102
{ACAD_REACTORS
330
23933
102
}
330
747D
100
AcDbEntity
  8
細線
 48
2.0
100
AcDbCircle
 10
5740.39657510699
 20
4127.000000000001
 30
0.0
 40
3.0
100
AcDbArc
 50
0.0
 51
90.0
  0
LINE
  5
2366B
102
{ACAD_REACTORS
330
23933
102
}
330
747D
100
AcDbEntity
  8
細線
 48
2.0
100
AcDbLine
 10
5743.39657510699
 20
4127.000000000001
 30
0.0
 11
5743.39657510699
 21
4093.0
 31
0.0
  0
LINE
  5
2366C
102
{ACAD_REACTORS
330
23933
102
}
330
747D
100
AcDbEntity
  8
細線
 48
2.0
100
AcDbLine
 10
5740.39657510699
 20
4130.000000000001
 30
0.0
 11
5734.39657510699
 21
4130.0
 31
0.0
  0
ARC
  5
2366D
102
{ACAD_REACTORS
330
23933
102
}
330
747D
100
AcDbEntity
  8
細線
 48
2.0
100
AcDbCircle
 10
5734.39657510699
 20
4127.0
 30
0.0
 40
3.0
100
AcDbArc
 50
90.0
 51
180.0
  0
LINE
  5
2366E
102
{ACAD_REACTORS
330
23933
102
}
330
747D
100
AcDbEntity
  8
細線
 48
2.0
100
AcDbLine
 10
5731.39657510699
 20
4127.0
 30
0.0
 11
5731.396575106994
 21
4093.0
 31
0.0
  0
ARC
  5
2366F
102
{ACAD_REACTORS
330
23933
102
}
330
747D
100
AcDbEntity
  8
細線
 48
2.0
100
AcDbCircle
 10
5734.396575106994
 20
4093.0
 30
0.0
 40
3.0
100
AcDbArc
 50
180.0
 51
270.0
  0
LINE
  5
23670
102
{ACAD_REACTORS
330
23933
102
}
330
747D
100
AcDbEntity
  8
細線
 48
2.0
100
AcDbLine
 10
5740.39657510699
 20
4090.0
 30
0.0
 11
5734.396575106994
 21
4090.0
 31
0.0
  0
ARC
  5
23671
102
{ACAD_REACTORS
330
23933
102
}
330
747D
100
AcDbEntity
  8
細線
 48
2.0
100
AcDbCircle
 10
5740.39657510699
 20
4093.0
 30
0.0
 40
3.0
100
AcDbArc
 50
270.0
 51
0.0
  0
ARC
  5
23672
102
{ACAD_REACTORS
330
23933
102
}
330
747D
100
AcDbEntity
  8
細線
 48
5.0
100
AcDbCircle
 10
5728.423361736485
 20
4133.0
 30
0.0
 40
7.0
100
AcDbArc
 50
90.0
 51
170.0163680565745
  0
LINE
  5
23673
102
{ACAD_REACTORS
330
23933
102
}
330
747D
100
AcDbEntity
  8
細線
 48
2.0
100
AcDbLine
 10
5740.39657510699
 20
3998.0
 30
0.0
 11
5734.39657510699
 21
3998.0
 31
0.0
  0
ARC
  5
23674
102
{ACAD_REACTORS
330
23933
102
}
330
747D
100
AcDbEntity
  8
細線
 48
2.0
100
AcDbCircle
 10
5734.39657510699
 20
4001.0
 30
0.0
 40
3.0
100
AcDbArc
 50
180.0
 51
270.0
  0
ARC
  5
23675
102
{ACAD_REACTORS
330
23933
102
}
330
747D
100
AcDbEntity
  8
細線
 48
2.0
100
AcDbCircle
 10
5740.39657510699
 20
4001.0
 30
0.0
 40
3.0
100
AcDbArc
 50
270.0
 51
0.0
  0
ARC
  5
23676
102
{ACAD_REACTORS
330
23933
102
}
330
747D
100
AcDbEntity
  8
細線
 48
5.0
100
AcDbCircle
 10
5728.423361736485
 20
3995.0
 30
0.0
 40
7.0
100
AcDbArc
 50
189.9836319434254
 51
270.0
  0
ARC
  5
23677
102
{ACAD_REACTORS
330
23933
102
}
330
747D
100
AcDbEntity
  8
細線
 48
5.0
100
AcDbCircle
 10
6120.39657510699
 20
4064.0
 30
0.0
 40
405.0
100
AcDbArc
 50
170.0163680565745
 51
189.9836319434254
  0
LINE
  5
23678
102
{ACAD_REACTORS
330
23933
102
}
330
747D
100
AcDbEntity
  8
細線
 48
2.0
100
AcDbLine
 10
5731.39657510699
 20
4001.0
 30
0.0
 11
5731.396575106994
 21
4035.0
 31
0.0
  0
LINE
  5
23679
102
{ACAD_REACTORS
330
23933
102
}
330
747D
100
AcDbEntity
  8
細線
 48
2.0
100
AcDbLine
 10
5743.39657510699
 20
4001.0
 30
0.0
 11
5743.39657510699
 21
4035.0
 31
0.0
  0
CIRCLE
  5
2367A
102
{ACAD_REACTORS
330
23933
102
}
330
747D
100
AcDbEntity
  8
細線
 48
5.0
100
AcDbCircle
 10
5737.39657510699
 20
4064.0
 30
0.0
 40
17.0
  0
LINE
  5
2367B
102
{ACAD_REACTORS
330
23933
102
}
330
747D
100
AcDbEntity
  8
細線
 48
2.0
100
AcDbLine
 10
5789.800362300866
 20
4140.0
 30
0.0
 11
5728.423361736485
 21
4140.0
 31
0.0
  0
LINE
  5
2367C
102
{ACAD_REACTORS
330
23933
102
}
330
747D
100
AcDbEntity
  8
細線
 48
2.0
100
AcDbLine
 10
5789.800362300866
 20
3988.0
 30
0.0
 11
5728.423361736485
 21
3988.0
 31
0.0
  0
LINE
  5
23680
330
747D
100
AcDbEntity
  8
部品1
 48
50.0
100
AcDbLine
 10
9278.693956914482
 20
3100.0
 30
0.0
 11
9355.693956914482
 21
3100.0
 31
0.0
  0
LINE
  5
23681
330
747D
100
AcDbEntity
  8
部品1
 48
50.0
100
AcDbLine
 10
9355.693956914482
 20
3000.0
 30
0.0
 11
9355.693956914482
 21
4935.0
 31
0.0
  0
LINE
  5
23682
330
747D
100
AcDbEntity
  8
部品1
 48
50.0
100
AcDbLine
 10
9278.693956914482
 20
4925.0
 30
0.0
 11
9278.693956914482
 21
3000.0
 31
0.0
  0
LINE
  5
23683
102
{ACAD_REACTORS
330
23933
102
}
330
747D
100
AcDbEntity
  8
細線
 48
50.0
100
AcDbLine
 10
7339.89657510699
 20
3147.000000000004
 30
0.0
 11
7335.896575106992
 21
3157.500000000004
 31
0.0
  0
LINE
  5
23684
102
{ACAD_REACTORS
330
23933
102
}
330
747D
100
AcDbEntity
  8
部品1
 48
50.0
100
AcDbLine
 10
5696.89657510699
 20
3150.000000000004
 30
0.0
 11
5696.89657510699
 21
3147.000000000004
 31
0.0
  0
LINE
  5
23685
102
{ACAD_REACTORS
330
23933
102
}
330
747D
100
AcDbEntity
  8
部品1
 48
50.0
100
AcDbLine
 10
5687.896575106988
 20
3150.000000000004
 30
0.0
 11
6326.39657510699
 21
3150.000000000004
 31
0.0
  0
LINE
  5
23686
102
{ACAD_REACTORS
330
23933
102
}
330
747D
100
AcDbEntity
  8
部品1
 48
50.0
100
AcDbLine
 10
5657.896575106986
 20
3100.000000000004
 30
0.0
 11
7391.89657510699
 21
3100.000000000004
 31
0.0
  0
LINE
  5
23687
102
{ACAD_REACTORS
330
23933
102
}
330
747D
100
AcDbEntity
  8
細線
 48
50.0
100
AcDbLine
 10
5687.896575106988
 20
3143.000000000004
 30
0.0
 11
7361.896575106991
 21
3143.000000000004
 31
0.0
  0
LINE
  5
23688
102
{ACAD_REACTORS
330
23933
102
}
330
747D
100
AcDbEntity
  8
細線
 48
50.0
100
AcDbLine
 10
5687.896575106988
 20
3147.000000000004
 30
0.0
 11
7361.896575106991
 21
3147.000000000004
 31
0.0
  0
LINE
  5
23689
102
{ACAD_REACTORS
330
23933
102
}
330
747D
100
AcDbEntity
  8
細線
 48
50.0
100
AcDbLine
 10
6326.39657510699
 20
3157.500000000004
 30
0.0
 11
7335.896575106992
 21
3157.500000000004
 31
0.0
  0
LINE
  5
2368A
102
{ACAD_REACTORS
330
23933
102
}
330
747D
100
AcDbEntity
  8
部品1
 48
50.0
100
AcDbLine
 10
7391.89657510699
 20
3100.000000000004
 30
0.0
 11
7391.89657510699
 21
4935.000000000004
 31
0.0
  0
LINE
  5
2368B
102
{ACAD_REACTORS
330
23933
102
}
330
747D
100
AcDbEntity
  8
細線
 48
50.0
100
AcDbLine
 10
7361.896575106991
 20
3100.000000000004
 30
0.0
 11
7361.896575106991
 21
4892.500000000005
 31
0.0
  0
LINE
  5
2368C
102
{ACAD_REACTORS
330
23933
102
}
330
747D
100
AcDbEntity
  8
部品1
 48
50.0
100
AcDbLine
 10
7352.89657510699
 20
3147.000000000004
 30
0.0
 11
7352.89657510699
 21
4883.000000000005
 31
0.0
  0
LINE
  5
2368D
102
{ACAD_REACTORS
330
23933
102
}
330
747D
100
AcDbEntity
  8
部品1
 48
50.0
100
AcDbLine
 10
5687.896575106988
 20
3150.000000000004
 30
0.0
 11
5687.896575106988
 21
4883.000000000005
 31
0.0
  0
LINE
  5
2368E
102
{ACAD_REACTORS
330
23933
102
}
330
747D
100
AcDbEntity
  8
細線
 48
50.0
100
AcDbLine
 10
5687.896575106988
 20
4892.500000000005
 30
0.0
 11
5687.896575106986
 21
3100.000000000004
 31
0.0
  0
LINE
  5
2368F
102
{ACAD_REACTORS
330
23933
102
}
330
747D
100
AcDbEntity
  8
部品1
 48
50.0
100
AcDbLine
 10
5657.896575106986
 20
4935.000000000004
 30
0.0
 11
5657.896575106986
 21
3100.000000000004
 31
0.0
  0
LINE
  5
23691
102
{ACAD_REACTORS
330
23933
102
}
330
747D
100
AcDbEntity
  8
部品1
 48
50.0
100
AcDbLine
 10
6326.396575106997
 20
4883.000000000005
 30
0.0
 11
6326.39657510699
 21
3150.000000000004
 31
0.0
  0
LINE
  5
23692
102
{ACAD_REACTORS
330
23933
102
}
330
747D
100
AcDbEntity
  8
部品1
 48
50.0
100
AcDbLine
 10
6818.396575106991
 20
4883.000000000005
 30
0.0
 11
6818.396575106991
 21
3157.500000000004
 31
0.0
  0
LINE
  5
236B5
102
{ACAD_REACTORS
330
23811
102
}
330
747D
100
AcDbEntity
  8
寸法
 48
50.0
100
AcDbLine
 10
6117.069265150257
 20
8232.010361970431
 30
0.0
 11
6065.663257240152
 21
8232.010361970431
 31
0.0
  0
LINE
  5
236B6
102
{ACAD_REACTORS
330
23811
102
}
330
747D
100
AcDbEntity
  8
寸法
 48
50.0
100
AcDbLine
 10
6065.663257240152
 20
8232.010361970431
 30
0.0
 11
6065.663257240152
 21
8263.320520622595
 31
0.0
  0
LINE
  5
236B7
102
{ACAD_REACTORS
330
23811
102
}
330
747D
100
AcDbEntity
  8
寸法
 48
50.0
100
AcDbLine
 10
6065.663257240152
 20
8263.320520622595
 30
0.0
 11
6035.90192524873
 21
8263.320520622595
 31
0.0
  0
LINE
  5
236B8
102
{ACAD_REACTORS
330
23811
102
}
330
747D
100
AcDbEntity
  8
寸法
 48
50.0
100
AcDbLine
 10
6035.90192524873
 20
8263.320520622595
 30
0.0
 11
6091.366261195204
 21
8300.899971551201
 31
0.0
  0
LINE
  5
236B9
102
{ACAD_REACTORS
330
23811
102
}
330
747D
100
AcDbEntity
  8
寸法
 48
50.0
100
AcDbLine
 10
6146.830597141679
 20
8263.320520622595
 30
0.0
 11
6091.366261195204
 21
8300.899971551201
 31
0.0
  0
LINE
  5
236BA
102
{ACAD_REACTORS
330
23811
102
}
330
747D
100
AcDbEntity
  8
寸法
 48
50.0
100
AcDbLine
 10
6117.069265150257
 20
8263.320520622595
 30
0.0
 11
6146.830597141679
 21
8263.320520622595
 31
0.0
  0
LINE
  5
236BB
102
{ACAD_REACTORS
330
23811
102
}
330
747D
100
AcDbEntity
  8
寸法
 48
50.0
100
AcDbLine
 10
6117.069265150257
 20
8232.010361970431
 30
0.0
 11
6117.069265150257
 21
8263.320520622595
 31
0.0
  0
LINE
  5
236BC
102
{ACAD_REACTORS
330
23811
102
}
330
747D
100
AcDbEntity
  8
寸法
 48
50.0
100
AcDbLine
 10
6065.663257240152
 20
8232.010361970431
 30
0.0
 11
6117.069265150257
 21
8232.010361970431
 31
0.0
  0
LINE
  5
236BD
102
{ACAD_REACTORS
330
23811
102
}
330
747D
100
AcDbEntity
  8
寸法
 48
50.0
100
AcDbLine
 10
6396.234799427113
 20
8289.155952725254
 30
0.0
 11
6396.234799427113
 21
8235.492318143464
 31
0.0
  0
LINE
  5
236BE
102
{ACAD_REACTORS
330
23811
102
}
330
747D
100
AcDbEntity
  8
寸法
 48
50.0
100
AcDbLine
 10
6485.519018022535
 20
8265.232318455771
 30
0.0
 11
6396.234799427113
 21
8289.155952725254
 31
0.0
  0
LINE
  5
236BF
102
{ACAD_REACTORS
330
23811
102
}
330
747D
100
AcDbEntity
  8
寸法
 48
50.0
100
AcDbLine
 10
6266.367077846809
 20
8265.232318455771
 30
0.0
 11
6485.519018022535
 21
8265.232318455771
 31
0.0
  0
LINE
  5
236C0
102
{ACAD_REACTORS
330
23811
102
}
330
747D
100
AcDbEntity
  8
細線
 48
50.0
100
AcDbLine
 10
6815.366264019323
 20
8430.473725350291
 30
0.0
 11
7349.866258868411
 21
8430.473725350291
 31
0.0
  0
LINE
  5
236C1
102
{ACAD_REACTORS
330
23811
102
}
330
747D
100
AcDbEntity
  8
細線
 48
50.0
100
AcDbLine
 10
6323.366258868411
 20
8396.764956796214
 30
0.0
 11
7349.866258868411
 21
8396.764956796214
 31
0.0
  0
LINE
  5
236C2
102
{ACAD_REACTORS
330
23811
102
}
330
747D
100
AcDbEntity
  8
細線
 48
50.0
100
AcDbLine
 10
6282.366258868416
 20
8426.169864792472
 30
0.0
 11
5693.866258868411
 21
8426.169864792464
 31
0.0
  0
LINE
  5
236C3
102
{ACAD_REACTORS
330
23811
102
}
330
747D
100
AcDbEntity
  8
細線
100
AcDbLine
 10
5693.866258868411
 20
8385.973610401569
 30
0.0
 11
5693.866258868411
 21
8381.973610401612
 31
0.0
  0
DIMENSION
  5
236C4
330
747D
100
AcDbEntity
  8
寸法
 48
50.0
100
AcDbDimension
  2
*D65
 10
6643.866258868411
 20
7812.33932418516
 30
0.0
 11
6168.866258868411
 21
7812.33932418516
 31
0.0
 70
   160
  1
有効開口部間口\P<>
 71
     5
 42
950.0
  3
INABA_S40G
100
AcDbAlignedDimension
 13
5693.866258868411
 23
8376.973610401568
 33
0.0
 14
6643.866258868411
 24
8376.973610401568
 34
0.0
100
AcDbRotatedDimension
1001
ACAD
1000
DSTYLE
1002
{
1070
   174
1070
     0
1070
   272
1070
     1
1070
   288
1070
     0
1070
   341
1005
0
1002
}
  0
LINE
  5
236C5
102
{ACAD_REACTORS
330
23811
102
}
330
747D
100
AcDbEntity
  8
部品1
100
AcDbLine
 10
7361.866258868412
 20
8453.973610401568
 30
0.0
 11
7388.866258868411
 21
8453.973610401568
 31
0.0
  0
LINE
  5
236C7
102
{ACAD_REACTORS
330
23811
102
}
330
747D
100
AcDbEntity
  8
部品1
100
AcDbLine
 10
7388.866258868411
 20
8376.973610401568
 30
0.0
 11
7388.866258868411
 21
8453.973610401568
 31
0.0
  0
LINE
  5
236C8
102
{ACAD_REACTORS
330
23811
102
}
330
747D
100
AcDbEntity
  8
部品1
100
AcDbLine
 10
7349.866258868411
 20
8449.973610401569
 30
0.0
 11
7361.866258868412
 21
8449.973610401569
 31
0.0
  0
LINE
  5
236C9
102
{ACAD_REACTORS
330
23811
102
}
330
747D
100
AcDbEntity
  8
部品1
100
AcDbLine
 10
7358.866258868411
 20
8385.973610401569
 30
0.0
 11
7358.866258868411
 21
8376.973610401568
 31
0.0
  0
LINE
  5
236CA
102
{ACAD_REACTORS
330
23811
102
}
330
747D
100
AcDbEntity
  8
部品1
100
AcDbLine
 10
7349.866258868411
 20
8385.973610401569
 30
0.0
 11
7358.866258868411
 21
8385.973610401569
 31
0.0
  0
LINE
  5
236CB
102
{ACAD_REACTORS
330
23811
102
}
330
747D
100
AcDbEntity
  8
部品1
100
AcDbLine
 10
7349.866258868411
 20
8449.973610401569
 30
0.0
 11
7349.866258868411
 21
8385.973610401569
 31
0.0
  0
LINE
  5
236CC
102
{ACAD_REACTORS
330
23811
102
}
330
747D
100
AcDbEntity
  8
部品1
100
AcDbLine
 10
7361.866258868412
 20
8480.973610401568
 30
0.0
 11
7361.866258868412
 21
8449.973610401569
 31
0.0
  0
LINE
  5
236CD
102
{ACAD_REACTORS
330
23811
102
}
330
747D
100
AcDbEntity
  8
部品1
100
AcDbLine
 10
5693.866258868411
 20
8449.973610401569
 30
0.0
 11
5681.866258868411
 21
8449.973610401569
 31
0.0
  0
LINE
  5
236CE
102
{ACAD_REACTORS
330
23811
102
}
330
747D
100
AcDbEntity
  8
部品1
100
AcDbLine
 10
5654.866258868411
 20
8453.973610401568
 30
0.0
 11
5681.866258868411
 21
8453.973610401568
 31
0.0
  0
LINE
  5
236CF
102
{ACAD_REACTORS
330
23811
102
}
330
747D
100
AcDbEntity
  8
部品1
100
AcDbLine
 10
5684.866258868411
 20
8385.973610401569
 30
0.0
 11
5684.866258868411
 21
8376.973610401568
 31
0.0
  0
LINE
  5
236D0
102
{ACAD_REACTORS
330
23811
102
}
330
747D
100
AcDbEntity
  8
部品1
100
AcDbLine
 10
5693.866258868411
 20
8385.973610401569
 30
0.0
 11
5684.866258868411
 21
8385.973610401569
 31
0.0
  0
LINE
  5
236D1
102
{ACAD_REACTORS
330
23811
102
}
330
747D
100
AcDbEntity
  8
部品1
100
AcDbLine
 10
5684.866258868411
 20
8376.973610401568
 30
0.0
 11
5654.866258868411
 21
8376.973610401568
 31
0.0
  0
LINE
  5
236D2
102
{ACAD_REACTORS
330
23811
102
}
330
747D
100
AcDbEntity
  8
部品1
100
AcDbLine
 10
5654.866258868411
 20
8376.973610401568
 30
0.0
 11
5654.866258868411
 21
8453.973610401568
 31
0.0
  0
LINE
  5
236D3
102
{ACAD_REACTORS
330
23811
102
}
330
747D
100
AcDbEntity
  8
部品1
100
AcDbLine
 10
5693.866258868411
 20
8449.973610401569
 30
0.0
 11
5693.866258868411
 21
8385.973610401569
 31
0.0
  0
LINE
  5
236D4
102
{ACAD_REACTORS
330
23811
102
}
330
747D
100
AcDbEntity
  8
部品1
100
AcDbLine
 10
5681.866258868411
 20
8480.97361040156
 30
0.0
 11
5681.866258868411
 21
8449.973610401569
 31
0.0
  0
LINE
  5
236D5
102
{ACAD_REACTORS
330
23811
102
}
330
747D
100
AcDbEntity
  8
部品1
100
AcDbLine
 10
5681.866258868411
 20
8480.97361040156
 30
0.0
 11
7361.866258868412
 21
8480.973610401568
 31
0.0
  0
LINE
  5
236D6
102
{ACAD_REACTORS
330
23811
102
}
330
747D
100
AcDbEntity
  8
部品1
100
AcDbLine
 10
7358.866258868411
 20
8376.973610401568
 30
0.0
 11
7388.866258868411
 21
8376.973610401568
 31
0.0
  0
LINE
  5
236D7
102
{ACAD_REACTORS
330
23811
102
}
330
747D
100
AcDbEntity
  8
部品1
100
AcDbLine
 10
5684.866258868411
 20
8376.973610401568
 30
0.0
 11
7388.866258868411
 21
8376.973610401565
 31
0.0
  0
LINE
  5
236D8
102
{ACAD_REACTORS
330
23811
102
}
330
747D
100
AcDbEntity
  8
細線
  6
Continuous
 62
     5
100
AcDbLine
 10
6787.366264019323
 20
8434.973610401561
 30
0.0
 11
6787.366264019323
 21
8434.973610401561
 31
0.0
  0
LINE
  5
236D9
102
{ACAD_REACTORS
330
23811
102
}
330
747D
100
AcDbEntity
  8
細線
 48
50.0
100
AcDbLine
 10
5723.864852369175
 20
8402.573784578519
 30
0.0
 11
5723.864852369175
 21
8403.973784578523
 31
0.0
  0
LINE
  5
236DA
102
{ACAD_REACTORS
330
23811
102
}
330
747D
100
AcDbEntity
  8
細線
 48
50.0
100
AcDbLine
 10
5723.864852369175
 20
8403.973784578523
 30
0.0
 11
5693.866258868411
 21
8403.973784578516
 31
0.0
  0
LINE
  5
236DB
102
{ACAD_REACTORS
330
23811
102
}
330
747D
100
AcDbEntity
  8
細線
 48
50.0
100
AcDbLine
 10
5684.866258868411
 20
8381.971118921988
 30
0.0
 11
6323.366258868411
 21
8381.979124668276
 31
0.0
  0
LINE
  5
236DC
102
{ACAD_REACTORS
330
23811
102
}
330
747D
100
AcDbEntity
  8
細線
 48
50.0
100
AcDbLine
 10
6293.366258868411
 20
8402.573784578519
 30
0.0
 11
5723.864852369175
 21
8402.573784578519
 31
0.0
  0
LINE
  5
236DD
102
{ACAD_REACTORS
330
23811
102
}
330
747D
100
AcDbEntity
  8
細線
 48
50.0
100
AcDbLine
 10
6785.36625936573
 20
8436.573828436392
 30
0.0
 11
6312.366258868411
 21
8436.573828436383
 31
0.0
  0
LINE
  5
236DE
102
{ACAD_REACTORS
330
23811
102
}
330
747D
100
AcDbEntity
  8
細線
 48
50.0
100
AcDbLine
 10
6785.36625936573
 20
8433.123828436386
 30
0.0
 11
6785.36625936573
 21
8437.973828436385
 31
0.0
  0
LINE
  5
236DF
102
{ACAD_REACTORS
330
23811
102
}
330
747D
100
AcDbEntity
  8
細線
 48
50.0
100
AcDbLine
 10
6785.36625936573
 20
8437.973828436385
 30
0.0
 11
6800.36625936573
 21
8437.973828436385
 31
0.0
  0
LINE
  5
236E0
102
{ACAD_REACTORS
330
23811
102
}
330
747D
100
AcDbEntity
  8
細線
 48
50.0
100
AcDbLine
 10
6800.36625936573
 20
8437.973828436385
 30
0.0
 11
6800.366270999703
 21
8444.973828436429
 31
0.0
  0
LINE
  5
236E1
102
{ACAD_REACTORS
330
23811
102
}
330
747D
100
AcDbEntity
  8
細線
 48
50.0
100
AcDbLine
 10
6800.366270999703
 20
8444.973828436429
 30
0.0
 11
6815.366269170235
 21
8444.973828436429
 31
0.0
  0
LINE
  5
236E2
102
{ACAD_REACTORS
330
23811
102
}
330
747D
100
AcDbEntity
  8
細線
 48
50.0
100
AcDbLine
 10
6815.366269170235
 20
8444.973828436429
 30
0.0
 11
6815.366258868394
 21
8415.973562244744
 31
0.0
  0
LINE
  5
236E3
102
{ACAD_REACTORS
330
23811
102
}
330
747D
100
AcDbEntity
  8
細線
 48
50.0
100
AcDbLine
 10
6815.366258868394
 20
8415.973562244744
 30
0.0
 11
6302.36622129863
 21
8415.973641497476
 31
0.0
  0
LINE
  5
236E4
102
{ACAD_REACTORS
330
23811
102
}
330
747D
100
AcDbEntity
  8
細線
 48
50.0
100
AcDbLine
 10
7333.466258868416
 20
8479.973610401565
 30
0.0
 11
6789.36626401932
 21
8479.973610401561
 31
0.0
  0
LINE
  5
236E5
102
{ACAD_REACTORS
330
23811
102
}
330
747D
100
AcDbEntity
  8
細線
 48
50.0
100
AcDbLine
 10
7359.366258868411
 20
8474.973610401567
 30
0.0
 11
7343.466258868414
 21
8474.973610401567
 31
0.0
  0
LINE
  5
236E6
102
{ACAD_REACTORS
330
23811
102
}
330
747D
100
AcDbEntity
  8
細線
 48
50.0
100
AcDbLine
 10
7343.466258868409
 20
8474.973610401567
 30
0.0
 11
7333.466258868414
 21
8479.973610401568
 31
0.0
  0
LINE
  5
236E7
102
{ACAD_REACTORS
330
23811
102
}
330
747D
100
AcDbEntity
  8
細線
 48
50.0
100
AcDbLine
 10
6794.36626401932
 20
8441.973610401568
 30
0.0
 11
6794.366264019316
 21
8449.973610401569
 31
0.0
  0
LINE
  5
236E8
102
{ACAD_REACTORS
330
23811
102
}
330
747D
100
AcDbEntity
  8
細線
 48
50.0
100
AcDbLine
 10
6774.366264019317
 20
8441.973610401568
 30
0.0
 11
6794.36626401932
 21
8441.973610401568
 31
0.0
  0
LINE
  5
236E9
102
{ACAD_REACTORS
330
23811
102
}
330
747D
100
AcDbEntity
  8
細線
 48
50.0
100
AcDbLine
 10
6789.36626401932
 20
8479.973610401568
 30
0.0
 11
6789.36626401932
 21
8474.973610401567
 31
0.0
  0
LINE
  5
236EA
102
{ACAD_REACTORS
330
23811
102
}
330
747D
100
AcDbEntity
  8
細線
 48
50.0
100
AcDbLine
 10
6774.366264019319
 20
8479.973610401561
 30
0.0
 11
6789.36626401932
 21
8479.973610401568
 31
0.0
  0
LINE
  5
236EB
102
{ACAD_REACTORS
330
23811
102
}
330
747D
100
AcDbEntity
  8
細線
 48
50.0
100
AcDbLine
 10
6774.366264019317
 20
8441.973610401568
 30
0.0
 11
6774.366264019319
 21
8479.973610401561
 31
0.0
  0
LINE
  5
236EC
102
{ACAD_REACTORS
330
23811
102
}
330
747D
100
AcDbEntity
  8
細線
100
AcDbLine
 10
7349.866258868411
 20
8449.973610401569
 30
0.0
 11
6794.366264019316
 21
8449.973610401569
 31
0.0
  0
LINE
  5
236ED
102
{ACAD_REACTORS
330
23811
102
}
330
747D
100
AcDbEntity
  8
細線
 48
50.0
100
AcDbLine
 10
7359.366258868411
 20
8474.973610401567
 30
0.0
 11
7359.366258868411
 21
8449.973610401569
 31
0.0
  0
LINE
  5
236EE
102
{ACAD_REACTORS
330
23811
102
}
330
747D
100
AcDbEntity
  8
細線
 48
50.0
100
AcDbLine
 10
6302.36622129863
 20
8415.973641497476
 30
0.0
 11
6302.366266169587
 21
8407.369792290454
 31
0.0
  0
LINE
  5
236EF
102
{ACAD_REACTORS
330
23811
102
}
330
747D
100
AcDbEntity
  8
細線
 48
50.0
100
AcDbLine
 10
6282.366258868416
 20
8407.369750740917
 30
0.0
 11
6302.366266169587
 21
8407.369792290454
 31
0.0
  0
LINE
  5
236F0
102
{ACAD_REACTORS
330
23811
102
}
330
747D
100
AcDbEntity
  8
細線
 48
50.0
100
AcDbLine
 10
6282.366258868416
 20
8444.969978844026
 30
0.0
 11
6282.366258868416
 21
8407.369750740917
 31
0.0
  0
LINE
  5
236F1
102
{ACAD_REACTORS
330
23811
102
}
330
747D
100
AcDbEntity
  8
細線
 48
50.0
100
AcDbLine
 10
6297.366258868411
 20
8444.969978844026
 30
0.0
 11
6282.366258868416
 21
8444.969978844026
 31
0.0
  0
LINE
  5
236F2
102
{ACAD_REACTORS
330
23811
102
}
330
747D
100
AcDbEntity
  8
細線
 48
50.0
100
AcDbLine
 10
6297.366258868411
 20
8437.969978844026
 30
0.0
 11
6297.366258868411
 21
8444.969978844026
 31
0.0
  0
LINE
  5
236F3
102
{ACAD_REACTORS
330
23811
102
}
330
747D
100
AcDbEntity
  8
細線
 48
50.0
100
AcDbLine
 10
6312.366258868411
 20
8437.969978844026
 30
0.0
 11
6297.366258868411
 21
8437.969978844026
 31
0.0
  0
LINE
  5
236F4
102
{ACAD_REACTORS
330
23811
102
}
330
747D
100
AcDbEntity
  8
細線
 48
50.0
100
AcDbLine
 10
6312.366258868411
 20
8433.469978844026
 30
0.0
 11
6312.366258868411
 21
8437.969978844026
 31
0.0
  0
LINE
  5
236F5
102
{ACAD_REACTORS
330
23811
102
}
330
747D
100
AcDbEntity
  8
細線
 48
50.0
100
AcDbLine
 10
6323.366258868411
 20
8410.973784578521
 30
0.0
 11
6323.366258868411
 21
8381.979124668276
 31
0.0
  0
LINE
  5
236F6
102
{ACAD_REACTORS
330
23811
102
}
330
747D
100
AcDbEntity
  8
細線
 48
50.0
100
AcDbLine
 10
6308.366258868415
 20
8410.973784578521
 30
0.0
 11
6323.366258868411
 21
8410.973784578521
 31
0.0
  0
LINE
  5
236F7
102
{ACAD_REACTORS
330
23811
102
}
330
747D
100
AcDbEntity
  8
細線
 48
50.0
100
AcDbLine
 10
6308.366258868411
 20
8403.973784578521
 30
0.0
 11
6308.366258868415
 21
8410.973784578521
 31
0.0
  0
LINE
  5
236F8
102
{ACAD_REACTORS
330
23811
102
}
330
747D
100
AcDbEntity
  8
細線
 48
50.0
100
AcDbLine
 10
6293.366258868411
 20
8403.973784578521
 30
0.0
 11
6308.366258868411
 21
8403.973784578521
 31
0.0
  0
LINE
  5
236F9
102
{ACAD_REACTORS
330
23811
102
}
330
747D
100
AcDbEntity
  8
細線
 48
50.0
100
AcDbLine
 10
6293.366258868411
 20
8399.123784578522
 30
0.0
 11
6293.366258868411
 21
8403.973784578521
 31
0.0
  0
DIMENSION
  5
236FA
330
747D
100
AcDbEntity
  8
寸法
 48
50.0
100
AcDbDimension
  2
*D66
 10
7388.866258868411
 20
7552.903593836418
 30
0.0
 11
6512.837702168027
 21
7552.903593836418
 31
0.0
 70
   160
 71
     5
 42
1734.0
  3
INABA_S40G
100
AcDbAlignedDimension
 13
5654.866258868411
 23
8376.973610401568
 33
0.0
 14
7388.866258868411
 24
8376.973610401565
 34
0.0
100
AcDbRotatedDimension
1001
ACAD
1000
DSTYLE
1002
{
1070
   174
1070
     0
1070
   272
1070
     1
1070
   288
1070
     0
1070
   341
1005
0
1002
}
  0
LINE
  5
236FB
102
{ACAD_REACTORS
330
23811
102
}
330
747D
100
AcDbEntity
  8
細線
 48
50.0
100
AcDbLine
 10
6043.865663321197
 20
8402.573784578519
 30
0.0
 11
6043.865663321197
 21
8381.975620187688
 31
0.0
  0
LINE
  5
236FC
102
{ACAD_REACTORS
330
23811
102
}
330
747D
100
AcDbEntity
  8
細線
 48
50.0
100
AcDbLine
 10
6069.865663321198
 20
8402.573784578519
 30
0.0
 11
6069.865663321197
 21
8381.975620187688
 31
0.0
  0
LINE
  5
236FD
102
{ACAD_REACTORS
330
23811
102
}
330
747D
100
AcDbEntity
  8
細線
 48
50.0
100
AcDbLine
 10
6535.865632413903
 20
8436.573832453094
 30
0.0
 11
6535.865632413903
 21
8415.973605424445
 31
0.0
  0
LINE
  5
236FE
102
{ACAD_REACTORS
330
23811
102
}
330
747D
100
AcDbEntity
  8
細線
 48
50.0
100
AcDbLine
 10
6561.865632413902
 20
8436.573828436387
 30
0.0
 11
6561.865632413902
 21
8415.97360140774
 31
0.0
  0
LINE
  5
236FF
102
{ACAD_REACTORS
330
23811
102
}
330
747D
100
AcDbEntity
  8
細線
 48
50.0
100
AcDbLine
 10
6963.366258868411
 20
8479.973610401561
 30
0.0
 11
6963.366258868411
 21
8449.973610401569
 31
0.0
  0
LINE
  5
23700
102
{ACAD_REACTORS
330
23811
102
}
330
747D
100
AcDbEntity
  8
細線
 48
50.0
100
AcDbLine
 10
6939.366258868415
 20
8479.973610401561
 30
0.0
 11
6939.366258868415
 21
8449.973610401569
 31
0.0
  0
LINE
  5
2394F
330
747D
100
AcDbEntity
  8
部品1
100
AcDbLine
 10
7391.89657510699
 20
3150.00000000002
 30
0.0
 11
7419.896575106992
 21
3150.00000000002
 31
0.0
  0
DIMENSION
  5
23980
330
747D
100
AcDbEntity
  8
寸法
 48
50.0
100
AcDbDimension
  2
*D67
 10
8869.752416464587
 20
3165.999999999995
 30
0.0
 11
8777.740605440966
 21
4028.499999999996
 31
0.0
 70
    32
  1
有効開口部高サ<>
 71
     5
 42
1724.999999999999
  3
INABA_S40
100
AcDbAlignedDimension
 13
9278.693956914482
 23
4890.999999999994
 33
0.0
 14
9278.693956914482
 24
3165.999999999995
 34
0.0
 50
90.0
100
AcDbRotatedDimension
1001
ACAD
1000
DSTYLE
1002
{
1070
    41
1040
0.5
1070
    44
1040
1.0
1070
   147
1040
0.8
1070
   271
1070
     2
1070
   272
1070
     2
1070
   289
1070
     3
1070
   340
1005
F706
1070
   343
1005
1FBDA
1070
   344
1005
1FBDA
1002
}
  0
LINE
  5
239E1
330
747D
100
AcDbEntity
  8
部品1
 48
50.0
100
AcDbLine
 10
6509.366258868448
 20
10215.97361040168
 30
0.0
 11
6509.366258868448
 21
10184.97361040169
 31
0.0
  0
LINE
  5
239E2
330
747D
100
AcDbEntity
  8
部品1
 48
50.0
100
AcDbLine
 10
6509.366258868448
 20
10184.97361040169
 30
0.0
 11
6534.366258868448
 21
10184.97361040169
 31
0.0
  0
LINE
  5
239E3
330
747D
100
AcDbEntity
  8
部品1
 48
50.0
100
AcDbLine
 10
6534.366258868448
 20
10184.97361040169
 30
0.0
 11
6534.366258868448
 21
10215.97361040169
 31
0.0
  0
LINE
  5
23B96
102
{ACAD_REACTORS
330
23DC8
102
}
330
747D
100
AcDbEntity
  8
部品1
 48
50.0
100
AcDbLine
 10
5655.366258868443
 20
9763.97361040162
 30
0.0
 11
5655.366258868443
 21
10213.97361040162
 31
0.0
  0
LINE
  5
23B9C
330
747D
100
AcDbEntity
  8
部品1
100
AcDbLine
 10
6486.866258868444
 20
10215.97361040162
 30
0.0
 11
6509.366258868443
 21
10215.97361040162
 31
0.0
  0
LINE
  5
23B9D
330
747D
100
AcDbEntity
  8
部品1
100
AcDbLine
 10
6534.366258868444
 20
10215.97361040162
 30
0.0
 11
6556.866258868443
 21
10215.97361040162
 31
0.0
  0
LINE
  5
23B9E
102
{ACAD_REACTORS
330
23DC8
102
}
330
747D
100
AcDbEntity
  8
部品1
 48
50.0
100
AcDbLine
 10
7387.866258868443
 20
9763.97361040162
 30
0.0
 11
7387.866258868443
 21
10213.97361040162
 31
0.0
  0
LINE
  5
23B9F
102
{ACAD_REACTORS
330
23DC8
102
}
330
747D
100
AcDbEntity
  8
部品1
 48
50.0
100
AcDbLine
 10
6534.866258868444
 20
9763.97361040162
 30
0.0
 11
7387.866258868443
 21
9763.97361040162
 31
0.0
  0
LINE
  5
23BA0
102
{ACAD_REACTORS
330
23DC8
102
}
330
747D
100
AcDbEntity
  8
部品1
 48
50.0
100
AcDbLine
 10
7387.866258868443
 20
10213.97361040162
 30
0.0
 11
6534.866258868444
 21
10213.97361040162
 31
0.0
  0
LINE
  5
23BA1
102
{ACAD_REACTORS
330
23DC8
102
}
330
747D
100
AcDbEntity
  8
部品1
100
AcDbLine
 10
6534.366258868444
 20
10215.97361040162
 30
0.0
 11
6534.366258868444
 21
9763.973610401645
 31
0.0
  0
LINE
  5
23BA2
102
{ACAD_REACTORS
330
23DC8
102
}
330
747D
100
AcDbEntity
  8
部品1
100
AcDbLine
 10
6509.366258868443
 20
10215.9736104016
 30
0.0
 11
6509.366258868443
 21
9763.973610401645
 31
0.0
  0
LINE
  5
23BA3
102
{ACAD_REACTORS
330
23DC8
102
}
330
747D
100
AcDbEntity
  8
部品1
100
AcDbLine
 10
6508.366258868443
 20
10213.97361040162
 30
0.0
 11
6508.366258868443
 21
9763.97361040162
 31
0.0
  0
LINE
  5
23BA4
102
{ACAD_REACTORS
330
23DC8
102
}
330
747D
100
AcDbEntity
  8
部品1
100
AcDbLine
 10
6534.866258868444
 20
10213.97361040162
 30
0.0
 11
6534.866258868444
 21
9763.97361040162
 31
0.0
  0
LINE
  5
23BA5
102
{ACAD_REACTORS
330
23DC8
102
}
330
747D
100
AcDbEntity
  8
部品1
100
AcDbLine
 10
6509.366258868443
 20
9763.973610401645
 30
0.0
 11
6534.366258868444
 21
9763.973610401645
 31
0.0
  0
LINE
  5
23BA6
102
{ACAD_REACTORS
330
23DC8
102
}
330
747D
100
AcDbEntity
  8
部品1
 48
50.0
100
AcDbLine
 10
6508.366258868443
 20
9763.97361040162
 30
0.0
 11
5655.366258868443
 21
9763.97361040162
 31
0.0
  0
LINE
  5
23BA7
102
{ACAD_REACTORS
330
23DC8
102
}
330
747D
100
AcDbEntity
  8
部品1
 48
50.0
100
AcDbLine
 10
5655.366258868443
 20
10213.97361040162
 30
0.0
 11
6508.366258868443
 21
10213.97361040162
 31
0.0
  0
LINE
  5
23BA8
102
{ACAD_REACTORS
330
23DC8
102
}
330
747D
100
AcDbEntity
  8
細線
 48
50.0
100
AcDbLine
 10
6508.366258868443
 20
9763.97361040162
 30
0.0
 11
5655.366258868443
 21
10213.97361040162
 31
0.0
  0
LINE
  5
23BA9
102
{ACAD_REACTORS
330
23DC8
102
}
330
747D
100
AcDbEntity
  8
細線
 48
50.0
100
AcDbLine
 10
5655.366258868443
 20
9763.97361040162
 30
0.0
 11
6508.366258868443
 21
10213.97361040162
 31
0.0
  0
LINE
  5
23BAA
102
{ACAD_REACTORS
330
23DC8
102
}
330
747D
100
AcDbEntity
  8
細線
 48
50.0
100
AcDbLine
 10
6534.866258868444
 20
9763.97361040162
 30
0.0
 11
7387.866258868443
 21
10213.97361040162
 31
0.0
  0
LINE
  5
23BAB
102
{ACAD_REACTORS
330
23DC8
102
}
330
747D
100
AcDbEntity
  8
細線
 48
50.0
100
AcDbLine
 10
7387.866258868443
 20
9763.97361040162
 30
0.0
 11
6534.866258868416
 21
10213.97361040162
 31
0.0
  0
LINE
  5
23DE4
330
747D
100
AcDbEntity
  8
破線
 48
10.0
100
AcDbLine
 10
7336.866258868444
 20
9763.97361040162
 30
0.0
 11
7336.866258868429
 21
8533.973610401721
 31
0.0
  0
LINE
  5
23DE5
330
747D
100
AcDbEntity
  8
部品1
100
AcDbLine
 10
7360.366258868442
 20
9763.97361040162
 30
0.0
 11
7360.366258868424
 21
8510.473610401721
 31
0.0
  0
LINE
  5
23DE6
330
747D
100
AcDbEntity
  8
部品1
100
AcDbLine
 10
5683.366258868425
 20
9763.97361040162
 30
0.0
 11
5683.366258868438
 21
8510.473610401723
 31
0.0
  0
LINE
  5
23DE7
330
747D
100
AcDbEntity
  8
破線
 48
10.0
100
AcDbLine
 10
5706.866258868426
 20
9763.97361040162
 30
0.0
 11
5706.866258868434
 21
8533.973610401627
 31
0.0
  0
LINE
  5
23DEA
330
747D
100
AcDbEntity
  8
部品1
 48
50.0
100
AcDbLine
 10
7386.866258868301
 20
10213.97361040162
 30
0.0
 11
7388.86625886842
 21
10215.97361040174
 31
0.0
  0
LINE
  5
23DEB
330
747D
100
AcDbEntity
  8
部品1
100
AcDbLine
 10
6509.366258868448
 20
10187.47361040179
 30
0.0
 11
6508.366258868443
 21
10187.47361040179
 31
0.0
  0
LINE
  5
23DEC
330
747D
100
AcDbEntity
  8
部品1
100
AcDbLine
 10
6534.866258868444
 20
10187.47361040179
 30
0.0
 11
6534.366258868448
 21
10187.47361040179
 31
0.0
  0
LINE
  5
23DEE
330
747D
100
AcDbEntity
  8
部品1
 48
50.0
100
AcDbLine
 10
5656.866258868554
 20
10213.97361040162
 30
0.0
 11
5654.866258868435
 21
10215.97361040174
 31
0.0
  0
DIMENSION
  5
23E1D
330
747D
100
AcDbEntity
  8
寸法
100
AcDbDimension
  2
*D68
 10
7743.223984730462
 20
9668.755794732724
 30
0.0
 11
7643.223984730461
 21
9893.755794732726
 31
0.0
 70
    32
 71
     5
 42
450.0
  3
INABA_S40G
100
AcDbAlignedDimension
 13
7387.866258868438
 23
10213.97361040161
 33
0.0
 14
7387.866258868438
 24
9763.973610401613
 34
0.0
 50
90.0
100
AcDbRotatedDimension
1001
ACAD
1000
DSTYLE
1002
{
1002
}
  0
DIMENSION
  5
23E1E
330
747D
100
AcDbEntity
  8
寸法
100
AcDbDimension
  2
*D69
 10
7329.172762574471
 20
9544.926500158636
 30
0.0
 11
6914.213320986705
 21
9544.926500158636
 31
0.0
 70
   160
 71
     5
 42
853.0000000000116
  3
INABA_S40G
100
AcDbAlignedDimension
 13
6534.866258868436
 23
9763.97361040162
 33
0.0
 14
7387.866258868449
 24
9763.973610401615
 34
0.0
100
AcDbRotatedDimension
1001
ACAD
1000
DSTYLE
1002
{
1002
}
  0
DIMENSION
  5
23E1F
330
747D
100
AcDbEntity
  8
寸法
100
AcDbDimension
  2
*D70
 10
6449.172762574473
 20
9544.926500158529
 30
0.0
 11
6034.213320986706
 21
9544.926500158529
 31
0.0
 70
   160
 71
     5
 42
853.0000000000116
  3
INABA_S40G
100
AcDbAlignedDimension
 13
5654.866258868437
 23
9763.973610401514
 33
0.0
 14
6507.866258868451
 24
9763.973610401508
 34
0.0
100
AcDbRotatedDimension
1001
ACAD
1000
DSTYLE
1002
{
1002
}
  0
MTEXT
  5
23E20
330
747D
100
AcDbEntity
  8
寸法
 62
     7
 48
50.0
100
AcDbMText
 10
6094.081456941071
 20
9828.379879368647
 30
0.0
 40
96.0
 41
0.0
 71
     5
 72
     1
  1
棚 2段
  7
STYLE1
 73
     1
 44
1.0
1001
ACAD
1000
MTEXTBEGIN
1070
    73
1070
     1
1070
    44
1040
1.0
1070
    74
1070
     0
1000
MTEXTEND
  0
MTEXT
  5
23E21
330
747D
100
AcDbEntity
  8
寸法
 62
     7
 48
50.0
100
AcDbMText
 10
6974.08145694107
 20
9828.379879368691
 30
0.0
 40
96.0
 41
0.0
 71
     5
 72
     1
  1
棚 2段
  7
STYLE1
 73
     1
 44
1.0
1001
ACAD
1000
MTEXTBEGIN
1070
    73
1070
     1
1070
    44
1040
1.0
1070
    74
1070
     0
1000
MTEXTEND
  0
DIMENSION
  5
23F67
330
747D
100
AcDbEntity
  8
寸法
100
AcDbDimension
  2
*D71
 10
5342.953769846193
 20
8378.973610401569
 30
0.0
 11
5342.953769846193
 21
8070.488329027332
 31
0.0
 70
   160
 71
     5
 42
75.00000000016007
  3
INABA_S40G
100
AcDbAlignedDimension
 13
5626.866258868473
 23
8453.973610401728
 33
0.0
 14
5657.393473436322
 24
8378.973610401569
 34
0.0
 50
90.0
100
AcDbRotatedDimension
1001
ACAD
1000
DSTYLE
1002
{
1070
   174
1070
     0
1070
   272
1070
     1
1070
   288
1070
     0
1070
   341
1005
0
1002
}
  0
LINE
  5
24027
330
747D
100
AcDbEntity
  8
細線
 48
50.0
100
AcDbLine
 10
10748.19395691448
 20
4940.0
 30
0.0
 11
10748.19395691448
 21
3150.0
 31
0.0
  0
LINE
  5
24028
330
747D
100
AcDbEntity
  8
細線
 48
50.0
100
AcDbLine
 10
10733.19395691448
 20
4940.0
 30
0.0
 11
10733.19395691448
 21
3150.0
 31
0.0
  0
LINE
  5
24029
330
747D
100
AcDbEntity
  8
細線
 48
50.0
100
AcDbLine
 10
10873.19395691448
 20
4940.0
 30
0.0
 11
10873.19395691448
 21
3150.0
 31
0.0
  0
LINE
  5
2402A
330
747D
100
AcDbEntity
  8
細線
 48
50.0
100
AcDbLine
 10
10888.19395691448
 20
4940.0
 30
0.0
 11
10888.19395691448
 21
3150.0
 31
0.0
  0
LINE
  5
2402B
330
747D
100
AcDbEntity
  8
細線
 48
50.0
100
AcDbLine
 10
11028.19395691448
 20
4940.0
 30
0.0
 11
11028.19395691448
 21
3150.0
 31
0.0
  0
LINE
  5
2402C
330
747D
100
AcDbEntity
  8
細線
 48
50.0
100
AcDbLine
 10
11013.19395691448
 20
4940.0
 30
0.0
 11
11013.19395691448
 21
3150.0
 31
0.0
  0
LINE
  5
2402D
330
747D
100
AcDbEntity
  8
部品1
100
AcDbLine
 10
10670.69395691447
 20
4940.0
 30
0.0
 11
10670.69395691447
 21
3150.0
 31
0.0
  0
LINE
  5
240A0
330
747D
100
AcDbEntity
  8
部品1
100
AcDbLine
 10
7360.366258868349
 20
8927.473610401746
 30
0.0
 11
5683.366258868266
 21
8927.473610401838
 31
0.0
  0
LINE
  5
240C7
330
747D
100
AcDbEntity
  8
部品1
100
AcDbLine
 10
5654.866258868409
 20
8928.973610401596
 30
0.0
 11
5626.866258868409
 21
8928.973610401596
 31
0.0
  0
LINE
  5
240C8
330
747D
100
AcDbEntity
  8
部品1
100
AcDbLine
 10
7388.866258868445
 20
8928.973610401738
 30
0.0
 11
7416.866258868445
 21
8928.973610401738
 31
0.0
  0
LINE
  5
241B4
330
747D
100
AcDbEntity
  8
破線
 48
5.0
100
AcDbLine
 10
5604.896575106992
 20
2845.000000000002
 30
0.0
 11
5624.896575106994
 21
2845.000000000002
 31
0.0
  0
LINE
  5
241B5
330
747D
100
AcDbEntity
  8
破線
 48
5.0
100
AcDbLine
 10
5624.896575106994
 20
3000.0
 30
0.0
 11
5624.896575106991
 21
2845.000000000002
 31
0.0
  0
LINE
  5
241B6
330
747D
100
AcDbEntity
  8
破線
 48
5.0
100
AcDbLine
 10
5719.896575106993
 20
3000.000000000002
 30
0.0
 11
5719.896575106993
 21
2800.0
 31
0.0
  0
LINE
  5
241B7
330
747D
100
AcDbEntity
  8
破線
 48
5.0
100
AcDbLine
 10
5719.896575106993
 20
2800.0
 30
0.0
 11
5519.896575106995
 21
2800.0
 31
0.0
  0
LINE
  5
241B8
330
747D
100
AcDbEntity
  8
破線
 48
5.0
100
AcDbLine
 10
5519.896575106994
 20
3000.000000000002
 30
0.0
 11
5519.896575106995
 21
2800.0
 31
0.0
  0
LINE
  5
241B9
330
747D
100
AcDbEntity
  8
部品1
100
AcDbLine
 10
5624.896575106991
 20
3145.000000000002
 30
0.0
 11
5624.896575106994
 21
3000.0
 31
0.0
  0
LINE
  5
241BA
330
747D
100
AcDbEntity
  8
部品1
100
AcDbLine
 10
7019.896575106992
 20
3100.0
 30
0.0
 11
7019.896575106992
 21
3000.0
 31
0.0
  0
LINE
  5
241BB
330
747D
100
AcDbEntity
  8
部品1
100
AcDbLine
 10
6029.896575106992
 20
3100.0
 30
0.0
 11
6029.896575106992
 21
3000.0
 31
0.0
  0
LINE
  5
241BC
330
747D
100
AcDbEntity
  8
部品1
 48
50.0
100
AcDbLine
 10
6424.89657510699
 20
3100.0
 30
0.0
 11
6424.89657510699
 21
3000.0
 31
0.0
  0
LINE
  5
241BD
330
747D
100
AcDbEntity
  8
部品1
 48
50.0
100
AcDbLine
 10
6624.896575106991
 20
3100.0
 30
0.0
 11
6624.896575106991
 21
3000.0
 31
0.0
  0
LINE
  5
241BE
330
747D
100
AcDbEntity
  8
部品1
100
AcDbLine
 10
7424.896575106991
 20
3145.000000000001
 30
0.0
 11
7424.896575106991
 21
3000.0
 31
0.0
  0
LINE
  5
241BF
330
747D
100
AcDbEntity
  8
破線
 48
5.0
100
AcDbLine
 10
7444.896575106992
 20
2845.0
 30
0.0
 11
7424.896575106991
 21
2845.0
 31
0.0
  0
LINE
  5
241C0
330
747D
100
AcDbEntity
  8
破線
 48
5.0
100
AcDbLine
 10
7424.896575106991
 20
3000.0
 30
0.0
 11
7424.896575106991
 21
2845.0
 31
0.0
  0
DIMENSION
  5
241C1
330
747D
100
AcDbEntity
  8
寸法
 48
50.0
100
AcDbDimension
  2
*D72
 10
7319.896575106993
 20
2513.952670699622
 30
0.0
 11
7419.896575106992
 21
2513.952670699622
 31
0.0
 70
   160
 71
     5
 42
199.9999999999982
  3
INABA_S40G
100
AcDbAlignedDimension
 13
7519.89657510699
 23
2799.999999999998
 33
0.0
 14
7319.896575106993
 24
2799.999999999999
 34
0.0
100
AcDbRotatedDimension
  0
LINE
  5
241C2
330
747D
100
AcDbEntity
  8
破線
 48
5.0
100
AcDbLine
 10
7319.896575106992
 20
3000.0
 30
0.0
 11
7319.896575106993
 21
2799.999999999999
 31
0.0
  0
LINE
  5
241C3
330
747D
100
AcDbEntity
  8
破線
 48
5.0
100
AcDbLine
 10
7519.896575106992
 20
3000.0
 30
0.0
 11
7519.89657510699
 21
2799.999999999998
 31
0.0
  0
LINE
  5
241C4
330
747D
100
AcDbEntity
  8
破線
 48
5.0
100
AcDbLine
 10
7519.89657510699
 20
2799.999999999998
 30
0.0
 11
7319.896575106993
 21
2799.999999999999
 31
0.0
  0
LINE
  5
2422C
330
747D
100
AcDbEntity
  8
破線
 48
5.0
100
AcDbLine
 10
9283.193956914477
 20
3000.000000000012
 30
0.0
 11
9283.193956914479
 21
2800.000000000011
 31
0.0
  0
LINE
  5
2422D
330
747D
100
AcDbEntity
  8
破線
 48
5.0
100
AcDbLine
 10
9483.193956914474
 20
2800.000000000011
 30
0.0
 11
9283.193956914479
 21
2800.000000000011
 31
0.0
  0
LINE
  5
2422E
330
747D
100
AcDbEntity
  8
破線
 48
5.0
100
AcDbLine
 10
9483.193956914476
 20
3000.000000000012
 30
0.0
 11
9483.193956914474
 21
2800.000000000011
 31
0.0
  0
LINE
  5
2422F
330
747D
100
AcDbEntity
  8
破線
  6
HIDDEN
 48
5.0
100
AcDbLine
 10
9403.193956914476
 20
2995.000000000013
 30
0.0
 11
9418.193956914477
 21
2847.300000000013
 31
0.0
  0
LINE
  5
24230
330
747D
100
AcDbEntity
  8
破線
  6
HIDDEN
 48
5.0
100
AcDbLine
 10
9363.193956914477
 20
2995.000000000013
 30
0.0
 11
9348.193956914471
 21
2847.300000000013
 31
0.0
  0
LINE
  5
24231
330
747D
100
AcDbEntity
  8
破線
  6
HIDDEN
 48
5.0
100
AcDbLine
 10
9418.193956914477
 20
2847.300000000013
 30
0.0
 11
9418.193956914469
 21
2845.000000000013
 31
0.0
  0
LINE
  5
24232
330
747D
100
AcDbEntity
  8
破線
  6
HIDDEN
 48
5.0
100
AcDbLine
 10
9348.193956914471
 20
2847.300000000013
 30
0.0
 11
9348.193956914471
 21
2845.000000000013
 31
0.0
  0
LINE
  5
24233
330
747D
100
AcDbEntity
  8
破線
  6
HIDDEN
 48
5.0
100
AcDbLine
 10
9348.193956914471
 20
2845.000000000013
 30
0.0
 11
9418.193956914469
 21
2845.000000000013
 31
0.0
  0
LINE
  5
24235
330
747D
100
AcDbEntity
  8
破線
  6
HIDDEN
 48
5.0
100
AcDbLine
 10
9403.193956914476
 20
3000.000000000012
 30
0.0
 11
9403.193956914476
 21
2995.000000000013
 31
0.0
  0
LINE
  5
24236
330
747D
100
AcDbEntity
  8
破線
  6
HIDDEN
 48
5.0
100
AcDbLine
 10
9363.19395691448
 20
3000.000000000012
 30
0.0
 11
9363.19395691448
 21
2995.000000000013
 31
0.0
  0
ARC
  5
24237
330
747D
100
AcDbEntity
  8
部品1
 48
50.0
100
AcDbCircle
 10
9398.193956914475
 20
3140.000000000013
 30
0.0
 40
5.0
100
AcDbArc
 50
0.0
 51
90.0
  0
ARC
  5
24238
330
747D
100
AcDbEntity
  8
部品1
 48
50.0
100
AcDbCircle
 10
9368.19395691447
 20
3140.000000000013
 30
0.0
 40
5.0
100
AcDbArc
 50
90.0
 51
180.0
  0
LINE
  5
24239
330
747D
100
AcDbEntity
  8
部品1
100
AcDbLine
 10
9368.19395691447
 20
3145.000000000014
 30
0.0
 11
9398.193956914475
 21
3145.000000000012
 31
0.0
  0
LINE
  5
2423A
330
747D
100
AcDbEntity
  8
部品1
 48
50.0
100
AcDbLine
 10
9403.193956914476
 20
3140.000000000013
 30
0.0
 11
9403.193956914471
 21
3000.000000000012
 31
0.0
  0
LINE
  5
2423B
330
747D
100
AcDbEntity
  8
部品1
 48
50.0
100
AcDbLine
 10
9363.19395691447
 20
3140.000000000013
 30
0.0
 11
9363.193956914477
 21
3000.000000000012
 31
0.0
  0
LINE
  5
2423C
330
747D
100
AcDbEntity
  8
部品1
100
AcDbLine
 10
9355.693956914477
 20
3100.000000000013
 30
0.0
 11
9363.193956914477
 21
3100.000000000012
 31
0.0
  0
LINE
  5
2423D
330
747D
100
AcDbEntity
  8
部品1
100
AcDbLine
 10
9555.693956914474
 20
3100.000000000013
 30
0.0
 11
9555.693956914474
 21
3000.000000000013
 31
0.0
  0
LINE
  5
2423E
330
747D
100
AcDbEntity
  8
部品1
 48
50.0
100
AcDbLine
 10
10150.69395691447
 20
3100.000000000013
 30
0.0
 11
10150.69395691447
 21
3000.000000000013
 31
0.0
  0
LINE
  5
2423F
330
747D
100
AcDbEntity
  8
部品1
 48
50.0
100
AcDbLine
 10
10350.69395691447
 20
3100.000000000013
 30
0.0
 11
10350.69395691447
 21
3000.000000000013
 31
0.0
  0
LINE
  5
24240
330
747D
100
AcDbEntity
  8
部品1
100
AcDbLine
 10
9403.193956914476
 20
3100.000000000013
 30
0.0
 11
11098.19395691447
 21
3100.000000000013
 31
0.0
  0
LINE
  5
24241
330
747D
100
AcDbEntity
  8
部品1
100
AcDbLine
 10
10945.69395691447
 20
3100.000000000013
 30
0.0
 11
10945.69395691447
 21
3000.000000000013
 31
0.0
  0
LINE
  5
24242
330
747D
100
AcDbEntity
  8
部品1
100
AcDbLine
 10
11138.19395691447
 20
3100.000000000013
 30
0.0
 11
11145.69395691447
 21
3100.000000000013
 31
0.0
  0
LINE
  5
24243
330
747D
100
AcDbEntity
  8
破線
  6
HIDDEN
 48
5.0
100
AcDbLine
 10
11138.19395691447
 20
3000.000000000013
 30
0.0
 11
11138.19395691447
 21
2995.000000000013
 31
0.0
  0
LINE
  5
24244
330
747D
100
AcDbEntity
  8
破線
  6
HIDDEN
 48
5.0
100
AcDbLine
 10
11098.19395691447
 20
3000.000000000013
 30
0.0
 11
11098.19395691447
 21
2995.000000000013
 31
0.0
  0
ARC
  5
24245
330
747D
100
AcDbEntity
  8
部品1
 48
50.0
100
AcDbCircle
 10
11133.19395691447
 20
3140.000000000013
 30
0.0
 40
5.0
100
AcDbArc
 50
0.0
 51
90.0
  0
ARC
  5
24246
330
747D
100
AcDbEntity
  8
部品1
 48
50.0
100
AcDbCircle
 10
11103.19395691447
 20
3140.000000000013
 30
0.0
 40
5.0
100
AcDbArc
 50
90.0
 51
180.0
  0
LINE
  5
24247
330
747D
100
AcDbEntity
  8
部品1
100
AcDbLine
 10
11133.19395691447
 20
3145.000000000013
 30
0.0
 11
11103.19395691447
 21
3145.000000000013
 31
0.0
  0
LINE
  5
24248
330
747D
100
AcDbEntity
  8
部品1
 48
50.0
100
AcDbLine
 10
11138.19395691447
 20
3140.000000000013
 30
0.0
 11
11138.19395691447
 21
3000.000000000013
 31
0.0
  0
LINE
  5
24249
330
747D
100
AcDbEntity
  8
部品1
 48
50.0
100
AcDbLine
 10
11098.19395691447
 20
3140.000000000013
 30
0.0
 11
11098.19395691447
 21
3000.000000000013
 31
0.0
  0
LINE
  5
2424A
330
747D
100
AcDbEntity
  8
破線
 48
5.0
100
AcDbLine
 10
11018.19395691448
 20
3000.000000000013
 30
0.0
 11
11018.19395691448
 21
2800.000000000013
 31
0.0
  0
LINE
  5
2424B
330
747D
100
AcDbEntity
  8
破線
 48
5.0
100
AcDbLine
 10
11218.19395691448
 20
2800.000000000011
 30
0.0
 11
11018.19395691448
 21
2800.000000000013
 31
0.0
  0
LINE
  5
2424C
330
747D
100
AcDbEntity
  8
破線
 48
5.0
100
AcDbLine
 10
11218.19395691448
 20
3000.000000000013
 30
0.0
 11
11218.19395691448
 21
2800.000000000011
 31
0.0
  0
LINE
  5
2424D
330
747D
100
AcDbEntity
  8
破線
  6
HIDDEN
 48
5.0
100
AcDbLine
 10
11153.19395691447
 20
2847.300000000013
 30
0.0
 11
11153.19395691447
 21
2845.000000000013
 31
0.0
  0
LINE
  5
2424E
330
747D
100
AcDbEntity
  8
破線
  6
HIDDEN
 48
5.0
100
AcDbLine
 10
11138.19395691447
 20
2995.000000000013
 30
0.0
 11
11153.19395691447
 21
2847.300000000013
 31
0.0
  0
LINE
  5
2424F
330
747D
100
AcDbEntity
  8
破線
  6
HIDDEN
 48
5.0
100
AcDbLine
 10
11083.19395691447
 20
2847.300000000013
 30
0.0
 11
11083.19395691447
 21
2845.000000000013
 31
0.0
  0
LINE
  5
24250
330
747D
100
AcDbEntity
  8
破線
  6
HIDDEN
 48
5.0
100
AcDbLine
 10
11098.19395691447
 20
2995.000000000013
 30
0.0
 11
11083.19395691447
 21
2847.300000000013
 31
0.0
  0
LINE
  5
24251
330
747D
100
AcDbEntity
  8
破線
  6
HIDDEN
 48
5.0
100
AcDbLine
 10
11153.19395691447
 20
2845.000000000013
 30
0.0
 11
11083.19395691447
 21
2845.000000000013
 31
0.0
  0
DIMENSION
  5
24252
330
747D
100
AcDbEntity
  8
寸法
 48
50.0
100
AcDbDimension
  2
*D73
 10
11018.19395691448
 20
2513.952670699635
 30
0.0
 11
11118.19395691448
 21
2513.952670699635
 31
0.0
 70
   160
 71
     5
 42
199.9999999999963
  3
INABA_S40G
100
AcDbAlignedDimension
 13
11218.19395691448
 23
2800.000000000011
 33
0.0
 14
11018.19395691448
 24
2800.000000000013
 34
0.0
100
AcDbRotatedDimension
  0
DIMENSION
  5
24253
330
747D
100
AcDbEntity
  8
寸法
 48
50.0
100
AcDbDimension
  2
*D74
 10
10868.69395366784
 20
3000.000000000013
 30
0.0
 11
10868.69395366784
 21
2900.000000000014
 31
0.0
 70
   160
 71
     5
 42
200.0000000000009
  3
INABA_S40G
100
AcDbAlignedDimension
 13
11018.19395691448
 23
2800.000000000013
 33
0.0
 14
10993.19395691448
 24
3000.000000000013
 34
0.0
 50
90.0
100
AcDbRotatedDimension
1001
ACAD
1000
DSTYLE
1002
{
1070
   174
1070
     0
1070
   272
1070
     1
1070
   288
1070
     0
1070
   341
1005
0
1002
}
  0
TEXT
  5
24308
330
747D
100
AcDbEntity
  8
文字
 62
     7
 48
50.0
100
AcDbText
 10
13248.77747366445
 20
8210.013745883733
 30
0.0
 40
100.0
  1
18
  7
STYLE1
100
AcDbText
  0
LINE
  5
24309
330
747D
100
AcDbEntity
  8
仕様書枠
 48
50.0
100
AcDbLine
 10
16307.19999999999
 20
9199.599999999996
 30
0.0
 11
13127.2
 21
9199.599999999996
 31
0.0
  0
TEXT
  5
2430A
330
747D
100
AcDbEntity
  8
文字
 62
     7
 48
50.0
100
AcDbText
 10
15022.63965474515
 20
9230.013745883718
 30
0.0
 40
100.0
  1
発泡ポリプロピレン
  7
STYLE1
100
AcDbText
  0
TEXT
  5
2430B
330
747D
100
AcDbEntity
  8
文字
 62
     7
 48
50.0
100
AcDbText
 10
13583.11819016568
 20
9230.013745883724
 30
0.0
 40
100.0
  1
天井
  7
STYLE1
100
AcDbText
  0
TEXT
  5
2430C
330
747D
100
AcDbEntity
  8
文字
 62
     7
 48
50.0
100
AcDbText
 10
13248.77747366446
 20
8380.013745883731
 30
0.0
 40
100.0
  1
17
  7
STYLE1
100
AcDbText
  0
TEXT
  5
2430D
330
747D
100
AcDbEntity
  8
文字
 62
     7
 48
50.0
100
AcDbText
 10
15022.63965474515
 20
9400.013745883722
 30
0.0
 40
100.0
  1
発泡ポリプロピレン
  7
STYLE1
100
AcDbText
  0
TEXT
  5
2430E
330
747D
100
AcDbEntity
  8
文字
 62
     7
 48
50.0
100
AcDbText
 10
13583.11819016568
 20
9400.013745883729
 30
0.0
 40
100.0
  1
内壁
  7
STYLE1
100
AcDbText
  0
LINE
  5
2430F
330
747D
100
AcDbEntity
  8
仕様書枠
 48
50.0
100
AcDbLine
 10
16307.19999999999
 20
9539.6
 30
0.0
 11
13127.2
 21
9539.6
 31
0.0
  0
TEXT
  5
24310
330
747D
100
AcDbEntity
  8
文字
 62
     7
 48
50.0
100
AcDbText
 10
13583.11819016569
 20
9740.013745883732
 30
0.0
 40
100.0
  1
母屋中
  7
STYLE1
100
AcDbText
  0
TEXT
  5
24311
330
747D
100
AcDbEntity
  8
文字
 62
     7
 48
50.0
100
AcDbText
 10
13248.77747366447
 20
8720.013745883729
 30
0.0
 40
100.0
  1
15
  7
STYLE1
100
AcDbText
  0
LINE
  5
24312
330
747D
100
AcDbEntity
  8
仕様書枠
 48
50.0
100
AcDbLine
 10
16307.19999999999
 20
7839.600000000003
 30
0.0
 11
13127.19999999999
 21
7839.600000000004
 31
0.0
  0
TEXT
  5
24313
330
747D
100
AcDbEntity
  8
文字
 62
     7
 48
50.0
100
AcDbText
 10
13583.11819016569
 20
8380.013745883733
 30
0.0
 40
100.0
  1
扉
  7
STYLE1
100
AcDbText
  0
TEXT
  5
24314
330
747D
100
AcDbEntity
  8
文字
 62
     7
 48
50.0
100
AcDbText
 10
15022.63965474516
 20
8380.013745883728
 30
0.0
 40
100.0
  1
F12            0.8
  7
STYLE1
100
AcDbText
  0
TEXT
  5
24315
330
747D
100
AcDbEntity
  8
文字
 62
     7
 48
50.0
100
AcDbText
 10
13583.11819016568
 20
8550.013745883733
 30
0.0
 40
100.0
  1
正面パネル
  7
STYLE1
100
AcDbText
  0
TEXT
  5
24316
330
747D
100
AcDbEntity
  8
文字
 62
     7
 48
50.0
100
AcDbText
 10
15022.63965474515
 20
8550.013745883729
 30
0.0
 40
100.0
  1
F12            0.7
  7
STYLE1
100
AcDbText
  0
TEXT
  5
24317
330
747D
100
AcDbEntity
  8
文字
 62
     7
 48
50.0
100
AcDbText
 10
15022.63965474517
 20
10590.01374588372
 30
0.0
 40
100.0
  1
F12            1.0
  7
STYLE1
100
AcDbText
  0
TEXT
  5
24318
330
747D
100
AcDbEntity
  8
文字
 62
     7
 48
50.0
100
AcDbText
 10
15022.63965474516
 20
10930.01374588372
 30
0.0
 40
100.0
  1
F12            1.2
  7
STYLE1
100
AcDbText
  0
TEXT
  5
24319
330
747D
100
AcDbEntity
  8
文字
 62
     7
 48
50.0
100
AcDbText
 10
13248.77747366447
 20
8890.013745883727
 30
0.0
 40
100.0
  1
14
  7
STYLE1
100
AcDbText
  0
TEXT
  5
2431A
330
747D
100
AcDbEntity
  8
文字
 62
     7
 48
50.0
100
AcDbText
 10
13583.11819016569
 20
10930.01374588372
 30
0.0
 40
100.0
  1
根太
  7
STYLE1
100
AcDbText
  0
TEXT
  5
2431B
330
747D
100
AcDbEntity
  8
文字
 62
     7
 48
50.0
100
AcDbText
 10
13583.1181901657
 20
10590.01374588373
 30
0.0
 40
100.0
  1
床パネル
 41
0.9
  7
STYLE1
100
AcDbText
  0
LINE
  5
2431C
330
747D
100
AcDbEntity
  8
仕様書枠
 48
50.0
100
AcDbLine
 10
16307.19999999999
 20
8689.599999999996
 30
0.0
 11
13127.2
 21
8689.6
 31
0.0
  0
LINE
  5
2431D
330
747D
100
AcDbEntity
  8
仕様書枠
 48
50.0
100
AcDbLine
 10
13127.2
 20
11409.6
 30
0.0
 11
13127.19999999999
 21
7839.600000000004
 31
0.0
  0
TEXT
  5
2431E
330
747D
100
AcDbEntity
  8
文字
 62
     7
 48
50.0
100
AcDbText
 10
13229.83081656553
 20
7870.013745883729
 30
0.0
 40
100.0
  1
Y10→溶融亜鉛-5％アルミニウム合金めっき鋼板(JIS G 3317)
 41
0.9
  7
STYLE1
100
AcDbText
  0
TEXT
  5
2431F
330
747D
100
AcDbEntity
  8
文字
 62
     7
 48
50.0
100
AcDbText
 10
13229.83081656553
 20
8040.013745883731
 30
0.0
 40
100.0
  1
F12→溶融亜鉛めっき鋼板(JIS G 3302)
  7
STYLE1
100
AcDbText
  0
LINE
  5
24320
330
747D
100
AcDbEntity
  8
仕様書枠
 48
50.0
100
AcDbLine
 10
16307.19999999999
 20
8009.600000000002
 30
0.0
 11
13127.19999999999
 21
8009.600000000004
 31
0.0
  0
LINE
  5
24321
330
747D
100
AcDbEntity
  8
仕様書枠
 48
50.0
100
AcDbLine
 10
16307.19999999999
 20
8179.600000000002
 30
0.0
 11
13127.19999999999
 21
8179.600000000005
 31
0.0
  0
TEXT
  5
24322
330
747D
100
AcDbEntity
  8
文字
 62
     7
 48
50.0
100
AcDbText
 10
15022.63965474515
 20
9570.013745883723
 30
0.0
 40
100.0
  1
F12            0.6
  7
STYLE1
100
AcDbText
  0
TEXT
  5
24323
330
747D
100
AcDbEntity
  8
文字
 62
     7
 48
50.0
100
AcDbText
 10
15022.63965474517
 20
9910.01374588373
 30
0.0
 40
100.0
  1
Y10            0.5
  7
STYLE1
100
AcDbText
  0
TEXT
  5
24324
330
747D
100
AcDbEntity
  8
文字
 62
     7
 48
50.0
100
AcDbText
 10
15022.63965474517
 20
10080.01374588372
 30
0.0
 40
100.0
  1
Y10            0.7
  7
STYLE1
100
AcDbText
  0
TEXT
  5
24325
330
747D
100
AcDbEntity
  8
文字
 62
     7
 48
50.0
100
AcDbText
 10
15022.63965474517
 20
10250.01374588372
 30
0.0
 40
100.0
  1
Y10            0.7
  7
STYLE1
100
AcDbText
  0
TEXT
  5
24326
330
747D
100
AcDbEntity
  8
文字
 62
     7
 48
50.0
100
AcDbText
 10
15022.63965474517
 20
10420.01374588372
 30
0.0
 40
100.0
  1
Y10            1.0
  7
STYLE1
100
AcDbText
  0
TEXT
  5
24327
330
747D
100
AcDbEntity
  8
文字
 62
     7
 48
50.0
100
AcDbText
 10
15022.63965474518
 20
10760.01374588372
 30
0.0
 40
100.0
  1
F12            1.0
  7
STYLE1
100
AcDbText
  0
TEXT
  5
24328
330
747D
100
AcDbEntity
  8
文字
 62
     7
 48
50.0
100
AcDbText
 10
15022.63965474517
 20
11100.01374588372
 30
0.0
 40
100.0
  1
F12            1.2
  7
STYLE1
100
AcDbText
  0
TEXT
  5
24329
330
747D
100
AcDbEntity
  8
文字
 62
     7
 48
50.0
100
AcDbText
 10
13248.77747366447
 20
9230.013745883729
 30
0.0
 40
100.0
  1
12
  7
STYLE1
100
AcDbText
  0
TEXT
  5
2432A
330
747D
100
AcDbEntity
  8
文字
 62
     7
 48
50.0
100
AcDbText
 10
13248.77747366447
 20
9060.013745883729
 30
0.0
 40
100.0
  1
13
  7
STYLE1
100
AcDbText
  0
LINE
  5
2432B
330
747D
100
AcDbEntity
  8
仕様書枠
 48
50.0
100
AcDbLine
 10
16307.19999999999
 20
8519.599999999996
 30
0.0
 11
13127.2
 21
8519.600000000002
 31
0.0
  0
LINE
  5
2432C
330
747D
100
AcDbEntity
  8
仕様書枠
 48
50.0
100
AcDbLine
 10
16307.19999999999
 20
8859.599999999995
 30
0.0
 11
13127.2
 21
8859.599999999998
 31
0.0
  0
TEXT
  5
2432D
330
747D
100
AcDbEntity
  8
文字
 62
     7
 48
50.0
100
AcDbText
 10
13248.77747366447
 20
9400.013745883729
 30
0.0
 40
100.0
  1
11
  7
STYLE1
100
AcDbText
  0
LINE
  5
2432E
330
747D
100
AcDbEntity
  8
仕様書枠
 48
50.0
100
AcDbLine
 10
16307.2
 20
9879.600000000001
 30
0.0
 11
13127.2
 21
9879.600000000001
 31
0.0
  0
LINE
  5
2432F
330
747D
100
AcDbEntity
  8
仕様書枠
 48
50.0
100
AcDbLine
 10
16307.2
 20
10219.6
 30
0.0
 11
13127.2
 21
10219.6
 31
0.0
  0
LINE
  5
24330
330
747D
100
AcDbEntity
  8
仕様書枠
 48
50.0
100
AcDbLine
 10
16307.19999999999
 20
9369.599999999996
 30
0.0
 11
13127.2
 21
9369.599999999996
 31
0.0
  0
LINE
  5
24331
330
747D
100
AcDbEntity
  8
仕様書枠
 48
50.0
100
AcDbLine
 10
16307.19999999999
 20
9029.599999999993
 30
0.0
 11
13127.2
 21
9029.6
 31
0.0
  0
LINE
  5
24332
330
747D
100
AcDbEntity
  8
仕様書枠
 48
50.0
100
AcDbLine
 10
16307.19999999999
 20
9709.600000000001
 30
0.0
 11
13127.2
 21
9709.600000000001
 31
0.0
  0
TEXT
  5
24333
330
747D
100
AcDbEntity
  8
文字
 62
     7
 48
50.0
100
AcDbText
 10
13271.19032244792
 20
10250.01374588373
 30
0.0
 40
100.0
  1
6
  7
STYLE1
100
AcDbText
  0
TEXT
  5
24334
330
747D
100
AcDbEntity
  8
文字
 62
     7
 48
50.0
100
AcDbText
 10
13271.19032244792
 20
10080.01374588373
 30
0.0
 40
100.0
  1
7
  7
STYLE1
100
AcDbText
  0
TEXT
  5
24335
330
747D
100
AcDbEntity
  8
文字
 62
     7
 48
50.0
100
AcDbText
 10
13271.19032244792
 20
9740.013745883729
 30
0.0
 40
100.0
  1
9
  7
STYLE1
100
AcDbText
  0
TEXT
  5
24336
330
747D
100
AcDbEntity
  8
文字
 62
     7
 48
50.0
100
AcDbText
 10
13271.19032244792
 20
9910.01374588373
 30
0.0
 40
100.0
  1
8
  7
STYLE1
100
AcDbText
  0
TEXT
  5
24337
330
747D
100
AcDbEntity
  8
文字
 62
     7
 48
50.0
100
AcDbText
 10
13583.1181901657
 20
10080.01374588372
 30
0.0
 40
100.0
  1
鼻隠シ前後
  7
STYLE1
100
AcDbText
  0
TEXT
  5
24338
330
747D
100
AcDbEntity
  8
文字
 62
     7
 48
50.0
100
AcDbText
 10
13583.11819016569
 20
9910.013745883732
 30
0.0
 40
100.0
  1
屋根パネル
  7
STYLE1
100
AcDbText
  0
TEXT
  5
24339
330
747D
100
AcDbEntity
  8
文字
 62
     7
 48
50.0
100
AcDbText
 10
13583.11819016568
 20
9570.013745883732
 30
0.0
 40
100.0
  1
壁パネル
  7
STYLE1
100
AcDbText
  0
TEXT
  5
2433A
330
747D
100
AcDbEntity
  8
文字
 62
     7
 48
50.0
100
AcDbText
 10
13248.77747366447
 20
9570.013745883729
 30
0.0
 40
100.0
  1
10
  7
STYLE1
100
AcDbText
  0
TEXT
  5
2433B
330
747D
100
AcDbEntity
  8
文字
 62
     7
 48
50.0
100
AcDbText
 10
13583.1181901657
 20
10250.01374588373
 30
0.0
 40
100.0
  1
妻板左右
  7
STYLE1
100
AcDbText
  0
TEXT
  5
2433C
330
747D
100
AcDbEntity
  8
文字
 62
     7
 48
50.0
100
AcDbText
 10
13271.19032244792
 20
10420.01374588372
 30
0.0
 40
100.0
  1
5
  7
STYLE1
100
AcDbText
  0
TEXT
  5
2433D
330
747D
100
AcDbEntity
  8
文字
 62
     7
 48
50.0
100
AcDbText
 10
13583.1181901657
 20
10420.01374588373
 30
0.0
 40
100.0
  1
桁前後
  7
STYLE1
100
AcDbText
  0
TEXT
  5
2433E
330
747D
100
AcDbEntity
  8
文字
 62
     7
 48
50.0
100
AcDbText
 10
13583.1181901657
 20
10760.01374588372
 30
0.0
 40
100.0
  1
柱
  7
STYLE1
100
AcDbText
  0
TEXT
  5
2433F
330
747D
100
AcDbEntity
  8
文字
 62
     7
 48
50.0
100
AcDbText
 10
13583.11819016569
 20
11100.01374588373
 30
0.0
 40
100.0
  1
土台枠
  7
STYLE1
100
AcDbText
  0
TEXT
  5
24340
330
747D
100
AcDbEntity
  8
文字
 62
     7
 48
50.0
100
AcDbText
 10
14859.79774614482
 20
11270.01374588372
 30
0.0
 40
100.0
  1
材料（材質）　　単位mm
  7
STYLE1
100
AcDbText
  0
TEXT
  5
24341
330
747D
100
AcDbEntity
  8
文字
 62
     7
 48
50.0
100
AcDbText
 10
13732.03840939434
 20
11270.01374588372
 30
0.0
 40
100.0
  1
部　　品　　名
  7
STYLE1
100
AcDbText
  0
TEXT
  5
24342
330
747D
100
AcDbEntity
  8
文字
 62
     7
 48
50.0
100
AcDbText
 10
13271.19032244792
 20
10760.01374588373
 30
0.0
 40
100.0
  1
3
  7
STYLE1
100
AcDbText
  0
TEXT
  5
24343
330
747D
100
AcDbEntity
  8
文字
 62
     7
 48
50.0
100
AcDbText
 10
13271.19032244792
 20
10590.01374588373
 30
0.0
 40
100.0
  1
4
  7
STYLE1
100
AcDbText
  0
TEXT
  5
24344
330
747D
100
AcDbEntity
  8
文字
 62
     7
 48
50.0
100
AcDbText
 10
13271.19032244792
 20
10930.01374588373
 30
0.0
 40
100.0
  1
2
  7
STYLE1
100
AcDbText
  0
TEXT
  5
24345
330
747D
100
AcDbEntity
  8
文字
 62
     7
 48
50.0
100
AcDbText
 10
13271.19032244792
 20
11100.01374588373
 30
0.0
 40
100.0
  1
1
  7
STYLE1
100
AcDbText
  0
TEXT
  5
24346
330
747D
100
AcDbEntity
  8
文字
 62
     7
 48
50.0
100
AcDbText
 10
13197.42518560407
 20
11270.01374588372
 30
0.0
 40
100.0
  1
品番
  7
STYLE1
100
AcDbText
  0
LINE
  5
24347
330
747D
100
AcDbEntity
  8
仕様書枠
 48
50.0
100
AcDbLine
 10
16307.19999999999
 20
10729.6
 30
0.0
 11
13127.2
 21
10729.6
 31
0.0
  0
LINE
  5
24348
330
747D
100
AcDbEntity
  8
仕様書枠
 48
50.0
100
AcDbLine
 10
16307.19999999999
 20
10389.6
 30
0.0
 11
13127.2
 21
10389.6
 31
0.0
  0
LINE
  5
24349
330
747D
100
AcDbEntity
  8
仕様書枠
 48
50.0
100
AcDbLine
 10
16307.19999999999
 20
10559.6
 30
0.0
 11
13127.2
 21
10559.6
 31
0.0
  0
LINE
  5
2434A
330
747D
100
AcDbEntity
  8
仕様書枠
 48
50.0
100
AcDbLine
 10
16307.2
 20
11069.6
 30
0.0
 11
13127.2
 21
11069.6
 31
0.0
  0
LINE
  5
2434B
330
747D
100
AcDbEntity
  8
仕様書枠
 48
50.0
100
AcDbLine
 10
16307.2
 20
10899.6
 30
0.0
 11
13127.2
 21
10899.6
 31
0.0
  0
LINE
  5
2434C
330
747D
100
AcDbEntity
  8
仕様書枠
 48
50.0
100
AcDbLine
 10
16307.2
 20
11239.6
 30
0.0
 11
13127.2
 21
11239.6
 31
0.0
  0
LINE
  5
2434D
330
747D
100
AcDbEntity
  8
仕様書枠
 48
50.0
100
AcDbLine
 10
13490.2
 20
11409.6
 30
0.0
 11
13490.20000000001
 21
8179.600000000005
 31
0.0
  0
LINE
  5
2434E
330
747D
100
AcDbEntity
  8
仕様書枠
 48
50.0
100
AcDbLine
 10
14785.2
 20
11409.59999999999
 30
0.0
 11
14785.2
 21
8179.600000000002
 31
0.0
  0
LINE
  5
2434F
330
747D
100
AcDbEntity
  8
仕様書枠
 48
50.0
100
AcDbLine
 10
16307.2
 20
11409.6
 30
0.0
 11
13127.2
 21
11409.6
 31
0.0
  0
LINE
  5
24350
330
747D
100
AcDbEntity
  8
仕様書枠
 48
50.0
100
AcDbLine
 10
16307.2
 20
10049.6
 30
0.0
 11
13127.2
 21
10049.6
 31
0.0
  0
TEXT
  5
24351
330
747D
100
AcDbEntity
  8
文字
 62
     7
 48
50.0
100
AcDbText
 10
15022.63965474515
 20
8210.013745883726
 30
0.0
 40
100.0
  1
F12            2.3
  7
STYLE1
100
AcDbText
  0
TEXT
  5
24352
330
747D
100
AcDbEntity
  8
文字
 62
     7
 48
50.0
100
AcDbText
 10
13583.11819016569
 20
8210.013745883731
 30
0.0
 40
100.0
  1
アンカープレート
  7
STYLE1
100
AcDbText
  0
LINE
  5
24353
330
747D
100
AcDbEntity
  8
仕様書枠
 48
50.0
100
AcDbLine
 10
16307.19999999999
 20
8179.600000000002
 30
0.0
 11
13127.2
 21
8179.600000000002
 31
0.0
  0
LINE
  5
24354
330
747D
100
AcDbEntity
  8
仕様書枠
 48
50.0
100
AcDbLine
 10
16307.19999999999
 20
8349.6
 30
0.0
 11
13127.2
 21
8349.600000000002
 31
0.0
  0
TEXT
  5
24355
330
747D
100
AcDbEntity
  8
文字
 62
     7
 48
50.0
100
AcDbText
 10
13583.11819016569
 20
9060.013745883733
 30
0.0
 40
100.0
  1
壁面扉鴨居
  7
STYLE1
100
AcDbText
  0
TEXT
  5
24356
330
747D
100
AcDbEntity
  8
文字
 62
     7
 48
50.0
100
AcDbText
 10
13583.11819016569
 20
8890.013745883734
 30
0.0
 40
100.0
  1
壁面扉敷居
  7
STYLE1
100
AcDbText
  0
TEXT
  5
24357
330
747D
100
AcDbEntity
  8
文字
 62
     7
 48
50.0
100
AcDbText
 10
15022.63965474515
 20
9060.013745883733
 30
0.0
 40
100.0
  1
F12            0.7
  7
STYLE1
100
AcDbText
  0
TEXT
  5
24358
330
747D
100
AcDbEntity
  8
文字
 62
     7
 48
50.0
100
AcDbText
 10
15022.63965474517
 20
8890.013745883726
 30
0.0
 40
100.0
  1
F12            1.0
  7
STYLE1
100
AcDbText
  0
TEXT
  5
24359
330
747D
100
AcDbEntity
  8
文字
 62
     7
 48
50.0
100
AcDbText
 10
13583.11819016569
 20
8720.013745883736
 30
0.0
 40
100.0
  1
壁面扉枠左右
  7
STYLE1
100
AcDbText
  0
TEXT
  5
2435A
330
747D
100
AcDbEntity
  8
文字
 62
     7
 48
50.0
100
AcDbText
 10
15022.63965474517
 20
8720.013745883727
 30
0.0
 40
100.0
  1
F12            1.0
  7
STYLE1
100
AcDbText
  0
TEXT
  5
2435B
330
747D
100
AcDbEntity
  8
文字
 62
     7
 48
50.0
100
AcDbText
 10
13248.77747366447
 20
8550.013745883729
 30
0.0
 40
100.0
  1
16
  7
STYLE1
100
AcDbText
  0
TEXT
  5
2435C
330
747D
100
AcDbEntity
  8
文字
 62
     7
 48
50.0
100
AcDbText
 10
15022.63965474517
 20
9740.013745883722
 30
0.0
 40
100.0
  1
F12            1.0
  7
STYLE1
100
AcDbText
  0
LINE
  5
2435D
330
747D
100
AcDbEntity
  8
仕様書枠
 48
50.0
100
AcDbLine
 10
16307.19999999999
 20
7839.600000000003
 30
0.0
 11
16307.2
 21
11409.6
 31
0.0
  0
DIMENSION
  5
24385
330
747D
100
AcDbEntity
  8
寸法
 48
50.0
100
AcDbDimension
  2
*D75
 10
11587.63969292941
 20
4935.0
 30
0.0
 11
11487.63969292941
 21
4042.500000000002
 31
0.0
 70
    32
  1
内高　<>
 71
     5
 42
1785.0
  3
INABA_S40G
100
AcDbAlignedDimension
 13
11145.69395691448
 23
3150.0
 33
0.0
 14
11145.69395691447
 24
4935.0
 34
0.0
 50
90.0
100
AcDbRotatedDimension
1001
ACAD
1000
DSTYLE
1002
{
1070
   174
1070
     0
1070
   272
1070
     1
1070
   288
1070
     0
1070
   341
1005
0
1002
}
  0
LINE
  5
243D6
330
747D
100
AcDbEntity
  8
細線
100
AcDbLine
 10
6929.896575106991
 20
4999.500000000001
 30
0.0
 11
6929.896575106994
 21
4976.5
 31
0.0
  0
LINE
  5
243D7
330
747D
100
AcDbEntity
  8
細線
100
AcDbLine
 10
6855.896575106993
 20
4987.5
 30
0.0
 11
6929.896575106991
 21
4987.5
 31
0.0
  0
LINE
  5
243D8
330
747D
100
AcDbEntity
  8
細線
100
AcDbLine
 10
6855.896575106993
 20
4981.499999999999
 30
0.0
 11
6929.896575106991
 21
4981.5
 31
0.0
  0
LINE
  5
243D9
330
747D
100
AcDbEntity
  8
細線
100
AcDbLine
 10
6855.896575106993
 20
4993.5
 30
0.0
 11
6929.896575106991
 21
4993.5
 31
0.0
  0
LINE
  5
243DA
330
747D
100
AcDbEntity
  8
細線
100
AcDbLine
 10
7003.896575106992
 20
4993.5
 30
0.0
 11
6934.896575106994
 21
4993.5
 31
0.0
  0
LINE
  5
243DB
330
747D
100
AcDbEntity
  8
細線
100
AcDbLine
 10
7003.896575106992
 20
4981.5
 30
0.0
 11
6929.896575106991
 21
4981.5
 31
0.0
  0
LINE
  5
243DC
330
747D
100
AcDbEntity
  8
細線
100
AcDbLine
 10
7003.896575106992
 20
4987.5
 30
0.0
 11
6929.896575106991
 21
4987.5
 31
0.0
  0
LINE
  5
243DD
330
747D
100
AcDbEntity
  8
細線
100
AcDbLine
 10
7003.896575106992
 20
4993.5
 30
0.0
 11
6929.896575106991
 21
4993.5
 31
0.0
  0
LINE
  5
243DE
330
747D
100
AcDbEntity
  8
部品1
 48
0.01
100
AcDbLine
 10
7019.896575106992
 20
5004.0
 30
0.0
 11
7019.896575106992
 21
4972.5
 31
0.0
  0
LINE
  5
243DF
330
747D
100
AcDbEntity
  8
部品1
 48
0.01
100
AcDbLine
 10
7017.896575106992
 20
4970.5
 30
0.0
 11
6841.896575106993
 21
4970.5
 31
0.0
  0
LINE
  5
243E0
330
747D
100
AcDbEntity
  8
部品1
 48
0.01
100
AcDbLine
 10
6839.896575106992
 20
4972.5
 30
0.0
 11
6839.896575106992
 21
5004.0
 31
0.0
  0
LINE
  5
243E1
330
747D
100
AcDbEntity
  8
細線
100
AcDbLine
 10
7003.896575106992
 20
4999.500000000001
 30
0.0
 11
7003.896575106992
 21
4976.5
 31
0.0
  0
LINE
  5
243E2
330
747D
100
AcDbEntity
  8
細線
100
AcDbLine
 10
6855.896575106992
 20
4976.5
 30
0.0
 11
6855.896575106992
 21
4999.500000000001
 31
0.0
  0
LINE
  5
243E3
330
747D
100
AcDbEntity
  8
細線
100
AcDbLine
 10
6855.896575106992
 20
4999.500000000001
 30
0.0
 11
6929.896575106991
 21
4999.500000000001
 31
0.0
  0
LINE
  5
243E4
330
747D
100
AcDbEntity
  8
細線
100
AcDbLine
 10
7003.896575106992
 20
4976.5
 30
0.0
 11
6929.896575106991
 21
4976.5
 31
0.0
  0
LINE
  5
243E5
330
747D
100
AcDbEntity
  8
細線
100
AcDbLine
 10
6929.896575106991
 20
4999.500000000001
 30
0.0
 11
7003.896575106992
 21
4999.500000000001
 31
0.0
  0
LINE
  5
243E6
330
747D
100
AcDbEntity
  8
細線
100
AcDbLine
 10
6929.896575106994
 20
4976.5
 30
0.0
 11
6855.896575106992
 21
4976.5
 31
0.0
  0
ARC
  5
243E7
330
747D
100
AcDbEntity
  8
部品1
 48
0.01
100
AcDbCircle
 10
7017.896575106992
 20
5004.0
 30
0.0
 40
2.0
100
AcDbArc
 50
0.0
 51
90.0
  0
ARC
  5
243E8
330
747D
100
AcDbEntity
  8
部品1
 48
0.01
100
AcDbCircle
 10
7017.896575106992
 20
4972.5
 30
0.0
 40
2.0
100
AcDbArc
 50
270.0
 51
0.0
  0
ARC
  5
243E9
330
747D
100
AcDbEntity
  8
部品1
 48
0.01
100
AcDbCircle
 10
6841.896575106992
 20
5004.0
 30
0.0
 40
2.0
100
AcDbArc
 50
90.0
 51
180.0
  0
ARC
  5
243EA
330
747D
100
AcDbEntity
  8
部品1
 48
0.01
100
AcDbCircle
 10
6841.896575106993
 20
4972.5
 30
0.0
 40
2.0
100
AcDbArc
 50
180.0
 51
270.0
  0
LINE
  5
243EB
330
747D
100
AcDbEntity
  8
部品1
 48
0.01
100
AcDbLine
 10
6841.896575106992
 20
5006.0
 30
0.0
 11
7017.896575106992
 21
5006.0
 31
0.0
  0
ARC
  5
243EC
330
747D
100
AcDbEntity
  8
部品1
 48
0.01
100
AcDbCircle
 10
6207.896575106991
 20
4972.5
 30
0.0
 40
2.0
100
AcDbArc
 50
270.0
 51
0.0
  0
ARC
  5
243ED
330
747D
100
AcDbEntity
  8
部品1
 48
0.01
100
AcDbCircle
 10
6207.896575106992
 20
5004.0
 30
0.0
 40
2.0
100
AcDbArc
 50
0.0
 51
90.0
  0
ARC
  5
243EE
330
747D
100
AcDbEntity
  8
部品1
 48
0.01
100
AcDbCircle
 10
6031.896575106991
 20
4972.5
 30
0.0
 40
2.0
100
AcDbArc
 50
180.0
 51
270.0
  0
ARC
  5
243EF
330
747D
100
AcDbEntity
  8
部品1
 48
0.01
100
AcDbCircle
 10
6031.896575106991
 20
5004.0
 30
0.0
 40
2.0
100
AcDbArc
 50
90.0
 51
180.0
  0
LINE
  5
243F0
330
747D
100
AcDbEntity
  8
細線
100
AcDbLine
 10
6119.896575106992
 20
4976.5
 30
0.0
 11
6193.896575106992
 21
4976.5
 31
0.0
  0
LINE
  5
243F1
330
747D
100
AcDbEntity
  8
細線
100
AcDbLine
 10
6119.896575106992
 20
4999.500000000001
 30
0.0
 11
6045.896575106992
 21
4999.500000000001
 31
0.0
  0
LINE
  5
243F2
330
747D
100
AcDbEntity
  8
細線
100
AcDbLine
 10
6045.896575106992
 20
4976.5
 30
0.0
 11
6119.896575106992
 21
4976.5
 31
0.0
  0
LINE
  5
243F3
330
747D
100
AcDbEntity
  8
細線
100
AcDbLine
 10
6193.896575106992
 20
4999.500000000001
 30
0.0
 11
6119.896575106992
 21
4999.500000000001
 31
0.0
  0
LINE
  5
243F4
330
747D
100
AcDbEntity
  8
細線
100
AcDbLine
 10
6193.896575106992
 20
4976.5
 30
0.0
 11
6193.896575106992
 21
4999.500000000001
 31
0.0
  0
LINE
  5
243F5
330
747D
100
AcDbEntity
  8
細線
100
AcDbLine
 10
6045.896575106992
 20
4999.500000000001
 30
0.0
 11
6045.896575106992
 21
4976.5
 31
0.0
  0
LINE
  5
243F6
330
747D
100
AcDbEntity
  8
部品1
 48
0.01
100
AcDbLine
 10
6209.896575106991
 20
4972.5
 30
0.0
 11
6209.896575106991
 21
5004.0
 31
0.0
  0
LINE
  5
243F7
330
747D
100
AcDbEntity
  8
部品1
 48
0.01
100
AcDbLine
 10
6031.896575106991
 20
4970.5
 30
0.0
 11
6207.896575106991
 21
4970.5
 31
0.0
  0
LINE
  5
243F8
330
747D
100
AcDbEntity
  8
部品1
 48
0.01
100
AcDbLine
 10
6029.896575106992
 20
5004.0
 30
0.0
 11
6029.896575106992
 21
4972.5
 31
0.0
  0
LINE
  5
243F9
330
747D
100
AcDbEntity
  8
部品1
 48
0.01
100
AcDbLine
 10
6207.896575106992
 20
5006.0
 30
0.0
 11
6031.896575106991
 21
5006.0
 31
0.0
  0
LINE
  5
243FA
330
747D
100
AcDbEntity
  8
細線
100
AcDbLine
 10
6045.896575106992
 20
4993.5
 30
0.0
 11
6119.896575106992
 21
4993.5
 31
0.0
  0
LINE
  5
243FB
330
747D
100
AcDbEntity
  8
細線
100
AcDbLine
 10
6045.896575106992
 20
4987.5
 30
0.0
 11
6119.896575106992
 21
4987.5
 31
0.0
  0
LINE
  5
243FC
330
747D
100
AcDbEntity
  8
細線
100
AcDbLine
 10
6045.896575106991
 20
4981.5
 30
0.0
 11
6119.896575106992
 21
4981.5
 31
0.0
  0
LINE
  5
243FD
330
747D
100
AcDbEntity
  8
細線
100
AcDbLine
 10
6045.896575106992
 20
4993.5
 30
0.0
 11
6114.896575106992
 21
4993.5
 31
0.0
  0
LINE
  5
243FE
330
747D
100
AcDbEntity
  8
細線
100
AcDbLine
 10
6193.89657510699
 20
4993.5
 30
0.0
 11
6119.896575106992
 21
4993.5
 31
0.0
  0
LINE
  5
243FF
330
747D
100
AcDbEntity
  8
細線
100
AcDbLine
 10
6193.89657510699
 20
4981.499999999999
 30
0.0
 11
6119.896575106992
 21
4981.5
 31
0.0
  0
LINE
  5
24400
330
747D
100
AcDbEntity
  8
細線
100
AcDbLine
 10
6193.89657510699
 20
4987.5
 30
0.0
 11
6119.896575106992
 21
4987.5
 31
0.0
  0
LINE
  5
24401
330
747D
100
AcDbEntity
  8
細線
100
AcDbLine
 10
6119.896575106992
 20
4999.500000000001
 30
0.0
 11
6119.896575106992
 21
4976.5
 31
0.0
  0
ENDSEC
  0
SECTION
  2
OBJECTS
  0
DICTIONARY
  5
7471
330
0
100
AcDbDictionary
281
     1
  3
ACAD_CIP_PREVIOUS_PRODUCT_INFO
350
24484
  3
ACAD_COLOR
350
159B0
  3
ACAD_DETAILVIEWSTYLE
350
2447D
  3
ACAD_GROUP
350
7472
  3
ACAD_LAYOUT
350
159B1
  3
ACAD_MATERIAL
350
159AF
  3
ACAD_MLEADERSTYLE
350
24479
  3
ACAD_MLINESTYLE
350
7473
  3
ACAD_PLOTSETTINGS
350
159B2
  3
ACAD_PLOTSTYLENAME
350
159AD
  3
ACAD_SCALELIST
350
24467
  3
ACAD_SECTIONVIEWSTYLE
350
2447B
  3
ACAD_TABLESTYLE
350
24465
  3
ACAD_VISUALSTYLE
350
2444C
  3
ACDB_RECOMPOSE_DATA
350
244A4
  3
AcDbVariableDictionary
350
24424
  3
CONTENTDICTIONARY
350
E71C
  3
DRAWINGVARIABLESDICT
350
F3B9
  3
DWGPROPS
350
244A5
  0
DICTIONARY
  5
1D35E
330
7467
100
AcDbDictionary
280
     1
281
     1
  3
ACAD_LAYERSTATES
360
1D35F
  0
DICTIONARY
  5
24485
330
7474
100
AcDbDictionary
280
     1
281
     1
  3
ADSK_XREC_LAYER_RECONCILED
360
24486
  0
DICTIONARY
  5
24487
330
DEB3
100
AcDbDictionary
280
     1
281
     1
  3
ADSK_XREC_LAYER_RECONCILED
360
24488
  0
DICTIONARY
  5
24489
330
DEB4
100
AcDbDictionary
280
     1
281
     1
  3
ADSK_XREC_LAYER_RECONCILED
360
2448A
  0
DICTIONARY
  5
2448B
330
DEB5
100
AcDbDictionary
280
     1
281
     1
  3
ADSK_XREC_LAYER_RECONCILED
360
2448C
  0
DICTIONARY
  5
2448D
330
DEB6
100
AcDbDictionary
280
     1
281
     1
  3
ADSK_XREC_LAYER_RECONCILED
360
2448E
  0
DICTIONARY
  5
2448F
330
10B54
100
AcDbDictionary
280
     1
281
     1
  3
ADSK_XREC_LAYER_RECONCILED
360
24490
  0
DICTIONARY
  5
24491
330
11729
100
AcDbDictionary
280
     1
281
     1
  3
ADSK_XREC_LAYER_RECONCILED
360
24492
  0
DICTIONARY
  5
24493
330
1173F
100
AcDbDictionary
280
     1
281
     1
  3
ADSK_XREC_LAYER_RECONCILED
360
24494
  0
DICTIONARY
  5
24495
330
142E2
100
AcDbDictionary
280
     1
281
     1
  3
ADSK_XREC_LAYER_RECONCILED
360
24496
  0
DICTIONARY
  5
24497
330
1E61F
100
AcDbDictionary
280
     1
281
     1
  3
ADSK_XREC_LAYER_RECONCILED
360
24498
  0
XRECORD
  5
24484
102
{ACAD_REACTORS
330
7471
102
}
330
7471
100
AcDbXrecord
280
     1
300
ACDLT
300
2014
300
ACDLT_F_S
  0
DICTIONARY
  5
159B0
102
{ACAD_REACTORS
330
7471
102
}
330
7471
100
AcDbDictionary
281
     1
  0
DICTIONARY
  5
2447D
102
{ACAD_REACTORS
330
7471
102
}
330
7471
100
AcDbDictionary
281
     1
  3
Metric50
350
2447E
  0
DICTIONARY
  5
7472
102
{ACAD_REACTORS
330
7471
102
}
330
7471
100
AcDbDictionary
281
     1
  3
*A3
350
23811
  3
*A4
350
23933
  3
*A5
350
23DC8
  0
DICTIONARY
  5
159B1
102
{ACAD_REACTORS
330
7471
102
}
330
7471
100
AcDbDictionary
281
     1
  3
Model
350
159B3
  3
レイアウト1
350
159B4
  0
DICTIONARY
  5
159AF
102
{ACAD_REACTORS
330
7471
102
}
330
7471
100
AcDbDictionary
281
     1
  3
ByBlock
350
2443C
  3
ByLayer
350
24434
  3
Global
350
24444
  0
DICTIONARY
  5
24479
102
{ACAD_REACTORS
330
7471
102
}
330
7471
100
AcDbDictionary
281
     1
  3
Standard
350
2447A
  0
DICTIONARY
  5
7473
102
{ACAD_REACTORS
330
7471
102
}
330
7471
100
AcDbDictionary
281
     1
  3
STANDARD
350
7480
  0
DICTIONARY
  5
159B2
102
{ACAD_REACTORS
330
7471
102
}
330
7471
100
AcDbDictionary
281
     1
  0
ACDBDICTIONARYWDFLT
  5
159AD
102
{ACAD_REACTORS
330
7471
102
}
330
7471
100
AcDbDictionary
281
     1
  3
Normal
350
159AE
100
AcDbDictionaryWithDefault
340
159AE
  0
DICTIONARY
  5
24467
102
{ACAD_REACTORS
330
7471
102
}
330
7471
100
AcDbDictionary
281
     1
  3
A0
350
24468
  3
A1
350
24469
  3
A2
350
2446A
  3
A3
350
2446B
  3
A4
350
2446C
  3
A5
350
2446D
  3
A6
350
2446E
  3
A7
350
2446F
  3
A8
350
24470
  3
A9
350
24471
  3
B0
350
24472
  3
B1
350
24473
  3
B2
350
24474
  3
B3
350
24475
  3
B4
350
24476
  3
B5
350
24477
  3
B6
350
24478
  0
DICTIONARY
  5
2447B
102
{ACAD_REACTORS
330
7471
102
}
330
7471
100
AcDbDictionary
281
     1
  3
Metric50
350
2447C
  0
DICTIONARY
  5
24465
102
{ACAD_REACTORS
330
7471
102
}
330
7471
100
AcDbDictionary
281
     1
  3
Standard
350
24466
  0
DICTIONARY
  5
2444C
102
{ACAD_REACTORS
330
7471
102
}
330
7471
100
AcDbDictionary
281
     1
  3
2dWireframe
350
24452
  3
Basic
350
24451
  3
Brighten
350
24458
  3
ColorChange
350
2445C
  3
Conceptual
350
24455
  3
Dim
350
24457
  3
EdgeColorOff
350
24464
  3
Facepattern
350
2445B
  3
Flat
350
2444D
  3
FlatWithEdges
350
2444E
  3
Gouraud
350
2444F
  3
GouraudWithEdges
350
24450
  3
Hidden
350
24454
  3
JitterOff
350
24462
  3
Linepattern
350
2445A
  3
OverhangOff
350
24463
  3
Realistic
350
24456
  3
Shaded
350
24461
  3
Shaded with edges
350
24460
  3
Shades of Gray
350
2445D
  3
Sketchy
350
2445E
  3
Thicken
350
24459
  3
Wireframe
350
24453
  3
X-Ray
350
2445F
  0
XRECORD
  5
244A4
102
{ACAD_REACTORS
330
7471
102
}
330
7471
100
AcDbXrecord
280
     1
 90
        1
330
24466
  0
DICTIONARY
  5
24424
102
{ACAD_REACTORS
330
7471
102
}
330
7471
100
AcDbDictionary
281
     1
  3
CANNOSCALE
350
2449D
  3
CMLEADERSTYLE
350
2449A
  3
CTABLESTYLE
350
24499
  3
CVIEWDETAILSTYLE
350
2449B
  3
CVIEWSECTIONSTYLE
350
2449C
  3
DIMASSOC
350
24425
  3
INDEXCTL
350
2449F
  3
PROJECTNAME
350
24426
  3
SORTENTS
350
2449E
  3
XCLIPFRAME
350
244A0
  0
DICTIONARY
  5
E71C
102
{ACAD_REACTORS
330
7471
102
}
330
7471
100
AcDbDictionary
281
     1
  0
DICTIONARY
  5
F3B9
102
{ACAD_REACTORS
330
7471
102
}
330
7471
100
AcDbDictionary
281
     1
1001
DRAWINGVARIABLESXDATA
1000
POLARMODE
1000
1
  0
XRECORD
  5
244A5
102
{ACAD_REACTORS
330
7471
102
}
330
7471
100
AcDbXrecord
280
     1
  1
DWGPROPS COOKIE
  2

  3

  4

  6

  7

  8
ishizaki
  9

300
=
301
=
302
=
303
=
304
=
305
=
306
=
307
=
308
=
309
=
 40
1.368239155092592
 41
2451368.612993866
 42
2457366.428836354
  1

 90
        0
  0
DICTIONARY
  5
1D35F
102
{ACAD_REACTORS
330
1D35E
102
}
330
1D35E
100
AcDbDictionary
281
     1
  0
XRECORD
  5
24486
102
{ACAD_REACTORS
330
24485
102
}
330
24485
100
AcDbXrecord
280
     1
290
     1
  0
XRECORD
  5
24488
102
{ACAD_REACTORS
330
24487
102
}
330
24487
100
AcDbXrecord
280
     1
290
     1
  0
XRECORD
  5
2448A
102
{ACAD_REACTORS
330
24489
102
}
330
24489
100
AcDbXrecord
280
     1
290
     1
  0
XRECORD
  5
2448C
102
{ACAD_REACTORS
330
2448B
102
}
330
2448B
100
AcDbXrecord
280
     1
290
     1
  0
XRECORD
  5
2448E
102
{ACAD_REACTORS
330
2448D
102
}
330
2448D
100
AcDbXrecord
280
     1
290
     1
  0
XRECORD
  5
24490
102
{ACAD_REACTORS
330
2448F
102
}
330
2448F
100
AcDbXrecord
280
     1
290
     1
  0
XRECORD
  5
24492
102
{ACAD_REACTORS
330
24491
102
}
330
24491
100
AcDbXrecord
280
     1
290
     1
  0
XRECORD
  5
24494
102
{ACAD_REACTORS
330
24493
102
}
330
24493
100
AcDbXrecord
280
     1
290
     1
  0
XRECORD
  5
24496
102
{ACAD_REACTORS
330
24495
102
}
330
24495
100
AcDbXrecord
280
     1
290
     1
  0
XRECORD
  5
24498
102
{ACAD_REACTORS
330
24497
102
}
330
24497
100
AcDbXrecord
280
     1
290
     1
  0
ACDBDETAILVIEWSTYLE
  5
2447E
102
{ACAD_XDICTIONARY
360
244E1
102
}
102
{ACAD_REACTORS
330
2447D
102
}
330
2447D
100
AcDbModelDocViewStyle
 70
     0
  3
Metric50
290
     0
100
AcDbDetailViewStyle
 70
     0
 71
     0
 90
        3
 71
     1
340
7475
 40
5.0
340
0
 40
5.0
300

 40
0.0
280
     1
 71
     2
340
7479
 90
       25
 71
     3
340
7475
 40
5.0
 90
        0
 40
15.0
 90
        1
300
%<\AcVar ViewDetailId>% (%<\AcVar ViewScale \f "%sn">%)
 71
     4
340
7479
 90
       25
340
7479
 90
       25
280
     0
  0
GROUP
  5
23811
102
{ACAD_REACTORS
330
7472
102
}
330
7472
100
AcDbGroup
300

 70
     1
 71
     1
340
23700
340
236FF
340
236FE
340
236FD
340
236FC
340
236FB
340
236F9
340
236F8
340
236F7
340
236F6
340
236F5
340
236F4
340
236F3
340
236F2
340
236F1
340
236F0
340
236EF
340
236EE
340
236ED
340
236EC
340
236EB
340
236EA
340
236E9
340
236E8
340
236E7
340
236E6
340
236E5
340
236E4
340
236E3
340
236E2
340
236E1
340
236E0
340
236DF
340
236DE
340
236DD
340
236DC
340
236DB
340
236DA
340
236D9
340
236D8
340
236D7
340
236D6
340
236D5
340
236D4
340
236D3
340
236D2
340
236D1
340
236D0
340
236CF
340
236CE
340
236CD
340
236CC
340
236CB
340
236CA
340
236C9
340
236C8
340
236C7
340
236C5
340
236C3
340
236C2
340
236C1
340
236C0
340
236BF
340
236BE
340
236BD
340
236BC
340
236BB
340
236BA
340
236B9
340
236B8
340
236B7
340
236B6
340
236B5
  0
GROUP
  5
23933
102
{ACAD_REACTORS
330
7472
102
}
330
7472
100
AcDbGroup
300

 70
     1
 71
     1
340
23692
340
23691
340
2368F
340
2368E
340
2368D
340
2368C
340
2368B
340
2368A
340
23689
340
23688
340
23687
340
23686
340
23685
340
23684
340
23683
340
2367C
340
2367B
340
2367A
340
23679
340
23678
340
23677
340
23676
340
23675
340
23674
340
23673
340
23672
340
23671
340
23670
340
2366F
340
2366E
340
2366D
340
2366C
340
2366B
340
2366A
340
23669
340
23668
340
23667
340
23666
340
23665
340
23664
340
23663
340
23662
340
23661
340
23660
340
2365F
340
2365E
340
2365D
340
2365C
340
2365B
340
2365A
340
23659
340
23658
340
23657
340
23656
340
23655
340
23654
  0
GROUP
  5
23DC8
102
{ACAD_REACTORS
330
7472
102
}
330
7472
100
AcDbGroup
300

 70
     1
 71
     1
340
23BAB
340
23BAA
340
23BA9
340
23BA8
340
23BA7
340
23BA6
340
23BA5
340
23BA4
340
23BA3
340
23BA2
340
23BA1
340
23BA0
340
23B9F
340
23B9E
340
23B96
  0
LAYOUT
  5
159B3
102
{ACAD_XDICTIONARY
360
244A6
102
}
102
{ACAD_REACTORS
330
159B1
102
}
330
159B1
100
AcDbPlotSettings
  1

  2
iR C3880
  4
A3
  6

 40
5.873749732971191
 41
5.873747825622557
 42
5.873748779296875
 43
5.873748779296875
 44
296.9259948730469
 45
419.9466552734373
 46
0.0
 47
0.0
 48
0.0
 49
0.0
140
0.0
141
0.0
142
1.0
143
40.75437129952696
 70
 11952
 72
     1
 73
     1
 74
     2
  7
inabass.ctb
 75
     0
147
0.0245372451620081
148
25.79074261211281
149
125.8223078213959
100
AcDbLayout
  1
Model
 70
     1
 71
     0
 10
0.0
 20
0.0
 11
12.0
 21
9.0
 12
0.0
 22
0.0
 32
0.0
 14
0.0
 24
0.0
 34
0.0
 15
0.0
 25
0.0
 35
0.0
146
0.0
 13
0.0
 23
0.0
 33
0.0
 16
1.0
 26
0.0
 36
0.0
 17
0.0
 27
1.0
 37
0.0
 76
     0
330
747D
331
24427
  0
LAYOUT
  5
159B4
102
{ACAD_XDICTIONARY
360
244A8
102
}
102
{ACAD_REACTORS
330
159B1
102
}
330
159B1
100
AcDbPlotSettings
  1

  2
自動 EPSON LP-8400FX (TATENO 上)
  4

  6

 40
0.0
 41
0.0
 42
0.0
 43
0.0
 44
0.0
 45
0.0
 46
0.0
 47
0.0
 48
0.0
 49
0.0
140
0.0
141
0.0
142
1.0
143
1.0
 70
   688
 72
     0
 73
     0
 74
     5
  7
inaba.ctb
 75
    16
147
1.0
148
0.0
149
0.0
100
AcDbLayout
  1
レイアウト1
 70
     0
 71
     1
 10
0.0
 20
0.0
 11
420.0
 21
297.0
 12
0.0
 22
0.0
 32
0.0
 14
1.000000000000000E+20
 24
1.000000000000000E+20
 34
1.000000000000000E+20
 15
-1.000000000000000E+20
 25
-1.000000000000000E+20
 35
-1.000000000000000E+20
146
0.0
 13
0.0
 23
0.0
 33
0.0
 16
1.0
 26
0.0
 36
0.0
 17
0.0
 27
1.0
 37
0.0
 76
     0
330
747A
  0
MATERIAL
  5
2443C
102
{ACAD_XDICTIONARY
360
2443D
102
}
102
{ACAD_REACTORS
330
159AF
102
}
330
159AF
100
AcDbMaterial
  1
ByBlock
 72
     0
 43
0.0208333333333333
 43
0.0
 43
0.0
 43
0.0
 43
0.0
 43
0.0208333333333333
 43
0.0
 43
0.0
 43
0.0
 43
0.0
 43
1.0
 43
0.0
 43
0.0
 43
0.0
 43
0.0
 43
1.0
 77
     0
 47
0.0208333333333333
 47
0.0
 47
0.0
 47
0.0
 47
0.0
 47
0.0208333333333333
 47
0.0
 47
0.0
 47
0.0
 47
0.0
 47
1.0
 47
0.0
 47
0.0
 47
0.0
 47
0.0
 47
1.0
171
     0
 49
0.0208333333333333
 49
0.0
 49
0.0
 49
0.0
 49
0.0
 49
0.0208333333333333
 49
0.0
 49
0.0
 49
0.0
 49
0.0
 49
1.0
 49
0.0
 49
0.0
 49
0.0
 49
0.0
 49
1.0
175
     0
142
0.0208333333333333
142
0.0
142
0.0
142
0.0
142
0.0
142
0.0208333333333333
142
0.0
142
0.0
142
0.0
142
0.0
142
1.0
142
0.0
142
0.0
142
0.0
142
0.0
142
1.0
179
     0
144
0.0208333333333333
144
0.0
144
0.0
144
0.0
144
0.0
144
0.0208333333333333
144
0.0
144
0.0
144
0.0
144
0.0
144
1.0
144
0.0
144
0.0
144
0.0
144
0.0
144
1.0
147
0.0208333333333333
147
0.0
147
0.0
147
0.0
147
0.0
147
0.0208333333333333
147
0.0
147
0.0
147
0.0
147
0.0
147
1.0
147
0.0
147
0.0
147
0.0
147
0.0
147
1.0
  0
MATERIAL
  5
24434
102
{ACAD_XDICTIONARY
360
24435
102
}
102
{ACAD_REACTORS
330
159AF
102
}
330
159AF
100
AcDbMaterial
  1
ByLayer
 72
     0
 43
0.0208333333333333
 43
0.0
 43
0.0
 43
0.0
 43
0.0
 43
0.0208333333333333
 43
0.0
 43
0.0
 43
0.0
 43
0.0
 43
1.0
 43
0.0
 43
0.0
 43
0.0
 43
0.0
 43
1.0
 77
     0
 47
0.0208333333333333
 47
0.0
 47
0.0
 47
0.0
 47
0.0
 47
0.0208333333333333
 47
0.0
 47
0.0
 47
0.0
 47
0.0
 47
1.0
 47
0.0
 47
0.0
 47
0.0
 47
0.0
 47
1.0
171
     0
 49
0.0208333333333333
 49
0.0
 49
0.0
 49
0.0
 49
0.0
 49
0.0208333333333333
 49
0.0
 49
0.0
 49
0.0
 49
0.0
 49
1.0
 49
0.0
 49
0.0
 49
0.0
 49
0.0
 49
1.0
175
     0
142
0.0208333333333333
142
0.0
142
0.0
142
0.0
142
0.0
142
0.0208333333333333
142
0.0
142
0.0
142
0.0
142
0.0
142
1.0
142
0.0
142
0.0
142
0.0
142
0.0
142
1.0
179
     0
144
0.0208333333333333
144
0.0
144
0.0
144
0.0
144
0.0
144
0.0208333333333333
144
0.0
144
0.0
144
0.0
144
0.0
144
1.0
144
0.0
144
0.0
144
0.0
144
0.0
144
1.0
147
0.0208333333333333
147
0.0
147
0.0
147
0.0
147
0.0
147
0.0208333333333333
147
0.0
147
0.0
147
0.0
147
0.0
147
1.0
147
0.0
147
0.0
147
0.0
147
0.0
147
1.0
  0
MATERIAL
  5
24444
102
{ACAD_XDICTIONARY
360
24445
102
}
102
{ACAD_REACTORS
330
159AF
102
}
330
159AF
100
AcDbMaterial
  1
Global
 72
     0
 43
0.0208333333333333
 43
0.0
 43
0.0
 43
0.0
 43
0.0
 43
0.0208333333333333
 43
0.0
 43
0.0
 43
0.0
 43
0.0
 43
1.0
 43
0.0
 43
0.0
 43
0.0
 43
0.0
 43
1.0
 77
     0
 47
0.0208333333333333
 47
0.0
 47
0.0
 47
0.0
 47
0.0
 47
0.0208333333333333
 47
0.0
 47
0.0
 47
0.0
 47
0.0
 47
1.0
 47
0.0
 47
0.0
 47
0.0
 47
0.0
 47
1.0
171
     0
 49
0.0208333333333333
 49
0.0
 49
0.0
 49
0.0
 49
0.0
 49
0.0208333333333333
 49
0.0
 49
0.0
 49
0.0
 49
0.0
 49
1.0
 49
0.0
 49
0.0
 49
0.0
 49
0.0
 49
1.0
175
     0
142
0.0208333333333333
142
0.0
142
0.0
142
0.0
142
0.0
142
0.0208333333333333
142
0.0
142
0.0
142
0.0
142
0.0
142
1.0
142
0.0
142
0.0
142
0.0
142
0.0
142
1.0
179
     0
144
0.0208333333333333
144
0.0
144
0.0
144
0.0
144
0.0
144
0.0208333333333333
144
0.0
144
0.0
144
0.0
144
0.0
144
1.0
144
0.0
144
0.0
144
0.0
144
0.0
144
1.0
147
0.0208333333333333
147
0.0
147
0.0
147
0.0
147
0.0
147
0.0208333333333333
147
0.0
147
0.0
147
0.0
147
0.0
147
1.0
147
0.0
147
0.0
147
0.0
147
0.0
147
1.0
  0
MLEADERSTYLE
  5
2447A
102
{ACAD_REACTORS
330
24479
102
}
330
24479
100
AcDbMLeaderStyle
170
     2
171
     1
172
     0
 90
        2
 40
0.0
 41
0.0
173
     1
 91
-1056964608
340
7477
 92
       -2
290
     1
 42
2.0
291
     1
 43
0.36
  3
Standard
 44
4.0
300

342
7475
174
     1
178
     6
175
     1
176
     0
 93
-1056964608
 45
4.0
292
     0
297
     0
 46
4.0
 94
-1056964608
 47
1.0
 49
1.0
140
1.0
293
     1
141
0.0
294
     1
177
     0
142
1.0
295
     0
296
     0
143
0.125
1001
ACAD_MLEADERVER
1070
     2
  0
MLINESTYLE
  5
7480
102
{ACAD_REACTORS
330
7473
102
}
330
7473
100
AcDbMlineStyle
  2
STANDARD
 70
     0
  3

 62
     0
 51
90.0
 52
90.0
 71
     2
 49
0.5
 62
   256
  6
BYLAYER
 49
-0.5
 62
   256
  6
BYLAYER
  0
ACDBPLACEHOLDER
  5
159AE
102
{ACAD_REACTORS
330
159AD
102
}
330
159AD
  0
SCALE
  5
24468
102
{ACAD_REACTORS
330
24467
102
}
330
24467
100
AcDbScale
 70
     0
300
1:1
140
1.0
141
1.0
290
     1
  0
SCALE
  5
24469
102
{ACAD_REACTORS
330
24467
102
}
330
24467
100
AcDbScale
 70
     0
300
1:2
140
1.0
141
2.0
290
     0
  0
SCALE
  5
2446A
102
{ACAD_REACTORS
330
24467
102
}
330
24467
100
AcDbScale
 70
     0
300
1:4
140
1.0
141
4.0
290
     0
  0
SCALE
  5
2446B
102
{ACAD_REACTORS
330
24467
102
}
330
24467
100
AcDbScale
 70
     0
300
1:5
140
1.0
141
5.0
290
     0
  0
SCALE
  5
2446C
102
{ACAD_REACTORS
330
24467
102
}
330
24467
100
AcDbScale
 70
     0
300
1:8
140
1.0
141
8.0
290
     0
  0
SCALE
  5
2446D
102
{ACAD_REACTORS
330
24467
102
}
330
24467
100
AcDbScale
 70
     0
300
1:10
140
1.0
141
10.0
290
     0
  0
SCALE
  5
2446E
102
{ACAD_REACTORS
330
24467
102
}
330
24467
100
AcDbScale
 70
     0
300
1:16
140
1.0
141
16.0
290
     0
  0
SCALE
  5
2446F
102
{ACAD_REACTORS
330
24467
102
}
330
24467
100
AcDbScale
 70
     0
300
1:20
140
1.0
141
20.0
290
     0
  0
SCALE
  5
24470
102
{ACAD_REACTORS
330
24467
102
}
330
24467
100
AcDbScale
 70
     0
300
1:30
140
1.0
141
30.0
290
     0
  0
SCALE
  5
24471
102
{ACAD_REACTORS
330
24467
102
}
330
24467
100
AcDbScale
 70
     0
300
1:40
140
1.0
141
40.0
290
     0
  0
SCALE
  5
24472
102
{ACAD_REACTORS
330
24467
102
}
330
24467
100
AcDbScale
 70
     0
300
1:50
140
1.0
141
50.0
290
     0
  0
SCALE
  5
24473
102
{ACAD_REACTORS
330
24467
102
}
330
24467
100
AcDbScale
 70
     0
300
1:100
140
1.0
141
100.0
290
     0
  0
SCALE
  5
24474
102
{ACAD_REACTORS
330
24467
102
}
330
24467
100
AcDbScale
 70
     0
300
2:1
140
2.0
141
1.0
290
     0
  0
SCALE
  5
24475
102
{ACAD_REACTORS
330
24467
102
}
330
24467
100
AcDbScale
 70
     0
300
4:1
140
4.0
141
1.0
290
     0
  0
SCALE
  5
24476
102
{ACAD_REACTORS
330
24467
102
}
330
24467
100
AcDbScale
 70
     0
300
8:1
140
8.0
141
1.0
290
     0
  0
SCALE
  5
24477
102
{ACAD_REACTORS
330
24467
102
}
330
24467
100
AcDbScale
 70
     0
300
10:1
140
10.0
141
1.0
290
     0
  0
SCALE
  5
24478
102
{ACAD_REACTORS
330
24467
102
}
330
24467
100
AcDbScale
 70
     0
300
100:1
140
100.0
141
1.0
290
     0
  0
ACDBSECTIONVIEWSTYLE
  5
2447C
102
{ACAD_XDICTIONARY
360
244DF
102
}
102
{ACAD_REACTORS
330
2447B
102
}
330
2447B
100
AcDbModelDocViewStyle
 70
     0
  3
Metric50
290
     0
100
AcDbSectionViewStyle
 70
     0
 71
     0
 90
      102
 71
     1
340
7475
 40
5.0
340
0
340
0
 40
5.0
300
I, O, Q, S, X, Z
 40
10.0
 90
        0
 40
2.5
 90
        0
 71
     2
340
7479
 90
       25
340
7479
 90
       50
 40
5.0
 40
2.5
 40
5.0
 71
     3
340
7475
 40
5.0
 90
        0
 40
15.0
 90
        1
300
%<\AcVar ViewSectionStartId>%-%<\AcVar ViewSectionEndId>% (%<\AcVar ViewScale \f "%sn">%)
 71
     4
300
ANSI31
 40
1.0
 90
        0
290
     0
290
     0
 90
        6
 40
0.0
 40
1.570796326794896
 40
0.2617993877991494
 40
1.308996938995747
 40
-0.2617993877991494
 40
1.832595714594046
  0
TABLESTYLE
  5
24466
102
{ACAD_XDICTIONARY
360
244A2
102
}
102
{ACAD_REACTORS
330
24465
102
}
330
24465
100
AcDbTableStyle
  3
Standard
 70
     0
 71
     0
 40
1.5
 41
1.5
280
     0
281
     0
  7
STANDARD
140
4.5
170
     2
 62
     0
 63
     7
283
     0
274
    -2
284
     1
 64
     0
275
    -2
285
     1
 65
     0
276
    -2
286
     1
 66
     0
277
    -2
287
     1
 67
     0
278
    -2
288
     1
 68
     0
279
    -2
289
     1
 69
     0
  7
STANDARD
140
6.0
170
     5
 62
     0
 63
     7
283
     0
274
    -2
284
     1
 64
     0
275
    -2
285
     1
 65
     0
276
    -2
286
     1
 66
     0
277
    -2
287
     1
 67
     0
278
    -2
288
     1
 68
     0
279
    -2
289
     1
 69
     0
  7
STANDARD
140
4.5
170
     5
 62
     0
 63
     7
283
     0
274
    -2
284
     1
 64
     0
275
    -2
285
     1
 65
     0
276
    -2
286
     1
 66
     0
277
    -2
287
     1
 67
     0
278
    -2
288
     1
 68
     0
279
    -2
289
     1
 69
     0
  0
VISUALSTYLE
  5
24452
102
{ACAD_XDICTIONARY
360
244B7
102
}
102
{ACAD_REACTORS
330
2444C
102
}
330
2444C
100
AcDbVisualStyle
  2
2dWireframe
 70
     4
 71
     0
 72
     2
 73
     0
 90
        0
 40
-0.6
 41
-30.0
 62
     5
 63
     7
 74
     1
 91
        4
 64
     7
 65
   257
 75
     1
175
     1
 42
1.0
 92
        0
 66
   257
 43
1.0
 76
     1
 77
     6
 78
     2
 67
     7
 79
     5
170
     0
171
     0
290
     0
174
     0
 93
        1
 44
0.0
173
     0
291
     0
 45
0.0
1001
ACAD
1000
AcDbSavedByObjectVersion
1070
     0
  0
VISUALSTYLE
  5
24451
102
{ACAD_XDICTIONARY
360
244B5
102
}
102
{ACAD_REACTORS
330
2444C
102
}
330
2444C
100
AcDbVisualStyle
  2
Basic
 70
     7
 71
     1
 72
     0
 73
     1
 90
        0
 40
-0.6
 41
-30.0
 62
     5
 63
     7
 74
     0
 91
        4
 64
     7
 65
   257
 75
     1
175
     1
 42
1.0
 92
        8
 66
     7
 43
1.0
 76
     1
 77
     6
 78
     2
 67
     7
 79
     5
170
     0
171
     0
290
     0
174
     0
 93
        1
 44
0.0
173
     0
291
     1
 45
0.0
1001
ACAD
1000
AcDbSavedByObjectVersion
1070
     0
  0
VISUALSTYLE
  5
24458
102
{ACAD_XDICTIONARY
360
244C3
102
}
102
{ACAD_REACTORS
330
2444C
102
}
330
2444C
100
AcDbVisualStyle
  2
Brighten
 70
    12
 71
     2
 72
     2
 73
     0
 90
        0
 40
-0.6
 41
-30.0
 62
     5
 63
     7
 74
     1
 91
        4
 64
     7
 65
   257
 75
     1
175
     1
 42
1.0
 92
        8
 66
     7
 43
1.0
 76
     1
 77
     6
 78
     2
 67
     7
 79
     5
170
     0
171
     0
290
     0
174
     0
 93
        1
 44
50.0
173
     0
291
     1
 45
0.0
1001
ACAD
1000
AcDbSavedByObjectVersion
1070
     0
  0
VISUALSTYLE
  5
2445C
102
{ACAD_XDICTIONARY
360
244CB
102
}
102
{ACAD_REACTORS
330
2444C
102
}
330
2444C
100
AcDbVisualStyle
  2
ColorChange
 70
    16
 71
     2
 72
     2
 73
     3
 90
        0
 40
-0.6
 41
-30.0
 62
     5
 63
     8
 74
     1
 91
        4
 64
     7
 65
   257
 75
     1
175
     1
 42
1.0
 92
        8
 66
     8
 43
1.0
 76
     1
 77
     6
 78
     2
 67
     7
 79
     5
170
     0
171
     0
290
     0
174
     0
 93
        1
 44
0.0
173
     0
291
     1
 45
0.0
1001
ACAD
1000
AcDbSavedByObjectVersion
1070
     0
  0
VISUALSTYLE
  5
24455
102
{ACAD_XDICTIONARY
360
244BD
102
}
102
{ACAD_REACTORS
330
2444C
102
}
330
2444C
100
AcDbVisualStyle
  2
Conceptual
 70
     9
 71
     3
 72
     2
 73
     0
 90
        0
 40
-0.6
 41
-30.0
 62
     5
 63
     7
 74
     2
 91
        2
 64
     7
 65
   257
 75
     1
175
     1
 42
179.0
 92
        8
 66
     7
 43
1.0
 76
     1
 77
     6
 78
     2
 67
     7
 79
     3
170
     0
171
     0
290
     0
174
     0
 93
        1
 44
0.0
173
     0
291
     0
 45
0.0
1001
ACAD
1000
AcDbSavedByObjectVersion
1070
     0
  0
VISUALSTYLE
  5
24457
102
{ACAD_XDICTIONARY
360
244C1
102
}
102
{ACAD_REACTORS
330
2444C
102
}
330
2444C
100
AcDbVisualStyle
  2
Dim
 70
    11
 71
     2
 72
     2
 73
     0
 90
        0
 40
-0.6
 41
-30.0
 62
     5
 63
     7
 74
     1
 91
        4
 64
     7
 65
   257
 75
     1
175
     1
 42
1.0
 92
        8
 66
     7
 43
1.0
 76
     1
 77
     6
 78
     2
 67
     7
 79
     5
170
     0
171
     0
290
     0
174
     0
 93
        1
 44
-50.0
173
     0
291
     1
 45
0.0
1001
ACAD
1000
AcDbSavedByObjectVersion
1070
     0
  0
VISUALSTYLE
  5
24464
102
{ACAD_XDICTIONARY
360
244DB
102
}
102
{ACAD_REACTORS
330
2444C
102
}
330
2444C
100
AcDbVisualStyle
  2
EdgeColorOff
 70
    22
 71
     2
 72
     2
 73
     0
 90
        0
 40
-0.6
 41
-30.0
 62
     5
 63
     7
 74
     1
 91
        4
 64
     7
 65
   257
 75
     1
175
     1
 42
1.0
 92
        8
 66
     7
 43
1.0
 76
     1
 77
     6
 78
     2
 67
     7
 79
     5
170
     0
171
     0
290
     0
174
     0
 93
        1
 44
0.0
173
     0
291
     1
 45
0.0
1001
ACAD
1000
AcDbSavedByObjectVersion
1070
     0
  0
VISUALSTYLE
  5
2445B
102
{ACAD_XDICTIONARY
360
244C9
102
}
102
{ACAD_REACTORS
330
2444C
102
}
330
2444C
100
AcDbVisualStyle
  2
Facepattern
 70
    15
 71
     2
 72
     2
 73
     0
 90
        0
 40
-0.6
 41
-30.0
 62
     5
 63
     7
 74
     1
 91
        4
 64
     7
 65
   257
 75
     1
175
     1
 42
1.0
 92
        8
 66
     7
 43
1.0
 76
     1
 77
     6
 78
     2
 67
     7
 79
     5
170
     0
171
     0
290
     0
174
     0
 93
        1
 44
0.0
173
     0
291
     1
 45
0.0
1001
ACAD
1000
AcDbSavedByObjectVersion
1070
     0
  0
VISUALSTYLE
  5
2444D
102
{ACAD_XDICTIONARY
360
244AD
102
}
102
{ACAD_REACTORS
330
2444C
102
}
330
2444C
100
AcDbVisualStyle
  2
Flat
 70
     0
 71
     2
 72
     1
 73
     1
 90
        2
 40
-0.6
 41
30.0
 62
     5
 63
     7
 74
     0
 91
        0
 64
     7
 65
   257
 75
     1
175
     1
 42
1.0
 92
        8
 66
     7
 43
1.0
 76
     1
 77
     6
 78
     2
 67
     7
 79
     5
170
     0
171
     0
290
     0
174
     0
 93
       13
 44
0.0
173
     0
291
     1
 45
0.0
1001
ACAD
1000
AcDbSavedByObjectVersion
1070
     0
  0
VISUALSTYLE
  5
2444E
102
{ACAD_XDICTIONARY
360
244AF
102
}
102
{ACAD_REACTORS
330
2444C
102
}
330
2444C
100
AcDbVisualStyle
  2
FlatWithEdges
 70
     1
 71
     2
 72
     1
 73
     1
 90
        2
 40
-0.6
 41
30.0
 62
     5
 63
     7
 74
     1
 91
        0
 64
     7
 65
   257
 75
     1
175
     1
 42
1.0
 92
        0
 66
   257
 43
1.0
 76
     1
 77
     6
 78
     2
 67
     7
 79
     5
170
     0
171
     0
290
     0
174
     0
 93
       13
 44
0.0
173
     0
291
     1
 45
0.0
1001
ACAD
1000
AcDbSavedByObjectVersion
1070
     0
  0
VISUALSTYLE
  5
2444F
102
{ACAD_XDICTIONARY
360
244B1
102
}
102
{ACAD_REACTORS
330
2444C
102
}
330
2444C
100
AcDbVisualStyle
  2
Gouraud
 70
     2
 71
     2
 72
     2
 73
     1
 90
        2
 40
-0.6
 41
30.0
 62
     5
 63
     7
 74
     0
 91
        0
 64
     7
 65
   257
 75
     1
175
     1
 42
1.0
 92
        0
 66
     7
 43
1.0
 76
     1
 77
     6
 78
     2
 67
     7
 79
     5
170
     0
171
     0
290
     0
174
     0
 93
       13
 44
0.0
173
     0
291
     1
 45
0.0
1001
ACAD
1000
AcDbSavedByObjectVersion
1070
     0
  0
VISUALSTYLE
  5
24450
102
{ACAD_XDICTIONARY
360
244B3
102
}
102
{ACAD_REACTORS
330
2444C
102
}
330
2444C
100
AcDbVisualStyle
  2
GouraudWithEdges
 70
     3
 71
     2
 72
     2
 73
     1
 90
        2
 40
-0.6
 41
30.0
 62
     5
 63
     7
 74
     1
 91
        0
 64
     7
 65
   257
 75
     1
175
     1
 42
1.0
 92
        0
 66
   257
 43
1.0
 76
     1
 77
     6
 78
     2
 67
     7
 79
     5
170
     0
171
     0
290
     0
174
     0
 93
       13
 44
0.0
173
     0
291
     1
 45
0.0
1001
ACAD
1000
AcDbSavedByObjectVersion
1070
     0
  0
VISUALSTYLE
  5
24454
102
{ACAD_XDICTIONARY
360
244BB
102
}
102
{ACAD_REACTORS
330
2444C
102
}
330
2444C
100
AcDbVisualStyle
  2
Hidden
 70
     6
 71
     1
 72
     2
 73
     2
 90
        0
 40
-0.6
 41
-30.0
 62
     5
 63
     7
 74
     2
 91
        2
 64
     7
 65
   257
 75
     2
175
     1
 42
40.0
 92
        0
 66
   257
 43
1.0
 76
     1
 77
     6
 78
     2
 67
     7
 79
     3
170
     0
171
     0
290
     0
174
     0
 93
        1
 44
0.0
173
     0
291
     0
 45
0.0
1001
ACAD
1000
AcDbSavedByObjectVersion
1070
     0
  0
VISUALSTYLE
  5
24462
102
{ACAD_XDICTIONARY
360
244D7
102
}
102
{ACAD_REACTORS
330
2444C
102
}
330
2444C
100
AcDbVisualStyle
  2
JitterOff
 70
    20
 71
     2
 72
     2
 73
     0
 90
        0
 40
-0.6
 41
-30.0
 62
     5
 63
     7
 74
     1
 91
        4
 64
     7
 65
   257
 75
     1
175
     1
 42
1.0
 92
       10
 66
     7
 43
1.0
 76
     1
 77
     6
 78
     2
 67
     7
 79
     5
170
     0
171
     0
290
     0
174
     0
 93
        1
 44
0.0
173
     0
291
     1
 45
0.0
1001
ACAD
1000
AcDbSavedByObjectVersion
1070
     0
  0
VISUALSTYLE
  5
2445A
102
{ACAD_XDICTIONARY
360
244C7
102
}
102
{ACAD_REACTORS
330
2444C
102
}
330
2444C
100
AcDbVisualStyle
  2
Linepattern
 70
    14
 71
     2
 72
     2
 73
     0
 90
        0
 40
-0.6
 41
-30.0
 62
     5
 63
     7
 74
     1
 91
        4
 64
     7
 65
   257
 75
     7
175
     7
 42
1.0
 92
        8
 66
     7
 43
1.0
 76
     1
 77
     6
 78
     2
 67
     7
 79
     5
170
     0
171
     0
290
     0
174
     0
 93
        1
 44
0.0
173
     0
291
     1
 45
0.0
1001
ACAD
1000
AcDbSavedByObjectVersion
1070
     0
  0
VISUALSTYLE
  5
24463
102
{ACAD_XDICTIONARY
360
244D9
102
}
102
{ACAD_REACTORS
330
2444C
102
}
330
2444C
100
AcDbVisualStyle
  2
OverhangOff
 70
    21
 71
     2
 72
     2
 73
     0
 90
        0
 40
-0.6
 41
-30.0
 62
     5
 63
     7
 74
     1
 91
        4
 64
     7
 65
   257
 75
     1
175
     1
 42
1.0
 92
        9
 66
     7
 43
1.0
 76
     1
 77
     6
 78
     2
 67
     7
 79
     5
170
     0
171
     0
290
     0
174
     0
 93
        1
 44
0.0
173
     0
291
     1
 45
0.0
1001
ACAD
1000
AcDbSavedByObjectVersion
1070
     0
  0
VISUALSTYLE
  5
24456
102
{ACAD_XDICTIONARY
360
244BF
102
}
102
{ACAD_REACTORS
330
2444C
102
}
330
2444C
100
AcDbVisualStyle
  2
Realistic
 70
     8
 71
     2
 72
     3
 73
     0
 90
        2
 40
-0.6
 41
30.0
 62
     5
 63
     7
 74
     0
 91
        0
 64
     7
 65
   257
 75
     1
175
     1
 42
1.0
 92
        8
 66
   257
 43
1.0
 76
     1
 77
     6
 78
     2
 67
     7
 79
     3
170
     0
171
     0
290
     0
174
     0
 93
       13
 44
0.0
173
     0
291
     0
 45
0.0
1001
ACAD
1000
AcDbSavedByObjectVersion
1070
     0
  0
VISUALSTYLE
  5
24461
102
{ACAD_XDICTIONARY
360
244D5
102
}
102
{ACAD_REACTORS
330
2444C
102
}
330
2444C
100
AcDbVisualStyle
  2
Shaded
 70
    27
 71
     2
 72
     2
 73
     1
 90
        2
 40
-0.6
 41
30.0
 62
     5
 63
     7
 74
     0
 91
        4
 64
     7
 65
   257
 75
     1
175
     1
 42
1.0
 92
        8
 66
   257
 43
1.0
 76
     1
 77
     6
 78
     2
 67
     8
 79
     3
170
     0
171
     0
290
     0
174
     0
 93
        5
 44
0.0
173
     0
291
     0
 45
0.0
1001
ACAD
1000
AcDbSavedByObjectVersion
1070
     0
  0
VISUALSTYLE
  5
24460
102
{ACAD_XDICTIONARY
360
244D3
102
}
102
{ACAD_REACTORS
330
2444C
102
}
330
2444C
100
AcDbVisualStyle
  2
Shaded with edges
 70
    26
 71
     2
 72
     2
 73
     1
 90
        2
 40
-0.6
 41
30.0
 62
     5
 63
     7
 74
     1
 91
       10
 64
     7
 65
   257
 75
     2
175
     1
 42
1.0
 92
        8
 66
   257
 43
1.0
 76
     1
 77
     6
 78
     2
 67
     7
 79
     3
170
     0
171
     0
290
     0
174
     0
 93
        5
 44
0.0
173
     0
291
     0
 45
0.0
1001
ACAD
1000
AcDbSavedByObjectVersion
1070
     0
  0
VISUALSTYLE
  5
2445D
102
{ACAD_XDICTIONARY
360
244CD
102
}
102
{ACAD_REACTORS
330
2444C
102
}
330
2444C
100
AcDbVisualStyle
  2
Shades of Gray
 70
    23
 71
     2
 72
     2
 73
     3
 90
        0
 40
-0.6
 41
-30.0
 62
     5
 63
     7
 74
     2
 91
        2
 64
     7
 65
     7
 75
     1
175
     1
 42
40.0
 92
        8
 66
     7
 43
1.0
 76
     1
 77
     6
 78
     2
 67
     7
 79
     3
170
     0
171
     0
290
     0
174
     0
 93
        1
 44
0.0
173
     0
291
     0
 45
0.0
1001
ACAD
1000
AcDbSavedByObjectVersion
1070
     0
  0
VISUALSTYLE
  5
2445E
102
{ACAD_XDICTIONARY
360
244CF
102
}
102
{ACAD_REACTORS
330
2444C
102
}
330
2444C
100
AcDbVisualStyle
  2
Sketchy
 70
    24
 71
     1
 72
     2
 73
     2
 90
        0
 40
-0.6
 41
-30.0
 62
     5
 63
     7
 74
     2
 91
        2
 64
     7
 65
     7
 75
     1
175
     1
 42
40.0
 92
       11
 66
     7
 43
1.0
 76
     1
 77
     6
 78
     2
 67
     7
 79
     6
170
     0
171
     0
290
     0
174
     0
 93
        1
 44
0.0
173
     0
291
     0
 45
0.0
1001
ACAD
1000
AcDbSavedByObjectVersion
1070
     0
  0
VISUALSTYLE
  5
24459
102
{ACAD_XDICTIONARY
360
244C5
102
}
102
{ACAD_REACTORS
330
2444C
102
}
330
2444C
100
AcDbVisualStyle
  2
Thicken
 70
    13
 71
     2
 72
     2
 73
     0
 90
        0
 40
-0.6
 41
-30.0
 62
     5
 63
     7
 74
     1
 91
        4
 64
     7
 65
   257
 75
     1
175
     1
 42
1.0
 92
       12
 66
     7
 43
1.0
 76
     1
 77
     6
 78
     2
 67
     7
 79
     5
170
     0
171
     0
290
     0
174
     0
 93
        1
 44
0.0
173
     0
291
     1
 45
0.0
1001
ACAD
1000
AcDbSavedByObjectVersion
1070
     0
  0
VISUALSTYLE
  5
24453
102
{ACAD_XDICTIONARY
360
244B9
102
}
102
{ACAD_REACTORS
330
2444C
102
}
330
2444C
100
AcDbVisualStyle
  2
Wireframe
 70
     5
 71
     0
 72
     2
 73
     0
 90
        0
 40
-0.6
 41
-30.0
 62
     5
 63
     7
 74
     1
 91
        4
 64
     7
 65
   257
 75
     1
175
     1
 42
1.0
 92
        0
 66
   257
 43
1.0
 76
     1
 77
     6
 78
     2
 67
     7
 79
     3
170
     0
171
     0
290
     0
174
     0
 93
        1
 44
0.0
173
     0
291
     0
 45
0.0
1001
ACAD
1000
AcDbSavedByObjectVersion
1070
     0
  0
VISUALSTYLE
  5
2445F
102
{ACAD_XDICTIONARY
360
244D1
102
}
102
{ACAD_REACTORS
330
2444C
102
}
330
2444C
100
AcDbVisualStyle
  2
X-Ray
 70
    25
 71
     2
 72
     2
 73
     1
 90
        1
 40
0.5
 41
-30.0
 62
     5
 63
     7
 74
     1
 91
        0
 64
     7
 65
   257
 75
     1
175
     1
 42
1.0
 92
        8
 66
     7
 43
1.0
 76
     1
 77
     6
 78
     2
 67
     7
 79
     3
170
     0
171
     0
290
     0
174
     0
 93
       13
 44
0.0
173
     0
291
     0
 45
0.0
1001
ACAD
1000
AcDbSavedByObjectVersion
1070
     0
  0
DICTIONARYVAR
  5
2449D
102
{ACAD_REACTORS
330
24424
102
}
330
24424
100
DictionaryVariables
280
     0
  1
1:1
  0
DICTIONARYVAR
  5
2449A
102
{ACAD_REACTORS
330
24424
102
}
330
24424
100
DictionaryVariables
280
     0
  1
STANDARD
  0
DICTIONARYVAR
  5
24499
102
{ACAD_REACTORS
330
24424
102
}
330
24424
100
DictionaryVariables
280
     0
  1
STANDARD
  0
DICTIONARYVAR
  5
2449B
102
{ACAD_REACTORS
330
24424
102
}
330
24424
100
DictionaryVariables
280
     0
  1
Metric50
  0
DICTIONARYVAR
  5
2449C
102
{ACAD_REACTORS
330
24424
102
}
330
24424
100
DictionaryVariables
280
     0
  1
Metric50
  0
DICTIONARYVAR
  5
24425
102
{ACAD_REACTORS
330
24424
102
}
330
24424
100
DictionaryVariables
280
     0
  1
1
  0
DICTIONARYVAR
  5
2449F
102
{ACAD_REACTORS
330
24424
102
}
330
24424
100
DictionaryVariables
280
     0
  1
0
  0
DICTIONARYVAR
  5
24426
102
{ACAD_REACTORS
330
24424
102
}
330
24424
100
DictionaryVariables
280
     0
  1

  0
DICTIONARYVAR
  5
2449E
102
{ACAD_REACTORS
330
24424
102
}
330
24424
100
DictionaryVariables
280
     0
  1
127
  0
DICTIONARYVAR
  5
244A0
102
{ACAD_REACTORS
330
24424
102
}
330
24424
100
DictionaryVariables
280
     0
  1
2
  0
DICTIONARY
  5
244E1
330
2447E
100
AcDbDictionary
280
     1
281
     1
  3
ACAD_XREC_ROUNDTRIP
360
244E2
  0
DICTIONARY
  5
244A6
330
159B3
100
AcDbDictionary
280
     1
281
     1
  3
ACAD_XREC_ROUNDTRIP
360
244A7
  0
DICTIONARY
  5
244A8
330
159B4
100
AcDbDictionary
280
     1
281
     1
  3
ACAD_XREC_ROUNDTRIP
360
244A9
  0
DICTIONARY
  5
2443D
330
2443C
100
AcDbDictionary
280
     1
281
     1
  3
ACAD_XREC_ROUNDTRIP
360
244AB
  3
BUMPTILE
360
2443F
  3
DIFFUSETILE
360
2443E
  3
OPACITYTILE
360
24442
  3
REFLECTIONTILE
360
24441
  3
REFRACTIONTILE
360
24443
  3
SPECULARTILE
360
24440
  0
DICTIONARY
  5
24435
330
24434
100
AcDbDictionary
280
     1
281
     1
  3
ACAD_XREC_ROUNDTRIP
360
244AA
  3
BUMPTILE
360
24437
  3
DIFFUSETILE
360
24436
  3
OPACITYTILE
360
2443A
  3
REFLECTIONTILE
360
24439
  3
REFRACTIONTILE
360
2443B
  3
SPECULARTILE
360
24438
  0
DICTIONARY
  5
24445
330
24444
100
AcDbDictionary
280
     1
281
     1
  3
ACAD_XREC_ROUNDTRIP
360
244AC
  3
BUMPTILE
360
24447
  3
DIFFUSETILE
360
24446
  3
OPACITYTILE
360
2444A
  3
REFLECTIONTILE
360
24449
  3
REFRACTIONTILE
360
2444B
  3
SPECULARTILE
360
24448
  0
DICTIONARY
  5
244DF
330
2447C
100
AcDbDictionary
280
     1
281
     1
  3
ACAD_XREC_ROUNDTRIP
360
244E0
  0
DICTIONARY
  5
244A2
330
24466
100
AcDbDictionary
280
     1
281
     1
  3
ACAD_ROUNDTRIP_2008_TABLESTYLE_CELLSTYLEMAP
360
244A3
  3
ACAD_XREC_ROUNDTRIP
360
244DD
  0
DICTIONARY
  5
244B7
330
24452
100
AcDbDictionary
280
     1
281
     1
  3
ACAD_XREC_ROUNDTRIP
360
244B8
  0
DICTIONARY
  5
244B5
330
24451
100
AcDbDictionary
280
     1
281
     1
  3
ACAD_XREC_ROUNDTRIP
360
244B6
  0
DICTIONARY
  5
244C3
330
24458
100
AcDbDictionary
280
     1
281
     1
  3
ACAD_XREC_ROUNDTRIP
360
244C4
  0
DICTIONARY
  5
244CB
330
2445C
100
AcDbDictionary
280
     1
281
     1
  3
ACAD_XREC_ROUNDTRIP
360
244CC
  0
DICTIONARY
  5
244BD
330
24455
100
AcDbDictionary
280
     1
281
     1
  3
ACAD_XREC_ROUNDTRIP
360
244BE
  0
DICTIONARY
  5
244C1
330
24457
100
AcDbDictionary
280
     1
281
     1
  3
ACAD_XREC_ROUNDTRIP
360
244C2
  0
DICTIONARY
  5
244DB
330
24464
100
AcDbDictionary
280
     1
281
     1
  3
ACAD_XREC_ROUNDTRIP
360
244DC
  0
DICTIONARY
  5
244C9
330
2445B
100
AcDbDictionary
280
     1
281
     1
  3
ACAD_XREC_ROUNDTRIP
360
244CA
  0
DICTIONARY
  5
244AD
330
2444D
100
AcDbDictionary
280
     1
281
     1
  3
ACAD_XREC_ROUNDTRIP
360
244AE
  0
DICTIONARY
  5
244AF
330
2444E
100
AcDbDictionary
280
     1
281
     1
  3
ACAD_XREC_ROUNDTRIP
360
244B0
  0
DICTIONARY
  5
244B1
330
2444F
100
AcDbDictionary
280
     1
281
     1
  3
ACAD_XREC_ROUNDTRIP
360
244B2
  0
DICTIONARY
  5
244B3
330
24450
100
AcDbDictionary
280
     1
281
     1
  3
ACAD_XREC_ROUNDTRIP
360
244B4
  0
DICTIONARY
  5
244BB
330
24454
100
AcDbDictionary
280
     1
281
     1
  3
ACAD_XREC_ROUNDTRIP
360
244BC
  0
DICTIONARY
  5
244D7
330
24462
100
AcDbDictionary
280
     1
281
     1
  3
ACAD_XREC_ROUNDTRIP
360
244D8
  0
DICTIONARY
  5
244C7
330
2445A
100
AcDbDictionary
280
     1
281
     1
  3
ACAD_XREC_ROUNDTRIP
360
244C8
  0
DICTIONARY
  5
244D9
330
24463
100
AcDbDictionary
280
     1
281
     1
  3
ACAD_XREC_ROUNDTRIP
360
244DA
  0
DICTIONARY
  5
244BF
330
24456
100
AcDbDictionary
280
     1
281
     1
  3
ACAD_XREC_ROUNDTRIP
360
244C0
  0
DICTIONARY
  5
244D5
330
24461
100
AcDbDictionary
280
     1
281
     1
  3
ACAD_XREC_ROUNDTRIP
360
244D6
  0
DICTIONARY
  5
244D3
330
24460
100
AcDbDictionary
280
     1
281
     1
  3
ACAD_XREC_ROUNDTRIP
360
244D4
  0
DICTIONARY
  5
244CD
330
2445D
100
AcDbDictionary
280
     1
281
     1
  3
ACAD_XREC_ROUNDTRIP
360
244CE
  0
DICTIONARY
  5
244CF
330
2445E
100
AcDbDictionary
280
     1
281
     1
  3
ACAD_XREC_ROUNDTRIP
360
244D0
  0
DICTIONARY
  5
244C5
330
24459
100
AcDbDictionary
280
     1
281
     1
  3
ACAD_XREC_ROUNDTRIP
360
244C6
  0
DICTIONARY
  5
244B9
330
24453
100
AcDbDictionary
280
     1
281
     1
  3
ACAD_XREC_ROUNDTRIP
360
244BA
  0
DICTIONARY
  5
244D1
330
2445F
100
AcDbDictionary
280
     1
281
     1
  3
ACAD_XREC_ROUNDTRIP
360
244D2
  0
XRECORD
  5
244E2
102
{ACAD_REACTORS
330
244E1
102
}
330
244E1
100
AcDbXrecord
280
     1
102
DISPLAYNAME
  1
Metric50
102
FLAGS
 90
        0
  0
XRECORD
  5
244A7
102
{ACAD_REACTORS
330
244A6
102
}
330
244A6
100
AcDbXrecord
280
     1
102
SHADEPLOT
 70
     1
102
SHADEPLOTRESLEVEL
 70
     2
102
SHADEPLOTCUSTOMDPI
 70
   300
  0
XRECORD
  5
244A9
102
{ACAD_REACTORS
330
244A8
102
}
330
244A8
100
AcDbXrecord
280
     1
102
SHADEPLOT
 70
     0
102
SHADEPLOTRESLEVEL
 70
     2
102
SHADEPLOTCUSTOMDPI
 70
   300
  0
XRECORD
  5
244AB
102
{ACAD_REACTORS
330
2443D
102
}
330
2443D
100
AcDbXrecord
280
     1
102
MATERIAL
148
0.0
149
0.0
149
0.0
 93
        0
 94
      127
282
     0
 72
     0
 77
     0
171
     0
175
     0
179
     0
273
     0
  0
XRECORD
  5
2443F
102
{ACAD_REACTORS
330
2443D
102
}
330
2443D
100
AcDbXrecord
280
     1
270
     1
271
     1
  0
XRECORD
  5
2443E
102
{ACAD_REACTORS
330
2443D
102
}
330
2443D
100
AcDbXrecord
280
     1
270
     1
271
     1
  0
XRECORD
  5
24442
102
{ACAD_REACTORS
330
2443D
102
}
330
2443D
100
AcDbXrecord
280
     1
270
     1
271
     1
  0
XRECORD
  5
24441
102
{ACAD_REACTORS
330
2443D
102
}
330
2443D
100
AcDbXrecord
280
     1
270
     1
271
     1
  0
XRECORD
  5
24443
102
{ACAD_REACTORS
330
2443D
102
}
330
2443D
100
AcDbXrecord
280
     1
270
     1
271
     1
  0
XRECORD
  5
24440
102
{ACAD_REACTORS
330
2443D
102
}
330
2443D
100
AcDbXrecord
280
     1
270
     1
271
     1
  0
XRECORD
  5
244AA
102
{ACAD_REACTORS
330
24435
102
}
330
24435
100
AcDbXrecord
280
     1
102
MATERIAL
148
0.0
149
0.0
149
0.0
 93
        0
 94
      127
282
     0
 72
     0
 77
     0
171
     0
175
     0
179
     0
273
     0
  0
XRECORD
  5
24437
102
{ACAD_REACTORS
330
24435
102
}
330
24435
100
AcDbXrecord
280
     1
270
     1
271
     1
  0
XRECORD
  5
24436
102
{ACAD_REACTORS
330
24435
102
}
330
24435
100
AcDbXrecord
280
     1
270
     1
271
     1
  0
XRECORD
  5
2443A
102
{ACAD_REACTORS
330
24435
102
}
330
24435
100
AcDbXrecord
280
     1
270
     1
271
     1
  0
XRECORD
  5
24439
102
{ACAD_REACTORS
330
24435
102
}
330
24435
100
AcDbXrecord
280
     1
270
     1
271
     1
  0
XRECORD
  5
2443B
102
{ACAD_REACTORS
330
24435
102
}
330
24435
100
AcDbXrecord
280
     1
270
     1
271
     1
  0
XRECORD
  5
24438
102
{ACAD_REACTORS
330
24435
102
}
330
24435
100
AcDbXrecord
280
     1
270
     1
271
     1
  0
XRECORD
  5
244AC
102
{ACAD_REACTORS
330
24445
102
}
330
24445
100
AcDbXrecord
280
     1
102
MATERIAL
148
0.0
149
0.0
149
0.0
 93
        0
 94
      127
282
     0
 72
     0
 77
     0
171
     0
175
     0
179
     0
273
     0
  0
XRECORD
  5
24447
102
{ACAD_REACTORS
330
24445
102
}
330
24445
100
AcDbXrecord
280
     1
270
     1
271
     1
  0
XRECORD
  5
24446
102
{ACAD_REACTORS
330
24445
102
}
330
24445
100
AcDbXrecord
280
     1
270
     1
271
     1
  0
XRECORD
  5
2444A
102
{ACAD_REACTORS
330
24445
102
}
330
24445
100
AcDbXrecord
280
     1
270
     1
271
     1
  0
XRECORD
  5
24449
102
{ACAD_REACTORS
330
24445
102
}
330
24445
100
AcDbXrecord
280
     1
270
     1
271
     1
  0
XRECORD
  5
2444B
102
{ACAD_REACTORS
330
24445
102
}
330
24445
100
AcDbXrecord
280
     1
270
     1
271
     1
  0
XRECORD
  5
24448
102
{ACAD_REACTORS
330
24445
102
}
330
24445
100
AcDbXrecord
280
     1
270
     1
271
     1
  0
XRECORD
  5
244E0
102
{ACAD_REACTORS
330
244DF
102
}
330
244DF
100
AcDbXrecord
280
     1
102
DISPLAYNAME
  1
Metric50
102
FLAGS
 90
        0
  0
CELLSTYLEMAP
  5
244A3
102
{ACAD_REACTORS
330
244A2
102
}
330
244A2
100
AcDbCellStyleMap
 90
        3
300
CELLSTYLE
  1
TABLEFORMAT_BEGIN
 90
        5
170
     1
 91
        0
 92
    32768
 62
   257
 93
        1
300
CONTENTFORMAT
  1
CONTENTFORMAT_BEGIN
 90
        0
 91
        0
 92
      512
 93
        0
300

 40
0.0
140
1.0
 94
        5
 62
     0
340
7475
144
6.0
309
CONTENTFORMAT_END
171
     1
301
MARGIN
  1
CELLMARGIN_BEGIN
 40
1.5
 40
1.5
 40
1.5
 40
1.5
 40
4.5
 40
4.5
309
CELLMARGIN_END
 94
        6
 95
        1
302
GRIDFORMAT
  1
GRIDFORMAT_BEGIN
 90
        0
 91
        1
 62
     0
 92
       -2
340
0
 93
        0
 40
1.125
309
GRIDFORMAT_END
 95
        2
302
GRIDFORMAT
  1
GRIDFORMAT_BEGIN
 90
        0
 91
        1
 62
     0
 92
       -2
340
0
 93
        0
 40
1.125
309
GRIDFORMAT_END
 95
        4
302
GRIDFORMAT
  1
GRIDFORMAT_BEGIN
 90
        0
 91
        1
 62
     0
 92
       -2
340
0
 93
        0
 40
1.125
309
GRIDFORMAT_END
 95
        8
302
GRIDFORMAT
  1
GRIDFORMAT_BEGIN
 90
        0
 91
        1
 62
     0
 92
       -2
340
0
 93
        0
 40
1.125
309
GRIDFORMAT_END
 95
       16
302
GRIDFORMAT
  1
GRIDFORMAT_BEGIN
 90
        0
 91
        1
 62
     0
 92
       -2
340
0
 93
        0
 40
1.125
309
GRIDFORMAT_END
 95
       32
302
GRIDFORMAT
  1
GRIDFORMAT_BEGIN
 90
        0
 91
        1
 62
     0
 92
       -2
340
0
 93
        0
 40
1.125
309
GRIDFORMAT_END
309
TABLEFORMAT_END
  1
CELLSTYLE_BEGIN
 90
        1
 91
        1
300
_TITLE
309
CELLSTYLE_END
300
CELLSTYLE
  1
TABLEFORMAT_BEGIN
 90
        5
170
     1
 91
        0
 92
        0
 62
   257
 93
        1
300
CONTENTFORMAT
  1
CONTENTFORMAT_BEGIN
 90
        0
 91
        0
 92
      512
 93
        0
300

 40
0.0
140
1.0
 94
        5
 62
     0
340
7475
144
4.5
309
CONTENTFORMAT_END
171
     1
301
MARGIN
  1
CELLMARGIN_BEGIN
 40
1.5
 40
1.5
 40
1.5
 40
1.5
 40
4.5
 40
4.5
309
CELLMARGIN_END
 94
        6
 95
        1
302
GRIDFORMAT
  1
GRIDFORMAT_BEGIN
 90
        0
 91
        1
 62
     0
 92
       -2
340
0
 93
        0
 40
1.125
309
GRIDFORMAT_END
 95
        2
302
GRIDFORMAT
  1
GRIDFORMAT_BEGIN
 90
        0
 91
        1
 62
     0
 92
       -2
340
0
 93
        0
 40
1.125
309
GRIDFORMAT_END
 95
        4
302
GRIDFORMAT
  1
GRIDFORMAT_BEGIN
 90
        0
 91
        1
 62
     0
 92
       -2
340
0
 93
        0
 40
1.125
309
GRIDFORMAT_END
 95
        8
302
GRIDFORMAT
  1
GRIDFORMAT_BEGIN
 90
        0
 91
        1
 62
     0
 92
       -2
340
0
 93
        0
 40
1.125
309
GRIDFORMAT_END
 95
       16
302
GRIDFORMAT
  1
GRIDFORMAT_BEGIN
 90
        0
 91
        1
 62
     0
 92
       -2
340
0
 93
        0
 40
1.125
309
GRIDFORMAT_END
 95
       32
302
GRIDFORMAT
  1
GRIDFORMAT_BEGIN
 90
        0
 91
        1
 62
     0
 92
       -2
340
0
 93
        0
 40
1.125
309
GRIDFORMAT_END
309
TABLEFORMAT_END
  1
CELLSTYLE_BEGIN
 90
        2
 91
        1
300
_HEADER
309
CELLSTYLE_END
300
CELLSTYLE
  1
TABLEFORMAT_BEGIN
 90
        5
170
     1
 91
        0
 92
        0
 62
   257
 93
        1
300
CONTENTFORMAT
  1
CONTENTFORMAT_BEGIN
 90
        0
 91
        0
 92
      512
 93
        0
300

 40
0.0
140
1.0
 94
        2
 62
     0
340
7475
144
4.5
309
CONTENTFORMAT_END
171
     1
301
MARGIN
  1
CELLMARGIN_BEGIN
 40
1.5
 40
1.5
 40
1.5
 40
1.5
 40
4.5
 40
4.5
309
CELLMARGIN_END
 94
        6
 95
        1
302
GRIDFORMAT
  1
GRIDFORMAT_BEGIN
 90
        0
 91
        1
 62
     0
 92
       -2
340
0
 93
        0
 40
1.125
309
GRIDFORMAT_END
 95
        2
302
GRIDFORMAT
  1
GRIDFORMAT_BEGIN
 90
        0
 91
        1
 62
     0
 92
       -2
340
0
 93
        0
 40
1.125
309
GRIDFORMAT_END
 95
        4
302
GRIDFORMAT
  1
GRIDFORMAT_BEGIN
 90
        0
 91
        1
 62
     0
 92
       -2
340
0
 93
        0
 40
1.125
309
GRIDFORMAT_END
 95
        8
302
GRIDFORMAT
  1
GRIDFORMAT_BEGIN
 90
        0
 91
        1
 62
     0
 92
       -2
340
0
 93
        0
 40
1.125
309
GRIDFORMAT_END
 95
       16
302
GRIDFORMAT
  1
GRIDFORMAT_BEGIN
 90
        0
 91
        1
 62
     0
 92
       -2
340
0
 93
        0
 40
1.125
309
GRIDFORMAT_END
 95
       32
302
GRIDFORMAT
  1
GRIDFORMAT_BEGIN
 90
        0
 91
        1
 62
     0
 92
       -2
340
0
 93
        0
 40
1.125
309
GRIDFORMAT_END
309
TABLEFORMAT_END
  1
CELLSTYLE_BEGIN
 90
        3
 91
        2
300
_DATA
309
CELLSTYLE_END
  0
XRECORD
  5
244DD
102
{ACAD_REACTORS
330
244A2
102
}
330
244A2
100
AcDbXrecord
280
     1
102
ACAD_ROUNDTRIP_PRE2007_TABLESTYLE
 90
      512
 91
        0
  1

 92
      512
 93
        0
  2

 94
      512
 95
        0
  3

  0
XRECORD
  5
244B8
102
{ACAD_REACTORS
330
244B7
102
}
330
244B7
100
AcDbXrecord
280
     1
102
RTVSPost2010Prop28
280
     1
102
RTVSPost2010PropOp28
 70
     1
102
RTVSPost2010Prop29
280
     1
102
RTVSPost2010PropOp29
 70
     1
102
RTVSPost2010Prop30
280
     0
102
RTVSPost2010PropOp30
 70
     1
102
RTVSPost2010Prop31
280
     0
102
RTVSPost2010PropOp31
 70
     1
102
RTVSPost2010Prop32
280
     0
102
RTVSPost2010PropOp32
 70
     1
102
RTVSPost2010Prop33
280
     0
102
RTVSPost2010PropOp33
 70
     1
102
RTVSPost2010Prop34
280
     0
102
RTVSPost2010PropOp34
 70
     1
102
RTVSPost2010Prop35
280
     0
102
RTVSPost2010PropOp35
 70
     1
102
RTVSPost2010Prop36
280
     0
102
RTVSPost2010PropOp36
 70
     1
102
RTVSPost2010Prop37
 90
       50
102
RTVSPost2010PropOp37
 70
     1
102
RTVSPost2010Prop38
140
0.0
102
RTVSPost2010PropOp38
 70
     1
102
RTVSPost2010Prop39
140
1.0
102
RTVSPost2010PropOp39
 70
     1
102
RTVSPost2010Prop40
 90
        0
102
RTVSPost2010PropOp40
 70
     1
102
RTVSPost2010Prop41ColorIndex
 90
       18
102
RTVSPost2010Prop41ColorRGB
 90
        0
102
RTVSPost2010PropOp41
 70
     1
102
RTVSPost2010Prop42
 90
       50
102
RTVSPost2010PropOp42
 70
     1
102
RTVSPost2010Prop43
 90
        3
102
RTVSPost2010PropOp43
 70
     1
102
RTVSPost2010Prop44ColorIndex
 90
        5
102
RTVSPost2010Prop44ColorRGB
 90
      255
102
RTVSPost2010PropOp44
 70
     1
102
RTVSPost2010Prop45
280
     0
102
RTVSPost2010PropOp45
 70
     1
102
RTVSPost2010Prop46
 90
       50
102
RTVSPost2010PropOp46
 70
     1
102
RTVSPost2010Prop47
 90
       50
102
RTVSPost2010PropOp47
 70
     1
102
RTVSPost2010Prop48
 90
       50
102
RTVSPost2010PropOp48
 70
     1
102
RTVSPost2010Prop49
280
     0
102
RTVSPost2010PropOp49
 70
     1
102
RTVSPost2010Prop50
 90
       50
102
RTVSPost2010PropOp50
 70
     1
102
RTVSPost2010Prop51ColorIndex
 90
      256
102
RTVSPost2010Prop51ColorRGB
 90
-16777216
102
RTVSPost2010PropOp51
 70
     0
102
RTVSPost2010Prop52
140
1.0
102
RTVSPost2010PropOp52
 70
     0
102
RTVSPost2010Prop53
 90
        2
102
RTVSPost2010PropOp53
 70
     1
102
RTVSPost2010Prop54
  1
strokes_ogs.tif
102
RTVSPost2010PropOp54
 70
     1
102
RTVSPost2010Prop55
280
     0
102
RTVSPost2010PropOp55
 70
     1
102
RTVSPost2010Prop56
140
1.0
102
RTVSPost2010PropOp56
 70
     1
102
RTVSPost2010Prop57
140
1.0
102
RTVSPost2010PropOp57
 70
     1
102
RTVSPropertyOp0
 70
     1
102
RTVSPropertyOp1
 70
     1
102
RTVSPropertyOp2
 70
     1
102
RTVSPropertyOp3
 70
     1
102
RTVSPropertyOp4
 70
     1
102
RTVSPropertyOp5
 70
     1
102
RTVSPropertyOp6
 70
     1
102
RTVSPropertyOp7
 70
     1
102
RTVSPropertyOp8
 70
     1
102
RTVSPropertyOp9
 70
     1
102
RTVSPropertyOp10
 70
     1
102
RTVSPropertyOp11
 70
     1
102
RTVSPropertyOp12
 70
     1
102
RTVSPropertyOp13
 70
     1
102
RTVSPropertyOp14
 70
     1
102
RTVSPropertyOp15
 70
     1
102
RTVSPropertyOp16
 70
     1
102
RTVSPropertyOp17
 70
     1
102
RTVSPropertyOp18
 70
     1
102
RTVSPropertyOp19
 70
     1
102
RTVSPropertyOp20
 70
     1
102
RTVSPropertyOp21
 70
     1
102
RTVSPropertyOp22
 70
     1
102
RTVSPropertyOp23
 70
     1
102
RTVSPropertyOp24
 70
     1
102
RTVSPropertyOp25
 70
     1
102
RTVSPropertyOp26
 70
     1
102
RTVSPropertyOp27
 70
     1
102
RTVSPropertyOp28
 70
     1
102
RTVSPropertyOp29
 70
     1
102
RTVSPropertyOp30
 70
     1
102
RTVSPropertyOp31
 70
     1
102
RTVSPropertyOp32
 70
     1
102
RTVSPropertyOp33
 70
     1
102
RTVSPropertyOp34
 70
     1
102
RTVSPropertyOp35
 70
     1
102
RTVSPropertyOp36
 70
     1
102
RTVSPropertyOp37
 70
     1
102
RTVSPropertyOp38
 70
     1
102
RTVSPropertyOp39
 70
     1
102
RTVSPropertyOp40
 70
     1
102
RTVSPropertyOp41
 70
     1
102
RTVSPropertyOp42
 70
     1
102
RTVSPropertyOp43
 70
     1
102
RTVSPropertyOp44
 70
     1
102
RTVSPropertyOp45
 70
     1
102
RTVSPropertyOp46
 70
     1
102
RTVSPropertyOp47
 70
     1
102
RTVSPropertyOp48
 70
     1
102
RTVSPropertyOp49
 70
     1
102
RTVSPropertyOp50
 70
     1
102
RTVSPropertyOp51
 70
     0
102
RTVSPropertyOp52
 70
     0
102
RTVSPropertyOp53
 70
     1
102
RTVSPropertyOp54
 70
     1
102
RTVSPropertyOp55
 70
     1
102
RTVSPropertyOp56
 70
     1
102
RTVSPropertyOp57
 70
     1
102
RTVSPropertyOp58
 70
     1
102
RTVSPropertyOp59
 70
     1
102
RTVSPropertyOp60
 70
     1
102
RTVSPropertyOp61
 70
     1
102
RTVSPropertyOp62
 70
     1
  0
XRECORD
  5
244B6
102
{ACAD_REACTORS
330
244B5
102
}
330
244B5
100
AcDbXrecord
280
     1
102
RTVSPost2010Prop28
280
     0
102
RTVSPost2010PropOp28
 70
     1
102
RTVSPost2010Prop29
280
     1
102
RTVSPost2010PropOp29
 70
     1
102
RTVSPost2010Prop30
280
     1
102
RTVSPost2010PropOp30
 70
     1
102
RTVSPost2010Prop31
280
     0
102
RTVSPost2010PropOp31
 70
     1
102
RTVSPost2010Prop32
280
     0
102
RTVSPost2010PropOp32
 70
     1
102
RTVSPost2010Prop33
280
     0
102
RTVSPost2010PropOp33
 70
     1
102
RTVSPost2010Prop34
280
     0
102
RTVSPost2010PropOp34
 70
     1
102
RTVSPost2010Prop35
280
     0
102
RTVSPost2010PropOp35
 70
     1
102
RTVSPost2010Prop36
280
     0
102
RTVSPost2010PropOp36
 70
     1
102
RTVSPost2010Prop37
 90
       50
102
RTVSPost2010PropOp37
 70
     1
102
RTVSPost2010Prop38
140
0.0
102
RTVSPost2010PropOp38
 70
     1
102
RTVSPost2010Prop39
140
1.0
102
RTVSPost2010PropOp39
 70
     1
102
RTVSPost2010Prop40
 90
        0
102
RTVSPost2010PropOp40
 70
     1
102
RTVSPost2010Prop41ColorIndex
 90
       18
102
RTVSPost2010Prop41ColorRGB
 90
        0
102
RTVSPost2010PropOp41
 70
     1
102
RTVSPost2010Prop42
 90
       50
102
RTVSPost2010PropOp42
 70
     1
102
RTVSPost2010Prop43
 90
        3
102
RTVSPost2010PropOp43
 70
     1
102
RTVSPost2010Prop44ColorIndex
 90
        5
102
RTVSPost2010Prop44ColorRGB
 90
      255
102
RTVSPost2010PropOp44
 70
     1
102
RTVSPost2010Prop45
280
     0
102
RTVSPost2010PropOp45
 70
     1
102
RTVSPost2010Prop46
 90
       50
102
RTVSPost2010PropOp46
 70
     1
102
RTVSPost2010Prop47
 90
       50
102
RTVSPost2010PropOp47
 70
     1
102
RTVSPost2010Prop48
 90
       50
102
RTVSPost2010PropOp48
 70
     1
102
RTVSPost2010Prop49
280
     0
102
RTVSPost2010PropOp49
 70
     1
102
RTVSPost2010Prop50
 90
       50
102
RTVSPost2010PropOp50
 70
     1
102
RTVSPost2010Prop51ColorIndex
 90
      256
102
RTVSPost2010Prop51ColorRGB
 90
-16777216
102
RTVSPost2010PropOp51
 70
     0
102
RTVSPost2010Prop52
140
1.0
102
RTVSPost2010PropOp52
 70
     0
102
RTVSPost2010Prop53
 90
        2
102
RTVSPost2010PropOp53
 70
     1
102
RTVSPost2010Prop54
  1
strokes_ogs.tif
102
RTVSPost2010PropOp54
 70
     1
102
RTVSPost2010Prop55
280
     0
102
RTVSPost2010PropOp55
 70
     1
102
RTVSPost2010Prop56
140
1.0
102
RTVSPost2010PropOp56
 70
     1
102
RTVSPost2010Prop57
140
1.0
102
RTVSPost2010PropOp57
 70
     1
102
RTVSPropertyOp0
 70
     1
102
RTVSPropertyOp1
 70
     1
102
RTVSPropertyOp2
 70
     1
102
RTVSPropertyOp3
 70
     1
102
RTVSPropertyOp4
 70
     1
102
RTVSPropertyOp5
 70
     1
102
RTVSPropertyOp6
 70
     1
102
RTVSPropertyOp7
 70
     1
102
RTVSPropertyOp8
 70
     1
102
RTVSPropertyOp9
 70
     1
102
RTVSPropertyOp10
 70
     1
102
RTVSPropertyOp11
 70
     1
102
RTVSPropertyOp12
 70
     1
102
RTVSPropertyOp13
 70
     1
102
RTVSPropertyOp14
 70
     1
102
RTVSPropertyOp15
 70
     1
102
RTVSPropertyOp16
 70
     1
102
RTVSPropertyOp17
 70
     1
102
RTVSPropertyOp18
 70
     1
102
RTVSPropertyOp19
 70
     1
102
RTVSPropertyOp20
 70
     1
102
RTVSPropertyOp21
 70
     1
102
RTVSPropertyOp22
 70
     1
102
RTVSPropertyOp23
 70
     1
102
RTVSPropertyOp24
 70
     1
102
RTVSPropertyOp25
 70
     1
102
RTVSPropertyOp26
 70
     1
102
RTVSPropertyOp27
 70
     1
102
RTVSPropertyOp28
 70
     1
102
RTVSPropertyOp29
 70
     1
102
RTVSPropertyOp30
 70
     1
102
RTVSPropertyOp31
 70
     1
102
RTVSPropertyOp32
 70
     1
102
RTVSPropertyOp33
 70
     1
102
RTVSPropertyOp34
 70
     1
102
RTVSPropertyOp35
 70
     1
102
RTVSPropertyOp36
 70
     1
102
RTVSPropertyOp37
 70
     1
102
RTVSPropertyOp38
 70
     1
102
RTVSPropertyOp39
 70
     1
102
RTVSPropertyOp40
 70
     1
102
RTVSPropertyOp41
 70
     1
102
RTVSPropertyOp42
 70
     1
102
RTVSPropertyOp43
 70
     1
102
RTVSPropertyOp44
 70
     1
102
RTVSPropertyOp45
 70
     1
102
RTVSPropertyOp46
 70
     1
102
RTVSPropertyOp47
 70
     1
102
RTVSPropertyOp48
 70
     1
102
RTVSPropertyOp49
 70
     1
102
RTVSPropertyOp50
 70
     1
102
RTVSPropertyOp51
 70
     0
102
RTVSPropertyOp52
 70
     0
102
RTVSPropertyOp53
 70
     1
102
RTVSPropertyOp54
 70
     1
102
RTVSPropertyOp55
 70
     1
102
RTVSPropertyOp56
 70
     1
102
RTVSPropertyOp57
 70
     1
102
RTVSPropertyOp58
 70
     1
102
RTVSPropertyOp59
 70
     1
102
RTVSPropertyOp60
 70
     1
102
RTVSPropertyOp61
 70
     1
102
RTVSPropertyOp62
 70
     1
  0
XRECORD
  5
244C4
102
{ACAD_REACTORS
330
244C3
102
}
330
244C3
100
AcDbXrecord
280
     1
102
RTVSPost2010Prop28
280
     0
102
RTVSPost2010PropOp28
 70
     1
102
RTVSPost2010Prop29
280
     1
102
RTVSPost2010PropOp29
 70
     1
102
RTVSPost2010Prop30
280
     1
102
RTVSPost2010PropOp30
 70
     1
102
RTVSPost2010Prop31
280
     0
102
RTVSPost2010PropOp31
 70
     1
102
RTVSPost2010Prop32
280
     0
102
RTVSPost2010PropOp32
 70
     1
102
RTVSPost2010Prop33
280
     0
102
RTVSPost2010PropOp33
 70
     1
102
RTVSPost2010Prop34
280
     0
102
RTVSPost2010PropOp34
 70
     1
102
RTVSPost2010Prop35
280
     0
102
RTVSPost2010PropOp35
 70
     1
102
RTVSPost2010Prop36
280
     0
102
RTVSPost2010PropOp36
 70
     1
102
RTVSPost2010Prop37
 90
       50
102
RTVSPost2010PropOp37
 70
     1
102
RTVSPost2010Prop38
140
0.0
102
RTVSPost2010PropOp38
 70
     1
102
RTVSPost2010Prop39
140
1.0
102
RTVSPost2010PropOp39
 70
     1
102
RTVSPost2010Prop40
 90
        0
102
RTVSPost2010PropOp40
 70
     1
102
RTVSPost2010Prop41ColorIndex
 90
       18
102
RTVSPost2010Prop41ColorRGB
 90
        0
102
RTVSPost2010PropOp41
 70
     1
102
RTVSPost2010Prop42
 90
       50
102
RTVSPost2010PropOp42
 70
     1
102
RTVSPost2010Prop43
 90
        3
102
RTVSPost2010PropOp43
 70
     1
102
RTVSPost2010Prop44ColorIndex
 90
        5
102
RTVSPost2010Prop44ColorRGB
 90
      255
102
RTVSPost2010PropOp44
 70
     1
102
RTVSPost2010Prop45
280
     0
102
RTVSPost2010PropOp45
 70
     1
102
RTVSPost2010Prop46
 90
       50
102
RTVSPost2010PropOp46
 70
     1
102
RTVSPost2010Prop47
 90
       50
102
RTVSPost2010PropOp47
 70
     1
102
RTVSPost2010Prop48
 90
       50
102
RTVSPost2010PropOp48
 70
     1
102
RTVSPost2010Prop49
280
     0
102
RTVSPost2010PropOp49
 70
     1
102
RTVSPost2010Prop50
 90
       50
102
RTVSPost2010PropOp50
 70
     1
102
RTVSPost2010Prop51ColorIndex
 90
      256
102
RTVSPost2010Prop51ColorRGB
 90
-16777216
102
RTVSPost2010PropOp51
 70
     0
102
RTVSPost2010Prop52
140
1.0
102
RTVSPost2010PropOp52
 70
     0
102
RTVSPost2010Prop53
 90
        2
102
RTVSPost2010PropOp53
 70
     1
102
RTVSPost2010Prop54
  1
strokes_ogs.tif
102
RTVSPost2010PropOp54
 70
     1
102
RTVSPost2010Prop55
280
     0
102
RTVSPost2010PropOp55
 70
     1
102
RTVSPost2010Prop56
140
1.0
102
RTVSPost2010PropOp56
 70
     1
102
RTVSPost2010Prop57
140
1.0
102
RTVSPost2010PropOp57
 70
     1
102
RTVSPropertyOp0
 70
     1
102
RTVSPropertyOp1
 70
     1
102
RTVSPropertyOp2
 70
     1
102
RTVSPropertyOp3
 70
     1
102
RTVSPropertyOp4
 70
     1
102
RTVSPropertyOp5
 70
     1
102
RTVSPropertyOp6
 70
     1
102
RTVSPropertyOp7
 70
     1
102
RTVSPropertyOp8
 70
     1
102
RTVSPropertyOp9
 70
     1
102
RTVSPropertyOp10
 70
     1
102
RTVSPropertyOp11
 70
     1
102
RTVSPropertyOp12
 70
     1
102
RTVSPropertyOp13
 70
     1
102
RTVSPropertyOp14
 70
     1
102
RTVSPropertyOp15
 70
     1
102
RTVSPropertyOp16
 70
     1
102
RTVSPropertyOp17
 70
     1
102
RTVSPropertyOp18
 70
     1
102
RTVSPropertyOp19
 70
     1
102
RTVSPropertyOp20
 70
     1
102
RTVSPropertyOp21
 70
     1
102
RTVSPropertyOp22
 70
     1
102
RTVSPropertyOp23
 70
     1
102
RTVSPropertyOp24
 70
     1
102
RTVSPropertyOp25
 70
     1
102
RTVSPropertyOp26
 70
     1
102
RTVSPropertyOp27
 70
     1
102
RTVSPropertyOp28
 70
     1
102
RTVSPropertyOp29
 70
     1
102
RTVSPropertyOp30
 70
     1
102
RTVSPropertyOp31
 70
     1
102
RTVSPropertyOp32
 70
     1
102
RTVSPropertyOp33
 70
     1
102
RTVSPropertyOp34
 70
     1
102
RTVSPropertyOp35
 70
     1
102
RTVSPropertyOp36
 70
     1
102
RTVSPropertyOp37
 70
     1
102
RTVSPropertyOp38
 70
     1
102
RTVSPropertyOp39
 70
     1
102
RTVSPropertyOp40
 70
     1
102
RTVSPropertyOp41
 70
     1
102
RTVSPropertyOp42
 70
     1
102
RTVSPropertyOp43
 70
     1
102
RTVSPropertyOp44
 70
     1
102
RTVSPropertyOp45
 70
     1
102
RTVSPropertyOp46
 70
     1
102
RTVSPropertyOp47
 70
     1
102
RTVSPropertyOp48
 70
     1
102
RTVSPropertyOp49
 70
     1
102
RTVSPropertyOp50
 70
     1
102
RTVSPropertyOp51
 70
     0
102
RTVSPropertyOp52
 70
     0
102
RTVSPropertyOp53
 70
     1
102
RTVSPropertyOp54
 70
     1
102
RTVSPropertyOp55
 70
     1
102
RTVSPropertyOp56
 70
     1
102
RTVSPropertyOp57
 70
     1
102
RTVSPropertyOp58
 70
     1
102
RTVSPropertyOp59
 70
     1
102
RTVSPropertyOp60
 70
     1
102
RTVSPropertyOp61
 70
     1
102
RTVSPropertyOp62
 70
     1
  0
XRECORD
  5
244CC
102
{ACAD_REACTORS
330
244CB
102
}
330
244CB
100
AcDbXrecord
280
     1
102
RTVSPost2010Prop28
280
     0
102
RTVSPost2010PropOp28
 70
     1
102
RTVSPost2010Prop29
280
     1
102
RTVSPost2010PropOp29
 70
     1
102
RTVSPost2010Prop30
280
     1
102
RTVSPost2010PropOp30
 70
     1
102
RTVSPost2010Prop31
280
     0
102
RTVSPost2010PropOp31
 70
     1
102
RTVSPost2010Prop32
280
     0
102
RTVSPost2010PropOp32
 70
     1
102
RTVSPost2010Prop33
280
     0
102
RTVSPost2010PropOp33
 70
     1
102
RTVSPost2010Prop34
280
     0
102
RTVSPost2010PropOp34
 70
     1
102
RTVSPost2010Prop35
280
     0
102
RTVSPost2010PropOp35
 70
     1
102
RTVSPost2010Prop36
280
     0
102
RTVSPost2010PropOp36
 70
     1
102
RTVSPost2010Prop37
 90
       50
102
RTVSPost2010PropOp37
 70
     1
102
RTVSPost2010Prop38
140
0.0
102
RTVSPost2010PropOp38
 70
     1
102
RTVSPost2010Prop39
140
1.0
102
RTVSPost2010PropOp39
 70
     1
102
RTVSPost2010Prop40
 90
        0
102
RTVSPost2010PropOp40
 70
     1
102
RTVSPost2010Prop41ColorIndex
 90
       18
102
RTVSPost2010Prop41ColorRGB
 90
        0
102
RTVSPost2010PropOp41
 70
     1
102
RTVSPost2010Prop42
 90
       50
102
RTVSPost2010PropOp42
 70
     1
102
RTVSPost2010Prop43
 90
        3
102
RTVSPost2010PropOp43
 70
     1
102
RTVSPost2010Prop44ColorIndex
 90
        5
102
RTVSPost2010Prop44ColorRGB
 90
      255
102
RTVSPost2010PropOp44
 70
     1
102
RTVSPost2010Prop45
280
     0
102
RTVSPost2010PropOp45
 70
     1
102
RTVSPost2010Prop46
 90
       50
102
RTVSPost2010PropOp46
 70
     1
102
RTVSPost2010Prop47
 90
       50
102
RTVSPost2010PropOp47
 70
     1
102
RTVSPost2010Prop48
 90
       50
102
RTVSPost2010PropOp48
 70
     1
102
RTVSPost2010Prop49
280
     0
102
RTVSPost2010PropOp49
 70
     1
102
RTVSPost2010Prop50
 90
       50
102
RTVSPost2010PropOp50
 70
     1
102
RTVSPost2010Prop51ColorIndex
 90
      256
102
RTVSPost2010Prop51ColorRGB
 90
-16777216
102
RTVSPost2010PropOp51
 70
     0
102
RTVSPost2010Prop52
140
1.0
102
RTVSPost2010PropOp52
 70
     0
102
RTVSPost2010Prop53
 90
        2
102
RTVSPost2010PropOp53
 70
     1
102
RTVSPost2010Prop54
  1
strokes_ogs.tif
102
RTVSPost2010PropOp54
 70
     1
102
RTVSPost2010Prop55
280
     0
102
RTVSPost2010PropOp55
 70
     1
102
RTVSPost2010Prop56
140
1.0
102
RTVSPost2010PropOp56
 70
     1
102
RTVSPost2010Prop57
140
1.0
102
RTVSPost2010PropOp57
 70
     1
102
RTVSPropertyOp0
 70
     1
102
RTVSPropertyOp1
 70
     1
102
RTVSPropertyOp2
 70
     1
102
RTVSPropertyOp3
 70
     1
102
RTVSPropertyOp4
 70
     1
102
RTVSPropertyOp5
 70
     1
102
RTVSPropertyOp6
 70
     1
102
RTVSPropertyOp7
 70
     1
102
RTVSPropertyOp8
 70
     1
102
RTVSPropertyOp9
 70
     1
102
RTVSPropertyOp10
 70
     1
102
RTVSPropertyOp11
 70
     1
102
RTVSPropertyOp12
 70
     1
102
RTVSPropertyOp13
 70
     1
102
RTVSPropertyOp14
 70
     1
102
RTVSPropertyOp15
 70
     1
102
RTVSPropertyOp16
 70
     1
102
RTVSPropertyOp17
 70
     1
102
RTVSPropertyOp18
 70
     1
102
RTVSPropertyOp19
 70
     1
102
RTVSPropertyOp20
 70
     1
102
RTVSPropertyOp21
 70
     1
102
RTVSPropertyOp22
 70
     1
102
RTVSPropertyOp23
 70
     1
102
RTVSPropertyOp24
 70
     1
102
RTVSPropertyOp25
 70
     1
102
RTVSPropertyOp26
 70
     1
102
RTVSPropertyOp27
 70
     1
102
RTVSPropertyOp28
 70
     1
102
RTVSPropertyOp29
 70
     1
102
RTVSPropertyOp30
 70
     1
102
RTVSPropertyOp31
 70
     1
102
RTVSPropertyOp32
 70
     1
102
RTVSPropertyOp33
 70
     1
102
RTVSPropertyOp34
 70
     1
102
RTVSPropertyOp35
 70
     1
102
RTVSPropertyOp36
 70
     1
102
RTVSPropertyOp37
 70
     1
102
RTVSPropertyOp38
 70
     1
102
RTVSPropertyOp39
 70
     1
102
RTVSPropertyOp40
 70
     1
102
RTVSPropertyOp41
 70
     1
102
RTVSPropertyOp42
 70
     1
102
RTVSPropertyOp43
 70
     1
102
RTVSPropertyOp44
 70
     1
102
RTVSPropertyOp45
 70
     1
102
RTVSPropertyOp46
 70
     1
102
RTVSPropertyOp47
 70
     1
102
RTVSPropertyOp48
 70
     1
102
RTVSPropertyOp49
 70
     1
102
RTVSPropertyOp50
 70
     1
102
RTVSPropertyOp51
 70
     0
102
RTVSPropertyOp52
 70
     0
102
RTVSPropertyOp53
 70
     1
102
RTVSPropertyOp54
 70
     1
102
RTVSPropertyOp55
 70
     1
102
RTVSPropertyOp56
 70
     1
102
RTVSPropertyOp57
 70
     1
102
RTVSPropertyOp58
 70
     1
102
RTVSPropertyOp59
 70
     1
102
RTVSPropertyOp60
 70
     1
102
RTVSPropertyOp61
 70
     1
102
RTVSPropertyOp62
 70
     1
  0
XRECORD
  5
244BE
102
{ACAD_REACTORS
330
244BD
102
}
330
244BD
100
AcDbXrecord
280
     1
102
RTVSPost2010Prop28
280
     0
102
RTVSPost2010PropOp28
 70
     1
102
RTVSPost2010Prop29
280
     1
102
RTVSPost2010PropOp29
 70
     1
102
RTVSPost2010Prop30
280
     1
102
RTVSPost2010PropOp30
 70
     1
102
RTVSPost2010Prop31
280
     0
102
RTVSPost2010PropOp31
 70
     1
102
RTVSPost2010Prop32
280
     0
102
RTVSPost2010PropOp32
 70
     1
102
RTVSPost2010Prop33
280
     0
102
RTVSPost2010PropOp33
 70
     1
102
RTVSPost2010Prop34
280
     0
102
RTVSPost2010PropOp34
 70
     1
102
RTVSPost2010Prop35
280
     0
102
RTVSPost2010PropOp35
 70
     1
102
RTVSPost2010Prop36
280
     0
102
RTVSPost2010PropOp36
 70
     1
102
RTVSPost2010Prop37
 90
       50
102
RTVSPost2010PropOp37
 70
     1
102
RTVSPost2010Prop38
140
0.0
102
RTVSPost2010PropOp38
 70
     1
102
RTVSPost2010Prop39
140
1.0
102
RTVSPost2010PropOp39
 70
     1
102
RTVSPost2010Prop40
 90
        0
102
RTVSPost2010PropOp40
 70
     1
102
RTVSPost2010Prop41ColorIndex
 90
       18
102
RTVSPost2010Prop41ColorRGB
 90
        0
102
RTVSPost2010PropOp41
 70
     1
102
RTVSPost2010Prop42
 90
       50
102
RTVSPost2010PropOp42
 70
     1
102
RTVSPost2010Prop43
 90
        3
102
RTVSPost2010PropOp43
 70
     1
102
RTVSPost2010Prop44ColorIndex
 90
        5
102
RTVSPost2010Prop44ColorRGB
 90
      255
102
RTVSPost2010PropOp44
 70
     1
102
RTVSPost2010Prop45
280
     0
102
RTVSPost2010PropOp45
 70
     1
102
RTVSPost2010Prop46
 90
       50
102
RTVSPost2010PropOp46
 70
     1
102
RTVSPost2010Prop47
 90
       50
102
RTVSPost2010PropOp47
 70
     1
102
RTVSPost2010Prop48
 90
       50
102
RTVSPost2010PropOp48
 70
     1
102
RTVSPost2010Prop49
280
     0
102
RTVSPost2010PropOp49
 70
     1
102
RTVSPost2010Prop50
 90
       50
102
RTVSPost2010PropOp50
 70
     1
102
RTVSPost2010Prop51ColorIndex
 90
      256
102
RTVSPost2010Prop51ColorRGB
 90
-16777216
102
RTVSPost2010PropOp51
 70
     0
102
RTVSPost2010Prop52
140
1.0
102
RTVSPost2010PropOp52
 70
     0
102
RTVSPost2010Prop53
 90
        2
102
RTVSPost2010PropOp53
 70
     1
102
RTVSPost2010Prop54
  1
strokes_ogs.tif
102
RTVSPost2010PropOp54
 70
     1
102
RTVSPost2010Prop55
280
     0
102
RTVSPost2010PropOp55
 70
     1
102
RTVSPost2010Prop56
140
1.0
102
RTVSPost2010PropOp56
 70
     1
102
RTVSPost2010Prop57
140
1.0
102
RTVSPost2010PropOp57
 70
     1
102
RTVSPropertyOp0
 70
     1
102
RTVSPropertyOp1
 70
     1
102
RTVSPropertyOp2
 70
     1
102
RTVSPropertyOp3
 70
     1
102
RTVSPropertyOp4
 70
     1
102
RTVSPropertyOp5
 70
     1
102
RTVSPropertyOp6
 70
     1
102
RTVSPropertyOp7
 70
     1
102
RTVSPropertyOp8
 70
     1
102
RTVSPropertyOp9
 70
     1
102
RTVSPropertyOp10
 70
     1
102
RTVSPropertyOp11
 70
     1
102
RTVSPropertyOp12
 70
     1
102
RTVSPropertyOp13
 70
     1
102
RTVSPropertyOp14
 70
     1
102
RTVSPropertyOp15
 70
     1
102
RTVSPropertyOp16
 70
     1
102
RTVSPropertyOp17
 70
     1
102
RTVSPropertyOp18
 70
     1
102
RTVSPropertyOp19
 70
     1
102
RTVSPropertyOp20
 70
     1
102
RTVSPropertyOp21
 70
     1
102
RTVSPropertyOp22
 70
     1
102
RTVSPropertyOp23
 70
     1
102
RTVSPropertyOp24
 70
     1
102
RTVSPropertyOp25
 70
     1
102
RTVSPropertyOp26
 70
     1
102
RTVSPropertyOp27
 70
     1
102
RTVSPropertyOp28
 70
     1
102
RTVSPropertyOp29
 70
     1
102
RTVSPropertyOp30
 70
     1
102
RTVSPropertyOp31
 70
     1
102
RTVSPropertyOp32
 70
     1
102
RTVSPropertyOp33
 70
     1
102
RTVSPropertyOp34
 70
     1
102
RTVSPropertyOp35
 70
     1
102
RTVSPropertyOp36
 70
     1
102
RTVSPropertyOp37
 70
     1
102
RTVSPropertyOp38
 70
     1
102
RTVSPropertyOp39
 70
     1
102
RTVSPropertyOp40
 70
     1
102
RTVSPropertyOp41
 70
     1
102
RTVSPropertyOp42
 70
     1
102
RTVSPropertyOp43
 70
     1
102
RTVSPropertyOp44
 70
     1
102
RTVSPropertyOp45
 70
     1
102
RTVSPropertyOp46
 70
     1
102
RTVSPropertyOp47
 70
     1
102
RTVSPropertyOp48
 70
     1
102
RTVSPropertyOp49
 70
     1
102
RTVSPropertyOp50
 70
     1
102
RTVSPropertyOp51
 70
     0
102
RTVSPropertyOp52
 70
     0
102
RTVSPropertyOp53
 70
     1
102
RTVSPropertyOp54
 70
     1
102
RTVSPropertyOp55
 70
     1
102
RTVSPropertyOp56
 70
     1
102
RTVSPropertyOp57
 70
     1
102
RTVSPropertyOp58
 70
     1
102
RTVSPropertyOp59
 70
     1
102
RTVSPropertyOp60
 70
     1
102
RTVSPropertyOp61
 70
     1
102
RTVSPropertyOp62
 70
     1
  0
XRECORD
  5
244C2
102
{ACAD_REACTORS
330
244C1
102
}
330
244C1
100
AcDbXrecord
280
     1
102
RTVSPost2010Prop28
280
     0
102
RTVSPost2010PropOp28
 70
     1
102
RTVSPost2010Prop29
280
     1
102
RTVSPost2010PropOp29
 70
     1
102
RTVSPost2010Prop30
280
     1
102
RTVSPost2010PropOp30
 70
     1
102
RTVSPost2010Prop31
280
     0
102
RTVSPost2010PropOp31
 70
     1
102
RTVSPost2010Prop32
280
     0
102
RTVSPost2010PropOp32
 70
     1
102
RTVSPost2010Prop33
280
     0
102
RTVSPost2010PropOp33
 70
     1
102
RTVSPost2010Prop34
280
     0
102
RTVSPost2010PropOp34
 70
     1
102
RTVSPost2010Prop35
280
     0
102
RTVSPost2010PropOp35
 70
     1
102
RTVSPost2010Prop36
280
     0
102
RTVSPost2010PropOp36
 70
     1
102
RTVSPost2010Prop37
 90
       50
102
RTVSPost2010PropOp37
 70
     1
102
RTVSPost2010Prop38
140
0.0
102
RTVSPost2010PropOp38
 70
     1
102
RTVSPost2010Prop39
140
1.0
102
RTVSPost2010PropOp39
 70
     1
102
RTVSPost2010Prop40
 90
        0
102
RTVSPost2010PropOp40
 70
     1
102
RTVSPost2010Prop41ColorIndex
 90
       18
102
RTVSPost2010Prop41ColorRGB
 90
        0
102
RTVSPost2010PropOp41
 70
     1
102
RTVSPost2010Prop42
 90
       50
102
RTVSPost2010PropOp42
 70
     1
102
RTVSPost2010Prop43
 90
        3
102
RTVSPost2010PropOp43
 70
     1
102
RTVSPost2010Prop44ColorIndex
 90
        5
102
RTVSPost2010Prop44ColorRGB
 90
      255
102
RTVSPost2010PropOp44
 70
     1
102
RTVSPost2010Prop45
280
     0
102
RTVSPost2010PropOp45
 70
     1
102
RTVSPost2010Prop46
 90
       50
102
RTVSPost2010PropOp46
 70
     1
102
RTVSPost2010Prop47
 90
       50
102
RTVSPost2010PropOp47
 70
     1
102
RTVSPost2010Prop48
 90
       50
102
RTVSPost2010PropOp48
 70
     1
102
RTVSPost2010Prop49
280
     0
102
RTVSPost2010PropOp49
 70
     1
102
RTVSPost2010Prop50
 90
       50
102
RTVSPost2010PropOp50
 70
     1
102
RTVSPost2010Prop51ColorIndex
 90
      256
102
RTVSPost2010Prop51ColorRGB
 90
-16777216
102
RTVSPost2010PropOp51
 70
     0
102
RTVSPost2010Prop52
140
1.0
102
RTVSPost2010PropOp52
 70
     0
102
RTVSPost2010Prop53
 90
        2
102
RTVSPost2010PropOp53
 70
     1
102
RTVSPost2010Prop54
  1
strokes_ogs.tif
102
RTVSPost2010PropOp54
 70
     1
102
RTVSPost2010Prop55
280
     0
102
RTVSPost2010PropOp55
 70
     1
102
RTVSPost2010Prop56
140
1.0
102
RTVSPost2010PropOp56
 70
     1
102
RTVSPost2010Prop57
140
1.0
102
RTVSPost2010PropOp57
 70
     1
102
RTVSPropertyOp0
 70
     1
102
RTVSPropertyOp1
 70
     1
102
RTVSPropertyOp2
 70
     1
102
RTVSPropertyOp3
 70
     1
102
RTVSPropertyOp4
 70
     1
102
RTVSPropertyOp5
 70
     1
102
RTVSPropertyOp6
 70
     1
102
RTVSPropertyOp7
 70
     1
102
RTVSPropertyOp8
 70
     1
102
RTVSPropertyOp9
 70
     1
102
RTVSPropertyOp10
 70
     1
102
RTVSPropertyOp11
 70
     1
102
RTVSPropertyOp12
 70
     1
102
RTVSPropertyOp13
 70
     1
102
RTVSPropertyOp14
 70
     1
102
RTVSPropertyOp15
 70
     1
102
RTVSPropertyOp16
 70
     1
102
RTVSPropertyOp17
 70
     1
102
RTVSPropertyOp18
 70
     1
102
RTVSPropertyOp19
 70
     1
102
RTVSPropertyOp20
 70
     1
102
RTVSPropertyOp21
 70
     1
102
RTVSPropertyOp22
 70
     1
102
RTVSPropertyOp23
 70
     1
102
RTVSPropertyOp24
 70
     1
102
RTVSPropertyOp25
 70
     1
102
RTVSPropertyOp26
 70
     1
102
RTVSPropertyOp27
 70
     1
102
RTVSPropertyOp28
 70
     1
102
RTVSPropertyOp29
 70
     1
102
RTVSPropertyOp30
 70
     1
102
RTVSPropertyOp31
 70
     1
102
RTVSPropertyOp32
 70
     1
102
RTVSPropertyOp33
 70
     1
102
RTVSPropertyOp34
 70
     1
102
RTVSPropertyOp35
 70
     1
102
RTVSPropertyOp36
 70
     1
102
RTVSPropertyOp37
 70
     1
102
RTVSPropertyOp38
 70
     1
102
RTVSPropertyOp39
 70
     1
102
RTVSPropertyOp40
 70
     1
102
RTVSPropertyOp41
 70
     1
102
RTVSPropertyOp42
 70
     1
102
RTVSPropertyOp43
 70
     1
102
RTVSPropertyOp44
 70
     1
102
RTVSPropertyOp45
 70
     1
102
RTVSPropertyOp46
 70
     1
102
RTVSPropertyOp47
 70
     1
102
RTVSPropertyOp48
 70
     1
102
RTVSPropertyOp49
 70
     1
102
RTVSPropertyOp50
 70
     1
102
RTVSPropertyOp51
 70
     0
102
RTVSPropertyOp52
 70
     0
102
RTVSPropertyOp53
 70
     1
102
RTVSPropertyOp54
 70
     1
102
RTVSPropertyOp55
 70
     1
102
RTVSPropertyOp56
 70
     1
102
RTVSPropertyOp57
 70
     1
102
RTVSPropertyOp58
 70
     1
102
RTVSPropertyOp59
 70
     1
102
RTVSPropertyOp60
 70
     1
102
RTVSPropertyOp61
 70
     1
102
RTVSPropertyOp62
 70
     1
  0
XRECORD
  5
244DC
102
{ACAD_REACTORS
330
244DB
102
}
330
244DB
100
AcDbXrecord
280
     1
102
RTVSPost2010Prop28
280
     0
102
RTVSPost2010PropOp28
 70
     1
102
RTVSPost2010Prop29
280
     1
102
RTVSPost2010PropOp29
 70
     1
102
RTVSPost2010Prop30
280
     1
102
RTVSPost2010PropOp30
 70
     1
102
RTVSPost2010Prop31
280
     0
102
RTVSPost2010PropOp31
 70
     1
102
RTVSPost2010Prop32
280
     0
102
RTVSPost2010PropOp32
 70
     1
102
RTVSPost2010Prop33
280
     0
102
RTVSPost2010PropOp33
 70
     1
102
RTVSPost2010Prop34
280
     0
102
RTVSPost2010PropOp34
 70
     1
102
RTVSPost2010Prop35
280
     0
102
RTVSPost2010PropOp35
 70
     1
102
RTVSPost2010Prop36
280
     0
102
RTVSPost2010PropOp36
 70
     1
102
RTVSPost2010Prop37
 90
       50
102
RTVSPost2010PropOp37
 70
     0
102
RTVSPost2010Prop38
140
0.0
102
RTVSPost2010PropOp38
 70
     0
102
RTVSPost2010Prop39
140
1.0
102
RTVSPost2010PropOp39
 70
     0
102
RTVSPost2010Prop40
 90
        0
102
RTVSPost2010PropOp40
 70
     0
102
RTVSPost2010Prop41ColorIndex
 90
       18
102
RTVSPost2010Prop41ColorRGB
 90
        0
102
RTVSPost2010PropOp41
 70
     0
102
RTVSPost2010Prop42
 90
       50
102
RTVSPost2010PropOp42
 70
     0
102
RTVSPost2010Prop43
 90
        3
102
RTVSPost2010PropOp43
 70
     0
102
RTVSPost2010Prop44ColorIndex
 90
        5
102
RTVSPost2010Prop44ColorRGB
 90
      255
102
RTVSPost2010PropOp44
 70
     0
102
RTVSPost2010Prop45
280
     0
102
RTVSPost2010PropOp45
 70
     1
102
RTVSPost2010Prop46
 90
       50
102
RTVSPost2010PropOp46
 70
     0
102
RTVSPost2010Prop47
 90
       50
102
RTVSPost2010PropOp47
 70
     0
102
RTVSPost2010Prop48
 90
       50
102
RTVSPost2010PropOp48
 70
     0
102
RTVSPost2010Prop49
280
     0
102
RTVSPost2010PropOp49
 70
     1
102
RTVSPost2010Prop50
 90
       50
102
RTVSPost2010PropOp50
 70
     0
102
RTVSPost2010Prop51ColorIndex
 90
      256
102
RTVSPost2010Prop51ColorRGB
 90
-16777216
102
RTVSPost2010PropOp51
 70
     0
102
RTVSPost2010Prop52
140
1.0
102
RTVSPost2010PropOp52
 70
     0
102
RTVSPost2010Prop53
 90
        2
102
RTVSPost2010PropOp53
 70
     0
102
RTVSPost2010Prop54
  1
strokes_ogs.tif
102
RTVSPost2010PropOp54
 70
     0
102
RTVSPost2010Prop55
280
     0
102
RTVSPost2010PropOp55
 70
     1
102
RTVSPost2010Prop56
140
1.0
102
RTVSPost2010PropOp56
 70
     0
102
RTVSPost2010Prop57
140
1.0
102
RTVSPost2010PropOp57
 70
     0
102
RTVSPropertyOp0
 70
     0
102
RTVSPropertyOp1
 70
     0
102
RTVSPropertyOp2
 70
     0
102
RTVSPropertyOp3
 70
     0
102
RTVSPropertyOp4
 70
     0
102
RTVSPropertyOp5
 70
     0
102
RTVSPropertyOp6
 70
     0
102
RTVSPropertyOp7
 70
     0
102
RTVSPropertyOp8
 70
     0
102
RTVSPropertyOp9
 70
     0
102
RTVSPropertyOp10
 70
     0
102
RTVSPropertyOp11
 70
     0
102
RTVSPropertyOp12
 70
     0
102
RTVSPropertyOp13
 70
     0
102
RTVSPropertyOp14
 70
     2
102
RTVSPropertyOp15
 70
     0
102
RTVSPropertyOp16
 70
     0
102
RTVSPropertyOp17
 70
     0
102
RTVSPropertyOp18
 70
     0
102
RTVSPropertyOp19
 70
     0
102
RTVSPropertyOp20
 70
     0
102
RTVSPropertyOp21
 70
     0
102
RTVSPropertyOp22
 70
     0
102
RTVSPropertyOp23
 70
     0
102
RTVSPropertyOp24
 70
     0
102
RTVSPropertyOp25
 70
     0
102
RTVSPropertyOp26
 70
     0
102
RTVSPropertyOp27
 70
     0
102
RTVSPropertyOp28
 70
     1
102
RTVSPropertyOp29
 70
     1
102
RTVSPropertyOp30
 70
     1
102
RTVSPropertyOp31
 70
     1
102
RTVSPropertyOp32
 70
     1
102
RTVSPropertyOp33
 70
     1
102
RTVSPropertyOp34
 70
     1
102
RTVSPropertyOp35
 70
     1
102
RTVSPropertyOp36
 70
     1
102
RTVSPropertyOp37
 70
     0
102
RTVSPropertyOp38
 70
     0
102
RTVSPropertyOp39
 70
     0
102
RTVSPropertyOp40
 70
     0
102
RTVSPropertyOp41
 70
     0
102
RTVSPropertyOp42
 70
     0
102
RTVSPropertyOp43
 70
     0
102
RTVSPropertyOp44
 70
     0
102
RTVSPropertyOp45
 70
     1
102
RTVSPropertyOp46
 70
     0
102
RTVSPropertyOp47
 70
     0
102
RTVSPropertyOp48
 70
     0
102
RTVSPropertyOp49
 70
     1
102
RTVSPropertyOp50
 70
     0
102
RTVSPropertyOp51
 70
     0
102
RTVSPropertyOp52
 70
     0
102
RTVSPropertyOp53
 70
     0
102
RTVSPropertyOp54
 70
     0
102
RTVSPropertyOp55
 70
     1
102
RTVSPropertyOp56
 70
     0
102
RTVSPropertyOp57
 70
     0
102
RTVSPropertyOp58
 70
     0
102
RTVSPropertyOp59
 70
     0
102
RTVSPropertyOp60
 70
     0
102
RTVSPropertyOp61
 70
     0
102
RTVSPropertyOp62
 70
     0
  0
XRECORD
  5
244CA
102
{ACAD_REACTORS
330
244C9
102
}
330
244C9
100
AcDbXrecord
280
     1
102
RTVSPost2010Prop28
280
     0
102
RTVSPost2010PropOp28
 70
     1
102
RTVSPost2010Prop29
280
     1
102
RTVSPost2010PropOp29
 70
     1
102
RTVSPost2010Prop30
280
     1
102
RTVSPost2010PropOp30
 70
     1
102
RTVSPost2010Prop31
280
     0
102
RTVSPost2010PropOp31
 70
     1
102
RTVSPost2010Prop32
280
     0
102
RTVSPost2010PropOp32
 70
     1
102
RTVSPost2010Prop33
280
     0
102
RTVSPost2010PropOp33
 70
     1
102
RTVSPost2010Prop34
280
     0
102
RTVSPost2010PropOp34
 70
     1
102
RTVSPost2010Prop35
280
     0
102
RTVSPost2010PropOp35
 70
     1
102
RTVSPost2010Prop36
280
     0
102
RTVSPost2010PropOp36
 70
     1
102
RTVSPost2010Prop37
 90
       50
102
RTVSPost2010PropOp37
 70
     1
102
RTVSPost2010Prop38
140
0.0
102
RTVSPost2010PropOp38
 70
     1
102
RTVSPost2010Prop39
140
1.0
102
RTVSPost2010PropOp39
 70
     1
102
RTVSPost2010Prop40
 90
        0
102
RTVSPost2010PropOp40
 70
     1
102
RTVSPost2010Prop41ColorIndex
 90
       18
102
RTVSPost2010Prop41ColorRGB
 90
        0
102
RTVSPost2010PropOp41
 70
     1
102
RTVSPost2010Prop42
 90
       50
102
RTVSPost2010PropOp42
 70
     1
102
RTVSPost2010Prop43
 90
        3
102
RTVSPost2010PropOp43
 70
     1
102
RTVSPost2010Prop44ColorIndex
 90
        5
102
RTVSPost2010Prop44ColorRGB
 90
      255
102
RTVSPost2010PropOp44
 70
     1
102
RTVSPost2010Prop45
280
     0
102
RTVSPost2010PropOp45
 70
     1
102
RTVSPost2010Prop46
 90
       50
102
RTVSPost2010PropOp46
 70
     1
102
RTVSPost2010Prop47
 90
       50
102
RTVSPost2010PropOp47
 70
     1
102
RTVSPost2010Prop48
 90
       50
102
RTVSPost2010PropOp48
 70
     1
102
RTVSPost2010Prop49
280
     0
102
RTVSPost2010PropOp49
 70
     1
102
RTVSPost2010Prop50
 90
       50
102
RTVSPost2010PropOp50
 70
     1
102
RTVSPost2010Prop51ColorIndex
 90
      256
102
RTVSPost2010Prop51ColorRGB
 90
-16777216
102
RTVSPost2010PropOp51
 70
     0
102
RTVSPost2010Prop52
140
1.0
102
RTVSPost2010PropOp52
 70
     0
102
RTVSPost2010Prop53
 90
        2
102
RTVSPost2010PropOp53
 70
     1
102
RTVSPost2010Prop54
  1
strokes_ogs.tif
102
RTVSPost2010PropOp54
 70
     1
102
RTVSPost2010Prop55
280
     0
102
RTVSPost2010PropOp55
 70
     1
102
RTVSPost2010Prop56
140
1.0
102
RTVSPost2010PropOp56
 70
     1
102
RTVSPost2010Prop57
140
1.0
102
RTVSPost2010PropOp57
 70
     1
102
RTVSPropertyOp0
 70
     1
102
RTVSPropertyOp1
 70
     1
102
RTVSPropertyOp2
 70
     1
102
RTVSPropertyOp3
 70
     1
102
RTVSPropertyOp4
 70
     1
102
RTVSPropertyOp5
 70
     1
102
RTVSPropertyOp6
 70
     1
102
RTVSPropertyOp7
 70
     1
102
RTVSPropertyOp8
 70
     1
102
RTVSPropertyOp9
 70
     1
102
RTVSPropertyOp10
 70
     1
102
RTVSPropertyOp11
 70
     1
102
RTVSPropertyOp12
 70
     1
102
RTVSPropertyOp13
 70
     1
102
RTVSPropertyOp14
 70
     1
102
RTVSPropertyOp15
 70
     1
102
RTVSPropertyOp16
 70
     1
102
RTVSPropertyOp17
 70
     1
102
RTVSPropertyOp18
 70
     1
102
RTVSPropertyOp19
 70
     1
102
RTVSPropertyOp20
 70
     1
102
RTVSPropertyOp21
 70
     1
102
RTVSPropertyOp22
 70
     1
102
RTVSPropertyOp23
 70
     1
102
RTVSPropertyOp24
 70
     1
102
RTVSPropertyOp25
 70
     1
102
RTVSPropertyOp26
 70
     1
102
RTVSPropertyOp27
 70
     1
102
RTVSPropertyOp28
 70
     1
102
RTVSPropertyOp29
 70
     1
102
RTVSPropertyOp30
 70
     1
102
RTVSPropertyOp31
 70
     1
102
RTVSPropertyOp32
 70
     1
102
RTVSPropertyOp33
 70
     1
102
RTVSPropertyOp34
 70
     1
102
RTVSPropertyOp35
 70
     1
102
RTVSPropertyOp36
 70
     1
102
RTVSPropertyOp37
 70
     1
102
RTVSPropertyOp38
 70
     1
102
RTVSPropertyOp39
 70
     1
102
RTVSPropertyOp40
 70
     1
102
RTVSPropertyOp41
 70
     1
102
RTVSPropertyOp42
 70
     1
102
RTVSPropertyOp43
 70
     1
102
RTVSPropertyOp44
 70
     1
102
RTVSPropertyOp45
 70
     1
102
RTVSPropertyOp46
 70
     1
102
RTVSPropertyOp47
 70
     1
102
RTVSPropertyOp48
 70
     1
102
RTVSPropertyOp49
 70
     1
102
RTVSPropertyOp50
 70
     1
102
RTVSPropertyOp51
 70
     0
102
RTVSPropertyOp52
 70
     0
102
RTVSPropertyOp53
 70
     1
102
RTVSPropertyOp54
 70
     1
102
RTVSPropertyOp55
 70
     1
102
RTVSPropertyOp56
 70
     1
102
RTVSPropertyOp57
 70
     1
102
RTVSPropertyOp58
 70
     1
102
RTVSPropertyOp59
 70
     1
102
RTVSPropertyOp60
 70
     1
102
RTVSPropertyOp61
 70
     1
102
RTVSPropertyOp62
 70
     1
  0
XRECORD
  5
244AE
102
{ACAD_REACTORS
330
244AD
102
}
330
244AD
100
AcDbXrecord
280
     1
102
RTVSPost2010Prop28
280
     0
102
RTVSPost2010PropOp28
 70
     1
102
RTVSPost2010Prop29
280
     1
102
RTVSPost2010PropOp29
 70
     1
102
RTVSPost2010Prop30
280
     1
102
RTVSPost2010PropOp30
 70
     1
102
RTVSPost2010Prop31
280
     0
102
RTVSPost2010PropOp31
 70
     1
102
RTVSPost2010Prop32
280
     0
102
RTVSPost2010PropOp32
 70
     1
102
RTVSPost2010Prop33
280
     0
102
RTVSPost2010PropOp33
 70
     1
102
RTVSPost2010Prop34
280
     0
102
RTVSPost2010PropOp34
 70
     1
102
RTVSPost2010Prop35
280
     0
102
RTVSPost2010PropOp35
 70
     1
102
RTVSPost2010Prop36
280
     0
102
RTVSPost2010PropOp36
 70
     1
102
RTVSPost2010Prop37
 90
       50
102
RTVSPost2010PropOp37
 70
     1
102
RTVSPost2010Prop38
140
0.0
102
RTVSPost2010PropOp38
 70
     1
102
RTVSPost2010Prop39
140
1.0
102
RTVSPost2010PropOp39
 70
     1
102
RTVSPost2010Prop40
 90
        0
102
RTVSPost2010PropOp40
 70
     1
102
RTVSPost2010Prop41ColorIndex
 90
       18
102
RTVSPost2010Prop41ColorRGB
 90
        0
102
RTVSPost2010PropOp41
 70
     1
102
RTVSPost2010Prop42
 90
       50
102
RTVSPost2010PropOp42
 70
     1
102
RTVSPost2010Prop43
 90
        3
102
RTVSPost2010PropOp43
 70
     1
102
RTVSPost2010Prop44ColorIndex
 90
        5
102
RTVSPost2010Prop44ColorRGB
 90
      255
102
RTVSPost2010PropOp44
 70
     1
102
RTVSPost2010Prop45
280
     0
102
RTVSPost2010PropOp45
 70
     1
102
RTVSPost2010Prop46
 90
       50
102
RTVSPost2010PropOp46
 70
     1
102
RTVSPost2010Prop47
 90
       50
102
RTVSPost2010PropOp47
 70
     1
102
RTVSPost2010Prop48
 90
       50
102
RTVSPost2010PropOp48
 70
     1
102
RTVSPost2010Prop49
280
     0
102
RTVSPost2010PropOp49
 70
     1
102
RTVSPost2010Prop50
 90
       50
102
RTVSPost2010PropOp50
 70
     1
102
RTVSPost2010Prop51ColorIndex
 90
      256
102
RTVSPost2010Prop51ColorRGB
 90
-16777216
102
RTVSPost2010PropOp51
 70
     0
102
RTVSPost2010Prop52
140
1.0
102
RTVSPost2010PropOp52
 70
     0
102
RTVSPost2010Prop53
 90
        2
102
RTVSPost2010PropOp53
 70
     1
102
RTVSPost2010Prop54
  1
strokes_ogs.tif
102
RTVSPost2010PropOp54
 70
     1
102
RTVSPost2010Prop55
280
     0
102
RTVSPost2010PropOp55
 70
     1
102
RTVSPost2010Prop56
140
1.0
102
RTVSPost2010PropOp56
 70
     1
102
RTVSPost2010Prop57
140
1.0
102
RTVSPost2010PropOp57
 70
     1
102
RTVSPropertyOp0
 70
     1
102
RTVSPropertyOp1
 70
     1
102
RTVSPropertyOp2
 70
     1
102
RTVSPropertyOp3
 70
     1
102
RTVSPropertyOp4
 70
     1
102
RTVSPropertyOp5
 70
     1
102
RTVSPropertyOp6
 70
     1
102
RTVSPropertyOp7
 70
     1
102
RTVSPropertyOp8
 70
     1
102
RTVSPropertyOp9
 70
     1
102
RTVSPropertyOp10
 70
     1
102
RTVSPropertyOp11
 70
     1
102
RTVSPropertyOp12
 70
     1
102
RTVSPropertyOp13
 70
     1
102
RTVSPropertyOp14
 70
     1
102
RTVSPropertyOp15
 70
     1
102
RTVSPropertyOp16
 70
     1
102
RTVSPropertyOp17
 70
     1
102
RTVSPropertyOp18
 70
     1
102
RTVSPropertyOp19
 70
     1
102
RTVSPropertyOp20
 70
     1
102
RTVSPropertyOp21
 70
     1
102
RTVSPropertyOp22
 70
     1
102
RTVSPropertyOp23
 70
     1
102
RTVSPropertyOp24
 70
     1
102
RTVSPropertyOp25
 70
     1
102
RTVSPropertyOp26
 70
     1
102
RTVSPropertyOp27
 70
     1
102
RTVSPropertyOp28
 70
     1
102
RTVSPropertyOp29
 70
     1
102
RTVSPropertyOp30
 70
     1
102
RTVSPropertyOp31
 70
     1
102
RTVSPropertyOp32
 70
     1
102
RTVSPropertyOp33
 70
     1
102
RTVSPropertyOp34
 70
     1
102
RTVSPropertyOp35
 70
     1
102
RTVSPropertyOp36
 70
     1
102
RTVSPropertyOp37
 70
     1
102
RTVSPropertyOp38
 70
     1
102
RTVSPropertyOp39
 70
     1
102
RTVSPropertyOp40
 70
     1
102
RTVSPropertyOp41
 70
     1
102
RTVSPropertyOp42
 70
     1
102
RTVSPropertyOp43
 70
     1
102
RTVSPropertyOp44
 70
     1
102
RTVSPropertyOp45
 70
     1
102
RTVSPropertyOp46
 70
     1
102
RTVSPropertyOp47
 70
     1
102
RTVSPropertyOp48
 70
     1
102
RTVSPropertyOp49
 70
     1
102
RTVSPropertyOp50
 70
     1
102
RTVSPropertyOp51
 70
     0
102
RTVSPropertyOp52
 70
     0
102
RTVSPropertyOp53
 70
     1
102
RTVSPropertyOp54
 70
     1
102
RTVSPropertyOp55
 70
     1
102
RTVSPropertyOp56
 70
     1
102
RTVSPropertyOp57
 70
     1
102
RTVSPropertyOp58
 70
     1
102
RTVSPropertyOp59
 70
     1
102
RTVSPropertyOp60
 70
     1
102
RTVSPropertyOp61
 70
     1
102
RTVSPropertyOp62
 70
     1
  0
XRECORD
  5
244B0
102
{ACAD_REACTORS
330
244AF
102
}
330
244AF
100
AcDbXrecord
280
     1
102
RTVSPost2010Prop28
280
     0
102
RTVSPost2010PropOp28
 70
     1
102
RTVSPost2010Prop29
280
     1
102
RTVSPost2010PropOp29
 70
     1
102
RTVSPost2010Prop30
280
     1
102
RTVSPost2010PropOp30
 70
     1
102
RTVSPost2010Prop31
280
     0
102
RTVSPost2010PropOp31
 70
     1
102
RTVSPost2010Prop32
280
     0
102
RTVSPost2010PropOp32
 70
     1
102
RTVSPost2010Prop33
280
     0
102
RTVSPost2010PropOp33
 70
     1
102
RTVSPost2010Prop34
280
     0
102
RTVSPost2010PropOp34
 70
     1
102
RTVSPost2010Prop35
280
     0
102
RTVSPost2010PropOp35
 70
     1
102
RTVSPost2010Prop36
280
     0
102
RTVSPost2010PropOp36
 70
     1
102
RTVSPost2010Prop37
 90
       50
102
RTVSPost2010PropOp37
 70
     1
102
RTVSPost2010Prop38
140
0.0
102
RTVSPost2010PropOp38
 70
     1
102
RTVSPost2010Prop39
140
1.0
102
RTVSPost2010PropOp39
 70
     1
102
RTVSPost2010Prop40
 90
        0
102
RTVSPost2010PropOp40
 70
     1
102
RTVSPost2010Prop41ColorIndex
 90
       18
102
RTVSPost2010Prop41ColorRGB
 90
        0
102
RTVSPost2010PropOp41
 70
     1
102
RTVSPost2010Prop42
 90
       50
102
RTVSPost2010PropOp42
 70
     1
102
RTVSPost2010Prop43
 90
        3
102
RTVSPost2010PropOp43
 70
     1
102
RTVSPost2010Prop44ColorIndex
 90
        5
102
RTVSPost2010Prop44ColorRGB
 90
      255
102
RTVSPost2010PropOp44
 70
     1
102
RTVSPost2010Prop45
280
     0
102
RTVSPost2010PropOp45
 70
     1
102
RTVSPost2010Prop46
 90
       50
102
RTVSPost2010PropOp46
 70
     1
102
RTVSPost2010Prop47
 90
       50
102
RTVSPost2010PropOp47
 70
     1
102
RTVSPost2010Prop48
 90
       50
102
RTVSPost2010PropOp48
 70
     1
102
RTVSPost2010Prop49
280
     0
102
RTVSPost2010PropOp49
 70
     1
102
RTVSPost2010Prop50
 90
       50
102
RTVSPost2010PropOp50
 70
     1
102
RTVSPost2010Prop51ColorIndex
 90
      256
102
RTVSPost2010Prop51ColorRGB
 90
-16777216
102
RTVSPost2010PropOp51
 70
     0
102
RTVSPost2010Prop52
140
1.0
102
RTVSPost2010PropOp52
 70
     0
102
RTVSPost2010Prop53
 90
        2
102
RTVSPost2010PropOp53
 70
     1
102
RTVSPost2010Prop54
  1
strokes_ogs.tif
102
RTVSPost2010PropOp54
 70
     1
102
RTVSPost2010Prop55
280
     0
102
RTVSPost2010PropOp55
 70
     1
102
RTVSPost2010Prop56
140
1.0
102
RTVSPost2010PropOp56
 70
     1
102
RTVSPost2010Prop57
140
1.0
102
RTVSPost2010PropOp57
 70
     1
102
RTVSPropertyOp0
 70
     1
102
RTVSPropertyOp1
 70
     1
102
RTVSPropertyOp2
 70
     1
102
RTVSPropertyOp3
 70
     1
102
RTVSPropertyOp4
 70
     1
102
RTVSPropertyOp5
 70
     1
102
RTVSPropertyOp6
 70
     1
102
RTVSPropertyOp7
 70
     1
102
RTVSPropertyOp8
 70
     1
102
RTVSPropertyOp9
 70
     1
102
RTVSPropertyOp10
 70
     1
102
RTVSPropertyOp11
 70
     1
102
RTVSPropertyOp12
 70
     1
102
RTVSPropertyOp13
 70
     1
102
RTVSPropertyOp14
 70
     1
102
RTVSPropertyOp15
 70
     1
102
RTVSPropertyOp16
 70
     1
102
RTVSPropertyOp17
 70
     1
102
RTVSPropertyOp18
 70
     1
102
RTVSPropertyOp19
 70
     1
102
RTVSPropertyOp20
 70
     1
102
RTVSPropertyOp21
 70
     1
102
RTVSPropertyOp22
 70
     1
102
RTVSPropertyOp23
 70
     1
102
RTVSPropertyOp24
 70
     1
102
RTVSPropertyOp25
 70
     1
102
RTVSPropertyOp26
 70
     1
102
RTVSPropertyOp27
 70
     1
102
RTVSPropertyOp28
 70
     1
102
RTVSPropertyOp29
 70
     1
102
RTVSPropertyOp30
 70
     1
102
RTVSPropertyOp31
 70
     1
102
RTVSPropertyOp32
 70
     1
102
RTVSPropertyOp33
 70
     1
102
RTVSPropertyOp34
 70
     1
102
RTVSPropertyOp35
 70
     1
102
RTVSPropertyOp36
 70
     1
102
RTVSPropertyOp37
 70
     1
102
RTVSPropertyOp38
 70
     1
102
RTVSPropertyOp39
 70
     1
102
RTVSPropertyOp40
 70
     1
102
RTVSPropertyOp41
 70
     1
102
RTVSPropertyOp42
 70
     1
102
RTVSPropertyOp43
 70
     1
102
RTVSPropertyOp44
 70
     1
102
RTVSPropertyOp45
 70
     1
102
RTVSPropertyOp46
 70
     1
102
RTVSPropertyOp47
 70
     1
102
RTVSPropertyOp48
 70
     1
102
RTVSPropertyOp49
 70
     1
102
RTVSPropertyOp50
 70
     1
102
RTVSPropertyOp51
 70
     0
102
RTVSPropertyOp52
 70
     0
102
RTVSPropertyOp53
 70
     1
102
RTVSPropertyOp54
 70
     1
102
RTVSPropertyOp55
 70
     1
102
RTVSPropertyOp56
 70
     1
102
RTVSPropertyOp57
 70
     1
102
RTVSPropertyOp58
 70
     1
102
RTVSPropertyOp59
 70
     1
102
RTVSPropertyOp60
 70
     1
102
RTVSPropertyOp61
 70
     1
102
RTVSPropertyOp62
 70
     1
  0
XRECORD
  5
244B2
102
{ACAD_REACTORS
330
244B1
102
}
330
244B1
100
AcDbXrecord
280
     1
102
RTVSPost2010Prop28
280
     0
102
RTVSPost2010PropOp28
 70
     1
102
RTVSPost2010Prop29
280
     1
102
RTVSPost2010PropOp29
 70
     1
102
RTVSPost2010Prop30
280
     1
102
RTVSPost2010PropOp30
 70
     1
102
RTVSPost2010Prop31
280
     0
102
RTVSPost2010PropOp31
 70
     1
102
RTVSPost2010Prop32
280
     0
102
RTVSPost2010PropOp32
 70
     1
102
RTVSPost2010Prop33
280
     0
102
RTVSPost2010PropOp33
 70
     1
102
RTVSPost2010Prop34
280
     0
102
RTVSPost2010PropOp34
 70
     1
102
RTVSPost2010Prop35
280
     0
102
RTVSPost2010PropOp35
 70
     1
102
RTVSPost2010Prop36
280
     0
102
RTVSPost2010PropOp36
 70
     1
102
RTVSPost2010Prop37
 90
       50
102
RTVSPost2010PropOp37
 70
     1
102
RTVSPost2010Prop38
140
0.0
102
RTVSPost2010PropOp38
 70
     1
102
RTVSPost2010Prop39
140
1.0
102
RTVSPost2010PropOp39
 70
     1
102
RTVSPost2010Prop40
 90
        0
102
RTVSPost2010PropOp40
 70
     1
102
RTVSPost2010Prop41ColorIndex
 90
       18
102
RTVSPost2010Prop41ColorRGB
 90
        0
102
RTVSPost2010PropOp41
 70
     1
102
RTVSPost2010Prop42
 90
       50
102
RTVSPost2010PropOp42
 70
     1
102
RTVSPost2010Prop43
 90
        3
102
RTVSPost2010PropOp43
 70
     1
102
RTVSPost2010Prop44ColorIndex
 90
        5
102
RTVSPost2010Prop44ColorRGB
 90
      255
102
RTVSPost2010PropOp44
 70
     1
102
RTVSPost2010Prop45
280
     0
102
RTVSPost2010PropOp45
 70
     1
102
RTVSPost2010Prop46
 90
       50
102
RTVSPost2010PropOp46
 70
     1
102
RTVSPost2010Prop47
 90
       50
102
RTVSPost2010PropOp47
 70
     1
102
RTVSPost2010Prop48
 90
       50
102
RTVSPost2010PropOp48
 70
     1
102
RTVSPost2010Prop49
280
     0
102
RTVSPost2010PropOp49
 70
     1
102
RTVSPost2010Prop50
 90
       50
102
RTVSPost2010PropOp50
 70
     1
102
RTVSPost2010Prop51ColorIndex
 90
      256
102
RTVSPost2010Prop51ColorRGB
 90
-16777216
102
RTVSPost2010PropOp51
 70
     0
102
RTVSPost2010Prop52
140
1.0
102
RTVSPost2010PropOp52
 70
     0
102
RTVSPost2010Prop53
 90
        2
102
RTVSPost2010PropOp53
 70
     1
102
RTVSPost2010Prop54
  1
strokes_ogs.tif
102
RTVSPost2010PropOp54
 70
     1
102
RTVSPost2010Prop55
280
     0
102
RTVSPost2010PropOp55
 70
     1
102
RTVSPost2010Prop56
140
1.0
102
RTVSPost2010PropOp56
 70
     1
102
RTVSPost2010Prop57
140
1.0
102
RTVSPost2010PropOp57
 70
     1
102
RTVSPropertyOp0
 70
     1
102
RTVSPropertyOp1
 70
     1
102
RTVSPropertyOp2
 70
     1
102
RTVSPropertyOp3
 70
     1
102
RTVSPropertyOp4
 70
     1
102
RTVSPropertyOp5
 70
     1
102
RTVSPropertyOp6
 70
     1
102
RTVSPropertyOp7
 70
     1
102
RTVSPropertyOp8
 70
     1
102
RTVSPropertyOp9
 70
     1
102
RTVSPropertyOp10
 70
     1
102
RTVSPropertyOp11
 70
     1
102
RTVSPropertyOp12
 70
     1
102
RTVSPropertyOp13
 70
     1
102
RTVSPropertyOp14
 70
     1
102
RTVSPropertyOp15
 70
     1
102
RTVSPropertyOp16
 70
     1
102
RTVSPropertyOp17
 70
     1
102
RTVSPropertyOp18
 70
     1
102
RTVSPropertyOp19
 70
     1
102
RTVSPropertyOp20
 70
     1
102
RTVSPropertyOp21
 70
     1
102
RTVSPropertyOp22
 70
     1
102
RTVSPropertyOp23
 70
     1
102
RTVSPropertyOp24
 70
     1
102
RTVSPropertyOp25
 70
     1
102
RTVSPropertyOp26
 70
     1
102
RTVSPropertyOp27
 70
     1
102
RTVSPropertyOp28
 70
     1
102
RTVSPropertyOp29
 70
     1
102
RTVSPropertyOp30
 70
     1
102
RTVSPropertyOp31
 70
     1
102
RTVSPropertyOp32
 70
     1
102
RTVSPropertyOp33
 70
     1
102
RTVSPropertyOp34
 70
     1
102
RTVSPropertyOp35
 70
     1
102
RTVSPropertyOp36
 70
     1
102
RTVSPropertyOp37
 70
     1
102
RTVSPropertyOp38
 70
     1
102
RTVSPropertyOp39
 70
     1
102
RTVSPropertyOp40
 70
     1
102
RTVSPropertyOp41
 70
     1
102
RTVSPropertyOp42
 70
     1
102
RTVSPropertyOp43
 70
     1
102
RTVSPropertyOp44
 70
     1
102
RTVSPropertyOp45
 70
     1
102
RTVSPropertyOp46
 70
     1
102
RTVSPropertyOp47
 70
     1
102
RTVSPropertyOp48
 70
     1
102
RTVSPropertyOp49
 70
     1
102
RTVSPropertyOp50
 70
     1
102
RTVSPropertyOp51
 70
     0
102
RTVSPropertyOp52
 70
     0
102
RTVSPropertyOp53
 70
     1
102
RTVSPropertyOp54
 70
     1
102
RTVSPropertyOp55
 70
     1
102
RTVSPropertyOp56
 70
     1
102
RTVSPropertyOp57
 70
     1
102
RTVSPropertyOp58
 70
     1
102
RTVSPropertyOp59
 70
     1
102
RTVSPropertyOp60
 70
     1
102
RTVSPropertyOp61
 70
     1
102
RTVSPropertyOp62
 70
     1
  0
XRECORD
  5
244B4
102
{ACAD_REACTORS
330
244B3
102
}
330
244B3
100
AcDbXrecord
280
     1
102
RTVSPost2010Prop28
280
     0
102
RTVSPost2010PropOp28
 70
     1
102
RTVSPost2010Prop29
280
     1
102
RTVSPost2010PropOp29
 70
     1
102
RTVSPost2010Prop30
280
     1
102
RTVSPost2010PropOp30
 70
     1
102
RTVSPost2010Prop31
280
     0
102
RTVSPost2010PropOp31
 70
     1
102
RTVSPost2010Prop32
280
     0
102
RTVSPost2010PropOp32
 70
     1
102
RTVSPost2010Prop33
280
     0
102
RTVSPost2010PropOp33
 70
     1
102
RTVSPost2010Prop34
280
     0
102
RTVSPost2010PropOp34
 70
     1
102
RTVSPost2010Prop35
280
     0
102
RTVSPost2010PropOp35
 70
     1
102
RTVSPost2010Prop36
280
     0
102
RTVSPost2010PropOp36
 70
     1
102
RTVSPost2010Prop37
 90
       50
102
RTVSPost2010PropOp37
 70
     1
102
RTVSPost2010Prop38
140
0.0
102
RTVSPost2010PropOp38
 70
     1
102
RTVSPost2010Prop39
140
1.0
102
RTVSPost2010PropOp39
 70
     1
102
RTVSPost2010Prop40
 90
        0
102
RTVSPost2010PropOp40
 70
     1
102
RTVSPost2010Prop41ColorIndex
 90
       18
102
RTVSPost2010Prop41ColorRGB
 90
        0
102
RTVSPost2010PropOp41
 70
     1
102
RTVSPost2010Prop42
 90
       50
102
RTVSPost2010PropOp42
 70
     1
102
RTVSPost2010Prop43
 90
        3
102
RTVSPost2010PropOp43
 70
     1
102
RTVSPost2010Prop44ColorIndex
 90
        5
102
RTVSPost2010Prop44ColorRGB
 90
      255
102
RTVSPost2010PropOp44
 70
     1
102
RTVSPost2010Prop45
280
     0
102
RTVSPost2010PropOp45
 70
     1
102
RTVSPost2010Prop46
 90
       50
102
RTVSPost2010PropOp46
 70
     1
102
RTVSPost2010Prop47
 90
       50
102
RTVSPost2010PropOp47
 70
     1
102
RTVSPost2010Prop48
 90
       50
102
RTVSPost2010PropOp48
 70
     1
102
RTVSPost2010Prop49
280
     0
102
RTVSPost2010PropOp49
 70
     1
102
RTVSPost2010Prop50
 90
       50
102
RTVSPost2010PropOp50
 70
     1
102
RTVSPost2010Prop51ColorIndex
 90
      256
102
RTVSPost2010Prop51ColorRGB
 90
-16777216
102
RTVSPost2010PropOp51
 70
     0
102
RTVSPost2010Prop52
140
1.0
102
RTVSPost2010PropOp52
 70
     0
102
RTVSPost2010Prop53
 90
        2
102
RTVSPost2010PropOp53
 70
     1
102
RTVSPost2010Prop54
  1
strokes_ogs.tif
102
RTVSPost2010PropOp54
 70
     1
102
RTVSPost2010Prop55
280
     0
102
RTVSPost2010PropOp55
 70
     1
102
RTVSPost2010Prop56
140
1.0
102
RTVSPost2010PropOp56
 70
     1
102
RTVSPost2010Prop57
140
1.0
102
RTVSPost2010PropOp57
 70
     1
102
RTVSPropertyOp0
 70
     1
102
RTVSPropertyOp1
 70
     1
102
RTVSPropertyOp2
 70
     1
102
RTVSPropertyOp3
 70
     1
102
RTVSPropertyOp4
 70
     1
102
RTVSPropertyOp5
 70
     1
102
RTVSPropertyOp6
 70
     1
102
RTVSPropertyOp7
 70
     1
102
RTVSPropertyOp8
 70
     1
102
RTVSPropertyOp9
 70
     1
102
RTVSPropertyOp10
 70
     1
102
RTVSPropertyOp11
 70
     1
102
RTVSPropertyOp12
 70
     1
102
RTVSPropertyOp13
 70
     1
102
RTVSPropertyOp14
 70
     1
102
RTVSPropertyOp15
 70
     1
102
RTVSPropertyOp16
 70
     1
102
RTVSPropertyOp17
 70
     1
102
RTVSPropertyOp18
 70
     1
102
RTVSPropertyOp19
 70
     1
102
RTVSPropertyOp20
 70
     1
102
RTVSPropertyOp21
 70
     1
102
RTVSPropertyOp22
 70
     1
102
RTVSPropertyOp23
 70
     1
102
RTVSPropertyOp24
 70
     1
102
RTVSPropertyOp25
 70
     1
102
RTVSPropertyOp26
 70
     1
102
RTVSPropertyOp27
 70
     1
102
RTVSPropertyOp28
 70
     1
102
RTVSPropertyOp29
 70
     1
102
RTVSPropertyOp30
 70
     1
102
RTVSPropertyOp31
 70
     1
102
RTVSPropertyOp32
 70
     1
102
RTVSPropertyOp33
 70
     1
102
RTVSPropertyOp34
 70
     1
102
RTVSPropertyOp35
 70
     1
102
RTVSPropertyOp36
 70
     1
102
RTVSPropertyOp37
 70
     1
102
RTVSPropertyOp38
 70
     1
102
RTVSPropertyOp39
 70
     1
102
RTVSPropertyOp40
 70
     1
102
RTVSPropertyOp41
 70
     1
102
RTVSPropertyOp42
 70
     1
102
RTVSPropertyOp43
 70
     1
102
RTVSPropertyOp44
 70
     1
102
RTVSPropertyOp45
 70
     1
102
RTVSPropertyOp46
 70
     1
102
RTVSPropertyOp47
 70
     1
102
RTVSPropertyOp48
 70
     1
102
RTVSPropertyOp49
 70
     1
102
RTVSPropertyOp50
 70
     1
102
RTVSPropertyOp51
 70
     0
102
RTVSPropertyOp52
 70
     0
102
RTVSPropertyOp53
 70
     1
102
RTVSPropertyOp54
 70
     1
102
RTVSPropertyOp55
 70
     1
102
RTVSPropertyOp56
 70
     1
102
RTVSPropertyOp57
 70
     1
102
RTVSPropertyOp58
 70
     1
102
RTVSPropertyOp59
 70
     1
102
RTVSPropertyOp60
 70
     1
102
RTVSPropertyOp61
 70
     1
102
RTVSPropertyOp62
 70
     1
  0
XRECORD
  5
244BC
102
{ACAD_REACTORS
330
244BB
102
}
330
244BB
100
AcDbXrecord
280
     1
102
RTVSPost2010Prop28
280
     0
102
RTVSPost2010PropOp28
 70
     1
102
RTVSPost2010Prop29
280
     1
102
RTVSPost2010PropOp29
 70
     1
102
RTVSPost2010Prop30
280
     1
102
RTVSPost2010PropOp30
 70
     1
102
RTVSPost2010Prop31
280
     0
102
RTVSPost2010PropOp31
 70
     1
102
RTVSPost2010Prop32
280
     0
102
RTVSPost2010PropOp32
 70
     1
102
RTVSPost2010Prop33
280
     0
102
RTVSPost2010PropOp33
 70
     1
102
RTVSPost2010Prop34
280
     0
102
RTVSPost2010PropOp34
 70
     1
102
RTVSPost2010Prop35
280
     0
102
RTVSPost2010PropOp35
 70
     1
102
RTVSPost2010Prop36
280
     0
102
RTVSPost2010PropOp36
 70
     1
102
RTVSPost2010Prop37
 90
       50
102
RTVSPost2010PropOp37
 70
     1
102
RTVSPost2010Prop38
140
0.0
102
RTVSPost2010PropOp38
 70
     1
102
RTVSPost2010Prop39
140
1.0
102
RTVSPost2010PropOp39
 70
     1
102
RTVSPost2010Prop40
 90
        0
102
RTVSPost2010PropOp40
 70
     1
102
RTVSPost2010Prop41ColorIndex
 90
       18
102
RTVSPost2010Prop41ColorRGB
 90
        0
102
RTVSPost2010PropOp41
 70
     1
102
RTVSPost2010Prop42
 90
       50
102
RTVSPost2010PropOp42
 70
     1
102
RTVSPost2010Prop43
 90
        3
102
RTVSPost2010PropOp43
 70
     1
102
RTVSPost2010Prop44ColorIndex
 90
        5
102
RTVSPost2010Prop44ColorRGB
 90
      255
102
RTVSPost2010PropOp44
 70
     1
102
RTVSPost2010Prop45
280
     0
102
RTVSPost2010PropOp45
 70
     1
102
RTVSPost2010Prop46
 90
       50
102
RTVSPost2010PropOp46
 70
     1
102
RTVSPost2010Prop47
 90
       50
102
RTVSPost2010PropOp47
 70
     1
102
RTVSPost2010Prop48
 90
       50
102
RTVSPost2010PropOp48
 70
     1
102
RTVSPost2010Prop49
280
     0
102
RTVSPost2010PropOp49
 70
     1
102
RTVSPost2010Prop50
 90
       50
102
RTVSPost2010PropOp50
 70
     1
102
RTVSPost2010Prop51ColorIndex
 90
      256
102
RTVSPost2010Prop51ColorRGB
 90
-16777216
102
RTVSPost2010PropOp51
 70
     0
102
RTVSPost2010Prop52
140
1.0
102
RTVSPost2010PropOp52
 70
     0
102
RTVSPost2010Prop53
 90
        2
102
RTVSPost2010PropOp53
 70
     1
102
RTVSPost2010Prop54
  1
strokes_ogs.tif
102
RTVSPost2010PropOp54
 70
     1
102
RTVSPost2010Prop55
280
     0
102
RTVSPost2010PropOp55
 70
     1
102
RTVSPost2010Prop56
140
1.0
102
RTVSPost2010PropOp56
 70
     1
102
RTVSPost2010Prop57
140
1.0
102
RTVSPost2010PropOp57
 70
     1
102
RTVSPropertyOp0
 70
     1
102
RTVSPropertyOp1
 70
     1
102
RTVSPropertyOp2
 70
     1
102
RTVSPropertyOp3
 70
     1
102
RTVSPropertyOp4
 70
     1
102
RTVSPropertyOp5
 70
     1
102
RTVSPropertyOp6
 70
     1
102
RTVSPropertyOp7
 70
     1
102
RTVSPropertyOp8
 70
     1
102
RTVSPropertyOp9
 70
     1
102
RTVSPropertyOp10
 70
     1
102
RTVSPropertyOp11
 70
     1
102
RTVSPropertyOp12
 70
     1
102
RTVSPropertyOp13
 70
     1
102
RTVSPropertyOp14
 70
     1
102
RTVSPropertyOp15
 70
     1
102
RTVSPropertyOp16
 70
     1
102
RTVSPropertyOp17
 70
     1
102
RTVSPropertyOp18
 70
     1
102
RTVSPropertyOp19
 70
     1
102
RTVSPropertyOp20
 70
     1
102
RTVSPropertyOp21
 70
     1
102
RTVSPropertyOp22
 70
     1
102
RTVSPropertyOp23
 70
     1
102
RTVSPropertyOp24
 70
     1
102
RTVSPropertyOp25
 70
     1
102
RTVSPropertyOp26
 70
     1
102
RTVSPropertyOp27
 70
     1
102
RTVSPropertyOp28
 70
     1
102
RTVSPropertyOp29
 70
     1
102
RTVSPropertyOp30
 70
     1
102
RTVSPropertyOp31
 70
     1
102
RTVSPropertyOp32
 70
     1
102
RTVSPropertyOp33
 70
     1
102
RTVSPropertyOp34
 70
     1
102
RTVSPropertyOp35
 70
     1
102
RTVSPropertyOp36
 70
     1
102
RTVSPropertyOp37
 70
     1
102
RTVSPropertyOp38
 70
     1
102
RTVSPropertyOp39
 70
     1
102
RTVSPropertyOp40
 70
     1
102
RTVSPropertyOp41
 70
     1
102
RTVSPropertyOp42
 70
     1
102
RTVSPropertyOp43
 70
     1
102
RTVSPropertyOp44
 70
     1
102
RTVSPropertyOp45
 70
     1
102
RTVSPropertyOp46
 70
     1
102
RTVSPropertyOp47
 70
     1
102
RTVSPropertyOp48
 70
     1
102
RTVSPropertyOp49
 70
     1
102
RTVSPropertyOp50
 70
     1
102
RTVSPropertyOp51
 70
     0
102
RTVSPropertyOp52
 70
     0
102
RTVSPropertyOp53
 70
     1
102
RTVSPropertyOp54
 70
     1
102
RTVSPropertyOp55
 70
     1
102
RTVSPropertyOp56
 70
     1
102
RTVSPropertyOp57
 70
     1
102
RTVSPropertyOp58
 70
     1
102
RTVSPropertyOp59
 70
     1
102
RTVSPropertyOp60
 70
     1
102
RTVSPropertyOp61
 70
     1
102
RTVSPropertyOp62
 70
     1
  0
XRECORD
  5
244D8
102
{ACAD_REACTORS
330
244D7
102
}
330
244D7
100
AcDbXrecord
280
     1
102
RTVSPost2010Prop28
280
     0
102
RTVSPost2010PropOp28
 70
     1
102
RTVSPost2010Prop29
280
     1
102
RTVSPost2010PropOp29
 70
     1
102
RTVSPost2010Prop30
280
     1
102
RTVSPost2010PropOp30
 70
     1
102
RTVSPost2010Prop31
280
     0
102
RTVSPost2010PropOp31
 70
     1
102
RTVSPost2010Prop32
280
     0
102
RTVSPost2010PropOp32
 70
     1
102
RTVSPost2010Prop33
280
     0
102
RTVSPost2010PropOp33
 70
     1
102
RTVSPost2010Prop34
280
     0
102
RTVSPost2010PropOp34
 70
     1
102
RTVSPost2010Prop35
280
     0
102
RTVSPost2010PropOp35
 70
     1
102
RTVSPost2010Prop36
280
     0
102
RTVSPost2010PropOp36
 70
     1
102
RTVSPost2010Prop37
 90
       50
102
RTVSPost2010PropOp37
 70
     0
102
RTVSPost2010Prop38
140
0.0
102
RTVSPost2010PropOp38
 70
     0
102
RTVSPost2010Prop39
140
1.0
102
RTVSPost2010PropOp39
 70
     0
102
RTVSPost2010Prop40
 90
        0
102
RTVSPost2010PropOp40
 70
     0
102
RTVSPost2010Prop41ColorIndex
 90
       18
102
RTVSPost2010Prop41ColorRGB
 90
        0
102
RTVSPost2010PropOp41
 70
     0
102
RTVSPost2010Prop42
 90
       50
102
RTVSPost2010PropOp42
 70
     0
102
RTVSPost2010Prop43
 90
        3
102
RTVSPost2010PropOp43
 70
     0
102
RTVSPost2010Prop44ColorIndex
 90
        5
102
RTVSPost2010Prop44ColorRGB
 90
      255
102
RTVSPost2010PropOp44
 70
     0
102
RTVSPost2010Prop45
280
     0
102
RTVSPost2010PropOp45
 70
     1
102
RTVSPost2010Prop46
 90
       50
102
RTVSPost2010PropOp46
 70
     0
102
RTVSPost2010Prop47
 90
       50
102
RTVSPost2010PropOp47
 70
     0
102
RTVSPost2010Prop48
 90
       50
102
RTVSPost2010PropOp48
 70
     0
102
RTVSPost2010Prop49
280
     0
102
RTVSPost2010PropOp49
 70
     1
102
RTVSPost2010Prop50
 90
       50
102
RTVSPost2010PropOp50
 70
     0
102
RTVSPost2010Prop51ColorIndex
 90
      256
102
RTVSPost2010Prop51ColorRGB
 90
-16777216
102
RTVSPost2010PropOp51
 70
     0
102
RTVSPost2010Prop52
140
1.0
102
RTVSPost2010PropOp52
 70
     0
102
RTVSPost2010Prop53
 90
        2
102
RTVSPost2010PropOp53
 70
     0
102
RTVSPost2010Prop54
  1
strokes_ogs.tif
102
RTVSPost2010PropOp54
 70
     0
102
RTVSPost2010Prop55
280
     0
102
RTVSPost2010PropOp55
 70
     1
102
RTVSPost2010Prop56
140
1.0
102
RTVSPost2010PropOp56
 70
     0
102
RTVSPost2010Prop57
140
1.0
102
RTVSPost2010PropOp57
 70
     0
102
RTVSPropertyOp0
 70
     0
102
RTVSPropertyOp1
 70
     0
102
RTVSPropertyOp2
 70
     0
102
RTVSPropertyOp3
 70
     0
102
RTVSPropertyOp4
 70
     0
102
RTVSPropertyOp5
 70
     0
102
RTVSPropertyOp6
 70
     0
102
RTVSPropertyOp7
 70
     0
102
RTVSPropertyOp8
 70
     0
102
RTVSPropertyOp9
 70
     0
102
RTVSPropertyOp10
 70
     0
102
RTVSPropertyOp11
 70
     0
102
RTVSPropertyOp12
 70
     0
102
RTVSPropertyOp13
 70
     0
102
RTVSPropertyOp14
 70
     2
102
RTVSPropertyOp15
 70
     0
102
RTVSPropertyOp16
 70
     0
102
RTVSPropertyOp17
 70
     0
102
RTVSPropertyOp18
 70
     0
102
RTVSPropertyOp19
 70
     0
102
RTVSPropertyOp20
 70
     0
102
RTVSPropertyOp21
 70
     0
102
RTVSPropertyOp22
 70
     0
102
RTVSPropertyOp23
 70
     0
102
RTVSPropertyOp24
 70
     0
102
RTVSPropertyOp25
 70
     0
102
RTVSPropertyOp26
 70
     0
102
RTVSPropertyOp27
 70
     0
102
RTVSPropertyOp28
 70
     1
102
RTVSPropertyOp29
 70
     1
102
RTVSPropertyOp30
 70
     1
102
RTVSPropertyOp31
 70
     1
102
RTVSPropertyOp32
 70
     1
102
RTVSPropertyOp33
 70
     1
102
RTVSPropertyOp34
 70
     1
102
RTVSPropertyOp35
 70
     1
102
RTVSPropertyOp36
 70
     1
102
RTVSPropertyOp37
 70
     0
102
RTVSPropertyOp38
 70
     0
102
RTVSPropertyOp39
 70
     0
102
RTVSPropertyOp40
 70
     0
102
RTVSPropertyOp41
 70
     0
102
RTVSPropertyOp42
 70
     0
102
RTVSPropertyOp43
 70
     0
102
RTVSPropertyOp44
 70
     0
102
RTVSPropertyOp45
 70
     1
102
RTVSPropertyOp46
 70
     0
102
RTVSPropertyOp47
 70
     0
102
RTVSPropertyOp48
 70
     0
102
RTVSPropertyOp49
 70
     1
102
RTVSPropertyOp50
 70
     0
102
RTVSPropertyOp51
 70
     0
102
RTVSPropertyOp52
 70
     0
102
RTVSPropertyOp53
 70
     0
102
RTVSPropertyOp54
 70
     0
102
RTVSPropertyOp55
 70
     1
102
RTVSPropertyOp56
 70
     0
102
RTVSPropertyOp57
 70
     0
102
RTVSPropertyOp58
 70
     0
102
RTVSPropertyOp59
 70
     0
102
RTVSPropertyOp60
 70
     0
102
RTVSPropertyOp61
 70
     0
102
RTVSPropertyOp62
 70
     0
  0
XRECORD
  5
244C8
102
{ACAD_REACTORS
330
244C7
102
}
330
244C7
100
AcDbXrecord
280
     1
102
RTVSPost2010Prop28
280
     0
102
RTVSPost2010PropOp28
 70
     1
102
RTVSPost2010Prop29
280
     1
102
RTVSPost2010PropOp29
 70
     1
102
RTVSPost2010Prop30
280
     1
102
RTVSPost2010PropOp30
 70
     1
102
RTVSPost2010Prop31
280
     0
102
RTVSPost2010PropOp31
 70
     1
102
RTVSPost2010Prop32
280
     0
102
RTVSPost2010PropOp32
 70
     1
102
RTVSPost2010Prop33
280
     0
102
RTVSPost2010PropOp33
 70
     1
102
RTVSPost2010Prop34
280
     0
102
RTVSPost2010PropOp34
 70
     1
102
RTVSPost2010Prop35
280
     0
102
RTVSPost2010PropOp35
 70
     1
102
RTVSPost2010Prop36
280
     0
102
RTVSPost2010PropOp36
 70
     1
102
RTVSPost2010Prop37
 90
       50
102
RTVSPost2010PropOp37
 70
     1
102
RTVSPost2010Prop38
140
0.0
102
RTVSPost2010PropOp38
 70
     1
102
RTVSPost2010Prop39
140
1.0
102
RTVSPost2010PropOp39
 70
     1
102
RTVSPost2010Prop40
 90
        0
102
RTVSPost2010PropOp40
 70
     1
102
RTVSPost2010Prop41ColorIndex
 90
       18
102
RTVSPost2010Prop41ColorRGB
 90
        0
102
RTVSPost2010PropOp41
 70
     1
102
RTVSPost2010Prop42
 90
       50
102
RTVSPost2010PropOp42
 70
     1
102
RTVSPost2010Prop43
 90
        3
102
RTVSPost2010PropOp43
 70
     1
102
RTVSPost2010Prop44ColorIndex
 90
        5
102
RTVSPost2010Prop44ColorRGB
 90
      255
102
RTVSPost2010PropOp44
 70
     1
102
RTVSPost2010Prop45
280
     0
102
RTVSPost2010PropOp45
 70
     1
102
RTVSPost2010Prop46
 90
       50
102
RTVSPost2010PropOp46
 70
     1
102
RTVSPost2010Prop47
 90
       50
102
RTVSPost2010PropOp47
 70
     1
102
RTVSPost2010Prop48
 90
       50
102
RTVSPost2010PropOp48
 70
     1
102
RTVSPost2010Prop49
280
     0
102
RTVSPost2010PropOp49
 70
     1
102
RTVSPost2010Prop50
 90
       50
102
RTVSPost2010PropOp50
 70
     1
102
RTVSPost2010Prop51ColorIndex
 90
      256
102
RTVSPost2010Prop51ColorRGB
 90
-16777216
102
RTVSPost2010PropOp51
 70
     0
102
RTVSPost2010Prop52
140
1.0
102
RTVSPost2010PropOp52
 70
     0
102
RTVSPost2010Prop53
 90
        2
102
RTVSPost2010PropOp53
 70
     1
102
RTVSPost2010Prop54
  1
strokes_ogs.tif
102
RTVSPost2010PropOp54
 70
     1
102
RTVSPost2010Prop55
280
     0
102
RTVSPost2010PropOp55
 70
     1
102
RTVSPost2010Prop56
140
1.0
102
RTVSPost2010PropOp56
 70
     1
102
RTVSPost2010Prop57
140
1.0
102
RTVSPost2010PropOp57
 70
     1
102
RTVSPropertyOp0
 70
     1
102
RTVSPropertyOp1
 70
     1
102
RTVSPropertyOp2
 70
     1
102
RTVSPropertyOp3
 70
     1
102
RTVSPropertyOp4
 70
     1
102
RTVSPropertyOp5
 70
     1
102
RTVSPropertyOp6
 70
     1
102
RTVSPropertyOp7
 70
     1
102
RTVSPropertyOp8
 70
     1
102
RTVSPropertyOp9
 70
     1
102
RTVSPropertyOp10
 70
     1
102
RTVSPropertyOp11
 70
     1
102
RTVSPropertyOp12
 70
     1
102
RTVSPropertyOp13
 70
     1
102
RTVSPropertyOp14
 70
     1
102
RTVSPropertyOp15
 70
     1
102
RTVSPropertyOp16
 70
     1
102
RTVSPropertyOp17
 70
     1
102
RTVSPropertyOp18
 70
     1
102
RTVSPropertyOp19
 70
     1
102
RTVSPropertyOp20
 70
     1
102
RTVSPropertyOp21
 70
     1
102
RTVSPropertyOp22
 70
     1
102
RTVSPropertyOp23
 70
     1
102
RTVSPropertyOp24
 70
     1
102
RTVSPropertyOp25
 70
     1
102
RTVSPropertyOp26
 70
     1
102
RTVSPropertyOp27
 70
     1
102
RTVSPropertyOp28
 70
     1
102
RTVSPropertyOp29
 70
     1
102
RTVSPropertyOp30
 70
     1
102
RTVSPropertyOp31
 70
     1
102
RTVSPropertyOp32
 70
     1
102
RTVSPropertyOp33
 70
     1
102
RTVSPropertyOp34
 70
     1
102
RTVSPropertyOp35
 70
     1
102
RTVSPropertyOp36
 70
     1
102
RTVSPropertyOp37
 70
     1
102
RTVSPropertyOp38
 70
     1
102
RTVSPropertyOp39
 70
     1
102
RTVSPropertyOp40
 70
     1
102
RTVSPropertyOp41
 70
     1
102
RTVSPropertyOp42
 70
     1
102
RTVSPropertyOp43
 70
     1
102
RTVSPropertyOp44
 70
     1
102
RTVSPropertyOp45
 70
     1
102
RTVSPropertyOp46
 70
     1
102
RTVSPropertyOp47
 70
     1
102
RTVSPropertyOp48
 70
     1
102
RTVSPropertyOp49
 70
     1
102
RTVSPropertyOp50
 70
     1
102
RTVSPropertyOp51
 70
     0
102
RTVSPropertyOp52
 70
     0
102
RTVSPropertyOp53
 70
     1
102
RTVSPropertyOp54
 70
     1
102
RTVSPropertyOp55
 70
     1
102
RTVSPropertyOp56
 70
     1
102
RTVSPropertyOp57
 70
     1
102
RTVSPropertyOp58
 70
     1
102
RTVSPropertyOp59
 70
     1
102
RTVSPropertyOp60
 70
     1
102
RTVSPropertyOp61
 70
     1
102
RTVSPropertyOp62
 70
     1
  0
XRECORD
  5
244DA
102
{ACAD_REACTORS
330
244D9
102
}
330
244D9
100
AcDbXrecord
280
     1
102
RTVSPost2010Prop28
280
     0
102
RTVSPost2010PropOp28
 70
     1
102
RTVSPost2010Prop29
280
     1
102
RTVSPost2010PropOp29
 70
     1
102
RTVSPost2010Prop30
280
     1
102
RTVSPost2010PropOp30
 70
     1
102
RTVSPost2010Prop31
280
     0
102
RTVSPost2010PropOp31
 70
     1
102
RTVSPost2010Prop32
280
     0
102
RTVSPost2010PropOp32
 70
     1
102
RTVSPost2010Prop33
280
     0
102
RTVSPost2010PropOp33
 70
     1
102
RTVSPost2010Prop34
280
     0
102
RTVSPost2010PropOp34
 70
     1
102
RTVSPost2010Prop35
280
     0
102
RTVSPost2010PropOp35
 70
     1
102
RTVSPost2010Prop36
280
     0
102
RTVSPost2010PropOp36
 70
     1
102
RTVSPost2010Prop37
 90
       50
102
RTVSPost2010PropOp37
 70
     0
102
RTVSPost2010Prop38
140
0.0
102
RTVSPost2010PropOp38
 70
     0
102
RTVSPost2010Prop39
140
1.0
102
RTVSPost2010PropOp39
 70
     0
102
RTVSPost2010Prop40
 90
        0
102
RTVSPost2010PropOp40
 70
     0
102
RTVSPost2010Prop41ColorIndex
 90
       18
102
RTVSPost2010Prop41ColorRGB
 90
        0
102
RTVSPost2010PropOp41
 70
     0
102
RTVSPost2010Prop42
 90
       50
102
RTVSPost2010PropOp42
 70
     0
102
RTVSPost2010Prop43
 90
        3
102
RTVSPost2010PropOp43
 70
     0
102
RTVSPost2010Prop44ColorIndex
 90
        5
102
RTVSPost2010Prop44ColorRGB
 90
      255
102
RTVSPost2010PropOp44
 70
     0
102
RTVSPost2010Prop45
280
     0
102
RTVSPost2010PropOp45
 70
     1
102
RTVSPost2010Prop46
 90
       50
102
RTVSPost2010PropOp46
 70
     0
102
RTVSPost2010Prop47
 90
       50
102
RTVSPost2010PropOp47
 70
     0
102
RTVSPost2010Prop48
 90
       50
102
RTVSPost2010PropOp48
 70
     0
102
RTVSPost2010Prop49
280
     0
102
RTVSPost2010PropOp49
 70
     1
102
RTVSPost2010Prop50
 90
       50
102
RTVSPost2010PropOp50
 70
     0
102
RTVSPost2010Prop51ColorIndex
 90
      256
102
RTVSPost2010Prop51ColorRGB
 90
-16777216
102
RTVSPost2010PropOp51
 70
     0
102
RTVSPost2010Prop52
140
1.0
102
RTVSPost2010PropOp52
 70
     0
102
RTVSPost2010Prop53
 90
        2
102
RTVSPost2010PropOp53
 70
     0
102
RTVSPost2010Prop54
  1
strokes_ogs.tif
102
RTVSPost2010PropOp54
 70
     0
102
RTVSPost2010Prop55
280
     0
102
RTVSPost2010PropOp55
 70
     1
102
RTVSPost2010Prop56
140
1.0
102
RTVSPost2010PropOp56
 70
     0
102
RTVSPost2010Prop57
140
1.0
102
RTVSPost2010PropOp57
 70
     0
102
RTVSPropertyOp0
 70
     0
102
RTVSPropertyOp1
 70
     0
102
RTVSPropertyOp2
 70
     0
102
RTVSPropertyOp3
 70
     0
102
RTVSPropertyOp4
 70
     0
102
RTVSPropertyOp5
 70
     0
102
RTVSPropertyOp6
 70
     0
102
RTVSPropertyOp7
 70
     0
102
RTVSPropertyOp8
 70
     0
102
RTVSPropertyOp9
 70
     0
102
RTVSPropertyOp10
 70
     0
102
RTVSPropertyOp11
 70
     0
102
RTVSPropertyOp12
 70
     0
102
RTVSPropertyOp13
 70
     0
102
RTVSPropertyOp14
 70
     2
102
RTVSPropertyOp15
 70
     0
102
RTVSPropertyOp16
 70
     0
102
RTVSPropertyOp17
 70
     0
102
RTVSPropertyOp18
 70
     0
102
RTVSPropertyOp19
 70
     0
102
RTVSPropertyOp20
 70
     0
102
RTVSPropertyOp21
 70
     0
102
RTVSPropertyOp22
 70
     0
102
RTVSPropertyOp23
 70
     0
102
RTVSPropertyOp24
 70
     0
102
RTVSPropertyOp25
 70
     0
102
RTVSPropertyOp26
 70
     0
102
RTVSPropertyOp27
 70
     0
102
RTVSPropertyOp28
 70
     1
102
RTVSPropertyOp29
 70
     1
102
RTVSPropertyOp30
 70
     1
102
RTVSPropertyOp31
 70
     1
102
RTVSPropertyOp32
 70
     1
102
RTVSPropertyOp33
 70
     1
102
RTVSPropertyOp34
 70
     1
102
RTVSPropertyOp35
 70
     1
102
RTVSPropertyOp36
 70
     1
102
RTVSPropertyOp37
 70
     0
102
RTVSPropertyOp38
 70
     0
102
RTVSPropertyOp39
 70
     0
102
RTVSPropertyOp40
 70
     0
102
RTVSPropertyOp41
 70
     0
102
RTVSPropertyOp42
 70
     0
102
RTVSPropertyOp43
 70
     0
102
RTVSPropertyOp44
 70
     0
102
RTVSPropertyOp45
 70
     1
102
RTVSPropertyOp46
 70
     0
102
RTVSPropertyOp47
 70
     0
102
RTVSPropertyOp48
 70
     0
102
RTVSPropertyOp49
 70
     1
102
RTVSPropertyOp50
 70
     0
102
RTVSPropertyOp51
 70
     0
102
RTVSPropertyOp52
 70
     0
102
RTVSPropertyOp53
 70
     0
102
RTVSPropertyOp54
 70
     0
102
RTVSPropertyOp55
 70
     1
102
RTVSPropertyOp56
 70
     0
102
RTVSPropertyOp57
 70
     0
102
RTVSPropertyOp58
 70
     0
102
RTVSPropertyOp59
 70
     0
102
RTVSPropertyOp60
 70
     0
102
RTVSPropertyOp61
 70
     0
102
RTVSPropertyOp62
 70
     0
  0
XRECORD
  5
244C0
102
{ACAD_REACTORS
330
244BF
102
}
330
244BF
100
AcDbXrecord
280
     1
102
RTVSPost2010Prop28
280
     0
102
RTVSPost2010PropOp28
 70
     1
102
RTVSPost2010Prop29
280
     1
102
RTVSPost2010PropOp29
 70
     1
102
RTVSPost2010Prop30
280
     1
102
RTVSPost2010PropOp30
 70
     1
102
RTVSPost2010Prop31
280
     0
102
RTVSPost2010PropOp31
 70
     1
102
RTVSPost2010Prop32
280
     0
102
RTVSPost2010PropOp32
 70
     1
102
RTVSPost2010Prop33
280
     0
102
RTVSPost2010PropOp33
 70
     1
102
RTVSPost2010Prop34
280
     0
102
RTVSPost2010PropOp34
 70
     1
102
RTVSPost2010Prop35
280
     0
102
RTVSPost2010PropOp35
 70
     1
102
RTVSPost2010Prop36
280
     0
102
RTVSPost2010PropOp36
 70
     1
102
RTVSPost2010Prop37
 90
       50
102
RTVSPost2010PropOp37
 70
     1
102
RTVSPost2010Prop38
140
0.0
102
RTVSPost2010PropOp38
 70
     1
102
RTVSPost2010Prop39
140
1.0
102
RTVSPost2010PropOp39
 70
     1
102
RTVSPost2010Prop40
 90
        0
102
RTVSPost2010PropOp40
 70
     1
102
RTVSPost2010Prop41ColorIndex
 90
       18
102
RTVSPost2010Prop41ColorRGB
 90
        0
102
RTVSPost2010PropOp41
 70
     1
102
RTVSPost2010Prop42
 90
       50
102
RTVSPost2010PropOp42
 70
     1
102
RTVSPost2010Prop43
 90
        3
102
RTVSPost2010PropOp43
 70
     1
102
RTVSPost2010Prop44ColorIndex
 90
        5
102
RTVSPost2010Prop44ColorRGB
 90
      255
102
RTVSPost2010PropOp44
 70
     1
102
RTVSPost2010Prop45
280
     0
102
RTVSPost2010PropOp45
 70
     1
102
RTVSPost2010Prop46
 90
       50
102
RTVSPost2010PropOp46
 70
     1
102
RTVSPost2010Prop47
 90
       50
102
RTVSPost2010PropOp47
 70
     1
102
RTVSPost2010Prop48
 90
       50
102
RTVSPost2010PropOp48
 70
     1
102
RTVSPost2010Prop49
280
     0
102
RTVSPost2010PropOp49
 70
     1
102
RTVSPost2010Prop50
 90
       50
102
RTVSPost2010PropOp50
 70
     1
102
RTVSPost2010Prop51ColorIndex
 90
      256
102
RTVSPost2010Prop51ColorRGB
 90
-16777216
102
RTVSPost2010PropOp51
 70
     0
102
RTVSPost2010Prop52
140
1.0
102
RTVSPost2010PropOp52
 70
     0
102
RTVSPost2010Prop53
 90
        2
102
RTVSPost2010PropOp53
 70
     1
102
RTVSPost2010Prop54
  1
strokes_ogs.tif
102
RTVSPost2010PropOp54
 70
     1
102
RTVSPost2010Prop55
280
     0
102
RTVSPost2010PropOp55
 70
     1
102
RTVSPost2010Prop56
140
1.0
102
RTVSPost2010PropOp56
 70
     1
102
RTVSPost2010Prop57
140
1.0
102
RTVSPost2010PropOp57
 70
     1
102
RTVSPropertyOp0
 70
     1
102
RTVSPropertyOp1
 70
     1
102
RTVSPropertyOp2
 70
     1
102
RTVSPropertyOp3
 70
     1
102
RTVSPropertyOp4
 70
     1
102
RTVSPropertyOp5
 70
     1
102
RTVSPropertyOp6
 70
     1
102
RTVSPropertyOp7
 70
     1
102
RTVSPropertyOp8
 70
     1
102
RTVSPropertyOp9
 70
     1
102
RTVSPropertyOp10
 70
     1
102
RTVSPropertyOp11
 70
     1
102
RTVSPropertyOp12
 70
     1
102
RTVSPropertyOp13
 70
     1
102
RTVSPropertyOp14
 70
     1
102
RTVSPropertyOp15
 70
     1
102
RTVSPropertyOp16
 70
     1
102
RTVSPropertyOp17
 70
     1
102
RTVSPropertyOp18
 70
     1
102
RTVSPropertyOp19
 70
     1
102
RTVSPropertyOp20
 70
     1
102
RTVSPropertyOp21
 70
     1
102
RTVSPropertyOp22
 70
     1
102
RTVSPropertyOp23
 70
     1
102
RTVSPropertyOp24
 70
     1
102
RTVSPropertyOp25
 70
     1
102
RTVSPropertyOp26
 70
     1
102
RTVSPropertyOp27
 70
     1
102
RTVSPropertyOp28
 70
     1
102
RTVSPropertyOp29
 70
     1
102
RTVSPropertyOp30
 70
     1
102
RTVSPropertyOp31
 70
     1
102
RTVSPropertyOp32
 70
     1
102
RTVSPropertyOp33
 70
     1
102
RTVSPropertyOp34
 70
     1
102
RTVSPropertyOp35
 70
     1
102
RTVSPropertyOp36
 70
     1
102
RTVSPropertyOp37
 70
     1
102
RTVSPropertyOp38
 70
     1
102
RTVSPropertyOp39
 70
     1
102
RTVSPropertyOp40
 70
     1
102
RTVSPropertyOp41
 70
     1
102
RTVSPropertyOp42
 70
     1
102
RTVSPropertyOp43
 70
     1
102
RTVSPropertyOp44
 70
     1
102
RTVSPropertyOp45
 70
     1
102
RTVSPropertyOp46
 70
     1
102
RTVSPropertyOp47
 70
     1
102
RTVSPropertyOp48
 70
     1
102
RTVSPropertyOp49
 70
     1
102
RTVSPropertyOp50
 70
     1
102
RTVSPropertyOp51
 70
     0
102
RTVSPropertyOp52
 70
     0
102
RTVSPropertyOp53
 70
     1
102
RTVSPropertyOp54
 70
     1
102
RTVSPropertyOp55
 70
     1
102
RTVSPropertyOp56
 70
     1
102
RTVSPropertyOp57
 70
     1
102
RTVSPropertyOp58
 70
     1
102
RTVSPropertyOp59
 70
     1
102
RTVSPropertyOp60
 70
     1
102
RTVSPropertyOp61
 70
     1
102
RTVSPropertyOp62
 70
     1
  0
XRECORD
  5
244D6
102
{ACAD_REACTORS
330
244D5
102
}
330
244D5
100
AcDbXrecord
280
     1
102
RTVSPost2010Prop28
280
     0
102
RTVSPost2010PropOp28
 70
     1
102
RTVSPost2010Prop29
280
     1
102
RTVSPost2010PropOp29
 70
     1
102
RTVSPost2010Prop30
280
     1
102
RTVSPost2010PropOp30
 70
     1
102
RTVSPost2010Prop31
280
     0
102
RTVSPost2010PropOp31
 70
     1
102
RTVSPost2010Prop32
280
     0
102
RTVSPost2010PropOp32
 70
     1
102
RTVSPost2010Prop33
280
     0
102
RTVSPost2010PropOp33
 70
     1
102
RTVSPost2010Prop34
280
     0
102
RTVSPost2010PropOp34
 70
     1
102
RTVSPost2010Prop35
280
     0
102
RTVSPost2010PropOp35
 70
     1
102
RTVSPost2010Prop36
280
     0
102
RTVSPost2010PropOp36
 70
     1
102
RTVSPost2010Prop37
 90
       50
102
RTVSPost2010PropOp37
 70
     1
102
RTVSPost2010Prop38
140
0.0
102
RTVSPost2010PropOp38
 70
     1
102
RTVSPost2010Prop39
140
1.0
102
RTVSPost2010PropOp39
 70
     1
102
RTVSPost2010Prop40
 90
        0
102
RTVSPost2010PropOp40
 70
     1
102
RTVSPost2010Prop41ColorIndex
 90
       18
102
RTVSPost2010Prop41ColorRGB
 90
        0
102
RTVSPost2010PropOp41
 70
     1
102
RTVSPost2010Prop42
 90
       50
102
RTVSPost2010PropOp42
 70
     1
102
RTVSPost2010Prop43
 90
        3
102
RTVSPost2010PropOp43
 70
     1
102
RTVSPost2010Prop44ColorIndex
 90
        5
102
RTVSPost2010Prop44ColorRGB
 90
      255
102
RTVSPost2010PropOp44
 70
     1
102
RTVSPost2010Prop45
280
     0
102
RTVSPost2010PropOp45
 70
     1
102
RTVSPost2010Prop46
 90
       50
102
RTVSPost2010PropOp46
 70
     1
102
RTVSPost2010Prop47
 90
       50
102
RTVSPost2010PropOp47
 70
     1
102
RTVSPost2010Prop48
 90
       50
102
RTVSPost2010PropOp48
 70
     1
102
RTVSPost2010Prop49
280
     0
102
RTVSPost2010PropOp49
 70
     1
102
RTVSPost2010Prop50
 90
       50
102
RTVSPost2010PropOp50
 70
     1
102
RTVSPost2010Prop51ColorIndex
 90
      256
102
RTVSPost2010Prop51ColorRGB
 90
-16777216
102
RTVSPost2010PropOp51
 70
     0
102
RTVSPost2010Prop52
140
1.0
102
RTVSPost2010PropOp52
 70
     0
102
RTVSPost2010Prop53
 90
        2
102
RTVSPost2010PropOp53
 70
     1
102
RTVSPost2010Prop54
  1
strokes_ogs.tif
102
RTVSPost2010PropOp54
 70
     1
102
RTVSPost2010Prop55
280
     0
102
RTVSPost2010PropOp55
 70
     1
102
RTVSPost2010Prop56
140
1.0
102
RTVSPost2010PropOp56
 70
     1
102
RTVSPost2010Prop57
140
1.0
102
RTVSPost2010PropOp57
 70
     1
102
RTVSPropertyOp0
 70
     1
102
RTVSPropertyOp1
 70
     1
102
RTVSPropertyOp2
 70
     1
102
RTVSPropertyOp3
 70
     1
102
RTVSPropertyOp4
 70
     1
102
RTVSPropertyOp5
 70
     1
102
RTVSPropertyOp6
 70
     1
102
RTVSPropertyOp7
 70
     1
102
RTVSPropertyOp8
 70
     1
102
RTVSPropertyOp9
 70
     1
102
RTVSPropertyOp10
 70
     1
102
RTVSPropertyOp11
 70
     1
102
RTVSPropertyOp12
 70
     1
102
RTVSPropertyOp13
 70
     1
102
RTVSPropertyOp14
 70
     1
102
RTVSPropertyOp15
 70
     1
102
RTVSPropertyOp16
 70
     1
102
RTVSPropertyOp17
 70
     1
102
RTVSPropertyOp18
 70
     1
102
RTVSPropertyOp19
 70
     1
102
RTVSPropertyOp20
 70
     1
102
RTVSPropertyOp21
 70
     1
102
RTVSPropertyOp22
 70
     1
102
RTVSPropertyOp23
 70
     1
102
RTVSPropertyOp24
 70
     1
102
RTVSPropertyOp25
 70
     1
102
RTVSPropertyOp26
 70
     1
102
RTVSPropertyOp27
 70
     1
102
RTVSPropertyOp28
 70
     1
102
RTVSPropertyOp29
 70
     1
102
RTVSPropertyOp30
 70
     1
102
RTVSPropertyOp31
 70
     1
102
RTVSPropertyOp32
 70
     1
102
RTVSPropertyOp33
 70
     1
102
RTVSPropertyOp34
 70
     1
102
RTVSPropertyOp35
 70
     1
102
RTVSPropertyOp36
 70
     1
102
RTVSPropertyOp37
 70
     1
102
RTVSPropertyOp38
 70
     1
102
RTVSPropertyOp39
 70
     1
102
RTVSPropertyOp40
 70
     1
102
RTVSPropertyOp41
 70
     1
102
RTVSPropertyOp42
 70
     1
102
RTVSPropertyOp43
 70
     1
102
RTVSPropertyOp44
 70
     1
102
RTVSPropertyOp45
 70
     1
102
RTVSPropertyOp46
 70
     1
102
RTVSPropertyOp47
 70
     1
102
RTVSPropertyOp48
 70
     1
102
RTVSPropertyOp49
 70
     1
102
RTVSPropertyOp50
 70
     1
102
RTVSPropertyOp51
 70
     0
102
RTVSPropertyOp52
 70
     0
102
RTVSPropertyOp53
 70
     1
102
RTVSPropertyOp54
 70
     1
102
RTVSPropertyOp55
 70
     1
102
RTVSPropertyOp56
 70
     1
102
RTVSPropertyOp57
 70
     1
102
RTVSPropertyOp58
 70
     1
102
RTVSPropertyOp59
 70
     1
102
RTVSPropertyOp60
 70
     1
102
RTVSPropertyOp61
 70
     1
102
RTVSPropertyOp62
 70
     1
  0
XRECORD
  5
244D4
102
{ACAD_REACTORS
330
244D3
102
}
330
244D3
100
AcDbXrecord
280
     1
102
RTVSPost2010Prop28
280
     0
102
RTVSPost2010PropOp28
 70
     1
102
RTVSPost2010Prop29
280
     1
102
RTVSPost2010PropOp29
 70
     1
102
RTVSPost2010Prop30
280
     1
102
RTVSPost2010PropOp30
 70
     1
102
RTVSPost2010Prop31
280
     0
102
RTVSPost2010PropOp31
 70
     1
102
RTVSPost2010Prop32
280
     0
102
RTVSPost2010PropOp32
 70
     1
102
RTVSPost2010Prop33
280
     0
102
RTVSPost2010PropOp33
 70
     1
102
RTVSPost2010Prop34
280
     0
102
RTVSPost2010PropOp34
 70
     1
102
RTVSPost2010Prop35
280
     0
102
RTVSPost2010PropOp35
 70
     1
102
RTVSPost2010Prop36
280
     0
102
RTVSPost2010PropOp36
 70
     1
102
RTVSPost2010Prop37
 90
       50
102
RTVSPost2010PropOp37
 70
     1
102
RTVSPost2010Prop38
140
0.0
102
RTVSPost2010PropOp38
 70
     1
102
RTVSPost2010Prop39
140
1.0
102
RTVSPost2010PropOp39
 70
     1
102
RTVSPost2010Prop40
 90
        0
102
RTVSPost2010PropOp40
 70
     1
102
RTVSPost2010Prop41ColorIndex
 90
       18
102
RTVSPost2010Prop41ColorRGB
 90
        0
102
RTVSPost2010PropOp41
 70
     1
102
RTVSPost2010Prop42
 90
       50
102
RTVSPost2010PropOp42
 70
     1
102
RTVSPost2010Prop43
 90
        3
102
RTVSPost2010PropOp43
 70
     1
102
RTVSPost2010Prop44ColorIndex
 90
        5
102
RTVSPost2010Prop44ColorRGB
 90
      255
102
RTVSPost2010PropOp44
 70
     1
102
RTVSPost2010Prop45
280
     0
102
RTVSPost2010PropOp45
 70
     1
102
RTVSPost2010Prop46
 90
       50
102
RTVSPost2010PropOp46
 70
     1
102
RTVSPost2010Prop47
 90
       50
102
RTVSPost2010PropOp47
 70
     1
102
RTVSPost2010Prop48
 90
       50
102
RTVSPost2010PropOp48
 70
     1
102
RTVSPost2010Prop49
280
     0
102
RTVSPost2010PropOp49
 70
     1
102
RTVSPost2010Prop50
 90
       50
102
RTVSPost2010PropOp50
 70
     1
102
RTVSPost2010Prop51ColorIndex
 90
      256
102
RTVSPost2010Prop51ColorRGB
 90
-16777216
102
RTVSPost2010PropOp51
 70
     0
102
RTVSPost2010Prop52
140
1.0
102
RTVSPost2010PropOp52
 70
     0
102
RTVSPost2010Prop53
 90
        2
102
RTVSPost2010PropOp53
 70
     1
102
RTVSPost2010Prop54
  1
strokes_ogs.tif
102
RTVSPost2010PropOp54
 70
     1
102
RTVSPost2010Prop55
280
     0
102
RTVSPost2010PropOp55
 70
     1
102
RTVSPost2010Prop56
140
1.0
102
RTVSPost2010PropOp56
 70
     1
102
RTVSPost2010Prop57
140
1.0
102
RTVSPost2010PropOp57
 70
     1
102
RTVSPropertyOp0
 70
     1
102
RTVSPropertyOp1
 70
     1
102
RTVSPropertyOp2
 70
     1
102
RTVSPropertyOp3
 70
     1
102
RTVSPropertyOp4
 70
     1
102
RTVSPropertyOp5
 70
     1
102
RTVSPropertyOp6
 70
     1
102
RTVSPropertyOp7
 70
     1
102
RTVSPropertyOp8
 70
     1
102
RTVSPropertyOp9
 70
     1
102
RTVSPropertyOp10
 70
     1
102
RTVSPropertyOp11
 70
     1
102
RTVSPropertyOp12
 70
     1
102
RTVSPropertyOp13
 70
     1
102
RTVSPropertyOp14
 70
     1
102
RTVSPropertyOp15
 70
     1
102
RTVSPropertyOp16
 70
     1
102
RTVSPropertyOp17
 70
     1
102
RTVSPropertyOp18
 70
     1
102
RTVSPropertyOp19
 70
     1
102
RTVSPropertyOp20
 70
     1
102
RTVSPropertyOp21
 70
     1
102
RTVSPropertyOp22
 70
     1
102
RTVSPropertyOp23
 70
     1
102
RTVSPropertyOp24
 70
     1
102
RTVSPropertyOp25
 70
     1
102
RTVSPropertyOp26
 70
     1
102
RTVSPropertyOp27
 70
     1
102
RTVSPropertyOp28
 70
     1
102
RTVSPropertyOp29
 70
     1
102
RTVSPropertyOp30
 70
     1
102
RTVSPropertyOp31
 70
     1
102
RTVSPropertyOp32
 70
     1
102
RTVSPropertyOp33
 70
     1
102
RTVSPropertyOp34
 70
     1
102
RTVSPropertyOp35
 70
     1
102
RTVSPropertyOp36
 70
     1
102
RTVSPropertyOp37
 70
     1
102
RTVSPropertyOp38
 70
     1
102
RTVSPropertyOp39
 70
     1
102
RTVSPropertyOp40
 70
     1
102
RTVSPropertyOp41
 70
     1
102
RTVSPropertyOp42
 70
     1
102
RTVSPropertyOp43
 70
     1
102
RTVSPropertyOp44
 70
     1
102
RTVSPropertyOp45
 70
     1
102
RTVSPropertyOp46
 70
     1
102
RTVSPropertyOp47
 70
     1
102
RTVSPropertyOp48
 70
     1
102
RTVSPropertyOp49
 70
     1
102
RTVSPropertyOp50
 70
     1
102
RTVSPropertyOp51
 70
     0
102
RTVSPropertyOp52
 70
     0
102
RTVSPropertyOp53
 70
     1
102
RTVSPropertyOp54
 70
     1
102
RTVSPropertyOp55
 70
     1
102
RTVSPropertyOp56
 70
     1
102
RTVSPropertyOp57
 70
     1
102
RTVSPropertyOp58
 70
     1
102
RTVSPropertyOp59
 70
     1
102
RTVSPropertyOp60
 70
     1
102
RTVSPropertyOp61
 70
     1
102
RTVSPropertyOp62
 70
     1
  0
XRECORD
  5
244CE
102
{ACAD_REACTORS
330
244CD
102
}
330
244CD
100
AcDbXrecord
280
     1
102
RTVSPost2010Prop28
280
     0
102
RTVSPost2010PropOp28
 70
     1
102
RTVSPost2010Prop29
280
     1
102
RTVSPost2010PropOp29
 70
     1
102
RTVSPost2010Prop30
280
     1
102
RTVSPost2010PropOp30
 70
     1
102
RTVSPost2010Prop31
280
     0
102
RTVSPost2010PropOp31
 70
     1
102
RTVSPost2010Prop32
280
     0
102
RTVSPost2010PropOp32
 70
     1
102
RTVSPost2010Prop33
280
     0
102
RTVSPost2010PropOp33
 70
     1
102
RTVSPost2010Prop34
280
     0
102
RTVSPost2010PropOp34
 70
     1
102
RTVSPost2010Prop35
280
     0
102
RTVSPost2010PropOp35
 70
     1
102
RTVSPost2010Prop36
280
     0
102
RTVSPost2010PropOp36
 70
     1
102
RTVSPost2010Prop37
 90
       50
102
RTVSPost2010PropOp37
 70
     1
102
RTVSPost2010Prop38
140
0.0
102
RTVSPost2010PropOp38
 70
     1
102
RTVSPost2010Prop39
140
1.0
102
RTVSPost2010PropOp39
 70
     1
102
RTVSPost2010Prop40
 90
        0
102
RTVSPost2010PropOp40
 70
     1
102
RTVSPost2010Prop41ColorIndex
 90
       18
102
RTVSPost2010Prop41ColorRGB
 90
        0
102
RTVSPost2010PropOp41
 70
     1
102
RTVSPost2010Prop42
 90
       50
102
RTVSPost2010PropOp42
 70
     1
102
RTVSPost2010Prop43
 90
        3
102
RTVSPost2010PropOp43
 70
     1
102
RTVSPost2010Prop44ColorIndex
 90
        5
102
RTVSPost2010Prop44ColorRGB
 90
      255
102
RTVSPost2010PropOp44
 70
     1
102
RTVSPost2010Prop45
280
     0
102
RTVSPost2010PropOp45
 70
     1
102
RTVSPost2010Prop46
 90
       50
102
RTVSPost2010PropOp46
 70
     1
102
RTVSPost2010Prop47
 90
       50
102
RTVSPost2010PropOp47
 70
     1
102
RTVSPost2010Prop48
 90
       50
102
RTVSPost2010PropOp48
 70
     1
102
RTVSPost2010Prop49
280
     0
102
RTVSPost2010PropOp49
 70
     1
102
RTVSPost2010Prop50
 90
       50
102
RTVSPost2010PropOp50
 70
     1
102
RTVSPost2010Prop51ColorIndex
 90
      256
102
RTVSPost2010Prop51ColorRGB
 90
-16777216
102
RTVSPost2010PropOp51
 70
     0
102
RTVSPost2010Prop52
140
1.0
102
RTVSPost2010PropOp52
 70
     0
102
RTVSPost2010Prop53
 90
        2
102
RTVSPost2010PropOp53
 70
     1
102
RTVSPost2010Prop54
  1
strokes_ogs.tif
102
RTVSPost2010PropOp54
 70
     1
102
RTVSPost2010Prop55
280
     0
102
RTVSPost2010PropOp55
 70
     1
102
RTVSPost2010Prop56
140
1.0
102
RTVSPost2010PropOp56
 70
     1
102
RTVSPost2010Prop57
140
1.0
102
RTVSPost2010PropOp57
 70
     1
102
RTVSPropertyOp0
 70
     1
102
RTVSPropertyOp1
 70
     1
102
RTVSPropertyOp2
 70
     1
102
RTVSPropertyOp3
 70
     1
102
RTVSPropertyOp4
 70
     1
102
RTVSPropertyOp5
 70
     1
102
RTVSPropertyOp6
 70
     1
102
RTVSPropertyOp7
 70
     1
102
RTVSPropertyOp8
 70
     1
102
RTVSPropertyOp9
 70
     1
102
RTVSPropertyOp10
 70
     1
102
RTVSPropertyOp11
 70
     1
102
RTVSPropertyOp12
 70
     1
102
RTVSPropertyOp13
 70
     1
102
RTVSPropertyOp14
 70
     1
102
RTVSPropertyOp15
 70
     1
102
RTVSPropertyOp16
 70
     1
102
RTVSPropertyOp17
 70
     1
102
RTVSPropertyOp18
 70
     1
102
RTVSPropertyOp19
 70
     1
102
RTVSPropertyOp20
 70
     1
102
RTVSPropertyOp21
 70
     1
102
RTVSPropertyOp22
 70
     1
102
RTVSPropertyOp23
 70
     1
102
RTVSPropertyOp24
 70
     1
102
RTVSPropertyOp25
 70
     1
102
RTVSPropertyOp26
 70
     1
102
RTVSPropertyOp27
 70
     1
102
RTVSPropertyOp28
 70
     1
102
RTVSPropertyOp29
 70
     1
102
RTVSPropertyOp30
 70
     1
102
RTVSPropertyOp31
 70
     1
102
RTVSPropertyOp32
 70
     1
102
RTVSPropertyOp33
 70
     1
102
RTVSPropertyOp34
 70
     1
102
RTVSPropertyOp35
 70
     1
102
RTVSPropertyOp36
 70
     1
102
RTVSPropertyOp37
 70
     1
102
RTVSPropertyOp38
 70
     1
102
RTVSPropertyOp39
 70
     1
102
RTVSPropertyOp40
 70
     1
102
RTVSPropertyOp41
 70
     1
102
RTVSPropertyOp42
 70
     1
102
RTVSPropertyOp43
 70
     1
102
RTVSPropertyOp44
 70
     1
102
RTVSPropertyOp45
 70
     1
102
RTVSPropertyOp46
 70
     1
102
RTVSPropertyOp47
 70
     1
102
RTVSPropertyOp48
 70
     1
102
RTVSPropertyOp49
 70
     1
102
RTVSPropertyOp50
 70
     1
102
RTVSPropertyOp51
 70
     0
102
RTVSPropertyOp52
 70
     0
102
RTVSPropertyOp53
 70
     1
102
RTVSPropertyOp54
 70
     1
102
RTVSPropertyOp55
 70
     1
102
RTVSPropertyOp56
 70
     1
102
RTVSPropertyOp57
 70
     1
102
RTVSPropertyOp58
 70
     1
102
RTVSPropertyOp59
 70
     1
102
RTVSPropertyOp60
 70
     1
102
RTVSPropertyOp61
 70
     1
102
RTVSPropertyOp62
 70
     1
  0
XRECORD
  5
244D0
102
{ACAD_REACTORS
330
244CF
102
}
330
244CF
100
AcDbXrecord
280
     1
102
RTVSPost2010Prop28
280
     0
102
RTVSPost2010PropOp28
 70
     1
102
RTVSPost2010Prop29
280
     1
102
RTVSPost2010PropOp29
 70
     1
102
RTVSPost2010Prop30
280
     1
102
RTVSPost2010PropOp30
 70
     1
102
RTVSPost2010Prop31
280
     0
102
RTVSPost2010PropOp31
 70
     1
102
RTVSPost2010Prop32
280
     0
102
RTVSPost2010PropOp32
 70
     1
102
RTVSPost2010Prop33
280
     0
102
RTVSPost2010PropOp33
 70
     1
102
RTVSPost2010Prop34
280
     0
102
RTVSPost2010PropOp34
 70
     1
102
RTVSPost2010Prop35
280
     0
102
RTVSPost2010PropOp35
 70
     1
102
RTVSPost2010Prop36
280
     0
102
RTVSPost2010PropOp36
 70
     1
102
RTVSPost2010Prop37
 90
       50
102
RTVSPost2010PropOp37
 70
     1
102
RTVSPost2010Prop38
140
0.0
102
RTVSPost2010PropOp38
 70
     1
102
RTVSPost2010Prop39
140
1.0
102
RTVSPost2010PropOp39
 70
     1
102
RTVSPost2010Prop40
 90
        0
102
RTVSPost2010PropOp40
 70
     1
102
RTVSPost2010Prop41ColorIndex
 90
       18
102
RTVSPost2010Prop41ColorRGB
 90
        0
102
RTVSPost2010PropOp41
 70
     1
102
RTVSPost2010Prop42
 90
       50
102
RTVSPost2010PropOp42
 70
     1
102
RTVSPost2010Prop43
 90
        3
102
RTVSPost2010PropOp43
 70
     1
102
RTVSPost2010Prop44ColorIndex
 90
        5
102
RTVSPost2010Prop44ColorRGB
 90
      255
102
RTVSPost2010PropOp44
 70
     1
102
RTVSPost2010Prop45
280
     0
102
RTVSPost2010PropOp45
 70
     1
102
RTVSPost2010Prop46
 90
       50
102
RTVSPost2010PropOp46
 70
     1
102
RTVSPost2010Prop47
 90
       50
102
RTVSPost2010PropOp47
 70
     1
102
RTVSPost2010Prop48
 90
       50
102
RTVSPost2010PropOp48
 70
     1
102
RTVSPost2010Prop49
280
     0
102
RTVSPost2010PropOp49
 70
     1
102
RTVSPost2010Prop50
 90
       50
102
RTVSPost2010PropOp50
 70
     1
102
RTVSPost2010Prop51ColorIndex
 90
      256
102
RTVSPost2010Prop51ColorRGB
 90
-16777216
102
RTVSPost2010PropOp51
 70
     0
102
RTVSPost2010Prop52
140
1.0
102
RTVSPost2010PropOp52
 70
     0
102
RTVSPost2010Prop53
 90
        2
102
RTVSPost2010PropOp53
 70
     1
102
RTVSPost2010Prop54
  1
strokes_ogs.tif
102
RTVSPost2010PropOp54
 70
     1
102
RTVSPost2010Prop55
280
     0
102
RTVSPost2010PropOp55
 70
     1
102
RTVSPost2010Prop56
140
1.0
102
RTVSPost2010PropOp56
 70
     1
102
RTVSPost2010Prop57
140
1.0
102
RTVSPost2010PropOp57
 70
     1
102
RTVSPropertyOp0
 70
     1
102
RTVSPropertyOp1
 70
     1
102
RTVSPropertyOp2
 70
     1
102
RTVSPropertyOp3
 70
     1
102
RTVSPropertyOp4
 70
     1
102
RTVSPropertyOp5
 70
     1
102
RTVSPropertyOp6
 70
     1
102
RTVSPropertyOp7
 70
     1
102
RTVSPropertyOp8
 70
     1
102
RTVSPropertyOp9
 70
     1
102
RTVSPropertyOp10
 70
     1
102
RTVSPropertyOp11
 70
     1
102
RTVSPropertyOp12
 70
     1
102
RTVSPropertyOp13
 70
     1
102
RTVSPropertyOp14
 70
     1
102
RTVSPropertyOp15
 70
     1
102
RTVSPropertyOp16
 70
     1
102
RTVSPropertyOp17
 70
     1
102
RTVSPropertyOp18
 70
     1
102
RTVSPropertyOp19
 70
     1
102
RTVSPropertyOp20
 70
     1
102
RTVSPropertyOp21
 70
     1
102
RTVSPropertyOp22
 70
     1
102
RTVSPropertyOp23
 70
     1
102
RTVSPropertyOp24
 70
     1
102
RTVSPropertyOp25
 70
     1
102
RTVSPropertyOp26
 70
     1
102
RTVSPropertyOp27
 70
     1
102
RTVSPropertyOp28
 70
     1
102
RTVSPropertyOp29
 70
     1
102
RTVSPropertyOp30
 70
     1
102
RTVSPropertyOp31
 70
     1
102
RTVSPropertyOp32
 70
     1
102
RTVSPropertyOp33
 70
     1
102
RTVSPropertyOp34
 70
     1
102
RTVSPropertyOp35
 70
     1
102
RTVSPropertyOp36
 70
     1
102
RTVSPropertyOp37
 70
     1
102
RTVSPropertyOp38
 70
     1
102
RTVSPropertyOp39
 70
     1
102
RTVSPropertyOp40
 70
     1
102
RTVSPropertyOp41
 70
     1
102
RTVSPropertyOp42
 70
     1
102
RTVSPropertyOp43
 70
     1
102
RTVSPropertyOp44
 70
     1
102
RTVSPropertyOp45
 70
     1
102
RTVSPropertyOp46
 70
     1
102
RTVSPropertyOp47
 70
     1
102
RTVSPropertyOp48
 70
     1
102
RTVSPropertyOp49
 70
     1
102
RTVSPropertyOp50
 70
     1
102
RTVSPropertyOp51
 70
     0
102
RTVSPropertyOp52
 70
     0
102
RTVSPropertyOp53
 70
     1
102
RTVSPropertyOp54
 70
     1
102
RTVSPropertyOp55
 70
     1
102
RTVSPropertyOp56
 70
     1
102
RTVSPropertyOp57
 70
     1
102
RTVSPropertyOp58
 70
     1
102
RTVSPropertyOp59
 70
     1
102
RTVSPropertyOp60
 70
     1
102
RTVSPropertyOp61
 70
     1
102
RTVSPropertyOp62
 70
     1
  0
XRECORD
  5
244C6
102
{ACAD_REACTORS
330
244C5
102
}
330
244C5
100
AcDbXrecord
280
     1
102
RTVSPost2010Prop28
280
     0
102
RTVSPost2010PropOp28
 70
     1
102
RTVSPost2010Prop29
280
     1
102
RTVSPost2010PropOp29
 70
     1
102
RTVSPost2010Prop30
280
     1
102
RTVSPost2010PropOp30
 70
     1
102
RTVSPost2010Prop31
280
     0
102
RTVSPost2010PropOp31
 70
     1
102
RTVSPost2010Prop32
280
     0
102
RTVSPost2010PropOp32
 70
     1
102
RTVSPost2010Prop33
280
     0
102
RTVSPost2010PropOp33
 70
     1
102
RTVSPost2010Prop34
280
     0
102
RTVSPost2010PropOp34
 70
     1
102
RTVSPost2010Prop35
280
     0
102
RTVSPost2010PropOp35
 70
     1
102
RTVSPost2010Prop36
280
     0
102
RTVSPost2010PropOp36
 70
     1
102
RTVSPost2010Prop37
 90
       50
102
RTVSPost2010PropOp37
 70
     1
102
RTVSPost2010Prop38
140
0.0
102
RTVSPost2010PropOp38
 70
     1
102
RTVSPost2010Prop39
140
1.0
102
RTVSPost2010PropOp39
 70
     1
102
RTVSPost2010Prop40
 90
        0
102
RTVSPost2010PropOp40
 70
     1
102
RTVSPost2010Prop41ColorIndex
 90
       18
102
RTVSPost2010Prop41ColorRGB
 90
        0
102
RTVSPost2010PropOp41
 70
     1
102
RTVSPost2010Prop42
 90
       50
102
RTVSPost2010PropOp42
 70
     1
102
RTVSPost2010Prop43
 90
        3
102
RTVSPost2010PropOp43
 70
     1
102
RTVSPost2010Prop44ColorIndex
 90
        5
102
RTVSPost2010Prop44ColorRGB
 90
      255
102
RTVSPost2010PropOp44
 70
     1
102
RTVSPost2010Prop45
280
     0
102
RTVSPost2010PropOp45
 70
     1
102
RTVSPost2010Prop46
 90
       50
102
RTVSPost2010PropOp46
 70
     1
102
RTVSPost2010Prop47
 90
       50
102
RTVSPost2010PropOp47
 70
     1
102
RTVSPost2010Prop48
 90
       50
102
RTVSPost2010PropOp48
 70
     1
102
RTVSPost2010Prop49
280
     0
102
RTVSPost2010PropOp49
 70
     1
102
RTVSPost2010Prop50
 90
       50
102
RTVSPost2010PropOp50
 70
     1
102
RTVSPost2010Prop51ColorIndex
 90
      256
102
RTVSPost2010Prop51ColorRGB
 90
-16777216
102
RTVSPost2010PropOp51
 70
     0
102
RTVSPost2010Prop52
140
1.0
102
RTVSPost2010PropOp52
 70
     0
102
RTVSPost2010Prop53
 90
        2
102
RTVSPost2010PropOp53
 70
     1
102
RTVSPost2010Prop54
  1
strokes_ogs.tif
102
RTVSPost2010PropOp54
 70
     1
102
RTVSPost2010Prop55
280
     0
102
RTVSPost2010PropOp55
 70
     1
102
RTVSPost2010Prop56
140
1.0
102
RTVSPost2010PropOp56
 70
     1
102
RTVSPost2010Prop57
140
1.0
102
RTVSPost2010PropOp57
 70
     1
102
RTVSPropertyOp0
 70
     1
102
RTVSPropertyOp1
 70
     1
102
RTVSPropertyOp2
 70
     1
102
RTVSPropertyOp3
 70
     1
102
RTVSPropertyOp4
 70
     1
102
RTVSPropertyOp5
 70
     1
102
RTVSPropertyOp6
 70
     1
102
RTVSPropertyOp7
 70
     1
102
RTVSPropertyOp8
 70
     1
102
RTVSPropertyOp9
 70
     1
102
RTVSPropertyOp10
 70
     1
102
RTVSPropertyOp11
 70
     1
102
RTVSPropertyOp12
 70
     1
102
RTVSPropertyOp13
 70
     1
102
RTVSPropertyOp14
 70
     1
102
RTVSPropertyOp15
 70
     1
102
RTVSPropertyOp16
 70
     1
102
RTVSPropertyOp17
 70
     1
102
RTVSPropertyOp18
 70
     1
102
RTVSPropertyOp19
 70
     1
102
RTVSPropertyOp20
 70
     1
102
RTVSPropertyOp21
 70
     1
102
RTVSPropertyOp22
 70
     1
102
RTVSPropertyOp23
 70
     1
102
RTVSPropertyOp24
 70
     1
102
RTVSPropertyOp25
 70
     1
102
RTVSPropertyOp26
 70
     1
102
RTVSPropertyOp27
 70
     1
102
RTVSPropertyOp28
 70
     1
102
RTVSPropertyOp29
 70
     1
102
RTVSPropertyOp30
 70
     1
102
RTVSPropertyOp31
 70
     1
102
RTVSPropertyOp32
 70
     1
102
RTVSPropertyOp33
 70
     1
102
RTVSPropertyOp34
 70
     1
102
RTVSPropertyOp35
 70
     1
102
RTVSPropertyOp36
 70
     1
102
RTVSPropertyOp37
 70
     1
102
RTVSPropertyOp38
 70
     1
102
RTVSPropertyOp39
 70
     1
102
RTVSPropertyOp40
 70
     1
102
RTVSPropertyOp41
 70
     1
102
RTVSPropertyOp42
 70
     1
102
RTVSPropertyOp43
 70
     1
102
RTVSPropertyOp44
 70
     1
102
RTVSPropertyOp45
 70
     1
102
RTVSPropertyOp46
 70
     1
102
RTVSPropertyOp47
 70
     1
102
RTVSPropertyOp48
 70
     1
102
RTVSPropertyOp49
 70
     1
102
RTVSPropertyOp50
 70
     1
102
RTVSPropertyOp51
 70
     0
102
RTVSPropertyOp52
 70
     0
102
RTVSPropertyOp53
 70
     1
102
RTVSPropertyOp54
 70
     1
102
RTVSPropertyOp55
 70
     1
102
RTVSPropertyOp56
 70
     1
102
RTVSPropertyOp57
 70
     1
102
RTVSPropertyOp58
 70
     1
102
RTVSPropertyOp59
 70
     1
102
RTVSPropertyOp60
 70
     1
102
RTVSPropertyOp61
 70
     1
102
RTVSPropertyOp62
 70
     1
  0
XRECORD
  5
244BA
102
{ACAD_REACTORS
330
244B9
102
}
330
244B9
100
AcDbXrecord
280
     1
102
RTVSPost2010Prop28
280
     0
102
RTVSPost2010PropOp28
 70
     1
102
RTVSPost2010Prop29
280
     1
102
RTVSPost2010PropOp29
 70
     1
102
RTVSPost2010Prop30
280
     1
102
RTVSPost2010PropOp30
 70
     1
102
RTVSPost2010Prop31
280
     0
102
RTVSPost2010PropOp31
 70
     1
102
RTVSPost2010Prop32
280
     0
102
RTVSPost2010PropOp32
 70
     1
102
RTVSPost2010Prop33
280
     0
102
RTVSPost2010PropOp33
 70
     1
102
RTVSPost2010Prop34
280
     0
102
RTVSPost2010PropOp34
 70
     1
102
RTVSPost2010Prop35
280
     0
102
RTVSPost2010PropOp35
 70
     1
102
RTVSPost2010Prop36
280
     0
102
RTVSPost2010PropOp36
 70
     1
102
RTVSPost2010Prop37
 90
       50
102
RTVSPost2010PropOp37
 70
     1
102
RTVSPost2010Prop38
140
0.0
102
RTVSPost2010PropOp38
 70
     1
102
RTVSPost2010Prop39
140
1.0
102
RTVSPost2010PropOp39
 70
     1
102
RTVSPost2010Prop40
 90
        0
102
RTVSPost2010PropOp40
 70
     1
102
RTVSPost2010Prop41ColorIndex
 90
       18
102
RTVSPost2010Prop41ColorRGB
 90
        0
102
RTVSPost2010PropOp41
 70
     1
102
RTVSPost2010Prop42
 90
       50
102
RTVSPost2010PropOp42
 70
     1
102
RTVSPost2010Prop43
 90
        3
102
RTVSPost2010PropOp43
 70
     1
102
RTVSPost2010Prop44ColorIndex
 90
        5
102
RTVSPost2010Prop44ColorRGB
 90
      255
102
RTVSPost2010PropOp44
 70
     1
102
RTVSPost2010Prop45
280
     0
102
RTVSPost2010PropOp45
 70
     1
102
RTVSPost2010Prop46
 90
       50
102
RTVSPost2010PropOp46
 70
     1
102
RTVSPost2010Prop47
 90
       50
102
RTVSPost2010PropOp47
 70
     1
102
RTVSPost2010Prop48
 90
       50
102
RTVSPost2010PropOp48
 70
     1
102
RTVSPost2010Prop49
280
     0
102
RTVSPost2010PropOp49
 70
     1
102
RTVSPost2010Prop50
 90
       50
102
RTVSPost2010PropOp50
 70
     1
102
RTVSPost2010Prop51ColorIndex
 90
      256
102
RTVSPost2010Prop51ColorRGB
 90
-16777216
102
RTVSPost2010PropOp51
 70
     0
102
RTVSPost2010Prop52
140
1.0
102
RTVSPost2010PropOp52
 70
     0
102
RTVSPost2010Prop53
 90
        2
102
RTVSPost2010PropOp53
 70
     1
102
RTVSPost2010Prop54
  1
strokes_ogs.tif
102
RTVSPost2010PropOp54
 70
     1
102
RTVSPost2010Prop55
280
     0
102
RTVSPost2010PropOp55
 70
     1
102
RTVSPost2010Prop56
140
1.0
102
RTVSPost2010PropOp56
 70
     1
102
RTVSPost2010Prop57
140
1.0
102
RTVSPost2010PropOp57
 70
     1
102
RTVSPropertyOp0
 70
     1
102
RTVSPropertyOp1
 70
     1
102
RTVSPropertyOp2
 70
     1
102
RTVSPropertyOp3
 70
     1
102
RTVSPropertyOp4
 70
     1
102
RTVSPropertyOp5
 70
     1
102
RTVSPropertyOp6
 70
     1
102
RTVSPropertyOp7
 70
     1
102
RTVSPropertyOp8
 70
     1
102
RTVSPropertyOp9
 70
     1
102
RTVSPropertyOp10
 70
     1
102
RTVSPropertyOp11
 70
     1
102
RTVSPropertyOp12
 70
     1
102
RTVSPropertyOp13
 70
     1
102
RTVSPropertyOp14
 70
     1
102
RTVSPropertyOp15
 70
     1
102
RTVSPropertyOp16
 70
     1
102
RTVSPropertyOp17
 70
     1
102
RTVSPropertyOp18
 70
     1
102
RTVSPropertyOp19
 70
     1
102
RTVSPropertyOp20
 70
     1
102
RTVSPropertyOp21
 70
     1
102
RTVSPropertyOp22
 70
     1
102
RTVSPropertyOp23
 70
     1
102
RTVSPropertyOp24
 70
     1
102
RTVSPropertyOp25
 70
     1
102
RTVSPropertyOp26
 70
     1
102
RTVSPropertyOp27
 70
     1
102
RTVSPropertyOp28
 70
     1
102
RTVSPropertyOp29
 70
     1
102
RTVSPropertyOp30
 70
     1
102
RTVSPropertyOp31
 70
     1
102
RTVSPropertyOp32
 70
     1
102
RTVSPropertyOp33
 70
     1
102
RTVSPropertyOp34
 70
     1
102
RTVSPropertyOp35
 70
     1
102
RTVSPropertyOp36
 70
     1
102
RTVSPropertyOp37
 70
     1
102
RTVSPropertyOp38
 70
     1
102
RTVSPropertyOp39
 70
     1
102
RTVSPropertyOp40
 70
     1
102
RTVSPropertyOp41
 70
     1
102
RTVSPropertyOp42
 70
     1
102
RTVSPropertyOp43
 70
     1
102
RTVSPropertyOp44
 70
     1
102
RTVSPropertyOp45
 70
     1
102
RTVSPropertyOp46
 70
     1
102
RTVSPropertyOp47
 70
     1
102
RTVSPropertyOp48
 70
     1
102
RTVSPropertyOp49
 70
     1
102
RTVSPropertyOp50
 70
     1
102
RTVSPropertyOp51
 70
     0
102
RTVSPropertyOp52
 70
     0
102
RTVSPropertyOp53
 70
     1
102
RTVSPropertyOp54
 70
     1
102
RTVSPropertyOp55
 70
     1
102
RTVSPropertyOp56
 70
     1
102
RTVSPropertyOp57
 70
     1
102
RTVSPropertyOp58
 70
     1
102
RTVSPropertyOp59
 70
     1
102
RTVSPropertyOp60
 70
     1
102
RTVSPropertyOp61
 70
     1
102
RTVSPropertyOp62
 70
     1
  0
XRECORD
  5
244D2
102
{ACAD_REACTORS
330
244D1
102
}
330
244D1
100
AcDbXrecord
280
     1
102
RTVSPost2010Prop28
280
     0
102
RTVSPost2010PropOp28
 70
     1
102
RTVSPost2010Prop29
280
     1
102
RTVSPost2010PropOp29
 70
     1
102
RTVSPost2010Prop30
280
     1
102
RTVSPost2010PropOp30
 70
     1
102
RTVSPost2010Prop31
280
     0
102
RTVSPost2010PropOp31
 70
     1
102
RTVSPost2010Prop32
280
     0
102
RTVSPost2010PropOp32
 70
     1
102
RTVSPost2010Prop33
280
     0
102
RTVSPost2010PropOp33
 70
     1
102
RTVSPost2010Prop34
280
     0
102
RTVSPost2010PropOp34
 70
     1
102
RTVSPost2010Prop35
280
     0
102
RTVSPost2010PropOp35
 70
     1
102
RTVSPost2010Prop36
280
     0
102
RTVSPost2010PropOp36
 70
     1
102
RTVSPost2010Prop37
 90
       50
102
RTVSPost2010PropOp37
 70
     1
102
RTVSPost2010Prop38
140
0.0
102
RTVSPost2010PropOp38
 70
     1
102
RTVSPost2010Prop39
140
1.0
102
RTVSPost2010PropOp39
 70
     1
102
RTVSPost2010Prop40
 90
        0
102
RTVSPost2010PropOp40
 70
     1
102
RTVSPost2010Prop41ColorIndex
 90
       18
102
RTVSPost2010Prop41ColorRGB
 90
        0
102
RTVSPost2010PropOp41
 70
     1
102
RTVSPost2010Prop42
 90
       50
102
RTVSPost2010PropOp42
 70
     1
102
RTVSPost2010Prop43
 90
        3
102
RTVSPost2010PropOp43
 70
     1
102
RTVSPost2010Prop44ColorIndex
 90
        5
102
RTVSPost2010Prop44ColorRGB
 90
      255
102
RTVSPost2010PropOp44
 70
     1
102
RTVSPost2010Prop45
280
     0
102
RTVSPost2010PropOp45
 70
     1
102
RTVSPost2010Prop46
 90
       50
102
RTVSPost2010PropOp46
 70
     1
102
RTVSPost2010Prop47
 90
       50
102
RTVSPost2010PropOp47
 70
     1
102
RTVSPost2010Prop48
 90
       50
102
RTVSPost2010PropOp48
 70
     1
102
RTVSPost2010Prop49
280
     0
102
RTVSPost2010PropOp49
 70
     1
102
RTVSPost2010Prop50
 90
       50
102
RTVSPost2010PropOp50
 70
     1
102
RTVSPost2010Prop51ColorIndex
 90
      256
102
RTVSPost2010Prop51ColorRGB
 90
-16777216
102
RTVSPost2010PropOp51
 70
     0
102
RTVSPost2010Prop52
140
1.0
102
RTVSPost2010PropOp52
 70
     0
102
RTVSPost2010Prop53
 90
        2
102
RTVSPost2010PropOp53
 70
     1
102
RTVSPost2010Prop54
  1
strokes_ogs.tif
102
RTVSPost2010PropOp54
 70
     1
102
RTVSPost2010Prop55
280
     0
102
RTVSPost2010PropOp55
 70
     1
102
RTVSPost2010Prop56
140
1.0
102
RTVSPost2010PropOp56
 70
     1
102
RTVSPost2010Prop57
140
1.0
102
RTVSPost2010PropOp57
 70
     1
102
RTVSPropertyOp0
 70
     1
102
RTVSPropertyOp1
 70
     1
102
RTVSPropertyOp2
 70
     1
102
RTVSPropertyOp3
 70
     1
102
RTVSPropertyOp4
 70
     1
102
RTVSPropertyOp5
 70
     1
102
RTVSPropertyOp6
 70
     1
102
RTVSPropertyOp7
 70
     1
102
RTVSPropertyOp8
 70
     1
102
RTVSPropertyOp9
 70
     1
102
RTVSPropertyOp10
 70
     1
102
RTVSPropertyOp11
 70
     1
102
RTVSPropertyOp12
 70
     1
102
RTVSPropertyOp13
 70
     1
102
RTVSPropertyOp14
 70
     1
102
RTVSPropertyOp15
 70
     1
102
RTVSPropertyOp16
 70
     1
102
RTVSPropertyOp17
 70
     1
102
RTVSPropertyOp18
 70
     1
102
RTVSPropertyOp19
 70
     1
102
RTVSPropertyOp20
 70
     1
102
RTVSPropertyOp21
 70
     1
102
RTVSPropertyOp22
 70
     1
102
RTVSPropertyOp23
 70
     1
102
RTVSPropertyOp24
 70
     1
102
RTVSPropertyOp25
 70
     1
102
RTVSPropertyOp26
 70
     1
102
RTVSPropertyOp27
 70
     1
102
RTVSPropertyOp28
 70
     1
102
RTVSPropertyOp29
 70
     1
102
RTVSPropertyOp30
 70
     1
102
RTVSPropertyOp31
 70
     1
102
RTVSPropertyOp32
 70
     1
102
RTVSPropertyOp33
 70
     1
102
RTVSPropertyOp34
 70
     1
102
RTVSPropertyOp35
 70
     1
102
RTVSPropertyOp36
 70
     1
102
RTVSPropertyOp37
 70
     1
102
RTVSPropertyOp38
 70
     1
102
RTVSPropertyOp39
 70
     1
102
RTVSPropertyOp40
 70
     1
102
RTVSPropertyOp41
 70
     1
102
RTVSPropertyOp42
 70
     1
102
RTVSPropertyOp43
 70
     1
102
RTVSPropertyOp44
 70
     1
102
RTVSPropertyOp45
 70
     1
102
RTVSPropertyOp46
 70
     1
102
RTVSPropertyOp47
 70
     1
102
RTVSPropertyOp48
 70
     1
102
RTVSPropertyOp49
 70
     1
102
RTVSPropertyOp50
 70
     1
102
RTVSPropertyOp51
 70
     0
102
RTVSPropertyOp52
 70
     0
102
RTVSPropertyOp53
 70
     1
102
RTVSPropertyOp54
 70
     1
102
RTVSPropertyOp55
 70
     1
102
RTVSPropertyOp56
 70
     1
102
RTVSPropertyOp57
 70
     1
102
RTVSPropertyOp58
 70
     1
102
RTVSPropertyOp59
 70
     1
102
RTVSPropertyOp60
 70
     1
102
RTVSPropertyOp61
 70
     1
102
RTVSPropertyOp62
 70
     1
  0
ENDSEC
  0
EOF
