  0
SECTION
  2
HEADER
  9
$ACADVER
  1
AC1015
  9
$ACADMAINTVER
 70
    20
  9
$DWGCODEPAGE
  3
ANSI_932
  9
$INSBASE
 10
0.0
 20
0.0
 30
0.0
  9
$EXTMIN
 10
139.9999999999995
 20
-0.0000000000000909
 30
0.0
  9
$EXTMAX
 10
16307.2
 20
11409.6
 30
0.0
  9
$LIMMIN
 10
-25.79074261211281
 20
-125.8223078213959
  9
$LIMMAX
 10
16471.10331197129
 20
11496.44801950658
  9
$ORTHOMODE
 70
     1
  9
$REGENMODE
 70
     1
  9
$FILLMODE
 70
     1
  9
$QTEXTMODE
 70
     0
  9
$MIRRTEXT
 70
     1
  9
$LTSCALE
 40
20.0
  9
$ATTMODE
 70
     1
  9
$TEXTSIZE
 40
100.0
  9
$TRACEWID
 40
1.0
  9
$TEXTSTYLE
  7
STYLE2
  9
$CLAYER
  8
寸法
  9
$CELTYPE
  6
BYLAYER
  9
$CECOLOR
 62
     1
  9
$CELTSCALE
 40
50.0
  9
$DISPSILH
 70
     0
  9
$DIMSCALE
 40
40.0
  9
$DIMASZ
 40
2.5
  9
$DIMEXO
 40
0.5
  9
$DIMDLI
 40
7.0
  9
$DIMRND
 40
0.0
  9
$DIMDLE
 40
0.0
  9
$DIMEXE
 40
1.5
  9
$DIMTP
 40
0.0
  9
$DIMTM
 40
0.0
  9
$DIMTXT
 40
3.0
  9
$DIMCEN
 40
0.0
  9
$DIMTSZ
 40
0.0
  9
$DIMTOL
 70
     0
  9
$DIMLIM
 70
     0
  9
$DIMTIH
 70
     0
  9
$DIMTOH
 70
     0
  9
$DIMSE1
 70
     0
  9
$DIMSE2
 70
     0
  9
$DIMTAD
 70
     3
  9
$DIMZIN
 70
     8
  9
$DIMBLK
  1

  9
$DIMASO
 70
     1
  9
$DIMSHO
 70
     1
  9
$DIMPOST
  1

  9
$DIMAPOST
  1

  9
$DIMALT
 70
     0
  9
$DIMALTD
 70
     2
  9
$DIMALTF
 40
0.0394
  9
$DIMLFAC
 40
1.0
  9
$DIMTOFL
 70
     1
  9
$DIMTVP
 40
0.0
  9
$DIMTIX
 70
     0
  9
$DIMSOXD
 70
     0
  9
$DIMSAH
 70
     1
  9
$DIMBLK1
  1
DOTSMALL
  9
$DIMBLK2
  1
DOTSMALL
  9
$DIMSTYLE
  2
INABA_S40G
  9
$DIMCLRD
 70
     0
  9
$DIMCLRE
 70
     0
  9
$DIMCLRT
 70
     7
  9
$DIMTFAC
 40
1.0
  9
$DIMGAP
 40
1.0
  9
$DIMJUST
 70
     0
  9
$DIMSD1
 70
     0
  9
$DIMSD2
 70
     0
  9
$DIMTOLJ
 70
     1
  9
$DIMTZIN
 70
     0
  9
$DIMALTZ
 70
     0
  9
$DIMALTTZ
 70
     0
  9
$DIMUPT
 70
     0
  9
$DIMDEC
 70
     1
  9
$DIMTDEC
 70
     1
  9
$DIMALTU
 70
     2
  9
$DIMALTTD
 70
     2
  9
$DIMTXSTY
  7
STYLE1
  9
$DIMAUNIT
 70
     0
  9
$DIMADEC
 70
     0
  9
$DIMALTRND
 40
0.0
  9
$DIMAZIN
 70
     0
  9
$DIMDSEP
 70
    46
  9
$DIMATFIT
 70
     3
  9
$DIMFRAC
 70
     0
  9
$DIMLDRBLK
  1

  9
$DIMLUNIT
 70
     2
  9
$DIMLWD
 70
    -2
  9
$DIMLWE
 70
    -2
  9
$DIMTMOVE
 70
     0
  9
$LUNITS
 70
     2
  9
$LUPREC
 70
     1
  9
$SKETCHINC
 40
1.0
  9
$FILLETRAD
 40
0.0
  9
$AUNITS
 70
     0
  9
$AUPREC
 70
     0
  9
$MENU
  1
acad
  9
$ELEVATION
 40
0.0
  9
$PELEVATION
 40
0.0
  9
$THICKNESS
 40
0.0
  9
$LIMCHECK
 70
     0
  9
$CHAMFERA
 40
3.0
  9
$CHAMFERB
 40
3.0
  9
$CHAMFERC
 40
0.0
  9
$CHAMFERD
 40
0.0
  9
$SKPOLY
 70
     0
  9
$TDCREATE
 40
2451368.612993866
  9
$TDUCREATE
 40
2451368.237993866
  9
$TDUPDATE
 40
2457366.586621736
  9
$TDUUPDATE
 40
2457366.211621736
  9
$TDINDWG
 40
1.4199952546
  9
$TDUSRTIMER
 40
1.4199950694
  9
$USRTIMER
 70
     1
  9
$ANGBASE
 50
0.0
  9
$ANGDIR
 70
     0
  9
$PDMODE
 70
     3
  9
$PDSIZE
 40
2.0
  9
$PLINEWID
 40
0.0
  9
$SPLFRAME
 70
     0
  9
$SPLINETYPE
 70
     6
  9
$SPLINESEGS
 70
     8
  9
$HANDSEED
  5
24951
  9
$SURFTAB1
 70
     6
  9
$SURFTAB2
 70
     6
  9
$SURFTYPE
 70
     6
  9
$SURFU
 70
     6
  9
$SURFV
 70
     6
  9
$UCSBASE
  2

  9
$UCSNAME
  2

  9
$UCSORG
 10
0.0
 20
0.0
 30
0.0
  9
$UCSXDIR
 10
1.0
 20
0.0
 30
0.0
  9
$UCSYDIR
 10
0.0
 20
1.0
 30
0.0
  9
$UCSORTHOREF
  2

  9
$UCSORTHOVIEW
 70
     0
  9
$UCSORGTOP
 10
0.0
 20
0.0
 30
0.0
  9
$UCSORGBOTTOM
 10
0.0
 20
0.0
 30
0.0
  9
$UCSORGLEFT
 10
0.0
 20
0.0
 30
0.0
  9
$UCSORGRIGHT
 10
0.0
 20
0.0
 30
0.0
  9
$UCSORGFRONT
 10
0.0
 20
0.0
 30
0.0
  9
$UCSORGBACK
 10
0.0
 20
0.0
 30
0.0
  9
$PUCSBASE
  2

  9
$PUCSNAME
  2

  9
$PUCSORG
 10
0.0
 20
0.0
 30
0.0
  9
$PUCSXDIR
 10
1.0
 20
0.0
 30
0.0
  9
$PUCSYDIR
 10
0.0
 20
1.0
 30
0.0
  9
$PUCSORTHOREF
  2

  9
$PUCSORTHOVIEW
 70
     0
  9
$PUCSORGTOP
 10
0.0
 20
0.0
 30
0.0
  9
$PUCSORGBOTTOM
 10
0.0
 20
0.0
 30
0.0
  9
$PUCSORGLEFT
 10
0.0
 20
0.0
 30
0.0
  9
$PUCSORGRIGHT
 10
0.0
 20
0.0
 30
0.0
  9
$PUCSORGFRONT
 10
0.0
 20
0.0
 30
0.0
  9
$PUCSORGBACK
 10
0.0
 20
0.0
 30
0.0
  9
$USERI1
 70
     0
  9
$USERI2
 70
     0
  9
$USERI3
 70
     0
  9
$USERI4
 70
     0
  9
$USERI5
 70
     0
  9
$USERR1
 40
0.0
  9
$USERR2
 40
0.0
  9
$USERR3
 40
0.0
  9
$USERR4
 40
0.0
  9
$USERR5
 40
0.0
  9
$WORLDVIEW
 70
     1
  9
$SHADEDGE
 70
     3
  9
$SHADEDIF
 70
    70
  9
$TILEMODE
 70
     1
  9
$MAXACTVP
 70
    16
  9
$PINSBASE
 10
0.0
 20
0.0
 30
0.0
  9
$PLIMCHECK
 70
     0
  9
$PEXTMIN
 10
1.000000000000000E+20
 20
1.000000000000000E+20
 30
1.000000000000000E+20
  9
$PEXTMAX
 10
-1.000000000000000E+20
 20
-1.000000000000000E+20
 30
-1.000000000000000E+20
  9
$PLIMMIN
 10
0.0
 20
0.0
  9
$PLIMMAX
 10
420.0
 20
297.0
  9
$UNITMODE
 70
     0
  9
$VISRETAIN
 70
     0
  9
$PLINEGEN
 70
     0
  9
$PSLTSCALE
 70
     0
  9
$TREEDEPTH
 70
  3020
  9
$CMLSTYLE
  2
STANDARD
  9
$CMLJUST
 70
     0
  9
$CMLSCALE
 40
1.0
  9
$PROXYGRAPHICS
 70
     1
  9
$MEASUREMENT
 70
     1
  9
$CELWEIGHT
370
    -1
  9
$ENDCAPS
280
     0
  9
$JOINSTYLE
280
     0
  9
$LWDISPLAY
290
     1
  9
$INSUNITS
 70
     0
  9
$HYPERLINKBASE
  1

  9
$STYLESHEET
  1
INABASS.CTB
  9
$XEDIT
290
     1
  9
$CEPSNTYPE
380
     0
  9
$PSTYLEMODE
290
     1
  9
$FINGERPRINTGUID
  2
{3B57B35E-7D77-4BBF-81B7-6C583B9EB24C}
  9
$VERSIONGUID
  2
{2A73DC41-380C-411F-881B-7FEC7FFCDE66}
  9
$EXTNAMES
290
     1
  9
$PSVPSCALE
 40
0.0
  9
$OLESTARTUP
290
     0
  0
ENDSEC
  0
SECTION
  2
CLASSES
  0
CLASS
  1
ACDBDICTIONARYWDFLT
  2
AcDbDictionaryWithDefault
  3
ObjectDBX Classes
 90
        0
280
     0
281
     0
  0
CLASS
  1
SORTENTSTABLE
  2
AcDbSortentsTable
  3
ObjectDBX Classes
 90
        0
280
     0
281
     0
  0
CLASS
  1
MATERIAL
  2
AcDbMaterial
  3
ObjectDBX Classes
 90
     1153
280
     0
281
     0
  0
CLASS
  1
VISUALSTYLE
  2
AcDbVisualStyle
  3
ObjectDBX Classes
 90
     4095
280
     0
281
     0
  0
CLASS
  1
TABLESTYLE
  2
AcDbTableStyle
  3
ObjectDBX Classes
 90
     4095
280
     0
281
     0
  0
CLASS
  1
SCALE
  2
AcDbScale
  3
ObjectDBX Classes
 90
     1153
280
     0
281
     0
  0
CLASS
  1
MLEADERSTYLE
  2
AcDbMLeaderStyle
  3
ACDB_MLEADERSTYLE_CLASS
 90
     4095
280
     0
281
     0
  0
CLASS
  1
ACDBSECTIONVIEWSTYLE
  2
AcDbSectionViewStyle
  3
ObjectDBX Classes
 90
     1025
280
     0
281
     0
  0
CLASS
  1
ACDBDETAILVIEWSTYLE
  2
AcDbDetailViewStyle
  3
ObjectDBX Classes
 90
     1025
280
     0
281
     0
  0
CLASS
  1
DICTIONARYVAR
  2
AcDbDictionaryVar
  3
ObjectDBX Classes
 90
        0
280
     0
281
     0
  0
CLASS
  1
CELLSTYLEMAP
  2
AcDbCellStyleMap
  3
ObjectDBX Classes
 90
     1152
280
     0
281
     0
  0
CLASS
  1
ACDBPLACEHOLDER
  2
AcDbPlaceHolder
  3
ObjectDBX Classes
 90
        0
280
     0
281
     0
  0
CLASS
  1
LAYOUT
  2
AcDbLayout
  3
ObjectDBX Classes
 90
        0
280
     0
281
     0
  0
ENDSEC
  0
SECTION
  2
TABLES
  0
TABLE
  2
VPORT
  5
746D
330
0
100
AcDbSymbolTable
 70
     1
  0
VPORT
  5
247FC
330
746D
100
AcDbSymbolTableRecord
100
AcDbViewportTableRecord
  2
*Active
 70
     0
 10
0.0
 20
0.0
 11
1.0
 21
1.0
 12
8223.914936223705
 22
5737.459068821066
 13
0.0
 23
0.0
 14
10.0
 24
10.0
 15
10.0
 25
10.0
 16
0.0
 26
0.0
 36
1.0
 17
0.0
 27
0.0
 37
0.0
 40
11570.136954526
 41
1.648541114058355
 42
50.0
 43
0.0
 44
0.0
 50
0.0
 51
0.0
 71
     0
 72
     0
 73
     1
 74
     0
 75
     0
 76
     0
 77
     0
 78
     0
281
     0
 65
     1
110
0.0
120
0.0
130
0.0
111
1.0
121
0.0
131
0.0
112
0.0
122
1.0
132
0.0
 79
     0
146
0.0
1001
ACAD_NAV_VCDISPLAY
1070
     3
  0
ENDTAB
  0
TABLE
  2
LTYPE
  5
746A
330
0
100
AcDbSymbolTable
 70
     6
  0
LTYPE
  5
7477
330
746A
100
AcDbSymbolTableRecord
100
AcDbLinetypeTableRecord
  2
BYBLOCK
 70
     0
  3

 72
    65
 73
     0
 40
0.0
  0
LTYPE
  5
7478
330
746A
100
AcDbSymbolTableRecord
100
AcDbLinetypeTableRecord
  2
BYLAYER
 70
     0
  3

 72
    65
 73
     0
 40
0.0
  0
LTYPE
  5
7479
330
746A
100
AcDbSymbolTableRecord
100
AcDbLinetypeTableRecord
  2
CONTINUOUS
 70
     0
  3
Solid line
 72
    65
 73
     0
 40
0.0
  0
LTYPE
  5
781A
330
746A
100
AcDbSymbolTableRecord
100
AcDbLinetypeTableRecord
  2
HIDDEN
 70
     0
  3
__ __ __ __ __ __ __ __ __ __ __ __ __ __ __ __
 72
    65
 73
     2
 40
0.375
 49
0.25
 74
     0
 49
-0.125
 74
     0
  0
LTYPE
  5
781B
330
746A
100
AcDbSymbolTableRecord
100
AcDbLinetypeTableRecord
  2
PHANTOM
 70
     0
  3
______  __  __  ______  __  __  ______  __  __ 
 72
    65
 73
     6
 40
2.5
 49
1.25
 74
     0
 49
-0.25
 74
     0
 49
0.25
 74
     0
 49
-0.25
 74
     0
 49
0.25
 74
     0
 49
-0.25
 74
     0
  0
LTYPE
  5
1E61C
330
746A
100
AcDbSymbolTableRecord
100
AcDbLinetypeTableRecord
  2
CENTER
 70
     0
  3
____ _ ____ _ ____ _ ____ _ ____ _ ____ _ ____ 
 72
    65
 73
     4
 40
2.0
 49
1.25
 74
     0
 49
-0.25
 74
     0
 49
0.25
 74
     0
 49
-0.25
 74
     0
  0
ENDTAB
  0
TABLE
  2
LAYER
  5
7467
102
{ACAD_XDICTIONARY
360
1D35E
102
}
330
0
100
AcDbSymbolTable
 70
    20
  0
LAYER
  5
7474
102
{ACAD_XDICTIONARY
360
2485E
102
}
330
7467
100
AcDbSymbolTableRecord
100
AcDbLayerTableRecord
  2
0
 70
     0
 62
     7
  6
CONTINUOUS
370
    -3
390
159AE
  0
LAYER
  5
DEB3
102
{ACAD_XDICTIONARY
360
24860
102
}
330
7467
100
AcDbSymbolTableRecord
100
AcDbLayerTableRecord
  2
寸法
 70
     0
 62
     4
  6
CONTINUOUS
370
    -3
390
159AE
  0
LAYER
  5
DEB4
102
{ACAD_XDICTIONARY
360
24862
102
}
330
7467
100
AcDbSymbolTableRecord
100
AcDbLayerTableRecord
  2
部品1
 70
     0
 62
     7
  6
CONTINUOUS
370
    -3
390
159AE
  0
LAYER
  5
DEB5
102
{ACAD_XDICTIONARY
360
24864
102
}
330
7467
100
AcDbSymbolTableRecord
100
AcDbLayerTableRecord
  2
補助
 70
     0
 62
    -1
  6
CONTINUOUS
370
    -3
390
159AE
  0
LAYER
  5
DEB6
102
{ACAD_XDICTIONARY
360
24866
102
}
330
7467
100
AcDbSymbolTableRecord
100
AcDbLayerTableRecord
  2
文字
 70
     0
 62
     7
  6
CONTINUOUS
370
    -3
390
159AE
  0
LAYER
  5
F255
330
7467
100
AcDbSymbolTableRecord
100
AcDbLayerTableRecord
  2
DEFPOINTS
 70
     0
 62
     7
  6
CONTINUOUS
290
     0
370
    -3
390
159AE
  0
LAYER
  5
10B54
102
{ACAD_XDICTIONARY
360
24868
102
}
330
7467
100
AcDbSymbolTableRecord
100
AcDbLayerTableRecord
  2
仕様書枠
 70
     0
 62
   230
  6
CONTINUOUS
370
    -3
390
159AE
  0
LAYER
  5
11729
102
{ACAD_XDICTIONARY
360
2486A
102
}
330
7467
100
AcDbSymbolTableRecord
100
AcDbLayerTableRecord
  2
Ｇ．Ｌ
 70
     0
 62
    30
  6
CONTINUOUS
370
    -3
390
159AE
  0
LAYER
  5
1173F
102
{ACAD_XDICTIONARY
360
2486C
102
}
330
7467
100
AcDbSymbolTableRecord
100
AcDbLayerTableRecord
  2
細線
 70
     0
 62
     5
  6
CONTINUOUS
370
    -3
390
159AE
  0
LAYER
  5
142E2
102
{ACAD_XDICTIONARY
360
2486E
102
}
330
7467
100
AcDbSymbolTableRecord
100
AcDbLayerTableRecord
  2
破線
 70
     0
 62
     2
  6
HIDDEN
370
    -3
390
159AE
  0
ENDTAB
  0
TABLE
  2
STYLE
  5
7468
330
0
100
AcDbSymbolTable
 70
     9
  0
STYLE
  5
7475
330
7468
100
AcDbSymbolTableRecord
100
AcDbTextStyleTableRecord
  2
STANDARD
 70
     0
 40
0.0
 41
1.0
 50
0.0
 71
     0
 42
4.0
  3
txt
  4
C:\AutoCAD LT\bigfont.shx
  0
STYLE
  5
F706
330
7468
100
AcDbSymbolTableRecord
100
AcDbTextStyleTableRecord
  2
STYLE1
 70
     0
 40
0.0
 41
1.0
 50
0.0
 71
     0
 42
100.0
  3
isocp.shx
  4
bigfont.shx
  0
STYLE
  5
103BF
330
7468
100
AcDbSymbolTableRecord
100
AcDbTextStyleTableRecord
  2
STYLE2
 70
     0
 40
0.0
 41
1.0
 50
0.0
 71
     0
 42
100.0
  3
MS PGothic.ttf
  4

1001
ACAD
1000
MS PGothic
1071
    32818
  0
ENDTAB
  0
TABLE
  2
VIEW
  5
746B
330
0
100
AcDbSymbolTable
 70
     0
  0
ENDTAB
  0
TABLE
  2
UCS
  5
746C
330
0
100
AcDbSymbolTable
 70
     0
  0
ENDTAB
  0
TABLE
  2
APPID
  5
746E
330
0
100
AcDbSymbolTable
 70
    11
  0
APPID
  5
7476
330
746E
100
AcDbSymbolTableRecord
100
AcDbRegAppTableRecord
  2
ACAD
 70
     0
  0
APPID
  5
DEA9
330
746E
100
AcDbSymbolTableRecord
100
AcDbRegAppTableRecord
  2
CONTENTBLOCKICON
 70
     0
  0
APPID
  5
DEAA
330
746E
100
AcDbSymbolTableRecord
100
AcDbRegAppTableRecord
  2
CONTENTBLOCKDESCRIPTION
 70
     0
  0
APPID
  5
E71D
330
746E
100
AcDbSymbolTableRecord
100
AcDbRegAppTableRecord
  2
CONTENTTABDATA
 70
     0
  0
APPID
  5
E71E
330
746E
100
AcDbSymbolTableRecord
100
AcDbRegAppTableRecord
  2
CONTENTCURRENTTAB
 70
     0
  0
APPID
  5
F3BA
330
746E
100
AcDbSymbolTableRecord
100
AcDbRegAppTableRecord
  2
DRAWINGVARIABLESXDATA
 70
     0
  0
APPID
  5
24124
330
746E
100
AcDbSymbolTableRecord
100
AcDbRegAppTableRecord
  2
GENIUS_GENODEF_13
 70
     0
  0
APPID
  5
24125
330
746E
100
AcDbSymbolTableRecord
100
AcDbRegAppTableRecord
  2
GENIUS_GENREC_14
 70
     0
  0
APPID
  5
24126
330
746E
100
AcDbSymbolTableRecord
100
AcDbRegAppTableRecord
  2
GENIUS_GENOBJ-N-REC_13
 70
     0
  0
APPID
  5
24889
330
746E
100
AcDbSymbolTableRecord
100
AcDbRegAppTableRecord
  2
ACAD_NAV_VCDISPLAY
 70
     0
  0
APPID
  5
24903
330
746E
100
AcDbSymbolTableRecord
100
AcDbRegAppTableRecord
  2
ACAD_MLEADERVER
 70
     0
  0
ENDTAB
  0
TABLE
  2
DIMSTYLE
  5
746F
330
0
100
AcDbSymbolTable
 70
    10
100
AcDbDimStyleTable
 71
     1
340
F71F
  0
DIMSTYLE
105
F71F
102
{ACAD_REACTORS
330
141C3
330
14206
330
146E8
330
13BF0
330
19A46
330
19878
330
13BBF
330
13B6D
330
13B51
330
127A4
330
1277C
330
1277A
330
12779
330
1E1EB
330
1E200
330
1E202
330
1E210
330
1E211
330
1E212
330
1E21A
330
1E21F
330
23E1D
330
23E1E
330
23E1F
330
24381
330
24235
330
24532
330
24595
330
24596
330
2479F
330
247B5
102
}
330
746F
100
AcDbSymbolTableRecord
100
AcDbDimStyleTableRecord
  2
INABA_S40G
 70
     0
 40
40.0
 41
2.5
 42
0.5
 43
7.0
 44
1.5
 73
     0
 74
     0
 77
     3
 78
     8
140
3.0
141
0.0
143
0.0394
147
1.0
172
     1
173
     1
174
     1
178
     7
271
     1
288
     1
340
F706
341
F770
343
F770
344
F770
  0
ENDTAB
  0
TABLE
  2
BLOCK_RECORD
  5
7466
330
0
100
AcDbSymbolTable
 70
    79
  0
BLOCK_RECORD
  5
747D
330
7466
100
AcDbSymbolTableRecord
100
AcDbBlockTableRecord
  2
*MODEL_SPACE
340
159B3
  0
BLOCK_RECORD
  5
747A
330
7466
100
AcDbSymbolTableRecord
100
AcDbBlockTableRecord
  2
*PAPER_SPACE
340
159B4
  0
BLOCK_RECORD
  5
F770
330
7466
100
AcDbSymbolTableRecord
100
AcDbBlockTableRecord
  2
_DOTSMALL
340
0
102
{BLKREFS
331
243E8
331
2443C
331
2443D
331
24445
331
24446
331
2444E
331
2444F
331
24459
331
2445A
331
24462
331
24463
331
2446D
331
2446E
331
24478
331
24479
331
24481
331
24482
331
2448C
331
2448D
331
24495
331
24496
331
2449E
331
2449F
331
245CE
331
245CF
331
245D7
331
245D8
331
24648
331
24649
331
247AF
331
247EA
331
247EB
331
23F32
331
23F33
331
23F3B
331
23F3C
331
23F44
331
23F45
331
23F56
331
23F57
331
243DE
331
243DF
331
243E7
331
247B0
331
24858
331
24859
331
24545
331
24546
331
23EEC
331
23EED
331
23EF6
331
23EF7
331
23EFF
331
23F00
331
23F0A
331
23F0B
331
23F15
331
23F16
331
23F1E
331
23F1F
331
23F27
331
23F28
102
}
  0
BLOCK_RECORD
  5
127BE
330
7466
100
AcDbSymbolTableRecord
100
AcDbBlockTableRecord
  2
*D1
340
0
  0
BLOCK_RECORD
  5
127CC
330
7466
100
AcDbSymbolTableRecord
100
AcDbBlockTableRecord
  2
*D2
340
0
  0
BLOCK_RECORD
  5
127E6
330
7466
100
AcDbSymbolTableRecord
100
AcDbBlockTableRecord
  2
*D3
340
0
  0
BLOCK_RECORD
  5
12832
330
7466
100
AcDbSymbolTableRecord
100
AcDbBlockTableRecord
  2
*D4
340
0
  0
BLOCK_RECORD
  5
13B45
330
7466
100
AcDbSymbolTableRecord
100
AcDbBlockTableRecord
  2
*D5
340
0
  0
BLOCK_RECORD
  5
13B60
330
7466
100
AcDbSymbolTableRecord
100
AcDbBlockTableRecord
  2
*D6
340
0
  0
BLOCK_RECORD
  5
13BB3
330
7466
100
AcDbSymbolTableRecord
100
AcDbBlockTableRecord
  2
*D7
340
0
  0
BLOCK_RECORD
  5
13DA8
330
7466
100
AcDbSymbolTableRecord
100
AcDbBlockTableRecord
  2
*D8
340
0
  0
BLOCK_RECORD
  5
141B5
330
7466
100
AcDbSymbolTableRecord
100
AcDbBlockTableRecord
  2
*D9
340
0
  0
BLOCK_RECORD
  5
141F9
330
7466
100
AcDbSymbolTableRecord
100
AcDbBlockTableRecord
  2
*D10
340
0
  0
BLOCK_RECORD
  5
146DC
330
7466
100
AcDbSymbolTableRecord
100
AcDbBlockTableRecord
  2
*D11
340
0
  0
BLOCK_RECORD
  5
19879
330
7466
100
AcDbSymbolTableRecord
100
AcDbBlockTableRecord
  2
*D12
340
0
  0
BLOCK_RECORD
  5
19A47
330
7466
100
AcDbSymbolTableRecord
100
AcDbBlockTableRecord
  2
*D13
340
0
  0
BLOCK_RECORD
  5
1E220
330
7466
100
AcDbSymbolTableRecord
100
AcDbBlockTableRecord
  2
*D14
340
0
  0
BLOCK_RECORD
  5
1E22C
330
7466
100
AcDbSymbolTableRecord
100
AcDbBlockTableRecord
  2
*D15
340
0
  0
BLOCK_RECORD
  5
1E238
330
7466
100
AcDbSymbolTableRecord
100
AcDbBlockTableRecord
  2
*D16
340
0
  0
BLOCK_RECORD
  5
1E246
330
7466
100
AcDbSymbolTableRecord
100
AcDbBlockTableRecord
  2
*D17
340
0
  0
BLOCK_RECORD
  5
1E252
330
7466
100
AcDbSymbolTableRecord
100
AcDbBlockTableRecord
  2
*D18
340
0
  0
BLOCK_RECORD
  5
1E260
330
7466
100
AcDbSymbolTableRecord
100
AcDbBlockTableRecord
  2
*D19
340
0
  0
BLOCK_RECORD
  5
1E26E
330
7466
100
AcDbSymbolTableRecord
100
AcDbBlockTableRecord
  2
*D20
340
0
  0
BLOCK_RECORD
  5
1E27A
330
7466
100
AcDbSymbolTableRecord
100
AcDbBlockTableRecord
  2
*D21
340
0
  0
BLOCK_RECORD
  5
23E22
330
7466
100
AcDbSymbolTableRecord
100
AcDbBlockTableRecord
  2
*D65
340
0
  0
BLOCK_RECORD
  5
23E2E
330
7466
100
AcDbSymbolTableRecord
100
AcDbBlockTableRecord
  2
*D66
340
0
  0
BLOCK_RECORD
  5
23E3A
330
7466
100
AcDbSymbolTableRecord
100
AcDbBlockTableRecord
  2
*D67
340
0
  0
BLOCK_RECORD
  5
242A9
330
7466
100
AcDbSymbolTableRecord
100
AcDbBlockTableRecord
  2
*D68
340
0
  0
BLOCK_RECORD
  5
24382
330
7466
100
AcDbSymbolTableRecord
100
AcDbBlockTableRecord
  2
*D69
340
0
  0
BLOCK_RECORD
  5
24536
330
7466
100
AcDbSymbolTableRecord
100
AcDbBlockTableRecord
  2
*D71
340
0
  0
BLOCK_RECORD
  5
245B3
330
7466
100
AcDbSymbolTableRecord
100
AcDbBlockTableRecord
  2
*D72
340
0
  0
BLOCK_RECORD
  5
245BF
330
7466
100
AcDbSymbolTableRecord
100
AcDbBlockTableRecord
  2
*D73
340
0
  0
BLOCK_RECORD
  5
247A0
330
7466
100
AcDbSymbolTableRecord
100
AcDbBlockTableRecord
  2
*D77
340
0
  0
BLOCK_RECORD
  5
247B6
330
7466
100
AcDbSymbolTableRecord
100
AcDbBlockTableRecord
  2
*D78
340
0
  0
ENDTAB
  0
ENDSEC
  0
SECTION
  2
BLOCKS
  0
BLOCK
  5
7489
330
747D
100
AcDbEntity
  8
0
100
AcDbBlockBegin
  2
*MODEL_SPACE
 70
     0
 10
0.0
 20
0.0
 30
0.0
  3
*MODEL_SPACE
  1

  0
ENDBLK
  5
748A
330
747D
100
AcDbEntity
  8
0
100
AcDbBlockEnd
  0
BLOCK
  5
7487
330
747A
100
AcDbEntity
 67
     1
  8
0
100
AcDbBlockBegin
  2
*PAPER_SPACE
 70
     0
 10
0.0
 20
0.0
 30
0.0
  3
*PAPER_SPACE
  1

  0
ENDBLK
  5
7488
330
747A
100
AcDbEntity
 67
     1
  8
0
100
AcDbBlockEnd
  0
BLOCK
  5
F771
330
F770
100
AcDbEntity
  8
0
 48
50.0
100
AcDbBlockBegin
  2
_DOTSMALL
 70
     0
 10
0.0
 20
0.0
 30
0.0
  3
_DOTSMALL
  1

  0
LWPOLYLINE
  5
F772
330
F770
100
AcDbEntity
  8
0
  6
ByBlock
 62
     0
 48
50.0
100
AcDbPolyline
 90
        2
 70
     1
 43
0.5
 10
-0.0625
 20
0.0
 42
1.0
 10
0.0625
 20
0.0
 42
1.0
  0
ENDBLK
  5
F776
330
F770
100
AcDbEntity
  8
0
 48
50.0
100
AcDbBlockEnd
  0
BLOCK
  5
139E3
330
127BE
100
AcDbEntity
  8
0
 48
50.0
100
AcDbBlockBegin
  2
*D1
 70
     1
 10
0.0
 20
0.0
 30
0.0
  3
*D1
  1

  0
LINE
  5
243D9
330
127BE
100
AcDbEntity
  8
寸法
 62
     0
 48
50.0
370
    -2
100
AcDbLine
 10
9335.693956914472
 20
3150.0
 30
0.0
 11
8451.943827731215
 21
3150.0
 31
0.0
  0
LINE
  5
243DA
330
127BE
100
AcDbEntity
  8
寸法
 62
     0
 48
50.0
370
    -2
100
AcDbLine
 10
9335.693956914481
 20
3100.0
 30
0.0
 11
8451.943827731215
 21
3100.0
 31
0.0
  0
LINE
  5
243DB
330
127BE
100
AcDbEntity
  8
寸法
 62
     0
 48
50.0
370
    -2
100
AcDbLine
 10
8511.943827731213
 20
3150.0
 30
0.0
 11
8511.943827731213
 21
3250.000000000002
 31
0.0
  0
LINE
  5
243DC
330
127BE
100
AcDbEntity
  8
寸法
 62
     0
 48
50.0
370
    -2
100
AcDbLine
 10
8511.943827731213
 20
3100.0
 30
0.0
 11
8511.943827731213
 21
2687.905511811024
 31
0.0
  0
LINE
  5
243DD
330
127BE
100
AcDbEntity
  8
寸法
 62
     0
 48
50.0
370
    -2
100
AcDbLine
 10
8511.943827731213
 20
3150.0
 30
0.0
 11
8511.943827731213
 21
3100.0
 31
0.0
  0
INSERT
  5
243DE
330
127BE
100
AcDbEntity
  8
寸法
 62
     0
 48
50.0
370
    -2
100
AcDbBlockReference
  2
_DOTSMALL
 10
8511.943827731213
 20
3150.0
 30
0.0
 41
100.0
 42
100.0
 43
100.0
 50
270.0
  0
INSERT
  5
243DF
330
127BE
100
AcDbEntity
  8
寸法
 62
     0
 48
50.0
370
    -2
100
AcDbBlockReference
  2
_DOTSMALL
 10
8511.943827731213
 20
3100.0
 30
0.0
 41
100.0
 42
100.0
 43
100.0
 50
90.0
  0
MTEXT
  5
243E0
330
127BE
100
AcDbEntity
  8
寸法
 62
     7
 48
50.0
100
AcDbMText
 10
8411.943827731214
 20
2793.952755905514
 30
0.0
 40
120.0
 41
0.0
 71
     5
 72
     1
  1
\A1;50
  7
STYLE1
 11
0.0000000000000001
 21
1.0
 31
0.0
 73
     1
 44
1.0
1001
ACAD
1000
MTEXTBEGIN
1070
    73
1070
     1
1070
    44
1040
1.0
1070
    74
1070
     0
1000
MTEXTEND
  0
POINT
  5
243E1
330
127BE
100
AcDbEntity
  8
DEFPOINTS
 62
     0
 48
50.0
100
AcDbPoint
 10
9355.693956914477
 20
3150.0
 30
0.0
  0
POINT
  5
243E2
330
127BE
100
AcDbEntity
  8
DEFPOINTS
 62
     0
 48
50.0
100
AcDbPoint
 10
9355.693956914482
 20
3100.0
 30
0.0
  0
POINT
  5
243E3
330
127BE
100
AcDbEntity
  8
DEFPOINTS
 62
     0
 48
50.0
100
AcDbPoint
 10
8511.943827731213
 20
3100.0
 30
0.0
  0
ENDBLK
  5
139EF
330
127BE
100
AcDbEntity
  8
0
 48
50.0
100
AcDbBlockEnd
  0
BLOCK
  5
13B92
330
127CC
100
AcDbEntity
  8
0
 48
50.0
100
AcDbBlockBegin
  2
*D2
 70
     1
 10
0.0
 20
0.0
 30
0.0
  3
*D2
  1

  0
LINE
  5
243E4
330
127CC
100
AcDbEntity
  8
寸法
 62
     0
 48
50.0
370
    -2
100
AcDbLine
 10
9335.693956914481
 20
3100.0
 30
0.0
 11
8151.943827731214
 21
3100.0
 31
0.0
  0
LINE
  5
243E5
330
127CC
100
AcDbEntity
  8
寸法
 62
     0
 48
50.0
370
    -2
100
AcDbLine
 10
9275.693956914476
 20
5175.000000000005
 30
0.0
 11
8151.943827731214
 21
5175.000000000005
 31
0.0
  0
LINE
  5
243E6
330
127CC
100
AcDbEntity
  8
寸法
 62
     0
 48
50.0
370
    -2
100
AcDbLine
 10
8211.943827731213
 20
3100.0
 30
0.0
 11
8211.943827731214
 21
5175.000000000005
 31
0.0
  0
INSERT
  5
243E7
330
127CC
100
AcDbEntity
  8
寸法
 62
     0
 48
50.0
370
    -2
100
AcDbBlockReference
  2
_DOTSMALL
 10
8211.943827731213
 20
3100.0
 30
0.0
 41
100.0
 42
100.0
 43
100.0
 50
270.0
  0
INSERT
  5
243E8
330
127CC
100
AcDbEntity
  8
寸法
 62
     0
 48
50.0
370
    -2
100
AcDbBlockReference
  2
_DOTSMALL
 10
8211.943827731214
 20
5175.000000000005
 30
0.0
 41
100.0
 42
100.0
 43
100.0
 50
90.0
  0
MTEXT
  5
243E9
330
127CC
100
AcDbEntity
  8
寸法
 62
     7
 48
50.0
100
AcDbMText
 10
8111.932016707591
 20
4137.500000000002
 30
0.0
 40
120.0
 41
0.0
 71
     5
 72
     1
  1
\A1;2075
  7
STYLE1
 11
0.0000000000000001
 21
1.0
 31
0.0
 73
     1
 44
1.0
1001
ACAD
1000
MTEXTBEGIN
1070
    73
1070
     1
1070
    44
1040
1.0
1070
    74
1070
     0
1000
MTEXTEND
  0
POINT
  5
243EA
330
127CC
100
AcDbEntity
  8
DEFPOINTS
 62
     0
 48
50.0
100
AcDbPoint
 10
9355.693956914482
 20
3100.0
 30
0.0
  0
POINT
  5
243EB
330
127CC
100
AcDbEntity
  8
DEFPOINTS
 62
     0
 48
50.0
100
AcDbPoint
 10
9295.693956914476
 20
5175.000000000005
 30
0.0
  0
POINT
  5
243EC
330
127CC
100
AcDbEntity
  8
DEFPOINTS
 62
     0
 48
50.0
100
AcDbPoint
 10
8211.943827731214
 20
5175.000000000005
 30
0.0
  0
ENDBLK
  5
13B9C
330
127CC
100
AcDbEntity
  8
0
 48
50.0
100
AcDbBlockEnd
  0
BLOCK
  5
139C1
330
127E6
100
AcDbEntity
  8
0
 48
50.0
100
AcDbBlockBegin
  2
*D3
 70
     1
 10
0.0
 20
0.0
 30
0.0
  3
*D3
  1

  0
LINE
  5
23F53
330
127E6
100
AcDbEntity
  8
寸法
 62
     0
 48
50.0
370
    -2
100
AcDbLine
 10
9335.693956914472
 20
4940.0
 30
0.0
 11
8451.943827731216
 21
4940.0
 31
0.0
  0
LINE
  5
23F54
330
127E6
100
AcDbEntity
  8
寸法
 62
     0
 48
50.0
370
    -2
100
AcDbLine
 10
9335.693956914472
 20
3150.0
 30
0.0
 11
8451.943827731215
 21
3150.0
 31
0.0
  0
LINE
  5
23F55
330
127E6
100
AcDbEntity
  8
寸法
 62
     0
 48
50.0
370
    -2
100
AcDbLine
 10
8511.943827731217
 20
4940.0
 30
0.0
 11
8511.943827731213
 21
3150.0
 31
0.0
  0
INSERT
  5
23F56
330
127E6
100
AcDbEntity
  8
寸法
 62
     0
 48
50.0
370
    -2
100
AcDbBlockReference
  2
_DOTSMALL
 10
8511.943827731217
 20
4940.0
 30
0.0
 41
100.0
 42
100.0
 43
100.0
 50
90.0
  0
INSERT
  5
23F57
330
127E6
100
AcDbEntity
  8
寸法
 62
     0
 48
50.0
370
    -2
100
AcDbBlockReference
  2
_DOTSMALL
 10
8511.943827731213
 20
3150.0
 30
0.0
 41
100.0
 42
100.0
 43
100.0
 50
270.0
  0
MTEXT
  5
23F58
330
127E6
100
AcDbEntity
  8
寸法
 62
     7
 48
50.0
100
AcDbMText
 10
8411.943827731214
 20
4045.000000000001
 30
0.0
 40
120.0
 41
0.0
 71
     5
 72
     1
  1
\A1;1790
  7
STYLE1
 11
0.0000000000000001
 21
1.0
 31
0.0
 73
     1
 44
1.0
1001
ACAD
1000
MTEXTBEGIN
1070
    73
1070
     1
1070
    44
1040
1.0
1070
    74
1070
     0
1000
MTEXTEND
  0
POINT
  5
23F59
330
127E6
100
AcDbEntity
  8
DEFPOINTS
 62
     0
 48
50.0
100
AcDbPoint
 10
9355.693956914477
 20
4940.0
 30
0.0
  0
POINT
  5
23F5A
330
127E6
100
AcDbEntity
  8
DEFPOINTS
 62
     0
 48
50.0
100
AcDbPoint
 10
9355.693956914477
 20
3150.0
 30
0.0
  0
POINT
  5
23F5B
330
127E6
100
AcDbEntity
  8
DEFPOINTS
 62
     0
 48
50.0
100
AcDbPoint
 10
8511.943827731213
 20
3150.0
 30
0.0
  0
ENDBLK
  5
139CB
330
127E6
100
AcDbEntity
  8
0
 48
50.0
100
AcDbBlockEnd
  0
BLOCK
  5
13B9D
330
12832
100
AcDbEntity
  8
0
 48
50.0
100
AcDbBlockBegin
  2
*D4
 70
     1
 10
0.0
 20
0.0
 30
0.0
  3
*D4
  1

  0
LINE
  5
23F41
330
12832
100
AcDbEntity
  8
寸法
 62
     0
 48
50.0
370
    -2
100
AcDbLine
 10
10745.69395691448
 20
3100.0
 30
0.0
 11
11490.6211148866
 21
3100.0
 31
0.0
  0
LINE
  5
23F42
330
12832
100
AcDbEntity
  8
寸法
 62
     0
 48
50.0
370
    -2
100
AcDbLine
 10
10825.69395691447
 20
5120.0
 30
0.0
 11
11490.6211148866
 21
5120.0
 31
0.0
  0
LINE
  5
23F43
330
12832
100
AcDbEntity
  8
寸法
 62
     0
 48
50.0
370
    -2
100
AcDbLine
 10
11430.6211148866
 20
3100.0
 30
0.0
 11
11430.6211148866
 21
5120.0
 31
0.0
  0
INSERT
  5
23F44
330
12832
100
AcDbEntity
  8
寸法
 62
     0
 48
50.0
370
    -2
100
AcDbBlockReference
  2
_DOTSMALL
 10
11430.6211148866
 20
3100.0
 30
0.0
 41
100.0
 42
100.0
 43
100.0
 50
270.0
  0
INSERT
  5
23F45
330
12832
100
AcDbEntity
  8
寸法
 62
     0
 48
50.0
370
    -2
100
AcDbBlockReference
  2
_DOTSMALL
 10
11430.6211148866
 20
5120.0
 30
0.0
 41
100.0
 42
100.0
 43
100.0
 50
90.0
  0
MTEXT
  5
23F46
330
12832
100
AcDbEntity
  8
寸法
 62
     7
 48
50.0
100
AcDbMText
 10
11330.60930386298
 20
4110.000000000002
 30
0.0
 40
120.0
 41
0.0
 71
     5
 72
     1
  1
\A1;2020
  7
STYLE1
 11
0.0000000000000001
 21
1.0
 31
0.0
 73
     1
 44
1.0
1001
ACAD
1000
MTEXTBEGIN
1070
    73
1070
     1
1070
    44
1040
1.0
1070
    74
1070
     0
1000
MTEXTEND
  0
POINT
  5
23F47
330
12832
100
AcDbEntity
  8
DEFPOINTS
 62
     0
 48
50.0
100
AcDbPoint
 10
10725.69395691448
 20
3100.0
 30
0.0
  0
POINT
  5
23F48
330
12832
100
AcDbEntity
  8
DEFPOINTS
 62
     0
 48
50.0
100
AcDbPoint
 10
10805.69395691447
 20
5120.0
 30
0.0
  0
POINT
  5
23F49
330
12832
100
AcDbEntity
  8
DEFPOINTS
 62
     0
 48
50.0
100
AcDbPoint
 10
11430.6211148866
 20
5120.0
 30
0.0
  0
ENDBLK
  5
13BA7
330
12832
100
AcDbEntity
  8
0
 48
50.0
100
AcDbBlockEnd
  0
BLOCK
  5
14D1F
330
13B45
100
AcDbEntity
  8
0
 48
50.0
100
AcDbBlockBegin
  2
*D5
 70
     1
 10
0.0
 20
0.0
 30
0.0
  3
*D5
  1

  0
LINE
  5
23F38
330
13B45
100
AcDbEntity
  8
寸法
 62
     0
 48
50.0
370
    -2
100
AcDbLine
 10
10725.69395691447
 20
5141.810679611655
 30
0.0
 11
10725.69395691447
 21
5633.657453579304
 31
0.0
  0
LINE
  5
23F39
330
13B45
100
AcDbEntity
  8
寸法
 62
     0
 48
50.0
370
    -2
100
AcDbLine
 10
9355.693956914477
 20
5191.001618122975
 30
0.0
 11
9355.693956914477
 21
5633.657453579304
 31
0.0
  0
LINE
  5
23F3A
330
13B45
100
AcDbEntity
  8
寸法
 62
     0
 48
50.0
370
    -2
100
AcDbLine
 10
10725.69395691447
 20
5573.657453579304
 30
0.0
 11
9355.693956914477
 21
5573.657453579304
 31
0.0
  0
INSERT
  5
23F3B
330
13B45
100
AcDbEntity
  8
寸法
 62
     0
 48
50.0
370
    -2
100
AcDbBlockReference
  2
_DOTSMALL
 10
10725.69395691447
 20
5573.657453579304
 30
0.0
 41
100.0
 42
100.0
 43
100.0
  0
INSERT
  5
23F3C
330
13B45
100
AcDbEntity
  8
寸法
 62
     0
 48
50.0
370
    -2
100
AcDbBlockReference
  2
_DOTSMALL
 10
9355.693956914477
 20
5573.657453579304
 30
0.0
 41
100.0
 42
100.0
 43
100.0
 50
180.0
  0
MTEXT
  5
23F3D
330
13B45
100
AcDbEntity
  8
寸法
 62
     7
 48
50.0
100
AcDbMText
 10
10005.51298980502
 20
5673.657453579306
 30
0.0
 40
120.0
 41
0.0
 71
     5
 72
     1
  1
\A1;柱外寸法1370
  7
STYLE1
 73
     1
 44
1.0
1001
ACAD
1000
MTEXTBEGIN
1070
    73
1070
     1
1070
    44
1040
1.0
1070
    74
1070
     0
1000
MTEXTEND
  0
POINT
  5
23F3E
330
13B45
100
AcDbEntity
  8
DEFPOINTS
 62
     0
 48
50.0
100
AcDbPoint
 10
10725.69395691447
 20
5121.810679611654
 30
0.0
  0
POINT
  5
23F3F
330
13B45
100
AcDbEntity
  8
DEFPOINTS
 62
     0
 48
50.0
100
AcDbPoint
 10
9355.693956914477
 20
5171.001618122978
 30
0.0
  0
POINT
  5
23F40
330
13B45
100
AcDbEntity
  8
DEFPOINTS
 62
     0
 48
50.0
100
AcDbPoint
 10
9355.693956914477
 20
5573.657453579304
 30
0.0
  0
ENDBLK
  5
14D29
330
13B45
100
AcDbEntity
  8
0
 48
50.0
100
AcDbBlockEnd
  0
BLOCK
  5
149C9
330
13B60
100
AcDbEntity
  8
0
 48
50.0
100
AcDbBlockBegin
  2
*D6
 70
     1
 10
0.0
 20
0.0
 30
0.0
  3
*D6
  1

  0
LINE
  5
23F2D
330
13B60
100
AcDbEntity
  8
寸法
 62
     0
 48
50.0
370
    -2
100
AcDbLine
 10
9355.693956914477
 20
5191.001618122975
 30
0.0
 11
9355.693956914477
 21
5633.657453579304
 31
0.0
  0
LINE
  5
23F2E
330
13B60
100
AcDbEntity
  8
寸法
 62
     0
 48
50.0
370
    -2
100
AcDbLine
 10
9295.693956914476
 20
5195.000000000004
 30
0.0
 11
9295.693956914476
 21
5633.657453579304
 31
0.0
  0
LINE
  5
23F2F
330
13B60
100
AcDbEntity
  8
寸法
 62
     0
 48
50.0
370
    -2
100
AcDbLine
 10
9355.693956914477
 20
5573.657453579304
 30
0.0
 11
9455.693956914476
 21
5573.657453579304
 31
0.0
  0
LINE
  5
23F30
330
13B60
100
AcDbEntity
  8
寸法
 62
     0
 48
50.0
370
    -2
100
AcDbLine
 10
9295.693956914476
 20
5573.657453579304
 30
0.0
 11
8876.418366363296
 21
5573.657453579304
 31
0.0
  0
LINE
  5
23F31
330
13B60
100
AcDbEntity
  8
寸法
 62
     0
 48
50.0
370
    -2
100
AcDbLine
 10
9355.693956914477
 20
5573.657453579304
 30
0.0
 11
9295.693956914476
 21
5573.657453579304
 31
0.0
  0
INSERT
  5
23F32
330
13B60
100
AcDbEntity
  8
寸法
 62
     0
 48
50.0
370
    -2
100
AcDbBlockReference
  2
_DOTSMALL
 10
9355.693956914477
 20
5573.657453579304
 30
0.0
 41
100.0
 42
100.0
 43
100.0
 50
180.0
  0
INSERT
  5
23F33
330
13B60
100
AcDbEntity
  8
寸法
 62
     0
 48
50.0
370
    -2
100
AcDbBlockReference
  2
_DOTSMALL
 10
9295.693956914476
 20
5573.657453579304
 30
0.0
 41
100.0
 42
100.0
 43
100.0
  0
MTEXT
  5
23F34
330
13B60
100
AcDbEntity
  8
寸法
 62
     7
 48
50.0
100
AcDbMText
 10
8986.056161638886
 20
5673.657453579306
 30
0.0
 40
120.0
 41
0.0
 71
     5
 72
     1
  1
\A1;60
  7
STYLE1
 73
     1
 44
1.0
1001
ACAD
1000
MTEXTBEGIN
1070
    73
1070
     1
1070
    44
1040
1.0
1070
    74
1070
     0
1000
MTEXTEND
  0
POINT
  5
23F35
330
13B60
100
AcDbEntity
  8
DEFPOINTS
 62
     0
 48
50.0
100
AcDbPoint
 10
9355.693956914477
 20
5171.001618122978
 30
0.0
  0
POINT
  5
23F36
330
13B60
100
AcDbEntity
  8
DEFPOINTS
 62
     0
 48
50.0
100
AcDbPoint
 10
9295.693956914476
 20
5175.000000000005
 30
0.0
  0
POINT
  5
23F37
330
13B60
100
AcDbEntity
  8
DEFPOINTS
 62
     0
 48
50.0
100
AcDbPoint
 10
9295.693956914476
 20
5573.657453579304
 30
0.0
  0
ENDBLK
  5
149D4
330
13B60
100
AcDbEntity
  8
0
 48
50.0
100
AcDbBlockEnd
  0
BLOCK
  5
14D2A
330
13BB3
100
AcDbEntity
  8
0
 48
50.0
100
AcDbBlockBegin
  2
*D7
 70
     1
 10
0.0
 20
0.0
 30
0.0
  3
*D7
  1

  0
LINE
  5
23F24
330
13BB3
100
AcDbEntity
  8
寸法
 62
     0
 48
50.0
370
    -2
100
AcDbLine
 10
10805.69395691447
 20
5140.000000000001
 30
0.0
 11
10805.69395691447
 21
5841.831774771268
 31
0.0
  0
LINE
  5
23F25
330
13BB3
100
AcDbEntity
  8
寸法
 62
     0
 48
50.0
370
    -2
100
AcDbLine
 10
9295.693956914476
 20
5195.000000000004
 30
0.0
 11
9295.693956914476
 21
5841.831774771268
 31
0.0
  0
LINE
  5
23F26
330
13BB3
100
AcDbEntity
  8
寸法
 62
     0
 48
50.0
370
    -2
100
AcDbLine
 10
10805.69395691447
 20
5781.831774771268
 30
0.0
 11
9295.693956914476
 21
5781.831774771268
 31
0.0
  0
INSERT
  5
23F27
330
13BB3
100
AcDbEntity
  8
寸法
 62
     0
 48
50.0
370
    -2
100
AcDbBlockReference
  2
_DOTSMALL
 10
10805.69395691447
 20
5781.831774771268
 30
0.0
 41
100.0
 42
100.0
 43
100.0
  0
INSERT
  5
23F28
330
13BB3
100
AcDbEntity
  8
寸法
 62
     0
 48
50.0
370
    -2
100
AcDbBlockReference
  2
_DOTSMALL
 10
9295.693956914476
 20
5781.831774771268
 30
0.0
 41
100.0
 42
100.0
 43
100.0
 50
180.0
  0
MTEXT
  5
23F29
330
13BB3
100
AcDbEntity
  8
寸法
 62
     7
 48
50.0
100
AcDbMText
 10
10022.8187866163
 20
5881.831774771268
 30
0.0
 40
120.0
 41
0.0
 71
     5
 72
     1
  1
\A1;1510
  7
STYLE1
 73
     1
 44
1.0
1001
ACAD
1000
MTEXTBEGIN
1070
    73
1070
     1
1070
    44
1040
1.0
1070
    74
1070
     0
1000
MTEXTEND
  0
POINT
  5
23F2A
330
13BB3
100
AcDbEntity
  8
DEFPOINTS
 62
     0
 48
50.0
100
AcDbPoint
 10
10805.69395691447
 20
5120.0
 30
0.0
  0
POINT
  5
23F2B
330
13BB3
100
AcDbEntity
  8
DEFPOINTS
 62
     0
 48
50.0
100
AcDbPoint
 10
9295.693956914476
 20
5175.000000000005
 30
0.0
  0
POINT
  5
23F2C
330
13BB3
100
AcDbEntity
  8
DEFPOINTS
 62
     0
 48
50.0
100
AcDbPoint
 10
9295.693956914476
 20
5781.831774771268
 30
0.0
  0
ENDBLK
  5
14D34
330
13BB3
100
AcDbEntity
  8
0
 48
50.0
100
AcDbBlockEnd
  0
BLOCK
  5
14A98
330
13DA8
100
AcDbEntity
  8
0
 48
50.0
100
AcDbBlockBegin
  2
*D8
 70
     1
 10
0.0
 20
0.0
 30
0.0
  3
*D8
  1

  0
LINE
  5
23F1B
330
13DA8
100
AcDbEntity
  8
寸法
 62
     0
 48
50.0
370
    -2
100
AcDbLine
 10
5579.896575106992
 20
5195.000000000004
 30
0.0
 11
5579.896575106992
 21
5649.214133848723
 31
0.0
  0
LINE
  5
23F1C
330
13DA8
100
AcDbEntity
  8
寸法
 62
     0
 48
50.0
370
    -2
100
AcDbLine
 10
7469.896575106992
 20
5195.000000000003
 30
0.0
 11
7469.896575106992
 21
5649.214133848723
 31
0.0
  0
LINE
  5
23F1D
330
13DA8
100
AcDbEntity
  8
寸法
 62
     0
 48
50.0
370
    -2
100
AcDbLine
 10
5579.896575106992
 20
5589.214133848725
 30
0.0
 11
7469.896575106992
 21
5589.214133848725
 31
0.0
  0
INSERT
  5
23F1E
330
13DA8
100
AcDbEntity
  8
寸法
 62
     0
 48
50.0
370
    -2
100
AcDbBlockReference
  2
_DOTSMALL
 10
5579.896575106992
 20
5589.214133848725
 30
0.0
 41
100.0
 42
100.0
 43
100.0
 50
180.0
  0
INSERT
  5
23F1F
330
13DA8
100
AcDbEntity
  8
寸法
 62
     0
 48
50.0
370
    -2
100
AcDbBlockReference
  2
_DOTSMALL
 10
7469.896575106992
 20
5589.214133848725
 30
0.0
 41
100.0
 42
100.0
 43
100.0
  0
MTEXT
  5
23F20
330
13DA8
100
AcDbEntity
  8
寸法
 62
     7
 48
50.0
100
AcDbMText
 10
6524.896575106989
 20
5689.214133848723
 30
0.0
 40
120.0
 41
0.0
 71
     5
 72
     1
  1
\A1;1890
  7
STYLE1
 73
     1
 44
1.0
1001
ACAD
1000
MTEXTBEGIN
1070
    73
1070
     1
1070
    44
1040
1.0
1070
    74
1070
     0
1000
MTEXTEND
  0
POINT
  5
23F21
330
13DA8
100
AcDbEntity
  8
DEFPOINTS
 62
     0
 48
50.0
100
AcDbPoint
 10
5579.896575106992
 20
5175.000000000006
 30
0.0
  0
POINT
  5
23F22
330
13DA8
100
AcDbEntity
  8
DEFPOINTS
 62
     0
 48
50.0
100
AcDbPoint
 10
7469.896575106992
 20
5175.000000000003
 30
0.0
  0
POINT
  5
23F23
330
13DA8
100
AcDbEntity
  8
DEFPOINTS
 62
     0
 48
50.0
100
AcDbPoint
 10
7469.896575106992
 20
5589.214133848725
 30
0.0
  0
ENDBLK
  5
14AA2
330
13DA8
100
AcDbEntity
  8
0
 48
50.0
100
AcDbBlockEnd
  0
BLOCK
  5
14A8A
330
141B5
100
AcDbEntity
  8
0
 48
50.0
100
AcDbBlockBegin
  2
*D9
 70
     1
 10
0.0
 20
0.0
 30
0.0
  3
*D9
  1

  0
LINE
  5
23F10
330
141B5
100
AcDbEntity
  8
寸法
 62
     0
 48
50.0
370
    -2
100
AcDbLine
 10
7469.896575106992
 20
5195.000000000003
 30
0.0
 11
7469.896575106992
 21
5439.620259427273
 31
0.0
  0
LINE
  5
23F11
330
141B5
100
AcDbEntity
  8
寸法
 62
     0
 48
50.0
370
    -2
100
AcDbLine
 10
7419.896575106993
 20
5195.000000000004
 30
0.0
 11
7419.896575106993
 21
5439.620259427273
 31
0.0
  0
LINE
  5
23F12
330
141B5
100
AcDbEntity
  8
寸法
 62
     0
 48
50.0
370
    -2
100
AcDbLine
 10
7419.896575106993
 20
5379.620259427273
 30
0.0
 11
7319.896575106993
 21
5379.620259427273
 31
0.0
  0
LINE
  5
23F13
330
141B5
100
AcDbEntity
  8
寸法
 62
     0
 48
50.0
370
    -2
100
AcDbLine
 10
7469.896575106992
 20
5379.620259427273
 30
0.0
 11
7889.429100575718
 21
5379.620259427273
 31
0.0
  0
LINE
  5
23F14
330
141B5
100
AcDbEntity
  8
寸法
 62
     0
 48
50.0
370
    -2
100
AcDbLine
 10
7419.896575106993
 20
5379.620259427273
 30
0.0
 11
7469.896575106992
 21
5379.620259427273
 31
0.0
  0
INSERT
  5
23F15
330
141B5
100
AcDbEntity
  8
寸法
 62
     0
 48
50.0
370
    -2
100
AcDbBlockReference
  2
_DOTSMALL
 10
7419.896575106993
 20
5379.620259427273
 30
0.0
 41
100.0
 42
100.0
 43
100.0
  0
INSERT
  5
23F16
330
141B5
100
AcDbEntity
  8
寸法
 62
     0
 48
50.0
370
    -2
100
AcDbBlockReference
  2
_DOTSMALL
 10
7469.896575106992
 20
5379.620259427273
 30
0.0
 41
100.0
 42
100.0
 43
100.0
 50
180.0
  0
MTEXT
  5
23F17
330
141B5
100
AcDbEntity
  8
寸法
 62
     7
 48
50.0
100
AcDbMText
 10
7783.381856481231
 20
5479.620259427273
 30
0.0
 40
120.0
 41
0.0
 71
     5
 72
     1
  1
\A1;50
  7
STYLE1
 73
     1
 44
1.0
1001
ACAD
1000
MTEXTBEGIN
1070
    73
1070
     1
1070
    44
1040
1.0
1070
    74
1070
     0
1000
MTEXTEND
  0
POINT
  5
23F18
330
141B5
100
AcDbEntity
  8
DEFPOINTS
 62
     0
 48
50.0
100
AcDbPoint
 10
7469.896575106992
 20
5175.000000000003
 30
0.0
  0
POINT
  5
23F19
330
141B5
100
AcDbEntity
  8
DEFPOINTS
 62
     0
 48
50.0
100
AcDbPoint
 10
7419.896575106993
 20
5175.000000000006
 30
0.0
  0
POINT
  5
23F1A
330
141B5
100
AcDbEntity
  8
DEFPOINTS
 62
     0
 48
50.0
100
AcDbPoint
 10
7419.896575106993
 20
5379.620259427273
 30
0.0
  0
ENDBLK
  5
14A96
330
141B5
100
AcDbEntity
  8
0
 48
50.0
100
AcDbBlockEnd
  0
BLOCK
  5
14A7D
330
141F9
100
AcDbEntity
  8
0
 48
50.0
100
AcDbBlockBegin
  2
*D10
 70
     1
 10
0.0
 20
0.0
 30
0.0
  3
*D10
  1

  0
LINE
  5
23F05
330
141F9
100
AcDbEntity
  8
寸法
 62
     0
 48
50.0
370
    -2
100
AcDbLine
 10
5629.896575106992
 20
5195.000000000007
 30
0.0
 11
5629.896575106992
 21
5439.620259427273
 31
0.0
  0
LINE
  5
23F06
330
141F9
100
AcDbEntity
  8
寸法
 62
     0
 48
50.0
370
    -2
100
AcDbLine
 10
5579.896575106992
 20
5195.000000000004
 30
0.0
 11
5579.896575106992
 21
5439.620259427273
 31
0.0
  0
LINE
  5
23F07
330
141F9
100
AcDbEntity
  8
寸法
 62
     0
 48
50.0
370
    -2
100
AcDbLine
 10
5629.896575106992
 20
5379.620259427273
 30
0.0
 11
5729.896575106992
 21
5379.620259427273
 31
0.0
  0
LINE
  5
23F08
330
141F9
100
AcDbEntity
  8
寸法
 62
     0
 48
50.0
370
    -2
100
AcDbLine
 10
5579.896575106992
 20
5379.620259427273
 30
0.0
 11
5160.36404963826
 21
5379.620259427273
 31
0.0
  0
LINE
  5
23F09
330
141F9
100
AcDbEntity
  8
寸法
 62
     0
 48
50.0
370
    -2
100
AcDbLine
 10
5629.896575106992
 20
5379.620259427273
 30
0.0
 11
5579.896575106992
 21
5379.620259427273
 31
0.0
  0
INSERT
  5
23F0A
330
141F9
100
AcDbEntity
  8
寸法
 62
     0
 48
50.0
370
    -2
100
AcDbBlockReference
  2
_DOTSMALL
 10
5629.896575106992
 20
5379.620259427273
 30
0.0
 41
100.0
 42
100.0
 43
100.0
 50
180.0
  0
INSERT
  5
23F0B
330
141F9
100
AcDbEntity
  8
寸法
 62
     0
 48
50.0
370
    -2
100
AcDbBlockReference
  2
_DOTSMALL
 10
5579.896575106992
 20
5379.620259427273
 30
0.0
 41
100.0
 42
100.0
 43
100.0
  0
MTEXT
  5
23F0C
330
141F9
100
AcDbEntity
  8
寸法
 62
     7
 48
50.0
100
AcDbMText
 10
5266.411293732748
 20
5479.620259427273
 30
0.0
 40
120.0
 41
0.0
 71
     5
 72
     1
  1
\A1;50
  7
STYLE1
 73
     1
 44
1.0
1001
ACAD
1000
MTEXTBEGIN
1070
    73
1070
     1
1070
    44
1040
1.0
1070
    74
1070
     0
1000
MTEXTEND
  0
POINT
  5
23F0D
330
141F9
100
AcDbEntity
  8
DEFPOINTS
 62
     0
 48
50.0
100
AcDbPoint
 10
5629.896575106992
 20
5175.000000000006
 30
0.0
  0
POINT
  5
23F0E
330
141F9
100
AcDbEntity
  8
DEFPOINTS
 62
     0
 48
50.0
100
AcDbPoint
 10
5579.896575106992
 20
5175.000000000006
 30
0.0
  0
POINT
  5
23F0F
330
141F9
100
AcDbEntity
  8
DEFPOINTS
 62
     0
 48
50.0
100
AcDbPoint
 10
5579.896575106992
 20
5379.620259427273
 30
0.0
  0
ENDBLK
  5
14A89
330
141F9
100
AcDbEntity
  8
0
 48
50.0
100
AcDbBlockEnd
  0
BLOCK
  5
14A72
330
146DC
100
AcDbEntity
  8
0
 48
50.0
100
AcDbBlockBegin
  2
*D11
 70
     1
 10
0.0
 20
0.0
 30
0.0
  3
*D11
  1

  0
LINE
  5
23EFC
330
146DC
100
AcDbEntity
  8
寸法
 62
     0
 48
50.0
370
    -2
100
AcDbLine
 10
7419.896575106993
 20
5195.000000000004
 30
0.0
 11
7419.896575106993
 21
5439.620259427273
 31
0.0
  0
LINE
  5
23EFD
330
146DC
100
AcDbEntity
  8
寸法
 62
     0
 48
50.0
370
    -2
100
AcDbLine
 10
5629.896575106992
 20
5195.000000000007
 30
0.0
 11
5629.896575106992
 21
5439.620259427273
 31
0.0
  0
LINE
  5
23EFE
330
146DC
100
AcDbEntity
  8
寸法
 62
     0
 48
50.0
370
    -2
100
AcDbLine
 10
7419.896575106993
 20
5379.620259427273
 30
0.0
 11
5629.896575106992
 21
5379.620259427273
 31
0.0
  0
INSERT
  5
23EFF
330
146DC
100
AcDbEntity
  8
寸法
 62
     0
 48
50.0
370
    -2
100
AcDbBlockReference
  2
_DOTSMALL
 10
7419.896575106993
 20
5379.620259427273
 30
0.0
 41
100.0
 42
100.0
 43
100.0
  0
INSERT
  5
23F00
330
146DC
100
AcDbEntity
  8
寸法
 62
     0
 48
50.0
370
    -2
100
AcDbBlockReference
  2
_DOTSMALL
 10
5629.896575106992
 20
5379.620259427273
 30
0.0
 41
100.0
 42
100.0
 43
100.0
 50
180.0
  0
MTEXT
  5
23F01
330
146DC
100
AcDbEntity
  8
寸法
 62
     7
 48
50.0
100
AcDbMText
 10
6499.077414038605
 20
5479.620259427273
 30
0.0
 40
120.0
 41
0.0
 71
     5
 72
     1
  1
\A1;柱外寸法1790
  7
STYLE1
 73
     1
 44
1.0
1001
ACAD
1000
MTEXTBEGIN
1070
    73
1070
     1
1070
    44
1040
1.0
1070
    74
1070
     0
1000
MTEXTEND
  0
POINT
  5
23F02
330
146DC
100
AcDbEntity
  8
DEFPOINTS
 62
     0
 48
50.0
100
AcDbPoint
 10
7419.896575106993
 20
5175.000000000006
 30
0.0
  0
POINT
  5
23F03
330
146DC
100
AcDbEntity
  8
DEFPOINTS
 62
     0
 48
50.0
100
AcDbPoint
 10
5629.896575106992
 20
5175.000000000006
 30
0.0
  0
POINT
  5
23F04
330
146DC
100
AcDbEntity
  8
DEFPOINTS
 62
     0
 48
50.0
100
AcDbPoint
 10
5629.896575106992
 20
5379.620259427273
 30
0.0
  0
ENDBLK
  5
14A7C
330
146DC
100
AcDbEntity
  8
0
 48
50.0
100
AcDbBlockEnd
  0
BLOCK
  5
19885
330
19879
100
AcDbEntity
  8
0
 48
50.0
100
AcDbBlockBegin
  2
*D12
 70
     1
 10
0.0
 20
0.0
 30
0.0
  3
*D12
  1

  0
LINE
  5
23EF2
330
19879
100
AcDbEntity
  8
寸法
 62
     0
 48
50.0
370
    -2
100
AcDbLine
 10
10725.69395691447
 20
5141.810679611655
 30
0.0
 11
10725.69395691447
 21
5633.657453579304
 31
0.0
  0
LINE
  5
23EF3
330
19879
100
AcDbEntity
  8
寸法
 62
     0
 48
50.0
370
    -2
100
AcDbLine
 10
10805.69395691447
 20
5140.000000000001
 30
0.0
 11
10805.69395691447
 21
5633.657453579304
 31
0.0
  0
LINE
  5
23EF4
330
19879
100
AcDbEntity
  8
寸法
 62
     0
 48
50.0
370
    -2
100
AcDbLine
 10
10725.69395691447
 20
5573.657453579304
 30
0.0
 11
10805.69395691447
 21
5573.657453579304
 31
0.0
  0
LINE
  5
23EF5
330
19879
100
AcDbEntity
  8
寸法
 62
     0
 48
50.0
370
    -2
100
AcDbLine
 10
10805.69395691447
 20
5573.657453579304
 30
0.0
 11
11117.78844510345
 21
5573.657453579304
 31
0.0
  0
INSERT
  5
23EF6
330
19879
100
AcDbEntity
  8
寸法
 62
     0
 48
50.0
370
    -2
100
AcDbBlockReference
  2
_DOTSMALL
 10
10725.69395691447
 20
5573.657453579304
 30
0.0
 41
100.0
 42
100.0
 43
100.0
 50
180.0
  0
INSERT
  5
23EF7
330
19879
100
AcDbEntity
  8
寸法
 62
     0
 48
50.0
370
    -2
100
AcDbBlockReference
  2
_DOTSMALL
 10
10805.69395691447
 20
5573.657453579304
 30
0.0
 41
100.0
 42
100.0
 43
100.0
  0
MTEXT
  5
23EF8
330
19879
100
AcDbEntity
  8
寸法
 62
     7
 48
50.0
100
AcDbMText
 10
11011.74120100896
 20
5673.657453579306
 30
0.0
 40
120.0
 41
0.0
 71
     5
 72
     1
  1
\A1;80
  7
STYLE1
 73
     1
 44
1.0
1001
ACAD
1000
MTEXTBEGIN
1070
    73
1070
     1
1070
    44
1040
1.0
1070
    74
1070
     0
1000
MTEXTEND
  0
POINT
  5
23EF9
330
19879
100
AcDbEntity
  8
DEFPOINTS
 62
     0
 48
50.0
100
AcDbPoint
 10
10725.69395691447
 20
5121.810679611654
 30
0.0
  0
POINT
  5
23EFA
330
19879
100
AcDbEntity
  8
DEFPOINTS
 62
     0
 48
50.0
100
AcDbPoint
 10
10805.69395691447
 20
5120.0
 30
0.0
  0
POINT
  5
23EFB
330
19879
100
AcDbEntity
  8
DEFPOINTS
 62
     0
 48
50.0
100
AcDbPoint
 10
10805.69395691447
 20
5573.657453579304
 30
0.0
  0
ENDBLK
  5
19886
330
19879
100
AcDbEntity
  8
0
 48
50.0
100
AcDbBlockEnd
  0
BLOCK
  5
19A52
330
19A47
100
AcDbEntity
  8
0
 48
50.0
100
AcDbBlockBegin
  2
*D13
 70
     1
 10
0.0
 20
0.0
 30
0.0
  3
*D13
  1

  0
LINE
  5
23EE8
330
19A47
100
AcDbEntity
  8
寸法
 62
     0
 48
50.0
370
    -2
100
AcDbLine
 10
9291.050761601978
 20
5033.535611473499
 30
0.0
 11
8638.150591307555
 21
5058.186642714235
 31
0.0
  0
LINE
  5
23EE9
330
19A47
100
AcDbEntity
  8
寸法
 62
     0
 48
50.0
370
    -2
100
AcDbLine
 10
9296.370595753932
 20
5174.435218870383
 30
0.0
 11
8643.47042545951
 21
5199.086250111118
 31
0.0
  0
LINE
  5
23EEA
330
19A47
100
AcDbEntity
  8
寸法
 62
     0
 48
50.0
370
    -2
100
AcDbLine
 10
8698.107871050909
 20
5055.922883500638
 30
0.0
 11
8703.427705202862
 21
5196.82249089752
 31
0.0
  0
LINE
  5
23EEB
330
19A47
100
AcDbEntity
  8
寸法
 62
     0
 48
50.0
370
    -2
100
AcDbLine
 10
8703.427705202862
 20
5196.82249089752
 30
0.0
 11
8717.010260484446
 21
5556.566169357647
 31
0.0
  0
INSERT
  5
23EEC
330
19A47
100
AcDbEntity
  8
寸法
 62
     0
 48
50.0
370
    -2
100
AcDbBlockReference
  2
_DOTSMALL
 10
8698.107871050909
 20
5055.922883500638
 30
0.0
 41
100.0
 42
100.0
 43
100.0
 50
267.8377559870924
  0
INSERT
  5
23EED
330
19A47
100
AcDbEntity
  8
寸法
 62
     0
 48
50.0
370
    -2
100
AcDbBlockReference
  2
_DOTSMALL
 10
8703.427705202862
 20
5196.82249089752
 30
0.0
 41
100.0
 42
100.0
 43
100.0
 50
87.83775598709233
  0
MTEXT
  5
23EEE
330
19A47
100
AcDbEntity
  8
寸法
 62
     7
 48
50.0
100
AcDbMText
 10
8612.176649282726
 20
5430.431661936375
 30
0.0
 40
120.0
 41
0.0
 71
     5
 72
     1
  1
\A1;141
  7
STYLE1
 11
0.0377293202266152
 21
0.9992879957225731
 31
0.0
 73
     1
 44
1.0
1001
ACAD
1000
MTEXTBEGIN
1070
    73
1070
     1
1070
    44
1040
1.0
1070
    74
1070
     0
1000
MTEXTEND
  0
POINT
  5
23EEF
330
19A47
100
AcDbEntity
  8
DEFPOINTS
 62
     0
 48
50.0
100
AcDbPoint
 10
9311.036521516426
 20
5032.781025068967
 30
0.0
  0
POINT
  5
23EF0
330
19A47
100
AcDbEntity
  8
DEFPOINTS
 62
     0
 48
50.0
100
AcDbPoint
 10
9316.35635566838
 20
5173.680632465849
 30
0.0
  0
POINT
  5
23EF1
330
19A47
100
AcDbEntity
  8
DEFPOINTS
 62
     0
 48
50.0
100
AcDbPoint
 10
8703.427705202862
 20
5196.82249089752
 30
0.0
  0
ENDBLK
  5
19A53
330
19A47
100
AcDbEntity
  8
0
 48
50.0
100
AcDbBlockEnd
  0
BLOCK
  5
1E22A
330
1E220
100
AcDbEntity
  8
0
 48
50.0
100
AcDbBlockBegin
  2
*D14
 70
     1
 10
0.0
 20
0.0
 30
0.0
  3
*D14
  1

  0
LINE
  5
2449B
330
1E220
100
AcDbEntity
  8
寸法
 62
     0
 48
50.0
370
    -2
100
AcDbLine
 10
5626.86625886844
 20
8256.824101455595
 30
0.0
 11
5626.86625886844
 21
7359.457110119162
 31
0.0
  0
LINE
  5
2449C
330
1E220
100
AcDbEntity
  8
寸法
 62
     0
 48
50.0
370
    -2
100
AcDbLine
 10
7416.866258868423
 20
8256.824101455725
 30
0.0
 11
7416.866258868423
 21
7359.457110119162
 31
0.0
  0
LINE
  5
2449D
330
1E220
100
AcDbEntity
  8
寸法
 62
     0
 48
50.0
370
    -2
100
AcDbLine
 10
5626.86625886844
 20
7419.457110119161
 30
0.0
 11
7416.866258868423
 21
7419.457110119161
 31
0.0
  0
INSERT
  5
2449E
330
1E220
100
AcDbEntity
  8
寸法
 62
     0
 48
50.0
370
    -2
100
AcDbBlockReference
  2
_DOTSMALL
 10
5626.86625886844
 20
7419.457110119161
 30
0.0
 41
100.0
 42
100.0
 43
100.0
 50
180.0
  0
INSERT
  5
2449F
330
1E220
100
AcDbEntity
  8
寸法
 62
     0
 48
50.0
370
    -2
100
AcDbBlockReference
  2
_DOTSMALL
 10
7416.866258868423
 20
7419.457110119161
 30
0.0
 41
100.0
 42
100.0
 43
100.0
  0
MTEXT
  5
244A0
330
1E220
100
AcDbEntity
  8
寸法
 62
     7
 48
50.0
100
AcDbMText
 10
6521.866258868431
 20
7519.457110119161
 30
0.0
 40
120.0
 41
0.0
 71
     5
 72
     1
  1
\A1;1790
  7
STYLE1
 73
     1
 44
1.0
1001
ACAD
1000
MTEXTBEGIN
1070
    73
1070
     1
1070
    44
1040
1.0
1070
    74
1070
     0
1000
MTEXTEND
  0
POINT
  5
244A1
330
1E220
100
AcDbEntity
  8
DEFPOINTS
 62
     0
 48
50.0
100
AcDbPoint
 10
5626.86625886844
 20
8276.824101455593
 30
0.0
  0
POINT
  5
244A2
330
1E220
100
AcDbEntity
  8
DEFPOINTS
 62
     0
 48
50.0
100
AcDbPoint
 10
7416.866258868423
 20
8276.824101455725
 30
0.0
  0
POINT
  5
244A3
330
1E220
100
AcDbEntity
  8
DEFPOINTS
 62
     0
 48
50.0
100
AcDbPoint
 10
7416.866258868423
 20
7419.457110119161
 30
0.0
  0
ENDBLK
  5
1E22B
330
1E220
100
AcDbEntity
  8
0
 48
50.0
100
AcDbBlockEnd
  0
BLOCK
  5
1E236
330
1E22C
100
AcDbEntity
  8
0
 48
50.0
100
AcDbBlockBegin
  2
*D15
 70
     1
 10
0.0
 20
0.0
 30
0.0
  3
*D15
  1

  0
LINE
  5
24492
330
1E22C
100
AcDbEntity
  8
寸法
 62
     0
 48
50.0
370
    -2
100
AcDbLine
 10
5681.866258868447
 20
9666.824101455638
 30
0.0
 11
5681.866258868447
 21
10003.63112826396
 31
0.0
  0
LINE
  5
24493
330
1E22C
100
AcDbEntity
  8
寸法
 62
     0
 48
50.0
370
    -2
100
AcDbLine
 10
7361.866258868447
 20
9666.824101455732
 30
0.0
 11
7361.866258868447
 21
10003.63112826396
 31
0.0
  0
LINE
  5
24494
330
1E22C
100
AcDbEntity
  8
寸法
 62
     0
 48
50.0
370
    -2
100
AcDbLine
 10
5681.866258868447
 20
9943.631128263962
 30
0.0
 11
7361.866258868447
 21
9943.631128263962
 31
0.0
  0
INSERT
  5
24495
330
1E22C
100
AcDbEntity
  8
寸法
 62
     0
 48
50.0
370
    -2
100
AcDbBlockReference
  2
_DOTSMALL
 10
5681.866258868447
 20
9943.631128263962
 30
0.0
 41
100.0
 42
100.0
 43
100.0
 50
180.0
  0
INSERT
  5
24496
330
1E22C
100
AcDbEntity
  8
寸法
 62
     0
 48
50.0
370
    -2
100
AcDbBlockReference
  2
_DOTSMALL
 10
7361.866258868447
 20
9943.631128263962
 30
0.0
 41
100.0
 42
100.0
 43
100.0
  0
MTEXT
  5
24497
330
1E22C
100
AcDbEntity
  8
寸法
 62
     7
 48
50.0
100
AcDbMText
 10
6521.866258868445
 20
10043.64293928758
 30
0.0
 40
120.0
 41
0.0
 71
     5
 72
     1
  1
\A1;4X420=1680
  7
STYLE1
 73
     1
 44
1.0
1001
ACAD
1000
MTEXTBEGIN
1070
    73
1070
     1
1070
    44
1040
1.0
1070
    74
1070
     0
1000
MTEXTEND
  0
POINT
  5
24498
330
1E22C
100
AcDbEntity
  8
DEFPOINTS
 62
     0
 48
50.0
100
AcDbPoint
 10
5681.866258868447
 20
9646.824101455635
 30
0.0
  0
POINT
  5
24499
330
1E22C
100
AcDbEntity
  8
DEFPOINTS
 62
     0
 48
50.0
100
AcDbPoint
 10
7361.866258868447
 20
9646.824101455733
 30
0.0
  0
POINT
  5
2449A
330
1E22C
100
AcDbEntity
  8
DEFPOINTS
 62
     0
 48
50.0
100
AcDbPoint
 10
7361.866258868447
 20
9943.631128263962
 30
0.0
  0
ENDBLK
  5
1E237
330
1E22C
100
AcDbEntity
  8
0
 48
50.0
100
AcDbBlockEnd
  0
BLOCK
  5
1E244
330
1E238
100
AcDbEntity
  8
0
 48
50.0
100
AcDbBlockBegin
  2
*D16
 70
     1
 10
0.0
 20
0.0
 30
0.0
  3
*D16
  1

  0
LINE
  5
24487
330
1E238
100
AcDbEntity
  8
寸法
 62
     0
 48
50.0
370
    -2
100
AcDbLine
 10
7361.866258868447
 20
9666.824101455732
 30
0.0
 11
7361.866258868447
 21
10003.63112826394
 31
0.0
  0
LINE
  5
24488
330
1E238
100
AcDbEntity
  8
寸法
 62
     0
 48
50.0
370
    -2
100
AcDbLine
 10
7416.866258868447
 20
9666.824101455732
 30
0.0
 11
7416.866258868447
 21
10003.63112826394
 31
0.0
  0
LINE
  5
24489
330
1E238
100
AcDbEntity
  8
寸法
 62
     0
 48
50.0
370
    -2
100
AcDbLine
 10
7361.866258868447
 20
9943.631128263945
 30
0.0
 11
7261.866258868447
 21
9943.631128263945
 31
0.0
  0
LINE
  5
2448A
330
1E238
100
AcDbEntity
  8
寸法
 62
     0
 48
50.0
370
    -2
100
AcDbLine
 10
7416.866258868447
 20
9943.631128263945
 30
0.0
 11
7833.836821616924
 21
9943.631128263945
 31
0.0
  0
LINE
  5
2448B
330
1E238
100
AcDbEntity
  8
寸法
 62
     0
 48
50.0
370
    -2
100
AcDbLine
 10
7361.866258868447
 20
9943.631128263945
 30
0.0
 11
7416.866258868447
 21
9943.631128263945
 31
0.0
  0
INSERT
  5
2448C
330
1E238
100
AcDbEntity
  8
寸法
 62
     0
 48
50.0
370
    -2
100
AcDbBlockReference
  2
_DOTSMALL
 10
7361.866258868447
 20
9943.631128263945
 30
0.0
 41
100.0
 42
100.0
 43
100.0
  0
INSERT
  5
2448D
330
1E238
100
AcDbEntity
  8
寸法
 62
     0
 48
50.0
370
    -2
100
AcDbBlockReference
  2
_DOTSMALL
 10
7416.866258868447
 20
9943.631128263945
 30
0.0
 41
100.0
 42
100.0
 43
100.0
 50
180.0
  0
MTEXT
  5
2448E
330
1E238
100
AcDbEntity
  8
寸法
 62
     7
 48
50.0
100
AcDbMText
 10
7725.351540242685
 20
10043.63112826394
 30
0.0
 40
120.0
 41
0.0
 71
     5
 72
     1
  1
\A1;55
  7
STYLE1
 73
     1
 44
1.0
1001
ACAD
1000
MTEXTBEGIN
1070
    73
1070
     1
1070
    44
1040
1.0
1070
    74
1070
     0
1000
MTEXTEND
  0
POINT
  5
2448F
330
1E238
100
AcDbEntity
  8
DEFPOINTS
 62
     0
 48
50.0
100
AcDbPoint
 10
7361.866258868447
 20
9646.824101455733
 30
0.0
  0
POINT
  5
24490
330
1E238
100
AcDbEntity
  8
DEFPOINTS
 62
     0
 48
50.0
100
AcDbPoint
 10
7416.866258868447
 20
9646.824101455733
 30
0.0
  0
POINT
  5
24491
330
1E238
100
AcDbEntity
  8
DEFPOINTS
 62
     0
 48
50.0
100
AcDbPoint
 10
7416.866258868447
 20
9943.631128263945
 30
0.0
  0
ENDBLK
  5
1E245
330
1E238
100
AcDbEntity
  8
0
 48
50.0
100
AcDbBlockEnd
  0
BLOCK
  5
1E250
330
1E246
100
AcDbEntity
  8
0
 48
50.0
100
AcDbBlockBegin
  2
*D17
 70
     1
 10
0.0
 20
0.0
 30
0.0
  3
*D17
  1

  0
LINE
  5
2447E
330
1E246
100
AcDbEntity
  8
寸法
 62
     0
 48
50.0
370
    -2
100
AcDbLine
 10
7436.866258868447
 20
9591.824101455735
 30
0.0
 11
8124.292604602858
 21
9591.824101455735
 31
0.0
  0
LINE
  5
2447F
330
1E246
100
AcDbEntity
  8
寸法
 62
     0
 48
50.0
370
    -2
100
AcDbLine
 10
7436.866258868422
 20
8331.824101455721
 30
0.0
 11
8124.292604602858
 21
8331.824101455721
 31
0.0
  0
LINE
  5
24480
330
1E246
100
AcDbEntity
  8
寸法
 62
     0
 48
50.0
370
    -2
100
AcDbLine
 10
8064.29260460286
 20
9591.824101455735
 30
0.0
 11
8064.29260460286
 21
8331.824101455721
 31
0.0
  0
INSERT
  5
24481
330
1E246
100
AcDbEntity
  8
寸法
 62
     0
 48
50.0
370
    -2
100
AcDbBlockReference
  2
_DOTSMALL
 10
8064.29260460286
 20
9591.824101455735
 30
0.0
 41
100.0
 42
100.0
 43
100.0
 50
90.0
  0
INSERT
  5
24482
330
1E246
100
AcDbEntity
  8
寸法
 62
     0
 48
50.0
370
    -2
100
AcDbBlockReference
  2
_DOTSMALL
 10
8064.29260460286
 20
8331.824101455721
 30
0.0
 41
100.0
 42
100.0
 43
100.0
 50
270.0
  0
MTEXT
  5
24483
330
1E246
100
AcDbEntity
  8
寸法
 62
     7
 48
50.0
100
AcDbMText
 10
7964.280793579236
 20
8961.82410145573
 30
0.0
 40
120.0
 41
0.0
 71
     5
 72
     1
  1
\A1;3X420=1260
  7
STYLE1
 11
0.0000000000000001
 21
1.0
 31
0.0
 73
     1
 44
1.0
1001
ACAD
1000
MTEXTBEGIN
1070
    73
1070
     1
1070
    44
1040
1.0
1070
    74
1070
     0
1000
MTEXTEND
  0
POINT
  5
24484
330
1E246
100
AcDbEntity
  8
DEFPOINTS
 62
     0
 48
50.0
100
AcDbPoint
 10
7416.866258868447
 20
9591.824101455735
 30
0.0
  0
POINT
  5
24485
330
1E246
100
AcDbEntity
  8
DEFPOINTS
 62
     0
 48
50.0
100
AcDbPoint
 10
7416.866258868423
 20
8331.824101455721
 30
0.0
  0
POINT
  5
24486
330
1E246
100
AcDbEntity
  8
DEFPOINTS
 62
     0
 48
50.0
100
AcDbPoint
 10
8064.29260460286
 20
8331.824101455721
 30
0.0
  0
ENDBLK
  5
1E251
330
1E246
100
AcDbEntity
  8
0
 48
50.0
100
AcDbBlockEnd
  0
BLOCK
  5
1E25E
330
1E252
100
AcDbEntity
  8
0
 48
50.0
100
AcDbBlockBegin
  2
*D18
 70
     1
 10
0.0
 20
0.0
 30
0.0
  3
*D18
  1

  0
LINE
  5
24473
330
1E252
100
AcDbEntity
  8
寸法
 62
     0
 48
50.0
370
    -2
100
AcDbLine
 10
7436.866258868422
 20
8331.824101455721
 30
0.0
 11
8124.292604602858
 21
8331.824101455721
 31
0.0
  0
LINE
  5
24474
330
1E252
100
AcDbEntity
  8
寸法
 62
     0
 48
50.0
370
    -2
100
AcDbLine
 10
7436.866258868422
 20
8276.824101455725
 30
0.0
 11
8124.292604602858
 21
8276.824101455725
 31
0.0
  0
LINE
  5
24475
330
1E252
100
AcDbEntity
  8
寸法
 62
     0
 48
50.0
370
    -2
100
AcDbLine
 10
8064.29260460286
 20
8331.824101455721
 30
0.0
 11
8064.29260460286
 21
8431.82410145572
 31
0.0
  0
LINE
  5
24476
330
1E252
100
AcDbEntity
  8
寸法
 62
     0
 48
50.0
370
    -2
100
AcDbLine
 10
8064.29260460286
 20
8276.824101455725
 30
0.0
 11
8064.29260460286
 21
7859.853538707247
 31
0.0
  0
LINE
  5
24477
330
1E252
100
AcDbEntity
  8
寸法
 62
     0
 48
50.0
370
    -2
100
AcDbLine
 10
8064.29260460286
 20
8331.824101455721
 30
0.0
 11
8064.29260460286
 21
8276.824101455725
 31
0.0
  0
INSERT
  5
24478
330
1E252
100
AcDbEntity
  8
寸法
 62
     0
 48
50.0
370
    -2
100
AcDbBlockReference
  2
_DOTSMALL
 10
8064.29260460286
 20
8331.824101455721
 30
0.0
 41
100.0
 42
100.0
 43
100.0
 50
270.0
  0
INSERT
  5
24479
330
1E252
100
AcDbEntity
  8
寸法
 62
     0
 48
50.0
370
    -2
100
AcDbBlockReference
  2
_DOTSMALL
 10
8064.29260460286
 20
8276.824101455725
 30
0.0
 41
100.0
 42
100.0
 43
100.0
 50
90.0
  0
MTEXT
  5
2447A
330
1E252
100
AcDbEntity
  8
寸法
 62
     7
 48
50.0
100
AcDbMText
 10
7964.292604602857
 20
7968.338820081488
 30
0.0
 40
120.0
 41
0.0
 71
     5
 72
     1
  1
\A1;55
  7
STYLE1
 11
0.0000000000000001
 21
1.0
 31
0.0
 73
     1
 44
1.0
1001
ACAD
1000
MTEXTBEGIN
1070
    73
1070
     1
1070
    44
1040
1.0
1070
    74
1070
     0
1000
MTEXTEND
  0
POINT
  5
2447B
330
1E252
100
AcDbEntity
  8
DEFPOINTS
 62
     0
 48
50.0
100
AcDbPoint
 10
7416.866258868423
 20
8331.824101455721
 30
0.0
  0
POINT
  5
2447C
330
1E252
100
AcDbEntity
  8
DEFPOINTS
 62
     0
 48
50.0
100
AcDbPoint
 10
7416.866258868423
 20
8276.824101455725
 30
0.0
  0
POINT
  5
2447D
330
1E252
100
AcDbEntity
  8
DEFPOINTS
 62
     0
 48
50.0
100
AcDbPoint
 10
8064.29260460286
 20
8276.824101455725
 30
0.0
  0
ENDBLK
  5
1E25F
330
1E252
100
AcDbEntity
  8
0
 48
50.0
100
AcDbBlockEnd
  0
BLOCK
  5
1E26C
330
1E260
100
AcDbEntity
  8
0
 48
50.0
100
AcDbBlockBegin
  2
*D19
 70
     1
 10
0.0
 20
0.0
 30
0.0
  3
*D19
  1

  0
LINE
  5
24468
330
1E260
100
AcDbEntity
  8
寸法
 62
     0
 48
50.0
370
    -2
100
AcDbLine
 10
7436.866258868447
 20
9646.824101455733
 30
0.0
 11
8124.292604602858
 21
9646.824101455733
 31
0.0
  0
LINE
  5
24469
330
1E260
100
AcDbEntity
  8
寸法
 62
     0
 48
50.0
370
    -2
100
AcDbLine
 10
7436.866258868447
 20
9591.824101455735
 30
0.0
 11
8124.292604602858
 21
9591.824101455735
 31
0.0
  0
LINE
  5
2446A
330
1E260
100
AcDbEntity
  8
寸法
 62
     0
 48
50.0
370
    -2
100
AcDbLine
 10
8064.292604602858
 20
9591.824101455735
 30
0.0
 11
8064.292604602858
 21
9491.824101455735
 31
0.0
  0
LINE
  5
2446B
330
1E260
100
AcDbEntity
  8
寸法
 62
     0
 48
50.0
370
    -2
100
AcDbLine
 10
8064.292604602858
 20
9646.824101455733
 30
0.0
 11
8064.292604602858
 21
10063.79466420421
 31
0.0
  0
LINE
  5
2446C
330
1E260
100
AcDbEntity
  8
寸法
 62
     0
 48
50.0
370
    -2
100
AcDbLine
 10
8064.292604602858
 20
9591.824101455735
 30
0.0
 11
8064.292604602858
 21
9646.824101455733
 31
0.0
  0
INSERT
  5
2446D
330
1E260
100
AcDbEntity
  8
寸法
 62
     0
 48
50.0
370
    -2
100
AcDbBlockReference
  2
_DOTSMALL
 10
8064.292604602858
 20
9591.824101455735
 30
0.0
 41
100.0
 42
100.0
 43
100.0
 50
90.0
  0
INSERT
  5
2446E
330
1E260
100
AcDbEntity
  8
寸法
 62
     0
 48
50.0
370
    -2
100
AcDbBlockReference
  2
_DOTSMALL
 10
8064.292604602858
 20
9646.824101455733
 30
0.0
 41
100.0
 42
100.0
 43
100.0
 50
270.0
  0
MTEXT
  5
2446F
330
1E260
100
AcDbEntity
  8
寸法
 62
     7
 48
50.0
100
AcDbMText
 10
7964.292604602857
 20
9955.309382829973
 30
0.0
 40
120.0
 41
0.0
 71
     5
 72
     1
  1
\A1;55
  7
STYLE1
 11
0.0000000000000001
 21
1.0
 31
0.0
 73
     1
 44
1.0
1001
ACAD
1000
MTEXTBEGIN
1070
    73
1070
     1
1070
    44
1040
1.0
1070
    74
1070
     0
1000
MTEXTEND
  0
POINT
  5
24470
330
1E260
100
AcDbEntity
  8
DEFPOINTS
 62
     0
 48
50.0
100
AcDbPoint
 10
7416.866258868447
 20
9646.824101455733
 30
0.0
  0
POINT
  5
24471
330
1E260
100
AcDbEntity
  8
DEFPOINTS
 62
     0
 48
50.0
100
AcDbPoint
 10
7416.866258868447
 20
9591.824101455735
 30
0.0
  0
POINT
  5
24472
330
1E260
100
AcDbEntity
  8
DEFPOINTS
 62
     0
 48
50.0
100
AcDbPoint
 10
8064.292604602858
 20
9591.824101455735
 30
0.0
  0
ENDBLK
  5
1E26D
330
1E260
100
AcDbEntity
  8
0
 48
50.0
100
AcDbBlockEnd
  0
BLOCK
  5
1E278
330
1E26E
100
AcDbEntity
  8
0
 48
50.0
100
AcDbBlockBegin
  2
*D20
 70
     1
 10
0.0
 20
0.0
 30
0.0
  3
*D20
  1

  0
LINE
  5
2445F
330
1E26E
100
AcDbEntity
  8
寸法
 62
     0
 48
50.0
370
    -2
100
AcDbLine
 10
7436.866258868447
 20
9646.824101455733
 30
0.0
 11
8489.399546342495
 21
9646.824101455733
 31
0.0
  0
LINE
  5
24460
330
1E26E
100
AcDbEntity
  8
寸法
 62
     0
 48
50.0
370
    -2
100
AcDbLine
 10
7436.866258868422
 20
8276.824101455725
 30
0.0
 11
8489.399546342495
 21
8276.824101455725
 31
0.0
  0
LINE
  5
24461
330
1E26E
100
AcDbEntity
  8
寸法
 62
     0
 48
50.0
370
    -2
100
AcDbLine
 10
8429.399546342494
 20
9646.824101455733
 30
0.0
 11
8429.399546342494
 21
8276.824101455725
 31
0.0
  0
INSERT
  5
24462
330
1E26E
100
AcDbEntity
  8
寸法
 62
     0
 48
50.0
370
    -2
100
AcDbBlockReference
  2
_DOTSMALL
 10
8429.399546342494
 20
9646.824101455733
 30
0.0
 41
100.0
 42
100.0
 43
100.0
 50
90.0
  0
INSERT
  5
24463
330
1E26E
100
AcDbEntity
  8
寸法
 62
     0
 48
50.0
370
    -2
100
AcDbBlockReference
  2
_DOTSMALL
 10
8429.399546342494
 20
8276.824101455725
 30
0.0
 41
100.0
 42
100.0
 43
100.0
 50
270.0
  0
MTEXT
  5
24464
330
1E26E
100
AcDbEntity
  8
寸法
 62
     7
 48
50.0
100
AcDbMText
 10
8329.399546342493
 20
8961.824101455729
 30
0.0
 40
120.0
 41
0.0
 71
     5
 72
     1
  1
\A1;1370
  7
STYLE1
 11
0.0000000000000001
 21
1.0
 31
0.0
 73
     1
 44
1.0
1001
ACAD
1000
MTEXTBEGIN
1070
    73
1070
     1
1070
    44
1040
1.0
1070
    74
1070
     0
1000
MTEXTEND
  0
POINT
  5
24465
330
1E26E
100
AcDbEntity
  8
DEFPOINTS
 62
     0
 48
50.0
100
AcDbPoint
 10
7416.866258868447
 20
9646.824101455733
 30
0.0
  0
POINT
  5
24466
330
1E26E
100
AcDbEntity
  8
DEFPOINTS
 62
     0
 48
50.0
100
AcDbPoint
 10
7416.866258868423
 20
8276.824101455725
 30
0.0
  0
POINT
  5
24467
330
1E26E
100
AcDbEntity
  8
DEFPOINTS
 62
     0
 48
50.0
100
AcDbPoint
 10
8429.399546342494
 20
8276.824101455725
 30
0.0
  0
ENDBLK
  5
1E279
330
1E26E
100
AcDbEntity
  8
0
 48
50.0
100
AcDbBlockEnd
  0
BLOCK
  5
1E286
330
1E27A
100
AcDbEntity
  8
0
 48
50.0
100
AcDbBlockBegin
  2
*D21
 70
     1
 10
0.0
 20
0.0
 30
0.0
  3
*D21
  1

  0
LINE
  5
24454
330
1E27A
100
AcDbEntity
  8
寸法
 62
     0
 48
50.0
370
    -2
100
AcDbLine
 10
5626.86625886841
 20
9666.824101455638
 30
0.0
 11
5626.86625886841
 21
10003.63112826384
 31
0.0
  0
LINE
  5
24455
330
1E27A
100
AcDbEntity
  8
寸法
 62
     0
 48
50.0
370
    -2
100
AcDbLine
 10
5681.866258868447
 20
9666.824101455638
 30
0.0
 11
5681.866258868447
 21
10003.63112826384
 31
0.0
  0
LINE
  5
24456
330
1E27A
100
AcDbEntity
  8
寸法
 62
     0
 48
50.0
370
    -2
100
AcDbLine
 10
5681.866258868447
 20
9943.631128263845
 30
0.0
 11
5781.866258868447
 21
9943.631128263845
 31
0.0
  0
LINE
  5
24457
330
1E27A
100
AcDbEntity
  8
寸法
 62
     0
 48
50.0
370
    -2
100
AcDbLine
 10
5626.86625886841
 20
9943.631128263845
 30
0.0
 11
5209.895696119934
 21
9943.631128263845
 31
0.0
  0
LINE
  5
24458
330
1E27A
100
AcDbEntity
  8
寸法
 62
     0
 48
50.0
370
    -2
100
AcDbLine
 10
5681.866258868447
 20
9943.631128263845
 30
0.0
 11
5626.86625886841
 21
9943.631128263845
 31
0.0
  0
INSERT
  5
24459
330
1E27A
100
AcDbEntity
  8
寸法
 62
     0
 48
50.0
370
    -2
100
AcDbBlockReference
  2
_DOTSMALL
 10
5681.866258868447
 20
9943.631128263845
 30
0.0
 41
100.0
 42
100.0
 43
100.0
 50
180.0
  0
INSERT
  5
2445A
330
1E27A
100
AcDbEntity
  8
寸法
 62
     0
 48
50.0
370
    -2
100
AcDbBlockReference
  2
_DOTSMALL
 10
5626.86625886841
 20
9943.631128263845
 30
0.0
 41
100.0
 42
100.0
 43
100.0
  0
MTEXT
  5
2445B
330
1E27A
100
AcDbEntity
  8
寸法
 62
     7
 48
50.0
100
AcDbMText
 10
5318.380977494173
 20
10043.63112826384
 30
0.0
 40
120.0
 41
0.0
 71
     5
 72
     1
  1
\A1;55
  7
STYLE1
 73
     1
 44
1.0
1001
ACAD
1000
MTEXTBEGIN
1070
    73
1070
     1
1070
    44
1040
1.0
1070
    74
1070
     0
1000
MTEXTEND
  0
POINT
  5
2445C
330
1E27A
100
AcDbEntity
  8
DEFPOINTS
 62
     0
 48
50.0
100
AcDbPoint
 10
5626.86625886841
 20
9646.824101455635
 30
0.0
  0
POINT
  5
2445D
330
1E27A
100
AcDbEntity
  8
DEFPOINTS
 62
     0
 48
50.0
100
AcDbPoint
 10
5681.866258868447
 20
9646.824101455635
 30
0.0
  0
POINT
  5
2445E
330
1E27A
100
AcDbEntity
  8
DEFPOINTS
 62
     0
 48
50.0
100
AcDbPoint
 10
5681.866258868447
 20
9943.631128263845
 30
0.0
  0
ENDBLK
  5
1E287
330
1E27A
100
AcDbEntity
  8
0
 48
50.0
100
AcDbBlockEnd
  0
BLOCK
  5
23E2C
330
23E22
100
AcDbEntity
  8
0
 62
     1
 48
50.0
100
AcDbBlockBegin
  2
*D65
 70
     1
 10
0.0
 20
0.0
 30
0.0
  3
*D65
  1

  0
LINE
  5
2444B
330
23E22
100
AcDbEntity
  8
寸法
 62
     0
 48
50.0
370
    -2
100
AcDbLine
 10
7407.866258868438
 20
9611.465117606986
 30
0.0
 11
7803.223984730462
 21
9505.529334240852
 31
0.0
  0
LINE
  5
2444C
330
23E22
100
AcDbEntity
  8
寸法
 62
     0
 48
50.0
370
    -2
100
AcDbLine
 10
7407.866258868438
 20
9161.465117606985
 30
0.0
 11
7803.223984730462
 21
9055.529334240851
 31
0.0
  0
LINE
  5
2444D
330
23E22
100
AcDbEntity
  8
寸法
 62
     0
 48
50.0
370
    -2
100
AcDbLine
 10
7743.223984730462
 20
9521.606285786718
 30
0.0
 11
7743.223984730462
 21
9071.606285786719
 31
0.0
  0
INSERT
  5
2444E
330
23E22
100
AcDbEntity
  8
寸法
 62
     0
 48
50.0
370
    -2
100
AcDbBlockReference
  2
_DOTSMALL
 10
7743.223984730462
 20
9521.606285786718
 30
0.0
 41
100.0
 42
100.0
 43
100.0
 50
90.0
  0
INSERT
  5
2444F
330
23E22
100
AcDbEntity
  8
寸法
 62
     0
 48
50.0
370
    -2
100
AcDbBlockReference
  2
_DOTSMALL
 10
7743.223984730462
 20
9071.606285786719
 30
0.0
 41
100.0
 42
100.0
 43
100.0
 50
270.0
  0
MTEXT
  5
24450
330
23E22
100
AcDbEntity
  8
寸法
 62
     7
 48
50.0
100
AcDbMText
 10
7643.223984730461
 20
9296.606285786721
 30
0.0
 40
120.0
 41
0.0
 71
     5
 72
     1
  1
\A1;450
  7
STYLE1
 11
0.0000000000000001
 21
1.0
 31
0.0
 73
     1
 44
1.0
1001
ACAD
1000
MTEXTBEGIN
1070
    73
1070
     1
1070
    44
1040
1.0
1070
    74
1070
     0
1000
MTEXTEND
  0
POINT
  5
24451
330
23E22
100
AcDbEntity
  8
DEFPOINTS
 62
     0
 48
50.0
100
AcDbPoint
 10
7387.866258868438
 20
9616.824101455609
 30
0.0
  0
POINT
  5
24452
330
23E22
100
AcDbEntity
  8
DEFPOINTS
 62
     0
 48
50.0
100
AcDbPoint
 10
7387.866258868438
 20
9166.824101455608
 30
0.0
  0
POINT
  5
24453
330
23E22
100
AcDbEntity
  8
DEFPOINTS
 62
     0
 48
50.0
100
AcDbPoint
 10
7743.223984730462
 20
9071.606285786719
 30
0.0
  0
ENDBLK
  5
23E2D
330
23E22
100
AcDbEntity
  8
0
 62
     1
 48
50.0
100
AcDbBlockEnd
  0
BLOCK
  5
23E38
330
23E2E
100
AcDbEntity
  8
0
 62
     1
 48
50.0
100
AcDbBlockBegin
  2
*D66
 70
     1
 10
0.0
 20
0.0
 30
0.0
  3
*D66
  1

  0
LINE
  5
24442
330
23E2E
100
AcDbEntity
  8
寸法
 62
     0
 48
50.0
370
    -2
100
AcDbLine
 10
6529.507275019814
 20
9146.824101455617
 30
0.0
 11
6460.09581102859
 21
8887.77699121263
 31
0.0
  0
LINE
  5
24443
330
23E2E
100
AcDbEntity
  8
寸法
 62
     0
 48
50.0
370
    -2
100
AcDbLine
 10
7382.507275019825
 20
9146.824101455612
 30
0.0
 11
7313.095811028604
 21
8887.77699121263
 31
0.0
  0
LINE
  5
24444
330
23E2E
100
AcDbEntity
  8
寸法
 62
     0
 48
50.0
370
    -2
100
AcDbLine
 10
6476.172762574458
 20
8947.776991212633
 30
0.0
 11
7329.172762574471
 21
8947.776991212633
 31
0.0
  0
INSERT
  5
24445
330
23E2E
100
AcDbEntity
  8
寸法
 62
     0
 48
50.0
370
    -2
100
AcDbBlockReference
  2
_DOTSMALL
 10
6476.172762574458
 20
8947.776991212633
 30
0.0
 41
100.0
 42
100.0
 43
100.0
 50
180.0
  0
INSERT
  5
24446
330
23E2E
100
AcDbEntity
  8
寸法
 62
     0
 48
50.0
370
    -2
100
AcDbBlockReference
  2
_DOTSMALL
 10
7329.172762574471
 20
8947.776991212633
 30
0.0
 41
100.0
 42
100.0
 43
100.0
  0
MTEXT
  5
24447
330
23E2E
100
AcDbEntity
  8
寸法
 62
     7
 48
50.0
100
AcDbMText
 10
6914.213320986705
 20
9047.776991212632
 30
0.0
 40
120.0
 41
0.0
 71
     5
 72
     1
  1
\A1;853
  7
STYLE1
 73
     1
 44
1.0
1001
ACAD
1000
MTEXTBEGIN
1070
    73
1070
     1
1070
    44
1040
1.0
1070
    74
1070
     0
1000
MTEXTEND
  0
POINT
  5
24448
330
23E2E
100
AcDbEntity
  8
DEFPOINTS
 62
     0
 48
50.0
100
AcDbPoint
 10
6534.866258868436
 20
9166.824101455617
 30
0.0
  0
POINT
  5
24449
330
23E2E
100
AcDbEntity
  8
DEFPOINTS
 62
     0
 48
50.0
100
AcDbPoint
 10
7387.866258868449
 20
9166.824101455611
 30
0.0
  0
POINT
  5
2444A
330
23E2E
100
AcDbEntity
  8
DEFPOINTS
 62
     0
 48
50.0
100
AcDbPoint
 10
7329.172762574471
 20
8947.776991212633
 30
0.0
  0
ENDBLK
  5
23E39
330
23E2E
100
AcDbEntity
  8
0
 62
     1
 48
50.0
100
AcDbBlockEnd
  0
BLOCK
  5
23E44
330
23E3A
100
AcDbEntity
  8
0
 62
     1
 48
50.0
100
AcDbBlockBegin
  2
*D67
 70
     1
 10
0.0
 20
0.0
 30
0.0
  3
*D67
  1

  0
LINE
  5
24439
330
23E3A
100
AcDbEntity
  8
寸法
 62
     0
 48
50.0
370
    -2
100
AcDbLine
 10
5649.507275019816
 20
9146.824101455512
 30
0.0
 11
5580.095811028591
 21
8887.776991212524
 31
0.0
  0
LINE
  5
2443A
330
23E3A
100
AcDbEntity
  8
寸法
 62
     0
 48
50.0
370
    -2
100
AcDbLine
 10
6502.507275019827
 20
9146.824101455505
 30
0.0
 11
6433.095811028604
 21
8887.776991212524
 31
0.0
  0
LINE
  5
2443B
330
23E3A
100
AcDbEntity
  8
寸法
 62
     0
 48
50.0
370
    -2
100
AcDbLine
 10
5596.172762574461
 20
8947.776991212526
 30
0.0
 11
6449.172762574473
 21
8947.776991212526
 31
0.0
  0
INSERT
  5
2443C
330
23E3A
100
AcDbEntity
  8
寸法
 62
     0
 48
50.0
370
    -2
100
AcDbBlockReference
  2
_DOTSMALL
 10
5596.172762574461
 20
8947.776991212526
 30
0.0
 41
100.0
 42
100.0
 43
100.0
 50
180.0
  0
INSERT
  5
2443D
330
23E3A
100
AcDbEntity
  8
寸法
 62
     0
 48
50.0
370
    -2
100
AcDbBlockReference
  2
_DOTSMALL
 10
6449.172762574473
 20
8947.776991212526
 30
0.0
 41
100.0
 42
100.0
 43
100.0
  0
MTEXT
  5
2443E
330
23E3A
100
AcDbEntity
  8
寸法
 62
     7
 48
50.0
100
AcDbMText
 10
6034.213320986706
 20
9047.776991212526
 30
0.0
 40
120.0
 41
0.0
 71
     5
 72
     1
  1
\A1;853
  7
STYLE1
 73
     1
 44
1.0
1001
ACAD
1000
MTEXTBEGIN
1070
    73
1070
     1
1070
    44
1040
1.0
1070
    74
1070
     0
1000
MTEXTEND
  0
POINT
  5
2443F
330
23E3A
100
AcDbEntity
  8
DEFPOINTS
 62
     0
 48
50.0
100
AcDbPoint
 10
5654.866258868437
 20
9166.824101455508
 30
0.0
  0
POINT
  5
24440
330
23E3A
100
AcDbEntity
  8
DEFPOINTS
 62
     0
 48
50.0
100
AcDbPoint
 10
6507.866258868451
 20
9166.824101455508
 30
0.0
  0
POINT
  5
24441
330
23E3A
100
AcDbEntity
  8
DEFPOINTS
 62
     0
 48
50.0
100
AcDbPoint
 10
6449.172762574473
 20
8947.776991212526
 30
0.0
  0
ENDBLK
  5
23E45
330
23E3A
100
AcDbEntity
  8
0
 62
     1
 48
50.0
100
AcDbBlockEnd
  0
BLOCK
  5
242B3
330
242A9
100
AcDbEntity
  8
0
 62
     1
 48
50.0
100
AcDbBlockBegin
  2
*D68
 70
     1
 10
0.0
 20
0.0
 30
0.0
  3
*D68
  1

  0
LINE
  5
24645
330
242A9
100
AcDbEntity
  8
寸法
 62
     0
 48
50.0
370
    -2
100
AcDbLine
 10
6526.366258868411
 20
8211.724101455578
 30
0.0
 11
6526.366258868411
 21
7706.803208696252
 31
0.0
  0
LINE
  5
24646
330
242A9
100
AcDbEntity
  8
寸法
 62
     0
 48
50.0
370
    -2
100
AcDbLine
 10
5677.366258868411
 20
8211.724101455573
 30
0.0
 11
5677.366258868411
 21
7706.803208696252
 31
0.0
  0
LINE
  5
24647
330
242A9
100
AcDbEntity
  8
寸法
 62
     0
 48
50.0
370
    -2
100
AcDbLine
 10
6526.366258868411
 20
7766.803208696252
 30
0.0
 11
5677.366258868411
 21
7766.803208696252
 31
0.0
  0
INSERT
  5
24648
330
242A9
100
AcDbEntity
  8
寸法
 62
     0
 48
50.0
370
    -2
100
AcDbBlockReference
  2
_DOTSMALL
 10
6526.366258868411
 20
7766.803208696252
 30
0.0
 41
100.0
 42
100.0
 43
100.0
  0
INSERT
  5
24649
330
242A9
100
AcDbEntity
  8
寸法
 62
     0
 48
50.0
370
    -2
100
AcDbBlockReference
  2
_DOTSMALL
 10
5677.366258868411
 20
7766.803208696252
 30
0.0
 41
100.0
 42
100.0
 43
100.0
 50
180.0
  0
MTEXT
  5
2464A
330
242A9
100
AcDbEntity
  8
寸法
 62
     7
 48
50.0
100
AcDbMText
 10
6101.866258868411
 20
7866.803208696253
 30
0.0
 40
120.0
 41
0.0
 71
     5
 72
     1
  1
\A1;849
  7
STYLE1
 73
     1
 44
1.0
1001
ACAD
1000
MTEXTBEGIN
1070
    73
1070
     1
1070
    44
1040
1.0
1070
    74
1070
     0
1000
MTEXTEND
  0
POINT
  5
2464B
330
242A9
100
AcDbEntity
  8
DEFPOINTS
 62
     0
 48
50.0
100
AcDbPoint
 10
6526.366258868411
 20
8231.724101455576
 30
0.0
  0
POINT
  5
2464C
330
242A9
100
AcDbEntity
  8
DEFPOINTS
 62
     0
 48
50.0
100
AcDbPoint
 10
5677.366258868411
 20
8231.724101455574
 30
0.0
  0
POINT
  5
2464D
330
242A9
100
AcDbEntity
  8
DEFPOINTS
 62
     0
 48
50.0
100
AcDbPoint
 10
5677.366258868411
 20
7766.803208696252
 30
0.0
  0
ENDBLK
  5
242B4
330
242A9
100
AcDbEntity
  8
0
 62
     1
 48
50.0
100
AcDbBlockEnd
  0
BLOCK
  5
2438C
330
24382
100
AcDbEntity
  8
0
 62
     1
 48
50.0
100
AcDbBlockBegin
  2
*D69
 70
     1
 10
0.0
 20
0.0
 30
0.0
  3
*D69
  1

  0
LINE
  5
24855
330
24382
100
AcDbEntity
  8
寸法
 62
     0
 48
50.0
370
    -2
100
AcDbLine
 10
9290.693956914479
 20
4891.999999999998
 30
0.0
 11
8773.818892322847
 21
4891.999999999998
 31
0.0
  0
LINE
  5
24856
330
24382
100
AcDbEntity
  8
寸法
 62
     0
 48
50.0
370
    -2
100
AcDbLine
 10
9290.693956914479
 20
3151.999999999999
 30
0.0
 11
8773.818892322847
 21
3152.0
 31
0.0
  0
LINE
  5
24857
330
24382
100
AcDbEntity
  8
寸法
 62
     0
 48
50.0
370
    -2
100
AcDbLine
 10
8833.818892322845
 20
4891.999999999998
 30
0.0
 11
8833.818892322844
 21
3152.0
 31
0.0
  0
INSERT
  5
24858
330
24382
100
AcDbEntity
  8
寸法
 62
     0
 48
50.0
370
    -2
100
AcDbBlockReference
  2
_DOTSMALL
 10
8833.818892322845
 20
4891.999999999998
 30
0.0
 41
100.0
 42
100.0
 43
100.0
 50
90.0
  0
INSERT
  5
24859
330
24382
100
AcDbEntity
  8
寸法
 62
     0
 48
50.0
370
    -2
100
AcDbBlockReference
  2
_DOTSMALL
 10
8833.818892322844
 20
3152.0
 30
0.0
 41
100.0
 42
100.0
 43
100.0
 50
270.0
  0
MTEXT
  5
2485A
330
24382
100
AcDbEntity
  8
寸法
 62
     7
 48
50.0
100
AcDbMText
 10
8733.818892322844
 20
4022.000000000001
 30
0.0
 40
120.0
 41
0.0
 71
     5
 72
     1
  1
\A1;有効開口部高サ1740
  7
STYLE1
 11
0.0000000000000001
 21
1.0
 31
0.0
 73
     1
 44
1.0
1001
ACAD
1000
MTEXTBEGIN
1070
    73
1070
     1
1070
    44
1040
1.0
1070
    74
1070
     0
1000
MTEXTEND
  0
POINT
  5
2485B
330
24382
100
AcDbEntity
  8
DEFPOINTS
 62
     0
 48
50.0
100
AcDbPoint
 10
9310.69395691448
 20
4891.999999999998
 30
0.0
  0
POINT
  5
2485C
330
24382
100
AcDbEntity
  8
DEFPOINTS
 62
     0
 48
50.0
100
AcDbPoint
 10
9310.69395691448
 20
3151.999999999999
 30
0.0
  0
POINT
  5
2485D
330
24382
100
AcDbEntity
  8
DEFPOINTS
 62
     0
 48
50.0
100
AcDbPoint
 10
8833.818892322844
 20
3152.0
 30
0.0
  0
ENDBLK
  5
2438D
330
24382
100
AcDbEntity
  8
0
 62
     1
 48
50.0
100
AcDbBlockEnd
  0
BLOCK
  5
24540
330
24536
100
AcDbEntity
  8
0
 62
     1
 48
50.0
100
AcDbBlockBegin
  2
*D71
 70
     1
 10
0.0
 20
0.0
 30
0.0
  3
*D71
  1

  0
LINE
  5
24542
330
24536
100
AcDbEntity
  8
寸法
 62
     0
 48
50.0
370
    -2
100
AcDbLine
 10
7519.89657510699
 20
2779.999999999998
 30
0.0
 11
7519.89657510699
 21
2453.952670699622
 31
0.0
  0
LINE
  5
24543
330
24536
100
AcDbEntity
  8
寸法
 62
     0
 48
50.0
370
    -2
100
AcDbLine
 10
7319.896575106993
 20
2779.999999999999
 30
0.0
 11
7319.896575106993
 21
2453.952670699622
 31
0.0
  0
LINE
  5
24544
330
24536
100
AcDbEntity
  8
寸法
 62
     0
 48
50.0
370
    -2
100
AcDbLine
 10
7519.89657510699
 20
2513.952670699622
 30
0.0
 11
7319.896575106993
 21
2513.952670699622
 31
0.0
  0
INSERT
  5
24545
330
24536
100
AcDbEntity
  8
寸法
 62
     0
 48
50.0
370
    -2
100
AcDbBlockReference
  2
_DOTSMALL
 10
7519.89657510699
 20
2513.952670699622
 30
0.0
 41
100.0
 42
100.0
 43
100.0
  0
INSERT
  5
24546
330
24536
100
AcDbEntity
  8
寸法
 62
     0
 48
50.0
370
    -2
100
AcDbBlockReference
  2
_DOTSMALL
 10
7319.896575106993
 20
2513.952670699622
 30
0.0
 41
100.0
 42
100.0
 43
100.0
 50
180.0
  0
MTEXT
  5
24547
330
24536
100
AcDbEntity
  8
寸法
 62
     7
 48
50.0
100
AcDbMText
 10
7419.896575106992
 20
2613.964481723245
 30
0.0
 40
120.0
 41
0.0
 71
     5
 72
     1
  1
\A1;200
  7
STYLE1
 73
     1
 44
1.0
1001
ACAD
1000
MTEXTBEGIN
1070
    73
1070
     1
1070
    44
1040
1.0
1070
    74
1070
     0
1000
MTEXTEND
  0
POINT
  5
24548
330
24536
100
AcDbEntity
  8
DEFPOINTS
 62
     0
 48
50.0
100
AcDbPoint
 10
7519.89657510699
 20
2799.999999999998
 30
0.0
  0
POINT
  5
24549
330
24536
100
AcDbEntity
  8
DEFPOINTS
 62
     0
 48
50.0
100
AcDbPoint
 10
7319.896575106993
 20
2799.999999999999
 30
0.0
  0
POINT
  5
2454A
330
24536
100
AcDbEntity
  8
DEFPOINTS
 62
     0
 48
50.0
100
AcDbPoint
 10
7319.896575106993
 20
2513.952670699622
 30
0.0
  0
ENDBLK
  5
24541
330
24536
100
AcDbEntity
  8
0
 62
     1
 48
50.0
100
AcDbBlockEnd
  0
BLOCK
  5
245BD
330
245B3
100
AcDbEntity
  8
0
 62
     1
 48
50.0
100
AcDbBlockBegin
  2
*D72
 70
     1
 10
0.0
 20
0.0
 30
0.0
  3
*D72
  1

  0
LINE
  5
245CB
330
245B3
100
AcDbEntity
  8
寸法
 62
     0
 48
50.0
370
    -2
100
AcDbLine
 10
10578.19395691449
 20
2799.999999999986
 30
0.0
 11
10388.69395366785
 21
2799.999999999986
 31
0.0
  0
LINE
  5
245CC
330
245B3
100
AcDbEntity
  8
寸法
 62
     0
 48
50.0
370
    -2
100
AcDbLine
 10
10553.19395691448
 20
2999.999999999987
 30
0.0
 11
10388.69395366785
 21
2999.999999999987
 31
0.0
  0
LINE
  5
245CD
330
245B3
100
AcDbEntity
  8
寸法
 62
     0
 48
50.0
370
    -2
100
AcDbLine
 10
10448.69395366785
 20
2799.999999999986
 30
0.0
 11
10448.69395366785
 21
2999.999999999987
 31
0.0
  0
INSERT
  5
245CE
330
245B3
100
AcDbEntity
  8
寸法
 62
     0
 48
50.0
370
    -2
100
AcDbBlockReference
  2
_DOTSMALL
 10
10448.69395366785
 20
2799.999999999986
 30
0.0
 41
100.0
 42
100.0
 43
100.0
 50
270.0
  0
INSERT
  5
245CF
330
245B3
100
AcDbEntity
  8
寸法
 62
     0
 48
50.0
370
    -2
100
AcDbBlockReference
  2
_DOTSMALL
 10
10448.69395366785
 20
2999.999999999987
 30
0.0
 41
100.0
 42
100.0
 43
100.0
 50
90.0
  0
MTEXT
  5
245D0
330
245B3
100
AcDbEntity
  8
寸法
 62
     7
 48
50.0
100
AcDbMText
 10
10348.68214264422
 20
2899.999999999989
 30
0.0
 40
120.0
 41
0.0
 71
     5
 72
     1
  1
\A1;200
  7
STYLE1
 11
0.0000000000000001
 21
1.0
 31
0.0
 73
     1
 44
1.0
1001
ACAD
1000
MTEXTBEGIN
1070
    73
1070
     1
1070
    44
1040
1.0
1070
    74
1070
     0
1000
MTEXTEND
  0
POINT
  5
245D1
330
245B3
100
AcDbEntity
  8
DEFPOINTS
 62
     0
 48
50.0
100
AcDbPoint
 10
10598.19395691449
 20
2799.999999999986
 30
0.0
  0
POINT
  5
245D2
330
245B3
100
AcDbEntity
  8
DEFPOINTS
 62
     0
 48
50.0
100
AcDbPoint
 10
10573.19395691448
 20
2999.999999999987
 30
0.0
  0
POINT
  5
245D3
330
245B3
100
AcDbEntity
  8
DEFPOINTS
 62
     0
 48
50.0
100
AcDbPoint
 10
10448.69395366785
 20
2999.999999999987
 30
0.0
  0
ENDBLK
  5
245BE
330
245B3
100
AcDbEntity
  8
0
 62
     1
 48
50.0
100
AcDbBlockEnd
  0
BLOCK
  5
245C9
330
245BF
100
AcDbEntity
  8
0
 62
     1
 48
50.0
100
AcDbBlockBegin
  2
*D73
 70
     1
 10
0.0
 20
0.0
 30
0.0
  3
*D73
  1

  0
LINE
  5
245D4
330
245BF
100
AcDbEntity
  8
寸法
 62
     0
 48
50.0
370
    -2
100
AcDbLine
 10
10798.19395691448
 20
2779.999999999986
 30
0.0
 11
10798.19395691448
 21
2453.952670699611
 31
0.0
  0
LINE
  5
245D5
330
245BF
100
AcDbEntity
  8
寸法
 62
     0
 48
50.0
370
    -2
100
AcDbLine
 10
10598.19395691449
 20
2779.999999999987
 30
0.0
 11
10598.19395691449
 21
2453.952670699611
 31
0.0
  0
LINE
  5
245D6
330
245BF
100
AcDbEntity
  8
寸法
 62
     0
 48
50.0
370
    -2
100
AcDbLine
 10
10798.19395691448
 20
2513.952670699609
 30
0.0
 11
10598.19395691449
 21
2513.952670699609
 31
0.0
  0
INSERT
  5
245D7
330
245BF
100
AcDbEntity
  8
寸法
 62
     0
 48
50.0
370
    -2
100
AcDbBlockReference
  2
_DOTSMALL
 10
10798.19395691448
 20
2513.952670699609
 30
0.0
 41
100.0
 42
100.0
 43
100.0
  0
INSERT
  5
245D8
330
245BF
100
AcDbEntity
  8
寸法
 62
     0
 48
50.0
370
    -2
100
AcDbBlockReference
  2
_DOTSMALL
 10
10598.19395691449
 20
2513.952670699609
 30
0.0
 41
100.0
 42
100.0
 43
100.0
 50
180.0
  0
MTEXT
  5
245D9
330
245BF
100
AcDbEntity
  8
寸法
 62
     7
 48
50.0
100
AcDbMText
 10
10698.19395691448
 20
2613.964481723232
 30
0.0
 40
120.0
 41
0.0
 71
     5
 72
     1
  1
\A1;200
  7
STYLE1
 73
     1
 44
1.0
1001
ACAD
1000
MTEXTBEGIN
1070
    73
1070
     1
1070
    44
1040
1.0
1070
    74
1070
     0
1000
MTEXTEND
  0
POINT
  5
245DA
330
245BF
100
AcDbEntity
  8
DEFPOINTS
 62
     0
 48
50.0
100
AcDbPoint
 10
10798.19395691448
 20
2799.999999999986
 30
0.0
  0
POINT
  5
245DB
330
245BF
100
AcDbEntity
  8
DEFPOINTS
 62
     0
 48
50.0
100
AcDbPoint
 10
10598.19395691449
 20
2799.999999999986
 30
0.0
  0
POINT
  5
245DC
330
245BF
100
AcDbEntity
  8
DEFPOINTS
 62
     0
 48
50.0
100
AcDbPoint
 10
10598.19395691449
 20
2513.952670699609
 30
0.0
  0
ENDBLK
  5
245CA
330
245BF
100
AcDbEntity
  8
0
 62
     1
 48
50.0
100
AcDbBlockEnd
  0
BLOCK
  5
247AA
330
247A0
100
AcDbEntity
  8
0
 62
     1
 48
50.0
100
AcDbBlockBegin
  2
*D77
 70
     1
 10
0.0
 20
0.0
 30
0.0
  3
*D77
  1

  0
LINE
  5
247AC
330
247A0
100
AcDbEntity
  8
寸法
 62
     0
 48
50.0
370
    -2
100
AcDbLine
 10
10745.69395691447
 20
3150.0
 30
0.0
 11
11227.6396929294
 21
3150.0
 31
0.0
  0
LINE
  5
247AD
330
247A0
100
AcDbEntity
  8
寸法
 62
     0
 48
50.0
370
    -2
100
AcDbLine
 10
10745.69395691447
 20
4935.0
 30
0.0
 11
11227.6396929294
 21
4935.0
 31
0.0
  0
LINE
  5
247AE
330
247A0
100
AcDbEntity
  8
寸法
 62
     0
 48
50.0
370
    -2
100
AcDbLine
 10
11167.6396929294
 20
3150.0
 30
0.0
 11
11167.6396929294
 21
4935.0
 31
0.0
  0
INSERT
  5
247AF
330
247A0
100
AcDbEntity
  8
寸法
 62
     0
 48
50.0
370
    -2
100
AcDbBlockReference
  2
_DOTSMALL
 10
11167.6396929294
 20
3150.0
 30
0.0
 41
100.0
 42
100.0
 43
100.0
 50
270.0
  0
INSERT
  5
247B0
330
247A0
100
AcDbEntity
  8
寸法
 62
     0
 48
50.0
370
    -2
100
AcDbBlockReference
  2
_DOTSMALL
 10
11167.6396929294
 20
4935.0
 30
0.0
 41
100.0
 42
100.0
 43
100.0
 50
90.0
  0
MTEXT
  5
247B1
330
247A0
100
AcDbEntity
  8
寸法
 62
     7
 48
50.0
100
AcDbMText
 10
11067.6396929294
 20
4042.500000000003
 30
0.0
 40
120.0
 41
0.0
 71
     5
 72
     1
  1
\A1;内高　1785
  7
STYLE1
 11
0.0000000000000001
 21
1.0
 31
0.0
 73
     1
 44
1.0
1001
ACAD
1000
MTEXTBEGIN
1070
    73
1070
     1
1070
    44
1040
1.0
1070
    74
1070
     0
1000
MTEXTEND
  0
POINT
  5
247B2
330
247A0
100
AcDbEntity
  8
DEFPOINTS
 62
     0
 48
50.0
100
AcDbPoint
 10
10725.69395691447
 20
3150.0
 30
0.0
  0
POINT
  5
247B3
330
247A0
100
AcDbEntity
  8
DEFPOINTS
 62
     0
 48
50.0
100
AcDbPoint
 10
10725.69395691447
 20
4935.0
 30
0.0
  0
POINT
  5
247B4
330
247A0
100
AcDbEntity
  8
DEFPOINTS
 62
     0
 48
50.0
100
AcDbPoint
 10
11167.6396929294
 20
4935.0
 30
0.0
  0
ENDBLK
  5
247AB
330
247A0
100
AcDbEntity
  8
0
 62
     1
 48
50.0
100
AcDbBlockEnd
  0
BLOCK
  5
247C2
330
247B6
100
AcDbEntity
  8
0
 62
     1
 48
50.0
100
AcDbBlockBegin
  2
*D78
 70
     1
 10
0.0
 20
0.0
 30
0.0
  3
*D78
  1

  0
LINE
  5
247E5
330
247B6
100
AcDbEntity
  8
寸法
 62
     0
 48
50.0
370
    -2
100
AcDbLine
 10
5606.866258868414
 20
8276.824101455563
 30
0.0
 11
5249.036627442075
 21
8276.824101455563
 31
0.0
  0
LINE
  5
247E6
330
247B6
100
AcDbEntity
  8
寸法
 62
     0
 48
50.0
370
    -2
100
AcDbLine
 10
5657.36625886841
 20
8231.824101455574
 30
0.0
 11
5249.036627442075
 21
8231.824101455574
 31
0.0
  0
LINE
  5
247E7
330
247B6
100
AcDbEntity
  8
寸法
 62
     0
 48
50.0
370
    -2
100
AcDbLine
 10
5309.036627442075
 20
8276.824101455563
 30
0.0
 11
5309.036627442075
 21
8376.824101455563
 31
0.0
  0
LINE
  5
247E8
330
247B6
100
AcDbEntity
  8
寸法
 62
     0
 48
50.0
370
    -2
100
AcDbLine
 10
5309.036627442075
 20
8231.824101455574
 30
0.0
 11
5309.036627442075
 21
7802.853538707097
 31
0.0
  0
LINE
  5
247E9
330
247B6
100
AcDbEntity
  8
寸法
 62
     0
 48
50.0
370
    -2
100
AcDbLine
 10
5309.036627442075
 20
8276.824101455563
 30
0.0
 11
5309.036627442075
 21
8231.824101455574
 31
0.0
  0
INSERT
  5
247EA
330
247B6
100
AcDbEntity
  8
寸法
 62
     0
 48
50.0
370
    -2
100
AcDbBlockReference
  2
_DOTSMALL
 10
5309.036627442075
 20
8276.824101455563
 30
0.0
 41
100.0
 42
100.0
 43
100.0
 50
270.0
  0
INSERT
  5
247EB
330
247B6
100
AcDbEntity
  8
寸法
 62
     0
 48
50.0
370
    -2
100
AcDbBlockReference
  2
_DOTSMALL
 10
5309.036627442075
 20
8231.824101455574
 30
0.0
 41
100.0
 42
100.0
 43
100.0
 50
90.0
  0
MTEXT
  5
247EC
330
247B6
100
AcDbEntity
  8
寸法
 62
     7
 48
50.0
100
AcDbMText
 10
5209.036627442074
 20
7917.338820081337
 30
0.0
 40
120.0
 41
0.0
 71
     5
 72
     1
  1
\A1;45
  7
STYLE1
 11
0.0000000000000001
 21
1.0
 31
0.0
 73
     1
 44
1.0
1001
ACAD
1000
MTEXTBEGIN
1070
    73
1070
     1
1070
    44
1040
1.0
1070
    74
1070
     0
1000
MTEXTEND
  0
POINT
  5
247ED
330
247B6
100
AcDbEntity
  8
DEFPOINTS
 62
     0
 48
50.0
100
AcDbPoint
 10
5626.866258868416
 20
8276.824101455563
 30
0.0
  0
POINT
  5
247EE
330
247B6
100
AcDbEntity
  8
DEFPOINTS
 62
     0
 48
50.0
100
AcDbPoint
 10
5677.366258868411
 20
8231.824101455574
 30
0.0
  0
POINT
  5
247EF
330
247B6
100
AcDbEntity
  8
DEFPOINTS
 62
     0
 48
50.0
100
AcDbPoint
 10
5309.036627442075
 20
8231.824101455574
 30
0.0
  0
ENDBLK
  5
247C3
330
247B6
100
AcDbEntity
  8
0
 62
     1
 48
50.0
100
AcDbBlockEnd
  0
ENDSEC
  0
SECTION
  2
ENTITIES
  0
LINE
  5
10B57
330
747D
100
AcDbEntity
  8
補助
  6
PHANTOM
 62
   230
 48
50.0
100
AcDbLine
 10
139.9999999999995
 20
11409.6
 30
0.0
 11
16307.2
 21
11409.6
 31
0.0
  0
LINE
  5
10B59
330
747D
100
AcDbEntity
  8
仕様書枠
  6
Continuous
 48
50.0
100
AcDbLine
 10
13107.2
 20
1200.0
 30
0.0
 11
13107.2
 21
-0.0000000000000729
 31
0.0
  0
LINE
  5
10B5C
330
747D
100
AcDbEntity
  8
仕様書枠
 48
50.0
100
AcDbLine
 10
16307.2
 20
1200.0
 30
0.0
 11
16307.2
 21
-0.0000000000000909
 31
0.0
  0
LINE
  5
10B5D
330
747D
100
AcDbEntity
  8
仕様書枠
 48
50.0
100
AcDbLine
 10
140.0
 20
0.0
 30
0.0
 11
16307.2
 21
-0.0000000000000909
 31
0.0
  0
LINE
  5
10B5E
330
747D
100
AcDbEntity
  8
補助
  6
PHANTOM
 62
   230
 48
50.0
100
AcDbLine
 10
16307.2
 20
11409.6
 30
0.0
 11
16307.2
 21
1200.0
 31
0.0
  0
LINE
  5
10B6C
330
747D
100
AcDbEntity
  8
仕様書枠
 48
50.0
100
AcDbLine
 10
13107.2
 20
1200.0
 30
0.0
 11
16307.2
 21
1200.0
 31
0.0
  0
LINE
  5
10B6D
330
747D
100
AcDbEntity
  8
補助
  6
PHANTOM
 62
   230
 48
50.0
100
AcDbLine
 10
13107.2
 20
11409.6
 30
0.0
 11
13107.2
 21
4800.0
 31
0.0
  0
LINE
  5
10B6F
330
747D
100
AcDbEntity
  8
補助
  6
PHANTOM
 62
   230
 48
50.0
100
AcDbLine
 10
13107.2
 20
4800.0
 30
0.0
 11
16307.2
 21
4800.0
 31
0.0
  0
LINE
  5
10B72
330
747D
100
AcDbEntity
  8
文字
 62
     7
 48
50.0
100
AcDbLine
 10
13187.2
 20
400.0
 30
0.0
 11
16227.2
 21
400.0
 31
0.0
  0
TEXT
  5
10B73
330
747D
100
AcDbEntity
  8
文字
 62
     7
 48
50.0
100
AcDbText
 10
13162.9790565769
 20
895.0906074299405
 30
0.0
 40
200.0
  1
外 形 図
  7
STYLE2
100
AcDbText
  0
TEXT
  5
10B74
330
747D
100
AcDbEntity
  8
文字
 62
     7
 48
50.0
100
AcDbText
 10
13201.43669998441
 20
477.2740661031255
 30
0.0
 40
160.0
  1
機種名
  7
STYLE2
100
AcDbText
  0
TEXT
  5
10B79
330
747D
100
AcDbEntity
  8
文字
 62
     7
 48
50.0
100
AcDbText
 10
14524.131837222
 20
1031.557706291228
 30
0.0
 40
100.0
  1
NO.19      <縮尺> S=1/40
  7
STYLE2
100
AcDbText
  0
LINE
  5
10B7B
330
747D
100
AcDbEntity
  8
仕様書枠
 48
50.0
100
AcDbLine
 10
13107.2
 20
800.0
 30
0.0
 11
14251.2
 21
800.0
 31
0.0
  0
LINE
  5
10B88
330
747D
100
AcDbEntity
  8
仕様書枠
  6
Continuous
 48
50.0
100
AcDbLine
 10
14251.2
 20
1200.0
 30
0.0
 11
14251.2
 21
800.0
 31
0.0
  0
LINE
  5
12765
330
747D
100
AcDbEntity
  8
Ｇ．Ｌ
100
AcDbLine
 10
4730.637458593498
 20
3000.0
 30
0.0
 11
11379.44238282794
 21
3000.0
 31
0.0
  0
LINE
  5
12766
330
747D
100
AcDbEntity
  8
部品1
100
AcDbLine
 10
9355.693956914477
 20
4940.0
 30
0.0
 11
10725.69395691448
 21
4940.0
 31
0.0
  0
LINE
  5
12767
330
747D
100
AcDbEntity
  8
部品1
100
AcDbLine
 10
9355.693956914477
 20
3150.0
 30
0.0
 11
10725.69395691448
 21
3150.0
 31
0.0
  0
LINE
  5
12773
330
747D
100
AcDbEntity
  8
部品1
100
AcDbLine
 10
9410.693956914474
 20
4940.0
 30
0.0
 11
9410.693956914474
 21
3150.0
 31
0.0
  0
LINE
  5
12777
330
747D
100
AcDbEntity
  8
部品1
100
AcDbLine
 10
9355.69395691448
 20
5031.576893940441
 30
0.0
 11
9355.693956914477
 21
3100.000000000001
 31
0.0
  0
DIMENSION
  5
12779
330
747D
100
AcDbEntity
  8
寸法
100
AcDbDimension
  2
*D3
 10
8511.943827731213
 20
3150.0
 30
0.0
 11
8411.943827731214
 21
4045.000000000001
 31
0.0
 70
    32
 71
     5
 42
1789.999999999999
  3
INABA_S40G
100
AcDbAlignedDimension
 13
9355.693956914477
 23
4940.0
 33
0.0
 14
9355.693956914477
 24
3150.0
 34
0.0
 50
90.0
100
AcDbRotatedDimension
1001
ACAD
1000
DSTYLE
1002
{
1070
   174
1070
     0
1070
   272
1070
     1
1070
   288
1070
     0
1070
   341
1005
0
1002
}
  0
DIMENSION
  5
1277A
330
747D
100
AcDbEntity
  8
寸法
100
AcDbDimension
  2
*D2
 10
8211.943827731214
 20
5175.000000000005
 30
0.0
 11
8111.932016707591
 21
4137.500000000002
 31
0.0
 70
    32
 71
     5
 42
2075.000000000004
  3
INABA_S40G
100
AcDbAlignedDimension
 13
9355.693956914482
 23
3100.0
 33
0.0
 14
9295.693956914476
 24
5175.000000000005
 34
0.0
 50
90.0
100
AcDbRotatedDimension
1001
ACAD
1000
DSTYLE
1002
{
1070
   174
1070
     0
1070
   272
1070
     1
1070
   288
1070
     0
1070
   341
1005
0
1002
}
  0
DIMENSION
  5
1277C
330
747D
100
AcDbEntity
  8
寸法
100
AcDbDimension
  2
*D1
 10
8511.943827731213
 20
3100.0
 30
0.0
 11
8511.943827731213
 21
2793.952755905514
 31
0.0
 70
   160
 71
     5
 42
50.0
  3
INABA_S40G
100
AcDbAlignedDimension
 13
9355.693956914477
 23
3150.0
 33
0.0
 14
9355.693956914482
 24
3100.0
 34
0.0
 50
90.0
100
AcDbRotatedDimension
1001
ACAD
1000
DSTYLE
1002
{
1070
   174
1070
     0
1070
   272
1070
     1
1070
   288
1070
     0
1070
   341
1005
0
1002
}
  0
LINE
  5
12787
330
747D
100
AcDbEntity
  8
部品1
100
AcDbLine
 10
9830.693956914474
 20
4940.0
 30
0.0
 11
9830.693956914474
 21
3150.0
 31
0.0
  0
LINE
  5
1279B
330
747D
100
AcDbEntity
  8
部品1
100
AcDbLine
 10
10725.69395691447
 20
4994.636580835253
 30
0.0
 11
10725.69395691448
 21
3000.0
 31
0.0
  0
LINE
  5
1279C
330
747D
100
AcDbEntity
  8
部品1
100
AcDbLine
 10
10670.69395691448
 20
4940.0
 30
0.0
 11
10670.69395691448
 21
3150.0
 31
0.0
  0
DIMENSION
  5
127A4
330
747D
100
AcDbEntity
  8
寸法
100
AcDbDimension
  2
*D4
 10
11430.6211148866
 20
5120.0
 30
0.0
 11
11330.60930386298
 21
4110.000000000002
 31
0.0
 70
    32
 71
     5
 42
2020.000000000001
  3
INABA_S40G
100
AcDbAlignedDimension
 13
10725.69395691448
 23
3100.0
 33
0.0
 14
10805.69395691447
 24
5120.0
 34
0.0
 50
90.0
100
AcDbRotatedDimension
1001
ACAD
1000
DSTYLE
1002
{
1070
   174
1070
     0
1070
   272
1070
     1
1070
   288
1070
     0
1070
   341
1005
0
1002
}
  0
TEXT
  5
127AA
330
747D
100
AcDbEntity
  8
部品1
100
AcDbText
 10
4788.552733323573
 20
3013.953728039225
 30
0.0
 40
125.0
  1
▽G.L
  7
STYLE2
100
AcDbText
  0
DIMENSION
  5
13B51
330
747D
100
AcDbEntity
  8
寸法
 48
50.0
100
AcDbDimension
  2
*D5
 10
9355.693956914477
 20
5573.657453579304
 30
0.0
 11
10005.51298980502
 21
5573.657453579304
 31
0.0
 70
   160
  1
柱外寸法<>
 71
     5
 42
1370.0
  3
INABA_S40G
100
AcDbAlignedDimension
 13
10725.69395691447
 23
5121.810679611654
 33
0.0
 14
9355.693956914477
 24
5171.001618122978
 34
0.0
100
AcDbRotatedDimension
1001
ACAD
1000
DSTYLE
1002
{
1070
   174
1070
     0
1070
   272
1070
     1
1070
   288
1070
     0
1070
   341
1005
0
1002
}
  0
DIMENSION
  5
13B6D
330
747D
100
AcDbEntity
  8
寸法
 48
50.0
100
AcDbDimension
  2
*D6
 10
9295.693956914476
 20
5573.657453579304
 30
0.0
 11
8986.056161638886
 21
5573.657453579304
 31
0.0
 70
   160
 71
     5
 42
60.0
  3
INABA_S40G
100
AcDbAlignedDimension
 13
9355.693956914477
 23
5171.001618122978
 33
0.0
 14
9295.693956914476
 24
5175.000000000005
 34
0.0
100
AcDbRotatedDimension
1001
ACAD
1000
DSTYLE
1002
{
1070
   174
1070
     0
1070
   272
1070
     1
1070
   288
1070
     0
1070
   341
1005
0
1002
}
  0
DIMENSION
  5
13BBF
330
747D
100
AcDbEntity
  8
寸法
 48
50.0
100
AcDbDimension
  2
*D7
 10
9295.693956914476
 20
5781.831774771268
 30
0.0
 11
10022.8187866163
 21
5781.831774771268
 31
0.0
 70
   160
 71
     5
 42
1510.0
  3
INABA_S40G
100
AcDbAlignedDimension
 13
10805.69395691447
 23
5120.0
 33
0.0
 14
9295.693956914476
 24
5175.000000000005
 34
0.0
100
AcDbRotatedDimension
1001
ACAD
1000
DSTYLE
1002
{
1070
   174
1070
     0
1070
   272
1070
     1
1070
   288
1070
     0
1070
   341
1005
0
1002
}
  0
LINE
  5
13BE8
330
747D
100
AcDbEntity
  8
部品1
100
AcDbLine
 10
5629.896575106992
 20
3100.0
 30
0.0
 11
7419.896575106992
 21
3100.0
 31
0.0
  0
LINE
  5
13BE9
330
747D
100
AcDbEntity
  8
部品1
100
AcDbLine
 10
5629.896575106992
 20
4940.0
 30
0.0
 11
7419.896575106992
 21
4940.0
 31
0.0
  0
DIMENSION
  5
13BF0
330
747D
100
AcDbEntity
  8
寸法
 48
50.0
100
AcDbDimension
  2
*D8
 10
7469.896575106992
 20
5589.214133848725
 30
0.0
 11
6524.896575106989
 21
5589.214133848725
 31
0.0
 70
   160
 71
     5
 42
1889.999999999999
  3
INABA_S40G
100
AcDbAlignedDimension
 13
5579.896575106992
 23
5175.000000000006
 33
0.0
 14
7469.896575106992
 24
5175.000000000003
 34
0.0
100
AcDbRotatedDimension
  0
LINE
  5
13C1F
330
747D
100
AcDbEntity
  8
部品1
100
AcDbLine
 10
5629.896575106993
 20
5034.000000000005
 30
0.0
 11
5629.896575106992
 21
3000.0
 31
0.0
  0
LINE
  5
13D18
330
747D
100
AcDbEntity
  8
部品1
100
AcDbLine
 10
7419.896575106992
 20
5034.000000000005
 30
0.0
 11
7419.896575106992
 21
3000.0
 31
0.0
  0
DIMENSION
  5
141C3
330
747D
100
AcDbEntity
  8
寸法
 48
50.0
100
AcDbDimension
  2
*D9
 10
7419.896575106993
 20
5379.620259427273
 30
0.0
 11
7783.381856481231
 21
5379.620259427273
 31
0.0
 70
   160
 71
     5
 42
49.99999999999909
  3
INABA_S40G
100
AcDbAlignedDimension
 13
7469.896575106992
 23
5175.000000000003
 33
0.0
 14
7419.896575106993
 24
5175.000000000006
 34
0.0
100
AcDbRotatedDimension
  0
DIMENSION
  5
14206
330
747D
100
AcDbEntity
  8
寸法
 48
50.0
100
AcDbDimension
  2
*D10
 10
5579.896575106992
 20
5379.620259427273
 30
0.0
 11
5266.411293732748
 21
5379.620259427273
 31
0.0
 70
   160
 71
     5
 42
49.99999999999909
  3
INABA_S40G
100
AcDbAlignedDimension
 13
5629.896575106992
 23
5175.000000000006
 33
0.0
 14
5579.896575106992
 24
5175.000000000006
 34
0.0
100
AcDbRotatedDimension
1001
ACAD
1000
DSTYLE
1002
{
1002
}
  0
LWPOLYLINE
  5
14534
330
747D
100
AcDbEntity
  8
部品1
100
AcDbPolyline
 90
        4
 70
     1
 43
0.0
 10
6143.161241992779
 20
7083.121502029277
 10
6143.161241992779
 20
6843.229180483745
 10
6906.631908221219
 20
6843.229180483745
 10
6906.631908221219
 20
7083.121502029277
  0
TEXT
  5
14535
330
747D
100
AcDbEntity
  8
部品1
100
AcDbText
 10
6233.080851821816
 20
6890.227972810754
 30
0.0
 40
135.0
  1
平面図
  7
STYLE2
100
AcDbText
  0
DIMENSION
  5
146E8
330
747D
100
AcDbEntity
  8
寸法
 48
50.0
100
AcDbDimension
  2
*D11
 10
5629.896575106992
 20
5379.620259427273
 30
0.0
 11
6499.077414038605
 21
5379.620259427273
 31
0.0
 70
   160
  1
柱外寸法<>
 71
     5
 42
1790.000000000001
  3
INABA_S40G
100
AcDbAlignedDimension
 13
7419.896575106993
 23
5175.000000000006
 33
0.0
 14
5629.896575106992
 24
5175.000000000006
 34
0.0
100
AcDbRotatedDimension
  0
TEXT
  5
149A1
330
747D
100
AcDbEntity
  8
部品1
100
AcDbText
 10
6233.686645730735
 20
2014.21966086888
 30
0.0
 40
135.0
  1
正面図
  7
STYLE2
100
AcDbText
  0
LWPOLYLINE
  5
149A2
330
747D
100
AcDbEntity
  8
部品1
100
AcDbPolyline
 90
        4
 70
     1
 43
0.0
 10
6143.161241992779
 20
2207.113190087403
 10
6143.161241992779
 20
1967.220868541871
 10
6906.631908221219
 20
1967.220868541871
 10
6906.631908221219
 20
2207.113190087403
  0
TEXT
  5
149A3
330
747D
100
AcDbEntity
  8
部品1
100
AcDbText
 10
9758.404725223863
 20
2014.21966086888
 30
0.0
 40
135.0
  1
側面図
  7
STYLE2
100
AcDbText
  0
LWPOLYLINE
  5
149A4
330
747D
100
AcDbEntity
  8
部品1
100
AcDbPolyline
 90
        4
 70
     1
 43
0.0
 10
9668.958623800257
 20
2207.113190087403
 10
9668.958623800257
 20
1967.22086854187
 10
10432.42929002869
 20
1967.22086854187
 10
10432.42929002869
 20
2207.113190087403
  0
LINE
  5
149E3
330
747D
100
AcDbEntity
  8
部品1
100
AcDbLine
 10
5629.896575106992
 20
3150.000000000004
 30
0.0
 11
5680.396575106992
 21
3150.000000000005
 31
0.0
  0
TEXT
  5
14DEF
330
747D
100
AcDbEntity
  8
文字
 62
     7
 48
50.0
100
AcDbText
 10
14641.2525855784
 20
871.1744590657925
 30
0.0
 40
100.0
  1
～一般型・多雪地型～
  7
STYLE2
100
AcDbText
  0
LINE
  5
15A10
330
747D
100
AcDbEntity
  8
仕様書枠
 48
50.0
100
AcDbLine
 10
16307.19999999999
 20
8689.6
 30
0.0
 11
16307.2
 21
11409.6
 31
0.0
  0
TEXT
  5
15A76
330
747D
100
AcDbEntity
  8
文字
 62
     7
 48
50.0
100
AcDbText
 10
14491.96323844892
 20
483.896712991141
 30
0.0
 40
160.0
  1
NXP-25SD
  7
STYLE2
100
AcDbText
  0
LINE
  5
15A9A
330
747D
100
AcDbEntity
  8
細線
 48
50.0
100
AcDbLine
 10
9908.193956914477
 20
4940.0
 30
0.0
 11
9908.193956914477
 21
3150.0
 31
0.0
  0
LINE
  5
15A9B
330
747D
100
AcDbEntity
  8
細線
 48
50.0
100
AcDbLine
 10
9893.193956914474
 20
4940.0
 30
0.0
 11
9893.193956914474
 21
3150.0
 31
0.0
  0
LINE
  5
15A9C
330
747D
100
AcDbEntity
  8
細線
 48
50.0
100
AcDbLine
 10
10033.19395691447
 20
4940.0
 30
0.0
 11
10033.19395691447
 21
3150.0
 31
0.0
  0
LINE
  5
15A9D
330
747D
100
AcDbEntity
  8
細線
 48
50.0
100
AcDbLine
 10
10048.19395691447
 20
4940.0
 30
0.0
 11
10048.19395691447
 21
3150.0
 31
0.0
  0
LINE
  5
15A9E
330
747D
100
AcDbEntity
  8
細線
 48
50.0
100
AcDbLine
 10
10188.19395691447
 20
4940.0
 30
0.0
 11
10188.19395691447
 21
3150.0
 31
0.0
  0
LINE
  5
15A9F
330
747D
100
AcDbEntity
  8
細線
 48
50.0
100
AcDbLine
 10
10173.19395691447
 20
4940.0
 30
0.0
 11
10173.19395691447
 21
3150.0
 31
0.0
  0
LINE
  5
15AA0
330
747D
100
AcDbEntity
  8
細線
 48
50.0
100
AcDbLine
 10
9753.193956914474
 20
4940.0
 30
0.0
 11
9753.193956914474
 21
3150.0
 31
0.0
  0
LINE
  5
15AA1
330
747D
100
AcDbEntity
  8
細線
 48
50.0
100
AcDbLine
 10
9768.193956914474
 20
4940.0
 30
0.0
 11
9768.193956914474
 21
3150.0
 31
0.0
  0
LINE
  5
15AA2
330
747D
100
AcDbEntity
  8
細線
 48
50.0
100
AcDbLine
 10
9628.193956914474
 20
4940.0
 30
0.0
 11
9628.193956914474
 21
3150.0
 31
0.0
  0
LINE
  5
15AA3
330
747D
100
AcDbEntity
  8
細線
 48
50.0
100
AcDbLine
 10
9613.193956914477
 20
4940.0
 30
0.0
 11
9613.193956914477
 21
3150.0
 31
0.0
  0
LINE
  5
15AA4
330
747D
100
AcDbEntity
  8
細線
 48
50.0
100
AcDbLine
 10
9473.193956914474
 20
4940.0
 30
0.0
 11
9473.193956914474
 21
3150.0
 31
0.0
  0
LINE
  5
15AA5
330
747D
100
AcDbEntity
  8
細線
 48
50.0
100
AcDbLine
 10
9488.193956914477
 20
4940.0
 30
0.0
 11
9488.193956914477
 21
3150.0
 31
0.0
  0
LINE
  5
18FE5
330
747D
100
AcDbEntity
  8
部品1
100
AcDbLine
 10
9303.238943271436
 20
5173.717735334267
 30
0.0
 11
10798.30583377594
 21
5118.050841327565
 31
0.0
  0
LINE
  5
18FE6
330
747D
100
AcDbEntity
  8
部品1
100
AcDbLine
 10
9311.036521516427
 20
5032.781025068967
 30
0.0
 11
10780.35765745432
 21
4993.162643453187
 31
0.0
  0
LINE
  5
18FE9
330
747D
100
AcDbEntity
  8
細線
 48
50.0
100
AcDbLine
 10
9328.693956914476
 20
5172.399676375405
 30
0.0
 11
9323.404855358964
 21
5032.31404374805
 31
0.0
  0
LINE
  5
18FEA
330
747D
100
AcDbEntity
  8
細線
 48
50.0
100
AcDbLine
 10
10772.69395691447
 20
5119.377022653722
 30
0.0
 11
10767.94627402647
 21
4993.631250162977
 31
0.0
  0
LINE
  5
1982C
330
747D
100
AcDbEntity
  8
部品1
 48
50.0
100
AcDbLine
 10
9295.878242827582
 20
5166.593546164693
 30
0.0
 11
9296.258502605395
 21
5146.666581718282
 31
0.0
  0
LINE
  5
1982D
330
747D
100
AcDbEntity
  8
部品1
 48
50.0
100
AcDbLine
 10
9299.327274711641
 20
5143.091300224809
 30
0.0
 11
9301.031176203007
 21
5053.800803518162
 31
0.0
  0
LINE
  5
1982F
330
747D
100
AcDbEntity
  8
細線
 48
50.0
100
AcDbLine
 10
9296.733380015288
 20
5146.01708184136
 30
0.0
 11
10802.36936476045
 21
5089.802920818959
 31
0.0
  0
LINE
  5
19830
330
747D
100
AcDbEntity
  8
細線
 48
50.0
100
AcDbLine
 10
9301.493855252576
 20
5053.155570143498
 30
0.0
 11
10791.49751968321
 21
5012.756294787429
 31
0.0
  0
LINE
  5
19831
330
747D
100
AcDbEntity
  8
部品1
 48
50.0
100
AcDbLine
 10
9304.099948309248
 20
5050.22552202469
 30
0.0
 11
9304.301900929678
 21
5039.642486631597
 31
0.0
  0
ARC
  5
19832
330
747D
100
AcDbEntity
  8
部品1
 48
50.0
100
AcDbCircle
 10
9302.876968655921
 20
5166.727100572121
 30
0.0
 40
7.0
100
AcDbArc
 50
87.03587545295626
 51
181.093224029279
  0
ARC
  5
19833
330
747D
100
AcDbEntity
  8
部品1
 48
50.0
100
AcDbCircle
 10
9311.300626758017
 20
5039.776041039026
 30
0.0
 40
7.0
100
AcDbArc
 50
181.0932240292862
 51
267.8377559870786
  0
ARC
  5
19835
330
747D
100
AcDbEntity
  8
部品1
100
AcDbCircle
 10
9301.100494382813
 20
5050.168284421507
 30
0.0
 40
3.0
100
AcDbArc
 50
1.093224029286911
 51
80.18775403152167
  0
ARC
  5
19836
330
747D
100
AcDbEntity
  8
部品1
100
AcDbCircle
 10
9296.327820785212
 20
5143.034062621626
 30
0.0
 40
3.0
100
AcDbArc
 50
1.093224029279532
 51
80.18775403159017
  0
ARC
  5
19837
330
747D
100
AcDbEntity
  8
部品1
100
AcDbCircle
 10
9296.95837518823
 20
5146.679937159023
 30
0.0
 40
0.7
100
AcDbArc
 50
181.0932240292222
 51
260.1877540315805
  0
ARC
  5
19838
330
747D
100
AcDbEntity
  8
部品1
100
AcDbCircle
 10
9301.731048785839
 20
5053.814158958903
 30
0.0
 40
0.7
100
AcDbArc
 50
181.0932240292252
 51
260.1877540315805
  0
LINE
  5
1983C
330
747D
100
AcDbEntity
  8
部品1
 48
50.0
100
AcDbLine
 10
10804.90785972517
 20
5110.351195892643
 30
0.0
 11
10802.8772385342
 21
5090.406154634864
 31
0.0
  0
LINE
  5
1983D
330
747D
100
AcDbEntity
  8
部品1
 48
50.0
100
AcDbLine
 10
10799.52467204972
 20
5087.095520561955
 30
0.0
 11
10792.01789278488
 21
5013.362899816943
 31
0.0
  0
LINE
  5
1983E
330
747D
100
AcDbEntity
  8
部品1
 48
50.0
100
AcDbLine
 10
10788.6653263004
 20
5010.052265744031
 30
0.0
 11
10787.58576326066
 21
4999.448648750473
 31
0.0
  0
ARC
  5
1983F
330
747D
100
AcDbEntity
  8
部品1
 48
50.0
100
AcDbCircle
 10
10797.94385916042
 20
5111.060206565419
 30
0.0
 40
7.0
100
AcDbArc
 50
354.1866997665259
 51
87.03587545295638
  0
ARC
  5
19840
330
747D
100
AcDbEntity
  8
部品1
 48
50.0
100
AcDbCircle
 10
10780.6217626959
 20
5000.157659423246
 30
0.0
 40
7.0
100
AcDbArc
 50
267.8377559870788
 51
354.1866997665298
  0
ARC
  5
19841
330
747D
100
AcDbEntity
  8
部品1
100
AcDbCircle
 10
10791.64989797101
 20
5009.748404027128
 30
0.0
 40
3.0
100
AcDbArc
 50
95.09216976421095
 51
174.1866997665351
  0
ARC
  5
19842
330
747D
100
AcDbEntity
  8
部品1
100
AcDbCircle
 10
10802.50924372033
 20
5086.791658845052
 30
0.0
 40
3.0
100
AcDbArc
 50
95.0921697643148
 51
174.1866997665315
  0
ARC
  5
19843
330
747D
100
AcDbEntity
  8
部品1
100
AcDbCircle
 10
10802.18083847773
 20
5090.477055702141
 30
0.0
 40
0.7
100
AcDbArc
 50
275.0921697642604
 51
354.1866997665291
  0
ARC
  5
19844
330
747D
100
AcDbEntity
  8
部品1
100
AcDbCircle
 10
10791.32149272841
 20
5013.433800884218
 30
0.0
 40
0.7
100
AcDbArc
 50
275.0921697642539
 51
354.1866997666923
  0
DIMENSION
  5
19878
330
747D
100
AcDbEntity
  8
寸法
 48
50.0
100
AcDbDimension
  2
*D12
 10
10805.69395691447
 20
5573.657453579304
 30
0.0
 11
11011.74120100896
 21
5573.657453579304
 31
0.0
 70
   160
 71
     5
 42
80.0
  3
INABA_S40G
100
AcDbAlignedDimension
 13
10725.69395691447
 23
5121.810679611654
 33
0.0
 14
10805.69395691447
 24
5120.0
 34
0.0
100
AcDbRotatedDimension
1001
ACAD
1000
DSTYLE
1002
{
1070
   174
1070
     0
1070
   272
1070
     1
1070
   288
1070
     0
1070
   341
1005
0
1002
}
  0
DIMENSION
  5
19A46
330
747D
100
AcDbEntity
  8
寸法
 48
50.0
100
AcDbDimension
  2
*D13
 10
8703.427705202862
 20
5196.82249089752
 30
0.0
 11
8712.105448854982
 21
5426.658729913714
 31
0.0
 70
   160
 71
     5
 42
141.0
  3
INABA_S40G
100
AcDbAlignedDimension
 13
9311.036521516427
 23
5032.781025068967
 33
0.0
 14
9316.356355668384
 24
5173.68063246585
 34
0.0
 50
87.83775598709233
100
AcDbRotatedDimension
1001
ACAD
1000
DSTYLE
1002
{
1070
   174
1070
     0
1070
   272
1070
     1
1070
   288
1070
     0
1070
   341
1005
0
1002
}
  0
LINE
  5
1BA4E
330
747D
100
AcDbEntity
  8
部品1
 48
50.0
100
AcDbLine
 10
9900.693956914476
 20
5305.86813910128
 30
0.0
 11
10200.69395691447
 21
5305.86813910128
 31
0.0
  0
LINE
  5
1BA4F
330
747D
100
AcDbEntity
  8
部品1
 48
50.0
100
AcDbLine
 10
10200.69395691447
 20
5305.86813910128
 30
0.0
 11
10200.69395691447
 21
5284.26813910128
 31
0.0
  0
TEXT
  5
1BA51
330
747D
100
AcDbEntity
  8
部品1
 48
50.0
100
AcDbText
 10
9888.961792138205
 20
5341.752161253713
 30
0.0
 40
120.0
  1
1000
  7
STYLE1
100
AcDbText
  0
TEXT
  5
1BA52
330
747D
100
AcDbEntity
  8
部品1
 48
50.0
100
AcDbText
 10
10377.78680420234
 20
5204.250903035429
 30
0.0
 40
120.0
  1
71
 50
90.0
  7
STYLE1
100
AcDbText
  0
LINE
  5
1BDE8
330
747D
100
AcDbEntity
  8
部品1
 48
50.0
100
AcDbLine
 10
7462.488154000559
 20
5175.000000000005
 30
0.0
 11
5587.304996213424
 21
5175.000000000006
 31
0.0
  0
LINE
  5
1BDE9
330
747D
100
AcDbEntity
  8
部品1
 48
50.0
100
AcDbLine
 10
7449.272830539527
 20
5034.000000000006
 30
0.0
 11
5600.520319674457
 21
5034.000000000005
 31
0.0
  0
LINE
  5
1BDEA
330
747D
100
AcDbEntity
  8
細線
 48
50.0
100
AcDbLine
 10
7467.857036885551
 20
5147.000000000005
 30
0.0
 11
5581.936113328431
 21
5147.000000000002
 31
0.0
  0
LINE
  5
1BDEB
330
747D
100
AcDbEntity
  8
細線
 48
50.0
100
AcDbLine
 10
7459.621006360714
 20
5054.800000000003
 30
0.0
 11
5590.17214385326
 21
5054.800000000007
 31
0.0
  0
LINE
  5
1BDEC
330
747D
100
AcDbEntity
  8
部品1
100
AcDbLine
 10
7469.476914091659
 20
5167.603474604764
 30
0.0
 11
7468.343516759313
 21
5147.627346622165
 31
0.0
  0
LINE
  5
1BDEE
330
747D
100
AcDbEntity
  8
細線
 48
50.0
100
AcDbLine
 10
7436.896575106992
 20
5175.000000000005
 30
0.0
 11
7436.896575106992
 21
5034.000000000005
 31
0.0
  0
LINE
  5
1BDEF
330
747D
100
AcDbEntity
  8
細線
 48
50.0
100
AcDbLine
 10
5612.896575106994
 20
5175.000000000005
 30
0.0
 11
5612.896575106994
 21
5034.000000000005
 31
0.0
  0
LINE
  5
1BE41
330
747D
100
AcDbEntity
  8
部品1
100
AcDbLine
 10
7456.906496437736
 20
5051.969939455105
 30
0.0
 11
7456.261590630626
 21
5040.603474604766
 31
0.0
  0
LINE
  5
1BE42
330
747D
100
AcDbEntity
  8
部品1
100
AcDbLine
 10
7465.142526962582
 20
5144.169939455108
 30
0.0
 11
7460.10748623447
 21
5055.427346622163
 31
0.0
  0
ARC
  5
1BE44
330
747D
100
AcDbEntity
  8
部品1
 48
50.0
100
AcDbCircle
 10
7468.137709858766
 20
5144.000000000005
 30
0.0
 40
3.0
100
AcDbArc
 50
97.65812720738011
 51
176.7526572096774
  0
ARC
  5
1BE45
330
747D
100
AcDbEntity
  8
部品1
 48
50.0
100
AcDbCircle
 10
7459.901679333923
 20
5051.800000000003
 30
0.0
 40
3.0
100
AcDbArc
 50
97.6581272073629
 51
176.7526572096767
  0
ARC
  5
1BE46
330
747D
100
AcDbEntity
  8
部品1
 48
50.0
100
AcDbCircle
 10
7459.408610225363
 20
5055.466999161687
 30
0.0
 40
0.7
100
AcDbArc
 50
277.6581272073433
 51
356.7526572097019
  0
ARC
  5
1BE47
330
747D
100
AcDbEntity
  8
部品1
 48
50.0
100
AcDbCircle
 10
7467.644640750204
 20
5147.66699916169
 30
0.0
 40
0.7
100
AcDbArc
 50
277.6581272073433
 51
356.7526572096276
  0
ARC
  5
1BE48
330
747D
100
AcDbEntity
  8
部品1
100
AcDbCircle
 10
7449.272830539527
 20
5041.000000000004
 30
0.0
 40
7.0
100
AcDbArc
 50
270.0
 51
356.7526572096773
  0
ARC
  5
1BE49
330
747D
100
AcDbEntity
  8
部品1
100
AcDbCircle
 10
7462.488154000559
 20
5168.000000000005
 30
0.0
 40
7.0
100
AcDbArc
 50
356.752657209676
 51
89.99999999999998
  0
ARC
  5
1BE4A
330
747D
100
AcDbEntity
  8
部品1
100
AcDbCircle
 10
5587.304996213424
 20
5168.000000000005
 30
0.0
 40
7.0
100
AcDbArc
 50
90.00000000000005
 51
183.247342790324
  0
ARC
  5
1BE4B
330
747D
100
AcDbEntity
  8
部品1
100
AcDbCircle
 10
5600.520319674457
 20
5041.000000000004
 30
0.0
 40
7.0
100
AcDbArc
 50
183.2473427903227
 51
270.0
  0
ARC
  5
1BE4C
330
747D
100
AcDbEntity
  8
部品1
 48
50.0
100
AcDbCircle
 10
5582.148509463779
 20
5147.66699916169
 30
0.0
 40
0.7
100
AcDbArc
 50
183.2473427903725
 51
262.3418727926567
  0
ARC
  5
1BE4D
330
747D
100
AcDbEntity
  8
部品1
 48
50.0
100
AcDbCircle
 10
5590.384539988622
 20
5055.466999161687
 30
0.0
 40
0.7
100
AcDbArc
 50
183.2473427902981
 51
262.3418727926567
  0
ARC
  5
1BE4E
330
747D
100
AcDbEntity
  8
部品1
 48
50.0
100
AcDbCircle
 10
5589.891470880059
 20
5051.800000000003
 30
0.0
 40
3.0
100
AcDbArc
 50
3.247342790323342
 51
82.34187279263712
  0
ARC
  5
1BE4F
330
747D
100
AcDbEntity
  8
部品1
 48
50.0
100
AcDbCircle
 10
5581.655440355217
 20
5144.000000000005
 30
0.0
 40
3.0
100
AcDbArc
 50
3.247342790322578
 51
82.34187279261988
  0
LINE
  5
1BE50
330
747D
100
AcDbEntity
  8
部品1
100
AcDbLine
 10
5584.650623251403
 20
5144.169939455108
 30
0.0
 11
5589.685663979513
 21
5055.427346622163
 31
0.0
  0
LINE
  5
1BE51
330
747D
100
AcDbEntity
  8
部品1
100
AcDbLine
 10
5592.886653776248
 20
5051.969939455105
 30
0.0
 11
5593.531559583357
 21
5040.603474604766
 31
0.0
  0
LINE
  5
1BE52
330
747D
100
AcDbEntity
  8
部品1
100
AcDbLine
 10
5580.316236122325
 20
5167.603474604764
 30
0.0
 11
5581.449633454671
 21
5147.627346622165
 31
0.0
  0
TEXT
  5
1C9E3
330
747D
100
AcDbEntity
  8
文字
 62
     7
 48
50.0
100
AcDbText
 10
13209.4053442172
 20
76.09434707649325
 30
0.0
 40
100.0
  1
○床面積 ： 2.49㎡(0.75坪) 　
  7
STYLE2
100
AcDbText
  0
TEXT
  5
1C9E4
330
747D
100
AcDbEntity
  8
文字
 62
     7
 48
50.0
100
AcDbText
 10
13209.4053442172
 20
228.5435242569015
 30
0.0
 40
100.0
  1
○ドア部有効開口寸法 ： 753\U+00D71740(mm)
  7
STYLE2
100
AcDbText
  0
LINE
  5
1D09C
330
747D
100
AcDbEntity
  8
部品1
100
AcDbLine
 10
10250.69395691447
 20
4940.0
 30
0.0
 11
10250.69395691447
 21
3150.0
 31
0.0
  0
LINE
  5
1D09D
330
747D
100
AcDbEntity
  8
細線
 48
50.0
100
AcDbLine
 10
10593.19395691447
 20
4940.0
 30
0.0
 11
10593.19395691447
 21
3150.0
 31
0.0
  0
LINE
  5
1D09E
330
747D
100
AcDbEntity
  8
細線
 48
50.0
100
AcDbLine
 10
10608.19395691448
 20
4940.0
 30
0.0
 11
10608.19395691448
 21
3150.0
 31
0.0
  0
LINE
  5
1D09F
330
747D
100
AcDbEntity
  8
細線
 48
50.0
100
AcDbLine
 10
10468.19395691447
 20
4940.0
 30
0.0
 11
10468.19395691447
 21
3150.0
 31
0.0
  0
LINE
  5
1D0A0
330
747D
100
AcDbEntity
  8
細線
 48
50.0
100
AcDbLine
 10
10453.19395691448
 20
4940.0
 30
0.0
 11
10453.19395691448
 21
3150.0
 31
0.0
  0
LINE
  5
1D0A1
330
747D
100
AcDbEntity
  8
細線
 48
50.0
100
AcDbLine
 10
10313.19395691448
 20
4940.0
 30
0.0
 11
10313.19395691448
 21
3150.0
 31
0.0
  0
LINE
  5
1D0A2
330
747D
100
AcDbEntity
  8
細線
 48
50.0
100
AcDbLine
 10
10328.19395691447
 20
4940.0
 30
0.0
 11
10328.19395691447
 21
3150.0
 31
0.0
  0
LINE
  5
1D0AB
330
747D
100
AcDbEntity
  8
部品1
 48
50.0
100
AcDbLine
 10
9900.693956914476
 20
5305.86813910128
 30
0.0
 11
10200.69395691447
 21
5284.26813910128
 31
0.0
  0
LINE
  5
1E169
330
747D
100
AcDbEntity
  8
部品1
100
AcDbLine
 10
5626.866258868439
 20
8331.824101455589
 30
0.0
 11
5626.86625886844
 21
8276.824101455593
 31
0.0
  0
LINE
  5
1E1A2
330
747D
100
AcDbEntity
  8
部品1
100
AcDbLine
 10
5626.866258868416
 20
9591.824101455609
 30
0.0
 11
5626.866258868416
 21
8276.824101455558
 31
0.0
  0
LINE
  5
1E1AB
330
747D
100
AcDbEntity
  8
部品1
100
AcDbLine
 10
5626.866258868416
 20
9618.824101455608
 30
0.0
 11
5626.866258868416
 21
9591.824101455609
 31
0.0
  0
DIMENSION
  5
1E1EB
330
747D
100
AcDbEntity
  8
寸法
100
AcDbDimension
  2
*D14
 10
7416.866258868423
 20
7419.457110119161
 30
0.0
 11
6521.866258868431
 21
7519.457110119161
 31
0.0
 70
    32
 71
     5
 42
1789.999999999982
  3
INABA_S40G
100
AcDbAlignedDimension
 13
5626.86625886844
 23
8276.824101455593
 33
0.0
 14
7416.866258868423
 24
8276.824101455725
 34
0.0
100
AcDbRotatedDimension
1001
ACAD
1000
DSTYLE
1002
{
1002
}
  0
LINE
  5
1E1EC
330
747D
100
AcDbEntity
  8
部品1
100
AcDbLine
 10
7361.866258868412
 20
8276.824101455565
 30
0.0
 11
7388.86625886841
 21
8276.824101455565
 31
0.0
  0
LINE
  5
1E1ED
330
747D
100
AcDbEntity
  8
部品1
100
AcDbLine
 10
5654.866258868411
 20
8276.824101455565
 30
0.0
 11
5681.866258868411
 21
8276.824101455565
 31
0.0
  0
LINE
  5
1E1EE
330
747D
100
AcDbEntity
  8
部品1
 48
50.0
100
AcDbLine
 10
7361.866258868413
 20
8276.824101455721
 30
0.0
 11
7361.866258868412
 21
8304.824101455718
 31
0.0
  0
LINE
  5
1E1EF
330
747D
100
AcDbEntity
  8
部品1
 48
50.0
100
AcDbLine
 10
5681.866258868411
 20
8276.824101455565
 30
0.0
 11
5681.866258868415
 21
8304.824101455563
 31
0.0
  0
LINE
  5
1E1F0
330
747D
100
AcDbEntity
  8
部品1
 48
50.0
100
AcDbLine
 10
6521.866258868413
 20
8276.824101455668
 30
0.0
 11
7416.866258868423
 21
8276.824101455725
 31
0.0
  0
LINE
  5
1E1F1
330
747D
100
AcDbEntity
  8
部品1
 48
50.0
100
AcDbLine
 10
5654.866258868418
 20
8304.824101455563
 30
0.0
 11
5778.978601960911
 21
8304.824101455571
 31
0.0
  0
LINE
  5
1E1F2
330
747D
100
AcDbEntity
  8
部品1
 48
50.0
100
AcDbLine
 10
5626.86625886844
 20
8276.824101455563
 30
0.0
 11
5681.866258868411
 21
8276.824101455565
 31
0.0
  0
LINE
  5
1E1F3
330
747D
100
AcDbEntity
  8
部品1
100
AcDbLine
 10
5654.866258868414
 20
8331.824101455589
 30
0.0
 11
5626.866258868416
 21
8331.824101455589
 31
0.0
  0
LINE
  5
1E1F4
330
747D
100
AcDbEntity
  8
部品1
100
AcDbLine
 10
7388.866258868448
 20
8331.824101455463
 30
0.0
 11
7416.866258868447
 21
8331.824101455463
 31
0.0
  0
LINE
  5
1E1F5
330
747D
100
AcDbEntity
  8
部品1
 48
50.0
100
AcDbLine
 10
5683.366258868431
 20
8333.324101455717
 30
0.0
 11
5654.866258868435
 21
8304.82410145572
 31
0.0
  0
LINE
  5
1E1F8
330
747D
100
AcDbEntity
  8
部品1
 48
50.0
100
AcDbLine
 10
7360.36625886842
 20
8333.324101455717
 30
0.0
 11
7388.86625886842
 21
8304.82410145572
 31
0.0
  0
LINE
  5
1E1FB
330
747D
100
AcDbEntity
  8
破線
 48
10.0
100
AcDbLine
 10
6496.866258868415
 20
8356.82410145567
 30
0.0
 11
5706.866258868434
 21
8356.824101455622
 31
0.0
  0
LINE
  5
1E1FC
330
747D
100
AcDbEntity
  8
破線
 48
10.0
100
AcDbLine
 10
7336.866258868429
 20
8356.824101455718
 30
0.0
 11
6546.866258868416
 21
8356.824101455673
 31
0.0
  0
LINE
  5
1E1FD
330
747D
100
AcDbEntity
  8
部品1
100
AcDbLine
 10
7360.36625886842
 20
8333.324101455717
 30
0.0
 11
5683.366258868337
 21
8333.324101455621
 31
0.0
  0
LINE
  5
1E1FE
330
747D
100
AcDbEntity
  8
破線
 48
10.0
100
AcDbLine
 10
6496.866258868419
 20
8333.324101455671
 30
0.0
 11
6496.866258868415
 21
9166.824101455617
 31
0.0
  0
LINE
  5
1E1FF
330
747D
100
AcDbEntity
  8
破線
 48
10.0
100
AcDbLine
 10
6546.866258868416
 20
8333.324101455673
 30
0.0
 11
6546.866258868419
 21
9166.824101455617
 31
0.0
  0
DIMENSION
  5
1E200
330
747D
100
AcDbEntity
  8
寸法
100
AcDbDimension
  2
*D15
 10
7361.866258868447
 20
9943.631128263962
 30
0.0
 11
6521.866258868445
 21
9943.631128263962
 31
0.0
 70
   160
  1
4X420=<>
 71
     5
 42
1680.0
  3
INABA_S40G
100
AcDbAlignedDimension
 13
5681.866258868447
 23
9646.824101455635
 33
0.0
 14
7361.866258868447
 24
9646.824101455733
 34
0.0
100
AcDbRotatedDimension
1001
ACAD
1000
DSTYLE
1002
{
1002
}
  0
LINE
  5
1E201
330
747D
100
AcDbEntity
  8
部品1
100
AcDbLine
 10
5626.866258868449
 20
9646.824101455635
 30
0.0
 11
7416.866258868447
 21
9646.824101455733
 31
0.0
  0
DIMENSION
  5
1E202
330
747D
100
AcDbEntity
  8
寸法
100
AcDbDimension
  2
*D16
 10
7416.866258868447
 20
9943.631128263945
 30
0.0
 11
7725.351540242685
 21
9943.631128263945
 31
0.0
 70
   160
 71
     5
 42
55.0
  3
INABA_S40G
100
AcDbAlignedDimension
 13
7361.866258868447
 23
9646.824101455733
 33
0.0
 14
7416.866258868447
 24
9646.824101455733
 34
0.0
100
AcDbRotatedDimension
1001
ACAD
1000
DSTYLE
1002
{
1002
}
  0
LINE
  5
1E203
330
747D
100
AcDbEntity
  8
部品1
100
AcDbLine
 10
7388.866258868448
 20
9591.824101455735
 30
0.0
 11
7416.866258868447
 21
9591.824101455735
 31
0.0
  0
LINE
  5
1E204
330
747D
100
AcDbEntity
  8
部品1
100
AcDbLine
 10
7388.866258868448
 20
9171.824101455735
 30
0.0
 11
7416.866258868447
 21
9171.824101455735
 31
0.0
  0
LINE
  5
1E20A
330
747D
100
AcDbEntity
  8
部品1
100
AcDbLine
 10
6521.866258868446
 20
9618.82410145575
 30
0.0
 11
7388.866258868448
 21
9618.824101455732
 31
0.0
  0
LINE
  5
1E20B
330
747D
100
AcDbEntity
  8
部品1
100
AcDbLine
 10
7388.866258868451
 20
8751.824101455735
 30
0.0
 11
7416.866258868451
 21
8751.824101455735
 31
0.0
  0
LINE
  5
1E20C
330
747D
100
AcDbEntity
  8
部品1
100
AcDbLine
 10
7388.866258868448
 20
9618.824101455732
 30
0.0
 11
7388.866258868422
 21
8304.82410145572
 31
0.0
  0
LINE
  5
1E20D
330
747D
100
AcDbEntity
  8
部品1
100
AcDbLine
 10
5654.866258868414
 20
9591.824101455609
 30
0.0
 11
5626.866258868416
 21
9591.824101455609
 31
0.0
  0
LINE
  5
1E20E
330
747D
100
AcDbEntity
  8
部品1
100
AcDbLine
 10
5654.86625886842
 20
8304.824101455563
 30
0.0
 11
5654.866258868447
 21
9618.824101455636
 31
0.0
  0
LINE
  5
1E20F
330
747D
100
AcDbEntity
  8
部品1
100
AcDbLine
 10
5654.866258868447
 20
9618.824101455755
 30
0.0
 11
6521.866258868448
 21
9618.824101455755
 31
0.0
  0
DIMENSION
  5
1E210
330
747D
100
AcDbEntity
  8
寸法
100
AcDbDimension
  2
*D17
 10
8064.29260460286
 20
8331.824101455721
 30
0.0
 11
7964.280793579236
 21
8961.82410145573
 31
0.0
 70
    32
  1
3X420=<>
 71
     5
 42
1260.000000000014
  3
INABA_S40G
100
AcDbAlignedDimension
 13
7416.866258868447
 23
9591.824101455735
 33
0.0
 14
7416.866258868423
 24
8331.824101455721
 34
0.0
 50
90.0
100
AcDbRotatedDimension
1001
ACAD
1000
DSTYLE
1002
{
1002
}
  0
DIMENSION
  5
1E211
330
747D
100
AcDbEntity
  8
寸法
100
AcDbDimension
  2
*D18
 10
8064.29260460286
 20
8276.824101455725
 30
0.0
 11
8064.292604602858
 21
7968.338820081488
 31
0.0
 70
   160
 71
     5
 42
54.99999999999635
  3
INABA_S40G
100
AcDbAlignedDimension
 13
7416.866258868423
 23
8331.824101455721
 33
0.0
 14
7416.866258868423
 24
8276.824101455725
 34
0.0
 50
90.0
100
AcDbRotatedDimension
  0
DIMENSION
  5
1E212
330
747D
100
AcDbEntity
  8
寸法
100
AcDbDimension
  2
*D19
 10
8064.292604602858
 20
9591.824101455735
 30
0.0
 11
8064.292604602858
 21
9955.309382829973
 31
0.0
 70
   160
 71
     5
 42
54.99999999999635
  3
INABA_S40G
100
AcDbAlignedDimension
 13
7416.866258868447
 23
9646.824101455733
 33
0.0
 14
7416.866258868447
 24
9591.824101455735
 34
0.0
 50
90.0
100
AcDbRotatedDimension
1001
ACAD
1000
DSTYLE
1002
{
1002
}
  0
LINE
  5
1E213
330
747D
100
AcDbEntity
  8
部品1
100
AcDbLine
 10
5681.866258868447
 20
9646.824101455635
 30
0.0
 11
5681.866258868447
 21
9618.824101455636
 31
0.0
  0
LINE
  5
1E214
330
747D
100
AcDbEntity
  8
部品1
100
AcDbLine
 10
6101.866258868447
 20
9646.824101455635
 30
0.0
 11
6101.866258868447
 21
9618.824101455636
 31
0.0
  0
LINE
  5
1E215
330
747D
100
AcDbEntity
  8
部品1
100
AcDbLine
 10
6101.866258868447
 20
9646.824101455635
 30
0.0
 11
6101.866258868447
 21
9618.824101455636
 31
0.0
  0
LINE
  5
1E216
330
747D
100
AcDbEntity
  8
部品1
100
AcDbLine
 10
6101.866258868447
 20
9646.824101455756
 30
0.0
 11
6101.866258868447
 21
9618.824101455755
 31
0.0
  0
LINE
  5
1E217
330
747D
100
AcDbEntity
  8
部品1
100
AcDbLine
 10
6521.866258868448
 20
9646.824101455756
 30
0.0
 11
6521.866258868448
 21
9618.824101455755
 31
0.0
  0
LINE
  5
1E218
330
747D
100
AcDbEntity
  8
部品1
100
AcDbLine
 10
6941.866258868447
 20
9646.824101455756
 30
0.0
 11
6941.866258868447
 21
9618.824101455755
 31
0.0
  0
LINE
  5
1E219
330
747D
100
AcDbEntity
  8
部品1
100
AcDbLine
 10
7416.866258868447
 20
9646.824101455733
 30
0.0
 11
7416.866258868423
 21
8276.824101455725
 31
0.0
  0
DIMENSION
  5
1E21A
330
747D
100
AcDbEntity
  8
寸法
100
AcDbDimension
  2
*D20
 10
8429.399546342494
 20
8276.824101455725
 30
0.0
 11
8429.399546342493
 21
8961.824101455729
 31
0.0
 70
   160
 71
     5
 42
1370.000000000007
  3
INABA_S40G
100
AcDbAlignedDimension
 13
7416.866258868447
 23
9646.824101455733
 33
0.0
 14
7416.866258868423
 24
8276.824101455725
 34
0.0
 50
90.0
100
AcDbRotatedDimension
1001
ACAD
1000
DSTYLE
1002
{
1002
}
  0
LINE
  5
1E21B
330
747D
100
AcDbEntity
  8
部品1
100
AcDbLine
 10
7361.866258868447
 20
9646.824101455756
 30
0.0
 11
7361.866258868447
 21
9618.824101455755
 31
0.0
  0
LINE
  5
1E21C
330
747D
100
AcDbEntity
  8
部品1
100
AcDbLine
 10
7361.866258868447
 20
9646.824101455733
 30
0.0
 11
7361.866258868447
 21
9618.824101455732
 31
0.0
  0
LINE
  5
1E21D
330
747D
100
AcDbEntity
  8
部品1
100
AcDbLine
 10
5626.86625886841
 20
9646.824101455605
 30
0.0
 11
5626.866258868413
 21
9591.824101455609
 31
0.0
  0
LINE
  5
1E21E
330
747D
100
AcDbEntity
  8
部品1
100
AcDbLine
 10
5681.866258868411
 20
9646.824101455605
 30
0.0
 11
5681.866258868415
 21
9618.824101455604
 31
0.0
  0
DIMENSION
  5
1E21F
330
747D
100
AcDbEntity
  8
寸法
100
AcDbDimension
  2
*D21
 10
5681.866258868447
 20
9943.631128263845
 30
0.0
 11
5318.380977494173
 21
9943.631128263845
 31
0.0
 70
   160
 71
     5
 42
55.00000000003637
  3
INABA_S40G
100
AcDbAlignedDimension
 13
5626.86625886841
 23
9646.824101455635
 33
0.0
 14
5681.866258868447
 24
9646.824101455635
 34
0.0
100
AcDbRotatedDimension
1001
ACAD
1000
DSTYLE
1002
{
1002
}
  0
LINE
  5
1E31B
330
747D
100
AcDbEntity
  8
部品1
100
AcDbLine
 10
5654.866258868414
 20
8751.824101455589
 30
0.0
 11
5626.866258868416
 21
8751.824101455589
 31
0.0
  0
LINE
  5
1E31C
330
747D
100
AcDbEntity
  8
部品1
100
AcDbLine
 10
5654.866258868414
 20
9171.824101455589
 30
0.0
 11
5626.866258868416
 21
9171.824101455589
 31
0.0
  0
LINE
  5
1E31E
330
747D
100
AcDbEntity
  8
部品1
100
AcDbLine
 10
7360.366258868373
 20
8750.324101455738
 30
0.0
 11
5683.366258868291
 21
8750.324101455834
 31
0.0
  0
LINE
  5
23681
330
747D
100
AcDbEntity
  8
部品1
 48
50.0
100
AcDbLine
 10
9355.693956914482
 20
3000.0
 30
0.0
 11
9355.693956914482
 21
4935.0
 31
0.0
  0
LINE
  5
2394F
330
747D
100
AcDbEntity
  8
部品1
100
AcDbLine
 10
6529.396575106985
 20
3150.000000000006
 30
0.0
 11
7419.896575106992
 21
3150.00000000002
 31
0.0
  0
LINE
  5
239E1
330
747D
100
AcDbEntity
  8
部品1
 48
50.0
100
AcDbLine
 10
6509.366258868448
 20
9618.824101455686
 30
0.0
 11
6509.366258868448
 21
9587.824101455685
 31
0.0
  0
LINE
  5
239E2
330
747D
100
AcDbEntity
  8
部品1
 48
50.0
100
AcDbLine
 10
6509.366258868448
 20
9587.824101455685
 30
0.0
 11
6534.366258868448
 21
9587.824101455685
 31
0.0
  0
LINE
  5
239E3
330
747D
100
AcDbEntity
  8
部品1
 48
50.0
100
AcDbLine
 10
6534.366258868448
 20
9587.824101455685
 30
0.0
 11
6534.366258868448
 21
9618.824101455686
 31
0.0
  0
LINE
  5
23B96
102
{ACAD_REACTORS
330
23DC8
102
}
330
747D
100
AcDbEntity
  8
部品1
 48
50.0
100
AcDbLine
 10
5655.366258868443
 20
9166.824101455617
 30
0.0
 11
5655.366258868443
 21
9616.824101455618
 31
0.0
  0
LINE
  5
23B9C
330
747D
100
AcDbEntity
  8
部品1
100
AcDbLine
 10
6486.866258868444
 20
9618.824101455617
 30
0.0
 11
6509.366258868443
 21
9618.824101455617
 31
0.0
  0
LINE
  5
23B9D
330
747D
100
AcDbEntity
  8
部品1
100
AcDbLine
 10
6534.366258868444
 20
9618.824101455617
 30
0.0
 11
6556.866258868443
 21
9618.824101455617
 31
0.0
  0
LINE
  5
23B9E
102
{ACAD_REACTORS
330
23DC8
102
}
330
747D
100
AcDbEntity
  8
部品1
 48
50.0
100
AcDbLine
 10
7387.866258868443
 20
9166.824101455617
 30
0.0
 11
7387.866258868443
 21
9616.824101455618
 31
0.0
  0
LINE
  5
23B9F
102
{ACAD_REACTORS
330
23DC8
102
}
330
747D
100
AcDbEntity
  8
部品1
 48
50.0
100
AcDbLine
 10
6534.866258868444
 20
9166.824101455617
 30
0.0
 11
7387.866258868443
 21
9166.824101455617
 31
0.0
  0
LINE
  5
23BA0
102
{ACAD_REACTORS
330
23DC8
102
}
330
747D
100
AcDbEntity
  8
部品1
 48
50.0
100
AcDbLine
 10
7387.866258868443
 20
9616.824101455618
 30
0.0
 11
6534.866258868444
 21
9616.824101455618
 31
0.0
  0
LINE
  5
23BA1
102
{ACAD_REACTORS
330
23DC8
102
}
330
747D
100
AcDbEntity
  8
部品1
100
AcDbLine
 10
6534.366258868444
 20
9618.824101455617
 30
0.0
 11
6534.366258868444
 21
9166.824101455643
 31
0.0
  0
LINE
  5
23BA2
102
{ACAD_REACTORS
330
23DC8
102
}
330
747D
100
AcDbEntity
  8
部品1
100
AcDbLine
 10
6509.366258868443
 20
9618.824101455595
 30
0.0
 11
6509.366258868443
 21
9166.824101455643
 31
0.0
  0
LINE
  5
23BA3
102
{ACAD_REACTORS
330
23DC8
102
}
330
747D
100
AcDbEntity
  8
部品1
100
AcDbLine
 10
6508.366258868443
 20
9616.824101455625
 30
0.0
 11
6508.366258868443
 21
9166.824101455617
 31
0.0
  0
LINE
  5
23BA4
102
{ACAD_REACTORS
330
23DC8
102
}
330
747D
100
AcDbEntity
  8
部品1
100
AcDbLine
 10
6534.866258868444
 20
9616.824101455618
 30
0.0
 11
6534.866258868444
 21
9166.824101455617
 31
0.0
  0
LINE
  5
23BA5
102
{ACAD_REACTORS
330
23DC8
102
}
330
747D
100
AcDbEntity
  8
部品1
100
AcDbLine
 10
6509.366258868443
 20
9166.824101455643
 30
0.0
 11
6534.366258868444
 21
9166.824101455643
 31
0.0
  0
LINE
  5
23BA6
102
{ACAD_REACTORS
330
23DC8
102
}
330
747D
100
AcDbEntity
  8
部品1
 48
50.0
100
AcDbLine
 10
6508.366258868443
 20
9166.824101455617
 30
0.0
 11
5655.366258868443
 21
9166.824101455617
 31
0.0
  0
LINE
  5
23BA7
102
{ACAD_REACTORS
330
23DC8
102
}
330
747D
100
AcDbEntity
  8
部品1
 48
50.0
100
AcDbLine
 10
5655.366258868443
 20
9616.824101455618
 30
0.0
 11
6508.366258868443
 21
9616.824101455618
 31
0.0
  0
LINE
  5
23BA8
102
{ACAD_REACTORS
330
23DC8
102
}
330
747D
100
AcDbEntity
  8
細線
 48
50.0
100
AcDbLine
 10
6508.366258868443
 20
9166.824101455617
 30
0.0
 11
5655.366258868443
 21
9616.824101455618
 31
0.0
  0
LINE
  5
23BA9
102
{ACAD_REACTORS
330
23DC8
102
}
330
747D
100
AcDbEntity
  8
細線
 48
50.0
100
AcDbLine
 10
5655.366258868443
 20
9166.824101455617
 30
0.0
 11
6508.366258868443
 21
9616.824101455625
 31
0.0
  0
LINE
  5
23BAA
102
{ACAD_REACTORS
330
23DC8
102
}
330
747D
100
AcDbEntity
  8
細線
 48
50.0
100
AcDbLine
 10
6534.866258868444
 20
9166.824101455617
 30
0.0
 11
7387.866258868443
 21
9616.824101455618
 31
0.0
  0
LINE
  5
23BAB
102
{ACAD_REACTORS
330
23DC8
102
}
330
747D
100
AcDbEntity
  8
細線
 48
50.0
100
AcDbLine
 10
7387.866258868443
 20
9166.824101455617
 30
0.0
 11
6534.866258868416
 21
9616.824101455618
 31
0.0
  0
LINE
  5
23DE4
330
747D
100
AcDbEntity
  8
破線
 48
10.0
100
AcDbLine
 10
7336.866258868444
 20
9166.824101455617
 30
0.0
 11
7336.866258868429
 21
8356.824101455718
 31
0.0
  0
LINE
  5
23DE5
330
747D
100
AcDbEntity
  8
部品1
100
AcDbLine
 10
7360.366258868442
 20
9166.824101455617
 30
0.0
 11
7360.366258868424
 21
8333.324101455717
 31
0.0
  0
LINE
  5
23DE6
330
747D
100
AcDbEntity
  8
部品1
100
AcDbLine
 10
5683.366258868425
 20
9166.824101455617
 30
0.0
 11
5683.366258868438
 21
8333.324101455721
 31
0.0
  0
LINE
  5
23DE7
330
747D
100
AcDbEntity
  8
破線
 48
10.0
100
AcDbLine
 10
5706.866258868426
 20
9166.824101455617
 30
0.0
 11
5706.866258868434
 21
8356.824101455622
 31
0.0
  0
LINE
  5
23DEA
330
747D
100
AcDbEntity
  8
部品1
 48
50.0
100
AcDbLine
 10
7386.866258868301
 20
9616.824101455618
 30
0.0
 11
7388.86625886842
 21
9618.824101455736
 31
0.0
  0
LINE
  5
23DEB
330
747D
100
AcDbEntity
  8
部品1
100
AcDbLine
 10
6509.366258868448
 20
9590.324101455788
 30
0.0
 11
6508.366258868443
 21
9590.324101455788
 31
0.0
  0
LINE
  5
23DEC
330
747D
100
AcDbEntity
  8
部品1
100
AcDbLine
 10
6534.866258868444
 20
9590.324101455786
 30
0.0
 11
6534.366258868448
 21
9590.324101455786
 31
0.0
  0
LINE
  5
23DEE
330
747D
100
AcDbEntity
  8
部品1
 48
50.0
100
AcDbLine
 10
5656.866258868554
 20
9616.824101455618
 30
0.0
 11
5654.866258868435
 21
9618.824101455736
 31
0.0
  0
DIMENSION
  5
23E1D
330
747D
100
AcDbEntity
  8
寸法
100
AcDbDimension
  2
*D65
 10
7743.223984730462
 20
9071.606285786719
 30
0.0
 11
7643.223984730461
 21
9296.606285786721
 31
0.0
 70
    32
 71
     5
 42
450.0
  3
INABA_S40G
100
AcDbAlignedDimension
 13
7387.866258868438
 23
9616.824101455609
 33
0.0
 14
7387.866258868438
 24
9166.824101455608
 34
0.0
 50
90.0
100
AcDbRotatedDimension
1001
ACAD
1000
DSTYLE
1002
{
1002
}
  0
DIMENSION
  5
23E1E
330
747D
100
AcDbEntity
  8
寸法
100
AcDbDimension
  2
*D66
 10
7329.172762574471
 20
8947.776991212633
 30
0.0
 11
6914.213320986705
 21
8947.776991212633
 31
0.0
 70
   160
 71
     5
 42
853.0000000000116
  3
INABA_S40G
100
AcDbAlignedDimension
 13
6534.866258868436
 23
9166.824101455617
 33
0.0
 14
7387.866258868449
 24
9166.824101455611
 34
0.0
100
AcDbRotatedDimension
1001
ACAD
1000
DSTYLE
1002
{
1002
}
  0
DIMENSION
  5
23E1F
330
747D
100
AcDbEntity
  8
寸法
100
AcDbDimension
  2
*D67
 10
6449.172762574473
 20
8947.776991212526
 30
0.0
 11
6034.213320986706
 21
8947.776991212526
 31
0.0
 70
   160
 71
     5
 42
853.0000000000116
  3
INABA_S40G
100
AcDbAlignedDimension
 13
5654.866258868437
 23
9166.824101455508
 33
0.0
 14
6507.866258868451
 24
9166.824101455508
 34
0.0
100
AcDbRotatedDimension
1001
ACAD
1000
DSTYLE
1002
{
1002
}
  0
MTEXT
  5
23E20
330
747D
100
AcDbEntity
  8
寸法
 62
     7
 48
50.0
100
AcDbMText
 10
6094.081456941071
 20
9231.230370422643
 30
0.0
 40
96.0
 41
0.0
 71
     5
 72
     1
  1
棚 2段
  7
STYLE1
 73
     1
 44
1.0
1001
ACAD
1000
MTEXTBEGIN
1070
    73
1070
     1
1070
    44
1040
1.0
1070
    74
1070
     0
1000
MTEXTEND
  0
MTEXT
  5
23E21
330
747D
100
AcDbEntity
  8
寸法
 62
     7
 48
50.0
100
AcDbMText
 10
6974.08145694107
 20
9231.230370422689
 30
0.0
 40
96.0
 41
0.0
 71
     5
 72
     1
  1
棚 2段
  7
STYLE1
 73
     1
 44
1.0
1001
ACAD
1000
MTEXTBEGIN
1070
    73
1070
     1
1070
    44
1040
1.0
1070
    74
1070
     0
1000
MTEXTEND
  0
LINE
  5
241EA
102
{ACAD_REACTORS
330
24411
102
}
330
747D
100
AcDbEntity
  8
部品1
100
AcDbLine
 10
6497.322450783244
 20
8231.724101455576
 30
0.0
 11
5821.702376772826
 21
8231.724101455574
 31
0.0
  0
ARC
  5
241EB
102
{ACAD_REACTORS
330
24411
102
}
330
747D
100
AcDbEntity
  8
細線
100
AcDbCircle
 10
5671.474509926282
 20
8182.209077544246
 30
0.0
 40
155.4553048750133
100
AcDbArc
 50
358.4516507022735
 51
12.53243825242636
  0
LINE
  5
241EC
102
{ACAD_REACTORS
330
24411
102
}
330
747D
100
AcDbEntity
  8
細線
100
AcDbLine
 10
5834.865371868409
 20
8237.003191882896
 30
0.0
 11
5823.311627868412
 21
8232.809616282896
 31
0.0
  0
LINE
  5
241ED
102
{ACAD_REACTORS
330
24411
102
}
330
747D
100
AcDbEntity
  8
細線
100
AcDbLine
 10
5817.36567886841
 20
8217.503181682896
 30
0.0
 11
5820.818641868407
 21
8230.106460682895
 31
0.0
  0
ARC
  5
241EE
102
{ACAD_REACTORS
330
24411
102
}
330
747D
100
AcDbEntity
  8
細線
100
AcDbCircle
 10
5824.677568868416
 20
8229.050483682895
 30
0.0
 40
3.999999999998636
100
AcDbArc
 50
109.9490500000852
 51
164.6784299999538
  0
ARC
  5
241EF
102
{ACAD_REACTORS
330
24411
102
}
330
747D
100
AcDbEntity
  8
細線
100
AcDbCircle
 10
5780.05598686841
 20
8229.050514682898
 30
0.0
 40
3.999999999998636
100
AcDbArc
 50
15.32150999997468
 51
70.05086000006375
  0
LINE
  5
241F0
102
{ACAD_REACTORS
330
24411
102
}
330
747D
100
AcDbEntity
  8
細線
100
AcDbLine
 10
5787.366405868411
 20
8217.503709682899
 30
0.0
 11
5783.897010531103
 21
8230.166998996537
 31
0.0
  0
LINE
  5
241F1
102
{ACAD_REACTORS
330
24411
102
}
330
747D
100
AcDbEntity
  8
細線
100
AcDbLine
 10
5783.458192868407
 20
8217.503395682895
 30
0.0
 11
5821.274324868415
 21
8217.503395682895
 31
0.0
  0
ARC
  5
241F2
102
{ACAD_REACTORS
330
24411
102
}
330
747D
100
AcDbEntity
  8
細線
100
AcDbCircle
 10
5783.457536868411
 20
8215.503197682897
 30
0.0
 40
1.999999999999318
100
AcDbArc
 50
89.99952600012944
 51
167.3370140000029
  0
ARC
  5
241F3
102
{ACAD_REACTORS
330
24411
102
}
330
747D
100
AcDbEntity
  8
細線
100
AcDbCircle
 10
5821.273942868408
 20
8215.503166682896
 30
0.0
 40
1.999999999999318
100
AcDbArc
 50
12.66276999999267
 51
89.99963499967664
  0
LINE
  5
241F4
102
{ACAD_REACTORS
330
24411
102
}
330
747D
100
AcDbEntity
  8
部品1
100
AcDbLine
 10
5783.031206821449
 20
8231.724101455574
 30
0.0
 11
5677.366258868411
 21
8231.724101455574
 31
0.0
  0
ARC
  5
241F5
102
{ACAD_REACTORS
330
24411
102
}
330
747D
100
AcDbEntity
  8
細線
100
AcDbCircle
 10
5783.458574919293
 20
8290.614475337148
 30
0.0
 40
1.999999999999318
100
AcDbArc
 50
192.6627699999926
 51
269.9996349996766
  0
ARC
  5
241F6
102
{ACAD_REACTORS
330
24411
102
}
330
747D
100
AcDbEntity
  8
細線
100
AcDbCircle
 10
5821.274980919292
 20
8290.614444337149
 30
0.0
 40
1.999999999999318
100
AcDbArc
 50
269.9995260001295
 51
347.337014000003
  0
LINE
  5
241F7
102
{ACAD_REACTORS
330
24411
102
}
330
747D
100
AcDbEntity
  8
細線
100
AcDbLine
 10
5821.274324919294
 20
8288.614246337147
 30
0.0
 11
5783.458192919296
 21
8288.614246337147
 31
0.0
  0
ARC
  5
241F8
102
{ACAD_REACTORS
330
24411
102
}
330
747D
100
AcDbEntity
  8
細線
100
AcDbCircle
 10
5779.859453919295
 20
8328.115039337147
 30
0.0
 40
1.999999999999318
100
AcDbArc
 50
90.00070999991514
 51
180.1717199999486
  0
ARC
  5
241F9
102
{ACAD_REACTORS
330
24411
102
}
330
747D
100
AcDbEntity
  8
細線
100
AcDbCircle
 10
5824.874101919299
 20
8328.114978337147
 30
0.0
 40
1.999999999999318
100
AcDbArc
 50
359.8282257599598
 51
89.9999299997324
  0
LINE
  5
241FA
102
{ACAD_REACTORS
330
24411
102
}
330
747D
100
AcDbEntity
  8
細線
100
AcDbLine
 10
5824.873445919294
 20
8330.114246337149
 30
0.0
 11
5779.85907191929
 21
8330.114246337149
 31
0.0
  0
ARC
  5
241FB
102
{ACAD_REACTORS
330
24411
102
}
330
747D
100
AcDbEntity
  8
細線
100
AcDbCircle
 10
5933.258007861429
 20
8323.908564475798
 30
0.0
 40
155.4553048750251
100
AcDbArc
 50
178.4516507022735
 51
192.5324382524263
  0
ARC
  5
241FC
102
{ACAD_REACTORS
330
24411
102
}
330
747D
100
AcDbEntity
  8
細線
100
AcDbCircle
 10
5671.476077811052
 20
8323.908670672638
 30
0.0
 40
155.4547706600797
100
AcDbArc
 50
347.4674920061668
 51
1.548292275739649
  0
LINE
  5
241FD
102
{ACAD_REACTORS
330
24411
102
}
330
747D
100
AcDbEntity
  8
部品1
100
AcDbLine
 10
6526.366258868411
 20
8276.824101455575
 30
0.0
 11
6526.366258868411
 21
8231.724101455574
 31
0.0
  0
LINE
  5
241FE
102
{ACAD_REACTORS
330
24411
102
}
330
747D
100
AcDbEntity
  8
部品1
100
AcDbLine
 10
6526.366258868411
 20
8231.724101455576
 30
0.0
 11
6507.410066953578
 21
8231.724101455576
 31
0.0
  0
LINE
  5
241FF
102
{ACAD_REACTORS
330
24411
102
}
330
747D
100
AcDbEntity
  8
部品1
100
AcDbLine
 10
6506.366258868411
 20
8232.747576838553
 30
0.0
 11
6506.366258868411
 21
8274.324101455574
 31
0.0
  0
LINE
  5
24200
102
{ACAD_REACTORS
330
24411
102
}
330
747D
100
AcDbEntity
  8
部品1
100
AcDbLine
 10
6517.86625886841
 20
8274.324101455574
 30
0.0
 11
6517.86625886841
 21
8279.324101455575
 31
0.0
  0
LINE
  5
24201
102
{ACAD_REACTORS
330
24411
102
}
330
747D
100
AcDbEntity
  8
部品1
100
AcDbLine
 10
6517.86625886841
 20
8279.324101455575
 30
0.0
 11
6521.866258868411
 21
8279.324101455575
 31
0.0
  0
LINE
  5
24202
102
{ACAD_REACTORS
330
24411
102
}
330
747D
100
AcDbEntity
  8
部品1
100
AcDbLine
 10
6521.866258868411
 20
8279.324101455575
 30
0.0
 11
6521.866258868411
 21
8301.324101455573
 31
0.0
  0
LINE
  5
24203
102
{ACAD_REACTORS
330
24411
102
}
330
747D
100
AcDbEntity
  8
部品1
100
AcDbLine
 10
6521.866258868411
 20
8301.324101455573
 30
0.0
 11
6509.566258868408
 21
8301.324101455573
 31
0.0
  0
LINE
  5
24204
102
{ACAD_REACTORS
330
24411
102
}
330
747D
100
AcDbEntity
  8
部品1
100
AcDbLine
 10
6526.366258868411
 20
8274.324101455574
 30
0.0
 11
6506.066258868408
 21
8274.324101455574
 31
0.0
  0
LINE
  5
24205
102
{ACAD_REACTORS
330
24411
102
}
330
747D
100
AcDbEntity
  8
部品1
100
AcDbLine
 10
6507.566258868408
 20
8274.324101455574
 30
0.0
 11
6507.566258868408
 21
8304.824101455563
 31
0.0
  0
LINE
  5
24206
102
{ACAD_REACTORS
330
24411
102
}
330
747D
100
AcDbEntity
  8
部品1
100
AcDbLine
 10
5697.366258868411
 20
8231.724101455574
 30
0.0
 11
5697.366258868411
 21
8274.324101455574
 31
0.0
  0
LINE
  5
24207
102
{ACAD_REACTORS
330
24411
102
}
330
747D
100
AcDbEntity
  8
部品1
100
AcDbLine
 10
5696.166258868414
 20
8274.324101455574
 30
0.0
 11
5696.166258868414
 21
8304.824101455571
 31
0.0
  0
LINE
  5
24208
102
{ACAD_REACTORS
330
24411
102
}
330
747D
100
AcDbEntity
  8
部品1
100
AcDbLine
 10
5677.366258868411
 20
8274.324101455574
 30
0.0
 11
5697.666249320975
 21
8274.324101455574
 31
0.0
  0
LINE
  5
24209
102
{ACAD_REACTORS
330
24411
102
}
330
747D
100
AcDbEntity
  8
部品1
100
AcDbLine
 10
5681.866258868411
 20
8301.324101455573
 30
0.0
 11
5694.166249320975
 21
8301.324101455573
 31
0.0
  0
LINE
  5
2420A
102
{ACAD_REACTORS
330
24411
102
}
330
747D
100
AcDbEntity
  8
部品1
100
AcDbLine
 10
5681.866258868411
 20
8279.324101455575
 30
0.0
 11
5681.866258868411
 21
8301.324101455573
 31
0.0
  0
LINE
  5
2420B
102
{ACAD_REACTORS
330
24411
102
}
330
747D
100
AcDbEntity
  8
部品1
100
AcDbLine
 10
5685.866258868411
 20
8279.324101455575
 30
0.0
 11
5681.866258868411
 21
8279.324101455575
 31
0.0
  0
LINE
  5
2420C
102
{ACAD_REACTORS
330
24411
102
}
330
747D
100
AcDbEntity
  8
部品1
100
AcDbLine
 10
5685.866258868411
 20
8274.324101455574
 30
0.0
 11
5685.866258868411
 21
8279.324101455575
 31
0.0
  0
LINE
  5
2420D
102
{ACAD_REACTORS
330
24411
102
}
330
747D
100
AcDbEntity
  8
部品1
100
AcDbLine
 10
5677.366258868411
 20
8276.824101455575
 30
0.0
 11
5677.366258868411
 21
8231.724101455574
 31
0.0
  0
CIRCLE
  5
2420E
102
{ACAD_REACTORS
330
24411
102
}
330
747D
100
AcDbEntity
  8
細線
100
AcDbCircle
 10
6502.366258868412
 20
8227.624101455575
 30
0.0
 40
6.5
  0
LINE
  5
2420F
102
{ACAD_REACTORS
330
24411
102
}
330
747D
100
AcDbEntity
  8
部品1
100
AcDbLine
 10
6506.366258868411
 20
8233.101327030629
 30
0.0
 11
6506.366258868411
 21
8270.624101455574
 31
0.0
  0
LINE
  5
24210
102
{ACAD_REACTORS
330
24411
102
}
330
747D
100
AcDbEntity
  8
細線
100
AcDbLine
 10
6506.366258868411
 20
8270.624101455574
 30
0.0
 11
6502.366258868412
 21
8270.624101455574
 31
0.0
  0
LINE
  5
24211
102
{ACAD_REACTORS
330
24411
102
}
330
747D
100
AcDbEntity
  8
細線
100
AcDbLine
 10
6502.366258868412
 20
8270.624101455574
 30
0.0
 11
6502.366258868412
 21
8234.046717744908
 31
0.0
  0
LINE
  5
24212
102
{ACAD_REACTORS
330
24411
102
}
330
747D
100
AcDbEntity
  8
細線
100
AcDbLine
 10
6498.366258868411
 20
8233.101327030629
 30
0.0
 11
6498.366258868411
 21
8239.123569740794
 31
0.0
  0
LINE
  5
24213
102
{ACAD_REACTORS
330
24411
102
}
330
747D
100
AcDbEntity
  8
細線
100
AcDbLine
 10
5702.366258868411
 20
8239.123569740794
 30
0.0
 11
6502.366258868412
 21
8239.123569740794
 31
0.0
  0
LINE
  5
24214
102
{ACAD_REACTORS
330
24411
102
}
330
747D
100
AcDbEntity
  8
細線
100
AcDbLine
 10
5702.366258868411
 20
8267.123569740794
 30
0.0
 11
6502.366258868412
 21
8267.123569740794
 31
0.0
  0
LINE
  5
24215
102
{ACAD_REACTORS
330
24411
102
}
330
747D
100
AcDbEntity
  8
細線
100
AcDbLine
 10
6458.36625886841
 20
8239.123569740794
 30
0.0
 11
6458.36625886841
 21
8267.123569740794
 31
0.0
  0
LINE
  5
24216
102
{ACAD_REACTORS
330
24411
102
}
330
747D
100
AcDbEntity
  8
細線
100
AcDbLine
 10
5747.366396188411
 20
8239.123569740794
 30
0.0
 11
5747.366396188411
 21
8267.123569740794
 31
0.0
  0
LINE
  5
24217
102
{ACAD_REACTORS
330
24411
102
}
330
747D
100
AcDbEntity
  8
細線
100
AcDbLine
 10
5702.366258868411
 20
8267.123569740794
 30
0.0
 11
5702.366258868411
 21
8239.123569740794
 31
0.0
  0
LINE
  5
24218
102
{ACAD_REACTORS
330
24411
102
}
330
747D
100
AcDbEntity
  8
細線
100
AcDbLine
 10
5787.366405919298
 20
8288.613932337147
 30
0.0
 11
5783.913584919299
 21
8276.011139337148
 31
0.0
  0
LINE
  5
24219
102
{ACAD_REACTORS
330
24411
102
}
330
747D
100
AcDbEntity
  8
細線
100
AcDbLine
 10
5817.365678919292
 20
8288.614460337146
 30
0.0
 11
5820.818641919294
 21
8276.011181337148
 31
0.0
  0
ARC
  5
2421A
102
{ACAD_REACTORS
330
24411
102
}
330
747D
100
AcDbEntity
  8
細線
100
AcDbCircle
 10
5933.256439976643
 20
8182.208971347401
 30
0.0
 40
155.454770660076
100
AcDbArc
 50
167.4674920061668
 51
181.5482922757396
  0
LINE
  5
2421B
102
{ACAD_REACTORS
330
24411
102
}
330
747D
100
AcDbEntity
  8
細線
100
AcDbLine
 10
5779.859071868415
 20
8176.003395682895
 30
0.0
 11
5824.873445868407
 21
8176.003395682895
 31
0.0
  0
LINE
  5
2421C
102
{ACAD_REACTORS
330
24411
102
}
330
747D
100
AcDbEntity
  8
細線
100
AcDbLine
 10
5834.86563386841
 20
8237.002961482897
 30
0.0
 11
5834.86563386841
 21
8239.123569740794
 31
0.0
  0
LINE
  5
2421D
102
{ACAD_REACTORS
330
24411
102
}
330
747D
100
AcDbEntity
  8
細線
100
AcDbLine
 10
5834.865371919297
 20
8269.11445013715
 30
0.0
 11
5823.311627919292
 21
8273.308025737149
 31
0.0
  0
LINE
  5
2421E
102
{ACAD_REACTORS
330
24411
102
}
330
747D
100
AcDbEntity
  8
細線
100
AcDbLine
 10
5834.865633919299
 20
8269.11468053715
 30
0.0
 11
5834.865633919299
 21
8267.123569740794
 31
0.0
  0
ARC
  5
2421F
102
{ACAD_REACTORS
330
24411
102
}
330
747D
100
AcDbEntity
  8
細線
100
AcDbCircle
 10
5824.677568919289
 20
8277.067158337148
 30
0.0
 40
3.999999999998636
100
AcDbArc
 50
195.3215700000462
 51
250.0509499999147
  0
ARC
  5
24220
102
{ACAD_REACTORS
330
24411
102
}
330
747D
100
AcDbEntity
  8
細線
100
AcDbCircle
 10
5779.85841586841
 20
8178.002663682899
 30
0.0
 40
1.999999999999318
100
AcDbArc
 50
179.8282257599598
 51
269.9999299997324
  0
LINE
  5
24221
102
{ACAD_REACTORS
330
24411
102
}
330
747D
100
AcDbEntity
  8
細線
100
AcDbLine
 10
5769.866884868412
 20
8237.002961482897
 30
0.0
 11
5769.866884868412
 21
8239.123569740794
 31
0.0
  0
ARC
  5
24222
102
{ACAD_REACTORS
330
24411
102
}
330
747D
100
AcDbEntity
  8
細線
100
AcDbCircle
 10
5780.055986919297
 20
8277.067127337147
 30
0.0
 40
3.999999999998636
100
AcDbArc
 50
289.9491399999363
 51
344.6784900000253
  0
LINE
  5
24223
102
{ACAD_REACTORS
330
24411
102
}
330
747D
100
AcDbEntity
  8
細線
100
AcDbLine
 10
5781.420359919295
 20
8273.308416937146
 30
0.0
 11
5769.866619919298
 21
8269.114831737148
 31
0.0
  0
LINE
  5
24224
102
{ACAD_REACTORS
330
24411
102
}
330
747D
100
AcDbEntity
  8
細線
100
AcDbLine
 10
5769.866884919292
 20
8269.11468053715
 30
0.0
 11
5769.866884919292
 21
8267.123569740794
 31
0.0
  0
ARC
  5
24225
102
{ACAD_REACTORS
330
24411
102
}
330
747D
100
AcDbEntity
  8
細線
100
AcDbCircle
 10
5824.873063868409
 20
8178.002602682896
 30
0.0
 40
1.999999999999318
100
AcDbArc
 50
270.0007099999151
 51
0.1717199999486262
  0
LINE
  5
24226
102
{ACAD_REACTORS
330
24411
102
}
330
747D
100
AcDbEntity
  8
細線
100
AcDbLine
 10
5781.420359868413
 20
8232.809225082895
 30
0.0
 11
5769.866619868409
 21
8237.002810282895
 31
0.0
  0
LINE
  5
24227
102
{ACAD_REACTORS
330
24411
102
}
330
747D
100
AcDbEntity
  8
部品1
 48
0.3
100
AcDbLine
 10
6506.066258868408
 20
8274.324101455574
 30
0.0
 11
6506.066258868408
 21
8279.824101455577
 31
0.0
  0
LINE
  5
24228
102
{ACAD_REACTORS
330
24411
102
}
330
747D
100
AcDbEntity
  8
部品1
 48
0.3
100
AcDbLine
 10
6506.066258868408
 20
8279.824101455577
 30
0.0
 11
6509.566258868408
 21
8279.824101455577
 31
0.0
  0
LINE
  5
24229
102
{ACAD_REACTORS
330
24411
102
}
330
747D
100
AcDbEntity
  8
部品1
 48
0.3
100
AcDbLine
 10
6509.566258868408
 20
8279.824101455577
 30
0.0
 11
6509.566258868408
 21
8304.824101455563
 31
0.0
  0
LINE
  5
2422A
102
{ACAD_REACTORS
330
24411
102
}
330
747D
100
AcDbEntity
  8
部品1
 48
0.3
100
AcDbLine
 10
6506.066258868408
 20
8274.324101455574
 30
0.0
 11
5821.766273856194
 21
8274.324101455574
 31
0.0
  0
LINE
  5
2422B
102
{ACAD_REACTORS
330
24411
102
}
330
747D
100
AcDbEntity
  8
部品1
 48
0.3
100
AcDbLine
 10
5694.166249320975
 20
8279.824101455577
 30
0.0
 11
5694.166249320975
 21
8304.824101455571
 31
0.0
  0
LINE
  5
2422C
102
{ACAD_REACTORS
330
24411
102
}
330
747D
100
AcDbEntity
  8
部品1
 48
0.3
100
AcDbLine
 10
5697.666249320975
 20
8279.824101455577
 30
0.0
 11
5694.166249320975
 21
8279.824101455577
 31
0.0
  0
LINE
  5
2422D
102
{ACAD_REACTORS
330
24411
102
}
330
747D
100
AcDbEntity
  8
部品1
 48
0.3
100
AcDbLine
 10
5697.666249320975
 20
8274.324101455574
 30
0.0
 11
5697.666249320975
 21
8279.824101455577
 31
0.0
  0
LINE
  5
2422E
102
{ACAD_REACTORS
330
24411
102
}
330
747D
100
AcDbEntity
  8
部品1
100
AcDbLine
 10
6507.566231976607
 20
8304.824101455563
 30
0.0
 11
6544.438640850279
 21
8304.824101455563
 31
0.0
  0
LINE
  5
2422F
102
{ACAD_REACTORS
330
24411
102
}
330
747D
100
AcDbEntity
  8
部品1
100
AcDbLine
 10
6544.438640850279
 20
8304.824101455563
 30
0.0
 11
6553.171302386765
 21
8302.646804395168
 31
0.0
  0
LINE
  5
24230
102
{ACAD_REACTORS
330
24411
102
}
330
747D
100
AcDbEntity
  8
部品1
100
AcDbLine
 10
5659.293876886544
 20
8304.824101455563
 30
0.0
 11
5650.561215350057
 21
8302.646804395168
 31
0.0
  0
LINE
  5
24231
102
{ACAD_REACTORS
330
24411
102
}
330
747D
100
AcDbEntity
  8
部品1
100
AcDbLine
 10
5696.166285760215
 20
8304.824101455563
 30
0.0
 11
5659.293876886544
 21
8304.824101455563
 31
0.0
  0
LINE
  5
24232
102
{ACAD_REACTORS
330
24411
102
}
330
747D
100
AcDbEntity
  8
部品1
 48
0.3
100
AcDbLine
 10
5782.967311190645
 20
8274.324101455574
 30
0.0
 11
5697.666249320975
 21
8274.324101455574
 31
0.0
  0
LINE
  5
24233
102
{ACAD_REACTORS
330
24411
102
}
330
747D
100
AcDbEntity
  8
細線
100
AcDbLine
 10
5707.366243588412
 20
8239.123569740794
 30
0.0
 11
5707.366243588412
 21
8229.123569740794
 31
0.0
  0
LINE
  5
24234
102
{ACAD_REACTORS
330
24411
102
}
330
747D
100
AcDbEntity
  8
細線
100
AcDbLine
 10
5707.366243588412
 20
8229.123569740794
 30
0.0
 11
5692.366243588413
 21
8229.123569740794
 31
0.0
  0
DIMENSION
  5
24235
330
747D
100
AcDbEntity
  8
寸法
 48
50.0
100
AcDbDimension
  2
*D68
 10
5677.366258868411
 20
7766.803208696252
 30
0.0
 11
6101.866258868411
 21
7866.803208696253
 31
0.0
 70
    32
 71
     5
 42
849.0
  3
INABA_S40G
100
AcDbAlignedDimension
 13
6526.366258868411
 23
8231.724101455576
 33
0.0
 14
5677.366258868411
 24
8231.724101455574
 34
0.0
 50
180.0
100
AcDbRotatedDimension
1001
ACAD
1000
DSTYLE
1002
{
1070
   174
1070
     0
1070
   272
1070
     1
1070
   288
1070
     0
1070
   341
1005
0
1002
}
  0
LINE
  5
24237
102
{ACAD_REACTORS
330
24411
102
}
330
747D
100
AcDbEntity
  8
部品1
100
AcDbLine
 10
5778.978601960918
 20
8304.824101455563
 30
0.0
 11
5696.166285760215
 21
8304.824101455563
 31
0.0
  0
LINE
  5
2426C
102
{ACAD_REACTORS
330
24411
102
}
330
747D
100
AcDbEntity
  8
部品1
100
AcDbLine
 10
5681.866258868411
 20
8304.824101455563
 30
0.0
 11
5681.866258868411
 21
8276.824101455565
 31
0.0
  0
LINE
  5
2426E
102
{ACAD_REACTORS
330
24411
102
}
330
747D
100
AcDbEntity
  8
部品1
100
AcDbLine
 10
6521.866258868411
 20
8304.824101455563
 30
0.0
 11
6521.866258868411
 21
8276.824101455565
 31
0.0
  0
LINE
  5
24277
102
{ACAD_REACTORS
330
24380
102
}
330
747D
100
AcDbEntity
  8
部品1
100
AcDbLine
 10
5681.596575106989
 20
4940.000000000002
 30
0.0
 11
5681.596575106989
 21
3119.2
 31
0.0
  0
LINE
  5
24278
102
{ACAD_REACTORS
330
24380
102
}
330
747D
100
AcDbEntity
  8
部品1
100
AcDbLine
 10
5680.396575106992
 20
3145.2
 30
0.0
 11
6529.396575106985
 21
3145.2
 31
0.0
  0
LINE
  5
24279
102
{ACAD_REACTORS
330
24380
102
}
330
747D
100
AcDbEntity
  8
細線
100
AcDbLine
 10
6498.396575106991
 20
4686.500000000001
 30
0.0
 11
6498.396575106991
 21
4797.500000000002
 31
0.0
1001
GENIUS_GENREC_14
1002
{
1000
PYDIR
1011
6498.396575106991
1021
4686.500000000001
1031
0.0
1002
}
1002
{
1000
PXDIR
1011
6512.396575106992
1021
4797.500000000002
1031
0.0
1002
}
1002
{
1000
PORI
1011
6498.396575106991
1021
4797.500000000002
1031
0.0
1002
}
1002
{
1000
PINS
1011
6498.396575106991
1021
4797.500000000002
1031
0.0
1002
}
1002
{
1000
PINS2
1011
6512.396575106992
1021
4686.500000000001
1031
0.0
1002
}
1002
{
1000
C
1070
     1
1002
}
1001
GENIUS_GENODEF_13
1002
{
1000
HIER
1070
     0
1002
}
1002
{
1000
MANEDIT
1070
     0
1002
}
1002
{
1000
NOSEL
1070
     0
1002
}
1002
{
1000
BEHIND
1070
     0
1002
}
1002
{
1000
OTHER
1070
     0
1002
}
1002
{
1000
REACTOR
1002
}
1001
GENIUS_GENOBJ-N-REC_13
1002
{
1000
OWNER
1000
GEN
1002
}
  0
LINE
  5
2427A
102
{ACAD_REACTORS
330
24380
102
}
330
747D
100
AcDbEntity
  8
細線
100
AcDbLine
 10
6512.396575106992
 20
4686.500000000001
 30
0.0
 11
6498.396575106991
 21
4686.500000000001
 31
0.0
1001
GENIUS_GENREC_14
1002
{
1000
PYDIR
1011
6498.396575106991
1021
4686.500000000001
1031
0.0
1002
}
1002
{
1000
PXDIR
1011
6512.396575106992
1021
4797.500000000002
1031
0.0
1002
}
1002
{
1000
PORI
1011
6498.396575106991
1021
4797.500000000002
1031
0.0
1002
}
1002
{
1000
PINS
1011
6498.396575106991
1021
4797.500000000002
1031
0.0
1002
}
1002
{
1000
PINS2
1011
6512.396575106992
1021
4686.500000000001
1031
0.0
1002
}
1002
{
1000
C
1070
     1
1002
}
1001
GENIUS_GENODEF_13
1002
{
1000
HIER
1070
     0
1002
}
1002
{
1000
MANEDIT
1070
     0
1002
}
1002
{
1000
NOSEL
1070
     0
1002
}
1002
{
1000
BEHIND
1070
     0
1002
}
1002
{
1000
OTHER
1070
     0
1002
}
1002
{
1000
REACTOR
1002
}
1001
GENIUS_GENOBJ-N-REC_13
1002
{
1000
OWNER
1000
GEN
1002
}
  0
LINE
  5
2427B
102
{ACAD_REACTORS
330
24380
102
}
330
747D
100
AcDbEntity
  8
細線
100
AcDbLine
 10
6512.396575106992
 20
4797.500000000002
 30
0.0
 11
6512.396575106992
 21
4686.500000000001
 31
0.0
1001
GENIUS_GENREC_14
1002
{
1000
PYDIR
1011
6498.396575106991
1021
4686.500000000001
1031
0.0
1002
}
1002
{
1000
PXDIR
1011
6512.396575106992
1021
4797.500000000002
1031
0.0
1002
}
1002
{
1000
PORI
1011
6498.396575106991
1021
4797.500000000002
1031
0.0
1002
}
1002
{
1000
PINS
1011
6498.396575106991
1021
4797.500000000002
1031
0.0
1002
}
1002
{
1000
PINS2
1011
6512.396575106992
1021
4686.500000000001
1031
0.0
1002
}
1002
{
1000
C
1070
     1
1002
}
1001
GENIUS_GENODEF_13
1002
{
1000
HIER
1070
     0
1002
}
1002
{
1000
MANEDIT
1070
     0
1002
}
1002
{
1000
NOSEL
1070
     0
1002
}
1002
{
1000
BEHIND
1070
     0
1002
}
1002
{
1000
OTHER
1070
     0
1002
}
1002
{
1000
REACTOR
1002
}
1001
GENIUS_GENOBJ-N-REC_13
1002
{
1000
OWNER
1000
GEN
1002
}
  0
LINE
  5
2427C
102
{ACAD_REACTORS
330
24380
102
}
330
747D
100
AcDbEntity
  8
細線
100
AcDbLine
 10
6498.396575106991
 20
4797.500000000002
 30
0.0
 11
6512.396575106992
 21
4797.500000000002
 31
0.0
1001
GENIUS_GENREC_14
1002
{
1000
PYDIR
1011
6498.396575106991
1021
4686.500000000001
1031
0.0
1002
}
1002
{
1000
PXDIR
1011
6512.396575106992
1021
4797.500000000002
1031
0.0
1002
}
1002
{
1000
PORI
1011
6498.396575106991
1021
4797.500000000002
1031
0.0
1002
}
1002
{
1000
PINS
1011
6498.396575106991
1021
4797.500000000002
1031
0.0
1002
}
1002
{
1000
PINS2
1011
6512.396575106992
1021
4686.500000000001
1031
0.0
1002
}
1002
{
1000
C
1070
     1
1002
}
1001
GENIUS_GENODEF_13
1002
{
1000
HIER
1070
     0
1002
}
1002
{
1000
MANEDIT
1070
     0
1002
}
1002
{
1000
NOSEL
1070
     0
1002
}
1002
{
1000
BEHIND
1070
     0
1002
}
1002
{
1000
OTHER
1070
     0
1002
}
1002
{
1000
REACTOR
1002
}
1001
GENIUS_GENOBJ-N-REC_13
1002
{
1000
OWNER
1000
GEN
1002
}
  0
LINE
  5
2427D
102
{ACAD_REACTORS
330
24380
102
}
330
747D
100
AcDbEntity
  8
細線
100
AcDbLine
 10
6498.396575106991
 20
3266.500000000001
 30
0.0
 11
6498.396575106991
 21
3377.500000000001
 31
0.0
1001
GENIUS_GENREC_14
1002
{
1000
PYDIR
1011
6498.396575106991
1021
3266.500000000001
1031
0.0
1002
}
1002
{
1000
PXDIR
1011
6512.396575106992
1021
3377.500000000001
1031
0.0
1002
}
1002
{
1000
PORI
1011
6498.396575106991
1021
3377.500000000001
1031
0.0
1002
}
1002
{
1000
PINS
1011
6498.396575106991
1021
3377.500000000001
1031
0.0
1002
}
1002
{
1000
PINS2
1011
6512.396575106992
1021
3266.500000000001
1031
0.0
1002
}
1002
{
1000
C
1070
     1
1002
}
1001
GENIUS_GENODEF_13
1002
{
1000
HIER
1070
     0
1002
}
1002
{
1000
MANEDIT
1070
     0
1002
}
1002
{
1000
NOSEL
1070
     0
1002
}
1002
{
1000
BEHIND
1070
     0
1002
}
1002
{
1000
OTHER
1070
     0
1002
}
1002
{
1000
REACTOR
1002
}
1001
GENIUS_GENOBJ-N-REC_13
1002
{
1000
OWNER
1000
GEN
1002
}
  0
LINE
  5
2427E
102
{ACAD_REACTORS
330
24380
102
}
330
747D
100
AcDbEntity
  8
細線
100
AcDbLine
 10
6512.396575106992
 20
3266.500000000001
 30
0.0
 11
6498.396575106991
 21
3266.500000000001
 31
0.0
1001
GENIUS_GENREC_14
1002
{
1000
PYDIR
1011
6498.396575106991
1021
3266.500000000001
1031
0.0
1002
}
1002
{
1000
PXDIR
1011
6512.396575106992
1021
3377.500000000001
1031
0.0
1002
}
1002
{
1000
PORI
1011
6498.396575106991
1021
3377.500000000001
1031
0.0
1002
}
1002
{
1000
PINS
1011
6498.396575106991
1021
3377.500000000001
1031
0.0
1002
}
1002
{
1000
PINS2
1011
6512.396575106992
1021
3266.500000000001
1031
0.0
1002
}
1002
{
1000
C
1070
     1
1002
}
1001
GENIUS_GENODEF_13
1002
{
1000
HIER
1070
     0
1002
}
1002
{
1000
MANEDIT
1070
     0
1002
}
1002
{
1000
NOSEL
1070
     0
1002
}
1002
{
1000
BEHIND
1070
     0
1002
}
1002
{
1000
OTHER
1070
     0
1002
}
1002
{
1000
REACTOR
1002
}
1001
GENIUS_GENOBJ-N-REC_13
1002
{
1000
OWNER
1000
GEN
1002
}
  0
LINE
  5
2427F
102
{ACAD_REACTORS
330
24380
102
}
330
747D
100
AcDbEntity
  8
細線
100
AcDbLine
 10
6512.396575106992
 20
3377.500000000001
 30
0.0
 11
6512.396575106992
 21
3266.500000000001
 31
0.0
1001
GENIUS_GENREC_14
1002
{
1000
PYDIR
1011
6498.396575106991
1021
3266.500000000001
1031
0.0
1002
}
1002
{
1000
PXDIR
1011
6512.396575106992
1021
3377.500000000001
1031
0.0
1002
}
1002
{
1000
PORI
1011
6498.396575106991
1021
3377.500000000001
1031
0.0
1002
}
1002
{
1000
PINS
1011
6498.396575106991
1021
3377.500000000001
1031
0.0
1002
}
1002
{
1000
PINS2
1011
6512.396575106992
1021
3266.500000000001
1031
0.0
1002
}
1002
{
1000
C
1070
     1
1002
}
1001
GENIUS_GENODEF_13
1002
{
1000
HIER
1070
     0
1002
}
1002
{
1000
MANEDIT
1070
     0
1002
}
1002
{
1000
NOSEL
1070
     0
1002
}
1002
{
1000
BEHIND
1070
     0
1002
}
1002
{
1000
OTHER
1070
     0
1002
}
1002
{
1000
REACTOR
1002
}
1001
GENIUS_GENOBJ-N-REC_13
1002
{
1000
OWNER
1000
GEN
1002
}
  0
LINE
  5
24280
102
{ACAD_REACTORS
330
24380
102
}
330
747D
100
AcDbEntity
  8
細線
100
AcDbLine
 10
6498.396575106991
 20
3377.500000000001
 30
0.0
 11
6512.396575106992
 21
3377.500000000001
 31
0.0
1001
GENIUS_GENREC_14
1002
{
1000
PYDIR
1011
6498.396575106991
1021
3266.500000000001
1031
0.0
1002
}
1002
{
1000
PXDIR
1011
6512.396575106992
1021
3377.500000000001
1031
0.0
1002
}
1002
{
1000
PORI
1011
6498.396575106991
1021
3377.500000000001
1031
0.0
1002
}
1002
{
1000
PINS
1011
6498.396575106991
1021
3377.500000000001
1031
0.0
1002
}
1002
{
1000
PINS2
1011
6512.396575106992
1021
3266.500000000001
1031
0.0
1002
}
1002
{
1000
C
1070
     1
1002
}
1001
GENIUS_GENODEF_13
1002
{
1000
HIER
1070
     0
1002
}
1002
{
1000
MANEDIT
1070
     0
1002
}
1002
{
1000
NOSEL
1070
     0
1002
}
1002
{
1000
BEHIND
1070
     0
1002
}
1002
{
1000
OTHER
1070
     0
1002
}
1002
{
1000
REACTOR
1002
}
1001
GENIUS_GENOBJ-N-REC_13
1002
{
1000
OWNER
1000
GEN
1002
}
  0
LINE
  5
24281
102
{ACAD_REACTORS
330
24380
102
}
330
747D
100
AcDbEntity
  8
細線
100
AcDbLine
 10
6506.396575106977
 20
4797.500000000002
 30
0.0
 11
6506.396575106977
 21
4910.000000000002
 31
0.0
  0
LINE
  5
24282
102
{ACAD_REACTORS
330
24380
102
}
330
747D
100
AcDbEntity
  8
部品1
100
AcDbLine
 10
6509.396575106983
 20
4686.500000000001
 30
0.0
 11
6509.396575106983
 21
3377.500000000001
 31
0.0
  0
LINE
  5
24283
102
{ACAD_REACTORS
330
24380
102
}
330
747D
100
AcDbEntity
  8
細線
100
AcDbLine
 10
6506.396575106991
 20
3377.500000000001
 30
0.0
 11
6506.396575106977
 21
4686.500000000001
 31
0.0
  0
LINE
  5
24284
102
{ACAD_REACTORS
330
24380
102
}
330
747D
100
AcDbEntity
  8
部品1
100
AcDbLine
 10
6509.396575106983
 20
3266.500000000001
 30
0.0
 11
6509.396575106983
 21
3145.2
 31
0.0
  0
LINE
  5
24285
102
{ACAD_REACTORS
330
24380
102
}
330
747D
100
AcDbEntity
  8
細線
100
AcDbLine
 10
6498.396575106991
 20
3321.999999999999
 30
0.0
 11
6512.396575106992
 21
3321.999999999999
 31
0.0
  0
LINE
  5
24286
102
{ACAD_REACTORS
330
24380
102
}
330
747D
100
AcDbEntity
  8
細線
100
AcDbLine
 10
6498.396575106991
 20
4741.999999999998
 30
0.0
 11
6512.396575106992
 21
4741.999999999998
 31
0.0
  0
CIRCLE
  5
24287
102
{ACAD_REACTORS
330
24380
102
}
330
747D
100
AcDbEntity
  8
細線
100
AcDbCircle
 10
5805.396575106992
 20
4031.999999999999
 30
0.0
 40
30.0
  0
CIRCLE
  5
24288
102
{ACAD_REACTORS
330
24380
102
}
330
747D
100
AcDbEntity
  8
細線
100
AcDbCircle
 10
5805.396575106992
 20
4031.999999999999
 30
0.0
 40
24.0
  0
LINE
  5
24289
102
{ACAD_REACTORS
330
24380
102
}
330
747D
100
AcDbEntity
  8
部品1
100
AcDbLine
 10
5681.596575106989
 20
4931.400000000003
 30
0.0
 11
6528.196575106995
 21
4931.400000000003
 31
0.0
  0
LINE
  5
2428A
102
{ACAD_REACTORS
330
24380
102
}
330
747D
100
AcDbEntity
  8
部品1
100
AcDbLine
 10
5700.396575106992
 20
4910.000000000002
 30
0.0
 11
5700.396575106992
 21
4914.000000000002
 31
0.0
  0
LINE
  5
2428B
102
{ACAD_REACTORS
330
24380
102
}
330
747D
100
AcDbEntity
  8
細線
100
AcDbLine
 10
5695.396575106991
 20
4910.000000000002
 30
0.0
 11
5695.396575106991
 21
3154.000000000002
 31
0.0
  0
LINE
  5
2428C
102
{ACAD_REACTORS
330
24380
102
}
330
747D
100
AcDbEntity
  8
細線
100
AcDbLine
 10
5750.396575106992
 20
3989.499999999999
 30
0.0
 11
6461.396575106977
 21
3989.499999999999
 31
0.0
  0
LINE
  5
2428D
102
{ACAD_REACTORS
330
24380
102
}
330
747D
100
AcDbEntity
  8
細線
100
AcDbLine
 10
5750.396575106992
 20
4074.499999999999
 30
0.0
 11
6461.396575106977
 21
4074.499999999999
 31
0.0
  0
LINE
  5
2428E
102
{ACAD_REACTORS
330
24380
102
}
330
747D
100
AcDbEntity
  8
細線
100
AcDbLine
 10
5750.396575106992
 20
3244.000000000001
 30
0.0
 11
6461.396575106977
 21
3244.000000000001
 31
0.0
  0
LINE
  5
2428F
102
{ACAD_REACTORS
330
24380
102
}
330
747D
100
AcDbEntity
  8
部品1
100
AcDbLine
 10
5680.396575106992
 20
4934.450000000001
 30
0.0
 11
6529.396575106985
 21
4934.450000000001
 31
0.0
  0
LINE
  5
24290
102
{ACAD_REACTORS
330
24380
102
}
330
747D
100
AcDbEntity
  8
部品1
100
AcDbLine
 10
6509.396575106983
 20
4914.000000000002
 30
0.0
 11
6509.396575106983
 21
4797.500000000002
 31
0.0
  0
LINE
  5
24291
102
{ACAD_REACTORS
330
24380
102
}
330
747D
100
AcDbEntity
  8
部品1
100
AcDbLine
 10
5681.596575106989
 20
4914.000000000002
 30
0.0
 11
6528.196575106995
 21
4914.000000000002
 31
0.0
  0
LINE
  5
24292
102
{ACAD_REACTORS
330
24380
102
}
330
747D
100
AcDbEntity
  8
部品1
100
AcDbLine
 10
5700.396575106992
 20
3145.2
 30
0.0
 11
5700.396575106992
 21
3153.999999999998
 31
0.0
  0
LINE
  5
24293
102
{ACAD_REACTORS
330
24380
102
}
330
747D
100
AcDbEntity
  8
部品1
100
AcDbLine
 10
6528.196575106995
 20
3119.2
 30
0.0
 11
6528.196575106995
 21
4940.000000000002
 31
0.0
  0
LINE
  5
24294
102
{ACAD_REACTORS
330
24380
102
}
330
747D
100
AcDbEntity
  8
細線
100
AcDbLine
 10
5750.396575106992
 20
4820.000000000002
 30
0.0
 11
6461.396575106977
 21
4820.000000000002
 31
0.0
  0
LINE
  5
24295
102
{ACAD_REACTORS
330
24380
102
}
330
747D
100
AcDbEntity
  8
細線
100
AcDbLine
 10
6461.396575106977
 20
3154.000000000002
 30
0.0
 11
6461.396575106977
 21
4910.000000000002
 31
0.0
  0
LINE
  5
24296
102
{ACAD_REACTORS
330
24380
102
}
330
747D
100
AcDbEntity
  8
細線
100
AcDbLine
 10
5750.396575106992
 20
4910.000000000002
 30
0.0
 11
5750.396575106992
 21
3154.000000000002
 31
0.0
  0
LINE
  5
24297
102
{ACAD_REACTORS
330
24380
102
}
330
747D
100
AcDbEntity
  8
細線
100
AcDbLine
 10
6506.396575106977
 20
4910.000000000002
 30
0.0
 11
5695.396575106991
 21
4910.000000000002
 31
0.0
  0
LINE
  5
24298
102
{ACAD_REACTORS
330
24380
102
}
330
747D
100
AcDbEntity
  8
細線
100
AcDbLine
 10
6506.396575106977
 20
3154.000000000002
 30
0.0
 11
6506.396575106977
 21
3266.500000000001
 31
0.0
  0
LINE
  5
24299
102
{ACAD_REACTORS
330
24380
102
}
330
747D
100
AcDbEntity
  8
細線
100
AcDbLine
 10
5695.396575106991
 20
3154.000000000002
 30
0.0
 11
6506.396575106977
 21
3154.000000000002
 31
0.0
  0
LINE
  5
2429A
102
{ACAD_REACTORS
330
24380
102
}
330
747D
100
AcDbEntity
  8
細線
100
AcDbLine
 10
5710.396575106992
 20
4910.000000000002
 30
0.0
 11
5710.396575106992
 21
3154.000000000002
 31
0.0
  0
LINE
  5
2429B
102
{ACAD_REACTORS
330
24380
102
}
330
747D
100
AcDbEntity
  8
部品1
100
AcDbLine
 10
6529.396575106985
 20
3119.200000000002
 30
0.0
 11
6529.396575106985
 21
4934.450000000001
 31
0.0
  0
LINE
  5
2429C
102
{ACAD_REACTORS
330
24380
102
}
330
747D
100
AcDbEntity
  8
部品1
100
AcDbLine
 10
5680.396575106992
 20
3119.2
 30
0.0
 11
6529.396575106985
 21
3119.2
 31
0.0
  0
LINE
  5
2429D
102
{ACAD_REACTORS
330
24380
102
}
330
747D
100
AcDbEntity
  8
部品1
100
AcDbLine
 10
5680.396575106992
 20
4934.450000000001
 30
0.0
 11
5680.396575106992
 21
3119.200000000002
 31
0.0
  0
LINE
  5
242A5
330
747D
100
AcDbEntity
  8
部品1
 48
50.0
100
AcDbLine
 10
9355.69395691448
 20
4930.0
 30
0.0
 11
9310.69395691448
 21
4914.000000000005
 31
0.0
  0
LINE
  5
242A6
330
747D
100
AcDbEntity
  8
部品1
 48
50.0
100
AcDbLine
 10
9310.69395691448
 20
3119.200000000003
 30
0.0
 11
9355.69395691448
 21
3119.200000000003
 31
0.0
  0
LINE
  5
242A7
330
747D
100
AcDbEntity
  8
部品1
 48
50.0
100
AcDbLine
 10
9310.69395691448
 20
4914.000000000005
 30
0.0
 11
9310.69395691448
 21
3119.200000000003
 31
0.0
  0
LINE
  5
2435F
330
747D
100
AcDbEntity
  8
細線
 48
50.0
100
AcDbLine
 10
7022.396575106992
 20
4940.0
 30
0.0
 11
7022.396575106992
 21
3150.0
 31
0.0
  0
LINE
  5
24360
330
747D
100
AcDbEntity
  8
細線
 48
50.0
100
AcDbLine
 10
7007.396575106992
 20
4940.0
 30
0.0
 11
7007.396575106992
 21
3150.0
 31
0.0
  0
LINE
  5
24361
330
747D
100
AcDbEntity
  8
細線
 48
50.0
100
AcDbLine
 10
7147.396575106992
 20
4940.0
 30
0.0
 11
7147.396575106992
 21
3150.0
 31
0.0
  0
LINE
  5
24362
330
747D
100
AcDbEntity
  8
細線
 48
50.0
100
AcDbLine
 10
7162.396575106992
 20
4940.0
 30
0.0
 11
7162.396575106992
 21
3150.0
 31
0.0
  0
LINE
  5
24363
330
747D
100
AcDbEntity
  8
細線
 48
50.0
100
AcDbLine
 10
7302.396575106993
 20
4940.0
 30
0.0
 11
7302.396575106993
 21
3150.0
 31
0.0
  0
LINE
  5
24364
330
747D
100
AcDbEntity
  8
細線
 48
50.0
100
AcDbLine
 10
7287.396575106992
 20
4940.0
 30
0.0
 11
7287.396575106992
 21
3150.0
 31
0.0
  0
LINE
  5
24365
330
747D
100
AcDbEntity
  8
部品1
100
AcDbLine
 10
6944.896575106987
 20
4940.0
 30
0.0
 11
6944.896575106987
 21
3150.0
 31
0.0
  0
LINE
  5
2436C
330
747D
100
AcDbEntity
  8
細線
 48
50.0
100
AcDbLine
 10
6867.396575106988
 20
4940.0
 30
0.0
 11
6867.396575106988
 21
3150.0
 31
0.0
  0
LINE
  5
2436D
330
747D
100
AcDbEntity
  8
細線
 48
50.0
100
AcDbLine
 10
6882.396575106987
 20
4940.0
 30
0.0
 11
6882.396575106987
 21
3150.0
 31
0.0
  0
LINE
  5
2436E
330
747D
100
AcDbEntity
  8
細線
 48
50.0
100
AcDbLine
 10
6742.396575106988
 20
4940.0
 30
0.0
 11
6742.396575106988
 21
3150.0
 31
0.0
  0
LINE
  5
2436F
330
747D
100
AcDbEntity
  8
細線
 48
50.0
100
AcDbLine
 10
6727.396575106988
 20
4940.0
 30
0.0
 11
6727.396575106988
 21
3150.0
 31
0.0
  0
LINE
  5
24370
330
747D
100
AcDbEntity
  8
細線
 48
50.0
100
AcDbLine
 10
6587.396575106989
 20
4940.0
 30
0.0
 11
6587.396575106989
 21
3150.0
 31
0.0
  0
LINE
  5
24371
330
747D
100
AcDbEntity
  8
細線
 48
50.0
100
AcDbLine
 10
6602.396575106988
 20
4940.0
 30
0.0
 11
6602.396575106988
 21
3150.0
 31
0.0
  0
LINE
  5
24372
330
747D
100
AcDbEntity
  8
部品1
100
AcDbLine
 10
7364.896575106993
 20
4940.0
 30
0.0
 11
7364.896575106993
 21
3150.0
 31
0.0
  0
DIMENSION
  5
24381
330
747D
100
AcDbEntity
  8
寸法
 48
50.0
100
AcDbDimension
  2
*D69
 10
8833.818892322844
 20
3152.0
 30
0.0
 11
8733.818892322844
 21
4022.000000000001
 31
0.0
 70
    32
  1
有効開口部高サ<>
 71
     5
 42
1739.999999999999
  3
INABA_S40G
100
AcDbAlignedDimension
 13
9310.69395691448
 23
4891.999999999998
 33
0.0
 14
9310.69395691448
 24
3151.999999999999
 34
0.0
 50
90.0
100
AcDbRotatedDimension
1001
ACAD
1000
DSTYLE
1002
{
1070
   174
1070
     0
1070
   272
1070
     1
1070
   288
1070
     0
1070
   341
1005
0
1002
}
  0
LINE
  5
24424
330
747D
100
AcDbEntity
  8
部品1
 48
50.0
100
AcDbLine
 10
6941.866258868413
 20
8276.824101455693
 30
0.0
 11
6941.866258868412
 21
8304.824101455691
 31
0.0
  0
LINE
  5
24425
330
747D
100
AcDbEntity
  8
部品1
 48
50.0
100
AcDbLine
 10
6521.866258868413
 20
8276.824101455666
 30
0.0
 11
6521.866258868411
 21
8304.824101455663
 31
0.0
  0
LINE
  5
24426
330
747D
100
AcDbEntity
  8
部品1
 48
50.0
100
AcDbLine
 10
5825.754932288187
 20
8304.824101455578
 30
0.0
 11
7388.86625886842
 21
8304.82410145572
 31
0.0
  0
LINE
  5
24525
330
747D
100
AcDbEntity
  8
破線
 48
5.0
100
AcDbLine
 10
5519.896575106994
 20
3000.000000000002
 30
0.0
 11
5519.896575106995
 21
2800.0
 31
0.0
  0
LINE
  5
24526
330
747D
100
AcDbEntity
  8
破線
 48
5.0
100
AcDbLine
 10
5719.896575106993
 20
2800.0
 30
0.0
 11
5519.896575106995
 21
2800.0
 31
0.0
  0
LINE
  5
24527
330
747D
100
AcDbEntity
  8
破線
 48
5.0
100
AcDbLine
 10
5719.896575106993
 20
3000.000000000002
 30
0.0
 11
5719.896575106993
 21
2800.0
 31
0.0
  0
LINE
  5
24528
330
747D
100
AcDbEntity
  8
破線
 48
5.0
100
AcDbLine
 10
5624.896575106994
 20
3000.0
 30
0.0
 11
5624.896575106991
 21
2845.000000000002
 31
0.0
  0
LINE
  5
24529
330
747D
100
AcDbEntity
  8
破線
 48
5.0
100
AcDbLine
 10
5604.896575106992
 20
2845.000000000002
 30
0.0
 11
5624.896575106994
 21
2845.000000000002
 31
0.0
  0
LINE
  5
2452A
330
747D
100
AcDbEntity
  8
部品1
100
AcDbLine
 10
5624.896575106991
 20
3145.000000000002
 30
0.0
 11
5624.896575106994
 21
3000.0
 31
0.0
  0
LINE
  5
2452B
330
747D
100
AcDbEntity
  8
部品1
 48
50.0
100
AcDbLine
 10
6624.896575106991
 20
3100.0
 30
0.0
 11
6624.896575106991
 21
3000.0
 31
0.0
  0
LINE
  5
2452C
330
747D
100
AcDbEntity
  8
部品1
 48
50.0
100
AcDbLine
 10
6424.89657510699
 20
3100.0
 30
0.0
 11
6424.89657510699
 21
3000.0
 31
0.0
  0
LINE
  5
2452D
330
747D
100
AcDbEntity
  8
部品1
100
AcDbLine
 10
6029.896575106992
 20
3100.0
 30
0.0
 11
6029.896575106992
 21
3000.0
 31
0.0
  0
LINE
  5
2452E
330
747D
100
AcDbEntity
  8
部品1
100
AcDbLine
 10
7019.896575106992
 20
3100.0
 30
0.0
 11
7019.896575106992
 21
3000.0
 31
0.0
  0
LINE
  5
2452F
330
747D
100
AcDbEntity
  8
破線
 48
5.0
100
AcDbLine
 10
7519.89657510699
 20
2799.999999999998
 30
0.0
 11
7319.896575106993
 21
2799.999999999999
 31
0.0
  0
LINE
  5
24530
330
747D
100
AcDbEntity
  8
破線
 48
5.0
100
AcDbLine
 10
7519.896575106992
 20
3000.0
 30
0.0
 11
7519.89657510699
 21
2799.999999999998
 31
0.0
  0
LINE
  5
24531
330
747D
100
AcDbEntity
  8
破線
 48
5.0
100
AcDbLine
 10
7319.896575106992
 20
3000.0
 30
0.0
 11
7319.896575106993
 21
2799.999999999999
 31
0.0
  0
DIMENSION
  5
24532
330
747D
100
AcDbEntity
  8
寸法
 48
50.0
100
AcDbDimension
  2
*D71
 10
7319.896575106993
 20
2513.952670699622
 30
0.0
 11
7419.896575106992
 21
2513.952670699622
 31
0.0
 70
   160
 71
     5
 42
199.9999999999982
  3
INABA_S40G
100
AcDbAlignedDimension
 13
7519.89657510699
 23
2799.999999999998
 33
0.0
 14
7319.896575106993
 24
2799.999999999999
 34
0.0
100
AcDbRotatedDimension
  0
LINE
  5
24533
330
747D
100
AcDbEntity
  8
破線
 48
5.0
100
AcDbLine
 10
7424.896575106991
 20
3000.0
 30
0.0
 11
7424.896575106991
 21
2845.0
 31
0.0
  0
LINE
  5
24534
330
747D
100
AcDbEntity
  8
破線
 48
5.0
100
AcDbLine
 10
7444.896575106992
 20
2845.0
 30
0.0
 11
7424.896575106991
 21
2845.0
 31
0.0
  0
LINE
  5
24535
330
747D
100
AcDbEntity
  8
部品1
100
AcDbLine
 10
7424.896575106991
 20
3145.000000000001
 30
0.0
 11
7424.896575106991
 21
3000.0
 31
0.0
  0
LINE
  5
2458D
330
747D
100
AcDbEntity
  8
破線
  6
HIDDEN
 48
5.0
100
AcDbLine
 10
10733.19395691448
 20
2845.0
 30
0.0
 11
10663.19395691448
 21
2845.0
 31
0.0
  0
LINE
  5
2458E
330
747D
100
AcDbEntity
  8
破線
  6
HIDDEN
 48
5.0
100
AcDbLine
 10
10678.19395691448
 20
2995.0
 30
0.0
 11
10663.19395691448
 21
2847.3
 31
0.0
  0
LINE
  5
2458F
330
747D
100
AcDbEntity
  8
破線
  6
HIDDEN
 48
5.0
100
AcDbLine
 10
10663.19395691448
 20
2847.3
 30
0.0
 11
10663.19395691448
 21
2845.0
 31
0.0
  0
LINE
  5
24590
330
747D
100
AcDbEntity
  8
破線
  6
HIDDEN
 48
5.0
100
AcDbLine
 10
10718.19395691448
 20
2995.0
 30
0.0
 11
10733.19395691448
 21
2847.3
 31
0.0
  0
LINE
  5
24591
330
747D
100
AcDbEntity
  8
破線
  6
HIDDEN
 48
5.0
100
AcDbLine
 10
10733.19395691448
 20
2847.3
 30
0.0
 11
10733.19395691448
 21
2845.0
 31
0.0
  0
LINE
  5
24592
330
747D
100
AcDbEntity
  8
破線
 48
5.0
100
AcDbLine
 10
10798.19395691449
 20
3000.0
 30
0.0
 11
10798.19395691448
 21
2799.999999999998
 31
0.0
  0
LINE
  5
24593
330
747D
100
AcDbEntity
  8
破線
 48
5.0
100
AcDbLine
 10
10798.19395691448
 20
2799.999999999998
 30
0.0
 11
10598.19395691449
 21
2799.999999999999
 31
0.0
  0
LINE
  5
24594
330
747D
100
AcDbEntity
  8
破線
 48
5.0
100
AcDbLine
 10
10598.19395691449
 20
3000.0
 30
0.0
 11
10598.19395691449
 21
2799.999999999999
 31
0.0
  0
DIMENSION
  5
24595
330
747D
100
AcDbEntity
  8
寸法
 48
50.0
100
AcDbDimension
  2
*D72
 10
10448.69395366785
 20
2999.999999999987
 30
0.0
 11
10448.69395366785
 21
2899.999999999989
 31
0.0
 70
   160
 71
     5
 42
200.0000000000009
  3
INABA_S40G
100
AcDbAlignedDimension
 13
10598.19395691449
 23
2799.999999999986
 33
0.0
 14
10573.19395691448
 24
2999.999999999987
 34
0.0
 50
90.0
100
AcDbRotatedDimension
1001
ACAD
1000
DSTYLE
1002
{
1070
   174
1070
     0
1070
   272
1070
     1
1070
   288
1070
     0
1070
   341
1005
0
1002
}
  0
DIMENSION
  5
24596
330
747D
100
AcDbEntity
  8
寸法
 48
50.0
100
AcDbDimension
  2
*D73
 10
10598.19395691449
 20
2513.952670699609
 30
0.0
 11
10698.19395691448
 21
2513.952670699609
 31
0.0
 70
   160
 71
     5
 42
199.9999999999963
  3
INABA_S40G
100
AcDbAlignedDimension
 13
10798.19395691448
 23
2799.999999999986
 33
0.0
 14
10598.19395691449
 24
2799.999999999986
 34
0.0
100
AcDbRotatedDimension
  0
LINE
  5
24597
330
747D
100
AcDbEntity
  8
破線
  6
HIDDEN
 48
5.0
100
AcDbLine
 10
9348.19395691448
 20
2845.0
 30
0.0
 11
9418.19395691448
 21
2845.0
 31
0.0
  0
LINE
  5
24598
330
747D
100
AcDbEntity
  8
破線
  6
HIDDEN
 48
5.0
100
AcDbLine
 10
9348.19395691448
 20
2847.3
 30
0.0
 11
9348.19395691448
 21
2845.0
 31
0.0
  0
LINE
  5
24599
330
747D
100
AcDbEntity
  8
破線
  6
HIDDEN
 48
5.0
100
AcDbLine
 10
9418.193956914484
 20
2847.3
 30
0.0
 11
9418.19395691448
 21
2845.0
 31
0.0
  0
LINE
  5
2459A
330
747D
100
AcDbEntity
  8
破線
 48
5.0
100
AcDbLine
 10
9483.19395691448
 20
2799.999999999998
 30
0.0
 11
9283.193956914486
 21
2799.999999999999
 31
0.0
  0
LINE
  5
2459B
330
747D
100
AcDbEntity
  8
破線
  6
HIDDEN
 48
5.0
100
AcDbLine
 10
9403.193956914483
 20
2995.0
 30
0.0
 11
9418.193956914484
 21
2847.3
 31
0.0
  0
LINE
  5
2459C
330
747D
100
AcDbEntity
  8
破線
 48
5.0
100
AcDbLine
 10
9483.193956914483
 20
3000.0
 30
0.0
 11
9483.19395691448
 21
2799.999999999998
 31
0.0
  0
LINE
  5
2459D
330
747D
100
AcDbEntity
  8
破線
  6
HIDDEN
 48
5.0
100
AcDbLine
 10
9363.193956914484
 20
2995.000000000001
 30
0.0
 11
9348.19395691448
 21
2847.3
 31
0.0
  0
LINE
  5
2459E
330
747D
100
AcDbEntity
  8
破線
 48
5.0
100
AcDbLine
 10
9283.193956914484
 20
3000.0
 30
0.0
 11
9283.193956914486
 21
2799.999999999999
 31
0.0
  0
LINE
  5
2459F
330
747D
100
AcDbEntity
  8
破線
  6
HIDDEN
 48
5.0
100
AcDbLine
 10
9363.193956914489
 20
3000.0
 30
0.0
 11
9363.193956914489
 21
2995.000000000001
 31
0.0
  0
LINE
  5
245A0
330
747D
100
AcDbEntity
  8
破線
  6
HIDDEN
 48
5.0
100
AcDbLine
 10
9403.193956914483
 20
3000.0
 30
0.0
 11
9403.193956914483
 21
2995.0
 31
0.0
  0
LINE
  5
245A1
330
747D
100
AcDbEntity
  8
部品1
100
AcDbLine
 10
9355.693956914482
 20
3100.0
 30
0.0
 11
9363.193956914482
 21
3100.0
 31
0.0
  0
LINE
  5
245A2
330
747D
100
AcDbEntity
  8
部品1
 48
50.0
100
AcDbLine
 10
9363.19395691448
 20
3140.000000000001
 30
0.0
 11
9363.193956914484
 21
3000.0
 31
0.0
  0
LINE
  5
245A3
330
747D
100
AcDbEntity
  8
部品1
 48
50.0
100
AcDbLine
 10
9403.193956914483
 20
3140.0
 30
0.0
 11
9403.19395691448
 21
3000.0
 31
0.0
  0
LINE
  5
245A4
330
747D
100
AcDbEntity
  8
部品1
100
AcDbLine
 10
9368.193956914479
 20
3145.000000000001
 30
0.0
 11
9398.193956914484
 21
3145.0
 31
0.0
  0
ARC
  5
245A5
330
747D
100
AcDbEntity
  8
部品1
 48
50.0
100
AcDbCircle
 10
9368.193956914479
 20
3140.000000000001
 30
0.0
 40
5.0
100
AcDbArc
 50
90.0
 51
180.0
  0
ARC
  5
245A6
330
747D
100
AcDbEntity
  8
部品1
 48
50.0
100
AcDbCircle
 10
9398.193956914484
 20
3140.0
 30
0.0
 40
5.0
100
AcDbArc
 50
0.0
 51
90.0
  0
LINE
  5
245A7
330
747D
100
AcDbEntity
  8
部品1
100
AcDbLine
 10
9555.693956914479
 20
3100.0
 30
0.0
 11
9555.693956914479
 21
3000.0
 31
0.0
  0
LINE
  5
245A8
330
747D
100
AcDbEntity
  8
部品1
 48
50.0
100
AcDbLine
 10
10140.69395691448
 20
3100.0
 30
0.0
 11
10140.69395691448
 21
3000.0
 31
0.0
  0
LINE
  5
245A9
330
747D
100
AcDbEntity
  8
部品1
 48
50.0
100
AcDbLine
 10
9940.693956914479
 20
3100.0
 30
0.0
 11
9940.693956914479
 21
3000.0
 31
0.0
  0
LINE
  5
245AA
330
747D
100
AcDbEntity
  8
部品1
 48
50.0
100
AcDbLine
 10
10678.19395691448
 20
3140.0
 30
0.0
 11
10678.19395691448
 21
3000.0
 31
0.0
  0
LINE
  5
245AB
330
747D
100
AcDbEntity
  8
部品1
 48
50.0
100
AcDbLine
 10
10718.19395691448
 20
3140.0
 30
0.0
 11
10718.19395691448
 21
3000.0
 31
0.0
  0
LINE
  5
245AC
330
747D
100
AcDbEntity
  8
部品1
100
AcDbLine
 10
10713.19395691448
 20
3145.0
 30
0.0
 11
10683.19395691448
 21
3145.0
 31
0.0
  0
ARC
  5
245AD
330
747D
100
AcDbEntity
  8
部品1
 48
50.0
100
AcDbCircle
 10
10683.19395691448
 20
3140.0
 30
0.0
 40
5.0
100
AcDbArc
 50
90.0
 51
180.0
  0
ARC
  5
245AE
330
747D
100
AcDbEntity
  8
部品1
 48
50.0
100
AcDbCircle
 10
10713.19395691448
 20
3140.0
 30
0.0
 40
5.0
100
AcDbArc
 50
0.0
 51
90.0
  0
LINE
  5
245AF
330
747D
100
AcDbEntity
  8
破線
  6
HIDDEN
 48
5.0
100
AcDbLine
 10
10678.19395691448
 20
3000.0
 30
0.0
 11
10678.19395691448
 21
2995.0
 31
0.0
  0
LINE
  5
245B0
330
747D
100
AcDbEntity
  8
破線
  6
HIDDEN
 48
5.0
100
AcDbLine
 10
10718.19395691448
 20
3000.0
 30
0.0
 11
10718.19395691448
 21
2995.0
 31
0.0
  0
LINE
  5
245B1
330
747D
100
AcDbEntity
  8
部品1
100
AcDbLine
 10
10718.19395691448
 20
3100.0
 30
0.0
 11
10725.69395691448
 21
3100.0
 31
0.0
  0
LINE
  5
245B2
330
747D
100
AcDbEntity
  8
部品1
100
AcDbLine
 10
10525.69395691448
 20
3100.0
 30
0.0
 11
10525.69395691448
 21
3000.0
 31
0.0
  0
LINE
  5
24625
330
747D
100
AcDbEntity
  8
部品1
100
AcDbLine
 10
9403.19395691448
 20
3099.999999999915
 30
0.0
 11
10678.19395691448
 21
3099.999999999915
 31
0.0
  0
TEXT
  5
2469E
330
747D
100
AcDbEntity
  8
文字
 62
     7
 48
50.0
100
AcDbText
 10
13248.77747366447
 20
8890.013745883727
 30
0.0
 40
100.0
  1
14
  7
STYLE1
100
AcDbText
  0
TEXT
  5
2469F
330
747D
100
AcDbEntity
  8
文字
 62
     7
 48
50.0
100
AcDbText
 10
13248.77747366447
 20
8720.013745883727
 30
0.0
 40
100.0
  1
15
  7
STYLE1
100
AcDbText
  0
TEXT
  5
246A0
330
747D
100
AcDbEntity
  8
文字
 62
     7
 48
50.0
100
AcDbText
 10
15022.63965474517
 20
9230.013745883718
 30
0.0
 40
100.0
  1
発泡ポリプロピレン
  7
STYLE1
100
AcDbText
  0
LINE
  5
246A1
330
747D
100
AcDbEntity
  8
仕様書枠
 48
50.0
100
AcDbLine
 10
16307.19999999999
 20
9369.599999999996
 30
0.0
 11
13127.2
 21
9369.599999999996
 31
0.0
  0
LINE
  5
246A2
330
747D
100
AcDbEntity
  8
仕様書枠
 48
50.0
100
AcDbLine
 10
16307.19999999999
 20
9199.599999999994
 30
0.0
 11
13127.2
 21
9199.599999999996
 31
0.0
  0
TEXT
  5
246A3
330
747D
100
AcDbEntity
  8
文字
 62
     7
 48
50.0
100
AcDbText
 10
15022.63965474517
 20
9400.013745883718
 30
0.0
 40
100.0
  1
発泡ポリプロピレン
  7
STYLE1
100
AcDbText
  0
TEXT
  5
246A4
330
747D
100
AcDbEntity
  8
文字
 62
     7
 48
50.0
100
AcDbText
 10
13583.11819016569
 20
9400.013745883732
 30
0.0
 40
100.0
  1
内壁
  7
STYLE1
100
AcDbText
  0
TEXT
  5
246A5
330
747D
100
AcDbEntity
  8
文字
 62
     7
 48
50.0
100
AcDbText
 10
13583.11819016568
 20
9230.013745883733
 30
0.0
 40
100.0
  1
天井
  7
STYLE1
100
AcDbText
  0
TEXT
  5
246A6
330
747D
100
AcDbEntity
  8
文字
 62
     7
 48
50.0
100
AcDbText
 10
14841.17090485269
 20
9060.013745883724
 30
0.0
 40
100.0
  1
アルミニウム合金押出形材
  7
STYLE1
100
AcDbText
  0
TEXT
  5
246A7
330
747D
100
AcDbEntity
  8
文字
 62
     7
 48
50.0
100
AcDbText
 10
13583.11819016567
 20
9060.013745883733
 30
0.0
 40
100.0
  1
ドア枠
  7
STYLE1
100
AcDbText
  0
TEXT
  5
246A8
330
747D
100
AcDbEntity
  8
文字
 62
     7
 48
50.0
100
AcDbText
 10
13583.11819016567
 20
8889.494912885432
 30
0.0
 40
100.0
  1
ドア本体
  7
STYLE1
100
AcDbText
  0
TEXT
  5
246A9
330
747D
100
AcDbEntity
  8
文字
 62
     7
 48
50.0
100
AcDbText
 10
14841.17090485269
 20
8890.013745883726
 30
0.0
 40
100.0
  1
アルミニウム合金押出形材
  7
STYLE1
100
AcDbText
  0
TEXT
  5
246AA
330
747D
100
AcDbEntity
  8
文字
 62
     7
 48
50.0
100
AcDbText
 10
13583.11819016569
 20
9740.013745883732
 30
0.0
 40
100.0
  1
母屋中
  7
STYLE1
100
AcDbText
  0
LINE
  5
246AB
330
747D
100
AcDbEntity
  8
仕様書枠
 48
50.0
100
AcDbLine
 10
16307.19999999999
 20
8349.599999999997
 30
0.0
 11
13127.19999999999
 21
8349.599999999997
 31
0.0
  0
TEXT
  5
246AC
330
747D
100
AcDbEntity
  8
文字
 62
     7
 48
50.0
100
AcDbText
 10
15022.63965474517
 20
10590.01374588372
 30
0.0
 40
100.0
  1
F12            1.0
  7
STYLE1
100
AcDbText
  0
TEXT
  5
246AD
330
747D
100
AcDbEntity
  8
文字
 62
     7
 48
50.0
100
AcDbText
 10
15022.63965474516
 20
10930.01374588372
 30
0.0
 40
100.0
  1
F12            1.2
  7
STYLE1
100
AcDbText
  0
TEXT
  5
246AE
330
747D
100
AcDbEntity
  8
文字
 62
     7
 48
50.0
100
AcDbText
 10
13583.11819016569
 20
10930.01374588372
 30
0.0
 40
100.0
  1
根太
  7
STYLE1
100
AcDbText
  0
TEXT
  5
246AF
330
747D
100
AcDbEntity
  8
文字
 62
     7
 48
50.0
100
AcDbText
 10
13583.1181901657
 20
10590.01374588373
 30
0.0
 40
100.0
  1
床パネル
 41
0.9
  7
STYLE1
100
AcDbText
  0
LINE
  5
246B0
330
747D
100
AcDbEntity
  8
仕様書枠
 48
50.0
100
AcDbLine
 10
16307.19999999999
 20
8689.599999999996
 30
0.0
 11
13127.2
 21
8689.6
 31
0.0
  0
LINE
  5
246B1
330
747D
100
AcDbEntity
  8
仕様書枠
 48
50.0
100
AcDbLine
 10
13127.2
 20
11409.6
 30
0.0
 11
13127.19999999999
 21
8349.599999999997
 31
0.0
  0
TEXT
  5
246B2
330
747D
100
AcDbEntity
  8
文字
 62
     7
 48
50.0
100
AcDbText
 10
13229.83081656553
 20
8380.013745883724
 30
0.0
 40
100.0
  1
Y10→溶融亜鉛-5％アルミニウム合金めっき鋼板(JIS G 3317)
 41
0.9
  7
STYLE1
100
AcDbText
  0
TEXT
  5
246B3
330
747D
100
AcDbEntity
  8
文字
 62
     7
 48
50.0
100
AcDbText
 10
13229.83081656553
 20
8550.013745883726
 30
0.0
 40
100.0
  1
F12→溶融亜鉛めっき鋼板(JIS G 3302)
  7
STYLE1
100
AcDbText
  0
LINE
  5
246B4
330
747D
100
AcDbEntity
  8
仕様書枠
 48
50.0
100
AcDbLine
 10
16307.19999999999
 20
8519.599999999996
 30
0.0
 11
13127.19999999999
 21
8519.599999999996
 31
0.0
  0
LINE
  5
246B5
330
747D
100
AcDbEntity
  8
仕様書枠
 48
50.0
100
AcDbLine
 10
16307.19999999999
 20
8689.599999999996
 30
0.0
 11
13127.19999999999
 21
8689.6
 31
0.0
  0
TEXT
  5
246B6
330
747D
100
AcDbEntity
  8
文字
 62
     7
 48
50.0
100
AcDbText
 10
15022.63965474515
 20
9570.013745883729
 30
0.0
 40
100.0
  1
F12            0.6
  7
STYLE1
100
AcDbText
  0
TEXT
  5
246B7
330
747D
100
AcDbEntity
  8
文字
 62
     7
 48
50.0
100
AcDbText
 10
15022.63965474517
 20
9910.01374588373
 30
0.0
 40
100.0
  1
Y10            0.5
  7
STYLE1
100
AcDbText
  0
TEXT
  5
246B8
330
747D
100
AcDbEntity
  8
文字
 62
     7
 48
50.0
100
AcDbText
 10
15022.63965474517
 20
10080.01374588372
 30
0.0
 40
100.0
  1
Y10            0.7
  7
STYLE1
100
AcDbText
  0
TEXT
  5
246B9
330
747D
100
AcDbEntity
  8
文字
 62
     7
 48
50.0
100
AcDbText
 10
15022.63965474517
 20
10250.01374588372
 30
0.0
 40
100.0
  1
Y10            0.7
  7
STYLE1
100
AcDbText
  0
TEXT
  5
246BA
330
747D
100
AcDbEntity
  8
文字
 62
     7
 48
50.0
100
AcDbText
 10
15022.63965474517
 20
10420.01374588372
 30
0.0
 40
100.0
  1
Y10            1.0
  7
STYLE1
100
AcDbText
  0
TEXT
  5
246BB
330
747D
100
AcDbEntity
  8
文字
 62
     7
 48
50.0
100
AcDbText
 10
15022.63965474518
 20
10760.01374588372
 30
0.0
 40
100.0
  1
F12            1.0
  7
STYLE1
100
AcDbText
  0
TEXT
  5
246BC
330
747D
100
AcDbEntity
  8
文字
 62
     7
 48
50.0
100
AcDbText
 10
15022.63965474517
 20
11100.01374588372
 30
0.0
 40
100.0
  1
F12            1.2
  7
STYLE1
100
AcDbText
  0
TEXT
  5
246BD
330
747D
100
AcDbEntity
  8
文字
 62
     7
 48
50.0
100
AcDbText
 10
13248.77747366447
 20
9230.013745883729
 30
0.0
 40
100.0
  1
12
  7
STYLE1
100
AcDbText
  0
TEXT
  5
246BE
330
747D
100
AcDbEntity
  8
文字
 62
     7
 48
50.0
100
AcDbText
 10
13248.77747366447
 20
9060.013745883729
 30
0.0
 40
100.0
  1
13
  7
STYLE1
100
AcDbText
  0
LINE
  5
246BF
330
747D
100
AcDbEntity
  8
仕様書枠
 48
50.0
100
AcDbLine
 10
16307.19999999999
 20
8859.599999999995
 30
0.0
 11
13127.2
 21
8859.599999999998
 31
0.0
  0
TEXT
  5
246C0
330
747D
100
AcDbEntity
  8
文字
 62
     7
 48
50.0
100
AcDbText
 10
13248.77747366447
 20
9400.013745883729
 30
0.0
 40
100.0
  1
11
  7
STYLE1
100
AcDbText
  0
LINE
  5
246C1
330
747D
100
AcDbEntity
  8
仕様書枠
 48
50.0
100
AcDbLine
 10
16307.2
 20
9879.600000000001
 30
0.0
 11
13127.2
 21
9879.600000000001
 31
0.0
  0
LINE
  5
246C2
330
747D
100
AcDbEntity
  8
仕様書枠
 48
50.0
100
AcDbLine
 10
16307.2
 20
10219.6
 30
0.0
 11
13127.2
 21
10219.6
 31
0.0
  0
LINE
  5
246C3
330
747D
100
AcDbEntity
  8
仕様書枠
 48
50.0
100
AcDbLine
 10
16307.19999999999
 20
9539.599999999998
 30
0.0
 11
13127.2
 21
9539.6
 31
0.0
  0
LINE
  5
246C4
330
747D
100
AcDbEntity
  8
仕様書枠
 48
50.0
100
AcDbLine
 10
16307.19999999999
 20
9029.599999999993
 30
0.0
 11
13127.2
 21
9029.6
 31
0.0
  0
LINE
  5
246C5
330
747D
100
AcDbEntity
  8
仕様書枠
 48
50.0
100
AcDbLine
 10
16307.19999999999
 20
9709.600000000001
 30
0.0
 11
13127.2
 21
9709.600000000001
 31
0.0
  0
TEXT
  5
246C6
330
747D
100
AcDbEntity
  8
文字
 62
     7
 48
50.0
100
AcDbText
 10
13271.19032244792
 20
10250.01374588373
 30
0.0
 40
100.0
  1
6
  7
STYLE1
100
AcDbText
  0
TEXT
  5
246C7
330
747D
100
AcDbEntity
  8
文字
 62
     7
 48
50.0
100
AcDbText
 10
13271.19032244792
 20
10080.01374588373
 30
0.0
 40
100.0
  1
7
  7
STYLE1
100
AcDbText
  0
TEXT
  5
246C8
330
747D
100
AcDbEntity
  8
文字
 62
     7
 48
50.0
100
AcDbText
 10
13271.19032244792
 20
9740.013745883729
 30
0.0
 40
100.0
  1
9
  7
STYLE1
100
AcDbText
  0
TEXT
  5
246C9
330
747D
100
AcDbEntity
  8
文字
 62
     7
 48
50.0
100
AcDbText
 10
13271.19032244792
 20
9910.01374588373
 30
0.0
 40
100.0
  1
8
  7
STYLE1
100
AcDbText
  0
TEXT
  5
246CA
330
747D
100
AcDbEntity
  8
文字
 62
     7
 48
50.0
100
AcDbText
 10
13583.1181901657
 20
10080.01374588372
 30
0.0
 40
100.0
  1
鼻隠シ前後
  7
STYLE1
100
AcDbText
  0
TEXT
  5
246CB
330
747D
100
AcDbEntity
  8
文字
 62
     7
 48
50.0
100
AcDbText
 10
13583.11819016569
 20
9910.013745883732
 30
0.0
 40
100.0
  1
屋根パネル
  7
STYLE1
100
AcDbText
  0
TEXT
  5
246CC
330
747D
100
AcDbEntity
  8
文字
 62
     7
 48
50.0
100
AcDbText
 10
13583.11819016568
 20
9570.013745883732
 30
0.0
 40
100.0
  1
壁パネル
  7
STYLE1
100
AcDbText
  0
TEXT
  5
246CD
330
747D
100
AcDbEntity
  8
文字
 62
     7
 48
50.0
100
AcDbText
 10
13248.77747366447
 20
9570.013745883729
 30
0.0
 40
100.0
  1
10
  7
STYLE1
100
AcDbText
  0
TEXT
  5
246CE
330
747D
100
AcDbEntity
  8
文字
 62
     7
 48
50.0
100
AcDbText
 10
13583.1181901657
 20
10250.01374588373
 30
0.0
 40
100.0
  1
妻板左右
  7
STYLE1
100
AcDbText
  0
TEXT
  5
246CF
330
747D
100
AcDbEntity
  8
文字
 62
     7
 48
50.0
100
AcDbText
 10
13271.19032244792
 20
10420.01374588372
 30
0.0
 40
100.0
  1
5
  7
STYLE1
100
AcDbText
  0
TEXT
  5
246D0
330
747D
100
AcDbEntity
  8
文字
 62
     7
 48
50.0
100
AcDbText
 10
13583.1181901657
 20
10420.01374588373
 30
0.0
 40
100.0
  1
桁前後
  7
STYLE1
100
AcDbText
  0
TEXT
  5
246D1
330
747D
100
AcDbEntity
  8
文字
 62
     7
 48
50.0
100
AcDbText
 10
13583.1181901657
 20
10760.01374588372
 30
0.0
 40
100.0
  1
柱
  7
STYLE1
100
AcDbText
  0
TEXT
  5
246D2
330
747D
100
AcDbEntity
  8
文字
 62
     7
 48
50.0
100
AcDbText
 10
13583.11819016569
 20
11100.01374588373
 30
0.0
 40
100.0
  1
土台枠
  7
STYLE1
100
AcDbText
  0
TEXT
  5
246D3
330
747D
100
AcDbEntity
  8
文字
 62
     7
 48
50.0
100
AcDbText
 10
14859.79774614482
 20
11270.01374588372
 30
0.0
 40
100.0
  1
材料（材質）　　単位mm
  7
STYLE1
100
AcDbText
  0
TEXT
  5
246D4
330
747D
100
AcDbEntity
  8
文字
 62
     7
 48
50.0
100
AcDbText
 10
13732.03840939434
 20
11270.01374588372
 30
0.0
 40
100.0
  1
部　　品　　名
  7
STYLE1
100
AcDbText
  0
TEXT
  5
246D5
330
747D
100
AcDbEntity
  8
文字
 62
     7
 48
50.0
100
AcDbText
 10
13271.19032244792
 20
10760.01374588373
 30
0.0
 40
100.0
  1
3
  7
STYLE1
100
AcDbText
  0
TEXT
  5
246D6
330
747D
100
AcDbEntity
  8
文字
 62
     7
 48
50.0
100
AcDbText
 10
13271.19032244792
 20
10590.01374588373
 30
0.0
 40
100.0
  1
4
  7
STYLE1
100
AcDbText
  0
TEXT
  5
246D7
330
747D
100
AcDbEntity
  8
文字
 62
     7
 48
50.0
100
AcDbText
 10
13271.19032244792
 20
10930.01374588373
 30
0.0
 40
100.0
  1
2
  7
STYLE1
100
AcDbText
  0
TEXT
  5
246D8
330
747D
100
AcDbEntity
  8
文字
 62
     7
 48
50.0
100
AcDbText
 10
13271.19032244792
 20
11100.01374588373
 30
0.0
 40
100.0
  1
1
  7
STYLE1
100
AcDbText
  0
TEXT
  5
246D9
330
747D
100
AcDbEntity
  8
文字
 62
     7
 48
50.0
100
AcDbText
 10
13197.42518560407
 20
11270.01374588372
 30
0.0
 40
100.0
  1
品番
  7
STYLE1
100
AcDbText
  0
LINE
  5
246DA
330
747D
100
AcDbEntity
  8
仕様書枠
 48
50.0
100
AcDbLine
 10
16307.19999999999
 20
10729.6
 30
0.0
 11
13127.2
 21
10729.6
 31
0.0
  0
LINE
  5
246DB
330
747D
100
AcDbEntity
  8
仕様書枠
 48
50.0
100
AcDbLine
 10
16307.19999999999
 20
10389.6
 30
0.0
 11
13127.2
 21
10389.6
 31
0.0
  0
LINE
  5
246DC
330
747D
100
AcDbEntity
  8
仕様書枠
 48
50.0
100
AcDbLine
 10
16307.19999999999
 20
10559.6
 30
0.0
 11
13127.2
 21
10559.6
 31
0.0
  0
LINE
  5
246DD
330
747D
100
AcDbEntity
  8
仕様書枠
 48
50.0
100
AcDbLine
 10
16307.2
 20
11069.6
 30
0.0
 11
13127.2
 21
11069.6
 31
0.0
  0
LINE
  5
246DE
330
747D
100
AcDbEntity
  8
仕様書枠
 48
50.0
100
AcDbLine
 10
16307.2
 20
10899.6
 30
0.0
 11
13127.2
 21
10899.6
 31
0.0
  0
LINE
  5
246DF
330
747D
100
AcDbEntity
  8
仕様書枠
 48
50.0
100
AcDbLine
 10
16307.2
 20
11239.6
 30
0.0
 11
13127.2
 21
11239.6
 31
0.0
  0
LINE
  5
246E0
330
747D
100
AcDbEntity
  8
仕様書枠
 48
50.0
100
AcDbLine
 10
13490.2
 20
11409.6
 30
0.0
 11
13490.20000000001
 21
8689.6
 31
0.0
  0
LINE
  5
246E1
330
747D
100
AcDbEntity
  8
仕様書枠
 48
50.0
100
AcDbLine
 10
14785.2
 20
11409.59999999999
 30
0.0
 11
14785.2
 21
8689.599999999996
 31
0.0
  0
LINE
  5
246E2
330
747D
100
AcDbEntity
  8
仕様書枠
 48
50.0
100
AcDbLine
 10
16307.2
 20
11409.6
 30
0.0
 11
13127.2
 21
11409.6
 31
0.0
  0
LINE
  5
246E3
330
747D
100
AcDbEntity
  8
仕様書枠
 48
50.0
100
AcDbLine
 10
16307.2
 20
10049.6
 30
0.0
 11
13127.2
 21
10049.6
 31
0.0
  0
TEXT
  5
246E4
330
747D
100
AcDbEntity
  8
文字
 62
     7
 48
50.0
100
AcDbText
 10
15022.63965474515
 20
8720.01374588372
 30
0.0
 40
100.0
  1
F12            2.3
  7
STYLE1
100
AcDbText
  0
TEXT
  5
246E5
330
747D
100
AcDbEntity
  8
文字
 62
     7
 48
50.0
100
AcDbText
 10
13583.11819016569
 20
8720.013745883726
 30
0.0
 40
100.0
  1
アンカープレート
  7
STYLE1
100
AcDbText
  0
LINE
  5
246E6
330
747D
100
AcDbEntity
  8
仕様書枠
 48
50.0
100
AcDbLine
 10
16307.19999999999
 20
8689.599999999996
 30
0.0
 11
13127.2
 21
8689.599999999996
 31
0.0
  0
TEXT
  5
246E7
330
747D
100
AcDbEntity
  8
文字
 62
     7
 48
50.0
100
AcDbText
 10
15022.63965474517
 20
9740.013745883722
 30
0.0
 40
100.0
  1
F12            1.0
  7
STYLE1
100
AcDbText
  0
LINE
  5
246E8
330
747D
100
AcDbEntity
  8
仕様書枠
 48
50.0
100
AcDbLine
 10
16307.19999999999
 20
8349.599999999997
 30
0.0
 11
16307.2
 21
11409.6
 31
0.0
  0
LINE
  5
246E9
330
747D
100
AcDbEntity
  8
仕様書枠
 48
50.0
100
AcDbLine
 10
16307.19999999999
 20
8689.599999999995
 30
0.0
 11
16307.2
 21
11409.6
 31
0.0
  0
LINE
  5
24730
330
747D
100
AcDbEntity
  8
細線
100
AcDbLine
 10
6929.896575106991
 20
4999.500000000001
 30
0.0
 11
6929.896575106994
 21
4976.5
 31
0.0
  0
LINE
  5
24731
330
747D
100
AcDbEntity
  8
細線
100
AcDbLine
 10
6855.896575106993
 20
4987.5
 30
0.0
 11
6929.896575106991
 21
4987.5
 31
0.0
  0
LINE
  5
24732
330
747D
100
AcDbEntity
  8
細線
100
AcDbLine
 10
6855.896575106993
 20
4981.499999999999
 30
0.0
 11
6929.896575106991
 21
4981.5
 31
0.0
  0
LINE
  5
24733
330
747D
100
AcDbEntity
  8
細線
100
AcDbLine
 10
6855.896575106993
 20
4993.5
 30
0.0
 11
6929.896575106991
 21
4993.5
 31
0.0
  0
LINE
  5
24734
330
747D
100
AcDbEntity
  8
細線
100
AcDbLine
 10
7003.896575106992
 20
4993.5
 30
0.0
 11
6934.896575106994
 21
4993.5
 31
0.0
  0
LINE
  5
24735
330
747D
100
AcDbEntity
  8
細線
100
AcDbLine
 10
7003.896575106992
 20
4981.5
 30
0.0
 11
6929.896575106991
 21
4981.5
 31
0.0
  0
LINE
  5
24736
330
747D
100
AcDbEntity
  8
細線
100
AcDbLine
 10
7003.896575106992
 20
4987.5
 30
0.0
 11
6929.896575106991
 21
4987.5
 31
0.0
  0
LINE
  5
24737
330
747D
100
AcDbEntity
  8
細線
100
AcDbLine
 10
7003.896575106992
 20
4993.5
 30
0.0
 11
6929.896575106991
 21
4993.5
 31
0.0
  0
LINE
  5
24738
330
747D
100
AcDbEntity
  8
部品1
 48
0.01
100
AcDbLine
 10
7019.896575106992
 20
5004.0
 30
0.0
 11
7019.896575106992
 21
4972.5
 31
0.0
  0
LINE
  5
24739
330
747D
100
AcDbEntity
  8
部品1
 48
0.01
100
AcDbLine
 10
7017.896575106992
 20
4970.5
 30
0.0
 11
6841.896575106993
 21
4970.5
 31
0.0
  0
LINE
  5
2473A
330
747D
100
AcDbEntity
  8
部品1
 48
0.01
100
AcDbLine
 10
6839.896575106992
 20
4972.5
 30
0.0
 11
6839.896575106992
 21
5004.0
 31
0.0
  0
LINE
  5
2473B
330
747D
100
AcDbEntity
  8
細線
100
AcDbLine
 10
7003.896575106992
 20
4999.500000000001
 30
0.0
 11
7003.896575106992
 21
4976.5
 31
0.0
  0
LINE
  5
2473C
330
747D
100
AcDbEntity
  8
細線
100
AcDbLine
 10
6855.896575106992
 20
4976.5
 30
0.0
 11
6855.896575106992
 21
4999.500000000001
 31
0.0
  0
LINE
  5
2473D
330
747D
100
AcDbEntity
  8
細線
100
AcDbLine
 10
6855.896575106992
 20
4999.500000000001
 30
0.0
 11
6929.896575106991
 21
4999.500000000001
 31
0.0
  0
LINE
  5
2473E
330
747D
100
AcDbEntity
  8
細線
100
AcDbLine
 10
7003.896575106992
 20
4976.5
 30
0.0
 11
6929.896575106991
 21
4976.5
 31
0.0
  0
LINE
  5
2473F
330
747D
100
AcDbEntity
  8
細線
100
AcDbLine
 10
6929.896575106991
 20
4999.500000000001
 30
0.0
 11
7003.896575106992
 21
4999.500000000001
 31
0.0
  0
LINE
  5
24740
330
747D
100
AcDbEntity
  8
細線
100
AcDbLine
 10
6929.896575106994
 20
4976.5
 30
0.0
 11
6855.896575106992
 21
4976.5
 31
0.0
  0
ARC
  5
24741
330
747D
100
AcDbEntity
  8
部品1
 48
0.01
100
AcDbCircle
 10
7017.896575106992
 20
5004.0
 30
0.0
 40
2.0
100
AcDbArc
 50
0.0
 51
90.0
  0
ARC
  5
24742
330
747D
100
AcDbEntity
  8
部品1
 48
0.01
100
AcDbCircle
 10
7017.896575106992
 20
4972.5
 30
0.0
 40
2.0
100
AcDbArc
 50
270.0
 51
0.0
  0
ARC
  5
24743
330
747D
100
AcDbEntity
  8
部品1
 48
0.01
100
AcDbCircle
 10
6841.896575106992
 20
5004.0
 30
0.0
 40
2.0
100
AcDbArc
 50
90.0
 51
180.0
  0
ARC
  5
24744
330
747D
100
AcDbEntity
  8
部品1
 48
0.01
100
AcDbCircle
 10
6841.896575106993
 20
4972.5
 30
0.0
 40
2.0
100
AcDbArc
 50
180.0
 51
270.0
  0
LINE
  5
24745
330
747D
100
AcDbEntity
  8
部品1
 48
0.01
100
AcDbLine
 10
6841.896575106992
 20
5006.0
 30
0.0
 11
7017.896575106992
 21
5006.0
 31
0.0
  0
ARC
  5
24746
330
747D
100
AcDbEntity
  8
部品1
 48
0.01
100
AcDbCircle
 10
6207.896575106991
 20
4972.5
 30
0.0
 40
2.0
100
AcDbArc
 50
270.0
 51
0.0
  0
ARC
  5
24747
330
747D
100
AcDbEntity
  8
部品1
 48
0.01
100
AcDbCircle
 10
6207.896575106992
 20
5004.0
 30
0.0
 40
2.0
100
AcDbArc
 50
0.0
 51
90.0
  0
ARC
  5
24748
330
747D
100
AcDbEntity
  8
部品1
 48
0.01
100
AcDbCircle
 10
6031.896575106991
 20
4972.5
 30
0.0
 40
2.0
100
AcDbArc
 50
180.0
 51
270.0
  0
ARC
  5
24749
330
747D
100
AcDbEntity
  8
部品1
 48
0.01
100
AcDbCircle
 10
6031.896575106991
 20
5004.0
 30
0.0
 40
2.0
100
AcDbArc
 50
90.0
 51
180.0
  0
LINE
  5
2474A
330
747D
100
AcDbEntity
  8
細線
100
AcDbLine
 10
6119.896575106992
 20
4976.5
 30
0.0
 11
6193.896575106992
 21
4976.5
 31
0.0
  0
LINE
  5
2474B
330
747D
100
AcDbEntity
  8
細線
100
AcDbLine
 10
6119.896575106992
 20
4999.500000000001
 30
0.0
 11
6045.896575106992
 21
4999.500000000001
 31
0.0
  0
LINE
  5
2474C
330
747D
100
AcDbEntity
  8
細線
100
AcDbLine
 10
6045.896575106992
 20
4976.5
 30
0.0
 11
6119.896575106992
 21
4976.5
 31
0.0
  0
LINE
  5
2474D
330
747D
100
AcDbEntity
  8
細線
100
AcDbLine
 10
6193.896575106992
 20
4999.500000000001
 30
0.0
 11
6119.896575106992
 21
4999.500000000001
 31
0.0
  0
LINE
  5
2474E
330
747D
100
AcDbEntity
  8
細線
100
AcDbLine
 10
6193.896575106992
 20
4976.5
 30
0.0
 11
6193.896575106992
 21
4999.500000000001
 31
0.0
  0
LINE
  5
2474F
330
747D
100
AcDbEntity
  8
細線
100
AcDbLine
 10
6045.896575106992
 20
4999.500000000001
 30
0.0
 11
6045.896575106992
 21
4976.5
 31
0.0
  0
LINE
  5
24750
330
747D
100
AcDbEntity
  8
部品1
 48
0.01
100
AcDbLine
 10
6209.896575106991
 20
4972.5
 30
0.0
 11
6209.896575106991
 21
5004.0
 31
0.0
  0
LINE
  5
24751
330
747D
100
AcDbEntity
  8
部品1
 48
0.01
100
AcDbLine
 10
6031.896575106991
 20
4970.5
 30
0.0
 11
6207.896575106991
 21
4970.5
 31
0.0
  0
LINE
  5
24752
330
747D
100
AcDbEntity
  8
部品1
 48
0.01
100
AcDbLine
 10
6029.896575106992
 20
5004.0
 30
0.0
 11
6029.896575106992
 21
4972.5
 31
0.0
  0
LINE
  5
24753
330
747D
100
AcDbEntity
  8
部品1
 48
0.01
100
AcDbLine
 10
6207.896575106992
 20
5006.0
 30
0.0
 11
6031.896575106991
 21
5006.0
 31
0.0
  0
LINE
  5
24754
330
747D
100
AcDbEntity
  8
細線
100
AcDbLine
 10
6045.896575106992
 20
4993.5
 30
0.0
 11
6119.896575106992
 21
4993.5
 31
0.0
  0
LINE
  5
24755
330
747D
100
AcDbEntity
  8
細線
100
AcDbLine
 10
6045.896575106992
 20
4987.5
 30
0.0
 11
6119.896575106992
 21
4987.5
 31
0.0
  0
LINE
  5
24756
330
747D
100
AcDbEntity
  8
細線
100
AcDbLine
 10
6045.896575106991
 20
4981.5
 30
0.0
 11
6119.896575106992
 21
4981.5
 31
0.0
  0
LINE
  5
24757
330
747D
100
AcDbEntity
  8
細線
100
AcDbLine
 10
6045.896575106992
 20
4993.5
 30
0.0
 11
6114.896575106992
 21
4993.5
 31
0.0
  0
LINE
  5
24758
330
747D
100
AcDbEntity
  8
細線
100
AcDbLine
 10
6193.89657510699
 20
4993.5
 30
0.0
 11
6119.896575106992
 21
4993.5
 31
0.0
  0
LINE
  5
24759
330
747D
100
AcDbEntity
  8
細線
100
AcDbLine
 10
6193.89657510699
 20
4981.499999999999
 30
0.0
 11
6119.896575106992
 21
4981.5
 31
0.0
  0
LINE
  5
2475A
330
747D
100
AcDbEntity
  8
細線
100
AcDbLine
 10
6193.89657510699
 20
4987.5
 30
0.0
 11
6119.896575106992
 21
4987.5
 31
0.0
  0
LINE
  5
2475B
330
747D
100
AcDbEntity
  8
細線
100
AcDbLine
 10
6119.896575106992
 20
4999.500000000001
 30
0.0
 11
6119.896575106992
 21
4976.5
 31
0.0
  0
DIMENSION
  5
2479F
330
747D
100
AcDbEntity
  8
寸法
 48
50.0
100
AcDbDimension
  2
*D77
 10
11167.6396929294
 20
4935.0
 30
0.0
 11
11067.6396929294
 21
4042.500000000003
 31
0.0
 70
    32
  1
内高　<>
 71
     5
 42
1785.0
  3
INABA_S40G
100
AcDbAlignedDimension
 13
10725.69395691447
 23
3150.0
 33
0.0
 14
10725.69395691447
 24
4935.0
 34
0.0
 50
90.0
100
AcDbRotatedDimension
1001
ACAD
1000
DSTYLE
1002
{
1070
   174
1070
     0
1070
   272
1070
     1
1070
   288
1070
     0
1070
   341
1005
0
1002
}
  0
DIMENSION
  5
247B5
330
747D
100
AcDbEntity
  8
寸法
 48
50.0
100
AcDbDimension
  2
*D78
 10
5309.036627442075
 20
8231.824101455574
 30
0.0
 11
5309.036627442074
 21
7917.338820081337
 31
0.0
 70
   160
 71
     5
 42
44.99999999998728
  3
INABA_S40G
100
AcDbAlignedDimension
 13
5626.866258868416
 23
8276.824101455563
 33
0.0
 14
5677.366258868411
 24
8231.824101455574
 34
0.0
 50
90.0
100
AcDbRotatedDimension
1001
ACAD
1000
DSTYLE
1002
{
1070
   174
1070
     0
1070
   272
1070
     1
1070
   288
1070
     0
1070
   341
1005
0
1002
}
  0
ENDSEC
  0
SECTION
  2
OBJECTS
  0
DICTIONARY
  5
7471
330
0
100
AcDbDictionary
281
     1
  3
ACAD_CIP_PREVIOUS_PRODUCT_INFO
350
24852
  3
ACAD_COLOR
350
159B0
  3
ACAD_DETAILVIEWSTYLE
350
24847
  3
ACAD_GROUP
350
7472
  3
ACAD_LAYOUT
350
159B1
  3
ACAD_MATERIAL
350
159AF
  3
ACAD_MLEADERSTYLE
350
24843
  3
ACAD_MLINESTYLE
350
7473
  3
ACAD_PLOTSETTINGS
350
159B2
  3
ACAD_PLOTSTYLENAME
350
159AD
  3
ACAD_SCALELIST
350
24831
  3
ACAD_SECTIONVIEWSTYLE
350
24845
  3
ACAD_TABLESTYLE
350
2482F
  3
ACAD_VISUALSTYLE
350
24816
  3
ACDB_RECOMPOSE_DATA
350
24914
  3
AcDbVariableDictionary
350
248A5
  3
CONTENTDICTIONARY
350
E71C
  3
DRAWINGVARIABLESDICT
350
F3B9
  3
DWGPROPS
350
24915
  0
DICTIONARY
  5
1D35E
330
7467
100
AcDbDictionary
280
     1
281
     1
  3
ACAD_LAYERSTATES
360
1D35F
  0
DICTIONARY
  5
2485E
330
7474
100
AcDbDictionary
280
     1
281
     1
  3
ADSK_XREC_LAYER_RECONCILED
360
2485F
  0
DICTIONARY
  5
24860
330
DEB3
100
AcDbDictionary
280
     1
281
     1
  3
ADSK_XREC_LAYER_RECONCILED
360
24861
  0
DICTIONARY
  5
24862
330
DEB4
100
AcDbDictionary
280
     1
281
     1
  3
ADSK_XREC_LAYER_RECONCILED
360
24863
  0
DICTIONARY
  5
24864
330
DEB5
100
AcDbDictionary
280
     1
281
     1
  3
ADSK_XREC_LAYER_RECONCILED
360
24865
  0
DICTIONARY
  5
24866
330
DEB6
100
AcDbDictionary
280
     1
281
     1
  3
ADSK_XREC_LAYER_RECONCILED
360
24867
  0
DICTIONARY
  5
24868
330
10B54
100
AcDbDictionary
280
     1
281
     1
  3
ADSK_XREC_LAYER_RECONCILED
360
24869
  0
DICTIONARY
  5
2486A
330
11729
100
AcDbDictionary
280
     1
281
     1
  3
ADSK_XREC_LAYER_RECONCILED
360
2486B
  0
DICTIONARY
  5
2486C
330
1173F
100
AcDbDictionary
280
     1
281
     1
  3
ADSK_XREC_LAYER_RECONCILED
360
2486D
  0
DICTIONARY
  5
2486E
330
142E2
100
AcDbDictionary
280
     1
281
     1
  3
ADSK_XREC_LAYER_RECONCILED
360
2486F
  0
XRECORD
  5
24852
102
{ACAD_REACTORS
330
7471
102
}
330
7471
100
AcDbXrecord
280
     1
300
ACDLT
300
2014
300
ACDLT_F_S
  0
DICTIONARY
  5
159B0
102
{ACAD_REACTORS
330
7471
102
}
330
7471
100
AcDbDictionary
281
     1
  0
DICTIONARY
  5
24847
102
{ACAD_REACTORS
330
7471
102
}
330
7471
100
AcDbDictionary
281
     1
  3
Metric50
350
24848
  0
DICTIONARY
  5
7472
102
{ACAD_REACTORS
330
7471
102
}
330
7471
100
AcDbDictionary
281
     1
  3
*A1
350
23DC8
  3
*A2
350
24380
  3
*A3
350
24411
  0
DICTIONARY
  5
159B1
102
{ACAD_REACTORS
330
7471
102
}
330
7471
100
AcDbDictionary
281
     1
  3
Model
350
159B3
  3
レイアウト1
350
159B4
  0
DICTIONARY
  5
159AF
102
{ACAD_REACTORS
330
7471
102
}
330
7471
100
AcDbDictionary
281
     1
  3
ByBlock
350
24806
  3
ByLayer
350
247FE
  3
Global
350
2480E
  0
DICTIONARY
  5
24843
102
{ACAD_REACTORS
330
7471
102
}
330
7471
100
AcDbDictionary
281
     1
  3
Standard
350
24844
  0
DICTIONARY
  5
7473
102
{ACAD_REACTORS
330
7471
102
}
330
7471
100
AcDbDictionary
281
     1
  3
STANDARD
350
7480
  0
DICTIONARY
  5
159B2
102
{ACAD_REACTORS
330
7471
102
}
330
7471
100
AcDbDictionary
281
     1
  0
ACDBDICTIONARYWDFLT
  5
159AD
102
{ACAD_REACTORS
330
7471
102
}
330
7471
100
AcDbDictionary
281
     1
  3
Normal
350
159AE
100
AcDbDictionaryWithDefault
340
159AE
  0
DICTIONARY
  5
24831
102
{ACAD_REACTORS
330
7471
102
}
330
7471
100
AcDbDictionary
281
     1
  3
A0
350
24832
  3
A1
350
24833
  3
A2
350
24834
  3
A3
350
24835
  3
A4
350
24836
  3
A5
350
24837
  3
A6
350
24838
  3
A7
350
24839
  3
A8
350
2483A
  3
A9
350
2483B
  3
B0
350
2483C
  3
B1
350
2483D
  3
B2
350
2483E
  3
B3
350
2483F
  3
B4
350
24840
  3
B5
350
24841
  3
B6
350
24842
  0
DICTIONARY
  5
24845
102
{ACAD_REACTORS
330
7471
102
}
330
7471
100
AcDbDictionary
281
     1
  3
Metric50
350
24846
  0
DICTIONARY
  5
2482F
102
{ACAD_REACTORS
330
7471
102
}
330
7471
100
AcDbDictionary
281
     1
  3
Standard
350
24830
  0
DICTIONARY
  5
24816
102
{ACAD_REACTORS
330
7471
102
}
330
7471
100
AcDbDictionary
281
     1
  3
2dWireframe
350
2481C
  3
Basic
350
2481B
  3
Brighten
350
24822
  3
ColorChange
350
24826
  3
Conceptual
350
2481F
  3
Dim
350
24821
  3
EdgeColorOff
350
2482E
  3
Facepattern
350
24825
  3
Flat
350
24817
  3
FlatWithEdges
350
24818
  3
Gouraud
350
24819
  3
GouraudWithEdges
350
2481A
  3
Hidden
350
2481E
  3
JitterOff
350
2482C
  3
Linepattern
350
24824
  3
OverhangOff
350
2482D
  3
Realistic
350
24820
  3
Shaded
350
2482B
  3
Shaded with edges
350
2482A
  3
Shades of Gray
350
24827
  3
Sketchy
350
24828
  3
Thicken
350
24823
  3
Wireframe
350
2481D
  3
X-Ray
350
24829
  0
XRECORD
  5
24914
102
{ACAD_REACTORS
330
7471
102
}
330
7471
100
AcDbXrecord
280
     1
 90
        1
330
24830
  0
DICTIONARY
  5
248A5
102
{ACAD_REACTORS
330
7471
102
}
330
7471
100
AcDbDictionary
281
     1
  3
CANNOSCALE
350
248AB
  3
CMLEADERSTYLE
350
248A7
  3
CTABLESTYLE
350
248A6
  3
CVIEWDETAILSTYLE
350
248A8
  3
CVIEWSECTIONSTYLE
350
248A9
  3
DIMASSOC
350
248BC
  3
INDEXCTL
350
248BA
  3
LAYEREVAL
350
248AD
  3
LAYERNOTIFY
350
248AE
  3
LIGHTINGUNITS
350
248AC
  3
MSLTSCALE
350
248AA
  3
SORTENTS
350
248B9
  3
XCLIPFRAME
350
24912
  0
DICTIONARY
  5
E71C
102
{ACAD_REACTORS
330
7471
102
}
330
7471
100
AcDbDictionary
281
     1
  0
DICTIONARY
  5
F3B9
102
{ACAD_REACTORS
330
7471
102
}
330
7471
100
AcDbDictionary
281
     1
1001
DRAWINGVARIABLESXDATA
1000
POLARMODE
1000
1
  0
XRECORD
  5
24915
102
{ACAD_REACTORS
330
7471
102
}
330
7471
100
AcDbXrecord
280
     1
  1
DWGPROPS COOKIE
  2

  3

  4

  6

  7

  8
ishizaki
  9

300
=
301
=
302
=
303
=
304
=
305
=
306
=
307
=
308
=
309
=
 40
1.41999380787037
 41
2451368.612993866
 42
2457366.586621736
  1

 90
        0
  0
DICTIONARY
  5
1D35F
102
{ACAD_REACTORS
330
1D35E
102
}
330
1D35E
100
AcDbDictionary
281
     1
  0
XRECORD
  5
2485F
102
{ACAD_REACTORS
330
2485E
102
}
330
2485E
100
AcDbXrecord
280
     1
290
     1
  0
XRECORD
  5
24861
102
{ACAD_REACTORS
330
24860
102
}
330
24860
100
AcDbXrecord
280
     1
290
     1
  0
XRECORD
  5
24863
102
{ACAD_REACTORS
330
24862
102
}
330
24862
100
AcDbXrecord
280
     1
290
     1
  0
XRECORD
  5
24865
102
{ACAD_REACTORS
330
24864
102
}
330
24864
100
AcDbXrecord
280
     1
290
     1
  0
XRECORD
  5
24867
102
{ACAD_REACTORS
330
24866
102
}
330
24866
100
AcDbXrecord
280
     1
290
     1
  0
XRECORD
  5
24869
102
{ACAD_REACTORS
330
24868
102
}
330
24868
100
AcDbXrecord
280
     1
290
     1
  0
XRECORD
  5
2486B
102
{ACAD_REACTORS
330
2486A
102
}
330
2486A
100
AcDbXrecord
280
     1
290
     1
  0
XRECORD
  5
2486D
102
{ACAD_REACTORS
330
2486C
102
}
330
2486C
100
AcDbXrecord
280
     1
290
     1
  0
XRECORD
  5
2486F
102
{ACAD_REACTORS
330
2486E
102
}
330
2486E
100
AcDbXrecord
280
     1
290
     1
  0
ACDBDETAILVIEWSTYLE
  5
24848
102
{ACAD_XDICTIONARY
360
2494F
102
}
102
{ACAD_REACTORS
330
24847
102
}
330
24847
100
AcDbModelDocViewStyle
 70
     0
  3
Metric50
290
     0
100
AcDbDetailViewStyle
 70
     0
 71
     0
 90
        3
 71
     1
340
7475
 40
5.0
340
0
 40
5.0
300

 40
0.0
280
     1
 71
     2
340
7479
 90
       25
 71
     3
340
7475
 40
5.0
 90
        0
 40
15.0
 90
        1
300
%<\AcVar ViewDetailId>% (%<\AcVar ViewScale \f "%sn">%)
 71
     4
340
7479
 90
       25
340
7479
 90
       25
280
     0
  0
GROUP
  5
23DC8
102
{ACAD_REACTORS
330
7472
102
}
330
7472
100
AcDbGroup
300

 70
     1
 71
     1
340
23BAB
340
23BAA
340
23BA9
340
23BA8
340
23BA7
340
23BA6
340
23BA5
340
23BA4
340
23BA3
340
23BA2
340
23BA1
340
23BA0
340
23B9F
340
23B9E
340
23B96
  0
GROUP
  5
24380
102
{ACAD_REACTORS
330
7472
102
}
330
7472
100
AcDbGroup
300

 70
     1
 71
     1
340
2429D
340
2429C
340
2429B
340
2429A
340
24299
340
24298
340
24297
340
24296
340
24295
340
24294
340
24293
340
24292
340
24291
340
24290
340
2428F
340
2428E
340
2428D
340
2428C
340
2428B
340
2428A
340
24289
340
24288
340
24287
340
24286
340
24285
340
24284
340
24283
340
24282
340
24281
340
24280
340
2427F
340
2427E
340
2427D
340
2427C
340
2427B
340
2427A
340
24279
340
24278
340
24277
  0
GROUP
  5
24411
102
{ACAD_REACTORS
330
7472
102
}
330
7472
100
AcDbGroup
300

 70
     1
 71
     1
340
2426E
340
2426C
340
24237
340
24234
340
24233
340
24232
340
24231
340
24230
340
2422F
340
2422E
340
2422D
340
2422C
340
2422B
340
2422A
340
24229
340
24228
340
24227
340
24226
340
24225
340
24224
340
24223
340
24222
340
24221
340
24220
340
2421F
340
2421E
340
2421D
340
2421C
340
2421B
340
2421A
340
24219
340
24218
340
24217
340
24216
340
24215
340
24214
340
24213
340
24212
340
24211
340
24210
340
2420F
340
2420E
340
2420D
340
2420C
340
2420B
340
2420A
340
24209
340
24208
340
24207
340
24206
340
24205
340
24204
340
24203
340
24202
340
24201
340
24200
340
241FF
340
241FE
340
241FD
340
241FC
340
241FB
340
241FA
340
241F9
340
241F8
340
241F7
340
241F6
340
241F5
340
241F4
340
241F3
340
241F2
340
241F1
340
241F0
340
241EF
340
241EE
340
241ED
340
241EC
340
241EB
340
241EA
  0
LAYOUT
  5
159B3
102
{ACAD_XDICTIONARY
360
24916
102
}
102
{ACAD_REACTORS
330
159B1
102
}
330
159B1
100
AcDbPlotSettings
  1

  2
iR C3880
  4
A3
  6

 40
5.873749732971191
 41
5.873747825622557
 42
5.873748779296875
 43
5.873748779296875
 44
296.9259948730469
 45
419.9466552734373
 46
0.0
 47
0.0
 48
0.0
 49
0.0
140
0.0
141
0.0
142
1.0
143
40.75437129952696
 70
 11952
 72
     1
 73
     1
 74
     2
  7
inabass.ctb
 75
     0
147
0.0245372451620081
148
25.79074261211281
149
125.8223078213959
100
AcDbLayout
  1
Model
 70
     1
 71
     0
 10
0.0
 20
0.0
 11
12.0
 21
9.0
 12
0.0
 22
0.0
 32
0.0
 14
0.0
 24
0.0
 34
0.0
 15
0.0
 25
0.0
 35
0.0
146
0.0
 13
0.0
 23
0.0
 33
0.0
 16
1.0
 26
0.0
 36
0.0
 17
0.0
 27
1.0
 37
0.0
 76
     0
330
747D
331
247FC
  0
LAYOUT
  5
159B4
102
{ACAD_XDICTIONARY
360
24918
102
}
102
{ACAD_REACTORS
330
159B1
102
}
330
159B1
100
AcDbPlotSettings
  1

  2
自動 EPSON LP-8400FX (TATENO 上)
  4

  6

 40
0.0
 41
0.0
 42
0.0
 43
0.0
 44
0.0
 45
0.0
 46
0.0
 47
0.0
 48
0.0
 49
0.0
140
0.0
141
0.0
142
1.0
143
1.0
 70
   688
 72
     0
 73
     0
 74
     5
  7
inaba.ctb
 75
    16
147
1.0
148
0.0
149
0.0
100
AcDbLayout
  1
レイアウト1
 70
     0
 71
     1
 10
0.0
 20
0.0
 11
420.0
 21
297.0
 12
0.0
 22
0.0
 32
0.0
 14
1.000000000000000E+20
 24
1.000000000000000E+20
 34
1.000000000000000E+20
 15
-1.000000000000000E+20
 25
-1.000000000000000E+20
 35
-1.000000000000000E+20
146
0.0
 13
0.0
 23
0.0
 33
0.0
 16
1.0
 26
0.0
 36
0.0
 17
0.0
 27
1.0
 37
0.0
 76
     0
330
747A
  0
MATERIAL
  5
24806
102
{ACAD_XDICTIONARY
360
24807
102
}
102
{ACAD_REACTORS
330
159AF
102
}
330
159AF
100
AcDbMaterial
  1
ByBlock
 72
     0
 43
0.0208333333333333
 43
0.0
 43
0.0
 43
0.0
 43
0.0
 43
0.0208333333333333
 43
0.0
 43
0.0
 43
0.0
 43
0.0
 43
1.0
 43
0.0
 43
0.0
 43
0.0
 43
0.0
 43
1.0
 77
     0
 47
0.0208333333333333
 47
0.0
 47
0.0
 47
0.0
 47
0.0
 47
0.0208333333333333
 47
0.0
 47
0.0
 47
0.0
 47
0.0
 47
1.0
 47
0.0
 47
0.0
 47
0.0
 47
0.0
 47
1.0
171
     0
 49
0.0208333333333333
 49
0.0
 49
0.0
 49
0.0
 49
0.0
 49
0.0208333333333333
 49
0.0
 49
0.0
 49
0.0
 49
0.0
 49
1.0
 49
0.0
 49
0.0
 49
0.0
 49
0.0
 49
1.0
175
     0
142
0.0208333333333333
142
0.0
142
0.0
142
0.0
142
0.0
142
0.0208333333333333
142
0.0
142
0.0
142
0.0
142
0.0
142
1.0
142
0.0
142
0.0
142
0.0
142
0.0
142
1.0
179
     0
144
0.0208333333333333
144
0.0
144
0.0
144
0.0
144
0.0
144
0.0208333333333333
144
0.0
144
0.0
144
0.0
144
0.0
144
1.0
144
0.0
144
0.0
144
0.0
144
0.0
144
1.0
147
0.0208333333333333
147
0.0
147
0.0
147
0.0
147
0.0
147
0.0208333333333333
147
0.0
147
0.0
147
0.0
147
0.0
147
1.0
147
0.0
147
0.0
147
0.0
147
0.0
147
1.0
  0
MATERIAL
  5
247FE
102
{ACAD_XDICTIONARY
360
247FF
102
}
102
{ACAD_REACTORS
330
159AF
102
}
330
159AF
100
AcDbMaterial
  1
ByLayer
 72
     0
 43
0.0208333333333333
 43
0.0
 43
0.0
 43
0.0
 43
0.0
 43
0.0208333333333333
 43
0.0
 43
0.0
 43
0.0
 43
0.0
 43
1.0
 43
0.0
 43
0.0
 43
0.0
 43
0.0
 43
1.0
 77
     0
 47
0.0208333333333333
 47
0.0
 47
0.0
 47
0.0
 47
0.0
 47
0.0208333333333333
 47
0.0
 47
0.0
 47
0.0
 47
0.0
 47
1.0
 47
0.0
 47
0.0
 47
0.0
 47
0.0
 47
1.0
171
     0
 49
0.0208333333333333
 49
0.0
 49
0.0
 49
0.0
 49
0.0
 49
0.0208333333333333
 49
0.0
 49
0.0
 49
0.0
 49
0.0
 49
1.0
 49
0.0
 49
0.0
 49
0.0
 49
0.0
 49
1.0
175
     0
142
0.0208333333333333
142
0.0
142
0.0
142
0.0
142
0.0
142
0.0208333333333333
142
0.0
142
0.0
142
0.0
142
0.0
142
1.0
142
0.0
142
0.0
142
0.0
142
0.0
142
1.0
179
     0
144
0.0208333333333333
144
0.0
144
0.0
144
0.0
144
0.0
144
0.0208333333333333
144
0.0
144
0.0
144
0.0
144
0.0
144
1.0
144
0.0
144
0.0
144
0.0
144
0.0
144
1.0
147
0.0208333333333333
147
0.0
147
0.0
147
0.0
147
0.0
147
0.0208333333333333
147
0.0
147
0.0
147
0.0
147
0.0
147
1.0
147
0.0
147
0.0
147
0.0
147
0.0
147
1.0
  0
MATERIAL
  5
2480E
102
{ACAD_XDICTIONARY
360
2480F
102
}
102
{ACAD_REACTORS
330
159AF
102
}
330
159AF
100
AcDbMaterial
  1
Global
 72
     0
 43
0.0208333333333333
 43
0.0
 43
0.0
 43
0.0
 43
0.0
 43
0.0208333333333333
 43
0.0
 43
0.0
 43
0.0
 43
0.0
 43
1.0
 43
0.0
 43
0.0
 43
0.0
 43
0.0
 43
1.0
 77
     0
 47
0.0208333333333333
 47
0.0
 47
0.0
 47
0.0
 47
0.0
 47
0.0208333333333333
 47
0.0
 47
0.0
 47
0.0
 47
0.0
 47
1.0
 47
0.0
 47
0.0
 47
0.0
 47
0.0
 47
1.0
171
     0
 49
0.0208333333333333
 49
0.0
 49
0.0
 49
0.0
 49
0.0
 49
0.0208333333333333
 49
0.0
 49
0.0
 49
0.0
 49
0.0
 49
1.0
 49
0.0
 49
0.0
 49
0.0
 49
0.0
 49
1.0
175
     0
142
0.0208333333333333
142
0.0
142
0.0
142
0.0
142
0.0
142
0.0208333333333333
142
0.0
142
0.0
142
0.0
142
0.0
142
1.0
142
0.0
142
0.0
142
0.0
142
0.0
142
1.0
179
     0
144
0.0208333333333333
144
0.0
144
0.0
144
0.0
144
0.0
144
0.0208333333333333
144
0.0
144
0.0
144
0.0
144
0.0
144
1.0
144
0.0
144
0.0
144
0.0
144
0.0
144
1.0
147
0.0208333333333333
147
0.0
147
0.0
147
0.0
147
0.0
147
0.0208333333333333
147
0.0
147
0.0
147
0.0
147
0.0
147
1.0
147
0.0
147
0.0
147
0.0
147
0.0
147
1.0
  0
MLEADERSTYLE
  5
24844
102
{ACAD_XDICTIONARY
360
2494B
102
}
102
{ACAD_REACTORS
330
24843
102
}
330
24843
100
AcDbMLeaderStyle
170
     2
171
     1
172
     0
 90
        2
 40
0.0
 41
0.0
173
     1
 91
-1056964608
340
7477
 92
       -2
290
     1
 42
2.0
291
     1
 43
0.36
  3
Standard
 44
4.0
300

342
7475
174
     1
178
     6
175
     1
176
     0
 93
-1056964608
 45
4.0
292
     0
297
     0
 46
4.0
 94
-1056964608
 47
1.0
 49
1.0
140
1.0
293
     1
141
0.0
294
     1
177
     0
142
1.0
295
     0
296
     0
143
0.125
1001
ACAD_MLEADERVER
1070
     2
  0
MLINESTYLE
  5
7480
102
{ACAD_REACTORS
330
7473
102
}
330
7473
100
AcDbMlineStyle
  2
STANDARD
 70
     0
  3

 62
     0
 51
90.0
 52
90.0
 71
     2
 49
0.5
 62
   256
  6
BYLAYER
 49
-0.5
 62
   256
  6
BYLAYER
  0
ACDBPLACEHOLDER
  5
159AE
102
{ACAD_REACTORS
330
159AD
102
}
330
159AD
  0
SCALE
  5
24832
102
{ACAD_REACTORS
330
24831
102
}
330
24831
100
AcDbScale
 70
     0
300
1:1
140
1.0
141
1.0
290
     1
  0
SCALE
  5
24833
102
{ACAD_REACTORS
330
24831
102
}
330
24831
100
AcDbScale
 70
     0
300
1:2
140
1.0
141
2.0
290
     0
  0
SCALE
  5
24834
102
{ACAD_REACTORS
330
24831
102
}
330
24831
100
AcDbScale
 70
     0
300
1:4
140
1.0
141
4.0
290
     0
  0
SCALE
  5
24835
102
{ACAD_REACTORS
330
24831
102
}
330
24831
100
AcDbScale
 70
     0
300
1:5
140
1.0
141
5.0
290
     0
  0
SCALE
  5
24836
102
{ACAD_REACTORS
330
24831
102
}
330
24831
100
AcDbScale
 70
     0
300
1:8
140
1.0
141
8.0
290
     0
  0
SCALE
  5
24837
102
{ACAD_REACTORS
330
24831
102
}
330
24831
100
AcDbScale
 70
     0
300
1:10
140
1.0
141
10.0
290
     0
  0
SCALE
  5
24838
102
{ACAD_REACTORS
330
24831
102
}
330
24831
100
AcDbScale
 70
     0
300
1:16
140
1.0
141
16.0
290
     0
  0
SCALE
  5
24839
102
{ACAD_REACTORS
330
24831
102
}
330
24831
100
AcDbScale
 70
     0
300
1:20
140
1.0
141
20.0
290
     0
  0
SCALE
  5
2483A
102
{ACAD_REACTORS
330
24831
102
}
330
24831
100
AcDbScale
 70
     0
300
1:30
140
1.0
141
30.0
290
     0
  0
SCALE
  5
2483B
102
{ACAD_REACTORS
330
24831
102
}
330
24831
100
AcDbScale
 70
     0
300
1:40
140
1.0
141
40.0
290
     0
  0
SCALE
  5
2483C
102
{ACAD_REACTORS
330
24831
102
}
330
24831
100
AcDbScale
 70
     0
300
1:50
140
1.0
141
50.0
290
     0
  0
SCALE
  5
2483D
102
{ACAD_REACTORS
330
24831
102
}
330
24831
100
AcDbScale
 70
     0
300
1:100
140
1.0
141
100.0
290
     0
  0
SCALE
  5
2483E
102
{ACAD_REACTORS
330
24831
102
}
330
24831
100
AcDbScale
 70
     0
300
2:1
140
2.0
141
1.0
290
     0
  0
SCALE
  5
2483F
102
{ACAD_REACTORS
330
24831
102
}
330
24831
100
AcDbScale
 70
     0
300
4:1
140
4.0
141
1.0
290
     0
  0
SCALE
  5
24840
102
{ACAD_REACTORS
330
24831
102
}
330
24831
100
AcDbScale
 70
     0
300
8:1
140
8.0
141
1.0
290
     0
  0
SCALE
  5
24841
102
{ACAD_REACTORS
330
24831
102
}
330
24831
100
AcDbScale
 70
     0
300
10:1
140
10.0
141
1.0
290
     0
  0
SCALE
  5
24842
102
{ACAD_REACTORS
330
24831
102
}
330
24831
100
AcDbScale
 70
     0
300
100:1
140
100.0
141
1.0
290
     0
  0
ACDBSECTIONVIEWSTYLE
  5
24846
102
{ACAD_XDICTIONARY
360
2494D
102
}
102
{ACAD_REACTORS
330
24845
102
}
330
24845
100
AcDbModelDocViewStyle
 70
     0
  3
Metric50
290
     0
100
AcDbSectionViewStyle
 70
     0
 71
     0
 90
      102
 71
     1
340
7475
 40
5.0
340
0
340
0
 40
5.0
300
I, O, Q, S, X, Z
 40
10.0
 90
        0
 40
2.5
 90
        0
 71
     2
340
7479
 90
       25
340
7479
 90
       50
 40
5.0
 40
2.5
 40
5.0
 71
     3
340
7475
 40
5.0
 90
        0
 40
15.0
 90
        1
300
%<\AcVar ViewSectionStartId>%-%<\AcVar ViewSectionEndId>% (%<\AcVar ViewScale \f "%sn">%)
 71
     4
300
ANSI31
 40
1.0
 90
        0
290
     0
290
     0
 90
        6
 40
0.0
 40
1.570796326794896
 40
0.2617993877991494
 40
1.308996938995747
 40
-0.2617993877991494
 40
1.832595714594045
  0
TABLESTYLE
  5
24830
102
{ACAD_XDICTIONARY
360
248BD
102
}
102
{ACAD_REACTORS
330
2482F
102
}
330
2482F
100
AcDbTableStyle
  3
Standard
 70
     0
 71
     0
 40
1.5
 41
1.5
280
     0
281
     0
  7
STANDARD
140
4.5
170
     2
 62
     0
 63
     7
283
     0
274
    -2
284
     1
 64
     0
275
    -2
285
     1
 65
     0
276
    -2
286
     1
 66
     0
277
    -2
287
     1
 67
     0
278
    -2
288
     1
 68
     0
279
    -2
289
     1
 69
     0
  7
STANDARD
140
6.0
170
     5
 62
     0
 63
     7
283
     0
274
    -2
284
     1
 64
     0
275
    -2
285
     1
 65
     0
276
    -2
286
     1
 66
     0
277
    -2
287
     1
 67
     0
278
    -2
288
     1
 68
     0
279
    -2
289
     1
 69
     0
  7
STANDARD
140
4.5
170
     5
 62
     0
 63
     7
283
     0
274
    -2
284
     1
 64
     0
275
    -2
285
     1
 65
     0
276
    -2
286
     1
 66
     0
277
    -2
287
     1
 67
     0
278
    -2
288
     1
 68
     0
279
    -2
289
     1
 69
     0
  0
VISUALSTYLE
  5
2481C
102
{ACAD_XDICTIONARY
360
24924
102
}
102
{ACAD_REACTORS
330
24816
102
}
330
24816
100
AcDbVisualStyle
  2

 70
     4
 71
     0
 72
     2
 73
     0
 90
        0
 40
-0.6
 41
-30.0
 62
     5
 63
     7
 74
     1
 91
        4
 64
     7
 65
   257
 75
     1
175
     1
 42
1.0
 92
        0
 66
   257
 43
1.0
 76
     1
 77
     6
 78
     2
 67
     7
 79
     5
170
     0
171
     0
290
     0
174
     0
 93
        1
 44
0.0
173
     0
291
     0
 45
0.0
1001
ACAD
1000
AcDbSavedByObjectVersion
1070
     0
  0
VISUALSTYLE
  5
2481B
102
{ACAD_XDICTIONARY
360
24922
102
}
102
{ACAD_REACTORS
330
24816
102
}
330
24816
100
AcDbVisualStyle
  2

 70
     7
 71
     1
 72
     0
 73
     1
 90
        0
 40
-0.6
 41
-30.0
 62
     5
 63
     7
 74
     0
 91
        4
 64
     7
 65
   257
 75
     1
175
     1
 42
1.0
 92
        8
 66
     7
 43
1.0
 76
     1
 77
     6
 78
     2
 67
     7
 79
     5
170
     0
171
     0
290
     0
174
     0
 93
        1
 44
0.0
173
     0
291
     1
 45
0.0
1001
ACAD
1000
AcDbSavedByObjectVersion
1070
     0
  0
VISUALSTYLE
  5
24822
102
{ACAD_XDICTIONARY
360
24930
102
}
102
{ACAD_REACTORS
330
24816
102
}
330
24816
100
AcDbVisualStyle
  2

 70
    12
 71
     2
 72
     2
 73
     0
 90
        0
 40
-0.6
 41
-30.0
 62
     5
 63
     7
 74
     1
 91
        4
 64
     7
 65
   257
 75
     1
175
     1
 42
1.0
 92
        8
 66
     7
 43
1.0
 76
     1
 77
     6
 78
     2
 67
     7
 79
     5
170
     0
171
     0
290
     0
174
     0
 93
        1
 44
50.0
173
     0
291
     1
 45
0.0
1001
ACAD
1000
AcDbSavedByObjectVersion
1070
     0
  0
VISUALSTYLE
  5
24826
102
{ACAD_XDICTIONARY
360
24938
102
}
102
{ACAD_REACTORS
330
24816
102
}
330
24816
100
AcDbVisualStyle
  2

 70
    16
 71
     2
 72
     2
 73
     3
 90
        0
 40
-0.6
 41
-30.0
 62
     5
 63
     8
 74
     1
 91
        4
 64
     7
 65
   257
 75
     1
175
     1
 42
1.0
 92
        8
 66
     8
 43
1.0
 76
     1
 77
     6
 78
     2
 67
     7
 79
     5
170
     0
171
     0
290
     0
174
     0
 93
        1
 44
0.0
173
     0
291
     1
 45
0.0
1001
ACAD
1000
AcDbSavedByObjectVersion
1070
     0
  0
VISUALSTYLE
  5
2481F
102
{ACAD_XDICTIONARY
360
2492A
102
}
102
{ACAD_REACTORS
330
24816
102
}
330
24816
100
AcDbVisualStyle
  2

 70
     9
 71
     3
 72
     2
 73
     0
 90
        0
 40
-0.6
 41
-30.0
 62
     5
 63
     7
 74
     2
 91
        2
 64
     7
 65
   257
 75
     1
175
     1
 42
179.0
 92
        8
 66
     7
 43
1.0
 76
     1
 77
     6
 78
     2
 67
     7
 79
     3
170
     0
171
     0
290
     0
174
     0
 93
        1
 44
0.0
173
     0
291
     0
 45
0.0
1001
ACAD
1000
AcDbSavedByObjectVersion
1070
     0
  0
VISUALSTYLE
  5
24821
102
{ACAD_XDICTIONARY
360
2492E
102
}
102
{ACAD_REACTORS
330
24816
102
}
330
24816
100
AcDbVisualStyle
  2

 70
    11
 71
     2
 72
     2
 73
     0
 90
        0
 40
-0.6
 41
-30.0
 62
     5
 63
     7
 74
     1
 91
        4
 64
     7
 65
   257
 75
     1
175
     1
 42
1.0
 92
        8
 66
     7
 43
1.0
 76
     1
 77
     6
 78
     2
 67
     7
 79
     5
170
     0
171
     0
290
     0
174
     0
 93
        1
 44
-50.0
173
     0
291
     1
 45
0.0
1001
ACAD
1000
AcDbSavedByObjectVersion
1070
     0
  0
VISUALSTYLE
  5
2482E
102
{ACAD_XDICTIONARY
360
24948
102
}
102
{ACAD_REACTORS
330
24816
102
}
330
24816
100
AcDbVisualStyle
  2

 70
    22
 71
     2
 72
     2
 73
     0
 90
        0
 40
-0.6
 41
-30.0
 62
     5
 63
     7
 74
     1
 91
        4
 64
     7
 65
   257
 75
     1
175
     1
 42
1.0
 92
        8
 66
     7
 43
1.0
 76
     1
 77
     6
 78
     2
 67
     7
 79
     5
170
     0
171
     0
290
     0
174
     0
 93
        1
 44
0.0
173
     0
291
     1
 45
0.0
1001
ACAD
1000
AcDbSavedByObjectVersion
1070
     0
  0
VISUALSTYLE
  5
24825
102
{ACAD_XDICTIONARY
360
24936
102
}
102
{ACAD_REACTORS
330
24816
102
}
330
24816
100
AcDbVisualStyle
  2

 70
    15
 71
     2
 72
     2
 73
     0
 90
        0
 40
-0.6
 41
-30.0
 62
     5
 63
     7
 74
     1
 91
        4
 64
     7
 65
   257
 75
     1
175
     1
 42
1.0
 92
        8
 66
     7
 43
1.0
 76
     1
 77
     6
 78
     2
 67
     7
 79
     5
170
     0
171
     0
290
     0
174
     0
 93
        1
 44
0.0
173
     0
291
     1
 45
0.0
1001
ACAD
1000
AcDbSavedByObjectVersion
1070
     0
  0
VISUALSTYLE
  5
24817
102
{ACAD_XDICTIONARY
360
2491A
102
}
102
{ACAD_REACTORS
330
24816
102
}
330
24816
100
AcDbVisualStyle
  2

 70
     0
 71
     2
 72
     1
 73
     1
 90
        2
 40
-0.6
 41
30.0
 62
     5
 63
     7
 74
     0
 91
        0
 64
     7
 65
   257
 75
     1
175
     1
 42
1.0
 92
        8
 66
     7
 43
1.0
 76
     1
 77
     6
 78
     2
 67
     7
 79
     5
170
     0
171
     0
290
     0
174
     0
 93
       13
 44
0.0
173
     0
291
     1
 45
0.0
1001
ACAD
1000
AcDbSavedByObjectVersion
1070
     0
  0
VISUALSTYLE
  5
24818
102
{ACAD_XDICTIONARY
360
2491C
102
}
102
{ACAD_REACTORS
330
24816
102
}
330
24816
100
AcDbVisualStyle
  2

 70
     1
 71
     2
 72
     1
 73
     1
 90
        2
 40
-0.6
 41
30.0
 62
     5
 63
     7
 74
     1
 91
        0
 64
     7
 65
   257
 75
     1
175
     1
 42
1.0
 92
        0
 66
   257
 43
1.0
 76
     1
 77
     6
 78
     2
 67
     7
 79
     5
170
     0
171
     0
290
     0
174
     0
 93
       13
 44
0.0
173
     0
291
     1
 45
0.0
1001
ACAD
1000
AcDbSavedByObjectVersion
1070
     0
  0
VISUALSTYLE
  5
24819
102
{ACAD_XDICTIONARY
360
2491E
102
}
102
{ACAD_REACTORS
330
24816
102
}
330
24816
100
AcDbVisualStyle
  2

 70
     2
 71
     2
 72
     2
 73
     1
 90
        2
 40
-0.6
 41
30.0
 62
     5
 63
     7
 74
     0
 91
        0
 64
     7
 65
   257
 75
     1
175
     1
 42
1.0
 92
        0
 66
     7
 43
1.0
 76
     1
 77
     6
 78
     2
 67
     7
 79
     5
170
     0
171
     0
290
     0
174
     0
 93
       13
 44
0.0
173
     0
291
     1
 45
0.0
1001
ACAD
1000
AcDbSavedByObjectVersion
1070
     0
  0
VISUALSTYLE
  5
2481A
102
{ACAD_XDICTIONARY
360
24920
102
}
102
{ACAD_REACTORS
330
24816
102
}
330
24816
100
AcDbVisualStyle
  2

 70
     3
 71
     2
 72
     2
 73
     1
 90
        2
 40
-0.6
 41
30.0
 62
     5
 63
     7
 74
     1
 91
        0
 64
     7
 65
   257
 75
     1
175
     1
 42
1.0
 92
        0
 66
   257
 43
1.0
 76
     1
 77
     6
 78
     2
 67
     7
 79
     5
170
     0
171
     0
290
     0
174
     0
 93
       13
 44
0.0
173
     0
291
     1
 45
0.0
1001
ACAD
1000
AcDbSavedByObjectVersion
1070
     0
  0
VISUALSTYLE
  5
2481E
102
{ACAD_XDICTIONARY
360
24928
102
}
102
{ACAD_REACTORS
330
24816
102
}
330
24816
100
AcDbVisualStyle
  2

 70
     6
 71
     1
 72
     2
 73
     2
 90
        0
 40
-0.6
 41
-30.0
 62
     5
 63
     7
 74
     2
 91
        2
 64
     7
 65
   257
 75
     2
175
     1
 42
40.0
 92
        0
 66
   257
 43
1.0
 76
     1
 77
     6
 78
     2
 67
     7
 79
     3
170
     0
171
     0
290
     0
174
     0
 93
        1
 44
0.0
173
     0
291
     0
 45
0.0
1001
ACAD
1000
AcDbSavedByObjectVersion
1070
     0
  0
VISUALSTYLE
  5
2482C
102
{ACAD_XDICTIONARY
360
24944
102
}
102
{ACAD_REACTORS
330
24816
102
}
330
24816
100
AcDbVisualStyle
  2

 70
    20
 71
     2
 72
     2
 73
     0
 90
        0
 40
-0.6
 41
-30.0
 62
     5
 63
     7
 74
     1
 91
        4
 64
     7
 65
   257
 75
     1
175
     1
 42
1.0
 92
       10
 66
     7
 43
1.0
 76
     1
 77
     6
 78
     2
 67
     7
 79
     5
170
     0
171
     0
290
     0
174
     0
 93
        1
 44
0.0
173
     0
291
     1
 45
0.0
1001
ACAD
1000
AcDbSavedByObjectVersion
1070
     0
  0
VISUALSTYLE
  5
24824
102
{ACAD_XDICTIONARY
360
24934
102
}
102
{ACAD_REACTORS
330
24816
102
}
330
24816
100
AcDbVisualStyle
  2

 70
    14
 71
     2
 72
     2
 73
     0
 90
        0
 40
-0.6
 41
-30.0
 62
     5
 63
     7
 74
     1
 91
        4
 64
     7
 65
   257
 75
     7
175
     7
 42
1.0
 92
        8
 66
     7
 43
1.0
 76
     1
 77
     6
 78
     2
 67
     7
 79
     5
170
     0
171
     0
290
     0
174
     0
 93
        1
 44
0.0
173
     0
291
     1
 45
0.0
1001
ACAD
1000
AcDbSavedByObjectVersion
1070
     0
  0
VISUALSTYLE
  5
2482D
102
{ACAD_XDICTIONARY
360
24946
102
}
102
{ACAD_REACTORS
330
24816
102
}
330
24816
100
AcDbVisualStyle
  2

 70
    21
 71
     2
 72
     2
 73
     0
 90
        0
 40
-0.6
 41
-30.0
 62
     5
 63
     7
 74
     1
 91
        4
 64
     7
 65
   257
 75
     1
175
     1
 42
1.0
 92
        9
 66
     7
 43
1.0
 76
     1
 77
     6
 78
     2
 67
     7
 79
     5
170
     0
171
     0
290
     0
174
     0
 93
        1
 44
0.0
173
     0
291
     1
 45
0.0
1001
ACAD
1000
AcDbSavedByObjectVersion
1070
     0
  0
VISUALSTYLE
  5
24820
102
{ACAD_XDICTIONARY
360
2492C
102
}
102
{ACAD_REACTORS
330
24816
102
}
330
24816
100
AcDbVisualStyle
  2

 70
     8
 71
     2
 72
     3
 73
     0
 90
        2
 40
-0.6
 41
30.0
 62
     5
 63
     7
 74
     0
 91
        0
 64
     7
 65
   257
 75
     1
175
     1
 42
1.0
 92
        8
 66
   257
 43
1.0
 76
     1
 77
     6
 78
     2
 67
     7
 79
     3
170
     0
171
     0
290
     0
174
     0
 93
       13
 44
0.0
173
     0
291
     0
 45
0.0
1001
ACAD
1000
AcDbSavedByObjectVersion
1070
     0
  0
VISUALSTYLE
  5
2482B
102
{ACAD_XDICTIONARY
360
24942
102
}
102
{ACAD_REACTORS
330
24816
102
}
330
24816
100
AcDbVisualStyle
  2

 70
    27
 71
     2
 72
     2
 73
     1
 90
        2
 40
-0.6
 41
30.0
 62
     5
 63
     7
 74
     0
 91
        4
 64
     7
 65
   257
 75
     1
175
     1
 42
1.0
 92
        8
 66
   257
 43
1.0
 76
     1
 77
     6
 78
     2
 67
     8
 79
     3
170
     0
171
     0
290
     0
174
     0
 93
        5
 44
0.0
173
     0
291
     0
 45
0.0
1001
ACAD
1000
AcDbSavedByObjectVersion
1070
     0
  0
VISUALSTYLE
  5
2482A
102
{ACAD_XDICTIONARY
360
24940
102
}
102
{ACAD_REACTORS
330
24816
102
}
330
24816
100
AcDbVisualStyle
  2

 70
    26
 71
     2
 72
     2
 73
     1
 90
        2
 40
-0.6
 41
30.0
 62
     5
 63
     7
 74
     1
 91
       10
 64
     7
 65
   257
 75
     2
175
     1
 42
1.0
 92
        8
 66
   257
 43
1.0
 76
     1
 77
     6
 78
     2
 67
     7
 79
     3
170
     0
171
     0
290
     0
174
     0
 93
        5
 44
0.0
173
     0
291
     0
 45
0.0
1001
ACAD
1000
AcDbSavedByObjectVersion
1070
     0
  0
VISUALSTYLE
  5
24827
102
{ACAD_XDICTIONARY
360
2493A
102
}
102
{ACAD_REACTORS
330
24816
102
}
330
24816
100
AcDbVisualStyle
  2

 70
    23
 71
     2
 72
     2
 73
     3
 90
        0
 40
-0.6
 41
-30.0
 62
     5
 63
     7
 74
     2
 91
        2
 64
     7
 65
     7
 75
     1
175
     1
 42
40.0
 92
        8
 66
     7
 43
1.0
 76
     1
 77
     6
 78
     2
 67
     7
 79
     3
170
     0
171
     0
290
     0
174
     0
 93
        1
 44
0.0
173
     0
291
     0
 45
0.0
1001
ACAD
1000
AcDbSavedByObjectVersion
1070
     0
  0
VISUALSTYLE
  5
24828
102
{ACAD_XDICTIONARY
360
2493C
102
}
102
{ACAD_REACTORS
330
24816
102
}
330
24816
100
AcDbVisualStyle
  2

 70
    24
 71
     1
 72
     2
 73
     2
 90
        0
 40
-0.6
 41
-30.0
 62
     5
 63
     7
 74
     2
 91
        2
 64
     7
 65
     7
 75
     1
175
     1
 42
40.0
 92
       11
 66
     7
 43
1.0
 76
     1
 77
     6
 78
     2
 67
     7
 79
     6
170
     0
171
     0
290
     0
174
     0
 93
        1
 44
0.0
173
     0
291
     0
 45
0.0
1001
ACAD
1000
AcDbSavedByObjectVersion
1070
     0
  0
VISUALSTYLE
  5
24823
102
{ACAD_XDICTIONARY
360
24932
102
}
102
{ACAD_REACTORS
330
24816
102
}
330
24816
100
AcDbVisualStyle
  2

 70
    13
 71
     2
 72
     2
 73
     0
 90
        0
 40
-0.6
 41
-30.0
 62
     5
 63
     7
 74
     1
 91
        4
 64
     7
 65
   257
 75
     1
175
     1
 42
1.0
 92
       12
 66
     7
 43
1.0
 76
     1
 77
     6
 78
     2
 67
     7
 79
     5
170
     0
171
     0
290
     0
174
     0
 93
        1
 44
0.0
173
     0
291
     1
 45
0.0
1001
ACAD
1000
AcDbSavedByObjectVersion
1070
     0
  0
VISUALSTYLE
  5
2481D
102
{ACAD_XDICTIONARY
360
24926
102
}
102
{ACAD_REACTORS
330
24816
102
}
330
24816
100
AcDbVisualStyle
  2

 70
     5
 71
     0
 72
     2
 73
     0
 90
        0
 40
-0.6
 41
-30.0
 62
     5
 63
     7
 74
     1
 91
        4
 64
     7
 65
   257
 75
     1
175
     1
 42
1.0
 92
        0
 66
   257
 43
1.0
 76
     1
 77
     6
 78
     2
 67
     7
 79
     3
170
     0
171
     0
290
     0
174
     0
 93
        1
 44
0.0
173
     0
291
     0
 45
0.0
1001
ACAD
1000
AcDbSavedByObjectVersion
1070
     0
  0
VISUALSTYLE
  5
24829
102
{ACAD_XDICTIONARY
360
2493E
102
}
102
{ACAD_REACTORS
330
24816
102
}
330
24816
100
AcDbVisualStyle
  2

 70
    25
 71
     2
 72
     2
 73
     1
 90
        1
 40
0.5
 41
-30.0
 62
     5
 63
     7
 74
     1
 91
        0
 64
     7
 65
   257
 75
     1
175
     1
 42
1.0
 92
        8
 66
     7
 43
1.0
 76
     1
 77
     6
 78
     2
 67
     7
 79
     3
170
     0
171
     0
290
     0
174
     0
 93
       13
 44
0.0
173
     0
291
     0
 45
0.0
1001
ACAD
1000
AcDbSavedByObjectVersion
1070
     0
  0
DICTIONARYVAR
  5
248AB
102
{ACAD_REACTORS
330
248A5
102
}
330
248A5
100
DictionaryVariables
280
     0
  1
1:1
  0
DICTIONARYVAR
  5
248A7
102
{ACAD_REACTORS
330
248A5
102
}
330
248A5
100
DictionaryVariables
280
     0
  1
STANDARD
  0
DICTIONARYVAR
  5
248A6
102
{ACAD_REACTORS
330
248A5
102
}
330
248A5
100
DictionaryVariables
280
     0
  1
STANDARD
  0
DICTIONARYVAR
  5
248A8
102
{ACAD_REACTORS
330
248A5
102
}
330
248A5
100
DictionaryVariables
280
     0
  1
Metric50
  0
DICTIONARYVAR
  5
248A9
102
{ACAD_REACTORS
330
248A5
102
}
330
248A5
100
DictionaryVariables
280
     0
  1
Metric50
  0
DICTIONARYVAR
  5
248BC
102
{ACAD_REACTORS
330
248A5
102
}
330
248A5
100
DictionaryVariables
280
     0
  1
1
  0
DICTIONARYVAR
  5
248BA
102
{ACAD_REACTORS
330
248A5
102
}
330
248A5
100
DictionaryVariables
280
     0
  1
0
  0
DICTIONARYVAR
  5
248AD
102
{ACAD_REACTORS
330
248A5
102
}
330
248A5
100
DictionaryVariables
280
     0
  1
1
  0
DICTIONARYVAR
  5
248AE
102
{ACAD_REACTORS
330
248A5
102
}
330
248A5
100
DictionaryVariables
280
     0
  1
15
  0
DICTIONARYVAR
  5
248AC
102
{ACAD_REACTORS
330
248A5
102
}
330
248A5
100
DictionaryVariables
280
     0
  1
0
  0
DICTIONARYVAR
  5
248AA
102
{ACAD_REACTORS
330
248A5
102
}
330
248A5
100
DictionaryVariables
280
     0
  1
0
  0
DICTIONARYVAR
  5
248B9
102
{ACAD_REACTORS
330
248A5
102
}
330
248A5
100
DictionaryVariables
280
     0
  1
127
  0
DICTIONARYVAR
  5
24912
102
{ACAD_REACTORS
330
248A5
102
}
330
248A5
100
DictionaryVariables
280
     0
  1
2
  0
DICTIONARY
  5
2494F
330
24848
100
AcDbDictionary
280
     1
281
     1
  3
ACAD_XREC_ROUNDTRIP
360
24950
  0
DICTIONARY
  5
24916
330
159B3
100
AcDbDictionary
280
     1
281
     1
  3
ACAD_XREC_ROUNDTRIP
360
24917
  0
DICTIONARY
  5
24918
330
159B4
100
AcDbDictionary
280
     1
281
     1
  3
ACAD_XREC_ROUNDTRIP
360
24919
  0
DICTIONARY
  5
24807
330
24806
100
AcDbDictionary
280
     1
281
     1
  3
ACAD_XREC_ROUNDTRIP
360
248D0
  3
BUMPTILE
360
24809
  3
DIFFUSETILE
360
24808
  3
OPACITYTILE
360
2480C
  3
REFLECTIONTILE
360
2480B
  3
REFRACTIONTILE
360
2480D
  3
SPECULARTILE
360
2480A
  0
DICTIONARY
  5
247FF
330
247FE
100
AcDbDictionary
280
     1
281
     1
  3
ACAD_XREC_ROUNDTRIP
360
248CF
  3
BUMPTILE
360
24801
  3
DIFFUSETILE
360
24800
  3
OPACITYTILE
360
24804
  3
REFLECTIONTILE
360
24803
  3
REFRACTIONTILE
360
24805
  3
SPECULARTILE
360
24802
  0
DICTIONARY
  5
2480F
330
2480E
100
AcDbDictionary
280
     1
281
     1
  3
ACAD_XREC_ROUNDTRIP
360
248D1
  3
BUMPTILE
360
24811
  3
DIFFUSETILE
360
24810
  3
OPACITYTILE
360
24814
  3
REFLECTIONTILE
360
24813
  3
REFRACTIONTILE
360
24815
  3
SPECULARTILE
360
24812
  0
DICTIONARY
  5
2494B
330
24844
100
AcDbDictionary
280
     1
281
     1
  3
ACAD_XREC_ROUNDTRIP
360
2494C
  0
DICTIONARY
  5
2494D
330
24846
100
AcDbDictionary
280
     1
281
     1
  3
ACAD_XREC_ROUNDTRIP
360
2494E
  0
DICTIONARY
  5
248BD
330
24830
100
AcDbDictionary
280
     1
281
     1
  3
ACAD_ROUNDTRIP_2008_TABLESTYLE_CELLSTYLEMAP
360
24913
  3
ACAD_XREC_ROUNDTRIP
360
2494A
  0
DICTIONARY
  5
24924
330
2481C
100
AcDbDictionary
280
     1
281
     1
  3
ACAD_XREC_ROUNDTRIP
360
24925
  0
DICTIONARY
  5
24922
330
2481B
100
AcDbDictionary
280
     1
281
     1
  3
ACAD_XREC_ROUNDTRIP
360
24923
  0
DICTIONARY
  5
24930
330
24822
100
AcDbDictionary
280
     1
281
     1
  3
ACAD_XREC_ROUNDTRIP
360
24931
  0
DICTIONARY
  5
24938
330
24826
100
AcDbDictionary
280
     1
281
     1
  3
ACAD_XREC_ROUNDTRIP
360
24939
  0
DICTIONARY
  5
2492A
330
2481F
100
AcDbDictionary
280
     1
281
     1
  3
ACAD_XREC_ROUNDTRIP
360
2492B
  0
DICTIONARY
  5
2492E
330
24821
100
AcDbDictionary
280
     1
281
     1
  3
ACAD_XREC_ROUNDTRIP
360
2492F
  0
DICTIONARY
  5
24948
330
2482E
100
AcDbDictionary
280
     1
281
     1
  3
ACAD_XREC_ROUNDTRIP
360
24949
  0
DICTIONARY
  5
24936
330
24825
100
AcDbDictionary
280
     1
281
     1
  3
ACAD_XREC_ROUNDTRIP
360
24937
  0
DICTIONARY
  5
2491A
330
24817
100
AcDbDictionary
280
     1
281
     1
  3
ACAD_XREC_ROUNDTRIP
360
2491B
  0
DICTIONARY
  5
2491C
330
24818
100
AcDbDictionary
280
     1
281
     1
  3
ACAD_XREC_ROUNDTRIP
360
2491D
  0
DICTIONARY
  5
2491E
330
24819
100
AcDbDictionary
280
     1
281
     1
  3
ACAD_XREC_ROUNDTRIP
360
2491F
  0
DICTIONARY
  5
24920
330
2481A
100
AcDbDictionary
280
     1
281
     1
  3
ACAD_XREC_ROUNDTRIP
360
24921
  0
DICTIONARY
  5
24928
330
2481E
100
AcDbDictionary
280
     1
281
     1
  3
ACAD_XREC_ROUNDTRIP
360
24929
  0
DICTIONARY
  5
24944
330
2482C
100
AcDbDictionary
280
     1
281
     1
  3
ACAD_XREC_ROUNDTRIP
360
24945
  0
DICTIONARY
  5
24934
330
24824
100
AcDbDictionary
280
     1
281
     1
  3
ACAD_XREC_ROUNDTRIP
360
24935
  0
DICTIONARY
  5
24946
330
2482D
100
AcDbDictionary
280
     1
281
     1
  3
ACAD_XREC_ROUNDTRIP
360
24947
  0
DICTIONARY
  5
2492C
330
24820
100
AcDbDictionary
280
     1
281
     1
  3
ACAD_XREC_ROUNDTRIP
360
2492D
  0
DICTIONARY
  5
24942
330
2482B
100
AcDbDictionary
280
     1
281
     1
  3
ACAD_XREC_ROUNDTRIP
360
24943
  0
DICTIONARY
  5
24940
330
2482A
100
AcDbDictionary
280
     1
281
     1
  3
ACAD_XREC_ROUNDTRIP
360
24941
  0
DICTIONARY
  5
2493A
330
24827
100
AcDbDictionary
280
     1
281
     1
  3
ACAD_XREC_ROUNDTRIP
360
2493B
  0
DICTIONARY
  5
2493C
330
24828
100
AcDbDictionary
280
     1
281
     1
  3
ACAD_XREC_ROUNDTRIP
360
2493D
  0
DICTIONARY
  5
24932
330
24823
100
AcDbDictionary
280
     1
281
     1
  3
ACAD_XREC_ROUNDTRIP
360
24933
  0
DICTIONARY
  5
24926
330
2481D
100
AcDbDictionary
280
     1
281
     1
  3
ACAD_XREC_ROUNDTRIP
360
24927
  0
DICTIONARY
  5
2493E
330
24829
100
AcDbDictionary
280
     1
281
     1
  3
ACAD_XREC_ROUNDTRIP
360
2493F
  0
XRECORD
  5
24950
102
{ACAD_REACTORS
330
2494F
102
}
330
2494F
100
AcDbXrecord
280
     1
102
DISPLAYNAME
  1
Metric50
102
FLAGS
 90
        0
  0
XRECORD
  5
24917
102
{ACAD_REACTORS
330
24916
102
}
330
24916
100
AcDbXrecord
280
     1
102
SHADEPLOT
 70
     1
102
SHADEPLOTRESLEVEL
 70
     2
102
SHADEPLOTCUSTOMDPI
 70
   300
  0
XRECORD
  5
24919
102
{ACAD_REACTORS
330
24918
102
}
330
24918
100
AcDbXrecord
280
     1
102
SHADEPLOT
 70
     0
102
SHADEPLOTRESLEVEL
 70
     2
102
SHADEPLOTCUSTOMDPI
 70
   300
  0
XRECORD
  5
248D0
102
{ACAD_REACTORS
330
24807
102
}
330
24807
100
AcDbXrecord
280
     1
102
MATERIAL
148
0.0
149
0.0
149
0.0
 93
        0
 94
      127
282
     0
 72
     0
 77
     0
171
     0
175
     0
179
     0
273
     0
  0
XRECORD
  5
24809
102
{ACAD_REACTORS
330
24807
102
}
330
24807
100
AcDbXrecord
280
     1
270
     1
271
     1
  0
XRECORD
  5
24808
102
{ACAD_REACTORS
330
24807
102
}
330
24807
100
AcDbXrecord
280
     1
270
     1
271
     1
  0
XRECORD
  5
2480C
102
{ACAD_REACTORS
330
24807
102
}
330
24807
100
AcDbXrecord
280
     1
270
     1
271
     1
  0
XRECORD
  5
2480B
102
{ACAD_REACTORS
330
24807
102
}
330
24807
100
AcDbXrecord
280
     1
270
     1
271
     1
  0
XRECORD
  5
2480D
102
{ACAD_REACTORS
330
24807
102
}
330
24807
100
AcDbXrecord
280
     1
270
     1
271
     1
  0
XRECORD
  5
2480A
102
{ACAD_REACTORS
330
24807
102
}
330
24807
100
AcDbXrecord
280
     1
270
     1
271
     1
  0
XRECORD
  5
248CF
102
{ACAD_REACTORS
330
247FF
102
}
330
247FF
100
AcDbXrecord
280
     1
102
MATERIAL
148
0.0
149
0.0
149
0.0
 93
        0
 94
      127
282
     0
 72
     0
 77
     0
171
     0
175
     0
179
     0
273
     0
  0
XRECORD
  5
24801
102
{ACAD_REACTORS
330
247FF
102
}
330
247FF
100
AcDbXrecord
280
     1
270
     1
271
     1
  0
XRECORD
  5
24800
102
{ACAD_REACTORS
330
247FF
102
}
330
247FF
100
AcDbXrecord
280
     1
270
     1
271
     1
  0
XRECORD
  5
24804
102
{ACAD_REACTORS
330
247FF
102
}
330
247FF
100
AcDbXrecord
280
     1
270
     1
271
     1
  0
XRECORD
  5
24803
102
{ACAD_REACTORS
330
247FF
102
}
330
247FF
100
AcDbXrecord
280
     1
270
     1
271
     1
  0
XRECORD
  5
24805
102
{ACAD_REACTORS
330
247FF
102
}
330
247FF
100
AcDbXrecord
280
     1
270
     1
271
     1
  0
XRECORD
  5
24802
102
{ACAD_REACTORS
330
247FF
102
}
330
247FF
100
AcDbXrecord
280
     1
270
     1
271
     1
  0
XRECORD
  5
248D1
102
{ACAD_REACTORS
330
2480F
102
}
330
2480F
100
AcDbXrecord
280
     1
102
MATERIAL
148
0.0
149
0.0
149
0.0
 93
        0
 94
      127
282
     0
 72
     0
 77
     0
171
     0
175
     0
179
     0
273
     0
  0
XRECORD
  5
24811
102
{ACAD_REACTORS
330
2480F
102
}
330
2480F
100
AcDbXrecord
280
     1
270
     1
271
     1
  0
XRECORD
  5
24810
102
{ACAD_REACTORS
330
2480F
102
}
330
2480F
100
AcDbXrecord
280
     1
270
     1
271
     1
  0
XRECORD
  5
24814
102
{ACAD_REACTORS
330
2480F
102
}
330
2480F
100
AcDbXrecord
280
     1
270
     1
271
     1
  0
XRECORD
  5
24813
102
{ACAD_REACTORS
330
2480F
102
}
330
2480F
100
AcDbXrecord
280
     1
270
     1
271
     1
  0
XRECORD
  5
24815
102
{ACAD_REACTORS
330
2480F
102
}
330
2480F
100
AcDbXrecord
280
     1
270
     1
271
     1
  0
XRECORD
  5
24812
102
{ACAD_REACTORS
330
2480F
102
}
330
2480F
100
AcDbXrecord
280
     1
270
     1
271
     1
  0
XRECORD
  5
2494C
102
{ACAD_REACTORS
330
2494B
102
}
330
2494B
100
AcDbXrecord
280
     1
102
ACAD_ROUNDTRIP_2012_MLEADER_STYLE
298
     1
  0
XRECORD
  5
2494E
102
{ACAD_REACTORS
330
2494D
102
}
330
2494D
100
AcDbXrecord
280
     1
102
DISPLAYNAME
  1
Metric50
102
FLAGS
 90
        0
  0
CELLSTYLEMAP
  5
24913
102
{ACAD_REACTORS
330
248BD
102
}
330
248BD
100
AcDbCellStyleMap
 90
        3
300
CELLSTYLE
  1
TABLEFORMAT_BEGIN
 90
        5
170
     1
 91
        0
 92
    32768
 62
   257
 93
        1
300
CONTENTFORMAT
  1
CONTENTFORMAT_BEGIN
 90
        0
 91
        0
 92
      512
 93
        0
300

 40
0.0
140
1.0
 94
        5
 62
     0
340
7475
144
6.0
309
CONTENTFORMAT_END
171
     1
301
MARGIN
  1
CELLMARGIN_BEGIN
 40
1.5
 40
1.5
 40
1.5
 40
1.5
 40
0.18
 40
0.18
309
CELLMARGIN_END
 94
        6
 95
        1
302
GRIDFORMAT
  1
GRIDFORMAT_BEGIN
 90
        0
 91
        1
 62
     0
 92
       -2
340
0
 93
        0
 40
1.125
309
GRIDFORMAT_END
 95
        2
302
GRIDFORMAT
  1
GRIDFORMAT_BEGIN
 90
        0
 91
        1
 62
     0
 92
       -2
340
0
 93
        0
 40
1.125
309
GRIDFORMAT_END
 95
        4
302
GRIDFORMAT
  1
GRIDFORMAT_BEGIN
 90
        0
 91
        1
 62
     0
 92
       -2
340
0
 93
        0
 40
1.125
309
GRIDFORMAT_END
 95
        8
302
GRIDFORMAT
  1
GRIDFORMAT_BEGIN
 90
        0
 91
        1
 62
     0
 92
       -2
340
0
 93
        0
 40
1.125
309
GRIDFORMAT_END
 95
       16
302
GRIDFORMAT
  1
GRIDFORMAT_BEGIN
 90
        0
 91
        1
 62
     0
 92
       -2
340
0
 93
        0
 40
1.125
309
GRIDFORMAT_END
 95
       32
302
GRIDFORMAT
  1
GRIDFORMAT_BEGIN
 90
        0
 91
        1
 62
     0
 92
       -2
340
0
 93
        0
 40
1.125
309
GRIDFORMAT_END
309
TABLEFORMAT_END
  1
CELLSTYLE_BEGIN
 90
        1
 91
        1
300
_TITLE
309
CELLSTYLE_END
300
CELLSTYLE
  1
TABLEFORMAT_BEGIN
 90
        5
170
     1
 91
        0
 92
        0
 62
   257
 93
        1
300
CONTENTFORMAT
  1
CONTENTFORMAT_BEGIN
 90
        0
 91
        0
 92
      512
 93
        0
300

 40
0.0
140
1.0
 94
        5
 62
     0
340
7475
144
4.5
309
CONTENTFORMAT_END
171
     1
301
MARGIN
  1
CELLMARGIN_BEGIN
 40
1.5
 40
1.5
 40
1.5
 40
1.5
 40
0.18
 40
0.18
309
CELLMARGIN_END
 94
        6
 95
        1
302
GRIDFORMAT
  1
GRIDFORMAT_BEGIN
 90
        0
 91
        1
 62
     0
 92
       -2
340
0
 93
        0
 40
1.125
309
GRIDFORMAT_END
 95
        2
302
GRIDFORMAT
  1
GRIDFORMAT_BEGIN
 90
        0
 91
        1
 62
     0
 92
       -2
340
0
 93
        0
 40
1.125
309
GRIDFORMAT_END
 95
        4
302
GRIDFORMAT
  1
GRIDFORMAT_BEGIN
 90
        0
 91
        1
 62
     0
 92
       -2
340
0
 93
        0
 40
1.125
309
GRIDFORMAT_END
 95
        8
302
GRIDFORMAT
  1
GRIDFORMAT_BEGIN
 90
        0
 91
        1
 62
     0
 92
       -2
340
0
 93
        0
 40
1.125
309
GRIDFORMAT_END
 95
       16
302
GRIDFORMAT
  1
GRIDFORMAT_BEGIN
 90
        0
 91
        1
 62
     0
 92
       -2
340
0
 93
        0
 40
1.125
309
GRIDFORMAT_END
 95
       32
302
GRIDFORMAT
  1
GRIDFORMAT_BEGIN
 90
        0
 91
        1
 62
     0
 92
       -2
340
0
 93
        0
 40
1.125
309
GRIDFORMAT_END
309
TABLEFORMAT_END
  1
CELLSTYLE_BEGIN
 90
        2
 91
        1
300
_HEADER
309
CELLSTYLE_END
300
CELLSTYLE
  1
TABLEFORMAT_BEGIN
 90
        5
170
     1
 91
        0
 92
        0
 62
   257
 93
        1
300
CONTENTFORMAT
  1
CONTENTFORMAT_BEGIN
 90
        0
 91
        0
 92
      512
 93
        0
300

 40
0.0
140
1.0
 94
        2
 62
     0
340
7475
144
4.5
309
CONTENTFORMAT_END
171
     1
301
MARGIN
  1
CELLMARGIN_BEGIN
 40
1.5
 40
1.5
 40
1.5
 40
1.5
 40
0.18
 40
0.18
309
CELLMARGIN_END
 94
        6
 95
        1
302
GRIDFORMAT
  1
GRIDFORMAT_BEGIN
 90
        0
 91
        1
 62
     0
 92
       -2
340
0
 93
        0
 40
1.125
309
GRIDFORMAT_END
 95
        2
302
GRIDFORMAT
  1
GRIDFORMAT_BEGIN
 90
        0
 91
        1
 62
     0
 92
       -2
340
0
 93
        0
 40
1.125
309
GRIDFORMAT_END
 95
        4
302
GRIDFORMAT
  1
GRIDFORMAT_BEGIN
 90
        0
 91
        1
 62
     0
 92
       -2
340
0
 93
        0
 40
1.125
309
GRIDFORMAT_END
 95
        8
302
GRIDFORMAT
  1
GRIDFORMAT_BEGIN
 90
        0
 91
        1
 62
     0
 92
       -2
340
0
 93
        0
 40
1.125
309
GRIDFORMAT_END
 95
       16
302
GRIDFORMAT
  1
GRIDFORMAT_BEGIN
 90
        0
 91
        1
 62
     0
 92
       -2
340
0
 93
        0
 40
1.125
309
GRIDFORMAT_END
 95
       32
302
GRIDFORMAT
  1
GRIDFORMAT_BEGIN
 90
        0
 91
        1
 62
     0
 92
       -2
340
0
 93
        0
 40
1.125
309
GRIDFORMAT_END
309
TABLEFORMAT_END
  1
CELLSTYLE_BEGIN
 90
        3
 91
        2
300
_DATA
309
CELLSTYLE_END
  0
XRECORD
  5
2494A
102
{ACAD_REACTORS
330
248BD
102
}
330
248BD
100
AcDbXrecord
280
     1
102
ACAD_ROUNDTRIP_PRE2007_TABLESTYLE
 90
      512
 91
        0
  1

 92
      512
 93
        0
  2

 94
      512
 95
        0
  3

  0
XRECORD
  5
24925
102
{ACAD_REACTORS
330
24924
102
}
330
24924
100
AcDbXrecord
280
     1
102
RTVSPost2010Prop28
280
     1
102
RTVSPost2010PropOp28
 70
     1
102
RTVSPost2010Prop29
280
     1
102
RTVSPost2010PropOp29
 70
     1
102
RTVSPost2010Prop30
280
     0
102
RTVSPost2010PropOp30
 70
     1
102
RTVSPost2010Prop31
280
     0
102
RTVSPost2010PropOp31
 70
     1
102
RTVSPost2010Prop32
280
     0
102
RTVSPost2010PropOp32
 70
     1
102
RTVSPost2010Prop33
280
     0
102
RTVSPost2010PropOp33
 70
     1
102
RTVSPost2010Prop34
280
     0
102
RTVSPost2010PropOp34
 70
     1
102
RTVSPost2010Prop35
280
     0
102
RTVSPost2010PropOp35
 70
     1
102
RTVSPost2010Prop36
280
     0
102
RTVSPost2010PropOp36
 70
     1
102
RTVSPost2010Prop37
 90
       50
102
RTVSPost2010PropOp37
 70
     1
102
RTVSPost2010Prop38
140
0.0
102
RTVSPost2010PropOp38
 70
     1
102
RTVSPost2010Prop39
140
1.0
102
RTVSPost2010PropOp39
 70
     1
102
RTVSPost2010Prop40
 90
        0
102
RTVSPost2010PropOp40
 70
     1
102
RTVSPost2010Prop41ColorIndex
 90
       18
102
RTVSPost2010Prop41ColorRGB
 90
        0
102
RTVSPost2010PropOp41
 70
     1
102
RTVSPost2010Prop42
 90
       50
102
RTVSPost2010PropOp42
 70
     1
102
RTVSPost2010Prop43
 90
        3
102
RTVSPost2010PropOp43
 70
     1
102
RTVSPost2010Prop44ColorIndex
 90
        5
102
RTVSPost2010Prop44ColorRGB
 90
      255
102
RTVSPost2010PropOp44
 70
     1
102
RTVSPost2010Prop45
280
     0
102
RTVSPost2010PropOp45
 70
     1
102
RTVSPost2010Prop46
 90
       50
102
RTVSPost2010PropOp46
 70
     1
102
RTVSPost2010Prop47
 90
       50
102
RTVSPost2010PropOp47
 70
     1
102
RTVSPost2010Prop48
 90
       50
102
RTVSPost2010PropOp48
 70
     1
102
RTVSPost2010Prop49
280
     0
102
RTVSPost2010PropOp49
 70
     1
102
RTVSPost2010Prop50
 90
       50
102
RTVSPost2010PropOp50
 70
     1
102
RTVSPost2010Prop51ColorIndex
 90
      256
102
RTVSPost2010Prop51ColorRGB
 90
-16777216
102
RTVSPost2010PropOp51
 70
     0
102
RTVSPost2010Prop52
140
1.0
102
RTVSPost2010PropOp52
 70
     0
102
RTVSPost2010Prop53
 90
        2
102
RTVSPost2010PropOp53
 70
     1
102
RTVSPost2010Prop54
  1
strokes_ogs.tif
102
RTVSPost2010PropOp54
 70
     1
102
RTVSPost2010Prop55
280
     0
102
RTVSPost2010PropOp55
 70
     1
102
RTVSPost2010Prop56
140
1.0
102
RTVSPost2010PropOp56
 70
     1
102
RTVSPost2010Prop57
140
1.0
102
RTVSPost2010PropOp57
 70
     1
102
RTVSPropertyOp0
 70
     1
102
RTVSPropertyOp1
 70
     1
102
RTVSPropertyOp2
 70
     1
102
RTVSPropertyOp3
 70
     1
102
RTVSPropertyOp4
 70
     1
102
RTVSPropertyOp5
 70
     1
102
RTVSPropertyOp6
 70
     1
102
RTVSPropertyOp7
 70
     1
102
RTVSPropertyOp8
 70
     1
102
RTVSPropertyOp9
 70
     1
102
RTVSPropertyOp10
 70
     1
102
RTVSPropertyOp11
 70
     1
102
RTVSPropertyOp12
 70
     1
102
RTVSPropertyOp13
 70
     1
102
RTVSPropertyOp14
 70
     1
102
RTVSPropertyOp15
 70
     1
102
RTVSPropertyOp16
 70
     1
102
RTVSPropertyOp17
 70
     1
102
RTVSPropertyOp18
 70
     1
102
RTVSPropertyOp19
 70
     1
102
RTVSPropertyOp20
 70
     1
102
RTVSPropertyOp21
 70
     1
102
RTVSPropertyOp22
 70
     1
102
RTVSPropertyOp23
 70
     1
102
RTVSPropertyOp24
 70
     1
102
RTVSPropertyOp25
 70
     1
102
RTVSPropertyOp26
 70
     1
102
RTVSPropertyOp27
 70
     1
102
RTVSPropertyOp28
 70
     1
102
RTVSPropertyOp29
 70
     1
102
RTVSPropertyOp30
 70
     1
102
RTVSPropertyOp31
 70
     1
102
RTVSPropertyOp32
 70
     1
102
RTVSPropertyOp33
 70
     1
102
RTVSPropertyOp34
 70
     1
102
RTVSPropertyOp35
 70
     1
102
RTVSPropertyOp36
 70
     1
102
RTVSPropertyOp37
 70
     1
102
RTVSPropertyOp38
 70
     1
102
RTVSPropertyOp39
 70
     1
102
RTVSPropertyOp40
 70
     1
102
RTVSPropertyOp41
 70
     1
102
RTVSPropertyOp42
 70
     1
102
RTVSPropertyOp43
 70
     1
102
RTVSPropertyOp44
 70
     1
102
RTVSPropertyOp45
 70
     1
102
RTVSPropertyOp46
 70
     1
102
RTVSPropertyOp47
 70
     1
102
RTVSPropertyOp48
 70
     1
102
RTVSPropertyOp49
 70
     1
102
RTVSPropertyOp50
 70
     1
102
RTVSPropertyOp51
 70
     0
102
RTVSPropertyOp52
 70
     0
102
RTVSPropertyOp53
 70
     1
102
RTVSPropertyOp54
 70
     1
102
RTVSPropertyOp55
 70
     1
102
RTVSPropertyOp56
 70
     1
102
RTVSPropertyOp57
 70
     1
102
RTVSPropertyOp58
 70
     1
102
RTVSPropertyOp59
 70
     1
102
RTVSPropertyOp60
 70
     1
102
RTVSPropertyOp61
 70
     1
102
RTVSPropertyOp62
 70
     1
  0
XRECORD
  5
24923
102
{ACAD_REACTORS
330
24922
102
}
330
24922
100
AcDbXrecord
280
     1
102
RTVSPost2010Prop28
280
     0
102
RTVSPost2010PropOp28
 70
     1
102
RTVSPost2010Prop29
280
     1
102
RTVSPost2010PropOp29
 70
     1
102
RTVSPost2010Prop30
280
     1
102
RTVSPost2010PropOp30
 70
     1
102
RTVSPost2010Prop31
280
     0
102
RTVSPost2010PropOp31
 70
     1
102
RTVSPost2010Prop32
280
     0
102
RTVSPost2010PropOp32
 70
     1
102
RTVSPost2010Prop33
280
     0
102
RTVSPost2010PropOp33
 70
     1
102
RTVSPost2010Prop34
280
     0
102
RTVSPost2010PropOp34
 70
     1
102
RTVSPost2010Prop35
280
     0
102
RTVSPost2010PropOp35
 70
     1
102
RTVSPost2010Prop36
280
     0
102
RTVSPost2010PropOp36
 70
     1
102
RTVSPost2010Prop37
 90
       50
102
RTVSPost2010PropOp37
 70
     1
102
RTVSPost2010Prop38
140
0.0
102
RTVSPost2010PropOp38
 70
     1
102
RTVSPost2010Prop39
140
1.0
102
RTVSPost2010PropOp39
 70
     1
102
RTVSPost2010Prop40
 90
        0
102
RTVSPost2010PropOp40
 70
     1
102
RTVSPost2010Prop41ColorIndex
 90
       18
102
RTVSPost2010Prop41ColorRGB
 90
        0
102
RTVSPost2010PropOp41
 70
     1
102
RTVSPost2010Prop42
 90
       50
102
RTVSPost2010PropOp42
 70
     1
102
RTVSPost2010Prop43
 90
        3
102
RTVSPost2010PropOp43
 70
     1
102
RTVSPost2010Prop44ColorIndex
 90
        5
102
RTVSPost2010Prop44ColorRGB
 90
      255
102
RTVSPost2010PropOp44
 70
     1
102
RTVSPost2010Prop45
280
     0
102
RTVSPost2010PropOp45
 70
     1
102
RTVSPost2010Prop46
 90
       50
102
RTVSPost2010PropOp46
 70
     1
102
RTVSPost2010Prop47
 90
       50
102
RTVSPost2010PropOp47
 70
     1
102
RTVSPost2010Prop48
 90
       50
102
RTVSPost2010PropOp48
 70
     1
102
RTVSPost2010Prop49
280
     0
102
RTVSPost2010PropOp49
 70
     1
102
RTVSPost2010Prop50
 90
       50
102
RTVSPost2010PropOp50
 70
     1
102
RTVSPost2010Prop51ColorIndex
 90
      256
102
RTVSPost2010Prop51ColorRGB
 90
-16777216
102
RTVSPost2010PropOp51
 70
     0
102
RTVSPost2010Prop52
140
1.0
102
RTVSPost2010PropOp52
 70
     0
102
RTVSPost2010Prop53
 90
        2
102
RTVSPost2010PropOp53
 70
     1
102
RTVSPost2010Prop54
  1
strokes_ogs.tif
102
RTVSPost2010PropOp54
 70
     1
102
RTVSPost2010Prop55
280
     0
102
RTVSPost2010PropOp55
 70
     1
102
RTVSPost2010Prop56
140
1.0
102
RTVSPost2010PropOp56
 70
     1
102
RTVSPost2010Prop57
140
1.0
102
RTVSPost2010PropOp57
 70
     1
102
RTVSPropertyOp0
 70
     1
102
RTVSPropertyOp1
 70
     1
102
RTVSPropertyOp2
 70
     1
102
RTVSPropertyOp3
 70
     1
102
RTVSPropertyOp4
 70
     1
102
RTVSPropertyOp5
 70
     1
102
RTVSPropertyOp6
 70
     1
102
RTVSPropertyOp7
 70
     1
102
RTVSPropertyOp8
 70
     1
102
RTVSPropertyOp9
 70
     1
102
RTVSPropertyOp10
 70
     1
102
RTVSPropertyOp11
 70
     1
102
RTVSPropertyOp12
 70
     1
102
RTVSPropertyOp13
 70
     1
102
RTVSPropertyOp14
 70
     1
102
RTVSPropertyOp15
 70
     1
102
RTVSPropertyOp16
 70
     1
102
RTVSPropertyOp17
 70
     1
102
RTVSPropertyOp18
 70
     1
102
RTVSPropertyOp19
 70
     1
102
RTVSPropertyOp20
 70
     1
102
RTVSPropertyOp21
 70
     1
102
RTVSPropertyOp22
 70
     1
102
RTVSPropertyOp23
 70
     1
102
RTVSPropertyOp24
 70
     1
102
RTVSPropertyOp25
 70
     1
102
RTVSPropertyOp26
 70
     1
102
RTVSPropertyOp27
 70
     1
102
RTVSPropertyOp28
 70
     1
102
RTVSPropertyOp29
 70
     1
102
RTVSPropertyOp30
 70
     1
102
RTVSPropertyOp31
 70
     1
102
RTVSPropertyOp32
 70
     1
102
RTVSPropertyOp33
 70
     1
102
RTVSPropertyOp34
 70
     1
102
RTVSPropertyOp35
 70
     1
102
RTVSPropertyOp36
 70
     1
102
RTVSPropertyOp37
 70
     1
102
RTVSPropertyOp38
 70
     1
102
RTVSPropertyOp39
 70
     1
102
RTVSPropertyOp40
 70
     1
102
RTVSPropertyOp41
 70
     1
102
RTVSPropertyOp42
 70
     1
102
RTVSPropertyOp43
 70
     1
102
RTVSPropertyOp44
 70
     1
102
RTVSPropertyOp45
 70
     1
102
RTVSPropertyOp46
 70
     1
102
RTVSPropertyOp47
 70
     1
102
RTVSPropertyOp48
 70
     1
102
RTVSPropertyOp49
 70
     1
102
RTVSPropertyOp50
 70
     1
102
RTVSPropertyOp51
 70
     0
102
RTVSPropertyOp52
 70
     0
102
RTVSPropertyOp53
 70
     1
102
RTVSPropertyOp54
 70
     1
102
RTVSPropertyOp55
 70
     1
102
RTVSPropertyOp56
 70
     1
102
RTVSPropertyOp57
 70
     1
102
RTVSPropertyOp58
 70
     1
102
RTVSPropertyOp59
 70
     1
102
RTVSPropertyOp60
 70
     1
102
RTVSPropertyOp61
 70
     1
102
RTVSPropertyOp62
 70
     1
  0
XRECORD
  5
24931
102
{ACAD_REACTORS
330
24930
102
}
330
24930
100
AcDbXrecord
280
     1
102
RTVSPost2010Prop28
280
     0
102
RTVSPost2010PropOp28
 70
     1
102
RTVSPost2010Prop29
280
     1
102
RTVSPost2010PropOp29
 70
     1
102
RTVSPost2010Prop30
280
     1
102
RTVSPost2010PropOp30
 70
     1
102
RTVSPost2010Prop31
280
     0
102
RTVSPost2010PropOp31
 70
     1
102
RTVSPost2010Prop32
280
     0
102
RTVSPost2010PropOp32
 70
     1
102
RTVSPost2010Prop33
280
     0
102
RTVSPost2010PropOp33
 70
     1
102
RTVSPost2010Prop34
280
     0
102
RTVSPost2010PropOp34
 70
     1
102
RTVSPost2010Prop35
280
     0
102
RTVSPost2010PropOp35
 70
     1
102
RTVSPost2010Prop36
280
     0
102
RTVSPost2010PropOp36
 70
     1
102
RTVSPost2010Prop37
 90
       50
102
RTVSPost2010PropOp37
 70
     1
102
RTVSPost2010Prop38
140
0.0
102
RTVSPost2010PropOp38
 70
     1
102
RTVSPost2010Prop39
140
1.0
102
RTVSPost2010PropOp39
 70
     1
102
RTVSPost2010Prop40
 90
        0
102
RTVSPost2010PropOp40
 70
     1
102
RTVSPost2010Prop41ColorIndex
 90
       18
102
RTVSPost2010Prop41ColorRGB
 90
        0
102
RTVSPost2010PropOp41
 70
     1
102
RTVSPost2010Prop42
 90
       50
102
RTVSPost2010PropOp42
 70
     1
102
RTVSPost2010Prop43
 90
        3
102
RTVSPost2010PropOp43
 70
     1
102
RTVSPost2010Prop44ColorIndex
 90
        5
102
RTVSPost2010Prop44ColorRGB
 90
      255
102
RTVSPost2010PropOp44
 70
     1
102
RTVSPost2010Prop45
280
     0
102
RTVSPost2010PropOp45
 70
     1
102
RTVSPost2010Prop46
 90
       50
102
RTVSPost2010PropOp46
 70
     1
102
RTVSPost2010Prop47
 90
       50
102
RTVSPost2010PropOp47
 70
     1
102
RTVSPost2010Prop48
 90
       50
102
RTVSPost2010PropOp48
 70
     1
102
RTVSPost2010Prop49
280
     0
102
RTVSPost2010PropOp49
 70
     1
102
RTVSPost2010Prop50
 90
       50
102
RTVSPost2010PropOp50
 70
     1
102
RTVSPost2010Prop51ColorIndex
 90
      256
102
RTVSPost2010Prop51ColorRGB
 90
-16777216
102
RTVSPost2010PropOp51
 70
     0
102
RTVSPost2010Prop52
140
1.0
102
RTVSPost2010PropOp52
 70
     0
102
RTVSPost2010Prop53
 90
        2
102
RTVSPost2010PropOp53
 70
     1
102
RTVSPost2010Prop54
  1
strokes_ogs.tif
102
RTVSPost2010PropOp54
 70
     1
102
RTVSPost2010Prop55
280
     0
102
RTVSPost2010PropOp55
 70
     1
102
RTVSPost2010Prop56
140
1.0
102
RTVSPost2010PropOp56
 70
     1
102
RTVSPost2010Prop57
140
1.0
102
RTVSPost2010PropOp57
 70
     1
102
RTVSPropertyOp0
 70
     1
102
RTVSPropertyOp1
 70
     1
102
RTVSPropertyOp2
 70
     1
102
RTVSPropertyOp3
 70
     1
102
RTVSPropertyOp4
 70
     1
102
RTVSPropertyOp5
 70
     1
102
RTVSPropertyOp6
 70
     1
102
RTVSPropertyOp7
 70
     1
102
RTVSPropertyOp8
 70
     1
102
RTVSPropertyOp9
 70
     1
102
RTVSPropertyOp10
 70
     1
102
RTVSPropertyOp11
 70
     1
102
RTVSPropertyOp12
 70
     1
102
RTVSPropertyOp13
 70
     1
102
RTVSPropertyOp14
 70
     1
102
RTVSPropertyOp15
 70
     1
102
RTVSPropertyOp16
 70
     1
102
RTVSPropertyOp17
 70
     1
102
RTVSPropertyOp18
 70
     1
102
RTVSPropertyOp19
 70
     1
102
RTVSPropertyOp20
 70
     1
102
RTVSPropertyOp21
 70
     1
102
RTVSPropertyOp22
 70
     1
102
RTVSPropertyOp23
 70
     1
102
RTVSPropertyOp24
 70
     1
102
RTVSPropertyOp25
 70
     1
102
RTVSPropertyOp26
 70
     1
102
RTVSPropertyOp27
 70
     1
102
RTVSPropertyOp28
 70
     1
102
RTVSPropertyOp29
 70
     1
102
RTVSPropertyOp30
 70
     1
102
RTVSPropertyOp31
 70
     1
102
RTVSPropertyOp32
 70
     1
102
RTVSPropertyOp33
 70
     1
102
RTVSPropertyOp34
 70
     1
102
RTVSPropertyOp35
 70
     1
102
RTVSPropertyOp36
 70
     1
102
RTVSPropertyOp37
 70
     1
102
RTVSPropertyOp38
 70
     1
102
RTVSPropertyOp39
 70
     1
102
RTVSPropertyOp40
 70
     1
102
RTVSPropertyOp41
 70
     1
102
RTVSPropertyOp42
 70
     1
102
RTVSPropertyOp43
 70
     1
102
RTVSPropertyOp44
 70
     1
102
RTVSPropertyOp45
 70
     1
102
RTVSPropertyOp46
 70
     1
102
RTVSPropertyOp47
 70
     1
102
RTVSPropertyOp48
 70
     1
102
RTVSPropertyOp49
 70
     1
102
RTVSPropertyOp50
 70
     1
102
RTVSPropertyOp51
 70
     0
102
RTVSPropertyOp52
 70
     0
102
RTVSPropertyOp53
 70
     1
102
RTVSPropertyOp54
 70
     1
102
RTVSPropertyOp55
 70
     1
102
RTVSPropertyOp56
 70
     1
102
RTVSPropertyOp57
 70
     1
102
RTVSPropertyOp58
 70
     1
102
RTVSPropertyOp59
 70
     1
102
RTVSPropertyOp60
 70
     1
102
RTVSPropertyOp61
 70
     1
102
RTVSPropertyOp62
 70
     1
  0
XRECORD
  5
24939
102
{ACAD_REACTORS
330
24938
102
}
330
24938
100
AcDbXrecord
280
     1
102
RTVSPost2010Prop28
280
     0
102
RTVSPost2010PropOp28
 70
     1
102
RTVSPost2010Prop29
280
     1
102
RTVSPost2010PropOp29
 70
     1
102
RTVSPost2010Prop30
280
     1
102
RTVSPost2010PropOp30
 70
     1
102
RTVSPost2010Prop31
280
     0
102
RTVSPost2010PropOp31
 70
     1
102
RTVSPost2010Prop32
280
     0
102
RTVSPost2010PropOp32
 70
     1
102
RTVSPost2010Prop33
280
     0
102
RTVSPost2010PropOp33
 70
     1
102
RTVSPost2010Prop34
280
     0
102
RTVSPost2010PropOp34
 70
     1
102
RTVSPost2010Prop35
280
     0
102
RTVSPost2010PropOp35
 70
     1
102
RTVSPost2010Prop36
280
     0
102
RTVSPost2010PropOp36
 70
     1
102
RTVSPost2010Prop37
 90
       50
102
RTVSPost2010PropOp37
 70
     1
102
RTVSPost2010Prop38
140
0.0
102
RTVSPost2010PropOp38
 70
     1
102
RTVSPost2010Prop39
140
1.0
102
RTVSPost2010PropOp39
 70
     1
102
RTVSPost2010Prop40
 90
        0
102
RTVSPost2010PropOp40
 70
     1
102
RTVSPost2010Prop41ColorIndex
 90
       18
102
RTVSPost2010Prop41ColorRGB
 90
        0
102
RTVSPost2010PropOp41
 70
     1
102
RTVSPost2010Prop42
 90
       50
102
RTVSPost2010PropOp42
 70
     1
102
RTVSPost2010Prop43
 90
        3
102
RTVSPost2010PropOp43
 70
     1
102
RTVSPost2010Prop44ColorIndex
 90
        5
102
RTVSPost2010Prop44ColorRGB
 90
      255
102
RTVSPost2010PropOp44
 70
     1
102
RTVSPost2010Prop45
280
     0
102
RTVSPost2010PropOp45
 70
     1
102
RTVSPost2010Prop46
 90
       50
102
RTVSPost2010PropOp46
 70
     1
102
RTVSPost2010Prop47
 90
       50
102
RTVSPost2010PropOp47
 70
     1
102
RTVSPost2010Prop48
 90
       50
102
RTVSPost2010PropOp48
 70
     1
102
RTVSPost2010Prop49
280
     0
102
RTVSPost2010PropOp49
 70
     1
102
RTVSPost2010Prop50
 90
       50
102
RTVSPost2010PropOp50
 70
     1
102
RTVSPost2010Prop51ColorIndex
 90
      256
102
RTVSPost2010Prop51ColorRGB
 90
-16777216
102
RTVSPost2010PropOp51
 70
     0
102
RTVSPost2010Prop52
140
1.0
102
RTVSPost2010PropOp52
 70
     0
102
RTVSPost2010Prop53
 90
        2
102
RTVSPost2010PropOp53
 70
     1
102
RTVSPost2010Prop54
  1
strokes_ogs.tif
102
RTVSPost2010PropOp54
 70
     1
102
RTVSPost2010Prop55
280
     0
102
RTVSPost2010PropOp55
 70
     1
102
RTVSPost2010Prop56
140
1.0
102
RTVSPost2010PropOp56
 70
     1
102
RTVSPost2010Prop57
140
1.0
102
RTVSPost2010PropOp57
 70
     1
102
RTVSPropertyOp0
 70
     1
102
RTVSPropertyOp1
 70
     1
102
RTVSPropertyOp2
 70
     1
102
RTVSPropertyOp3
 70
     1
102
RTVSPropertyOp4
 70
     1
102
RTVSPropertyOp5
 70
     1
102
RTVSPropertyOp6
 70
     1
102
RTVSPropertyOp7
 70
     1
102
RTVSPropertyOp8
 70
     1
102
RTVSPropertyOp9
 70
     1
102
RTVSPropertyOp10
 70
     1
102
RTVSPropertyOp11
 70
     1
102
RTVSPropertyOp12
 70
     1
102
RTVSPropertyOp13
 70
     1
102
RTVSPropertyOp14
 70
     1
102
RTVSPropertyOp15
 70
     1
102
RTVSPropertyOp16
 70
     1
102
RTVSPropertyOp17
 70
     1
102
RTVSPropertyOp18
 70
     1
102
RTVSPropertyOp19
 70
     1
102
RTVSPropertyOp20
 70
     1
102
RTVSPropertyOp21
 70
     1
102
RTVSPropertyOp22
 70
     1
102
RTVSPropertyOp23
 70
     1
102
RTVSPropertyOp24
 70
     1
102
RTVSPropertyOp25
 70
     1
102
RTVSPropertyOp26
 70
     1
102
RTVSPropertyOp27
 70
     1
102
RTVSPropertyOp28
 70
     1
102
RTVSPropertyOp29
 70
     1
102
RTVSPropertyOp30
 70
     1
102
RTVSPropertyOp31
 70
     1
102
RTVSPropertyOp32
 70
     1
102
RTVSPropertyOp33
 70
     1
102
RTVSPropertyOp34
 70
     1
102
RTVSPropertyOp35
 70
     1
102
RTVSPropertyOp36
 70
     1
102
RTVSPropertyOp37
 70
     1
102
RTVSPropertyOp38
 70
     1
102
RTVSPropertyOp39
 70
     1
102
RTVSPropertyOp40
 70
     1
102
RTVSPropertyOp41
 70
     1
102
RTVSPropertyOp42
 70
     1
102
RTVSPropertyOp43
 70
     1
102
RTVSPropertyOp44
 70
     1
102
RTVSPropertyOp45
 70
     1
102
RTVSPropertyOp46
 70
     1
102
RTVSPropertyOp47
 70
     1
102
RTVSPropertyOp48
 70
     1
102
RTVSPropertyOp49
 70
     1
102
RTVSPropertyOp50
 70
     1
102
RTVSPropertyOp51
 70
     0
102
RTVSPropertyOp52
 70
     0
102
RTVSPropertyOp53
 70
     1
102
RTVSPropertyOp54
 70
     1
102
RTVSPropertyOp55
 70
     1
102
RTVSPropertyOp56
 70
     1
102
RTVSPropertyOp57
 70
     1
102
RTVSPropertyOp58
 70
     1
102
RTVSPropertyOp59
 70
     1
102
RTVSPropertyOp60
 70
     1
102
RTVSPropertyOp61
 70
     1
102
RTVSPropertyOp62
 70
     1
  0
XRECORD
  5
2492B
102
{ACAD_REACTORS
330
2492A
102
}
330
2492A
100
AcDbXrecord
280
     1
102
RTVSPost2010Prop28
280
     0
102
RTVSPost2010PropOp28
 70
     1
102
RTVSPost2010Prop29
280
     1
102
RTVSPost2010PropOp29
 70
     1
102
RTVSPost2010Prop30
280
     1
102
RTVSPost2010PropOp30
 70
     1
102
RTVSPost2010Prop31
280
     0
102
RTVSPost2010PropOp31
 70
     1
102
RTVSPost2010Prop32
280
     0
102
RTVSPost2010PropOp32
 70
     1
102
RTVSPost2010Prop33
280
     0
102
RTVSPost2010PropOp33
 70
     1
102
RTVSPost2010Prop34
280
     0
102
RTVSPost2010PropOp34
 70
     1
102
RTVSPost2010Prop35
280
     0
102
RTVSPost2010PropOp35
 70
     1
102
RTVSPost2010Prop36
280
     0
102
RTVSPost2010PropOp36
 70
     1
102
RTVSPost2010Prop37
 90
       50
102
RTVSPost2010PropOp37
 70
     1
102
RTVSPost2010Prop38
140
0.0
102
RTVSPost2010PropOp38
 70
     1
102
RTVSPost2010Prop39
140
1.0
102
RTVSPost2010PropOp39
 70
     1
102
RTVSPost2010Prop40
 90
        0
102
RTVSPost2010PropOp40
 70
     1
102
RTVSPost2010Prop41ColorIndex
 90
       18
102
RTVSPost2010Prop41ColorRGB
 90
        0
102
RTVSPost2010PropOp41
 70
     1
102
RTVSPost2010Prop42
 90
       50
102
RTVSPost2010PropOp42
 70
     1
102
RTVSPost2010Prop43
 90
        3
102
RTVSPost2010PropOp43
 70
     1
102
RTVSPost2010Prop44ColorIndex
 90
        5
102
RTVSPost2010Prop44ColorRGB
 90
      255
102
RTVSPost2010PropOp44
 70
     1
102
RTVSPost2010Prop45
280
     0
102
RTVSPost2010PropOp45
 70
     1
102
RTVSPost2010Prop46
 90
       50
102
RTVSPost2010PropOp46
 70
     1
102
RTVSPost2010Prop47
 90
       50
102
RTVSPost2010PropOp47
 70
     1
102
RTVSPost2010Prop48
 90
       50
102
RTVSPost2010PropOp48
 70
     1
102
RTVSPost2010Prop49
280
     0
102
RTVSPost2010PropOp49
 70
     1
102
RTVSPost2010Prop50
 90
       50
102
RTVSPost2010PropOp50
 70
     1
102
RTVSPost2010Prop51ColorIndex
 90
      256
102
RTVSPost2010Prop51ColorRGB
 90
-16777216
102
RTVSPost2010PropOp51
 70
     0
102
RTVSPost2010Prop52
140
1.0
102
RTVSPost2010PropOp52
 70
     0
102
RTVSPost2010Prop53
 90
        2
102
RTVSPost2010PropOp53
 70
     1
102
RTVSPost2010Prop54
  1
strokes_ogs.tif
102
RTVSPost2010PropOp54
 70
     1
102
RTVSPost2010Prop55
280
     0
102
RTVSPost2010PropOp55
 70
     1
102
RTVSPost2010Prop56
140
1.0
102
RTVSPost2010PropOp56
 70
     1
102
RTVSPost2010Prop57
140
1.0
102
RTVSPost2010PropOp57
 70
     1
102
RTVSPropertyOp0
 70
     1
102
RTVSPropertyOp1
 70
     1
102
RTVSPropertyOp2
 70
     1
102
RTVSPropertyOp3
 70
     1
102
RTVSPropertyOp4
 70
     1
102
RTVSPropertyOp5
 70
     1
102
RTVSPropertyOp6
 70
     1
102
RTVSPropertyOp7
 70
     1
102
RTVSPropertyOp8
 70
     1
102
RTVSPropertyOp9
 70
     1
102
RTVSPropertyOp10
 70
     1
102
RTVSPropertyOp11
 70
     1
102
RTVSPropertyOp12
 70
     1
102
RTVSPropertyOp13
 70
     1
102
RTVSPropertyOp14
 70
     1
102
RTVSPropertyOp15
 70
     1
102
RTVSPropertyOp16
 70
     1
102
RTVSPropertyOp17
 70
     1
102
RTVSPropertyOp18
 70
     1
102
RTVSPropertyOp19
 70
     1
102
RTVSPropertyOp20
 70
     1
102
RTVSPropertyOp21
 70
     1
102
RTVSPropertyOp22
 70
     1
102
RTVSPropertyOp23
 70
     1
102
RTVSPropertyOp24
 70
     1
102
RTVSPropertyOp25
 70
     1
102
RTVSPropertyOp26
 70
     1
102
RTVSPropertyOp27
 70
     1
102
RTVSPropertyOp28
 70
     1
102
RTVSPropertyOp29
 70
     1
102
RTVSPropertyOp30
 70
     1
102
RTVSPropertyOp31
 70
     1
102
RTVSPropertyOp32
 70
     1
102
RTVSPropertyOp33
 70
     1
102
RTVSPropertyOp34
 70
     1
102
RTVSPropertyOp35
 70
     1
102
RTVSPropertyOp36
 70
     1
102
RTVSPropertyOp37
 70
     1
102
RTVSPropertyOp38
 70
     1
102
RTVSPropertyOp39
 70
     1
102
RTVSPropertyOp40
 70
     1
102
RTVSPropertyOp41
 70
     1
102
RTVSPropertyOp42
 70
     1
102
RTVSPropertyOp43
 70
     1
102
RTVSPropertyOp44
 70
     1
102
RTVSPropertyOp45
 70
     1
102
RTVSPropertyOp46
 70
     1
102
RTVSPropertyOp47
 70
     1
102
RTVSPropertyOp48
 70
     1
102
RTVSPropertyOp49
 70
     1
102
RTVSPropertyOp50
 70
     1
102
RTVSPropertyOp51
 70
     0
102
RTVSPropertyOp52
 70
     0
102
RTVSPropertyOp53
 70
     1
102
RTVSPropertyOp54
 70
     1
102
RTVSPropertyOp55
 70
     1
102
RTVSPropertyOp56
 70
     1
102
RTVSPropertyOp57
 70
     1
102
RTVSPropertyOp58
 70
     1
102
RTVSPropertyOp59
 70
     1
102
RTVSPropertyOp60
 70
     1
102
RTVSPropertyOp61
 70
     1
102
RTVSPropertyOp62
 70
     1
  0
XRECORD
  5
2492F
102
{ACAD_REACTORS
330
2492E
102
}
330
2492E
100
AcDbXrecord
280
     1
102
RTVSPost2010Prop28
280
     0
102
RTVSPost2010PropOp28
 70
     1
102
RTVSPost2010Prop29
280
     1
102
RTVSPost2010PropOp29
 70
     1
102
RTVSPost2010Prop30
280
     1
102
RTVSPost2010PropOp30
 70
     1
102
RTVSPost2010Prop31
280
     0
102
RTVSPost2010PropOp31
 70
     1
102
RTVSPost2010Prop32
280
     0
102
RTVSPost2010PropOp32
 70
     1
102
RTVSPost2010Prop33
280
     0
102
RTVSPost2010PropOp33
 70
     1
102
RTVSPost2010Prop34
280
     0
102
RTVSPost2010PropOp34
 70
     1
102
RTVSPost2010Prop35
280
     0
102
RTVSPost2010PropOp35
 70
     1
102
RTVSPost2010Prop36
280
     0
102
RTVSPost2010PropOp36
 70
     1
102
RTVSPost2010Prop37
 90
       50
102
RTVSPost2010PropOp37
 70
     1
102
RTVSPost2010Prop38
140
0.0
102
RTVSPost2010PropOp38
 70
     1
102
RTVSPost2010Prop39
140
1.0
102
RTVSPost2010PropOp39
 70
     1
102
RTVSPost2010Prop40
 90
        0
102
RTVSPost2010PropOp40
 70
     1
102
RTVSPost2010Prop41ColorIndex
 90
       18
102
RTVSPost2010Prop41ColorRGB
 90
        0
102
RTVSPost2010PropOp41
 70
     1
102
RTVSPost2010Prop42
 90
       50
102
RTVSPost2010PropOp42
 70
     1
102
RTVSPost2010Prop43
 90
        3
102
RTVSPost2010PropOp43
 70
     1
102
RTVSPost2010Prop44ColorIndex
 90
        5
102
RTVSPost2010Prop44ColorRGB
 90
      255
102
RTVSPost2010PropOp44
 70
     1
102
RTVSPost2010Prop45
280
     0
102
RTVSPost2010PropOp45
 70
     1
102
RTVSPost2010Prop46
 90
       50
102
RTVSPost2010PropOp46
 70
     1
102
RTVSPost2010Prop47
 90
       50
102
RTVSPost2010PropOp47
 70
     1
102
RTVSPost2010Prop48
 90
       50
102
RTVSPost2010PropOp48
 70
     1
102
RTVSPost2010Prop49
280
     0
102
RTVSPost2010PropOp49
 70
     1
102
RTVSPost2010Prop50
 90
       50
102
RTVSPost2010PropOp50
 70
     1
102
RTVSPost2010Prop51ColorIndex
 90
      256
102
RTVSPost2010Prop51ColorRGB
 90
-16777216
102
RTVSPost2010PropOp51
 70
     0
102
RTVSPost2010Prop52
140
1.0
102
RTVSPost2010PropOp52
 70
     0
102
RTVSPost2010Prop53
 90
        2
102
RTVSPost2010PropOp53
 70
     1
102
RTVSPost2010Prop54
  1
strokes_ogs.tif
102
RTVSPost2010PropOp54
 70
     1
102
RTVSPost2010Prop55
280
     0
102
RTVSPost2010PropOp55
 70
     1
102
RTVSPost2010Prop56
140
1.0
102
RTVSPost2010PropOp56
 70
     1
102
RTVSPost2010Prop57
140
1.0
102
RTVSPost2010PropOp57
 70
     1
102
RTVSPropertyOp0
 70
     1
102
RTVSPropertyOp1
 70
     1
102
RTVSPropertyOp2
 70
     1
102
RTVSPropertyOp3
 70
     1
102
RTVSPropertyOp4
 70
     1
102
RTVSPropertyOp5
 70
     1
102
RTVSPropertyOp6
 70
     1
102
RTVSPropertyOp7
 70
     1
102
RTVSPropertyOp8
 70
     1
102
RTVSPropertyOp9
 70
     1
102
RTVSPropertyOp10
 70
     1
102
RTVSPropertyOp11
 70
     1
102
RTVSPropertyOp12
 70
     1
102
RTVSPropertyOp13
 70
     1
102
RTVSPropertyOp14
 70
     1
102
RTVSPropertyOp15
 70
     1
102
RTVSPropertyOp16
 70
     1
102
RTVSPropertyOp17
 70
     1
102
RTVSPropertyOp18
 70
     1
102
RTVSPropertyOp19
 70
     1
102
RTVSPropertyOp20
 70
     1
102
RTVSPropertyOp21
 70
     1
102
RTVSPropertyOp22
 70
     1
102
RTVSPropertyOp23
 70
     1
102
RTVSPropertyOp24
 70
     1
102
RTVSPropertyOp25
 70
     1
102
RTVSPropertyOp26
 70
     1
102
RTVSPropertyOp27
 70
     1
102
RTVSPropertyOp28
 70
     1
102
RTVSPropertyOp29
 70
     1
102
RTVSPropertyOp30
 70
     1
102
RTVSPropertyOp31
 70
     1
102
RTVSPropertyOp32
 70
     1
102
RTVSPropertyOp33
 70
     1
102
RTVSPropertyOp34
 70
     1
102
RTVSPropertyOp35
 70
     1
102
RTVSPropertyOp36
 70
     1
102
RTVSPropertyOp37
 70
     1
102
RTVSPropertyOp38
 70
     1
102
RTVSPropertyOp39
 70
     1
102
RTVSPropertyOp40
 70
     1
102
RTVSPropertyOp41
 70
     1
102
RTVSPropertyOp42
 70
     1
102
RTVSPropertyOp43
 70
     1
102
RTVSPropertyOp44
 70
     1
102
RTVSPropertyOp45
 70
     1
102
RTVSPropertyOp46
 70
     1
102
RTVSPropertyOp47
 70
     1
102
RTVSPropertyOp48
 70
     1
102
RTVSPropertyOp49
 70
     1
102
RTVSPropertyOp50
 70
     1
102
RTVSPropertyOp51
 70
     0
102
RTVSPropertyOp52
 70
     0
102
RTVSPropertyOp53
 70
     1
102
RTVSPropertyOp54
 70
     1
102
RTVSPropertyOp55
 70
     1
102
RTVSPropertyOp56
 70
     1
102
RTVSPropertyOp57
 70
     1
102
RTVSPropertyOp58
 70
     1
102
RTVSPropertyOp59
 70
     1
102
RTVSPropertyOp60
 70
     1
102
RTVSPropertyOp61
 70
     1
102
RTVSPropertyOp62
 70
     1
  0
XRECORD
  5
24949
102
{ACAD_REACTORS
330
24948
102
}
330
24948
100
AcDbXrecord
280
     1
102
RTVSPost2010Prop28
280
     0
102
RTVSPost2010PropOp28
 70
     0
102
RTVSPost2010Prop29
280
     1
102
RTVSPost2010PropOp29
 70
     0
102
RTVSPost2010Prop30
280
     1
102
RTVSPost2010PropOp30
 70
     0
102
RTVSPost2010Prop31
280
     0
102
RTVSPost2010PropOp31
 70
     0
102
RTVSPost2010Prop32
280
     0
102
RTVSPost2010PropOp32
 70
     0
102
RTVSPost2010Prop33
280
     0
102
RTVSPost2010PropOp33
 70
     0
102
RTVSPost2010Prop34
280
     0
102
RTVSPost2010PropOp34
 70
     0
102
RTVSPost2010Prop35
280
     0
102
RTVSPost2010PropOp35
 70
     0
102
RTVSPost2010Prop36
280
     0
102
RTVSPost2010PropOp36
 70
     0
102
RTVSPost2010Prop37
 90
       50
102
RTVSPost2010PropOp37
 70
     0
102
RTVSPost2010Prop38
140
0.0
102
RTVSPost2010PropOp38
 70
     0
102
RTVSPost2010Prop39
140
1.0
102
RTVSPost2010PropOp39
 70
     0
102
RTVSPost2010Prop40
 90
        0
102
RTVSPost2010PropOp40
 70
     0
102
RTVSPost2010Prop41ColorIndex
 90
       18
102
RTVSPost2010Prop41ColorRGB
 90
        0
102
RTVSPost2010PropOp41
 70
     0
102
RTVSPost2010Prop42
 90
       50
102
RTVSPost2010PropOp42
 70
     0
102
RTVSPost2010Prop43
 90
        3
102
RTVSPost2010PropOp43
 70
     0
102
RTVSPost2010Prop44ColorIndex
 90
        5
102
RTVSPost2010Prop44ColorRGB
 90
      255
102
RTVSPost2010PropOp44
 70
     0
102
RTVSPost2010Prop45
280
     0
102
RTVSPost2010PropOp45
 70
     0
102
RTVSPost2010Prop46
 90
       50
102
RTVSPost2010PropOp46
 70
     0
102
RTVSPost2010Prop47
 90
       50
102
RTVSPost2010PropOp47
 70
     0
102
RTVSPost2010Prop48
 90
       50
102
RTVSPost2010PropOp48
 70
     0
102
RTVSPost2010Prop49
280
     0
102
RTVSPost2010PropOp49
 70
     0
102
RTVSPost2010Prop50
 90
       50
102
RTVSPost2010PropOp50
 70
     0
102
RTVSPost2010Prop51ColorIndex
 90
      256
102
RTVSPost2010Prop51ColorRGB
 90
-16777216
102
RTVSPost2010PropOp51
 70
     0
102
RTVSPost2010Prop52
140
1.0
102
RTVSPost2010PropOp52
 70
     0
102
RTVSPost2010Prop53
 90
        2
102
RTVSPost2010PropOp53
 70
     0
102
RTVSPost2010Prop54
  1
strokes_ogs.tif
102
RTVSPost2010PropOp54
 70
     0
102
RTVSPost2010Prop55
280
     0
102
RTVSPost2010PropOp55
 70
     0
102
RTVSPost2010Prop56
140
1.0
102
RTVSPost2010PropOp56
 70
     0
102
RTVSPost2010Prop57
140
1.0
102
RTVSPost2010PropOp57
 70
     0
102
RTVSPropertyOp0
 70
     0
102
RTVSPropertyOp1
 70
     0
102
RTVSPropertyOp2
 70
     0
102
RTVSPropertyOp3
 70
     0
102
RTVSPropertyOp4
 70
     0
102
RTVSPropertyOp5
 70
     0
102
RTVSPropertyOp6
 70
     0
102
RTVSPropertyOp7
 70
     0
102
RTVSPropertyOp8
 70
     0
102
RTVSPropertyOp9
 70
     0
102
RTVSPropertyOp10
 70
     0
102
RTVSPropertyOp11
 70
     0
102
RTVSPropertyOp12
 70
     0
102
RTVSPropertyOp13
 70
     0
102
RTVSPropertyOp14
 70
     2
102
RTVSPropertyOp15
 70
     0
102
RTVSPropertyOp16
 70
     0
102
RTVSPropertyOp17
 70
     0
102
RTVSPropertyOp18
 70
     0
102
RTVSPropertyOp19
 70
     0
102
RTVSPropertyOp20
 70
     0
102
RTVSPropertyOp21
 70
     0
102
RTVSPropertyOp22
 70
     0
102
RTVSPropertyOp23
 70
     0
102
RTVSPropertyOp24
 70
     0
102
RTVSPropertyOp25
 70
     0
102
RTVSPropertyOp26
 70
     0
102
RTVSPropertyOp27
 70
     0
102
RTVSPropertyOp28
 70
     0
102
RTVSPropertyOp29
 70
     0
102
RTVSPropertyOp30
 70
     0
102
RTVSPropertyOp31
 70
     0
102
RTVSPropertyOp32
 70
     0
102
RTVSPropertyOp33
 70
     0
102
RTVSPropertyOp34
 70
     0
102
RTVSPropertyOp35
 70
     0
102
RTVSPropertyOp36
 70
     0
102
RTVSPropertyOp37
 70
     0
102
RTVSPropertyOp38
 70
     0
102
RTVSPropertyOp39
 70
     0
102
RTVSPropertyOp40
 70
     0
102
RTVSPropertyOp41
 70
     0
102
RTVSPropertyOp42
 70
     0
102
RTVSPropertyOp43
 70
     0
102
RTVSPropertyOp44
 70
     0
102
RTVSPropertyOp45
 70
     0
102
RTVSPropertyOp46
 70
     0
102
RTVSPropertyOp47
 70
     0
102
RTVSPropertyOp48
 70
     0
102
RTVSPropertyOp49
 70
     0
102
RTVSPropertyOp50
 70
     0
102
RTVSPropertyOp51
 70
     0
102
RTVSPropertyOp52
 70
     0
102
RTVSPropertyOp53
 70
     0
102
RTVSPropertyOp54
 70
     0
102
RTVSPropertyOp55
 70
     0
102
RTVSPropertyOp56
 70
     0
102
RTVSPropertyOp57
 70
     0
102
RTVSPropertyOp58
 70
     1
102
RTVSPropertyOp59
 70
     1
102
RTVSPropertyOp60
 70
     1
102
RTVSPropertyOp61
 70
     1
102
RTVSPropertyOp62
 70
     1
  0
XRECORD
  5
24937
102
{ACAD_REACTORS
330
24936
102
}
330
24936
100
AcDbXrecord
280
     1
102
RTVSPost2010Prop28
280
     0
102
RTVSPost2010PropOp28
 70
     1
102
RTVSPost2010Prop29
280
     1
102
RTVSPost2010PropOp29
 70
     1
102
RTVSPost2010Prop30
280
     1
102
RTVSPost2010PropOp30
 70
     1
102
RTVSPost2010Prop31
280
     0
102
RTVSPost2010PropOp31
 70
     1
102
RTVSPost2010Prop32
280
     0
102
RTVSPost2010PropOp32
 70
     1
102
RTVSPost2010Prop33
280
     0
102
RTVSPost2010PropOp33
 70
     1
102
RTVSPost2010Prop34
280
     0
102
RTVSPost2010PropOp34
 70
     1
102
RTVSPost2010Prop35
280
     0
102
RTVSPost2010PropOp35
 70
     1
102
RTVSPost2010Prop36
280
     0
102
RTVSPost2010PropOp36
 70
     1
102
RTVSPost2010Prop37
 90
       50
102
RTVSPost2010PropOp37
 70
     1
102
RTVSPost2010Prop38
140
0.0
102
RTVSPost2010PropOp38
 70
     1
102
RTVSPost2010Prop39
140
1.0
102
RTVSPost2010PropOp39
 70
     1
102
RTVSPost2010Prop40
 90
        0
102
RTVSPost2010PropOp40
 70
     1
102
RTVSPost2010Prop41ColorIndex
 90
       18
102
RTVSPost2010Prop41ColorRGB
 90
        0
102
RTVSPost2010PropOp41
 70
     1
102
RTVSPost2010Prop42
 90
       50
102
RTVSPost2010PropOp42
 70
     1
102
RTVSPost2010Prop43
 90
        3
102
RTVSPost2010PropOp43
 70
     1
102
RTVSPost2010Prop44ColorIndex
 90
        5
102
RTVSPost2010Prop44ColorRGB
 90
      255
102
RTVSPost2010PropOp44
 70
     1
102
RTVSPost2010Prop45
280
     0
102
RTVSPost2010PropOp45
 70
     1
102
RTVSPost2010Prop46
 90
       50
102
RTVSPost2010PropOp46
 70
     1
102
RTVSPost2010Prop47
 90
       50
102
RTVSPost2010PropOp47
 70
     1
102
RTVSPost2010Prop48
 90
       50
102
RTVSPost2010PropOp48
 70
     1
102
RTVSPost2010Prop49
280
     0
102
RTVSPost2010PropOp49
 70
     1
102
RTVSPost2010Prop50
 90
       50
102
RTVSPost2010PropOp50
 70
     1
102
RTVSPost2010Prop51ColorIndex
 90
      256
102
RTVSPost2010Prop51ColorRGB
 90
-16777216
102
RTVSPost2010PropOp51
 70
     0
102
RTVSPost2010Prop52
140
1.0
102
RTVSPost2010PropOp52
 70
     0
102
RTVSPost2010Prop53
 90
        2
102
RTVSPost2010PropOp53
 70
     1
102
RTVSPost2010Prop54
  1
strokes_ogs.tif
102
RTVSPost2010PropOp54
 70
     1
102
RTVSPost2010Prop55
280
     0
102
RTVSPost2010PropOp55
 70
     1
102
RTVSPost2010Prop56
140
1.0
102
RTVSPost2010PropOp56
 70
     1
102
RTVSPost2010Prop57
140
1.0
102
RTVSPost2010PropOp57
 70
     1
102
RTVSPropertyOp0
 70
     1
102
RTVSPropertyOp1
 70
     1
102
RTVSPropertyOp2
 70
     1
102
RTVSPropertyOp3
 70
     1
102
RTVSPropertyOp4
 70
     1
102
RTVSPropertyOp5
 70
     1
102
RTVSPropertyOp6
 70
     1
102
RTVSPropertyOp7
 70
     1
102
RTVSPropertyOp8
 70
     1
102
RTVSPropertyOp9
 70
     1
102
RTVSPropertyOp10
 70
     1
102
RTVSPropertyOp11
 70
     1
102
RTVSPropertyOp12
 70
     1
102
RTVSPropertyOp13
 70
     1
102
RTVSPropertyOp14
 70
     1
102
RTVSPropertyOp15
 70
     1
102
RTVSPropertyOp16
 70
     1
102
RTVSPropertyOp17
 70
     1
102
RTVSPropertyOp18
 70
     1
102
RTVSPropertyOp19
 70
     1
102
RTVSPropertyOp20
 70
     1
102
RTVSPropertyOp21
 70
     1
102
RTVSPropertyOp22
 70
     1
102
RTVSPropertyOp23
 70
     1
102
RTVSPropertyOp24
 70
     1
102
RTVSPropertyOp25
 70
     1
102
RTVSPropertyOp26
 70
     1
102
RTVSPropertyOp27
 70
     1
102
RTVSPropertyOp28
 70
     1
102
RTVSPropertyOp29
 70
     1
102
RTVSPropertyOp30
 70
     1
102
RTVSPropertyOp31
 70
     1
102
RTVSPropertyOp32
 70
     1
102
RTVSPropertyOp33
 70
     1
102
RTVSPropertyOp34
 70
     1
102
RTVSPropertyOp35
 70
     1
102
RTVSPropertyOp36
 70
     1
102
RTVSPropertyOp37
 70
     1
102
RTVSPropertyOp38
 70
     1
102
RTVSPropertyOp39
 70
     1
102
RTVSPropertyOp40
 70
     1
102
RTVSPropertyOp41
 70
     1
102
RTVSPropertyOp42
 70
     1
102
RTVSPropertyOp43
 70
     1
102
RTVSPropertyOp44
 70
     1
102
RTVSPropertyOp45
 70
     1
102
RTVSPropertyOp46
 70
     1
102
RTVSPropertyOp47
 70
     1
102
RTVSPropertyOp48
 70
     1
102
RTVSPropertyOp49
 70
     1
102
RTVSPropertyOp50
 70
     1
102
RTVSPropertyOp51
 70
     0
102
RTVSPropertyOp52
 70
     0
102
RTVSPropertyOp53
 70
     1
102
RTVSPropertyOp54
 70
     1
102
RTVSPropertyOp55
 70
     1
102
RTVSPropertyOp56
 70
     1
102
RTVSPropertyOp57
 70
     1
102
RTVSPropertyOp58
 70
     1
102
RTVSPropertyOp59
 70
     1
102
RTVSPropertyOp60
 70
     1
102
RTVSPropertyOp61
 70
     1
102
RTVSPropertyOp62
 70
     1
  0
XRECORD
  5
2491B
102
{ACAD_REACTORS
330
2491A
102
}
330
2491A
100
AcDbXrecord
280
     1
102
RTVSPost2010Prop28
280
     0
102
RTVSPost2010PropOp28
 70
     1
102
RTVSPost2010Prop29
280
     1
102
RTVSPost2010PropOp29
 70
     1
102
RTVSPost2010Prop30
280
     1
102
RTVSPost2010PropOp30
 70
     1
102
RTVSPost2010Prop31
280
     0
102
RTVSPost2010PropOp31
 70
     1
102
RTVSPost2010Prop32
280
     0
102
RTVSPost2010PropOp32
 70
     1
102
RTVSPost2010Prop33
280
     0
102
RTVSPost2010PropOp33
 70
     1
102
RTVSPost2010Prop34
280
     0
102
RTVSPost2010PropOp34
 70
     1
102
RTVSPost2010Prop35
280
     0
102
RTVSPost2010PropOp35
 70
     1
102
RTVSPost2010Prop36
280
     0
102
RTVSPost2010PropOp36
 70
     1
102
RTVSPost2010Prop37
 90
       50
102
RTVSPost2010PropOp37
 70
     1
102
RTVSPost2010Prop38
140
0.0
102
RTVSPost2010PropOp38
 70
     1
102
RTVSPost2010Prop39
140
1.0
102
RTVSPost2010PropOp39
 70
     1
102
RTVSPost2010Prop40
 90
        0
102
RTVSPost2010PropOp40
 70
     1
102
RTVSPost2010Prop41ColorIndex
 90
       18
102
RTVSPost2010Prop41ColorRGB
 90
        0
102
RTVSPost2010PropOp41
 70
     1
102
RTVSPost2010Prop42
 90
       50
102
RTVSPost2010PropOp42
 70
     1
102
RTVSPost2010Prop43
 90
        3
102
RTVSPost2010PropOp43
 70
     1
102
RTVSPost2010Prop44ColorIndex
 90
        5
102
RTVSPost2010Prop44ColorRGB
 90
      255
102
RTVSPost2010PropOp44
 70
     1
102
RTVSPost2010Prop45
280
     0
102
RTVSPost2010PropOp45
 70
     1
102
RTVSPost2010Prop46
 90
       50
102
RTVSPost2010PropOp46
 70
     1
102
RTVSPost2010Prop47
 90
       50
102
RTVSPost2010PropOp47
 70
     1
102
RTVSPost2010Prop48
 90
       50
102
RTVSPost2010PropOp48
 70
     1
102
RTVSPost2010Prop49
280
     0
102
RTVSPost2010PropOp49
 70
     1
102
RTVSPost2010Prop50
 90
       50
102
RTVSPost2010PropOp50
 70
     1
102
RTVSPost2010Prop51ColorIndex
 90
      256
102
RTVSPost2010Prop51ColorRGB
 90
-16777216
102
RTVSPost2010PropOp51
 70
     0
102
RTVSPost2010Prop52
140
1.0
102
RTVSPost2010PropOp52
 70
     0
102
RTVSPost2010Prop53
 90
        2
102
RTVSPost2010PropOp53
 70
     1
102
RTVSPost2010Prop54
  1
strokes_ogs.tif
102
RTVSPost2010PropOp54
 70
     1
102
RTVSPost2010Prop55
280
     0
102
RTVSPost2010PropOp55
 70
     1
102
RTVSPost2010Prop56
140
1.0
102
RTVSPost2010PropOp56
 70
     1
102
RTVSPost2010Prop57
140
1.0
102
RTVSPost2010PropOp57
 70
     1
102
RTVSPropertyOp0
 70
     1
102
RTVSPropertyOp1
 70
     1
102
RTVSPropertyOp2
 70
     1
102
RTVSPropertyOp3
 70
     1
102
RTVSPropertyOp4
 70
     1
102
RTVSPropertyOp5
 70
     1
102
RTVSPropertyOp6
 70
     1
102
RTVSPropertyOp7
 70
     1
102
RTVSPropertyOp8
 70
     1
102
RTVSPropertyOp9
 70
     1
102
RTVSPropertyOp10
 70
     1
102
RTVSPropertyOp11
 70
     1
102
RTVSPropertyOp12
 70
     1
102
RTVSPropertyOp13
 70
     1
102
RTVSPropertyOp14
 70
     1
102
RTVSPropertyOp15
 70
     1
102
RTVSPropertyOp16
 70
     1
102
RTVSPropertyOp17
 70
     1
102
RTVSPropertyOp18
 70
     1
102
RTVSPropertyOp19
 70
     1
102
RTVSPropertyOp20
 70
     1
102
RTVSPropertyOp21
 70
     1
102
RTVSPropertyOp22
 70
     1
102
RTVSPropertyOp23
 70
     1
102
RTVSPropertyOp24
 70
     1
102
RTVSPropertyOp25
 70
     1
102
RTVSPropertyOp26
 70
     1
102
RTVSPropertyOp27
 70
     1
102
RTVSPropertyOp28
 70
     1
102
RTVSPropertyOp29
 70
     1
102
RTVSPropertyOp30
 70
     1
102
RTVSPropertyOp31
 70
     1
102
RTVSPropertyOp32
 70
     1
102
RTVSPropertyOp33
 70
     1
102
RTVSPropertyOp34
 70
     1
102
RTVSPropertyOp35
 70
     1
102
RTVSPropertyOp36
 70
     1
102
RTVSPropertyOp37
 70
     1
102
RTVSPropertyOp38
 70
     1
102
RTVSPropertyOp39
 70
     1
102
RTVSPropertyOp40
 70
     1
102
RTVSPropertyOp41
 70
     1
102
RTVSPropertyOp42
 70
     1
102
RTVSPropertyOp43
 70
     1
102
RTVSPropertyOp44
 70
     1
102
RTVSPropertyOp45
 70
     1
102
RTVSPropertyOp46
 70
     1
102
RTVSPropertyOp47
 70
     1
102
RTVSPropertyOp48
 70
     1
102
RTVSPropertyOp49
 70
     1
102
RTVSPropertyOp50
 70
     1
102
RTVSPropertyOp51
 70
     0
102
RTVSPropertyOp52
 70
     0
102
RTVSPropertyOp53
 70
     1
102
RTVSPropertyOp54
 70
     1
102
RTVSPropertyOp55
 70
     1
102
RTVSPropertyOp56
 70
     1
102
RTVSPropertyOp57
 70
     1
102
RTVSPropertyOp58
 70
     1
102
RTVSPropertyOp59
 70
     1
102
RTVSPropertyOp60
 70
     1
102
RTVSPropertyOp61
 70
     1
102
RTVSPropertyOp62
 70
     1
  0
XRECORD
  5
2491D
102
{ACAD_REACTORS
330
2491C
102
}
330
2491C
100
AcDbXrecord
280
     1
102
RTVSPost2010Prop28
280
     0
102
RTVSPost2010PropOp28
 70
     1
102
RTVSPost2010Prop29
280
     1
102
RTVSPost2010PropOp29
 70
     1
102
RTVSPost2010Prop30
280
     1
102
RTVSPost2010PropOp30
 70
     1
102
RTVSPost2010Prop31
280
     0
102
RTVSPost2010PropOp31
 70
     1
102
RTVSPost2010Prop32
280
     0
102
RTVSPost2010PropOp32
 70
     1
102
RTVSPost2010Prop33
280
     0
102
RTVSPost2010PropOp33
 70
     1
102
RTVSPost2010Prop34
280
     0
102
RTVSPost2010PropOp34
 70
     1
102
RTVSPost2010Prop35
280
     0
102
RTVSPost2010PropOp35
 70
     1
102
RTVSPost2010Prop36
280
     0
102
RTVSPost2010PropOp36
 70
     1
102
RTVSPost2010Prop37
 90
       50
102
RTVSPost2010PropOp37
 70
     1
102
RTVSPost2010Prop38
140
0.0
102
RTVSPost2010PropOp38
 70
     1
102
RTVSPost2010Prop39
140
1.0
102
RTVSPost2010PropOp39
 70
     1
102
RTVSPost2010Prop40
 90
        0
102
RTVSPost2010PropOp40
 70
     1
102
RTVSPost2010Prop41ColorIndex
 90
       18
102
RTVSPost2010Prop41ColorRGB
 90
        0
102
RTVSPost2010PropOp41
 70
     1
102
RTVSPost2010Prop42
 90
       50
102
RTVSPost2010PropOp42
 70
     1
102
RTVSPost2010Prop43
 90
        3
102
RTVSPost2010PropOp43
 70
     1
102
RTVSPost2010Prop44ColorIndex
 90
        5
102
RTVSPost2010Prop44ColorRGB
 90
      255
102
RTVSPost2010PropOp44
 70
     1
102
RTVSPost2010Prop45
280
     0
102
RTVSPost2010PropOp45
 70
     1
102
RTVSPost2010Prop46
 90
       50
102
RTVSPost2010PropOp46
 70
     1
102
RTVSPost2010Prop47
 90
       50
102
RTVSPost2010PropOp47
 70
     1
102
RTVSPost2010Prop48
 90
       50
102
RTVSPost2010PropOp48
 70
     1
102
RTVSPost2010Prop49
280
     0
102
RTVSPost2010PropOp49
 70
     1
102
RTVSPost2010Prop50
 90
       50
102
RTVSPost2010PropOp50
 70
     1
102
RTVSPost2010Prop51ColorIndex
 90
      256
102
RTVSPost2010Prop51ColorRGB
 90
-16777216
102
RTVSPost2010PropOp51
 70
     0
102
RTVSPost2010Prop52
140
1.0
102
RTVSPost2010PropOp52
 70
     0
102
RTVSPost2010Prop53
 90
        2
102
RTVSPost2010PropOp53
 70
     1
102
RTVSPost2010Prop54
  1
strokes_ogs.tif
102
RTVSPost2010PropOp54
 70
     1
102
RTVSPost2010Prop55
280
     0
102
RTVSPost2010PropOp55
 70
     1
102
RTVSPost2010Prop56
140
1.0
102
RTVSPost2010PropOp56
 70
     1
102
RTVSPost2010Prop57
140
1.0
102
RTVSPost2010PropOp57
 70
     1
102
RTVSPropertyOp0
 70
     1
102
RTVSPropertyOp1
 70
     1
102
RTVSPropertyOp2
 70
     1
102
RTVSPropertyOp3
 70
     1
102
RTVSPropertyOp4
 70
     1
102
RTVSPropertyOp5
 70
     1
102
RTVSPropertyOp6
 70
     1
102
RTVSPropertyOp7
 70
     1
102
RTVSPropertyOp8
 70
     1
102
RTVSPropertyOp9
 70
     1
102
RTVSPropertyOp10
 70
     1
102
RTVSPropertyOp11
 70
     1
102
RTVSPropertyOp12
 70
     1
102
RTVSPropertyOp13
 70
     1
102
RTVSPropertyOp14
 70
     1
102
RTVSPropertyOp15
 70
     1
102
RTVSPropertyOp16
 70
     1
102
RTVSPropertyOp17
 70
     1
102
RTVSPropertyOp18
 70
     1
102
RTVSPropertyOp19
 70
     1
102
RTVSPropertyOp20
 70
     1
102
RTVSPropertyOp21
 70
     1
102
RTVSPropertyOp22
 70
     1
102
RTVSPropertyOp23
 70
     1
102
RTVSPropertyOp24
 70
     1
102
RTVSPropertyOp25
 70
     1
102
RTVSPropertyOp26
 70
     1
102
RTVSPropertyOp27
 70
     1
102
RTVSPropertyOp28
 70
     1
102
RTVSPropertyOp29
 70
     1
102
RTVSPropertyOp30
 70
     1
102
RTVSPropertyOp31
 70
     1
102
RTVSPropertyOp32
 70
     1
102
RTVSPropertyOp33
 70
     1
102
RTVSPropertyOp34
 70
     1
102
RTVSPropertyOp35
 70
     1
102
RTVSPropertyOp36
 70
     1
102
RTVSPropertyOp37
 70
     1
102
RTVSPropertyOp38
 70
     1
102
RTVSPropertyOp39
 70
     1
102
RTVSPropertyOp40
 70
     1
102
RTVSPropertyOp41
 70
     1
102
RTVSPropertyOp42
 70
     1
102
RTVSPropertyOp43
 70
     1
102
RTVSPropertyOp44
 70
     1
102
RTVSPropertyOp45
 70
     1
102
RTVSPropertyOp46
 70
     1
102
RTVSPropertyOp47
 70
     1
102
RTVSPropertyOp48
 70
     1
102
RTVSPropertyOp49
 70
     1
102
RTVSPropertyOp50
 70
     1
102
RTVSPropertyOp51
 70
     0
102
RTVSPropertyOp52
 70
     0
102
RTVSPropertyOp53
 70
     1
102
RTVSPropertyOp54
 70
     1
102
RTVSPropertyOp55
 70
     1
102
RTVSPropertyOp56
 70
     1
102
RTVSPropertyOp57
 70
     1
102
RTVSPropertyOp58
 70
     1
102
RTVSPropertyOp59
 70
     1
102
RTVSPropertyOp60
 70
     1
102
RTVSPropertyOp61
 70
     1
102
RTVSPropertyOp62
 70
     1
  0
XRECORD
  5
2491F
102
{ACAD_REACTORS
330
2491E
102
}
330
2491E
100
AcDbXrecord
280
     1
102
RTVSPost2010Prop28
280
     0
102
RTVSPost2010PropOp28
 70
     1
102
RTVSPost2010Prop29
280
     1
102
RTVSPost2010PropOp29
 70
     1
102
RTVSPost2010Prop30
280
     1
102
RTVSPost2010PropOp30
 70
     1
102
RTVSPost2010Prop31
280
     0
102
RTVSPost2010PropOp31
 70
     1
102
RTVSPost2010Prop32
280
     0
102
RTVSPost2010PropOp32
 70
     1
102
RTVSPost2010Prop33
280
     0
102
RTVSPost2010PropOp33
 70
     1
102
RTVSPost2010Prop34
280
     0
102
RTVSPost2010PropOp34
 70
     1
102
RTVSPost2010Prop35
280
     0
102
RTVSPost2010PropOp35
 70
     1
102
RTVSPost2010Prop36
280
     0
102
RTVSPost2010PropOp36
 70
     1
102
RTVSPost2010Prop37
 90
       50
102
RTVSPost2010PropOp37
 70
     1
102
RTVSPost2010Prop38
140
0.0
102
RTVSPost2010PropOp38
 70
     1
102
RTVSPost2010Prop39
140
1.0
102
RTVSPost2010PropOp39
 70
     1
102
RTVSPost2010Prop40
 90
        0
102
RTVSPost2010PropOp40
 70
     1
102
RTVSPost2010Prop41ColorIndex
 90
       18
102
RTVSPost2010Prop41ColorRGB
 90
        0
102
RTVSPost2010PropOp41
 70
     1
102
RTVSPost2010Prop42
 90
       50
102
RTVSPost2010PropOp42
 70
     1
102
RTVSPost2010Prop43
 90
        3
102
RTVSPost2010PropOp43
 70
     1
102
RTVSPost2010Prop44ColorIndex
 90
        5
102
RTVSPost2010Prop44ColorRGB
 90
      255
102
RTVSPost2010PropOp44
 70
     1
102
RTVSPost2010Prop45
280
     0
102
RTVSPost2010PropOp45
 70
     1
102
RTVSPost2010Prop46
 90
       50
102
RTVSPost2010PropOp46
 70
     1
102
RTVSPost2010Prop47
 90
       50
102
RTVSPost2010PropOp47
 70
     1
102
RTVSPost2010Prop48
 90
       50
102
RTVSPost2010PropOp48
 70
     1
102
RTVSPost2010Prop49
280
     0
102
RTVSPost2010PropOp49
 70
     1
102
RTVSPost2010Prop50
 90
       50
102
RTVSPost2010PropOp50
 70
     1
102
RTVSPost2010Prop51ColorIndex
 90
      256
102
RTVSPost2010Prop51ColorRGB
 90
-16777216
102
RTVSPost2010PropOp51
 70
     0
102
RTVSPost2010Prop52
140
1.0
102
RTVSPost2010PropOp52
 70
     0
102
RTVSPost2010Prop53
 90
        2
102
RTVSPost2010PropOp53
 70
     1
102
RTVSPost2010Prop54
  1
strokes_ogs.tif
102
RTVSPost2010PropOp54
 70
     1
102
RTVSPost2010Prop55
280
     0
102
RTVSPost2010PropOp55
 70
     1
102
RTVSPost2010Prop56
140
1.0
102
RTVSPost2010PropOp56
 70
     1
102
RTVSPost2010Prop57
140
1.0
102
RTVSPost2010PropOp57
 70
     1
102
RTVSPropertyOp0
 70
     1
102
RTVSPropertyOp1
 70
     1
102
RTVSPropertyOp2
 70
     1
102
RTVSPropertyOp3
 70
     1
102
RTVSPropertyOp4
 70
     1
102
RTVSPropertyOp5
 70
     1
102
RTVSPropertyOp6
 70
     1
102
RTVSPropertyOp7
 70
     1
102
RTVSPropertyOp8
 70
     1
102
RTVSPropertyOp9
 70
     1
102
RTVSPropertyOp10
 70
     1
102
RTVSPropertyOp11
 70
     1
102
RTVSPropertyOp12
 70
     1
102
RTVSPropertyOp13
 70
     1
102
RTVSPropertyOp14
 70
     1
102
RTVSPropertyOp15
 70
     1
102
RTVSPropertyOp16
 70
     1
102
RTVSPropertyOp17
 70
     1
102
RTVSPropertyOp18
 70
     1
102
RTVSPropertyOp19
 70
     1
102
RTVSPropertyOp20
 70
     1
102
RTVSPropertyOp21
 70
     1
102
RTVSPropertyOp22
 70
     1
102
RTVSPropertyOp23
 70
     1
102
RTVSPropertyOp24
 70
     1
102
RTVSPropertyOp25
 70
     1
102
RTVSPropertyOp26
 70
     1
102
RTVSPropertyOp27
 70
     1
102
RTVSPropertyOp28
 70
     1
102
RTVSPropertyOp29
 70
     1
102
RTVSPropertyOp30
 70
     1
102
RTVSPropertyOp31
 70
     1
102
RTVSPropertyOp32
 70
     1
102
RTVSPropertyOp33
 70
     1
102
RTVSPropertyOp34
 70
     1
102
RTVSPropertyOp35
 70
     1
102
RTVSPropertyOp36
 70
     1
102
RTVSPropertyOp37
 70
     1
102
RTVSPropertyOp38
 70
     1
102
RTVSPropertyOp39
 70
     1
102
RTVSPropertyOp40
 70
     1
102
RTVSPropertyOp41
 70
     1
102
RTVSPropertyOp42
 70
     1
102
RTVSPropertyOp43
 70
     1
102
RTVSPropertyOp44
 70
     1
102
RTVSPropertyOp45
 70
     1
102
RTVSPropertyOp46
 70
     1
102
RTVSPropertyOp47
 70
     1
102
RTVSPropertyOp48
 70
     1
102
RTVSPropertyOp49
 70
     1
102
RTVSPropertyOp50
 70
     1
102
RTVSPropertyOp51
 70
     0
102
RTVSPropertyOp52
 70
     0
102
RTVSPropertyOp53
 70
     1
102
RTVSPropertyOp54
 70
     1
102
RTVSPropertyOp55
 70
     1
102
RTVSPropertyOp56
 70
     1
102
RTVSPropertyOp57
 70
     1
102
RTVSPropertyOp58
 70
     1
102
RTVSPropertyOp59
 70
     1
102
RTVSPropertyOp60
 70
     1
102
RTVSPropertyOp61
 70
     1
102
RTVSPropertyOp62
 70
     1
  0
XRECORD
  5
24921
102
{ACAD_REACTORS
330
24920
102
}
330
24920
100
AcDbXrecord
280
     1
102
RTVSPost2010Prop28
280
     0
102
RTVSPost2010PropOp28
 70
     1
102
RTVSPost2010Prop29
280
     1
102
RTVSPost2010PropOp29
 70
     1
102
RTVSPost2010Prop30
280
     1
102
RTVSPost2010PropOp30
 70
     1
102
RTVSPost2010Prop31
280
     0
102
RTVSPost2010PropOp31
 70
     1
102
RTVSPost2010Prop32
280
     0
102
RTVSPost2010PropOp32
 70
     1
102
RTVSPost2010Prop33
280
     0
102
RTVSPost2010PropOp33
 70
     1
102
RTVSPost2010Prop34
280
     0
102
RTVSPost2010PropOp34
 70
     1
102
RTVSPost2010Prop35
280
     0
102
RTVSPost2010PropOp35
 70
     1
102
RTVSPost2010Prop36
280
     0
102
RTVSPost2010PropOp36
 70
     1
102
RTVSPost2010Prop37
 90
       50
102
RTVSPost2010PropOp37
 70
     1
102
RTVSPost2010Prop38
140
0.0
102
RTVSPost2010PropOp38
 70
     1
102
RTVSPost2010Prop39
140
1.0
102
RTVSPost2010PropOp39
 70
     1
102
RTVSPost2010Prop40
 90
        0
102
RTVSPost2010PropOp40
 70
     1
102
RTVSPost2010Prop41ColorIndex
 90
       18
102
RTVSPost2010Prop41ColorRGB
 90
        0
102
RTVSPost2010PropOp41
 70
     1
102
RTVSPost2010Prop42
 90
       50
102
RTVSPost2010PropOp42
 70
     1
102
RTVSPost2010Prop43
 90
        3
102
RTVSPost2010PropOp43
 70
     1
102
RTVSPost2010Prop44ColorIndex
 90
        5
102
RTVSPost2010Prop44ColorRGB
 90
      255
102
RTVSPost2010PropOp44
 70
     1
102
RTVSPost2010Prop45
280
     0
102
RTVSPost2010PropOp45
 70
     1
102
RTVSPost2010Prop46
 90
       50
102
RTVSPost2010PropOp46
 70
     1
102
RTVSPost2010Prop47
 90
       50
102
RTVSPost2010PropOp47
 70
     1
102
RTVSPost2010Prop48
 90
       50
102
RTVSPost2010PropOp48
 70
     1
102
RTVSPost2010Prop49
280
     0
102
RTVSPost2010PropOp49
 70
     1
102
RTVSPost2010Prop50
 90
       50
102
RTVSPost2010PropOp50
 70
     1
102
RTVSPost2010Prop51ColorIndex
 90
      256
102
RTVSPost2010Prop51ColorRGB
 90
-16777216
102
RTVSPost2010PropOp51
 70
     0
102
RTVSPost2010Prop52
140
1.0
102
RTVSPost2010PropOp52
 70
     0
102
RTVSPost2010Prop53
 90
        2
102
RTVSPost2010PropOp53
 70
     1
102
RTVSPost2010Prop54
  1
strokes_ogs.tif
102
RTVSPost2010PropOp54
 70
     1
102
RTVSPost2010Prop55
280
     0
102
RTVSPost2010PropOp55
 70
     1
102
RTVSPost2010Prop56
140
1.0
102
RTVSPost2010PropOp56
 70
     1
102
RTVSPost2010Prop57
140
1.0
102
RTVSPost2010PropOp57
 70
     1
102
RTVSPropertyOp0
 70
     1
102
RTVSPropertyOp1
 70
     1
102
RTVSPropertyOp2
 70
     1
102
RTVSPropertyOp3
 70
     1
102
RTVSPropertyOp4
 70
     1
102
RTVSPropertyOp5
 70
     1
102
RTVSPropertyOp6
 70
     1
102
RTVSPropertyOp7
 70
     1
102
RTVSPropertyOp8
 70
     1
102
RTVSPropertyOp9
 70
     1
102
RTVSPropertyOp10
 70
     1
102
RTVSPropertyOp11
 70
     1
102
RTVSPropertyOp12
 70
     1
102
RTVSPropertyOp13
 70
     1
102
RTVSPropertyOp14
 70
     1
102
RTVSPropertyOp15
 70
     1
102
RTVSPropertyOp16
 70
     1
102
RTVSPropertyOp17
 70
     1
102
RTVSPropertyOp18
 70
     1
102
RTVSPropertyOp19
 70
     1
102
RTVSPropertyOp20
 70
     1
102
RTVSPropertyOp21
 70
     1
102
RTVSPropertyOp22
 70
     1
102
RTVSPropertyOp23
 70
     1
102
RTVSPropertyOp24
 70
     1
102
RTVSPropertyOp25
 70
     1
102
RTVSPropertyOp26
 70
     1
102
RTVSPropertyOp27
 70
     1
102
RTVSPropertyOp28
 70
     1
102
RTVSPropertyOp29
 70
     1
102
RTVSPropertyOp30
 70
     1
102
RTVSPropertyOp31
 70
     1
102
RTVSPropertyOp32
 70
     1
102
RTVSPropertyOp33
 70
     1
102
RTVSPropertyOp34
 70
     1
102
RTVSPropertyOp35
 70
     1
102
RTVSPropertyOp36
 70
     1
102
RTVSPropertyOp37
 70
     1
102
RTVSPropertyOp38
 70
     1
102
RTVSPropertyOp39
 70
     1
102
RTVSPropertyOp40
 70
     1
102
RTVSPropertyOp41
 70
     1
102
RTVSPropertyOp42
 70
     1
102
RTVSPropertyOp43
 70
     1
102
RTVSPropertyOp44
 70
     1
102
RTVSPropertyOp45
 70
     1
102
RTVSPropertyOp46
 70
     1
102
RTVSPropertyOp47
 70
     1
102
RTVSPropertyOp48
 70
     1
102
RTVSPropertyOp49
 70
     1
102
RTVSPropertyOp50
 70
     1
102
RTVSPropertyOp51
 70
     0
102
RTVSPropertyOp52
 70
     0
102
RTVSPropertyOp53
 70
     1
102
RTVSPropertyOp54
 70
     1
102
RTVSPropertyOp55
 70
     1
102
RTVSPropertyOp56
 70
     1
102
RTVSPropertyOp57
 70
     1
102
RTVSPropertyOp58
 70
     1
102
RTVSPropertyOp59
 70
     1
102
RTVSPropertyOp60
 70
     1
102
RTVSPropertyOp61
 70
     1
102
RTVSPropertyOp62
 70
     1
  0
XRECORD
  5
24929
102
{ACAD_REACTORS
330
24928
102
}
330
24928
100
AcDbXrecord
280
     1
102
RTVSPost2010Prop28
280
     0
102
RTVSPost2010PropOp28
 70
     1
102
RTVSPost2010Prop29
280
     1
102
RTVSPost2010PropOp29
 70
     1
102
RTVSPost2010Prop30
280
     1
102
RTVSPost2010PropOp30
 70
     1
102
RTVSPost2010Prop31
280
     0
102
RTVSPost2010PropOp31
 70
     1
102
RTVSPost2010Prop32
280
     0
102
RTVSPost2010PropOp32
 70
     1
102
RTVSPost2010Prop33
280
     0
102
RTVSPost2010PropOp33
 70
     1
102
RTVSPost2010Prop34
280
     0
102
RTVSPost2010PropOp34
 70
     1
102
RTVSPost2010Prop35
280
     0
102
RTVSPost2010PropOp35
 70
     1
102
RTVSPost2010Prop36
280
     0
102
RTVSPost2010PropOp36
 70
     1
102
RTVSPost2010Prop37
 90
       50
102
RTVSPost2010PropOp37
 70
     1
102
RTVSPost2010Prop38
140
0.0
102
RTVSPost2010PropOp38
 70
     1
102
RTVSPost2010Prop39
140
1.0
102
RTVSPost2010PropOp39
 70
     1
102
RTVSPost2010Prop40
 90
        0
102
RTVSPost2010PropOp40
 70
     1
102
RTVSPost2010Prop41ColorIndex
 90
       18
102
RTVSPost2010Prop41ColorRGB
 90
        0
102
RTVSPost2010PropOp41
 70
     1
102
RTVSPost2010Prop42
 90
       50
102
RTVSPost2010PropOp42
 70
     1
102
RTVSPost2010Prop43
 90
        3
102
RTVSPost2010PropOp43
 70
     1
102
RTVSPost2010Prop44ColorIndex
 90
        5
102
RTVSPost2010Prop44ColorRGB
 90
      255
102
RTVSPost2010PropOp44
 70
     1
102
RTVSPost2010Prop45
280
     0
102
RTVSPost2010PropOp45
 70
     1
102
RTVSPost2010Prop46
 90
       50
102
RTVSPost2010PropOp46
 70
     1
102
RTVSPost2010Prop47
 90
       50
102
RTVSPost2010PropOp47
 70
     1
102
RTVSPost2010Prop48
 90
       50
102
RTVSPost2010PropOp48
 70
     1
102
RTVSPost2010Prop49
280
     0
102
RTVSPost2010PropOp49
 70
     1
102
RTVSPost2010Prop50
 90
       50
102
RTVSPost2010PropOp50
 70
     1
102
RTVSPost2010Prop51ColorIndex
 90
      256
102
RTVSPost2010Prop51ColorRGB
 90
-16777216
102
RTVSPost2010PropOp51
 70
     0
102
RTVSPost2010Prop52
140
1.0
102
RTVSPost2010PropOp52
 70
     0
102
RTVSPost2010Prop53
 90
        2
102
RTVSPost2010PropOp53
 70
     1
102
RTVSPost2010Prop54
  1
strokes_ogs.tif
102
RTVSPost2010PropOp54
 70
     1
102
RTVSPost2010Prop55
280
     0
102
RTVSPost2010PropOp55
 70
     1
102
RTVSPost2010Prop56
140
1.0
102
RTVSPost2010PropOp56
 70
     1
102
RTVSPost2010Prop57
140
1.0
102
RTVSPost2010PropOp57
 70
     1
102
RTVSPropertyOp0
 70
     1
102
RTVSPropertyOp1
 70
     1
102
RTVSPropertyOp2
 70
     1
102
RTVSPropertyOp3
 70
     1
102
RTVSPropertyOp4
 70
     1
102
RTVSPropertyOp5
 70
     1
102
RTVSPropertyOp6
 70
     1
102
RTVSPropertyOp7
 70
     1
102
RTVSPropertyOp8
 70
     1
102
RTVSPropertyOp9
 70
     1
102
RTVSPropertyOp10
 70
     1
102
RTVSPropertyOp11
 70
     1
102
RTVSPropertyOp12
 70
     1
102
RTVSPropertyOp13
 70
     1
102
RTVSPropertyOp14
 70
     1
102
RTVSPropertyOp15
 70
     1
102
RTVSPropertyOp16
 70
     1
102
RTVSPropertyOp17
 70
     1
102
RTVSPropertyOp18
 70
     1
102
RTVSPropertyOp19
 70
     1
102
RTVSPropertyOp20
 70
     1
102
RTVSPropertyOp21
 70
     1
102
RTVSPropertyOp22
 70
     1
102
RTVSPropertyOp23
 70
     1
102
RTVSPropertyOp24
 70
     1
102
RTVSPropertyOp25
 70
     1
102
RTVSPropertyOp26
 70
     1
102
RTVSPropertyOp27
 70
     1
102
RTVSPropertyOp28
 70
     1
102
RTVSPropertyOp29
 70
     1
102
RTVSPropertyOp30
 70
     1
102
RTVSPropertyOp31
 70
     1
102
RTVSPropertyOp32
 70
     1
102
RTVSPropertyOp33
 70
     1
102
RTVSPropertyOp34
 70
     1
102
RTVSPropertyOp35
 70
     1
102
RTVSPropertyOp36
 70
     1
102
RTVSPropertyOp37
 70
     1
102
RTVSPropertyOp38
 70
     1
102
RTVSPropertyOp39
 70
     1
102
RTVSPropertyOp40
 70
     1
102
RTVSPropertyOp41
 70
     1
102
RTVSPropertyOp42
 70
     1
102
RTVSPropertyOp43
 70
     1
102
RTVSPropertyOp44
 70
     1
102
RTVSPropertyOp45
 70
     1
102
RTVSPropertyOp46
 70
     1
102
RTVSPropertyOp47
 70
     1
102
RTVSPropertyOp48
 70
     1
102
RTVSPropertyOp49
 70
     1
102
RTVSPropertyOp50
 70
     1
102
RTVSPropertyOp51
 70
     0
102
RTVSPropertyOp52
 70
     0
102
RTVSPropertyOp53
 70
     1
102
RTVSPropertyOp54
 70
     1
102
RTVSPropertyOp55
 70
     1
102
RTVSPropertyOp56
 70
     1
102
RTVSPropertyOp57
 70
     1
102
RTVSPropertyOp58
 70
     1
102
RTVSPropertyOp59
 70
     1
102
RTVSPropertyOp60
 70
     1
102
RTVSPropertyOp61
 70
     1
102
RTVSPropertyOp62
 70
     1
  0
XRECORD
  5
24945
102
{ACAD_REACTORS
330
24944
102
}
330
24944
100
AcDbXrecord
280
     1
102
RTVSPost2010Prop28
280
     0
102
RTVSPost2010PropOp28
 70
     0
102
RTVSPost2010Prop29
280
     1
102
RTVSPost2010PropOp29
 70
     0
102
RTVSPost2010Prop30
280
     1
102
RTVSPost2010PropOp30
 70
     0
102
RTVSPost2010Prop31
280
     0
102
RTVSPost2010PropOp31
 70
     0
102
RTVSPost2010Prop32
280
     0
102
RTVSPost2010PropOp32
 70
     0
102
RTVSPost2010Prop33
280
     0
102
RTVSPost2010PropOp33
 70
     0
102
RTVSPost2010Prop34
280
     0
102
RTVSPost2010PropOp34
 70
     0
102
RTVSPost2010Prop35
280
     0
102
RTVSPost2010PropOp35
 70
     0
102
RTVSPost2010Prop36
280
     0
102
RTVSPost2010PropOp36
 70
     0
102
RTVSPost2010Prop37
 90
       50
102
RTVSPost2010PropOp37
 70
     0
102
RTVSPost2010Prop38
140
0.0
102
RTVSPost2010PropOp38
 70
     0
102
RTVSPost2010Prop39
140
1.0
102
RTVSPost2010PropOp39
 70
     0
102
RTVSPost2010Prop40
 90
        0
102
RTVSPost2010PropOp40
 70
     0
102
RTVSPost2010Prop41ColorIndex
 90
       18
102
RTVSPost2010Prop41ColorRGB
 90
        0
102
RTVSPost2010PropOp41
 70
     0
102
RTVSPost2010Prop42
 90
       50
102
RTVSPost2010PropOp42
 70
     0
102
RTVSPost2010Prop43
 90
        3
102
RTVSPost2010PropOp43
 70
     0
102
RTVSPost2010Prop44ColorIndex
 90
        5
102
RTVSPost2010Prop44ColorRGB
 90
      255
102
RTVSPost2010PropOp44
 70
     0
102
RTVSPost2010Prop45
280
     0
102
RTVSPost2010PropOp45
 70
     0
102
RTVSPost2010Prop46
 90
       50
102
RTVSPost2010PropOp46
 70
     0
102
RTVSPost2010Prop47
 90
       50
102
RTVSPost2010PropOp47
 70
     0
102
RTVSPost2010Prop48
 90
       50
102
RTVSPost2010PropOp48
 70
     0
102
RTVSPost2010Prop49
280
     0
102
RTVSPost2010PropOp49
 70
     0
102
RTVSPost2010Prop50
 90
       50
102
RTVSPost2010PropOp50
 70
     0
102
RTVSPost2010Prop51ColorIndex
 90
      256
102
RTVSPost2010Prop51ColorRGB
 90
-16777216
102
RTVSPost2010PropOp51
 70
     0
102
RTVSPost2010Prop52
140
1.0
102
RTVSPost2010PropOp52
 70
     0
102
RTVSPost2010Prop53
 90
        2
102
RTVSPost2010PropOp53
 70
     0
102
RTVSPost2010Prop54
  1
strokes_ogs.tif
102
RTVSPost2010PropOp54
 70
     0
102
RTVSPost2010Prop55
280
     0
102
RTVSPost2010PropOp55
 70
     0
102
RTVSPost2010Prop56
140
1.0
102
RTVSPost2010PropOp56
 70
     0
102
RTVSPost2010Prop57
140
1.0
102
RTVSPost2010PropOp57
 70
     0
102
RTVSPropertyOp0
 70
     0
102
RTVSPropertyOp1
 70
     0
102
RTVSPropertyOp2
 70
     0
102
RTVSPropertyOp3
 70
     0
102
RTVSPropertyOp4
 70
     0
102
RTVSPropertyOp5
 70
     0
102
RTVSPropertyOp6
 70
     0
102
RTVSPropertyOp7
 70
     0
102
RTVSPropertyOp8
 70
     0
102
RTVSPropertyOp9
 70
     0
102
RTVSPropertyOp10
 70
     0
102
RTVSPropertyOp11
 70
     0
102
RTVSPropertyOp12
 70
     0
102
RTVSPropertyOp13
 70
     0
102
RTVSPropertyOp14
 70
     2
102
RTVSPropertyOp15
 70
     0
102
RTVSPropertyOp16
 70
     0
102
RTVSPropertyOp17
 70
     0
102
RTVSPropertyOp18
 70
     0
102
RTVSPropertyOp19
 70
     0
102
RTVSPropertyOp20
 70
     0
102
RTVSPropertyOp21
 70
     0
102
RTVSPropertyOp22
 70
     0
102
RTVSPropertyOp23
 70
     0
102
RTVSPropertyOp24
 70
     0
102
RTVSPropertyOp25
 70
     0
102
RTVSPropertyOp26
 70
     0
102
RTVSPropertyOp27
 70
     0
102
RTVSPropertyOp28
 70
     0
102
RTVSPropertyOp29
 70
     0
102
RTVSPropertyOp30
 70
     0
102
RTVSPropertyOp31
 70
     0
102
RTVSPropertyOp32
 70
     0
102
RTVSPropertyOp33
 70
     0
102
RTVSPropertyOp34
 70
     0
102
RTVSPropertyOp35
 70
     0
102
RTVSPropertyOp36
 70
     0
102
RTVSPropertyOp37
 70
     0
102
RTVSPropertyOp38
 70
     0
102
RTVSPropertyOp39
 70
     0
102
RTVSPropertyOp40
 70
     0
102
RTVSPropertyOp41
 70
     0
102
RTVSPropertyOp42
 70
     0
102
RTVSPropertyOp43
 70
     0
102
RTVSPropertyOp44
 70
     0
102
RTVSPropertyOp45
 70
     0
102
RTVSPropertyOp46
 70
     0
102
RTVSPropertyOp47
 70
     0
102
RTVSPropertyOp48
 70
     0
102
RTVSPropertyOp49
 70
     0
102
RTVSPropertyOp50
 70
     0
102
RTVSPropertyOp51
 70
     0
102
RTVSPropertyOp52
 70
     0
102
RTVSPropertyOp53
 70
     0
102
RTVSPropertyOp54
 70
     0
102
RTVSPropertyOp55
 70
     0
102
RTVSPropertyOp56
 70
     0
102
RTVSPropertyOp57
 70
     0
102
RTVSPropertyOp58
 70
     1
102
RTVSPropertyOp59
 70
     1
102
RTVSPropertyOp60
 70
     1
102
RTVSPropertyOp61
 70
     1
102
RTVSPropertyOp62
 70
     1
  0
XRECORD
  5
24935
102
{ACAD_REACTORS
330
24934
102
}
330
24934
100
AcDbXrecord
280
     1
102
RTVSPost2010Prop28
280
     0
102
RTVSPost2010PropOp28
 70
     1
102
RTVSPost2010Prop29
280
     1
102
RTVSPost2010PropOp29
 70
     1
102
RTVSPost2010Prop30
280
     1
102
RTVSPost2010PropOp30
 70
     1
102
RTVSPost2010Prop31
280
     0
102
RTVSPost2010PropOp31
 70
     1
102
RTVSPost2010Prop32
280
     0
102
RTVSPost2010PropOp32
 70
     1
102
RTVSPost2010Prop33
280
     0
102
RTVSPost2010PropOp33
 70
     1
102
RTVSPost2010Prop34
280
     0
102
RTVSPost2010PropOp34
 70
     1
102
RTVSPost2010Prop35
280
     0
102
RTVSPost2010PropOp35
 70
     1
102
RTVSPost2010Prop36
280
     0
102
RTVSPost2010PropOp36
 70
     1
102
RTVSPost2010Prop37
 90
       50
102
RTVSPost2010PropOp37
 70
     1
102
RTVSPost2010Prop38
140
0.0
102
RTVSPost2010PropOp38
 70
     1
102
RTVSPost2010Prop39
140
1.0
102
RTVSPost2010PropOp39
 70
     1
102
RTVSPost2010Prop40
 90
        0
102
RTVSPost2010PropOp40
 70
     1
102
RTVSPost2010Prop41ColorIndex
 90
       18
102
RTVSPost2010Prop41ColorRGB
 90
        0
102
RTVSPost2010PropOp41
 70
     1
102
RTVSPost2010Prop42
 90
       50
102
RTVSPost2010PropOp42
 70
     1
102
RTVSPost2010Prop43
 90
        3
102
RTVSPost2010PropOp43
 70
     1
102
RTVSPost2010Prop44ColorIndex
 90
        5
102
RTVSPost2010Prop44ColorRGB
 90
      255
102
RTVSPost2010PropOp44
 70
     1
102
RTVSPost2010Prop45
280
     0
102
RTVSPost2010PropOp45
 70
     1
102
RTVSPost2010Prop46
 90
       50
102
RTVSPost2010PropOp46
 70
     1
102
RTVSPost2010Prop47
 90
       50
102
RTVSPost2010PropOp47
 70
     1
102
RTVSPost2010Prop48
 90
       50
102
RTVSPost2010PropOp48
 70
     1
102
RTVSPost2010Prop49
280
     0
102
RTVSPost2010PropOp49
 70
     1
102
RTVSPost2010Prop50
 90
       50
102
RTVSPost2010PropOp50
 70
     1
102
RTVSPost2010Prop51ColorIndex
 90
      256
102
RTVSPost2010Prop51ColorRGB
 90
-16777216
102
RTVSPost2010PropOp51
 70
     0
102
RTVSPost2010Prop52
140
1.0
102
RTVSPost2010PropOp52
 70
     0
102
RTVSPost2010Prop53
 90
        2
102
RTVSPost2010PropOp53
 70
     1
102
RTVSPost2010Prop54
  1
strokes_ogs.tif
102
RTVSPost2010PropOp54
 70
     1
102
RTVSPost2010Prop55
280
     0
102
RTVSPost2010PropOp55
 70
     1
102
RTVSPost2010Prop56
140
1.0
102
RTVSPost2010PropOp56
 70
     1
102
RTVSPost2010Prop57
140
1.0
102
RTVSPost2010PropOp57
 70
     1
102
RTVSPropertyOp0
 70
     1
102
RTVSPropertyOp1
 70
     1
102
RTVSPropertyOp2
 70
     1
102
RTVSPropertyOp3
 70
     1
102
RTVSPropertyOp4
 70
     1
102
RTVSPropertyOp5
 70
     1
102
RTVSPropertyOp6
 70
     1
102
RTVSPropertyOp7
 70
     1
102
RTVSPropertyOp8
 70
     1
102
RTVSPropertyOp9
 70
     1
102
RTVSPropertyOp10
 70
     1
102
RTVSPropertyOp11
 70
     1
102
RTVSPropertyOp12
 70
     1
102
RTVSPropertyOp13
 70
     1
102
RTVSPropertyOp14
 70
     1
102
RTVSPropertyOp15
 70
     1
102
RTVSPropertyOp16
 70
     1
102
RTVSPropertyOp17
 70
     1
102
RTVSPropertyOp18
 70
     1
102
RTVSPropertyOp19
 70
     1
102
RTVSPropertyOp20
 70
     1
102
RTVSPropertyOp21
 70
     1
102
RTVSPropertyOp22
 70
     1
102
RTVSPropertyOp23
 70
     1
102
RTVSPropertyOp24
 70
     1
102
RTVSPropertyOp25
 70
     1
102
RTVSPropertyOp26
 70
     1
102
RTVSPropertyOp27
 70
     1
102
RTVSPropertyOp28
 70
     1
102
RTVSPropertyOp29
 70
     1
102
RTVSPropertyOp30
 70
     1
102
RTVSPropertyOp31
 70
     1
102
RTVSPropertyOp32
 70
     1
102
RTVSPropertyOp33
 70
     1
102
RTVSPropertyOp34
 70
     1
102
RTVSPropertyOp35
 70
     1
102
RTVSPropertyOp36
 70
     1
102
RTVSPropertyOp37
 70
     1
102
RTVSPropertyOp38
 70
     1
102
RTVSPropertyOp39
 70
     1
102
RTVSPropertyOp40
 70
     1
102
RTVSPropertyOp41
 70
     1
102
RTVSPropertyOp42
 70
     1
102
RTVSPropertyOp43
 70
     1
102
RTVSPropertyOp44
 70
     1
102
RTVSPropertyOp45
 70
     1
102
RTVSPropertyOp46
 70
     1
102
RTVSPropertyOp47
 70
     1
102
RTVSPropertyOp48
 70
     1
102
RTVSPropertyOp49
 70
     1
102
RTVSPropertyOp50
 70
     1
102
RTVSPropertyOp51
 70
     0
102
RTVSPropertyOp52
 70
     0
102
RTVSPropertyOp53
 70
     1
102
RTVSPropertyOp54
 70
     1
102
RTVSPropertyOp55
 70
     1
102
RTVSPropertyOp56
 70
     1
102
RTVSPropertyOp57
 70
     1
102
RTVSPropertyOp58
 70
     1
102
RTVSPropertyOp59
 70
     1
102
RTVSPropertyOp60
 70
     1
102
RTVSPropertyOp61
 70
     1
102
RTVSPropertyOp62
 70
     1
  0
XRECORD
  5
24947
102
{ACAD_REACTORS
330
24946
102
}
330
24946
100
AcDbXrecord
280
     1
102
RTVSPost2010Prop28
280
     0
102
RTVSPost2010PropOp28
 70
     0
102
RTVSPost2010Prop29
280
     1
102
RTVSPost2010PropOp29
 70
     0
102
RTVSPost2010Prop30
280
     1
102
RTVSPost2010PropOp30
 70
     0
102
RTVSPost2010Prop31
280
     0
102
RTVSPost2010PropOp31
 70
     0
102
RTVSPost2010Prop32
280
     0
102
RTVSPost2010PropOp32
 70
     0
102
RTVSPost2010Prop33
280
     0
102
RTVSPost2010PropOp33
 70
     0
102
RTVSPost2010Prop34
280
     0
102
RTVSPost2010PropOp34
 70
     0
102
RTVSPost2010Prop35
280
     0
102
RTVSPost2010PropOp35
 70
     0
102
RTVSPost2010Prop36
280
     0
102
RTVSPost2010PropOp36
 70
     0
102
RTVSPost2010Prop37
 90
       50
102
RTVSPost2010PropOp37
 70
     0
102
RTVSPost2010Prop38
140
0.0
102
RTVSPost2010PropOp38
 70
     0
102
RTVSPost2010Prop39
140
1.0
102
RTVSPost2010PropOp39
 70
     0
102
RTVSPost2010Prop40
 90
        0
102
RTVSPost2010PropOp40
 70
     0
102
RTVSPost2010Prop41ColorIndex
 90
       18
102
RTVSPost2010Prop41ColorRGB
 90
        0
102
RTVSPost2010PropOp41
 70
     0
102
RTVSPost2010Prop42
 90
       50
102
RTVSPost2010PropOp42
 70
     0
102
RTVSPost2010Prop43
 90
        3
102
RTVSPost2010PropOp43
 70
     0
102
RTVSPost2010Prop44ColorIndex
 90
        5
102
RTVSPost2010Prop44ColorRGB
 90
      255
102
RTVSPost2010PropOp44
 70
     0
102
RTVSPost2010Prop45
280
     0
102
RTVSPost2010PropOp45
 70
     0
102
RTVSPost2010Prop46
 90
       50
102
RTVSPost2010PropOp46
 70
     0
102
RTVSPost2010Prop47
 90
       50
102
RTVSPost2010PropOp47
 70
     0
102
RTVSPost2010Prop48
 90
       50
102
RTVSPost2010PropOp48
 70
     0
102
RTVSPost2010Prop49
280
     0
102
RTVSPost2010PropOp49
 70
     0
102
RTVSPost2010Prop50
 90
       50
102
RTVSPost2010PropOp50
 70
     0
102
RTVSPost2010Prop51ColorIndex
 90
      256
102
RTVSPost2010Prop51ColorRGB
 90
-16777216
102
RTVSPost2010PropOp51
 70
     0
102
RTVSPost2010Prop52
140
1.0
102
RTVSPost2010PropOp52
 70
     0
102
RTVSPost2010Prop53
 90
        2
102
RTVSPost2010PropOp53
 70
     0
102
RTVSPost2010Prop54
  1
strokes_ogs.tif
102
RTVSPost2010PropOp54
 70
     0
102
RTVSPost2010Prop55
280
     0
102
RTVSPost2010PropOp55
 70
     0
102
RTVSPost2010Prop56
140
1.0
102
RTVSPost2010PropOp56
 70
     0
102
RTVSPost2010Prop57
140
1.0
102
RTVSPost2010PropOp57
 70
     0
102
RTVSPropertyOp0
 70
     0
102
RTVSPropertyOp1
 70
     0
102
RTVSPropertyOp2
 70
     0
102
RTVSPropertyOp3
 70
     0
102
RTVSPropertyOp4
 70
     0
102
RTVSPropertyOp5
 70
     0
102
RTVSPropertyOp6
 70
     0
102
RTVSPropertyOp7
 70
     0
102
RTVSPropertyOp8
 70
     0
102
RTVSPropertyOp9
 70
     0
102
RTVSPropertyOp10
 70
     0
102
RTVSPropertyOp11
 70
     0
102
RTVSPropertyOp12
 70
     0
102
RTVSPropertyOp13
 70
     0
102
RTVSPropertyOp14
 70
     2
102
RTVSPropertyOp15
 70
     0
102
RTVSPropertyOp16
 70
     0
102
RTVSPropertyOp17
 70
     0
102
RTVSPropertyOp18
 70
     0
102
RTVSPropertyOp19
 70
     0
102
RTVSPropertyOp20
 70
     0
102
RTVSPropertyOp21
 70
     0
102
RTVSPropertyOp22
 70
     0
102
RTVSPropertyOp23
 70
     0
102
RTVSPropertyOp24
 70
     0
102
RTVSPropertyOp25
 70
     0
102
RTVSPropertyOp26
 70
     0
102
RTVSPropertyOp27
 70
     0
102
RTVSPropertyOp28
 70
     0
102
RTVSPropertyOp29
 70
     0
102
RTVSPropertyOp30
 70
     0
102
RTVSPropertyOp31
 70
     0
102
RTVSPropertyOp32
 70
     0
102
RTVSPropertyOp33
 70
     0
102
RTVSPropertyOp34
 70
     0
102
RTVSPropertyOp35
 70
     0
102
RTVSPropertyOp36
 70
     0
102
RTVSPropertyOp37
 70
     0
102
RTVSPropertyOp38
 70
     0
102
RTVSPropertyOp39
 70
     0
102
RTVSPropertyOp40
 70
     0
102
RTVSPropertyOp41
 70
     0
102
RTVSPropertyOp42
 70
     0
102
RTVSPropertyOp43
 70
     0
102
RTVSPropertyOp44
 70
     0
102
RTVSPropertyOp45
 70
     0
102
RTVSPropertyOp46
 70
     0
102
RTVSPropertyOp47
 70
     0
102
RTVSPropertyOp48
 70
     0
102
RTVSPropertyOp49
 70
     0
102
RTVSPropertyOp50
 70
     0
102
RTVSPropertyOp51
 70
     0
102
RTVSPropertyOp52
 70
     0
102
RTVSPropertyOp53
 70
     0
102
RTVSPropertyOp54
 70
     0
102
RTVSPropertyOp55
 70
     0
102
RTVSPropertyOp56
 70
     0
102
RTVSPropertyOp57
 70
     0
102
RTVSPropertyOp58
 70
     1
102
RTVSPropertyOp59
 70
     1
102
RTVSPropertyOp60
 70
     1
102
RTVSPropertyOp61
 70
     1
102
RTVSPropertyOp62
 70
     1
  0
XRECORD
  5
2492D
102
{ACAD_REACTORS
330
2492C
102
}
330
2492C
100
AcDbXrecord
280
     1
102
RTVSPost2010Prop28
280
     0
102
RTVSPost2010PropOp28
 70
     1
102
RTVSPost2010Prop29
280
     1
102
RTVSPost2010PropOp29
 70
     1
102
RTVSPost2010Prop30
280
     1
102
RTVSPost2010PropOp30
 70
     1
102
RTVSPost2010Prop31
280
     0
102
RTVSPost2010PropOp31
 70
     1
102
RTVSPost2010Prop32
280
     0
102
RTVSPost2010PropOp32
 70
     1
102
RTVSPost2010Prop33
280
     0
102
RTVSPost2010PropOp33
 70
     1
102
RTVSPost2010Prop34
280
     0
102
RTVSPost2010PropOp34
 70
     1
102
RTVSPost2010Prop35
280
     0
102
RTVSPost2010PropOp35
 70
     1
102
RTVSPost2010Prop36
280
     0
102
RTVSPost2010PropOp36
 70
     1
102
RTVSPost2010Prop37
 90
       50
102
RTVSPost2010PropOp37
 70
     1
102
RTVSPost2010Prop38
140
0.0
102
RTVSPost2010PropOp38
 70
     1
102
RTVSPost2010Prop39
140
1.0
102
RTVSPost2010PropOp39
 70
     1
102
RTVSPost2010Prop40
 90
        0
102
RTVSPost2010PropOp40
 70
     1
102
RTVSPost2010Prop41ColorIndex
 90
       18
102
RTVSPost2010Prop41ColorRGB
 90
        0
102
RTVSPost2010PropOp41
 70
     1
102
RTVSPost2010Prop42
 90
       50
102
RTVSPost2010PropOp42
 70
     1
102
RTVSPost2010Prop43
 90
        3
102
RTVSPost2010PropOp43
 70
     1
102
RTVSPost2010Prop44ColorIndex
 90
        5
102
RTVSPost2010Prop44ColorRGB
 90
      255
102
RTVSPost2010PropOp44
 70
     1
102
RTVSPost2010Prop45
280
     0
102
RTVSPost2010PropOp45
 70
     1
102
RTVSPost2010Prop46
 90
       50
102
RTVSPost2010PropOp46
 70
     1
102
RTVSPost2010Prop47
 90
       50
102
RTVSPost2010PropOp47
 70
     1
102
RTVSPost2010Prop48
 90
       50
102
RTVSPost2010PropOp48
 70
     1
102
RTVSPost2010Prop49
280
     0
102
RTVSPost2010PropOp49
 70
     1
102
RTVSPost2010Prop50
 90
       50
102
RTVSPost2010PropOp50
 70
     1
102
RTVSPost2010Prop51ColorIndex
 90
      256
102
RTVSPost2010Prop51ColorRGB
 90
-16777216
102
RTVSPost2010PropOp51
 70
     0
102
RTVSPost2010Prop52
140
1.0
102
RTVSPost2010PropOp52
 70
     0
102
RTVSPost2010Prop53
 90
        2
102
RTVSPost2010PropOp53
 70
     1
102
RTVSPost2010Prop54
  1
strokes_ogs.tif
102
RTVSPost2010PropOp54
 70
     1
102
RTVSPost2010Prop55
280
     0
102
RTVSPost2010PropOp55
 70
     1
102
RTVSPost2010Prop56
140
1.0
102
RTVSPost2010PropOp56
 70
     1
102
RTVSPost2010Prop57
140
1.0
102
RTVSPost2010PropOp57
 70
     1
102
RTVSPropertyOp0
 70
     1
102
RTVSPropertyOp1
 70
     1
102
RTVSPropertyOp2
 70
     1
102
RTVSPropertyOp3
 70
     1
102
RTVSPropertyOp4
 70
     1
102
RTVSPropertyOp5
 70
     1
102
RTVSPropertyOp6
 70
     1
102
RTVSPropertyOp7
 70
     1
102
RTVSPropertyOp8
 70
     1
102
RTVSPropertyOp9
 70
     1
102
RTVSPropertyOp10
 70
     1
102
RTVSPropertyOp11
 70
     1
102
RTVSPropertyOp12
 70
     1
102
RTVSPropertyOp13
 70
     1
102
RTVSPropertyOp14
 70
     1
102
RTVSPropertyOp15
 70
     1
102
RTVSPropertyOp16
 70
     1
102
RTVSPropertyOp17
 70
     1
102
RTVSPropertyOp18
 70
     1
102
RTVSPropertyOp19
 70
     1
102
RTVSPropertyOp20
 70
     1
102
RTVSPropertyOp21
 70
     1
102
RTVSPropertyOp22
 70
     1
102
RTVSPropertyOp23
 70
     1
102
RTVSPropertyOp24
 70
     1
102
RTVSPropertyOp25
 70
     1
102
RTVSPropertyOp26
 70
     1
102
RTVSPropertyOp27
 70
     1
102
RTVSPropertyOp28
 70
     1
102
RTVSPropertyOp29
 70
     1
102
RTVSPropertyOp30
 70
     1
102
RTVSPropertyOp31
 70
     1
102
RTVSPropertyOp32
 70
     1
102
RTVSPropertyOp33
 70
     1
102
RTVSPropertyOp34
 70
     1
102
RTVSPropertyOp35
 70
     1
102
RTVSPropertyOp36
 70
     1
102
RTVSPropertyOp37
 70
     1
102
RTVSPropertyOp38
 70
     1
102
RTVSPropertyOp39
 70
     1
102
RTVSPropertyOp40
 70
     1
102
RTVSPropertyOp41
 70
     1
102
RTVSPropertyOp42
 70
     1
102
RTVSPropertyOp43
 70
     1
102
RTVSPropertyOp44
 70
     1
102
RTVSPropertyOp45
 70
     1
102
RTVSPropertyOp46
 70
     1
102
RTVSPropertyOp47
 70
     1
102
RTVSPropertyOp48
 70
     1
102
RTVSPropertyOp49
 70
     1
102
RTVSPropertyOp50
 70
     1
102
RTVSPropertyOp51
 70
     0
102
RTVSPropertyOp52
 70
     0
102
RTVSPropertyOp53
 70
     1
102
RTVSPropertyOp54
 70
     1
102
RTVSPropertyOp55
 70
     1
102
RTVSPropertyOp56
 70
     1
102
RTVSPropertyOp57
 70
     1
102
RTVSPropertyOp58
 70
     1
102
RTVSPropertyOp59
 70
     1
102
RTVSPropertyOp60
 70
     1
102
RTVSPropertyOp61
 70
     1
102
RTVSPropertyOp62
 70
     1
  0
XRECORD
  5
24943
102
{ACAD_REACTORS
330
24942
102
}
330
24942
100
AcDbXrecord
280
     1
102
RTVSPost2010Prop28
280
     0
102
RTVSPost2010PropOp28
 70
     1
102
RTVSPost2010Prop29
280
     1
102
RTVSPost2010PropOp29
 70
     1
102
RTVSPost2010Prop30
280
     1
102
RTVSPost2010PropOp30
 70
     1
102
RTVSPost2010Prop31
280
     0
102
RTVSPost2010PropOp31
 70
     1
102
RTVSPost2010Prop32
280
     0
102
RTVSPost2010PropOp32
 70
     1
102
RTVSPost2010Prop33
280
     0
102
RTVSPost2010PropOp33
 70
     1
102
RTVSPost2010Prop34
280
     0
102
RTVSPost2010PropOp34
 70
     1
102
RTVSPost2010Prop35
280
     0
102
RTVSPost2010PropOp35
 70
     1
102
RTVSPost2010Prop36
280
     0
102
RTVSPost2010PropOp36
 70
     1
102
RTVSPost2010Prop37
 90
       50
102
RTVSPost2010PropOp37
 70
     1
102
RTVSPost2010Prop38
140
0.0
102
RTVSPost2010PropOp38
 70
     1
102
RTVSPost2010Prop39
140
1.0
102
RTVSPost2010PropOp39
 70
     1
102
RTVSPost2010Prop40
 90
        0
102
RTVSPost2010PropOp40
 70
     1
102
RTVSPost2010Prop41ColorIndex
 90
       18
102
RTVSPost2010Prop41ColorRGB
 90
        0
102
RTVSPost2010PropOp41
 70
     1
102
RTVSPost2010Prop42
 90
       50
102
RTVSPost2010PropOp42
 70
     1
102
RTVSPost2010Prop43
 90
        3
102
RTVSPost2010PropOp43
 70
     1
102
RTVSPost2010Prop44ColorIndex
 90
        5
102
RTVSPost2010Prop44ColorRGB
 90
      255
102
RTVSPost2010PropOp44
 70
     1
102
RTVSPost2010Prop45
280
     0
102
RTVSPost2010PropOp45
 70
     1
102
RTVSPost2010Prop46
 90
       50
102
RTVSPost2010PropOp46
 70
     1
102
RTVSPost2010Prop47
 90
       50
102
RTVSPost2010PropOp47
 70
     1
102
RTVSPost2010Prop48
 90
       50
102
RTVSPost2010PropOp48
 70
     1
102
RTVSPost2010Prop49
280
     0
102
RTVSPost2010PropOp49
 70
     1
102
RTVSPost2010Prop50
 90
       50
102
RTVSPost2010PropOp50
 70
     1
102
RTVSPost2010Prop51ColorIndex
 90
      256
102
RTVSPost2010Prop51ColorRGB
 90
-16777216
102
RTVSPost2010PropOp51
 70
     0
102
RTVSPost2010Prop52
140
1.0
102
RTVSPost2010PropOp52
 70
     0
102
RTVSPost2010Prop53
 90
        2
102
RTVSPost2010PropOp53
 70
     1
102
RTVSPost2010Prop54
  1
strokes_ogs.tif
102
RTVSPost2010PropOp54
 70
     1
102
RTVSPost2010Prop55
280
     0
102
RTVSPost2010PropOp55
 70
     1
102
RTVSPost2010Prop56
140
1.0
102
RTVSPost2010PropOp56
 70
     1
102
RTVSPost2010Prop57
140
1.0
102
RTVSPost2010PropOp57
 70
     1
102
RTVSPropertyOp0
 70
     1
102
RTVSPropertyOp1
 70
     1
102
RTVSPropertyOp2
 70
     1
102
RTVSPropertyOp3
 70
     1
102
RTVSPropertyOp4
 70
     1
102
RTVSPropertyOp5
 70
     1
102
RTVSPropertyOp6
 70
     1
102
RTVSPropertyOp7
 70
     1
102
RTVSPropertyOp8
 70
     1
102
RTVSPropertyOp9
 70
     1
102
RTVSPropertyOp10
 70
     1
102
RTVSPropertyOp11
 70
     1
102
RTVSPropertyOp12
 70
     1
102
RTVSPropertyOp13
 70
     1
102
RTVSPropertyOp14
 70
     1
102
RTVSPropertyOp15
 70
     1
102
RTVSPropertyOp16
 70
     1
102
RTVSPropertyOp17
 70
     1
102
RTVSPropertyOp18
 70
     1
102
RTVSPropertyOp19
 70
     1
102
RTVSPropertyOp20
 70
     1
102
RTVSPropertyOp21
 70
     1
102
RTVSPropertyOp22
 70
     1
102
RTVSPropertyOp23
 70
     1
102
RTVSPropertyOp24
 70
     1
102
RTVSPropertyOp25
 70
     1
102
RTVSPropertyOp26
 70
     1
102
RTVSPropertyOp27
 70
     1
102
RTVSPropertyOp28
 70
     1
102
RTVSPropertyOp29
 70
     1
102
RTVSPropertyOp30
 70
     1
102
RTVSPropertyOp31
 70
     1
102
RTVSPropertyOp32
 70
     1
102
RTVSPropertyOp33
 70
     1
102
RTVSPropertyOp34
 70
     1
102
RTVSPropertyOp35
 70
     1
102
RTVSPropertyOp36
 70
     1
102
RTVSPropertyOp37
 70
     1
102
RTVSPropertyOp38
 70
     1
102
RTVSPropertyOp39
 70
     1
102
RTVSPropertyOp40
 70
     1
102
RTVSPropertyOp41
 70
     1
102
RTVSPropertyOp42
 70
     1
102
RTVSPropertyOp43
 70
     1
102
RTVSPropertyOp44
 70
     1
102
RTVSPropertyOp45
 70
     1
102
RTVSPropertyOp46
 70
     1
102
RTVSPropertyOp47
 70
     1
102
RTVSPropertyOp48
 70
     1
102
RTVSPropertyOp49
 70
     1
102
RTVSPropertyOp50
 70
     1
102
RTVSPropertyOp51
 70
     0
102
RTVSPropertyOp52
 70
     0
102
RTVSPropertyOp53
 70
     1
102
RTVSPropertyOp54
 70
     1
102
RTVSPropertyOp55
 70
     1
102
RTVSPropertyOp56
 70
     1
102
RTVSPropertyOp57
 70
     1
102
RTVSPropertyOp58
 70
     1
102
RTVSPropertyOp59
 70
     1
102
RTVSPropertyOp60
 70
     1
102
RTVSPropertyOp61
 70
     1
102
RTVSPropertyOp62
 70
     1
  0
XRECORD
  5
24941
102
{ACAD_REACTORS
330
24940
102
}
330
24940
100
AcDbXrecord
280
     1
102
RTVSPost2010Prop28
280
     0
102
RTVSPost2010PropOp28
 70
     1
102
RTVSPost2010Prop29
280
     1
102
RTVSPost2010PropOp29
 70
     1
102
RTVSPost2010Prop30
280
     1
102
RTVSPost2010PropOp30
 70
     1
102
RTVSPost2010Prop31
280
     0
102
RTVSPost2010PropOp31
 70
     1
102
RTVSPost2010Prop32
280
     0
102
RTVSPost2010PropOp32
 70
     1
102
RTVSPost2010Prop33
280
     0
102
RTVSPost2010PropOp33
 70
     1
102
RTVSPost2010Prop34
280
     0
102
RTVSPost2010PropOp34
 70
     1
102
RTVSPost2010Prop35
280
     0
102
RTVSPost2010PropOp35
 70
     1
102
RTVSPost2010Prop36
280
     0
102
RTVSPost2010PropOp36
 70
     1
102
RTVSPost2010Prop37
 90
       50
102
RTVSPost2010PropOp37
 70
     1
102
RTVSPost2010Prop38
140
0.0
102
RTVSPost2010PropOp38
 70
     1
102
RTVSPost2010Prop39
140
1.0
102
RTVSPost2010PropOp39
 70
     1
102
RTVSPost2010Prop40
 90
        0
102
RTVSPost2010PropOp40
 70
     1
102
RTVSPost2010Prop41ColorIndex
 90
       18
102
RTVSPost2010Prop41ColorRGB
 90
        0
102
RTVSPost2010PropOp41
 70
     1
102
RTVSPost2010Prop42
 90
       50
102
RTVSPost2010PropOp42
 70
     1
102
RTVSPost2010Prop43
 90
        3
102
RTVSPost2010PropOp43
 70
     1
102
RTVSPost2010Prop44ColorIndex
 90
        5
102
RTVSPost2010Prop44ColorRGB
 90
      255
102
RTVSPost2010PropOp44
 70
     1
102
RTVSPost2010Prop45
280
     0
102
RTVSPost2010PropOp45
 70
     1
102
RTVSPost2010Prop46
 90
       50
102
RTVSPost2010PropOp46
 70
     1
102
RTVSPost2010Prop47
 90
       50
102
RTVSPost2010PropOp47
 70
     1
102
RTVSPost2010Prop48
 90
       50
102
RTVSPost2010PropOp48
 70
     1
102
RTVSPost2010Prop49
280
     0
102
RTVSPost2010PropOp49
 70
     1
102
RTVSPost2010Prop50
 90
       50
102
RTVSPost2010PropOp50
 70
     1
102
RTVSPost2010Prop51ColorIndex
 90
      256
102
RTVSPost2010Prop51ColorRGB
 90
-16777216
102
RTVSPost2010PropOp51
 70
     0
102
RTVSPost2010Prop52
140
1.0
102
RTVSPost2010PropOp52
 70
     0
102
RTVSPost2010Prop53
 90
        2
102
RTVSPost2010PropOp53
 70
     1
102
RTVSPost2010Prop54
  1
strokes_ogs.tif
102
RTVSPost2010PropOp54
 70
     1
102
RTVSPost2010Prop55
280
     0
102
RTVSPost2010PropOp55
 70
     1
102
RTVSPost2010Prop56
140
1.0
102
RTVSPost2010PropOp56
 70
     1
102
RTVSPost2010Prop57
140
1.0
102
RTVSPost2010PropOp57
 70
     1
102
RTVSPropertyOp0
 70
     1
102
RTVSPropertyOp1
 70
     1
102
RTVSPropertyOp2
 70
     1
102
RTVSPropertyOp3
 70
     1
102
RTVSPropertyOp4
 70
     1
102
RTVSPropertyOp5
 70
     1
102
RTVSPropertyOp6
 70
     1
102
RTVSPropertyOp7
 70
     1
102
RTVSPropertyOp8
 70
     1
102
RTVSPropertyOp9
 70
     1
102
RTVSPropertyOp10
 70
     1
102
RTVSPropertyOp11
 70
     1
102
RTVSPropertyOp12
 70
     1
102
RTVSPropertyOp13
 70
     1
102
RTVSPropertyOp14
 70
     1
102
RTVSPropertyOp15
 70
     1
102
RTVSPropertyOp16
 70
     1
102
RTVSPropertyOp17
 70
     1
102
RTVSPropertyOp18
 70
     1
102
RTVSPropertyOp19
 70
     1
102
RTVSPropertyOp20
 70
     1
102
RTVSPropertyOp21
 70
     1
102
RTVSPropertyOp22
 70
     1
102
RTVSPropertyOp23
 70
     1
102
RTVSPropertyOp24
 70
     1
102
RTVSPropertyOp25
 70
     1
102
RTVSPropertyOp26
 70
     1
102
RTVSPropertyOp27
 70
     1
102
RTVSPropertyOp28
 70
     1
102
RTVSPropertyOp29
 70
     1
102
RTVSPropertyOp30
 70
     1
102
RTVSPropertyOp31
 70
     1
102
RTVSPropertyOp32
 70
     1
102
RTVSPropertyOp33
 70
     1
102
RTVSPropertyOp34
 70
     1
102
RTVSPropertyOp35
 70
     1
102
RTVSPropertyOp36
 70
     1
102
RTVSPropertyOp37
 70
     1
102
RTVSPropertyOp38
 70
     1
102
RTVSPropertyOp39
 70
     1
102
RTVSPropertyOp40
 70
     1
102
RTVSPropertyOp41
 70
     1
102
RTVSPropertyOp42
 70
     1
102
RTVSPropertyOp43
 70
     1
102
RTVSPropertyOp44
 70
     1
102
RTVSPropertyOp45
 70
     1
102
RTVSPropertyOp46
 70
     1
102
RTVSPropertyOp47
 70
     1
102
RTVSPropertyOp48
 70
     1
102
RTVSPropertyOp49
 70
     1
102
RTVSPropertyOp50
 70
     1
102
RTVSPropertyOp51
 70
     0
102
RTVSPropertyOp52
 70
     0
102
RTVSPropertyOp53
 70
     1
102
RTVSPropertyOp54
 70
     1
102
RTVSPropertyOp55
 70
     1
102
RTVSPropertyOp56
 70
     1
102
RTVSPropertyOp57
 70
     1
102
RTVSPropertyOp58
 70
     1
102
RTVSPropertyOp59
 70
     1
102
RTVSPropertyOp60
 70
     1
102
RTVSPropertyOp61
 70
     1
102
RTVSPropertyOp62
 70
     1
  0
XRECORD
  5
2493B
102
{ACAD_REACTORS
330
2493A
102
}
330
2493A
100
AcDbXrecord
280
     1
102
RTVSPost2010Prop28
280
     0
102
RTVSPost2010PropOp28
 70
     1
102
RTVSPost2010Prop29
280
     1
102
RTVSPost2010PropOp29
 70
     1
102
RTVSPost2010Prop30
280
     1
102
RTVSPost2010PropOp30
 70
     1
102
RTVSPost2010Prop31
280
     0
102
RTVSPost2010PropOp31
 70
     1
102
RTVSPost2010Prop32
280
     0
102
RTVSPost2010PropOp32
 70
     1
102
RTVSPost2010Prop33
280
     0
102
RTVSPost2010PropOp33
 70
     1
102
RTVSPost2010Prop34
280
     0
102
RTVSPost2010PropOp34
 70
     1
102
RTVSPost2010Prop35
280
     0
102
RTVSPost2010PropOp35
 70
     1
102
RTVSPost2010Prop36
280
     0
102
RTVSPost2010PropOp36
 70
     1
102
RTVSPost2010Prop37
 90
       50
102
RTVSPost2010PropOp37
 70
     1
102
RTVSPost2010Prop38
140
0.0
102
RTVSPost2010PropOp38
 70
     1
102
RTVSPost2010Prop39
140
1.0
102
RTVSPost2010PropOp39
 70
     1
102
RTVSPost2010Prop40
 90
        0
102
RTVSPost2010PropOp40
 70
     1
102
RTVSPost2010Prop41ColorIndex
 90
       18
102
RTVSPost2010Prop41ColorRGB
 90
        0
102
RTVSPost2010PropOp41
 70
     1
102
RTVSPost2010Prop42
 90
       50
102
RTVSPost2010PropOp42
 70
     1
102
RTVSPost2010Prop43
 90
        3
102
RTVSPost2010PropOp43
 70
     1
102
RTVSPost2010Prop44ColorIndex
 90
        5
102
RTVSPost2010Prop44ColorRGB
 90
      255
102
RTVSPost2010PropOp44
 70
     1
102
RTVSPost2010Prop45
280
     0
102
RTVSPost2010PropOp45
 70
     1
102
RTVSPost2010Prop46
 90
       50
102
RTVSPost2010PropOp46
 70
     1
102
RTVSPost2010Prop47
 90
       50
102
RTVSPost2010PropOp47
 70
     1
102
RTVSPost2010Prop48
 90
       50
102
RTVSPost2010PropOp48
 70
     1
102
RTVSPost2010Prop49
280
     0
102
RTVSPost2010PropOp49
 70
     1
102
RTVSPost2010Prop50
 90
       50
102
RTVSPost2010PropOp50
 70
     1
102
RTVSPost2010Prop51ColorIndex
 90
      256
102
RTVSPost2010Prop51ColorRGB
 90
-16777216
102
RTVSPost2010PropOp51
 70
     0
102
RTVSPost2010Prop52
140
1.0
102
RTVSPost2010PropOp52
 70
     0
102
RTVSPost2010Prop53
 90
        2
102
RTVSPost2010PropOp53
 70
     1
102
RTVSPost2010Prop54
  1
strokes_ogs.tif
102
RTVSPost2010PropOp54
 70
     1
102
RTVSPost2010Prop55
280
     0
102
RTVSPost2010PropOp55
 70
     1
102
RTVSPost2010Prop56
140
1.0
102
RTVSPost2010PropOp56
 70
     1
102
RTVSPost2010Prop57
140
1.0
102
RTVSPost2010PropOp57
 70
     1
102
RTVSPropertyOp0
 70
     1
102
RTVSPropertyOp1
 70
     1
102
RTVSPropertyOp2
 70
     1
102
RTVSPropertyOp3
 70
     1
102
RTVSPropertyOp4
 70
     1
102
RTVSPropertyOp5
 70
     1
102
RTVSPropertyOp6
 70
     1
102
RTVSPropertyOp7
 70
     1
102
RTVSPropertyOp8
 70
     1
102
RTVSPropertyOp9
 70
     1
102
RTVSPropertyOp10
 70
     1
102
RTVSPropertyOp11
 70
     1
102
RTVSPropertyOp12
 70
     1
102
RTVSPropertyOp13
 70
     1
102
RTVSPropertyOp14
 70
     1
102
RTVSPropertyOp15
 70
     1
102
RTVSPropertyOp16
 70
     1
102
RTVSPropertyOp17
 70
     1
102
RTVSPropertyOp18
 70
     1
102
RTVSPropertyOp19
 70
     1
102
RTVSPropertyOp20
 70
     1
102
RTVSPropertyOp21
 70
     1
102
RTVSPropertyOp22
 70
     1
102
RTVSPropertyOp23
 70
     1
102
RTVSPropertyOp24
 70
     1
102
RTVSPropertyOp25
 70
     1
102
RTVSPropertyOp26
 70
     1
102
RTVSPropertyOp27
 70
     1
102
RTVSPropertyOp28
 70
     1
102
RTVSPropertyOp29
 70
     1
102
RTVSPropertyOp30
 70
     1
102
RTVSPropertyOp31
 70
     1
102
RTVSPropertyOp32
 70
     1
102
RTVSPropertyOp33
 70
     1
102
RTVSPropertyOp34
 70
     1
102
RTVSPropertyOp35
 70
     1
102
RTVSPropertyOp36
 70
     1
102
RTVSPropertyOp37
 70
     1
102
RTVSPropertyOp38
 70
     1
102
RTVSPropertyOp39
 70
     1
102
RTVSPropertyOp40
 70
     1
102
RTVSPropertyOp41
 70
     1
102
RTVSPropertyOp42
 70
     1
102
RTVSPropertyOp43
 70
     1
102
RTVSPropertyOp44
 70
     1
102
RTVSPropertyOp45
 70
     1
102
RTVSPropertyOp46
 70
     1
102
RTVSPropertyOp47
 70
     1
102
RTVSPropertyOp48
 70
     1
102
RTVSPropertyOp49
 70
     1
102
RTVSPropertyOp50
 70
     1
102
RTVSPropertyOp51
 70
     0
102
RTVSPropertyOp52
 70
     0
102
RTVSPropertyOp53
 70
     1
102
RTVSPropertyOp54
 70
     1
102
RTVSPropertyOp55
 70
     1
102
RTVSPropertyOp56
 70
     1
102
RTVSPropertyOp57
 70
     1
102
RTVSPropertyOp58
 70
     1
102
RTVSPropertyOp59
 70
     1
102
RTVSPropertyOp60
 70
     1
102
RTVSPropertyOp61
 70
     1
102
RTVSPropertyOp62
 70
     1
  0
XRECORD
  5
2493D
102
{ACAD_REACTORS
330
2493C
102
}
330
2493C
100
AcDbXrecord
280
     1
102
RTVSPost2010Prop28
280
     0
102
RTVSPost2010PropOp28
 70
     1
102
RTVSPost2010Prop29
280
     1
102
RTVSPost2010PropOp29
 70
     1
102
RTVSPost2010Prop30
280
     1
102
RTVSPost2010PropOp30
 70
     1
102
RTVSPost2010Prop31
280
     0
102
RTVSPost2010PropOp31
 70
     1
102
RTVSPost2010Prop32
280
     0
102
RTVSPost2010PropOp32
 70
     1
102
RTVSPost2010Prop33
280
     0
102
RTVSPost2010PropOp33
 70
     1
102
RTVSPost2010Prop34
280
     0
102
RTVSPost2010PropOp34
 70
     1
102
RTVSPost2010Prop35
280
     0
102
RTVSPost2010PropOp35
 70
     1
102
RTVSPost2010Prop36
280
     0
102
RTVSPost2010PropOp36
 70
     1
102
RTVSPost2010Prop37
 90
       50
102
RTVSPost2010PropOp37
 70
     1
102
RTVSPost2010Prop38
140
0.0
102
RTVSPost2010PropOp38
 70
     1
102
RTVSPost2010Prop39
140
1.0
102
RTVSPost2010PropOp39
 70
     1
102
RTVSPost2010Prop40
 90
        0
102
RTVSPost2010PropOp40
 70
     1
102
RTVSPost2010Prop41ColorIndex
 90
       18
102
RTVSPost2010Prop41ColorRGB
 90
        0
102
RTVSPost2010PropOp41
 70
     1
102
RTVSPost2010Prop42
 90
       50
102
RTVSPost2010PropOp42
 70
     1
102
RTVSPost2010Prop43
 90
        3
102
RTVSPost2010PropOp43
 70
     1
102
RTVSPost2010Prop44ColorIndex
 90
        5
102
RTVSPost2010Prop44ColorRGB
 90
      255
102
RTVSPost2010PropOp44
 70
     1
102
RTVSPost2010Prop45
280
     0
102
RTVSPost2010PropOp45
 70
     1
102
RTVSPost2010Prop46
 90
       50
102
RTVSPost2010PropOp46
 70
     1
102
RTVSPost2010Prop47
 90
       50
102
RTVSPost2010PropOp47
 70
     1
102
RTVSPost2010Prop48
 90
       50
102
RTVSPost2010PropOp48
 70
     1
102
RTVSPost2010Prop49
280
     0
102
RTVSPost2010PropOp49
 70
     1
102
RTVSPost2010Prop50
 90
       50
102
RTVSPost2010PropOp50
 70
     1
102
RTVSPost2010Prop51ColorIndex
 90
      256
102
RTVSPost2010Prop51ColorRGB
 90
-16777216
102
RTVSPost2010PropOp51
 70
     0
102
RTVSPost2010Prop52
140
1.0
102
RTVSPost2010PropOp52
 70
     0
102
RTVSPost2010Prop53
 90
        2
102
RTVSPost2010PropOp53
 70
     1
102
RTVSPost2010Prop54
  1
strokes_ogs.tif
102
RTVSPost2010PropOp54
 70
     1
102
RTVSPost2010Prop55
280
     0
102
RTVSPost2010PropOp55
 70
     1
102
RTVSPost2010Prop56
140
1.0
102
RTVSPost2010PropOp56
 70
     1
102
RTVSPost2010Prop57
140
1.0
102
RTVSPost2010PropOp57
 70
     1
102
RTVSPropertyOp0
 70
     1
102
RTVSPropertyOp1
 70
     1
102
RTVSPropertyOp2
 70
     1
102
RTVSPropertyOp3
 70
     1
102
RTVSPropertyOp4
 70
     1
102
RTVSPropertyOp5
 70
     1
102
RTVSPropertyOp6
 70
     1
102
RTVSPropertyOp7
 70
     1
102
RTVSPropertyOp8
 70
     1
102
RTVSPropertyOp9
 70
     1
102
RTVSPropertyOp10
 70
     1
102
RTVSPropertyOp11
 70
     1
102
RTVSPropertyOp12
 70
     1
102
RTVSPropertyOp13
 70
     1
102
RTVSPropertyOp14
 70
     1
102
RTVSPropertyOp15
 70
     1
102
RTVSPropertyOp16
 70
     1
102
RTVSPropertyOp17
 70
     1
102
RTVSPropertyOp18
 70
     1
102
RTVSPropertyOp19
 70
     1
102
RTVSPropertyOp20
 70
     1
102
RTVSPropertyOp21
 70
     1
102
RTVSPropertyOp22
 70
     1
102
RTVSPropertyOp23
 70
     1
102
RTVSPropertyOp24
 70
     1
102
RTVSPropertyOp25
 70
     1
102
RTVSPropertyOp26
 70
     1
102
RTVSPropertyOp27
 70
     1
102
RTVSPropertyOp28
 70
     1
102
RTVSPropertyOp29
 70
     1
102
RTVSPropertyOp30
 70
     1
102
RTVSPropertyOp31
 70
     1
102
RTVSPropertyOp32
 70
     1
102
RTVSPropertyOp33
 70
     1
102
RTVSPropertyOp34
 70
     1
102
RTVSPropertyOp35
 70
     1
102
RTVSPropertyOp36
 70
     1
102
RTVSPropertyOp37
 70
     1
102
RTVSPropertyOp38
 70
     1
102
RTVSPropertyOp39
 70
     1
102
RTVSPropertyOp40
 70
     1
102
RTVSPropertyOp41
 70
     1
102
RTVSPropertyOp42
 70
     1
102
RTVSPropertyOp43
 70
     1
102
RTVSPropertyOp44
 70
     1
102
RTVSPropertyOp45
 70
     1
102
RTVSPropertyOp46
 70
     1
102
RTVSPropertyOp47
 70
     1
102
RTVSPropertyOp48
 70
     1
102
RTVSPropertyOp49
 70
     1
102
RTVSPropertyOp50
 70
     1
102
RTVSPropertyOp51
 70
     0
102
RTVSPropertyOp52
 70
     0
102
RTVSPropertyOp53
 70
     1
102
RTVSPropertyOp54
 70
     1
102
RTVSPropertyOp55
 70
     1
102
RTVSPropertyOp56
 70
     1
102
RTVSPropertyOp57
 70
     1
102
RTVSPropertyOp58
 70
     1
102
RTVSPropertyOp59
 70
     1
102
RTVSPropertyOp60
 70
     1
102
RTVSPropertyOp61
 70
     1
102
RTVSPropertyOp62
 70
     1
  0
XRECORD
  5
24933
102
{ACAD_REACTORS
330
24932
102
}
330
24932
100
AcDbXrecord
280
     1
102
RTVSPost2010Prop28
280
     0
102
RTVSPost2010PropOp28
 70
     1
102
RTVSPost2010Prop29
280
     1
102
RTVSPost2010PropOp29
 70
     1
102
RTVSPost2010Prop30
280
     1
102
RTVSPost2010PropOp30
 70
     1
102
RTVSPost2010Prop31
280
     0
102
RTVSPost2010PropOp31
 70
     1
102
RTVSPost2010Prop32
280
     0
102
RTVSPost2010PropOp32
 70
     1
102
RTVSPost2010Prop33
280
     0
102
RTVSPost2010PropOp33
 70
     1
102
RTVSPost2010Prop34
280
     0
102
RTVSPost2010PropOp34
 70
     1
102
RTVSPost2010Prop35
280
     0
102
RTVSPost2010PropOp35
 70
     1
102
RTVSPost2010Prop36
280
     0
102
RTVSPost2010PropOp36
 70
     1
102
RTVSPost2010Prop37
 90
       50
102
RTVSPost2010PropOp37
 70
     1
102
RTVSPost2010Prop38
140
0.0
102
RTVSPost2010PropOp38
 70
     1
102
RTVSPost2010Prop39
140
1.0
102
RTVSPost2010PropOp39
 70
     1
102
RTVSPost2010Prop40
 90
        0
102
RTVSPost2010PropOp40
 70
     1
102
RTVSPost2010Prop41ColorIndex
 90
       18
102
RTVSPost2010Prop41ColorRGB
 90
        0
102
RTVSPost2010PropOp41
 70
     1
102
RTVSPost2010Prop42
 90
       50
102
RTVSPost2010PropOp42
 70
     1
102
RTVSPost2010Prop43
 90
        3
102
RTVSPost2010PropOp43
 70
     1
102
RTVSPost2010Prop44ColorIndex
 90
        5
102
RTVSPost2010Prop44ColorRGB
 90
      255
102
RTVSPost2010PropOp44
 70
     1
102
RTVSPost2010Prop45
280
     0
102
RTVSPost2010PropOp45
 70
     1
102
RTVSPost2010Prop46
 90
       50
102
RTVSPost2010PropOp46
 70
     1
102
RTVSPost2010Prop47
 90
       50
102
RTVSPost2010PropOp47
 70
     1
102
RTVSPost2010Prop48
 90
       50
102
RTVSPost2010PropOp48
 70
     1
102
RTVSPost2010Prop49
280
     0
102
RTVSPost2010PropOp49
 70
     1
102
RTVSPost2010Prop50
 90
       50
102
RTVSPost2010PropOp50
 70
     1
102
RTVSPost2010Prop51ColorIndex
 90
      256
102
RTVSPost2010Prop51ColorRGB
 90
-16777216
102
RTVSPost2010PropOp51
 70
     0
102
RTVSPost2010Prop52
140
1.0
102
RTVSPost2010PropOp52
 70
     0
102
RTVSPost2010Prop53
 90
        2
102
RTVSPost2010PropOp53
 70
     1
102
RTVSPost2010Prop54
  1
strokes_ogs.tif
102
RTVSPost2010PropOp54
 70
     1
102
RTVSPost2010Prop55
280
     0
102
RTVSPost2010PropOp55
 70
     1
102
RTVSPost2010Prop56
140
1.0
102
RTVSPost2010PropOp56
 70
     1
102
RTVSPost2010Prop57
140
1.0
102
RTVSPost2010PropOp57
 70
     1
102
RTVSPropertyOp0
 70
     1
102
RTVSPropertyOp1
 70
     1
102
RTVSPropertyOp2
 70
     1
102
RTVSPropertyOp3
 70
     1
102
RTVSPropertyOp4
 70
     1
102
RTVSPropertyOp5
 70
     1
102
RTVSPropertyOp6
 70
     1
102
RTVSPropertyOp7
 70
     1
102
RTVSPropertyOp8
 70
     1
102
RTVSPropertyOp9
 70
     1
102
RTVSPropertyOp10
 70
     1
102
RTVSPropertyOp11
 70
     1
102
RTVSPropertyOp12
 70
     1
102
RTVSPropertyOp13
 70
     1
102
RTVSPropertyOp14
 70
     1
102
RTVSPropertyOp15
 70
     1
102
RTVSPropertyOp16
 70
     1
102
RTVSPropertyOp17
 70
     1
102
RTVSPropertyOp18
 70
     1
102
RTVSPropertyOp19
 70
     1
102
RTVSPropertyOp20
 70
     1
102
RTVSPropertyOp21
 70
     1
102
RTVSPropertyOp22
 70
     1
102
RTVSPropertyOp23
 70
     1
102
RTVSPropertyOp24
 70
     1
102
RTVSPropertyOp25
 70
     1
102
RTVSPropertyOp26
 70
     1
102
RTVSPropertyOp27
 70
     1
102
RTVSPropertyOp28
 70
     1
102
RTVSPropertyOp29
 70
     1
102
RTVSPropertyOp30
 70
     1
102
RTVSPropertyOp31
 70
     1
102
RTVSPropertyOp32
 70
     1
102
RTVSPropertyOp33
 70
     1
102
RTVSPropertyOp34
 70
     1
102
RTVSPropertyOp35
 70
     1
102
RTVSPropertyOp36
 70
     1
102
RTVSPropertyOp37
 70
     1
102
RTVSPropertyOp38
 70
     1
102
RTVSPropertyOp39
 70
     1
102
RTVSPropertyOp40
 70
     1
102
RTVSPropertyOp41
 70
     1
102
RTVSPropertyOp42
 70
     1
102
RTVSPropertyOp43
 70
     1
102
RTVSPropertyOp44
 70
     1
102
RTVSPropertyOp45
 70
     1
102
RTVSPropertyOp46
 70
     1
102
RTVSPropertyOp47
 70
     1
102
RTVSPropertyOp48
 70
     1
102
RTVSPropertyOp49
 70
     1
102
RTVSPropertyOp50
 70
     1
102
RTVSPropertyOp51
 70
     0
102
RTVSPropertyOp52
 70
     0
102
RTVSPropertyOp53
 70
     1
102
RTVSPropertyOp54
 70
     1
102
RTVSPropertyOp55
 70
     1
102
RTVSPropertyOp56
 70
     1
102
RTVSPropertyOp57
 70
     1
102
RTVSPropertyOp58
 70
     1
102
RTVSPropertyOp59
 70
     1
102
RTVSPropertyOp60
 70
     1
102
RTVSPropertyOp61
 70
     1
102
RTVSPropertyOp62
 70
     1
  0
XRECORD
  5
24927
102
{ACAD_REACTORS
330
24926
102
}
330
24926
100
AcDbXrecord
280
     1
102
RTVSPost2010Prop28
280
     0
102
RTVSPost2010PropOp28
 70
     1
102
RTVSPost2010Prop29
280
     1
102
RTVSPost2010PropOp29
 70
     1
102
RTVSPost2010Prop30
280
     1
102
RTVSPost2010PropOp30
 70
     1
102
RTVSPost2010Prop31
280
     0
102
RTVSPost2010PropOp31
 70
     1
102
RTVSPost2010Prop32
280
     0
102
RTVSPost2010PropOp32
 70
     1
102
RTVSPost2010Prop33
280
     0
102
RTVSPost2010PropOp33
 70
     1
102
RTVSPost2010Prop34
280
     0
102
RTVSPost2010PropOp34
 70
     1
102
RTVSPost2010Prop35
280
     0
102
RTVSPost2010PropOp35
 70
     1
102
RTVSPost2010Prop36
280
     0
102
RTVSPost2010PropOp36
 70
     1
102
RTVSPost2010Prop37
 90
       50
102
RTVSPost2010PropOp37
 70
     1
102
RTVSPost2010Prop38
140
0.0
102
RTVSPost2010PropOp38
 70
     1
102
RTVSPost2010Prop39
140
1.0
102
RTVSPost2010PropOp39
 70
     1
102
RTVSPost2010Prop40
 90
        0
102
RTVSPost2010PropOp40
 70
     1
102
RTVSPost2010Prop41ColorIndex
 90
       18
102
RTVSPost2010Prop41ColorRGB
 90
        0
102
RTVSPost2010PropOp41
 70
     1
102
RTVSPost2010Prop42
 90
       50
102
RTVSPost2010PropOp42
 70
     1
102
RTVSPost2010Prop43
 90
        3
102
RTVSPost2010PropOp43
 70
     1
102
RTVSPost2010Prop44ColorIndex
 90
        5
102
RTVSPost2010Prop44ColorRGB
 90
      255
102
RTVSPost2010PropOp44
 70
     1
102
RTVSPost2010Prop45
280
     0
102
RTVSPost2010PropOp45
 70
     1
102
RTVSPost2010Prop46
 90
       50
102
RTVSPost2010PropOp46
 70
     1
102
RTVSPost2010Prop47
 90
       50
102
RTVSPost2010PropOp47
 70
     1
102
RTVSPost2010Prop48
 90
       50
102
RTVSPost2010PropOp48
 70
     1
102
RTVSPost2010Prop49
280
     0
102
RTVSPost2010PropOp49
 70
     1
102
RTVSPost2010Prop50
 90
       50
102
RTVSPost2010PropOp50
 70
     1
102
RTVSPost2010Prop51ColorIndex
 90
      256
102
RTVSPost2010Prop51ColorRGB
 90
-16777216
102
RTVSPost2010PropOp51
 70
     0
102
RTVSPost2010Prop52
140
1.0
102
RTVSPost2010PropOp52
 70
     0
102
RTVSPost2010Prop53
 90
        2
102
RTVSPost2010PropOp53
 70
     1
102
RTVSPost2010Prop54
  1
strokes_ogs.tif
102
RTVSPost2010PropOp54
 70
     1
102
RTVSPost2010Prop55
280
     0
102
RTVSPost2010PropOp55
 70
     1
102
RTVSPost2010Prop56
140
1.0
102
RTVSPost2010PropOp56
 70
     1
102
RTVSPost2010Prop57
140
1.0
102
RTVSPost2010PropOp57
 70
     1
102
RTVSPropertyOp0
 70
     1
102
RTVSPropertyOp1
 70
     1
102
RTVSPropertyOp2
 70
     1
102
RTVSPropertyOp3
 70
     1
102
RTVSPropertyOp4
 70
     1
102
RTVSPropertyOp5
 70
     1
102
RTVSPropertyOp6
 70
     1
102
RTVSPropertyOp7
 70
     1
102
RTVSPropertyOp8
 70
     1
102
RTVSPropertyOp9
 70
     1
102
RTVSPropertyOp10
 70
     1
102
RTVSPropertyOp11
 70
     1
102
RTVSPropertyOp12
 70
     1
102
RTVSPropertyOp13
 70
     1
102
RTVSPropertyOp14
 70
     1
102
RTVSPropertyOp15
 70
     1
102
RTVSPropertyOp16
 70
     1
102
RTVSPropertyOp17
 70
     1
102
RTVSPropertyOp18
 70
     1
102
RTVSPropertyOp19
 70
     1
102
RTVSPropertyOp20
 70
     1
102
RTVSPropertyOp21
 70
     1
102
RTVSPropertyOp22
 70
     1
102
RTVSPropertyOp23
 70
     1
102
RTVSPropertyOp24
 70
     1
102
RTVSPropertyOp25
 70
     1
102
RTVSPropertyOp26
 70
     1
102
RTVSPropertyOp27
 70
     1
102
RTVSPropertyOp28
 70
     1
102
RTVSPropertyOp29
 70
     1
102
RTVSPropertyOp30
 70
     1
102
RTVSPropertyOp31
 70
     1
102
RTVSPropertyOp32
 70
     1
102
RTVSPropertyOp33
 70
     1
102
RTVSPropertyOp34
 70
     1
102
RTVSPropertyOp35
 70
     1
102
RTVSPropertyOp36
 70
     1
102
RTVSPropertyOp37
 70
     1
102
RTVSPropertyOp38
 70
     1
102
RTVSPropertyOp39
 70
     1
102
RTVSPropertyOp40
 70
     1
102
RTVSPropertyOp41
 70
     1
102
RTVSPropertyOp42
 70
     1
102
RTVSPropertyOp43
 70
     1
102
RTVSPropertyOp44
 70
     1
102
RTVSPropertyOp45
 70
     1
102
RTVSPropertyOp46
 70
     1
102
RTVSPropertyOp47
 70
     1
102
RTVSPropertyOp48
 70
     1
102
RTVSPropertyOp49
 70
     1
102
RTVSPropertyOp50
 70
     1
102
RTVSPropertyOp51
 70
     0
102
RTVSPropertyOp52
 70
     0
102
RTVSPropertyOp53
 70
     1
102
RTVSPropertyOp54
 70
     1
102
RTVSPropertyOp55
 70
     1
102
RTVSPropertyOp56
 70
     1
102
RTVSPropertyOp57
 70
     1
102
RTVSPropertyOp58
 70
     1
102
RTVSPropertyOp59
 70
     1
102
RTVSPropertyOp60
 70
     1
102
RTVSPropertyOp61
 70
     1
102
RTVSPropertyOp62
 70
     1
  0
XRECORD
  5
2493F
102
{ACAD_REACTORS
330
2493E
102
}
330
2493E
100
AcDbXrecord
280
     1
102
RTVSPost2010Prop28
280
     0
102
RTVSPost2010PropOp28
 70
     1
102
RTVSPost2010Prop29
280
     1
102
RTVSPost2010PropOp29
 70
     1
102
RTVSPost2010Prop30
280
     1
102
RTVSPost2010PropOp30
 70
     1
102
RTVSPost2010Prop31
280
     0
102
RTVSPost2010PropOp31
 70
     1
102
RTVSPost2010Prop32
280
     0
102
RTVSPost2010PropOp32
 70
     1
102
RTVSPost2010Prop33
280
     0
102
RTVSPost2010PropOp33
 70
     1
102
RTVSPost2010Prop34
280
     0
102
RTVSPost2010PropOp34
 70
     1
102
RTVSPost2010Prop35
280
     0
102
RTVSPost2010PropOp35
 70
     1
102
RTVSPost2010Prop36
280
     0
102
RTVSPost2010PropOp36
 70
     1
102
RTVSPost2010Prop37
 90
       50
102
RTVSPost2010PropOp37
 70
     1
102
RTVSPost2010Prop38
140
0.0
102
RTVSPost2010PropOp38
 70
     1
102
RTVSPost2010Prop39
140
1.0
102
RTVSPost2010PropOp39
 70
     1
102
RTVSPost2010Prop40
 90
        0
102
RTVSPost2010PropOp40
 70
     1
102
RTVSPost2010Prop41ColorIndex
 90
       18
102
RTVSPost2010Prop41ColorRGB
 90
        0
102
RTVSPost2010PropOp41
 70
     1
102
RTVSPost2010Prop42
 90
       50
102
RTVSPost2010PropOp42
 70
     1
102
RTVSPost2010Prop43
 90
        3
102
RTVSPost2010PropOp43
 70
     1
102
RTVSPost2010Prop44ColorIndex
 90
        5
102
RTVSPost2010Prop44ColorRGB
 90
      255
102
RTVSPost2010PropOp44
 70
     1
102
RTVSPost2010Prop45
280
     0
102
RTVSPost2010PropOp45
 70
     1
102
RTVSPost2010Prop46
 90
       50
102
RTVSPost2010PropOp46
 70
     1
102
RTVSPost2010Prop47
 90
       50
102
RTVSPost2010PropOp47
 70
     1
102
RTVSPost2010Prop48
 90
       50
102
RTVSPost2010PropOp48
 70
     1
102
RTVSPost2010Prop49
280
     0
102
RTVSPost2010PropOp49
 70
     1
102
RTVSPost2010Prop50
 90
       50
102
RTVSPost2010PropOp50
 70
     1
102
RTVSPost2010Prop51ColorIndex
 90
      256
102
RTVSPost2010Prop51ColorRGB
 90
-16777216
102
RTVSPost2010PropOp51
 70
     0
102
RTVSPost2010Prop52
140
1.0
102
RTVSPost2010PropOp52
 70
     0
102
RTVSPost2010Prop53
 90
        2
102
RTVSPost2010PropOp53
 70
     1
102
RTVSPost2010Prop54
  1
strokes_ogs.tif
102
RTVSPost2010PropOp54
 70
     1
102
RTVSPost2010Prop55
280
     0
102
RTVSPost2010PropOp55
 70
     1
102
RTVSPost2010Prop56
140
1.0
102
RTVSPost2010PropOp56
 70
     1
102
RTVSPost2010Prop57
140
1.0
102
RTVSPost2010PropOp57
 70
     1
102
RTVSPropertyOp0
 70
     1
102
RTVSPropertyOp1
 70
     1
102
RTVSPropertyOp2
 70
     1
102
RTVSPropertyOp3
 70
     1
102
RTVSPropertyOp4
 70
     1
102
RTVSPropertyOp5
 70
     1
102
RTVSPropertyOp6
 70
     1
102
RTVSPropertyOp7
 70
     1
102
RTVSPropertyOp8
 70
     1
102
RTVSPropertyOp9
 70
     1
102
RTVSPropertyOp10
 70
     1
102
RTVSPropertyOp11
 70
     1
102
RTVSPropertyOp12
 70
     1
102
RTVSPropertyOp13
 70
     1
102
RTVSPropertyOp14
 70
     1
102
RTVSPropertyOp15
 70
     1
102
RTVSPropertyOp16
 70
     1
102
RTVSPropertyOp17
 70
     1
102
RTVSPropertyOp18
 70
     1
102
RTVSPropertyOp19
 70
     1
102
RTVSPropertyOp20
 70
     1
102
RTVSPropertyOp21
 70
     1
102
RTVSPropertyOp22
 70
     1
102
RTVSPropertyOp23
 70
     1
102
RTVSPropertyOp24
 70
     1
102
RTVSPropertyOp25
 70
     1
102
RTVSPropertyOp26
 70
     1
102
RTVSPropertyOp27
 70
     1
102
RTVSPropertyOp28
 70
     1
102
RTVSPropertyOp29
 70
     1
102
RTVSPropertyOp30
 70
     1
102
RTVSPropertyOp31
 70
     1
102
RTVSPropertyOp32
 70
     1
102
RTVSPropertyOp33
 70
     1
102
RTVSPropertyOp34
 70
     1
102
RTVSPropertyOp35
 70
     1
102
RTVSPropertyOp36
 70
     1
102
RTVSPropertyOp37
 70
     1
102
RTVSPropertyOp38
 70
     1
102
RTVSPropertyOp39
 70
     1
102
RTVSPropertyOp40
 70
     1
102
RTVSPropertyOp41
 70
     1
102
RTVSPropertyOp42
 70
     1
102
RTVSPropertyOp43
 70
     1
102
RTVSPropertyOp44
 70
     1
102
RTVSPropertyOp45
 70
     1
102
RTVSPropertyOp46
 70
     1
102
RTVSPropertyOp47
 70
     1
102
RTVSPropertyOp48
 70
     1
102
RTVSPropertyOp49
 70
     1
102
RTVSPropertyOp50
 70
     1
102
RTVSPropertyOp51
 70
     0
102
RTVSPropertyOp52
 70
     0
102
RTVSPropertyOp53
 70
     1
102
RTVSPropertyOp54
 70
     1
102
RTVSPropertyOp55
 70
     1
102
RTVSPropertyOp56
 70
     1
102
RTVSPropertyOp57
 70
     1
102
RTVSPropertyOp58
 70
     1
102
RTVSPropertyOp59
 70
     1
102
RTVSPropertyOp60
 70
     1
102
RTVSPropertyOp61
 70
     1
102
RTVSPropertyOp62
 70
     1
  0
ENDSEC
  0
EOF
