  0
SECTION
  2
HEADER
  9
$ACADVER
  1
AC1015
  9
$ACADMAINTVER
 70
    20
  9
$DWGCODEPAGE
  3
ANSI_932
  9
$INSBASE
 10
0.0
 20
0.0
 30
0.0
  9
$EXTMIN
 10
139.9999999999995
 20
-0.0000000000000909
 30
0.0
  9
$EXTMAX
 10
16307.2
 20
11409.6
 30
0.0
  9
$LIMMIN
 10
-25.79074261211281
 20
-125.8223078213959
  9
$LIMMAX
 10
16471.10331197129
 20
11496.44801950658
  9
$ORTHOMODE
 70
     0
  9
$REGENMODE
 70
     1
  9
$FILLMODE
 70
     1
  9
$QTEXTMODE
 70
     0
  9
$MIRRTEXT
 70
     1
  9
$LTSCALE
 40
20.0
  9
$ATTMODE
 70
     1
  9
$TEXTSIZE
 40
100.0
  9
$TRACEWID
 40
1.0
  9
$TEXTSTYLE
  7
STYLE3
  9
$CLAYER
  8
部品1
  9
$CELTYPE
  6
BYLAYER
  9
$CECOLOR
 62
   256
  9
$CELTSCALE
 40
50.0
  9
$DISPSILH
 70
     0
  9
$DIMSCALE
 40
40.0
  9
$DIMASZ
 40
0.5
  9
$DIMEXO
 40
0.5
  9
$DIMDLI
 40
7.0
  9
$DIMRND
 40
0.0
  9
$DIMDLE
 40
0.0
  9
$DIMEXE
 40
1.0
  9
$DIMTP
 40
0.0
  9
$DIMTM
 40
0.0
  9
$DIMTXT
 40
3.0
  9
$DIMCEN
 40
0.0
  9
$DIMTSZ
 40
0.0
  9
$DIMTOL
 70
     0
  9
$DIMLIM
 70
     0
  9
$DIMTIH
 70
     0
  9
$DIMTOH
 70
     0
  9
$DIMSE1
 70
     0
  9
$DIMSE2
 70
     0
  9
$DIMTAD
 70
     3
  9
$DIMZIN
 70
     8
  9
$DIMBLK
  1

  9
$DIMASO
 70
     1
  9
$DIMSHO
 70
     1
  9
$DIMPOST
  1

  9
$DIMAPOST
  1

  9
$DIMALT
 70
     0
  9
$DIMALTD
 70
     2
  9
$DIMALTF
 40
0.0394
  9
$DIMLFAC
 40
1.0
  9
$DIMTOFL
 70
     1
  9
$DIMTVP
 40
0.0
  9
$DIMTIX
 70
     1
  9
$DIMSOXD
 70
     1
  9
$DIMSAH
 70
     1
  9
$DIMBLK1
  1
DOT
  9
$DIMBLK2
  1
DOT
  9
$DIMSTYLE
  2
INABA_S40
  9
$DIMCLRD
 70
     0
  9
$DIMCLRE
 70
     0
  9
$DIMCLRT
 70
     7
  9
$DIMTFAC
 40
1.0
  9
$DIMGAP
 40
0.8
  9
$DIMJUST
 70
     0
  9
$DIMSD1
 70
     0
  9
$DIMSD2
 70
     0
  9
$DIMTOLJ
 70
     1
  9
$DIMTZIN
 70
     0
  9
$DIMALTZ
 70
     0
  9
$DIMALTTZ
 70
     0
  9
$DIMUPT
 70
     0
  9
$DIMDEC
 70
     2
  9
$DIMTDEC
 70
     2
  9
$DIMALTU
 70
     2
  9
$DIMALTTD
 70
     2
  9
$DIMTXSTY
  7
STYLE1
  9
$DIMAUNIT
 70
     0
  9
$DIMADEC
 70
     0
  9
$DIMALTRND
 40
0.0
  9
$DIMAZIN
 70
     0
  9
$DIMDSEP
 70
    46
  9
$DIMATFIT
 70
     3
  9
$DIMFRAC
 70
     0
  9
$DIMLDRBLK
  1

  9
$DIMLUNIT
 70
     2
  9
$DIMLWD
 70
    -2
  9
$DIMLWE
 70
    -2
  9
$DIMTMOVE
 70
     0
  9
$LUNITS
 70
     2
  9
$LUPREC
 70
     1
  9
$SKETCHINC
 40
1.0
  9
$FILLETRAD
 40
5.0
  9
$AUNITS
 70
     0
  9
$AUPREC
 70
     0
  9
$MENU
  1
acad
  9
$ELEVATION
 40
0.0
  9
$PELEVATION
 40
0.0
  9
$THICKNESS
 40
0.0
  9
$LIMCHECK
 70
     0
  9
$CHAMFERA
 40
0.0
  9
$CHAMFERB
 40
0.0
  9
$CHAMFERC
 40
0.0
  9
$CHAMFERD
 40
0.0
  9
$SKPOLY
 70
     0
  9
$TDCREATE
 40
2451590.492424190
  9
$TDUCREATE
 40
2451590.117424190
  9
$TDUPDATE
 40
2456527.781752026
  9
$TDUUPDATE
 40
2456527.406752025
  9
$TDINDWG
 40
0.1035158796
  9
$TDUSRTIMER
 40
0.1035158796
  9
$USRTIMER
 70
     1
  9
$ANGBASE
 50
0.0
  9
$ANGDIR
 70
     0
  9
$PDMODE
 70
     3
  9
$PDSIZE
 40
2.0
  9
$PLINEWID
 40
0.0
  9
$SPLFRAME
 70
     0
  9
$SPLINETYPE
 70
     6
  9
$SPLINESEGS
 70
     8
  9
$HANDSEED
  5
14C3E
  9
$SURFTAB1
 70
     6
  9
$SURFTAB2
 70
     6
  9
$SURFTYPE
 70
     6
  9
$SURFU
 70
     6
  9
$SURFV
 70
     6
  9
$UCSBASE
  2

  9
$UCSNAME
  2

  9
$UCSORG
 10
0.0
 20
0.0
 30
0.0
  9
$UCSXDIR
 10
1.0
 20
0.0
 30
0.0
  9
$UCSYDIR
 10
0.0
 20
1.0
 30
0.0
  9
$UCSORTHOREF
  2

  9
$UCSORTHOVIEW
 70
     0
  9
$UCSORGTOP
 10
0.0
 20
0.0
 30
0.0
  9
$UCSORGBOTTOM
 10
0.0
 20
0.0
 30
0.0
  9
$UCSORGLEFT
 10
0.0
 20
0.0
 30
0.0
  9
$UCSORGRIGHT
 10
0.0
 20
0.0
 30
0.0
  9
$UCSORGFRONT
 10
0.0
 20
0.0
 30
0.0
  9
$UCSORGBACK
 10
0.0
 20
0.0
 30
0.0
  9
$PUCSBASE
  2

  9
$PUCSNAME
  2

  9
$PUCSORG
 10
0.0
 20
0.0
 30
0.0
  9
$PUCSXDIR
 10
1.0
 20
0.0
 30
0.0
  9
$PUCSYDIR
 10
0.0
 20
1.0
 30
0.0
  9
$PUCSORTHOREF
  2

  9
$PUCSORTHOVIEW
 70
     0
  9
$PUCSORGTOP
 10
0.0
 20
0.0
 30
0.0
  9
$PUCSORGBOTTOM
 10
0.0
 20
0.0
 30
0.0
  9
$PUCSORGLEFT
 10
0.0
 20
0.0
 30
0.0
  9
$PUCSORGRIGHT
 10
0.0
 20
0.0
 30
0.0
  9
$PUCSORGFRONT
 10
0.0
 20
0.0
 30
0.0
  9
$PUCSORGBACK
 10
0.0
 20
0.0
 30
0.0
  9
$USERI1
 70
     0
  9
$USERI2
 70
     0
  9
$USERI3
 70
     0
  9
$USERI4
 70
     0
  9
$USERI5
 70
     0
  9
$USERR1
 40
0.0
  9
$USERR2
 40
0.0
  9
$USERR3
 40
0.0
  9
$USERR4
 40
0.0
  9
$USERR5
 40
0.0
  9
$WORLDVIEW
 70
     1
  9
$SHADEDGE
 70
     3
  9
$SHADEDIF
 70
    70
  9
$TILEMODE
 70
     1
  9
$MAXACTVP
 70
    16
  9
$PINSBASE
 10
0.0
 20
0.0
 30
0.0
  9
$PLIMCHECK
 70
     0
  9
$PEXTMIN
 10
1.000000000000000E+20
 20
1.000000000000000E+20
 30
1.000000000000000E+20
  9
$PEXTMAX
 10
-1.000000000000000E+20
 20
-1.000000000000000E+20
 30
-1.000000000000000E+20
  9
$PLIMMIN
 10
0.0
 20
0.0
  9
$PLIMMAX
 10
420.0
 20
297.0
  9
$UNITMODE
 70
     0
  9
$VISRETAIN
 70
     0
  9
$PLINEGEN
 70
     0
  9
$PSLTSCALE
 70
     0
  9
$TREEDEPTH
 70
  3020
  9
$CMLSTYLE
  2
STANDARD
  9
$CMLJUST
 70
     0
  9
$CMLSCALE
 40
1.0
  9
$PROXYGRAPHICS
 70
     1
  9
$MEASUREMENT
 70
     1
  9
$CELWEIGHT
370
    -1
  9
$ENDCAPS
280
     0
  9
$JOINSTYLE
280
     0
  9
$LWDISPLAY
290
     0
  9
$INSUNITS
 70
     0
  9
$HYPERLINKBASE
  1

  9
$STYLESHEET
  1
inaba.ctb
  9
$XEDIT
290
     1
  9
$CEPSNTYPE
380
     0
  9
$PSTYLEMODE
290
     1
  9
$FINGERPRINTGUID
  2
{21513052-7D14-4FF1-8CD8-F8EE16604013}
  9
$VERSIONGUID
  2
{2B2D2814-3725-4D45-9E85-1E158735D7B4}
  9
$EXTNAMES
290
     1
  9
$PSVPSCALE
 40
0.0
  9
$OLESTARTUP
290
     0
  0
ENDSEC
  0
SECTION
  2
CLASSES
  0
CLASS
  1
ACDBDICTIONARYWDFLT
  2
AcDbDictionaryWithDefault
  3
ObjectDBX Classes
 90
        0
280
     0
281
     0
  0
CLASS
  1
DICTIONARYVAR
  2
AcDbDictionaryVar
  3
ObjectDBX Classes
 90
        0
280
     0
281
     0
  0
CLASS
  1
ACDBPLACEHOLDER
  2
AcDbPlaceHolder
  3
ObjectDBX Classes
 90
        0
280
     0
281
     0
  0
CLASS
  1
LAYOUT
  2
AcDbLayout
  3
ObjectDBX Classes
 90
        0
280
     0
281
     0
  0
ENDSEC
  0
SECTION
  2
TABLES
  0
TABLE
  2
VPORT
  5
746D
330
0
100
AcDbSymbolTable
 70
     2
  0
VPORT
  5
14C36
330
746D
100
AcDbSymbolTableRecord
100
AcDbViewportTableRecord
  2
*Active
 70
     0
 10
0.0
 20
0.0
 11
1.0
 21
1.0
 12
8222.65628467959
 22
5685.312855842595
 13
0.0
 23
0.0
 14
10.0
 24
10.0
 15
10.0
 25
10.0
 16
0.0
 26
0.0
 36
1.0
 17
0.0
 27
0.0
 37
0.0
 40
11717.40487298141
 41
1.718579234972677
 42
50.0
 43
0.0
 44
0.0
 50
0.0
 51
0.0
 71
     0
 72
     0
 73
     1
 74
     0
 75
     0
 76
     0
 77
     0
 78
     0
281
     0
 65
     1
110
0.0
120
0.0
130
0.0
111
1.0
121
0.0
131
0.0
112
0.0
122
1.0
132
0.0
 79
     0
146
0.0
  0
ENDTAB
  0
TABLE
  2
LTYPE
  5
746A
330
0
100
AcDbSymbolTable
 70
     4
  0
LTYPE
  5
7477
330
746A
100
AcDbSymbolTableRecord
100
AcDbLinetypeTableRecord
  2
BYBLOCK
 70
     0
  3

 72
    65
 73
     0
 40
0.0
  0
LTYPE
  5
7478
330
746A
100
AcDbSymbolTableRecord
100
AcDbLinetypeTableRecord
  2
BYLAYER
 70
     0
  3

 72
    65
 73
     0
 40
0.0
  0
LTYPE
  5
7479
330
746A
100
AcDbSymbolTableRecord
100
AcDbLinetypeTableRecord
  2
CONTINUOUS
 70
     0
  3
Solid line
 72
    65
 73
     0
 40
0.0
  0
LTYPE
  5
7816
330
746A
100
AcDbSymbolTableRecord
100
AcDbLinetypeTableRecord
  2
CENTER
 70
     0
  3
____ _ ____ _ ____ _ ____ _ ____ _ ____ _ ____ 
 72
    65
 73
     4
 40
2.0
 49
1.25
 74
     0
 49
-0.25
 74
     0
 49
0.25
 74
     0
 49
-0.25
 74
     0
  0
LTYPE
  5
781A
330
746A
100
AcDbSymbolTableRecord
100
AcDbLinetypeTableRecord
  2
HIDDEN
 70
     0
  3
__ __ __ __ __ __ __ __ __ __ __ __ __ __ __ __
 72
    65
 73
     2
 40
0.375
 49
0.25
 74
     0
 49
-0.125
 74
     0
  0
LTYPE
  5
781B
330
746A
100
AcDbSymbolTableRecord
100
AcDbLinetypeTableRecord
  2
PHANTOM
 70
     0
  3
______  __  __  ______  __  __  ______  __  __ 
 72
    65
 73
     6
 40
2.5
 49
1.25
 74
     0
 49
-0.25
 74
     0
 49
0.25
 74
     0
 49
-0.25
 74
     0
 49
0.25
 74
     0
 49
-0.25
 74
     0
  0
ENDTAB
  0
TABLE
  2
LAYER
  5
7467
102
{ACAD_XDICTIONARY
360
12EF1
102
}
330
0
100
AcDbSymbolTable
 70
    13
  0
LAYER
  5
7474
330
7467
100
AcDbSymbolTableRecord
100
AcDbLayerTableRecord
  2
0
 70
     0
 62
     7
  6
CONTINUOUS
370
    -3
390
12D72
  0
LAYER
  5
DEB2
330
7467
100
AcDbSymbolTableRecord
100
AcDbLayerTableRecord
  2
センター
 70
     0
 62
     3
  6
CENTER
370
    -3
390
12D72
  0
LAYER
  5
DEB3
330
7467
100
AcDbSymbolTableRecord
100
AcDbLayerTableRecord
  2
寸法
 70
     0
 62
     4
  6
CONTINUOUS
370
    -3
390
12D72
  0
LAYER
  5
DEB4
330
7467
100
AcDbSymbolTableRecord
100
AcDbLayerTableRecord
  2
部品1
 70
     0
 62
     7
  6
CONTINUOUS
370
    -3
390
12D72
  0
LAYER
  5
DEB5
330
7467
100
AcDbSymbolTableRecord
100
AcDbLayerTableRecord
  2
補助
 70
     0
 62
    -1
  6
CONTINUOUS
370
    -3
390
12D72
  0
LAYER
  5
DEB6
330
7467
100
AcDbSymbolTableRecord
100
AcDbLayerTableRecord
  2
文字
 70
     0
 62
     7
  6
CONTINUOUS
370
    -3
390
12D72
  0
LAYER
  5
F255
330
7467
100
AcDbSymbolTableRecord
100
AcDbLayerTableRecord
  2
DEFPOINTS
 70
     0
 62
     7
  6
CONTINUOUS
290
     0
370
    -3
390
12D72
  0
LAYER
  5
10B54
330
7467
100
AcDbSymbolTableRecord
100
AcDbLayerTableRecord
  2
仕様書枠
 70
     0
 62
   230
  6
CONTINUOUS
370
    -3
390
12D72
  0
LAYER
  5
11729
330
7467
100
AcDbSymbolTableRecord
100
AcDbLayerTableRecord
  2
Ｇ．Ｌ
 70
     0
 62
    30
  6
CONTINUOUS
370
    -3
390
12D72
  0
LAYER
  5
1173F
330
7467
100
AcDbSymbolTableRecord
100
AcDbLayerTableRecord
  2
細線
 70
     0
 62
     5
  6
CONTINUOUS
370
    -3
390
12D72
  0
LAYER
  5
11740
330
7467
100
AcDbSymbolTableRecord
100
AcDbLayerTableRecord
  2
点線
 70
     0
 62
     2
  6
HIDDEN
370
    -3
390
12D72
  0
LAYER
  5
11905
330
7467
100
AcDbSymbolTableRecord
100
AcDbLayerTableRecord
  2
破線
 70
     0
 62
     2
  6
HIDDEN
370
    -3
390
12D72
  0
LAYER
  5
12EF0
330
7467
100
AcDbSymbolTableRecord
100
AcDbLayerTableRecord
  2
Ｇ_Ｌ
 70
     0
 62
    30
  6
CONTINUOUS
370
    -3
390
12D72
  0
ENDTAB
  0
TABLE
  2
STYLE
  5
7468
330
0
100
AcDbSymbolTable
 70
     7
  0
STYLE
  5
7475
330
7468
100
AcDbSymbolTableRecord
100
AcDbTextStyleTableRecord
  2
STANDARD
 70
     0
 40
0.0
 41
1.0
 50
0.0
 71
     0
 42
4.0
  3
txt
  4
C:\AutoCAD LT\bigfont.shx
  0
STYLE
  5
763C
330
7468
100
AcDbSymbolTableRecord
100
AcDbTextStyleTableRecord
  2
MSMINCHO
 70
     0
 40
0.0
 41
1.0
 50
0.0
 71
     0
 42
1.199999999999999
  3
C:\AutoCAD LT\msminch2.TTF
  4

  0
STYLE
  5
F5E9
330
7468
100
AcDbSymbolTableRecord
100
AcDbTextStyleTableRecord
  2

 70
     1
 40
0.0
 41
1.0
 50
0.0
 71
     0
 42
4.0
  3
ltypeshp.shx
  4

  0
STYLE
  5
F706
330
7468
100
AcDbSymbolTableRecord
100
AcDbTextStyleTableRecord
  2
STYLE1
 70
     0
 40
0.0
 41
1.0
 50
0.0
 71
     0
 42
4.0
  3
isocp.shx
  4
bigfont.shx
  0
STYLE
  5
103BF
330
7468
100
AcDbSymbolTableRecord
100
AcDbTextStyleTableRecord
  2
STYLE2
 70
     0
 40
0.0
 41
1.0
 50
0.0
 71
     0
 42
100.0
  3
MS PGothic.ttf
  4

1001
ACAD
1000
MS PGothic
1071
    32818
  0
STYLE
  5
10BAA
330
7468
100
AcDbSymbolTableRecord
100
AcDbTextStyleTableRecord
  2
STYLE3
 70
     0
 40
0.0
 41
1.0
 50
0.0
 71
     0
 42
100.0
  3
DFPGothic-EB.ttf
  4

1001
ACAD
1000
DFPGothic-EB
1071
    32818
  0
STYLE
  5
11906
330
7468
100
AcDbSymbolTableRecord
100
AcDbTextStyleTableRecord
  2
MSGOTHIC
 70
     0
 40
0.0
 41
1.0
 50
0.0
 71
     0
 42
3.5
  3
msgothi2.ttf
  4

  0
ENDTAB
  0
TABLE
  2
VIEW
  5
746B
330
0
100
AcDbSymbolTable
 70
     0
  0
ENDTAB
  0
TABLE
  2
UCS
  5
746C
330
0
100
AcDbSymbolTable
 70
     0
  0
ENDTAB
  0
TABLE
  2
APPID
  5
746E
330
0
100
AcDbSymbolTable
 70
     9
  0
APPID
  5
7476
330
746E
100
AcDbSymbolTableRecord
100
AcDbRegAppTableRecord
  2
ACAD
 70
     0
  0
APPID
  5
DEA9
330
746E
100
AcDbSymbolTableRecord
100
AcDbRegAppTableRecord
  2
CONTENTBLOCKICON
 70
     0
  0
APPID
  5
DEAA
330
746E
100
AcDbSymbolTableRecord
100
AcDbRegAppTableRecord
  2
CONTENTBLOCKDESCRIPTION
 70
     0
  0
APPID
  5
E71D
330
746E
100
AcDbSymbolTableRecord
100
AcDbRegAppTableRecord
  2
CONTENTTABDATA
 70
     0
  0
APPID
  5
E71E
330
746E
100
AcDbSymbolTableRecord
100
AcDbRegAppTableRecord
  2
CONTENTCURRENTTAB
 70
     0
  0
APPID
  5
F3BA
330
746E
100
AcDbSymbolTableRecord
100
AcDbRegAppTableRecord
  2
DRAWINGVARIABLESXDATA
 70
     0
  0
APPID
  5
149F2
330
746E
100
AcDbSymbolTableRecord
100
AcDbRegAppTableRecord
  2
GENIUS_GENODEF_13
 70
     0
  0
APPID
  5
149F3
330
746E
100
AcDbSymbolTableRecord
100
AcDbRegAppTableRecord
  2
GENIUS_GENREC_14
 70
     0
  0
APPID
  5
149F4
330
746E
100
AcDbSymbolTableRecord
100
AcDbRegAppTableRecord
  2
GENIUS_GENOBJ-N-REC_13
 70
     0
  0
ENDTAB
  0
TABLE
  2
DIMSTYLE
  5
746F
330
0
100
AcDbSymbolTable
 70
     6
100
AcDbDimStyleTable
 71
     0
  0
DIMSTYLE
105
7484
330
746F
100
AcDbSymbolTableRecord
100
AcDbDimStyleTableRecord
  2
JIS
 70
     0
 41
2.5
 42
1.0
 43
7.0
 44
1.0
 73
     0
 74
     0
 77
     1
 78
     8
140
2.5
141
0.0
143
0.0394
147
0.0
172
     1
174
     1
175
     1
340
7475
  0
DIMSTYLE
105
F236
102
{ACAD_REACTORS
330
1324A
330
1324B
330
1324C
330
1324D
330
1324E
330
1326F
330
13270
330
13284
330
132B7
330
132C2
330
14393
330
14394
102
}
330
746F
100
AcDbSymbolTableRecord
100
AcDbDimStyleTableRecord
  2
INABA_S40
 70
     0
 40
40.0
 41
2.5
 42
0.5
 43
7.0
 44
1.5
 73
     0
 74
     0
 77
     3
 78
     8
140
3.0
141
0.0
143
0.0394
147
1.0
172
     1
173
     1
174
     1
175
     1
178
     7
289
     0
340
7475
  0
DIMSTYLE
105
F71F
102
{ACAD_REACTORS
330
13398
330
13399
330
1339A
330
133A9
330
139CA
330
139D9
330
139E9
330
139EA
330
139EB
330
139EF
330
13A1F
330
13A20
330
13A21
330
14AC8
330
14AC9
330
14ACE
102
}
330
746F
100
AcDbSymbolTableRecord
100
AcDbDimStyleTableRecord
  2
INABA_S40G
 70
     0
 40
40.0
 41
2.5
 42
0.5
 43
7.0
 44
1.5
 73
     0
 74
     0
 77
     3
 78
     8
140
3.0
141
0.0
143
0.0394
147
1.0
172
     1
173
     1
174
     1
175
     1
178
     7
271
     1
340
F706
341
F770
343
F770
344
F770
  0
DIMSTYLE
105
11907
330
746F
100
AcDbSymbolTableRecord
100
AcDbDimStyleTableRecord
  2
INABA_S50
 70
     0
 40
50.0
 41
0.5
 42
0.5
 43
7.0
 44
1.0
 73
     0
 74
     0
 77
     3
 78
     8
140
2.5
141
0.0
143
0.0394
147
0.8
172
     1
173
     1
174
     1
175
     1
178
     7
271
     2
272
     2
289
     0
340
7475
341
F744
343
F744
344
F744
  0
DIMSTYLE
105
11908
330
746F
100
AcDbSymbolTableRecord
100
AcDbDimStyleTableRecord
  2
INABA_S50G
 70
     0
 41
125.0
 42
25.0
 43
7.0
 44
75.0
 73
     0
 74
     0
 77
     3
 78
     8
140
150.0
141
0.0
143
0.0394
147
25.0
172
     1
173
     1
174
     1
175
     1
178
     7
271
     1
340
F706
341
F770
343
F770
344
F770
  0
DIMSTYLE
105
14676
330
746F
100
AcDbSymbolTableRecord
100
AcDbDimStyleTableRecord
  2
INABA_S20G
 70
     0
 40
20.0
 41
2.5
 42
0.5
 43
7.0
 44
1.5
 73
     0
 74
     0
 77
     3
 78
     8
140
3.0
141
0.0
143
0.0394
147
1.0
172
     1
173
     1
174
     1
178
     7
271
     1
340
F706
341
F770
343
F770
344
F770
  0
ENDTAB
  0
TABLE
  2
BLOCK_RECORD
  5
7466
330
0
100
AcDbSymbolTable
 70
    31
  0
BLOCK_RECORD
  5
747D
330
7466
100
AcDbSymbolTableRecord
100
AcDbBlockTableRecord
  2
*MODEL_SPACE
340
12D77
  0
BLOCK_RECORD
  5
747A
330
7466
100
AcDbSymbolTableRecord
100
AcDbBlockTableRecord
  2
*PAPER_SPACE
340
12D78
  0
BLOCK_RECORD
  5
ECB3
330
7466
100
AcDbSymbolTableRecord
100
AcDbBlockTableRecord
  2
作図枠S50
340
0
310
2800000020000000200000000100040000000000000200000000000000000000000000000000000000000000000080000080000000808000800000008000800080800000C0C0C000808080000000FF0000FF000000FFFF00FF000000FF00FF00FFFF0000FFFFFF00FFFFFFFFFFFFFFFFFFFFFFFFFFFFFFFFFFFFFFFFFFFFFF
310
FFFFFFFFFFFFFFFFFFFFFFFFFFFFFFFFFFFFFFFFFFFFFFFFFFFFFFFFFFFFFFFFFFFFFFFFFFFFFFFFFFFFFFFFFFFFFFFFFFFFFFFFFFFFFFFFFFFFFFFFFFFFFFFFFFFFFFFFFFFFFFFFFF999999999999999999999999999999999FFFFFFFFFFFFFFFFFFFFFFFFFFFFFF99FFFFFFFFFFFFFFFFFFFFFFFFFFFFFF99FFFFFFFFFFF
310
FFFFFFFFFFFFFFFFFFF99FFFFFFFFFFFFFFFFFFFFFFFFFFFFFF99FFFFFFFFFFFFFFFFFFFFFFFFFFFFFF99FFFFFFFFFFFFFFFFFFFFFFFFFFFFFF99FFFFFFFFFFFFFFFFFFFFFFFFFFFFFF99FFFFFFFFFFFFFFFFFFFFFFFFFFFFFF99FFFFFFFFFFFFFFFFFFFFFFFFFFFFFF99FFFFFFFFFFFFFFFFFFFFFFFFFFFFFF99FFFFFFFFF
310
FFFFFFFFFFFFFFFFFFFFF99FFFFFFFFFFFFFFFFFFFFFFFFFFFFFF99FFFFFFFFFFFFFFFFFFFFFFFFFFFFFF99FFFFFFFFFFFFFFFFFFFFFFFFFFFFFF99FFFFFFFFFFFFFFFFFFFFFFFFFFFFFF99FFFFFFFFFFFFFFFFFFFFFFFFFFFFFF99FFFFFFFFFFFFFFFFFFFFFFFFFFFFFF99FFFFFFFFFFFFFFFFFFFFF99999999999FFFFFFF
310
FFFFFFFFFFFFFF9FFFFFFFFF99999999999999999999999FFFFFFFFFFFFFFFFFFFFFFFFFFFFFFFFFFFFFFFFFFFFFFFFFFFFFFFFFFFFFFFFFFFFFFFFFFFFFFFFFFFFFFFFFFFFFFFFFFFFFFFFFFFFFFFFFFFFFFFFFFFFFFFFFFFFFFFFFFFFFFFFFFFFFFFFFFFFFFFFFFFFFFFFF
102
{BLKREFS
331
F235
102
}
  0
BLOCK_RECORD
  5
F744
330
7466
100
AcDbSymbolTableRecord
100
AcDbBlockTableRecord
  2
_DOT
340
0
102
{BLKREFS
331
13F1A
331
13F1B
331
13F23
331
13F24
331
13F2E
331
13F2F
331
13F37
331
13F38
331
13F56
331
13F57
331
13F5F
331
13F60
331
13F6A
331
13F6B
331
13F73
331
13F74
331
13F7C
331
13F7D
331
13F87
331
13F88
331
14C19
331
14C1A
331
14C22
331
14C23
102
}
  0
BLOCK_RECORD
  5
F770
330
7466
100
AcDbSymbolTableRecord
100
AcDbBlockTableRecord
  2
_DOTSMALL
340
0
102
{BLKREFS
331
13E44
331
13E45
331
13E4D
331
13E4E
331
13E56
331
13E57
331
13E6A
331
13E6B
331
13E75
331
13E76
331
13E7E
331
13E7F
331
13E88
331
13E89
331
13E92
331
13E93
331
13E9D
331
13E9E
331
13EA8
331
13EA9
331
13EB1
331
13EB2
331
13EBA
331
13EBB
331
14B44
331
14B45
331
14B4F
331
14B50
331
14B5C
331
14B5D
331
14B67
331
14B68
102
}
  0
BLOCK_RECORD
  5
1355D
330
7466
100
AcDbSymbolTableRecord
100
AcDbBlockTableRecord
  2
*D3
340
0
  0
BLOCK_RECORD
  5
1356B
330
7466
100
AcDbSymbolTableRecord
100
AcDbBlockTableRecord
  2
*D4
340
0
  0
BLOCK_RECORD
  5
13577
330
7466
100
AcDbSymbolTableRecord
100
AcDbBlockTableRecord
  2
*D5
340
0
  0
BLOCK_RECORD
  5
13585
330
7466
100
AcDbSymbolTableRecord
100
AcDbBlockTableRecord
  2
*D6
340
0
  0
BLOCK_RECORD
  5
13591
330
7466
100
AcDbSymbolTableRecord
100
AcDbBlockTableRecord
  2
*D7
340
0
  0
BLOCK_RECORD
  5
1359F
330
7466
100
AcDbSymbolTableRecord
100
AcDbBlockTableRecord
  2
*D8
340
0
  0
BLOCK_RECORD
  5
135AB
330
7466
100
AcDbSymbolTableRecord
100
AcDbBlockTableRecord
  2
*D9
340
0
  0
BLOCK_RECORD
  5
135C3
330
7466
100
AcDbSymbolTableRecord
100
AcDbBlockTableRecord
  2
*D10
340
0
  0
BLOCK_RECORD
  5
135DD
330
7466
100
AcDbSymbolTableRecord
100
AcDbBlockTableRecord
  2
*D11
340
0
  0
BLOCK_RECORD
  5
135E9
330
7466
100
AcDbSymbolTableRecord
100
AcDbBlockTableRecord
  2
*D12
340
0
  0
BLOCK_RECORD
  5
1360F
330
7466
100
AcDbSymbolTableRecord
100
AcDbBlockTableRecord
  2
*D13
340
0
  0
BLOCK_RECORD
  5
1361B
330
7466
100
AcDbSymbolTableRecord
100
AcDbBlockTableRecord
  2
*D14
340
0
  0
BLOCK_RECORD
  5
13627
330
7466
100
AcDbSymbolTableRecord
100
AcDbBlockTableRecord
  2
*D15
340
0
  0
BLOCK_RECORD
  5
13635
330
7466
100
AcDbSymbolTableRecord
100
AcDbBlockTableRecord
  2
*D16
340
0
  0
BLOCK_RECORD
  5
13B23
330
7466
100
AcDbSymbolTableRecord
100
AcDbBlockTableRecord
  2
*D17
340
0
  0
BLOCK_RECORD
  5
13B30
330
7466
100
AcDbSymbolTableRecord
100
AcDbBlockTableRecord
  2
*D18
340
0
  0
BLOCK_RECORD
  5
13B3D
330
7466
100
AcDbSymbolTableRecord
100
AcDbBlockTableRecord
  2
*D19
340
0
  0
BLOCK_RECORD
  5
13B49
330
7466
100
AcDbSymbolTableRecord
100
AcDbBlockTableRecord
  2
*D20
340
0
  0
BLOCK_RECORD
  5
13B57
330
7466
100
AcDbSymbolTableRecord
100
AcDbBlockTableRecord
  2
*D21
340
0
  0
BLOCK_RECORD
  5
13B63
330
7466
100
AcDbSymbolTableRecord
100
AcDbBlockTableRecord
  2
*D22
340
0
  0
BLOCK_RECORD
  5
13B71
330
7466
100
AcDbSymbolTableRecord
100
AcDbBlockTableRecord
  2
*D23
340
0
  0
BLOCK_RECORD
  5
13B7D
330
7466
100
AcDbSymbolTableRecord
100
AcDbBlockTableRecord
  2
*D24
340
0
  0
BLOCK_RECORD
  5
13B89
330
7466
100
AcDbSymbolTableRecord
100
AcDbBlockTableRecord
  2
*D25
340
0
  0
BLOCK_RECORD
  5
144CA
330
7466
100
AcDbSymbolTableRecord
100
AcDbBlockTableRecord
  2
*D26
340
0
  0
BLOCK_RECORD
  5
144D6
330
7466
100
AcDbSymbolTableRecord
100
AcDbBlockTableRecord
  2
*D27
340
0
  0
BLOCK_RECORD
  5
14AFB
330
7466
100
AcDbSymbolTableRecord
100
AcDbBlockTableRecord
  2
*D28
340
0
  0
BLOCK_RECORD
  5
14B09
330
7466
100
AcDbSymbolTableRecord
100
AcDbBlockTableRecord
  2
*D29
340
0
  0
BLOCK_RECORD
  5
14B15
330
7466
100
AcDbSymbolTableRecord
100
AcDbBlockTableRecord
  2
*D30
340
0
  0
ENDTAB
  0
ENDSEC
  0
SECTION
  2
BLOCKS
  0
BLOCK
  5
7489
330
747D
100
AcDbEntity
  8
0
100
AcDbBlockBegin
  2
*MODEL_SPACE
 70
     0
 10
0.0
 20
0.0
 30
0.0
  3
*MODEL_SPACE
  1

  0
ENDBLK
  5
748A
330
747D
100
AcDbEntity
  8
0
100
AcDbBlockEnd
  0
BLOCK
  5
7487
330
747A
100
AcDbEntity
 67
     1
  8
0
100
AcDbBlockBegin
  2
*PAPER_SPACE
 70
     0
 10
0.0
 20
0.0
 30
0.0
  3
*PAPER_SPACE
  1

  0
ENDBLK
  5
7488
330
747A
100
AcDbEntity
 67
     1
  8
0
100
AcDbBlockEnd
  0
BLOCK
  5
ECB4
330
ECB3
100
AcDbEntity
  8
0
100
AcDbBlockBegin
  2
作図枠S50
 70
     0
 10
0.0
 20
0.0
 30
0.0
  3
作図枠S50
  1

  4
作図領域枠 縮尺 1/50
  0
LINE
  5
ECB5
330
ECB3
100
AcDbEntity
  8
補助
100
AcDbLine
 10
14364.0
 20
14262.0
 30
0.0
 11
174.9999999999993
 21
14262.0
 31
0.0
  0
LINE
  5
ECB6
330
ECB3
100
AcDbEntity
  8
補助
100
AcDbLine
 10
174.9999999999993
 20
14262.0
 30
0.0
 11
174.9999999999993
 21
1520.0
 31
0.0
  0
LINE
  5
ECB7
330
ECB3
100
AcDbEntity
  8
補助
100
AcDbLine
 10
174.9999999999993
 20
1520.0
 30
0.0
 11
20384.0
 21
1520.0
 31
0.0
  0
LINE
  5
ECB8
330
ECB3
100
AcDbEntity
  8
補助
100
AcDbLine
 10
20384.0
 20
1520.0
 30
0.0
 11
20384.0
 21
13042.0
 31
0.0
  0
LINE
  5
ECB9
330
ECB3
100
AcDbEntity
  8
補助
100
AcDbLine
 10
20384.0
 20
13042.0
 30
0.0
 11
14364.0
 21
13042.0
 31
0.0
  0
LINE
  5
ECBA
330
ECB3
100
AcDbEntity
  8
補助
100
AcDbLine
 10
14364.0
 20
13042.0
 30
0.0
 11
14364.0
 21
14262.0
 31
0.0
  0
ENDBLK
  5
ECBB
330
ECB3
100
AcDbEntity
  8
0
100
AcDbBlockEnd
  0
BLOCK
  5
F745
330
F744
100
AcDbEntity
  8
0
 48
50.0
100
AcDbBlockBegin
  2
_DOT
 70
     0
 10
0.0
 20
0.0
 30
0.0
  3
_DOT
  1

  0
LWPOLYLINE
  5
F746
330
F744
100
AcDbEntity
  8
0
  6
ByBlock
 62
     0
 48
50.0
100
AcDbPolyline
 90
        2
 70
     1
 43
0.5
 10
-0.25
 20
0.0
 42
1.0
 10
0.25
 20
0.0
 42
1.0
  0
LINE
  5
F74A
330
F744
100
AcDbEntity
  8
0
  6
ByBlock
 62
     0
 48
50.0
100
AcDbLine
 10
-0.5
 20
0.0
 30
0.0
 11
-1.0
 21
0.0
 31
0.0
  0
ENDBLK
  5
F74B
330
F744
100
AcDbEntity
  8
0
 48
50.0
100
AcDbBlockEnd
  0
BLOCK
  5
F771
330
F770
100
AcDbEntity
  8
0
 48
50.0
100
AcDbBlockBegin
  2
_DOTSMALL
 70
     0
 10
0.0
 20
0.0
 30
0.0
  3
_DOTSMALL
  1

  0
LWPOLYLINE
  5
F772
330
F770
100
AcDbEntity
  8
0
  6
ByBlock
 62
     0
 48
50.0
100
AcDbPolyline
 90
        2
 70
     1
 43
0.5
 10
-0.0625
 20
0.0
 42
1.0
 10
0.0625
 20
0.0
 42
1.0
  0
ENDBLK
  5
F776
330
F770
100
AcDbEntity
  8
0
 48
50.0
100
AcDbBlockEnd
  0
BLOCK
  5
13569
330
1355D
100
AcDbEntity
  8
0
 48
50.0
100
AcDbBlockBegin
  2
*D3
 70
     1
 10
0.0
 20
0.0
 30
0.0
  3
*D3
  1

  0
LINE
  5
13F82
330
1355D
100
AcDbEntity
  8
寸法
 62
     0
 48
50.0
370
    -2
100
AcDbLine
 10
8186.350663344681
 20
9790.729096344959
 30
0.0
 11
8186.350663344681
 21
10185.44150636375
 31
0.0
  0
LINE
  5
13F83
330
1355D
100
AcDbEntity
  8
寸法
 62
     0
 48
50.0
370
    -2
100
AcDbLine
 10
8241.350663344681
 20
9790.729096344955
 30
0.0
 11
8241.350663344681
 21
10185.44150636375
 31
0.0
  0
LINE
  5
13F84
330
1355D
100
AcDbEntity
  8
寸法
 62
     0
 48
50.0
370
    -2
100
AcDbLine
 10
8166.350663344681
 20
10145.44150636375
 30
0.0
 11
8146.350663344682
 21
10145.44150636375
 31
0.0
  0
LINE
  5
13F85
330
1355D
100
AcDbEntity
  8
寸法
 62
     0
 48
50.0
370
    -2
100
AcDbLine
 10
8261.350663344682
 20
10145.44150636375
 30
0.0
 11
8736.002611385588
 21
10145.44150636375
 31
0.0
  0
LINE
  5
13F86
330
1355D
100
AcDbEntity
  8
寸法
 62
     0
 48
50.0
370
    -2
100
AcDbLine
 10
8186.350663344681
 20
10145.44150636375
 30
0.0
 11
8241.350663344681
 21
10145.44150636375
 31
0.0
  0
INSERT
  5
13F87
330
1355D
100
AcDbEntity
  8
寸法
 62
     0
 48
50.0
370
    -2
100
AcDbBlockReference
  2
_DOT
 10
8186.350663344681
 20
10145.44150636375
 30
0.0
 41
20.0
 42
20.0
 43
20.0
  0
INSERT
  5
13F88
330
1355D
100
AcDbEntity
  8
寸法
 62
     0
 48
50.0
370
    -2
100
AcDbBlockReference
  2
_DOT
 10
8241.350663344681
 20
10145.44150636375
 30
0.0
 41
20.0
 42
20.0
 43
20.0
 50
180.0
  0
MTEXT
  5
13F89
330
1355D
100
AcDbEntity
  8
寸法
 62
     7
 48
50.0
100
AcDbMText
 10
8635.517330011349
 20
10237.44150636375
 30
0.0
 40
120.0
 41
0.0
 71
     5
 72
     1
  1
\A1;55
  7
STYLE1
 73
     1
 44
1.0
1001
ACAD
1000
MTEXTBEGIN
1070
    73
1070
     1
1070
    44
1040
1.0
1070
    74
1070
     0
1000
MTEXTEND
  0
POINT
  5
13F8A
330
1355D
100
AcDbEntity
  8
DEFPOINTS
 62
     0
 48
50.0
100
AcDbPoint
 10
8186.350663344681
 20
9770.729096344958
 30
0.0
  0
POINT
  5
13F8B
330
1355D
100
AcDbEntity
  8
DEFPOINTS
 62
     0
 48
50.0
100
AcDbPoint
 10
8241.350663344681
 20
9770.729096344958
 30
0.0
  0
POINT
  5
13F8C
330
1355D
100
AcDbEntity
  8
DEFPOINTS
 62
     0
 48
50.0
100
AcDbPoint
 10
8241.350663344681
 20
10145.44150636375
 30
0.0
  0
ENDBLK
  5
1356A
330
1355D
100
AcDbEntity
  8
0
 48
50.0
100
AcDbBlockEnd
  0
BLOCK
  5
13575
330
1356B
100
AcDbEntity
  8
0
 48
50.0
100
AcDbBlockBegin
  2
*D4
 70
     1
 10
0.0
 20
0.0
 30
0.0
  3
*D4
  1

  0
LINE
  5
13F34
330
1356B
100
AcDbEntity
  8
寸法
 62
     0
 48
50.0
370
    -2
100
AcDbLine
 10
8261.350663344682
 20
9770.729096344958
 30
0.0
 11
9352.097780389035
 21
9770.729096344958
 31
0.0
  0
LINE
  5
13F35
330
1356B
100
AcDbEntity
  8
寸法
 62
     0
 48
50.0
370
    -2
100
AcDbLine
 10
8261.350663344682
 20
7140.729096344955
 30
0.0
 11
9352.097780389035
 21
7140.729096344955
 31
0.0
  0
LINE
  5
13F36
330
1356B
100
AcDbEntity
  8
寸法
 62
     0
 48
50.0
370
    -2
100
AcDbLine
 10
9312.097780389034
 20
9750.729096344956
 30
0.0
 11
9312.097780389034
 21
7160.729096344955
 31
0.0
  0
INSERT
  5
13F37
330
1356B
100
AcDbEntity
  8
寸法
 62
     0
 48
50.0
370
    -2
100
AcDbBlockReference
  2
_DOT
 10
9312.097780389034
 20
9770.729096344958
 30
0.0
 41
20.0
 42
20.0
 43
20.0
 50
90.0
  0
INSERT
  5
13F38
330
1356B
100
AcDbEntity
  8
寸法
 62
     0
 48
50.0
370
    -2
100
AcDbBlockReference
  2
_DOT
 10
9312.097780389034
 20
7140.729096344955
 30
0.0
 41
20.0
 42
20.0
 43
20.0
 50
270.0
  0
MTEXT
  5
13F39
330
1356B
100
AcDbEntity
  8
寸法
 62
     7
 48
50.0
100
AcDbMText
 10
9220.085969365412
 20
8455.729096344958
 30
0.0
 40
120.0
 41
0.0
 71
     5
 72
     1
  1
\A1;2630
  7
STYLE1
 11
0.0000000000000001
 21
1.0
 31
0.0
 73
     1
 44
1.0
1001
ACAD
1000
MTEXTBEGIN
1070
    73
1070
     1
1070
    44
1040
1.0
1070
    74
1070
     0
1000
MTEXTEND
  0
POINT
  5
13F3A
330
1356B
100
AcDbEntity
  8
DEFPOINTS
 62
     0
 48
50.0
100
AcDbPoint
 10
8241.350663344681
 20
9770.729096344958
 30
0.0
  0
POINT
  5
13F3B
330
1356B
100
AcDbEntity
  8
DEFPOINTS
 62
     0
 48
50.0
100
AcDbPoint
 10
8241.350663344681
 20
7140.729096344955
 30
0.0
  0
POINT
  5
13F3C
330
1356B
100
AcDbEntity
  8
DEFPOINTS
 62
     0
 48
50.0
100
AcDbPoint
 10
9312.097780389034
 20
7140.729096344955
 30
0.0
  0
ENDBLK
  5
13576
330
1356B
100
AcDbEntity
  8
0
 48
50.0
100
AcDbBlockEnd
  0
BLOCK
  5
13583
330
13577
100
AcDbEntity
  8
0
 48
50.0
100
AcDbBlockBegin
  2
*D5
 70
     1
 10
0.0
 20
0.0
 30
0.0
  3
*D5
  1

  0
LINE
  5
13F29
330
13577
100
AcDbEntity
  8
寸法
 62
     0
 48
50.0
370
    -2
100
AcDbLine
 10
8261.350663344682
 20
7195.729096344952
 30
0.0
 11
9052.097780389036
 21
7195.729096344952
 31
0.0
  0
LINE
  5
13F2A
330
13577
100
AcDbEntity
  8
寸法
 62
     0
 48
50.0
370
    -2
100
AcDbLine
 10
8261.350663344682
 20
7140.729096344955
 30
0.0
 11
9052.097780389036
 21
7140.729096344955
 31
0.0
  0
LINE
  5
13F2B
330
13577
100
AcDbEntity
  8
寸法
 62
     0
 48
50.0
370
    -2
100
AcDbLine
 10
9012.097780389037
 20
7215.729096344952
 30
0.0
 11
9012.097780389037
 21
7235.729096344953
 31
0.0
  0
LINE
  5
13F2C
330
13577
100
AcDbEntity
  8
寸法
 62
     0
 48
50.0
370
    -2
100
AcDbLine
 10
9012.097780389037
 20
7120.729096344955
 30
0.0
 11
9012.097780389037
 21
6646.07714830405
 31
0.0
  0
LINE
  5
13F2D
330
13577
100
AcDbEntity
  8
寸法
 62
     0
 48
50.0
370
    -2
100
AcDbLine
 10
9012.097780389037
 20
7195.729096344952
 30
0.0
 11
9012.097780389037
 21
7140.729096344955
 31
0.0
  0
INSERT
  5
13F2E
330
13577
100
AcDbEntity
  8
寸法
 62
     0
 48
50.0
370
    -2
100
AcDbBlockReference
  2
_DOT
 10
9012.097780389037
 20
7195.729096344952
 30
0.0
 41
20.0
 42
20.0
 43
20.0
 50
270.0
  0
INSERT
  5
13F2F
330
13577
100
AcDbEntity
  8
寸法
 62
     0
 48
50.0
370
    -2
100
AcDbBlockReference
  2
_DOT
 10
9012.097780389037
 20
7140.729096344955
 30
0.0
 41
20.0
 42
20.0
 43
20.0
 50
90.0
  0
MTEXT
  5
13F30
330
13577
100
AcDbEntity
  8
寸法
 62
     7
 48
50.0
100
AcDbMText
 10
8920.097780389035
 20
6746.562429678291
 30
0.0
 40
120.0
 41
0.0
 71
     5
 72
     1
  1
\A1;55
  7
STYLE1
 11
0.0000000000000001
 21
1.0
 31
0.0
 73
     1
 44
1.0
1001
ACAD
1000
MTEXTBEGIN
1070
    73
1070
     1
1070
    44
1040
1.0
1070
    74
1070
     0
1000
MTEXTEND
  0
POINT
  5
13F31
330
13577
100
AcDbEntity
  8
DEFPOINTS
 62
     0
 48
50.0
100
AcDbPoint
 10
8241.350663344681
 20
7195.729096344952
 30
0.0
  0
POINT
  5
13F32
330
13577
100
AcDbEntity
  8
DEFPOINTS
 62
     0
 48
50.0
100
AcDbPoint
 10
8241.350663344681
 20
7140.729096344955
 30
0.0
  0
POINT
  5
13F33
330
13577
100
AcDbEntity
  8
DEFPOINTS
 62
     0
 48
50.0
100
AcDbPoint
 10
9012.097780389037
 20
7140.729096344955
 30
0.0
  0
ENDBLK
  5
13584
330
13577
100
AcDbEntity
  8
0
 48
50.0
100
AcDbBlockEnd
  0
BLOCK
  5
1358F
330
13585
100
AcDbEntity
  8
0
 48
50.0
100
AcDbBlockBegin
  2
*D6
 70
     1
 10
0.0
 20
0.0
 30
0.0
  3
*D6
  1

  0
LINE
  5
13F20
330
13585
100
AcDbEntity
  8
寸法
 62
     0
 48
50.0
370
    -2
100
AcDbLine
 10
8261.350663344682
 20
9715.72909634496
 30
0.0
 11
9052.097780389035
 21
9715.72909634496
 31
0.0
  0
LINE
  5
13F21
330
13585
100
AcDbEntity
  8
寸法
 62
     0
 48
50.0
370
    -2
100
AcDbLine
 10
8261.350663344682
 20
7195.729096344952
 30
0.0
 11
9052.097780389035
 21
7195.729096344952
 31
0.0
  0
LINE
  5
13F22
330
13585
100
AcDbEntity
  8
寸法
 62
     0
 48
50.0
370
    -2
100
AcDbLine
 10
9012.097780389034
 20
9695.72909634496
 30
0.0
 11
9012.097780389034
 21
7215.729096344952
 31
0.0
  0
INSERT
  5
13F23
330
13585
100
AcDbEntity
  8
寸法
 62
     0
 48
50.0
370
    -2
100
AcDbBlockReference
  2
_DOT
 10
9012.097780389034
 20
9715.72909634496
 30
0.0
 41
20.0
 42
20.0
 43
20.0
 50
90.0
  0
INSERT
  5
13F24
330
13585
100
AcDbEntity
  8
寸法
 62
     0
 48
50.0
370
    -2
100
AcDbBlockReference
  2
_DOT
 10
9012.097780389034
 20
7195.729096344952
 30
0.0
 41
20.0
 42
20.0
 43
20.0
 50
270.0
  0
MTEXT
  5
13F25
330
13585
100
AcDbEntity
  8
寸法
 62
     7
 48
50.0
100
AcDbMText
 10
8920.085969365411
 20
8455.729096344958
 30
0.0
 40
120.0
 41
0.0
 71
     5
 72
     1
  1
\A1;6X420=2520
  7
STYLE1
 11
0.0000000000000001
 21
1.0
 31
0.0
 73
     1
 44
1.0
1001
ACAD
1000
MTEXTBEGIN
1070
    73
1070
     1
1070
    44
1040
1.0
1070
    74
1070
     0
1000
MTEXTEND
  0
POINT
  5
13F26
330
13585
100
AcDbEntity
  8
DEFPOINTS
 62
     0
 48
50.0
100
AcDbPoint
 10
8241.350663344681
 20
9715.72909634496
 30
0.0
  0
POINT
  5
13F27
330
13585
100
AcDbEntity
  8
DEFPOINTS
 62
     0
 48
50.0
100
AcDbPoint
 10
8241.350663344681
 20
7195.729096344952
 30
0.0
  0
POINT
  5
13F28
330
13585
100
AcDbEntity
  8
DEFPOINTS
 62
     0
 48
50.0
100
AcDbPoint
 10
9012.097780389034
 20
7195.729096344952
 30
0.0
  0
ENDBLK
  5
13590
330
13585
100
AcDbEntity
  8
0
 48
50.0
100
AcDbBlockEnd
  0
BLOCK
  5
1359D
330
13591
100
AcDbEntity
  8
0
 48
50.0
100
AcDbBlockBegin
  2
*D7
 70
     1
 10
0.0
 20
0.0
 30
0.0
  3
*D7
  1

  0
LINE
  5
13F15
330
13591
100
AcDbEntity
  8
寸法
 62
     0
 48
50.0
370
    -2
100
AcDbLine
 10
8261.350663344682
 20
9770.729096344958
 30
0.0
 11
9052.097780389036
 21
9770.729096344958
 31
0.0
  0
LINE
  5
13F16
330
13591
100
AcDbEntity
  8
寸法
 62
     0
 48
50.0
370
    -2
100
AcDbLine
 10
8261.350663344682
 20
9715.72909634496
 30
0.0
 11
9052.097780389036
 21
9715.72909634496
 31
0.0
  0
LINE
  5
13F17
330
13591
100
AcDbEntity
  8
寸法
 62
     0
 48
50.0
370
    -2
100
AcDbLine
 10
9012.097780389037
 20
9695.72909634496
 30
0.0
 11
9012.097780389037
 21
9675.729096344959
 31
0.0
  0
LINE
  5
13F18
330
13591
100
AcDbEntity
  8
寸法
 62
     0
 48
50.0
370
    -2
100
AcDbLine
 10
9012.097780389037
 20
9790.729096344955
 30
0.0
 11
9012.097780389037
 21
10265.38104438586
 31
0.0
  0
LINE
  5
13F19
330
13591
100
AcDbEntity
  8
寸法
 62
     0
 48
50.0
370
    -2
100
AcDbLine
 10
9012.097780389037
 20
9715.72909634496
 30
0.0
 11
9012.097780389037
 21
9770.729096344958
 31
0.0
  0
INSERT
  5
13F1A
330
13591
100
AcDbEntity
  8
寸法
 62
     0
 48
50.0
370
    -2
100
AcDbBlockReference
  2
_DOT
 10
9012.097780389037
 20
9715.72909634496
 30
0.0
 41
20.0
 42
20.0
 43
20.0
 50
90.0
  0
INSERT
  5
13F1B
330
13591
100
AcDbEntity
  8
寸法
 62
     0
 48
50.0
370
    -2
100
AcDbBlockReference
  2
_DOT
 10
9012.097780389037
 20
9770.729096344958
 30
0.0
 41
20.0
 42
20.0
 43
20.0
 50
270.0
  0
MTEXT
  5
13F1C
330
13591
100
AcDbEntity
  8
寸法
 62
     7
 48
50.0
100
AcDbMText
 10
8920.097780389035
 20
10164.89576301162
 30
0.0
 40
120.0
 41
0.0
 71
     5
 72
     1
  1
\A1;55
  7
STYLE1
 11
0.0000000000000001
 21
1.0
 31
0.0
 73
     1
 44
1.0
1001
ACAD
1000
MTEXTBEGIN
1070
    73
1070
     1
1070
    44
1040
1.0
1070
    74
1070
     0
1000
MTEXTEND
  0
POINT
  5
13F1D
330
13591
100
AcDbEntity
  8
DEFPOINTS
 62
     0
 48
50.0
100
AcDbPoint
 10
8241.350663344681
 20
9770.729096344958
 30
0.0
  0
POINT
  5
13F1E
330
13591
100
AcDbEntity
  8
DEFPOINTS
 62
     0
 48
50.0
100
AcDbPoint
 10
8241.350663344681
 20
9715.72909634496
 30
0.0
  0
POINT
  5
13F1F
330
13591
100
AcDbEntity
  8
DEFPOINTS
 62
     0
 48
50.0
100
AcDbPoint
 10
9012.097780389037
 20
9715.72909634496
 30
0.0
  0
ENDBLK
  5
1359E
330
13591
100
AcDbEntity
  8
0
 48
50.0
100
AcDbBlockEnd
  0
BLOCK
  5
135A9
330
1359F
100
AcDbEntity
  8
0
 48
50.0
100
AcDbBlockBegin
  2
*D8
 70
     1
 10
0.0
 20
0.0
 30
0.0
  3
*D8
  1

  0
LINE
  5
13F79
330
1359F
100
AcDbEntity
  8
寸法
 62
     0
 48
50.0
370
    -2
100
AcDbLine
 10
2981.350663344681
 20
9790.729096344955
 30
0.0
 11
2981.350663344681
 21
10485.44150636375
 31
0.0
  0
LINE
  5
13F7A
330
1359F
100
AcDbEntity
  8
寸法
 62
     0
 48
50.0
370
    -2
100
AcDbLine
 10
8241.350663344681
 20
9790.729096344955
 30
0.0
 11
8241.350663344681
 21
10485.44150636375
 31
0.0
  0
LINE
  5
13F7B
330
1359F
100
AcDbEntity
  8
寸法
 62
     0
 48
50.0
370
    -2
100
AcDbLine
 10
3001.350663344681
 20
10445.44150636375
 30
0.0
 11
8221.350663344681
 21
10445.44150636375
 31
0.0
  0
INSERT
  5
13F7C
330
1359F
100
AcDbEntity
  8
寸法
 62
     0
 48
50.0
370
    -2
100
AcDbBlockReference
  2
_DOT
 10
2981.350663344681
 20
10445.44150636375
 30
0.0
 41
20.0
 42
20.0
 43
20.0
 50
180.0
  0
INSERT
  5
13F7D
330
1359F
100
AcDbEntity
  8
寸法
 62
     0
 48
50.0
370
    -2
100
AcDbBlockReference
  2
_DOT
 10
8241.350663344681
 20
10445.44150636375
 30
0.0
 41
20.0
 42
20.0
 43
20.0
  0
MTEXT
  5
13F7E
330
1359F
100
AcDbEntity
  8
寸法
 62
     7
 48
50.0
100
AcDbMText
 10
5611.350663344682
 20
10537.45331738737
 30
0.0
 40
120.0
 41
0.0
 71
     5
 72
     1
  1
\A1;5260
  7
STYLE1
 73
     1
 44
1.0
1001
ACAD
1000
MTEXTBEGIN
1070
    73
1070
     1
1070
    44
1040
1.0
1070
    74
1070
     0
1000
MTEXTEND
  0
POINT
  5
13F7F
330
1359F
100
AcDbEntity
  8
DEFPOINTS
 62
     0
 48
50.0
100
AcDbPoint
 10
2981.350663344681
 20
9770.729096344958
 30
0.0
  0
POINT
  5
13F80
330
1359F
100
AcDbEntity
  8
DEFPOINTS
 62
     0
 48
50.0
100
AcDbPoint
 10
8241.350663344681
 20
9770.729096344958
 30
0.0
  0
POINT
  5
13F81
330
1359F
100
AcDbEntity
  8
DEFPOINTS
 62
     0
 48
50.0
100
AcDbPoint
 10
8241.350663344681
 20
10445.44150636375
 30
0.0
  0
ENDBLK
  5
135AA
330
1359F
100
AcDbEntity
  8
0
 48
50.0
100
AcDbBlockEnd
  0
BLOCK
  5
135B5
330
135AB
100
AcDbEntity
  8
0
 48
50.0
100
AcDbBlockBegin
  2
*D9
 70
     1
 10
0.0
 20
0.0
 30
0.0
  3
*D9
  1

  0
LINE
  5
13F70
330
135AB
100
AcDbEntity
  8
寸法
 62
     0
 48
50.0
370
    -2
100
AcDbLine
 10
3036.350663344681
 20
9790.729096344959
 30
0.0
 11
3036.350663344681
 21
10185.44150636375
 31
0.0
  0
LINE
  5
13F71
330
135AB
100
AcDbEntity
  8
寸法
 62
     0
 48
50.0
370
    -2
100
AcDbLine
 10
5556.350663344681
 20
9790.729096344959
 30
0.0
 11
5556.350663344681
 21
10185.44150636375
 31
0.0
  0
LINE
  5
13F72
330
135AB
100
AcDbEntity
  8
寸法
 62
     0
 48
50.0
370
    -2
100
AcDbLine
 10
3056.350663344681
 20
10145.44150636375
 30
0.0
 11
5536.350663344681
 21
10145.44150636375
 31
0.0
  0
INSERT
  5
13F73
330
135AB
100
AcDbEntity
  8
寸法
 62
     0
 48
50.0
370
    -2
100
AcDbBlockReference
  2
_DOT
 10
3036.350663344681
 20
10145.44150636375
 30
0.0
 41
20.0
 42
20.0
 43
20.0
 50
180.0
  0
INSERT
  5
13F74
330
135AB
100
AcDbEntity
  8
寸法
 62
     0
 48
50.0
370
    -2
100
AcDbBlockReference
  2
_DOT
 10
5556.350663344681
 20
10145.44150636375
 30
0.0
 41
20.0
 42
20.0
 43
20.0
  0
MTEXT
  5
13F75
330
135AB
100
AcDbEntity
  8
寸法
 62
     7
 48
50.0
100
AcDbMText
 10
4296.350663344681
 20
10237.45331738737
 30
0.0
 40
120.0
 41
0.0
 71
     5
 72
     1
  1
\A1;6X420=2520
  7
STYLE1
 73
     1
 44
1.0
1001
ACAD
1000
MTEXTBEGIN
1070
    73
1070
     1
1070
    44
1040
1.0
1070
    74
1070
     0
1000
MTEXTEND
  0
POINT
  5
13F76
330
135AB
100
AcDbEntity
  8
DEFPOINTS
 62
     0
 48
50.0
100
AcDbPoint
 10
3036.350663344681
 20
9770.729096344958
 30
0.0
  0
POINT
  5
13F77
330
135AB
100
AcDbEntity
  8
DEFPOINTS
 62
     0
 48
50.0
100
AcDbPoint
 10
5556.350663344681
 20
9770.729096344958
 30
0.0
  0
POINT
  5
13F78
330
135AB
100
AcDbEntity
  8
DEFPOINTS
 62
     0
 48
50.0
100
AcDbPoint
 10
5556.350663344681
 20
10145.44150636375
 30
0.0
  0
ENDBLK
  5
135B6
330
135AB
100
AcDbEntity
  8
0
 48
50.0
100
AcDbBlockEnd
  0
BLOCK
  5
135CF
330
135C3
100
AcDbEntity
  8
0
 48
50.0
100
AcDbBlockBegin
  2
*D10
 70
     1
 10
0.0
 20
0.0
 30
0.0
  3
*D10
  1

  0
LINE
  5
13F65
330
135C3
100
AcDbEntity
  8
寸法
 62
     0
 48
50.0
370
    -2
100
AcDbLine
 10
2981.350663344681
 20
9790.729096344955
 30
0.0
 11
2981.350663344681
 21
10185.44150636375
 31
0.0
  0
LINE
  5
13F66
330
135C3
100
AcDbEntity
  8
寸法
 62
     0
 48
50.0
370
    -2
100
AcDbLine
 10
3036.350663344681
 20
9790.729096344959
 30
0.0
 11
3036.350663344681
 21
10185.44150636375
 31
0.0
  0
LINE
  5
13F67
330
135C3
100
AcDbEntity
  8
寸法
 62
     0
 48
50.0
370
    -2
100
AcDbLine
 10
3056.350663344681
 20
10145.44150636375
 30
0.0
 11
3076.350663344681
 21
10145.44150636375
 31
0.0
  0
LINE
  5
13F68
330
135C3
100
AcDbEntity
  8
寸法
 62
     0
 48
50.0
370
    -2
100
AcDbLine
 10
2961.350663344682
 20
10145.44150636375
 30
0.0
 11
2486.698715303779
 21
10145.44150636375
 31
0.0
  0
LINE
  5
13F69
330
135C3
100
AcDbEntity
  8
寸法
 62
     0
 48
50.0
370
    -2
100
AcDbLine
 10
3036.350663344681
 20
10145.44150636375
 30
0.0
 11
2981.350663344681
 21
10145.44150636375
 31
0.0
  0
INSERT
  5
13F6A
330
135C3
100
AcDbEntity
  8
寸法
 62
     0
 48
50.0
370
    -2
100
AcDbBlockReference
  2
_DOT
 10
3036.350663344681
 20
10145.44150636375
 30
0.0
 41
20.0
 42
20.0
 43
20.0
 50
180.0
  0
INSERT
  5
13F6B
330
135C3
100
AcDbEntity
  8
寸法
 62
     0
 48
50.0
370
    -2
100
AcDbBlockReference
  2
_DOT
 10
2981.350663344681
 20
10145.44150636375
 30
0.0
 41
20.0
 42
20.0
 43
20.0
  0
MTEXT
  5
13F6C
330
135C3
100
AcDbEntity
  8
寸法
 62
     7
 48
50.0
100
AcDbMText
 10
2587.183996678017
 20
10237.44150636375
 30
0.0
 40
120.0
 41
0.0
 71
     5
 72
     1
  1
\A1;55
  7
STYLE1
 73
     1
 44
1.0
1001
ACAD
1000
MTEXTBEGIN
1070
    73
1070
     1
1070
    44
1040
1.0
1070
    74
1070
     0
1000
MTEXTEND
  0
POINT
  5
13F6D
330
135C3
100
AcDbEntity
  8
DEFPOINTS
 62
     0
 48
50.0
100
AcDbPoint
 10
2981.350663344681
 20
9770.729096344958
 30
0.0
  0
POINT
  5
13F6E
330
135C3
100
AcDbEntity
  8
DEFPOINTS
 62
     0
 48
50.0
100
AcDbPoint
 10
3036.350663344681
 20
9770.729096344958
 30
0.0
  0
POINT
  5
13F6F
330
135C3
100
AcDbEntity
  8
DEFPOINTS
 62
     0
 48
50.0
100
AcDbPoint
 10
3036.350663344681
 20
10145.44150636375
 30
0.0
  0
ENDBLK
  5
135D0
330
135C3
100
AcDbEntity
  8
0
 48
50.0
100
AcDbBlockEnd
  0
BLOCK
  5
135E7
330
135DD
100
AcDbEntity
  8
0
 48
50.0
100
AcDbBlockBegin
  2
*D11
 70
     1
 10
0.0
 20
0.0
 30
0.0
  3
*D11
  1

  0
LINE
  5
13F5C
330
135DD
100
AcDbEntity
  8
寸法
 62
     0
 48
50.0
370
    -2
100
AcDbLine
 10
5666.350663344681
 20
9790.729096344959
 30
0.0
 11
5666.350663344681
 21
10185.44150636375
 31
0.0
  0
LINE
  5
13F5D
330
135DD
100
AcDbEntity
  8
寸法
 62
     0
 48
50.0
370
    -2
100
AcDbLine
 10
8186.350663344681
 20
9790.729096344959
 30
0.0
 11
8186.350663344681
 21
10185.44150636375
 31
0.0
  0
LINE
  5
13F5E
330
135DD
100
AcDbEntity
  8
寸法
 62
     0
 48
50.0
370
    -2
100
AcDbLine
 10
5686.350663344682
 20
10145.44150636375
 30
0.0
 11
8166.350663344681
 21
10145.44150636375
 31
0.0
  0
INSERT
  5
13F5F
330
135DD
100
AcDbEntity
  8
寸法
 62
     0
 48
50.0
370
    -2
100
AcDbBlockReference
  2
_DOT
 10
5666.350663344681
 20
10145.44150636375
 30
0.0
 41
20.0
 42
20.0
 43
20.0
 50
180.0
  0
INSERT
  5
13F60
330
135DD
100
AcDbEntity
  8
寸法
 62
     0
 48
50.0
370
    -2
100
AcDbBlockReference
  2
_DOT
 10
8186.350663344681
 20
10145.44150636375
 30
0.0
 41
20.0
 42
20.0
 43
20.0
  0
MTEXT
  5
13F61
330
135DD
100
AcDbEntity
  8
寸法
 62
     7
 48
50.0
100
AcDbMText
 10
6926.350663344681
 20
10237.45331738737
 30
0.0
 40
120.0
 41
0.0
 71
     5
 72
     1
  1
\A1;6X420=2520
  7
STYLE1
 73
     1
 44
1.0
1001
ACAD
1000
MTEXTBEGIN
1070
    73
1070
     1
1070
    44
1040
1.0
1070
    74
1070
     0
1000
MTEXTEND
  0
POINT
  5
13F62
330
135DD
100
AcDbEntity
  8
DEFPOINTS
 62
     0
 48
50.0
100
AcDbPoint
 10
5666.350663344681
 20
9770.729096344958
 30
0.0
  0
POINT
  5
13F63
330
135DD
100
AcDbEntity
  8
DEFPOINTS
 62
     0
 48
50.0
100
AcDbPoint
 10
8186.350663344681
 20
9770.729096344958
 30
0.0
  0
POINT
  5
13F64
330
135DD
100
AcDbEntity
  8
DEFPOINTS
 62
     0
 48
50.0
100
AcDbPoint
 10
8186.350663344681
 20
10145.44150636375
 30
0.0
  0
ENDBLK
  5
135E8
330
135DD
100
AcDbEntity
  8
0
 48
50.0
100
AcDbBlockEnd
  0
BLOCK
  5
135F3
330
135E9
100
AcDbEntity
  8
0
 48
50.0
100
AcDbBlockBegin
  2
*D12
 70
     1
 10
0.0
 20
0.0
 30
0.0
  3
*D12
  1

  0
LINE
  5
13F53
330
135E9
100
AcDbEntity
  8
寸法
 62
     0
 48
50.0
370
    -2
100
AcDbLine
 10
5556.350663344681
 20
9790.729096344959
 30
0.0
 11
5556.350663344681
 21
10185.44150636375
 31
0.0
  0
LINE
  5
13F54
330
135E9
100
AcDbEntity
  8
寸法
 62
     0
 48
50.0
370
    -2
100
AcDbLine
 10
5666.350663344681
 20
9790.729096344959
 30
0.0
 11
5666.350663344681
 21
10185.44150636375
 31
0.0
  0
LINE
  5
13F55
330
135E9
100
AcDbEntity
  8
寸法
 62
     0
 48
50.0
370
    -2
100
AcDbLine
 10
5576.350663344681
 20
10145.44150636375
 30
0.0
 11
5646.350663344681
 21
10145.44150636375
 31
0.0
  0
INSERT
  5
13F56
330
135E9
100
AcDbEntity
  8
寸法
 62
     0
 48
50.0
370
    -2
100
AcDbBlockReference
  2
_DOT
 10
5556.350663344681
 20
10145.44150636375
 30
0.0
 41
20.0
 42
20.0
 43
20.0
 50
180.0
  0
INSERT
  5
13F57
330
135E9
100
AcDbEntity
  8
寸法
 62
     0
 48
50.0
370
    -2
100
AcDbBlockReference
  2
_DOT
 10
5666.350663344681
 20
10145.44150636375
 30
0.0
 41
20.0
 42
20.0
 43
20.0
  0
MTEXT
  5
13F58
330
135E9
100
AcDbEntity
  8
寸法
 62
     7
 48
50.0
100
AcDbMText
 10
5611.350663344682
 20
10237.44150636375
 30
0.0
 40
120.0
 41
0.0
 71
     5
 72
     1
  1
\A1;110
  7
STYLE1
 73
     1
 44
1.0
1001
ACAD
1000
MTEXTBEGIN
1070
    73
1070
     1
1070
    44
1040
1.0
1070
    74
1070
     0
1000
MTEXTEND
  0
POINT
  5
13F59
330
135E9
100
AcDbEntity
  8
DEFPOINTS
 62
     0
 48
50.0
100
AcDbPoint
 10
5556.350663344681
 20
9770.729096344958
 30
0.0
  0
POINT
  5
13F5A
330
135E9
100
AcDbEntity
  8
DEFPOINTS
 62
     0
 48
50.0
100
AcDbPoint
 10
5666.350663344681
 20
9770.729096344958
 30
0.0
  0
POINT
  5
13F5B
330
135E9
100
AcDbEntity
  8
DEFPOINTS
 62
     0
 48
50.0
100
AcDbPoint
 10
5666.350663344681
 20
10145.44150636375
 30
0.0
  0
ENDBLK
  5
135F4
330
135E9
100
AcDbEntity
  8
0
 48
50.0
100
AcDbBlockEnd
  0
BLOCK
  5
13619
330
1360F
100
AcDbEntity
  8
0
 48
50.0
100
AcDbBlockBegin
  2
*D13
 70
     1
 10
0.0
 20
0.0
 30
0.0
  3
*D13
  1

  0
LINE
  5
13EB7
330
1360F
100
AcDbEntity
  8
寸法
 62
     0
 48
50.0
370
    -2
100
AcDbLine
 10
8241.350663344686
 20
4683.11280590326
 30
0.0
 11
8241.350663344686
 21
4935.6543911615
 31
0.0
  0
LINE
  5
13EB8
330
1360F
100
AcDbEntity
  8
寸法
 62
     0
 48
50.0
370
    -2
100
AcDbLine
 10
2981.350663344681
 20
4683.112805903264
 30
0.0
 11
2981.350663344681
 21
4935.6543911615
 31
0.0
  0
LINE
  5
13EB9
330
1360F
100
AcDbEntity
  8
寸法
 62
     0
 48
50.0
370
    -2
100
AcDbLine
 10
8241.350663344686
 20
4875.6543911615
 30
0.0
 11
2981.350663344681
 21
4875.6543911615
 31
0.0
  0
INSERT
  5
13EBA
330
1360F
100
AcDbEntity
  8
寸法
 62
     0
 48
50.0
370
    -2
100
AcDbBlockReference
  2
_DOTSMALL
 10
8241.350663344686
 20
4875.6543911615
 30
0.0
 41
100.0
 42
100.0
 43
100.0
  0
INSERT
  5
13EBB
330
1360F
100
AcDbEntity
  8
寸法
 62
     0
 48
50.0
370
    -2
100
AcDbBlockReference
  2
_DOTSMALL
 10
2981.350663344681
 20
4875.6543911615
 30
0.0
 41
100.0
 42
100.0
 43
100.0
 50
180.0
  0
MTEXT
  5
13EBC
330
1360F
100
AcDbEntity
  8
寸法
 62
     7
 48
50.0
100
AcDbMText
 10
5611.350663344682
 20
4975.666202185122
 30
0.0
 40
120.0
 41
0.0
 71
     5
 72
     1
  1
\A1;柱外寸法5260
  7
STYLE1
 73
     1
 44
1.0
1001
ACAD
1000
MTEXTBEGIN
1070
    73
1070
     1
1070
    44
1040
1.0
1070
    74
1070
     0
1000
MTEXTEND
  0
POINT
  5
13EBD
330
1360F
100
AcDbEntity
  8
DEFPOINTS
 62
     0
 48
50.0
100
AcDbPoint
 10
8241.350663344686
 20
4663.112805903259
 30
0.0
  0
POINT
  5
13EBE
330
1360F
100
AcDbEntity
  8
DEFPOINTS
 62
     0
 48
50.0
100
AcDbPoint
 10
2981.350663344681
 20
4663.112805903264
 30
0.0
  0
POINT
  5
13EBF
330
1360F
100
AcDbEntity
  8
DEFPOINTS
 62
     0
 48
50.0
100
AcDbPoint
 10
2981.350663344681
 20
4875.6543911615
 30
0.0
  0
ENDBLK
  5
1361A
330
1360F
100
AcDbEntity
  8
0
 48
50.0
100
AcDbBlockEnd
  0
BLOCK
  5
13625
330
1361B
100
AcDbEntity
  8
0
 48
50.0
100
AcDbBlockBegin
  2
*D14
 70
     1
 10
0.0
 20
0.0
 30
0.0
  3
*D14
  1

  0
LINE
  5
13EAE
330
1361B
100
AcDbEntity
  8
寸法
 62
     0
 48
50.0
370
    -2
100
AcDbLine
 10
2931.350663344682
 20
4683.112805903262
 30
0.0
 11
2931.350663344682
 21
5156.55969163525
 31
0.0
  0
LINE
  5
13EAF
330
1361B
100
AcDbEntity
  8
寸法
 62
     0
 48
50.0
370
    -2
100
AcDbLine
 10
8291.350663344685
 20
4683.112805903258
 30
0.0
 11
8291.350663344685
 21
5156.55969163525
 31
0.0
  0
LINE
  5
13EB0
330
1361B
100
AcDbEntity
  8
寸法
 62
     0
 48
50.0
370
    -2
100
AcDbLine
 10
2931.350663344682
 20
5096.559691635249
 30
0.0
 11
8291.350663344685
 21
5096.559691635249
 31
0.0
  0
INSERT
  5
13EB1
330
1361B
100
AcDbEntity
  8
寸法
 62
     0
 48
50.0
370
    -2
100
AcDbBlockReference
  2
_DOTSMALL
 10
2931.350663344682
 20
5096.559691635249
 30
0.0
 41
100.0
 42
100.0
 43
100.0
 50
180.0
  0
INSERT
  5
13EB2
330
1361B
100
AcDbEntity
  8
寸法
 62
     0
 48
50.0
370
    -2
100
AcDbBlockReference
  2
_DOTSMALL
 10
8291.350663344685
 20
5096.559691635249
 30
0.0
 41
100.0
 42
100.0
 43
100.0
  0
MTEXT
  5
13EB3
330
1361B
100
AcDbEntity
  8
寸法
 62
     7
 48
50.0
100
AcDbMText
 10
5611.350663344682
 20
5196.55969163525
 30
0.0
 40
120.0
 41
0.0
 71
     5
 72
     1
  1
\A1;5360
  7
STYLE1
 73
     1
 44
1.0
1001
ACAD
1000
MTEXTBEGIN
1070
    73
1070
     1
1070
    44
1040
1.0
1070
    74
1070
     0
1000
MTEXTEND
  0
POINT
  5
13EB4
330
1361B
100
AcDbEntity
  8
DEFPOINTS
 62
     0
 48
50.0
100
AcDbPoint
 10
2931.350663344682
 20
4663.112805903263
 30
0.0
  0
POINT
  5
13EB5
330
1361B
100
AcDbEntity
  8
DEFPOINTS
 62
     0
 48
50.0
100
AcDbPoint
 10
8291.350663344685
 20
4663.112805903258
 30
0.0
  0
POINT
  5
13EB6
330
1361B
100
AcDbEntity
  8
DEFPOINTS
 62
     0
 48
50.0
100
AcDbPoint
 10
8291.350663344685
 20
5096.559691635249
 30
0.0
  0
ENDBLK
  5
13626
330
1361B
100
AcDbEntity
  8
0
 48
50.0
100
AcDbBlockEnd
  0
BLOCK
  5
13633
330
13627
100
AcDbEntity
  8
0
 48
50.0
100
AcDbBlockBegin
  2
*D15
 70
     1
 10
0.0
 20
0.0
 30
0.0
  3
*D15
  1

  0
LINE
  5
13EA3
330
13627
100
AcDbEntity
  8
寸法
 62
     0
 48
50.0
370
    -2
100
AcDbLine
 10
2981.350663344681
 20
4683.112805903264
 30
0.0
 11
2981.350663344681
 21
4935.654391161502
 31
0.0
  0
LINE
  5
13EA4
330
13627
100
AcDbEntity
  8
寸法
 62
     0
 48
50.0
370
    -2
100
AcDbLine
 10
2931.350663344682
 20
4683.112805903262
 30
0.0
 11
2931.350663344682
 21
4935.654391161502
 31
0.0
  0
LINE
  5
13EA5
330
13627
100
AcDbEntity
  8
寸法
 62
     0
 48
50.0
370
    -2
100
AcDbLine
 10
2981.350663344681
 20
4875.654391161502
 30
0.0
 11
3081.350663344681
 21
4875.654391161502
 31
0.0
  0
LINE
  5
13EA6
330
13627
100
AcDbEntity
  8
寸法
 62
     0
 48
50.0
370
    -2
100
AcDbLine
 10
2931.350663344682
 20
4875.654391161502
 30
0.0
 11
2511.818137875946
 21
4875.654391161502
 31
0.0
  0
LINE
  5
13EA7
330
13627
100
AcDbEntity
  8
寸法
 62
     0
 48
50.0
370
    -2
100
AcDbLine
 10
2981.350663344681
 20
4875.654391161502
 30
0.0
 11
2931.350663344682
 21
4875.654391161502
 31
0.0
  0
INSERT
  5
13EA8
330
13627
100
AcDbEntity
  8
寸法
 62
     0
 48
50.0
370
    -2
100
AcDbBlockReference
  2
_DOTSMALL
 10
2981.350663344681
 20
4875.654391161502
 30
0.0
 41
100.0
 42
100.0
 43
100.0
 50
180.0
  0
INSERT
  5
13EA9
330
13627
100
AcDbEntity
  8
寸法
 62
     0
 48
50.0
370
    -2
100
AcDbBlockReference
  2
_DOTSMALL
 10
2931.350663344682
 20
4875.654391161502
 30
0.0
 41
100.0
 42
100.0
 43
100.0
  0
MTEXT
  5
13EAA
330
13627
100
AcDbEntity
  8
寸法
 62
     7
 48
50.0
100
AcDbMText
 10
2617.865381970434
 20
4975.654391161501
 30
0.0
 40
120.0
 41
0.0
 71
     5
 72
     1
  1
\A1;50
  7
STYLE1
 73
     1
 44
1.0
1001
ACAD
1000
MTEXTBEGIN
1070
    73
1070
     1
1070
    44
1040
1.0
1070
    74
1070
     0
1000
MTEXTEND
  0
POINT
  5
13EAB
330
13627
100
AcDbEntity
  8
DEFPOINTS
 62
     0
 48
50.0
100
AcDbPoint
 10
2981.350663344681
 20
4663.112805903264
 30
0.0
  0
POINT
  5
13EAC
330
13627
100
AcDbEntity
  8
DEFPOINTS
 62
     0
 48
50.0
100
AcDbPoint
 10
2931.350663344682
 20
4663.112805903263
 30
0.0
  0
POINT
  5
13EAD
330
13627
100
AcDbEntity
  8
DEFPOINTS
 62
     0
 48
50.0
100
AcDbPoint
 10
2931.350663344682
 20
4875.654391161502
 30
0.0
  0
ENDBLK
  5
13634
330
13627
100
AcDbEntity
  8
0
 48
50.0
100
AcDbBlockEnd
  0
BLOCK
  5
13641
330
13635
100
AcDbEntity
  8
0
 48
50.0
100
AcDbBlockBegin
  2
*D16
 70
     1
 10
0.0
 20
0.0
 30
0.0
  3
*D16
  1

  0
LINE
  5
13E98
330
13635
100
AcDbEntity
  8
寸法
 62
     0
 48
50.0
370
    -2
100
AcDbLine
 10
8291.350663344685
 20
4683.112805903258
 30
0.0
 11
8291.350663344685
 21
4935.654391161499
 31
0.0
  0
LINE
  5
13E99
330
13635
100
AcDbEntity
  8
寸法
 62
     0
 48
50.0
370
    -2
100
AcDbLine
 10
8241.350663344686
 20
4683.11280590326
 30
0.0
 11
8241.350663344686
 21
4935.654391161499
 31
0.0
  0
LINE
  5
13E9A
330
13635
100
AcDbEntity
  8
寸法
 62
     0
 48
50.0
370
    -2
100
AcDbLine
 10
8241.350663344686
 20
4875.654391161499
 30
0.0
 11
8141.350663344686
 21
4875.654391161499
 31
0.0
  0
LINE
  5
13E9B
330
13635
100
AcDbEntity
  8
寸法
 62
     0
 48
50.0
370
    -2
100
AcDbLine
 10
8291.350663344685
 20
4875.654391161499
 30
0.0
 11
8710.883188813408
 21
4875.654391161499
 31
0.0
  0
LINE
  5
13E9C
330
13635
100
AcDbEntity
  8
寸法
 62
     0
 48
50.0
370
    -2
100
AcDbLine
 10
8241.350663344686
 20
4875.654391161499
 30
0.0
 11
8291.350663344685
 21
4875.654391161499
 31
0.0
  0
INSERT
  5
13E9D
330
13635
100
AcDbEntity
  8
寸法
 62
     0
 48
50.0
370
    -2
100
AcDbBlockReference
  2
_DOTSMALL
 10
8241.350663344686
 20
4875.654391161499
 30
0.0
 41
100.0
 42
100.0
 43
100.0
  0
INSERT
  5
13E9E
330
13635
100
AcDbEntity
  8
寸法
 62
     0
 48
50.0
370
    -2
100
AcDbBlockReference
  2
_DOTSMALL
 10
8291.350663344685
 20
4875.654391161499
 30
0.0
 41
100.0
 42
100.0
 43
100.0
 50
180.0
  0
MTEXT
  5
13E9F
330
13635
100
AcDbEntity
  8
寸法
 62
     7
 48
50.0
100
AcDbMText
 10
8604.835944718921
 20
4975.654391161499
 30
0.0
 40
120.0
 41
0.0
 71
     5
 72
     1
  1
\A1;50
  7
STYLE1
 73
     1
 44
1.0
1001
ACAD
1000
MTEXTBEGIN
1070
    73
1070
     1
1070
    44
1040
1.0
1070
    74
1070
     0
1000
MTEXTEND
  0
POINT
  5
13EA0
330
13635
100
AcDbEntity
  8
DEFPOINTS
 62
     0
 48
50.0
100
AcDbPoint
 10
8291.350663344685
 20
4663.112805903258
 30
0.0
  0
POINT
  5
13EA1
330
13635
100
AcDbEntity
  8
DEFPOINTS
 62
     0
 48
50.0
100
AcDbPoint
 10
8241.350663344686
 20
4663.112805903259
 30
0.0
  0
POINT
  5
13EA2
330
13635
100
AcDbEntity
  8
DEFPOINTS
 62
     0
 48
50.0
100
AcDbPoint
 10
8241.350663344686
 20
4875.654391161499
 30
0.0
  0
ENDBLK
  5
13642
330
13635
100
AcDbEntity
  8
0
 48
50.0
100
AcDbBlockEnd
  0
BLOCK
  5
13B2E
330
13B23
100
AcDbEntity
  8
0
 48
50.0
100
AcDbBlockBegin
  2
*D17
 70
     1
 10
0.0
 20
0.0
 30
0.0
  3
*D17
  1

  0
LINE
  5
13E8E
330
13B23
100
AcDbEntity
  8
寸法
 62
     0
 48
50.0
370
    -2
100
AcDbLine
 10
11063.15471247879
 20
4662.410512972916
 30
0.0
 11
10447.22027337352
 21
4680.124663247245
 31
0.0
  0
LINE
  5
13E8F
330
13B23
100
AcDbEntity
  8
寸法
 62
     0
 48
50.0
370
    -2
100
AcDbLine
 10
11059.10125692216
 20
4521.468789207204
 30
0.0
 11
10443.16681781689
 21
4539.182939481533
 31
0.0
  0
LINE
  5
13E90
330
13B23
100
AcDbEntity
  8
寸法
 62
     0
 48
50.0
370
    -2
100
AcDbLine
 10
10503.14201941932
 20
4537.458064776585
 30
0.0
 11
10507.19547497594
 21
4678.399788542297
 31
0.0
  0
LINE
  5
13E91
330
13B23
100
AcDbEntity
  8
寸法
 62
     0
 48
50.0
370
    -2
100
AcDbLine
 10
10507.19547497594
 20
4678.399788542297
 30
0.0
 11
10517.54472320563
 21
5038.250998156883
 31
0.0
  0
INSERT
  5
13E92
330
13B23
100
AcDbEntity
  8
寸法
 62
     0
 48
50.0
370
    -2
100
AcDbBlockReference
  2
_DOTSMALL
 10
10503.14201941932
 20
4537.458064776585
 30
0.0
 41
100.0
 42
100.0
 43
100.0
 50
268.3526390256378
  0
INSERT
  5
13E93
330
13B23
100
AcDbEntity
  8
寸法
 62
     0
 48
50.0
370
    -2
100
AcDbBlockReference
  2
_DOTSMALL
 10
10507.19547497594
 20
4678.399788542297
 30
0.0
 41
100.0
 42
100.0
 43
100.0
 50
88.35263902563776
  0
MTEXT
  5
13E94
330
13B23
100
AcDbEntity
  8
寸法
 62
     7
 48
50.0
100
AcDbMText
 10
10413.84882534086
 20
4911.179519193197
 30
0.0
 40
120.0
 41
0.0
 71
     5
 72
     1
  1
\A1;141
  7
STYLE1
 11
0.0287479117491237
 21
0.9995866933738488
 31
0.0
 73
     1
 44
1.0
1001
ACAD
1000
MTEXTBEGIN
1070
    73
1070
     1
1070
    44
1040
1.0
1070
    74
1070
     0
1000
MTEXTEND
  0
POINT
  5
13E95
330
13B23
100
AcDbEntity
  8
DEFPOINTS
 62
     0
 48
50.0
100
AcDbPoint
 10
11083.14644634627
 20
4661.835554737932
 30
0.0
  0
POINT
  5
13E96
330
13B23
100
AcDbEntity
  8
DEFPOINTS
 62
     0
 48
50.0
100
AcDbPoint
 10
11079.09299078964
 20
4520.89383097222
 30
0.0
  0
POINT
  5
13E97
330
13B23
100
AcDbEntity
  8
DEFPOINTS
 62
     0
 48
50.0
100
AcDbPoint
 10
10503.14201941932
 20
4537.458064776585
 30
0.0
  0
ENDBLK
  5
13B2F
330
13B23
100
AcDbEntity
  8
0
 48
50.0
100
AcDbBlockEnd
  0
BLOCK
  5
13B3B
330
13B30
100
AcDbEntity
  8
0
 48
50.0
100
AcDbBlockBegin
  2
*D18
 70
     1
 10
0.0
 20
0.0
 30
0.0
  3
*D18
  1

  0
LINE
  5
13E84
330
13B30
100
AcDbEntity
  8
寸法
 62
     0
 48
50.0
370
    -2
100
AcDbLine
 10
13753.75042618769
 20
4629.923485514908
 30
0.0
 11
13753.75042618769
 21
5121.770259482559
 31
0.0
  0
LINE
  5
13E85
330
13B30
100
AcDbEntity
  8
寸法
 62
     0
 48
50.0
370
    -2
100
AcDbLine
 10
13833.75042618769
 20
4628.112805903255
 30
0.0
 11
13833.75042618769
 21
5121.770259482559
 31
0.0
  0
LINE
  5
13E86
330
13B30
100
AcDbEntity
  8
寸法
 62
     0
 48
50.0
370
    -2
100
AcDbLine
 10
13753.75042618769
 20
5061.770259482559
 30
0.0
 11
13833.75042618769
 21
5061.770259482559
 31
0.0
  0
LINE
  5
13E87
330
13B30
100
AcDbEntity
  8
寸法
 62
     0
 48
50.0
370
    -2
100
AcDbLine
 10
13833.75042618769
 20
5061.770259482559
 30
0.0
 11
14145.84491437667
 21
5061.770259482559
 31
0.0
  0
INSERT
  5
13E88
330
13B30
100
AcDbEntity
  8
寸法
 62
     0
 48
50.0
370
    -2
100
AcDbBlockReference
  2
_DOTSMALL
 10
13753.75042618769
 20
5061.770259482559
 30
0.0
 41
100.0
 42
100.0
 43
100.0
 50
180.0
  0
INSERT
  5
13E89
330
13B30
100
AcDbEntity
  8
寸法
 62
     0
 48
50.0
370
    -2
100
AcDbBlockReference
  2
_DOTSMALL
 10
13833.75042618769
 20
5061.770259482559
 30
0.0
 41
100.0
 42
100.0
 43
100.0
  0
MTEXT
  5
13E8A
330
13B30
100
AcDbEntity
  8
寸法
 62
     7
 48
50.0
100
AcDbMText
 10
14039.79767028218
 20
5161.770259482559
 30
0.0
 40
120.0
 41
0.0
 71
     5
 72
     1
  1
\A1;80
  7
STYLE1
 73
     1
 44
1.0
1001
ACAD
1000
MTEXTBEGIN
1070
    73
1070
     1
1070
    44
1040
1.0
1070
    74
1070
     0
1000
MTEXTEND
  0
POINT
  5
13E8B
330
13B30
100
AcDbEntity
  8
DEFPOINTS
 62
     0
 48
50.0
100
AcDbPoint
 10
13753.75042618769
 20
4609.923485514909
 30
0.0
  0
POINT
  5
13E8C
330
13B30
100
AcDbEntity
  8
DEFPOINTS
 62
     0
 48
50.0
100
AcDbPoint
 10
13833.75042618769
 20
4608.112805903256
 30
0.0
  0
POINT
  5
13E8D
330
13B30
100
AcDbEntity
  8
DEFPOINTS
 62
     0
 48
50.0
100
AcDbPoint
 10
13833.75042618769
 20
5061.770259482559
 30
0.0
  0
ENDBLK
  5
13B3C
330
13B30
100
AcDbEntity
  8
0
 48
50.0
100
AcDbBlockEnd
  0
BLOCK
  5
13B47
330
13B3D
100
AcDbEntity
  8
0
 48
50.0
100
AcDbBlockBegin
  2
*D19
 70
     1
 10
0.0
 20
0.0
 30
0.0
  3
*D19
  1

  0
LINE
  5
13E7B
330
13B3D
100
AcDbEntity
  8
寸法
 62
     0
 48
50.0
370
    -2
100
AcDbLine
 10
13833.75042618769
 20
4628.112805903255
 30
0.0
 11
13833.75042618769
 21
5341.980946214176
 31
0.0
  0
LINE
  5
13E7C
330
13B3D
100
AcDbEntity
  8
寸法
 62
     0
 48
50.0
370
    -2
100
AcDbLine
 10
11063.75042618769
 20
4683.112805903259
 30
0.0
 11
11063.75042618769
 21
5341.980946214176
 31
0.0
  0
LINE
  5
13E7D
330
13B3D
100
AcDbEntity
  8
寸法
 62
     0
 48
50.0
370
    -2
100
AcDbLine
 10
13833.75042618769
 20
5281.980946214177
 30
0.0
 11
11063.75042618769
 21
5281.980946214177
 31
0.0
  0
INSERT
  5
13E7E
330
13B3D
100
AcDbEntity
  8
寸法
 62
     0
 48
50.0
370
    -2
100
AcDbBlockReference
  2
_DOTSMALL
 10
13833.75042618769
 20
5281.980946214177
 30
0.0
 41
100.0
 42
100.0
 43
100.0
  0
INSERT
  5
13E7F
330
13B3D
100
AcDbEntity
  8
寸法
 62
     0
 48
50.0
370
    -2
100
AcDbBlockReference
  2
_DOTSMALL
 10
11063.75042618769
 20
5281.980946214177
 30
0.0
 41
100.0
 42
100.0
 43
100.0
 50
180.0
  0
MTEXT
  5
13E80
330
13B3D
100
AcDbEntity
  8
寸法
 62
     7
 48
50.0
100
AcDbMText
 10
12467.10935107506
 20
5381.992757237799
 30
0.0
 40
120.0
 41
0.0
 71
     5
 72
     1
  1
\A1;2770
  7
STYLE1
 73
     1
 44
1.0
1001
ACAD
1000
MTEXTBEGIN
1070
    73
1070
     1
1070
    44
1040
1.0
1070
    74
1070
     0
1000
MTEXTEND
  0
POINT
  5
13E81
330
13B3D
100
AcDbEntity
  8
DEFPOINTS
 62
     0
 48
50.0
100
AcDbPoint
 10
13833.75042618769
 20
4608.112805903256
 30
0.0
  0
POINT
  5
13E82
330
13B3D
100
AcDbEntity
  8
DEFPOINTS
 62
     0
 48
50.0
100
AcDbPoint
 10
11063.75042618769
 20
4663.112805903259
 30
0.0
  0
POINT
  5
13E83
330
13B3D
100
AcDbEntity
  8
DEFPOINTS
 62
     0
 48
50.0
100
AcDbPoint
 10
11063.75042618769
 20
5281.980946214177
 30
0.0
  0
ENDBLK
  5
13B48
330
13B3D
100
AcDbEntity
  8
0
 48
50.0
100
AcDbBlockEnd
  0
BLOCK
  5
13B55
330
13B49
100
AcDbEntity
  8
0
 48
50.0
100
AcDbBlockBegin
  2
*D20
 70
     1
 10
0.0
 20
0.0
 30
0.0
  3
*D20
  1

  0
LINE
  5
13E70
330
13B49
100
AcDbEntity
  8
寸法
 62
     0
 48
50.0
370
    -2
100
AcDbLine
 10
11123.75042618769
 20
4679.114424026231
 30
0.0
 11
11123.75042618769
 21
5121.770259482559
 31
0.0
  0
LINE
  5
13E71
330
13B49
100
AcDbEntity
  8
寸法
 62
     0
 48
50.0
370
    -2
100
AcDbLine
 10
11063.75042618769
 20
4683.112805903259
 30
0.0
 11
11063.75042618769
 21
5121.770259482559
 31
0.0
  0
LINE
  5
13E72
330
13B49
100
AcDbEntity
  8
寸法
 62
     0
 48
50.0
370
    -2
100
AcDbLine
 10
11123.75042618769
 20
5061.770259482559
 30
0.0
 11
11223.75042618769
 21
5061.770259482559
 31
0.0
  0
LINE
  5
13E73
330
13B49
100
AcDbEntity
  8
寸法
 62
     0
 48
50.0
370
    -2
100
AcDbLine
 10
11063.75042618769
 20
5061.770259482559
 30
0.0
 11
10644.47483563651
 21
5061.770259482559
 31
0.0
  0
LINE
  5
13E74
330
13B49
100
AcDbEntity
  8
寸法
 62
     0
 48
50.0
370
    -2
100
AcDbLine
 10
11123.75042618769
 20
5061.770259482559
 30
0.0
 11
11063.75042618769
 21
5061.770259482559
 31
0.0
  0
INSERT
  5
13E75
330
13B49
100
AcDbEntity
  8
寸法
 62
     0
 48
50.0
370
    -2
100
AcDbBlockReference
  2
_DOTSMALL
 10
11123.75042618769
 20
5061.770259482559
 30
0.0
 41
100.0
 42
100.0
 43
100.0
 50
180.0
  0
INSERT
  5
13E76
330
13B49
100
AcDbEntity
  8
寸法
 62
     0
 48
50.0
370
    -2
100
AcDbBlockReference
  2
_DOTSMALL
 10
11063.75042618769
 20
5061.770259482559
 30
0.0
 41
100.0
 42
100.0
 43
100.0
  0
MTEXT
  5
13E77
330
13B49
100
AcDbEntity
  8
寸法
 62
     7
 48
50.0
100
AcDbMText
 10
10754.1126309121
 20
5161.770259482558
 30
0.0
 40
120.0
 41
0.0
 71
     5
 72
     1
  1
\A1;60
  7
STYLE1
 73
     1
 44
1.0
1001
ACAD
1000
MTEXTBEGIN
1070
    73
1070
     1
1070
    44
1040
1.0
1070
    74
1070
     0
1000
MTEXTEND
  0
POINT
  5
13E78
330
13B49
100
AcDbEntity
  8
DEFPOINTS
 62
     0
 48
50.0
100
AcDbPoint
 10
11123.75042618769
 20
4659.11442402623
 30
0.0
  0
POINT
  5
13E79
330
13B49
100
AcDbEntity
  8
DEFPOINTS
 62
     0
 48
50.0
100
AcDbPoint
 10
11063.75042618769
 20
4663.112805903259
 30
0.0
  0
POINT
  5
13E7A
330
13B49
100
AcDbEntity
  8
DEFPOINTS
 62
     0
 48
50.0
100
AcDbPoint
 10
11063.75042618769
 20
5061.770259482559
 30
0.0
  0
ENDBLK
  5
13B56
330
13B49
100
AcDbEntity
  8
0
 48
50.0
100
AcDbBlockEnd
  0
BLOCK
  5
13B61
330
13B57
100
AcDbEntity
  8
0
 48
50.0
100
AcDbBlockBegin
  2
*D21
 70
     1
 10
0.0
 20
0.0
 30
0.0
  3
*D21
  1

  0
LINE
  5
13E67
330
13B57
100
AcDbEntity
  8
寸法
 62
     0
 48
50.0
370
    -2
100
AcDbLine
 10
13753.75042618769
 20
4629.923485514908
 30
0.0
 11
13753.75042618769
 21
5121.770259482559
 31
0.0
  0
LINE
  5
13E68
330
13B57
100
AcDbEntity
  8
寸法
 62
     0
 48
50.0
370
    -2
100
AcDbLine
 10
11123.75042618769
 20
4679.114424026231
 30
0.0
 11
11123.75042618769
 21
5121.770259482559
 31
0.0
  0
LINE
  5
13E69
330
13B57
100
AcDbEntity
  8
寸法
 62
     0
 48
50.0
370
    -2
100
AcDbLine
 10
13753.75042618769
 20
5061.770259482559
 30
0.0
 11
11123.75042618769
 21
5061.770259482559
 31
0.0
  0
INSERT
  5
13E6A
330
13B57
100
AcDbEntity
  8
寸法
 62
     0
 48
50.0
370
    -2
100
AcDbBlockReference
  2
_DOTSMALL
 10
13753.75042618769
 20
5061.770259482559
 30
0.0
 41
100.0
 42
100.0
 43
100.0
  0
INSERT
  5
13E6B
330
13B57
100
AcDbEntity
  8
寸法
 62
     0
 48
50.0
370
    -2
100
AcDbBlockReference
  2
_DOTSMALL
 10
11123.75042618769
 20
5061.770259482559
 30
0.0
 41
100.0
 42
100.0
 43
100.0
 50
180.0
  0
MTEXT
  5
13E6C
330
13B57
100
AcDbEntity
  8
寸法
 62
     7
 48
50.0
100
AcDbMText
 10
12478.52061721688
 20
5161.782070506181
 30
0.0
 40
120.0
 41
0.0
 71
     5
 72
     1
  1
\A1;柱外寸法2630
  7
STYLE1
 73
     1
 44
1.0
1001
ACAD
1000
MTEXTBEGIN
1070
    73
1070
     1
1070
    44
1040
1.0
1070
    74
1070
     0
1000
MTEXTEND
  0
POINT
  5
13E6D
330
13B57
100
AcDbEntity
  8
DEFPOINTS
 62
     0
 48
50.0
100
AcDbPoint
 10
13753.75042618769
 20
4609.923485514909
 30
0.0
  0
POINT
  5
13E6E
330
13B57
100
AcDbEntity
  8
DEFPOINTS
 62
     0
 48
50.0
100
AcDbPoint
 10
11123.75042618769
 20
4659.11442402623
 30
0.0
  0
POINT
  5
13E6F
330
13B57
100
AcDbEntity
  8
DEFPOINTS
 62
     0
 48
50.0
100
AcDbPoint
 10
11123.75042618769
 20
5061.770259482559
 30
0.0
  0
ENDBLK
  5
13B62
330
13B57
100
AcDbEntity
  8
0
 48
50.0
100
AcDbBlockEnd
  0
BLOCK
  5
13B6F
330
13B63
100
AcDbEntity
  8
0
 48
50.0
100
AcDbBlockBegin
  2
*D22
 70
     1
 10
0.0
 20
0.0
 30
0.0
  3
*D22
  1

  0
LINE
  5
14B62
330
13B63
100
AcDbEntity
  8
寸法
 62
     0
 48
50.0
370
    -2
100
AcDbLine
 10
11103.75042618769
 20
2338.112805903254
 30
0.0
 11
10220.00029700443
 21
2338.112805903254
 31
0.0
  0
LINE
  5
14B63
330
13B63
100
AcDbEntity
  8
寸法
 62
     0
 48
50.0
370
    -2
100
AcDbLine
 10
11103.75042618769
 20
2288.11280590325
 30
0.0
 11
10220.00029700443
 21
2288.11280590325
 31
0.0
  0
LINE
  5
14B64
330
13B63
100
AcDbEntity
  8
寸法
 62
     0
 48
50.0
370
    -2
100
AcDbLine
 10
10280.00029700443
 20
2338.112805903254
 30
0.0
 11
10280.00029700443
 21
2438.112805903255
 31
0.0
  0
LINE
  5
14B65
330
13B63
100
AcDbEntity
  8
寸法
 62
     0
 48
50.0
370
    -2
100
AcDbLine
 10
10280.00029700443
 20
2288.11280590325
 30
0.0
 11
10280.00029700443
 21
1876.018317714273
 31
0.0
  0
LINE
  5
14B66
330
13B63
100
AcDbEntity
  8
寸法
 62
     0
 48
50.0
370
    -2
100
AcDbLine
 10
10280.00029700443
 20
2338.112805903254
 30
0.0
 11
10280.00029700443
 21
2288.11280590325
 31
0.0
  0
INSERT
  5
14B67
330
13B63
100
AcDbEntity
  8
寸法
 62
     0
 48
50.0
370
    -2
100
AcDbBlockReference
  2
_DOTSMALL
 10
10280.00029700443
 20
2338.112805903254
 30
0.0
 41
100.0
 42
100.0
 43
100.0
 50
270.0
  0
INSERT
  5
14B68
330
13B63
100
AcDbEntity
  8
寸法
 62
     0
 48
50.0
370
    -2
100
AcDbBlockReference
  2
_DOTSMALL
 10
10280.00029700443
 20
2288.11280590325
 30
0.0
 41
100.0
 42
100.0
 43
100.0
 50
90.0
  0
MTEXT
  5
14B69
330
13B63
100
AcDbEntity
  8
寸法
 62
     7
 48
50.0
100
AcDbMText
 10
10180.00029700443
 20
1982.065561808763
 30
0.0
 40
120.0
 41
0.0
 71
     5
 72
     1
  1
\A1;50
  7
STYLE1
 11
0.0000000000000001
 21
1.0
 31
0.0
 73
     1
 44
1.0
1001
ACAD
1000
MTEXTBEGIN
1070
    73
1070
     1
1070
    44
1040
1.0
1070
    74
1070
     0
1000
MTEXTEND
  0
POINT
  5
14B6A
330
13B63
100
AcDbEntity
  8
DEFPOINTS
 62
     0
 48
50.0
100
AcDbPoint
 10
11123.75042618769
 20
2338.112805903254
 30
0.0
  0
POINT
  5
14B6B
330
13B63
100
AcDbEntity
  8
DEFPOINTS
 62
     0
 48
50.0
100
AcDbPoint
 10
11123.75042618769
 20
2288.11280590325
 30
0.0
  0
POINT
  5
14B6C
330
13B63
100
AcDbEntity
  8
DEFPOINTS
 62
     0
 48
50.0
100
AcDbPoint
 10
10280.00029700443
 20
2288.11280590325
 30
0.0
  0
ENDBLK
  5
13B70
330
13B63
100
AcDbEntity
  8
0
 48
50.0
100
AcDbBlockEnd
  0
BLOCK
  5
13B7B
330
13B71
100
AcDbEntity
  8
0
 48
50.0
100
AcDbBlockBegin
  2
*D23
 70
     1
 10
0.0
 20
0.0
 30
0.0
  3
*D23
  1

  0
LINE
  5
13E53
330
13B71
100
AcDbEntity
  8
寸法
 62
     0
 48
50.0
370
    -2
100
AcDbLine
 10
13773.75042618769
 20
2288.112805903256
 30
0.0
 11
14518.67758415982
 21
2288.112805903256
 31
0.0
  0
LINE
  5
13E54
330
13B71
100
AcDbEntity
  8
寸法
 62
     0
 48
50.0
370
    -2
100
AcDbLine
 10
13853.75042618769
 20
4608.112805903255
 30
0.0
 11
14518.67758415982
 21
4608.112805903254
 31
0.0
  0
LINE
  5
13E55
330
13B71
100
AcDbEntity
  8
寸法
 62
     0
 48
50.0
370
    -2
100
AcDbLine
 10
14458.67758415982
 20
2288.112805903256
 30
0.0
 11
14458.67758415982
 21
4608.112805903254
 31
0.0
  0
INSERT
  5
13E56
330
13B71
100
AcDbEntity
  8
寸法
 62
     0
 48
50.0
370
    -2
100
AcDbBlockReference
  2
_DOTSMALL
 10
14458.67758415982
 20
2288.112805903256
 30
0.0
 41
100.0
 42
100.0
 43
100.0
 50
270.0
  0
INSERT
  5
13E57
330
13B71
100
AcDbEntity
  8
寸法
 62
     0
 48
50.0
370
    -2
100
AcDbBlockReference
  2
_DOTSMALL
 10
14458.67758415982
 20
4608.112805903254
 30
0.0
 41
100.0
 42
100.0
 43
100.0
 50
90.0
  0
MTEXT
  5
13E58
330
13B71
100
AcDbEntity
  8
寸法
 62
     7
 48
50.0
100
AcDbMText
 10
14358.6657731362
 20
3448.112805903257
 30
0.0
 40
120.0
 41
0.0
 71
     5
 72
     1
  1
\A1;2320
  7
STYLE1
 11
0.0000000000000001
 21
1.0
 31
0.0
 73
     1
 44
1.0
1001
ACAD
1000
MTEXTBEGIN
1070
    73
1070
     1
1070
    44
1040
1.0
1070
    74
1070
     0
1000
MTEXTEND
  0
POINT
  5
13E59
330
13B71
100
AcDbEntity
  8
DEFPOINTS
 62
     0
 48
50.0
100
AcDbPoint
 10
13753.75042618769
 20
2288.112805903256
 30
0.0
  0
POINT
  5
13E5A
330
13B71
100
AcDbEntity
  8
DEFPOINTS
 62
     0
 48
50.0
100
AcDbPoint
 10
13833.75042618769
 20
4608.112805903255
 30
0.0
  0
POINT
  5
13E5B
330
13B71
100
AcDbEntity
  8
DEFPOINTS
 62
     0
 48
50.0
100
AcDbPoint
 10
14458.67758415982
 20
4608.112805903254
 30
0.0
  0
ENDBLK
  5
13B7C
330
13B71
100
AcDbEntity
  8
0
 48
50.0
100
AcDbBlockEnd
  0
BLOCK
  5
13B87
330
13B7D
100
AcDbEntity
  8
0
 48
50.0
100
AcDbBlockBegin
  2
*D24
 70
     1
 10
0.0
 20
0.0
 30
0.0
  3
*D24
  1

  0
LINE
  5
13E4A
330
13B7D
100
AcDbEntity
  8
寸法
 62
     0
 48
50.0
370
    -2
100
AcDbLine
 10
11103.75042618769
 20
2288.11280590325
 30
0.0
 11
9920.000297004429
 21
2288.11280590325
 31
0.0
  0
LINE
  5
13E4B
330
13B7D
100
AcDbEntity
  8
寸法
 62
     0
 48
50.0
370
    -2
100
AcDbLine
 10
11043.75042618769
 20
4663.112805903255
 30
0.0
 11
9920.000297004433
 21
4663.112805903256
 31
0.0
  0
LINE
  5
13E4C
330
13B7D
100
AcDbEntity
  8
寸法
 62
     0
 48
50.0
370
    -2
100
AcDbLine
 10
9980.00029700443
 20
2288.11280590325
 30
0.0
 11
9980.000297004432
 21
4663.112805903256
 31
0.0
  0
INSERT
  5
13E4D
330
13B7D
100
AcDbEntity
  8
寸法
 62
     0
 48
50.0
370
    -2
100
AcDbBlockReference
  2
_DOTSMALL
 10
9980.00029700443
 20
2288.11280590325
 30
0.0
 41
100.0
 42
100.0
 43
100.0
 50
270.0
  0
INSERT
  5
13E4E
330
13B7D
100
AcDbEntity
  8
寸法
 62
     0
 48
50.0
370
    -2
100
AcDbBlockReference
  2
_DOTSMALL
 10
9980.000297004432
 20
4663.112805903256
 30
0.0
 41
100.0
 42
100.0
 43
100.0
 50
90.0
  0
MTEXT
  5
13E4F
330
13B7D
100
AcDbEntity
  8
寸法
 62
     7
 48
50.0
100
AcDbMText
 10
9879.98848598081
 20
3475.612805903254
 30
0.0
 40
120.0
 41
0.0
 71
     5
 72
     1
  1
\A1;2375
  7
STYLE1
 11
0.0000000000000001
 21
1.0
 31
0.0
 73
     1
 44
1.0
1001
ACAD
1000
MTEXTBEGIN
1070
    73
1070
     1
1070
    44
1040
1.0
1070
    74
1070
     0
1000
MTEXTEND
  0
POINT
  5
13E50
330
13B7D
100
AcDbEntity
  8
DEFPOINTS
 62
     0
 48
50.0
100
AcDbPoint
 10
11123.75042618769
 20
2288.11280590325
 30
0.0
  0
POINT
  5
13E51
330
13B7D
100
AcDbEntity
  8
DEFPOINTS
 62
     0
 48
50.0
100
AcDbPoint
 10
11063.75042618769
 20
4663.112805903255
 30
0.0
  0
POINT
  5
13E52
330
13B7D
100
AcDbEntity
  8
DEFPOINTS
 62
     0
 48
50.0
100
AcDbPoint
 10
9980.000297004432
 20
4663.112805903256
 30
0.0
  0
ENDBLK
  5
13B88
330
13B7D
100
AcDbEntity
  8
0
 48
50.0
100
AcDbBlockEnd
  0
BLOCK
  5
13B93
330
13B89
100
AcDbEntity
  8
0
 48
50.0
100
AcDbBlockBegin
  2
*D25
 70
     1
 10
0.0
 20
0.0
 30
0.0
  3
*D25
  1

  0
LINE
  5
13E41
330
13B89
100
AcDbEntity
  8
寸法
 62
     0
 48
50.0
370
    -2
100
AcDbLine
 10
11103.75042618769
 20
4428.112805903251
 30
0.0
 11
10220.00029700443
 21
4428.112805903252
 31
0.0
  0
LINE
  5
13E42
330
13B89
100
AcDbEntity
  8
寸法
 62
     0
 48
50.0
370
    -2
100
AcDbLine
 10
11103.75042618769
 20
2338.11280590325
 30
0.0
 11
10220.00029700443
 21
2338.11280590325
 31
0.0
  0
LINE
  5
13E43
330
13B89
100
AcDbEntity
  8
寸法
 62
     0
 48
50.0
370
    -2
100
AcDbLine
 10
10280.00029700443
 20
4428.112805903251
 30
0.0
 11
10280.00029700443
 21
2338.11280590325
 31
0.0
  0
INSERT
  5
13E44
330
13B89
100
AcDbEntity
  8
寸法
 62
     0
 48
50.0
370
    -2
100
AcDbBlockReference
  2
_DOTSMALL
 10
10280.00029700443
 20
4428.112805903251
 30
0.0
 41
100.0
 42
100.0
 43
100.0
 50
90.0
  0
INSERT
  5
13E45
330
13B89
100
AcDbEntity
  8
寸法
 62
     0
 48
50.0
370
    -2
100
AcDbBlockReference
  2
_DOTSMALL
 10
10280.00029700443
 20
2338.11280590325
 30
0.0
 41
100.0
 42
100.0
 43
100.0
 50
270.0
  0
MTEXT
  5
13E46
330
13B89
100
AcDbEntity
  8
寸法
 62
     7
 48
50.0
100
AcDbMText
 10
10179.98848598081
 20
3383.112805903252
 30
0.0
 40
120.0
 41
0.0
 71
     5
 72
     1
  1
\A1;2090
  7
STYLE1
 11
0.0000000000000001
 21
1.0
 31
0.0
 73
     1
 44
1.0
1001
ACAD
1000
MTEXTBEGIN
1070
    73
1070
     1
1070
    44
1040
1.0
1070
    74
1070
     0
1000
MTEXTEND
  0
POINT
  5
13E47
330
13B89
100
AcDbEntity
  8
DEFPOINTS
 62
     0
 48
50.0
100
AcDbPoint
 10
11123.75042618769
 20
4428.112805903251
 30
0.0
  0
POINT
  5
13E48
330
13B89
100
AcDbEntity
  8
DEFPOINTS
 62
     0
 48
50.0
100
AcDbPoint
 10
11123.75042618769
 20
2338.11280590325
 30
0.0
  0
POINT
  5
13E49
330
13B89
100
AcDbEntity
  8
DEFPOINTS
 62
     0
 48
50.0
100
AcDbPoint
 10
10280.00029700443
 20
2338.11280590325
 30
0.0
  0
ENDBLK
  5
13B94
330
13B89
100
AcDbEntity
  8
0
 48
50.0
100
AcDbBlockEnd
  0
BLOCK
  5
144D4
330
144CA
100
AcDbEntity
  8
0
 48
50.0
100
AcDbBlockBegin
  2
*D26
 70
     1
 10
0.0
 20
0.0
 30
0.0
  3
*D26
  1

  0
LINE
  5
14C1F
330
144CA
100
AcDbEntity
  8
寸法
 62
     0
 48
50.0
370
    -2
100
AcDbLine
 10
2981.350663344681
 20
7120.729096344955
 30
0.0
 11
2981.350663344681
 21
6119.583195211191
 31
0.0
  0
LINE
  5
14C20
330
144CA
100
AcDbEntity
  8
寸法
 62
     0
 48
50.0
370
    -2
100
AcDbLine
 10
5611.350663344683
 20
7175.729096344955
 30
0.0
 11
5611.350663344683
 21
6119.583195211191
 31
0.0
  0
LINE
  5
14C21
330
144CA
100
AcDbEntity
  8
寸法
 62
     0
 48
50.0
370
    -2
100
AcDbLine
 10
3001.350663344681
 20
6159.583195211191
 30
0.0
 11
5591.350663344682
 21
6159.583195211191
 31
0.0
  0
INSERT
  5
14C22
330
144CA
100
AcDbEntity
  8
寸法
 62
     0
 48
50.0
370
    -2
100
AcDbBlockReference
  2
_DOT
 10
2981.350663344681
 20
6159.583195211191
 30
0.0
 41
20.0
 42
20.0
 43
20.0
 50
180.0
  0
INSERT
  5
14C23
330
144CA
100
AcDbEntity
  8
寸法
 62
     0
 48
50.0
370
    -2
100
AcDbBlockReference
  2
_DOT
 10
5611.350663344683
 20
6159.583195211191
 30
0.0
 41
20.0
 42
20.0
 43
20.0
  0
MTEXT
  5
14C24
330
144CA
100
AcDbEntity
  8
寸法
 62
     7
 48
50.0
100
AcDbMText
 10
4296.350663344681
 20
6251.595006234813
 30
0.0
 40
120.0
 41
0.0
 71
     5
 72
     1
  1
\A1;2630
  7
STYLE1
 73
     1
 44
1.0
1001
ACAD
1000
MTEXTBEGIN
1070
    73
1070
     1
1070
    44
1040
1.0
1070
    74
1070
     0
1000
MTEXTEND
  0
POINT
  5
14C25
330
144CA
100
AcDbEntity
  8
DEFPOINTS
 62
     0
 48
50.0
100
AcDbPoint
 10
2981.350663344681
 20
7140.729096344955
 30
0.0
  0
POINT
  5
14C26
330
144CA
100
AcDbEntity
  8
DEFPOINTS
 62
     0
 48
50.0
100
AcDbPoint
 10
5611.350663344683
 20
7195.729096344955
 30
0.0
  0
POINT
  5
14C27
330
144CA
100
AcDbEntity
  8
DEFPOINTS
 62
     0
 48
50.0
100
AcDbPoint
 10
5611.350663344683
 20
6159.583195211191
 30
0.0
  0
ENDBLK
  5
144D5
330
144CA
100
AcDbEntity
  8
0
 48
50.0
100
AcDbBlockEnd
  0
BLOCK
  5
144E0
330
144D6
100
AcDbEntity
  8
0
 48
50.0
100
AcDbBlockBegin
  2
*D27
 70
     1
 10
0.0
 20
0.0
 30
0.0
  3
*D27
  1

  0
LINE
  5
14C16
330
144D6
100
AcDbEntity
  8
寸法
 62
     0
 48
50.0
370
    -2
100
AcDbLine
 10
5611.350663344683
 20
7175.729096344952
 30
0.0
 11
5611.350663344683
 21
6119.583195211191
 31
0.0
  0
LINE
  5
14C17
330
144D6
100
AcDbEntity
  8
寸法
 62
     0
 48
50.0
370
    -2
100
AcDbLine
 10
8241.350663344681
 20
7120.729096344955
 30
0.0
 11
8241.350663344681
 21
6119.583195211191
 31
0.0
  0
LINE
  5
14C18
330
144D6
100
AcDbEntity
  8
寸法
 62
     0
 48
50.0
370
    -2
100
AcDbLine
 10
5631.350663344682
 20
6159.583195211191
 30
0.0
 11
8221.350663344681
 21
6159.583195211191
 31
0.0
  0
INSERT
  5
14C19
330
144D6
100
AcDbEntity
  8
寸法
 62
     0
 48
50.0
370
    -2
100
AcDbBlockReference
  2
_DOT
 10
5611.350663344683
 20
6159.583195211191
 30
0.0
 41
20.0
 42
20.0
 43
20.0
 50
180.0
  0
INSERT
  5
14C1A
330
144D6
100
AcDbEntity
  8
寸法
 62
     0
 48
50.0
370
    -2
100
AcDbBlockReference
  2
_DOT
 10
8241.350663344681
 20
6159.583195211191
 30
0.0
 41
20.0
 42
20.0
 43
20.0
  0
MTEXT
  5
14C1B
330
144D6
100
AcDbEntity
  8
寸法
 62
     7
 48
50.0
100
AcDbMText
 10
6926.350663344681
 20
6251.595006234813
 30
0.0
 40
120.0
 41
0.0
 71
     5
 72
     1
  1
\A1;2630
  7
STYLE1
 73
     1
 44
1.0
1001
ACAD
1000
MTEXTBEGIN
1070
    73
1070
     1
1070
    44
1040
1.0
1070
    74
1070
     0
1000
MTEXTEND
  0
POINT
  5
14C1C
330
144D6
100
AcDbEntity
  8
DEFPOINTS
 62
     0
 48
50.0
100
AcDbPoint
 10
5611.350663344683
 20
7195.729096344951
 30
0.0
  0
POINT
  5
14C1D
330
144D6
100
AcDbEntity
  8
DEFPOINTS
 62
     0
 48
50.0
100
AcDbPoint
 10
8241.350663344681
 20
7140.729096344955
 30
0.0
  0
POINT
  5
14C1E
330
144D6
100
AcDbEntity
  8
DEFPOINTS
 62
     0
 48
50.0
100
AcDbPoint
 10
8241.350663344681
 20
6159.583195211191
 30
0.0
  0
ENDBLK
  5
144E1
330
144D6
100
AcDbEntity
  8
0
 48
50.0
100
AcDbBlockEnd
  0
BLOCK
  5
14B07
330
14AFB
100
AcDbEntity
  8
0
 48
50.0
100
AcDbBlockBegin
  2
*D28
 70
     1
 10
0.0
 20
0.0
 30
0.0
  3
*D28
  1

  0
LINE
  5
14B4A
330
14AFB
100
AcDbEntity
  8
寸法
 62
     0
 48
50.0
370
    -2
100
AcDbLine
 10
3381.350663344682
 20
7140.72909634495
 30
0.0
 11
3194.56888205994
 21
7140.72909634495
 31
0.0
  0
LINE
  5
14B4B
330
14AFB
100
AcDbEntity
  8
寸法
 62
     0
 48
50.0
370
    -2
100
AcDbLine
 10
3431.850663344682
 20
7095.729096344962
 30
0.0
 11
3194.56888205994
 21
7095.729096344962
 31
0.0
  0
LINE
  5
14B4C
330
14AFB
100
AcDbEntity
  8
寸法
 62
     0
 48
50.0
370
    -2
100
AcDbLine
 10
3254.56888205994
 20
7140.72909634495
 30
0.0
 11
3254.56888205994
 21
7240.729096344949
 31
0.0
  0
LINE
  5
14B4D
330
14AFB
100
AcDbEntity
  8
寸法
 62
     0
 48
50.0
370
    -2
100
AcDbLine
 10
3254.56888205994
 20
7095.729096344962
 30
0.0
 11
3254.56888205994
 21
6666.758533596478
 31
0.0
  0
LINE
  5
14B4E
330
14AFB
100
AcDbEntity
  8
寸法
 62
     0
 48
50.0
370
    -2
100
AcDbLine
 10
3254.56888205994
 20
7140.72909634495
 30
0.0
 11
3254.56888205994
 21
7095.729096344962
 31
0.0
  0
INSERT
  5
14B4F
330
14AFB
100
AcDbEntity
  8
寸法
 62
     0
 48
50.0
370
    -2
100
AcDbBlockReference
  2
_DOTSMALL
 10
3254.56888205994
 20
7140.72909634495
 30
0.0
 41
100.0
 42
100.0
 43
100.0
 50
270.0
  0
INSERT
  5
14B50
330
14AFB
100
AcDbEntity
  8
寸法
 62
     0
 48
50.0
370
    -2
100
AcDbBlockReference
  2
_DOTSMALL
 10
3254.56888205994
 20
7095.729096344962
 30
0.0
 41
100.0
 42
100.0
 43
100.0
 50
90.0
  0
MTEXT
  5
14B51
330
14AFB
100
AcDbEntity
  8
寸法
 62
     7
 48
50.0
100
AcDbMText
 10
3154.568882059939
 20
6781.243814970719
 30
0.0
 40
120.0
 41
0.0
 71
     5
 72
     1
  1
\A1;45
  7
STYLE1
 11
0.0000000000000001
 21
1.0
 31
0.0
 73
     1
 44
1.0
1001
ACAD
1000
MTEXTBEGIN
1070
    73
1070
     1
1070
    44
1040
1.0
1070
    74
1070
     0
1000
MTEXTEND
  0
POINT
  5
14B52
330
14AFB
100
AcDbEntity
  8
DEFPOINTS
 62
     0
 48
50.0
100
AcDbPoint
 10
3401.350663344682
 20
7140.72909634495
 30
0.0
  0
POINT
  5
14B53
330
14AFB
100
AcDbEntity
  8
DEFPOINTS
 62
     0
 48
50.0
100
AcDbPoint
 10
3451.850663344681
 20
7095.729096344962
 30
0.0
  0
POINT
  5
14B54
330
14AFB
100
AcDbEntity
  8
DEFPOINTS
 62
     0
 48
50.0
100
AcDbPoint
 10
3254.56888205994
 20
7095.729096344962
 30
0.0
  0
ENDBLK
  5
14B08
330
14AFB
100
AcDbEntity
  8
0
 48
50.0
100
AcDbBlockEnd
  0
BLOCK
  5
14B13
330
14B09
100
AcDbEntity
  8
0
 48
50.0
100
AcDbBlockBegin
  2
*D29
 70
     1
 10
0.0
 20
0.0
 30
0.0
  3
*D29
  1

  0
LINE
  5
14B41
330
14B09
100
AcDbEntity
  8
寸法
 62
     0
 48
50.0
370
    -2
100
AcDbLine
 10
4300.850663344681
 20
7075.629096344965
 30
0.0
 11
4300.850663344681
 21
6570.708203585642
 31
0.0
  0
LINE
  5
14B42
330
14B09
100
AcDbEntity
  8
寸法
 62
     0
 48
50.0
370
    -2
100
AcDbLine
 10
3451.850663344681
 20
7075.629096344961
 30
0.0
 11
3451.850663344681
 21
6570.708203585642
 31
0.0
  0
LINE
  5
14B43
330
14B09
100
AcDbEntity
  8
寸法
 62
     0
 48
50.0
370
    -2
100
AcDbLine
 10
4300.850663344681
 20
6630.708203585641
 30
0.0
 11
3451.850663344681
 21
6630.708203585641
 31
0.0
  0
INSERT
  5
14B44
330
14B09
100
AcDbEntity
  8
寸法
 62
     0
 48
50.0
370
    -2
100
AcDbBlockReference
  2
_DOTSMALL
 10
4300.850663344681
 20
6630.708203585641
 30
0.0
 41
100.0
 42
100.0
 43
100.0
  0
INSERT
  5
14B45
330
14B09
100
AcDbEntity
  8
寸法
 62
     0
 48
50.0
370
    -2
100
AcDbBlockReference
  2
_DOTSMALL
 10
3451.850663344681
 20
6630.708203585641
 30
0.0
 41
100.0
 42
100.0
 43
100.0
 50
180.0
  0
MTEXT
  5
14B46
330
14B09
100
AcDbEntity
  8
寸法
 62
     7
 48
50.0
100
AcDbMText
 10
3876.350663344682
 20
6730.708203585641
 30
0.0
 40
120.0
 41
0.0
 71
     5
 72
     1
  1
\A1;849
  7
STYLE1
 73
     1
 44
1.0
1001
ACAD
1000
MTEXTBEGIN
1070
    73
1070
     1
1070
    44
1040
1.0
1070
    74
1070
     0
1000
MTEXTEND
  0
POINT
  5
14B47
330
14B09
100
AcDbEntity
  8
DEFPOINTS
 62
     0
 48
50.0
100
AcDbPoint
 10
4300.850663344681
 20
7095.629096344966
 30
0.0
  0
POINT
  5
14B48
330
14B09
100
AcDbEntity
  8
DEFPOINTS
 62
     0
 48
50.0
100
AcDbPoint
 10
3451.850663344681
 20
7095.629096344961
 30
0.0
  0
POINT
  5
14B49
330
14B09
100
AcDbEntity
  8
DEFPOINTS
 62
     0
 48
50.0
100
AcDbPoint
 10
3451.850663344681
 20
6630.708203585641
 30
0.0
  0
ENDBLK
  5
14B14
330
14B09
100
AcDbEntity
  8
0
 48
50.0
100
AcDbBlockEnd
  0
BLOCK
  5
14B1F
330
14B15
100
AcDbEntity
  8
0
 48
50.0
100
AcDbBlockBegin
  2
*D30
 70
     1
 10
0.0
 20
0.0
 30
0.0
  3
*D30
  1

  0
LINE
  5
14B59
330
14B15
100
AcDbEntity
  8
寸法
 62
     0
 48
50.0
370
    -2
100
AcDbLine
 10
11058.75042618769
 20
4390.112805903253
 30
0.0
 11
10710.84933134114
 21
4390.112805903253
 31
0.0
  0
LINE
  5
14B5A
330
14B15
100
AcDbEntity
  8
寸法
 62
     0
 48
50.0
370
    -2
100
AcDbLine
 10
11058.75042618769
 20
2350.112805903254
 30
0.0
 11
10710.84933134114
 21
2350.112805903254
 31
0.0
  0
LINE
  5
14B5B
330
14B15
100
AcDbEntity
  8
寸法
 62
     0
 48
50.0
370
    -2
100
AcDbLine
 10
10770.84933134114
 20
4390.112805903253
 30
0.0
 11
10770.84933134114
 21
2350.112805903254
 31
0.0
  0
INSERT
  5
14B5C
330
14B15
100
AcDbEntity
  8
寸法
 62
     0
 48
50.0
370
    -2
100
AcDbBlockReference
  2
_DOTSMALL
 10
10770.84933134114
 20
4390.112805903253
 30
0.0
 41
100.0
 42
100.0
 43
100.0
 50
90.0
  0
INSERT
  5
14B5D
330
14B15
100
AcDbEntity
  8
寸法
 62
     0
 48
50.0
370
    -2
100
AcDbBlockReference
  2
_DOTSMALL
 10
10770.84933134114
 20
2350.112805903254
 30
0.0
 41
100.0
 42
100.0
 43
100.0
 50
270.0
  0
MTEXT
  5
14B5E
330
14B15
100
AcDbEntity
  8
寸法
 62
     7
 48
50.0
100
AcDbMText
 10
10670.83752031752
 20
3370.112805903256
 30
0.0
 40
120.0
 41
0.0
 71
     5
 72
     1
  1
\A1;有効開口部高サ2040
  7
STYLE1
 11
0.0000000000000001
 21
1.0
 31
0.0
 73
     1
 44
1.0
1001
ACAD
1000
MTEXTBEGIN
1070
    73
1070
     1
1070
    44
1040
1.0
1070
    74
1070
     0
1000
MTEXTEND
  0
POINT
  5
14B5F
330
14B15
100
AcDbEntity
  8
DEFPOINTS
 62
     0
 48
50.0
100
AcDbPoint
 10
11078.75042618769
 20
4390.112805903253
 30
0.0
  0
POINT
  5
14B60
330
14B15
100
AcDbEntity
  8
DEFPOINTS
 62
     0
 48
50.0
100
AcDbPoint
 10
11078.75042618769
 20
2350.112805903254
 30
0.0
  0
POINT
  5
14B61
330
14B15
100
AcDbEntity
  8
DEFPOINTS
 62
     0
 48
50.0
100
AcDbPoint
 10
10770.84933134114
 20
2350.112805903254
 30
0.0
  0
ENDBLK
  5
14B20
330
14B15
100
AcDbEntity
  8
0
 48
50.0
100
AcDbBlockEnd
  0
ENDSEC
  0
SECTION
  2
ENTITIES
  0
MTEXT
  5
763F
330
747D
100
AcDbEntity
  8
0
100
AcDbMText
 10
302.846345836809
 20
280.1983726409901
 30
0.0
 40
3.5
 41
5.323721266742722
 71
     1
 72
     5
  1

  7
MSMINCHO
 73
     1
 44
1.0
1001
ACAD
1000
MTEXTBEGIN
1070
    73
1070
     1
1070
    44
1040
1.0
1070
    74
1070
     0
1000
MTEXTEND
  0
INSERT
  5
F235
330
747D
100
AcDbEntity
  8
0
100
AcDbBlockReference
  2
作図枠S50
 10
0.0
 20
0.0
 30
0.0
 41
0.8
 42
0.8
 43
0.8
  0
LINE
  5
10B56
330
747D
100
AcDbEntity
  8
補助
  6
PHANTOM
 62
   230
 48
50.0
100
AcDbLine
 10
140.0
 20
0.0
 30
0.0
 11
139.9999999999995
 21
11409.6
 31
0.0
  0
LINE
  5
10B57
330
747D
100
AcDbEntity
  8
補助
  6
PHANTOM
 62
   230
 48
50.0
100
AcDbLine
 10
139.9999999999995
 20
11409.6
 30
0.0
 11
16307.2
 21
11409.6
 31
0.0
  0
LINE
  5
10B59
330
747D
100
AcDbEntity
  8
仕様書枠
  6
Continuous
 48
50.0
100
AcDbLine
 10
13107.2
 20
1200.0
 30
0.0
 11
13107.2
 21
-0.0000000000000729
 31
0.0
  0
LINE
  5
10B5C
330
747D
100
AcDbEntity
  8
仕様書枠
 48
50.0
100
AcDbLine
 10
16307.2
 20
1200.0
 30
0.0
 11
16307.2
 21
-0.0000000000000909
 31
0.0
  0
LINE
  5
10B5D
330
747D
100
AcDbEntity
  8
仕様書枠
 48
50.0
100
AcDbLine
 10
140.0
 20
0.0
 30
0.0
 11
16307.2
 21
-0.0000000000000909
 31
0.0
  0
LINE
  5
10B5E
330
747D
100
AcDbEntity
  8
補助
  6
PHANTOM
 62
   230
 48
50.0
100
AcDbLine
 10
16307.2
 20
11409.6
 30
0.0
 11
16307.2
 21
1200.0
 31
0.0
  0
LINE
  5
10B6C
330
747D
100
AcDbEntity
  8
仕様書枠
 48
50.0
100
AcDbLine
 10
13107.2
 20
1200.0
 30
0.0
 11
16307.2
 21
1200.0
 31
0.0
  0
LINE
  5
10B6D
330
747D
100
AcDbEntity
  8
補助
  6
PHANTOM
 62
   230
 48
50.0
100
AcDbLine
 10
13107.2
 20
11409.6
 30
0.0
 11
13107.2
 21
4800.0
 31
0.0
  0
LINE
  5
10B6F
330
747D
100
AcDbEntity
  8
補助
  6
PHANTOM
 62
   230
 48
50.0
100
AcDbLine
 10
13107.2
 20
4800.0
 30
0.0
 11
16307.2
 21
4800.0
 31
0.0
  0
LINE
  5
10B72
330
747D
100
AcDbEntity
  8
文字
 62
     7
 48
50.0
100
AcDbLine
 10
13187.2
 20
400.0
 30
0.0
 11
16227.2
 21
400.0
 31
0.0
  0
TEXT
  5
10B73
330
747D
100
AcDbEntity
  8
文字
 62
     7
 48
50.0
100
AcDbText
 10
13162.9790565769
 20
895.0906074299405
 30
0.0
 40
200.0
  1
外 形 図
  7
STYLE2
100
AcDbText
  0
TEXT
  5
10B74
330
747D
100
AcDbEntity
  8
文字
 62
     7
 48
50.0
100
AcDbText
 10
13201.43669998441
 20
477.2740661031255
 30
0.0
 40
160.0
  1
機種名
  7
STYLE2
100
AcDbText
  0
TEXT
  5
10B76
330
747D
100
AcDbEntity
  8
文字
 62
     7
 48
50.0
100
AcDbText
 10
13209.4053442172
 20
76.09434707649343
 30
0.0
 40
100.0
  1
○床面積 ： 13.87㎡(4.20坪) 　
  7
STYLE2
100
AcDbText
  0
TEXT
  5
10B79
330
747D
100
AcDbEntity
  8
文字
 62
     7
 48
50.0
100
AcDbText
 10
14524.131837222
 20
1031.557706291228
 30
0.0
 40
100.0
  1
NO.67     <縮尺> S=1/40
  7
STYLE2
100
AcDbText
  0
LINE
  5
10B7B
330
747D
100
AcDbEntity
  8
仕様書枠
 48
50.0
100
AcDbLine
 10
13107.2
 20
800.0
 30
0.0
 11
14251.2
 21
800.0
 31
0.0
  0
LINE
  5
10B88
330
747D
100
AcDbEntity
  8
仕様書枠
  6
Continuous
 48
50.0
100
AcDbLine
 10
14251.2
 20
1200.0
 30
0.0
 11
14251.2
 21
800.0
 31
0.0
  0
TEXT
  5
10EA8
330
747D
100
AcDbEntity
  8
文字
 62
     7
 48
50.0
100
AcDbText
 10
14606.49559096696
 20
838.2527270729188
 30
0.0
 40
100.0
  1
～一般型～
  7
STYLE2
100
AcDbText
  0
LINE
  5
13240
330
747D
100
AcDbEntity
  8
細線
 48
50.0
100
AcDbLine
 10
3378.850663344685
 20
4428.112805903256
 30
0.0
 11
3378.850663344689
 21
2338.112805903256
 31
0.0
  0
LINE
  5
13241
330
747D
100
AcDbEntity
  8
細線
 48
50.0
100
AcDbLine
 10
3393.850663344685
 20
4428.112805903256
 30
0.0
 11
3393.850663344688
 21
2338.112805903256
 31
0.0
  0
LINE
  5
13242
330
747D
100
AcDbEntity
  8
細線
 48
50.0
100
AcDbLine
 10
3253.850663344685
 20
4428.112805903256
 30
0.0
 11
3253.850663344689
 21
2338.112805903256
 31
0.0
  0
LINE
  5
13243
330
747D
100
AcDbEntity
  8
細線
 48
50.0
100
AcDbLine
 10
3238.850663344685
 20
4428.112805903256
 30
0.0
 11
3238.850663344689
 21
2338.112805903256
 31
0.0
  0
LINE
  5
13244
330
747D
100
AcDbEntity
  8
細線
 48
50.0
100
AcDbLine
 10
3098.850663344685
 20
4428.112805903256
 30
0.0
 11
3098.850663344689
 21
2338.112805903256
 31
0.0
  0
LINE
  5
13245
330
747D
100
AcDbEntity
  8
細線
 48
50.0
100
AcDbLine
 10
3113.850663344685
 20
4428.112805903256
 30
0.0
 11
3113.850663344689
 21
2338.112805903256
 31
0.0
  0
LINE
  5
13246
330
747D
100
AcDbEntity
  8
部品1
100
AcDbLine
 10
8213.35066334468
 20
8875.72909634496
 30
0.0
 11
8241.350663344681
 21
8875.72909634496
 31
0.0
  0
LINE
  5
13247
330
747D
100
AcDbEntity
  8
部品1
100
AcDbLine
 10
5666.350663344681
 20
8875.729096344958
 30
0.0
 11
8186.350663344681
 21
8875.729096344958
 31
0.0
  0
LINE
  5
13248
330
747D
100
AcDbEntity
  8
部品1
100
AcDbLine
 10
3009.350663344682
 20
8875.72909634496
 30
0.0
 11
2981.350663344681
 21
8875.72909634496
 31
0.0
  0
LINE
  5
13249
330
747D
100
AcDbEntity
  8
部品1
100
AcDbLine
 10
5556.350663344681
 20
8875.729096344958
 30
0.0
 11
3036.350663344681
 21
8875.729096344954
 31
0.0
  0
DIMENSION
  5
1324A
330
747D
100
AcDbEntity
  8
寸法
 48
50.0
100
AcDbDimension
  2
*D3
 10
8241.350663344681
 20
10145.44150636375
 30
0.0
 11
8635.517330011349
 21
10145.44150636375
 31
0.0
 70
   160
 71
     5
 42
55.0
  3
INABA_S40
100
AcDbAlignedDimension
 13
8186.350663344681
 23
9770.729096344958
 33
0.0
 14
8241.350663344681
 24
9770.729096344958
 34
0.0
100
AcDbRotatedDimension
1001
ACAD
1000
DSTYLE
1002
{
1070
   287
1070
     3
1070
    41
1040
0.5
1070
    44
1040
1.0
1070
   147
1040
0.8
1070
   271
1070
     2
1070
   272
1070
     2
1070
   289
1070
     3
1070
   340
1005
F706
1070
     6
1000
DOT
1070
     7
1000
DOT
1002
}
  0
DIMENSION
  5
1324B
330
747D
100
AcDbEntity
  8
寸法
 48
50.0
100
AcDbDimension
  2
*D4
 10
9312.097780389034
 20
7140.729096344955
 30
0.0
 11
9220.085969365412
 21
8455.729096344958
 31
0.0
 70
    32
 71
     5
 42
2630.000000000001
  3
INABA_S40
100
AcDbAlignedDimension
 13
8241.350663344681
 23
9770.729096344958
 33
0.0
 14
8241.350663344681
 24
7140.729096344955
 34
0.0
 50
90.0
100
AcDbRotatedDimension
1001
ACAD
1000
DSTYLE
1002
{
1070
   287
1070
     3
1070
    41
1040
0.5
1070
    44
1040
1.0
1070
   147
1040
0.8
1070
   271
1070
     2
1070
   272
1070
     2
1070
   289
1070
     3
1070
   340
1005
F706
1070
     6
1000
DOT
1070
     7
1000
DOT
1002
}
  0
DIMENSION
  5
1324C
330
747D
100
AcDbEntity
  8
寸法
 48
50.0
100
AcDbDimension
  2
*D5
 10
9012.097780389037
 20
7140.729096344955
 30
0.0
 11
9012.097780389034
 21
6746.562429678291
 31
0.0
 70
   160
 71
     5
 42
54.99999999999727
  3
INABA_S40
100
AcDbAlignedDimension
 13
8241.350663344681
 23
7195.729096344952
 33
0.0
 14
8241.350663344681
 24
7140.729096344955
 34
0.0
 50
90.0
100
AcDbRotatedDimension
1001
ACAD
1000
DSTYLE
1002
{
1070
   287
1070
     3
1070
    41
1040
0.5
1070
    44
1040
1.0
1070
   147
1040
0.8
1070
   271
1070
     2
1070
   272
1070
     2
1070
   289
1070
     3
1070
   340
1005
F706
1070
     6
1000
DOT
1070
     7
1000
DOT
1002
}
  0
DIMENSION
  5
1324D
330
747D
100
AcDbEntity
  8
寸法
 48
50.0
100
AcDbDimension
  2
*D6
 10
9012.097780389034
 20
7195.729096344952
 30
0.0
 11
8920.085969365411
 21
8455.729096344958
 31
0.0
 70
    32
  1
6X420=<>
 71
     5
 42
2520.000000000008
  3
INABA_S40
100
AcDbAlignedDimension
 13
8241.350663344681
 23
9715.72909634496
 33
0.0
 14
8241.350663344681
 24
7195.729096344952
 34
0.0
 50
90.0
100
AcDbRotatedDimension
1001
ACAD
1000
DSTYLE
1002
{
1070
   287
1070
     3
1070
    41
1040
0.5
1070
    44
1040
1.0
1070
   147
1040
0.8
1070
   271
1070
     2
1070
   272
1070
     2
1070
   289
1070
     3
1070
   340
1005
F706
1070
     6
1000
DOT
1070
     7
1000
DOT
1002
}
  0
DIMENSION
  5
1324E
330
747D
100
AcDbEntity
  8
寸法
 48
50.0
100
AcDbDimension
  2
*D7
 10
9012.097780389037
 20
9715.72909634496
 30
0.0
 11
9012.097780389034
 21
10164.89576301162
 31
0.0
 70
   160
 71
     5
 42
54.99999999999636
  3
INABA_S40
100
AcDbAlignedDimension
 13
8241.350663344681
 23
9770.729096344958
 33
0.0
 14
8241.350663344681
 24
9715.72909634496
 34
0.0
 50
90.0
100
AcDbRotatedDimension
1001
ACAD
1000
DSTYLE
1002
{
1070
   287
1070
     3
1070
    41
1040
0.5
1070
    44
1040
1.0
1070
   147
1040
0.8
1070
   271
1070
     2
1070
   272
1070
     2
1070
   289
1070
     3
1070
   340
1005
F706
1070
     6
1000
DOT
1070
     7
1000
DOT
1002
}
  0
LINE
  5
1324F
330
747D
100
AcDbEntity
  8
Ｇ_Ｌ
 48
50.0
100
AcDbLine
 10
1717.483276118539
 20
2188.112805903255
 30
0.0
 11
14588.71307283783
 21
2188.112805903255
 31
0.0
  0
LINE
  5
13250
330
747D
100
AcDbEntity
  8
部品1
100
AcDbLine
 10
2981.350663344681
 20
4428.112805903256
 30
0.0
 11
8241.350663344681
 21
4428.112805903256
 31
0.0
  0
LINE
  5
13251
330
747D
100
AcDbEntity
  8
部品1
100
AcDbLine
 10
2981.350663344681
 20
2288.112805903256
 30
0.0
 11
5611.350663344683
 21
2288.112805903256
 31
0.0
  0
LINE
  5
13252
330
747D
100
AcDbEntity
  8
部品1
100
AcDbLine
 10
3036.350663344681
 20
4428.112805903256
 30
0.0
 11
3036.350663344681
 21
2338.112805903254
 31
0.0
  0
LINE
  5
13253
330
747D
100
AcDbEntity
  8
部品1
100
AcDbLine
 10
2981.350663344681
 20
4522.112805903261
 30
0.0
 11
2981.350663344681
 21
2188.112805903255
 31
0.0
  0
TEXT
  5
13254
330
747D
100
AcDbEntity
  8
部品1
100
AcDbText
 10
2148.419967996946
 20
2202.954510774245
 30
0.0
 40
125.0
  1
G.L
  7
MSGOTHIC
100
AcDbText
  0
LINE
  5
13255
330
747D
100
AcDbEntity
  8
部品1
100
AcDbLine
 10
2005.936014297127
 20
2292.035854357388
 30
0.0
 11
2125.936014297127
 21
2292.035854357388
 31
0.0
  0
LINE
  5
13256
330
747D
100
AcDbEntity
  8
部品1
100
AcDbLine
 10
2125.936014297127
 20
2292.035854357388
 30
0.0
 11
2065.936014297127
 21
2188.112805903255
 31
0.0
  0
LINE
  5
13257
330
747D
100
AcDbEntity
  8
部品1
100
AcDbLine
 10
2065.936014297127
 20
2188.112805903255
 30
0.0
 11
2005.936014297127
 21
2292.035854357388
 31
0.0
  0
LINE
  5
13259
330
747D
100
AcDbEntity
  8
部品1
100
AcDbLine
 10
5611.350663344682
 20
2288.112805903256
 30
0.0
 11
8241.350663344681
 21
2288.112805903256
 31
0.0
  0
LINE
  5
1325A
330
747D
100
AcDbEntity
  8
部品1
 48
50.0
100
AcDbLine
 10
5611.350663344682
 20
2338.112805903254
 30
0.0
 11
8241.350663344681
 21
2338.112805903254
 31
0.0
  0
LINE
  5
1325B
330
747D
100
AcDbEntity
  8
部品1
100
AcDbLine
 10
5666.350663344681
 20
4428.112805903256
 30
0.0
 11
5666.350663344681
 21
2338.112805903254
 31
0.0
  0
LINE
  5
1325C
330
747D
100
AcDbEntity
  8
部品1
100
AcDbLine
 10
6086.350663344681
 20
4428.112805903256
 30
0.0
 11
6086.350663344681
 21
2338.112805903254
 31
0.0
  0
LINE
  5
1325D
330
747D
100
AcDbEntity
  8
部品1
 48
50.0
100
AcDbLine
 10
5611.350663344682
 20
2338.112805903254
 30
0.0
 11
4300.850663344657
 21
2338.112805903254
 31
0.0
  0
LINE
  5
1325E
330
747D
100
AcDbEntity
  8
部品1
100
AcDbLine
 10
5611.350663344682
 20
2338.112805903254
 30
0.0
 11
5611.350663344683
 21
2288.112805903256
 31
0.0
  0
LINE
  5
1325F
330
747D
100
AcDbEntity
  8
部品1
100
AcDbLine
 10
5611.350663344682
 20
4428.112805903256
 30
0.0
 11
5611.350663344682
 21
4522.11280590326
 31
0.0
  0
LINE
  5
13260
330
747D
100
AcDbEntity
  8
部品1
100
AcDbLine
 10
7346.350663344695
 20
4428.112805903256
 30
0.0
 11
7346.350663344693
 21
2338.112805903254
 31
0.0
  0
LINE
  5
13261
330
747D
100
AcDbEntity
  8
部品1
100
AcDbLine
 10
6926.350663344696
 20
4428.112805903256
 30
0.0
 11
6926.350663344692
 21
2338.112805903254
 31
0.0
  0
LINE
  5
13262
330
747D
100
AcDbEntity
  8
部品1
100
AcDbLine
 10
6926.350663344681
 20
4428.112805903256
 30
0.0
 11
6926.350663344681
 21
2338.112805903254
 31
0.0
  0
LINE
  5
13263
330
747D
100
AcDbEntity
  8
部品1
100
AcDbLine
 10
6506.350663344682
 20
4428.112805903256
 30
0.0
 11
6506.350663344682
 21
2338.112805903254
 31
0.0
  0
LINE
  5
13264
330
747D
100
AcDbEntity
  8
部品1
100
AcDbLine
 10
7766.350663344681
 20
4428.112805903257
 30
0.0
 11
7766.350663344667
 21
2338.112805903254
 31
0.0
  0
LINE
  5
13265
330
747D
100
AcDbEntity
  8
部品1
100
AcDbLine
 10
8186.350663344681
 20
4428.112805903256
 30
0.0
 11
8186.350663344681
 21
2338.112805903254
 31
0.0
  0
LINE
  5
13266
330
747D
100
AcDbEntity
  8
部品1
100
AcDbLine
 10
8241.350663344681
 20
4522.112805903261
 30
0.0
 11
8241.350663344681
 21
2188.112805903255
 31
0.0
  0
LINE
  5
13267
330
747D
100
AcDbEntity
  8
部品1
100
AcDbLine
 10
3036.350663344678
 20
9715.729096344958
 30
0.0
 11
5556.350663344681
 21
9715.729096344965
 31
0.0
  0
LINE
  5
13268
330
747D
100
AcDbEntity
  8
部品1
100
AcDbLine
 10
3876.350663344682
 20
9742.729096344964
 30
0.0
 11
3009.350663344682
 21
9742.729096344959
 31
0.0
  0
LINE
  5
13269
330
747D
100
AcDbEntity
  8
部品1
100
AcDbLine
 10
5556.350663344681
 20
7615.72909634496
 30
0.0
 11
3036.350663344681
 21
7615.729096344953
 31
0.0
  0
LINE
  5
1326A
330
747D
100
AcDbEntity
  8
部品1
100
AcDbLine
 10
5556.350663344681
 20
8035.72909634496
 30
0.0
 11
3036.350663344681
 21
8035.729096344956
 31
0.0
  0
LINE
  5
1326B
330
747D
100
AcDbEntity
  8
部品1
100
AcDbLine
 10
5556.350663344681
 20
8455.729096344958
 30
0.0
 11
3036.350663344681
 21
8455.729096344954
 31
0.0
  0
LINE
  5
1326C
330
747D
100
AcDbEntity
  8
部品1
100
AcDbLine
 10
5611.350663344682
 20
9770.729096344958
 30
0.0
 11
2981.350663344681
 21
9770.729096344958
 31
0.0
  0
LINE
  5
1326D
330
747D
100
AcDbEntity
  8
部品1
100
AcDbLine
 10
3036.350663344678
 20
7195.729096344959
 30
0.0
 11
5556.350663344681
 21
7195.729096344952
 31
0.0
  0
LINE
  5
1326E
330
747D
100
AcDbEntity
  8
部品1
100
AcDbLine
 10
3009.350663344682
 20
7168.729096344955
 30
0.0
 11
3553.463006437182
 21
7168.729096344955
 31
0.0
  0
DIMENSION
  5
1326F
330
747D
100
AcDbEntity
  8
寸法
 48
50.0
100
AcDbDimension
  2
*D8
 10
8241.350663344681
 20
10445.44150636375
 30
0.0
 11
5611.350663344682
 21
10537.45331738737
 31
0.0
 70
    32
 71
     5
 42
5260.0
  3
INABA_S40
100
AcDbAlignedDimension
 13
2981.350663344681
 23
9770.729096344958
 33
0.0
 14
8241.350663344681
 24
9770.729096344958
 34
0.0
100
AcDbRotatedDimension
1001
ACAD
1000
DSTYLE
1002
{
1070
   287
1070
     3
1070
    41
1040
0.5
1070
    44
1040
1.0
1070
   147
1040
0.8
1070
   271
1070
     2
1070
   272
1070
     2
1070
   289
1070
     3
1070
   340
1005
F706
1070
     6
1000
DOT
1070
     7
1000
DOT
1002
}
  0
DIMENSION
  5
13270
330
747D
100
AcDbEntity
  8
寸法
 48
50.0
100
AcDbDimension
  2
*D9
 10
5556.350663344681
 20
10145.44150636375
 30
0.0
 11
4296.350663344681
 21
10237.45331738737
 31
0.0
 70
    32
  1
6X420=<>
 71
     5
 42
2520.0
  3
INABA_S40
100
AcDbAlignedDimension
 13
3036.350663344681
 23
9770.729096344958
 33
0.0
 14
5556.350663344681
 24
9770.729096344958
 34
0.0
100
AcDbRotatedDimension
1001
ACAD
1000
DSTYLE
1002
{
1070
   287
1070
     3
1070
    41
1040
0.5
1070
    44
1040
1.0
1070
   147
1040
0.8
1070
   271
1070
     2
1070
   272
1070
     2
1070
   289
1070
     3
1070
   340
1005
F706
1070
     6
1000
DOT
1070
     7
1000
DOT
1002
}
  0
LINE
  5
13272
330
747D
100
AcDbEntity
  8
破線
  6
HIDDEN
 48
10.0
100
AcDbLine
 10
3905.850663344678
 20
9715.72909634496
 30
0.0
 11
3905.850663344674
 21
7195.729096344956
 31
0.0
  0
LINE
  5
13273
330
747D
100
AcDbEntity
  8
破線
  6
HIDDEN
 48
10.0
100
AcDbLine
 10
3855.850663344682
 20
9715.72909634496
 30
0.0
 11
3855.850663344674
 21
7195.729096344959
 31
0.0
  0
LINE
  5
13274
330
747D
100
AcDbEntity
  8
部品1
100
AcDbLine
 10
3036.350663344689
 20
9715.729096344956
 30
0.0
 11
3036.350663344678
 21
7195.729096344959
 31
0.0
  0
LINE
  5
13275
330
747D
100
AcDbEntity
  8
破線
  6
HIDDEN
 48
10.0
100
AcDbLine
 10
3059.850663344689
 20
9692.229096344959
 30
0.0
 11
3059.850663344678
 21
7219.229096344959
 31
0.0
  0
LINE
  5
13276
330
747D
100
AcDbEntity
  8
部品1
100
AcDbLine
 10
2981.350663344681
 20
9770.729096344958
 30
0.0
 11
2981.350663344681
 21
7140.729096344955
 31
0.0
  0
LINE
  5
13277
330
747D
100
AcDbEntity
  8
部品1
100
AcDbLine
 10
3009.350663344682
 20
9742.729096344959
 30
0.0
 11
3009.350663344682
 21
8673.729096344958
 31
0.0
  0
LINE
  5
13278
330
747D
100
AcDbEntity
  8
部品1
100
AcDbLine
 10
3009.350663344682
 20
9715.72909634496
 30
0.0
 11
3009.350663344682
 21
7168.729096344955
 31
0.0
  0
LINE
  5
13279
330
747D
100
AcDbEntity
  8
破線
  6
HIDDEN
 48
10.0
100
AcDbLine
 10
3059.850663344678
 20
7219.229096344959
 30
0.0
 11
3855.850663344674
 21
7219.229096344955
 31
0.0
  0
LINE
  5
1327A
330
747D
100
AcDbEntity
  8
部品1
100
AcDbLine
 10
2981.350663344681
 20
7140.729096344955
 30
0.0
 11
3456.350663344681
 21
7140.729096344954
 31
0.0
  0
LINE
  5
1327B
330
747D
100
AcDbEntity
  8
部品1
 48
50.0
100
AcDbLine
 10
3009.350663344682
 20
7168.729096344955
 30
0.0
 11
3036.350663344678
 21
7195.729096344959
 31
0.0
  0
LINE
  5
1327C
330
747D
100
AcDbEntity
  8
部品1
100
AcDbLine
 10
3036.350663344681
 20
7140.729096344954
 30
0.0
 11
3036.350663344681
 21
7168.729096344955
 31
0.0
  0
LINE
  5
1327D
330
747D
100
AcDbEntity
  8
部品1
100
AcDbLine
 10
3009.350663344682
 20
7195.729096344952
 30
0.0
 11
2981.350663344681
 21
7195.729096344952
 31
0.0
  0
LINE
  5
1327E
330
747D
100
AcDbEntity
  8
部品1
100
AcDbLine
 10
3456.350663344681
 20
7140.729096344961
 30
0.0
 11
3456.350663344681
 21
7168.729096344963
 31
0.0
  0
LINE
  5
1327F
330
747D
100
AcDbEntity
  8
部品1
100
AcDbLine
 10
3456.350663344681
 20
7140.729096344954
 30
0.0
 11
3456.350663344681
 21
7168.729096344955
 31
0.0
  0
LINE
  5
13280
330
747D
100
AcDbEntity
  8
部品1
100
AcDbLine
 10
3009.350663344682
 20
7615.72909634496
 30
0.0
 11
2981.350663344681
 21
7615.72909634496
 31
0.0
  0
LINE
  5
13281
330
747D
100
AcDbEntity
  8
部品1
100
AcDbLine
 10
3009.350663344682
 20
8035.72909634496
 30
0.0
 11
2981.350663344681
 21
8035.72909634496
 31
0.0
  0
LINE
  5
13282
330
747D
100
AcDbEntity
  8
部品1
100
AcDbLine
 10
3009.350663344682
 20
8455.72909634496
 30
0.0
 11
2981.350663344681
 21
8455.72909634496
 31
0.0
  0
LINE
  5
13283
330
747D
100
AcDbEntity
  8
破線
  6
HIDDEN
 48
10.0
100
AcDbLine
 10
3059.850663344678
 20
9692.229096344959
 30
0.0
 11
3855.850663344682
 21
9692.229096344956
 31
0.0
  0
DIMENSION
  5
13284
330
747D
100
AcDbEntity
  8
寸法
 48
50.0
100
AcDbDimension
  2
*D10
 10
3036.350663344681
 20
10145.44150636375
 30
0.0
 11
2587.183996678017
 21
10145.44150636375
 31
0.0
 70
   160
 71
     5
 42
55.0
  3
INABA_S40
100
AcDbAlignedDimension
 13
2981.350663344681
 23
9770.729096344958
 33
0.0
 14
3036.350663344681
 24
9770.729096344958
 34
0.0
100
AcDbRotatedDimension
1001
ACAD
1000
DSTYLE
1002
{
1070
   287
1070
     3
1070
    41
1040
0.5
1070
    44
1040
1.0
1070
   147
1040
0.8
1070
   271
1070
     2
1070
   272
1070
     2
1070
   289
1070
     3
1070
   340
1005
F706
1070
     6
1000
DOT
1070
     7
1000
DOT
1002
}
  0
LINE
  5
13285
330
747D
100
AcDbEntity
  8
部品1
 48
50.0
100
AcDbLine
 10
3009.350663344682
 20
9742.729096344959
 30
0.0
 11
3036.350663344678
 21
9715.729096344958
 31
0.0
  0
LINE
  5
13286
330
747D
100
AcDbEntity
  8
部品1
100
AcDbLine
 10
3036.350663344681
 20
9770.729096344958
 30
0.0
 11
3036.350663344681
 21
9742.729096344953
 31
0.0
  0
LINE
  5
13287
330
747D
100
AcDbEntity
  8
部品1
100
AcDbLine
 10
3009.350663344682
 20
9715.72909634496
 30
0.0
 11
2981.350663344681
 21
9715.72909634496
 31
0.0
  0
LINE
  5
13288
330
747D
100
AcDbEntity
  8
部品1
100
AcDbLine
 10
3456.350663344681
 20
9770.729096344958
 30
0.0
 11
3456.350663344681
 21
9742.729096344953
 31
0.0
  0
LINE
  5
13289
330
747D
100
AcDbEntity
  8
部品1
100
AcDbLine
 10
8186.350663344681
 20
9715.72909634496
 30
0.0
 11
8186.350663344681
 21
7195.729096344956
 31
0.0
  0
LINE
  5
1328A
330
747D
100
AcDbEntity
  8
部品1
100
AcDbLine
 10
5666.350663344681
 20
7195.729096344956
 30
0.0
 11
5666.350663344681
 21
9715.729096344956
 31
0.0
  0
LINE
  5
1328B
330
747D
100
AcDbEntity
  8
破線
  6
HIDDEN
 48
10.0
100
AcDbLine
 10
5689.850663344682
 20
7219.229096344959
 30
0.0
 11
5689.850663344682
 21
9692.229096344956
 31
0.0
  0
LINE
  5
1328C
330
747D
100
AcDbEntity
  8
部品1
100
AcDbLine
 10
5639.350663344681
 20
7168.729096344955
 30
0.0
 11
5639.350663344681
 21
9742.729096344962
 31
0.0
  0
LINE
  5
1328D
330
747D
100
AcDbEntity
  8
破線
  6
HIDDEN
 48
10.0
100
AcDbLine
 10
5532.850663344682
 20
7219.229096344952
 30
0.0
 11
5532.850663344678
 21
9692.229096344961
 31
0.0
  0
LINE
  5
1328E
330
747D
100
AcDbEntity
  8
部品1
100
AcDbLine
 10
5556.350663344681
 20
7195.729096344952
 30
0.0
 11
5556.350663344677
 21
9715.729096344961
 31
0.0
  0
LINE
  5
1328F
330
747D
100
AcDbEntity
  8
部品1
100
AcDbLine
 10
5583.350663344681
 20
7168.729096344958
 30
0.0
 11
5583.350663344681
 21
9742.729096344959
 31
0.0
  0
LINE
  5
13290
330
747D
100
AcDbEntity
  8
破線
  6
HIDDEN
 48
10.0
100
AcDbLine
 10
8162.850663344682
 20
9692.229096344965
 30
0.0
 11
8162.850663344682
 21
7219.229096344952
 31
0.0
  0
LINE
  5
13291
330
747D
100
AcDbEntity
  8
部品1
100
AcDbLine
 10
8241.350663344681
 20
9770.729096344958
 30
0.0
 11
8241.350663344681
 21
7140.729096344955
 31
0.0
  0
LINE
  5
13292
330
747D
100
AcDbEntity
  8
部品1
100
AcDbLine
 10
8213.35066334468
 20
9742.729096344953
 30
0.0
 11
8213.35066334468
 21
8673.729096344958
 31
0.0
  0
LINE
  5
13293
330
747D
100
AcDbEntity
  8
破線
  6
HIDDEN
 48
10.0
100
AcDbLine
 10
6485.850663344685
 20
7219.229096344959
 30
0.0
 11
5689.850663344685
 21
7219.229096344959
 31
0.0
  0
LINE
  5
13294
330
747D
100
AcDbEntity
  8
部品1
100
AcDbLine
 10
5666.350663344681
 20
7615.72909634496
 30
0.0
 11
8186.350663344681
 21
7615.72909634496
 31
0.0
  0
LINE
  5
13295
330
747D
100
AcDbEntity
  8
部品1
100
AcDbLine
 10
5666.350663344681
 20
8035.72909634496
 30
0.0
 11
8186.350663344681
 21
8035.72909634496
 31
0.0
  0
LINE
  5
13296
330
747D
100
AcDbEntity
  8
部品1
100
AcDbLine
 10
5666.350663344681
 20
8455.729096344958
 30
0.0
 11
8186.350663344681
 21
8455.729096344958
 31
0.0
  0
LINE
  5
13297
330
747D
100
AcDbEntity
  8
部品1
100
AcDbLine
 10
8241.350663344681
 20
7140.729096344955
 30
0.0
 11
5666.350663344681
 21
7140.729096344955
 31
0.0
  0
LINE
  5
13298
330
747D
100
AcDbEntity
  8
部品1
100
AcDbLine
 10
8186.350663344681
 20
7195.729096344956
 30
0.0
 11
5666.350663344681
 21
7195.729096344959
 31
0.0
  0
LINE
  5
13299
330
747D
100
AcDbEntity
  8
部品1
100
AcDbLine
 10
8213.35066334468
 20
7168.729096344955
 30
0.0
 11
5639.350663344681
 21
7168.729096344958
 31
0.0
  0
LINE
  5
1329B
330
747D
100
AcDbEntity
  8
破線
  6
HIDDEN
 48
10.0
100
AcDbLine
 10
3905.850663344674
 20
7219.229096344955
 30
0.0
 11
4686.850663344674
 21
7219.229096344952
 31
0.0
  0
LINE
  5
1329C
330
747D
100
AcDbEntity
  8
破線
  6
HIDDEN
 48
10.0
100
AcDbLine
 10
4736.850663344674
 20
7219.229096344959
 30
0.0
 11
5532.850663344682
 21
7219.229096344952
 31
0.0
  0
LINE
  5
1329D
330
747D
100
AcDbEntity
  8
部品1
100
AcDbLine
 10
5556.350663344681
 20
7140.729096344954
 30
0.0
 11
5556.350663344681
 21
7168.729096344955
 31
0.0
  0
LINE
  5
1329E
330
747D
100
AcDbEntity
  8
部品1
100
AcDbLine
 10
5556.350663344681
 20
7140.729096344954
 30
0.0
 11
5556.350663344681
 21
7168.729096344955
 31
0.0
  0
LINE
  5
1329F
330
747D
100
AcDbEntity
  8
部品1
 48
50.0
100
AcDbLine
 10
5639.350663344681
 20
7168.729096344955
 30
0.0
 11
5666.350663344681
 21
7195.729096344956
 31
0.0
  0
LINE
  5
132A0
330
747D
100
AcDbEntity
  8
部品1
 48
50.0
100
AcDbLine
 10
5583.350663344681
 20
7168.729096344958
 30
0.0
 11
5556.350663344681
 21
7195.729096344952
 31
0.0
  0
LINE
  5
132A1
330
747D
100
AcDbEntity
  8
部品1
100
AcDbLine
 10
5666.350663344681
 20
7140.729096344959
 30
0.0
 11
5556.350663344681
 21
7140.729096344954
 31
0.0
  0
LINE
  5
132A2
330
747D
100
AcDbEntity
  8
部品1
100
AcDbLine
 10
5556.350663344681
 20
7140.729096344954
 30
0.0
 11
5556.350663344681
 21
7168.729096344955
 31
0.0
  0
LINE
  5
132A3
330
747D
100
AcDbEntity
  8
部品1
100
AcDbLine
 10
5666.350663344681
 20
7140.729096344954
 30
0.0
 11
5666.350663344681
 21
7168.729096344955
 31
0.0
  0
LINE
  5
132A4
330
747D
100
AcDbEntity
  8
部品1
100
AcDbLine
 10
5639.350663344681
 20
7195.729096344952
 30
0.0
 11
5611.350663344682
 21
7195.729096344952
 31
0.0
  0
LINE
  5
132A5
330
747D
100
AcDbEntity
  8
部品1
100
AcDbLine
 10
5583.350663344681
 20
7195.729096344952
 30
0.0
 11
5611.350663344682
 21
7195.729096344952
 31
0.0
  0
LINE
  5
132A6
330
747D
100
AcDbEntity
  8
部品1
100
AcDbLine
 10
6086.350663344681
 20
7140.729096344954
 30
0.0
 11
6086.350663344681
 21
7168.729096344955
 31
0.0
  0
LINE
  5
132A7
330
747D
100
AcDbEntity
  8
部品1
100
AcDbLine
 10
8213.35066334468
 20
9715.72909634496
 30
0.0
 11
8213.35066334468
 21
7168.729096344955
 31
0.0
  0
LINE
  5
132A8
330
747D
100
AcDbEntity
  8
破線
  6
HIDDEN
 48
10.0
100
AcDbLine
 10
7316.850663344688
 20
7219.229096344955
 30
0.0
 11
6535.850663344685
 21
7219.229096344959
 31
0.0
  0
LINE
  5
132A9
330
747D
100
AcDbEntity
  8
部品1
100
AcDbLine
 10
6506.350663344682
 20
7140.729096344954
 30
0.0
 11
6506.350663344682
 21
7168.729096344955
 31
0.0
  0
LINE
  5
132AA
330
747D
100
AcDbEntity
  8
部品1
100
AcDbLine
 10
6926.350663344681
 20
7140.729096344954
 30
0.0
 11
6926.350663344681
 21
7168.729096344955
 31
0.0
  0
LINE
  5
132AB
330
747D
100
AcDbEntity
  8
破線
  6
HIDDEN
 48
10.0
100
AcDbLine
 10
8162.850663344682
 20
7219.229096344952
 30
0.0
 11
7366.850663344688
 21
7219.229096344955
 31
0.0
  0
LINE
  5
132AC
330
747D
100
AcDbEntity
  8
部品1
100
AcDbLine
 10
7346.350663344681
 20
7140.729096344954
 30
0.0
 11
7346.350663344681
 21
7168.729096344955
 31
0.0
  0
LINE
  5
132AD
330
747D
100
AcDbEntity
  8
部品1
100
AcDbLine
 10
7766.350663344681
 20
7140.729096344954
 30
0.0
 11
7766.350663344681
 21
7168.729096344955
 31
0.0
  0
LINE
  5
132AE
330
747D
100
AcDbEntity
  8
部品1
 48
50.0
100
AcDbLine
 10
8213.35066334468
 20
7168.729096344955
 30
0.0
 11
8186.350663344681
 21
7195.729096344956
 31
0.0
  0
LINE
  5
132AF
330
747D
100
AcDbEntity
  8
部品1
100
AcDbLine
 10
8186.350663344681
 20
7140.729096344954
 30
0.0
 11
8186.350663344681
 21
7168.729096344955
 31
0.0
  0
LINE
  5
132B0
330
747D
100
AcDbEntity
  8
部品1
100
AcDbLine
 10
8213.35066334468
 20
7195.729096344952
 30
0.0
 11
8241.350663344681
 21
7195.729096344952
 31
0.0
  0
LINE
  5
132B1
330
747D
100
AcDbEntity
  8
部品1
100
AcDbLine
 10
8213.35066334468
 20
7615.72909634496
 30
0.0
 11
8241.350663344681
 21
7615.72909634496
 31
0.0
  0
LINE
  5
132B2
330
747D
100
AcDbEntity
  8
部品1
100
AcDbLine
 10
8213.35066334468
 20
8035.72909634496
 30
0.0
 11
8241.350663344681
 21
8035.72909634496
 31
0.0
  0
LINE
  5
132B3
330
747D
100
AcDbEntity
  8
部品1
100
AcDbLine
 10
8213.35066334468
 20
8455.72909634496
 30
0.0
 11
8241.350663344681
 21
8455.72909634496
 31
0.0
  0
LINE
  5
132B4
330
747D
100
AcDbEntity
  8
破線
  6
HIDDEN
 48
10.0
100
AcDbLine
 10
6485.850663344685
 20
9692.229096344959
 30
0.0
 11
5689.850663344685
 21
9692.229096344959
 31
0.0
  0
LINE
  5
132B5
330
747D
100
AcDbEntity
  8
部品1
100
AcDbLine
 10
8186.350663344681
 20
9715.72909634496
 30
0.0
 11
5666.350663344681
 21
9715.729096344958
 31
0.0
  0
LINE
  5
132B6
330
747D
100
AcDbEntity
  8
部品1
100
AcDbLine
 10
5639.350663344681
 20
9742.729096344959
 30
0.0
 11
7346.350663344681
 21
9742.729096344959
 31
0.0
  0
DIMENSION
  5
132B7
330
747D
100
AcDbEntity
  8
寸法
 48
50.0
100
AcDbDimension
  2
*D11
 10
8186.350663344681
 20
10145.44150636375
 30
0.0
 11
6926.350663344681
 21
10237.45331738737
 31
0.0
 70
    32
  1
6X420=<>
 71
     5
 42
2520.0
  3
INABA_S40
100
AcDbAlignedDimension
 13
5666.350663344681
 23
9770.729096344958
 33
0.0
 14
8186.350663344681
 24
9770.729096344958
 34
0.0
100
AcDbRotatedDimension
1001
ACAD
1000
DSTYLE
1002
{
1070
   287
1070
     3
1070
    41
1040
0.5
1070
    44
1040
1.0
1070
   147
1040
0.8
1070
   271
1070
     2
1070
   272
1070
     2
1070
   289
1070
     3
1070
   340
1005
F706
1070
     6
1000
DOT
1070
     7
1000
DOT
1002
}
  0
LINE
  5
132B8
330
747D
100
AcDbEntity
  8
部品1
100
AcDbLine
 10
5611.350663344682
 20
9770.729096344958
 30
0.0
 11
8241.350663344681
 21
9770.729096344958
 31
0.0
  0
LINE
  5
132B9
330
747D
100
AcDbEntity
  8
破線
  6
HIDDEN
 48
10.0
100
AcDbLine
 10
3905.850663344678
 20
9692.229096344952
 30
0.0
 11
4686.850663344681
 21
9692.229096344959
 31
0.0
  0
LINE
  5
132BA
330
747D
100
AcDbEntity
  8
部品1
100
AcDbLine
 10
5136.350663344682
 20
9742.729096344959
 30
0.0
 11
3876.350663344682
 21
9742.729096344962
 31
0.0
  0
LINE
  5
132BB
330
747D
100
AcDbEntity
  8
部品1
100
AcDbLine
 10
3876.350663344682
 20
9770.729096344958
 30
0.0
 11
3876.350663344682
 21
9742.729096344953
 31
0.0
  0
LINE
  5
132BC
330
747D
100
AcDbEntity
  8
部品1
100
AcDbLine
 10
4296.350663344681
 20
9770.729096344958
 30
0.0
 11
4296.350663344681
 21
9742.729096344953
 31
0.0
  0
LINE
  5
132BD
330
747D
100
AcDbEntity
  8
部品1
100
AcDbLine
 10
4716.350663344681
 20
9770.729096344958
 30
0.0
 11
4716.350663344681
 21
9742.729096344953
 31
0.0
  0
LINE
  5
132BE
330
747D
100
AcDbEntity
  8
破線
  6
HIDDEN
 48
10.0
100
AcDbLine
 10
4736.850663344678
 20
9692.229096344965
 30
0.0
 11
5532.850663344682
 21
9692.229096344965
 31
0.0
  0
LINE
  5
132BF
330
747D
100
AcDbEntity
  8
部品1
100
AcDbLine
 10
5583.350663344681
 20
9742.729096344959
 30
0.0
 11
5136.350663344682
 21
9742.729096344959
 31
0.0
  0
LINE
  5
132C0
330
747D
100
AcDbEntity
  8
部品1
100
AcDbLine
 10
5136.350663344682
 20
9770.729096344958
 30
0.0
 11
5136.350663344682
 21
9742.729096344953
 31
0.0
  0
LINE
  5
132C1
330
747D
100
AcDbEntity
  8
部品1
100
AcDbLine
 10
5556.350663344681
 20
9770.729096344958
 30
0.0
 11
5556.350663344681
 21
9742.729096344953
 31
0.0
  0
DIMENSION
  5
132C2
330
747D
100
AcDbEntity
  8
寸法
 48
50.0
100
AcDbDimension
  2
*D12
 10
5666.350663344681
 20
10145.44150636375
 30
0.0
 11
5611.350663344682
 21
10145.44150636375
 31
0.0
 70
   160
 71
     5
 42
110.0
  3
INABA_S40
100
AcDbAlignedDimension
 13
5556.350663344681
 23
9770.729096344958
 33
0.0
 14
5666.350663344681
 24
9770.729096344958
 34
0.0
100
AcDbRotatedDimension
1001
ACAD
1000
DSTYLE
1002
{
1070
   287
1070
     3
1070
    41
1040
0.5
1070
    44
1040
1.0
1070
   147
1040
0.8
1070
   271
1070
     2
1070
   272
1070
     2
1070
   289
1070
     3
1070
   340
1005
F706
1070
     6
1000
DOT
1070
     7
1000
DOT
1002
}
  0
LINE
  5
132C3
330
747D
100
AcDbEntity
  8
部品1
 48
50.0
100
AcDbLine
 10
5639.350663344681
 20
9742.729096344959
 30
0.0
 11
5666.350663344681
 21
9715.729096344958
 31
0.0
  0
LINE
  5
132C4
330
747D
100
AcDbEntity
  8
部品1
 48
50.0
100
AcDbLine
 10
5583.350663344681
 20
9742.729096344959
 30
0.0
 11
5556.350663344681
 21
9715.729096344965
 31
0.0
  0
LINE
  5
132C5
330
747D
100
AcDbEntity
  8
部品1
100
AcDbLine
 10
5639.350663344681
 20
9715.72909634496
 30
0.0
 11
5611.350663344682
 21
9715.72909634496
 31
0.0
  0
LINE
  5
132C6
330
747D
100
AcDbEntity
  8
部品1
100
AcDbLine
 10
5556.350663344681
 20
9770.729096344958
 30
0.0
 11
5556.350663344681
 21
9742.729096344953
 31
0.0
  0
LINE
  5
132C7
330
747D
100
AcDbEntity
  8
部品1
100
AcDbLine
 10
5583.350663344681
 20
9715.72909634496
 30
0.0
 11
5611.350663344682
 21
9715.72909634496
 31
0.0
  0
LINE
  5
132C8
330
747D
100
AcDbEntity
  8
部品1
100
AcDbLine
 10
5666.350663344681
 20
9770.729096344958
 30
0.0
 11
5666.350663344681
 21
9742.729096344953
 31
0.0
  0
LINE
  5
132C9
330
747D
100
AcDbEntity
  8
部品1
100
AcDbLine
 10
5666.350663344681
 20
9770.729096344958
 30
0.0
 11
5666.350663344681
 21
9742.729096344953
 31
0.0
  0
LINE
  5
132CA
330
747D
100
AcDbEntity
  8
部品1
100
AcDbLine
 10
6086.350663344681
 20
9770.729096344958
 30
0.0
 11
6086.350663344681
 21
9742.729096344953
 31
0.0
  0
LINE
  5
132CB
330
747D
100
AcDbEntity
  8
破線
  6
HIDDEN
 48
10.0
100
AcDbLine
 10
7316.850663344685
 20
9692.229096344959
 30
0.0
 11
6535.850663344685
 21
9692.229096344954
 31
0.0
  0
LINE
  5
132CC
330
747D
100
AcDbEntity
  8
部品1
100
AcDbLine
 10
7148.850663344681
 20
9742.729096344959
 30
0.0
 11
7543.850663344682
 21
9742.729096344953
 31
0.0
  0
LINE
  5
132CD
330
747D
100
AcDbEntity
  8
部品1
100
AcDbLine
 10
6506.350663344682
 20
9770.729096344958
 30
0.0
 11
6506.350663344682
 21
9742.729096344953
 31
0.0
  0
LINE
  5
132CE
330
747D
100
AcDbEntity
  8
部品1
100
AcDbLine
 10
6926.350663344681
 20
9770.729096344958
 30
0.0
 11
6926.350663344681
 21
9742.729096344953
 31
0.0
  0
LINE
  5
132CF
330
747D
100
AcDbEntity
  8
破線
  6
HIDDEN
 48
10.0
100
AcDbLine
 10
8162.850663344682
 20
9692.229096344961
 30
0.0
 11
7366.850663344681
 21
9692.229096344959
 31
0.0
  0
LINE
  5
132D0
330
747D
100
AcDbEntity
  8
部品1
100
AcDbLine
 10
7346.350663344681
 20
9742.729096344953
 30
0.0
 11
8213.35066334468
 21
9742.729096344953
 31
0.0
  0
LINE
  5
132D1
330
747D
100
AcDbEntity
  8
部品1
100
AcDbLine
 10
7346.350663344681
 20
9770.729096344958
 30
0.0
 11
7346.350663344681
 21
9742.729096344953
 31
0.0
  0
LINE
  5
132D2
330
747D
100
AcDbEntity
  8
部品1
100
AcDbLine
 10
7766.350663344681
 20
9770.729096344958
 30
0.0
 11
7766.350663344681
 21
9742.729096344953
 31
0.0
  0
LINE
  5
132D3
330
747D
100
AcDbEntity
  8
部品1
 48
50.0
100
AcDbLine
 10
8213.35066334468
 20
9742.729096344953
 30
0.0
 11
8186.350663344681
 21
9715.72909634496
 31
0.0
  0
LINE
  5
132D4
330
747D
100
AcDbEntity
  8
部品1
100
AcDbLine
 10
8186.350663344681
 20
9770.729096344958
 30
0.0
 11
8186.350663344681
 21
9742.729096344953
 31
0.0
  0
LINE
  5
132D5
330
747D
100
AcDbEntity
  8
部品1
100
AcDbLine
 10
8213.35066334468
 20
9715.72909634496
 30
0.0
 11
8241.350663344681
 21
9715.72909634496
 31
0.0
  0
LINE
  5
132D6
330
747D
100
AcDbEntity
  8
破線
  6
HIDDEN
 48
10.0
100
AcDbLine
 10
4686.850663344677
 20
9715.72909634496
 30
0.0
 11
4686.850663344674
 21
7195.729096344959
 31
0.0
  0
LINE
  5
132D7
330
747D
100
AcDbEntity
  8
破線
  6
HIDDEN
 48
10.0
100
AcDbLine
 10
4736.850663344678
 20
9715.72909634496
 30
0.0
 11
4736.850663344674
 21
7195.729096344956
 31
0.0
  0
LINE
  5
132D8
330
747D
100
AcDbEntity
  8
破線
  6
HIDDEN
 48
10.0
100
AcDbLine
 10
6485.850663344685
 20
9715.72909634496
 30
0.0
 11
6485.850663344685
 21
7195.729096344956
 31
0.0
  0
LINE
  5
132D9
330
747D
100
AcDbEntity
  8
破線
  6
HIDDEN
 48
10.0
100
AcDbLine
 10
6535.850663344685
 20
9715.72909634496
 30
0.0
 11
6535.850663344685
 21
7195.729096344959
 31
0.0
  0
LINE
  5
132DA
330
747D
100
AcDbEntity
  8
破線
  6
HIDDEN
 48
10.0
100
AcDbLine
 10
7366.850663344681
 20
9715.72909634496
 30
0.0
 11
7366.850663344688
 21
7195.729096344959
 31
0.0
  0
LINE
  5
132DB
330
747D
100
AcDbEntity
  8
破線
  6
HIDDEN
 48
10.0
100
AcDbLine
 10
7316.850663344685
 20
9715.72909634496
 30
0.0
 11
7316.850663344685
 21
7195.729096344956
 31
0.0
  0
LINE
  5
132DC
330
747D
100
AcDbEntity
  8
部品1
 48
50.0
100
AcDbLine
 10
5611.350665588252
 20
9742.729099922126
 30
0.0
 11
5583.350665588252
 21
9770.729099922126
 31
0.0
  0
LINE
  5
132DD
330
747D
100
AcDbEntity
  8
部品1
100
AcDbLine
 10
5583.350665588252
 20
9742.729099922126
 30
0.0
 11
5583.350665588252
 21
9770.729099922128
 31
0.0
  0
LINE
  5
132DE
330
747D
100
AcDbEntity
  8
部品1
100
AcDbLine
 10
5639.350665588252
 20
9742.729099922126
 30
0.0
 11
5639.350665588252
 21
9770.729099922123
 31
0.0
  0
LINE
  5
132DF
330
747D
100
AcDbEntity
  8
部品1
100
AcDbLine
 10
5583.350665588252
 20
9742.729099922126
 30
0.0
 11
5611.350665588252
 21
9742.729099922126
 31
0.0
  0
LINE
  5
132E0
330
747D
100
AcDbEntity
  8
部品1
 48
50.0
100
AcDbLine
 10
3456.350663344681
 20
7168.729096344951
 30
0.0
 11
3553.463006437183
 21
7168.729096344953
 31
0.0
  0
TEXT
  5
13394
330
747D
100
AcDbEntity
  8
部品1
100
AcDbText
 10
5320.140733968416
 20
1635.81691063289
 30
0.0
 40
135.0
  1
正面図
  7
STYLE2
100
AcDbText
  0
LWPOLYLINE
  5
13395
330
747D
100
AcDbEntity
  8
部品1
100
AcDbPolyline
 90
        4
 70
     1
 43
0.0
 10
5229.615330230459
 20
1828.710439851414
 10
5229.615330230459
 20
1588.818118305881
 10
5993.085996458904
 20
1588.818118305881
 10
5993.085996458904
 20
1828.710439851414
  0
TEXT
  5
13396
330
747D
100
AcDbEntity
  8
文字
 62
     7
 48
50.0
100
AcDbText
 10
14505.34213575793
 20
483.8967129911411
 30
0.0
 40
160.0
  1
ＮＸＰ－１４０ＨＤ
  7
STYLE2
100
AcDbText
  0
TEXT
  5
13397
330
747D
100
AcDbEntity
  8
文字
 62
     7
 48
50.0
100
AcDbText
 10
13209.4053442172
 20
228.5435242569015
 30
0.0
 40
100.0
  1
○有効開口寸法 ： 753×2040(mm)
  7
STYLE2
100
AcDbText
  0
DIMENSION
  5
13398
330
747D
100
AcDbEntity
  8
寸法
 48
50.0
100
AcDbDimension
  2
*D13
 10
2981.350663344681
 20
4875.6543911615
 30
0.0
 11
5611.350663344682
 21
4875.6543911615
 31
0.0
 70
   160
  1
柱外寸法<>
 71
     5
 42
5260.000000000004
  3
INABA_S40G
100
AcDbAlignedDimension
 13
8241.350663344686
 23
4663.112805903259
 33
0.0
 14
2981.350663344681
 24
4663.112805903264
 34
0.0
100
AcDbRotatedDimension
  0
DIMENSION
  5
13399
330
747D
100
AcDbEntity
  8
寸法
 48
50.0
100
AcDbDimension
  2
*D14
 10
8291.350663344685
 20
5096.559691635249
 30
0.0
 11
5611.350663344682
 21
5096.559691635249
 31
0.0
 70
   160
 71
     5
 42
5360.000000000003
  3
INABA_S40G
100
AcDbAlignedDimension
 13
2931.350663344682
 23
4663.112805903263
 33
0.0
 14
8291.350663344685
 24
4663.112805903258
 34
0.0
100
AcDbRotatedDimension
  0
DIMENSION
  5
1339A
330
747D
100
AcDbEntity
  8
寸法
 48
50.0
100
AcDbDimension
  2
*D15
 10
2931.350663344682
 20
4875.654391161502
 30
0.0
 11
2617.865381970434
 21
4875.654391161502
 31
0.0
 70
   160
 71
     5
 42
50.0
  3
INABA_S40G
100
AcDbAlignedDimension
 13
2981.350663344681
 23
4663.112805903264
 33
0.0
 14
2931.350663344682
 24
4663.112805903263
 34
0.0
100
AcDbRotatedDimension
1001
ACAD
1000
DSTYLE
1002
{
1002
}
  0
LINE
  5
1339B
330
747D
100
AcDbEntity
  8
部品1
 48
50.0
100
AcDbLine
 10
8270.726918777219
 20
4522.11280590326
 30
0.0
 11
2951.974407912145
 21
4522.112805903261
 31
0.0
  0
LINE
  5
1339C
330
747D
100
AcDbEntity
  8
細線
 48
50.0
100
AcDbLine
 10
8258.350663344687
 20
4542.88604846663
 30
0.0
 11
2941.745344879928
 21
4542.886048467256
 31
0.0
  0
LINE
  5
1339D
330
747D
100
AcDbEntity
  8
細線
 48
50.0
100
AcDbLine
 10
8258.350663344684
 20
4635.086048466631
 30
0.0
 11
2933.509314355095
 21
4635.086048467257
 31
0.0
  0
LINE
  5
1339E
330
747D
100
AcDbEntity
  8
部品1
 48
50.0
100
AcDbLine
 10
8283.942242238252
 20
4663.112805903258
 30
0.0
 11
2938.759084451111
 21
4663.112805903258
 31
0.0
  0
LINE
  5
1339F
330
747D
100
AcDbEntity
  8
部品1
100
AcDbLine
 10
2931.770324360012
 20
4655.716280508022
 30
0.0
 11
2932.903721692361
 21
4635.740152525421
 31
0.0
  0
LINE
  5
133A0
330
747D
100
AcDbEntity
  8
部品1
100
AcDbLine
 10
2944.340742013938
 20
4540.082745358364
 30
0.0
 11
2944.985647821046
 21
4528.716280508024
 31
0.0
  0
LINE
  5
133A1
330
747D
100
AcDbEntity
  8
部品1
100
AcDbLine
 10
2936.10471148909
 20
4632.282745358364
 30
0.0
 11
2941.139752217201
 21
4543.540152525421
 31
0.0
  0
ARC
  5
133A2
330
747D
100
AcDbEntity
  8
部品1
 48
50.0
100
AcDbCircle
 10
2933.109528592904
 20
4632.112805903262
 30
0.0
 40
3.0
100
AcDbArc
 50
3.247342790340932
 51
82.3418727926362
  0
ARC
  5
133A3
330
747D
100
AcDbEntity
  8
部品1
 48
50.0
100
AcDbCircle
 10
2941.345559117748
 20
4539.912805903259
 30
0.0
 40
3.0
100
AcDbArc
 50
3.247342790340932
 51
82.3418727926362
  0
ARC
  5
133A4
330
747D
100
AcDbEntity
  8
部品1
 48
50.0
100
AcDbCircle
 10
2941.838628226309
 20
4543.579805064943
 30
0.0
 40
0.7
100
AcDbArc
 50
183.2473427902889
 51
262.3418727926362
  0
ARC
  5
133A5
330
747D
100
AcDbEntity
  8
部品1
 48
50.0
100
AcDbCircle
 10
2933.602597701469
 20
4635.779805064948
 30
0.0
 40
0.7
100
AcDbArc
 50
183.2473427903929
 51
262.3418727926362
  0
ARC
  5
133A6
330
747D
100
AcDbEntity
  8
部品1
100
AcDbCircle
 10
2951.974407912145
 20
4529.112805903262
 30
0.0
 40
7.0
100
AcDbArc
 50
183.247342790341
 51
270.0
  0
ARC
  5
133A7
330
747D
100
AcDbEntity
  8
部品1
100
AcDbCircle
 10
2938.759084451111
 20
4656.112805903261
 30
0.0
 40
7.0
100
AcDbArc
 50
90.0
 51
183.247342790341
  0
LINE
  5
133A8
330
747D
100
AcDbEntity
  8
細線
 48
50.0
100
AcDbLine
 10
2964.350663344682
 20
4663.112805903261
 30
0.0
 11
2964.350663344682
 21
4522.112805903261
 31
0.0
  0
DIMENSION
  5
133A9
330
747D
100
AcDbEntity
  8
寸法
 48
50.0
100
AcDbDimension
  2
*D16
 10
8241.350663344686
 20
4875.654391161499
 30
0.0
 11
8604.835944718921
 21
4875.654391161499
 31
0.0
 70
   160
 71
     5
 42
50.0
  3
INABA_S40G
100
AcDbAlignedDimension
 13
8291.350663344685
 23
4663.112805903258
 33
0.0
 14
8241.350663344686
 24
4663.112805903259
 34
0.0
100
AcDbRotatedDimension
  0
ARC
  5
133AA
330
747D
100
AcDbEntity
  8
部品1
100
AcDbCircle
 10
8283.942242238252
 20
4656.112805903258
 30
0.0
 40
7.0
100
AcDbArc
 50
356.752657209659
 51
90.0
  0
ARC
  5
133AB
330
747D
100
AcDbEntity
  8
部品1
100
AcDbCircle
 10
8270.726918777219
 20
4529.11280590326
 30
0.0
 40
7.0
100
AcDbArc
 50
270.0
 51
356.752657209659
  0
ARC
  5
133AC
330
747D
100
AcDbEntity
  8
部品1
 48
50.0
100
AcDbCircle
 10
8289.098728987898
 20
4635.779805064945
 30
0.0
 40
0.7
100
AcDbArc
 50
277.6581272073638
 51
356.752657209607
  0
ARC
  5
133AD
330
747D
100
AcDbEntity
  8
部品1
 48
50.0
100
AcDbCircle
 10
8280.862698463053
 20
4543.579805064941
 30
0.0
 40
0.7
100
AcDbArc
 50
277.6581272073638
 51
356.7526572097111
  0
ARC
  5
133AE
330
747D
100
AcDbEntity
  8
部品1
 48
50.0
100
AcDbCircle
 10
8281.355767571616
 20
4539.912805903258
 30
0.0
 40
3.0
100
AcDbArc
 50
97.65812720736379
 51
176.752657209659
  0
ARC
  5
133AF
330
747D
100
AcDbEntity
  8
部品1
 48
50.0
100
AcDbCircle
 10
8289.591798096457
 20
4632.11280590326
 30
0.0
 40
3.0
100
AcDbArc
 50
97.65812720736379
 51
176.752657209659
  0
LINE
  5
133B0
330
747D
100
AcDbEntity
  8
部品1
100
AcDbLine
 10
8286.596615200272
 20
4632.282745358361
 30
0.0
 11
8281.561574472162
 21
4543.540152525419
 31
0.0
  0
LINE
  5
133B1
330
747D
100
AcDbEntity
  8
部品1
100
AcDbLine
 10
8278.36058467543
 20
4540.08274535836
 30
0.0
 11
8277.715678868316
 21
4528.71628050802
 31
0.0
  0
LINE
  5
133B2
330
747D
100
AcDbEntity
  8
細線
 48
50.0
100
AcDbLine
 10
8258.350663344684
 20
4663.112805903258
 30
0.0
 11
8258.350663344684
 21
4522.112805903257
 31
0.0
  0
LINE
  5
133B3
330
747D
100
AcDbEntity
  8
部品1
100
AcDbLine
 10
8290.931002329351
 20
4655.716280508019
 30
0.0
 11
8289.797604997005
 21
4635.740152525419
 31
0.0
  0
LINE
  5
133B4
330
747D
100
AcDbEntity
  8
部品1
100
AcDbLine
 10
5601.350663344682
 20
4522.11280590326
 30
0.0
 11
5601.350663344678
 21
4663.112805903258
 31
0.0
  0
LINE
  5
133C5
330
747D
100
AcDbEntity
  8
仕様書枠
 48
50.0
100
AcDbLine
 10
16307.19999999999
 20
8179.599999999998
 30
0.0
 11
16307.2
 21
11409.6
 31
0.0
  0
LINE
  5
13457
330
747D
100
AcDbEntity
  8
細線
 48
50.0
100
AcDbLine
 10
8108.850663344686
 20
4428.112805903256
 30
0.0
 11
8108.850663344687
 21
2338.112805903256
 31
0.0
  0
LINE
  5
13458
330
747D
100
AcDbEntity
  8
細線
 48
50.0
100
AcDbLine
 10
8123.850663344684
 20
4428.112805903256
 30
0.0
 11
8123.850663344688
 21
2338.112805903256
 31
0.0
  0
LINE
  5
13459
330
747D
100
AcDbEntity
  8
細線
 48
50.0
100
AcDbLine
 10
7983.850663344686
 20
4428.112805903256
 30
0.0
 11
7983.850663344687
 21
2338.112805903256
 31
0.0
  0
LINE
  5
1345A
330
747D
100
AcDbEntity
  8
細線
 48
50.0
100
AcDbLine
 10
7968.850663344685
 20
4428.112805903256
 30
0.0
 11
7968.850663344686
 21
2338.112805903256
 31
0.0
  0
LINE
  5
1345B
330
747D
100
AcDbEntity
  8
細線
 48
50.0
100
AcDbLine
 10
7828.850663344685
 20
4428.112805903256
 30
0.0
 11
7828.850663344688
 21
2338.112805903256
 31
0.0
  0
LINE
  5
1345C
330
747D
100
AcDbEntity
  8
細線
 48
50.0
100
AcDbLine
 10
7843.850663344685
 20
4428.112805903256
 30
0.0
 11
7843.850663344689
 21
2338.112805903256
 31
0.0
  0
LINE
  5
1345D
330
747D
100
AcDbEntity
  8
細線
 48
50.0
100
AcDbLine
 10
7423.850663344684
 20
4428.112805903256
 30
0.0
 11
7423.850663344689
 21
2338.112805903256
 31
0.0
  0
LINE
  5
1345E
330
747D
100
AcDbEntity
  8
細線
 48
50.0
100
AcDbLine
 10
7408.850663344686
 20
4428.112805903256
 30
0.0
 11
7408.850663344688
 21
2338.112805903256
 31
0.0
  0
LINE
  5
1345F
330
747D
100
AcDbEntity
  8
細線
 48
50.0
100
AcDbLine
 10
7548.850663344684
 20
4428.112805903256
 30
0.0
 11
7548.850663344689
 21
2338.112805903256
 31
0.0
  0
LINE
  5
13460
330
747D
100
AcDbEntity
  8
細線
 48
50.0
100
AcDbLine
 10
7563.850663344685
 20
4428.112805903256
 30
0.0
 11
7563.850663344689
 21
2338.112805903256
 31
0.0
  0
LINE
  5
13461
330
747D
100
AcDbEntity
  8
細線
 48
50.0
100
AcDbLine
 10
7703.850663344685
 20
4428.112805903256
 30
0.0
 11
7703.850663344688
 21
2338.112805903256
 31
0.0
  0
LINE
  5
13462
330
747D
100
AcDbEntity
  8
細線
 48
50.0
100
AcDbLine
 10
7688.850663344685
 20
4428.112805903256
 30
0.0
 11
7688.850663344689
 21
2338.112805903256
 31
0.0
  0
LINE
  5
13463
330
747D
100
AcDbEntity
  8
細線
 48
50.0
100
AcDbLine
 10
7003.850663344685
 20
4428.112805903256
 30
0.0
 11
7003.850663344689
 21
2338.112805903256
 31
0.0
  0
LINE
  5
13464
330
747D
100
AcDbEntity
  8
細線
 48
50.0
100
AcDbLine
 10
6988.850663344685
 20
4428.112805903256
 30
0.0
 11
6988.850663344689
 21
2338.112805903256
 31
0.0
  0
LINE
  5
13465
330
747D
100
AcDbEntity
  8
細線
 48
50.0
100
AcDbLine
 10
7128.850663344685
 20
4428.112805903256
 30
0.0
 11
7128.850663344689
 21
2338.112805903256
 31
0.0
  0
LINE
  5
13466
330
747D
100
AcDbEntity
  8
細線
 48
50.0
100
AcDbLine
 10
7143.850663344685
 20
4428.112805903256
 30
0.0
 11
7143.850663344689
 21
2338.112805903256
 31
0.0
  0
LINE
  5
13467
330
747D
100
AcDbEntity
  8
細線
 48
50.0
100
AcDbLine
 10
7283.850663344686
 20
4428.112805903256
 30
0.0
 11
7283.850663344688
 21
2338.112805903256
 31
0.0
  0
LINE
  5
13468
330
747D
100
AcDbEntity
  8
細線
 48
50.0
100
AcDbLine
 10
7268.850663344685
 20
4428.112805903256
 30
0.0
 11
7268.850663344689
 21
2338.112805903256
 31
0.0
  0
LINE
  5
13469
330
747D
100
AcDbEntity
  8
細線
 48
50.0
100
AcDbLine
 10
6848.850663344684
 20
4428.112805903256
 30
0.0
 11
6848.850663344689
 21
2338.112805903256
 31
0.0
  0
LINE
  5
1346A
330
747D
100
AcDbEntity
  8
細線
 48
50.0
100
AcDbLine
 10
6863.850663344685
 20
4428.112805903256
 30
0.0
 11
6863.850663344689
 21
2338.112805903256
 31
0.0
  0
LINE
  5
1346B
330
747D
100
AcDbEntity
  8
細線
 48
50.0
100
AcDbLine
 10
6723.850663344684
 20
4428.112805903256
 30
0.0
 11
6723.850663344689
 21
2338.112805903256
 31
0.0
  0
LINE
  5
1346C
330
747D
100
AcDbEntity
  8
細線
 48
50.0
100
AcDbLine
 10
6708.850663344685
 20
4428.112805903256
 30
0.0
 11
6708.850663344688
 21
2338.112805903256
 31
0.0
  0
LINE
  5
1346D
330
747D
100
AcDbEntity
  8
細線
 48
50.0
100
AcDbLine
 10
6568.850663344685
 20
4428.112805903256
 30
0.0
 11
6568.850663344689
 21
2338.112805903256
 31
0.0
  0
LINE
  5
1346E
330
747D
100
AcDbEntity
  8
細線
 48
50.0
100
AcDbLine
 10
6583.850663344685
 20
4428.112805903256
 30
0.0
 11
6583.850663344688
 21
2338.112805903256
 31
0.0
  0
LINE
  5
1346F
330
747D
100
AcDbEntity
  8
細線
 48
50.0
100
AcDbLine
 10
6163.850663344685
 20
4428.112805903256
 30
0.0
 11
6163.850663344689
 21
2338.112805903256
 31
0.0
  0
LINE
  5
13470
330
747D
100
AcDbEntity
  8
細線
 48
50.0
100
AcDbLine
 10
6148.850663344685
 20
4428.112805903256
 30
0.0
 11
6148.850663344688
 21
2338.112805903256
 31
0.0
  0
LINE
  5
13471
330
747D
100
AcDbEntity
  8
細線
 48
50.0
100
AcDbLine
 10
6288.850663344685
 20
4428.112805903256
 30
0.0
 11
6288.850663344689
 21
2338.112805903256
 31
0.0
  0
LINE
  5
13472
330
747D
100
AcDbEntity
  8
細線
 48
50.0
100
AcDbLine
 10
6303.850663344685
 20
4428.112805903256
 30
0.0
 11
6303.850663344689
 21
2338.112805903256
 31
0.0
  0
LINE
  5
13473
330
747D
100
AcDbEntity
  8
細線
 48
50.0
100
AcDbLine
 10
6443.850663344685
 20
4428.112805903256
 30
0.0
 11
6443.850663344689
 21
2338.112805903256
 31
0.0
  0
LINE
  5
13474
330
747D
100
AcDbEntity
  8
細線
 48
50.0
100
AcDbLine
 10
6428.850663344686
 20
4428.112805903256
 30
0.0
 11
6428.850663344689
 21
2338.112805903256
 31
0.0
  0
LINE
  5
13475
330
747D
100
AcDbEntity
  8
細線
 48
50.0
100
AcDbLine
 10
6008.850663344685
 20
4428.112805903256
 30
0.0
 11
6008.850663344689
 21
2338.112805903256
 31
0.0
  0
LINE
  5
13476
330
747D
100
AcDbEntity
  8
細線
 48
50.0
100
AcDbLine
 10
6023.850663344685
 20
4428.112805903256
 30
0.0
 11
6023.850663344688
 21
2338.112805903256
 31
0.0
  0
LINE
  5
13477
330
747D
100
AcDbEntity
  8
細線
 48
50.0
100
AcDbLine
 10
5883.850663344685
 20
4428.112805903256
 30
0.0
 11
5883.850663344689
 21
2338.112805903256
 31
0.0
  0
LINE
  5
13478
330
747D
100
AcDbEntity
  8
細線
 48
50.0
100
AcDbLine
 10
5868.850663344685
 20
4428.112805903256
 30
0.0
 11
5868.850663344688
 21
2338.112805903256
 31
0.0
  0
LINE
  5
13479
330
747D
100
AcDbEntity
  8
細線
 48
50.0
100
AcDbLine
 10
5728.850663344685
 20
4428.112805903256
 30
0.0
 11
5728.850663344688
 21
2338.112805903256
 31
0.0
  0
LINE
  5
1347A
330
747D
100
AcDbEntity
  8
細線
 48
50.0
100
AcDbLine
 10
5743.850663344685
 20
4428.112805903256
 30
0.0
 11
5743.850663344688
 21
2338.112805903256
 31
0.0
  0
LINE
  5
1347B
330
747D
100
AcDbEntity
  8
細線
100
AcDbLine
 10
4911.350663344692
 20
4487.612805903256
 30
0.0
 11
4911.350663344692
 21
4464.612805903256
 31
0.0
  0
LINE
  5
1347C
330
747D
100
AcDbEntity
  8
細線
100
AcDbLine
 10
4837.350663344692
 20
4475.612805903256
 30
0.0
 11
4911.350663344692
 21
4475.612805903256
 31
0.0
  0
LINE
  5
1347D
330
747D
100
AcDbEntity
  8
細線
100
AcDbLine
 10
4837.350663344692
 20
4469.612805903254
 30
0.0
 11
4911.350663344692
 21
4469.612805903255
 31
0.0
  0
LINE
  5
1347E
330
747D
100
AcDbEntity
  8
細線
100
AcDbLine
 10
4837.350663344692
 20
4481.612805903254
 30
0.0
 11
4911.350663344692
 21
4481.612805903256
 31
0.0
  0
LINE
  5
1347F
330
747D
100
AcDbEntity
  8
細線
100
AcDbLine
 10
4985.350663344693
 20
4481.612805903256
 30
0.0
 11
4916.350663344692
 21
4481.612805903256
 31
0.0
  0
LINE
  5
13480
330
747D
100
AcDbEntity
  8
細線
100
AcDbLine
 10
4985.350663344693
 20
4469.612805903255
 30
0.0
 11
4911.350663344692
 21
4469.612805903255
 31
0.0
  0
LINE
  5
13481
330
747D
100
AcDbEntity
  8
細線
100
AcDbLine
 10
4985.350663344693
 20
4475.612805903256
 30
0.0
 11
4911.350663344692
 21
4475.612805903256
 31
0.0
  0
LINE
  5
13482
330
747D
100
AcDbEntity
  8
細線
100
AcDbLine
 10
4985.350663344693
 20
4481.612805903256
 30
0.0
 11
4911.350663344692
 21
4481.612805903256
 31
0.0
  0
LINE
  5
13483
330
747D
100
AcDbEntity
  8
部品1
 48
0.01
100
AcDbLine
 10
4823.350663344692
 20
4494.112805903256
 30
0.0
 11
4999.350663344692
 21
4494.112805903256
 31
0.0
  0
LINE
  5
13484
330
747D
100
AcDbEntity
  8
部品1
 48
0.01
100
AcDbLine
 10
5001.350663344692
 20
4492.112805903256
 30
0.0
 11
5001.350663344692
 21
4460.612805903256
 31
0.0
  0
LINE
  5
13485
330
747D
100
AcDbEntity
  8
部品1
 48
0.01
100
AcDbLine
 10
4999.350663344692
 20
4458.612805903256
 30
0.0
 11
4823.350663344692
 21
4458.612805903256
 31
0.0
  0
LINE
  5
13486
330
747D
100
AcDbEntity
  8
部品1
 48
0.01
100
AcDbLine
 10
4821.350663344692
 20
4460.612805903256
 30
0.0
 11
4821.350663344692
 21
4492.112805903256
 31
0.0
  0
LINE
  5
13487
330
747D
100
AcDbEntity
  8
細線
100
AcDbLine
 10
4985.350663344693
 20
4487.612805903256
 30
0.0
 11
4985.350663344693
 21
4464.612805903256
 31
0.0
  0
LINE
  5
13488
330
747D
100
AcDbEntity
  8
細線
100
AcDbLine
 10
4837.350663344692
 20
4464.612805903256
 30
0.0
 11
4837.350663344692
 21
4487.612805903256
 31
0.0
  0
LINE
  5
13489
330
747D
100
AcDbEntity
  8
細線
100
AcDbLine
 10
4837.350663344692
 20
4487.612805903256
 30
0.0
 11
4911.350663344692
 21
4487.612805903256
 31
0.0
  0
LINE
  5
1348A
330
747D
100
AcDbEntity
  8
細線
100
AcDbLine
 10
4985.350663344693
 20
4464.612805903256
 30
0.0
 11
4911.350663344692
 21
4464.612805903256
 31
0.0
  0
LINE
  5
1348B
330
747D
100
AcDbEntity
  8
細線
100
AcDbLine
 10
4911.350663344692
 20
4487.612805903256
 30
0.0
 11
4985.350663344693
 21
4487.612805903256
 31
0.0
  0
LINE
  5
1348C
330
747D
100
AcDbEntity
  8
細線
100
AcDbLine
 10
4911.350663344692
 20
4464.612805903256
 30
0.0
 11
4837.350663344692
 21
4464.612805903256
 31
0.0
  0
ARC
  5
1348D
330
747D
100
AcDbEntity
  8
部品1
 48
0.01
100
AcDbCircle
 10
4999.350663344692
 20
4492.112805903256
 30
0.0
 40
2.0
100
AcDbArc
 50
0.0
 51
90.0
  0
ARC
  5
1348E
330
747D
100
AcDbEntity
  8
部品1
 48
0.01
100
AcDbCircle
 10
4999.350663344692
 20
4460.612805903256
 30
0.0
 40
2.0
100
AcDbArc
 50
270.0
 51
0.0
  0
ARC
  5
1348F
330
747D
100
AcDbEntity
  8
部品1
 48
0.01
100
AcDbCircle
 10
4823.350663344692
 20
4492.112805903256
 30
0.0
 40
2.0
100
AcDbArc
 50
90.0
 51
180.0
  0
ARC
  5
13490
330
747D
100
AcDbEntity
  8
部品1
 48
0.01
100
AcDbCircle
 10
4823.350663344692
 20
4460.612805903256
 30
0.0
 40
2.0
100
AcDbArc
 50
180.0
 51
270.0
  0
ARC
  5
13491
330
747D
100
AcDbEntity
  8
部品1
 48
0.01
100
AcDbCircle
 10
3769.350663344674
 20
4460.612805903254
 30
0.0
 40
2.0
100
AcDbArc
 50
270.0
 51
0.0
  0
ARC
  5
13492
330
747D
100
AcDbEntity
  8
部品1
 48
0.01
100
AcDbCircle
 10
3769.350663344674
 20
4492.112805903254
 30
0.0
 40
2.0
100
AcDbArc
 50
0.0
 51
90.0
  0
ARC
  5
13493
330
747D
100
AcDbEntity
  8
部品1
 48
0.01
100
AcDbCircle
 10
3593.350663344674
 20
4460.612805903254
 30
0.0
 40
2.0
100
AcDbArc
 50
180.0
 51
270.0
  0
ARC
  5
13494
330
747D
100
AcDbEntity
  8
部品1
 48
0.01
100
AcDbCircle
 10
3593.350663344674
 20
4492.112805903254
 30
0.0
 40
2.0
100
AcDbArc
 50
90.0
 51
180.0
  0
LINE
  5
13495
330
747D
100
AcDbEntity
  8
細線
100
AcDbLine
 10
3681.350663344674
 20
4464.612805903254
 30
0.0
 11
3755.350663344675
 21
4464.612805903254
 31
0.0
  0
LINE
  5
13496
330
747D
100
AcDbEntity
  8
細線
100
AcDbLine
 10
3681.350663344674
 20
4487.612805903254
 30
0.0
 11
3607.350663344674
 21
4487.612805903254
 31
0.0
  0
LINE
  5
13497
330
747D
100
AcDbEntity
  8
細線
100
AcDbLine
 10
3607.350663344674
 20
4464.612805903254
 30
0.0
 11
3681.350663344674
 21
4464.612805903254
 31
0.0
  0
LINE
  5
13498
330
747D
100
AcDbEntity
  8
細線
100
AcDbLine
 10
3755.350663344675
 20
4487.612805903254
 30
0.0
 11
3681.350663344674
 21
4487.612805903254
 31
0.0
  0
LINE
  5
13499
330
747D
100
AcDbEntity
  8
細線
100
AcDbLine
 10
3755.350663344675
 20
4464.612805903254
 30
0.0
 11
3755.350663344675
 21
4487.612805903254
 31
0.0
  0
LINE
  5
1349A
330
747D
100
AcDbEntity
  8
細線
100
AcDbLine
 10
3607.350663344674
 20
4487.612805903254
 30
0.0
 11
3607.350663344674
 21
4464.612805903254
 31
0.0
  0
LINE
  5
1349B
330
747D
100
AcDbEntity
  8
部品1
 48
0.01
100
AcDbLine
 10
3771.350663344674
 20
4460.612805903254
 30
0.0
 11
3771.350663344674
 21
4492.112805903254
 31
0.0
  0
LINE
  5
1349C
330
747D
100
AcDbEntity
  8
部品1
 48
0.01
100
AcDbLine
 10
3593.350663344674
 20
4458.612805903254
 30
0.0
 11
3769.350663344674
 21
4458.612805903254
 31
0.0
  0
LINE
  5
1349D
330
747D
100
AcDbEntity
  8
部品1
 48
0.01
100
AcDbLine
 10
3591.350663344675
 20
4492.112805903254
 30
0.0
 11
3591.350663344675
 21
4460.612805903254
 31
0.0
  0
LINE
  5
1349E
330
747D
100
AcDbEntity
  8
部品1
 48
0.01
100
AcDbLine
 10
3769.350663344674
 20
4494.112805903254
 30
0.0
 11
3593.350663344674
 21
4494.112805903254
 31
0.0
  0
LINE
  5
1349F
330
747D
100
AcDbEntity
  8
細線
100
AcDbLine
 10
3607.350663344674
 20
4481.612805903254
 30
0.0
 11
3681.350663344674
 21
4481.612805903254
 31
0.0
  0
LINE
  5
134A0
330
747D
100
AcDbEntity
  8
細線
100
AcDbLine
 10
3607.350663344674
 20
4475.612805903255
 30
0.0
 11
3681.350663344674
 21
4475.612805903255
 31
0.0
  0
LINE
  5
134A1
330
747D
100
AcDbEntity
  8
細線
100
AcDbLine
 10
3607.350663344674
 20
4469.612805903254
 30
0.0
 11
3681.350663344674
 21
4469.612805903254
 31
0.0
  0
LINE
  5
134A2
330
747D
100
AcDbEntity
  8
細線
100
AcDbLine
 10
3607.350663344674
 20
4481.612805903254
 30
0.0
 11
3676.350663344674
 21
4481.612805903254
 31
0.0
  0
LINE
  5
134A3
330
747D
100
AcDbEntity
  8
細線
100
AcDbLine
 10
3755.350663344675
 20
4481.612805903252
 30
0.0
 11
3681.350663344674
 21
4481.612805903254
 31
0.0
  0
LINE
  5
134A4
330
747D
100
AcDbEntity
  8
細線
100
AcDbLine
 10
3755.350663344675
 20
4469.612805903252
 30
0.0
 11
3681.350663344674
 21
4469.612805903254
 31
0.0
  0
LINE
  5
134A5
330
747D
100
AcDbEntity
  8
細線
100
AcDbLine
 10
3755.350663344675
 20
4475.612805903255
 30
0.0
 11
3681.350663344674
 21
4475.612805903255
 31
0.0
  0
LINE
  5
134A6
330
747D
100
AcDbEntity
  8
細線
100
AcDbLine
 10
3681.350663344674
 20
4487.612805903254
 30
0.0
 11
3681.350663344674
 21
4464.612805903254
 31
0.0
  0
ARC
  5
134A7
330
747D
100
AcDbEntity
  8
部品1
 48
0.01
100
AcDbCircle
 10
7453.350663344692
 20
4460.612805903256
 30
0.0
 40
2.0
100
AcDbArc
 50
180.0
 51
270.0
  0
ARC
  5
134A8
330
747D
100
AcDbEntity
  8
部品1
 48
0.01
100
AcDbCircle
 10
7453.350663344692
 20
4492.112805903256
 30
0.0
 40
2.0
100
AcDbArc
 50
90.0
 51
180.0
  0
ARC
  5
134A9
330
747D
100
AcDbEntity
  8
部品1
 48
0.01
100
AcDbCircle
 10
7629.350663344692
 20
4460.612805903256
 30
0.0
 40
2.0
100
AcDbArc
 50
270.0
 51
0.0
  0
ARC
  5
134AA
330
747D
100
AcDbEntity
  8
部品1
 48
0.01
100
AcDbCircle
 10
7629.350663344692
 20
4492.112805903256
 30
0.0
 40
2.0
100
AcDbArc
 50
0.0
 51
90.0
  0
LINE
  5
134AB
330
747D
100
AcDbEntity
  8
細線
100
AcDbLine
 10
7541.350663344693
 20
4464.612805903256
 30
0.0
 11
7467.350663344692
 21
4464.612805903256
 31
0.0
  0
LINE
  5
134AC
330
747D
100
AcDbEntity
  8
細線
100
AcDbLine
 10
7541.350663344693
 20
4487.612805903256
 30
0.0
 11
7615.350663344692
 21
4487.612805903256
 31
0.0
  0
LINE
  5
134AD
330
747D
100
AcDbEntity
  8
細線
100
AcDbLine
 10
7615.350663344692
 20
4464.612805903256
 30
0.0
 11
7541.350663344693
 21
4464.612805903256
 31
0.0
  0
LINE
  5
134AE
330
747D
100
AcDbEntity
  8
細線
100
AcDbLine
 10
7467.350663344692
 20
4487.612805903256
 30
0.0
 11
7541.350663344693
 21
4487.612805903256
 31
0.0
  0
LINE
  5
134AF
330
747D
100
AcDbEntity
  8
細線
100
AcDbLine
 10
7467.350663344692
 20
4464.612805903256
 30
0.0
 11
7467.350663344692
 21
4487.612805903256
 31
0.0
  0
LINE
  5
134B0
330
747D
100
AcDbEntity
  8
細線
100
AcDbLine
 10
7615.350663344692
 20
4487.612805903256
 30
0.0
 11
7615.350663344692
 21
4464.612805903256
 31
0.0
  0
LINE
  5
134B1
330
747D
100
AcDbEntity
  8
部品1
 48
0.01
100
AcDbLine
 10
7451.350663344692
 20
4460.612805903256
 30
0.0
 11
7451.350663344692
 21
4492.112805903256
 31
0.0
  0
LINE
  5
134B2
330
747D
100
AcDbEntity
  8
部品1
 48
0.01
100
AcDbLine
 10
7629.350663344692
 20
4458.612805903256
 30
0.0
 11
7453.350663344692
 21
4458.612805903256
 31
0.0
  0
LINE
  5
134B3
330
747D
100
AcDbEntity
  8
部品1
 48
0.01
100
AcDbLine
 10
7631.350663344692
 20
4492.112805903256
 30
0.0
 11
7631.350663344692
 21
4460.612805903256
 31
0.0
  0
LINE
  5
134B4
330
747D
100
AcDbEntity
  8
部品1
 48
0.01
100
AcDbLine
 10
7453.350663344692
 20
4494.112805903256
 30
0.0
 11
7629.350663344692
 21
4494.112805903256
 31
0.0
  0
LINE
  5
134B5
330
747D
100
AcDbEntity
  8
細線
100
AcDbLine
 10
7615.350663344692
 20
4481.612805903256
 30
0.0
 11
7541.350663344693
 21
4481.612805903256
 31
0.0
  0
LINE
  5
134B6
330
747D
100
AcDbEntity
  8
細線
100
AcDbLine
 10
7615.350663344692
 20
4475.612805903256
 30
0.0
 11
7541.350663344693
 21
4475.612805903256
 31
0.0
  0
LINE
  5
134B7
330
747D
100
AcDbEntity
  8
細線
100
AcDbLine
 10
7615.350663344692
 20
4469.612805903255
 30
0.0
 11
7541.350663344693
 21
4469.612805903255
 31
0.0
  0
LINE
  5
134B8
330
747D
100
AcDbEntity
  8
細線
100
AcDbLine
 10
7615.350663344692
 20
4481.612805903256
 30
0.0
 11
7546.350663344693
 21
4481.612805903256
 31
0.0
  0
LINE
  5
134B9
330
747D
100
AcDbEntity
  8
細線
100
AcDbLine
 10
7467.350663344692
 20
4481.612805903254
 30
0.0
 11
7541.350663344693
 21
4481.612805903256
 31
0.0
  0
LINE
  5
134BA
330
747D
100
AcDbEntity
  8
細線
100
AcDbLine
 10
7467.350663344692
 20
4469.612805903254
 30
0.0
 11
7541.350663344693
 21
4469.612805903255
 31
0.0
  0
LINE
  5
134BB
330
747D
100
AcDbEntity
  8
細線
100
AcDbLine
 10
7467.350663344692
 20
4475.612805903256
 30
0.0
 11
7541.350663344693
 21
4475.612805903256
 31
0.0
  0
LINE
  5
134BC
330
747D
100
AcDbEntity
  8
細線
100
AcDbLine
 10
7541.350663344693
 20
4487.612805903256
 30
0.0
 11
7541.350663344693
 21
4464.612805903256
 31
0.0
  0
LINE
  5
134BD
330
747D
100
AcDbEntity
  8
細線
100
AcDbLine
 10
6311.350663344674
 20
4487.612805903254
 30
0.0
 11
6311.350663344674
 21
4464.612805903254
 31
0.0
  0
LINE
  5
134BE
330
747D
100
AcDbEntity
  8
細線
100
AcDbLine
 10
6385.350663344674
 20
4475.612805903255
 30
0.0
 11
6311.350663344674
 21
4475.612805903255
 31
0.0
  0
LINE
  5
134BF
330
747D
100
AcDbEntity
  8
細線
100
AcDbLine
 10
6385.350663344674
 20
4469.612805903252
 30
0.0
 11
6311.350663344674
 21
4469.612805903254
 31
0.0
  0
LINE
  5
134C0
330
747D
100
AcDbEntity
  8
細線
100
AcDbLine
 10
6385.350663344674
 20
4481.612805903252
 30
0.0
 11
6311.350663344674
 21
4481.612805903254
 31
0.0
  0
LINE
  5
134C1
330
747D
100
AcDbEntity
  8
細線
100
AcDbLine
 10
6237.350663344674
 20
4481.612805903254
 30
0.0
 11
6306.350663344674
 21
4481.612805903254
 31
0.0
  0
LINE
  5
134C2
330
747D
100
AcDbEntity
  8
細線
100
AcDbLine
 10
6237.350663344674
 20
4469.612805903254
 30
0.0
 11
6311.350663344674
 21
4469.612805903254
 31
0.0
  0
LINE
  5
134C3
330
747D
100
AcDbEntity
  8
細線
100
AcDbLine
 10
6237.350663344674
 20
4475.612805903255
 30
0.0
 11
6311.350663344674
 21
4475.612805903255
 31
0.0
  0
LINE
  5
134C4
330
747D
100
AcDbEntity
  8
細線
100
AcDbLine
 10
6237.350663344674
 20
4481.612805903254
 30
0.0
 11
6311.350663344674
 21
4481.612805903254
 31
0.0
  0
LINE
  5
134C5
330
747D
100
AcDbEntity
  8
部品1
 48
0.01
100
AcDbLine
 10
6399.350663344674
 20
4494.112805903254
 30
0.0
 11
6223.350663344675
 21
4494.112805903254
 31
0.0
  0
LINE
  5
134C6
330
747D
100
AcDbEntity
  8
部品1
 48
0.01
100
AcDbLine
 10
6221.350663344674
 20
4492.112805903254
 30
0.0
 11
6221.350663344674
 21
4460.612805903254
 31
0.0
  0
LINE
  5
134C7
330
747D
100
AcDbEntity
  8
部品1
 48
0.01
100
AcDbLine
 10
6223.350663344675
 20
4458.612805903254
 30
0.0
 11
6399.350663344674
 21
4458.612805903254
 31
0.0
  0
LINE
  5
134C8
330
747D
100
AcDbEntity
  8
部品1
 48
0.01
100
AcDbLine
 10
6401.350663344674
 20
4460.612805903254
 30
0.0
 11
6401.350663344674
 21
4492.112805903254
 31
0.0
  0
LINE
  5
134C9
330
747D
100
AcDbEntity
  8
細線
100
AcDbLine
 10
6237.350663344674
 20
4487.612805903254
 30
0.0
 11
6237.350663344674
 21
4464.612805903254
 31
0.0
  0
LINE
  5
134CA
330
747D
100
AcDbEntity
  8
細線
100
AcDbLine
 10
6385.350663344674
 20
4464.612805903254
 30
0.0
 11
6385.350663344674
 21
4487.612805903254
 31
0.0
  0
LINE
  5
134CB
330
747D
100
AcDbEntity
  8
細線
100
AcDbLine
 10
6385.350663344674
 20
4487.612805903254
 30
0.0
 11
6311.350663344674
 21
4487.612805903254
 31
0.0
  0
LINE
  5
134CC
330
747D
100
AcDbEntity
  8
細線
100
AcDbLine
 10
6237.350663344674
 20
4464.612805903254
 30
0.0
 11
6311.350663344674
 21
4464.612805903254
 31
0.0
  0
LINE
  5
134CD
330
747D
100
AcDbEntity
  8
細線
100
AcDbLine
 10
6311.350663344674
 20
4487.612805903254
 30
0.0
 11
6237.350663344674
 21
4487.612805903254
 31
0.0
  0
LINE
  5
134CE
330
747D
100
AcDbEntity
  8
細線
100
AcDbLine
 10
6311.350663344674
 20
4464.612805903254
 30
0.0
 11
6385.350663344674
 21
4464.612805903254
 31
0.0
  0
ARC
  5
134CF
330
747D
100
AcDbEntity
  8
部品1
 48
0.01
100
AcDbCircle
 10
6223.350663344675
 20
4492.112805903254
 30
0.0
 40
2.0
100
AcDbArc
 50
90.0
 51
180.0
  0
ARC
  5
134D0
330
747D
100
AcDbEntity
  8
部品1
 48
0.01
100
AcDbCircle
 10
6223.350663344675
 20
4460.612805903254
 30
0.0
 40
2.0
100
AcDbArc
 50
180.0
 51
270.0
  0
ARC
  5
134D1
330
747D
100
AcDbEntity
  8
部品1
 48
0.01
100
AcDbCircle
 10
6399.350663344674
 20
4492.112805903254
 30
0.0
 40
2.0
100
AcDbArc
 50
0.0
 51
90.0
  0
ARC
  5
134D2
330
747D
100
AcDbEntity
  8
部品1
 48
0.01
100
AcDbCircle
 10
6399.350663344674
 20
4460.612805903254
 30
0.0
 40
2.0
100
AcDbArc
 50
270.0
 51
0.0
  0
LINE
  5
137B5
330
747D
100
AcDbEntity
  8
部品1
100
AcDbLine
 10
5556.350663344681
 20
9295.729096344958
 30
0.0
 11
3036.350663344681
 21
9295.729096344954
 31
0.0
  0
LINE
  5
137B6
330
747D
100
AcDbEntity
  8
部品1
100
AcDbLine
 10
3009.350663344682
 20
9295.72909634496
 30
0.0
 11
2981.350663344681
 21
9295.72909634496
 31
0.0
  0
LINE
  5
137B7
330
747D
100
AcDbEntity
  8
部品1
100
AcDbLine
 10
5666.350663344681
 20
9295.729096344958
 30
0.0
 11
8186.350663344681
 21
9295.729096344958
 31
0.0
  0
LINE
  5
137B8
330
747D
100
AcDbEntity
  8
部品1
100
AcDbLine
 10
8213.35066334468
 20
9295.72909634496
 30
0.0
 11
8241.350663344681
 21
9295.72909634496
 31
0.0
  0
DIMENSION
  5
139CA
330
747D
100
AcDbEntity
  8
寸法
 48
50.0
100
AcDbDimension
  2
*D17
 10
10503.14201941932
 20
4537.458064776585
 30
0.0
 11
10513.80749467824
 21
4908.304728018284
 31
0.0
 70
   161
 71
     5
 42
141.0
  3
INABA_S40G
100
AcDbAlignedDimension
 13
11083.14644634627
 23
4661.835554737934
 33
0.0
 14
11079.09299078964
 24
4520.893830972221
 34
0.0
1001
ACAD
1000
DSTYLE
1002
{
1070
   174
1070
     0
1070
   272
1070
     1
1070
   288
1070
     0
1070
   341
1005
0
1002
}
  0
LINE
  5
139CB
330
747D
100
AcDbEntity
  8
細線
 48
50.0
100
AcDbLine
 10
13621.2504261877
 20
4428.112805903254
 30
0.0
 11
13621.2504261877
 21
2338.112805903255
 31
0.0
  0
LINE
  5
139CC
330
747D
100
AcDbEntity
  8
細線
 48
50.0
100
AcDbLine
 10
13636.2504261877
 20
4428.112805903254
 30
0.0
 11
13636.2504261877
 21
2338.112805903255
 31
0.0
  0
LINE
  5
139CD
330
747D
100
AcDbEntity
  8
細線
 48
50.0
100
AcDbLine
 10
13496.2504261877
 20
4428.112805903254
 30
0.0
 11
13496.2504261877
 21
2338.112805903255
 31
0.0
  0
LINE
  5
139CE
330
747D
100
AcDbEntity
  8
細線
 48
50.0
100
AcDbLine
 10
13481.2504261877
 20
4428.112805903254
 30
0.0
 11
13481.2504261877
 21
2338.112805903255
 31
0.0
  0
LINE
  5
139CF
330
747D
100
AcDbEntity
  8
細線
 48
50.0
100
AcDbLine
 10
13341.2504261877
 20
4428.112805903254
 30
0.0
 11
13341.2504261877
 21
2338.112805903255
 31
0.0
  0
LINE
  5
139D0
330
747D
100
AcDbEntity
  8
細線
 48
50.0
100
AcDbLine
 10
13356.2504261877
 20
4428.112805903254
 30
0.0
 11
13356.2504261877
 21
2338.112805903255
 31
0.0
  0
LINE
  5
139D1
330
747D
100
AcDbEntity
  8
部品1
100
AcDbLine
 10
12438.75042618769
 20
4428.112805903254
 30
0.0
 11
12438.75042618769
 21
2338.112805903254
 31
0.0
  0
LINE
  5
139D2
330
747D
100
AcDbEntity
  8
細線
 48
50.0
100
AcDbLine
 10
12096.25042618769
 20
4428.112805903254
 30
0.0
 11
12096.25042618769
 21
2338.112805903254
 31
0.0
  0
LINE
  5
139D3
330
747D
100
AcDbEntity
  8
細線
 48
50.0
100
AcDbLine
 10
12081.25042618769
 20
4428.112805903254
 30
0.0
 11
12081.25042618769
 21
2338.112805903254
 31
0.0
  0
LINE
  5
139D4
330
747D
100
AcDbEntity
  8
細線
 48
50.0
100
AcDbLine
 10
12221.25042618769
 20
4428.112805903254
 30
0.0
 11
12221.25042618769
 21
2338.112805903254
 31
0.0
  0
LINE
  5
139D5
330
747D
100
AcDbEntity
  8
細線
 48
50.0
100
AcDbLine
 10
12236.25042618769
 20
4428.112805903254
 30
0.0
 11
12236.25042618769
 21
2338.112805903254
 31
0.0
  0
LINE
  5
139D6
330
747D
100
AcDbEntity
  8
細線
 48
50.0
100
AcDbLine
 10
12376.25042618769
 20
4428.112805903254
 30
0.0
 11
12376.25042618769
 21
2338.112805903254
 31
0.0
  0
LINE
  5
139D7
330
747D
100
AcDbEntity
  8
細線
 48
50.0
100
AcDbLine
 10
12361.25042618769
 20
4428.112805903254
 30
0.0
 11
12361.25042618769
 21
2338.112805903254
 31
0.0
  0
LINE
  5
139D8
330
747D
100
AcDbEntity
  8
部品1
100
AcDbLine
 10
12018.75042618769
 20
4428.112805903254
 30
0.0
 11
12018.75042618769
 21
2338.112805903254
 31
0.0
  0
DIMENSION
  5
139D9
330
747D
100
AcDbEntity
  8
寸法
 48
50.0
100
AcDbDimension
  2
*D18
 10
13833.75042618769
 20
5061.770259482559
 30
0.0
 11
14039.79767028218
 21
5061.770259482559
 31
0.0
 70
   160
 71
     5
 42
80.0
  3
INABA_S40G
100
AcDbAlignedDimension
 13
13753.75042618769
 23
4609.923485514909
 33
0.0
 14
13833.75042618769
 24
4608.112805903256
 34
0.0
100
AcDbRotatedDimension
1001
ACAD
1000
DSTYLE
1002
{
1070
   174
1070
     0
1070
   272
1070
     1
1070
   288
1070
     0
1070
   341
1005
0
1002
}
  0
LINE
  5
139DA
330
747D
100
AcDbEntity
  8
細線
 48
50.0
100
AcDbLine
 10
11256.25042618769
 20
4428.112805903254
 30
0.0
 11
11256.25042618769
 21
2338.112805903254
 31
0.0
  0
LINE
  5
139DB
330
747D
100
AcDbEntity
  8
細線
 48
50.0
100
AcDbLine
 10
11241.25042618769
 20
4428.112805903254
 30
0.0
 11
11241.25042618769
 21
2338.112805903254
 31
0.0
  0
LINE
  5
139DC
330
747D
100
AcDbEntity
  8
細線
 48
50.0
100
AcDbLine
 10
11381.25042618769
 20
4428.112805903254
 30
0.0
 11
11381.25042618769
 21
2338.112805903254
 31
0.0
  0
LINE
  5
139DD
330
747D
100
AcDbEntity
  8
細線
 48
50.0
100
AcDbLine
 10
11396.25042618769
 20
4428.112805903254
 30
0.0
 11
11396.25042618769
 21
2338.112805903254
 31
0.0
  0
LINE
  5
139DE
330
747D
100
AcDbEntity
  8
細線
 48
50.0
100
AcDbLine
 10
11536.25042618769
 20
4428.112805903254
 30
0.0
 11
11536.25042618769
 21
2338.112805903254
 31
0.0
  0
LINE
  5
139DF
330
747D
100
AcDbEntity
  8
細線
 48
50.0
100
AcDbLine
 10
11521.25042618769
 20
4428.112805903254
 30
0.0
 11
11521.25042618769
 21
2338.112805903254
 31
0.0
  0
LINE
  5
139E0
330
747D
100
AcDbEntity
  8
細線
 48
50.0
100
AcDbLine
 10
11941.25042618769
 20
4428.112805903254
 30
0.0
 11
11941.25042618769
 21
2338.112805903254
 31
0.0
  0
LINE
  5
139E1
330
747D
100
AcDbEntity
  8
細線
 48
50.0
100
AcDbLine
 10
11956.25042618769
 20
4428.112805903254
 30
0.0
 11
11956.25042618769
 21
2338.112805903254
 31
0.0
  0
LINE
  5
139E2
330
747D
100
AcDbEntity
  8
細線
 48
50.0
100
AcDbLine
 10
11816.25042618769
 20
4428.112805903254
 30
0.0
 11
11816.25042618769
 21
2338.112805903254
 31
0.0
  0
LINE
  5
139E3
330
747D
100
AcDbEntity
  8
細線
 48
50.0
100
AcDbLine
 10
11801.25042618769
 20
4428.112805903254
 30
0.0
 11
11801.25042618769
 21
2338.112805903254
 31
0.0
  0
LINE
  5
139E4
330
747D
100
AcDbEntity
  8
細線
 48
50.0
100
AcDbLine
 10
11661.25042618769
 20
4428.112805903254
 30
0.0
 11
11661.25042618769
 21
2338.112805903254
 31
0.0
  0
LINE
  5
139E5
330
747D
100
AcDbEntity
  8
細線
 48
50.0
100
AcDbLine
 10
11676.25042618769
 20
4428.112805903254
 30
0.0
 11
11676.25042618769
 21
2338.112805903254
 31
0.0
  0
LWPOLYLINE
  5
139E6
330
747D
100
AcDbEntity
  8
部品1
100
AcDbPolyline
 90
        4
 70
     1
 43
0.0
 10
12067.01509307346
 20
1828.710439851414
 10
12067.01509307346
 20
1588.818118305881
 10
12830.48575930191
 20
1588.818118305881
 10
12830.48575930191
 20
1828.710439851414
  0
TEXT
  5
139E7
330
747D
100
AcDbEntity
  8
部品1
100
AcDbText
 10
12156.46119449707
 20
1635.81691063289
 30
0.0
 40
135.0
  1
側面図
  7
STYLE2
100
AcDbText
  0
LINE
  5
139E8
330
747D
100
AcDbEntity
  8
部品1
100
AcDbLine
 10
11123.75042618769
 20
2288.112805903255
 30
0.0
 11
13753.7504261877
 21
2288.112805903255
 31
0.0
  0
DIMENSION
  5
139E9
330
747D
100
AcDbEntity
  8
寸法
 48
50.0
100
AcDbDimension
  2
*D19
 10
11063.75042618769
 20
5281.980946214177
 30
0.0
 11
12467.10935107506
 21
5281.980946214177
 31
0.0
 70
   160
 71
     5
 42
2770.0
  3
INABA_S40G
100
AcDbAlignedDimension
 13
13833.75042618769
 23
4608.112805903256
 33
0.0
 14
11063.75042618769
 24
4663.112805903259
 34
0.0
100
AcDbRotatedDimension
1001
ACAD
1000
DSTYLE
1002
{
1070
   174
1070
     0
1070
   272
1070
     1
1070
   288
1070
     0
1070
   341
1005
0
1002
}
  0
DIMENSION
  5
139EA
330
747D
100
AcDbEntity
  8
寸法
 48
50.0
100
AcDbDimension
  2
*D20
 10
11063.75042618769
 20
5061.770259482559
 30
0.0
 11
10754.1126309121
 21
5061.770259482559
 31
0.0
 70
   160
 71
     5
 42
60.0
  3
INABA_S40G
100
AcDbAlignedDimension
 13
11123.75042618769
 23
4659.11442402623
 33
0.0
 14
11063.75042618769
 24
4663.112805903259
 34
0.0
100
AcDbRotatedDimension
1001
ACAD
1000
DSTYLE
1002
{
1070
   174
1070
     0
1070
   272
1070
     1
1070
   288
1070
     0
1070
   341
1005
0
1002
}
  0
DIMENSION
  5
139EB
330
747D
100
AcDbEntity
  8
寸法
 48
50.0
100
AcDbDimension
  2
*D21
 10
11123.75042618769
 20
5061.770259482559
 30
0.0
 11
12478.52061721688
 21
5061.770259482559
 31
0.0
 70
   160
  1
柱外寸法<>
 71
     5
 42
2630.0
  3
INABA_S40G
100
AcDbAlignedDimension
 13
13753.75042618769
 23
4609.923485514909
 33
0.0
 14
11123.75042618769
 24
4659.11442402623
 34
0.0
100
AcDbRotatedDimension
1001
ACAD
1000
DSTYLE
1002
{
1070
   174
1070
     0
1070
   272
1070
     1
1070
   288
1070
     0
1070
   341
1005
0
1002
}
  0
LINE
  5
139EC
330
747D
100
AcDbEntity
  8
部品1
100
AcDbLine
 10
13698.75042618769
 20
4428.112805903254
 30
0.0
 11
13698.75042618769
 21
2338.112805903255
 31
0.0
  0
LINE
  5
139ED
330
747D
100
AcDbEntity
  8
部品1
100
AcDbLine
 10
13753.75042618769
 20
4482.647079290993
 30
0.0
 11
13753.75042618769
 21
2188.112805903255
 31
0.0
  0
LINE
  5
139EE
330
747D
100
AcDbEntity
  8
部品1
100
AcDbLine
 10
11598.75042618769
 20
4428.112805903254
 30
0.0
 11
11598.75042618769
 21
2338.112805903254
 31
0.0
  0
DIMENSION
  5
139EF
330
747D
100
AcDbEntity
  8
寸法
100
AcDbDimension
  2
*D22
 10
10280.00029700443
 20
2288.11280590325
 30
0.0
 11
10280.00029700443
 21
1982.065561808763
 31
0.0
 70
   160
 71
     5
 42
50.00000000000454
  3
INABA_S40G
100
AcDbAlignedDimension
 13
11123.75042618769
 23
2338.112805903254
 33
0.0
 14
11123.75042618769
 24
2288.11280590325
 34
0.0
 50
90.0
100
AcDbRotatedDimension
1001
ACAD
1000
DSTYLE
1002
{
1070
   174
1070
     0
1070
   272
1070
     1
1070
   288
1070
     0
1070
   341
1005
0
1002
}
  0
LINE
  5
139F0
330
747D
100
AcDbEntity
  8
部品1
100
AcDbLine
 10
11123.75042618769
 20
4520.255243832132
 30
0.0
 11
11123.75042618769
 21
2188.112805903255
 31
0.0
  0
LINE
  5
139F1
330
747D
100
AcDbEntity
  8
部品1
100
AcDbLine
 10
11178.75042618769
 20
4428.112805903254
 30
0.0
 11
11178.75042618769
 21
2338.112805903254
 31
0.0
  0
LINE
  5
139F2
330
747D
100
AcDbEntity
  8
部品1
100
AcDbLine
 10
11123.75042618769
 20
2338.112805903254
 30
0.0
 11
13753.75042618769
 21
2338.112805903255
 31
0.0
  0
LINE
  5
139F3
330
747D
100
AcDbEntity
  8
部品1
100
AcDbLine
 10
11123.75042618769
 20
4428.112805903254
 30
0.0
 11
13753.75042618769
 21
4428.112805903254
 31
0.0
  0
LINE
  5
139F4
330
747D
100
AcDbEntity
  8
部品1
100
AcDbLine
 10
13278.75042618769
 20
4428.112805903254
 30
0.0
 11
13278.75042618769
 21
2338.112805903255
 31
0.0
  0
LINE
  5
139F5
330
747D
100
AcDbEntity
  8
細線
 48
50.0
100
AcDbLine
 10
12781.25042618769
 20
4428.112805903254
 30
0.0
 11
12781.25042618769
 21
2338.112805903254
 31
0.0
  0
LINE
  5
139F6
330
747D
100
AcDbEntity
  8
細線
 48
50.0
100
AcDbLine
 10
12796.25042618769
 20
4428.112805903254
 30
0.0
 11
12796.25042618769
 21
2338.112805903254
 31
0.0
  0
LINE
  5
139F7
330
747D
100
AcDbEntity
  8
細線
 48
50.0
100
AcDbLine
 10
12656.25042618769
 20
4428.112805903254
 30
0.0
 11
12656.25042618769
 21
2338.112805903254
 31
0.0
  0
LINE
  5
139F8
330
747D
100
AcDbEntity
  8
細線
 48
50.0
100
AcDbLine
 10
12641.25042618769
 20
4428.112805903254
 30
0.0
 11
12641.25042618769
 21
2338.112805903254
 31
0.0
  0
LINE
  5
139F9
330
747D
100
AcDbEntity
  8
細線
 48
50.0
100
AcDbLine
 10
12501.25042618769
 20
4428.112805903254
 30
0.0
 11
12501.25042618769
 21
2338.112805903254
 31
0.0
  0
LINE
  5
139FA
330
747D
100
AcDbEntity
  8
細線
 48
50.0
100
AcDbLine
 10
12516.25042618769
 20
4428.112805903254
 30
0.0
 11
12516.25042618769
 21
2338.112805903254
 31
0.0
  0
TEXT
  5
139FB
330
747D
100
AcDbEntity
  8
部品1
 48
50.0
100
AcDbText
 10
12790.33142814878
 20
4685.381898841561
 30
0.0
 40
120.0
  1
37
 50
90.0
  7
STYLE1
100
AcDbText
  0
TEXT
  5
139FC
330
747D
100
AcDbEntity
  8
部品1
 48
50.0
100
AcDbText
 10
12312.69840548369
 20
4822.883157059845
 30
0.0
 40
120.0
  1
1000
  7
STYLE1
100
AcDbText
  0
LINE
  5
139FD
330
747D
100
AcDbEntity
  8
部品1
 48
50.0
100
AcDbLine
 10
12624.43057025997
 20
4786.99913490741
 30
0.0
 11
12624.43057025997
 21
4770.799134907412
 31
0.0
  0
LINE
  5
139FE
330
747D
100
AcDbEntity
  8
部品1
 48
50.0
100
AcDbLine
 10
12324.43057025997
 20
4786.99913490741
 30
0.0
 11
12624.43057025997
 21
4786.99913490741
 31
0.0
  0
LINE
  5
139FF
330
747D
100
AcDbEntity
  8
部品1
100
AcDbLine
 10
11071.29541254465
 20
4661.830541237521
 30
0.0
 11
13826.36230304916
 21
4606.753603612394
 31
0.0
  0
LINE
  5
13A00
330
747D
100
AcDbEntity
  8
部品1
100
AcDbLine
 10
11079.09299078964
 20
4520.893830972221
 30
0.0
 11
13808.41412672754
 21
4481.865405738016
 31
0.0
  0
LINE
  5
13A01
330
747D
100
AcDbEntity
  8
細線
 48
50.0
100
AcDbLine
 10
11096.75042618769
 20
4660.512482278659
 30
0.0
 11
11091.46132463218
 21
4520.426849651305
 31
0.0
  0
LINE
  5
13A02
330
747D
100
AcDbEntity
  8
細線
 48
50.0
100
AcDbLine
 10
13800.71970938138
 20
4607.266228382724
 30
0.0
 11
13796.00274329969
 21
4482.334012447807
 31
0.0
  0
LINE
  5
13A03
330
747D
100
AcDbEntity
  8
部品1
 48
50.0
100
AcDbLine
 10
11063.9347121008
 20
4654.706352067948
 30
0.0
 11
11064.31497187861
 21
4634.779387621535
 31
0.0
  0
LINE
  5
13A04
330
747D
100
AcDbEntity
  8
部品1
 48
50.0
100
AcDbLine
 10
11067.38374398485
 20
4631.204106128063
 30
0.0
 11
11069.08764547622
 21
4541.913609421416
 31
0.0
  0
LINE
  5
13A05
330
747D
100
AcDbEntity
  8
細線
 48
50.0
100
AcDbLine
 10
11064.7898492885
 20
4634.129887744616
 30
0.0
 11
13830.42583403367
 21
4578.505683103788
 31
0.0
  0
LINE
  5
13A06
330
747D
100
AcDbEntity
  8
細線
 48
50.0
100
AcDbLine
 10
11069.55032452579
 20
4541.268376046752
 30
0.0
 11
13819.55398895643
 21
4501.459057072259
 31
0.0
  0
LINE
  5
13A07
330
747D
100
AcDbEntity
  8
部品1
 48
50.0
100
AcDbLine
 10
11072.15641758246
 20
4538.338327927944
 30
0.0
 11
11072.35837020289
 21
4527.755292534851
 31
0.0
  0
ARC
  5
13A08
330
747D
100
AcDbEntity
  8
部品1
 48
50.0
100
AcDbCircle
 10
11070.93343792914
 20
4654.839906475375
 30
0.0
 40
7.0
100
AcDbArc
 50
87.03587545283228
 51
181.0932240293156
  0
ARC
  5
13A09
330
747D
100
AcDbEntity
  8
部品1
 48
50.0
100
AcDbCircle
 10
11079.35709603123
 20
4527.88884694228
 30
0.0
 40
7.0
100
AcDbArc
 50
181.0932240293156
 51
267.8377559869492
  0
ARC
  5
13A0A
330
747D
100
AcDbEntity
  8
部品1
100
AcDbCircle
 10
11069.15696365603
 20
4538.281090324761
 30
0.0
 40
3.0
100
AcDbArc
 50
1.093224029315636
 51
80.18775403169875
  0
ARC
  5
13A0B
330
747D
100
AcDbEntity
  8
部品1
100
AcDbCircle
 10
11064.38429005842
 20
4631.14686852488
 30
0.0
 40
3.0
100
AcDbArc
 50
1.093224029315636
 51
80.18775403169875
  0
ARC
  5
13A0C
330
747D
100
AcDbEntity
  8
部品1
100
AcDbCircle
 10
11065.01484446145
 20
4634.792743062277
 30
0.0
 40
0.7
100
AcDbArc
 50
181.0932240292114
 51
260.1877540314845
  0
ARC
  5
13A0D
330
747D
100
AcDbEntity
  8
部品1
100
AcDbCircle
 10
11069.78751805905
 20
4541.926964862159
 30
0.0
 40
0.7
100
AcDbArc
 50
181.0932240292635
 51
260.1877540314845
  0
LINE
  5
13A0E
330
747D
100
AcDbEntity
  8
部品1
 48
50.0
100
AcDbLine
 10
13832.96432899839
 20
4599.053958177473
 30
0.0
 11
13830.93370780742
 21
4579.108916919693
 31
0.0
  0
LINE
  5
13A0F
330
747D
100
AcDbEntity
  8
部品1
 48
50.0
100
AcDbLine
 10
13827.58114132294
 20
4575.798282846784
 30
0.0
 11
13820.07436205811
 21
4502.065662101773
 31
0.0
  0
LINE
  5
13A10
330
747D
100
AcDbEntity
  8
部品1
 48
50.0
100
AcDbLine
 10
13816.72179557362
 20
4498.755028028861
 30
0.0
 11
13815.64223253388
 21
4488.151411035302
 31
0.0
  0
ARC
  5
13A11
330
747D
100
AcDbEntity
  8
部品1
 48
50.0
100
AcDbCircle
 10
13826.00032843364
 20
4599.762968850249
 30
0.0
 40
7.0
100
AcDbArc
 50
354.1866997665532
 51
87.03587545283228
  0
ARC
  5
13A12
330
747D
100
AcDbEntity
  8
部品1
 48
50.0
100
AcDbCircle
 10
13808.67823196912
 20
4488.860421708075
 30
0.0
 40
7.0
100
AcDbArc
 50
267.8377559869492
 51
354.1866997665532
  0
ARC
  5
13A13
330
747D
100
AcDbEntity
  8
部品1
100
AcDbCircle
 10
13819.70636724423
 20
4498.451166311958
 30
0.0
 40
3.0
100
AcDbArc
 50
95.09216976420788
 51
174.1866997665532
  0
ARC
  5
13A14
330
747D
100
AcDbEntity
  8
部品1
100
AcDbCircle
 10
13830.56571299355
 20
4575.494421129882
 30
0.0
 40
3.0
100
AcDbArc
 50
95.09216976420788
 51
174.1866997665532
  0
ARC
  5
13A15
330
747D
100
AcDbEntity
  8
部品1
100
AcDbCircle
 10
13830.23730775095
 20
4579.179817986971
 30
0.0
 40
0.7
100
AcDbArc
 50
275.0921697642079
 51
354.1866997665532
  0
ARC
  5
13A16
330
747D
100
AcDbEntity
  8
部品1
100
AcDbCircle
 10
13819.37796200163
 20
4502.136563169048
 30
0.0
 40
0.7
100
AcDbArc
 50
275.0921697642079
 51
354.1866997667087
  0
LINE
  5
13A17
330
747D
100
AcDbEntity
  8
部品1
100
AcDbLine
 10
12298.97555661693
 20
4788.317193866272
 30
0.0
 11
12624.43057025997
 21
4770.799134907412
 31
0.0
  0
LINE
  5
13A18
330
747D
100
AcDbEntity
  8
部品1
100
AcDbLine
 10
12858.75042618769
 20
4428.112805903254
 30
0.0
 11
12858.75042618769
 21
2338.112805903256
 31
0.0
  0
LINE
  5
13A19
330
747D
100
AcDbEntity
  8
細線
 48
50.0
100
AcDbLine
 10
12936.25042618769
 20
4428.112805903254
 30
0.0
 11
12936.25042618769
 21
2338.112805903256
 31
0.0
  0
LINE
  5
13A1A
330
747D
100
AcDbEntity
  8
細線
 48
50.0
100
AcDbLine
 10
12921.25042618769
 20
4428.112805903254
 30
0.0
 11
12921.25042618769
 21
2338.112805903256
 31
0.0
  0
LINE
  5
13A1B
330
747D
100
AcDbEntity
  8
細線
 48
50.0
100
AcDbLine
 10
13061.25042618769
 20
4428.112805903254
 30
0.0
 11
13061.25042618769
 21
2338.112805903256
 31
0.0
  0
LINE
  5
13A1C
330
747D
100
AcDbEntity
  8
細線
 48
50.0
100
AcDbLine
 10
13076.25042618769
 20
4428.112805903254
 30
0.0
 11
13076.25042618769
 21
2338.112805903256
 31
0.0
  0
LINE
  5
13A1D
330
747D
100
AcDbEntity
  8
細線
 48
50.0
100
AcDbLine
 10
13216.25042618769
 20
4428.112805903254
 30
0.0
 11
13216.25042618769
 21
2338.112805903256
 31
0.0
  0
LINE
  5
13A1E
330
747D
100
AcDbEntity
  8
細線
 48
50.0
100
AcDbLine
 10
13201.25042618769
 20
4428.112805903254
 30
0.0
 11
13201.25042618769
 21
2338.112805903256
 31
0.0
  0
DIMENSION
  5
13A1F
330
747D
100
AcDbEntity
  8
寸法
100
AcDbDimension
  2
*D23
 10
14458.67758415982
 20
4608.112805903254
 30
0.0
 11
14358.6657731362
 21
3448.112805903257
 31
0.0
 70
    32
 71
     5
 42
2320.0
  3
INABA_S40G
100
AcDbAlignedDimension
 13
13753.75042618769
 23
2288.112805903256
 33
0.0
 14
13833.75042618769
 24
4608.112805903255
 34
0.0
 50
90.0
100
AcDbRotatedDimension
1001
ACAD
1000
DSTYLE
1002
{
1070
   174
1070
     0
1070
   272
1070
     1
1070
   288
1070
     0
1070
   341
1005
0
1002
}
  0
DIMENSION
  5
13A20
330
747D
100
AcDbEntity
  8
寸法
100
AcDbDimension
  2
*D24
 10
9980.000297004432
 20
4663.112805903256
 30
0.0
 11
9879.98848598081
 21
3475.612805903254
 31
0.0
 70
    32
 71
     5
 42
2375.000000000005
  3
INABA_S40G
100
AcDbAlignedDimension
 13
11123.75042618769
 23
2288.11280590325
 33
0.0
 14
11063.75042618769
 24
4663.112805903255
 34
0.0
 50
90.0
100
AcDbRotatedDimension
1001
ACAD
1000
DSTYLE
1002
{
1070
   174
1070
     0
1070
   272
1070
     1
1070
   288
1070
     0
1070
   341
1005
0
1002
}
  0
DIMENSION
  5
13A21
330
747D
100
AcDbEntity
  8
寸法
100
AcDbDimension
  2
*D25
 10
10280.00029700443
 20
2338.11280590325
 30
0.0
 11
10179.98848598081
 21
3383.112805903252
 31
0.0
 70
    32
 71
     5
 42
2090.000000000001
  3
INABA_S40G
100
AcDbAlignedDimension
 13
11123.75042618769
 23
4428.112805903251
 33
0.0
 14
11123.75042618769
 24
2338.11280590325
 34
0.0
 50
90.0
100
AcDbRotatedDimension
1001
ACAD
1000
DSTYLE
1002
{
1070
   174
1070
     0
1070
   272
1070
     1
1070
   288
1070
     0
1070
   341
1005
0
1002
}
  0
LINE
  5
140C8
330
747D
100
AcDbEntity
  8
部品1
100
AcDbLine
 10
4296.350663344681
 20
7140.729096344903
 30
0.0
 11
5583.350663344682
 21
7140.729096344954
 31
0.0
  0
LINE
  5
140D1
330
747D
100
AcDbEntity
  8
部品1
100
AcDbLine
 10
3429.350663344683
 20
7140.729096344954
 30
0.0
 11
3456.350663344681
 21
7140.729096344954
 31
0.0
  0
DIMENSION
  5
14393
330
747D
100
AcDbEntity
  8
寸法
 48
50.0
100
AcDbDimension
  2
*D26
 10
5611.350663344683
 20
6159.583195211191
 30
0.0
 11
4296.350663344681
 21
6251.595006234813
 31
0.0
 70
    32
 71
     5
 42
2630.000000000002
  3
INABA_S40
100
AcDbAlignedDimension
 13
2981.350663344681
 23
7140.729096344955
 33
0.0
 14
5611.350663344683
 24
7195.729096344955
 34
0.0
100
AcDbRotatedDimension
1001
ACAD
1000
DSTYLE
1002
{
1070
   287
1070
     3
1070
    41
1040
0.5
1070
    44
1040
1.0
1070
   147
1040
0.8
1070
   271
1070
     2
1070
   272
1070
     2
1070
   289
1070
     3
1070
   340
1005
F706
1070
     6
1000
DOT
1070
     7
1000
DOT
1002
}
  0
DIMENSION
  5
14394
330
747D
100
AcDbEntity
  8
寸法
 48
50.0
100
AcDbDimension
  2
*D27
 10
8241.350663344681
 20
6159.583195211191
 30
0.0
 11
6926.350663344681
 21
6251.595006234813
 31
0.0
 70
    32
 71
     5
 42
2629.999999999999
  3
INABA_S40
100
AcDbAlignedDimension
 13
5611.350663344683
 23
7195.729096344951
 33
0.0
 14
8241.350663344681
 24
7140.729096344955
 34
0.0
100
AcDbRotatedDimension
1001
ACAD
1000
DSTYLE
1002
{
1070
   287
1070
     3
1070
    41
1040
0.5
1070
    44
1040
1.0
1070
   147
1040
0.8
1070
   271
1070
     2
1070
   272
1070
     2
1070
   289
1070
     3
1070
   340
1005
F706
1070
     6
1000
DOT
1070
     7
1000
DOT
1002
}
  0
LWPOLYLINE
  5
14395
330
747D
100
AcDbEntity
  8
部品1
100
AcDbPolyline
 90
        4
 70
     1
 43
0.0
 10
5229.615330230476
 20
5797.248929391161
 10
5229.615330230476
 20
5557.356607845628
 10
5993.085996458916
 20
5557.356607845628
 10
5993.085996458916
 20
5797.248929391161
  0
TEXT
  5
14396
330
747D
100
AcDbEntity
  8
部品1
100
AcDbText
 10
5319.534940059517
 20
5604.355400172637
 30
0.0
 40
135.0
  1
平面図
  7
STYLE2
100
AcDbText
  0
LINE
  5
146ED
330
747D
100
AcDbEntity
  8
細線
 48
50.0
100
AcDbLine
 10
5213.850663344685
 20
4428.112805903256
 30
0.0
 11
5213.850663344689
 21
2338.112805903256
 31
0.0
  0
LINE
  5
146EE
330
747D
100
AcDbEntity
  8
細線
 48
50.0
100
AcDbLine
 10
5198.850663344686
 20
4428.112805903256
 30
0.0
 11
5198.850663344689
 21
2338.112805903256
 31
0.0
  0
LINE
  5
146EF
330
747D
100
AcDbEntity
  8
細線
 48
50.0
100
AcDbLine
 10
5338.850663344685
 20
4428.112805903256
 30
0.0
 11
5338.850663344689
 21
2338.112805903256
 31
0.0
  0
LINE
  5
146F0
330
747D
100
AcDbEntity
  8
細線
 48
50.0
100
AcDbLine
 10
5353.850663344685
 20
4428.112805903256
 30
0.0
 11
5353.850663344688
 21
2338.112805903256
 31
0.0
  0
LINE
  5
146F1
330
747D
100
AcDbEntity
  8
細線
 48
50.0
100
AcDbLine
 10
5493.850663344685
 20
4428.112805903256
 30
0.0
 11
5493.850663344688
 21
2338.112805903256
 31
0.0
  0
LINE
  5
146F2
330
747D
100
AcDbEntity
  8
細線
 48
50.0
100
AcDbLine
 10
5478.850663344685
 20
4428.112805903256
 30
0.0
 11
5478.850663344688
 21
2338.112805903256
 31
0.0
  0
LINE
  5
146F3
330
747D
100
AcDbEntity
  8
部品1
100
AcDbLine
 10
5556.350663344681
 20
4428.112805903256
 30
0.0
 11
5556.350663344681
 21
2338.112805903254
 31
0.0
  0
LINE
  5
14996
330
747D
100
AcDbEntity
  8
部品1
100
AcDbLine
 10
5136.350663344682
 20
7140.729096344954
 30
0.0
 11
5136.350663344682
 21
7168.729096344955
 31
0.0
  0
LINE
  5
14997
330
747D
100
AcDbEntity
  8
部品1
100
AcDbLine
 10
5136.350663344682
 20
7140.729096344954
 30
0.0
 11
5136.350663344682
 21
7168.729096344955
 31
0.0
  0
LINE
  5
14998
330
747D
100
AcDbEntity
  8
部品1
100
AcDbLine
 10
5136.350663344682
 20
7140.729096344954
 30
0.0
 11
5136.350663344682
 21
7168.729096344955
 31
0.0
  0
LINE
  5
149BA
330
747D
100
AcDbEntity
  8
部品1
100
AcDbLine
 10
4716.350663344681
 20
7140.729096344954
 30
0.0
 11
4716.350663344681
 21
7168.729096344955
 31
0.0
  0
LINE
  5
149BB
330
747D
100
AcDbEntity
  8
部品1
100
AcDbLine
 10
4296.350663344681
 20
7140.729096344954
 30
0.0
 11
4296.350663344681
 21
7168.729096344955
 31
0.0
  0
LINE
  5
149BC
330
747D
100
AcDbEntity
  8
細線
 48
50.0
100
AcDbLine
 10
4638.85066334467
 20
4428.112805903256
 30
0.0
 11
4638.850663344674
 21
2338.112805903256
 31
0.0
  0
LINE
  5
149BD
330
747D
100
AcDbEntity
  8
細線
 48
50.0
100
AcDbLine
 10
4653.850663344671
 20
4428.112805903256
 30
0.0
 11
4653.850663344674
 21
2338.112805903256
 31
0.0
  0
LINE
  5
149BE
330
747D
100
AcDbEntity
  8
細線
 48
50.0
100
AcDbLine
 10
4513.85066334467
 20
4428.112805903256
 30
0.0
 11
4513.850663344674
 21
2338.112805903256
 31
0.0
  0
LINE
  5
149BF
330
747D
100
AcDbEntity
  8
細線
 48
50.0
100
AcDbLine
 10
4498.85066334467
 20
4428.112805903256
 30
0.0
 11
4498.850663344674
 21
2338.112805903256
 31
0.0
  0
LINE
  5
149C0
330
747D
100
AcDbEntity
  8
細線
 48
50.0
100
AcDbLine
 10
4358.850663344671
 20
4428.112805903256
 30
0.0
 11
4358.850663344674
 21
2338.112805903256
 31
0.0
  0
LINE
  5
149C1
330
747D
100
AcDbEntity
  8
細線
 48
50.0
100
AcDbLine
 10
4373.85066334467
 20
4428.112805903256
 30
0.0
 11
4373.850663344674
 21
2338.112805903256
 31
0.0
  0
LINE
  5
149C2
330
747D
100
AcDbEntity
  8
細線
 48
50.0
100
AcDbLine
 10
4793.85066334467
 20
4428.112805903256
 30
0.0
 11
4793.850663344674
 21
2338.112805903256
 31
0.0
  0
LINE
  5
149C3
330
747D
100
AcDbEntity
  8
細線
 48
50.0
100
AcDbLine
 10
4778.850663344671
 20
4428.112805903256
 30
0.0
 11
4778.850663344674
 21
2338.112805903256
 31
0.0
  0
LINE
  5
149C4
330
747D
100
AcDbEntity
  8
細線
 48
50.0
100
AcDbLine
 10
4918.85066334467
 20
4428.112805903256
 30
0.0
 11
4918.850663344674
 21
2338.112805903256
 31
0.0
  0
LINE
  5
149C5
330
747D
100
AcDbEntity
  8
細線
 48
50.0
100
AcDbLine
 10
4933.850663344671
 20
4428.112805903256
 30
0.0
 11
4933.850663344674
 21
2338.112805903256
 31
0.0
  0
LINE
  5
149C6
330
747D
100
AcDbEntity
  8
細線
 48
50.0
100
AcDbLine
 10
5073.85066334467
 20
4428.112805903256
 30
0.0
 11
5073.850663344674
 21
2338.112805903256
 31
0.0
  0
LINE
  5
149C7
330
747D
100
AcDbEntity
  8
細線
 48
50.0
100
AcDbLine
 10
5058.850663344671
 20
4428.112805903256
 30
0.0
 11
5058.850663344674
 21
2338.112805903256
 31
0.0
  0
LINE
  5
149C8
330
747D
100
AcDbEntity
  8
部品1
100
AcDbLine
 10
4716.350663344666
 20
4428.112805903256
 30
0.0
 11
4716.350663344666
 21
2338.112805903254
 31
0.0
  0
LINE
  5
149C9
330
747D
100
AcDbEntity
  8
部品1
100
AcDbLine
 10
5136.350663344667
 20
4428.112805903256
 30
0.0
 11
5136.350663344667
 21
2338.112805903254
 31
0.0
  0
LINE
  5
149CA
330
747D
100
AcDbEntity
  8
部品1
100
AcDbLine
 10
5136.350663344682
 20
4428.112805903256
 30
0.0
 11
5136.350663344678
 21
2338.112805903254
 31
0.0
  0
LINE
  5
14A7A
102
{ACAD_REACTORS
330
14B40
102
}
330
747D
100
AcDbEntity
  8
部品1
100
AcDbLine
 10
4271.806855259514
 20
7095.629096344966
 30
0.0
 11
3596.186781249097
 21
7095.629096344961
 31
0.0
  0
LINE
  5
14A7B
102
{ACAD_REACTORS
330
14B40
102
}
330
747D
100
AcDbEntity
  8
部品1
100
AcDbLine
 10
3553.463006437189
 20
7168.729096344953
 30
0.0
 11
3470.650690236486
 21
7168.729096344953
 31
0.0
  0
ARC
  5
14A7C
102
{ACAD_REACTORS
330
14B40
102
}
330
747D
100
AcDbEntity
  8
細線
100
AcDbCircle
 10
3557.942979395564
 20
7154.519470226538
 30
0.0
 40
1.999999999999318
100
AcDbArc
 50
192.6627699999672
 51
269.9996349996766
  0
ARC
  5
14A7D
102
{ACAD_REACTORS
330
14B40
102
}
330
747D
100
AcDbEntity
  8
細線
100
AcDbCircle
 10
3595.759385395562
 20
7154.519439226537
 30
0.0
 40
1.999999999999318
100
AcDbArc
 50
269.9995260001295
 51
347.3370140000284
  0
LINE
  5
14A7E
102
{ACAD_REACTORS
330
14B40
102
}
330
747D
100
AcDbEntity
  8
細線
100
AcDbLine
 10
3595.758729395566
 20
7152.519241226535
 30
0.0
 11
3557.942597395566
 21
7152.519241226535
 31
0.0
  0
ARC
  5
14A7F
102
{ACAD_REACTORS
330
14B40
102
}
330
747D
100
AcDbEntity
  8
細線
100
AcDbCircle
 10
3554.343858395565
 20
7192.020034226536
 30
0.0
 40
1.999999999999318
100
AcDbArc
 50
90.00070999991514
 51
180.1717199999486
  0
ARC
  5
14A80
102
{ACAD_REACTORS
330
14B40
102
}
330
747D
100
AcDbEntity
  8
細線
100
AcDbCircle
 10
3599.358506395569
 20
7192.019973226535
 30
0.0
 40
1.999999999999318
100
AcDbArc
 50
359.8282257599598
 51
89.9999299997324
  0
LINE
  5
14A81
102
{ACAD_REACTORS
330
14B40
102
}
330
747D
100
AcDbEntity
  8
細線
100
AcDbLine
 10
3599.357850395565
 20
7194.019241226536
 30
0.0
 11
3554.34347639556
 21
7194.019241226536
 31
0.0
  0
ARC
  5
14A82
102
{ACAD_REACTORS
330
14B40
102
}
330
747D
100
AcDbEntity
  8
細線
100
AcDbCircle
 10
3707.742412337699
 20
7187.813559365188
 30
0.0
 40
155.4553048750251
100
AcDbArc
 50
178.4516507022735
 51
192.5324382524263
  0
ARC
  5
14A83
102
{ACAD_REACTORS
330
14B40
102
}
330
747D
100
AcDbEntity
  8
細線
100
AcDbCircle
 10
3445.960482287322
 20
7187.813665562027
 30
0.0
 40
155.4547706600797
100
AcDbArc
 50
347.4674920061923
 51
1.548292275740002
  0
LINE
  5
14A84
102
{ACAD_REACTORS
330
14B40
102
}
330
747D
100
AcDbEntity
  8
部品1
100
AcDbLine
 10
3456.350663344681
 20
7168.729096344953
 30
0.0
 11
3456.350663344681
 21
7140.729096344954
 31
0.0
  0
LINE
  5
14A85
102
{ACAD_REACTORS
330
14B40
102
}
330
747D
100
AcDbEntity
  8
部品1
100
AcDbLine
 10
4296.350663344681
 20
7168.729096344953
 30
0.0
 11
4296.350663344681
 21
7140.729096344954
 31
0.0
  0
LINE
  5
14A86
102
{ACAD_REACTORS
330
14B40
102
}
330
747D
100
AcDbEntity
  8
部品1
100
AcDbLine
 10
4300.850663344681
 20
7140.729096344964
 30
0.0
 11
4300.850663344681
 21
7095.629096344961
 31
0.0
  0
LINE
  5
14A87
102
{ACAD_REACTORS
330
14B40
102
}
330
747D
100
AcDbEntity
  8
部品1
100
AcDbLine
 10
4300.850663344681
 20
7095.629096344966
 30
0.0
 11
4281.894471429849
 21
7095.629096344966
 31
0.0
  0
LINE
  5
14A88
102
{ACAD_REACTORS
330
14B40
102
}
330
747D
100
AcDbEntity
  8
部品1
100
AcDbLine
 10
4280.850663344682
 20
7096.652571727945
 30
0.0
 11
4280.850663344682
 21
7138.229096344964
 31
0.0
  0
LINE
  5
14A89
102
{ACAD_REACTORS
330
14B40
102
}
330
747D
100
AcDbEntity
  8
部品1
100
AcDbLine
 10
4292.350663344681
 20
7138.229096344964
 30
0.0
 11
4292.350663344681
 21
7143.229096344964
 31
0.0
  0
LINE
  5
14A8A
102
{ACAD_REACTORS
330
14B40
102
}
330
747D
100
AcDbEntity
  8
部品1
100
AcDbLine
 10
4292.350663344681
 20
7143.229096344964
 30
0.0
 11
4296.350663344681
 21
7143.229096344964
 31
0.0
  0
LINE
  5
14A8B
102
{ACAD_REACTORS
330
14B40
102
}
330
747D
100
AcDbEntity
  8
部品1
100
AcDbLine
 10
4296.350663344681
 20
7143.229096344964
 30
0.0
 11
4296.350663344681
 21
7165.22909634496
 31
0.0
  0
LINE
  5
14A8C
102
{ACAD_REACTORS
330
14B40
102
}
330
747D
100
AcDbEntity
  8
部品1
100
AcDbLine
 10
4296.350663344681
 20
7165.22909634496
 30
0.0
 11
4284.050663344678
 21
7165.22909634496
 31
0.0
  0
LINE
  5
14A8D
102
{ACAD_REACTORS
330
14B40
102
}
330
747D
100
AcDbEntity
  8
部品1
100
AcDbLine
 10
4300.850663344681
 20
7138.229096344964
 30
0.0
 11
4280.550663344678
 21
7138.229096344964
 31
0.0
  0
LINE
  5
14A8E
102
{ACAD_REACTORS
330
14B40
102
}
330
747D
100
AcDbEntity
  8
部品1
100
AcDbLine
 10
4282.050663344678
 20
7138.229096344964
 30
0.0
 11
4282.050663344678
 21
7168.729096344953
 31
0.0
  0
LINE
  5
14A8F
102
{ACAD_REACTORS
330
14B40
102
}
330
747D
100
AcDbEntity
  8
部品1
100
AcDbLine
 10
3471.850663344682
 20
7095.629096344961
 30
0.0
 11
3471.850663344682
 21
7138.229096344964
 31
0.0
  0
LINE
  5
14A90
102
{ACAD_REACTORS
330
14B40
102
}
330
747D
100
AcDbEntity
  8
部品1
100
AcDbLine
 10
3470.650663344684
 20
7138.229096344964
 30
0.0
 11
3470.650663344684
 21
7168.729096344961
 31
0.0
  0
LINE
  5
14A91
102
{ACAD_REACTORS
330
14B40
102
}
330
747D
100
AcDbEntity
  8
部品1
100
AcDbLine
 10
3451.850663344681
 20
7138.229096344964
 30
0.0
 11
3472.150653797245
 21
7138.229096344964
 31
0.0
  0
LINE
  5
14A92
102
{ACAD_REACTORS
330
14B40
102
}
330
747D
100
AcDbEntity
  8
部品1
100
AcDbLine
 10
3456.350663344681
 20
7165.22909634496
 30
0.0
 11
3468.650653797246
 21
7165.22909634496
 31
0.0
  0
LINE
  5
14A93
102
{ACAD_REACTORS
330
14B40
102
}
330
747D
100
AcDbEntity
  8
部品1
100
AcDbLine
 10
3456.350663344681
 20
7143.229096344964
 30
0.0
 11
3456.350663344681
 21
7165.22909634496
 31
0.0
  0
LINE
  5
14A94
102
{ACAD_REACTORS
330
14B40
102
}
330
747D
100
AcDbEntity
  8
部品1
100
AcDbLine
 10
3460.350663344681
 20
7143.229096344964
 30
0.0
 11
3456.350663344681
 21
7143.229096344964
 31
0.0
  0
LINE
  5
14A95
102
{ACAD_REACTORS
330
14B40
102
}
330
747D
100
AcDbEntity
  8
部品1
100
AcDbLine
 10
3460.350663344681
 20
7138.229096344964
 30
0.0
 11
3460.350663344681
 21
7143.229096344964
 31
0.0
  0
LINE
  5
14A96
102
{ACAD_REACTORS
330
14B40
102
}
330
747D
100
AcDbEntity
  8
部品1
100
AcDbLine
 10
3451.850663344681
 20
7140.729096344964
 30
0.0
 11
3451.850663344681
 21
7095.629096344961
 31
0.0
  0
CIRCLE
  5
14A97
102
{ACAD_REACTORS
330
14B40
102
}
330
747D
100
AcDbEntity
  8
細線
100
AcDbCircle
 10
4276.850663344681
 20
7091.529096344963
 30
0.0
 40
6.5
  0
LINE
  5
14A98
102
{ACAD_REACTORS
330
14B40
102
}
330
747D
100
AcDbEntity
  8
部品1
100
AcDbLine
 10
4280.850663344682
 20
7097.006321920017
 30
0.0
 11
4280.850663344682
 21
7134.529096344964
 31
0.0
  0
LINE
  5
14A99
102
{ACAD_REACTORS
330
14B40
102
}
330
747D
100
AcDbEntity
  8
細線
100
AcDbLine
 10
4280.850663344682
 20
7134.529096344964
 30
0.0
 11
4276.850663344681
 21
7134.529096344964
 31
0.0
  0
LINE
  5
14A9A
102
{ACAD_REACTORS
330
14B40
102
}
330
747D
100
AcDbEntity
  8
細線
100
AcDbLine
 10
4276.850663344681
 20
7134.529096344964
 30
0.0
 11
4276.850663344681
 21
7097.951712634295
 31
0.0
  0
LINE
  5
14A9B
102
{ACAD_REACTORS
330
14B40
102
}
330
747D
100
AcDbEntity
  8
細線
100
AcDbLine
 10
4272.850663344681
 20
7097.006321920017
 30
0.0
 11
4272.850663344681
 21
7103.028564630183
 31
0.0
  0
LINE
  5
14A9C
102
{ACAD_REACTORS
330
14B40
102
}
330
747D
100
AcDbEntity
  8
細線
100
AcDbLine
 10
3476.850663344681
 20
7103.028564630183
 30
0.0
 11
4276.850663344681
 21
7103.028564630183
 31
0.0
  0
LINE
  5
14A9D
102
{ACAD_REACTORS
330
14B40
102
}
330
747D
100
AcDbEntity
  8
細線
100
AcDbLine
 10
3476.850663344681
 20
7131.028564630184
 30
0.0
 11
4276.850663344681
 21
7131.028564630184
 31
0.0
  0
LINE
  5
14A9E
102
{ACAD_REACTORS
330
14B40
102
}
330
747D
100
AcDbEntity
  8
細線
100
AcDbLine
 10
4232.850663344681
 20
7103.028564630183
 30
0.0
 11
4232.850663344681
 21
7131.028564630184
 31
0.0
  0
LINE
  5
14A9F
102
{ACAD_REACTORS
330
14B40
102
}
330
747D
100
AcDbEntity
  8
細線
100
AcDbLine
 10
3521.850800664681
 20
7103.028564630183
 30
0.0
 11
3521.850800664681
 21
7131.028564630184
 31
0.0
  0
LINE
  5
14AA0
102
{ACAD_REACTORS
330
14B40
102
}
330
747D
100
AcDbEntity
  8
細線
100
AcDbLine
 10
3476.850663344681
 20
7131.028564630184
 30
0.0
 11
3476.850663344681
 21
7103.028564630183
 31
0.0
  0
LINE
  5
14AA1
102
{ACAD_REACTORS
330
14B40
102
}
330
747D
100
AcDbEntity
  8
細線
100
AcDbLine
 10
3561.850810395569
 20
7152.518927226539
 30
0.0
 11
3558.397989395569
 21
7139.916134226537
 31
0.0
  0
LINE
  5
14AA2
102
{ACAD_REACTORS
330
14B40
102
}
330
747D
100
AcDbEntity
  8
細線
100
AcDbLine
 10
3591.850083395563
 20
7152.519455226536
 30
0.0
 11
3595.303046395566
 21
7139.916176226536
 31
0.0
  0
ARC
  5
14AA3
102
{ACAD_REACTORS
330
14B40
102
}
330
747D
100
AcDbEntity
  8
細線
100
AcDbCircle
 10
3707.740844452914
 20
7046.113966236791
 30
0.0
 40
155.454770660076
100
AcDbArc
 50
167.4674920061923
 51
181.54829227574
  0
ARC
  5
14AA4
102
{ACAD_REACTORS
330
14B40
102
}
330
747D
100
AcDbEntity
  8
細線
100
AcDbCircle
 10
3445.958914402552
 20
7046.114072433635
 30
0.0
 40
155.4553048750133
100
AcDbArc
 50
358.4516507022735
 51
12.53243825242636
  0
LINE
  5
14AA5
102
{ACAD_REACTORS
330
14B40
102
}
330
747D
100
AcDbEntity
  8
細線
100
AcDbLine
 10
3554.343476344686
 20
7039.908390572285
 30
0.0
 11
3599.357850344677
 21
7039.908390572285
 31
0.0
  0
LINE
  5
14AA6
102
{ACAD_REACTORS
330
14B40
102
}
330
747D
100
AcDbEntity
  8
細線
100
AcDbLine
 10
3609.350038344681
 20
7100.907956372285
 30
0.0
 11
3609.350038344681
 21
7103.028564630183
 31
0.0
  0
LINE
  5
14AA7
102
{ACAD_REACTORS
330
14B40
102
}
330
747D
100
AcDbEntity
  8
細線
100
AcDbLine
 10
3609.349776395568
 20
7133.019445026538
 30
0.0
 11
3597.796032395564
 21
7137.213020626536
 31
0.0
  0
LINE
  5
14AA8
102
{ACAD_REACTORS
330
14B40
102
}
330
747D
100
AcDbEntity
  8
細線
100
AcDbLine
 10
3609.350038395569
 20
7133.019675426538
 30
0.0
 11
3609.350038395569
 21
7131.028564630184
 31
0.0
  0
ARC
  5
14AA9
102
{ACAD_REACTORS
330
14B40
102
}
330
747D
100
AcDbEntity
  8
細線
100
AcDbCircle
 10
3599.16197339556
 20
7140.972153226536
 30
0.0
 40
3.999999999998637
100
AcDbArc
 50
195.321570000093
 51
250.0509499998602
  0
ARC
  5
14AAA
102
{ACAD_REACTORS
330
14B40
102
}
330
747D
100
AcDbEntity
  8
細線
100
AcDbCircle
 10
3554.342820344682
 20
7041.907658572288
 30
0.0
 40
1.999999999999318
100
AcDbArc
 50
179.8282257599598
 51
269.9999299997324
  0
LINE
  5
14AAB
102
{ACAD_REACTORS
330
14B40
102
}
330
747D
100
AcDbEntity
  8
細線
100
AcDbLine
 10
3609.34977634468
 20
7100.908186772286
 30
0.0
 11
3597.796032344682
 21
7096.714611172284
 31
0.0
  0
LINE
  5
14AAC
102
{ACAD_REACTORS
330
14B40
102
}
330
747D
100
AcDbEntity
  8
細線
100
AcDbLine
 10
3591.850083344681
 20
7081.408176572285
 30
0.0
 11
3595.303046344678
 21
7094.011455572284
 31
0.0
  0
ARC
  5
14AAD
102
{ACAD_REACTORS
330
14B40
102
}
330
747D
100
AcDbEntity
  8
細線
100
AcDbCircle
 10
3599.161973344686
 20
7092.955478572284
 30
0.0
 40
3.999999999998637
100
AcDbArc
 50
109.9490500001397
 51
164.678429999907
  0
LINE
  5
14AAE
102
{ACAD_REACTORS
330
14B40
102
}
330
747D
100
AcDbEntity
  8
細線
100
AcDbLine
 10
3544.351289344682
 20
7100.907956372285
 30
0.0
 11
3544.351289344682
 21
7103.028564630183
 31
0.0
  0
ARC
  5
14AAF
102
{ACAD_REACTORS
330
14B40
102
}
330
747D
100
AcDbEntity
  8
細線
100
AcDbCircle
 10
3554.540391395568
 20
7140.972122226537
 30
0.0
 40
3.999999999998637
100
AcDbArc
 50
289.9491399999151
 51
344.6784900000504
  0
LINE
  5
14AB0
102
{ACAD_REACTORS
330
14B40
102
}
330
747D
100
AcDbEntity
  8
細線
100
AcDbLine
 10
3555.904764395564
 20
7137.213411826536
 30
0.0
 11
3544.351024395568
 21
7133.019826626536
 31
0.0
  0
LINE
  5
14AB1
102
{ACAD_REACTORS
330
14B40
102
}
330
747D
100
AcDbEntity
  8
細線
100
AcDbLine
 10
3544.351289395564
 20
7133.019675426538
 30
0.0
 11
3544.351289395564
 21
7131.028564630184
 31
0.0
  0
ARC
  5
14AB2
102
{ACAD_REACTORS
330
14B40
102
}
330
747D
100
AcDbEntity
  8
細線
100
AcDbCircle
 10
3554.540391344679
 20
7092.955509572288
 30
0.0
 40
3.999999999998637
100
AcDbArc
 50
15.32150999994956
 51
70.05086000008488
  0
LINE
  5
14AB3
102
{ACAD_REACTORS
330
14B40
102
}
330
747D
100
AcDbEntity
  8
細線
100
AcDbLine
 10
3561.85081034468
 20
7081.408704572286
 30
0.0
 11
3558.381415007374
 21
7094.071993885926
 31
0.0
  0
ARC
  5
14AB4
102
{ACAD_REACTORS
330
14B40
102
}
330
747D
100
AcDbEntity
  8
細線
100
AcDbCircle
 10
3599.357468344679
 20
7041.907597572286
 30
0.0
 40
1.999999999999318
100
AcDbArc
 50
270.0007099999151
 51
0.1717199999486262
  0
LINE
  5
14AB5
102
{ACAD_REACTORS
330
14B40
102
}
330
747D
100
AcDbEntity
  8
細線
100
AcDbLine
 10
3555.904764344683
 20
7096.714219972284
 30
0.0
 11
3544.35102434468
 21
7100.907805172283
 31
0.0
  0
LINE
  5
14AB6
102
{ACAD_REACTORS
330
14B40
102
}
330
747D
100
AcDbEntity
  8
細線
100
AcDbLine
 10
3557.942597344678
 20
7081.408390572285
 30
0.0
 11
3595.758729344685
 21
7081.408390572285
 31
0.0
  0
ARC
  5
14AB7
102
{ACAD_REACTORS
330
14B40
102
}
330
747D
100
AcDbEntity
  8
細線
100
AcDbCircle
 10
3557.941941344682
 20
7079.408192572286
 30
0.0
 40
1.999999999999318
100
AcDbArc
 50
89.99952600012946
 51
167.3370140000284
  0
ARC
  5
14AB8
102
{ACAD_REACTORS
330
14B40
102
}
330
747D
100
AcDbEntity
  8
細線
100
AcDbCircle
 10
3595.75834734468
 20
7079.408161572283
 30
0.0
 40
1.999999999999318
100
AcDbArc
 50
12.66276999996724
 51
89.99963499967666
  0
LINE
  5
14AB9
102
{ACAD_REACTORS
330
14B40
102
}
330
747D
100
AcDbEntity
  8
部品1
 48
0.3
100
AcDbLine
 10
4280.550663344678
 20
7138.229096344964
 30
0.0
 11
4280.550663344678
 21
7143.729096344964
 31
0.0
  0
LINE
  5
14ABA
102
{ACAD_REACTORS
330
14B40
102
}
330
747D
100
AcDbEntity
  8
部品1
 48
0.3
100
AcDbLine
 10
4280.550663344678
 20
7143.729096344964
 30
0.0
 11
4284.050663344678
 21
7143.729096344964
 31
0.0
  0
LINE
  5
14ABB
102
{ACAD_REACTORS
330
14B40
102
}
330
747D
100
AcDbEntity
  8
部品1
 48
0.3
100
AcDbLine
 10
4284.050663344678
 20
7143.729096344964
 30
0.0
 11
4284.050663344678
 21
7168.729096344953
 31
0.0
  0
LINE
  5
14ABC
102
{ACAD_REACTORS
330
14B40
102
}
330
747D
100
AcDbEntity
  8
部品1
 48
0.3
100
AcDbLine
 10
4280.550663344678
 20
7138.229096344964
 30
0.0
 11
3596.250678332464
 21
7138.229096344964
 31
0.0
  0
LINE
  5
14ABD
102
{ACAD_REACTORS
330
14B40
102
}
330
747D
100
AcDbEntity
  8
部品1
 48
0.3
100
AcDbLine
 10
3468.650653797246
 20
7143.729096344964
 30
0.0
 11
3468.650653797246
 21
7168.729096344961
 31
0.0
  0
LINE
  5
14ABE
102
{ACAD_REACTORS
330
14B40
102
}
330
747D
100
AcDbEntity
  8
部品1
 48
0.3
100
AcDbLine
 10
3472.150653797245
 20
7143.729096344964
 30
0.0
 11
3468.650653797246
 21
7143.729096344964
 31
0.0
  0
LINE
  5
14ABF
102
{ACAD_REACTORS
330
14B40
102
}
330
747D
100
AcDbEntity
  8
部品1
 48
0.3
100
AcDbLine
 10
3472.150653797245
 20
7138.229096344964
 30
0.0
 11
3472.150653797245
 21
7143.729096344964
 31
0.0
  0
LINE
  5
14AC0
102
{ACAD_REACTORS
330
14B40
102
}
330
747D
100
AcDbEntity
  8
部品1
100
AcDbLine
 10
4282.050636452877
 20
7168.729096344953
 30
0.0
 11
4318.923045326548
 21
7168.729096344953
 31
0.0
  0
LINE
  5
14AC1
102
{ACAD_REACTORS
330
14B40
102
}
330
747D
100
AcDbEntity
  8
部品1
100
AcDbLine
 10
4318.923045326548
 20
7168.729096344953
 30
0.0
 11
4327.655706863035
 21
7166.551799284558
 31
0.0
  0
LINE
  5
14AC2
102
{ACAD_REACTORS
330
14B40
102
}
330
747D
100
AcDbEntity
  8
部品1
100
AcDbLine
 10
3433.778281362815
 20
7168.729096344953
 30
0.0
 11
3425.045619826327
 21
7166.551799284558
 31
0.0
  0
LINE
  5
14AC3
102
{ACAD_REACTORS
330
14B40
102
}
330
747D
100
AcDbEntity
  8
部品1
100
AcDbLine
 10
3470.650690236486
 20
7168.729096344953
 30
0.0
 11
3433.778281362815
 21
7168.729096344953
 31
0.0
  0
LINE
  5
14AC4
102
{ACAD_REACTORS
330
14B40
102
}
330
747D
100
AcDbEntity
  8
部品1
100
AcDbLine
 10
3557.51561129772
 20
7095.629096344961
 30
0.0
 11
3451.850663344681
 21
7095.629096344961
 31
0.0
  0
LINE
  5
14AC5
102
{ACAD_REACTORS
330
14B40
102
}
330
747D
100
AcDbEntity
  8
部品1
 48
0.3
100
AcDbLine
 10
3557.451715666918
 20
7138.229096344961
 30
0.0
 11
3472.150653797245
 21
7138.229096344964
 31
0.0
  0
LINE
  5
14AC6
102
{ACAD_REACTORS
330
14B40
102
}
330
747D
100
AcDbEntity
  8
細線
100
AcDbLine
 10
3481.850648064683
 20
7103.028564630183
 30
0.0
 11
3481.850648064683
 21
7093.028564630182
 31
0.0
  0
LINE
  5
14AC7
102
{ACAD_REACTORS
330
14B40
102
}
330
747D
100
AcDbEntity
  8
細線
100
AcDbLine
 10
3481.850648064683
 20
7093.028564630182
 30
0.0
 11
3466.850648064684
 21
7093.028564630182
 31
0.0
  0
DIMENSION
  5
14AC8
330
747D
100
AcDbEntity
  8
寸法
 48
50.0
100
AcDbDimension
  2
*D28
 10
3254.56888205994
 20
7095.729096344962
 30
0.0
 11
3254.568882059939
 21
6781.243814970719
 31
0.0
 70
   160
 71
     5
 42
44.99999999998727
  3
INABA_S40G
100
AcDbAlignedDimension
 13
3401.350663344682
 23
7140.72909634495
 33
0.0
 14
3451.850663344681
 24
7095.729096344962
 34
0.0
 50
90.0
100
AcDbRotatedDimension
1001
ACAD
1000
DSTYLE
1002
{
1070
   174
1070
     0
1070
   272
1070
     1
1070
   288
1070
     0
1070
   341
1005
0
1002
}
  0
DIMENSION
  5
14AC9
330
747D
100
AcDbEntity
  8
寸法
 48
50.0
100
AcDbDimension
  2
*D29
 10
3451.850663344681
 20
6630.708203585641
 30
0.0
 11
3876.350663344682
 21
6730.708203585641
 31
0.0
 70
    32
 71
     5
 42
849.0
  3
INABA_S40G
100
AcDbAlignedDimension
 13
4300.850663344681
 23
7095.629096344966
 33
0.0
 14
3451.850663344681
 24
7095.629096344961
 34
0.0
 50
180.0
100
AcDbRotatedDimension
1001
ACAD
1000
DSTYLE
1002
{
1070
   174
1070
     0
1070
   272
1070
     1
1070
   288
1070
     0
1070
   341
1005
0
1002
}
  0
DIMENSION
  5
14ACE
330
747D
100
AcDbEntity
  8
寸法
 48
50.0
100
AcDbDimension
  2
*D30
 10
10770.84933134114
 20
2350.112805903254
 30
0.0
 11
10670.83752031752
 21
3370.112805903256
 31
0.0
 70
    32
  1
有効開口部高サ<>
 71
     5
 42
2040.0
  3
INABA_S40G
100
AcDbAlignedDimension
 13
11078.75042618769
 23
4390.112805903253
 33
0.0
 14
11078.75042618769
 24
2350.112805903254
 34
0.0
 50
90.0
100
AcDbRotatedDimension
1001
ACAD
1000
DSTYLE
1002
{
1070
   341
1005
0
1002
}
  0
LINE
  5
14ACF
102
{ACAD_REACTORS
330
14B3E
102
}
330
747D
100
AcDbEntity
  8
部品1
100
AcDbLine
 10
3451.850663344667
 20
4422.562805903257
 30
0.0
 11
3451.850663344667
 21
2307.312805903257
 31
0.0
  0
LINE
  5
14AD0
102
{ACAD_REACTORS
330
14B3E
102
}
330
747D
100
AcDbEntity
  8
部品1
100
AcDbLine
 10
3451.850663344667
 20
2307.312805903255
 30
0.0
 11
4300.850663344658
 21
2307.312805903255
 31
0.0
  0
LINE
  5
14AD1
102
{ACAD_REACTORS
330
14B3E
102
}
330
747D
100
AcDbEntity
  8
部品1
100
AcDbLine
 10
4300.850663344658
 20
2307.312805903257
 30
0.0
 11
4300.850663344658
 21
4422.562805903257
 31
0.0
  0
LINE
  5
14AD2
102
{ACAD_REACTORS
330
14B3E
102
}
330
747D
100
AcDbEntity
  8
細線
100
AcDbLine
 10
3481.850663344666
 20
4398.112805903256
 30
0.0
 11
3481.850663344666
 21
2342.112805903256
 31
0.0
  0
LINE
  5
14AD3
102
{ACAD_REACTORS
330
14B3E
102
}
330
747D
100
AcDbEntity
  8
細線
100
AcDbLine
 10
3466.850663344666
 20
2342.112805903256
 30
0.0
 11
4277.850663344651
 21
2342.112805903256
 31
0.0
  0
LINE
  5
14AD4
102
{ACAD_REACTORS
330
14B3E
102
}
330
747D
100
AcDbEntity
  8
細線
100
AcDbLine
 10
4277.850663344651
 20
2342.112805903256
 30
0.0
 11
4277.850663344651
 21
2454.612805903256
 31
0.0
  0
LINE
  5
14AD5
102
{ACAD_REACTORS
330
14B3E
102
}
330
747D
100
AcDbEntity
  8
細線
100
AcDbLine
 10
4277.850663344651
 20
4398.112805903256
 30
0.0
 11
3466.850663344666
 21
4398.112805903256
 31
0.0
  0
LINE
  5
14AD6
102
{ACAD_REACTORS
330
14B3E
102
}
330
747D
100
AcDbEntity
  8
細線
100
AcDbLine
 10
3521.850663344666
 20
4398.112805903256
 30
0.0
 11
3521.850663344666
 21
2342.112805903256
 31
0.0
  0
LINE
  5
14AD7
102
{ACAD_REACTORS
330
14B3E
102
}
330
747D
100
AcDbEntity
  8
細線
100
AcDbLine
 10
4232.850663344652
 20
2342.112805903256
 30
0.0
 11
4232.850663344652
 21
4398.112805903256
 31
0.0
  0
LINE
  5
14AD8
102
{ACAD_REACTORS
330
14B3E
102
}
330
747D
100
AcDbEntity
  8
細線
100
AcDbLine
 10
3521.850663344666
 20
4308.112805903256
 30
0.0
 11
4232.850663344652
 21
4308.112805903256
 31
0.0
  0
LINE
  5
14AD9
102
{ACAD_REACTORS
330
14B3E
102
}
330
747D
100
AcDbEntity
  8
部品1
100
AcDbLine
 10
4299.650663344669
 20
2307.312805903255
 30
0.0
 11
4299.650663344669
 21
4428.112805903256
 31
0.0
  0
LINE
  5
14ADA
102
{ACAD_REACTORS
330
14B3E
102
}
330
747D
100
AcDbEntity
  8
部品1
100
AcDbLine
 10
3471.850663344666
 20
2333.312805903255
 30
0.0
 11
3471.850663344666
 21
2342.112805903253
 31
0.0
  0
LINE
  5
14ADB
102
{ACAD_REACTORS
330
14B3E
102
}
330
747D
100
AcDbEntity
  8
部品1
100
AcDbLine
 10
3453.050663344663
 20
4402.112805903256
 30
0.0
 11
4299.650663344669
 21
4402.112805903256
 31
0.0
  0
LINE
  5
14ADC
102
{ACAD_REACTORS
330
14B3E
102
}
330
747D
100
AcDbEntity
  8
部品1
100
AcDbLine
 10
4280.850663344659
 20
4402.112805903256
 30
0.0
 11
4280.850663344659
 21
4285.612805903256
 31
0.0
  0
LINE
  5
14ADD
102
{ACAD_REACTORS
330
14B3E
102
}
330
747D
100
AcDbEntity
  8
部品1
100
AcDbLine
 10
3451.850663344667
 20
4422.562805903257
 30
0.0
 11
4300.850663344658
 21
4422.562805903257
 31
0.0
  0
LINE
  5
14ADE
102
{ACAD_REACTORS
330
14B3E
102
}
330
747D
100
AcDbEntity
  8
細線
100
AcDbLine
 10
3521.850663344666
 20
2432.112805903257
 30
0.0
 11
4232.850663344652
 21
2432.112805903257
 31
0.0
  0
LINE
  5
14ADF
102
{ACAD_REACTORS
330
14B3E
102
}
330
747D
100
AcDbEntity
  8
細線
100
AcDbLine
 10
3521.850663344666
 20
3412.612805903254
 30
0.0
 11
4232.850663344652
 21
3412.612805903254
 31
0.0
  0
LINE
  5
14AE0
102
{ACAD_REACTORS
330
14B3E
102
}
330
747D
100
AcDbEntity
  8
細線
100
AcDbLine
 10
3521.850663344666
 20
3327.612805903255
 30
0.0
 11
4232.850663344652
 21
3327.612805903255
 31
0.0
  0
LINE
  5
14AE1
102
{ACAD_REACTORS
330
14B3E
102
}
330
747D
100
AcDbEntity
  8
細線
100
AcDbLine
 10
3466.850663344666
 20
4398.112805903256
 30
0.0
 11
3466.850663344666
 21
2342.112805903256
 31
0.0
  0
LINE
  5
14AE2
102
{ACAD_REACTORS
330
14B3E
102
}
330
747D
100
AcDbEntity
  8
部品1
100
AcDbLine
 10
3471.850663344666
 20
4398.112805903256
 30
0.0
 11
3471.850663344666
 21
4402.112805903256
 31
0.0
  0
LINE
  5
14AE3
102
{ACAD_REACTORS
330
14B3E
102
}
330
747D
100
AcDbEntity
  8
部品1
100
AcDbLine
 10
3453.050663344663
 20
4419.512805903259
 30
0.0
 11
4299.650663344669
 21
4419.512805903259
 31
0.0
  0
CIRCLE
  5
14AE4
102
{ACAD_REACTORS
330
14B3E
102
}
330
747D
100
AcDbEntity
  8
細線
100
AcDbCircle
 10
3576.850663344667
 20
3370.112805903254
 30
0.0
 40
24.0
  0
CIRCLE
  5
14AE5
102
{ACAD_REACTORS
330
14B3E
102
}
330
747D
100
AcDbEntity
  8
細線
100
AcDbCircle
 10
3576.850663344667
 20
3370.112805903254
 30
0.0
 40
30.0
  0
LINE
  5
14AE6
102
{ACAD_REACTORS
330
14B3E
102
}
330
747D
100
AcDbEntity
  8
細線
100
AcDbLine
 10
4269.850663344666
 20
4230.112805903254
 30
0.0
 11
4283.850663344666
 21
4230.112805903254
 31
0.0
  0
LINE
  5
14AE7
102
{ACAD_REACTORS
330
14B3E
102
}
330
747D
100
AcDbEntity
  8
細線
100
AcDbLine
 10
4269.850663344666
 20
2510.112805903255
 30
0.0
 11
4283.850663344666
 21
2510.112805903255
 31
0.0
  0
LINE
  5
14AE8
102
{ACAD_REACTORS
330
14B3E
102
}
330
747D
100
AcDbEntity
  8
部品1
100
AcDbLine
 10
4280.850663344659
 20
2454.612805903256
 30
0.0
 11
4280.850663344659
 21
2333.312805903255
 31
0.0
  0
LINE
  5
14AE9
102
{ACAD_REACTORS
330
14B3E
102
}
330
747D
100
AcDbEntity
  8
細線
100
AcDbLine
 10
4277.850663344666
 20
2565.612805903257
 30
0.0
 11
4277.850663344651
 21
4174.612805903256
 31
0.0
  0
LINE
  5
14AEA
102
{ACAD_REACTORS
330
14B3E
102
}
330
747D
100
AcDbEntity
  8
部品1
100
AcDbLine
 10
4280.850663344659
 20
4174.612805903256
 30
0.0
 11
4280.850663344659
 21
2565.612805903257
 31
0.0
  0
LINE
  5
14AEB
102
{ACAD_REACTORS
330
14B3E
102
}
330
747D
100
AcDbEntity
  8
細線
100
AcDbLine
 10
4277.850663344651
 20
4285.612805903256
 30
0.0
 11
4277.850663344651
 21
4398.112805903256
 31
0.0
  0
LINE
  5
14AEC
102
{ACAD_REACTORS
330
14B3E
102
}
330
747D
100
AcDbEntity
  8
細線
100
AcDbLine
 10
4269.850663344666
 20
2565.612805903257
 30
0.0
 11
4283.850663344666
 21
2565.612805903257
 31
0.0
1001
GENIUS_GENREC_14
1002
{
1000
PYDIR
1011
4269.850663344666
1021
2454.612805903256
1031
0.0
1002
}
1002
{
1000
PXDIR
1011
4283.850663344666
1021
2565.612805903257
1031
0.0
1002
}
1002
{
1000
PORI
1011
4269.850663344666
1021
2565.612805903257
1031
0.0
1002
}
1002
{
1000
PINS
1011
4269.850663344666
1021
2565.612805903257
1031
0.0
1002
}
1002
{
1000
PINS2
1011
4283.850663344666
1021
2454.612805903256
1031
0.0
1002
}
1002
{
1000
C
1070
     1
1002
}
1001
GENIUS_GENODEF_13
1002
{
1000
HIER
1070
     0
1002
}
1002
{
1000
MANEDIT
1070
     0
1002
}
1002
{
1000
NOSEL
1070
     0
1002
}
1002
{
1000
BEHIND
1070
     0
1002
}
1002
{
1000
OTHER
1070
     0
1002
}
1002
{
1000
REACTOR
1002
}
1001
GENIUS_GENOBJ-N-REC_13
1002
{
1000
OWNER
1000
GEN
1002
}
  0
LINE
  5
14AED
102
{ACAD_REACTORS
330
14B3E
102
}
330
747D
100
AcDbEntity
  8
細線
100
AcDbLine
 10
4283.850663344666
 20
2565.612805903257
 30
0.0
 11
4283.850663344666
 21
2454.612805903256
 31
0.0
1001
GENIUS_GENREC_14
1002
{
1000
PYDIR
1011
4269.850663344666
1021
2454.612805903256
1031
0.0
1002
}
1002
{
1000
PXDIR
1011
4283.850663344666
1021
2565.612805903257
1031
0.0
1002
}
1002
{
1000
PORI
1011
4269.850663344666
1021
2565.612805903257
1031
0.0
1002
}
1002
{
1000
PINS
1011
4269.850663344666
1021
2565.612805903257
1031
0.0
1002
}
1002
{
1000
PINS2
1011
4283.850663344666
1021
2454.612805903256
1031
0.0
1002
}
1002
{
1000
C
1070
     1
1002
}
1001
GENIUS_GENODEF_13
1002
{
1000
HIER
1070
     0
1002
}
1002
{
1000
MANEDIT
1070
     0
1002
}
1002
{
1000
NOSEL
1070
     0
1002
}
1002
{
1000
BEHIND
1070
     0
1002
}
1002
{
1000
OTHER
1070
     0
1002
}
1002
{
1000
REACTOR
1002
}
1001
GENIUS_GENOBJ-N-REC_13
1002
{
1000
OWNER
1000
GEN
1002
}
  0
LINE
  5
14AEE
102
{ACAD_REACTORS
330
14B3E
102
}
330
747D
100
AcDbEntity
  8
細線
100
AcDbLine
 10
4283.850663344666
 20
2454.612805903256
 30
0.0
 11
4269.850663344666
 21
2454.612805903256
 31
0.0
1001
GENIUS_GENREC_14
1002
{
1000
PYDIR
1011
4269.850663344666
1021
2454.612805903256
1031
0.0
1002
}
1002
{
1000
PXDIR
1011
4283.850663344666
1021
2565.612805903257
1031
0.0
1002
}
1002
{
1000
PORI
1011
4269.850663344666
1021
2565.612805903257
1031
0.0
1002
}
1002
{
1000
PINS
1011
4269.850663344666
1021
2565.612805903257
1031
0.0
1002
}
1002
{
1000
PINS2
1011
4283.850663344666
1021
2454.612805903256
1031
0.0
1002
}
1002
{
1000
C
1070
     1
1002
}
1001
GENIUS_GENODEF_13
1002
{
1000
HIER
1070
     0
1002
}
1002
{
1000
MANEDIT
1070
     0
1002
}
1002
{
1000
NOSEL
1070
     0
1002
}
1002
{
1000
BEHIND
1070
     0
1002
}
1002
{
1000
OTHER
1070
     0
1002
}
1002
{
1000
REACTOR
1002
}
1001
GENIUS_GENOBJ-N-REC_13
1002
{
1000
OWNER
1000
GEN
1002
}
  0
LINE
  5
14AEF
102
{ACAD_REACTORS
330
14B3E
102
}
330
747D
100
AcDbEntity
  8
細線
100
AcDbLine
 10
4269.850663344666
 20
2454.612805903256
 30
0.0
 11
4269.850663344666
 21
2565.612805903257
 31
0.0
1001
GENIUS_GENREC_14
1002
{
1000
PYDIR
1011
4269.850663344666
1021
2454.612805903256
1031
0.0
1002
}
1002
{
1000
PXDIR
1011
4283.850663344666
1021
2565.612805903257
1031
0.0
1002
}
1002
{
1000
PORI
1011
4269.850663344666
1021
2565.612805903257
1031
0.0
1002
}
1002
{
1000
PINS
1011
4269.850663344666
1021
2565.612805903257
1031
0.0
1002
}
1002
{
1000
PINS2
1011
4283.850663344666
1021
2454.612805903256
1031
0.0
1002
}
1002
{
1000
C
1070
     1
1002
}
1001
GENIUS_GENODEF_13
1002
{
1000
HIER
1070
     0
1002
}
1002
{
1000
MANEDIT
1070
     0
1002
}
1002
{
1000
NOSEL
1070
     0
1002
}
1002
{
1000
BEHIND
1070
     0
1002
}
1002
{
1000
OTHER
1070
     0
1002
}
1002
{
1000
REACTOR
1002
}
1001
GENIUS_GENOBJ-N-REC_13
1002
{
1000
OWNER
1000
GEN
1002
}
  0
LINE
  5
14AF0
102
{ACAD_REACTORS
330
14B3E
102
}
330
747D
100
AcDbEntity
  8
細線
100
AcDbLine
 10
4269.850663344666
 20
4285.612805903256
 30
0.0
 11
4283.850663344666
 21
4285.612805903256
 31
0.0
1001
GENIUS_GENREC_14
1002
{
1000
PYDIR
1011
4269.850663344666
1021
4174.612805903256
1031
0.0
1002
}
1002
{
1000
PXDIR
1011
4283.850663344666
1021
4285.612805903256
1031
0.0
1002
}
1002
{
1000
PORI
1011
4269.850663344666
1021
4285.612805903256
1031
0.0
1002
}
1002
{
1000
PINS
1011
4269.850663344666
1021
4285.612805903256
1031
0.0
1002
}
1002
{
1000
PINS2
1011
4283.850663344666
1021
4174.612805903256
1031
0.0
1002
}
1002
{
1000
C
1070
     1
1002
}
1001
GENIUS_GENODEF_13
1002
{
1000
HIER
1070
     0
1002
}
1002
{
1000
MANEDIT
1070
     0
1002
}
1002
{
1000
NOSEL
1070
     0
1002
}
1002
{
1000
BEHIND
1070
     0
1002
}
1002
{
1000
OTHER
1070
     0
1002
}
1002
{
1000
REACTOR
1002
}
1001
GENIUS_GENOBJ-N-REC_13
1002
{
1000
OWNER
1000
GEN
1002
}
  0
LINE
  5
14AF1
102
{ACAD_REACTORS
330
14B3E
102
}
330
747D
100
AcDbEntity
  8
細線
100
AcDbLine
 10
4283.850663344666
 20
4285.612805903256
 30
0.0
 11
4283.850663344666
 21
4174.612805903256
 31
0.0
1001
GENIUS_GENREC_14
1002
{
1000
PYDIR
1011
4269.850663344666
1021
4174.612805903256
1031
0.0
1002
}
1002
{
1000
PXDIR
1011
4283.850663344666
1021
4285.612805903256
1031
0.0
1002
}
1002
{
1000
PORI
1011
4269.850663344666
1021
4285.612805903256
1031
0.0
1002
}
1002
{
1000
PINS
1011
4269.850663344666
1021
4285.612805903256
1031
0.0
1002
}
1002
{
1000
PINS2
1011
4283.850663344666
1021
4174.612805903256
1031
0.0
1002
}
1002
{
1000
C
1070
     1
1002
}
1001
GENIUS_GENODEF_13
1002
{
1000
HIER
1070
     0
1002
}
1002
{
1000
MANEDIT
1070
     0
1002
}
1002
{
1000
NOSEL
1070
     0
1002
}
1002
{
1000
BEHIND
1070
     0
1002
}
1002
{
1000
OTHER
1070
     0
1002
}
1002
{
1000
REACTOR
1002
}
1001
GENIUS_GENOBJ-N-REC_13
1002
{
1000
OWNER
1000
GEN
1002
}
  0
LINE
  5
14AF2
102
{ACAD_REACTORS
330
14B3E
102
}
330
747D
100
AcDbEntity
  8
細線
100
AcDbLine
 10
4283.850663344666
 20
4174.612805903256
 30
0.0
 11
4269.850663344666
 21
4174.612805903256
 31
0.0
1001
GENIUS_GENREC_14
1002
{
1000
PYDIR
1011
4269.850663344666
1021
4174.612805903256
1031
0.0
1002
}
1002
{
1000
PXDIR
1011
4283.850663344666
1021
4285.612805903256
1031
0.0
1002
}
1002
{
1000
PORI
1011
4269.850663344666
1021
4285.612805903256
1031
0.0
1002
}
1002
{
1000
PINS
1011
4269.850663344666
1021
4285.612805903256
1031
0.0
1002
}
1002
{
1000
PINS2
1011
4283.850663344666
1021
4174.612805903256
1031
0.0
1002
}
1002
{
1000
C
1070
     1
1002
}
1001
GENIUS_GENODEF_13
1002
{
1000
HIER
1070
     0
1002
}
1002
{
1000
MANEDIT
1070
     0
1002
}
1002
{
1000
NOSEL
1070
     0
1002
}
1002
{
1000
BEHIND
1070
     0
1002
}
1002
{
1000
OTHER
1070
     0
1002
}
1002
{
1000
REACTOR
1002
}
1001
GENIUS_GENOBJ-N-REC_13
1002
{
1000
OWNER
1000
GEN
1002
}
  0
LINE
  5
14AF3
102
{ACAD_REACTORS
330
14B3E
102
}
330
747D
100
AcDbEntity
  8
細線
100
AcDbLine
 10
4269.850663344666
 20
4174.612805903256
 30
0.0
 11
4269.850663344666
 21
4285.612805903256
 31
0.0
1001
GENIUS_GENREC_14
1002
{
1000
PYDIR
1011
4269.850663344666
1021
4174.612805903256
1031
0.0
1002
}
1002
{
1000
PXDIR
1011
4283.850663344666
1021
4285.612805903256
1031
0.0
1002
}
1002
{
1000
PORI
1011
4269.850663344666
1021
4285.612805903256
1031
0.0
1002
}
1002
{
1000
PINS
1011
4269.850663344666
1021
4285.612805903256
1031
0.0
1002
}
1002
{
1000
PINS2
1011
4283.850663344666
1021
4174.612805903256
1031
0.0
1002
}
1002
{
1000
C
1070
     1
1002
}
1001
GENIUS_GENODEF_13
1002
{
1000
HIER
1070
     0
1002
}
1002
{
1000
MANEDIT
1070
     0
1002
}
1002
{
1000
NOSEL
1070
     0
1002
}
1002
{
1000
BEHIND
1070
     0
1002
}
1002
{
1000
OTHER
1070
     0
1002
}
1002
{
1000
REACTOR
1002
}
1001
GENIUS_GENOBJ-N-REC_13
1002
{
1000
OWNER
1000
GEN
1002
}
  0
LINE
  5
14AF4
102
{ACAD_REACTORS
330
14B3E
102
}
330
747D
100
AcDbEntity
  8
部品1
100
AcDbLine
 10
3451.850663344667
 20
2333.312805903255
 30
0.0
 11
4300.850663344658
 21
2333.312805903255
 31
0.0
  0
LINE
  5
14AF5
102
{ACAD_REACTORS
330
14B3E
102
}
330
747D
100
AcDbEntity
  8
部品1
100
AcDbLine
 10
3453.050663344663
 20
4428.112805903256
 30
0.0
 11
3453.050663344663
 21
2307.312805903255
 31
0.0
  0
LINE
  5
14AF7
102
{ACAD_REACTORS
330
14B3F
102
}
330
747D
100
AcDbEntity
  8
部品1
 48
50.0
100
AcDbLine
 10
11078.75042618769
 20
4402.112805903256
 30
0.0
 11
11078.75042618769
 21
2307.312805903256
 31
0.0
  0
LINE
  5
14AF8
102
{ACAD_REACTORS
330
14B3F
102
}
330
747D
100
AcDbEntity
  8
部品1
 48
50.0
100
AcDbLine
 10
11078.75042618769
 20
2307.312805903256
 30
0.0
 11
11123.75042618769
 21
2307.312805903256
 31
0.0
  0
LINE
  5
14AF9
102
{ACAD_REACTORS
330
14B3F
102
}
330
747D
100
AcDbEntity
  8
部品1
 48
50.0
100
AcDbLine
 10
11123.75042618769
 20
4418.112805903254
 30
0.0
 11
11078.75042618769
 21
4402.112805903256
 31
0.0
  0
LINE
  5
14B55
330
747D
100
AcDbEntity
  8
部品1
 48
50.0
100
AcDbLine
 10
3600.239336764456
 20
7168.729096344951
 30
0.0
 11
5556.350663344681
 21
7168.729096344953
 31
0.0
  0
LINE
  5
14B56
330
747D
100
AcDbEntity
  8
部品1
100
AcDbLine
 10
3600.239336764456
 20
7168.729096344955
 30
0.0
 11
5583.350663344681
 21
7168.729096344958
 31
0.0
  0
LINE
  5
14B57
330
747D
100
AcDbEntity
  8
部品1
 48
50.0
100
AcDbLine
 10
3451.850663344667
 20
2338.112805903254
 30
0.0
 11
2981.350663344681
 21
2338.112805903254
 31
0.0
  0
TEXT
  5
14BBE
330
747D
100
AcDbEntity
  8
文字
 62
     7
 48
50.0
100
AcDbText
 10
15022.63965474516
 20
9570.01374588372
 30
0.0
 40
100.0
  1
F12            1.2
  7
STYLE1
100
AcDbText
  0
TEXT
  5
14BBF
330
747D
100
AcDbEntity
  8
文字
 62
     7
 48
50.0
100
AcDbText
 10
13248.77747366447
 20
8550.013745883729
 30
0.0
 40
100.0
  1
16
  7
STYLE1
100
AcDbText
  0
TEXT
  5
14BC0
330
747D
100
AcDbEntity
  8
文字
 62
     7
 48
50.0
100
AcDbText
 10
13583.11819016569
 20
8550.013745883727
 30
0.0
 40
100.0
  1
アンカープレート
  7
STYLE1
100
AcDbText
  0
TEXT
  5
14BC1
330
747D
100
AcDbEntity
  8
文字
 62
     7
 48
50.0
100
AcDbText
 10
15022.63965474515
 20
8550.013745883722
 30
0.0
 40
100.0
  1
F12            2.3
  7
STYLE1
100
AcDbText
  0
LINE
  5
14BC2
330
747D
100
AcDbEntity
  8
仕様書枠
 48
50.0
100
AcDbLine
 10
16307.2
 20
10049.6
 30
0.0
 11
13127.2
 21
10049.6
 31
0.0
  0
LINE
  5
14BC3
330
747D
100
AcDbEntity
  8
仕様書枠
 48
50.0
100
AcDbLine
 10
16307.2
 20
11409.6
 30
0.0
 11
13127.2
 21
11409.6
 31
0.0
  0
LINE
  5
14BC4
330
747D
100
AcDbEntity
  8
仕様書枠
 48
50.0
100
AcDbLine
 10
14785.2
 20
11409.59999999999
 30
0.0
 11
14785.2
 21
8519.599999999998
 31
0.0
  0
LINE
  5
14BC5
330
747D
100
AcDbEntity
  8
仕様書枠
 48
50.0
100
AcDbLine
 10
13490.2
 20
11409.6
 30
0.0
 11
13490.20000000001
 21
8519.600000000002
 31
0.0
  0
LINE
  5
14BC6
330
747D
100
AcDbEntity
  8
仕様書枠
 48
50.0
100
AcDbLine
 10
16307.2
 20
11239.6
 30
0.0
 11
13127.2
 21
11239.6
 31
0.0
  0
LINE
  5
14BC7
330
747D
100
AcDbEntity
  8
仕様書枠
 48
50.0
100
AcDbLine
 10
16307.2
 20
10899.6
 30
0.0
 11
13127.2
 21
10899.6
 31
0.0
  0
LINE
  5
14BC8
330
747D
100
AcDbEntity
  8
仕様書枠
 48
50.0
100
AcDbLine
 10
16307.2
 20
11069.6
 30
0.0
 11
13127.2
 21
11069.6
 31
0.0
  0
LINE
  5
14BC9
330
747D
100
AcDbEntity
  8
仕様書枠
 48
50.0
100
AcDbLine
 10
16307.19999999999
 20
10559.6
 30
0.0
 11
13127.2
 21
10559.6
 31
0.0
  0
LINE
  5
14BCA
330
747D
100
AcDbEntity
  8
仕様書枠
 48
50.0
100
AcDbLine
 10
16307.19999999999
 20
10389.6
 30
0.0
 11
13127.2
 21
10389.6
 31
0.0
  0
LINE
  5
14BCB
330
747D
100
AcDbEntity
  8
仕様書枠
 48
50.0
100
AcDbLine
 10
16307.19999999999
 20
10729.6
 30
0.0
 11
13127.2
 21
10729.6
 31
0.0
  0
TEXT
  5
14BCC
330
747D
100
AcDbEntity
  8
文字
 62
     7
 48
50.0
100
AcDbText
 10
13197.42518560407
 20
11270.01374588372
 30
0.0
 40
100.0
  1
品番
  7
STYLE1
100
AcDbText
  0
TEXT
  5
14BCD
330
747D
100
AcDbEntity
  8
文字
 62
     7
 48
50.0
100
AcDbText
 10
13271.19032244792
 20
11100.01374588373
 30
0.0
 40
100.0
  1
1
  7
STYLE1
100
AcDbText
  0
TEXT
  5
14BCE
330
747D
100
AcDbEntity
  8
文字
 62
     7
 48
50.0
100
AcDbText
 10
13271.19032244792
 20
10930.01374588373
 30
0.0
 40
100.0
  1
2
  7
STYLE1
100
AcDbText
  0
TEXT
  5
14BCF
330
747D
100
AcDbEntity
  8
文字
 62
     7
 48
50.0
100
AcDbText
 10
13271.19032244792
 20
10590.01374588373
 30
0.0
 40
100.0
  1
4
  7
STYLE1
100
AcDbText
  0
TEXT
  5
14BD0
330
747D
100
AcDbEntity
  8
文字
 62
     7
 48
50.0
100
AcDbText
 10
13271.19032244792
 20
10760.01374588373
 30
0.0
 40
100.0
  1
3
  7
STYLE1
100
AcDbText
  0
TEXT
  5
14BD1
330
747D
100
AcDbEntity
  8
文字
 62
     7
 48
50.0
100
AcDbText
 10
13732.03840939434
 20
11270.01374588372
 30
0.0
 40
100.0
  1
部　　品　　名
  7
STYLE1
100
AcDbText
  0
TEXT
  5
14BD2
330
747D
100
AcDbEntity
  8
文字
 62
     7
 48
50.0
100
AcDbText
 10
14859.79774614482
 20
11270.01374588372
 30
0.0
 40
100.0
  1
材料（材質）　　単位mm
  7
STYLE1
100
AcDbText
  0
TEXT
  5
14BD3
330
747D
100
AcDbEntity
  8
文字
 62
     7
 48
50.0
100
AcDbText
 10
13583.11819016569
 20
11100.01374588373
 30
0.0
 40
100.0
  1
土台枠
  7
STYLE1
100
AcDbText
  0
TEXT
  5
14BD4
330
747D
100
AcDbEntity
  8
文字
 62
     7
 48
50.0
100
AcDbText
 10
13583.1181901657
 20
10760.01374588372
 30
0.0
 40
100.0
  1
柱
  7
STYLE1
100
AcDbText
  0
TEXT
  5
14BD5
330
747D
100
AcDbEntity
  8
文字
 62
     7
 48
50.0
100
AcDbText
 10
13583.1181901657
 20
10420.01374588373
 30
0.0
 40
100.0
  1
桁前後
  7
STYLE1
100
AcDbText
  0
TEXT
  5
14BD6
330
747D
100
AcDbEntity
  8
文字
 62
     7
 48
50.0
100
AcDbText
 10
13271.19032244792
 20
10420.01374588372
 30
0.0
 40
100.0
  1
5
  7
STYLE1
100
AcDbText
  0
TEXT
  5
14BD7
330
747D
100
AcDbEntity
  8
文字
 62
     7
 48
50.0
100
AcDbText
 10
13583.1181901657
 20
10250.01374588373
 30
0.0
 40
100.0
  1
妻板左右
  7
STYLE1
100
AcDbText
  0
TEXT
  5
14BD8
330
747D
100
AcDbEntity
  8
文字
 62
     7
 48
50.0
100
AcDbText
 10
13248.77747366447
 20
9570.013745883727
 30
0.0
 40
100.0
  1
10
  7
STYLE1
100
AcDbText
  0
TEXT
  5
14BD9
330
747D
100
AcDbEntity
  8
文字
 62
     7
 48
50.0
100
AcDbText
 10
13583.11819016568
 20
9400.013745883731
 30
0.0
 40
100.0
  1
壁パネル
  7
STYLE1
100
AcDbText
  0
TEXT
  5
14BDA
330
747D
100
AcDbEntity
  8
文字
 62
     7
 48
50.0
100
AcDbText
 10
13583.11819016569
 20
9740.013745883732
 30
0.0
 40
100.0
  1
屋根パネル
  7
STYLE1
100
AcDbText
  0
TEXT
  5
14BDB
330
747D
100
AcDbEntity
  8
文字
 62
     7
 48
50.0
100
AcDbText
 10
13583.1181901657
 20
10080.01374588372
 30
0.0
 40
100.0
  1
鼻隠シ前後
  7
STYLE1
100
AcDbText
  0
TEXT
  5
14BDC
330
747D
100
AcDbEntity
  8
文字
 62
     7
 48
50.0
100
AcDbText
 10
13271.19032244792
 20
9910.01374588373
 30
0.0
 40
100.0
  1
8
  7
STYLE1
100
AcDbText
  0
TEXT
  5
14BDD
330
747D
100
AcDbEntity
  8
文字
 62
     7
 48
50.0
100
AcDbText
 10
13271.19032244792
 20
9740.013745883729
 30
0.0
 40
100.0
  1
9
  7
STYLE1
100
AcDbText
  0
TEXT
  5
14BDE
330
747D
100
AcDbEntity
  8
文字
 62
     7
 48
50.0
100
AcDbText
 10
13271.19032244792
 20
10080.01374588373
 30
0.0
 40
100.0
  1
7
  7
STYLE1
100
AcDbText
  0
TEXT
  5
14BDF
330
747D
100
AcDbEntity
  8
文字
 62
     7
 48
50.0
100
AcDbText
 10
13271.19032244792
 20
10250.01374588373
 30
0.0
 40
100.0
  1
6
  7
STYLE1
100
AcDbText
  0
LINE
  5
14BE0
330
747D
100
AcDbEntity
  8
仕様書枠
 48
50.0
100
AcDbLine
 10
16307.19999999999
 20
9539.6
 30
0.0
 11
13127.2
 21
9539.6
 31
0.0
  0
LINE
  5
14BE1
330
747D
100
AcDbEntity
  8
仕様書枠
 48
50.0
100
AcDbLine
 10
16307.19999999999
 20
8859.599999999995
 30
0.0
 11
13127.2
 21
8859.599999999998
 31
0.0
  0
LINE
  5
14BE2
330
747D
100
AcDbEntity
  8
仕様書枠
 48
50.0
100
AcDbLine
 10
16307.19999999999
 20
9199.599999999994
 30
0.0
 11
13127.2
 21
9199.599999999998
 31
0.0
  0
LINE
  5
14BE3
330
747D
100
AcDbEntity
  8
仕様書枠
 48
50.0
100
AcDbLine
 10
16307.2
 20
10219.6
 30
0.0
 11
13127.2
 21
10219.6
 31
0.0
  0
LINE
  5
14BE4
330
747D
100
AcDbEntity
  8
仕様書枠
 48
50.0
100
AcDbLine
 10
16307.2
 20
9709.600000000001
 30
0.0
 11
13127.2
 21
9709.600000000001
 31
0.0
  0
TEXT
  5
14BE5
330
747D
100
AcDbEntity
  8
文字
 62
     7
 48
50.0
100
AcDbText
 10
13248.77747366447
 20
9400.013745883727
 30
0.0
 40
100.0
  1
11
  7
STYLE1
100
AcDbText
  0
LINE
  5
14BE6
330
747D
100
AcDbEntity
  8
仕様書枠
 48
50.0
100
AcDbLine
 10
16307.19999999999
 20
8689.599999999995
 30
0.0
 11
13127.2
 21
8689.599999999998
 31
0.0
  0
TEXT
  5
14BE7
330
747D
100
AcDbEntity
  8
文字
 62
     7
 48
50.0
100
AcDbText
 10
13248.77747366447
 20
9060.013745883729
 30
0.0
 40
100.0
  1
13
  7
STYLE1
100
AcDbText
  0
TEXT
  5
14BE8
330
747D
100
AcDbEntity
  8
文字
 62
     7
 48
50.0
100
AcDbText
 10
13248.77747366447
 20
9230.013745883729
 30
0.0
 40
100.0
  1
12
  7
STYLE1
100
AcDbText
  0
TEXT
  5
14BE9
330
747D
100
AcDbEntity
  8
文字
 62
     7
 48
50.0
100
AcDbText
 10
15022.63965474516
 20
11100.01374588372
 30
0.0
 40
100.0
  1
F12            1.2
  7
STYLE1
100
AcDbText
  0
TEXT
  5
14BEA
330
747D
100
AcDbEntity
  8
文字
 62
     7
 48
50.0
100
AcDbText
 10
15022.63965474518
 20
10760.01374588372
 30
0.0
 40
100.0
  1
F12            1.0
  7
STYLE1
100
AcDbText
  0
TEXT
  5
14BEB
330
747D
100
AcDbEntity
  8
文字
 62
     7
 48
50.0
100
AcDbText
 10
15022.63965474516
 20
10420.01374588372
 30
0.0
 40
100.0
  1
Y10            1.0
  7
STYLE1
100
AcDbText
  0
TEXT
  5
14BEC
330
747D
100
AcDbEntity
  8
文字
 62
     7
 48
50.0
100
AcDbText
 10
15022.63965474516
 20
10250.01374588372
 30
0.0
 40
100.0
  1
Y10            0.7
  7
STYLE1
100
AcDbText
  0
TEXT
  5
14BED
330
747D
100
AcDbEntity
  8
文字
 62
     7
 48
50.0
100
AcDbText
 10
15022.63965474516
 20
10080.01374588372
 30
0.0
 40
100.0
  1
Y10            0.7
  7
STYLE1
100
AcDbText
  0
TEXT
  5
14BEE
330
747D
100
AcDbEntity
  8
文字
 62
     7
 48
50.0
100
AcDbText
 10
15022.63965474516
 20
9740.013745883729
 30
0.0
 40
100.0
  1
Y10            0.5
  7
STYLE1
100
AcDbText
  0
TEXT
  5
14BEF
330
747D
100
AcDbEntity
  8
文字
 62
     7
 48
50.0
100
AcDbText
 10
15022.63965474515
 20
9400.013745883725
 30
0.0
 40
100.0
  1
F12            0.7
  7
STYLE1
100
AcDbText
  0
LINE
  5
14BF0
330
747D
100
AcDbEntity
  8
仕様書枠
 48
50.0
100
AcDbLine
 10
16307.19999999999
 20
8349.599999999998
 30
0.0
 11
13127.19999999999
 21
8349.6
 31
0.0
  0
TEXT
  5
14BF1
330
747D
100
AcDbEntity
  8
文字
 62
     7
 48
50.0
100
AcDbText
 10
13229.83081656553
 20
8380.013745883728
 30
0.0
 40
100.0
  1
F12→溶融亜鉛めっき鋼板(JIS G 3302)
  7
STYLE1
100
AcDbText
  0
TEXT
  5
14BF2
330
747D
100
AcDbEntity
  8
文字
 62
     7
 48
50.0
100
AcDbText
 10
13229.83081656553
 20
8210.013745883726
 30
0.0
 40
100.0
  1
Y10→溶融亜鉛-5％アルミニウム合金めっき鋼板(JIS G 3317)
 41
0.9
  7
STYLE1
100
AcDbText
  0
LINE
  5
14BF3
330
747D
100
AcDbEntity
  8
仕様書枠
 48
50.0
100
AcDbLine
 10
13127.2
 20
11409.6
 30
0.0
 11
13127.19999999999
 21
8179.6
 31
0.0
  0
LINE
  5
14BF4
330
747D
100
AcDbEntity
  8
仕様書枠
 48
50.0
100
AcDbLine
 10
16307.19999999999
 20
8519.599999999998
 30
0.0
 11
13127.2
 21
8519.600000000002
 31
0.0
  0
TEXT
  5
14BF5
330
747D
100
AcDbEntity
  8
文字
 62
     7
 48
50.0
100
AcDbText
 10
13583.1181901657
 20
10590.01374588373
 30
0.0
 40
100.0
  1
床パネル
 41
0.9
  7
STYLE1
100
AcDbText
  0
TEXT
  5
14BF6
330
747D
100
AcDbEntity
  8
文字
 62
     7
 48
50.0
100
AcDbText
 10
13583.11819016569
 20
10930.01374588372
 30
0.0
 40
100.0
  1
根太
  7
STYLE1
100
AcDbText
  0
TEXT
  5
14BF7
330
747D
100
AcDbEntity
  8
文字
 62
     7
 48
50.0
100
AcDbText
 10
13248.77747366447
 20
8890.013745883727
 30
0.0
 40
100.0
  1
14
  7
STYLE1
100
AcDbText
  0
TEXT
  5
14BF8
330
747D
100
AcDbEntity
  8
文字
 62
     7
 48
50.0
100
AcDbText
 10
15022.63965474516
 20
10930.01374588372
 30
0.0
 40
100.0
  1
F12            1.2
  7
STYLE1
100
AcDbText
  0
TEXT
  5
14BF9
330
747D
100
AcDbEntity
  8
文字
 62
     7
 48
50.0
100
AcDbText
 10
15022.63965474516
 20
10590.01374588372
 30
0.0
 40
100.0
  1
F12            1.0
  7
STYLE1
100
AcDbText
  0
LINE
  5
14BFA
330
747D
100
AcDbEntity
  8
仕様書枠
 48
50.0
100
AcDbLine
 10
16307.19999999999
 20
8179.599999999998
 30
0.0
 11
13127.19999999999
 21
8179.6
 31
0.0
  0
TEXT
  5
14BFB
330
747D
100
AcDbEntity
  8
文字
 62
     7
 48
50.0
100
AcDbText
 10
13248.77747366447
 20
8720.013745883729
 30
0.0
 40
100.0
  1
15
  7
STYLE1
100
AcDbText
  0
TEXT
  5
14BFC
330
747D
100
AcDbEntity
  8
文字
 62
     7
 48
50.0
100
AcDbText
 10
13583.11819016569
 20
9570.013745883732
 30
0.0
 40
100.0
  1
母屋中
  7
STYLE1
100
AcDbText
  0
LINE
  5
14BFD
330
747D
100
AcDbEntity
  8
仕様書枠
 48
50.0
100
AcDbLine
 10
16307.19999999999
 20
9369.600000000001
 30
0.0
 11
13127.2
 21
9369.600000000001
 31
0.0
  0
TEXT
  5
14BFE
330
747D
100
AcDbEntity
  8
文字
 62
     7
 48
50.0
100
AcDbText
 10
13583.11819016568
 20
9230.013745883729
 30
0.0
 40
100.0
  1
内壁
  7
STYLE1
100
AcDbText
  0
TEXT
  5
14BFF
330
747D
100
AcDbEntity
  8
文字
 62
     7
 48
50.0
100
AcDbText
 10
15022.63965474515
 20
9230.013745883722
 30
0.0
 40
100.0
  1
発泡ポリプロピレン
  7
STYLE1
100
AcDbText
  0
TEXT
  5
14C00
330
747D
100
AcDbEntity
  8
文字
 62
     7
 48
50.0
100
AcDbText
 10
13583.11819016568
 20
9060.013745883725
 30
0.0
 40
100.0
  1
天井
  7
STYLE1
100
AcDbText
  0
TEXT
  5
14C01
330
747D
100
AcDbEntity
  8
文字
 62
     7
 48
50.0
100
AcDbText
 10
15022.63965474515
 20
9060.013745883718
 30
0.0
 40
100.0
  1
発泡ポリプロピレン
  7
STYLE1
100
AcDbText
  0
LINE
  5
14C02
330
747D
100
AcDbEntity
  8
仕様書枠
 48
50.0
100
AcDbLine
 10
16307.19999999999
 20
9029.599999999996
 30
0.0
 11
13127.2
 21
9029.599999999996
 31
0.0
  0
TEXT
  5
14C03
330
747D
100
AcDbEntity
  8
文字
 62
     7
 48
50.0
100
AcDbText
 10
13583.11819016569
 20
9910.013745883732
 30
0.0
 40
100.0
  1
梁中
  7
STYLE1
100
AcDbText
  0
LINE
  5
14C04
330
747D
100
AcDbEntity
  8
仕様書枠
 48
50.0
100
AcDbLine
 10
16307.2
 20
9879.600000000001
 30
0.0
 11
13127.2
 21
9879.600000000001
 31
0.0
  0
TEXT
  5
14C05
330
747D
100
AcDbEntity
  8
文字
 62
     7
 48
50.0
100
AcDbText
 10
15022.63965474516
 20
9910.01374588373
 30
0.0
 40
100.0
  1
F12,Y10        1.0
  7
STYLE1
100
AcDbText
  0
TEXT
  5
14C06
330
747D
100
AcDbEntity
  8
文字
 62
     7
 48
50.0
100
AcDbText
 10
13583.11819016567
 20
8890.013745883729
 30
0.0
 40
100.0
  1
ドア枠
  7
STYLE1
100
AcDbText
  0
TEXT
  5
14C07
330
747D
100
AcDbEntity
  8
文字
 62
     7
 48
50.0
100
AcDbText
 10
13583.11819016567
 20
8719.49491288543
 30
0.0
 40
100.0
  1
ドア本体
  7
STYLE1
100
AcDbText
  0
TEXT
  5
14C08
330
747D
100
AcDbEntity
  8
文字
 62
     7
 48
50.0
100
AcDbText
 10
14841.17090485269
 20
8890.013745883724
 30
0.0
 40
100.0
  1
アルミニウム合金押出形材
  7
STYLE1
100
AcDbText
  0
TEXT
  5
14C09
330
747D
100
AcDbEntity
  8
文字
 62
     7
 48
50.0
100
AcDbText
 10
14841.17090485269
 20
8720.013745883724
 30
0.0
 40
100.0
  1
アルミニウム合金押出形材
  7
STYLE1
100
AcDbText
  0
ENDSEC
  0
SECTION
  2
OBJECTS
  0
DICTIONARY
  5
7471
330
0
100
AcDbDictionary
281
     1
  3
ACAD_COLOR
350
12D74
  3
ACAD_GROUP
350
7472
  3
ACAD_LAYOUT
350
12D75
  3
ACAD_MATERIAL
350
12D73
  3
ACAD_MLINESTYLE
350
7473
  3
ACAD_PLOTSETTINGS
350
12D76
  3
ACAD_PLOTSTYLENAME
350
12D71
  3
ACDBHEADERROUNDTRIPXREC
350
14C37
  3
AcDbVariableDictionary
350
14C33
  3
CONTENTDICTIONARY
350
E71C
  3
DRAWINGVARIABLESDICT
350
F3B9
  0
DICTIONARY
  5
12EF1
330
7467
100
AcDbDictionary
280
     1
281
     1
  3
ACAD_LAYERSTATES
360
12EF2
  0
DICTIONARY
  5
12D74
102
{ACAD_REACTORS
330
7471
102
}
330
7471
100
AcDbDictionary
281
     1
  0
DICTIONARY
  5
7472
102
{ACAD_REACTORS
330
7471
102
}
330
7471
100
AcDbDictionary
281
     1
  3
*A1
350
1496E
  3
*A2
350
1496F
  3
*A3
350
14999
  3
*A4
350
14B3E
  3
*A5
350
14B3F
  3
*A6
350
14B40
  0
DICTIONARY
  5
12D75
102
{ACAD_REACTORS
330
7471
102
}
330
7471
100
AcDbDictionary
281
     1
  3
Model
350
12D77
  3
レイアウト1
350
12D78
  0
DICTIONARY
  5
12D73
102
{ACAD_REACTORS
330
7471
102
}
330
7471
100
AcDbDictionary
281
     1
  0
DICTIONARY
  5
7473
102
{ACAD_REACTORS
330
7471
102
}
330
7471
100
AcDbDictionary
281
     1
  3
STANDARD
350
7480
  0
DICTIONARY
  5
12D76
102
{ACAD_REACTORS
330
7471
102
}
330
7471
100
AcDbDictionary
281
     1
  0
ACDBDICTIONARYWDFLT
  5
12D71
102
{ACAD_REACTORS
330
7471
102
}
330
7471
100
AcDbDictionary
281
     1
  3
Normal
350
12D72
100
AcDbDictionaryWithDefault
340
12D72
  0
DICTIONARY
  5
14C37
102
{ACAD_REACTORS
330
7471
102
}
330
7471
100
AcDbDictionary
281
     1
  3
COLORDICT
350
14C39
  3
MATERIALDICT
350
14C38
  0
DICTIONARY
  5
14C33
102
{ACAD_REACTORS
330
7471
102
}
330
7471
100
AcDbDictionary
281
     1
  3
DIMASSOC
350
14C34
  3
PROJECTNAME
350
14C35
  0
DICTIONARY
  5
E71C
102
{ACAD_REACTORS
330
7471
102
}
330
7471
100
AcDbDictionary
281
     1
  0
DICTIONARY
  5
F3B9
102
{ACAD_REACTORS
330
7471
102
}
330
7471
100
AcDbDictionary
281
     1
1001
DRAWINGVARIABLESXDATA
1000
POLARMODE
1000
1
  0
DICTIONARY
  5
12EF2
102
{ACAD_REACTORS
330
12EF1
102
}
330
12EF1
100
AcDbDictionary
281
     1
  0
GROUP
  5
1496E
102
{ACAD_REACTORS
330
7472
102
}
330
7472
100
AcDbGroup
300

 70
     1
 71
     1
  0
GROUP
  5
1496F
102
{ACAD_REACTORS
330
7472
102
}
330
7472
100
AcDbGroup
300

 70
     1
 71
     1
  0
GROUP
  5
14999
102
{ACAD_REACTORS
330
7472
102
}
330
7472
100
AcDbGroup
300

 70
     1
 71
     1
  0
GROUP
  5
14B3E
102
{ACAD_REACTORS
330
7472
102
}
330
7472
100
AcDbGroup
300

 70
     1
 71
     1
340
14AF5
340
14AF4
340
14AF3
340
14AF2
340
14AF1
340
14AF0
340
14AEF
340
14AEE
340
14AED
340
14AEC
340
14AEB
340
14AEA
340
14AE9
340
14AE8
340
14AE7
340
14AE6
340
14AE5
340
14AE4
340
14AE3
340
14AE2
340
14AE1
340
14AE0
340
14ADF
340
14ADE
340
14ADD
340
14ADC
340
14ADB
340
14ADA
340
14AD9
340
14AD8
340
14AD7
340
14AD6
340
14AD5
340
14AD4
340
14AD3
340
14AD2
340
14AD1
340
14AD0
340
14ACF
  0
GROUP
  5
14B3F
102
{ACAD_REACTORS
330
7472
102
}
330
7472
100
AcDbGroup
300

 70
     1
 71
     1
340
14AF9
340
14AF8
340
14AF7
  0
GROUP
  5
14B40
102
{ACAD_REACTORS
330
7472
102
}
330
7472
100
AcDbGroup
300

 70
     1
 71
     1
340
14AC7
340
14AC6
340
14AC5
340
14AC4
340
14AC3
340
14AC2
340
14AC1
340
14AC0
340
14ABF
340
14ABE
340
14ABD
340
14ABC
340
14ABB
340
14ABA
340
14AB9
340
14AB8
340
14AB7
340
14AB6
340
14AB5
340
14AB4
340
14AB3
340
14AB2
340
14AB1
340
14AB0
340
14AAF
340
14AAE
340
14AAD
340
14AAC
340
14AAB
340
14AAA
340
14AA9
340
14AA8
340
14AA7
340
14AA6
340
14AA5
340
14AA4
340
14AA3
340
14AA2
340
14AA1
340
14AA0
340
14A9F
340
14A9E
340
14A9D
340
14A9C
340
14A9B
340
14A9A
340
14A99
340
14A98
340
14A97
340
14A96
340
14A95
340
14A94
340
14A93
340
14A92
340
14A91
340
14A90
340
14A8F
340
14A8E
340
14A8D
340
14A8C
340
14A8B
340
14A8A
340
14A89
340
14A88
340
14A87
340
14A86
340
14A85
340
14A84
340
14A83
340
14A82
340
14A81
340
14A80
340
14A7F
340
14A7E
340
14A7D
340
14A7C
340
14A7B
340
14A7A
  0
LAYOUT
  5
12D77
102
{ACAD_XDICTIONARY
360
14C3A
102
}
102
{ACAD_REACTORS
330
12D75
102
}
330
12D75
100
AcDbPlotSettings
  1

  2
クセロPDF
  4
A3
  6

 40
3.174999999999999
 41
3.174999999999999
 42
3.174987999999999
 43
3.174987999999999
 44
419.946655
 45
296.925995
 46
0.0
 47
0.0
 48
3.619012999999999
 49
-4.192116999999999
140
820.022926
141
573.23922
142
1.0
143
39.99735025379429
 70
 11952
 72
     1
 73
     0
 74
     2
  7
inaba.ctb
 75
     0
147
0.0250016562010914
148
25.79074261211281
149
125.8223078213959
100
AcDbLayout
  1
Model
 70
     1
 71
     0
 10
0.0
 20
0.0
 11
12.0
 21
9.0
 12
0.0
 22
0.0
 32
0.0
 14
0.0
 24
0.0
 34
0.0
 15
0.0
 25
0.0
 35
0.0
146
0.0
 13
0.0
 23
0.0
 33
0.0
 16
1.0
 26
0.0
 36
0.0
 17
0.0
 27
1.0
 37
0.0
 76
     0
330
747D
  0
LAYOUT
  5
12D78
102
{ACAD_XDICTIONARY
360
14C3C
102
}
102
{ACAD_REACTORS
330
12D75
102
}
330
12D75
100
AcDbPlotSettings
  1

  2
EPSON LP-7000C
  4

  6

 40
0.0
 41
0.0
 42
0.0
 43
0.0
 44
0.0
 45
0.0
 46
0.0
 47
0.0
 48
0.0
 49
0.0
140
0.0
141
0.0
142
1.0
143
1.0
 70
   688
 72
     0
 73
     0
 74
     5
  7

 75
    16
147
1.0
148
0.0
149
0.0
100
AcDbLayout
  1
レイアウト1
 70
     0
 71
     1
 10
0.0
 20
0.0
 11
420.0
 21
297.0
 12
0.0
 22
0.0
 32
0.0
 14
1.000000000000000E+20
 24
1.000000000000000E+20
 34
1.000000000000000E+20
 15
-1.000000000000000E+20
 25
-1.000000000000000E+20
 35
-1.000000000000000E+20
146
0.0
 13
0.0
 23
0.0
 33
0.0
 16
1.0
 26
0.0
 36
0.0
 17
0.0
 27
1.0
 37
0.0
 76
     0
330
747A
  0
MLINESTYLE
  5
7480
102
{ACAD_REACTORS
330
7473
102
}
330
7473
100
AcDbMlineStyle
  2
STANDARD
 70
     0
  3

 62
     0
 51
90.0
 52
90.0
 71
     2
 49
0.5
 62
   256
  6
BYLAYER
 49
-0.5
 62
   256
  6
BYLAYER
  0
ACDBPLACEHOLDER
  5
12D72
102
{ACAD_REACTORS
330
12D71
102
}
330
12D71
  0
XRECORD
  5
14C39
102
{ACAD_REACTORS
330
14C37
102
}
330
14C37
100
AcDbXrecord
280
     1
340
12D74
  0
XRECORD
  5
14C38
102
{ACAD_REACTORS
330
14C37
102
}
330
14C37
100
AcDbXrecord
280
     1
340
12D73
  0
DICTIONARYVAR
  5
14C34
102
{ACAD_REACTORS
330
14C33
102
}
330
14C33
100
DictionaryVariables
280
     0
  1
1
  0
DICTIONARYVAR
  5
14C35
102
{ACAD_REACTORS
330
14C33
102
}
330
14C33
100
DictionaryVariables
280
     0
  1

  0
DICTIONARY
  5
14C3A
330
12D77
100
AcDbDictionary
280
     1
281
     1
  3
ACAD_XREC_ROUNDTRIP
360
14C3B
  0
DICTIONARY
  5
14C3C
330
12D78
100
AcDbDictionary
280
     1
281
     1
  3
ACAD_XREC_ROUNDTRIP
360
14C3D
  0
XRECORD
  5
14C3B
102
{ACAD_REACTORS
330
14C3A
102
}
330
14C3A
100
AcDbXrecord
280
     1
102
SHADEPLOT
 70
     1
102
SHADEPLOTRESLEVEL
 70
     2
102
SHADEPLOTCUSTOMDPI
 70
   300
  0
XRECORD
  5
14C3D
102
{ACAD_REACTORS
330
14C3C
102
}
330
14C3C
100
AcDbXrecord
280
     1
102
SHADEPLOT
 70
     0
102
SHADEPLOTRESLEVEL
 70
     2
102
SHADEPLOTCUSTOMDPI
 70
   300
  0
ENDSEC
  0
EOF
