  0
SECTION
  2
HEADER
  9
$ACADVER
  1
AC1015
  9
$ACADMAINTVER
 70
    20
  9
$DWGCODEPAGE
  3
ANSI_932
  9
$INSBASE
 10
0.0
 20
0.0
 30
0.0
  9
$EXTMIN
 10
139.9999999999995
 20
-0.0000000000000909
 30
0.0
  9
$EXTMAX
 10
16307.2
 20
11409.6
 30
0.0
  9
$LIMMIN
 10
0.0
 20
0.0
  9
$LIMMAX
 10
16800.0
 20
11880.0
  9
$ORTHOMODE
 70
     0
  9
$REGENMODE
 70
     1
  9
$FILLMODE
 70
     1
  9
$QTEXTMODE
 70
     0
  9
$MIRRTEXT
 70
     1
  9
$LTSCALE
 40
20.0
  9
$ATTMODE
 70
     1
  9
$TEXTSIZE
 40
100.0
  9
$TRACEWID
 40
1.0
  9
$TEXTSTYLE
  7
STYLE2
  9
$CLAYER
  8
寸法
  9
$CELTYPE
  6
BYLAYER
  9
$CECOLOR
 62
   256
  9
$CELTSCALE
 40
50.0
  9
$DISPSILH
 70
     0
  9
$DIMSCALE
 40
40.0
  9
$DIMASZ
 40
2.5
  9
$DIMEXO
 40
0.5
  9
$DIMDLI
 40
7.0
  9
$DIMRND
 40
0.0
  9
$DIMDLE
 40
0.0
  9
$DIMEXE
 40
1.5
  9
$DIMTP
 40
0.0
  9
$DIMTM
 40
0.0
  9
$DIMTXT
 40
3.0
  9
$DIMCEN
 40
0.0
  9
$DIMTSZ
 40
0.0
  9
$DIMTOL
 70
     0
  9
$DIMLIM
 70
     0
  9
$DIMTIH
 70
     0
  9
$DIMTOH
 70
     0
  9
$DIMSE1
 70
     0
  9
$DIMSE2
 70
     0
  9
$DIMTAD
 70
     3
  9
$DIMZIN
 70
     8
  9
$DIMBLK
  1

  9
$DIMASO
 70
     1
  9
$DIMSHO
 70
     1
  9
$DIMPOST
  1

  9
$DIMAPOST
  1

  9
$DIMALT
 70
     0
  9
$DIMALTD
 70
     2
  9
$DIMALTF
 40
0.0394
  9
$DIMLFAC
 40
1.0
  9
$DIMTOFL
 70
     1
  9
$DIMTVP
 40
0.0
  9
$DIMTIX
 70
     0
  9
$DIMSOXD
 70
     0
  9
$DIMSAH
 70
     1
  9
$DIMBLK1
  1
DOTSMALL
  9
$DIMBLK2
  1
DOTSMALL
  9
$DIMSTYLE
  2
INABA_S40G
  9
$DIMCLRD
 70
     0
  9
$DIMCLRE
 70
     0
  9
$DIMCLRT
 70
     7
  9
$DIMTFAC
 40
1.0
  9
$DIMGAP
 40
1.0
  9
$DIMJUST
 70
     0
  9
$DIMSD1
 70
     0
  9
$DIMSD2
 70
     0
  9
$DIMTOLJ
 70
     1
  9
$DIMTZIN
 70
     0
  9
$DIMALTZ
 70
     0
  9
$DIMALTTZ
 70
     0
  9
$DIMUPT
 70
     0
  9
$DIMDEC
 70
     1
  9
$DIMTDEC
 70
     1
  9
$DIMALTU
 70
     2
  9
$DIMALTTD
 70
     2
  9
$DIMTXSTY
  7
STYLE1
  9
$DIMAUNIT
 70
     0
  9
$DIMADEC
 70
     0
  9
$DIMALTRND
 40
0.0
  9
$DIMAZIN
 70
     0
  9
$DIMDSEP
 70
    46
  9
$DIMATFIT
 70
     3
  9
$DIMFRAC
 70
     0
  9
$DIMLDRBLK
  1

  9
$DIMLUNIT
 70
     2
  9
$DIMLWD
 70
    -2
  9
$DIMLWE
 70
    -2
  9
$DIMTMOVE
 70
     0
  9
$LUNITS
 70
     2
  9
$LUPREC
 70
     1
  9
$SKETCHINC
 40
1.0
  9
$FILLETRAD
 40
0.0
  9
$AUNITS
 70
     0
  9
$AUPREC
 70
     0
  9
$MENU
  1
acad
  9
$ELEVATION
 40
0.0
  9
$PELEVATION
 40
0.0
  9
$THICKNESS
 40
0.0
  9
$LIMCHECK
 70
     0
  9
$CHAMFERA
 40
3.0
  9
$CHAMFERB
 40
3.0
  9
$CHAMFERC
 40
0.0
  9
$CHAMFERD
 40
0.0
  9
$SKPOLY
 70
     0
  9
$TDCREATE
 40
2451368.612993866
  9
$TDUCREATE
 40
2451368.237993866
  9
$TDUPDATE
 40
2456527.780456806
  9
$TDUUPDATE
 40
2456527.405456806
  9
$TDINDWG
 40
1.4655561343
  9
$TDUSRTIMER
 40
1.4655561343
  9
$USRTIMER
 70
     1
  9
$ANGBASE
 50
0.0
  9
$ANGDIR
 70
     0
  9
$PDMODE
 70
     3
  9
$PDSIZE
 40
2.0
  9
$PLINEWID
 40
0.0
  9
$SPLFRAME
 70
     0
  9
$SPLINETYPE
 70
     6
  9
$SPLINESEGS
 70
     8
  9
$HANDSEED
  5
233C7
  9
$SURFTAB1
 70
     6
  9
$SURFTAB2
 70
     6
  9
$SURFTYPE
 70
     6
  9
$SURFU
 70
     6
  9
$SURFV
 70
     6
  9
$UCSBASE
  2

  9
$UCSNAME
  2

  9
$UCSORG
 10
0.0
 20
0.0
 30
0.0
  9
$UCSXDIR
 10
1.0
 20
0.0
 30
0.0
  9
$UCSYDIR
 10
0.0
 20
1.0
 30
0.0
  9
$UCSORTHOREF
  2

  9
$UCSORTHOVIEW
 70
     0
  9
$UCSORGTOP
 10
0.0
 20
0.0
 30
0.0
  9
$UCSORGBOTTOM
 10
0.0
 20
0.0
 30
0.0
  9
$UCSORGLEFT
 10
0.0
 20
0.0
 30
0.0
  9
$UCSORGRIGHT
 10
0.0
 20
0.0
 30
0.0
  9
$UCSORGFRONT
 10
0.0
 20
0.0
 30
0.0
  9
$UCSORGBACK
 10
0.0
 20
0.0
 30
0.0
  9
$PUCSBASE
  2

  9
$PUCSNAME
  2

  9
$PUCSORG
 10
0.0
 20
0.0
 30
0.0
  9
$PUCSXDIR
 10
1.0
 20
0.0
 30
0.0
  9
$PUCSYDIR
 10
0.0
 20
1.0
 30
0.0
  9
$PUCSORTHOREF
  2

  9
$PUCSORTHOVIEW
 70
     0
  9
$PUCSORGTOP
 10
0.0
 20
0.0
 30
0.0
  9
$PUCSORGBOTTOM
 10
0.0
 20
0.0
 30
0.0
  9
$PUCSORGLEFT
 10
0.0
 20
0.0
 30
0.0
  9
$PUCSORGRIGHT
 10
0.0
 20
0.0
 30
0.0
  9
$PUCSORGFRONT
 10
0.0
 20
0.0
 30
0.0
  9
$PUCSORGBACK
 10
0.0
 20
0.0
 30
0.0
  9
$USERI1
 70
     0
  9
$USERI2
 70
     0
  9
$USERI3
 70
     0
  9
$USERI4
 70
     0
  9
$USERI5
 70
     0
  9
$USERR1
 40
0.0
  9
$USERR2
 40
0.0
  9
$USERR3
 40
0.0
  9
$USERR4
 40
0.0
  9
$USERR5
 40
0.0
  9
$WORLDVIEW
 70
     1
  9
$SHADEDGE
 70
     3
  9
$SHADEDIF
 70
    70
  9
$TILEMODE
 70
     1
  9
$MAXACTVP
 70
    16
  9
$PINSBASE
 10
0.0
 20
0.0
 30
0.0
  9
$PLIMCHECK
 70
     0
  9
$PEXTMIN
 10
1.000000000000000E+20
 20
1.000000000000000E+20
 30
1.000000000000000E+20
  9
$PEXTMAX
 10
-1.000000000000000E+20
 20
-1.000000000000000E+20
 30
-1.000000000000000E+20
  9
$PLIMMIN
 10
0.0
 20
0.0
  9
$PLIMMAX
 10
420.0
 20
297.0
  9
$UNITMODE
 70
     0
  9
$VISRETAIN
 70
     0
  9
$PLINEGEN
 70
     0
  9
$PSLTSCALE
 70
     0
  9
$TREEDEPTH
 70
  3020
  9
$CMLSTYLE
  2
STANDARD
  9
$CMLJUST
 70
     0
  9
$CMLSCALE
 40
1.0
  9
$PROXYGRAPHICS
 70
     1
  9
$MEASUREMENT
 70
     1
  9
$CELWEIGHT
370
    -1
  9
$ENDCAPS
280
     0
  9
$JOINSTYLE
280
     0
  9
$LWDISPLAY
290
     0
  9
$INSUNITS
 70
     0
  9
$HYPERLINKBASE
  1

  9
$STYLESHEET
  1
inaba.ctb
  9
$XEDIT
290
     1
  9
$CEPSNTYPE
380
     0
  9
$PSTYLEMODE
290
     1
  9
$FINGERPRINTGUID
  2
{3B57B35E-7D77-4BBF-81B7-6C583B9EB24C}
  9
$VERSIONGUID
  2
{196E84DB-3F82-4E8A-9D4A-05ADB943A39E}
  9
$EXTNAMES
290
     1
  9
$PSVPSCALE
 40
0.0
  9
$OLESTARTUP
290
     0
  0
ENDSEC
  0
SECTION
  2
CLASSES
  0
CLASS
  1
ACDBDICTIONARYWDFLT
  2
AcDbDictionaryWithDefault
  3
ObjectDBX Classes
 90
        0
280
     0
281
     0
  0
CLASS
  1
DICTIONARYVAR
  2
AcDbDictionaryVar
  3
ObjectDBX Classes
 90
        0
280
     0
281
     0
  0
CLASS
  1
ACDBPLACEHOLDER
  2
AcDbPlaceHolder
  3
ObjectDBX Classes
 90
        0
280
     0
281
     0
  0
CLASS
  1
LAYOUT
  2
AcDbLayout
  3
ObjectDBX Classes
 90
        0
280
     0
281
     0
  0
ENDSEC
  0
SECTION
  2
TABLES
  0
TABLE
  2
VPORT
  5
746D
330
0
100
AcDbSymbolTable
 70
     2
  0
VPORT
  5
233BF
330
746D
100
AcDbSymbolTableRecord
100
AcDbViewportTableRecord
  2
*Active
 70
     0
 10
0.0
 20
0.0
 11
1.0
 21
1.0
 12
10371.51368268999
 22
5939.728151999723
 13
0.0
 23
0.0
 14
10.0
 24
10.0
 15
10.0
 25
10.0
 16
0.0
 26
0.0
 36
1.0
 17
0.0
 27
0.0
 37
0.0
 40
12127.29424982416
 41
1.718579234972677
 42
50.0
 43
0.0
 44
0.0
 50
0.0
 51
0.0
 71
     0
 72
     0
 73
     1
 74
     0
 75
     0
 76
     0
 77
     0
 78
     0
281
     0
 65
     1
110
0.0
120
0.0
130
0.0
111
1.0
121
0.0
131
0.0
112
0.0
122
1.0
132
0.0
 79
     0
146
0.0
  0
ENDTAB
  0
TABLE
  2
LTYPE
  5
746A
330
0
100
AcDbSymbolTable
 70
     4
  0
LTYPE
  5
7477
330
746A
100
AcDbSymbolTableRecord
100
AcDbLinetypeTableRecord
  2
BYBLOCK
 70
     0
  3

 72
    65
 73
     0
 40
0.0
  0
LTYPE
  5
7478
330
746A
100
AcDbSymbolTableRecord
100
AcDbLinetypeTableRecord
  2
BYLAYER
 70
     0
  3

 72
    65
 73
     0
 40
0.0
  0
LTYPE
  5
7479
330
746A
100
AcDbSymbolTableRecord
100
AcDbLinetypeTableRecord
  2
CONTINUOUS
 70
     0
  3
Solid line
 72
    65
 73
     0
 40
0.0
  0
LTYPE
  5
7816
330
746A
100
AcDbSymbolTableRecord
100
AcDbLinetypeTableRecord
  2
CENTER
 70
     0
  3
____ _ ____ _ ____ _ ____ _ ____ _ ____ _ ____ 
 72
    65
 73
     4
 40
2.0
 49
1.25
 74
     0
 49
-0.25
 74
     0
 49
0.25
 74
     0
 49
-0.25
 74
     0
  0
LTYPE
  5
781A
330
746A
100
AcDbSymbolTableRecord
100
AcDbLinetypeTableRecord
  2
HIDDEN
 70
     0
  3
__ __ __ __ __ __ __ __ __ __ __ __ __ __ __ __
 72
    65
 73
     2
 40
0.375
 49
0.25
 74
     0
 49
-0.125
 74
     0
  0
LTYPE
  5
781B
330
746A
100
AcDbSymbolTableRecord
100
AcDbLinetypeTableRecord
  2
PHANTOM
 70
     0
  3
______  __  __  ______  __  __  ______  __  __ 
 72
    65
 73
     6
 40
2.5
 49
1.25
 74
     0
 49
-0.25
 74
     0
 49
0.25
 74
     0
 49
-0.25
 74
     0
 49
0.25
 74
     0
 49
-0.25
 74
     0
  0
ENDTAB
  0
TABLE
  2
LAYER
  5
7467
102
{ACAD_XDICTIONARY
360
1ED5D
102
}
330
0
100
AcDbSymbolTable
 70
    13
  0
LAYER
  5
7474
330
7467
100
AcDbSymbolTableRecord
100
AcDbLayerTableRecord
  2
0
 70
     0
 62
     7
  6
CONTINUOUS
370
    -3
390
159AE
  0
LAYER
  5
DEB2
330
7467
100
AcDbSymbolTableRecord
100
AcDbLayerTableRecord
  2
センター
 70
     0
 62
     3
  6
CENTER
370
    -3
390
159AE
  0
LAYER
  5
DEB3
330
7467
100
AcDbSymbolTableRecord
100
AcDbLayerTableRecord
  2
寸法
 70
     0
 62
     4
  6
CONTINUOUS
370
    -3
390
159AE
  0
LAYER
  5
DEB4
330
7467
100
AcDbSymbolTableRecord
100
AcDbLayerTableRecord
  2
部品1
 70
     0
 62
     7
  6
CONTINUOUS
370
    -3
390
159AE
  0
LAYER
  5
DEB5
330
7467
100
AcDbSymbolTableRecord
100
AcDbLayerTableRecord
  2
補助
 70
     0
 62
    -1
  6
CONTINUOUS
370
    -3
390
159AE
  0
LAYER
  5
DEB6
330
7467
100
AcDbSymbolTableRecord
100
AcDbLayerTableRecord
  2
文字
 70
     0
 62
     7
  6
CONTINUOUS
370
    -3
390
159AE
  0
LAYER
  5
F255
330
7467
100
AcDbSymbolTableRecord
100
AcDbLayerTableRecord
  2
DEFPOINTS
 70
     0
 62
     7
  6
CONTINUOUS
290
     0
370
    -3
390
159AE
  0
LAYER
  5
10B54
330
7467
100
AcDbSymbolTableRecord
100
AcDbLayerTableRecord
  2
仕様書枠
 70
     0
 62
   230
  6
CONTINUOUS
370
    -3
390
159AE
  0
LAYER
  5
11729
330
7467
100
AcDbSymbolTableRecord
100
AcDbLayerTableRecord
  2
Ｇ．Ｌ
 70
     0
 62
    30
  6
CONTINUOUS
370
    -3
390
159AE
  0
LAYER
  5
1173F
330
7467
100
AcDbSymbolTableRecord
100
AcDbLayerTableRecord
  2
細線
 70
     0
 62
     5
  6
CONTINUOUS
370
    -3
390
159AE
  0
LAYER
  5
12CC4
330
7467
100
AcDbSymbolTableRecord
100
AcDbLayerTableRecord
  2
想像線
 70
     0
 62
     6
  6
PHANTOM
370
    -3
390
159AE
  0
LAYER
  5
142E2
330
7467
100
AcDbSymbolTableRecord
100
AcDbLayerTableRecord
  2
破線
 70
     0
 62
     2
  6
HIDDEN
370
    -3
390
159AE
  0
LAYER
  5
1C644
330
7467
100
AcDbSymbolTableRecord
100
AcDbLayerTableRecord
  2
点線
 70
     0
 62
     2
  6
HIDDEN
370
    -3
390
159AE
  0
ENDTAB
  0
TABLE
  2
STYLE
  5
7468
330
0
100
AcDbSymbolTable
 70
     3
  0
STYLE
  5
7475
330
7468
100
AcDbSymbolTableRecord
100
AcDbTextStyleTableRecord
  2
STANDARD
 70
     0
 40
0.0
 41
1.0
 50
0.0
 71
     0
 42
4.0
  3
txt
  4
C:\AutoCAD LT\bigfont.shx
  0
STYLE
  5
F706
330
7468
100
AcDbSymbolTableRecord
100
AcDbTextStyleTableRecord
  2
STYLE1
 70
     0
 40
0.0
 41
1.0
 50
0.0
 71
     0
 42
100.0
  3
isocp.shx
  4
bigfont.shx
  0
STYLE
  5
103BF
330
7468
100
AcDbSymbolTableRecord
100
AcDbTextStyleTableRecord
  2
STYLE2
 70
     0
 40
0.0
 41
1.0
 50
0.0
 71
     0
 42
100.0
  3
MS PGothic.ttf
  4

1001
ACAD
1000
MS PGothic
1071
    32818
  0
ENDTAB
  0
TABLE
  2
VIEW
  5
746B
330
0
100
AcDbSymbolTable
 70
     0
  0
ENDTAB
  0
TABLE
  2
UCS
  5
746C
330
0
100
AcDbSymbolTable
 70
     0
  0
ENDTAB
  0
TABLE
  2
APPID
  5
746E
330
0
100
AcDbSymbolTable
 70
     6
  0
APPID
  5
7476
330
746E
100
AcDbSymbolTableRecord
100
AcDbRegAppTableRecord
  2
ACAD
 70
     0
  0
APPID
  5
DEA9
330
746E
100
AcDbSymbolTableRecord
100
AcDbRegAppTableRecord
  2
CONTENTBLOCKICON
 70
     0
  0
APPID
  5
DEAA
330
746E
100
AcDbSymbolTableRecord
100
AcDbRegAppTableRecord
  2
CONTENTBLOCKDESCRIPTION
 70
     0
  0
APPID
  5
E71D
330
746E
100
AcDbSymbolTableRecord
100
AcDbRegAppTableRecord
  2
CONTENTTABDATA
 70
     0
  0
APPID
  5
E71E
330
746E
100
AcDbSymbolTableRecord
100
AcDbRegAppTableRecord
  2
CONTENTCURRENTTAB
 70
     0
  0
APPID
  5
F3BA
330
746E
100
AcDbSymbolTableRecord
100
AcDbRegAppTableRecord
  2
DRAWINGVARIABLESXDATA
 70
     0
  0
ENDTAB
  0
TABLE
  2
DIMSTYLE
  5
746F
330
0
100
AcDbSymbolTable
 70
     2
100
AcDbDimStyleTable
 71
     1
340
F71F
  0
DIMSTYLE
105
F71F
102
{ACAD_REACTORS
330
203F9
330
203F8
330
203F6
330
203B0
330
203B6
330
203E9
330
20F62
330
20F92
330
20FBA
330
20FEA
330
21B39
330
21B37
330
227A2
330
227A1
330
22812
330
230DE
330
2316C
330
231C8
330
23230
330
23292
330
2337D
102
}
330
746F
100
AcDbSymbolTableRecord
100
AcDbDimStyleTableRecord
  2
INABA_S40G
 70
     0
 40
40.0
 41
2.5
 42
0.5
 43
7.0
 44
1.5
 73
     0
 74
     0
 77
     3
 78
     8
140
3.0
141
0.0
143
0.0394
147
1.0
172
     1
173
     1
174
     1
178
     7
271
     1
288
     1
340
F706
341
F770
343
F770
344
F770
  0
DIMSTYLE
105
1C645
330
746F
100
AcDbSymbolTableRecord
100
AcDbDimStyleTableRecord
  2
INABA_S50G
 70
     0
 40
0.0
 41
125.0
 42
25.0
 43
7.0
 44
75.0
 73
     0
 74
     0
 77
     3
 78
     8
140
150.0
141
0.0
143
0.0394
147
25.0
172
     1
173
     1
174
     1
178
     7
271
     1
340
F706
341
F770
343
F770
344
F770
  0
ENDTAB
  0
TABLE
  2
BLOCK_RECORD
  5
7466
330
0
100
AcDbSymbolTable
 70
    47
  0
BLOCK_RECORD
  5
747D
330
7466
100
AcDbSymbolTableRecord
100
AcDbBlockTableRecord
  2
*MODEL_SPACE
340
159B3
  0
BLOCK_RECORD
  5
747A
330
7466
100
AcDbSymbolTableRecord
100
AcDbBlockTableRecord
  2
*PAPER_SPACE
340
159B4
  0
BLOCK_RECORD
  5
F770
330
7466
100
AcDbSymbolTableRecord
100
AcDbBlockTableRecord
  2
_DOTSMALL
340
0
102
{BLKREFS
331
1E214
331
1E215
331
1E1AD
331
1E1AE
331
1E1D1
331
1E1D2
331
1E1C6
331
1E1C7
331
1E187
331
1E188
331
1E1BA
331
1E1BB
331
1E1DF
331
1E1E0
331
1E1A1
331
1E1A2
331
1E194
331
1E195
331
1E220
331
1E221
331
1E24F
331
1E250
331
1E1FA
331
1E1FB
331
1E1ED
331
1E1EE
331
1E207
331
1E208
331
1E22B
331
1E22C
331
1E242
331
1E243
331
1E17A
331
1E17B
331
1E16D
331
1E16E
331
1E160
331
1E161
331
1E155
331
1E156
331
1E236
331
1E237
331
21B89
331
21B8A
331
228E5
331
228E6
331
228EE
331
228EF
331
228F9
331
228FA
331
22914
331
22915
331
22938
331
22939
331
22941
331
22942
331
2294A
331
2294B
331
22967
331
22968
331
22971
331
22972
331
2297B
331
2297C
331
22996
331
22997
331
2299F
331
229A0
331
229A8
331
229A9
331
229B1
331
229B2
331
229C3
331
229C4
331
23303
331
23304
331
2330C
331
2330D
331
23315
331
23316
331
2331E
331
2331F
331
23327
331
23328
331
2336B
331
2336C
331
233AD
331
233AE
102
}
  0
BLOCK_RECORD
  5
1C530
330
7466
100
AcDbSymbolTableRecord
100
AcDbBlockTableRecord
  2
_NONE
340
0
  0
BLOCK_RECORD
  5
1E151
330
7466
100
AcDbSymbolTableRecord
100
AcDbBlockTableRecord
  2
*D2
340
0
  0
BLOCK_RECORD
  5
1E15C
330
7466
100
AcDbSymbolTableRecord
100
AcDbBlockTableRecord
  2
*D3
340
0
  0
BLOCK_RECORD
  5
1E167
330
7466
100
AcDbSymbolTableRecord
100
AcDbBlockTableRecord
  2
*D4
340
0
  0
BLOCK_RECORD
  5
1E174
330
7466
100
AcDbSymbolTableRecord
100
AcDbBlockTableRecord
  2
*D5
340
0
  0
BLOCK_RECORD
  5
1E181
330
7466
100
AcDbSymbolTableRecord
100
AcDbBlockTableRecord
  2
*D6
340
0
  0
BLOCK_RECORD
  5
1E18E
330
7466
100
AcDbSymbolTableRecord
100
AcDbBlockTableRecord
  2
*D7
340
0
  0
BLOCK_RECORD
  5
1E19B
330
7466
100
AcDbSymbolTableRecord
100
AcDbBlockTableRecord
  2
*D8
340
0
  0
BLOCK_RECORD
  5
1E1A8
330
7466
100
AcDbSymbolTableRecord
100
AcDbBlockTableRecord
  2
*D9
340
0
  0
BLOCK_RECORD
  5
1E1B4
330
7466
100
AcDbSymbolTableRecord
100
AcDbBlockTableRecord
  2
*D10
340
0
  0
BLOCK_RECORD
  5
1E1C1
330
7466
100
AcDbSymbolTableRecord
100
AcDbBlockTableRecord
  2
*D11
340
0
  0
BLOCK_RECORD
  5
1E1CD
330
7466
100
AcDbSymbolTableRecord
100
AcDbBlockTableRecord
  2
*D12
340
0
  0
BLOCK_RECORD
  5
1E1D8
330
7466
100
AcDbSymbolTableRecord
100
AcDbBlockTableRecord
  2
*D13
340
0
  0
BLOCK_RECORD
  5
1E1E6
330
7466
100
AcDbSymbolTableRecord
100
AcDbBlockTableRecord
  2
*D14
340
0
  0
BLOCK_RECORD
  5
1E1F4
330
7466
100
AcDbSymbolTableRecord
100
AcDbBlockTableRecord
  2
*D15
340
0
  0
BLOCK_RECORD
  5
1E201
330
7466
100
AcDbSymbolTableRecord
100
AcDbBlockTableRecord
  2
*D16
340
0
  0
BLOCK_RECORD
  5
1E20E
330
7466
100
AcDbSymbolTableRecord
100
AcDbBlockTableRecord
  2
*D17
340
0
  0
BLOCK_RECORD
  5
1E21B
330
7466
100
AcDbSymbolTableRecord
100
AcDbBlockTableRecord
  2
*D18
340
0
  0
BLOCK_RECORD
  5
1E227
330
7466
100
AcDbSymbolTableRecord
100
AcDbBlockTableRecord
  2
*D19
340
0
  0
BLOCK_RECORD
  5
1E232
330
7466
100
AcDbSymbolTableRecord
100
AcDbBlockTableRecord
  2
*D20
340
0
  0
BLOCK_RECORD
  5
1E23D
330
7466
100
AcDbSymbolTableRecord
100
AcDbBlockTableRecord
  2
*D21
340
0
  0
BLOCK_RECORD
  5
1E249
330
7466
100
AcDbSymbolTableRecord
100
AcDbBlockTableRecord
  2
*D22
340
0
  0
BLOCK_RECORD
  5
1E256
330
7466
100
AcDbSymbolTableRecord
100
AcDbBlockTableRecord
  2
A$C56A41A26
340
0
  0
BLOCK_RECORD
  5
20438
330
7466
100
AcDbSymbolTableRecord
100
AcDbBlockTableRecord
  2
*D24
340
0
  0
BLOCK_RECORD
  5
20443
330
7466
100
AcDbSymbolTableRecord
100
AcDbBlockTableRecord
  2
*D25
340
0
  0
BLOCK_RECORD
  5
2045D
330
7466
100
AcDbSymbolTableRecord
100
AcDbBlockTableRecord
  2
*D26
340
0
  0
BLOCK_RECORD
  5
20475
330
7466
100
AcDbSymbolTableRecord
100
AcDbBlockTableRecord
  2
*D27
340
0
  0
BLOCK_RECORD
  5
20480
330
7466
100
AcDbSymbolTableRecord
100
AcDbBlockTableRecord
  2
*D28
340
0
  0
BLOCK_RECORD
  5
2048B
330
7466
100
AcDbSymbolTableRecord
100
AcDbBlockTableRecord
  2
*D29
340
0
  0
BLOCK_RECORD
  5
20F63
330
7466
100
AcDbSymbolTableRecord
100
AcDbBlockTableRecord
  2
*D31
340
0
  0
BLOCK_RECORD
  5
20F93
330
7466
100
AcDbSymbolTableRecord
100
AcDbBlockTableRecord
  2
*D32
340
0
  0
BLOCK_RECORD
  5
20FBB
330
7466
100
AcDbSymbolTableRecord
100
AcDbBlockTableRecord
  2
*D33
340
0
  0
BLOCK_RECORD
  5
20FEB
330
7466
100
AcDbSymbolTableRecord
100
AcDbBlockTableRecord
  2
*D34
340
0
  0
BLOCK_RECORD
  5
21B3A
330
7466
100
AcDbSymbolTableRecord
100
AcDbBlockTableRecord
  2
*D35
340
0
  0
BLOCK_RECORD
  5
21B52
330
7466
100
AcDbSymbolTableRecord
100
AcDbBlockTableRecord
  2
*D36
340
0
  0
BLOCK_RECORD
  5
227B0
330
7466
100
AcDbSymbolTableRecord
100
AcDbBlockTableRecord
  2
*D37
340
0
  0
BLOCK_RECORD
  5
227BC
330
7466
100
AcDbSymbolTableRecord
100
AcDbBlockTableRecord
  2
*D38
340
0
  0
BLOCK_RECORD
  5
22813
330
7466
100
AcDbSymbolTableRecord
100
AcDbBlockTableRecord
  2
*D39
340
0
  0
BLOCK_RECORD
  5
232C4
330
7466
100
AcDbSymbolTableRecord
100
AcDbBlockTableRecord
  2
*D40
340
0
  0
BLOCK_RECORD
  5
232D0
330
7466
100
AcDbSymbolTableRecord
100
AcDbBlockTableRecord
  2
*D41
340
0
  0
BLOCK_RECORD
  5
232DC
330
7466
100
AcDbSymbolTableRecord
100
AcDbBlockTableRecord
  2
*D42
340
0
  0
BLOCK_RECORD
  5
232E8
330
7466
100
AcDbSymbolTableRecord
100
AcDbBlockTableRecord
  2
*D43
340
0
  0
BLOCK_RECORD
  5
232F4
330
7466
100
AcDbSymbolTableRecord
100
AcDbBlockTableRecord
  2
*D44
340
0
  0
BLOCK_RECORD
  5
23384
330
7466
100
AcDbSymbolTableRecord
100
AcDbBlockTableRecord
  2
*D46
340
0
  0
ENDTAB
  0
ENDSEC
  0
SECTION
  2
BLOCKS
  0
BLOCK
  5
7489
330
747D
100
AcDbEntity
  8
0
100
AcDbBlockBegin
  2
*MODEL_SPACE
 70
     0
 10
0.0
 20
0.0
 30
0.0
  3
*MODEL_SPACE
  1

  0
ENDBLK
  5
748A
330
747D
100
AcDbEntity
  8
0
100
AcDbBlockEnd
  0
BLOCK
  5
7487
330
747A
100
AcDbEntity
 67
     1
  8
0
100
AcDbBlockBegin
  2
*PAPER_SPACE
 70
     0
 10
0.0
 20
0.0
 30
0.0
  3
*PAPER_SPACE
  1

  0
ENDBLK
  5
7488
330
747A
100
AcDbEntity
 67
     1
  8
0
100
AcDbBlockEnd
  0
BLOCK
  5
F771
330
F770
100
AcDbEntity
  8
0
 48
50.0
100
AcDbBlockBegin
  2
_DOTSMALL
 70
     0
 10
0.0
 20
0.0
 30
0.0
  3
_DOTSMALL
  1

  0
LWPOLYLINE
  5
F772
330
F770
100
AcDbEntity
  8
0
  6
ByBlock
 62
     0
 48
50.0
100
AcDbPolyline
 90
        2
 70
     1
 43
0.5
 10
-0.0625
 20
0.0
 42
1.0
 10
0.0625
 20
0.0
 42
1.0
  0
ENDBLK
  5
F776
330
F770
100
AcDbEntity
  8
0
 48
50.0
100
AcDbBlockEnd
  0
BLOCK
  5
1C531
330
1C530
100
AcDbEntity
  8
0
 48
50.0
100
AcDbBlockBegin
  2
_NONE
 70
     0
 10
0.0
 20
0.0
 30
0.0
  3
_NONE
  1

  0
CIRCLE
  5
1C532
330
1C530
100
AcDbEntity
  8
0
  6
ByBlock
 62
     0
 48
50.0
100
AcDbCircle
 10
0.0
 20
0.0
 30
0.0
 40
0.25
  0
ENDBLK
  5
1C533
330
1C530
100
AcDbEntity
  8
0
 48
50.0
100
AcDbBlockEnd
  0
BLOCK
  5
1E152
330
1E151
100
AcDbEntity
  8
0
 48
50.0
100
AcDbBlockBegin
  2
*D2
 70
     1
 10
0.0
 20
0.0
 30
0.0
  3
*D2
  1

  0
LINE
  5
1E153
330
1E151
100
AcDbEntity
  8
0
  6
ByBlock
 62
     0
 48
50.0
100
AcDbLine
 10
5296.0
 20
8029.0
 30
0.0
 11
5296.0
 21
9017.667619817153
 31
0.0
  0
LINE
  5
1E154
330
1E151
100
AcDbEntity
  8
0
  6
ByBlock
 62
     0
 48
50.0
100
AcDbLine
 10
3496.0
 20
8942.667619817154
 30
0.0
 11
5296.0
 21
8942.667619817154
 31
0.0
  0
INSERT
  5
1E155
330
1E151
100
AcDbEntity
  8
0
  6
ByBlock
 62
     0
 48
50.0
100
AcDbBlockReference
  2
_DOTSMALL
 10
3496.0
 20
8942.667619817154
 30
0.0
 41
125.0
 42
125.0
 43
125.0
 50
180.0
  0
INSERT
  5
1E156
330
1E151
100
AcDbEntity
  8
0
  6
ByBlock
 62
     0
 48
50.0
100
AcDbBlockReference
  2
_DOTSMALL
 10
5296.0
 20
8942.667619817154
 30
0.0
 41
125.0
 42
125.0
 43
125.0
  0
MTEXT
  5
1E157
330
1E151
100
AcDbEntity
  8
0
  6
ByBlock
 62
     7
 48
50.0
100
AcDbMText
 10
4396.0
 20
9042.667619817153
 30
0.0
 40
150.0
 41
0.0
 71
     5
 72
     1
  1
\A1;1800
  7
STYLE1
 73
     1
 44
1.0
1001
ACAD
1000
MTEXTBEGIN
1070
    73
1070
     1
1070
    44
1040
1.0
1070
    74
1070
     0
1000
MTEXTEND
  0
POINT
  5
1E158
330
1E151
100
AcDbEntity
  8
DEFPOINTS
  6
ByBlock
 62
     0
 48
50.0
100
AcDbPoint
 10
3496.0
 20
8004.0
 30
0.0
  0
POINT
  5
1E159
330
1E151
100
AcDbEntity
  8
DEFPOINTS
  6
ByBlock
 62
     0
 48
50.0
100
AcDbPoint
 10
5296.0
 20
8004.0
 30
0.0
  0
POINT
  5
1E15A
330
1E151
100
AcDbEntity
  8
DEFPOINTS
  6
ByBlock
 62
     0
 48
50.0
100
AcDbPoint
 10
5296.0
 20
8942.667619817154
 30
0.0
  0
ENDBLK
  5
1E15B
330
1E151
100
AcDbEntity
  8
0
 48
50.0
100
AcDbBlockEnd
  0
BLOCK
  5
1E15D
330
1E15C
100
AcDbEntity
  8
0
 48
50.0
100
AcDbBlockBegin
  2
*D3
 70
     1
 10
0.0
 20
0.0
 30
0.0
  3
*D3
  1

  0
LINE
  5
1E15E
330
1E15C
100
AcDbEntity
  8
0
  6
ByBlock
 62
     0
 48
50.0
100
AcDbLine
 10
3619.0
 20
7956.0
 30
0.0
 11
3619.0
 21
8805.206924300318
 31
0.0
  0
LINE
  5
1E15F
330
1E15C
100
AcDbEntity
  8
0
  6
ByBlock
 62
     0
 48
50.0
100
AcDbLine
 10
5173.0
 20
8730.206924300317
 30
0.0
 11
3619.0
 21
8730.206924300317
 31
0.0
  0
INSERT
  5
1E160
330
1E15C
100
AcDbEntity
  8
0
  6
ByBlock
 62
     0
 48
50.0
100
AcDbBlockReference
  2
_DOTSMALL
 10
5173.0
 20
8730.206924300317
 30
0.0
 41
125.0
 42
125.0
 43
125.0
  0
INSERT
  5
1E161
330
1E15C
100
AcDbEntity
  8
0
  6
ByBlock
 62
     0
 48
50.0
100
AcDbBlockReference
  2
_DOTSMALL
 10
3619.0
 20
8730.206924300317
 30
0.0
 41
125.0
 42
125.0
 43
125.0
 50
180.0
  0
MTEXT
  5
1E162
330
1E15C
100
AcDbEntity
  8
0
  6
ByBlock
 62
     7
 48
50.0
100
AcDbMText
 10
4396.0
 20
8830.206924300318
 30
0.0
 40
150.0
 41
0.0
 71
     5
 72
     1
  1
\A1;1554
  7
STYLE1
 73
     1
 44
1.0
1001
ACAD
1000
MTEXTBEGIN
1070
    73
1070
     1
1070
    44
1040
1.0
1070
    74
1070
     0
1000
MTEXTEND
  0
POINT
  5
1E163
330
1E15C
100
AcDbEntity
  8
DEFPOINTS
  6
ByBlock
 62
     0
 48
50.0
100
AcDbPoint
 10
5173.0
 20
7931.0
 30
0.0
  0
POINT
  5
1E164
330
1E15C
100
AcDbEntity
  8
DEFPOINTS
  6
ByBlock
 62
     0
 48
50.0
100
AcDbPoint
 10
3619.0
 20
7931.0
 30
0.0
  0
POINT
  5
1E165
330
1E15C
100
AcDbEntity
  8
DEFPOINTS
  6
ByBlock
 62
     0
 48
50.0
100
AcDbPoint
 10
3619.0
 20
8730.206924300317
 30
0.0
  0
ENDBLK
  5
1E166
330
1E15C
100
AcDbEntity
  8
0
 48
50.0
100
AcDbBlockEnd
  0
BLOCK
  5
1E168
330
1E167
100
AcDbEntity
  8
0
 48
50.0
100
AcDbBlockBegin
  2
*D4
 70
     1
 10
0.0
 20
0.0
 30
0.0
  3
*D4
  1

  0
LINE
  5
1E169
330
1E167
100
AcDbEntity
  8
0
  6
ByBlock
 62
     0
 48
50.0
100
AcDbLine
 10
3751.000000000001
 20
2304.000000000004
 30
0.0
 11
4106.75372407693
 21
2304.000000000004
 31
0.0
  0
LINE
  5
1E16A
330
1E167
100
AcDbEntity
  8
0
  6
ByBlock
 62
     0
 48
50.0
100
AcDbLine
 10
3821.000000000001
 20
2504.000000000007
 30
0.0
 11
4106.75372407693
 21
2504.000000000007
 31
0.0
  0
LINE
  5
1E16B
330
1E167
100
AcDbEntity
  8
0
  6
ByBlock
 62
     0
 48
50.0
100
AcDbLine
 10
4031.753724076931
 20
2304.000000000004
 30
0.0
 11
4031.753724076931
 21
2504.000000000007
 31
0.0
  0
LINE
  5
1E16C
330
1E167
100
AcDbEntity
  8
0
  6
ByBlock
 62
     0
 48
50.0
100
AcDbLine
 10
4031.753724076931
 20
2504.000000000007
 30
0.0
 11
4031.753724076931
 21
2952.927165354338
 31
0.0
  0
INSERT
  5
1E16D
330
1E167
100
AcDbEntity
  8
0
  6
ByBlock
 62
     0
 48
50.0
100
AcDbBlockReference
  2
_DOTSMALL
 10
4031.753724076931
 20
2304.000000000004
 30
0.0
 41
125.0
 42
125.0
 43
125.0
 50
270.0
  0
INSERT
  5
1E16E
330
1E167
100
AcDbEntity
  8
0
  6
ByBlock
 62
     0
 48
50.0
100
AcDbBlockReference
  2
_DOTSMALL
 10
4031.753724076931
 20
2504.000000000007
 30
0.0
 41
125.0
 42
125.0
 43
125.0
 50
90.0
  0
MTEXT
  5
1E16F
330
1E167
100
AcDbEntity
  8
0
  6
ByBlock
 62
     7
 48
50.0
100
AcDbMText
 10
3931.738960297403
 20
2790.963582677173
 30
0.0
 40
150.0
 41
0.0
 71
     5
 72
     1
  1
\A1;200
  7
STYLE1
 11
0.0000000000000001
 21
1.0
 31
0.0
 73
     1
 44
1.0
1001
ACAD
1000
MTEXTBEGIN
1070
    73
1070
     1
1070
    44
1040
1.0
1070
    74
1070
     0
1000
MTEXTEND
  0
POINT
  5
1E170
330
1E167
100
AcDbEntity
  8
DEFPOINTS
  6
ByBlock
 62
     0
 48
50.0
100
AcDbPoint
 10
3726.000000000001
 20
2304.000000000004
 30
0.0
  0
POINT
  5
1E171
330
1E167
100
AcDbEntity
  8
DEFPOINTS
  6
ByBlock
 62
     0
 48
50.0
100
AcDbPoint
 10
3796.000000000001
 20
2504.000000000007
 30
0.0
  0
POINT
  5
1E172
330
1E167
100
AcDbEntity
  8
DEFPOINTS
  6
ByBlock
 62
     0
 48
50.0
100
AcDbPoint
 10
4031.753724076931
 20
2504.000000000007
 30
0.0
  0
ENDBLK
  5
1E173
330
1E167
100
AcDbEntity
  8
0
 48
50.0
100
AcDbBlockEnd
  0
BLOCK
  5
1E175
330
1E174
100
AcDbEntity
  8
0
 48
50.0
100
AcDbBlockBegin
  2
*D5
 70
     1
 10
0.0
 20
0.0
 30
0.0
  3
*D5
  1

  0
LINE
  5
1E176
330
1E174
100
AcDbEntity
  8
0
  6
ByBlock
 62
     0
 48
50.0
100
AcDbLine
 10
3751.000000000001
 20
6724.000000000005
 30
0.0
 11
4106.75372407693
 21
6724.000000000005
 31
0.0
  0
LINE
  5
1E177
330
1E174
100
AcDbEntity
  8
0
  6
ByBlock
 62
     0
 48
50.0
100
AcDbLine
 10
3751.000000000002
 20
6624.000000000002
 30
0.0
 11
4106.75372407693
 21
6624.000000000002
 31
0.0
  0
LINE
  5
1E178
330
1E174
100
AcDbEntity
  8
0
  6
ByBlock
 62
     0
 48
50.0
100
AcDbLine
 10
4031.753724076931
 20
6724.000000000005
 30
0.0
 11
4031.753724076931
 21
6624.000000000002
 31
0.0
  0
LINE
  5
1E179
330
1E174
100
AcDbEntity
  8
0
  6
ByBlock
 62
     0
 48
50.0
100
AcDbLine
 10
4031.753724076931
 20
6624.000000000002
 30
0.0
 11
4031.753724076931
 21
6200.857401609004
 31
0.0
  0
INSERT
  5
1E17A
330
1E174
100
AcDbEntity
  8
0
  6
ByBlock
 62
     0
 48
50.0
100
AcDbBlockReference
  2
_DOTSMALL
 10
4031.753724076931
 20
6724.000000000005
 30
0.0
 41
125.0
 42
125.0
 43
125.0
 50
90.0
  0
INSERT
  5
1E17B
330
1E174
100
AcDbEntity
  8
0
  6
ByBlock
 62
     0
 48
50.0
100
AcDbBlockReference
  2
_DOTSMALL
 10
4031.753724076931
 20
6624.000000000002
 30
0.0
 41
125.0
 42
125.0
 43
125.0
 50
270.0
  0
MTEXT
  5
1E17C
330
1E174
100
AcDbEntity
  8
0
  6
ByBlock
 62
     7
 48
50.0
100
AcDbMText
 10
3931.75372407693
 20
6345.916456727114
 30
0.0
 40
150.0
 41
0.0
 71
     5
 72
     1
  1
\A1;100
  7
STYLE1
 11
0.0000000000000001
 21
1.0
 31
0.0
 73
     1
 44
1.0
1001
ACAD
1000
MTEXTBEGIN
1070
    73
1070
     1
1070
    44
1040
1.0
1070
    74
1070
     0
1000
MTEXTEND
  0
POINT
  5
1E17D
330
1E174
100
AcDbEntity
  8
DEFPOINTS
  6
ByBlock
 62
     0
 48
50.0
100
AcDbPoint
 10
3726.000000000001
 20
6724.000000000005
 30
0.0
  0
POINT
  5
1E17E
330
1E174
100
AcDbEntity
  8
DEFPOINTS
  6
ByBlock
 62
     0
 48
50.0
100
AcDbPoint
 10
3726.000000000002
 20
6624.000000000002
 30
0.0
  0
POINT
  5
1E17F
330
1E174
100
AcDbEntity
  8
DEFPOINTS
  6
ByBlock
 62
     0
 48
50.0
100
AcDbPoint
 10
4031.753724076931
 20
6624.000000000002
 30
0.0
  0
ENDBLK
  5
1E180
330
1E174
100
AcDbEntity
  8
0
 48
50.0
100
AcDbBlockEnd
  0
BLOCK
  5
1E182
330
1E181
100
AcDbEntity
  8
0
 48
50.0
100
AcDbBlockBegin
  2
*D6
 70
     1
 10
0.0
 20
0.0
 30
0.0
  3
*D6
  1

  0
LINE
  5
1E183
330
1E181
100
AcDbEntity
  8
0
  6
ByBlock
 62
     0
 48
50.0
100
AcDbLine
 10
3544.000000000006
 20
6822.000000000001
 30
0.0
 11
2925.057733986177
 21
6822.000000000001
 31
0.0
  0
LINE
  5
1E184
330
1E181
100
AcDbEntity
  8
0
  6
ByBlock
 62
     0
 48
50.0
100
AcDbLine
 10
3471.0
 20
6624.0
 30
0.0
 11
2925.057733986177
 21
6624.0
 31
0.0
  0
LINE
  5
1E185
330
1E181
100
AcDbEntity
  8
0
  6
ByBlock
 62
     0
 48
50.0
100
AcDbLine
 10
3000.057733986178
 20
6822.000000000001
 30
0.0
 11
3000.057733986178
 21
6624.0
 31
0.0
  0
LINE
  5
1E186
330
1E181
100
AcDbEntity
  8
0
  6
ByBlock
 62
     0
 48
50.0
100
AcDbLine
 10
3000.057733986178
 20
6624.0
 30
0.0
 11
3000.057733986178
 21
6143.206976370337
 31
0.0
  0
INSERT
  5
1E187
330
1E181
100
AcDbEntity
  8
0
  6
ByBlock
 62
     0
 48
50.0
100
AcDbBlockReference
  2
_DOTSMALL
 10
3000.057733986178
 20
6822.000000000001
 30
0.0
 41
125.0
 42
125.0
 43
125.0
 50
90.0
  0
INSERT
  5
1E188
330
1E181
100
AcDbEntity
  8
0
  6
ByBlock
 62
     0
 48
50.0
100
AcDbBlockReference
  2
_DOTSMALL
 10
3000.057733986178
 20
6624.0
 30
0.0
 41
125.0
 42
125.0
 43
125.0
 50
270.0
  0
MTEXT
  5
1E189
330
1E181
100
AcDbEntity
  8
0
  6
ByBlock
 62
     7
 48
50.0
100
AcDbMText
 10
2900.057733986177
 20
6288.469051157409
 30
0.0
 40
150.0
 41
0.0
 71
     5
 72
     1
  1
\A1;198
  7
STYLE1
 11
0.0000000000000001
 21
1.0
 31
0.0
 73
     1
 44
1.0
1001
ACAD
1000
MTEXTBEGIN
1070
    73
1070
     1
1070
    44
1040
1.0
1070
    74
1070
     0
1000
MTEXTEND
  0
POINT
  5
1E18A
330
1E181
100
AcDbEntity
  8
DEFPOINTS
  6
ByBlock
 62
     0
 48
50.0
100
AcDbPoint
 10
3569.000000000006
 20
6822.000000000001
 30
0.0
  0
POINT
  5
1E18B
330
1E181
100
AcDbEntity
  8
DEFPOINTS
  6
ByBlock
 62
     0
 48
50.0
100
AcDbPoint
 10
3496.0
 20
6624.0
 30
0.0
  0
POINT
  5
1E18C
330
1E181
100
AcDbEntity
  8
DEFPOINTS
  6
ByBlock
 62
     0
 48
50.0
100
AcDbPoint
 10
3000.057733986178
 20
6624.0
 30
0.0
  0
ENDBLK
  5
1E18D
330
1E181
100
AcDbEntity
  8
0
 48
50.0
100
AcDbBlockEnd
  0
BLOCK
  5
1E18F
330
1E18E
100
AcDbEntity
  8
0
 48
50.0
100
AcDbBlockBegin
  2
*D7
 70
     1
 10
0.0
 20
0.0
 30
0.0
  3
*D7
  1

  0
LINE
  5
1E190
330
1E18E
100
AcDbEntity
  8
0
  6
ByBlock
 62
     0
 48
50.0
100
AcDbLine
 10
3438.740228660987
 20
8755.206924300313
 30
0.0
 11
3438.740228660987
 21
9017.667619817155
 31
0.0
  0
LINE
  5
1E191
330
1E18E
100
AcDbEntity
  8
0
  6
ByBlock
 62
     0
 48
50.0
100
AcDbLine
 10
3496.0
 20
8029.0
 30
0.0
 11
3496.0
 21
9017.667619817155
 31
0.0
  0
LINE
  5
1E192
330
1E18E
100
AcDbEntity
  8
0
  6
ByBlock
 62
     0
 48
50.0
100
AcDbLine
 10
3496.0
 20
8942.667619817155
 30
0.0
 11
3438.740228660987
 21
8942.667619817155
 31
0.0
  0
LINE
  5
1E193
330
1E18E
100
AcDbEntity
  8
0
  6
ByBlock
 62
     0
 48
50.0
100
AcDbLine
 10
3438.740228660987
 20
8942.667619817155
 30
0.0
 11
3198.30367565484
 21
8942.667619817155
 31
0.0
  0
INSERT
  5
1E194
330
1E18E
100
AcDbEntity
  8
0
  6
ByBlock
 62
     0
 48
50.0
100
AcDbBlockReference
  2
_DOTSMALL
 10
3496.0
 20
8942.667619817155
 30
0.0
 41
125.0
 42
125.0
 43
125.0
  0
INSERT
  5
1E195
330
1E18E
100
AcDbEntity
  8
0
  6
ByBlock
 62
     0
 48
50.0
100
AcDbBlockReference
  2
_DOTSMALL
 10
3438.740228660987
 20
8942.667619817155
 30
0.0
 41
125.0
 42
125.0
 43
125.0
 50
180.0
  0
MTEXT
  5
1E196
330
1E18E
100
AcDbEntity
  8
0
  6
ByBlock
 62
     7
 48
50.0
100
AcDbMText
 10
3256.021952157913
 20
9042.667619817155
 30
0.0
 40
150.0
 41
0.0
 71
     5
 72
     1
  1
\A1;a
  7
STYLE1
 73
     1
 44
1.0
1001
ACAD
1000
MTEXTBEGIN
1070
    73
1070
     1
1070
    44
1040
1.0
1070
    74
1070
     0
1000
MTEXTEND
  0
POINT
  5
1E197
330
1E18E
100
AcDbEntity
  8
DEFPOINTS
  6
ByBlock
 62
     0
 48
50.0
100
AcDbPoint
 10
3438.740228660987
 20
8730.206924300313
 30
0.0
  0
POINT
  5
1E198
330
1E18E
100
AcDbEntity
  8
DEFPOINTS
  6
ByBlock
 62
     0
 48
50.0
100
AcDbPoint
 10
3496.0
 20
8004.0
 30
0.0
  0
POINT
  5
1E199
330
1E18E
100
AcDbEntity
  8
DEFPOINTS
  6
ByBlock
 62
     0
 48
50.0
100
AcDbPoint
 10
3496.0
 20
8942.667619817155
 30
0.0
  0
ENDBLK
  5
1E19A
330
1E18E
100
AcDbEntity
  8
0
 48
50.0
100
AcDbBlockEnd
  0
BLOCK
  5
1E19C
330
1E19B
100
AcDbEntity
  8
0
 48
50.0
100
AcDbBlockBegin
  2
*D8
 70
     1
 10
0.0
 20
0.0
 30
0.0
  3
*D8
  1

  0
LINE
  5
1E19D
330
1E19B
100
AcDbEntity
  8
0
  6
ByBlock
 62
     0
 48
50.0
100
AcDbLine
 10
3619.0
 20
7956.0
 30
0.0
 11
3619.0
 21
8805.206924300318
 31
0.0
  0
LINE
  5
1E19E
330
1E19B
100
AcDbEntity
  8
0
  6
ByBlock
 62
     0
 48
50.0
100
AcDbLine
 10
3496.0
 20
8029.0
 30
0.0
 11
3496.0
 21
8805.206924300318
 31
0.0
  0
LINE
  5
1E19F
330
1E19B
100
AcDbEntity
  8
0
  6
ByBlock
 62
     0
 48
50.0
100
AcDbLine
 10
3619.0
 20
8730.206924300317
 30
0.0
 11
3496.0
 21
8730.206924300317
 31
0.0
  0
LINE
  5
1E1A0
330
1E19B
100
AcDbEntity
  8
0
  6
ByBlock
 62
     0
 48
50.0
100
AcDbLine
 10
3496.0
 20
8730.206924300317
 30
0.0
 11
3067.527025225391
 21
8730.206924300317
 31
0.0
  0
INSERT
  5
1E1A1
330
1E19B
100
AcDbEntity
  8
0
  6
ByBlock
 62
     0
 48
50.0
100
AcDbBlockReference
  2
_DOTSMALL
 10
3619.0
 20
8730.206924300317
 30
0.0
 41
125.0
 42
125.0
 43
125.0
  0
INSERT
  5
1E1A2
330
1E19B
100
AcDbEntity
  8
0
  6
ByBlock
 62
     0
 48
50.0
100
AcDbBlockReference
  2
_DOTSMALL
 10
3496.0
 20
8730.206924300317
 30
0.0
 41
125.0
 42
125.0
 43
125.0
 50
180.0
  0
MTEXT
  5
1E1A3
330
1E19B
100
AcDbEntity
  8
0
  6
ByBlock
 62
     7
 48
50.0
100
AcDbMText
 10
3215.633626943189
 20
8830.221688079843
 30
0.0
 40
150.0
 41
0.0
 71
     5
 72
     1
  1
\A1;123
  7
STYLE1
 73
     1
 44
1.0
1001
ACAD
1000
MTEXTBEGIN
1070
    73
1070
     1
1070
    44
1040
1.0
1070
    74
1070
     0
1000
MTEXTEND
  0
POINT
  5
1E1A4
330
1E19B
100
AcDbEntity
  8
DEFPOINTS
  6
ByBlock
 62
     0
 48
50.0
100
AcDbPoint
 10
3619.0
 20
7931.0
 30
0.0
  0
POINT
  5
1E1A5
330
1E19B
100
AcDbEntity
  8
DEFPOINTS
  6
ByBlock
 62
     0
 48
50.0
100
AcDbPoint
 10
3496.0
 20
8004.0
 30
0.0
  0
POINT
  5
1E1A6
330
1E19B
100
AcDbEntity
  8
DEFPOINTS
  6
ByBlock
 62
     0
 48
50.0
100
AcDbPoint
 10
3496.0
 20
8730.206924300317
 30
0.0
  0
ENDBLK
  5
1E1A7
330
1E19B
100
AcDbEntity
  8
0
 48
50.0
100
AcDbBlockEnd
  0
BLOCK
  5
1E1A9
330
1E1A8
100
AcDbEntity
  8
0
 48
50.0
100
AcDbBlockBegin
  2
*D9
 70
     1
 10
0.0
 20
0.0
 30
0.0
  3
*D9
  1

  0
LINE
  5
1E1AA
330
1E1A8
100
AcDbEntity
  8
0
  6
ByBlock
 62
     0
 48
50.0
100
AcDbLine
 10
3544.0
 20
3881.0
 30
0.0
 11
2925.057733986178
 21
3881.0
 31
0.0
  0
LINE
  5
1E1AB
330
1E1A8
100
AcDbEntity
  8
0
  6
ByBlock
 62
     0
 48
50.0
100
AcDbLine
 10
3544.000000000006
 20
2402.000000000002
 30
0.0
 11
2925.057733986177
 21
2402.000000000002
 31
0.0
  0
LINE
  5
1E1AC
330
1E1A8
100
AcDbEntity
  8
0
  6
ByBlock
 62
     0
 48
50.0
100
AcDbLine
 10
3000.057733986178
 20
3881.0
 30
0.0
 11
3000.057733986178
 21
2402.000000000002
 31
0.0
  0
INSERT
  5
1E1AD
330
1E1A8
100
AcDbEntity
  8
0
  6
ByBlock
 62
     0
 48
50.0
100
AcDbBlockReference
  2
_DOTSMALL
 10
3000.057733986178
 20
3881.0
 30
0.0
 41
125.0
 42
125.0
 43
125.0
 50
90.0
  0
INSERT
  5
1E1AE
330
1E1A8
100
AcDbEntity
  8
0
  6
ByBlock
 62
     0
 48
50.0
100
AcDbBlockReference
  2
_DOTSMALL
 10
3000.057733986178
 20
2402.000000000002
 30
0.0
 41
125.0
 42
125.0
 43
125.0
 50
270.0
  0
MTEXT
  5
1E1AF
330
1E1A8
100
AcDbEntity
  8
0
  6
ByBlock
 62
     7
 48
50.0
100
AcDbMText
 10
2900.057733986177
 20
3104.0
 30
0.0
 40
150.0
 41
0.0
 71
     5
 72
     1
  1
\A1;1479
  7
STYLE1
 11
0.0000000000000001
 21
1.0
 31
0.0
 73
     1
 44
1.0
1001
ACAD
1000
MTEXTBEGIN
1070
    73
1070
     1
1070
    44
1040
1.0
1070
    74
1070
     0
1000
MTEXTEND
  0
POINT
  5
1E1B0
330
1E1A8
100
AcDbEntity
  8
DEFPOINTS
  6
ByBlock
 62
     0
 48
50.0
100
AcDbPoint
 10
3569.0
 20
3881.0
 30
0.0
  0
POINT
  5
1E1B1
330
1E1A8
100
AcDbEntity
  8
DEFPOINTS
  6
ByBlock
 62
     0
 48
50.0
100
AcDbPoint
 10
3569.000000000006
 20
2402.000000000002
 30
0.0
  0
POINT
  5
1E1B2
330
1E1A8
100
AcDbEntity
  8
DEFPOINTS
  6
ByBlock
 62
     0
 48
50.0
100
AcDbPoint
 10
3000.057733986178
 20
2402.000000000002
 30
0.0
  0
ENDBLK
  5
1E1B3
330
1E1A8
100
AcDbEntity
  8
0
 48
50.0
100
AcDbBlockEnd
  0
BLOCK
  5
1E1B5
330
1E1B4
100
AcDbEntity
  8
0
 48
50.0
100
AcDbBlockBegin
  2
*D10
 70
     1
 10
0.0
 20
0.0
 30
0.0
  3
*D10
  1

  0
LINE
  5
1E1B6
330
1E1B4
100
AcDbEntity
  8
0
  6
ByBlock
 62
     0
 48
50.0
100
AcDbLine
 10
3471.0
 20
8004.0
 30
0.0
 11
2925.057733986177
 21
8004.0
 31
0.0
  0
LINE
  5
1E1B7
330
1E1B4
100
AcDbEntity
  8
0
  6
ByBlock
 62
     0
 48
50.0
100
AcDbLine
 10
3544.0
 20
7881.0
 30
0.0
 11
2925.057733986177
 21
7881.0
 31
0.0
  0
LINE
  5
1E1B8
330
1E1B4
100
AcDbEntity
  8
0
  6
ByBlock
 62
     0
 48
50.0
100
AcDbLine
 10
3000.057733986178
 20
7881.0
 30
0.0
 11
3000.057733986178
 21
8004.0
 31
0.0
  0
LINE
  5
1E1B9
330
1E1B4
100
AcDbEntity
  8
0
  6
ByBlock
 62
     0
 48
50.0
100
AcDbLine
 10
3000.057733986178
 20
8004.0
 30
0.0
 11
3000.057733986178
 21
8425.213203435596
 31
0.0
  0
INSERT
  5
1E1BA
330
1E1B4
100
AcDbEntity
  8
0
  6
ByBlock
 62
     0
 48
50.0
100
AcDbBlockReference
  2
_DOTSMALL
 10
3000.057733986178
 20
7881.0
 30
0.0
 41
125.0
 42
125.0
 43
125.0
 50
270.0
  0
INSERT
  5
1E1BB
330
1E1B4
100
AcDbEntity
  8
0
  6
ByBlock
 62
     0
 48
50.0
100
AcDbBlockReference
  2
_DOTSMALL
 10
3000.057733986178
 20
8004.0
 30
0.0
 41
125.0
 42
125.0
 43
125.0
 50
90.0
  0
MTEXT
  5
1E1BC
330
1E1B4
100
AcDbEntity
  8
0
  6
ByBlock
 62
     7
 48
50.0
100
AcDbMText
 10
2900.04297020665
 20
8277.106601717798
 30
0.0
 40
150.0
 41
0.0
 71
     5
 72
     1
  1
\A1;123
  7
STYLE1
 11
0.0000000000000001
 21
1.0
 31
0.0
 73
     1
 44
1.0
1001
ACAD
1000
MTEXTBEGIN
1070
    73
1070
     1
1070
    44
1040
1.0
1070
    74
1070
     0
1000
MTEXTEND
  0
POINT
  5
1E1BD
330
1E1B4
100
AcDbEntity
  8
DEFPOINTS
  6
ByBlock
 62
     0
 48
50.0
100
AcDbPoint
 10
3496.0
 20
8004.0
 30
0.0
  0
POINT
  5
1E1BE
330
1E1B4
100
AcDbEntity
  8
DEFPOINTS
  6
ByBlock
 62
     0
 48
50.0
100
AcDbPoint
 10
3569.0
 20
7881.0
 30
0.0
  0
POINT
  5
1E1BF
330
1E1B4
100
AcDbEntity
  8
DEFPOINTS
  6
ByBlock
 62
     0
 48
50.0
100
AcDbPoint
 10
3000.057733986178
 20
7881.0
 30
0.0
  0
ENDBLK
  5
1E1C0
330
1E1B4
100
AcDbEntity
  8
0
 48
50.0
100
AcDbBlockEnd
  0
BLOCK
  5
1E1C2
330
1E1C1
100
AcDbEntity
  8
0
 48
50.0
100
AcDbBlockBegin
  2
*D11
 70
     1
 10
0.0
 20
0.0
 30
0.0
  3
*D11
  1

  0
LINE
  5
1E1C3
330
1E1C1
100
AcDbEntity
  8
0
  6
ByBlock
 62
     0
 48
50.0
100
AcDbLine
 10
3471.0
 20
6624.0
 30
0.0
 11
2679.56493184821
 21
6624.0
 31
0.0
  0
LINE
  5
1E1C4
330
1E1C1
100
AcDbEntity
  8
0
  6
ByBlock
 62
     0
 48
50.0
100
AcDbLine
 10
2975.057733986178
 20
6494.0
 30
0.0
 11
2679.56493184821
 21
6494.0
 31
0.0
  0
LINE
  5
1E1C5
330
1E1C1
100
AcDbEntity
  8
0
  6
ByBlock
 62
     0
 48
50.0
100
AcDbLine
 10
2754.56493184821
 20
6624.0
 30
0.0
 11
2754.56493184821
 21
6494.0
 31
0.0
  0
INSERT
  5
1E1C6
330
1E1C1
100
AcDbEntity
  8
0
  6
ByBlock
 62
     0
 48
50.0
100
AcDbBlockReference
  2
_DOTSMALL
 10
2754.56493184821
 20
6624.0
 30
0.0
 41
125.0
 42
125.0
 43
125.0
 50
90.0
  0
INSERT
  5
1E1C7
330
1E1C1
100
AcDbEntity
  8
0
  6
ByBlock
 62
     0
 48
50.0
100
AcDbBlockReference
  2
_DOTSMALL
 10
2754.56493184821
 20
6494.0
 30
0.0
 41
125.0
 42
125.0
 43
125.0
 50
270.0
  0
MTEXT
  5
1E1C8
330
1E1C1
100
AcDbEntity
  8
0
  6
ByBlock
 62
     7
 48
50.0
100
AcDbMText
 10
2654.56493184821
 20
6559.0
 30
0.0
 40
150.0
 41
0.0
 71
     5
 72
     1
  1
\A1;b
  7
STYLE1
 11
0.0000000000000001
 21
1.0
 31
0.0
 73
     1
 44
1.0
1001
ACAD
1000
MTEXTBEGIN
1070
    73
1070
     1
1070
    44
1040
1.0
1070
    74
1070
     0
1000
MTEXTEND
  0
POINT
  5
1E1C9
330
1E1C1
100
AcDbEntity
  8
DEFPOINTS
  6
ByBlock
 62
     0
 48
50.0
100
AcDbPoint
 10
3496.0
 20
6624.0
 30
0.0
  0
POINT
  5
1E1CA
330
1E1C1
100
AcDbEntity
  8
DEFPOINTS
  6
ByBlock
 62
     0
 48
50.0
100
AcDbPoint
 10
3000.057733986178
 20
6494.0
 30
0.0
  0
POINT
  5
1E1CB
330
1E1C1
100
AcDbEntity
  8
DEFPOINTS
  6
ByBlock
 62
     0
 48
50.0
100
AcDbPoint
 10
2754.56493184821
 20
6494.0
 30
0.0
  0
ENDBLK
  5
1E1CC
330
1E1C1
100
AcDbEntity
  8
0
 48
50.0
100
AcDbBlockEnd
  0
BLOCK
  5
1E1CE
330
1E1CD
100
AcDbEntity
  8
0
 48
50.0
100
AcDbBlockBegin
  2
*D12
 70
     1
 10
0.0
 20
0.0
 30
0.0
  3
*D12
  1

  0
LINE
  5
1E1CF
330
1E1CD
100
AcDbEntity
  8
0
  6
ByBlock
 62
     0
 48
50.0
100
AcDbLine
 10
3471.0
 20
2204.0
 30
0.0
 11
2679.56493184821
 21
2204.0
 31
0.0
  0
LINE
  5
1E1D0
330
1E1CD
100
AcDbEntity
  8
0
  6
ByBlock
 62
     0
 48
50.0
100
AcDbLine
 10
2754.564931848211
 20
4004.0
 30
0.0
 11
2754.56493184821
 21
2204.0
 31
0.0
  0
INSERT
  5
1E1D1
330
1E1CD
100
AcDbEntity
  8
0
  6
ByBlock
 62
     0
 48
50.0
100
AcDbBlockReference
  2
_DOTSMALL
 10
2754.564931848211
 20
4004.0
 30
0.0
 41
125.0
 42
125.0
 43
125.0
 50
90.0
  0
INSERT
  5
1E1D2
330
1E1CD
100
AcDbEntity
  8
0
  6
ByBlock
 62
     0
 48
50.0
100
AcDbBlockReference
  2
_DOTSMALL
 10
2754.56493184821
 20
2204.0
 30
0.0
 41
125.0
 42
125.0
 43
125.0
 50
270.0
  0
MTEXT
  5
1E1D3
330
1E1CD
100
AcDbEntity
  8
0
  6
ByBlock
 62
     7
 48
50.0
100
AcDbMText
 10
2654.56493184821
 20
3104.0
 30
0.0
 40
150.0
 41
0.0
 71
     5
 72
     1
  1
\A1;1800
  7
STYLE1
 11
0.0000000000000001
 21
1.0
 31
0.0
 73
     1
 44
1.0
1001
ACAD
1000
MTEXTBEGIN
1070
    73
1070
     1
1070
    44
1040
1.0
1070
    74
1070
     0
1000
MTEXTEND
  0
POINT
  5
1E1D4
330
1E1CD
100
AcDbEntity
  8
DEFPOINTS
  6
ByBlock
 62
     0
 48
50.0
100
AcDbPoint
 10
3496.0
 20
4004.0
 30
0.0
  0
POINT
  5
1E1D5
330
1E1CD
100
AcDbEntity
  8
DEFPOINTS
  6
ByBlock
 62
     0
 48
50.0
100
AcDbPoint
 10
3496.0
 20
2204.0
 30
0.0
  0
POINT
  5
1E1D6
330
1E1CD
100
AcDbEntity
  8
DEFPOINTS
  6
ByBlock
 62
     0
 48
50.0
100
AcDbPoint
 10
2754.56493184821
 20
2204.0
 30
0.0
  0
ENDBLK
  5
1E1D7
330
1E1CD
100
AcDbEntity
  8
0
 48
50.0
100
AcDbBlockEnd
  0
BLOCK
  5
1E1D9
330
1E1D8
100
AcDbEntity
  8
0
 48
50.0
100
AcDbBlockBegin
  2
*D13
 70
     1
 10
0.0
 20
0.0
 30
0.0
  3
*D13
  1

  0
LINE
  5
1E1DA
330
1E1D8
100
AcDbEntity
  8
0
  6
ByBlock
 62
     0
 48
50.0
100
AcDbLine
 10
2975.057733986178
 20
8093.999999999997
 30
0.0
 11
2679.56493184821
 21
8093.999999999997
 31
0.0
  0
LINE
  5
1E1DB
330
1E1D8
100
AcDbEntity
  8
0
  6
ByBlock
 62
     0
 48
50.0
100
AcDbLine
 10
3471.0
 20
8004.0
 30
0.0
 11
2679.56493184821
 21
8004.0
 31
0.0
  0
LINE
  5
1E1DC
330
1E1D8
100
AcDbEntity
  8
0
  6
ByBlock
 62
     0
 48
50.0
100
AcDbLine
 10
2754.56493184821
 20
8093.999999999997
 30
0.0
 11
2754.56493184821
 21
8218.999999999997
 31
0.0
  0
LINE
  5
1E1DD
330
1E1D8
100
AcDbEntity
  8
0
  6
ByBlock
 62
     0
 48
50.0
100
AcDbLine
 10
2754.56493184821
 20
8004.0
 30
0.0
 11
2754.56493184821
 21
7879.0
 31
0.0
  0
LINE
  5
1E1DE
330
1E1D8
100
AcDbEntity
  8
0
  6
ByBlock
 62
     0
 48
50.0
100
AcDbLine
 10
2754.56493184821
 20
8093.999999999997
 30
0.0
 11
2754.56493184821
 21
8004.0
 31
0.0
  0
INSERT
  5
1E1DF
330
1E1D8
100
AcDbEntity
  8
0
  6
ByBlock
 62
     0
 48
50.0
100
AcDbBlockReference
  2
_DOTSMALL
 10
2754.56493184821
 20
8093.999999999997
 30
0.0
 41
125.0
 42
125.0
 43
125.0
 50
270.0
  0
INSERT
  5
1E1E0
330
1E1D8
100
AcDbEntity
  8
0
  6
ByBlock
 62
     0
 48
50.0
100
AcDbBlockReference
  2
_DOTSMALL
 10
2754.56493184821
 20
8004.0
 30
0.0
 41
125.0
 42
125.0
 43
125.0
 50
90.0
  0
MTEXT
  5
1E1E1
330
1E1D8
100
AcDbEntity
  8
0
  6
ByBlock
 62
     7
 48
50.0
100
AcDbMText
 10
2654.56493184821
 20
8048.999999999997
 30
0.0
 40
150.0
 41
0.0
 71
     5
 72
     1
  1
\A1;c
  7
STYLE1
 11
0.0000000000000001
 21
1.0
 31
0.0
 73
     1
 44
1.0
1001
ACAD
1000
MTEXTBEGIN
1070
    73
1070
     1
1070
    44
1040
1.0
1070
    74
1070
     0
1000
MTEXTEND
  0
POINT
  5
1E1E2
330
1E1D8
100
AcDbEntity
  8
DEFPOINTS
  6
ByBlock
 62
     0
 48
50.0
100
AcDbPoint
 10
3000.057733986178
 20
8093.999999999997
 30
0.0
  0
POINT
  5
1E1E3
330
1E1D8
100
AcDbEntity
  8
DEFPOINTS
  6
ByBlock
 62
     0
 48
50.0
100
AcDbPoint
 10
3496.0
 20
8004.0
 30
0.0
  0
POINT
  5
1E1E4
330
1E1D8
100
AcDbEntity
  8
DEFPOINTS
  6
ByBlock
 62
     0
 48
50.0
100
AcDbPoint
 10
2754.56493184821
 20
8004.0
 30
0.0
  0
ENDBLK
  5
1E1E5
330
1E1D8
100
AcDbEntity
  8
0
 48
50.0
100
AcDbBlockEnd
  0
BLOCK
  5
1E1E7
330
1E1E6
100
AcDbEntity
  8
0
 48
50.0
100
AcDbBlockBegin
  2
*D14
 70
     1
 10
0.0
 20
0.0
 30
0.0
  3
*D14
  1

  0
LINE
  5
1E1E8
330
1E1E6
100
AcDbEntity
  8
0
  6
ByBlock
 62
     0
 48
50.0
100
AcDbLine
 10
5296.0
 20
8029.0
 30
0.0
 11
5296.0
 21
9017.667619817155
 31
0.0
  0
LINE
  5
1E1E9
330
1E1E6
100
AcDbEntity
  8
0
  6
ByBlock
 62
     0
 48
50.0
100
AcDbLine
 10
5338.740228660987
 20
8755.206924300319
 30
0.0
 11
5338.740228660987
 21
9017.667619817155
 31
0.0
  0
LINE
  5
1E1EA
330
1E1E6
100
AcDbEntity
  8
0
  6
ByBlock
 62
     0
 48
50.0
100
AcDbLine
 10
5296.0
 20
8942.667619817155
 30
0.0
 11
5171.0
 21
8942.667619817155
 31
0.0
  0
LINE
  5
1E1EB
330
1E1E6
100
AcDbEntity
  8
0
  6
ByBlock
 62
     0
 48
50.0
100
AcDbLine
 10
5338.740228660987
 20
8942.667619817155
 30
0.0
 11
5704.176781667134
 21
8942.667619817155
 31
0.0
  0
LINE
  5
1E1EC
330
1E1E6
100
AcDbEntity
  8
0
  6
ByBlock
 62
     0
 48
50.0
100
AcDbLine
 10
5296.0
 20
8942.667619817155
 30
0.0
 11
5338.740228660987
 21
8942.667619817155
 31
0.0
  0
INSERT
  5
1E1ED
330
1E1E6
100
AcDbEntity
  8
0
  6
ByBlock
 62
     0
 48
50.0
100
AcDbBlockReference
  2
_DOTSMALL
 10
5296.0
 20
8942.667619817155
 30
0.0
 41
125.0
 42
125.0
 43
125.0
  0
INSERT
  5
1E1EE
330
1E1E6
100
AcDbEntity
  8
0
  6
ByBlock
 62
     0
 48
50.0
100
AcDbBlockReference
  2
_DOTSMALL
 10
5338.740228660987
 20
8942.667619817155
 30
0.0
 41
125.0
 42
125.0
 43
125.0
 50
180.0
  0
MTEXT
  5
1E1EF
330
1E1E6
100
AcDbEntity
  8
0
  6
ByBlock
 62
     7
 48
50.0
100
AcDbMText
 10
5646.45850516406
 20
9042.667619817155
 30
0.0
 40
150.0
 41
0.0
 71
     5
 72
     1
  1
\A1;a
  7
STYLE1
 73
     1
 44
1.0
1001
ACAD
1000
MTEXTBEGIN
1070
    73
1070
     1
1070
    44
1040
1.0
1070
    74
1070
     0
1000
MTEXTEND
  0
POINT
  5
1E1F0
330
1E1E6
100
AcDbEntity
  8
DEFPOINTS
  6
ByBlock
 62
     0
 48
50.0
100
AcDbPoint
 10
5296.0
 20
8004.0
 30
0.0
  0
POINT
  5
1E1F1
330
1E1E6
100
AcDbEntity
  8
DEFPOINTS
  6
ByBlock
 62
     0
 48
50.0
100
AcDbPoint
 10
5338.740228660987
 20
8730.206924300318
 30
0.0
  0
POINT
  5
1E1F2
330
1E1E6
100
AcDbEntity
  8
DEFPOINTS
  6
ByBlock
 62
     0
 48
50.0
100
AcDbPoint
 10
5338.740228660987
 20
8942.667619817155
 30
0.0
  0
ENDBLK
  5
1E1F3
330
1E1E6
100
AcDbEntity
  8
0
 48
50.0
100
AcDbBlockEnd
  0
BLOCK
  5
1E1F5
330
1E1F4
100
AcDbEntity
  8
0
 48
50.0
100
AcDbBlockBegin
  2
*D15
 70
     1
 10
0.0
 20
0.0
 30
0.0
  3
*D15
  1

  0
LINE
  5
1E1F6
330
1E1F4
100
AcDbEntity
  8
0
  6
ByBlock
 62
     0
 48
50.0
100
AcDbLine
 10
5296.0
 20
8029.0
 30
0.0
 11
5296.0
 21
8805.206924300318
 31
0.0
  0
LINE
  5
1E1F7
330
1E1F4
100
AcDbEntity
  8
0
  6
ByBlock
 62
     0
 48
50.0
100
AcDbLine
 10
5173.0
 20
7956.0
 30
0.0
 11
5173.0
 21
8805.206924300318
 31
0.0
  0
LINE
  5
1E1F8
330
1E1F4
100
AcDbEntity
  8
0
  6
ByBlock
 62
     0
 48
50.0
100
AcDbLine
 10
5173.0
 20
8730.206924300317
 30
0.0
 11
5296.0
 21
8730.206924300317
 31
0.0
  0
LINE
  5
1E1F9
330
1E1F4
100
AcDbEntity
  8
0
  6
ByBlock
 62
     0
 48
50.0
100
AcDbLine
 10
5296.0
 20
8730.206924300317
 30
0.0
 11
5717.213203435597
 21
8730.206924300317
 31
0.0
  0
INSERT
  5
1E1FA
330
1E1F4
100
AcDbEntity
  8
0
  6
ByBlock
 62
     0
 48
50.0
100
AcDbBlockReference
  2
_DOTSMALL
 10
5173.0
 20
8730.206924300317
 30
0.0
 41
125.0
 42
125.0
 43
125.0
 50
180.0
  0
INSERT
  5
1E1FB
330
1E1F4
100
AcDbEntity
  8
0
  6
ByBlock
 62
     0
 48
50.0
100
AcDbBlockReference
  2
_DOTSMALL
 10
5296.0
 20
8730.206924300317
 30
0.0
 41
125.0
 42
125.0
 43
125.0
  0
MTEXT
  5
1E1FC
330
1E1F4
100
AcDbEntity
  8
0
  6
ByBlock
 62
     7
 48
50.0
100
AcDbMText
 10
5569.106601717798
 20
8830.221688079843
 30
0.0
 40
150.0
 41
0.0
 71
     5
 72
     1
  1
\A1;123
  7
STYLE1
 73
     1
 44
1.0
1001
ACAD
1000
MTEXTBEGIN
1070
    73
1070
     1
1070
    44
1040
1.0
1070
    74
1070
     0
1000
MTEXTEND
  0
POINT
  5
1E1FD
330
1E1F4
100
AcDbEntity
  8
DEFPOINTS
  6
ByBlock
 62
     0
 48
50.0
100
AcDbPoint
 10
5296.0
 20
8004.0
 30
0.0
  0
POINT
  5
1E1FE
330
1E1F4
100
AcDbEntity
  8
DEFPOINTS
  6
ByBlock
 62
     0
 48
50.0
100
AcDbPoint
 10
5173.0
 20
7931.0
 30
0.0
  0
POINT
  5
1E1FF
330
1E1F4
100
AcDbEntity
  8
DEFPOINTS
  6
ByBlock
 62
     0
 48
50.0
100
AcDbPoint
 10
5173.0
 20
8730.206924300317
 30
0.0
  0
ENDBLK
  5
1E200
330
1E1F4
100
AcDbEntity
  8
0
 48
50.0
100
AcDbBlockEnd
  0
BLOCK
  5
1E202
330
1E201
100
AcDbEntity
  8
0
 48
50.0
100
AcDbBlockBegin
  2
*D16
 70
     1
 10
0.0
 20
0.0
 30
0.0
  3
*D16
  1

  0
LINE
  5
1E203
330
1E201
100
AcDbEntity
  8
0
  6
ByBlock
 62
     0
 48
50.0
100
AcDbLine
 10
4765.91864628953
 20
8004.0
 30
0.0
 11
5028.847448568776
 21
8004.0
 31
0.0
  0
LINE
  5
1E204
330
1E201
100
AcDbEntity
  8
0
  6
ByBlock
 62
     0
 48
50.0
100
AcDbLine
 10
4765.91864628953
 20
7903.999999999998
 30
0.0
 11
5028.847448568776
 21
7903.999999999998
 31
0.0
  0
LINE
  5
1E205
330
1E201
100
AcDbEntity
  8
0
  6
ByBlock
 62
     0
 48
50.0
100
AcDbLine
 10
4953.847448568776
 20
7903.999999999998
 30
0.0
 11
4953.847448568776
 21
8004.0
 31
0.0
  0
LINE
  5
1E206
330
1E201
100
AcDbEntity
  8
0
  6
ByBlock
 62
     0
 48
50.0
100
AcDbLine
 10
4953.847448568776
 20
8004.0
 30
0.0
 11
4953.847448568776
 21
8419.118110236221
 31
0.0
  0
INSERT
  5
1E207
330
1E201
100
AcDbEntity
  8
0
  6
ByBlock
 62
     0
 48
50.0
100
AcDbBlockReference
  2
_DOTSMALL
 10
4953.847448568776
 20
7903.999999999998
 30
0.0
 41
125.0
 42
125.0
 43
125.0
 50
270.0
  0
INSERT
  5
1E208
330
1E201
100
AcDbEntity
  8
0
  6
ByBlock
 62
     0
 48
50.0
100
AcDbBlockReference
  2
_DOTSMALL
 10
4953.847448568776
 20
8004.0
 30
0.0
 41
125.0
 42
125.0
 43
125.0
 50
90.0
  0
MTEXT
  5
1E209
330
1E201
100
AcDbEntity
  8
0
  6
ByBlock
 62
     7
 48
50.0
100
AcDbMText
 10
4853.847448568776
 20
8274.05905511811
 30
0.0
 40
150.0
 41
0.0
 71
     5
 72
     1
  1
\A1;100
  7
STYLE1
 11
0.0000000000000001
 21
1.0
 31
0.0
 73
     1
 44
1.0
1001
ACAD
1000
MTEXTBEGIN
1070
    73
1070
     1
1070
    44
1040
1.0
1070
    74
1070
     0
1000
MTEXTEND
  0
POINT
  5
1E20A
330
1E201
100
AcDbEntity
  8
DEFPOINTS
  6
ByBlock
 62
     0
 48
50.0
100
AcDbPoint
 10
4740.91864628953
 20
8004.0
 30
0.0
  0
POINT
  5
1E20B
330
1E201
100
AcDbEntity
  8
DEFPOINTS
  6
ByBlock
 62
     0
 48
50.0
100
AcDbPoint
 10
4740.91864628953
 20
7903.999999999998
 30
0.0
  0
POINT
  5
1E20C
330
1E201
100
AcDbEntity
  8
DEFPOINTS
  6
ByBlock
 62
     0
 48
50.0
100
AcDbPoint
 10
4953.847448568776
 20
7903.999999999998
 30
0.0
  0
ENDBLK
  5
1E20D
330
1E201
100
AcDbEntity
  8
0
 48
50.0
100
AcDbBlockEnd
  0
BLOCK
  5
1E20F
330
1E20E
100
AcDbEntity
  8
0
 48
50.0
100
AcDbBlockBegin
  2
*D17
 70
     1
 10
0.0
 20
0.0
 30
0.0
  3
*D17
  1

  0
LINE
  5
1E210
330
1E20E
100
AcDbEntity
  8
0
  6
ByBlock
 62
     0
 48
50.0
100
AcDbLine
 10
3796.000000000001
 20
2529.000000000007
 30
0.0
 11
3796.000000000001
 21
2931.6104948313
 31
0.0
  0
LINE
  5
1E211
330
1E20E
100
AcDbEntity
  8
0
  6
ByBlock
 62
     0
 48
50.0
100
AcDbLine
 10
3595.999999999998
 20
2529.000000000004
 30
0.0
 11
3595.999999999998
 21
2931.6104948313
 31
0.0
  0
LINE
  5
1E212
330
1E20E
100
AcDbEntity
  8
0
  6
ByBlock
 62
     0
 48
50.0
100
AcDbLine
 10
3796.000000000001
 20
2856.610494831301
 30
0.0
 11
3595.999999999998
 21
2856.610494831301
 31
0.0
  0
LINE
  5
1E213
330
1E20E
100
AcDbEntity
  8
0
  6
ByBlock
 62
     0
 48
50.0
100
AcDbLine
 10
3595.999999999998
 20
2856.610494831301
 30
0.0
 11
3122.996254565651
 21
2856.610494831301
 31
0.0
  0
INSERT
  5
1E214
330
1E20E
100
AcDbEntity
  8
0
  6
ByBlock
 62
     0
 48
50.0
100
AcDbBlockReference
  2
_DOTSMALL
 10
3796.000000000001
 20
2856.610494831301
 30
0.0
 41
125.0
 42
125.0
 43
125.0
  0
INSERT
  5
1E215
330
1E20E
100
AcDbEntity
  8
0
  6
ByBlock
 62
     0
 48
50.0
100
AcDbBlockReference
  2
_DOTSMALL
 10
3595.999999999998
 20
2856.610494831301
 30
0.0
 41
125.0
 42
125.0
 43
125.0
 50
180.0
  0
MTEXT
  5
1E216
330
1E20E
100
AcDbEntity
  8
0
  6
ByBlock
 62
     7
 48
50.0
100
AcDbMText
 10
3284.959837242816
 20
2956.625258610828
 30
0.0
 40
150.0
 41
0.0
 71
     5
 72
     1
  1
\A1;200
  7
STYLE1
 73
     1
 44
1.0
1001
ACAD
1000
MTEXTBEGIN
1070
    73
1070
     1
1070
    44
1040
1.0
1070
    74
1070
     0
1000
MTEXTEND
  0
POINT
  5
1E217
330
1E20E
100
AcDbEntity
  8
DEFPOINTS
  6
ByBlock
 62
     0
 48
50.0
100
AcDbPoint
 10
3796.000000000001
 20
2504.000000000007
 30
0.0
  0
POINT
  5
1E218
330
1E20E
100
AcDbEntity
  8
DEFPOINTS
  6
ByBlock
 62
     0
 48
50.0
100
AcDbPoint
 10
3595.999999999998
 20
2504.000000000004
 30
0.0
  0
POINT
  5
1E219
330
1E20E
100
AcDbEntity
  8
DEFPOINTS
  6
ByBlock
 62
     0
 48
50.0
100
AcDbPoint
 10
3595.999999999998
 20
2856.610494831301
 30
0.0
  0
ENDBLK
  5
1E21A
330
1E20E
100
AcDbEntity
  8
0
 48
50.0
100
AcDbBlockEnd
  0
BLOCK
  5
1E21C
330
1E21B
100
AcDbEntity
  8
0
 48
50.0
100
AcDbBlockBegin
  2
*D18
 70
     1
 10
0.0
 20
0.0
 30
0.0
  3
*D18
  1

  0
LINE
  5
1E21D
330
1E21B
100
AcDbEntity
  8
0
  6
ByBlock
 62
     0
 48
50.0
100
AcDbLine
 10
4421.0
 20
2204.000000000009
 30
0.0
 11
4870.266817430558
 21
2204.000000000009
 31
0.0
  0
LINE
  5
1E21E
330
1E21B
100
AcDbEntity
  8
0
  6
ByBlock
 62
     0
 48
50.0
100
AcDbLine
 10
4471.0
 20
3104.0
 30
0.0
 11
4870.266817430558
 21
3104.0
 31
0.0
  0
LINE
  5
1E21F
330
1E21B
100
AcDbEntity
  8
0
  6
ByBlock
 62
     0
 48
50.0
100
AcDbLine
 10
4795.266817430558
 20
2204.000000000009
 30
0.0
 11
4795.266817430558
 21
3104.0
 31
0.0
  0
INSERT
  5
1E220
330
1E21B
100
AcDbEntity
  8
0
  6
ByBlock
 62
     0
 48
50.0
100
AcDbBlockReference
  2
_DOTSMALL
 10
4795.266817430558
 20
2204.000000000009
 30
0.0
 41
125.0
 42
125.0
 43
125.0
 50
270.0
  0
INSERT
  5
1E221
330
1E21B
100
AcDbEntity
  8
0
  6
ByBlock
 62
     0
 48
50.0
100
AcDbBlockReference
  2
_DOTSMALL
 10
4795.266817430558
 20
3104.0
 30
0.0
 41
125.0
 42
125.0
 43
125.0
 50
90.0
  0
MTEXT
  5
1E222
330
1E21B
100
AcDbEntity
  8
0
  6
ByBlock
 62
     7
 48
50.0
100
AcDbMText
 10
4695.266817430558
 20
2654.000000000005
 30
0.0
 40
150.0
 41
0.0
 71
     5
 72
     1
  1
\A1;900
  7
STYLE1
 11
0.0000000000000001
 21
1.0
 31
0.0
 73
     1
 44
1.0
1001
ACAD
1000
MTEXTBEGIN
1070
    73
1070
     1
1070
    44
1040
1.0
1070
    74
1070
     0
1000
MTEXTEND
  0
POINT
  5
1E223
330
1E21B
100
AcDbEntity
  8
DEFPOINTS
  6
ByBlock
 62
     0
 48
50.0
100
AcDbPoint
 10
4396.0
 20
2204.000000000009
 30
0.0
  0
POINT
  5
1E224
330
1E21B
100
AcDbEntity
  8
DEFPOINTS
  6
ByBlock
 62
     0
 48
50.0
100
AcDbPoint
 10
4446.0
 20
3104.0
 30
0.0
  0
POINT
  5
1E225
330
1E21B
100
AcDbEntity
  8
DEFPOINTS
  6
ByBlock
 62
     0
 48
50.0
100
AcDbPoint
 10
4795.266817430558
 20
3104.0
 30
0.0
  0
ENDBLK
  5
1E226
330
1E21B
100
AcDbEntity
  8
0
 48
50.0
100
AcDbBlockEnd
  0
BLOCK
  5
1E228
330
1E227
100
AcDbEntity
  8
0
 48
50.0
100
AcDbBlockBegin
  2
*D19
 70
     1
 10
0.0
 20
0.0
 30
0.0
  3
*D19
  1

  0
LINE
  5
1E229
330
1E227
100
AcDbEntity
  8
0
  6
ByBlock
 62
     0
 48
50.0
100
AcDbLine
 10
4421.0
 20
4004.0
 30
0.0
 11
4870.266817430558
 21
4004.0
 31
0.0
  0
LINE
  5
1E22A
330
1E227
100
AcDbEntity
  8
0
  6
ByBlock
 62
     0
 48
50.0
100
AcDbLine
 10
4795.266817430558
 20
3104.0
 30
0.0
 11
4795.266817430558
 21
4004.0
 31
0.0
  0
INSERT
  5
1E22B
330
1E227
100
AcDbEntity
  8
0
  6
ByBlock
 62
     0
 48
50.0
100
AcDbBlockReference
  2
_DOTSMALL
 10
4795.266817430558
 20
3104.0
 30
0.0
 41
125.0
 42
125.0
 43
125.0
 50
270.0
  0
INSERT
  5
1E22C
330
1E227
100
AcDbEntity
  8
0
  6
ByBlock
 62
     0
 48
50.0
100
AcDbBlockReference
  2
_DOTSMALL
 10
4795.266817430558
 20
4004.0
 30
0.0
 41
125.0
 42
125.0
 43
125.0
 50
90.0
  0
MTEXT
  5
1E22D
330
1E227
100
AcDbEntity
  8
0
  6
ByBlock
 62
     7
 48
50.0
100
AcDbMText
 10
4695.266817430558
 20
3554.0
 30
0.0
 40
150.0
 41
0.0
 71
     5
 72
     1
  1
\A1;900
  7
STYLE1
 11
0.0000000000000001
 21
1.0
 31
0.0
 73
     1
 44
1.0
1001
ACAD
1000
MTEXTBEGIN
1070
    73
1070
     1
1070
    44
1040
1.0
1070
    74
1070
     0
1000
MTEXTEND
  0
POINT
  5
1E22E
330
1E227
100
AcDbEntity
  8
DEFPOINTS
  6
ByBlock
 62
     0
 48
50.0
100
AcDbPoint
 10
4446.0
 20
3104.0
 30
0.0
  0
POINT
  5
1E22F
330
1E227
100
AcDbEntity
  8
DEFPOINTS
  6
ByBlock
 62
     0
 48
50.0
100
AcDbPoint
 10
4396.0
 20
4004.0
 30
0.0
  0
POINT
  5
1E230
330
1E227
100
AcDbEntity
  8
DEFPOINTS
  6
ByBlock
 62
     0
 48
50.0
100
AcDbPoint
 10
4795.266817430558
 20
4004.0
 30
0.0
  0
ENDBLK
  5
1E231
330
1E227
100
AcDbEntity
  8
0
 48
50.0
100
AcDbBlockEnd
  0
BLOCK
  5
1E233
330
1E232
100
AcDbEntity
  8
0
 48
50.0
100
AcDbBlockBegin
  2
*D20
 70
     1
 10
0.0
 20
0.0
 30
0.0
  3
*D20
  1

  0
LINE
  5
1E234
330
1E232
100
AcDbEntity
  8
0
  6
ByBlock
 62
     0
 48
50.0
100
AcDbLine
 10
3496.0
 20
4029.0
 30
0.0
 11
3496.0
 21
4605.909765648328
 31
0.0
  0
LINE
  5
1E235
330
1E232
100
AcDbEntity
  8
0
  6
ByBlock
 62
     0
 48
50.0
100
AcDbLine
 10
4396.0
 20
4530.909765648328
 30
0.0
 11
3496.0
 21
4530.909765648328
 31
0.0
  0
INSERT
  5
1E236
330
1E232
100
AcDbEntity
  8
0
  6
ByBlock
 62
     0
 48
50.0
100
AcDbBlockReference
  2
_DOTSMALL
 10
4396.0
 20
4530.909765648328
 30
0.0
 41
125.0
 42
125.0
 43
125.0
  0
INSERT
  5
1E237
330
1E232
100
AcDbEntity
  8
0
  6
ByBlock
 62
     0
 48
50.0
100
AcDbBlockReference
  2
_DOTSMALL
 10
3496.0
 20
4530.909765648328
 30
0.0
 41
125.0
 42
125.0
 43
125.0
 50
180.0
  0
MTEXT
  5
1E238
330
1E232
100
AcDbEntity
  8
0
  6
ByBlock
 62
     7
 48
50.0
100
AcDbMText
 10
3946.0
 20
4630.909765648328
 30
0.0
 40
150.0
 41
0.0
 71
     5
 72
     1
  1
\A1;900
  7
STYLE1
 73
     1
 44
1.0
1001
ACAD
1000
MTEXTBEGIN
1070
    73
1070
     1
1070
    44
1040
1.0
1070
    74
1070
     0
1000
MTEXTEND
  0
POINT
  5
1E239
330
1E232
100
AcDbEntity
  8
DEFPOINTS
  6
ByBlock
 62
     0
 48
50.0
100
AcDbPoint
 10
4396.0
 20
3304.0
 30
0.0
  0
POINT
  5
1E23A
330
1E232
100
AcDbEntity
  8
DEFPOINTS
  6
ByBlock
 62
     0
 48
50.0
100
AcDbPoint
 10
3496.0
 20
4004.0
 30
0.0
  0
POINT
  5
1E23B
330
1E232
100
AcDbEntity
  8
DEFPOINTS
  6
ByBlock
 62
     0
 48
50.0
100
AcDbPoint
 10
3496.0
 20
4530.909765648328
 30
0.0
  0
ENDBLK
  5
1E23C
330
1E232
100
AcDbEntity
  8
0
 48
50.0
100
AcDbBlockEnd
  0
BLOCK
  5
1E23E
330
1E23D
100
AcDbEntity
  8
0
 48
50.0
100
AcDbBlockBegin
  2
*D21
 70
     1
 10
0.0
 20
0.0
 30
0.0
  3
*D21
  1

  0
LINE
  5
1E23F
330
1E23D
100
AcDbEntity
  8
0
  6
ByBlock
 62
     0
 48
50.0
100
AcDbLine
 10
5296.0
 20
4029.0
 30
0.0
 11
5296.0
 21
4605.909765648328
 31
0.0
  0
LINE
  5
1E240
330
1E23D
100
AcDbEntity
  8
0
  6
ByBlock
 62
     0
 48
50.0
100
AcDbLine
 10
4396.0
 20
3329.0
 30
0.0
 11
4396.0
 21
4605.909765648328
 31
0.0
  0
LINE
  5
1E241
330
1E23D
100
AcDbEntity
  8
0
  6
ByBlock
 62
     0
 48
50.0
100
AcDbLine
 10
5296.0
 20
4530.909765648328
 30
0.0
 11
4396.0
 21
4530.909765648328
 31
0.0
  0
INSERT
  5
1E242
330
1E23D
100
AcDbEntity
  8
0
  6
ByBlock
 62
     0
 48
50.0
100
AcDbBlockReference
  2
_DOTSMALL
 10
5296.0
 20
4530.909765648328
 30
0.0
 41
125.0
 42
125.0
 43
125.0
  0
INSERT
  5
1E243
330
1E23D
100
AcDbEntity
  8
0
  6
ByBlock
 62
     0
 48
50.0
100
AcDbBlockReference
  2
_DOTSMALL
 10
4396.0
 20
4530.909765648328
 30
0.0
 41
125.0
 42
125.0
 43
125.0
 50
180.0
  0
MTEXT
  5
1E244
330
1E23D
100
AcDbEntity
  8
0
  6
ByBlock
 62
     7
 48
50.0
100
AcDbMText
 10
4866.91852200628
 20
4630.909765648328
 30
0.0
 40
150.0
 41
0.0
 71
     5
 72
     1
  1
\A1;900
  7
STYLE1
 73
     1
 44
1.0
1001
ACAD
1000
MTEXTBEGIN
1070
    73
1070
     1
1070
    44
1040
1.0
1070
    74
1070
     0
1000
MTEXTEND
  0
POINT
  5
1E245
330
1E23D
100
AcDbEntity
  8
DEFPOINTS
  6
ByBlock
 62
     0
 48
50.0
100
AcDbPoint
 10
5296.0
 20
4004.0
 30
0.0
  0
POINT
  5
1E246
330
1E23D
100
AcDbEntity
  8
DEFPOINTS
  6
ByBlock
 62
     0
 48
50.0
100
AcDbPoint
 10
4396.0
 20
3304.0
 30
0.0
  0
POINT
  5
1E247
330
1E23D
100
AcDbEntity
  8
DEFPOINTS
  6
ByBlock
 62
     0
 48
50.0
100
AcDbPoint
 10
4396.0
 20
4530.909765648328
 30
0.0
  0
ENDBLK
  5
1E248
330
1E23D
100
AcDbEntity
  8
0
 48
50.0
100
AcDbBlockEnd
  0
BLOCK
  5
1E24A
330
1E249
100
AcDbEntity
  8
0
 48
50.0
100
AcDbBlockBegin
  2
*D22
 70
     1
 10
0.0
 20
0.0
 30
0.0
  3
*D22
  1

  0
LINE
  5
1E24B
330
1E249
100
AcDbEntity
  8
0
  6
ByBlock
 62
     0
 48
50.0
100
AcDbLine
 10
5196.0
 20
7079.000000000007
 30
0.0
 11
5196.0
 21
6928.700321064884
 31
0.0
  0
LINE
  5
1E24C
330
1E249
100
AcDbEntity
  8
0
  6
ByBlock
 62
     0
 48
50.0
100
AcDbLine
 10
5296.0
 20
7079.000000000007
 30
0.0
 11
5296.0
 21
6928.700321064884
 31
0.0
  0
LINE
  5
1E24D
330
1E249
100
AcDbEntity
  8
0
  6
ByBlock
 62
     0
 48
50.0
100
AcDbLine
 10
5196.0
 20
7003.700321064883
 30
0.0
 11
5296.0
 21
7003.700321064883
 31
0.0
  0
LINE
  5
1E24E
330
1E249
100
AcDbEntity
  8
0
  6
ByBlock
 62
     0
 48
50.0
100
AcDbLine
 10
5296.0
 20
7003.700321064883
 30
0.0
 11
5711.11811023622
 21
7003.700321064883
 31
0.0
  0
INSERT
  5
1E24F
330
1E249
100
AcDbEntity
  8
0
  6
ByBlock
 62
     0
 48
50.0
100
AcDbBlockReference
  2
_DOTSMALL
 10
5196.0
 20
7003.700321064883
 30
0.0
 41
125.0
 42
125.0
 43
125.0
 50
180.0
  0
INSERT
  5
1E250
330
1E249
100
AcDbEntity
  8
0
  6
ByBlock
 62
     0
 48
50.0
100
AcDbBlockReference
  2
_DOTSMALL
 10
5296.0
 20
7003.700321064883
 30
0.0
 41
125.0
 42
125.0
 43
125.0
  0
MTEXT
  5
1E251
330
1E249
100
AcDbEntity
  8
0
  6
ByBlock
 62
     7
 48
50.0
100
AcDbMText
 10
5566.05905511811
 20
7103.700321064883
 30
0.0
 40
150.0
 41
0.0
 71
     5
 72
     1
  1
\A1;100
  7
STYLE1
 73
     1
 44
1.0
1001
ACAD
1000
MTEXTBEGIN
1070
    73
1070
     1
1070
    44
1040
1.0
1070
    74
1070
     0
1000
MTEXTEND
  0
POINT
  5
1E252
330
1E249
100
AcDbEntity
  8
DEFPOINTS
  6
ByBlock
 62
     0
 48
50.0
100
AcDbPoint
 10
5196.0
 20
7104.000000000008
 30
0.0
  0
POINT
  5
1E253
330
1E249
100
AcDbEntity
  8
DEFPOINTS
  6
ByBlock
 62
     0
 48
50.0
100
AcDbPoint
 10
5296.0
 20
7104.000000000008
 30
0.0
  0
POINT
  5
1E254
330
1E249
100
AcDbEntity
  8
DEFPOINTS
  6
ByBlock
 62
     0
 48
50.0
100
AcDbPoint
 10
5296.0
 20
7003.700321064883
 30
0.0
  0
ENDBLK
  5
1E255
330
1E249
100
AcDbEntity
  8
0
 48
50.0
100
AcDbBlockEnd
  0
BLOCK
  5
1E2A5
330
1E256
100
AcDbEntity
  8
0
 48
50.0
100
AcDbBlockBegin
  2
A$C56A41A26
 70
     0
 10
0.0
 20
0.0
 30
0.0
  3
A$C56A41A26
  1

  0
LINE
  5
1E257
330
1E256
100
AcDbEntity
  8
部品1
 48
50.0
100
AcDbLine
 10
2708.994140400603
 20
2627.271234847374
 30
0.0
 11
908.9941404006022
 21
2627.271234847374
 31
0.0
  0
LINE
  5
1E258
330
1E256
100
AcDbEntity
  8
部品1
 48
50.0
100
AcDbLine
 10
2708.994140400602
 20
2727.271234847376
 30
0.0
 11
908.9941404006022
 21
2727.271234847376
 31
0.0
  0
LINE
  5
1E259
330
1E256
100
AcDbEntity
  8
想像線
 48
10.0
100
AcDbLine
 10
858.9941404005985
 20
2817.271234847376
 30
0.0
 11
2758.994140400606
 21
2817.27123484738
 31
0.0
  0
LINE
  5
1E25A
330
1E256
100
AcDbEntity
  8
想像線
 48
10.0
100
AcDbLine
 10
2758.994140400603
 20
797.2712348473724
 30
0.0
 11
858.9941404006022
 21
797.271234847376
 31
0.0
  0
LINE
  5
1E25B
330
1E256
100
AcDbEntity
  8
部品1
 48
50.0
100
AcDbLine
 10
2708.994140400602
 20
927.2712348473943
 30
0.0
 11
908.9941404006022
 21
927.271234847376
 31
0.0
  0
DIMENSION
  5
1E25C
330
1E256
100
AcDbEntity
  8
寸法
 48
50.0
100
AcDbDimension
  2
*D5
 10
1444.747864477533
 20
927.2712348473778
 30
0.0
 11
1444.747864477533
 21
649.1876915744906
 31
0.0
 12
-2587.005859599398
 22
-5696.728765152624
 32
0.0
 70
   128
 71
     5
 42
-1.0
  3
INABA_S50G
100
AcDbAlignedDimension
 13
1138.994140400603
 23
1027.271234847381
 33
0.0
 14
1138.994140400604
 24
927.2712348473778
 34
0.0
 50
90.0
100
AcDbRotatedDimension
1001
ACAD
1000
DSTYLE
1002
{
1070
   288
1070
     1
1070
    40
1040
1.0
1002
}
  0
LINE
  5
1E25D
330
1E256
100
AcDbEntity
  8
部品1
 48
50.0
100
AcDbLine
 10
2708.994140400603
 20
1027.271234847398
 30
0.0
 11
908.9941404006022
 21
1027.27123484738
 31
0.0
  0
DIMENSION
  5
1E25E
330
1E256
100
AcDbEntity
  8
寸法
 48
50.0
100
AcDbDimension
  2
*D4
 10
1444.747864477533
 20
1227.271234847383
 30
0.0
 11
1444.747864477533
 21
1514.234817524549
 31
0.0
 12
-2587.005859599398
 22
-1276.728765152624
 32
0.0
 70
   128
 71
     5
 42
-1.0
  3
INABA_S50G
100
AcDbAlignedDimension
 13
1138.994140400603
 23
1027.27123484738
 33
0.0
 14
1208.994140400603
 24
1227.271234847383
 34
0.0
 50
90.0
100
AcDbRotatedDimension
1001
ACAD
1000
DSTYLE
1002
{
1070
   288
1070
     1
1070
    40
1040
1.0
1002
}
  0
MTEXT
  5
1E25F
102
{ACAD_REACTORS
330
1E260
102
}
330
1E256
100
AcDbEntity
  8
寸法
 62
     7
 48
50.0
100
AcDbMText
 10
1566.166025099446
 20
2207.190649171135
 30
0.0
 40
150.0
 41
0.0
 71
     6
 72
     1
  1
\A1;C.B
  7
STYLE1
 73
     1
 44
1.0
1001
ACAD
1000
MTEXTBEGIN
1070
    73
1070
     1
1070
    44
1040
1.0
1070
    74
1070
     0
1000
MTEXTEND
  0
LEADER
  5
1E260
330
1E256
100
AcDbEntity
  8
寸法
 48
50.0
100
AcDbLeader
  3
INABA_S50G
 73
     0
 75
     1
 40
150.0
 41
231.9898538650463
 76
     3
 10
1759.920575772113
 20
1978.037610834701
 30
0.0
 10
1716.166025099446
 20
2107.190649171135
 30
0.0
 10
1591.166025099446
 20
2107.190649171135
 30
0.0
340
1E25F
1001
ACAD
1000
DSTYLE
1002
{
1070
    40
1040
1.0
1002
}
  0
DIMENSION
  5
1E261
330
1E256
100
AcDbEntity
  8
寸法
 48
50.0
100
AcDbDimension
  2
*D3
 10
1031.994140400602
 20
3453.478159147693
 30
0.0
 11
1808.994140400602
 21
3553.478159147693
 31
0.0
 12
-2587.005859599398
 22
-5276.728765152624
 32
0.0
 71
     5
 42
-1.0
  3
INABA_S50G
100
AcDbAlignedDimension
 13
2585.994140400603
 23
2654.271234847376
 33
0.0
 14
1031.994140400602
 24
2654.271234847376
 34
0.0
100
AcDbRotatedDimension
1001
ACAD
1000
DSTYLE
1002
{
1070
    40
1040
1.0
1070
    75
1070
     1
1070
   279
1070
     1
1002
}
  0
DIMENSION
  5
1E262
330
1E256
100
AcDbEntity
  8
寸法
 48
50.0
100
AcDbDimension
  2
*D2
 10
2708.994140400602
 20
3665.93885466453
 30
0.0
 11
1808.994140400602
 21
3765.93885466453
 31
0.0
 12
-2587.005859599398
 22
-5276.728765152624
 32
0.0
 71
     5
 42
-1.0
  3
INABA_S50G
100
AcDbAlignedDimension
 13
908.9941404006022
 23
2727.271234847376
 33
0.0
 14
2708.994140400602
 24
2727.271234847376
 34
0.0
100
AcDbRotatedDimension
1001
ACAD
1000
DSTYLE
1002
{
1070
    40
1040
1.0
1070
    75
1070
     1
1070
   279
1070
     1
1002
}
  0
DIMENSION
  5
1E263
330
1E256
100
AcDbEntity
  8
寸法
 48
50.0
100
AcDbDimension
  2
*D20
 10
908.9941404006022
 20
3254.181000495704
 30
0.0
 11
1358.994140400602
 21
3354.181000495704
 31
0.0
 12
-2587.005859599398
 22
-1276.728765152624
 32
0.0
 71
     5
 42
-1.0
  3
INABA_S50G
100
AcDbAlignedDimension
 13
1808.994140400602
 23
2027.271234847376
 33
0.0
 14
908.9941404006022
 24
2727.271234847376
 34
0.0
100
AcDbRotatedDimension
1001
ACAD
1000
DSTYLE
1002
{
1070
    40
1040
1.0
1070
    75
1070
     1
1070
   279
1070
     1
1070
   288
1070
     1
1002
}
  0
DIMENSION
  5
1E264
330
1E256
100
AcDbEntity
  8
寸法
 48
50.0
100
AcDbDimension
  2
*D17
 10
1008.9941404006
 20
1579.881729678676
 30
0.0
 11
697.9539776434176
 21
1579.881729678676
 31
0.0
 12
-2587.005859599398
 22
-1276.728765152624
 32
0.0
 70
   128
 71
     5
 42
-1.0
  3
INABA_S50G
100
AcDbAlignedDimension
 13
1208.994140400603
 23
1227.271234847383
 33
0.0
 14
1008.9941404006
 24
1227.271234847379
 34
0.0
100
AcDbRotatedDimension
1001
ACAD
1000
DSTYLE
1002
{
1070
    40
1040
1.0
1002
}
  0
LINE
  5
1E265
330
1E256
100
AcDbEntity
  8
部品1
 48
50.0
100
AcDbLine
 10
1008.994140400602
 20
1027.27123484738
 30
0.0
 11
1008.994140400602
 21
2627.271234847373
 31
0.0
  0
DIMENSION
  5
1E266
330
1E256
100
AcDbEntity
  8
寸法
 48
50.0
100
AcDbDimension
  2
*D9
 10
413.0518743867797
 20
1125.271234847378
 30
0.0
 11
413.0518743867797
 21
1827.271234847376
 31
0.0
 12
-2587.005859599398
 22
-1276.728765152624
 32
0.0
 70
   128
 71
     5
 42
-1.0
  3
INABA_S50G
100
AcDbAlignedDimension
 13
981.9941404006021
 23
2604.271234847376
 33
0.0
 14
981.9941404006085
 24
1125.271234847378
 34
0.0
 50
90.0
100
AcDbRotatedDimension
1001
ACAD
1000
DSTYLE
1002
{
1070
   288
1070
     1
1070
    40
1040
1.0
1002
}
  0
DIMENSION
  5
1E267
330
1E256
100
AcDbEntity
  8
寸法
 48
50.0
100
AcDbDimension
  2
*D12
 10
167.5590722488123
 20
927.271234847376
 30
0.0
 11
67.5590722488123
 21
1827.271234847376
 31
0.0
 12
-2587.005859599398
 22
-1276.728765152624
 32
0.0
 71
     5
 42
-1.0
  3
INABA_S50G
100
AcDbAlignedDimension
 13
908.9941404006022
 23
2727.271234847376
 33
0.0
 14
908.9941404006022
 24
927.271234847376
 34
0.0
 50
90.0
100
AcDbRotatedDimension
1001
ACAD
1000
DSTYLE
1002
{
1070
    40
1040
1.0
1070
    75
1070
     1
1070
   279
1070
     1
1002
}
  0
LINE
  5
1E268
330
1E256
100
AcDbEntity
  8
想像線
 48
10.0
100
AcDbLine
 10
858.9941404006022
 20
797.271234847376
 30
0.0
 11
858.9941404006022
 21
2817.27123484738
 31
0.0
  0
LINE
  5
1E269
330
1E256
100
AcDbEntity
  8
部品1
 48
50.0
100
AcDbLine
 10
908.9941404006022
 20
927.271234847376
 30
0.0
 11
908.9941404006022
 21
2727.271234847376
 31
0.0
  0
DIMENSION
  5
1E26A
330
1E256
100
AcDbEntity
  8
寸法
 48
50.0
100
AcDbDimension
  2
*D11
 10
167.5590722488123
 20
797.271234847376
 30
0.0
 11
67.5590722488123
 21
1282.271234847376
 31
0.0
 12
-2587.005859599398
 22
-5696.728765152624
 32
0.0
  1
b
 71
     5
 42
-1.0
  3
INABA_S50G
100
AcDbAlignedDimension
 13
908.9941404006022
 23
927.271234847376
 33
0.0
 14
413.0518743867797
 24
797.271234847376
 34
0.0
 50
90.0
100
AcDbRotatedDimension
1001
ACAD
1000
DSTYLE
1002
{
1070
    40
1040
1.0
1002
}
  0
DIMENSION
  5
1E26B
330
1E256
100
AcDbEntity
  8
寸法
 48
50.0
100
AcDbDimension
  2
*D6
 10
413.0518743867797
 20
927.271234847376
 30
0.0
 11
413.0518743867797
 21
591.7402860047841
 31
0.0
 12
-2587.005859599398
 22
-5696.728765152624
 32
0.0
 70
   128
 71
     5
 42
-1.0
  3
INABA_S50G
100
AcDbAlignedDimension
 13
981.9941404006085
 23
1125.271234847378
 33
0.0
 14
908.9941404006022
 24
927.271234847376
 34
0.0
 50
90.0
100
AcDbRotatedDimension
1001
ACAD
1000
DSTYLE
1002
{
1070
    40
1040
1.0
1002
}
  0
LINE
  5
1E26C
330
1E256
100
AcDbEntity
  8
部品1
 48
50.0
100
AcDbLine
 10
1008.994140400602
 20
1427.27123484738
 30
0.0
 11
908.9941404006022
 21
1427.27123484738
 31
0.0
  0
LINE
  5
1E26D
330
1E256
100
AcDbEntity
  8
点線
 48
10.0
100
AcDbLine
 10
1208.994140400603
 20
1027.27123484738
 30
0.0
 11
1208.994140400603
 21
1227.271234847383
 31
0.0
  0
LINE
  5
1E26E
330
1E256
100
AcDbEntity
  8
センター
 48
2.0
100
AcDbLine
 10
981.9941404006085
 20
1125.271234847378
 30
0.0
 11
1081.994140400608
 21
1125.271234847378
 31
0.0
  0
LINE
  5
1E26F
330
1E256
100
AcDbEntity
  8
センター
 48
2.0
100
AcDbLine
 10
1031.994140400608
 20
1175.271234847378
 30
0.0
 11
1031.994140400608
 21
1075.271234847378
 31
0.0
  0
LINE
  5
1E270
330
1E256
100
AcDbEntity
  8
部品1
 48
50.0
100
AcDbLine
 10
1308.994140400602
 20
927.271234847376
 30
0.0
 11
1308.994140400602
 21
1027.271234847383
 31
0.0
  0
LINE
  5
1E271
330
1E256
100
AcDbEntity
  8
点線
 48
10.0
100
AcDbLine
 10
1208.994140400603
 20
1227.271234847383
 30
0.0
 11
1008.9941404006
 21
1227.271234847379
 31
0.0
  0
LINE
  5
1E272
330
1E256
100
AcDbEntity
  8
部品1
 48
50.0
100
AcDbLine
 10
1308.994140400602
 20
2627.271234847374
 30
0.0
 11
1308.994140400602
 21
2727.271234847382
 31
0.0
  0
DIMENSION
  5
1E273
330
1E256
100
AcDbEntity
  8
寸法
 48
50.0
100
AcDbDimension
  2
*D10
 10
413.0518743867797
 20
2604.271234847376
 30
0.0
 11
413.0518743867797
 21
3000.377836565175
 31
0.0
 12
-2587.005859599398
 22
-5276.728765152624
 32
0.0
 70
   128
 71
     5
 42
-1.0
  3
INABA_S50G
100
AcDbAlignedDimension
 13
908.9941404006022
 23
2727.271234847376
 33
0.0
 14
981.9941404006021
 24
2604.271234847376
 34
0.0
 50
90.0
100
AcDbRotatedDimension
1001
ACAD
1000
DSTYLE
1002
{
1070
    40
1040
1.0
1002
}
  0
DIMENSION
  5
1E274
330
1E256
100
AcDbEntity
  8
寸法
 48
50.0
100
AcDbDimension
  2
*D13
 10
167.5590722488123
 20
2727.271234847376
 30
0.0
 11
67.5590722488123
 21
2772.271234847374
 31
0.0
 12
-2587.005859599398
 22
-5276.728765152624
 32
0.0
  1
c
 71
     5
 42
-1.0
  3
INABA_S50G
100
AcDbAlignedDimension
 13
413.0518743867797
 23
2817.271234847373
 33
0.0
 14
908.9941404006022
 24
2727.271234847376
 34
0.0
 50
90.0
100
AcDbRotatedDimension
1001
ACAD
1000
DSTYLE
1002
{
1070
    40
1040
1.0
1002
}
  0
DIMENSION
  5
1E275
330
1E256
100
AcDbEntity
  8
寸法
 48
50.0
100
AcDbDimension
  2
*D8
 10
908.9941404006022
 20
3453.478159147693
 30
0.0
 11
628.6277673437908
 21
3453.478159147693
 31
0.0
 12
-2587.005859599398
 22
-5276.728765152624
 32
0.0
 70
   128
 71
     5
 42
-1.0
  3
INABA_S50G
100
AcDbAlignedDimension
 13
1031.994140400602
 23
2654.271234847376
 33
0.0
 14
908.9941404006022
 24
2727.271234847376
 34
0.0
100
AcDbRotatedDimension
1001
ACAD
1000
DSTYLE
1002
{
1070
    40
1040
1.0
1002
}
  0
LINE
  5
1E276
330
1E256
100
AcDbEntity
  8
部品1
 48
50.0
100
AcDbLine
 10
1008.994140400602
 20
1827.271234847379
 30
0.0
 11
908.9941404006022
 21
1827.271234847379
 31
0.0
  0
LINE
  5
1E277
330
1E256
100
AcDbEntity
  8
部品1
 48
50.0
100
AcDbLine
 10
1008.994140400602
 20
2227.271234847375
 30
0.0
 11
908.9941404006022
 21
2227.271234847374
 31
0.0
  0
LINE
  5
1E278
330
1E256
100
AcDbEntity
  8
点線
 48
10.0
100
AcDbLine
 10
1208.994140400601
 20
2427.271234847373
 30
0.0
 11
1008.994140400602
 21
2427.271234847375
 31
0.0
  0
LINE
  5
1E279
330
1E256
100
AcDbEntity
  8
センター
 48
2.0
100
AcDbLine
 10
1031.994140400602
 20
2654.271234847376
 30
0.0
 11
1031.994140400602
 21
2554.271234847376
 31
0.0
  0
LINE
  5
1E27A
330
1E256
100
AcDbEntity
  8
センター
 48
2.0
100
AcDbLine
 10
981.9941404006021
 20
2604.271234847376
 30
0.0
 11
1081.994140400602
 21
2604.271234847376
 31
0.0
  0
LINE
  5
1E27B
330
1E256
100
AcDbEntity
  8
点線
 48
10.0
100
AcDbLine
 10
1208.994140400601
 20
2427.271234847373
 30
0.0
 11
1208.994140400602
 21
2627.271234847373
 31
0.0
  0
DIMENSION
  5
1E27C
330
1E256
100
AcDbEntity
  8
寸法
 48
50.0
100
AcDbDimension
  2
*D7
 10
908.9941404006022
 20
3665.938854664532
 30
0.0
 11
669.0160925585151
 21
3665.938854664532
 31
0.0
 12
-2587.005859599398
 22
-5276.728765152624
 32
0.0
 70
   128
  1
a
 71
     5
 42
-1.0
  3
INABA_S50G
100
AcDbAlignedDimension
 13
851.734369061589
 23
3453.478159147689
 33
0.0
 14
908.9941404006022
 24
2727.271234847376
 34
0.0
100
AcDbRotatedDimension
1001
ACAD
1000
DSTYLE
1002
{
1070
    40
1040
1.0
1002
}
  0
LINE
  5
1E27D
330
1E256
100
AcDbEntity
  8
部品1
 48
50.0
100
AcDbLine
 10
1312.994140400602
 20
2727.271234847373
 30
0.0
 11
908.9941404006022
 21
2727.271234847376
 31
0.0
  0
LINE
  5
1E27E
330
1E256
100
AcDbEntity
  8
部品1
 48
50.0
100
AcDbLine
 10
2608.994140400602
 20
1027.271234847396
 30
0.0
 11
2608.994140400601
 21
2627.271234847373
 31
0.0
  0
LINE
  5
1E27F
330
1E256
100
AcDbEntity
  8
想像線
 48
10.0
100
AcDbLine
 10
2758.994140400603
 20
2817.27123484738
 30
0.0
 11
2758.994140400606
 21
797.271234847376
 31
0.0
  0
LINE
  5
1E280
330
1E256
100
AcDbEntity
  8
部品1
 48
50.0
100
AcDbLine
 10
2708.994140400602
 20
927.2712348473943
 30
0.0
 11
2708.994140400602
 21
2727.271234847376
 31
0.0
  0
DIMENSION
  5
1E281
330
1E256
100
AcDbEntity
  8
寸法
 48
50.0
100
AcDbDimension
  2
*D18
 10
2208.260957831161
 20
1827.271234847376
 30
0.0
 11
2208.260957831161
 21
1377.271234847381
 31
0.0
 12
-2587.005859599398
 22
-1276.728765152624
 32
0.0
 70
   128
 71
     5
 42
-1.0
  3
INABA_S50G
100
AcDbAlignedDimension
 13
1808.994140400602
 23
927.271234847385
 33
0.0
 14
1858.994140400602
 24
1827.271234847376
 34
0.0
 50
90.0
100
AcDbRotatedDimension
1001
ACAD
1000
DSTYLE
1002
{
1070
   288
1070
     1
1070
    40
1040
1.0
1002
}
  0
DIMENSION
  5
1E282
330
1E256
100
AcDbEntity
  8
寸法
 48
50.0
100
AcDbDimension
  2
*D22
 10
2708.994140400602
 20
1306.97155591226
 30
0.0
 11
2979.053195518713
 21
1306.97155591226
 31
0.0
 12
-2587.005859599398
 22
-5696.728765152624
 32
0.0
 70
   128
 71
     5
 42
-1.0
  3
INABA_S50G
100
AcDbAlignedDimension
 13
2608.994140400602
 23
1407.271234847383
 33
0.0
 14
2708.994140400602
 24
1407.271234847383
 34
0.0
100
AcDbRotatedDimension
1001
ACAD
1000
DSTYLE
1002
{
1070
    40
1040
1.0
1002
}
  0
TEXT
  5
1E283
330
1E256
100
AcDbEntity
  8
寸法
 48
50.0
100
AcDbText
 10
1431.428391756737
 20
210.9080740941899
 30
0.0
 40
150.0
  1
MBW-32
  7
STYLE2
100
AcDbText
  0
TEXT
  5
1E284
330
1E256
100
AcDbEntity
  8
寸法
 48
50.0
100
AcDbText
 10
1431.428391756737
 20
40.90807409418994
 30
0.0
 40
150.0
  1
MBW-32H
  7
STYLE2
100
AcDbText
  0
TEXT
  5
1E285
330
1E256
100
AcDbEntity
  8
寸法
 48
50.0
100
AcDbText
 10
1679.121083237383
 20
648.2218646227884
 30
0.0
 40
120.0
  1
扉面
  7
STYLE1
100
AcDbText
  0
LINE
  5
1E286
330
1E256
100
AcDbEntity
  8
部品1
 48
50.0
100
AcDbLine
 10
1908.994140400602
 20
1127.27123484739
 30
0.0
 11
1708.994140400602
 21
1127.271234847389
 31
0.0
  0
LINE
  5
1E287
330
1E256
100
AcDbEntity
  8
部品1
 48
50.0
100
AcDbLine
 10
1708.994140400602
 20
1127.271234847389
 30
0.0
 11
1708.994140400602
 21
1027.271234847389
 31
0.0
  0
LINE
  5
1E288
330
1E256
100
AcDbEntity
  8
部品1
 48
50.0
100
AcDbLine
 10
1708.994140400602
 20
927.2712348473797
 30
0.0
 11
1708.994140400602
 21
1027.271234847387
 31
0.0
  0
LINE
  5
1E289
330
1E256
100
AcDbEntity
  8
部品1
 48
50.0
100
AcDbLine
 10
1908.994140400602
 20
1127.271234847389
 30
0.0
 11
1908.994140400602
 21
1027.271234847389
 31
0.0
  0
LINE
  5
1E28A
330
1E256
100
AcDbEntity
  8
部品1
 48
50.0
100
AcDbLine
 10
2108.994140400602
 20
927.271234847376
 30
0.0
 11
2108.994140400602
 21
1027.271234847383
 31
0.0
  0
LINE
  5
1E28B
330
1E256
100
AcDbEntity
  8
センター
 48
2.0
100
AcDbLine
 10
2535.994140400609
 20
1125.271234847378
 30
0.0
 11
2635.994140400609
 21
1125.271234847378
 31
0.0
  0
LINE
  5
1E28C
330
1E256
100
AcDbEntity
  8
点線
 48
10.0
100
AcDbLine
 10
2608.9941404006
 20
1227.271234847396
 30
0.0
 11
2408.994140400601
 21
1227.271234847394
 31
0.0
  0
LINE
  5
1E28D
330
1E256
100
AcDbEntity
  8
点線
 48
10.0
100
AcDbLine
 10
2408.994140400603
 20
1027.271234847396
 30
0.0
 11
2408.994140400601
 21
1227.271234847394
 31
0.0
  0
LINE
  5
1E28E
330
1E256
100
AcDbEntity
  8
部品1
 48
50.0
100
AcDbLine
 10
2308.994140400602
 20
927.2712348473943
 30
0.0
 11
2308.994140400602
 21
1027.27123484739
 31
0.0
  0
LINE
  5
1E28F
330
1E256
100
AcDbEntity
  8
センター
 48
2.0
100
AcDbLine
 10
2585.994140400609
 20
1175.271234847378
 30
0.0
 11
2585.994140400609
 21
1075.271234847378
 31
0.0
  0
LINE
  5
1E290
330
1E256
100
AcDbEntity
  8
部品1
 48
50.0
100
AcDbLine
 10
2708.994140400603
 20
1427.271234847398
 30
0.0
 11
2608.994140400601
 21
1427.271234847396
 31
0.0
  0
DIMENSION
  5
1E291
330
1E256
100
AcDbEntity
  8
寸法
 48
50.0
100
AcDbDimension
  2
*D15
 10
2585.994140400603
 20
3453.478159147693
 30
0.0
 11
2982.100742118401
 21
3453.478159147693
 31
0.0
 12
-2587.005859599398
 22
-5276.728765152624
 32
0.0
 70
   128
 71
     5
 42
-1.0
  3
INABA_S50G
100
AcDbAlignedDimension
 13
2708.994140400602
 23
2727.271234847376
 33
0.0
 14
2585.994140400603
 24
2654.271234847376
 34
0.0
100
AcDbRotatedDimension
1001
ACAD
1000
DSTYLE
1002
{
1070
    40
1040
1.0
1002
}
  0
DIMENSION
  5
1E292
330
1E256
100
AcDbEntity
  8
寸法
 48
50.0
100
AcDbDimension
  2
*D14
 10
2751.734369061589
 20
3665.938854664532
 30
0.0
 11
3059.452645564663
 21
3665.938854664532
 31
0.0
 12
-2587.005859599398
 22
-5276.728765152624
 32
0.0
 70
   128
  1
a
 71
     5
 42
-1.0
  3
INABA_S50G
100
AcDbAlignedDimension
 13
2708.994140400602
 23
2727.271234847376
 33
0.0
 14
2751.734369061589
 24
3453.478159147695
 34
0.0
100
AcDbRotatedDimension
1001
ACAD
1000
DSTYLE
1002
{
1070
    40
1040
1.0
1002
}
  0
LINE
  5
1E293
330
1E256
100
AcDbEntity
  8
部品1
 48
50.0
100
AcDbLine
 10
2308.994140400602
 20
2627.271234847392
 30
0.0
 11
2308.994140400602
 21
2727.271234847389
 31
0.0
  0
LINE
  5
1E294
330
1E256
100
AcDbEntity
  8
部品1
 48
50.0
100
AcDbLine
 10
2108.994140400602
 20
2627.271234847374
 30
0.0
 11
2108.994140400602
 21
2727.271234847382
 31
0.0
  0
LINE
  5
1E295
330
1E256
100
AcDbEntity
  8
部品1
 48
50.0
100
AcDbLine
 10
1708.994140400602
 20
2627.271234847378
 30
0.0
 11
1708.994140400602
 21
2727.271234847385
 31
0.0
  0
DIMENSION
  5
1E296
330
1E256
100
AcDbEntity
  8
寸法
 48
50.0
100
AcDbDimension
  2
*D16
 10
2366.841588969379
 20
2627.271234847374
 30
0.0
 11
2366.841588969379
 21
2997.330289965487
 31
0.0
 12
-2587.005859599398
 22
-5276.728765152624
 32
0.0
 70
   128
 71
     5
 42
-1.0
  3
INABA_S50G
100
AcDbAlignedDimension
 13
2153.912786690133
 23
2727.271234847376
 33
0.0
 14
2153.912786690133
 24
2627.271234847374
 34
0.0
 50
90.0
100
AcDbRotatedDimension
1001
ACAD
1000
DSTYLE
1002
{
1070
    40
1040
1.0
1002
}
  0
DIMENSION
  5
1E297
330
1E256
100
AcDbEntity
  8
寸法
 48
50.0
100
AcDbDimension
  2
*D19
 10
2208.260957831161
 20
2727.271234847376
 30
0.0
 11
2108.260957831161
 21
2277.271234847376
 31
0.0
 12
-2587.005859599398
 22
-1276.728765152624
 32
0.0
 71
     5
 42
-1.0
  3
INABA_S50G
100
AcDbAlignedDimension
 13
1858.994140400602
 23
1827.271234847376
 33
0.0
 14
1808.994140400602
 24
2727.271234847376
 34
0.0
 50
90.0
100
AcDbRotatedDimension
1001
ACAD
1000
DSTYLE
1002
{
1070
    40
1040
1.0
1070
    75
1070
     1
1070
   279
1070
     1
1070
   288
1070
     1
1002
}
  0
DIMENSION
  5
1E298
330
1E256
100
AcDbEntity
  8
寸法
 48
50.0
100
AcDbDimension
  2
*D21
 10
1808.994140400602
 20
3254.181000495704
 30
0.0
 11
2279.912662406881
 21
3254.181000495704
 31
0.0
 12
-2587.005859599398
 22
-1276.728765152624
 32
0.0
 70
   128
 71
     5
 42
-1.0
  3
INABA_S50G
100
AcDbAlignedDimension
 13
2708.994140400602
 23
2727.271234847376
 33
0.0
 14
1808.994140400602
 24
2027.271234847376
 34
0.0
100
AcDbRotatedDimension
1001
ACAD
1000
DSTYLE
1002
{
1070
   288
1070
     1
1070
    40
1040
1.0
1002
}
  0
LINE
  5
1E299
330
1E256
100
AcDbEntity
  8
部品1
 48
50.0
100
AcDbLine
 10
1908.994140400602
 20
2027.271234847376
 30
0.0
 11
1708.994140400602
 21
2027.271234847376
 31
0.0
  0
LINE
  5
1E29A
330
1E256
100
AcDbEntity
  8
部品1
 48
50.0
100
AcDbLine
 10
1908.994140400602
 20
1627.271234847374
 30
0.0
 11
1708.994140400602
 21
1627.271234847374
 31
0.0
  0
LINE
  5
1E29B
330
1E256
100
AcDbEntity
  8
センター
 48
2.0
100
AcDbLine
 10
1758.994140400602
 20
1827.271234847376
 30
0.0
 11
1858.994140400602
 21
1827.271234847376
 31
0.0
  0
LINE
  5
1E29C
330
1E256
100
AcDbEntity
  8
部品1
 48
50.0
100
AcDbLine
 10
1708.994140400602
 20
1627.271234847376
 30
0.0
 11
1708.994140400602
 21
2027.271234847376
 31
0.0
  0
LINE
  5
1E29D
330
1E256
100
AcDbEntity
  8
部品1
 48
50.0
100
AcDbLine
 10
1908.994140400602
 20
1627.271234847374
 30
0.0
 11
1908.994140400602
 21
2027.271234847376
 31
0.0
  0
LINE
  5
1E29E
330
1E256
100
AcDbEntity
  8
センター
 48
2.0
100
AcDbLine
 10
1808.994140400602
 20
1877.271234847376
 30
0.0
 11
1808.994140400602
 21
1777.271234847376
 31
0.0
  0
LINE
  5
1E29F
330
1E256
100
AcDbEntity
  8
部品1
 48
50.0
100
AcDbLine
 10
2708.994140400603
 20
1827.271234847398
 30
0.0
 11
2608.994140400601
 21
1827.271234847396
 31
0.0
  0
LINE
  5
1E2A0
330
1E256
100
AcDbEntity
  8
点線
 48
10.0
100
AcDbLine
 10
2608.994140400601
 20
2427.271234847375
 30
0.0
 11
2408.994140400603
 21
2427.271234847375
 31
0.0
  0
LINE
  5
1E2A1
330
1E256
100
AcDbEntity
  8
センター
 48
2.0
100
AcDbLine
 10
2535.994140400602
 20
2604.271234847376
 30
0.0
 11
2635.994140400602
 21
2604.271234847376
 31
0.0
  0
LINE
  5
1E2A2
330
1E256
100
AcDbEntity
  8
点線
 48
10.0
100
AcDbLine
 10
2408.994140400603
 20
2427.271234847375
 30
0.0
 11
2408.994140400601
 21
2627.271234847373
 31
0.0
  0
LINE
  5
1E2A3
330
1E256
100
AcDbEntity
  8
部品1
 48
50.0
100
AcDbLine
 10
2708.994140400603
 20
2227.271234847374
 30
0.0
 11
2608.994140400602
 21
2227.271234847374
 31
0.0
  0
LINE
  5
1E2A4
330
1E256
100
AcDbEntity
  8
センター
 48
2.0
100
AcDbLine
 10
2585.994140400603
 20
2654.271234847376
 30
0.0
 11
2585.994140400603
 21
2554.271234847376
 31
0.0
  0
ENDBLK
  5
1E2A6
330
1E256
100
AcDbEntity
  8
0
 48
50.0
100
AcDbBlockEnd
  0
BLOCK
  5
20441
330
20438
100
AcDbEntity
  8
0
 48
50.0
100
AcDbBlockBegin
  2
*D24
 70
     1
 10
0.0
 20
0.0
 30
0.0
  3
*D24
  1

  0
LINE
  5
22911
330
20438
100
AcDbEntity
  8
寸法
 62
     0
 48
50.0
370
    -2
100
AcDbLine
 10
6412.600000000001
 20
8712.140975822261
 30
0.0
 11
5731.888116550749
 21
8712.140975822261
 31
0.0
  0
LINE
  5
22912
330
20438
100
AcDbEntity
  8
寸法
 62
     0
 48
50.0
370
    -2
100
AcDbLine
 10
6412.600000000001
 20
6080.140975822262
 30
0.0
 11
5731.888116550749
 21
6080.140975822263
 31
0.0
  0
LINE
  5
22913
330
20438
100
AcDbEntity
  8
寸法
 62
     0
 48
50.0
370
    -2
100
AcDbLine
 10
5791.888116550749
 20
8712.140975822261
 30
0.0
 11
5791.888116550748
 21
6080.140975822263
 31
0.0
  0
INSERT
  5
22914
330
20438
100
AcDbEntity
  8
寸法
 62
     0
 48
50.0
370
    -2
100
AcDbBlockReference
  2
_DOTSMALL
 10
5791.888116550749
 20
8712.140975822261
 30
0.0
 41
100.0
 42
100.0
 43
100.0
 50
90.0
  0
INSERT
  5
22915
330
20438
100
AcDbEntity
  8
寸法
 62
     0
 48
50.0
370
    -2
100
AcDbBlockReference
  2
_DOTSMALL
 10
5791.888116550748
 20
6080.140975822263
 30
0.0
 41
100.0
 42
100.0
 43
100.0
 50
270.0
  0
MTEXT
  5
22916
330
20438
100
AcDbEntity
  8
寸法
 62
     7
 48
50.0
100
AcDbMText
 10
5691.876305527125
 20
7396.140975822264
 30
0.0
 40
120.0
 41
0.0
 71
     5
 72
     1
  1
\A1;2632
  7
STYLE1
 11
0.0000000000000001
 21
1.0
 31
0.0
 73
     1
 44
1.0
1001
ACAD
1000
MTEXTBEGIN
1070
    73
1070
     1
1070
    44
1040
1.0
1070
    74
1070
     0
1000
MTEXTEND
  0
POINT
  5
22917
330
20438
100
AcDbEntity
  8
DEFPOINTS
 62
     0
 48
50.0
100
AcDbPoint
 10
6432.6
 20
8712.140975822261
 30
0.0
  0
POINT
  5
22918
330
20438
100
AcDbEntity
  8
DEFPOINTS
 62
     0
 48
50.0
100
AcDbPoint
 10
6432.6
 20
6080.140975822262
 30
0.0
  0
POINT
  5
22919
330
20438
100
AcDbEntity
  8
DEFPOINTS
 62
     0
 48
50.0
100
AcDbPoint
 10
5791.888116550748
 20
6080.140975822263
 30
0.0
  0
ENDBLK
  5
20442
330
20438
100
AcDbEntity
  8
0
 48
50.0
100
AcDbBlockEnd
  0
BLOCK
  5
2044E
330
20443
100
AcDbEntity
  8
0
 48
50.0
100
AcDbBlockBegin
  2
*D25
 70
     1
 10
0.0
 20
0.0
 30
0.0
  3
*D25
  1

  0
LINE
  5
22977
330
20443
100
AcDbEntity
  8
寸法
 62
     0
 48
50.0
370
    -2
100
AcDbLine
 10
10114.6
 20
5960.140975822258
 30
0.0
 11
10114.6
 21
5591.942294736611
 31
0.0
  0
LINE
  5
22978
330
20443
100
AcDbEntity
  8
寸法
 62
     0
 48
50.0
370
    -2
100
AcDbLine
 10
9914.6
 20
5960.140975822258
 30
0.0
 11
9914.6
 21
5591.942294736611
 31
0.0
  0
LINE
  5
22979
330
20443
100
AcDbEntity
  8
寸法
 62
     0
 48
50.0
370
    -2
100
AcDbLine
 10
9914.6
 20
5651.942294736611
 30
0.0
 11
10114.6
 21
5651.942294736611
 31
0.0
  0
LINE
  5
2297A
330
20443
100
AcDbEntity
  8
寸法
 62
     0
 48
50.0
370
    -2
100
AcDbLine
 10
10114.6
 20
5651.942294736611
 30
0.0
 11
10513.74173228346
 21
5651.942294736611
 31
0.0
  0
INSERT
  5
2297B
330
20443
100
AcDbEntity
  8
寸法
 62
     0
 48
50.0
370
    -2
100
AcDbBlockReference
  2
_DOTSMALL
 10
9914.6
 20
5651.942294736611
 30
0.0
 41
100.0
 42
100.0
 43
100.0
 50
180.0
  0
INSERT
  5
2297C
330
20443
100
AcDbEntity
  8
寸法
 62
     0
 48
50.0
370
    -2
100
AcDbBlockReference
  2
_DOTSMALL
 10
10114.6
 20
5651.942294736611
 30
0.0
 41
100.0
 42
100.0
 43
100.0
  0
MTEXT
  5
2297D
330
20443
100
AcDbEntity
  8
寸法
 62
     7
 48
50.0
100
AcDbMText
 10
10364.17086614173
 20
5751.954105760233
 30
0.0
 40
120.0
 41
0.0
 71
     5
 72
     1
  1
\A1;200
  7
STYLE1
 73
     1
 44
1.0
1001
ACAD
1000
MTEXTBEGIN
1070
    73
1070
     1
1070
    44
1040
1.0
1070
    74
1070
     0
1000
MTEXTEND
  0
POINT
  5
2297E
330
20443
100
AcDbEntity
  8
DEFPOINTS
 62
     0
 48
50.0
100
AcDbPoint
 10
10114.6
 20
5980.140975822259
 30
0.0
  0
POINT
  5
2297F
330
20443
100
AcDbEntity
  8
DEFPOINTS
 62
     0
 48
50.0
100
AcDbPoint
 10
9914.6
 20
5980.140975822259
 30
0.0
  0
POINT
  5
22980
330
20443
100
AcDbEntity
  8
DEFPOINTS
 62
     0
 48
50.0
100
AcDbPoint
 10
9914.6
 20
5651.942294736611
 30
0.0
  0
ENDBLK
  5
2044F
330
20443
100
AcDbEntity
  8
0
 48
50.0
100
AcDbBlockEnd
  0
BLOCK
  5
20467
330
2045D
100
AcDbEntity
  8
0
 48
50.0
100
AcDbBlockBegin
  2
*D26
 70
     1
 10
0.0
 20
0.0
 30
0.0
  3
*D26
  1

  0
LINE
  5
2296D
330
2045D
100
AcDbEntity
  8
寸法
 62
     0
 48
50.0
370
    -2
100
AcDbLine
 10
10134.6
 20
6180.140975822258
 30
0.0
 11
10474.23045670601
 21
6180.140975822258
 31
0.0
  0
LINE
  5
2296E
330
2045D
100
AcDbEntity
  8
寸法
 62
     0
 48
50.0
370
    -2
100
AcDbLine
 10
10134.6
 20
5980.140975822259
 30
0.0
 11
10474.23045670601
 21
5980.140975822258
 31
0.0
  0
LINE
  5
2296F
330
2045D
100
AcDbEntity
  8
寸法
 62
     0
 48
50.0
370
    -2
100
AcDbLine
 10
10414.23045670601
 20
5980.140975822258
 30
0.0
 11
10414.23045670601
 21
6180.140975822258
 31
0.0
  0
LINE
  5
22970
330
2045D
100
AcDbEntity
  8
寸法
 62
     0
 48
50.0
370
    -2
100
AcDbLine
 10
10414.23045670601
 20
6180.140975822258
 30
0.0
 11
10414.23045670601
 21
6579.282708105722
 31
0.0
  0
INSERT
  5
22971
330
2045D
100
AcDbEntity
  8
寸法
 62
     0
 48
50.0
370
    -2
100
AcDbBlockReference
  2
_DOTSMALL
 10
10414.23045670601
 20
5980.140975822258
 30
0.0
 41
100.0
 42
100.0
 43
100.0
 50
270.0
  0
INSERT
  5
22972
330
2045D
100
AcDbEntity
  8
寸法
 62
     0
 48
50.0
370
    -2
100
AcDbBlockReference
  2
_DOTSMALL
 10
10414.23045670601
 20
6180.140975822258
 30
0.0
 41
100.0
 42
100.0
 43
100.0
 50
90.0
  0
MTEXT
  5
22973
330
2045D
100
AcDbEntity
  8
寸法
 62
     7
 48
50.0
100
AcDbMText
 10
10314.21864568239
 20
6429.711841963992
 30
0.0
 40
120.0
 41
0.0
 71
     5
 72
     1
  1
\A1;200
  7
STYLE1
 11
0.0000000000000001
 21
1.0
 31
0.0
 73
     1
 44
1.0
1001
ACAD
1000
MTEXTBEGIN
1070
    73
1070
     1
1070
    44
1040
1.0
1070
    74
1070
     0
1000
MTEXTEND
  0
POINT
  5
22974
330
2045D
100
AcDbEntity
  8
DEFPOINTS
 62
     0
 48
50.0
100
AcDbPoint
 10
10114.6
 20
6180.140975822258
 30
0.0
  0
POINT
  5
22975
330
2045D
100
AcDbEntity
  8
DEFPOINTS
 62
     0
 48
50.0
100
AcDbPoint
 10
10114.6
 20
5980.140975822259
 30
0.0
  0
POINT
  5
22976
330
2045D
100
AcDbEntity
  8
DEFPOINTS
 62
     0
 48
50.0
100
AcDbPoint
 10
10414.23045670601
 20
5980.140975822258
 30
0.0
  0
ENDBLK
  5
20468
330
2045D
100
AcDbEntity
  8
0
 48
50.0
100
AcDbBlockEnd
  0
BLOCK
  5
2047E
330
20475
100
AcDbEntity
  8
0
 48
50.0
100
AcDbBlockBegin
  2
*D27
 70
     1
 10
0.0
 20
0.0
 30
0.0
  3
*D27
  1

  0
LINE
  5
229C0
330
20475
100
AcDbEntity
  8
寸法
 62
     0
 48
50.0
370
    -2
100
AcDbLine
 10
6432.6
 20
8732.140975822261
 30
0.0
 11
6432.6
 21
9364.553563493883
 31
0.0
  0
LINE
  5
229C1
330
20475
100
AcDbEntity
  8
寸法
 62
     0
 48
50.0
370
    -2
100
AcDbLine
 10
10014.6
 20
8732.140975822261
 30
0.0
 11
10014.6
 21
9364.553563493883
 31
0.0
  0
LINE
  5
229C2
330
20475
100
AcDbEntity
  8
寸法
 62
     0
 48
50.0
370
    -2
100
AcDbLine
 10
6432.6
 20
9304.553563493882
 30
0.0
 11
10014.6
 21
9304.553563493882
 31
0.0
  0
INSERT
  5
229C3
330
20475
100
AcDbEntity
  8
寸法
 62
     0
 48
50.0
370
    -2
100
AcDbBlockReference
  2
_DOTSMALL
 10
6432.6
 20
9304.553563493882
 30
0.0
 41
100.0
 42
100.0
 43
100.0
 50
180.0
  0
INSERT
  5
229C4
330
20475
100
AcDbEntity
  8
寸法
 62
     0
 48
50.0
370
    -2
100
AcDbBlockReference
  2
_DOTSMALL
 10
10014.6
 20
9304.553563493882
 30
0.0
 41
100.0
 42
100.0
 43
100.0
  0
MTEXT
  5
229C5
330
20475
100
AcDbEntity
  8
寸法
 62
     7
 48
50.0
100
AcDbMText
 10
8223.600000000001
 20
9404.565374517504
 30
0.0
 40
120.0
 41
0.0
 71
     5
 72
     1
  1
\A1;3582
  7
STYLE1
 73
     1
 44
1.0
1001
ACAD
1000
MTEXTBEGIN
1070
    73
1070
     1
1070
    44
1040
1.0
1070
    74
1070
     0
1000
MTEXTEND
  0
POINT
  5
229C6
330
20475
100
AcDbEntity
  8
DEFPOINTS
 62
     0
 48
50.0
100
AcDbPoint
 10
6432.6
 20
8712.140975822261
 30
0.0
  0
POINT
  5
229C7
330
20475
100
AcDbEntity
  8
DEFPOINTS
 62
     0
 48
50.0
100
AcDbPoint
 10
10014.6
 20
8712.140975822261
 30
0.0
  0
POINT
  5
229C8
330
20475
100
AcDbEntity
  8
DEFPOINTS
 62
     0
 48
50.0
100
AcDbPoint
 10
10014.6
 20
9304.553563493882
 30
0.0
  0
ENDBLK
  5
2047F
330
20475
100
AcDbEntity
  8
0
 48
50.0
100
AcDbBlockEnd
  0
BLOCK
  5
20489
330
20480
100
AcDbEntity
  8
0
 48
50.0
100
AcDbBlockBegin
  2
*D28
 70
     1
 10
0.0
 20
0.0
 30
0.0
  3
*D28
  1

  0
LINE
  5
229AE
330
20480
100
AcDbEntity
  8
寸法
 62
     0
 48
50.0
370
    -2
100
AcDbLine
 10
8223.599999999999
 20
8732.140975822261
 30
0.0
 11
8223.599999999999
 21
9118.153535465404
 31
0.0
  0
LINE
  5
229AF
330
20480
100
AcDbEntity
  8
寸法
 62
     0
 48
50.0
370
    -2
100
AcDbLine
 10
7328.599999999998
 20
8732.140975822261
 30
0.0
 11
7328.599999999998
 21
9118.153535465404
 31
0.0
  0
LINE
  5
229B0
330
20480
100
AcDbEntity
  8
寸法
 62
     0
 48
50.0
370
    -2
100
AcDbLine
 10
8223.599999999999
 20
9058.153535465406
 30
0.0
 11
7328.599999999998
 21
9058.153535465406
 31
0.0
  0
INSERT
  5
229B1
330
20480
100
AcDbEntity
  8
寸法
 62
     0
 48
50.0
370
    -2
100
AcDbBlockReference
  2
_DOTSMALL
 10
8223.599999999999
 20
9058.153535465406
 30
0.0
 41
100.0
 42
100.0
 43
100.0
  0
INSERT
  5
229B2
330
20480
100
AcDbEntity
  8
寸法
 62
     0
 48
50.0
370
    -2
100
AcDbBlockReference
  2
_DOTSMALL
 10
7328.599999999998
 20
9058.153535465406
 30
0.0
 41
100.0
 42
100.0
 43
100.0
 50
180.0
  0
MTEXT
  5
229B3
330
20480
100
AcDbEntity
  8
寸法
 62
     7
 48
50.0
100
AcDbMText
 10
7776.099999999998
 20
9158.153535465405
 30
0.0
 40
120.0
 41
0.0
 71
     5
 72
     1
  1
\A1;895
  7
STYLE1
 73
     1
 44
1.0
1001
ACAD
1000
MTEXTBEGIN
1070
    73
1070
     1
1070
    44
1040
1.0
1070
    74
1070
     0
1000
MTEXTEND
  0
POINT
  5
229B4
330
20480
100
AcDbEntity
  8
DEFPOINTS
 62
     0
 48
50.0
100
AcDbPoint
 10
8223.599999999999
 20
8712.140975822261
 30
0.0
  0
POINT
  5
229B5
330
20480
100
AcDbEntity
  8
DEFPOINTS
 62
     0
 48
50.0
100
AcDbPoint
 10
7328.599999999998
 20
8712.140975822261
 30
0.0
  0
POINT
  5
229B6
330
20480
100
AcDbEntity
  8
DEFPOINTS
 62
     0
 48
50.0
100
AcDbPoint
 10
7328.599999999998
 20
9058.153535465406
 30
0.0
  0
ENDBLK
  5
2048A
330
20480
100
AcDbEntity
  8
0
 48
50.0
100
AcDbBlockEnd
  0
BLOCK
  5
20494
330
2048B
100
AcDbEntity
  8
0
 48
50.0
100
AcDbBlockBegin
  2
*D29
 70
     1
 10
0.0
 20
0.0
 30
0.0
  3
*D29
  1

  0
LINE
  5
229A5
330
2048B
100
AcDbEntity
  8
寸法
 62
     0
 48
50.0
370
    -2
100
AcDbLine
 10
7328.599999999998
 20
8732.140975822261
 30
0.0
 11
7328.599999999998
 21
9118.153535465404
 31
0.0
  0
LINE
  5
229A6
330
2048B
100
AcDbEntity
  8
寸法
 62
     0
 48
50.0
370
    -2
100
AcDbLine
 10
6432.6
 20
8732.140975822261
 30
0.0
 11
6432.6
 21
9118.153535465404
 31
0.0
  0
LINE
  5
229A7
330
2048B
100
AcDbEntity
  8
寸法
 62
     0
 48
50.0
370
    -2
100
AcDbLine
 10
7328.599999999998
 20
9058.153535465406
 30
0.0
 11
6432.6
 21
9058.153535465406
 31
0.0
  0
INSERT
  5
229A8
330
2048B
100
AcDbEntity
  8
寸法
 62
     0
 48
50.0
370
    -2
100
AcDbBlockReference
  2
_DOTSMALL
 10
7328.599999999998
 20
9058.153535465406
 30
0.0
 41
100.0
 42
100.0
 43
100.0
  0
INSERT
  5
229A9
330
2048B
100
AcDbEntity
  8
寸法
 62
     0
 48
50.0
370
    -2
100
AcDbBlockReference
  2
_DOTSMALL
 10
6432.6
 20
9058.153535465406
 30
0.0
 41
100.0
 42
100.0
 43
100.0
 50
180.0
  0
MTEXT
  5
229AA
330
2048B
100
AcDbEntity
  8
寸法
 62
     7
 48
50.0
100
AcDbMText
 10
6880.6
 20
9158.153535465405
 30
0.0
 40
120.0
 41
0.0
 71
     5
 72
     1
  1
\A1;896
  7
STYLE1
 73
     1
 44
1.0
1001
ACAD
1000
MTEXTBEGIN
1070
    73
1070
     1
1070
    44
1040
1.0
1070
    74
1070
     0
1000
MTEXTEND
  0
POINT
  5
229AB
330
2048B
100
AcDbEntity
  8
DEFPOINTS
 62
     0
 48
50.0
100
AcDbPoint
 10
7328.599999999998
 20
8712.140975822261
 30
0.0
  0
POINT
  5
229AC
330
2048B
100
AcDbEntity
  8
DEFPOINTS
 62
     0
 48
50.0
100
AcDbPoint
 10
6432.6
 20
8712.140975822261
 30
0.0
  0
POINT
  5
229AD
330
2048B
100
AcDbEntity
  8
DEFPOINTS
 62
     0
 48
50.0
100
AcDbPoint
 10
6432.6
 20
9058.153535465406
 30
0.0
  0
ENDBLK
  5
20495
330
2048B
100
AcDbEntity
  8
0
 48
50.0
100
AcDbBlockEnd
  0
BLOCK
  5
20F6F
330
20F63
100
AcDbEntity
  8
0
 48
50.0
100
AcDbBlockBegin
  2
*D31
 70
     1
 10
0.0
 20
0.0
 30
0.0
  3
*D31
  1

  0
LINE
  5
228F4
330
20F63
100
AcDbEntity
  8
寸法
 62
     0
 48
50.0
370
    -2
100
AcDbLine
 10
6412.600000000001
 20
6080.140975822263
 30
0.0
 11
5731.888116550751
 21
6080.140975822263
 31
0.0
  0
LINE
  5
228F5
330
20F63
100
AcDbEntity
  8
寸法
 62
     0
 48
50.0
370
    -2
100
AcDbLine
 10
6362.6
 20
6020.140975822264
 30
0.0
 11
5731.888116550751
 21
6020.140975822265
 31
0.0
  0
LINE
  5
228F6
330
20F63
100
AcDbEntity
  8
寸法
 62
     0
 48
50.0
370
    -2
100
AcDbLine
 10
5791.888116550751
 20
6080.140975822263
 30
0.0
 11
5791.888116550752
 21
6180.140975822264
 31
0.0
  0
LINE
  5
228F7
330
20F63
100
AcDbEntity
  8
寸法
 62
     0
 48
50.0
370
    -2
100
AcDbLine
 10
5791.888116550751
 20
6020.140975822265
 30
0.0
 11
5791.888116550751
 21
5920.140975822264
 31
0.0
  0
LINE
  5
228F8
330
20F63
100
AcDbEntity
  8
寸法
 62
     0
 48
50.0
370
    -2
100
AcDbLine
 10
5791.888116550751
 20
6080.140975822263
 30
0.0
 11
5791.888116550751
 21
6020.140975822265
 31
0.0
  0
INSERT
  5
228F9
330
20F63
100
AcDbEntity
  8
寸法
 62
     0
 48
50.0
370
    -2
100
AcDbBlockReference
  2
_DOTSMALL
 10
5791.888116550751
 20
6080.140975822263
 30
0.0
 41
100.0
 42
100.0
 43
100.0
 50
270.0
  0
INSERT
  5
228FA
330
20F63
100
AcDbEntity
  8
寸法
 62
     0
 48
50.0
370
    -2
100
AcDbBlockReference
  2
_DOTSMALL
 10
5791.888116550751
 20
6020.140975822265
 30
0.0
 41
100.0
 42
100.0
 43
100.0
 50
90.0
  0
MTEXT
  5
228FB
330
20F63
100
AcDbEntity
  8
寸法
 62
     7
 48
50.0
100
AcDbMText
 10
5691.888116550749
 20
6050.140975822266
 30
0.0
 40
120.0
 41
0.0
 71
     5
 72
     1
  1
\A1;b
  7
STYLE1
 11
0.0000000000000001
 21
1.0
 31
0.0
 73
     1
 44
1.0
1001
ACAD
1000
MTEXTBEGIN
1070
    73
1070
     1
1070
    44
1040
1.0
1070
    74
1070
     0
1000
MTEXTEND
  0
POINT
  5
228FC
330
20F63
100
AcDbEntity
  8
DEFPOINTS
 62
     0
 48
50.0
100
AcDbPoint
 10
6432.6
 20
6080.140975822263
 30
0.0
  0
POINT
  5
228FD
330
20F63
100
AcDbEntity
  8
DEFPOINTS
 62
     0
 48
50.0
100
AcDbPoint
 10
6382.6
 20
6020.140975822264
 30
0.0
  0
POINT
  5
228FE
330
20F63
100
AcDbEntity
  8
DEFPOINTS
 62
     0
 48
50.0
100
AcDbPoint
 10
5791.888116550751
 20
6020.140975822265
 30
0.0
  0
ENDBLK
  5
20F70
330
20F63
100
AcDbEntity
  8
0
 48
50.0
100
AcDbBlockEnd
  0
BLOCK
  5
20F9D
330
20F93
100
AcDbEntity
  8
0
 48
50.0
100
AcDbBlockBegin
  2
*D32
 70
     1
 10
0.0
 20
0.0
 30
0.0
  3
*D32
  1

  0
LINE
  5
228EB
330
20F93
100
AcDbEntity
  8
寸法
 62
     0
 48
50.0
370
    -2
100
AcDbLine
 10
6362.6
 20
8792.140975822263
 30
0.0
 11
5731.888116550752
 21
8792.140975822263
 31
0.0
  0
LINE
  5
228EC
330
20F93
100
AcDbEntity
  8
寸法
 62
     0
 48
50.0
370
    -2
100
AcDbLine
 10
6412.600000000001
 20
8712.140975822261
 30
0.0
 11
5731.888116550752
 21
8712.140975822261
 31
0.0
  0
LINE
  5
228ED
330
20F93
100
AcDbEntity
  8
寸法
 62
     0
 48
50.0
370
    -2
100
AcDbLine
 10
5791.888116550752
 20
8792.140975822263
 30
0.0
 11
5791.888116550752
 21
8712.140975822261
 31
0.0
  0
INSERT
  5
228EE
330
20F93
100
AcDbEntity
  8
寸法
 62
     0
 48
50.0
370
    -2
100
AcDbBlockReference
  2
_DOTSMALL
 10
5791.888116550752
 20
8792.140975822263
 30
0.0
 41
100.0
 42
100.0
 43
100.0
 50
90.0
  0
INSERT
  5
228EF
330
20F93
100
AcDbEntity
  8
寸法
 62
     0
 48
50.0
370
    -2
100
AcDbBlockReference
  2
_DOTSMALL
 10
5791.888116550752
 20
8712.140975822261
 30
0.0
 41
100.0
 42
100.0
 43
100.0
 50
270.0
  0
MTEXT
  5
228F0
330
20F93
100
AcDbEntity
  8
寸法
 62
     7
 48
50.0
100
AcDbMText
 10
5691.888116550751
 20
8752.140975822266
 30
0.0
 40
120.0
 41
0.0
 71
     5
 72
     1
  1
\A1;c
  7
STYLE1
 11
0.0000000000000001
 21
1.0
 31
0.0
 73
     1
 44
1.0
1001
ACAD
1000
MTEXTBEGIN
1070
    73
1070
     1
1070
    44
1040
1.0
1070
    74
1070
     0
1000
MTEXTEND
  0
POINT
  5
228F1
330
20F93
100
AcDbEntity
  8
DEFPOINTS
 62
     0
 48
50.0
100
AcDbPoint
 10
6382.6
 20
8792.140975822263
 30
0.0
  0
POINT
  5
228F2
330
20F93
100
AcDbEntity
  8
DEFPOINTS
 62
     0
 48
50.0
100
AcDbPoint
 10
6432.6
 20
8712.140975822261
 30
0.0
  0
POINT
  5
228F3
330
20F93
100
AcDbEntity
  8
DEFPOINTS
 62
     0
 48
50.0
100
AcDbPoint
 10
5791.888116550752
 20
8712.140975822261
 30
0.0
  0
ENDBLK
  5
20F9E
330
20F93
100
AcDbEntity
  8
0
 48
50.0
100
AcDbBlockEnd
  0
BLOCK
  5
20FC7
330
20FBB
100
AcDbEntity
  8
0
 48
50.0
100
AcDbBlockBegin
  2
*D33
 70
     1
 10
0.0
 20
0.0
 30
0.0
  3
*D33
  1

  0
LINE
  5
228E0
330
20FBB
100
AcDbEntity
  8
寸法
 62
     0
 48
50.0
370
    -2
100
AcDbLine
 10
6382.600000000001
 20
8812.140975822257
 30
0.0
 11
6382.600000000001
 21
9364.553563493883
 31
0.0
  0
LINE
  5
228E1
330
20FBB
100
AcDbEntity
  8
寸法
 62
     0
 48
50.0
370
    -2
100
AcDbLine
 10
6432.600000000002
 20
8732.140975822261
 30
0.0
 11
6432.600000000002
 21
9364.553563493883
 31
0.0
  0
LINE
  5
228E2
330
20FBB
100
AcDbEntity
  8
寸法
 62
     0
 48
50.0
370
    -2
100
AcDbLine
 10
6382.600000000001
 20
9304.553563493882
 30
0.0
 11
6282.600000000002
 21
9304.553563493882
 31
0.0
  0
LINE
  5
228E3
330
20FBB
100
AcDbEntity
  8
寸法
 62
     0
 48
50.0
370
    -2
100
AcDbLine
 10
6432.600000000002
 20
9304.553563493882
 30
0.0
 11
6532.600000000002
 21
9304.553563493882
 31
0.0
  0
LINE
  5
228E4
330
20FBB
100
AcDbEntity
  8
寸法
 62
     0
 48
50.0
370
    -2
100
AcDbLine
 10
6382.600000000001
 20
9304.553563493882
 30
0.0
 11
6432.600000000002
 21
9304.553563493882
 31
0.0
  0
INSERT
  5
228E5
330
20FBB
100
AcDbEntity
  8
寸法
 62
     0
 48
50.0
370
    -2
100
AcDbBlockReference
  2
_DOTSMALL
 10
6382.600000000001
 20
9304.553563493882
 30
0.0
 41
100.0
 42
100.0
 43
100.0
  0
INSERT
  5
228E6
330
20FBB
100
AcDbEntity
  8
寸法
 62
     0
 48
50.0
370
    -2
100
AcDbBlockReference
  2
_DOTSMALL
 10
6432.600000000002
 20
9304.553563493882
 30
0.0
 41
100.0
 42
100.0
 43
100.0
 50
180.0
  0
MTEXT
  5
228E7
330
20FBB
100
AcDbEntity
  8
寸法
 62
     7
 48
50.0
100
AcDbMText
 10
6407.600000000002
 20
9404.553563493882
 30
0.0
 40
120.0
 41
0.0
 71
     5
 72
     1
  1
\A1;a
  7
STYLE1
 73
     1
 44
1.0
1001
ACAD
1000
MTEXTBEGIN
1070
    73
1070
     1
1070
    44
1040
1.0
1070
    74
1070
     0
1000
MTEXTEND
  0
POINT
  5
228E8
330
20FBB
100
AcDbEntity
  8
DEFPOINTS
 62
     0
 48
50.0
100
AcDbPoint
 10
6382.600000000001
 20
8792.140975822258
 30
0.0
  0
POINT
  5
228E9
330
20FBB
100
AcDbEntity
  8
DEFPOINTS
 62
     0
 48
50.0
100
AcDbPoint
 10
6432.600000000002
 20
8712.140975822261
 30
0.0
  0
POINT
  5
228EA
330
20FBB
100
AcDbEntity
  8
DEFPOINTS
 62
     0
 48
50.0
100
AcDbPoint
 10
6432.600000000002
 20
9304.553563493882
 30
0.0
  0
ENDBLK
  5
20FC8
330
20FBB
100
AcDbEntity
  8
0
 48
50.0
100
AcDbBlockEnd
  0
BLOCK
  5
20FF7
330
20FEB
100
AcDbEntity
  8
0
 48
50.0
100
AcDbBlockBegin
  2
*D34
 70
     1
 10
0.0
 20
0.0
 30
0.0
  3
*D34
  1

  0
LINE
  5
22962
330
20FEB
100
AcDbEntity
  8
寸法
 62
     0
 48
50.0
370
    -2
100
AcDbLine
 10
10014.6
 20
8732.140975822261
 30
0.0
 11
10014.6
 21
9364.553563493883
 31
0.0
  0
LINE
  5
22963
330
20FEB
100
AcDbEntity
  8
寸法
 62
     0
 48
50.0
370
    -2
100
AcDbLine
 10
10064.59999999999
 20
8812.140975822261
 30
0.0
 11
10064.59999999999
 21
9364.553563493883
 31
0.0
  0
LINE
  5
22964
330
20FEB
100
AcDbEntity
  8
寸法
 62
     0
 48
50.0
370
    -2
100
AcDbLine
 10
10014.6
 20
9304.553563493882
 30
0.0
 11
9914.6
 21
9304.553563493882
 31
0.0
  0
LINE
  5
22965
330
20FEB
100
AcDbEntity
  8
寸法
 62
     0
 48
50.0
370
    -2
100
AcDbLine
 10
10064.59999999999
 20
9304.553563493882
 30
0.0
 11
10164.59999999999
 21
9304.553563493882
 31
0.0
  0
LINE
  5
22966
330
20FEB
100
AcDbEntity
  8
寸法
 62
     0
 48
50.0
370
    -2
100
AcDbLine
 10
10014.6
 20
9304.553563493882
 30
0.0
 11
10064.59999999999
 21
9304.553563493882
 31
0.0
  0
INSERT
  5
22967
330
20FEB
100
AcDbEntity
  8
寸法
 62
     0
 48
50.0
370
    -2
100
AcDbBlockReference
  2
_DOTSMALL
 10
10014.6
 20
9304.553563493882
 30
0.0
 41
100.0
 42
100.0
 43
100.0
  0
INSERT
  5
22968
330
20FEB
100
AcDbEntity
  8
寸法
 62
     0
 48
50.0
370
    -2
100
AcDbBlockReference
  2
_DOTSMALL
 10
10064.59999999999
 20
9304.553563493882
 30
0.0
 41
100.0
 42
100.0
 43
100.0
 50
180.0
  0
MTEXT
  5
22969
330
20FEB
100
AcDbEntity
  8
寸法
 62
     7
 48
50.0
100
AcDbMText
 10
10039.59999999999
 20
9404.553563493882
 30
0.0
 40
120.0
 41
0.0
 71
     5
 72
     1
  1
\A1;a
  7
STYLE1
 73
     1
 44
1.0
1001
ACAD
1000
MTEXTBEGIN
1070
    73
1070
     1
1070
    44
1040
1.0
1070
    74
1070
     0
1000
MTEXTEND
  0
POINT
  5
2296A
330
20FEB
100
AcDbEntity
  8
DEFPOINTS
 62
     0
 48
50.0
100
AcDbPoint
 10
10014.6
 20
8712.140975822261
 30
0.0
  0
POINT
  5
2296B
330
20FEB
100
AcDbEntity
  8
DEFPOINTS
 62
     0
 48
50.0
100
AcDbPoint
 10
10064.59999999999
 20
8792.140975822261
 30
0.0
  0
POINT
  5
2296C
330
20FEB
100
AcDbEntity
  8
DEFPOINTS
 62
     0
 48
50.0
100
AcDbPoint
 10
10064.59999999999
 20
9304.553563493882
 30
0.0
  0
ENDBLK
  5
20FF8
330
20FEB
100
AcDbEntity
  8
0
 48
50.0
100
AcDbBlockEnd
  0
BLOCK
  5
21B44
330
21B3A
100
AcDbEntity
  8
0
 48
50.0
100
AcDbBlockBegin
  2
*D35
 70
     1
 10
0.0
 20
0.0
 30
0.0
  3
*D35
  1

  0
LINE
  5
22993
330
21B3A
100
AcDbEntity
  8
寸法
 62
     0
 48
50.0
370
    -2
100
AcDbLine
 10
9118.599999999995
 20
8732.140975822261
 30
0.0
 11
9118.599999999995
 21
9118.153535465404
 31
0.0
  0
LINE
  5
22994
330
21B3A
100
AcDbEntity
  8
寸法
 62
     0
 48
50.0
370
    -2
100
AcDbLine
 10
8223.599999999999
 20
8732.140975822261
 30
0.0
 11
8223.599999999999
 21
9118.153535465404
 31
0.0
  0
LINE
  5
22995
330
21B3A
100
AcDbEntity
  8
寸法
 62
     0
 48
50.0
370
    -2
100
AcDbLine
 10
9118.599999999995
 20
9058.153535465406
 30
0.0
 11
8223.599999999999
 21
9058.153535465406
 31
0.0
  0
INSERT
  5
22996
330
21B3A
100
AcDbEntity
  8
寸法
 62
     0
 48
50.0
370
    -2
100
AcDbBlockReference
  2
_DOTSMALL
 10
9118.599999999995
 20
9058.153535465406
 30
0.0
 41
100.0
 42
100.0
 43
100.0
  0
INSERT
  5
22997
330
21B3A
100
AcDbEntity
  8
寸法
 62
     0
 48
50.0
370
    -2
100
AcDbBlockReference
  2
_DOTSMALL
 10
8223.599999999999
 20
9058.153535465406
 30
0.0
 41
100.0
 42
100.0
 43
100.0
 50
180.0
  0
MTEXT
  5
22998
330
21B3A
100
AcDbEntity
  8
寸法
 62
     7
 48
50.0
100
AcDbMText
 10
8671.099999999997
 20
9158.153535465405
 30
0.0
 40
120.0
 41
0.0
 71
     5
 72
     1
  1
\A1;895
  7
STYLE1
 73
     1
 44
1.0
1001
ACAD
1000
MTEXTBEGIN
1070
    73
1070
     1
1070
    44
1040
1.0
1070
    74
1070
     0
1000
MTEXTEND
  0
POINT
  5
22999
330
21B3A
100
AcDbEntity
  8
DEFPOINTS
 62
     0
 48
50.0
100
AcDbPoint
 10
9118.599999999995
 20
8712.140975822261
 30
0.0
  0
POINT
  5
2299A
330
21B3A
100
AcDbEntity
  8
DEFPOINTS
 62
     0
 48
50.0
100
AcDbPoint
 10
8223.599999999999
 20
8712.140975822261
 30
0.0
  0
POINT
  5
2299B
330
21B3A
100
AcDbEntity
  8
DEFPOINTS
 62
     0
 48
50.0
100
AcDbPoint
 10
8223.599999999999
 20
9058.153535465406
 30
0.0
  0
ENDBLK
  5
21B45
330
21B3A
100
AcDbEntity
  8
0
 48
50.0
100
AcDbBlockEnd
  0
BLOCK
  5
21B5C
330
21B52
100
AcDbEntity
  8
0
 48
50.0
100
AcDbBlockBegin
  2
*D36
 70
     1
 10
0.0
 20
0.0
 30
0.0
  3
*D36
  1

  0
LINE
  5
2299C
330
21B52
100
AcDbEntity
  8
寸法
 62
     0
 48
50.0
370
    -2
100
AcDbLine
 10
10014.59999999999
 20
8732.140975822261
 30
0.0
 11
10014.59999999999
 21
9118.153535465404
 31
0.0
  0
LINE
  5
2299D
330
21B52
100
AcDbEntity
  8
寸法
 62
     0
 48
50.0
370
    -2
100
AcDbLine
 10
9118.599999999995
 20
8732.140975822261
 30
0.0
 11
9118.599999999995
 21
9118.153535465404
 31
0.0
  0
LINE
  5
2299E
330
21B52
100
AcDbEntity
  8
寸法
 62
     0
 48
50.0
370
    -2
100
AcDbLine
 10
10014.59999999999
 20
9058.153535465406
 30
0.0
 11
9118.599999999995
 21
9058.153535465406
 31
0.0
  0
INSERT
  5
2299F
330
21B52
100
AcDbEntity
  8
寸法
 62
     0
 48
50.0
370
    -2
100
AcDbBlockReference
  2
_DOTSMALL
 10
10014.59999999999
 20
9058.153535465406
 30
0.0
 41
100.0
 42
100.0
 43
100.0
  0
INSERT
  5
229A0
330
21B52
100
AcDbEntity
  8
寸法
 62
     0
 48
50.0
370
    -2
100
AcDbBlockReference
  2
_DOTSMALL
 10
9118.599999999995
 20
9058.153535465406
 30
0.0
 41
100.0
 42
100.0
 43
100.0
 50
180.0
  0
MTEXT
  5
229A1
330
21B52
100
AcDbEntity
  8
寸法
 62
     7
 48
50.0
100
AcDbMText
 10
9566.599999999995
 20
9158.153535465405
 30
0.0
 40
120.0
 41
0.0
 71
     5
 72
     1
  1
\A1;896
  7
STYLE1
 73
     1
 44
1.0
1001
ACAD
1000
MTEXTBEGIN
1070
    73
1070
     1
1070
    44
1040
1.0
1070
    74
1070
     0
1000
MTEXTEND
  0
POINT
  5
229A2
330
21B52
100
AcDbEntity
  8
DEFPOINTS
 62
     0
 48
50.0
100
AcDbPoint
 10
10014.59999999999
 20
8712.140975822261
 30
0.0
  0
POINT
  5
229A3
330
21B52
100
AcDbEntity
  8
DEFPOINTS
 62
     0
 48
50.0
100
AcDbPoint
 10
9118.599999999995
 20
8712.140975822261
 30
0.0
  0
POINT
  5
229A4
330
21B52
100
AcDbEntity
  8
DEFPOINTS
 62
     0
 48
50.0
100
AcDbPoint
 10
9118.599999999995
 20
9058.153535465406
 30
0.0
  0
ENDBLK
  5
21B5D
330
21B52
100
AcDbEntity
  8
0
 48
50.0
100
AcDbBlockEnd
  0
BLOCK
  5
227BA
330
227B0
100
AcDbEntity
  8
0
 48
50.0
100
AcDbBlockBegin
  2
*D37
 70
     1
 10
0.0
 20
0.0
 30
0.0
  3
*D37
  1

  0
LINE
  5
2293E
330
227B0
100
AcDbEntity
  8
寸法
 62
     0
 48
50.0
370
    -2
100
AcDbLine
 10
8998.599999999994
 20
6080.140975822261
 30
0.0
 11
8693.531448609046
 21
6080.140975822261
 31
0.0
  0
LINE
  5
2293F
330
227B0
100
AcDbEntity
  8
寸法
 62
     0
 48
50.0
370
    -2
100
AcDbLine
 10
8998.599999999994
 20
6951.140975822276
 30
0.0
 11
8693.531448609046
 21
6951.140975822276
 31
0.0
  0
LINE
  5
22940
330
227B0
100
AcDbEntity
  8
寸法
 62
     0
 48
50.0
370
    -2
100
AcDbLine
 10
8753.531448609047
 20
6080.140975822261
 30
0.0
 11
8753.531448609047
 21
6951.140975822276
 31
0.0
  0
INSERT
  5
22941
330
227B0
100
AcDbEntity
  8
寸法
 62
     0
 48
50.0
370
    -2
100
AcDbBlockReference
  2
_DOTSMALL
 10
8753.531448609047
 20
6080.140975822261
 30
0.0
 41
100.0
 42
100.0
 43
100.0
 50
270.0
  0
INSERT
  5
22942
330
227B0
100
AcDbEntity
  8
寸法
 62
     0
 48
50.0
370
    -2
100
AcDbBlockReference
  2
_DOTSMALL
 10
8753.531448609047
 20
6951.140975822276
 30
0.0
 41
100.0
 42
100.0
 43
100.0
 50
90.0
  0
MTEXT
  5
22943
330
227B0
100
AcDbEntity
  8
寸法
 62
     7
 48
50.0
100
AcDbMText
 10
8653.531448609044
 20
6515.640975822269
 30
0.0
 40
120.0
 41
0.0
 71
     5
 72
     1
  1
\A1;871
  7
STYLE1
 11
0.0000000000000001
 21
1.0
 31
0.0
 73
     1
 44
1.0
1001
ACAD
1000
MTEXTBEGIN
1070
    73
1070
     1
1070
    44
1040
1.0
1070
    74
1070
     0
1000
MTEXTEND
  0
POINT
  5
22944
330
227B0
100
AcDbEntity
  8
DEFPOINTS
 62
     0
 48
50.0
100
AcDbPoint
 10
9018.599999999995
 20
6080.140975822261
 30
0.0
  0
POINT
  5
22945
330
227B0
100
AcDbEntity
  8
DEFPOINTS
 62
     0
 48
50.0
100
AcDbPoint
 10
9018.599999999995
 20
6951.140975822276
 30
0.0
  0
POINT
  5
22946
330
227B0
100
AcDbEntity
  8
DEFPOINTS
 62
     0
 48
50.0
100
AcDbPoint
 10
8753.531448609047
 20
6951.140975822276
 30
0.0
  0
ENDBLK
  5
227BB
330
227B0
100
AcDbEntity
  8
0
 48
50.0
100
AcDbBlockEnd
  0
BLOCK
  5
227C6
330
227BC
100
AcDbEntity
  8
0
 48
50.0
100
AcDbBlockBegin
  2
*D38
 70
     1
 10
0.0
 20
0.0
 30
0.0
  3
*D38
  1

  0
LINE
  5
22947
330
227BC
100
AcDbEntity
  8
寸法
 62
     0
 48
50.0
370
    -2
100
AcDbLine
 10
8998.599999999994
 20
7841.140975822263
 30
0.0
 11
8693.531448609046
 21
7841.140975822263
 31
0.0
  0
LINE
  5
22948
330
227BC
100
AcDbEntity
  8
寸法
 62
     0
 48
50.0
370
    -2
100
AcDbLine
 10
8998.599999999994
 20
6951.140975822276
 30
0.0
 11
8693.531448609046
 21
6951.140975822276
 31
0.0
  0
LINE
  5
22949
330
227BC
100
AcDbEntity
  8
寸法
 62
     0
 48
50.0
370
    -2
100
AcDbLine
 10
8753.531448609047
 20
7841.140975822263
 30
0.0
 11
8753.531448609047
 21
6951.140975822276
 31
0.0
  0
INSERT
  5
2294A
330
227BC
100
AcDbEntity
  8
寸法
 62
     0
 48
50.0
370
    -2
100
AcDbBlockReference
  2
_DOTSMALL
 10
8753.531448609047
 20
7841.140975822263
 30
0.0
 41
100.0
 42
100.0
 43
100.0
 50
90.0
  0
INSERT
  5
2294B
330
227BC
100
AcDbEntity
  8
寸法
 62
     0
 48
50.0
370
    -2
100
AcDbBlockReference
  2
_DOTSMALL
 10
8753.531448609047
 20
6951.140975822276
 30
0.0
 41
100.0
 42
100.0
 43
100.0
 50
270.0
  0
MTEXT
  5
2294C
330
227BC
100
AcDbEntity
  8
寸法
 62
     7
 48
50.0
100
AcDbMText
 10
8653.531448609044
 20
7396.140975822271
 30
0.0
 40
120.0
 41
0.0
 71
     5
 72
     1
  1
\A1;890
  7
STYLE1
 11
0.0000000000000001
 21
1.0
 31
0.0
 73
     1
 44
1.0
1001
ACAD
1000
MTEXTBEGIN
1070
    73
1070
     1
1070
    44
1040
1.0
1070
    74
1070
     0
1000
MTEXTEND
  0
POINT
  5
2294D
330
227BC
100
AcDbEntity
  8
DEFPOINTS
 62
     0
 48
50.0
100
AcDbPoint
 10
9018.599999999995
 20
7841.140975822263
 30
0.0
  0
POINT
  5
2294E
330
227BC
100
AcDbEntity
  8
DEFPOINTS
 62
     0
 48
50.0
100
AcDbPoint
 10
9018.599999999995
 20
6951.140975822276
 30
0.0
  0
POINT
  5
2294F
330
227BC
100
AcDbEntity
  8
DEFPOINTS
 62
     0
 48
50.0
100
AcDbPoint
 10
8753.531448609047
 20
6951.140975822276
 30
0.0
  0
ENDBLK
  5
227C7
330
227BC
100
AcDbEntity
  8
0
 48
50.0
100
AcDbBlockEnd
  0
BLOCK
  5
2281D
330
22813
100
AcDbEntity
  8
0
 48
50.0
100
AcDbBlockBegin
  2
*D39
 70
     1
 10
0.0
 20
0.0
 30
0.0
  3
*D39
  1

  0
LINE
  5
22935
330
22813
100
AcDbEntity
  8
寸法
 62
     0
 48
50.0
370
    -2
100
AcDbLine
 10
8998.599999999994
 20
8712.140975822261
 30
0.0
 11
8693.531448609046
 21
8712.140975822261
 31
0.0
  0
LINE
  5
22936
330
22813
100
AcDbEntity
  8
寸法
 62
     0
 48
50.0
370
    -2
100
AcDbLine
 10
8998.599999999994
 20
7841.140975822263
 30
0.0
 11
8693.531448609046
 21
7841.140975822263
 31
0.0
  0
LINE
  5
22937
330
22813
100
AcDbEntity
  8
寸法
 62
     0
 48
50.0
370
    -2
100
AcDbLine
 10
8753.531448609047
 20
8712.140975822261
 30
0.0
 11
8753.531448609047
 21
7841.140975822263
 31
0.0
  0
INSERT
  5
22938
330
22813
100
AcDbEntity
  8
寸法
 62
     0
 48
50.0
370
    -2
100
AcDbBlockReference
  2
_DOTSMALL
 10
8753.531448609047
 20
8712.140975822261
 30
0.0
 41
100.0
 42
100.0
 43
100.0
 50
90.0
  0
INSERT
  5
22939
330
22813
100
AcDbEntity
  8
寸法
 62
     0
 48
50.0
370
    -2
100
AcDbBlockReference
  2
_DOTSMALL
 10
8753.531448609047
 20
7841.140975822263
 30
0.0
 41
100.0
 42
100.0
 43
100.0
 50
270.0
  0
MTEXT
  5
2293A
330
22813
100
AcDbEntity
  8
寸法
 62
     7
 48
50.0
100
AcDbMText
 10
8653.531448609044
 20
8276.640975822264
 30
0.0
 40
120.0
 41
0.0
 71
     5
 72
     1
  1
\A1;871
  7
STYLE1
 11
0.0000000000000001
 21
1.0
 31
0.0
 73
     1
 44
1.0
1001
ACAD
1000
MTEXTBEGIN
1070
    73
1070
     1
1070
    44
1040
1.0
1070
    74
1070
     0
1000
MTEXTEND
  0
POINT
  5
2293B
330
22813
100
AcDbEntity
  8
DEFPOINTS
 62
     0
 48
50.0
100
AcDbPoint
 10
9018.599999999995
 20
8712.140975822261
 30
0.0
  0
POINT
  5
2293C
330
22813
100
AcDbEntity
  8
DEFPOINTS
 62
     0
 48
50.0
100
AcDbPoint
 10
9018.599999999995
 20
7841.140975822263
 30
0.0
  0
POINT
  5
2293D
330
22813
100
AcDbEntity
  8
DEFPOINTS
 62
     0
 48
50.0
100
AcDbPoint
 10
8753.531448609047
 20
7841.140975822263
 30
0.0
  0
ENDBLK
  5
2281E
330
22813
100
AcDbEntity
  8
0
 48
50.0
100
AcDbBlockEnd
  0
BLOCK
  5
232CE
330
232C4
100
AcDbEntity
  8
0
 48
50.0
100
AcDbBlockBegin
  2
*D40
 70
     1
 10
0.0
 20
0.0
 30
0.0
  3
*D40
  1

  0
LINE
  5
23300
330
232C4
100
AcDbEntity
  8
寸法
 62
     0
 48
50.0
370
    -2
100
AcDbLine
 10
2896.319460875799
 20
1140.760787611746
 30
0.0
 11
2762.98971380027
 21
1140.760787611746
 31
0.0
  0
LINE
  5
23301
330
232C4
100
AcDbEntity
  8
寸法
 62
     0
 48
50.0
370
    -2
100
AcDbLine
 10
3046.319460875799
 20
740.7607876117463
 30
0.0
 11
2762.989713800269
 21
740.7607876117464
 31
0.0
  0
LINE
  5
23302
330
232C4
100
AcDbEntity
  8
寸法
 62
     0
 48
50.0
370
    -2
100
AcDbLine
 10
2822.98971380027
 20
1140.760787611746
 30
0.0
 11
2822.989713800269
 21
740.7607876117463
 31
0.0
  0
INSERT
  5
23303
330
232C4
100
AcDbEntity
  8
寸法
 62
     0
 48
50.0
370
    -2
100
AcDbBlockReference
  2
_DOTSMALL
 10
2822.98971380027
 20
1140.760787611746
 30
0.0
 41
100.0
 42
100.0
 43
100.0
 50
90.0
  0
INSERT
  5
23304
330
232C4
100
AcDbEntity
  8
寸法
 62
     0
 48
50.0
370
    -2
100
AcDbBlockReference
  2
_DOTSMALL
 10
2822.989713800269
 20
740.7607876117463
 30
0.0
 41
100.0
 42
100.0
 43
100.0
 50
270.0
  0
MTEXT
  5
23305
330
232C4
100
AcDbEntity
  8
寸法
 62
     7
 48
50.0
100
AcDbMText
 10
2722.977902776647
 20
928.3854207276519
 30
0.0
 40
120.0
 41
0.0
 71
     5
 72
     1
  1
\A1;200
  7
STYLE1
 11
0.0000000000000001
 21
1.0
 31
0.0
 73
     1
 44
1.0
1001
ACAD
1000
MTEXTBEGIN
1070
    73
1070
     1
1070
    44
1040
1.0
1070
    74
1070
     0
1000
MTEXTEND
  0
POINT
  5
23306
330
232C4
100
AcDbEntity
  8
DEFPOINTS
 62
     0
 48
50.0
100
AcDbPoint
 10
2916.319460875799
 20
1140.760787611746
 30
0.0
  0
POINT
  5
23307
330
232C4
100
AcDbEntity
  8
DEFPOINTS
 62
     0
 48
50.0
100
AcDbPoint
 10
3066.319460875799
 20
740.7607876117463
 30
0.0
  0
POINT
  5
23308
330
232C4
100
AcDbEntity
  8
DEFPOINTS
 62
     0
 48
50.0
100
AcDbPoint
 10
2822.989713800269
 20
740.7607876117463
 30
0.0
  0
ENDBLK
  5
232CF
330
232C4
100
AcDbEntity
  8
0
 48
50.0
100
AcDbBlockEnd
  0
BLOCK
  5
232DA
330
232D0
100
AcDbEntity
  8
0
 48
50.0
100
AcDbBlockBegin
  2
*D41
 70
     1
 10
0.0
 20
0.0
 30
0.0
  3
*D41
  1

  0
LINE
  5
23309
330
232D0
100
AcDbEntity
  8
寸法
 62
     0
 48
50.0
370
    -2
100
AcDbLine
 10
4865.356359188783
 20
1340.760787611755
 30
0.0
 11
5153.427363549177
 21
1340.760787611755
 31
0.0
  0
LINE
  5
2330A
330
232D0
100
AcDbEntity
  8
寸法
 62
     0
 48
50.0
370
    -2
100
AcDbLine
 10
4865.356359188785
 20
1140.760787611754
 30
0.0
 11
5153.427363549177
 21
1140.760787611754
 31
0.0
  0
LINE
  5
2330B
330
232D0
100
AcDbEntity
  8
寸法
 62
     0
 48
50.0
370
    -2
100
AcDbLine
 10
5093.427363549177
 20
1340.760787611755
 30
0.0
 11
5093.427363549177
 21
1140.760787611754
 31
0.0
  0
INSERT
  5
2330C
330
232D0
100
AcDbEntity
  8
寸法
 62
     0
 48
50.0
370
    -2
100
AcDbBlockReference
  2
_DOTSMALL
 10
5093.427363549177
 20
1340.760787611755
 30
0.0
 41
100.0
 42
100.0
 43
100.0
 50
90.0
  0
INSERT
  5
2330D
330
232D0
100
AcDbEntity
  8
寸法
 62
     0
 48
50.0
370
    -2
100
AcDbBlockReference
  2
_DOTSMALL
 10
5093.427363549177
 20
1140.760787611754
 30
0.0
 41
100.0
 42
100.0
 43
100.0
 50
270.0
  0
MTEXT
  5
2330E
330
232D0
100
AcDbEntity
  8
寸法
 62
     7
 48
50.0
100
AcDbMText
 10
4993.427363549177
 20
1240.760787611756
 30
0.0
 40
120.0
 41
0.0
 71
     5
 72
     1
  1
\A1;a
  7
STYLE1
 11
0.0000000000000001
 21
1.0
 31
0.0
 73
     1
 44
1.0
1001
ACAD
1000
MTEXTBEGIN
1070
    73
1070
     1
1070
    44
1040
1.0
1070
    74
1070
     0
1000
MTEXTEND
  0
POINT
  5
2330F
330
232D0
100
AcDbEntity
  8
DEFPOINTS
 62
     0
 48
50.0
100
AcDbPoint
 10
4845.356359188784
 20
1340.760787611755
 30
0.0
  0
POINT
  5
23310
330
232D0
100
AcDbEntity
  8
DEFPOINTS
 62
     0
 48
50.0
100
AcDbPoint
 10
4845.356359188785
 20
1140.760787611754
 30
0.0
  0
POINT
  5
23311
330
232D0
100
AcDbEntity
  8
DEFPOINTS
 62
     0
 48
50.0
100
AcDbPoint
 10
5093.427363549177
 20
1140.760787611754
 30
0.0
  0
ENDBLK
  5
232DB
330
232D0
100
AcDbEntity
  8
0
 48
50.0
100
AcDbBlockEnd
  0
BLOCK
  5
232E6
330
232DC
100
AcDbEntity
  8
0
 48
50.0
100
AcDbBlockBegin
  2
*D42
 70
     1
 10
0.0
 20
0.0
 30
0.0
  3
*D42
  1

  0
LINE
  5
23312
330
232DC
100
AcDbEntity
  8
寸法
 62
     0
 48
50.0
370
    -2
100
AcDbLine
 10
11178.85555682453
 20
1438.690833376044
 30
0.0
 11
11421.49111054165
 21
1438.690833376044
 31
0.0
  0
LINE
  5
23313
330
232DC
100
AcDbEntity
  8
寸法
 62
     0
 48
50.0
370
    -2
100
AcDbLine
 10
11208.74446491486
 20
1138.690833376044
 30
0.0
 11
11421.49111054165
 21
1138.690833376044
 31
0.0
  0
LINE
  5
23314
330
232DC
100
AcDbEntity
  8
寸法
 62
     0
 48
50.0
370
    -2
100
AcDbLine
 10
11361.49111054165
 20
1438.690833376044
 30
0.0
 11
11361.49111054165
 21
1138.690833376044
 31
0.0
  0
INSERT
  5
23315
330
232DC
100
AcDbEntity
  8
寸法
 62
     0
 48
50.0
370
    -2
100
AcDbBlockReference
  2
_DOTSMALL
 10
11361.49111054165
 20
1438.690833376044
 30
0.0
 41
100.0
 42
100.0
 43
100.0
 50
90.0
  0
INSERT
  5
23316
330
232DC
100
AcDbEntity
  8
寸法
 62
     0
 48
50.0
370
    -2
100
AcDbBlockReference
  2
_DOTSMALL
 10
11361.49111054165
 20
1138.690833376044
 30
0.0
 41
100.0
 42
100.0
 43
100.0
 50
270.0
  0
MTEXT
  5
23317
330
232DC
100
AcDbEntity
  8
寸法
 62
     7
 48
50.0
100
AcDbMText
 10
11261.49111054165
 20
1288.690833376046
 30
0.0
 40
120.0
 41
0.0
 71
     5
 72
     1
  1
\A1;c
  7
STYLE1
 11
0.0000000000000001
 21
1.0
 31
0.0
 73
     1
 44
1.0
1001
ACAD
1000
MTEXTBEGIN
1070
    73
1070
     1
1070
    44
1040
1.0
1070
    74
1070
     0
1000
MTEXTEND
  0
POINT
  5
23318
330
232DC
100
AcDbEntity
  8
DEFPOINTS
 62
     0
 48
50.0
100
AcDbPoint
 10
11158.85555682453
 20
1438.690833376044
 30
0.0
  0
POINT
  5
23319
330
232DC
100
AcDbEntity
  8
DEFPOINTS
 62
     0
 48
50.0
100
AcDbPoint
 10
11188.74446491486
 20
1138.690833376044
 30
0.0
  0
POINT
  5
2331A
330
232DC
100
AcDbEntity
  8
DEFPOINTS
 62
     0
 48
50.0
100
AcDbPoint
 10
11361.49111054165
 20
1138.690833376044
 30
0.0
  0
ENDBLK
  5
232E7
330
232DC
100
AcDbEntity
  8
0
 48
50.0
100
AcDbBlockEnd
  0
BLOCK
  5
232F2
330
232E8
100
AcDbEntity
  8
0
 48
50.0
100
AcDbBlockBegin
  2
*D43
 70
     1
 10
0.0
 20
0.0
 30
0.0
  3
*D43
  1

  0
LINE
  5
2331B
330
232E8
100
AcDbEntity
  8
寸法
 62
     0
 48
50.0
370
    -2
100
AcDbLine
 10
8078.96262330739
 20
1340.760787611756
 30
0.0
 11
8341.175870770291
 21
1340.760787611756
 31
0.0
  0
LINE
  5
2331C
330
232E8
100
AcDbEntity
  8
寸法
 62
     0
 48
50.0
370
    -2
100
AcDbLine
 10
8098.411860201881
 20
1140.760787611754
 30
0.0
 11
8341.175870770291
 21
1140.760787611754
 31
0.0
  0
LINE
  5
2331D
330
232E8
100
AcDbEntity
  8
寸法
 62
     0
 48
50.0
370
    -2
100
AcDbLine
 10
8281.17587077029
 20
1340.760787611756
 30
0.0
 11
8281.17587077029
 21
1140.760787611754
 31
0.0
  0
INSERT
  5
2331E
330
232E8
100
AcDbEntity
  8
寸法
 62
     0
 48
50.0
370
    -2
100
AcDbBlockReference
  2
_DOTSMALL
 10
8281.17587077029
 20
1340.760787611756
 30
0.0
 41
100.0
 42
100.0
 43
100.0
 50
90.0
  0
INSERT
  5
2331F
330
232E8
100
AcDbEntity
  8
寸法
 62
     0
 48
50.0
370
    -2
100
AcDbBlockReference
  2
_DOTSMALL
 10
8281.17587077029
 20
1140.760787611754
 30
0.0
 41
100.0
 42
100.0
 43
100.0
 50
270.0
  0
MTEXT
  5
23320
330
232E8
100
AcDbEntity
  8
寸法
 62
     7
 48
50.0
100
AcDbMText
 10
8181.175870770291
 20
1240.760787611757
 30
0.0
 40
120.0
 41
0.0
 71
     5
 72
     1
  1
\A1;b
  7
STYLE1
 11
0.0000000000000001
 21
1.0
 31
0.0
 73
     1
 44
1.0
1001
ACAD
1000
MTEXTBEGIN
1070
    73
1070
     1
1070
    44
1040
1.0
1070
    74
1070
     0
1000
MTEXTEND
  0
POINT
  5
23321
330
232E8
100
AcDbEntity
  8
DEFPOINTS
 62
     0
 48
50.0
100
AcDbPoint
 10
8058.96262330739
 20
1340.760787611756
 30
0.0
  0
POINT
  5
23322
330
232E8
100
AcDbEntity
  8
DEFPOINTS
 62
     0
 48
50.0
100
AcDbPoint
 10
8078.41186020188
 20
1140.760787611754
 30
0.0
  0
POINT
  5
23323
330
232E8
100
AcDbEntity
  8
DEFPOINTS
 62
     0
 48
50.0
100
AcDbPoint
 10
8281.17587077029
 20
1140.760787611754
 30
0.0
  0
ENDBLK
  5
232F3
330
232E8
100
AcDbEntity
  8
0
 48
50.0
100
AcDbBlockEnd
  0
BLOCK
  5
232FE
330
232F4
100
AcDbEntity
  8
0
 48
50.0
100
AcDbBlockBegin
  2
*D44
 70
     1
 10
0.0
 20
0.0
 30
0.0
  3
*D44
  1

  0
LINE
  5
23324
330
232F4
100
AcDbEntity
  8
寸法
 62
     0
 48
50.0
370
    -2
100
AcDbLine
 10
4425.356359188781
 20
1140.760787611754
 30
0.0
 11
4292.026612113252
 21
1140.760787611754
 31
0.0
  0
LINE
  5
23325
330
232F4
100
AcDbEntity
  8
寸法
 62
     0
 48
50.0
370
    -2
100
AcDbLine
 10
4575.356359188782
 20
740.7607876117545
 30
0.0
 11
4292.026612113252
 21
740.7607876117546
 31
0.0
  0
LINE
  5
23326
330
232F4
100
AcDbEntity
  8
寸法
 62
     0
 48
50.0
370
    -2
100
AcDbLine
 10
4352.026612113252
 20
1140.760787611754
 30
0.0
 11
4352.026612113252
 21
740.7607876117545
 31
0.0
  0
INSERT
  5
23327
330
232F4
100
AcDbEntity
  8
寸法
 62
     0
 48
50.0
370
    -2
100
AcDbBlockReference
  2
_DOTSMALL
 10
4352.026612113252
 20
1140.760787611754
 30
0.0
 41
100.0
 42
100.0
 43
100.0
 50
90.0
  0
INSERT
  5
23328
330
232F4
100
AcDbEntity
  8
寸法
 62
     0
 48
50.0
370
    -2
100
AcDbBlockReference
  2
_DOTSMALL
 10
4352.026612113252
 20
740.7607876117545
 30
0.0
 41
100.0
 42
100.0
 43
100.0
 50
270.0
  0
MTEXT
  5
23329
330
232F4
100
AcDbEntity
  8
寸法
 62
     7
 48
50.0
100
AcDbMText
 10
4252.01480108963
 20
928.3854207276599
 30
0.0
 40
120.0
 41
0.0
 71
     5
 72
     1
  1
\A1;200
  7
STYLE1
 11
0.0000000000000001
 21
1.0
 31
0.0
 73
     1
 44
1.0
1001
ACAD
1000
MTEXTBEGIN
1070
    73
1070
     1
1070
    44
1040
1.0
1070
    74
1070
     0
1000
MTEXTEND
  0
POINT
  5
2332A
330
232F4
100
AcDbEntity
  8
DEFPOINTS
 62
     0
 48
50.0
100
AcDbPoint
 10
4445.356359188781
 20
1140.760787611754
 30
0.0
  0
POINT
  5
2332B
330
232F4
100
AcDbEntity
  8
DEFPOINTS
 62
     0
 48
50.0
100
AcDbPoint
 10
4595.356359188781
 20
740.7607876117545
 30
0.0
  0
POINT
  5
2332C
330
232F4
100
AcDbEntity
  8
DEFPOINTS
 62
     0
 48
50.0
100
AcDbPoint
 10
4352.026612113252
 20
740.7607876117545
 30
0.0
  0
ENDBLK
  5
232FF
330
232F4
100
AcDbEntity
  8
0
 48
50.0
100
AcDbBlockEnd
  0
BLOCK
  5
23390
330
23384
100
AcDbEntity
  8
0
 48
50.0
100
AcDbBlockBegin
  2
*D46
 70
     1
 10
0.0
 20
0.0
 30
0.0
  3
*D46
  1

  0
LINE
  5
233A8
330
23384
100
AcDbEntity
  8
寸法
 62
     0
 48
50.0
370
    -2
100
AcDbLine
 10
8215.6
 20
6005.140975822262
 30
0.0
 11
8617.661275956372
 21
6005.140975822262
 31
0.0
  0
LINE
  5
233A9
330
23384
100
AcDbEntity
  8
寸法
 62
     0
 48
50.0
370
    -2
100
AcDbLine
 10
8443.599999999999
 20
6080.140975822263
 30
0.0
 11
8617.661275956372
 21
6080.140975822263
 31
0.0
  0
LINE
  5
233AA
330
23384
100
AcDbEntity
  8
寸法
 62
     0
 48
50.0
370
    -2
100
AcDbLine
 10
8557.661275956373
 20
6080.140975822263
 30
0.0
 11
8557.661275956373
 21
6180.140975822262
 31
0.0
  0
LINE
  5
233AB
330
23384
100
AcDbEntity
  8
寸法
 62
     0
 48
50.0
370
    -2
100
AcDbLine
 10
8557.661275956373
 20
6005.140975822262
 30
0.0
 11
8557.661275956373
 21
5138.170413073784
 31
0.0
  0
LINE
  5
233AC
330
23384
100
AcDbEntity
  8
寸法
 62
     0
 48
50.0
370
    -2
100
AcDbLine
 10
8557.661275956373
 20
6080.140975822263
 30
0.0
 11
8557.661275956373
 21
6005.140975822262
 31
0.0
  0
INSERT
  5
233AD
330
23384
100
AcDbEntity
  8
寸法
 62
     0
 48
50.0
370
    -2
100
AcDbBlockReference
  2
_DOTSMALL
 10
8557.661275956373
 20
6080.140975822263
 30
0.0
 41
100.0
 42
100.0
 43
100.0
 50
270.0
  0
INSERT
  5
233AE
330
23384
100
AcDbEntity
  8
寸法
 62
     0
 48
50.0
370
    -2
100
AcDbBlockReference
  2
_DOTSMALL
 10
8557.661275956373
 20
6005.140975822262
 30
0.0
 41
100.0
 42
100.0
 43
100.0
 50
90.0
  0
MTEXT
  5
233AF
330
23384
100
AcDbEntity
  8
寸法
 62
     7
 48
50.0
100
AcDbMText
 10
8457.66127595637
 20
5471.655694448024
 30
0.0
 40
120.0
 41
0.0
 71
     5
 72
     1
  1
\A1;扉の出75
  7
STYLE1
 11
0.0000000000000001
 21
1.0
 31
0.0
 73
     1
 44
1.0
1001
ACAD
1000
MTEXTBEGIN
1070
    73
1070
     1
1070
    44
1040
1.0
1070
    74
1070
     0
1000
MTEXTEND
  0
POINT
  5
233B0
330
23384
100
AcDbEntity
  8
DEFPOINTS
 62
     0
 48
50.0
100
AcDbPoint
 10
8195.599999999998
 20
6005.140975822262
 30
0.0
  0
POINT
  5
233B1
330
23384
100
AcDbEntity
  8
DEFPOINTS
 62
     0
 48
50.0
100
AcDbPoint
 10
8423.599999999998
 20
6080.140975822263
 30
0.0
  0
POINT
  5
233B2
330
23384
100
AcDbEntity
  8
DEFPOINTS
 62
     0
 48
50.0
100
AcDbPoint
 10
8557.661275956373
 20
6080.140975822263
 30
0.0
  0
ENDBLK
  5
23391
330
23384
100
AcDbEntity
  8
0
 48
50.0
100
AcDbBlockEnd
  0
ENDSEC
  0
SECTION
  2
ENTITIES
  0
LINE
  5
10B57
330
747D
100
AcDbEntity
  8
補助
  6
PHANTOM
 62
   230
 48
50.0
100
AcDbLine
 10
139.9999999999995
 20
11409.6
 30
0.0
 11
16307.2
 21
11409.6
 31
0.0
  0
LINE
  5
10B5D
330
747D
100
AcDbEntity
  8
仕様書枠
 48
50.0
100
AcDbLine
 10
140.0
 20
0.0
 30
0.0
 11
16307.2
 21
-0.0000000000000909
 31
0.0
  0
LINE
  5
10B5E
330
747D
100
AcDbEntity
  8
補助
  6
PHANTOM
 62
   230
 48
50.0
100
AcDbLine
 10
16307.2
 20
11409.6
 30
0.0
 11
16307.2
 21
1200.0
 31
0.0
  0
LINE
  5
10B6D
330
747D
100
AcDbEntity
  8
補助
  6
PHANTOM
 62
   230
 48
50.0
100
AcDbLine
 10
13107.2
 20
11409.6
 30
0.0
 11
13107.2
 21
4800.0
 31
0.0
  0
LINE
  5
10B6F
330
747D
100
AcDbEntity
  8
補助
  6
PHANTOM
 62
   230
 48
50.0
100
AcDbLine
 10
13107.2
 20
4800.0
 30
0.0
 11
16307.2
 21
4800.0
 31
0.0
  0
TEXT
  5
1C9B2
330
747D
100
AcDbEntity
  8
部品1
 48
50.0
100
AcDbText
 10
10382.36733715367
 20
7616.900872411972
 30
0.0
 40
80.0
  1
(a=50,b=60,c=80)
  7
STYLE1
100
AcDbText
  0
TEXT
  5
1C9B3
330
747D
100
AcDbEntity
  8
部品1
 48
50.0
100
AcDbText
 10
10268.66709642772
 20
7750.457398497916
 30
0.0
 40
80.0
  1
※a,b,cは屋根の出幅です。
  7
STYLE1
100
AcDbText
  0
MTEXT
  5
1C9B4
102
{ACAD_REACTORS
330
1C9B5
102
}
330
747D
100
AcDbEntity
  8
部品1
 62
     7
 48
50.0
100
AcDbMText
 10
11134.83718660449
 20
7962.125298697381
 30
0.0
 40
120.0
 41
0.0
 71
     6
 72
     1
  1
\A1;屋根の外寸
  7
STYLE1
 73
     1
 44
1.0
1001
ACAD
1000
MTEXTBEGIN
1070
    73
1070
     1
1070
    44
1040
1.0
1070
    74
1070
     0
1000
MTEXTEND
  0
LEADER
  5
1C9B5
330
747D
100
AcDbEntity
  8
寸法
 48
50.0
100
AcDbLeader
  3
INABA_S50G
 71
     0
 73
     0
 74
     0
 75
     1
 40
120.0
 41
672.0
 76
     3
 10
10064.6
 20
8257.142690657174
 30
0.0
 10
10312.83718660449
 20
7877.125298697382
 30
0.0
 10
10437.83718660449
 20
7877.125298697382
 30
0.0
340
1C9B4
1001
ACAD
1000
DSTYLE
1002
{
1070
   341
1005
1C530
1070
    40
1040
1.0
1070
   343
1005
1C530
1070
   344
1005
1C530
1002
}
  0
LINE
  5
1C9BB
330
747D
100
AcDbEntity
  8
想像線
 48
10.0
100
AcDbLine
 10
10064.6
 20
6020.140975822255
 30
0.0
 11
6382.599999999999
 21
6020.140975822262
 31
0.0
  0
LINE
  5
1C9BC
330
747D
100
AcDbEntity
  8
想像線
 48
10.0
100
AcDbLine
 10
6382.6
 20
8792.140975822258
 30
0.0
 11
10064.59999999999
 21
8792.140975822261
 31
0.0
  0
LINE
  5
1CAB9
330
747D
100
AcDbEntity
  8
想像線
 48
10.0
100
AcDbLine
 10
6382.599999999999
 20
6020.140975822264
 30
0.0
 11
6382.6
 21
8792.140975822258
 31
0.0
  0
LINE
  5
1CCF0
330
747D
100
AcDbEntity
  8
想像線
 48
10.0
100
AcDbLine
 10
10064.59999999999
 20
8792.140975822261
 30
0.0
 11
10064.6
 21
6020.140975822254
 31
0.0
  0
LEADER
  5
1EB63
330
747D
100
AcDbEntity
  8
寸法
 48
50.0
100
AcDbLeader
  3
INABA_S50G
 71
     0
 73
     0
 74
     0
 75
     1
 40
120.0
 41
1282.349242404918
 76
     3
 10
10109.44068557283
 20
8701.597615110186
 30
0.0
 10
10365.82789715523
 20
8897.941552726328
 30
0.0
 10
10490.82789715523
 20
8897.941552726328
 30
0.0
340
1EB64
1001
ACAD
1000
DSTYLE
1002
{
1070
   341
1005
1C530
1070
    40
1040
1.0
1070
   343
1005
1C530
1070
   344
1005
1C530
1002
}
  0
MTEXT
  5
1EB64
102
{ACAD_REACTORS
330
1EB63
102
}
330
747D
100
AcDbEntity
  8
部品1
 62
     7
 48
50.0
100
AcDbMText
 10
10515.82789715524
 20
8982.941552726327
 30
0.0
 40
120.0
 41
0.0
 71
     4
 72
     1
  1
現場打コンクリート
  7
STYLE1
 73
     1
 44
1.0
1001
ACAD
1000
MTEXTBEGIN
1070
    73
1070
     1
1070
    44
1040
1.0
1070
    74
1070
     0
1000
MTEXTEND
  0
TEXT
  5
1EB65
330
747D
100
AcDbEntity
  8
部品1
 48
50.0
100
AcDbText
 10
10523.95182925034
 20
9109.419141198403
 30
0.0
 40
120.0
  1
組立後
  7
STYLE1
100
AcDbText
  0
TEXT
  5
1F34D
330
747D
100
AcDbEntity
  8
文字
 48
50.0
100
AcDbText
 10
6740.763301237056
 20
8203.847554342235
 30
0.0
 40
120.0
  1
100x190x390
  7
STYLE1
100
AcDbText
  0
MTEXT
  5
1F34E
102
{ACAD_REACTORS
330
1F34F
102
}
330
747D
100
AcDbEntity
  8
部品1
 62
     7
 48
50.0
100
AcDbMText
 10
6879.704486101592
 20
8456.346153835857
 30
0.0
 40
120.0
 41
0.0
 71
     4
 72
     1
  1
\A1;C.B
  7
STYLE1
 73
     1
 44
1.0
1001
ACAD
1000
MTEXTBEGIN
1070
    73
1070
     1
1070
    44
1040
1.0
1070
    74
1070
     0
1000
MTEXTEND
  0
LEADER
  5
1F34F
330
747D
100
AcDbEntity
  8
寸法
 48
50.0
100
AcDbLeader
  3
INABA_S50G
 71
     0
 73
     0
 74
     0
 75
     1
 40
120.0
 41
185.591883092037
 76
     3
 10
6661.327772878287
 20
8580.215486960737
 30
0.0
 10
6729.70448610159
 20
8371.346153835856
 30
0.0
 10
6854.704486101592
 20
8371.346153835856
 30
0.0
340
1F34E
1001
ACAD
1000
DSTYLE
1002
{
1070
   341
1005
1C530
1070
    40
1040
1.0
1070
   343
1005
1C530
1070
   344
1005
1C530
1002
}
  0
TEXT
  5
1F6EC
330
747D
100
AcDbEntity
  8
文字
 48
50.0
100
AcDbText
 10
10546.8664264809
 20
8707.504505210202
 30
0.0
 40
120.0
  1
深サ:200
  7
STYLE1
100
AcDbText
  0
LINE
  5
20293
330
747D
100
AcDbEntity
  8
補助
  6
PHANTOM
 62
   230
 48
50.0
100
AcDbLine
 10
140.0
 20
0.0
 30
0.0
 11
139.9999999999995
 21
11409.6
 31
0.0
  0
DIMENSION
  5
203B0
330
747D
100
AcDbEntity
  8
寸法
 48
50.0
100
AcDbDimension
  2
*D24
 10
5791.888116550748
 20
6080.140975822263
 30
0.0
 11
5691.876305527125
 21
7396.140975822264
 31
0.0
 70
    32
 71
     5
 42
2632.0
  3
INABA_S40G
100
AcDbAlignedDimension
 13
6432.6
 23
8712.140975822261
 33
0.0
 14
6432.6
 24
6080.140975822262
 34
0.0
 50
90.0
100
AcDbRotatedDimension
1001
ACAD
1000
DSTYLE
1002
{
1070
   174
1070
     0
1070
   272
1070
     1
1070
   288
1070
     0
1070
   341
1005
0
1002
}
  0
DIMENSION
  5
203B6
330
747D
100
AcDbEntity
  8
寸法
 48
50.0
100
AcDbDimension
  2
*D25
 10
9914.6
 20
5651.942294736611
 30
0.0
 11
10364.17086614173
 21
5651.942294736611
 31
0.0
 70
   160
 71
     5
 42
200.0
  3
INABA_S40G
100
AcDbAlignedDimension
 13
10114.6
 23
5980.140975822259
 33
0.0
 14
9914.6
 24
5980.140975822259
 34
0.0
100
AcDbRotatedDimension
1001
ACAD
1000
DSTYLE
1002
{
1070
   174
1070
     0
1070
   272
1070
     1
1070
   288
1070
     0
1070
   341
1005
0
1002
}
  0
LINE
  5
203BF
330
747D
100
AcDbEntity
  8
部品1
 48
50.0
100
AcDbLine
 10
6432.6
 20
6280.140975822262
 30
0.0
 11
6432.6
 21
6080.140975822262
 31
0.0
  0
LINE
  5
203C0
330
747D
100
AcDbEntity
  8
部品1
 48
50.0
100
AcDbLine
 10
6832.600000000001
 20
6280.140975822262
 30
0.0
 11
6832.600000000001
 21
6080.140975822262
 31
0.0
  0
LINE
  5
203C1
330
747D
100
AcDbEntity
  8
部品1
 48
50.0
100
AcDbLine
 10
6832.600000000001
 20
6080.140975822262
 30
0.0
 11
6432.6
 21
6080.140975822262
 31
0.0
  0
LINE
  5
203C2
330
747D
100
AcDbEntity
  8
部品1
 48
50.0
100
AcDbLine
 10
6832.600000000001
 20
6080.140975822265
 30
0.0
 11
6432.6
 21
6080.140975822262
 31
0.0
  0
LINE
  5
203C3
330
747D
100
AcDbEntity
  8
点線
 48
10.0
100
AcDbLine
 10
6532.600000000001
 20
5980.140975822255
 30
0.0
 11
6332.600000000001
 21
5980.140975822255
 31
0.0
  0
LINE
  5
203C4
330
747D
100
AcDbEntity
  8
点線
 48
10.0
100
AcDbLine
 10
6532.600000000001
 20
6180.140975822254
 30
0.0
 11
6332.600000000001
 21
6180.140975822254
 31
0.0
  0
LINE
  5
203C5
330
747D
100
AcDbEntity
  8
点線
 48
10.0
100
AcDbLine
 10
6332.600000000001
 20
6180.140975822254
 30
0.0
 11
6332.600000000001
 21
5980.140975822255
 31
0.0
  0
LINE
  5
203C6
330
747D
100
AcDbEntity
  8
点線
 48
10.0
100
AcDbLine
 10
6532.600000000001
 20
6180.140975822254
 30
0.0
 11
6532.600000000001
 21
5980.140975822255
 31
0.0
  0
LINE
  5
203C9
330
747D
100
AcDbEntity
  8
部品1
 48
50.0
100
AcDbLine
 10
6832.600000000001
 20
6280.140975822262
 30
0.0
 11
6432.6
 21
6280.140975822262
 31
0.0
  0
LINE
  5
203E7
330
747D
100
AcDbEntity
  8
部品1
 48
50.0
100
AcDbLine
 10
9614.600000000001
 20
6280.140975822262
 30
0.0
 11
9614.600000000001
 21
6080.140975822262
 31
0.0
  0
LINE
  5
203E8
330
747D
100
AcDbEntity
  8
部品1
 48
50.0
100
AcDbLine
 10
10014.6
 20
6280.140975822262
 30
0.0
 11
10014.6
 21
6080.140975822262
 31
0.0
  0
DIMENSION
  5
203E9
330
747D
100
AcDbEntity
  8
寸法
 48
50.0
100
AcDbDimension
  2
*D26
 10
10414.23045670601
 20
5980.140975822258
 30
0.0
 11
10414.23045670601
 21
6429.711841963992
 31
0.0
 70
   160
 71
     5
 42
200.0
  3
INABA_S40G
100
AcDbAlignedDimension
 13
10114.6
 23
6180.140975822258
 33
0.0
 14
10114.6
 24
5980.140975822259
 34
0.0
 50
90.0
100
AcDbRotatedDimension
1001
ACAD
1000
DSTYLE
1002
{
1070
   174
1070
     0
1070
   272
1070
     1
1070
   288
1070
     0
1070
   341
1005
0
1002
}
  0
LINE
  5
203EA
330
747D
100
AcDbEntity
  8
部品1
 48
50.0
100
AcDbLine
 10
9614.600000000001
 20
6080.140975822265
 30
0.0
 11
10014.6
 21
6080.140975822262
 31
0.0
  0
LINE
  5
203EC
330
747D
100
AcDbEntity
  8
点線
 48
10.0
100
AcDbLine
 10
10114.6
 20
6180.140975822254
 30
0.0
 11
10114.6
 21
5980.140975822255
 31
0.0
  0
LINE
  5
203ED
330
747D
100
AcDbEntity
  8
点線
 48
10.0
100
AcDbLine
 10
9914.6
 20
6180.140975822254
 30
0.0
 11
9914.6
 21
5980.140975822255
 31
0.0
  0
LINE
  5
203EE
330
747D
100
AcDbEntity
  8
点線
 48
10.0
100
AcDbLine
 10
9914.6
 20
5980.140975822255
 30
0.0
 11
10114.6
 21
5980.140975822255
 31
0.0
  0
LINE
  5
203EF
330
747D
100
AcDbEntity
  8
点線
 48
10.0
100
AcDbLine
 10
9914.6
 20
6180.140975822254
 30
0.0
 11
10114.6
 21
6180.140975822254
 31
0.0
  0
LINE
  5
203F0
330
747D
100
AcDbEntity
  8
部品1
 48
50.0
100
AcDbLine
 10
9614.600000000001
 20
6280.140975822262
 30
0.0
 11
10014.6
 21
6280.140975822262
 31
0.0
  0
DIMENSION
  5
203F6
330
747D
100
AcDbEntity
  8
寸法
 48
50.0
100
AcDbDimension
  2
*D27
 10
10014.6
 20
9304.553563493882
 30
0.0
 11
8223.600000000001
 21
9404.565374517504
 31
0.0
 70
    32
 71
     5
 42
3582.0
  3
INABA_S40G
100
AcDbAlignedDimension
 13
6432.6
 23
8712.140975822261
 33
0.0
 14
10014.6
 24
8712.140975822261
 34
0.0
100
AcDbRotatedDimension
1001
ACAD
1000
DSTYLE
1002
{
1070
   174
1070
     0
1070
   272
1070
     1
1070
   288
1070
     0
1070
   341
1005
0
1002
}
  0
DIMENSION
  5
203F8
330
747D
100
AcDbEntity
  8
寸法
 48
50.0
100
AcDbDimension
  2
*D28
 10
7328.599999999998
 20
9058.153535465406
 30
0.0
 11
7776.099999999998
 21
9158.153535465405
 31
0.0
 70
    32
 71
     5
 42
895.0
  3
INABA_S40G
100
AcDbAlignedDimension
 13
8223.599999999999
 23
8712.140975822261
 33
0.0
 14
7328.599999999998
 24
8712.140975822261
 34
0.0
100
AcDbRotatedDimension
1001
ACAD
1000
DSTYLE
1002
{
1070
   174
1070
     0
1070
   272
1070
     1
1070
   288
1070
     0
1070
   341
1005
0
1002
}
  0
DIMENSION
  5
203F9
330
747D
100
AcDbEntity
  8
寸法
 48
50.0
100
AcDbDimension
  2
*D29
 10
6432.6
 20
9058.153535465406
 30
0.0
 11
6880.6
 21
9158.153535465405
 31
0.0
 70
    32
 71
     5
 42
895.9999999999981
  3
INABA_S40G
100
AcDbAlignedDimension
 13
7328.599999999998
 23
8712.140975822261
 33
0.0
 14
6432.6
 24
8712.140975822261
 34
0.0
100
AcDbRotatedDimension
1001
ACAD
1000
DSTYLE
1002
{
1070
   174
1070
     0
1070
   272
1070
     1
1070
   288
1070
     0
1070
   341
1005
0
1002
}
  0
LINE
  5
203FB
330
747D
100
AcDbEntity
  8
部品1
 48
50.0
100
AcDbLine
 10
6832.600000000001
 20
8712.140975822261
 30
0.0
 11
6432.6
 21
8712.140975822261
 31
0.0
  0
LINE
  5
203FC
330
747D
100
AcDbEntity
  8
部品1
 48
50.0
100
AcDbLine
 10
6832.600000000001
 20
8712.140975822258
 30
0.0
 11
6432.6
 21
8712.140975822261
 31
0.0
  0
LINE
  5
203FD
330
747D
100
AcDbEntity
  8
点線
 48
10.0
100
AcDbLine
 10
6532.600000000001
 20
8812.140975822261
 30
0.0
 11
6332.600000000001
 21
8812.140975822261
 31
0.0
  0
LINE
  5
203FE
330
747D
100
AcDbEntity
  8
部品1
 48
50.0
100
AcDbLine
 10
6832.600000000001
 20
8512.14097582226
 30
0.0
 11
6432.6
 21
8512.14097582226
 31
0.0
  0
LINE
  5
203FF
330
747D
100
AcDbEntity
  8
点線
 48
10.0
100
AcDbLine
 10
6532.600000000001
 20
8612.140975822262
 30
0.0
 11
6332.600000000001
 21
8612.140975822262
 31
0.0
  0
LINE
  5
20400
330
747D
100
AcDbEntity
  8
部品1
 48
50.0
100
AcDbLine
 10
6432.6
 20
8512.14097582226
 30
0.0
 11
6432.6
 21
8712.140975822261
 31
0.0
  0
LINE
  5
20401
330
747D
100
AcDbEntity
  8
点線
 48
10.0
100
AcDbLine
 10
6332.600000000001
 20
8612.140975822262
 30
0.0
 11
6332.600000000001
 21
8812.140975822261
 31
0.0
  0
LINE
  5
20402
330
747D
100
AcDbEntity
  8
部品1
 48
50.0
100
AcDbLine
 10
6832.600000000001
 20
8512.14097582226
 30
0.0
 11
6832.600000000001
 21
8712.140975822261
 31
0.0
  0
LINE
  5
20403
330
747D
100
AcDbEntity
  8
点線
 48
10.0
100
AcDbLine
 10
6532.600000000001
 20
8612.140975822262
 30
0.0
 11
6532.600000000001
 21
8812.140975822261
 31
0.0
  0
LINE
  5
20414
330
747D
100
AcDbEntity
  8
部品1
 48
50.0
100
AcDbLine
 10
9614.600000000001
 20
8712.140975822258
 30
0.0
 11
10014.6
 21
8712.140975822261
 31
0.0
  0
LINE
  5
20415
330
747D
100
AcDbEntity
  8
部品1
 48
50.0
100
AcDbLine
 10
9614.600000000001
 20
8712.140975822261
 30
0.0
 11
10014.6
 21
8712.140975822261
 31
0.0
  0
LINE
  5
20416
330
747D
100
AcDbEntity
  8
部品1
 48
50.0
100
AcDbLine
 10
9614.600000000001
 20
8512.14097582226
 30
0.0
 11
10014.6
 21
8512.14097582226
 31
0.0
  0
LINE
  5
20417
330
747D
100
AcDbEntity
  8
部品1
 48
50.0
100
AcDbLine
 10
9614.600000000001
 20
8512.14097582226
 30
0.0
 11
9614.600000000001
 21
8712.140975822261
 31
0.0
  0
LINE
  5
20418
330
747D
100
AcDbEntity
  8
部品1
 48
50.0
100
AcDbLine
 10
10014.6
 20
8512.14097582226
 30
0.0
 11
10014.6
 21
8712.140975822261
 31
0.0
  0
LINE
  5
20419
330
747D
100
AcDbEntity
  8
点線
 48
10.0
100
AcDbLine
 10
9914.6
 20
8812.140975822261
 30
0.0
 11
10114.6
 21
8812.140975822261
 31
0.0
  0
LINE
  5
2041A
330
747D
100
AcDbEntity
  8
点線
 48
10.0
100
AcDbLine
 10
9914.6
 20
8612.140975822262
 30
0.0
 11
10114.6
 21
8612.140975822262
 31
0.0
  0
LINE
  5
2041B
330
747D
100
AcDbEntity
  8
点線
 48
10.0
100
AcDbLine
 10
9914.6
 20
8612.140975822262
 30
0.0
 11
9914.6
 21
8812.140975822261
 31
0.0
  0
LINE
  5
2041C
330
747D
100
AcDbEntity
  8
点線
 48
10.0
100
AcDbLine
 10
10114.6
 20
8612.140975822262
 30
0.0
 11
10114.6
 21
8812.140975822261
 31
0.0
  0
DIMENSION
  5
20F62
330
747D
100
AcDbEntity
  8
寸法
 48
50.0
100
AcDbDimension
  2
*D31
 10
5791.888116550751
 20
6020.140975822265
 30
0.0
 11
5791.88811655075
 21
6050.140975822266
 31
0.0
 70
   160
  1
b
 71
     5
 42
59.99999999999909
  3
INABA_S40G
100
AcDbAlignedDimension
 13
6432.6
 23
6080.140975822263
 33
0.0
 14
6382.6
 24
6020.140975822264
 34
0.0
 50
90.0
100
AcDbRotatedDimension
1001
ACAD
1000
DSTYLE
1002
{
1070
   174
1070
     0
1070
   272
1070
     1
1070
   288
1070
     0
1070
   341
1005
0
1002
}
  0
DIMENSION
  5
20F92
330
747D
100
AcDbEntity
  8
寸法
 48
50.0
100
AcDbDimension
  2
*D32
 10
5791.888116550752
 20
8712.140975822261
 30
0.0
 11
5791.888116550751
 21
8752.140975822266
 31
0.0
 70
   160
  1
c
 71
     5
 42
80.00000000000182
  3
INABA_S40G
100
AcDbAlignedDimension
 13
6382.6
 23
8792.140975822263
 33
0.0
 14
6432.6
 24
8712.140975822261
 34
0.0
 50
90.0
100
AcDbRotatedDimension
1001
ACAD
1000
DSTYLE
1002
{
1070
   174
1070
     0
1070
   272
1070
     1
1070
   288
1070
     0
1070
   341
1005
0
1002
}
  0
DIMENSION
  5
20FBA
330
747D
100
AcDbEntity
  8
寸法
 48
50.0
100
AcDbDimension
  2
*D33
 10
6432.600000000002
 20
9304.553563493882
 30
0.0
 11
6407.600000000002
 21
9304.553563493882
 31
0.0
 70
   160
  1
a
 71
     5
 42
50.00000000000091
  3
INABA_S40G
100
AcDbAlignedDimension
 13
6382.600000000001
 23
8792.140975822258
 33
0.0
 14
6432.600000000002
 24
8712.140975822261
 34
0.0
100
AcDbRotatedDimension
1001
ACAD
1000
DSTYLE
1002
{
1070
   174
1070
     0
1070
   272
1070
     1
1070
   288
1070
     0
1070
   341
1005
0
1002
}
  0
DIMENSION
  5
20FEA
330
747D
100
AcDbEntity
  8
寸法
 48
50.0
100
AcDbDimension
  2
*D34
 10
10064.59999999999
 20
9304.553563493882
 30
0.0
 11
10039.59999999999
 21
9304.553563493882
 31
0.0
 70
   160
  1
a
 71
     5
 42
49.99999999999454
  3
INABA_S40G
100
AcDbAlignedDimension
 13
10014.6
 23
8712.140975822261
 33
0.0
 14
10064.59999999999
 24
8792.140975822261
 34
0.0
100
AcDbRotatedDimension
1001
ACAD
1000
DSTYLE
1002
{
1070
   174
1070
     0
1070
   272
1070
     1
1070
   288
1070
     0
1070
   341
1005
0
1002
}
  0
LINE
  5
21389
330
747D
100
AcDbEntity
  8
点線
 48
10.0
100
AcDbLine
 10
8323.599999999998
 20
8612.140975822262
 30
0.0
 11
8323.599999999998
 21
8812.140975822261
 31
0.0
  0
LINE
  5
2138A
330
747D
100
AcDbEntity
  8
部品1
 48
50.0
100
AcDbLine
 10
8423.599999999998
 20
8712.140975822261
 30
0.0
 11
8423.599999999998
 21
8512.14097582226
 31
0.0
  0
LINE
  5
2138B
330
747D
100
AcDbEntity
  8
点線
 48
10.0
100
AcDbLine
 10
8123.599999999999
 20
8612.140975822262
 30
0.0
 11
8123.599999999999
 21
8812.140975822261
 31
0.0
  0
LINE
  5
2138C
330
747D
100
AcDbEntity
  8
部品1
 48
50.0
100
AcDbLine
 10
8023.6
 20
8712.140975822261
 30
0.0
 11
8023.6
 21
8512.14097582226
 31
0.0
  0
LINE
  5
2138D
330
747D
100
AcDbEntity
  8
部品1
 48
50.0
100
AcDbLine
 10
7428.599999999999
 20
8712.140975822261
 30
0.0
 11
7228.599999999999
 21
8712.140975822261
 31
0.0
  0
LINE
  5
2138E
330
747D
100
AcDbEntity
  8
部品1
 48
50.0
100
AcDbLine
 10
7428.599999999999
 20
8512.14097582226
 30
0.0
 11
7228.599999999999
 21
8512.14097582226
 31
0.0
  0
LINE
  5
2138F
330
747D
100
AcDbEntity
  8
部品1
 48
50.0
100
AcDbLine
 10
7428.599999999999
 20
8512.140975822266
 30
0.0
 11
7428.599999999999
 21
8712.140975822265
 31
0.0
  0
LINE
  5
21390
330
747D
100
AcDbEntity
  8
部品1
 48
50.0
100
AcDbLine
 10
7228.599999999999
 20
8512.140975822266
 30
0.0
 11
7228.599999999999
 21
8712.140975822265
 31
0.0
  0
LINE
  5
21391
330
747D
100
AcDbEntity
  8
部品1
 48
50.0
100
AcDbLine
 10
8323.599999999998
 20
8712.140975822261
 30
0.0
 11
8123.599999999999
 21
8712.140975822261
 31
0.0
  0
LINE
  5
21392
330
747D
100
AcDbEntity
  8
部品1
 48
50.0
100
AcDbLine
 10
8023.6
 20
8512.140975822266
 30
0.0
 11
8423.599999999998
 21
8512.14097582226
 31
0.0
  0
LINE
  5
21393
330
747D
100
AcDbEntity
  8
部品1
 48
50.0
100
AcDbLine
 10
8023.6
 20
8712.140975822261
 30
0.0
 11
8423.599999999998
 21
8712.140975822261
 31
0.0
  0
LINE
  5
21394
330
747D
100
AcDbEntity
  8
点線
 48
10.0
100
AcDbLine
 10
8123.599999999999
 20
8612.140975822262
 30
0.0
 11
8323.599999999998
 21
8612.140975822262
 31
0.0
  0
LINE
  5
21395
330
747D
100
AcDbEntity
  8
点線
 48
10.0
100
AcDbLine
 10
8123.599999999999
 20
8812.140975822261
 30
0.0
 11
8323.599999999998
 21
8812.140975822261
 31
0.0
  0
LINE
  5
213A2
330
747D
100
AcDbEntity
  8
部品1
 48
50.0
100
AcDbLine
 10
7428.599999999999
 20
6205.140975822261
 30
0.0
 11
7228.599999999999
 21
6205.140975822261
 31
0.0
  0
LINE
  5
213A3
330
747D
100
AcDbEntity
  8
部品1
 48
50.0
100
AcDbLine
 10
7428.599999999999
 20
6005.140975822261
 30
0.0
 11
7228.599999999999
 21
6005.140975822261
 31
0.0
  0
LINE
  5
213A4
330
747D
100
AcDbEntity
  8
部品1
 48
50.0
100
AcDbLine
 10
7428.599999999999
 20
6005.140975822264
 30
0.0
 11
7428.599999999999
 21
6205.140975822264
 31
0.0
  0
LINE
  5
213A5
330
747D
100
AcDbEntity
  8
部品1
 48
50.0
100
AcDbLine
 10
7228.599999999999
 20
6005.140975822264
 30
0.0
 11
7228.599999999999
 21
6205.140975822264
 31
0.0
  0
LINE
  5
213A6
330
747D
100
AcDbEntity
  8
部品1
 48
50.0
100
AcDbLine
 10
8423.599999999998
 20
6280.140975822259
 30
0.0
 11
8423.599999999998
 21
6080.140975822259
 31
0.0
  0
LINE
  5
213A7
330
747D
100
AcDbEntity
  8
点線
 48
10.0
100
AcDbLine
 10
8323.599999999998
 20
6180.140975822253
 30
0.0
 11
8323.599999999998
 21
5980.140975822253
 31
0.0
  0
LINE
  5
213A8
330
747D
100
AcDbEntity
  8
部品1
 48
50.0
100
AcDbLine
 10
8023.6
 20
6280.140975822259
 30
0.0
 11
8023.6
 21
6080.140975822259
 31
0.0
  0
LINE
  5
213A9
330
747D
100
AcDbEntity
  8
点線
 48
10.0
100
AcDbLine
 10
8123.599999999999
 20
6180.140975822253
 30
0.0
 11
8123.599999999999
 21
5980.140975822253
 31
0.0
  0
LINE
  5
213AB
330
747D
100
AcDbEntity
  8
部品1
 48
50.0
100
AcDbLine
 10
8323.599999999998
 20
6080.140975822261
 30
0.0
 11
8123.599999999999
 21
6080.140975822261
 31
0.0
  0
LINE
  5
213AC
330
747D
100
AcDbEntity
  8
部品1
 48
50.0
100
AcDbLine
 10
8023.6
 20
6280.140975822259
 30
0.0
 11
8423.599999999998
 21
6280.140975822259
 31
0.0
  0
LINE
  5
213AD
330
747D
100
AcDbEntity
  8
部品1
 48
50.0
100
AcDbLine
 10
8023.6
 20
6080.140975822263
 30
0.0
 11
8423.599999999998
 21
6080.140975822259
 31
0.0
  0
LINE
  5
213AE
330
747D
100
AcDbEntity
  8
点線
 48
10.0
100
AcDbLine
 10
8123.599999999999
 20
6180.140975822253
 30
0.0
 11
8323.599999999998
 21
6180.140975822253
 31
0.0
  0
LINE
  5
213AF
330
747D
100
AcDbEntity
  8
点線
 48
10.0
100
AcDbLine
 10
8123.599999999999
 20
5980.140975822253
 30
0.0
 11
8323.599999999998
 21
5980.140975822253
 31
0.0
  0
LINE
  5
21B17
330
747D
100
AcDbEntity
  8
部品1
 48
50.0
100
AcDbLine
 10
9218.599999999995
 20
8712.140975822261
 30
0.0
 11
9018.599999999995
 21
8712.140975822261
 31
0.0
  0
LINE
  5
21B18
330
747D
100
AcDbEntity
  8
部品1
 48
50.0
100
AcDbLine
 10
9218.599999999995
 20
8512.14097582226
 30
0.0
 11
9018.599999999995
 21
8512.14097582226
 31
0.0
  0
LINE
  5
21B19
330
747D
100
AcDbEntity
  8
部品1
 48
50.0
100
AcDbLine
 10
9218.599999999995
 20
8512.140975822266
 30
0.0
 11
9218.599999999995
 21
8712.140975822265
 31
0.0
  0
LINE
  5
21B1A
330
747D
100
AcDbEntity
  8
部品1
 48
50.0
100
AcDbLine
 10
9018.599999999995
 20
8512.140975822266
 30
0.0
 11
9018.599999999995
 21
8712.140975822265
 31
0.0
  0
LINE
  5
21B1B
330
747D
100
AcDbEntity
  8
部品1
 48
50.0
100
AcDbLine
 10
9218.599999999995
 20
6280.140975822261
 30
0.0
 11
9018.599999999995
 21
6280.140975822261
 31
0.0
  0
LINE
  5
21B1C
330
747D
100
AcDbEntity
  8
部品1
 48
50.0
100
AcDbLine
 10
9218.599999999995
 20
6080.140975822261
 30
0.0
 11
9018.599999999995
 21
6080.140975822261
 31
0.0
  0
LINE
  5
21B1D
330
747D
100
AcDbEntity
  8
部品1
 48
50.0
100
AcDbLine
 10
9218.599999999995
 20
6080.140975822264
 30
0.0
 11
9218.599999999995
 21
6280.140975822265
 31
0.0
  0
LINE
  5
21B1E
330
747D
100
AcDbEntity
  8
部品1
 48
50.0
100
AcDbLine
 10
9018.599999999995
 20
6080.140975822264
 30
0.0
 11
9018.599999999995
 21
6280.140975822265
 31
0.0
  0
DIMENSION
  5
21B37
330
747D
100
AcDbEntity
  8
寸法
 48
50.0
100
AcDbDimension
  2
*D36
 10
9118.599999999995
 20
9058.153535465406
 30
0.0
 11
9566.599999999995
 21
9158.153535465405
 31
0.0
 70
    32
 71
     5
 42
895.9999999999981
  3
INABA_S40G
100
AcDbAlignedDimension
 13
10014.59999999999
 23
8712.140975822261
 33
0.0
 14
9118.599999999995
 24
8712.140975822261
 34
0.0
100
AcDbRotatedDimension
1001
ACAD
1000
DSTYLE
1002
{
1070
   174
1070
     0
1070
   272
1070
     1
1070
   288
1070
     0
1070
   341
1005
0
1002
}
  0
DIMENSION
  5
21B39
330
747D
100
AcDbEntity
  8
寸法
 48
50.0
100
AcDbDimension
  2
*D35
 10
8223.599999999999
 20
9058.153535465406
 30
0.0
 11
8671.099999999997
 21
9158.153535465405
 31
0.0
 70
    32
 71
     5
 42
894.9999999999963
  3
INABA_S40G
100
AcDbAlignedDimension
 13
9118.599999999995
 23
8712.140975822261
 33
0.0
 14
8223.599999999999
 24
8712.140975822261
 34
0.0
100
AcDbRotatedDimension
1001
ACAD
1000
DSTYLE
1002
{
1070
   174
1070
     0
1070
   272
1070
     1
1070
   288
1070
     0
1070
   341
1005
0
1002
}
  0
LINE
  5
21ED9
330
747D
100
AcDbEntity
  8
部品1
 48
50.0
100
AcDbLine
 10
10014.60000000001
 20
7741.14097582226
 30
0.0
 11
10014.60000000001
 21
7941.140975822261
 31
0.0
  0
LINE
  5
21EDA
330
747D
100
AcDbEntity
  8
部品1
 48
50.0
100
AcDbLine
 10
9814.600000000007
 20
7741.14097582226
 30
0.0
 11
9814.600000000007
 21
7941.140975822261
 31
0.0
  0
LINE
  5
21EDB
330
747D
100
AcDbEntity
  8
部品1
 48
50.0
100
AcDbLine
 10
9814.600000000007
 20
7741.140975822258
 30
0.0
 11
10014.60000000001
 21
7741.140975822258
 31
0.0
  0
LINE
  5
21EDC
330
747D
100
AcDbEntity
  8
部品1
 48
50.0
100
AcDbLine
 10
9814.600000000007
 20
7941.140975822257
 30
0.0
 11
10014.60000000001
 21
7941.140975822257
 31
0.0
  0
LINE
  5
21EDD
330
747D
100
AcDbEntity
  8
部品1
 48
50.0
100
AcDbLine
 10
9814.600000000007
 20
7051.140975822258
 30
0.0
 11
10014.60000000001
 21
7051.140975822258
 31
0.0
  0
LINE
  5
21EDE
330
747D
100
AcDbEntity
  8
部品1
 48
50.0
100
AcDbLine
 10
9814.600000000007
 20
6851.140975822258
 30
0.0
 11
10014.60000000001
 21
6851.140975822258
 31
0.0
  0
LINE
  5
21EDF
330
747D
100
AcDbEntity
  8
部品1
 48
50.0
100
AcDbLine
 10
9814.600000000007
 20
6851.140975822261
 30
0.0
 11
9814.600000000007
 21
7051.140975822261
 31
0.0
  0
LINE
  5
21EE0
330
747D
100
AcDbEntity
  8
部品1
 48
50.0
100
AcDbLine
 10
10014.60000000001
 20
6851.140975822261
 30
0.0
 11
10014.60000000001
 21
7051.140975822261
 31
0.0
  0
LINE
  5
21EE9
330
747D
100
AcDbEntity
  8
部品1
 48
50.0
100
AcDbLine
 10
8323.599999999998
 20
7741.140975822261
 30
0.0
 11
8323.599999999998
 21
7941.140975822261
 31
0.0
  0
LINE
  5
21EEA
330
747D
100
AcDbEntity
  8
部品1
 48
50.0
100
AcDbLine
 10
8123.599999999999
 20
7741.140975822261
 30
0.0
 11
8123.599999999999
 21
7941.140975822261
 31
0.0
  0
LINE
  5
21EEB
330
747D
100
AcDbEntity
  8
部品1
 48
50.0
100
AcDbLine
 10
8123.599999999999
 20
7941.140975822261
 30
0.0
 11
8323.599999999998
 21
7941.140975822261
 31
0.0
  0
LINE
  5
21EEC
330
747D
100
AcDbEntity
  8
部品1
 48
50.0
100
AcDbLine
 10
8123.599999999999
 20
7741.14097582226
 30
0.0
 11
8323.599999999998
 21
7741.14097582226
 31
0.0
  0
LINE
  5
21EED
330
747D
100
AcDbEntity
  8
部品1
 48
50.0
100
AcDbLine
 10
8123.599999999999
 20
7051.140975822261
 30
0.0
 11
8323.599999999998
 21
7051.140975822261
 31
0.0
  0
LINE
  5
21EEE
330
747D
100
AcDbEntity
  8
部品1
 48
50.0
100
AcDbLine
 10
8123.599999999999
 20
6851.140975822261
 30
0.0
 11
8323.599999999998
 21
6851.140975822261
 31
0.0
  0
LINE
  5
21EEF
330
747D
100
AcDbEntity
  8
部品1
 48
50.0
100
AcDbLine
 10
8323.599999999998
 20
6851.140975822261
 30
0.0
 11
8323.599999999998
 21
7051.140975822261
 31
0.0
  0
LINE
  5
21EF0
330
747D
100
AcDbEntity
  8
部品1
 48
50.0
100
AcDbLine
 10
8123.599999999999
 20
6851.140975822261
 30
0.0
 11
8123.599999999999
 21
7051.140975822261
 31
0.0
  0
LINE
  5
21EF9
330
747D
100
AcDbEntity
  8
部品1
 48
50.0
100
AcDbLine
 10
9218.599999999995
 20
7641.14097582226
 30
0.0
 11
9218.599999999996
 21
8041.14097582226
 31
0.0
  0
LINE
  5
21EFA
330
747D
100
AcDbEntity
  8
部品1
 48
50.0
100
AcDbLine
 10
9018.599999999995
 20
7641.14097582226
 30
0.0
 11
9018.599999999997
 21
8041.14097582226
 31
0.0
  0
LINE
  5
21EFB
330
747D
100
AcDbEntity
  8
部品1
 48
50.0
100
AcDbLine
 10
9018.599999999995
 20
8041.140975822258
 30
0.0
 11
9218.599999999995
 21
8041.140975822258
 31
0.0
  0
LINE
  5
21EFC
330
747D
100
AcDbEntity
  8
部品1
 48
50.0
100
AcDbLine
 10
9018.599999999995
 20
7641.140975822259
 30
0.0
 11
9218.599999999995
 21
7641.140975822259
 31
0.0
  0
LINE
  5
21EFD
330
747D
100
AcDbEntity
  8
部品1
 48
50.0
100
AcDbLine
 10
9018.599999999995
 20
7151.14097582226
 30
0.0
 11
9218.599999999995
 21
7151.14097582226
 31
0.0
  0
LINE
  5
21EFE
330
747D
100
AcDbEntity
  8
部品1
 48
50.0
100
AcDbLine
 10
9018.599999999995
 20
6751.140975822259
 30
0.0
 11
9218.599999999995
 21
6751.140975822259
 31
0.0
  0
LINE
  5
21EFF
330
747D
100
AcDbEntity
  8
部品1
 48
50.0
100
AcDbLine
 10
9218.599999999995
 20
6751.140975822261
 30
0.0
 11
9218.599999999996
 21
7151.140975822261
 31
0.0
  0
LINE
  5
21F00
330
747D
100
AcDbEntity
  8
部品1
 48
50.0
100
AcDbLine
 10
9018.599999999993
 20
6751.140975822261
 30
0.0
 11
9018.599999999997
 21
7151.140975822261
 31
0.0
  0
LINE
  5
21F09
330
747D
100
AcDbEntity
  8
部品1
 48
50.0
100
AcDbLine
 10
7428.599999999999
 20
7641.14097582226
 30
0.0
 11
7428.599999999999
 21
8041.140975822258
 31
0.0
  0
LINE
  5
21F0A
330
747D
100
AcDbEntity
  8
部品1
 48
50.0
100
AcDbLine
 10
7228.6
 20
7641.14097582226
 30
0.0
 11
7228.599999999999
 21
8041.14097582226
 31
0.0
  0
LINE
  5
21F0B
330
747D
100
AcDbEntity
  8
部品1
 48
50.0
100
AcDbLine
 10
7228.599999999999
 20
8041.140975822258
 30
0.0
 11
7428.599999999999
 21
8041.140975822258
 31
0.0
  0
LINE
  5
21F0C
330
747D
100
AcDbEntity
  8
部品1
 48
50.0
100
AcDbLine
 10
7228.599999999999
 20
7641.140975822259
 30
0.0
 11
7428.599999999999
 21
7641.140975822259
 31
0.0
  0
LINE
  5
21F0D
330
747D
100
AcDbEntity
  8
部品1
 48
50.0
100
AcDbLine
 10
7228.599999999999
 20
7151.14097582226
 30
0.0
 11
7428.599999999999
 21
7151.14097582226
 31
0.0
  0
LINE
  5
21F0E
330
747D
100
AcDbEntity
  8
部品1
 48
50.0
100
AcDbLine
 10
7228.599999999999
 20
6751.140975822259
 30
0.0
 11
7428.599999999999
 21
6751.140975822259
 31
0.0
  0
LINE
  5
21F0F
330
747D
100
AcDbEntity
  8
部品1
 48
50.0
100
AcDbLine
 10
7428.599999999999
 20
6751.140975822261
 30
0.0
 11
7428.599999999999
 21
7151.140975822261
 31
0.0
  0
LINE
  5
21F10
330
747D
100
AcDbEntity
  8
部品1
 48
50.0
100
AcDbLine
 10
7228.6
 20
6751.140975822261
 30
0.0
 11
7228.599999999999
 21
7151.140975822261
 31
0.0
  0
LINE
  5
21F11
330
747D
100
AcDbEntity
  8
部品1
 48
50.0
100
AcDbLine
 10
6632.6
 20
7741.14097582226
 30
0.0
 11
6632.6
 21
7941.140975822261
 31
0.0
  0
LINE
  5
21F12
330
747D
100
AcDbEntity
  8
部品1
 48
50.0
100
AcDbLine
 10
6432.6
 20
7741.14097582226
 30
0.0
 11
6432.6
 21
7941.140975822261
 31
0.0
  0
LINE
  5
21F13
330
747D
100
AcDbEntity
  8
部品1
 48
50.0
100
AcDbLine
 10
6632.6
 20
7741.140975822258
 30
0.0
 11
6432.6
 21
7741.140975822258
 31
0.0
  0
LINE
  5
21F14
330
747D
100
AcDbEntity
  8
部品1
 48
50.0
100
AcDbLine
 10
6632.6
 20
7941.140975822257
 30
0.0
 11
6432.6
 21
7941.140975822257
 31
0.0
  0
LINE
  5
21F15
330
747D
100
AcDbEntity
  8
部品1
 48
50.0
100
AcDbLine
 10
6632.6
 20
7051.140975822258
 30
0.0
 11
6432.6
 21
7051.140975822258
 31
0.0
  0
LINE
  5
21F16
330
747D
100
AcDbEntity
  8
部品1
 48
50.0
100
AcDbLine
 10
6632.6
 20
6851.140975822258
 30
0.0
 11
6432.6
 21
6851.140975822258
 31
0.0
  0
LINE
  5
21F17
330
747D
100
AcDbEntity
  8
部品1
 48
50.0
100
AcDbLine
 10
6632.6
 20
6851.140975822261
 30
0.0
 11
6632.6
 21
7051.140975822261
 31
0.0
  0
LINE
  5
21F18
330
747D
100
AcDbEntity
  8
部品1
 48
50.0
100
AcDbLine
 10
6432.6
 20
6851.140975822261
 30
0.0
 11
6432.6
 21
7051.140975822261
 31
0.0
  0
DIMENSION
  5
227A1
330
747D
100
AcDbEntity
  8
寸法
 48
50.0
100
AcDbDimension
  2
*D38
 10
8753.531448609047
 20
6951.140975822276
 30
0.0
 11
8653.531448609044
 21
7396.140975822271
 31
0.0
 70
    32
 71
     5
 42
889.9999999999854
  3
INABA_S40G
100
AcDbAlignedDimension
 13
9018.599999999995
 23
7841.140975822263
 33
0.0
 14
9018.599999999995
 24
6951.140975822276
 34
0.0
 50
90.0
100
AcDbRotatedDimension
1001
ACAD
1000
DSTYLE
1002
{
1070
   341
1005
0
1002
}
  0
DIMENSION
  5
227A2
330
747D
100
AcDbEntity
  8
寸法
 48
50.0
100
AcDbDimension
  2
*D37
 10
8753.531448609047
 20
6951.140975822276
 30
0.0
 11
8653.531448609044
 21
6515.640975822269
 31
0.0
 70
    32
 71
     5
 42
871.0000000000164
  3
INABA_S40G
100
AcDbAlignedDimension
 13
9018.599999999995
 23
6080.140975822261
 33
0.0
 14
9018.599999999995
 24
6951.140975822276
 34
0.0
 50
90.0
100
AcDbRotatedDimension
1001
ACAD
1000
DSTYLE
1002
{
1070
   341
1005
0
1002
}
  0
DIMENSION
  5
22812
330
747D
100
AcDbEntity
  8
寸法
 48
50.0
100
AcDbDimension
  2
*D39
 10
8753.531448609047
 20
7841.140975822263
 30
0.0
 11
8653.531448609044
 21
8276.640975822264
 31
0.0
 70
    32
 71
     5
 42
870.9999999999991
  3
INABA_S40G
100
AcDbAlignedDimension
 13
9018.599999999995
 23
8712.140975822261
 33
0.0
 14
9018.599999999995
 24
7841.140975822263
 34
0.0
 50
90.0
100
AcDbRotatedDimension
1001
ACAD
1000
DSTYLE
1002
{
1070
   174
1070
     0
1070
   272
1070
     1
1070
   288
1070
     0
1070
   341
1005
0
1002
}
  0
LINE
  5
2301A
330
747D
100
AcDbEntity
  8
部品1
100
AcDbLine
 10
6708.158960611777
 20
1140.760787611755
 30
0.0
 11
6708.158960611777
 21
1340.760787611761
 31
0.0
  0
CIRCLE
  5
2301B
330
747D
100
AcDbEntity
  8
部品1
100
AcDbCircle
 10
6427.158960611777
 20
1384.760787611757
 30
0.0
 40
12.8
  0
CIRCLE
  5
2301C
330
747D
100
AcDbEntity
  8
部品1
100
AcDbCircle
 10
6349.158960611777
 20
1384.760787611757
 30
0.0
 40
12.8
  0
LINE
  5
2301D
330
747D
100
AcDbEntity
  8
細線
100
AcDbLine
 10
6542.122696262492
 20
1140.760787611757
 30
0.0
 11
6442.158960611777
 21
1240.724523262473
 31
0.0
  0
LINE
  5
2301E
330
747D
100
AcDbEntity
  8
細線
100
AcDbLine
 10
6170.922696262489
 20
1140.760787611757
 30
0.0
 11
6068.158960611778
 21
1243.52452326247
 31
0.0
  0
LINE
  5
2301F
330
747D
100
AcDbEntity
  8
細線
100
AcDbLine
 10
6318.000906749293
 20
1140.760787611753
 30
0.0
 11
6118.000906749294
 21
1340.760787611761
 31
0.0
  0
LINE
  5
23020
330
747D
100
AcDbEntity
  8
細線
100
AcDbLine
 10
6334.158960611778
 20
1158.543859246228
 30
0.0
 11
6151.942032246246
 21
1340.760787611761
 31
0.0
  0
LINE
  5
23021
330
747D
100
AcDbEntity
  8
部品1
100
AcDbLine
 10
6068.158960611778
 20
1140.760787611755
 30
0.0
 11
6068.158960611778
 21
1340.760787611761
 31
0.0
  0
LINE
  5
23022
330
747D
100
AcDbEntity
  8
細線
100
AcDbLine
 10
6136.981570765536
 20
1140.760787611757
 30
0.0
 11
6068.158960611778
 21
1209.583397765517
 31
0.0
  0
LINE
  5
23023
330
747D
100
AcDbEntity
  8
細線
100
AcDbLine
 10
6508.181570765536
 20
1140.760787611757
 30
0.0
 11
6442.158960611777
 21
1206.783397765518
 31
0.0
  0
LINE
  5
23024
330
747D
100
AcDbEntity
  8
部品1
100
AcDbLine
 10
7028.158960611778
 20
1440.760787611762
 30
0.0
 11
6498.158960611778
 21
1440.760787611762
 31
0.0
  0
LINE
  5
23025
330
747D
100
AcDbEntity
  8
Ｇ．Ｌ
100
AcDbLine
 10
7137.098846832421
 20
1140.760787611759
 30
0.0
 11
6442.158960611777
 21
1140.760787611755
 31
0.0
  0
LINE
  5
23026
330
747D
100
AcDbEntity
  8
部品1
100
AcDbLine
 10
7028.158960611778
 20
1434.760787611762
 30
0.0
 11
6442.158960611777
 21
1434.760787611762
 31
0.0
  0
LINE
  5
23027
330
747D
100
AcDbEntity
  8
部品1
100
AcDbLine
 10
7028.158960611778
 20
1340.760787611761
 30
0.0
 11
6442.158960611777
 21
1340.760787611761
 31
0.0
  0
LINE
  5
23028
330
747D
100
AcDbEntity
  8
細線
100
AcDbLine
 10
6689.200906749298
 20
1140.760787611753
 30
0.0
 11
6489.200906749291
 21
1340.760787611761
 31
0.0
  0
LINE
  5
23029
330
747D
100
AcDbEntity
  8
細線
100
AcDbLine
 10
6708.158960611777
 20
1155.743859246227
 30
0.0
 11
6523.142032246247
 21
1340.760787611761
 31
0.0
  0
LINE
  5
2302A
330
747D
100
AcDbEntity
  8
部品1
100
AcDbLine
 10
6278.158960611781
 20
1940.760787611759
 30
0.0
 11
6278.158960611778
 21
1434.760787611762
 31
0.0
  0
LINE
  5
2302B
330
747D
100
AcDbEntity
  8
部品1
100
AcDbLine
 10
6498.158960611778
 20
1940.760787611759
 30
0.0
 11
6498.158960611778
 21
1434.760787611762
 31
0.0
  0
LINE
  5
2302C
330
747D
100
AcDbEntity
  8
Ｇ．Ｌ
100
AcDbLine
 10
5748.158960611778
 20
1140.760787611759
 30
0.0
 11
6334.158960611778
 21
1140.760787611755
 31
0.0
  0
LINE
  5
2302D
330
747D
100
AcDbEntity
  8
部品1
100
AcDbLine
 10
5748.158960611778
 20
1440.760787611762
 30
0.0
 11
6278.158960611778
 21
1440.760787611762
 31
0.0
  0
LINE
  5
2302E
330
747D
100
AcDbEntity
  8
部品1
100
AcDbLine
 10
5748.158960611778
 20
1340.760787611761
 30
0.0
 11
6334.158960611778
 21
1340.760787611761
 31
0.0
  0
LINE
  5
2302F
330
747D
100
AcDbEntity
  8
部品1
100
AcDbLine
 10
5748.158960611778
 20
1434.760787611762
 30
0.0
 11
6334.158960611778
 21
1434.760787611762
 31
0.0
  0
LINE
  5
23030
330
747D
100
AcDbEntity
  8
細線
 48
50.0
100
AcDbLine
 10
5843.158960611777
 20
1940.760787611736
 30
0.0
 11
5843.158960611777
 21
1440.760787611738
 31
0.0
  0
LINE
  5
23031
330
747D
100
AcDbEntity
  8
細線
 48
50.0
100
AcDbLine
 10
5873.158960611778
 20
1940.760787611736
 30
0.0
 11
5873.158960611778
 21
1440.760787611738
 31
0.0
  0
LINE
  5
23032
330
747D
100
AcDbEntity
  8
細線
 48
50.0
100
AcDbLine
 10
6123.158960611778
 20
1940.760787611736
 30
0.0
 11
6123.158960611778
 21
1440.760787611738
 31
0.0
  0
LINE
  5
23033
330
747D
100
AcDbEntity
  8
細線
 48
50.0
100
AcDbLine
 10
6153.158960611778
 20
1940.760787611736
 30
0.0
 11
6153.158960611778
 21
1440.760787611738
 31
0.0
  0
LINE
  5
23034
330
747D
100
AcDbEntity
  8
細線
 48
50.0
100
AcDbLine
 10
6623.158960611781
 20
1940.760787611736
 30
0.0
 11
6623.158960611781
 21
1440.760787611738
 31
0.0
  0
LINE
  5
23035
330
747D
100
AcDbEntity
  8
細線
 48
50.0
100
AcDbLine
 10
6653.158960611782
 20
1940.760787611736
 30
0.0
 11
6653.158960611782
 21
1440.760787611738
 31
0.0
  0
LINE
  5
23036
330
747D
100
AcDbEntity
  8
細線
 48
50.0
100
AcDbLine
 10
6903.158960611782
 20
1940.760787611736
 30
0.0
 11
6903.158960611782
 21
1440.760787611738
 31
0.0
  0
LINE
  5
23037
330
747D
100
AcDbEntity
  8
細線
 48
50.0
100
AcDbLine
 10
6933.158960611781
 20
1940.760787611736
 30
0.0
 11
6933.158960611781
 21
1440.760787611738
 31
0.0
  0
ARC
  5
23038
330
747D
100
AcDbEntity
  8
部品1
100
AcDbCircle
 10
6432.158960611778
 20
1436.760787611755
 30
0.0
 40
10.0
100
AcDbArc
 50
0.0
 51
90.0
  0
ARC
  5
23039
330
747D
100
AcDbEntity
  8
部品1
100
AcDbCircle
 10
6344.158960611778
 20
1436.760787611756
 30
0.0
 40
10.0
100
AcDbArc
 50
90.0
 51
180.0
  0
ARC
  5
2303A
330
747D
100
AcDbEntity
  8
部品1
100
AcDbCircle
 10
6427.158960611777
 20
1424.760787611756
 30
0.0
 40
8.0
100
AcDbArc
 50
0.0
 51
180.0
  0
LINE
  5
2303B
330
747D
100
AcDbEntity
  8
部品1
100
AcDbLine
 10
6435.158960611778
 20
1424.760787611756
 30
0.0
 11
6435.158960611778
 21
1394.752784409196
 31
0.0
  0
LINE
  5
2303C
330
747D
100
AcDbEntity
  8
部品1
100
AcDbLine
 10
6419.158960611778
 20
1424.760787611756
 30
0.0
 11
6419.158960611778
 21
1394.752784409196
 31
0.0
  0
LINE
  5
2303D
330
747D
100
AcDbEntity
  8
部品1
100
AcDbLine
 10
6432.158960611778
 20
1446.760787611755
 30
0.0
 11
6344.158960611778
 21
1446.760787611756
 31
0.0
  0
LINE
  5
2303E
330
747D
100
AcDbEntity
  8
部品1
100
AcDbLine
 10
6334.158960611778
 20
1436.760787611756
 30
0.0
 11
6334.158960611778
 21
1140.760787611755
 31
0.0
  0
LINE
  5
2303F
330
747D
100
AcDbEntity
  8
部品1
100
AcDbLine
 10
6334.158960611778
 20
1140.760787611755
 30
0.0
 11
6442.158960611777
 21
1140.760787611755
 31
0.0
  0
LINE
  5
23040
330
747D
100
AcDbEntity
  8
部品1
100
AcDbLine
 10
6442.158960611777
 20
1436.760787611755
 30
0.0
 11
6442.158960611777
 21
1140.760787611755
 31
0.0
  0
LINE
  5
23041
330
747D
100
AcDbEntity
  8
部品1
100
AcDbLine
 10
6403.158960611778
 20
1354.760787611755
 30
0.0
 11
6373.158960611778
 21
1354.760787611755
 31
0.0
  0
LINE
  5
23042
330
747D
100
AcDbEntity
  8
部品1
100
AcDbLine
 10
6403.158960611778
 20
1207.160787611755
 30
0.0
 11
6373.158960611778
 21
1207.160787611755
 31
0.0
  0
LINE
  5
23043
330
747D
100
AcDbEntity
  8
部品1
100
AcDbLine
 10
6334.158960611778
 20
1152.760787611755
 30
0.0
 11
6442.158960611777
 21
1152.760787611755
 31
0.0
  0
LINE
  5
23044
330
747D
100
AcDbEntity
  8
部品1
100
AcDbLine
 10
6403.158960611778
 20
1213.160787611755
 30
0.0
 11
6373.158960611778
 21
1213.160787611755
 31
0.0
  0
LINE
  5
23045
330
747D
100
AcDbEntity
  8
部品1
100
AcDbLine
 10
6403.158960611778
 20
1360.760787611755
 30
0.0
 11
6373.158960611778
 21
1360.760787611755
 31
0.0
  0
LINE
  5
23046
330
747D
100
AcDbEntity
  8
部品1
100
AcDbLine
 10
6403.158960611778
 20
1360.760787611755
 30
0.0
 11
6403.158960611778
 21
1354.760787611755
 31
0.0
  0
LINE
  5
23047
330
747D
100
AcDbEntity
  8
部品1
100
AcDbLine
 10
6373.158960611778
 20
1360.760787611755
 30
0.0
 11
6373.158960611778
 21
1354.760787611755
 31
0.0
  0
LINE
  5
23048
330
747D
100
AcDbEntity
  8
部品1
100
AcDbLine
 10
6403.158960611778
 20
1213.160787611755
 30
0.0
 11
6403.158960611778
 21
1207.160787611755
 31
0.0
  0
LINE
  5
23049
330
747D
100
AcDbEntity
  8
部品1
100
AcDbLine
 10
6373.158960611778
 20
1213.160787611755
 30
0.0
 11
6373.158960611778
 21
1207.160787611755
 31
0.0
  0
LINE
  5
2304A
330
747D
100
AcDbEntity
  8
部品1
100
AcDbLine
 10
6341.158960611778
 20
1424.760787611756
 30
0.0
 11
6341.158960611778
 21
1394.752784409194
 31
0.0
  0
LINE
  5
2304B
330
747D
100
AcDbEntity
  8
部品1
100
AcDbLine
 10
6357.158960611777
 20
1424.760787611756
 30
0.0
 11
6357.158960611777
 21
1394.752784409194
 31
0.0
  0
ARC
  5
2304C
330
747D
100
AcDbEntity
  8
部品1
100
AcDbCircle
 10
6349.158960611777
 20
1424.760787611756
 30
0.0
 40
8.0
100
AcDbArc
 50
0.0
 51
180.0
  0
LINE
  5
2304D
330
747D
100
AcDbEntity
  8
細線
 48
10.0
100
AcDbLine
 10
6723.668941947522
 20
826.4425902724715
 30
0.0
 11
7030.5871392868
 21
1133.360787611755
 31
0.0
  0
LINE
  5
2304E
330
747D
100
AcDbEntity
  8
細線
 48
10.0
100
AcDbLine
 10
6751.953213194986
 20
826.4425902724715
 30
0.0
 11
7058.871410534258
 21
1133.360787611755
 31
0.0
  0
LINE
  5
2304F
330
747D
100
AcDbEntity
  8
細線
 48
10.0
100
AcDbLine
 10
6780.237484442449
 20
826.4425902724715
 30
0.0
 11
7087.155681781725
 21
1133.360787611755
 31
0.0
  0
LINE
  5
23050
330
747D
100
AcDbEntity
  8
部品1
100
AcDbLine
 10
6393.57734163609
 20
1081.97491833994
 30
0.0
 11
6401.488832459036
 21
1083.161641963382
 31
0.0
  0
LINE
  5
23051
330
747D
100
AcDbEntity
  8
部品1
100
AcDbLine
 10
6394.467384353673
 20
1076.041300222731
 30
0.0
 11
6402.378875176619
 21
1077.228023846174
 31
0.0
  0
LINE
  5
23052
330
747D
100
AcDbEntity
  8
部品1
100
AcDbLine
 10
6395.357427071249
 20
1070.107682105522
 30
0.0
 11
6403.268917894202
 21
1071.294405728965
 31
0.0
  0
LINE
  5
23053
330
747D
100
AcDbEntity
  8
部品1
100
AcDbLine
 10
6374.82908876452
 20
1083.161641963382
 30
0.0
 11
6382.740579587466
 21
1081.97491833994
 31
0.0
  0
LINE
  5
23054
330
747D
100
AcDbEntity
  8
部品1
100
AcDbLine
 10
6373.939046046936
 20
1077.228023846174
 30
0.0
 11
6381.850536869883
 21
1076.041300222731
 31
0.0
  0
LINE
  5
23055
330
747D
100
AcDbEntity
  8
部品1
100
AcDbLine
 10
6373.049003329361
 20
1071.294405728965
 30
0.0
 11
6380.960494152307
 21
1070.107682105522
 31
0.0
  0
LINE
  5
23056
330
747D
100
AcDbEntity
  8
部品1
100
AcDbLine
 10
6396.247469788832
 20
1064.174063988316
 30
0.0
 11
6404.158960611778
 21
1065.360787611756
 31
0.0
  0
LINE
  5
23057
330
747D
100
AcDbEntity
  8
部品1
100
AcDbLine
 10
6372.158960611778
 20
1065.360787611756
 30
0.0
 11
6380.070451434724
 21
1064.174063988316
 31
0.0
  0
LINE
  5
23058
330
747D
100
AcDbEntity
  8
部品1
100
AcDbLine
 10
6396.247469788832
 20
1064.174063988316
 30
0.0
 11
6390.069461245316
 21
1105.360787611756
 31
0.0
  0
LINE
  5
23059
330
747D
100
AcDbEntity
  8
部品1
100
AcDbLine
 10
6386.24845997824
 20
1105.360787611756
 30
0.0
 11
6380.070451434724
 21
1064.174063988316
 31
0.0
  0
LINE
  5
2305A
330
747D
100
AcDbEntity
  8
部品1
100
AcDbLine
 10
6404.158960611778
 20
1065.360787611756
 30
0.0
 11
6398.158960611778
 21
1105.360787611756
 31
0.0
  0
LINE
  5
2305B
330
747D
100
AcDbEntity
  8
部品1
100
AcDbLine
 10
6378.158960611777
 20
1105.360787611756
 30
0.0
 11
6372.158960611778
 21
1065.360787611756
 31
0.0
  0
LINE
  5
2305C
330
747D
100
AcDbEntity
  8
細線
 48
10.0
100
AcDbLine
 10
5712.904527368188
 20
1067.369071004165
 30
0.0
 11
5778.896243975775
 21
1133.360787611755
 31
0.0
  0
LINE
  5
2305D
330
747D
100
AcDbEntity
  8
細線
 48
10.0
100
AcDbLine
 10
5712.904527368188
 20
1039.084799756706
 30
0.0
 11
5807.180515223226
 21
1133.360787611755
 31
0.0
  0
LINE
  5
2305E
330
747D
100
AcDbEntity
  8
細線
 48
10.0
100
AcDbLine
 10
5926.920706736805
 20
826.4425902724715
 30
0.0
 11
6233.838904076066
 21
1133.360787611755
 31
0.0
  0
LINE
  5
2305F
330
747D
100
AcDbEntity
  8
細線
 48
10.0
100
AcDbLine
 10
5870.352164241882
 20
826.4425902724715
 30
0.0
 11
6177.270361581158
 21
1133.360787611755
 31
0.0
  0
LINE
  5
23060
330
747D
100
AcDbEntity
  8
細線
 48
10.0
100
AcDbLine
 10
5898.636435489345
 20
826.4425902724715
 30
0.0
 11
6205.554632828615
 21
1133.360787611755
 31
0.0
  0
LINE
  5
23061
330
747D
100
AcDbEntity
  8
細線
 48
10.0
100
AcDbLine
 10
6353.57909558963
 20
826.4425902724715
 30
0.0
 11
6660.497292928908
 21
1133.360787611755
 31
0.0
  0
LINE
  5
23062
330
747D
100
AcDbEntity
  8
細線
 48
10.0
100
AcDbLine
 10
6297.010553094708
 20
826.4425902724715
 30
0.0
 11
6603.928750433981
 21
1133.360787611755
 31
0.0
  0
LINE
  5
23063
330
747D
100
AcDbEntity
  8
細線
 48
10.0
100
AcDbLine
 10
6325.294824342167
 20
826.4425902724715
 30
0.0
 11
6632.21302168144
 21
1133.360787611755
 31
0.0
  0
LINE
  5
23064
330
747D
100
AcDbEntity
  8
細線
 48
10.0
100
AcDbLine
 10
5712.904527368184
 20
1095.653342251621
 30
0.0
 11
5750.611972728322
 21
1133.360787611755
 31
0.0
  0
LINE
  5
23065
330
747D
100
AcDbEntity
  8
部品1
100
AcDbLine
 10
6390.907213483348
 20
1099.775772691569
 30
0.0
 11
6398.818704306293
 21
1100.962496315012
 31
0.0
  0
LINE
  5
23066
330
747D
100
AcDbEntity
  8
部品1
100
AcDbLine
 10
6391.797256200931
 20
1093.842154574359
 30
0.0
 11
6399.708747023876
 21
1095.028878197802
 31
0.0
  0
LINE
  5
23067
330
747D
100
AcDbEntity
  8
部品1
100
AcDbLine
 10
6392.687298918514
 20
1087.908536457153
 30
0.0
 11
6400.59878974146
 21
1089.095260080593
 31
0.0
  0
LINE
  5
23068
330
747D
100
AcDbEntity
  8
部品1
100
AcDbLine
 10
6377.499216917262
 20
1100.962496315012
 30
0.0
 11
6385.410707740208
 21
1099.775772691569
 31
0.0
  0
LINE
  5
23069
330
747D
100
AcDbEntity
  8
部品1
100
AcDbLine
 10
6376.609174199678
 20
1095.028878197802
 30
0.0
 11
6384.520665022624
 21
1093.842154574359
 31
0.0
  0
LINE
  5
2306A
330
747D
100
AcDbEntity
  8
部品1
100
AcDbLine
 10
6375.719131482103
 20
1089.095260080593
 30
0.0
 11
6383.630622305049
 21
1087.908536457153
 31
0.0
  0
LINE
  5
2306B
330
747D
100
AcDbEntity
  8
部品1
100
AcDbLine
 10
6386.24845997824
 20
1105.360787611756
 30
0.0
 11
6390.069461245316
 21
1105.360787611756
 31
0.0
  0
LINE
  5
2306C
330
747D
100
AcDbEntity
  8
部品1
100
AcDbLine
 10
6398.158960611778
 20
1140.760787611755
 30
0.0
 11
6398.158960611778
 21
1105.360787611756
 31
0.0
  0
LINE
  5
2306D
330
747D
100
AcDbEntity
  8
部品1
100
AcDbLine
 10
6378.158960611777
 20
1140.760787611755
 30
0.0
 11
6378.158960611777
 21
1105.360787611756
 31
0.0
  0
LINE
  5
2306E
330
747D
100
AcDbEntity
  8
部品1
100
AcDbLine
 10
6381.158960611777
 20
1201.013683635417
 30
0.0
 11
6395.158960611778
 21
1201.013683635417
 31
0.0
  0
LINE
  5
2306F
330
747D
100
AcDbEntity
  8
部品1
100
AcDbLine
 10
6395.158960611778
 20
1201.013683635417
 30
0.0
 11
6395.158960611778
 21
1205.013683635417
 31
0.0
  0
LINE
  5
23070
330
747D
100
AcDbEntity
  8
部品1
100
AcDbLine
 10
6381.158960611777
 20
1201.013683635417
 30
0.0
 11
6381.158960611777
 21
1205.013683635417
 31
0.0
  0
LINE
  5
23071
330
747D
100
AcDbEntity
  8
部品1
100
AcDbLine
 10
6393.158960611778
 20
1192.760787611757
 30
0.0
 11
6393.158960611778
 21
1201.013683635417
 31
0.0
  0
LINE
  5
23072
330
747D
100
AcDbEntity
  8
部品1
100
AcDbLine
 10
6383.158960611778
 20
1192.760787611757
 30
0.0
 11
6383.158960611778
 21
1201.013683635417
 31
0.0
  0
LINE
  5
23073
330
747D
100
AcDbEntity
  8
部品1
100
AcDbLine
 10
6381.158960611777
 20
1205.013683635417
 30
0.0
 11
6395.158960611778
 21
1205.013683635417
 31
0.0
  0
ARC
  5
23074
330
747D
100
AcDbEntity
  8
部品1
100
AcDbCircle
 10
6388.158960611778
 20
1147.672154390938
 30
0.0
 40
23.33946124318486
100
AcDbArc
 50
64.63020194521516
 51
115.3697980547848
  0
ARC
  5
23075
330
747D
100
AcDbEntity
  8
部品1
100
AcDbCircle
 10
6403.158960611778
 20
1164.246032821439
 30
0.0
 40
6.736691384996243
100
AcDbArc
 50
42.08048849859669
 51
137.9195115014033
  0
ARC
  5
23076
330
747D
100
AcDbEntity
  8
部品1
100
AcDbCircle
 10
6373.158960611778
 20
1164.246032821439
 30
0.0
 40
6.736691384996243
100
AcDbArc
 50
42.08048849859669
 51
137.9195115014033
  0
LINE
  5
23077
330
747D
100
AcDbEntity
  8
部品1
100
AcDbLine
 10
6368.158960611777
 20
1168.760787611757
 30
0.0
 11
6408.158960611777
 21
1168.760787611757
 31
0.0
  0
LINE
  5
23078
330
747D
100
AcDbEntity
  8
部品1
100
AcDbLine
 10
6418.158960611778
 20
1152.760787611755
 30
0.0
 11
6418.158960611778
 21
1155.760787611764
 31
0.0
  0
LINE
  5
23079
330
747D
100
AcDbEntity
  8
部品1
100
AcDbLine
 10
6405.158960611777
 20
1171.760787611757
 30
0.0
 11
6408.158960611777
 21
1168.760787611757
 31
0.0
  0
LINE
  5
2307A
330
747D
100
AcDbEntity
  8
部品1
100
AcDbLine
 10
6371.158960611777
 20
1171.760787611757
 30
0.0
 11
6368.158960611777
 21
1168.760787611757
 31
0.0
  0
LINE
  5
2307B
330
747D
100
AcDbEntity
  8
部品1
100
AcDbLine
 10
6408.158960611777
 20
1155.760787611761
 30
0.0
 11
6408.158960611777
 21
1168.760787611757
 31
0.0
  0
LINE
  5
2307C
330
747D
100
AcDbEntity
  8
部品1
100
AcDbLine
 10
6368.158960611777
 20
1155.760787611755
 30
0.0
 11
6368.158960611777
 21
1168.760787611757
 31
0.0
  0
LINE
  5
2307D
330
747D
100
AcDbEntity
  8
部品1
100
AcDbLine
 10
6371.158960611777
 20
1171.760787611757
 30
0.0
 11
6405.158960611777
 21
1171.760787611757
 31
0.0
  0
LINE
  5
2307E
330
747D
100
AcDbEntity
  8
部品1
100
AcDbLine
 10
6398.158960611778
 20
1155.760787611755
 30
0.0
 11
6398.158960611778
 21
1192.760787611757
 31
0.0
  0
LINE
  5
2307F
330
747D
100
AcDbEntity
  8
部品1
100
AcDbLine
 10
6378.158960611777
 20
1155.760787611755
 30
0.0
 11
6378.158960611777
 21
1192.760787611757
 31
0.0
  0
LINE
  5
23080
330
747D
100
AcDbEntity
  8
部品1
100
AcDbLine
 10
6378.158960611777
 20
1192.760787611757
 30
0.0
 11
6398.158960611778
 21
1192.760787611757
 31
0.0
  0
LINE
  5
23081
330
747D
100
AcDbEntity
  8
部品1
100
AcDbLine
 10
6403.158960611778
 20
1213.160787611755
 30
0.0
 11
6403.158960611778
 21
1207.160787611755
 31
0.0
  0
LINE
  5
23082
330
747D
100
AcDbEntity
  8
部品1
100
AcDbLine
 10
6373.158960611778
 20
1173.160787611759
 30
0.0
 11
6373.158960611778
 21
1171.760787611757
 31
0.0
  0
LINE
  5
23083
330
747D
100
AcDbEntity
  8
部品1
100
AcDbLine
 10
6373.158960611778
 20
1213.160787611758
 30
0.0
 11
6373.158960611778
 21
1207.160787611759
 31
0.0
  0
LINE
  5
23084
330
747D
100
AcDbEntity
  8
部品1
100
AcDbLine
 10
6373.158960611778
 20
1173.160787611759
 30
0.0
 11
6378.158960611777
 21
1173.160787611759
 31
0.0
  0
LINE
  5
23085
330
747D
100
AcDbEntity
  8
部品1
100
AcDbLine
 10
6373.158960611778
 20
1213.160787611758
 30
0.0
 11
6403.158960611778
 21
1213.160787611758
 31
0.0
  0
LINE
  5
23086
330
747D
100
AcDbEntity
  8
部品1
100
AcDbLine
 10
6373.158960611778
 20
1207.160787611759
 30
0.0
 11
6403.158960611778
 21
1207.160787611759
 31
0.0
  0
LINE
  5
23087
330
747D
100
AcDbEntity
  8
部品1
100
AcDbLine
 10
6358.158960611778
 20
1152.760787611755
 30
0.0
 11
6358.158960611778
 21
1155.760787611755
 31
0.0
  0
LINE
  5
23088
330
747D
100
AcDbEntity
  8
部品1
100
AcDbLine
 10
6358.158960611778
 20
1155.760787611755
 30
0.0
 11
6418.158960611778
 21
1155.760787611761
 31
0.0
  0
LINE
  5
23089
330
747D
100
AcDbEntity
  8
部品1
100
AcDbLine
 10
6398.158960611778
 20
1173.160787611759
 30
0.0
 11
6403.158960611778
 21
1173.160787611759
 31
0.0
  0
LINE
  5
2308A
330
747D
100
AcDbEntity
  8
部品1
100
AcDbLine
 10
6403.158960611778
 20
1173.160787611753
 30
0.0
 11
6403.158960611778
 21
1171.760787611757
 31
0.0
  0
LINE
  5
2308B
330
747D
100
AcDbEntity
  8
部品1
100
AcDbLine
 10
3586.319460875799
 20
1140.760787611751
 30
0.0
 11
3586.319460875797
 21
1340.760787611756
 31
0.0
  0
CIRCLE
  5
2308C
330
747D
100
AcDbEntity
  8
部品1
100
AcDbCircle
 10
3305.319460875799
 20
1384.760787611752
 30
0.0
 40
12.8
  0
CIRCLE
  5
2308D
330
747D
100
AcDbEntity
  8
部品1
100
AcDbCircle
 10
3227.319460875798
 20
1384.760787611752
 30
0.0
 40
12.8
  0
LINE
  5
2308E
330
747D
100
AcDbEntity
  8
細線
100
AcDbLine
 10
3420.283196526513
 20
1140.760787611752
 30
0.0
 11
3320.319460875803
 21
1240.724523262466
 31
0.0
  0
LINE
  5
2308F
330
747D
100
AcDbEntity
  8
細線
100
AcDbLine
 10
3049.083196526512
 20
1140.760787611752
 30
0.0
 11
2946.319460875799
 21
1243.524523262466
 31
0.0
  0
LINE
  5
23090
330
747D
100
AcDbEntity
  8
細線
100
AcDbLine
 10
3196.161407013315
 20
1140.760787611749
 30
0.0
 11
2996.161407013313
 21
1340.760787611756
 31
0.0
  0
LINE
  5
23091
330
747D
100
AcDbEntity
  8
細線
100
AcDbLine
 10
3212.319460875801
 20
1158.543859246225
 30
0.0
 11
3030.102532510266
 21
1340.760787611756
 31
0.0
  0
LINE
  5
23092
330
747D
100
AcDbEntity
  8
部品1
100
AcDbLine
 10
2946.319460875799
 20
1140.760787611751
 30
0.0
 11
2946.319460875799
 21
1340.760787611756
 31
0.0
  0
LINE
  5
23093
330
747D
100
AcDbEntity
  8
細線
100
AcDbLine
 10
3015.142071029557
 20
1140.760787611752
 30
0.0
 11
2946.319460875799
 21
1209.583397765512
 31
0.0
  0
LINE
  5
23094
330
747D
100
AcDbEntity
  8
細線
100
AcDbLine
 10
3386.342071029558
 20
1140.760787611752
 30
0.0
 11
3320.319460875797
 21
1206.783397765512
 31
0.0
  0
LINE
  5
23095
330
747D
100
AcDbEntity
  8
部品1
100
AcDbLine
 10
3906.319460875799
 20
1440.760787611758
 30
0.0
 11
3376.319460875797
 21
1440.760787611758
 31
0.0
  0
LINE
  5
23096
330
747D
100
AcDbEntity
  8
Ｇ．Ｌ
100
AcDbLine
 10
4015.259347096441
 20
1140.760787611754
 30
0.0
 11
3320.319460875798
 21
1140.760787611751
 31
0.0
  0
LINE
  5
23097
330
747D
100
AcDbEntity
  8
部品1
100
AcDbLine
 10
3906.319460875799
 20
1434.760787611758
 30
0.0
 11
2626.319460875797
 21
1434.760787611758
 31
0.0
  0
LINE
  5
23098
330
747D
100
AcDbEntity
  8
部品1
100
AcDbLine
 10
3906.319460875799
 20
1340.760787611756
 30
0.0
 11
3320.319460875797
 21
1340.760787611756
 31
0.0
  0
LINE
  5
23099
330
747D
100
AcDbEntity
  8
細線
100
AcDbLine
 10
3567.361407013319
 20
1140.760787611749
 30
0.0
 11
3367.361407013312
 21
1340.760787611756
 31
0.0
  0
LINE
  5
2309A
330
747D
100
AcDbEntity
  8
細線
100
AcDbLine
 10
3586.319460875799
 20
1155.743859246223
 30
0.0
 11
3401.302532510268
 21
1340.760787611756
 31
0.0
  0
LINE
  5
2309B
330
747D
100
AcDbEntity
  8
部品1
100
AcDbLine
 10
3156.319460875802
 20
1940.760787611754
 30
0.0
 11
3156.319460875799
 21
1434.760787611758
 31
0.0
  0
LINE
  5
2309C
330
747D
100
AcDbEntity
  8
部品1
100
AcDbLine
 10
3376.319460875801
 20
1940.760787611754
 30
0.0
 11
3376.319460875798
 21
1434.760787611758
 31
0.0
  0
LINE
  5
2309D
330
747D
100
AcDbEntity
  8
Ｇ．Ｌ
100
AcDbLine
 10
2626.319460875798
 20
1140.760787611754
 30
0.0
 11
3212.319460875801
 21
1140.760787611751
 31
0.0
  0
LINE
  5
2309E
330
747D
100
AcDbEntity
  8
部品1
100
AcDbLine
 10
2626.319460875797
 20
1440.760787611758
 30
0.0
 11
3156.319460875799
 21
1440.760787611758
 31
0.0
  0
LINE
  5
2309F
330
747D
100
AcDbEntity
  8
部品1
100
AcDbLine
 10
2626.319460875797
 20
1340.760787611756
 30
0.0
 11
3212.319460875799
 21
1340.760787611756
 31
0.0
  0
LINE
  5
230A0
330
747D
100
AcDbEntity
  8
部品1
 48
50.0
100
AcDbLine
 10
3466.319460875798
 20
1140.760787611746
 30
0.0
 11
3466.319460875798
 21
740.7607876117481
 31
0.0
  0
LINE
  5
230A1
330
747D
100
AcDbEntity
  8
細線
  6
HIDDEN
 48
10.0
100
AcDbLine
 10
3379.330461025217
 20
740.7607876117481
 30
0.0
 11
3466.319460875798
 21
827.7497874623314
 31
0.0
  0
LINE
  5
230A2
330
747D
100
AcDbEntity
  8
細線
  6
HIDDEN
 48
10.0
100
AcDbLine
 10
3322.761918530294
 20
740.7607876117472
 30
0.0
 11
3466.319460875798
 21
884.3183299572556
 31
0.0
  0
LINE
  5
230A3
330
747D
100
AcDbEntity
  8
細線
  6
HIDDEN
 48
10.0
100
AcDbLine
 10
3351.046189777755
 20
740.7607876117481
 30
0.0
 11
3466.319460875798
 21
856.0340587097952
 31
0.0
  0
LINE
  5
230A4
330
747D
100
AcDbEntity
  8
部品1
 48
50.0
100
AcDbLine
 10
3466.319460875798
 20
740.7607876117481
 30
0.0
 11
3066.319460875799
 21
740.7607876117463
 31
0.0
  0
LINE
  5
230A5
330
747D
100
AcDbEntity
  8
部品1
 48
50.0
100
AcDbLine
 10
3066.319460875799
 20
740.7607876117463
 30
0.0
 11
3066.319460875799
 21
1140.760787611746
 31
0.0
  0
LINE
  5
230A6
330
747D
100
AcDbEntity
  8
細線
  6
HIDDEN
 48
10.0
100
AcDbLine
 10
3066.319460875799
 20
854.4081763151599
 30
0.0
 11
3212.319460875801
 21
1000.408176315174
 31
0.0
  0
LINE
  5
230A7
330
747D
100
AcDbEntity
  8
細線
  6
HIDDEN
 48
10.0
100
AcDbLine
 10
3066.319460875799
 20
910.9767188100823
 30
0.0
 11
3212.319460875801
 21
1056.976718810087
 31
0.0
  0
LINE
  5
230A8
330
747D
100
AcDbEntity
  8
細線
  6
HIDDEN
 48
10.0
100
AcDbLine
 10
3066.319460875799
 20
882.692447562621
 30
0.0
 11
3212.319460875801
 21
1028.692447562629
 31
0.0
  0
LINE
  5
230A9
330
747D
100
AcDbEntity
  8
細線
 48
50.0
100
AcDbLine
 10
2721.319460875797
 20
1940.760787611732
 30
0.0
 11
2721.319460875797
 21
1440.760787611733
 31
0.0
  0
LINE
  5
230AA
330
747D
100
AcDbEntity
  8
細線
 48
50.0
100
AcDbLine
 10
2751.319460875797
 20
1940.760787611732
 30
0.0
 11
2751.319460875797
 21
1440.760787611733
 31
0.0
  0
LINE
  5
230AB
330
747D
100
AcDbEntity
  8
細線
 48
50.0
100
AcDbLine
 10
3001.319460875797
 20
1940.760787611732
 30
0.0
 11
3001.319460875797
 21
1440.760787611733
 31
0.0
  0
LINE
  5
230AC
330
747D
100
AcDbEntity
  8
細線
 48
50.0
100
AcDbLine
 10
3031.319460875797
 20
1940.760787611732
 30
0.0
 11
3031.319460875797
 21
1440.760787611733
 31
0.0
  0
LINE
  5
230AD
330
747D
100
AcDbEntity
  8
細線
 48
50.0
100
AcDbLine
 10
3501.319460875802
 20
1940.760787611732
 30
0.0
 11
3501.319460875802
 21
1440.760787611733
 31
0.0
  0
LINE
  5
230AE
330
747D
100
AcDbEntity
  8
細線
 48
50.0
100
AcDbLine
 10
3531.319460875803
 20
1940.760787611732
 30
0.0
 11
3531.319460875803
 21
1440.760787611733
 31
0.0
  0
LINE
  5
230AF
330
747D
100
AcDbEntity
  8
細線
 48
50.0
100
AcDbLine
 10
3781.319460875803
 20
1940.760787611732
 30
0.0
 11
3781.319460875803
 21
1440.760787611733
 31
0.0
  0
LINE
  5
230B0
330
747D
100
AcDbEntity
  8
細線
 48
50.0
100
AcDbLine
 10
3811.319460875802
 20
1940.760787611732
 30
0.0
 11
3811.319460875802
 21
1440.760787611733
 31
0.0
  0
ARC
  5
230B1
330
747D
100
AcDbEntity
  8
部品1
100
AcDbCircle
 10
3310.319460875799
 20
1404.760787611752
 30
0.0
 40
10.0
100
AcDbArc
 50
0.0
 51
90.0
  0
ARC
  5
230B2
330
747D
100
AcDbEntity
  8
部品1
100
AcDbCircle
 10
3222.319460875799
 20
1404.760787611752
 30
0.0
 40
10.0
100
AcDbArc
 50
90.0
 51
180.0
  0
ARC
  5
230B3
330
747D
100
AcDbEntity
  8
部品1
100
AcDbCircle
 10
3310.319460875799
 20
1101.760787611753
 30
0.0
 40
10.0
100
AcDbArc
 50
0.0
 51
90.0
  0
CIRCLE
  5
230B4
330
747D
100
AcDbEntity
  8
部品1
100
AcDbCircle
 10
3305.319460875799
 20
1244.760787611753
 30
0.0
 40
6.0
  0
CIRCLE
  5
230B5
330
747D
100
AcDbEntity
  8
部品1
100
AcDbCircle
 10
3305.319460875799
 20
1244.760787611753
 30
0.0
 40
8.0
  0
LINE
  5
230B6
330
747D
100
AcDbEntity
  8
部品1
100
AcDbLine
 10
3297.319460875801
 20
1354.760787611752
 30
0.0
 11
3297.319460875799
 21
1314.760787611753
 31
0.0
  0
LINE
  5
230B7
330
747D
100
AcDbEntity
  8
部品1
100
AcDbLine
 10
3313.3194608758
 20
1354.760787611752
 30
0.0
 11
3313.319460875799
 21
1314.760787611753
 31
0.0
  0
ARC
  5
230B8
330
747D
100
AcDbEntity
  8
部品1
100
AcDbCircle
 10
3305.319460875799
 20
1354.760787611752
 30
0.0
 40
8.0
100
AcDbArc
 50
0.0
 51
180.0
  0
ARC
  5
230B9
330
747D
100
AcDbEntity
  8
部品1
100
AcDbCircle
 10
3305.319460875799
 20
1314.760787611753
 30
0.0
 40
8.0
100
AcDbArc
 50
180.0
 51
0.0
  0
LINE
  5
230BA
330
747D
100
AcDbEntity
  8
部品1
100
AcDbLine
 10
3313.319460875799
 20
1075.904381151202
 30
0.0
 11
3313.319460875799
 21
1049.760787611752
 31
0.0
  0
LINE
  5
230BB
330
747D
100
AcDbEntity
  8
部品1
100
AcDbLine
 10
3310.319460875799
 20
1414.760787611753
 30
0.0
 11
3222.319460875799
 21
1414.760787611753
 31
0.0
  0
LINE
  5
230BC
330
747D
100
AcDbEntity
  8
部品1
100
AcDbLine
 10
3212.319460875799
 20
1404.760787611752
 30
0.0
 11
3212.319460875799
 21
1095.328551974583
 31
0.0
  0
LINE
  5
230BD
330
747D
100
AcDbEntity
  8
部品1
100
AcDbLine
 10
3320.319460875798
 20
1095.328551974583
 30
0.0
 11
3320.319460875798
 21
1404.760787611752
 31
0.0
  0
ARC
  5
230BE
330
747D
100
AcDbEntity
  8
部品1
100
AcDbCircle
 10
3227.319460875798
 20
1314.760787611753
 30
0.0
 40
8.0
100
AcDbArc
 50
180.0
 51
0.0
  0
ARC
  5
230BF
330
747D
100
AcDbEntity
  8
部品1
100
AcDbCircle
 10
3227.319460875798
 20
1354.760787611752
 30
0.0
 40
8.0
100
AcDbArc
 50
0.0
 51
180.0
  0
LINE
  5
230C0
330
747D
100
AcDbEntity
  8
部品1
100
AcDbLine
 10
3235.319460875799
 20
1354.760787611752
 30
0.0
 11
3235.319460875799
 21
1314.760787611753
 31
0.0
  0
LINE
  5
230C1
330
747D
100
AcDbEntity
  8
部品1
100
AcDbLine
 10
3219.319460875798
 20
1354.760787611752
 30
0.0
 11
3219.319460875798
 21
1314.760787611753
 31
0.0
  0
CIRCLE
  5
230C2
330
747D
100
AcDbEntity
  8
部品1
100
AcDbCircle
 10
3227.319460875798
 20
1244.760787611753
 30
0.0
 40
8.0
  0
CIRCLE
  5
230C3
330
747D
100
AcDbEntity
  8
部品1
100
AcDbCircle
 10
3227.319460875798
 20
1244.760787611753
 30
0.0
 40
6.0
  0
ARC
  5
230C4
330
747D
100
AcDbEntity
  8
部品1
100
AcDbCircle
 10
3222.319460875799
 20
1101.760787611753
 30
0.0
 40
10.0
100
AcDbArc
 50
90.0
 51
180.0
  0
ARC
  5
230C5
330
747D
100
AcDbEntity
  8
部品1
100
AcDbCircle
 10
3305.319460875799
 20
1049.760787611752
 30
0.0
 40
8.0
100
AcDbArc
 50
180.0
 51
0.0
  0
LINE
  5
230C6
330
747D
100
AcDbEntity
  8
部品1
100
AcDbLine
 10
3297.319460875799
 20
1075.904381151202
 30
0.0
 11
3297.319460875799
 21
1049.760787611752
 31
0.0
  0
LINE
  5
230C7
330
747D
100
AcDbEntity
  8
部品1
100
AcDbLine
 10
3310.319460875799
 20
1111.760787611753
 30
0.0
 11
3222.319460875799
 21
1111.760787611753
 31
0.0
  0
LINE
  5
230C8
330
747D
100
AcDbEntity
  8
部品1
100
AcDbLine
 10
3212.319460875799
 20
1101.760787611753
 30
0.0
 11
3212.319460875799
 21
1095.328551974583
 31
0.0
  0
LINE
  5
230C9
330
747D
100
AcDbEntity
  8
部品1
100
AcDbLine
 10
3212.319460875799
 20
805.7607876117526
 30
0.0
 11
3320.319460875798
 21
805.7607876117526
 31
0.0
  0
LINE
  5
230CA
330
747D
100
AcDbEntity
  8
部品1
100
AcDbLine
 10
3320.319460875798
 20
1101.760787611753
 30
0.0
 11
3320.319460875798
 21
1095.328551974583
 31
0.0
  0
LINE
  5
230CB
330
747D
100
AcDbEntity
  8
部品1
100
AcDbLine
 10
3281.319460875799
 20
1019.760787611752
 30
0.0
 11
3251.319460875798
 21
1019.760787611752
 31
0.0
  0
LINE
  5
230CC
330
747D
100
AcDbEntity
  8
部品1
100
AcDbLine
 10
3281.319460875799
 20
864.7607876117527
 30
0.0
 11
3251.319460875798
 21
864.7607876117527
 31
0.0
  0
LINE
  5
230CD
330
747D
100
AcDbEntity
  8
部品1
100
AcDbLine
 10
3281.319460875799
 20
824.7607876117527
 30
0.0
 11
3251.319460875798
 21
824.7607876117527
 31
0.0
  0
LINE
  5
230CE
330
747D
100
AcDbEntity
  8
部品1
100
AcDbLine
 10
3281.319460875799
 20
830.7607876117526
 30
0.0
 11
3251.319460875798
 21
830.7607876117526
 31
0.0
  0
LINE
  5
230CF
330
747D
100
AcDbEntity
  8
部品1
100
AcDbLine
 10
3281.319460875799
 20
870.7607876117526
 30
0.0
 11
3251.319460875798
 21
870.7607876117526
 31
0.0
  0
LINE
  5
230D0
330
747D
100
AcDbEntity
  8
部品1
100
AcDbLine
 10
3281.319460875799
 20
1025.760787611752
 30
0.0
 11
3251.319460875798
 21
1025.760787611752
 31
0.0
  0
LINE
  5
230D1
330
747D
100
AcDbEntity
  8
部品1
100
AcDbLine
 10
3281.319460875799
 20
1025.760787611752
 30
0.0
 11
3281.319460875799
 21
1019.760787611752
 31
0.0
  0
LINE
  5
230D2
330
747D
100
AcDbEntity
  8
部品1
100
AcDbLine
 10
3251.319460875798
 20
1025.760787611752
 30
0.0
 11
3251.319460875798
 21
1019.760787611752
 31
0.0
  0
LINE
  5
230D3
330
747D
100
AcDbEntity
  8
部品1
100
AcDbLine
 10
3281.319460875799
 20
870.7607876117526
 30
0.0
 11
3281.319460875799
 21
864.7607876117527
 31
0.0
  0
LINE
  5
230D4
330
747D
100
AcDbEntity
  8
部品1
100
AcDbLine
 10
3251.319460875798
 20
870.7607876117526
 30
0.0
 11
3251.319460875798
 21
864.7607876117527
 31
0.0
  0
LINE
  5
230D5
330
747D
100
AcDbEntity
  8
部品1
100
AcDbLine
 10
3251.319460875798
 20
830.7607876117526
 30
0.0
 11
3251.319460875798
 21
824.7607876117527
 31
0.0
  0
LINE
  5
230D6
330
747D
100
AcDbEntity
  8
部品1
100
AcDbLine
 10
3281.319460875799
 20
830.7607876117526
 30
0.0
 11
3281.319460875799
 21
824.7607876117527
 31
0.0
  0
LINE
  5
230D7
330
747D
100
AcDbEntity
  8
部品1
100
AcDbLine
 10
3219.319460875798
 20
1075.904381151202
 30
0.0
 11
3219.319460875798
 21
1049.760787611752
 31
0.0
  0
LINE
  5
230D8
330
747D
100
AcDbEntity
  8
部品1
100
AcDbLine
 10
3235.319460875799
 20
1075.904381151202
 30
0.0
 11
3235.319460875799
 21
1049.760787611752
 31
0.0
  0
ARC
  5
230D9
330
747D
100
AcDbEntity
  8
部品1
100
AcDbCircle
 10
3227.319460875798
 20
1049.760787611752
 30
0.0
 40
8.0
100
AcDbArc
 50
180.0
 51
0.0
  0
CIRCLE
  5
230DA
330
747D
100
AcDbEntity
  8
部品1
100
AcDbCircle
 10
3305.319460875799
 20
1089.760787611753
 30
0.0
 40
16.0
  0
CIRCLE
  5
230DB
330
747D
100
AcDbEntity
  8
部品1
100
AcDbCircle
 10
3227.319460875798
 20
1089.760787611752
 30
0.0
 40
16.0
  0
LINE
  5
230DC
330
747D
100
AcDbEntity
  8
部品1
100
AcDbLine
 10
3320.319460875798
 20
1084.193023248923
 30
0.0
 11
3320.319460875798
 21
805.7607876117526
 31
0.0
  0
LINE
  5
230DD
330
747D
100
AcDbEntity
  8
部品1
100
AcDbLine
 10
3212.319460875799
 20
1084.193023248923
 30
0.0
 11
3212.319460875799
 21
805.7607876117526
 31
0.0
  0
DIMENSION
  5
230DE
330
747D
100
AcDbEntity
  8
寸法
 48
50.0
100
AcDbDimension
  2
*D40
 10
2822.989713800269
 20
740.7607876117463
 30
0.0
 11
2822.989713800269
 21
928.3854207276517
 31
0.0
 70
   160
  1
200
 71
     5
 42
400.0
  3
INABA_S40G
100
AcDbAlignedDimension
 13
2916.319460875799
 23
1140.760787611746
 33
0.0
 14
3066.319460875799
 24
740.7607876117463
 34
0.0
 50
90.0
100
AcDbRotatedDimension
1001
ACAD
1000
DSTYLE
1002
{
1070
   174
1070
     0
1070
   272
1070
     1
1070
   288
1070
     0
1070
   341
1005
0
1002
}
  0
LINE
  5
230DF
330
747D
100
AcDbEntity
  8
部品1
100
AcDbLine
 10
9638.122667299185
 20
1171.090833376039
 30
0.0
 11
9638.122667299185
 21
1169.690833376043
 31
0.0
  0
LINE
  5
230E0
330
747D
100
AcDbEntity
  8
部品1
100
AcDbLine
 10
9633.122667299186
 20
1171.090833376045
 30
0.0
 11
9638.122667299185
 21
1171.090833376045
 31
0.0
  0
LINE
  5
230E1
330
747D
100
AcDbEntity
  8
部品1
100
AcDbLine
 10
9593.122667299185
 20
1153.690833376042
 30
0.0
 11
9653.122667299186
 21
1153.690833376047
 31
0.0
  0
LINE
  5
230E2
330
747D
100
AcDbEntity
  8
部品1
100
AcDbLine
 10
9593.122667299185
 20
1150.690833376041
 30
0.0
 11
9593.122667299185
 21
1153.690833376042
 31
0.0
  0
LINE
  5
230E3
330
747D
100
AcDbEntity
  8
部品1
100
AcDbLine
 10
9608.122667299186
 20
1205.090833376045
 30
0.0
 11
9638.122667299185
 21
1205.090833376045
 31
0.0
  0
LINE
  5
230E4
330
747D
100
AcDbEntity
  8
部品1
100
AcDbLine
 10
9608.122667299186
 20
1211.090833376045
 30
0.0
 11
9638.122667299185
 21
1211.090833376045
 31
0.0
  0
LINE
  5
230E5
330
747D
100
AcDbEntity
  8
部品1
100
AcDbLine
 10
9608.122667299186
 20
1171.090833376045
 30
0.0
 11
9613.122667299187
 21
1171.090833376045
 31
0.0
  0
LINE
  5
230E6
330
747D
100
AcDbEntity
  8
部品1
100
AcDbLine
 10
9608.122667299186
 20
1211.090833376045
 30
0.0
 11
9608.122667299186
 21
1205.090833376045
 31
0.0
  0
LINE
  5
230E7
330
747D
100
AcDbEntity
  8
部品1
100
AcDbLine
 10
9608.122667299186
 20
1171.090833376045
 30
0.0
 11
9608.122667299186
 21
1169.690833376043
 31
0.0
  0
LINE
  5
230E8
330
747D
100
AcDbEntity
  8
部品1
100
AcDbLine
 10
9638.122667299185
 20
1211.090833376041
 30
0.0
 11
9638.122667299185
 21
1205.090833376041
 31
0.0
  0
LINE
  5
230E9
330
747D
100
AcDbEntity
  8
部品1
100
AcDbLine
 10
9613.122667299187
 20
1190.690833376043
 30
0.0
 11
9633.122667299186
 21
1190.690833376043
 31
0.0
  0
LINE
  5
230EA
330
747D
100
AcDbEntity
  8
部品1
100
AcDbLine
 10
9613.122667299187
 20
1153.690833376042
 30
0.0
 11
9613.122667299187
 21
1190.690833376043
 31
0.0
  0
LINE
  5
230EB
330
747D
100
AcDbEntity
  8
部品1
100
AcDbLine
 10
9633.122667299186
 20
1153.690833376042
 30
0.0
 11
9633.122667299186
 21
1190.690833376043
 31
0.0
  0
LINE
  5
230EC
330
747D
100
AcDbEntity
  8
部品1
100
AcDbLine
 10
9606.122667299185
 20
1169.690833376043
 30
0.0
 11
9640.122667299186
 21
1169.690833376043
 31
0.0
  0
LINE
  5
230ED
330
747D
100
AcDbEntity
  8
部品1
100
AcDbLine
 10
9603.122667299185
 20
1153.690833376042
 30
0.0
 11
9603.122667299185
 21
1166.690833376043
 31
0.0
  0
LINE
  5
230EE
330
747D
100
AcDbEntity
  8
部品1
100
AcDbLine
 10
9643.122667299186
 20
1153.690833376047
 30
0.0
 11
9643.122667299186
 21
1166.690833376043
 31
0.0
  0
LINE
  5
230EF
330
747D
100
AcDbEntity
  8
部品1
100
AcDbLine
 10
9606.122667299185
 20
1169.690833376043
 30
0.0
 11
9603.122667299185
 21
1166.690833376043
 31
0.0
  0
LINE
  5
230F0
330
747D
100
AcDbEntity
  8
部品1
100
AcDbLine
 10
9640.122667299186
 20
1169.690833376043
 30
0.0
 11
9643.122667299186
 21
1166.690833376043
 31
0.0
  0
LINE
  5
230F1
330
747D
100
AcDbEntity
  8
部品1
100
AcDbLine
 10
9653.122667299186
 20
1150.690833376041
 30
0.0
 11
9653.122667299186
 21
1153.69083337605
 31
0.0
  0
LINE
  5
230F2
330
747D
100
AcDbEntity
  8
部品1
100
AcDbLine
 10
9603.122667299185
 20
1166.690833376043
 30
0.0
 11
9643.122667299186
 21
1166.690833376043
 31
0.0
  0
ARC
  5
230F3
330
747D
100
AcDbEntity
  8
部品1
100
AcDbCircle
 10
9608.122667299186
 20
1162.176078585725
 30
0.0
 40
6.736691384996243
100
AcDbArc
 50
42.08048849859669
 51
137.9195115014033
  0
ARC
  5
230F4
330
747D
100
AcDbEntity
  8
部品1
100
AcDbCircle
 10
9638.122667299185
 20
1162.176078585725
 30
0.0
 40
6.736691384996243
100
AcDbArc
 50
42.08048849859669
 51
137.9195115014033
  0
ARC
  5
230F5
330
747D
100
AcDbEntity
  8
部品1
100
AcDbCircle
 10
9623.122667299185
 20
1145.602200155224
 30
0.0
 40
23.33946124318486
100
AcDbArc
 50
64.63020194521516
 51
115.3697980547848
  0
LINE
  5
230F6
330
747D
100
AcDbEntity
  8
部品1
100
AcDbLine
 10
9616.122667299187
 20
1202.943729399703
 30
0.0
 11
9630.122667299186
 21
1202.943729399703
 31
0.0
  0
LINE
  5
230F7
330
747D
100
AcDbEntity
  8
部品1
100
AcDbLine
 10
9618.122667299186
 20
1190.690833376043
 30
0.0
 11
9618.122667299186
 21
1198.943729399703
 31
0.0
  0
LINE
  5
230F8
330
747D
100
AcDbEntity
  8
部品1
100
AcDbLine
 10
9628.122667299185
 20
1190.690833376043
 30
0.0
 11
9628.122667299185
 21
1198.943729399703
 31
0.0
  0
LINE
  5
230F9
330
747D
100
AcDbEntity
  8
部品1
100
AcDbLine
 10
9616.122667299187
 20
1198.943729399703
 30
0.0
 11
9616.122667299187
 21
1202.943729399703
 31
0.0
  0
LINE
  5
230FA
330
747D
100
AcDbEntity
  8
部品1
100
AcDbLine
 10
9630.122667299186
 20
1198.943729399703
 30
0.0
 11
9630.122667299186
 21
1202.943729399703
 31
0.0
  0
LINE
  5
230FB
330
747D
100
AcDbEntity
  8
部品1
100
AcDbLine
 10
9616.122667299187
 20
1198.943729399703
 30
0.0
 11
9630.122667299186
 21
1198.943729399703
 31
0.0
  0
LINE
  5
230FC
330
747D
100
AcDbEntity
  8
部品1
100
AcDbLine
 10
9613.122667299187
 20
1138.690833376041
 30
0.0
 11
9613.122667299187
 21
1103.290833376042
 31
0.0
  0
LINE
  5
230FD
330
747D
100
AcDbEntity
  8
部品1
100
AcDbLine
 10
9633.122667299186
 20
1138.690833376041
 30
0.0
 11
9633.122667299186
 21
1103.290833376042
 31
0.0
  0
LINE
  5
230FE
330
747D
100
AcDbEntity
  8
部品1
100
AcDbLine
 10
9621.212166665648
 20
1103.290833376042
 30
0.0
 11
9625.033167932723
 21
1103.290833376042
 31
0.0
  0
LINE
  5
230FF
330
747D
100
AcDbEntity
  8
部品1
100
AcDbLine
 10
9610.682838169511
 20
1087.025305844879
 30
0.0
 11
9618.594328992458
 21
1085.83858222144
 31
0.0
  0
LINE
  5
23100
330
747D
100
AcDbEntity
  8
部品1
100
AcDbLine
 10
9611.572880887088
 20
1092.958923962088
 30
0.0
 11
9619.484371710033
 21
1091.772200338645
 31
0.0
  0
LINE
  5
23101
330
747D
100
AcDbEntity
  8
部品1
100
AcDbLine
 10
9612.46292360467
 20
1098.892542079298
 30
0.0
 11
9620.374414427615
 21
1097.705818455855
 31
0.0
  0
LINE
  5
23102
330
747D
100
AcDbEntity
  8
部品1
100
AcDbLine
 10
9627.651005605923
 20
1085.83858222144
 30
0.0
 11
9635.562496428867
 21
1087.025305844879
 31
0.0
  0
LINE
  5
23103
330
747D
100
AcDbEntity
  8
部品1
100
AcDbLine
 10
9626.76096288834
 20
1091.772200338645
 30
0.0
 11
9634.672453711285
 21
1092.958923962088
 31
0.0
  0
LINE
  5
23104
330
747D
100
AcDbEntity
  8
部品1
100
AcDbLine
 10
9625.870920170756
 20
1097.705818455855
 30
0.0
 11
9633.782410993703
 21
1098.892542079298
 31
0.0
  0
LINE
  5
23105
330
747D
100
AcDbEntity
  8
細線
 48
10.0
100
AcDbLine
 10
8947.868234055592
 20
1093.583388015907
 30
0.0
 11
8985.575679415729
 21
1131.290833376041
 31
0.0
  0
LINE
  5
23106
330
747D
100
AcDbEntity
  8
細線
 48
10.0
100
AcDbLine
 10
9560.258531029575
 20
824.3726360367572
 30
0.0
 11
9867.176728368848
 21
1131.290833376041
 31
0.0
  0
LINE
  5
23107
330
747D
100
AcDbEntity
  8
細線
 48
10.0
100
AcDbLine
 10
9531.974259782115
 20
824.3726360367572
 30
0.0
 11
9838.892457121389
 21
1131.290833376041
 31
0.0
  0
LINE
  5
23108
330
747D
100
AcDbEntity
  8
細線
 48
10.0
100
AcDbLine
 10
9588.542802277038
 20
824.3726360367572
 30
0.0
 11
9895.460999616314
 21
1131.290833376041
 31
0.0
  0
LINE
  5
23109
330
747D
100
AcDbEntity
  8
細線
 48
10.0
100
AcDbLine
 10
9133.600142176751
 20
824.3726360367572
 30
0.0
 11
9440.518339516023
 21
1131.290833376041
 31
0.0
  0
LINE
  5
2310A
330
747D
100
AcDbEntity
  8
細線
 48
10.0
100
AcDbLine
 10
9105.31587092929
 20
824.3726360367572
 30
0.0
 11
9412.234068268565
 21
1131.290833376041
 31
0.0
  0
LINE
  5
2310B
330
747D
100
AcDbEntity
  8
細線
 48
10.0
100
AcDbLine
 10
9161.884413424212
 20
824.3726360367572
 30
0.0
 11
9468.802610763473
 21
1131.290833376041
 31
0.0
  0
LINE
  5
2310C
330
747D
100
AcDbEntity
  8
細線
 48
10.0
100
AcDbLine
 10
8947.868234055595
 20
1037.014845520992
 30
0.0
 11
9042.144221910634
 21
1131.290833376041
 31
0.0
  0
LINE
  5
2310D
330
747D
100
AcDbEntity
  8
細線
 48
10.0
100
AcDbLine
 10
8947.868234055595
 20
1065.299116768451
 30
0.0
 11
9013.859950663182
 21
1131.290833376041
 31
0.0
  0
LINE
  5
2310E
330
747D
100
AcDbEntity
  8
部品1
100
AcDbLine
 10
9613.122667299187
 20
1103.290833376042
 30
0.0
 11
9607.122667299186
 21
1063.290833376042
 31
0.0
  0
LINE
  5
2310F
330
747D
100
AcDbEntity
  8
部品1
100
AcDbLine
 10
9639.122667299185
 20
1063.290833376042
 30
0.0
 11
9633.122667299186
 21
1103.290833376042
 31
0.0
  0
LINE
  5
23110
330
747D
100
AcDbEntity
  8
部品1
100
AcDbLine
 10
9621.212166665648
 20
1103.290833376042
 30
0.0
 11
9615.034158122131
 21
1062.104109752602
 31
0.0
  0
LINE
  5
23111
330
747D
100
AcDbEntity
  8
部品1
100
AcDbLine
 10
9631.21117647624
 20
1062.104109752602
 30
0.0
 11
9625.033167932723
 21
1103.290833376042
 31
0.0
  0
LINE
  5
23112
330
747D
100
AcDbEntity
  8
部品1
100
AcDbLine
 10
9607.122667299186
 20
1063.290833376042
 30
0.0
 11
9615.034158122131
 21
1062.104109752602
 31
0.0
  0
LINE
  5
23113
330
747D
100
AcDbEntity
  8
部品1
100
AcDbLine
 10
9631.21117647624
 20
1062.104109752602
 30
0.0
 11
9639.122667299185
 21
1063.290833376042
 31
0.0
  0
LINE
  5
23114
330
747D
100
AcDbEntity
  8
部品1
100
AcDbLine
 10
9608.012710016769
 20
1069.224451493251
 30
0.0
 11
9615.924200839714
 21
1068.037727869808
 31
0.0
  0
LINE
  5
23115
330
747D
100
AcDbEntity
  8
部品1
100
AcDbLine
 10
9608.902752734344
 20
1075.158069610461
 30
0.0
 11
9616.814243557291
 21
1073.971345987017
 31
0.0
  0
LINE
  5
23116
330
747D
100
AcDbEntity
  8
部品1
100
AcDbLine
 10
9609.792795451928
 20
1081.091687727668
 30
0.0
 11
9617.704286274873
 21
1079.904964104227
 31
0.0
  0
LINE
  5
23117
330
747D
100
AcDbEntity
  8
部品1
100
AcDbLine
 10
9630.321133758656
 20
1068.037727869808
 30
0.0
 11
9638.232624581611
 21
1069.224451493251
 31
0.0
  0
LINE
  5
23118
330
747D
100
AcDbEntity
  8
部品1
100
AcDbLine
 10
9629.43109104108
 20
1073.971345987017
 30
0.0
 11
9637.342581864027
 21
1075.158069610461
 31
0.0
  0
LINE
  5
23119
330
747D
100
AcDbEntity
  8
部品1
100
AcDbLine
 10
9628.541048323498
 20
1079.904964104227
 30
0.0
 11
9636.452539146445
 21
1081.091687727668
 31
0.0
  0
LINE
  5
2311A
330
747D
100
AcDbEntity
  8
細線
 48
10.0
100
AcDbLine
 10
10015.20119112985
 20
824.3726360367572
 30
0.0
 11
10322.11938846913
 21
1131.290833376041
 31
0.0
  0
LINE
  5
2311B
330
747D
100
AcDbEntity
  8
細線
 48
10.0
100
AcDbLine
 10
9986.916919882393
 20
824.3726360367572
 30
0.0
 11
10293.83511722166
 21
1131.290833376041
 31
0.0
  0
LINE
  5
2311C
330
747D
100
AcDbEntity
  8
細線
 48
10.0
100
AcDbLine
 10
9958.632648634932
 20
824.3726360367572
 30
0.0
 11
10265.5508459742
 21
1131.290833376041
 31
0.0
  0
ARC
  5
2311D
330
747D
100
AcDbEntity
  8
部品1
100
AcDbCircle
 10
9584.122667299185
 20
1422.690833376042
 30
0.0
 40
8.0
100
AcDbArc
 50
0.0
 51
180.0
  0
LINE
  5
2311E
330
747D
100
AcDbEntity
  8
部品1
100
AcDbLine
 10
9592.122667299184
 20
1422.690833376042
 30
0.0
 11
9592.122667299189
 21
1408.049285360505
 31
0.0
  0
LINE
  5
2311F
330
747D
100
AcDbEntity
  8
部品1
100
AcDbLine
 10
9576.122667299186
 20
1422.690833376042
 30
0.0
 11
9576.122667299186
 21
1408.049285360508
 31
0.0
  0
LINE
  5
23120
330
747D
100
AcDbEntity
  8
部品1
100
AcDbLine
 10
9608.122667299186
 20
1211.090833376041
 30
0.0
 11
9608.122667299186
 21
1205.090833376042
 31
0.0
  0
LINE
  5
23121
330
747D
100
AcDbEntity
  8
部品1
100
AcDbLine
 10
9638.122667299185
 20
1211.090833376041
 30
0.0
 11
9638.122667299185
 21
1205.090833376042
 31
0.0
  0
LINE
  5
23122
330
747D
100
AcDbEntity
  8
部品1
100
AcDbLine
 10
9608.122667299186
 20
1358.690833376041
 30
0.0
 11
9608.122667299186
 21
1352.690833376042
 31
0.0
  0
LINE
  5
23123
330
747D
100
AcDbEntity
  8
部品1
100
AcDbLine
 10
9638.122667299185
 20
1358.690833376041
 30
0.0
 11
9638.122667299185
 21
1352.690833376042
 31
0.0
  0
LINE
  5
23124
330
747D
100
AcDbEntity
  8
部品1
100
AcDbLine
 10
9638.122667299185
 20
1358.690833376041
 30
0.0
 11
9608.122667299186
 21
1358.690833376041
 31
0.0
  0
LINE
  5
23125
330
747D
100
AcDbEntity
  8
部品1
100
AcDbLine
 10
9638.122667299185
 20
1211.090833376041
 30
0.0
 11
9608.122667299186
 21
1211.090833376041
 31
0.0
  0
LINE
  5
23126
330
747D
100
AcDbEntity
  8
部品1
100
AcDbLine
 10
9569.122667299186
 20
1150.690833376041
 30
0.0
 11
9677.122667299187
 21
1150.690833376041
 31
0.0
  0
LINE
  5
23127
330
747D
100
AcDbEntity
  8
部品1
100
AcDbLine
 10
9638.122667299185
 20
1205.090833376042
 30
0.0
 11
9608.122667299186
 21
1205.090833376042
 31
0.0
  0
LINE
  5
23128
330
747D
100
AcDbEntity
  8
部品1
100
AcDbLine
 10
9638.122667299185
 20
1352.690833376042
 30
0.0
 11
9608.122667299186
 21
1352.690833376042
 31
0.0
  0
LINE
  5
23129
330
747D
100
AcDbEntity
  8
部品1
100
AcDbLine
 10
9677.122667299187
 20
1434.690833376041
 30
0.0
 11
9677.122667299187
 21
1138.690833376041
 31
0.0
  0
LINE
  5
2312A
330
747D
100
AcDbEntity
  8
部品1
100
AcDbLine
 10
9569.122667299186
 20
1138.690833376041
 30
0.0
 11
9677.122667299187
 21
1138.690833376041
 31
0.0
  0
LINE
  5
2312B
330
747D
100
AcDbEntity
  8
部品1
100
AcDbLine
 10
9569.122667299186
 20
1434.690833376042
 30
0.0
 11
9569.122667299186
 21
1138.690833376041
 31
0.0
  0
LINE
  5
2312C
330
747D
100
AcDbEntity
  8
部品1
100
AcDbLine
 10
9667.122667299185
 20
1444.690833376041
 30
0.0
 11
9579.122667299186
 21
1444.690833376042
 31
0.0
  0
LINE
  5
2312D
330
747D
100
AcDbEntity
  8
部品1
100
AcDbLine
 10
9654.122667299185
 20
1422.690833376042
 30
0.0
 11
9654.122667299185
 21
1408.049285360509
 31
0.0
  0
LINE
  5
2312E
330
747D
100
AcDbEntity
  8
部品1
100
AcDbLine
 10
9670.122667299185
 20
1422.690833376042
 30
0.0
 11
9670.122667299185
 21
1408.049285360509
 31
0.0
  0
ARC
  5
2312F
330
747D
100
AcDbEntity
  8
部品1
100
AcDbCircle
 10
9662.122667299186
 20
1422.690833376042
 30
0.0
 40
8.0
100
AcDbArc
 50
0.0
 51
180.0
  0
ARC
  5
23130
330
747D
100
AcDbEntity
  8
部品1
100
AcDbCircle
 10
9579.122667299186
 20
1434.690833376042
 30
0.0
 40
10.0
100
AcDbArc
 50
90.0
 51
180.0
  0
ARC
  5
23131
330
747D
100
AcDbEntity
  8
部品1
100
AcDbCircle
 10
9667.122667299185
 20
1434.690833376041
 30
0.0
 40
10.0
100
AcDbArc
 50
0.0
 51
90.0
  0
LINE
  5
23132
330
747D
100
AcDbEntity
  8
細線
 48
50.0
100
AcDbLine
 10
10168.12266729919
 20
2038.690833376022
 30
0.0
 11
10168.12266729919
 21
1538.690833376024
 31
0.0
  0
LINE
  5
23133
330
747D
100
AcDbEntity
  8
細線
 48
50.0
100
AcDbLine
 10
10138.12266729919
 20
2038.690833376022
 30
0.0
 11
10138.12266729919
 21
1538.690833376024
 31
0.0
  0
LINE
  5
23134
330
747D
100
AcDbEntity
  8
細線
 48
50.0
100
AcDbLine
 10
9888.122667299189
 20
2038.690833376022
 30
0.0
 11
9888.122667299189
 21
1538.690833376024
 31
0.0
  0
LINE
  5
23135
330
747D
100
AcDbEntity
  8
細線
 48
50.0
100
AcDbLine
 10
9858.122667299189
 20
2038.690833376022
 30
0.0
 11
9858.122667299189
 21
1538.690833376024
 31
0.0
  0
LINE
  5
23136
330
747D
100
AcDbEntity
  8
細線
 48
50.0
100
AcDbLine
 10
9388.122667299185
 20
2038.690833376022
 30
0.0
 11
9388.122667299185
 21
1538.690833376024
 31
0.0
  0
LINE
  5
23137
330
747D
100
AcDbEntity
  8
細線
 48
50.0
100
AcDbLine
 10
9358.122667299186
 20
2038.690833376022
 30
0.0
 11
9358.122667299186
 21
1538.690833376024
 31
0.0
  0
LINE
  5
23138
330
747D
100
AcDbEntity
  8
細線
 48
50.0
100
AcDbLine
 10
9108.122667299186
 20
2038.690833376022
 30
0.0
 11
9108.122667299186
 21
1538.690833376024
 31
0.0
  0
LINE
  5
23139
330
747D
100
AcDbEntity
  8
細線
 48
50.0
100
AcDbLine
 10
9078.122667299185
 20
2038.690833376022
 30
0.0
 11
9078.122667299185
 21
1538.690833376024
 31
0.0
  0
LINE
  5
2313A
330
747D
100
AcDbEntity
  8
部品1
100
AcDbLine
 10
8983.122667299186
 20
1532.690833376048
 30
0.0
 11
9569.122667299186
 21
1532.690833376048
 31
0.0
  0
LINE
  5
2313B
330
747D
100
AcDbEntity
  8
部品1
100
AcDbLine
 10
8983.122667299186
 20
1438.690833376046
 30
0.0
 11
9569.122667299186
 21
1438.690833376046
 31
0.0
  0
LINE
  5
2313C
330
747D
100
AcDbEntity
  8
部品1
100
AcDbLine
 10
8983.122667299186
 20
1538.690833376048
 30
0.0
 11
9513.122667299185
 21
1538.690833376048
 31
0.0
  0
LINE
  5
2313D
330
747D
100
AcDbEntity
  8
Ｇ．Ｌ
100
AcDbLine
 10
8983.122667299186
 20
1138.690833376045
 30
0.0
 11
9569.122667299186
 21
1138.690833376041
 31
0.0
  0
LINE
  5
2313E
330
747D
100
AcDbEntity
  8
部品1
100
AcDbLine
 10
9733.122667299186
 20
2038.690833376045
 30
0.0
 11
9733.122667299186
 21
1532.690833376048
 31
0.0
  0
LINE
  5
2313F
330
747D
100
AcDbEntity
  8
部品1
100
AcDbLine
 10
9513.122667299189
 20
2038.690833376045
 30
0.0
 11
9513.122667299185
 21
1532.690833376048
 31
0.0
  0
LINE
  5
23140
330
747D
100
AcDbEntity
  8
細線
100
AcDbLine
 10
9943.122667299185
 20
1153.673905010513
 30
0.0
 11
9677.122667299187
 21
1419.673905010519
 31
0.0
  0
LINE
  5
23141
330
747D
100
AcDbEntity
  8
細線
100
AcDbLine
 10
9924.164613436706
 20
1138.690833376039
 30
0.0
 11
9677.122667299189
 21
1385.732779513561
 31
0.0
  0
LINE
  5
23142
330
747D
100
AcDbEntity
  8
部品1
100
AcDbLine
 10
10263.12266729918
 20
1438.690833376046
 30
0.0
 11
9677.122667299187
 21
1438.690833376046
 31
0.0
  0
LINE
  5
23143
330
747D
100
AcDbEntity
  8
部品1
100
AcDbLine
 10
10263.12266729918
 20
1532.690833376048
 30
0.0
 11
9677.122667299187
 21
1532.690833376048
 31
0.0
  0
LINE
  5
23144
330
747D
100
AcDbEntity
  8
Ｇ．Ｌ
100
AcDbLine
 10
10372.06255351983
 20
1138.690833376045
 30
0.0
 11
9677.122667299187
 21
1138.690833376041
 31
0.0
  0
LINE
  5
23145
330
747D
100
AcDbEntity
  8
部品1
100
AcDbLine
 10
10263.12266729918
 20
1538.690833376048
 30
0.0
 11
9733.122667299186
 21
1538.690833376048
 31
0.0
  0
LINE
  5
23146
330
747D
100
AcDbEntity
  8
細線
100
AcDbLine
 10
9743.145277452946
 20
1138.690833376043
 30
0.0
 11
9677.122667299187
 21
1204.713443529805
 31
0.0
  0
LINE
  5
23147
330
747D
100
AcDbEntity
  8
細線
100
AcDbLine
 10
9371.945277452944
 20
1138.690833376043
 30
0.0
 11
9303.122667299184
 21
1207.513443529802
 31
0.0
  0
LINE
  5
23148
330
747D
100
AcDbEntity
  8
部品1
100
AcDbLine
 10
9303.122667299184
 20
1138.690833376041
 30
0.0
 11
9303.122667299184
 21
1438.690833376046
 31
0.0
  0
LINE
  5
23149
330
747D
100
AcDbEntity
  8
細線
100
AcDbLine
 10
9569.122667299186
 20
1156.473905010513
 30
0.0
 11
9303.122667299184
 21
1422.473905010516
 31
0.0
  0
LINE
  5
2314A
330
747D
100
AcDbEntity
  8
細線
100
AcDbLine
 10
9552.964613436701
 20
1138.690833376039
 30
0.0
 11
9303.12266729919
 21
1388.53277951357
 31
0.0
  0
LINE
  5
2314B
330
747D
100
AcDbEntity
  8
細線
100
AcDbLine
 10
9405.886402949896
 20
1138.690833376043
 30
0.0
 11
9303.122667299184
 21
1241.454569026756
 31
0.0
  0
LINE
  5
2314C
330
747D
100
AcDbEntity
  8
細線
100
AcDbLine
 10
9777.086402949901
 20
1138.690833376043
 30
0.0
 11
9677.122667299187
 21
1238.654569026756
 31
0.0
  0
CIRCLE
  5
2314D
330
747D
100
AcDbEntity
  8
部品1
100
AcDbCircle
 10
9584.122667299185
 20
1482.690833376042
 30
0.0
 40
12.8
  0
CIRCLE
  5
2314E
330
747D
100
AcDbEntity
  8
部品1
100
AcDbCircle
 10
9662.122667299186
 20
1482.690833376043
 30
0.0
 40
12.8
  0
LINE
  5
2314F
330
747D
100
AcDbEntity
  8
部品1
100
AcDbLine
 10
9943.122667299185
 20
1138.690833376041
 30
0.0
 11
9943.122667299181
 21
1438.690833376046
 31
0.0
  0
ARC
  5
23150
330
747D
100
AcDbEntity
  8
部品1
100
AcDbCircle
 10
9667.122667299185
 20
1542.290833376044
 30
0.0
 40
10.0
100
AcDbArc
 50
0.0
 51
90.0
  0
ARC
  5
23151
330
747D
100
AcDbEntity
  8
部品1
100
AcDbCircle
 10
9579.122667299186
 20
1542.290833376043
 30
0.0
 40
10.0
100
AcDbArc
 50
90.0
 51
180.0
  0
ARC
  5
23152
330
747D
100
AcDbEntity
  8
部品1
100
AcDbCircle
 10
9584.122667299185
 20
1492.290833376044
 30
0.0
 40
8.0
100
AcDbArc
 50
0.0
 51
180.0
  0
ARC
  5
23153
330
747D
100
AcDbEntity
  8
部品1
100
AcDbCircle
 10
9584.122667299185
 20
1452.290833376044
 30
0.0
 40
8.0
100
AcDbArc
 50
180.0
 51
251.805127661334
  0
CIRCLE
  5
23154
330
747D
100
AcDbEntity
  8
部品1
100
AcDbCircle
 10
9584.122667299185
 20
1522.290833376044
 30
0.0
 40
8.0
  0
LINE
  5
23155
330
747D
100
AcDbEntity
  8
部品1
100
AcDbLine
 10
9677.122667299187
 20
1434.690833376041
 30
0.0
 11
9677.122667299187
 21
1542.290833376044
 31
0.0
  0
LINE
  5
23156
330
747D
100
AcDbEntity
  8
部品1
100
AcDbLine
 10
9569.122667299186
 20
1542.290833376043
 30
0.0
 11
9569.122667299186
 21
1434.690833376042
 31
0.0
  0
LINE
  5
23157
330
747D
100
AcDbEntity
  8
部品1
100
AcDbLine
 10
9667.122667299185
 20
1552.290833376044
 30
0.0
 11
9579.122667299186
 21
1552.290833376043
 31
0.0
  0
CIRCLE
  5
23158
330
747D
100
AcDbEntity
  8
部品1
100
AcDbCircle
 10
9662.122667299186
 20
1522.290833376044
 30
0.0
 40
8.0
  0
ARC
  5
23159
330
747D
100
AcDbEntity
  8
部品1
100
AcDbCircle
 10
9662.122667299186
 20
1452.290833376044
 30
0.0
 40
8.0
100
AcDbArc
 50
180.0
 51
251.805127661334
  0
ARC
  5
2315A
330
747D
100
AcDbEntity
  8
部品1
100
AcDbCircle
 10
9662.122667299186
 20
1492.290833376044
 30
0.0
 40
8.0
100
AcDbArc
 50
0.0
 51
180.0
  0
CIRCLE
  5
2315B
330
747D
100
AcDbEntity
  8
部品1
100
AcDbCircle
 10
9662.122667299186
 20
1398.057288563071
 30
0.0
 40
12.8
  0
CIRCLE
  5
2315C
330
747D
100
AcDbEntity
  8
部品1
100
AcDbCircle
 10
9584.122667299185
 20
1398.05728856307
 30
0.0
 40
12.8
  0
LINE
  5
2315D
330
747D
100
AcDbEntity
  8
部品1
100
AcDbLine
 10
9654.122667299185
 20
1472.698836578605
 30
0.0
 11
9654.122667299185
 21
1452.290833376044
 31
0.0
  0
LINE
  5
2315E
330
747D
100
AcDbEntity
  8
部品1
100
AcDbLine
 10
9670.122667299185
 20
1472.698836578606
 30
0.0
 11
9670.122667299185
 21
1452.290833376044
 31
0.0
  0
LINE
  5
2315F
330
747D
100
AcDbEntity
  8
部品1
100
AcDbLine
 10
9592.122667299184
 20
1472.698836578605
 30
0.0
 11
9592.122667299184
 21
1452.290833376044
 31
0.0
  0
LINE
  5
23160
330
747D
100
AcDbEntity
  8
部品1
100
AcDbLine
 10
9576.122667299186
 20
1472.698836578605
 30
0.0
 11
9576.122667299186
 21
1452.290833376044
 31
0.0
  0
LINE
  5
23161
330
747D
100
AcDbEntity
  8
細線
100
AcDbLine
 10
9569.122667299186
 20
1346.654569026758
 30
0.0
 11
9477.086402949897
 21
1438.690833376046
 31
0.0
  0
LINE
  5
23162
330
747D
100
AcDbEntity
  8
細線
100
AcDbLine
 10
9569.122667299186
 20
1312.71344352981
 30
0.0
 11
9443.145277452947
 21
1438.690833376046
 31
0.0
  0
LINE
  5
23163
330
747D
100
AcDbEntity
  8
細線
100
AcDbLine
 10
9943.12266729919
 20
1334.693240994274
 30
0.0
 11
9839.125074917411
 21
1438.690833376046
 31
0.0
  0
LINE
  5
23164
330
747D
100
AcDbEntity
  8
細線
100
AcDbLine
 10
9943.122667299185
 20
1300.752115497321
 30
0.0
 11
9805.183949420463
 21
1438.690833376046
 31
0.0
  0
LINE
  5
23165
330
747D
100
AcDbEntity
  8
部品1
 48
50.0
100
AcDbLine
 10
12062.64865692558
 20
2599.999999999999
 30
0.0
 11
12062.64865692558
 21
199.9999999999963
 31
0.0
  0
LINE
  5
23166
330
747D
100
AcDbEntity
  8
部品1
 48
50.0
100
AcDbLine
 10
4995.35635918878
 20
740.7607876117562
 30
0.0
 11
4595.356359188781
 21
740.7607876117545
 31
0.0
  0
LINE
  5
23167
330
747D
100
AcDbEntity
  8
部品1
 48
50.0
100
AcDbLine
 10
4995.356359188781
 20
1140.760787611754
 30
0.0
 11
4995.35635918878
 21
740.7607876117562
 31
0.0
  0
LINE
  5
23168
330
747D
100
AcDbEntity
  8
部品1
 48
50.0
100
AcDbLine
 10
4595.356359188781
 20
740.7607876117545
 30
0.0
 11
4595.356359188781
 21
1140.760787611754
 31
0.0
  0
TEXT
  5
23169
330
747D
100
AcDbEntity
  8
部品1
100
AcDbText
 10
3298.357491939523
 20
485.2500369699864
 30
0.0
 40
80.0
  1
a寸法：100～150mmに対応
  7
STYLE2
100
AcDbText
  0
TEXT
  5
2316A
330
747D
100
AcDbEntity
  8
部品1
100
AcDbText
 10
5987.259138591797
 20
455.3904639477514
 30
0.0
 40
80.0
  1
\U+203BオールアンカーM10(市販品)が6本必要になります。
  7
STYLE2
100
AcDbText
  0
TEXT
  5
2316B
330
747D
100
AcDbEntity
  8
部品1
100
AcDbText
 10
6636.027962717164
 20
624.0115021823967
 30
0.0
 40
80.0
  1
b寸法：100～120mmに対応
  7
STYLE2
100
AcDbText
  0
DIMENSION
  5
2316C
330
747D
100
AcDbEntity
  8
寸法
 48
50.0
100
AcDbDimension
  2
*D41
 10
5093.427363549177
 20
1140.760787611754
 30
0.0
 11
4993.427363549177
 21
1240.760787611756
 31
0.0
 70
    32
  1
a
 71
     5
 42
200.0000000000009
  3
INABA_S40G
100
AcDbAlignedDimension
 13
4845.356359188784
 23
1340.760787611755
 33
0.0
 14
4845.356359188785
 24
1140.760787611754
 34
0.0
 50
90.0
100
AcDbRotatedDimension
1001
ACAD
1000
DSTYLE
1002
{
1070
   174
1070
     0
1070
   272
1070
     1
1070
   288
1070
     0
1070
   341
1005
0
1002
}
  0
TEXT
  5
2316D
330
747D
100
AcDbEntity
  8
部品1
100
AcDbText
 10
7886.660960621639
 20
2175.866049504641
 30
0.0
 40
120.0
  1
地盤がコンクリートの場合
  7
STYLE2
100
AcDbText
  0
LINE
  5
2316E
330
747D
100
AcDbEntity
  8
部品1
100
AcDbLine
 10
11110.74446491486
 20
1467.834426915492
 30
0.0
 11
11110.74446491486
 21
1452.290833376043
 31
0.0
  0
LINE
  5
2316F
330
747D
100
AcDbEntity
  8
部品1
100
AcDbLine
 10
11126.74446491486
 20
1467.834426915492
 30
0.0
 11
11126.74446491486
 21
1452.290833376043
 31
0.0
  0
LINE
  5
23170
330
747D
100
AcDbEntity
  8
部品1
100
AcDbLine
 10
11158.74446491486
 20
1542.290833376046
 30
0.0
 11
11158.74446491486
 21
1438.936302364057
 31
0.0
  0
LINE
  5
23171
330
747D
100
AcDbEntity
  8
部品1
100
AcDbLine
 10
11078.74446491486
 20
1542.290833376043
 30
0.0
 11
11078.74446491486
 21
1438.936302364051
 31
0.0
  0
ARC
  5
23172
330
747D
100
AcDbEntity
  8
部品1
100
AcDbCircle
 10
11118.74446491486
 20
1452.290833376043
 30
0.0
 40
8.0
100
AcDbArc
 50
288.1948723386655
 51
0.0
  0
ARC
  5
23173
330
747D
100
AcDbEntity
  8
部品1
100
AcDbCircle
 10
11118.74446491486
 20
1452.290833376043
 30
0.0
 40
8.0
100
AcDbArc
 50
180.0
 51
251.8051276613345
  0
ARC
  5
23174
330
747D
100
AcDbEntity
  8
部品1
100
AcDbCircle
 10
11149.69040543462
 20
1434.690833376041
 30
0.0
 40
10.0
100
AcDbArc
 50
5.684241598180749
 51
90.0
  0
ARC
  5
23175
330
747D
100
AcDbEntity
  8
部品1
100
AcDbCircle
 10
11087.7985243951
 20
1434.690833376044
 30
0.0
 40
10.0
100
AcDbArc
 50
90.0
 51
174.3157584018192
  0
LINE
  5
23176
330
747D
100
AcDbEntity
  8
部品1
100
AcDbLine
 10
11087.7985243951
 20
1444.690833376044
 30
0.0
 11
11149.69040543462
 21
1444.69083337604
 31
0.0
  0
CIRCLE
  5
23177
330
747D
100
AcDbEntity
  8
部品1
100
AcDbCircle
 10
11118.74446491486
 20
1382.290833376043
 30
0.0
 40
16.0
  0
LINE
  5
23178
330
747D
100
AcDbEntity
  8
細線
100
AcDbLine
 10
11126.74446491486
 20
1422.690833376041
 30
0.0
 11
11126.74446491486
 21
1396.147239836595
 31
0.0
  0
LINE
  5
23179
330
747D
100
AcDbEntity
  8
細線
100
AcDbLine
 10
11110.74446491486
 20
1422.690833376041
 30
0.0
 11
11110.74446491486
 21
1396.147239836595
 31
0.0
  0
LINE
  5
2317A
330
747D
100
AcDbEntity
  8
細線
100
AcDbLine
 10
11133.74446491486
 20
1358.690833376041
 30
0.0
 11
11133.74446491486
 21
1352.690833376041
 31
0.0
  0
LINE
  5
2317B
330
747D
100
AcDbEntity
  8
細線
100
AcDbLine
 10
11103.74446491486
 20
1358.690833376044
 30
0.0
 11
11103.74446491486
 21
1352.690833376044
 31
0.0
  0
LINE
  5
2317C
330
747D
100
AcDbEntity
  8
細線
100
AcDbLine
 10
11103.74446491486
 20
1358.690833376044
 30
0.0
 11
11133.74446491486
 21
1358.690833376044
 31
0.0
  0
LINE
  5
2317D
330
747D
100
AcDbEntity
  8
細線
100
AcDbLine
 10
11103.74446491486
 20
1352.690833376044
 30
0.0
 11
11133.74446491486
 21
1352.690833376044
 31
0.0
  0
ARC
  5
2317E
330
747D
100
AcDbEntity
  8
細線
100
AcDbCircle
 10
11118.74446491486
 20
1422.690833376041
 30
0.0
 40
8.0
100
AcDbArc
 50
0.0
 51
180.0
  0
CIRCLE
  5
2317F
330
747D
100
AcDbEntity
  8
細線
100
AcDbCircle
 10
11118.74446491486
 20
1522.290833376043
 30
0.0
 40
8.0
  0
CIRCLE
  5
23180
330
747D
100
AcDbEntity
  8
部品1
100
AcDbCircle
 10
11118.74446491486
 20
1481.690833376044
 30
0.0
 40
16.0
  0
ARC
  5
23181
330
747D
100
AcDbEntity
  8
部品1
100
AcDbCircle
 10
11118.74446491486
 20
1492.290833376043
 30
0.0
 40
8.0
100
AcDbArc
 50
28.00674301448735
 51
151.9932569855126
  0
ARC
  5
23182
330
747D
100
AcDbEntity
  8
部品1
100
AcDbCircle
 10
11148.74446491486
 20
1542.290833376046
 30
0.0
 40
10.0
100
AcDbArc
 50
0.0
 51
90.0
  0
ARC
  5
23183
330
747D
100
AcDbEntity
  8
部品1
100
AcDbCircle
 10
11088.74446491486
 20
1542.290833376043
 30
0.0
 40
10.0
100
AcDbArc
 50
90.0
 51
180.0
  0
LINE
  5
23184
330
747D
100
AcDbEntity
  8
部品1
100
AcDbLine
 10
11088.74446491486
 20
1552.290833376043
 30
0.0
 11
11148.74446491486
 21
1552.290833376046
 31
0.0
  0
LINE
  5
23185
330
747D
100
AcDbEntity
  8
細線
100
AcDbLine
 10
11070.6651328442
 20
1365.346768098298
 30
0.0
 11
10997.32106756646
 21
1438.690833376044
 31
0.0
  0
LINE
  5
23186
330
747D
100
AcDbEntity
  8
細線
100
AcDbLine
 10
11074.59627043783
 20
1403.842037375855
 30
0.0
 11
11039.74747443765
 21
1438.690833376044
 31
0.0
  0
LINE
  5
23187
330
747D
100
AcDbEntity
  8
部品1
100
AcDbLine
 10
11188.74446491486
 20
1150.690833376044
 30
0.0
 11
11188.74446491486
 21
1138.690833376044
 31
0.0
  0
LINE
  5
23188
330
747D
100
AcDbEntity
  8
部品1
100
AcDbLine
 10
11128.74446491486
 20
1171.090833376045
 30
0.0
 11
11133.74446491486
 21
1171.090833376045
 31
0.0
  0
LINE
  5
23189
330
747D
100
AcDbEntity
  8
部品1
100
AcDbLine
 10
11103.74446491486
 20
1205.090833376046
 30
0.0
 11
11133.74446491486
 21
1205.090833376046
 31
0.0
  0
LINE
  5
2318A
330
747D
100
AcDbEntity
  8
部品1
100
AcDbLine
 10
11103.74446491486
 20
1211.090833376046
 30
0.0
 11
11133.74446491486
 21
1211.090833376046
 31
0.0
  0
LINE
  5
2318B
330
747D
100
AcDbEntity
  8
部品1
100
AcDbLine
 10
11103.74446491486
 20
1211.090833376046
 30
0.0
 11
11103.74446491486
 21
1205.090833376046
 31
0.0
  0
LINE
  5
2318C
330
747D
100
AcDbEntity
  8
部品1
100
AcDbLine
 10
11133.74446491486
 20
1211.090833376042
 30
0.0
 11
11133.74446491486
 21
1205.090833376042
 31
0.0
  0
LINE
  5
2318D
330
747D
100
AcDbEntity
  8
部品1
100
AcDbLine
 10
11111.74446491486
 20
1202.943729399704
 30
0.0
 11
11125.74446491486
 21
1202.943729399704
 31
0.0
  0
LINE
  5
2318E
330
747D
100
AcDbEntity
  8
部品1
100
AcDbLine
 10
11108.74446491486
 20
1190.690833376044
 30
0.0
 11
11128.74446491486
 21
1190.690833376044
 31
0.0
  0
LINE
  5
2318F
330
747D
100
AcDbEntity
  8
部品1
100
AcDbLine
 10
11101.74446491486
 20
1169.690833376044
 30
0.0
 11
11098.74446491486
 21
1166.690833376044
 31
0.0
  0
LINE
  5
23190
330
747D
100
AcDbEntity
  8
部品1
100
AcDbLine
 10
11101.74446491486
 20
1169.690833376044
 30
0.0
 11
11135.74446491486
 21
1169.690833376044
 31
0.0
  0
LINE
  5
23191
330
747D
100
AcDbEntity
  8
部品1
100
AcDbLine
 10
11135.74446491486
 20
1169.690833376044
 30
0.0
 11
11138.74446491486
 21
1166.690833376044
 31
0.0
  0
LINE
  5
23192
330
747D
100
AcDbEntity
  8
部品1
100
AcDbLine
 10
11103.74446491486
 20
1171.090833376045
 30
0.0
 11
11103.74446491486
 21
1169.690833376044
 31
0.0
  0
LINE
  5
23193
330
747D
100
AcDbEntity
  8
部品1
100
AcDbLine
 10
11133.74446491486
 20
1171.090833376042
 30
0.0
 11
11133.74446491486
 21
1169.690833376044
 31
0.0
  0
LINE
  5
23194
330
747D
100
AcDbEntity
  8
部品1
100
AcDbLine
 10
11088.74446491486
 20
1153.690833376044
 30
0.0
 11
11148.74446491486
 21
1153.690833376048
 31
0.0
  0
LINE
  5
23195
330
747D
100
AcDbEntity
  8
部品1
100
AcDbLine
 10
11088.74446491486
 20
1150.690833376044
 30
0.0
 11
11088.74446491486
 21
1153.690833376044
 31
0.0
  0
LINE
  5
23196
330
747D
100
AcDbEntity
  8
部品1
100
AcDbLine
 10
11148.74446491486
 20
1150.690833376044
 30
0.0
 11
11148.74446491486
 21
1153.690833376051
 31
0.0
  0
LINE
  5
23197
330
747D
100
AcDbEntity
  8
部品1
100
AcDbLine
 10
11098.74446491486
 20
1153.690833376044
 30
0.0
 11
11098.74446491486
 21
1166.690833376044
 31
0.0
  0
LINE
  5
23198
330
747D
100
AcDbEntity
  8
部品1
100
AcDbLine
 10
11108.74446491486
 20
1153.690833376044
 30
0.0
 11
11108.74446491486
 21
1190.690833376044
 31
0.0
  0
LINE
  5
23199
330
747D
100
AcDbEntity
  8
部品1
100
AcDbLine
 10
11128.74446491486
 20
1153.690833376044
 30
0.0
 11
11128.74446491486
 21
1190.690833376044
 31
0.0
  0
LINE
  5
2319A
330
747D
100
AcDbEntity
  8
部品1
100
AcDbLine
 10
11138.74446491486
 20
1153.690833376048
 30
0.0
 11
11138.74446491486
 21
1166.690833376044
 31
0.0
  0
LINE
  5
2319B
330
747D
100
AcDbEntity
  8
部品1
100
AcDbLine
 10
11103.74446491486
 20
1171.090833376045
 30
0.0
 11
11108.74446491486
 21
1171.090833376045
 31
0.0
  0
LINE
  5
2319C
330
747D
100
AcDbEntity
  8
部品1
100
AcDbLine
 10
11128.74446491486
 20
1171.090833376045
 30
0.0
 11
11133.74446491486
 21
1171.090833376045
 31
0.0
  0
LINE
  5
2319D
330
747D
100
AcDbEntity
  8
部品1
100
AcDbLine
 10
11098.74446491486
 20
1166.690833376044
 30
0.0
 11
11138.74446491486
 21
1166.690833376044
 31
0.0
  0
ARC
  5
2319E
330
747D
100
AcDbEntity
  8
部品1
100
AcDbCircle
 10
11103.74446491486
 20
1162.176078585726
 30
0.0
 40
6.736691384996243
100
AcDbArc
 50
42.08048849859669
 51
137.9195115014033
  0
ARC
  5
2319F
330
747D
100
AcDbEntity
  8
部品1
100
AcDbCircle
 10
11133.74446491486
 20
1162.176078585726
 30
0.0
 40
6.736691384996243
100
AcDbArc
 50
42.08048849859669
 51
137.9195115014033
  0
ARC
  5
231A0
330
747D
100
AcDbEntity
  8
部品1
100
AcDbCircle
 10
11118.74446491486
 20
1145.602200155227
 30
0.0
 40
23.33946124318486
100
AcDbArc
 50
64.63020194521516
 51
115.3697980547848
  0
LINE
  5
231A1
330
747D
100
AcDbEntity
  8
部品1
100
AcDbLine
 10
11111.74446491486
 20
1198.943729399704
 30
0.0
 11
11125.74446491486
 21
1198.943729399704
 31
0.0
  0
LINE
  5
231A2
330
747D
100
AcDbEntity
  8
部品1
100
AcDbLine
 10
11113.74446491486
 20
1190.690833376044
 30
0.0
 11
11113.74446491486
 21
1198.943729399704
 31
0.0
  0
LINE
  5
231A3
330
747D
100
AcDbEntity
  8
部品1
100
AcDbLine
 10
11123.74446491486
 20
1190.690833376044
 30
0.0
 11
11123.74446491486
 21
1198.943729399704
 31
0.0
  0
LINE
  5
231A4
330
747D
100
AcDbEntity
  8
部品1
100
AcDbLine
 10
11108.74446491486
 20
1138.690833376044
 30
0.0
 11
11108.74446491486
 21
1103.290833376043
 31
0.0
  0
LINE
  5
231A5
330
747D
100
AcDbEntity
  8
部品1
100
AcDbLine
 10
11128.74446491486
 20
1138.690833376044
 30
0.0
 11
11128.74446491486
 21
1103.290833376043
 31
0.0
  0
LINE
  5
231A6
330
747D
100
AcDbEntity
  8
部品1
100
AcDbLine
 10
11116.83396428132
 20
1103.290833376043
 30
0.0
 11
11120.6549655484
 21
1103.290833376043
 31
0.0
  0
LINE
  5
231A7
330
747D
100
AcDbEntity
  8
部品1
100
AcDbLine
 10
11105.4145930676
 20
1081.091687727669
 30
0.0
 11
11113.32608389055
 21
1079.90496410423
 31
0.0
  0
LINE
  5
231A8
330
747D
100
AcDbEntity
  8
部品1
100
AcDbLine
 10
11106.30463578518
 20
1087.02530584488
 30
0.0
 11
11114.21612660813
 21
1085.838582221441
 31
0.0
  0
LINE
  5
231A9
330
747D
100
AcDbEntity
  8
部品1
100
AcDbLine
 10
11107.19467850276
 20
1092.958923962091
 30
0.0
 11
11115.10616932571
 21
1091.772200338648
 31
0.0
  0
LINE
  5
231AA
330
747D
100
AcDbEntity
  8
部品1
100
AcDbLine
 10
11108.08472122034
 20
1098.892542079299
 30
0.0
 11
11115.99621204329
 21
1097.705818455856
 31
0.0
  0
LINE
  5
231AB
330
747D
100
AcDbEntity
  8
部品1
100
AcDbLine
 10
11124.16284593917
 20
1079.90496410423
 30
0.0
 11
11132.07433676212
 21
1081.091687727669
 31
0.0
  0
LINE
  5
231AC
330
747D
100
AcDbEntity
  8
部品1
100
AcDbLine
 10
11123.27280322159
 20
1085.838582221441
 30
0.0
 11
11131.18429404454
 21
1087.02530584488
 31
0.0
  0
LINE
  5
231AD
330
747D
100
AcDbEntity
  8
部品1
100
AcDbLine
 10
11122.38276050401
 20
1091.772200338648
 30
0.0
 11
11130.29425132696
 21
1092.958923962091
 31
0.0
  0
LINE
  5
231AE
330
747D
100
AcDbEntity
  8
部品1
100
AcDbLine
 10
11121.49271778643
 20
1097.705818455856
 30
0.0
 11
11129.40420860938
 21
1098.892542079299
 31
0.0
  0
LINE
  5
231AF
330
747D
100
AcDbEntity
  8
部品1
100
AcDbLine
 10
11111.74446491486
 20
1198.943729399704
 30
0.0
 11
11111.74446491486
 21
1202.943729399704
 31
0.0
  0
LINE
  5
231B0
330
747D
100
AcDbEntity
  8
部品1
100
AcDbLine
 10
11125.74446491486
 20
1198.943729399704
 30
0.0
 11
11125.74446491486
 21
1202.943729399704
 31
0.0
  0
LINE
  5
231B1
330
747D
100
AcDbEntity
  8
部品1
100
AcDbLine
 10
11103.74446491486
 20
1169.690833376044
 30
0.0
 11
11133.74446491486
 21
1169.690833376044
 31
0.0
  0
LINE
  5
231B2
330
747D
100
AcDbEntity
  8
部品1
100
AcDbLine
 10
11133.74446491486
 20
1171.090833376042
 30
0.0
 11
11133.74446491486
 21
1169.690833376044
 31
0.0
  0
LINE
  5
231B3
330
747D
100
AcDbEntity
  8
部品1
100
AcDbLine
 10
11103.74446491486
 20
1171.090833376045
 30
0.0
 11
11103.74446491486
 21
1169.69083337604
 31
0.0
  0
LINE
  5
231B4
330
747D
100
AcDbEntity
  8
部品1
100
AcDbLine
 10
11103.74446491486
 20
1171.090833376045
 30
0.0
 11
11108.74446491486
 21
1171.090833376045
 31
0.0
  0
LINE
  5
231B5
330
747D
100
AcDbEntity
  8
部品1
100
AcDbLine
 10
11133.74446491486
 20
1211.090833376042
 30
0.0
 11
11133.74446491486
 21
1205.090833376042
 31
0.0
  0
LINE
  5
231B6
330
747D
100
AcDbEntity
  8
部品1
100
AcDbLine
 10
11103.74446491486
 20
1211.090833376046
 30
0.0
 11
11103.74446491486
 21
1205.090833376046
 31
0.0
  0
LINE
  5
231B7
330
747D
100
AcDbEntity
  8
部品1
100
AcDbLine
 10
11103.74446491486
 20
1211.090833376046
 30
0.0
 11
11133.74446491486
 21
1211.090833376046
 31
0.0
  0
LINE
  5
231B8
330
747D
100
AcDbEntity
  8
部品1
100
AcDbLine
 10
11103.74446491486
 20
1205.090833376046
 30
0.0
 11
11133.74446491486
 21
1205.090833376046
 31
0.0
  0
LINE
  5
231B9
330
747D
100
AcDbEntity
  8
部品1
100
AcDbLine
 10
11048.74446491486
 20
1150.690833376044
 30
0.0
 11
11048.74446491486
 21
1138.690833376044
 31
0.0
  0
LINE
  5
231BA
330
747D
100
AcDbEntity
  8
部品1
100
AcDbLine
 10
11102.74446491486
 20
1063.290833376043
 30
0.0
 11
11110.65595573781
 21
1062.104109752603
 31
0.0
  0
LINE
  5
231BB
330
747D
100
AcDbEntity
  8
部品1
100
AcDbLine
 10
11126.83297409191
 20
1062.104109752603
 30
0.0
 11
11134.74446491486
 21
1063.290833376043
 31
0.0
  0
LINE
  5
231BC
330
747D
100
AcDbEntity
  8
部品1
100
AcDbLine
 10
11103.63450763244
 20
1069.224451493254
 30
0.0
 11
11111.54599845539
 21
1068.037727869811
 31
0.0
  0
LINE
  5
231BD
330
747D
100
AcDbEntity
  8
部品1
100
AcDbLine
 10
11104.52455035002
 20
1075.158069610461
 30
0.0
 11
11112.43604117297
 21
1073.971345987018
 31
0.0
  0
LINE
  5
231BE
330
747D
100
AcDbEntity
  8
部品1
100
AcDbLine
 10
11125.94293137433
 20
1068.037727869811
 30
0.0
 11
11133.85442219728
 21
1069.224451493254
 31
0.0
  0
LINE
  5
231BF
330
747D
100
AcDbEntity
  8
部品1
100
AcDbLine
 10
11125.05288865675
 20
1073.971345987018
 30
0.0
 11
11132.9643794797
 21
1075.158069610461
 31
0.0
  0
LINE
  5
231C0
330
747D
100
AcDbEntity
  8
部品1
100
AcDbLine
 10
11108.74446491486
 20
1103.290833376043
 30
0.0
 11
11102.74446491486
 21
1063.290833376043
 31
0.0
  0
LINE
  5
231C1
330
747D
100
AcDbEntity
  8
部品1
100
AcDbLine
 10
11134.74446491486
 20
1063.290833376043
 30
0.0
 11
11128.74446491486
 21
1103.290833376043
 31
0.0
  0
LINE
  5
231C2
330
747D
100
AcDbEntity
  8
部品1
100
AcDbLine
 10
11116.83396428132
 20
1103.290833376043
 30
0.0
 11
11110.65595573781
 21
1062.104109752603
 31
0.0
  0
LINE
  5
231C3
330
747D
100
AcDbEntity
  8
部品1
100
AcDbLine
 10
11126.83297409191
 20
1062.104109752603
 30
0.0
 11
11120.6549655484
 21
1103.290833376043
 31
0.0
  0
LINE
  5
231C4
330
747D
100
AcDbEntity
  8
部品1
100
AcDbLine
 10
11048.74446491486
 20
1138.690833376044
 30
0.0
 11
11188.74446491486
 21
1138.690833376044
 31
0.0
  0
LINE
  5
231C5
330
747D
100
AcDbEntity
  8
部品1
100
AcDbLine
 10
11048.74446491486
 20
1150.690833376044
 30
0.0
 11
11188.74446491486
 21
1150.690833376044
 31
0.0
  0
LINE
  5
231C6
330
747D
100
AcDbEntity
  8
部品1
100
AcDbLine
 10
11159.64123392293
 20
1435.681294074944
 30
0.0
 11
11188.74446491486
 21
1150.690833376044
 31
0.0
  0
LINE
  5
231C7
330
747D
100
AcDbEntity
  8
部品1
100
AcDbLine
 10
11077.84769590679
 20
1435.681294074944
 30
0.0
 11
11048.74446491486
 21
1150.690833376044
 31
0.0
  0
DIMENSION
  5
231C8
330
747D
100
AcDbEntity
  8
寸法
 48
50.0
100
AcDbDimension
  2
*D42
 10
11361.49111054165
 20
1138.690833376044
 30
0.0
 11
11261.49111054165
 21
1288.690833376046
 31
0.0
 70
    32
  1
c
 71
     5
 42
300.0
  3
INABA_S40G
100
AcDbAlignedDimension
 13
11158.85555682453
 23
1438.690833376044
 33
0.0
 14
11188.74446491486
 24
1138.690833376044
 34
0.0
 50
90.0
100
AcDbRotatedDimension
1001
ACAD
1000
DSTYLE
1002
{
1070
   174
1070
     0
1070
   272
1070
     1
1070
   288
1070
     0
1070
   341
1005
0
1002
}
  0
LINE
  5
231C9
330
747D
100
AcDbEntity
  8
細線
 48
10.0
100
AcDbLine
 10
11146.30922320576
 20
831.7726360367601
 30
0.0
 11
11453.22742054504
 21
1138.690833376044
 31
0.0
  0
LINE
  5
231CA
330
747D
100
AcDbEntity
  8
細線
 48
10.0
100
AcDbLine
 10
11174.59349445322
 20
831.7726360367601
 30
0.0
 11
11481.5116917925
 21
1138.690833376044
 31
0.0
  0
LINE
  5
231CB
330
747D
100
AcDbEntity
  8
細線
 48
10.0
100
AcDbLine
 10
11202.87776570068
 20
831.7726360367601
 30
0.0
 11
11509.79596303996
 21
1138.690833376046
 31
0.0
  0
LINE
  5
231CC
330
747D
100
AcDbEntity
  8
細線
100
AcDbLine
 10
10844.77272760706
 20
1138.690833376044
 30
0.0
 11
10758.74446491486
 21
1224.719096068244
 31
0.0
  0
LINE
  5
231CD
330
747D
100
AcDbEntity
  8
細線
100
AcDbLine
 10
10887.19913447825
 20
1138.690833376044
 30
0.0
 11
10758.74446491486
 21
1267.145502939437
 31
0.0
  0
LINE
  5
231CE
330
747D
100
AcDbEntity
  8
部品1
100
AcDbLine
 10
10758.74446491486
 20
1138.690833376041
 30
0.0
 11
10758.74446491486
 21
1438.690833376044
 31
0.0
  0
LINE
  5
231CF
330
747D
100
AcDbEntity
  8
細線
 48
10.0
100
AcDbLine
 10
10535.94706811615
 20
1074.727258652816
 30
0.0
 11
10599.91064283938
 21
1138.690833376044
 31
0.0
  0
LINE
  5
231D0
330
747D
100
AcDbEntity
  8
細線
 48
10.0
100
AcDbLine
 10
10535.94706811615
 20
1046.442987405362
 30
0.0
 11
10628.19491408683
 21
1138.690833376044
 31
0.0
  0
LINE
  5
231D1
330
747D
100
AcDbEntity
  8
細線
 48
10.0
100
AcDbLine
 10
10535.94706811615
 20
1018.158716157903
 30
0.0
 11
10656.47918533428
 21
1138.690833376044
 31
0.0
  0
LINE
  5
231D2
330
747D
100
AcDbEntity
  8
細線
 48
10.0
100
AcDbLine
 10
10776.21937684786
 20
831.7726360367601
 30
0.0
 11
11083.13757418712
 21
1138.690833376044
 31
0.0
  0
LINE
  5
231D3
330
747D
100
AcDbEntity
  8
細線
 48
10.0
100
AcDbLine
 10
10747.9351056004
 20
831.7726360367601
 30
0.0
 11
11054.85330293967
 21
1138.690833376044
 31
0.0
  0
LINE
  5
231D4
330
747D
100
AcDbEntity
  8
細線
 48
10.0
100
AcDbLine
 10
10719.65083435294
 20
831.7726360367601
 30
0.0
 11
11026.56903169221
 21
1138.690833376046
 31
0.0
  0
LINE
  5
231D5
330
747D
100
AcDbEntity
  8
細線
100
AcDbLine
 10
11053.63020327178
 20
1198.533934562216
 30
0.0
 11
10813.47330445795
 21
1438.690833376044
 31
0.0
  0
LINE
  5
231D6
330
747D
100
AcDbEntity
  8
細線
100
AcDbLine
 10
11049.69906567814
 20
1160.038665284659
 30
0.0
 11
10771.04689758676
 21
1438.690833376044
 31
0.0
  0
LINE
  5
231D7
330
747D
100
AcDbEntity
  8
部品1
100
AcDbLine
 10
10535.94706811615
 20
1532.690833376046
 30
0.0
 11
11078.74446491486
 21
1532.690833376046
 31
0.0
  0
LINE
  5
231D8
330
747D
100
AcDbEntity
  8
部品1
100
AcDbLine
 10
10535.94706811615
 20
1538.690833376046
 30
0.0
 11
11048.74446491486
 21
1538.690833376046
 31
0.0
  0
LINE
  5
231D9
330
747D
100
AcDbEntity
  8
部品1
100
AcDbLine
 10
10535.94706811615
 20
1438.690833376044
 30
0.0
 11
11078.6333730052
 21
1438.690833376046
 31
0.0
  0
TEXT
  5
231DA
330
747D
100
AcDbEntity
  8
部品1
100
AcDbText
 10
8422.901063470256
 20
1148.666829290658
 30
0.0
 40
120.0
  1
▽G.L
  7
STYLE1
100
AcDbText
  0
LINE
  5
231DB
330
747D
100
AcDbEntity
  8
細線
 48
10.0
100
AcDbLine
 10
8343.921841537627
 20
833.8425902724702
 30
0.0
 11
8650.840038876902
 21
1140.760787611754
 31
0.0
  0
LINE
  5
231DC
330
747D
100
AcDbEntity
  8
細線
 48
10.0
100
AcDbLine
 10
8372.206112785089
 20
833.8425902724702
 30
0.0
 11
8679.124310124363
 21
1140.760787611754
 31
0.0
  0
LINE
  5
231DD
330
747D
100
AcDbEntity
  8
細線
 48
10.0
100
AcDbLine
 10
8400.490384032551
 20
833.8425902724702
 30
0.0
 11
8707.408581371828
 21
1140.760787611754
 31
0.0
  0
LINE
  5
231DE
330
747D
100
AcDbEntity
  8
細線
100
AcDbLine
 10
8023.41186020188
 20
1360.760787611751
 30
0.0
 11
8023.41186020188
 21
1354.760787611751
 31
0.0
  0
LINE
  5
231DF
330
747D
100
AcDbEntity
  8
細線
100
AcDbLine
 10
7993.411860201881
 20
1360.760787611756
 30
0.0
 11
7993.411860201881
 21
1354.760787611756
 31
0.0
  0
LINE
  5
231E0
330
747D
100
AcDbEntity
  8
細線
100
AcDbLine
 10
7993.411860201881
 20
1354.760787611756
 30
0.0
 11
8023.41186020188
 21
1354.760787611756
 31
0.0
  0
ARC
  5
231E1
330
747D
100
AcDbEntity
  8
部品1
100
AcDbCircle
 10
8039.357800721637
 20
1436.760787611753
 30
0.0
 40
10.0
100
AcDbArc
 50
5.684241598180749
 51
90.0
  0
LINE
  5
231E2
330
747D
100
AcDbEntity
  8
部品1
100
AcDbLine
 10
7977.465919682124
 20
1446.760787611754
 30
0.0
 11
8039.357800721637
 21
1446.760787611752
 31
0.0
  0
ARC
  5
231E3
330
747D
100
AcDbEntity
  8
細線
100
AcDbCircle
 10
8008.41186020188
 20
1424.760787611752
 30
0.0
 40
8.0
100
AcDbArc
 50
0.0
 51
180.0
  0
LINE
  5
231E4
330
747D
100
AcDbEntity
  8
細線
100
AcDbLine
 10
8016.411860201881
 20
1424.760787611752
 30
0.0
 11
8016.411860201881
 21
1398.617194072307
 31
0.0
  0
LINE
  5
231E5
330
747D
100
AcDbEntity
  8
細線
100
AcDbLine
 10
8000.41186020188
 20
1424.760787611752
 30
0.0
 11
8000.41186020188
 21
1398.617194072307
 31
0.0
  0
LINE
  5
231E6
330
747D
100
AcDbEntity
  8
細線
100
AcDbLine
 10
7993.411860201881
 20
1360.760787611756
 30
0.0
 11
8023.41186020188
 21
1360.760787611756
 31
0.0
  0
CIRCLE
  5
231E7
330
747D
100
AcDbEntity
  8
部品1
100
AcDbCircle
 10
8008.41186020188
 20
1384.760787611754
 30
0.0
 40
16.0
  0
ARC
  5
231E8
330
747D
100
AcDbEntity
  8
部品1
100
AcDbCircle
 10
7977.465919682124
 20
1436.760787611756
 30
0.0
 40
10.0
100
AcDbArc
 50
90.0
 51
174.3157584018192
  0
LINE
  5
231E9
330
747D
100
AcDbEntity
  8
部品1
100
AcDbLine
 10
8011.160113073451
 20
1099.775772691568
 30
0.0
 11
8019.071603896398
 21
1100.962496315011
 31
0.0
  0
LINE
  5
231EA
330
747D
100
AcDbEntity
  8
部品1
100
AcDbLine
 10
8012.050155791035
 20
1093.842154574358
 30
0.0
 11
8019.96164661398
 21
1095.028878197801
 31
0.0
  0
LINE
  5
231EB
330
747D
100
AcDbEntity
  8
部品1
100
AcDbLine
 10
8012.940198508617
 20
1087.908536457153
 30
0.0
 11
8020.851689331562
 21
1089.095260080592
 31
0.0
  0
LINE
  5
231EC
330
747D
100
AcDbEntity
  8
部品1
100
AcDbLine
 10
8013.830241226193
 20
1081.97491833994
 30
0.0
 11
8021.741732049139
 21
1083.161641963381
 31
0.0
  0
LINE
  5
231ED
330
747D
100
AcDbEntity
  8
部品1
100
AcDbLine
 10
8014.720283943777
 20
1076.04130022273
 30
0.0
 11
8022.631774766722
 21
1077.228023846173
 31
0.0
  0
LINE
  5
231EE
330
747D
100
AcDbEntity
  8
部品1
100
AcDbLine
 10
8015.61032666135
 20
1070.107682105521
 30
0.0
 11
8023.521817484306
 21
1071.294405728964
 31
0.0
  0
LINE
  5
231EF
330
747D
100
AcDbEntity
  8
部品1
100
AcDbLine
 10
7997.752116507365
 20
1100.962496315011
 30
0.0
 11
8005.66360733031
 21
1099.775772691568
 31
0.0
  0
LINE
  5
231F0
330
747D
100
AcDbEntity
  8
部品1
100
AcDbLine
 10
7996.862073789782
 20
1095.028878197801
 30
0.0
 11
8004.773564612728
 21
1093.842154574358
 31
0.0
  0
LINE
  5
231F1
330
747D
100
AcDbEntity
  8
部品1
100
AcDbLine
 10
7995.972031072206
 20
1089.095260080592
 30
0.0
 11
8003.883521895152
 21
1087.908536457153
 31
0.0
  0
LINE
  5
231F2
330
747D
100
AcDbEntity
  8
部品1
100
AcDbLine
 10
7995.081988354623
 20
1083.161641963381
 30
0.0
 11
8002.993479177568
 21
1081.97491833994
 31
0.0
  0
LINE
  5
231F3
330
747D
100
AcDbEntity
  8
部品1
100
AcDbLine
 10
7994.19194563704
 20
1077.228023846173
 30
0.0
 11
8002.103436459986
 21
1076.04130022273
 31
0.0
  0
LINE
  5
231F4
330
747D
100
AcDbEntity
  8
部品1
100
AcDbLine
 10
7993.301902919464
 20
1071.294405728964
 30
0.0
 11
8001.213393742409
 21
1070.107682105521
 31
0.0
  0
LINE
  5
231F5
330
747D
100
AcDbEntity
  8
部品1
100
AcDbLine
 10
8016.500369378935
 20
1064.174063988315
 30
0.0
 11
8024.411860201881
 21
1065.360787611755
 31
0.0
  0
LINE
  5
231F6
330
747D
100
AcDbEntity
  8
部品1
100
AcDbLine
 10
7992.41186020188
 20
1065.360787611755
 30
0.0
 11
8000.323351024826
 21
1064.174063988315
 31
0.0
  0
LINE
  5
231F7
330
747D
100
AcDbEntity
  8
部品1
100
AcDbLine
 10
8016.500369378935
 20
1064.174063988315
 30
0.0
 11
8010.322360835418
 21
1105.360787611755
 31
0.0
  0
LINE
  5
231F8
330
747D
100
AcDbEntity
  8
部品1
100
AcDbLine
 10
8006.501359568344
 20
1105.360787611755
 30
0.0
 11
8000.323351024826
 21
1064.174063988315
 31
0.0
  0
LINE
  5
231F9
330
747D
100
AcDbEntity
  8
部品1
100
AcDbLine
 10
8024.411860201881
 20
1065.360787611755
 30
0.0
 11
8018.411860201881
 21
1105.360787611755
 31
0.0
  0
LINE
  5
231FA
330
747D
100
AcDbEntity
  8
部品1
100
AcDbLine
 10
7998.411860201881
 20
1105.360787611755
 30
0.0
 11
7992.41186020188
 21
1065.360787611755
 31
0.0
  0
LINE
  5
231FB
330
747D
100
AcDbEntity
  8
部品1
100
AcDbLine
 10
8006.501359568344
 20
1105.360787611755
 30
0.0
 11
8010.322360835418
 21
1105.360787611755
 31
0.0
  0
LINE
  5
231FC
330
747D
100
AcDbEntity
  8
部品1
100
AcDbLine
 10
8018.411860201881
 20
1140.760787611754
 30
0.0
 11
8018.411860201881
 21
1105.360787611755
 31
0.0
  0
LINE
  5
231FD
330
747D
100
AcDbEntity
  8
部品1
100
AcDbLine
 10
7998.411860201881
 20
1140.760787611754
 30
0.0
 11
7998.411860201881
 21
1105.360787611755
 31
0.0
  0
LINE
  5
231FE
330
747D
100
AcDbEntity
  8
部品1
100
AcDbLine
 10
8001.411860201882
 20
1201.013683635416
 30
0.0
 11
8015.411860201881
 21
1201.013683635416
 31
0.0
  0
LINE
  5
231FF
330
747D
100
AcDbEntity
  8
部品1
100
AcDbLine
 10
8015.411860201881
 20
1201.013683635416
 30
0.0
 11
8015.411860201881
 21
1205.013683635416
 31
0.0
  0
LINE
  5
23200
330
747D
100
AcDbEntity
  8
部品1
100
AcDbLine
 10
8001.411860201882
 20
1201.013683635416
 30
0.0
 11
8001.411860201882
 21
1205.013683635416
 31
0.0
  0
LINE
  5
23201
330
747D
100
AcDbEntity
  8
部品1
100
AcDbLine
 10
8013.41186020188
 20
1192.760787611756
 30
0.0
 11
8013.41186020188
 21
1201.013683635416
 31
0.0
  0
LINE
  5
23202
330
747D
100
AcDbEntity
  8
部品1
100
AcDbLine
 10
8003.411860201881
 20
1192.760787611756
 30
0.0
 11
8003.411860201881
 21
1201.013683635416
 31
0.0
  0
LINE
  5
23203
330
747D
100
AcDbEntity
  8
部品1
100
AcDbLine
 10
8001.411860201882
 20
1205.013683635416
 30
0.0
 11
8015.411860201881
 21
1205.013683635416
 31
0.0
  0
ARC
  5
23204
330
747D
100
AcDbEntity
  8
部品1
100
AcDbCircle
 10
8008.41186020188
 20
1147.672154390937
 30
0.0
 40
23.33946124318486
100
AcDbArc
 50
64.63020194521516
 51
115.3697980547848
  0
ARC
  5
23205
330
747D
100
AcDbEntity
  8
部品1
100
AcDbCircle
 10
8023.41186020188
 20
1164.246032821438
 30
0.0
 40
6.736691384996243
100
AcDbArc
 50
42.08048849859669
 51
137.9195115014033
  0
ARC
  5
23206
330
747D
100
AcDbEntity
  8
部品1
100
AcDbCircle
 10
7993.411860201881
 20
1164.246032821438
 30
0.0
 40
6.736691384996243
100
AcDbArc
 50
42.08048849859669
 51
137.9195115014033
  0
LINE
  5
23207
330
747D
100
AcDbEntity
  8
部品1
100
AcDbLine
 10
7988.41186020188
 20
1168.760787611756
 30
0.0
 11
8028.411860201881
 21
1168.760787611756
 31
0.0
  0
LINE
  5
23208
330
747D
100
AcDbEntity
  8
部品1
100
AcDbLine
 10
8018.411860201881
 20
1173.160787611758
 30
0.0
 11
8023.41186020188
 21
1173.160787611758
 31
0.0
  0
LINE
  5
23209
330
747D
100
AcDbEntity
  8
部品1
100
AcDbLine
 10
8038.411860201881
 20
1152.760787611754
 30
0.0
 11
8038.411860201881
 21
1155.760787611763
 31
0.0
  0
LINE
  5
2320A
330
747D
100
AcDbEntity
  8
部品1
100
AcDbLine
 10
7978.41186020188
 20
1152.760787611754
 30
0.0
 11
7978.41186020188
 21
1155.760787611754
 31
0.0
  0
LINE
  5
2320B
330
747D
100
AcDbEntity
  8
部品1
100
AcDbLine
 10
8025.411860201881
 20
1171.760787611756
 30
0.0
 11
8028.411860201881
 21
1168.760787611756
 31
0.0
  0
LINE
  5
2320C
330
747D
100
AcDbEntity
  8
部品1
100
AcDbLine
 10
7991.41186020188
 20
1171.760787611756
 30
0.0
 11
7988.41186020188
 21
1168.760787611756
 31
0.0
  0
LINE
  5
2320D
330
747D
100
AcDbEntity
  8
部品1
100
AcDbLine
 10
8028.411860201881
 20
1155.76078761176
 30
0.0
 11
8028.411860201881
 21
1168.760787611756
 31
0.0
  0
LINE
  5
2320E
330
747D
100
AcDbEntity
  8
部品1
100
AcDbLine
 10
7988.41186020188
 20
1155.760787611754
 30
0.0
 11
7988.41186020188
 21
1168.760787611756
 31
0.0
  0
LINE
  5
2320F
330
747D
100
AcDbEntity
  8
部品1
100
AcDbLine
 10
7991.41186020188
 20
1171.760787611756
 30
0.0
 11
8025.411860201881
 21
1171.760787611756
 31
0.0
  0
LINE
  5
23210
330
747D
100
AcDbEntity
  8
部品1
100
AcDbLine
 10
8018.411860201881
 20
1155.760787611754
 30
0.0
 11
8018.411860201881
 21
1192.760787611756
 31
0.0
  0
LINE
  5
23211
330
747D
100
AcDbEntity
  8
部品1
100
AcDbLine
 10
7998.411860201881
 20
1155.760787611754
 30
0.0
 11
7998.411860201881
 21
1192.760787611756
 31
0.0
  0
LINE
  5
23212
330
747D
100
AcDbEntity
  8
部品1
100
AcDbLine
 10
7998.411860201881
 20
1192.760787611756
 30
0.0
 11
8018.411860201881
 21
1192.760787611756
 31
0.0
  0
LINE
  5
23213
330
747D
100
AcDbEntity
  8
部品1
100
AcDbLine
 10
7978.41186020188
 20
1155.760787611754
 30
0.0
 11
8038.411860201881
 21
1155.76078761176
 31
0.0
  0
LINE
  5
23214
330
747D
100
AcDbEntity
  8
部品1
100
AcDbLine
 10
8023.41186020188
 20
1173.160787611752
 30
0.0
 11
8023.41186020188
 21
1171.760787611756
 31
0.0
  0
LINE
  5
23215
330
747D
100
AcDbEntity
  8
部品1
100
AcDbLine
 10
8023.41186020188
 20
1213.160787611754
 30
0.0
 11
8023.41186020188
 21
1207.160787611754
 31
0.0
  0
LINE
  5
23216
330
747D
100
AcDbEntity
  8
部品1
100
AcDbLine
 10
8078.41186020188
 20
1152.760787611754
 30
0.0
 11
8078.41186020188
 21
1140.760787611754
 31
0.0
  0
LINE
  5
23217
330
747D
100
AcDbEntity
  8
部品1
100
AcDbLine
 10
7993.411860201881
 20
1173.160787611758
 30
0.0
 11
7993.411860201881
 21
1171.760787611756
 31
0.0
  0
LINE
  5
23218
330
747D
100
AcDbEntity
  8
部品1
100
AcDbLine
 10
7993.411860201881
 20
1213.160787611758
 30
0.0
 11
7993.411860201881
 21
1207.160787611758
 31
0.0
  0
LINE
  5
23219
330
747D
100
AcDbEntity
  8
部品1
100
AcDbLine
 10
7993.411860201881
 20
1173.160787611758
 30
0.0
 11
7998.411860201881
 21
1173.160787611758
 31
0.0
  0
LINE
  5
2321A
330
747D
100
AcDbEntity
  8
部品1
100
AcDbLine
 10
7993.411860201881
 20
1213.160787611758
 30
0.0
 11
8023.41186020188
 21
1213.160787611758
 31
0.0
  0
LINE
  5
2321B
330
747D
100
AcDbEntity
  8
部品1
100
AcDbLine
 10
7993.411860201881
 20
1207.160787611758
 30
0.0
 11
8023.41186020188
 21
1207.160787611758
 31
0.0
  0
LINE
  5
2321C
330
747D
100
AcDbEntity
  8
部品1
100
AcDbLine
 10
7938.41186020188
 20
1152.760787611754
 30
0.0
 11
7938.41186020188
 21
1140.760787611754
 31
0.0
  0
LINE
  5
2321D
330
747D
100
AcDbEntity
  8
部品1
100
AcDbLine
 10
7938.41186020188
 20
1140.760787611754
 30
0.0
 11
8078.41186020188
 21
1140.760787611754
 31
0.0
  0
LINE
  5
2321E
330
747D
100
AcDbEntity
  8
部品1
100
AcDbLine
 10
7938.41186020188
 20
1152.760787611754
 30
0.0
 11
8078.41186020188
 21
1152.760787611754
 31
0.0
  0
LINE
  5
2321F
330
747D
100
AcDbEntity
  8
部品1
100
AcDbLine
 10
7967.515091193813
 20
1437.751248310656
 30
0.0
 11
7938.41186020188
 21
1152.760787611754
 31
0.0
  0
LINE
  5
23220
330
747D
100
AcDbEntity
  8
部品1
100
AcDbLine
 10
8049.308629209956
 20
1437.751248310656
 30
0.0
 11
8078.41186020188
 21
1152.760787611754
 31
0.0
  0
LINE
  5
23221
330
747D
100
AcDbEntity
  8
細線
100
AcDbLine
 10
7943.2975985588
 20
1200.603888797927
 30
0.0
 11
7803.140699744969
 21
1340.760787611754
 31
0.0
  0
LINE
  5
23222
330
747D
100
AcDbEntity
  8
細線
100
AcDbLine
 10
7939.366460965162
 20
1162.10861952037
 30
0.0
 11
7760.714292873776
 21
1340.760787611754
 31
0.0
  0
LINE
  5
23223
330
747D
100
AcDbEntity
  8
細線
 48
10.0
100
AcDbLine
 10
7333.15742695829
 20
1074.769071004164
 30
0.0
 11
7399.149143565877
 21
1140.760787611754
 31
0.0
  0
LINE
  5
23224
330
747D
100
AcDbEntity
  8
細線
 48
10.0
100
AcDbLine
 10
7333.15742695829
 20
1046.484799756705
 30
0.0
 11
7427.433414813329
 21
1140.760787611754
 31
0.0
  0
LINE
  5
23225
330
747D
100
AcDbEntity
  8
細線
 48
10.0
100
AcDbLine
 10
7333.157426958287
 20
1103.05334225162
 30
0.0
 11
7370.864872318425
 21
1140.760787611754
 31
0.0
  0
LINE
  5
23226
330
747D
100
AcDbEntity
  8
部品1
100
AcDbLine
 10
7648.411860201881
 20
1140.760787611754
 30
0.0
 11
7648.411860201881
 21
1340.760787611756
 31
0.0
  0
LINE
  5
23227
330
747D
100
AcDbEntity
  8
細線
100
AcDbLine
 10
7776.866529765271
 20
1140.760787611754
 30
0.0
 11
7648.411860201881
 21
1269.215457175147
 31
0.0
  0
LINE
  5
23228
330
747D
100
AcDbEntity
  8
細線
100
AcDbLine
 10
7734.440122894078
 20
1140.760787611754
 30
0.0
 11
7648.411860201881
 21
1226.789050303954
 31
0.0
  0
LINE
  5
23229
330
747D
100
AcDbEntity
  8
部品1
100
AcDbLine
 10
7333.157426958287
 20
1434.760787611758
 30
0.0
 11
7967.209705293246
 21
1434.760787611758
 31
0.0
  0
LINE
  5
2322A
330
747D
100
AcDbEntity
  8
部品1
100
AcDbLine
 10
7333.157426958287
 20
1440.760787611758
 30
0.0
 11
7938.411860201885
 21
1440.760787611756
 31
0.0
  0
LINE
  5
2322B
330
747D
100
AcDbEntity
  8
部品1
100
AcDbLine
 10
7333.157426958287
 20
1340.760787611756
 30
0.0
 11
7957.610423596126
 21
1340.760787611756
 31
0.0
  0
LINE
  5
2322C
330
747D
100
AcDbEntity
  8
細線
 48
10.0
100
AcDbLine
 10
7547.173606326909
 20
833.8425902724702
 30
0.0
 11
7854.091803666169
 21
1140.760787611754
 31
0.0
  0
LINE
  5
2322D
330
747D
100
AcDbEntity
  8
細線
 48
10.0
100
AcDbLine
 10
7490.605063831985
 20
833.8425902724702
 30
0.0
 11
7797.523261171261
 21
1140.760787611754
 31
0.0
  0
LINE
  5
2322E
330
747D
100
AcDbEntity
  8
細線
 48
10.0
100
AcDbLine
 10
7518.889335079449
 20
833.8425902724702
 30
0.0
 11
7825.807532418718
 21
1140.760787611754
 31
0.0
  0
LINE
  5
2322F
330
747D
100
AcDbEntity
  8
Ｇ．Ｌ
100
AcDbLine
 10
7333.15742695829
 20
1140.760787611754
 30
0.0
 11
8797.192665722572
 21
1140.760787611754
 31
0.0
  0
DIMENSION
  5
23230
330
747D
100
AcDbEntity
  8
寸法
 48
50.0
100
AcDbDimension
  2
*D43
 10
8281.17587077029
 20
1140.760787611754
 30
0.0
 11
8181.175870770291
 21
1240.760787611757
 31
0.0
 70
    32
  1
b
 71
     5
 42
200.0000000000018
  3
INABA_S40G
100
AcDbAlignedDimension
 13
8058.96262330739
 23
1340.760787611756
 33
0.0
 14
8078.41186020188
 24
1140.760787611754
 34
0.0
 50
90.0
100
AcDbRotatedDimension
1001
ACAD
1000
DSTYLE
1002
{
1070
   174
1070
     0
1070
   272
1070
     1
1070
   288
1070
     0
1070
   341
1005
0
1002
}
  0
LINE
  5
23231
330
747D
100
AcDbEntity
  8
細線
 48
10.0
100
AcDbLine
 10
7973.831995179731
 20
833.8425902724702
 30
0.0
 11
8280.750192519009
 21
1140.760787611754
 31
0.0
  0
LINE
  5
23232
330
747D
100
AcDbEntity
  8
細線
 48
10.0
100
AcDbLine
 10
7917.263452684811
 20
833.8425902724702
 30
0.0
 11
8224.181650024084
 21
1140.760787611754
 31
0.0
  0
LINE
  5
23233
330
747D
100
AcDbEntity
  8
細線
 48
10.0
100
AcDbLine
 10
7945.54772393227
 20
833.8425902724702
 30
0.0
 11
8252.465921271543
 21
1140.760787611754
 31
0.0
  0
LINE
  5
23234
330
747D
100
AcDbEntity
  8
部品1
 48
50.0
100
AcDbLine
 10
8862.648656925582
 20
2120.0
 30
0.0
 11
8862.648656925582
 21
200.0
 31
0.0
  0
LINE
  5
23235
330
747D
100
AcDbEntity
  8
部品1
100
AcDbLine
 10
8048.411860201884
 20
1940.760787611754
 30
0.0
 11
8048.411860201888
 21
1441.006256599761
 31
0.0
  0
LINE
  5
23236
330
747D
100
AcDbEntity
  8
細線
 48
50.0
100
AcDbLine
 10
7503.411860201881
 20
1940.760787611754
 30
0.0
 11
7503.411860201881
 21
1440.760787611756
 31
0.0
  0
LINE
  5
23237
330
747D
100
AcDbEntity
  8
細線
 48
50.0
100
AcDbLine
 10
7533.41186020188
 20
1940.760787611754
 30
0.0
 11
7533.41186020188
 21
1440.760787611756
 31
0.0
  0
LINE
  5
23238
330
747D
100
AcDbEntity
  8
細線
 48
50.0
100
AcDbLine
 10
7783.41186020188
 20
1940.760787611754
 30
0.0
 11
7783.41186020188
 21
1440.760787611756
 31
0.0
  0
LINE
  5
23239
330
747D
100
AcDbEntity
  8
細線
 48
50.0
100
AcDbLine
 10
7813.41186020188
 20
1940.760787611754
 30
0.0
 11
7813.41186020188
 21
1440.760787611756
 31
0.0
  0
LINE
  5
2323A
330
747D
100
AcDbEntity
  8
部品1
100
AcDbLine
 10
7938.411860201885
 20
1940.760787611754
 30
0.0
 11
7938.411860201888
 21
1434.760787611758
 31
0.0
  0
LINE
  5
2323B
330
747D
100
AcDbEntity
  8
細線
 48
50.0
100
AcDbLine
 10
10923.74446491486
 20
2038.690833376043
 30
0.0
 11
10923.74446491486
 21
1538.690833376046
 31
0.0
  0
LINE
  5
2323C
330
747D
100
AcDbEntity
  8
細線
 48
50.0
100
AcDbLine
 10
10893.74446491486
 20
2038.690833376043
 30
0.0
 11
10893.74446491486
 21
1538.690833376046
 31
0.0
  0
LINE
  5
2323D
330
747D
100
AcDbEntity
  8
細線
 48
50.0
100
AcDbLine
 10
10643.74446491486
 20
2038.690833376043
 30
0.0
 11
10643.74446491486
 21
1538.690833376046
 31
0.0
  0
LINE
  5
2323E
330
747D
100
AcDbEntity
  8
細線
 48
50.0
100
AcDbLine
 10
10613.74446491486
 20
2038.690833376043
 30
0.0
 11
10613.74446491486
 21
1538.690833376046
 31
0.0
  0
LINE
  5
2323F
330
747D
100
AcDbEntity
  8
部品1
100
AcDbLine
 10
11158.74446491486
 20
2038.690833376043
 30
0.0
 11
11158.74446491487
 21
1538.936302364051
 31
0.0
  0
LINE
  5
23240
330
747D
100
AcDbEntity
  8
部品1
100
AcDbLine
 10
11048.74446491486
 20
2038.690833376043
 30
0.0
 11
11048.74446491487
 21
1532.690833376046
 31
0.0
  0
LINE
  5
23241
330
747D
100
AcDbEntity
  8
Ｇ．Ｌ
100
AcDbLine
 10
10535.94706811615
 20
1138.690833376044
 30
0.0
 11
11980.8387701213
 21
1138.690833376044
 31
0.0
  0
LINE
  5
23242
330
747D
100
AcDbEntity
  8
細線
 48
10.0
100
AcDbLine
 10
11572.96761205858
 20
831.7726360367601
 30
0.0
 11
11879.88580939786
 21
1138.690833376044
 31
0.0
  0
LINE
  5
23243
330
747D
100
AcDbEntity
  8
細線
 48
10.0
100
AcDbLine
 10
11601.25188330604
 20
831.7726360367601
 30
0.0
 11
11908.17008064531
 21
1138.690833376044
 31
0.0
  0
LINE
  5
23244
330
747D
100
AcDbEntity
  8
細線
 48
10.0
100
AcDbLine
 10
11629.53615455351
 20
831.7726360367601
 30
0.0
 11
11936.45435189279
 21
1138.690833376044
 31
0.0
  0
TEXT
  5
23245
330
747D
100
AcDbEntity
  8
部品1
100
AcDbText
 10
11608.81469956665
 20
1146.596875054948
 30
0.0
 40
120.0
  1
▽G.L
  7
STYLE1
100
AcDbText
  0
TEXT
  5
23246
330
747D
100
AcDbEntity
  8
部品1
100
AcDbText
 10
3475.808874701916
 20
2178.285116341204
 30
0.0
 40
120.0
  1
地盤が土の場合
  7
STYLE2
100
AcDbText
  0
CIRCLE
  5
23247
330
747D
100
AcDbEntity
  8
部品1
100
AcDbCircle
 10
4805.356359188781
 20
1384.760787611754
 30
0.0
 40
16.0
  0
ARC
  5
23248
330
747D
100
AcDbEntity
  8
部品1
100
AcDbCircle
 10
4835.356359188781
 20
1404.760787611754
 30
0.0
 40
10.0
100
AcDbArc
 50
0.0
 51
90.0
  0
LINE
  5
23249
330
747D
100
AcDbEntity
  8
細線
100
AcDbLine
 10
4813.356359188781
 20
1354.760787611754
 30
0.0
 11
4813.356359188781
 21
1314.760787611754
 31
0.0
  0
LINE
  5
2324A
330
747D
100
AcDbEntity
  8
細線
100
AcDbLine
 10
4797.356359188781
 20
1354.760787611754
 30
0.0
 11
4797.356359188781
 21
1314.760787611754
 31
0.0
  0
ARC
  5
2324B
330
747D
100
AcDbEntity
  8
細線
100
AcDbCircle
 10
4805.356359188781
 20
1314.760787611754
 30
0.0
 40
8.0
100
AcDbArc
 50
180.0
 51
0.0
  0
ARC
  5
2324C
330
747D
100
AcDbEntity
  8
細線
100
AcDbCircle
 10
4805.356359188781
 20
1354.760787611754
 30
0.0
 40
8.0
100
AcDbArc
 50
0.0
 51
180.0
  0
ARC
  5
2324D
330
747D
100
AcDbEntity
  8
部品1
100
AcDbCircle
 10
4775.356359188782
 20
1404.760787611754
 30
0.0
 40
10.0
100
AcDbArc
 50
90.0
 51
180.0
  0
LINE
  5
2324E
330
747D
100
AcDbEntity
  8
部品1
100
AcDbLine
 10
4775.356359188782
 20
1414.760787611754
 30
0.0
 11
4835.356359188781
 21
1414.760787611754
 31
0.0
  0
LINE
  5
2324F
330
747D
100
AcDbEntity
  8
細線
100
AcDbLine
 10
4797.356359188781
 20
1075.904381151204
 30
0.0
 11
4797.356359188781
 21
1050.16078761175
 31
0.0
  0
LINE
  5
23250
330
747D
100
AcDbEntity
  8
細線
100
AcDbLine
 10
4813.356359188781
 20
1075.904381151204
 30
0.0
 11
4813.356359188781
 21
1050.16078761175
 31
0.0
  0
LINE
  5
23251
330
747D
100
AcDbEntity
  8
細線
100
AcDbLine
 10
4819.356359188781
 20
1020.160787611756
 30
0.0
 11
4820.356359188782
 21
1020.160787611752
 31
0.0
  0
LINE
  5
23252
330
747D
100
AcDbEntity
  8
細線
100
AcDbLine
 10
4820.356359188782
 20
1026.16078761175
 30
0.0
 11
4820.356359188782
 21
1020.16078761175
 31
0.0
  0
ARC
  5
23253
330
747D
100
AcDbEntity
  8
細線
100
AcDbCircle
 10
4813.233253563167
 20
1012.160787611748
 30
0.0
 40
4.0
100
AcDbArc
 50
270.0
 51
345.9637565320562
  0
LINE
  5
23254
330
747D
100
AcDbEntity
  8
細線
100
AcDbLine
 10
4819.356359188781
 20
1020.16078761175
 30
0.0
 11
4817.113823563743
 21
1011.190645111601
 31
0.0
  0
LINE
  5
23255
330
747D
100
AcDbEntity
  8
細線
100
AcDbLine
 10
4819.356359188781
 20
1024.760787611751
 30
0.0
 11
4819.356359188781
 21
1020.160787611752
 31
0.0
  0
ARC
  5
23256
330
747D
100
AcDbEntity
  8
細線
100
AcDbCircle
 10
4797.479464814403
 20
1012.160787611747
 30
0.0
 40
4.0
100
AcDbArc
 50
194.0362434679438
 51
270.0
  0
LINE
  5
23257
330
747D
100
AcDbEntity
  8
細線
100
AcDbLine
 10
4791.356359188781
 20
1020.16078761175
 30
0.0
 11
4793.59889481382
 21
1011.190645111601
 31
0.0
  0
LINE
  5
23258
330
747D
100
AcDbEntity
  8
細線
100
AcDbLine
 10
4791.356359188781
 20
1024.760787611749
 30
0.0
 11
4791.356359188781
 21
1020.160787611752
 31
0.0
  0
LINE
  5
23259
330
747D
100
AcDbEntity
  8
細線
100
AcDbLine
 10
4797.479464814403
 20
1008.160787611745
 30
0.0
 11
4813.233253563167
 21
1008.16078761175
 31
0.0
  0
LINE
  5
2325A
330
747D
100
AcDbEntity
  8
細線
100
AcDbLine
 10
4790.356359188781
 20
1024.760787611749
 30
0.0
 11
4820.356359188782
 21
1024.760787611754
 31
0.0
  0
LINE
  5
2325B
330
747D
100
AcDbEntity
  8
細線
100
AcDbLine
 10
4790.356359188781
 20
1026.160787611756
 30
0.0
 11
4790.356359188781
 21
1020.160787611752
 31
0.0
  0
ARC
  5
2325C
330
747D
100
AcDbEntity
  8
細線
100
AcDbCircle
 10
4805.356359188781
 20
1050.16078761175
 30
0.0
 40
8.0
100
AcDbArc
 50
180.0
 51
0.0
  0
LINE
  5
2325D
330
747D
100
AcDbEntity
  8
細線
100
AcDbLine
 10
4790.356359188781
 20
1026.160787611756
 30
0.0
 11
4820.356359188782
 21
1026.160787611752
 31
0.0
  0
LINE
  5
2325E
330
747D
100
AcDbEntity
  8
細線
100
AcDbLine
 10
4790.356359188781
 20
1020.160787611756
 30
0.0
 11
4791.356359188781
 21
1020.160787611756
 31
0.0
  0
CIRCLE
  5
2325F
330
747D
100
AcDbEntity
  8
細線
100
AcDbCircle
 10
4805.356359188781
 20
1089.760787611754
 30
0.0
 40
16.0
  0
CIRCLE
  5
23260
330
747D
100
AcDbEntity
  8
細線
100
AcDbCircle
 10
4805.356359188781
 20
1244.760787611756
 30
0.0
 40
7.0
  0
CIRCLE
  5
23261
330
747D
100
AcDbEntity
  8
細線
100
AcDbCircle
 10
4805.356359188781
 20
1244.760787611756
 30
0.0
 40
6.0
  0
ARC
  5
23262
330
747D
100
AcDbEntity
  8
部品1
100
AcDbCircle
 10
4836.302299708537
 20
1102.160787611748
 30
0.0
 40
10.0
100
AcDbArc
 50
5.684241598180749
 51
90.0
  0
LINE
  5
23263
330
747D
100
AcDbEntity
  8
細線
  6
HIDDEN
 48
10.0
100
AcDbLine
 10
4845.903804845669
 20
1104.955621972072
 30
0.0
 11
4881.708970485352
 21
1140.760787611756
 31
0.0
  0
LINE
  5
23264
330
747D
100
AcDbEntity
  8
細線
  6
HIDDEN
 48
10.0
100
AcDbLine
 10
4845.356359188781
 20
1132.692447562642
 30
0.0
 11
4853.424699237896
 21
1140.760787611754
 31
0.0
  0
ARC
  5
23265
330
747D
100
AcDbEntity
  8
部品1
100
AcDbCircle
 10
4774.410418669026
 20
1102.160787611752
 30
0.0
 40
10.0
100
AcDbArc
 50
90.0
 51
174.3157584018192
  0
LINE
  5
23266
330
747D
100
AcDbEntity
  8
部品1
100
AcDbLine
 10
4774.410418669026
 20
1112.160787611754
 30
0.0
 11
4836.302299708537
 21
1112.160787611748
 31
0.0
  0
LINE
  5
23267
330
747D
100
AcDbEntity
  8
部品1
100
AcDbLine
 10
4765.356359188781
 20
1404.760787611754
 30
0.0
 11
4765.356359188781
 21
1106.406256599763
 31
0.0
  0
LINE
  5
23268
330
747D
100
AcDbEntity
  8
部品1
100
AcDbLine
 10
4845.356359188781
 20
1403.760787611754
 30
0.0
 11
4845.356359188785
 21
1106.406256599763
 31
0.0
  0
LINE
  5
23269
330
747D
100
AcDbEntity
  8
細線
100
AcDbLine
 10
4765.356359188781
 20
1175.489627154842
 30
0.0
 11
4600.085198731869
 21
1340.760787611754
 31
0.0
  0
LINE
  5
2326A
330
747D
100
AcDbEntity
  8
細線
100
AcDbLine
 10
4531.384621880979
 20
1140.760787611754
 30
0.0
 11
4445.356359188781
 21
1226.789050303954
 31
0.0
  0
LINE
  5
2326B
330
747D
100
AcDbEntity
  8
部品1
100
AcDbLine
 10
4445.356359188781
 20
1140.760787611754
 30
0.0
 11
4445.356359188781
 21
1340.760787611754
 31
0.0
  0
LINE
  5
2326C
330
747D
100
AcDbEntity
  8
細線
100
AcDbLine
 10
4757.658791860676
 20
1140.760787611754
 30
0.0
 11
4557.658791860677
 21
1340.760787611754
 31
0.0
  0
LINE
  5
2326D
330
747D
100
AcDbEntity
  8
細線
100
AcDbLine
 10
4573.811028752172
 20
1140.760787611754
 30
0.0
 11
4445.356359188781
 21
1269.215457175147
 31
0.0
  0
LINE
  5
2326E
330
747D
100
AcDbEntity
  8
部品1
100
AcDbLine
 10
4875.356359188781
 20
818.160787611754
 30
0.0
 11
4875.356359188781
 21
806.1607876117541
 31
0.0
  0
LINE
  5
2326F
330
747D
100
AcDbEntity
  8
細線
100
AcDbLine
 10
4820.356359188782
 20
876.1607876117487
 30
0.0
 11
4820.356359188782
 21
870.1607876117487
 31
0.0
  0
LINE
  5
23270
330
747D
100
AcDbEntity
  8
細線
100
AcDbLine
 10
4820.356359188782
 20
836.1607876117505
 30
0.0
 11
4820.356359188782
 21
830.1607876117504
 31
0.0
  0
LINE
  5
23271
330
747D
100
AcDbEntity
  8
細線
100
AcDbLine
 10
4790.356359188781
 20
876.1607876117578
 30
0.0
 11
4790.356359188781
 21
870.1607876117522
 31
0.0
  0
LINE
  5
23272
330
747D
100
AcDbEntity
  8
細線
100
AcDbLine
 10
4790.356359188781
 20
836.160787611756
 30
0.0
 11
4790.356359188781
 21
830.1607876117524
 31
0.0
  0
LINE
  5
23273
330
747D
100
AcDbEntity
  8
細線
100
AcDbLine
 10
4790.356359188781
 20
870.1607876117577
 30
0.0
 11
4820.356359188782
 21
870.1607876117522
 31
0.0
  0
LINE
  5
23274
330
747D
100
AcDbEntity
  8
細線
100
AcDbLine
 10
4790.356359188781
 20
876.1607876117578
 30
0.0
 11
4820.356359188782
 21
876.1607876117523
 31
0.0
  0
LINE
  5
23275
330
747D
100
AcDbEntity
  8
細線
100
AcDbLine
 10
4790.356359188781
 20
836.160787611756
 30
0.0
 11
4820.356359188782
 21
836.1607876117522
 31
0.0
  0
LINE
  5
23276
330
747D
100
AcDbEntity
  8
細線
100
AcDbLine
 10
4790.356359188781
 20
830.1607876117559
 30
0.0
 11
4820.356359188782
 21
830.1607876117524
 31
0.0
  0
LINE
  5
23277
330
747D
100
AcDbEntity
  8
部品1
100
AcDbLine
 10
4735.356359188781
 20
818.1607876117523
 30
0.0
 11
4735.356359188781
 21
806.1607876117541
 31
0.0
  0
LINE
  5
23278
330
747D
100
AcDbEntity
  8
部品1
100
AcDbLine
 10
4735.356359188781
 20
806.1607876117541
 30
0.0
 11
4875.356359188781
 21
806.1607876117541
 31
0.0
  0
LINE
  5
23279
330
747D
100
AcDbEntity
  8
部品1
100
AcDbLine
 10
4735.356359188781
 20
818.160787611754
 30
0.0
 11
4875.356359188781
 21
818.160787611754
 31
0.0
  0
LINE
  5
2327A
330
747D
100
AcDbEntity
  8
部品1
100
AcDbLine
 10
4846.253128196856
 20
1103.151248310656
 30
0.0
 11
4875.356359188781
 21
818.160787611754
 31
0.0
  0
LINE
  5
2327B
330
747D
100
AcDbEntity
  8
部品1
100
AcDbLine
 10
4764.459590180713
 20
1103.151248310656
 30
0.0
 11
4735.356359188781
 21
818.160787611754
 31
0.0
  0
LINE
  5
2327C
330
747D
100
AcDbEntity
  8
細線
  6
HIDDEN
 48
10.0
100
AcDbLine
 10
4595.356359188782
 20
854.408176315168
 30
0.0
 11
4755.401784945404
 21
1014.453602071808
 31
0.0
  0
LINE
  5
2327D
330
747D
100
AcDbEntity
  8
細線
  6
HIDDEN
 48
10.0
100
AcDbLine
 10
4595.356359188781
 20
910.9767188100905
 30
0.0
 11
4761.835585338618
 21
1077.455944959931
 31
0.0
  0
LINE
  5
2327E
330
747D
100
AcDbEntity
  8
細線
  6
HIDDEN
 48
10.0
100
AcDbLine
 10
4595.356359188782
 20
882.6924475626292
 30
0.0
 11
4758.618685142015
 21
1045.954773515872
 31
0.0
  0
LINE
  5
2327F
330
747D
100
AcDbEntity
  8
Ｇ．Ｌ
100
AcDbLine
 10
4845.356359188781
 20
1140.760787611754
 30
0.0
 11
5597.45260142712
 21
1140.760787611754
 31
0.0
  0
LINE
  5
23280
330
747D
100
AcDbEntity
  8
細線
  6
HIDDEN
 48
10.0
100
AcDbLine
 10
4908.3673593382
 20
740.7607876117562
 30
0.0
 11
4995.35635918878
 21
827.7497874623396
 31
0.0
  0
LINE
  5
23281
330
747D
100
AcDbEntity
  8
細線
  6
HIDDEN
 48
10.0
100
AcDbLine
 10
4851.798816843277
 20
740.7607876117554
 30
0.0
 11
4995.356359188781
 21
884.3183299572638
 31
0.0
  0
LINE
  5
23282
330
747D
100
AcDbEntity
  8
細線
  6
HIDDEN
 48
10.0
100
AcDbLine
 10
4880.083088090738
 20
740.7607876117562
 30
0.0
 11
4995.35635918878
 21
856.0340587098036
 31
0.0
  0
TEXT
  5
23283
330
747D
100
AcDbEntity
  8
部品1
100
AcDbText
 10
5229.919906258392
 20
1148.666829290658
 30
0.0
 40
120.0
  1
▽G.L
  7
STYLE1
100
AcDbText
  0
LINE
  5
23284
330
747D
100
AcDbEntity
  8
細線
100
AcDbLine
 10
1714.317326742917
 20
1040.760787611754
 30
0.0
 11
1700.919867121362
 21
990.7607876117562
 31
0.0
  0
LINE
  5
23285
330
747D
100
AcDbEntity
  8
細線
100
AcDbLine
 10
1814.317326742921
 20
1040.760787611754
 30
0.0
 11
1800.919867121361
 21
990.7607876117562
 31
0.0
  0
LINE
  5
23286
330
747D
100
AcDbEntity
  8
細線
100
AcDbLine
 10
1686.419437207836
 20
1040.760787611754
 30
0.0
 11
1786.419437207833
 21
1140.760787611756
 31
0.0
  0
LINE
  5
23287
330
747D
100
AcDbEntity
  8
細線
100
AcDbLine
 10
1714.703708455296
 20
1040.760787611754
 30
0.0
 11
1814.703708455296
 21
1140.760787611756
 31
0.0
  0
LINE
  5
23288
330
747D
100
AcDbEntity
  8
部品1
100
AcDbLine
 10
1787.522407499806
 20
1340.760787611754
 30
0.0
 11
1787.522407499806
 21
1140.760787611756
 31
0.0
  0
TEXT
  5
23289
330
747D
100
AcDbEntity
  8
部品1
100
AcDbText
 10
2010.775033367236
 20
1148.66682929066
 30
0.0
 40
120.0
  1
▽G.L
  7
STYLE1
100
AcDbText
  0
LINE
  5
2328A
330
747D
100
AcDbEntity
  8
細線
100
AcDbLine
 10
1727.714786364477
 20
890.7607876117545
 30
0.0
 11
1714.317326742917
 21
840.7607876117545
 31
0.0
  0
LINE
  5
2328B
330
747D
100
AcDbEntity
  8
細線
100
AcDbLine
 10
1827.714786364473
 20
890.7607876117545
 30
0.0
 11
1814.317326742921
 21
840.7607876117545
 31
0.0
  0
LINE
  5
2328C
330
747D
100
AcDbEntity
  8
部品1
100
AcDbLine
 10
1887.522407499806
 20
1140.760787611756
 30
0.0
 11
1887.522407499806
 21
840.7607876117545
 31
0.0
  0
LINE
  5
2328D
330
747D
100
AcDbEntity
  8
細線
100
AcDbLine
 10
1687.522407499809
 20
1040.760787611754
 30
0.0
 11
1741.112245986029
 21
840.7607876117507
 31
0.0
  0
LINE
  5
2328E
330
747D
100
AcDbEntity
  8
細線
100
AcDbLine
 10
1787.522407499806
 20
1040.760787611754
 30
0.0
 11
1841.112245986029
 21
840.7607876117545
 31
0.0
  0
LINE
  5
2328F
330
747D
100
AcDbEntity
  8
部品1
100
AcDbLine
 10
4130.101925945187
 20
1440.760787611756
 30
0.0
 11
4735.356359188781
 21
1440.760787611754
 31
0.0
  0
LINE
  5
23290
330
747D
100
AcDbEntity
  8
部品1
100
AcDbLine
 10
4130.101925945187
 20
1340.760787611754
 30
0.0
 11
4765.356359188781
 21
1340.760787611754
 31
0.0
  0
LINE
  5
23291
330
747D
100
AcDbEntity
  8
Ｇ．Ｌ
100
AcDbLine
 10
4130.101925945187
 20
1140.760787611754
 30
0.0
 11
4765.356359188781
 21
1140.760787611754
 31
0.0
  0
DIMENSION
  5
23292
330
747D
100
AcDbEntity
  8
寸法
 48
50.0
100
AcDbDimension
  2
*D44
 10
4352.026612113252
 20
740.7607876117545
 30
0.0
 11
4352.026612113252
 21
928.3854207276599
 31
0.0
 70
   160
  1
200
 71
     5
 42
399.9999999999999
  3
INABA_S40G
100
AcDbAlignedDimension
 13
4445.356359188781
 23
1140.760787611754
 33
0.0
 14
4595.356359188781
 24
740.7607876117545
 34
0.0
 50
90.0
100
AcDbRotatedDimension
1001
ACAD
1000
DSTYLE
1002
{
1070
   174
1070
     0
1070
   272
1070
     1
1070
   288
1070
     0
1070
   341
1005
0
1002
}
  0
LINE
  5
23293
330
747D
100
AcDbEntity
  8
部品1
100
AcDbLine
 10
4130.101925945187
 20
1434.760787611754
 30
0.0
 11
4845.356359188781
 21
1434.760787611754
 31
0.0
  0
LINE
  5
23294
330
747D
100
AcDbEntity
  8
部品1
100
AcDbLine
 10
4735.356359188781
 20
1940.760787611752
 30
0.0
 11
4735.356359188784
 21
1434.760787611756
 31
0.0
  0
LINE
  5
23295
330
747D
100
AcDbEntity
  8
部品1
100
AcDbLine
 10
4845.356359188781
 20
1940.760787611752
 30
0.0
 11
4845.356359188781
 21
1140.760787611754
 31
0.0
  0
LINE
  5
23296
330
747D
100
AcDbEntity
  8
部品1
 48
50.0
100
AcDbLine
 10
2462.648656925582
 20
2600.0
 30
0.0
 11
2462.648656925582
 21
200.0
 31
0.0
  0
LINE
  5
23297
330
747D
100
AcDbEntity
  8
部品1
 48
50.0
100
AcDbLine
 10
5662.648656925581
 20
2360.0
 30
0.0
 11
5662.648656925581
 21
200.0
 31
0.0
  0
LINE
  5
23298
330
747D
100
AcDbEntity
  8
細線
 48
50.0
100
AcDbLine
 10
4580.356359188781
 20
1940.760787611752
 30
0.0
 11
4580.356359188781
 21
1440.760787611754
 31
0.0
  0
LINE
  5
23299
330
747D
100
AcDbEntity
  8
細線
 48
50.0
100
AcDbLine
 10
4610.356359188781
 20
1940.760787611752
 30
0.0
 11
4610.356359188781
 21
1440.760787611754
 31
0.0
  0
LINE
  5
2329A
330
747D
100
AcDbEntity
  8
細線
 48
50.0
100
AcDbLine
 10
4330.356359188781
 20
1940.760787611752
 30
0.0
 11
4330.356359188781
 21
1440.760787611754
 31
0.0
  0
LINE
  5
2329B
330
747D
100
AcDbEntity
  8
細線
 48
50.0
100
AcDbLine
 10
4300.356359188781
 20
1940.760787611752
 30
0.0
 11
4300.356359188781
 21
1440.760787611754
 31
0.0
  0
LINE
  5
2329C
330
747D
100
AcDbEntity
  8
細線
100
AcDbLine
 10
1614.317326742917
 20
1040.760787611754
 30
0.0
 11
1600.919867121365
 21
990.7607876117562
 31
0.0
  0
LINE
  5
2329D
330
747D
100
AcDbEntity
  8
細線
100
AcDbLine
 10
1514.317326742921
 20
1040.760787611754
 30
0.0
 11
1500.919867121362
 21
990.7607876117562
 31
0.0
  0
LINE
  5
2329E
330
747D
100
AcDbEntity
  8
細線
100
AcDbLine
 10
1314.317326742917
 20
1040.760787611753
 30
0.0
 11
1300.919867121365
 21
990.7607876117507
 31
0.0
  0
LINE
  5
2329F
330
747D
100
AcDbEntity
  8
細線
100
AcDbLine
 10
1414.317326742917
 20
1040.760787611753
 30
0.0
 11
1400.919867121362
 21
990.7607876117507
 31
0.0
  0
LINE
  5
232A0
330
747D
100
AcDbEntity
  8
細線
100
AcDbLine
 10
1358.135165960373
 20
1040.760787611753
 30
0.0
 11
1458.135165960373
 21
1140.760787611756
 31
0.0
  0
LINE
  5
232A1
330
747D
100
AcDbEntity
  8
細線
100
AcDbLine
 10
1386.419437207836
 20
1040.760787611754
 30
0.0
 11
1486.419437207833
 21
1140.760787611756
 31
0.0
  0
LINE
  5
232A2
330
747D
100
AcDbEntity
  8
細線
100
AcDbLine
 10
1507.290445359269
 20
1140.760787611756
 30
0.0
 11
1387.522407499809
 21
1260.528825471216
 31
0.0
  0
LINE
  5
232A3
330
747D
100
AcDbEntity
  8
細線
100
AcDbLine
 10
1414.703708455299
 20
1040.760787611754
 30
0.0
 11
1514.703708455296
 21
1140.760787611756
 31
0.0
  0
LINE
  5
232A4
330
747D
100
AcDbEntity
  8
細線
100
AcDbLine
 10
1549.716852230462
 20
1140.760787611756
 30
0.0
 11
1387.522407499806
 21
1302.955232342408
 31
0.0
  0
LINE
  5
232A5
330
747D
100
AcDbEntity
  8
部品1
100
AcDbLine
 10
1387.522407499809
 20
1140.760787611756
 30
0.0
 11
1387.522407499809
 21
1340.760787611754
 31
0.0
  0
LINE
  5
232A6
330
747D
100
AcDbEntity
  8
細線
100
AcDbLine
 10
1627.714786364473
 20
890.7607876117545
 30
0.0
 11
1614.317326742917
 21
840.7607876117545
 31
0.0
  0
LINE
  5
232A7
330
747D
100
AcDbEntity
  8
細線
100
AcDbLine
 10
1527.714786364473
 20
890.7607876117545
 30
0.0
 11
1514.317326742921
 21
840.7607876117545
 31
0.0
  0
LINE
  5
232A8
330
747D
100
AcDbEntity
  8
細線
100
AcDbLine
 10
1327.714786364473
 20
890.7607876117527
 30
0.0
 11
1314.317326742917
 21
840.7607876117507
 31
0.0
  0
LINE
  5
232A9
330
747D
100
AcDbEntity
  8
細線
100
AcDbLine
 10
1427.714786364477
 20
890.7607876117527
 30
0.0
 11
1414.317326742917
 21
840.7607876117507
 31
0.0
  0
LINE
  5
232AA
330
747D
100
AcDbEntity
  8
部品1
100
AcDbLine
 10
1287.522407499806
 20
840.7607876117507
 30
0.0
 11
1287.522407499806
 21
1140.760787611756
 31
0.0
  0
LINE
  5
232AB
330
747D
100
AcDbEntity
  8
細線
100
AcDbLine
 10
1287.522407499806
 20
1040.760787611753
 30
0.0
 11
1341.112245986032
 21
840.760787611749
 31
0.0
  0
LINE
  5
232AC
330
747D
100
AcDbEntity
  8
細線
100
AcDbLine
 10
1587.522407499806
 20
1040.760787611754
 30
0.0
 11
1641.112245986033
 21
840.7607876117507
 31
0.0
  0
LINE
  5
232AD
330
747D
100
AcDbEntity
  8
細線
100
AcDbLine
 10
1487.522407499806
 20
1040.760787611754
 30
0.0
 11
1541.112245986029
 21
840.7607876117507
 31
0.0
  0
LINE
  5
232AE
330
747D
100
AcDbEntity
  8
細線
100
AcDbLine
 10
1387.522407499809
 20
1040.760787611753
 30
0.0
 11
1441.112245986029
 21
840.760787611749
 31
0.0
  0
LINE
  5
232AF
330
747D
100
AcDbEntity
  8
部品1
 48
50.0
100
AcDbLine
 10
862.6486569255812
 20
2600.0
 30
0.0
 11
862.6486569255812
 21
200.0
 31
0.0
  0
LINE
  5
232B0
330
747D
100
AcDbEntity
  8
部品1
100
AcDbLine
 10
1287.522407499806
 20
840.7607876117507
 30
0.0
 11
1887.522407499806
 21
840.7607876117545
 31
0.0
  0
LINE
  5
232B1
330
747D
100
AcDbEntity
  8
部品1
100
AcDbLine
 10
1287.522407499806
 20
1040.760787611753
 30
0.0
 11
1887.522407499806
 21
1040.760787611754
 31
0.0
  0
LINE
  5
232B2
330
747D
100
AcDbEntity
  8
部品1
100
AcDbLine
 10
1387.522407499809
 20
1340.760787611754
 30
0.0
 11
1787.522407499806
 21
1340.760787611754
 31
0.0
  0
LINE
  5
232B3
330
747D
100
AcDbEntity
  8
Ｇ．Ｌ
100
AcDbLine
 10
957.4214014544832
 20
1140.760787611756
 30
0.0
 11
2388.314685277643
 21
1140.760787611756
 31
0.0
  0
LINE
  5
232B4
330
747D
100
AcDbEntity
  8
細線
100
AcDbLine
 10
1775.991022210155
 20
1140.760787611756
 30
0.0
 11
1575.991022210159
 21
1340.760787611754
 31
0.0
  0
TEXT
  5
232B5
330
747D
100
AcDbEntity
  8
部品1
100
AcDbText
 10
1328.24867793038
 20
2307.972217178321
 30
0.0
 40
120.0
  1
基礎詳細
  7
STYLE2
100
AcDbText
  0
MTEXT
  5
232B6
102
{ACAD_REACTORS
330
232B7
102
}
330
747D
100
AcDbEntity
  8
寸法
 62
     7
 48
50.0
100
AcDbMText
 10
1825.054264224596
 20
1638.612705420522
 30
0.0
 40
120.0
 41
1.0
 71
     4
 72
     1
  1
\A1;C.B
  7
STYLE1
 73
     1
 44
1.0
1001
ACAD
1000
MTEXTBEGIN
1070
    73
1070
     1
1070
    44
1040
1.0
1070
    74
1070
     0
1000
MTEXTEND
  0
LEADER
  5
232B7
330
747D
100
AcDbEntity
  8
寸法
 48
50.0
100
AcDbLeader
  3
INABA_S50G
 71
     0
 73
     0
 74
     0
 75
     1
 40
120.0
 41
185.591883092037
 76
     3
 10
1587.522407499808
 20
1340.760787611754
 30
0.0
 10
1742.785990070984
 20
1553.612705420522
 30
0.0
 10
1867.785990070984
 20
1553.612705420522
 30
0.0
340
232B6
213
67.73172584638814
223
0.0
233
0.0
1001
ACAD
1000
DSTYLE
1002
{
1070
    40
1040
1.0
1002
}
  0
LINE
  5
232B8
330
747D
100
AcDbEntity
  8
細線
100
AcDbLine
 10
1733.564615338962
 20
1140.760787611756
 30
0.0
 11
1533.564615338966
 21
1340.760787611754
 31
0.0
  0
LINE
  5
232B9
330
747D
100
AcDbEntity
  8
細線
100
AcDbLine
 10
1658.135165960373
 20
1040.760787611754
 30
0.0
 11
1758.13516596037
 21
1140.760787611756
 31
0.0
  0
TEXT
  5
232BA
330
747D
100
AcDbEntity
  8
部品1
100
AcDbText
 10
6248.654084796076
 20
2414.063814602734
 30
0.0
 40
120.0
  1
アンカー部詳細
  7
STYLE2
100
AcDbText
  0
LINE
  5
232BB
330
747D
100
AcDbEntity
  8
部品1
 48
50.0
100
AcDbLine
 10
862.6486569255812
 20
200.0
 30
0.0
 11
12062.64865692558
 21
200.0
 31
0.0
  0
LINE
  5
232BC
330
747D
100
AcDbEntity
  8
部品1
 48
50.0
100
AcDbLine
 10
12062.64865692558
 20
2599.999999999999
 30
0.0
 11
862.6486569255812
 21
2600.000000000002
 31
0.0
  0
LINE
  5
232BD
330
747D
100
AcDbEntity
  8
部品1
 48
50.0
100
AcDbLine
 10
12062.64865692558
 20
2359.999999999999
 30
0.0
 11
2462.648656925582
 21
2360.0
 31
0.0
  0
LINE
  5
232BE
330
747D
100
AcDbEntity
  8
部品1
 48
50.0
100
AcDbLine
 10
862.6486569255812
 20
2120.0
 30
0.0
 11
12062.64865692558
 21
2120.0
 31
0.0
  0
LINE
  5
232BF
330
747D
100
AcDbEntity
  8
部品1
100
AcDbLine
 10
3212.319460875799
 20
817.7607876117527
 30
0.0
 11
3320.319460875798
 21
817.7607876117527
 31
0.0
  0
TEXT
  5
232C0
330
747D
100
AcDbEntity
  8
部品1
100
AcDbText
 10
9813.273426343172
 20
624.0115021823967
 30
0.0
 40
80.0
  1
c寸法：135～175,190mmに対応
  7
STYLE2
100
AcDbText
  0
TEXT
  5
232C1
330
747D
100
AcDbEntity
  8
部品1
100
AcDbText
 10
9164.504602217805
 20
455.3904639477514
 30
0.0
 40
80.0
  1
\U+203BオールアンカーM10(市販品)が6本必要になります。
  7
STYLE2
100
AcDbText
  0
ARC
  5
232C2
330
747D
100
AcDbEntity
  8
部品1
100
AcDbCircle
 10
9584.122667299185
 20
1452.290833376044
 30
0.0
 40
8.0
100
AcDbArc
 50
288.194872338666
 51
0.0
  0
ARC
  5
232C3
330
747D
100
AcDbEntity
  8
部品1
100
AcDbCircle
 10
9662.122667299186
 20
1452.290833376044
 30
0.0
 40
8.0
100
AcDbArc
 50
288.194872338666
 51
0.0
  0
TEXT
  5
23358
330
747D
100
AcDbEntity
  8
文字
 62
     7
 48
50.0
100
AcDbText
 10
13188.16259899338
 20
246.7109242801889
 30
0.0
 40
80.0
  1
※寒冷地等は地域の実情に合わせた基礎にして下さい。
  7
STYLE2
100
AcDbText
  0
TEXT
  5
23359
330
747D
100
AcDbEntity
  8
文字
 62
     7
 48
50.0
100
AcDbText
 10
14482.61482192223
 20
488.1241585855691
 30
0.0
 40
160.0
  1
ＮＸＰ－９４ＨＴ
  7
STYLE2
100
AcDbText
  0
TEXT
  5
2335A
330
747D
100
AcDbEntity
  8
文字
 62
     7
 48
50.0
100
AcDbText
 10
14641.2525855784
 20
871.1744590657925
 30
0.0
 40
100.0
  1
～一般型・多雪地型～
  7
STYLE2
100
AcDbText
  0
LINE
  5
2335B
330
747D
100
AcDbEntity
  8
仕様書枠
  6
Continuous
 48
50.0
100
AcDbLine
 10
14251.2
 20
1200.0
 30
0.0
 11
14251.2
 21
800.0
 31
0.0
  0
LINE
  5
2335C
330
747D
100
AcDbEntity
  8
仕様書枠
 48
50.0
100
AcDbLine
 10
13107.2
 20
800.0
 30
0.0
 11
14251.2
 21
800.0
 31
0.0
  0
TEXT
  5
2335D
330
747D
100
AcDbEntity
  8
文字
 62
     7
 48
50.0
100
AcDbText
 10
14770.89966246668
 20
1031.557706291228
 30
0.0
 40
100.0
  1
<縮尺> S=1/40
  7
STYLE2
100
AcDbText
  0
TEXT
  5
2335E
330
747D
100
AcDbEntity
  8
文字
 62
     7
 48
50.0
100
AcDbText
 10
13201.43669998441
 20
477.2740661031255
 30
0.0
 40
160.0
  1
機種名
  7
STYLE2
100
AcDbText
  0
TEXT
  5
2335F
330
747D
100
AcDbEntity
  8
文字
 62
     7
 48
50.0
100
AcDbText
 10
13162.9790565769
 20
895.0906074299405
 30
0.0
 40
200.0
  1
基 礎 図
  7
STYLE2
100
AcDbText
  0
LINE
  5
23360
330
747D
100
AcDbEntity
  8
文字
 62
     7
 48
50.0
100
AcDbLine
 10
13187.2
 20
400.0
 30
0.0
 11
16227.2
 21
400.0
 31
0.0
  0
LINE
  5
23361
330
747D
100
AcDbEntity
  8
仕様書枠
 48
50.0
100
AcDbLine
 10
13107.2
 20
1200.0
 30
0.0
 11
16307.2
 21
1200.0
 31
0.0
  0
LINE
  5
23362
330
747D
100
AcDbEntity
  8
仕様書枠
 48
50.0
100
AcDbLine
 10
16307.2
 20
1200.0
 30
0.0
 11
16307.2
 21
-0.0000000000000909
 31
0.0
  0
LINE
  5
23363
330
747D
100
AcDbEntity
  8
仕様書枠
  6
Continuous
 48
50.0
100
AcDbLine
 10
13107.2
 20
1200.0
 30
0.0
 11
13107.2
 21
-0.0000000000000729
 31
0.0
  0
DIMENSION
  5
2337D
330
747D
100
AcDbEntity
  8
寸法
 48
50.0
100
AcDbDimension
  2
*D46
 10
8557.661275956373
 20
6080.140975822263
 30
0.0
 11
8557.66127595637
 21
5471.655694448024
 31
0.0
 70
   160
  1
扉の出<>
 71
     5
 42
75.00000000000091
  3
INABA_S40G
100
AcDbAlignedDimension
 13
8195.599999999998
 23
6005.140975822262
 33
0.0
 14
8423.599999999998
 24
6080.140975822263
 34
0.0
 50
90.0
100
AcDbRotatedDimension
1001
ACAD
1000
DSTYLE
1002
{
1070
   341
1005
0
1002
}
  0
LINE
  5
2337E
330
747D
100
AcDbEntity
  8
想像線
 48
10.0
100
AcDbLine
 10
6461.6
 20
6005.140975822262
 30
0.0
 11
6461.6
 21
6080.140975822262
 31
0.0
  0
HATCH
  5
2337F
330
747D
100
AcDbEntity
  8
寸法
 48
50.0
100
AcDbHatch
 10
0.0
 20
0.0
 30
0.0
210
0.0
220
0.0
230
1.0
  2
DOTS
 70
     0
 71
     0
 91
        1
 92
        7
 72
     0
 73
     1
 93
        4
 10
8195.599999999998
 20
6080.140975822265
 10
6461.600000000003
 20
6080.140975822262
 10
6461.600000000001
 20
6005.140975822262
 10
8195.599999999998
 20
6005.140975822265
 97
        0
 75
     0
 76
     1
 52
0.0
 41
10.0
 77
     0
 78
     1
 53
0.0
 43
-648.7936156968499
 44
1365.013118364575
 45
7.9375
 46
15.875
 79
     2
 49
0.0
 49
-15.875
 47
3.549710751249138
 98
        1
 10
7080.003986455638
 20
6076.083166358134
  0
LINE
  5
23380
330
747D
100
AcDbEntity
  8
想像線
 48
10.0
100
AcDbLine
 10
6461.6
 20
6005.140975822262
 30
0.0
 11
8195.599999999998
 21
6005.140975822265
 31
0.0
  0
LINE
  5
23381
330
747D
100
AcDbEntity
  8
想像線
 48
10.0
100
AcDbLine
 10
6461.6
 20
6080.140975822262
 30
0.0
 11
8195.599999999998
 21
6080.140975822265
 31
0.0
  0
LINE
  5
23382
330
747D
100
AcDbEntity
  8
想像線
 48
10.0
100
AcDbLine
 10
8195.599999999998
 20
6005.140975822265
 30
0.0
 11
8195.599999999998
 21
6080.140975822262
 31
0.0
  0
TEXT
  5
23383
330
747D
100
AcDbEntity
  8
部品1
 48
50.0
100
AcDbText
 10
7402.588787139835
 20
5861.674363628694
 30
0.0
 40
120.0
  1
扉面
  7
STYLE1
 72
     1
 11
7530.588787139834
 21
5845.674363628694
 31
0.0
100
AcDbText
 73
     1
  0
ENDSEC
  0
SECTION
  2
OBJECTS
  0
DICTIONARY
  5
7471
330
0
100
AcDbDictionary
281
     1
  3
ACAD_COLOR
350
159B0
  3
ACAD_GROUP
350
7472
  3
ACAD_LAYOUT
350
159B1
  3
ACAD_MATERIAL
350
159AF
  3
ACAD_MLINESTYLE
350
7473
  3
ACAD_PLOTSETTINGS
350
159B2
  3
ACAD_PLOTSTYLENAME
350
159AD
  3
ACDBHEADERROUNDTRIPXREC
350
233C0
  3
AcDbVariableDictionary
350
233BC
  3
CONTENTDICTIONARY
350
E71C
  3
DRAWINGVARIABLESDICT
350
F3B9
  0
DICTIONARY
  5
1ED5D
330
7467
100
AcDbDictionary
280
     1
281
     1
  3
ACAD_LAYERSTATES
360
1ED5E
  0
DICTIONARY
  5
159B0
102
{ACAD_REACTORS
330
7471
102
}
330
7471
100
AcDbDictionary
281
     1
  0
DICTIONARY
  5
7472
102
{ACAD_REACTORS
330
7471
102
}
330
7471
100
AcDbDictionary
281
     1
  3
*A1
350
22C65
  0
DICTIONARY
  5
159B1
102
{ACAD_REACTORS
330
7471
102
}
330
7471
100
AcDbDictionary
281
     1
  3
Model
350
159B3
  3
レイアウト1
350
159B4
  0
DICTIONARY
  5
159AF
102
{ACAD_REACTORS
330
7471
102
}
330
7471
100
AcDbDictionary
281
     1
  0
DICTIONARY
  5
7473
102
{ACAD_REACTORS
330
7471
102
}
330
7471
100
AcDbDictionary
281
     1
  3
STANDARD
350
7480
  0
DICTIONARY
  5
159B2
102
{ACAD_REACTORS
330
7471
102
}
330
7471
100
AcDbDictionary
281
     1
  0
ACDBDICTIONARYWDFLT
  5
159AD
102
{ACAD_REACTORS
330
7471
102
}
330
7471
100
AcDbDictionary
281
     1
  3
Normal
350
159AE
100
AcDbDictionaryWithDefault
340
159AE
  0
DICTIONARY
  5
233C0
102
{ACAD_REACTORS
330
7471
102
}
330
7471
100
AcDbDictionary
281
     1
  3
COLORDICT
350
233C2
  3
MATERIALDICT
350
233C1
  0
DICTIONARY
  5
233BC
102
{ACAD_REACTORS
330
7471
102
}
330
7471
100
AcDbDictionary
281
     1
  3
DIMASSOC
350
233BD
  3
PROJECTNAME
350
233BE
  0
DICTIONARY
  5
E71C
102
{ACAD_REACTORS
330
7471
102
}
330
7471
100
AcDbDictionary
281
     1
  0
DICTIONARY
  5
F3B9
102
{ACAD_REACTORS
330
7471
102
}
330
7471
100
AcDbDictionary
281
     1
1001
DRAWINGVARIABLESXDATA
1000
POLARMODE
1000
1
  0
DICTIONARY
  5
1ED5E
102
{ACAD_REACTORS
330
1ED5D
102
}
330
1ED5D
100
AcDbDictionary
281
     1
  0
GROUP
  5
22C65
102
{ACAD_REACTORS
330
7472
102
}
330
7472
100
AcDbGroup
300

 70
     1
 71
     1
  0
LAYOUT
  5
159B3
102
{ACAD_XDICTIONARY
360
233C3
102
}
102
{ACAD_REACTORS
330
159B1
102
}
330
159B1
100
AcDbPlotSettings
  1

  2
none_device
  4
Letter_(8.50_x_11.00_Inches)
  6

 40
6.349999904632568
 41
6.349999904632568
 42
6.350006103515625
 43
6.350006103515625
 44
215.8999938964844
 45
279.3999938964844
 46
0.0
 47
0.0
 48
0.0
 49
0.0
140
0.0
141
0.0
142
1.0
143
1.0
 70
 11952
 72
     1
 73
     1
 74
     0
  7

 75
     0
147
1.0
148
-4149.571981164617
149
65.56433826894044
100
AcDbLayout
  1
Model
 70
     1
 71
     0
 10
0.0
 20
0.0
 11
12.0
 21
9.0
 12
0.0
 22
0.0
 32
0.0
 14
0.0
 24
0.0
 34
0.0
 15
0.0
 25
0.0
 35
0.0
146
0.0
 13
0.0
 23
0.0
 33
0.0
 16
1.0
 26
0.0
 36
0.0
 17
0.0
 27
1.0
 37
0.0
 76
     0
330
747D
  0
LAYOUT
  5
159B4
102
{ACAD_XDICTIONARY
360
233C5
102
}
102
{ACAD_REACTORS
330
159B1
102
}
330
159B1
100
AcDbPlotSettings
  1

  2
自動 EPSON LP-8400FX (TATENO 上)
  4

  6

 40
0.0
 41
0.0
 42
0.0
 43
0.0
 44
0.0
 45
0.0
 46
0.0
 47
0.0
 48
0.0
 49
0.0
140
0.0
141
0.0
142
1.0
143
1.0
 70
   688
 72
     0
 73
     0
 74
     5
  7
inaba.ctb
 75
    16
147
1.0
148
0.0
149
0.0
100
AcDbLayout
  1
レイアウト1
 70
     0
 71
     1
 10
0.0
 20
0.0
 11
420.0
 21
297.0
 12
0.0
 22
0.0
 32
0.0
 14
1.000000000000000E+20
 24
1.000000000000000E+20
 34
1.000000000000000E+20
 15
-1.000000000000000E+20
 25
-1.000000000000000E+20
 35
-1.000000000000000E+20
146
0.0
 13
0.0
 23
0.0
 33
0.0
 16
1.0
 26
0.0
 36
0.0
 17
0.0
 27
1.0
 37
0.0
 76
     0
330
747A
  0
MLINESTYLE
  5
7480
102
{ACAD_REACTORS
330
7473
102
}
330
7473
100
AcDbMlineStyle
  2
STANDARD
 70
     0
  3

 62
     0
 51
90.0
 52
90.0
 71
     2
 49
0.5
 62
   256
  6
BYLAYER
 49
-0.5
 62
   256
  6
BYLAYER
  0
ACDBPLACEHOLDER
  5
159AE
102
{ACAD_REACTORS
330
159AD
102
}
330
159AD
  0
XRECORD
  5
233C2
102
{ACAD_REACTORS
330
233C0
102
}
330
233C0
100
AcDbXrecord
280
     1
340
159B0
  0
XRECORD
  5
233C1
102
{ACAD_REACTORS
330
233C0
102
}
330
233C0
100
AcDbXrecord
280
     1
340
159AF
  0
DICTIONARYVAR
  5
233BD
102
{ACAD_REACTORS
330
233BC
102
}
330
233BC
100
DictionaryVariables
280
     0
  1
1
  0
DICTIONARYVAR
  5
233BE
102
{ACAD_REACTORS
330
233BC
102
}
330
233BC
100
DictionaryVariables
280
     0
  1

  0
DICTIONARY
  5
233C3
330
159B3
100
AcDbDictionary
280
     1
281
     1
  3
ACAD_XREC_ROUNDTRIP
360
233C4
  0
DICTIONARY
  5
233C5
330
159B4
100
AcDbDictionary
280
     1
281
     1
  3
ACAD_XREC_ROUNDTRIP
360
233C6
  0
XRECORD
  5
233C4
102
{ACAD_REACTORS
330
233C3
102
}
330
233C3
100
AcDbXrecord
280
     1
102
SHADEPLOT
 70
     0
102
SHADEPLOTRESLEVEL
 70
     2
102
SHADEPLOTCUSTOMDPI
 70
   300
  0
XRECORD
  5
233C6
102
{ACAD_REACTORS
330
233C5
102
}
330
233C5
100
AcDbXrecord
280
     1
102
SHADEPLOT
 70
     0
102
SHADEPLOTRESLEVEL
 70
     2
102
SHADEPLOTCUSTOMDPI
 70
   300
  0
ENDSEC
  0
EOF
