  0
SECTION
  2
HEADER
  9
$ACADVER
  1
AC1015
  9
$ACADMAINTVER
 70
    20
  9
$DWGCODEPAGE
  3
ANSI_932
  9
$INSBASE
 10
0.0
 20
0.0
 30
0.0
  9
$EXTMIN
 10
139.9999999999995
 20
-0.0000000000000909
 30
0.0
  9
$EXTMAX
 10
16307.2
 20
11409.6
 30
0.0
  9
$LIMMIN
 10
0.0
 20
0.0
  9
$LIMMAX
 10
16800.0
 20
11880.0
  9
$ORTHOMODE
 70
     0
  9
$REGENMODE
 70
     1
  9
$FILLMODE
 70
     1
  9
$QTEXTMODE
 70
     0
  9
$MIRRTEXT
 70
     1
  9
$LTSCALE
 40
20.0
  9
$ATTMODE
 70
     1
  9
$TEXTSIZE
 40
100.0
  9
$TRACEWID
 40
1.0
  9
$TEXTSTYLE
  7
STYLE2
  9
$CLAYER
  8
寸法
  9
$CELTYPE
  6
BYLAYER
  9
$CECOLOR
 62
   256
  9
$CELTSCALE
 40
50.0
  9
$DISPSILH
 70
     0
  9
$DIMSCALE
 40
40.0
  9
$DIMASZ
 40
2.5
  9
$DIMEXO
 40
0.5
  9
$DIMDLI
 40
7.0
  9
$DIMRND
 40
0.0
  9
$DIMDLE
 40
0.0
  9
$DIMEXE
 40
1.5
  9
$DIMTP
 40
0.0
  9
$DIMTM
 40
0.0
  9
$DIMTXT
 40
3.0
  9
$DIMCEN
 40
0.0
  9
$DIMTSZ
 40
0.0
  9
$DIMTOL
 70
     0
  9
$DIMLIM
 70
     0
  9
$DIMTIH
 70
     0
  9
$DIMTOH
 70
     0
  9
$DIMSE1
 70
     0
  9
$DIMSE2
 70
     0
  9
$DIMTAD
 70
     3
  9
$DIMZIN
 70
     8
  9
$DIMBLK
  1

  9
$DIMASO
 70
     1
  9
$DIMSHO
 70
     1
  9
$DIMPOST
  1

  9
$DIMAPOST
  1

  9
$DIMALT
 70
     0
  9
$DIMALTD
 70
     2
  9
$DIMALTF
 40
0.0394
  9
$DIMLFAC
 40
1.0
  9
$DIMTOFL
 70
     1
  9
$DIMTVP
 40
0.0
  9
$DIMTIX
 70
     0
  9
$DIMSOXD
 70
     0
  9
$DIMSAH
 70
     1
  9
$DIMBLK1
  1
DOTSMALL
  9
$DIMBLK2
  1
DOTSMALL
  9
$DIMSTYLE
  2
INABA_S40G
  9
$DIMCLRD
 70
     0
  9
$DIMCLRE
 70
     0
  9
$DIMCLRT
 70
     7
  9
$DIMTFAC
 40
1.0
  9
$DIMGAP
 40
1.0
  9
$DIMJUST
 70
     0
  9
$DIMSD1
 70
     0
  9
$DIMSD2
 70
     0
  9
$DIMTOLJ
 70
     1
  9
$DIMTZIN
 70
     0
  9
$DIMALTZ
 70
     0
  9
$DIMALTTZ
 70
     0
  9
$DIMUPT
 70
     0
  9
$DIMDEC
 70
     1
  9
$DIMTDEC
 70
     1
  9
$DIMALTU
 70
     2
  9
$DIMALTTD
 70
     2
  9
$DIMTXSTY
  7
STYLE1
  9
$DIMAUNIT
 70
     0
  9
$DIMADEC
 70
     0
  9
$DIMALTRND
 40
0.0
  9
$DIMAZIN
 70
     0
  9
$DIMDSEP
 70
    46
  9
$DIMATFIT
 70
     3
  9
$DIMFRAC
 70
     0
  9
$DIMLDRBLK
  1

  9
$DIMLUNIT
 70
     2
  9
$DIMLWD
 70
    -2
  9
$DIMLWE
 70
    -2
  9
$DIMTMOVE
 70
     0
  9
$LUNITS
 70
     2
  9
$LUPREC
 70
     1
  9
$SKETCHINC
 40
1.0
  9
$FILLETRAD
 40
7.0
  9
$AUNITS
 70
     0
  9
$AUPREC
 70
     0
  9
$MENU
  1
acad
  9
$ELEVATION
 40
0.0
  9
$PELEVATION
 40
0.0
  9
$THICKNESS
 40
0.0
  9
$LIMCHECK
 70
     0
  9
$CHAMFERA
 40
3.0
  9
$CHAMFERB
 40
3.0
  9
$CHAMFERC
 40
0.0
  9
$CHAMFERD
 40
0.0
  9
$SKPOLY
 70
     0
  9
$TDCREATE
 40
2451368.612993866
  9
$TDUCREATE
 40
2451368.237993866
  9
$TDUPDATE
 40
2455575.698341470
  9
$TDUUPDATE
 40
2455575.323341470
  9
$TDINDWG
 40
1.4553337847
  9
$TDUSRTIMER
 40
1.4553337847
  9
$USRTIMER
 70
     1
  9
$ANGBASE
 50
0.0
  9
$ANGDIR
 70
     0
  9
$PDMODE
 70
     3
  9
$PDSIZE
 40
2.0
  9
$PLINEWID
 40
0.0
  9
$SPLFRAME
 70
     0
  9
$SPLINETYPE
 70
     6
  9
$SPLINESEGS
 70
     8
  9
$HANDSEED
  5
2AA5C
  9
$SURFTAB1
 70
     6
  9
$SURFTAB2
 70
     6
  9
$SURFTYPE
 70
     6
  9
$SURFU
 70
     6
  9
$SURFV
 70
     6
  9
$UCSBASE
  2

  9
$UCSNAME
  2

  9
$UCSORG
 10
0.0
 20
0.0
 30
0.0
  9
$UCSXDIR
 10
1.0
 20
0.0
 30
0.0
  9
$UCSYDIR
 10
0.0
 20
1.0
 30
0.0
  9
$UCSORTHOREF
  2

  9
$UCSORTHOVIEW
 70
     0
  9
$UCSORGTOP
 10
0.0
 20
0.0
 30
0.0
  9
$UCSORGBOTTOM
 10
0.0
 20
0.0
 30
0.0
  9
$UCSORGLEFT
 10
0.0
 20
0.0
 30
0.0
  9
$UCSORGRIGHT
 10
0.0
 20
0.0
 30
0.0
  9
$UCSORGFRONT
 10
0.0
 20
0.0
 30
0.0
  9
$UCSORGBACK
 10
0.0
 20
0.0
 30
0.0
  9
$PUCSBASE
  2

  9
$PUCSNAME
  2

  9
$PUCSORG
 10
0.0
 20
0.0
 30
0.0
  9
$PUCSXDIR
 10
1.0
 20
0.0
 30
0.0
  9
$PUCSYDIR
 10
0.0
 20
1.0
 30
0.0
  9
$PUCSORTHOREF
  2

  9
$PUCSORTHOVIEW
 70
     0
  9
$PUCSORGTOP
 10
0.0
 20
0.0
 30
0.0
  9
$PUCSORGBOTTOM
 10
0.0
 20
0.0
 30
0.0
  9
$PUCSORGLEFT
 10
0.0
 20
0.0
 30
0.0
  9
$PUCSORGRIGHT
 10
0.0
 20
0.0
 30
0.0
  9
$PUCSORGFRONT
 10
0.0
 20
0.0
 30
0.0
  9
$PUCSORGBACK
 10
0.0
 20
0.0
 30
0.0
  9
$USERI1
 70
     0
  9
$USERI2
 70
     0
  9
$USERI3
 70
     0
  9
$USERI4
 70
     0
  9
$USERI5
 70
     0
  9
$USERR1
 40
0.0
  9
$USERR2
 40
0.0
  9
$USERR3
 40
0.0
  9
$USERR4
 40
0.0
  9
$USERR5
 40
0.0
  9
$WORLDVIEW
 70
     1
  9
$SHADEDGE
 70
     3
  9
$SHADEDIF
 70
    70
  9
$TILEMODE
 70
     1
  9
$MAXACTVP
 70
    16
  9
$PINSBASE
 10
0.0
 20
0.0
 30
0.0
  9
$PLIMCHECK
 70
     0
  9
$PEXTMIN
 10
1.000000000000000E+20
 20
1.000000000000000E+20
 30
1.000000000000000E+20
  9
$PEXTMAX
 10
-1.000000000000000E+20
 20
-1.000000000000000E+20
 30
-1.000000000000000E+20
  9
$PLIMMIN
 10
0.0
 20
0.0
  9
$PLIMMAX
 10
420.0
 20
297.0
  9
$UNITMODE
 70
     0
  9
$VISRETAIN
 70
     0
  9
$PLINEGEN
 70
     0
  9
$PSLTSCALE
 70
     0
  9
$TREEDEPTH
 70
  3020
  9
$CMLSTYLE
  2
STANDARD
  9
$CMLJUST
 70
     0
  9
$CMLSCALE
 40
1.0
  9
$PROXYGRAPHICS
 70
     1
  9
$MEASUREMENT
 70
     1
  9
$CELWEIGHT
370
    -1
  9
$ENDCAPS
280
     0
  9
$JOINSTYLE
280
     0
  9
$LWDISPLAY
290
     0
  9
$INSUNITS
 70
     0
  9
$HYPERLINKBASE
  1

  9
$STYLESHEET
  1
inaba.ctb
  9
$XEDIT
290
     1
  9
$CEPSNTYPE
380
     0
  9
$PSTYLEMODE
290
     1
  9
$FINGERPRINTGUID
  2
{3B57B35E-7D77-4BBF-81B7-6C583B9EB24C}
  9
$VERSIONGUID
  2
{ED95EC31-1DD3-4BA2-8EAC-6A5C0C3DBCA4}
  9
$EXTNAMES
290
     1
  9
$PSVPSCALE
 40
0.0
  9
$OLESTARTUP
290
     0
  0
ENDSEC
  0
SECTION
  2
CLASSES
  0
CLASS
  1
ACDBDICTIONARYWDFLT
  2
AcDbDictionaryWithDefault
  3
ObjectDBX Classes
 90
        0
280
     0
281
     0
  0
CLASS
  1
DICTIONARYVAR
  2
AcDbDictionaryVar
  3
ObjectDBX Classes
 90
        0
280
     0
281
     0
  0
CLASS
  1
ACDBPLACEHOLDER
  2
AcDbPlaceHolder
  3
ObjectDBX Classes
 90
        0
280
     0
281
     0
  0
CLASS
  1
LAYOUT
  2
AcDbLayout
  3
ObjectDBX Classes
 90
        0
280
     0
281
     0
  0
ENDSEC
  0
SECTION
  2
TABLES
  0
TABLE
  2
VPORT
  5
746D
330
0
100
AcDbSymbolTable
 70
     2
  0
VPORT
  5
2AA54
330
746D
100
AcDbSymbolTableRecord
100
AcDbViewportTableRecord
  2
*Active
 70
     0
 10
0.0
 20
0.0
 11
1.0
 21
1.0
 12
8223.761025238502
 22
6348.767642148464
 13
0.0
 23
0.0
 14
10.0
 24
10.0
 15
10.0
 25
10.0
 16
0.0
 26
0.0
 36
1.0
 17
0.0
 27
0.0
 37
0.0
 40
12805.3711672054
 41
1.525925925925925
 42
50.0
 43
0.0
 44
0.0
 50
0.0
 51
0.0
 71
     0
 72
     0
 73
     1
 74
     0
 75
     0
 76
     0
 77
     0
 78
     0
281
     0
 65
     1
110
0.0
120
0.0
130
0.0
111
1.0
121
0.0
131
0.0
112
0.0
122
1.0
132
0.0
 79
     0
146
0.0
  0
ENDTAB
  0
TABLE
  2
LTYPE
  5
746A
330
0
100
AcDbSymbolTable
 70
     3
  0
LTYPE
  5
7477
330
746A
100
AcDbSymbolTableRecord
100
AcDbLinetypeTableRecord
  2
BYBLOCK
 70
     0
  3

 72
    65
 73
     0
 40
0.0
  0
LTYPE
  5
7478
330
746A
100
AcDbSymbolTableRecord
100
AcDbLinetypeTableRecord
  2
BYLAYER
 70
     0
  3

 72
    65
 73
     0
 40
0.0
  0
LTYPE
  5
7479
330
746A
100
AcDbSymbolTableRecord
100
AcDbLinetypeTableRecord
  2
CONTINUOUS
 70
     0
  3
Solid line
 72
    65
 73
     0
 40
0.0
  0
LTYPE
  5
781A
330
746A
100
AcDbSymbolTableRecord
100
AcDbLinetypeTableRecord
  2
HIDDEN
 70
     0
  3
__ __ __ __ __ __ __ __ __ __ __ __ __ __ __ __
 72
    65
 73
     2
 40
0.375
 49
0.25
 74
     0
 49
-0.125
 74
     0
  0
LTYPE
  5
781B
330
746A
100
AcDbSymbolTableRecord
100
AcDbLinetypeTableRecord
  2
PHANTOM
 70
     0
  3
______  __  __  ______  __  __  ______  __  __ 
 72
    65
 73
     6
 40
2.5
 49
1.25
 74
     0
 49
-0.25
 74
     0
 49
0.25
 74
     0
 49
-0.25
 74
     0
 49
0.25
 74
     0
 49
-0.25
 74
     0
  0
ENDTAB
  0
TABLE
  2
LAYER
  5
7467
102
{ACAD_XDICTIONARY
360
1FFA9
102
}
330
0
100
AcDbSymbolTable
 70
    10
  0
LAYER
  5
7474
330
7467
100
AcDbSymbolTableRecord
100
AcDbLayerTableRecord
  2
0
 70
     0
 62
     7
  6
CONTINUOUS
370
    -3
390
159AE
  0
LAYER
  5
DEB3
330
7467
100
AcDbSymbolTableRecord
100
AcDbLayerTableRecord
  2
寸法
 70
     0
 62
     4
  6
CONTINUOUS
370
    -3
390
159AE
  0
LAYER
  5
DEB4
330
7467
100
AcDbSymbolTableRecord
100
AcDbLayerTableRecord
  2
部品1
 70
     0
 62
     7
  6
CONTINUOUS
370
    -3
390
159AE
  0
LAYER
  5
DEB5
330
7467
100
AcDbSymbolTableRecord
100
AcDbLayerTableRecord
  2
補助
 70
     0
 62
    -1
  6
CONTINUOUS
370
    -3
390
159AE
  0
LAYER
  5
DEB6
330
7467
100
AcDbSymbolTableRecord
100
AcDbLayerTableRecord
  2
文字
 70
     0
 62
     7
  6
CONTINUOUS
370
    -3
390
159AE
  0
LAYER
  5
F255
330
7467
100
AcDbSymbolTableRecord
100
AcDbLayerTableRecord
  2
DEFPOINTS
 70
     0
 62
     7
  6
CONTINUOUS
290
     0
370
    -3
390
159AE
  0
LAYER
  5
10B54
330
7467
100
AcDbSymbolTableRecord
100
AcDbLayerTableRecord
  2
仕様書枠
 70
     0
 62
   230
  6
CONTINUOUS
370
    -3
390
159AE
  0
LAYER
  5
11729
330
7467
100
AcDbSymbolTableRecord
100
AcDbLayerTableRecord
  2
Ｇ．Ｌ
 70
     0
 62
    30
  6
CONTINUOUS
370
    -3
390
159AE
  0
LAYER
  5
1173F
330
7467
100
AcDbSymbolTableRecord
100
AcDbLayerTableRecord
  2
細線
 70
     0
 62
     5
  6
CONTINUOUS
370
    -3
390
159AE
  0
LAYER
  5
142E2
330
7467
100
AcDbSymbolTableRecord
100
AcDbLayerTableRecord
  2
破線
 70
     0
 62
     2
  6
HIDDEN
370
    -3
390
159AE
  0
ENDTAB
  0
TABLE
  2
STYLE
  5
7468
330
0
100
AcDbSymbolTable
 70
     4
  0
STYLE
  5
7475
330
7468
100
AcDbSymbolTableRecord
100
AcDbTextStyleTableRecord
  2
STANDARD
 70
     0
 40
0.0
 41
1.0
 50
0.0
 71
     0
 42
4.0
  3
txt
  4
C:\AutoCAD LT\bigfont.shx
  0
STYLE
  5
F706
330
7468
100
AcDbSymbolTableRecord
100
AcDbTextStyleTableRecord
  2
STYLE1
 70
     0
 40
0.0
 41
1.0
 50
0.0
 71
     0
 42
100.0
  3
isocp.shx
  4
bigfont.shx
  0
STYLE
  5
103BF
330
7468
100
AcDbSymbolTableRecord
100
AcDbTextStyleTableRecord
  2
STYLE2
 70
     0
 40
0.0
 41
1.0
 50
0.0
 71
     0
 42
100.0
  3
MS PGothic.ttf
  4

1001
ACAD
1000
MS PGothic
1071
    32818
  0
STYLE
  5
2A9EB
330
7468
100
AcDbSymbolTableRecord
100
AcDbTextStyleTableRecord
  2
STYLE3
 70
     0
 40
0.0
 41
1.0
 50
0.0
 71
     0
 42
100.0
  3

  4

1001
ACAD
1000
DFPGothic-EB
1071
    32818
  0
ENDTAB
  0
TABLE
  2
VIEW
  5
746B
330
0
100
AcDbSymbolTable
 70
     0
  0
ENDTAB
  0
TABLE
  2
UCS
  5
746C
330
0
100
AcDbSymbolTable
 70
     0
  0
ENDTAB
  0
TABLE
  2
APPID
  5
746E
330
0
100
AcDbSymbolTable
 70
     6
  0
APPID
  5
7476
330
746E
100
AcDbSymbolTableRecord
100
AcDbRegAppTableRecord
  2
ACAD
 70
     0
  0
APPID
  5
DEA9
330
746E
100
AcDbSymbolTableRecord
100
AcDbRegAppTableRecord
  2
CONTENTBLOCKICON
 70
     0
  0
APPID
  5
DEAA
330
746E
100
AcDbSymbolTableRecord
100
AcDbRegAppTableRecord
  2
CONTENTBLOCKDESCRIPTION
 70
     0
  0
APPID
  5
E71D
330
746E
100
AcDbSymbolTableRecord
100
AcDbRegAppTableRecord
  2
CONTENTTABDATA
 70
     0
  0
APPID
  5
E71E
330
746E
100
AcDbSymbolTableRecord
100
AcDbRegAppTableRecord
  2
CONTENTCURRENTTAB
 70
     0
  0
APPID
  5
F3BA
330
746E
100
AcDbSymbolTableRecord
100
AcDbRegAppTableRecord
  2
DRAWINGVARIABLESXDATA
 70
     0
  0
ENDTAB
  0
TABLE
  2
DIMSTYLE
  5
746F
330
0
100
AcDbSymbolTable
 70
     2
100
AcDbDimStyleTable
 71
     1
340
F71F
  0
DIMSTYLE
105
F71F
102
{ACAD_REACTORS
330
20CC4
330
20CCC
330
20CCD
330
20CD4
330
22EED
330
22EEB
330
22EB7
330
22EB3
330
22E91
330
22E90
330
22E8F
330
22E8E
330
22E8D
330
22F26
330
25C25
330
25C24
330
261CA
330
29881
330
29885
330
29886
330
29895
330
298BE
330
298BF
330
298C0
330
298C7
330
298C8
330
2A5E2
330
2A5FA
330
2A5F9
330
2A5F8
102
}
330
746F
100
AcDbSymbolTableRecord
100
AcDbDimStyleTableRecord
  2
INABA_S40G
 70
     0
 40
40.0
 41
2.5
 42
0.5
 43
7.0
 44
1.5
 73
     0
 74
     0
 77
     3
 78
     8
140
3.0
141
0.0
143
0.0394
147
1.0
172
     1
173
     1
174
     1
178
     7
271
     1
288
     1
340
F706
341
F770
343
F770
344
F770
  0
DIMSTYLE
105
2A9EC
330
746F
100
AcDbSymbolTableRecord
100
AcDbDimStyleTableRecord
  2
INABA_S20G
 70
     0
 40
20.0
 41
2.5
 42
0.5
 43
7.0
 44
1.5
 73
     0
 74
     0
 77
     3
 78
     8
140
3.0
141
0.0
143
0.0394
147
1.0
172
     1
173
     1
174
     1
178
     7
271
     1
340
F706
341
F770
343
F770
344
F770
  0
ENDTAB
  0
TABLE
  2
BLOCK_RECORD
  5
7466
330
0
100
AcDbSymbolTable
 70
    31
  0
BLOCK_RECORD
  5
747D
330
7466
100
AcDbSymbolTableRecord
100
AcDbBlockTableRecord
  2
*MODEL_SPACE
340
159B3
  0
BLOCK_RECORD
  5
747A
330
7466
100
AcDbSymbolTableRecord
100
AcDbBlockTableRecord
  2
*PAPER_SPACE
340
159B4
  0
BLOCK_RECORD
  5
F770
330
7466
100
AcDbSymbolTableRecord
100
AcDbBlockTableRecord
  2
_DOTSMALL
340
0
102
{BLKREFS
331
27055
331
27056
331
29A40
331
29A41
331
29A4B
331
29A4C
331
29A8E
331
29A8F
331
29A97
331
29A98
331
2A518
331
2A519
331
2A523
331
2A524
331
2A52C
331
2A52D
331
2A536
331
2A537
331
2A540
331
2A541
331
2A549
331
2A54A
331
2A552
331
2A553
331
2A55B
331
2A55C
331
2A56D
331
2A56E
331
2A576
331
2A577
331
2A581
331
2A582
331
2A58C
331
2A58D
331
2A597
331
2A598
331
2A5A2
331
2A5A3
331
2A5AB
331
2A5AC
331
2A5BD
331
2A5BE
331
2A5C8
331
2A5C9
331
2A5D3
331
2A5D4
331
2A5DC
331
2A5DD
331
2A5F2
331
2A5F3
331
2A622
331
2A623
331
2A62B
331
2A62C
331
2A634
331
2A635
331
2A64F
331
2A650
331
2A67C
331
2A67D
102
}
  0
BLOCK_RECORD
  5
20D09
330
7466
100
AcDbSymbolTableRecord
100
AcDbBlockTableRecord
  2
*D1
340
0
  0
BLOCK_RECORD
  5
20D15
330
7466
100
AcDbSymbolTableRecord
100
AcDbBlockTableRecord
  2
*D2
340
0
  0
BLOCK_RECORD
  5
20D23
330
7466
100
AcDbSymbolTableRecord
100
AcDbBlockTableRecord
  2
*D3
340
0
  0
BLOCK_RECORD
  5
20D31
330
7466
100
AcDbSymbolTableRecord
100
AcDbBlockTableRecord
  2
*D4
340
0
  0
BLOCK_RECORD
  5
22F29
330
7466
100
AcDbSymbolTableRecord
100
AcDbBlockTableRecord
  2
*D5
340
0
  0
BLOCK_RECORD
  5
22F35
330
7466
100
AcDbSymbolTableRecord
100
AcDbBlockTableRecord
  2
*D6
340
0
  0
BLOCK_RECORD
  5
22F41
330
7466
100
AcDbSymbolTableRecord
100
AcDbBlockTableRecord
  2
*D7
340
0
  0
BLOCK_RECORD
  5
22F4D
330
7466
100
AcDbSymbolTableRecord
100
AcDbBlockTableRecord
  2
*D8
340
0
  0
BLOCK_RECORD
  5
22F73
330
7466
100
AcDbSymbolTableRecord
100
AcDbBlockTableRecord
  2
*D9
340
0
  0
BLOCK_RECORD
  5
22F81
330
7466
100
AcDbSymbolTableRecord
100
AcDbBlockTableRecord
  2
*D10
340
0
  0
BLOCK_RECORD
  5
22F8F
330
7466
100
AcDbSymbolTableRecord
100
AcDbBlockTableRecord
  2
*D11
340
0
  0
BLOCK_RECORD
  5
22F9D
330
7466
100
AcDbSymbolTableRecord
100
AcDbBlockTableRecord
  2
*D12
340
0
  0
BLOCK_RECORD
  5
22FA9
330
7466
100
AcDbSymbolTableRecord
100
AcDbBlockTableRecord
  2
*D13
340
0
  0
BLOCK_RECORD
  5
22FB5
330
7466
100
AcDbSymbolTableRecord
100
AcDbBlockTableRecord
  2
*D14
340
0
  0
BLOCK_RECORD
  5
25C26
330
7466
100
AcDbSymbolTableRecord
100
AcDbBlockTableRecord
  2
*D15
340
0
  0
BLOCK_RECORD
  5
25C32
330
7466
100
AcDbSymbolTableRecord
100
AcDbBlockTableRecord
  2
*D16
340
0
  0
BLOCK_RECORD
  5
26402
330
7466
100
AcDbSymbolTableRecord
100
AcDbBlockTableRecord
  2
*D17
340
0
  0
BLOCK_RECORD
  5
29901
330
7466
100
AcDbSymbolTableRecord
100
AcDbBlockTableRecord
  2
*D18
340
0
  0
BLOCK_RECORD
  5
2990D
330
7466
100
AcDbSymbolTableRecord
100
AcDbBlockTableRecord
  2
*D19
340
0
  0
BLOCK_RECORD
  5
29919
330
7466
100
AcDbSymbolTableRecord
100
AcDbBlockTableRecord
  2
*D20
340
0
  0
BLOCK_RECORD
  5
29926
330
7466
100
AcDbSymbolTableRecord
100
AcDbBlockTableRecord
  2
*D21
340
0
  0
BLOCK_RECORD
  5
29933
330
7466
100
AcDbSymbolTableRecord
100
AcDbBlockTableRecord
  2
*D22
340
0
  0
BLOCK_RECORD
  5
2993F
330
7466
100
AcDbSymbolTableRecord
100
AcDbBlockTableRecord
  2
*D23
340
0
  0
BLOCK_RECORD
  5
2994D
330
7466
100
AcDbSymbolTableRecord
100
AcDbBlockTableRecord
  2
*D24
340
0
  0
BLOCK_RECORD
  5
29965
330
7466
100
AcDbSymbolTableRecord
100
AcDbBlockTableRecord
  2
*D25
340
0
  0
BLOCK_RECORD
  5
29973
330
7466
100
AcDbSymbolTableRecord
100
AcDbBlockTableRecord
  2
*D26
340
0
  0
BLOCK_RECORD
  5
2A5E3
330
7466
100
AcDbSymbolTableRecord
100
AcDbBlockTableRecord
  2
*D27
340
0
  0
BLOCK_RECORD
  5
2A5FB
330
7466
100
AcDbSymbolTableRecord
100
AcDbBlockTableRecord
  2
*D28
340
0
  0
BLOCK_RECORD
  5
2A607
330
7466
100
AcDbSymbolTableRecord
100
AcDbBlockTableRecord
  2
*D29
340
0
  0
BLOCK_RECORD
  5
2A613
330
7466
100
AcDbSymbolTableRecord
100
AcDbBlockTableRecord
  2
*D30
340
0
  0
ENDTAB
  0
ENDSEC
  0
SECTION
  2
BLOCKS
  0
BLOCK
  5
7489
330
747D
100
AcDbEntity
  8
0
100
AcDbBlockBegin
  2
*MODEL_SPACE
 70
     0
 10
0.0
 20
0.0
 30
0.0
  3
*MODEL_SPACE
  1

  0
ENDBLK
  5
748A
330
747D
100
AcDbEntity
  8
0
100
AcDbBlockEnd
  0
BLOCK
  5
7487
330
747A
100
AcDbEntity
 67
     1
  8
0
100
AcDbBlockBegin
  2
*PAPER_SPACE
 70
     0
 10
0.0
 20
0.0
 30
0.0
  3
*PAPER_SPACE
  1

  0
ENDBLK
  5
7488
330
747A
100
AcDbEntity
 67
     1
  8
0
100
AcDbBlockEnd
  0
BLOCK
  5
F771
330
F770
100
AcDbEntity
  8
0
 48
50.0
100
AcDbBlockBegin
  2
_DOTSMALL
 70
     0
 10
0.0
 20
0.0
 30
0.0
  3
_DOTSMALL
  1

  0
LWPOLYLINE
  5
F772
330
F770
100
AcDbEntity
  8
0
  6
ByBlock
 62
     0
 48
50.0
100
AcDbPolyline
 90
        2
 70
     1
 43
0.5
 10
-0.0625
 20
0.0
 42
1.0
 10
0.0625
 20
0.0
 42
1.0
  0
ENDBLK
  5
F776
330
F770
100
AcDbEntity
  8
0
 48
50.0
100
AcDbBlockEnd
  0
BLOCK
  5
20D13
330
20D09
100
AcDbEntity
  8
0
 48
50.0
100
AcDbBlockBegin
  2
*D1
 70
     1
 10
0.0
 20
0.0
 30
0.0
  3
*D1
  1

  0
LINE
  5
2A5D9
330
20D09
100
AcDbEntity
  8
寸法
 62
     0
 48
50.0
370
    -2
100
AcDbLine
 10
7469.896575107009
 20
5495.000000000005
 30
0.0
 11
7469.896575107009
 21
5747.541585258244
 31
0.0
  0
LINE
  5
2A5DA
330
20D09
100
AcDbEntity
  8
寸法
 62
     0
 48
50.0
370
    -2
100
AcDbLine
 10
4839.896575107009
 20
5495.000000000008
 30
0.0
 11
4839.896575107009
 21
5747.541585258244
 31
0.0
  0
LINE
  5
2A5DB
330
20D09
100
AcDbEntity
  8
寸法
 62
     0
 48
50.0
370
    -2
100
AcDbLine
 10
7469.896575107009
 20
5687.541585258244
 30
0.0
 11
4839.896575107009
 21
5687.541585258244
 31
0.0
  0
INSERT
  5
2A5DC
330
20D09
100
AcDbEntity
  8
寸法
 62
     0
 48
50.0
370
    -2
100
AcDbBlockReference
  2
_DOTSMALL
 10
7469.896575107009
 20
5687.541585258244
 30
0.0
 41
100.0
 42
100.0
 43
100.0
  0
INSERT
  5
2A5DD
330
20D09
100
AcDbEntity
  8
寸法
 62
     0
 48
50.0
370
    -2
100
AcDbBlockReference
  2
_DOTSMALL
 10
4839.896575107009
 20
5687.541585258244
 30
0.0
 41
100.0
 42
100.0
 43
100.0
 50
180.0
  0
MTEXT
  5
2A5DE
330
20D09
100
AcDbEntity
  8
寸法
 62
     7
 48
50.0
100
AcDbMText
 10
6255.418487674134
 20
5787.553396281866
 30
0.0
 40
120.0
 41
0.0
 71
     5
 72
     1
  1
\A1;柱外寸法2630
  7
STYLE1
 73
     1
 44
1.0
1001
ACAD
1000
MTEXTBEGIN
1070
    73
1070
     1
1070
    44
1040
1.0
1070
    74
1070
     0
1000
MTEXTEND
  0
POINT
  5
2A5DF
330
20D09
100
AcDbEntity
  8
DEFPOINTS
 62
     0
 48
50.0
100
AcDbPoint
 10
7469.896575107009
 20
5475.000000000005
 30
0.0
  0
POINT
  5
2A5E0
330
20D09
100
AcDbEntity
  8
DEFPOINTS
 62
     0
 48
50.0
100
AcDbPoint
 10
4839.896575107009
 20
5475.000000000007
 30
0.0
  0
POINT
  5
2A5E1
330
20D09
100
AcDbEntity
  8
DEFPOINTS
 62
     0
 48
50.0
100
AcDbPoint
 10
4839.896575107009
 20
5687.541585258244
 30
0.0
  0
ENDBLK
  5
20D14
330
20D09
100
AcDbEntity
  8
0
 48
50.0
100
AcDbBlockEnd
  0
BLOCK
  5
20D21
330
20D15
100
AcDbEntity
  8
0
 48
50.0
100
AcDbBlockBegin
  2
*D2
 70
     1
 10
0.0
 20
0.0
 30
0.0
  3
*D2
  1

  0
LINE
  5
2A5CE
330
20D15
100
AcDbEntity
  8
寸法
 62
     0
 48
50.0
370
    -2
100
AcDbLine
 10
4839.896575107009
 20
5495.000000000008
 30
0.0
 11
4839.896575107009
 21
5747.541585258244
 31
0.0
  0
LINE
  5
2A5CF
330
20D15
100
AcDbEntity
  8
寸法
 62
     0
 48
50.0
370
    -2
100
AcDbLine
 10
4789.896575107009
 20
5495.000000000005
 30
0.0
 11
4789.896575107009
 21
5747.541585258244
 31
0.0
  0
LINE
  5
2A5D0
330
20D15
100
AcDbEntity
  8
寸法
 62
     0
 48
50.0
370
    -2
100
AcDbLine
 10
4839.896575107009
 20
5687.541585258244
 30
0.0
 11
4939.89657510701
 21
5687.541585258244
 31
0.0
  0
LINE
  5
2A5D1
330
20D15
100
AcDbEntity
  8
寸法
 62
     0
 48
50.0
370
    -2
100
AcDbLine
 10
4789.896575107009
 20
5687.541585258244
 30
0.0
 11
4370.364049638273
 21
5687.541585258244
 31
0.0
  0
LINE
  5
2A5D2
330
20D15
100
AcDbEntity
  8
寸法
 62
     0
 48
50.0
370
    -2
100
AcDbLine
 10
4839.896575107009
 20
5687.541585258244
 30
0.0
 11
4789.896575107009
 21
5687.541585258244
 31
0.0
  0
INSERT
  5
2A5D3
330
20D15
100
AcDbEntity
  8
寸法
 62
     0
 48
50.0
370
    -2
100
AcDbBlockReference
  2
_DOTSMALL
 10
4839.896575107009
 20
5687.541585258244
 30
0.0
 41
100.0
 42
100.0
 43
100.0
 50
180.0
  0
INSERT
  5
2A5D4
330
20D15
100
AcDbEntity
  8
寸法
 62
     0
 48
50.0
370
    -2
100
AcDbBlockReference
  2
_DOTSMALL
 10
4789.896575107009
 20
5687.541585258244
 30
0.0
 41
100.0
 42
100.0
 43
100.0
  0
MTEXT
  5
2A5D5
330
20D15
100
AcDbEntity
  8
寸法
 62
     7
 48
50.0
100
AcDbMText
 10
4476.411293732762
 20
5787.541585258245
 30
0.0
 40
120.0
 41
0.0
 71
     5
 72
     1
  1
\A1;50
  7
STYLE1
 73
     1
 44
1.0
1001
ACAD
1000
MTEXTBEGIN
1070
    73
1070
     1
1070
    44
1040
1.0
1070
    74
1070
     0
1000
MTEXTEND
  0
POINT
  5
2A5D6
330
20D15
100
AcDbEntity
  8
DEFPOINTS
 62
     0
 48
50.0
100
AcDbPoint
 10
4839.896575107009
 20
5475.000000000007
 30
0.0
  0
POINT
  5
2A5D7
330
20D15
100
AcDbEntity
  8
DEFPOINTS
 62
     0
 48
50.0
100
AcDbPoint
 10
4789.896575107009
 20
5475.000000000005
 30
0.0
  0
POINT
  5
2A5D8
330
20D15
100
AcDbEntity
  8
DEFPOINTS
 62
     0
 48
50.0
100
AcDbPoint
 10
4789.896575107009
 20
5687.541585258244
 30
0.0
  0
ENDBLK
  5
20D22
330
20D15
100
AcDbEntity
  8
0
 48
50.0
100
AcDbBlockEnd
  0
BLOCK
  5
20D2F
330
20D23
100
AcDbEntity
  8
0
 48
50.0
100
AcDbBlockBegin
  2
*D3
 70
     1
 10
0.0
 20
0.0
 30
0.0
  3
*D3
  1

  0
LINE
  5
2A5C3
330
20D23
100
AcDbEntity
  8
寸法
 62
     0
 48
50.0
370
    -2
100
AcDbLine
 10
7519.896575107009
 20
5495.000000000004
 30
0.0
 11
7519.896575107009
 21
5747.541585258244
 31
0.0
  0
LINE
  5
2A5C4
330
20D23
100
AcDbEntity
  8
寸法
 62
     0
 48
50.0
370
    -2
100
AcDbLine
 10
7469.896575107009
 20
5495.000000000005
 30
0.0
 11
7469.896575107009
 21
5747.541585258244
 31
0.0
  0
LINE
  5
2A5C5
330
20D23
100
AcDbEntity
  8
寸法
 62
     0
 48
50.0
370
    -2
100
AcDbLine
 10
7469.896575107009
 20
5687.541585258244
 30
0.0
 11
7369.896575107009
 21
5687.541585258244
 31
0.0
  0
LINE
  5
2A5C6
330
20D23
100
AcDbEntity
  8
寸法
 62
     0
 48
50.0
370
    -2
100
AcDbLine
 10
7519.896575107009
 20
5687.541585258244
 30
0.0
 11
7939.429100575734
 21
5687.541585258244
 31
0.0
  0
LINE
  5
2A5C7
330
20D23
100
AcDbEntity
  8
寸法
 62
     0
 48
50.0
370
    -2
100
AcDbLine
 10
7469.896575107009
 20
5687.541585258244
 30
0.0
 11
7519.896575107009
 21
5687.541585258244
 31
0.0
  0
INSERT
  5
2A5C8
330
20D23
100
AcDbEntity
  8
寸法
 62
     0
 48
50.0
370
    -2
100
AcDbBlockReference
  2
_DOTSMALL
 10
7469.896575107009
 20
5687.541585258244
 30
0.0
 41
100.0
 42
100.0
 43
100.0
  0
INSERT
  5
2A5C9
330
20D23
100
AcDbEntity
  8
寸法
 62
     0
 48
50.0
370
    -2
100
AcDbBlockReference
  2
_DOTSMALL
 10
7519.896575107009
 20
5687.541585258244
 30
0.0
 41
100.0
 42
100.0
 43
100.0
 50
180.0
  0
MTEXT
  5
2A5CA
330
20D23
100
AcDbEntity
  8
寸法
 62
     7
 48
50.0
100
AcDbMText
 10
7833.381856481246
 20
5787.541585258245
 30
0.0
 40
120.0
 41
0.0
 71
     5
 72
     1
  1
\A1;50
  7
STYLE1
 73
     1
 44
1.0
1001
ACAD
1000
MTEXTBEGIN
1070
    73
1070
     1
1070
    44
1040
1.0
1070
    74
1070
     0
1000
MTEXTEND
  0
POINT
  5
2A5CB
330
20D23
100
AcDbEntity
  8
DEFPOINTS
 62
     0
 48
50.0
100
AcDbPoint
 10
7519.896575107009
 20
5475.000000000004
 30
0.0
  0
POINT
  5
2A5CC
330
20D23
100
AcDbEntity
  8
DEFPOINTS
 62
     0
 48
50.0
100
AcDbPoint
 10
7469.896575107009
 20
5475.000000000005
 30
0.0
  0
POINT
  5
2A5CD
330
20D23
100
AcDbEntity
  8
DEFPOINTS
 62
     0
 48
50.0
100
AcDbPoint
 10
7469.896575107009
 20
5687.541585258244
 30
0.0
  0
ENDBLK
  5
20D30
330
20D23
100
AcDbEntity
  8
0
 48
50.0
100
AcDbBlockEnd
  0
BLOCK
  5
20D3B
330
20D31
100
AcDbEntity
  8
0
 48
50.0
100
AcDbBlockBegin
  2
*D4
 70
     1
 10
0.0
 20
0.0
 30
0.0
  3
*D4
  1

  0
LINE
  5
2A5BA
330
20D31
100
AcDbEntity
  8
寸法
 62
     0
 48
50.0
370
    -2
100
AcDbLine
 10
4789.896575107009
 20
5495.000000000005
 30
0.0
 11
4789.896575107009
 21
5962.9370167405
 31
0.0
  0
LINE
  5
2A5BB
330
20D31
100
AcDbEntity
  8
寸法
 62
     0
 48
50.0
370
    -2
100
AcDbLine
 10
7519.896575107009
 20
5495.000000000004
 30
0.0
 11
7519.896575107009
 21
5962.9370167405
 31
0.0
  0
LINE
  5
2A5BC
330
20D31
100
AcDbEntity
  8
寸法
 62
     0
 48
50.0
370
    -2
100
AcDbLine
 10
4789.896575107009
 20
5902.9370167405
 30
0.0
 11
7519.896575107009
 21
5902.9370167405
 31
0.0
  0
INSERT
  5
2A5BD
330
20D31
100
AcDbEntity
  8
寸法
 62
     0
 48
50.0
370
    -2
100
AcDbBlockReference
  2
_DOTSMALL
 10
4789.896575107009
 20
5902.9370167405
 30
0.0
 41
100.0
 42
100.0
 43
100.0
 50
180.0
  0
INSERT
  5
2A5BE
330
20D31
100
AcDbEntity
  8
寸法
 62
     0
 48
50.0
370
    -2
100
AcDbBlockReference
  2
_DOTSMALL
 10
7519.896575107009
 20
5902.9370167405
 30
0.0
 41
100.0
 42
100.0
 43
100.0
  0
MTEXT
  5
2A5BF
330
20D31
100
AcDbEntity
  8
寸法
 62
     7
 48
50.0
100
AcDbMText
 10
6197.462896613832
 20
6002.948827764122
 30
0.0
 40
120.0
 41
0.0
 71
     5
 72
     1
  1
\A1;2730
  7
STYLE1
 73
     1
 44
1.0
1001
ACAD
1000
MTEXTBEGIN
1070
    73
1070
     1
1070
    44
1040
1.0
1070
    74
1070
     0
1000
MTEXTEND
  0
POINT
  5
2A5C0
330
20D31
100
AcDbEntity
  8
DEFPOINTS
 62
     0
 48
50.0
100
AcDbPoint
 10
4789.896575107009
 20
5475.000000000005
 30
0.0
  0
POINT
  5
2A5C1
330
20D31
100
AcDbEntity
  8
DEFPOINTS
 62
     0
 48
50.0
100
AcDbPoint
 10
7519.896575107009
 20
5475.000000000004
 30
0.0
  0
POINT
  5
2A5C2
330
20D31
100
AcDbEntity
  8
DEFPOINTS
 62
     0
 48
50.0
100
AcDbPoint
 10
7519.896575107009
 20
5902.9370167405
 30
0.0
  0
ENDBLK
  5
20D3C
330
20D31
100
AcDbEntity
  8
0
 48
50.0
100
AcDbBlockEnd
  0
BLOCK
  5
22F33
330
22F29
100
AcDbEntity
  8
0
 48
50.0
100
AcDbBlockBegin
  2
*D5
 70
     1
 10
0.0
 20
0.0
 30
0.0
  3
*D5
  1

  0
LINE
  5
2A679
330
22F29
100
AcDbEntity
  8
寸法
 62
     0
 48
50.0
370
    -2
100
AcDbLine
 10
7489.896575107048
 20
10617.90707574032
 30
0.0
 11
8177.698686385907
 21
10617.90707574032
 31
0.0
  0
LINE
  5
2A67A
330
22F29
100
AcDbEntity
  8
寸法
 62
     0
 48
50.0
370
    -2
100
AcDbLine
 10
7489.896575106977
 20
8097.907075740266
 30
0.0
 11
8177.698686385907
 21
8097.907075740266
 31
0.0
  0
LINE
  5
2A67B
330
22F29
100
AcDbEntity
  8
寸法
 62
     0
 48
50.0
370
    -2
100
AcDbLine
 10
8117.698686385907
 20
10617.90707574032
 30
0.0
 11
8117.698686385907
 21
8097.907075740266
 31
0.0
  0
INSERT
  5
2A67C
330
22F29
100
AcDbEntity
  8
寸法
 62
     0
 48
50.0
370
    -2
100
AcDbBlockReference
  2
_DOTSMALL
 10
8117.698686385907
 20
10617.90707574032
 30
0.0
 41
100.0
 42
100.0
 43
100.0
 50
90.0
  0
INSERT
  5
2A67D
330
22F29
100
AcDbEntity
  8
寸法
 62
     0
 48
50.0
370
    -2
100
AcDbBlockReference
  2
_DOTSMALL
 10
8117.698686385907
 20
8097.907075740266
 30
0.0
 41
100.0
 42
100.0
 43
100.0
 50
270.0
  0
MTEXT
  5
2A67E
330
22F29
100
AcDbEntity
  8
寸法
 62
     7
 48
50.0
100
AcDbMText
 10
8017.686875362285
 20
9343.9607637905
 30
0.0
 40
120.0
 41
0.0
 71
     5
 72
     1
  1
\A1;6X420=2520
  7
STYLE1
 11
0.0000000000000001
 21
1.0
 31
0.0
 73
     1
 44
1.0
1001
ACAD
1000
MTEXTBEGIN
1070
    73
1070
     1
1070
    44
1040
1.0
1070
    74
1070
     0
1000
MTEXTEND
  0
POINT
  5
2A67F
330
22F29
100
AcDbEntity
  8
DEFPOINTS
 62
     0
 48
50.0
100
AcDbPoint
 10
7469.896575107047
 20
10617.90707574032
 30
0.0
  0
POINT
  5
2A680
330
22F29
100
AcDbEntity
  8
DEFPOINTS
 62
     0
 48
50.0
100
AcDbPoint
 10
7469.896575106976
 20
8097.907075740266
 30
0.0
  0
POINT
  5
2A681
330
22F29
100
AcDbEntity
  8
DEFPOINTS
 62
     0
 48
50.0
100
AcDbPoint
 10
8117.698686385907
 20
8097.907075740266
 30
0.0
  0
ENDBLK
  5
22F34
330
22F29
100
AcDbEntity
  8
0
 48
50.0
100
AcDbBlockEnd
  0
BLOCK
  5
22F3F
330
22F35
100
AcDbEntity
  8
0
 48
50.0
100
AcDbBlockBegin
  2
*D6
 70
     1
 10
0.0
 20
0.0
 30
0.0
  3
*D6
  1

  0
LINE
  5
2A56A
330
22F35
100
AcDbEntity
  8
寸法
 62
     0
 48
50.0
370
    -2
100
AcDbLine
 10
7461.396575107048
 20
10637.5480918917
 30
0.0
 11
7856.754300969072
 21
10531.61230852556
 31
0.0
  0
LINE
  5
2A56B
330
22F35
100
AcDbEntity
  8
寸法
 62
     0
 48
50.0
370
    -2
100
AcDbLine
 10
7461.396575107048
 20
10187.5480918917
 30
0.0
 11
7856.754300969072
 21
10081.61230852556
 31
0.0
  0
LINE
  5
2A56C
330
22F35
100
AcDbEntity
  8
寸法
 62
     0
 48
50.0
370
    -2
100
AcDbLine
 10
7796.754300969073
 20
10547.68926007143
 30
0.0
 11
7796.754300969071
 21
10097.68926007143
 31
0.0
  0
INSERT
  5
2A56D
330
22F35
100
AcDbEntity
  8
寸法
 62
     0
 48
50.0
370
    -2
100
AcDbBlockReference
  2
_DOTSMALL
 10
7796.754300969073
 20
10547.68926007143
 30
0.0
 41
100.0
 42
100.0
 43
100.0
 50
90.0
  0
INSERT
  5
2A56E
330
22F35
100
AcDbEntity
  8
寸法
 62
     0
 48
50.0
370
    -2
100
AcDbBlockReference
  2
_DOTSMALL
 10
7796.754300969071
 20
10097.68926007143
 30
0.0
 41
100.0
 42
100.0
 43
100.0
 50
270.0
  0
MTEXT
  5
2A56F
330
22F35
100
AcDbEntity
  8
寸法
 62
     7
 48
50.0
100
AcDbMText
 10
7696.754300969072
 20
10322.68926007143
 30
0.0
 40
120.0
 41
0.0
 71
     5
 72
     1
  1
\A1;450
  7
STYLE1
 11
0.0000000000000001
 21
1.0
 31
0.0
 73
     1
 44
1.0
1001
ACAD
1000
MTEXTBEGIN
1070
    73
1070
     1
1070
    44
1040
1.0
1070
    74
1070
     0
1000
MTEXTEND
  0
POINT
  5
2A570
330
22F35
100
AcDbEntity
  8
DEFPOINTS
 62
     0
 48
50.0
100
AcDbPoint
 10
7441.396575107048
 20
10642.90707574032
 30
0.0
  0
POINT
  5
2A571
330
22F35
100
AcDbEntity
  8
DEFPOINTS
 62
     0
 48
50.0
100
AcDbPoint
 10
7441.396575107048
 20
10192.90707574032
 30
0.0
  0
POINT
  5
2A572
330
22F35
100
AcDbEntity
  8
DEFPOINTS
 62
     0
 48
50.0
100
AcDbPoint
 10
7796.754300969071
 20
10097.68926007143
 30
0.0
  0
ENDBLK
  5
22F40
330
22F35
100
AcDbEntity
  8
0
 48
50.0
100
AcDbBlockEnd
  0
BLOCK
  5
22F4B
330
22F41
100
AcDbEntity
  8
0
 48
50.0
100
AcDbBlockBegin
  2
*D7
 70
     1
 10
0.0
 20
0.0
 30
0.0
  3
*D7
  1

  0
LINE
  5
2A573
330
22F41
100
AcDbEntity
  8
寸法
 62
     0
 48
50.0
370
    -2
100
AcDbLine
 10
6163.037591258425
 20
10172.90707574033
 30
0.0
 11
6095.083950562712
 21
9919.300636104654
 31
0.0
  0
LINE
  5
2A574
330
22F41
100
AcDbEntity
  8
寸法
 62
     0
 48
50.0
370
    -2
100
AcDbLine
 10
7436.037591258436
 20
10172.90707574032
 30
0.0
 11
7368.083950562726
 21
9919.300636104654
 31
0.0
  0
LINE
  5
2A575
330
22F41
100
AcDbEntity
  8
寸法
 62
     0
 48
50.0
370
    -2
100
AcDbLine
 10
6111.160902108579
 20
9979.300636104653
 30
0.0
 11
7384.160902108593
 21
9979.300636104653
 31
0.0
  0
INSERT
  5
2A576
330
22F41
100
AcDbEntity
  8
寸法
 62
     0
 48
50.0
370
    -2
100
AcDbBlockReference
  2
_DOTSMALL
 10
6111.160902108579
 20
9979.300636104653
 30
0.0
 41
100.0
 42
100.0
 43
100.0
 50
180.0
  0
INSERT
  5
2A577
330
22F41
100
AcDbEntity
  8
寸法
 62
     0
 48
50.0
370
    -2
100
AcDbBlockReference
  2
_DOTSMALL
 10
7384.160902108593
 20
9979.300636104653
 30
0.0
 41
100.0
 42
100.0
 43
100.0
  0
MTEXT
  5
2A578
330
22F41
100
AcDbEntity
  8
寸法
 62
     7
 48
50.0
100
AcDbMText
 10
6772.617850908511
 20
10079.31244712827
 30
0.0
 40
120.0
 41
0.0
 71
     5
 72
     1
  1
\A1;1273
  7
STYLE1
 73
     1
 44
1.0
1001
ACAD
1000
MTEXTBEGIN
1070
    73
1070
     1
1070
    44
1040
1.0
1070
    74
1070
     0
1000
MTEXTEND
  0
POINT
  5
2A579
330
22F41
100
AcDbEntity
  8
DEFPOINTS
 62
     0
 48
50.0
100
AcDbPoint
 10
6168.396575107047
 20
10192.90707574033
 30
0.0
  0
POINT
  5
2A57A
330
22F41
100
AcDbEntity
  8
DEFPOINTS
 62
     0
 48
50.0
100
AcDbPoint
 10
7441.396575107058
 20
10192.90707574032
 30
0.0
  0
POINT
  5
2A57B
330
22F41
100
AcDbEntity
  8
DEFPOINTS
 62
     0
 48
50.0
100
AcDbPoint
 10
7384.160902108593
 20
9979.300636104653
 30
0.0
  0
ENDBLK
  5
22F4C
330
22F41
100
AcDbEntity
  8
0
 48
50.0
100
AcDbBlockEnd
  0
BLOCK
  5
22F59
330
22F4D
100
AcDbEntity
  8
0
 48
50.0
100
AcDbBlockBegin
  2
*D8
 70
     1
 10
0.0
 20
0.0
 30
0.0
  3
*D8
  1

  0
LINE
  5
2A57C
330
22F4D
100
AcDbEntity
  8
寸法
 62
     0
 48
50.0
370
    -2
100
AcDbLine
 10
7489.896575106977
 20
8097.907075740266
 30
0.0
 11
8177.322920841387
 21
8097.907075740266
 31
0.0
  0
LINE
  5
2A57D
330
22F4D
100
AcDbEntity
  8
寸法
 62
     0
 48
50.0
370
    -2
100
AcDbLine
 10
7489.896575106977
 20
8042.90707574027
 30
0.0
 11
8177.322920841387
 21
8042.90707574027
 31
0.0
  0
LINE
  5
2A57E
330
22F4D
100
AcDbEntity
  8
寸法
 62
     0
 48
50.0
370
    -2
100
AcDbLine
 10
8117.322920841386
 20
8097.907075740266
 30
0.0
 11
8117.322920841386
 21
8197.907075740266
 31
0.0
  0
LINE
  5
2A57F
330
22F4D
100
AcDbEntity
  8
寸法
 62
     0
 48
50.0
370
    -2
100
AcDbLine
 10
8117.322920841386
 20
8042.90707574027
 30
0.0
 11
8117.322920841386
 21
7556.560327461167
 31
0.0
  0
LINE
  5
2A580
330
22F4D
100
AcDbEntity
  8
寸法
 62
     0
 48
50.0
370
    -2
100
AcDbLine
 10
8117.322920841386
 20
8097.907075740266
 30
0.0
 11
8117.322920841386
 21
8042.90707574027
 31
0.0
  0
INSERT
  5
2A581
330
22F4D
100
AcDbEntity
  8
寸法
 62
     0
 48
50.0
370
    -2
100
AcDbBlockReference
  2
_DOTSMALL
 10
8117.322920841386
 20
8097.907075740266
 30
0.0
 41
100.0
 42
100.0
 43
100.0
 50
270.0
  0
INSERT
  5
2A582
330
22F4D
100
AcDbEntity
  8
寸法
 62
     0
 48
50.0
370
    -2
100
AcDbBlockReference
  2
_DOTSMALL
 10
8117.322920841386
 20
8042.90707574027
 30
0.0
 41
100.0
 42
100.0
 43
100.0
 50
90.0
  0
MTEXT
  5
2A583
330
22F4D
100
AcDbEntity
  8
寸法
 62
     7
 48
50.0
100
AcDbMText
 10
8017.322920841385
 20
7665.045608835407
 30
0.0
 40
120.0
 41
0.0
 71
     5
 72
     1
  1
\A1;55
  7
STYLE1
 11
0.0000000000000001
 21
1.0
 31
0.0
 73
     1
 44
1.0
1001
ACAD
1000
MTEXTBEGIN
1070
    73
1070
     1
1070
    44
1040
1.0
1070
    74
1070
     0
1000
MTEXTEND
  0
POINT
  5
2A584
330
22F4D
100
AcDbEntity
  8
DEFPOINTS
 62
     0
 48
50.0
100
AcDbPoint
 10
7469.896575106976
 20
8097.907075740266
 30
0.0
  0
POINT
  5
2A585
330
22F4D
100
AcDbEntity
  8
DEFPOINTS
 62
     0
 48
50.0
100
AcDbPoint
 10
7469.896575106976
 20
8042.90707574027
 30
0.0
  0
POINT
  5
2A586
330
22F4D
100
AcDbEntity
  8
DEFPOINTS
 62
     0
 48
50.0
100
AcDbPoint
 10
8117.322920841386
 20
8042.90707574027
 30
0.0
  0
ENDBLK
  5
22F5A
330
22F4D
100
AcDbEntity
  8
0
 48
50.0
100
AcDbBlockEnd
  0
BLOCK
  5
22F7F
330
22F73
100
AcDbEntity
  8
0
 48
50.0
100
AcDbBlockBegin
  2
*D9
 70
     1
 10
0.0
 20
0.0
 30
0.0
  3
*D9
  1

  0
LINE
  5
2A587
330
22F73
100
AcDbEntity
  8
寸法
 62
     0
 48
50.0
370
    -2
100
AcDbLine
 10
4839.896575107011
 20
10692.90707574022
 30
0.0
 11
4839.896575107011
 21
10948.7152953652
 31
0.0
  0
LINE
  5
2A588
330
22F73
100
AcDbEntity
  8
寸法
 62
     0
 48
50.0
370
    -2
100
AcDbLine
 10
4894.896575107047
 20
10692.90707574022
 30
0.0
 11
4894.896575107047
 21
10948.7152953652
 31
0.0
  0
LINE
  5
2A589
330
22F73
100
AcDbEntity
  8
寸法
 62
     0
 48
50.0
370
    -2
100
AcDbLine
 10
4894.896575107047
 20
10888.7152953652
 30
0.0
 11
4994.896575107047
 21
10888.7152953652
 31
0.0
  0
LINE
  5
2A58A
330
22F73
100
AcDbEntity
  8
寸法
 62
     0
 48
50.0
370
    -2
100
AcDbLine
 10
4839.896575107011
 20
10888.7152953652
 30
0.0
 11
4422.926012358533
 21
10888.7152953652
 31
0.0
  0
LINE
  5
2A58B
330
22F73
100
AcDbEntity
  8
寸法
 62
     0
 48
50.0
370
    -2
100
AcDbLine
 10
4894.896575107047
 20
10888.7152953652
 30
0.0
 11
4839.896575107011
 21
10888.7152953652
 31
0.0
  0
INSERT
  5
2A58C
330
22F73
100
AcDbEntity
  8
寸法
 62
     0
 48
50.0
370
    -2
100
AcDbBlockReference
  2
_DOTSMALL
 10
4894.896575107047
 20
10888.7152953652
 30
0.0
 41
100.0
 42
100.0
 43
100.0
 50
180.0
  0
INSERT
  5
2A58D
330
22F73
100
AcDbEntity
  8
寸法
 62
     0
 48
50.0
370
    -2
100
AcDbBlockReference
  2
_DOTSMALL
 10
4839.896575107011
 20
10888.7152953652
 30
0.0
 41
100.0
 42
100.0
 43
100.0
  0
MTEXT
  5
2A58E
330
22F73
100
AcDbEntity
  8
寸法
 62
     7
 48
50.0
100
AcDbMText
 10
4531.411293732772
 20
10988.71529536521
 30
0.0
 40
120.0
 41
0.0
 71
     5
 72
     1
  1
\A1;55
  7
STYLE1
 73
     1
 44
1.0
1001
ACAD
1000
MTEXTBEGIN
1070
    73
1070
     1
1070
    44
1040
1.0
1070
    74
1070
     0
1000
MTEXTEND
  0
POINT
  5
2A58F
330
22F73
100
AcDbEntity
  8
DEFPOINTS
 62
     0
 48
50.0
100
AcDbPoint
 10
4839.896575107011
 20
10672.90707574022
 30
0.0
  0
POINT
  5
2A590
330
22F73
100
AcDbEntity
  8
DEFPOINTS
 62
     0
 48
50.0
100
AcDbPoint
 10
4894.896575107047
 20
10672.90707574022
 30
0.0
  0
POINT
  5
2A591
330
22F73
100
AcDbEntity
  8
DEFPOINTS
 62
     0
 48
50.0
100
AcDbPoint
 10
4894.896575107047
 20
10888.7152953652
 30
0.0
  0
ENDBLK
  5
22F80
330
22F73
100
AcDbEntity
  8
0
 48
50.0
100
AcDbBlockEnd
  0
BLOCK
  5
22F8D
330
22F81
100
AcDbEntity
  8
0
 48
50.0
100
AcDbBlockBegin
  2
*D10
 70
     1
 10
0.0
 20
0.0
 30
0.0
  3
*D10
  1

  0
LINE
  5
2A592
330
22F81
100
AcDbEntity
  8
寸法
 62
     0
 48
50.0
370
    -2
100
AcDbLine
 10
7489.896575107048
 20
10672.90707574032
 30
0.0
 11
8177.32292084146
 21
10672.90707574032
 31
0.0
  0
LINE
  5
2A593
330
22F81
100
AcDbEntity
  8
寸法
 62
     0
 48
50.0
370
    -2
100
AcDbLine
 10
7489.896575107048
 20
10617.90707574032
 30
0.0
 11
8177.32292084146
 21
10617.90707574032
 31
0.0
  0
LINE
  5
2A594
330
22F81
100
AcDbEntity
  8
寸法
 62
     0
 48
50.0
370
    -2
100
AcDbLine
 10
8117.322920841457
 20
10617.90707574032
 30
0.0
 11
8117.322920841457
 21
10517.90707574032
 31
0.0
  0
LINE
  5
2A595
330
22F81
100
AcDbEntity
  8
寸法
 62
     0
 48
50.0
370
    -2
100
AcDbLine
 10
8117.322920841457
 20
10672.90707574032
 30
0.0
 11
8117.322920841457
 21
11089.87763848879
 31
0.0
  0
LINE
  5
2A596
330
22F81
100
AcDbEntity
  8
寸法
 62
     0
 48
50.0
370
    -2
100
AcDbLine
 10
8117.322920841457
 20
10617.90707574032
 30
0.0
 11
8117.322920841457
 21
10672.90707574032
 31
0.0
  0
INSERT
  5
2A597
330
22F81
100
AcDbEntity
  8
寸法
 62
     0
 48
50.0
370
    -2
100
AcDbBlockReference
  2
_DOTSMALL
 10
8117.322920841457
 20
10617.90707574032
 30
0.0
 41
100.0
 42
100.0
 43
100.0
 50
90.0
  0
INSERT
  5
2A598
330
22F81
100
AcDbEntity
  8
寸法
 62
     0
 48
50.0
370
    -2
100
AcDbBlockReference
  2
_DOTSMALL
 10
8117.322920841457
 20
10672.90707574032
 30
0.0
 41
100.0
 42
100.0
 43
100.0
 50
270.0
  0
MTEXT
  5
2A599
330
22F81
100
AcDbEntity
  8
寸法
 62
     7
 48
50.0
100
AcDbMText
 10
8017.322920841456
 20
10981.39235711456
 30
0.0
 40
120.0
 41
0.0
 71
     5
 72
     1
  1
\A1;55
  7
STYLE1
 11
0.0000000000000001
 21
1.0
 31
0.0
 73
     1
 44
1.0
1001
ACAD
1000
MTEXTBEGIN
1070
    73
1070
     1
1070
    44
1040
1.0
1070
    74
1070
     0
1000
MTEXTEND
  0
POINT
  5
2A59A
330
22F81
100
AcDbEntity
  8
DEFPOINTS
 62
     0
 48
50.0
100
AcDbPoint
 10
7469.896575107047
 20
10672.90707574032
 30
0.0
  0
POINT
  5
2A59B
330
22F81
100
AcDbEntity
  8
DEFPOINTS
 62
     0
 48
50.0
100
AcDbPoint
 10
7469.896575107047
 20
10617.90707574032
 30
0.0
  0
POINT
  5
2A59C
330
22F81
100
AcDbEntity
  8
DEFPOINTS
 62
     0
 48
50.0
100
AcDbPoint
 10
8117.322920841457
 20
10617.90707574032
 30
0.0
  0
ENDBLK
  5
22F8E
330
22F81
100
AcDbEntity
  8
0
 48
50.0
100
AcDbBlockEnd
  0
BLOCK
  5
22F9B
330
22F8F
100
AcDbEntity
  8
0
 48
50.0
100
AcDbBlockBegin
  2
*D11
 70
     1
 10
0.0
 20
0.0
 30
0.0
  3
*D11
  1

  0
LINE
  5
2A59D
330
22F8F
100
AcDbEntity
  8
寸法
 62
     0
 48
50.0
370
    -2
100
AcDbLine
 10
7414.896575107047
 20
10692.90707574032
 30
0.0
 11
7414.896575107047
 21
10948.7152953653
 31
0.0
  0
LINE
  5
2A59E
330
22F8F
100
AcDbEntity
  8
寸法
 62
     0
 48
50.0
370
    -2
100
AcDbLine
 10
7469.896575107047
 20
10692.90707574032
 30
0.0
 11
7469.896575107047
 21
10948.7152953653
 31
0.0
  0
LINE
  5
2A59F
330
22F8F
100
AcDbEntity
  8
寸法
 62
     0
 48
50.0
370
    -2
100
AcDbLine
 10
7414.896575107047
 20
10888.7152953653
 30
0.0
 11
7314.896575107048
 21
10888.7152953653
 31
0.0
  0
LINE
  5
2A5A0
330
22F8F
100
AcDbEntity
  8
寸法
 62
     0
 48
50.0
370
    -2
100
AcDbLine
 10
7469.896575107047
 20
10888.7152953653
 30
0.0
 11
7886.867137855526
 21
10888.7152953653
 31
0.0
  0
LINE
  5
2A5A1
330
22F8F
100
AcDbEntity
  8
寸法
 62
     0
 48
50.0
370
    -2
100
AcDbLine
 10
7414.896575107047
 20
10888.7152953653
 30
0.0
 11
7469.896575107047
 21
10888.7152953653
 31
0.0
  0
INSERT
  5
2A5A2
330
22F8F
100
AcDbEntity
  8
寸法
 62
     0
 48
50.0
370
    -2
100
AcDbBlockReference
  2
_DOTSMALL
 10
7414.896575107047
 20
10888.7152953653
 30
0.0
 41
100.0
 42
100.0
 43
100.0
  0
INSERT
  5
2A5A3
330
22F8F
100
AcDbEntity
  8
寸法
 62
     0
 48
50.0
370
    -2
100
AcDbBlockReference
  2
_DOTSMALL
 10
7469.896575107047
 20
10888.7152953653
 30
0.0
 41
100.0
 42
100.0
 43
100.0
 50
180.0
  0
MTEXT
  5
2A5A4
330
22F8F
100
AcDbEntity
  8
寸法
 62
     7
 48
50.0
100
AcDbMText
 10
7778.381856481286
 20
10988.7152953653
 30
0.0
 40
120.0
 41
0.0
 71
     5
 72
     1
  1
\A1;55
  7
STYLE1
 73
     1
 44
1.0
1001
ACAD
1000
MTEXTBEGIN
1070
    73
1070
     1
1070
    44
1040
1.0
1070
    74
1070
     0
1000
MTEXTEND
  0
POINT
  5
2A5A5
330
22F8F
100
AcDbEntity
  8
DEFPOINTS
 62
     0
 48
50.0
100
AcDbPoint
 10
7414.896575107047
 20
10672.90707574032
 30
0.0
  0
POINT
  5
2A5A6
330
22F8F
100
AcDbEntity
  8
DEFPOINTS
 62
     0
 48
50.0
100
AcDbPoint
 10
7469.896575107047
 20
10672.90707574032
 30
0.0
  0
POINT
  5
2A5A7
330
22F8F
100
AcDbEntity
  8
DEFPOINTS
 62
     0
 48
50.0
100
AcDbPoint
 10
7469.896575107047
 20
10888.7152953653
 30
0.0
  0
ENDBLK
  5
22F9C
330
22F8F
100
AcDbEntity
  8
0
 48
50.0
100
AcDbBlockEnd
  0
BLOCK
  5
22FA7
330
22F9D
100
AcDbEntity
  8
0
 48
50.0
100
AcDbBlockBegin
  2
*D12
 70
     1
 10
0.0
 20
0.0
 30
0.0
  3
*D12
  1

  0
LINE
  5
2A5A8
330
22F9D
100
AcDbEntity
  8
寸法
 62
     0
 48
50.0
370
    -2
100
AcDbLine
 10
4894.896575107047
 20
10692.90707574022
 30
0.0
 11
4894.896575107047
 21
10948.71529536532
 31
0.0
  0
LINE
  5
2A5A9
330
22F9D
100
AcDbEntity
  8
寸法
 62
     0
 48
50.0
370
    -2
100
AcDbLine
 10
7414.896575107047
 20
10692.90707574032
 30
0.0
 11
7414.896575107047
 21
10948.71529536532
 31
0.0
  0
LINE
  5
2A5AA
330
22F9D
100
AcDbEntity
  8
寸法
 62
     0
 48
50.0
370
    -2
100
AcDbLine
 10
4894.896575107047
 20
10888.71529536532
 30
0.0
 11
7414.896575107047
 21
10888.71529536532
 31
0.0
  0
INSERT
  5
2A5AB
330
22F9D
100
AcDbEntity
  8
寸法
 62
     0
 48
50.0
370
    -2
100
AcDbBlockReference
  2
_DOTSMALL
 10
4894.896575107047
 20
10888.71529536532
 30
0.0
 41
100.0
 42
100.0
 43
100.0
 50
180.0
  0
INSERT
  5
2A5AC
330
22F9D
100
AcDbEntity
  8
寸法
 62
     0
 48
50.0
370
    -2
100
AcDbBlockReference
  2
_DOTSMALL
 10
7414.896575107047
 20
10888.71529536532
 30
0.0
 41
100.0
 42
100.0
 43
100.0
  0
MTEXT
  5
2A5AD
330
22F9D
100
AcDbEntity
  8
寸法
 62
     7
 48
50.0
100
AcDbMText
 10
6154.896575107045
 20
10988.72710638894
 30
0.0
 40
120.0
 41
0.0
 71
     5
 72
     1
  1
\A1;6X420=2520
  7
STYLE1
 73
     1
 44
1.0
1001
ACAD
1000
MTEXTBEGIN
1070
    73
1070
     1
1070
    44
1040
1.0
1070
    74
1070
     0
1000
MTEXTEND
  0
POINT
  5
2A5AE
330
22F9D
100
AcDbEntity
  8
DEFPOINTS
 62
     0
 48
50.0
100
AcDbPoint
 10
4894.896575107047
 20
10672.90707574022
 30
0.0
  0
POINT
  5
2A5AF
330
22F9D
100
AcDbEntity
  8
DEFPOINTS
 62
     0
 48
50.0
100
AcDbPoint
 10
7414.896575107047
 20
10672.90707574032
 30
0.0
  0
POINT
  5
2A5B0
330
22F9D
100
AcDbEntity
  8
DEFPOINTS
 62
     0
 48
50.0
100
AcDbPoint
 10
7414.896575107047
 20
10888.71529536532
 30
0.0
  0
ENDBLK
  5
22FA8
330
22F9D
100
AcDbEntity
  8
0
 48
50.0
100
AcDbBlockEnd
  0
BLOCK
  5
22FB3
330
22FA9
100
AcDbEntity
  8
0
 48
50.0
100
AcDbBlockBegin
  2
*D13
 70
     1
 10
0.0
 20
0.0
 30
0.0
  3
*D13
  1

  0
LINE
  5
2A64C
330
22FA9
100
AcDbEntity
  8
寸法
 62
     0
 48
50.0
370
    -2
100
AcDbLine
 10
7489.896575107045
 20
10672.90707574032
 30
0.0
 11
8476.025173151024
 21
10672.90707574032
 31
0.0
  0
LINE
  5
2A64D
330
22FA9
100
AcDbEntity
  8
寸法
 62
     0
 48
50.0
370
    -2
100
AcDbLine
 10
7489.896575106977
 20
8042.90707574027
 30
0.0
 11
8476.025173151024
 21
8042.90707574027
 31
0.0
  0
LINE
  5
2A64E
330
22FA9
100
AcDbEntity
  8
寸法
 62
     0
 48
50.0
370
    -2
100
AcDbLine
 10
8416.025173151023
 20
10672.90707574032
 30
0.0
 11
8416.025173151023
 21
8042.90707574027
 31
0.0
  0
INSERT
  5
2A64F
330
22FA9
100
AcDbEntity
  8
寸法
 62
     0
 48
50.0
370
    -2
100
AcDbBlockReference
  2
_DOTSMALL
 10
8416.025173151023
 20
10672.90707574032
 30
0.0
 41
100.0
 42
100.0
 43
100.0
 50
90.0
  0
INSERT
  5
2A650
330
22FA9
100
AcDbEntity
  8
寸法
 62
     0
 48
50.0
370
    -2
100
AcDbBlockReference
  2
_DOTSMALL
 10
8416.025173151023
 20
8042.90707574027
 30
0.0
 41
100.0
 42
100.0
 43
100.0
 50
270.0
  0
MTEXT
  5
2A651
330
22FA9
100
AcDbEntity
  8
寸法
 62
     7
 48
50.0
100
AcDbMText
 10
8316.013362127399
 20
9355.891103672941
 30
0.0
 40
120.0
 41
0.0
 71
     5
 72
     1
  1
\A1;2630
  7
STYLE1
 11
0.0000000000000001
 21
1.0
 31
0.0
 73
     1
 44
1.0
1001
ACAD
1000
MTEXTBEGIN
1070
    73
1070
     1
1070
    44
1040
1.0
1070
    74
1070
     0
1000
MTEXTEND
  0
POINT
  5
2A652
330
22FA9
100
AcDbEntity
  8
DEFPOINTS
 62
     0
 48
50.0
100
AcDbPoint
 10
7469.896575107044
 20
10672.90707574032
 30
0.0
  0
POINT
  5
2A653
330
22FA9
100
AcDbEntity
  8
DEFPOINTS
 62
     0
 48
50.0
100
AcDbPoint
 10
7469.896575106976
 20
8042.90707574027
 30
0.0
  0
POINT
  5
2A654
330
22FA9
100
AcDbEntity
  8
DEFPOINTS
 62
     0
 48
50.0
100
AcDbPoint
 10
8416.025173151023
 20
8042.90707574027
 30
0.0
  0
ENDBLK
  5
22FB4
330
22FA9
100
AcDbEntity
  8
0
 48
50.0
100
AcDbBlockEnd
  0
BLOCK
  5
22FBF
330
22FB5
100
AcDbEntity
  8
0
 48
50.0
100
AcDbBlockBegin
  2
*D14
 70
     1
 10
0.0
 20
0.0
 30
0.0
  3
*D14
  1

  0
LINE
  5
2A558
330
22FB5
100
AcDbEntity
  8
寸法
 62
     0
 48
50.0
370
    -2
100
AcDbLine
 10
4863.037591258425
 20
10172.90707574022
 30
0.0
 11
4795.083950562712
 21
9919.300636104544
 31
0.0
  0
LINE
  5
2A559
330
22FB5
100
AcDbEntity
  8
寸法
 62
     0
 48
50.0
370
    -2
100
AcDbLine
 10
6136.037591258435
 20
10172.90707574021
 30
0.0
 11
6068.083950562725
 21
9919.300636104544
 31
0.0
  0
LINE
  5
2A55A
330
22FB5
100
AcDbEntity
  8
寸法
 62
     0
 48
50.0
370
    -2
100
AcDbLine
 10
4811.160902108579
 20
9979.300636104545
 30
0.0
 11
6084.160902108592
 21
9979.300636104545
 31
0.0
  0
INSERT
  5
2A55B
330
22FB5
100
AcDbEntity
  8
寸法
 62
     0
 48
50.0
370
    -2
100
AcDbBlockReference
  2
_DOTSMALL
 10
4811.160902108579
 20
9979.300636104545
 30
0.0
 41
100.0
 42
100.0
 43
100.0
 50
180.0
  0
INSERT
  5
2A55C
330
22FB5
100
AcDbEntity
  8
寸法
 62
     0
 48
50.0
370
    -2
100
AcDbBlockReference
  2
_DOTSMALL
 10
6084.160902108592
 20
9979.300636104545
 30
0.0
 41
100.0
 42
100.0
 43
100.0
  0
MTEXT
  5
2A55D
330
22FB5
100
AcDbEntity
  8
寸法
 62
     7
 48
50.0
100
AcDbMText
 10
5472.617850908513
 20
10079.31244712816
 30
0.0
 40
120.0
 41
0.0
 71
     5
 72
     1
  1
\A1;1273
  7
STYLE1
 73
     1
 44
1.0
1001
ACAD
1000
MTEXTBEGIN
1070
    73
1070
     1
1070
    44
1040
1.0
1070
    74
1070
     0
1000
MTEXTEND
  0
POINT
  5
2A55E
330
22FB5
100
AcDbEntity
  8
DEFPOINTS
 62
     0
 48
50.0
100
AcDbPoint
 10
4868.396575107047
 20
10192.90707574022
 30
0.0
  0
POINT
  5
2A55F
330
22FB5
100
AcDbEntity
  8
DEFPOINTS
 62
     0
 48
50.0
100
AcDbPoint
 10
6141.396575107059
 20
10192.90707574021
 30
0.0
  0
POINT
  5
2A560
330
22FB5
100
AcDbEntity
  8
DEFPOINTS
 62
     0
 48
50.0
100
AcDbPoint
 10
6084.160902108592
 20
9979.300636104545
 30
0.0
  0
ENDBLK
  5
22FC0
330
22FB5
100
AcDbEntity
  8
0
 48
50.0
100
AcDbBlockEnd
  0
BLOCK
  5
25C30
330
25C26
100
AcDbEntity
  8
0
 48
50.0
100
AcDbBlockBegin
  2
*D15
 70
     1
 10
0.0
 20
0.0
 30
0.0
  3
*D15
  1

  0
LINE
  5
2A546
330
25C26
100
AcDbEntity
  8
寸法
 62
     0
 48
50.0
370
    -2
100
AcDbLine
 10
4839.896575106994
 20
8022.907075740036
 30
0.0
 11
4839.896575106994
 21
7218.771106386509
 31
0.0
  0
LINE
  5
2A547
330
25C26
100
AcDbEntity
  8
寸法
 62
     0
 48
50.0
370
    -2
100
AcDbLine
 10
7469.896575106976
 20
8022.907075740164
 30
0.0
 11
7469.896575106976
 21
7218.771106386509
 31
0.0
  0
LINE
  5
2A548
330
25C26
100
AcDbEntity
  8
寸法
 62
     0
 48
50.0
370
    -2
100
AcDbLine
 10
4839.896575106994
 20
7278.771106386511
 30
0.0
 11
7469.896575106976
 21
7278.771106386511
 31
0.0
  0
INSERT
  5
2A549
330
25C26
100
AcDbEntity
  8
寸法
 62
     0
 48
50.0
370
    -2
100
AcDbBlockReference
  2
_DOTSMALL
 10
4839.896575106994
 20
7278.771106386511
 30
0.0
 41
100.0
 42
100.0
 43
100.0
 50
180.0
  0
INSERT
  5
2A54A
330
25C26
100
AcDbEntity
  8
寸法
 62
     0
 48
50.0
370
    -2
100
AcDbBlockReference
  2
_DOTSMALL
 10
7469.896575106976
 20
7278.771106386511
 30
0.0
 41
100.0
 42
100.0
 43
100.0
  0
MTEXT
  5
2A54B
330
25C26
100
AcDbEntity
  8
寸法
 62
     7
 48
50.0
100
AcDbMText
 10
6154.896575106985
 20
7378.782917410132
 30
0.0
 40
120.0
 41
0.0
 71
     5
 72
     1
  1
\A1;2630
  7
STYLE1
 73
     1
 44
1.0
1001
ACAD
1000
MTEXTBEGIN
1070
    73
1070
     1
1070
    44
1040
1.0
1070
    74
1070
     0
1000
MTEXTEND
  0
POINT
  5
2A54C
330
25C26
100
AcDbEntity
  8
DEFPOINTS
 62
     0
 48
50.0
100
AcDbPoint
 10
4839.896575106994
 20
8042.907075740037
 30
0.0
  0
POINT
  5
2A54D
330
25C26
100
AcDbEntity
  8
DEFPOINTS
 62
     0
 48
50.0
100
AcDbPoint
 10
7469.896575106976
 20
8042.907075740165
 30
0.0
  0
POINT
  5
2A54E
330
25C26
100
AcDbEntity
  8
DEFPOINTS
 62
     0
 48
50.0
100
AcDbPoint
 10
7469.896575106976
 20
7278.771106386511
 30
0.0
  0
ENDBLK
  5
25C31
330
25C26
100
AcDbEntity
  8
0
 48
50.0
100
AcDbBlockEnd
  0
BLOCK
  5
25C3C
330
25C32
100
AcDbEntity
  8
0
 48
50.0
100
AcDbBlockBegin
  2
*D16
 70
     1
 10
0.0
 20
0.0
 30
0.0
  3
*D16
  1

  0
LINE
  5
2A54F
330
25C32
100
AcDbEntity
  8
寸法
 62
     0
 48
50.0
370
    -2
100
AcDbLine
 10
6659.396575106986
 20
8022.90707574024
 30
0.0
 11
6659.396575106986
 21
7423.34766997154
 31
0.0
  0
LINE
  5
2A550
330
25C32
100
AcDbEntity
  8
寸法
 62
     0
 48
50.0
370
    -2
100
AcDbLine
 10
5562.396575106985
 20
8022.90707574013
 30
0.0
 11
5562.396575106985
 21
7423.34766997154
 31
0.0
  0
LINE
  5
2A551
330
25C32
100
AcDbEntity
  8
寸法
 62
     0
 48
50.0
370
    -2
100
AcDbLine
 10
6659.396575106986
 20
7483.347669971539
 30
0.0
 11
5562.396575106985
 21
7483.347669971539
 31
0.0
  0
INSERT
  5
2A552
330
25C32
100
AcDbEntity
  8
寸法
 62
     0
 48
50.0
370
    -2
100
AcDbBlockReference
  2
_DOTSMALL
 10
6659.396575106986
 20
7483.347669971539
 30
0.0
 41
100.0
 42
100.0
 43
100.0
  0
INSERT
  5
2A553
330
25C32
100
AcDbEntity
  8
寸法
 62
     0
 48
50.0
370
    -2
100
AcDbBlockReference
  2
_DOTSMALL
 10
5562.396575106985
 20
7483.347669971539
 30
0.0
 41
100.0
 42
100.0
 43
100.0
 50
180.0
  0
MTEXT
  5
2A554
330
25C32
100
AcDbEntity
  8
寸法
 62
     7
 48
50.0
100
AcDbMText
 10
6154.896575106985
 20
7683.347669971539
 30
0.0
 40
120.0
 41
0.0
 71
     5
 72
     1
  1
\A1;有効開口部間口\P1097
  7
STYLE1
 73
     1
 44
1.0
1001
ACAD
1000
MTEXTBEGIN
1070
    73
1070
     1
1070
    44
1040
1.0
1070
    74
1070
     0
1000
MTEXTEND
  0
POINT
  5
2A555
330
25C32
100
AcDbEntity
  8
DEFPOINTS
 62
     0
 48
50.0
100
AcDbPoint
 10
6659.396575106986
 20
8042.907075740242
 30
0.0
  0
POINT
  5
2A556
330
25C32
100
AcDbEntity
  8
DEFPOINTS
 62
     0
 48
50.0
100
AcDbPoint
 10
5562.396575106985
 20
8042.90707574013
 30
0.0
  0
POINT
  5
2A557
330
25C32
100
AcDbEntity
  8
DEFPOINTS
 62
     0
 48
50.0
100
AcDbPoint
 10
5562.396575106985
 20
7483.347669971539
 30
0.0
  0
ENDBLK
  5
25C3D
330
25C32
100
AcDbEntity
  8
0
 48
50.0
100
AcDbBlockEnd
  0
BLOCK
  5
2640C
330
26402
100
AcDbEntity
  8
0
 48
50.0
100
AcDbBlockBegin
  2
*D17
 70
     1
 10
0.0
 20
0.0
 30
0.0
  3
*D17
  1

  0
LINE
  5
27052
330
26402
100
AcDbEntity
  8
寸法
 62
     0
 48
50.0
370
    -2
100
AcDbLine
 10
7569.896575107009
 20
2779.999999999998
 30
0.0
 11
7569.896575107009
 21
2453.952670699622
 31
0.0
  0
LINE
  5
27053
330
26402
100
AcDbEntity
  8
寸法
 62
     0
 48
50.0
370
    -2
100
AcDbLine
 10
7369.896575107009
 20
2780.0
 30
0.0
 11
7369.896575107009
 21
2453.952670699622
 31
0.0
  0
LINE
  5
27054
330
26402
100
AcDbEntity
  8
寸法
 62
     0
 48
50.0
370
    -2
100
AcDbLine
 10
7569.896575107009
 20
2513.952670699622
 30
0.0
 11
7369.896575107009
 21
2513.952670699622
 31
0.0
  0
INSERT
  5
27055
330
26402
100
AcDbEntity
  8
寸法
 62
     0
 48
50.0
370
    -2
100
AcDbBlockReference
  2
_DOTSMALL
 10
7569.896575107009
 20
2513.952670699622
 30
0.0
 41
100.0
 42
100.0
 43
100.0
  0
INSERT
  5
27056
330
26402
100
AcDbEntity
  8
寸法
 62
     0
 48
50.0
370
    -2
100
AcDbBlockReference
  2
_DOTSMALL
 10
7369.896575107009
 20
2513.952670699622
 30
0.0
 41
100.0
 42
100.0
 43
100.0
 50
180.0
  0
MTEXT
  5
27057
330
26402
100
AcDbEntity
  8
寸法
 62
     7
 48
50.0
100
AcDbMText
 10
7469.896575107009
 20
2613.964481723245
 30
0.0
 40
120.0
 41
0.0
 71
     5
 72
     1
  1
\A1;200
  7
STYLE1
 73
     1
 44
1.0
1001
ACAD
1000
MTEXTBEGIN
1070
    73
1070
     1
1070
    44
1040
1.0
1070
    74
1070
     0
1000
MTEXTEND
  0
POINT
  5
27058
330
26402
100
AcDbEntity
  8
DEFPOINTS
 62
     0
 48
50.0
100
AcDbPoint
 10
7569.896575107009
 20
2799.999999999998
 30
0.0
  0
POINT
  5
27059
330
26402
100
AcDbEntity
  8
DEFPOINTS
 62
     0
 48
50.0
100
AcDbPoint
 10
7369.896575107009
 20
2800.0
 30
0.0
  0
POINT
  5
2705A
330
26402
100
AcDbEntity
  8
DEFPOINTS
 62
     0
 48
50.0
100
AcDbPoint
 10
7369.896575107009
 20
2513.952670699622
 30
0.0
  0
ENDBLK
  5
2640D
330
26402
100
AcDbEntity
  8
0
 48
50.0
100
AcDbBlockEnd
  0
BLOCK
  5
2990B
330
29901
100
AcDbEntity
  8
0
 48
50.0
100
AcDbBlockBegin
  2
*D18
 70
     1
 10
0.0
 20
0.0
 30
0.0
  3
*D18
  1

  0
LINE
  5
29A94
330
29901
100
AcDbEntity
  8
寸法
 62
     0
 48
50.0
370
    -2
100
AcDbLine
 10
9682.228445172434
 20
2779.999999999998
 30
0.0
 11
9682.228445172434
 21
2453.952670699622
 31
0.0
  0
LINE
  5
29A95
330
29901
100
AcDbEntity
  8
寸法
 62
     0
 48
50.0
370
    -2
100
AcDbLine
 10
9482.228445172436
 20
2779.999999999998
 30
0.0
 11
9482.228445172436
 21
2453.952670699622
 31
0.0
  0
LINE
  5
29A96
330
29901
100
AcDbEntity
  8
寸法
 62
     0
 48
50.0
370
    -2
100
AcDbLine
 10
9682.228445172434
 20
2513.952670699622
 30
0.0
 11
9482.228445172436
 21
2513.952670699622
 31
0.0
  0
INSERT
  5
29A97
330
29901
100
AcDbEntity
  8
寸法
 62
     0
 48
50.0
370
    -2
100
AcDbBlockReference
  2
_DOTSMALL
 10
9682.228445172434
 20
2513.952670699622
 30
0.0
 41
100.0
 42
100.0
 43
100.0
  0
INSERT
  5
29A98
330
29901
100
AcDbEntity
  8
寸法
 62
     0
 48
50.0
370
    -2
100
AcDbBlockReference
  2
_DOTSMALL
 10
9482.228445172436
 20
2513.952670699622
 30
0.0
 41
100.0
 42
100.0
 43
100.0
 50
180.0
  0
MTEXT
  5
29A99
330
29901
100
AcDbEntity
  8
寸法
 62
     7
 48
50.0
100
AcDbMText
 10
9582.228445172436
 20
2613.964481723245
 30
0.0
 40
120.0
 41
0.0
 71
     5
 72
     1
  1
\A1;200
  7
STYLE1
 73
     1
 44
1.0
1001
ACAD
1000
MTEXTBEGIN
1070
    73
1070
     1
1070
    44
1040
1.0
1070
    74
1070
     0
1000
MTEXTEND
  0
POINT
  5
29A9A
330
29901
100
AcDbEntity
  8
DEFPOINTS
 62
     0
 48
50.0
100
AcDbPoint
 10
9682.228445172434
 20
2799.999999999998
 30
0.0
  0
POINT
  5
29A9B
330
29901
100
AcDbEntity
  8
DEFPOINTS
 62
     0
 48
50.0
100
AcDbPoint
 10
9482.228445172436
 20
2799.999999999998
 30
0.0
  0
POINT
  5
29A9C
330
29901
100
AcDbEntity
  8
DEFPOINTS
 62
     0
 48
50.0
100
AcDbPoint
 10
9482.228445172436
 20
2513.952670699622
 30
0.0
  0
ENDBLK
  5
2990C
330
29901
100
AcDbEntity
  8
0
 48
50.0
100
AcDbBlockEnd
  0
BLOCK
  5
29917
330
2990D
100
AcDbEntity
  8
0
 48
50.0
100
AcDbBlockBegin
  2
*D19
 70
     1
 10
0.0
 20
0.0
 30
0.0
  3
*D19
  1

  0
LINE
  5
29A8B
330
2990D
100
AcDbEntity
  8
寸法
 62
     0
 48
50.0
370
    -2
100
AcDbLine
 10
9462.228445172437
 20
2799.999999999998
 30
0.0
 11
9272.728441925799
 21
2799.999999999998
 31
0.0
  0
LINE
  5
29A8C
330
2990D
100
AcDbEntity
  8
寸法
 62
     0
 48
50.0
370
    -2
100
AcDbLine
 10
9437.228445172435
 20
3000.0
 30
0.0
 11
9272.728441925799
 21
3000.0
 31
0.0
  0
LINE
  5
29A8D
330
2990D
100
AcDbEntity
  8
寸法
 62
     0
 48
50.0
370
    -2
100
AcDbLine
 10
9332.7284419258
 20
2799.999999999998
 30
0.0
 11
9332.7284419258
 21
3000.0
 31
0.0
  0
INSERT
  5
29A8E
330
2990D
100
AcDbEntity
  8
寸法
 62
     0
 48
50.0
370
    -2
100
AcDbBlockReference
  2
_DOTSMALL
 10
9332.7284419258
 20
2799.999999999998
 30
0.0
 41
100.0
 42
100.0
 43
100.0
 50
270.0
  0
INSERT
  5
29A8F
330
2990D
100
AcDbEntity
  8
寸法
 62
     0
 48
50.0
370
    -2
100
AcDbBlockReference
  2
_DOTSMALL
 10
9332.7284419258
 20
3000.0
 30
0.0
 41
100.0
 42
100.0
 43
100.0
 50
90.0
  0
MTEXT
  5
29A90
330
2990D
100
AcDbEntity
  8
寸法
 62
     7
 48
50.0
100
AcDbMText
 10
9232.716630902178
 20
2900.000000000001
 30
0.0
 40
120.0
 41
0.0
 71
     5
 72
     1
  1
\A1;200
  7
STYLE1
 11
0.0000000000000001
 21
1.0
 31
0.0
 73
     1
 44
1.0
1001
ACAD
1000
MTEXTBEGIN
1070
    73
1070
     1
1070
    44
1040
1.0
1070
    74
1070
     0
1000
MTEXTEND
  0
POINT
  5
29A91
330
2990D
100
AcDbEntity
  8
DEFPOINTS
 62
     0
 48
50.0
100
AcDbPoint
 10
9482.228445172436
 20
2799.999999999998
 30
0.0
  0
POINT
  5
29A92
330
2990D
100
AcDbEntity
  8
DEFPOINTS
 62
     0
 48
50.0
100
AcDbPoint
 10
9457.228445172434
 20
3000.0
 30
0.0
  0
POINT
  5
29A93
330
2990D
100
AcDbEntity
  8
DEFPOINTS
 62
     0
 48
50.0
100
AcDbPoint
 10
9332.7284419258
 20
3000.0
 30
0.0
  0
ENDBLK
  5
29918
330
2990D
100
AcDbEntity
  8
0
 48
50.0
100
AcDbBlockEnd
  0
BLOCK
  5
29924
330
29919
100
AcDbEntity
  8
0
 48
50.0
100
AcDbBlockBegin
  2
*D20
 70
     1
 10
0.0
 20
0.0
 30
0.0
  3
*D20
  1

  0
LINE
  5
2A53C
330
29919
100
AcDbEntity
  8
寸法
 62
     0
 48
50.0
370
    -2
100
AcDbLine
 10
9494.132731463535
 20
5474.297707069663
 30
0.0
 11
8878.198292358261
 21
5492.011857343992
 31
0.0
  0
LINE
  5
2A53D
330
29919
100
AcDbEntity
  8
寸法
 62
     0
 48
50.0
370
    -2
100
AcDbLine
 10
9490.079275906911
 20
5333.355983303949
 30
0.0
 11
8874.144836801635
 21
5351.070133578279
 31
0.0
  0
LINE
  5
2A53E
330
29919
100
AcDbEntity
  8
寸法
 62
     0
 48
50.0
370
    -2
100
AcDbLine
 10
8934.120038404067
 20
5349.345258873331
 30
0.0
 11
8938.173493960695
 21
5490.286982639045
 31
0.0
  0
LINE
  5
2A53F
330
29919
100
AcDbEntity
  8
寸法
 62
     0
 48
50.0
370
    -2
100
AcDbLine
 10
8938.173493960695
 20
5490.286982639045
 30
0.0
 11
8948.522742190379
 21
5850.138192253631
 31
0.0
  0
INSERT
  5
2A540
330
29919
100
AcDbEntity
  8
寸法
 62
     0
 48
50.0
370
    -2
100
AcDbBlockReference
  2
_DOTSMALL
 10
8934.120038404067
 20
5349.345258873331
 30
0.0
 41
100.0
 42
100.0
 43
100.0
 50
268.3526390256378
  0
INSERT
  5
2A541
330
29919
100
AcDbEntity
  8
寸法
 62
     0
 48
50.0
370
    -2
100
AcDbBlockReference
  2
_DOTSMALL
 10
8938.173493960695
 20
5490.286982639045
 30
0.0
 41
100.0
 42
100.0
 43
100.0
 50
88.35263902563776
  0
MTEXT
  5
2A542
330
29919
100
AcDbEntity
  8
寸法
 62
     7
 48
50.0
100
AcDbMText
 10
8844.826844325606
 20
5723.066713289943
 30
0.0
 40
120.0
 41
0.0
 71
     5
 72
     1
  1
\A1;141
  7
STYLE1
 11
0.0287479117491237
 21
0.9995866933738488
 31
0.0
 73
     1
 44
1.0
1001
ACAD
1000
MTEXTBEGIN
1070
    73
1070
     1
1070
    44
1040
1.0
1070
    74
1070
     0
1000
MTEXTEND
  0
POINT
  5
2A543
330
29919
100
AcDbEntity
  8
DEFPOINTS
 62
     0
 48
50.0
100
AcDbPoint
 10
9514.124465331011
 20
5473.72274883468
 30
0.0
  0
POINT
  5
2A544
330
29919
100
AcDbEntity
  8
DEFPOINTS
 62
     0
 48
50.0
100
AcDbPoint
 10
9510.071009774387
 20
5332.781025068967
 30
0.0
  0
POINT
  5
2A545
330
29919
100
AcDbEntity
  8
DEFPOINTS
 62
     0
 48
50.0
100
AcDbPoint
 10
8934.120038404067
 20
5349.345258873331
 30
0.0
  0
ENDBLK
  5
29925
330
29919
100
AcDbEntity
  8
0
 48
50.0
100
AcDbBlockEnd
  0
BLOCK
  5
29931
330
29926
100
AcDbEntity
  8
0
 48
50.0
100
AcDbBlockBegin
  2
*D21
 70
     1
 10
0.0
 20
0.0
 30
0.0
  3
*D21
  1

  0
LINE
  5
2A532
330
29926
100
AcDbEntity
  8
寸法
 62
     0
 48
50.0
370
    -2
100
AcDbLine
 10
12184.72844517243
 20
5441.810679611655
 30
0.0
 11
12184.72844517243
 21
5933.657453579305
 31
0.0
  0
LINE
  5
2A533
330
29926
100
AcDbEntity
  8
寸法
 62
     0
 48
50.0
370
    -2
100
AcDbLine
 10
12264.72844517243
 20
5440.000000000002
 30
0.0
 11
12264.72844517243
 21
5933.657453579305
 31
0.0
  0
LINE
  5
2A534
330
29926
100
AcDbEntity
  8
寸法
 62
     0
 48
50.0
370
    -2
100
AcDbLine
 10
12184.72844517243
 20
5873.657453579305
 30
0.0
 11
12264.72844517243
 21
5873.657453579305
 31
0.0
  0
LINE
  5
2A535
330
29926
100
AcDbEntity
  8
寸法
 62
     0
 48
50.0
370
    -2
100
AcDbLine
 10
12264.72844517243
 20
5873.657453579305
 30
0.0
 11
12576.82293336141
 21
5873.657453579305
 31
0.0
  0
INSERT
  5
2A536
330
29926
100
AcDbEntity
  8
寸法
 62
     0
 48
50.0
370
    -2
100
AcDbBlockReference
  2
_DOTSMALL
 10
12184.72844517243
 20
5873.657453579305
 30
0.0
 41
100.0
 42
100.0
 43
100.0
 50
180.0
  0
INSERT
  5
2A537
330
29926
100
AcDbEntity
  8
寸法
 62
     0
 48
50.0
370
    -2
100
AcDbBlockReference
  2
_DOTSMALL
 10
12264.72844517243
 20
5873.657453579305
 30
0.0
 41
100.0
 42
100.0
 43
100.0
  0
MTEXT
  5
2A538
330
29926
100
AcDbEntity
  8
寸法
 62
     7
 48
50.0
100
AcDbMText
 10
12470.77568926692
 20
5973.657453579305
 30
0.0
 40
120.0
 41
0.0
 71
     5
 72
     1
  1
\A1;80
  7
STYLE1
 73
     1
 44
1.0
1001
ACAD
1000
MTEXTBEGIN
1070
    73
1070
     1
1070
    44
1040
1.0
1070
    74
1070
     0
1000
MTEXTEND
  0
POINT
  5
2A539
330
29926
100
AcDbEntity
  8
DEFPOINTS
 62
     0
 48
50.0
100
AcDbPoint
 10
12184.72844517243
 20
5421.810679611654
 30
0.0
  0
POINT
  5
2A53A
330
29926
100
AcDbEntity
  8
DEFPOINTS
 62
     0
 48
50.0
100
AcDbPoint
 10
12264.72844517243
 20
5420.000000000001
 30
0.0
  0
POINT
  5
2A53B
330
29926
100
AcDbEntity
  8
DEFPOINTS
 62
     0
 48
50.0
100
AcDbPoint
 10
12264.72844517243
 20
5873.657453579305
 30
0.0
  0
ENDBLK
  5
29932
330
29926
100
AcDbEntity
  8
0
 48
50.0
100
AcDbBlockEnd
  0
BLOCK
  5
2993D
330
29933
100
AcDbEntity
  8
0
 48
50.0
100
AcDbBlockBegin
  2
*D22
 70
     1
 10
0.0
 20
0.0
 30
0.0
  3
*D22
  1

  0
LINE
  5
2A529
330
29933
100
AcDbEntity
  8
寸法
 62
     0
 48
50.0
370
    -2
100
AcDbLine
 10
12264.72844517243
 20
5440.000000000002
 30
0.0
 11
12264.72844517243
 21
6153.868140310922
 31
0.0
  0
LINE
  5
2A52A
330
29933
100
AcDbEntity
  8
寸法
 62
     0
 48
50.0
370
    -2
100
AcDbLine
 10
9494.728445172434
 20
5495.000000000004
 30
0.0
 11
9494.728445172434
 21
6153.868140310922
 31
0.0
  0
LINE
  5
2A52B
330
29933
100
AcDbEntity
  8
寸法
 62
     0
 48
50.0
370
    -2
100
AcDbLine
 10
12264.72844517243
 20
6093.868140310922
 30
0.0
 11
9494.728445172434
 21
6093.868140310922
 31
0.0
  0
INSERT
  5
2A52C
330
29933
100
AcDbEntity
  8
寸法
 62
     0
 48
50.0
370
    -2
100
AcDbBlockReference
  2
_DOTSMALL
 10
12264.72844517243
 20
6093.868140310922
 30
0.0
 41
100.0
 42
100.0
 43
100.0
  0
INSERT
  5
2A52D
330
29933
100
AcDbEntity
  8
寸法
 62
     0
 48
50.0
370
    -2
100
AcDbBlockReference
  2
_DOTSMALL
 10
9494.728445172434
 20
6093.868140310922
 30
0.0
 41
100.0
 42
100.0
 43
100.0
 50
180.0
  0
MTEXT
  5
2A52E
330
29933
100
AcDbEntity
  8
寸法
 62
     7
 48
50.0
100
AcDbMText
 10
10898.08737005981
 20
6193.879951334544
 30
0.0
 40
120.0
 41
0.0
 71
     5
 72
     1
  1
\A1;2770
  7
STYLE1
 73
     1
 44
1.0
1001
ACAD
1000
MTEXTBEGIN
1070
    73
1070
     1
1070
    44
1040
1.0
1070
    74
1070
     0
1000
MTEXTEND
  0
POINT
  5
2A52F
330
29933
100
AcDbEntity
  8
DEFPOINTS
 62
     0
 48
50.0
100
AcDbPoint
 10
12264.72844517243
 20
5420.000000000001
 30
0.0
  0
POINT
  5
2A530
330
29933
100
AcDbEntity
  8
DEFPOINTS
 62
     0
 48
50.0
100
AcDbPoint
 10
9494.728445172434
 20
5475.000000000004
 30
0.0
  0
POINT
  5
2A531
330
29933
100
AcDbEntity
  8
DEFPOINTS
 62
     0
 48
50.0
100
AcDbPoint
 10
9494.728445172434
 20
6093.868140310922
 30
0.0
  0
ENDBLK
  5
2993E
330
29933
100
AcDbEntity
  8
0
 48
50.0
100
AcDbBlockEnd
  0
BLOCK
  5
2994B
330
2993F
100
AcDbEntity
  8
0
 48
50.0
100
AcDbBlockBegin
  2
*D23
 70
     1
 10
0.0
 20
0.0
 30
0.0
  3
*D23
  1

  0
LINE
  5
2A51E
330
2993F
100
AcDbEntity
  8
寸法
 62
     0
 48
50.0
370
    -2
100
AcDbLine
 10
9554.728445172434
 20
5491.001618122976
 30
0.0
 11
9554.728445172434
 21
5933.657453579304
 31
0.0
  0
LINE
  5
2A51F
330
2993F
100
AcDbEntity
  8
寸法
 62
     0
 48
50.0
370
    -2
100
AcDbLine
 10
9494.728445172434
 20
5495.000000000004
 30
0.0
 11
9494.728445172434
 21
5933.657453579304
 31
0.0
  0
LINE
  5
2A520
330
2993F
100
AcDbEntity
  8
寸法
 62
     0
 48
50.0
370
    -2
100
AcDbLine
 10
9554.728445172434
 20
5873.657453579305
 30
0.0
 11
9654.728445172434
 21
5873.657453579305
 31
0.0
  0
LINE
  5
2A521
330
2993F
100
AcDbEntity
  8
寸法
 62
     0
 48
50.0
370
    -2
100
AcDbLine
 10
9494.728445172434
 20
5873.657453579305
 30
0.0
 11
9075.452854621254
 21
5873.657453579305
 31
0.0
  0
LINE
  5
2A522
330
2993F
100
AcDbEntity
  8
寸法
 62
     0
 48
50.0
370
    -2
100
AcDbLine
 10
9554.728445172434
 20
5873.657453579305
 30
0.0
 11
9494.728445172434
 21
5873.657453579305
 31
0.0
  0
INSERT
  5
2A523
330
2993F
100
AcDbEntity
  8
寸法
 62
     0
 48
50.0
370
    -2
100
AcDbBlockReference
  2
_DOTSMALL
 10
9554.728445172434
 20
5873.657453579305
 30
0.0
 41
100.0
 42
100.0
 43
100.0
 50
180.0
  0
INSERT
  5
2A524
330
2993F
100
AcDbEntity
  8
寸法
 62
     0
 48
50.0
370
    -2
100
AcDbBlockReference
  2
_DOTSMALL
 10
9494.728445172434
 20
5873.657453579305
 30
0.0
 41
100.0
 42
100.0
 43
100.0
  0
MTEXT
  5
2A525
330
2993F
100
AcDbEntity
  8
寸法
 62
     7
 48
50.0
100
AcDbMText
 10
9185.090649896844
 20
5973.657453579304
 30
0.0
 40
120.0
 41
0.0
 71
     5
 72
     1
  1
\A1;60
  7
STYLE1
 73
     1
 44
1.0
1001
ACAD
1000
MTEXTBEGIN
1070
    73
1070
     1
1070
    44
1040
1.0
1070
    74
1070
     0
1000
MTEXTEND
  0
POINT
  5
2A526
330
2993F
100
AcDbEntity
  8
DEFPOINTS
 62
     0
 48
50.0
100
AcDbPoint
 10
9554.728445172434
 20
5471.001618122977
 30
0.0
  0
POINT
  5
2A527
330
2993F
100
AcDbEntity
  8
DEFPOINTS
 62
     0
 48
50.0
100
AcDbPoint
 10
9494.728445172434
 20
5475.000000000004
 30
0.0
  0
POINT
  5
2A528
330
2993F
100
AcDbEntity
  8
DEFPOINTS
 62
     0
 48
50.0
100
AcDbPoint
 10
9494.728445172434
 20
5873.657453579305
 30
0.0
  0
ENDBLK
  5
2994C
330
2993F
100
AcDbEntity
  8
0
 48
50.0
100
AcDbBlockEnd
  0
BLOCK
  5
29957
330
2994D
100
AcDbEntity
  8
0
 48
50.0
100
AcDbBlockBegin
  2
*D24
 70
     1
 10
0.0
 20
0.0
 30
0.0
  3
*D24
  1

  0
LINE
  5
2A515
330
2994D
100
AcDbEntity
  8
寸法
 62
     0
 48
50.0
370
    -2
100
AcDbLine
 10
12184.72844517243
 20
5441.810679611655
 30
0.0
 11
12184.72844517243
 21
5933.657453579305
 31
0.0
  0
LINE
  5
2A516
330
2994D
100
AcDbEntity
  8
寸法
 62
     0
 48
50.0
370
    -2
100
AcDbLine
 10
9554.728445172434
 20
5491.001618122976
 30
0.0
 11
9554.728445172434
 21
5933.657453579305
 31
0.0
  0
LINE
  5
2A517
330
2994D
100
AcDbEntity
  8
寸法
 62
     0
 48
50.0
370
    -2
100
AcDbLine
 10
12184.72844517243
 20
5873.657453579305
 30
0.0
 11
9554.728445172434
 21
5873.657453579305
 31
0.0
  0
INSERT
  5
2A518
330
2994D
100
AcDbEntity
  8
寸法
 62
     0
 48
50.0
370
    -2
100
AcDbBlockReference
  2
_DOTSMALL
 10
12184.72844517243
 20
5873.657453579305
 30
0.0
 41
100.0
 42
100.0
 43
100.0
  0
INSERT
  5
2A519
330
2994D
100
AcDbEntity
  8
寸法
 62
     0
 48
50.0
370
    -2
100
AcDbBlockReference
  2
_DOTSMALL
 10
9554.728445172434
 20
5873.657453579305
 30
0.0
 41
100.0
 42
100.0
 43
100.0
 50
180.0
  0
MTEXT
  5
2A51A
330
2994D
100
AcDbEntity
  8
寸法
 62
     7
 48
50.0
100
AcDbMText
 10
10909.49863620163
 20
5973.669264602927
 30
0.0
 40
120.0
 41
0.0
 71
     5
 72
     1
  1
\A1;柱外寸法2630
  7
STYLE1
 73
     1
 44
1.0
1001
ACAD
1000
MTEXTBEGIN
1070
    73
1070
     1
1070
    44
1040
1.0
1070
    74
1070
     0
1000
MTEXTEND
  0
POINT
  5
2A51B
330
2994D
100
AcDbEntity
  8
DEFPOINTS
 62
     0
 48
50.0
100
AcDbPoint
 10
12184.72844517243
 20
5421.810679611654
 30
0.0
  0
POINT
  5
2A51C
330
2994D
100
AcDbEntity
  8
DEFPOINTS
 62
     0
 48
50.0
100
AcDbPoint
 10
9554.728445172434
 20
5471.001618122977
 30
0.0
  0
POINT
  5
2A51D
330
2994D
100
AcDbEntity
  8
DEFPOINTS
 62
     0
 48
50.0
100
AcDbPoint
 10
9554.728445172434
 20
5873.657453579305
 30
0.0
  0
ENDBLK
  5
29958
330
2994D
100
AcDbEntity
  8
0
 48
50.0
100
AcDbBlockEnd
  0
BLOCK
  5
29971
330
29965
100
AcDbEntity
  8
0
 48
50.0
100
AcDbBlockBegin
  2
*D25
 70
     1
 10
0.0
 20
0.0
 30
0.0
  3
*D25
  1

  0
LINE
  5
29A46
330
29965
100
AcDbEntity
  8
寸法
 62
     0
 48
50.0
370
    -2
100
AcDbLine
 10
9534.728445172433
 20
3150.0
 30
0.0
 11
8650.978315989174
 21
3150.0
 31
0.0
  0
LINE
  5
29A47
330
29965
100
AcDbEntity
  8
寸法
 62
     0
 48
50.0
370
    -2
100
AcDbLine
 10
9479.728445172433
 20
3100.0
 30
0.0
 11
8650.978315989174
 21
3100.0
 31
0.0
  0
LINE
  5
29A48
330
29965
100
AcDbEntity
  8
寸法
 62
     0
 48
50.0
370
    -2
100
AcDbLine
 10
8710.978315989175
 20
3150.0
 30
0.0
 11
8710.978315989175
 21
3250.000000000001
 31
0.0
  0
LINE
  5
29A49
330
29965
100
AcDbEntity
  8
寸法
 62
     0
 48
50.0
370
    -2
100
AcDbLine
 10
8710.978315989175
 20
3100.0
 30
0.0
 11
8710.978315989175
 21
2687.905511811021
 31
0.0
  0
LINE
  5
29A4A
330
29965
100
AcDbEntity
  8
寸法
 62
     0
 48
50.0
370
    -2
100
AcDbLine
 10
8710.978315989175
 20
3150.0
 30
0.0
 11
8710.978315989175
 21
3100.0
 31
0.0
  0
INSERT
  5
29A4B
330
29965
100
AcDbEntity
  8
寸法
 62
     0
 48
50.0
370
    -2
100
AcDbBlockReference
  2
_DOTSMALL
 10
8710.978315989175
 20
3150.0
 30
0.0
 41
100.0
 42
100.0
 43
100.0
 50
270.0
  0
INSERT
  5
29A4C
330
29965
100
AcDbEntity
  8
寸法
 62
     0
 48
50.0
370
    -2
100
AcDbBlockReference
  2
_DOTSMALL
 10
8710.978315989175
 20
3100.0
 30
0.0
 41
100.0
 42
100.0
 43
100.0
 50
90.0
  0
MTEXT
  5
29A4D
330
29965
100
AcDbEntity
  8
寸法
 62
     7
 48
50.0
100
AcDbMText
 10
8610.978315989175
 20
2793.952755905511
 30
0.0
 40
120.0
 41
0.0
 71
     5
 72
     1
  1
\A1;50
  7
STYLE1
 11
0.0000000000000001
 21
1.0
 31
0.0
 73
     1
 44
1.0
1001
ACAD
1000
MTEXTBEGIN
1070
    73
1070
     1
1070
    44
1040
1.0
1070
    74
1070
     0
1000
MTEXTEND
  0
POINT
  5
29A4E
330
29965
100
AcDbEntity
  8
DEFPOINTS
 62
     0
 48
50.0
100
AcDbPoint
 10
9554.728445172434
 20
3150.0
 30
0.0
  0
POINT
  5
29A4F
330
29965
100
AcDbEntity
  8
DEFPOINTS
 62
     0
 48
50.0
100
AcDbPoint
 10
9499.728445172435
 20
3100.0
 30
0.0
  0
POINT
  5
29A50
330
29965
100
AcDbEntity
  8
DEFPOINTS
 62
     0
 48
50.0
100
AcDbPoint
 10
8710.978315989175
 20
3100.0
 30
0.0
  0
ENDBLK
  5
29972
330
29965
100
AcDbEntity
  8
0
 48
50.0
100
AcDbBlockEnd
  0
BLOCK
  5
2997E
330
29973
100
AcDbEntity
  8
0
 48
50.0
100
AcDbBlockBegin
  2
*D26
 70
     1
 10
0.0
 20
0.0
 30
0.0
  3
*D26
  1

  0
LINE
  5
29A3C
330
29973
100
AcDbEntity
  8
寸法
 62
     0
 48
50.0
370
    -2
100
AcDbLine
 10
9479.728445172433
 20
3100.0
 30
0.0
 11
8350.978315989173
 21
3100.0
 31
0.0
  0
LINE
  5
29A3D
330
29973
100
AcDbEntity
  8
寸法
 62
     0
 48
50.0
370
    -2
100
AcDbLine
 10
8478.227369277302
 20
3000.0
 30
0.0
 11
8350.978315989173
 21
3000.0
 31
0.0
  0
LINE
  5
29A3E
330
29973
100
AcDbEntity
  8
寸法
 62
     0
 48
50.0
370
    -2
100
AcDbLine
 10
8410.978315989174
 20
3100.0
 30
0.0
 11
8410.978315989174
 21
3000.0
 31
0.0
  0
LINE
  5
29A3F
330
29973
100
AcDbEntity
  8
寸法
 62
     0
 48
50.0
370
    -2
100
AcDbLine
 10
8410.978315989174
 20
3000.0
 30
0.0
 11
8410.978315989174
 21
2627.905511811021
 31
0.0
  0
INSERT
  5
29A40
330
29973
100
AcDbEntity
  8
寸法
 62
     0
 48
50.0
370
    -2
100
AcDbBlockReference
  2
_DOTSMALL
 10
8410.978315989174
 20
3100.0
 30
0.0
 41
100.0
 42
100.0
 43
100.0
 50
90.0
  0
INSERT
  5
29A41
330
29973
100
AcDbEntity
  8
寸法
 62
     0
 48
50.0
370
    -2
100
AcDbBlockReference
  2
_DOTSMALL
 10
8410.978315989174
 20
3000.0
 30
0.0
 41
100.0
 42
100.0
 43
100.0
 50
270.0
  0
MTEXT
  5
29A42
330
29973
100
AcDbEntity
  8
寸法
 62
     7
 48
50.0
100
AcDbMText
 10
8310.978315989174
 20
2763.95275590551
 30
0.0
 40
120.0
 41
0.0
 71
     5
 72
     1
  1
\A1;100
  7
STYLE1
 11
0.0000000000000001
 21
1.0
 31
0.0
 73
     1
 44
1.0
1001
ACAD
1000
MTEXTBEGIN
1070
    73
1070
     1
1070
    44
1040
1.0
1070
    74
1070
     0
1000
MTEXTEND
  0
POINT
  5
29A43
330
29973
100
AcDbEntity
  8
DEFPOINTS
 62
     0
 48
50.0
100
AcDbPoint
 10
9499.728445172435
 20
3100.0
 30
0.0
  0
POINT
  5
29A44
330
29973
100
AcDbEntity
  8
DEFPOINTS
 62
     0
 48
50.0
100
AcDbPoint
 10
8498.227369277302
 20
3000.0
 30
0.0
  0
POINT
  5
29A45
330
29973
100
AcDbEntity
  8
DEFPOINTS
 62
     0
 48
50.0
100
AcDbPoint
 10
8410.978315989174
 20
3000.0
 30
0.0
  0
ENDBLK
  5
2997F
330
29973
100
AcDbEntity
  8
0
 48
50.0
100
AcDbBlockEnd
  0
BLOCK
  5
2A5ED
330
2A5E3
100
AcDbEntity
  8
0
 48
50.0
100
AcDbBlockBegin
  2
*D27
 70
     1
 10
0.0
 20
0.0
 30
0.0
  3
*D27
  1

  0
LINE
  5
2A5EF
330
2A5E3
100
AcDbEntity
  8
寸法
 62
     0
 48
50.0
370
    -2
100
AcDbLine
 10
12204.72844517243
 20
3100.000000000001
 30
0.0
 11
12949.65560314456
 21
3100.000000000001
 31
0.0
  0
LINE
  5
2A5F0
330
2A5E3
100
AcDbEntity
  8
寸法
 62
     0
 48
50.0
370
    -2
100
AcDbLine
 10
12284.72844517243
 20
5420.000000000001
 30
0.0
 11
12949.65560314456
 21
5420.000000000001
 31
0.0
  0
LINE
  5
2A5F1
330
2A5E3
100
AcDbEntity
  8
寸法
 62
     0
 48
50.0
370
    -2
100
AcDbLine
 10
12889.65560314456
 20
3100.000000000001
 30
0.0
 11
12889.65560314456
 21
5420.000000000001
 31
0.0
  0
INSERT
  5
2A5F2
330
2A5E3
100
AcDbEntity
  8
寸法
 62
     0
 48
50.0
370
    -2
100
AcDbBlockReference
  2
_DOTSMALL
 10
12889.65560314456
 20
3100.000000000001
 30
0.0
 41
100.0
 42
100.0
 43
100.0
 50
270.0
  0
INSERT
  5
2A5F3
330
2A5E3
100
AcDbEntity
  8
寸法
 62
     0
 48
50.0
370
    -2
100
AcDbBlockReference
  2
_DOTSMALL
 10
12889.65560314456
 20
5420.000000000001
 30
0.0
 41
100.0
 42
100.0
 43
100.0
 50
90.0
  0
MTEXT
  5
2A5F4
330
2A5E3
100
AcDbEntity
  8
寸法
 62
     7
 48
50.0
100
AcDbMText
 10
12789.64379212094
 20
4260.000000000003
 30
0.0
 40
120.0
 41
0.0
 71
     5
 72
     1
  1
\A1;2320
  7
STYLE1
 11
0.0000000000000001
 21
1.0
 31
0.0
 73
     1
 44
1.0
1001
ACAD
1000
MTEXTBEGIN
1070
    73
1070
     1
1070
    44
1040
1.0
1070
    74
1070
     0
1000
MTEXTEND
  0
POINT
  5
2A5F5
330
2A5E3
100
AcDbEntity
  8
DEFPOINTS
 62
     0
 48
50.0
100
AcDbPoint
 10
12184.72844517243
 20
3100.000000000001
 30
0.0
  0
POINT
  5
2A5F6
330
2A5E3
100
AcDbEntity
  8
DEFPOINTS
 62
     0
 48
50.0
100
AcDbPoint
 10
12264.72844517243
 20
5420.000000000001
 30
0.0
  0
POINT
  5
2A5F7
330
2A5E3
100
AcDbEntity
  8
DEFPOINTS
 62
     0
 48
50.0
100
AcDbPoint
 10
12889.65560314456
 20
5420.000000000001
 30
0.0
  0
ENDBLK
  5
2A5EE
330
2A5E3
100
AcDbEntity
  8
0
 48
50.0
100
AcDbBlockEnd
  0
BLOCK
  5
2A605
330
2A5FB
100
AcDbEntity
  8
0
 48
50.0
100
AcDbBlockBegin
  2
*D28
 70
     1
 10
0.0
 20
0.0
 30
0.0
  3
*D28
  1

  0
LINE
  5
2A61F
330
2A5FB
100
AcDbEntity
  8
寸法
 62
     0
 48
50.0
370
    -2
100
AcDbLine
 10
9534.728445172438
 20
5231.999999999995
 30
0.0
 11
8949.819803775181
 21
5231.999999999995
 31
0.0
  0
LINE
  5
2A620
330
2A5FB
100
AcDbEntity
  8
寸法
 62
     0
 48
50.0
370
    -2
100
AcDbLine
 10
9534.728445172433
 20
3161.999999999995
 30
0.0
 11
8949.819803775179
 21
3161.999999999996
 31
0.0
  0
LINE
  5
2A621
330
2A5FB
100
AcDbEntity
  8
寸法
 62
     0
 48
50.0
370
    -2
100
AcDbLine
 10
9009.819803775181
 20
5231.999999999995
 30
0.0
 11
9009.819803775178
 21
3161.999999999996
 31
0.0
  0
INSERT
  5
2A622
330
2A5FB
100
AcDbEntity
  8
寸法
 62
     0
 48
50.0
370
    -2
100
AcDbBlockReference
  2
_DOTSMALL
 10
9009.819803775181
 20
5231.999999999995
 30
0.0
 41
100.0
 42
100.0
 43
100.0
 50
90.0
  0
INSERT
  5
2A623
330
2A5FB
100
AcDbEntity
  8
寸法
 62
     0
 48
50.0
370
    -2
100
AcDbBlockReference
  2
_DOTSMALL
 10
9009.819803775178
 20
3161.999999999996
 30
0.0
 41
100.0
 42
100.0
 43
100.0
 50
270.0
  0
MTEXT
  5
2A624
330
2A5FB
100
AcDbEntity
  8
寸法
 62
     7
 48
50.0
100
AcDbMText
 10
8909.807992751558
 20
4196.999999999996
 30
0.0
 40
120.0
 41
0.0
 71
     5
 72
     1
  1
\A1;有効開口部高サ2070
  7
STYLE1
 11
0.0000000000000001
 21
1.0
 31
0.0
 73
     1
 44
1.0
1001
ACAD
1000
MTEXTBEGIN
1070
    73
1070
     1
1070
    44
1040
1.0
1070
    74
1070
     0
1000
MTEXTEND
  0
POINT
  5
2A625
330
2A5FB
100
AcDbEntity
  8
DEFPOINTS
 62
     0
 48
50.0
100
AcDbPoint
 10
9554.728445172438
 20
5231.999999999995
 30
0.0
  0
POINT
  5
2A626
330
2A5FB
100
AcDbEntity
  8
DEFPOINTS
 62
     0
 48
50.0
100
AcDbPoint
 10
9554.728445172434
 20
3161.999999999995
 30
0.0
  0
POINT
  5
2A627
330
2A5FB
100
AcDbEntity
  8
DEFPOINTS
 62
     0
 48
50.0
100
AcDbPoint
 10
9009.819803775178
 20
3161.999999999996
 30
0.0
  0
ENDBLK
  5
2A606
330
2A5FB
100
AcDbEntity
  8
0
 48
50.0
100
AcDbBlockEnd
  0
BLOCK
  5
2A611
330
2A607
100
AcDbEntity
  8
0
 48
50.0
100
AcDbBlockBegin
  2
*D29
 70
     1
 10
0.0
 20
0.0
 30
0.0
  3
*D29
  1

  0
LINE
  5
2A628
330
2A607
100
AcDbEntity
  8
寸法
 62
     0
 48
50.0
370
    -2
100
AcDbLine
 10
9534.728445172433
 20
5239.999999999996
 30
0.0
 11
8650.978315989176
 21
5239.999999999996
 31
0.0
  0
LINE
  5
2A629
330
2A607
100
AcDbEntity
  8
寸法
 62
     0
 48
50.0
370
    -2
100
AcDbLine
 10
9534.728445172433
 20
3149.999999999995
 30
0.0
 11
8650.978315989174
 21
3149.999999999996
 31
0.0
  0
LINE
  5
2A62A
330
2A607
100
AcDbEntity
  8
寸法
 62
     0
 48
50.0
370
    -2
100
AcDbLine
 10
8710.978315989176
 20
5239.999999999996
 30
0.0
 11
8710.978315989175
 21
3149.999999999996
 31
0.0
  0
INSERT
  5
2A62B
330
2A607
100
AcDbEntity
  8
寸法
 62
     0
 48
50.0
370
    -2
100
AcDbBlockReference
  2
_DOTSMALL
 10
8710.978315989176
 20
5239.999999999996
 30
0.0
 41
100.0
 42
100.0
 43
100.0
 50
90.0
  0
INSERT
  5
2A62C
330
2A607
100
AcDbEntity
  8
寸法
 62
     0
 48
50.0
370
    -2
100
AcDbBlockReference
  2
_DOTSMALL
 10
8710.978315989175
 20
3149.999999999996
 30
0.0
 41
100.0
 42
100.0
 43
100.0
 50
270.0
  0
MTEXT
  5
2A62D
330
2A607
100
AcDbEntity
  8
寸法
 62
     7
 48
50.0
100
AcDbMText
 10
8610.966504965551
 20
4194.999999999997
 30
0.0
 40
120.0
 41
0.0
 71
     5
 72
     1
  1
\A1;2090
  7
STYLE1
 11
0.0000000000000001
 21
1.0
 31
0.0
 73
     1
 44
1.0
1001
ACAD
1000
MTEXTBEGIN
1070
    73
1070
     1
1070
    44
1040
1.0
1070
    74
1070
     0
1000
MTEXTEND
  0
POINT
  5
2A62E
330
2A607
100
AcDbEntity
  8
DEFPOINTS
 62
     0
 48
50.0
100
AcDbPoint
 10
9554.728445172434
 20
5239.999999999996
 30
0.0
  0
POINT
  5
2A62F
330
2A607
100
AcDbEntity
  8
DEFPOINTS
 62
     0
 48
50.0
100
AcDbPoint
 10
9554.728445172434
 20
3149.999999999995
 30
0.0
  0
POINT
  5
2A630
330
2A607
100
AcDbEntity
  8
DEFPOINTS
 62
     0
 48
50.0
100
AcDbPoint
 10
8710.978315989175
 20
3149.999999999996
 30
0.0
  0
ENDBLK
  5
2A612
330
2A607
100
AcDbEntity
  8
0
 48
50.0
100
AcDbBlockEnd
  0
BLOCK
  5
2A61D
330
2A613
100
AcDbEntity
  8
0
 48
50.0
100
AcDbBlockBegin
  2
*D30
 70
     1
 10
0.0
 20
0.0
 30
0.0
  3
*D30
  1

  0
LINE
  5
2A631
330
2A613
100
AcDbEntity
  8
寸法
 62
     0
 48
50.0
370
    -2
100
AcDbLine
 10
9534.728445172433
 20
3099.999999999996
 30
0.0
 11
8350.978315989172
 21
3099.999999999996
 31
0.0
  0
LINE
  5
2A632
330
2A613
100
AcDbEntity
  8
寸法
 62
     0
 48
50.0
370
    -2
100
AcDbLine
 10
9474.728445172434
 20
5475.0
 30
0.0
 11
8350.978315989173
 21
5475.0
 31
0.0
  0
LINE
  5
2A633
330
2A613
100
AcDbEntity
  8
寸法
 62
     0
 48
50.0
370
    -2
100
AcDbLine
 10
8410.978315989172
 20
3099.999999999996
 30
0.0
 11
8410.978315989174
 21
5475.0
 31
0.0
  0
INSERT
  5
2A634
330
2A613
100
AcDbEntity
  8
寸法
 62
     0
 48
50.0
370
    -2
100
AcDbBlockReference
  2
_DOTSMALL
 10
8410.978315989172
 20
3099.999999999996
 30
0.0
 41
100.0
 42
100.0
 43
100.0
 50
270.0
  0
INSERT
  5
2A635
330
2A613
100
AcDbEntity
  8
寸法
 62
     0
 48
50.0
370
    -2
100
AcDbBlockReference
  2
_DOTSMALL
 10
8410.978315989174
 20
5475.0
 30
0.0
 41
100.0
 42
100.0
 43
100.0
 50
90.0
  0
MTEXT
  5
2A636
330
2A613
100
AcDbEntity
  8
寸法
 62
     7
 48
50.0
100
AcDbMText
 10
8310.96650496555
 20
4287.499999999999
 30
0.0
 40
120.0
 41
0.0
 71
     5
 72
     1
  1
\A1;2375
  7
STYLE1
 11
0.0000000000000001
 21
1.0
 31
0.0
 73
     1
 44
1.0
1001
ACAD
1000
MTEXTBEGIN
1070
    73
1070
     1
1070
    44
1040
1.0
1070
    74
1070
     0
1000
MTEXTEND
  0
POINT
  5
2A637
330
2A613
100
AcDbEntity
  8
DEFPOINTS
 62
     0
 48
50.0
100
AcDbPoint
 10
9554.728445172434
 20
3099.999999999996
 30
0.0
  0
POINT
  5
2A638
330
2A613
100
AcDbEntity
  8
DEFPOINTS
 62
     0
 48
50.0
100
AcDbPoint
 10
9494.728445172434
 20
5475.0
 30
0.0
  0
POINT
  5
2A639
330
2A613
100
AcDbEntity
  8
DEFPOINTS
 62
     0
 48
50.0
100
AcDbPoint
 10
8410.978315989174
 20
5475.0
 30
0.0
  0
ENDBLK
  5
2A61E
330
2A613
100
AcDbEntity
  8
0
 48
50.0
100
AcDbBlockEnd
  0
ENDSEC
  0
SECTION
  2
ENTITIES
  0
LINE
  5
10B57
330
747D
100
AcDbEntity
  8
補助
  6
PHANTOM
 62
   230
 48
50.0
100
AcDbLine
 10
139.9999999999995
 20
11409.6
 30
0.0
 11
16307.2
 21
11409.6
 31
0.0
  0
LINE
  5
10B59
330
747D
100
AcDbEntity
  8
仕様書枠
  6
Continuous
 48
50.0
100
AcDbLine
 10
13107.2
 20
1200.0
 30
0.0
 11
13107.2
 21
-0.0000000000000729
 31
0.0
  0
LINE
  5
10B5C
330
747D
100
AcDbEntity
  8
仕様書枠
 48
50.0
100
AcDbLine
 10
16307.2
 20
1200.0
 30
0.0
 11
16307.2
 21
-0.0000000000000909
 31
0.0
  0
LINE
  5
10B5D
330
747D
100
AcDbEntity
  8
仕様書枠
 48
50.0
100
AcDbLine
 10
140.0
 20
0.0
 30
0.0
 11
16307.2
 21
-0.0000000000000909
 31
0.0
  0
LINE
  5
10B5E
330
747D
100
AcDbEntity
  8
補助
  6
PHANTOM
 62
   230
 48
50.0
100
AcDbLine
 10
16307.2
 20
11409.6
 30
0.0
 11
16307.2
 21
1200.0
 31
0.0
  0
LINE
  5
10B6C
330
747D
100
AcDbEntity
  8
仕様書枠
 48
50.0
100
AcDbLine
 10
13107.2
 20
1200.0
 30
0.0
 11
16307.2
 21
1200.0
 31
0.0
  0
LINE
  5
10B6D
330
747D
100
AcDbEntity
  8
補助
  6
PHANTOM
 62
   230
 48
50.0
100
AcDbLine
 10
13107.2
 20
11409.6
 30
0.0
 11
13107.2
 21
4800.0
 31
0.0
  0
LINE
  5
10B6F
330
747D
100
AcDbEntity
  8
補助
  6
PHANTOM
 62
   230
 48
50.0
100
AcDbLine
 10
13107.2
 20
4800.0
 30
0.0
 11
16307.2
 21
4800.0
 31
0.0
  0
LINE
  5
10B72
330
747D
100
AcDbEntity
  8
文字
 62
     7
 48
50.0
100
AcDbLine
 10
13187.2
 20
400.0
 30
0.0
 11
16227.2
 21
400.0
 31
0.0
  0
TEXT
  5
10B73
330
747D
100
AcDbEntity
  8
文字
 62
     7
 48
50.0
100
AcDbText
 10
13162.9790565769
 20
895.0906074299405
 30
0.0
 40
200.0
  1
外 形 図
  7
STYLE2
100
AcDbText
  0
TEXT
  5
10B74
330
747D
100
AcDbEntity
  8
文字
 62
     7
 48
50.0
100
AcDbText
 10
13201.43669998441
 20
477.2740661031255
 30
0.0
 40
160.0
  1
機種名
  7
STYLE2
100
AcDbText
  0
TEXT
  5
10B75
330
747D
100
AcDbEntity
  8
文字
 62
     7
 48
50.0
100
AcDbText
 10
13209.4053442172
 20
228.5435242569016
 30
0.0
 40
100.0
  1
○有効開口寸法 ： 1097×2070(mm)
  7
STYLE2
100
AcDbText
  0
TEXT
  5
10B79
330
747D
100
AcDbEntity
  8
文字
 62
     7
 48
50.0
100
AcDbText
 10
14524.131837222
 20
1031.557706291228
 30
0.0
 40
100.0
  1
NO.30      <縮尺> S=1/40
  7
STYLE2
100
AcDbText
  0
LINE
  5
10B7B
330
747D
100
AcDbEntity
  8
仕様書枠
 48
50.0
100
AcDbLine
 10
13107.2
 20
800.0
 30
0.0
 11
14251.2
 21
800.0
 31
0.0
  0
LINE
  5
10B88
330
747D
100
AcDbEntity
  8
仕様書枠
  6
Continuous
 48
50.0
100
AcDbLine
 10
14251.2
 20
1200.0
 30
0.0
 11
14251.2
 21
800.0
 31
0.0
  0
LINE
  5
12765
330
747D
100
AcDbEntity
  8
Ｇ．Ｌ
100
AcDbLine
 10
4083.852095327602
 20
3000.0
 30
0.0
 11
12834.22741580719
 21
3000.0
 31
0.0
  0
LWPOLYLINE
  5
14534
330
747D
100
AcDbEntity
  8
部品1
100
AcDbPolyline
 90
        4
 70
     1
 43
0.0
 10
5773.161241992783
 20
7107.920110457614
 10
5773.161241992783
 20
6868.027788912081
 10
6536.631908221221
 20
6868.027788912081
 10
6536.631908221221
 20
7107.920110457614
  0
TEXT
  5
14535
330
747D
100
AcDbEntity
  8
部品1
100
AcDbText
 10
5863.08085182182
 20
6915.026581239091
 30
0.0
 40
135.0
  1
平面図
  7
STYLE2
100
AcDbText
  0
TEXT
  5
149A1
330
747D
100
AcDbEntity
  8
部品1
100
AcDbText
 10
5863.686645730745
 20
1927.790927806517
 30
0.0
 40
135.0
  1
正面図
  7
STYLE2
100
AcDbText
  0
LWPOLYLINE
  5
149A2
330
747D
100
AcDbEntity
  8
部品1
100
AcDbPolyline
 90
        4
 70
     1
 43
0.0
 10
5773.16124199279
 20
2120.684457025041
 10
5773.16124199279
 20
1880.792135479508
 10
6536.631908221228
 20
1880.792135479508
 10
6536.631908221228
 20
2120.684457025041
  0
TEXT
  5
14DEF
330
747D
100
AcDbEntity
  8
文字
 62
     7
 48
50.0
100
AcDbText
 10
14641.2525855784
 20
871.1744590657925
 30
0.0
 40
100.0
  1
～一般型・多雪地型～
  7
STYLE2
100
AcDbText
  0
TEXT
  5
15A76
330
747D
100
AcDbEntity
  8
文字
 62
     7
 48
50.0
100
AcDbText
 10
14505.34213575793
 20
483.8967129911411
 30
0.0
 40
160.0
  1
ＮＸＮ－７０Ｈ
  7
STYLE2
100
AcDbText
  0
LINE
  5
20C57
330
747D
100
AcDbEntity
  8
細線
100
AcDbLine
 10
6359.89657510701
 20
5232.000000000002
 30
0.0
 11
6359.896575107009
 21
3149.000000000004
 31
0.0
  0
LINE
  5
20C58
330
747D
100
AcDbEntity
  8
細線
100
AcDbLine
 10
6429.89657510701
 20
5232.000000000002
 30
0.0
 11
6429.896575107008
 21
3149.000000000004
 31
0.0
  0
LINE
  5
20C59
330
747D
100
AcDbEntity
  8
部品1
100
AcDbLine
 10
4790.316236122341
 20
5467.603474604764
 30
0.0
 11
4791.449633454688
 21
5447.627346622165
 31
0.0
  0
LINE
  5
20C5A
330
747D
100
AcDbEntity
  8
部品1
100
AcDbLine
 10
4802.886653776266
 20
5351.969939455106
 30
0.0
 11
4803.531559583373
 21
5340.603474604766
 31
0.0
  0
LINE
  5
20C5B
330
747D
100
AcDbEntity
  8
部品1
100
AcDbLine
 10
4794.650623251417
 20
5444.169939455107
 30
0.0
 11
4799.685663979529
 21
5355.427346622164
 31
0.0
  0
ARC
  5
20C5C
330
747D
100
AcDbEntity
  8
部品1
 48
50.0
100
AcDbCircle
 10
4791.655440355234
 20
5444.000000000006
 30
0.0
 40
3.0
100
AcDbArc
 50
3.24734279033473
 51
82.34187279258314
  0
ARC
  5
20C5D
330
747D
100
AcDbEntity
  8
部品1
 48
50.0
100
AcDbCircle
 10
4799.891470880075
 20
5351.800000000003
 30
0.0
 40
3.0
100
AcDbArc
 50
3.24734279033473
 51
82.3418727926348
  0
ARC
  5
20C5E
330
747D
100
AcDbEntity
  8
部品1
 48
50.0
100
AcDbCircle
 10
4800.384539988637
 20
5355.466999161687
 30
0.0
 40
0.7
100
AcDbArc
 50
183.2473427902827
 51
262.3418727926349
  0
ARC
  5
20C5F
330
747D
100
AcDbEntity
  8
部品1
 48
50.0
100
AcDbCircle
 10
4792.148509463796
 20
5447.666999161691
 30
0.0
 40
0.7
100
AcDbArc
 50
183.2473427903867
 51
262.3418727926349
  0
ARC
  5
20C60
330
747D
100
AcDbEntity
  8
部品1
100
AcDbCircle
 10
4810.520319674473
 20
5341.000000000005
 30
0.0
 40
7.0
100
AcDbArc
 50
183.2473427903347
 51
270.0
  0
ARC
  5
20C61
330
747D
100
AcDbEntity
  8
部品1
100
AcDbCircle
 10
4797.30499621344
 20
5468.000000000003
 30
0.0
 40
7.0
100
AcDbArc
 50
90.0
 51
183.2473427903347
  0
ARC
  5
20C62
330
747D
100
AcDbEntity
  8
部品1
100
AcDbCircle
 10
7512.488154000576
 20
5468.000000000003
 30
0.0
 40
7.0
100
AcDbArc
 50
356.7526572096653
 51
90.0
  0
ARC
  5
20C63
330
747D
100
AcDbEntity
  8
部品1
100
AcDbCircle
 10
7499.272830539542
 20
5341.000000000005
 30
0.0
 40
7.0
100
AcDbArc
 50
270.0
 51
356.7526572096653
  0
ARC
  5
20C64
330
747D
100
AcDbEntity
  8
部品1
 48
50.0
100
AcDbCircle
 10
7517.644640750221
 20
5447.666999161691
 30
0.0
 40
0.7
100
AcDbArc
 50
277.6581272073652
 51
356.7526572096132
  0
ARC
  5
20C65
330
747D
100
AcDbEntity
  8
部品1
 48
50.0
100
AcDbCircle
 10
7509.408610225378
 20
5355.466999161687
 30
0.0
 40
0.7
100
AcDbArc
 50
277.6581272073652
 51
356.7526572097173
  0
ARC
  5
20C66
330
747D
100
AcDbEntity
  8
部品1
 48
50.0
100
AcDbCircle
 10
7509.901679333939
 20
5351.800000000003
 30
0.0
 40
3.0
100
AcDbArc
 50
97.65812720736519
 51
176.7526572096653
  0
ARC
  5
20C67
330
747D
100
AcDbEntity
  8
部品1
 48
50.0
100
AcDbCircle
 10
7518.137709858783
 20
5444.000000000006
 30
0.0
 40
3.0
100
AcDbArc
 50
97.65812720741685
 51
176.7526572096653
  0
LINE
  5
20C68
330
747D
100
AcDbEntity
  8
部品1
100
AcDbLine
 10
7515.142526962597
 20
5444.169939455107
 30
0.0
 11
7510.107486234486
 21
5355.427346622164
 31
0.0
  0
LINE
  5
20C69
330
747D
100
AcDbEntity
  8
部品1
100
AcDbLine
 10
7506.906496437753
 20
5351.969939455106
 30
0.0
 11
7506.26159063064
 21
5340.603474604766
 31
0.0
  0
LINE
  5
20C6A
330
747D
100
AcDbEntity
  8
細線
 48
50.0
100
AcDbLine
 10
4822.896575107009
 20
5475.000000000004
 30
0.0
 11
4822.896575107009
 21
5334.000000000004
 31
0.0
  0
LINE
  5
20C6B
330
747D
100
AcDbEntity
  8
細線
 48
50.0
100
AcDbLine
 10
7486.896575107009
 20
5475.000000000004
 30
0.0
 11
7486.896575107009
 21
5334.000000000004
 31
0.0
  0
LINE
  5
20C6C
330
747D
100
AcDbEntity
  8
部品1
100
AcDbLine
 10
7519.476914091675
 20
5467.603474604764
 30
0.0
 11
7518.34351675933
 21
5447.627346622165
 31
0.0
  0
LINE
  5
20C6D
330
747D
100
AcDbEntity
  8
細線
 48
50.0
100
AcDbLine
 10
7509.501893570249
 20
5354.773242563471
 30
0.0
 11
4800.291256643809
 21
5354.773242563791
 31
0.0
  0
LINE
  5
20C6E
330
747D
100
AcDbEntity
  8
細線
 48
50.0
100
AcDbLine
 10
7517.737924095093
 20
5446.973242563473
 30
0.0
 11
4792.055226118969
 21
5446.973242563792
 31
0.0
  0
LINE
  5
20C6F
330
747D
100
AcDbEntity
  8
部品1
 48
50.0
100
AcDbLine
 10
7499.272830539542
 20
5334.000000000005
 30
0.0
 11
4810.520319674473
 21
5334.000000000005
 31
0.0
  0
LINE
  5
20C70
330
747D
100
AcDbEntity
  8
部品1
 48
50.0
100
AcDbLine
 10
7512.488154000576
 20
5475.000000000004
 30
0.0
 11
4797.30499621344
 21
5475.000000000004
 31
0.0
  0
ARC
  5
20C71
330
747D
100
AcDbEntity
  8
部品1
 48
0.01
100
AcDbCircle
 10
5732.896575107007
 20
5272.5
 30
0.0
 40
2.0
100
AcDbArc
 50
270.0
 51
0.0
  0
ARC
  5
20C72
330
747D
100
AcDbEntity
  8
部品1
 48
0.01
100
AcDbCircle
 10
5732.896575107009
 20
5304.0
 30
0.0
 40
2.0
100
AcDbArc
 50
0.0
 51
90.0
  0
ARC
  5
20C73
330
747D
100
AcDbEntity
  8
部品1
 48
0.01
100
AcDbCircle
 10
5556.89657510701
 20
5272.5
 30
0.0
 40
2.0
100
AcDbArc
 50
180.0
 51
270.0
  0
ARC
  5
20C74
330
747D
100
AcDbEntity
  8
部品1
 48
0.01
100
AcDbCircle
 10
5556.89657510701
 20
5304.0
 30
0.0
 40
2.0
100
AcDbArc
 50
90.0
 51
180.0
  0
LINE
  5
20C75
330
747D
100
AcDbEntity
  8
細線
100
AcDbLine
 10
5644.896575107008
 20
5276.5
 30
0.0
 11
5718.896575107009
 21
5276.5
 31
0.0
  0
LINE
  5
20C76
330
747D
100
AcDbEntity
  8
細線
100
AcDbLine
 10
5644.896575107009
 20
5299.5
 30
0.0
 11
5570.896575107009
 21
5299.5
 31
0.0
  0
LINE
  5
20C77
330
747D
100
AcDbEntity
  8
細線
100
AcDbLine
 10
5570.896575107009
 20
5276.5
 30
0.0
 11
5644.896575107009
 21
5276.5
 31
0.0
  0
LINE
  5
20C78
330
747D
100
AcDbEntity
  8
細線
100
AcDbLine
 10
5718.896575107009
 20
5299.5
 30
0.0
 11
5644.896575107009
 21
5299.5
 31
0.0
  0
LINE
  5
20C79
330
747D
100
AcDbEntity
  8
細線
100
AcDbLine
 10
5718.896575107009
 20
5276.5
 30
0.0
 11
5718.896575107009
 21
5299.5
 31
0.0
  0
LINE
  5
20C7A
330
747D
100
AcDbEntity
  8
細線
100
AcDbLine
 10
5570.896575107009
 20
5299.5
 30
0.0
 11
5570.896575107009
 21
5276.5
 31
0.0
  0
LINE
  5
20C7B
330
747D
100
AcDbEntity
  8
部品1
 48
0.01
100
AcDbLine
 10
5734.896575107008
 20
5272.5
 30
0.0
 11
5734.896575107009
 21
5304.0
 31
0.0
  0
LINE
  5
20C7C
330
747D
100
AcDbEntity
  8
部品1
 48
0.01
100
AcDbLine
 10
5556.89657510701
 20
5270.5
 30
0.0
 11
5732.896575107007
 21
5270.5
 31
0.0
  0
LINE
  5
20C7D
330
747D
100
AcDbEntity
  8
部品1
 48
0.01
100
AcDbLine
 10
5554.896575107009
 20
5304.0
 30
0.0
 11
5554.896575107009
 21
5272.5
 31
0.0
  0
LINE
  5
20C7E
330
747D
100
AcDbEntity
  8
部品1
 48
0.01
100
AcDbLine
 10
5732.896575107009
 20
5306.0
 30
0.0
 11
5556.89657510701
 21
5306.0
 31
0.0
  0
LINE
  5
20C7F
330
747D
100
AcDbEntity
  8
細線
100
AcDbLine
 10
5570.896575107009
 20
5293.5
 30
0.0
 11
5644.896575107009
 21
5293.5
 31
0.0
  0
LINE
  5
20C80
330
747D
100
AcDbEntity
  8
細線
100
AcDbLine
 10
5570.896575107009
 20
5287.5
 30
0.0
 11
5644.896575107009
 21
5287.5
 31
0.0
  0
LINE
  5
20C81
330
747D
100
AcDbEntity
  8
細線
100
AcDbLine
 10
5570.896575107007
 20
5281.5
 30
0.0
 11
5644.896575107009
 21
5281.5
 31
0.0
  0
LINE
  5
20C82
330
747D
100
AcDbEntity
  8
細線
100
AcDbLine
 10
5570.896575107009
 20
5293.5
 30
0.0
 11
5639.896575107009
 21
5293.5
 31
0.0
  0
LINE
  5
20C83
330
747D
100
AcDbEntity
  8
細線
100
AcDbLine
 10
5718.896575107007
 20
5293.5
 30
0.0
 11
5644.896575107009
 21
5293.5
 31
0.0
  0
LINE
  5
20C84
330
747D
100
AcDbEntity
  8
細線
100
AcDbLine
 10
5718.896575107007
 20
5281.5
 30
0.0
 11
5644.896575107009
 21
5281.5
 31
0.0
  0
LINE
  5
20C85
330
747D
100
AcDbEntity
  8
細線
100
AcDbLine
 10
5718.896575107007
 20
5287.5
 30
0.0
 11
5644.896575107009
 21
5287.5
 31
0.0
  0
LINE
  5
20C86
330
747D
100
AcDbEntity
  8
細線
100
AcDbLine
 10
5644.896575107009
 20
5299.5
 30
0.0
 11
5644.896575107008
 21
5276.5
 31
0.0
  0
LINE
  5
20C87
330
747D
100
AcDbEntity
  8
細線
100
AcDbLine
 10
6664.896575107009
 20
5299.5
 30
0.0
 11
6664.896575107009
 21
5276.5
 31
0.0
  0
LINE
  5
20C88
330
747D
100
AcDbEntity
  8
細線
100
AcDbLine
 10
6590.896575107009
 20
5287.5
 30
0.0
 11
6664.896575107009
 21
5287.5
 31
0.0
  0
LINE
  5
20C89
330
747D
100
AcDbEntity
  8
細線
100
AcDbLine
 10
6590.896575107009
 20
5281.5
 30
0.0
 11
6664.896575107009
 21
5281.5
 31
0.0
  0
LINE
  5
20C8A
330
747D
100
AcDbEntity
  8
細線
100
AcDbLine
 10
6590.896575107009
 20
5293.5
 30
0.0
 11
6664.896575107009
 21
5293.5
 31
0.0
  0
LINE
  5
20C8B
330
747D
100
AcDbEntity
  8
細線
100
AcDbLine
 10
6738.896575107009
 20
5293.5
 30
0.0
 11
6669.896575107009
 21
5293.5
 31
0.0
  0
LINE
  5
20C8C
330
747D
100
AcDbEntity
  8
細線
100
AcDbLine
 10
6738.896575107009
 20
5281.5
 30
0.0
 11
6664.896575107009
 21
5281.5
 31
0.0
  0
LINE
  5
20C8D
330
747D
100
AcDbEntity
  8
細線
100
AcDbLine
 10
6738.896575107009
 20
5287.5
 30
0.0
 11
6664.896575107009
 21
5287.5
 31
0.0
  0
LINE
  5
20C8E
330
747D
100
AcDbEntity
  8
細線
100
AcDbLine
 10
6738.896575107009
 20
5293.5
 30
0.0
 11
6664.896575107009
 21
5293.5
 31
0.0
  0
LINE
  5
20C8F
330
747D
100
AcDbEntity
  8
部品1
 48
0.01
100
AcDbLine
 10
6576.89657510701
 20
5306.0
 30
0.0
 11
6752.896575107008
 21
5306.0
 31
0.0
  0
LINE
  5
20C90
330
747D
100
AcDbEntity
  8
部品1
 48
0.01
100
AcDbLine
 10
6754.896575107008
 20
5304.0
 30
0.0
 11
6754.896575107008
 21
5272.5
 31
0.0
  0
LINE
  5
20C91
330
747D
100
AcDbEntity
  8
部品1
 48
0.01
100
AcDbLine
 10
6752.896575107008
 20
5270.5
 30
0.0
 11
6576.89657510701
 21
5270.5
 31
0.0
  0
LINE
  5
20C92
330
747D
100
AcDbEntity
  8
部品1
 48
0.01
100
AcDbLine
 10
6574.896575107008
 20
5272.5
 30
0.0
 11
6574.896575107008
 21
5304.0
 31
0.0
  0
LINE
  5
20C93
330
747D
100
AcDbEntity
  8
細線
100
AcDbLine
 10
6738.896575107009
 20
5299.5
 30
0.0
 11
6738.896575107009
 21
5276.5
 31
0.0
  0
LINE
  5
20C94
330
747D
100
AcDbEntity
  8
細線
100
AcDbLine
 10
6590.896575107009
 20
5276.5
 30
0.0
 11
6590.896575107009
 21
5299.5
 31
0.0
  0
LINE
  5
20C95
330
747D
100
AcDbEntity
  8
細線
100
AcDbLine
 10
6590.896575107009
 20
5299.5
 30
0.0
 11
6664.896575107009
 21
5299.5
 31
0.0
  0
LINE
  5
20C96
330
747D
100
AcDbEntity
  8
細線
100
AcDbLine
 10
6738.896575107009
 20
5276.5
 30
0.0
 11
6664.896575107009
 21
5276.5
 31
0.0
  0
LINE
  5
20C97
330
747D
100
AcDbEntity
  8
細線
100
AcDbLine
 10
6664.896575107009
 20
5299.5
 30
0.0
 11
6738.896575107009
 21
5299.5
 31
0.0
  0
LINE
  5
20C98
330
747D
100
AcDbEntity
  8
細線
100
AcDbLine
 10
6664.896575107009
 20
5276.5
 30
0.0
 11
6590.896575107009
 21
5276.5
 31
0.0
  0
ARC
  5
20C99
330
747D
100
AcDbEntity
  8
部品1
 48
0.01
100
AcDbCircle
 10
6752.896575107008
 20
5304.0
 30
0.0
 40
2.0
100
AcDbArc
 50
0.0
 51
90.0
  0
ARC
  5
20C9A
330
747D
100
AcDbEntity
  8
部品1
 48
0.01
100
AcDbCircle
 10
6752.896575107008
 20
5272.5
 30
0.0
 40
2.0
100
AcDbArc
 50
270.0
 51
0.0
  0
ARC
  5
20C9B
330
747D
100
AcDbEntity
  8
部品1
 48
0.01
100
AcDbCircle
 10
6576.89657510701
 20
5304.0
 30
0.0
 40
2.0
100
AcDbArc
 50
90.0
 51
180.0
  0
ARC
  5
20C9C
330
747D
100
AcDbEntity
  8
部品1
 48
0.01
100
AcDbCircle
 10
6576.89657510701
 20
5272.5
 30
0.0
 40
2.0
100
AcDbArc
 50
180.0
 51
270.0
  0
LINE
  5
20CB6
330
747D
100
AcDbEntity
  8
部品1
 48
50.0
100
AcDbLine
 10
6189.89657510701
 20
4255.500000000011
 30
0.0
 11
6242.89657510701
 21
4255.500000000012
 31
0.0
  0
LINE
  5
20CBA
330
747D
100
AcDbEntity
  8
細線
100
AcDbLine
 10
6273.896575107007
 20
5232.000000000002
 30
0.0
 11
6273.896575107009
 21
3149.000000000006
 31
0.0
  0
LINE
  5
20CBB
330
747D
100
AcDbEntity
  8
細線
100
AcDbLine
 10
6307.896575107007
 20
5232.000000000002
 30
0.0
 11
6307.896575107009
 21
3149.000000000008
 31
0.0
  0
LINE
  5
20CBC
330
747D
100
AcDbEntity
  8
部品1
100
AcDbLine
 10
6265.896575107007
 20
5232.000000000002
 30
0.0
 11
6265.896575107009
 21
3149.000000000006
 31
0.0
  0
LINE
  5
20CBD
330
747D
100
AcDbEntity
  8
部品1
100
AcDbLine
 10
6315.896575107007
 20
5232.000000000002
 30
0.0
 11
6315.896575107009
 21
3149.000000000008
 31
0.0
  0
LINE
  5
20CBE
330
747D
100
AcDbEntity
  8
細線
100
AcDbLine
 10
6499.89657510701
 20
5232.000000000002
 30
0.0
 11
6499.896575107008
 21
3149.000000000004
 31
0.0
  0
LINE
  5
20CBF
330
747D
100
AcDbEntity
  8
細線
100
AcDbLine
 10
6569.896575107009
 20
5232.000000000002
 30
0.0
 11
6569.896575107009
 21
3149.000000000006
 31
0.0
  0
LINE
  5
20CC0
330
747D
100
AcDbEntity
  8
細線
100
AcDbLine
 10
6639.896575107011
 20
5232.000000000002
 30
0.0
 11
6639.896575107009
 21
3149.000000000006
 31
0.0
  0
LINE
  5
20CC1
330
747D
100
AcDbEntity
  8
細線
100
AcDbLine
 10
6709.896575107009
 20
5232.000000000002
 30
0.0
 11
6709.896575107009
 21
3149.000000000008
 31
0.0
  0
LINE
  5
20CC2
330
747D
100
AcDbEntity
  8
細線
100
AcDbLine
 10
4899.89657510701
 20
5232.000000000003
 30
0.0
 11
7409.896575107009
 21
5232.0
 31
0.0
  0
LINE
  5
20CC3
330
747D
100
AcDbEntity
  8
部品1
100
AcDbLine
 10
4839.896575107009
 20
3142.0
 30
0.0
 11
7469.896575107007
 21
3142.000000000024
 31
0.0
  0
DIMENSION
  5
20CC4
330
747D
100
AcDbEntity
  8
寸法
 48
50.0
100
AcDbDimension
  2
*D1
 10
4839.896575107009
 20
5687.541585258244
 30
0.0
 11
6255.418487674134
 21
5687.541585258244
 31
0.0
 70
   160
  1
柱外寸法<>
 71
     5
 42
2630.0
  3
INABA_S40G
100
AcDbAlignedDimension
 13
7469.896575107009
 23
5475.000000000005
 33
0.0
 14
4839.896575107009
 24
5475.000000000007
 34
0.0
100
AcDbRotatedDimension
  0
LINE
  5
20CC5
330
747D
100
AcDbEntity
  8
破線
 48
5.0
100
AcDbLine
 10
4834.896575107009
 20
3000.0
 30
0.0
 11
4834.896575107009
 21
2845.0
 31
0.0
  0
LINE
  5
20CC6
330
747D
100
AcDbEntity
  8
破線
 48
5.0
100
AcDbLine
 10
7474.896575107009
 20
3000.0
 30
0.0
 11
7474.896575107009
 21
2845.0
 31
0.0
  0
LINE
  5
20CC7
330
747D
100
AcDbEntity
  8
破線
 48
5.0
100
AcDbLine
 10
4814.89657510701
 20
2845.0
 30
0.0
 11
4834.896575107009
 21
2845.0
 31
0.0
  0
LINE
  5
20CC8
330
747D
100
AcDbEntity
  8
部品1
100
AcDbLine
 10
4834.896575107009
 20
3145.000000000002
 30
0.0
 11
4834.896575107009
 21
3000.0
 31
0.0
  0
LINE
  5
20CC9
330
747D
100
AcDbEntity
  8
破線
 48
5.0
100
AcDbLine
 10
7494.896575107009
 20
2845.0
 30
0.0
 11
7474.896575107006
 21
2845.0
 31
0.0
  0
LINE
  5
20CCA
330
747D
100
AcDbEntity
  8
部品1
100
AcDbLine
 10
7474.896575107009
 20
3145.0
 30
0.0
 11
7474.896575107009
 21
3000.0
 31
0.0
  0
LINE
  5
20CCB
330
747D
100
AcDbEntity
  8
部品1
100
AcDbLine
 10
6809.89657510701
 20
3156.500000000018
 30
0.0
 11
7409.896575107009
 21
3156.500000000026
 31
0.0
  0
DIMENSION
  5
20CCC
330
747D
100
AcDbEntity
  8
寸法
 48
50.0
100
AcDbDimension
  2
*D2
 10
4789.896575107009
 20
5687.541585258244
 30
0.0
 11
4476.411293732762
 21
5687.541585258244
 31
0.0
 70
   160
 71
     5
 42
50.0
  3
INABA_S40G
100
AcDbAlignedDimension
 13
4839.896575107009
 23
5475.000000000007
 33
0.0
 14
4789.896575107009
 24
5475.000000000005
 34
0.0
100
AcDbRotatedDimension
1001
ACAD
1000
DSTYLE
1002
{
1002
}
  0
DIMENSION
  5
20CCD
330
747D
100
AcDbEntity
  8
寸法
 48
50.0
100
AcDbDimension
  2
*D3
 10
7469.896575107009
 20
5687.541585258244
 30
0.0
 11
7833.381856481246
 21
5687.541585258244
 31
0.0
 70
   160
 71
     5
 42
50.0
  3
INABA_S40G
100
AcDbAlignedDimension
 13
7519.896575107009
 23
5475.000000000004
 33
0.0
 14
7469.896575107009
 24
5475.000000000005
 34
0.0
100
AcDbRotatedDimension
  0
LINE
  5
20CCE
330
747D
100
AcDbEntity
  8
部品1
100
AcDbLine
 10
5239.896575107009
 20
3100.0
 30
0.0
 11
5239.896575107009
 21
3000.0
 31
0.0
  0
LINE
  5
20CCF
330
747D
100
AcDbEntity
  8
部品1
100
AcDbLine
 10
7069.896575107009
 20
3100.0
 30
0.0
 11
7069.896575107009
 21
3000.0
 31
0.0
  0
LINE
  5
20CD0
330
747D
100
AcDbEntity
  8
部品1
100
AcDbLine
 10
7469.896575107007
 20
5334.000000000005
 30
0.0
 11
7469.896575107009
 21
3000.0
 31
0.0
  0
LINE
  5
20CD1
330
747D
100
AcDbEntity
  8
部品1
100
AcDbLine
 10
4899.896575107008
 20
5240.0
 30
0.0
 11
4899.89657510701
 21
3142.000000000004
 31
0.0
  0
LINE
  5
20CD2
330
747D
100
AcDbEntity
  8
部品1
100
AcDbLine
 10
7409.896575107009
 20
5240.000000000001
 30
0.0
 11
7409.896575107009
 21
3142.00000000002
 31
0.0
  0
LINE
  5
20CD3
330
747D
100
AcDbEntity
  8
部品1
100
AcDbLine
 10
4839.896575107008
 20
5334.000000000005
 30
0.0
 11
4839.896575107009
 21
3000.0
 31
0.0
  0
DIMENSION
  5
20CD4
330
747D
100
AcDbEntity
  8
寸法
 48
50.0
100
AcDbDimension
  2
*D4
 10
7519.896575107009
 20
5902.9370167405
 30
0.0
 11
6197.462896613832
 21
5902.9370167405
 31
0.0
 70
   160
 71
     5
 42
2730.0
  3
INABA_S40G
100
AcDbAlignedDimension
 13
4789.896575107009
 23
5475.000000000005
 33
0.0
 14
7519.896575107009
 24
5475.000000000004
 34
0.0
100
AcDbRotatedDimension
  0
LINE
  5
20CD5
330
747D
100
AcDbEntity
  8
部品1
100
AcDbLine
 10
5499.896575107009
 20
3148.999999999993
 30
0.0
 11
6809.89657510701
 21
3149.000000000008
 31
0.0
  0
LINE
  5
20CD6
330
747D
100
AcDbEntity
  8
部品1
100
AcDbLine
 10
4839.896575107009
 20
5240.0
 30
0.0
 11
7469.896575107007
 21
5240.000000000001
 31
0.0
  0
LINE
  5
20CD7
330
747D
100
AcDbEntity
  8
部品1
100
AcDbLine
 10
4839.896575107009
 20
3100.0
 30
0.0
 11
7469.896575107007
 21
3100.0
 31
0.0
  0
TEXT
  5
20CD8
330
747D
100
AcDbEntity
  8
部品1
100
AcDbText
 10
4179.545247166602
 20
3013.953728039225
 30
0.0
 40
125.0
  1
▽G.L
  7
STYLE2
100
AcDbText
  0
LINE
  5
20CDA
330
747D
100
AcDbEntity
  8
部品1
 48
50.0
100
AcDbLine
 10
5839.396575107009
 20
3100.000000000002
 30
0.0
 11
5839.396575107009
 21
3000.000000000002
 31
0.0
  0
LINE
  5
20CDB
330
747D
100
AcDbEntity
  8
部品1
 48
50.0
100
AcDbLine
 10
5639.396575107009
 20
3100.000000000002
 30
0.0
 11
5639.396575107009
 21
3000.000000000002
 31
0.0
  0
LINE
  5
20CDC
330
747D
100
AcDbEntity
  8
部品1
 48
50.0
100
AcDbLine
 10
6470.396575107009
 20
3100.000000000002
 30
0.0
 11
6470.396575107009
 21
3000.000000000002
 31
0.0
  0
LINE
  5
20CDD
330
747D
100
AcDbEntity
  8
部品1
 48
50.0
100
AcDbLine
 10
6670.396575107009
 20
3100.000000000002
 30
0.0
 11
6670.396575107009
 21
3000.000000000002
 31
0.0
  0
LINE
  5
20CDE
330
747D
100
AcDbEntity
  8
部品1
 48
50.0
100
AcDbLine
 10
6154.896575107011
 20
5232.000000000002
 30
0.0
 11
6154.896575107009
 21
3142.000000000011
 31
0.0
  0
LINE
  5
20CDF
330
747D
100
AcDbEntity
  8
部品1
 48
50.0
100
AcDbLine
 10
6809.896575107011
 20
5232.000000000002
 30
0.0
 11
6809.89657510701
 21
3149.000000000008
 31
0.0
  0
LINE
  5
20CE0
330
747D
100
AcDbEntity
  8
部品1
 48
50.0
100
AcDbLine
 10
5499.896575107009
 20
5232.000000000002
 30
0.0
 11
5499.896575107009
 21
3148.999999999993
 31
0.0
  0
LINE
  5
20CE1
330
747D
100
AcDbEntity
  8
部品1
100
AcDbLine
 10
6043.896575107011
 20
5232.000000000003
 30
0.0
 11
6043.896575107012
 21
3149.000000000006
 31
0.0
  0
LINE
  5
20CE2
330
747D
100
AcDbEntity
  8
部品1
100
AcDbLine
 10
5993.896575107011
 20
5232.000000000002
 30
0.0
 11
5993.896575107013
 21
3149.000000000004
 31
0.0
  0
LINE
  5
20CE3
330
747D
100
AcDbEntity
  8
細線
100
AcDbLine
 10
6035.896575107011
 20
5232.000000000003
 30
0.0
 11
6035.896575107013
 21
3149.000000000006
 31
0.0
  0
LINE
  5
20CE4
330
747D
100
AcDbEntity
  8
細線
100
AcDbLine
 10
6001.896575107011
 20
5232.000000000002
 30
0.0
 11
6001.896575107013
 21
3149.000000000004
 31
0.0
  0
LINE
  5
20CE5
330
747D
100
AcDbEntity
  8
細線
100
AcDbLine
 10
5599.89657510701
 20
5232.000000000003
 30
0.0
 11
5599.89657510701
 21
3149.000000000008
 31
0.0
  0
LINE
  5
20CE6
330
747D
100
AcDbEntity
  8
細線
100
AcDbLine
 10
5669.89657510701
 20
5232.000000000002
 30
0.0
 11
5669.896575107009
 21
3149.000000000006
 31
0.0
  0
LINE
  5
20CE7
330
747D
100
AcDbEntity
  8
細線
100
AcDbLine
 10
5739.896575107009
 20
5232.000000000002
 30
0.0
 11
5739.896575107009
 21
3149.000000000006
 31
0.0
  0
LINE
  5
20CE8
330
747D
100
AcDbEntity
  8
細線
100
AcDbLine
 10
5809.896575107009
 20
5232.000000000003
 30
0.0
 11
5809.896575107009
 21
3149.000000000004
 31
0.0
  0
LINE
  5
20CE9
330
747D
100
AcDbEntity
  8
細線
100
AcDbLine
 10
5879.89657510701
 20
5232.000000000003
 30
0.0
 11
5879.896575107009
 21
3149.000000000004
 31
0.0
  0
LINE
  5
20CEA
330
747D
100
AcDbEntity
  8
細線
100
AcDbLine
 10
5949.89657510701
 20
5232.000000000003
 30
0.0
 11
5949.896575107009
 21
3149.000000000004
 31
0.0
  0
LINE
  5
20CEB
330
747D
100
AcDbEntity
  8
部品1
100
AcDbLine
 10
4899.89657510701
 20
3156.50000000002
 30
0.0
 11
5499.896575107009
 21
3156.500000000026
 31
0.0
  0
LINE
  5
20CEC
330
747D
100
AcDbEntity
  8
細線
100
AcDbLine
 10
6866.896575107009
 20
5232.000000000001
 30
0.0
 11
6866.896575107009
 21
3156.50000000002
 31
0.0
  0
LINE
  5
20CED
330
747D
100
AcDbEntity
  8
細線
100
AcDbLine
 10
6936.896575107009
 20
5232.000000000001
 30
0.0
 11
6936.896575107009
 21
3156.50000000002
 31
0.0
  0
LINE
  5
20CEE
330
747D
100
AcDbEntity
  8
細線
100
AcDbLine
 10
7006.89657510701
 20
5232.000000000001
 30
0.0
 11
7006.89657510701
 21
3156.50000000002
 31
0.0
  0
LINE
  5
20CEF
330
747D
100
AcDbEntity
  8
細線
100
AcDbLine
 10
7076.89657510701
 20
5232.000000000001
 30
0.0
 11
7076.89657510701
 21
3156.50000000002
 31
0.0
  0
LINE
  5
20CF0
330
747D
100
AcDbEntity
  8
細線
100
AcDbLine
 10
7146.896575107009
 20
5232.000000000001
 30
0.0
 11
7146.896575107009
 21
3156.50000000002
 31
0.0
  0
LINE
  5
20CF1
330
747D
100
AcDbEntity
  8
細線
100
AcDbLine
 10
7216.896575107009
 20
5232.000000000001
 30
0.0
 11
7216.896575107009
 21
3156.50000000002
 31
0.0
  0
LINE
  5
20CF2
330
747D
100
AcDbEntity
  8
細線
100
AcDbLine
 10
7286.896575107009
 20
5232.000000000001
 30
0.0
 11
7286.896575107009
 21
3156.50000000002
 31
0.0
  0
LINE
  5
20CF3
330
747D
100
AcDbEntity
  8
細線
100
AcDbLine
 10
7356.896575107009
 20
5232.000000000001
 30
0.0
 11
7356.896575107009
 21
3156.50000000002
 31
0.0
  0
LINE
  5
20CF4
330
747D
100
AcDbEntity
  8
細線
100
AcDbLine
 10
4952.896575107009
 20
5232.000000000003
 30
0.0
 11
4952.896575107009
 21
3156.500000000011
 31
0.0
  0
LINE
  5
20CF5
330
747D
100
AcDbEntity
  8
細線
100
AcDbLine
 10
5022.896575107009
 20
5232.000000000002
 30
0.0
 11
5022.896575107009
 21
3156.500000000011
 31
0.0
  0
LINE
  5
20CF6
330
747D
100
AcDbEntity
  8
細線
100
AcDbLine
 10
5092.896575107009
 20
5232.000000000002
 30
0.0
 11
5092.896575107009
 21
3156.500000000011
 31
0.0
  0
LINE
  5
20CF7
330
747D
100
AcDbEntity
  8
細線
100
AcDbLine
 10
5162.896575107009
 20
5232.000000000002
 30
0.0
 11
5162.896575107009
 21
3156.500000000011
 31
0.0
  0
LINE
  5
20CF8
330
747D
100
AcDbEntity
  8
細線
100
AcDbLine
 10
5232.89657510701
 20
5232.000000000002
 30
0.0
 11
5232.896575107009
 21
3156.500000000011
 31
0.0
  0
LINE
  5
20CF9
330
747D
100
AcDbEntity
  8
細線
100
AcDbLine
 10
5302.896575107008
 20
5232.000000000002
 30
0.0
 11
5302.896575107009
 21
3156.500000000011
 31
0.0
  0
LINE
  5
20CFA
330
747D
100
AcDbEntity
  8
細線
100
AcDbLine
 10
5372.896575107009
 20
5232.000000000002
 30
0.0
 11
5372.896575107009
 21
3156.500000000011
 31
0.0
  0
LINE
  5
20CFB
330
747D
100
AcDbEntity
  8
細線
100
AcDbLine
 10
5442.89657510701
 20
5232.000000000002
 30
0.0
 11
5442.89657510701
 21
3156.500000000011
 31
0.0
  0
LINE
  5
22DB0
330
747D
100
AcDbEntity
  8
細線
100
AcDbLine
 10
6800.408881756055
 20
8081.207075740255
 30
0.0
 11
6800.408881756055
 21
8081.907075740256
 31
0.0
  0
ARC
  5
22DB1
330
747D
100
AcDbEntity
  8
細線
100
AcDbCircle
 10
6798.408881756055
 20
8081.207075740255
 30
0.0
 40
2.0
100
AcDbArc
 50
270.0
 51
0.0
  0
LINE
  5
22DB2
330
747D
100
AcDbEntity
  8
細線
100
AcDbLine
 10
6796.408881756055
 20
8079.207075740255
 30
0.0
 11
6798.408881756055
 21
8079.207075740255
 31
0.0
  0
LINE
  5
22DB3
330
747D
100
AcDbEntity
  8
細線
100
AcDbLine
 10
6794.408881756055
 20
8081.207075740255
 30
0.0
 11
6794.408881756055
 21
8081.907075740256
 31
0.0
  0
ARC
  5
22DB4
330
747D
100
AcDbEntity
  8
細線
100
AcDbCircle
 10
6796.408881756055
 20
8081.207075740255
 30
0.0
 40
2.0
100
AcDbArc
 50
180.0
 51
270.0
  0
LINE
  5
22DBC
330
747D
100
AcDbEntity
  8
細線
100
AcDbLine
 10
6794.408881756057
 20
8068.90707574025
 30
0.0
 11
6794.408881756059
 21
8075.90707574025
 31
0.0
  0
LINE
  5
22DBD
330
747D
100
AcDbEntity
  8
細線
100
AcDbLine
 10
6809.40888175606
 20
8075.907075740254
 30
0.0
 11
6794.408881756059
 21
8075.90707574025
 31
0.0
  0
LINE
  5
22DBE
330
747D
100
AcDbEntity
  8
細線
100
AcDbLine
 10
6809.408881756053
 20
8045.907075740252
 30
0.0
 11
6809.408881756062
 21
8075.907075740254
 31
0.0
  0
ARC
  5
22DC3
330
747D
100
AcDbEntity
  8
細線
100
AcDbCircle
 10
6604.408888255953
 20
8071.407075740253
 30
0.0
 40
6.0
100
AcDbArc
 50
204.6243183521779
 51
335.3756816478222
  0
LINE
  5
22DC7
330
747D
100
AcDbEntity
  8
細線
100
AcDbLine
 10
7356.408881756047
 20
8081.907075740287
 30
0.0
 11
7354.077343465281
 21
8086.907075740274
 31
0.0
  0
LINE
  5
22DC8
330
747D
100
AcDbEntity
  8
細線
100
AcDbLine
 10
7354.077343465281
 20
8086.907075740274
 30
0.0
 11
7288.740420046806
 21
8086.907075740262
 31
0.0
  0
LINE
  5
22DC9
330
747D
100
AcDbEntity
  8
細線
100
AcDbLine
 10
7286.408881756052
 20
8081.907075740307
 30
0.0
 11
7288.740420046821
 21
8086.907075740292
 31
0.0
  0
LINE
  5
22DCA
330
747D
100
AcDbEntity
  8
細線
100
AcDbLine
 10
7286.40888175604
 20
8081.907075740277
 30
0.0
 11
7216.408881756041
 21
8081.907075740277
 31
0.0
  0
LINE
  5
22DD2
330
747D
100
AcDbEntity
  8
細線
100
AcDbLine
 10
6809.408881756053
 20
8045.907075740327
 30
0.0
 11
6709.408881756032
 21
8045.907075740315
 31
0.0
  0
LINE
  5
22DD6
330
747D
100
AcDbEntity
  8
細線
100
AcDbLine
 10
6866.408881756055
 20
8081.907075740259
 30
0.0
 11
6800.408881756055
 21
8081.907075740261
 31
0.0
  0
LINE
  5
22DD7
330
747D
100
AcDbEntity
  8
細線
100
AcDbLine
 10
7006.408881756044
 20
8081.907075740256
 30
0.0
 11
6936.408881756033
 21
8081.907075740256
 31
0.0
  0
LINE
  5
22DD8
330
747D
100
AcDbEntity
  8
細線
100
AcDbLine
 10
7146.408881756038
 20
8081.907075740256
 30
0.0
 11
7076.408881756039
 21
8081.907075740256
 31
0.0
  0
LINE
  5
22DD9
330
747D
100
AcDbEntity
  8
細線
100
AcDbLine
 10
6866.408881756055
 20
8081.907075740259
 30
0.0
 11
6868.740420046818
 21
8086.907075740231
 31
0.0
  0
LINE
  5
22DDA
330
747D
100
AcDbEntity
  8
細線
100
AcDbLine
 10
6936.408881756046
 20
8081.907075740229
 30
0.0
 11
6934.077343465277
 21
8086.907075740212
 31
0.0
  0
LINE
  5
22DDB
330
747D
100
AcDbEntity
  8
細線
100
AcDbLine
 10
6934.077343465279
 20
8086.907075740212
 30
0.0
 11
6868.740420046805
 21
8086.907075740203
 31
0.0
  0
LINE
  5
22DDC
330
747D
100
AcDbEntity
  8
細線
100
AcDbLine
 10
7006.40888175605
 20
8081.907075740266
 30
0.0
 11
7008.740420046817
 21
8086.907075740251
 31
0.0
  0
LINE
  5
22DDD
330
747D
100
AcDbEntity
  8
細線
100
AcDbLine
 10
7076.408881756044
 20
8081.907075740248
 30
0.0
 11
7074.077343465276
 21
8086.907075740233
 31
0.0
  0
LINE
  5
22DDE
330
747D
100
AcDbEntity
  8
細線
100
AcDbLine
 10
7074.077343465278
 20
8086.907075740233
 30
0.0
 11
7008.740420046804
 21
8086.907075740223
 31
0.0
  0
LINE
  5
22DDF
330
747D
100
AcDbEntity
  8
細線
100
AcDbLine
 10
7146.408881756052
 20
8081.907075740286
 30
0.0
 11
7148.740420046819
 21
8086.907075740271
 31
0.0
  0
LINE
  5
22DE0
330
747D
100
AcDbEntity
  8
細線
100
AcDbLine
 10
7214.07734346528
 20
8086.907075740255
 30
0.0
 11
7148.740420046805
 21
8086.907075740242
 31
0.0
  0
LINE
  5
22DE1
330
747D
100
AcDbEntity
  8
細線
100
AcDbLine
 10
7216.408881756045
 20
8081.907075740268
 30
0.0
 11
7214.077343465278
 21
8086.907075740255
 31
0.0
  0
ARC
  5
22DEB
330
747D
100
AcDbEntity
  8
部品1
 48
0.01
100
AcDbCircle
 10
6315.408881756048
 20
8044.907075740274
 30
0.0
 40
0.5
100
AcDbArc
 50
270.0
 51
0.0
  0
LINE
  5
22DEC
330
747D
100
AcDbEntity
  8
部品1
 48
0.01
100
AcDbLine
 10
6315.908881756048
 20
8045.907075740275
 30
0.0
 11
6315.908881756048
 21
8044.907075740274
 31
0.0
  0
LINE
  5
22DED
330
747D
100
AcDbEntity
  8
部品1
 48
0.01
100
AcDbLine
 10
6315.908881756048
 20
8045.907075740275
 30
0.0
 11
6315.908881756048
 21
8044.907075740274
 31
0.0
  0
LINE
  5
22DEE
330
747D
100
AcDbEntity
  8
部品1
 48
0.01
100
AcDbLine
 10
6315.408881756048
 20
8044.407075740275
 30
0.0
 11
6308.796376325985
 21
8044.407075740275
 31
0.0
  0
ARC
  5
22DEF
330
747D
100
AcDbEntity
  8
部品1
100
AcDbCircle
 10
6308.864725878763
 20
8045.407075740275
 30
0.0
 40
1.0
100
AcDbArc
 50
160.5287793655287
 51
270.0
  0
ARC
  5
22DF0
330
747D
100
AcDbEntity
  8
部品1
100
AcDbCircle
 10
6283.408881756048
 20
8054.407075740275
 30
0.0
 40
26.0
100
AcDbArc
 50
340.5287793655287
 51
0.0
  0
LINE
  5
22DF1
330
747D
100
AcDbEntity
  8
部品1
100
AcDbLine
 10
6309.408881756048
 20
8054.407075740275
 30
0.0
 11
6309.408881756048
 21
8059.407075740274
 31
0.0
  0
ARC
  5
22DF2
330
747D
100
AcDbEntity
  8
部品1
 48
0.01
100
AcDbCircle
 10
6307.408881756048
 20
8059.407075740274
 30
0.0
 40
2.0
100
AcDbArc
 50
0.0
 51
90.0
  0
ARC
  5
22DF3
330
747D
100
AcDbEntity
  8
部品1
100
AcDbCircle
 10
6305.800490131236
 20
8058.407075740275
 30
0.0
 40
3.0
100
AcDbArc
 50
90.0
 51
141.6069559807873
  0
LINE
  5
22DF4
330
747D
100
AcDbEntity
  8
部品1
 48
0.01
100
AcDbLine
 10
6307.408881756048
 20
8061.407075740275
 30
0.0
 11
6305.800490131236
 21
8061.407075740275
 31
0.0
  0
ARC
  5
22DF5
330
747D
100
AcDbEntity
  8
部品1
100
AcDbCircle
 10
6287.338167541776
 20
8057.707075740275
 30
0.0
 40
3.0
100
AcDbArc
 50
254.0576313943716
 51
270.0
  0
ARC
  5
22DF6
330
747D
100
AcDbEntity
  8
部品1
100
AcDbCircle
 10
6294.479595970319
 20
8057.707075740275
 30
0.0
 40
3.0
100
AcDbArc
 50
270.0
 51
285.9423686056284
  0
LINE
  5
22DF7
330
747D
100
AcDbEntity
  8
部品1
100
AcDbLine
 10
6294.479595970319
 20
8054.707075740275
 30
0.0
 11
6287.338167541776
 21
8054.707075740275
 31
0.0
  0
ARC
  5
22DF8
330
747D
100
AcDbEntity
  8
部品1
100
AcDbCircle
 10
6290.908881756048
 20
8070.207075740276
 30
0.0
 40
16.0
100
AcDbArc
 50
285.9423686056284
 51
321.6069559807873
  0
LINE
  5
22DF9
330
747D
100
AcDbEntity
  8
部品1
 48
0.01
100
AcDbLine
 10
6274.408881756048
 20
8061.407075740275
 30
0.0
 11
6276.017273380859
 21
8061.407075740275
 31
0.0
  0
ARC
  5
22DFA
330
747D
100
AcDbEntity
  8
部品1
100
AcDbCircle
 10
6276.017273380859
 20
8058.407075740275
 30
0.0
 40
3.0
100
AcDbArc
 50
38.39304401921267
 51
90.0
  0
ARC
  5
22DFB
330
747D
100
AcDbEntity
  8
部品1
100
AcDbCircle
 10
6290.908881756048
 20
8070.207075740276
 30
0.0
 40
16.0
100
AcDbArc
 50
218.3930440192126
 51
254.0576313943716
  0
LINE
  5
22DFC
330
747D
100
AcDbEntity
  8
部品1
100
AcDbLine
 10
6272.408881756048
 20
8054.407075740275
 30
0.0
 11
6272.408881756048
 21
8059.407075740274
 31
0.0
  0
ARC
  5
22DFD
330
747D
100
AcDbEntity
  8
部品1
 48
0.01
100
AcDbCircle
 10
6274.408881756048
 20
8059.407075740274
 30
0.0
 40
2.0
100
AcDbArc
 50
90.0
 51
180.0
  0
ARC
  5
22DFE
330
747D
100
AcDbEntity
  8
部品1
100
AcDbCircle
 10
6298.408881756047
 20
8054.407075740275
 30
0.0
 40
26.0
100
AcDbArc
 50
180.0
 51
199.4712206344713
  0
ARC
  5
22DFF
330
747D
100
AcDbEntity
  8
部品1
 48
0.01
100
AcDbCircle
 10
6266.408881756047
 20
8044.907075740274
 30
0.0
 40
0.5
100
AcDbArc
 50
180.0
 51
270.0
  0
LINE
  5
22E00
330
747D
100
AcDbEntity
  8
部品1
 48
0.01
100
AcDbLine
 10
6266.408881756047
 20
8044.407075740275
 30
0.0
 11
6272.953037633332
 21
8044.407075740275
 31
0.0
  0
LINE
  5
22E01
330
747D
100
AcDbEntity
  8
部品1
 48
0.01
100
AcDbLine
 10
6265.908881756048
 20
8045.907075740275
 30
0.0
 11
6265.908881756048
 21
8044.907075740274
 31
0.0
  0
ARC
  5
22E02
330
747D
100
AcDbEntity
  8
部品1
100
AcDbCircle
 10
6272.953037633332
 20
8045.407075740275
 30
0.0
 40
1.0
100
AcDbArc
 50
270.0
 51
19.47122063447127
  0
LINE
  5
22E03
330
747D
100
AcDbEntity
  8
細線
100
AcDbLine
 10
6311.408881756054
 20
8063.907075740274
 30
0.0
 11
6270.408881756053
 21
8063.907075740273
 31
0.0
  0
LINE
  5
22E04
330
747D
100
AcDbEntity
  8
細線
100
AcDbLine
 10
6270.408881756053
 20
8063.907075740273
 30
0.0
 11
6270.408881756053
 21
8045.907075740252
 31
0.0
  0
LINE
  5
22E05
330
747D
100
AcDbEntity
  8
細線
100
AcDbLine
 10
6311.408881756054
 20
8063.907075740274
 30
0.0
 11
6311.408881756054
 21
8045.907075740252
 31
0.0
  0
LINE
  5
22E06
330
747D
100
AcDbEntity
  8
細線
100
AcDbLine
 10
6359.408881756053
 20
8045.907075740252
 30
0.0
 11
6361.740420046821
 21
8050.907075740239
 31
0.0
  0
LINE
  5
22E07
330
747D
100
AcDbEntity
  8
細線
100
AcDbLine
 10
6429.408881756048
 20
8045.907075740236
 30
0.0
 11
6427.077343465279
 21
8050.907075740221
 31
0.0
  0
LINE
  5
22E08
330
747D
100
AcDbEntity
  8
細線
100
AcDbLine
 10
6427.077343465282
 20
8050.907075740221
 30
0.0
 11
6361.740420046808
 21
8050.907075740211
 31
0.0
  0
LINE
  5
22E09
330
747D
100
AcDbEntity
  8
細線
100
AcDbLine
 10
6499.408881756053
 20
8045.907075740272
 30
0.0
 11
6501.740420046821
 21
8050.907075740258
 31
0.0
  0
LINE
  5
22E0A
330
747D
100
AcDbEntity
  8
細線
100
AcDbLine
 10
6569.408881756048
 20
8045.907075740256
 30
0.0
 11
6567.07734346528
 21
8050.907075740241
 31
0.0
  0
LINE
  5
22E0B
330
747D
100
AcDbEntity
  8
細線
100
AcDbLine
 10
6567.07734346528
 20
8050.907075740241
 30
0.0
 11
6501.740420046806
 21
8050.90707574023
 31
0.0
  0
LINE
  5
22E0C
330
747D
100
AcDbEntity
  8
細線
100
AcDbLine
 10
6639.408881756056
 20
8045.907075740293
 30
0.0
 11
6641.740420046822
 21
8050.90707574028
 31
0.0
  0
LINE
  5
22E0D
330
747D
100
AcDbEntity
  8
細線
100
AcDbLine
 10
6359.408881756068
 20
8045.907075740284
 30
0.0
 11
6145.896575107003
 21
8045.907075740251
 31
0.0
  0
LINE
  5
22E0E
330
747D
100
AcDbEntity
  8
細線
100
AcDbLine
 10
6499.408881756055
 20
8045.907075740231
 30
0.0
 11
6429.408881756055
 21
8045.90707574022
 31
0.0
  0
LINE
  5
22E0F
330
747D
100
AcDbEntity
  8
細線
100
AcDbLine
 10
6639.408881756053
 20
8045.907075740251
 30
0.0
 11
6569.408881756053
 21
8045.90707574024
 31
0.0
  0
LINE
  5
22E10
330
747D
100
AcDbEntity
  8
細線
100
AcDbLine
 10
6707.077343465282
 20
8050.90707574026
 30
0.0
 11
6641.740420046808
 21
8050.90707574025
 31
0.0
  0
LINE
  5
22E11
330
747D
100
AcDbEntity
  8
細線
100
AcDbLine
 10
6709.408881756032
 20
8045.907075740315
 30
0.0
 11
6707.077343465282
 21
8050.90707574026
 31
0.0
  0
LINE
  5
22E13
330
747D
100
AcDbEntity
  8
細線
100
AcDbLine
 10
6154.908881756053
 20
8075.907075740252
 30
0.0
 11
6154.908881756053
 21
8045.907075740252
 31
0.0
  0
LINE
  5
22E1D
330
747D
100
AcDbEntity
  8
細線
100
AcDbLine
 10
6634.408881755979
 20
8045.907075740352
 30
0.0
 11
6626.908881755984
 21
8068.90707574028
 31
0.0
  0
LINE
  5
22E1E
330
747D
100
AcDbEntity
  8
細線
100
AcDbLine
 10
6574.408881755978
 20
8045.907075740363
 30
0.0
 11
6581.908881755984
 21
8068.90707574028
 31
0.0
  0
LINE
  5
22E21
330
747D
100
AcDbEntity
  8
細線
100
AcDbLine
 10
6971.908881756056
 20
8109.907075740256
 30
0.0
 11
6956.908881756054
 21
8081.907075740259
 31
0.0
  0
LINE
  5
22E22
330
747D
100
AcDbEntity
  8
細線
100
AcDbLine
 10
6986.908881756057
 20
8109.907075740256
 30
0.0
 11
6986.908881756054
 21
8081.907075740259
 31
0.0
  0
LINE
  5
22E26
330
747D
100
AcDbEntity
  8
細線
100
AcDbLine
 10
6794.408881756055
 20
8081.907075740256
 30
0.0
 11
6788.408881756055
 21
8081.907075740256
 31
0.0
  0
LINE
  5
22E4D
330
747D
100
AcDbEntity
  8
細線
100
AcDbLine
 10
7409.896608091997
 20
8077.907075740267
 30
0.0
 11
7409.896608091999
 21
8081.907075740257
 31
0.0
  0
LINE
  5
22E53
330
747D
100
AcDbEntity
  8
細線
100
AcDbLine
 10
6768.408881756055
 20
8073.907075740256
 30
0.0
 11
6768.408881756055
 21
8109.90707574026
 31
0.0
  0
LINE
  5
22E54
330
747D
100
AcDbEntity
  8
細線
100
AcDbLine
 10
6788.408881756055
 20
8073.907075740256
 30
0.0
 11
6768.408881756055
 21
8073.907075740256
 31
0.0
  0
LINE
  5
22E55
330
747D
100
AcDbEntity
  8
細線
100
AcDbLine
 10
6788.408881756055
 20
8073.907075740256
 30
0.0
 11
6788.408881756055
 21
8081.907075740256
 31
0.0
  0
LINE
  5
22E56
330
747D
100
AcDbEntity
  8
細線
100
AcDbLine
 10
7441.896575106979
 20
8109.907075740251
 30
0.0
 11
6768.408881756055
 21
8109.90707574026
 31
0.0
  0
LINE
  5
22E57
330
747D
100
AcDbEntity
  8
細線
 48
50.0
100
AcDbLine
 10
7356.408881756054
 20
8058.907075740263
 30
0.0
 11
6809.408881756057
 21
8058.907075740263
 31
0.0
  0
LINE
  5
22E58
330
747D
100
AcDbEntity
  8
細線
100
AcDbLine
 10
7409.896608091999
 20
8081.907075740256
 30
0.0
 11
7356.408881756054
 21
8081.907075740259
 31
0.0
  0
LINE
  5
22E5E
330
747D
100
AcDbEntity
  8
細線
100
AcDbLine
 10
6169.908881756054
 20
8075.907075740252
 30
0.0
 11
6154.908881756053
 21
8075.907075740252
 31
0.0
  0
LINE
  5
22E5F
330
747D
100
AcDbEntity
  8
細線
100
AcDbLine
 10
6169.908881756054
 20
8075.907075740252
 30
0.0
 11
6169.908881756054
 21
8068.907075740252
 31
0.0
  0
LINE
  5
22E68
330
747D
100
AcDbEntity
  8
部品1
100
AcDbLine
 10
6565.408881756062
 20
8042.907075740133
 30
0.0
 11
6514.408881756063
 21
8042.907075740133
 31
0.0
  0
LINE
  5
22E69
330
747D
100
AcDbEntity
  8
細線
100
AcDbLine
 10
6794.408881756055
 20
8068.907075740346
 30
0.0
 11
6169.908881756054
 21
8068.907075740252
 31
0.0
  0
LINE
  5
22E74
330
747D
100
AcDbEntity
  8
細線
 48
50.0
100
AcDbLine
 10
7409.896608091999
 20
8058.907075740338
 30
0.0
 11
6949.908881756059
 21
8058.907075740338
 31
0.0
  0
DIMENSION
  5
22E8D
330
747D
100
AcDbEntity
  8
寸法
100
AcDbDimension
  2
*D13
 10
8416.025173151023
 20
8042.90707574027
 30
0.0
 11
8416.025173151021
 21
9355.891103672941
 31
0.0
 70
   160
 71
     5
 42
2630.000000000049
  3
INABA_S40G
100
AcDbAlignedDimension
 13
7469.896575107044
 23
10672.90707574032
 33
0.0
 14
7469.896575106976
 24
8042.90707574027
 34
0.0
 50
90.0
100
AcDbRotatedDimension
1001
ACAD
1000
DSTYLE
1002
{
1002
}
  0
DIMENSION
  5
22E8E
330
747D
100
AcDbEntity
  8
寸法
100
AcDbDimension
  2
*D12
 10
7414.896575107047
 20
10888.71529536532
 30
0.0
 11
6154.896575107045
 21
10888.71529536532
 31
0.0
 70
   160
  1
6X420=<>
 71
     5
 42
2520.0
  3
INABA_S40G
100
AcDbAlignedDimension
 13
4894.896575107047
 23
10672.90707574022
 33
0.0
 14
7414.896575107047
 24
10672.90707574032
 34
0.0
100
AcDbRotatedDimension
1001
ACAD
1000
DSTYLE
1002
{
1002
}
  0
DIMENSION
  5
22E8F
330
747D
100
AcDbEntity
  8
寸法
100
AcDbDimension
  2
*D11
 10
7469.896575107047
 20
10888.7152953653
 30
0.0
 11
7778.381856481286
 21
10888.7152953653
 31
0.0
 70
   160
 71
     5
 42
55.0
  3
INABA_S40G
100
AcDbAlignedDimension
 13
7414.896575107047
 23
10672.90707574032
 33
0.0
 14
7469.896575107047
 24
10672.90707574032
 34
0.0
100
AcDbRotatedDimension
1001
ACAD
1000
DSTYLE
1002
{
1002
}
  0
DIMENSION
  5
22E90
330
747D
100
AcDbEntity
  8
寸法
100
AcDbDimension
  2
*D10
 10
8117.322920841457
 20
10617.90707574032
 30
0.0
 11
8117.322920841457
 21
10981.39235711456
 31
0.0
 70
   160
 71
     5
 42
54.99999999999636
  3
INABA_S40G
100
AcDbAlignedDimension
 13
7469.896575107047
 23
10672.90707574032
 33
0.0
 14
7469.896575107047
 24
10617.90707574032
 34
0.0
 50
90.0
100
AcDbRotatedDimension
1001
ACAD
1000
DSTYLE
1002
{
1002
}
  0
DIMENSION
  5
22E91
330
747D
100
AcDbEntity
  8
寸法
100
AcDbDimension
  2
*D9
 10
4894.896575107047
 20
10888.7152953652
 30
0.0
 11
4531.411293732772
 21
10888.7152953652
 31
0.0
 70
   160
 71
     5
 42
55.00000000003637
  3
INABA_S40G
100
AcDbAlignedDimension
 13
4839.896575107011
 23
10672.90707574022
 33
0.0
 14
4894.896575107047
 24
10672.90707574022
 34
0.0
100
AcDbRotatedDimension
1001
ACAD
1000
DSTYLE
1002
{
1002
}
  0
LINE
  5
22E92
330
747D
100
AcDbEntity
  8
部品1
100
AcDbLine
 10
7413.396575106979
 20
8173.407075740346
 30
0.0
 11
4896.396575106896
 21
8173.407075740252
 31
0.0
  0
LINE
  5
22E93
330
747D
100
AcDbEntity
  8
破線
 48
10.0
100
AcDbLine
 10
6545.396575106976
 20
8196.907075740305
 30
0.0
 11
5764.396575106976
 21
8196.907075740281
 31
0.0
  0
LINE
  5
22E94
330
747D
100
AcDbEntity
  8
部品1
100
AcDbLine
 10
7441.896575106977
 20
8144.90707574035
 30
0.0
 11
4867.896575106977
 21
8144.907075740247
 31
0.0
  0
LINE
  5
22E95
330
747D
100
AcDbEntity
  8
細線
 48
50.0
100
AcDbLine
 10
6141.396575107045
 20
10192.90707574033
 30
0.0
 11
4868.396575107045
 21
10642.90707574022
 31
0.0
  0
LINE
  5
22E96
330
747D
100
AcDbEntity
  8
部品1
100
AcDbLine
 10
4868.396575107019
 20
10642.90707574022
 30
0.0
 11
6141.396575107047
 21
10642.90707574033
 31
0.0
  0
LINE
  5
22E97
330
747D
100
AcDbEntity
  8
細線
 48
50.0
100
AcDbLine
 10
6141.396575107047
 20
10642.90707574033
 30
0.0
 11
4868.396575107047
 21
10192.90707574022
 31
0.0
  0
LINE
  5
22E98
330
747D
100
AcDbEntity
  8
部品1
100
AcDbLine
 10
4868.396575107021
 20
10192.90707574022
 30
0.0
 11
6141.396575107045
 21
10192.90707574033
 31
0.0
  0
LINE
  5
22E99
330
747D
100
AcDbEntity
  8
部品1
100
AcDbLine
 10
4839.896575107047
 20
10672.90707574022
 30
0.0
 11
7469.896575107047
 21
10672.90707574032
 31
0.0
  0
LINE
  5
22E9A
330
747D
100
AcDbEntity
  8
部品1
100
AcDbLine
 10
4867.896575107049
 20
10644.90707574022
 30
0.0
 11
5944.896575107048
 21
10644.90707574023
 31
0.0
  0
LINE
  5
22E9D
330
747D
100
AcDbEntity
  8
部品1
100
AcDbLine
 10
7469.896575106976
 20
8042.90707574027
 30
0.0
 11
4839.896575106994
 21
8042.907075740174
 31
0.0
  0
LINE
  5
22E9E
330
747D
100
AcDbEntity
  8
部品1
100
AcDbLine
 10
4894.896575107047
 20
10644.90707574034
 30
0.0
 11
6142.396575107044
 21
10644.90707574034
 31
0.0
  0
LINE
  5
22EA1
330
747D
100
AcDbEntity
  8
破線
 48
10.0
100
AcDbLine
 10
4919.896575106905
 20
10192.90707574022
 30
0.0
 11
4919.896575106991
 21
8173.407075740254
 31
0.0
  0
LINE
  5
22EA2
330
747D
100
AcDbEntity
  8
部品1
100
AcDbLine
 10
4896.396575106922
 20
10192.90707574022
 30
0.0
 11
4896.396575106989
 21
8173.40707574025
 31
0.0
  0
LINE
  5
22EA3
330
747D
100
AcDbEntity
  8
部品1
100
AcDbLine
 10
4867.896575106977
 20
8097.907075740135
 30
0.0
 11
4867.896575107049
 21
10644.90707574022
 31
0.0
  0
LINE
  5
22EA4
330
747D
100
AcDbEntity
  8
部品1
100
AcDbLine
 10
4839.896575106912
 20
10672.90707574022
 30
0.0
 11
4839.896575106994
 21
8042.907075740139
 31
0.0
  0
LINE
  5
22EA7
330
747D
100
AcDbEntity
  8
部品1
100
AcDbLine
 10
4899.896575106993
 20
8049.907075740138
 30
0.0
 11
4899.896575106991
 21
8077.907075740267
 31
0.0
  0
LINE
  5
22EA8
330
747D
100
AcDbEntity
  8
部品1
100
AcDbLine
 10
4839.896575106993
 20
8097.907075740101
 30
0.0
 11
4839.896575106994
 21
8042.907075740107
 31
0.0
  0
LINE
  5
22EA9
330
747D
100
AcDbEntity
  8
部品1
100
AcDbLine
 10
4867.896575106993
 20
8097.907075740153
 30
0.0
 11
4839.896575106993
 21
8097.907075740153
 31
0.0
  0
LINE
  5
22EAA
330
747D
100
AcDbEntity
  8
部品1
100
AcDbLine
 10
4867.896575106977
 20
8097.907075740138
 30
0.0
 11
4839.896575106993
 21
8097.907075740138
 31
0.0
  0
LINE
  5
22EAB
330
747D
100
AcDbEntity
  8
部品1
100
AcDbLine
 10
4867.896575106977
 20
8097.907075740101
 30
0.0
 11
4839.896575106993
 21
8097.907075740101
 31
0.0
  0
LINE
  5
22EAC
330
747D
100
AcDbEntity
  8
部品1
100
AcDbLine
 10
4890.896575106995
 20
8042.907075740139
 30
0.0
 11
4839.896575106994
 21
8042.907075740139
 31
0.0
  0
LINE
  5
22EAD
330
747D
100
AcDbEntity
  8
部品1
 48
50.0
100
AcDbLine
 10
4896.39657510699
 20
8173.407075740346
 30
0.0
 11
4867.896575106993
 21
8144.90707574035
 31
0.0
  0
LINE
  5
22EAE
330
747D
100
AcDbEntity
  8
部品1
 48
50.0
100
AcDbLine
 10
4868.396575107019
 20
10642.90707574022
 30
0.0
 11
4868.396575107021
 21
10192.90707574022
 31
0.0
  0
LINE
  5
22EAF
330
747D
100
AcDbEntity
  8
部品1
100
AcDbLine
 10
4867.896575106977
 20
8517.907075740152
 30
0.0
 11
4839.896575106976
 21
8517.907075740152
 31
0.0
  0
LINE
  5
22EB0
330
747D
100
AcDbEntity
  8
部品1
100
AcDbLine
 10
4867.896575107014
 20
10617.9070757402
 30
0.0
 11
4839.896575107014
 21
10617.9070757402
 31
0.0
  0
LINE
  5
22EB1
330
747D
100
AcDbEntity
  8
部品1
100
AcDbLine
 10
4894.896575107047
 20
10672.90707574022
 30
0.0
 11
4894.896575107047
 21
10644.90707574022
 31
0.0
  0
LINE
  5
22EB2
330
747D
100
AcDbEntity
  8
部品1
100
AcDbLine
 10
4894.896575107011
 20
10672.90707574019
 30
0.0
 11
4894.896575107015
 21
10644.90707574019
 31
0.0
  0
DIMENSION
  5
22EB3
330
747D
100
AcDbEntity
  8
寸法
100
AcDbDimension
  2
*D8
 10
8117.322920841386
 20
8042.90707574027
 30
0.0
 11
8117.322920841386
 21
7665.045608835407
 31
0.0
 70
   160
 71
     5
 42
54.99999999999636
  3
INABA_S40G
100
AcDbAlignedDimension
 13
7469.896575106976
 23
8097.907075740266
 33
0.0
 14
7469.896575106976
 24
8042.90707574027
 34
0.0
 50
90.0
100
AcDbRotatedDimension
1001
ACAD
1000
DSTYLE
1002
{
1002
}
  0
LINE
  5
22EB6
330
747D
100
AcDbEntity
  8
破線
 48
10.0
100
AcDbLine
 10
7389.89657510698
 20
8196.907075740346
 30
0.0
 11
6595.396575106976
 21
8196.907075740311
 31
0.0
  0
DIMENSION
  5
22EB7
330
747D
100
AcDbEntity
  8
寸法
100
AcDbDimension
  2
*D7
 10
7384.160902108593
 20
9979.300636104653
 30
0.0
 11
6772.617850908511
 21
9979.300636104653
 31
0.0
 70
   160
 71
     5
 42
1273.000000000011
  3
INABA_S40G
100
AcDbAlignedDimension
 13
6168.396575107047
 23
10192.90707574033
 33
0.0
 14
7441.396575107058
 24
10192.90707574032
 34
0.0
100
AcDbRotatedDimension
1001
ACAD
1000
DSTYLE
1002
{
1002
}
  0
LINE
  5
22EB8
330
747D
100
AcDbEntity
  8
細線
 48
50.0
100
AcDbLine
 10
7441.396575107048
 20
10642.90707574032
 30
0.0
 11
6168.396575107045
 21
10192.90707574033
 31
0.0
  0
LINE
  5
22EB9
330
747D
100
AcDbEntity
  8
部品1
100
AcDbLine
 10
6168.396575107047
 20
10642.90707574033
 30
0.0
 11
7441.396575107025
 21
10642.90707574032
 31
0.0
  0
LINE
  5
22EBA
330
747D
100
AcDbEntity
  8
部品1
100
AcDbLine
 10
6168.396575107045
 20
10192.90707574033
 30
0.0
 11
7441.396575107022
 21
10192.90707574032
 31
0.0
  0
LINE
  5
22EBB
330
747D
100
AcDbEntity
  8
細線
 48
50.0
100
AcDbLine
 10
7441.396575107048
 20
10192.90707574032
 30
0.0
 11
6168.396575107047
 21
10642.90707574032
 31
0.0
  0
LINE
  5
22EBC
330
747D
100
AcDbEntity
  8
部品1
100
AcDbLine
 10
6167.396575107048
 20
10644.90707574034
 30
0.0
 11
7441.896575107044
 21
10644.90707574032
 31
0.0
  0
LINE
  5
22EC0
330
747D
100
AcDbEntity
  8
破線
 48
10.0
100
AcDbLine
 10
6545.396575106977
 20
8173.407075740316
 30
0.0
 11
6545.396575106974
 21
10192.90707574033
 31
0.0
  0
LINE
  5
22EC1
330
747D
100
AcDbEntity
  8
破線
 48
10.0
100
AcDbLine
 10
6595.396575106974
 20
8173.407075740316
 30
0.0
 11
6595.396575106994
 21
10192.90707574032
 31
0.0
  0
LINE
  5
22EDA
330
747D
100
AcDbEntity
  8
部品1
100
AcDbLine
 10
5734.896575107047
 20
10672.90707574022
 30
0.0
 11
5734.896575107047
 21
10644.90707574022
 31
0.0
  0
LINE
  5
22EDB
330
747D
100
AcDbEntity
  8
部品1
100
AcDbLine
 10
5734.896575107047
 20
10672.90707574022
 30
0.0
 11
5734.896575107047
 21
10644.90707574022
 31
0.0
  0
LINE
  5
22EDC
330
747D
100
AcDbEntity
  8
部品1
100
AcDbLine
 10
5734.896575107047
 20
10672.90707574034
 30
0.0
 11
5734.896575107047
 21
10644.90707574034
 31
0.0
  0
LINE
  5
22EDD
330
747D
100
AcDbEntity
  8
部品1
 48
50.0
100
AcDbLine
 10
6141.396575107047
 20
10642.90707574033
 30
0.0
 11
6141.396575107047
 21
10192.90707574033
 31
0.0
  0
LINE
  5
22EDE
330
747D
100
AcDbEntity
  8
部品1
 48
50.0
100
AcDbLine
 10
6168.396575107047
 20
10642.90707574032
 30
0.0
 11
6168.396575107047
 21
10192.90707574033
 31
0.0
  0
LINE
  5
22EDF
330
747D
100
AcDbEntity
  8
部品1
 48
50.0
100
AcDbLine
 10
6142.396575107046
 20
10644.90707574033
 30
0.0
 11
6142.396575107047
 21
10192.90707574033
 31
0.0
  0
LINE
  5
22EE0
330
747D
100
AcDbEntity
  8
部品1
 48
50.0
100
AcDbLine
 10
6167.396575107048
 20
10644.90707574033
 30
0.0
 11
6167.396575107048
 21
10192.90707574033
 31
0.0
  0
LINE
  5
22EE1
330
747D
100
AcDbEntity
  8
部品1
100
AcDbLine
 10
6142.396575107047
 20
10192.90707574033
 30
0.0
 11
6167.396575107048
 21
10192.90707574033
 31
0.0
  0
LINE
  5
22EE2
330
747D
100
AcDbEntity
  8
部品1
100
AcDbLine
 10
6119.896575107047
 20
10662.90707574033
 30
0.0
 11
6119.896575107047
 21
10644.90707574033
 31
0.0
  0
LINE
  5
22EE3
330
747D
100
AcDbEntity
  8
部品1
100
AcDbLine
 10
6119.896575107047
 20
10662.90707574033
 30
0.0
 11
6125.896575107048
 21
10662.90707574033
 31
0.0
  0
LINE
  5
22EE4
330
747D
100
AcDbEntity
  8
部品1
100
AcDbLine
 10
6189.896575107048
 20
10662.90707574033
 30
0.0
 11
6189.896575107048
 21
10644.90707574033
 31
0.0
  0
LINE
  5
22EE5
330
747D
100
AcDbEntity
  8
部品1
100
AcDbLine
 10
6183.896575107048
 20
10662.90707574033
 30
0.0
 11
6189.896575107048
 21
10662.90707574033
 31
0.0
  0
LINE
  5
22EE6
330
747D
100
AcDbEntity
  8
部品1
100
AcDbLine
 10
6142.396575107047
 20
10636.90707574032
 30
0.0
 11
6167.396575107048
 21
10636.90707574033
 31
0.0
  0
LINE
  5
22EE7
330
747D
100
AcDbEntity
  8
部品1
100
AcDbLine
 10
6154.896575107048
 20
10672.90707574034
 30
0.0
 11
6154.896575107048
 21
10644.90707574034
 31
0.0
  0
LINE
  5
22EE8
330
747D
100
AcDbEntity
  8
部品1
100
AcDbLine
 10
6994.896575107047
 20
10672.90707574034
 30
0.0
 11
6994.896575107047
 21
10644.90707574034
 31
0.0
  0
LINE
  5
22EE9
330
747D
100
AcDbEntity
  8
破線
 48
10.0
100
AcDbLine
 10
7389.896575107053
 20
10192.90707574032
 30
0.0
 11
7389.896575106982
 21
8173.407075740346
 31
0.0
  0
LINE
  5
22EEA
330
747D
100
AcDbEntity
  8
部品1
100
AcDbLine
 10
7413.396575107047
 20
10192.90707574032
 30
0.0
 11
7413.396575106979
 21
8173.407075740346
 31
0.0
  0
DIMENSION
  5
22EEB
330
747D
100
AcDbEntity
  8
寸法
100
AcDbDimension
  2
*D6
 10
7796.754300969071
 20
10097.68926007143
 30
0.0
 11
7696.754300969072
 21
10322.68926007143
 31
0.0
 70
    32
 71
     5
 42
449.9999999999963
  3
INABA_S40G
100
AcDbAlignedDimension
 13
7441.396575107048
 23
10642.90707574032
 33
0.0
 14
7441.396575107048
 24
10192.90707574032
 34
0.0
 50
90.0
100
AcDbRotatedDimension
1001
ACAD
1000
DSTYLE
1002
{
1002
}
  0
LINE
  5
22EEC
330
747D
100
AcDbEntity
  8
部品1
100
AcDbLine
 10
7441.896575107041
 20
10644.90707574032
 30
0.0
 11
7441.89657510698
 21
8097.907075740282
 31
0.0
  0
DIMENSION
  5
22EED
330
747D
100
AcDbEntity
  8
寸法
100
AcDbDimension
  2
*D5
 10
8117.698686385907
 20
8097.907075740266
 30
0.0
 11
8117.698686385905
 21
9343.9607637905
 31
0.0
 70
   160
  1
6X420=<>
 71
     5
 42
2520.000000000058
  3
INABA_S40G
100
AcDbAlignedDimension
 13
7469.896575107047
 23
10617.90707574032
 33
0.0
 14
7469.896575106976
 24
8097.907075740266
 34
0.0
 50
90.0
100
AcDbRotatedDimension
1001
ACAD
1000
DSTYLE
1002
{
1002
}
  0
LINE
  5
22EEE
330
747D
100
AcDbEntity
  8
部品1
100
AcDbLine
 10
7469.896575107044
 20
10672.90707574032
 30
0.0
 11
7469.896575106976
 21
8042.90707574027
 31
0.0
  0
LINE
  5
22EEF
330
747D
100
AcDbEntity
  8
部品1
100
AcDbLine
 10
7441.896575106977
 20
8097.907075740266
 30
0.0
 11
7469.896575106976
 21
8097.907075740266
 31
0.0
  0
LINE
  5
22EF0
330
747D
100
AcDbEntity
  8
部品1
100
AcDbLine
 10
7469.896575106976
 20
8042.90707574027
 30
0.0
 11
7418.896575106976
 21
8042.90707574027
 31
0.0
  0
LINE
  5
22EF2
330
747D
100
AcDbEntity
  8
部品1
100
AcDbLine
 10
7409.896575106976
 20
8042.907075740265
 30
0.0
 11
7409.896575106976
 21
8077.907075740268
 31
0.0
  0
LINE
  5
22EF4
330
747D
100
AcDbEntity
  8
部品1
 48
50.0
100
AcDbLine
 10
7413.396575106979
 20
8173.407075740346
 30
0.0
 11
7441.896575106977
 21
8144.90707574035
 31
0.0
  0
LINE
  5
22EF5
330
747D
100
AcDbEntity
  8
部品1
100
AcDbLine
 10
7469.896575106978
 20
8097.907075740266
 30
0.0
 11
7469.896575106976
 21
8042.90707574027
 31
0.0
  0
LINE
  5
22EF6
330
747D
100
AcDbEntity
  8
部品1
100
AcDbLine
 10
7441.396575107025
 20
10642.90707574032
 30
0.0
 11
7441.396575107022
 21
10192.90707574032
 31
0.0
  0
LINE
  5
22EF7
330
747D
100
AcDbEntity
  8
部品1
100
AcDbLine
 10
7441.896575107001
 20
8517.90707574028
 30
0.0
 11
7469.896575107002
 21
8517.90707574028
 31
0.0
  0
LINE
  5
22EF8
330
747D
100
AcDbEntity
  8
部品1
100
AcDbLine
 10
7441.896575107048
 20
10617.90707574032
 30
0.0
 11
7469.896575107047
 21
10617.90707574032
 31
0.0
  0
LINE
  5
22EF9
330
747D
100
AcDbEntity
  8
部品1
100
AcDbLine
 10
7414.896575107047
 20
10672.90707574034
 30
0.0
 11
7414.896575107047
 21
10644.90707574034
 31
0.0
  0
LINE
  5
22EFA
330
747D
100
AcDbEntity
  8
部品1
100
AcDbLine
 10
7414.896575107047
 20
10672.90707574032
 30
0.0
 11
7414.896575107047
 21
10644.90707574032
 31
0.0
  0
LINE
  5
22EFB
330
747D
100
AcDbEntity
  8
部品1
100
AcDbLine
 10
6154.896575107048
 20
10672.90707574022
 30
0.0
 11
6154.896575107048
 21
10644.90707574022
 31
0.0
  0
LINE
  5
22EFC
330
747D
100
AcDbEntity
  8
部品1
100
AcDbLine
 10
6154.896575107048
 20
10672.90707574022
 30
0.0
 11
6154.896575107048
 21
10644.90707574022
 31
0.0
  0
LINE
  5
22EFD
330
747D
100
AcDbEntity
  8
部品1
100
AcDbLine
 10
6154.896575107048
 20
10672.90707574034
 30
0.0
 11
6154.896575107048
 21
10644.90707574034
 31
0.0
  0
LINE
  5
22EFF
330
747D
100
AcDbEntity
  8
部品1
100
AcDbLine
 10
5314.896575107048
 20
10672.90707574034
 30
0.0
 11
5314.896575107048
 21
10644.90707574034
 31
0.0
  0
LINE
  5
22F00
330
747D
100
AcDbEntity
  8
部品1
100
AcDbLine
 10
5314.896575107048
 20
10672.90707574022
 30
0.0
 11
5314.896575107048
 21
10644.90707574022
 31
0.0
  0
LINE
  5
22F01
330
747D
100
AcDbEntity
  8
部品1
100
AcDbLine
 10
5314.896575107048
 20
10672.90707574022
 30
0.0
 11
5314.896575107048
 21
10644.90707574022
 31
0.0
  0
LINE
  5
22F02
330
747D
100
AcDbEntity
  8
部品1
100
AcDbLine
 10
6574.896575107047
 20
10672.90707574034
 30
0.0
 11
6574.896575107047
 21
10644.90707574034
 31
0.0
  0
LINE
  5
22F03
330
747D
100
AcDbEntity
  8
破線
 48
10.0
100
AcDbLine
 10
5764.396575106975
 20
8173.407075740284
 30
0.0
 11
5764.396575106983
 21
10192.9070757403
 31
0.0
  0
LINE
  5
22F04
330
747D
100
AcDbEntity
  8
破線
 48
10.0
100
AcDbLine
 10
5714.396575106976
 20
8173.407075740282
 30
0.0
 11
5714.396575106976
 21
10192.90707574029
 31
0.0
  0
LINE
  5
22F05
330
747D
100
AcDbEntity
  8
破線
 48
10.0
100
AcDbLine
 10
5714.396575106976
 20
8196.907075740277
 30
0.0
 11
4919.896575106987
 21
8196.907075740252
 31
0.0
  0
LINE
  5
22F06
330
747D
100
AcDbEntity
  8
部品1
100
AcDbLine
 10
7441.89657510698
 20
8077.907075740267
 30
0.0
 11
7409.896575106976
 21
8077.907075740267
 31
0.0
  0
LINE
  5
22F24
330
747D
100
AcDbEntity
  8
部品1
100
AcDbLine
 10
4867.896575106972
 20
8077.907075740267
 30
0.0
 11
4899.896575106975
 21
8077.907075740267
 31
0.0
  0
LINE
  5
22F25
330
747D
100
AcDbEntity
  8
部品1
100
AcDbLine
 10
4899.896575106975
 20
8042.907075740265
 30
0.0
 11
4899.896575106975
 21
8077.907075740268
 31
0.0
  0
DIMENSION
  5
22F26
330
747D
100
AcDbEntity
  8
寸法
100
AcDbDimension
  2
*D14
 10
6084.160902108592
 20
9979.300636104545
 30
0.0
 11
5472.617850908513
 21
9979.300636104545
 31
0.0
 70
   160
 71
     5
 42
1273.000000000011
  3
INABA_S40G
100
AcDbAlignedDimension
 13
4868.396575107047
 23
10192.90707574022
 33
0.0
 14
6141.396575107059
 24
10192.90707574021
 34
0.0
100
AcDbRotatedDimension
1001
ACAD
1000
DSTYLE
1002
{
1002
}
  0
LINE
  5
23EED
330
747D
100
AcDbEntity
  8
細線
100
AcDbLine
 10
6783.408881756056
 20
8109.907075740256
 30
0.0
 11
6783.408881756056
 21
8104.550104338221
 31
0.0
  0
LINE
  5
24B81
330
747D
100
AcDbEntity
  8
細線
100
AcDbLine
 10
7441.896575106979
 20
8109.907075740252
 30
0.0
 11
7441.896575106979
 21
8077.907075740265
 31
0.0
  0
LINE
  5
25A1B
330
747D
100
AcDbEntity
  8
細線
100
AcDbLine
 10
4867.896575106993
 20
8109.907075740252
 30
0.0
 11
4867.896575106993
 21
8077.907075740265
 31
0.0
  0
LINE
  5
25A21
330
747D
100
AcDbEntity
  8
細線
100
AcDbLine
 10
5526.384268457917
 20
8109.907075740256
 30
0.0
 11
5526.384268457917
 21
8104.550104338221
 31
0.0
  0
LINE
  5
25A23
330
747D
100
AcDbEntity
  8
細線
 48
50.0
100
AcDbLine
 10
4899.896542121972
 20
8058.907075740338
 30
0.0
 11
5359.884268457911
 21
8058.907075740338
 31
0.0
  0
LINE
  5
25A25
330
747D
100
AcDbEntity
  8
細線
100
AcDbLine
 10
5515.384268457915
 20
8068.907075740346
 30
0.0
 11
6139.884268457919
 21
8068.907075740252
 31
0.0
  0
LINE
  5
25A27
330
747D
100
AcDbEntity
  8
細線
100
AcDbLine
 10
6139.884268457919
 20
8075.907075740252
 30
0.0
 11
6139.884268457919
 21
8068.907075740252
 31
0.0
  0
LINE
  5
25A28
330
747D
100
AcDbEntity
  8
細線
100
AcDbLine
 10
6139.884268457919
 20
8075.907075740252
 30
0.0
 11
6154.884268457919
 21
8075.907075740252
 31
0.0
  0
LINE
  5
25A29
330
747D
100
AcDbEntity
  8
細線
100
AcDbLine
 10
4899.896542121972
 20
8081.907075740256
 30
0.0
 11
4953.384268457915
 21
8081.907075740259
 31
0.0
  0
LINE
  5
25A2A
330
747D
100
AcDbEntity
  8
細線
 48
50.0
100
AcDbLine
 10
4953.384268457915
 20
8058.907075740263
 30
0.0
 11
5500.384268457914
 21
8058.907075740263
 31
0.0
  0
LINE
  5
25A2B
330
747D
100
AcDbEntity
  8
細線
100
AcDbLine
 10
4867.896575106993
 20
8109.907075740251
 30
0.0
 11
5541.384268457917
 21
8109.90707574026
 31
0.0
  0
LINE
  5
25A2C
330
747D
100
AcDbEntity
  8
細線
100
AcDbLine
 10
5521.384268457917
 20
8073.907075740256
 30
0.0
 11
5521.384268457917
 21
8081.907075740256
 31
0.0
  0
LINE
  5
25A2D
330
747D
100
AcDbEntity
  8
細線
100
AcDbLine
 10
5521.384268457917
 20
8073.907075740256
 30
0.0
 11
5541.384268457917
 21
8073.907075740256
 31
0.0
  0
LINE
  5
25A2E
330
747D
100
AcDbEntity
  8
細線
100
AcDbLine
 10
5541.384268457917
 20
8073.907075740256
 30
0.0
 11
5541.384268457917
 21
8109.90707574026
 31
0.0
  0
LINE
  5
25A2F
330
747D
100
AcDbEntity
  8
細線
100
AcDbLine
 10
4899.896542121972
 20
8077.907075740267
 30
0.0
 11
4899.896542121972
 21
8081.907075740257
 31
0.0
  0
LINE
  5
25A30
330
747D
100
AcDbEntity
  8
細線
100
AcDbLine
 10
5515.384268457915
 20
8081.907075740256
 30
0.0
 11
5521.384268457917
 21
8081.907075740256
 31
0.0
  0
LINE
  5
25A31
330
747D
100
AcDbEntity
  8
細線
100
AcDbLine
 10
5322.884268457915
 20
8109.907075740256
 30
0.0
 11
5322.884268457917
 21
8081.907075740259
 31
0.0
  0
LINE
  5
25A32
330
747D
100
AcDbEntity
  8
細線
100
AcDbLine
 10
5337.884268457915
 20
8109.907075740256
 30
0.0
 11
5352.884268457916
 21
8081.907075740259
 31
0.0
  0
LINE
  5
25A33
330
747D
100
AcDbEntity
  8
細線
100
AcDbLine
 10
5735.384268457991
 20
8045.907075740363
 30
0.0
 11
5727.884268457986
 21
8068.90707574028
 31
0.0
  0
LINE
  5
25A34
330
747D
100
AcDbEntity
  8
細線
100
AcDbLine
 10
5675.384268457992
 20
8045.907075740352
 30
0.0
 11
5682.884268457987
 21
8068.90707574028
 31
0.0
  0
LINE
  5
25A38
330
747D
100
AcDbEntity
  8
細線
100
AcDbLine
 10
6154.884268457919
 20
8075.907075740252
 30
0.0
 11
6154.884268457917
 21
8050.407075740251
 31
0.0
  0
LINE
  5
25A39
330
747D
100
AcDbEntity
  8
細線
100
AcDbLine
 10
5600.38426845794
 20
8045.907075740315
 30
0.0
 11
5602.71580674869
 21
8050.90707574026
 31
0.0
  0
LINE
  5
25A3A
330
747D
100
AcDbEntity
  8
細線
100
AcDbLine
 10
5602.715806748688
 20
8050.90707574026
 30
0.0
 11
5668.052730167161
 21
8050.90707574025
 31
0.0
  0
LINE
  5
25A3B
330
747D
100
AcDbEntity
  8
細線
100
AcDbLine
 10
5670.384268457917
 20
8045.907075740251
 30
0.0
 11
5740.384268457916
 21
8045.90707574024
 31
0.0
  0
LINE
  5
25A3C
330
747D
100
AcDbEntity
  8
細線
100
AcDbLine
 10
5810.384268457917
 20
8045.907075740231
 30
0.0
 11
5880.384268457916
 21
8045.90707574022
 31
0.0
  0
LINE
  5
25A3D
330
747D
100
AcDbEntity
  8
細線
100
AcDbLine
 10
5950.384268457904
 20
8045.907075740284
 30
0.0
 11
6145.884268457916
 21
8045.907075740256
 31
0.0
  0
LINE
  5
25A3E
330
747D
100
AcDbEntity
  8
細線
100
AcDbLine
 10
5670.384268457917
 20
8045.907075740293
 30
0.0
 11
5668.052730167149
 21
8050.90707574028
 31
0.0
  0
LINE
  5
25A3F
330
747D
100
AcDbEntity
  8
細線
100
AcDbLine
 10
5742.71580674869
 20
8050.907075740241
 30
0.0
 11
5808.052730167164
 21
8050.90707574023
 31
0.0
  0
LINE
  5
25A40
330
747D
100
AcDbEntity
  8
細線
100
AcDbLine
 10
5740.384268457924
 20
8045.907075740256
 30
0.0
 11
5742.715806748691
 21
8050.907075740241
 31
0.0
  0
LINE
  5
25A41
330
747D
100
AcDbEntity
  8
細線
100
AcDbLine
 10
5810.384268457918
 20
8045.907075740272
 30
0.0
 11
5808.052730167151
 21
8050.907075740258
 31
0.0
  0
LINE
  5
25A42
330
747D
100
AcDbEntity
  8
細線
100
AcDbLine
 10
5882.71580674869
 20
8050.907075740221
 30
0.0
 11
5948.052730167163
 21
8050.907075740211
 31
0.0
  0
LINE
  5
25A43
330
747D
100
AcDbEntity
  8
細線
100
AcDbLine
 10
5880.384268457922
 20
8045.907075740236
 30
0.0
 11
5882.71580674869
 21
8050.907075740221
 31
0.0
  0
LINE
  5
25A44
330
747D
100
AcDbEntity
  8
細線
100
AcDbLine
 10
5950.384268457916
 20
8045.907075740252
 30
0.0
 11
5948.052730167149
 21
8050.907075740239
 31
0.0
  0
LINE
  5
25A45
330
747D
100
AcDbEntity
  8
細線
100
AcDbLine
 10
5998.384268457916
 20
8063.907075740274
 30
0.0
 11
5998.384268457916
 21
8045.907075740252
 31
0.0
  0
LINE
  5
25A46
330
747D
100
AcDbEntity
  8
細線
100
AcDbLine
 10
6039.384268457917
 20
8063.907075740273
 30
0.0
 11
6039.384268457917
 21
8045.907075740252
 31
0.0
  0
LINE
  5
25A47
330
747D
100
AcDbEntity
  8
細線
100
AcDbLine
 10
5998.384268457916
 20
8063.907075740274
 30
0.0
 11
6039.384268457917
 21
8063.907075740273
 31
0.0
  0
ARC
  5
25A48
330
747D
100
AcDbEntity
  8
部品1
100
AcDbCircle
 10
6036.840112580641
 20
8045.407075740275
 30
0.0
 40
1.0
100
AcDbArc
 50
160.5287793655287
 51
270.0
  0
LINE
  5
25A49
330
747D
100
AcDbEntity
  8
部品1
 48
0.01
100
AcDbLine
 10
6043.884268457924
 20
8045.907075740275
 30
0.0
 11
6043.884268457924
 21
8044.907075740274
 31
0.0
  0
LINE
  5
25A4A
330
747D
100
AcDbEntity
  8
部品1
 48
0.01
100
AcDbLine
 10
6043.384268457923
 20
8044.407075740275
 30
0.0
 11
6036.840112580641
 21
8044.407075740275
 31
0.0
  0
ARC
  5
25A4B
330
747D
100
AcDbEntity
  8
部品1
 48
0.01
100
AcDbCircle
 10
6043.384268457923
 20
8044.907075740274
 30
0.0
 40
0.5
100
AcDbArc
 50
270.0
 51
0.000000000000007
  0
ARC
  5
25A4C
330
747D
100
AcDbEntity
  8
部品1
100
AcDbCircle
 10
6011.384268457923
 20
8054.407075740275
 30
0.0
 40
26.0
100
AcDbArc
 50
340.5287793655288
 51
0.000000000000007
  0
ARC
  5
25A4D
330
747D
100
AcDbEntity
  8
部品1
 48
0.01
100
AcDbCircle
 10
6035.384268457924
 20
8059.407075740274
 30
0.0
 40
2.0
100
AcDbArc
 50
0.000000000000007
 51
90.0
  0
LINE
  5
25A4E
330
747D
100
AcDbEntity
  8
部品1
100
AcDbLine
 10
6037.384268457924
 20
8054.407075740275
 30
0.0
 11
6037.384268457924
 21
8059.407075740274
 31
0.0
  0
ARC
  5
25A4F
330
747D
100
AcDbEntity
  8
部品1
100
AcDbCircle
 10
6018.884268457924
 20
8070.207075740276
 30
0.0
 40
16.0
100
AcDbArc
 50
285.9423686056284
 51
321.6069559807873
  0
ARC
  5
25A50
330
747D
100
AcDbEntity
  8
部品1
100
AcDbCircle
 10
6033.775876833113
 20
8058.407075740275
 30
0.0
 40
3.0
100
AcDbArc
 50
90.0
 51
141.6069559807873
  0
LINE
  5
25A51
330
747D
100
AcDbEntity
  8
部品1
 48
0.01
100
AcDbLine
 10
6035.384268457924
 20
8061.407075740275
 30
0.0
 11
6033.775876833113
 21
8061.407075740275
 31
0.0
  0
ARC
  5
25A52
330
747D
100
AcDbEntity
  8
部品1
100
AcDbCircle
 10
6018.884268457924
 20
8070.207075740276
 30
0.0
 40
16.0
100
AcDbArc
 50
218.3930440192126
 51
254.0576313943716
  0
LINE
  5
25A53
330
747D
100
AcDbEntity
  8
部品1
100
AcDbLine
 10
6015.313554243653
 20
8054.707075740275
 30
0.0
 11
6022.454982672195
 21
8054.707075740275
 31
0.0
  0
ARC
  5
25A54
330
747D
100
AcDbEntity
  8
部品1
100
AcDbCircle
 10
6015.313554243653
 20
8057.707075740275
 30
0.0
 40
3.0
100
AcDbArc
 50
254.0576313943716
 51
270.0
  0
ARC
  5
25A55
330
747D
100
AcDbEntity
  8
部品1
100
AcDbCircle
 10
6022.454982672195
 20
8057.707075740275
 30
0.0
 40
3.0
100
AcDbArc
 50
270.0
 51
285.9423686056284
  0
LINE
  5
25A56
330
747D
100
AcDbEntity
  8
部品1
 48
0.01
100
AcDbLine
 10
6002.384268457924
 20
8061.407075740275
 30
0.0
 11
6003.992660082736
 21
8061.407075740275
 31
0.0
  0
ARC
  5
25A57
330
747D
100
AcDbEntity
  8
部品1
100
AcDbCircle
 10
6003.992660082736
 20
8058.407075740275
 30
0.0
 40
3.0
100
AcDbArc
 50
38.39304401921268
 51
90.0
  0
ARC
  5
25A58
330
747D
100
AcDbEntity
  8
部品1
 48
0.01
100
AcDbCircle
 10
6002.384268457924
 20
8059.407075740274
 30
0.0
 40
2.0
100
AcDbArc
 50
90.0
 51
180.0
  0
LINE
  5
25A59
330
747D
100
AcDbEntity
  8
部品1
100
AcDbLine
 10
6000.384268457924
 20
8054.407075740275
 30
0.0
 11
6000.384268457924
 21
8059.407075740274
 31
0.0
  0
ARC
  5
25A5A
330
747D
100
AcDbEntity
  8
部品1
100
AcDbCircle
 10
6026.384268457924
 20
8054.407075740275
 30
0.0
 40
26.0
100
AcDbArc
 50
180.0
 51
199.4712206344713
  0
ARC
  5
25A5B
330
747D
100
AcDbEntity
  8
部品1
100
AcDbCircle
 10
6000.928424335207
 20
8045.407075740275
 30
0.0
 40
1.0
100
AcDbArc
 50
270.0
 51
19.47122063447127
  0
LINE
  5
25A5C
330
747D
100
AcDbEntity
  8
部品1
 48
0.01
100
AcDbLine
 10
5994.384268457924
 20
8044.407075740275
 30
0.0
 11
6000.996773887987
 21
8044.407075740275
 31
0.0
  0
LINE
  5
25A5D
330
747D
100
AcDbEntity
  8
部品1
 48
0.01
100
AcDbLine
 10
5993.884268457924
 20
8045.907075740275
 30
0.0
 11
5993.884268457924
 21
8044.907075740274
 31
0.0
  0
LINE
  5
25A5E
330
747D
100
AcDbEntity
  8
部品1
 48
0.01
100
AcDbLine
 10
5993.884268457924
 20
8045.907075740275
 30
0.0
 11
5993.884268457924
 21
8044.907075740274
 31
0.0
  0
ARC
  5
25A5F
330
747D
100
AcDbEntity
  8
部品1
 48
0.01
100
AcDbCircle
 10
5994.384268457924
 20
8044.907075740274
 30
0.0
 40
0.5
100
AcDbArc
 50
180.0
 51
270.0
  0
LINE
  5
25A60
330
747D
100
AcDbEntity
  8
細線
100
AcDbLine
 10
5093.384268457926
 20
8081.907075740268
 30
0.0
 11
5095.715806748693
 21
8086.907075740255
 31
0.0
  0
LINE
  5
25A61
330
747D
100
AcDbEntity
  8
細線
100
AcDbLine
 10
5095.715806748692
 20
8086.907075740255
 30
0.0
 11
5161.052730167165
 21
8086.907075740242
 31
0.0
  0
LINE
  5
25A62
330
747D
100
AcDbEntity
  8
細線
100
AcDbLine
 10
5163.384268457918
 20
8081.907075740286
 30
0.0
 11
5161.052730167151
 21
8086.907075740271
 31
0.0
  0
LINE
  5
25A63
330
747D
100
AcDbEntity
  8
細線
100
AcDbLine
 10
5235.715806748693
 20
8086.907075740233
 30
0.0
 11
5301.052730167167
 21
8086.907075740223
 31
0.0
  0
LINE
  5
25A64
330
747D
100
AcDbEntity
  8
細線
100
AcDbLine
 10
5233.384268457926
 20
8081.907075740248
 30
0.0
 11
5235.715806748693
 21
8086.907075740233
 31
0.0
  0
LINE
  5
25A65
330
747D
100
AcDbEntity
  8
細線
100
AcDbLine
 10
5303.384268457921
 20
8081.907075740266
 30
0.0
 11
5301.052730167154
 21
8086.907075740251
 31
0.0
  0
LINE
  5
25A66
330
747D
100
AcDbEntity
  8
細線
100
AcDbLine
 10
5375.715806748694
 20
8086.907075740212
 30
0.0
 11
5441.052730167165
 21
8086.907075740203
 31
0.0
  0
LINE
  5
25A67
330
747D
100
AcDbEntity
  8
細線
100
AcDbLine
 10
5373.384268457925
 20
8081.907075740229
 30
0.0
 11
5375.715806748694
 21
8086.907075740212
 31
0.0
  0
LINE
  5
25A68
330
747D
100
AcDbEntity
  8
細線
100
AcDbLine
 10
5443.384268457915
 20
8081.907075740259
 30
0.0
 11
5441.052730167153
 21
8086.907075740231
 31
0.0
  0
LINE
  5
25A69
330
747D
100
AcDbEntity
  8
細線
100
AcDbLine
 10
5163.384268457933
 20
8081.907075740256
 30
0.0
 11
5233.384268457933
 21
8081.907075740256
 31
0.0
  0
LINE
  5
25A6A
330
747D
100
AcDbEntity
  8
細線
100
AcDbLine
 10
5303.384268457926
 20
8081.907075740256
 30
0.0
 11
5373.384268457937
 21
8081.907075740256
 31
0.0
  0
LINE
  5
25A6B
330
747D
100
AcDbEntity
  8
細線
100
AcDbLine
 10
5443.384268457915
 20
8081.907075740259
 30
0.0
 11
5509.384268457915
 21
8081.907075740261
 31
0.0
  0
LINE
  5
25A6C
330
747D
100
AcDbEntity
  8
細線
100
AcDbLine
 10
5500.384268457917
 20
8045.907075740327
 30
0.0
 11
5600.38426845794
 21
8045.907075740315
 31
0.0
  0
LINE
  5
25A6D
330
747D
100
AcDbEntity
  8
細線
100
AcDbLine
 10
5023.384268457931
 20
8081.907075740277
 30
0.0
 11
5093.38426845793
 21
8081.907075740277
 31
0.0
  0
LINE
  5
25A6E
330
747D
100
AcDbEntity
  8
細線
100
AcDbLine
 10
5023.384268457919
 20
8081.907075740307
 30
0.0
 11
5021.052730167151
 21
8086.907075740292
 31
0.0
  0
LINE
  5
25A6F
330
747D
100
AcDbEntity
  8
細線
100
AcDbLine
 10
4955.71580674869
 20
8086.907075740274
 30
0.0
 11
5021.052730167164
 21
8086.907075740262
 31
0.0
  0
LINE
  5
25A70
330
747D
100
AcDbEntity
  8
細線
100
AcDbLine
 10
4953.384268457922
 20
8081.907075740287
 30
0.0
 11
4955.71580674869
 21
8086.907075740274
 31
0.0
  0
ARC
  5
25A71
330
747D
100
AcDbEntity
  8
細線
100
AcDbCircle
 10
5705.384261958018
 20
8071.407075740253
 30
0.0
 40
6.0
100
AcDbArc
 50
204.6243183521779
 51
335.3756816478222
  0
LINE
  5
25A72
330
747D
100
AcDbEntity
  8
細線
100
AcDbLine
 10
5500.384268457917
 20
8045.907075740252
 30
0.0
 11
5500.38426845791
 21
8075.907075740254
 31
0.0
  0
LINE
  5
25A73
330
747D
100
AcDbEntity
  8
細線
100
AcDbLine
 10
5500.38426845791
 20
8075.907075740254
 30
0.0
 11
5515.384268457913
 21
8075.90707574025
 31
0.0
  0
LINE
  5
25A74
330
747D
100
AcDbEntity
  8
細線
100
AcDbLine
 10
5515.384268457915
 20
8068.90707574025
 30
0.0
 11
5515.384268457913
 21
8075.90707574025
 31
0.0
  0
ARC
  5
25A75
330
747D
100
AcDbEntity
  8
細線
100
AcDbCircle
 10
5513.384268457917
 20
8081.207075740255
 30
0.0
 40
2.0
100
AcDbArc
 50
270.0
 51
0.000000000000007
  0
LINE
  5
25A76
330
747D
100
AcDbEntity
  8
細線
100
AcDbLine
 10
5515.384268457915
 20
8081.207075740255
 30
0.0
 11
5515.384268457915
 21
8081.907075740256
 31
0.0
  0
LINE
  5
25A77
330
747D
100
AcDbEntity
  8
細線
100
AcDbLine
 10
5513.384268457915
 20
8079.207075740255
 30
0.0
 11
5511.384268457915
 21
8079.207075740255
 31
0.0
  0
ARC
  5
25A78
330
747D
100
AcDbEntity
  8
細線
100
AcDbCircle
 10
5511.384268457916
 20
8081.207075740255
 30
0.0
 40
2.0
100
AcDbArc
 50
180.0
 51
270.0
  0
LINE
  5
25A79
330
747D
100
AcDbEntity
  8
細線
100
AcDbLine
 10
5509.384268457915
 20
8081.207075740255
 30
0.0
 11
5509.384268457915
 21
8081.907075740256
 31
0.0
  0
LINE
  5
25B49
330
747D
100
AcDbEntity
  8
細線
100
AcDbLine
 10
6154.884268457917
 20
8050.407075740251
 30
0.0
 11
6145.884268457916
 21
8050.407075740251
 31
0.0
  0
LINE
  5
25B4A
330
747D
100
AcDbEntity
  8
細線
100
AcDbLine
 10
6145.884268457916
 20
8050.407075740251
 30
0.0
 11
6145.884268457916
 21
8045.907075740256
 31
0.0
  0
LINE
  5
25B4B
330
747D
100
AcDbEntity
  8
細線
100
AcDbLine
 10
6124.884268457918
 20
8068.907075740252
 30
0.0
 11
6124.884268457918
 21
8064.907075740251
 31
0.0
  0
LINE
  5
25BB1
330
747D
100
AcDbEntity
  8
細線
100
AcDbLine
 10
5530.384268457932
 20
8068.907075740343
 30
0.0
 11
5530.384268457932
 21
8063.907075740344
 31
0.0
  0
MTEXT
  5
25C14
330
747D
100
AcDbEntity
  8
寸法
 62
     7
 48
50.0
100
AcDbMText
 10
5516.764598643067
 20
10269.54660651983
 30
0.0
 40
96.0
 41
0.0
 71
     5
 72
     1
  1
棚 3段
  7
STYLE1
 73
     1
 44
1.0
1001
ACAD
1000
MTEXTBEGIN
1070
    73
1070
     1
1070
    44
1040
1.0
1070
    74
1070
     0
1000
MTEXTEND
  0
MTEXT
  5
25C15
330
747D
100
AcDbEntity
  8
寸法
 62
     7
 48
50.0
100
AcDbMText
 10
6816.764598643065
 20
10269.54660651987
 30
0.0
 40
96.0
 41
0.0
 71
     5
 72
     1
  1
棚 3段
  7
STYLE1
 73
     1
 44
1.0
1001
ACAD
1000
MTEXTBEGIN
1070
    73
1070
     1
1070
    44
1040
1.0
1070
    74
1070
     0
1000
MTEXTEND
  0
LINE
  5
25C16
330
747D
100
AcDbEntity
  8
寸法
 48
50.0
100
AcDbLine
 10
6253.563058493195
 20
7973.23467335365
 30
0.0
 11
6472.714998668921
 21
7973.23467335365
 31
0.0
  0
LINE
  5
25C17
330
747D
100
AcDbEntity
  8
寸法
 48
50.0
100
AcDbLine
 10
6129.193571151924
 20
7971.322875520479
 30
0.0
 11
6099.432239160501
 21
7971.322875520479
 31
0.0
  0
LINE
  5
25C18
330
747D
100
AcDbEntity
  8
寸法
 48
50.0
100
AcDbLine
 10
6099.432239160501
 20
7971.322875520479
 30
0.0
 11
6154.896575106977
 21
8008.902326449094
 31
0.0
  0
LINE
  5
25C19
330
747D
100
AcDbEntity
  8
寸法
 48
50.0
100
AcDbLine
 10
6180.599579062028
 20
7940.012716868314
 30
0.0
 11
6129.193571151924
 21
7940.012716868314
 31
0.0
  0
LINE
  5
25C1A
330
747D
100
AcDbEntity
  8
寸法
 48
50.0
100
AcDbLine
 10
6129.193571151924
 20
7940.012716868314
 30
0.0
 11
6129.193571151924
 21
7971.322875520479
 31
0.0
  0
LINE
  5
25C1B
330
747D
100
AcDbEntity
  8
寸法
 48
50.0
100
AcDbLine
 10
6210.360911053452
 20
7971.322875520479
 30
0.0
 11
6154.896575106977
 21
8008.902326449094
 31
0.0
  0
LINE
  5
25C1C
330
747D
100
AcDbEntity
  8
寸法
 48
50.0
100
AcDbLine
 10
6180.599579062028
 20
7971.322875520479
 30
0.0
 11
6210.360911053452
 21
7971.322875520479
 31
0.0
  0
LINE
  5
25C1D
330
747D
100
AcDbEntity
  8
寸法
 48
50.0
100
AcDbLine
 10
6180.599579062028
 20
7940.012716868314
 30
0.0
 11
6180.599579062028
 21
7971.322875520479
 31
0.0
  0
LINE
  5
25C1E
330
747D
100
AcDbEntity
  8
寸法
 48
50.0
100
AcDbLine
 10
6129.193571151924
 20
7940.012716868314
 30
0.0
 11
6180.599579062028
 21
7940.012716868314
 31
0.0
  0
LINE
  5
25C1F
330
747D
100
AcDbEntity
  8
寸法
 48
50.0
100
AcDbLine
 10
6472.714998668921
 20
7973.23467335365
 30
0.0
 11
6383.430780073499
 21
7997.158307623138
 31
0.0
  0
LINE
  5
25C20
330
747D
100
AcDbEntity
  8
寸法
 48
50.0
100
AcDbLine
 10
6383.430780073499
 20
7997.158307623138
 30
0.0
 11
6383.430780073499
 21
7943.494673041347
 31
0.0
  0
LINE
  5
25C21
330
747D
100
AcDbEntity
  8
寸法
 48
50.0
100
AcDbLine
 10
6056.230091720756
 20
7973.23467335365
 30
0.0
 11
5837.078151545032
 21
7973.23467335365
 31
0.0
  0
LINE
  5
25C22
330
747D
100
AcDbEntity
  8
寸法
 48
50.0
100
AcDbLine
 10
5926.362370140453
 20
7997.158307623138
 30
0.0
 11
5926.362370140453
 21
7943.494673041347
 31
0.0
  0
LINE
  5
25C23
330
747D
100
AcDbEntity
  8
寸法
 48
50.0
100
AcDbLine
 10
5837.078151545032
 20
7973.23467335365
 30
0.0
 11
5926.362370140453
 21
7997.158307623138
 31
0.0
  0
DIMENSION
  5
25C24
330
747D
100
AcDbEntity
  8
寸法
100
AcDbDimension
  2
*D16
 10
5562.396575106985
 20
7483.347669971539
 30
0.0
 11
6154.896575106985
 21
7483.347669971539
 31
0.0
 70
   160
  1
有効開口部間口\P<>
 71
     5
 42
1097.0
  3
INABA_S40G
100
AcDbAlignedDimension
 13
6659.396575106986
 23
8042.907075740242
 33
0.0
 14
5562.396575106985
 24
8042.90707574013
 34
0.0
100
AcDbRotatedDimension
1001
ACAD
1000
DSTYLE
1002
{
1002
}
  0
DIMENSION
  5
25C25
330
747D
100
AcDbEntity
  8
寸法
100
AcDbDimension
  2
*D15
 10
7469.896575106976
 20
7278.771106386511
 30
0.0
 11
6154.896575106985
 21
7278.771106386511
 31
0.0
 70
   160
 71
     5
 42
2629.999999999982
  3
INABA_S40G
100
AcDbAlignedDimension
 13
4839.896575106994
 23
8042.907075740037
 33
0.0
 14
7469.896575106976
 24
8042.907075740165
 34
0.0
100
AcDbRotatedDimension
1001
ACAD
1000
DSTYLE
1002
{
1002
}
  0
LINE
  5
261C4
330
747D
100
AcDbEntity
  8
破線
 48
5.0
100
AcDbLine
 10
4729.896575107011
 20
3000.0
 30
0.0
 11
4729.896575107011
 21
2800.0
 31
0.0
  0
LINE
  5
261C5
330
747D
100
AcDbEntity
  8
破線
 48
5.0
100
AcDbLine
 10
4929.89657510701
 20
2800.0
 30
0.0
 11
4729.896575107011
 21
2800.0
 31
0.0
  0
LINE
  5
261C6
330
747D
100
AcDbEntity
  8
破線
 48
5.0
100
AcDbLine
 10
4929.896575107012
 20
3000.0
 30
0.0
 11
4929.89657510701
 21
2800.0
 31
0.0
  0
LINE
  5
261C7
330
747D
100
AcDbEntity
  8
破線
 48
5.0
100
AcDbLine
 10
7569.896575107009
 20
2799.999999999998
 30
0.0
 11
7369.896575107009
 21
2800.0
 31
0.0
  0
LINE
  5
261C8
330
747D
100
AcDbEntity
  8
破線
 48
5.0
100
AcDbLine
 10
7569.896575107009
 20
3000.0
 30
0.0
 11
7569.896575107009
 21
2799.999999999998
 31
0.0
  0
LINE
  5
261C9
330
747D
100
AcDbEntity
  8
破線
 48
5.0
100
AcDbLine
 10
7369.896575107009
 20
3000.0
 30
0.0
 11
7369.896575107009
 21
2800.0
 31
0.0
  0
DIMENSION
  5
261CA
330
747D
100
AcDbEntity
  8
寸法
 48
50.0
100
AcDbDimension
  2
*D17
 10
7369.896575107009
 20
2513.952670699622
 30
0.0
 11
7469.896575107009
 21
2513.952670699622
 31
0.0
 70
   160
 71
     5
 42
200.0
  3
INABA_S40G
100
AcDbAlignedDimension
 13
7569.896575107009
 23
2799.999999999998
 33
0.0
 14
7369.896575107009
 24
2800.0
 34
0.0
100
AcDbRotatedDimension
  0
TEXT
  5
261DC
330
747D
100
AcDbEntity
  8
文字
 62
     7
 48
50.0
100
AcDbText
 10
14798.72402257234
 20
9570.013745883725
 30
0.0
 40
100.0
  1
F12(一般型1.2/多雪地型2.3)
  7
STYLE1
100
AcDbText
  0
TEXT
  5
261DD
330
747D
100
AcDbEntity
  8
文字
 62
     7
 48
50.0
100
AcDbText
 10
13583.11819016569
 20
9570.013745883727
 30
0.0
 40
100.0
  1
母屋中
  7
STYLE1
100
AcDbText
  0
TEXT
  5
261DE
330
747D
100
AcDbEntity
  8
文字
 62
     7
 48
50.0
100
AcDbText
 10
13248.77747366447
 20
8720.013745883731
 30
0.0
 40
100.0
  1
15
  7
STYLE1
100
AcDbText
  0
LINE
  5
261DF
330
747D
100
AcDbEntity
  8
仕様書枠
 48
50.0
100
AcDbLine
 10
16307.19999999998
 20
8349.600000000002
 30
0.0
 11
13127.19999999999
 21
8349.600000000004
 31
0.0
  0
TEXT
  5
261E0
330
747D
100
AcDbEntity
  8
文字
 62
     7
 48
50.0
100
AcDbText
 10
13583.11819016568
 20
8890.013745883731
 30
0.0
 40
100.0
  1
棚板
  7
STYLE1
100
AcDbText
  0
TEXT
  5
261E1
330
747D
100
AcDbEntity
  8
文字
 62
     7
 48
50.0
100
AcDbText
 10
15022.63965474515
 20
8890.013745883727
 30
0.0
 40
100.0
  1
F12            0.6
  7
STYLE1
100
AcDbText
  0
TEXT
  5
261E2
330
747D
100
AcDbEntity
  8
文字
 62
     7
 48
50.0
100
AcDbText
 10
13583.11819016568
 20
9060.013745883729
 30
0.0
 40
100.0
  1
扉
  7
STYLE1
100
AcDbText
  0
TEXT
  5
261E3
330
747D
100
AcDbEntity
  8
文字
 62
     7
 48
50.0
100
AcDbText
 10
15022.63965474515
 20
9060.013745883725
 30
0.0
 40
100.0
  1
F12            0.8
  7
STYLE1
100
AcDbText
  0
TEXT
  5
261E4
330
747D
100
AcDbEntity
  8
文字
 62
     7
 48
50.0
100
AcDbText
 10
13583.11819016568
 20
9230.013745883729
 30
0.0
 40
100.0
  1
正面パネル
  7
STYLE1
100
AcDbText
  0
TEXT
  5
261E5
330
747D
100
AcDbEntity
  8
文字
 62
     7
 48
50.0
100
AcDbText
 10
15022.63965474515
 20
9230.013745883725
 30
0.0
 40
100.0
  1
F12            0.7
  7
STYLE1
100
AcDbText
  0
TEXT
  5
261E6
330
747D
100
AcDbEntity
  8
文字
 62
     7
 48
50.0
100
AcDbText
 10
15022.63965474517
 20
10590.01374588372
 30
0.0
 40
100.0
  1
F12            1.0
  7
STYLE1
100
AcDbText
  0
TEXT
  5
261E7
330
747D
100
AcDbEntity
  8
文字
 62
     7
 48
50.0
100
AcDbText
 10
15022.63965474516
 20
10930.01374588372
 30
0.0
 40
100.0
  1
F12            1.2
  7
STYLE1
100
AcDbText
  0
TEXT
  5
261E8
330
747D
100
AcDbEntity
  8
文字
 62
     7
 48
50.0
100
AcDbText
 10
13248.77747366447
 20
8890.013745883729
 30
0.0
 40
100.0
  1
14
  7
STYLE1
100
AcDbText
  0
TEXT
  5
261E9
330
747D
100
AcDbEntity
  8
文字
 62
     7
 48
50.0
100
AcDbText
 10
13583.11819016569
 20
10930.01374588372
 30
0.0
 40
100.0
  1
根太
  7
STYLE1
100
AcDbText
  0
TEXT
  5
261EA
330
747D
100
AcDbEntity
  8
文字
 62
     7
 48
50.0
100
AcDbText
 10
13583.1181901657
 20
10590.01374588373
 30
0.0
 40
100.0
  1
床パネル
 41
0.9
  7
STYLE1
100
AcDbText
  0
LINE
  5
261EB
330
747D
100
AcDbEntity
  8
仕様書枠
 48
50.0
100
AcDbLine
 10
16307.19999999999
 20
9029.6
 30
0.0
 11
13127.2
 21
9029.600000000002
 31
0.0
  0
LINE
  5
261EC
330
747D
100
AcDbEntity
  8
仕様書枠
 48
50.0
100
AcDbLine
 10
13127.2
 20
11409.6
 30
0.0
 11
13127.19999999999
 21
8349.600000000002
 31
0.0
  0
TEXT
  5
261ED
330
747D
100
AcDbEntity
  8
文字
 62
     7
 48
50.0
100
AcDbText
 10
13229.83081656553
 20
8380.013745883731
 30
0.0
 40
100.0
  1
Y10→溶融亜鉛-5％アルミニウム合金めっき鋼板(JIS G 3317)
 41
0.9
  7
STYLE1
100
AcDbText
  0
TEXT
  5
261EE
330
747D
100
AcDbEntity
  8
文字
 62
     7
 48
50.0
100
AcDbText
 10
13229.83081656553
 20
8550.013745883731
 30
0.0
 40
100.0
  1
F12→溶融亜鉛めっき鋼板(JIS G 3302)
  7
STYLE1
100
AcDbText
  0
LINE
  5
261EF
330
747D
100
AcDbEntity
  8
仕様書枠
 48
50.0
100
AcDbLine
 10
16307.19999999998
 20
8519.600000000002
 30
0.0
 11
13127.19999999999
 21
8519.600000000004
 31
0.0
  0
LINE
  5
261F0
330
747D
100
AcDbEntity
  8
仕様書枠
 48
50.0
100
AcDbLine
 10
16307.19999999998
 20
8689.600000000003
 30
0.0
 11
13127.19999999999
 21
8689.600000000003
 31
0.0
  0
TEXT
  5
261F1
330
747D
100
AcDbEntity
  8
文字
 62
     7
 48
50.0
100
AcDbText
 10
15022.63965474515
 20
9400.013745883725
 30
0.0
 40
100.0
  1
F12            0.7
  7
STYLE1
100
AcDbText
  0
TEXT
  5
261F2
330
747D
100
AcDbEntity
  8
文字
 62
     7
 48
50.0
100
AcDbText
 10
15022.63965474517
 20
9740.013745883725
 30
0.0
 40
100.0
  1
Y10            0.5
  7
STYLE1
100
AcDbText
  0
TEXT
  5
261F3
330
747D
100
AcDbEntity
  8
文字
 62
     7
 48
50.0
100
AcDbText
 10
15022.63965474517
 20
9910.013745883725
 30
0.0
 40
100.0
  1
Y10            0.7
  7
STYLE1
100
AcDbText
  0
TEXT
  5
261F4
330
747D
100
AcDbEntity
  8
文字
 62
     7
 48
50.0
100
AcDbText
 10
15022.63965474517
 20
10080.01374588372
 30
0.0
 40
100.0
  1
Y10            0.7
  7
STYLE1
100
AcDbText
  0
TEXT
  5
261F5
330
747D
100
AcDbEntity
  8
文字
 62
     7
 48
50.0
100
AcDbText
 10
15022.63965474517
 20
10250.01374588372
 30
0.0
 40
100.0
  1
Y10            1.0
  7
STYLE1
100
AcDbText
  0
TEXT
  5
261F6
330
747D
100
AcDbEntity
  8
文字
 62
     7
 48
50.0
100
AcDbText
 10
15022.63965474517
 20
10420.01374588372
 30
0.0
 40
100.0
  1
Y10            1.0
  7
STYLE1
100
AcDbText
  0
TEXT
  5
261F7
330
747D
100
AcDbEntity
  8
文字
 62
     7
 48
50.0
100
AcDbText
 10
15022.63965474518
 20
10760.01374588372
 30
0.0
 40
100.0
  1
F12            1.0
  7
STYLE1
100
AcDbText
  0
TEXT
  5
261F8
330
747D
100
AcDbEntity
  8
文字
 62
     7
 48
50.0
100
AcDbText
 10
15022.63965474517
 20
11100.01374588372
 30
0.0
 40
100.0
  1
F12            1.2
  7
STYLE1
100
AcDbText
  0
TEXT
  5
261F9
330
747D
100
AcDbEntity
  8
文字
 62
     7
 48
50.0
100
AcDbText
 10
13248.77747366447
 20
9230.013745883729
 30
0.0
 40
100.0
  1
12
  7
STYLE1
100
AcDbText
  0
TEXT
  5
261FA
330
747D
100
AcDbEntity
  8
文字
 62
     7
 48
50.0
100
AcDbText
 10
13248.77747366447
 20
9060.013745883729
 30
0.0
 40
100.0
  1
13
  7
STYLE1
100
AcDbText
  0
LINE
  5
261FB
330
747D
100
AcDbEntity
  8
仕様書枠
 48
50.0
100
AcDbLine
 10
16307.19999999999
 20
8859.6
 30
0.0
 11
13127.2
 21
8859.600000000002
 31
0.0
  0
LINE
  5
261FC
330
747D
100
AcDbEntity
  8
仕様書枠
 48
50.0
100
AcDbLine
 10
16307.19999999999
 20
9199.599999999998
 30
0.0
 11
13127.2
 21
9199.600000000001
 31
0.0
  0
TEXT
  5
261FD
330
747D
100
AcDbEntity
  8
文字
 62
     7
 48
50.0
100
AcDbText
 10
13248.77747366447
 20
9400.013745883727
 30
0.0
 40
100.0
  1
11
  7
STYLE1
100
AcDbText
  0
LINE
  5
261FE
330
747D
100
AcDbEntity
  8
仕様書枠
 48
50.0
100
AcDbLine
 10
16307.2
 20
9879.599999999999
 30
0.0
 11
13127.2
 21
9879.600000000001
 31
0.0
  0
LINE
  5
261FF
330
747D
100
AcDbEntity
  8
仕様書枠
 48
50.0
100
AcDbLine
 10
16307.2
 20
10219.6
 30
0.0
 11
13127.2
 21
10219.6
 31
0.0
  0
LINE
  5
26200
330
747D
100
AcDbEntity
  8
仕様書枠
 48
50.0
100
AcDbLine
 10
16307.19999999999
 20
9539.599999999998
 30
0.0
 11
13127.2
 21
9539.6
 31
0.0
  0
LINE
  5
26201
330
747D
100
AcDbEntity
  8
仕様書枠
 48
50.0
100
AcDbLine
 10
16307.19999999999
 20
9369.599999999998
 30
0.0
 11
13127.2
 21
9369.600000000001
 31
0.0
  0
LINE
  5
26202
330
747D
100
AcDbEntity
  8
仕様書枠
 48
50.0
100
AcDbLine
 10
16307.19999999999
 20
9709.6
 30
0.0
 11
13127.2
 21
9709.600000000001
 31
0.0
  0
TEXT
  5
26203
330
747D
100
AcDbEntity
  8
文字
 62
     7
 48
50.0
100
AcDbText
 10
13271.19032244792
 20
10250.01374588373
 30
0.0
 40
100.0
  1
6
  7
STYLE1
100
AcDbText
  0
TEXT
  5
26204
330
747D
100
AcDbEntity
  8
文字
 62
     7
 48
50.0
100
AcDbText
 10
13271.19032244792
 20
10080.01374588373
 30
0.0
 40
100.0
  1
7
  7
STYLE1
100
AcDbText
  0
TEXT
  5
26205
330
747D
100
AcDbEntity
  8
文字
 62
     7
 48
50.0
100
AcDbText
 10
13271.19032244792
 20
9740.013745883729
 30
0.0
 40
100.0
  1
9
  7
STYLE1
100
AcDbText
  0
TEXT
  5
26206
330
747D
100
AcDbEntity
  8
文字
 62
     7
 48
50.0
100
AcDbText
 10
13271.19032244792
 20
9910.01374588373
 30
0.0
 40
100.0
  1
8
  7
STYLE1
100
AcDbText
  0
TEXT
  5
26207
330
747D
100
AcDbEntity
  8
文字
 62
     7
 48
50.0
100
AcDbText
 10
13583.1181901657
 20
9910.013745883727
 30
0.0
 40
100.0
  1
鼻隠シ前後
  7
STYLE1
100
AcDbText
  0
TEXT
  5
26208
330
747D
100
AcDbEntity
  8
文字
 62
     7
 48
50.0
100
AcDbText
 10
13583.11819016569
 20
9740.013745883729
 30
0.0
 40
100.0
  1
屋根パネル
  7
STYLE1
100
AcDbText
  0
TEXT
  5
26209
330
747D
100
AcDbEntity
  8
文字
 62
     7
 48
50.0
100
AcDbText
 10
13583.11819016568
 20
9400.013745883729
 30
0.0
 40
100.0
  1
壁パネル
  7
STYLE1
100
AcDbText
  0
TEXT
  5
2620A
330
747D
100
AcDbEntity
  8
文字
 62
     7
 48
50.0
100
AcDbText
 10
13248.77747366447
 20
9570.013745883727
 30
0.0
 40
100.0
  1
10
  7
STYLE1
100
AcDbText
  0
TEXT
  5
2620B
330
747D
100
AcDbEntity
  8
文字
 62
     7
 48
50.0
100
AcDbText
 10
13583.1181901657
 20
10080.01374588372
 30
0.0
 40
100.0
  1
妻板左右
  7
STYLE1
100
AcDbText
  0
TEXT
  5
2620C
330
747D
100
AcDbEntity
  8
文字
 62
     7
 48
50.0
100
AcDbText
 10
13271.19032244792
 20
10420.01374588372
 30
0.0
 40
100.0
  1
5
  7
STYLE1
100
AcDbText
  0
TEXT
  5
2620D
330
747D
100
AcDbEntity
  8
文字
 62
     7
 48
50.0
100
AcDbText
 10
13583.1181901657
 20
10250.01374588373
 30
0.0
 40
100.0
  1
桁後
  7
STYLE1
100
AcDbText
  0
TEXT
  5
2620E
330
747D
100
AcDbEntity
  8
文字
 62
     7
 48
50.0
100
AcDbText
 10
13583.1181901657
 20
10420.01374588372
 30
0.0
 40
100.0
  1
鴨居
  7
STYLE1
100
AcDbText
  0
TEXT
  5
2620F
330
747D
100
AcDbEntity
  8
文字
 62
     7
 48
50.0
100
AcDbText
 10
13583.1181901657
 20
10760.01374588372
 30
0.0
 40
100.0
  1
柱
  7
STYLE1
100
AcDbText
  0
TEXT
  5
26210
330
747D
100
AcDbEntity
  8
文字
 62
     7
 48
50.0
100
AcDbText
 10
13583.11819016569
 20
11100.01374588373
 30
0.0
 40
100.0
  1
土台枠
  7
STYLE1
100
AcDbText
  0
TEXT
  5
26211
330
747D
100
AcDbEntity
  8
文字
 62
     7
 48
50.0
100
AcDbText
 10
14859.79774614482
 20
11270.01374588372
 30
0.0
 40
100.0
  1
材料（材質）　　単位mm
  7
STYLE1
100
AcDbText
  0
TEXT
  5
26212
330
747D
100
AcDbEntity
  8
文字
 62
     7
 48
50.0
100
AcDbText
 10
13732.03840939434
 20
11270.01374588372
 30
0.0
 40
100.0
  1
部　　品　　名
  7
STYLE1
100
AcDbText
  0
TEXT
  5
26213
330
747D
100
AcDbEntity
  8
文字
 62
     7
 48
50.0
100
AcDbText
 10
13271.19032244792
 20
10760.01374588373
 30
0.0
 40
100.0
  1
3
  7
STYLE1
100
AcDbText
  0
TEXT
  5
26214
330
747D
100
AcDbEntity
  8
文字
 62
     7
 48
50.0
100
AcDbText
 10
13271.19032244792
 20
10590.01374588373
 30
0.0
 40
100.0
  1
4
  7
STYLE1
100
AcDbText
  0
TEXT
  5
26215
330
747D
100
AcDbEntity
  8
文字
 62
     7
 48
50.0
100
AcDbText
 10
13271.19032244792
 20
10930.01374588373
 30
0.0
 40
100.0
  1
2
  7
STYLE1
100
AcDbText
  0
TEXT
  5
26216
330
747D
100
AcDbEntity
  8
文字
 62
     7
 48
50.0
100
AcDbText
 10
13271.19032244792
 20
11100.01374588373
 30
0.0
 40
100.0
  1
1
  7
STYLE1
100
AcDbText
  0
TEXT
  5
26217
330
747D
100
AcDbEntity
  8
文字
 62
     7
 48
50.0
100
AcDbText
 10
13197.42518560407
 20
11270.01374588372
 30
0.0
 40
100.0
  1
品番
  7
STYLE1
100
AcDbText
  0
LINE
  5
26218
330
747D
100
AcDbEntity
  8
仕様書枠
 48
50.0
100
AcDbLine
 10
16307.19999999999
 20
10729.6
 30
0.0
 11
13127.2
 21
10729.6
 31
0.0
  0
LINE
  5
26219
330
747D
100
AcDbEntity
  8
仕様書枠
 48
50.0
100
AcDbLine
 10
16307.19999999999
 20
10389.6
 30
0.0
 11
13127.2
 21
10389.6
 31
0.0
  0
LINE
  5
2621A
330
747D
100
AcDbEntity
  8
仕様書枠
 48
50.0
100
AcDbLine
 10
16307.19999999999
 20
10559.6
 30
0.0
 11
13127.2
 21
10559.6
 31
0.0
  0
LINE
  5
2621B
330
747D
100
AcDbEntity
  8
仕様書枠
 48
50.0
100
AcDbLine
 10
16307.2
 20
11069.6
 30
0.0
 11
13127.2
 21
11069.6
 31
0.0
  0
LINE
  5
2621C
330
747D
100
AcDbEntity
  8
仕様書枠
 48
50.0
100
AcDbLine
 10
16307.2
 20
10899.6
 30
0.0
 11
13127.2
 21
10899.6
 31
0.0
  0
LINE
  5
2621D
330
747D
100
AcDbEntity
  8
仕様書枠
 48
50.0
100
AcDbLine
 10
16307.2
 20
11239.6
 30
0.0
 11
13127.2
 21
11239.6
 31
0.0
  0
LINE
  5
2621E
330
747D
100
AcDbEntity
  8
仕様書枠
 48
50.0
100
AcDbLine
 10
13490.2
 20
11409.6
 30
0.0
 11
13490.20000000001
 21
8689.600000000003
 31
0.0
  0
LINE
  5
2621F
330
747D
100
AcDbEntity
  8
仕様書枠
 48
50.0
100
AcDbLine
 10
14785.2
 20
11409.59999999999
 30
0.0
 11
14785.2
 21
8689.600000000005
 31
0.0
  0
LINE
  5
26220
330
747D
100
AcDbEntity
  8
仕様書枠
 48
50.0
100
AcDbLine
 10
16307.19999999999
 20
8349.600000000002
 30
0.0
 11
16307.2
 21
11409.6
 31
0.0
  0
LINE
  5
26221
330
747D
100
AcDbEntity
  8
仕様書枠
 48
50.0
100
AcDbLine
 10
16307.2
 20
11409.6
 30
0.0
 11
13127.2
 21
11409.6
 31
0.0
  0
LINE
  5
26222
330
747D
100
AcDbEntity
  8
仕様書枠
 48
50.0
100
AcDbLine
 10
16307.2
 20
10049.6
 30
0.0
 11
13127.2
 21
10049.6
 31
0.0
  0
TEXT
  5
26223
330
747D
100
AcDbEntity
  8
文字
 62
     7
 48
50.0
100
AcDbText
 10
15022.63965474515
 20
8720.013745883722
 30
0.0
 40
100.0
  1
F12            2.3
  7
STYLE1
100
AcDbText
  0
TEXT
  5
26224
330
747D
100
AcDbEntity
  8
文字
 62
     7
 48
50.0
100
AcDbText
 10
13583.11819016568
 20
8720.013745883727
 30
0.0
 40
100.0
  1
アンカープレート
  7
STYLE1
100
AcDbText
  0
LINE
  5
280CF
330
747D
100
AcDbEntity
  8
部品1
 48
50.0
100
AcDbLine
 10
7413.39657510704
 20
8517.90707574028
 30
0.0
 11
4896.39657510704
 21
8517.907075740367
 31
0.0
  0
LINE
  5
280D0
330
747D
100
AcDbEntity
  8
部品1
 48
50.0
100
AcDbLine
 10
7413.396575107063
 20
8937.907075740296
 30
0.0
 11
4896.396575107064
 21
8937.907075740382
 31
0.0
  0
LINE
  5
280D1
330
747D
100
AcDbEntity
  8
部品1
100
AcDbLine
 10
7441.896575107026
 20
8937.907075740296
 30
0.0
 11
7469.896575107026
 21
8937.907075740296
 31
0.0
  0
LINE
  5
280D2
330
747D
100
AcDbEntity
  8
部品1
100
AcDbLine
 10
4867.896575107
 20
8937.907075740168
 30
0.0
 11
4839.896575107
 21
8937.907075740168
 31
0.0
  0
LINE
  5
280D3
330
747D
100
AcDbEntity
  8
部品1
100
AcDbLine
 10
7441.896575107084
 20
10197.90707574034
 30
0.0
 11
7469.896575107084
 21
10197.90707574034
 31
0.0
  0
LINE
  5
280D4
330
747D
100
AcDbEntity
  8
部品1
100
AcDbLine
 10
4867.896575107058
 20
10197.90707574021
 30
0.0
 11
4839.896575107058
 21
10197.90707574021
 31
0.0
  0
LINE
  5
28DC8
330
747D
100
AcDbEntity
  8
部品1
100
AcDbLine
 10
4867.896575107024
 20
9357.907075740182
 30
0.0
 11
4839.896575107023
 21
9357.907075740182
 31
0.0
  0
LINE
  5
28DC9
330
747D
100
AcDbEntity
  8
部品1
100
AcDbLine
 10
7441.896575107048
 20
9357.90707574031
 30
0.0
 11
7469.896575107049
 21
9357.90707574031
 31
0.0
  0
LINE
  5
28DCA
330
747D
100
AcDbEntity
  8
部品1
 48
50.0
100
AcDbLine
 10
7413.396575107087
 20
9357.90707574031
 30
0.0
 11
4896.396575107087
 21
9357.907075740397
 31
0.0
  0
TEXT
  5
29390
330
747D
100
AcDbEntity
  8
文字
 62
     7
 48
50.0
100
AcDbText
 10
13204.62817349958
 20
45.77562937909442
 30
0.0
 40
100.0
  1
○床面積 ： 6.92㎡(2.10坪) 　
  7
STYLE2
100
AcDbText
  0
LINE
  5
2987E
330
747D
100
AcDbEntity
  8
破線
 48
5.0
100
AcDbLine
 10
12057.22844517244
 20
3000.000000000001
 30
0.0
 11
12057.22844517244
 21
2800.0
 31
0.0
  0
LINE
  5
2987F
330
747D
100
AcDbEntity
  8
破線
 48
5.0
100
AcDbLine
 10
12257.22844517243
 20
2799.999999999999
 30
0.0
 11
12057.22844517244
 21
2800.0
 31
0.0
  0
LINE
  5
29880
330
747D
100
AcDbEntity
  8
破線
 48
5.0
100
AcDbLine
 10
12257.22844517244
 20
3000.000000000001
 30
0.0
 11
12257.22844517243
 21
2799.999999999999
 31
0.0
  0
DIMENSION
  5
29881
330
747D
100
AcDbEntity
  8
寸法
 48
50.0
100
AcDbDimension
  2
*D18
 10
9482.228445172436
 20
2513.952670699622
 30
0.0
 11
9582.228445172436
 21
2513.952670699622
 31
0.0
 70
   160
 71
     5
 42
199.9999999999963
  3
INABA_S40G
100
AcDbAlignedDimension
 13
9682.228445172434
 23
2799.999999999998
 33
0.0
 14
9482.228445172436
 24
2799.999999999998
 34
0.0
100
AcDbRotatedDimension
  0
LINE
  5
29882
330
747D
100
AcDbEntity
  8
破線
 48
5.0
100
AcDbLine
 10
9482.228445172435
 20
3000.0
 30
0.0
 11
9482.228445172436
 21
2799.999999999998
 31
0.0
  0
LINE
  5
29883
330
747D
100
AcDbEntity
  8
破線
 48
5.0
100
AcDbLine
 10
9682.228445172434
 20
3000.0
 30
0.0
 11
9682.228445172434
 21
2799.999999999998
 31
0.0
  0
LINE
  5
29884
330
747D
100
AcDbEntity
  8
破線
 48
5.0
100
AcDbLine
 10
9682.228445172434
 20
2799.999999999998
 30
0.0
 11
9482.228445172436
 21
2799.999999999998
 31
0.0
  0
DIMENSION
  5
29885
330
747D
100
AcDbEntity
  8
寸法
 48
50.0
100
AcDbDimension
  2
*D19
 10
9332.7284419258
 20
3000.0
 30
0.0
 11
9332.7284419258
 21
2900.000000000001
 31
0.0
 70
   160
 71
     5
 42
200.0000000000018
  3
INABA_S40G
100
AcDbAlignedDimension
 13
9482.228445172436
 23
2799.999999999998
 33
0.0
 14
9457.228445172434
 24
3000.0
 34
0.0
 50
90.0
100
AcDbRotatedDimension
1001
ACAD
1000
DSTYLE
1002
{
1070
   174
1070
     0
1070
   272
1070
     1
1070
   288
1070
     0
1070
   341
1005
0
1002
}
  0
DIMENSION
  5
29886
330
747D
100
AcDbEntity
  8
寸法
 48
50.0
100
AcDbDimension
  2
*D20
 10
8934.120038404067
 20
5349.345258873331
 30
0.0
 11
8944.78551366299
 21
5720.191922115031
 31
0.0
 70
   161
 71
     5
 42
141.0000000000009
  3
INABA_S40G
100
AcDbAlignedDimension
 13
9514.124465331013
 23
5473.72274883468
 33
0.0
 14
9510.071009774387
 24
5332.781025068968
 34
0.0
1001
ACAD
1000
DSTYLE
1002
{
1070
   174
1070
     0
1070
   272
1070
     1
1070
   288
1070
     0
1070
   341
1005
0
1002
}
  0
LINE
  5
29887
330
747D
100
AcDbEntity
  8
細線
 48
50.0
100
AcDbLine
 10
12052.22844517244
 20
5240.0
 30
0.0
 11
12052.22844517244
 21
3150.000000000001
 31
0.0
  0
LINE
  5
29888
330
747D
100
AcDbEntity
  8
細線
 48
50.0
100
AcDbLine
 10
12067.22844517244
 20
5240.0
 30
0.0
 11
12067.22844517244
 21
3150.000000000001
 31
0.0
  0
LINE
  5
29889
330
747D
100
AcDbEntity
  8
細線
 48
50.0
100
AcDbLine
 10
11927.22844517244
 20
5240.0
 30
0.0
 11
11927.22844517244
 21
3150.000000000001
 31
0.0
  0
LINE
  5
2988A
330
747D
100
AcDbEntity
  8
細線
 48
50.0
100
AcDbLine
 10
11912.22844517244
 20
5240.0
 30
0.0
 11
11912.22844517244
 21
3150.000000000001
 31
0.0
  0
LINE
  5
2988B
330
747D
100
AcDbEntity
  8
細線
 48
50.0
100
AcDbLine
 10
11772.22844517244
 20
5240.0
 30
0.0
 11
11772.22844517244
 21
3150.000000000001
 31
0.0
  0
LINE
  5
2988C
330
747D
100
AcDbEntity
  8
細線
 48
50.0
100
AcDbLine
 10
11787.22844517244
 20
5240.0
 30
0.0
 11
11787.22844517244
 21
3150.000000000001
 31
0.0
  0
LINE
  5
2988D
330
747D
100
AcDbEntity
  8
部品1
100
AcDbLine
 10
10869.72844517243
 20
5240.0
 30
0.0
 11
10869.72844517243
 21
3150.0
 31
0.0
  0
LINE
  5
2988E
330
747D
100
AcDbEntity
  8
細線
 48
50.0
100
AcDbLine
 10
10527.22844517243
 20
5240.0
 30
0.0
 11
10527.22844517244
 21
3150.0
 31
0.0
  0
LINE
  5
2988F
330
747D
100
AcDbEntity
  8
細線
 48
50.0
100
AcDbLine
 10
10512.22844517243
 20
5240.0
 30
0.0
 11
10512.22844517244
 21
3150.0
 31
0.0
  0
LINE
  5
29890
330
747D
100
AcDbEntity
  8
細線
 48
50.0
100
AcDbLine
 10
10652.22844517243
 20
5240.0
 30
0.0
 11
10652.22844517244
 21
3150.0
 31
0.0
  0
LINE
  5
29891
330
747D
100
AcDbEntity
  8
細線
 48
50.0
100
AcDbLine
 10
10667.22844517243
 20
5240.0
 30
0.0
 11
10667.22844517244
 21
3150.0
 31
0.0
  0
LINE
  5
29892
330
747D
100
AcDbEntity
  8
細線
 48
50.0
100
AcDbLine
 10
10807.22844517243
 20
5240.0
 30
0.0
 11
10807.22844517244
 21
3150.0
 31
0.0
  0
LINE
  5
29893
330
747D
100
AcDbEntity
  8
細線
 48
50.0
100
AcDbLine
 10
10792.22844517243
 20
5240.0
 30
0.0
 11
10792.22844517244
 21
3150.0
 31
0.0
  0
LINE
  5
29894
330
747D
100
AcDbEntity
  8
部品1
100
AcDbLine
 10
10449.72844517243
 20
5240.0
 30
0.0
 11
10449.72844517243
 21
3150.0
 31
0.0
  0
DIMENSION
  5
29895
330
747D
100
AcDbEntity
  8
寸法
 48
50.0
100
AcDbDimension
  2
*D21
 10
12264.72844517243
 20
5873.657453579305
 30
0.0
 11
12470.77568926692
 21
5873.657453579305
 31
0.0
 70
   160
 71
     5
 42
80.0
  3
INABA_S40G
100
AcDbAlignedDimension
 13
12184.72844517243
 23
5421.810679611654
 33
0.0
 14
12264.72844517243
 24
5420.000000000001
 34
0.0
100
AcDbRotatedDimension
1001
ACAD
1000
DSTYLE
1002
{
1070
   174
1070
     0
1070
   272
1070
     1
1070
   288
1070
     0
1070
   341
1005
0
1002
}
  0
LINE
  5
29896
330
747D
100
AcDbEntity
  8
細線
 48
50.0
100
AcDbLine
 10
9687.228445172435
 20
5240.0
 30
0.0
 11
9687.228445172435
 21
3150.0
 31
0.0
  0
LINE
  5
29897
330
747D
100
AcDbEntity
  8
細線
 48
50.0
100
AcDbLine
 10
9672.228445172434
 20
5240.0
 30
0.0
 11
9672.228445172434
 21
3150.0
 31
0.0
  0
LINE
  5
29898
330
747D
100
AcDbEntity
  8
細線
 48
50.0
100
AcDbLine
 10
9812.228445172435
 20
5240.0
 30
0.0
 11
9812.228445172435
 21
3150.0
 31
0.0
  0
LINE
  5
29899
330
747D
100
AcDbEntity
  8
細線
 48
50.0
100
AcDbLine
 10
9827.228445172433
 20
5240.0
 30
0.0
 11
9827.228445172433
 21
3150.0
 31
0.0
  0
LINE
  5
2989A
330
747D
100
AcDbEntity
  8
細線
 48
50.0
100
AcDbLine
 10
9967.228445172434
 20
5240.0
 30
0.0
 11
9967.228445172434
 21
3150.0
 31
0.0
  0
LINE
  5
2989B
330
747D
100
AcDbEntity
  8
細線
 48
50.0
100
AcDbLine
 10
9952.228445172433
 20
5240.0
 30
0.0
 11
9952.228445172433
 21
3150.0
 31
0.0
  0
LINE
  5
2989C
330
747D
100
AcDbEntity
  8
細線
 48
50.0
100
AcDbLine
 10
10372.22844517243
 20
5240.0
 30
0.0
 11
10372.22844517243
 21
3150.0
 31
0.0
  0
LINE
  5
2989D
330
747D
100
AcDbEntity
  8
細線
 48
50.0
100
AcDbLine
 10
10387.22844517243
 20
5240.0
 30
0.0
 11
10387.22844517243
 21
3150.0
 31
0.0
  0
LINE
  5
2989E
330
747D
100
AcDbEntity
  8
細線
 48
50.0
100
AcDbLine
 10
10247.22844517243
 20
5240.0
 30
0.0
 11
10247.22844517243
 21
3150.0
 31
0.0
  0
LINE
  5
2989F
330
747D
100
AcDbEntity
  8
細線
 48
50.0
100
AcDbLine
 10
10232.22844517243
 20
5240.0
 30
0.0
 11
10232.22844517243
 21
3150.0
 31
0.0
  0
LINE
  5
298A0
330
747D
100
AcDbEntity
  8
細線
 48
50.0
100
AcDbLine
 10
10092.22844517243
 20
5240.0
 30
0.0
 11
10092.22844517243
 21
3150.0
 31
0.0
  0
LINE
  5
298A1
330
747D
100
AcDbEntity
  8
細線
 48
50.0
100
AcDbLine
 10
10107.22844517243
 20
5240.0
 30
0.0
 11
10107.22844517243
 21
3150.0
 31
0.0
  0
LWPOLYLINE
  5
298A2
330
747D
100
AcDbEntity
  8
部品1
100
AcDbPolyline
 90
        4
 70
     1
 43
0.0
 10
10497.99311205821
 20
2120.684457025041
 10
10497.99311205821
 20
1880.792135479508
 10
11261.46377828665
 20
1880.792135479508
 10
11261.46377828665
 20
2120.684457025041
  0
TEXT
  5
298A3
330
747D
100
AcDbEntity
  8
部品1
100
AcDbText
 10
10587.43921348182
 20
1927.790927806517
 30
0.0
 40
135.0
  1
側面図
  7
STYLE2
100
AcDbText
  0
LINE
  5
298A4
330
747D
100
AcDbEntity
  8
部品1
100
AcDbLine
 10
9602.228445172434
 20
3100.0
 30
0.0
 11
12137.22844517243
 21
3100.0
 31
0.0
  0
LINE
  5
298A5
330
747D
100
AcDbEntity
  8
部品1
100
AcDbLine
 10
12177.22844517243
 20
3100.000000000001
 30
0.0
 11
12184.72844517243
 21
3100.000000000001
 31
0.0
  0
LINE
  5
298A6
330
747D
100
AcDbEntity
  8
破線
  6
HIDDEN
 48
5.0
100
AcDbLine
 10
9602.228445172434
 20
3000.0
 30
0.0
 11
9602.228445172434
 21
2995.0
 31
0.0
  0
LINE
  5
298A7
330
747D
100
AcDbEntity
  8
破線
  6
HIDDEN
 48
5.0
100
AcDbLine
 10
9562.228445172442
 20
3000.0
 30
0.0
 11
9562.228445172442
 21
2995.0
 31
0.0
  0
LINE
  5
298A8
330
747D
100
AcDbEntity
  8
破線
  6
HIDDEN
 48
5.0
100
AcDbLine
 10
12177.22844517243
 20
3000.000000000001
 30
0.0
 11
12177.22844517243
 21
2995.000000000001
 31
0.0
  0
LINE
  5
298A9
330
747D
100
AcDbEntity
  8
破線
  6
HIDDEN
 48
5.0
100
AcDbLine
 10
12137.22844517243
 20
3000.000000000001
 30
0.0
 11
12137.22844517243
 21
2995.000000000001
 31
0.0
  0
ARC
  5
298AA
330
747D
100
AcDbEntity
  8
部品1
 48
50.0
100
AcDbCircle
 10
12172.22844517243
 20
3140.000000000001
 30
0.0
 40
5.0
100
AcDbArc
 50
0.0
 51
90.0
  0
ARC
  5
298AB
330
747D
100
AcDbEntity
  8
部品1
 48
50.0
100
AcDbCircle
 10
12142.22844517243
 20
3140.000000000001
 30
0.0
 40
5.0
100
AcDbArc
 50
90.0
 51
180.0
  0
LINE
  5
298AC
330
747D
100
AcDbEntity
  8
部品1
100
AcDbLine
 10
12172.22844517243
 20
3145.000000000001
 30
0.0
 11
12142.22844517243
 21
3145.000000000001
 31
0.0
  0
LINE
  5
298AD
330
747D
100
AcDbEntity
  8
部品1
 48
50.0
100
AcDbLine
 10
12177.22844517243
 20
3140.000000000001
 30
0.0
 11
12177.22844517243
 21
3000.000000000001
 31
0.0
  0
LINE
  5
298AE
330
747D
100
AcDbEntity
  8
部品1
 48
50.0
100
AcDbLine
 10
12137.22844517243
 20
3140.000000000001
 30
0.0
 11
12137.22844517243
 21
3000.000000000001
 31
0.0
  0
ARC
  5
298AF
330
747D
100
AcDbEntity
  8
部品1
 48
50.0
100
AcDbCircle
 10
9597.228445172433
 20
3140.0
 30
0.0
 40
5.0
100
AcDbArc
 50
0.0
 51
90.0
  0
ARC
  5
298B0
330
747D
100
AcDbEntity
  8
部品1
 48
50.0
100
AcDbCircle
 10
9567.228445172434
 20
3140.0
 30
0.0
 40
5.0
100
AcDbArc
 50
90.0
 51
180.0
  0
LINE
  5
298B1
330
747D
100
AcDbEntity
  8
部品1
100
AcDbLine
 10
9567.228445172434
 20
3145.0
 30
0.0
 11
9597.228445172433
 21
3145.0
 31
0.0
  0
LINE
  5
298B2
330
747D
100
AcDbEntity
  8
部品1
 48
50.0
100
AcDbLine
 10
9602.228445172434
 20
3140.0
 30
0.0
 11
9602.228445172434
 21
3000.0
 31
0.0
  0
LINE
  5
298B3
330
747D
100
AcDbEntity
  8
部品1
 48
50.0
100
AcDbLine
 10
9562.228445172435
 20
3140.0
 30
0.0
 11
9562.228445172435
 21
3000.0
 31
0.0
  0
LINE
  5
298B4
330
747D
100
AcDbEntity
  8
破線
  6
HIDDEN
 48
5.0
100
AcDbLine
 10
9602.228445172434
 20
2995.0
 30
0.0
 11
9617.228445172434
 21
2847.299999999999
 31
0.0
  0
LINE
  5
298B5
330
747D
100
AcDbEntity
  8
破線
  6
HIDDEN
 48
5.0
100
AcDbLine
 10
9562.228445172435
 20
2995.0
 30
0.0
 11
9547.228445172434
 21
2847.299999999999
 31
0.0
  0
LINE
  5
298B6
330
747D
100
AcDbEntity
  8
破線
  6
HIDDEN
 48
5.0
100
AcDbLine
 10
9617.228445172434
 20
2847.299999999999
 30
0.0
 11
9617.228445172434
 21
2845.0
 31
0.0
  0
LINE
  5
298B7
330
747D
100
AcDbEntity
  8
破線
  6
HIDDEN
 48
5.0
100
AcDbLine
 10
9547.228445172434
 20
2847.299999999999
 30
0.0
 11
9547.228445172434
 21
2845.0
 31
0.0
  0
LINE
  5
298B8
330
747D
100
AcDbEntity
  8
破線
  6
HIDDEN
 48
5.0
100
AcDbLine
 10
9547.228445172434
 20
2845.0
 30
0.0
 11
9617.228445172434
 21
2845.0
 31
0.0
  0
LINE
  5
298B9
330
747D
100
AcDbEntity
  8
破線
  6
HIDDEN
 48
5.0
100
AcDbLine
 10
12192.22844517243
 20
2847.300000000002
 30
0.0
 11
12192.22844517243
 21
2845.000000000001
 31
0.0
  0
LINE
  5
298BA
330
747D
100
AcDbEntity
  8
破線
  6
HIDDEN
 48
5.0
100
AcDbLine
 10
12177.22844517243
 20
2995.000000000001
 30
0.0
 11
12192.22844517243
 21
2847.300000000002
 31
0.0
  0
LINE
  5
298BB
330
747D
100
AcDbEntity
  8
破線
  6
HIDDEN
 48
5.0
100
AcDbLine
 10
12122.22844517243
 20
2847.300000000002
 30
0.0
 11
12122.22844517243
 21
2845.000000000001
 31
0.0
  0
LINE
  5
298BC
330
747D
100
AcDbEntity
  8
破線
  6
HIDDEN
 48
5.0
100
AcDbLine
 10
12137.22844517243
 20
2995.000000000001
 30
0.0
 11
12122.22844517243
 21
2847.300000000002
 31
0.0
  0
LINE
  5
298BD
330
747D
100
AcDbEntity
  8
破線
  6
HIDDEN
 48
5.0
100
AcDbLine
 10
12192.22844517243
 20
2845.000000000001
 30
0.0
 11
12122.22844517243
 21
2845.000000000001
 31
0.0
  0
DIMENSION
  5
298BE
330
747D
100
AcDbEntity
  8
寸法
 48
50.0
100
AcDbDimension
  2
*D22
 10
9494.728445172434
 20
6093.868140310922
 30
0.0
 11
10898.08737005981
 21
6093.868140310922
 31
0.0
 70
   160
 71
     5
 42
2770.0
  3
INABA_S40G
100
AcDbAlignedDimension
 13
12264.72844517243
 23
5420.000000000001
 33
0.0
 14
9494.728445172434
 24
5475.000000000004
 34
0.0
100
AcDbRotatedDimension
1001
ACAD
1000
DSTYLE
1002
{
1070
   174
1070
     0
1070
   272
1070
     1
1070
   288
1070
     0
1070
   341
1005
0
1002
}
  0
DIMENSION
  5
298BF
330
747D
100
AcDbEntity
  8
寸法
 48
50.0
100
AcDbDimension
  2
*D23
 10
9494.728445172434
 20
5873.657453579305
 30
0.0
 11
9185.090649896844
 21
5873.657453579305
 31
0.0
 70
   160
 71
     5
 42
60.0
  3
INABA_S40G
100
AcDbAlignedDimension
 13
9554.728445172434
 23
5471.001618122977
 33
0.0
 14
9494.728445172434
 24
5475.000000000004
 34
0.0
100
AcDbRotatedDimension
1001
ACAD
1000
DSTYLE
1002
{
1070
   174
1070
     0
1070
   272
1070
     1
1070
   288
1070
     0
1070
   341
1005
0
1002
}
  0
DIMENSION
  5
298C0
330
747D
100
AcDbEntity
  8
寸法
 48
50.0
100
AcDbDimension
  2
*D24
 10
9554.728445172434
 20
5873.657453579305
 30
0.0
 11
10909.49863620163
 21
5873.657453579305
 31
0.0
 70
   160
  1
柱外寸法<>
 71
     5
 42
2630.0
  3
INABA_S40G
100
AcDbAlignedDimension
 13
12184.72844517243
 23
5421.810679611654
 33
0.0
 14
9554.728445172434
 24
5471.001618122977
 34
0.0
100
AcDbRotatedDimension
1001
ACAD
1000
DSTYLE
1002
{
1070
   174
1070
     0
1070
   272
1070
     1
1070
   288
1070
     0
1070
   341
1005
0
1002
}
  0
LINE
  5
298C1
330
747D
100
AcDbEntity
  8
部品1
100
AcDbLine
 10
11984.72844517243
 20
3100.000000000001
 30
0.0
 11
11984.72844517243
 21
3000.000000000001
 31
0.0
  0
LINE
  5
298C2
330
747D
100
AcDbEntity
  8
部品1
100
AcDbLine
 10
9754.728445172434
 20
3100.0
 30
0.0
 11
9754.728445172434
 21
3000.0
 31
0.0
  0
LINE
  5
298C4
330
747D
100
AcDbEntity
  8
部品1
100
AcDbLine
 10
12129.72844517243
 20
5240.0
 30
0.0
 11
12129.72844517244
 21
3150.000000000001
 31
0.0
  0
LINE
  5
298C5
330
747D
100
AcDbEntity
  8
部品1
100
AcDbLine
 10
12184.72844517243
 20
5294.534273387739
 30
0.0
 11
12184.72844517243
 21
3000.000000000001
 31
0.0
  0
LINE
  5
298C6
330
747D
100
AcDbEntity
  8
部品1
100
AcDbLine
 10
10029.72844517243
 20
5240.0
 30
0.0
 11
10029.72844517243
 21
3150.0
 31
0.0
  0
DIMENSION
  5
298C7
330
747D
100
AcDbEntity
  8
寸法
100
AcDbDimension
  2
*D25
 10
8710.978315989175
 20
3100.0
 30
0.0
 11
8710.978315989175
 21
2793.952755905511
 31
0.0
 70
   160
 71
     5
 42
50.0
  3
INABA_S40G
100
AcDbAlignedDimension
 13
9554.728445172434
 23
3150.0
 33
0.0
 14
9499.728445172435
 24
3100.0
 34
0.0
 50
90.0
100
AcDbRotatedDimension
1001
ACAD
1000
DSTYLE
1002
{
1070
   174
1070
     0
1070
   272
1070
     1
1070
   288
1070
     0
1070
   341
1005
0
1002
}
  0
DIMENSION
  5
298C8
330
747D
100
AcDbEntity
  8
寸法
100
AcDbDimension
  2
*D26
 10
8410.978315989174
 20
3000.0
 30
0.0
 11
8410.978315989174
 21
2763.95275590551
 31
0.0
 70
   160
 71
     5
 42
100.0000000000004
  3
INABA_S40G
100
AcDbAlignedDimension
 13
9499.728445172435
 23
3100.0
 33
0.0
 14
8498.227369277302
 24
3000.0
 34
0.0
 50
90.0
100
AcDbRotatedDimension
1001
ACAD
1000
DSTYLE
1002
{
1070
   174
1070
     0
1070
   272
1070
     1
1070
   288
1070
     0
1070
   341
1005
0
1002
}
  0
LINE
  5
298CC
330
747D
100
AcDbEntity
  8
部品1
100
AcDbLine
 10
9554.728445172434
 20
5332.142437928879
 30
0.0
 11
9554.728445172434
 21
3000.0
 31
0.0
  0
LINE
  5
298CD
330
747D
100
AcDbEntity
  8
部品1
100
AcDbLine
 10
9609.728445172434
 20
5240.0
 30
0.0
 11
9609.728445172434
 21
3150.0
 31
0.0
  0
LINE
  5
298CE
330
747D
100
AcDbEntity
  8
部品1
100
AcDbLine
 10
9554.728445172434
 20
3100.0
 30
0.0
 11
9562.228445172435
 21
3100.0
 31
0.0
  0
LINE
  5
298CF
330
747D
100
AcDbEntity
  8
部品1
100
AcDbLine
 10
9554.728445172434
 20
3150.0
 30
0.0
 11
12184.72844517243
 21
3150.000000000001
 31
0.0
  0
LINE
  5
298D0
330
747D
100
AcDbEntity
  8
部品1
100
AcDbLine
 10
9554.728445172434
 20
5240.0
 30
0.0
 11
12184.72844517243
 21
5240.0
 31
0.0
  0
LINE
  5
298D1
330
747D
100
AcDbEntity
  8
部品1
100
AcDbLine
 10
11709.72844517243
 20
5240.0
 30
0.0
 11
11709.72844517243
 21
3150.000000000001
 31
0.0
  0
LINE
  5
298D2
330
747D
100
AcDbEntity
  8
細線
 48
50.0
100
AcDbLine
 10
11212.22844517243
 20
5240.0
 30
0.0
 11
11212.22844517244
 21
3150.0
 31
0.0
  0
LINE
  5
298D3
330
747D
100
AcDbEntity
  8
細線
 48
50.0
100
AcDbLine
 10
11227.22844517243
 20
5240.0
 30
0.0
 11
11227.22844517243
 21
3150.0
 31
0.0
  0
LINE
  5
298D4
330
747D
100
AcDbEntity
  8
細線
 48
50.0
100
AcDbLine
 10
11087.22844517243
 20
5240.0
 30
0.0
 11
11087.22844517243
 21
3150.0
 31
0.0
  0
LINE
  5
298D5
330
747D
100
AcDbEntity
  8
細線
 48
50.0
100
AcDbLine
 10
11072.22844517243
 20
5240.0
 30
0.0
 11
11072.22844517244
 21
3150.0
 31
0.0
  0
LINE
  5
298D6
330
747D
100
AcDbEntity
  8
細線
 48
50.0
100
AcDbLine
 10
10932.22844517243
 20
5240.0
 30
0.0
 11
10932.22844517244
 21
3150.0
 31
0.0
  0
LINE
  5
298D7
330
747D
100
AcDbEntity
  8
細線
 48
50.0
100
AcDbLine
 10
10947.22844517243
 20
5240.0
 30
0.0
 11
10947.22844517243
 21
3150.0
 31
0.0
  0
TEXT
  5
298D8
330
747D
100
AcDbEntity
  8
部品1
 48
50.0
100
AcDbText
 10
11221.30944713353
 20
5497.269092938307
 30
0.0
 40
120.0
  1
37
 50
90.0
  7
STYLE1
100
AcDbText
  0
TEXT
  5
298D9
330
747D
100
AcDbEntity
  8
部品1
 48
50.0
100
AcDbText
 10
10743.67642446844
 20
5634.770351156589
 30
0.0
 40
120.0
  1
1000
  7
STYLE1
100
AcDbText
  0
LINE
  5
298DA
330
747D
100
AcDbEntity
  8
部品1
 48
50.0
100
AcDbLine
 10
11055.40858924471
 20
5598.886329004156
 30
0.0
 11
11055.40858924471
 21
5582.686329004157
 31
0.0
  0
LINE
  5
298DB
330
747D
100
AcDbEntity
  8
部品1
 48
50.0
100
AcDbLine
 10
10755.40858924471
 20
5598.886329004156
 30
0.0
 11
11055.40858924471
 21
5598.886329004156
 31
0.0
  0
LINE
  5
298DC
330
747D
100
AcDbEntity
  8
部品1
100
AcDbLine
 10
9502.273431529395
 20
5473.717735334266
 30
0.0
 11
12257.3403220339
 21
5418.640797709139
 31
0.0
  0
LINE
  5
298DD
330
747D
100
AcDbEntity
  8
部品1
100
AcDbLine
 10
9510.071009774387
 20
5332.781025068968
 30
0.0
 11
12239.39214571228
 21
5293.752599834761
 31
0.0
  0
LINE
  5
298DE
330
747D
100
AcDbEntity
  8
細線
 48
50.0
100
AcDbLine
 10
9527.728445172433
 20
5472.399676375405
 30
0.0
 11
9522.439343616927
 21
5332.31404374805
 31
0.0
  0
LINE
  5
298DF
330
747D
100
AcDbEntity
  8
細線
 48
50.0
100
AcDbLine
 10
12231.69772836612
 20
5419.153422479469
 30
0.0
 11
12226.98076228444
 21
5294.221206544553
 31
0.0
  0
LINE
  5
298E0
330
747D
100
AcDbEntity
  8
部品1
 48
50.0
100
AcDbLine
 10
9494.912731085539
 20
5466.593546164693
 30
0.0
 11
9495.292990863353
 21
5446.666581718281
 31
0.0
  0
LINE
  5
298E1
330
747D
100
AcDbEntity
  8
部品1
 48
50.0
100
AcDbLine
 10
9498.361762969599
 20
5443.091300224809
 30
0.0
 11
9500.065664460963
 21
5353.800803518161
 31
0.0
  0
LINE
  5
298E2
330
747D
100
AcDbEntity
  8
細線
 48
50.0
100
AcDbLine
 10
9495.767868273247
 20
5446.017081841361
 30
0.0
 11
12261.40385301842
 21
5390.392877200533
 31
0.0
  0
LINE
  5
298E3
330
747D
100
AcDbEntity
  8
細線
 48
50.0
100
AcDbLine
 10
9500.528343510534
 20
5353.155570143498
 30
0.0
 11
12250.53200794117
 21
5313.346251169004
 31
0.0
  0
LINE
  5
298E4
330
747D
100
AcDbEntity
  8
部品1
 48
50.0
100
AcDbLine
 10
9503.134436567206
 20
5350.22552202469
 30
0.0
 11
9503.336389187635
 21
5339.642486631597
 31
0.0
  0
ARC
  5
298E5
330
747D
100
AcDbEntity
  8
部品1
 48
50.0
100
AcDbCircle
 10
9501.91145691388
 20
5466.72710057212
 30
0.0
 40
7.0
100
AcDbArc
 50
87.03587545283093
 51
181.0932240293156
  0
ARC
  5
298E6
330
747D
100
AcDbEntity
  8
部品1
 48
50.0
100
AcDbCircle
 10
9510.335115015976
 20
5339.776041039026
 30
0.0
 40
7.0
100
AcDbArc
 50
181.0932240293156
 51
267.8377559869492
  0
ARC
  5
298E7
330
747D
100
AcDbEntity
  8
部品1
100
AcDbCircle
 10
9500.134982640775
 20
5350.168284421506
 30
0.0
 40
3.0
100
AcDbArc
 50
1.093224029315636
 51
80.18775403169875
  0
ARC
  5
298E8
330
747D
100
AcDbEntity
  8
部品1
100
AcDbCircle
 10
9495.362309043169
 20
5443.034062621626
 30
0.0
 40
3.0
100
AcDbArc
 50
1.093224029315636
 51
80.18775403169875
  0
ARC
  5
298E9
330
747D
100
AcDbEntity
  8
部品1
100
AcDbCircle
 10
9495.99286344619
 20
5446.679937159023
 30
0.0
 40
0.7
100
AcDbArc
 50
181.0932240292114
 51
260.1877540314845
  0
ARC
  5
298EA
330
747D
100
AcDbEntity
  8
部品1
100
AcDbCircle
 10
9500.7655370438
 20
5353.814158958904
 30
0.0
 40
0.7
100
AcDbArc
 50
181.0932240292635
 51
260.1877540314845
  0
LINE
  5
298EB
330
747D
100
AcDbEntity
  8
部品1
 48
50.0
100
AcDbLine
 10
12263.94234798314
 20
5410.941152274219
 30
0.0
 11
12261.91172679217
 21
5390.996111016439
 31
0.0
  0
LINE
  5
298EC
330
747D
100
AcDbEntity
  8
部品1
 48
50.0
100
AcDbLine
 10
12258.55916030768
 20
5387.685476943531
 30
0.0
 11
12251.05238104285
 21
5313.952856198518
 31
0.0
  0
LINE
  5
298ED
330
747D
100
AcDbEntity
  8
部品1
 48
50.0
100
AcDbLine
 10
12247.69981455836
 20
5310.642222125606
 30
0.0
 11
12246.62025151862
 21
5300.038605132048
 31
0.0
  0
ARC
  5
298EE
330
747D
100
AcDbEntity
  8
部品1
 48
50.0
100
AcDbCircle
 10
12256.97834741838
 20
5411.650162946994
 30
0.0
 40
7.0
100
AcDbArc
 50
354.1866997665532
 51
87.03587545283093
  0
ARC
  5
298EF
330
747D
100
AcDbEntity
  8
部品1
 48
50.0
100
AcDbCircle
 10
12239.65625095386
 20
5300.747615804821
 30
0.0
 40
7.0
100
AcDbArc
 50
267.8377559869492
 51
354.1866997665532
  0
ARC
  5
298F0
330
747D
100
AcDbEntity
  8
部品1
100
AcDbCircle
 10
12250.68438622897
 20
5310.338360408703
 30
0.0
 40
3.0
100
AcDbArc
 50
95.0921697642102
 51
174.1866997665532
  0
ARC
  5
298F1
330
747D
100
AcDbEntity
  8
部品1
100
AcDbCircle
 10
12261.5437319783
 20
5387.381615226627
 30
0.0
 40
3.0
100
AcDbArc
 50
95.0921697642102
 51
174.1866997665532
  0
ARC
  5
298F2
330
747D
100
AcDbEntity
  8
部品1
100
AcDbCircle
 10
12261.21532673569
 20
5391.067012083716
 30
0.0
 40
0.7
100
AcDbArc
 50
275.0921697642102
 51
354.1866997665532
  0
ARC
  5
298F3
330
747D
100
AcDbEntity
  8
部品1
100
AcDbCircle
 10
12250.35598098637
 20
5314.023757265793
 30
0.0
 40
0.7
100
AcDbArc
 50
275.0921697642102
 51
354.1866997667087
  0
LINE
  5
298F4
330
747D
100
AcDbEntity
  8
部品1
100
AcDbLine
 10
10729.95357560167
 20
5600.204387963018
 30
0.0
 11
11055.40858924471
 21
5582.686329004157
 31
0.0
  0
LINE
  5
298F5
330
747D
100
AcDbEntity
  8
部品1
100
AcDbLine
 10
11289.72844517243
 20
5240.0
 30
0.0
 11
11289.72844517243
 21
3150.000000000002
 31
0.0
  0
LINE
  5
298F6
330
747D
100
AcDbEntity
  8
細線
 48
50.0
100
AcDbLine
 10
11367.22844517243
 20
5240.0
 30
0.0
 11
11367.22844517243
 21
3150.000000000002
 31
0.0
  0
LINE
  5
298F7
330
747D
100
AcDbEntity
  8
細線
 48
50.0
100
AcDbLine
 10
11352.22844517243
 20
5240.0
 30
0.0
 11
11352.22844517244
 21
3150.000000000002
 31
0.0
  0
LINE
  5
298F8
330
747D
100
AcDbEntity
  8
細線
 48
50.0
100
AcDbLine
 10
11492.22844517243
 20
5240.0
 30
0.0
 11
11492.22844517244
 21
3150.000000000002
 31
0.0
  0
LINE
  5
298F9
330
747D
100
AcDbEntity
  8
細線
 48
50.0
100
AcDbLine
 10
11507.22844517243
 20
5240.0
 30
0.0
 11
11507.22844517243
 21
3150.000000000002
 31
0.0
  0
LINE
  5
298FA
330
747D
100
AcDbEntity
  8
細線
 48
50.0
100
AcDbLine
 10
11647.22844517243
 20
5240.0
 30
0.0
 11
11647.22844517243
 21
3150.000000000002
 31
0.0
  0
LINE
  5
298FB
330
747D
100
AcDbEntity
  8
細線
 48
50.0
100
AcDbLine
 10
11632.22844517243
 20
5240.0
 30
0.0
 11
11632.22844517243
 21
3150.000000000002
 31
0.0
  0
LINE
  5
298FC
330
747D
100
AcDbEntity
  8
部品1
 48
50.0
100
AcDbLine
 10
10404.72844517243
 20
3100.000000000001
 30
0.0
 11
10404.72844517243
 21
3000.000000000002
 31
0.0
  0
LINE
  5
298FD
330
747D
100
AcDbEntity
  8
部品1
 48
50.0
100
AcDbLine
 10
10604.72844517243
 20
3100.000000000001
 30
0.0
 11
10604.72844517243
 21
3000.000000000002
 31
0.0
  0
LINE
  5
298FE
330
747D
100
AcDbEntity
  8
部品1
 48
50.0
100
AcDbLine
 10
11209.72844517243
 20
3100.000000000001
 30
0.0
 11
11209.72844517243
 21
3000.000000000002
 31
0.0
  0
LINE
  5
298FF
330
747D
100
AcDbEntity
  8
部品1
 48
50.0
100
AcDbLine
 10
11409.72844517243
 20
3100.000000000001
 30
0.0
 11
11409.72844517243
 21
3000.000000000002
 31
0.0
  0
LINE
  5
29AE2
330
747D
100
AcDbEntity
  8
部品1
 48
50.0
100
AcDbLine
 10
7413.396575107111
 20
9777.907075740325
 30
0.0
 11
4896.396575107111
 21
9777.907075740412
 31
0.0
  0
LINE
  5
29AE3
330
747D
100
AcDbEntity
  8
部品1
100
AcDbLine
 10
7441.896575107072
 20
9777.907075740325
 30
0.0
 11
7469.896575107073
 21
9777.907075740325
 31
0.0
  0
LINE
  5
29AE4
330
747D
100
AcDbEntity
  8
部品1
100
AcDbLine
 10
4867.896575107047
 20
9777.907075740197
 30
0.0
 11
4839.896575107047
 21
9777.907075740197
 31
0.0
  0
DIMENSION
  5
2A5E2
330
747D
100
AcDbEntity
  8
寸法
100
AcDbDimension
  2
*D27
 10
12889.65560314456
 20
5420.000000000001
 30
0.0
 11
12789.64379212094
 21
4260.000000000003
 31
0.0
 70
    32
 71
     5
 42
2320.0
  3
INABA_S40G
100
AcDbAlignedDimension
 13
12184.72844517243
 23
3100.000000000001
 33
0.0
 14
12264.72844517243
 24
5420.000000000001
 34
0.0
 50
90.0
100
AcDbRotatedDimension
1001
ACAD
1000
DSTYLE
1002
{
1070
   174
1070
     0
1070
   272
1070
     1
1070
   288
1070
     0
1070
   341
1005
0
1002
}
  0
DIMENSION
  5
2A5F8
330
747D
100
AcDbEntity
  8
寸法
100
AcDbDimension
  2
*D30
 10
8410.978315989174
 20
5475.0
 30
0.0
 11
8310.96650496555
 21
4287.499999999999
 31
0.0
 70
    32
 71
     5
 42
2375.000000000004
  3
INABA_S40G
100
AcDbAlignedDimension
 13
9554.728445172434
 23
3099.999999999996
 33
0.0
 14
9494.728445172434
 24
5475.0
 34
0.0
 50
90.0
100
AcDbRotatedDimension
1001
ACAD
1000
DSTYLE
1002
{
1070
   174
1070
     0
1070
   272
1070
     1
1070
   288
1070
     0
1070
   341
1005
0
1002
}
  0
DIMENSION
  5
2A5F9
330
747D
100
AcDbEntity
  8
寸法
100
AcDbDimension
  2
*D29
 10
8710.978315989175
 20
3149.999999999996
 30
0.0
 11
8610.966504965551
 21
4194.999999999997
 31
0.0
 70
    32
 71
     5
 42
2090.000000000001
  3
INABA_S40G
100
AcDbAlignedDimension
 13
9554.728445172434
 23
5239.999999999996
 33
0.0
 14
9554.728445172434
 24
3149.999999999995
 34
0.0
 50
90.0
100
AcDbRotatedDimension
1001
ACAD
1000
DSTYLE
1002
{
1070
   174
1070
     0
1070
   272
1070
     1
1070
   288
1070
     0
1070
   341
1005
0
1002
}
  0
DIMENSION
  5
2A5FA
330
747D
100
AcDbEntity
  8
寸法
100
AcDbDimension
  2
*D28
 10
9009.819803775178
 20
3161.999999999996
 30
0.0
 11
8909.807992751558
 21
4196.999999999996
 31
0.0
 70
    32
  1
有効開口部高サ<>
 71
     5
 42
2070.0
  3
INABA_S40G
100
AcDbAlignedDimension
 13
9554.728445172438
 23
5231.999999999995
 33
0.0
 14
9554.728445172434
 24
3161.999999999995
 34
0.0
 50
90.0
100
AcDbRotatedDimension
1001
ACAD
1000
DSTYLE
1002
{
1070
   174
1070
     0
1070
   272
1070
     1
1070
   288
1070
     0
1070
   341
1005
0
1002
}
  0
LWPOLYLINE
  5
2AA1C
330
747D
100
AcDbEntity
  8
部品1
 48
50.0
100
AcDbPolyline
 90
        4
 70
     1
 43
0.0
 10
6214.946575107008
 20
4170.250000000012
 10
6217.84657510701
 20
4170.250000000012
 10
6217.84657510701
 20
4179.750000000011
 10
6214.946575107008
 20
4179.750000000011
  0
CIRCLE
  5
2AA1D
330
747D
100
AcDbEntity
  8
部品1
 48
50.0
100
AcDbCircle
 10
6216.396575107009
 20
4175.000000000012
 30
0.0
 40
9.0
  0
ARC
  5
2AA1E
330
747D
100
AcDbEntity
  8
細線
 48
50.0
100
AcDbCircle
 10
6216.396575107009
 20
4175.000000000012
 30
0.0
 40
4.0
100
AcDbArc
 50
111.2538091853132
 51
248.7461908146868
  0
ARC
  5
2AA1F
330
747D
100
AcDbEntity
  8
細線
 48
50.0
100
AcDbCircle
 10
6216.396575107009
 20
4175.000000000012
 30
0.0
 40
17.5
100
AcDbArc
 50
306.4837370612677
 51
233.5162629387323
  0
LINE
  5
2AA20
330
747D
100
AcDbEntity
  8
細線
 48
50.0
100
AcDbLine
 10
6226.396575107005
 20
4151.141039419129
 30
0.0
 11
6226.39657510701
 21
4160.12552521937
 31
0.0
  0
LINE
  5
2AA21
330
747D
100
AcDbEntity
  8
細線
 48
50.0
100
AcDbLine
 10
6206.396575107009
 20
4151.141039419131
 30
0.0
 11
6206.396575107009
 21
4160.125525219366
 31
0.0
  0
ARC
  5
2AA22
330
747D
100
AcDbEntity
  8
細線
 48
50.0
100
AcDbCircle
 10
6216.396575107009
 20
4175.000000000012
 30
0.0
 40
26.5
100
AcDbArc
 50
249.332683506403
 51
290.6673164933835
  0
ARC
  5
2AA23
330
747D
100
AcDbEntity
  8
細線
 48
50.0
100
AcDbCircle
 10
6225.396575107001
 20
4151.141039419129
 30
0.0
 40
1.0
100
AcDbArc
 50
290.667316493597
 51
359.9999999998958
  0
ARC
  5
2AA24
330
747D
100
AcDbEntity
  8
細線
 48
50.0
100
AcDbCircle
 10
6207.396575107009
 20
4151.141039419131
 30
0.0
 40
1.0
100
AcDbArc
 50
180.0
 51
249.3326835066164
  0
ARC
  5
2AA25
330
747D
100
AcDbEntity
  8
細線
 48
50.0
100
AcDbCircle
 10
6205.396575107009
 20
4160.125525219366
 30
0.0
 40
1.0
100
AcDbArc
 50
0.0
 51
53.51626293873231
  0
ARC
  5
2AA26
330
747D
100
AcDbEntity
  8
細線
 48
50.0
100
AcDbCircle
 10
6227.396575107013
 20
4160.12552521937
 30
0.0
 40
1.0
100
AcDbArc
 50
126.4837370615282
 51
180.0
  0
ARC
  5
2AA27
330
747D
100
AcDbEntity
  8
細線
 48
50.0
100
AcDbCircle
 10
6216.396575107009
 20
4175.000000000012
 30
0.0
 40
21.5
100
AcDbArc
 50
255.8014401250294
 51
284.1985598749706
  0
ARC
  5
2AA28
330
747D
100
AcDbEntity
  8
細線
 48
50.0
100
AcDbCircle
 10
6216.396575107009
 20
4175.000000000012
 30
0.0
 40
16.5
100
AcDbArc
 50
251.9694646069326
 51
288.0305353930674
  0
LINE
  5
2AA29
330
747D
100
AcDbEntity
  8
細線
 48
50.0
100
AcDbLine
 10
6221.89657510701
 20
4154.447627874205
 30
0.0
 11
6221.89657510701
 21
4159.025019561542
 31
0.0
  0
LINE
  5
2AA2A
330
747D
100
AcDbEntity
  8
細線
 48
50.0
100
AcDbLine
 10
6210.896575107009
 20
4154.447627874205
 30
0.0
 11
6210.896575107009
 21
4159.025019561539
 31
0.0
  0
ARC
  5
2AA2B
330
747D
100
AcDbEntity
  8
細線
 48
50.0
100
AcDbCircle
 10
6211.196575107012
 20
4159.025019561539
 30
0.0
 40
0.3
100
AcDbArc
 50
71.96946460693259
 51
180.0
  0
ARC
  5
2AA2C
330
747D
100
AcDbEntity
  8
細線
 48
50.0
100
AcDbCircle
 10
6221.59657510701
 20
4159.025019561542
 30
0.0
 40
0.3
100
AcDbArc
 50
0.0
 51
108.0305353930674
  0
ARC
  5
2AA2D
330
747D
100
AcDbEntity
  8
細線
 48
50.0
100
AcDbCircle
 10
6221.596575107007
 20
4154.447627874205
 30
0.0
 40
0.3
100
AcDbArc
 50
284.1985598747557
 51
0.0000000001042204
  0
ARC
  5
2AA2E
330
747D
100
AcDbEntity
  8
細線
 48
50.0
100
AcDbCircle
 10
6211.196575107012
 20
4154.447627874205
 30
0.0
 40
0.3
100
AcDbArc
 50
180.0
 51
255.8014401248145
  0
CIRCLE
  5
2AA2F
330
747D
100
AcDbEntity
  8
細線
 48
50.0
100
AcDbCircle
 10
6216.396575107009
 20
4175.000000000012
 30
0.0
 40
12.0
  0
ARC
  5
2AA30
330
747D
100
AcDbEntity
  8
部品1
 48
50.0
100
AcDbCircle
 10
6216.396575107009
 20
4225.000000000012
 30
0.0
 40
8.5
100
AcDbArc
 50
114.315739171091
 51
245.684260828909
  0
CIRCLE
  5
2AA31
330
747D
100
AcDbEntity
  8
細線
 48
50.0
100
AcDbCircle
 10
6216.396575107009
 20
4225.000000000012
 30
0.0
 40
4.5
  0
LWPOLYLINE
  5
2AA32
330
747D
100
AcDbEntity
  8
部品1
 48
50.0
100
AcDbPolyline
 90
        2
 70
     0
 43
0.0
 10
6212.896575107009
 20
4243.674849396994
 10
6212.896575107009
 20
4232.745966692426
  0
CIRCLE
  5
2AA33
330
747D
100
AcDbEntity
  8
部品1
 48
50.0
100
AcDbCircle
 10
6216.396575107009
 20
4225.000000000012
 30
0.0
 40
19.0
  0
LWPOLYLINE
  5
2AA34
330
747D
100
AcDbEntity
  8
部品1
 48
50.0
100
AcDbPolyline
 90
        2
 70
     0
 43
0.0
 10
6212.896575107009
 20
4217.254033307596
 10
6212.896575107009
 20
4206.325150603029
  0
LWPOLYLINE
  5
2AA35
330
747D
100
AcDbEntity
  8
部品1
 48
50.0
100
AcDbPolyline
 90
        2
 70
     0
 43
0.0
 10
6219.896575107009
 20
4232.745966692426
 10
6219.896575107009
 20
4243.674849396994
  0
ARC
  5
2AA36
330
747D
100
AcDbEntity
  8
部品1
 48
50.0
100
AcDbCircle
 10
6216.396575107009
 20
4225.000000000012
 30
0.0
 40
8.5
100
AcDbArc
 50
294.315739171091
 51
65.68426082890896
  0
LWPOLYLINE
  5
2AA37
330
747D
100
AcDbEntity
  8
部品1
 48
50.0
100
AcDbPolyline
 90
        2
 70
     0
 43
0.0
 10
6219.896575107009
 20
4206.325150603029
 10
6219.896575107009
 20
4217.254033307596
  0
ARC
  5
2AA38
330
747D
100
AcDbEntity
  8
細線
 48
50.0
100
AcDbCircle
 10
6216.396575107009
 20
4225.000000000012
 30
0.0
 40
16.5
100
AcDbArc
 50
332.0012352654438
 51
27.99876473455621
  0
ARC
  5
2AA39
330
747D
100
AcDbEntity
  8
細線
 48
50.0
100
AcDbCircle
 10
6216.396575107009
 20
4225.000000000012
 30
0.0
 40
14.0
100
AcDbArc
 50
326.407443611277
 51
33.59255638872305
  0
LINE
  5
2AA3A
330
747D
100
AcDbEntity
  8
細線
 48
50.0
100
AcDbLine
 10
6201.827772822678
 20
4232.745966692426
 30
0.0
 11
6204.734671317321
 21
4232.745966692426
 31
0.0
  0
LINE
  5
2AA3B
330
747D
100
AcDbEntity
  8
細線
 48
50.0
100
AcDbLine
 10
6201.827772822678
 20
4217.254033307596
 30
0.0
 11
6204.734671317321
 21
4217.254033307596
 31
0.0
  0
LINE
  5
2AA3C
330
747D
100
AcDbEntity
  8
細線
 48
50.0
100
AcDbLine
 10
6228.058478896699
 20
4232.745966692426
 30
0.0
 11
6230.965377391345
 21
4232.745966692426
 31
0.0
  0
LINE
  5
2AA3D
330
747D
100
AcDbEntity
  8
細線
 48
50.0
100
AcDbLine
 10
6228.058478896699
 20
4217.254033307596
 30
0.0
 11
6230.965377391345
 21
4217.254033307596
 31
0.0
  0
ARC
  5
2AA3E
330
747D
100
AcDbEntity
  8
細線
 48
50.0
100
AcDbCircle
 10
6216.396575107009
 20
4225.000000000012
 30
0.0
 40
14.0
100
AcDbArc
 50
146.4074436112769
 51
213.592556388723
  0
ARC
  5
2AA3F
330
747D
100
AcDbEntity
  8
細線
 48
50.0
100
AcDbCircle
 10
6216.396575107009
 20
4225.000000000012
 30
0.0
 40
16.5
100
AcDbArc
 50
152.0012352654438
 51
207.9987647345562
  0
ARC
  5
2AA40
330
747D
100
AcDbEntity
  8
部品1
 48
50.0
100
AcDbCircle
 10
6189.89657510701
 20
4250.500000000012
 30
0.0
 40
5.0
100
AcDbArc
 50
90.0
 51
180.0
  0
ARC
  5
2AA41
330
747D
100
AcDbEntity
  8
部品1
 48
50.0
100
AcDbCircle
 10
6189.89657510701
 20
4139.500000000011
 30
0.0
 40
5.0
100
AcDbArc
 50
180.0
 51
270.0
  0
ARC
  5
2AA42
330
747D
100
AcDbEntity
  8
部品1
 48
50.0
100
AcDbCircle
 10
6242.89657510701
 20
4139.500000000011
 30
0.0
 40
5.0
100
AcDbArc
 50
270.0
 51
0.0
  0
ARC
  5
2AA43
330
747D
100
AcDbEntity
  8
部品1
 48
50.0
100
AcDbCircle
 10
6242.89657510701
 20
4250.500000000012
 30
0.0
 40
5.0
100
AcDbArc
 50
0.0
 51
90.0
  0
LINE
  5
2AA44
330
747D
100
AcDbEntity
  8
部品1
 48
50.0
100
AcDbLine
 10
6184.896575107009
 20
4139.500000000011
 30
0.0
 11
6184.896575107009
 21
4250.500000000012
 31
0.0
  0
LINE
  5
2AA45
330
747D
100
AcDbEntity
  8
部品1
 48
50.0
100
AcDbLine
 10
6242.89657510701
 20
4134.500000000012
 30
0.0
 11
6189.89657510701
 21
4134.500000000012
 31
0.0
  0
LINE
  5
2AA46
330
747D
100
AcDbEntity
  8
部品1
 48
50.0
100
AcDbLine
 10
6247.896575107009
 20
4250.500000000012
 30
0.0
 11
6247.896575107009
 21
4139.500000000011
 31
0.0
  0
ENDSEC
  0
SECTION
  2
OBJECTS
  0
DICTIONARY
  5
7471
330
0
100
AcDbDictionary
281
     1
  3
ACAD_COLOR
350
159B0
  3
ACAD_GROUP
350
7472
  3
ACAD_LAYOUT
350
159B1
  3
ACAD_MATERIAL
350
159AF
  3
ACAD_MLINESTYLE
350
7473
  3
ACAD_PLOTSETTINGS
350
159B2
  3
ACAD_PLOTSTYLENAME
350
159AD
  3
ACDBHEADERROUNDTRIPXREC
350
2AA55
  3
AcDbVariableDictionary
350
2AA51
  3
CONTENTDICTIONARY
350
E71C
  3
DRAWINGVARIABLESDICT
350
F3B9
  0
DICTIONARY
  5
1FFA9
330
7467
100
AcDbDictionary
280
     1
281
     1
  3
ACAD_LAYERSTATES
360
1FFAA
  0
DICTIONARY
  5
159B0
102
{ACAD_REACTORS
330
7471
102
}
330
7471
100
AcDbDictionary
281
     1
  0
DICTIONARY
  5
7472
102
{ACAD_REACTORS
330
7471
102
}
330
7471
100
AcDbDictionary
281
     1
  0
DICTIONARY
  5
159B1
102
{ACAD_REACTORS
330
7471
102
}
330
7471
100
AcDbDictionary
281
     1
  3
Model
350
159B3
  3
レイアウト1
350
159B4
  0
DICTIONARY
  5
159AF
102
{ACAD_REACTORS
330
7471
102
}
330
7471
100
AcDbDictionary
281
     1
  0
DICTIONARY
  5
7473
102
{ACAD_REACTORS
330
7471
102
}
330
7471
100
AcDbDictionary
281
     1
  3
STANDARD
350
7480
  0
DICTIONARY
  5
159B2
102
{ACAD_REACTORS
330
7471
102
}
330
7471
100
AcDbDictionary
281
     1
  0
ACDBDICTIONARYWDFLT
  5
159AD
102
{ACAD_REACTORS
330
7471
102
}
330
7471
100
AcDbDictionary
281
     1
  3
Normal
350
159AE
100
AcDbDictionaryWithDefault
340
159AE
  0
DICTIONARY
  5
2AA55
102
{ACAD_REACTORS
330
7471
102
}
330
7471
100
AcDbDictionary
281
     1
  3
COLORDICT
350
2AA57
  3
MATERIALDICT
350
2AA56
  0
DICTIONARY
  5
2AA51
102
{ACAD_REACTORS
330
7471
102
}
330
7471
100
AcDbDictionary
281
     1
  3
DIMASSOC
350
2AA52
  3
PROJECTNAME
350
2AA53
  0
DICTIONARY
  5
E71C
102
{ACAD_REACTORS
330
7471
102
}
330
7471
100
AcDbDictionary
281
     1
  0
DICTIONARY
  5
F3B9
102
{ACAD_REACTORS
330
7471
102
}
330
7471
100
AcDbDictionary
281
     1
1001
DRAWINGVARIABLESXDATA
1000
POLARMODE
1000
1
  0
DICTIONARY
  5
1FFAA
102
{ACAD_REACTORS
330
1FFA9
102
}
330
1FFA9
100
AcDbDictionary
281
     1
  0
LAYOUT
  5
159B3
102
{ACAD_XDICTIONARY
360
2AA58
102
}
102
{ACAD_REACTORS
330
159B1
102
}
330
159B1
100
AcDbPlotSettings
  1

  2
none_device
  4
Letter_(8.50_x_11.00_Inches)
  6

 40
6.349999904632568
 41
6.349999904632568
 42
6.350006103515625
 43
6.350006103515625
 44
215.8999938964844
 45
279.3999938964844
 46
0.0
 47
0.0
 48
0.0
 49
0.0
140
0.0
141
0.0
142
1.0
143
1.0
 70
 11952
 72
     1
 73
     1
 74
     0
  7

 75
     0
147
1.0
148
-4149.571981164617
149
65.56433826894044
100
AcDbLayout
  1
Model
 70
     1
 71
     0
 10
0.0
 20
0.0
 11
12.0
 21
9.0
 12
0.0
 22
0.0
 32
0.0
 14
0.0
 24
0.0
 34
0.0
 15
0.0
 25
0.0
 35
0.0
146
0.0
 13
0.0
 23
0.0
 33
0.0
 16
1.0
 26
0.0
 36
0.0
 17
0.0
 27
1.0
 37
0.0
 76
     0
330
747D
  0
LAYOUT
  5
159B4
102
{ACAD_XDICTIONARY
360
2AA5A
102
}
102
{ACAD_REACTORS
330
159B1
102
}
330
159B1
100
AcDbPlotSettings
  1

  2
自動 EPSON LP-8400FX (TATENO 上)
  4

  6

 40
0.0
 41
0.0
 42
0.0
 43
0.0
 44
0.0
 45
0.0
 46
0.0
 47
0.0
 48
0.0
 49
0.0
140
0.0
141
0.0
142
1.0
143
1.0
 70
   688
 72
     0
 73
     0
 74
     5
  7
inaba.ctb
 75
    16
147
1.0
148
0.0
149
0.0
100
AcDbLayout
  1
レイアウト1
 70
     0
 71
     1
 10
0.0
 20
0.0
 11
420.0
 21
297.0
 12
0.0
 22
0.0
 32
0.0
 14
1.000000000000000E+20
 24
1.000000000000000E+20
 34
1.000000000000000E+20
 15
-1.000000000000000E+20
 25
-1.000000000000000E+20
 35
-1.000000000000000E+20
146
0.0
 13
0.0
 23
0.0
 33
0.0
 16
1.0
 26
0.0
 36
0.0
 17
0.0
 27
1.0
 37
0.0
 76
     0
330
747A
  0
MLINESTYLE
  5
7480
102
{ACAD_REACTORS
330
7473
102
}
330
7473
100
AcDbMlineStyle
  2
STANDARD
 70
     0
  3

 62
     0
 51
90.0
 52
90.0
 71
     2
 49
0.5
 62
   256
  6
BYLAYER
 49
-0.5
 62
   256
  6
BYLAYER
  0
ACDBPLACEHOLDER
  5
159AE
102
{ACAD_REACTORS
330
159AD
102
}
330
159AD
  0
XRECORD
  5
2AA57
102
{ACAD_REACTORS
330
2AA55
102
}
330
2AA55
100
AcDbXrecord
280
     1
340
159B0
  0
XRECORD
  5
2AA56
102
{ACAD_REACTORS
330
2AA55
102
}
330
2AA55
100
AcDbXrecord
280
     1
340
159AF
  0
DICTIONARYVAR
  5
2AA52
102
{ACAD_REACTORS
330
2AA51
102
}
330
2AA51
100
DictionaryVariables
280
     0
  1
1
  0
DICTIONARYVAR
  5
2AA53
102
{ACAD_REACTORS
330
2AA51
102
}
330
2AA51
100
DictionaryVariables
280
     0
  1

  0
DICTIONARY
  5
2AA58
330
159B3
100
AcDbDictionary
280
     1
281
     1
  3
ACAD_XREC_ROUNDTRIP
360
2AA59
  0
DICTIONARY
  5
2AA5A
330
159B4
100
AcDbDictionary
280
     1
281
     1
  3
ACAD_XREC_ROUNDTRIP
360
2AA5B
  0
XRECORD
  5
2AA59
102
{ACAD_REACTORS
330
2AA58
102
}
330
2AA58
100
AcDbXrecord
280
     1
102
SHADEPLOT
 70
     0
102
SHADEPLOTRESLEVEL
 70
     2
102
SHADEPLOTCUSTOMDPI
 70
   300
  0
XRECORD
  5
2AA5B
102
{ACAD_REACTORS
330
2AA5A
102
}
330
2AA5A
100
AcDbXrecord
280
     1
102
SHADEPLOT
 70
     0
102
SHADEPLOTRESLEVEL
 70
     2
102
SHADEPLOTCUSTOMDPI
 70
   300
  0
ENDSEC
  0
EOF
