  0
SECTION
  2
HEADER
  9
$ACADVER
  1
AC1015
  9
$ACADMAINTVER
 70
    20
  9
$DWGCODEPAGE
  3
ANSI_932
  9
$INSBASE
 10
0.0
 20
0.0
 30
0.0
  9
$EXTMIN
 10
139.9999999999995
 20
-0.0000000000000909
 30
0.0
  9
$EXTMAX
 10
16307.2
 20
11409.6
 30
0.0
  9
$LIMMIN
 10
0.0
 20
0.0
  9
$LIMMAX
 10
16800.0
 20
11880.0
  9
$ORTHOMODE
 70
     0
  9
$REGENMODE
 70
     1
  9
$FILLMODE
 70
     1
  9
$QTEXTMODE
 70
     0
  9
$MIRRTEXT
 70
     1
  9
$LTSCALE
 40
20.0
  9
$ATTMODE
 70
     1
  9
$TEXTSIZE
 40
4.0
  9
$TRACEWID
 40
1.0
  9
$TEXTSTYLE
  7
STYLE1
  9
$CLAYER
  8
寸法
  9
$CELTYPE
  6
BYLAYER
  9
$CECOLOR
 62
   256
  9
$CELTSCALE
 40
50.0
  9
$DISPSILH
 70
     0
  9
$DIMSCALE
 40
40.0
  9
$DIMASZ
 40
2.5
  9
$DIMEXO
 40
0.5
  9
$DIMDLI
 40
7.0
  9
$DIMRND
 40
0.0
  9
$DIMDLE
 40
0.0
  9
$DIMEXE
 40
1.5
  9
$DIMTP
 40
0.0
  9
$DIMTM
 40
0.0
  9
$DIMTXT
 40
3.0
  9
$DIMCEN
 40
0.0
  9
$DIMTSZ
 40
0.0
  9
$DIMTOL
 70
     0
  9
$DIMLIM
 70
     0
  9
$DIMTIH
 70
     0
  9
$DIMTOH
 70
     0
  9
$DIMSE1
 70
     0
  9
$DIMSE2
 70
     0
  9
$DIMTAD
 70
     3
  9
$DIMZIN
 70
     8
  9
$DIMBLK
  1

  9
$DIMASO
 70
     1
  9
$DIMSHO
 70
     1
  9
$DIMPOST
  1

  9
$DIMAPOST
  1

  9
$DIMALT
 70
     0
  9
$DIMALTD
 70
     2
  9
$DIMALTF
 40
0.0394
  9
$DIMLFAC
 40
1.0
  9
$DIMTOFL
 70
     1
  9
$DIMTVP
 40
0.0
  9
$DIMTIX
 70
     1
  9
$DIMSOXD
 70
     0
  9
$DIMSAH
 70
     1
  9
$DIMBLK1
  1
DOTSMALL
  9
$DIMBLK2
  1
DOTSMALL
  9
$DIMSTYLE
  2
INABA_S40G
  9
$DIMCLRD
 70
     0
  9
$DIMCLRE
 70
     0
  9
$DIMCLRT
 70
     7
  9
$DIMTFAC
 40
1.0
  9
$DIMGAP
 40
1.0
  9
$DIMJUST
 70
     0
  9
$DIMSD1
 70
     0
  9
$DIMSD2
 70
     0
  9
$DIMTOLJ
 70
     1
  9
$DIMTZIN
 70
     0
  9
$DIMALTZ
 70
     0
  9
$DIMALTTZ
 70
     0
  9
$DIMUPT
 70
     0
  9
$DIMDEC
 70
     1
  9
$DIMTDEC
 70
     4
  9
$DIMALTU
 70
     2
  9
$DIMALTTD
 70
     2
  9
$DIMTXSTY
  7
STYLE1
  9
$DIMAUNIT
 70
     0
  9
$DIMADEC
 70
     0
  9
$DIMALTRND
 40
0.0
  9
$DIMAZIN
 70
     0
  9
$DIMDSEP
 70
    46
  9
$DIMATFIT
 70
     3
  9
$DIMFRAC
 70
     0
  9
$DIMLDRBLK
  1

  9
$DIMLUNIT
 70
     2
  9
$DIMLWD
 70
    -2
  9
$DIMLWE
 70
    -2
  9
$DIMTMOVE
 70
     0
  9
$LUNITS
 70
     2
  9
$LUPREC
 70
     1
  9
$SKETCHINC
 40
1.0
  9
$FILLETRAD
 40
3.0
  9
$AUNITS
 70
     0
  9
$AUPREC
 70
     0
  9
$MENU
  1
acad
  9
$ELEVATION
 40
0.0
  9
$PELEVATION
 40
0.0
  9
$THICKNESS
 40
0.0
  9
$LIMCHECK
 70
     0
  9
$CHAMFERA
 40
0.0
  9
$CHAMFERB
 40
0.0
  9
$CHAMFERC
 40
0.0
  9
$CHAMFERD
 40
0.0
  9
$SKPOLY
 70
     0
  9
$TDCREATE
 40
2451368.612993866
  9
$TDUCREATE
 40
2451368.237993866
  9
$TDUPDATE
 40
2455575.701851852
  9
$TDUUPDATE
 40
2455575.326851852
  9
$TDINDWG
 40
0.5866867130
  9
$TDUSRTIMER
 40
0.5866858102
  9
$USRTIMER
 70
     1
  9
$ANGBASE
 50
0.0
  9
$ANGDIR
 70
     0
  9
$PDMODE
 70
     3
  9
$PDSIZE
 40
2.0
  9
$PLINEWID
 40
0.0
  9
$SPLFRAME
 70
     0
  9
$SPLINETYPE
 70
     6
  9
$SPLINESEGS
 70
     8
  9
$HANDSEED
  5
18EBC
  9
$SURFTAB1
 70
     6
  9
$SURFTAB2
 70
     6
  9
$SURFTYPE
 70
     6
  9
$SURFU
 70
     6
  9
$SURFV
 70
     6
  9
$UCSBASE
  2

  9
$UCSNAME
  2

  9
$UCSORG
 10
0.0
 20
0.0
 30
0.0
  9
$UCSXDIR
 10
1.0
 20
0.0
 30
0.0
  9
$UCSYDIR
 10
0.0
 20
1.0
 30
0.0
  9
$UCSORTHOREF
  2

  9
$UCSORTHOVIEW
 70
     0
  9
$UCSORGTOP
 10
0.0
 20
0.0
 30
0.0
  9
$UCSORGBOTTOM
 10
0.0
 20
0.0
 30
0.0
  9
$UCSORGLEFT
 10
0.0
 20
0.0
 30
0.0
  9
$UCSORGRIGHT
 10
0.0
 20
0.0
 30
0.0
  9
$UCSORGFRONT
 10
0.0
 20
0.0
 30
0.0
  9
$UCSORGBACK
 10
0.0
 20
0.0
 30
0.0
  9
$PUCSBASE
  2

  9
$PUCSNAME
  2

  9
$PUCSORG
 10
0.0
 20
0.0
 30
0.0
  9
$PUCSXDIR
 10
1.0
 20
0.0
 30
0.0
  9
$PUCSYDIR
 10
0.0
 20
1.0
 30
0.0
  9
$PUCSORTHOREF
  2

  9
$PUCSORTHOVIEW
 70
     0
  9
$PUCSORGTOP
 10
0.0
 20
0.0
 30
0.0
  9
$PUCSORGBOTTOM
 10
0.0
 20
0.0
 30
0.0
  9
$PUCSORGLEFT
 10
0.0
 20
0.0
 30
0.0
  9
$PUCSORGRIGHT
 10
0.0
 20
0.0
 30
0.0
  9
$PUCSORGFRONT
 10
0.0
 20
0.0
 30
0.0
  9
$PUCSORGBACK
 10
0.0
 20
0.0
 30
0.0
  9
$USERI1
 70
     0
  9
$USERI2
 70
     0
  9
$USERI3
 70
     0
  9
$USERI4
 70
     0
  9
$USERI5
 70
     0
  9
$USERR1
 40
0.0
  9
$USERR2
 40
0.0
  9
$USERR3
 40
0.0
  9
$USERR4
 40
0.0
  9
$USERR5
 40
0.0
  9
$WORLDVIEW
 70
     1
  9
$SHADEDGE
 70
     3
  9
$SHADEDIF
 70
    70
  9
$TILEMODE
 70
     1
  9
$MAXACTVP
 70
    16
  9
$PINSBASE
 10
0.0
 20
0.0
 30
0.0
  9
$PLIMCHECK
 70
     0
  9
$PEXTMIN
 10
1.000000000000000E+20
 20
1.000000000000000E+20
 30
1.000000000000000E+20
  9
$PEXTMAX
 10
-1.000000000000000E+20
 20
-1.000000000000000E+20
 30
-1.000000000000000E+20
  9
$PLIMMIN
 10
0.0
 20
0.0
  9
$PLIMMAX
 10
420.0
 20
297.0
  9
$UNITMODE
 70
     0
  9
$VISRETAIN
 70
     0
  9
$PLINEGEN
 70
     0
  9
$PSLTSCALE
 70
     0
  9
$TREEDEPTH
 70
  3020
  9
$CMLSTYLE
  2
STANDARD
  9
$CMLJUST
 70
     0
  9
$CMLSCALE
 40
1.0
  9
$PROXYGRAPHICS
 70
     1
  9
$MEASUREMENT
 70
     1
  9
$CELWEIGHT
370
    -1
  9
$ENDCAPS
280
     0
  9
$JOINSTYLE
280
     0
  9
$LWDISPLAY
290
     0
  9
$INSUNITS
 70
     0
  9
$HYPERLINKBASE
  1

  9
$STYLESHEET
  1

  9
$XEDIT
290
     1
  9
$CEPSNTYPE
380
     0
  9
$PSTYLEMODE
290
     1
  9
$FINGERPRINTGUID
  2
{2A269A58-AB17-4F88-B8C0-C533C4D75F98}
  9
$VERSIONGUID
  2
{BA69B156-9A89-4E53-8249-2C22ED32261E}
  9
$EXTNAMES
290
     1
  9
$PSVPSCALE
 40
0.0
  9
$OLESTARTUP
290
     0
  0
ENDSEC
  0
SECTION
  2
CLASSES
  0
CLASS
  1
ACDBDICTIONARYWDFLT
  2
AcDbDictionaryWithDefault
  3
ObjectDBX Classes
 90
        0
280
     0
281
     0
  0
CLASS
  1
DICTIONARYVAR
  2
AcDbDictionaryVar
  3
ObjectDBX Classes
 90
        0
280
     0
281
     0
  0
CLASS
  1
ACDBPLACEHOLDER
  2
AcDbPlaceHolder
  3
ObjectDBX Classes
 90
        0
280
     0
281
     0
  0
CLASS
  1
LAYOUT
  2
AcDbLayout
  3
ObjectDBX Classes
 90
        0
280
     0
281
     0
  0
ENDSEC
  0
SECTION
  2
TABLES
  0
TABLE
  2
VPORT
  5
746D
330
0
100
AcDbSymbolTable
 70
     2
  0
VPORT
  5
18EB4
330
746D
100
AcDbSymbolTableRecord
100
AcDbViewportTableRecord
  2
*Active
 70
     0
 10
0.0
 20
0.0
 11
1.0
 21
1.0
 12
8223.761025238502
 22
6348.703162895247
 13
0.0
 23
0.0
 14
10.0
 24
10.0
 15
10.0
 25
10.0
 16
0.0
 26
0.0
 36
1.0
 17
0.0
 27
0.0
 37
0.0
 40
12805.60689082044
 41
1.525925925925925
 42
50.0
 43
0.0
 44
0.0
 50
0.0
 51
0.0
 71
     0
 72
     0
 73
     1
 74
     0
 75
     0
 76
     0
 77
     0
 78
     0
281
     0
 65
     1
110
0.0
120
0.0
130
0.0
111
1.0
121
0.0
131
0.0
112
0.0
122
1.0
132
0.0
 79
     0
146
0.0
  0
ENDTAB
  0
TABLE
  2
LTYPE
  5
746A
330
0
100
AcDbSymbolTable
 70
     5
  0
LTYPE
  5
7477
330
746A
100
AcDbSymbolTableRecord
100
AcDbLinetypeTableRecord
  2
BYBLOCK
 70
     0
  3

 72
    65
 73
     0
 40
0.0
  0
LTYPE
  5
7478
330
746A
100
AcDbSymbolTableRecord
100
AcDbLinetypeTableRecord
  2
BYLAYER
 70
     0
  3

 72
    65
 73
     0
 40
0.0
  0
LTYPE
  5
7479
330
746A
100
AcDbSymbolTableRecord
100
AcDbLinetypeTableRecord
  2
CONTINUOUS
 70
     0
  3
Solid line
 72
    65
 73
     0
 40
0.0
  0
LTYPE
  5
7816
330
746A
100
AcDbSymbolTableRecord
100
AcDbLinetypeTableRecord
  2
CENTER
 70
     0
  3
____ _ ____ _ ____ _ ____ _ ____ _ ____ _ ____ 
 72
    65
 73
     4
 40
2.0
 49
1.25
 74
     0
 49
-0.25
 74
     0
 49
0.25
 74
     0
 49
-0.25
 74
     0
  0
LTYPE
  5
781A
330
746A
100
AcDbSymbolTableRecord
100
AcDbLinetypeTableRecord
  2
HIDDEN
 70
     0
  3
__ __ __ __ __ __ __ __ __ __ __ __ __ __ __ __
 72
    65
 73
     2
 40
0.375
 49
0.25
 74
     0
 49
-0.125
 74
     0
  0
LTYPE
  5
781B
330
746A
100
AcDbSymbolTableRecord
100
AcDbLinetypeTableRecord
  2
PHANTOM
 70
     0
  3
______  __  __  ______  __  __  ______  __  __ 
 72
    65
 73
     6
 40
2.5
 49
1.25
 74
     0
 49
-0.25
 74
     0
 49
0.25
 74
     0
 49
-0.25
 74
     0
 49
0.25
 74
     0
 49
-0.25
 74
     0
  0
LTYPE
  5
12CC3
330
746A
100
AcDbSymbolTableRecord
100
AcDbLinetypeTableRecord
  2
HIDDENX2
 70
     0
  3
Hidden (2x) ____ ____ ____ ____ ____ ____ ____
 72
    65
 73
     2
 40
19.05
 49
12.7
 74
     0
 49
-6.349999999999998
 74
     0
  0
ENDTAB
  0
TABLE
  2
LAYER
  5
7467
102
{ACAD_XDICTIONARY
360
17563
102
}
330
0
100
AcDbSymbolTable
 70
    12
  0
LAYER
  5
7474
330
7467
100
AcDbSymbolTableRecord
100
AcDbLayerTableRecord
  2
0
 70
     0
 62
     7
  6
CONTINUOUS
370
    -3
390
173BF
  0
LAYER
  5
DEB2
330
7467
100
AcDbSymbolTableRecord
100
AcDbLayerTableRecord
  2
センター
 70
     0
 62
     3
  6
CENTER
370
    -3
390
173BF
  0
LAYER
  5
DEB3
330
7467
100
AcDbSymbolTableRecord
100
AcDbLayerTableRecord
  2
寸法
 70
     0
 62
     4
  6
CONTINUOUS
370
    -3
390
173BF
  0
LAYER
  5
DEB4
330
7467
100
AcDbSymbolTableRecord
100
AcDbLayerTableRecord
  2
部品1
 70
     0
 62
     7
  6
CONTINUOUS
370
    -3
390
173BF
  0
LAYER
  5
DEB5
330
7467
100
AcDbSymbolTableRecord
100
AcDbLayerTableRecord
  2
補助
 70
     0
 62
    -1
  6
CONTINUOUS
370
    -3
390
173BF
  0
LAYER
  5
DEB6
330
7467
100
AcDbSymbolTableRecord
100
AcDbLayerTableRecord
  2
文字
 70
     0
 62
     7
  6
CONTINUOUS
370
    -3
390
173BF
  0
LAYER
  5
F255
330
7467
100
AcDbSymbolTableRecord
100
AcDbLayerTableRecord
  2
DEFPOINTS
 70
     0
 62
     7
  6
CONTINUOUS
290
     0
370
    -3
390
173BF
  0
LAYER
  5
10B54
330
7467
100
AcDbSymbolTableRecord
100
AcDbLayerTableRecord
  2
仕様書枠
 70
     0
 62
   230
  6
CONTINUOUS
370
    -3
390
173BF
  0
LAYER
  5
11729
330
7467
100
AcDbSymbolTableRecord
100
AcDbLayerTableRecord
  2
Ｇ．Ｌ
 70
     0
 62
    30
  6
CONTINUOUS
370
    -3
390
173BF
  0
LAYER
  5
1173F
330
7467
100
AcDbSymbolTableRecord
100
AcDbLayerTableRecord
  2
細線
 70
     0
 62
     5
  6
CONTINUOUS
370
    -3
390
173BF
  0
LAYER
  5
12CC4
330
7467
100
AcDbSymbolTableRecord
100
AcDbLayerTableRecord
  2
想像線
 70
     0
 62
     6
  6
PHANTOM
370
    -3
390
173BF
  0
LAYER
  5
142E2
330
7467
100
AcDbSymbolTableRecord
100
AcDbLayerTableRecord
  2
破線
 70
     0
 62
     2
  6
HIDDEN
370
    -3
390
173BF
  0
ENDTAB
  0
TABLE
  2
STYLE
  5
7468
330
0
100
AcDbSymbolTable
 70
     7
  0
STYLE
  5
7475
330
7468
100
AcDbSymbolTableRecord
100
AcDbTextStyleTableRecord
  2
STANDARD
 70
     0
 40
0.0
 41
1.0
 50
0.0
 71
     0
 42
4.0
  3
txt
  4
C:\AutoCAD LT\bigfont.shx
  0
STYLE
  5
763C
330
7468
100
AcDbSymbolTableRecord
100
AcDbTextStyleTableRecord
  2
MSMINCHO
 70
     0
 40
0.0
 41
1.0
 50
0.0
 71
     0
 42
1.199999999999999
  3
C:\AutoCAD LT\msminch2.TTF
  4

  0
STYLE
  5
F706
330
7468
100
AcDbSymbolTableRecord
100
AcDbTextStyleTableRecord
  2
STYLE1
 70
     0
 40
0.0
 41
1.0
 50
0.0
 71
     0
 42
4.0
  3
isocp.shx
  4
bigfont.shx
  0
STYLE
  5
103BF
330
7468
100
AcDbSymbolTableRecord
100
AcDbTextStyleTableRecord
  2
STYLE2
 70
     0
 40
0.0
 41
1.0
 50
0.0
 71
     0
 42
100.0
  3
MS PGothic.ttf
  4

1001
ACAD
1000
MS PGothic
1071
    32818
  0
STYLE
  5
11A15
330
7468
100
AcDbSymbolTableRecord
100
AcDbTextStyleTableRecord
  2
MSGOTHIC
 70
     0
 40
0.0
 41
1.0
 50
0.0
 71
     0
 42
3.5
  3
msgothi2.ttf
  4

  0
STYLE
  5
13E96
330
7468
100
AcDbSymbolTableRecord
100
AcDbTextStyleTableRecord
  2
MSPゴシック
 70
     0
 40
0.0
 41
1.0
 50
0.0
 71
     0
 42
4.0
  3
MS PGothic.ttf
  4

1001
ACAD
1000
MS PGothic
1071
    32818
  0
STYLE
  5
18E4E
330
7468
100
AcDbSymbolTableRecord
100
AcDbTextStyleTableRecord
  2
STYLE3
 70
     0
 40
0.0
 41
1.0
 50
0.0
 71
     0
 42
100.0
  3

  4

1001
ACAD
1000
DFPGothic-EB
1071
    32818
  0
ENDTAB
  0
TABLE
  2
VIEW
  5
746B
330
0
100
AcDbSymbolTable
 70
     0
  0
ENDTAB
  0
TABLE
  2
UCS
  5
746C
330
0
100
AcDbSymbolTable
 70
     0
  0
ENDTAB
  0
TABLE
  2
APPID
  5
746E
330
0
100
AcDbSymbolTable
 70
     6
  0
APPID
  5
7476
330
746E
100
AcDbSymbolTableRecord
100
AcDbRegAppTableRecord
  2
ACAD
 70
     0
  0
APPID
  5
DEA9
330
746E
100
AcDbSymbolTableRecord
100
AcDbRegAppTableRecord
  2
CONTENTBLOCKICON
 70
     0
  0
APPID
  5
DEAA
330
746E
100
AcDbSymbolTableRecord
100
AcDbRegAppTableRecord
  2
CONTENTBLOCKDESCRIPTION
 70
     0
  0
APPID
  5
E71D
330
746E
100
AcDbSymbolTableRecord
100
AcDbRegAppTableRecord
  2
CONTENTTABDATA
 70
     0
  0
APPID
  5
E71E
330
746E
100
AcDbSymbolTableRecord
100
AcDbRegAppTableRecord
  2
CONTENTCURRENTTAB
 70
     0
  0
APPID
  5
F3BA
330
746E
100
AcDbSymbolTableRecord
100
AcDbRegAppTableRecord
  2
DRAWINGVARIABLESXDATA
 70
     0
  0
ENDTAB
  0
TABLE
  2
DIMSTYLE
  5
746F
330
0
100
AcDbSymbolTable
 70
     7
100
AcDbDimStyleTable
 71
     1
340
F71F
  0
DIMSTYLE
105
7484
330
746F
100
AcDbSymbolTableRecord
100
AcDbDimStyleTableRecord
  2
JIS
 70
     0
 41
2.5
 42
1.0
 43
7.0
 44
1.0
 73
     0
 74
     0
 77
     1
 78
     8
140
2.5
141
0.0
143
0.0394
147
0.0
172
     1
174
     1
175
     1
340
7475
  0
DIMSTYLE
105
F236
102
{ACAD_REACTORS
330
17991
330
1799D
330
1799E
330
1799F
330
179A1
330
179B5
330
179B6
330
18B5E
102
}
330
746F
100
AcDbSymbolTableRecord
100
AcDbDimStyleTableRecord
  2
INABA_S40
 70
     0
 40
40.0
 41
2.5
 42
0.5
 43
7.0
 44
1.5
 73
     0
 74
     0
 77
     3
 78
     8
140
3.0
141
0.0
143
0.0394
147
1.0
172
     1
173
     1
174
     1
175
     1
178
     7
289
     0
340
7475
341
DEAC
343
DEAC
344
DEAC
  0
DIMSTYLE
105
F71F
102
{ACAD_REACTORS
330
178CA
330
178D9
330
178DA
330
178DB
330
17A36
330
17A37
330
17A38
330
17A39
330
17A3A
330
17A58
330
17A5D
330
17A8D
330
17A9B
330
17A9D
330
17AB1
330
17AB3
330
17ACD
330
17ACE
330
17ACF
330
17AD0
330
17AD1
330
17AD3
330
1888F
330
18B5D
330
18C74
102
}
330
746F
100
AcDbSymbolTableRecord
100
AcDbDimStyleTableRecord
  2
INABA_S40G
 70
     0
 40
40.0
 41
2.5
 42
0.5
 43
7.0
 44
1.5
 73
     0
 74
     0
 77
     3
 78
     8
140
3.0
141
0.0
143
0.0394
147
1.0
172
     1
173
     1
174
     1
178
     7
271
     1
340
F706
341
F770
343
F770
344
F770
  0
DIMSTYLE
105
142E3
330
746F
100
AcDbSymbolTableRecord
100
AcDbDimStyleTableRecord
  2
INABA_S1
 70
     0
 40
0.0
 41
2.5
 42
0.5
 43
7.0
 44
1.5
 73
     0
 74
     0
 77
     3
 78
     8
140
3.0
141
0.0
143
0.0394
146
0.5
147
0.5
172
     1
173
     1
176
   256
177
   256
178
     7
271
     2
272
     2
284
     8
288
     1
340
7475
341
DEAC
343
DEAC
344
DEAC
  0
DIMSTYLE
105
14463
330
746F
100
AcDbSymbolTableRecord
100
AcDbDimStyleTableRecord
  2
INABA_S30G
 70
     0
 40
30.0
 41
2.5
 42
0.5
 43
7.0
 44
1.5
 73
     0
 74
     0
 77
     3
 78
     8
140
3.0
141
0.0
143
0.0394
147
1.0
172
     1
173
     1
174
     1
175
     1
178
     7
271
     1
340
F706
341
F770
343
F770
344
F770
  0
DIMSTYLE
105
18785
330
746F
100
AcDbSymbolTableRecord
100
AcDbDimStyleTableRecord
  2
INABA_S50G
 70
     0
 41
125.0
 42
25.0
 43
7.0
 44
75.0
 73
     0
 74
     0
 77
     3
 78
     8
140
150.0
141
0.0
143
0.0394
147
25.0
172
     1
173
     1
174
     1
175
     1
178
     7
271
     1
340
F706
341
F770
343
F770
344
F770
  0
DIMSTYLE
105
18E4F
330
746F
100
AcDbSymbolTableRecord
100
AcDbDimStyleTableRecord
  2
INABA_S20G
 70
     0
 40
20.0
 41
2.5
 42
0.5
 43
7.0
 44
1.5
 73
     0
 74
     0
 77
     3
 78
     8
140
3.0
141
0.0
143
0.0394
147
1.0
172
     1
173
     1
174
     1
178
     7
271
     1
340
F706
341
F770
343
F770
344
F770
  0
ENDTAB
  0
TABLE
  2
BLOCK_RECORD
  5
7466
330
0
100
AcDbSymbolTable
 70
    36
  0
BLOCK_RECORD
  5
747D
330
7466
100
AcDbSymbolTableRecord
100
AcDbBlockTableRecord
  2
*MODEL_SPACE
340
173C4
  0
BLOCK_RECORD
  5
747A
330
7466
100
AcDbSymbolTableRecord
100
AcDbBlockTableRecord
  2
*PAPER_SPACE
340
173C5
  0
BLOCK_RECORD
  5
DEAC
330
7466
100
AcDbSymbolTableRecord
100
AcDbBlockTableRecord
  2
_OPEN
340
0
  0
BLOCK_RECORD
  5
F770
330
7466
100
AcDbSymbolTableRecord
100
AcDbBlockTableRecord
  2
_DOTSMALL
340
0
102
{BLKREFS
331
1860B
331
1860C
331
18614
331
18615
331
1861D
331
1861E
331
18628
331
18629
331
18633
331
18634
331
1863E
331
1863F
331
18652
331
18653
331
1865B
331
1865C
331
18664
331
18665
331
1866D
331
1866E
331
18676
331
18677
331
1867F
331
18680
331
18688
331
18689
331
18692
331
18693
331
1869D
331
1869E
331
186A6
331
186A7
331
186AF
331
186B0
331
186B9
331
186BA
331
18719
331
1871A
331
18722
331
18723
331
1872D
331
1872E
331
18738
331
18739
331
18965
331
18966
331
18DD5
331
18DD6
331
18DDE
331
18DDF
102
}
  0
BLOCK_RECORD
  5
164B4
330
7466
100
AcDbSymbolTableRecord
100
AcDbBlockTableRecord
  2
_DOT
340
0
102
{BLKREFS
331
186C2
331
186C3
331
186CB
331
186CC
331
186D4
331
186D5
331
186DD
331
186DE
331
186E8
331
186E9
331
186F3
331
186F4
331
186FC
331
186FD
331
18DE9
331
18DEA
102
}
  0
BLOCK_RECORD
  5
17AF7
330
7466
100
AcDbSymbolTableRecord
100
AcDbBlockTableRecord
  2
*D3
340
0
  0
BLOCK_RECORD
  5
17B05
330
7466
100
AcDbSymbolTableRecord
100
AcDbBlockTableRecord
  2
*D4
340
0
  0
BLOCK_RECORD
  5
17B13
330
7466
100
AcDbSymbolTableRecord
100
AcDbBlockTableRecord
  2
*D5
340
0
  0
BLOCK_RECORD
  5
17B1F
330
7466
100
AcDbSymbolTableRecord
100
AcDbBlockTableRecord
  2
*D6
340
0
  0
BLOCK_RECORD
  5
17B45
330
7466
100
AcDbSymbolTableRecord
100
AcDbBlockTableRecord
  2
*D7
340
0
  0
BLOCK_RECORD
  5
17B51
330
7466
100
AcDbSymbolTableRecord
100
AcDbBlockTableRecord
  2
*D8
340
0
  0
BLOCK_RECORD
  5
17B5F
330
7466
100
AcDbSymbolTableRecord
100
AcDbBlockTableRecord
  2
*D9
340
0
  0
BLOCK_RECORD
  5
17B6D
330
7466
100
AcDbSymbolTableRecord
100
AcDbBlockTableRecord
  2
*D10
340
0
  0
BLOCK_RECORD
  5
17B79
330
7466
100
AcDbSymbolTableRecord
100
AcDbBlockTableRecord
  2
*D11
340
0
  0
BLOCK_RECORD
  5
17B85
330
7466
100
AcDbSymbolTableRecord
100
AcDbBlockTableRecord
  2
*D12
340
0
  0
BLOCK_RECORD
  5
17B91
330
7466
100
AcDbSymbolTableRecord
100
AcDbBlockTableRecord
  2
*D13
340
0
  0
BLOCK_RECORD
  5
17B9D
330
7466
100
AcDbSymbolTableRecord
100
AcDbBlockTableRecord
  2
*D14
340
0
  0
BLOCK_RECORD
  5
17BAA
330
7466
100
AcDbSymbolTableRecord
100
AcDbBlockTableRecord
  2
*D15
340
0
  0
BLOCK_RECORD
  5
17BB6
330
7466
100
AcDbSymbolTableRecord
100
AcDbBlockTableRecord
  2
*D16
340
0
  0
BLOCK_RECORD
  5
17BC2
330
7466
100
AcDbSymbolTableRecord
100
AcDbBlockTableRecord
  2
*D17
340
0
  0
BLOCK_RECORD
  5
17BD0
330
7466
100
AcDbSymbolTableRecord
100
AcDbBlockTableRecord
  2
*D18
340
0
  0
BLOCK_RECORD
  5
17BDD
330
7466
100
AcDbSymbolTableRecord
100
AcDbBlockTableRecord
  2
*D19
340
0
  0
BLOCK_RECORD
  5
17BE9
330
7466
100
AcDbSymbolTableRecord
100
AcDbBlockTableRecord
  2
*D20
340
0
  0
BLOCK_RECORD
  5
17BF5
330
7466
100
AcDbSymbolTableRecord
100
AcDbBlockTableRecord
  2
*D21
340
0
  0
BLOCK_RECORD
  5
17C01
330
7466
100
AcDbSymbolTableRecord
100
AcDbBlockTableRecord
  2
*D22
340
0
  0
BLOCK_RECORD
  5
17C0D
330
7466
100
AcDbSymbolTableRecord
100
AcDbBlockTableRecord
  2
*D23
340
0
  0
BLOCK_RECORD
  5
17C19
330
7466
100
AcDbSymbolTableRecord
100
AcDbBlockTableRecord
  2
*D24
340
0
  0
BLOCK_RECORD
  5
17C25
330
7466
100
AcDbSymbolTableRecord
100
AcDbBlockTableRecord
  2
*D25
340
0
  0
BLOCK_RECORD
  5
17C3F
330
7466
100
AcDbSymbolTableRecord
100
AcDbBlockTableRecord
  2
*D26
340
0
  0
BLOCK_RECORD
  5
17C4D
330
7466
100
AcDbSymbolTableRecord
100
AcDbBlockTableRecord
  2
*D27
340
0
  0
BLOCK_RECORD
  5
17C5B
330
7466
100
AcDbSymbolTableRecord
100
AcDbBlockTableRecord
  2
*D28
340
0
  0
BLOCK_RECORD
  5
17C69
330
7466
100
AcDbSymbolTableRecord
100
AcDbBlockTableRecord
  2
*D29
340
0
  0
BLOCK_RECORD
  5
17C75
330
7466
100
AcDbSymbolTableRecord
100
AcDbBlockTableRecord
  2
*D30
340
0
  0
BLOCK_RECORD
  5
17C81
330
7466
100
AcDbSymbolTableRecord
100
AcDbBlockTableRecord
  2
*D31
340
0
  0
BLOCK_RECORD
  5
188FA
330
7466
100
AcDbSymbolTableRecord
100
AcDbBlockTableRecord
  2
*D32
340
0
  0
BLOCK_RECORD
  5
18C83
330
7466
100
AcDbSymbolTableRecord
100
AcDbBlockTableRecord
  2
*D33
340
0
  0
BLOCK_RECORD
  5
18C8F
330
7466
100
AcDbSymbolTableRecord
100
AcDbBlockTableRecord
  2
*D34
340
0
  0
BLOCK_RECORD
  5
18CF3
330
7466
100
AcDbSymbolTableRecord
100
AcDbBlockTableRecord
  2
*D35
340
0
  0
ENDTAB
  0
ENDSEC
  0
SECTION
  2
BLOCKS
  0
BLOCK
  5
7489
330
747D
100
AcDbEntity
  8
0
100
AcDbBlockBegin
  2
*MODEL_SPACE
 70
     0
 10
0.0
 20
0.0
 30
0.0
  3
*MODEL_SPACE
  1

  0
ENDBLK
  5
748A
330
747D
100
AcDbEntity
  8
0
100
AcDbBlockEnd
  0
BLOCK
  5
7487
330
747A
100
AcDbEntity
 67
     1
  8
0
100
AcDbBlockBegin
  2
*PAPER_SPACE
 70
     0
 10
0.0
 20
0.0
 30
0.0
  3
*PAPER_SPACE
  1

  0
ENDBLK
  5
7488
330
747A
100
AcDbEntity
 67
     1
  8
0
100
AcDbBlockEnd
  0
BLOCK
  5
DEAD
330
DEAC
100
AcDbEntity
  8
0
100
AcDbBlockBegin
  2
_OPEN
 70
     0
 10
0.0
 20
0.0
 30
0.0
  3
_OPEN
  1

  0
LINE
  5
DEAE
330
DEAC
100
AcDbEntity
  8
0
  6
ByBlock
 62
     0
100
AcDbLine
 10
-1.0
 20
0.1666666666666666
 30
0.0
 11
0.0
 21
0.0
 31
0.0
  0
LINE
  5
DEAF
330
DEAC
100
AcDbEntity
  8
0
  6
ByBlock
 62
     0
100
AcDbLine
 10
0.0
 20
0.0
 30
0.0
 11
-1.0
 21
-0.1666666666666666
 31
0.0
  0
LINE
  5
DEB0
330
DEAC
100
AcDbEntity
  8
0
  6
ByBlock
 62
     0
100
AcDbLine
 10
0.0
 20
0.0
 30
0.0
 11
-1.0
 21
0.0
 31
0.0
  0
ENDBLK
  5
DEB1
330
DEAC
100
AcDbEntity
  8
0
100
AcDbBlockEnd
  0
BLOCK
  5
F771
330
F770
100
AcDbEntity
  8
0
 48
50.0
100
AcDbBlockBegin
  2
_DOTSMALL
 70
     0
 10
0.0
 20
0.0
 30
0.0
  3
_DOTSMALL
  1

  0
LWPOLYLINE
  5
F772
330
F770
100
AcDbEntity
  8
0
  6
ByBlock
 62
     0
 48
50.0
100
AcDbPolyline
 90
        2
 70
     1
 43
0.5
 10
-0.0625
 20
0.0
 42
1.0
 10
0.0625
 20
0.0
 42
1.0
  0
ENDBLK
  5
F776
330
F770
100
AcDbEntity
  8
0
 48
50.0
100
AcDbBlockEnd
  0
BLOCK
  5
164BA
330
164B4
100
AcDbEntity
  8
0
 48
50.0
100
AcDbBlockBegin
  2
_DOT
 70
     0
 10
0.0
 20
0.0
 30
0.0
  3
_DOT
  1

  0
LWPOLYLINE
  5
164B5
330
164B4
100
AcDbEntity
  8
0
  6
ByBlock
 62
     0
 48
50.0
100
AcDbPolyline
 90
        2
 70
     1
 43
0.5
 10
-0.25
 20
0.0
 42
1.0
 10
0.25
 20
0.0
 42
1.0
  0
LINE
  5
164B9
330
164B4
100
AcDbEntity
  8
0
  6
ByBlock
 62
     0
 48
50.0
100
AcDbLine
 10
-0.5
 20
0.0
 30
0.0
 11
-1.0
 21
0.0
 31
0.0
  0
ENDBLK
  5
164BB
330
164B4
100
AcDbEntity
  8
0
 48
50.0
100
AcDbBlockEnd
  0
BLOCK
  5
17B03
330
17AF7
100
AcDbEntity
  8
0
 48
50.0
100
AcDbBlockBegin
  2
*D3
 70
     1
 10
0.0
 20
0.0
 30
0.0
  3
*D3
  1

  0
LINE
  5
18733
330
17AF7
100
AcDbEntity
  8
寸法
 62
     0
 48
50.0
370
    -2
100
AcDbLine
 10
7679.896575106996
 20
5210.948390869335
 30
0.0
 11
7679.896575106996
 21
5463.489976127577
 31
0.0
  0
LINE
  5
18734
330
17AF7
100
AcDbEntity
  8
寸法
 62
     0
 48
50.0
370
    -2
100
AcDbLine
 10
7629.896575106996
 20
5210.948390869337
 30
0.0
 11
7629.896575106996
 21
5463.489976127577
 31
0.0
  0
LINE
  5
18735
330
17AF7
100
AcDbEntity
  8
寸法
 62
     0
 48
50.0
370
    -2
100
AcDbLine
 10
7629.896575106996
 20
5403.489976127577
 30
0.0
 11
7529.896575106994
 21
5403.489976127577
 31
0.0
  0
LINE
  5
18736
330
17AF7
100
AcDbEntity
  8
寸法
 62
     0
 48
50.0
370
    -2
100
AcDbLine
 10
7679.896575106996
 20
5403.489976127577
 30
0.0
 11
8099.429100575719
 21
5403.489976127577
 31
0.0
  0
LINE
  5
18737
330
17AF7
100
AcDbEntity
  8
寸法
 62
     0
 48
50.0
370
    -2
100
AcDbLine
 10
7629.896575106996
 20
5403.489976127577
 30
0.0
 11
7679.896575106996
 21
5403.489976127577
 31
0.0
  0
INSERT
  5
18738
330
17AF7
100
AcDbEntity
  8
寸法
 62
     0
 48
50.0
370
    -2
100
AcDbBlockReference
  2
_DOTSMALL
 10
7629.896575106996
 20
5403.489976127577
 30
0.0
 41
100.0
 42
100.0
 43
100.0
  0
INSERT
  5
18739
330
17AF7
100
AcDbEntity
  8
寸法
 62
     0
 48
50.0
370
    -2
100
AcDbBlockReference
  2
_DOTSMALL
 10
7679.896575106996
 20
5403.489976127577
 30
0.0
 41
100.0
 42
100.0
 43
100.0
 50
180.0
  0
MTEXT
  5
1873A
330
17AF7
100
AcDbEntity
  8
寸法
 62
     7
 48
50.0
100
AcDbMText
 10
7993.381856481232
 20
5503.489976127576
 30
0.0
 40
120.0
 41
0.0
 71
     5
 72
     1
  1
\A1;50
  7
STYLE1
 73
     1
 44
1.0
1001
ACAD
1000
MTEXTBEGIN
1070
    73
1070
     1
1070
    44
1040
1.0
1070
    74
1070
     0
1000
MTEXTEND
  0
POINT
  5
1873B
330
17AF7
100
AcDbEntity
  8
DEFPOINTS
 62
     0
 48
50.0
100
AcDbPoint
 10
7679.896575106996
 20
5190.948390869333
 30
0.0
  0
POINT
  5
1873C
330
17AF7
100
AcDbEntity
  8
DEFPOINTS
 62
     0
 48
50.0
100
AcDbPoint
 10
7629.896575106996
 20
5190.948390869337
 30
0.0
  0
POINT
  5
1873D
330
17AF7
100
AcDbEntity
  8
DEFPOINTS
 62
     0
 48
50.0
100
AcDbPoint
 10
7629.896575106996
 20
5403.489976127577
 30
0.0
  0
ENDBLK
  5
17B04
330
17AF7
100
AcDbEntity
  8
0
 48
50.0
100
AcDbBlockEnd
  0
BLOCK
  5
17B11
330
17B05
100
AcDbEntity
  8
0
 48
50.0
100
AcDbBlockBegin
  2
*D4
 70
     1
 10
0.0
 20
0.0
 30
0.0
  3
*D4
  1

  0
LINE
  5
18728
330
17B05
100
AcDbEntity
  8
寸法
 62
     0
 48
50.0
370
    -2
100
AcDbLine
 10
4159.896575106992
 20
5210.948390869341
 30
0.0
 11
4159.896575106992
 21
5463.489976127578
 31
0.0
  0
LINE
  5
18729
330
17B05
100
AcDbEntity
  8
寸法
 62
     0
 48
50.0
370
    -2
100
AcDbLine
 10
4109.896575106992
 20
5210.948390869339
 30
0.0
 11
4109.896575106992
 21
5463.489976127578
 31
0.0
  0
LINE
  5
1872A
330
17B05
100
AcDbEntity
  8
寸法
 62
     0
 48
50.0
370
    -2
100
AcDbLine
 10
4159.896575106992
 20
5403.489976127578
 30
0.0
 11
4259.896575106991
 21
5403.489976127578
 31
0.0
  0
LINE
  5
1872B
330
17B05
100
AcDbEntity
  8
寸法
 62
     0
 48
50.0
370
    -2
100
AcDbLine
 10
4109.896575106992
 20
5403.489976127578
 30
0.0
 11
3690.364049638257
 21
5403.489976127578
 31
0.0
  0
LINE
  5
1872C
330
17B05
100
AcDbEntity
  8
寸法
 62
     0
 48
50.0
370
    -2
100
AcDbLine
 10
4159.896575106992
 20
5403.489976127578
 30
0.0
 11
4109.896575106992
 21
5403.489976127578
 31
0.0
  0
INSERT
  5
1872D
330
17B05
100
AcDbEntity
  8
寸法
 62
     0
 48
50.0
370
    -2
100
AcDbBlockReference
  2
_DOTSMALL
 10
4159.896575106992
 20
5403.489976127578
 30
0.0
 41
100.0
 42
100.0
 43
100.0
 50
180.0
  0
INSERT
  5
1872E
330
17B05
100
AcDbEntity
  8
寸法
 62
     0
 48
50.0
370
    -2
100
AcDbBlockReference
  2
_DOTSMALL
 10
4109.896575106992
 20
5403.489976127578
 30
0.0
 41
100.0
 42
100.0
 43
100.0
  0
MTEXT
  5
1872F
330
17B05
100
AcDbEntity
  8
寸法
 62
     7
 48
50.0
100
AcDbMText
 10
3796.411293732745
 20
5503.489976127578
 30
0.0
 40
120.0
 41
0.0
 71
     5
 72
     1
  1
\A1;50
  7
STYLE1
 73
     1
 44
1.0
1001
ACAD
1000
MTEXTBEGIN
1070
    73
1070
     1
1070
    44
1040
1.0
1070
    74
1070
     0
1000
MTEXTEND
  0
POINT
  5
18730
330
17B05
100
AcDbEntity
  8
DEFPOINTS
 62
     0
 48
50.0
100
AcDbPoint
 10
4159.896575106992
 20
5190.948390869341
 30
0.0
  0
POINT
  5
18731
330
17B05
100
AcDbEntity
  8
DEFPOINTS
 62
     0
 48
50.0
100
AcDbPoint
 10
4109.896575106992
 20
5190.94839086934
 30
0.0
  0
POINT
  5
18732
330
17B05
100
AcDbEntity
  8
DEFPOINTS
 62
     0
 48
50.0
100
AcDbPoint
 10
4109.896575106992
 20
5403.489976127578
 30
0.0
  0
ENDBLK
  5
17B12
330
17B05
100
AcDbEntity
  8
0
 48
50.0
100
AcDbBlockEnd
  0
BLOCK
  5
17B1D
330
17B13
100
AcDbEntity
  8
0
 48
50.0
100
AcDbBlockBegin
  2
*D5
 70
     1
 10
0.0
 20
0.0
 30
0.0
  3
*D5
  1

  0
LINE
  5
1871F
330
17B13
100
AcDbEntity
  8
寸法
 62
     0
 48
50.0
370
    -2
100
AcDbLine
 10
4109.896575106992
 20
5210.948390869339
 30
0.0
 11
4109.896575106992
 21
5684.395276601327
 31
0.0
  0
LINE
  5
18720
330
17B13
100
AcDbEntity
  8
寸法
 62
     0
 48
50.0
370
    -2
100
AcDbLine
 10
7679.896575106996
 20
5210.948390869335
 30
0.0
 11
7679.896575106996
 21
5684.395276601327
 31
0.0
  0
LINE
  5
18721
330
17B13
100
AcDbEntity
  8
寸法
 62
     0
 48
50.0
370
    -2
100
AcDbLine
 10
4109.896575106992
 20
5624.395276601325
 30
0.0
 11
7679.896575106996
 21
5624.395276601325
 31
0.0
  0
INSERT
  5
18722
330
17B13
100
AcDbEntity
  8
寸法
 62
     0
 48
50.0
370
    -2
100
AcDbBlockReference
  2
_DOTSMALL
 10
4109.896575106992
 20
5624.395276601325
 30
0.0
 41
100.0
 42
100.0
 43
100.0
 50
180.0
  0
INSERT
  5
18723
330
17B13
100
AcDbEntity
  8
寸法
 62
     0
 48
50.0
370
    -2
100
AcDbBlockReference
  2
_DOTSMALL
 10
7679.896575106996
 20
5624.395276601325
 30
0.0
 41
100.0
 42
100.0
 43
100.0
  0
MTEXT
  5
18724
330
17B13
100
AcDbEntity
  8
寸法
 62
     7
 48
50.0
100
AcDbMText
 10
5894.896575106999
 20
5724.395276601327
 30
0.0
 40
120.0
 41
0.0
 71
     5
 72
     1
  1
\A1;3570
  7
STYLE1
 73
     1
 44
1.0
1001
ACAD
1000
MTEXTBEGIN
1070
    73
1070
     1
1070
    44
1040
1.0
1070
    74
1070
     0
1000
MTEXTEND
  0
POINT
  5
18725
330
17B13
100
AcDbEntity
  8
DEFPOINTS
 62
     0
 48
50.0
100
AcDbPoint
 10
4109.896575106992
 20
5190.94839086934
 30
0.0
  0
POINT
  5
18726
330
17B13
100
AcDbEntity
  8
DEFPOINTS
 62
     0
 48
50.0
100
AcDbPoint
 10
7679.896575106996
 20
5190.948390869333
 30
0.0
  0
POINT
  5
18727
330
17B13
100
AcDbEntity
  8
DEFPOINTS
 62
     0
 48
50.0
100
AcDbPoint
 10
7679.896575106996
 20
5624.395276601325
 30
0.0
  0
ENDBLK
  5
17B1E
330
17B13
100
AcDbEntity
  8
0
 48
50.0
100
AcDbBlockEnd
  0
BLOCK
  5
17B29
330
17B1F
100
AcDbEntity
  8
0
 48
50.0
100
AcDbBlockBegin
  2
*D6
 70
     1
 10
0.0
 20
0.0
 30
0.0
  3
*D6
  1

  0
LINE
  5
18716
330
17B1F
100
AcDbEntity
  8
寸法
 62
     0
 48
50.0
370
    -2
100
AcDbLine
 10
7629.896575106996
 20
5210.948390869337
 30
0.0
 11
7629.896575106996
 21
5463.489976127577
 31
0.0
  0
LINE
  5
18717
330
17B1F
100
AcDbEntity
  8
寸法
 62
     0
 48
50.0
370
    -2
100
AcDbLine
 10
4159.896575106992
 20
5210.948390869341
 30
0.0
 11
4159.896575106992
 21
5463.489976127577
 31
0.0
  0
LINE
  5
18718
330
17B1F
100
AcDbEntity
  8
寸法
 62
     0
 48
50.0
370
    -2
100
AcDbLine
 10
7629.896575106996
 20
5403.489976127577
 30
0.0
 11
4159.896575106992
 21
5403.489976127577
 31
0.0
  0
INSERT
  5
18719
330
17B1F
100
AcDbEntity
  8
寸法
 62
     0
 48
50.0
370
    -2
100
AcDbBlockReference
  2
_DOTSMALL
 10
7629.896575106996
 20
5403.489976127577
 30
0.0
 41
100.0
 42
100.0
 43
100.0
  0
INSERT
  5
1871A
330
17B1F
100
AcDbEntity
  8
寸法
 62
     0
 48
50.0
370
    -2
100
AcDbBlockReference
  2
_DOTSMALL
 10
4159.896575106992
 20
5403.489976127577
 30
0.0
 41
100.0
 42
100.0
 43
100.0
 50
180.0
  0
MTEXT
  5
1871B
330
17B1F
100
AcDbEntity
  8
寸法
 62
     7
 48
50.0
100
AcDbMText
 10
5894.896575106999
 20
5503.489976127577
 30
0.0
 40
120.0
 41
0.0
 71
     5
 72
     1
  1
\A1;柱外寸法3470
  7
STYLE1
 73
     1
 44
1.0
1001
ACAD
1000
MTEXTBEGIN
1070
    73
1070
     1
1070
    44
1040
1.0
1070
    74
1070
     0
1000
MTEXTEND
  0
POINT
  5
1871C
330
17B1F
100
AcDbEntity
  8
DEFPOINTS
 62
     0
 48
50.0
100
AcDbPoint
 10
7629.896575106996
 20
5190.948390869337
 30
0.0
  0
POINT
  5
1871D
330
17B1F
100
AcDbEntity
  8
DEFPOINTS
 62
     0
 48
50.0
100
AcDbPoint
 10
4159.896575106992
 20
5190.948390869341
 30
0.0
  0
POINT
  5
1871E
330
17B1F
100
AcDbEntity
  8
DEFPOINTS
 62
     0
 48
50.0
100
AcDbPoint
 10
4159.896575106992
 20
5403.489976127577
 30
0.0
  0
ENDBLK
  5
17B2A
330
17B1F
100
AcDbEntity
  8
0
 48
50.0
100
AcDbBlockEnd
  0
BLOCK
  5
17B4F
330
17B45
100
AcDbEntity
  8
0
 48
50.0
100
AcDbBlockBegin
  2
*D7
 70
     1
 10
0.0
 20
0.0
 30
0.0
  3
*D7
  1

  0
LINE
  5
186F9
330
17B45
100
AcDbEntity
  8
寸法
 62
     0
 48
50.0
370
    -2
100
AcDbLine
 10
12027.65313193489
 20
2815.948390869333
 30
0.0
 11
12738.86671092095
 21
2815.948390869333
 31
0.0
  0
LINE
  5
186FA
330
17B45
100
AcDbEntity
  8
寸法
 62
     0
 48
50.0
370
    -2
100
AcDbLine
 10
12107.6531319349
 20
5135.948390869333
 30
0.0
 11
12738.86671092095
 21
5135.948390869333
 31
0.0
  0
LINE
  5
186FB
330
17B45
100
AcDbEntity
  8
寸法
 62
     0
 48
50.0
370
    -2
100
AcDbLine
 10
12698.86671092095
 20
2835.948390869333
 30
0.0
 11
12698.86671092095
 21
5115.948390869333
 31
0.0
  0
INSERT
  5
186FC
330
17B45
100
AcDbEntity
  8
寸法
 62
     0
 48
50.0
370
    -2
100
AcDbBlockReference
  2
_DOT
 10
12698.86671092095
 20
2815.948390869333
 30
0.0
 41
20.0
 42
20.0
 43
20.0
 50
270.0
  0
INSERT
  5
186FD
330
17B45
100
AcDbEntity
  8
寸法
 62
     0
 48
50.0
370
    -2
100
AcDbBlockReference
  2
_DOT
 10
12698.86671092095
 20
5135.948390869333
 30
0.0
 41
20.0
 42
20.0
 43
20.0
 50
90.0
  0
MTEXT
  5
186FE
330
17B45
100
AcDbEntity
  8
寸法
 62
     7
 48
50.0
100
AcDbMText
 10
12606.85489989733
 20
3975.948390869335
 30
0.0
 40
120.0
 41
0.0
 71
     5
 72
     1
  1
\A1;2320
  7
STYLE1
 11
0.0000000000000001
 21
1.0
 31
0.0
 73
     1
 44
1.0
1001
ACAD
1000
MTEXTBEGIN
1070
    73
1070
     1
1070
    44
1040
1.0
1070
    74
1070
     0
1000
MTEXTEND
  0
POINT
  5
186FF
330
17B45
100
AcDbEntity
  8
DEFPOINTS
 62
     0
 48
50.0
100
AcDbPoint
 10
12007.65313193489
 20
2815.948390869333
 30
0.0
  0
POINT
  5
18700
330
17B45
100
AcDbEntity
  8
DEFPOINTS
 62
     0
 48
50.0
100
AcDbPoint
 10
12087.6531319349
 20
5135.948390869333
 30
0.0
  0
POINT
  5
18701
330
17B45
100
AcDbEntity
  8
DEFPOINTS
 62
     0
 48
50.0
100
AcDbPoint
 10
12698.86671092095
 20
5135.948390869333
 30
0.0
  0
ENDBLK
  5
17B50
330
17B45
100
AcDbEntity
  8
0
 48
50.0
100
AcDbBlockEnd
  0
BLOCK
  5
17B5D
330
17B51
100
AcDbEntity
  8
0
 48
50.0
100
AcDbBlockBegin
  2
*D8
 70
     1
 10
0.0
 20
0.0
 30
0.0
  3
*D8
  1

  0
LINE
  5
186EE
330
17B51
100
AcDbEntity
  8
寸法
 62
     0
 48
50.0
370
    -2
100
AcDbLine
 10
10197.65313193489
 20
2865.948390869333
 30
0.0
 11
9333.903002751629
 21
2865.948390869333
 31
0.0
  0
LINE
  5
186EF
330
17B51
100
AcDbEntity
  8
寸法
 62
     0
 48
50.0
370
    -2
100
AcDbLine
 10
10120.65313193488
 20
2815.948390869333
 30
0.0
 11
9333.903002751629
 21
2815.948390869333
 31
0.0
  0
LINE
  5
186F0
330
17B51
100
AcDbEntity
  8
寸法
 62
     0
 48
50.0
370
    -2
100
AcDbLine
 10
9373.90300275163
 20
2885.948390869333
 30
0.0
 11
9373.90300275163
 21
2905.948390869333
 31
0.0
  0
LINE
  5
186F1
330
17B51
100
AcDbEntity
  8
寸法
 62
     0
 48
50.0
370
    -2
100
AcDbLine
 10
9373.90300275163
 20
2795.948390869333
 30
0.0
 11
9373.90300275163
 21
2334.151146774843
 31
0.0
  0
LINE
  5
186F2
330
17B51
100
AcDbEntity
  8
寸法
 62
     0
 48
50.0
370
    -2
100
AcDbLine
 10
9373.90300275163
 20
2865.948390869333
 30
0.0
 11
9373.90300275163
 21
2815.948390869333
 31
0.0
  0
INSERT
  5
186F3
330
17B51
100
AcDbEntity
  8
寸法
 62
     0
 48
50.0
370
    -2
100
AcDbBlockReference
  2
_DOT
 10
9373.90300275163
 20
2865.948390869333
 30
0.0
 41
20.0
 42
20.0
 43
20.0
 50
270.0
  0
INSERT
  5
186F4
330
17B51
100
AcDbEntity
  8
寸法
 62
     0
 48
50.0
370
    -2
100
AcDbBlockReference
  2
_DOT
 10
9373.90300275163
 20
2815.948390869333
 30
0.0
 41
20.0
 42
20.0
 43
20.0
 50
90.0
  0
MTEXT
  5
186F5
330
17B51
100
AcDbEntity
  8
寸法
 62
     7
 48
50.0
100
AcDbMText
 10
9281.903002751629
 20
2432.198390869333
 30
0.0
 40
120.0
 41
0.0
 71
     5
 72
     1
  1
\A1;50
  7
STYLE1
 11
0.0000000000000001
 21
1.0
 31
0.0
 73
     1
 44
1.0
1001
ACAD
1000
MTEXTBEGIN
1070
    73
1070
     1
1070
    44
1040
1.0
1070
    74
1070
     0
1000
MTEXTEND
  0
POINT
  5
186F6
330
17B51
100
AcDbEntity
  8
DEFPOINTS
 62
     0
 48
50.0
100
AcDbPoint
 10
10217.65313193489
 20
2865.948390869333
 30
0.0
  0
POINT
  5
186F7
330
17B51
100
AcDbEntity
  8
DEFPOINTS
 62
     0
 48
50.0
100
AcDbPoint
 10
10140.65313193488
 20
2815.948390869333
 30
0.0
  0
POINT
  5
186F8
330
17B51
100
AcDbEntity
  8
DEFPOINTS
 62
     0
 48
50.0
100
AcDbPoint
 10
9373.90300275163
 20
2815.948390869333
 30
0.0
  0
ENDBLK
  5
17B5E
330
17B51
100
AcDbEntity
  8
0
 48
50.0
100
AcDbBlockEnd
  0
BLOCK
  5
17B6B
330
17B5F
100
AcDbEntity
  8
0
 48
50.0
100
AcDbBlockBegin
  2
*D9
 70
     1
 10
0.0
 20
0.0
 30
0.0
  3
*D9
  1

  0
LINE
  5
186E3
330
17B5F
100
AcDbEntity
  8
寸法
 62
     0
 48
50.0
370
    -2
100
AcDbLine
 10
10120.65313193488
 20
2815.948390869333
 30
0.0
 11
9033.903002751626
 21
2815.948390869333
 31
0.0
  0
LINE
  5
186E4
330
17B5F
100
AcDbEntity
  8
寸法
 62
     0
 48
50.0
370
    -2
100
AcDbLine
 10
9141.152056039755
 20
2715.948390869333
 30
0.0
 11
9033.903002751626
 21
2715.948390869333
 31
0.0
  0
LINE
  5
186E5
330
17B5F
100
AcDbEntity
  8
寸法
 62
     0
 48
50.0
370
    -2
100
AcDbLine
 10
9073.903002751629
 20
2835.948390869333
 30
0.0
 11
9073.903002751629
 21
2855.948390869333
 31
0.0
  0
LINE
  5
186E6
330
17B5F
100
AcDbEntity
  8
寸法
 62
     0
 48
50.0
370
    -2
100
AcDbLine
 10
9073.903002751629
 20
2695.948390869333
 30
0.0
 11
9073.903002751629
 21
2172.901146774843
 31
0.0
  0
LINE
  5
186E7
330
17B5F
100
AcDbEntity
  8
寸法
 62
     0
 48
50.0
370
    -2
100
AcDbLine
 10
9073.903002751629
 20
2815.948390869333
 30
0.0
 11
9073.903002751629
 21
2715.948390869333
 31
0.0
  0
INSERT
  5
186E8
330
17B5F
100
AcDbEntity
  8
寸法
 62
     0
 48
50.0
370
    -2
100
AcDbBlockReference
  2
_DOT
 10
9073.903002751629
 20
2815.948390869333
 30
0.0
 41
20.0
 42
20.0
 43
20.0
 50
270.0
  0
INSERT
  5
186E9
330
17B5F
100
AcDbEntity
  8
寸法
 62
     0
 48
50.0
370
    -2
100
AcDbBlockReference
  2
_DOT
 10
9073.903002751629
 20
2715.948390869333
 30
0.0
 41
20.0
 42
20.0
 43
20.0
 50
90.0
  0
MTEXT
  5
186EA
330
17B5F
100
AcDbEntity
  8
寸法
 62
     7
 48
50.0
100
AcDbMText
 10
8981.903002751627
 20
2300.948390869333
 30
0.0
 40
120.0
 41
0.0
 71
     5
 72
     1
  1
\A1;100
  7
STYLE1
 11
0.0000000000000001
 21
1.0
 31
0.0
 73
     1
 44
1.0
1001
ACAD
1000
MTEXTBEGIN
1070
    73
1070
     1
1070
    44
1040
1.0
1070
    74
1070
     0
1000
MTEXTEND
  0
POINT
  5
186EB
330
17B5F
100
AcDbEntity
  8
DEFPOINTS
 62
     0
 48
50.0
100
AcDbPoint
 10
10140.65313193488
 20
2815.948390869333
 30
0.0
  0
POINT
  5
186EC
330
17B5F
100
AcDbEntity
  8
DEFPOINTS
 62
     0
 48
50.0
100
AcDbPoint
 10
9161.152056039757
 20
2715.948390869333
 30
0.0
  0
POINT
  5
186ED
330
17B5F
100
AcDbEntity
  8
DEFPOINTS
 62
     0
 48
50.0
100
AcDbPoint
 10
9073.903002751629
 20
2715.948390869333
 30
0.0
  0
ENDBLK
  5
17B6C
330
17B5F
100
AcDbEntity
  8
0
 48
50.0
100
AcDbBlockEnd
  0
BLOCK
  5
17B77
330
17B6D
100
AcDbEntity
  8
0
 48
50.0
100
AcDbBlockBegin
  2
*D10
 70
     1
 10
0.0
 20
0.0
 30
0.0
  3
*D10
  1

  0
LINE
  5
186DA
330
17B6D
100
AcDbEntity
  8
寸法
 62
     0
 48
50.0
370
    -2
100
AcDbLine
 10
10125.15313193489
 20
2515.948390869333
 30
0.0
 11
9697.908555850409
 21
2515.948390869333
 31
0.0
  0
LINE
  5
186DB
330
17B6D
100
AcDbEntity
  8
寸法
 62
     0
 48
50.0
370
    -2
100
AcDbLine
 10
10125.15313193489
 20
2715.948390869333
 30
0.0
 11
9697.908555850409
 21
2715.948390869333
 31
0.0
  0
LINE
  5
186DC
330
17B6D
100
AcDbEntity
  8
寸法
 62
     0
 48
50.0
370
    -2
100
AcDbLine
 10
9737.90855585041
 20
2535.948390869333
 30
0.0
 11
9737.90855585041
 21
2695.948390869333
 31
0.0
  0
INSERT
  5
186DD
330
17B6D
100
AcDbEntity
  8
寸法
 62
     0
 48
50.0
370
    -2
100
AcDbBlockReference
  2
_DOT
 10
9737.90855585041
 20
2515.948390869333
 30
0.0
 41
20.0
 42
20.0
 43
20.0
 50
270.0
  0
INSERT
  5
186DE
330
17B6D
100
AcDbEntity
  8
寸法
 62
     0
 48
50.0
370
    -2
100
AcDbBlockReference
  2
_DOT
 10
9737.90855585041
 20
2715.948390869333
 30
0.0
 41
20.0
 42
20.0
 43
20.0
 50
90.0
  0
MTEXT
  5
186DF
330
17B6D
100
AcDbEntity
  8
寸法
 62
     7
 48
50.0
100
AcDbMText
 10
9645.896744826789
 20
2573.509714082899
 30
0.0
 40
120.0
 41
0.0
 71
     5
 72
     1
  1
\A1;200
  7
STYLE1
 11
0.0000000000000001
 21
1.0
 31
0.0
 73
     1
 44
1.0
1001
ACAD
1000
MTEXTBEGIN
1070
    73
1070
     1
1070
    44
1040
1.0
1070
    74
1070
     0
1000
MTEXTEND
  0
POINT
  5
186E0
330
17B6D
100
AcDbEntity
  8
DEFPOINTS
 62
     0
 48
50.0
100
AcDbPoint
 10
10145.15313193489
 20
2515.948390869333
 30
0.0
  0
POINT
  5
186E1
330
17B6D
100
AcDbEntity
  8
DEFPOINTS
 62
     0
 48
50.0
100
AcDbPoint
 10
10145.15313193489
 20
2715.948390869333
 30
0.0
  0
POINT
  5
186E2
330
17B6D
100
AcDbEntity
  8
DEFPOINTS
 62
     0
 48
50.0
100
AcDbPoint
 10
9737.90855585041
 20
2715.948390869333
 30
0.0
  0
ENDBLK
  5
17B78
330
17B6D
100
AcDbEntity
  8
0
 48
50.0
100
AcDbBlockEnd
  0
BLOCK
  5
17B83
330
17B79
100
AcDbEntity
  8
0
 48
50.0
100
AcDbBlockBegin
  2
*D11
 70
     1
 10
0.0
 20
0.0
 30
0.0
  3
*D11
  1

  0
LINE
  5
186D1
330
17B79
100
AcDbEntity
  8
寸法
 62
     0
 48
50.0
370
    -2
100
AcDbLine
 10
10145.15313193489
 20
2495.948390869333
 30
0.0
 11
10145.15313193489
 21
2140.75800663012
 31
0.0
  0
LINE
  5
186D2
330
17B79
100
AcDbEntity
  8
寸法
 62
     0
 48
50.0
370
    -2
100
AcDbLine
 10
10345.15313193489
 20
2495.948390869331
 30
0.0
 11
10345.15313193489
 21
2140.75800663012
 31
0.0
  0
LINE
  5
186D3
330
17B79
100
AcDbEntity
  8
寸法
 62
     0
 48
50.0
370
    -2
100
AcDbLine
 10
10165.15313193489
 20
2180.75800663012
 30
0.0
 11
10325.15313193489
 21
2180.75800663012
 31
0.0
  0
INSERT
  5
186D4
330
17B79
100
AcDbEntity
  8
寸法
 62
     0
 48
50.0
370
    -2
100
AcDbBlockReference
  2
_DOT
 10
10145.15313193489
 20
2180.75800663012
 30
0.0
 41
20.0
 42
20.0
 43
20.0
 50
180.0
  0
INSERT
  5
186D5
330
17B79
100
AcDbEntity
  8
寸法
 62
     0
 48
50.0
370
    -2
100
AcDbBlockReference
  2
_DOT
 10
10345.15313193489
 20
2180.75800663012
 30
0.0
 41
20.0
 42
20.0
 43
20.0
  0
MTEXT
  5
186D6
330
17B79
100
AcDbEntity
  8
寸法
 62
     7
 48
50.0
100
AcDbMText
 10
10245.15313193489
 20
2272.769817653742
 30
0.0
 40
120.0
 41
0.0
 71
     5
 72
     1
  1
\A1;200
  7
STYLE1
 73
     1
 44
1.0
1001
ACAD
1000
MTEXTBEGIN
1070
    73
1070
     1
1070
    44
1040
1.0
1070
    74
1070
     0
1000
MTEXTEND
  0
POINT
  5
186D7
330
17B79
100
AcDbEntity
  8
DEFPOINTS
 62
     0
 48
50.0
100
AcDbPoint
 10
10145.15313193489
 20
2515.948390869333
 30
0.0
  0
POINT
  5
186D8
330
17B79
100
AcDbEntity
  8
DEFPOINTS
 62
     0
 48
50.0
100
AcDbPoint
 10
10345.15313193489
 20
2515.948390869331
 30
0.0
  0
POINT
  5
186D9
330
17B79
100
AcDbEntity
  8
DEFPOINTS
 62
     0
 48
50.0
100
AcDbPoint
 10
10345.15313193489
 20
2180.75800663012
 30
0.0
  0
ENDBLK
  5
17B84
330
17B79
100
AcDbEntity
  8
0
 48
50.0
100
AcDbBlockEnd
  0
BLOCK
  5
17B8F
330
17B85
100
AcDbEntity
  8
0
 48
50.0
100
AcDbBlockBegin
  2
*D12
 70
     1
 10
0.0
 20
0.0
 30
0.0
  3
*D12
  1

  0
LINE
  5
186C8
330
17B85
100
AcDbEntity
  8
寸法
 62
     0
 48
50.0
370
    -2
100
AcDbLine
 10
10120.65313193489
 20
4906.948390869333
 30
0.0
 11
9632.744490537634
 21
4906.948390869333
 31
0.0
  0
LINE
  5
186C9
330
17B85
100
AcDbEntity
  8
寸法
 62
     0
 48
50.0
370
    -2
100
AcDbLine
 10
10120.65313193488
 20
2881.948390869333
 30
0.0
 11
9632.744490537632
 21
2881.948390869333
 31
0.0
  0
LINE
  5
186CA
330
17B85
100
AcDbEntity
  8
寸法
 62
     0
 48
50.0
370
    -2
100
AcDbLine
 10
9672.744490537636
 20
4886.948390869331
 30
0.0
 11
9672.744490537633
 21
2901.948390869333
 31
0.0
  0
INSERT
  5
186CB
330
17B85
100
AcDbEntity
  8
寸法
 62
     0
 48
50.0
370
    -2
100
AcDbBlockReference
  2
_DOT
 10
9672.744490537636
 20
4906.948390869333
 30
0.0
 41
20.0
 42
20.0
 43
20.0
 50
90.0
  0
INSERT
  5
186CC
330
17B85
100
AcDbEntity
  8
寸法
 62
     0
 48
50.0
370
    -2
100
AcDbBlockReference
  2
_DOT
 10
9672.744490537633
 20
2881.948390869333
 30
0.0
 41
20.0
 42
20.0
 43
20.0
 50
270.0
  0
MTEXT
  5
186CD
330
17B85
100
AcDbEntity
  8
寸法
 62
     7
 48
50.0
100
AcDbMText
 10
9580.732679514012
 20
3894.448390869334
 30
0.0
 40
120.0
 41
0.0
 71
     5
 72
     1
  1
\A1;有効開口部高サ2025
  7
STYLE1
 11
0.0000000000000001
 21
1.0
 31
0.0
 73
     1
 44
1.0
1001
ACAD
1000
MTEXTBEGIN
1070
    73
1070
     1
1070
    44
1040
1.0
1070
    74
1070
     0
1000
MTEXTEND
  0
POINT
  5
186CE
330
17B85
100
AcDbEntity
  8
DEFPOINTS
 62
     0
 48
50.0
100
AcDbPoint
 10
10140.65313193489
 20
4906.948390869333
 30
0.0
  0
POINT
  5
186CF
330
17B85
100
AcDbEntity
  8
DEFPOINTS
 62
     0
 48
50.0
100
AcDbPoint
 10
10140.65313193488
 20
2881.948390869333
 30
0.0
  0
POINT
  5
186D0
330
17B85
100
AcDbEntity
  8
DEFPOINTS
 62
     0
 48
50.0
100
AcDbPoint
 10
9672.744490537633
 20
2881.948390869333
 30
0.0
  0
ENDBLK
  5
17B90
330
17B85
100
AcDbEntity
  8
0
 48
50.0
100
AcDbBlockEnd
  0
BLOCK
  5
17B9B
330
17B91
100
AcDbEntity
  8
0
 48
50.0
100
AcDbBlockBegin
  2
*D13
 70
     1
 10
0.0
 20
0.0
 30
0.0
  3
*D13
  1

  0
LINE
  5
186BF
330
17B91
100
AcDbEntity
  8
寸法
 62
     0
 48
50.0
370
    -2
100
AcDbLine
 10
10197.65313193489
 20
4955.948390869333
 30
0.0
 11
9333.903002751629
 21
4955.948390869333
 31
0.0
  0
LINE
  5
186C0
330
17B91
100
AcDbEntity
  8
寸法
 62
     0
 48
50.0
370
    -2
100
AcDbLine
 10
10197.65313193489
 20
2865.948390869333
 30
0.0
 11
9333.903002751629
 21
2865.948390869333
 31
0.0
  0
LINE
  5
186C1
330
17B91
100
AcDbEntity
  8
寸法
 62
     0
 48
50.0
370
    -2
100
AcDbLine
 10
9373.90300275163
 20
4935.948390869333
 30
0.0
 11
9373.90300275163
 21
2885.948390869333
 31
0.0
  0
INSERT
  5
186C2
330
17B91
100
AcDbEntity
  8
寸法
 62
     0
 48
50.0
370
    -2
100
AcDbBlockReference
  2
_DOT
 10
9373.90300275163
 20
4955.948390869333
 30
0.0
 41
20.0
 42
20.0
 43
20.0
 50
90.0
  0
INSERT
  5
186C3
330
17B91
100
AcDbEntity
  8
寸法
 62
     0
 48
50.0
370
    -2
100
AcDbBlockReference
  2
_DOT
 10
9373.90300275163
 20
2865.948390869333
 30
0.0
 41
20.0
 42
20.0
 43
20.0
 50
270.0
  0
MTEXT
  5
186C4
330
17B91
100
AcDbEntity
  8
寸法
 62
     7
 48
50.0
100
AcDbMText
 10
9281.891191728004
 20
3910.948390869334
 30
0.0
 40
120.0
 41
0.0
 71
     5
 72
     1
  1
\A1;2090
  7
STYLE1
 11
0.0000000000000001
 21
1.0
 31
0.0
 73
     1
 44
1.0
1001
ACAD
1000
MTEXTBEGIN
1070
    73
1070
     1
1070
    44
1040
1.0
1070
    74
1070
     0
1000
MTEXTEND
  0
POINT
  5
186C5
330
17B91
100
AcDbEntity
  8
DEFPOINTS
 62
     0
 48
50.0
100
AcDbPoint
 10
10217.65313193489
 20
4955.948390869333
 30
0.0
  0
POINT
  5
186C6
330
17B91
100
AcDbEntity
  8
DEFPOINTS
 62
     0
 48
50.0
100
AcDbPoint
 10
10217.65313193489
 20
2865.948390869333
 30
0.0
  0
POINT
  5
186C7
330
17B91
100
AcDbEntity
  8
DEFPOINTS
 62
     0
 48
50.0
100
AcDbPoint
 10
9373.90300275163
 20
2865.948390869333
 30
0.0
  0
ENDBLK
  5
17B9C
330
17B91
100
AcDbEntity
  8
0
 48
50.0
100
AcDbBlockEnd
  0
BLOCK
  5
17BA8
330
17B9D
100
AcDbEntity
  8
0
 48
50.0
100
AcDbBlockBegin
  2
*D14
 70
     1
 10
0.0
 20
0.0
 30
0.0
  3
*D14
  1

  0
LINE
  5
186B5
330
17B9D
100
AcDbEntity
  8
寸法
 62
     0
 48
50.0
370
    -2
100
AcDbLine
 10
12007.65313193489
 20
5157.759070480985
 30
0.0
 11
12007.65313193489
 21
5649.605844448636
 31
0.0
  0
LINE
  5
186B6
330
17B9D
100
AcDbEntity
  8
寸法
 62
     0
 48
50.0
370
    -2
100
AcDbLine
 10
12087.65313193489
 20
5155.948390869333
 30
0.0
 11
12087.65313193489
 21
5649.605844448636
 31
0.0
  0
LINE
  5
186B7
330
17B9D
100
AcDbEntity
  8
寸法
 62
     0
 48
50.0
370
    -2
100
AcDbLine
 10
12007.65313193489
 20
5589.605844448636
 30
0.0
 11
12087.65313193489
 21
5589.605844448636
 31
0.0
  0
LINE
  5
186B8
330
17B9D
100
AcDbEntity
  8
寸法
 62
     0
 48
50.0
370
    -2
100
AcDbLine
 10
12087.65313193489
 20
5589.605844448636
 30
0.0
 11
12399.74762012386
 21
5589.605844448636
 31
0.0
  0
INSERT
  5
186B9
330
17B9D
100
AcDbEntity
  8
寸法
 62
     0
 48
50.0
370
    -2
100
AcDbBlockReference
  2
_DOTSMALL
 10
12007.65313193489
 20
5589.605844448636
 30
0.0
 41
100.0
 42
100.0
 43
100.0
 50
180.0
  0
INSERT
  5
186BA
330
17B9D
100
AcDbEntity
  8
寸法
 62
     0
 48
50.0
370
    -2
100
AcDbBlockReference
  2
_DOTSMALL
 10
12087.65313193489
 20
5589.605844448636
 30
0.0
 41
100.0
 42
100.0
 43
100.0
  0
MTEXT
  5
186BB
330
17B9D
100
AcDbEntity
  8
寸法
 62
     7
 48
50.0
100
AcDbMText
 10
12293.70037602937
 20
5689.605844448636
 30
0.0
 40
120.0
 41
0.0
 71
     5
 72
     1
  1
\A1;80
  7
STYLE1
 73
     1
 44
1.0
1001
ACAD
1000
MTEXTBEGIN
1070
    73
1070
     1
1070
    44
1040
1.0
1070
    74
1070
     0
1000
MTEXTEND
  0
POINT
  5
186BC
330
17B9D
100
AcDbEntity
  8
DEFPOINTS
 62
     0
 48
50.0
100
AcDbPoint
 10
12007.65313193489
 20
5137.759070480985
 30
0.0
  0
POINT
  5
186BD
330
17B9D
100
AcDbEntity
  8
DEFPOINTS
 62
     0
 48
50.0
100
AcDbPoint
 10
12087.65313193489
 20
5135.948390869334
 30
0.0
  0
POINT
  5
186BE
330
17B9D
100
AcDbEntity
  8
DEFPOINTS
 62
     0
 48
50.0
100
AcDbPoint
 10
12087.65313193489
 20
5589.605844448636
 30
0.0
  0
ENDBLK
  5
17BA9
330
17B9D
100
AcDbEntity
  8
0
 48
50.0
100
AcDbBlockEnd
  0
BLOCK
  5
17BB4
330
17BAA
100
AcDbEntity
  8
0
 48
50.0
100
AcDbBlockBegin
  2
*D15
 70
     1
 10
0.0
 20
0.0
 30
0.0
  3
*D15
  1

  0
LINE
  5
186AC
330
17BAA
100
AcDbEntity
  8
寸法
 62
     0
 48
50.0
370
    -2
100
AcDbLine
 10
12087.65313193489
 20
5155.948390869333
 30
0.0
 11
12087.65313193489
 21
5866.567659827251
 31
0.0
  0
LINE
  5
186AD
330
17BAA
100
AcDbEntity
  8
寸法
 62
     0
 48
50.0
370
    -2
100
AcDbLine
 10
10157.65313193489
 20
5210.948390869337
 30
0.0
 11
10157.65313193489
 21
5866.567659827251
 31
0.0
  0
LINE
  5
186AE
330
17BAA
100
AcDbEntity
  8
寸法
 62
     0
 48
50.0
370
    -2
100
AcDbLine
 10
12087.65313193489
 20
5806.567659827251
 30
0.0
 11
10157.65313193489
 21
5806.567659827251
 31
0.0
  0
INSERT
  5
186AF
330
17BAA
100
AcDbEntity
  8
寸法
 62
     0
 48
50.0
370
    -2
100
AcDbBlockReference
  2
_DOTSMALL
 10
12087.65313193489
 20
5806.567659827251
 30
0.0
 41
100.0
 42
100.0
 43
100.0
  0
INSERT
  5
186B0
330
17BAA
100
AcDbEntity
  8
寸法
 62
     0
 48
50.0
370
    -2
100
AcDbBlockReference
  2
_DOTSMALL
 10
10157.65313193489
 20
5806.567659827251
 30
0.0
 41
100.0
 42
100.0
 43
100.0
 50
180.0
  0
MTEXT
  5
186B1
330
17BAA
100
AcDbEntity
  8
寸法
 62
     7
 48
50.0
100
AcDbMText
 10
11063.45888318585
 20
5906.567659827251
 30
0.0
 40
120.0
 41
0.0
 71
     5
 72
     1
  1
\A1;1930
  7
STYLE1
 73
     1
 44
1.0
1001
ACAD
1000
MTEXTBEGIN
1070
    73
1070
     1
1070
    44
1040
1.0
1070
    74
1070
     0
1000
MTEXTEND
  0
POINT
  5
186B2
330
17BAA
100
AcDbEntity
  8
DEFPOINTS
 62
     0
 48
50.0
100
AcDbPoint
 10
12087.65313193489
 20
5135.948390869334
 30
0.0
  0
POINT
  5
186B3
330
17BAA
100
AcDbEntity
  8
DEFPOINTS
 62
     0
 48
50.0
100
AcDbPoint
 10
10157.65313193489
 20
5190.948390869337
 30
0.0
  0
POINT
  5
186B4
330
17BAA
100
AcDbEntity
  8
DEFPOINTS
 62
     0
 48
50.0
100
AcDbPoint
 10
10157.65313193489
 20
5806.567659827251
 30
0.0
  0
ENDBLK
  5
17BB5
330
17BAA
100
AcDbEntity
  8
0
 48
50.0
100
AcDbBlockEnd
  0
BLOCK
  5
17BC0
330
17BB6
100
AcDbEntity
  8
0
 48
50.0
100
AcDbBlockBegin
  2
*D16
 70
     1
 10
0.0
 20
0.0
 30
0.0
  3
*D16
  1

  0
LINE
  5
186A3
330
17BB6
100
AcDbEntity
  8
寸法
 62
     0
 48
50.0
370
    -2
100
AcDbLine
 10
12007.65313193489
 20
5157.759070480985
 30
0.0
 11
12007.65313193489
 21
5650.041560208806
 31
0.0
  0
LINE
  5
186A4
330
17BB6
100
AcDbEntity
  8
寸法
 62
     0
 48
50.0
370
    -2
100
AcDbLine
 10
10217.65313193489
 20
5206.950008992309
 30
0.0
 11
10217.65313193489
 21
5650.041560208806
 31
0.0
  0
LINE
  5
186A5
330
17BB6
100
AcDbEntity
  8
寸法
 62
     0
 48
50.0
370
    -2
100
AcDbLine
 10
12007.65313193489
 20
5590.041560208806
 30
0.0
 11
10217.65313193489
 21
5590.041560208806
 31
0.0
  0
INSERT
  5
186A6
330
17BB6
100
AcDbEntity
  8
寸法
 62
     0
 48
50.0
370
    -2
100
AcDbBlockReference
  2
_DOTSMALL
 10
12007.65313193489
 20
5590.041560208806
 30
0.0
 41
100.0
 42
100.0
 43
100.0
  0
INSERT
  5
186A7
330
17BB6
100
AcDbEntity
  8
寸法
 62
     0
 48
50.0
370
    -2
100
AcDbBlockReference
  2
_DOTSMALL
 10
10217.65313193489
 20
5590.041560208806
 30
0.0
 41
100.0
 42
100.0
 43
100.0
 50
180.0
  0
MTEXT
  5
186A8
330
17BB6
100
AcDbEntity
  8
寸法
 62
     7
 48
50.0
100
AcDbMText
 10
11127.24878061136
 20
5690.041560208806
 30
0.0
 40
120.0
 41
0.0
 71
     5
 72
     1
  1
\A1;柱外寸法1790
  7
STYLE1
 73
     1
 44
1.0
1001
ACAD
1000
MTEXTBEGIN
1070
    73
1070
     1
1070
    44
1040
1.0
1070
    74
1070
     0
1000
MTEXTEND
  0
POINT
  5
186A9
330
17BB6
100
AcDbEntity
  8
DEFPOINTS
 62
     0
 48
50.0
100
AcDbPoint
 10
12007.65313193489
 20
5137.759070480985
 30
0.0
  0
POINT
  5
186AA
330
17BB6
100
AcDbEntity
  8
DEFPOINTS
 62
     0
 48
50.0
100
AcDbPoint
 10
10217.65313193489
 20
5186.950008992308
 30
0.0
  0
POINT
  5
186AB
330
17BB6
100
AcDbEntity
  8
DEFPOINTS
 62
     0
 48
50.0
100
AcDbPoint
 10
10217.65313193489
 20
5590.041560208806
 30
0.0
  0
ENDBLK
  5
17BC1
330
17BB6
100
AcDbEntity
  8
0
 48
50.0
100
AcDbBlockEnd
  0
BLOCK
  5
17BCE
330
17BC2
100
AcDbEntity
  8
0
 48
50.0
100
AcDbBlockBegin
  2
*D17
 70
     1
 10
0.0
 20
0.0
 30
0.0
  3
*D17
  1

  0
LINE
  5
18698
330
17BC2
100
AcDbEntity
  8
寸法
 62
     0
 48
50.0
370
    -2
100
AcDbLine
 10
10217.65313193489
 20
5206.950008992309
 30
0.0
 11
10217.65313193489
 21
5649.605844448636
 31
0.0
  0
LINE
  5
18699
330
17BC2
100
AcDbEntity
  8
寸法
 62
     0
 48
50.0
370
    -2
100
AcDbLine
 10
10157.65313193489
 20
5210.948390869337
 30
0.0
 11
10157.65313193489
 21
5649.605844448636
 31
0.0
  0
LINE
  5
1869A
330
17BC2
100
AcDbEntity
  8
寸法
 62
     0
 48
50.0
370
    -2
100
AcDbLine
 10
10217.65313193489
 20
5589.605844448636
 30
0.0
 11
10317.65313193489
 21
5589.605844448636
 31
0.0
  0
LINE
  5
1869B
330
17BC2
100
AcDbEntity
  8
寸法
 62
     0
 48
50.0
370
    -2
100
AcDbLine
 10
10157.65313193489
 20
5589.605844448636
 30
0.0
 11
9738.377541383709
 21
5589.605844448636
 31
0.0
  0
LINE
  5
1869C
330
17BC2
100
AcDbEntity
  8
寸法
 62
     0
 48
50.0
370
    -2
100
AcDbLine
 10
10217.65313193489
 20
5589.605844448636
 30
0.0
 11
10157.65313193489
 21
5589.605844448636
 31
0.0
  0
INSERT
  5
1869D
330
17BC2
100
AcDbEntity
  8
寸法
 62
     0
 48
50.0
370
    -2
100
AcDbBlockReference
  2
_DOTSMALL
 10
10217.65313193489
 20
5589.605844448636
 30
0.0
 41
100.0
 42
100.0
 43
100.0
 50
180.0
  0
INSERT
  5
1869E
330
17BC2
100
AcDbEntity
  8
寸法
 62
     0
 48
50.0
370
    -2
100
AcDbBlockReference
  2
_DOTSMALL
 10
10157.65313193489
 20
5589.605844448636
 30
0.0
 41
100.0
 42
100.0
 43
100.0
  0
MTEXT
  5
1869F
330
17BC2
100
AcDbEntity
  8
寸法
 62
     7
 48
50.0
100
AcDbMText
 10
9848.015336659301
 20
5689.605844448636
 30
0.0
 40
120.0
 41
0.0
 71
     5
 72
     1
  1
\A1;60
  7
STYLE1
 73
     1
 44
1.0
1001
ACAD
1000
MTEXTBEGIN
1070
    73
1070
     1
1070
    44
1040
1.0
1070
    74
1070
     0
1000
MTEXTEND
  0
POINT
  5
186A0
330
17BC2
100
AcDbEntity
  8
DEFPOINTS
 62
     0
 48
50.0
100
AcDbPoint
 10
10217.65313193489
 20
5186.950008992308
 30
0.0
  0
POINT
  5
186A1
330
17BC2
100
AcDbEntity
  8
DEFPOINTS
 62
     0
 48
50.0
100
AcDbPoint
 10
10157.65313193489
 20
5190.948390869337
 30
0.0
  0
POINT
  5
186A2
330
17BC2
100
AcDbEntity
  8
DEFPOINTS
 62
     0
 48
50.0
100
AcDbPoint
 10
10157.65313193489
 20
5589.605844448636
 30
0.0
  0
ENDBLK
  5
17BCF
330
17BC2
100
AcDbEntity
  8
0
 48
50.0
100
AcDbBlockEnd
  0
BLOCK
  5
17BDB
330
17BD0
100
AcDbEntity
  8
0
 48
50.0
100
AcDbBlockBegin
  2
*D18
 70
     1
 10
0.0
 20
0.0
 30
0.0
  3
*D18
  1

  0
LINE
  5
1868E
330
17BD0
100
AcDbEntity
  8
寸法
 62
     0
 48
50.0
370
    -2
100
AcDbLine
 10
10157.05741822599
 20
5190.246097938993
 30
0.0
 11
9541.122979120727
 21
5207.960248213315
 31
0.0
  0
LINE
  5
1868F
330
17BD0
100
AcDbEntity
  8
寸法
 62
     0
 48
50.0
370
    -2
100
AcDbLine
 10
10153.00396266936
 20
5049.304374173281
 30
0.0
 11
9537.069523564104
 21
5067.018524447601
 31
0.0
  0
LINE
  5
18690
330
17BD0
100
AcDbEntity
  8
寸法
 62
     0
 48
50.0
370
    -2
100
AcDbLine
 10
9597.044725166536
 20
5065.293649742655
 30
0.0
 11
9601.098180723161
 21
5206.235373508368
 31
0.0
  0
LINE
  5
18691
330
17BD0
100
AcDbEntity
  8
寸法
 62
     0
 48
50.0
370
    -2
100
AcDbLine
 10
9601.098180723161
 20
5206.235373508368
 30
0.0
 11
9611.447428952841
 21
5566.086583122956
 31
0.0
  0
INSERT
  5
18692
330
17BD0
100
AcDbEntity
  8
寸法
 62
     0
 48
50.0
370
    -2
100
AcDbBlockReference
  2
_DOTSMALL
 10
9597.044725166536
 20
5065.293649742655
 30
0.0
 41
100.0
 42
100.0
 43
100.0
 50
268.3526390256385
  0
INSERT
  5
18693
330
17BD0
100
AcDbEntity
  8
寸法
 62
     0
 48
50.0
370
    -2
100
AcDbBlockReference
  2
_DOTSMALL
 10
9601.098180723161
 20
5206.235373508368
 30
0.0
 41
100.0
 42
100.0
 43
100.0
 50
88.35263902563854
  0
MTEXT
  5
18694
330
17BD0
100
AcDbEntity
  8
寸法
 62
     7
 48
50.0
100
AcDbMText
 10
9507.75153108807
 20
5439.015104159268
 30
0.0
 40
120.0
 41
0.0
 71
     5
 72
     1
  1
\A1;141
  7
STYLE1
 11
0.0287479117491103
 21
0.999586693373849
 31
0.0
 73
     1
 44
1.0
1001
ACAD
1000
MTEXTBEGIN
1070
    73
1070
     1
1070
    44
1040
1.0
1070
    74
1070
     0
1000
MTEXTEND
  0
POINT
  5
18695
330
17BD0
100
AcDbEntity
  8
DEFPOINTS
 62
     0
 48
50.0
100
AcDbPoint
 10
10177.04915209346
 20
5189.671139704012
 30
0.0
  0
POINT
  5
18696
330
17BD0
100
AcDbEntity
  8
DEFPOINTS
 62
     0
 48
50.0
100
AcDbPoint
 10
10172.99569653684
 20
5048.729415938299
 30
0.0
  0
POINT
  5
18697
330
17BD0
100
AcDbEntity
  8
DEFPOINTS
 62
     0
 48
50.0
100
AcDbPoint
 10
9597.044725166536
 20
5065.293649742655
 30
0.0
  0
ENDBLK
  5
17BDC
330
17BD0
100
AcDbEntity
  8
0
 48
50.0
100
AcDbBlockEnd
  0
BLOCK
  5
17BE7
330
17BDD
100
AcDbEntity
  8
0
 48
50.0
100
AcDbBlockBegin
  2
*D19
 70
     1
 10
0.0
 20
0.0
 30
0.0
  3
*D19
  1

  0
LINE
  5
18685
330
17BDD
100
AcDbEntity
  8
寸法
 62
     0
 48
50.0
370
    -2
100
AcDbLine
 10
10120.65313193488
 20
2815.948390869333
 30
0.0
 11
9013.90300275163
 21
2815.948390869333
 31
0.0
  0
LINE
  5
18686
330
17BDD
100
AcDbEntity
  8
寸法
 62
     0
 48
50.0
370
    -2
100
AcDbLine
 10
10137.65313193489
 20
5190.948390869337
 30
0.0
 11
9013.90300275163
 21
5190.948390869337
 31
0.0
  0
LINE
  5
18687
330
17BDD
100
AcDbEntity
  8
寸法
 62
     0
 48
50.0
370
    -2
100
AcDbLine
 10
9073.903002751629
 20
2815.948390869333
 30
0.0
 11
9073.903002751629
 21
5190.948390869337
 31
0.0
  0
INSERT
  5
18688
330
17BDD
100
AcDbEntity
  8
寸法
 62
     0
 48
50.0
370
    -2
100
AcDbBlockReference
  2
_DOTSMALL
 10
9073.903002751629
 20
2815.948390869333
 30
0.0
 41
100.0
 42
100.0
 43
100.0
 50
270.0
  0
INSERT
  5
18689
330
17BDD
100
AcDbEntity
  8
寸法
 62
     0
 48
50.0
370
    -2
100
AcDbBlockReference
  2
_DOTSMALL
 10
9073.903002751629
 20
5190.948390869337
 30
0.0
 41
100.0
 42
100.0
 43
100.0
 50
90.0
  0
MTEXT
  5
1868A
330
17BDD
100
AcDbEntity
  8
寸法
 62
     7
 48
50.0
100
AcDbMText
 10
8973.891191728005
 20
4003.448390869336
 30
0.0
 40
120.0
 41
0.0
 71
     5
 72
     1
  1
\A1;2375
  7
STYLE1
 11
0.0000000000000001
 21
1.0
 31
0.0
 73
     1
 44
1.0
1001
ACAD
1000
MTEXTBEGIN
1070
    73
1070
     1
1070
    44
1040
1.0
1070
    74
1070
     0
1000
MTEXTEND
  0
POINT
  5
1868B
330
17BDD
100
AcDbEntity
  8
DEFPOINTS
 62
     0
 48
50.0
100
AcDbPoint
 10
10140.65313193488
 20
2815.948390869333
 30
0.0
  0
POINT
  5
1868C
330
17BDD
100
AcDbEntity
  8
DEFPOINTS
 62
     0
 48
50.0
100
AcDbPoint
 10
10157.65313193489
 20
5190.948390869337
 30
0.0
  0
POINT
  5
1868D
330
17BDD
100
AcDbEntity
  8
DEFPOINTS
 62
     0
 48
50.0
100
AcDbPoint
 10
9073.903002751629
 20
5190.948390869337
 30
0.0
  0
ENDBLK
  5
17BE8
330
17BDD
100
AcDbEntity
  8
0
 48
50.0
100
AcDbBlockEnd
  0
BLOCK
  5
17BF3
330
17BE9
100
AcDbEntity
  8
0
 48
50.0
100
AcDbBlockBegin
  2
*D20
 70
     1
 10
0.0
 20
0.0
 30
0.0
  3
*D20
  1

  0
LINE
  5
1867C
330
17BE9
100
AcDbEntity
  8
寸法
 62
     0
 48
50.0
370
    -2
100
AcDbLine
 10
5274.037591258307
 20
9307.497424545948
 30
0.0
 11
5206.083950562581
 21
9053.89098491022
 31
0.0
  0
LINE
  5
1867D
330
17BE9
100
AcDbEntity
  8
寸法
 62
     0
 48
50.0
370
    -2
100
AcDbLine
 10
6505.037591258377
 20
9307.497424545941
 30
0.0
 11
6437.083950562653
 21
9053.89098491022
 31
0.0
  0
LINE
  5
1867E
330
17BE9
100
AcDbEntity
  8
寸法
 62
     0
 48
50.0
370
    -2
100
AcDbLine
 10
5222.160902108448
 20
9113.89098491022
 30
0.0
 11
6453.16090210852
 21
9113.89098491022
 31
0.0
  0
INSERT
  5
1867F
330
17BE9
100
AcDbEntity
  8
寸法
 62
     0
 48
50.0
370
    -2
100
AcDbBlockReference
  2
_DOTSMALL
 10
5222.160902108448
 20
9113.89098491022
 30
0.0
 41
100.0
 42
100.0
 43
100.0
 50
180.0
  0
INSERT
  5
18680
330
17BE9
100
AcDbEntity
  8
寸法
 62
     0
 48
50.0
370
    -2
100
AcDbBlockReference
  2
_DOTSMALL
 10
6453.16090210852
 20
9113.89098491022
 30
0.0
 41
100.0
 42
100.0
 43
100.0
  0
MTEXT
  5
18681
330
17BE9
100
AcDbEntity
  8
寸法
 62
     7
 48
50.0
100
AcDbMText
 10
6081.244808320626
 20
9213.902795933842
 30
0.0
 40
120.0
 41
0.0
 71
     5
 72
     1
  1
\A1;1231
  7
STYLE1
 73
     1
 44
1.0
1001
ACAD
1000
MTEXTBEGIN
1070
    73
1070
     1
1070
    44
1040
1.0
1070
    74
1070
     0
1000
MTEXTEND
  0
POINT
  5
18682
330
17BE9
100
AcDbEntity
  8
DEFPOINTS
 62
     0
 48
50.0
100
AcDbPoint
 10
5279.39657510693
 20
9327.497424545949
 30
0.0
  0
POINT
  5
18683
330
17BE9
100
AcDbEntity
  8
DEFPOINTS
 62
     0
 48
50.0
100
AcDbPoint
 10
6510.396575106999
 20
9327.497424545942
 30
0.0
  0
POINT
  5
18684
330
17BE9
100
AcDbEntity
  8
DEFPOINTS
 62
     0
 48
50.0
100
AcDbPoint
 10
6453.16090210852
 20
9113.89098491022
 30
0.0
  0
ENDBLK
  5
17BF4
330
17BE9
100
AcDbEntity
  8
0
 48
50.0
100
AcDbBlockEnd
  0
BLOCK
  5
17BFF
330
17BF5
100
AcDbEntity
  8
0
 48
50.0
100
AcDbBlockBegin
  2
*D21
 70
     1
 10
0.0
 20
0.0
 30
0.0
  3
*D21
  1

  0
LINE
  5
18673
330
17BF5
100
AcDbEntity
  8
寸法
 62
     0
 48
50.0
370
    -2
100
AcDbLine
 10
4183.037591258377
 20
9307.497424545898
 30
0.0
 11
4115.083950562662
 21
9053.89098491022
 31
0.0
  0
LINE
  5
18674
330
17BF5
100
AcDbEntity
  8
寸法
 62
     0
 48
50.0
370
    -2
100
AcDbLine
 10
5246.037591258307
 20
9307.497424545953
 30
0.0
 11
5178.08395056258
 21
9053.89098491022
 31
0.0
  0
LINE
  5
18675
330
17BF5
100
AcDbEntity
  8
寸法
 62
     0
 48
50.0
370
    -2
100
AcDbLine
 10
4131.160902108532
 20
9113.89098491022
 30
0.0
 11
5194.160902108449
 21
9113.89098491022
 31
0.0
  0
INSERT
  5
18676
330
17BF5
100
AcDbEntity
  8
寸法
 62
     0
 48
50.0
370
    -2
100
AcDbBlockReference
  2
_DOTSMALL
 10
4131.160902108532
 20
9113.89098491022
 30
0.0
 41
100.0
 42
100.0
 43
100.0
 50
180.0
  0
INSERT
  5
18677
330
17BF5
100
AcDbEntity
  8
寸法
 62
     0
 48
50.0
370
    -2
100
AcDbBlockReference
  2
_DOTSMALL
 10
5194.160902108449
 20
9113.89098491022
 30
0.0
 41
100.0
 42
100.0
 43
100.0
  0
MTEXT
  5
18678
330
17BF5
100
AcDbEntity
  8
寸法
 62
     7
 48
50.0
100
AcDbMText
 10
4658.986452655305
 20
9213.89098491022
 30
0.0
 40
120.0
 41
0.0
 71
     5
 72
     1
  1
\A1;1063
  7
STYLE1
 73
     1
 44
1.0
1001
ACAD
1000
MTEXTBEGIN
1070
    73
1070
     1
1070
    44
1040
1.0
1070
    74
1070
     0
1000
MTEXTEND
  0
POINT
  5
18679
330
17BF5
100
AcDbEntity
  8
DEFPOINTS
 62
     0
 48
50.0
100
AcDbPoint
 10
4188.396575106999
 20
9327.497424545898
 30
0.0
  0
POINT
  5
1867A
330
17BF5
100
AcDbEntity
  8
DEFPOINTS
 62
     0
 48
50.0
100
AcDbPoint
 10
5251.39657510693
 20
9327.497424545953
 30
0.0
  0
POINT
  5
1867B
330
17BF5
100
AcDbEntity
  8
DEFPOINTS
 62
     0
 48
50.0
100
AcDbPoint
 10
5194.160902108449
 20
9113.89098491022
 30
0.0
  0
ENDBLK
  5
17C00
330
17BF5
100
AcDbEntity
  8
0
 48
50.0
100
AcDbBlockEnd
  0
BLOCK
  5
17C0B
330
17C01
100
AcDbEntity
  8
0
 48
50.0
100
AcDbBlockBegin
  2
*D22
 70
     1
 10
0.0
 20
0.0
 30
0.0
  3
*D22
  1

  0
LINE
  5
1866A
330
17C01
100
AcDbEntity
  8
寸法
 62
     0
 48
50.0
370
    -2
100
AcDbLine
 10
7649.896575106999
 20
9752.497424546
 30
0.0
 11
8337.32292084141
 21
9752.497424546
 31
0.0
  0
LINE
  5
1866B
330
17C01
100
AcDbEntity
  8
寸法
 62
     0
 48
50.0
370
    -2
100
AcDbLine
 10
7649.896575106973
 20
8072.497424545984
 30
0.0
 11
8337.32292084141
 21
8072.497424545984
 31
0.0
  0
LINE
  5
1866C
330
17C01
100
AcDbEntity
  8
寸法
 62
     0
 48
50.0
370
    -2
100
AcDbLine
 10
8277.322920841411
 20
9752.497424546
 30
0.0
 11
8277.322920841411
 21
8072.497424545984
 31
0.0
  0
INSERT
  5
1866D
330
17C01
100
AcDbEntity
  8
寸法
 62
     0
 48
50.0
370
    -2
100
AcDbBlockReference
  2
_DOTSMALL
 10
8277.322920841411
 20
9752.497424546
 30
0.0
 41
100.0
 42
100.0
 43
100.0
 50
90.0
  0
INSERT
  5
1866E
330
17C01
100
AcDbEntity
  8
寸法
 62
     0
 48
50.0
370
    -2
100
AcDbBlockReference
  2
_DOTSMALL
 10
8277.322920841411
 20
8072.497424545984
 30
0.0
 41
100.0
 42
100.0
 43
100.0
 50
270.0
  0
MTEXT
  5
1866F
330
17C01
100
AcDbEntity
  8
寸法
 62
     7
 48
50.0
100
AcDbMText
 10
8177.311109817788
 20
8912.497424545993
 30
0.0
 40
120.0
 41
0.0
 71
     5
 72
     1
  1
\A1;4X420=1680
  7
STYLE1
 11
0.0000000000000001
 21
1.0
 31
0.0
 73
     1
 44
1.0
1001
ACAD
1000
MTEXTBEGIN
1070
    73
1070
     1
1070
    44
1040
1.0
1070
    74
1070
     0
1000
MTEXTEND
  0
POINT
  5
18670
330
17C01
100
AcDbEntity
  8
DEFPOINTS
 62
     0
 48
50.0
100
AcDbPoint
 10
7629.896575106998
 20
9752.497424546
 30
0.0
  0
POINT
  5
18671
330
17C01
100
AcDbEntity
  8
DEFPOINTS
 62
     0
 48
50.0
100
AcDbPoint
 10
7629.896575106974
 20
8072.497424545984
 30
0.0
  0
POINT
  5
18672
330
17C01
100
AcDbEntity
  8
DEFPOINTS
 62
     0
 48
50.0
100
AcDbPoint
 10
8277.322920841411
 20
8072.497424545984
 30
0.0
  0
ENDBLK
  5
17C0C
330
17C01
100
AcDbEntity
  8
0
 48
50.0
100
AcDbBlockEnd
  0
BLOCK
  5
17C17
330
17C0D
100
AcDbEntity
  8
0
 48
50.0
100
AcDbBlockBegin
  2
*D23
 70
     1
 10
0.0
 20
0.0
 30
0.0
  3
*D23
  1

  0
LINE
  5
18661
330
17C0D
100
AcDbEntity
  8
寸法
 62
     0
 48
50.0
370
    -2
100
AcDbLine
 10
7621.396575106999
 20
9772.138440697375
 30
0.0
 11
8016.754300969024
 21
9666.20265733124
 31
0.0
  0
LINE
  5
18662
330
17C0D
100
AcDbEntity
  8
寸法
 62
     0
 48
50.0
370
    -2
100
AcDbLine
 10
7621.396575106999
 20
9322.138440697376
 30
0.0
 11
8016.754300969024
 21
9216.202657331242
 31
0.0
  0
LINE
  5
18663
330
17C0D
100
AcDbEntity
  8
寸法
 62
     0
 48
50.0
370
    -2
100
AcDbLine
 10
7956.754300969024
 20
9682.279608877109
 30
0.0
 11
7956.754300969024
 21
9232.27960887711
 31
0.0
  0
INSERT
  5
18664
330
17C0D
100
AcDbEntity
  8
寸法
 62
     0
 48
50.0
370
    -2
100
AcDbBlockReference
  2
_DOTSMALL
 10
7956.754300969024
 20
9682.279608877109
 30
0.0
 41
100.0
 42
100.0
 43
100.0
 50
90.0
  0
INSERT
  5
18665
330
17C0D
100
AcDbEntity
  8
寸法
 62
     0
 48
50.0
370
    -2
100
AcDbBlockReference
  2
_DOTSMALL
 10
7956.754300969024
 20
9232.27960887711
 30
0.0
 41
100.0
 42
100.0
 43
100.0
 50
270.0
  0
MTEXT
  5
18666
330
17C0D
100
AcDbEntity
  8
寸法
 62
     7
 48
50.0
100
AcDbMText
 10
7856.754300969022
 20
9457.27960887711
 30
0.0
 40
120.0
 41
0.0
 71
     5
 72
     1
  1
\A1;450
  7
STYLE1
 11
0.0000000000000001
 21
1.0
 31
0.0
 73
     1
 44
1.0
1001
ACAD
1000
MTEXTBEGIN
1070
    73
1070
     1
1070
    44
1040
1.0
1070
    74
1070
     0
1000
MTEXTEND
  0
POINT
  5
18667
330
17C0D
100
AcDbEntity
  8
DEFPOINTS
 62
     0
 48
50.0
100
AcDbPoint
 10
7601.396575106999
 20
9777.497424545996
 30
0.0
  0
POINT
  5
18668
330
17C0D
100
AcDbEntity
  8
DEFPOINTS
 62
     0
 48
50.0
100
AcDbPoint
 10
7601.396575106999
 20
9327.497424546001
 30
0.0
  0
POINT
  5
18669
330
17C0D
100
AcDbEntity
  8
DEFPOINTS
 62
     0
 48
50.0
100
AcDbPoint
 10
7956.754300969024
 20
9232.27960887711
 30
0.0
  0
ENDBLK
  5
17C18
330
17C0D
100
AcDbEntity
  8
0
 48
50.0
100
AcDbBlockEnd
  0
BLOCK
  5
17C23
330
17C19
100
AcDbEntity
  8
0
 48
50.0
100
AcDbBlockBegin
  2
*D24
 70
     1
 10
0.0
 20
0.0
 30
0.0
  3
*D24
  1

  0
LINE
  5
18658
330
17C19
100
AcDbEntity
  8
寸法
 62
     0
 48
50.0
370
    -2
100
AcDbLine
 10
6533.037591258377
 20
9307.497424546005
 30
0.0
 11
6465.083950562664
 21
9053.89098491033
 31
0.0
  0
LINE
  5
18659
330
17C19
100
AcDbEntity
  8
寸法
 62
     0
 48
50.0
370
    -2
100
AcDbLine
 10
7596.037591258388
 20
9307.497424545999
 30
0.0
 11
7528.083950562677
 21
9053.89098491033
 31
0.0
  0
LINE
  5
1865A
330
17C19
100
AcDbEntity
  8
寸法
 62
     0
 48
50.0
370
    -2
100
AcDbLine
 10
6481.160902108531
 20
9113.89098491033
 30
0.0
 11
7544.160902108544
 21
9113.89098491033
 31
0.0
  0
INSERT
  5
1865B
330
17C19
100
AcDbEntity
  8
寸法
 62
     0
 48
50.0
370
    -2
100
AcDbBlockReference
  2
_DOTSMALL
 10
6481.160902108531
 20
9113.89098491033
 30
0.0
 41
100.0
 42
100.0
 43
100.0
 50
180.0
  0
INSERT
  5
1865C
330
17C19
100
AcDbEntity
  8
寸法
 62
     0
 48
50.0
370
    -2
100
AcDbBlockReference
  2
_DOTSMALL
 10
7544.160902108544
 20
9113.89098491033
 30
0.0
 41
100.0
 42
100.0
 43
100.0
  0
MTEXT
  5
1865D
330
17C19
100
AcDbEntity
  8
寸法
 62
     7
 48
50.0
100
AcDbMText
 10
7061.28653022935
 20
9213.89098491033
 30
0.0
 40
120.0
 41
0.0
 71
     5
 72
     1
  1
\A1;1063
  7
STYLE1
 73
     1
 44
1.0
1001
ACAD
1000
MTEXTBEGIN
1070
    73
1070
     1
1070
    44
1040
1.0
1070
    74
1070
     0
1000
MTEXTEND
  0
POINT
  5
1865E
330
17C19
100
AcDbEntity
  8
DEFPOINTS
 62
     0
 48
50.0
100
AcDbPoint
 10
6538.396575106999
 20
9327.497424546008
 30
0.0
  0
POINT
  5
1865F
330
17C19
100
AcDbEntity
  8
DEFPOINTS
 62
     0
 48
50.0
100
AcDbPoint
 10
7601.396575107009
 20
9327.497424546001
 30
0.0
  0
POINT
  5
18660
330
17C19
100
AcDbEntity
  8
DEFPOINTS
 62
     0
 48
50.0
100
AcDbPoint
 10
7544.160902108544
 20
9113.89098491033
 30
0.0
  0
ENDBLK
  5
17C24
330
17C19
100
AcDbEntity
  8
0
 48
50.0
100
AcDbBlockEnd
  0
BLOCK
  5
17C31
330
17C25
100
AcDbEntity
  8
0
 48
50.0
100
AcDbBlockBegin
  2
*D25
 70
     1
 10
0.0
 20
0.0
 30
0.0
  3
*D25
  1

  0
LINE
  5
1864D
330
17C25
100
AcDbEntity
  8
寸法
 62
     0
 48
50.0
370
    -2
100
AcDbLine
 10
7649.896575106973
 20
8072.497424545984
 30
0.0
 11
8337.322920841385
 21
8072.497424545984
 31
0.0
  0
LINE
  5
1864E
330
17C25
100
AcDbEntity
  8
寸法
 62
     0
 48
50.0
370
    -2
100
AcDbLine
 10
7649.896575106973
 20
8017.497424545991
 30
0.0
 11
8337.322920841385
 21
8017.497424545991
 31
0.0
  0
LINE
  5
1864F
330
17C25
100
AcDbEntity
  8
寸法
 62
     0
 48
50.0
370
    -2
100
AcDbLine
 10
8277.322920841385
 20
8072.497424545984
 30
0.0
 11
8277.322920841385
 21
8172.497424545985
 31
0.0
  0
LINE
  5
18650
330
17C25
100
AcDbEntity
  8
寸法
 62
     0
 48
50.0
370
    -2
100
AcDbLine
 10
8277.322920841385
 20
8017.497424545991
 30
0.0
 11
8277.322920841385
 21
7600.526861797509
 31
0.0
  0
LINE
  5
18651
330
17C25
100
AcDbEntity
  8
寸法
 62
     0
 48
50.0
370
    -2
100
AcDbLine
 10
8277.322920841385
 20
8072.497424545984
 30
0.0
 11
8277.322920841385
 21
8017.497424545991
 31
0.0
  0
INSERT
  5
18652
330
17C25
100
AcDbEntity
  8
寸法
 62
     0
 48
50.0
370
    -2
100
AcDbBlockReference
  2
_DOTSMALL
 10
8277.322920841385
 20
8072.497424545984
 30
0.0
 41
100.0
 42
100.0
 43
100.0
 50
270.0
  0
INSERT
  5
18653
330
17C25
100
AcDbEntity
  8
寸法
 62
     0
 48
50.0
370
    -2
100
AcDbBlockReference
  2
_DOTSMALL
 10
8277.322920841385
 20
8017.497424545991
 30
0.0
 41
100.0
 42
100.0
 43
100.0
 50
90.0
  0
MTEXT
  5
18654
330
17C25
100
AcDbEntity
  8
寸法
 62
     7
 48
50.0
100
AcDbMText
 10
8177.322920841383
 20
7709.012143171749
 30
0.0
 40
120.0
 41
0.0
 71
     5
 72
     1
  1
\A1;55
  7
STYLE1
 11
0.0000000000000001
 21
1.0
 31
0.0
 73
     1
 44
1.0
1001
ACAD
1000
MTEXTBEGIN
1070
    73
1070
     1
1070
    44
1040
1.0
1070
    74
1070
     0
1000
MTEXTEND
  0
POINT
  5
18655
330
17C25
100
AcDbEntity
  8
DEFPOINTS
 62
     0
 48
50.0
100
AcDbPoint
 10
7629.896575106974
 20
8072.497424545984
 30
0.0
  0
POINT
  5
18656
330
17C25
100
AcDbEntity
  8
DEFPOINTS
 62
     0
 48
50.0
100
AcDbPoint
 10
7629.896575106974
 20
8017.497424545991
 30
0.0
  0
POINT
  5
18657
330
17C25
100
AcDbEntity
  8
DEFPOINTS
 62
     0
 48
50.0
100
AcDbPoint
 10
8277.322920841385
 20
8017.497424545991
 30
0.0
  0
ENDBLK
  5
17C32
330
17C25
100
AcDbEntity
  8
0
 48
50.0
100
AcDbBlockEnd
  0
BLOCK
  5
17C4B
330
17C3F
100
AcDbEntity
  8
0
 48
50.0
100
AcDbBlockBegin
  2
*D26
 70
     1
 10
0.0
 20
0.0
 30
0.0
  3
*D26
  1

  0
LINE
  5
18639
330
17C3F
100
AcDbEntity
  8
寸法
 62
     0
 48
50.0
370
    -2
100
AcDbLine
 10
4159.896575106962
 20
9827.497424545905
 30
0.0
 11
4159.896575106962
 21
10383.30564417088
 31
0.0
  0
LINE
  5
1863A
330
17C3F
100
AcDbEntity
  8
寸法
 62
     0
 48
50.0
370
    -2
100
AcDbLine
 10
4214.896575106999
 20
9827.497424545905
 30
0.0
 11
4214.896575106999
 21
10383.30564417088
 31
0.0
  0
LINE
  5
1863B
330
17C3F
100
AcDbEntity
  8
寸法
 62
     0
 48
50.0
370
    -2
100
AcDbLine
 10
4214.896575106999
 20
10323.30564417088
 30
0.0
 11
4314.896575106999
 21
10323.30564417088
 31
0.0
  0
LINE
  5
1863C
330
17C3F
100
AcDbEntity
  8
寸法
 62
     0
 48
50.0
370
    -2
100
AcDbLine
 10
4159.896575106962
 20
10323.30564417088
 30
0.0
 11
3742.926012358484
 21
10323.30564417088
 31
0.0
  0
LINE
  5
1863D
330
17C3F
100
AcDbEntity
  8
寸法
 62
     0
 48
50.0
370
    -2
100
AcDbLine
 10
4214.896575106999
 20
10323.30564417088
 30
0.0
 11
4159.896575106962
 21
10323.30564417088
 31
0.0
  0
INSERT
  5
1863E
330
17C3F
100
AcDbEntity
  8
寸法
 62
     0
 48
50.0
370
    -2
100
AcDbBlockReference
  2
_DOTSMALL
 10
4214.896575106999
 20
10323.30564417088
 30
0.0
 41
100.0
 42
100.0
 43
100.0
 50
180.0
  0
INSERT
  5
1863F
330
17C3F
100
AcDbEntity
  8
寸法
 62
     0
 48
50.0
370
    -2
100
AcDbBlockReference
  2
_DOTSMALL
 10
4159.896575106962
 20
10323.30564417088
 30
0.0
 41
100.0
 42
100.0
 43
100.0
  0
MTEXT
  5
18640
330
17C3F
100
AcDbEntity
  8
寸法
 62
     7
 48
50.0
100
AcDbMText
 10
3851.411293732723
 20
10423.30564417088
 30
0.0
 40
120.0
 41
0.0
 71
     5
 72
     1
  1
\A1;55
  7
STYLE1
 73
     1
 44
1.0
1001
ACAD
1000
MTEXTBEGIN
1070
    73
1070
     1
1070
    44
1040
1.0
1070
    74
1070
     0
1000
MTEXTEND
  0
POINT
  5
18641
330
17C3F
100
AcDbEntity
  8
DEFPOINTS
 62
     0
 48
50.0
100
AcDbPoint
 10
4159.896575106962
 20
9807.497424545902
 30
0.0
  0
POINT
  5
18642
330
17C3F
100
AcDbEntity
  8
DEFPOINTS
 62
     0
 48
50.0
100
AcDbPoint
 10
4214.896575106999
 20
9807.497424545902
 30
0.0
  0
POINT
  5
18643
330
17C3F
100
AcDbEntity
  8
DEFPOINTS
 62
     0
 48
50.0
100
AcDbPoint
 10
4214.896575106999
 20
10323.30564417088
 30
0.0
  0
ENDBLK
  5
17C4C
330
17C3F
100
AcDbEntity
  8
0
 48
50.0
100
AcDbBlockEnd
  0
BLOCK
  5
17C59
330
17C4D
100
AcDbEntity
  8
0
 48
50.0
100
AcDbBlockBegin
  2
*D27
 70
     1
 10
0.0
 20
0.0
 30
0.0
  3
*D27
  1

  0
LINE
  5
1862E
330
17C4D
100
AcDbEntity
  8
寸法
 62
     0
 48
50.0
370
    -2
100
AcDbLine
 10
7649.896575106999
 20
9807.497424545999
 30
0.0
 11
8337.32292084141
 21
9807.497424545999
 31
0.0
  0
LINE
  5
1862F
330
17C4D
100
AcDbEntity
  8
寸法
 62
     0
 48
50.0
370
    -2
100
AcDbLine
 10
7649.896575106999
 20
9752.497424546
 30
0.0
 11
8337.32292084141
 21
9752.497424546
 31
0.0
  0
LINE
  5
18630
330
17C4D
100
AcDbEntity
  8
寸法
 62
     0
 48
50.0
370
    -2
100
AcDbLine
 10
8277.322920841411
 20
9752.497424546
 30
0.0
 11
8277.322920841411
 21
9652.497424546
 31
0.0
  0
LINE
  5
18631
330
17C4D
100
AcDbEntity
  8
寸法
 62
     0
 48
50.0
370
    -2
100
AcDbLine
 10
8277.322920841411
 20
9807.497424545999
 30
0.0
 11
8277.322920841411
 21
10224.46798729447
 31
0.0
  0
LINE
  5
18632
330
17C4D
100
AcDbEntity
  8
寸法
 62
     0
 48
50.0
370
    -2
100
AcDbLine
 10
8277.322920841411
 20
9752.497424546
 30
0.0
 11
8277.322920841411
 21
9807.497424545999
 31
0.0
  0
INSERT
  5
18633
330
17C4D
100
AcDbEntity
  8
寸法
 62
     0
 48
50.0
370
    -2
100
AcDbBlockReference
  2
_DOTSMALL
 10
8277.322920841411
 20
9752.497424546
 30
0.0
 41
100.0
 42
100.0
 43
100.0
 50
90.0
  0
INSERT
  5
18634
330
17C4D
100
AcDbEntity
  8
寸法
 62
     0
 48
50.0
370
    -2
100
AcDbBlockReference
  2
_DOTSMALL
 10
8277.322920841411
 20
9807.497424545999
 30
0.0
 41
100.0
 42
100.0
 43
100.0
 50
270.0
  0
MTEXT
  5
18635
330
17C4D
100
AcDbEntity
  8
寸法
 62
     7
 48
50.0
100
AcDbMText
 10
8177.32292084141
 20
10115.98270592023
 30
0.0
 40
120.0
 41
0.0
 71
     5
 72
     1
  1
\A1;55
  7
STYLE1
 11
0.0000000000000001
 21
1.0
 31
0.0
 73
     1
 44
1.0
1001
ACAD
1000
MTEXTBEGIN
1070
    73
1070
     1
1070
    44
1040
1.0
1070
    74
1070
     0
1000
MTEXTEND
  0
POINT
  5
18636
330
17C4D
100
AcDbEntity
  8
DEFPOINTS
 62
     0
 48
50.0
100
AcDbPoint
 10
7629.896575106998
 20
9807.497424545999
 30
0.0
  0
POINT
  5
18637
330
17C4D
100
AcDbEntity
  8
DEFPOINTS
 62
     0
 48
50.0
100
AcDbPoint
 10
7629.896575106998
 20
9752.497424546
 30
0.0
  0
POINT
  5
18638
330
17C4D
100
AcDbEntity
  8
DEFPOINTS
 62
     0
 48
50.0
100
AcDbPoint
 10
8277.322920841411
 20
9752.497424546
 30
0.0
  0
ENDBLK
  5
17C5A
330
17C4D
100
AcDbEntity
  8
0
 48
50.0
100
AcDbBlockEnd
  0
BLOCK
  5
17C67
330
17C5B
100
AcDbEntity
  8
0
 48
50.0
100
AcDbBlockBegin
  2
*D28
 70
     1
 10
0.0
 20
0.0
 30
0.0
  3
*D28
  1

  0
LINE
  5
18623
330
17C5B
100
AcDbEntity
  8
寸法
 62
     0
 48
50.0
370
    -2
100
AcDbLine
 10
7574.896575106999
 20
9827.497424545995
 30
0.0
 11
7574.896575106999
 21
10383.30564417098
 31
0.0
  0
LINE
  5
18624
330
17C5B
100
AcDbEntity
  8
寸法
 62
     0
 48
50.0
370
    -2
100
AcDbLine
 10
7629.896575106998
 20
9827.497424545995
 30
0.0
 11
7629.896575106998
 21
10383.30564417098
 31
0.0
  0
LINE
  5
18625
330
17C5B
100
AcDbEntity
  8
寸法
 62
     0
 48
50.0
370
    -2
100
AcDbLine
 10
7574.896575106999
 20
10323.30564417098
 30
0.0
 11
7474.896575106999
 21
10323.30564417098
 31
0.0
  0
LINE
  5
18626
330
17C5B
100
AcDbEntity
  8
寸法
 62
     0
 48
50.0
370
    -2
100
AcDbLine
 10
7629.896575106998
 20
10323.30564417098
 30
0.0
 11
8046.867137855477
 21
10323.30564417098
 31
0.0
  0
LINE
  5
18627
330
17C5B
100
AcDbEntity
  8
寸法
 62
     0
 48
50.0
370
    -2
100
AcDbLine
 10
7574.896575106999
 20
10323.30564417098
 30
0.0
 11
7629.896575106998
 21
10323.30564417098
 31
0.0
  0
INSERT
  5
18628
330
17C5B
100
AcDbEntity
  8
寸法
 62
     0
 48
50.0
370
    -2
100
AcDbBlockReference
  2
_DOTSMALL
 10
7574.896575106999
 20
10323.30564417098
 30
0.0
 41
100.0
 42
100.0
 43
100.0
  0
INSERT
  5
18629
330
17C5B
100
AcDbEntity
  8
寸法
 62
     0
 48
50.0
370
    -2
100
AcDbBlockReference
  2
_DOTSMALL
 10
7629.896575106998
 20
10323.30564417098
 30
0.0
 41
100.0
 42
100.0
 43
100.0
 50
180.0
  0
MTEXT
  5
1862A
330
17C5B
100
AcDbEntity
  8
寸法
 62
     7
 48
50.0
100
AcDbMText
 10
7938.381856481235
 20
10423.30564417098
 30
0.0
 40
120.0
 41
0.0
 71
     5
 72
     1
  1
\A1;55
  7
STYLE1
 73
     1
 44
1.0
1001
ACAD
1000
MTEXTBEGIN
1070
    73
1070
     1
1070
    44
1040
1.0
1070
    74
1070
     0
1000
MTEXTEND
  0
POINT
  5
1862B
330
17C5B
100
AcDbEntity
  8
DEFPOINTS
 62
     0
 48
50.0
100
AcDbPoint
 10
7574.896575106999
 20
9807.497424545999
 30
0.0
  0
POINT
  5
1862C
330
17C5B
100
AcDbEntity
  8
DEFPOINTS
 62
     0
 48
50.0
100
AcDbPoint
 10
7629.896575106998
 20
9807.497424545999
 30
0.0
  0
POINT
  5
1862D
330
17C5B
100
AcDbEntity
  8
DEFPOINTS
 62
     0
 48
50.0
100
AcDbPoint
 10
7629.896575106998
 20
10323.30564417098
 30
0.0
  0
ENDBLK
  5
17C68
330
17C5B
100
AcDbEntity
  8
0
 48
50.0
100
AcDbBlockEnd
  0
BLOCK
  5
17C73
330
17C69
100
AcDbEntity
  8
0
 48
50.0
100
AcDbBlockBegin
  2
*D29
 70
     1
 10
0.0
 20
0.0
 30
0.0
  3
*D29
  1

  0
LINE
  5
1861A
330
17C69
100
AcDbEntity
  8
寸法
 62
     0
 48
50.0
370
    -2
100
AcDbLine
 10
4214.896575106999
 20
9827.497424545905
 30
0.0
 11
4214.896575106999
 21
10383.305644171
 31
0.0
  0
LINE
  5
1861B
330
17C69
100
AcDbEntity
  8
寸法
 62
     0
 48
50.0
370
    -2
100
AcDbLine
 10
7574.896575106999
 20
9827.497424545995
 30
0.0
 11
7574.896575106999
 21
10383.305644171
 31
0.0
  0
LINE
  5
1861C
330
17C69
100
AcDbEntity
  8
寸法
 62
     0
 48
50.0
370
    -2
100
AcDbLine
 10
4214.896575106999
 20
10323.305644171
 30
0.0
 11
7574.896575106999
 21
10323.305644171
 31
0.0
  0
INSERT
  5
1861D
330
17C69
100
AcDbEntity
  8
寸法
 62
     0
 48
50.0
370
    -2
100
AcDbBlockReference
  2
_DOTSMALL
 10
4214.896575106999
 20
10323.305644171
 30
0.0
 41
100.0
 42
100.0
 43
100.0
 50
180.0
  0
INSERT
  5
1861E
330
17C69
100
AcDbEntity
  8
寸法
 62
     0
 48
50.0
370
    -2
100
AcDbBlockReference
  2
_DOTSMALL
 10
7574.896575106999
 20
10323.305644171
 30
0.0
 41
100.0
 42
100.0
 43
100.0
  0
MTEXT
  5
1861F
330
17C69
100
AcDbEntity
  8
寸法
 62
     7
 48
50.0
100
AcDbMText
 10
5894.896575106997
 20
10423.31745519462
 30
0.0
 40
120.0
 41
0.0
 71
     5
 72
     1
  1
\A1;8X420=3360
  7
STYLE1
 73
     1
 44
1.0
1001
ACAD
1000
MTEXTBEGIN
1070
    73
1070
     1
1070
    44
1040
1.0
1070
    74
1070
     0
1000
MTEXTEND
  0
POINT
  5
18620
330
17C69
100
AcDbEntity
  8
DEFPOINTS
 62
     0
 48
50.0
100
AcDbPoint
 10
4214.896575106999
 20
9807.497424545902
 30
0.0
  0
POINT
  5
18621
330
17C69
100
AcDbEntity
  8
DEFPOINTS
 62
     0
 48
50.0
100
AcDbPoint
 10
7574.896575106999
 20
9807.497424545999
 30
0.0
  0
POINT
  5
18622
330
17C69
100
AcDbEntity
  8
DEFPOINTS
 62
     0
 48
50.0
100
AcDbPoint
 10
7574.896575106999
 20
10323.305644171
 30
0.0
  0
ENDBLK
  5
17C74
330
17C69
100
AcDbEntity
  8
0
 48
50.0
100
AcDbBlockEnd
  0
BLOCK
  5
17C7F
330
17C75
100
AcDbEntity
  8
0
 48
50.0
100
AcDbBlockBegin
  2
*D30
 70
     1
 10
0.0
 20
0.0
 30
0.0
  3
*D30
  1

  0
LINE
  5
18611
330
17C75
100
AcDbEntity
  8
寸法
 62
     0
 48
50.0
370
    -2
100
AcDbLine
 10
7649.896575106999
 20
9807.497424545999
 30
0.0
 11
8702.429862581048
 21
9807.497424545999
 31
0.0
  0
LINE
  5
18612
330
17C75
100
AcDbEntity
  8
寸法
 62
     0
 48
50.0
370
    -2
100
AcDbLine
 10
7649.896575106973
 20
8017.497424545991
 30
0.0
 11
8702.429862581048
 21
8017.497424545991
 31
0.0
  0
LINE
  5
18613
330
17C75
100
AcDbEntity
  8
寸法
 62
     0
 48
50.0
370
    -2
100
AcDbLine
 10
8642.429862581046
 20
9807.497424545999
 30
0.0
 11
8642.429862581046
 21
8017.497424545991
 31
0.0
  0
INSERT
  5
18614
330
17C75
100
AcDbEntity
  8
寸法
 62
     0
 48
50.0
370
    -2
100
AcDbBlockReference
  2
_DOTSMALL
 10
8642.429862581046
 20
9807.497424545999
 30
0.0
 41
100.0
 42
100.0
 43
100.0
 50
90.0
  0
INSERT
  5
18615
330
17C75
100
AcDbEntity
  8
寸法
 62
     0
 48
50.0
370
    -2
100
AcDbBlockReference
  2
_DOTSMALL
 10
8642.429862581046
 20
8017.497424545991
 30
0.0
 41
100.0
 42
100.0
 43
100.0
 50
270.0
  0
MTEXT
  5
18616
330
17C75
100
AcDbEntity
  8
寸法
 62
     7
 48
50.0
100
AcDbMText
 10
8542.429862581045
 20
8912.497424545993
 30
0.0
 40
120.0
 41
0.0
 71
     5
 72
     1
  1
\A1;1790
  7
STYLE1
 11
0.0000000000000001
 21
1.0
 31
0.0
 73
     1
 44
1.0
1001
ACAD
1000
MTEXTBEGIN
1070
    73
1070
     1
1070
    44
1040
1.0
1070
    74
1070
     0
1000
MTEXTEND
  0
POINT
  5
18617
330
17C75
100
AcDbEntity
  8
DEFPOINTS
 62
     0
 48
50.0
100
AcDbPoint
 10
7629.896575106998
 20
9807.497424545999
 30
0.0
  0
POINT
  5
18618
330
17C75
100
AcDbEntity
  8
DEFPOINTS
 62
     0
 48
50.0
100
AcDbPoint
 10
7629.896575106974
 20
8017.497424545991
 30
0.0
  0
POINT
  5
18619
330
17C75
100
AcDbEntity
  8
DEFPOINTS
 62
     0
 48
50.0
100
AcDbPoint
 10
8642.429862581046
 20
8017.497424545991
 30
0.0
  0
ENDBLK
  5
17C80
330
17C75
100
AcDbEntity
  8
0
 48
50.0
100
AcDbBlockEnd
  0
BLOCK
  5
17C8B
330
17C81
100
AcDbEntity
  8
0
 48
50.0
100
AcDbBlockBegin
  2
*D31
 70
     1
 10
0.0
 20
0.0
 30
0.0
  3
*D31
  1

  0
LINE
  5
18608
330
17C81
100
AcDbEntity
  8
寸法
 62
     0
 48
50.0
370
    -2
100
AcDbLine
 10
7729.896575106991
 20
2495.948390869332
 30
0.0
 11
7729.896575106991
 21
2169.901061568955
 31
0.0
  0
LINE
  5
18609
330
17C81
100
AcDbEntity
  8
寸法
 62
     0
 48
50.0
370
    -2
100
AcDbLine
 10
7529.896575106992
 20
2495.948390869332
 30
0.0
 11
7529.896575106992
 21
2169.901061568955
 31
0.0
  0
LINE
  5
1860A
330
17C81
100
AcDbEntity
  8
寸法
 62
     0
 48
50.0
370
    -2
100
AcDbLine
 10
7729.896575106991
 20
2229.901061568955
 30
0.0
 11
7529.896575106992
 21
2229.901061568955
 31
0.0
  0
INSERT
  5
1860B
330
17C81
100
AcDbEntity
  8
寸法
 62
     0
 48
50.0
370
    -2
100
AcDbBlockReference
  2
_DOTSMALL
 10
7729.896575106991
 20
2229.901061568955
 30
0.0
 41
100.0
 42
100.0
 43
100.0
  0
INSERT
  5
1860C
330
17C81
100
AcDbEntity
  8
寸法
 62
     0
 48
50.0
370
    -2
100
AcDbBlockReference
  2
_DOTSMALL
 10
7529.896575106992
 20
2229.901061568955
 30
0.0
 41
100.0
 42
100.0
 43
100.0
 50
180.0
  0
MTEXT
  5
1860D
330
17C81
100
AcDbEntity
  8
寸法
 62
     7
 48
50.0
100
AcDbMText
 10
7629.896575106991
 20
2329.912872592577
 30
0.0
 40
120.0
 41
0.0
 71
     5
 72
     1
  1
\A1;200
  7
STYLE1
 73
     1
 44
1.0
1001
ACAD
1000
MTEXTBEGIN
1070
    73
1070
     1
1070
    44
1040
1.0
1070
    74
1070
     0
1000
MTEXTEND
  0
POINT
  5
1860E
330
17C81
100
AcDbEntity
  8
DEFPOINTS
 62
     0
 48
50.0
100
AcDbPoint
 10
7729.896575106991
 20
2515.948390869332
 30
0.0
  0
POINT
  5
1860F
330
17C81
100
AcDbEntity
  8
DEFPOINTS
 62
     0
 48
50.0
100
AcDbPoint
 10
7529.896575106992
 20
2515.948390869332
 30
0.0
  0
POINT
  5
18610
330
17C81
100
AcDbEntity
  8
DEFPOINTS
 62
     0
 48
50.0
100
AcDbPoint
 10
7529.896575106992
 20
2229.901061568955
 30
0.0
  0
ENDBLK
  5
17C8C
330
17C81
100
AcDbEntity
  8
0
 48
50.0
100
AcDbBlockEnd
  0
BLOCK
  5
18904
330
188FA
100
AcDbEntity
  8
0
 48
50.0
100
AcDbBlockBegin
  2
*D32
 70
     1
 10
0.0
 20
0.0
 30
0.0
  3
*D32
  1

  0
LINE
  5
18962
330
188FA
100
AcDbEntity
  8
寸法
 62
     0
 48
50.0
370
    -2
100
AcDbLine
 10
5066.896575106967
 20
7920.49742454586
 30
0.0
 11
5066.896575106967
 21
7246.208179622299
 31
0.0
  0
LINE
  5
18963
330
188FA
100
AcDbEntity
  8
寸法
 62
     0
 48
50.0
370
    -2
100
AcDbLine
 10
6332.896575106968
 20
7920.49742454586
 30
0.0
 11
6332.896575106968
 21
7246.208179622299
 31
0.0
  0
LINE
  5
18964
330
188FA
100
AcDbEntity
  8
寸法
 62
     0
 48
50.0
370
    -2
100
AcDbLine
 10
5066.896575106967
 20
7306.208179622299
 30
0.0
 11
6332.896575106968
 21
7306.208179622299
 31
0.0
  0
INSERT
  5
18965
330
188FA
100
AcDbEntity
  8
寸法
 62
     0
 48
50.0
370
    -2
100
AcDbBlockReference
  2
_DOTSMALL
 10
5066.896575106967
 20
7306.208179622299
 30
0.0
 41
100.0
 42
100.0
 43
100.0
 50
180.0
  0
INSERT
  5
18966
330
188FA
100
AcDbEntity
  8
寸法
 62
     0
 48
50.0
370
    -2
100
AcDbBlockReference
  2
_DOTSMALL
 10
6332.896575106968
 20
7306.208179622299
 30
0.0
 41
100.0
 42
100.0
 43
100.0
  0
MTEXT
  5
18967
330
188FA
100
AcDbEntity
  8
寸法
 62
     7
 48
50.0
100
AcDbMText
 10
5721.996666023391
 20
7506.21999064592
 30
0.0
 40
120.0
 41
0.0
 71
     5
 72
     1
  1
\A1;有効開口部間口\P1266
  7
STYLE1
 73
     1
 44
1.0
1001
ACAD
1000
MTEXTBEGIN
1070
    73
1070
     1
1070
    44
1040
1.0
1070
    74
1070
     0
1000
MTEXTEND
  0
POINT
  5
18968
330
188FA
100
AcDbEntity
  8
DEFPOINTS
 62
     0
 48
50.0
100
AcDbPoint
 10
5066.896575106967
 20
7940.497424545857
 30
0.0
  0
POINT
  5
18969
330
188FA
100
AcDbEntity
  8
DEFPOINTS
 62
     0
 48
50.0
100
AcDbPoint
 10
6332.896575106968
 20
7940.497424545857
 30
0.0
  0
POINT
  5
1896A
330
188FA
100
AcDbEntity
  8
DEFPOINTS
 62
     0
 48
50.0
100
AcDbPoint
 10
6332.896575106968
 20
7306.208179622299
 30
0.0
  0
ENDBLK
  5
18905
330
188FA
100
AcDbEntity
  8
0
 48
50.0
100
AcDbBlockEnd
  0
BLOCK
  5
18C8D
330
18C83
100
AcDbEntity
  8
0
 48
50.0
100
AcDbBlockBegin
  2
*D33
 70
     1
 10
0.0
 20
0.0
 30
0.0
  3
*D33
  1

  0
LINE
  5
18DDB
330
18C83
100
AcDbEntity
  8
寸法
 62
     0
 48
50.0
370
    -2
100
AcDbLine
 10
5027.896575106966
 20
7920.497424545894
 30
0.0
 11
5027.896575106966
 21
6960.367709118127
 31
0.0
  0
LINE
  5
18DDC
330
18C83
100
AcDbEntity
  8
寸法
 62
     0
 48
50.0
370
    -2
100
AcDbLine
 10
7181.896575106967
 20
7920.497424545894
 30
0.0
 11
7181.896575106967
 21
6960.367709118127
 31
0.0
  0
LINE
  5
18DDD
330
18C83
100
AcDbEntity
  8
寸法
 62
     0
 48
50.0
370
    -2
100
AcDbLine
 10
5027.896575106966
 20
7020.367709118126
 30
0.0
 11
7181.896575106967
 21
7020.367709118126
 31
0.0
  0
INSERT
  5
18DDE
330
18C83
100
AcDbEntity
  8
寸法
 62
     0
 48
50.0
370
    -2
100
AcDbBlockReference
  2
_DOTSMALL
 10
5027.896575106966
 20
7020.367709118126
 30
0.0
 41
100.0
 42
100.0
 43
100.0
 50
180.0
  0
INSERT
  5
18DDF
330
18C83
100
AcDbEntity
  8
寸法
 62
     0
 48
50.0
370
    -2
100
AcDbBlockReference
  2
_DOTSMALL
 10
7181.896575106967
 20
7020.367709118126
 30
0.0
 41
100.0
 42
100.0
 43
100.0
  0
MTEXT
  5
18DE0
330
18C83
100
AcDbEntity
  8
寸法
 62
     7
 48
50.0
100
AcDbMText
 10
6127.029331854279
 20
7120.379520141748
 30
0.0
 40
120.0
 41
0.0
 71
     5
 72
     1
  1
\A1;2154
  7
STYLE1
 73
     1
 44
1.0
1001
ACAD
1000
MTEXTBEGIN
1070
    73
1070
     1
1070
    44
1040
1.0
1070
    74
1070
     0
1000
MTEXTEND
  0
POINT
  5
18DE1
330
18C83
100
AcDbEntity
  8
DEFPOINTS
 62
     0
 48
50.0
100
AcDbPoint
 10
5027.896575106966
 20
7940.497424545895
 30
0.0
  0
POINT
  5
18DE2
330
18C83
100
AcDbEntity
  8
DEFPOINTS
 62
     0
 48
50.0
100
AcDbPoint
 10
7181.896575106967
 20
7940.497424545895
 30
0.0
  0
POINT
  5
18DE3
330
18C83
100
AcDbEntity
  8
DEFPOINTS
 62
     0
 48
50.0
100
AcDbPoint
 10
7181.896575106967
 20
7020.367709118126
 30
0.0
  0
ENDBLK
  5
18C8E
330
18C83
100
AcDbEntity
  8
0
 48
50.0
100
AcDbBlockEnd
  0
BLOCK
  5
18C9B
330
18C8F
100
AcDbEntity
  8
0
 48
50.0
100
AcDbBlockBegin
  2
*D34
 70
     1
 10
0.0
 20
0.0
 30
0.0
  3
*D34
  1

  0
LINE
  5
18DE4
330
18C8F
100
AcDbEntity
  8
寸法
 62
     0
 48
50.0
370
    -2
100
AcDbLine
 10
5007.896575106967
 20
8017.497424545894
 30
0.0
 11
4779.282607432259
 21
8017.497424545894
 31
0.0
  0
LINE
  5
18DE5
330
18C8F
100
AcDbEntity
  8
寸法
 62
     0
 48
50.0
370
    -2
100
AcDbLine
 10
5007.896575106965
 20
7942.497424545861
 30
0.0
 11
4779.282607432259
 21
7942.497424545861
 31
0.0
  0
LINE
  5
18DE6
330
18C8F
100
AcDbEntity
  8
寸法
 62
     0
 48
50.0
370
    -2
100
AcDbLine
 10
4819.28260743226
 20
8037.497424545895
 30
0.0
 11
4819.28260743226
 21
8057.497424545896
 31
0.0
  0
LINE
  5
18DE7
330
18C8F
100
AcDbEntity
  8
寸法
 62
     0
 48
50.0
370
    -2
100
AcDbLine
 10
4819.28260743226
 20
7922.497424545861
 30
0.0
 11
4819.28260743226
 21
7695.840369223937
 31
0.0
  0
LINE
  5
18DE8
330
18C8F
100
AcDbEntity
  8
寸法
 62
     0
 48
50.0
370
    -2
100
AcDbLine
 10
4819.28260743226
 20
8017.497424545894
 30
0.0
 11
4819.28260743226
 21
7942.497424545861
 31
0.0
  0
INSERT
  5
18DE9
330
18C8F
100
AcDbEntity
  8
寸法
 62
     0
 48
50.0
370
    -2
100
AcDbBlockReference
  2
_DOT
 10
4819.28260743226
 20
8017.497424545894
 30
0.0
 41
20.0
 42
20.0
 43
20.0
 50
270.0
  0
INSERT
  5
18DEA
330
18C8F
100
AcDbEntity
  8
寸法
 62
     0
 48
50.0
370
    -2
100
AcDbBlockReference
  2
_DOT
 10
4819.28260743226
 20
7942.497424545861
 30
0.0
 41
20.0
 42
20.0
 43
20.0
 50
90.0
  0
MTEXT
  5
18DEB
330
18C8F
100
AcDbEntity
  8
寸法
 62
     7
 48
50.0
100
AcDbMText
 10
4727.282607432258
 20
7796.325650598177
 30
0.0
 40
120.0
 41
0.0
 71
     5
 72
     1
  1
\A1;75
  7
STYLE1
 11
0.0000000000000001
 21
1.0
 31
0.0
 73
     1
 44
1.0
1001
ACAD
1000
MTEXTBEGIN
1070
    73
1070
     1
1070
    44
1040
1.0
1070
    74
1070
     0
1000
MTEXTEND
  0
POINT
  5
18DEC
330
18C8F
100
AcDbEntity
  8
DEFPOINTS
 62
     0
 48
50.0
100
AcDbPoint
 10
5027.896575106966
 20
8017.497424545894
 30
0.0
  0
POINT
  5
18DED
330
18C8F
100
AcDbEntity
  8
DEFPOINTS
 62
     0
 48
50.0
100
AcDbPoint
 10
5027.896575106964
 20
7942.497424545861
 30
0.0
  0
POINT
  5
18DEE
330
18C8F
100
AcDbEntity
  8
DEFPOINTS
 62
     0
 48
50.0
100
AcDbPoint
 10
4819.28260743226
 20
7942.497424545861
 30
0.0
  0
ENDBLK
  5
18C9C
330
18C8F
100
AcDbEntity
  8
0
 48
50.0
100
AcDbBlockEnd
  0
BLOCK
  5
18CFD
330
18CF3
100
AcDbEntity
  8
0
 48
50.0
100
AcDbBlockBegin
  2
*D35
 70
     1
 10
0.0
 20
0.0
 30
0.0
  3
*D35
  1

  0
LINE
  5
18DD2
330
18CF3
100
AcDbEntity
  8
寸法
 62
     0
 48
50.0
370
    -2
100
AcDbLine
 10
4159.896575106992
 20
7997.497424545861
 30
0.0
 11
4159.896575106992
 21
6653.17102959966
 31
0.0
  0
LINE
  5
18DD3
330
18CF3
100
AcDbEntity
  8
寸法
 62
     0
 48
50.0
370
    -2
100
AcDbLine
 10
7629.896575106974
 20
7997.497424545989
 30
0.0
 11
7629.896575106974
 21
6653.17102959966
 31
0.0
  0
LINE
  5
18DD4
330
18CF3
100
AcDbEntity
  8
寸法
 62
     0
 48
50.0
370
    -2
100
AcDbLine
 10
4159.896575106992
 20
6713.171029599661
 30
0.0
 11
7629.896575106974
 21
6713.171029599661
 31
0.0
  0
INSERT
  5
18DD5
330
18CF3
100
AcDbEntity
  8
寸法
 62
     0
 48
50.0
370
    -2
100
AcDbBlockReference
  2
_DOTSMALL
 10
4159.896575106992
 20
6713.171029599661
 30
0.0
 41
100.0
 42
100.0
 43
100.0
 50
180.0
  0
INSERT
  5
18DD6
330
18CF3
100
AcDbEntity
  8
寸法
 62
     0
 48
50.0
370
    -2
100
AcDbBlockReference
  2
_DOTSMALL
 10
7629.896575106974
 20
6713.171029599661
 30
0.0
 41
100.0
 42
100.0
 43
100.0
  0
MTEXT
  5
18DD7
330
18CF3
100
AcDbEntity
  8
寸法
 62
     7
 48
50.0
100
AcDbMText
 10
5961.233327116322
 20
6813.171029599661
 30
0.0
 40
120.0
 41
0.0
 71
     5
 72
     1
  1
\A1;3470
  7
STYLE1
 73
     1
 44
1.0
1001
ACAD
1000
MTEXTBEGIN
1070
    73
1070
     1
1070
    44
1040
1.0
1070
    74
1070
     0
1000
MTEXTEND
  0
POINT
  5
18DD8
330
18CF3
100
AcDbEntity
  8
DEFPOINTS
 62
     0
 48
50.0
100
AcDbPoint
 10
4159.896575106992
 20
8017.497424545862
 30
0.0
  0
POINT
  5
18DD9
330
18CF3
100
AcDbEntity
  8
DEFPOINTS
 62
     0
 48
50.0
100
AcDbPoint
 10
7629.896575106974
 20
8017.497424545991
 30
0.0
  0
POINT
  5
18DDA
330
18CF3
100
AcDbEntity
  8
DEFPOINTS
 62
     0
 48
50.0
100
AcDbPoint
 10
7629.896575106974
 20
6713.171029599661
 30
0.0
  0
ENDBLK
  5
18CFE
330
18CF3
100
AcDbEntity
  8
0
 48
50.0
100
AcDbBlockEnd
  0
ENDSEC
  0
SECTION
  2
ENTITIES
  0
MTEXT
  5
763F
330
747D
100
AcDbEntity
  8
0
100
AcDbMText
 10
302.846345836809
 20
280.1983726409901
 30
0.0
 40
3.5
 41
5.323721266742722
 71
     1
 72
     5
  1

  7
MSMINCHO
 73
     1
 44
1.0
1001
ACAD
1000
MTEXTBEGIN
1070
    73
1070
     1
1070
    44
1040
1.0
1070
    74
1070
     0
1000
MTEXTEND
  0
LINE
  5
10B57
330
747D
100
AcDbEntity
  8
補助
  6
PHANTOM
 62
   230
 48
50.0
100
AcDbLine
 10
139.9999999999995
 20
11409.6
 30
0.0
 11
16307.2
 21
11409.6
 31
0.0
  0
LINE
  5
10B59
330
747D
100
AcDbEntity
  8
仕様書枠
  6
Continuous
 48
50.0
100
AcDbLine
 10
13107.2
 20
1200.0
 30
0.0
 11
13107.2
 21
-0.0000000000000729
 31
0.0
  0
LINE
  5
10B5D
330
747D
100
AcDbEntity
  8
仕様書枠
 48
50.0
100
AcDbLine
 10
140.0
 20
0.0
 30
0.0
 11
16307.2
 21
-0.0000000000000909
 31
0.0
  0
LINE
  5
10B5E
330
747D
100
AcDbEntity
  8
補助
  6
PHANTOM
 62
   230
 48
50.0
100
AcDbLine
 10
16307.2
 20
11409.6
 30
0.0
 11
16307.2
 21
1200.0
 31
0.0
  0
LINE
  5
10B6C
330
747D
100
AcDbEntity
  8
仕様書枠
 48
50.0
100
AcDbLine
 10
13107.2
 20
1200.0
 30
0.0
 11
16307.2
 21
1200.0
 31
0.0
  0
LINE
  5
10B6D
330
747D
100
AcDbEntity
  8
補助
  6
PHANTOM
 62
   230
 48
50.0
100
AcDbLine
 10
13107.2
 20
11409.6
 30
0.0
 11
13107.2
 21
4800.0
 31
0.0
  0
LINE
  5
10B6F
330
747D
100
AcDbEntity
  8
補助
  6
PHANTOM
 62
   230
 48
50.0
100
AcDbLine
 10
13107.2
 20
4800.0
 30
0.0
 11
16307.2
 21
4800.0
 31
0.0
  0
LINE
  5
10B72
330
747D
100
AcDbEntity
  8
文字
 62
     7
 48
50.0
100
AcDbLine
 10
13187.2
 20
400.0
 30
0.0
 11
16227.2
 21
400.0
 31
0.0
  0
TEXT
  5
10B73
330
747D
100
AcDbEntity
  8
文字
 62
     7
 48
50.0
100
AcDbText
 10
13162.9790565769
 20
895.0906074299405
 30
0.0
 40
200.0
  1
外 形 図
  7
STYLE2
100
AcDbText
  0
TEXT
  5
10B74
330
747D
100
AcDbEntity
  8
文字
 62
     7
 48
50.0
100
AcDbText
 10
13201.43669998441
 20
477.2740661031255
 30
0.0
 40
160.0
  1
機種名
  7
STYLE2
100
AcDbText
  0
LINE
  5
10B7B
330
747D
100
AcDbEntity
  8
仕様書枠
 48
50.0
100
AcDbLine
 10
13107.2
 20
800.0
 30
0.0
 11
14251.2
 21
800.0
 31
0.0
  0
LINE
  5
10B88
330
747D
100
AcDbEntity
  8
仕様書枠
  6
Continuous
 48
50.0
100
AcDbLine
 10
14251.2
 20
1200.0
 30
0.0
 11
14251.2
 21
800.0
 31
0.0
  0
LINE
  5
16462
330
747D
100
AcDbEntity
  8
仕様書枠
 48
50.0
100
AcDbLine
 10
16307.2
 20
1200.0
 30
0.0
 11
16307.2
 21
-0.0000000000000909
 31
0.0
  0
TEXT
  5
1649E
330
747D
100
AcDbEntity
  8
文字
 62
     7
 48
50.0
100
AcDbText
 10
14524.131837222
 20
1031.557706291228
 30
0.0
 40
100.0
  1
NO.42     <縮尺> S=1/40
  7
STYLE2
100
AcDbText
  0
TEXT
  5
1649F
330
747D
100
AcDbEntity
  8
文字
 62
     7
 48
50.0
100
AcDbText
 10
14883.82156197996
 20
881.2807276968213
 30
0.0
 40
100.0
  1
～一般型～
  7
STYLE2
100
AcDbText
  0
TEXT
  5
164A1
330
747D
100
AcDbEntity
  8
文字
 62
     7
 48
50.0
100
AcDbText
 10
13209.4053442172
 20
76.09434707649348
 30
0.0
 40
100.0
  1
○床面積 ： 6.38㎡(1.93坪) 　
  7
STYLE2
100
AcDbText
  0
LINE
  5
17830
330
747D
100
AcDbEntity
  8
細線
100
AcDbLine
 10
5054.896575106994
 20
5015.44839086933
 30
0.0
 11
5054.896575106992
 21
4992.448390869331
 31
0.0
  0
LINE
  5
17831
330
747D
100
AcDbEntity
  8
細線
100
AcDbLine
 10
5128.896575106992
 20
5003.448390869331
 30
0.0
 11
5054.896575106994
 21
5003.448390869331
 31
0.0
  0
LINE
  5
17832
330
747D
100
AcDbEntity
  8
細線
100
AcDbLine
 10
5128.896575106992
 20
4997.448390869331
 30
0.0
 11
5054.896575106994
 21
4997.448390869331
 31
0.0
  0
LINE
  5
17833
330
747D
100
AcDbEntity
  8
細線
100
AcDbLine
 10
5128.896575106992
 20
5009.448390869331
 30
0.0
 11
5054.896575106994
 21
5009.448390869331
 31
0.0
  0
LINE
  5
17834
330
747D
100
AcDbEntity
  8
細線
100
AcDbLine
 10
4980.896575106992
 20
5009.448390869331
 30
0.0
 11
5049.896575106994
 21
5009.448390869331
 31
0.0
  0
LINE
  5
17835
330
747D
100
AcDbEntity
  8
細線
100
AcDbLine
 10
4980.896575106992
 20
4997.448390869331
 30
0.0
 11
5054.896575106994
 21
4997.448390869331
 31
0.0
  0
LINE
  5
17836
330
747D
100
AcDbEntity
  8
細線
100
AcDbLine
 10
4980.896575106992
 20
5003.448390869331
 30
0.0
 11
5054.896575106994
 21
5003.448390869331
 31
0.0
  0
LINE
  5
17837
330
747D
100
AcDbEntity
  8
細線
100
AcDbLine
 10
4980.896575106992
 20
5009.448390869331
 30
0.0
 11
5054.896575106994
 21
5009.448390869331
 31
0.0
  0
LINE
  5
17838
330
747D
100
AcDbEntity
  8
部品1
 48
0.01
100
AcDbLine
 10
5142.896575106994
 20
5021.948390869331
 30
0.0
 11
4966.896575106994
 21
5021.948390869331
 31
0.0
  0
LINE
  5
17839
330
747D
100
AcDbEntity
  8
部品1
 48
0.01
100
AcDbLine
 10
4964.896575106994
 20
5019.94839086933
 30
0.0
 11
4964.896575106994
 21
4988.448390869331
 31
0.0
  0
LINE
  5
1783A
330
747D
100
AcDbEntity
  8
部品1
 48
0.01
100
AcDbLine
 10
4966.896575106994
 20
4986.44839086933
 30
0.0
 11
5142.896575106991
 21
4986.44839086933
 31
0.0
  0
LINE
  5
1783B
330
747D
100
AcDbEntity
  8
部品1
 48
0.01
100
AcDbLine
 10
5144.896575106992
 20
4988.448390869331
 30
0.0
 11
5144.896575106994
 21
5019.94839086933
 31
0.0
  0
LINE
  5
1783C
330
747D
100
AcDbEntity
  8
細線
100
AcDbLine
 10
4980.896575106992
 20
5015.44839086933
 30
0.0
 11
4980.896575106992
 21
4992.448390869331
 31
0.0
  0
LINE
  5
1783D
330
747D
100
AcDbEntity
  8
細線
100
AcDbLine
 10
5128.896575106994
 20
4992.448390869331
 30
0.0
 11
5128.896575106994
 21
5015.44839086933
 31
0.0
  0
LINE
  5
1783E
330
747D
100
AcDbEntity
  8
細線
100
AcDbLine
 10
5128.896575106994
 20
5015.44839086933
 30
0.0
 11
5054.896575106994
 21
5015.44839086933
 31
0.0
  0
LINE
  5
1783F
330
747D
100
AcDbEntity
  8
細線
100
AcDbLine
 10
4980.896575106992
 20
4992.448390869331
 30
0.0
 11
5054.896575106994
 21
4992.448390869331
 31
0.0
  0
LINE
  5
17840
330
747D
100
AcDbEntity
  8
細線
100
AcDbLine
 10
5054.896575106994
 20
5015.44839086933
 30
0.0
 11
4980.896575106992
 21
5015.44839086933
 31
0.0
  0
LINE
  5
17841
330
747D
100
AcDbEntity
  8
細線
100
AcDbLine
 10
5054.896575106992
 20
4992.448390869331
 30
0.0
 11
5128.896575106994
 21
4992.448390869331
 31
0.0
  0
ARC
  5
17842
330
747D
100
AcDbEntity
  8
部品1
 48
0.01
100
AcDbCircle
 10
4966.896575106994
 20
5019.94839086933
 30
0.0
 40
2.0
100
AcDbArc
 50
90.0
 51
180.0
  0
ARC
  5
17843
330
747D
100
AcDbEntity
  8
部品1
 48
0.01
100
AcDbCircle
 10
4966.896575106994
 20
4988.448390869331
 30
0.0
 40
2.0
100
AcDbArc
 50
180.0
 51
270.0
  0
ARC
  5
17844
330
747D
100
AcDbEntity
  8
部品1
 48
0.01
100
AcDbCircle
 10
5142.896575106994
 20
5019.94839086933
 30
0.0
 40
2.0
100
AcDbArc
 50
0.0
 51
90.0
  0
ARC
  5
17845
330
747D
100
AcDbEntity
  8
部品1
 48
0.01
100
AcDbCircle
 10
5142.896575106991
 20
4988.448390869331
 30
0.0
 40
2.0
100
AcDbArc
 50
270.0
 51
0.0
  0
ARC
  5
17846
330
747D
100
AcDbEntity
  8
部品1
 48
0.01
100
AcDbCircle
 10
6646.896575106993
 20
4988.448390869331
 30
0.0
 40
2.0
100
AcDbArc
 50
180.0
 51
270.0
  0
ARC
  5
17847
330
747D
100
AcDbEntity
  8
部品1
 48
0.01
100
AcDbCircle
 10
6646.896575106993
 20
5019.94839086933
 30
0.0
 40
2.0
100
AcDbArc
 50
90.0
 51
180.0
  0
ARC
  5
17848
330
747D
100
AcDbEntity
  8
部品1
 48
0.01
100
AcDbCircle
 10
6822.896575106994
 20
4988.448390869331
 30
0.0
 40
2.0
100
AcDbArc
 50
270.0
 51
0.0
  0
ARC
  5
17849
330
747D
100
AcDbEntity
  8
部品1
 48
0.01
100
AcDbCircle
 10
6822.896575106994
 20
5019.94839086933
 30
0.0
 40
2.0
100
AcDbArc
 50
0.0
 51
90.0
  0
LINE
  5
1784A
330
747D
100
AcDbEntity
  8
細線
100
AcDbLine
 10
6734.896575106994
 20
4992.448390869331
 30
0.0
 11
6660.896575106993
 21
4992.448390869331
 31
0.0
  0
LINE
  5
1784B
330
747D
100
AcDbEntity
  8
細線
100
AcDbLine
 10
6734.896575106994
 20
5015.44839086933
 30
0.0
 11
6808.896575106993
 21
5015.44839086933
 31
0.0
  0
LINE
  5
1784C
330
747D
100
AcDbEntity
  8
細線
100
AcDbLine
 10
6808.896575106993
 20
4992.448390869331
 30
0.0
 11
6734.896575106994
 21
4992.448390869331
 31
0.0
  0
LINE
  5
1784D
330
747D
100
AcDbEntity
  8
細線
100
AcDbLine
 10
6660.896575106993
 20
5015.44839086933
 30
0.0
 11
6734.896575106994
 21
5015.44839086933
 31
0.0
  0
LINE
  5
1784E
330
747D
100
AcDbEntity
  8
細線
100
AcDbLine
 10
6660.896575106993
 20
4992.448390869331
 30
0.0
 11
6660.896575106993
 21
5015.44839086933
 31
0.0
  0
LINE
  5
1784F
330
747D
100
AcDbEntity
  8
細線
100
AcDbLine
 10
6808.896575106993
 20
5015.44839086933
 30
0.0
 11
6808.896575106993
 21
4992.448390869331
 31
0.0
  0
LINE
  5
17850
330
747D
100
AcDbEntity
  8
部品1
 48
0.01
100
AcDbLine
 10
6644.896575106994
 20
4988.448390869331
 30
0.0
 11
6644.896575106994
 21
5019.94839086933
 31
0.0
  0
LINE
  5
17851
330
747D
100
AcDbEntity
  8
部品1
 48
0.01
100
AcDbLine
 10
6822.896575106994
 20
4986.44839086933
 30
0.0
 11
6646.896575106993
 21
4986.44839086933
 31
0.0
  0
LINE
  5
17852
330
747D
100
AcDbEntity
  8
部品1
 48
0.01
100
AcDbLine
 10
6824.896575106993
 20
5019.94839086933
 30
0.0
 11
6824.896575106993
 21
4988.448390869331
 31
0.0
  0
LINE
  5
17853
330
747D
100
AcDbEntity
  8
部品1
 48
0.01
100
AcDbLine
 10
6646.896575106993
 20
5021.948390869331
 30
0.0
 11
6822.896575106994
 21
5021.948390869331
 31
0.0
  0
LINE
  5
17854
330
747D
100
AcDbEntity
  8
細線
100
AcDbLine
 10
6808.896575106993
 20
5009.448390869331
 30
0.0
 11
6734.896575106994
 21
5009.448390869331
 31
0.0
  0
LINE
  5
17855
330
747D
100
AcDbEntity
  8
細線
100
AcDbLine
 10
6808.896575106993
 20
5003.448390869331
 30
0.0
 11
6734.896575106994
 21
5003.448390869331
 31
0.0
  0
LINE
  5
17856
330
747D
100
AcDbEntity
  8
細線
100
AcDbLine
 10
6808.896575106993
 20
4997.448390869331
 30
0.0
 11
6734.896575106994
 21
4997.448390869331
 31
0.0
  0
LINE
  5
17857
330
747D
100
AcDbEntity
  8
細線
100
AcDbLine
 10
6808.896575106993
 20
5009.448390869331
 30
0.0
 11
6739.896575106993
 21
5009.448390869331
 31
0.0
  0
LINE
  5
17858
330
747D
100
AcDbEntity
  8
細線
100
AcDbLine
 10
6660.896575106993
 20
5009.448390869331
 30
0.0
 11
6734.896575106994
 21
5009.448390869331
 31
0.0
  0
LINE
  5
17859
330
747D
100
AcDbEntity
  8
細線
100
AcDbLine
 10
6660.896575106993
 20
4997.448390869331
 30
0.0
 11
6734.896575106994
 21
4997.448390869331
 31
0.0
  0
LINE
  5
1785A
330
747D
100
AcDbEntity
  8
細線
100
AcDbLine
 10
6660.896575106993
 20
5003.448390869331
 30
0.0
 11
6734.896575106994
 21
5003.448390869331
 31
0.0
  0
LINE
  5
1785B
330
747D
100
AcDbEntity
  8
細線
100
AcDbLine
 10
6734.896575106994
 20
5015.44839086933
 30
0.0
 11
6734.896575106994
 21
4992.448390869331
 31
0.0
  0
MTEXT
  5
1785E
330
747D
100
AcDbEntity
  8
寸法
 62
     7
 48
50.0
100
AcDbMText
 10
4735.176372717604
 20
9403.332584505328
 30
0.0
 40
96.0
 41
0.0
 71
     5
 72
     1
  1
棚 3段
  7
STYLE1
 73
     1
 44
1.0
1001
ACAD
1000
MTEXTBEGIN
1070
    73
1070
     1
1070
    44
1040
1.0
1070
    74
1070
     0
1000
MTEXTEND
  0
LINE
  5
1785F
330
747D
100
AcDbEntity
  8
部品1
100
AcDbLine
 10
7181.896575106994
 20
2865.948390869351
 30
0.0
 11
7629.896575106991
 21
2865.948390869353
 31
0.0
  0
LINE
  5
17860
330
747D
100
AcDbEntity
  8
部品1
 48
50.0
100
AcDbLine
 10
5855.896575106992
 20
4898.948390869333
 30
0.0
 11
5855.896575106992
 21
2865.948390869333
 31
0.0
  0
LINE
  5
17861
330
747D
100
AcDbEntity
  8
部品1
 48
50.0
100
AcDbLine
 10
7181.896575106994
 20
2815.948390869333
 30
0.0
 11
7181.896575106994
 21
4950.948390869331
 31
0.0
  0
LINE
  5
17862
330
747D
100
AcDbEntity
  8
細線
 48
50.0
100
AcDbLine
 10
7151.896575106992
 20
2815.948390869333
 30
0.0
 11
7151.896575106992
 21
4908.448390869333
 31
0.0
  0
LINE
  5
17863
330
747D
100
AcDbEntity
  8
部品1
 48
50.0
100
AcDbLine
 10
7142.896575106992
 20
2862.948390869333
 30
0.0
 11
7142.896575106992
 21
4898.948390869333
 31
0.0
  0
LINE
  5
17864
330
747D
100
AcDbEntity
  8
部品1
 48
50.0
100
AcDbLine
 10
5027.896575106992
 20
4950.948390869331
 30
0.0
 11
5027.896575106992
 21
2815.948390869333
 31
0.0
  0
LINE
  5
17865
330
747D
100
AcDbEntity
  8
細線
 48
50.0
100
AcDbLine
 10
5057.89657510699
 20
4908.448390869333
 30
0.0
 11
5057.89657510699
 21
2815.948390869333
 31
0.0
  0
LINE
  5
17866
330
747D
100
AcDbEntity
  8
部品1
 48
50.0
100
AcDbLine
 10
5057.89657510699
 20
2865.948390869333
 30
0.0
 11
5057.89657510699
 21
4898.948390869333
 31
0.0
  0
LINE
  5
17867
330
747D
100
AcDbEntity
  8
細線
 48
50.0
100
AcDbLine
 10
5855.896575106992
 20
2873.448390869333
 30
0.0
 11
7125.896575106992
 21
2873.448390869333
 31
0.0
  0
LINE
  5
17868
330
747D
100
AcDbEntity
  8
細線
 48
50.0
100
AcDbLine
 10
5057.89657510699
 20
2862.948390869333
 30
0.0
 11
7151.896575106992
 21
2862.948390869333
 31
0.0
  0
LINE
  5
17869
330
747D
100
AcDbEntity
  8
細線
 48
50.0
100
AcDbLine
 10
5057.89657510699
 20
2858.948390869333
 30
0.0
 11
7151.896575106992
 21
2858.948390869333
 31
0.0
  0
LINE
  5
1786A
330
747D
100
AcDbEntity
  8
部品1
 48
50.0
100
AcDbLine
 10
5027.896575106992
 20
2815.948390869333
 30
0.0
 11
7181.896575106994
 21
2815.948390869333
 31
0.0
  0
LINE
  5
1786B
330
747D
100
AcDbEntity
  8
部品1
 48
50.0
100
AcDbLine
 10
5057.89657510699
 20
2865.948390869333
 30
0.0
 11
5855.896575106992
 21
2865.948390869333
 31
0.0
  0
LINE
  5
1786C
330
747D
100
AcDbEntity
  8
部品1
 48
50.0
100
AcDbLine
 10
5066.896575106992
 20
2865.948390869333
 30
0.0
 11
5066.896575106992
 21
2862.948390869333
 31
0.0
  0
LINE
  5
1786D
330
747D
100
AcDbEntity
  8
細線
 48
50.0
100
AcDbLine
 10
7129.896575106991
 20
2862.948390869333
 30
0.0
 11
7125.896575106992
 21
2873.448390869333
 31
0.0
  0
LINE
  5
1786E
330
747D
100
AcDbEntity
  8
細線
 48
50.0
100
AcDbLine
 10
7151.896575106992
 20
4908.448390869333
 30
0.0
 11
5057.89657510699
 21
4908.448390869333
 31
0.0
  0
LINE
  5
1786F
330
747D
100
AcDbEntity
  8
細線
 48
50.0
100
AcDbLine
 10
7151.896575106992
 20
4898.948390869333
 30
0.0
 11
5057.89657510699
 21
4898.948390869333
 31
0.0
  0
LINE
  5
17870
330
747D
100
AcDbEntity
  8
細線
 48
50.0
100
AcDbLine
 10
7181.896575106994
 20
4940.948390869333
 30
0.0
 11
5027.896575106992
 21
4940.948390869333
 31
0.0
  0
LINE
  5
17871
330
747D
100
AcDbEntity
  8
部品1
 48
50.0
100
AcDbLine
 10
7181.896575106994
 20
4950.948390869331
 30
0.0
 11
5027.896575106992
 21
4950.948390869331
 31
0.0
  0
LINE
  5
17872
330
747D
100
AcDbEntity
  8
部品1
 48
50.0
100
AcDbLine
 10
5054.896575106992
 20
4950.948390869331
 30
0.0
 11
5054.896575106992
 21
4955.948390869333
 31
0.0
  0
LINE
  5
17873
330
747D
100
AcDbEntity
  8
部品1
 48
50.0
100
AcDbLine
 10
5057.89657510699
 20
4906.948390869333
 30
0.0
 11
5027.896575106992
 21
4906.948390869333
 31
0.0
  0
LINE
  5
17874
330
747D
100
AcDbEntity
  8
部品1
 48
50.0
100
AcDbLine
 10
7181.896575106994
 20
4906.948390869333
 30
0.0
 11
7151.896575106992
 21
4906.948390869333
 31
0.0
  0
LINE
  5
17875
330
747D
100
AcDbEntity
  8
部品1
100
AcDbLine
 10
6506.896575106988
 20
4898.948390869333
 30
0.0
 11
6506.896575106988
 21
2873.448390869347
 31
0.0
  0
LINE
  5
17876
330
747D
100
AcDbEntity
  8
細線
100
AcDbLine
 10
5761.896575106992
 20
4898.948390869333
 30
0.0
 11
5761.896575106992
 21
2865.94839086934
 31
0.0
  0
LINE
  5
17877
330
747D
100
AcDbEntity
  8
細線
100
AcDbLine
 10
5691.896575106992
 20
4898.948390869333
 30
0.0
 11
5691.896575106992
 21
2865.94839086934
 31
0.0
  0
LINE
  5
17878
330
747D
100
AcDbEntity
  8
細線
100
AcDbLine
 10
5621.89657510699
 20
4898.948390869333
 30
0.0
 11
5621.89657510699
 21
2865.948390869336
 31
0.0
  0
LINE
  5
17879
330
747D
100
AcDbEntity
  8
細線
100
AcDbLine
 10
5551.896575106992
 20
4898.948390869333
 30
0.0
 11
5551.896575106992
 21
2865.948390869336
 31
0.0
  0
LINE
  5
1787A
330
747D
100
AcDbEntity
  8
細線
100
AcDbLine
 10
5481.896575106992
 20
4898.948390869333
 30
0.0
 11
5481.896575106992
 21
2865.948390869336
 31
0.0
  0
LINE
  5
1787B
330
747D
100
AcDbEntity
  8
細線
100
AcDbLine
 10
5411.896575106992
 20
4898.948390869333
 30
0.0
 11
5411.896575106992
 21
2865.948390869336
 31
0.0
  0
LINE
  5
1787C
330
747D
100
AcDbEntity
  8
部品1
100
AcDbLine
 10
5227.896575106992
 20
4898.948390869333
 30
0.0
 11
5227.896575106992
 21
2865.948390869336
 31
0.0
  0
LINE
  5
1787D
330
747D
100
AcDbEntity
  8
部品1
100
AcDbLine
 10
5177.896575106991
 20
4898.948390869333
 30
0.0
 11
5177.896575106991
 21
2865.948390869336
 31
0.0
  0
LINE
  5
1787E
330
747D
100
AcDbEntity
  8
細線
100
AcDbLine
 10
5219.896575106992
 20
4898.948390869333
 30
0.0
 11
5219.896575106992
 21
2865.948390869336
 31
0.0
  0
LINE
  5
1787F
330
747D
100
AcDbEntity
  8
細線
100
AcDbLine
 10
5185.89657510699
 20
4898.948390869333
 30
0.0
 11
5185.89657510699
 21
2865.948390869336
 31
0.0
  0
LINE
  5
17880
330
747D
100
AcDbEntity
  8
細線
100
AcDbLine
 10
6405.896575106992
 20
4898.948390869333
 30
0.0
 11
6405.896575106992
 21
2873.448390869344
 31
0.0
  0
LINE
  5
17881
330
747D
100
AcDbEntity
  8
細線
100
AcDbLine
 10
6335.896575106992
 20
4898.948390869333
 30
0.0
 11
6335.896575106992
 21
2873.448390869344
 31
0.0
  0
LINE
  5
17882
330
747D
100
AcDbEntity
  8
細線
100
AcDbLine
 10
6265.896575106992
 20
4898.948390869333
 30
0.0
 11
6265.896575106992
 21
2873.448390869344
 31
0.0
  0
LINE
  5
17883
330
747D
100
AcDbEntity
  8
細線
100
AcDbLine
 10
6195.896575106992
 20
4898.948390869333
 30
0.0
 11
6195.896575106992
 21
2873.448390869344
 31
0.0
  0
LINE
  5
17884
330
747D
100
AcDbEntity
  8
細線
100
AcDbLine
 10
6125.896575106992
 20
4898.948390869333
 30
0.0
 11
6125.896575106992
 21
2873.448390869344
 31
0.0
  0
LINE
  5
17885
330
747D
100
AcDbEntity
  8
細線
100
AcDbLine
 10
6055.896575106991
 20
4898.948390869333
 30
0.0
 11
6055.896575106991
 21
2873.448390869344
 31
0.0
  0
LINE
  5
17886
330
747D
100
AcDbEntity
  8
細線
100
AcDbLine
 10
6991.396575106993
 20
4898.948390869333
 30
0.0
 11
6991.396575106993
 21
2873.448390869351
 31
0.0
  0
LINE
  5
17887
330
747D
100
AcDbEntity
  8
細線
100
AcDbLine
 10
6921.396575106992
 20
4898.948390869333
 30
0.0
 11
6921.396575106992
 21
2873.448390869351
 31
0.0
  0
LINE
  5
17888
330
747D
100
AcDbEntity
  8
細線
100
AcDbLine
 10
6851.396575106992
 20
4898.948390869333
 30
0.0
 11
6851.396575106992
 21
2873.448390869351
 31
0.0
  0
LINE
  5
17889
330
747D
100
AcDbEntity
  8
細線
100
AcDbLine
 10
6781.396575106992
 20
4898.948390869333
 30
0.0
 11
6781.396575106992
 21
2873.448390869351
 31
0.0
  0
LINE
  5
1788A
330
747D
100
AcDbEntity
  8
細線
100
AcDbLine
 10
6711.396575106991
 20
4898.948390869333
 30
0.0
 11
6711.396575106991
 21
2873.448390869351
 31
0.0
  0
LINE
  5
1788E
330
747D
100
AcDbEntity
  8
部品1
 48
50.0
100
AcDbLine
 10
5101.896575106992
 20
3947.448390869333
 30
0.0
 11
5154.896575106992
 21
3947.448390869333
 31
0.0
  0
LINE
  5
178A8
330
747D
100
AcDbEntity
  8
細線
100
AcDbLine
 10
5341.896575106992
 20
4898.948390869333
 30
0.0
 11
5341.896575106992
 21
2865.948390869336
 31
0.0
  0
LINE
  5
178A9
330
747D
100
AcDbEntity
  8
細線
100
AcDbLine
 10
5271.896575106992
 20
4898.948390869333
 30
0.0
 11
5271.896575106992
 21
2865.948390869336
 31
0.0
  0
LINE
  5
178AA
330
747D
100
AcDbEntity
  8
細線
100
AcDbLine
 10
5985.896575106991
 20
4898.948390869333
 30
0.0
 11
5985.896575106991
 21
2873.448390869344
 31
0.0
  0
LINE
  5
178AB
330
747D
100
AcDbEntity
  8
細線
100
AcDbLine
 10
5915.896575106992
 20
4898.948390869333
 30
0.0
 11
5915.896575106992
 21
2873.448390869344
 31
0.0
  0
LINE
  5
178AC
330
747D
100
AcDbEntity
  8
細線
100
AcDbLine
 10
6641.396575106992
 20
4898.948390869333
 30
0.0
 11
6641.396575106992
 21
2873.448390869351
 31
0.0
  0
LINE
  5
178AD
330
747D
100
AcDbEntity
  8
細線
 48
50.0
100
AcDbLine
 10
7232.396575106996
 20
4955.948390869333
 30
0.0
 11
7232.396575106999
 21
2865.948390869336
 31
0.0
  0
LINE
  5
178AE
330
747D
100
AcDbEntity
  8
細線
 48
50.0
100
AcDbLine
 10
7217.396575106994
 20
4955.948390869333
 30
0.0
 11
7217.396575106999
 21
2865.948390869336
 31
0.0
  0
LINE
  5
178AF
330
747D
100
AcDbEntity
  8
細線
 48
50.0
100
AcDbLine
 10
7357.396575106996
 20
4955.948390869333
 30
0.0
 11
7357.396575106999
 21
2865.948390869338
 31
0.0
  0
LINE
  5
178B0
330
747D
100
AcDbEntity
  8
細線
 48
50.0
100
AcDbLine
 10
7372.396575106994
 20
4955.948390869333
 30
0.0
 11
7372.396575107
 21
2865.948390869338
 31
0.0
  0
LINE
  5
178B1
330
747D
100
AcDbEntity
  8
細線
 48
50.0
100
AcDbLine
 10
7512.396575106996
 20
4955.948390869333
 30
0.0
 11
7512.396575106999
 21
2865.948390869338
 31
0.0
  0
LINE
  5
178B2
330
747D
100
AcDbEntity
  8
細線
 48
50.0
100
AcDbLine
 10
7497.396575106994
 20
4955.948390869333
 30
0.0
 11
7497.396575107
 21
2865.948390869338
 31
0.0
  0
LINE
  5
178B3
330
747D
100
AcDbEntity
  8
細線
 48
50.0
100
AcDbLine
 10
4977.396575106996
 20
4955.948390869333
 30
0.0
 11
4977.396575106999
 21
2865.948390869338
 31
0.0
  0
LINE
  5
178B4
330
747D
100
AcDbEntity
  8
細線
 48
50.0
100
AcDbLine
 10
4992.396575106996
 20
4955.948390869333
 30
0.0
 11
4992.396575106999
 21
2865.948390869338
 31
0.0
  0
LINE
  5
178B5
330
747D
100
AcDbEntity
  8
細線
 48
50.0
100
AcDbLine
 10
4852.396575106996
 20
4955.948390869333
 30
0.0
 11
4852.396575106999
 21
2865.948390869338
 31
0.0
  0
LINE
  5
178B6
330
747D
100
AcDbEntity
  8
細線
 48
50.0
100
AcDbLine
 10
4837.396575106995
 20
4955.948390869333
 30
0.0
 11
4837.396575106999
 21
2865.948390869338
 31
0.0
  0
LINE
  5
178B7
330
747D
100
AcDbEntity
  8
細線
 48
50.0
100
AcDbLine
 10
4697.396575106995
 20
4955.948390869333
 30
0.0
 11
4697.396575106998
 21
2865.948390869336
 31
0.0
  0
LINE
  5
178B8
330
747D
100
AcDbEntity
  8
細線
 48
50.0
100
AcDbLine
 10
4712.396575106995
 20
4955.948390869333
 30
0.0
 11
4712.396575106999
 21
2865.948390869336
 31
0.0
  0
LINE
  5
178B9
330
747D
100
AcDbEntity
  8
細線
 48
50.0
100
AcDbLine
 10
4292.396575106995
 20
4955.948390869333
 30
0.0
 11
4292.396575106999
 21
2865.948390869336
 31
0.0
  0
LINE
  5
178BA
330
747D
100
AcDbEntity
  8
細線
 48
50.0
100
AcDbLine
 10
4277.396575106996
 20
4955.948390869333
 30
0.0
 11
4277.396575106999
 21
2865.948390869336
 31
0.0
  0
LINE
  5
178BB
330
747D
100
AcDbEntity
  8
細線
 48
50.0
100
AcDbLine
 10
4417.396575106995
 20
4955.948390869333
 30
0.0
 11
4417.396575106999
 21
2865.948390869338
 31
0.0
  0
LINE
  5
178BC
330
747D
100
AcDbEntity
  8
細線
 48
50.0
100
AcDbLine
 10
4432.396575106995
 20
4955.948390869333
 30
0.0
 11
4432.396575106999
 21
2865.948390869338
 31
0.0
  0
LINE
  5
178BD
330
747D
100
AcDbEntity
  8
細線
 48
50.0
100
AcDbLine
 10
4572.396575106995
 20
4955.948390869333
 30
0.0
 11
4572.396575106998
 21
2865.948390869338
 31
0.0
  0
LINE
  5
178BE
330
747D
100
AcDbEntity
  8
細線
 48
50.0
100
AcDbLine
 10
4557.396575106995
 20
4955.948390869333
 30
0.0
 11
4557.396575106999
 21
2865.948390869338
 31
0.0
  0
LINE
  5
178BF
330
747D
100
AcDbEntity
  8
部品1
100
AcDbLine
 10
7154.896575106992
 20
4955.948390869333
 30
0.0
 11
7154.896575106992
 21
4950.948390869334
 31
0.0
  0
LINE
  5
178C0
330
747D
100
AcDbEntity
  8
部品1
100
AcDbLine
 10
7679.476914091662
 20
5183.551865474094
 30
0.0
 11
7678.343516759317
 21
5163.575737491496
 31
0.0
  0
LINE
  5
178C1
330
747D
100
AcDbEntity
  8
細線
 48
50.0
100
AcDbLine
 10
7646.896575106996
 20
5190.948390869333
 30
0.0
 11
7646.896575106996
 21
5049.948390869335
 31
0.0
  0
LINE
  5
178C2
330
747D
100
AcDbEntity
  8
部品1
100
AcDbLine
 10
7666.906496437739
 20
5067.918330324437
 30
0.0
 11
7666.261590630627
 21
5056.551865474097
 31
0.0
  0
LINE
  5
178C3
330
747D
100
AcDbEntity
  8
部品1
100
AcDbLine
 10
7675.142526962584
 20
5160.118330324438
 30
0.0
 11
7670.107486234471
 21
5071.375737491495
 31
0.0
  0
ARC
  5
178C4
330
747D
100
AcDbEntity
  8
部品1
 48
50.0
100
AcDbCircle
 10
7678.137709858771
 20
5159.948390869335
 30
0.0
 40
3.0
100
AcDbArc
 50
97.65812720736521
 51
176.7526572096623
  0
ARC
  5
178C5
330
747D
100
AcDbEntity
  8
部品1
 48
50.0
100
AcDbCircle
 10
7669.901679333924
 20
5067.748390869334
 30
0.0
 40
3.0
100
AcDbArc
 50
97.65812720736521
 51
176.7526572096623
  0
ARC
  5
178C6
330
747D
100
AcDbEntity
  8
部品1
 48
50.0
100
AcDbCircle
 10
7669.408610225365
 20
5071.415390031019
 30
0.0
 40
0.7
100
AcDbArc
 50
277.6581272073652
 51
356.7526572097143
  0
ARC
  5
178C7
330
747D
100
AcDbEntity
  8
部品1
 48
50.0
100
AcDbCircle
 10
7677.644640750208
 20
5163.615390031022
 30
0.0
 40
0.7
100
AcDbArc
 50
277.6581272073652
 51
356.7526572096103
  0
ARC
  5
178C8
330
747D
100
AcDbEntity
  8
部品1
100
AcDbCircle
 10
7659.272830539528
 20
5056.948390869337
 30
0.0
 40
7.0
100
AcDbArc
 50
270.0
 51
356.7526572096623
  0
ARC
  5
178C9
330
747D
100
AcDbEntity
  8
部品1
100
AcDbCircle
 10
7672.488154000562
 20
5183.948390869335
 30
0.0
 40
7.0
100
AcDbArc
 50
356.7526572096623
 51
90.0
  0
DIMENSION
  5
178CA
330
747D
100
AcDbEntity
  8
寸法
 48
50.0
100
AcDbDimension
  2
*D3
 10
7629.896575106996
 20
5403.489976127577
 30
0.0
 11
7993.381856481232
 21
5403.489976127577
 31
0.0
 70
   160
 71
     5
 42
50.0
  3
INABA_S40G
100
AcDbAlignedDimension
 13
7679.896575106996
 23
5190.948390869333
 33
0.0
 14
7629.896575106996
 24
5190.948390869337
 34
0.0
100
AcDbRotatedDimension
  0
LINE
  5
178CB
330
747D
100
AcDbEntity
  8
細線
 48
50.0
100
AcDbLine
 10
4142.89657510699
 20
5190.948390869337
 30
0.0
 11
4142.89657510699
 21
5049.948390869338
 31
0.0
  0
ARC
  5
178CC
330
747D
100
AcDbEntity
  8
部品1
100
AcDbCircle
 10
4117.30499621342
 20
5183.948390869337
 30
0.0
 40
7.0
100
AcDbArc
 50
90.0
 51
183.2473427903377
  0
ARC
  5
178CD
330
747D
100
AcDbEntity
  8
部品1
100
AcDbCircle
 10
4130.520319674455
 20
5056.948390869339
 30
0.0
 40
7.0
100
AcDbArc
 50
183.2473427903377
 51
270.0
  0
ARC
  5
178CE
330
747D
100
AcDbEntity
  8
部品1
 48
50.0
100
AcDbCircle
 10
4112.148509463779
 20
5163.615390031025
 30
0.0
 40
0.7
100
AcDbArc
 50
183.2473427903897
 51
262.3418727926349
  0
ARC
  5
178CF
330
747D
100
AcDbEntity
  8
部品1
 48
50.0
100
AcDbCircle
 10
4120.384539988618
 20
5071.41539003102
 30
0.0
 40
0.7
100
AcDbArc
 50
183.2473427902856
 51
262.3418727926349
  0
ARC
  5
178D0
330
747D
100
AcDbEntity
  8
部品1
 48
50.0
100
AcDbCircle
 10
4119.891470880058
 20
5067.748390869336
 30
0.0
 40
3.0
100
AcDbArc
 50
3.247342790337681
 51
82.34187279263478
  0
ARC
  5
178D1
330
747D
100
AcDbEntity
  8
部品1
 48
50.0
100
AcDbCircle
 10
4111.655440355214
 20
5159.948390869339
 30
0.0
 40
3.0
100
AcDbArc
 50
3.247342790337681
 51
82.34187279263478
  0
LINE
  5
178D2
330
747D
100
AcDbEntity
  8
部品1
100
AcDbLine
 10
4114.6506232514
 20
5160.11833032444
 30
0.0
 11
4119.685663979511
 21
5071.375737491497
 31
0.0
  0
LINE
  5
178D3
330
747D
100
AcDbEntity
  8
部品1
100
AcDbLine
 10
4122.886653776247
 20
5067.91833032444
 30
0.0
 11
4123.531559583355
 21
5056.5518654741
 31
0.0
  0
LINE
  5
178D4
330
747D
100
AcDbEntity
  8
部品1
100
AcDbLine
 10
4110.316236122321
 20
5183.551865474098
 30
0.0
 11
4111.449633454671
 21
5163.575737491497
 31
0.0
  0
LINE
  5
178D5
330
747D
100
AcDbEntity
  8
部品1
 48
50.0
100
AcDbLine
 10
7672.488154000562
 20
5190.948390869333
 30
0.0
 11
4117.30499621342
 21
5190.948390869333
 31
0.0
  0
LINE
  5
178D6
330
747D
100
AcDbEntity
  8
細線
 48
50.0
100
AcDbLine
 10
7677.737924093479
 20
5162.921633432914
 30
0.0
 11
4112.055226117404
 21
5162.921633433334
 31
0.0
  0
LINE
  5
178D7
330
747D
100
AcDbEntity
  8
細線
 48
50.0
100
AcDbLine
 10
7669.501893568649
 20
5070.721633432913
 30
0.0
 11
4120.291256642238
 21
5070.721633433334
 31
0.0
  0
LINE
  5
178D8
330
747D
100
AcDbEntity
  8
部品1
 48
50.0
100
AcDbLine
 10
7659.272830539528
 20
5049.948390869335
 30
0.0
 11
4130.520319674455
 21
5049.948390869338
 31
0.0
  0
DIMENSION
  5
178D9
330
747D
100
AcDbEntity
  8
寸法
 48
50.0
100
AcDbDimension
  2
*D4
 10
4109.896575106992
 20
5403.489976127578
 30
0.0
 11
3796.411293732745
 21
5403.489976127578
 31
0.0
 70
   160
 71
     5
 42
50.0
  3
INABA_S40G
100
AcDbAlignedDimension
 13
4159.896575106992
 23
5190.948390869341
 33
0.0
 14
4109.896575106992
 24
5190.94839086934
 34
0.0
100
AcDbRotatedDimension
1001
ACAD
1000
DSTYLE
1002
{
1002
}
  0
DIMENSION
  5
178DA
330
747D
100
AcDbEntity
  8
寸法
 48
50.0
100
AcDbDimension
  2
*D5
 10
7679.896575106996
 20
5624.395276601325
 30
0.0
 11
5894.896575106999
 21
5624.395276601325
 31
0.0
 70
   160
 71
     5
 42
3570.000000000004
  3
INABA_S40G
100
AcDbAlignedDimension
 13
4109.896575106992
 23
5190.94839086934
 33
0.0
 14
7679.896575106996
 24
5190.948390869333
 34
0.0
100
AcDbRotatedDimension
  0
DIMENSION
  5
178DB
330
747D
100
AcDbEntity
  8
寸法
 48
50.0
100
AcDbDimension
  2
*D6
 10
4159.896575106992
 20
5403.489976127577
 30
0.0
 11
5894.896575106999
 21
5403.489976127577
 31
0.0
 70
   160
  1
柱外寸法<>
 71
     5
 42
3470.000000000004
  3
INABA_S40G
100
AcDbAlignedDimension
 13
7629.896575106996
 23
5190.948390869337
 33
0.0
 14
4159.896575106992
 24
5190.948390869341
 34
0.0
100
AcDbRotatedDimension
  0
TEXT
  5
1798D
330
747D
100
AcDbEntity
  8
文字
 62
     7
 48
50.0
100
AcDbText
 10
13583.11819016569
 20
8550.013745883733
 30
0.0
 40
100.0
  1
棚板
  7
STYLE1
100
AcDbText
  0
TEXT
  5
1798E
330
747D
100
AcDbEntity
  8
文字
 62
     7
 48
50.0
100
AcDbText
 10
15022.63965474516
 20
8550.013745883729
 30
0.0
 40
100.0
  1
F12            0.6
  7
STYLE1
100
AcDbText
  0
TEXT
  5
1798F
330
747D
100
AcDbEntity
  8
文字
 62
     7
 48
50.0
100
AcDbText
 10
15022.63965474515
 20
9740.013745883723
 30
0.0
 40
100.0
  1
F12            1.2
  7
STYLE1
100
AcDbText
  0
TEXT
  5
17990
330
747D
100
AcDbEntity
  8
文字
 62
     7
 48
50.0
100
AcDbText
 10
13209.4053442172
 20
228.5435242569015
 30
0.0
 40
100.0
  1
○有効開口寸法 ： 1266×2025(mm)
  7
STYLE2
100
AcDbText
  0
DIMENSION
  5
17991
330
747D
100
AcDbEntity
  8
寸法
 48
50.0
100
AcDbDimension
  2
*D7
 10
12698.86671092095
 20
5135.948390869333
 30
0.0
 11
12606.85489989733
 21
3975.948390869335
 31
0.0
 70
    32
 71
     5
 42
2320.0
  3
INABA_S40
100
AcDbAlignedDimension
 13
12007.65313193489
 23
2815.948390869333
 33
0.0
 14
12087.6531319349
 24
5135.948390869333
 34
0.0
 50
90.0
100
AcDbRotatedDimension
1001
ACAD
1000
DSTYLE
1002
{
1070
    41
1040
0.5
1070
    44
1040
1.0
1070
   147
1040
0.8
1070
   271
1070
     2
1070
   272
1070
     2
1070
   289
1070
     3
1070
   340
1005
F706
1070
   343
1005
164B4
1070
   344
1005
164B4
1002
}
  0
LINE
  5
17992
330
747D
100
AcDbEntity
  8
部品1
 48
50.0
100
AcDbLine
 10
11960.15313193488
 20
2855.948390869333
 30
0.0
 11
11960.15313193489
 21
2715.948390869333
 31
0.0
  0
LINE
  5
17993
330
747D
100
AcDbEntity
  8
部品1
 48
50.0
100
AcDbLine
 10
12000.15313193489
 20
2855.948390869333
 30
0.0
 11
12000.15313193488
 21
2715.948390869333
 31
0.0
  0
LINE
  5
17994
330
747D
100
AcDbEntity
  8
部品1
100
AcDbLine
 10
11807.65313193488
 20
2815.948390869333
 30
0.0
 11
11807.65313193488
 21
2715.948390869333
 31
0.0
  0
LINE
  5
17995
330
747D
100
AcDbEntity
  8
部品1
 48
50.0
100
AcDbLine
 10
11212.65313193488
 20
2815.948390869333
 30
0.0
 11
11212.65313193488
 21
2715.948390869333
 31
0.0
  0
LINE
  5
17996
330
747D
100
AcDbEntity
  8
部品1
 48
50.0
100
AcDbLine
 10
11012.65313193488
 20
2815.948390869333
 30
0.0
 11
11012.65313193488
 21
2715.948390869333
 31
0.0
  0
LINE
  5
17997
330
747D
100
AcDbEntity
  8
部品1
100
AcDbLine
 10
12007.65313193489
 20
5010.830199555338
 30
0.0
 11
12007.65313193489
 21
2715.948390869333
 31
0.0
  0
LINE
  5
17998
330
747D
100
AcDbEntity
  8
部品1
100
AcDbLine
 10
10417.65313193488
 20
2815.948390869333
 30
0.0
 11
10417.65313193488
 21
2715.948390869333
 31
0.0
  0
LINE
  5
17999
330
747D
100
AcDbEntity
  8
部品1
 48
50.0
100
AcDbLine
 10
10225.15313193488
 20
2855.948390869333
 30
0.0
 11
10225.15313193489
 21
2715.948390869333
 31
0.0
  0
LINE
  5
1799A
330
747D
100
AcDbEntity
  8
部品1
 48
50.0
100
AcDbLine
 10
10265.15313193489
 20
2855.948390869333
 30
0.0
 11
10265.15313193488
 21
2715.948390869333
 31
0.0
  0
LINE
  5
1799B
330
747D
100
AcDbEntity
  8
部品1
100
AcDbLine
 10
10140.65313193489
 20
4941.635495777735
 30
0.0
 11
10140.65313193488
 21
2715.948390869333
 31
0.0
  0
LINE
  5
1799C
330
747D
100
AcDbEntity
  8
部品1
100
AcDbLine
 10
10217.65313193489
 20
5047.806910311578
 30
0.0
 11
10217.65313193489
 21
2715.948390869333
 31
0.0
  0
DIMENSION
  5
1799D
330
747D
100
AcDbEntity
  8
寸法
 48
50.0
100
AcDbDimension
  2
*D8
 10
9373.90300275163
 20
2815.948390869333
 30
0.0
 11
9373.90300275163
 21
2432.198390869333
 31
0.0
 70
   160
 71
     5
 42
50.0
  3
INABA_S40
100
AcDbAlignedDimension
 13
10217.65313193489
 23
2865.948390869333
 33
0.0
 14
10140.65313193488
 24
2815.948390869333
 34
0.0
 50
90.0
100
AcDbRotatedDimension
1001
ACAD
1000
DSTYLE
1002
{
1070
    41
1040
0.5
1070
    44
1040
1.0
1070
   147
1040
0.8
1070
   271
1070
     2
1070
   272
1070
     2
1070
   289
1070
     3
1070
   340
1005
F706
1070
   343
1005
164B4
1070
   344
1005
164B4
1002
}
  0
DIMENSION
  5
1799E
330
747D
100
AcDbEntity
  8
寸法
 48
50.0
100
AcDbDimension
  2
*D9
 10
9073.903002751629
 20
2715.948390869333
 30
0.0
 11
9073.903002751629
 21
2300.948390869333
 31
0.0
 70
   160
 71
     5
 42
100.0000000000004
  3
INABA_S40
100
AcDbAlignedDimension
 13
10140.65313193488
 23
2815.948390869333
 33
0.0
 14
9161.152056039757
 24
2715.948390869333
 34
0.0
 50
90.0
100
AcDbRotatedDimension
1001
ACAD
1000
DSTYLE
1002
{
1070
    41
1040
0.5
1070
    44
1040
1.0
1070
   147
1040
0.8
1070
   271
1070
     2
1070
   272
1070
     2
1070
   289
1070
     3
1070
   340
1005
F706
1070
   343
1005
164B4
1070
   344
1005
164B4
1002
}
  0
DIMENSION
  5
1799F
330
747D
100
AcDbEntity
  8
寸法
 48
50.0
100
AcDbDimension
  2
*D10
 10
9737.90855585041
 20
2715.948390869333
 30
0.0
 11
9737.90855585041
 21
2573.509714082899
 31
0.0
 70
   160
 71
     5
 42
200.0
  3
INABA_S40
100
AcDbAlignedDimension
 13
10145.15313193489
 23
2515.948390869333
 33
0.0
 14
10145.15313193489
 24
2715.948390869333
 34
0.0
 50
90.0
100
AcDbRotatedDimension
1001
ACAD
1000
DSTYLE
1002
{
1070
    41
1040
0.5
1070
    44
1040
1.0
1070
   147
1040
0.8
1070
   271
1070
     2
1070
   272
1070
     2
1070
   289
1070
     3
1070
   340
1005
F706
1070
   343
1005
164B4
1070
   344
1005
164B4
1002
}
  0
LINE
  5
179A0
330
747D
100
AcDbEntity
  8
破線
  6
HIDDEN
 48
5.0
100
AcDbLine
 10
10145.15313193489
 20
2515.948390869333
 30
0.0
 11
10345.15313193489
 21
2515.948390869331
 31
0.0
  0
DIMENSION
  5
179A1
330
747D
100
AcDbEntity
  8
寸法
 48
50.0
100
AcDbDimension
  2
*D11
 10
10345.15313193489
 20
2180.75800663012
 30
0.0
 11
10245.15313193489
 21
2180.75800663012
 31
0.0
 70
   160
 71
     5
 42
200.0
  3
INABA_S40
100
AcDbAlignedDimension
 13
10145.15313193489
 23
2515.948390869333
 33
0.0
 14
10345.15313193489
 24
2515.948390869331
 34
0.0
100
AcDbRotatedDimension
1001
ACAD
1000
DSTYLE
1002
{
1070
    41
1040
0.5
1070
    44
1040
1.0
1070
   147
1040
0.8
1070
   271
1070
     2
1070
   272
1070
     2
1070
   289
1070
     3
1070
   340
1005
F706
1070
   343
1005
164B4
1070
   344
1005
164B4
1002
}
  0
LINE
  5
179A2
330
747D
100
AcDbEntity
  8
破線
  6
HIDDEN
 48
5.0
100
AcDbLine
 10
10145.15313193489
 20
2715.948390869333
 30
0.0
 11
10145.15313193489
 21
2515.948390869333
 31
0.0
  0
LINE
  5
179A3
330
747D
100
AcDbEntity
  8
破線
  6
HIDDEN
 48
5.0
100
AcDbLine
 10
10265.15313193489
 20
2715.948390869333
 30
0.0
 11
10265.15313193489
 21
2710.948390869333
 31
0.0
  0
LINE
  5
179A4
330
747D
100
AcDbEntity
  8
破線
  6
HIDDEN
 48
5.0
100
AcDbLine
 10
10225.15313193489
 20
2715.948390869333
 30
0.0
 11
10225.15313193489
 21
2710.948390869333
 31
0.0
  0
LINE
  5
179A5
330
747D
100
AcDbEntity
  8
破線
  6
HIDDEN
 48
5.0
100
AcDbLine
 10
10280.15313193489
 20
2563.248390869332
 30
0.0
 11
10280.15313193489
 21
2560.948390869333
 31
0.0
  0
LINE
  5
179A6
330
747D
100
AcDbEntity
  8
破線
  6
HIDDEN
 48
5.0
100
AcDbLine
 10
10210.15313193489
 20
2563.248390869332
 30
0.0
 11
10210.15313193489
 21
2560.948390869333
 31
0.0
  0
LINE
  5
179A7
330
747D
100
AcDbEntity
  8
破線
  6
HIDDEN
 48
5.0
100
AcDbLine
 10
10210.15313193489
 20
2560.948390869333
 30
0.0
 11
10280.15313193489
 21
2560.948390869333
 31
0.0
  0
LINE
  5
179A8
330
747D
100
AcDbEntity
  8
破線
  6
HIDDEN
 48
5.0
100
AcDbLine
 10
10265.15313193489
 20
2710.948390869333
 30
0.0
 11
10280.15313193489
 21
2563.248390869332
 31
0.0
  0
LINE
  5
179A9
330
747D
100
AcDbEntity
  8
破線
  6
HIDDEN
 48
5.0
100
AcDbLine
 10
10225.15313193489
 20
2710.948390869333
 30
0.0
 11
10210.15313193489
 21
2563.248390869332
 31
0.0
  0
LINE
  5
179AA
330
747D
100
AcDbEntity
  8
破線
  6
HIDDEN
 48
5.0
100
AcDbLine
 10
10345.15313193489
 20
2715.948390869333
 30
0.0
 11
10345.15313193489
 21
2515.948390869331
 31
0.0
  0
LINE
  5
179AB
330
747D
100
AcDbEntity
  8
破線
  6
HIDDEN
 48
5.0
100
AcDbLine
 10
12015.15313193489
 20
2560.948390869333
 30
0.0
 11
11945.15313193489
 21
2560.948390869333
 31
0.0
  0
LINE
  5
179AC
330
747D
100
AcDbEntity
  8
破線
  6
HIDDEN
 48
5.0
100
AcDbLine
 10
12080.15313193489
 20
2515.948390869333
 30
0.0
 11
11880.15313193489
 21
2515.948390869333
 31
0.0
  0
LINE
  5
179AD
330
747D
100
AcDbEntity
  8
破線
  6
HIDDEN
 48
5.0
100
AcDbLine
 10
11960.15313193488
 20
2710.948390869333
 30
0.0
 11
11945.15313193489
 21
2563.248390869333
 31
0.0
  0
LINE
  5
179AE
330
747D
100
AcDbEntity
  8
破線
  6
HIDDEN
 48
5.0
100
AcDbLine
 10
11880.15313193488
 20
2715.948390869333
 30
0.0
 11
11880.15313193489
 21
2515.948390869333
 31
0.0
  0
LINE
  5
179AF
330
747D
100
AcDbEntity
  8
破線
  6
HIDDEN
 48
5.0
100
AcDbLine
 10
11945.15313193489
 20
2563.248390869333
 30
0.0
 11
11945.15313193489
 21
2560.948390869333
 31
0.0
  0
LINE
  5
179B0
330
747D
100
AcDbEntity
  8
破線
  6
HIDDEN
 48
5.0
100
AcDbLine
 10
12080.15313193489
 20
2715.948390869333
 30
0.0
 11
12080.15313193489
 21
2515.948390869333
 31
0.0
  0
LINE
  5
179B1
330
747D
100
AcDbEntity
  8
破線
  6
HIDDEN
 48
50.0
100
AcDbLine
 10
11960.15313193489
 20
2715.948390869333
 30
0.0
 11
11960.15313193489
 21
2710.948390869333
 31
0.0
  0
LINE
  5
179B2
330
747D
100
AcDbEntity
  8
破線
  6
HIDDEN
 48
50.0
100
AcDbLine
 10
12000.15313193488
 20
2715.948390869333
 30
0.0
 11
12000.15313193488
 21
2710.948390869333
 31
0.0
  0
LINE
  5
179B3
330
747D
100
AcDbEntity
  8
破線
  6
HIDDEN
 48
5.0
100
AcDbLine
 10
12015.15313193489
 20
2563.248390869333
 30
0.0
 11
12015.15313193489
 21
2560.948390869333
 31
0.0
  0
LINE
  5
179B4
330
747D
100
AcDbEntity
  8
破線
  6
HIDDEN
 48
5.0
100
AcDbLine
 10
12000.15313193489
 20
2710.948390869333
 30
0.0
 11
12015.15313193489
 21
2563.248390869333
 31
0.0
  0
DIMENSION
  5
179B5
330
747D
100
AcDbEntity
  8
寸法
 48
50.0
100
AcDbDimension
  2
*D12
 10
9672.744490537633
 20
2881.948390869333
 30
0.0
 11
9580.732679514012
 21
3894.448390869334
 31
0.0
 70
    32
  1
有効開口部高サ<>
 71
     5
 42
2025.0
  3
INABA_S40
100
AcDbAlignedDimension
 13
10140.65313193489
 23
4906.948390869333
 33
0.0
 14
10140.65313193488
 24
2881.948390869333
 34
0.0
 50
90.0
100
AcDbRotatedDimension
1001
ACAD
1000
DSTYLE
1002
{
1070
    41
1040
0.5
1070
    44
1040
1.0
1070
   147
1040
0.8
1070
   271
1070
     2
1070
   272
1070
     2
1070
   289
1070
     3
1070
   340
1005
F706
1070
   343
1005
164B4
1070
   344
1005
164B4
1002
}
  0
DIMENSION
  5
179B6
330
747D
100
AcDbEntity
  8
寸法
 48
50.0
100
AcDbDimension
  2
*D13
 10
9373.90300275163
 20
2865.948390869333
 30
0.0
 11
9281.891191728004
 21
3910.948390869334
 31
0.0
 70
    32
 71
     5
 42
2089.999999999999
  3
INABA_S40
100
AcDbAlignedDimension
 13
10217.65313193489
 23
4955.948390869333
 33
0.0
 14
10217.65313193489
 24
2865.948390869333
 34
0.0
 50
90.0
100
AcDbRotatedDimension
1001
ACAD
1000
DSTYLE
1002
{
1070
    41
1040
0.5
1070
    44
1040
1.0
1070
   147
1040
0.8
1070
   271
1070
     2
1070
   272
1070
     2
1070
   289
1070
     3
1070
   340
1005
F706
1070
   343
1005
164B4
1070
   344
1005
164B4
1002
}
  0
LINE
  5
179B7
330
747D
100
AcDbEntity
  8
部品1
100
AcDbLine
 10
11112.65313193488
 20
4955.948390869333
 30
0.0
 11
11112.65313193488
 21
2865.948390869333
 31
0.0
  0
LINE
  5
179B8
330
747D
100
AcDbEntity
  8
部品1
100
AcDbLine
 10
11952.65313193488
 20
4955.948390869333
 30
0.0
 11
11952.65313193489
 21
2865.948390869333
 31
0.0
  0
LINE
  5
179B9
330
747D
100
AcDbEntity
  8
部品1
100
AcDbLine
 10
11532.65313193488
 20
4955.948390869333
 30
0.0
 11
11532.65313193488
 21
2865.948390869333
 31
0.0
  0
LINE
  5
179BA
330
747D
100
AcDbEntity
  8
部品1
100
AcDbLine
 10
10272.65313193489
 20
4955.948390869333
 30
0.0
 11
10272.65313193489
 21
2865.948390869333
 31
0.0
  0
LINE
  5
179BB
330
747D
100
AcDbEntity
  8
部品1
100
AcDbLine
 10
10692.65313193489
 20
4955.948390869333
 30
0.0
 11
10692.65313193489
 21
2865.948390869333
 31
0.0
  0
LINE
  5
179BC
330
747D
100
AcDbEntity
  8
部品1
100
AcDbLine
 10
10217.65313193489
 20
2865.948390869333
 30
0.0
 11
12007.65313193489
 21
2865.948390869333
 31
0.0
  0
LINE
  5
179BD
330
747D
100
AcDbEntity
  8
部品1
100
AcDbLine
 10
10265.15313193488
 20
2815.948390869333
 30
0.0
 11
11960.15313193488
 21
2815.948390869333
 31
0.0
  0
LINE
  5
179BE
330
747D
100
AcDbEntity
  8
部品1
100
AcDbLine
 10
10217.65313193489
 20
2815.948390869333
 30
0.0
 11
10140.65313193488
 21
2815.948390869333
 31
0.0
  0
LINE
  5
179BF
330
747D
100
AcDbEntity
  8
部品1
100
AcDbLine
 10
10217.65313193489
 20
2815.948390869333
 30
0.0
 11
10225.15313193488
 21
2815.948390869333
 31
0.0
  0
LINE
  5
179C0
330
747D
100
AcDbEntity
  8
部品1
100
AcDbLine
 10
10230.15313193488
 20
2860.948390869333
 30
0.0
 11
10260.15313193489
 21
2860.948390869333
 31
0.0
  0
ARC
  5
179C1
330
747D
100
AcDbEntity
  8
部品1
 48
50.0
100
AcDbCircle
 10
10230.15313193488
 20
2855.948390869333
 30
0.0
 40
5.0
100
AcDbArc
 50
90.0
 51
180.0
  0
ARC
  5
179C2
330
747D
100
AcDbEntity
  8
部品1
 48
50.0
100
AcDbCircle
 10
10260.15313193489
 20
2855.948390869333
 30
0.0
 40
5.0
100
AcDbArc
 50
0.0
 51
90.0
  0
LINE
  5
179C3
330
747D
100
AcDbEntity
  8
部品1
100
AcDbLine
 10
12007.65313193488
 20
2815.948390869333
 30
0.0
 11
12000.15313193489
 21
2815.948390869333
 31
0.0
  0
ARC
  5
179C4
330
747D
100
AcDbEntity
  8
部品1
 48
50.0
100
AcDbCircle
 10
11965.15313193488
 20
2855.948390869333
 30
0.0
 40
5.0
100
AcDbArc
 50
90.0
 51
180.0
  0
LINE
  5
179C5
330
747D
100
AcDbEntity
  8
部品1
100
AcDbLine
 10
11995.15313193489
 20
2860.948390869333
 30
0.0
 11
11965.15313193488
 21
2860.948390869333
 31
0.0
  0
ARC
  5
179C6
330
747D
100
AcDbEntity
  8
部品1
 48
50.0
100
AcDbCircle
 10
11995.15313193489
 20
2855.948390869333
 30
0.0
 40
5.0
100
AcDbArc
 50
0.0
 51
90.0
  0
LINE
  5
179C7
330
747D
100
AcDbEntity
  8
部品1
100
AcDbLine
 10
12000.15313193488
 20
2815.948390869333
 30
0.0
 11
12007.65313193489
 21
2815.948390869333
 31
0.0
  0
LINE
  5
179C8
330
747D
100
AcDbEntity
  8
部品1
100
AcDbLine
 10
10217.65313193489
 20
4955.948390869333
 30
0.0
 11
12007.65313193489
 21
4955.948390869333
 31
0.0
  0
TEXT
  5
179C9
330
747D
100
AcDbEntity
  8
部品1
100
AcDbText
 10
10830.36390024427
 20
1988.120520905699
 30
0.0
 40
135.0
  1
側面図
  7
STYLE2
100
AcDbText
  0
LWPOLYLINE
  5
179CA
330
747D
100
AcDbEntity
  8
部品1
100
AcDbPolyline
 90
        4
 70
     1
 43
0.0
 10
10740.91779882067
 20
2181.014050124223
 10
10740.91779882067
 20
1941.121728578691
 10
11504.3884650491
 20
1941.121728578691
 10
11504.3884650491
 20
2181.014050124223
  0
TEXT
  5
179CB
330
747D
100
AcDbEntity
  8
文字
 62
     7
 48
50.0
100
AcDbText
 10
13583.11819016569
 20
9740.013745883729
 30
0.0
 40
100.0
  1
母屋中
  7
STYLE1
100
AcDbText
  0
TEXT
  5
179CC
330
747D
100
AcDbEntity
  8
文字
 62
     7
 48
50.0
100
AcDbText
 10
13248.77747366447
 20
8720.013745883729
 30
0.0
 40
100.0
  1
15
  7
STYLE1
100
AcDbText
  0
LINE
  5
179CD
330
747D
100
AcDbEntity
  8
仕様書枠
 48
50.0
100
AcDbLine
 10
16307.19999999999
 20
8009.600000000004
 30
0.0
 11
13127.19999999999
 21
8009.600000000007
 31
0.0
  0
TEXT
  5
179CE
330
747D
100
AcDbEntity
  8
文字
 62
     7
 48
50.0
100
AcDbText
 10
13583.11819016569
 20
8720.013745883733
 30
0.0
 40
100.0
  1
扉
  7
STYLE1
100
AcDbText
  0
TEXT
  5
179CF
330
747D
100
AcDbEntity
  8
文字
 62
     7
 48
50.0
100
AcDbText
 10
15022.63965474516
 20
8720.013745883729
 30
0.0
 40
100.0
  1
F12            0.8
  7
STYLE1
100
AcDbText
  0
TEXT
  5
179D0
330
747D
100
AcDbEntity
  8
文字
 62
     7
 48
50.0
100
AcDbText
 10
13583.11819016568
 20
8890.013745883733
 30
0.0
 40
100.0
  1
正面パネル
  7
STYLE1
100
AcDbText
  0
TEXT
  5
179D1
330
747D
100
AcDbEntity
  8
文字
 62
     7
 48
50.0
100
AcDbText
 10
15022.63965474515
 20
8890.013745883729
 30
0.0
 40
100.0
  1
F12            0.7
  7
STYLE1
100
AcDbText
  0
TEXT
  5
179D2
330
747D
100
AcDbEntity
  8
文字
 62
     7
 48
50.0
100
AcDbText
 10
15022.63965474517
 20
10590.01374588372
 30
0.0
 40
100.0
  1
F12            1.0
  7
STYLE1
100
AcDbText
  0
TEXT
  5
179D3
330
747D
100
AcDbEntity
  8
文字
 62
     7
 48
50.0
100
AcDbText
 10
15022.63965474516
 20
10930.01374588372
 30
0.0
 40
100.0
  1
F12            1.2
  7
STYLE1
100
AcDbText
  0
TEXT
  5
179D4
330
747D
100
AcDbEntity
  8
文字
 62
     7
 48
50.0
100
AcDbText
 10
13248.77747366448
 20
8890.013745883729
 30
0.0
 40
100.0
  1
14
  7
STYLE1
100
AcDbText
  0
TEXT
  5
179D5
330
747D
100
AcDbEntity
  8
文字
 62
     7
 48
50.0
100
AcDbText
 10
13583.11819016569
 20
10930.01374588373
 30
0.0
 40
100.0
  1
根太
  7
STYLE1
100
AcDbText
  0
TEXT
  5
179D6
330
747D
100
AcDbEntity
  8
文字
 62
     7
 48
50.0
100
AcDbText
 10
13583.1181901657
 20
10590.01374588373
 30
0.0
 40
100.0
  1
床パネル
 41
0.9
  7
STYLE1
100
AcDbText
  0
LINE
  5
179D7
330
747D
100
AcDbEntity
  8
仕様書枠
 48
50.0
100
AcDbLine
 10
16307.19999999999
 20
9029.6
 30
0.0
 11
13127.2
 21
9029.600000000003
 31
0.0
  0
LINE
  5
179D8
330
747D
100
AcDbEntity
  8
仕様書枠
 48
50.0
100
AcDbLine
 10
13127.2
 20
11409.6
 30
0.0
 11
13127.19999999999
 21
8009.600000000007
 31
0.0
  0
TEXT
  5
179D9
330
747D
100
AcDbEntity
  8
文字
 62
     7
 48
50.0
100
AcDbText
 10
13229.83081656554
 20
8040.013745883731
 30
0.0
 40
100.0
  1
Y10→溶融亜鉛-5％アルミニウム合金めっき鋼板(JIS G 3317)
 41
0.9
  7
STYLE1
100
AcDbText
  0
TEXT
  5
179DA
330
747D
100
AcDbEntity
  8
文字
 62
     7
 48
50.0
100
AcDbText
 10
13229.83081656554
 20
8210.013745883737
 30
0.0
 40
100.0
  1
F12→溶融亜鉛めっき鋼板(JIS G 3302)
  7
STYLE1
100
AcDbText
  0
LINE
  5
179DB
330
747D
100
AcDbEntity
  8
仕様書枠
 48
50.0
100
AcDbLine
 10
16307.19999999999
 20
8179.600000000005
 30
0.0
 11
13127.19999999999
 21
8179.600000000005
 31
0.0
  0
LINE
  5
179DC
330
747D
100
AcDbEntity
  8
仕様書枠
 48
50.0
100
AcDbLine
 10
16307.19999999999
 20
8349.600000000004
 30
0.0
 11
13127.19999999999
 21
8349.600000000007
 31
0.0
  0
TEXT
  5
179DD
330
747D
100
AcDbEntity
  8
文字
 62
     7
 48
50.0
100
AcDbText
 10
15022.63965474515
 20
9570.013745883723
 30
0.0
 40
100.0
  1
F12            0.7
  7
STYLE1
100
AcDbText
  0
TEXT
  5
179DE
330
747D
100
AcDbEntity
  8
文字
 62
     7
 48
50.0
100
AcDbText
 10
15022.63965474517
 20
9910.013745883723
 30
0.0
 40
100.0
  1
Y10            0.5
  7
STYLE1
100
AcDbText
  0
TEXT
  5
179DF
330
747D
100
AcDbEntity
  8
文字
 62
     7
 48
50.0
100
AcDbText
 10
15022.63965474516
 20
10080.01374588372
 30
0.0
 40
100.0
  1
Y10            0.7
  7
STYLE1
100
AcDbText
  0
TEXT
  5
179E0
330
747D
100
AcDbEntity
  8
文字
 62
     7
 48
50.0
100
AcDbText
 10
15022.63965474516
 20
10250.01374588372
 30
0.0
 40
100.0
  1
Y10            0.7
  7
STYLE1
100
AcDbText
  0
TEXT
  5
179E1
330
747D
100
AcDbEntity
  8
文字
 62
     7
 48
50.0
100
AcDbText
 10
15022.63965474516
 20
10420.01374588372
 30
0.0
 40
100.0
  1
Y10            1.0
  7
STYLE1
100
AcDbText
  0
TEXT
  5
179E2
330
747D
100
AcDbEntity
  8
文字
 62
     7
 48
50.0
100
AcDbText
 10
15022.63965474518
 20
10760.01374588372
 30
0.0
 40
100.0
  1
F12            1.0
  7
STYLE1
100
AcDbText
  0
TEXT
  5
179E3
330
747D
100
AcDbEntity
  8
文字
 62
     7
 48
50.0
100
AcDbText
 10
15022.63965474517
 20
11100.01374588372
 30
0.0
 40
100.0
  1
F12            1.2
  7
STYLE1
100
AcDbText
  0
TEXT
  5
179E4
330
747D
100
AcDbEntity
  8
文字
 62
     7
 48
50.0
100
AcDbText
 10
13248.77747366448
 20
9230.013745883729
 30
0.0
 40
100.0
  1
12
  7
STYLE1
100
AcDbText
  0
TEXT
  5
179E5
330
747D
100
AcDbEntity
  8
文字
 62
     7
 48
50.0
100
AcDbText
 10
13248.77747366448
 20
9060.013745883729
 30
0.0
 40
100.0
  1
13
  7
STYLE1
100
AcDbText
  0
LINE
  5
179E6
330
747D
100
AcDbEntity
  8
仕様書枠
 48
50.0
100
AcDbLine
 10
16307.19999999999
 20
8859.6
 30
0.0
 11
13127.2
 21
8859.600000000005
 31
0.0
  0
LINE
  5
179E7
330
747D
100
AcDbEntity
  8
仕様書枠
 48
50.0
100
AcDbLine
 10
16307.19999999999
 20
9199.600000000001
 30
0.0
 11
13127.2
 21
9199.600000000001
 31
0.0
  0
TEXT
  5
179E8
330
747D
100
AcDbEntity
  8
文字
 62
     7
 48
50.0
100
AcDbText
 10
13248.77747366447
 20
9400.013745883729
 30
0.0
 40
100.0
  1
11
  7
STYLE1
100
AcDbText
  0
LINE
  5
179E9
330
747D
100
AcDbEntity
  8
仕様書枠
 48
50.0
100
AcDbLine
 10
16307.2
 20
9879.600000000001
 30
0.0
 11
13127.2
 21
9879.600000000001
 31
0.0
  0
LINE
  5
179EA
330
747D
100
AcDbEntity
  8
仕様書枠
 48
50.0
100
AcDbLine
 10
16307.2
 20
10219.6
 30
0.0
 11
13127.2
 21
10219.6
 31
0.0
  0
LINE
  5
179EB
330
747D
100
AcDbEntity
  8
仕様書枠
 48
50.0
100
AcDbLine
 10
16307.19999999999
 20
9539.6
 30
0.0
 11
13127.2
 21
9539.6
 31
0.0
  0
LINE
  5
179EC
330
747D
100
AcDbEntity
  8
仕様書枠
 48
50.0
100
AcDbLine
 10
16307.19999999999
 20
9369.600000000001
 30
0.0
 11
13127.2
 21
9369.600000000001
 31
0.0
  0
LINE
  5
179ED
330
747D
100
AcDbEntity
  8
仕様書枠
 48
50.0
100
AcDbLine
 10
16307.19999999999
 20
9709.600000000001
 30
0.0
 11
13127.2
 21
9709.600000000001
 31
0.0
  0
TEXT
  5
179EE
330
747D
100
AcDbEntity
  8
文字
 62
     7
 48
50.0
100
AcDbText
 10
13271.19032244792
 20
10250.01374588373
 30
0.0
 40
100.0
  1
6
  7
STYLE1
100
AcDbText
  0
TEXT
  5
179EF
330
747D
100
AcDbEntity
  8
文字
 62
     7
 48
50.0
100
AcDbText
 10
13271.19032244792
 20
10080.01374588373
 30
0.0
 40
100.0
  1
7
  7
STYLE1
100
AcDbText
  0
TEXT
  5
179F0
330
747D
100
AcDbEntity
  8
文字
 62
     7
 48
50.0
100
AcDbText
 10
13271.19032244792
 20
9740.013745883729
 30
0.0
 40
100.0
  1
9
  7
STYLE1
100
AcDbText
  0
TEXT
  5
179F1
330
747D
100
AcDbEntity
  8
文字
 62
     7
 48
50.0
100
AcDbText
 10
13271.19032244792
 20
9910.01374588373
 30
0.0
 40
100.0
  1
8
  7
STYLE1
100
AcDbText
  0
TEXT
  5
179F2
330
747D
100
AcDbEntity
  8
文字
 62
     7
 48
50.0
100
AcDbText
 10
13583.11819016569
 20
10080.01374588373
 30
0.0
 40
100.0
  1
鼻隠シ前後
  7
STYLE1
100
AcDbText
  0
TEXT
  5
179F3
330
747D
100
AcDbEntity
  8
文字
 62
     7
 48
50.0
100
AcDbText
 10
13583.11819016569
 20
9910.01374588373
 30
0.0
 40
100.0
  1
屋根パネル
  7
STYLE1
100
AcDbText
  0
TEXT
  5
179F4
330
747D
100
AcDbEntity
  8
文字
 62
     7
 48
50.0
100
AcDbText
 10
13583.11819016568
 20
9570.013745883729
 30
0.0
 40
100.0
  1
壁パネル
  7
STYLE1
100
AcDbText
  0
TEXT
  5
179F5
330
747D
100
AcDbEntity
  8
文字
 62
     7
 48
50.0
100
AcDbText
 10
13248.77747366447
 20
9570.013745883729
 30
0.0
 40
100.0
  1
10
  7
STYLE1
100
AcDbText
  0
TEXT
  5
179F6
330
747D
100
AcDbEntity
  8
文字
 62
     7
 48
50.0
100
AcDbText
 10
13583.11819016569
 20
10250.01374588373
 30
0.0
 40
100.0
  1
妻板左右
  7
STYLE1
100
AcDbText
  0
TEXT
  5
179F7
330
747D
100
AcDbEntity
  8
文字
 62
     7
 48
50.0
100
AcDbText
 10
13271.19032244792
 20
10420.01374588373
 30
0.0
 40
100.0
  1
5
  7
STYLE1
100
AcDbText
  0
TEXT
  5
179F8
330
747D
100
AcDbEntity
  8
文字
 62
     7
 48
50.0
100
AcDbText
 10
13583.11819016569
 20
10420.01374588373
 30
0.0
 40
100.0
  1
桁前後
  7
STYLE1
100
AcDbText
  0
TEXT
  5
179F9
330
747D
100
AcDbEntity
  8
文字
 62
     7
 48
50.0
100
AcDbText
 10
13583.1181901657
 20
10760.01374588373
 30
0.0
 40
100.0
  1
柱
  7
STYLE1
100
AcDbText
  0
TEXT
  5
179FA
330
747D
100
AcDbEntity
  8
文字
 62
     7
 48
50.0
100
AcDbText
 10
13583.11819016569
 20
11100.01374588373
 30
0.0
 40
100.0
  1
土台枠
  7
STYLE1
100
AcDbText
  0
TEXT
  5
179FB
330
747D
100
AcDbEntity
  8
文字
 62
     7
 48
50.0
100
AcDbText
 10
14859.79774614482
 20
11270.01374588373
 30
0.0
 40
100.0
  1
材料（材質）　　単位mm
  7
STYLE1
100
AcDbText
  0
TEXT
  5
179FC
330
747D
100
AcDbEntity
  8
文字
 62
     7
 48
50.0
100
AcDbText
 10
13732.03840939434
 20
11270.01374588373
 30
0.0
 40
100.0
  1
部　　品　　名
  7
STYLE1
100
AcDbText
  0
TEXT
  5
179FD
330
747D
100
AcDbEntity
  8
文字
 62
     7
 48
50.0
100
AcDbText
 10
13271.19032244792
 20
10760.01374588373
 30
0.0
 40
100.0
  1
3
  7
STYLE1
100
AcDbText
  0
TEXT
  5
179FE
330
747D
100
AcDbEntity
  8
文字
 62
     7
 48
50.0
100
AcDbText
 10
13271.19032244792
 20
10590.01374588373
 30
0.0
 40
100.0
  1
4
  7
STYLE1
100
AcDbText
  0
TEXT
  5
179FF
330
747D
100
AcDbEntity
  8
文字
 62
     7
 48
50.0
100
AcDbText
 10
13271.19032244792
 20
10930.01374588373
 30
0.0
 40
100.0
  1
2
  7
STYLE1
100
AcDbText
  0
TEXT
  5
17A00
330
747D
100
AcDbEntity
  8
文字
 62
     7
 48
50.0
100
AcDbText
 10
13271.19032244792
 20
11100.01374588373
 30
0.0
 40
100.0
  1
1
  7
STYLE1
100
AcDbText
  0
TEXT
  5
17A01
330
747D
100
AcDbEntity
  8
文字
 62
     7
 48
50.0
100
AcDbText
 10
13197.42518560407
 20
11270.01374588373
 30
0.0
 40
100.0
  1
品番
  7
STYLE1
100
AcDbText
  0
LINE
  5
17A02
330
747D
100
AcDbEntity
  8
仕様書枠
 48
50.0
100
AcDbLine
 10
16307.19999999999
 20
10729.6
 30
0.0
 11
13127.2
 21
10729.6
 31
0.0
  0
LINE
  5
17A03
330
747D
100
AcDbEntity
  8
仕様書枠
 48
50.0
100
AcDbLine
 10
16307.19999999999
 20
10389.6
 30
0.0
 11
13127.2
 21
10389.6
 31
0.0
  0
LINE
  5
17A04
330
747D
100
AcDbEntity
  8
仕様書枠
 48
50.0
100
AcDbLine
 10
16307.19999999999
 20
10559.6
 30
0.0
 11
13127.2
 21
10559.6
 31
0.0
  0
LINE
  5
17A05
330
747D
100
AcDbEntity
  8
仕様書枠
 48
50.0
100
AcDbLine
 10
16307.2
 20
11069.6
 30
0.0
 11
13127.2
 21
11069.6
 31
0.0
  0
LINE
  5
17A06
330
747D
100
AcDbEntity
  8
仕様書枠
 48
50.0
100
AcDbLine
 10
16307.2
 20
10899.6
 30
0.0
 11
13127.2
 21
10899.6
 31
0.0
  0
LINE
  5
17A07
330
747D
100
AcDbEntity
  8
仕様書枠
 48
50.0
100
AcDbLine
 10
16307.2
 20
11239.6
 30
0.0
 11
13127.2
 21
11239.6
 31
0.0
  0
LINE
  5
17A08
330
747D
100
AcDbEntity
  8
仕様書枠
 48
50.0
100
AcDbLine
 10
13490.2
 20
11409.6
 30
0.0
 11
13490.20000000001
 21
8349.600000000007
 31
0.0
  0
LINE
  5
17A09
330
747D
100
AcDbEntity
  8
仕様書枠
 48
50.0
100
AcDbLine
 10
14785.2
 20
11409.59999999999
 30
0.0
 11
14785.2
 21
8349.600000000004
 31
0.0
  0
LINE
  5
17A0A
330
747D
100
AcDbEntity
  8
仕様書枠
 48
50.0
100
AcDbLine
 10
16307.19999999999
 20
8009.600000000004
 30
0.0
 11
16307.2
 21
11409.6
 31
0.0
  0
LINE
  5
17A0B
330
747D
100
AcDbEntity
  8
仕様書枠
 48
50.0
100
AcDbLine
 10
16307.2
 20
11409.6
 30
0.0
 11
13127.2
 21
11409.6
 31
0.0
  0
LINE
  5
17A0C
330
747D
100
AcDbEntity
  8
仕様書枠
 48
50.0
100
AcDbLine
 10
16307.2
 20
10049.6
 30
0.0
 11
13127.2
 21
10049.6
 31
0.0
  0
TEXT
  5
17A0D
330
747D
100
AcDbEntity
  8
文字
 62
     7
 48
50.0
100
AcDbText
 10
15022.63965474515
 20
8380.013745883726
 30
0.0
 40
100.0
  1
F12            2.3
  7
STYLE1
100
AcDbText
  0
TEXT
  5
17A0E
330
747D
100
AcDbEntity
  8
文字
 62
     7
 48
50.0
100
AcDbText
 10
13583.11819016569
 20
8380.013745883728
 30
0.0
 40
100.0
  1
アンカープレート
  7
STYLE1
100
AcDbText
  0
TEXT
  5
17A0F
330
747D
100
AcDbEntity
  8
文字
 62
     7
 48
50.0
100
AcDbText
 10
14505.34213575793
 20
483.896712991141
 30
0.0
 40
160.0
  1
ＮＸＮ－６２Ｈ
  7
STYLE2
100
AcDbText
  0
LWPOLYLINE
  5
17A10
330
747D
100
AcDbEntity
  8
部品1
100
AcDbPolyline
 90
        4
 70
     1
 43
0.0
 10
5513.161241992779
 20
2181.014050124223
 10
5513.161241992779
 20
1941.121728578691
 10
6276.63190822122
 20
1941.121728578691
 10
6276.63190822122
 20
2181.014050124223
  0
TEXT
  5
17A11
330
747D
100
AcDbEntity
  8
部品1
100
AcDbText
 10
5603.686645730736
 20
1988.120520905699
 30
0.0
 40
135.0
  1
正面図
  7
STYLE2
100
AcDbText
  0
LINE
  5
17A14
330
747D
100
AcDbEntity
  8
仕様書枠
 48
50.0
100
AcDbLine
 10
16307.19999999999
 20
8519.600000000004
 30
0.0
 11
13127.2
 21
8519.600000000009
 31
0.0
  0
LINE
  5
17A15
330
747D
100
AcDbEntity
  8
仕様書枠
 48
50.0
100
AcDbLine
 10
16307.19999999999
 20
8689.600000000003
 30
0.0
 11
13127.2
 21
8689.600000000007
 31
0.0
  0
TEXT
  5
17A16
330
747D
100
AcDbEntity
  8
文字
 62
     7
 48
50.0
100
AcDbText
 10
13583.11819016569
 20
9400.013745883729
 30
0.0
 40
100.0
  1
壁面扉鴨居
  7
STYLE1
100
AcDbText
  0
TEXT
  5
17A17
330
747D
100
AcDbEntity
  8
文字
 62
     7
 48
50.0
100
AcDbText
 10
13583.11819016569
 20
9230.013745883733
 30
0.0
 40
100.0
  1
壁面扉敷居
  7
STYLE1
100
AcDbText
  0
TEXT
  5
17A18
330
747D
100
AcDbEntity
  8
文字
 62
     7
 48
50.0
100
AcDbText
 10
15022.63965474515
 20
9400.013745883729
 30
0.0
 40
100.0
  1
F12            0.7
  7
STYLE1
100
AcDbText
  0
TEXT
  5
17A19
330
747D
100
AcDbEntity
  8
文字
 62
     7
 48
50.0
100
AcDbText
 10
15022.63965474517
 20
9230.013745883724
 30
0.0
 40
100.0
  1
F12            1.0
  7
STYLE1
100
AcDbText
  0
TEXT
  5
17A1A
330
747D
100
AcDbEntity
  8
文字
 62
     7
 48
50.0
100
AcDbText
 10
13583.11819016569
 20
9060.013745883733
 30
0.0
 40
100.0
  1
壁面扉枠左右
  7
STYLE1
100
AcDbText
  0
TEXT
  5
17A1B
330
747D
100
AcDbEntity
  8
文字
 62
     7
 48
50.0
100
AcDbText
 10
15022.63965474517
 20
9060.013745883724
 30
0.0
 40
100.0
  1
F12            1.0
  7
STYLE1
100
AcDbText
  0
TEXT
  5
17A1C
330
747D
100
AcDbEntity
  8
文字
 62
     7
 48
50.0
100
AcDbText
 10
13248.77747366447
 20
8550.013745883729
 30
0.0
 40
100.0
  1
16
  7
STYLE1
100
AcDbText
  0
TEXT
  5
17A1D
330
747D
100
AcDbEntity
  8
文字
 62
     7
 48
50.0
100
AcDbText
 10
13248.77747366447
 20
8380.013745883728
 30
0.0
 40
100.0
  1
17
  7
STYLE1
100
AcDbText
  0
LINE
  5
17A1E
330
747D
100
AcDbEntity
  8
細線
 48
50.0
100
AcDbLine
 10
11610.15313193489
 20
4955.948390869333
 30
0.0
 11
11610.15313193489
 21
2865.948390869333
 31
0.0
  0
LINE
  5
17A1F
330
747D
100
AcDbEntity
  8
細線
 48
50.0
100
AcDbLine
 10
11595.15313193489
 20
4955.948390869333
 30
0.0
 11
11595.15313193489
 21
2865.948390869333
 31
0.0
  0
LINE
  5
17A20
330
747D
100
AcDbEntity
  8
細線
 48
50.0
100
AcDbLine
 10
11735.15313193489
 20
4955.948390869333
 30
0.0
 11
11735.15313193489
 21
2865.948390869333
 31
0.0
  0
LINE
  5
17A21
330
747D
100
AcDbEntity
  8
細線
 48
50.0
100
AcDbLine
 10
11750.15313193489
 20
4955.948390869333
 30
0.0
 11
11750.15313193489
 21
2865.948390869333
 31
0.0
  0
LINE
  5
17A22
330
747D
100
AcDbEntity
  8
細線
 48
50.0
100
AcDbLine
 10
11890.15313193489
 20
4955.948390869333
 30
0.0
 11
11890.15313193489
 21
2865.948390869333
 31
0.0
  0
LINE
  5
17A23
330
747D
100
AcDbEntity
  8
細線
 48
50.0
100
AcDbLine
 10
11875.15313193489
 20
4955.948390869333
 30
0.0
 11
11875.15313193489
 21
2865.948390869333
 31
0.0
  0
LINE
  5
17A24
330
747D
100
AcDbEntity
  8
細線
 48
50.0
100
AcDbLine
 10
11190.15313193489
 20
4955.948390869333
 30
0.0
 11
11190.15313193489
 21
2865.948390869333
 31
0.0
  0
LINE
  5
17A25
330
747D
100
AcDbEntity
  8
細線
 48
50.0
100
AcDbLine
 10
11175.15313193489
 20
4955.948390869333
 30
0.0
 11
11175.15313193489
 21
2865.948390869333
 31
0.0
  0
LINE
  5
17A26
330
747D
100
AcDbEntity
  8
細線
 48
50.0
100
AcDbLine
 10
11315.15313193489
 20
4955.948390869333
 30
0.0
 11
11315.15313193489
 21
2865.948390869333
 31
0.0
  0
LINE
  5
17A27
330
747D
100
AcDbEntity
  8
細線
 48
50.0
100
AcDbLine
 10
11330.15313193489
 20
4955.948390869333
 30
0.0
 11
11330.15313193489
 21
2865.948390869333
 31
0.0
  0
LINE
  5
17A28
330
747D
100
AcDbEntity
  8
細線
 48
50.0
100
AcDbLine
 10
11470.15313193489
 20
4955.948390869333
 30
0.0
 11
11470.15313193489
 21
2865.948390869333
 31
0.0
  0
LINE
  5
17A29
330
747D
100
AcDbEntity
  8
細線
 48
50.0
100
AcDbLine
 10
11455.15313193489
 20
4955.948390869333
 30
0.0
 11
11455.15313193489
 21
2865.948390869333
 31
0.0
  0
LINE
  5
17A2A
330
747D
100
AcDbEntity
  8
細線
 48
50.0
100
AcDbLine
 10
11035.15313193489
 20
4955.948390869333
 30
0.0
 11
11035.15313193489
 21
2865.948390869333
 31
0.0
  0
LINE
  5
17A2B
330
747D
100
AcDbEntity
  8
細線
 48
50.0
100
AcDbLine
 10
11050.15313193489
 20
4955.948390869333
 30
0.0
 11
11050.15313193489
 21
2865.948390869333
 31
0.0
  0
LINE
  5
17A2C
330
747D
100
AcDbEntity
  8
細線
 48
50.0
100
AcDbLine
 10
10910.15313193489
 20
4955.948390869333
 30
0.0
 11
10910.15313193489
 21
2865.948390869333
 31
0.0
  0
LINE
  5
17A2D
330
747D
100
AcDbEntity
  8
細線
 48
50.0
100
AcDbLine
 10
10895.15313193489
 20
4955.948390869333
 30
0.0
 11
10895.15313193489
 21
2865.948390869333
 31
0.0
  0
LINE
  5
17A2E
330
747D
100
AcDbEntity
  8
細線
 48
50.0
100
AcDbLine
 10
10755.15313193489
 20
4955.948390869333
 30
0.0
 11
10755.15313193489
 21
2865.948390869333
 31
0.0
  0
LINE
  5
17A2F
330
747D
100
AcDbEntity
  8
細線
 48
50.0
100
AcDbLine
 10
10770.15313193489
 20
4955.948390869333
 30
0.0
 11
10770.15313193489
 21
2865.948390869333
 31
0.0
  0
LINE
  5
17A30
330
747D
100
AcDbEntity
  8
細線
 48
50.0
100
AcDbLine
 10
10615.15313193489
 20
4955.948390869333
 30
0.0
 11
10615.15313193489
 21
2865.948390869333
 31
0.0
  0
LINE
  5
17A31
330
747D
100
AcDbEntity
  8
細線
 48
50.0
100
AcDbLine
 10
10630.15313193489
 20
4955.948390869333
 30
0.0
 11
10630.15313193489
 21
2865.948390869333
 31
0.0
  0
LINE
  5
17A32
330
747D
100
AcDbEntity
  8
細線
 48
50.0
100
AcDbLine
 10
10490.15313193489
 20
4955.948390869333
 30
0.0
 11
10490.15313193489
 21
2865.948390869333
 31
0.0
  0
LINE
  5
17A33
330
747D
100
AcDbEntity
  8
細線
 48
50.0
100
AcDbLine
 10
10475.15313193489
 20
4955.948390869333
 30
0.0
 11
10475.15313193489
 21
2865.948390869333
 31
0.0
  0
LINE
  5
17A34
330
747D
100
AcDbEntity
  8
細線
 48
50.0
100
AcDbLine
 10
10335.15313193489
 20
4955.948390869333
 30
0.0
 11
10335.15313193489
 21
2865.948390869333
 31
0.0
  0
LINE
  5
17A35
330
747D
100
AcDbEntity
  8
細線
 48
50.0
100
AcDbLine
 10
10350.15313193489
 20
4955.948390869333
 30
0.0
 11
10350.15313193489
 21
2865.948390869333
 31
0.0
  0
DIMENSION
  5
17A36
330
747D
100
AcDbEntity
  8
寸法
 48
50.0
100
AcDbDimension
  2
*D14
 10
12087.65313193489
 20
5589.605844448636
 30
0.0
 11
12293.70037602937
 21
5589.605844448636
 31
0.0
 70
   160
 71
     5
 42
80.0
  3
INABA_S40G
100
AcDbAlignedDimension
 13
12007.65313193489
 23
5137.759070480985
 33
0.0
 14
12087.65313193489
 24
5135.948390869334
 34
0.0
100
AcDbRotatedDimension
1001
ACAD
1000
DSTYLE
1002
{
1070
   174
1070
     0
1070
   272
1070
     1
1070
   288
1070
     0
1070
   341
1005
0
1002
}
  0
DIMENSION
  5
17A37
330
747D
100
AcDbEntity
  8
寸法
 48
50.0
100
AcDbDimension
  2
*D15
 10
10157.65313193489
 20
5806.567659827251
 30
0.0
 11
11063.45888318585
 21
5806.567659827251
 31
0.0
 70
   160
 71
     5
 42
1930.0
  3
INABA_S40G
100
AcDbAlignedDimension
 13
12087.65313193489
 23
5135.948390869334
 33
0.0
 14
10157.65313193489
 24
5190.948390869337
 34
0.0
100
AcDbRotatedDimension
1001
ACAD
1000
DSTYLE
1002
{
1070
   174
1070
     0
1070
   272
1070
     1
1070
   288
1070
     0
1070
   341
1005
0
1002
}
  0
DIMENSION
  5
17A38
330
747D
100
AcDbEntity
  8
寸法
 48
50.0
100
AcDbDimension
  2
*D16
 10
10217.65313193489
 20
5590.041560208806
 30
0.0
 11
11127.24878061136
 21
5590.041560208806
 31
0.0
 70
   160
  1
柱外寸法<>
 71
     5
 42
1790.0
  3
INABA_S40G
100
AcDbAlignedDimension
 13
12007.65313193489
 23
5137.759070480985
 33
0.0
 14
10217.65313193489
 24
5186.950008992308
 34
0.0
100
AcDbRotatedDimension
1001
ACAD
1000
DSTYLE
1002
{
1070
   174
1070
     0
1070
   272
1070
     1
1070
   288
1070
     0
1070
   341
1005
0
1002
}
  0
DIMENSION
  5
17A39
330
747D
100
AcDbEntity
  8
寸法
 48
50.0
100
AcDbDimension
  2
*D17
 10
10157.65313193489
 20
5589.605844448636
 30
0.0
 11
9848.015336659301
 21
5589.605844448636
 31
0.0
 70
   160
 71
     5
 42
60.0
  3
INABA_S40G
100
AcDbAlignedDimension
 13
10217.65313193489
 23
5186.950008992308
 33
0.0
 14
10157.65313193489
 24
5190.948390869337
 34
0.0
100
AcDbRotatedDimension
1001
ACAD
1000
DSTYLE
1002
{
1070
   174
1070
     0
1070
   272
1070
     1
1070
   288
1070
     0
1070
   341
1005
0
1002
}
  0
DIMENSION
  5
17A3A
330
747D
100
AcDbEntity
  8
寸法
 48
50.0
100
AcDbDimension
  2
*D18
 10
9597.044725166536
 20
5065.293649742655
 30
0.0
 11
9607.710200425454
 21
5436.140312984357
 31
0.0
 70
   161
 71
     5
 42
141.0
  3
INABA_S40G
100
AcDbAlignedDimension
 13
10177.04915209346
 23
5189.671139704014
 33
0.0
 14
10172.99569653684
 24
5048.7294159383
 34
0.0
1001
ACAD
1000
DSTYLE
1002
{
1070
   174
1070
     0
1070
   272
1070
     1
1070
   288
1070
     0
1070
   341
1005
0
1002
}
  0
LINE
  5
17A3B
330
747D
100
AcDbEntity
  8
部品1
 48
50.0
100
AcDbLine
 10
10962.65313193488
 20
5321.816529970613
 30
0.0
 11
11262.65313193488
 21
5305.616529970613
 31
0.0
  0
TEXT
  5
17A3C
330
747D
100
AcDbEntity
  8
部品1
 48
50.0
100
AcDbText
 10
11439.74597922275
 20
5220.199293904763
 30
0.0
 40
120.0
  1
54
 50
90.0
  7
STYLE1
100
AcDbText
  0
LINE
  5
17A3D
330
747D
100
AcDbEntity
  8
部品1
 48
50.0
100
AcDbLine
 10
11262.65313193488
 20
5321.816529970613
 30
0.0
 11
11262.65313193488
 21
5305.616529970613
 31
0.0
  0
LINE
  5
17A3E
330
747D
100
AcDbEntity
  8
部品1
 48
50.0
100
AcDbLine
 10
10962.65313193488
 20
5321.816529970613
 30
0.0
 11
11262.65313193488
 21
5321.816529970613
 31
0.0
  0
ARC
  5
17A3F
330
747D
100
AcDbEntity
  8
部品1
100
AcDbCircle
 10
12073.28066774882
 20
5029.972148135126
 30
0.0
 40
0.7
100
AcDbArc
 50
275.0921697642102
 51
354.1866997667087
  0
ARC
  5
17A40
330
747D
100
AcDbEntity
  8
部品1
100
AcDbCircle
 10
12084.14001349814
 20
5107.015402953049
 30
0.0
 40
0.7
100
AcDbArc
 50
275.0921697642102
 51
354.1866997665532
  0
ARC
  5
17A41
330
747D
100
AcDbEntity
  8
部品1
100
AcDbCircle
 10
12084.46841874075
 20
5103.330006095958
 30
0.0
 40
3.0
100
AcDbArc
 50
95.09216976442013
 51
174.1866997665532
  0
ARC
  5
17A42
330
747D
100
AcDbEntity
  8
部品1
100
AcDbCircle
 10
12073.60907299142
 20
5026.286751278036
 30
0.0
 40
3.0
100
AcDbArc
 50
95.0921697642102
 51
174.1866997665532
  0
ARC
  5
17A43
330
747D
100
AcDbEntity
  8
部品1
 48
50.0
100
AcDbCircle
 10
12062.58093771632
 20
5016.696006674153
 30
0.0
 40
7.0
100
AcDbArc
 50
267.8377559871574
 51
354.1866997665532
  0
ARC
  5
17A44
330
747D
100
AcDbEntity
  8
部品1
 48
50.0
100
AcDbCircle
 10
12079.90303418083
 20
5127.598553816326
 30
0.0
 40
7.0
100
AcDbArc
 50
354.1866997665532
 51
87.03587545303911
  0
LINE
  5
17A45
330
747D
100
AcDbEntity
  8
部品1
 48
50.0
100
AcDbLine
 10
12070.62450132081
 20
5026.590612994938
 30
0.0
 11
12069.54493828107
 21
5015.986996001378
 31
0.0
  0
LINE
  5
17A46
330
747D
100
AcDbEntity
  8
部品1
 48
50.0
100
AcDbLine
 10
12081.48384707013
 20
5103.633867812862
 30
0.0
 11
12073.9770678053
 21
5029.90124706785
 31
0.0
  0
LINE
  5
17A47
330
747D
100
AcDbEntity
  8
部品1
 48
50.0
100
AcDbLine
 10
12086.86703474559
 20
5126.889543143551
 30
0.0
 11
12084.83641355462
 21
5106.94450188577
 31
0.0
  0
ARC
  5
17A48
330
747D
100
AcDbEntity
  8
部品1
100
AcDbCircle
 10
10163.69022380625
 20
5069.762549828237
 30
0.0
 40
0.7
100
AcDbArc
 50
181.0932240292114
 51
260.1877540314845
  0
ARC
  5
17A49
330
747D
100
AcDbEntity
  8
部品1
100
AcDbCircle
 10
10158.91755020864
 20
5162.628328028356
 30
0.0
 40
0.7
100
AcDbArc
 50
181.0932240292114
 51
260.1877540314845
  0
ARC
  5
17A4A
330
747D
100
AcDbEntity
  8
部品1
100
AcDbCircle
 10
10158.28699580562
 20
5158.982453490959
 30
0.0
 40
3.0
100
AcDbArc
 50
1.093224029263535
 51
80.18775403148447
  0
ARC
  5
17A4B
330
747D
100
AcDbEntity
  8
部品1
100
AcDbCircle
 10
10163.05966940322
 20
5066.116675290839
 30
0.0
 40
3.0
100
AcDbArc
 50
1.093224029263535
 51
80.18775403148447
  0
ARC
  5
17A4C
330
747D
100
AcDbEntity
  8
部品1
 48
50.0
100
AcDbCircle
 10
10173.25980177843
 20
5055.724431908359
 30
0.0
 40
7.0
100
AcDbArc
 50
181.0932240292635
 51
267.8377559871574
  0
ARC
  5
17A4D
330
747D
100
AcDbEntity
  8
部品1
 48
50.0
100
AcDbCircle
 10
10164.83614367633
 20
5182.675491441454
 30
0.0
 40
7.0
100
AcDbArc
 50
87.03587545303911
 51
181.0932240292635
  0
LINE
  5
17A4E
330
747D
100
AcDbEntity
  8
部品1
 48
50.0
100
AcDbLine
 10
10166.05912332966
 20
5066.173912894022
 30
0.0
 11
10166.26107595009
 21
5055.590877500929
 31
0.0
  0
LINE
  5
17A4F
330
747D
100
AcDbEntity
  8
細線
 48
50.0
100
AcDbLine
 10
10163.45303027299
 20
5069.103961012832
 30
0.0
 11
12073.45669470362
 21
5029.294642038338
 31
0.0
  0
LINE
  5
17A50
330
747D
100
AcDbEntity
  8
細線
 48
50.0
100
AcDbLine
 10
10158.6925550357
 20
5161.965472710694
 30
0.0
 11
12084.32853978087
 21
5106.341268069867
 31
0.0
  0
LINE
  5
17A51
330
747D
100
AcDbEntity
  8
部品1
 48
50.0
100
AcDbLine
 10
10161.28644973205
 20
5159.039691094142
 30
0.0
 11
10162.99035122341
 21
5069.749194387495
 31
0.0
  0
LINE
  5
17A52
330
747D
100
AcDbEntity
  8
部品1
 48
50.0
100
AcDbLine
 10
10157.83741784799
 20
5182.541937034026
 30
0.0
 11
10158.2176776258
 21
5162.614972587614
 31
0.0
  0
LINE
  5
17A53
330
747D
100
AcDbEntity
  8
細線
 48
50.0
100
AcDbLine
 10
12054.65313193489
 20
5135.91536990463
 30
0.0
 11
12049.90544904689
 21
5010.169597413884
 31
0.0
  0
LINE
  5
17A54
330
747D
100
AcDbEntity
  8
細線
 48
50.0
100
AcDbLine
 10
10190.65313193489
 20
5188.348067244739
 30
0.0
 11
10185.36403037938
 21
5048.262434617384
 31
0.0
  0
LINE
  5
17A55
330
747D
100
AcDbEntity
  8
部品1
100
AcDbLine
 10
10172.99569653684
 20
5048.7294159383
 30
0.0
 11
12062.31683247473
 21
5009.700990704095
 31
0.0
  0
LINE
  5
17A56
330
747D
100
AcDbEntity
  8
部品1
100
AcDbLine
 10
10165.19811829185
 20
5189.6661262036
 30
0.0
 11
12080.26500879635
 21
5134.589188578472
 31
0.0
  0
TEXT
  5
17A57
330
747D
100
AcDbEntity
  8
部品1
 48
50.0
100
AcDbText
 10
10950.92096715861
 20
5357.700552123047
 30
0.0
 40
120.0
  1
1000
  7
STYLE1
100
AcDbText
  0
DIMENSION
  5
17A58
330
747D
100
AcDbEntity
  8
寸法
100
AcDbDimension
  2
*D19
 10
9073.903002751629
 20
5190.948390869337
 30
0.0
 11
8973.891191728005
 21
4003.448390869336
 31
0.0
 70
    32
 71
     5
 42
2375.000000000005
  3
INABA_S40G
100
AcDbAlignedDimension
 13
10140.65313193488
 23
2815.948390869333
 33
0.0
 14
10157.65313193489
 24
5190.948390869337
 34
0.0
 50
90.0
100
AcDbRotatedDimension
1001
ACAD
1000
DSTYLE
1002
{
1070
   174
1070
     0
1070
   272
1070
     1
1070
   288
1070
     0
1070
   341
1005
0
1002
}
  0
LINE
  5
17A59
330
747D
100
AcDbEntity
  8
部品1
100
AcDbLine
 10
10140.65313193489
 20
4941.635495777735
 30
0.0
 11
10217.65313193489
 21
4955.948390869333
 31
0.0
  0
LINE
  5
17A5A
330
747D
100
AcDbEntity
  8
部品1
100
AcDbLine
 10
5277.39657510693
 20
9779.497424546018
 30
0.0
 11
6512.396575106996
 21
9779.497424546018
 31
0.0
  0
LINE
  5
17A5B
330
747D
100
AcDbEntity
  8
部品1
 48
50.0
100
AcDbLine
 10
5054.896575106966
 20
8045.497424545855
 30
0.0
 11
7154.896575106966
 21
8045.49742454586
 31
0.0
  0
LINE
  5
17A5C
330
747D
100
AcDbEntity
  8
部品1
 48
50.0
100
AcDbLine
 10
4214.896575106966
 20
8017.497424545858
 30
0.0
 11
5054.896575106966
 21
8017.497424545858
 31
0.0
  0
DIMENSION
  5
17A5D
330
747D
100
AcDbEntity
  8
寸法
100
AcDbDimension
  2
*D20
 10
6453.16090210852
 20
9113.89098491022
 30
0.0
 11
6081.244808320626
 21
9113.89098491022
 31
0.0
 70
   160
 71
     5
 42
1231.000000000069
  3
INABA_S40G
100
AcDbAlignedDimension
 13
5279.39657510693
 23
9327.497424545949
 33
0.0
 14
6510.396575106999
 24
9327.497424545942
 34
0.0
100
AcDbRotatedDimension
1001
ACAD
1000
DSTYLE
1002
{
1002
}
  0
LINE
  5
17A5E
330
747D
100
AcDbEntity
  8
部品1
100
AcDbLine
 10
5279.39657510693
 20
9327.497424545949
 30
0.0
 11
6510.396575106998
 21
9327.497424546008
 31
0.0
  0
LINE
  5
17A5F
330
747D
100
AcDbEntity
  8
部品1
100
AcDbLine
 10
5279.39657510693
 20
9777.497424545948
 30
0.0
 11
6510.396575106999
 21
9777.497424546009
 31
0.0
  0
LINE
  5
17A60
330
747D
100
AcDbEntity
  8
細線
 48
50.0
100
AcDbLine
 10
5251.39657510693
 20
9777.497424545948
 30
0.0
 11
4188.396575106999
 21
9327.497424545901
 31
0.0
  0
LINE
  5
17A61
330
747D
100
AcDbEntity
  8
細線
 48
50.0
100
AcDbLine
 10
5251.39657510693
 20
9327.497424545953
 30
0.0
 11
4188.396575106997
 21
9777.497424545902
 31
0.0
  0
LINE
  5
17A62
330
747D
100
AcDbEntity
  8
部品1
100
AcDbLine
 10
5299.89657510693
 20
9797.497424546003
 30
0.0
 11
5299.89657510693
 21
9779.497424546004
 31
0.0
  0
LINE
  5
17A63
330
747D
100
AcDbEntity
  8
部品1
100
AcDbLine
 10
5299.89657510693
 20
9797.497424546003
 30
0.0
 11
5293.896575106931
 21
9797.497424546003
 31
0.0
  0
LINE
  5
17A64
330
747D
100
AcDbEntity
  8
部品1
100
AcDbLine
 10
5277.39657510693
 20
9771.497424546
 30
0.0
 11
5252.39657510693
 21
9771.497424546005
 31
0.0
  0
LINE
  5
17A65
330
747D
100
AcDbEntity
  8
部品1
100
AcDbLine
 10
5229.896575106931
 20
9797.497424546003
 30
0.0
 11
5229.896575106931
 21
9779.497424546004
 31
0.0
  0
LINE
  5
17A66
330
747D
100
AcDbEntity
  8
部品1
100
AcDbLine
 10
5235.89657510693
 20
9797.497424546003
 30
0.0
 11
5229.896575106931
 21
9797.497424546003
 31
0.0
  0
LINE
  5
17A67
330
747D
100
AcDbEntity
  8
部品1
100
AcDbLine
 10
5277.39657510693
 20
9327.497424546008
 30
0.0
 11
5252.39657510693
 21
9327.497424546008
 31
0.0
  0
LINE
  5
17A68
330
747D
100
AcDbEntity
  8
部品1
 48
50.0
100
AcDbLine
 10
5279.39657510693
 20
9777.497424546005
 30
0.0
 11
5279.39657510693
 21
9327.497424546008
 31
0.0
  0
LINE
  5
17A69
330
747D
100
AcDbEntity
  8
部品1
 48
50.0
100
AcDbLine
 10
5251.39657510693
 20
9777.497424546
 30
0.0
 11
5251.39657510693
 21
9327.497424546008
 31
0.0
  0
LINE
  5
17A6A
330
747D
100
AcDbEntity
  8
部品1
 48
50.0
100
AcDbLine
 10
5277.39657510693
 20
9779.497424546013
 30
0.0
 11
5277.39657510693
 21
9327.497424546008
 31
0.0
  0
LINE
  5
17A6B
330
747D
100
AcDbEntity
  8
部品1
 48
50.0
100
AcDbLine
 10
5252.39657510693
 20
9779.49742454601
 30
0.0
 11
5252.39657510693
 21
9327.497424546008
 31
0.0
  0
LINE
  5
17A6C
330
747D
100
AcDbEntity
  8
部品1
100
AcDbLine
 10
7154.896575106999
 20
8017.497424545975
 30
0.0
 11
7154.896575106999
 21
8045.497424545992
 31
0.0
  0
LINE
  5
17A6D
330
747D
100
AcDbEntity
  8
部品1
100
AcDbLine
 10
5054.896575106966
 20
8017.497424545991
 30
0.0
 11
5054.896575106966
 21
8045.497424545992
 31
0.0
  0
LINE
  5
17A6E
330
747D
100
AcDbEntity
  8
部品1
100
AcDbLine
 10
4634.896575106966
 20
8017.497424545991
 30
0.0
 11
4634.896575106966
 21
8045.497424545992
 31
0.0
  0
LINE
  5
17A6F
330
747D
100
AcDbEntity
  8
部品1
100
AcDbLine
 10
7154.896575106963
 20
9807.497424545871
 30
0.0
 11
7154.896575106966
 21
9779.497424545867
 31
0.0
  0
LINE
  5
17A70
330
747D
100
AcDbEntity
  8
部品1
100
AcDbLine
 10
6314.896575106963
 20
9807.497424545871
 30
0.0
 11
6314.896575106967
 21
9779.497424545867
 31
0.0
  0
LINE
  5
17A71
330
747D
100
AcDbEntity
  8
部品1
100
AcDbLine
 10
6734.896575106962
 20
9807.497424545871
 30
0.0
 11
6734.896575106967
 21
9779.497424545867
 31
0.0
  0
LINE
  5
17A72
330
747D
100
AcDbEntity
  8
部品1
100
AcDbLine
 10
5894.896575106963
 20
9807.497424545871
 30
0.0
 11
5894.896575106966
 21
9779.497424545867
 31
0.0
  0
LINE
  5
17A73
330
747D
100
AcDbEntity
  8
部品1
100
AcDbLine
 10
5474.896575106963
 20
9807.497424545871
 30
0.0
 11
5474.896575106966
 21
9779.497424545867
 31
0.0
  0
LINE
  5
17A74
330
747D
100
AcDbEntity
  8
部品1
100
AcDbLine
 10
5054.896575106963
 20
9807.497424545871
 30
0.0
 11
5054.896575106966
 21
9779.497424545867
 31
0.0
  0
LINE
  5
17A75
330
747D
100
AcDbEntity
  8
部品1
100
AcDbLine
 10
4634.896575106963
 20
9807.497424545871
 30
0.0
 11
4634.896575106966
 21
9779.497424545867
 31
0.0
  0
LINE
  5
17A76
330
747D
100
AcDbEntity
  8
部品1
100
AcDbLine
 10
4214.896575106966
 20
8017.497424545991
 30
0.0
 11
4214.896575106966
 21
8045.497424545992
 31
0.0
  0
LINE
  5
17A77
330
747D
100
AcDbEntity
  8
部品1
100
AcDbLine
 10
4187.896575106973
 20
8045.497424545951
 30
0.0
 11
7601.896575107
 21
8045.497424545992
 31
0.0
  0
LINE
  5
17A78
330
747D
100
AcDbEntity
  8
部品1
100
AcDbLine
 10
7574.896575106999
 20
8017.497424545991
 30
0.0
 11
7574.896575106999
 21
8045.497424545992
 31
0.0
  0
LINE
  5
17A79
330
747D
100
AcDbEntity
  8
部品1
100
AcDbLine
 10
7601.896575107
 20
8072.497424545984
 30
0.0
 11
7629.896575106998
 21
8072.497424545984
 31
0.0
  0
LINE
  5
17A7A
330
747D
100
AcDbEntity
  8
部品1
100
AcDbLine
 10
4634.896575106991
 20
4955.948390869333
 30
0.0
 11
4634.896575106991
 21
2865.948390869333
 31
0.0
  0
LINE
  5
17A7F
330
747D
100
AcDbEntity
  8
部品1
100
AcDbLine
 10
7601.896575107
 20
8492.497424546
 30
0.0
 11
7629.896575106998
 21
8492.497424546
 31
0.0
  0
LINE
  5
17A80
330
747D
100
AcDbEntity
  8
部品1
100
AcDbLine
 10
4187.896575106973
 20
8492.497424545872
 30
0.0
 11
4159.896575106973
 21
8492.497424545872
 31
0.0
  0
LINE
  5
17A81
330
747D
100
AcDbEntity
  8
部品1
100
AcDbLine
 10
7573.396575106983
 20
8492.497424545971
 30
0.0
 11
4216.396575106982
 21
8492.497424545872
 31
0.0
  0
LINE
  5
17A82
330
747D
100
AcDbEntity
  8
部品1
100
AcDbLine
 10
7573.396575106983
 20
8912.497424545973
 30
0.0
 11
4216.396575106982
 21
8912.497424545874
 31
0.0
  0
LINE
  5
17A83
330
747D
100
AcDbEntity
  8
部品1
100
AcDbLine
 10
4187.896575106973
 20
8912.497424545874
 30
0.0
 11
4159.896575106973
 21
8912.497424545874
 31
0.0
  0
LINE
  5
17A84
330
747D
100
AcDbEntity
  8
部品1
100
AcDbLine
 10
7601.896575107
 20
8912.497424546
 30
0.0
 11
7629.896575106998
 21
8912.497424546
 31
0.0
  0
LINE
  5
17A85
330
747D
100
AcDbEntity
  8
部品1
 48
50.0
100
AcDbLine
 10
5894.896575106994
 20
9327.497424545979
 30
0.0
 11
5894.896575107026
 21
8073.997424545886
 31
0.0
  0
LINE
  5
17A86
330
747D
100
AcDbEntity
  8
部品1
 48
50.0
100
AcDbLine
 10
5994.896575106992
 20
2815.948390869333
 30
0.0
 11
5994.896575106992
 21
2715.948390869333
 31
0.0
  0
LINE
  5
17A87
330
747D
100
AcDbEntity
  8
部品1
 48
50.0
100
AcDbLine
 10
5794.896575106992
 20
2815.948390869333
 30
0.0
 11
5794.896575106992
 21
2715.948390869333
 31
0.0
  0
LINE
  5
17A88
330
747D
100
AcDbEntity
  8
破線
 48
10.0
100
AcDbLine
 10
6702.396575106977
 20
8097.497424545915
 30
0.0
 11
5919.896575106975
 21
8097.497424545897
 31
0.0
  0
LINE
  5
17A89
330
747D
100
AcDbEntity
  8
破線
 48
10.0
100
AcDbLine
 10
6752.396575106974
 20
8073.997424545902
 30
0.0
 11
6752.396575106974
 21
9327.497424546008
 31
0.0
  0
LINE
  5
17A8A
330
747D
100
AcDbEntity
  8
破線
 48
10.0
100
AcDbLine
 10
6702.396575106977
 20
8073.997424545899
 30
0.0
 11
6702.396575106972
 21
9327.497424546008
 31
0.0
  0
LINE
  5
17A8B
330
747D
100
AcDbEntity
  8
破線
 48
10.0
100
AcDbLine
 10
5087.396575106974
 20
8073.997424545902
 30
0.0
 11
5087.396575106974
 21
9327.497424546008
 31
0.0
  0
LINE
  5
17A8C
330
747D
100
AcDbEntity
  8
破線
 48
10.0
100
AcDbLine
 10
5037.396575106978
 20
8073.997424545899
 30
0.0
 11
5037.396575106974
 21
9327.497424546008
 31
0.0
  0
DIMENSION
  5
17A8D
330
747D
100
AcDbEntity
  8
寸法
100
AcDbDimension
  2
*D21
 10
5194.160902108449
 20
9113.89098491022
 30
0.0
 11
4658.986452655305
 21
9113.89098491022
 31
0.0
 70
   160
 71
     5
 42
1062.999999999931
  3
INABA_S40G
100
AcDbAlignedDimension
 13
4188.396575106999
 23
9327.497424545898
 33
0.0
 14
5251.39657510693
 24
9327.497424545953
 34
0.0
100
AcDbRotatedDimension
1001
ACAD
1000
DSTYLE
1002
{
1002
}
  0
LINE
  5
17A8E
330
747D
100
AcDbEntity
  8
破線
 48
10.0
100
AcDbLine
 10
5037.396575106978
 20
8097.497424545862
 30
0.0
 11
4239.896575106985
 21
8097.497424545869
 31
0.0
  0
LINE
  5
17A8F
330
747D
100
AcDbEntity
  8
部品1
 48
50.0
100
AcDbLine
 10
4962.896575106992
 20
2815.948390869333
 30
0.0
 11
4962.896575106992
 21
2715.948390869333
 31
0.0
  0
LINE
  5
17A90
330
747D
100
AcDbEntity
  8
部品1
 48
50.0
100
AcDbLine
 10
5162.896575106993
 20
2815.948390869333
 30
0.0
 11
5162.896575106993
 21
2715.948390869333
 31
0.0
  0
LINE
  5
17A91
330
747D
100
AcDbEntity
  8
部品1
100
AcDbLine
 10
7574.896575106999
 20
9807.497424545999
 30
0.0
 11
7574.896575106999
 21
9779.497424545997
 31
0.0
  0
LINE
  5
17A92
330
747D
100
AcDbEntity
  8
部品1
100
AcDbLine
 10
7574.896575106999
 20
9807.497424546021
 30
0.0
 11
7574.896575106999
 21
9779.497424546018
 31
0.0
  0
LINE
  5
17A93
330
747D
100
AcDbEntity
  8
部品1
100
AcDbLine
 10
7601.896575107
 20
9752.497424546
 30
0.0
 11
7629.896575106998
 21
9752.497424546
 31
0.0
  0
LINE
  5
17A94
330
747D
100
AcDbEntity
  8
部品1
100
AcDbLine
 10
7601.896575107
 20
9332.497424546
 30
0.0
 11
7629.896575106998
 21
9332.497424546
 31
0.0
  0
LINE
  5
17A95
330
747D
100
AcDbEntity
  8
部品1
100
AcDbLine
 10
7601.396575106999
 20
9777.497424545996
 30
0.0
 11
7601.396575106999
 21
9327.497424546001
 31
0.0
  0
LINE
  5
17A96
330
747D
100
AcDbEntity
  8
部品1
100
AcDbLine
 10
7629.896575106975
 20
8072.497424545984
 30
0.0
 11
7629.896575106974
 21
8017.497424545991
 31
0.0
  0
LINE
  5
17A97
330
747D
100
AcDbEntity
  8
部品1
 48
50.0
100
AcDbLine
 10
7573.396575106999
 20
8073.997424545989
 30
0.0
 11
7601.896575106997
 21
8045.497424545992
 31
0.0
  0
LINE
  5
17A98
330
747D
100
AcDbEntity
  8
部品1
100
AcDbLine
 10
7629.896575106974
 20
8017.497424545991
 30
0.0
 11
7578.896575106973
 21
8017.497424545991
 31
0.0
  0
LINE
  5
17A99
330
747D
100
AcDbEntity
  8
部品1
100
AcDbLine
 10
7601.896575106977
 20
8072.497424545984
 30
0.0
 11
7629.896575106974
 21
8072.497424545984
 31
0.0
  0
LINE
  5
17A9A
330
747D
100
AcDbEntity
  8
部品1
100
AcDbLine
 10
7629.896575106998
 20
9807.497424545999
 30
0.0
 11
7629.896575106974
 21
8017.497424545991
 31
0.0
  0
DIMENSION
  5
17A9B
330
747D
100
AcDbEntity
  8
寸法
100
AcDbDimension
  2
*D22
 10
8277.322920841411
 20
8072.497424545984
 30
0.0
 11
8277.322920841411
 21
8912.497424545993
 31
0.0
 70
   160
  1
4X420=<>
 71
     5
 42
1680.000000000014
  3
INABA_S40G
100
AcDbAlignedDimension
 13
7629.896575106998
 23
9752.497424546
 33
0.0
 14
7629.896575106974
 24
8072.497424545984
 34
0.0
 50
90.0
100
AcDbRotatedDimension
1001
ACAD
1000
DSTYLE
1002
{
1002
}
  0
LINE
  5
17A9C
330
747D
100
AcDbEntity
  8
部品1
100
AcDbLine
 10
7601.896575107
 20
9779.497424545997
 30
0.0
 11
7601.896575106977
 21
8045.497424545992
 31
0.0
  0
DIMENSION
  5
17A9D
330
747D
100
AcDbEntity
  8
寸法
100
AcDbDimension
  2
*D23
 10
7956.754300969024
 20
9232.27960887711
 30
0.0
 11
7856.754300969022
 21
9457.27960887711
 31
0.0
 70
    32
 71
     5
 42
449.9999999999963
  3
INABA_S40G
100
AcDbAlignedDimension
 13
7601.396575106999
 23
9777.497424545996
 33
0.0
 14
7601.396575106999
 24
9327.497424546001
 34
0.0
 50
90.0
100
AcDbRotatedDimension
1001
ACAD
1000
DSTYLE
1002
{
1002
}
  0
LINE
  5
17A9E
330
747D
100
AcDbEntity
  8
部品1
100
AcDbLine
 10
7573.396575106992
 20
9327.497424546001
 30
0.0
 11
7573.396575106999
 21
8073.997424545989
 31
0.0
  0
LINE
  5
17A9F
330
747D
100
AcDbEntity
  8
破線
 48
10.0
100
AcDbLine
 10
7549.896575106991
 20
9327.497424546001
 30
0.0
 11
7549.896575107002
 21
8097.497424545982
 31
0.0
  0
LINE
  5
17AA0
330
747D
100
AcDbEntity
  8
部品1
100
AcDbLine
 10
6512.396575106999
 20
9771.497424546
 30
0.0
 11
6537.396575106999
 21
9771.497424546005
 31
0.0
  0
LINE
  5
17AA1
330
747D
100
AcDbEntity
  8
部品1
100
AcDbLine
 10
6553.896575107
 20
9797.497424546003
 30
0.0
 11
6559.896575107
 21
9797.497424546003
 31
0.0
  0
LINE
  5
17AA2
330
747D
100
AcDbEntity
  8
部品1
100
AcDbLine
 10
6559.896575107
 20
9797.497424546003
 30
0.0
 11
6559.896575107
 21
9779.497424546004
 31
0.0
  0
LINE
  5
17AA3
330
747D
100
AcDbEntity
  8
部品1
100
AcDbLine
 10
6489.896575107
 20
9797.497424546003
 30
0.0
 11
6495.896575107
 21
9797.497424546003
 31
0.0
  0
LINE
  5
17AA4
330
747D
100
AcDbEntity
  8
部品1
100
AcDbLine
 10
6489.896575107
 20
9797.497424546003
 30
0.0
 11
6489.896575107
 21
9779.497424546004
 31
0.0
  0
LINE
  5
17AA5
330
747D
100
AcDbEntity
  8
部品1
100
AcDbLine
 10
6512.396575106999
 20
9327.497424546008
 30
0.0
 11
6537.396575106999
 21
9327.497424546008
 31
0.0
  0
LINE
  5
17AA6
330
747D
100
AcDbEntity
  8
部品1
 48
50.0
100
AcDbLine
 10
6537.396575106999
 20
9779.49742454601
 30
0.0
 11
6537.396575106999
 21
9327.497424546008
 31
0.0
  0
LINE
  5
17AA7
330
747D
100
AcDbEntity
  8
部品1
 48
50.0
100
AcDbLine
 10
6512.396575106997
 20
9779.497424546013
 30
0.0
 11
6512.396575106999
 21
9327.497424546008
 31
0.0
  0
LINE
  5
17AA8
330
747D
100
AcDbEntity
  8
部品1
 48
50.0
100
AcDbLine
 10
6538.396575106999
 20
9777.497424546
 30
0.0
 11
6538.396575106999
 21
9327.497424546008
 31
0.0
  0
LINE
  5
17AA9
330
747D
100
AcDbEntity
  8
部品1
 48
50.0
100
AcDbLine
 10
6510.396575106999
 20
9777.497424546005
 30
0.0
 11
6510.396575106999
 21
9327.497424546008
 31
0.0
  0
LINE
  5
17AAA
330
747D
100
AcDbEntity
  8
破線
 48
10.0
100
AcDbLine
 10
5919.896575106974
 20
8073.997424545902
 30
0.0
 11
5919.896575106974
 21
9327.497424545979
 31
0.0
  0
LINE
  5
17AAB
330
747D
100
AcDbEntity
  8
破線
 48
10.0
100
AcDbLine
 10
5869.896575106977
 20
8073.997424545899
 30
0.0
 11
5869.896575106974
 21
9327.497424545979
 31
0.0
  0
LINE
  5
17AAC
330
747D
100
AcDbEntity
  8
部品1
100
AcDbLine
 10
6537.396575106999
 20
9779.497424546017
 30
0.0
 11
7601.896575107
 21
9779.497424545997
 31
0.0
  0
LINE
  5
17AAD
330
747D
100
AcDbEntity
  8
細線
 48
50.0
100
AcDbLine
 10
7601.396575106999
 20
9327.497424546001
 30
0.0
 11
6538.396575106999
 21
9777.497424546
 31
0.0
  0
LINE
  5
17AAE
330
747D
100
AcDbEntity
  8
部品1
100
AcDbLine
 10
6538.396575106998
 20
9327.497424546008
 30
0.0
 11
7601.396575106999
 21
9327.497424546001
 31
0.0
  0
LINE
  5
17AAF
330
747D
100
AcDbEntity
  8
部品1
100
AcDbLine
 10
6538.396575106999
 20
9777.497424546005
 30
0.0
 11
7601.396575106999
 21
9777.497424545996
 31
0.0
  0
LINE
  5
17AB0
330
747D
100
AcDbEntity
  8
細線
 48
50.0
100
AcDbLine
 10
7601.396575106999
 20
9777.497424545996
 30
0.0
 11
6538.396575106998
 21
9327.497424546008
 31
0.0
  0
DIMENSION
  5
17AB1
330
747D
100
AcDbEntity
  8
寸法
100
AcDbDimension
  2
*D24
 10
7544.160902108544
 20
9113.89098491033
 30
0.0
 11
7061.28653022935
 21
9113.89098491033
 31
0.0
 70
   160
 71
     5
 42
1063.000000000011
  3
INABA_S40G
100
AcDbAlignedDimension
 13
6538.396575106999
 23
9327.497424546008
 33
0.0
 14
7601.396575107009
 24
9327.497424546001
 34
0.0
100
AcDbRotatedDimension
1001
ACAD
1000
DSTYLE
1002
{
1002
}
  0
LINE
  5
17AB2
330
747D
100
AcDbEntity
  8
破線
 48
10.0
100
AcDbLine
 10
7549.896575106998
 20
8097.497424545988
 30
0.0
 11
6752.396575106974
 21
8097.497424545917
 31
0.0
  0
DIMENSION
  5
17AB3
330
747D
100
AcDbEntity
  8
寸法
100
AcDbDimension
  2
*D25
 10
8277.322920841385
 20
8017.497424545991
 30
0.0
 11
8277.322920841383
 21
7709.012143171749
 31
0.0
 70
   160
 71
     5
 42
54.99999999999635
  3
INABA_S40G
100
AcDbAlignedDimension
 13
7629.896575106974
 23
8072.497424545984
 33
0.0
 14
7629.896575106974
 24
8017.497424545991
 34
0.0
 50
90.0
100
AcDbRotatedDimension
1001
ACAD
1000
DSTYLE
1002
{
1002
}
  0
LINE
  5
17AB4
330
747D
100
AcDbEntity
  8
部品1
100
AcDbLine
 10
4214.896575106962
 20
9807.497424545871
 30
0.0
 11
4214.896575106966
 21
9779.497424545867
 31
0.0
  0
LINE
  5
17AB5
330
747D
100
AcDbEntity
  8
部品1
100
AcDbLine
 10
4214.896575106999
 20
9807.497424545902
 30
0.0
 11
4214.896575106999
 21
9779.497424545901
 31
0.0
  0
LINE
  5
17AB6
330
747D
100
AcDbEntity
  8
部品1
100
AcDbLine
 10
4187.896575106966
 20
9752.497424545872
 30
0.0
 11
4159.896575106966
 21
9752.497424545872
 31
0.0
  0
LINE
  5
17AB7
330
747D
100
AcDbEntity
  8
部品1
100
AcDbLine
 10
4187.896575106973
 20
9332.497424545875
 30
0.0
 11
4159.896575106973
 21
9332.497424545875
 31
0.0
  0
LINE
  5
17AB8
330
747D
100
AcDbEntity
  8
部品1
 48
50.0
100
AcDbLine
 10
4188.396575106997
 20
9777.4974245459
 30
0.0
 11
4188.396575106999
 21
9327.497424545898
 31
0.0
  0
LINE
  5
17AB9
330
747D
100
AcDbEntity
  8
部品1
 48
50.0
100
AcDbLine
 10
4216.396575106988
 20
8073.997424545964
 30
0.0
 11
4187.896575106988
 21
8045.497424545967
 31
0.0
  0
LINE
  5
17ABA
330
747D
100
AcDbEntity
  8
部品1
100
AcDbLine
 10
4214.896575106966
 20
8017.497424545858
 30
0.0
 11
4159.896575106992
 21
8017.497424545858
 31
0.0
  0
LINE
  5
17ABB
330
747D
100
AcDbEntity
  8
部品1
100
AcDbLine
 10
4187.896575106973
 20
8072.49742454582
 30
0.0
 11
4159.89657510699
 21
8072.49742454582
 31
0.0
  0
LINE
  5
17ABC
330
747D
100
AcDbEntity
  8
部品1
100
AcDbLine
 10
4187.896575106973
 20
8072.497424545858
 30
0.0
 11
4159.89657510699
 21
8072.497424545858
 31
0.0
  0
LINE
  5
17ABD
330
747D
100
AcDbEntity
  8
部品1
100
AcDbLine
 10
4187.896575106988
 20
8072.49742454587
 30
0.0
 11
4159.89657510699
 21
8072.49742454587
 31
0.0
  0
LINE
  5
17ABE
330
747D
100
AcDbEntity
  8
部品1
100
AcDbLine
 10
4159.89657510699
 20
8072.49742454582
 30
0.0
 11
4159.896575106992
 21
8017.497424545826
 31
0.0
  0
LINE
  5
17ABF
330
747D
100
AcDbEntity
  8
部品1
100
AcDbLine
 10
4159.896575106962
 20
9807.497424545871
 30
0.0
 11
4159.896575106992
 21
8017.497424545858
 31
0.0
  0
LINE
  5
17AC0
330
747D
100
AcDbEntity
  8
部品1
100
AcDbLine
 10
4187.896575106973
 20
8045.497424545949
 30
0.0
 11
4187.896575106999
 21
9779.497424545901
 31
0.0
  0
LINE
  5
17AC1
330
747D
100
AcDbEntity
  8
部品1
100
AcDbLine
 10
4216.396575106975
 20
9327.497424546001
 30
0.0
 11
4216.396575106988
 21
8073.997424545963
 31
0.0
  0
LINE
  5
17AC2
330
747D
100
AcDbEntity
  8
破線
 48
10.0
100
AcDbLine
 10
4239.896575106974
 20
9327.497424546001
 30
0.0
 11
4239.896575106988
 21
8097.497424545869
 31
0.0
  0
LINE
  5
17AC4
330
747D
100
AcDbEntity
  8
部品1
100
AcDbLine
 10
4187.896575106999
 20
9779.497424546017
 30
0.0
 11
5252.39657510693
 21
9779.497424546018
 31
0.0
  0
LINE
  5
17AC5
330
747D
100
AcDbEntity
  8
部品1
100
AcDbLine
 10
7629.896575106974
 20
8017.497424545991
 30
0.0
 11
7154.896575106999
 21
8017.497424545975
 31
0.0
  0
LINE
  5
17AC6
330
747D
100
AcDbEntity
  8
部品1
100
AcDbLine
 10
4159.896575106999
 20
9807.497424545902
 30
0.0
 11
7629.896575106998
 21
9807.497424545999
 31
0.0
  0
LINE
  5
17AC7
330
747D
100
AcDbEntity
  8
部品1
100
AcDbLine
 10
4188.396575106999
 20
9327.497424545901
 30
0.0
 11
5251.39657510693
 21
9327.497424545953
 31
0.0
  0
LINE
  5
17AC8
330
747D
100
AcDbEntity
  8
細線
 48
50.0
100
AcDbLine
 10
6510.396575106999
 20
9777.497424546005
 30
0.0
 11
5279.39657510693
 21
9327.497424545953
 31
0.0
  0
LINE
  5
17AC9
330
747D
100
AcDbEntity
  8
部品1
100
AcDbLine
 10
4188.396575106997
 20
9777.497424545902
 30
0.0
 11
5251.396575106928
 21
9777.497424545948
 31
0.0
  0
LINE
  5
17ACA
330
747D
100
AcDbEntity
  8
細線
 48
50.0
100
AcDbLine
 10
6510.396575106998
 20
9327.497424546008
 30
0.0
 11
5279.396575106928
 21
9777.497424545948
 31
0.0
  0
LINE
  5
17ACB
330
747D
100
AcDbEntity
  8
破線
 48
10.0
100
AcDbLine
 10
5869.896575106977
 20
8097.497424545894
 30
0.0
 11
5087.396575106974
 21
8097.497424545865
 31
0.0
  0
LINE
  5
17ACC
330
747D
100
AcDbEntity
  8
部品1
100
AcDbLine
 10
7573.396575106999
 20
8073.997424545989
 30
0.0
 11
4216.396575106892
 21
8073.99742454587
 31
0.0
  0
DIMENSION
  5
17ACD
330
747D
100
AcDbEntity
  8
寸法
100
AcDbDimension
  2
*D26
 10
4214.896575106999
 20
10323.30564417088
 30
0.0
 11
3851.411293732723
 21
10323.30564417088
 31
0.0
 70
   160
 71
     5
 42
55.00000000003637
  3
INABA_S40G
100
AcDbAlignedDimension
 13
4159.896575106962
 23
9807.497424545902
 33
0.0
 14
4214.896575106999
 24
9807.497424545902
 34
0.0
100
AcDbRotatedDimension
1001
ACAD
1000
DSTYLE
1002
{
1002
}
  0
DIMENSION
  5
17ACE
330
747D
100
AcDbEntity
  8
寸法
100
AcDbDimension
  2
*D27
 10
8277.322920841411
 20
9752.497424546
 30
0.0
 11
8277.322920841411
 21
10115.98270592023
 31
0.0
 70
   160
 71
     5
 42
54.99999999999635
  3
INABA_S40G
100
AcDbAlignedDimension
 13
7629.896575106998
 23
9807.497424545999
 33
0.0
 14
7629.896575106998
 24
9752.497424546
 34
0.0
 50
90.0
100
AcDbRotatedDimension
1001
ACAD
1000
DSTYLE
1002
{
1002
}
  0
DIMENSION
  5
17ACF
330
747D
100
AcDbEntity
  8
寸法
100
AcDbDimension
  2
*D28
 10
7629.896575106998
 20
10323.30564417098
 30
0.0
 11
7938.381856481235
 21
10323.30564417098
 31
0.0
 70
   160
 71
     5
 42
55.0
  3
INABA_S40G
100
AcDbAlignedDimension
 13
7574.896575106999
 23
9807.497424545999
 33
0.0
 14
7629.896575106998
 24
9807.497424545999
 34
0.0
100
AcDbRotatedDimension
1001
ACAD
1000
DSTYLE
1002
{
1002
}
  0
DIMENSION
  5
17AD0
330
747D
100
AcDbEntity
  8
寸法
100
AcDbDimension
  2
*D29
 10
7574.896575106999
 20
10323.305644171
 30
0.0
 11
5894.896575106997
 21
10323.305644171
 31
0.0
 70
   160
  1
8X420=<>
 71
     5
 42
3360.0
  3
INABA_S40G
100
AcDbAlignedDimension
 13
4214.896575106999
 23
9807.497424545902
 33
0.0
 14
7574.896575106999
 24
9807.497424545999
 34
0.0
100
AcDbRotatedDimension
1001
ACAD
1000
DSTYLE
1002
{
1002
}
  0
DIMENSION
  5
17AD1
330
747D
100
AcDbEntity
  8
寸法
100
AcDbDimension
  2
*D30
 10
8642.429862581046
 20
8017.497424545991
 30
0.0
 11
8642.429862581044
 21
8912.497424545993
 31
0.0
 70
   160
 71
     5
 42
1790.000000000007
  3
INABA_S40G
100
AcDbAlignedDimension
 13
7629.896575106998
 23
9807.497424545999
 33
0.0
 14
7629.896575106974
 24
8017.497424545991
 34
0.0
 50
90.0
100
AcDbRotatedDimension
1001
ACAD
1000
DSTYLE
1002
{
1002
}
  0
LINE
  5
17AD2
330
747D
100
AcDbEntity
  8
部品1
100
AcDbLine
 10
4159.896575106992
 20
2865.948390869336
 30
0.0
 11
5027.896575106992
 21
2865.94839086934
 31
0.0
  0
DIMENSION
  5
17AD3
330
747D
100
AcDbEntity
  8
寸法
 48
50.0
100
AcDbDimension
  2
*D31
 10
7529.896575106992
 20
2229.901061568955
 30
0.0
 11
7629.896575106991
 21
2229.901061568955
 31
0.0
 70
   160
 71
     5
 42
200.0000000000018
  3
INABA_S40G
100
AcDbAlignedDimension
 13
7729.896575106991
 23
2515.948390869332
 33
0.0
 14
7529.896575106992
 24
2515.948390869332
 34
0.0
100
AcDbRotatedDimension
  0
LINE
  5
17AD4
330
747D
100
AcDbEntity
  8
破線
 48
5.0
100
AcDbLine
 10
4154.896575106992
 20
2715.948390869333
 30
0.0
 11
4154.896575106992
 21
2560.948390869334
 31
0.0
  0
LINE
  5
17AD5
330
747D
100
AcDbEntity
  8
破線
 48
5.0
100
AcDbLine
 10
7634.896575106992
 20
2715.948390869333
 30
0.0
 11
7634.896575106992
 21
2560.948390869333
 31
0.0
  0
LINE
  5
17AD6
330
747D
100
AcDbEntity
  8
破線
 48
5.0
100
AcDbLine
 10
4259.896575106991
 20
2715.948390869334
 30
0.0
 11
4259.896575106991
 21
2515.948390869333
 31
0.0
  0
LINE
  5
17AD7
330
747D
100
AcDbEntity
  8
破線
 48
5.0
100
AcDbLine
 10
4134.896575106991
 20
2560.948390869334
 30
0.0
 11
4154.896575106993
 21
2560.948390869334
 31
0.0
  0
LINE
  5
17AD8
330
747D
100
AcDbEntity
  8
破線
 48
5.0
100
AcDbLine
 10
4059.896575106992
 20
2715.948390869334
 30
0.0
 11
4059.896575106992
 21
2515.948390869333
 31
0.0
  0
LINE
  5
17AD9
330
747D
100
AcDbEntity
  8
破線
 48
5.0
100
AcDbLine
 10
4059.896575106992
 20
2515.948390869333
 30
0.0
 11
4259.896575106994
 21
2515.948390869333
 31
0.0
  0
LINE
  5
17ADA
330
747D
100
AcDbEntity
  8
部品1
100
AcDbLine
 10
4154.896575106992
 20
2860.948390869335
 30
0.0
 11
4154.896575106992
 21
2715.948390869333
 31
0.0
  0
LINE
  5
17ADB
330
747D
100
AcDbEntity
  8
破線
 48
5.0
100
AcDbLine
 10
7654.896575106992
 20
2560.948390869333
 30
0.0
 11
7634.896575106989
 21
2560.948390869333
 31
0.0
  0
LINE
  5
17ADC
330
747D
100
AcDbEntity
  8
破線
 48
5.0
100
AcDbLine
 10
7729.896575106991
 20
2715.948390869333
 30
0.0
 11
7729.896575106991
 21
2515.948390869332
 31
0.0
  0
LINE
  5
17ADD
330
747D
100
AcDbEntity
  8
破線
 48
5.0
100
AcDbLine
 10
7529.896575106992
 20
2715.948390869333
 30
0.0
 11
7529.896575106992
 21
2515.948390869332
 31
0.0
  0
LINE
  5
17ADE
330
747D
100
AcDbEntity
  8
破線
 48
5.0
100
AcDbLine
 10
7729.896575106991
 20
2515.948390869332
 30
0.0
 11
7529.896575106992
 21
2515.948390869332
 31
0.0
  0
LINE
  5
17ADF
330
747D
100
AcDbEntity
  8
部品1
100
AcDbLine
 10
7634.896575106992
 20
2860.948390869334
 30
0.0
 11
7634.896575106992
 21
2715.948390869333
 31
0.0
  0
LINE
  5
17AE0
330
747D
100
AcDbEntity
  8
部品1
 48
50.0
100
AcDbLine
 10
6826.896575106991
 20
2815.948390869333
 30
0.0
 11
6826.896575106991
 21
2715.948390869333
 31
0.0
  0
LINE
  5
17AE1
330
747D
100
AcDbEntity
  8
部品1
 48
50.0
100
AcDbLine
 10
6626.896575106991
 20
2815.948390869333
 30
0.0
 11
6626.896575106991
 21
2715.948390869333
 31
0.0
  0
LINE
  5
17AE2
330
747D
100
AcDbEntity
  8
部品1
100
AcDbLine
 10
4559.896575106992
 20
2815.948390869333
 30
0.0
 11
4559.896575106992
 21
2715.948390869333
 31
0.0
  0
LINE
  5
17AE3
330
747D
100
AcDbEntity
  8
部品1
100
AcDbLine
 10
7229.896575106991
 20
2815.948390869333
 30
0.0
 11
7229.896575106991
 21
2715.948390869333
 31
0.0
  0
LINE
  5
17AE4
330
747D
100
AcDbEntity
  8
部品1
100
AcDbLine
 10
7629.896575106991
 20
5049.948390869335
 30
0.0
 11
7629.896575106991
 21
2715.948390869333
 31
0.0
  0
LINE
  5
17AE5
330
747D
100
AcDbEntity
  8
部品1
100
AcDbLine
 10
4214.89657510699
 20
4955.948390869333
 30
0.0
 11
4214.89657510699
 21
2865.948390869336
 31
0.0
  0
LINE
  5
17AE6
330
747D
100
AcDbEntity
  8
部品1
100
AcDbLine
 10
7574.896575106992
 20
4955.948390869333
 30
0.0
 11
7574.896575106992
 21
2865.948390869353
 31
0.0
  0
LINE
  5
17AE7
330
747D
100
AcDbEntity
  8
部品1
100
AcDbLine
 10
4159.896575106992
 20
5049.948390869338
 30
0.0
 11
4159.896575106992
 21
2715.948390869333
 31
0.0
  0
LINE
  5
17AE8
330
747D
100
AcDbEntity
  8
部品1
100
AcDbLine
 10
4159.896575106992
 20
4955.948390869333
 30
0.0
 11
7629.896575106991
 21
4955.948390869333
 31
0.0
  0
LINE
  5
17AE9
330
747D
100
AcDbEntity
  8
部品1
100
AcDbLine
 10
4159.896575106992
 20
2815.948390869333
 30
0.0
 11
7629.896575106991
 21
2815.948390869333
 31
0.0
  0
LINE
  5
17AEA
330
747D
100
AcDbEntity
  8
部品1
100
AcDbLine
 10
3531.126983760609
 20
2845.852201436997
 30
0.0
 11
3456.126983760609
 21
2715.948390869333
 31
0.0
  0
TEXT
  5
17AEB
330
747D
100
AcDbEntity
  8
部品1
100
AcDbText
 10
3559.231925885382
 20
2752.055294475235
 30
0.0
 40
125.0
  1
G.L
  7
MSGOTHIC
100
AcDbText
  0
LINE
  5
17AEC
330
747D
100
AcDbEntity
  8
部品1
100
AcDbLine
 10
3456.126983760609
 20
2715.948390869333
 30
0.0
 11
3381.126983760609
 21
2845.852201436997
 31
0.0
  0
LINE
  5
17AED
330
747D
100
AcDbEntity
  8
部品1
100
AcDbLine
 10
3381.126983760609
 20
2845.852201436997
 30
0.0
 11
3531.126983760609
 21
2845.852201436997
 31
0.0
  0
LINE
  5
17AEE
330
747D
100
AcDbEntity
  8
Ｇ．Ｌ
100
AcDbLine
 10
3281.629972436509
 20
2715.948390869333
 30
0.0
 11
12948.31588119198
 21
2715.948390869333
 31
0.0
  0
MTEXT
  5
1873E
330
747D
100
AcDbEntity
  8
寸法
 62
     7
 48
50.0
100
AcDbMText
 10
5910.176372717602
 20
9403.332584505381
 30
0.0
 40
96.0
 41
0.0
 71
     5
 72
     1
  1
棚 3段
  7
STYLE1
 73
     1
 44
1.0
1001
ACAD
1000
MTEXTBEGIN
1070
    73
1070
     1
1070
    44
1040
1.0
1070
    74
1070
     0
1000
MTEXTEND
  0
MTEXT
  5
1873F
330
747D
100
AcDbEntity
  8
寸法
 62
     7
 48
50.0
100
AcDbMText
 10
7085.176372717632
 20
9403.332584505404
 30
0.0
 40
96.0
 41
0.0
 71
     5
 72
     1
  1
棚 3段
  7
STYLE1
 73
     1
 44
1.0
1001
ACAD
1000
MTEXTBEGIN
1070
    73
1070
     1
1070
    44
1040
1.0
1070
    74
1070
     0
1000
MTEXTEND
  0
LINE
  5
18754
330
747D
100
AcDbEntity
  8
補助
  6
PHANTOM
 62
   230
 48
50.0
100
AcDbLine
 10
140.0
 20
0.0
 30
0.0
 11
140.0
 21
11409.6
 31
0.0
  0
LINE
  5
1883D
330
747D
100
AcDbEntity
  8
寸法
 48
50.0
100
AcDbLine
 10
5490.099581388812
 20
7795.53417611472
 30
0.0
 11
5438.693573478707
 21
7795.53417611472
 31
0.0
  0
LINE
  5
1883E
330
747D
100
AcDbEntity
  8
寸法
 48
50.0
100
AcDbLine
 10
5438.693573478707
 20
7795.53417611472
 30
0.0
 11
5438.693573478707
 21
7826.844334766888
 31
0.0
  0
LINE
  5
1883F
330
747D
100
AcDbEntity
  8
寸法
 48
50.0
100
AcDbLine
 10
5438.693573478707
 20
7826.844334766888
 30
0.0
 11
5408.932241487285
 21
7826.844334766888
 31
0.0
  0
LINE
  5
18840
330
747D
100
AcDbEntity
  8
寸法
 48
50.0
100
AcDbLine
 10
5408.932241487285
 20
7826.844334766888
 30
0.0
 11
5464.39657743376
 21
7864.423785695497
 31
0.0
  0
LINE
  5
18841
330
747D
100
AcDbEntity
  8
寸法
 48
50.0
100
AcDbLine
 10
5519.860913380235
 20
7826.844334766888
 30
0.0
 11
5464.39657743376
 21
7864.423785695497
 31
0.0
  0
LINE
  5
18842
330
747D
100
AcDbEntity
  8
寸法
 48
50.0
100
AcDbLine
 10
5490.099581388812
 20
7826.844334766888
 30
0.0
 11
5519.860913380235
 21
7826.844334766888
 31
0.0
  0
LINE
  5
18843
330
747D
100
AcDbEntity
  8
寸法
 48
50.0
100
AcDbLine
 10
5490.099581388812
 20
7795.53417611472
 30
0.0
 11
5490.099581388812
 21
7826.844334766888
 31
0.0
  0
LINE
  5
18844
330
747D
100
AcDbEntity
  8
寸法
 48
50.0
100
AcDbLine
 10
5438.693573478707
 20
7795.53417611472
 30
0.0
 11
5490.099581388812
 21
7795.53417611472
 31
0.0
  0
LINE
  5
18845
330
747D
100
AcDbEntity
  8
寸法
 48
50.0
100
AcDbLine
 10
5769.265115665669
 20
7852.679766869544
 30
0.0
 11
5769.265115665669
 21
7799.016132287754
 31
0.0
  0
LINE
  5
18846
330
747D
100
AcDbEntity
  8
寸法
 48
50.0
100
AcDbLine
 10
5858.549334261091
 20
7828.756132600059
 30
0.0
 11
5769.265115665669
 21
7852.679766869544
 31
0.0
  0
LINE
  5
18847
330
747D
100
AcDbEntity
  8
寸法
 48
50.0
100
AcDbLine
 10
5639.397394085365
 20
7828.756132600059
 30
0.0
 11
5858.549334261091
 21
7828.756132600059
 31
0.0
  0
LINE
  5
18848
330
747D
100
AcDbEntity
  8
細線
 48
50.0
100
AcDbLine
 10
6515.896575106971
 20
7993.997539494582
 30
0.0
 11
7142.896575106966
 21
7993.997539494582
 31
0.0
  0
LINE
  5
18849
330
747D
100
AcDbEntity
  8
細線
 48
50.0
100
AcDbLine
 10
5861.896579760557
 20
7960.288770940508
 30
0.0
 11
7142.896575106966
 21
7960.288770940508
 31
0.0
  0
LINE
  5
1884A
330
747D
100
AcDbEntity
  8
細線
 48
50.0
100
AcDbLine
 10
5820.89657976056
 20
7989.693678936761
 30
0.0
 11
5066.896575106967
 21
7989.693678936757
 31
0.0
  0
LINE
  5
1884B
330
747D
100
AcDbEntity
  8
細線
100
AcDbLine
 10
6918.646565690512
 20
8013.497439459591
 30
0.0
 11
6920.97810521232
 21
8018.497442099553
 31
0.0
  0
LINE
  5
1884C
330
747D
100
AcDbEntity
  8
細線
100
AcDbLine
 10
6988.646575106968
 20
8013.497424545859
 30
0.0
 11
6986.315028630781
 21
8018.497442099539
 31
0.0
  0
LINE
  5
1884D
330
747D
100
AcDbEntity
  8
細線
100
AcDbLine
 10
6986.315028630781
 20
8018.497442099539
 30
0.0
 11
6920.978105212305
 21
8018.497442099524
 31
0.0
  0
LINE
  5
1884E
330
747D
100
AcDbEntity
  8
細線
100
AcDbLine
 10
6846.315028630781
 20
8018.497442099539
 30
0.0
 11
6780.978105212304
 21
8018.497442099524
 31
0.0
  0
LINE
  5
1884F
330
747D
100
AcDbEntity
  8
細線
100
AcDbLine
 10
6848.646575106968
 20
8013.497424545859
 30
0.0
 11
6846.315028630781
 21
8018.497442099539
 31
0.0
  0
LINE
  5
18850
330
747D
100
AcDbEntity
  8
細線
100
AcDbLine
 10
6778.646565690511
 20
8013.497439459591
 30
0.0
 11
6780.978105212319
 21
8018.497442099553
 31
0.0
  0
LINE
  5
18851
330
747D
100
AcDbEntity
  8
細線
100
AcDbLine
 10
6638.646575106966
 20
8013.497424545859
 30
0.0
 11
6640.978114628781
 21
8018.497427185819
 31
0.0
  0
LINE
  5
18852
330
747D
100
AcDbEntity
  8
細線
100
AcDbLine
 10
6708.646584523428
 20
8013.497409632124
 30
0.0
 11
6706.315038047238
 21
8018.497427185804
 31
0.0
  0
LINE
  5
18853
330
747D
100
AcDbEntity
  8
細線
100
AcDbLine
 10
6706.315038047242
 20
8018.497427185804
 30
0.0
 11
6640.978114628765
 21
8018.49742718579
 31
0.0
  0
LINE
  5
18854
330
747D
100
AcDbEntity
  8
細線
100
AcDbLine
 10
6411.065059296075
 20
7984.497463883187
 30
0.0
 11
6345.7281358776
 21
7984.497463883172
 31
0.0
  0
LINE
  5
18855
330
747D
100
AcDbEntity
  8
細線
100
AcDbLine
 10
6413.396605772262
 20
7979.497446329506
 30
0.0
 11
6411.065059296075
 21
7984.497463883187
 31
0.0
  0
LINE
  5
18856
330
747D
100
AcDbEntity
  8
細線
100
AcDbLine
 10
6343.396596355805
 20
7979.497461243241
 30
0.0
 11
6345.728135877614
 21
7984.497463883201
 31
0.0
  0
LINE
  5
18857
330
747D
100
AcDbEntity
  8
細線
 48
50.0
100
AcDbLine
 10
6184.779954354982
 20
7997.768287698939
 30
0.0
 11
6190.535471937649
 21
7979.497436408452
 31
0.0
  0
LINE
  5
18858
330
747D
100
AcDbEntity
  8
細線
 48
50.0
100
AcDbLine
 10
6173.851505874552
 20
7997.768287698939
 30
0.0
 11
6184.779954354982
 21
7997.768287698939
 31
0.0
  0
ARC
  5
18859
330
747D
100
AcDbEntity
  8
細線
 48
50.0
100
AcDbCircle
 10
6168.397149817231
 20
7999.268287698939
 30
0.0
 40
5.0
100
AcDbArc
 50
204.6243183521277
 51
335.3756816478722
  0
ARC
  5
1885A
330
747D
100
AcDbEntity
  8
細線
 48
50.0
100
AcDbCircle
 10
6173.851505874552
 20
7996.768287698938
 30
0.0
 40
1.0
100
AcDbArc
 50
90.0
 51
155.3756816478721
  0
ARC
  5
1885B
330
747D
100
AcDbEntity
  8
細線
 48
50.0
100
AcDbCircle
 10
6162.942793759914
 20
7996.768287698938
 30
0.0
 40
1.0
100
AcDbArc
 50
24.62431835212778
 51
90.0
  0
LINE
  5
1885C
330
747D
100
AcDbEntity
  8
細線
 48
50.0
100
AcDbLine
 10
6152.014345279481
 20
7997.768287698939
 30
0.0
 11
6162.942793759914
 21
7997.768287698939
 31
0.0
  0
LINE
  5
1885D
330
747D
100
AcDbEntity
  8
細線
 48
50.0
100
AcDbLine
 10
6146.258827696812
 20
7979.497436408445
 30
0.0
 11
6152.014345279481
 21
7997.768287698939
 31
0.0
  0
LINE
  5
1885E
330
747D
100
AcDbEntity
  8
細線
100
AcDbLine
 10
6203.396597586846
 20
7979.49743377425
 30
0.0
 11
6205.728137108658
 21
7984.497436414208
 31
0.0
  0
LINE
  5
1885F
330
747D
100
AcDbEntity
  8
細線
100
AcDbLine
 10
6273.396607003307
 20
7979.497418860515
 30
0.0
 11
6271.065060527116
 21
7984.497436414196
 31
0.0
  0
LINE
  5
18860
330
747D
100
AcDbEntity
  8
細線
100
AcDbLine
 10
6271.065060527116
 20
7984.497436414196
 30
0.0
 11
6205.728137108644
 21
7984.497436414182
 31
0.0
  0
LINE
  5
18861
330
747D
100
AcDbEntity
  8
細線
100
AcDbLine
 10
6131.065032162599
 20
7984.497436408415
 30
0.0
 11
6065.728108744123
 21
7984.497436408401
 31
0.0
  0
LINE
  5
18862
330
747D
100
AcDbEntity
  8
細線
100
AcDbLine
 10
6133.396578638786
 20
7979.497418854737
 30
0.0
 11
6131.065032162599
 21
7984.497436408415
 31
0.0
  0
LINE
  5
18863
330
747D
100
AcDbEntity
  8
細線
100
AcDbLine
 10
6063.39657045337
 20
7979.497436408445
 30
0.0
 11
6065.728108744139
 21
7984.497436408431
 31
0.0
  0
LINE
  5
18864
330
747D
100
AcDbEntity
  8
細線
100
AcDbLine
 10
5923.396605772262
 20
7979.497444595814
 30
0.0
 11
5925.728144063029
 21
7984.4974445958
 31
0.0
  0
LINE
  5
18865
330
747D
100
AcDbEntity
  8
細線
100
AcDbLine
 10
5993.396613957678
 20
7979.497427042105
 30
0.0
 11
5991.065067481491
 21
7984.497444595781
 31
0.0
  0
LINE
  5
18866
330
747D
100
AcDbEntity
  8
細線
100
AcDbLine
 10
5991.065067481491
 20
7984.497444595781
 30
0.0
 11
5925.728144063015
 21
7984.497444595771
 31
0.0
  0
LINE
  5
18867
330
747D
100
AcDbEntity
  8
細線
100
AcDbLine
 10
5551.896571575142
 20
7945.497616276528
 30
0.0
 11
5554.22810986591
 21
7950.497616276513
 31
0.0
  0
LINE
  5
18868
330
747D
100
AcDbEntity
  8
細線
100
AcDbLine
 10
5621.896579760557
 20
7945.497598722814
 30
0.0
 11
5619.56503328437
 21
7950.49761627649
 31
0.0
  0
LINE
  5
18869
330
747D
100
AcDbEntity
  8
細線
100
AcDbLine
 10
5619.56503328437
 20
7950.49761627649
 30
0.0
 11
5554.228109865896
 21
7950.497616276483
 31
0.0
  0
LINE
  5
1886A
330
747D
100
AcDbEntity
  8
細線
100
AcDbLine
 10
5759.56503328437
 20
7950.49761627649
 30
0.0
 11
5694.228109865899
 21
7950.497616276483
 31
0.0
  0
LINE
  5
1886B
330
747D
100
AcDbEntity
  8
細線
100
AcDbLine
 10
5761.896579760557
 20
7945.497598722814
 30
0.0
 11
5759.56503328437
 21
7950.49761627649
 31
0.0
  0
LINE
  5
1886C
330
747D
100
AcDbEntity
  8
細線
100
AcDbLine
 10
5691.896571575142
 20
7945.497616276528
 30
0.0
 11
5694.228109865909
 21
7950.497616276513
 31
0.0
  0
LINE
  5
1886D
330
747D
100
AcDbEntity
  8
細線
100
AcDbLine
 10
5479.565033284369
 20
7950.49761627649
 30
0.0
 11
5414.228109865898
 21
7950.49761627648
 31
0.0
  0
LINE
  5
1886E
330
747D
100
AcDbEntity
  8
細線
100
AcDbLine
 10
5481.896579760557
 20
7945.497598722814
 30
0.0
 11
5479.565033284369
 21
7950.49761627649
 31
0.0
  0
LINE
  5
1886F
330
747D
100
AcDbEntity
  8
細線
100
AcDbLine
 10
5411.896571575141
 20
7945.497616276523
 30
0.0
 11
5414.228109865909
 21
7950.497616276509
 31
0.0
  0
LINE
  5
18870
330
747D
100
AcDbEntity
  8
細線
100
AcDbLine
 10
5271.896579760557
 20
7945.497616276528
 30
0.0
 11
5274.228118051325
 21
7950.497616276513
 31
0.0
  0
LINE
  5
18871
330
747D
100
AcDbEntity
  8
細線
100
AcDbLine
 10
5341.896587945973
 20
7945.497598722814
 30
0.0
 11
5339.565041469786
 21
7950.49761627649
 31
0.0
  0
LINE
  5
18872
330
747D
100
AcDbEntity
  8
細線
100
AcDbLine
 10
5339.565041469786
 20
7950.49761627649
 30
0.0
 11
5274.228118051314
 21
7950.497616276483
 31
0.0
  0
ARC
  5
18873
330
747D
100
AcDbEntity
  8
部品1
 48
0.01
100
AcDbCircle
 10
5227.396468508222
 20
7944.496494091454
 30
0.0
 40
0.5
100
AcDbArc
 50
270.0
 51
0.0
  0
LINE
  5
18874
330
747D
100
AcDbEntity
  8
部品1
 48
0.01
100
AcDbLine
 10
5227.896468508222
 20
7945.496494091455
 30
0.0
 11
5227.896468508222
 21
7944.496494091454
 31
0.0
  0
LINE
  5
18875
330
747D
100
AcDbEntity
  8
部品1
 48
0.01
100
AcDbLine
 10
5227.896468508222
 20
7945.496494091455
 30
0.0
 11
5227.896468508222
 21
7944.496494091454
 31
0.0
  0
LINE
  5
18876
330
747D
100
AcDbEntity
  8
部品1
 48
0.01
100
AcDbLine
 10
5227.396468508222
 20
7943.996494091455
 30
0.0
 11
5220.783963078156
 21
7943.996494091455
 31
0.0
  0
ARC
  5
18877
330
747D
100
AcDbEntity
  8
部品1
100
AcDbCircle
 10
5220.852312630938
 20
7944.996494091454
 30
0.0
 40
1.0
100
AcDbArc
 50
160.5287793655822
 51
270.0
  0
ARC
  5
18878
330
747D
100
AcDbEntity
  8
部品1
100
AcDbCircle
 10
5195.396468508222
 20
7953.996494091454
 30
0.0
 40
26.0
100
AcDbArc
 50
340.5287793655822
 51
0.0
  0
LINE
  5
18879
330
747D
100
AcDbEntity
  8
部品1
100
AcDbLine
 10
5221.396468508221
 20
7953.996494091454
 30
0.0
 11
5221.396468508221
 21
7958.996494091454
 31
0.0
  0
ARC
  5
1887A
330
747D
100
AcDbEntity
  8
部品1
 48
0.01
100
AcDbCircle
 10
5219.396468508222
 20
7958.996494091454
 30
0.0
 40
2.0
100
AcDbArc
 50
0.0
 51
90.0
  0
ARC
  5
1887B
330
747D
100
AcDbEntity
  8
部品1
100
AcDbCircle
 10
5217.788076883412
 20
7957.996494091455
 30
0.0
 40
3.0
100
AcDbArc
 50
90.0
 51
141.6069559807873
  0
LINE
  5
1887C
330
747D
100
AcDbEntity
  8
部品1
 48
0.01
100
AcDbLine
 10
5219.396468508222
 20
7960.996494091452
 30
0.0
 11
5217.788076883412
 21
7960.996494091452
 31
0.0
  0
ARC
  5
1887D
330
747D
100
AcDbEntity
  8
部品1
100
AcDbCircle
 10
5199.325754293951
 20
7957.296494091457
 30
0.0
 40
3.0
100
AcDbArc
 50
254.0576313943215
 51
270.0
  0
ARC
  5
1887E
330
747D
100
AcDbEntity
  8
部品1
100
AcDbCircle
 10
5206.467182722493
 20
7957.296494091457
 30
0.0
 40
3.0
100
AcDbArc
 50
270.0
 51
285.9423686056786
  0
LINE
  5
1887F
330
747D
100
AcDbEntity
  8
部品1
100
AcDbLine
 10
5206.467182722493
 20
7954.296494091457
 30
0.0
 11
5199.325754293951
 21
7954.296494091457
 31
0.0
  0
ARC
  5
18880
330
747D
100
AcDbEntity
  8
部品1
100
AcDbCircle
 10
5202.896468508222
 20
7969.796494091458
 30
0.0
 40
16.0
100
AcDbArc
 50
285.9423686056786
 51
321.6069559807873
  0
LINE
  5
18881
330
747D
100
AcDbEntity
  8
部品1
 48
0.01
100
AcDbLine
 10
5186.396468508222
 20
7960.996494091452
 30
0.0
 11
5188.00486013303
 21
7960.996494091452
 31
0.0
  0
ARC
  5
18882
330
747D
100
AcDbEntity
  8
部品1
100
AcDbCircle
 10
5188.00486013303
 20
7957.996494091455
 30
0.0
 40
3.0
100
AcDbArc
 50
38.39304401921268
 51
90.0
  0
ARC
  5
18883
330
747D
100
AcDbEntity
  8
部品1
100
AcDbCircle
 10
5202.896468508222
 20
7969.796494091458
 30
0.0
 40
16.0
100
AcDbArc
 50
218.3930440192126
 51
254.0576313943215
  0
LINE
  5
18884
330
747D
100
AcDbEntity
  8
部品1
100
AcDbLine
 10
5184.396468508222
 20
7953.996494091454
 30
0.0
 11
5184.396468508222
 21
7958.996494091454
 31
0.0
  0
ARC
  5
18885
330
747D
100
AcDbEntity
  8
部品1
 48
0.01
100
AcDbCircle
 10
5186.396468508222
 20
7958.996494091454
 30
0.0
 40
2.0
100
AcDbArc
 50
90.0
 51
180.0
  0
ARC
  5
18886
330
747D
100
AcDbEntity
  8
部品1
100
AcDbCircle
 10
5210.396468508221
 20
7953.996494091454
 30
0.0
 40
26.0
100
AcDbArc
 50
180.0
 51
199.4712206344178
  0
ARC
  5
18887
330
747D
100
AcDbEntity
  8
部品1
 48
0.01
100
AcDbCircle
 10
5178.396468508221
 20
7944.496494091454
 30
0.0
 40
0.5
100
AcDbArc
 50
180.0
 51
270.0
  0
LINE
  5
18888
330
747D
100
AcDbEntity
  8
部品1
 48
0.01
100
AcDbLine
 10
5178.396468508221
 20
7943.996494091455
 30
0.0
 11
5184.940624385506
 21
7943.996494091455
 31
0.0
  0
LINE
  5
18889
330
747D
100
AcDbEntity
  8
部品1
 48
0.01
100
AcDbLine
 10
5177.896468508222
 20
7945.496494091455
 30
0.0
 11
5177.896468508222
 21
7944.496494091454
 31
0.0
  0
ARC
  5
1888A
330
747D
100
AcDbEntity
  8
部品1
100
AcDbCircle
 10
5184.940624385506
 20
7944.996494091454
 30
0.0
 40
1.0
100
AcDbArc
 50
270.0
 51
19.4712206344178
  0
LINE
  5
1888B
330
747D
100
AcDbEntity
  8
細線
100
AcDbLine
 10
5223.396468508229
 20
7963.496494091458
 30
0.0
 11
5182.39646850823
 21
7963.496494091451
 31
0.0
  0
LINE
  5
1888C
330
747D
100
AcDbEntity
  8
細線
100
AcDbLine
 10
5182.39646850823
 20
7963.496494091451
 30
0.0
 11
5182.39646850823
 21
7945.496494091432
 31
0.0
  0
LINE
  5
1888D
330
747D
100
AcDbEntity
  8
細線
100
AcDbLine
 10
5223.396468508229
 20
7963.496494091458
 30
0.0
 11
5223.396468508229
 21
7945.496494091432
 31
0.0
  0
LINE
  5
1888E
330
747D
100
AcDbEntity
  8
細線
100
AcDbLine
 10
5066.896575106967
 20
7949.497424545858
 30
0.0
 11
5066.896575106967
 21
7945.497424545904
 31
0.0
  0
DIMENSION
  5
1888F
330
747D
100
AcDbEntity
  8
寸法
 48
50.0
100
AcDbDimension
  2
*D32
 10
6332.896575106968
 20
7306.208179622299
 30
0.0
 11
5721.996666023391
 21
7306.208179622299
 31
0.0
 70
   160
  1
有効開口部間口\P<>
 71
     5
 42
1266.0
  3
INABA_S40G
100
AcDbAlignedDimension
 13
5066.896575106967
 23
7940.497424545857
 33
0.0
 14
6332.896575106968
 24
7940.497424545857
 34
0.0
100
AcDbRotatedDimension
1001
ACAD
1000
DSTYLE
1002
{
1070
   341
1005
0
1002
}
  0
LINE
  5
18890
330
747D
100
AcDbEntity
  8
部品1
100
AcDbLine
 10
7154.896575106966
 20
8017.497424545858
 30
0.0
 11
7181.896575106967
 21
8017.497424545858
 31
0.0
  0
LINE
  5
18892
330
747D
100
AcDbEntity
  8
部品1
100
AcDbLine
 10
7181.896575106967
 20
7940.497424545857
 30
0.0
 11
7181.896575106967
 21
8017.497424545858
 31
0.0
  0
LINE
  5
18893
330
747D
100
AcDbEntity
  8
部品1
100
AcDbLine
 10
7142.896575106966
 20
8013.497424545859
 30
0.0
 11
7154.896575106966
 21
8013.497424545859
 31
0.0
  0
LINE
  5
18894
330
747D
100
AcDbEntity
  8
部品1
100
AcDbLine
 10
7151.896575106967
 20
7949.497424545858
 30
0.0
 11
7151.896575106967
 21
7940.497424545857
 31
0.0
  0
LINE
  5
18895
330
747D
100
AcDbEntity
  8
部品1
100
AcDbLine
 10
7142.896575106966
 20
7949.497424545858
 30
0.0
 11
7151.896575106967
 21
7949.497424545858
 31
0.0
  0
LINE
  5
18896
330
747D
100
AcDbEntity
  8
部品1
100
AcDbLine
 10
7142.896575106966
 20
8013.497424545859
 30
0.0
 11
7142.896575106966
 21
7949.497424545858
 31
0.0
  0
LINE
  5
18897
330
747D
100
AcDbEntity
  8
部品1
100
AcDbLine
 10
7154.896575106966
 20
8044.497424545857
 30
0.0
 11
7154.896575106966
 21
8013.497424545859
 31
0.0
  0
LINE
  5
18898
330
747D
100
AcDbEntity
  8
部品1
100
AcDbLine
 10
5066.896575106967
 20
8013.497424545859
 30
0.0
 11
5054.896575106967
 21
8013.497424545859
 31
0.0
  0
LINE
  5
18899
330
747D
100
AcDbEntity
  8
部品1
100
AcDbLine
 10
5027.896575106968
 20
8017.497424545858
 30
0.0
 11
5054.896575106966
 21
8017.497424545858
 31
0.0
  0
LINE
  5
1889A
330
747D
100
AcDbEntity
  8
部品1
100
AcDbLine
 10
5057.896575106967
 20
7949.497424545858
 30
0.0
 11
5057.896575106967
 21
7940.497424545857
 31
0.0
  0
LINE
  5
1889B
330
747D
100
AcDbEntity
  8
部品1
100
AcDbLine
 10
5066.896575106967
 20
7949.497424545858
 30
0.0
 11
5057.896575106967
 21
7949.497424545858
 31
0.0
  0
LINE
  5
1889C
330
747D
100
AcDbEntity
  8
部品1
100
AcDbLine
 10
5057.896575106967
 20
7940.497424545857
 30
0.0
 11
5027.896575106968
 21
7940.497424545857
 31
0.0
  0
LINE
  5
1889D
330
747D
100
AcDbEntity
  8
部品1
100
AcDbLine
 10
5027.896575106968
 20
7940.497424545857
 30
0.0
 11
5027.896575106968
 21
8017.497424545858
 31
0.0
  0
LINE
  5
1889E
330
747D
100
AcDbEntity
  8
部品1
100
AcDbLine
 10
5066.896575106967
 20
8013.497424545859
 30
0.0
 11
5066.896575106967
 21
7949.497424545858
 31
0.0
  0
LINE
  5
1889F
330
747D
100
AcDbEntity
  8
部品1
100
AcDbLine
 10
5054.896575106966
 20
8044.497424545854
 30
0.0
 11
5054.896575106967
 21
8013.497424545859
 31
0.0
  0
LINE
  5
188A0
330
747D
100
AcDbEntity
  8
部品1
100
AcDbLine
 10
5054.896575106966
 20
8044.497424545854
 30
0.0
 11
7154.896575106966
 21
8044.497424545857
 31
0.0
  0
LINE
  5
188A1
330
747D
100
AcDbEntity
  8
部品1
100
AcDbLine
 10
7151.896575106967
 20
7940.497424545857
 30
0.0
 11
7181.896575106967
 21
7940.497424545857
 31
0.0
  0
LINE
  5
188A2
330
747D
100
AcDbEntity
  8
部品1
100
AcDbLine
 10
5057.896575106967
 20
7940.497424545857
 30
0.0
 11
7154.896575106966
 21
7940.497424545857
 31
0.0
  0
LINE
  5
188A3
330
747D
100
AcDbEntity
  8
細線
  6
Continuous
 62
     5
100
AcDbLine
 10
6433.89657510697
 20
7979.497424545854
 30
0.0
 11
6433.89657510697
 21
7979.497424545854
 31
0.0
  0
LINE
  5
188A4
330
747D
100
AcDbEntity
  8
細線
  6
Continuous
 62
     5
100
AcDbLine
 10
6426.396610425863
 20
7979.497434466911
 30
0.0
 11
6426.396610425863
 21
7979.497434466911
 31
0.0
  0
LINE
  5
188A5
330
747D
100
AcDbEntity
  8
細線
  6
Continuous
 62
     5
100
AcDbLine
 10
6420.396610425861
 20
7979.497434466911
 30
0.0
 11
6420.396610425861
 21
7979.497434466911
 31
0.0
  0
LINE
  5
188A6
330
747D
100
AcDbEntity
  8
細線
  6
Continuous
 62
     5
100
AcDbLine
 10
6487.896575106971
 20
7998.497424545854
 30
0.0
 11
6487.896575106971
 21
7998.497424545854
 31
0.0
  0
LINE
  5
188A7
330
747D
100
AcDbEntity
  8
細線
 48
50.0
100
AcDbLine
 10
5080.896579760561
 20
7966.097598722813
 30
0.0
 11
5080.896579760561
 21
7974.493749130452
 31
0.0
  0
LINE
  5
188A8
330
747D
100
AcDbEntity
  8
細線
 48
50.0
100
AcDbLine
 10
5080.896579760561
 20
7974.493749130452
 30
0.0
 11
5066.896575106967
 21
7974.493749130449
 31
0.0
  0
LINE
  5
188A9
330
747D
100
AcDbEntity
  8
細線
 48
50.0
100
AcDbLine
 10
5831.896579760557
 20
7962.647598722812
 30
0.0
 11
5831.896579760557
 21
7967.497598722814
 31
0.0
  0
LINE
  5
188AA
330
747D
100
AcDbEntity
  8
細線
 48
50.0
100
AcDbLine
 10
5831.896579760557
 20
7967.497598722814
 30
0.0
 11
5846.896579760556
 21
7967.497598722814
 31
0.0
  0
LINE
  5
188AB
330
747D
100
AcDbEntity
  8
細線
 48
50.0
100
AcDbLine
 10
5846.896579760556
 20
7967.497598722814
 30
0.0
 11
5846.89657976056
 21
7974.497598722813
 31
0.0
  0
LINE
  5
188AC
330
747D
100
AcDbEntity
  8
細線
 48
50.0
100
AcDbLine
 10
5846.89657976056
 20
7974.497598722813
 30
0.0
 11
5861.896579760557
 21
7974.497598722813
 31
0.0
  0
LINE
  5
188AD
330
747D
100
AcDbEntity
  8
細線
 48
50.0
100
AcDbLine
 10
5861.896579760557
 20
7974.497598722813
 30
0.0
 11
5861.896579760557
 21
7945.497598722814
 31
0.0
  0
LINE
  5
188AE
330
747D
100
AcDbEntity
  8
細線
 48
50.0
100
AcDbLine
 10
5057.896575106967
 20
7945.494933066282
 30
0.0
 11
5271.896579760557
 21
7945.497616276528
 31
0.0
  0
LINE
  5
188AF
330
747D
100
AcDbEntity
  8
細線
 48
50.0
100
AcDbLine
 10
5761.896579760557
 20
7945.497598722814
 30
0.0
 11
5861.896579760557
 21
7945.497598722814
 31
0.0
  0
LINE
  5
188B0
330
747D
100
AcDbEntity
  8
細線
 48
50.0
100
AcDbLine
 10
5481.896579760557
 20
7945.497598722814
 30
0.0
 11
5551.896579760557
 21
7945.497598722814
 31
0.0
  0
LINE
  5
188B1
330
747D
100
AcDbEntity
  8
細線
 48
50.0
100
AcDbLine
 10
5494.758544773088
 20
7945.497598722814
 30
0.0
 11
5500.514062355755
 21
7963.768450013309
 31
0.0
  0
LINE
  5
188B2
330
747D
100
AcDbEntity
  8
細線
 48
50.0
100
AcDbLine
 10
5500.514062355755
 20
7963.768450013309
 30
0.0
 11
5511.442510836188
 21
7963.768450013303
 31
0.0
  0
ARC
  5
188B3
330
747D
100
AcDbEntity
  8
細線
 48
50.0
100
AcDbCircle
 10
5511.442510836188
 20
7962.768450013304
 30
0.0
 40
1.0
100
AcDbArc
 50
24.62431835212778
 51
90.0
  0
ARC
  5
188B4
330
747D
100
AcDbEntity
  8
細線
 48
50.0
100
AcDbCircle
 10
5522.35122295082
 20
7962.768450013304
 30
0.0
 40
1.0
100
AcDbArc
 50
90.0
 51
155.3756816478721
  0
ARC
  5
188B5
330
747D
100
AcDbEntity
  8
細線
 48
50.0
100
AcDbCircle
 10
5516.896866893502
 20
7965.268450013303
 30
0.0
 40
5.0
100
AcDbArc
 50
204.6243183521277
 51
335.3756816478722
  0
LINE
  5
188B6
330
747D
100
AcDbEntity
  8
細線
 48
50.0
100
AcDbLine
 10
5522.35122295082
 20
7963.768450013303
 30
0.0
 11
5533.279671431253
 21
7963.768450013309
 31
0.0
  0
LINE
  5
188B7
330
747D
100
AcDbEntity
  8
細線
 48
50.0
100
AcDbLine
 10
5533.279671431253
 20
7963.768450013309
 30
0.0
 11
5539.035189013922
 21
7945.497598722814
 31
0.0
  0
LINE
  5
188B8
330
747D
100
AcDbEntity
  8
細線
 48
50.0
100
AcDbLine
 10
5831.896579760557
 20
7966.097598722813
 30
0.0
 11
5080.896579760561
 21
7966.097598722813
 31
0.0
  0
LINE
  5
188B9
330
747D
100
AcDbEntity
  8
細線
 48
50.0
100
AcDbLine
 10
5691.896579760557
 20
7945.497598722814
 30
0.0
 11
5621.896579760557
 21
7945.497598722814
 31
0.0
  0
LINE
  5
188BA
330
747D
100
AcDbEntity
  8
細線
100
AcDbLine
 10
5411.896579760557
 20
7945.497598722814
 30
0.0
 11
5341.896587945973
 21
7945.497598722814
 31
0.0
  0
LINE
  5
188BB
330
747D
100
AcDbEntity
  8
細線
 48
50.0
100
AcDbLine
 10
6485.896570453381
 20
8000.09764258068
 30
0.0
 11
5850.896579760557
 21
8000.097642580676
 31
0.0
  0
LINE
  5
188BC
330
747D
100
AcDbEntity
  8
細線
 48
50.0
100
AcDbLine
 10
5850.896579760557
 20
7996.99379298832
 30
0.0
 11
5850.896579760557
 21
8001.49379298832
 31
0.0
  0
LINE
  5
188BD
330
747D
100
AcDbEntity
  8
細線
 48
50.0
100
AcDbLine
 10
5850.896579760557
 20
8001.49379298832
 30
0.0
 11
5835.896579760557
 21
8001.49379298832
 31
0.0
  0
LINE
  5
188BE
330
747D
100
AcDbEntity
  8
細線
 48
50.0
100
AcDbLine
 10
5835.896579760557
 20
8001.49379298832
 30
0.0
 11
5835.896579760557
 21
8008.493792988319
 31
0.0
  0
LINE
  5
188BF
330
747D
100
AcDbEntity
  8
細線
 48
50.0
100
AcDbLine
 10
5835.896579760557
 20
8008.493792988319
 30
0.0
 11
5820.89657976056
 21
8008.493792988316
 31
0.0
  0
LINE
  5
188C0
330
747D
100
AcDbEntity
  8
細線
 48
50.0
100
AcDbLine
 10
5820.89657976056
 20
8008.493792988316
 30
0.0
 11
5820.89657976056
 21
7970.893564885206
 31
0.0
  0
LINE
  5
188C1
330
747D
100
AcDbEntity
  8
細線
 48
50.0
100
AcDbLine
 10
5820.89657976056
 20
7970.893564885206
 30
0.0
 11
5840.896587061733
 21
7970.893606434747
 31
0.0
  0
LINE
  5
188C2
330
747D
100
AcDbEntity
  8
細線
 48
50.0
100
AcDbLine
 10
5840.89654219279
 20
7979.497068070556
 30
0.0
 11
5840.896587061733
 21
7970.893606434747
 31
0.0
  0
LINE
  5
188C3
330
747D
100
AcDbEntity
  8
細線
 48
50.0
100
AcDbLine
 10
6485.896570453381
 20
7996.64764258068
 30
0.0
 11
6485.896570453381
 21
8001.497642580678
 31
0.0
  0
LINE
  5
188C4
330
747D
100
AcDbEntity
  8
細線
 48
50.0
100
AcDbLine
 10
6485.896570453381
 20
8001.497642580678
 30
0.0
 11
6500.896570453376
 21
8001.497642580678
 31
0.0
  0
LINE
  5
188C5
330
747D
100
AcDbEntity
  8
細線
 48
50.0
100
AcDbLine
 10
6500.896570453376
 20
8001.497642580678
 30
0.0
 11
6500.896582087354
 21
8008.497642580721
 31
0.0
  0
LINE
  5
188C6
330
747D
100
AcDbEntity
  8
細線
 48
50.0
100
AcDbLine
 10
6500.896582087354
 20
8008.497642580721
 30
0.0
 11
6515.896580257884
 21
8008.497642580721
 31
0.0
  0
LINE
  5
188C7
330
747D
100
AcDbEntity
  8
細線
 48
50.0
100
AcDbLine
 10
6515.896580257884
 20
8008.497642580721
 30
0.0
 11
6515.896569956062
 21
7979.497436408448
 31
0.0
  0
LINE
  5
188C8
330
747D
100
AcDbEntity
  8
細線
 48
50.0
100
AcDbLine
 10
6203.396597586846
 20
7979.497444595814
 30
0.0
 11
6133.396849669263
 21
7979.497439158477
 31
0.0
  0
LINE
  5
188C9
330
747D
100
AcDbEntity
  8
細線
 48
50.0
100
AcDbLine
 10
5840.89654219279
 20
7979.497068070556
 30
0.0
 11
5852.129231547501
 21
7979.497251023701
 31
0.0
  0
ARC
  5
188CA
330
747D
100
AcDbEntity
  8
細線
 48
50.0
100
AcDbCircle
 10
5858.711523854837
 20
7978.297414937315
 30
0.0
 40
1.8
100
AcDbArc
 50
270.0006665777295
 51
345.0005554812987
  0
LINE
  5
188CB
330
747D
100
AcDbEntity
  8
細線
 48
50.0
100
AcDbLine
 10
5860.697957300917
 20
7978.756255394593
 30
0.0
 11
5860.450194858717
 21
7977.831557512486
 31
0.0
  0
LINE
  5
188CC
330
747D
100
AcDbEntity
  8
細線
 48
50.0
100
AcDbLine
 10
5858.711544795992
 20
7976.497414937435
 30
0.0
 11
5855.081617377223
 21
7976.497372706956
 31
0.0
  0
ARC
  5
188CD
330
747D
100
AcDbEntity
  8
細線
 48
50.0
100
AcDbCircle
 10
5855.081596436071
 20
7978.297372706835
 30
0.0
 40
1.8
100
AcDbArc
 50
195.0010443049445
 51
270.0006665777295
  0
LINE
  5
188CE
330
747D
100
AcDbEntity
  8
細線
 48
50.0
100
AcDbLine
 10
5853.095168943813
 20
7978.756087674399
 30
0.0
 11
5853.342938440324
 21
7977.831466735818
 31
0.0
  0
ARC
  5
188CF
330
747D
100
AcDbEntity
  8
細線
 48
50.0
100
AcDbCircle
 10
5852.129247835063
 20
7978.497251023838
 30
0.0
 40
1.0
100
AcDbArc
 50
15.00104430494449
 51
90.00093320877969
  0
LINE
  5
188D0
330
747D
100
AcDbEntity
  8
細線
 48
50.0
100
AcDbLine
 10
5861.66387865602
 20
7979.497445714106
 30
0.0
 11
5862.605638806924
 21
7979.497452287957
 31
0.0
  0
ARC
  5
188D1
330
747D
100
AcDbEntity
  8
細線
 48
50.0
100
AcDbCircle
 10
5861.663885636406
 20
7978.497445714133
 30
0.0
 40
1.0
100
AcDbArc
 50
90.00039994667941
 51
165.0005554812987
  0
LINE
  5
188D2
330
747D
100
AcDbEntity
  8
細線
 48
50.0
100
AcDbLine
 10
6413.396570453371
 20
7979.497436408448
 30
0.0
 11
6515.896569956062
 21
7979.497436408448
 31
0.0
  0
LINE
  5
188D3
330
747D
100
AcDbEntity
  8
細線
 48
50.0
100
AcDbLine
 10
5923.396605772262
 20
7979.497444595814
 30
0.0
 11
5862.29654454534
 21
7979.497452287957
 31
0.0
  0
LINE
  5
188D4
330
747D
100
AcDbEntity
  8
細線
 48
50.0
100
AcDbLine
 10
6343.396605772262
 20
7979.497481436898
 30
0.0
 11
6273.396598817876
 21
7979.497436414227
 31
0.0
  0
LINE
  5
188D5
330
747D
100
AcDbEntity
  8
細線
 48
50.0
100
AcDbLine
 10
6063.39657045337
 20
7979.497436408445
 30
0.0
 11
5993.396553165496
 21
7979.497436408452
 31
0.0
  0
ARC
  5
188D6
330
747D
100
AcDbEntity
  8
細線
 48
50.0
100
AcDbCircle
 10
6500.096575106979
 20
8012.69742454586
 30
0.0
 40
0.8
100
AcDbArc
 50
359.9997333689499
 51
89.99986668437072
  0
ARC
  5
188D7
330
747D
100
AcDbEntity
  8
細線
 48
50.0
100
AcDbCircle
 10
6507.696581932073
 20
8012.697435714477
 30
0.0
 40
0.8
100
AcDbArc
 50
90.00014387753465
 51
179.9997333689498
  0
LINE
  5
188D8
330
747D
100
AcDbEntity
  8
細線
 48
50.0
100
AcDbLine
 10
6500.096576968414
 20
8013.497424545859
 30
0.0
 11
6494.896575106968
 21
8013.497424545859
 31
0.0
  0
ARC
  5
188D9
330
747D
100
AcDbEntity
  8
細線
 48
50.0
100
AcDbCircle
 10
6501.596575106969
 20
8011.19742454586
 30
0.0
 40
0.7
100
AcDbArc
 50
180.0
 51
270.0
  0
ARC
  5
188DA
330
747D
100
AcDbEntity
  8
細線
 48
50.0
100
AcDbCircle
 10
6506.196575106971
 20
8011.19742454586
 30
0.0
 40
0.7
100
AcDbArc
 50
270.0
 51
0.0
  0
LINE
  5
188DB
330
747D
100
AcDbEntity
  8
細線
 48
50.0
100
AcDbLine
 10
6506.896575106967
 20
8011.19742454586
 30
0.0
 11
6506.896581932085
 21
8012.697439437346
 31
0.0
  0
LINE
  5
188DC
330
747D
100
AcDbEntity
  8
細線
 48
50.0
100
AcDbLine
 10
6501.596575106969
 20
8010.497424545858
 30
0.0
 11
6506.196575106971
 21
8010.497424545858
 31
0.0
  0
LINE
  5
188DD
330
747D
100
AcDbEntity
  8
細線
 48
50.0
100
AcDbLine
 10
6500.896575106967
 20
8012.69742454586
 30
0.0
 11
6500.896575106967
 21
8011.19742454586
 31
0.0
  0
LINE
  5
188DE
330
747D
100
AcDbEntity
  8
細線
 48
50.0
100
AcDbLine
 10
7126.496575106973
 20
8043.497424545858
 30
0.0
 11
6489.896575106967
 21
8043.497424545854
 31
0.0
  0
LINE
  5
188DF
330
747D
100
AcDbEntity
  8
細線
 48
50.0
100
AcDbLine
 10
7152.396575106966
 20
8038.497424545862
 30
0.0
 11
7136.496575106973
 21
8038.497424545857
 31
0.0
  0
LINE
  5
188E0
330
747D
100
AcDbEntity
  8
細線
 48
50.0
100
AcDbLine
 10
7136.496575106969
 20
8038.497424545857
 30
0.0
 11
7126.496575106973
 21
8043.497424545858
 31
0.0
  0
LINE
  5
188E1
330
747D
100
AcDbEntity
  8
細線
100
AcDbLine
 10
6737.396575106966
 20
8013.497424545859
 30
0.0
 11
6737.396575106966
 21
8042.797424545858
 31
0.0
  0
LINE
  5
188E2
330
747D
100
AcDbEntity
  8
細線
100
AcDbLine
 10
6737.396575106966
 20
8042.797424545858
 30
0.0
 11
6757.396575106968
 21
8042.797424545858
 31
0.0
  0
LINE
  5
188E3
330
747D
100
AcDbEntity
  8
細線
100
AcDbLine
 10
6757.396575106968
 20
8013.497424545859
 30
0.0
 11
6757.396575106968
 21
8042.797424545858
 31
0.0
  0
LINE
  5
188E4
330
747D
100
AcDbEntity
  8
細線
100
AcDbLine
 10
6918.646575106969
 20
8013.497424545859
 30
0.0
 11
6848.646575106968
 21
8013.497424545859
 31
0.0
  0
LINE
  5
188E5
330
747D
100
AcDbEntity
  8
細線
 48
50.0
100
AcDbLine
 10
6638.646575106966
 20
8013.497424545859
 30
0.0
 11
6507.692354679811
 21
8013.497424545859
 31
0.0
  0
LINE
  5
188E6
330
747D
100
AcDbEntity
  8
細線
100
AcDbLine
 10
6778.646575106968
 20
8013.497424545859
 30
0.0
 11
6708.646575106968
 21
8013.497424545859
 31
0.0
  0
LINE
  5
188E7
330
747D
100
AcDbEntity
  8
細線
 48
50.0
100
AcDbLine
 10
6494.896575106968
 20
8005.497424545858
 30
0.0
 11
6494.896575106968
 21
8013.497424545859
 31
0.0
  0
LINE
  5
188E8
330
747D
100
AcDbEntity
  8
細線
 48
50.0
100
AcDbLine
 10
6474.896575106966
 20
8005.497424545863
 30
0.0
 11
6494.896575106968
 21
8005.497424545858
 31
0.0
  0
LINE
  5
188E9
330
747D
100
AcDbEntity
  8
細線
 48
50.0
100
AcDbLine
 10
6489.896575106967
 20
8043.497424545858
 30
0.0
 11
6489.896575106967
 21
8038.497424545857
 31
0.0
  0
LINE
  5
188EA
330
747D
100
AcDbEntity
  8
細線
 48
50.0
100
AcDbLine
 10
6474.896575106966
 20
8043.497424545854
 30
0.0
 11
6489.896575106967
 21
8043.497424545858
 31
0.0
  0
LINE
  5
188EB
330
747D
100
AcDbEntity
  8
細線
 48
50.0
100
AcDbLine
 10
6474.896575106966
 20
8005.497424545863
 30
0.0
 11
6474.896575106966
 21
8043.497424545854
 31
0.0
  0
LINE
  5
188EC
330
747D
100
AcDbEntity
  8
細線
100
AcDbLine
 10
7142.896575106966
 20
8013.497424545859
 30
0.0
 11
6988.646575106968
 21
8013.497424545859
 31
0.0
  0
LINE
  5
188ED
330
747D
100
AcDbEntity
  8
細線
 48
50.0
100
AcDbLine
 10
7152.396575106966
 20
8038.497424545862
 30
0.0
 11
7152.396575106966
 21
8013.497424545859
 31
0.0
  0
DIMENSION
  5
18B5D
330
747D
100
AcDbEntity
  8
寸法
 48
50.0
100
AcDbDimension
  2
*D33
 10
7181.896575106967
 20
7020.367709118126
 30
0.0
 11
6127.029331854279
 21
7020.367709118126
 31
0.0
 70
   160
 71
     5
 42
2154.0
  3
INABA_S40G
100
AcDbAlignedDimension
 13
5027.896575106966
 23
7940.497424545895
 33
0.0
 14
7181.896575106967
 24
7940.497424545895
 34
0.0
100
AcDbRotatedDimension
1001
ACAD
1000
DSTYLE
1002
{
1070
   341
1005
0
1002
}
  0
DIMENSION
  5
18B5E
330
747D
100
AcDbEntity
  8
寸法
100
AcDbDimension
  2
*D34
 10
4819.28260743226
 20
7942.497424545861
 30
0.0
 11
4819.282607432258
 21
7796.325650598177
 31
0.0
 70
   160
 71
     5
 42
75.00000000003272
  3
INABA_S40
100
AcDbAlignedDimension
 13
5027.896575106966
 23
8017.497424545894
 33
0.0
 14
5027.896575106964
 24
7942.497424545861
 34
0.0
 50
90.0
100
AcDbRotatedDimension
1001
ACAD
1000
DSTYLE
1002
{
1070
    41
1040
0.5
1070
    44
1040
1.0
1070
   147
1040
0.8
1070
   271
1070
     2
1070
   272
1070
     2
1070
   289
1070
     3
1070
   340
1005
F706
1070
   343
1005
164B4
1070
   344
1005
164B4
1002
}
  0
TEXT
  5
18C12
330
747D
100
AcDbEntity
  8
部品1
100
AcDbText
 10
5603.080851821835
 20
6264.575425458148
 30
0.0
 40
135.0
  1
平面図
  7
STYLE2
100
AcDbText
  0
LWPOLYLINE
  5
18C13
330
747D
100
AcDbEntity
  8
部品1
100
AcDbPolyline
 90
        4
 70
     1
 43
0.0
 10
5513.161241992794
 20
6457.468954676672
 10
5513.161241992794
 20
6217.576633131137
 10
6276.631908221234
 20
6217.576633131137
 10
6276.631908221234
 20
6457.468954676672
  0
DIMENSION
  5
18C74
330
747D
100
AcDbEntity
  8
寸法
100
AcDbDimension
  2
*D35
 10
7629.896575106974
 20
6713.171029599661
 30
0.0
 11
5961.233327116322
 21
6713.171029599661
 31
0.0
 70
   160
 71
     5
 42
3469.999999999983
  3
INABA_S40G
100
AcDbAlignedDimension
 13
4159.896575106992
 23
8017.497424545862
 33
0.0
 14
7629.896575106974
 24
8017.497424545991
 34
0.0
100
AcDbRotatedDimension
1001
ACAD
1000
DSTYLE
1002
{
1070
   341
1005
0
1002
}
  0
LWPOLYLINE
  5
18E7F
330
747D
100
AcDbEntity
  8
部品1
 48
50.0
100
AcDbPolyline
 90
        4
 70
     1
 43
0.0
 10
5126.946575106991
 20
3862.198390869333
 10
5129.846575106992
 20
3862.198390869333
 10
5129.846575106992
 20
3871.698390869333
 10
5126.946575106991
 20
3871.698390869333
  0
CIRCLE
  5
18E80
330
747D
100
AcDbEntity
  8
部品1
 48
50.0
100
AcDbCircle
 10
5128.396575106992
 20
3866.948390869333
 30
0.0
 40
9.0
  0
ARC
  5
18E81
330
747D
100
AcDbEntity
  8
細線
 48
50.0
100
AcDbCircle
 10
5128.396575106992
 20
3866.948390869333
 30
0.0
 40
4.0
100
AcDbArc
 50
111.2538091853132
 51
248.7461908146868
  0
ARC
  5
18E82
330
747D
100
AcDbEntity
  8
細線
 48
50.0
100
AcDbCircle
 10
5128.396575106992
 20
3866.948390869333
 30
0.0
 40
17.5
100
AcDbArc
 50
306.4837370612677
 51
233.5162629387323
  0
LINE
  5
18E83
330
747D
100
AcDbEntity
  8
細線
 48
50.0
100
AcDbLine
 10
5138.396575106987
 20
3843.08943028845
 30
0.0
 11
5138.396575106992
 21
3852.073916088692
 31
0.0
  0
LINE
  5
18E84
330
747D
100
AcDbEntity
  8
細線
 48
50.0
100
AcDbLine
 10
5118.396575106991
 20
3843.089430288452
 30
0.0
 11
5118.396575106991
 21
3852.073916088688
 31
0.0
  0
ARC
  5
18E85
330
747D
100
AcDbEntity
  8
細線
 48
50.0
100
AcDbCircle
 10
5128.396575106992
 20
3866.948390869333
 30
0.0
 40
26.5
100
AcDbArc
 50
249.3326835063939
 51
290.6673164933835
  0
ARC
  5
18E86
330
747D
100
AcDbEntity
  8
細線
 48
50.0
100
AcDbCircle
 10
5137.396575106984
 20
3843.08943028845
 30
0.0
 40
1.0
100
AcDbArc
 50
290.6673164936062
 51
359.9999999998958
  0
ARC
  5
18E87
330
747D
100
AcDbEntity
  8
細線
 48
50.0
100
AcDbCircle
 10
5119.396575106992
 20
3843.089430288452
 30
0.0
 40
1.0
100
AcDbArc
 50
180.0
 51
249.3326835066164
  0
ARC
  5
18E88
330
747D
100
AcDbEntity
  8
細線
 48
50.0
100
AcDbCircle
 10
5117.396575106992
 20
3852.073916088688
 30
0.0
 40
1.0
100
AcDbArc
 50
0.0
 51
53.51626293873231
  0
ARC
  5
18E89
330
747D
100
AcDbEntity
  8
細線
 48
50.0
100
AcDbCircle
 10
5139.396575106996
 20
3852.073916088692
 30
0.0
 40
1.0
100
AcDbArc
 50
126.4837370615127
 51
180.0
  0
ARC
  5
18E8A
330
747D
100
AcDbEntity
  8
細線
 48
50.0
100
AcDbCircle
 10
5128.396575106992
 20
3866.948390869333
 30
0.0
 40
21.5
100
AcDbArc
 50
255.8014401250294
 51
284.1985598749706
  0
ARC
  5
18E8B
330
747D
100
AcDbEntity
  8
細線
 48
50.0
100
AcDbCircle
 10
5128.396575106992
 20
3866.948390869333
 30
0.0
 40
16.5
100
AcDbArc
 50
251.9694646069326
 51
288.0305353930674
  0
LINE
  5
18E8C
330
747D
100
AcDbEntity
  8
細線
 48
50.0
100
AcDbLine
 10
5133.896575106992
 20
3846.396018743526
 30
0.0
 11
5133.896575106992
 21
3850.973410430863
 31
0.0
  0
LINE
  5
18E8D
330
747D
100
AcDbEntity
  8
細線
 48
50.0
100
AcDbLine
 10
5122.896575106992
 20
3846.396018743526
 30
0.0
 11
5122.896575106992
 21
3850.973410430862
 31
0.0
  0
ARC
  5
18E8E
330
747D
100
AcDbEntity
  8
細線
 48
50.0
100
AcDbCircle
 10
5123.196575106994
 20
3850.973410430862
 30
0.0
 40
0.3
100
AcDbArc
 50
71.96946460693259
 51
180.0
  0
ARC
  5
18E8F
330
747D
100
AcDbEntity
  8
細線
 48
50.0
100
AcDbCircle
 10
5133.596575106992
 20
3850.973410430863
 30
0.0
 40
0.3
100
AcDbArc
 50
0.0
 51
108.0305353930674
  0
ARC
  5
18E90
330
747D
100
AcDbEntity
  8
細線
 48
50.0
100
AcDbCircle
 10
5133.596575106989
 20
3846.396018743526
 30
0.0
 40
0.3
100
AcDbArc
 50
284.1985598747622
 51
0.0000000001042204
  0
ARC
  5
18E91
330
747D
100
AcDbEntity
  8
細線
 48
50.0
100
AcDbCircle
 10
5123.196575106994
 20
3846.396018743526
 30
0.0
 40
0.3
100
AcDbArc
 50
180.0
 51
255.8014401248081
  0
CIRCLE
  5
18E92
330
747D
100
AcDbEntity
  8
細線
 48
50.0
100
AcDbCircle
 10
5128.396575106992
 20
3866.948390869333
 30
0.0
 40
12.0
  0
ARC
  5
18E93
330
747D
100
AcDbEntity
  8
部品1
 48
50.0
100
AcDbCircle
 10
5128.396575106992
 20
3916.948390869333
 30
0.0
 40
8.5
100
AcDbArc
 50
114.315739171091
 51
245.684260828909
  0
CIRCLE
  5
18E94
330
747D
100
AcDbEntity
  8
細線
 48
50.0
100
AcDbCircle
 10
5128.396575106992
 20
3916.948390869333
 30
0.0
 40
4.5
  0
LWPOLYLINE
  5
18E95
330
747D
100
AcDbEntity
  8
部品1
 48
50.0
100
AcDbPolyline
 90
        2
 70
     0
 43
0.0
 10
5124.896575106991
 20
3935.623240266315
 10
5124.896575106991
 20
3924.694357561748
  0
CIRCLE
  5
18E96
330
747D
100
AcDbEntity
  8
部品1
 48
50.0
100
AcDbCircle
 10
5128.396575106992
 20
3916.948390869333
 30
0.0
 40
19.0
  0
LWPOLYLINE
  5
18E97
330
747D
100
AcDbEntity
  8
部品1
 48
50.0
100
AcDbPolyline
 90
        2
 70
     0
 43
0.0
 10
5124.896575106991
 20
3909.202424176918
 10
5124.896575106991
 20
3898.27354147235
  0
LWPOLYLINE
  5
18E98
330
747D
100
AcDbEntity
  8
部品1
 48
50.0
100
AcDbPolyline
 90
        2
 70
     0
 43
0.0
 10
5131.896575106992
 20
3924.694357561748
 10
5131.896575106992
 20
3935.623240266315
  0
ARC
  5
18E99
330
747D
100
AcDbEntity
  8
部品1
 48
50.0
100
AcDbCircle
 10
5128.396575106992
 20
3916.948390869333
 30
0.0
 40
8.5
100
AcDbArc
 50
294.315739171091
 51
65.68426082890896
  0
LWPOLYLINE
  5
18E9A
330
747D
100
AcDbEntity
  8
部品1
 48
50.0
100
AcDbPolyline
 90
        2
 70
     0
 43
0.0
 10
5131.896575106992
 20
3898.27354147235
 10
5131.896575106992
 20
3909.202424176918
  0
ARC
  5
18E9B
330
747D
100
AcDbEntity
  8
細線
 48
50.0
100
AcDbCircle
 10
5128.396575106992
 20
3916.948390869333
 30
0.0
 40
16.5
100
AcDbArc
 50
332.0012352654438
 51
27.99876473455621
  0
ARC
  5
18E9C
330
747D
100
AcDbEntity
  8
細線
 48
50.0
100
AcDbCircle
 10
5128.396575106992
 20
3916.948390869333
 30
0.0
 40
14.0
100
AcDbArc
 50
326.4074436112986
 51
33.59255638870134
  0
LINE
  5
18E9D
330
747D
100
AcDbEntity
  8
細線
 48
50.0
100
AcDbLine
 10
5113.82777282266
 20
3924.694357561748
 30
0.0
 11
5116.734671317303
 21
3924.694357561748
 31
0.0
  0
LINE
  5
18E9E
330
747D
100
AcDbEntity
  8
細線
 48
50.0
100
AcDbLine
 10
5113.82777282266
 20
3909.202424176918
 30
0.0
 11
5116.734671317303
 21
3909.202424176918
 31
0.0
  0
LINE
  5
18E9F
330
747D
100
AcDbEntity
  8
細線
 48
50.0
100
AcDbLine
 10
5140.058478896681
 20
3924.694357561748
 30
0.0
 11
5142.965377391327
 21
3924.694357561748
 31
0.0
  0
LINE
  5
18EA0
330
747D
100
AcDbEntity
  8
細線
 48
50.0
100
AcDbLine
 10
5140.058478896681
 20
3909.202424176918
 30
0.0
 11
5142.965377391327
 21
3909.202424176918
 31
0.0
  0
ARC
  5
18EA1
330
747D
100
AcDbEntity
  8
細線
 48
50.0
100
AcDbCircle
 10
5128.396575106992
 20
3916.948390869333
 30
0.0
 40
14.0
100
AcDbArc
 50
146.4074436112986
 51
213.5925563887013
  0
ARC
  5
18EA2
330
747D
100
AcDbEntity
  8
細線
 48
50.0
100
AcDbCircle
 10
5128.396575106992
 20
3916.948390869333
 30
0.0
 40
16.5
100
AcDbArc
 50
152.0012352654438
 51
207.9987647345562
  0
ARC
  5
18EA3
330
747D
100
AcDbEntity
  8
部品1
 48
50.0
100
AcDbCircle
 10
5101.896575106992
 20
3942.448390869333
 30
0.0
 40
5.0
100
AcDbArc
 50
90.0
 51
180.0
  0
ARC
  5
18EA4
330
747D
100
AcDbEntity
  8
部品1
 48
50.0
100
AcDbCircle
 10
5101.896575106992
 20
3831.448390869333
 30
0.0
 40
5.0
100
AcDbArc
 50
180.0
 51
270.0
  0
ARC
  5
18EA5
330
747D
100
AcDbEntity
  8
部品1
 48
50.0
100
AcDbCircle
 10
5154.896575106992
 20
3831.448390869333
 30
0.0
 40
5.0
100
AcDbArc
 50
270.0
 51
0.0
  0
ARC
  5
18EA6
330
747D
100
AcDbEntity
  8
部品1
 48
50.0
100
AcDbCircle
 10
5154.896575106992
 20
3942.448390869333
 30
0.0
 40
5.0
100
AcDbArc
 50
0.0
 51
90.0
  0
LINE
  5
18EA7
330
747D
100
AcDbEntity
  8
部品1
 48
50.0
100
AcDbLine
 10
5096.896575106992
 20
3831.448390869333
 30
0.0
 11
5096.896575106992
 21
3942.448390869333
 31
0.0
  0
LINE
  5
18EA8
330
747D
100
AcDbEntity
  8
部品1
 48
50.0
100
AcDbLine
 10
5154.896575106992
 20
3826.448390869333
 30
0.0
 11
5101.896575106992
 21
3826.448390869333
 31
0.0
  0
LINE
  5
18EA9
330
747D
100
AcDbEntity
  8
部品1
 48
50.0
100
AcDbLine
 10
5159.896575106992
 20
3942.448390869333
 30
0.0
 11
5159.896575106992
 21
3831.448390869333
 31
0.0
  0
ENDSEC
  0
SECTION
  2
OBJECTS
  0
DICTIONARY
  5
7471
330
0
100
AcDbDictionary
281
     1
  3
ACAD_COLOR
350
173C1
  3
ACAD_GROUP
350
7472
  3
ACAD_LAYOUT
350
173C2
  3
ACAD_MATERIAL
350
173C0
  3
ACAD_MLINESTYLE
350
7473
  3
ACAD_PLOTSETTINGS
350
173C3
  3
ACAD_PLOTSTYLENAME
350
173BE
  3
ACDBHEADERROUNDTRIPXREC
350
18EB5
  3
AcDbVariableDictionary
350
18DFB
  3
CONTENTDICTIONARY
350
E71C
  3
DRAWINGVARIABLESDICT
350
F3B9
  0
DICTIONARY
  5
17563
330
7467
100
AcDbDictionary
280
     1
281
     1
  3
ACAD_LAYERSTATES
360
17564
  0
DICTIONARY
  5
173C1
102
{ACAD_REACTORS
330
7471
102
}
330
7471
100
AcDbDictionary
281
     1
  0
DICTIONARY
  5
7472
102
{ACAD_REACTORS
330
7471
102
}
330
7471
100
AcDbDictionary
281
     1
  0
DICTIONARY
  5
173C2
102
{ACAD_REACTORS
330
7471
102
}
330
7471
100
AcDbDictionary
281
     1
  3
Model
350
173C4
  3
レイアウト1
350
173C5
  0
DICTIONARY
  5
173C0
102
{ACAD_REACTORS
330
7471
102
}
330
7471
100
AcDbDictionary
281
     1
  0
DICTIONARY
  5
7473
102
{ACAD_REACTORS
330
7471
102
}
330
7471
100
AcDbDictionary
281
     1
  3
STANDARD
350
7480
  0
DICTIONARY
  5
173C3
102
{ACAD_REACTORS
330
7471
102
}
330
7471
100
AcDbDictionary
281
     1
  0
ACDBDICTIONARYWDFLT
  5
173BE
102
{ACAD_REACTORS
330
7471
102
}
330
7471
100
AcDbDictionary
281
     1
  3
Normal
350
173BF
100
AcDbDictionaryWithDefault
340
173BF
  0
DICTIONARY
  5
18EB5
102
{ACAD_REACTORS
330
7471
102
}
330
7471
100
AcDbDictionary
281
     1
  3
COLORDICT
350
18EB7
  3
MATERIALDICT
350
18EB6
  0
DICTIONARY
  5
18DFB
102
{ACAD_REACTORS
330
7471
102
}
330
7471
100
AcDbDictionary
281
     1
  3
DIMASSOC
350
18DFC
  3
PROJECTNAME
350
18DFD
  0
DICTIONARY
  5
E71C
102
{ACAD_REACTORS
330
7471
102
}
330
7471
100
AcDbDictionary
281
     1
  0
DICTIONARY
  5
F3B9
102
{ACAD_REACTORS
330
7471
102
}
330
7471
100
AcDbDictionary
281
     1
1001
DRAWINGVARIABLESXDATA
1000
POLARMODE
1000
1
  0
DICTIONARY
  5
17564
102
{ACAD_REACTORS
330
17563
102
}
330
17563
100
AcDbDictionary
281
     1
  0
LAYOUT
  5
173C4
102
{ACAD_XDICTIONARY
360
18EB8
102
}
102
{ACAD_REACTORS
330
173C2
102
}
330
173C2
100
AcDbPlotSettings
  1

  2
Microsoft Office Document Image Writer
  4

  6

 40
0.0
 41
0.0
 42
0.0
 43
0.0
 44
0.0
 45
0.0
 46
0.0
 47
0.0
 48
0.0
 49
0.0
140
0.0
141
0.0
142
1.0
143
1.0
 70
  1712
 72
     0
 73
     0
 74
     0
  7

 75
     0
147
1.0
148
0.0
149
0.0
100
AcDbLayout
  1
Model
 70
     1
 71
     0
 10
0.0
 20
0.0
 11
12.0
 21
9.0
 12
0.0
 22
0.0
 32
0.0
 14
0.0
 24
0.0
 34
0.0
 15
0.0
 25
0.0
 35
0.0
146
0.0
 13
0.0
 23
0.0
 33
0.0
 16
1.0
 26
0.0
 36
0.0
 17
0.0
 27
1.0
 37
0.0
 76
     0
330
747D
  0
LAYOUT
  5
173C5
102
{ACAD_XDICTIONARY
360
18EBA
102
}
102
{ACAD_REACTORS
330
173C2
102
}
330
173C2
100
AcDbPlotSettings
  1

  2
Microsoft Office Document Image Writer
  4

  6

 40
0.0
 41
0.0
 42
0.0
 43
0.0
 44
0.0
 45
0.0
 46
0.0
 47
0.0
 48
0.0
 49
0.0
140
0.0
141
0.0
142
1.0
143
1.0
 70
   688
 72
     0
 73
     0
 74
     5
  7

 75
    16
147
1.0
148
0.0
149
0.0
100
AcDbLayout
  1
レイアウト1
 70
     0
 71
     1
 10
0.0
 20
0.0
 11
420.0
 21
297.0
 12
0.0
 22
0.0
 32
0.0
 14
1.000000000000000E+20
 24
1.000000000000000E+20
 34
1.000000000000000E+20
 15
-1.000000000000000E+20
 25
-1.000000000000000E+20
 35
-1.000000000000000E+20
146
0.0
 13
0.0
 23
0.0
 33
0.0
 16
1.0
 26
0.0
 36
0.0
 17
0.0
 27
1.0
 37
0.0
 76
     0
330
747A
  0
MLINESTYLE
  5
7480
102
{ACAD_REACTORS
330
7473
102
}
330
7473
100
AcDbMlineStyle
  2
STANDARD
 70
     0
  3

 62
     0
 51
90.0
 52
90.0
 71
     2
 49
0.5
 62
   256
  6
BYLAYER
 49
-0.5
 62
   256
  6
BYLAYER
  0
ACDBPLACEHOLDER
  5
173BF
102
{ACAD_REACTORS
330
173BE
102
}
330
173BE
  0
XRECORD
  5
18EB7
102
{ACAD_REACTORS
330
18EB5
102
}
330
18EB5
100
AcDbXrecord
280
     1
340
173C1
  0
XRECORD
  5
18EB6
102
{ACAD_REACTORS
330
18EB5
102
}
330
18EB5
100
AcDbXrecord
280
     1
340
173C0
  0
DICTIONARYVAR
  5
18DFC
102
{ACAD_REACTORS
330
18DFB
102
}
330
18DFB
100
DictionaryVariables
280
     0
  1
1
  0
DICTIONARYVAR
  5
18DFD
102
{ACAD_REACTORS
330
18DFB
102
}
330
18DFB
100
DictionaryVariables
280
     0
  1

  0
DICTIONARY
  5
18EB8
330
173C4
100
AcDbDictionary
280
     1
281
     1
  3
ACAD_XREC_ROUNDTRIP
360
18EB9
  0
DICTIONARY
  5
18EBA
330
173C5
100
AcDbDictionary
280
     1
281
     1
  3
ACAD_XREC_ROUNDTRIP
360
18EBB
  0
XRECORD
  5
18EB9
102
{ACAD_REACTORS
330
18EB8
102
}
330
18EB8
100
AcDbXrecord
280
     1
102
SHADEPLOT
 70
     0
102
SHADEPLOTRESLEVEL
 70
     2
102
SHADEPLOTCUSTOMDPI
 70
   300
  0
XRECORD
  5
18EBB
102
{ACAD_REACTORS
330
18EBA
102
}
330
18EBA
100
AcDbXrecord
280
     1
102
SHADEPLOT
 70
     0
102
SHADEPLOTRESLEVEL
 70
     2
102
SHADEPLOTCUSTOMDPI
 70
   300
  0
ENDSEC
  0
EOF
