  0
SECTION
  2
HEADER
  9
$ACADVER
  1
AC1015
  9
$ACADMAINTVER
 70
    20
  9
$DWGCODEPAGE
  3
ANSI_932
  9
$INSBASE
 10
0.0
 20
0.0
 30
0.0
  9
$EXTMIN
 10
139.9999999999995
 20
-0.0000000000000909
 30
0.0
  9
$EXTMAX
 10
16307.2
 20
11409.6
 30
0.0
  9
$LIMMIN
 10
0.0
 20
0.0
  9
$LIMMAX
 10
16800.0
 20
11880.0
  9
$ORTHOMODE
 70
     0
  9
$REGENMODE
 70
     1
  9
$FILLMODE
 70
     1
  9
$QTEXTMODE
 70
     0
  9
$MIRRTEXT
 70
     1
  9
$LTSCALE
 40
20.0
  9
$ATTMODE
 70
     1
  9
$TEXTSIZE
 40
4.0
  9
$TRACEWID
 40
1.0
  9
$TEXTSTYLE
  7
STYLE1
  9
$CLAYER
  8
部品1
  9
$CELTYPE
  6
BYLAYER
  9
$CECOLOR
 62
   256
  9
$CELTSCALE
 40
50.0
  9
$DISPSILH
 70
     0
  9
$DIMSCALE
 40
40.0
  9
$DIMASZ
 40
2.5
  9
$DIMEXO
 40
0.5
  9
$DIMDLI
 40
7.0
  9
$DIMRND
 40
0.0
  9
$DIMDLE
 40
0.0
  9
$DIMEXE
 40
1.5
  9
$DIMTP
 40
0.0
  9
$DIMTM
 40
0.0
  9
$DIMTXT
 40
3.0
  9
$DIMCEN
 40
0.0
  9
$DIMTSZ
 40
0.0
  9
$DIMTOL
 70
     0
  9
$DIMLIM
 70
     0
  9
$DIMTIH
 70
     0
  9
$DIMTOH
 70
     0
  9
$DIMSE1
 70
     0
  9
$DIMSE2
 70
     0
  9
$DIMTAD
 70
     3
  9
$DIMZIN
 70
     8
  9
$DIMBLK
  1

  9
$DIMASO
 70
     1
  9
$DIMSHO
 70
     1
  9
$DIMPOST
  1

  9
$DIMAPOST
  1

  9
$DIMALT
 70
     0
  9
$DIMALTD
 70
     2
  9
$DIMALTF
 40
0.0394
  9
$DIMLFAC
 40
1.0
  9
$DIMTOFL
 70
     1
  9
$DIMTVP
 40
0.0
  9
$DIMTIX
 70
     1
  9
$DIMSOXD
 70
     0
  9
$DIMSAH
 70
     1
  9
$DIMBLK1
  1
DOTSMALL
  9
$DIMBLK2
  1
DOTSMALL
  9
$DIMSTYLE
  2
INABA_S40G
  9
$DIMCLRD
 70
     0
  9
$DIMCLRE
 70
     0
  9
$DIMCLRT
 70
     7
  9
$DIMTFAC
 40
1.0
  9
$DIMGAP
 40
1.0
  9
$DIMJUST
 70
     0
  9
$DIMSD1
 70
     0
  9
$DIMSD2
 70
     0
  9
$DIMTOLJ
 70
     1
  9
$DIMTZIN
 70
     0
  9
$DIMALTZ
 70
     0
  9
$DIMALTTZ
 70
     0
  9
$DIMUPT
 70
     1
  9
$DIMDEC
 70
     1
  9
$DIMTDEC
 70
     4
  9
$DIMALTU
 70
     2
  9
$DIMALTTD
 70
     2
  9
$DIMTXSTY
  7
STYLE1
  9
$DIMAUNIT
 70
     0
  9
$DIMADEC
 70
     0
  9
$DIMALTRND
 40
0.0
  9
$DIMAZIN
 70
     0
  9
$DIMDSEP
 70
    46
  9
$DIMATFIT
 70
     3
  9
$DIMFRAC
 70
     0
  9
$DIMLDRBLK
  1

  9
$DIMLUNIT
 70
     2
  9
$DIMLWD
 70
    -2
  9
$DIMLWE
 70
    -2
  9
$DIMTMOVE
 70
     0
  9
$LUNITS
 70
     2
  9
$LUPREC
 70
     1
  9
$SKETCHINC
 40
1.0
  9
$FILLETRAD
 40
3.0
  9
$AUNITS
 70
     0
  9
$AUPREC
 70
     0
  9
$MENU
  1
acad
  9
$ELEVATION
 40
0.0
  9
$PELEVATION
 40
0.0
  9
$THICKNESS
 40
0.0
  9
$LIMCHECK
 70
     0
  9
$CHAMFERA
 40
0.0
  9
$CHAMFERB
 40
0.0
  9
$CHAMFERC
 40
0.0
  9
$CHAMFERD
 40
0.0
  9
$SKPOLY
 70
     0
  9
$TDCREATE
 40
2451368.612993866
  9
$TDUCREATE
 40
2451368.237993866
  9
$TDUPDATE
 40
2455575.685961180
  9
$TDUUPDATE
 40
2455575.310961180
  9
$TDINDWG
 40
0.6996245023
  9
$TDUSRTIMER
 40
0.6996245023
  9
$USRTIMER
 70
     1
  9
$ANGBASE
 50
0.0
  9
$ANGDIR
 70
     0
  9
$PDMODE
 70
     3
  9
$PDSIZE
 40
2.0
  9
$PLINEWID
 40
0.0
  9
$SPLFRAME
 70
     0
  9
$SPLINETYPE
 70
     6
  9
$SPLINESEGS
 70
     8
  9
$HANDSEED
  5
1A055
  9
$SURFTAB1
 70
     6
  9
$SURFTAB2
 70
     6
  9
$SURFTYPE
 70
     6
  9
$SURFU
 70
     6
  9
$SURFV
 70
     6
  9
$UCSBASE
  2

  9
$UCSNAME
  2

  9
$UCSORG
 10
0.0
 20
0.0
 30
0.0
  9
$UCSXDIR
 10
1.0
 20
0.0
 30
0.0
  9
$UCSYDIR
 10
0.0
 20
1.0
 30
0.0
  9
$UCSORTHOREF
  2

  9
$UCSORTHOVIEW
 70
     0
  9
$UCSORGTOP
 10
0.0
 20
0.0
 30
0.0
  9
$UCSORGBOTTOM
 10
0.0
 20
0.0
 30
0.0
  9
$UCSORGLEFT
 10
0.0
 20
0.0
 30
0.0
  9
$UCSORGRIGHT
 10
0.0
 20
0.0
 30
0.0
  9
$UCSORGFRONT
 10
0.0
 20
0.0
 30
0.0
  9
$UCSORGBACK
 10
0.0
 20
0.0
 30
0.0
  9
$PUCSBASE
  2

  9
$PUCSNAME
  2

  9
$PUCSORG
 10
0.0
 20
0.0
 30
0.0
  9
$PUCSXDIR
 10
1.0
 20
0.0
 30
0.0
  9
$PUCSYDIR
 10
0.0
 20
1.0
 30
0.0
  9
$PUCSORTHOREF
  2

  9
$PUCSORTHOVIEW
 70
     0
  9
$PUCSORGTOP
 10
0.0
 20
0.0
 30
0.0
  9
$PUCSORGBOTTOM
 10
0.0
 20
0.0
 30
0.0
  9
$PUCSORGLEFT
 10
0.0
 20
0.0
 30
0.0
  9
$PUCSORGRIGHT
 10
0.0
 20
0.0
 30
0.0
  9
$PUCSORGFRONT
 10
0.0
 20
0.0
 30
0.0
  9
$PUCSORGBACK
 10
0.0
 20
0.0
 30
0.0
  9
$USERI1
 70
     0
  9
$USERI2
 70
     0
  9
$USERI3
 70
     0
  9
$USERI4
 70
     0
  9
$USERI5
 70
     0
  9
$USERR1
 40
0.0
  9
$USERR2
 40
0.0
  9
$USERR3
 40
0.0
  9
$USERR4
 40
0.0
  9
$USERR5
 40
0.0
  9
$WORLDVIEW
 70
     1
  9
$SHADEDGE
 70
     3
  9
$SHADEDIF
 70
    70
  9
$TILEMODE
 70
     1
  9
$MAXACTVP
 70
    16
  9
$PINSBASE
 10
0.0
 20
0.0
 30
0.0
  9
$PLIMCHECK
 70
     0
  9
$PEXTMIN
 10
1.000000000000000E+20
 20
1.000000000000000E+20
 30
1.000000000000000E+20
  9
$PEXTMAX
 10
-1.000000000000000E+20
 20
-1.000000000000000E+20
 30
-1.000000000000000E+20
  9
$PLIMMIN
 10
0.0
 20
0.0
  9
$PLIMMAX
 10
420.0
 20
297.0
  9
$UNITMODE
 70
     0
  9
$VISRETAIN
 70
     0
  9
$PLINEGEN
 70
     0
  9
$PSLTSCALE
 70
     0
  9
$TREEDEPTH
 70
  3020
  9
$CMLSTYLE
  2
STANDARD
  9
$CMLJUST
 70
     0
  9
$CMLSCALE
 40
1.0
  9
$PROXYGRAPHICS
 70
     1
  9
$MEASUREMENT
 70
     1
  9
$CELWEIGHT
370
    -1
  9
$ENDCAPS
280
     0
  9
$JOINSTYLE
280
     0
  9
$LWDISPLAY
290
     0
  9
$INSUNITS
 70
     0
  9
$HYPERLINKBASE
  1

  9
$STYLESHEET
  1

  9
$XEDIT
290
     1
  9
$CEPSNTYPE
380
     0
  9
$PSTYLEMODE
290
     1
  9
$FINGERPRINTGUID
  2
{D2C108CD-0136-4987-B63F-B2578455ADE1}
  9
$VERSIONGUID
  2
{61D73DE9-B28D-46F2-88D3-2323359E4F3E}
  9
$EXTNAMES
290
     1
  9
$PSVPSCALE
 40
0.0
  9
$OLESTARTUP
290
     0
  0
ENDSEC
  0
SECTION
  2
CLASSES
  0
CLASS
  1
ACDBDICTIONARYWDFLT
  2
AcDbDictionaryWithDefault
  3
ObjectDBX Classes
 90
        0
280
     0
281
     0
  0
CLASS
  1
DICTIONARYVAR
  2
AcDbDictionaryVar
  3
ObjectDBX Classes
 90
        0
280
     0
281
     0
  0
CLASS
  1
ACDBPLACEHOLDER
  2
AcDbPlaceHolder
  3
ObjectDBX Classes
 90
        0
280
     0
281
     0
  0
CLASS
  1
LAYOUT
  2
AcDbLayout
  3
ObjectDBX Classes
 90
        0
280
     0
281
     0
  0
ENDSEC
  0
SECTION
  2
TABLES
  0
TABLE
  2
VPORT
  5
746D
330
0
100
AcDbSymbolTable
 70
     2
  0
VPORT
  5
1A04D
330
746D
100
AcDbSymbolTableRecord
100
AcDbViewportTableRecord
  2
*Active
 70
     0
 10
0.0
 20
0.0
 11
1.0
 21
1.0
 12
8223.761025238502
 22
6348.703162895247
 13
0.0
 23
0.0
 14
10.0
 24
10.0
 15
10.0
 25
10.0
 16
0.0
 26
0.0
 36
1.0
 17
0.0
 27
0.0
 37
0.0
 40
12805.60689082044
 41
1.525925925925925
 42
50.0
 43
0.0
 44
0.0
 50
0.0
 51
0.0
 71
     0
 72
     0
 73
     1
 74
     0
 75
     0
 76
     0
 77
     0
 78
     0
281
     0
 65
     1
110
0.0
120
0.0
130
0.0
111
1.0
121
0.0
131
0.0
112
0.0
122
1.0
132
0.0
 79
     0
146
0.0
  0
ENDTAB
  0
TABLE
  2
LTYPE
  5
746A
330
0
100
AcDbSymbolTable
 70
     4
  0
LTYPE
  5
7477
330
746A
100
AcDbSymbolTableRecord
100
AcDbLinetypeTableRecord
  2
BYBLOCK
 70
     0
  3

 72
    65
 73
     0
 40
0.0
  0
LTYPE
  5
7478
330
746A
100
AcDbSymbolTableRecord
100
AcDbLinetypeTableRecord
  2
BYLAYER
 70
     0
  3

 72
    65
 73
     0
 40
0.0
  0
LTYPE
  5
7479
330
746A
100
AcDbSymbolTableRecord
100
AcDbLinetypeTableRecord
  2
CONTINUOUS
 70
     0
  3
Solid line
 72
    65
 73
     0
 40
0.0
  0
LTYPE
  5
7816
330
746A
100
AcDbSymbolTableRecord
100
AcDbLinetypeTableRecord
  2
CENTER
 70
     0
  3
____ _ ____ _ ____ _ ____ _ ____ _ ____ _ ____ 
 72
    65
 73
     4
 40
2.0
 49
1.25
 74
     0
 49
-0.25
 74
     0
 49
0.25
 74
     0
 49
-0.25
 74
     0
  0
LTYPE
  5
781A
330
746A
100
AcDbSymbolTableRecord
100
AcDbLinetypeTableRecord
  2
HIDDEN
 70
     0
  3
__ __ __ __ __ __ __ __ __ __ __ __ __ __ __ __
 72
    65
 73
     2
 40
0.375
 49
0.25
 74
     0
 49
-0.125
 74
     0
  0
LTYPE
  5
781B
330
746A
100
AcDbSymbolTableRecord
100
AcDbLinetypeTableRecord
  2
PHANTOM
 70
     0
  3
______  __  __  ______  __  __  ______  __  __ 
 72
    65
 73
     6
 40
2.5
 49
1.25
 74
     0
 49
-0.25
 74
     0
 49
0.25
 74
     0
 49
-0.25
 74
     0
 49
0.25
 74
     0
 49
-0.25
 74
     0
  0
ENDTAB
  0
TABLE
  2
LAYER
  5
7467
102
{ACAD_XDICTIONARY
360
18D90
102
}
330
0
100
AcDbSymbolTable
 70
    12
  0
LAYER
  5
7474
330
7467
100
AcDbSymbolTableRecord
100
AcDbLayerTableRecord
  2
0
 70
     0
 62
     7
  6
CONTINUOUS
370
    -3
390
18C01
  0
LAYER
  5
DEB2
330
7467
100
AcDbSymbolTableRecord
100
AcDbLayerTableRecord
  2
センター
 70
     0
 62
     3
  6
CENTER
370
    -3
390
18C01
  0
LAYER
  5
DEB3
330
7467
100
AcDbSymbolTableRecord
100
AcDbLayerTableRecord
  2
寸法
 70
     0
 62
     4
  6
CONTINUOUS
370
    -3
390
18C01
  0
LAYER
  5
DEB4
330
7467
100
AcDbSymbolTableRecord
100
AcDbLayerTableRecord
  2
部品1
 70
     0
 62
     7
  6
CONTINUOUS
370
    -3
390
18C01
  0
LAYER
  5
DEB5
330
7467
100
AcDbSymbolTableRecord
100
AcDbLayerTableRecord
  2
補助
 70
     0
 62
    -1
  6
CONTINUOUS
370
    -3
390
18C01
  0
LAYER
  5
DEB6
330
7467
100
AcDbSymbolTableRecord
100
AcDbLayerTableRecord
  2
文字
 70
     0
 62
     7
  6
CONTINUOUS
370
    -3
390
18C01
  0
LAYER
  5
F255
330
7467
100
AcDbSymbolTableRecord
100
AcDbLayerTableRecord
  2
DEFPOINTS
 70
     0
 62
     7
  6
CONTINUOUS
290
     0
370
    -3
390
18C01
  0
LAYER
  5
10B54
330
7467
100
AcDbSymbolTableRecord
100
AcDbLayerTableRecord
  2
仕様書枠
 70
     0
 62
   230
  6
CONTINUOUS
370
    -3
390
18C01
  0
LAYER
  5
11729
330
7467
100
AcDbSymbolTableRecord
100
AcDbLayerTableRecord
  2
Ｇ．Ｌ
 70
     0
 62
    30
  6
CONTINUOUS
370
    -3
390
18C01
  0
LAYER
  5
1173F
330
7467
100
AcDbSymbolTableRecord
100
AcDbLayerTableRecord
  2
細線
 70
     0
 62
     5
  6
CONTINUOUS
370
    -3
390
18C01
  0
LAYER
  5
12CC4
330
7467
100
AcDbSymbolTableRecord
100
AcDbLayerTableRecord
  2
想像線
 70
     0
 62
     6
  6
PHANTOM
370
    -3
390
18C01
  0
LAYER
  5
142E2
330
7467
100
AcDbSymbolTableRecord
100
AcDbLayerTableRecord
  2
破線
 70
     0
 62
     2
  6
HIDDEN
370
    -3
390
18C01
  0
ENDTAB
  0
TABLE
  2
STYLE
  5
7468
330
0
100
AcDbSymbolTable
 70
     4
  0
STYLE
  5
7475
330
7468
100
AcDbSymbolTableRecord
100
AcDbTextStyleTableRecord
  2
STANDARD
 70
     0
 40
0.0
 41
1.0
 50
0.0
 71
     0
 42
4.0
  3
txt
  4
C:\AutoCAD LT\bigfont.shx
  0
STYLE
  5
F706
330
7468
100
AcDbSymbolTableRecord
100
AcDbTextStyleTableRecord
  2
STYLE1
 70
     0
 40
0.0
 41
1.0
 50
0.0
 71
     0
 42
4.0
  3
isocp.shx
  4
bigfont.shx
  0
STYLE
  5
103BF
330
7468
100
AcDbSymbolTableRecord
100
AcDbTextStyleTableRecord
  2
STYLE2
 70
     0
 40
0.0
 41
1.0
 50
0.0
 71
     0
 42
100.0
  3
MS PGothic.ttf
  4

1001
ACAD
1000
MS PGothic
1071
    32818
  0
STYLE
  5
19782
330
7468
100
AcDbSymbolTableRecord
100
AcDbTextStyleTableRecord
  2
STYLE3
 70
     0
 40
0.0
 41
1.0
 50
0.0
 71
     0
 42
100.0
  3

  4

1001
ACAD
1000
DFPGothic-EB
1071
    32818
  0
ENDTAB
  0
TABLE
  2
VIEW
  5
746B
330
0
100
AcDbSymbolTable
 70
     0
  0
ENDTAB
  0
TABLE
  2
UCS
  5
746C
330
0
100
AcDbSymbolTable
 70
     0
  0
ENDTAB
  0
TABLE
  2
APPID
  5
746E
330
0
100
AcDbSymbolTable
 70
     6
  0
APPID
  5
7476
330
746E
100
AcDbSymbolTableRecord
100
AcDbRegAppTableRecord
  2
ACAD
 70
     0
  0
APPID
  5
DEA9
330
746E
100
AcDbSymbolTableRecord
100
AcDbRegAppTableRecord
  2
CONTENTBLOCKICON
 70
     0
  0
APPID
  5
DEAA
330
746E
100
AcDbSymbolTableRecord
100
AcDbRegAppTableRecord
  2
CONTENTBLOCKDESCRIPTION
 70
     0
  0
APPID
  5
E71D
330
746E
100
AcDbSymbolTableRecord
100
AcDbRegAppTableRecord
  2
CONTENTTABDATA
 70
     0
  0
APPID
  5
E71E
330
746E
100
AcDbSymbolTableRecord
100
AcDbRegAppTableRecord
  2
CONTENTCURRENTTAB
 70
     0
  0
APPID
  5
F3BA
330
746E
100
AcDbSymbolTableRecord
100
AcDbRegAppTableRecord
  2
DRAWINGVARIABLESXDATA
 70
     0
  0
ENDTAB
  0
TABLE
  2
DIMSTYLE
  5
746F
330
0
100
AcDbSymbolTable
 70
     5
100
AcDbDimStyleTable
 71
     0
  0
DIMSTYLE
105
7484
330
746F
100
AcDbSymbolTableRecord
100
AcDbDimStyleTableRecord
  2
JIS
 70
     0
 41
2.5
 42
1.0
 43
7.0
 44
1.0
 73
     0
 74
     0
 77
     1
 78
     8
140
2.5
141
0.0
143
0.0394
147
0.0
172
     1
174
     1
175
     1
340
7475
  0
DIMSTYLE
105
F71F
102
{ACAD_REACTORS
330
19293
330
19294
330
19295
330
19296
330
19297
330
1929B
330
1929C
330
190BE
330
190C2
330
19198
330
1919A
330
191A7
330
191A8
330
191A9
330
191B0
330
191B5
330
191FE
330
1925B
330
19272
330
19273
330
19274
330
19275
330
19036
330
19042
330
1907D
330
1907E
330
1907F
330
19D06
330
19D0D
102
}
330
746F
100
AcDbSymbolTableRecord
100
AcDbDimStyleTableRecord
  2
INABA_S40G
 70
     0
 40
40.0
 41
2.5
 42
0.5
 43
7.0
 44
1.5
 73
     0
 74
     0
 77
     3
 78
     8
140
3.0
141
0.0
143
0.0394
147
1.0
172
     1
173
     1
174
     1
178
     7
271
     1
288
     1
340
F706
341
F770
343
F770
344
F770
  0
DIMSTYLE
105
18D8F
102
{ACAD_REACTORS
330
19AB0
330
19D0C
102
}
330
746F
100
AcDbSymbolTableRecord
100
AcDbDimStyleTableRecord
  2
INABA_S40
 70
     0
 40
40.0
 41
2.5
 42
0.5
 43
7.0
 44
1.5
 73
     0
 74
     0
 77
     3
 78
     8
140
3.0
141
0.0
143
0.0394
147
1.0
172
     1
173
     1
174
     1
175
     1
178
     7
340
7475
  0
DIMSTYLE
105
19783
330
746F
100
AcDbSymbolTableRecord
100
AcDbDimStyleTableRecord
  2
INABA_S50G
 70
     0
 41
125.0
 42
25.0
 43
7.0
 44
75.0
 73
     0
 74
     0
 77
     3
 78
     8
140
150.0
141
0.0
143
0.0394
147
25.0
172
     1
173
     1
174
     1
175
     1
178
     7
271
     1
340
F706
341
F770
343
F770
344
F770
  0
DIMSTYLE
105
19FE3
330
746F
100
AcDbSymbolTableRecord
100
AcDbDimStyleTableRecord
  2
INABA_S20G
 70
     0
 40
20.0
 41
2.5
 42
0.5
 43
7.0
 44
1.5
 73
     0
 74
     0
 77
     3
 78
     8
140
3.0
141
0.0
143
0.0394
147
1.0
172
     1
173
     1
174
     1
178
     7
271
     1
340
F706
341
F770
343
F770
344
F770
  0
ENDTAB
  0
TABLE
  2
BLOCK_RECORD
  5
7466
330
0
100
AcDbSymbolTable
 70
    33
  0
BLOCK_RECORD
  5
747D
330
7466
100
AcDbSymbolTableRecord
100
AcDbBlockTableRecord
  2
*MODEL_SPACE
340
18C06
  0
BLOCK_RECORD
  5
747A
330
7466
100
AcDbSymbolTableRecord
100
AcDbBlockTableRecord
  2
*PAPER_SPACE
340
18C07
  0
BLOCK_RECORD
  5
F770
330
7466
100
AcDbSymbolTableRecord
100
AcDbBlockTableRecord
  2
_DOTSMALL
340
0
102
{BLKREFS
331
19873
331
19874
331
1987D
331
1987E
331
19888
331
19889
331
19891
331
19892
331
1989A
331
1989B
331
198A4
331
198A5
331
198AD
331
198AE
331
198B8
331
198B9
331
198C1
331
198C2
331
198CA
331
198CB
331
198D3
331
198D4
331
19940
331
19941
331
19949
331
1994A
331
19952
331
19953
331
1995D
331
1995E
331
19966
331
19967
331
19971
331
19972
331
19F55
331
19F56
331
19F69
331
19F6A
331
19F7B
331
19F7C
331
19F84
331
19F85
331
19F8F
331
19F90
331
19F98
331
19F99
331
19FA3
331
19FA4
331
19FAE
331
19FAF
331
19FB7
331
19FB8
331
19FC2
331
19FC3
331
19FCB
331
19FCC
331
19FD4
331
19FD5
102
}
  0
BLOCK_RECORD
  5
18C0E
330
7466
100
AcDbSymbolTableRecord
100
AcDbBlockTableRecord
  2
_DOT
340
0
102
{BLKREFS
331
19F60
331
19F61
331
19F72
331
19F73
102
}
  0
BLOCK_RECORD
  5
192C2
330
7466
100
AcDbSymbolTableRecord
100
AcDbBlockTableRecord
  2
*D2
340
0
  0
BLOCK_RECORD
  5
192CE
330
7466
100
AcDbSymbolTableRecord
100
AcDbBlockTableRecord
  2
*D3
340
0
  0
BLOCK_RECORD
  5
192DA
330
7466
100
AcDbSymbolTableRecord
100
AcDbBlockTableRecord
  2
*D4
340
0
  0
BLOCK_RECORD
  5
192E8
330
7466
100
AcDbSymbolTableRecord
100
AcDbBlockTableRecord
  2
*D5
340
0
  0
BLOCK_RECORD
  5
192F5
330
7466
100
AcDbSymbolTableRecord
100
AcDbBlockTableRecord
  2
*D6
340
0
  0
BLOCK_RECORD
  5
19301
330
7466
100
AcDbSymbolTableRecord
100
AcDbBlockTableRecord
  2
*D7
340
0
  0
BLOCK_RECORD
  5
1930D
330
7466
100
AcDbSymbolTableRecord
100
AcDbBlockTableRecord
  2
*D8
340
0
  0
BLOCK_RECORD
  5
19319
330
7466
100
AcDbSymbolTableRecord
100
AcDbBlockTableRecord
  2
*D9
340
0
  0
BLOCK_RECORD
  5
19325
330
7466
100
AcDbSymbolTableRecord
100
AcDbBlockTableRecord
  2
*D10
340
0
  0
BLOCK_RECORD
  5
1934B
330
7466
100
AcDbSymbolTableRecord
100
AcDbBlockTableRecord
  2
*D11
340
0
  0
BLOCK_RECORD
  5
19357
330
7466
100
AcDbSymbolTableRecord
100
AcDbBlockTableRecord
  2
*D12
340
0
  0
BLOCK_RECORD
  5
19371
330
7466
100
AcDbSymbolTableRecord
100
AcDbBlockTableRecord
  2
*D13
340
0
  0
BLOCK_RECORD
  5
1937D
330
7466
100
AcDbSymbolTableRecord
100
AcDbBlockTableRecord
  2
*D14
340
0
  0
BLOCK_RECORD
  5
1938B
330
7466
100
AcDbSymbolTableRecord
100
AcDbBlockTableRecord
  2
*D15
340
0
  0
BLOCK_RECORD
  5
19399
330
7466
100
AcDbSymbolTableRecord
100
AcDbBlockTableRecord
  2
*D16
340
0
  0
BLOCK_RECORD
  5
193A5
330
7466
100
AcDbSymbolTableRecord
100
AcDbBlockTableRecord
  2
*D17
340
0
  0
BLOCK_RECORD
  5
193B3
330
7466
100
AcDbSymbolTableRecord
100
AcDbBlockTableRecord
  2
*D18
340
0
  0
BLOCK_RECORD
  5
193BF
330
7466
100
AcDbSymbolTableRecord
100
AcDbBlockTableRecord
  2
*D19
340
0
  0
BLOCK_RECORD
  5
193CB
330
7466
100
AcDbSymbolTableRecord
100
AcDbBlockTableRecord
  2
*D20
340
0
  0
BLOCK_RECORD
  5
193D7
330
7466
100
AcDbSymbolTableRecord
100
AcDbBlockTableRecord
  2
*D21
340
0
  0
BLOCK_RECORD
  5
193E5
330
7466
100
AcDbSymbolTableRecord
100
AcDbBlockTableRecord
  2
*D22
340
0
  0
BLOCK_RECORD
  5
193F1
330
7466
100
AcDbSymbolTableRecord
100
AcDbBlockTableRecord
  2
*D23
340
0
  0
BLOCK_RECORD
  5
193FE
330
7466
100
AcDbSymbolTableRecord
100
AcDbBlockTableRecord
  2
*D24
340
0
  0
BLOCK_RECORD
  5
1940A
330
7466
100
AcDbSymbolTableRecord
100
AcDbBlockTableRecord
  2
*D25
340
0
  0
BLOCK_RECORD
  5
19418
330
7466
100
AcDbSymbolTableRecord
100
AcDbBlockTableRecord
  2
*D26
340
0
  0
BLOCK_RECORD
  5
19424
330
7466
100
AcDbSymbolTableRecord
100
AcDbBlockTableRecord
  2
*D27
340
0
  0
BLOCK_RECORD
  5
19432
330
7466
100
AcDbSymbolTableRecord
100
AcDbBlockTableRecord
  2
*D28
340
0
  0
BLOCK_RECORD
  5
19B14
330
7466
100
AcDbSymbolTableRecord
100
AcDbBlockTableRecord
  2
*D29
340
0
  0
BLOCK_RECORD
  5
19DFB
330
7466
100
AcDbSymbolTableRecord
100
AcDbBlockTableRecord
  2
*D30
340
0
  0
BLOCK_RECORD
  5
19E07
330
7466
100
AcDbSymbolTableRecord
100
AcDbBlockTableRecord
  2
*D31
340
0
  0
BLOCK_RECORD
  5
19E15
330
7466
100
AcDbSymbolTableRecord
100
AcDbBlockTableRecord
  2
*D32
340
0
  0
ENDTAB
  0
ENDSEC
  0
SECTION
  2
BLOCKS
  0
BLOCK
  5
7489
330
747D
100
AcDbEntity
  8
0
100
AcDbBlockBegin
  2
*MODEL_SPACE
 70
     0
 10
0.0
 20
0.0
 30
0.0
  3
*MODEL_SPACE
  1

  0
ENDBLK
  5
748A
330
747D
100
AcDbEntity
  8
0
100
AcDbBlockEnd
  0
BLOCK
  5
7487
330
747A
100
AcDbEntity
 67
     1
  8
0
100
AcDbBlockBegin
  2
*PAPER_SPACE
 70
     0
 10
0.0
 20
0.0
 30
0.0
  3
*PAPER_SPACE
  1

  0
ENDBLK
  5
7488
330
747A
100
AcDbEntity
 67
     1
  8
0
100
AcDbBlockEnd
  0
BLOCK
  5
F771
330
F770
100
AcDbEntity
  8
0
 48
50.0
100
AcDbBlockBegin
  2
_DOTSMALL
 70
     0
 10
0.0
 20
0.0
 30
0.0
  3
_DOTSMALL
  1

  0
LWPOLYLINE
  5
F772
330
F770
100
AcDbEntity
  8
0
  6
ByBlock
 62
     0
 48
50.0
100
AcDbPolyline
 90
        2
 70
     1
 43
0.5
 10
-0.0625
 20
0.0
 42
1.0
 10
0.0625
 20
0.0
 42
1.0
  0
ENDBLK
  5
F776
330
F770
100
AcDbEntity
  8
0
 48
50.0
100
AcDbBlockEnd
  0
BLOCK
  5
18C0F
330
18C0E
100
AcDbEntity
  8
0
 48
50.0
100
AcDbBlockBegin
  2
_DOT
 70
     0
 10
0.0
 20
0.0
 30
0.0
  3
_DOT
  1

  0
LWPOLYLINE
  5
18C10
330
18C0E
100
AcDbEntity
  8
0
  6
ByBlock
 62
     0
 48
50.0
100
AcDbPolyline
 90
        2
 70
     1
 43
0.5
 10
-0.25
 20
0.0
 42
1.0
 10
0.25
 20
0.0
 42
1.0
  0
LINE
  5
18C11
330
18C0E
100
AcDbEntity
  8
0
  6
ByBlock
 62
     0
 48
50.0
100
AcDbLine
 10
-0.5
 20
0.0
 30
0.0
 11
-1.0
 21
0.0
 31
0.0
  0
ENDBLK
  5
18C12
330
18C0E
100
AcDbEntity
  8
0
 48
50.0
100
AcDbBlockEnd
  0
BLOCK
  5
192CC
330
192C2
100
AcDbEntity
  8
0
 48
50.0
100
AcDbBlockBegin
  2
*D2
 70
     1
 10
0.0
 20
0.0
 30
0.0
  3
*D2
  1

  0
LINE
  5
19897
330
192C2
100
AcDbEntity
  8
寸法
 62
     0
 48
50.0
370
    -2
100
AcDbLine
 10
9264.47148558125
 20
1643.469710985793
 30
0.0
 11
8315.83210365189
 21
1643.469710985793
 31
0.0
  0
LINE
  5
19898
330
192C2
100
AcDbEntity
  8
寸法
 62
     0
 48
50.0
370
    -2
100
AcDbLine
 10
9204.471485581249
 20
4018.469710985798
 30
0.0
 11
8315.83210365189
 21
4018.469710985798
 31
0.0
  0
LINE
  5
19899
330
192C2
100
AcDbEntity
  8
寸法
 62
     0
 48
50.0
370
    -2
100
AcDbLine
 10
8375.832103651891
 20
1643.469710985793
 30
0.0
 11
8375.832103651891
 21
4018.469710985798
 31
0.0
  0
INSERT
  5
1989A
330
192C2
100
AcDbEntity
  8
寸法
 62
     0
 48
50.0
370
    -2
100
AcDbBlockReference
  2
_DOTSMALL
 10
8375.832103651891
 20
1643.469710985793
 30
0.0
 41
100.0
 42
100.0
 43
100.0
 50
270.0
  0
INSERT
  5
1989B
330
192C2
100
AcDbEntity
  8
寸法
 62
     0
 48
50.0
370
    -2
100
AcDbBlockReference
  2
_DOTSMALL
 10
8375.832103651891
 20
4018.469710985798
 30
0.0
 41
100.0
 42
100.0
 43
100.0
 50
90.0
  0
MTEXT
  5
1989C
330
192C2
100
AcDbEntity
  8
寸法
 62
     7
 48
50.0
100
AcDbMText
 10
8275.820292628269
 20
2713.969710985793
 30
0.0
 40
120.0
 41
0.0
 71
     5
 72
     1
  1
\A1;2375
  7
STYLE1
 11
0.0000000000000001
 21
1.0
 31
0.0
 73
     1
 44
1.0
1001
ACAD
1000
MTEXTBEGIN
1070
    73
1070
     1
1070
    44
1040
1.0
1070
    74
1070
     0
1000
MTEXTEND
  0
POINT
  5
1989D
330
192C2
100
AcDbEntity
  8
DEFPOINTS
 62
     0
 48
50.0
100
AcDbPoint
 10
9284.471485581249
 20
1643.469710985793
 30
0.0
  0
POINT
  5
1989E
330
192C2
100
AcDbEntity
  8
DEFPOINTS
 62
     0
 48
50.0
100
AcDbPoint
 10
9224.471485581249
 20
4018.469710985797
 30
0.0
  0
POINT
  5
1989F
330
192C2
100
AcDbEntity
  8
DEFPOINTS
 62
     0
 48
50.0
100
AcDbPoint
 10
8375.832103651891
 20
4018.469710985798
 30
0.0
  0
ENDBLK
  5
192CD
330
192C2
100
AcDbEntity
  8
0
 48
50.0
100
AcDbBlockEnd
  0
BLOCK
  5
192D8
330
192CE
100
AcDbEntity
  8
0
 48
50.0
100
AcDbBlockBegin
  2
*D3
 70
     1
 10
0.0
 20
0.0
 30
0.0
  3
*D3
  1

  0
LINE
  5
1988E
330
192CE
100
AcDbEntity
  8
寸法
 62
     0
 48
50.0
370
    -2
100
AcDbLine
 10
9264.47148558125
 20
3783.469710985793
 30
0.0
 11
8600.818776422952
 21
3783.469710985794
 31
0.0
  0
LINE
  5
1988F
330
192CE
100
AcDbEntity
  8
寸法
 62
     0
 48
50.0
370
    -2
100
AcDbLine
 10
9264.47148558125
 20
1693.469710985793
 30
0.0
 11
8600.818776422952
 21
1693.469710985793
 31
0.0
  0
LINE
  5
19890
330
192CE
100
AcDbEntity
  8
寸法
 62
     0
 48
50.0
370
    -2
100
AcDbLine
 10
8660.818776422951
 20
3783.469710985794
 30
0.0
 11
8660.818776422951
 21
1693.469710985793
 31
0.0
  0
INSERT
  5
19891
330
192CE
100
AcDbEntity
  8
寸法
 62
     0
 48
50.0
370
    -2
100
AcDbBlockReference
  2
_DOTSMALL
 10
8660.818776422951
 20
3783.469710985794
 30
0.0
 41
100.0
 42
100.0
 43
100.0
 50
90.0
  0
INSERT
  5
19892
330
192CE
100
AcDbEntity
  8
寸法
 62
     0
 48
50.0
370
    -2
100
AcDbBlockReference
  2
_DOTSMALL
 10
8660.818776422951
 20
1693.469710985793
 30
0.0
 41
100.0
 42
100.0
 43
100.0
 50
270.0
  0
MTEXT
  5
19893
330
192CE
100
AcDbEntity
  8
寸法
 62
     7
 48
50.0
100
AcDbMText
 10
8560.806965399329
 20
2713.969710985793
 30
0.0
 40
120.0
 41
0.0
 71
     5
 72
     1
  1
\A1;2090
  7
STYLE1
 11
0.0000000000000001
 21
1.0
 31
0.0
 73
     1
 44
1.0
1001
ACAD
1000
MTEXTBEGIN
1070
    73
1070
     1
1070
    44
1040
1.0
1070
    74
1070
     0
1000
MTEXTEND
  0
POINT
  5
19894
330
192CE
100
AcDbEntity
  8
DEFPOINTS
 62
     0
 48
50.0
100
AcDbPoint
 10
9284.471485581249
 20
3783.469710985793
 30
0.0
  0
POINT
  5
19895
330
192CE
100
AcDbEntity
  8
DEFPOINTS
 62
     0
 48
50.0
100
AcDbPoint
 10
9284.471485581249
 20
1693.469710985793
 30
0.0
  0
POINT
  5
19896
330
192CE
100
AcDbEntity
  8
DEFPOINTS
 62
     0
 48
50.0
100
AcDbPoint
 10
8660.818776422951
 20
1693.469710985793
 30
0.0
  0
ENDBLK
  5
192D9
330
192CE
100
AcDbEntity
  8
0
 48
50.0
100
AcDbBlockEnd
  0
BLOCK
  5
192E6
330
192DA
100
AcDbEntity
  8
0
 48
50.0
100
AcDbBlockBegin
  2
*D4
 70
     1
 10
0.0
 20
0.0
 30
0.0
  3
*D4
  1

  0
LINE
  5
19883
330
192DA
100
AcDbEntity
  8
寸法
 62
     0
 48
50.0
370
    -2
100
AcDbLine
 10
9264.47148558125
 20
1693.469710985793
 30
0.0
 11
8600.818776422952
 21
1693.469710985793
 31
0.0
  0
LINE
  5
19884
330
192DA
100
AcDbEntity
  8
寸法
 62
     0
 48
50.0
370
    -2
100
AcDbLine
 10
9209.47148558125
 20
1643.469710985793
 30
0.0
 11
8600.818776422952
 21
1643.469710985793
 31
0.0
  0
LINE
  5
19885
330
192DA
100
AcDbEntity
  8
寸法
 62
     0
 48
50.0
370
    -2
100
AcDbLine
 10
8660.818776422951
 20
1693.469710985793
 30
0.0
 11
8660.818776422951
 21
1793.469710985793
 31
0.0
  0
LINE
  5
19886
330
192DA
100
AcDbEntity
  8
寸法
 62
     0
 48
50.0
370
    -2
100
AcDbLine
 10
8660.818776422951
 20
1643.469710985793
 30
0.0
 11
8660.818776422951
 21
1231.375222796813
 31
0.0
  0
LINE
  5
19887
330
192DA
100
AcDbEntity
  8
寸法
 62
     0
 48
50.0
370
    -2
100
AcDbLine
 10
8660.818776422951
 20
1693.469710985793
 30
0.0
 11
8660.818776422951
 21
1643.469710985793
 31
0.0
  0
INSERT
  5
19888
330
192DA
100
AcDbEntity
  8
寸法
 62
     0
 48
50.0
370
    -2
100
AcDbBlockReference
  2
_DOTSMALL
 10
8660.818776422951
 20
1693.469710985793
 30
0.0
 41
100.0
 42
100.0
 43
100.0
 50
270.0
  0
INSERT
  5
19889
330
192DA
100
AcDbEntity
  8
寸法
 62
     0
 48
50.0
370
    -2
100
AcDbBlockReference
  2
_DOTSMALL
 10
8660.818776422951
 20
1643.469710985793
 30
0.0
 41
100.0
 42
100.0
 43
100.0
 50
90.0
  0
MTEXT
  5
1988A
330
192DA
100
AcDbEntity
  8
寸法
 62
     7
 48
50.0
100
AcDbMText
 10
8560.818776422951
 20
1337.422466891303
 30
0.0
 40
120.0
 41
0.0
 71
     5
 72
     1
  1
\A1;50
  7
STYLE1
 11
0.0000000000000001
 21
1.0
 31
0.0
 73
     1
 44
1.0
1001
ACAD
1000
MTEXTBEGIN
1070
    73
1070
     1
1070
    44
1040
1.0
1070
    74
1070
     0
1000
MTEXTEND
  0
POINT
  5
1988B
330
192DA
100
AcDbEntity
  8
DEFPOINTS
 62
     0
 48
50.0
100
AcDbPoint
 10
9284.471485581249
 20
1693.469710985793
 30
0.0
  0
POINT
  5
1988C
330
192DA
100
AcDbEntity
  8
DEFPOINTS
 62
     0
 48
50.0
100
AcDbPoint
 10
9229.471485581248
 20
1643.469710985793
 30
0.0
  0
POINT
  5
1988D
330
192DA
100
AcDbEntity
  8
DEFPOINTS
 62
     0
 48
50.0
100
AcDbPoint
 10
8660.818776422951
 20
1643.469710985793
 30
0.0
  0
ENDBLK
  5
192E7
330
192DA
100
AcDbEntity
  8
0
 48
50.0
100
AcDbBlockEnd
  0
BLOCK
  5
192F3
330
192E8
100
AcDbEntity
  8
0
 48
50.0
100
AcDbBlockBegin
  2
*D5
 70
     1
 10
0.0
 20
0.0
 30
0.0
  3
*D5
  1

  0
LINE
  5
19879
330
192E8
100
AcDbEntity
  8
寸法
 62
     0
 48
50.0
370
    -2
100
AcDbLine
 10
9209.47148558125
 20
1643.469710985793
 30
0.0
 11
8315.83210365189
 21
1643.469710985793
 31
0.0
  0
LINE
  5
1987A
330
192E8
100
AcDbEntity
  8
寸法
 62
     0
 48
50.0
370
    -2
100
AcDbLine
 10
8640.818776422952
 20
1543.469710985793
 30
0.0
 11
8315.83210365189
 21
1543.469710985793
 31
0.0
  0
LINE
  5
1987B
330
192E8
100
AcDbEntity
  8
寸法
 62
     0
 48
50.0
370
    -2
100
AcDbLine
 10
8375.832103651891
 20
1643.469710985793
 30
0.0
 11
8375.832103651891
 21
1543.469710985793
 31
0.0
  0
LINE
  5
1987C
330
192E8
100
AcDbEntity
  8
寸法
 62
     0
 48
50.0
370
    -2
100
AcDbLine
 10
8375.832103651891
 20
1543.469710985793
 30
0.0
 11
8375.832103651891
 21
1171.375222796813
 31
0.0
  0
INSERT
  5
1987D
330
192E8
100
AcDbEntity
  8
寸法
 62
     0
 48
50.0
370
    -2
100
AcDbBlockReference
  2
_DOTSMALL
 10
8375.832103651891
 20
1643.469710985793
 30
0.0
 41
100.0
 42
100.0
 43
100.0
 50
90.0
  0
INSERT
  5
1987E
330
192E8
100
AcDbEntity
  8
寸法
 62
     0
 48
50.0
370
    -2
100
AcDbBlockReference
  2
_DOTSMALL
 10
8375.832103651891
 20
1543.469710985793
 30
0.0
 41
100.0
 42
100.0
 43
100.0
 50
270.0
  0
MTEXT
  5
1987F
330
192E8
100
AcDbEntity
  8
寸法
 62
     7
 48
50.0
100
AcDbMText
 10
8275.832103651891
 20
1307.422466891303
 30
0.0
 40
120.0
 41
0.0
 71
     5
 72
     1
  1
\A1;100
  7
STYLE1
 11
0.0000000000000001
 21
1.0
 31
0.0
 73
     1
 44
1.0
1001
ACAD
1000
MTEXTBEGIN
1070
    73
1070
     1
1070
    44
1040
1.0
1070
    74
1070
     0
1000
MTEXTEND
  0
POINT
  5
19880
330
192E8
100
AcDbEntity
  8
DEFPOINTS
 62
     0
 48
50.0
100
AcDbPoint
 10
9229.471485581248
 20
1643.469710985793
 30
0.0
  0
POINT
  5
19881
330
192E8
100
AcDbEntity
  8
DEFPOINTS
 62
     0
 48
50.0
100
AcDbPoint
 10
8660.818776422951
 20
1543.469710985793
 30
0.0
  0
POINT
  5
19882
330
192E8
100
AcDbEntity
  8
DEFPOINTS
 62
     0
 48
50.0
100
AcDbPoint
 10
8375.832103651891
 20
1543.469710985793
 30
0.0
  0
ENDBLK
  5
192F4
330
192E8
100
AcDbEntity
  8
0
 48
50.0
100
AcDbBlockEnd
  0
BLOCK
  5
192FF
330
192F5
100
AcDbEntity
  8
0
 48
50.0
100
AcDbBlockBegin
  2
*D6
 70
     1
 10
0.0
 20
0.0
 30
0.0
  3
*D6
  1

  0
LINE
  5
19870
330
192F5
100
AcDbEntity
  8
寸法
 62
     0
 48
50.0
370
    -2
100
AcDbLine
 10
11094.47148558125
 20
1643.469710985793
 30
0.0
 11
11669.64158134367
 21
1643.469710985793
 31
0.0
  0
LINE
  5
19871
330
192F5
100
AcDbEntity
  8
寸法
 62
     0
 48
50.0
370
    -2
100
AcDbLine
 10
11174.47148558123
 20
3963.469710985796
 30
0.0
 11
11669.64158134367
 21
3963.469710985794
 31
0.0
  0
LINE
  5
19872
330
192F5
100
AcDbEntity
  8
寸法
 62
     0
 48
50.0
370
    -2
100
AcDbLine
 10
11609.64158134367
 20
1643.469710985793
 30
0.0
 11
11609.64158134367
 21
3963.469710985794
 31
0.0
  0
INSERT
  5
19873
330
192F5
100
AcDbEntity
  8
寸法
 62
     0
 48
50.0
370
    -2
100
AcDbBlockReference
  2
_DOTSMALL
 10
11609.64158134367
 20
1643.469710985793
 30
0.0
 41
100.0
 42
100.0
 43
100.0
 50
270.0
  0
INSERT
  5
19874
330
192F5
100
AcDbEntity
  8
寸法
 62
     0
 48
50.0
370
    -2
100
AcDbBlockReference
  2
_DOTSMALL
 10
11609.64158134367
 20
3963.469710985794
 30
0.0
 41
100.0
 42
100.0
 43
100.0
 50
90.0
  0
MTEXT
  5
19875
330
192F5
100
AcDbEntity
  8
寸法
 62
     7
 48
50.0
100
AcDbMText
 10
11509.62977032005
 20
2925.726038415481
 30
0.0
 40
120.0
 41
0.0
 71
     5
 72
     1
  1
\A1;2320
  7
STYLE1
 11
0.0000000000000001
 21
1.0
 31
0.0
 73
     1
 44
1.0
1001
ACAD
1000
MTEXTBEGIN
1070
    73
1070
     1
1070
    44
1040
1.0
1070
    74
1070
     0
1000
MTEXTEND
  0
POINT
  5
19876
330
192F5
100
AcDbEntity
  8
DEFPOINTS
 62
     0
 48
50.0
100
AcDbPoint
 10
11074.47148558125
 20
1643.469710985793
 30
0.0
  0
POINT
  5
19877
330
192F5
100
AcDbEntity
  8
DEFPOINTS
 62
     0
 48
50.0
100
AcDbPoint
 10
11154.47148558123
 20
3963.469710985796
 30
0.0
  0
POINT
  5
19878
330
192F5
100
AcDbEntity
  8
DEFPOINTS
 62
     0
 48
50.0
100
AcDbPoint
 10
11609.64158134367
 20
3963.469710985794
 30
0.0
  0
ENDBLK
  5
19300
330
192F5
100
AcDbEntity
  8
0
 48
50.0
100
AcDbBlockEnd
  0
BLOCK
  5
1930B
330
19301
100
AcDbEntity
  8
0
 48
50.0
100
AcDbBlockBegin
  2
*D7
 70
     1
 10
0.0
 20
0.0
 30
0.0
  3
*D7
  1

  0
LINE
  5
19F81
330
19301
100
AcDbEntity
  8
寸法
 62
     0
 48
50.0
370
    -2
100
AcDbLine
 10
10574.47148558139
 20
8203.663970147607
 30
0.0
 11
10331.82988416809
 21
8268.679591296494
 31
0.0
  0
LINE
  5
19F82
330
19301
100
AcDbEntity
  8
寸法
 62
     0
 48
50.0
370
    -2
100
AcDbLine
 10
10574.47148558138
 20
6930.663970147596
 30
0.0
 11
10331.82988416809
 21
6995.679591296482
 31
0.0
  0
LINE
  5
19F83
330
19301
100
AcDbEntity
  8
寸法
 62
     0
 48
50.0
370
    -2
100
AcDbLine
 10
10391.82988416809
 20
8252.602639750628
 30
0.0
 11
10391.82988416809
 21
6979.602639750615
 31
0.0
  0
INSERT
  5
19F84
330
19301
100
AcDbEntity
  8
寸法
 62
     0
 48
50.0
370
    -2
100
AcDbBlockReference
  2
_DOTSMALL
 10
10391.82988416809
 20
8252.602639750628
 30
0.0
 41
100.0
 42
100.0
 43
100.0
 50
90.0
  0
INSERT
  5
19F85
330
19301
100
AcDbEntity
  8
寸法
 62
     0
 48
50.0
370
    -2
100
AcDbBlockReference
  2
_DOTSMALL
 10
10391.82988416809
 20
6979.602639750615
 30
0.0
 41
100.0
 42
100.0
 43
100.0
 50
270.0
  0
MTEXT
  5
19F86
330
19301
100
AcDbEntity
  8
寸法
 62
     7
 48
50.0
100
AcDbMText
 10
10291.81807314447
 20
7560.572438493527
 30
0.0
 40
120.0
 41
0.0
 71
     5
 72
     1
  1
\A1;1273
  7
STYLE1
 11
0.0000000000000001
 21
1.0
 31
0.0
 73
     1
 44
1.0
1001
ACAD
1000
MTEXTBEGIN
1070
    73
1070
     1
1070
    44
1040
1.0
1070
    74
1070
     0
1000
MTEXTEND
  0
POINT
  5
19F87
330
19301
100
AcDbEntity
  8
DEFPOINTS
 62
     0
 48
50.0
100
AcDbPoint
 10
10594.47148558139
 20
8198.304986298984
 30
0.0
  0
POINT
  5
19F88
330
19301
100
AcDbEntity
  8
DEFPOINTS
 62
     0
 48
50.0
100
AcDbPoint
 10
10594.47148558138
 20
6925.304986298974
 30
0.0
  0
POINT
  5
19F89
330
19301
100
AcDbEntity
  8
DEFPOINTS
 62
     0
 48
50.0
100
AcDbPoint
 10
10391.82988416809
 20
6979.602639750615
 30
0.0
  0
ENDBLK
  5
1930C
330
19301
100
AcDbEntity
  8
0
 48
50.0
100
AcDbBlockEnd
  0
BLOCK
  5
19317
330
1930D
100
AcDbEntity
  8
0
 48
50.0
100
AcDbBlockBegin
  2
*D8
 70
     1
 10
0.0
 20
0.0
 30
0.0
  3
*D8
  1

  0
LINE
  5
19F78
330
1930D
100
AcDbEntity
  8
寸法
 62
     0
 48
50.0
370
    -2
100
AcDbLine
 10
10574.47148558133
 20
9503.663970147675
 30
0.0
 11
10331.82988416809
 21
9568.67959129655
 31
0.0
  0
LINE
  5
19F79
330
1930D
100
AcDbEntity
  8
寸法
 62
     0
 48
50.0
370
    -2
100
AcDbLine
 10
10574.47148558132
 20
8230.663970147608
 30
0.0
 11
10331.82988416809
 21
8295.67959129648
 31
0.0
  0
LINE
  5
19F7A
330
1930D
100
AcDbEntity
  8
寸法
 62
     0
 48
50.0
370
    -2
100
AcDbLine
 10
10391.82988416809
 20
9552.602639750681
 30
0.0
 11
10391.82988416809
 21
8279.602639750612
 31
0.0
  0
INSERT
  5
19F7B
330
1930D
100
AcDbEntity
  8
寸法
 62
     0
 48
50.0
370
    -2
100
AcDbBlockReference
  2
_DOTSMALL
 10
10391.82988416809
 20
9552.602639750681
 30
0.0
 41
100.0
 42
100.0
 43
100.0
 50
90.0
  0
INSERT
  5
19F7C
330
1930D
100
AcDbEntity
  8
寸法
 62
     0
 48
50.0
370
    -2
100
AcDbBlockReference
  2
_DOTSMALL
 10
10391.82988416809
 20
8279.602639750612
 30
0.0
 41
100.0
 42
100.0
 43
100.0
 50
270.0
  0
MTEXT
  5
19F7D
330
1930D
100
AcDbEntity
  8
寸法
 62
     7
 48
50.0
100
AcDbMText
 10
10291.81807314447
 20
8872.654195708264
 30
0.0
 40
120.0
 41
0.0
 71
     5
 72
     1
  1
\A1;1273
  7
STYLE1
 11
0.0000000000000001
 21
1.0
 31
0.0
 73
     1
 44
1.0
1001
ACAD
1000
MTEXTBEGIN
1070
    73
1070
     1
1070
    44
1040
1.0
1070
    74
1070
     0
1000
MTEXTEND
  0
POINT
  5
19F7E
330
1930D
100
AcDbEntity
  8
DEFPOINTS
 62
     0
 48
50.0
100
AcDbPoint
 10
10594.47148558133
 20
9498.304986299054
 30
0.0
  0
POINT
  5
19F7F
330
1930D
100
AcDbEntity
  8
DEFPOINTS
 62
     0
 48
50.0
100
AcDbPoint
 10
10594.47148558132
 20
8225.304986298985
 30
0.0
  0
POINT
  5
19F80
330
1930D
100
AcDbEntity
  8
DEFPOINTS
 62
     0
 48
50.0
100
AcDbPoint
 10
10391.82988416809
 20
8279.602639750612
 30
0.0
  0
ENDBLK
  5
19318
330
1930D
100
AcDbEntity
  8
0
 48
50.0
100
AcDbBlockEnd
  0
BLOCK
  5
19323
330
19319
100
AcDbEntity
  8
0
 48
50.0
100
AcDbBlockBegin
  2
*D9
 70
     1
 10
0.0
 20
0.0
 30
0.0
  3
*D9
  1

  0
LINE
  5
19946
330
19319
100
AcDbEntity
  8
寸法
 62
     0
 48
50.0
370
    -2
100
AcDbLine
 10
4699.874456244001
 20
1323.469710985789
 30
0.0
 11
4699.874456244001
 21
997.4223816854127
 31
0.0
  0
LINE
  5
19947
330
19319
100
AcDbEntity
  8
寸法
 62
     0
 48
50.0
370
    -2
100
AcDbLine
 10
4499.874456244
 20
1323.46971098579
 30
0.0
 11
4499.874456244
 21
997.4223816854127
 31
0.0
  0
LINE
  5
19948
330
19319
100
AcDbEntity
  8
寸法
 62
     0
 48
50.0
370
    -2
100
AcDbLine
 10
4699.874456244001
 20
1057.422381685412
 30
0.0
 11
4499.874456244
 21
1057.422381685412
 31
0.0
  0
INSERT
  5
19949
330
19319
100
AcDbEntity
  8
寸法
 62
     0
 48
50.0
370
    -2
100
AcDbBlockReference
  2
_DOTSMALL
 10
4699.874456244001
 20
1057.422381685412
 30
0.0
 41
100.0
 42
100.0
 43
100.0
  0
INSERT
  5
1994A
330
19319
100
AcDbEntity
  8
寸法
 62
     0
 48
50.0
370
    -2
100
AcDbBlockReference
  2
_DOTSMALL
 10
4499.874456244
 20
1057.422381685412
 30
0.0
 41
100.0
 42
100.0
 43
100.0
 50
180.0
  0
MTEXT
  5
1994B
330
19319
100
AcDbEntity
  8
寸法
 62
     7
 48
50.0
100
AcDbMText
 10
4599.874456244001
 20
1157.434192709035
 30
0.0
 40
120.0
 41
0.0
 71
     5
 72
     1
  1
\A1;200
  7
STYLE1
 73
     1
 44
1.0
1001
ACAD
1000
MTEXTBEGIN
1070
    73
1070
     1
1070
    44
1040
1.0
1070
    74
1070
     0
1000
MTEXTEND
  0
POINT
  5
1994C
330
19319
100
AcDbEntity
  8
DEFPOINTS
 62
     0
 48
50.0
100
AcDbPoint
 10
4699.874456244001
 20
1343.469710985789
 30
0.0
  0
POINT
  5
1994D
330
19319
100
AcDbEntity
  8
DEFPOINTS
 62
     0
 48
50.0
100
AcDbPoint
 10
4499.874456244
 20
1343.469710985791
 30
0.0
  0
POINT
  5
1994E
330
19319
100
AcDbEntity
  8
DEFPOINTS
 62
     0
 48
50.0
100
AcDbPoint
 10
4499.874456244
 20
1057.422381685412
 30
0.0
  0
ENDBLK
  5
19324
330
19319
100
AcDbEntity
  8
0
 48
50.0
100
AcDbBlockEnd
  0
BLOCK
  5
1932F
330
19325
100
AcDbEntity
  8
0
 48
50.0
100
AcDbBlockBegin
  2
*D10
 70
     1
 10
0.0
 20
0.0
 30
0.0
  3
*D10
  1

  0
LINE
  5
1993D
330
19325
100
AcDbEntity
  8
寸法
 62
     0
 48
50.0
370
    -2
100
AcDbLine
 10
4479.874456244
 20
1343.469710985791
 30
0.0
 11
4290.374452997366
 21
1343.469710985791
 31
0.0
  0
LINE
  5
1993E
330
19325
100
AcDbEntity
  8
寸法
 62
     0
 48
50.0
370
    -2
100
AcDbLine
 10
4454.874456244001
 20
1543.469710985791
 30
0.0
 11
4290.374452997366
 21
1543.469710985791
 31
0.0
  0
LINE
  5
1993F
330
19325
100
AcDbEntity
  8
寸法
 62
     0
 48
50.0
370
    -2
100
AcDbLine
 10
4350.374452997367
 20
1343.469710985791
 30
0.0
 11
4350.374452997367
 21
1543.469710985791
 31
0.0
  0
INSERT
  5
19940
330
19325
100
AcDbEntity
  8
寸法
 62
     0
 48
50.0
370
    -2
100
AcDbBlockReference
  2
_DOTSMALL
 10
4350.374452997367
 20
1343.469710985791
 30
0.0
 41
100.0
 42
100.0
 43
100.0
 50
270.0
  0
INSERT
  5
19941
330
19325
100
AcDbEntity
  8
寸法
 62
     0
 48
50.0
370
    -2
100
AcDbBlockReference
  2
_DOTSMALL
 10
4350.374452997367
 20
1543.469710985791
 30
0.0
 41
100.0
 42
100.0
 43
100.0
 50
90.0
  0
MTEXT
  5
19942
330
19325
100
AcDbEntity
  8
寸法
 62
     7
 48
50.0
100
AcDbMText
 10
4250.362641973745
 20
1443.469710985791
 30
0.0
 40
120.0
 41
0.0
 71
     5
 72
     1
  1
\A1;200
  7
STYLE1
 11
0.0000000000000001
 21
1.0
 31
0.0
 73
     1
 44
1.0
1001
ACAD
1000
MTEXTBEGIN
1070
    73
1070
     1
1070
    44
1040
1.0
1070
    74
1070
     0
1000
MTEXTEND
  0
POINT
  5
19943
330
19325
100
AcDbEntity
  8
DEFPOINTS
 62
     0
 48
50.0
100
AcDbPoint
 10
4499.874456244
 20
1343.469710985791
 30
0.0
  0
POINT
  5
19944
330
19325
100
AcDbEntity
  8
DEFPOINTS
 62
     0
 48
50.0
100
AcDbPoint
 10
4474.874456244001
 20
1543.469710985791
 30
0.0
  0
POINT
  5
19945
330
19325
100
AcDbEntity
  8
DEFPOINTS
 62
     0
 48
50.0
100
AcDbPoint
 10
4350.374452997367
 20
1543.469710985791
 30
0.0
  0
ENDBLK
  5
19330
330
19325
100
AcDbEntity
  8
0
 48
50.0
100
AcDbBlockEnd
  0
BLOCK
  5
19355
330
1934B
100
AcDbEntity
  8
0
 48
50.0
100
AcDbBlockBegin
  2
*D11
 70
     1
 10
0.0
 20
0.0
 30
0.0
  3
*D11
  1

  0
LINE
  5
19FC8
330
1934B
100
AcDbEntity
  8
寸法
 62
     0
 48
50.0
370
    -2
100
AcDbLine
 10
9339.471485581276
 20
9546.804986298916
 30
0.0
 11
9339.471485581276
 21
10183.61201310724
 31
0.0
  0
LINE
  5
19FC9
330
1934B
100
AcDbEntity
  8
寸法
 62
     0
 48
50.0
370
    -2
100
AcDbLine
 10
11019.47148558127
 20
9546.80498629901
 30
0.0
 11
11019.47148558127
 21
10183.61201310724
 31
0.0
  0
LINE
  5
19FCA
330
1934B
100
AcDbEntity
  8
寸法
 62
     0
 48
50.0
370
    -2
100
AcDbLine
 10
9339.471485581276
 20
10123.61201310724
 30
0.0
 11
11019.47148558127
 21
10123.61201310724
 31
0.0
  0
INSERT
  5
19FCB
330
1934B
100
AcDbEntity
  8
寸法
 62
     0
 48
50.0
370
    -2
100
AcDbBlockReference
  2
_DOTSMALL
 10
9339.471485581276
 20
10123.61201310724
 30
0.0
 41
100.0
 42
100.0
 43
100.0
 50
180.0
  0
INSERT
  5
19FCC
330
1934B
100
AcDbEntity
  8
寸法
 62
     0
 48
50.0
370
    -2
100
AcDbBlockReference
  2
_DOTSMALL
 10
11019.47148558127
 20
10123.61201310724
 30
0.0
 41
100.0
 42
100.0
 43
100.0
  0
MTEXT
  5
19FCD
330
1934B
100
AcDbEntity
  8
寸法
 62
     7
 48
50.0
100
AcDbMText
 10
10179.47148558127
 20
10223.62382413086
 30
0.0
 40
120.0
 41
0.0
 71
     5
 72
     1
  1
\A1;4X420=1680
  7
STYLE1
 73
     1
 44
1.0
1001
ACAD
1000
MTEXTBEGIN
1070
    73
1070
     1
1070
    44
1040
1.0
1070
    74
1070
     0
1000
MTEXTEND
  0
POINT
  5
19FCE
330
1934B
100
AcDbEntity
  8
DEFPOINTS
 62
     0
 48
50.0
100
AcDbPoint
 10
9339.471485581276
 20
9526.804986298916
 30
0.0
  0
POINT
  5
19FCF
330
1934B
100
AcDbEntity
  8
DEFPOINTS
 62
     0
 48
50.0
100
AcDbPoint
 10
11019.47148558127
 20
9526.80498629901
 30
0.0
  0
POINT
  5
19FD0
330
1934B
100
AcDbEntity
  8
DEFPOINTS
 62
     0
 48
50.0
100
AcDbPoint
 10
11019.47148558127
 20
10123.61201310724
 30
0.0
  0
ENDBLK
  5
19356
330
1934B
100
AcDbEntity
  8
0
 48
50.0
100
AcDbBlockEnd
  0
BLOCK
  5
19363
330
19357
100
AcDbEntity
  8
0
 48
50.0
100
AcDbBlockBegin
  2
*D12
 70
     1
 10
0.0
 20
0.0
 30
0.0
  3
*D12
  1

  0
LINE
  5
19FBD
330
19357
100
AcDbEntity
  8
寸法
 62
     0
 48
50.0
370
    -2
100
AcDbLine
 10
11019.47148558127
 20
9546.80498629901
 30
0.0
 11
11019.47148558127
 21
10183.61201310722
 31
0.0
  0
LINE
  5
19FBE
330
19357
100
AcDbEntity
  8
寸法
 62
     0
 48
50.0
370
    -2
100
AcDbLine
 10
11074.47148558127
 20
9546.80498629901
 30
0.0
 11
11074.47148558127
 21
10183.61201310722
 31
0.0
  0
LINE
  5
19FBF
330
19357
100
AcDbEntity
  8
寸法
 62
     0
 48
50.0
370
    -2
100
AcDbLine
 10
11019.47148558127
 20
10123.61201310722
 30
0.0
 11
10919.47148558127
 21
10123.61201310722
 31
0.0
  0
LINE
  5
19FC0
330
19357
100
AcDbEntity
  8
寸法
 62
     0
 48
50.0
370
    -2
100
AcDbLine
 10
11074.47148558127
 20
10123.61201310722
 30
0.0
 11
11491.44204832975
 21
10123.61201310722
 31
0.0
  0
LINE
  5
19FC1
330
19357
100
AcDbEntity
  8
寸法
 62
     0
 48
50.0
370
    -2
100
AcDbLine
 10
11019.47148558127
 20
10123.61201310722
 30
0.0
 11
11074.47148558127
 21
10123.61201310722
 31
0.0
  0
INSERT
  5
19FC2
330
19357
100
AcDbEntity
  8
寸法
 62
     0
 48
50.0
370
    -2
100
AcDbBlockReference
  2
_DOTSMALL
 10
11019.47148558127
 20
10123.61201310722
 30
0.0
 41
100.0
 42
100.0
 43
100.0
  0
INSERT
  5
19FC3
330
19357
100
AcDbEntity
  8
寸法
 62
     0
 48
50.0
370
    -2
100
AcDbBlockReference
  2
_DOTSMALL
 10
11074.47148558127
 20
10123.61201310722
 30
0.0
 41
100.0
 42
100.0
 43
100.0
 50
180.0
  0
MTEXT
  5
19FC4
330
19357
100
AcDbEntity
  8
寸法
 62
     7
 48
50.0
100
AcDbMText
 10
11382.95676695551
 20
10223.61201310722
 30
0.0
 40
120.0
 41
0.0
 71
     5
 72
     1
  1
\A1;55
  7
STYLE1
 73
     1
 44
1.0
1001
ACAD
1000
MTEXTBEGIN
1070
    73
1070
     1
1070
    44
1040
1.0
1070
    74
1070
     0
1000
MTEXTEND
  0
POINT
  5
19FC5
330
19357
100
AcDbEntity
  8
DEFPOINTS
 62
     0
 48
50.0
100
AcDbPoint
 10
11019.47148558127
 20
9526.80498629901
 30
0.0
  0
POINT
  5
19FC6
330
19357
100
AcDbEntity
  8
DEFPOINTS
 62
     0
 48
50.0
100
AcDbPoint
 10
11074.47148558127
 20
9526.80498629901
 30
0.0
  0
POINT
  5
19FC7
330
19357
100
AcDbEntity
  8
DEFPOINTS
 62
     0
 48
50.0
100
AcDbPoint
 10
11074.47148558127
 20
10123.61201310722
 30
0.0
  0
ENDBLK
  5
19364
330
19357
100
AcDbEntity
  8
0
 48
50.0
100
AcDbBlockEnd
  0
BLOCK
  5
1937B
330
19371
100
AcDbEntity
  8
0
 48
50.0
100
AcDbBlockBegin
  2
*D13
 70
     1
 10
0.0
 20
0.0
 30
0.0
  3
*D13
  1

  0
LINE
  5
19FB4
330
19371
100
AcDbEntity
  8
寸法
 62
     0
 48
50.0
370
    -2
100
AcDbLine
 10
11094.47148558127
 20
9471.804986299014
 30
0.0
 11
11781.89783131569
 21
9471.804986299014
 31
0.0
  0
LINE
  5
19FB5
330
19371
100
AcDbEntity
  8
寸法
 62
     0
 48
50.0
370
    -2
100
AcDbLine
 10
11094.47148558125
 20
6951.804986298997
 30
0.0
 11
11781.89783131569
 21
6951.804986298997
 31
0.0
  0
LINE
  5
19FB6
330
19371
100
AcDbEntity
  8
寸法
 62
     0
 48
50.0
370
    -2
100
AcDbLine
 10
11721.89783131569
 20
9471.804986299014
 30
0.0
 11
11721.89783131569
 21
6951.804986298997
 31
0.0
  0
INSERT
  5
19FB7
330
19371
100
AcDbEntity
  8
寸法
 62
     0
 48
50.0
370
    -2
100
AcDbBlockReference
  2
_DOTSMALL
 10
11721.89783131569
 20
9471.804986299014
 30
0.0
 41
100.0
 42
100.0
 43
100.0
 50
90.0
  0
INSERT
  5
19FB8
330
19371
100
AcDbEntity
  8
寸法
 62
     0
 48
50.0
370
    -2
100
AcDbBlockReference
  2
_DOTSMALL
 10
11721.89783131569
 20
6951.804986298997
 30
0.0
 41
100.0
 42
100.0
 43
100.0
 50
270.0
  0
MTEXT
  5
19FB9
330
19371
100
AcDbEntity
  8
寸法
 62
     7
 48
50.0
100
AcDbMText
 10
11621.88602029206
 20
8211.804986299005
 30
0.0
 40
120.0
 41
0.0
 71
     5
 72
     1
  1
\A1;6X420=2520
  7
STYLE1
 11
0.0000000000000001
 21
1.0
 31
0.0
 73
     1
 44
1.0
1001
ACAD
1000
MTEXTBEGIN
1070
    73
1070
     1
1070
    44
1040
1.0
1070
    74
1070
     0
1000
MTEXTEND
  0
POINT
  5
19FBA
330
19371
100
AcDbEntity
  8
DEFPOINTS
 62
     0
 48
50.0
100
AcDbPoint
 10
11074.47148558127
 20
9471.804986299014
 30
0.0
  0
POINT
  5
19FBB
330
19371
100
AcDbEntity
  8
DEFPOINTS
 62
     0
 48
50.0
100
AcDbPoint
 10
11074.47148558125
 20
6951.804986298997
 30
0.0
  0
POINT
  5
19FBC
330
19371
100
AcDbEntity
  8
DEFPOINTS
 62
     0
 48
50.0
100
AcDbPoint
 10
11721.89783131569
 20
6951.804986298997
 30
0.0
  0
ENDBLK
  5
1937C
330
19371
100
AcDbEntity
  8
0
 48
50.0
100
AcDbBlockEnd
  0
BLOCK
  5
19389
330
1937D
100
AcDbEntity
  8
0
 48
50.0
100
AcDbBlockBegin
  2
*D14
 70
     1
 10
0.0
 20
0.0
 30
0.0
  3
*D14
  1

  0
LINE
  5
19FA9
330
1937D
100
AcDbEntity
  8
寸法
 62
     0
 48
50.0
370
    -2
100
AcDbLine
 10
11094.47148558125
 20
6951.804986298997
 30
0.0
 11
11781.89783131566
 21
6951.804986298997
 31
0.0
  0
LINE
  5
19FAA
330
1937D
100
AcDbEntity
  8
寸法
 62
     0
 48
50.0
370
    -2
100
AcDbLine
 10
11094.47148558125
 20
6896.804986299001
 30
0.0
 11
11781.89783131566
 21
6896.804986299001
 31
0.0
  0
LINE
  5
19FAB
330
1937D
100
AcDbEntity
  8
寸法
 62
     0
 48
50.0
370
    -2
100
AcDbLine
 10
11721.89783131566
 20
6951.804986298997
 30
0.0
 11
11721.89783131566
 21
7051.804986298996
 31
0.0
  0
LINE
  5
19FAC
330
1937D
100
AcDbEntity
  8
寸法
 62
     0
 48
50.0
370
    -2
100
AcDbLine
 10
11721.89783131566
 20
6896.804986299001
 30
0.0
 11
11721.89783131566
 21
6410.458238019899
 31
0.0
  0
LINE
  5
19FAD
330
1937D
100
AcDbEntity
  8
寸法
 62
     0
 48
50.0
370
    -2
100
AcDbLine
 10
11721.89783131566
 20
6951.804986298997
 30
0.0
 11
11721.89783131566
 21
6896.804986299001
 31
0.0
  0
INSERT
  5
19FAE
330
1937D
100
AcDbEntity
  8
寸法
 62
     0
 48
50.0
370
    -2
100
AcDbBlockReference
  2
_DOTSMALL
 10
11721.89783131566
 20
6951.804986298997
 30
0.0
 41
100.0
 42
100.0
 43
100.0
 50
270.0
  0
INSERT
  5
19FAF
330
1937D
100
AcDbEntity
  8
寸法
 62
     0
 48
50.0
370
    -2
100
AcDbBlockReference
  2
_DOTSMALL
 10
11721.89783131566
 20
6896.804986299001
 30
0.0
 41
100.0
 42
100.0
 43
100.0
 50
90.0
  0
MTEXT
  5
19FB0
330
1937D
100
AcDbEntity
  8
寸法
 62
     7
 48
50.0
100
AcDbMText
 10
11621.89783131566
 20
6518.943519394141
 30
0.0
 40
120.0
 41
0.0
 71
     5
 72
     1
  1
\A1;55
  7
STYLE1
 11
0.0000000000000001
 21
1.0
 31
0.0
 73
     1
 44
1.0
1001
ACAD
1000
MTEXTBEGIN
1070
    73
1070
     1
1070
    44
1040
1.0
1070
    74
1070
     0
1000
MTEXTEND
  0
POINT
  5
19FB1
330
1937D
100
AcDbEntity
  8
DEFPOINTS
 62
     0
 48
50.0
100
AcDbPoint
 10
11074.47148558125
 20
6951.804986298997
 30
0.0
  0
POINT
  5
19FB2
330
1937D
100
AcDbEntity
  8
DEFPOINTS
 62
     0
 48
50.0
100
AcDbPoint
 10
11074.47148558125
 20
6896.804986299001
 30
0.0
  0
POINT
  5
19FB3
330
1937D
100
AcDbEntity
  8
DEFPOINTS
 62
     0
 48
50.0
100
AcDbPoint
 10
11721.89783131566
 20
6896.804986299001
 30
0.0
  0
ENDBLK
  5
1938A
330
1937D
100
AcDbEntity
  8
0
 48
50.0
100
AcDbBlockEnd
  0
BLOCK
  5
19397
330
1938B
100
AcDbEntity
  8
0
 48
50.0
100
AcDbBlockBegin
  2
*D15
 70
     1
 10
0.0
 20
0.0
 30
0.0
  3
*D15
  1

  0
LINE
  5
19F9E
330
1938B
100
AcDbEntity
  8
寸法
 62
     0
 48
50.0
370
    -2
100
AcDbLine
 10
11094.47148558127
 20
9526.80498629901
 30
0.0
 11
11781.89783131568
 21
9526.80498629901
 31
0.0
  0
LINE
  5
19F9F
330
1938B
100
AcDbEntity
  8
寸法
 62
     0
 48
50.0
370
    -2
100
AcDbLine
 10
11094.47148558127
 20
9471.804986299014
 30
0.0
 11
11781.89783131568
 21
9471.804986299014
 31
0.0
  0
LINE
  5
19FA0
330
1938B
100
AcDbEntity
  8
寸法
 62
     0
 48
50.0
370
    -2
100
AcDbLine
 10
11721.89783131568
 20
9471.804986299014
 30
0.0
 11
11721.89783131568
 21
9371.804986299014
 31
0.0
  0
LINE
  5
19FA1
330
1938B
100
AcDbEntity
  8
寸法
 62
     0
 48
50.0
370
    -2
100
AcDbLine
 10
11721.89783131568
 20
9526.80498629901
 30
0.0
 11
11721.89783131568
 21
9943.775549047487
 31
0.0
  0
LINE
  5
19FA2
330
1938B
100
AcDbEntity
  8
寸法
 62
     0
 48
50.0
370
    -2
100
AcDbLine
 10
11721.89783131568
 20
9471.804986299014
 30
0.0
 11
11721.89783131568
 21
9526.80498629901
 31
0.0
  0
INSERT
  5
19FA3
330
1938B
100
AcDbEntity
  8
寸法
 62
     0
 48
50.0
370
    -2
100
AcDbBlockReference
  2
_DOTSMALL
 10
11721.89783131568
 20
9471.804986299014
 30
0.0
 41
100.0
 42
100.0
 43
100.0
 50
90.0
  0
INSERT
  5
19FA4
330
1938B
100
AcDbEntity
  8
寸法
 62
     0
 48
50.0
370
    -2
100
AcDbBlockReference
  2
_DOTSMALL
 10
11721.89783131568
 20
9526.80498629901
 30
0.0
 41
100.0
 42
100.0
 43
100.0
 50
270.0
  0
MTEXT
  5
19FA5
330
1938B
100
AcDbEntity
  8
寸法
 62
     7
 48
50.0
100
AcDbMText
 10
11621.89783131568
 20
9835.290267673251
 30
0.0
 40
120.0
 41
0.0
 71
     5
 72
     1
  1
\A1;55
  7
STYLE1
 11
0.0000000000000001
 21
1.0
 31
0.0
 73
     1
 44
1.0
1001
ACAD
1000
MTEXTBEGIN
1070
    73
1070
     1
1070
    44
1040
1.0
1070
    74
1070
     0
1000
MTEXTEND
  0
POINT
  5
19FA6
330
1938B
100
AcDbEntity
  8
DEFPOINTS
 62
     0
 48
50.0
100
AcDbPoint
 10
11074.47148558127
 20
9526.80498629901
 30
0.0
  0
POINT
  5
19FA7
330
1938B
100
AcDbEntity
  8
DEFPOINTS
 62
     0
 48
50.0
100
AcDbPoint
 10
11074.47148558127
 20
9471.804986299014
 30
0.0
  0
POINT
  5
19FA8
330
1938B
100
AcDbEntity
  8
DEFPOINTS
 62
     0
 48
50.0
100
AcDbPoint
 10
11721.89783131568
 20
9471.804986299014
 30
0.0
  0
ENDBLK
  5
19398
330
1938B
100
AcDbEntity
  8
0
 48
50.0
100
AcDbBlockEnd
  0
BLOCK
  5
193A3
330
19399
100
AcDbEntity
  8
0
 48
50.0
100
AcDbBlockBegin
  2
*D16
 70
     1
 10
0.0
 20
0.0
 30
0.0
  3
*D16
  1

  0
LINE
  5
19F95
330
19399
100
AcDbEntity
  8
寸法
 62
     0
 48
50.0
370
    -2
100
AcDbLine
 10
11094.47148558127
 20
9526.80498629901
 30
0.0
 11
12147.00477305532
 21
9526.80498629901
 31
0.0
  0
LINE
  5
19F96
330
19399
100
AcDbEntity
  8
寸法
 62
     0
 48
50.0
370
    -2
100
AcDbLine
 10
11094.47148558125
 20
6896.804986299001
 30
0.0
 11
12147.00477305532
 21
6896.804986299001
 31
0.0
  0
LINE
  5
19F97
330
19399
100
AcDbEntity
  8
寸法
 62
     0
 48
50.0
370
    -2
100
AcDbLine
 10
12087.00477305532
 20
9526.80498629901
 30
0.0
 11
12087.00477305532
 21
6896.804986299001
 31
0.0
  0
INSERT
  5
19F98
330
19399
100
AcDbEntity
  8
寸法
 62
     0
 48
50.0
370
    -2
100
AcDbBlockReference
  2
_DOTSMALL
 10
12087.00477305532
 20
9526.80498629901
 30
0.0
 41
100.0
 42
100.0
 43
100.0
 50
90.0
  0
INSERT
  5
19F99
330
19399
100
AcDbEntity
  8
寸法
 62
     0
 48
50.0
370
    -2
100
AcDbBlockReference
  2
_DOTSMALL
 10
12087.00477305532
 20
6896.804986299001
 30
0.0
 41
100.0
 42
100.0
 43
100.0
 50
270.0
  0
MTEXT
  5
19F9A
330
19399
100
AcDbEntity
  8
寸法
 62
     7
 48
50.0
100
AcDbMText
 10
11986.9929620317
 20
8211.804986299005
 30
0.0
 40
120.0
 41
0.0
 71
     5
 72
     1
  1
\A1;2630
  7
STYLE1
 11
0.0000000000000001
 21
1.0
 31
0.0
 73
     1
 44
1.0
1001
ACAD
1000
MTEXTBEGIN
1070
    73
1070
     1
1070
    44
1040
1.0
1070
    74
1070
     0
1000
MTEXTEND
  0
POINT
  5
19F9B
330
19399
100
AcDbEntity
  8
DEFPOINTS
 62
     0
 48
50.0
100
AcDbPoint
 10
11074.47148558127
 20
9526.80498629901
 30
0.0
  0
POINT
  5
19F9C
330
19399
100
AcDbEntity
  8
DEFPOINTS
 62
     0
 48
50.0
100
AcDbPoint
 10
11074.47148558125
 20
6896.804986299001
 30
0.0
  0
POINT
  5
19F9D
330
19399
100
AcDbEntity
  8
DEFPOINTS
 62
     0
 48
50.0
100
AcDbPoint
 10
12087.00477305532
 20
6896.804986299001
 30
0.0
  0
ENDBLK
  5
193A4
330
19399
100
AcDbEntity
  8
0
 48
50.0
100
AcDbBlockEnd
  0
BLOCK
  5
193B1
330
193A5
100
AcDbEntity
  8
0
 48
50.0
100
AcDbBlockBegin
  2
*D17
 70
     1
 10
0.0
 20
0.0
 30
0.0
  3
*D17
  1

  0
LINE
  5
19F8A
330
193A5
100
AcDbEntity
  8
寸法
 62
     0
 48
50.0
370
    -2
100
AcDbLine
 10
9284.471485581239
 20
9546.804986298916
 30
0.0
 11
9284.471485581239
 21
10183.61201310712
 31
0.0
  0
LINE
  5
19F8B
330
193A5
100
AcDbEntity
  8
寸法
 62
     0
 48
50.0
370
    -2
100
AcDbLine
 10
9339.471485581276
 20
9546.804986298916
 30
0.0
 11
9339.471485581276
 21
10183.61201310712
 31
0.0
  0
LINE
  5
19F8C
330
193A5
100
AcDbEntity
  8
寸法
 62
     0
 48
50.0
370
    -2
100
AcDbLine
 10
9339.471485581276
 20
10123.61201310712
 30
0.0
 11
9439.471485581275
 21
10123.61201310712
 31
0.0
  0
LINE
  5
19F8D
330
193A5
100
AcDbEntity
  8
寸法
 62
     0
 48
50.0
370
    -2
100
AcDbLine
 10
9284.471485581239
 20
10123.61201310712
 30
0.0
 11
8867.500922832759
 21
10123.61201310712
 31
0.0
  0
LINE
  5
19F8E
330
193A5
100
AcDbEntity
  8
寸法
 62
     0
 48
50.0
370
    -2
100
AcDbLine
 10
9339.471485581276
 20
10123.61201310712
 30
0.0
 11
9284.471485581239
 21
10123.61201310712
 31
0.0
  0
INSERT
  5
19F8F
330
193A5
100
AcDbEntity
  8
寸法
 62
     0
 48
50.0
370
    -2
100
AcDbBlockReference
  2
_DOTSMALL
 10
9339.471485581276
 20
10123.61201310712
 30
0.0
 41
100.0
 42
100.0
 43
100.0
 50
180.0
  0
INSERT
  5
19F90
330
193A5
100
AcDbEntity
  8
寸法
 62
     0
 48
50.0
370
    -2
100
AcDbBlockReference
  2
_DOTSMALL
 10
9284.471485581239
 20
10123.61201310712
 30
0.0
 41
100.0
 42
100.0
 43
100.0
  0
MTEXT
  5
19F91
330
193A5
100
AcDbEntity
  8
寸法
 62
     7
 48
50.0
100
AcDbMText
 10
8975.986204206998
 20
10223.61201310712
 30
0.0
 40
120.0
 41
0.0
 71
     5
 72
     1
  1
\A1;55
  7
STYLE1
 73
     1
 44
1.0
1001
ACAD
1000
MTEXTBEGIN
1070
    73
1070
     1
1070
    44
1040
1.0
1070
    74
1070
     0
1000
MTEXTEND
  0
POINT
  5
19F92
330
193A5
100
AcDbEntity
  8
DEFPOINTS
 62
     0
 48
50.0
100
AcDbPoint
 10
9284.471485581239
 20
9526.804986298916
 30
0.0
  0
POINT
  5
19F93
330
193A5
100
AcDbEntity
  8
DEFPOINTS
 62
     0
 48
50.0
100
AcDbPoint
 10
9339.471485581276
 20
9526.804986298916
 30
0.0
  0
POINT
  5
19F94
330
193A5
100
AcDbEntity
  8
DEFPOINTS
 62
     0
 48
50.0
100
AcDbPoint
 10
9339.471485581276
 20
10123.61201310712
 30
0.0
  0
ENDBLK
  5
193B2
330
193A5
100
AcDbEntity
  8
0
 48
50.0
100
AcDbBlockEnd
  0
BLOCK
  5
193BD
330
193B3
100
AcDbEntity
  8
0
 48
50.0
100
AcDbBlockBegin
  2
*D18
 70
     1
 10
0.0
 20
0.0
 30
0.0
  3
*D18
  1

  0
LINE
  5
198D0
330
193B3
100
AcDbEntity
  8
寸法
 62
     0
 48
50.0
370
    -2
100
AcDbLine
 10
9292.471485581264
 20
3726.469710985794
 30
0.0
 11
8953.265456369114
 21
3726.469710985794
 31
0.0
  0
LINE
  5
198D1
330
193B3
100
AcDbEntity
  8
寸法
 62
     0
 48
50.0
370
    -2
100
AcDbLine
 10
9292.471485581264
 20
1701.469710985793
 30
0.0
 11
8953.265456369114
 21
1701.469710985793
 31
0.0
  0
LINE
  5
198D2
330
193B3
100
AcDbEntity
  8
寸法
 62
     0
 48
50.0
370
    -2
100
AcDbLine
 10
9013.265456369115
 20
3726.469710985794
 30
0.0
 11
9013.265456369115
 21
1701.469710985793
 31
0.0
  0
INSERT
  5
198D3
330
193B3
100
AcDbEntity
  8
寸法
 62
     0
 48
50.0
370
    -2
100
AcDbBlockReference
  2
_DOTSMALL
 10
9013.265456369115
 20
3726.469710985794
 30
0.0
 41
100.0
 42
100.0
 43
100.0
 50
90.0
  0
INSERT
  5
198D4
330
193B3
100
AcDbEntity
  8
寸法
 62
     0
 48
50.0
370
    -2
100
AcDbBlockReference
  2
_DOTSMALL
 10
9013.265456369115
 20
1701.469710985793
 30
0.0
 41
100.0
 42
100.0
 43
100.0
 50
270.0
  0
MTEXT
  5
198D5
330
193B3
100
AcDbEntity
  8
寸法
 62
     7
 48
50.0
100
AcDbMText
 10
8913.253645345491
 20
2713.969710985793
 30
0.0
 40
120.0
 41
0.0
 71
     5
 72
     1
  1
\A1;有効開口部高サ2025
  7
STYLE1
 11
0.0000000000000001
 21
1.0
 31
0.0
 73
     1
 44
1.0
1001
ACAD
1000
MTEXTBEGIN
1070
    73
1070
     1
1070
    44
1040
1.0
1070
    74
1070
     0
1000
MTEXTEND
  0
POINT
  5
198D6
330
193B3
100
AcDbEntity
  8
DEFPOINTS
 62
     0
 48
50.0
100
AcDbPoint
 10
9312.471485581266
 20
3726.469710985794
 30
0.0
  0
POINT
  5
198D7
330
193B3
100
AcDbEntity
  8
DEFPOINTS
 62
     0
 48
50.0
100
AcDbPoint
 10
9312.471485581266
 20
1701.469710985793
 30
0.0
  0
POINT
  5
198D8
330
193B3
100
AcDbEntity
  8
DEFPOINTS
 62
     0
 48
50.0
100
AcDbPoint
 10
9013.265456369115
 20
1701.469710985793
 30
0.0
  0
ENDBLK
  5
193BE
330
193B3
100
AcDbEntity
  8
0
 48
50.0
100
AcDbBlockEnd
  0
BLOCK
  5
193C9
330
193BF
100
AcDbEntity
  8
0
 48
50.0
100
AcDbBlockBegin
  2
*D19
 70
     1
 10
0.0
 20
0.0
 30
0.0
  3
*D19
  1

  0
LINE
  5
198C7
330
193BF
100
AcDbEntity
  8
寸法
 62
     0
 48
50.0
370
    -2
100
AcDbLine
 10
9384.471485581251
 20
1323.469710985792
 30
0.0
 11
9384.471485581251
 21
997.4223816854156
 31
0.0
  0
LINE
  5
198C8
330
193BF
100
AcDbEntity
  8
寸法
 62
     0
 48
50.0
370
    -2
100
AcDbLine
 10
9184.47148558125
 20
1323.469710985792
 30
0.0
 11
9184.47148558125
 21
997.4223816854156
 31
0.0
  0
LINE
  5
198C9
330
193BF
100
AcDbEntity
  8
寸法
 62
     0
 48
50.0
370
    -2
100
AcDbLine
 10
9384.471485581251
 20
1057.422381685415
 30
0.0
 11
9184.47148558125
 21
1057.422381685415
 31
0.0
  0
INSERT
  5
198CA
330
193BF
100
AcDbEntity
  8
寸法
 62
     0
 48
50.0
370
    -2
100
AcDbBlockReference
  2
_DOTSMALL
 10
9384.471485581251
 20
1057.422381685415
 30
0.0
 41
100.0
 42
100.0
 43
100.0
  0
INSERT
  5
198CB
330
193BF
100
AcDbEntity
  8
寸法
 62
     0
 48
50.0
370
    -2
100
AcDbBlockReference
  2
_DOTSMALL
 10
9184.47148558125
 20
1057.422381685415
 30
0.0
 41
100.0
 42
100.0
 43
100.0
 50
180.0
  0
MTEXT
  5
198CC
330
193BF
100
AcDbEntity
  8
寸法
 62
     7
 48
50.0
100
AcDbMText
 10
9284.471485581249
 20
1157.434192709037
 30
0.0
 40
120.0
 41
0.0
 71
     5
 72
     1
  1
\A1;200
  7
STYLE1
 73
     1
 44
1.0
1001
ACAD
1000
MTEXTBEGIN
1070
    73
1070
     1
1070
    44
1040
1.0
1070
    74
1070
     0
1000
MTEXTEND
  0
POINT
  5
198CD
330
193BF
100
AcDbEntity
  8
DEFPOINTS
 62
     0
 48
50.0
100
AcDbPoint
 10
9384.471485581251
 20
1343.469710985792
 30
0.0
  0
POINT
  5
198CE
330
193BF
100
AcDbEntity
  8
DEFPOINTS
 62
     0
 48
50.0
100
AcDbPoint
 10
9184.47148558125
 20
1343.469710985792
 30
0.0
  0
POINT
  5
198CF
330
193BF
100
AcDbEntity
  8
DEFPOINTS
 62
     0
 48
50.0
100
AcDbPoint
 10
9184.47148558125
 20
1057.422381685415
 30
0.0
  0
ENDBLK
  5
193CA
330
193BF
100
AcDbEntity
  8
0
 48
50.0
100
AcDbBlockEnd
  0
BLOCK
  5
193D5
330
193CB
100
AcDbEntity
  8
0
 48
50.0
100
AcDbBlockBegin
  2
*D20
 70
     1
 10
0.0
 20
0.0
 30
0.0
  3
*D20
  1

  0
LINE
  5
198BE
330
193CB
100
AcDbEntity
  8
寸法
 62
     0
 48
50.0
370
    -2
100
AcDbLine
 10
11074.47148558125
 20
3985.280390597447
 30
0.0
 11
11074.47148558125
 21
4477.562880325266
 31
0.0
  0
LINE
  5
198BF
330
193CB
100
AcDbEntity
  8
寸法
 62
     0
 48
50.0
370
    -2
100
AcDbLine
 10
9284.471485581253
 20
4034.47132910877
 30
0.0
 11
9284.471485581253
 21
4477.562880325266
 31
0.0
  0
LINE
  5
198C0
330
193CB
100
AcDbEntity
  8
寸法
 62
     0
 48
50.0
370
    -2
100
AcDbLine
 10
11074.47148558125
 20
4417.562880325266
 30
0.0
 11
9284.471485581253
 21
4417.562880325266
 31
0.0
  0
INSERT
  5
198C1
330
193CB
100
AcDbEntity
  8
寸法
 62
     0
 48
50.0
370
    -2
100
AcDbBlockReference
  2
_DOTSMALL
 10
11074.47148558125
 20
4417.562880325266
 30
0.0
 41
100.0
 42
100.0
 43
100.0
  0
INSERT
  5
198C2
330
193CB
100
AcDbEntity
  8
寸法
 62
     0
 48
50.0
370
    -2
100
AcDbBlockReference
  2
_DOTSMALL
 10
9284.471485581253
 20
4417.562880325266
 30
0.0
 41
100.0
 42
100.0
 43
100.0
 50
180.0
  0
MTEXT
  5
198C3
330
193CB
100
AcDbEntity
  8
寸法
 62
     7
 48
50.0
100
AcDbMText
 10
10194.06713425773
 20
4517.562880325266
 30
0.0
 40
120.0
 41
0.0
 71
     5
 72
     1
  1
\A1;柱外寸法1790
  7
STYLE1
 73
     1
 44
1.0
1001
ACAD
1000
MTEXTBEGIN
1070
    73
1070
     1
1070
    44
1040
1.0
1070
    74
1070
     0
1000
MTEXTEND
  0
POINT
  5
198C4
330
193CB
100
AcDbEntity
  8
DEFPOINTS
 62
     0
 48
50.0
100
AcDbPoint
 10
11074.47148558125
 20
3965.280390597447
 30
0.0
  0
POINT
  5
198C5
330
193CB
100
AcDbEntity
  8
DEFPOINTS
 62
     0
 48
50.0
100
AcDbPoint
 10
9284.471485581253
 20
4014.47132910877
 30
0.0
  0
POINT
  5
198C6
330
193CB
100
AcDbEntity
  8
DEFPOINTS
 62
     0
 48
50.0
100
AcDbPoint
 10
9284.471485581253
 20
4417.562880325266
 30
0.0
  0
ENDBLK
  5
193D6
330
193CB
100
AcDbEntity
  8
0
 48
50.0
100
AcDbBlockEnd
  0
BLOCK
  5
193E3
330
193D7
100
AcDbEntity
  8
0
 48
50.0
100
AcDbBlockBegin
  2
*D21
 70
     1
 10
0.0
 20
0.0
 30
0.0
  3
*D21
  1

  0
LINE
  5
198B3
330
193D7
100
AcDbEntity
  8
寸法
 62
     0
 48
50.0
370
    -2
100
AcDbLine
 10
9284.471485581253
 20
4034.47132910877
 30
0.0
 11
9284.471485581253
 21
4477.562880325266
 31
0.0
  0
LINE
  5
198B4
330
193D7
100
AcDbEntity
  8
寸法
 62
     0
 48
50.0
370
    -2
100
AcDbLine
 10
9224.471485581252
 20
4038.469710985798
 30
0.0
 11
9224.471485581252
 21
4477.562880325266
 31
0.0
  0
LINE
  5
198B5
330
193D7
100
AcDbEntity
  8
寸法
 62
     0
 48
50.0
370
    -2
100
AcDbLine
 10
9284.471485581253
 20
4417.562880325266
 30
0.0
 11
9384.471485581252
 21
4417.562880325266
 31
0.0
  0
LINE
  5
198B6
330
193D7
100
AcDbEntity
  8
寸法
 62
     0
 48
50.0
370
    -2
100
AcDbLine
 10
9224.471485581252
 20
4417.562880325266
 30
0.0
 11
8805.195895030072
 21
4417.562880325266
 31
0.0
  0
LINE
  5
198B7
330
193D7
100
AcDbEntity
  8
寸法
 62
     0
 48
50.0
370
    -2
100
AcDbLine
 10
9284.471485581253
 20
4417.562880325266
 30
0.0
 11
9224.471485581252
 21
4417.562880325266
 31
0.0
  0
INSERT
  5
198B8
330
193D7
100
AcDbEntity
  8
寸法
 62
     0
 48
50.0
370
    -2
100
AcDbBlockReference
  2
_DOTSMALL
 10
9284.471485581253
 20
4417.562880325266
 30
0.0
 41
100.0
 42
100.0
 43
100.0
 50
180.0
  0
INSERT
  5
198B9
330
193D7
100
AcDbEntity
  8
寸法
 62
     0
 48
50.0
370
    -2
100
AcDbBlockReference
  2
_DOTSMALL
 10
9224.471485581252
 20
4417.562880325266
 30
0.0
 41
100.0
 42
100.0
 43
100.0
  0
MTEXT
  5
198BA
330
193D7
100
AcDbEntity
  8
寸法
 62
     7
 48
50.0
100
AcDbMText
 10
8914.833690305663
 20
4517.562880325266
 30
0.0
 40
120.0
 41
0.0
 71
     5
 72
     1
  1
\A1;60
  7
STYLE1
 73
     1
 44
1.0
1001
ACAD
1000
MTEXTBEGIN
1070
    73
1070
     1
1070
    44
1040
1.0
1070
    74
1070
     0
1000
MTEXTEND
  0
POINT
  5
198BB
330
193D7
100
AcDbEntity
  8
DEFPOINTS
 62
     0
 48
50.0
100
AcDbPoint
 10
9284.471485581253
 20
4014.47132910877
 30
0.0
  0
POINT
  5
198BC
330
193D7
100
AcDbEntity
  8
DEFPOINTS
 62
     0
 48
50.0
100
AcDbPoint
 10
9224.471485581252
 20
4018.469710985797
 30
0.0
  0
POINT
  5
198BD
330
193D7
100
AcDbEntity
  8
DEFPOINTS
 62
     0
 48
50.0
100
AcDbPoint
 10
9224.471485581252
 20
4417.562880325266
 30
0.0
  0
ENDBLK
  5
193E4
330
193D7
100
AcDbEntity
  8
0
 48
50.0
100
AcDbBlockEnd
  0
BLOCK
  5
193EF
330
193E5
100
AcDbEntity
  8
0
 48
50.0
100
AcDbBlockBegin
  2
*D22
 70
     1
 10
0.0
 20
0.0
 30
0.0
  3
*D22
  1

  0
LINE
  5
198AA
330
193E5
100
AcDbEntity
  8
寸法
 62
     0
 48
50.0
370
    -2
100
AcDbLine
 10
11154.47148558125
 20
3983.469710985794
 30
0.0
 11
11154.47148558125
 21
4694.088979943711
 31
0.0
  0
LINE
  5
198AB
330
193E5
100
AcDbEntity
  8
寸法
 62
     0
 48
50.0
370
    -2
100
AcDbLine
 10
9224.471485581252
 20
4038.469710985798
 30
0.0
 11
9224.471485581252
 21
4694.088979943711
 31
0.0
  0
LINE
  5
198AC
330
193E5
100
AcDbEntity
  8
寸法
 62
     0
 48
50.0
370
    -2
100
AcDbLine
 10
11154.47148558125
 20
4634.088979943712
 30
0.0
 11
9224.471485581252
 21
4634.088979943712
 31
0.0
  0
INSERT
  5
198AD
330
193E5
100
AcDbEntity
  8
寸法
 62
     0
 48
50.0
370
    -2
100
AcDbBlockReference
  2
_DOTSMALL
 10
11154.47148558125
 20
4634.088979943712
 30
0.0
 41
100.0
 42
100.0
 43
100.0
  0
INSERT
  5
198AE
330
193E5
100
AcDbEntity
  8
寸法
 62
     0
 48
50.0
370
    -2
100
AcDbBlockReference
  2
_DOTSMALL
 10
9224.471485581252
 20
4634.088979943712
 30
0.0
 41
100.0
 42
100.0
 43
100.0
 50
180.0
  0
MTEXT
  5
198AF
330
193E5
100
AcDbEntity
  8
寸法
 62
     7
 48
50.0
100
AcDbMText
 10
10130.27723683222
 20
4734.088979943712
 30
0.0
 40
120.0
 41
0.0
 71
     5
 72
     1
  1
\A1;1930
  7
STYLE1
 73
     1
 44
1.0
1001
ACAD
1000
MTEXTBEGIN
1070
    73
1070
     1
1070
    44
1040
1.0
1070
    74
1070
     0
1000
MTEXTEND
  0
POINT
  5
198B0
330
193E5
100
AcDbEntity
  8
DEFPOINTS
 62
     0
 48
50.0
100
AcDbPoint
 10
11154.47148558125
 20
3963.469710985794
 30
0.0
  0
POINT
  5
198B1
330
193E5
100
AcDbEntity
  8
DEFPOINTS
 62
     0
 48
50.0
100
AcDbPoint
 10
9224.471485581252
 20
4018.469710985797
 30
0.0
  0
POINT
  5
198B2
330
193E5
100
AcDbEntity
  8
DEFPOINTS
 62
     0
 48
50.0
100
AcDbPoint
 10
9224.471485581252
 20
4634.088979943712
 30
0.0
  0
ENDBLK
  5
193F0
330
193E5
100
AcDbEntity
  8
0
 48
50.0
100
AcDbBlockEnd
  0
BLOCK
  5
193FC
330
193F1
100
AcDbEntity
  8
0
 48
50.0
100
AcDbBlockBegin
  2
*D23
 70
     1
 10
0.0
 20
0.0
 30
0.0
  3
*D23
  1

  0
LINE
  5
198A0
330
193F1
100
AcDbEntity
  8
寸法
 62
     0
 48
50.0
370
    -2
100
AcDbLine
 10
11074.47148558125
 20
3985.280390597447
 30
0.0
 11
11074.47148558125
 21
4477.562880325266
 31
0.0
  0
LINE
  5
198A1
330
193F1
100
AcDbEntity
  8
寸法
 62
     0
 48
50.0
370
    -2
100
AcDbLine
 10
11154.47148558125
 20
3983.469710985794
 30
0.0
 11
11154.47148558125
 21
4477.562880325266
 31
0.0
  0
LINE
  5
198A2
330
193F1
100
AcDbEntity
  8
寸法
 62
     0
 48
50.0
370
    -2
100
AcDbLine
 10
11074.47148558125
 20
4417.562880325266
 30
0.0
 11
11154.47148558125
 21
4417.562880325266
 31
0.0
  0
LINE
  5
198A3
330
193F1
100
AcDbEntity
  8
寸法
 62
     0
 48
50.0
370
    -2
100
AcDbLine
 10
11154.47148558125
 20
4417.562880325266
 30
0.0
 11
11466.56597377023
 21
4417.562880325266
 31
0.0
  0
INSERT
  5
198A4
330
193F1
100
AcDbEntity
  8
寸法
 62
     0
 48
50.0
370
    -2
100
AcDbBlockReference
  2
_DOTSMALL
 10
11074.47148558125
 20
4417.562880325266
 30
0.0
 41
100.0
 42
100.0
 43
100.0
 50
180.0
  0
INSERT
  5
198A5
330
193F1
100
AcDbEntity
  8
寸法
 62
     0
 48
50.0
370
    -2
100
AcDbBlockReference
  2
_DOTSMALL
 10
11154.47148558125
 20
4417.562880325266
 30
0.0
 41
100.0
 42
100.0
 43
100.0
  0
MTEXT
  5
198A6
330
193F1
100
AcDbEntity
  8
寸法
 62
     7
 48
50.0
100
AcDbMText
 10
11360.51872967574
 20
4517.562880325266
 30
0.0
 40
120.0
 41
0.0
 71
     5
 72
     1
  1
\A1;80
  7
STYLE1
 73
     1
 44
1.0
1001
ACAD
1000
MTEXTBEGIN
1070
    73
1070
     1
1070
    44
1040
1.0
1070
    74
1070
     0
1000
MTEXTEND
  0
POINT
  5
198A7
330
193F1
100
AcDbEntity
  8
DEFPOINTS
 62
     0
 48
50.0
100
AcDbPoint
 10
11074.47148558125
 20
3965.280390597447
 30
0.0
  0
POINT
  5
198A8
330
193F1
100
AcDbEntity
  8
DEFPOINTS
 62
     0
 48
50.0
100
AcDbPoint
 10
11154.47148558125
 20
3963.469710985794
 30
0.0
  0
POINT
  5
198A9
330
193F1
100
AcDbEntity
  8
DEFPOINTS
 62
     0
 48
50.0
100
AcDbPoint
 10
11154.47148558125
 20
4417.562880325266
 30
0.0
  0
ENDBLK
  5
193FD
330
193F1
100
AcDbEntity
  8
0
 48
50.0
100
AcDbBlockEnd
  0
BLOCK
  5
19408
330
193FE
100
AcDbEntity
  8
0
 48
50.0
100
AcDbBlockBegin
  2
*D24
 70
     1
 10
0.0
 20
0.0
 30
0.0
  3
*D24
  1

  0
LINE
  5
19FD1
330
193FE
100
AcDbEntity
  8
寸法
 62
     0
 48
50.0
370
    -2
100
AcDbLine
 10
11039.11250173257
 20
9518.304986299057
 30
0.0
 11
10951.75659405563
 21
9844.321672090728
 31
0.0
  0
LINE
  5
19FD2
330
193FE
100
AcDbEntity
  8
寸法
 62
     0
 48
50.0
370
    -2
100
AcDbLine
 10
10589.11250173258
 20
9518.304986299057
 30
0.0
 11
10501.75659405563
 21
9844.321672090728
 31
0.0
  0
LINE
  5
19FD3
330
193FE
100
AcDbEntity
  8
寸法
 62
     0
 48
50.0
370
    -2
100
AcDbLine
 10
10967.83354560149
 20
9784.321672090728
 30
0.0
 11
10517.8335456015
 21
9784.321672090728
 31
0.0
  0
INSERT
  5
19FD4
330
193FE
100
AcDbEntity
  8
寸法
 62
     0
 48
50.0
370
    -2
100
AcDbBlockReference
  2
_DOTSMALL
 10
10967.83354560149
 20
9784.321672090728
 30
0.0
 41
100.0
 42
100.0
 43
100.0
  0
INSERT
  5
19FD5
330
193FE
100
AcDbEntity
  8
寸法
 62
     0
 48
50.0
370
    -2
100
AcDbBlockReference
  2
_DOTSMALL
 10
10517.8335456015
 20
9784.321672090728
 30
0.0
 41
100.0
 42
100.0
 43
100.0
 50
180.0
  0
MTEXT
  5
19FD6
330
193FE
100
AcDbEntity
  8
寸法
 62
     7
 48
50.0
100
AcDbMText
 10
10742.8335456015
 20
9884.321672090727
 30
0.0
 40
120.0
 41
0.0
 71
     5
 72
     1
  1
\A1;450
  7
STYLE1
 73
     1
 44
1.0
1001
ACAD
1000
MTEXTBEGIN
1070
    73
1070
     1
1070
    44
1040
1.0
1070
    74
1070
     0
1000
MTEXTEND
  0
POINT
  5
19FD7
330
193FE
100
AcDbEntity
  8
DEFPOINTS
 62
     0
 48
50.0
100
AcDbPoint
 10
11044.4714855812
 20
9498.304986299057
 30
0.0
  0
POINT
  5
19FD8
330
193FE
100
AcDbEntity
  8
DEFPOINTS
 62
     0
 48
50.0
100
AcDbPoint
 10
10594.4714855812
 20
9498.304986299057
 30
0.0
  0
POINT
  5
19FD9
330
193FE
100
AcDbEntity
  8
DEFPOINTS
 62
     0
 48
50.0
100
AcDbPoint
 10
10517.8335456015
 20
9784.321672090728
 30
0.0
  0
ENDBLK
  5
19409
330
193FE
100
AcDbEntity
  8
0
 48
50.0
100
AcDbBlockEnd
  0
BLOCK
  5
19416
330
1940A
100
AcDbEntity
  8
0
 48
50.0
100
AcDbBlockBegin
  2
*D25
 70
     1
 10
0.0
 20
0.0
 30
0.0
  3
*D25
  1

  0
LINE
  5
1996C
330
1940A
100
AcDbEntity
  8
寸法
 62
     0
 48
50.0
370
    -2
100
AcDbLine
 10
7252.374456244003
 20
4038.469710985792
 30
0.0
 11
7252.374456244003
 21
4483.089970413064
 31
0.0
  0
LINE
  5
1996D
330
1940A
100
AcDbEntity
  8
寸法
 62
     0
 48
50.0
370
    -2
100
AcDbLine
 10
7202.374456244003
 20
4038.469710985795
 30
0.0
 11
7202.374456244003
 21
4483.089970413064
 31
0.0
  0
LINE
  5
1996E
330
1940A
100
AcDbEntity
  8
寸法
 62
     0
 48
50.0
370
    -2
100
AcDbLine
 10
7202.374456244003
 20
4423.089970413064
 30
0.0
 11
7102.374456244003
 21
4423.089970413064
 31
0.0
  0
LINE
  5
1996F
330
1940A
100
AcDbEntity
  8
寸法
 62
     0
 48
50.0
370
    -2
100
AcDbLine
 10
7252.374456244003
 20
4423.089970413064
 30
0.0
 11
7671.90698171273
 21
4423.089970413064
 31
0.0
  0
LINE
  5
19970
330
1940A
100
AcDbEntity
  8
寸法
 62
     0
 48
50.0
370
    -2
100
AcDbLine
 10
7202.374456244003
 20
4423.089970413064
 30
0.0
 11
7252.374456244003
 21
4423.089970413064
 31
0.0
  0
INSERT
  5
19971
330
1940A
100
AcDbEntity
  8
寸法
 62
     0
 48
50.0
370
    -2
100
AcDbBlockReference
  2
_DOTSMALL
 10
7202.374456244003
 20
4423.089970413064
 30
0.0
 41
100.0
 42
100.0
 43
100.0
  0
INSERT
  5
19972
330
1940A
100
AcDbEntity
  8
寸法
 62
     0
 48
50.0
370
    -2
100
AcDbBlockReference
  2
_DOTSMALL
 10
7252.374456244003
 20
4423.089970413064
 30
0.0
 41
100.0
 42
100.0
 43
100.0
 50
180.0
  0
MTEXT
  5
19973
330
1940A
100
AcDbEntity
  8
寸法
 62
     7
 48
50.0
100
AcDbMText
 10
7565.859737618243
 20
4523.089970413064
 30
0.0
 40
120.0
 41
0.0
 71
     5
 72
     1
  1
\A1;50
  7
STYLE1
 73
     1
 44
1.0
1001
ACAD
1000
MTEXTBEGIN
1070
    73
1070
     1
1070
    44
1040
1.0
1070
    74
1070
     0
1000
MTEXTEND
  0
POINT
  5
19974
330
1940A
100
AcDbEntity
  8
DEFPOINTS
 62
     0
 48
50.0
100
AcDbPoint
 10
7252.374456244003
 20
4018.469710985793
 30
0.0
  0
POINT
  5
19975
330
1940A
100
AcDbEntity
  8
DEFPOINTS
 62
     0
 48
50.0
100
AcDbPoint
 10
7202.374456244003
 20
4018.469710985795
 30
0.0
  0
POINT
  5
19976
330
1940A
100
AcDbEntity
  8
DEFPOINTS
 62
     0
 48
50.0
100
AcDbPoint
 10
7202.374456244003
 20
4423.089970413064
 30
0.0
  0
ENDBLK
  5
19417
330
1940A
100
AcDbEntity
  8
0
 48
50.0
100
AcDbBlockEnd
  0
BLOCK
  5
19422
330
19418
100
AcDbEntity
  8
0
 48
50.0
100
AcDbBlockBegin
  2
*D26
 70
     1
 10
0.0
 20
0.0
 30
0.0
  3
*D26
  1

  0
LINE
  5
19963
330
19418
100
AcDbEntity
  8
寸法
 62
     0
 48
50.0
370
    -2
100
AcDbLine
 10
7202.374456244003
 20
4038.469710985795
 30
0.0
 11
7202.374456244003
 21
4483.089970413064
 31
0.0
  0
LINE
  5
19964
330
19418
100
AcDbEntity
  8
寸法
 62
     0
 48
50.0
370
    -2
100
AcDbLine
 10
4572.374456244
 20
4038.469710985797
 30
0.0
 11
4572.374456244
 21
4483.089970413064
 31
0.0
  0
LINE
  5
19965
330
19418
100
AcDbEntity
  8
寸法
 62
     0
 48
50.0
370
    -2
100
AcDbLine
 10
7202.374456244003
 20
4423.089970413064
 30
0.0
 11
4572.374456244
 21
4423.089970413064
 31
0.0
  0
INSERT
  5
19966
330
19418
100
AcDbEntity
  8
寸法
 62
     0
 48
50.0
370
    -2
100
AcDbBlockReference
  2
_DOTSMALL
 10
7202.374456244003
 20
4423.089970413064
 30
0.0
 41
100.0
 42
100.0
 43
100.0
  0
INSERT
  5
19967
330
19418
100
AcDbEntity
  8
寸法
 62
     0
 48
50.0
370
    -2
100
AcDbBlockReference
  2
_DOTSMALL
 10
4572.374456244
 20
4423.089970413064
 30
0.0
 41
100.0
 42
100.0
 43
100.0
 50
180.0
  0
MTEXT
  5
19968
330
19418
100
AcDbEntity
  8
寸法
 62
     7
 48
50.0
100
AcDbMText
 10
5887.374456244001
 20
4523.101781436685
 30
0.0
 40
120.0
 41
0.0
 71
     5
 72
     1
  1
\A1;柱外寸法2630
  7
STYLE1
 73
     1
 44
1.0
1001
ACAD
1000
MTEXTBEGIN
1070
    73
1070
     1
1070
    44
1040
1.0
1070
    74
1070
     0
1000
MTEXTEND
  0
POINT
  5
19969
330
19418
100
AcDbEntity
  8
DEFPOINTS
 62
     0
 48
50.0
100
AcDbPoint
 10
7202.374456244003
 20
4018.469710985795
 30
0.0
  0
POINT
  5
1996A
330
19418
100
AcDbEntity
  8
DEFPOINTS
 62
     0
 48
50.0
100
AcDbPoint
 10
4572.374456244
 20
4018.469710985796
 30
0.0
  0
POINT
  5
1996B
330
19418
100
AcDbEntity
  8
DEFPOINTS
 62
     0
 48
50.0
100
AcDbPoint
 10
4572.374456244
 20
4423.089970413064
 30
0.0
  0
ENDBLK
  5
19423
330
19418
100
AcDbEntity
  8
0
 48
50.0
100
AcDbBlockEnd
  0
BLOCK
  5
19430
330
19424
100
AcDbEntity
  8
0
 48
50.0
100
AcDbBlockBegin
  2
*D27
 70
     1
 10
0.0
 20
0.0
 30
0.0
  3
*D27
  1

  0
LINE
  5
19958
330
19424
100
AcDbEntity
  8
寸法
 62
     0
 48
50.0
370
    -2
100
AcDbLine
 10
4572.374456244
 20
4038.469710985797
 30
0.0
 11
4572.374456244
 21
4483.089970413064
 31
0.0
  0
LINE
  5
19959
330
19424
100
AcDbEntity
  8
寸法
 62
     0
 48
50.0
370
    -2
100
AcDbLine
 10
4522.374456244
 20
4038.469710985795
 30
0.0
 11
4522.374456244
 21
4483.089970413064
 31
0.0
  0
LINE
  5
1995A
330
19424
100
AcDbEntity
  8
寸法
 62
     0
 48
50.0
370
    -2
100
AcDbLine
 10
4572.374456244
 20
4423.089970413064
 30
0.0
 11
4672.374456244
 21
4423.089970413064
 31
0.0
  0
LINE
  5
1995B
330
19424
100
AcDbEntity
  8
寸法
 62
     0
 48
50.0
370
    -2
100
AcDbLine
 10
4522.374456244
 20
4423.089970413064
 30
0.0
 11
4102.841930775265
 21
4423.089970413064
 31
0.0
  0
LINE
  5
1995C
330
19424
100
AcDbEntity
  8
寸法
 62
     0
 48
50.0
370
    -2
100
AcDbLine
 10
4572.374456244
 20
4423.089970413064
 30
0.0
 11
4522.374456244
 21
4423.089970413064
 31
0.0
  0
INSERT
  5
1995D
330
19424
100
AcDbEntity
  8
寸法
 62
     0
 48
50.0
370
    -2
100
AcDbBlockReference
  2
_DOTSMALL
 10
4572.374456244
 20
4423.089970413064
 30
0.0
 41
100.0
 42
100.0
 43
100.0
 50
180.0
  0
INSERT
  5
1995E
330
19424
100
AcDbEntity
  8
寸法
 62
     0
 48
50.0
370
    -2
100
AcDbBlockReference
  2
_DOTSMALL
 10
4522.374456244
 20
4423.089970413064
 30
0.0
 41
100.0
 42
100.0
 43
100.0
  0
MTEXT
  5
1995F
330
19424
100
AcDbEntity
  8
寸法
 62
     7
 48
50.0
100
AcDbMText
 10
4208.889174869753
 20
4523.089970413064
 30
0.0
 40
120.0
 41
0.0
 71
     5
 72
     1
  1
\A1;50
  7
STYLE1
 73
     1
 44
1.0
1001
ACAD
1000
MTEXTBEGIN
1070
    73
1070
     1
1070
    44
1040
1.0
1070
    74
1070
     0
1000
MTEXTEND
  0
POINT
  5
19960
330
19424
100
AcDbEntity
  8
DEFPOINTS
 62
     0
 48
50.0
100
AcDbPoint
 10
4572.374456244
 20
4018.469710985796
 30
0.0
  0
POINT
  5
19961
330
19424
100
AcDbEntity
  8
DEFPOINTS
 62
     0
 48
50.0
100
AcDbPoint
 10
4522.374456244
 20
4018.469710985795
 30
0.0
  0
POINT
  5
19962
330
19424
100
AcDbEntity
  8
DEFPOINTS
 62
     0
 48
50.0
100
AcDbPoint
 10
4522.374456244
 20
4423.089970413064
 30
0.0
  0
ENDBLK
  5
19431
330
19424
100
AcDbEntity
  8
0
 48
50.0
100
AcDbBlockEnd
  0
BLOCK
  5
1943C
330
19432
100
AcDbEntity
  8
0
 48
50.0
100
AcDbBlockBegin
  2
*D28
 70
     1
 10
0.0
 20
0.0
 30
0.0
  3
*D28
  1

  0
LINE
  5
1994F
330
19432
100
AcDbEntity
  8
寸法
 62
     0
 48
50.0
370
    -2
100
AcDbLine
 10
4522.374456244
 20
4038.469710985795
 30
0.0
 11
4522.374456244
 21
4692.683844834514
 31
0.0
  0
LINE
  5
19950
330
19432
100
AcDbEntity
  8
寸法
 62
     0
 48
50.0
370
    -2
100
AcDbLine
 10
7252.374456244003
 20
4038.469710985792
 30
0.0
 11
7252.374456244003
 21
4692.683844834514
 31
0.0
  0
LINE
  5
19951
330
19432
100
AcDbEntity
  8
寸法
 62
     0
 48
50.0
370
    -2
100
AcDbLine
 10
4522.374456244
 20
4632.683844834515
 30
0.0
 11
7252.374456244003
 21
4632.683844834515
 31
0.0
  0
INSERT
  5
19952
330
19432
100
AcDbEntity
  8
寸法
 62
     0
 48
50.0
370
    -2
100
AcDbBlockReference
  2
_DOTSMALL
 10
4522.374456244
 20
4632.683844834515
 30
0.0
 41
100.0
 42
100.0
 43
100.0
 50
180.0
  0
INSERT
  5
19953
330
19432
100
AcDbEntity
  8
寸法
 62
     0
 48
50.0
370
    -2
100
AcDbBlockReference
  2
_DOTSMALL
 10
7252.374456244003
 20
4632.683844834515
 30
0.0
 41
100.0
 42
100.0
 43
100.0
  0
MTEXT
  5
19954
330
19432
100
AcDbEntity
  8
寸法
 62
     7
 48
50.0
100
AcDbMText
 10
5887.374456244001
 20
4732.695655858137
 30
0.0
 40
120.0
 41
0.0
 71
     5
 72
     1
  1
\A1;2730
  7
STYLE1
 73
     1
 44
1.0
1001
ACAD
1000
MTEXTBEGIN
1070
    73
1070
     1
1070
    44
1040
1.0
1070
    74
1070
     0
1000
MTEXTEND
  0
POINT
  5
19955
330
19432
100
AcDbEntity
  8
DEFPOINTS
 62
     0
 48
50.0
100
AcDbPoint
 10
4522.374456244
 20
4018.469710985795
 30
0.0
  0
POINT
  5
19956
330
19432
100
AcDbEntity
  8
DEFPOINTS
 62
     0
 48
50.0
100
AcDbPoint
 10
7252.374456244003
 20
4018.469710985793
 30
0.0
  0
POINT
  5
19957
330
19432
100
AcDbEntity
  8
DEFPOINTS
 62
     0
 48
50.0
100
AcDbPoint
 10
7252.374456244003
 20
4632.683844834515
 30
0.0
  0
ENDBLK
  5
1943D
330
19432
100
AcDbEntity
  8
0
 48
50.0
100
AcDbBlockEnd
  0
BLOCK
  5
19B1E
330
19B14
100
AcDbEntity
  8
0
 48
50.0
100
AcDbBlockBegin
  2
*D29
 70
     1
 10
0.0
 20
0.0
 30
0.0
  3
*D29
  1

  0
LINE
  5
19F6F
330
19B14
100
AcDbEntity
  8
寸法
 62
     0
 48
50.0
370
    -2
100
AcDbLine
 10
9351.471485581239
 20
6799.804986298842
 30
0.0
 11
9351.471485581239
 21
6154.729968250618
 31
0.0
  0
LINE
  5
19F70
330
19B14
100
AcDbEntity
  8
寸法
 62
     0
 48
50.0
370
    -2
100
AcDbLine
 10
10301.47148558124
 20
6799.804986298842
 30
0.0
 11
10301.47148558124
 21
6154.729968250618
 31
0.0
  0
LINE
  5
19F71
330
19B14
100
AcDbEntity
  8
寸法
 62
     0
 48
50.0
370
    -2
100
AcDbLine
 10
9371.471485581238
 20
6194.729968250618
 30
0.0
 11
10281.47148558124
 21
6194.729968250618
 31
0.0
  0
INSERT
  5
19F72
330
19B14
100
AcDbEntity
  8
寸法
 62
     0
 48
50.0
370
    -2
100
AcDbBlockReference
  2
_DOT
 10
9351.471485581239
 20
6194.729968250618
 30
0.0
 41
20.0
 42
20.0
 43
20.0
 50
180.0
  0
INSERT
  5
19F73
330
19B14
100
AcDbEntity
  8
寸法
 62
     0
 48
50.0
370
    -2
100
AcDbBlockReference
  2
_DOT
 10
10301.47148558124
 20
6194.729968250618
 30
0.0
 41
20.0
 42
20.0
 43
20.0
  0
MTEXT
  5
19F74
330
19B14
100
AcDbEntity
  8
寸法
 62
     7
 48
50.0
100
AcDbMText
 10
9826.471485581238
 20
6386.729968250619
 30
0.0
 40
120.0
 41
0.0
 71
     5
 72
     1
  1
\A1;有効開口部間口\P950
  7
STYLE1
 73
     1
 44
1.0
1001
ACAD
1000
MTEXTBEGIN
1070
    73
1070
     1
1070
    44
1040
1.0
1070
    74
1070
     0
1000
MTEXTEND
  0
POINT
  5
19F75
330
19B14
100
AcDbEntity
  8
DEFPOINTS
 62
     0
 48
50.0
100
AcDbPoint
 10
9351.471485581239
 20
6819.804986298843
 30
0.0
  0
POINT
  5
19F76
330
19B14
100
AcDbEntity
  8
DEFPOINTS
 62
     0
 48
50.0
100
AcDbPoint
 10
10301.47148558124
 20
6819.804986298843
 30
0.0
  0
POINT
  5
19F77
330
19B14
100
AcDbEntity
  8
DEFPOINTS
 62
     0
 48
50.0
100
AcDbPoint
 10
10301.47148558124
 20
6194.729968250618
 30
0.0
  0
ENDBLK
  5
19B1F
330
19B14
100
AcDbEntity
  8
0
 48
50.0
100
AcDbBlockEnd
  0
BLOCK
  5
19E05
330
19DFB
100
AcDbEntity
  8
0
 48
50.0
100
AcDbBlockBegin
  2
*D30
 70
     1
 10
0.0
 20
0.0
 30
0.0
  3
*D30
  1

  0
LINE
  5
19F66
330
19DFB
100
AcDbEntity
  8
寸法
 62
     0
 48
50.0
370
    -2
100
AcDbLine
 10
9284.471485581267
 20
6876.804986298871
 30
0.0
 11
9284.471485581267
 21
5644.977195553969
 31
0.0
  0
LINE
  5
19F67
330
19DFB
100
AcDbEntity
  8
寸法
 62
     0
 48
50.0
370
    -2
100
AcDbLine
 10
11074.47148558125
 20
6876.804986299001
 30
0.0
 11
11074.47148558125
 21
5644.977195553969
 31
0.0
  0
LINE
  5
19F68
330
19DFB
100
AcDbEntity
  8
寸法
 62
     0
 48
50.0
370
    -2
100
AcDbLine
 10
9284.471485581267
 20
5704.977195553968
 30
0.0
 11
11074.47148558125
 21
5704.977195553968
 31
0.0
  0
INSERT
  5
19F69
330
19DFB
100
AcDbEntity
  8
寸法
 62
     0
 48
50.0
370
    -2
100
AcDbBlockReference
  2
_DOTSMALL
 10
9284.471485581267
 20
5704.977195553968
 30
0.0
 41
100.0
 42
100.0
 43
100.0
 50
180.0
  0
INSERT
  5
19F6A
330
19DFB
100
AcDbEntity
  8
寸法
 62
     0
 48
50.0
370
    -2
100
AcDbBlockReference
  2
_DOTSMALL
 10
11074.47148558125
 20
5704.977195553968
 30
0.0
 41
100.0
 42
100.0
 43
100.0
  0
MTEXT
  5
19F6B
330
19DFB
100
AcDbEntity
  8
寸法
 62
     7
 48
50.0
100
AcDbMText
 10
10167.61823591262
 20
5804.977195553969
 30
0.0
 40
120.0
 41
0.0
 71
     5
 72
     1
  1
\A1;1790
  7
STYLE1
 73
     1
 44
1.0
1001
ACAD
1000
MTEXTBEGIN
1070
    73
1070
     1
1070
    44
1040
1.0
1070
    74
1070
     0
1000
MTEXTEND
  0
POINT
  5
19F6C
330
19DFB
100
AcDbEntity
  8
DEFPOINTS
 62
     0
 48
50.0
100
AcDbPoint
 10
9284.471485581267
 20
6896.804986298872
 30
0.0
  0
POINT
  5
19F6D
330
19DFB
100
AcDbEntity
  8
DEFPOINTS
 62
     0
 48
50.0
100
AcDbPoint
 10
11074.47148558125
 20
6896.804986299001
 30
0.0
  0
POINT
  5
19F6E
330
19DFB
100
AcDbEntity
  8
DEFPOINTS
 62
     0
 48
50.0
100
AcDbPoint
 10
11074.47148558125
 20
5704.977195553968
 30
0.0
  0
ENDBLK
  5
19E06
330
19DFB
100
AcDbEntity
  8
0
 48
50.0
100
AcDbBlockEnd
  0
BLOCK
  5
19E13
330
19E07
100
AcDbEntity
  8
0
 48
50.0
100
AcDbBlockBegin
  2
*D31
 70
     1
 10
0.0
 20
0.0
 30
0.0
  3
*D31
  1

  0
LINE
  5
19F5B
330
19E07
100
AcDbEntity
  8
寸法
 62
     0
 48
50.0
370
    -2
100
AcDbLine
 10
9264.471485581267
 20
6896.804986298872
 30
0.0
 11
8949.860239954551
 21
6896.804986298872
 31
0.0
  0
LINE
  5
19F5C
330
19E07
100
AcDbEntity
  8
寸法
 62
     0
 48
50.0
370
    -2
100
AcDbLine
 10
9292.471485581245
 20
6821.804986298872
 30
0.0
 11
8949.860239954551
 21
6821.804986298872
 31
0.0
  0
LINE
  5
19F5D
330
19E07
100
AcDbEntity
  8
寸法
 62
     0
 48
50.0
370
    -2
100
AcDbLine
 10
8989.86023995455
 20
6916.804986298872
 30
0.0
 11
8989.86023995455
 21
6936.804986298873
 31
0.0
  0
LINE
  5
19F5E
330
19E07
100
AcDbEntity
  8
寸法
 62
     0
 48
50.0
370
    -2
100
AcDbLine
 10
8989.86023995455
 20
6801.804986298872
 30
0.0
 11
8989.86023995455
 21
6580.834423550394
 31
0.0
  0
LINE
  5
19F5F
330
19E07
100
AcDbEntity
  8
寸法
 62
     0
 48
50.0
370
    -2
100
AcDbLine
 10
8989.86023995455
 20
6896.804986298872
 30
0.0
 11
8989.86023995455
 21
6821.804986298872
 31
0.0
  0
INSERT
  5
19F60
330
19E07
100
AcDbEntity
  8
寸法
 62
     0
 48
50.0
370
    -2
100
AcDbBlockReference
  2
_DOT
 10
8989.86023995455
 20
6896.804986298872
 30
0.0
 41
20.0
 42
20.0
 43
20.0
 50
270.0
  0
INSERT
  5
19F61
330
19E07
100
AcDbEntity
  8
寸法
 62
     0
 48
50.0
370
    -2
100
AcDbBlockReference
  2
_DOT
 10
8989.86023995455
 20
6821.804986298872
 30
0.0
 41
20.0
 42
20.0
 43
20.0
 50
90.0
  0
MTEXT
  5
19F62
330
19E07
100
AcDbEntity
  8
寸法
 62
     7
 48
50.0
100
AcDbMText
 10
8897.86023995455
 20
6681.319704924634
 30
0.0
 40
120.0
 41
0.0
 71
     5
 72
     1
  1
\A1;75
  7
STYLE1
 11
0.0000000000000001
 21
1.0
 31
0.0
 73
     1
 44
1.0
1001
ACAD
1000
MTEXTBEGIN
1070
    73
1070
     1
1070
    44
1040
1.0
1070
    74
1070
     0
1000
MTEXTEND
  0
POINT
  5
19F63
330
19E07
100
AcDbEntity
  8
DEFPOINTS
 62
     0
 48
50.0
100
AcDbPoint
 10
9284.471485581267
 20
6896.804986298872
 30
0.0
  0
POINT
  5
19F64
330
19E07
100
AcDbEntity
  8
DEFPOINTS
 62
     0
 48
50.0
100
AcDbPoint
 10
9312.471485581246
 20
6821.804986298872
 30
0.0
  0
POINT
  5
19F65
330
19E07
100
AcDbEntity
  8
DEFPOINTS
 62
     0
 48
50.0
100
AcDbPoint
 10
8989.86023995455
 20
6821.804986298872
 30
0.0
  0
ENDBLK
  5
19E14
330
19E07
100
AcDbEntity
  8
0
 48
50.0
100
AcDbBlockEnd
  0
BLOCK
  5
19E1F
330
19E15
100
AcDbEntity
  8
0
 48
50.0
100
AcDbBlockBegin
  2
*D32
 70
     1
 10
0.0
 20
0.0
 30
0.0
  3
*D32
  1

  0
LINE
  5
19F52
330
19E15
100
AcDbEntity
  8
寸法
 62
     0
 48
50.0
370
    -2
100
AcDbLine
 10
9312.471485581239
 20
6799.804986298878
 30
0.0
 11
9312.471485581239
 21
5884.734716448097
 31
0.0
  0
LINE
  5
19F53
330
19E15
100
AcDbEntity
  8
寸法
 62
     0
 48
50.0
370
    -2
100
AcDbLine
 10
11046.47148558124
 20
6799.804986298875
 30
0.0
 11
11046.47148558124
 21
5884.734716448097
 31
0.0
  0
LINE
  5
19F54
330
19E15
100
AcDbEntity
  8
寸法
 62
     0
 48
50.0
370
    -2
100
AcDbLine
 10
9312.471485581239
 20
5944.734716448095
 30
0.0
 11
11046.47148558124
 21
5944.734716448095
 31
0.0
  0
INSERT
  5
19F55
330
19E15
100
AcDbEntity
  8
寸法
 62
     0
 48
50.0
370
    -2
100
AcDbBlockReference
  2
_DOTSMALL
 10
9312.471485581239
 20
5944.734716448095
 30
0.0
 41
100.0
 42
100.0
 43
100.0
 50
180.0
  0
INSERT
  5
19F56
330
19E15
100
AcDbEntity
  8
寸法
 62
     0
 48
50.0
370
    -2
100
AcDbBlockReference
  2
_DOTSMALL
 10
11046.47148558124
 20
5944.734716448095
 30
0.0
 41
100.0
 42
100.0
 43
100.0
  0
MTEXT
  5
19F57
330
19E15
100
AcDbEntity
  8
寸法
 62
     7
 48
50.0
100
AcDbMText
 10
10170.05322953306
 20
6044.734716448096
 30
0.0
 40
120.0
 41
0.0
 71
     5
 72
     1
  1
\A1;1734
  7
STYLE1
 73
     1
 44
1.0
1001
ACAD
1000
MTEXTBEGIN
1070
    73
1070
     1
1070
    44
1040
1.0
1070
    74
1070
     0
1000
MTEXTEND
  0
POINT
  5
19F58
330
19E15
100
AcDbEntity
  8
DEFPOINTS
 62
     0
 48
50.0
100
AcDbPoint
 10
9312.471485581239
 20
6819.804986298876
 30
0.0
  0
POINT
  5
19F59
330
19E15
100
AcDbEntity
  8
DEFPOINTS
 62
     0
 48
50.0
100
AcDbPoint
 10
11046.47148558124
 20
6819.804986298875
 30
0.0
  0
POINT
  5
19F5A
330
19E15
100
AcDbEntity
  8
DEFPOINTS
 62
     0
 48
50.0
100
AcDbPoint
 10
11046.47148558124
 20
5944.734716448095
 30
0.0
  0
ENDBLK
  5
19E20
330
19E15
100
AcDbEntity
  8
0
 48
50.0
100
AcDbBlockEnd
  0
ENDSEC
  0
SECTION
  2
ENTITIES
  0
LINE
  5
10B57
330
747D
100
AcDbEntity
  8
補助
  6
PHANTOM
 62
   230
 48
50.0
100
AcDbLine
 10
139.9999999999995
 20
11409.6
 30
0.0
 11
16307.2
 21
11409.6
 31
0.0
  0
LINE
  5
10B59
330
747D
100
AcDbEntity
  8
仕様書枠
  6
Continuous
 48
50.0
100
AcDbLine
 10
13107.2
 20
1200.0
 30
0.0
 11
13107.2
 21
-0.0000000000000729
 31
0.0
  0
LINE
  5
10B5C
330
747D
100
AcDbEntity
  8
仕様書枠
 48
50.0
100
AcDbLine
 10
16307.2
 20
1200.0
 30
0.0
 11
16307.2
 21
-0.0000000000000909
 31
0.0
  0
LINE
  5
10B5D
330
747D
100
AcDbEntity
  8
仕様書枠
 48
50.0
100
AcDbLine
 10
140.0
 20
0.0
 30
0.0
 11
16307.2
 21
-0.0000000000000909
 31
0.0
  0
LINE
  5
10B5E
330
747D
100
AcDbEntity
  8
補助
  6
PHANTOM
 62
   230
 48
50.0
100
AcDbLine
 10
16307.2
 20
11409.6
 30
0.0
 11
16307.2
 21
1200.0
 31
0.0
  0
LINE
  5
10B6C
330
747D
100
AcDbEntity
  8
仕様書枠
 48
50.0
100
AcDbLine
 10
13107.2
 20
1200.0
 30
0.0
 11
16307.2
 21
1200.0
 31
0.0
  0
LINE
  5
10B6D
330
747D
100
AcDbEntity
  8
補助
  6
PHANTOM
 62
   230
 48
50.0
100
AcDbLine
 10
13107.2
 20
11409.6
 30
0.0
 11
13107.2
 21
4800.0
 31
0.0
  0
LINE
  5
10B6F
330
747D
100
AcDbEntity
  8
補助
  6
PHANTOM
 62
   230
 48
50.0
100
AcDbLine
 10
13107.2
 20
4800.0
 30
0.0
 11
16307.2
 21
4800.0
 31
0.0
  0
LINE
  5
10B72
330
747D
100
AcDbEntity
  8
文字
 62
     7
 48
50.0
100
AcDbLine
 10
13187.2
 20
400.0
 30
0.0
 11
16227.2
 21
400.0
 31
0.0
  0
TEXT
  5
10B73
330
747D
100
AcDbEntity
  8
文字
 62
     7
 48
50.0
100
AcDbText
 10
13162.9790565769
 20
895.0906074299405
 30
0.0
 40
200.0
  1
外 形 図
  7
STYLE2
100
AcDbText
  0
TEXT
  5
10B74
330
747D
100
AcDbEntity
  8
文字
 62
     7
 48
50.0
100
AcDbText
 10
13201.43669998441
 20
477.2740661031255
 30
0.0
 40
160.0
  1
機種名
  7
STYLE2
100
AcDbText
  0
TEXT
  5
10B76
330
747D
100
AcDbEntity
  8
文字
 62
     7
 48
50.0
100
AcDbText
 10
13209.4053442172
 20
76.09434707649343
 30
0.0
 40
100.0
  1
○床面積 ： 4.84㎡(1.47坪) 　
  7
STYLE2
100
AcDbText
  0
TEXT
  5
10B79
330
747D
100
AcDbEntity
  8
文字
 62
     7
 48
50.0
100
AcDbText
 10
14524.131837222
 20
1031.557706291228
 30
0.0
 40
100.0
  1
NO.11      <縮尺> S=1/40
  7
STYLE2
100
AcDbText
  0
LINE
  5
10B7B
330
747D
100
AcDbEntity
  8
仕様書枠
 48
50.0
100
AcDbLine
 10
13107.2
 20
800.0
 30
0.0
 11
14251.2
 21
800.0
 31
0.0
  0
LINE
  5
10B88
330
747D
100
AcDbEntity
  8
仕様書枠
  6
Continuous
 48
50.0
100
AcDbLine
 10
14251.2
 20
1200.0
 30
0.0
 11
14251.2
 21
800.0
 31
0.0
  0
TEXT
  5
14D2F
330
747D
100
AcDbEntity
  8
文字
 62
     7
 48
50.0
100
AcDbText
 10
14644.07818602837
 20
876.4448062548634
 30
0.0
 40
100.0
  1
～一般型・多雪地型～
  7
STYLE2
100
AcDbText
  0
LINE
  5
1902C
330
747D
100
AcDbEntity
  8
部品1
100
AcDbLine
 10
11046.47148558128
 20
7791.804986299014
 30
0.0
 11
11074.47148558128
 21
7791.804986299014
 31
0.0
  0
LINE
  5
1902D
330
747D
100
AcDbEntity
  8
破線
 48
10.0
100
AcDbLine
 10
9364.471485581256
 20
7771.304986298935
 30
0.0
 11
9364.471485581264
 21
6976.804986298901
 31
0.0
  0
LINE
  5
1902E
330
747D
100
AcDbEntity
  8
破線
 48
10.0
100
AcDbLine
 10
9364.471485581251
 20
8602.304986298934
 30
0.0
 11
9364.471485581256
 21
7821.304986298932
 31
0.0
  0
LINE
  5
1902F
330
747D
100
AcDbEntity
  8
破線
 48
10.0
100
AcDbLine
 10
9340.971485581347
 20
7821.304986298931
 30
0.0
 11
10594.47148558145
 21
7821.304986298933
 31
0.0
  0
LINE
  5
19030
330
747D
100
AcDbEntity
  8
破線
 48
10.0
100
AcDbLine
 10
9340.97148558135
 20
7771.304986298933
 30
0.0
 11
10594.47148558145
 21
7771.304986298933
 31
0.0
  0
LINE
  5
19031
330
747D
100
AcDbEntity
  8
破線
 48
10.0
100
AcDbLine
 10
9340.97148558135
 20
8602.304986298934
 30
0.0
 11
10594.47148558145
 21
8602.304986298934
 31
0.0
  0
LINE
  5
19032
330
747D
100
AcDbEntity
  8
破線
 48
10.0
100
AcDbLine
 10
9340.971485581347
 20
8652.304986298929
 30
0.0
 11
10594.47148558145
 21
8652.304986298934
 31
0.0
  0
LINE
  5
19033
330
747D
100
AcDbEntity
  8
部品1
100
AcDbLine
 10
9759.471485581421
 20
6953.304986298923
 30
0.0
 11
9759.471485581322
 21
9470.304986298925
 31
0.0
  0
LINE
  5
19034
330
747D
100
AcDbEntity
  8
部品1
100
AcDbLine
 10
10179.47148558142
 20
6953.304986298923
 30
0.0
 11
10179.47148558132
 21
9470.304986298925
 31
0.0
  0
LINE
  5
19035
330
747D
100
AcDbEntity
  8
部品1
100
AcDbLine
 10
9312.471485581257
 20
7791.804986298885
 30
0.0
 11
9284.471485581256
 21
7791.804986298885
 31
0.0
  0
DIMENSION
  5
19036
330
747D
100
AcDbEntity
  8
寸法
100
AcDbDimension
  2
*D24
 10
10517.8335456015
 20
9784.321672090728
 30
0.0
 11
10742.8335456015
 21
9784.321672090728
 31
0.0
 70
   160
 71
     5
 42
449.9999999999963
  3
INABA_S40G
100
AcDbAlignedDimension
 13
11044.4714855812
 23
9498.304986299057
 33
0.0
 14
10594.4714855812
 24
9498.304986299057
 34
0.0
100
AcDbRotatedDimension
1001
ACAD
1000
DSTYLE
1002
{
1002
}
  0
ARC
  5
19038
330
747D
100
AcDbEntity
  8
部品1
100
AcDbCircle
 10
7244.966035137565
 20
4011.469710985795
 30
0.0
 40
7.0
100
AcDbArc
 50
356.752657209659
 51
90.0
  0
ARC
  5
19039
330
747D
100
AcDbEntity
  8
部品1
100
AcDbCircle
 10
7231.750711676536
 20
3884.469710985797
 30
0.0
 40
7.0
100
AcDbArc
 50
270.0
 51
356.752657209659
  0
ARC
  5
1903A
330
747D
100
AcDbEntity
  8
部品1
 48
50.0
100
AcDbCircle
 10
7250.122521887215
 20
3991.136710147481
 30
0.0
 40
0.7
100
AcDbArc
 50
277.6581272073639
 51
356.752657209607
  0
ARC
  5
1903B
330
747D
100
AcDbEntity
  8
部品1
 48
50.0
100
AcDbCircle
 10
7241.886491362371
 20
3898.936710147479
 30
0.0
 40
0.7
100
AcDbArc
 50
277.6581272073639
 51
356.752657209659
  0
ARC
  5
1903C
330
747D
100
AcDbEntity
  8
部品1
 48
50.0
100
AcDbCircle
 10
7242.379560470933
 20
3895.269710985793
 30
0.0
 40
3.0
100
AcDbArc
 50
97.6581272073639
 51
176.752657209659
  0
ARC
  5
1903D
330
747D
100
AcDbEntity
  8
部品1
 48
50.0
100
AcDbCircle
 10
7250.615590995777
 20
3987.469710985797
 30
0.0
 40
3.0
100
AcDbArc
 50
97.6581272073639
 51
176.752657209659
  0
LINE
  5
1903E
330
747D
100
AcDbEntity
  8
部品1
100
AcDbLine
 10
7247.62040809959
 20
3987.639650440899
 30
0.0
 11
7242.585367371475
 21
3898.897057607954
 31
0.0
  0
LINE
  5
1903F
330
747D
100
AcDbEntity
  8
部品1
100
AcDbLine
 10
7239.384377574747
 20
3895.439650440896
 30
0.0
 11
7238.739471767631
 21
3884.073185590556
 31
0.0
  0
LINE
  5
19040
330
747D
100
AcDbEntity
  8
細線
 48
50.0
100
AcDbLine
 10
7219.374456243999
 20
4018.469710985795
 30
0.0
 11
7219.374456243999
 21
3877.469710985796
 31
0.0
  0
LINE
  5
19041
330
747D
100
AcDbEntity
  8
部品1
100
AcDbLine
 10
7251.954795228669
 20
4011.073185590556
 30
0.0
 11
7250.82139789632
 21
3991.097057607957
 31
0.0
  0
DIMENSION
  5
19042
330
747D
100
AcDbEntity
  8
寸法
 48
50.0
100
AcDbDimension
  2
*D25
 10
7202.374456244003
 20
4423.089970413064
 30
0.0
 11
7565.859737618243
 21
4423.089970413064
 31
0.0
 70
   160
 71
     5
 42
50.0
  3
INABA_S40G
100
AcDbAlignedDimension
 13
7252.374456244003
 23
4018.469710985793
 33
0.0
 14
7202.374456244003
 24
4018.469710985795
 34
0.0
100
AcDbRotatedDimension
  0
ARC
  5
19043
330
747D
100
AcDbEntity
  8
部品1
 48
0.01
100
AcDbCircle
 10
5360.374456244
 20
3815.969710985792
 30
0.0
 40
2.0
100
AcDbArc
 50
270.0
 51
0.0
  0
ARC
  5
19044
330
747D
100
AcDbEntity
  8
部品1
 48
0.01
100
AcDbCircle
 10
5360.374456244
 20
3847.469710985791
 30
0.0
 40
2.0
100
AcDbArc
 50
0.0
 51
90.0
  0
ARC
  5
19045
330
747D
100
AcDbEntity
  8
部品1
 48
0.01
100
AcDbCircle
 10
5184.374456244
 20
3815.969710985792
 30
0.0
 40
2.0
100
AcDbArc
 50
180.0
 51
270.0
  0
ARC
  5
19046
330
747D
100
AcDbEntity
  8
部品1
 48
0.01
100
AcDbCircle
 10
5184.374456244
 20
3847.469710985791
 30
0.0
 40
2.0
100
AcDbArc
 50
90.0
 51
180.0
  0
LINE
  5
19047
330
747D
100
AcDbEntity
  8
細線
100
AcDbLine
 10
5272.374456244
 20
3819.969710985791
 30
0.0
 11
5346.374456244
 21
3819.969710985791
 31
0.0
  0
LINE
  5
19048
330
747D
100
AcDbEntity
  8
細線
100
AcDbLine
 10
5272.374456244
 20
3842.969710985792
 30
0.0
 11
5198.374456244001
 21
3842.969710985792
 31
0.0
  0
LINE
  5
19049
330
747D
100
AcDbEntity
  8
細線
100
AcDbLine
 10
5198.374456244001
 20
3819.969710985791
 30
0.0
 11
5272.374456244
 21
3819.969710985791
 31
0.0
  0
LINE
  5
1904A
330
747D
100
AcDbEntity
  8
細線
100
AcDbLine
 10
5346.374456244
 20
3842.969710985792
 30
0.0
 11
5272.374456244
 21
3842.969710985792
 31
0.0
  0
LINE
  5
1904B
330
747D
100
AcDbEntity
  8
細線
100
AcDbLine
 10
5346.374456244
 20
3819.969710985791
 30
0.0
 11
5346.374456244
 21
3842.969710985792
 31
0.0
  0
LINE
  5
1904C
330
747D
100
AcDbEntity
  8
細線
100
AcDbLine
 10
5198.374456244001
 20
3842.969710985792
 30
0.0
 11
5198.374456244001
 21
3819.969710985791
 31
0.0
  0
LINE
  5
1904D
330
747D
100
AcDbEntity
  8
部品1
 48
0.01
100
AcDbLine
 10
5362.374456244001
 20
3815.969710985792
 30
0.0
 11
5362.374456244001
 21
3847.469710985791
 31
0.0
  0
LINE
  5
1904E
330
747D
100
AcDbEntity
  8
部品1
 48
0.01
100
AcDbLine
 10
5184.374456244
 20
3813.969710985792
 30
0.0
 11
5360.374456244
 21
3813.969710985792
 31
0.0
  0
LINE
  5
1904F
330
747D
100
AcDbEntity
  8
部品1
 48
0.01
100
AcDbLine
 10
5182.374456244001
 20
3847.469710985791
 30
0.0
 11
5182.374456244001
 21
3815.969710985792
 31
0.0
  0
LINE
  5
19050
330
747D
100
AcDbEntity
  8
部品1
 48
0.01
100
AcDbLine
 10
5360.374456244
 20
3849.469710985792
 30
0.0
 11
5184.374456244
 21
3849.469710985792
 31
0.0
  0
LINE
  5
19051
330
747D
100
AcDbEntity
  8
細線
100
AcDbLine
 10
5198.374456244001
 20
3836.969710985792
 30
0.0
 11
5272.374456244
 21
3836.969710985792
 31
0.0
  0
LINE
  5
19052
330
747D
100
AcDbEntity
  8
細線
100
AcDbLine
 10
5198.374456244001
 20
3830.969710985792
 30
0.0
 11
5272.374456244
 21
3830.969710985792
 31
0.0
  0
LINE
  5
19053
330
747D
100
AcDbEntity
  8
細線
100
AcDbLine
 10
5198.374456244001
 20
3824.969710985792
 30
0.0
 11
5272.374456244
 21
3824.969710985792
 31
0.0
  0
LINE
  5
19054
330
747D
100
AcDbEntity
  8
細線
100
AcDbLine
 10
5198.374456244001
 20
3836.969710985792
 30
0.0
 11
5267.374456244001
 21
3836.969710985792
 31
0.0
  0
LINE
  5
19055
330
747D
100
AcDbEntity
  8
細線
100
AcDbLine
 10
5346.374456244
 20
3836.96971098579
 30
0.0
 11
5272.374456244
 21
3836.969710985792
 31
0.0
  0
LINE
  5
19056
330
747D
100
AcDbEntity
  8
細線
100
AcDbLine
 10
5346.374456244
 20
3824.96971098579
 30
0.0
 11
5272.374456244
 21
3824.969710985792
 31
0.0
  0
LINE
  5
19057
330
747D
100
AcDbEntity
  8
細線
100
AcDbLine
 10
5346.374456244
 20
3830.969710985792
 30
0.0
 11
5272.374456244
 21
3830.969710985792
 31
0.0
  0
LINE
  5
19058
330
747D
100
AcDbEntity
  8
細線
100
AcDbLine
 10
5272.374456244
 20
3842.969710985792
 30
0.0
 11
5272.374456244
 21
3819.969710985791
 31
0.0
  0
LINE
  5
19059
330
747D
100
AcDbEntity
  8
部品1
 48
0.01
100
AcDbLine
 10
6592.374456244001
 20
3847.469710985791
 30
0.0
 11
6592.374456244001
 21
3815.969710985792
 31
0.0
  0
LINE
  5
1905A
330
747D
100
AcDbEntity
  8
部品1
 48
0.01
100
AcDbLine
 10
6590.374456244001
 20
3813.969710985792
 30
0.0
 11
6414.374456244001
 21
3813.969710985792
 31
0.0
  0
LINE
  5
1905B
330
747D
100
AcDbEntity
  8
部品1
 48
0.01
100
AcDbLine
 10
6412.374456244001
 20
3815.969710985792
 30
0.0
 11
6412.374456244001
 21
3847.469710985791
 31
0.0
  0
ARC
  5
1905C
330
747D
100
AcDbEntity
  8
部品1
 48
0.01
100
AcDbCircle
 10
6590.374456244001
 20
3815.969710985792
 30
0.0
 40
2.0
100
AcDbArc
 50
270.0
 51
0.0
  0
ARC
  5
1905D
330
747D
100
AcDbEntity
  8
部品1
 48
0.01
100
AcDbCircle
 10
6414.374456244001
 20
3815.969710985792
 30
0.0
 40
2.0
100
AcDbArc
 50
180.0
 51
270.0
  0
LINE
  5
1905E
330
747D
100
AcDbEntity
  8
細線
100
AcDbLine
 10
6502.374456244
 20
3842.969710985792
 30
0.0
 11
6502.374456244
 21
3819.969710985791
 31
0.0
  0
LINE
  5
1905F
330
747D
100
AcDbEntity
  8
細線
100
AcDbLine
 10
6428.374456244
 20
3830.969710985792
 30
0.0
 11
6502.374456244
 21
3830.969710985792
 31
0.0
  0
LINE
  5
19060
330
747D
100
AcDbEntity
  8
細線
100
AcDbLine
 10
6428.374456244
 20
3824.96971098579
 30
0.0
 11
6502.374456244
 21
3824.969710985792
 31
0.0
  0
LINE
  5
19061
330
747D
100
AcDbEntity
  8
細線
100
AcDbLine
 10
6428.374456244
 20
3836.96971098579
 30
0.0
 11
6502.374456244
 21
3836.969710985792
 31
0.0
  0
LINE
  5
19062
330
747D
100
AcDbEntity
  8
細線
100
AcDbLine
 10
6576.374456244001
 20
3836.969710985792
 30
0.0
 11
6507.374456244001
 21
3836.969710985792
 31
0.0
  0
LINE
  5
19063
330
747D
100
AcDbEntity
  8
細線
100
AcDbLine
 10
6576.374456244001
 20
3824.969710985792
 30
0.0
 11
6502.374456244
 21
3824.969710985792
 31
0.0
  0
LINE
  5
19064
330
747D
100
AcDbEntity
  8
細線
100
AcDbLine
 10
6576.374456244001
 20
3830.969710985792
 30
0.0
 11
6502.374456244
 21
3830.969710985792
 31
0.0
  0
LINE
  5
19065
330
747D
100
AcDbEntity
  8
細線
100
AcDbLine
 10
6576.374456244001
 20
3836.969710985792
 30
0.0
 11
6502.374456244
 21
3836.969710985792
 31
0.0
  0
LINE
  5
19066
330
747D
100
AcDbEntity
  8
部品1
 48
0.01
100
AcDbLine
 10
6414.374456244001
 20
3849.469710985792
 30
0.0
 11
6590.374456244001
 21
3849.469710985792
 31
0.0
  0
LINE
  5
19067
330
747D
100
AcDbEntity
  8
細線
100
AcDbLine
 10
6576.374456244001
 20
3842.969710985792
 30
0.0
 11
6576.374456244001
 21
3819.969710985791
 31
0.0
  0
LINE
  5
19068
330
747D
100
AcDbEntity
  8
細線
100
AcDbLine
 10
6428.374456244
 20
3819.969710985791
 30
0.0
 11
6428.374456244
 21
3842.969710985792
 31
0.0
  0
LINE
  5
19069
330
747D
100
AcDbEntity
  8
細線
100
AcDbLine
 10
6428.374456244
 20
3842.969710985792
 30
0.0
 11
6502.374456244
 21
3842.969710985792
 31
0.0
  0
LINE
  5
1906A
330
747D
100
AcDbEntity
  8
細線
100
AcDbLine
 10
6576.374456244001
 20
3819.969710985791
 30
0.0
 11
6502.374456244
 21
3819.969710985791
 31
0.0
  0
LINE
  5
1906B
330
747D
100
AcDbEntity
  8
細線
100
AcDbLine
 10
6502.374456244
 20
3842.969710985792
 30
0.0
 11
6576.374456244001
 21
3842.969710985792
 31
0.0
  0
LINE
  5
1906C
330
747D
100
AcDbEntity
  8
細線
100
AcDbLine
 10
6502.374456244
 20
3819.969710985791
 30
0.0
 11
6428.374456244
 21
3819.969710985791
 31
0.0
  0
ARC
  5
1906D
330
747D
100
AcDbEntity
  8
部品1
 48
0.01
100
AcDbCircle
 10
6590.374456244001
 20
3847.469710985791
 30
0.0
 40
2.0
100
AcDbArc
 50
0.0
 51
90.0
  0
ARC
  5
1906E
330
747D
100
AcDbEntity
  8
部品1
 48
0.01
100
AcDbCircle
 10
6414.374456244001
 20
3847.469710985791
 30
0.0
 40
2.0
100
AcDbArc
 50
90.0
 51
180.0
  0
LINE
  5
1906F
330
747D
100
AcDbEntity
  8
部品1
100
AcDbLine
 10
4522.794117259331
 20
4011.073185590556
 30
0.0
 11
4523.927514591679
 21
3991.097057607957
 31
0.0
  0
LINE
  5
19070
330
747D
100
AcDbEntity
  8
部品1
100
AcDbLine
 10
4535.36453491326
 20
3895.439650440896
 30
0.0
 11
4536.009440720369
 21
3884.073185590556
 31
0.0
  0
LINE
  5
19071
330
747D
100
AcDbEntity
  8
部品1
100
AcDbLine
 10
4527.128504388409
 20
3987.639650440899
 30
0.0
 11
4532.163545116524
 21
3898.897057607954
 31
0.0
  0
ARC
  5
19072
330
747D
100
AcDbEntity
  8
部品1
 48
50.0
100
AcDbCircle
 10
4524.133321492223
 20
3987.469710985797
 30
0.0
 40
3.0
100
AcDbArc
 50
3.247342790340932
 51
82.34187279263609
  0
ARC
  5
19073
330
747D
100
AcDbEntity
  8
部品1
 48
50.0
100
AcDbCircle
 10
4532.369352017067
 20
3895.269710985793
 30
0.0
 40
3.0
100
AcDbArc
 50
3.247342790340932
 51
82.34187279263609
  0
ARC
  5
19074
330
747D
100
AcDbEntity
  8
部品1
 48
50.0
100
AcDbCircle
 10
4532.862421125628
 20
3898.936710147479
 30
0.0
 40
0.7
100
AcDbArc
 50
183.247342790341
 51
262.3418727926361
  0
ARC
  5
19075
330
747D
100
AcDbEntity
  8
部品1
 48
50.0
100
AcDbCircle
 10
4524.626390600792
 20
3991.136710147481
 30
0.0
 40
0.7
100
AcDbArc
 50
183.2473427903929
 51
262.3418727926361
  0
ARC
  5
19076
330
747D
100
AcDbEntity
  8
部品1
100
AcDbCircle
 10
4542.998200811464
 20
3884.469710985797
 30
0.0
 40
7.0
100
AcDbArc
 50
183.247342790341
 51
270.0
  0
ARC
  5
19077
330
747D
100
AcDbEntity
  8
部品1
100
AcDbCircle
 10
4529.782877350434
 20
4011.469710985795
 30
0.0
 40
7.0
100
AcDbArc
 50
90.0
 51
183.247342790341
  0
LINE
  5
19078
330
747D
100
AcDbEntity
  8
細線
 48
50.0
100
AcDbLine
 10
4555.374456244001
 20
4018.469710985795
 30
0.0
 11
4555.374456244001
 21
3877.469710985796
 31
0.0
  0
LINE
  5
19079
330
747D
100
AcDbEntity
  8
細線
 48
50.0
100
AcDbLine
 10
7242.098887497714
 20
3898.269710985791
 30
0.0
 11
4532.650024990271
 21
3898.269710985797
 31
0.0
  0
LINE
  5
1907A
330
747D
100
AcDbEntity
  8
細線
 48
50.0
100
AcDbLine
 10
7250.334918022566
 20
3990.469710985795
 30
0.0
 11
4524.413994465441
 21
3990.469710985794
 31
0.0
  0
LINE
  5
1907B
330
747D
100
AcDbEntity
  8
部品1
 48
50.0
100
AcDbLine
 10
7231.750711676536
 20
3877.469710985798
 30
0.0
 11
4542.998200811464
 21
3877.469710985796
 31
0.0
  0
LINE
  5
1907C
330
747D
100
AcDbEntity
  8
部品1
 48
50.0
100
AcDbLine
 10
7244.966035137565
 20
4018.469710985795
 30
0.0
 11
4529.782877350434
 21
4018.469710985796
 31
0.0
  0
DIMENSION
  5
1907D
330
747D
100
AcDbEntity
  8
寸法
 48
50.0
100
AcDbDimension
  2
*D26
 10
4572.374456244
 20
4423.089970413064
 30
0.0
 11
5887.374456244001
 21
4423.089970413064
 31
0.0
 70
   160
  1
柱外寸法<>
 71
     5
 42
2630.000000000002
  3
INABA_S40G
100
AcDbAlignedDimension
 13
7202.374456244003
 23
4018.469710985795
 33
0.0
 14
4572.374456244
 24
4018.469710985796
 34
0.0
100
AcDbRotatedDimension
  0
DIMENSION
  5
1907E
330
747D
100
AcDbEntity
  8
寸法
 48
50.0
100
AcDbDimension
  2
*D27
 10
4522.374456244
 20
4423.089970413064
 30
0.0
 11
4208.889174869753
 21
4423.089970413064
 31
0.0
 70
   160
 71
     5
 42
50.0
  3
INABA_S40G
100
AcDbAlignedDimension
 13
4572.374456244
 23
4018.469710985796
 33
0.0
 14
4522.374456244
 24
4018.469710985795
 34
0.0
100
AcDbRotatedDimension
1001
ACAD
1000
DSTYLE
1002
{
1002
}
  0
DIMENSION
  5
1907F
330
747D
100
AcDbEntity
  8
寸法
 48
50.0
100
AcDbDimension
  2
*D28
 10
7252.374456244003
 20
4632.683844834515
 30
0.0
 11
5887.374456244001
 21
4632.683844834515
 31
0.0
 70
   160
 71
     5
 42
2730.000000000002
  3
INABA_S40G
100
AcDbAlignedDimension
 13
4522.374456244
 23
4018.469710985795
 33
0.0
 14
7252.374456244003
 24
4018.469710985793
 34
0.0
100
AcDbRotatedDimension
  0
LINE
  5
19080
330
747D
100
AcDbEntity
  8
部品1
 48
50.0
100
AcDbLine
 10
5372.374456244
 20
1643.469710985792
 30
0.0
 11
5372.374456244
 21
1543.469710985792
 31
0.0
  0
LINE
  5
19081
330
747D
100
AcDbEntity
  8
部品1
 48
50.0
100
AcDbLine
 10
5572.374456244
 20
1643.469710985792
 30
0.0
 11
5572.374456244
 21
1543.469710985792
 31
0.0
  0
LINE
  5
19082
330
747D
100
AcDbEntity
  8
部品1
 48
50.0
100
AcDbLine
 10
6202.374456244001
 20
1643.469710985792
 30
0.0
 11
6202.374456244001
 21
1543.469710985792
 31
0.0
  0
LINE
  5
19083
330
747D
100
AcDbEntity
  8
部品1
 48
50.0
100
AcDbLine
 10
6402.374456244
 20
1643.469710985792
 30
0.0
 11
6402.374456244
 21
1543.469710985792
 31
0.0
  0
LINE
  5
19084
330
747D
100
AcDbEntity
  8
部品1
100
AcDbLine
 10
4619.874456244001
 20
1643.469710985792
 30
0.0
 11
7154.874456244002
 21
1643.469710985792
 31
0.0
  0
LINE
  5
19085
330
747D
100
AcDbEntity
  8
部品1
100
AcDbLine
 10
7194.874456244003
 20
1643.469710985792
 30
0.0
 11
7202.374456244003
 21
1643.469710985792
 31
0.0
  0
LINE
  5
19086
330
747D
100
AcDbEntity
  8
細線
 48
50.0
100
AcDbLine
 10
6649.874456244001
 20
3783.469710985796
 30
0.0
 11
6649.874456244001
 21
1693.469710985794
 31
0.0
  0
LINE
  5
19087
330
747D
100
AcDbEntity
  8
細線
 48
50.0
100
AcDbLine
 10
6664.874456244
 20
3783.469710985796
 30
0.0
 11
6664.874456244
 21
1693.469710985794
 31
0.0
  0
LINE
  5
19088
330
747D
100
AcDbEntity
  8
細線
 48
50.0
100
AcDbLine
 10
6524.874456244001
 20
3783.469710985796
 30
0.0
 11
6524.874456244001
 21
1693.469710985794
 31
0.0
  0
LINE
  5
19089
330
747D
100
AcDbEntity
  8
細線
 48
50.0
100
AcDbLine
 10
6509.874456244
 20
3783.469710985796
 30
0.0
 11
6509.874456244
 21
1693.469710985794
 31
0.0
  0
LINE
  5
1908A
330
747D
100
AcDbEntity
  8
細線
 48
50.0
100
AcDbLine
 10
6369.874456244001
 20
3783.469710985796
 30
0.0
 11
6369.874456244001
 21
1693.469710985794
 31
0.0
  0
LINE
  5
1908B
330
747D
100
AcDbEntity
  8
細線
 48
50.0
100
AcDbLine
 10
6384.874456244001
 20
3783.469710985796
 30
0.0
 11
6384.874456244001
 21
1693.469710985794
 31
0.0
  0
LINE
  5
1908C
330
747D
100
AcDbEntity
  8
部品1
100
AcDbLine
 10
6307.374456243993
 20
3783.469710985796
 30
0.0
 11
6307.374456243993
 21
1693.469710985794
 31
0.0
  0
LINE
  5
1908D
330
747D
100
AcDbEntity
  8
細線
 48
50.0
100
AcDbLine
 10
5964.874456244
 20
3783.469710985792
 30
0.0
 11
5964.874456244
 21
1693.469710985792
 31
0.0
  0
LINE
  5
1908E
330
747D
100
AcDbEntity
  8
細線
 48
50.0
100
AcDbLine
 10
5949.874456244001
 20
3783.469710985792
 30
0.0
 11
5949.874456244001
 21
1693.469710985792
 31
0.0
  0
LINE
  5
1908F
330
747D
100
AcDbEntity
  8
細線
 48
50.0
100
AcDbLine
 10
6089.874456244
 20
3783.469710985792
 30
0.0
 11
6089.874456244
 21
1693.469710985792
 31
0.0
  0
LINE
  5
19090
330
747D
100
AcDbEntity
  8
細線
 48
50.0
100
AcDbLine
 10
6104.874456244001
 20
3783.469710985792
 30
0.0
 11
6104.874456244001
 21
1693.469710985792
 31
0.0
  0
LINE
  5
19091
330
747D
100
AcDbEntity
  8
細線
 48
50.0
100
AcDbLine
 10
6244.874456244001
 20
3783.469710985792
 30
0.0
 11
6244.874456244001
 21
1693.469710985792
 31
0.0
  0
LINE
  5
19092
330
747D
100
AcDbEntity
  8
細線
 48
50.0
100
AcDbLine
 10
6229.874456244001
 20
3783.469710985792
 30
0.0
 11
6229.874456244001
 21
1693.469710985792
 31
0.0
  0
LINE
  5
19093
330
747D
100
AcDbEntity
  8
部品1
100
AcDbLine
 10
6727.374456244
 20
3783.469710985793
 30
0.0
 11
6727.374456244
 21
1693.469710985793
 31
0.0
  0
LINE
  5
19094
330
747D
100
AcDbEntity
  8
部品1
100
AcDbLine
 10
4572.374456244
 20
3783.469710985792
 30
0.0
 11
7202.374456244003
 21
3783.469710985792
 31
0.0
  0
LINE
  5
19095
330
747D
100
AcDbEntity
  8
部品1
100
AcDbLine
 10
4572.374456244
 20
1693.469710985792
 30
0.0
 11
7202.374456244003
 21
1693.469710985793
 31
0.0
  0
LINE
  5
19096
330
747D
100
AcDbEntity
  8
部品1
100
AcDbLine
 10
4627.374456244001
 20
3783.469710985792
 30
0.0
 11
4627.374456244001
 21
1693.469710985792
 31
0.0
  0
LINE
  5
19097
330
747D
100
AcDbEntity
  8
部品1
100
AcDbLine
 10
4572.374456244
 20
3877.469710985796
 30
0.0
 11
4572.374456244
 21
1543.469710985792
 31
0.0
  0
LINE
  5
19098
330
747D
100
AcDbEntity
  8
部品1
100
AcDbLine
 10
5047.374456244
 20
3783.469710985792
 30
0.0
 11
5047.374456244
 21
1693.469710985792
 31
0.0
  0
LINE
  5
19099
330
747D
100
AcDbEntity
  8
部品1
100
AcDbLine
 10
7202.374456243998
 20
3877.469710985798
 30
0.0
 11
7202.374456244003
 21
1543.469710985793
 31
0.0
  0
LINE
  5
1909A
330
747D
100
AcDbEntity
  8
部品1
100
AcDbLine
 10
7147.374456244003
 20
3783.469710985793
 30
0.0
 11
7147.374456244003
 21
1693.469710985793
 31
0.0
  0
LINE
  5
1909B
330
747D
100
AcDbEntity
  8
部品1
100
AcDbLine
 10
4572.374456244
 20
1643.469710985792
 30
0.0
 11
4579.874456244001
 21
1643.469710985792
 31
0.0
  0
LINE
  5
1909C
330
747D
100
AcDbEntity
  8
細線
 48
50.0
100
AcDbLine
 10
5124.874456244
 20
3783.469710985792
 30
0.0
 11
5124.874456244
 21
1693.469710985792
 31
0.0
  0
LINE
  5
1909D
330
747D
100
AcDbEntity
  8
細線
 48
50.0
100
AcDbLine
 10
5109.874456244
 20
3783.469710985792
 30
0.0
 11
5109.874456244
 21
1693.469710985792
 31
0.0
  0
LINE
  5
1909E
330
747D
100
AcDbEntity
  8
細線
 48
50.0
100
AcDbLine
 10
5249.874456244
 20
3783.469710985792
 30
0.0
 11
5249.874456244
 21
1693.469710985792
 31
0.0
  0
LINE
  5
1909F
330
747D
100
AcDbEntity
  8
細線
 48
50.0
100
AcDbLine
 10
5264.874456244001
 20
3783.469710985792
 30
0.0
 11
5264.874456244001
 21
1693.469710985792
 31
0.0
  0
LINE
  5
190A0
330
747D
100
AcDbEntity
  8
細線
 48
50.0
100
AcDbLine
 10
5404.874456244001
 20
3783.469710985792
 30
0.0
 11
5404.874456244001
 21
1693.469710985792
 31
0.0
  0
LINE
  5
190A1
330
747D
100
AcDbEntity
  8
細線
 48
50.0
100
AcDbLine
 10
5389.874456244001
 20
3783.469710985792
 30
0.0
 11
5389.874456244001
 21
1693.469710985792
 31
0.0
  0
LINE
  5
190A2
330
747D
100
AcDbEntity
  8
細線
 48
50.0
100
AcDbLine
 10
4969.874456244
 20
3783.469710985792
 30
0.0
 11
4969.874456244
 21
1693.469710985792
 31
0.0
  0
LINE
  5
190A3
330
747D
100
AcDbEntity
  8
細線
 48
50.0
100
AcDbLine
 10
4984.874456244
 20
3783.469710985792
 30
0.0
 11
4984.874456244
 21
1693.469710985792
 31
0.0
  0
LINE
  5
190A4
330
747D
100
AcDbEntity
  8
細線
 48
50.0
100
AcDbLine
 10
4844.874456244
 20
3783.469710985792
 30
0.0
 11
4844.874456244
 21
1693.469710985792
 31
0.0
  0
LINE
  5
190A5
330
747D
100
AcDbEntity
  8
細線
 48
50.0
100
AcDbLine
 10
4829.874456244001
 20
3783.469710985792
 30
0.0
 11
4829.874456244001
 21
1693.469710985792
 31
0.0
  0
LINE
  5
190A6
330
747D
100
AcDbEntity
  8
細線
 48
50.0
100
AcDbLine
 10
4689.874456244001
 20
3783.469710985792
 30
0.0
 11
4689.874456244001
 21
1693.469710985792
 31
0.0
  0
LINE
  5
190A7
330
747D
100
AcDbEntity
  8
細線
 48
50.0
100
AcDbLine
 10
4704.874456244001
 20
3783.469710985792
 30
0.0
 11
4704.874456244001
 21
1693.469710985792
 31
0.0
  0
LINE
  5
190A8
330
747D
100
AcDbEntity
  8
部品1
100
AcDbLine
 10
5467.374456244001
 20
3783.469710985792
 30
0.0
 11
5467.374456244001
 21
1693.469710985792
 31
0.0
  0
LINE
  5
190A9
330
747D
100
AcDbEntity
  8
細線
 48
50.0
100
AcDbLine
 10
5809.874456244
 20
3783.469710985792
 30
0.0
 11
5809.874456244
 21
1693.469710985792
 31
0.0
  0
LINE
  5
190AA
330
747D
100
AcDbEntity
  8
細線
 48
50.0
100
AcDbLine
 10
5824.874456244001
 20
3783.469710985792
 30
0.0
 11
5824.874456244001
 21
1693.469710985792
 31
0.0
  0
LINE
  5
190AB
330
747D
100
AcDbEntity
  8
細線
 48
50.0
100
AcDbLine
 10
5684.874456244
 20
3783.469710985792
 30
0.0
 11
5684.874456244
 21
1693.469710985792
 31
0.0
  0
LINE
  5
190AC
330
747D
100
AcDbEntity
  8
細線
 48
50.0
100
AcDbLine
 10
5669.874456244
 20
3783.469710985792
 30
0.0
 11
5669.874456244
 21
1693.469710985792
 31
0.0
  0
LINE
  5
190AD
330
747D
100
AcDbEntity
  8
細線
 48
50.0
100
AcDbLine
 10
5529.874456244001
 20
3783.469710985792
 30
0.0
 11
5529.874456244001
 21
1693.469710985792
 31
0.0
  0
LINE
  5
190AE
330
747D
100
AcDbEntity
  8
細線
 48
50.0
100
AcDbLine
 10
5544.874456244
 20
3783.469710985792
 30
0.0
 11
5544.874456244
 21
1693.469710985792
 31
0.0
  0
LINE
  5
190AF
330
747D
100
AcDbEntity
  8
部品1
100
AcDbLine
 10
5887.374456244001
 20
3783.469710985792
 30
0.0
 11
5887.374456244001
 21
1693.469710985792
 31
0.0
  0
LINE
  5
190B0
330
747D
100
AcDbEntity
  8
細線
 48
50.0
100
AcDbLine
 10
6804.874456244007
 20
3783.469710985793
 30
0.0
 11
6804.874456244007
 21
1693.469710985793
 31
0.0
  0
LINE
  5
190B1
330
747D
100
AcDbEntity
  8
細線
 48
50.0
100
AcDbLine
 10
6789.874456244008
 20
3783.469710985793
 30
0.0
 11
6789.874456244008
 21
1693.469710985793
 31
0.0
  0
LINE
  5
190B2
330
747D
100
AcDbEntity
  8
細線
 48
50.0
100
AcDbLine
 10
6929.874456244007
 20
3783.469710985793
 30
0.0
 11
6929.874456244007
 21
1693.469710985793
 31
0.0
  0
LINE
  5
190B3
330
747D
100
AcDbEntity
  8
細線
 48
50.0
100
AcDbLine
 10
6944.874456244008
 20
3783.469710985793
 30
0.0
 11
6944.874456244008
 21
1693.469710985793
 31
0.0
  0
LINE
  5
190B4
330
747D
100
AcDbEntity
  8
細線
 48
50.0
100
AcDbLine
 10
7084.874456244008
 20
3783.469710985793
 30
0.0
 11
7084.874456244008
 21
1693.469710985793
 31
0.0
  0
LINE
  5
190B5
330
747D
100
AcDbEntity
  8
細線
 48
50.0
100
AcDbLine
 10
7069.874456244008
 20
3783.469710985793
 30
0.0
 11
7069.874456244008
 21
1693.469710985793
 31
0.0
  0
LINE
  5
190B6
330
747D
100
AcDbEntity
  8
部品1
100
AcDbLine
 10
4772.374456244
 20
1643.469710985792
 30
0.0
 11
4772.374456244
 21
1543.469710985792
 31
0.0
  0
LINE
  5
190B7
330
747D
100
AcDbEntity
  8
部品1
100
AcDbLine
 10
7002.374456244
 20
1643.469710985792
 30
0.0
 11
7002.374456244
 21
1543.469710985792
 31
0.0
  0
LINE
  5
190B8
330
747D
100
AcDbEntity
  8
部品1
 48
50.0
100
AcDbLine
 10
7279.374456244003
 20
1643.469710985792
 30
0.0
 11
7194.874456244003
 21
1643.469710985792
 31
0.0
  0
LINE
  5
190B9
330
747D
100
AcDbEntity
  8
部品1
 48
50.0
100
AcDbLine
 10
7279.374456244003
 20
3768.469710985792
 30
0.0
 11
7279.374456244003
 21
1543.469710985792
 31
0.0
  0
LINE
  5
190BA
330
747D
100
AcDbEntity
  8
部品1
 48
50.0
100
AcDbLine
 10
7202.374456244003
 20
3778.469710985792
 30
0.0
 11
7279.374456244003
 21
3768.469710985792
 31
0.0
  0
LINE
  5
190BB
330
747D
100
AcDbEntity
  8
破線
 48
5.0
100
AcDbLine
 10
7074.874456244008
 20
1543.469710985792
 30
0.0
 11
7074.874456244008
 21
1343.469710985792
 31
0.0
  0
LINE
  5
190BC
330
747D
100
AcDbEntity
  8
破線
 48
5.0
100
AcDbLine
 10
7274.874456244003
 20
1343.469710985789
 30
0.0
 11
7074.874456244008
 21
1343.469710985792
 31
0.0
  0
LINE
  5
190BD
330
747D
100
AcDbEntity
  8
破線
 48
5.0
100
AcDbLine
 10
7274.87445624401
 20
1543.469710985792
 30
0.0
 11
7274.874456244003
 21
1343.469710985789
 31
0.0
  0
DIMENSION
  5
190BE
330
747D
100
AcDbEntity
  8
寸法
 48
50.0
100
AcDbDimension
  2
*D9
 10
4499.874456244
 20
1057.422381685412
 30
0.0
 11
4599.874456244001
 21
1057.422381685412
 31
0.0
 70
   160
 71
     5
 42
200.0
  3
INABA_S40G
100
AcDbAlignedDimension
 13
4699.874456244001
 23
1343.469710985789
 33
0.0
 14
4499.874456244
 24
1343.469710985791
 34
0.0
100
AcDbRotatedDimension
  0
LINE
  5
190BF
330
747D
100
AcDbEntity
  8
破線
 48
5.0
100
AcDbLine
 10
4499.874456244
 20
1543.469710985792
 30
0.0
 11
4499.874456244
 21
1343.469710985789
 31
0.0
  0
LINE
  5
190C0
330
747D
100
AcDbEntity
  8
破線
 48
5.0
100
AcDbLine
 10
4699.874456244001
 20
1543.469710985792
 30
0.0
 11
4699.874456244001
 21
1343.469710985789
 31
0.0
  0
LINE
  5
190C1
330
747D
100
AcDbEntity
  8
破線
 48
5.0
100
AcDbLine
 10
4699.874456244001
 20
1343.469710985789
 30
0.0
 11
4499.874456244
 21
1343.469710985789
 31
0.0
  0
DIMENSION
  5
190C2
330
747D
100
AcDbEntity
  8
寸法
 48
50.0
100
AcDbDimension
  2
*D10
 10
4350.374452997367
 20
1543.469710985791
 30
0.0
 11
4350.374452997367
 21
1443.469710985791
 31
0.0
 70
   160
 71
     5
 42
200.0
  3
INABA_S40G
100
AcDbAlignedDimension
 13
4499.874456244
 23
1343.469710985791
 33
0.0
 14
4474.874456244001
 24
1543.469710985791
 34
0.0
 50
90.0
100
AcDbRotatedDimension
1001
ACAD
1000
DSTYLE
1002
{
1070
   174
1070
     0
1070
   272
1070
     1
1070
   288
1070
     0
1070
   341
1005
0
1002
}
  0
LINE
  5
190C3
330
747D
100
AcDbEntity
  8
部品1
100
AcDbLine
 10
7194.874456244003
 20
1643.469710985792
 30
0.0
 11
7202.374456244003
 21
1643.469710985792
 31
0.0
  0
LINE
  5
190C4
330
747D
100
AcDbEntity
  8
破線
  6
HIDDEN
 48
5.0
100
AcDbLine
 10
4619.874456244001
 20
1543.469710985792
 30
0.0
 11
4619.874456244001
 21
1538.469710985792
 31
0.0
  0
LINE
  5
190C5
330
747D
100
AcDbEntity
  8
破線
  6
HIDDEN
 48
5.0
100
AcDbLine
 10
4579.874456244008
 20
1543.469710985792
 30
0.0
 11
4579.874456244008
 21
1538.469710985792
 31
0.0
  0
LINE
  5
190C6
330
747D
100
AcDbEntity
  8
破線
  6
HIDDEN
 48
5.0
100
AcDbLine
 10
7194.874456244003
 20
1543.469710985792
 30
0.0
 11
7194.874456244003
 21
1538.469710985792
 31
0.0
  0
LINE
  5
190C7
330
747D
100
AcDbEntity
  8
破線
  6
HIDDEN
 48
5.0
100
AcDbLine
 10
7154.874456244002
 20
1543.469710985792
 30
0.0
 11
7154.874456244002
 21
1538.469710985792
 31
0.0
  0
ARC
  5
190C8
330
747D
100
AcDbEntity
  8
部品1
 48
50.0
100
AcDbCircle
 10
7189.874456244003
 20
1683.469710985792
 30
0.0
 40
5.0
100
AcDbArc
 50
0.0
 51
90.0
  0
ARC
  5
190C9
330
747D
100
AcDbEntity
  8
部品1
 48
50.0
100
AcDbCircle
 10
7159.874456244003
 20
1683.469710985792
 30
0.0
 40
5.0
100
AcDbArc
 50
90.0
 51
180.0
  0
LINE
  5
190CA
330
747D
100
AcDbEntity
  8
部品1
100
AcDbLine
 10
7189.874456244003
 20
1688.469710985792
 30
0.0
 11
7159.874456244003
 21
1688.469710985792
 31
0.0
  0
LINE
  5
190CB
330
747D
100
AcDbEntity
  8
部品1
 48
50.0
100
AcDbLine
 10
7194.874456244003
 20
1683.469710985792
 30
0.0
 11
7194.874456244003
 21
1543.469710985792
 31
0.0
  0
LINE
  5
190CC
330
747D
100
AcDbEntity
  8
部品1
 48
50.0
100
AcDbLine
 10
7154.874456244002
 20
1683.469710985792
 30
0.0
 11
7154.874456244002
 21
1543.469710985792
 31
0.0
  0
ARC
  5
190CD
330
747D
100
AcDbEntity
  8
部品1
 48
50.0
100
AcDbCircle
 10
4614.874456244001
 20
1683.469710985792
 30
0.0
 40
5.0
100
AcDbArc
 50
0.0
 51
90.0
  0
ARC
  5
190CE
330
747D
100
AcDbEntity
  8
部品1
 48
50.0
100
AcDbCircle
 10
4584.874456244
 20
1683.469710985792
 30
0.0
 40
5.0
100
AcDbArc
 50
90.0
 51
180.0
  0
LINE
  5
190CF
330
747D
100
AcDbEntity
  8
部品1
100
AcDbLine
 10
4584.874456244
 20
1688.469710985792
 30
0.0
 11
4614.874456244001
 21
1688.469710985792
 31
0.0
  0
LINE
  5
190D0
330
747D
100
AcDbEntity
  8
部品1
 48
50.0
100
AcDbLine
 10
4619.874456244001
 20
1683.469710985792
 30
0.0
 11
4619.874456244001
 21
1543.469710985792
 31
0.0
  0
LINE
  5
190D1
330
747D
100
AcDbEntity
  8
部品1
 48
50.0
100
AcDbLine
 10
4579.874456244001
 20
1683.469710985792
 30
0.0
 11
4579.874456244001
 21
1543.469710985792
 31
0.0
  0
LINE
  5
190D2
330
747D
100
AcDbEntity
  8
破線
  6
HIDDEN
 48
5.0
100
AcDbLine
 10
4619.874456244001
 20
1538.469710985792
 30
0.0
 11
4634.874456244
 21
1390.769710985792
 31
0.0
  0
LINE
  5
190D3
330
747D
100
AcDbEntity
  8
破線
  6
HIDDEN
 48
5.0
100
AcDbLine
 10
4579.874456244001
 20
1538.469710985792
 30
0.0
 11
4564.874456244001
 21
1390.769710985792
 31
0.0
  0
LINE
  5
190D4
330
747D
100
AcDbEntity
  8
破線
  6
HIDDEN
 48
5.0
100
AcDbLine
 10
4634.874456244
 20
1390.769710985792
 30
0.0
 11
4634.874456244
 21
1388.469710985792
 31
0.0
  0
LINE
  5
190D5
330
747D
100
AcDbEntity
  8
破線
  6
HIDDEN
 48
5.0
100
AcDbLine
 10
4564.874456244001
 20
1390.769710985792
 30
0.0
 11
4564.874456244001
 21
1388.469710985792
 31
0.0
  0
LINE
  5
190D6
330
747D
100
AcDbEntity
  8
破線
  6
HIDDEN
 48
5.0
100
AcDbLine
 10
4564.874456244001
 20
1388.469710985792
 30
0.0
 11
4634.874456244
 21
1388.469710985792
 31
0.0
  0
LINE
  5
190D7
330
747D
100
AcDbEntity
  8
破線
  6
HIDDEN
 48
5.0
100
AcDbLine
 10
7209.874456244003
 20
1390.769710985792
 30
0.0
 11
7209.874456244003
 21
1388.469710985792
 31
0.0
  0
LINE
  5
190D8
330
747D
100
AcDbEntity
  8
破線
  6
HIDDEN
 48
5.0
100
AcDbLine
 10
7194.874456244003
 20
1538.469710985792
 30
0.0
 11
7209.874456244003
 21
1390.769710985792
 31
0.0
  0
LINE
  5
190D9
330
747D
100
AcDbEntity
  8
破線
  6
HIDDEN
 48
5.0
100
AcDbLine
 10
7139.874456244003
 20
1390.769710985792
 30
0.0
 11
7139.874456244003
 21
1388.469710985792
 31
0.0
  0
LINE
  5
190DA
330
747D
100
AcDbEntity
  8
破線
  6
HIDDEN
 48
5.0
100
AcDbLine
 10
7154.874456244002
 20
1538.469710985792
 30
0.0
 11
7139.874456244003
 21
1390.769710985792
 31
0.0
  0
LINE
  5
190DB
330
747D
100
AcDbEntity
  8
破線
  6
HIDDEN
 48
5.0
100
AcDbLine
 10
7209.874456244003
 20
1388.469710985792
 30
0.0
 11
7139.874456244003
 21
1388.469710985792
 31
0.0
  0
LINE
  5
190DC
330
747D
100
AcDbEntity
  8
部品1
100
AcDbLine
 10
4572.374456244
 20
1643.469710985792
 30
0.0
 11
4579.874456244001
 21
1643.469710985792
 31
0.0
  0
LINE
  5
190DD
330
747D
100
AcDbEntity
  8
部品1
100
AcDbLine
 10
4572.374456244
 20
1643.469710985792
 30
0.0
 11
4579.874456244001
 21
1643.469710985792
 31
0.0
  0
LINE
  5
190DE
330
747D
100
AcDbEntity
  8
部品1
100
AcDbLine
 10
7194.874456244003
 20
1643.469710985792
 30
0.0
 11
7202.374456244003
 21
1643.469710985792
 31
0.0
  0
LINE
  5
190DF
330
747D
100
AcDbEntity
  8
部品1
100
AcDbLine
 10
6279.109789358223
 20
888.6431075413112
 30
0.0
 11
5515.639123129779
 21
888.6431075413112
 31
0.0
  0
LINE
  5
190E0
330
747D
100
AcDbEntity
  8
部品1
100
AcDbLine
 10
6279.109789358223
 20
648.7507859957786
 30
0.0
 11
6279.109789358223
 21
888.6431075413112
 31
0.0
  0
LINE
  5
190E1
330
747D
100
AcDbEntity
  8
部品1
100
AcDbLine
 10
5515.639123129779
 20
648.7507859957786
 30
0.0
 11
6279.109789358223
 21
648.7507859957786
 31
0.0
  0
LINE
  5
190E2
330
747D
100
AcDbEntity
  8
部品1
100
AcDbLine
 10
5515.639123129779
 20
888.6431075413112
 30
0.0
 11
5515.639123129779
 21
648.7507859957786
 31
0.0
  0
TEXT
  5
190E3
330
747D
100
AcDbEntity
  8
部品1
100
AcDbText
 10
5605.085224553386
 20
695.7495783227868
 30
0.0
 40
135.0
  1
側面図
  7
STYLE2
100
AcDbText
  0
TEXT
  5
190E4
330
747D
100
AcDbEntity
  8
部品1
100
AcDbText
 10
3516.470340159042
 20
1579.576614591694
 30
0.0
 40
125.0
  1
▽G.L
  7
STYLE2
100
AcDbText
  0
LINE
  5
1918B
330
747D
100
AcDbEntity
  8
部品1
 48
50.0
100
AcDbLine
 10
11019.47148558124
 20
6896.804986298995
 30
0.0
 11
11019.47148558124
 21
6924.804986298996
 31
0.0
  0
LINE
  5
1918C
330
747D
100
AcDbEntity
  8
部品1
 48
50.0
100
AcDbLine
 10
9339.471485581238
 20
6896.804986298842
 30
0.0
 11
9339.471485581242
 21
6924.804986298839
 31
0.0
  0
LINE
  5
1918D
330
747D
100
AcDbEntity
  8
部品1
 48
50.0
100
AcDbLine
 10
11019.47148558127
 20
6896.804986298995
 30
0.0
 11
11074.47148558125
 21
6896.804986299001
 31
0.0
  0
LINE
  5
1918E
330
747D
100
AcDbEntity
  8
部品1
 48
50.0
100
AcDbLine
 10
9312.471485581246
 20
6924.804986298839
 30
0.0
 11
11046.47148558125
 21
6924.804986298997
 31
0.0
  0
LINE
  5
1918F
330
747D
100
AcDbEntity
  8
部品1
 48
50.0
100
AcDbLine
 10
9284.471485581267
 20
6896.804986298838
 30
0.0
 11
9339.471485581238
 21
6896.804986298842
 31
0.0
  0
LINE
  5
19190
330
747D
100
AcDbEntity
  8
部品1
100
AcDbLine
 10
9312.471485581241
 20
6951.804986298869
 30
0.0
 11
9284.47148558124
 21
6951.804986298869
 31
0.0
  0
LINE
  5
19191
330
747D
100
AcDbEntity
  8
部品1
100
AcDbLine
 10
11046.47148558127
 20
6951.804986298741
 30
0.0
 11
11074.47148558127
 21
6951.804986298741
 31
0.0
  0
LINE
  5
19192
330
747D
100
AcDbEntity
  8
部品1
 48
50.0
100
AcDbLine
 10
9340.97148558126
 20
6953.304986298995
 30
0.0
 11
9312.47148558126
 21
6924.804986298997
 31
0.0
  0
LINE
  5
19193
330
747D
100
AcDbEntity
  8
破線
 48
10.0
100
AcDbLine
 10
9364.471485581244
 20
9446.804986299119
 30
0.0
 11
9364.471485581249
 21
8652.304986298929
 31
0.0
  0
LINE
  5
19194
330
747D
100
AcDbEntity
  8
部品1
100
AcDbLine
 10
9340.971485581249
 20
9470.304986299101
 30
0.0
 11
9340.971485581263
 21
6953.304986298999
 31
0.0
  0
LINE
  5
19195
330
747D
100
AcDbEntity
  8
部品1
 48
50.0
100
AcDbLine
 10
11044.47148558132
 20
6926.804986298927
 30
0.0
 11
11046.47148558125
 21
6924.804986298997
 31
0.0
  0
LINE
  5
19196
330
747D
100
AcDbEntity
  8
破線
 48
10.0
100
AcDbLine
 10
10594.47148558132
 20
6976.804986298972
 30
0.0
 11
9364.471485581256
 21
6976.804986298899
 31
0.0
  0
LINE
  5
19197
330
747D
100
AcDbEntity
  8
部品1
100
AcDbLine
 10
10594.47148558132
 20
6953.304986298973
 30
0.0
 11
9340.971485581166
 21
6953.304986298902
 31
0.0
  0
DIMENSION
  5
19198
330
747D
100
AcDbEntity
  8
寸法
100
AcDbDimension
  2
*D11
 10
11019.47148558127
 20
10123.61201310724
 30
0.0
 11
10179.47148558127
 21
10123.61201310724
 31
0.0
 70
   160
  1
4X420=<>
 71
     5
 42
1680.0
  3
INABA_S40G
100
AcDbAlignedDimension
 13
9339.471485581276
 23
9526.804986298916
 33
0.0
 14
11019.47148558127
 24
9526.80498629901
 34
0.0
100
AcDbRotatedDimension
1001
ACAD
1000
DSTYLE
1002
{
1002
}
  0
LINE
  5
19199
330
747D
100
AcDbEntity
  8
部品1
100
AcDbLine
 10
9284.471485581274
 20
9526.804986298916
 30
0.0
 11
11074.47148558127
 21
9526.80498629901
 31
0.0
  0
DIMENSION
  5
1919A
330
747D
100
AcDbEntity
  8
寸法
100
AcDbDimension
  2
*D12
 10
11074.47148558127
 20
10123.61201310722
 30
0.0
 11
11382.95676695551
 21
10123.61201310722
 31
0.0
 70
   160
 71
     5
 42
55.0
  3
INABA_S40G
100
AcDbAlignedDimension
 13
11019.47148558127
 23
9526.80498629901
 33
0.0
 14
11074.47148558127
 24
9526.80498629901
 34
0.0
100
AcDbRotatedDimension
1001
ACAD
1000
DSTYLE
1002
{
1002
}
  0
LINE
  5
1919B
330
747D
100
AcDbEntity
  8
部品1
100
AcDbLine
 10
11046.47148558127
 20
9471.804986299014
 30
0.0
 11
11074.47148558127
 21
9471.804986299014
 31
0.0
  0
LINE
  5
1919C
330
747D
100
AcDbEntity
  8
部品1
100
AcDbLine
 10
11046.47148558127
 20
9051.804986299014
 30
0.0
 11
11074.47148558127
 21
9051.804986299014
 31
0.0
  0
LINE
  5
1919D
330
747D
100
AcDbEntity
  8
部品1
100
AcDbLine
 10
10179.47148558127
 20
9498.804986299028
 30
0.0
 11
11046.47148558127
 21
9498.804986299012
 31
0.0
  0
LINE
  5
1919E
330
747D
100
AcDbEntity
  8
部品1
100
AcDbLine
 10
11046.47148558128
 20
8631.804986299014
 30
0.0
 11
11074.47148558128
 21
8631.804986299014
 31
0.0
  0
LINE
  5
1919F
330
747D
100
AcDbEntity
  8
部品1
100
AcDbLine
 10
11046.47148558127
 20
9498.804986299012
 30
0.0
 11
11046.47148558126
 21
8224.304986298976
 31
0.0
  0
LINE
  5
191A0
330
747D
100
AcDbEntity
  8
部品1
100
AcDbLine
 10
9312.471485581241
 20
9471.804986298886
 30
0.0
 11
9284.47148558124
 21
9471.804986298886
 31
0.0
  0
LINE
  5
191A1
330
747D
100
AcDbEntity
  8
部品1
100
AcDbLine
 10
9312.471485581248
 20
9051.804986298884
 30
0.0
 11
9284.471485581249
 21
9051.804986298884
 31
0.0
  0
LINE
  5
191A2
330
747D
100
AcDbEntity
  8
部品1
100
AcDbLine
 10
9312.471485581253
 20
8631.804986298885
 30
0.0
 11
9284.471485581253
 21
8631.804986298885
 31
0.0
  0
LINE
  5
191A3
330
747D
100
AcDbEntity
  8
部品1
100
AcDbLine
 10
9312.471485581246
 20
6924.804986298839
 30
0.0
 11
9312.471485581275
 21
9498.804986298916
 31
0.0
  0
LINE
  5
191A4
330
747D
100
AcDbEntity
  8
部品1
100
AcDbLine
 10
9312.471485581275
 20
9498.804986299033
 30
0.0
 11
10179.47148558127
 21
9498.804986299031
 31
0.0
  0
DIMENSION
  5
191A7
330
747D
100
AcDbEntity
  8
寸法
100
AcDbDimension
  2
*D13
 10
11721.89783131569
 20
6951.804986298997
 30
0.0
 11
11721.89783131568
 21
8211.804986299005
 31
0.0
 70
   160
  1
6X420=<>
 71
     5
 42
2520.000000000016
  3
INABA_S40G
100
AcDbAlignedDimension
 13
11074.47148558127
 23
9471.804986299014
 33
0.0
 14
11074.47148558125
 24
6951.804986298997
 34
0.0
 50
90.0
100
AcDbRotatedDimension
1001
ACAD
1000
DSTYLE
1002
{
1002
}
  0
DIMENSION
  5
191A8
330
747D
100
AcDbEntity
  8
寸法
100
AcDbDimension
  2
*D14
 10
11721.89783131566
 20
6896.804986299001
 30
0.0
 11
11721.89783131566
 21
6518.943519394141
 31
0.0
 70
   160
 71
     5
 42
54.99999999999636
  3
INABA_S40G
100
AcDbAlignedDimension
 13
11074.47148558125
 23
6951.804986298997
 33
0.0
 14
11074.47148558125
 24
6896.804986299001
 34
0.0
 50
90.0
100
AcDbRotatedDimension
1001
ACAD
1000
DSTYLE
1002
{
1002
}
  0
DIMENSION
  5
191A9
330
747D
100
AcDbEntity
  8
寸法
100
AcDbDimension
  2
*D15
 10
11721.89783131568
 20
9471.804986299014
 30
0.0
 11
11721.89783131568
 21
9835.290267673251
 31
0.0
 70
   160
 71
     5
 42
54.99999999999636
  3
INABA_S40G
100
AcDbAlignedDimension
 13
11074.47148558127
 23
9526.80498629901
 33
0.0
 14
11074.47148558127
 24
9471.804986299014
 34
0.0
 50
90.0
100
AcDbRotatedDimension
1001
ACAD
1000
DSTYLE
1002
{
1002
}
  0
LINE
  5
191AA
330
747D
100
AcDbEntity
  8
部品1
100
AcDbLine
 10
9339.471485581276
 20
9526.804986298916
 30
0.0
 11
9339.471485581276
 21
9498.804986298916
 31
0.0
  0
LINE
  5
191AB
330
747D
100
AcDbEntity
  8
部品1
100
AcDbLine
 10
9759.471485581276
 20
9526.804986298916
 30
0.0
 11
9759.471485581276
 21
9498.804986298916
 31
0.0
  0
LINE
  5
191AC
330
747D
100
AcDbEntity
  8
部品1
100
AcDbLine
 10
9759.471485581276
 20
9526.804986298914
 30
0.0
 11
9759.471485581276
 21
9498.804986298914
 31
0.0
  0
LINE
  5
191AD
330
747D
100
AcDbEntity
  8
部品1
100
AcDbLine
 10
9759.471485581276
 20
9526.804986299032
 30
0.0
 11
9759.471485581276
 21
9498.804986299031
 31
0.0
  0
LINE
  5
191AE
330
747D
100
AcDbEntity
  8
部品1
100
AcDbLine
 10
10599.47148558127
 20
9526.804986299032
 30
0.0
 11
10599.47148558127
 21
9498.804986299031
 31
0.0
  0
LINE
  5
191AF
330
747D
100
AcDbEntity
  8
部品1
100
AcDbLine
 10
11074.47148558127
 20
9526.80498629901
 30
0.0
 11
11074.47148558125
 21
6896.804986299001
 31
0.0
  0
DIMENSION
  5
191B0
330
747D
100
AcDbEntity
  8
寸法
100
AcDbDimension
  2
*D16
 10
12087.00477305532
 20
6896.804986299001
 30
0.0
 11
12087.00477305532
 21
8211.804986299005
 31
0.0
 70
   160
 71
     5
 42
2630.000000000008
  3
INABA_S40G
100
AcDbAlignedDimension
 13
11074.47148558127
 23
9526.80498629901
 33
0.0
 14
11074.47148558125
 24
6896.804986299001
 34
0.0
 50
90.0
100
AcDbRotatedDimension
1001
ACAD
1000
DSTYLE
1002
{
1002
}
  0
LINE
  5
191B1
330
747D
100
AcDbEntity
  8
部品1
100
AcDbLine
 10
11019.47148558127
 20
9526.804986299032
 30
0.0
 11
11019.47148558127
 21
9498.804986299031
 31
0.0
  0
LINE
  5
191B2
330
747D
100
AcDbEntity
  8
部品1
100
AcDbLine
 10
11019.47148558127
 20
9526.80498629901
 30
0.0
 11
11019.47148558127
 21
9498.804986299012
 31
0.0
  0
LINE
  5
191B3
330
747D
100
AcDbEntity
  8
部品1
100
AcDbLine
 10
9284.471485581239
 20
9526.804986298882
 30
0.0
 11
9284.471485581267
 21
6896.804986298872
 31
0.0
  0
LINE
  5
191B4
330
747D
100
AcDbEntity
  8
部品1
100
AcDbLine
 10
9339.471485581238
 20
9526.804986298882
 30
0.0
 11
9339.471485581242
 21
9498.804986298884
 31
0.0
  0
DIMENSION
  5
191B5
330
747D
100
AcDbEntity
  8
寸法
100
AcDbDimension
  2
*D17
 10
9339.471485581276
 20
10123.61201310712
 30
0.0
 11
8975.986204206998
 21
10123.61201310712
 31
0.0
 70
   160
 71
     5
 42
55.00000000003637
  3
INABA_S40G
100
AcDbAlignedDimension
 13
9284.471485581239
 23
9526.804986298916
 33
0.0
 14
9339.471485581276
 24
9526.804986298916
 34
0.0
100
AcDbRotatedDimension
1001
ACAD
1000
DSTYLE
1002
{
1002
}
  0
LINE
  5
191B6
330
747D
100
AcDbEntity
  8
部品1
100
AcDbLine
 10
9312.471485581253
 20
7371.804986298885
 30
0.0
 11
9284.471485581253
 21
7371.804986298885
 31
0.0
  0
LINE
  5
191B7
330
747D
100
AcDbEntity
  8
部品1
100
AcDbLine
 10
11046.47148558128
 20
7371.804986299014
 30
0.0
 11
11074.47148558128
 21
7371.804986299014
 31
0.0
  0
LINE
  5
191B8
330
747D
100
AcDbEntity
  8
細線
100
AcDbLine
 10
10619.47152090014
 20
3726.469710985776
 30
0.0
 11
10619.47152090014
 21
1700.969710985793
 31
0.0
  0
LINE
  5
191B9
330
747D
100
AcDbEntity
  8
細線
100
AcDbLine
 10
10549.47152090014
 20
3726.469710985776
 30
0.0
 11
10549.47152090014
 21
1700.969710985793
 31
0.0
  0
LINE
  5
191BA
330
747D
100
AcDbEntity
  8
細線
100
AcDbLine
 10
10689.47148558125
 20
3726.469710985776
 30
0.0
 11
10689.47148558125
 21
1700.969710985793
 31
0.0
  0
LINE
  5
191BB
330
747D
100
AcDbEntity
  8
細線
100
AcDbLine
 10
10031.47148558125
 20
3726.469710985786
 30
0.0
 11
10031.47148558125
 21
1700.9697109858
 31
0.0
  0
LINE
  5
191BC
330
747D
100
AcDbEntity
  8
細線
100
AcDbLine
 10
10101.47148558125
 20
3726.469710985786
 30
0.0
 11
10101.47148558125
 21
1700.9697109858
 31
0.0
  0
LINE
  5
191BD
330
747D
100
AcDbEntity
  8
細線
100
AcDbLine
 10
9652.471477395835
 20
3726.469710985786
 30
0.0
 11
9652.471477395835
 21
1693.469710985789
 31
0.0
  0
LINE
  5
191BE
330
747D
100
AcDbEntity
  8
細線
100
AcDbLine
 10
10759.47148558125
 20
3726.469710985776
 30
0.0
 11
10759.47148558125
 21
1700.969710985793
 31
0.0
  0
LINE
  5
191BF
330
747D
100
AcDbEntity
  8
細線
100
AcDbLine
 10
10829.47148558125
 20
3726.469710985776
 30
0.0
 11
10829.47148558125
 21
1700.969710985793
 31
0.0
  0
LINE
  5
191C0
330
747D
100
AcDbEntity
  8
細線
100
AcDbLine
 10
10899.47148558125
 20
3726.469710985776
 30
0.0
 11
10899.47148558125
 21
1700.969710985793
 31
0.0
  0
LINE
  5
191C1
330
747D
100
AcDbEntity
  8
細線
100
AcDbLine
 10
10171.47148558125
 20
3726.469710985786
 30
0.0
 11
10171.47148558125
 21
1700.9697109858
 31
0.0
  0
LINE
  5
191C2
330
747D
100
AcDbEntity
  8
細線
100
AcDbLine
 10
10241.47148558125
 20
3726.469710985786
 30
0.0
 11
10241.47148558125
 21
1700.9697109858
 31
0.0
  0
LINE
  5
191C3
330
747D
100
AcDbEntity
  8
細線
100
AcDbLine
 10
10311.47148558125
 20
3726.469710985786
 30
0.0
 11
10311.47148558125
 21
1700.9697109858
 31
0.0
  0
LINE
  5
191C4
330
747D
100
AcDbEntity
  8
細線
100
AcDbLine
 10
10381.47148558125
 20
3726.469710985786
 30
0.0
 11
10381.47148558125
 21
1700.9697109858
 31
0.0
  0
LINE
  5
191C5
330
747D
100
AcDbEntity
  8
細線
100
AcDbLine
 10
9470.471485581251
 20
3726.469710985786
 30
0.0
 11
9470.471485581251
 21
1693.469710985793
 31
0.0
  0
LINE
  5
191C6
330
747D
100
AcDbEntity
  8
細線
100
AcDbLine
 10
9504.471485581252
 20
3726.469710985786
 30
0.0
 11
9504.471485581252
 21
1693.469710985793
 31
0.0
  0
LINE
  5
191C7
330
747D
100
AcDbEntity
  8
部品1
100
AcDbLine
 10
9462.471485581252
 20
3726.469710985786
 30
0.0
 11
9462.471485581252
 21
1693.469710985793
 31
0.0
  0
LINE
  5
191C8
330
747D
100
AcDbEntity
  8
部品1
100
AcDbLine
 10
9512.471485581251
 20
3726.469710985786
 30
0.0
 11
9512.471485581251
 21
1693.469710985793
 31
0.0
  0
LINE
  5
191C9
330
747D
100
AcDbEntity
  8
細線
100
AcDbLine
 10
9722.471477395835
 20
3726.469710985786
 30
0.0
 11
9722.471477395835
 21
1693.469710985789
 31
0.0
  0
LINE
  5
191CA
330
747D
100
AcDbEntity
  8
細線
100
AcDbLine
 10
9792.471477395833
 20
3726.469710985786
 30
0.0
 11
9792.471477395833
 21
1693.469710985789
 31
0.0
  0
LINE
  5
191CB
330
747D
100
AcDbEntity
  8
細線
100
AcDbLine
 10
9862.471477395834
 20
3726.469710985786
 30
0.0
 11
9862.471477395834
 21
1693.469710985789
 31
0.0
  0
LINE
  5
191CC
330
747D
100
AcDbEntity
  8
部品1
 48
50.0
100
AcDbLine
 10
10472.97148558125
 20
3726.469710985794
 30
0.0
 11
10472.97148558125
 21
1700.969710985793
 31
0.0
  0
LINE
  5
191CD
330
747D
100
AcDbEntity
  8
部品1
 48
50.0
100
AcDbLine
 10
9980.971485581257
 20
3726.469710985794
 30
0.0
 11
9980.971485581253
 21
1693.469710985793
 31
0.0
  0
LINE
  5
191CE
330
747D
100
AcDbEntity
  8
部品1
 48
50.0
100
AcDbLine
 10
9312.471485581246
 20
3778.469710985794
 30
0.0
 11
9312.471485581246
 21
1643.469710985793
 31
0.0
  0
LINE
  5
191CF
330
747D
100
AcDbEntity
  8
細線
 48
50.0
100
AcDbLine
 10
9342.471485581251
 20
3735.969710985794
 30
0.0
 11
9342.471485581247
 21
1643.469710985793
 31
0.0
  0
LINE
  5
191D0
330
747D
100
AcDbEntity
  8
部品1
 48
50.0
100
AcDbLine
 10
9342.471485581249
 20
1693.469710985793
 30
0.0
 11
9342.471485581251
 21
3726.469710985794
 31
0.0
  0
LINE
  5
191D1
330
747D
100
AcDbEntity
  8
部品1
 48
50.0
100
AcDbLine
 10
11007.47148558125
 20
1690.469710985793
 30
0.0
 11
11007.47148558125
 21
3726.469710985794
 31
0.0
  0
LINE
  5
191D2
330
747D
100
AcDbEntity
  8
細線
 48
50.0
100
AcDbLine
 10
11016.47148558125
 20
1643.469710985793
 30
0.0
 11
11016.47148558125
 21
3735.969710985794
 31
0.0
  0
LINE
  5
191D3
330
747D
100
AcDbEntity
  8
部品1
 48
50.0
100
AcDbLine
 10
11046.47148558125
 20
1643.469710985793
 30
0.0
 11
11046.47148558125
 21
3778.469710985794
 31
0.0
  0
LINE
  5
191D4
330
747D
100
AcDbEntity
  8
細線
 48
50.0
100
AcDbLine
 10
9980.971485581253
 20
1700.969710985793
 30
0.0
 11
10990.47148558125
 21
1700.969710985793
 31
0.0
  0
LINE
  5
191D5
330
747D
100
AcDbEntity
  8
細線
 48
50.0
100
AcDbLine
 10
9342.471485581249
 20
1690.469710985793
 30
0.0
 11
11016.47148558125
 21
1690.469710985793
 31
0.0
  0
LINE
  5
191D6
330
747D
100
AcDbEntity
  8
細線
 48
50.0
100
AcDbLine
 10
9342.471485581249
 20
1686.469710985793
 30
0.0
 11
11016.47148558125
 21
1686.469710985793
 31
0.0
  0
LINE
  5
191D7
330
747D
100
AcDbEntity
  8
部品1
 48
50.0
100
AcDbLine
 10
9312.471485581246
 20
1643.469710985793
 30
0.0
 11
11046.47148558125
 21
1643.469710985793
 31
0.0
  0
LINE
  5
191D8
330
747D
100
AcDbEntity
  8
部品1
 48
50.0
100
AcDbLine
 10
9342.471485581249
 20
1693.469710985793
 30
0.0
 11
9980.971485581253
 21
1693.469710985793
 31
0.0
  0
LINE
  5
191D9
330
747D
100
AcDbEntity
  8
部品1
 48
50.0
100
AcDbLine
 10
9351.471485581248
 20
1693.469710985793
 30
0.0
 11
9351.471485581248
 21
1690.469710985793
 31
0.0
  0
LINE
  5
191DA
330
747D
100
AcDbEntity
  8
細線
 48
50.0
100
AcDbLine
 10
10994.47148558125
 20
1690.469710985793
 30
0.0
 11
10990.47148558125
 21
1700.969710985793
 31
0.0
  0
LINE
  5
191DB
330
747D
100
AcDbEntity
  8
部品1
 48
50.0
100
AcDbLine
 10
11046.47148558125
 20
3778.469710985794
 30
0.0
 11
9312.471485581246
 21
3778.469710985794
 31
0.0
  0
LINE
  5
191DC
330
747D
100
AcDbEntity
  8
細線
 48
50.0
100
AcDbLine
 10
11046.47148558125
 20
3768.469710985794
 30
0.0
 11
9312.471485581246
 21
3768.469710985794
 31
0.0
  0
LINE
  5
191DD
330
747D
100
AcDbEntity
  8
細線
 48
50.0
100
AcDbLine
 10
11016.47148558125
 20
3726.469710985794
 30
0.0
 11
9342.471485581249
 21
3726.469710985794
 31
0.0
  0
LINE
  5
191DE
330
747D
100
AcDbEntity
  8
細線
 48
50.0
100
AcDbLine
 10
11016.47148558125
 20
3735.969710985794
 30
0.0
 11
9342.471485581249
 21
3735.969710985794
 31
0.0
  0
LINE
  5
191DF
330
747D
100
AcDbEntity
  8
部品1
 48
50.0
100
AcDbLine
 10
9342.471485581249
 20
3734.469710985794
 30
0.0
 11
9312.471485581246
 21
3734.469710985794
 31
0.0
  0
LINE
  5
191E0
330
747D
100
AcDbEntity
  8
部品1
 48
50.0
100
AcDbLine
 10
11046.47148558125
 20
3734.469710985794
 30
0.0
 11
11016.47148558125
 21
3734.469710985794
 31
0.0
  0
DIMENSION
  5
191FE
330
747D
100
AcDbEntity
  8
寸法
 48
50.0
100
AcDbDimension
  2
*D18
 10
9013.265456369115
 20
1701.469710985793
 30
0.0
 11
9013.265456369115
 21
2713.969710985793
 31
0.0
 70
   160
  1
有効開口部高サ<>
 71
     5
 42
2025.0
  3
INABA_S40G
100
AcDbAlignedDimension
 13
9312.471485581266
 23
3726.469710985794
 33
0.0
 14
9312.471485581266
 24
1701.469710985793
 34
0.0
 50
90.0
100
AcDbRotatedDimension
1001
ACAD
1000
DSTYLE
1002
{
1070
   341
1005
0
1002
}
  0
TEXT
  5
191FF
330
747D
100
AcDbEntity
  8
文字
 62
     7
 48
50.0
100
AcDbText
 10
14491.96323844892
 20
483.8967129911416
 30
0.0
 40
160.0
  1
ＮＸＮ－５０ＣＨＢ
  7
STYLE2
100
AcDbText
  0
TEXT
  5
19200
330
747D
100
AcDbEntity
  8
文字
 62
     7
 48
50.0
100
AcDbText
 10
13583.11819016569
 20
8550.013745883731
 30
0.0
 40
100.0
  1
棚板
  7
STYLE1
100
AcDbText
  0
TEXT
  5
19201
330
747D
100
AcDbEntity
  8
文字
 62
     7
 48
50.0
100
AcDbText
 10
15022.63965474516
 20
8550.013745883727
 30
0.0
 40
100.0
  1
F12            0.6
  7
STYLE1
100
AcDbText
  0
TEXT
  5
19202
330
747D
100
AcDbEntity
  8
文字
 62
     7
 48
50.0
100
AcDbText
 10
15022.63965474515
 20
9740.013745883723
 30
0.0
 40
100.0
  1
F12            1.0
  7
STYLE1
100
AcDbText
  0
TEXT
  5
19203
330
747D
100
AcDbEntity
  8
文字
 62
     7
 48
50.0
100
AcDbText
 10
13583.11819016569
 20
9740.013745883729
 30
0.0
 40
100.0
  1
母屋中
  7
STYLE1
100
AcDbText
  0
TEXT
  5
19204
330
747D
100
AcDbEntity
  8
文字
 62
     7
 48
50.0
100
AcDbText
 10
13248.77747366447
 20
8720.013745883729
 30
0.0
 40
100.0
  1
15
  7
STYLE1
100
AcDbText
  0
LINE
  5
19205
330
747D
100
AcDbEntity
  8
仕様書枠
 48
50.0
100
AcDbLine
 10
16307.19999999999
 20
8009.600000000004
 30
0.0
 11
13127.19999999999
 21
8009.600000000006
 31
0.0
  0
TEXT
  5
19206
330
747D
100
AcDbEntity
  8
文字
 62
     7
 48
50.0
100
AcDbText
 10
13583.11819016569
 20
8720.013745883731
 30
0.0
 40
100.0
  1
扉
  7
STYLE1
100
AcDbText
  0
TEXT
  5
19207
330
747D
100
AcDbEntity
  8
文字
 62
     7
 48
50.0
100
AcDbText
 10
15022.63965474516
 20
8720.013745883727
 30
0.0
 40
100.0
  1
F12            0.8
  7
STYLE1
100
AcDbText
  0
TEXT
  5
19208
330
747D
100
AcDbEntity
  8
文字
 62
     7
 48
50.0
100
AcDbText
 10
13583.11819016568
 20
8890.013745883731
 30
0.0
 40
100.0
  1
正面パネル
  7
STYLE1
100
AcDbText
  0
TEXT
  5
19209
330
747D
100
AcDbEntity
  8
文字
 62
     7
 48
50.0
100
AcDbText
 10
15022.63965474515
 20
8890.013745883727
 30
0.0
 40
100.0
  1
F12            0.7
  7
STYLE1
100
AcDbText
  0
TEXT
  5
1920A
330
747D
100
AcDbEntity
  8
文字
 62
     7
 48
50.0
100
AcDbText
 10
15022.63965474517
 20
10590.01374588372
 30
0.0
 40
100.0
  1
F12            1.0
  7
STYLE1
100
AcDbText
  0
TEXT
  5
1920B
330
747D
100
AcDbEntity
  8
文字
 62
     7
 48
50.0
100
AcDbText
 10
15022.63965474516
 20
10930.01374588372
 30
0.0
 40
100.0
  1
F12            1.2
  7
STYLE1
100
AcDbText
  0
TEXT
  5
1920C
330
747D
100
AcDbEntity
  8
文字
 62
     7
 48
50.0
100
AcDbText
 10
13248.77747366448
 20
8890.013745883727
 30
0.0
 40
100.0
  1
14
  7
STYLE1
100
AcDbText
  0
TEXT
  5
1920D
330
747D
100
AcDbEntity
  8
文字
 62
     7
 48
50.0
100
AcDbText
 10
13583.11819016569
 20
10930.01374588372
 30
0.0
 40
100.0
  1
根太
  7
STYLE1
100
AcDbText
  0
TEXT
  5
1920E
330
747D
100
AcDbEntity
  8
文字
 62
     7
 48
50.0
100
AcDbText
 10
13583.1181901657
 20
10590.01374588372
 30
0.0
 40
100.0
  1
床パネル
 41
0.9
  7
STYLE1
100
AcDbText
  0
LINE
  5
1920F
330
747D
100
AcDbEntity
  8
仕様書枠
 48
50.0
100
AcDbLine
 10
16307.19999999999
 20
9029.6
 30
0.0
 11
13127.2
 21
9029.600000000002
 31
0.0
  0
LINE
  5
19210
330
747D
100
AcDbEntity
  8
仕様書枠
 48
50.0
100
AcDbLine
 10
13127.2
 20
11409.6
 30
0.0
 11
13127.19999999999
 21
8009.600000000006
 31
0.0
  0
TEXT
  5
19211
330
747D
100
AcDbEntity
  8
文字
 62
     7
 48
50.0
100
AcDbText
 10
13229.83081656554
 20
8040.013745883731
 30
0.0
 40
100.0
  1
Y10→溶融亜鉛-5％アルミニウム合金めっき鋼板(JIS G 3317)
 41
0.9
  7
STYLE1
100
AcDbText
  0
TEXT
  5
19212
330
747D
100
AcDbEntity
  8
文字
 62
     7
 48
50.0
100
AcDbText
 10
13229.83081656554
 20
8210.013745883733
 30
0.0
 40
100.0
  1
F12→溶融亜鉛めっき鋼板(JIS G 3302)
  7
STYLE1
100
AcDbText
  0
LINE
  5
19213
330
747D
100
AcDbEntity
  8
仕様書枠
 48
50.0
100
AcDbLine
 10
16307.19999999999
 20
8179.600000000004
 30
0.0
 11
13127.19999999999
 21
8179.600000000005
 31
0.0
  0
LINE
  5
19214
330
747D
100
AcDbEntity
  8
仕様書枠
 48
50.0
100
AcDbLine
 10
16307.19999999999
 20
8349.600000000004
 30
0.0
 11
13127.19999999999
 21
8349.600000000007
 31
0.0
  0
TEXT
  5
19215
330
747D
100
AcDbEntity
  8
文字
 62
     7
 48
50.0
100
AcDbText
 10
15022.63965474515
 20
9570.013745883725
 30
0.0
 40
100.0
  1
F12            0.7
  7
STYLE1
100
AcDbText
  0
TEXT
  5
19216
330
747D
100
AcDbEntity
  8
文字
 62
     7
 48
50.0
100
AcDbText
 10
15022.63965474517
 20
9910.013745883725
 30
0.0
 40
100.0
  1
Y10            0.5
  7
STYLE1
100
AcDbText
  0
TEXT
  5
19217
330
747D
100
AcDbEntity
  8
文字
 62
     7
 48
50.0
100
AcDbText
 10
15022.63965474516
 20
10080.01374588372
 30
0.0
 40
100.0
  1
Y10            0.7
  7
STYLE1
100
AcDbText
  0
TEXT
  5
19218
330
747D
100
AcDbEntity
  8
文字
 62
     7
 48
50.0
100
AcDbText
 10
15022.63965474516
 20
10250.01374588372
 30
0.0
 40
100.0
  1
Y10            0.7
  7
STYLE1
100
AcDbText
  0
TEXT
  5
19219
330
747D
100
AcDbEntity
  8
文字
 62
     7
 48
50.0
100
AcDbText
 10
15022.63965474516
 20
10420.01374588372
 30
0.0
 40
100.0
  1
Y10            1.0
  7
STYLE1
100
AcDbText
  0
TEXT
  5
1921A
330
747D
100
AcDbEntity
  8
文字
 62
     7
 48
50.0
100
AcDbText
 10
15022.63965474518
 20
10760.01374588372
 30
0.0
 40
100.0
  1
F12            1.0
  7
STYLE1
100
AcDbText
  0
TEXT
  5
1921B
330
747D
100
AcDbEntity
  8
文字
 62
     7
 48
50.0
100
AcDbText
 10
15022.63965474517
 20
11100.01374588372
 30
0.0
 40
100.0
  1
F12            1.2
  7
STYLE1
100
AcDbText
  0
TEXT
  5
1921C
330
747D
100
AcDbEntity
  8
文字
 62
     7
 48
50.0
100
AcDbText
 10
13248.77747366448
 20
9230.013745883727
 30
0.0
 40
100.0
  1
12
  7
STYLE1
100
AcDbText
  0
TEXT
  5
1921D
330
747D
100
AcDbEntity
  8
文字
 62
     7
 48
50.0
100
AcDbText
 10
13248.77747366448
 20
9060.013745883727
 30
0.0
 40
100.0
  1
13
  7
STYLE1
100
AcDbText
  0
LINE
  5
1921E
330
747D
100
AcDbEntity
  8
仕様書枠
 48
50.0
100
AcDbLine
 10
16307.19999999999
 20
8859.6
 30
0.0
 11
13127.2
 21
8859.600000000002
 31
0.0
  0
LINE
  5
1921F
330
747D
100
AcDbEntity
  8
仕様書枠
 48
50.0
100
AcDbLine
 10
16307.19999999999
 20
9199.599999999998
 30
0.0
 11
13127.2
 21
9199.600000000001
 31
0.0
  0
TEXT
  5
19220
330
747D
100
AcDbEntity
  8
文字
 62
     7
 48
50.0
100
AcDbText
 10
13248.77747366447
 20
9400.013745883727
 30
0.0
 40
100.0
  1
11
  7
STYLE1
100
AcDbText
  0
LINE
  5
19221
330
747D
100
AcDbEntity
  8
仕様書枠
 48
50.0
100
AcDbLine
 10
16307.2
 20
9879.599999999999
 30
0.0
 11
13127.2
 21
9879.600000000001
 31
0.0
  0
LINE
  5
19222
330
747D
100
AcDbEntity
  8
仕様書枠
 48
50.0
100
AcDbLine
 10
16307.2
 20
10219.6
 30
0.0
 11
13127.2
 21
10219.6
 31
0.0
  0
LINE
  5
19223
330
747D
100
AcDbEntity
  8
仕様書枠
 48
50.0
100
AcDbLine
 10
16307.19999999999
 20
9539.599999999998
 30
0.0
 11
13127.2
 21
9539.6
 31
0.0
  0
LINE
  5
19224
330
747D
100
AcDbEntity
  8
仕様書枠
 48
50.0
100
AcDbLine
 10
16307.19999999999
 20
9369.599999999998
 30
0.0
 11
13127.2
 21
9369.600000000001
 31
0.0
  0
LINE
  5
19225
330
747D
100
AcDbEntity
  8
仕様書枠
 48
50.0
100
AcDbLine
 10
16307.19999999999
 20
9709.6
 30
0.0
 11
13127.2
 21
9709.600000000001
 31
0.0
  0
TEXT
  5
19226
330
747D
100
AcDbEntity
  8
文字
 62
     7
 48
50.0
100
AcDbText
 10
13271.19032244792
 20
10250.01374588373
 30
0.0
 40
100.0
  1
6
  7
STYLE1
100
AcDbText
  0
TEXT
  5
19227
330
747D
100
AcDbEntity
  8
文字
 62
     7
 48
50.0
100
AcDbText
 10
13271.19032244792
 20
10080.01374588373
 30
0.0
 40
100.0
  1
7
  7
STYLE1
100
AcDbText
  0
TEXT
  5
19228
330
747D
100
AcDbEntity
  8
文字
 62
     7
 48
50.0
100
AcDbText
 10
13271.19032244792
 20
9740.013745883729
 30
0.0
 40
100.0
  1
9
  7
STYLE1
100
AcDbText
  0
TEXT
  5
19229
330
747D
100
AcDbEntity
  8
文字
 62
     7
 48
50.0
100
AcDbText
 10
13271.19032244792
 20
9910.01374588373
 30
0.0
 40
100.0
  1
8
  7
STYLE1
100
AcDbText
  0
TEXT
  5
1922A
330
747D
100
AcDbEntity
  8
文字
 62
     7
 48
50.0
100
AcDbText
 10
13583.11819016569
 20
10080.01374588372
 30
0.0
 40
100.0
  1
鼻隠シ前後
  7
STYLE1
100
AcDbText
  0
TEXT
  5
1922B
330
747D
100
AcDbEntity
  8
文字
 62
     7
 48
50.0
100
AcDbText
 10
13583.11819016569
 20
9910.013745883727
 30
0.0
 40
100.0
  1
屋根パネル
  7
STYLE1
100
AcDbText
  0
TEXT
  5
1922C
330
747D
100
AcDbEntity
  8
文字
 62
     7
 48
50.0
100
AcDbText
 10
13583.11819016568
 20
9570.013745883729
 30
0.0
 40
100.0
  1
壁パネル
  7
STYLE1
100
AcDbText
  0
TEXT
  5
1922D
330
747D
100
AcDbEntity
  8
文字
 62
     7
 48
50.0
100
AcDbText
 10
13248.77747366447
 20
9570.013745883727
 30
0.0
 40
100.0
  1
10
  7
STYLE1
100
AcDbText
  0
TEXT
  5
1922E
330
747D
100
AcDbEntity
  8
文字
 62
     7
 48
50.0
100
AcDbText
 10
13583.11819016569
 20
10250.01374588373
 30
0.0
 40
100.0
  1
妻板左右
  7
STYLE1
100
AcDbText
  0
TEXT
  5
1922F
330
747D
100
AcDbEntity
  8
文字
 62
     7
 48
50.0
100
AcDbText
 10
13271.19032244792
 20
10420.01374588372
 30
0.0
 40
100.0
  1
5
  7
STYLE1
100
AcDbText
  0
TEXT
  5
19230
330
747D
100
AcDbEntity
  8
文字
 62
     7
 48
50.0
100
AcDbText
 10
13583.11819016569
 20
10420.01374588373
 30
0.0
 40
100.0
  1
桁前後
  7
STYLE1
100
AcDbText
  0
TEXT
  5
19231
330
747D
100
AcDbEntity
  8
文字
 62
     7
 48
50.0
100
AcDbText
 10
13583.1181901657
 20
10760.01374588372
 30
0.0
 40
100.0
  1
柱
  7
STYLE1
100
AcDbText
  0
TEXT
  5
19232
330
747D
100
AcDbEntity
  8
文字
 62
     7
 48
50.0
100
AcDbText
 10
13583.11819016569
 20
11100.01374588372
 30
0.0
 40
100.0
  1
土台枠
  7
STYLE1
100
AcDbText
  0
TEXT
  5
19233
330
747D
100
AcDbEntity
  8
文字
 62
     7
 48
50.0
100
AcDbText
 10
14859.79774614482
 20
11270.01374588372
 30
0.0
 40
100.0
  1
材料（材質）　　単位mm
  7
STYLE1
100
AcDbText
  0
TEXT
  5
19234
330
747D
100
AcDbEntity
  8
文字
 62
     7
 48
50.0
100
AcDbText
 10
13732.03840939434
 20
11270.01374588372
 30
0.0
 40
100.0
  1
部　　品　　名
  7
STYLE1
100
AcDbText
  0
TEXT
  5
19235
330
747D
100
AcDbEntity
  8
文字
 62
     7
 48
50.0
100
AcDbText
 10
13271.19032244792
 20
10760.01374588373
 30
0.0
 40
100.0
  1
3
  7
STYLE1
100
AcDbText
  0
TEXT
  5
19236
330
747D
100
AcDbEntity
  8
文字
 62
     7
 48
50.0
100
AcDbText
 10
13271.19032244792
 20
10590.01374588373
 30
0.0
 40
100.0
  1
4
  7
STYLE1
100
AcDbText
  0
TEXT
  5
19237
330
747D
100
AcDbEntity
  8
文字
 62
     7
 48
50.0
100
AcDbText
 10
13271.19032244792
 20
10930.01374588373
 30
0.0
 40
100.0
  1
2
  7
STYLE1
100
AcDbText
  0
TEXT
  5
19238
330
747D
100
AcDbEntity
  8
文字
 62
     7
 48
50.0
100
AcDbText
 10
13271.19032244792
 20
11100.01374588373
 30
0.0
 40
100.0
  1
1
  7
STYLE1
100
AcDbText
  0
TEXT
  5
19239
330
747D
100
AcDbEntity
  8
文字
 62
     7
 48
50.0
100
AcDbText
 10
13197.42518560407
 20
11270.01374588372
 30
0.0
 40
100.0
  1
品番
  7
STYLE1
100
AcDbText
  0
LINE
  5
1923A
330
747D
100
AcDbEntity
  8
仕様書枠
 48
50.0
100
AcDbLine
 10
16307.19999999999
 20
10729.59999999999
 30
0.0
 11
13127.2
 21
10729.6
 31
0.0
  0
LINE
  5
1923B
330
747D
100
AcDbEntity
  8
仕様書枠
 48
50.0
100
AcDbLine
 10
16307.19999999999
 20
10389.6
 30
0.0
 11
13127.2
 21
10389.6
 31
0.0
  0
LINE
  5
1923C
330
747D
100
AcDbEntity
  8
仕様書枠
 48
50.0
100
AcDbLine
 10
16307.19999999999
 20
10559.6
 30
0.0
 11
13127.2
 21
10559.6
 31
0.0
  0
LINE
  5
1923D
330
747D
100
AcDbEntity
  8
仕様書枠
 48
50.0
100
AcDbLine
 10
16307.2
 20
11069.59999999999
 30
0.0
 11
13127.2
 21
11069.6
 31
0.0
  0
LINE
  5
1923E
330
747D
100
AcDbEntity
  8
仕様書枠
 48
50.0
100
AcDbLine
 10
16307.2
 20
10899.6
 30
0.0
 11
13127.2
 21
10899.6
 31
0.0
  0
LINE
  5
1923F
330
747D
100
AcDbEntity
  8
仕様書枠
 48
50.0
100
AcDbLine
 10
16307.2
 20
11239.59999999999
 30
0.0
 11
13127.2
 21
11239.6
 31
0.0
  0
LINE
  5
19240
330
747D
100
AcDbEntity
  8
仕様書枠
 48
50.0
100
AcDbLine
 10
13490.2
 20
11409.59999999999
 30
0.0
 11
13490.20000000001
 21
8349.600000000007
 31
0.0
  0
LINE
  5
19241
330
747D
100
AcDbEntity
  8
仕様書枠
 48
50.0
100
AcDbLine
 10
14785.2
 20
11409.59999999999
 30
0.0
 11
14785.2
 21
8349.600000000004
 31
0.0
  0
LINE
  5
19242
330
747D
100
AcDbEntity
  8
仕様書枠
 48
50.0
100
AcDbLine
 10
16307.19999999999
 20
8009.600000000004
 30
0.0
 11
16307.2
 21
11409.6
 31
0.0
  0
LINE
  5
19243
330
747D
100
AcDbEntity
  8
仕様書枠
 48
50.0
100
AcDbLine
 10
16307.2
 20
11409.59999999999
 30
0.0
 11
13127.2
 21
11409.6
 31
0.0
  0
LINE
  5
19244
330
747D
100
AcDbEntity
  8
仕様書枠
 48
50.0
100
AcDbLine
 10
16307.2
 20
10049.6
 30
0.0
 11
13127.2
 21
10049.6
 31
0.0
  0
TEXT
  5
19245
330
747D
100
AcDbEntity
  8
文字
 62
     7
 48
50.0
100
AcDbText
 10
15022.63965474515
 20
8380.013745883724
 30
0.0
 40
100.0
  1
F12            2.3
  7
STYLE1
100
AcDbText
  0
TEXT
  5
19246
330
747D
100
AcDbEntity
  8
文字
 62
     7
 48
50.0
100
AcDbText
 10
13583.11819016569
 20
8380.013745883728
 30
0.0
 40
100.0
  1
アンカープレート
  7
STYLE1
100
AcDbText
  0
LINE
  5
19247
330
747D
100
AcDbEntity
  8
仕様書枠
 48
50.0
100
AcDbLine
 10
16307.19999999999
 20
8519.600000000004
 30
0.0
 11
13127.2
 21
8519.600000000005
 31
0.0
  0
LINE
  5
19248
330
747D
100
AcDbEntity
  8
仕様書枠
 48
50.0
100
AcDbLine
 10
16307.19999999999
 20
8689.600000000003
 30
0.0
 11
13127.2
 21
8689.600000000005
 31
0.0
  0
TEXT
  5
19249
330
747D
100
AcDbEntity
  8
文字
 62
     7
 48
50.0
100
AcDbText
 10
13583.11819016569
 20
9400.013745883729
 30
0.0
 40
100.0
  1
壁面扉鴨居
  7
STYLE1
100
AcDbText
  0
TEXT
  5
1924A
330
747D
100
AcDbEntity
  8
文字
 62
     7
 48
50.0
100
AcDbText
 10
13583.11819016569
 20
9230.013745883733
 30
0.0
 40
100.0
  1
壁面扉敷居
  7
STYLE1
100
AcDbText
  0
TEXT
  5
1924B
330
747D
100
AcDbEntity
  8
文字
 62
     7
 48
50.0
100
AcDbText
 10
15022.63965474515
 20
9400.013745883727
 30
0.0
 40
100.0
  1
F12            0.7
  7
STYLE1
100
AcDbText
  0
TEXT
  5
1924C
330
747D
100
AcDbEntity
  8
文字
 62
     7
 48
50.0
100
AcDbText
 10
15022.63965474517
 20
9230.013745883725
 30
0.0
 40
100.0
  1
F12            1.0
  7
STYLE1
100
AcDbText
  0
TEXT
  5
1924D
330
747D
100
AcDbEntity
  8
文字
 62
     7
 48
50.0
100
AcDbText
 10
13583.11819016569
 20
9060.013745883733
 30
0.0
 40
100.0
  1
壁面扉枠左右
  7
STYLE1
100
AcDbText
  0
TEXT
  5
1924E
330
747D
100
AcDbEntity
  8
文字
 62
     7
 48
50.0
100
AcDbText
 10
15022.63965474517
 20
9060.013745883725
 30
0.0
 40
100.0
  1
F12            1.0
  7
STYLE1
100
AcDbText
  0
TEXT
  5
1924F
330
747D
100
AcDbEntity
  8
文字
 62
     7
 48
50.0
100
AcDbText
 10
13248.77747366447
 20
8550.013745883729
 30
0.0
 40
100.0
  1
16
  7
STYLE1
100
AcDbText
  0
TEXT
  5
19250
330
747D
100
AcDbEntity
  8
文字
 62
     7
 48
50.0
100
AcDbText
 10
13248.77747366447
 20
8380.013745883728
 30
0.0
 40
100.0
  1
17
  7
STYLE1
100
AcDbText
  0
LINE
  5
19251
330
747D
100
AcDbEntity
  8
部品1
100
AcDbLine
 10
10561.20681869546
 20
854.4314480083839
 30
0.0
 11
9797.736152467029
 21
854.4314480083839
 31
0.0
  0
LINE
  5
19252
330
747D
100
AcDbEntity
  8
部品1
100
AcDbLine
 10
10561.20681869546
 20
614.5391264628515
 30
0.0
 11
10561.20681869546
 21
854.4314480083839
 31
0.0
  0
LINE
  5
19253
330
747D
100
AcDbEntity
  8
部品1
100
AcDbLine
 10
9797.736152467029
 20
614.5391264628515
 30
0.0
 11
10561.20681869546
 21
614.5391264628515
 31
0.0
  0
LINE
  5
19254
330
747D
100
AcDbEntity
  8
部品1
100
AcDbLine
 10
9797.736152467029
 20
854.4314480083839
 30
0.0
 11
9797.736152467029
 21
614.5391264628515
 31
0.0
  0
LINE
  5
19255
330
747D
100
AcDbEntity
  8
部品1
100
AcDbLine
 10
11046.47148558125
 20
1693.469710985813
 30
0.0
 11
11074.47148558125
 21
1693.469710985813
 31
0.0
  0
LINE
  5
19256
330
747D
100
AcDbEntity
  8
部品1
 48
50.0
100
AcDbLine
 10
9312.471485581248
 20
1643.469710985792
 30
0.0
 11
11046.47148558125
 21
1643.469710985792
 31
0.0
  0
LINE
  5
19257
330
747D
100
AcDbEntity
  8
部品1
100
AcDbLine
 10
9339.471485581247
 20
3783.469710985788
 30
0.0
 11
9339.471485581247
 21
3778.469710985794
 31
0.0
  0
LINE
  5
19258
330
747D
100
AcDbEntity
  8
部品1
100
AcDbLine
 10
11019.47148558125
 20
3783.469710985793
 30
0.0
 11
11019.47148558125
 21
3778.469710985794
 31
0.0
  0
LINE
  5
19259
330
747D
100
AcDbEntity
  8
部品1
100
AcDbLine
 10
9284.471485581249
 20
1693.469710985797
 30
0.0
 11
9312.471485581248
 21
1693.469710985797
 31
0.0
  0
TEXT
  5
1925A
330
747D
100
AcDbEntity
  8
部品1
100
AcDbText
 10
9888.261556204984
 20
661.5379187898606
 30
0.0
 40
135.0
  1
正面図
  7
STYLE2
100
AcDbText
  0
DIMENSION
  5
1925B
330
747D
100
AcDbEntity
  8
寸法
 48
50.0
100
AcDbDimension
  2
*D19
 10
9184.47148558125
 20
1057.422381685415
 30
0.0
 11
9284.471485581249
 21
1057.422381685415
 31
0.0
 70
   160
 71
     5
 42
200.0000000000018
  3
INABA_S40G
100
AcDbAlignedDimension
 13
9384.471485581251
 23
1343.469710985792
 33
0.0
 14
9184.47148558125
 24
1343.469710985792
 34
0.0
100
AcDbRotatedDimension
  0
LINE
  5
1925C
330
747D
100
AcDbEntity
  8
破線
 48
5.0
100
AcDbLine
 10
9279.471485581249
 20
1543.469710985793
 30
0.0
 11
9279.471485581249
 21
1388.469710985795
 31
0.0
  0
LINE
  5
1925D
330
747D
100
AcDbEntity
  8
破線
 48
5.0
100
AcDbLine
 10
11079.47148558125
 20
1543.469710985793
 30
0.0
 11
11079.47148558125
 21
1388.469710985793
 31
0.0
  0
LINE
  5
1925E
330
747D
100
AcDbEntity
  8
破線
 48
5.0
100
AcDbLine
 10
9384.471485581249
 20
1543.469710985794
 30
0.0
 11
9384.471485581249
 21
1343.469710985793
 31
0.0
  0
LINE
  5
1925F
330
747D
100
AcDbEntity
  8
破線
 48
5.0
100
AcDbLine
 10
9259.471485581249
 20
1388.469710985795
 30
0.0
 11
9279.471485581252
 21
1388.469710985795
 31
0.0
  0
LINE
  5
19260
330
747D
100
AcDbEntity
  8
破線
 48
5.0
100
AcDbLine
 10
9184.47148558125
 20
1543.469710985794
 30
0.0
 11
9184.47148558125
 21
1343.469710985793
 31
0.0
  0
LINE
  5
19261
330
747D
100
AcDbEntity
  8
破線
 48
5.0
100
AcDbLine
 10
9184.47148558125
 20
1343.469710985793
 30
0.0
 11
9384.471485581251
 21
1343.469710985793
 31
0.0
  0
LINE
  5
19262
330
747D
100
AcDbEntity
  8
部品1
100
AcDbLine
 10
9279.471485581249
 20
1688.469710985795
 30
0.0
 11
9279.471485581249
 21
1543.469710985793
 31
0.0
  0
LINE
  5
19263
330
747D
100
AcDbEntity
  8
破線
 48
5.0
100
AcDbLine
 10
11099.47148558125
 20
1388.469710985793
 30
0.0
 11
11079.47148558124
 21
1388.469710985793
 31
0.0
  0
LINE
  5
19264
330
747D
100
AcDbEntity
  8
破線
 48
5.0
100
AcDbLine
 10
11174.47148558125
 20
1543.469710985793
 30
0.0
 11
11174.47148558125
 21
1343.469710985792
 31
0.0
  0
LINE
  5
19265
330
747D
100
AcDbEntity
  8
破線
 48
5.0
100
AcDbLine
 10
10974.47148558125
 20
1543.469710985793
 30
0.0
 11
10974.47148558125
 21
1343.469710985792
 31
0.0
  0
LINE
  5
19266
330
747D
100
AcDbEntity
  8
破線
 48
5.0
100
AcDbLine
 10
11174.47148558125
 20
1343.469710985792
 30
0.0
 11
10974.47148558124
 21
1343.469710985792
 31
0.0
  0
LINE
  5
19267
330
747D
100
AcDbEntity
  8
部品1
100
AcDbLine
 10
11079.47148558125
 20
1688.469710985795
 30
0.0
 11
11079.47148558125
 21
1543.469710985793
 31
0.0
  0
LINE
  5
19268
330
747D
100
AcDbEntity
  8
部品1
 48
50.0
100
AcDbLine
 10
10279.47148558125
 20
1643.469710985793
 30
0.0
 11
10279.47148558125
 21
1543.469710985793
 31
0.0
  0
LINE
  5
19269
330
747D
100
AcDbEntity
  8
部品1
 48
50.0
100
AcDbLine
 10
9879.471485581248
 20
1643.469710985793
 30
0.0
 11
9879.471485581248
 21
1543.469710985793
 31
0.0
  0
LINE
  5
1926A
330
747D
100
AcDbEntity
  8
部品1
100
AcDbLine
 10
9484.47148558125
 20
1643.469710985793
 30
0.0
 11
9484.47148558125
 21
1543.469710985793
 31
0.0
  0
LINE
  5
1926B
330
747D
100
AcDbEntity
  8
部品1
100
AcDbLine
 10
10874.47148558125
 20
1643.469710985793
 30
0.0
 11
10874.47148558125
 21
1543.469710985793
 31
0.0
  0
LINE
  5
1926C
330
747D
100
AcDbEntity
  8
部品1
100
AcDbLine
 10
11074.47148558125
 20
3838.3515196718
 30
0.0
 11
11074.47148558125
 21
1543.469710985793
 31
0.0
  0
LINE
  5
1926D
330
747D
100
AcDbEntity
  8
部品1
100
AcDbLine
 10
9284.471485581249
 20
3875.328230428041
 30
0.0
 11
9284.471485581249
 21
1543.469710985793
 31
0.0
  0
LINE
  5
1926E
330
747D
100
AcDbEntity
  8
部品1
100
AcDbLine
 10
9284.471485581249
 20
3783.469710985793
 30
0.0
 11
11074.47148558125
 21
3783.469710985793
 31
0.0
  0
LINE
  5
1926F
330
747D
100
AcDbEntity
  8
部品1
100
AcDbLine
 10
9284.471485581249
 20
1643.469710985793
 30
0.0
 11
11074.47148558125
 21
1643.469710985793
 31
0.0
  0
LINE
  5
19270
330
747D
100
AcDbEntity
  8
Ｇ．Ｌ
100
AcDbLine
 10
3302.573187463128
 20
1543.469710985793
 30
0.0
 11
11708.49305935
 21
1543.469710985793
 31
0.0
  0
TEXT
  5
19271
330
747D
100
AcDbEntity
  8
文字
 62
     7
 48
50.0
100
AcDbText
 10
13209.4053442172
 20
228.5435242569015
 30
0.0
 40
100.0
  1
○有効開口寸法 ： 950×2025(mm)
  7
STYLE2
100
AcDbText
  0
DIMENSION
  5
19272
330
747D
100
AcDbEntity
  8
寸法
 48
50.0
100
AcDbDimension
  2
*D20
 10
9284.471485581253
 20
4417.562880325266
 30
0.0
 11
10194.06713425773
 21
4417.562880325266
 31
0.0
 70
   160
  1
柱外寸法<>
 71
     5
 42
1790.0
  3
INABA_S40G
100
AcDbAlignedDimension
 13
11074.47148558125
 23
3965.280390597447
 33
0.0
 14
9284.471485581253
 24
4014.47132910877
 34
0.0
100
AcDbRotatedDimension
1001
ACAD
1000
DSTYLE
1002
{
1070
   174
1070
     0
1070
   272
1070
     1
1070
   288
1070
     0
1070
   341
1005
0
1002
}
  0
DIMENSION
  5
19273
330
747D
100
AcDbEntity
  8
寸法
 48
50.0
100
AcDbDimension
  2
*D21
 10
9224.471485581252
 20
4417.562880325266
 30
0.0
 11
8914.833690305663
 21
4417.562880325266
 31
0.0
 70
   160
 71
     5
 42
60.0
  3
INABA_S40G
100
AcDbAlignedDimension
 13
9284.471485581253
 23
4014.47132910877
 33
0.0
 14
9224.471485581252
 24
4018.469710985797
 34
0.0
100
AcDbRotatedDimension
1001
ACAD
1000
DSTYLE
1002
{
1070
   174
1070
     0
1070
   272
1070
     1
1070
   288
1070
     0
1070
   341
1005
0
1002
}
  0
DIMENSION
  5
19274
330
747D
100
AcDbEntity
  8
寸法
 48
50.0
100
AcDbDimension
  2
*D22
 10
9224.471485581252
 20
4634.088979943712
 30
0.0
 11
10130.27723683222
 21
4634.088979943712
 31
0.0
 70
   160
 71
     5
 42
1930.0
  3
INABA_S40G
100
AcDbAlignedDimension
 13
11154.47148558125
 23
3963.469710985794
 33
0.0
 14
9224.471485581252
 24
4018.469710985797
 34
0.0
100
AcDbRotatedDimension
1001
ACAD
1000
DSTYLE
1002
{
1070
   174
1070
     0
1070
   272
1070
     1
1070
   288
1070
     0
1070
   341
1005
0
1002
}
  0
DIMENSION
  5
19275
330
747D
100
AcDbEntity
  8
寸法
 48
50.0
100
AcDbDimension
  2
*D23
 10
11154.47148558125
 20
4417.562880325266
 30
0.0
 11
11360.51872967574
 21
4417.562880325266
 31
0.0
 70
   160
 71
     5
 42
80.0
  3
INABA_S40G
100
AcDbAlignedDimension
 13
11074.47148558125
 23
3965.280390597447
 33
0.0
 14
11154.47148558125
 24
3963.469710985794
 34
0.0
100
AcDbRotatedDimension
1001
ACAD
1000
DSTYLE
1002
{
1070
   174
1070
     0
1070
   272
1070
     1
1070
   288
1070
     0
1070
   341
1005
0
1002
}
  0
TEXT
  5
19276
330
747D
100
AcDbEntity
  8
部品1
 48
50.0
100
AcDbText
 10
10017.73932080498
 20
4185.221872239506
 30
0.0
 40
120.0
  1
1000
  7
STYLE1
100
AcDbText
  0
LINE
  5
19277
330
747D
100
AcDbEntity
  8
部品1
 48
50.0
100
AcDbLine
 10
10029.47148558125
 20
4149.337850087073
 30
0.0
 11
10329.47148558125
 21
4149.337850087073
 31
0.0
  0
LINE
  5
19278
330
747D
100
AcDbEntity
  8
部品1
 48
50.0
100
AcDbLine
 10
10329.47148558125
 20
4149.337850087073
 30
0.0
 11
10329.47148558125
 21
4133.137850087074
 31
0.0
  0
TEXT
  5
19279
330
747D
100
AcDbEntity
  8
部品1
 48
50.0
100
AcDbText
 10
10506.56433286911
 20
4047.720614021224
 30
0.0
 40
120.0
  1
54
 50
90.0
  7
STYLE1
100
AcDbText
  0
LINE
  5
1927A
330
747D
100
AcDbEntity
  8
部品1
 48
50.0
100
AcDbLine
 10
10029.47148558125
 20
4149.337850087073
 30
0.0
 11
10329.47148558125
 21
4133.137850087074
 31
0.0
  0
LINE
  5
1927B
330
747D
100
AcDbEntity
  8
部品1
100
AcDbLine
 10
9232.016471938214
 20
4017.18744632006
 30
0.0
 11
11147.08336244271
 21
3962.110508694932
 31
0.0
  0
LINE
  5
1927C
330
747D
100
AcDbEntity
  8
部品1
100
AcDbLine
 10
9239.814050183206
 20
3876.250736054761
 30
0.0
 11
11129.13518612109
 21
3837.222310820555
 31
0.0
  0
LINE
  5
1927D
330
747D
100
AcDbEntity
  8
細線
 48
50.0
100
AcDbLine
 10
9225.510908682066
 20
3989.486792827156
 30
0.0
 11
11151.14689342723
 21
3933.862588186327
 31
0.0
  0
LINE
  5
1927E
330
747D
100
AcDbEntity
  8
細線
 48
50.0
100
AcDbLine
 10
9230.271383919351
 20
3896.625281129291
 30
0.0
 11
11140.27504834999
 21
3856.815962154799
 31
0.0
  0
LINE
  5
1927F
330
747D
100
AcDbEntity
  8
細線
 48
50.0
100
AcDbLine
 10
9257.471485581254
 20
4015.869387361199
 30
0.0
 11
9252.182384025742
 21
3875.783754733844
 31
0.0
  0
LINE
  5
19280
330
747D
100
AcDbEntity
  8
部品1
 48
50.0
100
AcDbLine
 10
9224.65577149436
 20
4010.063257150487
 30
0.0
 11
9225.036031272171
 21
3990.136292704076
 31
0.0
  0
LINE
  5
19281
330
747D
100
AcDbEntity
  8
部品1
 48
50.0
100
AcDbLine
 10
9228.104803378416
 20
3986.561011210603
 30
0.0
 11
9229.808704869782
 21
3897.270514503955
 31
0.0
  0
LINE
  5
19282
330
747D
100
AcDbEntity
  8
部品1
 48
50.0
100
AcDbLine
 10
9232.877476976021
 20
3893.695233010483
 30
0.0
 11
9233.079429596456
 21
3883.112197617391
 31
0.0
  0
ARC
  5
19283
330
747D
100
AcDbEntity
  8
部品1
 48
50.0
100
AcDbCircle
 10
9231.654497322699
 20
4010.196811557914
 30
0.0
 40
7.0
100
AcDbArc
 50
87.03587545303976
 51
181.0932240292635
  0
ARC
  5
19284
330
747D
100
AcDbEntity
  8
部品1
 48
50.0
100
AcDbCircle
 10
9240.078155424793
 20
3883.245752024819
 30
0.0
 40
7.0
100
AcDbArc
 50
181.0932240293156
 51
267.8377559869488
  0
ARC
  5
19285
330
747D
100
AcDbEntity
  8
部品1
100
AcDbCircle
 10
9229.878023049591
 20
3893.6379954073
 30
0.0
 40
3.0
100
AcDbArc
 50
1.093224029315636
 51
80.18775403148559
  0
ARC
  5
19286
330
747D
100
AcDbEntity
  8
部品1
100
AcDbCircle
 10
9225.105349451984
 20
3986.503773607419
 30
0.0
 40
3.0
100
AcDbArc
 50
1.093224029263536
 51
80.18775403148559
  0
ARC
  5
19287
330
747D
100
AcDbEntity
  8
部品1
100
AcDbCircle
 10
9225.735903855008
 20
3990.149648144816
 30
0.0
 40
0.7
100
AcDbArc
 50
181.0932240292114
 51
260.1877540314855
  0
ARC
  5
19288
330
747D
100
AcDbEntity
  8
部品1
100
AcDbCircle
 10
9230.508577452615
 20
3897.283869944698
 30
0.0
 40
0.7
100
AcDbArc
 50
181.0932240292114
 51
260.1877540314855
  0
LINE
  5
19289
330
747D
100
AcDbEntity
  8
細線
 48
50.0
100
AcDbLine
 10
11121.47148558125
 20
3963.43669002109
 30
0.0
 11
11116.72380269325
 21
3837.690917530345
 31
0.0
  0
LINE
  5
1928A
330
747D
100
AcDbEntity
  8
部品1
 48
50.0
100
AcDbLine
 10
11153.68538839195
 20
3954.410863260011
 30
0.0
 11
11151.65476720098
 21
3934.465822002232
 31
0.0
  0
LINE
  5
1928B
330
747D
100
AcDbEntity
  8
部品1
 48
50.0
100
AcDbLine
 10
11148.3022007165
 20
3931.155187929322
 30
0.0
 11
11140.79542145166
 21
3857.422567184311
 31
0.0
  0
LINE
  5
1928C
330
747D
100
AcDbEntity
  8
部品1
 48
50.0
100
AcDbLine
 10
11137.44285496718
 20
3854.111933111399
 30
0.0
 11
11136.36329192744
 21
3843.508316117841
 31
0.0
  0
ARC
  5
1928D
330
747D
100
AcDbEntity
  8
部品1
 48
50.0
100
AcDbCircle
 10
11146.7213878272
 20
3955.119873932787
 30
0.0
 40
7.0
100
AcDbArc
 50
354.1866997665207
 51
87.03587545303976
  0
ARC
  5
1928E
330
747D
100
AcDbEntity
  8
部品1
 48
50.0
100
AcDbCircle
 10
11129.39929136268
 20
3844.217326790615
 30
0.0
 40
7.0
100
AcDbArc
 50
267.8377559869488
 51
354.1866997665693
  0
ARC
  5
1928F
330
747D
100
AcDbEntity
  8
部品1
100
AcDbCircle
 10
11140.42742663778
 20
3853.808071394495
 30
0.0
 40
3.0
100
AcDbArc
 50
95.0921697642102
 51
174.1866997665693
  0
ARC
  5
19290
330
747D
100
AcDbEntity
  8
部品1
100
AcDbCircle
 10
11151.28677238711
 20
3930.85132621242
 30
0.0
 40
3.0
100
AcDbArc
 50
95.09216976441955
 51
174.1866997665693
  0
ARC
  5
19291
330
747D
100
AcDbEntity
  8
部品1
100
AcDbCircle
 10
11150.95836714451
 20
3934.536723069508
 30
0.0
 40
0.7
100
AcDbArc
 50
275.0921697642102
 51
354.1866997665693
  0
ARC
  5
19292
330
747D
100
AcDbEntity
  8
部品1
100
AcDbCircle
 10
11140.09902139519
 20
3857.493468251585
 30
0.0
 40
0.7
100
AcDbArc
 50
275.0921697642102
 51
354.186699766712
  0
DIMENSION
  5
19293
330
747D
100
AcDbEntity
  8
寸法
100
AcDbDimension
  2
*D2
 10
8375.832103651891
 20
4018.469710985798
 30
0.0
 11
8375.832103651891
 21
2713.969710985793
 31
0.0
 70
   160
 71
     5
 42
2375.000000000005
  3
INABA_S40G
100
AcDbAlignedDimension
 13
9284.471485581249
 23
1643.469710985793
 33
0.0
 14
9224.471485581249
 24
4018.469710985797
 34
0.0
 50
90.0
100
AcDbRotatedDimension
1001
ACAD
1000
DSTYLE
1002
{
1070
   174
1070
     0
1070
   272
1070
     1
1070
   288
1070
     0
1070
   341
1005
0
1002
}
  0
DIMENSION
  5
19294
330
747D
100
AcDbEntity
  8
寸法
100
AcDbDimension
  2
*D3
 10
8660.818776422951
 20
1693.469710985793
 30
0.0
 11
8660.818776422951
 21
2713.969710985793
 31
0.0
 70
   160
 71
     5
 42
2090.0
  3
INABA_S40G
100
AcDbAlignedDimension
 13
9284.471485581249
 23
3783.469710985793
 33
0.0
 14
9284.471485581249
 24
1693.469710985793
 34
0.0
 50
90.0
100
AcDbRotatedDimension
1001
ACAD
1000
DSTYLE
1002
{
1070
   174
1070
     0
1070
   272
1070
     1
1070
   288
1070
     0
1070
   341
1005
0
1002
}
  0
DIMENSION
  5
19295
330
747D
100
AcDbEntity
  8
寸法
100
AcDbDimension
  2
*D4
 10
8660.818776422951
 20
1643.469710985793
 30
0.0
 11
8660.818776422951
 21
1337.422466891303
 31
0.0
 70
   160
 71
     5
 42
50.0
  3
INABA_S40G
100
AcDbAlignedDimension
 13
9284.471485581249
 23
1693.469710985793
 33
0.0
 14
9229.471485581248
 24
1643.469710985793
 34
0.0
 50
90.0
100
AcDbRotatedDimension
1001
ACAD
1000
DSTYLE
1002
{
1070
   174
1070
     0
1070
   272
1070
     1
1070
   288
1070
     0
1070
   341
1005
0
1002
}
  0
DIMENSION
  5
19296
330
747D
100
AcDbEntity
  8
寸法
100
AcDbDimension
  2
*D5
 10
8375.832103651891
 20
1543.469710985793
 30
0.0
 11
8375.832103651891
 21
1307.422466891303
 31
0.0
 70
   160
 71
     5
 42
100.0000000000002
  3
INABA_S40G
100
AcDbAlignedDimension
 13
9229.471485581248
 23
1643.469710985793
 33
0.0
 14
8660.818776422951
 24
1543.469710985793
 34
0.0
 50
90.0
100
AcDbRotatedDimension
1001
ACAD
1000
DSTYLE
1002
{
1070
   174
1070
     0
1070
   272
1070
     1
1070
   288
1070
     0
1070
   341
1005
0
1002
}
  0
DIMENSION
  5
19297
330
747D
100
AcDbEntity
  8
寸法
100
AcDbDimension
  2
*D6
 10
11609.64158134367
 20
3963.469710985794
 30
0.0
 11
11609.64158134367
 21
2925.726038415481
 31
0.0
 70
   160
 71
     5
 42
2320.000000000002
  3
INABA_S40G
100
AcDbAlignedDimension
 13
11074.47148558125
 23
1643.469710985793
 33
0.0
 14
11154.47148558123
 24
3963.469710985796
 34
0.0
 50
90.0
100
AcDbRotatedDimension
1001
ACAD
1000
DSTYLE
1002
{
1070
   174
1070
     0
1070
   272
1070
     1
1070
   288
1070
     0
1070
   341
1005
0
1002
}
  0
LINE
  5
19298
330
747D
100
AcDbEntity
  8
部品1
100
AcDbLine
 10
11046.47148558128
 20
8211.804986299013
 30
0.0
 11
11074.47148558128
 21
8211.804986299013
 31
0.0
  0
LINE
  5
19299
330
747D
100
AcDbEntity
  8
部品1
100
AcDbLine
 10
9312.471485581253
 20
8211.804986298885
 30
0.0
 11
9284.471485581253
 21
8211.804986298885
 31
0.0
  0
LINE
  5
1929A
330
747D
100
AcDbEntity
  8
部品1
100
AcDbLine
 10
10179.47148558127
 20
9526.804986299008
 30
0.0
 11
10179.47148558127
 21
9498.804986299008
 31
0.0
  0
DIMENSION
  5
1929B
330
747D
100
AcDbEntity
  8
寸法
100
AcDbDimension
  2
*D7
 10
10391.82988416809
 20
6979.602639750615
 30
0.0
 11
10391.82988416809
 21
7560.572438493527
 31
0.0
 70
   160
 71
     5
 42
1273.00000000001
  3
INABA_S40G
100
AcDbAlignedDimension
 13
10594.47148558139
 23
8198.304986298984
 33
0.0
 14
10594.47148558138
 24
6925.304986298974
 34
0.0
 50
270.0
100
AcDbRotatedDimension
1001
ACAD
1000
DSTYLE
1002
{
1002
}
  0
DIMENSION
  5
1929C
330
747D
100
AcDbEntity
  8
寸法
100
AcDbDimension
  2
*D8
 10
10391.82988416809
 20
8279.602639750612
 30
0.0
 11
10391.82988416809
 21
8872.654195708264
 31
0.0
 70
   160
 71
     5
 42
1273.000000000069
  3
INABA_S40G
100
AcDbAlignedDimension
 13
10594.47148558133
 23
9498.304986299054
 33
0.0
 14
10594.47148558132
 24
8225.304986298985
 34
0.0
 50
270.0
100
AcDbRotatedDimension
1001
ACAD
1000
DSTYLE
1002
{
1002
}
  0
LINE
  5
1929D
330
747D
100
AcDbEntity
  8
部品1
100
AcDbLine
 10
10594.47148558132
 20
8224.304986298978
 30
0.0
 11
10594.47148558132
 21
8199.304986298978
 31
0.0
  0
LINE
  5
1929E
330
747D
100
AcDbEntity
  8
部品1
 48
50.0
100
AcDbLine
 10
11046.47148558133
 20
8199.304986298978
 30
0.0
 11
10594.47148558132
 21
8199.304986298978
 31
0.0
  0
LINE
  5
1929F
330
747D
100
AcDbEntity
  8
部品1
 48
50.0
100
AcDbLine
 10
11046.47148558133
 20
8224.304986298978
 30
0.0
 11
10594.47148558132
 21
8224.304986298978
 31
0.0
  0
LINE
  5
192A0
330
747D
100
AcDbEntity
  8
部品1
 48
50.0
100
AcDbLine
 10
11044.47148558132
 20
8198.304986298976
 30
0.0
 11
10594.47148558132
 21
8198.304986298976
 31
0.0
  0
LINE
  5
192A1
330
747D
100
AcDbEntity
  8
部品1
 48
50.0
100
AcDbLine
 10
11044.47148558132
 20
8225.304986298977
 30
0.0
 11
10594.47148558132
 21
8225.304986298977
 31
0.0
  0
LINE
  5
192A2
330
747D
100
AcDbEntity
  8
細線
 48
50.0
100
AcDbLine
 10
10594.47148558132
 20
6925.304986298977
 30
0.0
 11
11044.47148558132
 21
8198.304986298976
 31
0.0
  0
LINE
  5
192A3
330
747D
100
AcDbEntity
  8
細線
 48
50.0
100
AcDbLine
 10
11044.47148558131
 20
6925.304986298977
 30
0.0
 11
10594.47148558132
 21
8198.304986298976
 31
0.0
  0
LINE
  5
192A4
330
747D
100
AcDbEntity
  8
部品1
100
AcDbLine
 10
10594.47148558132
 20
8198.304986298976
 30
0.0
 11
10594.47148558132
 21
6925.304986298977
 31
0.0
  0
LINE
  5
192A5
330
747D
100
AcDbEntity
  8
部品1
100
AcDbLine
 10
11044.47148558131
 20
6925.304986298977
 30
0.0
 11
10594.47148558132
 21
6925.304986298977
 31
0.0
  0
LINE
  5
192A6
330
747D
100
AcDbEntity
  8
部品1
100
AcDbLine
 10
11044.47148558132
 20
8198.304986298976
 30
0.0
 11
11044.47148558131
 21
6925.304986298977
 31
0.0
  0
LINE
  5
192A7
330
747D
100
AcDbEntity
  8
部品1
100
AcDbLine
 10
11038.47148558132
 20
8224.304986298978
 30
0.0
 11
11038.47148558132
 21
8199.304986298978
 31
0.0
  0
LINE
  5
192A8
330
747D
100
AcDbEntity
  8
部品1
100
AcDbLine
 10
11064.47148558132
 20
8246.804986298977
 30
0.0
 11
11064.47148558132
 21
8240.804986298977
 31
0.0
  0
LINE
  5
192A9
330
747D
100
AcDbEntity
  8
部品1
100
AcDbLine
 10
11064.47148558132
 20
8246.804986298977
 30
0.0
 11
11046.47148558132
 21
8246.804986298977
 31
0.0
  0
LINE
  5
192AA
330
747D
100
AcDbEntity
  8
細線
 48
50.0
100
AcDbLine
 10
11044.47148558132
 20
8225.304986298977
 30
0.0
 11
10594.47148558127
 21
9498.304986299046
 31
0.0
  0
LINE
  5
192AB
330
747D
100
AcDbEntity
  8
部品1
100
AcDbLine
 10
11044.47148558127
 20
9498.304986299046
 30
0.0
 11
11044.47148558133
 21
8225.304986298977
 31
0.0
  0
LINE
  5
192AC
330
747D
100
AcDbEntity
  8
部品1
100
AcDbLine
 10
11064.47148558132
 20
8182.804986298977
 30
0.0
 11
11064.47148558132
 21
8176.804986298977
 31
0.0
  0
LINE
  5
192AD
330
747D
100
AcDbEntity
  8
部品1
100
AcDbLine
 10
11064.47148558132
 20
8176.804986298977
 30
0.0
 11
11046.47148558132
 21
8176.804986298977
 31
0.0
  0
LINE
  5
192AE
330
747D
100
AcDbEntity
  8
細線
 48
50.0
100
AcDbLine
 10
10594.47148558132
 20
8225.304986298977
 30
0.0
 11
11044.47148558127
 21
9498.304986299046
 31
0.0
  0
LINE
  5
192AF
330
747D
100
AcDbEntity
  8
部品1
100
AcDbLine
 10
10594.47148558127
 20
9498.304986299046
 30
0.0
 11
10594.47148558132
 21
8225.304986298977
 31
0.0
  0
LINE
  5
192B0
330
747D
100
AcDbEntity
  8
部品1
 48
50.0
100
AcDbLine
 10
11044.47148558132
 20
9498.304986299046
 30
0.0
 11
10594.47148558132
 21
9498.304986299046
 31
0.0
  0
LINE
  5
192B1
330
747D
100
AcDbEntity
  8
破線
 48
10.0
100
AcDbLine
 10
9364.471485581239
 20
9446.804986299119
 30
0.0
 11
10594.47148558127
 21
9446.804986299108
 31
0.0
  0
LINE
  5
192B2
330
747D
100
AcDbEntity
  8
部品1
 48
50.0
100
AcDbLine
 10
10594.47148558127
 20
9470.304986299035
 30
0.0
 11
9340.971485581258
 21
9470.304986299101
 31
0.0
  0
LINE
  5
192B3
330
747D
100
AcDbEntity
  8
部品1
 48
50.0
100
AcDbLine
 10
9340.971485581244
 20
9470.304986299101
 30
0.0
 11
9312.471485581275
 21
9498.804986298916
 31
0.0
  0
LINE
  5
192B4
330
747D
100
AcDbEntity
  8
部品1
100
AcDbLine
 10
11046.47148558126
 20
8199.304986298978
 30
0.0
 11
11046.47148558125
 21
6924.804986298997
 31
0.0
  0
MTEXT
  5
192B5
330
747D
100
AcDbEntity
  8
寸法
 62
     7
 48
50.0
100
AcDbMText
 10
10661.43183701295
 20
8866.063475389768
 30
0.0
 40
96.0
 41
0.0
 71
     5
 72
     1
  1
棚 3段
  7
STYLE1
 11
0.0000000000000003
 21
1.0
 31
0.0
 73
     1
 44
1.0
1001
ACAD
1000
MTEXTBEGIN
1070
    73
1070
     1
1070
    44
1040
1.0
1070
    74
1070
     0
1000
MTEXTEND
  0
LINE
  5
19682
330
747D
100
AcDbEntity
  8
補助
  6
PHANTOM
 62
   230
 48
50.0
100
AcDbLine
 10
140.0
 20
0.0
 30
0.0
 11
140.0
 21
11409.6
 31
0.0
  0
MTEXT
  5
19683
330
747D
100
AcDbEntity
  8
寸法
 62
     7
 48
50.0
100
AcDbMText
 10
10661.43183701297
 20
7566.063475389736
 30
0.0
 40
96.0
 41
0.0
 71
     5
 72
     1
  1
棚 3段
  7
STYLE1
 11
0.0000000000000003
 21
1.0
 31
0.0
 73
     1
 44
1.0
1001
ACAD
1000
MTEXTBEGIN
1070
    73
1070
     1
1070
    44
1040
1.0
1070
    74
1070
     0
1000
MTEXTEND
  0
LINE
  5
197F5
330
747D
100
AcDbEntity
  8
部品1
 48
50.0
100
AcDbLine
 10
9386.47148558125
 20
2774.969710985795
 30
0.0
 11
9439.471485581249
 21
2774.969710985795
 31
0.0
  0
LINE
  5
19A58
330
747D
100
AcDbEntity
  8
細線
 48
50.0
100
AcDbLine
 10
9862.471485581238
 20
6824.805160475799
 30
0.0
 11
9980.971485581235
 21
6824.805160475799
 31
0.0
  0
LINE
  5
19A59
330
747D
100
AcDbEntity
  8
細線
 48
50.0
100
AcDbLine
 10
9950.971485581241
 20
6841.955160475797
 30
0.0
 11
9950.971485581241
 21
6846.805160475799
 31
0.0
  0
LINE
  5
19A5A
330
747D
100
AcDbEntity
  8
細線
 48
50.0
100
AcDbLine
 10
9950.971485581241
 20
6846.805160475799
 30
0.0
 11
9965.97148558124
 21
6846.805160475799
 31
0.0
  0
LINE
  5
19A5B
330
747D
100
AcDbEntity
  8
細線
 48
50.0
100
AcDbLine
 10
9965.97148558124
 20
6846.805160475799
 30
0.0
 11
9965.971485581242
 21
6853.8051604758
 31
0.0
  0
LINE
  5
19A5C
330
747D
100
AcDbEntity
  8
細線
 48
50.0
100
AcDbLine
 10
9965.971485581242
 20
6853.8051604758
 30
0.0
 11
9980.971485581241
 21
6853.8051604758
 31
0.0
  0
LINE
  5
19A5D
330
747D
100
AcDbEntity
  8
細線
 48
50.0
100
AcDbLine
 10
9980.971485581241
 20
6853.8051604758
 30
0.0
 11
9980.971485581241
 21
6824.805160475799
 31
0.0
  0
LINE
  5
19A5E
330
747D
100
AcDbEntity
  8
細線
 48
50.0
100
AcDbLine
 10
9969.97148558124
 20
6876.301354741305
 30
0.0
 11
9969.97148558124
 21
6880.801354741305
 31
0.0
  0
LINE
  5
19A5F
330
747D
100
AcDbEntity
  8
細線
 48
50.0
100
AcDbLine
 10
9969.97148558124
 20
6880.801354741305
 30
0.0
 11
9954.971485581239
 21
6880.801354741305
 31
0.0
  0
LINE
  5
19A60
330
747D
100
AcDbEntity
  8
細線
 48
50.0
100
AcDbLine
 10
9954.971485581239
 20
6880.801354741305
 30
0.0
 11
9954.971485581239
 21
6887.801354741306
 31
0.0
  0
LINE
  5
19A61
330
747D
100
AcDbEntity
  8
細線
 48
50.0
100
AcDbLine
 10
9954.971485581239
 20
6887.801354741306
 30
0.0
 11
9939.971485581242
 21
6887.801354741302
 31
0.0
  0
LINE
  5
19A62
330
747D
100
AcDbEntity
  8
細線
 48
50.0
100
AcDbLine
 10
9939.971485581242
 20
6887.801354741302
 30
0.0
 11
9939.971485581242
 21
6850.201126638191
 31
0.0
  0
LINE
  5
19A63
330
747D
100
AcDbEntity
  8
細線
 48
50.0
100
AcDbLine
 10
9939.971485581242
 20
6850.201126638191
 30
0.0
 11
9959.971492882417
 21
6850.201168187734
 31
0.0
  0
LINE
  5
19A64
330
747D
100
AcDbEntity
  8
細線
 48
50.0
100
AcDbLine
 10
9959.971448013476
 20
6858.804629823541
 30
0.0
 11
9959.971492882417
 21
6850.201168187734
 31
0.0
  0
LINE
  5
19A65
330
747D
100
AcDbEntity
  8
細線
 48
50.0
100
AcDbLine
 10
9959.971448013476
 20
6858.804629823541
 30
0.0
 11
9971.204137368184
 21
6858.804812776688
 31
0.0
  0
ARC
  5
19A66
330
747D
100
AcDbEntity
  8
細線
 48
50.0
100
AcDbCircle
 10
9977.78642967552
 20
6857.604976690301
 30
0.0
 40
1.8
100
AcDbArc
 50
270.0006665777295
 51
345.0005554812987
  0
LINE
  5
19A67
330
747D
100
AcDbEntity
  8
細線
 48
50.0
100
AcDbLine
 10
9979.772863121601
 20
6858.06381714758
 30
0.0
 11
9979.525100679401
 21
6857.139119265473
 31
0.0
  0
LINE
  5
19A68
330
747D
100
AcDbEntity
  8
細線
 48
50.0
100
AcDbLine
 10
9977.786450616676
 20
6855.804976690421
 30
0.0
 11
9974.156523197908
 21
6855.804934459941
 31
0.0
  0
ARC
  5
19A69
330
747D
100
AcDbEntity
  8
細線
 48
50.0
100
AcDbCircle
 10
9974.156502256754
 20
6857.60493445982
 30
0.0
 40
1.8
100
AcDbArc
 50
195.0010443049394
 51
270.0006665777295
  0
LINE
  5
19A6A
330
747D
100
AcDbEntity
  8
細線
 48
50.0
100
AcDbLine
 10
9972.170074764497
 20
6858.063649427385
 30
0.0
 11
9972.417844261009
 21
6857.139028488802
 31
0.0
  0
ARC
  5
19A6B
330
747D
100
AcDbEntity
  8
細線
 48
50.0
100
AcDbCircle
 10
9971.204153655747
 20
6857.804812776823
 30
0.0
 40
1.0
100
AcDbArc
 50
15.00104430493943
 51
90.00093320877969
  0
LINE
  5
19A6C
330
747D
100
AcDbEntity
  8
細線
 48
50.0
100
AcDbLine
 10
9980.738784476704
 20
6858.805007467093
 30
0.0
 11
9981.680544627609
 21
6858.805014040942
 31
0.0
  0
ARC
  5
19A6D
330
747D
100
AcDbEntity
  8
細線
 48
50.0
100
AcDbCircle
 10
9980.738791457088
 20
6857.805007467118
 30
0.0
 40
1.0
100
AcDbArc
 50
90.0003999466794
 51
165.0005554812987
  0
LINE
  5
19A6E
330
747D
100
AcDbEntity
  8
細線
 48
50.0
100
AcDbLine
 10
11016.97148558124
 20
6917.804986298847
 30
0.0
 11
11016.97148558123
 21
6892.804986298845
 31
0.0
  0
LINE
  5
19A6F
330
747D
100
AcDbEntity
  8
細線
100
AcDbLine
 10
11007.47148558123
 20
6892.804986298843
 30
0.0
 11
10899.47148558124
 21
6892.804986298843
 31
0.0
  0
LINE
  5
19A70
330
747D
100
AcDbEntity
  8
細線
 48
50.0
100
AcDbLine
 10
10431.97149073214
 20
6884.804986298846
 30
0.0
 11
10431.97149073215
 21
6922.80498629884
 31
0.0
  0
LINE
  5
19A71
330
747D
100
AcDbEntity
  8
細線
 48
50.0
100
AcDbLine
 10
10431.97149073215
 20
6922.80498629884
 30
0.0
 11
10446.97149073214
 21
6922.804986298842
 31
0.0
  0
LINE
  5
19A72
330
747D
100
AcDbEntity
  8
細線
 48
50.0
100
AcDbLine
 10
10446.97149073214
 20
6922.804986298842
 30
0.0
 11
10446.97149073214
 21
6917.804986298843
 31
0.0
  0
LINE
  5
19A73
330
747D
100
AcDbEntity
  8
細線
 48
50.0
100
AcDbLine
 10
10431.97149073214
 20
6884.804986298846
 30
0.0
 11
10451.97149073215
 21
6884.804986298843
 31
0.0
  0
LINE
  5
19A74
330
747D
100
AcDbEntity
  8
細線
 48
50.0
100
AcDbLine
 10
10451.97149073215
 20
6884.804986298843
 30
0.0
 11
10451.97149073215
 21
6892.804986298843
 31
0.0
  0
LINE
  5
19A75
330
747D
100
AcDbEntity
  8
細線
100
AcDbLine
 10
10689.47148558124
 20
6892.804986298843
 30
0.0
 11
10619.47148558123
 21
6892.804986298843
 31
0.0
  0
LINE
  5
19A76
330
747D
100
AcDbEntity
  8
細線
 48
50.0
100
AcDbLine
 10
10549.47148558124
 20
6892.804986298841
 30
0.0
 11
10464.76727030498
 21
6892.804986298843
 31
0.0
  0
LINE
  5
19A77
330
747D
100
AcDbEntity
  8
細線
100
AcDbLine
 10
10829.47148558123
 20
6892.804986298843
 30
0.0
 11
10759.47148558123
 21
6892.804986298843
 31
0.0
  0
LINE
  5
19A78
330
747D
100
AcDbEntity
  8
細線
100
AcDbLine
 10
10657.47148558124
 20
6892.804986298841
 30
0.0
 11
10657.47148558124
 21
6922.10498629884
 31
0.0
  0
LINE
  5
19A79
330
747D
100
AcDbEntity
  8
細線
100
AcDbLine
 10
10637.47148558124
 20
6922.10498629884
 30
0.0
 11
10657.47148558124
 21
6922.10498629884
 31
0.0
  0
LINE
  5
19A7A
330
747D
100
AcDbEntity
  8
細線
100
AcDbLine
 10
10637.47148558124
 20
6892.804986298841
 30
0.0
 11
10637.47148558124
 21
6922.10498629884
 31
0.0
  0
LINE
  5
19A7B
330
747D
100
AcDbEntity
  8
細線
 48
50.0
100
AcDbLine
 10
11001.07148558124
 20
6917.804986298844
 30
0.0
 11
10991.07148558124
 21
6922.804986298844
 31
0.0
  0
LINE
  5
19A7C
330
747D
100
AcDbEntity
  8
細線
 48
50.0
100
AcDbLine
 10
11016.97148558124
 20
6917.804986298847
 30
0.0
 11
11001.07148558124
 21
6917.804986298844
 31
0.0
  0
LINE
  5
19A7D
330
747D
100
AcDbEntity
  8
細線
 48
50.0
100
AcDbLine
 10
10991.07148558124
 20
6922.804986298841
 30
0.0
 11
10446.97149073214
 21
6922.80498629884
 31
0.0
  0
LINE
  5
19A7E
330
747D
100
AcDbEntity
  8
細線
 48
50.0
100
AcDbLine
 10
10457.97149073214
 20
6892.004986298843
 30
0.0
 11
10457.97149073214
 21
6890.504986298843
 31
0.0
  0
LINE
  5
19A7F
330
747D
100
AcDbEntity
  8
細線
 48
50.0
100
AcDbLine
 10
10458.67149073214
 20
6889.804986298843
 30
0.0
 11
10463.27149073214
 21
6889.804986298843
 31
0.0
  0
LINE
  5
19A80
330
747D
100
AcDbEntity
  8
細線
 48
50.0
100
AcDbLine
 10
10463.97149073214
 20
6890.504986298843
 30
0.0
 11
10463.97149755726
 21
6892.005001190331
 31
0.0
  0
ARC
  5
19A81
330
747D
100
AcDbEntity
  8
細線
 48
50.0
100
AcDbCircle
 10
10463.27149073214
 20
6890.504986298843
 30
0.0
 40
0.7
100
AcDbArc
 50
270.0
 51
0.0
  0
ARC
  5
19A82
330
747D
100
AcDbEntity
  8
細線
 48
50.0
100
AcDbCircle
 10
10458.67149073214
 20
6890.504986298843
 30
0.0
 40
0.7
100
AcDbArc
 50
180.0
 51
270.0
  0
LINE
  5
19A83
330
747D
100
AcDbEntity
  8
細線
 48
50.0
100
AcDbLine
 10
10457.17149259359
 20
6892.804986298843
 30
0.0
 11
10451.97149073215
 21
6892.804986298843
 31
0.0
  0
ARC
  5
19A84
330
747D
100
AcDbEntity
  8
細線
 48
50.0
100
AcDbCircle
 10
10464.77149755725
 20
6892.004997467459
 30
0.0
 40
0.8
100
AcDbArc
 50
90.00014387753465
 51
179.9997333689498
  0
ARC
  5
19A85
330
747D
100
AcDbEntity
  8
細線
 48
50.0
100
AcDbCircle
 10
10457.17149073215
 20
6892.004986298843
 30
0.0
 40
0.8
100
AcDbArc
 50
359.9997333689499
 51
89.99986668437072
  0
LINE
  5
19A86
330
747D
100
AcDbEntity
  8
細線
 48
50.0
100
AcDbLine
 10
10171.47145026234
 20
6858.804998161429
 30
0.0
 11
10101.47143297447
 21
6858.804998161438
 31
0.0
  0
LINE
  5
19A87
330
747D
100
AcDbEntity
  8
細線
 48
50.0
100
AcDbLine
 10
10031.47148558124
 20
6858.805006348799
 30
0.0
 11
9981.680544627609
 21
6858.805014040942
 31
0.0
  0
LINE
  5
19A88
330
747D
100
AcDbEntity
  8
細線
 48
50.0
100
AcDbLine
 10
10381.47147734447
 20
6858.804998161433
 30
0.0
 11
10472.97148558124
 21
6858.804998161433
 31
0.0
  0
LINE
  5
19A89
330
747D
100
AcDbEntity
  8
細線
 48
50.0
100
AcDbLine
 10
10311.47148558124
 20
6858.804995411428
 30
0.0
 11
10241.47172947823
 21
6858.805000911461
 31
0.0
  0
LINE
  5
19A8A
330
747D
100
AcDbEntity
  8
細線
 48
50.0
100
AcDbLine
 10
10472.97149588306
 20
6887.805204333706
 30
0.0
 11
10472.97148558124
 21
6858.804998161433
 31
0.0
  0
LINE
  5
19A8B
330
747D
100
AcDbEntity
  8
細線
 48
50.0
100
AcDbLine
 10
10457.97149771253
 20
6887.805204333706
 30
0.0
 11
10472.97149588306
 21
6887.805204333706
 31
0.0
  0
LINE
  5
19A8C
330
747D
100
AcDbEntity
  8
細線
 48
50.0
100
AcDbLine
 10
10457.97148607855
 20
6880.805204333663
 30
0.0
 11
10457.97149771253
 21
6887.805204333706
 31
0.0
  0
LINE
  5
19A8D
330
747D
100
AcDbEntity
  8
細線
 48
50.0
100
AcDbLine
 10
10442.97148607856
 20
6880.805204333663
 30
0.0
 11
10457.97148607855
 21
6880.805204333663
 31
0.0
  0
LINE
  5
19A8E
330
747D
100
AcDbEntity
  8
細線
 48
50.0
100
AcDbLine
 10
10442.97148607856
 20
6875.955204333664
 30
0.0
 11
10442.97148607856
 21
6880.805204333663
 31
0.0
  0
LINE
  5
19A8F
330
747D
100
AcDbEntity
  8
細線
 48
50.0
100
AcDbLine
 10
10442.97148607856
 20
6879.405204333664
 30
0.0
 11
9969.97148558124
 21
6879.405204333661
 31
0.0
  0
LINE
  5
19A90
330
747D
100
AcDbEntity
  8
細線
 48
50.0
100
AcDbLine
 10
9950.971485581241
 20
6845.405160475796
 30
0.0
 11
9365.471490234829
 21
6845.405160475796
 31
0.0
  0
LINE
  5
19A91
330
747D
100
AcDbEntity
  8
細線
 48
50.0
100
AcDbLine
 10
9773.854577251931
 20
6843.076011766291
 30
0.0
 11
9779.610094834602
 21
6824.805160475797
 31
0.0
  0
LINE
  5
19A92
330
747D
100
AcDbEntity
  8
細線
 48
50.0
100
AcDbLine
 10
9762.9261287715
 20
6843.076011766287
 30
0.0
 11
9773.854577251931
 21
6843.076011766291
 31
0.0
  0
ARC
  5
19A93
330
747D
100
AcDbEntity
  8
細線
 48
50.0
100
AcDbCircle
 10
9757.471772714183
 20
6844.576011766287
 30
0.0
 40
5.0
100
AcDbArc
 50
204.6243183521304
 51
335.3756816478695
  0
ARC
  5
19A94
330
747D
100
AcDbEntity
  8
細線
 48
50.0
100
AcDbCircle
 10
9762.9261287715
 20
6842.076011766287
 30
0.0
 40
1.0
100
AcDbArc
 50
90.0
 51
155.3756816478695
  0
ARC
  5
19A95
330
747D
100
AcDbEntity
  8
細線
 48
50.0
100
AcDbCircle
 10
9752.017416656865
 20
6842.076011766287
 30
0.0
 40
1.0
100
AcDbArc
 50
24.62431835213048
 51
90.0
  0
LINE
  5
19A96
330
747D
100
AcDbEntity
  8
細線
 48
50.0
100
AcDbLine
 10
9741.088968176434
 20
6843.076011766291
 30
0.0
 11
9752.017416656865
 21
6843.076011766287
 31
0.0
  0
LINE
  5
19A97
330
747D
100
AcDbEntity
  8
細線
 48
50.0
100
AcDbLine
 10
9735.333450593763
 20
6824.805160475797
 30
0.0
 11
9741.088968176434
 21
6843.076011766291
 31
0.0
  0
LINE
  5
19A98
330
747D
100
AcDbEntity
  8
細線
 48
50.0
100
AcDbLine
 10
9722.471485581237
 20
6824.805160475797
 30
0.0
 11
9792.471485581238
 21
6824.805160475797
 31
0.0
  0
LINE
  5
19A99
330
747D
100
AcDbEntity
  8
細線
 48
50.0
100
AcDbLine
 10
9342.471485581238
 20
6824.802494819266
 30
0.0
 11
9652.472038685665
 21
6824.806381719463
 31
0.0
  0
LINE
  5
19A9A
330
747D
100
AcDbEntity
  8
細線
 48
50.0
100
AcDbLine
 10
9365.471490234829
 20
6853.801310883437
 30
0.0
 11
9351.471485581239
 21
6853.801310883433
 31
0.0
  0
LINE
  5
19A9B
330
747D
100
AcDbEntity
  8
細線
 48
50.0
100
AcDbLine
 10
9365.471490234829
 20
6845.405160475796
 30
0.0
 11
9365.471490234829
 21
6853.801310883437
 31
0.0
  0
LINE
  5
19A9C
330
747D
100
AcDbEntity
  8
細線
  6
Continuous
 62
     5
100
AcDbLine
 10
10444.97149073215
 20
6877.80498629884
 30
0.0
 11
10444.97149073215
 21
6877.80498629884
 31
0.0
  0
LINE
  5
19A9D
330
747D
100
AcDbEntity
  8
部品1
100
AcDbLine
 10
9342.471485581238
 20
6819.804986298843
 30
0.0
 11
11046.47148558124
 21
6819.804986298841
 31
0.0
  0
LINE
  5
19A9E
330
747D
100
AcDbEntity
  8
部品1
100
AcDbLine
 10
11016.47148558123
 20
6819.804986298844
 30
0.0
 11
11046.47148558123
 21
6819.804986298844
 31
0.0
  0
LINE
  5
19A9F
330
747D
100
AcDbEntity
  8
部品1
100
AcDbLine
 10
9339.471485581238
 20
6923.804986298839
 30
0.0
 11
11019.47148558123
 21
6923.804986298843
 31
0.0
  0
LINE
  5
19AA0
330
747D
100
AcDbEntity
  8
部品1
100
AcDbLine
 10
9339.471485581238
 20
6923.804986298839
 30
0.0
 11
9339.471485581238
 21
6892.804986298843
 31
0.0
  0
LINE
  5
19AA1
330
747D
100
AcDbEntity
  8
部品1
100
AcDbLine
 10
9351.471485581239
 20
6892.804986298843
 30
0.0
 11
9351.471485581239
 21
6828.804986298843
 31
0.0
  0
LINE
  5
19AA2
330
747D
100
AcDbEntity
  8
部品1
100
AcDbLine
 10
9312.471485581239
 20
6819.804986298843
 30
0.0
 11
9312.471485581239
 21
6896.804986298842
 31
0.0
  0
LINE
  5
19AA3
330
747D
100
AcDbEntity
  8
部品1
100
AcDbLine
 10
9342.471485581238
 20
6819.804986298843
 30
0.0
 11
9312.471485581239
 21
6819.804986298843
 31
0.0
  0
LINE
  5
19AA4
330
747D
100
AcDbEntity
  8
部品1
100
AcDbLine
 10
9351.471485581239
 20
6828.804986298843
 30
0.0
 11
9342.471485581238
 21
6828.804986298843
 31
0.0
  0
LINE
  5
19AA5
330
747D
100
AcDbEntity
  8
部品1
100
AcDbLine
 10
9342.471485581238
 20
6828.804986298843
 30
0.0
 11
9342.471485581238
 21
6819.804986298843
 31
0.0
  0
LINE
  5
19AA6
330
747D
100
AcDbEntity
  8
部品1
100
AcDbLine
 10
9312.471485581239
 20
6896.804986298842
 30
0.0
 11
9339.471485581238
 21
6896.804986298842
 31
0.0
  0
LINE
  5
19AA7
330
747D
100
AcDbEntity
  8
部品1
100
AcDbLine
 10
9351.471485581239
 20
6892.804986298843
 30
0.0
 11
9339.471485581238
 21
6892.804986298843
 31
0.0
  0
LINE
  5
19AA8
330
747D
100
AcDbEntity
  8
部品1
100
AcDbLine
 10
11019.47148558123
 20
6923.804986298843
 30
0.0
 11
11019.47148558123
 21
6892.804986298845
 31
0.0
  0
LINE
  5
19AA9
330
747D
100
AcDbEntity
  8
部品1
100
AcDbLine
 10
11007.47148558123
 20
6892.804986298845
 30
0.0
 11
11007.47148558123
 21
6828.804986298845
 31
0.0
  0
LINE
  5
19AAA
330
747D
100
AcDbEntity
  8
部品1
100
AcDbLine
 10
11007.47148558123
 20
6828.804986298845
 30
0.0
 11
11016.47148558123
 21
6828.804986298845
 31
0.0
  0
LINE
  5
19AAB
330
747D
100
AcDbEntity
  8
部品1
100
AcDbLine
 10
11016.47148558123
 20
6828.804986298845
 30
0.0
 11
11016.47148558123
 21
6819.804986298844
 31
0.0
  0
LINE
  5
19AAC
330
747D
100
AcDbEntity
  8
部品1
100
AcDbLine
 10
11007.47148558123
 20
6892.804986298845
 30
0.0
 11
11019.47148558123
 21
6892.804986298845
 31
0.0
  0
LINE
  5
19AAD
330
747D
100
AcDbEntity
  8
部品1
100
AcDbLine
 10
11046.47148558123
 20
6819.804986298844
 30
0.0
 11
11046.47148558123
 21
6896.804986298843
 31
0.0
  0
LINE
  5
19AAF
330
747D
100
AcDbEntity
  8
部品1
100
AcDbLine
 10
11019.47148558123
 20
6896.804986298843
 30
0.0
 11
11046.47148558123
 21
6896.804986298843
 31
0.0
  0
DIMENSION
  5
19AB0
330
747D
100
AcDbEntity
  8
寸法
 48
50.0
100
AcDbDimension
  2
*D29
 10
10301.47148558124
 20
6194.729968250618
 30
0.0
 11
9826.471485581238
 21
6194.729968250618
 31
0.0
 70
   160
  1
有効開口部間口\P<>
 71
     5
 42
950.0
  3
INABA_S40
100
AcDbAlignedDimension
 13
9351.471485581239
 23
6819.804986298843
 33
0.0
 14
10301.47148558124
 24
6819.804986298843
 34
0.0
100
AcDbRotatedDimension
1001
ACAD
1000
DSTYLE
1002
{
1070
    41
1040
0.5
1070
    44
1040
1.0
1070
   147
1040
0.8
1070
   271
1070
     2
1070
   272
1070
     2
1070
   289
1070
     3
1070
   340
1005
F706
1070
   343
1005
18C0E
1070
   344
1005
18C0E
1002
}
  0
LINE
  5
19AB1
330
747D
100
AcDbEntity
  8
細線
100
AcDbLine
 10
9351.471485581239
 20
6828.804986298843
 30
0.0
 11
9351.471485581239
 21
6824.80498629889
 31
0.0
  0
LINE
  5
19AB2
330
747D
100
AcDbEntity
  8
細線
100
AcDbLine
 10
9507.971378982501
 20
6842.804055844442
 30
0.0
 11
9507.971378982501
 21
6824.804055844417
 31
0.0
  0
LINE
  5
19AB3
330
747D
100
AcDbEntity
  8
細線
100
AcDbLine
 10
9466.971378982499
 20
6842.804055844435
 30
0.0
 11
9466.971378982499
 21
6824.804055844417
 31
0.0
  0
LINE
  5
19AB4
330
747D
100
AcDbEntity
  8
細線
100
AcDbLine
 10
9507.971378982501
 20
6842.804055844442
 30
0.0
 11
9466.971378982499
 21
6842.804055844435
 31
0.0
  0
ARC
  5
19AB5
330
747D
100
AcDbEntity
  8
部品1
100
AcDbCircle
 10
9469.515534859777
 20
6824.304055844439
 30
0.0
 40
1.0
100
AcDbArc
 50
270.0
 51
19.47122063442214
  0
LINE
  5
19AB6
330
747D
100
AcDbEntity
  8
部品1
 48
0.01
100
AcDbLine
 10
9462.471378982492
 20
6824.804055844438
 30
0.0
 11
9462.471378982492
 21
6823.80405584444
 31
0.0
  0
LINE
  5
19AB7
330
747D
100
AcDbEntity
  8
部品1
 48
0.01
100
AcDbLine
 10
9462.971378982492
 20
6823.304055844438
 30
0.0
 11
9469.515534859777
 21
6823.304055844438
 31
0.0
  0
ARC
  5
19AB8
330
747D
100
AcDbEntity
  8
部品1
 48
0.01
100
AcDbCircle
 10
9462.971378982492
 20
6823.80405584444
 30
0.0
 40
0.5
100
AcDbArc
 50
180.0
 51
270.0
  0
ARC
  5
19AB9
330
747D
100
AcDbEntity
  8
部品1
100
AcDbCircle
 10
9494.971378982492
 20
6833.30405584444
 30
0.0
 40
26.0
100
AcDbArc
 50
180.0
 51
199.4712206344221
  0
ARC
  5
19ABA
330
747D
100
AcDbEntity
  8
部品1
 48
0.01
100
AcDbCircle
 10
9470.971378982493
 20
6838.304055844439
 30
0.0
 40
2.0
100
AcDbArc
 50
90.0
 51
180.0
  0
LINE
  5
19ABB
330
747D
100
AcDbEntity
  8
部品1
100
AcDbLine
 10
9468.971378982493
 20
6833.30405584444
 30
0.0
 11
9468.971378982493
 21
6838.304055844439
 31
0.0
  0
ARC
  5
19ABC
330
747D
100
AcDbEntity
  8
部品1
100
AcDbCircle
 10
9487.471378982492
 20
6849.104055844442
 30
0.0
 40
16.0
100
AcDbArc
 50
218.3930440192126
 51
254.0576313943215
  0
ARC
  5
19ABD
330
747D
100
AcDbEntity
  8
部品1
100
AcDbCircle
 10
9472.579770607305
 20
6837.304055844438
 30
0.0
 40
3.0
100
AcDbArc
 50
38.39304401921267
 51
90.0
  0
LINE
  5
19ABE
330
747D
100
AcDbEntity
  8
部品1
 48
0.01
100
AcDbLine
 10
9470.971378982493
 20
6840.304055844439
 30
0.0
 11
9472.579770607305
 21
6840.304055844439
 31
0.0
  0
ARC
  5
19ABF
330
747D
100
AcDbEntity
  8
部品1
100
AcDbCircle
 10
9487.471378982492
 20
6849.104055844442
 30
0.0
 40
16.0
100
AcDbArc
 50
285.9423686056786
 51
321.6069559807873
  0
LINE
  5
19AC0
330
747D
100
AcDbEntity
  8
部品1
100
AcDbLine
 10
9491.042093196764
 20
6833.604055844443
 30
0.0
 11
9483.900664768222
 21
6833.604055844443
 31
0.0
  0
ARC
  5
19AC1
330
747D
100
AcDbEntity
  8
部品1
100
AcDbCircle
 10
9491.042093196764
 20
6836.604055844443
 30
0.0
 40
3.0
100
AcDbArc
 50
270.0
 51
285.9423686056786
  0
ARC
  5
19AC2
330
747D
100
AcDbEntity
  8
部品1
100
AcDbCircle
 10
9483.900664768222
 20
6836.604055844443
 30
0.0
 40
3.0
100
AcDbArc
 50
254.0576313943215
 51
270.0
  0
LINE
  5
19AC3
330
747D
100
AcDbEntity
  8
部品1
 48
0.01
100
AcDbLine
 10
9503.971378982493
 20
6840.304055844439
 30
0.0
 11
9502.362987357681
 21
6840.304055844439
 31
0.0
  0
ARC
  5
19AC4
330
747D
100
AcDbEntity
  8
部品1
100
AcDbCircle
 10
9502.362987357681
 20
6837.304055844438
 30
0.0
 40
3.0
100
AcDbArc
 50
90.0
 51
141.6069559807873
  0
ARC
  5
19AC5
330
747D
100
AcDbEntity
  8
部品1
 48
0.01
100
AcDbCircle
 10
9503.971378982493
 20
6838.304055844439
 30
0.0
 40
2.0
100
AcDbArc
 50
0.0
 51
90.0
  0
LINE
  5
19AC6
330
747D
100
AcDbEntity
  8
部品1
100
AcDbLine
 10
9505.971378982492
 20
6833.30405584444
 30
0.0
 11
9505.971378982492
 21
6838.304055844439
 31
0.0
  0
ARC
  5
19AC7
330
747D
100
AcDbEntity
  8
部品1
100
AcDbCircle
 10
9479.971378982494
 20
6833.30405584444
 30
0.0
 40
26.0
100
AcDbArc
 50
340.5287793655779
 51
0.0
  0
ARC
  5
19AC8
330
747D
100
AcDbEntity
  8
部品1
100
AcDbCircle
 10
9505.427223105209
 20
6824.304055844439
 30
0.0
 40
1.0
100
AcDbArc
 50
160.5287793655778
 51
270.0
  0
LINE
  5
19AC9
330
747D
100
AcDbEntity
  8
部品1
 48
0.01
100
AcDbLine
 10
9511.971378982492
 20
6823.304055844438
 30
0.0
 11
9505.358873552429
 21
6823.304055844438
 31
0.0
  0
LINE
  5
19ACA
330
747D
100
AcDbEntity
  8
部品1
 48
0.01
100
AcDbLine
 10
9512.471378982493
 20
6824.804055844438
 30
0.0
 11
9512.471378982493
 21
6823.80405584444
 31
0.0
  0
LINE
  5
19ACB
330
747D
100
AcDbEntity
  8
部品1
 48
0.01
100
AcDbLine
 10
9512.471378982493
 20
6824.804055844438
 30
0.0
 11
9512.471378982493
 21
6823.80405584444
 31
0.0
  0
ARC
  5
19ACC
330
747D
100
AcDbEntity
  8
部品1
 48
0.01
100
AcDbCircle
 10
9511.971378982492
 20
6823.80405584444
 30
0.0
 40
0.5
100
AcDbArc
 50
270.0
 51
0.0
  0
LINE
  5
19ACD
330
747D
100
AcDbEntity
  8
細線
100
AcDbLine
 10
9652.47147739582
 20
6824.805178029507
 30
0.0
 11
9654.803015686589
 21
6829.805178029492
 31
0.0
  0
LINE
  5
19ACE
330
747D
100
AcDbEntity
  8
細線
100
AcDbLine
 10
9722.471485581237
 20
6824.805160475797
 30
0.0
 11
9720.139939105049
 21
6829.805178029474
 31
0.0
  0
LINE
  5
19ACF
330
747D
100
AcDbEntity
  8
細線
100
AcDbLine
 10
9720.139939105049
 20
6829.805178029474
 30
0.0
 11
9654.803015686574
 21
6829.805178029464
 31
0.0
  0
LINE
  5
19AD0
330
747D
100
AcDbEntity
  8
細線
100
AcDbLine
 10
9860.139939105049
 20
6829.805178029474
 30
0.0
 11
9794.803015686575
 21
6829.805178029467
 31
0.0
  0
LINE
  5
19AD1
330
747D
100
AcDbEntity
  8
細線
100
AcDbLine
 10
9862.471485581238
 20
6824.805160475797
 30
0.0
 11
9860.139939105049
 21
6829.805178029474
 31
0.0
  0
LINE
  5
19AD2
330
747D
100
AcDbEntity
  8
細線
100
AcDbLine
 10
9792.471477395821
 20
6824.805178029511
 30
0.0
 11
9794.803015686589
 21
6829.805178029497
 31
0.0
  0
LINE
  5
19AD3
330
747D
100
AcDbEntity
  8
細線
100
AcDbLine
 10
10099.13994729046
 20
6863.805006348767
 30
0.0
 11
10033.80302387199
 21
6863.805006348755
 31
0.0
  0
LINE
  5
19AD4
330
747D
100
AcDbEntity
  8
細線
100
AcDbLine
 10
10101.47149376665
 20
6858.804988795089
 30
0.0
 11
10099.13994729046
 21
6863.805006348767
 31
0.0
  0
LINE
  5
19AD5
330
747D
100
AcDbEntity
  8
細線
100
AcDbLine
 10
10031.47148558124
 20
6858.805006348799
 30
0.0
 11
10033.803023872
 21
6863.805006348785
 31
0.0
  0
LINE
  5
19AD6
330
747D
100
AcDbEntity
  8
細線
100
AcDbLine
 10
10171.47145026234
 20
6858.804998161429
 30
0.0
 11
10173.80298855311
 21
6863.804998161414
 31
0.0
  0
LINE
  5
19AD7
330
747D
100
AcDbEntity
  8
細線
100
AcDbLine
 10
10241.47145844776
 20
6858.804980607719
 30
0.0
 11
10239.13991197157
 21
6863.8049981614
 31
0.0
  0
LINE
  5
19AD8
330
747D
100
AcDbEntity
  8
細線
100
AcDbLine
 10
10239.13991197157
 20
6863.8049981614
 30
0.0
 11
10173.8029885531
 21
6863.804998161386
 31
0.0
  0
LINE
  5
19AD9
330
747D
100
AcDbEntity
  8
細線
100
AcDbLine
 10
10379.1399485215
 20
6863.804977857658
 30
0.0
 11
10313.80302510303
 21
6863.804977857644
 31
0.0
  0
LINE
  5
19ADA
330
747D
100
AcDbEntity
  8
細線
100
AcDbLine
 10
10381.4714949977
 20
6858.804960303977
 30
0.0
 11
10379.1399485215
 21
6863.804977857658
 31
0.0
  0
LINE
  5
19ADB
330
747D
100
AcDbEntity
  8
細線
100
AcDbLine
 10
10311.47148558124
 20
6858.804975217712
 30
0.0
 11
10313.80302510305
 21
6863.804977857673
 31
0.0
  0
LINE
  5
19ADC
330
747D
100
AcDbEntity
  8
細線
 48
50.0
100
AcDbLine
 10
10254.33370750579
 20
6858.804998161429
 30
0.0
 11
10260.08922508845
 21
6877.075849451923
 31
0.0
  0
LINE
  5
19ADD
330
747D
100
AcDbEntity
  8
細線
 48
50.0
100
AcDbLine
 10
10260.08922508845
 20
6877.075849451923
 30
0.0
 11
10271.01767356888
 21
6877.075849451923
 31
0.0
  0
ARC
  5
19ADE
330
747D
100
AcDbEntity
  8
細線
 48
50.0
100
AcDbCircle
 10
10271.01767356888
 20
6876.075849451924
 30
0.0
 40
1.0
100
AcDbArc
 50
24.62431835213048
 51
90.0
  0
ARC
  5
19ADF
330
747D
100
AcDbEntity
  8
細線
 48
50.0
100
AcDbCircle
 10
10281.92638568352
 20
6876.075849451924
 30
0.0
 40
1.0
100
AcDbArc
 50
90.0
 51
155.3756816478695
  0
ARC
  5
19AE0
330
747D
100
AcDbEntity
  8
細線
 48
50.0
100
AcDbCircle
 10
10276.4720296262
 20
6878.575849451923
 30
0.0
 40
5.0
100
AcDbArc
 50
204.6243183521304
 51
335.3756816478695
  0
LINE
  5
19AE1
330
747D
100
AcDbEntity
  8
細線
 48
50.0
100
AcDbLine
 10
10281.92638568352
 20
6877.075849451923
 30
0.0
 11
10292.85483416395
 21
6877.075849451923
 31
0.0
  0
LINE
  5
19AE2
330
747D
100
AcDbEntity
  8
細線
 48
50.0
100
AcDbLine
 10
10292.85483416395
 20
6877.075849451923
 30
0.0
 11
10298.61035174662
 21
6858.804998161438
 31
0.0
  0
LINE
  5
19AE3
330
747D
100
AcDbEntity
  8
細線
100
AcDbLine
 10
10617.13994852151
 20
6897.804988938789
 30
0.0
 11
10551.80302510303
 21
6897.804988938775
 31
0.0
  0
LINE
  5
19AE4
330
747D
100
AcDbEntity
  8
細線
100
AcDbLine
 10
10619.47149499769
 20
6892.80497138511
 30
0.0
 11
10617.1399485215
 21
6897.804988938789
 31
0.0
  0
LINE
  5
19AE5
330
747D
100
AcDbEntity
  8
細線
100
AcDbLine
 10
10549.47148558124
 20
6892.804986298843
 30
0.0
 11
10551.80302510305
 21
6897.804988938805
 31
0.0
  0
LINE
  5
19AE6
330
747D
100
AcDbEntity
  8
細線
100
AcDbLine
 10
10689.47147616478
 20
6892.805001212576
 30
0.0
 11
10691.80301568659
 21
6897.805003852538
 31
0.0
  0
LINE
  5
19AE7
330
747D
100
AcDbEntity
  8
細線
100
AcDbLine
 10
10759.47148558123
 20
6892.804986298843
 30
0.0
 11
10757.13993910505
 21
6897.805003852524
 31
0.0
  0
LINE
  5
19AE8
330
747D
100
AcDbEntity
  8
細線
100
AcDbLine
 10
10757.13993910505
 20
6897.805003852524
 30
0.0
 11
10691.80301568657
 21
6897.80500385251
 31
0.0
  0
LINE
  5
19AE9
330
747D
100
AcDbEntity
  8
細線
100
AcDbLine
 10
10897.13993910505
 20
6897.805003852524
 30
0.0
 11
10831.80301568657
 21
6897.80500385251
 31
0.0
  0
LINE
  5
19AEA
330
747D
100
AcDbEntity
  8
細線
100
AcDbLine
 10
10899.47148558124
 20
6892.804986298843
 30
0.0
 11
10897.13993910505
 21
6897.805003852524
 31
0.0
  0
LINE
  5
19AEB
330
747D
100
AcDbEntity
  8
細線
100
AcDbLine
 10
10829.47147616478
 20
6892.805001212576
 30
0.0
 11
10831.80301568659
 21
6897.805003852538
 31
0.0
  0
LINE
  5
19AEC
330
747D
100
AcDbEntity
  8
細線
 48
50.0
100
AcDbLine
 10
9939.971485581242
 20
6869.001240689747
 30
0.0
 11
9351.471485581239
 21
6869.001240689742
 31
0.0
  0
LINE
  5
19AED
330
747D
100
AcDbEntity
  8
細線
 48
50.0
100
AcDbLine
 10
9980.971485581241
 20
6839.596332693493
 30
0.0
 11
11007.47148558123
 21
6839.596332693492
 31
0.0
  0
LINE
  5
19AEE
330
747D
100
AcDbEntity
  8
細線
 48
50.0
100
AcDbLine
 10
10472.97149073215
 20
6873.305101247568
 30
0.0
 11
11007.47148558124
 21
6873.305101247568
 31
0.0
  0
LINE
  5
19AEF
330
747D
100
AcDbEntity
  8
寸法
 48
50.0
100
AcDbLine
 10
9923.972304559637
 20
6708.063694353042
 30
0.0
 11
10143.12424473536
 21
6708.063694353042
 31
0.0
  0
LINE
  5
19AF0
330
747D
100
AcDbEntity
  8
寸法
 48
50.0
100
AcDbLine
 10
10143.12424473536
 20
6708.063694353042
 30
0.0
 11
10053.84002613994
 21
6731.987328622529
 31
0.0
  0
LINE
  5
19AF1
330
747D
100
AcDbEntity
  8
寸法
 48
50.0
100
AcDbLine
 10
10053.84002613994
 20
6731.987328622529
 30
0.0
 11
10053.84002613994
 21
6678.323694040739
 31
0.0
  0
LINE
  5
19AF2
330
747D
100
AcDbEntity
  8
寸法
 48
50.0
100
AcDbLine
 10
9723.268483952979
 20
6674.841737867706
 30
0.0
 11
9774.674491863084
 21
6674.841737867706
 31
0.0
  0
LINE
  5
19AF3
330
747D
100
AcDbEntity
  8
寸法
 48
50.0
100
AcDbLine
 10
9774.674491863084
 20
6674.841737867706
 30
0.0
 11
9774.674491863084
 21
6706.151896519871
 31
0.0
  0
LINE
  5
19AF4
330
747D
100
AcDbEntity
  8
寸法
 48
50.0
100
AcDbLine
 10
9774.674491863084
 20
6706.151896519871
 30
0.0
 11
9804.435823854507
 21
6706.151896519871
 31
0.0
  0
LINE
  5
19AF5
330
747D
100
AcDbEntity
  8
寸法
 48
50.0
100
AcDbLine
 10
9804.435823854507
 20
6706.151896519871
 30
0.0
 11
9748.971487908031
 21
6743.731347448482
 31
0.0
  0
LINE
  5
19AF6
330
747D
100
AcDbEntity
  8
寸法
 48
50.0
100
AcDbLine
 10
9693.507151961556
 20
6706.151896519871
 30
0.0
 11
9748.971487908031
 21
6743.731347448482
 31
0.0
  0
LINE
  5
19AF7
330
747D
100
AcDbEntity
  8
寸法
 48
50.0
100
AcDbLine
 10
9723.268483952979
 20
6706.151896519871
 30
0.0
 11
9693.507151961556
 21
6706.151896519871
 31
0.0
  0
LINE
  5
19AF8
330
747D
100
AcDbEntity
  8
寸法
 48
50.0
100
AcDbLine
 10
9723.268483952979
 20
6674.841737867706
 30
0.0
 11
9723.268483952979
 21
6706.151896519871
 31
0.0
  0
LINE
  5
19AF9
330
747D
100
AcDbEntity
  8
寸法
 48
50.0
100
AcDbLine
 10
9774.674491863084
 20
6674.841737867706
 30
0.0
 11
9723.268483952979
 21
6674.841737867706
 31
0.0
  0
DIMENSION
  5
19D06
330
747D
100
AcDbEntity
  8
寸法
100
AcDbDimension
  2
*D30
 10
11074.47148558125
 20
5704.977195553968
 30
0.0
 11
10167.61823591262
 21
5704.977195553968
 31
0.0
 70
   160
 71
     5
 42
1789.999999999982
  3
INABA_S40G
100
AcDbAlignedDimension
 13
9284.471485581267
 23
6896.804986298872
 33
0.0
 14
11074.47148558125
 24
6896.804986299001
 34
0.0
100
AcDbRotatedDimension
1001
ACAD
1000
DSTYLE
1002
{
1002
}
  0
TEXT
  5
19D07
330
747D
100
AcDbEntity
  8
部品1
100
AcDbText
 10
9887.655762296084
 20
5232.835322693082
 30
0.0
 40
135.0
  1
平面図
  7
STYLE2
100
AcDbText
  0
LINE
  5
19D08
330
747D
100
AcDbEntity
  8
部品1
100
AcDbLine
 10
9797.736152467047
 20
5425.728851911606
 30
0.0
 11
9797.736152467047
 21
5185.836530366073
 31
0.0
  0
LINE
  5
19D09
330
747D
100
AcDbEntity
  8
部品1
100
AcDbLine
 10
9797.736152467047
 20
5185.836530366073
 30
0.0
 11
10561.20681869548
 21
5185.836530366073
 31
0.0
  0
LINE
  5
19D0A
330
747D
100
AcDbEntity
  8
部品1
100
AcDbLine
 10
10561.20681869548
 20
5185.836530366073
 30
0.0
 11
10561.20681869548
 21
5425.728851911606
 31
0.0
  0
LINE
  5
19D0B
330
747D
100
AcDbEntity
  8
部品1
100
AcDbLine
 10
10561.20681869548
 20
5425.728851911606
 30
0.0
 11
9797.736152467047
 21
5425.728851911606
 31
0.0
  0
DIMENSION
  5
19D0C
330
747D
100
AcDbEntity
  8
寸法
100
AcDbDimension
  2
*D31
 10
8989.86023995455
 20
6821.804986298872
 30
0.0
 11
8989.86023995455
 21
6681.319704924634
 31
0.0
 70
   160
 71
     5
 42
75.0
  3
INABA_S40
100
AcDbAlignedDimension
 13
9284.471485581267
 23
6896.804986298872
 33
0.0
 14
9312.471485581246
 24
6821.804986298872
 34
0.0
 50
90.0
100
AcDbRotatedDimension
1001
ACAD
1000
DSTYLE
1002
{
1070
    41
1040
0.5
1070
    44
1040
1.0
1070
   147
1040
0.8
1070
   271
1070
     2
1070
   272
1070
     2
1070
   289
1070
     3
1070
   340
1005
F706
1070
   343
1005
18C0E
1070
   344
1005
18C0E
1002
}
  0
DIMENSION
  5
19D0D
330
747D
100
AcDbEntity
  8
寸法
 48
50.0
100
AcDbDimension
  2
*D32
 10
11046.47148558124
 20
5944.734716448095
 30
0.0
 11
10170.05322953306
 21
5944.734716448095
 31
0.0
 70
   160
 71
     5
 42
1734.0
  3
INABA_S40G
100
AcDbAlignedDimension
 13
9312.471485581239
 23
6819.804986298876
 33
0.0
 14
11046.47148558124
 24
6819.804986298875
 34
0.0
100
AcDbRotatedDimension
1001
ACAD
1000
DSTYLE
1002
{
1070
   341
1005
0
1002
}
  0
LWPOLYLINE
  5
1A014
330
747D
100
AcDbEntity
  8
部品1
 48
50.0
100
AcDbPolyline
 90
        4
 70
     1
 43
0.0
 10
9411.521485581248
 20
2689.719710985795
 10
9414.421485581248
 20
2689.719710985795
 10
9414.421485581248
 20
2699.219710985794
 10
9411.521485581248
 20
2699.219710985794
  0
CIRCLE
  5
1A015
330
747D
100
AcDbEntity
  8
部品1
 48
50.0
100
AcDbCircle
 10
9412.97148558125
 20
2694.469710985794
 30
0.0
 40
9.0
  0
ARC
  5
1A016
330
747D
100
AcDbEntity
  8
細線
 48
50.0
100
AcDbCircle
 10
9412.97148558125
 20
2694.469710985794
 30
0.0
 40
4.0
100
AcDbArc
 50
111.2538091853132
 51
248.7461908146868
  0
ARC
  5
1A017
330
747D
100
AcDbEntity
  8
細線
 48
50.0
100
AcDbCircle
 10
9412.97148558125
 20
2694.469710985794
 30
0.0
 40
17.5
100
AcDbArc
 50
306.4837370612677
 51
233.5162629387323
  0
LINE
  5
1A018
330
747D
100
AcDbEntity
  8
細線
 48
50.0
100
AcDbLine
 10
9422.971485581246
 20
2670.610750404911
 30
0.0
 11
9422.971485581248
 21
2679.595236205153
 31
0.0
  0
LINE
  5
1A019
330
747D
100
AcDbEntity
  8
細線
 48
50.0
100
AcDbLine
 10
9402.971485581248
 20
2670.610750404913
 30
0.0
 11
9402.971485581248
 21
2679.59523620515
 31
0.0
  0
ARC
  5
1A01A
330
747D
100
AcDbEntity
  8
細線
 48
50.0
100
AcDbCircle
 10
9412.97148558125
 20
2694.469710985794
 30
0.0
 40
26.5
100
AcDbArc
 50
249.3326835063939
 51
290.6673164933835
  0
ARC
  5
1A01B
330
747D
100
AcDbEntity
  8
細線
 48
50.0
100
AcDbCircle
 10
9421.971485581241
 20
2670.610750404911
 30
0.0
 40
1.0
100
AcDbArc
 50
290.6673164936062
 51
359.9999999998958
  0
ARC
  5
1A01C
330
747D
100
AcDbEntity
  8
細線
 48
50.0
100
AcDbCircle
 10
9403.97148558125
 20
2670.610750404913
 30
0.0
 40
1.0
100
AcDbArc
 50
180.0
 51
249.3326835066164
  0
ARC
  5
1A01D
330
747D
100
AcDbEntity
  8
細線
 48
50.0
100
AcDbCircle
 10
9401.971485581249
 20
2679.59523620515
 30
0.0
 40
1.0
100
AcDbArc
 50
0.0
 51
53.51626293873231
  0
ARC
  5
1A01E
330
747D
100
AcDbEntity
  8
細線
 48
50.0
100
AcDbCircle
 10
9423.971485581253
 20
2679.595236205153
 30
0.0
 40
1.0
100
AcDbArc
 50
126.4837370615127
 51
180.0
  0
ARC
  5
1A01F
330
747D
100
AcDbEntity
  8
細線
 48
50.0
100
AcDbCircle
 10
9412.97148558125
 20
2694.469710985794
 30
0.0
 40
21.5
100
AcDbArc
 50
255.8014401250294
 51
284.1985598749706
  0
ARC
  5
1A020
330
747D
100
AcDbEntity
  8
細線
 48
50.0
100
AcDbCircle
 10
9412.97148558125
 20
2694.469710985794
 30
0.0
 40
16.5
100
AcDbArc
 50
251.9694646069326
 51
288.0305353930674
  0
LINE
  5
1A021
330
747D
100
AcDbEntity
  8
細線
 48
50.0
100
AcDbLine
 10
9418.471485581248
 20
2673.917338859988
 30
0.0
 11
9418.471485581248
 21
2678.494730547325
 31
0.0
  0
LINE
  5
1A022
330
747D
100
AcDbEntity
  8
細線
 48
50.0
100
AcDbLine
 10
9407.471485581249
 20
2673.917338859988
 30
0.0
 11
9407.471485581249
 21
2678.494730547323
 31
0.0
  0
ARC
  5
1A023
330
747D
100
AcDbEntity
  8
細線
 48
50.0
100
AcDbCircle
 10
9407.771485581251
 20
2678.494730547323
 30
0.0
 40
0.3
100
AcDbArc
 50
71.96946460693259
 51
180.0
  0
ARC
  5
1A024
330
747D
100
AcDbEntity
  8
細線
 48
50.0
100
AcDbCircle
 10
9418.17148558125
 20
2678.494730547325
 30
0.0
 40
0.3
100
AcDbArc
 50
0.0
 51
108.0305353930674
  0
ARC
  5
1A025
330
747D
100
AcDbEntity
  8
細線
 48
50.0
100
AcDbCircle
 10
9418.171485581245
 20
2673.917338859988
 30
0.0
 40
0.3
100
AcDbArc
 50
284.1985598747622
 51
0.0000000001042204
  0
ARC
  5
1A026
330
747D
100
AcDbEntity
  8
細線
 48
50.0
100
AcDbCircle
 10
9407.771485581251
 20
2673.917338859988
 30
0.0
 40
0.3
100
AcDbArc
 50
180.0
 51
255.8014401248081
  0
CIRCLE
  5
1A027
330
747D
100
AcDbEntity
  8
細線
 48
50.0
100
AcDbCircle
 10
9412.97148558125
 20
2694.469710985794
 30
0.0
 40
12.0
  0
ARC
  5
1A028
330
747D
100
AcDbEntity
  8
部品1
 48
50.0
100
AcDbCircle
 10
9412.97148558125
 20
2744.469710985795
 30
0.0
 40
8.5
100
AcDbArc
 50
114.315739171091
 51
245.684260828909
  0
CIRCLE
  5
1A029
330
747D
100
AcDbEntity
  8
細線
 48
50.0
100
AcDbCircle
 10
9412.97148558125
 20
2744.469710985795
 30
0.0
 40
4.5
  0
LWPOLYLINE
  5
1A02A
330
747D
100
AcDbEntity
  8
部品1
 48
50.0
100
AcDbPolyline
 90
        2
 70
     0
 43
0.0
 10
9409.471485581249
 20
2763.144560382777
 10
9409.471485581249
 20
2752.21567767821
  0
CIRCLE
  5
1A02B
330
747D
100
AcDbEntity
  8
部品1
 48
50.0
100
AcDbCircle
 10
9412.97148558125
 20
2744.469710985795
 30
0.0
 40
19.0
  0
LWPOLYLINE
  5
1A02C
330
747D
100
AcDbEntity
  8
部品1
 48
50.0
100
AcDbPolyline
 90
        2
 70
     0
 43
0.0
 10
9409.471485581249
 20
2736.723744293379
 10
9409.471485581249
 20
2725.794861588812
  0
LWPOLYLINE
  5
1A02D
330
747D
100
AcDbEntity
  8
部品1
 48
50.0
100
AcDbPolyline
 90
        2
 70
     0
 43
0.0
 10
9416.471485581249
 20
2752.21567767821
 10
9416.471485581249
 20
2763.144560382777
  0
ARC
  5
1A02E
330
747D
100
AcDbEntity
  8
部品1
 48
50.0
100
AcDbCircle
 10
9412.97148558125
 20
2744.469710985795
 30
0.0
 40
8.5
100
AcDbArc
 50
294.315739171091
 51
65.68426082890896
  0
LWPOLYLINE
  5
1A02F
330
747D
100
AcDbEntity
  8
部品1
 48
50.0
100
AcDbPolyline
 90
        2
 70
     0
 43
0.0
 10
9416.471485581249
 20
2725.794861588812
 10
9416.471485581249
 20
2736.723744293379
  0
ARC
  5
1A030
330
747D
100
AcDbEntity
  8
細線
 48
50.0
100
AcDbCircle
 10
9412.97148558125
 20
2744.469710985795
 30
0.0
 40
16.5
100
AcDbArc
 50
332.0012352654438
 51
27.99876473455621
  0
ARC
  5
1A031
330
747D
100
AcDbEntity
  8
細線
 48
50.0
100
AcDbCircle
 10
9412.97148558125
 20
2744.469710985795
 30
0.0
 40
14.0
100
AcDbArc
 50
326.4074436112986
 51
33.59255638870134
  0
LINE
  5
1A032
330
747D
100
AcDbEntity
  8
細線
 48
50.0
100
AcDbLine
 10
9398.402683296918
 20
2752.21567767821
 30
0.0
 11
9401.30958179156
 21
2752.21567767821
 31
0.0
  0
LINE
  5
1A033
330
747D
100
AcDbEntity
  8
細線
 48
50.0
100
AcDbLine
 10
9398.402683296918
 20
2736.723744293379
 30
0.0
 11
9401.30958179156
 21
2736.723744293379
 31
0.0
  0
LINE
  5
1A034
330
747D
100
AcDbEntity
  8
細線
 48
50.0
100
AcDbLine
 10
9424.633389370937
 20
2752.21567767821
 30
0.0
 11
9427.540287865584
 21
2752.21567767821
 31
0.0
  0
LINE
  5
1A035
330
747D
100
AcDbEntity
  8
細線
 48
50.0
100
AcDbLine
 10
9424.633389370937
 20
2736.723744293379
 30
0.0
 11
9427.540287865584
 21
2736.723744293379
 31
0.0
  0
ARC
  5
1A036
330
747D
100
AcDbEntity
  8
細線
 48
50.0
100
AcDbCircle
 10
9412.97148558125
 20
2744.469710985795
 30
0.0
 40
14.0
100
AcDbArc
 50
146.4074436112986
 51
213.5925563887013
  0
ARC
  5
1A037
330
747D
100
AcDbEntity
  8
細線
 48
50.0
100
AcDbCircle
 10
9412.97148558125
 20
2744.469710985795
 30
0.0
 40
16.5
100
AcDbArc
 50
152.0012352654438
 51
207.9987647345562
  0
ARC
  5
1A038
330
747D
100
AcDbEntity
  8
部品1
 48
50.0
100
AcDbCircle
 10
9386.47148558125
 20
2769.969710985794
 30
0.0
 40
5.0
100
AcDbArc
 50
90.0
 51
180.0
  0
ARC
  5
1A039
330
747D
100
AcDbEntity
  8
部品1
 48
50.0
100
AcDbCircle
 10
9386.47148558125
 20
2658.969710985795
 30
0.0
 40
5.0
100
AcDbArc
 50
180.0
 51
270.0
  0
ARC
  5
1A03A
330
747D
100
AcDbEntity
  8
部品1
 48
50.0
100
AcDbCircle
 10
9439.471485581249
 20
2658.969710985795
 30
0.0
 40
5.0
100
AcDbArc
 50
270.0
 51
0.0
  0
ARC
  5
1A03B
330
747D
100
AcDbEntity
  8
部品1
 48
50.0
100
AcDbCircle
 10
9439.471485581249
 20
2769.969710985794
 30
0.0
 40
5.0
100
AcDbArc
 50
0.0
 51
90.0
  0
LINE
  5
1A03D
330
747D
100
AcDbEntity
  8
部品1
 48
50.0
100
AcDbLine
 10
9381.471485581249
 20
2658.969710985795
 30
0.0
 11
9381.471485581249
 21
2769.969710985794
 31
0.0
  0
LINE
  5
1A03E
330
747D
100
AcDbEntity
  8
部品1
 48
50.0
100
AcDbLine
 10
9439.471485581249
 20
2653.969710985795
 30
0.0
 11
9386.47148558125
 21
2653.969710985795
 31
0.0
  0
LINE
  5
1A03F
330
747D
100
AcDbEntity
  8
部品1
 48
50.0
100
AcDbLine
 10
9444.471485581249
 20
2769.969710985794
 30
0.0
 11
9444.471485581249
 21
2658.969710985795
 31
0.0
  0
ENDSEC
  0
SECTION
  2
OBJECTS
  0
DICTIONARY
  5
7471
330
0
100
AcDbDictionary
281
     1
  3
ACAD_COLOR
350
18C03
  3
ACAD_GROUP
350
7472
  3
ACAD_LAYOUT
350
18C04
  3
ACAD_MATERIAL
350
18C02
  3
ACAD_MLINESTYLE
350
7473
  3
ACAD_PLOTSETTINGS
350
18C05
  3
ACAD_PLOTSTYLENAME
350
18C00
  3
ACDBHEADERROUNDTRIPXREC
350
1A04E
  3
AcDbVariableDictionary
350
1A04A
  3
CONTENTDICTIONARY
350
E71C
  3
DRAWINGVARIABLESDICT
350
F3B9
  0
DICTIONARY
  5
18D90
330
7467
100
AcDbDictionary
280
     1
281
     1
  3
ACAD_LAYERSTATES
360
18D91
  0
DICTIONARY
  5
18C03
102
{ACAD_REACTORS
330
7471
102
}
330
7471
100
AcDbDictionary
281
     1
  0
DICTIONARY
  5
7472
102
{ACAD_REACTORS
330
7471
102
}
330
7471
100
AcDbDictionary
281
     1
  0
DICTIONARY
  5
18C04
102
{ACAD_REACTORS
330
7471
102
}
330
7471
100
AcDbDictionary
281
     1
  3
Model
350
18C06
  3
レイアウト1
350
18C07
  0
DICTIONARY
  5
18C02
102
{ACAD_REACTORS
330
7471
102
}
330
7471
100
AcDbDictionary
281
     1
  0
DICTIONARY
  5
7473
102
{ACAD_REACTORS
330
7471
102
}
330
7471
100
AcDbDictionary
281
     1
  3
STANDARD
350
7480
  0
DICTIONARY
  5
18C05
102
{ACAD_REACTORS
330
7471
102
}
330
7471
100
AcDbDictionary
281
     1
  0
ACDBDICTIONARYWDFLT
  5
18C00
102
{ACAD_REACTORS
330
7471
102
}
330
7471
100
AcDbDictionary
281
     1
  3
Normal
350
18C01
100
AcDbDictionaryWithDefault
340
18C01
  0
DICTIONARY
  5
1A04E
102
{ACAD_REACTORS
330
7471
102
}
330
7471
100
AcDbDictionary
281
     1
  3
COLORDICT
350
1A050
  3
MATERIALDICT
350
1A04F
  0
DICTIONARY
  5
1A04A
102
{ACAD_REACTORS
330
7471
102
}
330
7471
100
AcDbDictionary
281
     1
  3
DIMASSOC
350
1A04B
  3
PROJECTNAME
350
1A04C
  0
DICTIONARY
  5
E71C
102
{ACAD_REACTORS
330
7471
102
}
330
7471
100
AcDbDictionary
281
     1
  0
DICTIONARY
  5
F3B9
102
{ACAD_REACTORS
330
7471
102
}
330
7471
100
AcDbDictionary
281
     1
1001
DRAWINGVARIABLESXDATA
1000
POLARMODE
1000
1
  0
DICTIONARY
  5
18D91
102
{ACAD_REACTORS
330
18D90
102
}
330
18D90
100
AcDbDictionary
281
     1
  0
LAYOUT
  5
18C06
102
{ACAD_XDICTIONARY
360
1A051
102
}
102
{ACAD_REACTORS
330
18C04
102
}
330
18C04
100
AcDbPlotSettings
  1

  2
Microsoft Office Document Image Writer
  4

  6

 40
0.0
 41
0.0
 42
0.0
 43
0.0
 44
0.0
 45
0.0
 46
0.0
 47
0.0
 48
0.0
 49
0.0
140
0.0
141
0.0
142
1.0
143
1.0
 70
  1712
 72
     0
 73
     0
 74
     0
  7

 75
     0
147
1.0
148
0.0
149
0.0
100
AcDbLayout
  1
Model
 70
     1
 71
     0
 10
0.0
 20
0.0
 11
12.0
 21
9.0
 12
0.0
 22
0.0
 32
0.0
 14
0.0
 24
0.0
 34
0.0
 15
0.0
 25
0.0
 35
0.0
146
0.0
 13
0.0
 23
0.0
 33
0.0
 16
1.0
 26
0.0
 36
0.0
 17
0.0
 27
1.0
 37
0.0
 76
     0
330
747D
  0
LAYOUT
  5
18C07
102
{ACAD_XDICTIONARY
360
1A053
102
}
102
{ACAD_REACTORS
330
18C04
102
}
330
18C04
100
AcDbPlotSettings
  1

  2
Microsoft Office Document Image Writer
  4

  6

 40
0.0
 41
0.0
 42
0.0
 43
0.0
 44
0.0
 45
0.0
 46
0.0
 47
0.0
 48
0.0
 49
0.0
140
0.0
141
0.0
142
1.0
143
1.0
 70
   688
 72
     0
 73
     0
 74
     5
  7

 75
    16
147
1.0
148
0.0
149
0.0
100
AcDbLayout
  1
レイアウト1
 70
     0
 71
     1
 10
0.0
 20
0.0
 11
420.0
 21
297.0
 12
0.0
 22
0.0
 32
0.0
 14
1.000000000000000E+20
 24
1.000000000000000E+20
 34
1.000000000000000E+20
 15
-1.000000000000000E+20
 25
-1.000000000000000E+20
 35
-1.000000000000000E+20
146
0.0
 13
0.0
 23
0.0
 33
0.0
 16
1.0
 26
0.0
 36
0.0
 17
0.0
 27
1.0
 37
0.0
 76
     0
330
747A
  0
MLINESTYLE
  5
7480
102
{ACAD_REACTORS
330
7473
102
}
330
7473
100
AcDbMlineStyle
  2
STANDARD
 70
     0
  3

 62
     0
 51
90.0
 52
90.0
 71
     2
 49
0.5
 62
   256
  6
BYLAYER
 49
-0.5
 62
   256
  6
BYLAYER
  0
ACDBPLACEHOLDER
  5
18C01
102
{ACAD_REACTORS
330
18C00
102
}
330
18C00
  0
XRECORD
  5
1A050
102
{ACAD_REACTORS
330
1A04E
102
}
330
1A04E
100
AcDbXrecord
280
     1
340
18C03
  0
XRECORD
  5
1A04F
102
{ACAD_REACTORS
330
1A04E
102
}
330
1A04E
100
AcDbXrecord
280
     1
340
18C02
  0
DICTIONARYVAR
  5
1A04B
102
{ACAD_REACTORS
330
1A04A
102
}
330
1A04A
100
DictionaryVariables
280
     0
  1
1
  0
DICTIONARYVAR
  5
1A04C
102
{ACAD_REACTORS
330
1A04A
102
}
330
1A04A
100
DictionaryVariables
280
     0
  1

  0
DICTIONARY
  5
1A051
330
18C06
100
AcDbDictionary
280
     1
281
     1
  3
ACAD_XREC_ROUNDTRIP
360
1A052
  0
DICTIONARY
  5
1A053
330
18C07
100
AcDbDictionary
280
     1
281
     1
  3
ACAD_XREC_ROUNDTRIP
360
1A054
  0
XRECORD
  5
1A052
102
{ACAD_REACTORS
330
1A051
102
}
330
1A051
100
AcDbXrecord
280
     1
102
SHADEPLOT
 70
     0
102
SHADEPLOTRESLEVEL
 70
     2
102
SHADEPLOTCUSTOMDPI
 70
   300
  0
XRECORD
  5
1A054
102
{ACAD_REACTORS
330
1A053
102
}
330
1A053
100
AcDbXrecord
280
     1
102
SHADEPLOT
 70
     0
102
SHADEPLOTRESLEVEL
 70
     2
102
SHADEPLOTCUSTOMDPI
 70
   300
  0
ENDSEC
  0
EOF
