  0
SECTION
  2
HEADER
  9
$ACADVER
  1
AC1015
  9
$ACADMAINTVER
 70
    20
  9
$DWGCODEPAGE
  3
ANSI_932
  9
$INSBASE
 10
0.0
 20
0.0
 30
0.0
  9
$EXTMIN
 10
139.9999999999995
 20
-0.0000000000000909
 30
0.0
  9
$EXTMAX
 10
16307.2
 20
11409.6
 30
0.0
  9
$LIMMIN
 10
0.0
 20
0.0
  9
$LIMMAX
 10
16800.0
 20
11880.0
  9
$ORTHOMODE
 70
     0
  9
$REGENMODE
 70
     1
  9
$FILLMODE
 70
     1
  9
$QTEXTMODE
 70
     0
  9
$MIRRTEXT
 70
     1
  9
$LTSCALE
 40
20.0
  9
$ATTMODE
 70
     1
  9
$TEXTSIZE
 40
100.0
  9
$TRACEWID
 40
1.0
  9
$TEXTSTYLE
  7
STYLE2
  9
$CLAYER
  8
部品1
  9
$CELTYPE
  6
BYLAYER
  9
$CECOLOR
 62
   256
  9
$CELTSCALE
 40
50.0
  9
$DISPSILH
 70
     0
  9
$DIMSCALE
 40
40.0
  9
$DIMASZ
 40
2.5
  9
$DIMEXO
 40
0.5
  9
$DIMDLI
 40
7.0
  9
$DIMRND
 40
0.0
  9
$DIMDLE
 40
0.0
  9
$DIMEXE
 40
1.5
  9
$DIMTP
 40
0.0
  9
$DIMTM
 40
0.0
  9
$DIMTXT
 40
3.0
  9
$DIMCEN
 40
0.0
  9
$DIMTSZ
 40
0.0
  9
$DIMTOL
 70
     0
  9
$DIMLIM
 70
     0
  9
$DIMTIH
 70
     0
  9
$DIMTOH
 70
     0
  9
$DIMSE1
 70
     0
  9
$DIMSE2
 70
     0
  9
$DIMTAD
 70
     3
  9
$DIMZIN
 70
     8
  9
$DIMBLK
  1

  9
$DIMASO
 70
     1
  9
$DIMSHO
 70
     1
  9
$DIMPOST
  1

  9
$DIMAPOST
  1

  9
$DIMALT
 70
     0
  9
$DIMALTD
 70
     2
  9
$DIMALTF
 40
0.0394
  9
$DIMLFAC
 40
1.0
  9
$DIMTOFL
 70
     1
  9
$DIMTVP
 40
0.0
  9
$DIMTIX
 70
     0
  9
$DIMSOXD
 70
     0
  9
$DIMSAH
 70
     1
  9
$DIMBLK1
  1
DOTSMALL
  9
$DIMBLK2
  1
DOTSMALL
  9
$DIMSTYLE
  2
INABA_S40G
  9
$DIMCLRD
 70
     0
  9
$DIMCLRE
 70
     0
  9
$DIMCLRT
 70
     7
  9
$DIMTFAC
 40
1.0
  9
$DIMGAP
 40
1.0
  9
$DIMJUST
 70
     0
  9
$DIMSD1
 70
     0
  9
$DIMSD2
 70
     0
  9
$DIMTOLJ
 70
     1
  9
$DIMTZIN
 70
     0
  9
$DIMALTZ
 70
     0
  9
$DIMALTTZ
 70
     0
  9
$DIMUPT
 70
     0
  9
$DIMDEC
 70
     1
  9
$DIMTDEC
 70
     1
  9
$DIMALTU
 70
     2
  9
$DIMALTTD
 70
     2
  9
$DIMTXSTY
  7
STYLE1
  9
$DIMAUNIT
 70
     0
  9
$DIMADEC
 70
     0
  9
$DIMALTRND
 40
0.0
  9
$DIMAZIN
 70
     0
  9
$DIMDSEP
 70
    46
  9
$DIMATFIT
 70
     3
  9
$DIMFRAC
 70
     0
  9
$DIMLDRBLK
  1

  9
$DIMLUNIT
 70
     2
  9
$DIMLWD
 70
    -2
  9
$DIMLWE
 70
    -2
  9
$DIMTMOVE
 70
     0
  9
$LUNITS
 70
     2
  9
$LUPREC
 70
     1
  9
$SKETCHINC
 40
1.0
  9
$FILLETRAD
 40
7.0
  9
$AUNITS
 70
     0
  9
$AUPREC
 70
     0
  9
$MENU
  1
acad
  9
$ELEVATION
 40
0.0
  9
$PELEVATION
 40
0.0
  9
$THICKNESS
 40
0.0
  9
$LIMCHECK
 70
     0
  9
$CHAMFERA
 40
3.0
  9
$CHAMFERB
 40
3.0
  9
$CHAMFERC
 40
0.0
  9
$CHAMFERD
 40
0.0
  9
$SKPOLY
 70
     0
  9
$TDCREATE
 40
2451368.612993866
  9
$TDUCREATE
 40
2451368.237993866
  9
$TDUPDATE
 40
2455575.698066401
  9
$TDUUPDATE
 40
2455575.323066400
  9
$TDINDWG
 40
1.3413578472
  9
$TDUSRTIMER
 40
1.3413578472
  9
$USRTIMER
 70
     1
  9
$ANGBASE
 50
0.0
  9
$ANGDIR
 70
     0
  9
$PDMODE
 70
     3
  9
$PDSIZE
 40
2.0
  9
$PLINEWID
 40
0.0
  9
$SPLFRAME
 70
     0
  9
$SPLINETYPE
 70
     6
  9
$SPLINESEGS
 70
     8
  9
$HANDSEED
  5
24495
  9
$SURFTAB1
 70
     6
  9
$SURFTAB2
 70
     6
  9
$SURFTYPE
 70
     6
  9
$SURFU
 70
     6
  9
$SURFV
 70
     6
  9
$UCSBASE
  2

  9
$UCSNAME
  2

  9
$UCSORG
 10
0.0
 20
0.0
 30
0.0
  9
$UCSXDIR
 10
1.0
 20
0.0
 30
0.0
  9
$UCSYDIR
 10
0.0
 20
1.0
 30
0.0
  9
$UCSORTHOREF
  2

  9
$UCSORTHOVIEW
 70
     0
  9
$UCSORGTOP
 10
0.0
 20
0.0
 30
0.0
  9
$UCSORGBOTTOM
 10
0.0
 20
0.0
 30
0.0
  9
$UCSORGLEFT
 10
0.0
 20
0.0
 30
0.0
  9
$UCSORGRIGHT
 10
0.0
 20
0.0
 30
0.0
  9
$UCSORGFRONT
 10
0.0
 20
0.0
 30
0.0
  9
$UCSORGBACK
 10
0.0
 20
0.0
 30
0.0
  9
$PUCSBASE
  2

  9
$PUCSNAME
  2

  9
$PUCSORG
 10
0.0
 20
0.0
 30
0.0
  9
$PUCSXDIR
 10
1.0
 20
0.0
 30
0.0
  9
$PUCSYDIR
 10
0.0
 20
1.0
 30
0.0
  9
$PUCSORTHOREF
  2

  9
$PUCSORTHOVIEW
 70
     0
  9
$PUCSORGTOP
 10
0.0
 20
0.0
 30
0.0
  9
$PUCSORGBOTTOM
 10
0.0
 20
0.0
 30
0.0
  9
$PUCSORGLEFT
 10
0.0
 20
0.0
 30
0.0
  9
$PUCSORGRIGHT
 10
0.0
 20
0.0
 30
0.0
  9
$PUCSORGFRONT
 10
0.0
 20
0.0
 30
0.0
  9
$PUCSORGBACK
 10
0.0
 20
0.0
 30
0.0
  9
$USERI1
 70
     0
  9
$USERI2
 70
     0
  9
$USERI3
 70
     0
  9
$USERI4
 70
     0
  9
$USERI5
 70
     0
  9
$USERR1
 40
0.0
  9
$USERR2
 40
0.0
  9
$USERR3
 40
0.0
  9
$USERR4
 40
0.0
  9
$USERR5
 40
0.0
  9
$WORLDVIEW
 70
     1
  9
$SHADEDGE
 70
     3
  9
$SHADEDIF
 70
    70
  9
$TILEMODE
 70
     1
  9
$MAXACTVP
 70
    16
  9
$PINSBASE
 10
0.0
 20
0.0
 30
0.0
  9
$PLIMCHECK
 70
     0
  9
$PEXTMIN
 10
1.000000000000000E+20
 20
1.000000000000000E+20
 30
1.000000000000000E+20
  9
$PEXTMAX
 10
-1.000000000000000E+20
 20
-1.000000000000000E+20
 30
-1.000000000000000E+20
  9
$PLIMMIN
 10
0.0
 20
0.0
  9
$PLIMMAX
 10
420.0
 20
297.0
  9
$UNITMODE
 70
     0
  9
$VISRETAIN
 70
     0
  9
$PLINEGEN
 70
     0
  9
$PSLTSCALE
 70
     0
  9
$TREEDEPTH
 70
  3020
  9
$CMLSTYLE
  2
STANDARD
  9
$CMLJUST
 70
     0
  9
$CMLSCALE
 40
1.0
  9
$PROXYGRAPHICS
 70
     1
  9
$MEASUREMENT
 70
     1
  9
$CELWEIGHT
370
    -1
  9
$ENDCAPS
280
     0
  9
$JOINSTYLE
280
     0
  9
$LWDISPLAY
290
     0
  9
$INSUNITS
 70
     0
  9
$HYPERLINKBASE
  1

  9
$STYLESHEET
  1
inaba.ctb
  9
$XEDIT
290
     1
  9
$CEPSNTYPE
380
     0
  9
$PSTYLEMODE
290
     1
  9
$FINGERPRINTGUID
  2
{3B57B35E-7D77-4BBF-81B7-6C583B9EB24C}
  9
$VERSIONGUID
  2
{859FD01F-5B4E-4A64-8EEB-443BE6F75582}
  9
$EXTNAMES
290
     1
  9
$PSVPSCALE
 40
0.0
  9
$OLESTARTUP
290
     0
  0
ENDSEC
  0
SECTION
  2
CLASSES
  0
CLASS
  1
ACDBDICTIONARYWDFLT
  2
AcDbDictionaryWithDefault
  3
ObjectDBX Classes
 90
        0
280
     0
281
     0
  0
CLASS
  1
DICTIONARYVAR
  2
AcDbDictionaryVar
  3
ObjectDBX Classes
 90
        0
280
     0
281
     0
  0
CLASS
  1
ACDBPLACEHOLDER
  2
AcDbPlaceHolder
  3
ObjectDBX Classes
 90
        0
280
     0
281
     0
  0
CLASS
  1
LAYOUT
  2
AcDbLayout
  3
ObjectDBX Classes
 90
        0
280
     0
281
     0
  0
ENDSEC
  0
SECTION
  2
TABLES
  0
TABLE
  2
VPORT
  5
746D
330
0
100
AcDbSymbolTable
 70
     2
  0
VPORT
  5
2448D
330
746D
100
AcDbSymbolTableRecord
100
AcDbViewportTableRecord
  2
*Active
 70
     0
 10
0.0
 20
0.0
 11
1.0
 21
1.0
 12
8223.761025238502
 22
6348.534373990247
 13
0.0
 23
0.0
 14
10.0
 24
10.0
 15
10.0
 25
10.0
 16
0.0
 26
0.0
 36
1.0
 17
0.0
 27
0.0
 37
0.0
 40
12805.99765711426
 41
1.525925925925925
 42
50.0
 43
0.0
 44
0.0
 50
0.0
 51
0.0
 71
     0
 72
     0
 73
     1
 74
     0
 75
     0
 76
     0
 77
     0
 78
     0
281
     0
 65
     1
110
0.0
120
0.0
130
0.0
111
1.0
121
0.0
131
0.0
112
0.0
122
1.0
132
0.0
 79
     0
146
0.0
  0
ENDTAB
  0
TABLE
  2
LTYPE
  5
746A
330
0
100
AcDbSymbolTable
 70
     3
  0
LTYPE
  5
7477
330
746A
100
AcDbSymbolTableRecord
100
AcDbLinetypeTableRecord
  2
BYBLOCK
 70
     0
  3

 72
    65
 73
     0
 40
0.0
  0
LTYPE
  5
7478
330
746A
100
AcDbSymbolTableRecord
100
AcDbLinetypeTableRecord
  2
BYLAYER
 70
     0
  3

 72
    65
 73
     0
 40
0.0
  0
LTYPE
  5
7479
330
746A
100
AcDbSymbolTableRecord
100
AcDbLinetypeTableRecord
  2
CONTINUOUS
 70
     0
  3
Solid line
 72
    65
 73
     0
 40
0.0
  0
LTYPE
  5
781A
330
746A
100
AcDbSymbolTableRecord
100
AcDbLinetypeTableRecord
  2
HIDDEN
 70
     0
  3
__ __ __ __ __ __ __ __ __ __ __ __ __ __ __ __
 72
    65
 73
     2
 40
0.375
 49
0.25
 74
     0
 49
-0.125
 74
     0
  0
LTYPE
  5
781B
330
746A
100
AcDbSymbolTableRecord
100
AcDbLinetypeTableRecord
  2
PHANTOM
 70
     0
  3
______  __  __  ______  __  __  ______  __  __ 
 72
    65
 73
     6
 40
2.5
 49
1.25
 74
     0
 49
-0.25
 74
     0
 49
0.25
 74
     0
 49
-0.25
 74
     0
 49
0.25
 74
     0
 49
-0.25
 74
     0
  0
ENDTAB
  0
TABLE
  2
LAYER
  5
7467
102
{ACAD_XDICTIONARY
360
21E20
102
}
330
0
100
AcDbSymbolTable
 70
    10
  0
LAYER
  5
7474
330
7467
100
AcDbSymbolTableRecord
100
AcDbLayerTableRecord
  2
0
 70
     0
 62
     7
  6
CONTINUOUS
370
    -3
390
159AE
  0
LAYER
  5
DEB3
330
7467
100
AcDbSymbolTableRecord
100
AcDbLayerTableRecord
  2
寸法
 70
     0
 62
     4
  6
CONTINUOUS
370
    -3
390
159AE
  0
LAYER
  5
DEB4
330
7467
100
AcDbSymbolTableRecord
100
AcDbLayerTableRecord
  2
部品1
 70
     0
 62
     7
  6
CONTINUOUS
370
    -3
390
159AE
  0
LAYER
  5
DEB5
330
7467
100
AcDbSymbolTableRecord
100
AcDbLayerTableRecord
  2
補助
 70
     0
 62
    -1
  6
CONTINUOUS
370
    -3
390
159AE
  0
LAYER
  5
DEB6
330
7467
100
AcDbSymbolTableRecord
100
AcDbLayerTableRecord
  2
文字
 70
     0
 62
     7
  6
CONTINUOUS
370
    -3
390
159AE
  0
LAYER
  5
F255
330
7467
100
AcDbSymbolTableRecord
100
AcDbLayerTableRecord
  2
DEFPOINTS
 70
     0
 62
     7
  6
CONTINUOUS
290
     0
370
    -3
390
159AE
  0
LAYER
  5
10B54
330
7467
100
AcDbSymbolTableRecord
100
AcDbLayerTableRecord
  2
仕様書枠
 70
     0
 62
   230
  6
CONTINUOUS
370
    -3
390
159AE
  0
LAYER
  5
11729
330
7467
100
AcDbSymbolTableRecord
100
AcDbLayerTableRecord
  2
Ｇ．Ｌ
 70
     0
 62
    30
  6
CONTINUOUS
370
    -3
390
159AE
  0
LAYER
  5
1173F
330
7467
100
AcDbSymbolTableRecord
100
AcDbLayerTableRecord
  2
細線
 70
     0
 62
     5
  6
CONTINUOUS
370
    -3
390
159AE
  0
LAYER
  5
142E2
330
7467
100
AcDbSymbolTableRecord
100
AcDbLayerTableRecord
  2
破線
 70
     0
 62
     2
  6
HIDDEN
370
    -3
390
159AE
  0
ENDTAB
  0
TABLE
  2
STYLE
  5
7468
330
0
100
AcDbSymbolTable
 70
     4
  0
STYLE
  5
7475
330
7468
100
AcDbSymbolTableRecord
100
AcDbTextStyleTableRecord
  2
STANDARD
 70
     0
 40
0.0
 41
1.0
 50
0.0
 71
     0
 42
4.0
  3
txt
  4
C:\AutoCAD LT\bigfont.shx
  0
STYLE
  5
F706
330
7468
100
AcDbSymbolTableRecord
100
AcDbTextStyleTableRecord
  2
STYLE1
 70
     0
 40
0.0
 41
1.0
 50
0.0
 71
     0
 42
100.0
  3
isocp.shx
  4
bigfont.shx
  0
STYLE
  5
103BF
330
7468
100
AcDbSymbolTableRecord
100
AcDbTextStyleTableRecord
  2
STYLE2
 70
     0
 40
0.0
 41
1.0
 50
0.0
 71
     0
 42
100.0
  3
MS PGothic.ttf
  4

1001
ACAD
1000
MS PGothic
1071
    32818
  0
STYLE
  5
24424
330
7468
100
AcDbSymbolTableRecord
100
AcDbTextStyleTableRecord
  2
STYLE3
 70
     0
 40
0.0
 41
1.0
 50
0.0
 71
     0
 42
100.0
  3

  4

1001
ACAD
1000
DFPGothic-EB
1071
    32818
  0
ENDTAB
  0
TABLE
  2
VIEW
  5
746B
330
0
100
AcDbSymbolTable
 70
     0
  0
ENDTAB
  0
TABLE
  2
UCS
  5
746C
330
0
100
AcDbSymbolTable
 70
     0
  0
ENDTAB
  0
TABLE
  2
APPID
  5
746E
330
0
100
AcDbSymbolTable
 70
     6
  0
APPID
  5
7476
330
746E
100
AcDbSymbolTableRecord
100
AcDbRegAppTableRecord
  2
ACAD
 70
     0
  0
APPID
  5
DEA9
330
746E
100
AcDbSymbolTableRecord
100
AcDbRegAppTableRecord
  2
CONTENTBLOCKICON
 70
     0
  0
APPID
  5
DEAA
330
746E
100
AcDbSymbolTableRecord
100
AcDbRegAppTableRecord
  2
CONTENTBLOCKDESCRIPTION
 70
     0
  0
APPID
  5
E71D
330
746E
100
AcDbSymbolTableRecord
100
AcDbRegAppTableRecord
  2
CONTENTTABDATA
 70
     0
  0
APPID
  5
E71E
330
746E
100
AcDbSymbolTableRecord
100
AcDbRegAppTableRecord
  2
CONTENTCURRENTTAB
 70
     0
  0
APPID
  5
F3BA
330
746E
100
AcDbSymbolTableRecord
100
AcDbRegAppTableRecord
  2
DRAWINGVARIABLESXDATA
 70
     0
  0
ENDTAB
  0
TABLE
  2
DIMSTYLE
  5
746F
330
0
100
AcDbSymbolTable
 70
     2
100
AcDbDimStyleTable
 71
     1
340
F71F
  0
DIMSTYLE
105
F71F
102
{ACAD_REACTORS
330
14D62
330
14521
330
14526
330
1452E
330
1452F
330
14530
330
14531
330
14532
330
14533
330
1453F
330
14587
330
14589
330
22A0B
330
22A0C
330
22A13
330
22A14
330
22A15
330
22A3E
330
22A4D
330
22A4E
330
22A52
330
23E3A
330
23E41
330
23E42
330
23E4A
330
2425C
330
24274
330
24273
330
24272
330
243EE
102
}
330
746F
100
AcDbSymbolTableRecord
100
AcDbDimStyleTableRecord
  2
INABA_S40G
 70
     0
 40
40.0
 41
2.5
 42
0.5
 43
7.0
 44
1.5
 73
     0
 74
     0
 77
     3
 78
     8
140
3.0
141
0.0
143
0.0394
147
1.0
172
     1
173
     1
174
     1
178
     7
271
     1
288
     1
340
F706
341
F770
343
F770
344
F770
  0
DIMSTYLE
105
24425
330
746F
100
AcDbSymbolTableRecord
100
AcDbDimStyleTableRecord
  2
INABA_S20G
 70
     0
 40
20.0
 41
2.5
 42
0.5
 43
7.0
 44
1.5
 73
     0
 74
     0
 77
     3
 78
     8
140
3.0
141
0.0
143
0.0394
147
1.0
172
     1
173
     1
174
     1
178
     7
271
     1
340
F706
341
F770
343
F770
344
F770
  0
ENDTAB
  0
TABLE
  2
BLOCK_RECORD
  5
7466
330
0
100
AcDbSymbolTable
 70
    31
  0
BLOCK_RECORD
  5
747D
330
7466
100
AcDbSymbolTableRecord
100
AcDbBlockTableRecord
  2
*MODEL_SPACE
340
159B3
  0
BLOCK_RECORD
  5
747A
330
7466
100
AcDbSymbolTableRecord
100
AcDbBlockTableRecord
  2
*PAPER_SPACE
340
159B4
  0
BLOCK_RECORD
  5
F770
330
7466
100
AcDbSymbolTableRecord
100
AcDbBlockTableRecord
  2
_DOTSMALL
340
0
102
{BLKREFS
331
242B8
331
242B9
331
242C1
331
242C2
331
242CC
331
242CD
331
242D5
331
242D6
331
242DE
331
242DF
331
242E7
331
242E8
331
242F0
331
242F1
331
242FB
331
242FC
331
24304
331
24305
331
2430F
331
24310
331
24318
331
24319
331
24323
331
24324
331
2432C
331
2432D
331
24335
331
24336
331
2433E
331
2433F
331
24347
331
24348
331
24359
331
2435A
331
24364
331
24365
331
2436F
331
24370
331
24378
331
24379
331
24381
331
24382
331
2438A
331
2438B
331
24394
331
24395
331
2439E
331
2439F
331
243A7
331
243A8
331
243B2
331
243B3
331
243BB
331
243BC
331
243C6
331
243C7
331
243D0
331
243D1
331
243FE
331
243FF
102
}
  0
BLOCK_RECORD
  5
1458A
330
7466
100
AcDbSymbolTableRecord
100
AcDbBlockTableRecord
  2
*D1
340
0
  0
BLOCK_RECORD
  5
14598
330
7466
100
AcDbSymbolTableRecord
100
AcDbBlockTableRecord
  2
*D2
340
0
  0
BLOCK_RECORD
  5
145A4
330
7466
100
AcDbSymbolTableRecord
100
AcDbBlockTableRecord
  2
*D3
340
0
  0
BLOCK_RECORD
  5
145B2
330
7466
100
AcDbSymbolTableRecord
100
AcDbBlockTableRecord
  2
*D4
340
0
  0
BLOCK_RECORD
  5
145BE
330
7466
100
AcDbSymbolTableRecord
100
AcDbBlockTableRecord
  2
*D5
340
0
  0
BLOCK_RECORD
  5
145CC
330
7466
100
AcDbSymbolTableRecord
100
AcDbBlockTableRecord
  2
*D6
340
0
  0
BLOCK_RECORD
  5
145D8
330
7466
100
AcDbSymbolTableRecord
100
AcDbBlockTableRecord
  2
*D7
340
0
  0
BLOCK_RECORD
  5
145E4
330
7466
100
AcDbSymbolTableRecord
100
AcDbBlockTableRecord
  2
*D8
340
0
  0
BLOCK_RECORD
  5
145FC
330
7466
100
AcDbSymbolTableRecord
100
AcDbBlockTableRecord
  2
*D9
340
0
  0
BLOCK_RECORD
  5
14608
330
7466
100
AcDbSymbolTableRecord
100
AcDbBlockTableRecord
  2
*D10
340
0
  0
BLOCK_RECORD
  5
14616
330
7466
100
AcDbSymbolTableRecord
100
AcDbBlockTableRecord
  2
*D11
340
0
  0
BLOCK_RECORD
  5
14D63
330
7466
100
AcDbSymbolTableRecord
100
AcDbBlockTableRecord
  2
*D12
340
0
  0
BLOCK_RECORD
  5
22A7B
330
7466
100
AcDbSymbolTableRecord
100
AcDbBlockTableRecord
  2
*D13
340
0
  0
BLOCK_RECORD
  5
22A88
330
7466
100
AcDbSymbolTableRecord
100
AcDbBlockTableRecord
  2
*D14
340
0
  0
BLOCK_RECORD
  5
22AA2
330
7466
100
AcDbSymbolTableRecord
100
AcDbBlockTableRecord
  2
*D15
340
0
  0
BLOCK_RECORD
  5
22AAE
330
7466
100
AcDbSymbolTableRecord
100
AcDbBlockTableRecord
  2
*D16
340
0
  0
BLOCK_RECORD
  5
22ABC
330
7466
100
AcDbSymbolTableRecord
100
AcDbBlockTableRecord
  2
*D17
340
0
  0
BLOCK_RECORD
  5
22AC8
330
7466
100
AcDbSymbolTableRecord
100
AcDbBlockTableRecord
  2
*D18
340
0
  0
BLOCK_RECORD
  5
22AD5
330
7466
100
AcDbSymbolTableRecord
100
AcDbBlockTableRecord
  2
*D19
340
0
  0
BLOCK_RECORD
  5
22AE2
330
7466
100
AcDbSymbolTableRecord
100
AcDbBlockTableRecord
  2
*D20
340
0
  0
BLOCK_RECORD
  5
22AEE
330
7466
100
AcDbSymbolTableRecord
100
AcDbBlockTableRecord
  2
*D21
340
0
  0
BLOCK_RECORD
  5
23EDC
330
7466
100
AcDbSymbolTableRecord
100
AcDbBlockTableRecord
  2
*D22
340
0
  0
BLOCK_RECORD
  5
23EE8
330
7466
100
AcDbSymbolTableRecord
100
AcDbBlockTableRecord
  2
*D23
340
0
  0
BLOCK_RECORD
  5
23EF6
330
7466
100
AcDbSymbolTableRecord
100
AcDbBlockTableRecord
  2
*D24
340
0
  0
BLOCK_RECORD
  5
23F04
330
7466
100
AcDbSymbolTableRecord
100
AcDbBlockTableRecord
  2
*D25
340
0
  0
BLOCK_RECORD
  5
2425D
330
7466
100
AcDbSymbolTableRecord
100
AcDbBlockTableRecord
  2
*D26
340
0
  0
BLOCK_RECORD
  5
24275
330
7466
100
AcDbSymbolTableRecord
100
AcDbBlockTableRecord
  2
*D27
340
0
  0
BLOCK_RECORD
  5
24281
330
7466
100
AcDbSymbolTableRecord
100
AcDbBlockTableRecord
  2
*D28
340
0
  0
BLOCK_RECORD
  5
2428D
330
7466
100
AcDbSymbolTableRecord
100
AcDbBlockTableRecord
  2
*D29
340
0
  0
BLOCK_RECORD
  5
243EF
330
7466
100
AcDbSymbolTableRecord
100
AcDbBlockTableRecord
  2
*D30
340
0
  0
ENDTAB
  0
ENDSEC
  0
SECTION
  2
BLOCKS
  0
BLOCK
  5
7489
330
747D
100
AcDbEntity
  8
0
100
AcDbBlockBegin
  2
*MODEL_SPACE
 70
     0
 10
0.0
 20
0.0
 30
0.0
  3
*MODEL_SPACE
  1

  0
ENDBLK
  5
748A
330
747D
100
AcDbEntity
  8
0
100
AcDbBlockEnd
  0
BLOCK
  5
7487
330
747A
100
AcDbEntity
 67
     1
  8
0
100
AcDbBlockBegin
  2
*PAPER_SPACE
 70
     0
 10
0.0
 20
0.0
 30
0.0
  3
*PAPER_SPACE
  1

  0
ENDBLK
  5
7488
330
747A
100
AcDbEntity
 67
     1
  8
0
100
AcDbBlockEnd
  0
BLOCK
  5
F771
330
F770
100
AcDbEntity
  8
0
 48
50.0
100
AcDbBlockBegin
  2
_DOTSMALL
 70
     0
 10
0.0
 20
0.0
 30
0.0
  3
_DOTSMALL
  1

  0
LWPOLYLINE
  5
F772
330
F770
100
AcDbEntity
  8
0
  6
ByBlock
 62
     0
 48
50.0
100
AcDbPolyline
 90
        2
 70
     1
 43
0.5
 10
-0.0625
 20
0.0
 42
1.0
 10
0.0625
 20
0.0
 42
1.0
  0
ENDBLK
  5
F776
330
F770
100
AcDbEntity
  8
0
 48
50.0
100
AcDbBlockEnd
  0
BLOCK
  5
148C8
330
1458A
100
AcDbEntity
  8
0
 48
50.0
100
AcDbBlockBegin
  2
*D1
 70
     1
 10
0.0
 20
0.0
 30
0.0
  3
*D1
  1

  0
LINE
  5
2431E
330
1458A
100
AcDbEntity
  8
寸法
 62
     0
 48
50.0
370
    -2
100
AcDbLine
 10
5259.896575106979
 20
9806.608155732433
 30
0.0
 11
5259.896575106979
 21
10062.41637535741
 31
0.0
  0
LINE
  5
2431F
330
1458A
100
AcDbEntity
  8
寸法
 62
     0
 48
50.0
370
    -2
100
AcDbLine
 10
5314.896575107013
 20
9806.608155732433
 30
0.0
 11
5314.896575107013
 21
10062.41637535741
 31
0.0
  0
LINE
  5
24320
330
1458A
100
AcDbEntity
  8
寸法
 62
     0
 48
50.0
370
    -2
100
AcDbLine
 10
5314.896575107013
 20
10002.41637535741
 30
0.0
 11
5414.896575107014
 21
10002.41637535741
 31
0.0
  0
LINE
  5
24321
330
1458A
100
AcDbEntity
  8
寸法
 62
     0
 48
50.0
370
    -2
100
AcDbLine
 10
5259.896575106979
 20
10002.41637535741
 30
0.0
 11
4842.926012358502
 21
10002.41637535741
 31
0.0
  0
LINE
  5
24322
330
1458A
100
AcDbEntity
  8
寸法
 62
     0
 48
50.0
370
    -2
100
AcDbLine
 10
5314.896575107013
 20
10002.41637535741
 30
0.0
 11
5259.896575106979
 21
10002.41637535741
 31
0.0
  0
INSERT
  5
24323
330
1458A
100
AcDbEntity
  8
寸法
 62
     0
 48
50.0
370
    -2
100
AcDbBlockReference
  2
_DOTSMALL
 10
5314.896575107013
 20
10002.41637535741
 30
0.0
 41
100.0
 42
100.0
 43
100.0
 50
180.0
  0
INSERT
  5
24324
330
1458A
100
AcDbEntity
  8
寸法
 62
     0
 48
50.0
370
    -2
100
AcDbBlockReference
  2
_DOTSMALL
 10
5259.896575106979
 20
10002.41637535741
 30
0.0
 41
100.0
 42
100.0
 43
100.0
  0
MTEXT
  5
24325
330
1458A
100
AcDbEntity
  8
寸法
 62
     7
 48
50.0
100
AcDbMText
 10
4951.411293732741
 20
10102.41637535741
 30
0.0
 40
120.0
 41
0.0
 71
     5
 72
     1
  1
\A1;55
  7
STYLE1
 73
     1
 44
1.0
1001
ACAD
1000
MTEXTBEGIN
1070
    73
1070
     1
1070
    44
1040
1.0
1070
    74
1070
     0
1000
MTEXTEND
  0
POINT
  5
24326
330
1458A
100
AcDbEntity
  8
DEFPOINTS
 62
     0
 48
50.0
100
AcDbPoint
 10
5259.896575106979
 20
9786.608155732432
 30
0.0
  0
POINT
  5
24327
330
1458A
100
AcDbEntity
  8
DEFPOINTS
 62
     0
 48
50.0
100
AcDbPoint
 10
5314.896575107013
 20
9786.608155732432
 30
0.0
  0
POINT
  5
24328
330
1458A
100
AcDbEntity
  8
DEFPOINTS
 62
     0
 48
50.0
100
AcDbPoint
 10
5314.896575107013
 20
10002.41637535741
 30
0.0
  0
ENDBLK
  5
148D4
330
1458A
100
AcDbEntity
  8
0
 48
50.0
100
AcDbBlockEnd
  0
BLOCK
  5
14D6F
330
14598
100
AcDbEntity
  8
0
 48
50.0
100
AcDbBlockBegin
  2
*D2
 70
     1
 10
0.0
 20
0.0
 30
0.0
  3
*D2
  1

  0
LINE
  5
24315
330
14598
100
AcDbEntity
  8
寸法
 62
     0
 48
50.0
370
    -2
100
AcDbLine
 10
7489.896575107031
 20
9786.608155732526
 30
0.0
 11
8470.743036823749
 21
9786.608155732526
 31
0.0
  0
LINE
  5
24316
330
14598
100
AcDbEntity
  8
寸法
 62
     0
 48
50.0
370
    -2
100
AcDbLine
 10
7489.896575106977
 20
7576.608155732529
 30
0.0
 11
8470.743036823749
 21
7576.608155732529
 31
0.0
  0
LINE
  5
24317
330
14598
100
AcDbEntity
  8
寸法
 62
     0
 48
50.0
370
    -2
100
AcDbLine
 10
8410.743036823749
 20
9786.608155732526
 30
0.0
 11
8410.743036823749
 21
7576.608155732529
 31
0.0
  0
INSERT
  5
24318
330
14598
100
AcDbEntity
  8
寸法
 62
     0
 48
50.0
370
    -2
100
AcDbBlockReference
  2
_DOTSMALL
 10
8410.743036823749
 20
9786.608155732526
 30
0.0
 41
100.0
 42
100.0
 43
100.0
 50
90.0
  0
INSERT
  5
24319
330
14598
100
AcDbEntity
  8
寸法
 62
     0
 48
50.0
370
    -2
100
AcDbBlockReference
  2
_DOTSMALL
 10
8410.743036823749
 20
7576.608155732529
 30
0.0
 41
100.0
 42
100.0
 43
100.0
 50
270.0
  0
MTEXT
  5
2431A
330
14598
100
AcDbEntity
  8
寸法
 62
     7
 48
50.0
100
AcDbMText
 10
8310.731225800125
 20
8632.096595935975
 30
0.0
 40
120.0
 41
0.0
 71
     5
 72
     1
  1
\A1;2210
  7
STYLE1
 11
0.0000000000000001
 21
1.0
 31
0.0
 73
     1
 44
1.0
1001
ACAD
1000
MTEXTBEGIN
1070
    73
1070
     1
1070
    44
1040
1.0
1070
    74
1070
     0
1000
MTEXTEND
  0
POINT
  5
2431B
330
14598
100
AcDbEntity
  8
DEFPOINTS
 62
     0
 48
50.0
100
AcDbPoint
 10
7469.89657510703
 20
9786.608155732526
 30
0.0
  0
POINT
  5
2431C
330
14598
100
AcDbEntity
  8
DEFPOINTS
 62
     0
 48
50.0
100
AcDbPoint
 10
7469.896575106976
 20
7576.608155732529
 30
0.0
  0
POINT
  5
2431D
330
14598
100
AcDbEntity
  8
DEFPOINTS
 62
     0
 48
50.0
100
AcDbPoint
 10
8410.743036823749
 20
7576.608155732529
 30
0.0
  0
ENDBLK
  5
14D79
330
14598
100
AcDbEntity
  8
0
 48
50.0
100
AcDbBlockEnd
  0
BLOCK
  5
1492F
330
145A4
100
AcDbEntity
  8
0
 48
50.0
100
AcDbBlockBegin
  2
*D3
 70
     1
 10
0.0
 20
0.0
 30
0.0
  3
*D3
  1

  0
LINE
  5
2430A
330
145A4
100
AcDbEntity
  8
寸法
 62
     0
 48
50.0
370
    -2
100
AcDbLine
 10
7489.896575107015
 20
9786.60815573253
 30
0.0
 11
8177.322920841424
 21
9786.60815573253
 31
0.0
  0
LINE
  5
2430B
330
145A4
100
AcDbEntity
  8
寸法
 62
     0
 48
50.0
370
    -2
100
AcDbLine
 10
7489.896575107015
 20
9731.608155732534
 30
0.0
 11
8177.322920841424
 21
9731.608155732534
 31
0.0
  0
LINE
  5
2430C
330
145A4
100
AcDbEntity
  8
寸法
 62
     0
 48
50.0
370
    -2
100
AcDbLine
 10
8117.322920841425
 20
9731.608155732534
 30
0.0
 11
8117.322920841425
 21
9631.608155732534
 31
0.0
  0
LINE
  5
2430D
330
145A4
100
AcDbEntity
  8
寸法
 62
     0
 48
50.0
370
    -2
100
AcDbLine
 10
8117.322920841425
 20
9786.60815573253
 30
0.0
 11
8117.322920841425
 21
10203.578718481
 31
0.0
  0
LINE
  5
2430E
330
145A4
100
AcDbEntity
  8
寸法
 62
     0
 48
50.0
370
    -2
100
AcDbLine
 10
8117.322920841425
 20
9731.608155732534
 30
0.0
 11
8117.322920841425
 21
9786.60815573253
 31
0.0
  0
INSERT
  5
2430F
330
145A4
100
AcDbEntity
  8
寸法
 62
     0
 48
50.0
370
    -2
100
AcDbBlockReference
  2
_DOTSMALL
 10
8117.322920841425
 20
9731.608155732534
 30
0.0
 41
100.0
 42
100.0
 43
100.0
 50
90.0
  0
INSERT
  5
24310
330
145A4
100
AcDbEntity
  8
寸法
 62
     0
 48
50.0
370
    -2
100
AcDbBlockReference
  2
_DOTSMALL
 10
8117.322920841425
 20
9786.60815573253
 30
0.0
 41
100.0
 42
100.0
 43
100.0
 50
270.0
  0
MTEXT
  5
24311
330
145A4
100
AcDbEntity
  8
寸法
 62
     7
 48
50.0
100
AcDbMText
 10
8017.322920841424
 20
10095.09343710677
 30
0.0
 40
120.0
 41
0.0
 71
     5
 72
     1
  1
\A1;55
  7
STYLE1
 11
0.0000000000000001
 21
1.0
 31
0.0
 73
     1
 44
1.0
1001
ACAD
1000
MTEXTBEGIN
1070
    73
1070
     1
1070
    44
1040
1.0
1070
    74
1070
     0
1000
MTEXTEND
  0
POINT
  5
24312
330
145A4
100
AcDbEntity
  8
DEFPOINTS
 62
     0
 48
50.0
100
AcDbPoint
 10
7469.896575107014
 20
9786.60815573253
 30
0.0
  0
POINT
  5
24313
330
145A4
100
AcDbEntity
  8
DEFPOINTS
 62
     0
 48
50.0
100
AcDbPoint
 10
7469.896575107014
 20
9731.608155732534
 30
0.0
  0
POINT
  5
24314
330
145A4
100
AcDbEntity
  8
DEFPOINTS
 62
     0
 48
50.0
100
AcDbPoint
 10
8117.322920841425
 20
9731.608155732534
 30
0.0
  0
ENDBLK
  5
1493B
330
145A4
100
AcDbEntity
  8
0
 48
50.0
100
AcDbBlockEnd
  0
BLOCK
  5
14BDB
330
145B2
100
AcDbEntity
  8
0
 48
50.0
100
AcDbBlockBegin
  2
*D4
 70
     1
 10
0.0
 20
0.0
 30
0.0
  3
*D4
  1

  0
LINE
  5
24301
330
145B2
100
AcDbEntity
  8
寸法
 62
     0
 48
50.0
370
    -2
100
AcDbLine
 10
7461.396575107015
 20
9751.249171883907
 30
0.0
 11
7856.75430096904
 21
9645.313388517772
 31
0.0
  0
LINE
  5
24302
330
145B2
100
AcDbEntity
  8
寸法
 62
     0
 48
50.0
370
    -2
100
AcDbLine
 10
7461.396575107015
 20
9301.249171883908
 30
0.0
 11
7856.75430096904
 21
9195.313388517773
 31
0.0
  0
LINE
  5
24303
330
145B2
100
AcDbEntity
  8
寸法
 62
     0
 48
50.0
370
    -2
100
AcDbLine
 10
7796.754300969038
 20
9661.39034006364
 30
0.0
 11
7796.754300969038
 21
9211.390340063642
 31
0.0
  0
INSERT
  5
24304
330
145B2
100
AcDbEntity
  8
寸法
 62
     0
 48
50.0
370
    -2
100
AcDbBlockReference
  2
_DOTSMALL
 10
7796.754300969038
 20
9661.39034006364
 30
0.0
 41
100.0
 42
100.0
 43
100.0
 50
90.0
  0
INSERT
  5
24305
330
145B2
100
AcDbEntity
  8
寸法
 62
     0
 48
50.0
370
    -2
100
AcDbBlockReference
  2
_DOTSMALL
 10
7796.754300969038
 20
9211.390340063642
 30
0.0
 41
100.0
 42
100.0
 43
100.0
 50
270.0
  0
MTEXT
  5
24306
330
145B2
100
AcDbEntity
  8
寸法
 62
     7
 48
50.0
100
AcDbMText
 10
7696.754300969039
 20
9436.390340063642
 30
0.0
 40
120.0
 41
0.0
 71
     5
 72
     1
  1
\A1;450
  7
STYLE1
 11
0.0000000000000001
 21
1.0
 31
0.0
 73
     1
 44
1.0
1001
ACAD
1000
MTEXTBEGIN
1070
    73
1070
     1
1070
    44
1040
1.0
1070
    74
1070
     0
1000
MTEXTEND
  0
POINT
  5
24307
330
145B2
100
AcDbEntity
  8
DEFPOINTS
 62
     0
 48
50.0
100
AcDbPoint
 10
7441.396575107015
 20
9756.608155732529
 30
0.0
  0
POINT
  5
24308
330
145B2
100
AcDbEntity
  8
DEFPOINTS
 62
     0
 48
50.0
100
AcDbPoint
 10
7441.396575107015
 20
9306.608155732531
 30
0.0
  0
POINT
  5
24309
330
145B2
100
AcDbEntity
  8
DEFPOINTS
 62
     0
 48
50.0
100
AcDbPoint
 10
7796.754300969038
 20
9211.390340063642
 30
0.0
  0
ENDBLK
  5
14BE5
330
145B2
100
AcDbEntity
  8
0
 48
50.0
100
AcDbBlockEnd
  0
BLOCK
  5
1496A
330
145BE
100
AcDbEntity
  8
0
 48
50.0
100
AcDbBlockBegin
  2
*D5
 70
     1
 10
0.0
 20
0.0
 30
0.0
  3
*D5
  1

  0
LINE
  5
242F6
330
145BE
100
AcDbEntity
  8
寸法
 62
     0
 48
50.0
370
    -2
100
AcDbLine
 10
7489.896575106977
 20
7631.608155732525
 30
0.0
 11
8177.322920841389
 21
7631.608155732525
 31
0.0
  0
LINE
  5
242F7
330
145BE
100
AcDbEntity
  8
寸法
 62
     0
 48
50.0
370
    -2
100
AcDbLine
 10
7489.896575106977
 20
7576.608155732529
 30
0.0
 11
8177.322920841389
 21
7576.608155732529
 31
0.0
  0
LINE
  5
242F8
330
145BE
100
AcDbEntity
  8
寸法
 62
     0
 48
50.0
370
    -2
100
AcDbLine
 10
8117.322920841386
 20
7631.608155732525
 30
0.0
 11
8117.322920841386
 21
7731.608155732525
 31
0.0
  0
LINE
  5
242F9
330
145BE
100
AcDbEntity
  8
寸法
 62
     0
 48
50.0
370
    -2
100
AcDbLine
 10
8117.322920841386
 20
7576.608155732529
 30
0.0
 11
8117.322920841386
 21
7090.261407453429
 31
0.0
  0
LINE
  5
242FA
330
145BE
100
AcDbEntity
  8
寸法
 62
     0
 48
50.0
370
    -2
100
AcDbLine
 10
8117.322920841386
 20
7631.608155732525
 30
0.0
 11
8117.322920841386
 21
7576.608155732529
 31
0.0
  0
INSERT
  5
242FB
330
145BE
100
AcDbEntity
  8
寸法
 62
     0
 48
50.0
370
    -2
100
AcDbBlockReference
  2
_DOTSMALL
 10
8117.322920841386
 20
7631.608155732525
 30
0.0
 41
100.0
 42
100.0
 43
100.0
 50
270.0
  0
INSERT
  5
242FC
330
145BE
100
AcDbEntity
  8
寸法
 62
     0
 48
50.0
370
    -2
100
AcDbBlockReference
  2
_DOTSMALL
 10
8117.322920841386
 20
7576.608155732529
 30
0.0
 41
100.0
 42
100.0
 43
100.0
 50
90.0
  0
MTEXT
  5
242FD
330
145BE
100
AcDbEntity
  8
寸法
 62
     7
 48
50.0
100
AcDbMText
 10
8017.322920841385
 20
7198.746688827667
 30
0.0
 40
120.0
 41
0.0
 71
     5
 72
     1
  1
\A1;55
  7
STYLE1
 11
0.0000000000000001
 21
1.0
 31
0.0
 73
     1
 44
1.0
1001
ACAD
1000
MTEXTBEGIN
1070
    73
1070
     1
1070
    44
1040
1.0
1070
    74
1070
     0
1000
MTEXTEND
  0
POINT
  5
242FE
330
145BE
100
AcDbEntity
  8
DEFPOINTS
 62
     0
 48
50.0
100
AcDbPoint
 10
7469.896575106976
 20
7631.608155732525
 30
0.0
  0
POINT
  5
242FF
330
145BE
100
AcDbEntity
  8
DEFPOINTS
 62
     0
 48
50.0
100
AcDbPoint
 10
7469.896575106976
 20
7576.608155732529
 30
0.0
  0
POINT
  5
24300
330
145BE
100
AcDbEntity
  8
DEFPOINTS
 62
     0
 48
50.0
100
AcDbPoint
 10
8117.322920841386
 20
7576.608155732529
 30
0.0
  0
ENDBLK
  5
14976
330
145BE
100
AcDbEntity
  8
0
 48
50.0
100
AcDbBlockEnd
  0
BLOCK
  5
14D4C
330
145CC
100
AcDbEntity
  8
0
 48
50.0
100
AcDbBlockBegin
  2
*D6
 70
     1
 10
0.0
 20
0.0
 30
0.0
  3
*D6
  1

  0
LINE
  5
242ED
330
145CC
100
AcDbEntity
  8
寸法
 62
     0
 48
50.0
370
    -2
100
AcDbLine
 10
7489.896575107015
 20
9731.608155732534
 30
0.0
 11
8177.322920841389
 21
9731.608155732534
 31
0.0
  0
LINE
  5
242EE
330
145CC
100
AcDbEntity
  8
寸法
 62
     0
 48
50.0
370
    -2
100
AcDbLine
 10
7489.896575106977
 20
7631.608155732525
 30
0.0
 11
8177.322920841389
 21
7631.608155732525
 31
0.0
  0
LINE
  5
242EF
330
145CC
100
AcDbEntity
  8
寸法
 62
     0
 48
50.0
370
    -2
100
AcDbLine
 10
8117.322920841386
 20
9731.608155732534
 30
0.0
 11
8117.322920841386
 21
7631.608155732525
 31
0.0
  0
INSERT
  5
242F0
330
145CC
100
AcDbEntity
  8
寸法
 62
     0
 48
50.0
370
    -2
100
AcDbBlockReference
  2
_DOTSMALL
 10
8117.322920841386
 20
9731.608155732534
 30
0.0
 41
100.0
 42
100.0
 43
100.0
 50
90.0
  0
INSERT
  5
242F1
330
145CC
100
AcDbEntity
  8
寸法
 62
     0
 48
50.0
370
    -2
100
AcDbBlockReference
  2
_DOTSMALL
 10
8117.322920841386
 20
7631.608155732525
 30
0.0
 41
100.0
 42
100.0
 43
100.0
 50
270.0
  0
MTEXT
  5
242F2
330
145CC
100
AcDbEntity
  8
寸法
 62
     7
 48
50.0
100
AcDbMText
 10
8017.311109817766
 20
8679.694794662989
 30
0.0
 40
120.0
 41
0.0
 71
     5
 72
     1
  1
\A1;5X420=2100
  7
STYLE1
 11
0.0000000000000001
 21
1.0
 31
0.0
 73
     1
 44
1.0
1001
ACAD
1000
MTEXTBEGIN
1070
    73
1070
     1
1070
    44
1040
1.0
1070
    74
1070
     0
1000
MTEXTEND
  0
POINT
  5
242F3
330
145CC
100
AcDbEntity
  8
DEFPOINTS
 62
     0
 48
50.0
100
AcDbPoint
 10
7469.896575107014
 20
9731.608155732534
 30
0.0
  0
POINT
  5
242F4
330
145CC
100
AcDbEntity
  8
DEFPOINTS
 62
     0
 48
50.0
100
AcDbPoint
 10
7469.896575106976
 20
7631.608155732525
 30
0.0
  0
POINT
  5
242F5
330
145CC
100
AcDbEntity
  8
DEFPOINTS
 62
     0
 48
50.0
100
AcDbPoint
 10
8117.322920841386
 20
7631.608155732525
 30
0.0
  0
ENDBLK
  5
14D56
330
145CC
100
AcDbEntity
  8
0
 48
50.0
100
AcDbBlockEnd
  0
BLOCK
  5
14954
330
145D8
100
AcDbEntity
  8
0
 48
50.0
100
AcDbBlockBegin
  2
*D7
 70
     1
 10
0.0
 20
0.0
 30
0.0
  3
*D7
  1

  0
LINE
  5
242E4
330
145D8
100
AcDbEntity
  8
寸法
 62
     0
 48
50.0
370
    -2
100
AcDbLine
 10
5259.896575106995
 20
7556.608155732398
 30
0.0
 11
5259.896575106995
 21
6737.094784365105
 31
0.0
  0
LINE
  5
242E5
330
145D8
100
AcDbEntity
  8
寸法
 62
     0
 48
50.0
370
    -2
100
AcDbLine
 10
7469.896575106976
 20
7556.608155732495
 30
0.0
 11
7469.896575106976
 21
6737.094784365105
 31
0.0
  0
LINE
  5
242E6
330
145D8
100
AcDbEntity
  8
寸法
 62
     0
 48
50.0
370
    -2
100
AcDbLine
 10
5259.896575106995
 20
6797.094784365104
 30
0.0
 11
7469.896575106976
 21
6797.094784365104
 31
0.0
  0
INSERT
  5
242E7
330
145D8
100
AcDbEntity
  8
寸法
 62
     0
 48
50.0
370
    -2
100
AcDbBlockReference
  2
_DOTSMALL
 10
5259.896575106995
 20
6797.094784365104
 30
0.0
 41
100.0
 42
100.0
 43
100.0
 50
180.0
  0
INSERT
  5
242E8
330
145D8
100
AcDbEntity
  8
寸法
 62
     0
 48
50.0
370
    -2
100
AcDbBlockReference
  2
_DOTSMALL
 10
7469.896575106976
 20
6797.094784365104
 30
0.0
 41
100.0
 42
100.0
 43
100.0
  0
MTEXT
  5
242E9
330
145D8
100
AcDbEntity
  8
寸法
 62
     7
 48
50.0
100
AcDbMText
 10
6375.856517730952
 20
6897.106595388726
 30
0.0
 40
120.0
 41
0.0
 71
     5
 72
     1
  1
\A1;2210
  7
STYLE1
 73
     1
 44
1.0
1001
ACAD
1000
MTEXTBEGIN
1070
    73
1070
     1
1070
    44
1040
1.0
1070
    74
1070
     0
1000
MTEXTEND
  0
POINT
  5
242EA
330
145D8
100
AcDbEntity
  8
DEFPOINTS
 62
     0
 48
50.0
100
AcDbPoint
 10
5259.896575106995
 20
7576.608155732398
 30
0.0
  0
POINT
  5
242EB
330
145D8
100
AcDbEntity
  8
DEFPOINTS
 62
     0
 48
50.0
100
AcDbPoint
 10
7469.896575106976
 20
7576.608155732493
 30
0.0
  0
POINT
  5
242EC
330
145D8
100
AcDbEntity
  8
DEFPOINTS
 62
     0
 48
50.0
100
AcDbPoint
 10
7469.896575106976
 20
6797.094784365104
 30
0.0
  0
ENDBLK
  5
1495E
330
145D8
100
AcDbEntity
  8
0
 48
50.0
100
AcDbBlockEnd
  0
BLOCK
  5
14D90
330
145E4
100
AcDbEntity
  8
0
 48
50.0
100
AcDbBlockBegin
  2
*D8
 70
     1
 10
0.0
 20
0.0
 30
0.0
  3
*D8
  1

  0
LINE
  5
242DB
330
145E4
100
AcDbEntity
  8
寸法
 62
     0
 48
50.0
370
    -2
100
AcDbLine
 10
6597.896575106995
 20
7556.608155732459
 30
0.0
 11
6597.896575106995
 21
6963.41140375721
 31
0.0
  0
LINE
  5
242DC
330
145E4
100
AcDbEntity
  8
寸法
 62
     0
 48
50.0
370
    -2
100
AcDbLine
 10
5319.896575106994
 20
7556.608155732397
 30
0.0
 11
5319.896575106994
 21
6963.41140375721
 31
0.0
  0
LINE
  5
242DD
330
145E4
100
AcDbEntity
  8
寸法
 62
     0
 48
50.0
370
    -2
100
AcDbLine
 10
6597.896575106995
 20
7023.411403757211
 30
0.0
 11
5319.896575106994
 21
7023.411403757211
 31
0.0
  0
INSERT
  5
242DE
330
145E4
100
AcDbEntity
  8
寸法
 62
     0
 48
50.0
370
    -2
100
AcDbBlockReference
  2
_DOTSMALL
 10
6597.896575106995
 20
7023.411403757211
 30
0.0
 41
100.0
 42
100.0
 43
100.0
  0
INSERT
  5
242DF
330
145E4
100
AcDbEntity
  8
寸法
 62
     0
 48
50.0
370
    -2
100
AcDbBlockReference
  2
_DOTSMALL
 10
5319.896575106994
 20
7023.411403757211
 30
0.0
 41
100.0
 42
100.0
 43
100.0
 50
180.0
  0
MTEXT
  5
242E0
330
145E4
100
AcDbEntity
  8
寸法
 62
     7
 48
50.0
100
AcDbMText
 10
5947.686700450972
 20
7223.423214780833
 30
0.0
 40
120.0
 41
0.0
 71
     5
 72
     1
  1
\A1;有効開口部間口\P1278
  7
STYLE1
 73
     1
 44
1.0
1001
ACAD
1000
MTEXTBEGIN
1070
    73
1070
     1
1070
    44
1040
1.0
1070
    74
1070
     0
1000
MTEXTEND
  0
POINT
  5
242E1
330
145E4
100
AcDbEntity
  8
DEFPOINTS
 62
     0
 48
50.0
100
AcDbPoint
 10
6597.896575106995
 20
7576.608155732458
 30
0.0
  0
POINT
  5
242E2
330
145E4
100
AcDbEntity
  8
DEFPOINTS
 62
     0
 48
50.0
100
AcDbPoint
 10
5319.896575106994
 20
7576.608155732397
 30
0.0
  0
POINT
  5
242E3
330
145E4
100
AcDbEntity
  8
DEFPOINTS
 62
     0
 48
50.0
100
AcDbPoint
 10
5319.896575106994
 20
7023.411403757211
 30
0.0
  0
ENDBLK
  5
14D9A
330
145E4
100
AcDbEntity
  8
0
 48
50.0
100
AcDbBlockEnd
  0
BLOCK
  5
14D57
330
145FC
100
AcDbEntity
  8
0
 48
50.0
100
AcDbBlockBegin
  2
*D9
 70
     1
 10
0.0
 20
0.0
 30
0.0
  3
*D9
  1

  0
LINE
  5
242D2
330
145FC
100
AcDbEntity
  8
寸法
 62
     0
 48
50.0
370
    -2
100
AcDbLine
 10
6583.037591258392
 20
9286.608155732539
 30
0.0
 11
6513.626127267166
 21
9027.561045489553
 31
0.0
  0
LINE
  5
242D3
330
145FC
100
AcDbEntity
  8
寸法
 62
     0
 48
50.0
370
    -2
100
AcDbLine
 10
7436.037591258403
 20
9286.608155732533
 30
0.0
 11
7366.62612726718
 21
9027.561045489553
 31
0.0
  0
LINE
  5
242D4
330
145FC
100
AcDbEntity
  8
寸法
 62
     0
 48
50.0
370
    -2
100
AcDbLine
 10
6529.703078813034
 20
9087.561045489552
 30
0.0
 11
7382.703078813048
 21
9087.561045489552
 31
0.0
  0
INSERT
  5
242D5
330
145FC
100
AcDbEntity
  8
寸法
 62
     0
 48
50.0
370
    -2
100
AcDbBlockReference
  2
_DOTSMALL
 10
6529.703078813034
 20
9087.561045489552
 30
0.0
 41
100.0
 42
100.0
 43
100.0
 50
180.0
  0
INSERT
  5
242D6
330
145FC
100
AcDbEntity
  8
寸法
 62
     0
 48
50.0
370
    -2
100
AcDbBlockReference
  2
_DOTSMALL
 10
7382.703078813048
 20
9087.561045489552
 30
0.0
 41
100.0
 42
100.0
 43
100.0
  0
MTEXT
  5
242D7
330
145FC
100
AcDbEntity
  8
寸法
 62
     7
 48
50.0
100
AcDbMText
 10
6967.743637225282
 20
9187.561045489552
 30
0.0
 40
120.0
 41
0.0
 71
     5
 72
     1
  1
\A1;853
  7
STYLE1
 73
     1
 44
1.0
1001
ACAD
1000
MTEXTBEGIN
1070
    73
1070
     1
1070
    44
1040
1.0
1070
    74
1070
     0
1000
MTEXTEND
  0
POINT
  5
242D8
330
145FC
100
AcDbEntity
  8
DEFPOINTS
 62
     0
 48
50.0
100
AcDbPoint
 10
6588.396575107013
 20
9306.608155732538
 30
0.0
  0
POINT
  5
242D9
330
145FC
100
AcDbEntity
  8
DEFPOINTS
 62
     0
 48
50.0
100
AcDbPoint
 10
7441.396575107025
 20
9306.608155732531
 30
0.0
  0
POINT
  5
242DA
330
145FC
100
AcDbEntity
  8
DEFPOINTS
 62
     0
 48
50.0
100
AcDbPoint
 10
7382.703078813048
 20
9087.561045489552
 30
0.0
  0
ENDBLK
  5
14D61
330
145FC
100
AcDbEntity
  8
0
 48
50.0
100
AcDbBlockEnd
  0
BLOCK
  5
148D5
330
14608
100
AcDbEntity
  8
0
 48
50.0
100
AcDbBlockBegin
  2
*D10
 70
     1
 10
0.0
 20
0.0
 30
0.0
  3
*D10
  1

  0
LINE
  5
242C7
330
14608
100
AcDbEntity
  8
寸法
 62
     0
 48
50.0
370
    -2
100
AcDbLine
 10
7414.896575107015
 20
9806.608155732529
 30
0.0
 11
7414.896575107015
 21
10062.41637535751
 31
0.0
  0
LINE
  5
242C8
330
14608
100
AcDbEntity
  8
寸法
 62
     0
 48
50.0
370
    -2
100
AcDbLine
 10
7469.896575107014
 20
9806.608155732529
 30
0.0
 11
7469.896575107014
 21
10062.41637535751
 31
0.0
  0
LINE
  5
242C9
330
14608
100
AcDbEntity
  8
寸法
 62
     0
 48
50.0
370
    -2
100
AcDbLine
 10
7414.896575107015
 20
10002.41637535751
 30
0.0
 11
7314.896575107015
 21
10002.41637535751
 31
0.0
  0
LINE
  5
242CA
330
14608
100
AcDbEntity
  8
寸法
 62
     0
 48
50.0
370
    -2
100
AcDbLine
 10
7469.896575107014
 20
10002.41637535751
 30
0.0
 11
7886.867137855492
 21
10002.41637535751
 31
0.0
  0
LINE
  5
242CB
330
14608
100
AcDbEntity
  8
寸法
 62
     0
 48
50.0
370
    -2
100
AcDbLine
 10
7414.896575107015
 20
10002.41637535751
 30
0.0
 11
7469.896575107014
 21
10002.41637535751
 31
0.0
  0
INSERT
  5
242CC
330
14608
100
AcDbEntity
  8
寸法
 62
     0
 48
50.0
370
    -2
100
AcDbBlockReference
  2
_DOTSMALL
 10
7414.896575107015
 20
10002.41637535751
 30
0.0
 41
100.0
 42
100.0
 43
100.0
  0
INSERT
  5
242CD
330
14608
100
AcDbEntity
  8
寸法
 62
     0
 48
50.0
370
    -2
100
AcDbBlockReference
  2
_DOTSMALL
 10
7469.896575107014
 20
10002.41637535751
 30
0.0
 41
100.0
 42
100.0
 43
100.0
 50
180.0
  0
MTEXT
  5
242CE
330
14608
100
AcDbEntity
  8
寸法
 62
     7
 48
50.0
100
AcDbMText
 10
7778.381856481253
 20
10102.41637535751
 30
0.0
 40
120.0
 41
0.0
 71
     5
 72
     1
  1
\A1;55
  7
STYLE1
 73
     1
 44
1.0
1001
ACAD
1000
MTEXTBEGIN
1070
    73
1070
     1
1070
    44
1040
1.0
1070
    74
1070
     0
1000
MTEXTEND
  0
POINT
  5
242CF
330
14608
100
AcDbEntity
  8
DEFPOINTS
 62
     0
 48
50.0
100
AcDbPoint
 10
7414.896575107015
 20
9786.60815573253
 30
0.0
  0
POINT
  5
242D0
330
14608
100
AcDbEntity
  8
DEFPOINTS
 62
     0
 48
50.0
100
AcDbPoint
 10
7469.896575107014
 20
9786.60815573253
 30
0.0
  0
POINT
  5
242D1
330
14608
100
AcDbEntity
  8
DEFPOINTS
 62
     0
 48
50.0
100
AcDbPoint
 10
7469.896575107014
 20
10002.41637535751
 30
0.0
  0
ENDBLK
  5
148E1
330
14608
100
AcDbEntity
  8
0
 48
50.0
100
AcDbBlockEnd
  0
BLOCK
  5
14B64
330
14616
100
AcDbEntity
  8
0
 48
50.0
100
AcDbBlockBegin
  2
*D11
 70
     1
 10
0.0
 20
0.0
 30
0.0
  3
*D11
  1

  0
LINE
  5
242BE
330
14616
100
AcDbEntity
  8
寸法
 62
     0
 48
50.0
370
    -2
100
AcDbLine
 10
5314.896575107013
 20
9806.608155732433
 30
0.0
 11
5314.896575107013
 21
10062.41637535741
 31
0.0
  0
LINE
  5
242BF
330
14616
100
AcDbEntity
  8
寸法
 62
     0
 48
50.0
370
    -2
100
AcDbLine
 10
7414.896575107015
 20
9806.608155732529
 30
0.0
 11
7414.896575107015
 21
10062.41637535741
 31
0.0
  0
LINE
  5
242C0
330
14616
100
AcDbEntity
  8
寸法
 62
     0
 48
50.0
370
    -2
100
AcDbLine
 10
5314.896575107013
 20
10002.41637535741
 30
0.0
 11
7414.896575107015
 21
10002.41637535741
 31
0.0
  0
INSERT
  5
242C1
330
14616
100
AcDbEntity
  8
寸法
 62
     0
 48
50.0
370
    -2
100
AcDbBlockReference
  2
_DOTSMALL
 10
5314.896575107013
 20
10002.41637535741
 30
0.0
 41
100.0
 42
100.0
 43
100.0
 50
180.0
  0
INSERT
  5
242C2
330
14616
100
AcDbEntity
  8
寸法
 62
     0
 48
50.0
370
    -2
100
AcDbBlockReference
  2
_DOTSMALL
 10
7414.896575107015
 20
10002.41637535741
 30
0.0
 41
100.0
 42
100.0
 43
100.0
  0
MTEXT
  5
242C3
330
14616
100
AcDbEntity
  8
寸法
 62
     7
 48
50.0
100
AcDbMText
 10
6356.769737990334
 20
10102.42818638104
 30
0.0
 40
120.0
 41
0.0
 71
     5
 72
     1
  1
\A1;5X420=2100
  7
STYLE1
 73
     1
 44
1.0
1001
ACAD
1000
MTEXTBEGIN
1070
    73
1070
     1
1070
    44
1040
1.0
1070
    74
1070
     0
1000
MTEXTEND
  0
POINT
  5
242C4
330
14616
100
AcDbEntity
  8
DEFPOINTS
 62
     0
 48
50.0
100
AcDbPoint
 10
5314.896575107013
 20
9786.608155732432
 30
0.0
  0
POINT
  5
242C5
330
14616
100
AcDbEntity
  8
DEFPOINTS
 62
     0
 48
50.0
100
AcDbPoint
 10
7414.896575107015
 20
9786.60815573253
 30
0.0
  0
POINT
  5
242C6
330
14616
100
AcDbEntity
  8
DEFPOINTS
 62
     0
 48
50.0
100
AcDbPoint
 10
7414.896575107015
 20
10002.41637535741
 30
0.0
  0
ENDBLK
  5
14B6E
330
14616
100
AcDbEntity
  8
0
 48
50.0
100
AcDbBlockEnd
  0
BLOCK
  5
14D64
330
14D63
100
AcDbEntity
  8
0
 48
50.0
100
AcDbBlockBegin
  2
*D12
 70
     1
 10
0.0
 20
0.0
 30
0.0
  3
*D12
  1

  0
LINE
  5
242B5
330
14D63
100
AcDbEntity
  8
寸法
 62
     0
 48
50.0
370
    -2
100
AcDbLine
 10
5283.03759125839
 20
9286.60815573238
 30
0.0
 11
5213.10096837934
 21
9025.601125837978
 31
0.0
  0
LINE
  5
242B6
330
14D63
100
AcDbEntity
  8
寸法
 62
     0
 48
50.0
370
    -2
100
AcDbLine
 10
6556.037591258405
 20
9286.608155732427
 30
0.0
 11
6486.100968379341
 21
9025.601125837978
 31
0.0
  0
LINE
  5
242B7
330
14D63
100
AcDbEntity
  8
寸法
 62
     0
 48
50.0
370
    -2
100
AcDbLine
 10
5229.177919925206
 20
9085.601125837978
 30
0.0
 11
6502.177919925209
 21
9085.601125837978
 31
0.0
  0
INSERT
  5
242B8
330
14D63
100
AcDbEntity
  8
寸法
 62
     0
 48
50.0
370
    -2
100
AcDbBlockReference
  2
_DOTSMALL
 10
5229.177919925206
 20
9085.601125837978
 30
0.0
 41
100.0
 42
100.0
 43
100.0
 50
180.0
  0
INSERT
  5
242B9
330
14D63
100
AcDbEntity
  8
寸法
 62
     0
 48
50.0
370
    -2
100
AcDbBlockReference
  2
_DOTSMALL
 10
6502.177919925209
 20
9085.601125837978
 30
0.0
 41
100.0
 42
100.0
 43
100.0
  0
MTEXT
  5
242BA
330
14D63
100
AcDbEntity
  8
寸法
 62
     7
 48
50.0
100
AcDbMText
 10
5765.319254562271
 20
9185.6129368616
 30
0.0
 40
120.0
 41
0.0
 71
     5
 72
     1
  1
\A1;1273
  7
STYLE1
 73
     1
 44
1.0
1001
ACAD
1000
MTEXTBEGIN
1070
    73
1070
     1
1070
    44
1040
1.0
1070
    74
1070
     0
1000
MTEXTEND
  0
POINT
  5
242BB
330
14D63
100
AcDbEntity
  8
DEFPOINTS
 62
     0
 48
50.0
100
AcDbPoint
 10
5288.396575107013
 20
9306.608155732382
 30
0.0
  0
POINT
  5
242BC
330
14D63
100
AcDbEntity
  8
DEFPOINTS
 62
     0
 48
50.0
100
AcDbPoint
 10
6561.396575107027
 20
9306.608155732426
 30
0.0
  0
POINT
  5
242BD
330
14D63
100
AcDbEntity
  8
DEFPOINTS
 62
     0
 48
50.0
100
AcDbPoint
 10
6502.177919925209
 20
9085.601125837978
 30
0.0
  0
ENDBLK
  5
14D6E
330
14D63
100
AcDbEntity
  8
0
 48
50.0
100
AcDbBlockEnd
  0
BLOCK
  5
22A86
330
22A7B
100
AcDbEntity
  8
0
 48
50.0
100
AcDbBlockBegin
  2
*D13
 70
     1
 10
0.0
 20
0.0
 30
0.0
  3
*D13
  1

  0
LINE
  5
243CC
330
22A7B
100
AcDbEntity
  8
寸法
 62
     0
 48
50.0
370
    -2
100
AcDbLine
 10
9330.693956914492
 20
2876.056521119535
 30
0.0
 11
8201.943827731232
 21
2876.056521119536
 31
0.0
  0
LINE
  5
243CD
330
22A7B
100
AcDbEntity
  8
寸法
 62
     0
 48
50.0
370
    -2
100
AcDbLine
 10
8329.192881019361
 20
2776.056521119536
 30
0.0
 11
8201.943827731232
 21
2776.056521119536
 31
0.0
  0
LINE
  5
243CE
330
22A7B
100
AcDbEntity
  8
寸法
 62
     0
 48
50.0
370
    -2
100
AcDbLine
 10
8261.943827731233
 20
2876.056521119536
 30
0.0
 11
8261.943827731233
 21
2776.056521119536
 31
0.0
  0
LINE
  5
243CF
330
22A7B
100
AcDbEntity
  8
寸法
 62
     0
 48
50.0
370
    -2
100
AcDbLine
 10
8261.943827731233
 20
2776.056521119536
 30
0.0
 11
8261.943827731233
 21
2403.962032930558
 31
0.0
  0
INSERT
  5
243D0
330
22A7B
100
AcDbEntity
  8
寸法
 62
     0
 48
50.0
370
    -2
100
AcDbBlockReference
  2
_DOTSMALL
 10
8261.943827731233
 20
2876.056521119536
 30
0.0
 41
100.0
 42
100.0
 43
100.0
 50
90.0
  0
INSERT
  5
243D1
330
22A7B
100
AcDbEntity
  8
寸法
 62
     0
 48
50.0
370
    -2
100
AcDbBlockReference
  2
_DOTSMALL
 10
8261.943827731233
 20
2776.056521119536
 30
0.0
 41
100.0
 42
100.0
 43
100.0
 50
270.0
  0
MTEXT
  5
243D2
330
22A7B
100
AcDbEntity
  8
寸法
 62
     7
 48
50.0
100
AcDbMText
 10
8161.943827731233
 20
2540.009277025048
 30
0.0
 40
120.0
 41
0.0
 71
     5
 72
     1
  1
\A1;100
  7
STYLE1
 11
0.0000000000000001
 21
1.0
 31
0.0
 73
     1
 44
1.0
1001
ACAD
1000
MTEXTBEGIN
1070
    73
1070
     1
1070
    44
1040
1.0
1070
    74
1070
     0
1000
MTEXTEND
  0
POINT
  5
243D3
330
22A7B
100
AcDbEntity
  8
DEFPOINTS
 62
     0
 48
50.0
100
AcDbPoint
 10
9350.693956914494
 20
2876.056521119535
 30
0.0
  0
POINT
  5
243D4
330
22A7B
100
AcDbEntity
  8
DEFPOINTS
 62
     0
 48
50.0
100
AcDbPoint
 10
8349.19288101936
 20
2776.056521119536
 30
0.0
  0
POINT
  5
243D5
330
22A7B
100
AcDbEntity
  8
DEFPOINTS
 62
     0
 48
50.0
100
AcDbPoint
 10
8261.943827731233
 20
2776.056521119536
 30
0.0
  0
ENDBLK
  5
22A87
330
22A7B
100
AcDbEntity
  8
0
 48
50.0
100
AcDbBlockEnd
  0
BLOCK
  5
22A94
330
22A88
100
AcDbEntity
  8
0
 48
50.0
100
AcDbBlockBegin
  2
*D14
 70
     1
 10
0.0
 20
0.0
 30
0.0
  3
*D14
  1

  0
LINE
  5
243C1
330
22A88
100
AcDbEntity
  8
寸法
 62
     0
 48
50.0
370
    -2
100
AcDbLine
 10
9385.693956914492
 20
2926.056521119535
 30
0.0
 11
8501.943827731233
 21
2926.056521119536
 31
0.0
  0
LINE
  5
243C2
330
22A88
100
AcDbEntity
  8
寸法
 62
     0
 48
50.0
370
    -2
100
AcDbLine
 10
9330.693956914492
 20
2876.056521119535
 30
0.0
 11
8501.943827731233
 21
2876.056521119536
 31
0.0
  0
LINE
  5
243C3
330
22A88
100
AcDbEntity
  8
寸法
 62
     0
 48
50.0
370
    -2
100
AcDbLine
 10
8561.943827731232
 20
2926.056521119536
 30
0.0
 11
8561.943827731232
 21
3026.056521119536
 31
0.0
  0
LINE
  5
243C4
330
22A88
100
AcDbEntity
  8
寸法
 62
     0
 48
50.0
370
    -2
100
AcDbLine
 10
8561.943827731232
 20
2876.056521119536
 30
0.0
 11
8561.943827731232
 21
2463.962032930558
 31
0.0
  0
LINE
  5
243C5
330
22A88
100
AcDbEntity
  8
寸法
 62
     0
 48
50.0
370
    -2
100
AcDbLine
 10
8561.943827731232
 20
2926.056521119536
 30
0.0
 11
8561.943827731232
 21
2876.056521119536
 31
0.0
  0
INSERT
  5
243C6
330
22A88
100
AcDbEntity
  8
寸法
 62
     0
 48
50.0
370
    -2
100
AcDbBlockReference
  2
_DOTSMALL
 10
8561.943827731232
 20
2926.056521119536
 30
0.0
 41
100.0
 42
100.0
 43
100.0
 50
270.0
  0
INSERT
  5
243C7
330
22A88
100
AcDbEntity
  8
寸法
 62
     0
 48
50.0
370
    -2
100
AcDbBlockReference
  2
_DOTSMALL
 10
8561.943827731232
 20
2876.056521119536
 30
0.0
 41
100.0
 42
100.0
 43
100.0
 50
90.0
  0
MTEXT
  5
243C8
330
22A88
100
AcDbEntity
  8
寸法
 62
     7
 48
50.0
100
AcDbMText
 10
8461.943827731232
 20
2570.009277025048
 30
0.0
 40
120.0
 41
0.0
 71
     5
 72
     1
  1
\A1;50
  7
STYLE1
 11
0.0000000000000001
 21
1.0
 31
0.0
 73
     1
 44
1.0
1001
ACAD
1000
MTEXTBEGIN
1070
    73
1070
     1
1070
    44
1040
1.0
1070
    74
1070
     0
1000
MTEXTEND
  0
POINT
  5
243C9
330
22A88
100
AcDbEntity
  8
DEFPOINTS
 62
     0
 48
50.0
100
AcDbPoint
 10
9405.693956914493
 20
2926.056521119535
 30
0.0
  0
POINT
  5
243CA
330
22A88
100
AcDbEntity
  8
DEFPOINTS
 62
     0
 48
50.0
100
AcDbPoint
 10
9350.693956914494
 20
2876.056521119535
 30
0.0
  0
POINT
  5
243CB
330
22A88
100
AcDbEntity
  8
DEFPOINTS
 62
     0
 48
50.0
100
AcDbPoint
 10
8561.943827731232
 20
2876.056521119536
 30
0.0
  0
ENDBLK
  5
22A95
330
22A88
100
AcDbEntity
  8
0
 48
50.0
100
AcDbBlockEnd
  0
BLOCK
  5
22AAC
330
22AA2
100
AcDbEntity
  8
0
 48
50.0
100
AcDbBlockBegin
  2
*D15
 70
     1
 10
0.0
 20
0.0
 30
0.0
  3
*D15
  1

  0
LINE
  5
243B8
330
22AA2
100
AcDbEntity
  8
寸法
 62
     0
 48
50.0
370
    -2
100
AcDbLine
 10
11615.69395691449
 20
5217.867200731189
 30
0.0
 11
11615.69395691449
 21
5709.713974698839
 31
0.0
  0
LINE
  5
243B9
330
22AA2
100
AcDbEntity
  8
寸法
 62
     0
 48
50.0
370
    -2
100
AcDbLine
 10
9405.693956914493
 20
5267.058139242512
 30
0.0
 11
9405.693956914493
 21
5709.713974698839
 31
0.0
  0
LINE
  5
243BA
330
22AA2
100
AcDbEntity
  8
寸法
 62
     0
 48
50.0
370
    -2
100
AcDbLine
 10
11615.69395691449
 20
5649.71397469884
 30
0.0
 11
9405.693956914493
 21
5649.71397469884
 31
0.0
  0
INSERT
  5
243BB
330
22AA2
100
AcDbEntity
  8
寸法
 62
     0
 48
50.0
370
    -2
100
AcDbBlockReference
  2
_DOTSMALL
 10
11615.69395691449
 20
5649.71397469884
 30
0.0
 41
100.0
 42
100.0
 43
100.0
  0
INSERT
  5
243BC
330
22AA2
100
AcDbEntity
  8
寸法
 62
     0
 48
50.0
370
    -2
100
AcDbBlockReference
  2
_DOTSMALL
 10
9405.693956914493
 20
5649.71397469884
 30
0.0
 41
100.0
 42
100.0
 43
100.0
 50
180.0
  0
MTEXT
  5
243BD
330
22AA2
100
AcDbEntity
  8
寸法
 62
     7
 48
50.0
100
AcDbMText
 10
10500.338693985
 20
5749.725785722461
 30
0.0
 40
120.0
 41
0.0
 71
     5
 72
     1
  1
\A1;柱外寸法2210
  7
STYLE1
 73
     1
 44
1.0
1001
ACAD
1000
MTEXTBEGIN
1070
    73
1070
     1
1070
    44
1040
1.0
1070
    74
1070
     0
1000
MTEXTEND
  0
POINT
  5
243BE
330
22AA2
100
AcDbEntity
  8
DEFPOINTS
 62
     0
 48
50.0
100
AcDbPoint
 10
11615.69395691449
 20
5197.867200731189
 30
0.0
  0
POINT
  5
243BF
330
22AA2
100
AcDbEntity
  8
DEFPOINTS
 62
     0
 48
50.0
100
AcDbPoint
 10
9405.693956914493
 20
5247.058139242511
 30
0.0
  0
POINT
  5
243C0
330
22AA2
100
AcDbEntity
  8
DEFPOINTS
 62
     0
 48
50.0
100
AcDbPoint
 10
9405.693956914493
 20
5649.71397469884
 30
0.0
  0
ENDBLK
  5
22AAD
330
22AA2
100
AcDbEntity
  8
0
 48
50.0
100
AcDbBlockEnd
  0
BLOCK
  5
22ABA
330
22AAE
100
AcDbEntity
  8
0
 48
50.0
100
AcDbBlockBegin
  2
*D16
 70
     1
 10
0.0
 20
0.0
 30
0.0
  3
*D16
  1

  0
LINE
  5
243AD
330
22AAE
100
AcDbEntity
  8
寸法
 62
     0
 48
50.0
370
    -2
100
AcDbLine
 10
9405.693956914493
 20
5267.058139242512
 30
0.0
 11
9405.693956914493
 21
5709.713974698839
 31
0.0
  0
LINE
  5
243AE
330
22AAE
100
AcDbEntity
  8
寸法
 62
     0
 48
50.0
370
    -2
100
AcDbLine
 10
9345.693956914493
 20
5271.05652111954
 30
0.0
 11
9345.693956914493
 21
5709.713974698839
 31
0.0
  0
LINE
  5
243AF
330
22AAE
100
AcDbEntity
  8
寸法
 62
     0
 48
50.0
370
    -2
100
AcDbLine
 10
9405.693956914493
 20
5649.71397469884
 30
0.0
 11
9505.693956914493
 21
5649.71397469884
 31
0.0
  0
LINE
  5
243B0
330
22AAE
100
AcDbEntity
  8
寸法
 62
     0
 48
50.0
370
    -2
100
AcDbLine
 10
9345.693956914493
 20
5649.71397469884
 30
0.0
 11
8926.418366363312
 21
5649.71397469884
 31
0.0
  0
LINE
  5
243B1
330
22AAE
100
AcDbEntity
  8
寸法
 62
     0
 48
50.0
370
    -2
100
AcDbLine
 10
9405.693956914493
 20
5649.71397469884
 30
0.0
 11
9345.693956914493
 21
5649.71397469884
 31
0.0
  0
INSERT
  5
243B2
330
22AAE
100
AcDbEntity
  8
寸法
 62
     0
 48
50.0
370
    -2
100
AcDbBlockReference
  2
_DOTSMALL
 10
9405.693956914493
 20
5649.71397469884
 30
0.0
 41
100.0
 42
100.0
 43
100.0
 50
180.0
  0
INSERT
  5
243B3
330
22AAE
100
AcDbEntity
  8
寸法
 62
     0
 48
50.0
370
    -2
100
AcDbBlockReference
  2
_DOTSMALL
 10
9345.693956914493
 20
5649.71397469884
 30
0.0
 41
100.0
 42
100.0
 43
100.0
  0
MTEXT
  5
243B4
330
22AAE
100
AcDbEntity
  8
寸法
 62
     7
 48
50.0
100
AcDbMText
 10
9036.056161638901
 20
5749.713974698839
 30
0.0
 40
120.0
 41
0.0
 71
     5
 72
     1
  1
\A1;60
  7
STYLE1
 73
     1
 44
1.0
1001
ACAD
1000
MTEXTBEGIN
1070
    73
1070
     1
1070
    44
1040
1.0
1070
    74
1070
     0
1000
MTEXTEND
  0
POINT
  5
243B5
330
22AAE
100
AcDbEntity
  8
DEFPOINTS
 62
     0
 48
50.0
100
AcDbPoint
 10
9405.693956914493
 20
5247.058139242511
 30
0.0
  0
POINT
  5
243B6
330
22AAE
100
AcDbEntity
  8
DEFPOINTS
 62
     0
 48
50.0
100
AcDbPoint
 10
9345.693956914493
 20
5251.05652111954
 30
0.0
  0
POINT
  5
243B7
330
22AAE
100
AcDbEntity
  8
DEFPOINTS
 62
     0
 48
50.0
100
AcDbPoint
 10
9345.693956914493
 20
5649.71397469884
 30
0.0
  0
ENDBLK
  5
22ABB
330
22AAE
100
AcDbEntity
  8
0
 48
50.0
100
AcDbBlockEnd
  0
BLOCK
  5
22AC6
330
22ABC
100
AcDbEntity
  8
0
 48
50.0
100
AcDbBlockBegin
  2
*D17
 70
     1
 10
0.0
 20
0.0
 30
0.0
  3
*D17
  1

  0
LINE
  5
243A4
330
22ABC
100
AcDbEntity
  8
寸法
 62
     0
 48
50.0
370
    -2
100
AcDbLine
 10
11695.69395691449
 20
5216.056521119536
 30
0.0
 11
11695.69395691449
 21
5928.915808373131
 31
0.0
  0
LINE
  5
243A5
330
22ABC
100
AcDbEntity
  8
寸法
 62
     0
 48
50.0
370
    -2
100
AcDbLine
 10
9345.693956914493
 20
5271.05652111954
 30
0.0
 11
9345.693956914493
 21
5928.915808373131
 31
0.0
  0
LINE
  5
243A6
330
22ABC
100
AcDbEntity
  8
寸法
 62
     0
 48
50.0
370
    -2
100
AcDbLine
 10
11695.69395691449
 20
5868.915808373131
 30
0.0
 11
9345.693956914493
 21
5868.915808373131
 31
0.0
  0
INSERT
  5
243A7
330
22ABC
100
AcDbEntity
  8
寸法
 62
     0
 48
50.0
370
    -2
100
AcDbBlockReference
  2
_DOTSMALL
 10
11695.69395691449
 20
5868.915808373131
 30
0.0
 41
100.0
 42
100.0
 43
100.0
  0
INSERT
  5
243A8
330
22ABC
100
AcDbEntity
  8
寸法
 62
     0
 48
50.0
370
    -2
100
AcDbBlockReference
  2
_DOTSMALL
 10
9345.693956914493
 20
5868.915808373131
 30
0.0
 41
100.0
 42
100.0
 43
100.0
 50
180.0
  0
MTEXT
  5
243A9
330
22ABC
100
AcDbEntity
  8
寸法
 62
     7
 48
50.0
100
AcDbMText
 10
10580.03781100696
 20
5968.927619396753
 30
0.0
 40
120.0
 41
0.0
 71
     5
 72
     1
  1
\A1;2350
  7
STYLE1
 73
     1
 44
1.0
1001
ACAD
1000
MTEXTBEGIN
1070
    73
1070
     1
1070
    44
1040
1.0
1070
    74
1070
     0
1000
MTEXTEND
  0
POINT
  5
243AA
330
22ABC
100
AcDbEntity
  8
DEFPOINTS
 62
     0
 48
50.0
100
AcDbPoint
 10
11695.69395691449
 20
5196.056521119537
 30
0.0
  0
POINT
  5
243AB
330
22ABC
100
AcDbEntity
  8
DEFPOINTS
 62
     0
 48
50.0
100
AcDbPoint
 10
9345.693956914493
 20
5251.05652111954
 30
0.0
  0
POINT
  5
243AC
330
22ABC
100
AcDbEntity
  8
DEFPOINTS
 62
     0
 48
50.0
100
AcDbPoint
 10
9345.693956914493
 20
5868.915808373131
 30
0.0
  0
ENDBLK
  5
22AC7
330
22ABC
100
AcDbEntity
  8
0
 48
50.0
100
AcDbBlockEnd
  0
BLOCK
  5
22AD3
330
22AC8
100
AcDbEntity
  8
0
 48
50.0
100
AcDbBlockBegin
  2
*D18
 70
     1
 10
0.0
 20
0.0
 30
0.0
  3
*D18
  1

  0
LINE
  5
2439A
330
22AC8
100
AcDbEntity
  8
寸法
 62
     0
 48
50.0
370
    -2
100
AcDbLine
 10
11615.69395691449
 20
5217.867200731189
 30
0.0
 11
11615.69395691449
 21
5709.713974698839
 31
0.0
  0
LINE
  5
2439B
330
22AC8
100
AcDbEntity
  8
寸法
 62
     0
 48
50.0
370
    -2
100
AcDbLine
 10
11695.69395691449
 20
5216.056521119536
 30
0.0
 11
11695.69395691449
 21
5709.713974698839
 31
0.0
  0
LINE
  5
2439C
330
22AC8
100
AcDbEntity
  8
寸法
 62
     0
 48
50.0
370
    -2
100
AcDbLine
 10
11615.69395691449
 20
5649.71397469884
 30
0.0
 11
11695.69395691449
 21
5649.71397469884
 31
0.0
  0
LINE
  5
2439D
330
22AC8
100
AcDbEntity
  8
寸法
 62
     0
 48
50.0
370
    -2
100
AcDbLine
 10
11695.69395691449
 20
5649.71397469884
 30
0.0
 11
12007.78844510347
 21
5649.71397469884
 31
0.0
  0
INSERT
  5
2439E
330
22AC8
100
AcDbEntity
  8
寸法
 62
     0
 48
50.0
370
    -2
100
AcDbBlockReference
  2
_DOTSMALL
 10
11615.69395691449
 20
5649.71397469884
 30
0.0
 41
100.0
 42
100.0
 43
100.0
 50
180.0
  0
INSERT
  5
2439F
330
22AC8
100
AcDbEntity
  8
寸法
 62
     0
 48
50.0
370
    -2
100
AcDbBlockReference
  2
_DOTSMALL
 10
11695.69395691449
 20
5649.71397469884
 30
0.0
 41
100.0
 42
100.0
 43
100.0
  0
MTEXT
  5
243A0
330
22AC8
100
AcDbEntity
  8
寸法
 62
     7
 48
50.0
100
AcDbMText
 10
11901.74120100898
 20
5749.713974698839
 30
0.0
 40
120.0
 41
0.0
 71
     5
 72
     1
  1
\A1;80
  7
STYLE1
 73
     1
 44
1.0
1001
ACAD
1000
MTEXTBEGIN
1070
    73
1070
     1
1070
    44
1040
1.0
1070
    74
1070
     0
1000
MTEXTEND
  0
POINT
  5
243A1
330
22AC8
100
AcDbEntity
  8
DEFPOINTS
 62
     0
 48
50.0
100
AcDbPoint
 10
11615.69395691449
 20
5197.867200731189
 30
0.0
  0
POINT
  5
243A2
330
22AC8
100
AcDbEntity
  8
DEFPOINTS
 62
     0
 48
50.0
100
AcDbPoint
 10
11695.69395691449
 20
5196.056521119537
 30
0.0
  0
POINT
  5
243A3
330
22AC8
100
AcDbEntity
  8
DEFPOINTS
 62
     0
 48
50.0
100
AcDbPoint
 10
11695.69395691449
 20
5649.71397469884
 30
0.0
  0
ENDBLK
  5
22AD4
330
22AC8
100
AcDbEntity
  8
0
 48
50.0
100
AcDbBlockEnd
  0
BLOCK
  5
22AE0
330
22AD5
100
AcDbEntity
  8
0
 48
50.0
100
AcDbBlockBegin
  2
*D19
 70
     1
 10
0.0
 20
0.0
 30
0.0
  3
*D19
  1

  0
LINE
  5
24390
330
22AD5
100
AcDbEntity
  8
寸法
 62
     0
 48
50.0
370
    -2
100
AcDbLine
 10
9345.098243205596
 20
5250.354228189197
 30
0.0
 11
8729.163804100315
 21
5268.068378463527
 31
0.0
  0
LINE
  5
24391
330
22AD5
100
AcDbEntity
  8
寸法
 62
     0
 48
50.0
370
    -2
100
AcDbLine
 10
9341.044787648968
 20
5109.412504423485
 30
0.0
 11
8725.110348543688
 21
5127.126654697814
 31
0.0
  0
LINE
  5
24392
330
22AD5
100
AcDbEntity
  8
寸法
 62
     0
 48
50.0
370
    -2
100
AcDbLine
 10
8785.085550146121
 20
5125.401779992866
 30
0.0
 11
8789.139005702748
 21
5266.34350375858
 31
0.0
  0
LINE
  5
24393
330
22AD5
100
AcDbEntity
  8
寸法
 62
     0
 48
50.0
370
    -2
100
AcDbLine
 10
8789.139005702748
 20
5266.34350375858
 30
0.0
 11
8799.488253932432
 21
5626.194713373166
 31
0.0
  0
INSERT
  5
24394
330
22AD5
100
AcDbEntity
  8
寸法
 62
     0
 48
50.0
370
    -2
100
AcDbBlockReference
  2
_DOTSMALL
 10
8785.085550146121
 20
5125.401779992866
 30
0.0
 41
100.0
 42
100.0
 43
100.0
 50
268.3526390256378
  0
INSERT
  5
24395
330
22AD5
100
AcDbEntity
  8
寸法
 62
     0
 48
50.0
370
    -2
100
AcDbBlockReference
  2
_DOTSMALL
 10
8789.139005702748
 20
5266.34350375858
 30
0.0
 41
100.0
 42
100.0
 43
100.0
 50
88.35263902563776
  0
MTEXT
  5
24396
330
22AD5
100
AcDbEntity
  8
寸法
 62
     7
 48
50.0
100
AcDbMText
 10
8695.792356067659
 20
5499.123234409477
 30
0.0
 40
120.0
 41
0.0
 71
     5
 72
     1
  1
\A1;141
  7
STYLE1
 11
0.0287479117491237
 21
0.9995866933738488
 31
0.0
 73
     1
 44
1.0
1001
ACAD
1000
MTEXTBEGIN
1070
    73
1070
     1
1070
    44
1040
1.0
1070
    74
1070
     0
1000
MTEXTEND
  0
POINT
  5
24397
330
22AD5
100
AcDbEntity
  8
DEFPOINTS
 62
     0
 48
50.0
100
AcDbPoint
 10
9365.089977073072
 20
5249.779269954214
 30
0.0
  0
POINT
  5
24398
330
22AD5
100
AcDbEntity
  8
DEFPOINTS
 62
     0
 48
50.0
100
AcDbPoint
 10
9361.036521516446
 20
5108.837546188501
 30
0.0
  0
POINT
  5
24399
330
22AD5
100
AcDbEntity
  8
DEFPOINTS
 62
     0
 48
50.0
100
AcDbPoint
 10
8785.085550146121
 20
5125.401779992866
 30
0.0
  0
ENDBLK
  5
22AE1
330
22AD5
100
AcDbEntity
  8
0
 48
50.0
100
AcDbBlockEnd
  0
BLOCK
  5
22AEC
330
22AE2
100
AcDbEntity
  8
0
 48
50.0
100
AcDbBlockBegin
  2
*D20
 70
     1
 10
0.0
 20
0.0
 30
0.0
  3
*D20
  1

  0
LINE
  5
24387
330
22AE2
100
AcDbEntity
  8
寸法
 62
     0
 48
50.0
370
    -2
100
AcDbLine
 10
9313.193956914496
 20
2576.056521119534
 30
0.0
 11
9123.693953667858
 21
2576.056521119534
 31
0.0
  0
LINE
  5
24388
330
22AE2
100
AcDbEntity
  8
寸法
 62
     0
 48
50.0
370
    -2
100
AcDbLine
 10
9288.193956914494
 20
2776.056521119535
 30
0.0
 11
9123.693953667858
 21
2776.056521119536
 31
0.0
  0
LINE
  5
24389
330
22AE2
100
AcDbEntity
  8
寸法
 62
     0
 48
50.0
370
    -2
100
AcDbLine
 10
9183.693953667859
 20
2576.056521119534
 30
0.0
 11
9183.693953667859
 21
2776.056521119536
 31
0.0
  0
INSERT
  5
2438A
330
22AE2
100
AcDbEntity
  8
寸法
 62
     0
 48
50.0
370
    -2
100
AcDbBlockReference
  2
_DOTSMALL
 10
9183.693953667859
 20
2576.056521119534
 30
0.0
 41
100.0
 42
100.0
 43
100.0
 50
270.0
  0
INSERT
  5
2438B
330
22AE2
100
AcDbEntity
  8
寸法
 62
     0
 48
50.0
370
    -2
100
AcDbBlockReference
  2
_DOTSMALL
 10
9183.693953667859
 20
2776.056521119536
 30
0.0
 41
100.0
 42
100.0
 43
100.0
 50
90.0
  0
MTEXT
  5
2438C
330
22AE2
100
AcDbEntity
  8
寸法
 62
     7
 48
50.0
100
AcDbMText
 10
9083.682142644237
 20
2676.056521119536
 30
0.0
 40
120.0
 41
0.0
 71
     5
 72
     1
  1
\A1;200
  7
STYLE1
 11
0.0000000000000001
 21
1.0
 31
0.0
 73
     1
 44
1.0
1001
ACAD
1000
MTEXTBEGIN
1070
    73
1070
     1
1070
    44
1040
1.0
1070
    74
1070
     0
1000
MTEXTEND
  0
POINT
  5
2438D
330
22AE2
100
AcDbEntity
  8
DEFPOINTS
 62
     0
 48
50.0
100
AcDbPoint
 10
9333.193956914497
 20
2576.056521119534
 30
0.0
  0
POINT
  5
2438E
330
22AE2
100
AcDbEntity
  8
DEFPOINTS
 62
     0
 48
50.0
100
AcDbPoint
 10
9308.193956914491
 20
2776.056521119535
 30
0.0
  0
POINT
  5
2438F
330
22AE2
100
AcDbEntity
  8
DEFPOINTS
 62
     0
 48
50.0
100
AcDbPoint
 10
9183.693953667859
 20
2776.056521119536
 30
0.0
  0
ENDBLK
  5
22AED
330
22AE2
100
AcDbEntity
  8
0
 48
50.0
100
AcDbBlockEnd
  0
BLOCK
  5
22AF8
330
22AEE
100
AcDbEntity
  8
0
 48
50.0
100
AcDbBlockBegin
  2
*D21
 70
     1
 10
0.0
 20
0.0
 30
0.0
  3
*D21
  1

  0
LINE
  5
2437E
330
22AEE
100
AcDbEntity
  8
寸法
 62
     0
 48
50.0
370
    -2
100
AcDbLine
 10
9533.193956914493
 20
2556.056521119533
 30
0.0
 11
9533.193956914493
 21
2230.009191819157
 31
0.0
  0
LINE
  5
2437F
330
22AEE
100
AcDbEntity
  8
寸法
 62
     0
 48
50.0
370
    -2
100
AcDbLine
 10
9333.193956914497
 20
2556.056521119534
 30
0.0
 11
9333.193956914497
 21
2230.009191819157
 31
0.0
  0
LINE
  5
24380
330
22AEE
100
AcDbEntity
  8
寸法
 62
     0
 48
50.0
370
    -2
100
AcDbLine
 10
9533.193956914493
 20
2290.009191819157
 30
0.0
 11
9333.193956914497
 21
2290.009191819157
 31
0.0
  0
INSERT
  5
24381
330
22AEE
100
AcDbEntity
  8
寸法
 62
     0
 48
50.0
370
    -2
100
AcDbBlockReference
  2
_DOTSMALL
 10
9533.193956914493
 20
2290.009191819157
 30
0.0
 41
100.0
 42
100.0
 43
100.0
  0
INSERT
  5
24382
330
22AEE
100
AcDbEntity
  8
寸法
 62
     0
 48
50.0
370
    -2
100
AcDbBlockReference
  2
_DOTSMALL
 10
9333.193956914497
 20
2290.009191819157
 30
0.0
 41
100.0
 42
100.0
 43
100.0
 50
180.0
  0
MTEXT
  5
24383
330
22AEE
100
AcDbEntity
  8
寸法
 62
     7
 48
50.0
100
AcDbMText
 10
9433.193956914495
 20
2390.021002842779
 30
0.0
 40
120.0
 41
0.0
 71
     5
 72
     1
  1
\A1;200
  7
STYLE1
 73
     1
 44
1.0
1001
ACAD
1000
MTEXTBEGIN
1070
    73
1070
     1
1070
    44
1040
1.0
1070
    74
1070
     0
1000
MTEXTEND
  0
POINT
  5
24384
330
22AEE
100
AcDbEntity
  8
DEFPOINTS
 62
     0
 48
50.0
100
AcDbPoint
 10
9533.193956914493
 20
2576.056521119533
 30
0.0
  0
POINT
  5
24385
330
22AEE
100
AcDbEntity
  8
DEFPOINTS
 62
     0
 48
50.0
100
AcDbPoint
 10
9333.193956914497
 20
2576.056521119534
 30
0.0
  0
POINT
  5
24386
330
22AEE
100
AcDbEntity
  8
DEFPOINTS
 62
     0
 48
50.0
100
AcDbPoint
 10
9333.193956914497
 20
2290.009191819157
 30
0.0
  0
ENDBLK
  5
22AF9
330
22AEE
100
AcDbEntity
  8
0
 48
50.0
100
AcDbBlockEnd
  0
BLOCK
  5
23EE6
330
23EDC
100
AcDbEntity
  8
0
 48
50.0
100
AcDbBlockBegin
  2
*D22
 70
     1
 10
0.0
 20
0.0
 30
0.0
  3
*D22
  1

  0
LINE
  5
24375
330
23EDC
100
AcDbEntity
  8
寸法
 62
     0
 48
50.0
370
    -2
100
AcDbLine
 10
5209.896575106991
 20
5271.056521119541
 30
0.0
 11
5209.896575106991
 21
5731.426910268431
 31
0.0
  0
LINE
  5
24376
330
23EDC
100
AcDbEntity
  8
寸法
 62
     0
 48
50.0
370
    -2
100
AcDbLine
 10
7519.896575107009
 20
5271.056521119538
 30
0.0
 11
7519.896575107009
 21
5731.426910268431
 31
0.0
  0
LINE
  5
24377
330
23EDC
100
AcDbEntity
  8
寸法
 62
     0
 48
50.0
370
    -2
100
AcDbLine
 10
5209.896575106991
 20
5671.42691026843
 30
0.0
 11
7519.896575107009
 21
5671.42691026843
 31
0.0
  0
INSERT
  5
24378
330
23EDC
100
AcDbEntity
  8
寸法
 62
     0
 48
50.0
370
    -2
100
AcDbBlockReference
  2
_DOTSMALL
 10
5209.896575106991
 20
5671.42691026843
 30
0.0
 41
100.0
 42
100.0
 43
100.0
 50
180.0
  0
INSERT
  5
24379
330
23EDC
100
AcDbEntity
  8
寸法
 62
     0
 48
50.0
370
    -2
100
AcDbBlockReference
  2
_DOTSMALL
 10
7519.896575107009
 20
5671.42691026843
 30
0.0
 41
100.0
 42
100.0
 43
100.0
  0
MTEXT
  5
2437A
330
23EDC
100
AcDbEntity
  8
寸法
 62
     7
 48
50.0
100
AcDbMText
 10
6358.975848044829
 20
5771.438721292052
 30
0.0
 40
120.0
 41
0.0
 71
     5
 72
     1
  1
\A1;2310
  7
STYLE1
 73
     1
 44
1.0
1001
ACAD
1000
MTEXTBEGIN
1070
    73
1070
     1
1070
    44
1040
1.0
1070
    74
1070
     0
1000
MTEXTEND
  0
POINT
  5
2437B
330
23EDC
100
AcDbEntity
  8
DEFPOINTS
 62
     0
 48
50.0
100
AcDbPoint
 10
5209.896575106991
 20
5251.05652111954
 30
0.0
  0
POINT
  5
2437C
330
23EDC
100
AcDbEntity
  8
DEFPOINTS
 62
     0
 48
50.0
100
AcDbPoint
 10
7519.896575107009
 20
5251.056521119538
 30
0.0
  0
POINT
  5
2437D
330
23EDC
100
AcDbEntity
  8
DEFPOINTS
 62
     0
 48
50.0
100
AcDbPoint
 10
7519.896575107009
 20
5671.42691026843
 30
0.0
  0
ENDBLK
  5
23EE7
330
23EDC
100
AcDbEntity
  8
0
 48
50.0
100
AcDbBlockEnd
  0
BLOCK
  5
23EF4
330
23EE8
100
AcDbEntity
  8
0
 48
50.0
100
AcDbBlockBegin
  2
*D23
 70
     1
 10
0.0
 20
0.0
 30
0.0
  3
*D23
  1

  0
LINE
  5
2436A
330
23EE8
100
AcDbEntity
  8
寸法
 62
     0
 48
50.0
370
    -2
100
AcDbLine
 10
7519.896575107009
 20
5271.056521119538
 30
0.0
 11
7519.896575107009
 21
5515.676780546808
 31
0.0
  0
LINE
  5
2436B
330
23EE8
100
AcDbEntity
  8
寸法
 62
     0
 48
50.0
370
    -2
100
AcDbLine
 10
7469.896575107011
 20
5271.056521119541
 30
0.0
 11
7469.896575107011
 21
5515.676780546808
 31
0.0
  0
LINE
  5
2436C
330
23EE8
100
AcDbEntity
  8
寸法
 62
     0
 48
50.0
370
    -2
100
AcDbLine
 10
7469.896575107011
 20
5455.676780546808
 30
0.0
 11
7369.89657510701
 21
5455.676780546808
 31
0.0
  0
LINE
  5
2436D
330
23EE8
100
AcDbEntity
  8
寸法
 62
     0
 48
50.0
370
    -2
100
AcDbLine
 10
7519.896575107009
 20
5455.676780546808
 30
0.0
 11
7939.429100575736
 21
5455.676780546808
 31
0.0
  0
LINE
  5
2436E
330
23EE8
100
AcDbEntity
  8
寸法
 62
     0
 48
50.0
370
    -2
100
AcDbLine
 10
7469.896575107011
 20
5455.676780546808
 30
0.0
 11
7519.896575107009
 21
5455.676780546808
 31
0.0
  0
INSERT
  5
2436F
330
23EE8
100
AcDbEntity
  8
寸法
 62
     0
 48
50.0
370
    -2
100
AcDbBlockReference
  2
_DOTSMALL
 10
7469.896575107011
 20
5455.676780546808
 30
0.0
 41
100.0
 42
100.0
 43
100.0
  0
INSERT
  5
24370
330
23EE8
100
AcDbEntity
  8
寸法
 62
     0
 48
50.0
370
    -2
100
AcDbBlockReference
  2
_DOTSMALL
 10
7519.896575107009
 20
5455.676780546808
 30
0.0
 41
100.0
 42
100.0
 43
100.0
 50
180.0
  0
MTEXT
  5
24371
330
23EE8
100
AcDbEntity
  8
寸法
 62
     7
 48
50.0
100
AcDbMText
 10
7833.381856481247
 20
5555.676780546808
 30
0.0
 40
120.0
 41
0.0
 71
     5
 72
     1
  1
\A1;50
  7
STYLE1
 73
     1
 44
1.0
1001
ACAD
1000
MTEXTBEGIN
1070
    73
1070
     1
1070
    44
1040
1.0
1070
    74
1070
     0
1000
MTEXTEND
  0
POINT
  5
24372
330
23EE8
100
AcDbEntity
  8
DEFPOINTS
 62
     0
 48
50.0
100
AcDbPoint
 10
7519.896575107009
 20
5251.056521119538
 30
0.0
  0
POINT
  5
24373
330
23EE8
100
AcDbEntity
  8
DEFPOINTS
 62
     0
 48
50.0
100
AcDbPoint
 10
7469.896575107011
 20
5251.05652111954
 30
0.0
  0
POINT
  5
24374
330
23EE8
100
AcDbEntity
  8
DEFPOINTS
 62
     0
 48
50.0
100
AcDbPoint
 10
7469.896575107011
 20
5455.676780546808
 30
0.0
  0
ENDBLK
  5
23EF5
330
23EE8
100
AcDbEntity
  8
0
 48
50.0
100
AcDbBlockEnd
  0
BLOCK
  5
23F02
330
23EF6
100
AcDbEntity
  8
0
 48
50.0
100
AcDbBlockBegin
  2
*D24
 70
     1
 10
0.0
 20
0.0
 30
0.0
  3
*D24
  1

  0
LINE
  5
2435F
330
23EF6
100
AcDbEntity
  8
寸法
 62
     0
 48
50.0
370
    -2
100
AcDbLine
 10
5259.896575106991
 20
5271.056521119541
 30
0.0
 11
5259.896575106991
 21
5515.676780546808
 31
0.0
  0
LINE
  5
24360
330
23EF6
100
AcDbEntity
  8
寸法
 62
     0
 48
50.0
370
    -2
100
AcDbLine
 10
5209.896575106991
 20
5271.056521119541
 30
0.0
 11
5209.896575106991
 21
5515.676780546808
 31
0.0
  0
LINE
  5
24361
330
23EF6
100
AcDbEntity
  8
寸法
 62
     0
 48
50.0
370
    -2
100
AcDbLine
 10
5259.896575106991
 20
5455.676780546808
 30
0.0
 11
5359.896575106991
 21
5455.676780546808
 31
0.0
  0
LINE
  5
24362
330
23EF6
100
AcDbEntity
  8
寸法
 62
     0
 48
50.0
370
    -2
100
AcDbLine
 10
5209.896575106991
 20
5455.676780546808
 30
0.0
 11
4790.364049638257
 21
5455.676780546808
 31
0.0
  0
LINE
  5
24363
330
23EF6
100
AcDbEntity
  8
寸法
 62
     0
 48
50.0
370
    -2
100
AcDbLine
 10
5259.896575106991
 20
5455.676780546808
 30
0.0
 11
5209.896575106991
 21
5455.676780546808
 31
0.0
  0
INSERT
  5
24364
330
23EF6
100
AcDbEntity
  8
寸法
 62
     0
 48
50.0
370
    -2
100
AcDbBlockReference
  2
_DOTSMALL
 10
5259.896575106991
 20
5455.676780546808
 30
0.0
 41
100.0
 42
100.0
 43
100.0
 50
180.0
  0
INSERT
  5
24365
330
23EF6
100
AcDbEntity
  8
寸法
 62
     0
 48
50.0
370
    -2
100
AcDbBlockReference
  2
_DOTSMALL
 10
5209.896575106991
 20
5455.676780546808
 30
0.0
 41
100.0
 42
100.0
 43
100.0
  0
MTEXT
  5
24366
330
23EF6
100
AcDbEntity
  8
寸法
 62
     7
 48
50.0
100
AcDbMText
 10
4896.411293732746
 20
5555.676780546808
 30
0.0
 40
120.0
 41
0.0
 71
     5
 72
     1
  1
\A1;50
  7
STYLE1
 73
     1
 44
1.0
1001
ACAD
1000
MTEXTBEGIN
1070
    73
1070
     1
1070
    44
1040
1.0
1070
    74
1070
     0
1000
MTEXTEND
  0
POINT
  5
24367
330
23EF6
100
AcDbEntity
  8
DEFPOINTS
 62
     0
 48
50.0
100
AcDbPoint
 10
5259.896575106991
 20
5251.056521119542
 30
0.0
  0
POINT
  5
24368
330
23EF6
100
AcDbEntity
  8
DEFPOINTS
 62
     0
 48
50.0
100
AcDbPoint
 10
5209.896575106991
 20
5251.05652111954
 30
0.0
  0
POINT
  5
24369
330
23EF6
100
AcDbEntity
  8
DEFPOINTS
 62
     0
 48
50.0
100
AcDbPoint
 10
5209.896575106991
 20
5455.676780546808
 30
0.0
  0
ENDBLK
  5
23F03
330
23EF6
100
AcDbEntity
  8
0
 48
50.0
100
AcDbBlockEnd
  0
BLOCK
  5
23F0E
330
23F04
100
AcDbEntity
  8
0
 48
50.0
100
AcDbBlockBegin
  2
*D25
 70
     1
 10
0.0
 20
0.0
 30
0.0
  3
*D25
  1

  0
LINE
  5
24356
330
23F04
100
AcDbEntity
  8
寸法
 62
     0
 48
50.0
370
    -2
100
AcDbLine
 10
7469.896575107011
 20
5271.056521119541
 30
0.0
 11
7469.896575107011
 21
5515.198752387528
 31
0.0
  0
LINE
  5
24357
330
23F04
100
AcDbEntity
  8
寸法
 62
     0
 48
50.0
370
    -2
100
AcDbLine
 10
5259.896575106991
 20
5271.056521119541
 30
0.0
 11
5259.896575106991
 21
5515.198752387528
 31
0.0
  0
LINE
  5
24358
330
23F04
100
AcDbEntity
  8
寸法
 62
     0
 48
50.0
370
    -2
100
AcDbLine
 10
7469.896575107011
 20
5455.198752387527
 30
0.0
 11
5259.896575106991
 21
5455.198752387527
 31
0.0
  0
INSERT
  5
24359
330
23F04
100
AcDbEntity
  8
寸法
 62
     0
 48
50.0
370
    -2
100
AcDbBlockReference
  2
_DOTSMALL
 10
7469.896575107011
 20
5455.198752387527
 30
0.0
 41
100.0
 42
100.0
 43
100.0
  0
INSERT
  5
2435A
330
23F04
100
AcDbEntity
  8
寸法
 62
     0
 48
50.0
370
    -2
100
AcDbBlockReference
  2
_DOTSMALL
 10
5259.896575106991
 20
5455.198752387527
 30
0.0
 41
100.0
 42
100.0
 43
100.0
 50
180.0
  0
MTEXT
  5
2435B
330
23F04
100
AcDbEntity
  8
寸法
 62
     7
 48
50.0
100
AcDbMText
 10
6397.940818449586
 20
5555.21056341115
 30
0.0
 40
120.0
 41
0.0
 71
     5
 72
     1
  1
\A1;柱外寸法2210
  7
STYLE1
 73
     1
 44
1.0
1001
ACAD
1000
MTEXTBEGIN
1070
    73
1070
     1
1070
    44
1040
1.0
1070
    74
1070
     0
1000
MTEXTEND
  0
POINT
  5
2435C
330
23F04
100
AcDbEntity
  8
DEFPOINTS
 62
     0
 48
50.0
100
AcDbPoint
 10
7469.896575107011
 20
5251.05652111954
 30
0.0
  0
POINT
  5
2435D
330
23F04
100
AcDbEntity
  8
DEFPOINTS
 62
     0
 48
50.0
100
AcDbPoint
 10
5259.896575106991
 20
5251.056521119542
 30
0.0
  0
POINT
  5
2435E
330
23F04
100
AcDbEntity
  8
DEFPOINTS
 62
     0
 48
50.0
100
AcDbPoint
 10
5259.896575106991
 20
5455.198752387527
 30
0.0
  0
ENDBLK
  5
23F0F
330
23F04
100
AcDbEntity
  8
0
 48
50.0
100
AcDbBlockEnd
  0
BLOCK
  5
24267
330
2425D
100
AcDbEntity
  8
0
 48
50.0
100
AcDbBlockBegin
  2
*D26
 70
     1
 10
0.0
 20
0.0
 30
0.0
  3
*D26
  1

  0
LINE
  5
24344
330
2425D
100
AcDbEntity
  8
寸法
 62
     0
 48
50.0
370
    -2
100
AcDbLine
 10
11635.69395691449
 20
2876.056521119535
 30
0.0
 11
12380.62111488662
 21
2876.056521119535
 31
0.0
  0
LINE
  5
24345
330
2425D
100
AcDbEntity
  8
寸法
 62
     0
 48
50.0
370
    -2
100
AcDbLine
 10
11715.69395691449
 20
5196.056521119537
 30
0.0
 11
12380.62111488662
 21
5196.056521119537
 31
0.0
  0
LINE
  5
24346
330
2425D
100
AcDbEntity
  8
寸法
 62
     0
 48
50.0
370
    -2
100
AcDbLine
 10
12320.62111488662
 20
2876.056521119535
 30
0.0
 11
12320.62111488662
 21
5196.056521119537
 31
0.0
  0
INSERT
  5
24347
330
2425D
100
AcDbEntity
  8
寸法
 62
     0
 48
50.0
370
    -2
100
AcDbBlockReference
  2
_DOTSMALL
 10
12320.62111488662
 20
2876.056521119535
 30
0.0
 41
100.0
 42
100.0
 43
100.0
 50
270.0
  0
INSERT
  5
24348
330
2425D
100
AcDbEntity
  8
寸法
 62
     0
 48
50.0
370
    -2
100
AcDbBlockReference
  2
_DOTSMALL
 10
12320.62111488662
 20
5196.056521119537
 30
0.0
 41
100.0
 42
100.0
 43
100.0
 50
90.0
  0
MTEXT
  5
24349
330
2425D
100
AcDbEntity
  8
寸法
 62
     7
 48
50.0
100
AcDbMText
 10
12220.60930386299
 20
4036.056521119538
 30
0.0
 40
120.0
 41
0.0
 71
     5
 72
     1
  1
\A1;2320
  7
STYLE1
 11
0.0000000000000001
 21
1.0
 31
0.0
 73
     1
 44
1.0
1001
ACAD
1000
MTEXTBEGIN
1070
    73
1070
     1
1070
    44
1040
1.0
1070
    74
1070
     0
1000
MTEXTEND
  0
POINT
  5
2434A
330
2425D
100
AcDbEntity
  8
DEFPOINTS
 62
     0
 48
50.0
100
AcDbPoint
 10
11615.69395691449
 20
2876.056521119535
 30
0.0
  0
POINT
  5
2434B
330
2425D
100
AcDbEntity
  8
DEFPOINTS
 62
     0
 48
50.0
100
AcDbPoint
 10
11695.69395691449
 20
5196.056521119537
 30
0.0
  0
POINT
  5
2434C
330
2425D
100
AcDbEntity
  8
DEFPOINTS
 62
     0
 48
50.0
100
AcDbPoint
 10
12320.62111488662
 20
5196.056521119537
 30
0.0
  0
ENDBLK
  5
24268
330
2425D
100
AcDbEntity
  8
0
 48
50.0
100
AcDbBlockEnd
  0
BLOCK
  5
2427F
330
24275
100
AcDbEntity
  8
0
 48
50.0
100
AcDbBlockBegin
  2
*D27
 70
     1
 10
0.0
 20
0.0
 30
0.0
  3
*D27
  1

  0
LINE
  5
24329
330
24275
100
AcDbEntity
  8
寸法
 62
     0
 48
50.0
370
    -2
100
AcDbLine
 10
9385.693956914492
 20
5008.056521119535
 30
0.0
 11
8800.78531551724
 21
5008.056521119535
 31
0.0
  0
LINE
  5
2432A
330
24275
100
AcDbEntity
  8
寸法
 62
     0
 48
50.0
370
    -2
100
AcDbLine
 10
9385.693956914492
 20
2938.056521119536
 30
0.0
 11
8800.785315517238
 21
2938.056521119536
 31
0.0
  0
LINE
  5
2432B
330
24275
100
AcDbEntity
  8
寸法
 62
     0
 48
50.0
370
    -2
100
AcDbLine
 10
8860.785315517238
 20
5008.056521119535
 30
0.0
 11
8860.785315517238
 21
2938.056521119536
 31
0.0
  0
INSERT
  5
2432C
330
24275
100
AcDbEntity
  8
寸法
 62
     0
 48
50.0
370
    -2
100
AcDbBlockReference
  2
_DOTSMALL
 10
8860.785315517238
 20
5008.056521119535
 30
0.0
 41
100.0
 42
100.0
 43
100.0
 50
90.0
  0
INSERT
  5
2432D
330
24275
100
AcDbEntity
  8
寸法
 62
     0
 48
50.0
370
    -2
100
AcDbBlockReference
  2
_DOTSMALL
 10
8860.785315517238
 20
2938.056521119536
 30
0.0
 41
100.0
 42
100.0
 43
100.0
 50
270.0
  0
MTEXT
  5
2432E
330
24275
100
AcDbEntity
  8
寸法
 62
     7
 48
50.0
100
AcDbMText
 10
8760.773504493617
 20
3973.056521119537
 30
0.0
 40
120.0
 41
0.0
 71
     5
 72
     1
  1
\A1;有効開口部高サ2070
  7
STYLE1
 11
0.0000000000000001
 21
1.0
 31
0.0
 73
     1
 44
1.0
1001
ACAD
1000
MTEXTBEGIN
1070
    73
1070
     1
1070
    44
1040
1.0
1070
    74
1070
     0
1000
MTEXTEND
  0
POINT
  5
2432F
330
24275
100
AcDbEntity
  8
DEFPOINTS
 62
     0
 48
50.0
100
AcDbPoint
 10
9405.693956914493
 20
5008.056521119535
 30
0.0
  0
POINT
  5
24330
330
24275
100
AcDbEntity
  8
DEFPOINTS
 62
     0
 48
50.0
100
AcDbPoint
 10
9405.693956914493
 20
2938.056521119536
 30
0.0
  0
POINT
  5
24331
330
24275
100
AcDbEntity
  8
DEFPOINTS
 62
     0
 48
50.0
100
AcDbPoint
 10
8860.785315517238
 20
2938.056521119536
 30
0.0
  0
ENDBLK
  5
24280
330
24275
100
AcDbEntity
  8
0
 48
50.0
100
AcDbBlockEnd
  0
BLOCK
  5
2428B
330
24281
100
AcDbEntity
  8
0
 48
50.0
100
AcDbBlockBegin
  2
*D28
 70
     1
 10
0.0
 20
0.0
 30
0.0
  3
*D28
  1

  0
LINE
  5
24332
330
24281
100
AcDbEntity
  8
寸法
 62
     0
 48
50.0
370
    -2
100
AcDbLine
 10
9385.693956914492
 20
5016.056521119535
 30
0.0
 11
8501.943827731235
 21
5016.056521119535
 31
0.0
  0
LINE
  5
24333
330
24281
100
AcDbEntity
  8
寸法
 62
     0
 48
50.0
370
    -2
100
AcDbLine
 10
9385.693956914492
 20
2926.056521119535
 30
0.0
 11
8501.943827731233
 21
2926.056521119536
 31
0.0
  0
LINE
  5
24334
330
24281
100
AcDbEntity
  8
寸法
 62
     0
 48
50.0
370
    -2
100
AcDbLine
 10
8561.943827731235
 20
5016.056521119535
 30
0.0
 11
8561.943827731232
 21
2926.056521119536
 31
0.0
  0
INSERT
  5
24335
330
24281
100
AcDbEntity
  8
寸法
 62
     0
 48
50.0
370
    -2
100
AcDbBlockReference
  2
_DOTSMALL
 10
8561.943827731235
 20
5016.056521119535
 30
0.0
 41
100.0
 42
100.0
 43
100.0
 50
90.0
  0
INSERT
  5
24336
330
24281
100
AcDbEntity
  8
寸法
 62
     0
 48
50.0
370
    -2
100
AcDbBlockReference
  2
_DOTSMALL
 10
8561.943827731232
 20
2926.056521119536
 30
0.0
 41
100.0
 42
100.0
 43
100.0
 50
270.0
  0
MTEXT
  5
24337
330
24281
100
AcDbEntity
  8
寸法
 62
     7
 48
50.0
100
AcDbMText
 10
8461.932016707612
 20
3971.056521119537
 30
0.0
 40
120.0
 41
0.0
 71
     5
 72
     1
  1
\A1;2090
  7
STYLE1
 11
0.0000000000000001
 21
1.0
 31
0.0
 73
     1
 44
1.0
1001
ACAD
1000
MTEXTBEGIN
1070
    73
1070
     1
1070
    44
1040
1.0
1070
    74
1070
     0
1000
MTEXTEND
  0
POINT
  5
24338
330
24281
100
AcDbEntity
  8
DEFPOINTS
 62
     0
 48
50.0
100
AcDbPoint
 10
9405.693956914493
 20
5016.056521119535
 30
0.0
  0
POINT
  5
24339
330
24281
100
AcDbEntity
  8
DEFPOINTS
 62
     0
 48
50.0
100
AcDbPoint
 10
9405.693956914493
 20
2926.056521119535
 30
0.0
  0
POINT
  5
2433A
330
24281
100
AcDbEntity
  8
DEFPOINTS
 62
     0
 48
50.0
100
AcDbPoint
 10
8561.943827731232
 20
2926.056521119536
 30
0.0
  0
ENDBLK
  5
2428C
330
24281
100
AcDbEntity
  8
0
 48
50.0
100
AcDbBlockEnd
  0
BLOCK
  5
24297
330
2428D
100
AcDbEntity
  8
0
 48
50.0
100
AcDbBlockBegin
  2
*D29
 70
     1
 10
0.0
 20
0.0
 30
0.0
  3
*D29
  1

  0
LINE
  5
2433B
330
2428D
100
AcDbEntity
  8
寸法
 62
     0
 48
50.0
370
    -2
100
AcDbLine
 10
9385.693956914492
 20
2876.056521119535
 30
0.0
 11
8201.943827731232
 21
2876.056521119536
 31
0.0
  0
LINE
  5
2433C
330
2428D
100
AcDbEntity
  8
寸法
 62
     0
 48
50.0
370
    -2
100
AcDbLine
 10
9325.693956914497
 20
5251.05652111954
 30
0.0
 11
8201.943827731232
 21
5251.05652111954
 31
0.0
  0
LINE
  5
2433D
330
2428D
100
AcDbEntity
  8
寸法
 62
     0
 48
50.0
370
    -2
100
AcDbLine
 10
8261.943827731231
 20
2876.056521119536
 30
0.0
 11
8261.943827731233
 21
5251.05652111954
 31
0.0
  0
INSERT
  5
2433E
330
2428D
100
AcDbEntity
  8
寸法
 62
     0
 48
50.0
370
    -2
100
AcDbBlockReference
  2
_DOTSMALL
 10
8261.943827731231
 20
2876.056521119536
 30
0.0
 41
100.0
 42
100.0
 43
100.0
 50
270.0
  0
INSERT
  5
2433F
330
2428D
100
AcDbEntity
  8
寸法
 62
     0
 48
50.0
370
    -2
100
AcDbBlockReference
  2
_DOTSMALL
 10
8261.943827731233
 20
5251.05652111954
 30
0.0
 41
100.0
 42
100.0
 43
100.0
 50
90.0
  0
MTEXT
  5
24340
330
2428D
100
AcDbEntity
  8
寸法
 62
     7
 48
50.0
100
AcDbMText
 10
8161.932016707609
 20
4063.556521119539
 30
0.0
 40
120.0
 41
0.0
 71
     5
 72
     1
  1
\A1;2375
  7
STYLE1
 11
0.0000000000000001
 21
1.0
 31
0.0
 73
     1
 44
1.0
1001
ACAD
1000
MTEXTBEGIN
1070
    73
1070
     1
1070
    44
1040
1.0
1070
    74
1070
     0
1000
MTEXTEND
  0
POINT
  5
24341
330
2428D
100
AcDbEntity
  8
DEFPOINTS
 62
     0
 48
50.0
100
AcDbPoint
 10
9405.693956914493
 20
2876.056521119535
 30
0.0
  0
POINT
  5
24342
330
2428D
100
AcDbEntity
  8
DEFPOINTS
 62
     0
 48
50.0
100
AcDbPoint
 10
9345.693956914496
 20
5251.05652111954
 30
0.0
  0
POINT
  5
24343
330
2428D
100
AcDbEntity
  8
DEFPOINTS
 62
     0
 48
50.0
100
AcDbPoint
 10
8261.943827731233
 20
5251.05652111954
 30
0.0
  0
ENDBLK
  5
24298
330
2428D
100
AcDbEntity
  8
0
 48
50.0
100
AcDbBlockEnd
  0
BLOCK
  5
243F9
330
243EF
100
AcDbEntity
  8
0
 48
50.0
100
AcDbBlockBegin
  2
*D30
 70
     1
 10
0.0
 20
0.0
 30
0.0
  3
*D30
  1

  0
LINE
  5
243FB
330
243EF
100
AcDbEntity
  8
寸法
 62
     0
 48
50.0
370
    -2
100
AcDbLine
 10
7574.896575107008
 20
2556.056521119534
 30
0.0
 11
7574.896575107008
 21
2230.009191819158
 31
0.0
  0
LINE
  5
243FC
330
243EF
100
AcDbEntity
  8
寸法
 62
     0
 48
50.0
370
    -2
100
AcDbLine
 10
7374.896575107012
 20
2556.056521119535
 30
0.0
 11
7374.896575107012
 21
2230.009191819158
 31
0.0
  0
LINE
  5
243FD
330
243EF
100
AcDbEntity
  8
寸法
 62
     0
 48
50.0
370
    -2
100
AcDbLine
 10
7574.896575107008
 20
2290.009191819157
 30
0.0
 11
7374.896575107012
 21
2290.009191819157
 31
0.0
  0
INSERT
  5
243FE
330
243EF
100
AcDbEntity
  8
寸法
 62
     0
 48
50.0
370
    -2
100
AcDbBlockReference
  2
_DOTSMALL
 10
7574.896575107008
 20
2290.009191819157
 30
0.0
 41
100.0
 42
100.0
 43
100.0
  0
INSERT
  5
243FF
330
243EF
100
AcDbEntity
  8
寸法
 62
     0
 48
50.0
370
    -2
100
AcDbBlockReference
  2
_DOTSMALL
 10
7374.896575107012
 20
2290.009191819157
 30
0.0
 41
100.0
 42
100.0
 43
100.0
 50
180.0
  0
MTEXT
  5
24400
330
243EF
100
AcDbEntity
  8
寸法
 62
     7
 48
50.0
100
AcDbMText
 10
7474.896575107009
 20
2390.02100284278
 30
0.0
 40
120.0
 41
0.0
 71
     5
 72
     1
  1
\A1;200
  7
STYLE1
 73
     1
 44
1.0
1001
ACAD
1000
MTEXTBEGIN
1070
    73
1070
     1
1070
    44
1040
1.0
1070
    74
1070
     0
1000
MTEXTEND
  0
POINT
  5
24401
330
243EF
100
AcDbEntity
  8
DEFPOINTS
 62
     0
 48
50.0
100
AcDbPoint
 10
7574.896575107008
 20
2576.056521119534
 30
0.0
  0
POINT
  5
24402
330
243EF
100
AcDbEntity
  8
DEFPOINTS
 62
     0
 48
50.0
100
AcDbPoint
 10
7374.896575107012
 20
2576.056521119534
 30
0.0
  0
POINT
  5
24403
330
243EF
100
AcDbEntity
  8
DEFPOINTS
 62
     0
 48
50.0
100
AcDbPoint
 10
7374.896575107012
 20
2290.009191819157
 30
0.0
  0
ENDBLK
  5
243FA
330
243EF
100
AcDbEntity
  8
0
 48
50.0
100
AcDbBlockEnd
  0
ENDSEC
  0
SECTION
  2
ENTITIES
  0
LINE
  5
10B57
330
747D
100
AcDbEntity
  8
補助
  6
PHANTOM
 62
   230
 48
50.0
100
AcDbLine
 10
139.9999999999995
 20
11409.6
 30
0.0
 11
16307.2
 21
11409.6
 31
0.0
  0
LINE
  5
10B59
330
747D
100
AcDbEntity
  8
仕様書枠
  6
Continuous
 48
50.0
100
AcDbLine
 10
13107.2
 20
1200.0
 30
0.0
 11
13107.2
 21
-0.0000000000000729
 31
0.0
  0
LINE
  5
10B5C
330
747D
100
AcDbEntity
  8
仕様書枠
 48
50.0
100
AcDbLine
 10
16307.2
 20
1200.0
 30
0.0
 11
16307.2
 21
-0.0000000000000909
 31
0.0
  0
LINE
  5
10B5D
330
747D
100
AcDbEntity
  8
仕様書枠
 48
50.0
100
AcDbLine
 10
140.0
 20
0.0
 30
0.0
 11
16307.2
 21
-0.0000000000000909
 31
0.0
  0
LINE
  5
10B5E
330
747D
100
AcDbEntity
  8
補助
  6
PHANTOM
 62
   230
 48
50.0
100
AcDbLine
 10
16307.2
 20
11409.6
 30
0.0
 11
16307.2
 21
1200.0
 31
0.0
  0
LINE
  5
10B6C
330
747D
100
AcDbEntity
  8
仕様書枠
 48
50.0
100
AcDbLine
 10
13107.2
 20
1200.0
 30
0.0
 11
16307.2
 21
1200.0
 31
0.0
  0
LINE
  5
10B6D
330
747D
100
AcDbEntity
  8
補助
  6
PHANTOM
 62
   230
 48
50.0
100
AcDbLine
 10
13107.2
 20
11409.6
 30
0.0
 11
13107.2
 21
4800.0
 31
0.0
  0
LINE
  5
10B6F
330
747D
100
AcDbEntity
  8
補助
  6
PHANTOM
 62
   230
 48
50.0
100
AcDbLine
 10
13107.2
 20
4800.0
 30
0.0
 11
16307.2
 21
4800.0
 31
0.0
  0
LINE
  5
10B72
330
747D
100
AcDbEntity
  8
文字
 62
     7
 48
50.0
100
AcDbLine
 10
13187.2
 20
400.0
 30
0.0
 11
16227.2
 21
400.0
 31
0.0
  0
TEXT
  5
10B73
330
747D
100
AcDbEntity
  8
文字
 62
     7
 48
50.0
100
AcDbText
 10
13162.9790565769
 20
895.0906074299405
 30
0.0
 40
200.0
  1
外 形 図
  7
STYLE2
100
AcDbText
  0
TEXT
  5
10B74
330
747D
100
AcDbEntity
  8
文字
 62
     7
 48
50.0
100
AcDbText
 10
13201.43669998441
 20
477.2740661031255
 30
0.0
 40
160.0
  1
機種名
  7
STYLE2
100
AcDbText
  0
TEXT
  5
10B75
330
747D
100
AcDbEntity
  8
文字
 62
     7
 48
50.0
100
AcDbText
 10
13209.4053442172
 20
228.5435242569016
 30
0.0
 40
100.0
  1
○有効開口寸法 ： 1278×2070(mm)
  7
STYLE2
100
AcDbText
  0
TEXT
  5
10B79
330
747D
100
AcDbEntity
  8
文字
 62
     7
 48
50.0
100
AcDbText
 10
14524.131837222
 20
1031.557706291228
 30
0.0
 40
100.0
  1
NO.21      <縮尺> S=1/40
  7
STYLE2
100
AcDbText
  0
LINE
  5
10B7B
330
747D
100
AcDbEntity
  8
仕様書枠
 48
50.0
100
AcDbLine
 10
13107.2
 20
800.0
 30
0.0
 11
14251.2
 21
800.0
 31
0.0
  0
LINE
  5
10B88
330
747D
100
AcDbEntity
  8
仕様書枠
  6
Continuous
 48
50.0
100
AcDbLine
 10
14251.2
 20
1200.0
 30
0.0
 11
14251.2
 21
800.0
 31
0.0
  0
LINE
  5
12765
330
747D
100
AcDbEntity
  8
Ｇ．Ｌ
100
AcDbLine
 10
4541.629972436509
 20
2776.056521119536
 30
0.0
 11
12273.06005379525
 21
2776.056521119536
 31
0.0
  0
TEXT
  5
127AA
330
747D
100
AcDbEntity
  8
部品1
100
AcDbText
 10
4599.545247166584
 20
2790.01024915876
 30
0.0
 40
125.0
  1
▽G.L
  7
STYLE2
100
AcDbText
  0
DIMENSION
  5
14521
330
747D
100
AcDbEntity
  8
寸法
100
AcDbDimension
  2
*D1
 10
5314.896575107013
 20
10002.41637535741
 30
0.0
 11
4951.411293732741
 21
10002.41637535741
 31
0.0
 70
   160
 71
     5
 42
55.00000000003456
  3
INABA_S40G
100
AcDbAlignedDimension
 13
5259.896575106979
 23
9786.608155732432
 33
0.0
 14
5314.896575107013
 24
9786.608155732432
 34
0.0
100
AcDbRotatedDimension
1001
ACAD
1000
DSTYLE
1002
{
1002
}
  0
LINE
  5
14522
330
747D
100
AcDbEntity
  8
部品1
100
AcDbLine
 10
5734.896575106979
 20
9786.608155732402
 30
0.0
 11
5734.896575106981
 21
9758.608155732403
 31
0.0
  0
LINE
  5
14523
330
747D
100
AcDbEntity
  8
部品1
100
AcDbLine
 10
5259.89657510693
 20
9786.608155732416
 30
0.0
 11
5259.896575106995
 21
7576.608155732398
 31
0.0
  0
LINE
  5
14524
330
747D
100
AcDbEntity
  8
部品1
100
AcDbLine
 10
7414.896575107015
 20
9786.60815573253
 30
0.0
 11
7414.896575107015
 21
9758.608155732529
 31
0.0
  0
LINE
  5
14525
330
747D
100
AcDbEntity
  8
部品1
100
AcDbLine
 10
7414.896575107015
 20
9786.608155732549
 30
0.0
 11
7414.896575107015
 21
9758.608155732549
 31
0.0
  0
DIMENSION
  5
14526
330
747D
100
AcDbEntity
  8
寸法
100
AcDbDimension
  2
*D2
 10
8410.743036823749
 20
7576.608155732529
 30
0.0
 11
8410.743036823747
 21
8632.096595935975
 31
0.0
 70
   160
 71
     5
 42
2209.999999999996
  3
INABA_S40G
100
AcDbAlignedDimension
 13
7469.89657510703
 23
9786.608155732526
 33
0.0
 14
7469.896575106976
 24
7576.608155732529
 34
0.0
 50
90.0
100
AcDbRotatedDimension
1001
ACAD
1000
DSTYLE
1002
{
1002
}
  0
LINE
  5
14527
330
747D
100
AcDbEntity
  8
部品1
100
AcDbLine
 10
7469.89657510703
 20
9786.608155732526
 30
0.0
 11
7469.896575106976
 21
7576.608155732529
 31
0.0
  0
LINE
  5
14528
330
747D
100
AcDbEntity
  8
部品1
100
AcDbLine
 10
6994.896575107013
 20
9786.608155732549
 30
0.0
 11
6994.896575107013
 21
9758.608155732549
 31
0.0
  0
LINE
  5
14529
330
747D
100
AcDbEntity
  8
部品1
100
AcDbLine
 10
6574.896575107013
 20
9786.608155732549
 30
0.0
 11
6574.896575107013
 21
9758.608155732549
 31
0.0
  0
LINE
  5
1452A
330
747D
100
AcDbEntity
  8
部品1
100
AcDbLine
 10
6154.896575107013
 20
9786.608155732549
 30
0.0
 11
6154.896575107013
 21
9758.608155732549
 31
0.0
  0
LINE
  5
1452B
330
747D
100
AcDbEntity
  8
部品1
100
AcDbLine
 10
6154.896575107013
 20
9786.608155732432
 30
0.0
 11
6154.896575107013
 21
9758.608155732432
 31
0.0
  0
LINE
  5
1452C
330
747D
100
AcDbEntity
  8
部品1
100
AcDbLine
 10
6154.896575107013
 20
9786.608155732436
 30
0.0
 11
6154.896575107013
 21
9758.608155732435
 31
0.0
  0
LINE
  5
1452D
330
747D
100
AcDbEntity
  8
部品1
100
AcDbLine
 10
5314.896575107013
 20
9786.608155732432
 30
0.0
 11
5314.896575107013
 21
9758.608155732432
 31
0.0
  0
DIMENSION
  5
1452E
330
747D
100
AcDbEntity
  8
寸法
100
AcDbDimension
  2
*D3
 10
8117.322920841425
 20
9731.608155732534
 30
0.0
 11
8117.322920841424
 21
10095.09343710677
 31
0.0
 70
   160
 71
     5
 42
54.99999999999636
  3
INABA_S40G
100
AcDbAlignedDimension
 13
7469.896575107014
 23
9786.60815573253
 33
0.0
 14
7469.896575107014
 24
9731.608155732534
 34
0.0
 50
90.0
100
AcDbRotatedDimension
1001
ACAD
1000
DSTYLE
1002
{
1002
}
  0
DIMENSION
  5
1452F
330
747D
100
AcDbEntity
  8
寸法
100
AcDbDimension
  2
*D4
 10
7796.754300969038
 20
9211.390340063642
 30
0.0
 11
7696.754300969039
 21
9436.390340063642
 31
0.0
 70
    32
 71
     5
 42
449.9999999999982
  3
INABA_S40G
100
AcDbAlignedDimension
 13
7441.396575107015
 23
9756.608155732529
 33
0.0
 14
7441.396575107015
 24
9306.608155732531
 34
0.0
 50
90.0
100
AcDbRotatedDimension
1001
ACAD
1000
DSTYLE
1002
{
1002
}
  0
DIMENSION
  5
14530
330
747D
100
AcDbEntity
  8
寸法
100
AcDbDimension
  2
*D5
 10
8117.322920841386
 20
7576.608155732529
 30
0.0
 11
8117.322920841386
 21
7198.746688827667
 31
0.0
 70
   160
 71
     5
 42
54.99999999999636
  3
INABA_S40G
100
AcDbAlignedDimension
 13
7469.896575106976
 23
7631.608155732525
 33
0.0
 14
7469.896575106976
 24
7576.608155732529
 34
0.0
 50
90.0
100
AcDbRotatedDimension
1001
ACAD
1000
DSTYLE
1002
{
1002
}
  0
DIMENSION
  5
14531
330
747D
100
AcDbEntity
  8
寸法
100
AcDbDimension
  2
*D6
 10
8117.322920841386
 20
7631.608155732525
 30
0.0
 11
8117.322920841386
 21
8679.694794662989
 31
0.0
 70
   160
  1
5X420=<>
 71
     5
 42
2100.000000000008
  3
INABA_S40G
100
AcDbAlignedDimension
 13
7469.896575107014
 23
9731.608155732534
 33
0.0
 14
7469.896575106976
 24
7631.608155732525
 34
0.0
 50
90.0
100
AcDbRotatedDimension
1001
ACAD
1000
DSTYLE
1002
{
1002
}
  0
DIMENSION
  5
14532
330
747D
100
AcDbEntity
  8
寸法
100
AcDbDimension
  2
*D7
 10
7469.896575106976
 20
6797.094784365104
 30
0.0
 11
6375.856517730952
 21
6797.094784365104
 31
0.0
 70
   160
 71
     5
 42
2209.999999999982
  3
INABA_S40G
100
AcDbAlignedDimension
 13
5259.896575106995
 23
7576.608155732398
 33
0.0
 14
7469.896575106976
 24
7576.608155732493
 34
0.0
100
AcDbRotatedDimension
1001
ACAD
1000
DSTYLE
1002
{
1002
}
  0
DIMENSION
  5
14533
330
747D
100
AcDbEntity
  8
寸法
100
AcDbDimension
  2
*D8
 10
5319.896575106994
 20
7023.411403757211
 30
0.0
 11
5947.686700450972
 21
7023.411403757211
 31
0.0
 70
   160
  1
有効開口部間口\P<>
 71
     5
 42
1278.0
  3
INABA_S40G
100
AcDbAlignedDimension
 13
6597.896575106995
 23
7576.608155732458
 33
0.0
 14
5319.896575106994
 24
7576.608155732397
 34
0.0
100
AcDbRotatedDimension
1001
ACAD
1000
DSTYLE
1002
{
1002
}
  0
LWPOLYLINE
  5
14534
330
747D
100
AcDbEntity
  8
部品1
100
AcDbPolyline
 90
        4
 70
     1
 43
0.0
 10
5983.161241992782
 20
6614.703343766135
 10
5983.161241992782
 20
6374.811022220602
 10
6746.631908221221
 20
6374.811022220602
 10
6746.631908221221
 20
6614.703343766135
  0
TEXT
  5
14535
330
747D
100
AcDbEntity
  8
部品1
100
AcDbText
 10
6073.080851821821
 20
6421.809814547612
 30
0.0
 40
135.0
  1
平面図
  7
STYLE2
100
AcDbText
  0
LINE
  5
14538
330
747D
100
AcDbEntity
  8
部品1
100
AcDbLine
 10
7441.896575106977
 20
7678.608155732533
 30
0.0
 11
5287.89657510687
 21
7678.608155732409
 31
0.0
  0
LINE
  5
1453A
330
747D
100
AcDbEntity
  8
細線
100
AcDbLine
 10
6768.896575106987
 20
7613.608155732527
 30
0.0
 11
6666.396575107008
 21
7613.608155732527
 31
0.0
  0
LINE
  5
1453B
330
747D
100
AcDbEntity
  8
細線
100
AcDbLine
 10
6753.896575106982
 20
7636.608155732528
 30
0.0
 11
6088.896575106992
 21
7636.608155732533
 31
0.0
  0
LINE
  5
1453C
330
747D
100
AcDbEntity
  8
細線
 48
50.0
100
AcDbLine
 10
7409.896575106976
 20
7592.608155732529
 30
0.0
 11
6114.896575106998
 21
7592.608155732531
 31
0.0
  0
LINE
  5
1453E
330
747D
100
AcDbEntity
  8
部品1
100
AcDbLine
 10
5288.396575107013
 20
9306.608155732382
 30
0.0
 11
6561.396575107012
 21
9306.608155732538
 31
0.0
  0
DIMENSION
  5
1453F
330
747D
100
AcDbEntity
  8
寸法
100
AcDbDimension
  2
*D9
 10
7382.703078813048
 20
9087.561045489552
 30
0.0
 11
6967.743637225282
 21
9087.561045489552
 31
0.0
 70
   160
 71
     5
 42
853.0000000000118
  3
INABA_S40G
100
AcDbAlignedDimension
 13
6588.396575107013
 23
9306.608155732538
 33
0.0
 14
7441.396575107025
 24
9306.608155732531
 34
0.0
100
AcDbRotatedDimension
1001
ACAD
1000
DSTYLE
1002
{
1002
}
  0
LINE
  5
14540
330
747D
100
AcDbEntity
  8
細線
 48
50.0
100
AcDbLine
 10
6561.396575107014
 20
9756.608155732536
 30
0.0
 11
5288.396575107013
 21
9306.608155732382
 31
0.0
  0
LINE
  5
14541
330
747D
100
AcDbEntity
  8
細線
 48
50.0
100
AcDbLine
 10
6561.396575107012
 20
9306.608155732538
 30
0.0
 11
5288.396575107014
 21
9756.608155732385
 31
0.0
  0
LINE
  5
14542
330
747D
100
AcDbEntity
  8
部品1
100
AcDbLine
 10
5288.396575107014
 20
9756.608155732386
 30
0.0
 11
6561.396575107014
 21
9756.608155732541
 31
0.0
  0
LINE
  5
14543
330
747D
100
AcDbEntity
  8
部品1
100
AcDbLine
 10
5734.896575107014
 20
9758.608155732552
 30
0.0
 11
6562.396575107012
 21
9758.608155732549
 31
0.0
  0
LINE
  5
14544
330
747D
100
AcDbEntity
  8
部品1
100
AcDbLine
 10
7469.896575106976
 20
7576.608155732529
 30
0.0
 11
5259.896575106995
 21
7576.608155732351
 31
0.0
  0
LINE
  5
14546
330
747D
100
AcDbEntity
  8
部品1
100
AcDbLine
 10
5287.896575106977
 20
7631.608155732395
 30
0.0
 11
5287.896575107039
 21
9758.60815573243
 31
0.0
  0
LINE
  5
14547
330
747D
100
AcDbEntity
  8
細線
 48
50.0
100
AcDbLine
 10
6073.896575106992
 20
7626.608155732542
 30
0.0
 11
5319.896575106991
 21
7626.608155732412
 31
0.0
  0
LINE
  5
14548
330
747D
100
AcDbEntity
  8
細線
100
AcDbLine
 10
6114.896575106994
 20
7579.608155732562
 30
0.0
 11
6014.89657510698
 21
7579.608155732548
 31
0.0
  0
LINE
  5
14549
330
747D
100
AcDbEntity
  8
細線
100
AcDbLine
 10
6099.896575106996
 20
7602.60815573256
 30
0.0
 11
5334.896575106991
 21
7602.608155732444
 31
0.0
  0
LINE
  5
1454A
330
747D
100
AcDbEntity
  8
部品1
100
AcDbLine
 10
5730.896575106995
 20
7576.6081557324
 30
0.0
 11
5679.896575106994
 21
7576.6081557324
 31
0.0
  0
LINE
  5
1454B
330
747D
100
AcDbEntity
  8
部品1
100
AcDbLine
 10
5287.896575106977
 20
7631.60815573235
 30
0.0
 11
5259.896575106992
 21
7631.60815573235
 31
0.0
  0
LINE
  5
1454C
330
747D
100
AcDbEntity
  8
部品1
100
AcDbLine
 10
5287.896575106977
 20
7631.608155732384
 30
0.0
 11
5259.896575106992
 21
7631.608155732384
 31
0.0
  0
LINE
  5
1454D
330
747D
100
AcDbEntity
  8
部品1
100
AcDbLine
 10
5287.896575106993
 20
7631.608155732411
 30
0.0
 11
5259.896575106992
 21
7631.608155732411
 31
0.0
  0
LINE
  5
1454E
330
747D
100
AcDbEntity
  8
部品1
100
AcDbLine
 10
5259.896575106992
 20
7631.60815573235
 30
0.0
 11
5259.896575106995
 21
7576.608155732351
 31
0.0
  0
LINE
  5
1454F
330
747D
100
AcDbEntity
  8
部品1
100
AcDbLine
 10
5319.896575106991
 20
7631.608155732362
 30
0.0
 11
5291.896575106991
 21
7631.608155732362
 31
0.0
  0
LINE
  5
14550
330
747D
100
AcDbEntity
  8
部品1
100
AcDbLine
 10
5310.896575106994
 20
7576.608155732363
 30
0.0
 11
5310.896575106993
 21
7583.608155732399
 31
0.0
  0
LINE
  5
14551
330
747D
100
AcDbEntity
  8
部品1
100
AcDbLine
 10
5319.896575106993
 20
7583.608155732396
 30
0.0
 11
5310.896575106993
 21
7583.608155732399
 31
0.0
  0
LINE
  5
14552
330
747D
100
AcDbEntity
  8
部品1
100
AcDbLine
 10
5319.896575106993
 20
7583.608155732396
 30
0.0
 11
5319.896575106991
 21
7631.608155732362
 31
0.0
  0
LINE
  5
14553
330
747D
100
AcDbEntity
  8
細線
100
AcDbLine
 10
5334.896575106991
 20
7609.608155732444
 30
0.0
 11
5334.896575106991
 21
7602.608155732444
 31
0.0
  0
LINE
  5
14554
330
747D
100
AcDbEntity
  8
細線
100
AcDbLine
 10
5334.896575106991
 20
7609.608155732444
 30
0.0
 11
5319.896575106992
 21
7609.608155732444
 31
0.0
  0
LINE
  5
1455D
330
747D
100
AcDbEntity
  8
部品1
100
AcDbLine
 10
5287.896575107025
 20
9758.60815573243
 30
0.0
 11
6154.896575107013
 21
9758.608155732439
 31
0.0
  0
LINE
  5
1455E
330
747D
100
AcDbEntity
  8
部品1
 48
50.0
100
AcDbLine
 10
5288.396575107014
 20
9756.608155732386
 30
0.0
 11
5288.396575107013
 21
9306.608155732382
 31
0.0
  0
LINE
  5
1455F
330
747D
100
AcDbEntity
  8
部品1
100
AcDbLine
 10
5287.896575106976
 20
8051.608155732411
 30
0.0
 11
5259.896575106975
 21
8051.608155732411
 31
0.0
  0
LINE
  5
14560
330
747D
100
AcDbEntity
  8
部品1
100
AcDbLine
 10
5287.896575106981
 20
9731.608155732404
 30
0.0
 11
5259.896575106981
 21
9731.608155732404
 31
0.0
  0
LINE
  5
14562
330
747D
100
AcDbEntity
  8
部品1
100
AcDbLine
 10
7441.896575107041
 20
9758.608155732531
 30
0.0
 11
7441.896575106977
 21
7631.608155732525
 31
0.0
  0
LINE
  5
14563
330
747D
100
AcDbEntity
  8
細線
100
AcDbLine
 10
7407.896575106976
 20
7649.608155732527
 30
0.0
 11
7348.896575106976
 21
7649.608155732528
 31
0.0
  0
LINE
  5
14564
330
747D
100
AcDbEntity
  8
細線
 48
50.0
100
AcDbLine
 10
7409.896575106976
 20
7626.608155732532
 30
0.0
 11
6768.89657510699
 21
7626.608155732533
 31
0.0
  0
LINE
  5
14565
330
747D
100
AcDbEntity
  8
細線
100
AcDbLine
 10
7441.896575106977
 20
7677.608155732523
 30
0.0
 11
6727.896575106988
 21
7677.608155732531
 31
0.0
  0
LINE
  5
14566
330
747D
100
AcDbEntity
  8
細線
100
AcDbLine
 10
6747.896575106988
 20
7641.608155732526
 30
0.0
 11
6747.896575106988
 21
7649.608155732526
 31
0.0
  0
LINE
  5
14567
330
747D
100
AcDbEntity
  8
細線
100
AcDbLine
 10
6747.896575106988
 20
7641.608155732526
 30
0.0
 11
6727.896575106988
 21
7641.608155732526
 31
0.0
  0
LINE
  5
14568
330
747D
100
AcDbEntity
  8
細線
100
AcDbLine
 10
6727.896575106988
 20
7641.608155732526
 30
0.0
 11
6727.896575106988
 21
7677.608155732531
 31
0.0
  0
LINE
  5
14569
330
747D
100
AcDbEntity
  8
細線
100
AcDbLine
 10
6768.896575106987
 20
7613.608155732527
 30
0.0
 11
6768.896575106994
 21
7643.608155732524
 31
0.0
  0
LINE
  5
1456A
330
747D
100
AcDbEntity
  8
部品1
100
AcDbLine
 10
7469.896575106976
 20
7576.608155732529
 30
0.0
 11
7418.896575106976
 21
7576.608155732529
 31
0.0
  0
LINE
  5
1456B
330
747D
100
AcDbEntity
  8
部品1
100
AcDbLine
 10
7469.896575106978
 20
7631.608155732525
 30
0.0
 11
7469.896575106976
 21
7576.608155732529
 31
0.0
  0
LINE
  5
1456C
330
747D
100
AcDbEntity
  8
部品1
100
AcDbLine
 10
7441.896575106977
 20
7631.608155732525
 30
0.0
 11
7469.896575106976
 21
7631.608155732525
 31
0.0
  0
LINE
  5
1456E
330
747D
100
AcDbEntity
  8
部品1
100
AcDbLine
 10
7409.896575106976
 20
7631.608155732525
 30
0.0
 11
7441.896575106977
 21
7631.608155732525
 31
0.0
  0
LINE
  5
1456F
330
747D
100
AcDbEntity
  8
細線
100
AcDbLine
 10
7407.896575106976
 20
7631.608155732525
 30
0.0
 11
7407.896575106976
 21
7649.608155732526
 31
0.0
  0
LINE
  5
14570
330
747D
100
AcDbEntity
  8
部品1
100
AcDbLine
 10
7418.896575106976
 20
7576.608155732526
 30
0.0
 11
7418.896575106976
 21
7583.608155732528
 31
0.0
  0
LINE
  5
14571
330
747D
100
AcDbEntity
  8
部品1
100
AcDbLine
 10
7418.896575106976
 20
7583.608155732528
 30
0.0
 11
7409.896575106976
 21
7583.608155732528
 31
0.0
  0
LINE
  5
14572
330
747D
100
AcDbEntity
  8
部品1
100
AcDbLine
 10
7409.896575106976
 20
7583.608155732528
 30
0.0
 11
7409.896575106976
 21
7631.608155732525
 31
0.0
  0
LINE
  5
14573
330
747D
100
AcDbEntity
  8
部品1
100
AcDbLine
 10
7441.896575107008
 20
7631.608155732542
 30
0.0
 11
7469.896575107009
 21
7631.608155732542
 31
0.0
  0
LINE
  5
14575
330
747D
100
AcDbEntity
  8
部品1
100
AcDbLine
 10
6588.396575107012
 20
9306.608155732538
 30
0.0
 11
7441.396575107015
 21
9306.608155732531
 31
0.0
  0
LINE
  5
14576
330
747D
100
AcDbEntity
  8
細線
 48
50.0
100
AcDbLine
 10
7441.396575107015
 20
9756.608155732529
 30
0.0
 11
6588.396575107012
 21
9306.608155732538
 31
0.0
  0
LINE
  5
14577
330
747D
100
AcDbEntity
  8
細線
 48
50.0
100
AcDbLine
 10
7441.396575107015
 20
9306.608155732531
 30
0.0
 11
6588.396575107013
 21
9756.608155732534
 31
0.0
  0
LINE
  5
14578
330
747D
100
AcDbEntity
  8
部品1
100
AcDbLine
 10
6588.396575107013
 20
9756.608155732536
 30
0.0
 11
7441.396575107015
 21
9756.608155732529
 31
0.0
  0
LINE
  5
14579
330
747D
100
AcDbEntity
  8
部品1
100
AcDbLine
 10
6587.396575107013
 20
9758.608155732547
 30
0.0
 11
7441.896575107027
 21
9758.608155732529
 31
0.0
  0
LINE
  5
1457A
330
747D
100
AcDbEntity
  8
部品1
 48
50.0
100
AcDbLine
 10
6588.396575107013
 20
9756.608155732534
 30
0.0
 11
6588.396575107013
 21
9306.608155732538
 31
0.0
  0
LINE
  5
1457B
330
747D
100
AcDbEntity
  8
部品1
 48
50.0
100
AcDbLine
 10
6561.396575107014
 20
9756.608155732536
 30
0.0
 11
6561.396575107014
 21
9306.608155732538
 31
0.0
  0
LINE
  5
1457C
330
747D
100
AcDbEntity
  8
部品1
 48
50.0
100
AcDbLine
 10
6587.396575107013
 20
9758.608155732538
 30
0.0
 11
6587.396575107013
 21
9306.608155732538
 31
0.0
  0
LINE
  5
1457D
330
747D
100
AcDbEntity
  8
部品1
 48
50.0
100
AcDbLine
 10
6562.396575107013
 20
9758.608155732543
 30
0.0
 11
6562.396575107013
 21
9306.608155732538
 31
0.0
  0
LINE
  5
1457E
330
747D
100
AcDbEntity
  8
部品1
100
AcDbLine
 10
6562.396575107013
 20
9306.608155732538
 30
0.0
 11
6587.396575107013
 21
9306.608155732538
 31
0.0
  0
LINE
  5
1457F
330
747D
100
AcDbEntity
  8
部品1
100
AcDbLine
 10
6562.396575107013
 20
9750.608155732534
 30
0.0
 11
6587.396575107013
 21
9750.608155732535
 31
0.0
  0
LINE
  5
14580
330
747D
100
AcDbEntity
  8
部品1
100
AcDbLine
 10
6603.896575107014
 20
9776.608155732537
 30
0.0
 11
6609.896575107014
 21
9776.608155732537
 31
0.0
  0
LINE
  5
14581
330
747D
100
AcDbEntity
  8
部品1
100
AcDbLine
 10
6609.896575107014
 20
9776.608155732537
 30
0.0
 11
6609.896575107014
 21
9758.608155732536
 31
0.0
  0
LINE
  5
14582
330
747D
100
AcDbEntity
  8
部品1
100
AcDbLine
 10
6539.896575107014
 20
9776.608155732537
 30
0.0
 11
6545.896575107014
 21
9776.608155732537
 31
0.0
  0
LINE
  5
14583
330
747D
100
AcDbEntity
  8
部品1
100
AcDbLine
 10
6539.896575107014
 20
9776.608155732537
 30
0.0
 11
6539.896575107014
 21
9758.608155732536
 31
0.0
  0
LINE
  5
14584
330
747D
100
AcDbEntity
  8
部品1
100
AcDbLine
 10
7441.396575107015
 20
9756.608155732529
 30
0.0
 11
7441.396575107015
 21
9306.608155732531
 31
0.0
  0
LINE
  5
14585
330
747D
100
AcDbEntity
  8
部品1
100
AcDbLine
 10
7441.896575107015
 20
9311.608155732534
 30
0.0
 11
7469.896575107014
 21
9311.608155732534
 31
0.0
  0
LINE
  5
14586
330
747D
100
AcDbEntity
  8
部品1
100
AcDbLine
 10
7441.896575107015
 20
9731.608155732534
 30
0.0
 11
7469.896575107014
 21
9731.608155732534
 31
0.0
  0
DIMENSION
  5
14587
330
747D
100
AcDbEntity
  8
寸法
100
AcDbDimension
  2
*D10
 10
7469.896575107014
 20
10002.41637535751
 30
0.0
 11
7778.381856481253
 21
10002.41637535751
 31
0.0
 70
   160
 71
     5
 42
55.0
  3
INABA_S40G
100
AcDbAlignedDimension
 13
7414.896575107015
 23
9786.60815573253
 33
0.0
 14
7469.896575107014
 24
9786.60815573253
 34
0.0
100
AcDbRotatedDimension
1001
ACAD
1000
DSTYLE
1002
{
1002
}
  0
LINE
  5
14588
330
747D
100
AcDbEntity
  8
部品1
100
AcDbLine
 10
5259.896575106942
 20
9786.608155732412
 30
0.0
 11
7469.89657510702
 21
9786.608155732526
 31
0.0
  0
DIMENSION
  5
14589
330
747D
100
AcDbEntity
  8
寸法
100
AcDbDimension
  2
*D11
 10
7414.896575107015
 20
10002.41637535741
 30
0.0
 11
6356.769737990334
 21
10002.41637535741
 31
0.0
 70
   160
  1
5X420=<>
 71
     5
 42
2100.000000000001
  3
INABA_S40G
100
AcDbAlignedDimension
 13
5314.896575107013
 23
9786.608155732432
 33
0.0
 14
7414.896575107015
 24
9786.60815573253
 34
0.0
100
AcDbRotatedDimension
1001
ACAD
1000
DSTYLE
1002
{
1002
}
  0
LINE
  5
1483A
330
747D
100
AcDbEntity
  8
寸法
 48
50.0
100
AcDbLine
 10
6043.563058493196
 20
7506.935753345979
 30
0.0
 11
6262.714998668921
 21
7506.935753345979
 31
0.0
  0
LINE
  5
1483B
330
747D
100
AcDbEntity
  8
寸法
 48
50.0
100
AcDbLine
 10
6262.714998668921
 20
7506.935753345979
 30
0.0
 11
6173.430780073499
 21
7530.859387615466
 31
0.0
  0
LINE
  5
1483C
330
747D
100
AcDbEntity
  8
寸法
 48
50.0
100
AcDbLine
 10
6173.430780073499
 20
7530.859387615466
 30
0.0
 11
6173.430780073499
 21
7477.195753033676
 31
0.0
  0
LINE
  5
1483D
330
747D
100
AcDbEntity
  8
寸法
 48
50.0
100
AcDbLine
 10
5691.69357115194
 20
7473.713796860643
 30
0.0
 11
5743.099579062044
 21
7473.713796860643
 31
0.0
  0
LINE
  5
1483E
330
747D
100
AcDbEntity
  8
寸法
 48
50.0
100
AcDbLine
 10
5743.099579062044
 20
7473.713796860643
 30
0.0
 11
5743.099579062044
 21
7505.023955512808
 31
0.0
  0
LINE
  5
1483F
330
747D
100
AcDbEntity
  8
寸法
 48
50.0
100
AcDbLine
 10
5743.099579062044
 20
7505.023955512808
 30
0.0
 11
5772.860911053468
 21
7505.023955512808
 31
0.0
  0
LINE
  5
14840
330
747D
100
AcDbEntity
  8
寸法
 48
50.0
100
AcDbLine
 10
5772.860911053468
 20
7505.023955512808
 30
0.0
 11
5717.396575106993
 21
7542.603406441421
 31
0.0
  0
LINE
  5
14841
330
747D
100
AcDbEntity
  8
寸法
 48
50.0
100
AcDbLine
 10
5661.932239160517
 20
7505.023955512808
 30
0.0
 11
5717.396575106993
 21
7542.603406441422
 31
0.0
  0
LINE
  5
14842
330
747D
100
AcDbEntity
  8
寸法
 48
50.0
100
AcDbLine
 10
5691.69357115194
 20
7505.023955512808
 30
0.0
 11
5661.932239160517
 21
7505.023955512808
 31
0.0
  0
LINE
  5
14843
330
747D
100
AcDbEntity
  8
寸法
 48
50.0
100
AcDbLine
 10
5691.69357115194
 20
7473.713796860643
 30
0.0
 11
5691.69357115194
 21
7505.023955512808
 31
0.0
  0
LINE
  5
14844
330
747D
100
AcDbEntity
  8
寸法
 48
50.0
100
AcDbLine
 10
5743.099579062044
 20
7473.713796860643
 30
0.0
 11
5691.69357115194
 21
7473.713796860643
 31
0.0
  0
TEXT
  5
149A1
330
747D
100
AcDbEntity
  8
部品1
100
AcDbText
 10
6073.686645730737
 20
1703.847448926052
 30
0.0
 40
135.0
  1
正面図
  7
STYLE2
100
AcDbText
  0
LWPOLYLINE
  5
149A2
330
747D
100
AcDbEntity
  8
部品1
100
AcDbPolyline
 90
        4
 70
     1
 43
0.0
 10
5983.161241992782
 20
1896.740978144576
 10
5983.161241992782
 20
1656.848656599043
 10
6746.631908221221
 20
1656.848656599043
 10
6746.631908221221
 20
1896.740978144576
  0
LINE
  5
14A32
330
747D
100
AcDbEntity
  8
細線
100
AcDbLine
 10
6768.896575106985
 20
7643.608155732525
 30
0.0
 11
6753.896575106984
 21
7643.608155732521
 31
0.0
  0
LINE
  5
14A33
330
747D
100
AcDbEntity
  8
細線
100
AcDbLine
 10
6753.896575106982
 20
7636.608155732528
 30
0.0
 11
6753.896575106984
 21
7643.608155732521
 31
0.0
  0
LINE
  5
14A58
330
747D
100
AcDbEntity
  8
細線
100
AcDbLine
 10
6753.896575106988
 20
7649.608155732526
 30
0.0
 11
6747.896575106988
 21
7649.608155732526
 31
0.0
  0
LINE
  5
14AA3
330
747D
100
AcDbEntity
  8
細線
 48
50.0
100
AcDbLine
 10
7407.896575106976
 20
7631.608155732525
 30
0.0
 11
7409.896575106976
 21
7631.608155732525
 31
0.0
  0
LINE
  5
14AC7
330
747D
100
AcDbEntity
  8
破線
 48
10.0
100
AcDbLine
 10
6044.396575106999
 20
7707.108155732455
 30
0.0
 11
6044.396575107004
 21
9306.608155732476
 31
0.0
  0
LINE
  5
14AC8
330
747D
100
AcDbEntity
  8
破線
 48
10.0
100
AcDbLine
 10
5994.396575107002
 20
7707.10815573245
 30
0.0
 11
5994.396575106994
 21
9306.608155732471
 31
0.0
  0
LINE
  5
14ADA
330
747D
100
AcDbEntity
  8
細線
100
AcDbLine
 10
6986.896575106979
 20
7677.608155732527
 30
0.0
 11
6986.896575106978
 21
7649.608155732529
 31
0.0
  0
LINE
  5
14ADC
330
747D
100
AcDbEntity
  8
細線
100
AcDbLine
 10
6971.896575106979
 20
7677.608155732527
 30
0.0
 11
6956.896575106977
 21
7649.608155732529
 31
0.0
  0
LINE
  5
14AE0
330
747D
100
AcDbEntity
  8
細線
100
AcDbLine
 10
6451.396575107016
 20
7613.608155732603
 30
0.0
 11
6443.89657510702
 21
7636.608155732533
 31
0.0
  0
LINE
  5
14AE1
330
747D
100
AcDbEntity
  8
細線
100
AcDbLine
 10
6391.396575107016
 20
7613.608155732615
 30
0.0
 11
6398.896575107021
 21
7636.608155732533
 31
0.0
  0
LINE
  5
14AE2
330
747D
100
AcDbEntity
  8
細線
100
AcDbLine
 10
5739.896575106912
 20
7579.608155732628
 30
0.0
 11
5747.396575106917
 21
7602.608155732546
 31
0.0
  0
LINE
  5
14AE3
330
747D
100
AcDbEntity
  8
細線
100
AcDbLine
 10
5799.896575106912
 20
7579.608155732618
 30
0.0
 11
5792.396575106916
 21
7602.608155732546
 31
0.0
  0
LINE
  5
14C0C
330
747D
100
AcDbEntity
  8
部品1
100
AcDbLine
 10
7413.396575106979
 20
7707.108155732531
 30
0.0
 11
5316.396575106873
 21
7707.108155732412
 31
0.0
  0
LINE
  5
14C0D
330
747D
100
AcDbEntity
  8
破線
 48
10.0
100
AcDbLine
 10
7389.89657510698
 20
7730.60815573253
 30
0.0
 11
6735.396575106999
 21
7730.608155732493
 31
0.0
  0
LINE
  5
14C0E
330
747D
100
AcDbEntity
  8
破線
 48
10.0
100
AcDbLine
 10
6685.396575106999
 20
7730.608155732489
 30
0.0
 11
6044.396575106999
 21
7730.608155732451
 31
0.0
  0
LINE
  5
14C1E
330
747D
100
AcDbEntity
  8
部品1
100
AcDbLine
 10
7413.396575107047
 20
9306.608155732531
 30
0.0
 11
7413.396575106978
 21
7707.108155732533
 31
0.0
  0
LINE
  5
14C1F
330
747D
100
AcDbEntity
  8
破線
 48
10.0
100
AcDbLine
 10
7389.896575107048
 20
9306.608155732529
 30
0.0
 11
7389.896575106982
 21
7730.60815573253
 31
0.0
  0
LINE
  5
14C20
330
747D
100
AcDbEntity
  8
部品1
 48
50.0
100
AcDbLine
 10
7413.396575106979
 20
7707.108155732531
 30
0.0
 11
7441.896575106977
 21
7678.608155732533
 31
0.0
  0
LINE
  5
14C31
330
747D
100
AcDbEntity
  8
部品1
100
AcDbLine
 10
5316.39657510693
 20
9306.608155732385
 30
0.0
 11
5316.396575106991
 21
7707.108155732528
 31
0.0
  0
LINE
  5
14C32
330
747D
100
AcDbEntity
  8
破線
 48
10.0
100
AcDbLine
 10
5339.896575106926
 20
9306.608155732387
 30
0.0
 11
5339.89657510699
 21
7730.608155732411
 31
0.0
  0
LINE
  5
14C33
330
747D
100
AcDbEntity
  8
部品1
 48
50.0
100
AcDbLine
 10
5316.396575106991
 20
7707.10815573253
 30
0.0
 11
5287.896575106993
 21
7678.608155732532
 31
0.0
  0
LINE
  5
14C5B
330
747D
100
AcDbEntity
  8
細線
100
AcDbLine
 10
5319.896575106993
 20
7583.608155732396
 30
0.0
 11
5319.896575106993
 21
7579.608155732445
 31
0.0
  0
DIMENSION
  5
14D62
330
747D
100
AcDbEntity
  8
寸法
100
AcDbDimension
  2
*D12
 10
6502.177919925209
 20
9085.601125837978
 30
0.0
 11
5765.319254562271
 21
9085.601125837978
 31
0.0
 70
   160
 71
     5
 42
1273.000000000015
  3
INABA_S40G
100
AcDbAlignedDimension
 13
5288.396575107013
 23
9306.608155732382
 33
0.0
 14
6561.396575107027
 24
9306.608155732426
 34
0.0
100
AcDbRotatedDimension
1001
ACAD
1000
DSTYLE
1002
{
1002
}
  0
TEXT
  5
14DEF
330
747D
100
AcDbEntity
  8
文字
 62
     7
 48
50.0
100
AcDbText
 10
14641.2525855784
 20
871.1744590657925
 30
0.0
 40
100.0
  1
～一般型・多雪地型～
  7
STYLE2
100
AcDbText
  0
TEXT
  5
15A76
330
747D
100
AcDbEntity
  8
文字
 62
     7
 48
50.0
100
AcDbText
 10
14464.69563014562
 20
483.8967129911411
 30
0.0
 40
160.0
  1
ＮＸＮ－４８Ｈ
  7
STYLE2
100
AcDbText
  0
LINE
  5
1C310
330
747D
100
AcDbEntity
  8
細線
100
AcDbLine
 10
5874.896575106982
 20
7579.608155732542
 30
0.0
 11
5872.565036816214
 21
7584.608155732528
 31
0.0
  0
LINE
  5
1C316
330
747D
100
AcDbEntity
  8
細線
100
AcDbLine
 10
5872.565036816215
 20
7584.608155732528
 30
0.0
 11
5807.228113397741
 21
7584.608155732516
 31
0.0
  0
LINE
  5
1C318
330
747D
100
AcDbEntity
  8
細線
100
AcDbLine
 10
5804.896575106987
 20
7579.608155732517
 30
0.0
 11
5734.896575106986
 21
7579.608155732507
 31
0.0
  0
LINE
  5
1C319
330
747D
100
AcDbEntity
  8
細線
100
AcDbLine
 10
5664.896575106987
 20
7579.608155732497
 30
0.0
 11
5594.896575106987
 21
7579.608155732486
 31
0.0
  0
LINE
  5
1C31B
330
747D
100
AcDbEntity
  8
細線
100
AcDbLine
 10
5524.896575106987
 20
7579.608155732476
 30
0.0
 11
5310.884268457942
 21
7579.608155732444
 31
0.0
  0
LINE
  5
1C31C
330
747D
100
AcDbEntity
  8
細線
100
AcDbLine
 10
5804.896575106987
 20
7579.608155732559
 30
0.0
 11
5807.228113397755
 21
7584.608155732545
 31
0.0
  0
LINE
  5
1C31D
330
747D
100
AcDbEntity
  8
細線
100
AcDbLine
 10
5732.565036816214
 20
7584.608155732507
 30
0.0
 11
5667.228113397739
 21
7584.608155732495
 31
0.0
  0
LINE
  5
1C31E
330
747D
100
AcDbEntity
  8
細線
100
AcDbLine
 10
5734.896575106979
 20
7579.608155732521
 30
0.0
 11
5732.565036816212
 21
7584.608155732507
 31
0.0
  0
LINE
  5
1C31F
330
747D
100
AcDbEntity
  8
細線
100
AcDbLine
 10
5664.896575106985
 20
7579.60815573254
 30
0.0
 11
5667.228113397754
 21
7584.608155732524
 31
0.0
  0
LINE
  5
1C320
330
747D
100
AcDbEntity
  8
細線
100
AcDbLine
 10
5592.565036816214
 20
7584.608155732486
 30
0.0
 11
5527.22811339774
 21
7584.608155732476
 31
0.0
  0
LINE
  5
1C321
330
747D
100
AcDbEntity
  8
細線
100
AcDbLine
 10
5594.896575106981
 20
7579.608155732501
 30
0.0
 11
5592.565036816213
 21
7584.608155732486
 31
0.0
  0
LINE
  5
1C322
330
747D
100
AcDbEntity
  8
細線
100
AcDbLine
 10
5524.896575106986
 20
7579.608155732519
 30
0.0
 11
5527.228113397754
 21
7584.608155732505
 31
0.0
  0
LINE
  5
1C333
330
747D
100
AcDbEntity
  8
細線
100
AcDbLine
 10
5476.396575106992
 20
7597.608155732469
 30
0.0
 11
5476.396575106992
 21
7579.608155732445
 31
0.0
  0
LINE
  5
1C334
330
747D
100
AcDbEntity
  8
細線
100
AcDbLine
 10
5435.396575106993
 20
7597.608155732463
 30
0.0
 11
5435.396575106993
 21
7579.608155732445
 31
0.0
  0
LINE
  5
1C335
330
747D
100
AcDbEntity
  8
細線
100
AcDbLine
 10
5476.396575106992
 20
7597.608155732469
 30
0.0
 11
5435.396575106993
 21
7597.608155732463
 31
0.0
  0
ARC
  5
1C337
330
747D
100
AcDbEntity
  8
部品1
100
AcDbCircle
 10
5437.940730984269
 20
7579.108155732467
 30
0.0
 40
1.0
100
AcDbArc
 50
270.0
 51
19.47122063447127
  0
LINE
  5
1C339
330
747D
100
AcDbEntity
  8
部品1
 48
0.01
100
AcDbLine
 10
5430.896575106986
 20
7579.608155732469
 30
0.0
 11
5430.896575106986
 21
7578.608155732467
 31
0.0
  0
LINE
  5
1C33C
330
747D
100
AcDbEntity
  8
部品1
 48
0.01
100
AcDbLine
 10
5431.396575106987
 20
7578.108155732468
 30
0.0
 11
5437.940730984269
 21
7578.108155732467
 31
0.0
  0
ARC
  5
1C33D
330
747D
100
AcDbEntity
  8
部品1
 48
0.01
100
AcDbCircle
 10
5431.396575106987
 20
7578.608155732467
 30
0.0
 40
0.5
100
AcDbArc
 50
180.0
 51
270.0
  0
ARC
  5
1C33F
330
747D
100
AcDbEntity
  8
部品1
100
AcDbCircle
 10
5463.396575106987
 20
7588.108155732467
 30
0.0
 40
26.0
100
AcDbArc
 50
180.0
 51
199.4712206344713
  0
ARC
  5
1C341
330
747D
100
AcDbEntity
  8
部品1
 48
0.01
100
AcDbCircle
 10
5439.396575106986
 20
7593.108155732467
 30
0.0
 40
2.0
100
AcDbArc
 50
90.0
 51
180.0
  0
LINE
  5
1C343
330
747D
100
AcDbEntity
  8
部品1
100
AcDbLine
 10
5437.396575106987
 20
7588.108155732467
 30
0.0
 11
5437.396575106987
 21
7593.108155732467
 31
0.0
  0
ARC
  5
1C344
330
747D
100
AcDbEntity
  8
部品1
100
AcDbCircle
 10
5455.896575106987
 20
7603.908155732468
 30
0.0
 40
16.0
100
AcDbArc
 50
218.3930440192126
 51
254.0576313943716
  0
ARC
  5
1C346
330
747D
100
AcDbEntity
  8
部品1
100
AcDbCircle
 10
5441.004966731799
 20
7592.108155732467
 30
0.0
 40
3.0
100
AcDbArc
 50
38.39304401921267
 51
90.0
  0
LINE
  5
1C347
330
747D
100
AcDbEntity
  8
部品1
 48
0.01
100
AcDbLine
 10
5439.396575106986
 20
7595.108155732467
 30
0.0
 11
5441.004966731799
 21
7595.108155732467
 31
0.0
  0
ARC
  5
1C358
330
747D
100
AcDbEntity
  8
部品1
100
AcDbCircle
 10
5455.896575106987
 20
7603.908155732468
 30
0.0
 40
16.0
100
AcDbArc
 50
285.9423686056284
 51
321.6069559807873
  0
LINE
  5
1C35E
330
747D
100
AcDbEntity
  8
部品1
100
AcDbLine
 10
5459.467289321257
 20
7588.408155732468
 30
0.0
 11
5452.325860892714
 21
7588.408155732468
 31
0.0
  0
ARC
  5
1C360
330
747D
100
AcDbEntity
  8
部品1
100
AcDbCircle
 10
5459.467289321257
 20
7591.408155732468
 30
0.0
 40
3.0
100
AcDbArc
 50
270.0
 51
285.9423686056284
  0
ARC
  5
1C362
330
747D
100
AcDbEntity
  8
部品1
100
AcDbCircle
 10
5452.325860892714
 20
7591.408155732468
 30
0.0
 40
3.0
100
AcDbArc
 50
254.0576313943716
 51
270.0
  0
LINE
  5
1C363
330
747D
100
AcDbEntity
  8
部品1
 48
0.01
100
AcDbLine
 10
5472.396575106986
 20
7595.108155732467
 30
0.0
 11
5470.788183482174
 21
7595.108155732467
 31
0.0
  0
ARC
  5
1C366
330
747D
100
AcDbEntity
  8
部品1
100
AcDbCircle
 10
5470.788183482174
 20
7592.108155732467
 30
0.0
 40
3.0
100
AcDbArc
 50
90.0
 51
141.6069559807873
  0
ARC
  5
1C368
330
747D
100
AcDbEntity
  8
部品1
 48
0.01
100
AcDbCircle
 10
5472.396575106986
 20
7593.108155732467
 30
0.0
 40
2.0
100
AcDbArc
 50
0.0
 51
90.0
  0
LINE
  5
1C369
330
747D
100
AcDbEntity
  8
部品1
100
AcDbLine
 10
5474.396575106986
 20
7588.108155732467
 30
0.0
 11
5474.396575106986
 21
7593.108155732467
 31
0.0
  0
ARC
  5
1C36C
330
747D
100
AcDbEntity
  8
部品1
100
AcDbCircle
 10
5448.396575106986
 20
7588.108155732467
 30
0.0
 40
26.0
100
AcDbArc
 50
340.5287793655287
 51
0.0
  0
ARC
  5
1C36D
330
747D
100
AcDbEntity
  8
部品1
100
AcDbCircle
 10
5473.852419229702
 20
7579.108155732467
 30
0.0
 40
1.0
100
AcDbArc
 50
160.5287793655287
 51
270.0
  0
LINE
  5
1C36F
330
747D
100
AcDbEntity
  8
部品1
 48
0.01
100
AcDbLine
 10
5480.396575106986
 20
7578.108155732468
 30
0.0
 11
5473.784069676923
 21
7578.108155732467
 31
0.0
  0
LINE
  5
1C372
330
747D
100
AcDbEntity
  8
部品1
 48
0.01
100
AcDbLine
 10
5480.896575106986
 20
7579.608155732469
 30
0.0
 11
5480.896575106986
 21
7578.608155732467
 31
0.0
  0
LINE
  5
1C373
330
747D
100
AcDbEntity
  8
部品1
 48
0.01
100
AcDbLine
 10
5480.896575106986
 20
7579.608155732469
 30
0.0
 11
5480.896575106986
 21
7578.608155732467
 31
0.0
  0
ARC
  5
1C374
330
747D
100
AcDbEntity
  8
部品1
 48
0.01
100
AcDbCircle
 10
5480.396575106986
 20
7578.608155732467
 30
0.0
 40
0.5
100
AcDbArc
 50
270.0
 51
0.0
  0
LINE
  5
1C386
330
747D
100
AcDbEntity
  8
細線
100
AcDbLine
 10
6176.396575107
 20
7613.608155732534
 30
0.0
 11
6178.728113397761
 21
7618.608155732506
 31
0.0
  0
LINE
  5
1C387
330
747D
100
AcDbEntity
  8
細線
100
AcDbLine
 10
6246.396575106988
 20
7613.608155732503
 30
0.0
 11
6244.065036816221
 21
7618.608155732488
 31
0.0
  0
LINE
  5
1C388
330
747D
100
AcDbEntity
  8
細線
100
AcDbLine
 10
6244.065036816222
 20
7618.608155732488
 30
0.0
 11
6178.728113397748
 21
7618.608155732477
 31
0.0
  0
LINE
  5
1C389
330
747D
100
AcDbEntity
  8
細線
100
AcDbLine
 10
6316.396575106993
 20
7613.608155732539
 30
0.0
 11
6318.72811339776
 21
7618.608155732525
 31
0.0
  0
LINE
  5
1C38A
330
747D
100
AcDbEntity
  8
細線
100
AcDbLine
 10
6386.396575106988
 20
7613.608155732521
 30
0.0
 11
6384.065036816219
 21
7618.608155732506
 31
0.0
  0
LINE
  5
1C38B
330
747D
100
AcDbEntity
  8
細線
100
AcDbLine
 10
6384.06503681622
 20
7618.608155732506
 30
0.0
 11
6318.728113397747
 21
7618.608155732497
 31
0.0
  0
LINE
  5
1C38C
330
747D
100
AcDbEntity
  8
細線
100
AcDbLine
 10
6456.396575106994
 20
7613.608155732561
 30
0.0
 11
6458.728113397762
 21
7618.608155732546
 31
0.0
  0
LINE
  5
1C38D
330
747D
100
AcDbEntity
  8
細線
100
AcDbLine
 10
6524.065036816222
 20
7618.608155732528
 30
0.0
 11
6458.728113397748
 21
7618.608155732516
 31
0.0
  0
LINE
  5
1C38E
330
747D
100
AcDbEntity
  8
細線
100
AcDbLine
 10
6526.396575106989
 20
7613.608155732542
 30
0.0
 11
6524.065036816222
 21
7618.608155732528
 31
0.0
  0
LINE
  5
1C3A4
330
747D
100
AcDbEntity
  8
細線
100
AcDbLine
 10
7208.896575106983
 20
7649.608155732538
 30
0.0
 11
7206.565036816215
 21
7654.608155732524
 31
0.0
  0
LINE
  5
1C3A5
330
747D
100
AcDbEntity
  8
細線
100
AcDbLine
 10
7206.565036816217
 20
7654.608155732524
 30
0.0
 11
7141.228113397743
 21
7654.608155732514
 31
0.0
  0
LINE
  5
1C3A6
330
747D
100
AcDbEntity
  8
細線
100
AcDbLine
 10
7138.896575106989
 20
7649.608155732557
 30
0.0
 11
7141.228113397755
 21
7654.608155732542
 31
0.0
  0
LINE
  5
1C3A7
330
747D
100
AcDbEntity
  8
細線
100
AcDbLine
 10
7066.565036816214
 20
7654.608155732503
 30
0.0
 11
7001.228113397741
 21
7654.608155732493
 31
0.0
  0
LINE
  5
1C3A8
330
747D
100
AcDbEntity
  8
細線
100
AcDbLine
 10
7068.896575106982
 20
7649.608155732519
 30
0.0
 11
7066.565036816213
 21
7654.608155732503
 31
0.0
  0
LINE
  5
1C3A9
330
747D
100
AcDbEntity
  8
細線
100
AcDbLine
 10
6998.896575106987
 20
7649.608155732536
 30
0.0
 11
7001.228113397754
 21
7654.608155732522
 31
0.0
  0
LINE
  5
1C3AA
330
747D
100
AcDbEntity
  8
細線
100
AcDbLine
 10
6926.565036816215
 20
7654.608155732484
 30
0.0
 11
6861.228113397742
 21
7654.608155732474
 31
0.0
  0
LINE
  5
1C3AB
330
747D
100
AcDbEntity
  8
細線
100
AcDbLine
 10
6928.896575106982
 20
7649.608155732498
 30
0.0
 11
6926.565036816214
 21
7654.608155732484
 31
0.0
  0
LINE
  5
1C3AC
330
747D
100
AcDbEntity
  8
細線
100
AcDbLine
 10
6858.896575106992
 20
7649.608155732529
 30
0.0
 11
6861.228113397754
 21
7654.608155732502
 31
0.0
  0
LINE
  5
1C3AD
330
747D
100
AcDbEntity
  8
細線
100
AcDbLine
 10
7138.896575106975
 20
7649.608155732527
 30
0.0
 11
7068.896575106975
 21
7649.608155732527
 31
0.0
  0
LINE
  5
1C3AE
330
747D
100
AcDbEntity
  8
細線
100
AcDbLine
 10
6998.896575106981
 20
7649.608155732527
 30
0.0
 11
6928.896575106969
 21
7649.608155732527
 31
0.0
  0
LINE
  5
1C3AF
330
747D
100
AcDbEntity
  8
細線
100
AcDbLine
 10
6858.896575106992
 20
7649.608155732529
 30
0.0
 11
6759.896575106989
 21
7649.608155732526
 31
0.0
  0
LINE
  5
1C3B0
330
747D
100
AcDbEntity
  8
細線
100
AcDbLine
 10
6456.396575106978
 20
7613.608155732528
 30
0.0
 11
6386.396575106985
 21
7613.608155732528
 31
0.0
  0
LINE
  5
1C3B1
330
747D
100
AcDbEntity
  8
細線
100
AcDbLine
 10
6316.396575106987
 20
7613.608155732528
 30
0.0
 11
6246.396575106974
 21
7613.60815573253
 31
0.0
  0
LINE
  5
1C3B2
330
747D
100
AcDbEntity
  8
細線
100
AcDbLine
 10
6176.396575107
 20
7613.608155732534
 30
0.0
 11
6105.896575107004
 21
7613.608155732555
 31
0.0
  0
LINE
  5
1DC7C
330
747D
100
AcDbEntity
  8
細線
100
AcDbLine
 10
5944.896575106986
 20
7579.608155732517
 30
0.0
 11
5874.896575106987
 21
7579.608155732507
 31
0.0
  0
LINE
  5
1DC7D
330
747D
100
AcDbEntity
  8
細線
100
AcDbLine
 10
5944.896575106987
 20
7579.608155732559
 30
0.0
 11
5947.228113397756
 21
7584.608155732545
 31
0.0
  0
LINE
  5
1DC7E
330
747D
100
AcDbEntity
  8
細線
100
AcDbLine
 10
6012.565036816216
 20
7584.608155732528
 30
0.0
 11
5947.228113397741
 21
7584.608155732516
 31
0.0
  0
LINE
  5
1DC7F
330
747D
100
AcDbEntity
  8
細線
100
AcDbLine
 10
6014.89657510698
 20
7579.608155732548
 30
0.0
 11
6012.565036816214
 21
7584.608155732528
 31
0.0
  0
LINE
  5
1E435
330
747D
100
AcDbEntity
  8
細線
100
AcDbLine
 10
6596.396575106981
 20
7613.608155732548
 30
0.0
 11
6526.396575106986
 21
7613.608155732548
 31
0.0
  0
LINE
  5
1E436
330
747D
100
AcDbEntity
  8
細線
100
AcDbLine
 10
6666.396575107008
 20
7613.608155732527
 30
0.0
 11
6664.065036816222
 21
7618.608155732549
 31
0.0
  0
LINE
  5
1E437
330
747D
100
AcDbEntity
  8
細線
100
AcDbLine
 10
6664.065036816224
 20
7618.608155732549
 30
0.0
 11
6598.728113397751
 21
7618.608155732538
 31
0.0
  0
LINE
  5
1E438
330
747D
100
AcDbEntity
  8
細線
100
AcDbLine
 10
6596.396575106997
 20
7613.608155732582
 30
0.0
 11
6598.728113397765
 21
7618.608155732566
 31
0.0
  0
LINE
  5
1E4B9
330
747D
100
AcDbEntity
  8
細線
100
AcDbLine
 10
7278.896575106976
 20
7649.608155732547
 30
0.0
 11
7208.896575106978
 21
7649.608155732547
 31
0.0
  0
LINE
  5
1E4BA
330
747D
100
AcDbEntity
  8
細線
100
AcDbLine
 10
7278.89657510699
 20
7649.608155732578
 30
0.0
 11
7281.228113397758
 21
7654.608155732564
 31
0.0
  0
LINE
  5
1E4BB
330
747D
100
AcDbEntity
  8
細線
100
AcDbLine
 10
7346.565036816217
 20
7654.608155732545
 30
0.0
 11
7281.228113397744
 21
7654.608155732534
 31
0.0
  0
LINE
  5
1E4BC
330
747D
100
AcDbEntity
  8
細線
100
AcDbLine
 10
7348.896575106984
 20
7649.608155732559
 30
0.0
 11
7346.565036816217
 21
7654.608155732545
 31
0.0
  0
LINE
  5
1FD6F
330
747D
100
AcDbEntity
  8
破線
 48
10.0
100
AcDbLine
 10
5994.396575107
 20
7730.608155732451
 30
0.0
 11
5339.89657510699
 21
7730.608155732411
 31
0.0
  0
LINE
  5
1FD71
330
747D
100
AcDbEntity
  8
破線
 48
10.0
100
AcDbLine
 10
6685.396575107001
 20
7707.10815573249
 30
0.0
 11
6685.396575106998
 21
9306.608155732536
 31
0.0
  0
LINE
  5
1FD72
330
747D
100
AcDbEntity
  8
破線
 48
10.0
100
AcDbLine
 10
6735.396575106998
 20
7707.108155732493
 30
0.0
 11
6735.39657510701
 21
9306.608155732538
 31
0.0
  0
TEXT
  5
20645
330
747D
100
AcDbEntity
  8
文字
 62
     7
 48
50.0
100
AcDbText
 10
13583.11819016568
 20
8720.013745883727
 30
0.0
 40
100.0
  1
アンカープレート
  7
STYLE1
100
AcDbText
  0
TEXT
  5
20646
330
747D
100
AcDbEntity
  8
文字
 62
     7
 48
50.0
100
AcDbText
 10
15022.63965474515
 20
8720.013745883722
 30
0.0
 40
100.0
  1
F12            2.3
  7
STYLE1
100
AcDbText
  0
LINE
  5
20647
330
747D
100
AcDbEntity
  8
仕様書枠
 48
50.0
100
AcDbLine
 10
16307.2
 20
10049.6
 30
0.0
 11
13127.2
 21
10049.6
 31
0.0
  0
LINE
  5
20648
330
747D
100
AcDbEntity
  8
仕様書枠
 48
50.0
100
AcDbLine
 10
16307.2
 20
11409.6
 30
0.0
 11
13127.2
 21
11409.6
 31
0.0
  0
LINE
  5
20649
330
747D
100
AcDbEntity
  8
仕様書枠
 48
50.0
100
AcDbLine
 10
16307.19999999999
 20
8349.600000000002
 30
0.0
 11
16307.2
 21
11409.6
 31
0.0
  0
LINE
  5
2064A
330
747D
100
AcDbEntity
  8
仕様書枠
 48
50.0
100
AcDbLine
 10
14785.2
 20
11409.59999999999
 30
0.0
 11
14785.2
 21
8689.600000000005
 31
0.0
  0
LINE
  5
2064B
330
747D
100
AcDbEntity
  8
仕様書枠
 48
50.0
100
AcDbLine
 10
13490.2
 20
11409.6
 30
0.0
 11
13490.20000000001
 21
8689.600000000003
 31
0.0
  0
LINE
  5
2064C
330
747D
100
AcDbEntity
  8
仕様書枠
 48
50.0
100
AcDbLine
 10
16307.2
 20
11239.6
 30
0.0
 11
13127.2
 21
11239.6
 31
0.0
  0
LINE
  5
2064D
330
747D
100
AcDbEntity
  8
仕様書枠
 48
50.0
100
AcDbLine
 10
16307.2
 20
10899.6
 30
0.0
 11
13127.2
 21
10899.6
 31
0.0
  0
LINE
  5
2064E
330
747D
100
AcDbEntity
  8
仕様書枠
 48
50.0
100
AcDbLine
 10
16307.2
 20
11069.6
 30
0.0
 11
13127.2
 21
11069.6
 31
0.0
  0
LINE
  5
2064F
330
747D
100
AcDbEntity
  8
仕様書枠
 48
50.0
100
AcDbLine
 10
16307.19999999999
 20
10559.6
 30
0.0
 11
13127.2
 21
10559.6
 31
0.0
  0
LINE
  5
20650
330
747D
100
AcDbEntity
  8
仕様書枠
 48
50.0
100
AcDbLine
 10
16307.19999999999
 20
10389.6
 30
0.0
 11
13127.2
 21
10389.6
 31
0.0
  0
LINE
  5
20651
330
747D
100
AcDbEntity
  8
仕様書枠
 48
50.0
100
AcDbLine
 10
16307.19999999999
 20
10729.6
 30
0.0
 11
13127.2
 21
10729.6
 31
0.0
  0
TEXT
  5
20652
330
747D
100
AcDbEntity
  8
文字
 62
     7
 48
50.0
100
AcDbText
 10
13197.42518560407
 20
11270.01374588372
 30
0.0
 40
100.0
  1
品番
  7
STYLE1
100
AcDbText
  0
TEXT
  5
20653
330
747D
100
AcDbEntity
  8
文字
 62
     7
 48
50.0
100
AcDbText
 10
13271.19032244792
 20
11100.01374588373
 30
0.0
 40
100.0
  1
1
  7
STYLE1
100
AcDbText
  0
TEXT
  5
20654
330
747D
100
AcDbEntity
  8
文字
 62
     7
 48
50.0
100
AcDbText
 10
13271.19032244792
 20
10930.01374588373
 30
0.0
 40
100.0
  1
2
  7
STYLE1
100
AcDbText
  0
TEXT
  5
20655
330
747D
100
AcDbEntity
  8
文字
 62
     7
 48
50.0
100
AcDbText
 10
13271.19032244792
 20
10590.01374588373
 30
0.0
 40
100.0
  1
4
  7
STYLE1
100
AcDbText
  0
TEXT
  5
20656
330
747D
100
AcDbEntity
  8
文字
 62
     7
 48
50.0
100
AcDbText
 10
13271.19032244792
 20
10760.01374588373
 30
0.0
 40
100.0
  1
3
  7
STYLE1
100
AcDbText
  0
TEXT
  5
20657
330
747D
100
AcDbEntity
  8
文字
 62
     7
 48
50.0
100
AcDbText
 10
13732.03840939434
 20
11270.01374588372
 30
0.0
 40
100.0
  1
部　　品　　名
  7
STYLE1
100
AcDbText
  0
TEXT
  5
20658
330
747D
100
AcDbEntity
  8
文字
 62
     7
 48
50.0
100
AcDbText
 10
14859.79774614482
 20
11270.01374588372
 30
0.0
 40
100.0
  1
材料（材質）　　単位mm
  7
STYLE1
100
AcDbText
  0
TEXT
  5
20659
330
747D
100
AcDbEntity
  8
文字
 62
     7
 48
50.0
100
AcDbText
 10
13583.11819016569
 20
11100.01374588373
 30
0.0
 40
100.0
  1
土台枠
  7
STYLE1
100
AcDbText
  0
TEXT
  5
2065A
330
747D
100
AcDbEntity
  8
文字
 62
     7
 48
50.0
100
AcDbText
 10
13583.1181901657
 20
10760.01374588372
 30
0.0
 40
100.0
  1
柱
  7
STYLE1
100
AcDbText
  0
TEXT
  5
2065B
330
747D
100
AcDbEntity
  8
文字
 62
     7
 48
50.0
100
AcDbText
 10
13583.1181901657
 20
10420.01374588372
 30
0.0
 40
100.0
  1
鴨居
  7
STYLE1
100
AcDbText
  0
TEXT
  5
2065C
330
747D
100
AcDbEntity
  8
文字
 62
     7
 48
50.0
100
AcDbText
 10
13583.1181901657
 20
10250.01374588373
 30
0.0
 40
100.0
  1
桁後
  7
STYLE1
100
AcDbText
  0
TEXT
  5
2065D
330
747D
100
AcDbEntity
  8
文字
 62
     7
 48
50.0
100
AcDbText
 10
13271.19032244792
 20
10420.01374588372
 30
0.0
 40
100.0
  1
5
  7
STYLE1
100
AcDbText
  0
TEXT
  5
2065E
330
747D
100
AcDbEntity
  8
文字
 62
     7
 48
50.0
100
AcDbText
 10
13583.1181901657
 20
10080.01374588372
 30
0.0
 40
100.0
  1
妻板左右
  7
STYLE1
100
AcDbText
  0
TEXT
  5
2065F
330
747D
100
AcDbEntity
  8
文字
 62
     7
 48
50.0
100
AcDbText
 10
13248.77747366447
 20
9570.013745883727
 30
0.0
 40
100.0
  1
10
  7
STYLE1
100
AcDbText
  0
TEXT
  5
20660
330
747D
100
AcDbEntity
  8
文字
 62
     7
 48
50.0
100
AcDbText
 10
13583.11819016568
 20
9400.013745883729
 30
0.0
 40
100.0
  1
壁パネル
  7
STYLE1
100
AcDbText
  0
TEXT
  5
20661
330
747D
100
AcDbEntity
  8
文字
 62
     7
 48
50.0
100
AcDbText
 10
13583.11819016569
 20
9740.013745883729
 30
0.0
 40
100.0
  1
屋根パネル
  7
STYLE1
100
AcDbText
  0
TEXT
  5
20662
330
747D
100
AcDbEntity
  8
文字
 62
     7
 48
50.0
100
AcDbText
 10
13583.1181901657
 20
9910.013745883727
 30
0.0
 40
100.0
  1
鼻隠シ前後
  7
STYLE1
100
AcDbText
  0
TEXT
  5
20663
330
747D
100
AcDbEntity
  8
文字
 62
     7
 48
50.0
100
AcDbText
 10
13271.19032244792
 20
9910.01374588373
 30
0.0
 40
100.0
  1
8
  7
STYLE1
100
AcDbText
  0
TEXT
  5
20664
330
747D
100
AcDbEntity
  8
文字
 62
     7
 48
50.0
100
AcDbText
 10
13271.19032244792
 20
9740.013745883729
 30
0.0
 40
100.0
  1
9
  7
STYLE1
100
AcDbText
  0
TEXT
  5
20665
330
747D
100
AcDbEntity
  8
文字
 62
     7
 48
50.0
100
AcDbText
 10
13271.19032244792
 20
10080.01374588373
 30
0.0
 40
100.0
  1
7
  7
STYLE1
100
AcDbText
  0
TEXT
  5
20666
330
747D
100
AcDbEntity
  8
文字
 62
     7
 48
50.0
100
AcDbText
 10
13271.19032244792
 20
10250.01374588373
 30
0.0
 40
100.0
  1
6
  7
STYLE1
100
AcDbText
  0
LINE
  5
20667
330
747D
100
AcDbEntity
  8
仕様書枠
 48
50.0
100
AcDbLine
 10
16307.19999999999
 20
9709.6
 30
0.0
 11
13127.2
 21
9709.600000000001
 31
0.0
  0
LINE
  5
20668
330
747D
100
AcDbEntity
  8
仕様書枠
 48
50.0
100
AcDbLine
 10
16307.19999999999
 20
9369.599999999998
 30
0.0
 11
13127.2
 21
9369.600000000001
 31
0.0
  0
LINE
  5
20669
330
747D
100
AcDbEntity
  8
仕様書枠
 48
50.0
100
AcDbLine
 10
16307.19999999999
 20
9539.599999999998
 30
0.0
 11
13127.2
 21
9539.6
 31
0.0
  0
LINE
  5
2066A
330
747D
100
AcDbEntity
  8
仕様書枠
 48
50.0
100
AcDbLine
 10
16307.2
 20
10219.6
 30
0.0
 11
13127.2
 21
10219.6
 31
0.0
  0
LINE
  5
2066B
330
747D
100
AcDbEntity
  8
仕様書枠
 48
50.0
100
AcDbLine
 10
16307.2
 20
9879.599999999999
 30
0.0
 11
13127.2
 21
9879.600000000001
 31
0.0
  0
TEXT
  5
2066C
330
747D
100
AcDbEntity
  8
文字
 62
     7
 48
50.0
100
AcDbText
 10
13248.77747366447
 20
9400.013745883727
 30
0.0
 40
100.0
  1
11
  7
STYLE1
100
AcDbText
  0
LINE
  5
2066D
330
747D
100
AcDbEntity
  8
仕様書枠
 48
50.0
100
AcDbLine
 10
16307.19999999999
 20
9199.599999999998
 30
0.0
 11
13127.2
 21
9199.600000000001
 31
0.0
  0
LINE
  5
2066E
330
747D
100
AcDbEntity
  8
仕様書枠
 48
50.0
100
AcDbLine
 10
16307.19999999999
 20
8859.6
 30
0.0
 11
13127.2
 21
8859.600000000002
 31
0.0
  0
TEXT
  5
2066F
330
747D
100
AcDbEntity
  8
文字
 62
     7
 48
50.0
100
AcDbText
 10
13248.77747366447
 20
9060.013745883729
 30
0.0
 40
100.0
  1
13
  7
STYLE1
100
AcDbText
  0
TEXT
  5
20670
330
747D
100
AcDbEntity
  8
文字
 62
     7
 48
50.0
100
AcDbText
 10
13248.77747366447
 20
9230.013745883729
 30
0.0
 40
100.0
  1
12
  7
STYLE1
100
AcDbText
  0
TEXT
  5
20671
330
747D
100
AcDbEntity
  8
文字
 62
     7
 48
50.0
100
AcDbText
 10
15022.63965474517
 20
11100.01374588372
 30
0.0
 40
100.0
  1
F12            1.2
  7
STYLE1
100
AcDbText
  0
TEXT
  5
20672
330
747D
100
AcDbEntity
  8
文字
 62
     7
 48
50.0
100
AcDbText
 10
15022.63965474518
 20
10760.01374588372
 30
0.0
 40
100.0
  1
F12            1.0
  7
STYLE1
100
AcDbText
  0
TEXT
  5
20673
330
747D
100
AcDbEntity
  8
文字
 62
     7
 48
50.0
100
AcDbText
 10
15022.63965474517
 20
10420.01374588372
 30
0.0
 40
100.0
  1
Y10            1.0
  7
STYLE1
100
AcDbText
  0
TEXT
  5
20674
330
747D
100
AcDbEntity
  8
文字
 62
     7
 48
50.0
100
AcDbText
 10
15022.63965474517
 20
10250.01374588372
 30
0.0
 40
100.0
  1
Y10            1.0
  7
STYLE1
100
AcDbText
  0
TEXT
  5
20675
330
747D
100
AcDbEntity
  8
文字
 62
     7
 48
50.0
100
AcDbText
 10
15022.63965474517
 20
10080.01374588372
 30
0.0
 40
100.0
  1
Y10            0.7
  7
STYLE1
100
AcDbText
  0
TEXT
  5
20676
330
747D
100
AcDbEntity
  8
文字
 62
     7
 48
50.0
100
AcDbText
 10
15022.63965474517
 20
9910.013745883725
 30
0.0
 40
100.0
  1
Y10            0.7
  7
STYLE1
100
AcDbText
  0
TEXT
  5
20677
330
747D
100
AcDbEntity
  8
文字
 62
     7
 48
50.0
100
AcDbText
 10
15022.63965474517
 20
9740.013745883725
 30
0.0
 40
100.0
  1
Y10            0.5
  7
STYLE1
100
AcDbText
  0
TEXT
  5
20678
330
747D
100
AcDbEntity
  8
文字
 62
     7
 48
50.0
100
AcDbText
 10
15022.63965474515
 20
9400.013745883725
 30
0.0
 40
100.0
  1
F12            0.7
  7
STYLE1
100
AcDbText
  0
LINE
  5
20679
330
747D
100
AcDbEntity
  8
仕様書枠
 48
50.0
100
AcDbLine
 10
16307.19999999998
 20
8689.600000000003
 30
0.0
 11
13127.19999999999
 21
8689.600000000003
 31
0.0
  0
LINE
  5
2067A
330
747D
100
AcDbEntity
  8
仕様書枠
 48
50.0
100
AcDbLine
 10
16307.19999999998
 20
8519.600000000002
 30
0.0
 11
13127.19999999999
 21
8519.600000000004
 31
0.0
  0
TEXT
  5
2067B
330
747D
100
AcDbEntity
  8
文字
 62
     7
 48
50.0
100
AcDbText
 10
13229.83081656553
 20
8550.013745883731
 30
0.0
 40
100.0
  1
F12→溶融亜鉛めっき鋼板(JIS G 3302)
  7
STYLE1
100
AcDbText
  0
TEXT
  5
2067C
330
747D
100
AcDbEntity
  8
文字
 62
     7
 48
50.0
100
AcDbText
 10
13229.83081656553
 20
8380.013745883731
 30
0.0
 40
100.0
  1
Y10→溶融亜鉛-5％アルミニウム合金めっき鋼板(JIS G 3317)
 41
0.9
  7
STYLE1
100
AcDbText
  0
LINE
  5
2067D
330
747D
100
AcDbEntity
  8
仕様書枠
 48
50.0
100
AcDbLine
 10
13127.2
 20
11409.6
 30
0.0
 11
13127.19999999999
 21
8349.600000000002
 31
0.0
  0
LINE
  5
2067E
330
747D
100
AcDbEntity
  8
仕様書枠
 48
50.0
100
AcDbLine
 10
16307.19999999999
 20
9029.6
 30
0.0
 11
13127.2
 21
9029.600000000002
 31
0.0
  0
TEXT
  5
2067F
330
747D
100
AcDbEntity
  8
文字
 62
     7
 48
50.0
100
AcDbText
 10
13583.1181901657
 20
10590.01374588373
 30
0.0
 40
100.0
  1
床パネル
 41
0.9
  7
STYLE1
100
AcDbText
  0
TEXT
  5
20680
330
747D
100
AcDbEntity
  8
文字
 62
     7
 48
50.0
100
AcDbText
 10
13583.11819016569
 20
10930.01374588372
 30
0.0
 40
100.0
  1
根太
  7
STYLE1
100
AcDbText
  0
TEXT
  5
20681
330
747D
100
AcDbEntity
  8
文字
 62
     7
 48
50.0
100
AcDbText
 10
13248.77747366447
 20
8890.013745883729
 30
0.0
 40
100.0
  1
14
  7
STYLE1
100
AcDbText
  0
TEXT
  5
20682
330
747D
100
AcDbEntity
  8
文字
 62
     7
 48
50.0
100
AcDbText
 10
15022.63965474516
 20
10930.01374588372
 30
0.0
 40
100.0
  1
F12            1.2
  7
STYLE1
100
AcDbText
  0
TEXT
  5
20683
330
747D
100
AcDbEntity
  8
文字
 62
     7
 48
50.0
100
AcDbText
 10
15022.63965474517
 20
10590.01374588372
 30
0.0
 40
100.0
  1
F12            1.0
  7
STYLE1
100
AcDbText
  0
TEXT
  5
20684
330
747D
100
AcDbEntity
  8
文字
 62
     7
 48
50.0
100
AcDbText
 10
15022.63965474515
 20
9230.013745883725
 30
0.0
 40
100.0
  1
F12            0.7
  7
STYLE1
100
AcDbText
  0
TEXT
  5
20685
330
747D
100
AcDbEntity
  8
文字
 62
     7
 48
50.0
100
AcDbText
 10
13583.11819016568
 20
9230.013745883729
 30
0.0
 40
100.0
  1
正面パネル
  7
STYLE1
100
AcDbText
  0
TEXT
  5
20686
330
747D
100
AcDbEntity
  8
文字
 62
     7
 48
50.0
100
AcDbText
 10
15022.63965474515
 20
9060.013745883725
 30
0.0
 40
100.0
  1
F12            0.8
  7
STYLE1
100
AcDbText
  0
TEXT
  5
20687
330
747D
100
AcDbEntity
  8
文字
 62
     7
 48
50.0
100
AcDbText
 10
13583.11819016568
 20
9060.013745883729
 30
0.0
 40
100.0
  1
扉
  7
STYLE1
100
AcDbText
  0
TEXT
  5
20688
330
747D
100
AcDbEntity
  8
文字
 62
     7
 48
50.0
100
AcDbText
 10
15022.63965474515
 20
8890.013745883727
 30
0.0
 40
100.0
  1
F12            0.6
  7
STYLE1
100
AcDbText
  0
TEXT
  5
20689
330
747D
100
AcDbEntity
  8
文字
 62
     7
 48
50.0
100
AcDbText
 10
13583.11819016568
 20
8890.013745883731
 30
0.0
 40
100.0
  1
棚板
  7
STYLE1
100
AcDbText
  0
LINE
  5
2068A
330
747D
100
AcDbEntity
  8
仕様書枠
 48
50.0
100
AcDbLine
 10
16307.19999999998
 20
8349.600000000002
 30
0.0
 11
13127.19999999999
 21
8349.600000000004
 31
0.0
  0
TEXT
  5
2068B
330
747D
100
AcDbEntity
  8
文字
 62
     7
 48
50.0
100
AcDbText
 10
13248.77747366447
 20
8720.013745883731
 30
0.0
 40
100.0
  1
15
  7
STYLE1
100
AcDbText
  0
TEXT
  5
2068C
330
747D
100
AcDbEntity
  8
文字
 62
     7
 48
50.0
100
AcDbText
 10
13583.11819016569
 20
9570.013745883727
 30
0.0
 40
100.0
  1
母屋中
  7
STYLE1
100
AcDbText
  0
TEXT
  5
2068D
330
747D
100
AcDbEntity
  8
文字
 62
     7
 48
50.0
100
AcDbText
 10
14798.72402257234
 20
9570.013745883725
 30
0.0
 40
100.0
  1
F12(一般型1.0/多雪地型2.3)
  7
STYLE1
100
AcDbText
  0
LINE
  5
20793
330
747D
100
AcDbEntity
  8
部品1
100
AcDbLine
 10
7441.896575107001
 20
8051.608155732532
 30
0.0
 11
7469.896575107002
 21
8051.608155732532
 31
0.0
  0
LINE
  5
20794
330
747D
100
AcDbEntity
  8
部品1
100
AcDbLine
 10
5287.896575106981
 20
9311.608155732404
 30
0.0
 11
5259.896575106981
 21
9311.608155732404
 31
0.0
  0
LINE
  5
20795
330
747D
100
AcDbEntity
  8
部品1
 48
50.0
100
AcDbLine
 10
7413.396575106983
 20
8051.608155732532
 30
0.0
 11
5316.396575106981
 21
8051.608155732621
 31
0.0
  0
LWPOLYLINE
  5
21673
330
747D
100
AcDbEntity
  8
部品1
100
AcDbPolyline
 90
        4
 70
     1
 43
0.0
 10
10138.95862380027
 20
2026.076492849716
 10
10138.95862380027
 20
1786.184171304184
 10
10902.42929002871
 20
1786.184171304184
 10
10902.42929002871
 20
2026.076492849716
  0
TEXT
  5
21674
330
747D
100
AcDbEntity
  8
部品1
100
AcDbText
 10
10228.40472522388
 20
1833.182963631193
 30
0.0
 40
135.0
  1
側面図
  7
STYLE2
100
AcDbText
  0
LINE
  5
21C30
330
747D
100
AcDbEntity
  8
部品1
100
AcDbLine
 10
5287.896575106976
 20
8471.608155732409
 30
0.0
 11
5259.896575106975
 21
8471.608155732409
 31
0.0
  0
LINE
  5
21C31
330
747D
100
AcDbEntity
  8
部品1
100
AcDbLine
 10
7441.896575107001
 20
8471.608155732532
 30
0.0
 11
7469.896575107002
 21
8471.608155732532
 31
0.0
  0
LINE
  5
21C32
330
747D
100
AcDbEntity
  8
部品1
 48
50.0
100
AcDbLine
 10
7413.396575106969
 20
8471.608155732532
 30
0.0
 11
5316.396575106969
 21
8471.608155732621
 31
0.0
  0
ARC
  5
22509
330
747D
100
AcDbEntity
  8
細線
100
AcDbCircle
 10
5769.896581606886
 20
7605.108155732517
 30
0.0
 40
6.0
100
AcDbArc
 50
204.6243183521779
 51
335.3756816478222
  0
ARC
  5
2250A
330
747D
100
AcDbEntity
  8
細線
100
AcDbCircle
 10
6421.396581606881
 20
7639.108155732535
 30
0.0
 40
6.0
100
AcDbArc
 50
204.6243183521779
 51
335.3756816478222
  0
LINE
  5
2250B
330
747D
100
AcDbEntity
  8
細線
100
AcDbLine
 10
6093.896575106977
 20
7609.608155732548
 30
0.0
 11
6093.896575106978
 21
7613.608155732548
 31
0.0
  0
LINE
  5
2250C
330
747D
100
AcDbEntity
  8
細線
100
AcDbLine
 10
6093.896575106977
 20
7609.608155732548
 30
0.0
 11
6073.896575106988
 21
7609.608155732548
 31
0.0
  0
LINE
  5
2250D
330
747D
100
AcDbEntity
  8
細線
100
AcDbLine
 10
6073.896575106988
 20
7609.608155732548
 30
0.0
 11
6073.896575106998
 21
7643.608155732557
 31
0.0
  0
LINE
  5
2250E
330
747D
100
AcDbEntity
  8
細線
100
AcDbLine
 10
6114.896575106994
 20
7579.608155732562
 30
0.0
 11
6114.896575107003
 21
7609.608155732563
 31
0.0
  0
LINE
  5
2250F
330
747D
100
AcDbEntity
  8
細線
100
AcDbLine
 10
6114.896575107002
 20
7609.608155732563
 30
0.0
 11
6099.896575106999
 21
7609.608155732558
 31
0.0
  0
LINE
  5
22510
330
747D
100
AcDbEntity
  8
細線
100
AcDbLine
 10
6099.896575106997
 20
7602.608155732558
 30
0.0
 11
6099.896575106999
 21
7609.608155732558
 31
0.0
  0
LINE
  5
22511
330
747D
100
AcDbEntity
  8
細線
100
AcDbLine
 10
6099.896575106978
 20
7613.608155732555
 30
0.0
 11
6093.896575106978
 21
7613.608155732555
 31
0.0
  0
LINE
  5
22512
330
747D
100
AcDbEntity
  8
細線
100
AcDbLine
 10
6105.896575107004
 20
7612.908155732554
 30
0.0
 11
6105.896575107004
 21
7613.608155732555
 31
0.0
  0
ARC
  5
22513
330
747D
100
AcDbEntity
  8
細線
100
AcDbCircle
 10
6103.896575107003
 20
7612.908155732554
 30
0.0
 40
2.0
100
AcDbArc
 50
270.0
 51
0.0
  0
LINE
  5
22514
330
747D
100
AcDbEntity
  8
細線
100
AcDbLine
 10
6101.896575107003
 20
7610.908155732555
 30
0.0
 11
6103.896575107004
 21
7610.908155732555
 31
0.0
  0
LINE
  5
22515
330
747D
100
AcDbEntity
  8
細線
100
AcDbLine
 10
6099.896575107004
 20
7612.908155732554
 30
0.0
 11
6099.896575107004
 21
7613.608155732555
 31
0.0
  0
ARC
  5
22516
330
747D
100
AcDbEntity
  8
細線
100
AcDbCircle
 10
6101.896575107002
 20
7612.908155732554
 30
0.0
 40
2.0
100
AcDbArc
 50
180.0
 51
270.0
  0
LINE
  5
22518
330
747D
100
AcDbEntity
  8
細線
100
AcDbLine
 10
6088.896575106992
 20
7636.608155732533
 30
0.0
 11
6088.896575106996
 21
7643.608155732557
 31
0.0
  0
ARC
  5
22519
330
747D
100
AcDbEntity
  8
細線
100
AcDbCircle
 10
6755.896575106987
 20
7648.908155732525
 30
0.0
 40
2.0
100
AcDbArc
 50
180.0
 51
270.0
  0
LINE
  5
2251A
330
747D
100
AcDbEntity
  8
細線
100
AcDbLine
 10
6753.896575106988
 20
7648.908155732526
 30
0.0
 11
6753.896575106988
 21
7649.608155732526
 31
0.0
  0
LINE
  5
2251B
330
747D
100
AcDbEntity
  8
細線
100
AcDbLine
 10
6755.896575106987
 20
7646.908155732527
 30
0.0
 11
6757.896575106989
 21
7646.908155732527
 31
0.0
  0
ARC
  5
2251C
330
747D
100
AcDbEntity
  8
細線
100
AcDbCircle
 10
6757.896575106987
 20
7648.908155732525
 30
0.0
 40
2.0
100
AcDbArc
 50
270.0
 51
0.0
  0
LINE
  5
2251D
330
747D
100
AcDbEntity
  8
細線
100
AcDbLine
 10
6759.896575106989
 20
7648.908155732526
 30
0.0
 11
6759.896575106989
 21
7649.608155732526
 31
0.0
  0
LINE
  5
22870
330
747D
100
AcDbEntity
  8
細線
100
AcDbLine
 10
6088.896575106995
 20
7643.608155732557
 30
0.0
 11
6073.896575106996
 21
7643.608155732557
 31
0.0
  0
LINE
  5
22871
330
747D
100
AcDbEntity
  8
細線
100
AcDbLine
 10
6742.896575106986
 20
7673.108155732527
 30
0.0
 11
6742.896575106986
 21
7677.608155732521
 31
0.0
  0
MTEXT
  5
2289E
330
747D
100
AcDbEntity
  8
寸法
 62
     7
 48
50.0
100
AcDbMText
 10
5946.277650217345
 20
9382.214759260319
 30
0.0
 40
96.0
 41
0.0
 71
     5
 72
     1
  1
棚 3段
  7
STYLE1
 73
     1
 44
1.0
1001
ACAD
1000
MTEXTBEGIN
1070
    73
1070
     1
1070
    44
1040
1.0
1070
    74
1070
     0
1000
MTEXTEND
  0
MTEXT
  5
2289F
330
747D
100
AcDbEntity
  8
寸法
 62
     7
 48
50.0
100
AcDbMText
 10
7036.277650217343
 20
9382.21475926039
 30
0.0
 40
96.0
 41
0.0
 71
     5
 72
     1
  1
棚 3段
  7
STYLE1
 73
     1
 44
1.0
1001
ACAD
1000
MTEXTBEGIN
1070
    73
1070
     1
1070
    44
1040
1.0
1070
    74
1070
     0
1000
MTEXTEND
  0
LINE
  5
229DD
330
747D
100
AcDbEntity
  8
部品1
100
AcDbLine
 10
10335.23894327145
 20
5382.807003419507
 30
0.0
 11
10660.69395691449
 21
5365.288944460647
 31
0.0
  0
LINE
  5
229DE
330
747D
100
AcDbEntity
  8
部品1
 48
50.0
100
AcDbLine
 10
10610.69395691449
 20
2876.056521119535
 30
0.0
 11
10610.69395691449
 21
2776.056521119536
 31
0.0
  0
LINE
  5
229DF
330
747D
100
AcDbEntity
  8
部品1
 48
50.0
100
AcDbLine
 10
10410.69395691449
 20
2876.056521119535
 30
0.0
 11
10410.69395691449
 21
2776.056521119536
 31
0.0
  0
ARC
  5
229E0
330
747D
100
AcDbEntity
  8
部品1
100
AcDbCircle
 10
11681.32149272843
 20
5090.080278385328
 30
0.0
 40
0.7
100
AcDbArc
 50
275.0921697642102
 51
354.1866997666828
  0
ARC
  5
229E1
330
747D
100
AcDbEntity
  8
部品1
100
AcDbCircle
 10
11692.18083847775
 20
5167.123533203251
 30
0.0
 40
0.7
100
AcDbArc
 50
275.0921697642102
 51
354.1866997665273
  0
ARC
  5
229E2
330
747D
100
AcDbEntity
  8
部品1
100
AcDbCircle
 10
11692.50924372035
 20
5163.438136346162
 30
0.0
 40
3.0
100
AcDbArc
 50
95.092169764314
 51
174.1866997665272
  0
ARC
  5
229E3
330
747D
100
AcDbEntity
  8
部品1
100
AcDbCircle
 10
11681.64989797103
 20
5086.394881528238
 30
0.0
 40
3.0
100
AcDbArc
 50
95.0921697642102
 51
174.1866997665272
  0
ARC
  5
229E4
330
747D
100
AcDbEntity
  8
部品1
 48
50.0
100
AcDbCircle
 10
11670.62176269592
 20
5076.804136924355
 30
0.0
 40
7.0
100
AcDbArc
 50
267.8377559870533
 51
354.1866997665273
  0
ARC
  5
229E5
330
747D
100
AcDbEntity
  8
部品1
 48
50.0
100
AcDbCircle
 10
11687.94385916044
 20
5187.706684066529
 30
0.0
 40
7.0
100
AcDbArc
 50
354.1866997665273
 51
87.03587545293501
  0
LINE
  5
229E6
330
747D
100
AcDbEntity
  8
部品1
 48
50.0
100
AcDbLine
 10
11678.66532630042
 20
5086.698743245141
 30
0.0
 11
11677.58576326068
 21
5076.095126251582
 31
0.0
  0
LINE
  5
229E7
330
747D
100
AcDbEntity
  8
部品1
 48
50.0
100
AcDbLine
 10
11689.52467204974
 20
5163.741998063064
 30
0.0
 11
11682.01789278491
 21
5090.009377318052
 31
0.0
  0
LINE
  5
229E8
330
747D
100
AcDbEntity
  8
部品1
 48
50.0
100
AcDbLine
 10
11694.9078597252
 20
5186.997673393754
 30
0.0
 11
11692.87723853422
 21
5167.052632135973
 31
0.0
  0
ARC
  5
229E9
330
747D
100
AcDbEntity
  8
部品1
100
AcDbCircle
 10
9351.731048785859
 20
5129.87068007844
 30
0.0
 40
0.7
100
AcDbArc
 50
181.0932240292375
 51
260.1877540315916
  0
ARC
  5
229EA
330
747D
100
AcDbEntity
  8
部品1
100
AcDbCircle
 10
9346.958375188249
 20
5222.736458278558
 30
0.0
 40
0.7
100
AcDbArc
 50
181.0932240292114
 51
260.1877540315916
  0
ARC
  5
229EB
330
747D
100
AcDbEntity
  8
部品1
100
AcDbCircle
 10
9346.327820785226
 20
5219.090583741161
 30
0.0
 40
3.0
100
AcDbArc
 50
1.093224029289586
 51
80.18775403159162
  0
ARC
  5
229EC
330
747D
100
AcDbEntity
  8
部品1
100
AcDbCircle
 10
9351.100494382833
 20
5126.224805541042
 30
0.0
 40
3.0
100
AcDbArc
 50
1.093224029289586
 51
80.18775403159162
  0
ARC
  5
229ED
330
747D
100
AcDbEntity
  8
部品1
 48
50.0
100
AcDbCircle
 10
9361.300626758035
 20
5115.832562158561
 30
0.0
 40
7.0
100
AcDbArc
 50
181.0932240292895
 51
267.8377559870533
  0
ARC
  5
229EE
330
747D
100
AcDbEntity
  8
部品1
 48
50.0
100
AcDbCircle
 10
9352.876968655939
 20
5242.783621691656
 30
0.0
 40
7.0
100
AcDbArc
 50
87.03587545293501
 51
181.0932240292895
  0
LINE
  5
229EF
330
747D
100
AcDbEntity
  8
部品1
 48
50.0
100
AcDbLine
 10
9354.099948309263
 20
5126.282043144225
 30
0.0
 11
9354.301900929696
 21
5115.699007751133
 31
0.0
  0
LINE
  5
229F0
330
747D
100
AcDbEntity
  8
細線
 48
50.0
100
AcDbLine
 10
9351.493855252593
 20
5129.212091263034
 30
0.0
 11
11681.49751968323
 21
5089.40277228854
 31
0.0
  0
LINE
  5
229F1
330
747D
100
AcDbEntity
  8
細線
 48
50.0
100
AcDbLine
 10
9346.733380015306
 20
5222.073602960897
 30
0.0
 11
11692.36936476047
 21
5166.449398320069
 31
0.0
  0
LINE
  5
229F2
330
747D
100
AcDbEntity
  8
部品1
 48
50.0
100
AcDbLine
 10
9349.327274711658
 20
5219.147821344344
 30
0.0
 11
9351.03117620302
 21
5129.857324637697
 31
0.0
  0
LINE
  5
229F3
330
747D
100
AcDbEntity
  8
部品1
 48
50.0
100
AcDbLine
 10
9345.8782428276
 20
5242.650067284229
 30
0.0
 11
9346.258502605412
 21
5222.723102837816
 31
0.0
  0
LINE
  5
229F4
330
747D
100
AcDbEntity
  8
細線
 48
50.0
100
AcDbLine
 10
11662.69395691449
 20
5196.023500154832
 30
0.0
 11
11657.9462740265
 21
5070.277727664088
 31
0.0
  0
LINE
  5
229F5
330
747D
100
AcDbEntity
  8
細線
 48
50.0
100
AcDbLine
 10
9378.693956914492
 20
5248.45619749494
 30
0.0
 11
9373.404855358986
 21
5108.370564867586
 31
0.0
  0
LINE
  5
229F6
330
747D
100
AcDbEntity
  8
部品1
100
AcDbLine
 10
9361.036521516446
 20
5108.837546188503
 30
0.0
 11
11670.35765745434
 21
5069.809120954297
 31
0.0
  0
LINE
  5
229F7
330
747D
100
AcDbEntity
  8
部品1
100
AcDbLine
 10
9353.238943271454
 20
5249.774256453802
 30
0.0
 11
11688.30583377596
 21
5194.697318828675
 31
0.0
  0
LINE
  5
229F8
330
747D
100
AcDbEntity
  8
部品1
 48
50.0
100
AcDbLine
 10
10360.69395691449
 20
5381.488944460646
 30
0.0
 11
10660.69395691449
 21
5381.488944460646
 31
0.0
  0
LINE
  5
229F9
330
747D
100
AcDbEntity
  8
部品1
 48
50.0
100
AcDbLine
 10
10660.69395691449
 20
5381.488944460646
 30
0.0
 11
10660.69395691449
 21
5365.288944460647
 31
0.0
  0
TEXT
  5
229FA
330
747D
100
AcDbEntity
  8
部品1
 48
50.0
100
AcDbText
 10
10348.96179213822
 20
5417.372966613079
 30
0.0
 40
120.0
  1
1000
  7
STYLE1
100
AcDbText
  0
TEXT
  5
229FB
330
747D
100
AcDbEntity
  8
部品1
 48
50.0
100
AcDbText
 10
10826.59481480331
 20
5279.871708394797
 30
0.0
 40
120.0
  1
44
 50
90.0
  7
STYLE1
100
AcDbText
  0
LINE
  5
229FC
330
747D
100
AcDbEntity
  8
細線
 48
50.0
100
AcDbLine
 10
10798.19395691449
 20
5016.056521119535
 30
0.0
 11
10798.19395691449
 21
2926.056521119535
 31
0.0
  0
LINE
  5
229FD
330
747D
100
AcDbEntity
  8
細線
 48
50.0
100
AcDbLine
 10
10783.19395691449
 20
5016.056521119535
 30
0.0
 11
10783.19395691449
 21
2926.056521119535
 31
0.0
  0
LINE
  5
229FE
330
747D
100
AcDbEntity
  8
細線
 48
50.0
100
AcDbLine
 10
10923.19395691449
 20
5016.056521119535
 30
0.0
 11
10923.19395691449
 21
2926.056521119535
 31
0.0
  0
LINE
  5
229FF
330
747D
100
AcDbEntity
  8
細線
 48
50.0
100
AcDbLine
 10
10938.19395691449
 20
5016.056521119535
 30
0.0
 11
10938.19395691449
 21
2926.056521119535
 31
0.0
  0
LINE
  5
22A00
330
747D
100
AcDbEntity
  8
細線
 48
50.0
100
AcDbLine
 10
11078.19395691449
 20
5016.056521119535
 30
0.0
 11
11078.19395691449
 21
2926.056521119535
 31
0.0
  0
LINE
  5
22A01
330
747D
100
AcDbEntity
  8
細線
 48
50.0
100
AcDbLine
 10
11063.19395691449
 20
5016.056521119535
 30
0.0
 11
11063.19395691449
 21
2926.056521119535
 31
0.0
  0
LINE
  5
22A02
330
747D
100
AcDbEntity
  8
部品1
100
AcDbLine
 10
11140.69395691449
 20
5016.056521119535
 30
0.0
 11
11140.69395691449
 21
2926.056521119535
 31
0.0
  0
LINE
  5
22A03
330
747D
100
AcDbEntity
  8
部品1
100
AcDbLine
 10
9405.693956914493
 20
5016.056521119535
 30
0.0
 11
11615.69395691449
 21
5016.056521119535
 31
0.0
  0
LINE
  5
22A04
330
747D
100
AcDbEntity
  8
部品1
100
AcDbLine
 10
9405.693956914493
 20
2926.056521119535
 30
0.0
 11
11615.69395691449
 21
2926.056521119536
 31
0.0
  0
LINE
  5
22A05
330
747D
100
AcDbEntity
  8
部品1
100
AcDbLine
 10
9405.693956914493
 20
2876.056521119535
 30
0.0
 11
9413.193956914494
 21
2876.056521119535
 31
0.0
  0
LINE
  5
22A06
330
747D
100
AcDbEntity
  8
部品1
100
AcDbLine
 10
9460.693956914495
 20
5016.056521119535
 30
0.0
 11
9460.693956914493
 21
2926.056521119535
 31
0.0
  0
LINE
  5
22A07
330
747D
100
AcDbEntity
  8
部品1
100
AcDbLine
 10
9405.693956914495
 20
5108.082818164123
 30
0.0
 11
9405.693956914493
 21
2776.056521119536
 31
0.0
  0
DIMENSION
  5
22A0B
330
747D
100
AcDbEntity
  8
寸法
100
AcDbDimension
  2
*D13
 10
8261.943827731233
 20
2776.056521119536
 30
0.0
 11
8261.943827731233
 21
2540.009277025048
 31
0.0
 70
   160
 71
     5
 42
100.0000000000004
  3
INABA_S40G
100
AcDbAlignedDimension
 13
9350.693956914494
 23
2876.056521119535
 33
0.0
 14
8349.19288101936
 24
2776.056521119536
 34
0.0
 50
90.0
100
AcDbRotatedDimension
1001
ACAD
1000
DSTYLE
1002
{
1070
   174
1070
     0
1070
   272
1070
     1
1070
   288
1070
     0
1070
   341
1005
0
1002
}
  0
DIMENSION
  5
22A0C
330
747D
100
AcDbEntity
  8
寸法
100
AcDbDimension
  2
*D14
 10
8561.943827731232
 20
2876.056521119536
 30
0.0
 11
8561.943827731232
 21
2570.009277025048
 31
0.0
 70
   160
 71
     5
 42
50.0
  3
INABA_S40G
100
AcDbAlignedDimension
 13
9405.693956914493
 23
2926.056521119535
 33
0.0
 14
9350.693956914494
 24
2876.056521119535
 34
0.0
 50
90.0
100
AcDbRotatedDimension
1001
ACAD
1000
DSTYLE
1002
{
1070
   174
1070
     0
1070
   272
1070
     1
1070
   288
1070
     0
1070
   341
1005
0
1002
}
  0
LINE
  5
22A0D
330
747D
100
AcDbEntity
  8
部品1
100
AcDbLine
 10
9880.693956914493
 20
5016.056521119535
 30
0.0
 11
9880.693956914493
 21
2926.056521119535
 31
0.0
  0
LINE
  5
22A0E
330
747D
100
AcDbEntity
  8
部品1
100
AcDbLine
 10
11615.69395691449
 20
5070.732958750756
 30
0.0
 11
11615.69395691449
 21
2776.056521119536
 31
0.0
  0
LINE
  5
22A0F
330
747D
100
AcDbEntity
  8
部品1
100
AcDbLine
 10
11560.6939569145
 20
5016.056521119535
 30
0.0
 11
11560.69395691449
 21
2926.056521119535
 31
0.0
  0
LINE
  5
22A11
330
747D
100
AcDbEntity
  8
部品1
100
AcDbLine
 10
9605.693956914493
 20
2876.056521119535
 30
0.0
 11
9605.693956914493
 21
2776.056521119536
 31
0.0
  0
LINE
  5
22A12
330
747D
100
AcDbEntity
  8
部品1
100
AcDbLine
 10
11415.69395691449
 20
2876.056521119535
 30
0.0
 11
11415.69395691449
 21
2776.056521119536
 31
0.0
  0
DIMENSION
  5
22A13
330
747D
100
AcDbEntity
  8
寸法
 48
50.0
100
AcDbDimension
  2
*D15
 10
9405.693956914493
 20
5649.71397469884
 30
0.0
 11
10500.338693985
 21
5649.71397469884
 31
0.0
 70
   160
  1
柱外寸法<>
 71
     5
 42
2210.0
  3
INABA_S40G
100
AcDbAlignedDimension
 13
11615.69395691449
 23
5197.867200731189
 33
0.0
 14
9405.693956914493
 24
5247.058139242511
 34
0.0
100
AcDbRotatedDimension
1001
ACAD
1000
DSTYLE
1002
{
1070
   174
1070
     0
1070
   272
1070
     1
1070
   288
1070
     0
1070
   341
1005
0
1002
}
  0
DIMENSION
  5
22A14
330
747D
100
AcDbEntity
  8
寸法
 48
50.0
100
AcDbDimension
  2
*D16
 10
9345.693956914493
 20
5649.71397469884
 30
0.0
 11
9036.056161638901
 21
5649.71397469884
 31
0.0
 70
   160
 71
     5
 42
60.0
  3
INABA_S40G
100
AcDbAlignedDimension
 13
9405.693956914493
 23
5247.058139242511
 33
0.0
 14
9345.693956914493
 24
5251.05652111954
 34
0.0
100
AcDbRotatedDimension
1001
ACAD
1000
DSTYLE
1002
{
1070
   174
1070
     0
1070
   272
1070
     1
1070
   288
1070
     0
1070
   341
1005
0
1002
}
  0
DIMENSION
  5
22A15
330
747D
100
AcDbEntity
  8
寸法
 48
50.0
100
AcDbDimension
  2
*D17
 10
9345.693956914493
 20
5868.915808373131
 30
0.0
 11
10580.03781100696
 21
5868.915808373131
 31
0.0
 70
   160
 71
     5
 42
2350.0
  3
INABA_S40G
100
AcDbAlignedDimension
 13
11695.69395691449
 23
5196.056521119537
 33
0.0
 14
9345.693956914493
 24
5251.05652111954
 34
0.0
100
AcDbRotatedDimension
1001
ACAD
1000
DSTYLE
1002
{
1070
   174
1070
     0
1070
   272
1070
     1
1070
   288
1070
     0
1070
   341
1005
0
1002
}
  0
LINE
  5
22A16
330
747D
100
AcDbEntity
  8
破線
  6
HIDDEN
 48
5.0
100
AcDbLine
 10
11623.19395691449
 20
2621.056521119536
 30
0.0
 11
11553.19395691449
 21
2621.056521119536
 31
0.0
  0
LINE
  5
22A17
330
747D
100
AcDbEntity
  8
破線
  6
HIDDEN
 48
5.0
100
AcDbLine
 10
11568.19395691449
 20
2771.056521119536
 30
0.0
 11
11553.19395691449
 21
2623.356521119536
 31
0.0
  0
LINE
  5
22A18
330
747D
100
AcDbEntity
  8
破線
  6
HIDDEN
 48
5.0
100
AcDbLine
 10
11553.19395691449
 20
2623.356521119536
 30
0.0
 11
11553.19395691449
 21
2621.056521119536
 31
0.0
  0
LINE
  5
22A19
330
747D
100
AcDbEntity
  8
破線
  6
HIDDEN
 48
5.0
100
AcDbLine
 10
11608.19395691449
 20
2771.056521119536
 30
0.0
 11
11623.19395691449
 21
2623.356521119536
 31
0.0
  0
LINE
  5
22A1A
330
747D
100
AcDbEntity
  8
破線
  6
HIDDEN
 48
5.0
100
AcDbLine
 10
11623.19395691449
 20
2623.356521119536
 30
0.0
 11
11623.19395691449
 21
2621.056521119536
 31
0.0
  0
LINE
  5
22A1B
330
747D
100
AcDbEntity
  8
破線
  6
HIDDEN
 48
5.0
100
AcDbLine
 10
9398.193956914493
 20
2621.056521119535
 30
0.0
 11
9468.193956914493
 21
2621.056521119535
 31
0.0
  0
LINE
  5
22A1C
330
747D
100
AcDbEntity
  8
破線
  6
HIDDEN
 48
5.0
100
AcDbLine
 10
9398.193956914493
 20
2623.356521119535
 30
0.0
 11
9398.193956914493
 21
2621.056521119535
 31
0.0
  0
LINE
  5
22A1D
330
747D
100
AcDbEntity
  8
破線
  6
HIDDEN
 48
5.0
100
AcDbLine
 10
9468.193956914493
 20
2623.356521119535
 30
0.0
 11
9468.193956914493
 21
2621.056521119535
 31
0.0
  0
LINE
  5
22A1E
330
747D
100
AcDbEntity
  8
破線
  6
HIDDEN
 48
5.0
100
AcDbLine
 10
9413.193956914494
 20
2771.056521119536
 30
0.0
 11
9398.193956914493
 21
2623.356521119535
 31
0.0
  0
LINE
  5
22A1F
330
747D
100
AcDbEntity
  8
破線
  6
HIDDEN
 48
5.0
100
AcDbLine
 10
9453.193956914493
 20
2771.056521119535
 30
0.0
 11
9468.193956914493
 21
2623.356521119535
 31
0.0
  0
LINE
  5
22A20
330
747D
100
AcDbEntity
  8
部品1
 48
50.0
100
AcDbLine
 10
9413.193956914494
 20
2916.056521119536
 30
0.0
 11
9413.193956914494
 21
2776.056521119535
 31
0.0
  0
LINE
  5
22A21
330
747D
100
AcDbEntity
  8
部品1
 48
50.0
100
AcDbLine
 10
9453.193956914493
 20
2916.056521119535
 30
0.0
 11
9453.193956914493
 21
2776.056521119535
 31
0.0
  0
LINE
  5
22A22
330
747D
100
AcDbEntity
  8
部品1
100
AcDbLine
 10
9418.193956914493
 20
2921.056521119536
 30
0.0
 11
9448.193956914492
 21
2921.056521119535
 31
0.0
  0
ARC
  5
22A23
330
747D
100
AcDbEntity
  8
部品1
 48
50.0
100
AcDbCircle
 10
9418.193956914493
 20
2916.056521119536
 30
0.0
 40
5.0
100
AcDbArc
 50
90.0
 51
180.0
  0
ARC
  5
22A24
330
747D
100
AcDbEntity
  8
部品1
 48
50.0
100
AcDbCircle
 10
9448.193956914492
 20
2916.056521119535
 30
0.0
 40
5.0
100
AcDbArc
 50
0.0
 51
90.0
  0
LINE
  5
22A25
330
747D
100
AcDbEntity
  8
部品1
 48
50.0
100
AcDbLine
 10
11568.19395691449
 20
2916.056521119536
 30
0.0
 11
11568.19395691449
 21
2776.056521119536
 31
0.0
  0
LINE
  5
22A26
330
747D
100
AcDbEntity
  8
部品1
 48
50.0
100
AcDbLine
 10
11608.19395691449
 20
2916.056521119536
 30
0.0
 11
11608.19395691449
 21
2776.056521119536
 31
0.0
  0
LINE
  5
22A27
330
747D
100
AcDbEntity
  8
部品1
100
AcDbLine
 10
11603.19395691449
 20
2921.056521119536
 30
0.0
 11
11573.19395691449
 21
2921.056521119536
 31
0.0
  0
ARC
  5
22A28
330
747D
100
AcDbEntity
  8
部品1
 48
50.0
100
AcDbCircle
 10
11573.19395691449
 20
2916.056521119536
 30
0.0
 40
5.0
100
AcDbArc
 50
90.0
 51
180.0
  0
ARC
  5
22A29
330
747D
100
AcDbEntity
  8
部品1
 48
50.0
100
AcDbCircle
 10
11603.19395691449
 20
2916.056521119536
 30
0.0
 40
5.0
100
AcDbArc
 50
0.0
 51
90.0
  0
LINE
  5
22A2A
330
747D
100
AcDbEntity
  8
破線
  6
HIDDEN
 48
5.0
100
AcDbLine
 10
11568.19395691449
 20
2776.056521119536
 30
0.0
 11
11568.19395691449
 21
2771.056521119536
 31
0.0
  0
LINE
  5
22A2B
330
747D
100
AcDbEntity
  8
破線
  6
HIDDEN
 48
5.0
100
AcDbLine
 10
11608.19395691449
 20
2776.056521119536
 30
0.0
 11
11608.19395691449
 21
2771.056521119536
 31
0.0
  0
LINE
  5
22A2C
330
747D
100
AcDbEntity
  8
破線
  6
HIDDEN
 48
5.0
100
AcDbLine
 10
9413.193956914501
 20
2776.056521119535
 30
0.0
 11
9413.193956914501
 21
2771.056521119536
 31
0.0
  0
LINE
  5
22A2D
330
747D
100
AcDbEntity
  8
破線
  6
HIDDEN
 48
5.0
100
AcDbLine
 10
9453.193956914493
 20
2776.056521119535
 30
0.0
 11
9453.193956914493
 21
2771.056521119535
 31
0.0
  0
LINE
  5
22A2E
330
747D
100
AcDbEntity
  8
部品1
100
AcDbLine
 10
11608.19395691449
 20
2876.056521119535
 30
0.0
 11
11615.69395691449
 21
2876.056521119535
 31
0.0
  0
LINE
  5
22A2F
330
747D
100
AcDbEntity
  8
部品1
100
AcDbLine
 10
9453.193956914493
 20
2876.056521119536
 30
0.0
 11
11568.19395691449
 21
2876.056521119536
 31
0.0
  0
LINE
  5
22A32
330
747D
100
AcDbEntity
  8
細線
 48
50.0
100
AcDbLine
 10
9958.193956914492
 20
5016.056521119535
 30
0.0
 11
9958.193956914492
 21
2926.056521119535
 31
0.0
  0
LINE
  5
22A33
330
747D
100
AcDbEntity
  8
細線
 48
50.0
100
AcDbLine
 10
9943.193956914493
 20
5016.056521119535
 30
0.0
 11
9943.193956914493
 21
2926.056521119535
 31
0.0
  0
LINE
  5
22A34
330
747D
100
AcDbEntity
  8
細線
 48
50.0
100
AcDbLine
 10
10083.19395691449
 20
5016.056521119535
 30
0.0
 11
10083.19395691449
 21
2926.056521119535
 31
0.0
  0
LINE
  5
22A35
330
747D
100
AcDbEntity
  8
細線
 48
50.0
100
AcDbLine
 10
10098.19395691449
 20
5016.056521119535
 30
0.0
 11
10098.19395691449
 21
2926.056521119535
 31
0.0
  0
LINE
  5
22A36
330
747D
100
AcDbEntity
  8
細線
 48
50.0
100
AcDbLine
 10
10238.19395691449
 20
5016.056521119535
 30
0.0
 11
10238.19395691449
 21
2926.056521119535
 31
0.0
  0
LINE
  5
22A37
330
747D
100
AcDbEntity
  8
細線
 48
50.0
100
AcDbLine
 10
10223.19395691449
 20
5016.056521119535
 30
0.0
 11
10223.19395691449
 21
2926.056521119535
 31
0.0
  0
LINE
  5
22A38
330
747D
100
AcDbEntity
  8
細線
 48
50.0
100
AcDbLine
 10
9803.193956914494
 20
5016.056521119535
 30
0.0
 11
9803.193956914492
 21
2926.056521119535
 31
0.0
  0
LINE
  5
22A39
330
747D
100
AcDbEntity
  8
細線
 48
50.0
100
AcDbLine
 10
9818.193956914495
 20
5016.056521119535
 30
0.0
 11
9818.193956914493
 21
2926.056521119535
 31
0.0
  0
LINE
  5
22A3A
330
747D
100
AcDbEntity
  8
細線
 48
50.0
100
AcDbLine
 10
9678.193956914494
 20
5016.056521119535
 30
0.0
 11
9678.193956914492
 21
2926.056521119535
 31
0.0
  0
LINE
  5
22A3B
330
747D
100
AcDbEntity
  8
細線
 48
50.0
100
AcDbLine
 10
9663.193956914495
 20
5016.056521119535
 30
0.0
 11
9663.193956914494
 21
2926.056521119535
 31
0.0
  0
LINE
  5
22A3C
330
747D
100
AcDbEntity
  8
細線
 48
50.0
100
AcDbLine
 10
9523.193956914495
 20
5016.056521119535
 30
0.0
 11
9523.193956914493
 21
2926.056521119535
 31
0.0
  0
LINE
  5
22A3D
330
747D
100
AcDbEntity
  8
細線
 48
50.0
100
AcDbLine
 10
9538.193956914495
 20
5016.056521119535
 30
0.0
 11
9538.193956914494
 21
2926.056521119535
 31
0.0
  0
DIMENSION
  5
22A3E
330
747D
100
AcDbEntity
  8
寸法
 48
50.0
100
AcDbDimension
  2
*D18
 10
11695.69395691449
 20
5649.71397469884
 30
0.0
 11
11901.74120100898
 21
5649.71397469884
 31
0.0
 70
   160
 71
     5
 42
80.0
  3
INABA_S40G
100
AcDbAlignedDimension
 13
11615.69395691449
 23
5197.867200731189
 33
0.0
 14
11695.69395691449
 24
5196.056521119537
 34
0.0
100
AcDbRotatedDimension
1001
ACAD
1000
DSTYLE
1002
{
1070
   174
1070
     0
1070
   272
1070
     1
1070
   288
1070
     0
1070
   341
1005
0
1002
}
  0
LINE
  5
22A3F
330
747D
100
AcDbEntity
  8
部品1
100
AcDbLine
 10
10300.69395691449
 20
5016.056521119535
 30
0.0
 11
10300.69395691449
 21
2926.056521119535
 31
0.0
  0
LINE
  5
22A40
330
747D
100
AcDbEntity
  8
細線
 48
50.0
100
AcDbLine
 10
10643.19395691449
 20
5016.056521119535
 30
0.0
 11
10643.19395691449
 21
2926.056521119535
 31
0.0
  0
LINE
  5
22A41
330
747D
100
AcDbEntity
  8
細線
 48
50.0
100
AcDbLine
 10
10658.19395691449
 20
5016.056521119535
 30
0.0
 11
10658.19395691449
 21
2926.056521119535
 31
0.0
  0
LINE
  5
22A42
330
747D
100
AcDbEntity
  8
細線
 48
50.0
100
AcDbLine
 10
10518.19395691449
 20
5016.056521119535
 30
0.0
 11
10518.19395691449
 21
2926.056521119535
 31
0.0
  0
LINE
  5
22A43
330
747D
100
AcDbEntity
  8
細線
 48
50.0
100
AcDbLine
 10
10503.19395691449
 20
5016.056521119535
 30
0.0
 11
10503.19395691449
 21
2926.056521119535
 31
0.0
  0
LINE
  5
22A44
330
747D
100
AcDbEntity
  8
細線
 48
50.0
100
AcDbLine
 10
10363.19395691449
 20
5016.056521119535
 30
0.0
 11
10363.19395691449
 21
2926.056521119535
 31
0.0
  0
LINE
  5
22A45
330
747D
100
AcDbEntity
  8
細線
 48
50.0
100
AcDbLine
 10
10378.19395691449
 20
5016.056521119535
 30
0.0
 11
10378.19395691449
 21
2926.056521119535
 31
0.0
  0
LINE
  5
22A46
330
747D
100
AcDbEntity
  8
部品1
100
AcDbLine
 10
10720.69395691449
 20
5016.056521119535
 30
0.0
 11
10720.69395691449
 21
2926.056521119535
 31
0.0
  0
LINE
  5
22A47
330
747D
100
AcDbEntity
  8
細線
 48
50.0
100
AcDbLine
 10
11218.1939569145
 20
5016.056521119535
 30
0.0
 11
11218.1939569145
 21
2926.056521119535
 31
0.0
  0
LINE
  5
22A48
330
747D
100
AcDbEntity
  8
細線
 48
50.0
100
AcDbLine
 10
11203.1939569145
 20
5016.056521119535
 30
0.0
 11
11203.1939569145
 21
2926.056521119535
 31
0.0
  0
LINE
  5
22A49
330
747D
100
AcDbEntity
  8
細線
 48
50.0
100
AcDbLine
 10
11343.1939569145
 20
5016.056521119535
 30
0.0
 11
11343.1939569145
 21
2926.056521119535
 31
0.0
  0
LINE
  5
22A4A
330
747D
100
AcDbEntity
  8
細線
 48
50.0
100
AcDbLine
 10
11358.1939569145
 20
5016.056521119535
 30
0.0
 11
11358.1939569145
 21
2926.056521119535
 31
0.0
  0
LINE
  5
22A4B
330
747D
100
AcDbEntity
  8
細線
 48
50.0
100
AcDbLine
 10
11498.1939569145
 20
5016.056521119535
 30
0.0
 11
11498.1939569145
 21
2926.056521119535
 31
0.0
  0
LINE
  5
22A4C
330
747D
100
AcDbEntity
  8
細線
 48
50.0
100
AcDbLine
 10
11483.1939569145
 20
5016.056521119535
 30
0.0
 11
11483.1939569145
 21
2926.056521119535
 31
0.0
  0
DIMENSION
  5
22A4D
330
747D
100
AcDbEntity
  8
寸法
 48
50.0
100
AcDbDimension
  2
*D19
 10
8785.085550146121
 20
5125.401779992866
 30
0.0
 11
8795.751025405044
 21
5496.248443234565
 31
0.0
 70
   161
 71
     5
 42
141.0
  3
INABA_S40G
100
AcDbAlignedDimension
 13
9365.089977073072
 23
5249.779269954215
 33
0.0
 14
9361.036521516446
 24
5108.837546188503
 34
0.0
1001
ACAD
1000
DSTYLE
1002
{
1070
   174
1070
     0
1070
   272
1070
     1
1070
   288
1070
     0
1070
   341
1005
0
1002
}
  0
DIMENSION
  5
22A4E
330
747D
100
AcDbEntity
  8
寸法
 48
50.0
100
AcDbDimension
  2
*D20
 10
9183.693953667859
 20
2776.056521119536
 30
0.0
 11
9183.693953667859
 21
2676.056521119536
 31
0.0
 70
   160
 71
     5
 42
200.0000000000009
  3
INABA_S40G
100
AcDbAlignedDimension
 13
9333.193956914497
 23
2576.056521119534
 33
0.0
 14
9308.193956914491
 24
2776.056521119535
 34
0.0
 50
90.0
100
AcDbRotatedDimension
1001
ACAD
1000
DSTYLE
1002
{
1070
   174
1070
     0
1070
   272
1070
     1
1070
   288
1070
     0
1070
   341
1005
0
1002
}
  0
LINE
  5
22A4F
330
747D
100
AcDbEntity
  8
破線
 48
5.0
100
AcDbLine
 10
9533.193956914493
 20
2576.056521119533
 30
0.0
 11
9333.193956914497
 21
2576.056521119534
 31
0.0
  0
LINE
  5
22A50
330
747D
100
AcDbEntity
  8
破線
 48
5.0
100
AcDbLine
 10
9533.193956914493
 20
2776.056521119535
 30
0.0
 11
9533.193956914493
 21
2576.056521119533
 31
0.0
  0
LINE
  5
22A51
330
747D
100
AcDbEntity
  8
破線
 48
5.0
100
AcDbLine
 10
9333.193956914492
 20
2776.056521119535
 30
0.0
 11
9333.193956914497
 21
2576.056521119534
 31
0.0
  0
DIMENSION
  5
22A52
330
747D
100
AcDbEntity
  8
寸法
 48
50.0
100
AcDbDimension
  2
*D21
 10
9333.193956914497
 20
2290.009191819157
 30
0.0
 11
9433.193956914495
 21
2290.009191819157
 31
0.0
 70
   160
 71
     5
 42
199.9999999999963
  3
INABA_S40G
100
AcDbAlignedDimension
 13
9533.193956914493
 23
2576.056521119533
 33
0.0
 14
9333.193956914497
 24
2576.056521119534
 34
0.0
100
AcDbRotatedDimension
  0
LINE
  5
22A53
330
747D
100
AcDbEntity
  8
破線
 48
5.0
100
AcDbLine
 10
11688.1939569145
 20
2776.056521119536
 30
0.0
 11
11688.19395691449
 21
2576.056521119534
 31
0.0
  0
LINE
  5
22A54
330
747D
100
AcDbEntity
  8
破線
 48
5.0
100
AcDbLine
 10
11688.19395691449
 20
2576.056521119534
 30
0.0
 11
11488.1939569145
 21
2576.056521119534
 31
0.0
  0
LINE
  5
22A55
330
747D
100
AcDbEntity
  8
破線
 48
5.0
100
AcDbLine
 10
11488.1939569145
 20
2776.056521119536
 30
0.0
 11
11488.1939569145
 21
2576.056521119534
 31
0.0
  0
TEXT
  5
230D1
330
747D
100
AcDbEntity
  8
文字
 62
     7
 48
50.0
100
AcDbText
 10
13209.4053442172
 20
56.69022270994833
 30
0.0
 40
100.0
  1
○床面積 ： 4.88㎡(1.48坪) 　
  7
STYLE2
100
AcDbText
  0
LINE
  5
23551
330
747D
100
AcDbEntity
  8
部品1
 48
50.0
100
AcDbLine
 10
7413.396575106965
 20
8891.608155732532
 30
0.0
 11
5316.396575106965
 21
8891.608155732619
 31
0.0
  0
LINE
  5
23552
330
747D
100
AcDbEntity
  8
部品1
100
AcDbLine
 10
7441.896575106999
 20
8891.608155732532
 30
0.0
 11
7469.896575106997
 21
8891.608155732532
 31
0.0
  0
LINE
  5
23553
330
747D
100
AcDbEntity
  8
部品1
100
AcDbLine
 10
5287.896575106972
 20
8891.608155732411
 30
0.0
 11
5259.896575106972
 21
8891.608155732411
 31
0.0
  0
LINE
  5
23E37
330
747D
100
AcDbEntity
  8
部品1
100
AcDbLine
 10
5259.896575106991
 20
2876.056521119536
 30
0.0
 11
7469.896575107009
 21
2876.056521119536
 31
0.0
  0
LINE
  5
23E38
330
747D
100
AcDbEntity
  8
部品1
100
AcDbLine
 10
5259.896575106992
 20
5016.056521119535
 30
0.0
 11
7469.896575107009
 21
5016.056521119536
 31
0.0
  0
LINE
  5
23E39
330
747D
100
AcDbEntity
  8
部品1
100
AcDbLine
 10
5319.896575106992
 20
2925.056521119536
 30
0.0
 11
6114.896575106991
 21
2925.056521119543
 31
0.0
  0
DIMENSION
  5
23E3A
330
747D
100
AcDbEntity
  8
寸法
 48
50.0
100
AcDbDimension
  2
*D22
 10
7519.896575107009
 20
5671.42691026843
 30
0.0
 11
6358.975848044829
 21
5671.42691026843
 31
0.0
 70
   160
 71
     5
 42
2310.000000000017
  3
INABA_S40G
100
AcDbAlignedDimension
 13
5209.896575106991
 23
5251.05652111954
 33
0.0
 14
7519.896575107009
 24
5251.056521119538
 34
0.0
100
AcDbRotatedDimension
  0
LINE
  5
23E3B
330
747D
100
AcDbEntity
  8
部品1
100
AcDbLine
 10
5259.896575106992
 20
5110.056521119542
 30
0.0
 11
5259.896575106991
 21
2776.056521119536
 31
0.0
  0
LINE
  5
23E3C
330
747D
100
AcDbEntity
  8
部品1
100
AcDbLine
 10
7409.896575107009
 20
5016.056521119536
 30
0.0
 11
7409.896575107009
 21
2918.056521119555
 31
0.0
  0
LINE
  5
23E3D
330
747D
100
AcDbEntity
  8
部品1
100
AcDbLine
 10
5319.896575106992
 20
5016.056521119535
 30
0.0
 11
5319.896575106991
 21
2918.05652111954
 31
0.0
  0
LINE
  5
23E3E
330
747D
100
AcDbEntity
  8
部品1
100
AcDbLine
 10
7469.896575107007
 20
5110.056521119542
 30
0.0
 11
7469.896575107009
 21
2776.056521119536
 31
0.0
  0
LINE
  5
23E3F
330
747D
100
AcDbEntity
  8
部品1
100
AcDbLine
 10
7069.896575107009
 20
2876.056521119535
 30
0.0
 11
7069.896575107009
 21
2776.056521119536
 31
0.0
  0
LINE
  5
23E40
330
747D
100
AcDbEntity
  8
部品1
100
AcDbLine
 10
5659.896575106991
 20
2876.056521119535
 30
0.0
 11
5659.896575106991
 21
2776.056521119536
 31
0.0
  0
DIMENSION
  5
23E41
330
747D
100
AcDbEntity
  8
寸法
 48
50.0
100
AcDbDimension
  2
*D23
 10
7469.896575107011
 20
5455.676780546808
 30
0.0
 11
7833.381856481247
 21
5455.676780546808
 31
0.0
 70
   160
 71
     5
 42
49.99999999999909
  3
INABA_S40G
100
AcDbAlignedDimension
 13
7519.896575107009
 23
5251.056521119538
 33
0.0
 14
7469.896575107011
 24
5251.05652111954
 34
0.0
100
AcDbRotatedDimension
  0
DIMENSION
  5
23E42
330
747D
100
AcDbEntity
  8
寸法
 48
50.0
100
AcDbDimension
  2
*D24
 10
5209.896575106991
 20
5455.676780546808
 30
0.0
 11
4896.411293732746
 21
5455.676780546808
 31
0.0
 70
   160
 71
     5
 42
49.99999999999909
  3
INABA_S40G
100
AcDbAlignedDimension
 13
5259.896575106991
 23
5251.056521119542
 33
0.0
 14
5209.896575106991
 24
5251.05652111954
 34
0.0
100
AcDbRotatedDimension
1001
ACAD
1000
DSTYLE
1002
{
1002
}
  0
LINE
  5
23E43
330
747D
100
AcDbEntity
  8
部品1
100
AcDbLine
 10
6114.896575106991
 20
2932.556521119542
 30
0.0
 11
7409.896575107009
 21
2932.556521119557
 31
0.0
  0
LINE
  5
23E44
330
747D
100
AcDbEntity
  8
部品1
100
AcDbLine
 10
7474.896575107009
 20
2921.056521119536
 30
0.0
 11
7474.896575107009
 21
2776.056521119536
 31
0.0
  0
LINE
  5
23E45
330
747D
100
AcDbEntity
  8
破線
 48
5.0
100
AcDbLine
 10
7494.896575107009
 20
2621.056521119536
 30
0.0
 11
7474.896575107007
 21
2621.056521119536
 31
0.0
  0
LINE
  5
23E46
330
747D
100
AcDbEntity
  8
部品1
100
AcDbLine
 10
5254.89657510699
 20
2921.056521119537
 30
0.0
 11
5254.896575106992
 21
2776.056521119536
 31
0.0
  0
LINE
  5
23E47
330
747D
100
AcDbEntity
  8
破線
 48
5.0
100
AcDbLine
 10
5234.896575106991
 20
2621.056521119536
 30
0.0
 11
5254.896575106993
 21
2621.056521119536
 31
0.0
  0
LINE
  5
23E48
330
747D
100
AcDbEntity
  8
破線
 48
5.0
100
AcDbLine
 10
7474.896575107009
 20
2776.056521119536
 30
0.0
 11
7474.896575107009
 21
2621.056521119536
 31
0.0
  0
LINE
  5
23E49
330
747D
100
AcDbEntity
  8
破線
 48
5.0
100
AcDbLine
 10
5254.896575106992
 20
2776.056521119536
 30
0.0
 11
5254.89657510699
 21
2621.056521119536
 31
0.0
  0
DIMENSION
  5
23E4A
330
747D
100
AcDbEntity
  8
寸法
 48
50.0
100
AcDbDimension
  2
*D25
 10
5259.896575106991
 20
5455.198752387527
 30
0.0
 11
6397.940818449586
 21
5455.198752387527
 31
0.0
 70
   160
  1
柱外寸法<>
 71
     5
 42
2210.000000000019
  3
INABA_S40G
100
AcDbAlignedDimension
 13
7469.896575107011
 23
5251.05652111954
 33
0.0
 14
5259.896575106991
 24
5251.056521119542
 34
0.0
100
AcDbRotatedDimension
  0
LINE
  5
23E4D
330
747D
100
AcDbEntity
  8
部品1
100
AcDbLine
 10
5259.896575106991
 20
2918.056521119535
 30
0.0
 11
7469.896575107009
 21
2918.056521119556
 31
0.0
  0
LINE
  5
23E4E
330
747D
100
AcDbEntity
  8
細線
100
AcDbLine
 10
5319.896575106991
 20
5008.056521119539
 30
0.0
 11
7409.896575107008
 21
5008.056521119535
 31
0.0
  0
LINE
  5
23E4F
330
747D
100
AcDbEntity
  8
部品1
100
AcDbLine
 10
6768.896575106985
 20
5008.056521119536
 30
0.0
 11
6768.896575106989
 21
2932.556521119551
 31
0.0
  0
LINE
  5
23E50
330
747D
100
AcDbEntity
  8
細線
100
AcDbLine
 10
6014.896575106993
 20
5008.056521119538
 30
0.0
 11
6014.896575106991
 21
2925.056521119543
 31
0.0
  0
LINE
  5
23E51
330
747D
100
AcDbEntity
  8
細線
100
AcDbLine
 10
5944.896575106993
 20
5008.056521119538
 30
0.0
 11
5944.896575106991
 21
2925.056521119542
 31
0.0
  0
LINE
  5
23E52
330
747D
100
AcDbEntity
  8
細線
100
AcDbLine
 10
5874.896575106991
 20
5008.056521119537
 30
0.0
 11
5874.896575106991
 21
2925.056521119541
 31
0.0
  0
LINE
  5
23E53
330
747D
100
AcDbEntity
  8
細線
100
AcDbLine
 10
5804.896575106994
 20
5008.056521119538
 30
0.0
 11
5804.89657510699
 21
2925.05652111954
 31
0.0
  0
LINE
  5
23E54
330
747D
100
AcDbEntity
  8
細線
100
AcDbLine
 10
5734.896575106993
 20
5008.056521119538
 30
0.0
 11
5734.896575106991
 21
2925.05652111954
 31
0.0
  0
LINE
  5
23E55
330
747D
100
AcDbEntity
  8
細線
100
AcDbLine
 10
5664.896575106993
 20
5008.056521119538
 30
0.0
 11
5664.896575106991
 21
2925.056521119539
 31
0.0
  0
LINE
  5
23E56
330
747D
100
AcDbEntity
  8
部品1
100
AcDbLine
 10
5480.89657510699
 20
5008.056521119539
 30
0.0
 11
5480.896575106992
 21
2925.056521119541
 31
0.0
  0
LINE
  5
23E57
330
747D
100
AcDbEntity
  8
部品1
100
AcDbLine
 10
5430.89657510699
 20
5008.056521119539
 30
0.0
 11
5430.896575106991
 21
2925.05652111954
 31
0.0
  0
LINE
  5
23E58
330
747D
100
AcDbEntity
  8
細線
100
AcDbLine
 10
5472.89657510699
 20
5008.056521119539
 30
0.0
 11
5472.896575106992
 21
2925.056521119541
 31
0.0
  0
LINE
  5
23E59
330
747D
100
AcDbEntity
  8
細線
100
AcDbLine
 10
5438.896575106991
 20
5008.056521119539
 30
0.0
 11
5438.896575106991
 21
2925.05652111954
 31
0.0
  0
LINE
  5
23E5A
330
747D
100
AcDbEntity
  8
細線
100
AcDbLine
 10
6666.396575106986
 20
5008.056521119536
 30
0.0
 11
6666.396575106988
 21
2932.556521119548
 31
0.0
  0
LINE
  5
23E5B
330
747D
100
AcDbEntity
  8
細線
100
AcDbLine
 10
6596.396575106986
 20
5008.056521119536
 30
0.0
 11
6596.396575106988
 21
2932.556521119548
 31
0.0
  0
LINE
  5
23E5C
330
747D
100
AcDbEntity
  8
細線
100
AcDbLine
 10
6526.396575106986
 20
5008.056521119536
 30
0.0
 11
6526.396575106989
 21
2932.556521119548
 31
0.0
  0
LINE
  5
23E5D
330
747D
100
AcDbEntity
  8
細線
100
AcDbLine
 10
6456.396575106985
 20
5008.056521119536
 30
0.0
 11
6456.396575106989
 21
2932.556521119548
 31
0.0
  0
LINE
  5
23E5E
330
747D
100
AcDbEntity
  8
細線
100
AcDbLine
 10
6386.396575106985
 20
5008.056521119536
 30
0.0
 11
6386.396575106989
 21
2932.556521119548
 31
0.0
  0
LINE
  5
23E5F
330
747D
100
AcDbEntity
  8
細線
100
AcDbLine
 10
6316.396575106987
 20
5008.056521119536
 30
0.0
 11
6316.396575106988
 21
2932.556521119548
 31
0.0
  0
LINE
  5
23E60
330
747D
100
AcDbEntity
  8
細線
100
AcDbLine
 10
7278.896575106975
 20
5008.056521119535
 30
0.0
 11
7278.896575106975
 21
2932.556521119554
 31
0.0
  0
LINE
  5
23E61
330
747D
100
AcDbEntity
  8
細線
100
AcDbLine
 10
7208.896575106975
 20
5008.056521119535
 30
0.0
 11
7208.896575106975
 21
2932.556521119554
 31
0.0
  0
LINE
  5
23E62
330
747D
100
AcDbEntity
  8
細線
100
AcDbLine
 10
7138.896575106975
 20
5008.056521119535
 30
0.0
 11
7138.896575106976
 21
2932.556521119554
 31
0.0
  0
LINE
  5
23E63
330
747D
100
AcDbEntity
  8
細線
100
AcDbLine
 10
7068.896575106975
 20
5008.056521119535
 30
0.0
 11
7068.896575106975
 21
2932.556521119554
 31
0.0
  0
LINE
  5
23E64
330
747D
100
AcDbEntity
  8
細線
100
AcDbLine
 10
6998.896575106974
 20
5008.056521119535
 30
0.0
 11
6998.896575106975
 21
2932.556521119554
 31
0.0
  0
LINE
  5
23E65
330
747D
100
AcDbEntity
  8
細線
100
AcDbLine
 10
6928.896575106975
 20
5008.056521119535
 30
0.0
 11
6928.896575106975
 21
2932.556521119554
 31
0.0
  0
LINE
  5
23E69
330
747D
100
AcDbEntity
  8
部品1
 48
50.0
100
AcDbLine
 10
5354.896575106991
 20
4031.556521119546
 30
0.0
 11
5407.896575106991
 21
4031.556521119546
 31
0.0
  0
ARC
  5
23E83
330
747D
100
AcDbEntity
  8
部品1
 48
0.01
100
AcDbCircle
 10
6956.896575107009
 20
5048.556521119536
 30
0.0
 40
2.0
100
AcDbArc
 50
180.0
 51
270.0
  0
ARC
  5
23E84
330
747D
100
AcDbEntity
  8
部品1
 48
0.01
100
AcDbCircle
 10
6956.896575107009
 20
5080.056521119536
 30
0.0
 40
2.0
100
AcDbArc
 50
90.0
 51
180.0
  0
ARC
  5
23E85
330
747D
100
AcDbEntity
  8
部品1
 48
0.01
100
AcDbCircle
 10
7132.896575107008
 20
5048.556521119536
 30
0.0
 40
2.0
100
AcDbArc
 50
270.0
 51
0.0
  0
ARC
  5
23E86
330
747D
100
AcDbEntity
  8
部品1
 48
0.01
100
AcDbCircle
 10
7132.896575107008
 20
5080.056521119536
 30
0.0
 40
2.0
100
AcDbArc
 50
0.0
 51
90.0
  0
LINE
  5
23E87
330
747D
100
AcDbEntity
  8
細線
100
AcDbLine
 10
7044.89657510701
 20
5052.556521119536
 30
0.0
 11
6970.896575107009
 21
5052.556521119536
 31
0.0
  0
LINE
  5
23E88
330
747D
100
AcDbEntity
  8
細線
100
AcDbLine
 10
7044.896575107009
 20
5075.556521119536
 30
0.0
 11
7118.896575107008
 21
5075.556521119536
 31
0.0
  0
LINE
  5
23E89
330
747D
100
AcDbEntity
  8
細線
100
AcDbLine
 10
7118.896575107008
 20
5052.556521119536
 30
0.0
 11
7044.896575107009
 21
5052.556521119536
 31
0.0
  0
LINE
  5
23E8A
330
747D
100
AcDbEntity
  8
細線
100
AcDbLine
 10
6970.896575107009
 20
5075.556521119536
 30
0.0
 11
7044.896575107009
 21
5075.556521119536
 31
0.0
  0
LINE
  5
23E8B
330
747D
100
AcDbEntity
  8
細線
100
AcDbLine
 10
6970.896575107009
 20
5052.556521119536
 30
0.0
 11
6970.896575107009
 21
5075.556521119536
 31
0.0
  0
LINE
  5
23E8C
330
747D
100
AcDbEntity
  8
細線
100
AcDbLine
 10
7118.896575107008
 20
5075.556521119536
 30
0.0
 11
7118.896575107008
 21
5052.556521119536
 31
0.0
  0
LINE
  5
23E8D
330
747D
100
AcDbEntity
  8
部品1
 48
0.01
100
AcDbLine
 10
6954.89657510701
 20
5048.556521119536
 30
0.0
 11
6954.89657510701
 21
5080.056521119536
 31
0.0
  0
LINE
  5
23E8E
330
747D
100
AcDbEntity
  8
部品1
 48
0.01
100
AcDbLine
 10
7132.896575107008
 20
5046.556521119536
 30
0.0
 11
6956.896575107009
 21
5046.556521119536
 31
0.0
  0
LINE
  5
23E8F
330
747D
100
AcDbEntity
  8
部品1
 48
0.01
100
AcDbLine
 10
7134.89657510701
 20
5080.056521119536
 30
0.0
 11
7134.89657510701
 21
5048.556521119536
 31
0.0
  0
LINE
  5
23E90
330
747D
100
AcDbEntity
  8
部品1
 48
0.01
100
AcDbLine
 10
6956.896575107009
 20
5082.056521119536
 30
0.0
 11
7132.896575107008
 21
5082.056521119536
 31
0.0
  0
LINE
  5
23E91
330
747D
100
AcDbEntity
  8
細線
100
AcDbLine
 10
7118.896575107008
 20
5069.556521119537
 30
0.0
 11
7044.896575107009
 21
5069.556521119537
 31
0.0
  0
LINE
  5
23E92
330
747D
100
AcDbEntity
  8
細線
100
AcDbLine
 10
7118.896575107008
 20
5063.556521119537
 30
0.0
 11
7044.896575107009
 21
5063.556521119537
 31
0.0
  0
LINE
  5
23E93
330
747D
100
AcDbEntity
  8
細線
100
AcDbLine
 10
7118.89657510701
 20
5057.556521119536
 30
0.0
 11
7044.896575107009
 21
5057.556521119536
 31
0.0
  0
LINE
  5
23E94
330
747D
100
AcDbEntity
  8
細線
100
AcDbLine
 10
7118.896575107008
 20
5069.556521119537
 30
0.0
 11
7049.896575107009
 21
5069.556521119537
 31
0.0
  0
LINE
  5
23E95
330
747D
100
AcDbEntity
  8
細線
100
AcDbLine
 10
6970.896575107009
 20
5069.556521119535
 30
0.0
 11
7044.896575107009
 21
5069.556521119537
 31
0.0
  0
LINE
  5
23E96
330
747D
100
AcDbEntity
  8
細線
100
AcDbLine
 10
6970.896575107009
 20
5057.556521119535
 30
0.0
 11
7044.896575107009
 21
5057.556521119536
 31
0.0
  0
LINE
  5
23E97
330
747D
100
AcDbEntity
  8
細線
100
AcDbLine
 10
6970.896575107009
 20
5063.556521119537
 30
0.0
 11
7044.896575107009
 21
5063.556521119537
 31
0.0
  0
LINE
  5
23E98
330
747D
100
AcDbEntity
  8
細線
100
AcDbLine
 10
7044.896575107009
 20
5075.556521119536
 30
0.0
 11
7044.89657510701
 21
5052.556521119536
 31
0.0
  0
LINE
  5
23E99
330
747D
100
AcDbEntity
  8
細線
100
AcDbLine
 10
5684.896575106991
 20
5075.556521119535
 30
0.0
 11
5684.896575106989
 21
5052.556521119536
 31
0.0
  0
LINE
  5
23E9A
330
747D
100
AcDbEntity
  8
細線
100
AcDbLine
 10
5758.89657510699
 20
5063.556521119536
 30
0.0
 11
5684.896575106991
 21
5063.556521119536
 31
0.0
  0
LINE
  5
23E9B
330
747D
100
AcDbEntity
  8
細線
100
AcDbLine
 10
5758.89657510699
 20
5057.556521119535
 30
0.0
 11
5684.896575106991
 21
5057.556521119535
 31
0.0
  0
LINE
  5
23E9C
330
747D
100
AcDbEntity
  8
細線
100
AcDbLine
 10
5758.89657510699
 20
5069.556521119534
 30
0.0
 11
5684.896575106991
 21
5069.556521119535
 31
0.0
  0
LINE
  5
23E9D
330
747D
100
AcDbEntity
  8
細線
100
AcDbLine
 10
5610.896575106991
 20
5069.556521119535
 30
0.0
 11
5679.89657510699
 21
5069.556521119535
 31
0.0
  0
LINE
  5
23E9E
330
747D
100
AcDbEntity
  8
細線
100
AcDbLine
 10
5610.89657510699
 20
5057.556521119535
 30
0.0
 11
5684.896575106991
 21
5057.556521119535
 31
0.0
  0
LINE
  5
23E9F
330
747D
100
AcDbEntity
  8
細線
100
AcDbLine
 10
5610.896575106991
 20
5063.556521119536
 30
0.0
 11
5684.896575106991
 21
5063.556521119536
 31
0.0
  0
LINE
  5
23EA0
330
747D
100
AcDbEntity
  8
細線
100
AcDbLine
 10
5610.896575106991
 20
5069.556521119535
 30
0.0
 11
5684.896575106991
 21
5069.556521119535
 31
0.0
  0
LINE
  5
23EA1
330
747D
100
AcDbEntity
  8
部品1
 48
0.01
100
AcDbLine
 10
5772.89657510699
 20
5082.056521119535
 30
0.0
 11
5596.896575106991
 21
5082.056521119535
 31
0.0
  0
LINE
  5
23EA2
330
747D
100
AcDbEntity
  8
部品1
 48
0.01
100
AcDbLine
 10
5594.896575106991
 20
5080.056521119535
 30
0.0
 11
5594.896575106991
 21
5048.556521119536
 31
0.0
  0
LINE
  5
23EA3
330
747D
100
AcDbEntity
  8
部品1
 48
0.01
100
AcDbLine
 10
5596.896575106991
 20
5046.556521119535
 30
0.0
 11
5772.89657510699
 21
5046.556521119535
 31
0.0
  0
LINE
  5
23EA4
330
747D
100
AcDbEntity
  8
部品1
 48
0.01
100
AcDbLine
 10
5774.89657510699
 20
5048.556521119536
 30
0.0
 11
5774.896575106991
 21
5080.056521119535
 31
0.0
  0
LINE
  5
23EA5
330
747D
100
AcDbEntity
  8
細線
100
AcDbLine
 10
5610.896575106991
 20
5075.556521119535
 30
0.0
 11
5610.896575106991
 21
5052.556521119536
 31
0.0
  0
LINE
  5
23EA6
330
747D
100
AcDbEntity
  8
細線
100
AcDbLine
 10
5758.896575106991
 20
5052.556521119536
 30
0.0
 11
5758.896575106991
 21
5075.556521119535
 31
0.0
  0
LINE
  5
23EA7
330
747D
100
AcDbEntity
  8
細線
100
AcDbLine
 10
5758.896575106991
 20
5075.556521119535
 30
0.0
 11
5684.896575106991
 21
5075.556521119535
 31
0.0
  0
LINE
  5
23EA8
330
747D
100
AcDbEntity
  8
細線
100
AcDbLine
 10
5610.896575106991
 20
5052.556521119536
 30
0.0
 11
5684.896575106991
 21
5052.556521119536
 31
0.0
  0
LINE
  5
23EA9
330
747D
100
AcDbEntity
  8
細線
100
AcDbLine
 10
5684.896575106991
 20
5075.556521119535
 30
0.0
 11
5610.896575106991
 21
5075.556521119535
 31
0.0
  0
LINE
  5
23EAA
330
747D
100
AcDbEntity
  8
細線
100
AcDbLine
 10
5684.896575106989
 20
5052.556521119536
 30
0.0
 11
5758.896575106991
 21
5052.556521119536
 31
0.0
  0
ARC
  5
23EAB
330
747D
100
AcDbEntity
  8
部品1
 48
0.01
100
AcDbCircle
 10
5596.896575106991
 20
5080.056521119535
 30
0.0
 40
2.0
100
AcDbArc
 50
90.0
 51
180.0
  0
ARC
  5
23EAC
330
747D
100
AcDbEntity
  8
部品1
 48
0.01
100
AcDbCircle
 10
5596.896575106991
 20
5048.556521119536
 30
0.0
 40
2.0
100
AcDbArc
 50
180.0
 51
270.0
  0
ARC
  5
23EAD
330
747D
100
AcDbEntity
  8
部品1
 48
0.01
100
AcDbCircle
 10
5772.89657510699
 20
5080.056521119535
 30
0.0
 40
2.0
100
AcDbArc
 50
0.0
 51
90.0
  0
ARC
  5
23EAE
330
747D
100
AcDbEntity
  8
部品1
 48
0.01
100
AcDbCircle
 10
5772.89657510699
 20
5048.556521119536
 30
0.0
 40
2.0
100
AcDbArc
 50
270.0
 51
0.0
  0
LINE
  5
23EAF
330
747D
100
AcDbEntity
  8
部品1
 48
50.0
100
AcDbLine
 10
7512.488154000577
 20
5251.05652111954
 30
0.0
 11
5217.304996213423
 21
5251.05652111954
 31
0.0
  0
LINE
  5
23EB0
330
747D
100
AcDbEntity
  8
部品1
 48
50.0
100
AcDbLine
 10
7499.272830539545
 20
5110.056521119541
 30
0.0
 11
5230.520319674456
 21
5110.056521119541
 31
0.0
  0
LINE
  5
23EB1
330
747D
100
AcDbEntity
  8
細線
 48
50.0
100
AcDbLine
 10
7517.737924095093
 20
5223.029763683008
 30
0.0
 11
5212.055226118951
 21
5223.029763683328
 31
0.0
  0
LINE
  5
23EB2
330
747D
100
AcDbEntity
  8
細線
 48
50.0
100
AcDbLine
 10
7509.501893570207
 20
5130.829763683326
 30
0.0
 11
5220.291256643793
 21
5130.829763683326
 31
0.0
  0
LINE
  5
23EB3
330
747D
100
AcDbEntity
  8
部品1
100
AcDbLine
 10
7519.476914091676
 20
5243.6599957243
 30
0.0
 11
7518.34351675933
 21
5223.683867741701
 31
0.0
  0
LINE
  5
23EB4
330
747D
100
AcDbEntity
  8
細線
 48
50.0
100
AcDbLine
 10
7486.896575107009
 20
5251.05652111954
 30
0.0
 11
7486.896575107009
 21
5110.05652111954
 31
0.0
  0
LINE
  5
23EB5
330
747D
100
AcDbEntity
  8
細線
 48
50.0
100
AcDbLine
 10
5242.896575106992
 20
5251.05652111954
 30
0.0
 11
5242.896575106992
 21
5110.05652111954
 31
0.0
  0
LINE
  5
23EB6
330
747D
100
AcDbEntity
  8
部品1
100
AcDbLine
 10
7506.906496437753
 20
5128.026460574641
 30
0.0
 11
7506.261590630643
 21
5116.659995724301
 31
0.0
  0
LINE
  5
23EB7
330
747D
100
AcDbEntity
  8
部品1
100
AcDbLine
 10
7515.142526962598
 20
5220.226460574643
 30
0.0
 11
7510.107486234487
 21
5131.4838677417
 31
0.0
  0
ARC
  5
23EB8
330
747D
100
AcDbEntity
  8
部品1
 48
50.0
100
AcDbCircle
 10
7518.137709858784
 20
5220.056521119541
 30
0.0
 40
3.0
100
AcDbArc
 50
97.65812720736519
 51
176.7526572096653
  0
ARC
  5
23EB9
330
747D
100
AcDbEntity
  8
部品1
 48
50.0
100
AcDbCircle
 10
7509.90167933394
 20
5127.856521119539
 30
0.0
 40
3.0
100
AcDbArc
 50
97.65812720736519
 51
176.7526572096653
  0
ARC
  5
23EBA
330
747D
100
AcDbEntity
  8
部品1
 48
50.0
100
AcDbCircle
 10
7509.40861022538
 20
5131.523520281223
 30
0.0
 40
0.7
100
AcDbArc
 50
277.6581272073652
 51
356.7526572097173
  0
ARC
  5
23EBB
330
747D
100
AcDbEntity
  8
部品1
 48
50.0
100
AcDbCircle
 10
7517.644640750221
 20
5223.723520281225
 30
0.0
 40
0.7
100
AcDbArc
 50
277.6581272073652
 51
356.7526572096132
  0
ARC
  5
23EBC
330
747D
100
AcDbEntity
  8
部品1
100
AcDbCircle
 10
7499.272830539545
 20
5117.056521119541
 30
0.0
 40
7.0
100
AcDbArc
 50
270.0
 51
356.7526572096653
  0
ARC
  5
23EBD
330
747D
100
AcDbEntity
  8
部品1
100
AcDbCircle
 10
7512.488154000577
 20
5244.05652111954
 30
0.0
 40
7.0
100
AcDbArc
 50
356.7526572096653
 51
90.0
  0
ARC
  5
23EBE
330
747D
100
AcDbEntity
  8
部品1
100
AcDbCircle
 10
5217.304996213423
 20
5244.05652111954
 30
0.0
 40
7.0
100
AcDbArc
 50
90.0
 51
183.2473427903347
  0
ARC
  5
23EBF
330
747D
100
AcDbEntity
  8
部品1
100
AcDbCircle
 10
5230.520319674456
 20
5117.056521119541
 30
0.0
 40
7.0
100
AcDbArc
 50
183.2473427903347
 51
270.0
  0
ARC
  5
23EC0
330
747D
100
AcDbEntity
  8
部品1
 48
50.0
100
AcDbCircle
 10
5212.148509463778
 20
5223.723520281225
 30
0.0
 40
0.7
100
AcDbArc
 50
183.2473427903867
 51
262.3418727926349
  0
ARC
  5
23EC1
330
747D
100
AcDbEntity
  8
部品1
 48
50.0
100
AcDbCircle
 10
5220.384539988621
 20
5131.523520281223
 30
0.0
 40
0.7
100
AcDbArc
 50
183.2473427902827
 51
262.3418727926349
  0
ARC
  5
23EC2
330
747D
100
AcDbEntity
  8
部品1
 48
50.0
100
AcDbCircle
 10
5219.891470880059
 20
5127.856521119539
 30
0.0
 40
3.0
100
AcDbArc
 50
3.24734279033473
 51
82.3418727926348
  0
ARC
  5
23EC3
330
747D
100
AcDbEntity
  8
部品1
 48
50.0
100
AcDbCircle
 10
5211.655440355216
 20
5220.056521119541
 30
0.0
 40
3.0
100
AcDbArc
 50
3.24734279033473
 51
82.3418727926348
  0
LINE
  5
23EC4
330
747D
100
AcDbEntity
  8
部品1
100
AcDbLine
 10
5214.650623251401
 20
5220.226460574643
 30
0.0
 11
5219.685663979512
 21
5131.4838677417
 31
0.0
  0
LINE
  5
23EC5
330
747D
100
AcDbEntity
  8
部品1
100
AcDbLine
 10
5222.886653776247
 20
5128.026460574641
 30
0.0
 11
5223.531559583357
 21
5116.659995724301
 31
0.0
  0
LINE
  5
23EC6
330
747D
100
AcDbEntity
  8
部品1
100
AcDbLine
 10
5210.316236122324
 20
5243.6599957243
 30
0.0
 11
5211.44963345467
 21
5223.683867741701
 31
0.0
  0
LINE
  5
23EC7
330
747D
100
AcDbEntity
  8
部品1
100
AcDbLine
 10
6114.896575106992
 20
5008.056521119537
 30
0.0
 11
6114.896575106991
 21
2925.056521119543
 31
0.0
  0
LINE
  5
23EC8
330
747D
100
AcDbEntity
  8
細線
100
AcDbLine
 10
5594.896575106993
 20
5008.056521119538
 30
0.0
 11
5594.896575106991
 21
2925.056521119539
 31
0.0
  0
LINE
  5
23EC9
330
747D
100
AcDbEntity
  8
細線
100
AcDbLine
 10
5524.896575106992
 20
5008.056521119539
 30
0.0
 11
5524.896575106991
 21
2925.056521119539
 31
0.0
  0
LINE
  5
23ECA
330
747D
100
AcDbEntity
  8
細線
100
AcDbLine
 10
6246.396575106985
 20
5008.056521119536
 30
0.0
 11
6246.396575106988
 21
2932.556521119548
 31
0.0
  0
LINE
  5
23ECB
330
747D
100
AcDbEntity
  8
細線
100
AcDbLine
 10
6176.396575106987
 20
5008.056521119537
 30
0.0
 11
6176.396575106988
 21
2932.556521119548
 31
0.0
  0
LINE
  5
23ECC
330
747D
100
AcDbEntity
  8
細線
100
AcDbLine
 10
7348.896575106974
 20
5008.056521119535
 30
0.0
 11
7348.896575106976
 21
2932.556521119554
 31
0.0
  0
LINE
  5
23ECD
330
747D
100
AcDbEntity
  8
細線
100
AcDbLine
 10
6858.896575106975
 20
5008.056521119535
 30
0.0
 11
6858.896575106975
 21
2932.556521119554
 31
0.0
  0
LINE
  5
23ECF
330
747D
100
AcDbEntity
  8
部品1
 48
50.0
100
AcDbLine
 10
6118.896575107001
 20
2876.056521119535
 30
0.0
 11
6118.896575107001
 21
2776.056521119536
 31
0.0
  0
LINE
  5
23ED0
330
747D
100
AcDbEntity
  8
部品1
 48
50.0
100
AcDbLine
 10
5918.896575107001
 20
2876.056521119535
 30
0.0
 11
5918.896575107001
 21
2776.056521119536
 31
0.0
  0
LINE
  5
23ED1
330
747D
100
AcDbEntity
  8
部品1
 48
50.0
100
AcDbLine
 10
6810.896575107001
 20
2876.056521119535
 30
0.0
 11
6810.896575107001
 21
2776.056521119536
 31
0.0
  0
LINE
  5
23ED2
330
747D
100
AcDbEntity
  8
部品1
 48
50.0
100
AcDbLine
 10
6610.896575107002
 20
2876.056521119535
 30
0.0
 11
6610.896575107002
 21
2776.056521119536
 31
0.0
  0
DIMENSION
  5
2425C
330
747D
100
AcDbEntity
  8
寸法
100
AcDbDimension
  2
*D26
 10
12320.62111488662
 20
5196.056521119537
 30
0.0
 11
12220.60930386299
 21
4036.056521119538
 31
0.0
 70
    32
 71
     5
 42
2320.000000000001
  3
INABA_S40G
100
AcDbAlignedDimension
 13
11615.69395691449
 23
2876.056521119535
 33
0.0
 14
11695.69395691449
 24
5196.056521119537
 34
0.0
 50
90.0
100
AcDbRotatedDimension
1001
ACAD
1000
DSTYLE
1002
{
1070
   174
1070
     0
1070
   272
1070
     1
1070
   288
1070
     0
1070
   341
1005
0
1002
}
  0
DIMENSION
  5
24272
330
747D
100
AcDbEntity
  8
寸法
100
AcDbDimension
  2
*D29
 10
8261.943827731233
 20
5251.05652111954
 30
0.0
 11
8161.932016707609
 21
4063.556521119539
 31
0.0
 70
    32
 71
     5
 42
2375.000000000004
  3
INABA_S40G
100
AcDbAlignedDimension
 13
9405.693956914493
 23
2876.056521119535
 33
0.0
 14
9345.693956914496
 24
5251.05652111954
 34
0.0
 50
90.0
100
AcDbRotatedDimension
1001
ACAD
1000
DSTYLE
1002
{
1070
   174
1070
     0
1070
   272
1070
     1
1070
   288
1070
     0
1070
   341
1005
0
1002
}
  0
DIMENSION
  5
24273
330
747D
100
AcDbEntity
  8
寸法
100
AcDbDimension
  2
*D28
 10
8561.943827731232
 20
2926.056521119536
 30
0.0
 11
8461.932016707612
 21
3971.056521119537
 31
0.0
 70
    32
 71
     5
 42
2089.999999999999
  3
INABA_S40G
100
AcDbAlignedDimension
 13
9405.693956914493
 23
5016.056521119535
 33
0.0
 14
9405.693956914493
 24
2926.056521119535
 34
0.0
 50
90.0
100
AcDbRotatedDimension
1001
ACAD
1000
DSTYLE
1002
{
1070
   174
1070
     0
1070
   272
1070
     1
1070
   288
1070
     0
1070
   341
1005
0
1002
}
  0
DIMENSION
  5
24274
330
747D
100
AcDbEntity
  8
寸法
100
AcDbDimension
  2
*D27
 10
8860.785315517238
 20
2938.056521119536
 30
0.0
 11
8760.773504493617
 21
3973.056521119537
 31
0.0
 70
    32
  1
有効開口部高サ<>
 71
     5
 42
2070.0
  3
INABA_S40G
100
AcDbAlignedDimension
 13
9405.693956914493
 23
5008.056521119535
 33
0.0
 14
9405.693956914493
 24
2938.056521119536
 34
0.0
 50
90.0
100
AcDbRotatedDimension
1001
ACAD
1000
DSTYLE
1002
{
1070
   174
1070
     0
1070
   272
1070
     1
1070
   288
1070
     0
1070
   341
1005
0
1002
}
  0
LINE
  5
243EB
330
747D
100
AcDbEntity
  8
破線
 48
5.0
100
AcDbLine
 10
7574.896575107008
 20
2776.056521119536
 30
0.0
 11
7574.896575107008
 21
2576.056521119534
 31
0.0
  0
LINE
  5
243EC
330
747D
100
AcDbEntity
  8
破線
 48
5.0
100
AcDbLine
 10
7374.896575107007
 20
2776.056521119536
 30
0.0
 11
7374.896575107012
 21
2576.056521119534
 31
0.0
  0
LINE
  5
243ED
330
747D
100
AcDbEntity
  8
破線
 48
5.0
100
AcDbLine
 10
7574.896575107008
 20
2576.056521119534
 30
0.0
 11
7374.896575107012
 21
2576.056521119534
 31
0.0
  0
DIMENSION
  5
243EE
330
747D
100
AcDbEntity
  8
寸法
 48
50.0
100
AcDbDimension
  2
*D30
 10
7374.896575107012
 20
2290.009191819157
 30
0.0
 11
7474.896575107009
 21
2290.009191819157
 31
0.0
 70
   160
 71
     5
 42
199.9999999999963
  3
INABA_S40G
100
AcDbAlignedDimension
 13
7574.896575107008
 23
2576.056521119534
 33
0.0
 14
7374.896575107012
 24
2576.056521119534
 34
0.0
100
AcDbRotatedDimension
  0
LINE
  5
24404
330
747D
100
AcDbEntity
  8
破線
 48
5.0
100
AcDbLine
 10
5354.89657510699
 20
2776.056521119522
 30
0.0
 11
5354.89657510699
 21
2576.05652111952
 31
0.0
  0
LINE
  5
24405
330
747D
100
AcDbEntity
  8
破線
 48
5.0
100
AcDbLine
 10
5354.89657510699
 20
2576.05652111952
 30
0.0
 11
5154.896575106993
 21
2576.056521119521
 31
0.0
  0
LINE
  5
24406
330
747D
100
AcDbEntity
  8
破線
 48
5.0
100
AcDbLine
 10
5154.89657510699
 20
2776.056521119522
 30
0.0
 11
5154.896575106993
 21
2576.056521119521
 31
0.0
  0
LWPOLYLINE
  5
24455
330
747D
100
AcDbEntity
  8
部品1
 48
50.0
100
AcDbPolyline
 90
        4
 70
     1
 43
0.0
 10
5379.94657510699
 20
3946.306521119547
 10
5382.846575106992
 20
3946.306521119547
 10
5382.846575106992
 20
3955.806521119547
 10
5379.94657510699
 20
3955.806521119547
  0
CIRCLE
  5
24456
330
747D
100
AcDbEntity
  8
部品1
 48
50.0
100
AcDbCircle
 10
5381.39657510699
 20
3951.056521119547
 30
0.0
 40
9.0
  0
ARC
  5
24457
330
747D
100
AcDbEntity
  8
細線
 48
50.0
100
AcDbCircle
 10
5381.39657510699
 20
3951.056521119547
 30
0.0
 40
4.0
100
AcDbArc
 50
111.2538091853132
 51
248.7461908146868
  0
ARC
  5
24458
330
747D
100
AcDbEntity
  8
細線
 48
50.0
100
AcDbCircle
 10
5381.39657510699
 20
3951.056521119547
 30
0.0
 40
17.5
100
AcDbArc
 50
306.4837370612677
 51
233.5162629387323
  0
LINE
  5
24459
330
747D
100
AcDbEntity
  8
細線
 48
50.0
100
AcDbLine
 10
5391.396575106988
 20
3927.197560538664
 30
0.0
 11
5391.396575106991
 21
3936.182046338905
 31
0.0
  0
LINE
  5
2445A
330
747D
100
AcDbEntity
  8
細線
 48
50.0
100
AcDbLine
 10
5371.396575106991
 20
3927.197560538666
 30
0.0
 11
5371.396575106991
 21
3936.182046338902
 31
0.0
  0
ARC
  5
2445B
330
747D
100
AcDbEntity
  8
細線
 48
50.0
100
AcDbCircle
 10
5381.39657510699
 20
3951.056521119547
 30
0.0
 40
26.5
100
AcDbArc
 50
249.3326835063939
 51
290.6673164933835
  0
ARC
  5
2445C
330
747D
100
AcDbEntity
  8
細線
 48
50.0
100
AcDbCircle
 10
5390.396575106984
 20
3927.197560538664
 30
0.0
 40
1.0
100
AcDbArc
 50
290.6673164936062
 51
359.9999999998958
  0
ARC
  5
2445D
330
747D
100
AcDbEntity
  8
細線
 48
50.0
100
AcDbCircle
 10
5372.396575106991
 20
3927.197560538666
 30
0.0
 40
1.0
100
AcDbArc
 50
180.0
 51
249.3326835066164
  0
ARC
  5
2445E
330
747D
100
AcDbEntity
  8
細線
 48
50.0
100
AcDbCircle
 10
5370.39657510699
 20
3936.182046338902
 30
0.0
 40
1.0
100
AcDbArc
 50
0.0
 51
53.51626293873231
  0
ARC
  5
2445F
330
747D
100
AcDbEntity
  8
細線
 48
50.0
100
AcDbCircle
 10
5392.396575106994
 20
3936.182046338905
 30
0.0
 40
1.0
100
AcDbArc
 50
126.4837370615127
 51
180.0
  0
ARC
  5
24460
330
747D
100
AcDbEntity
  8
細線
 48
50.0
100
AcDbCircle
 10
5381.39657510699
 20
3951.056521119547
 30
0.0
 40
21.5
100
AcDbArc
 50
255.8014401250294
 51
284.1985598749706
  0
ARC
  5
24461
330
747D
100
AcDbEntity
  8
細線
 48
50.0
100
AcDbCircle
 10
5381.39657510699
 20
3951.056521119547
 30
0.0
 40
16.5
100
AcDbArc
 50
251.9694646069326
 51
288.0305353930674
  0
LINE
  5
24462
330
747D
100
AcDbEntity
  8
細線
 48
50.0
100
AcDbLine
 10
5386.896575106991
 20
3930.50414899374
 30
0.0
 11
5386.896575106991
 21
3935.081540681077
 31
0.0
  0
LINE
  5
24463
330
747D
100
AcDbEntity
  8
細線
 48
50.0
100
AcDbLine
 10
5375.896575106991
 20
3930.50414899374
 30
0.0
 11
5375.896575106991
 21
3935.081540681075
 31
0.0
  0
ARC
  5
24464
330
747D
100
AcDbEntity
  8
細線
 48
50.0
100
AcDbCircle
 10
5376.196575106994
 20
3935.081540681075
 30
0.0
 40
0.3
100
AcDbArc
 50
71.96946460693259
 51
180.0
  0
ARC
  5
24465
330
747D
100
AcDbEntity
  8
細線
 48
50.0
100
AcDbCircle
 10
5386.596575106992
 20
3935.081540681077
 30
0.0
 40
0.3
100
AcDbArc
 50
0.0
 51
108.0305353930674
  0
ARC
  5
24466
330
747D
100
AcDbEntity
  8
細線
 48
50.0
100
AcDbCircle
 10
5386.596575106988
 20
3930.50414899374
 30
0.0
 40
0.3
100
AcDbArc
 50
284.1985598747622
 51
0.0000000001042204
  0
ARC
  5
24467
330
747D
100
AcDbEntity
  8
細線
 48
50.0
100
AcDbCircle
 10
5376.196575106994
 20
3930.50414899374
 30
0.0
 40
0.3
100
AcDbArc
 50
180.0
 51
255.8014401248081
  0
CIRCLE
  5
24468
330
747D
100
AcDbEntity
  8
細線
 48
50.0
100
AcDbCircle
 10
5381.39657510699
 20
3951.056521119547
 30
0.0
 40
12.0
  0
ARC
  5
24469
330
747D
100
AcDbEntity
  8
部品1
 48
50.0
100
AcDbCircle
 10
5381.39657510699
 20
4001.056521119546
 30
0.0
 40
8.5
100
AcDbArc
 50
114.315739171091
 51
245.684260828909
  0
CIRCLE
  5
2446A
330
747D
100
AcDbEntity
  8
細線
 48
50.0
100
AcDbCircle
 10
5381.39657510699
 20
4001.056521119546
 30
0.0
 40
4.5
  0
LWPOLYLINE
  5
2446B
330
747D
100
AcDbEntity
  8
部品1
 48
50.0
100
AcDbPolyline
 90
        2
 70
     0
 43
0.0
 10
5377.896575106991
 20
4019.731370516529
 10
5377.896575106991
 20
4008.802487811961
  0
CIRCLE
  5
2446C
330
747D
100
AcDbEntity
  8
部品1
 48
50.0
100
AcDbCircle
 10
5381.39657510699
 20
4001.056521119546
 30
0.0
 40
19.0
  0
LWPOLYLINE
  5
2446D
330
747D
100
AcDbEntity
  8
部品1
 48
50.0
100
AcDbPolyline
 90
        2
 70
     0
 43
0.0
 10
5377.896575106991
 20
3993.310554427131
 10
5377.896575106991
 20
3982.381671722564
  0
LWPOLYLINE
  5
2446E
330
747D
100
AcDbEntity
  8
部品1
 48
50.0
100
AcDbPolyline
 90
        2
 70
     0
 43
0.0
 10
5384.896575106991
 20
4008.802487811961
 10
5384.896575106991
 20
4019.731370516529
  0
ARC
  5
2446F
330
747D
100
AcDbEntity
  8
部品1
 48
50.0
100
AcDbCircle
 10
5381.39657510699
 20
4001.056521119546
 30
0.0
 40
8.5
100
AcDbArc
 50
294.315739171091
 51
65.68426082890896
  0
LWPOLYLINE
  5
24470
330
747D
100
AcDbEntity
  8
部品1
 48
50.0
100
AcDbPolyline
 90
        2
 70
     0
 43
0.0
 10
5384.896575106991
 20
3982.381671722564
 10
5384.896575106991
 20
3993.310554427131
  0
ARC
  5
24471
330
747D
100
AcDbEntity
  8
細線
 48
50.0
100
AcDbCircle
 10
5381.39657510699
 20
4001.056521119546
 30
0.0
 40
16.5
100
AcDbArc
 50
332.0012352654438
 51
27.99876473455621
  0
ARC
  5
24472
330
747D
100
AcDbEntity
  8
細線
 48
50.0
100
AcDbCircle
 10
5381.39657510699
 20
4001.056521119546
 30
0.0
 40
14.0
100
AcDbArc
 50
326.4074436112986
 51
33.59255638870134
  0
LINE
  5
24473
330
747D
100
AcDbEntity
  8
細線
 48
50.0
100
AcDbLine
 10
5366.827772822659
 20
4008.802487811961
 30
0.0
 11
5369.734671317302
 21
4008.802487811961
 31
0.0
  0
LINE
  5
24474
330
747D
100
AcDbEntity
  8
細線
 48
50.0
100
AcDbLine
 10
5366.827772822659
 20
3993.310554427131
 30
0.0
 11
5369.734671317302
 21
3993.310554427131
 31
0.0
  0
LINE
  5
24475
330
747D
100
AcDbEntity
  8
細線
 48
50.0
100
AcDbLine
 10
5393.05847889668
 20
4008.802487811961
 30
0.0
 11
5395.965377391326
 21
4008.802487811961
 31
0.0
  0
LINE
  5
24476
330
747D
100
AcDbEntity
  8
細線
 48
50.0
100
AcDbLine
 10
5393.05847889668
 20
3993.310554427131
 30
0.0
 11
5395.965377391326
 21
3993.310554427131
 31
0.0
  0
ARC
  5
24477
330
747D
100
AcDbEntity
  8
細線
 48
50.0
100
AcDbCircle
 10
5381.39657510699
 20
4001.056521119546
 30
0.0
 40
14.0
100
AcDbArc
 50
146.4074436112986
 51
213.5925563887013
  0
ARC
  5
24478
330
747D
100
AcDbEntity
  8
細線
 48
50.0
100
AcDbCircle
 10
5381.39657510699
 20
4001.056521119546
 30
0.0
 40
16.5
100
AcDbArc
 50
152.0012352654438
 51
207.9987647345562
  0
ARC
  5
24479
330
747D
100
AcDbEntity
  8
部品1
 48
50.0
100
AcDbCircle
 10
5354.896575106991
 20
4026.556521119546
 30
0.0
 40
5.0
100
AcDbArc
 50
90.0
 51
180.0
  0
ARC
  5
2447A
330
747D
100
AcDbEntity
  8
部品1
 48
50.0
100
AcDbCircle
 10
5354.896575106991
 20
3915.556521119547
 30
0.0
 40
5.0
100
AcDbArc
 50
180.0
 51
270.0
  0
ARC
  5
2447B
330
747D
100
AcDbEntity
  8
部品1
 48
50.0
100
AcDbCircle
 10
5407.896575106991
 20
3915.556521119547
 30
0.0
 40
5.0
100
AcDbArc
 50
270.0
 51
0.0
  0
ARC
  5
2447C
330
747D
100
AcDbEntity
  8
部品1
 48
50.0
100
AcDbCircle
 10
5407.896575106991
 20
4026.556521119546
 30
0.0
 40
5.0
100
AcDbArc
 50
0.0
 51
90.0
  0
LINE
  5
2447D
330
747D
100
AcDbEntity
  8
部品1
 48
50.0
100
AcDbLine
 10
5349.896575106991
 20
3915.556521119547
 30
0.0
 11
5349.896575106991
 21
4026.556521119546
 31
0.0
  0
LINE
  5
2447E
330
747D
100
AcDbEntity
  8
部品1
 48
50.0
100
AcDbLine
 10
5407.896575106991
 20
3910.556521119547
 30
0.0
 11
5354.896575106991
 21
3910.556521119547
 31
0.0
  0
LINE
  5
2447F
330
747D
100
AcDbEntity
  8
部品1
 48
50.0
100
AcDbLine
 10
5412.896575106991
 20
4026.556521119546
 30
0.0
 11
5412.896575106991
 21
3915.556521119547
 31
0.0
  0
ENDSEC
  0
SECTION
  2
OBJECTS
  0
DICTIONARY
  5
7471
330
0
100
AcDbDictionary
281
     1
  3
ACAD_COLOR
350
159B0
  3
ACAD_GROUP
350
7472
  3
ACAD_LAYOUT
350
159B1
  3
ACAD_MATERIAL
350
159AF
  3
ACAD_MLINESTYLE
350
7473
  3
ACAD_PLOTSETTINGS
350
159B2
  3
ACAD_PLOTSTYLENAME
350
159AD
  3
ACDBHEADERROUNDTRIPXREC
350
2448E
  3
AcDbVariableDictionary
350
2448A
  3
CONTENTDICTIONARY
350
E71C
  3
DRAWINGVARIABLESDICT
350
F3B9
  0
DICTIONARY
  5
21E20
330
7467
100
AcDbDictionary
280
     1
281
     1
  3
ACAD_LAYERSTATES
360
21E21
  0
DICTIONARY
  5
159B0
102
{ACAD_REACTORS
330
7471
102
}
330
7471
100
AcDbDictionary
281
     1
  0
DICTIONARY
  5
7472
102
{ACAD_REACTORS
330
7471
102
}
330
7471
100
AcDbDictionary
281
     1
  0
DICTIONARY
  5
159B1
102
{ACAD_REACTORS
330
7471
102
}
330
7471
100
AcDbDictionary
281
     1
  3
Model
350
159B3
  3
レイアウト1
350
159B4
  0
DICTIONARY
  5
159AF
102
{ACAD_REACTORS
330
7471
102
}
330
7471
100
AcDbDictionary
281
     1
  0
DICTIONARY
  5
7473
102
{ACAD_REACTORS
330
7471
102
}
330
7471
100
AcDbDictionary
281
     1
  3
STANDARD
350
7480
  0
DICTIONARY
  5
159B2
102
{ACAD_REACTORS
330
7471
102
}
330
7471
100
AcDbDictionary
281
     1
  0
ACDBDICTIONARYWDFLT
  5
159AD
102
{ACAD_REACTORS
330
7471
102
}
330
7471
100
AcDbDictionary
281
     1
  3
Normal
350
159AE
100
AcDbDictionaryWithDefault
340
159AE
  0
DICTIONARY
  5
2448E
102
{ACAD_REACTORS
330
7471
102
}
330
7471
100
AcDbDictionary
281
     1
  3
COLORDICT
350
24490
  3
MATERIALDICT
350
2448F
  0
DICTIONARY
  5
2448A
102
{ACAD_REACTORS
330
7471
102
}
330
7471
100
AcDbDictionary
281
     1
  3
DIMASSOC
350
2448B
  3
PROJECTNAME
350
2448C
  0
DICTIONARY
  5
E71C
102
{ACAD_REACTORS
330
7471
102
}
330
7471
100
AcDbDictionary
281
     1
  0
DICTIONARY
  5
F3B9
102
{ACAD_REACTORS
330
7471
102
}
330
7471
100
AcDbDictionary
281
     1
1001
DRAWINGVARIABLESXDATA
1000
POLARMODE
1000
1
  0
DICTIONARY
  5
21E21
102
{ACAD_REACTORS
330
21E20
102
}
330
21E20
100
AcDbDictionary
281
     1
  0
LAYOUT
  5
159B3
102
{ACAD_XDICTIONARY
360
24491
102
}
102
{ACAD_REACTORS
330
159B1
102
}
330
159B1
100
AcDbPlotSettings
  1

  2
none_device
  4
Letter_(8.50_x_11.00_Inches)
  6

 40
6.349999904632568
 41
6.349999904632568
 42
6.350006103515625
 43
6.350006103515625
 44
215.8999938964844
 45
279.3999938964844
 46
0.0
 47
0.0
 48
0.0
 49
0.0
140
0.0
141
0.0
142
1.0
143
1.0
 70
 11952
 72
     1
 73
     1
 74
     0
  7

 75
     0
147
1.0
148
-4149.571981164617
149
65.56433826894044
100
AcDbLayout
  1
Model
 70
     1
 71
     0
 10
0.0
 20
0.0
 11
12.0
 21
9.0
 12
0.0
 22
0.0
 32
0.0
 14
0.0
 24
0.0
 34
0.0
 15
0.0
 25
0.0
 35
0.0
146
0.0
 13
0.0
 23
0.0
 33
0.0
 16
1.0
 26
0.0
 36
0.0
 17
0.0
 27
1.0
 37
0.0
 76
     0
330
747D
  0
LAYOUT
  5
159B4
102
{ACAD_XDICTIONARY
360
24493
102
}
102
{ACAD_REACTORS
330
159B1
102
}
330
159B1
100
AcDbPlotSettings
  1

  2
自動 EPSON LP-8400FX (TATENO 上)
  4

  6

 40
0.0
 41
0.0
 42
0.0
 43
0.0
 44
0.0
 45
0.0
 46
0.0
 47
0.0
 48
0.0
 49
0.0
140
0.0
141
0.0
142
1.0
143
1.0
 70
   688
 72
     0
 73
     0
 74
     5
  7
inaba.ctb
 75
    16
147
1.0
148
0.0
149
0.0
100
AcDbLayout
  1
レイアウト1
 70
     0
 71
     1
 10
0.0
 20
0.0
 11
420.0
 21
297.0
 12
0.0
 22
0.0
 32
0.0
 14
1.000000000000000E+20
 24
1.000000000000000E+20
 34
1.000000000000000E+20
 15
-1.000000000000000E+20
 25
-1.000000000000000E+20
 35
-1.000000000000000E+20
146
0.0
 13
0.0
 23
0.0
 33
0.0
 16
1.0
 26
0.0
 36
0.0
 17
0.0
 27
1.0
 37
0.0
 76
     0
330
747A
  0
MLINESTYLE
  5
7480
102
{ACAD_REACTORS
330
7473
102
}
330
7473
100
AcDbMlineStyle
  2
STANDARD
 70
     0
  3

 62
     0
 51
90.0
 52
90.0
 71
     2
 49
0.5
 62
   256
  6
BYLAYER
 49
-0.5
 62
   256
  6
BYLAYER
  0
ACDBPLACEHOLDER
  5
159AE
102
{ACAD_REACTORS
330
159AD
102
}
330
159AD
  0
XRECORD
  5
24490
102
{ACAD_REACTORS
330
2448E
102
}
330
2448E
100
AcDbXrecord
280
     1
340
159B0
  0
XRECORD
  5
2448F
102
{ACAD_REACTORS
330
2448E
102
}
330
2448E
100
AcDbXrecord
280
     1
340
159AF
  0
DICTIONARYVAR
  5
2448B
102
{ACAD_REACTORS
330
2448A
102
}
330
2448A
100
DictionaryVariables
280
     0
  1
1
  0
DICTIONARYVAR
  5
2448C
102
{ACAD_REACTORS
330
2448A
102
}
330
2448A
100
DictionaryVariables
280
     0
  1

  0
DICTIONARY
  5
24491
330
159B3
100
AcDbDictionary
280
     1
281
     1
  3
ACAD_XREC_ROUNDTRIP
360
24492
  0
DICTIONARY
  5
24493
330
159B4
100
AcDbDictionary
280
     1
281
     1
  3
ACAD_XREC_ROUNDTRIP
360
24494
  0
XRECORD
  5
24492
102
{ACAD_REACTORS
330
24491
102
}
330
24491
100
AcDbXrecord
280
     1
102
SHADEPLOT
 70
     0
102
SHADEPLOTRESLEVEL
 70
     2
102
SHADEPLOTCUSTOMDPI
 70
   300
  0
XRECORD
  5
24494
102
{ACAD_REACTORS
330
24493
102
}
330
24493
100
AcDbXrecord
280
     1
102
SHADEPLOT
 70
     0
102
SHADEPLOTRESLEVEL
 70
     2
102
SHADEPLOTCUSTOMDPI
 70
   300
  0
ENDSEC
  0
EOF
