  0
SECTION
  2
HEADER
  9
$ACADVER
  1
AC1015
  9
$ACADMAINTVER
 70
    20
  9
$DWGCODEPAGE
  3
ANSI_932
  9
$INSBASE
 10
0.0
 20
0.0
 30
0.0
  9
$EXTMIN
 10
139.9999999999995
 20
-0.0000000000000909
 30
0.0
  9
$EXTMAX
 10
16307.2
 20
11409.6
 30
0.0
  9
$LIMMIN
 10
0.0
 20
0.0
  9
$LIMMAX
 10
16800.0
 20
11880.0
  9
$ORTHOMODE
 70
     0
  9
$REGENMODE
 70
     1
  9
$FILLMODE
 70
     1
  9
$QTEXTMODE
 70
     0
  9
$MIRRTEXT
 70
     1
  9
$LTSCALE
 40
20.0
  9
$ATTMODE
 70
     1
  9
$TEXTSIZE
 40
100.0
  9
$TRACEWID
 40
1.0
  9
$TEXTSTYLE
  7
STYLE2
  9
$CLAYER
  8
寸法
  9
$CELTYPE
  6
BYLAYER
  9
$CECOLOR
 62
   256
  9
$CELTSCALE
 40
50.0
  9
$DISPSILH
 70
     0
  9
$DIMSCALE
 40
40.0
  9
$DIMASZ
 40
2.5
  9
$DIMEXO
 40
0.5
  9
$DIMDLI
 40
7.0
  9
$DIMRND
 40
0.0
  9
$DIMDLE
 40
0.0
  9
$DIMEXE
 40
1.5
  9
$DIMTP
 40
0.0
  9
$DIMTM
 40
0.0
  9
$DIMTXT
 40
3.0
  9
$DIMCEN
 40
0.0
  9
$DIMTSZ
 40
0.0
  9
$DIMTOL
 70
     0
  9
$DIMLIM
 70
     0
  9
$DIMTIH
 70
     0
  9
$DIMTOH
 70
     0
  9
$DIMSE1
 70
     0
  9
$DIMSE2
 70
     0
  9
$DIMTAD
 70
     3
  9
$DIMZIN
 70
     8
  9
$DIMBLK
  1

  9
$DIMASO
 70
     1
  9
$DIMSHO
 70
     1
  9
$DIMPOST
  1

  9
$DIMAPOST
  1

  9
$DIMALT
 70
     0
  9
$DIMALTD
 70
     2
  9
$DIMALTF
 40
0.0394
  9
$DIMLFAC
 40
1.0
  9
$DIMTOFL
 70
     1
  9
$DIMTVP
 40
0.0
  9
$DIMTIX
 70
     0
  9
$DIMSOXD
 70
     0
  9
$DIMSAH
 70
     1
  9
$DIMBLK1
  1
DOTSMALL
  9
$DIMBLK2
  1
DOTSMALL
  9
$DIMSTYLE
  2
INABA_S40G
  9
$DIMCLRD
 70
     0
  9
$DIMCLRE
 70
     0
  9
$DIMCLRT
 70
     7
  9
$DIMTFAC
 40
1.0
  9
$DIMGAP
 40
1.0
  9
$DIMJUST
 70
     0
  9
$DIMSD1
 70
     0
  9
$DIMSD2
 70
     0
  9
$DIMTOLJ
 70
     1
  9
$DIMTZIN
 70
     0
  9
$DIMALTZ
 70
     0
  9
$DIMALTTZ
 70
     0
  9
$DIMUPT
 70
     0
  9
$DIMDEC
 70
     1
  9
$DIMTDEC
 70
     1
  9
$DIMALTU
 70
     2
  9
$DIMALTTD
 70
     2
  9
$DIMTXSTY
  7
STYLE1
  9
$DIMAUNIT
 70
     0
  9
$DIMADEC
 70
     0
  9
$DIMALTRND
 40
0.0
  9
$DIMAZIN
 70
     0
  9
$DIMDSEP
 70
    46
  9
$DIMATFIT
 70
     3
  9
$DIMFRAC
 70
     0
  9
$DIMLDRBLK
  1

  9
$DIMLUNIT
 70
     2
  9
$DIMLWD
 70
    -2
  9
$DIMLWE
 70
    -2
  9
$DIMTMOVE
 70
     0
  9
$LUNITS
 70
     2
  9
$LUPREC
 70
     1
  9
$SKETCHINC
 40
1.0
  9
$FILLETRAD
 40
7.0
  9
$AUNITS
 70
     0
  9
$AUPREC
 70
     0
  9
$MENU
  1
acad
  9
$ELEVATION
 40
0.0
  9
$PELEVATION
 40
0.0
  9
$THICKNESS
 40
0.0
  9
$LIMCHECK
 70
     0
  9
$CHAMFERA
 40
3.0
  9
$CHAMFERB
 40
3.0
  9
$CHAMFERC
 40
0.0
  9
$CHAMFERD
 40
0.0
  9
$SKPOLY
 70
     0
  9
$TDCREATE
 40
2451368.612993866
  9
$TDUCREATE
 40
2451368.237993866
  9
$TDUPDATE
 40
2455575.697888090
  9
$TDUUPDATE
 40
2455575.322888090
  9
$TDINDWG
 40
1.3503992014
  9
$TDUSRTIMER
 40
1.3503992014
  9
$USRTIMER
 70
     1
  9
$ANGBASE
 50
0.0
  9
$ANGDIR
 70
     0
  9
$PDMODE
 70
     3
  9
$PDSIZE
 40
2.0
  9
$PLINEWID
 40
0.0
  9
$SPLFRAME
 70
     0
  9
$SPLINETYPE
 70
     6
  9
$SPLINESEGS
 70
     8
  9
$HANDSEED
  5
20BD6
  9
$SURFTAB1
 70
     6
  9
$SURFTAB2
 70
     6
  9
$SURFTYPE
 70
     6
  9
$SURFU
 70
     6
  9
$SURFV
 70
     6
  9
$UCSBASE
  2

  9
$UCSNAME
  2

  9
$UCSORG
 10
0.0
 20
0.0
 30
0.0
  9
$UCSXDIR
 10
1.0
 20
0.0
 30
0.0
  9
$UCSYDIR
 10
0.0
 20
1.0
 30
0.0
  9
$UCSORTHOREF
  2

  9
$UCSORTHOVIEW
 70
     0
  9
$UCSORGTOP
 10
0.0
 20
0.0
 30
0.0
  9
$UCSORGBOTTOM
 10
0.0
 20
0.0
 30
0.0
  9
$UCSORGLEFT
 10
0.0
 20
0.0
 30
0.0
  9
$UCSORGRIGHT
 10
0.0
 20
0.0
 30
0.0
  9
$UCSORGFRONT
 10
0.0
 20
0.0
 30
0.0
  9
$UCSORGBACK
 10
0.0
 20
0.0
 30
0.0
  9
$PUCSBASE
  2

  9
$PUCSNAME
  2

  9
$PUCSORG
 10
0.0
 20
0.0
 30
0.0
  9
$PUCSXDIR
 10
1.0
 20
0.0
 30
0.0
  9
$PUCSYDIR
 10
0.0
 20
1.0
 30
0.0
  9
$PUCSORTHOREF
  2

  9
$PUCSORTHOVIEW
 70
     0
  9
$PUCSORGTOP
 10
0.0
 20
0.0
 30
0.0
  9
$PUCSORGBOTTOM
 10
0.0
 20
0.0
 30
0.0
  9
$PUCSORGLEFT
 10
0.0
 20
0.0
 30
0.0
  9
$PUCSORGRIGHT
 10
0.0
 20
0.0
 30
0.0
  9
$PUCSORGFRONT
 10
0.0
 20
0.0
 30
0.0
  9
$PUCSORGBACK
 10
0.0
 20
0.0
 30
0.0
  9
$USERI1
 70
     0
  9
$USERI2
 70
     0
  9
$USERI3
 70
     0
  9
$USERI4
 70
     0
  9
$USERI5
 70
     0
  9
$USERR1
 40
0.0
  9
$USERR2
 40
0.0
  9
$USERR3
 40
0.0
  9
$USERR4
 40
0.0
  9
$USERR5
 40
0.0
  9
$WORLDVIEW
 70
     1
  9
$SHADEDGE
 70
     3
  9
$SHADEDIF
 70
    70
  9
$TILEMODE
 70
     1
  9
$MAXACTVP
 70
    16
  9
$PINSBASE
 10
0.0
 20
0.0
 30
0.0
  9
$PLIMCHECK
 70
     0
  9
$PEXTMIN
 10
1.000000000000000E+20
 20
1.000000000000000E+20
 30
1.000000000000000E+20
  9
$PEXTMAX
 10
-1.000000000000000E+20
 20
-1.000000000000000E+20
 30
-1.000000000000000E+20
  9
$PLIMMIN
 10
0.0
 20
0.0
  9
$PLIMMAX
 10
420.0
 20
297.0
  9
$UNITMODE
 70
     0
  9
$VISRETAIN
 70
     0
  9
$PLINEGEN
 70
     0
  9
$PSLTSCALE
 70
     0
  9
$TREEDEPTH
 70
  3020
  9
$CMLSTYLE
  2
STANDARD
  9
$CMLJUST
 70
     0
  9
$CMLSCALE
 40
1.0
  9
$PROXYGRAPHICS
 70
     1
  9
$MEASUREMENT
 70
     1
  9
$CELWEIGHT
370
    -1
  9
$ENDCAPS
280
     0
  9
$JOINSTYLE
280
     0
  9
$LWDISPLAY
290
     0
  9
$INSUNITS
 70
     0
  9
$HYPERLINKBASE
  1

  9
$STYLESHEET
  1
inaba.ctb
  9
$XEDIT
290
     1
  9
$CEPSNTYPE
380
     0
  9
$PSTYLEMODE
290
     1
  9
$FINGERPRINTGUID
  2
{3B57B35E-7D77-4BBF-81B7-6C583B9EB24C}
  9
$VERSIONGUID
  2
{3E58DC1B-7629-4E80-9CB8-4DCE6E687382}
  9
$EXTNAMES
290
     1
  9
$PSVPSCALE
 40
0.0
  9
$OLESTARTUP
290
     0
  0
ENDSEC
  0
SECTION
  2
CLASSES
  0
CLASS
  1
ACDBDICTIONARYWDFLT
  2
AcDbDictionaryWithDefault
  3
ObjectDBX Classes
 90
        0
280
     0
281
     0
  0
CLASS
  1
DICTIONARYVAR
  2
AcDbDictionaryVar
  3
ObjectDBX Classes
 90
        0
280
     0
281
     0
  0
CLASS
  1
ACDBPLACEHOLDER
  2
AcDbPlaceHolder
  3
ObjectDBX Classes
 90
        0
280
     0
281
     0
  0
CLASS
  1
LAYOUT
  2
AcDbLayout
  3
ObjectDBX Classes
 90
        0
280
     0
281
     0
  0
ENDSEC
  0
SECTION
  2
TABLES
  0
TABLE
  2
VPORT
  5
746D
330
0
100
AcDbSymbolTable
 70
     2
  0
VPORT
  5
20BCE
330
746D
100
AcDbSymbolTableRecord
100
AcDbViewportTableRecord
  2
*Active
 70
     0
 10
0.0
 20
0.0
 11
1.0
 21
1.0
 12
8223.761025238502
 22
6348.534373990247
 13
0.0
 23
0.0
 14
10.0
 24
10.0
 15
10.0
 25
10.0
 16
0.0
 26
0.0
 36
1.0
 17
0.0
 27
0.0
 37
0.0
 40
12805.99765711426
 41
1.525925925925925
 42
50.0
 43
0.0
 44
0.0
 50
0.0
 51
0.0
 71
     0
 72
     0
 73
     1
 74
     0
 75
     0
 76
     0
 77
     0
 78
     0
281
     0
 65
     1
110
0.0
120
0.0
130
0.0
111
1.0
121
0.0
131
0.0
112
0.0
122
1.0
132
0.0
 79
     0
146
0.0
  0
ENDTAB
  0
TABLE
  2
LTYPE
  5
746A
330
0
100
AcDbSymbolTable
 70
     3
  0
LTYPE
  5
7477
330
746A
100
AcDbSymbolTableRecord
100
AcDbLinetypeTableRecord
  2
BYBLOCK
 70
     0
  3

 72
    65
 73
     0
 40
0.0
  0
LTYPE
  5
7478
330
746A
100
AcDbSymbolTableRecord
100
AcDbLinetypeTableRecord
  2
BYLAYER
 70
     0
  3

 72
    65
 73
     0
 40
0.0
  0
LTYPE
  5
7479
330
746A
100
AcDbSymbolTableRecord
100
AcDbLinetypeTableRecord
  2
CONTINUOUS
 70
     0
  3
Solid line
 72
    65
 73
     0
 40
0.0
  0
LTYPE
  5
781A
330
746A
100
AcDbSymbolTableRecord
100
AcDbLinetypeTableRecord
  2
HIDDEN
 70
     0
  3
__ __ __ __ __ __ __ __ __ __ __ __ __ __ __ __
 72
    65
 73
     2
 40
0.375
 49
0.25
 74
     0
 49
-0.125
 74
     0
  0
LTYPE
  5
781B
330
746A
100
AcDbSymbolTableRecord
100
AcDbLinetypeTableRecord
  2
PHANTOM
 70
     0
  3
______  __  __  ______  __  __  ______  __  __ 
 72
    65
 73
     6
 40
2.5
 49
1.25
 74
     0
 49
-0.25
 74
     0
 49
0.25
 74
     0
 49
-0.25
 74
     0
 49
0.25
 74
     0
 49
-0.25
 74
     0
  0
ENDTAB
  0
TABLE
  2
LAYER
  5
7467
102
{ACAD_XDICTIONARY
360
1FFA9
102
}
330
0
100
AcDbSymbolTable
 70
    10
  0
LAYER
  5
7474
330
7467
100
AcDbSymbolTableRecord
100
AcDbLayerTableRecord
  2
0
 70
     0
 62
     7
  6
CONTINUOUS
370
    -3
390
159AE
  0
LAYER
  5
DEB3
330
7467
100
AcDbSymbolTableRecord
100
AcDbLayerTableRecord
  2
寸法
 70
     0
 62
     4
  6
CONTINUOUS
370
    -3
390
159AE
  0
LAYER
  5
DEB4
330
7467
100
AcDbSymbolTableRecord
100
AcDbLayerTableRecord
  2
部品1
 70
     0
 62
     7
  6
CONTINUOUS
370
    -3
390
159AE
  0
LAYER
  5
DEB5
330
7467
100
AcDbSymbolTableRecord
100
AcDbLayerTableRecord
  2
補助
 70
     0
 62
    -1
  6
CONTINUOUS
370
    -3
390
159AE
  0
LAYER
  5
DEB6
330
7467
100
AcDbSymbolTableRecord
100
AcDbLayerTableRecord
  2
文字
 70
     0
 62
     7
  6
CONTINUOUS
370
    -3
390
159AE
  0
LAYER
  5
F255
330
7467
100
AcDbSymbolTableRecord
100
AcDbLayerTableRecord
  2
DEFPOINTS
 70
     0
 62
     7
  6
CONTINUOUS
290
     0
370
    -3
390
159AE
  0
LAYER
  5
10B54
330
7467
100
AcDbSymbolTableRecord
100
AcDbLayerTableRecord
  2
仕様書枠
 70
     0
 62
   230
  6
CONTINUOUS
370
    -3
390
159AE
  0
LAYER
  5
11729
330
7467
100
AcDbSymbolTableRecord
100
AcDbLayerTableRecord
  2
Ｇ．Ｌ
 70
     0
 62
    30
  6
CONTINUOUS
370
    -3
390
159AE
  0
LAYER
  5
1173F
330
7467
100
AcDbSymbolTableRecord
100
AcDbLayerTableRecord
  2
細線
 70
     0
 62
     5
  6
CONTINUOUS
370
    -3
390
159AE
  0
LAYER
  5
142E2
330
7467
100
AcDbSymbolTableRecord
100
AcDbLayerTableRecord
  2
破線
 70
     0
 62
     2
  6
HIDDEN
370
    -3
390
159AE
  0
ENDTAB
  0
TABLE
  2
STYLE
  5
7468
330
0
100
AcDbSymbolTable
 70
     4
  0
STYLE
  5
7475
330
7468
100
AcDbSymbolTableRecord
100
AcDbTextStyleTableRecord
  2
STANDARD
 70
     0
 40
0.0
 41
1.0
 50
0.0
 71
     0
 42
4.0
  3
txt
  4
C:\AutoCAD LT\bigfont.shx
  0
STYLE
  5
F706
330
7468
100
AcDbSymbolTableRecord
100
AcDbTextStyleTableRecord
  2
STYLE1
 70
     0
 40
0.0
 41
1.0
 50
0.0
 71
     0
 42
100.0
  3
isocp.shx
  4
bigfont.shx
  0
STYLE
  5
103BF
330
7468
100
AcDbSymbolTableRecord
100
AcDbTextStyleTableRecord
  2
STYLE2
 70
     0
 40
0.0
 41
1.0
 50
0.0
 71
     0
 42
100.0
  3
MS PGothic.ttf
  4

1001
ACAD
1000
MS PGothic
1071
    32818
  0
STYLE
  5
20B65
330
7468
100
AcDbSymbolTableRecord
100
AcDbTextStyleTableRecord
  2
STYLE3
 70
     0
 40
0.0
 41
1.0
 50
0.0
 71
     0
 42
100.0
  3

  4

1001
ACAD
1000
DFPGothic-EB
1071
    32818
  0
ENDTAB
  0
TABLE
  2
VIEW
  5
746B
330
0
100
AcDbSymbolTable
 70
     0
  0
ENDTAB
  0
TABLE
  2
UCS
  5
746C
330
0
100
AcDbSymbolTable
 70
     0
  0
ENDTAB
  0
TABLE
  2
APPID
  5
746E
330
0
100
AcDbSymbolTable
 70
     6
  0
APPID
  5
7476
330
746E
100
AcDbSymbolTableRecord
100
AcDbRegAppTableRecord
  2
ACAD
 70
     0
  0
APPID
  5
DEA9
330
746E
100
AcDbSymbolTableRecord
100
AcDbRegAppTableRecord
  2
CONTENTBLOCKICON
 70
     0
  0
APPID
  5
DEAA
330
746E
100
AcDbSymbolTableRecord
100
AcDbRegAppTableRecord
  2
CONTENTBLOCKDESCRIPTION
 70
     0
  0
APPID
  5
E71D
330
746E
100
AcDbSymbolTableRecord
100
AcDbRegAppTableRecord
  2
CONTENTTABDATA
 70
     0
  0
APPID
  5
E71E
330
746E
100
AcDbSymbolTableRecord
100
AcDbRegAppTableRecord
  2
CONTENTCURRENTTAB
 70
     0
  0
APPID
  5
F3BA
330
746E
100
AcDbSymbolTableRecord
100
AcDbRegAppTableRecord
  2
DRAWINGVARIABLESXDATA
 70
     0
  0
ENDTAB
  0
TABLE
  2
DIMSTYLE
  5
746F
330
0
100
AcDbSymbolTable
 70
     2
100
AcDbDimStyleTable
 71
     1
340
F71F
  0
DIMSTYLE
105
F71F
102
{ACAD_REACTORS
330
141C3
330
14206
330
146E8
330
14D62
330
13BF0
330
14521
330
14526
330
1452E
330
1452F
330
14530
330
14531
330
14532
330
14533
330
1453F
330
14587
330
14589
330
19A46
330
19878
330
13BBF
330
13B6D
330
13B51
330
127A4
330
1277C
330
1277B
330
1277A
330
12779
330
12778
330
20A72
330
20A76
330
20A77
102
}
330
746F
100
AcDbSymbolTableRecord
100
AcDbDimStyleTableRecord
  2
INABA_S40G
 70
     0
 40
40.0
 41
2.5
 42
0.5
 43
7.0
 44
1.5
 73
     0
 74
     0
 77
     3
 78
     8
140
3.0
141
0.0
143
0.0394
147
1.0
172
     1
173
     1
174
     1
178
     7
271
     1
288
     1
340
F706
341
F770
343
F770
344
F770
  0
DIMSTYLE
105
20B66
330
746F
100
AcDbSymbolTableRecord
100
AcDbDimStyleTableRecord
  2
INABA_S20G
 70
     0
 40
20.0
 41
2.5
 42
0.5
 43
7.0
 44
1.5
 73
     0
 74
     0
 77
     3
 78
     8
140
3.0
141
0.0
143
0.0394
147
1.0
172
     1
173
     1
174
     1
178
     7
271
     1
340
F706
341
F770
343
F770
344
F770
  0
ENDTAB
  0
TABLE
  2
BLOCK_RECORD
  5
7466
330
0
100
AcDbSymbolTable
 70
    31
  0
BLOCK_RECORD
  5
747D
330
7466
100
AcDbSymbolTableRecord
100
AcDbBlockTableRecord
  2
*MODEL_SPACE
340
159B3
  0
BLOCK_RECORD
  5
747A
330
7466
100
AcDbSymbolTableRecord
100
AcDbBlockTableRecord
  2
*PAPER_SPACE
340
159B4
  0
BLOCK_RECORD
  5
F770
330
7466
100
AcDbSymbolTableRecord
100
AcDbBlockTableRecord
  2
_DOTSMALL
340
0
102
{BLKREFS
331
1C3DA
331
1C3DB
331
1C3E4
331
1C3E5
331
1C4A4
331
1C4A5
331
1C4AF
331
1C4B0
331
1C4B8
331
1C4B9
331
1C4C1
331
1C4C2
331
1C4CC
331
1C4CD
331
1C4D6
331
1C4D7
331
1C4DF
331
1C4E0
331
1C4E8
331
1C4E9
331
1C4F1
331
1C4F2
331
1F421
331
1F422
331
1F43C
331
1F43D
331
1FD9E
331
1FD9F
331
1FDA7
331
1FDA8
331
1FDB2
331
1FDB3
331
1FDBB
331
1FDBC
331
1FDC4
331
1FDC5
331
1FDCD
331
1FDCE
331
1FDD6
331
1FDD7
331
1FDE1
331
1FDE2
331
1FDEA
331
1FDEB
331
1FDF5
331
1FDF6
331
1FDFE
331
1FDFF
331
1FE09
331
1FE0A
331
20651
331
20652
331
2065C
331
2065D
331
20B17
331
20B18
331
20B20
331
20B21
331
20B29
331
20B2A
102
}
  0
BLOCK_RECORD
  5
127B0
330
7466
100
AcDbSymbolTableRecord
100
AcDbBlockTableRecord
  2
*D1
340
0
  0
BLOCK_RECORD
  5
127BE
330
7466
100
AcDbSymbolTableRecord
100
AcDbBlockTableRecord
  2
*D2
340
0
  0
BLOCK_RECORD
  5
127CC
330
7466
100
AcDbSymbolTableRecord
100
AcDbBlockTableRecord
  2
*D3
340
0
  0
BLOCK_RECORD
  5
127E6
330
7466
100
AcDbSymbolTableRecord
100
AcDbBlockTableRecord
  2
*D4
340
0
  0
BLOCK_RECORD
  5
127F2
330
7466
100
AcDbSymbolTableRecord
100
AcDbBlockTableRecord
  2
*D5
340
0
  0
BLOCK_RECORD
  5
12832
330
7466
100
AcDbSymbolTableRecord
100
AcDbBlockTableRecord
  2
*D6
340
0
  0
BLOCK_RECORD
  5
13B45
330
7466
100
AcDbSymbolTableRecord
100
AcDbBlockTableRecord
  2
*D7
340
0
  0
BLOCK_RECORD
  5
13B60
330
7466
100
AcDbSymbolTableRecord
100
AcDbBlockTableRecord
  2
*D8
340
0
  0
BLOCK_RECORD
  5
13BB3
330
7466
100
AcDbSymbolTableRecord
100
AcDbBlockTableRecord
  2
*D9
340
0
  0
BLOCK_RECORD
  5
13DA8
330
7466
100
AcDbSymbolTableRecord
100
AcDbBlockTableRecord
  2
*D10
340
0
  0
BLOCK_RECORD
  5
141B5
330
7466
100
AcDbSymbolTableRecord
100
AcDbBlockTableRecord
  2
*D11
340
0
  0
BLOCK_RECORD
  5
141F9
330
7466
100
AcDbSymbolTableRecord
100
AcDbBlockTableRecord
  2
*D12
340
0
  0
BLOCK_RECORD
  5
1458A
330
7466
100
AcDbSymbolTableRecord
100
AcDbBlockTableRecord
  2
*D13
340
0
  0
BLOCK_RECORD
  5
14598
330
7466
100
AcDbSymbolTableRecord
100
AcDbBlockTableRecord
  2
*D14
340
0
  0
BLOCK_RECORD
  5
145A4
330
7466
100
AcDbSymbolTableRecord
100
AcDbBlockTableRecord
  2
*D15
340
0
  0
BLOCK_RECORD
  5
145B2
330
7466
100
AcDbSymbolTableRecord
100
AcDbBlockTableRecord
  2
*D16
340
0
  0
BLOCK_RECORD
  5
145BE
330
7466
100
AcDbSymbolTableRecord
100
AcDbBlockTableRecord
  2
*D17
340
0
  0
BLOCK_RECORD
  5
145CC
330
7466
100
AcDbSymbolTableRecord
100
AcDbBlockTableRecord
  2
*D18
340
0
  0
BLOCK_RECORD
  5
145D8
330
7466
100
AcDbSymbolTableRecord
100
AcDbBlockTableRecord
  2
*D19
340
0
  0
BLOCK_RECORD
  5
145E4
330
7466
100
AcDbSymbolTableRecord
100
AcDbBlockTableRecord
  2
*D20
340
0
  0
BLOCK_RECORD
  5
145FC
330
7466
100
AcDbSymbolTableRecord
100
AcDbBlockTableRecord
  2
*D21
340
0
  0
BLOCK_RECORD
  5
14608
330
7466
100
AcDbSymbolTableRecord
100
AcDbBlockTableRecord
  2
*D22
340
0
  0
BLOCK_RECORD
  5
14616
330
7466
100
AcDbSymbolTableRecord
100
AcDbBlockTableRecord
  2
*D23
340
0
  0
BLOCK_RECORD
  5
146DC
330
7466
100
AcDbSymbolTableRecord
100
AcDbBlockTableRecord
  2
*D24
340
0
  0
BLOCK_RECORD
  5
14D63
330
7466
100
AcDbSymbolTableRecord
100
AcDbBlockTableRecord
  2
*D25
340
0
  0
BLOCK_RECORD
  5
19879
330
7466
100
AcDbSymbolTableRecord
100
AcDbBlockTableRecord
  2
*D26
340
0
  0
BLOCK_RECORD
  5
19A47
330
7466
100
AcDbSymbolTableRecord
100
AcDbBlockTableRecord
  2
*D27
340
0
  0
BLOCK_RECORD
  5
20AA5
330
7466
100
AcDbSymbolTableRecord
100
AcDbBlockTableRecord
  2
*D28
340
0
  0
BLOCK_RECORD
  5
20AB1
330
7466
100
AcDbSymbolTableRecord
100
AcDbBlockTableRecord
  2
*D29
340
0
  0
BLOCK_RECORD
  5
20ABD
330
7466
100
AcDbSymbolTableRecord
100
AcDbBlockTableRecord
  2
*D30
340
0
  0
ENDTAB
  0
ENDSEC
  0
SECTION
  2
BLOCKS
  0
BLOCK
  5
7489
330
747D
100
AcDbEntity
  8
0
100
AcDbBlockBegin
  2
*MODEL_SPACE
 70
     0
 10
0.0
 20
0.0
 30
0.0
  3
*MODEL_SPACE
  1

  0
ENDBLK
  5
748A
330
747D
100
AcDbEntity
  8
0
100
AcDbBlockEnd
  0
BLOCK
  5
7487
330
747A
100
AcDbEntity
 67
     1
  8
0
100
AcDbBlockBegin
  2
*PAPER_SPACE
 70
     0
 10
0.0
 20
0.0
 30
0.0
  3
*PAPER_SPACE
  1

  0
ENDBLK
  5
7488
330
747A
100
AcDbEntity
 67
     1
  8
0
100
AcDbBlockEnd
  0
BLOCK
  5
F771
330
F770
100
AcDbEntity
  8
0
 48
50.0
100
AcDbBlockBegin
  2
_DOTSMALL
 70
     0
 10
0.0
 20
0.0
 30
0.0
  3
_DOTSMALL
  1

  0
LWPOLYLINE
  5
F772
330
F770
100
AcDbEntity
  8
0
  6
ByBlock
 62
     0
 48
50.0
100
AcDbPolyline
 90
        2
 70
     1
 43
0.5
 10
-0.0625
 20
0.0
 42
1.0
 10
0.0625
 20
0.0
 42
1.0
  0
ENDBLK
  5
F776
330
F770
100
AcDbEntity
  8
0
 48
50.0
100
AcDbBlockEnd
  0
BLOCK
  5
139D7
330
127B0
100
AcDbEntity
  8
0
 48
50.0
100
AcDbBlockBegin
  2
*D1
 70
     1
 10
0.0
 20
0.0
 30
0.0
  3
*D1
  1

  0
LINE
  5
1C4D2
330
127B0
100
AcDbEntity
  8
寸法
 62
     0
 48
50.0
370
    -2
100
AcDbLine
 10
9280.693956914474
 20
3100.0
 30
0.0
 11
8151.943827731216
 21
3100.0
 31
0.0
  0
LINE
  5
1C4D3
330
127B0
100
AcDbEntity
  8
寸法
 62
     0
 48
50.0
370
    -2
100
AcDbLine
 10
8279.192881019342
 20
3000.0
 30
0.0
 11
8151.943827731216
 21
3000.0
 31
0.0
  0
LINE
  5
1C4D4
330
127B0
100
AcDbEntity
  8
寸法
 62
     0
 48
50.0
370
    -2
100
AcDbLine
 10
8211.943827731214
 20
3100.0
 30
0.0
 11
8211.943827731214
 21
3000.0
 31
0.0
  0
LINE
  5
1C4D5
330
127B0
100
AcDbEntity
  8
寸法
 62
     0
 48
50.0
370
    -2
100
AcDbLine
 10
8211.943827731214
 20
3000.0
 30
0.0
 11
8211.943827731214
 21
2627.905511811024
 31
0.0
  0
INSERT
  5
1C4D6
330
127B0
100
AcDbEntity
  8
寸法
 62
     0
 48
50.0
370
    -2
100
AcDbBlockReference
  2
_DOTSMALL
 10
8211.943827731214
 20
3100.0
 30
0.0
 41
100.0
 42
100.0
 43
100.0
 50
90.0
  0
INSERT
  5
1C4D7
330
127B0
100
AcDbEntity
  8
寸法
 62
     0
 48
50.0
370
    -2
100
AcDbBlockReference
  2
_DOTSMALL
 10
8211.943827731214
 20
3000.0
 30
0.0
 41
100.0
 42
100.0
 43
100.0
 50
270.0
  0
MTEXT
  5
1C4D8
330
127B0
100
AcDbEntity
  8
寸法
 62
     7
 48
50.0
100
AcDbMText
 10
8111.943827731215
 20
2763.952755905513
 30
0.0
 40
120.0
 41
0.0
 71
     5
 72
     1
  1
\A1;100
  7
STYLE1
 11
0.0000000000000001
 21
1.0
 31
0.0
 73
     1
 44
1.0
1001
ACAD
1000
MTEXTBEGIN
1070
    73
1070
     1
1070
    44
1040
1.0
1070
    74
1070
     0
1000
MTEXTEND
  0
POINT
  5
1C4D9
330
127B0
100
AcDbEntity
  8
DEFPOINTS
 62
     0
 48
50.0
100
AcDbPoint
 10
9300.693956914475
 20
3100.0
 30
0.0
  0
POINT
  5
1C4DA
330
127B0
100
AcDbEntity
  8
DEFPOINTS
 62
     0
 48
50.0
100
AcDbPoint
 10
8299.192881019342
 20
3000.0
 30
0.0
  0
POINT
  5
1C4DB
330
127B0
100
AcDbEntity
  8
DEFPOINTS
 62
     0
 48
50.0
100
AcDbPoint
 10
8211.943827731214
 20
3000.0
 30
0.0
  0
ENDBLK
  5
139E2
330
127B0
100
AcDbEntity
  8
0
 48
50.0
100
AcDbBlockEnd
  0
BLOCK
  5
139E3
330
127BE
100
AcDbEntity
  8
0
 48
50.0
100
AcDbBlockBegin
  2
*D2
 70
     1
 10
0.0
 20
0.0
 30
0.0
  3
*D2
  1

  0
LINE
  5
1C4C7
330
127BE
100
AcDbEntity
  8
寸法
 62
     0
 48
50.0
370
    -2
100
AcDbLine
 10
9335.693956914473
 20
3150.0
 30
0.0
 11
8451.943827731215
 21
3150.0
 31
0.0
  0
LINE
  5
1C4C8
330
127BE
100
AcDbEntity
  8
寸法
 62
     0
 48
50.0
370
    -2
100
AcDbLine
 10
9280.693956914474
 20
3100.0
 30
0.0
 11
8451.943827731215
 21
3100.0
 31
0.0
  0
LINE
  5
1C4C9
330
127BE
100
AcDbEntity
  8
寸法
 62
     0
 48
50.0
370
    -2
100
AcDbLine
 10
8511.943827731213
 20
3150.0
 30
0.0
 11
8511.943827731213
 21
3250.000000000001
 31
0.0
  0
LINE
  5
1C4CA
330
127BE
100
AcDbEntity
  8
寸法
 62
     0
 48
50.0
370
    -2
100
AcDbLine
 10
8511.943827731213
 20
3100.0
 30
0.0
 11
8511.943827731213
 21
2687.905511811024
 31
0.0
  0
LINE
  5
1C4CB
330
127BE
100
AcDbEntity
  8
寸法
 62
     0
 48
50.0
370
    -2
100
AcDbLine
 10
8511.943827731213
 20
3150.0
 30
0.0
 11
8511.943827731213
 21
3100.0
 31
0.0
  0
INSERT
  5
1C4CC
330
127BE
100
AcDbEntity
  8
寸法
 62
     0
 48
50.0
370
    -2
100
AcDbBlockReference
  2
_DOTSMALL
 10
8511.943827731213
 20
3150.0
 30
0.0
 41
100.0
 42
100.0
 43
100.0
 50
270.0
  0
INSERT
  5
1C4CD
330
127BE
100
AcDbEntity
  8
寸法
 62
     0
 48
50.0
370
    -2
100
AcDbBlockReference
  2
_DOTSMALL
 10
8511.943827731213
 20
3100.0
 30
0.0
 41
100.0
 42
100.0
 43
100.0
 50
90.0
  0
MTEXT
  5
1C4CE
330
127BE
100
AcDbEntity
  8
寸法
 62
     7
 48
50.0
100
AcDbMText
 10
8411.943827731214
 20
2793.952755905514
 30
0.0
 40
120.0
 41
0.0
 71
     5
 72
     1
  1
\A1;50
  7
STYLE1
 11
0.0000000000000001
 21
1.0
 31
0.0
 73
     1
 44
1.0
1001
ACAD
1000
MTEXTBEGIN
1070
    73
1070
     1
1070
    44
1040
1.0
1070
    74
1070
     0
1000
MTEXTEND
  0
POINT
  5
1C4CF
330
127BE
100
AcDbEntity
  8
DEFPOINTS
 62
     0
 48
50.0
100
AcDbPoint
 10
9355.693956914475
 20
3150.0
 30
0.0
  0
POINT
  5
1C4D0
330
127BE
100
AcDbEntity
  8
DEFPOINTS
 62
     0
 48
50.0
100
AcDbPoint
 10
9300.693956914475
 20
3100.0
 30
0.0
  0
POINT
  5
1C4D1
330
127BE
100
AcDbEntity
  8
DEFPOINTS
 62
     0
 48
50.0
100
AcDbPoint
 10
8511.943827731213
 20
3100.0
 30
0.0
  0
ENDBLK
  5
139EF
330
127BE
100
AcDbEntity
  8
0
 48
50.0
100
AcDbBlockEnd
  0
BLOCK
  5
13B92
330
127CC
100
AcDbEntity
  8
0
 48
50.0
100
AcDbBlockBegin
  2
*D3
 70
     1
 10
0.0
 20
0.0
 30
0.0
  3
*D3
  1

  0
LINE
  5
1C4DC
330
127CC
100
AcDbEntity
  8
寸法
 62
     0
 48
50.0
370
    -2
100
AcDbLine
 10
9335.693956914473
 20
3100.0
 30
0.0
 11
8151.943827731214
 21
3100.0
 31
0.0
  0
LINE
  5
1C4DD
330
127CC
100
AcDbEntity
  8
寸法
 62
     0
 48
50.0
370
    -2
100
AcDbLine
 10
9275.693956914476
 20
5175.000000000005
 30
0.0
 11
8151.943827731214
 21
5175.000000000005
 31
0.0
  0
LINE
  5
1C4DE
330
127CC
100
AcDbEntity
  8
寸法
 62
     0
 48
50.0
370
    -2
100
AcDbLine
 10
8211.943827731213
 20
3100.0
 30
0.0
 11
8211.943827731214
 21
5175.000000000005
 31
0.0
  0
INSERT
  5
1C4DF
330
127CC
100
AcDbEntity
  8
寸法
 62
     0
 48
50.0
370
    -2
100
AcDbBlockReference
  2
_DOTSMALL
 10
8211.943827731213
 20
3100.0
 30
0.0
 41
100.0
 42
100.0
 43
100.0
 50
270.0
  0
INSERT
  5
1C4E0
330
127CC
100
AcDbEntity
  8
寸法
 62
     0
 48
50.0
370
    -2
100
AcDbBlockReference
  2
_DOTSMALL
 10
8211.943827731214
 20
5175.000000000005
 30
0.0
 41
100.0
 42
100.0
 43
100.0
 50
90.0
  0
MTEXT
  5
1C4E1
330
127CC
100
AcDbEntity
  8
寸法
 62
     7
 48
50.0
100
AcDbMText
 10
8111.932016707591
 20
4137.500000000003
 30
0.0
 40
120.0
 41
0.0
 71
     5
 72
     1
  1
\A1;2075
  7
STYLE1
 11
0.0000000000000001
 21
1.0
 31
0.0
 73
     1
 44
1.0
1001
ACAD
1000
MTEXTBEGIN
1070
    73
1070
     1
1070
    44
1040
1.0
1070
    74
1070
     0
1000
MTEXTEND
  0
POINT
  5
1C4E2
330
127CC
100
AcDbEntity
  8
DEFPOINTS
 62
     0
 48
50.0
100
AcDbPoint
 10
9355.693956914475
 20
3100.0
 30
0.0
  0
POINT
  5
1C4E3
330
127CC
100
AcDbEntity
  8
DEFPOINTS
 62
     0
 48
50.0
100
AcDbPoint
 10
9295.693956914476
 20
5175.000000000005
 30
0.0
  0
POINT
  5
1C4E4
330
127CC
100
AcDbEntity
  8
DEFPOINTS
 62
     0
 48
50.0
100
AcDbPoint
 10
8211.943827731214
 20
5175.000000000005
 30
0.0
  0
ENDBLK
  5
13B9C
330
127CC
100
AcDbEntity
  8
0
 48
50.0
100
AcDbBlockEnd
  0
BLOCK
  5
139C1
330
127E6
100
AcDbEntity
  8
0
 48
50.0
100
AcDbBlockBegin
  2
*D4
 70
     1
 10
0.0
 20
0.0
 30
0.0
  3
*D4
  1

  0
LINE
  5
1C4E5
330
127E6
100
AcDbEntity
  8
寸法
 62
     0
 48
50.0
370
    -2
100
AcDbLine
 10
9335.693956914473
 20
4940.0
 30
0.0
 11
8451.943827731216
 21
4940.0
 31
0.0
  0
LINE
  5
1C4E6
330
127E6
100
AcDbEntity
  8
寸法
 62
     0
 48
50.0
370
    -2
100
AcDbLine
 10
9335.693956914473
 20
3150.0
 30
0.0
 11
8451.943827731215
 21
3150.0
 31
0.0
  0
LINE
  5
1C4E7
330
127E6
100
AcDbEntity
  8
寸法
 62
     0
 48
50.0
370
    -2
100
AcDbLine
 10
8511.943827731217
 20
4940.0
 30
0.0
 11
8511.943827731213
 21
3150.0
 31
0.0
  0
INSERT
  5
1C4E8
330
127E6
100
AcDbEntity
  8
寸法
 62
     0
 48
50.0
370
    -2
100
AcDbBlockReference
  2
_DOTSMALL
 10
8511.943827731217
 20
4940.0
 30
0.0
 41
100.0
 42
100.0
 43
100.0
 50
90.0
  0
INSERT
  5
1C4E9
330
127E6
100
AcDbEntity
  8
寸法
 62
     0
 48
50.0
370
    -2
100
AcDbBlockReference
  2
_DOTSMALL
 10
8511.943827731213
 20
3150.0
 30
0.0
 41
100.0
 42
100.0
 43
100.0
 50
270.0
  0
MTEXT
  5
1C4EA
330
127E6
100
AcDbEntity
  8
寸法
 62
     7
 48
50.0
100
AcDbMText
 10
8411.943827731214
 20
4045.000000000001
 30
0.0
 40
120.0
 41
0.0
 71
     5
 72
     1
  1
\A1;1790
  7
STYLE1
 11
0.0000000000000001
 21
1.0
 31
0.0
 73
     1
 44
1.0
1001
ACAD
1000
MTEXTBEGIN
1070
    73
1070
     1
1070
    44
1040
1.0
1070
    74
1070
     0
1000
MTEXTEND
  0
POINT
  5
1C4EB
330
127E6
100
AcDbEntity
  8
DEFPOINTS
 62
     0
 48
50.0
100
AcDbPoint
 10
9355.693956914475
 20
4940.0
 30
0.0
  0
POINT
  5
1C4EC
330
127E6
100
AcDbEntity
  8
DEFPOINTS
 62
     0
 48
50.0
100
AcDbPoint
 10
9355.693956914475
 20
3150.0
 30
0.0
  0
POINT
  5
1C4ED
330
127E6
100
AcDbEntity
  8
DEFPOINTS
 62
     0
 48
50.0
100
AcDbPoint
 10
8511.943827731213
 20
3150.0
 30
0.0
  0
ENDBLK
  5
139CB
330
127E6
100
AcDbEntity
  8
0
 48
50.0
100
AcDbBlockEnd
  0
BLOCK
  5
14CA7
330
127F2
100
AcDbEntity
  8
0
 48
50.0
100
AcDbBlockBegin
  2
*D5
 70
     1
 10
0.0
 20
0.0
 30
0.0
  3
*D5
  1

  0
LINE
  5
1C4EE
330
127F2
100
AcDbEntity
  8
寸法
 62
     0
 48
50.0
370
    -2
100
AcDbLine
 10
9335.693956914473
 20
4932.0
 30
0.0
 11
8750.785315517221
 21
4932.0
 31
0.0
  0
LINE
  5
1C4EF
330
127F2
100
AcDbEntity
  8
寸法
 62
     0
 48
50.0
370
    -2
100
AcDbLine
 10
9335.693956914473
 20
3162.0
 30
0.0
 11
8750.785315517219
 21
3162.000000000001
 31
0.0
  0
LINE
  5
1C4F0
330
127F2
100
AcDbEntity
  8
寸法
 62
     0
 48
50.0
370
    -2
100
AcDbLine
 10
8810.785315517222
 20
4932.0
 30
0.0
 11
8810.78531551722
 21
3162.000000000001
 31
0.0
  0
INSERT
  5
1C4F1
330
127F2
100
AcDbEntity
  8
寸法
 62
     0
 48
50.0
370
    -2
100
AcDbBlockReference
  2
_DOTSMALL
 10
8810.785315517222
 20
4932.0
 30
0.0
 41
100.0
 42
100.0
 43
100.0
 50
90.0
  0
INSERT
  5
1C4F2
330
127F2
100
AcDbEntity
  8
寸法
 62
     0
 48
50.0
370
    -2
100
AcDbBlockReference
  2
_DOTSMALL
 10
8810.78531551722
 20
3162.000000000001
 30
0.0
 41
100.0
 42
100.0
 43
100.0
 50
270.0
  0
MTEXT
  5
1C4F3
330
127F2
100
AcDbEntity
  8
寸法
 62
     7
 48
50.0
100
AcDbMText
 10
8710.785315517219
 20
4047.000000000001
 30
0.0
 40
120.0
 41
0.0
 71
     5
 72
     1
  1
\A1;有効開口部高サ1770
  7
STYLE1
 11
0.0000000000000001
 21
1.0
 31
0.0
 73
     1
 44
1.0
1001
ACAD
1000
MTEXTBEGIN
1070
    73
1070
     1
1070
    44
1040
1.0
1070
    74
1070
     0
1000
MTEXTEND
  0
POINT
  5
1C4F4
330
127F2
100
AcDbEntity
  8
DEFPOINTS
 62
     0
 48
50.0
100
AcDbPoint
 10
9355.693956914475
 20
4932.0
 30
0.0
  0
POINT
  5
1C4F5
330
127F2
100
AcDbEntity
  8
DEFPOINTS
 62
     0
 48
50.0
100
AcDbPoint
 10
9355.693956914475
 20
3162.0
 30
0.0
  0
POINT
  5
1C4F6
330
127F2
100
AcDbEntity
  8
DEFPOINTS
 62
     0
 48
50.0
100
AcDbPoint
 10
8810.78531551722
 20
3162.000000000001
 30
0.0
  0
ENDBLK
  5
14CB1
330
127F2
100
AcDbEntity
  8
0
 48
50.0
100
AcDbBlockEnd
  0
BLOCK
  5
13B9D
330
12832
100
AcDbEntity
  8
0
 48
50.0
100
AcDbBlockBegin
  2
*D6
 70
     1
 10
0.0
 20
0.0
 30
0.0
  3
*D6
  1

  0
LINE
  5
1C4BE
330
12832
100
AcDbEntity
  8
寸法
 62
     0
 48
50.0
370
    -2
100
AcDbLine
 10
10325.69395691447
 20
3100.0
 30
0.0
 11
11070.6211148866
 21
3100.0
 31
0.0
  0
LINE
  5
1C4BF
330
12832
100
AcDbEntity
  8
寸法
 62
     0
 48
50.0
370
    -2
100
AcDbLine
 10
10405.69395691447
 20
5120.0
 30
0.0
 11
11070.6211148866
 21
5120.0
 31
0.0
  0
LINE
  5
1C4C0
330
12832
100
AcDbEntity
  8
寸法
 62
     0
 48
50.0
370
    -2
100
AcDbLine
 10
11010.6211148866
 20
3100.0
 30
0.0
 11
11010.6211148866
 21
5120.0
 31
0.0
  0
INSERT
  5
1C4C1
330
12832
100
AcDbEntity
  8
寸法
 62
     0
 48
50.0
370
    -2
100
AcDbBlockReference
  2
_DOTSMALL
 10
11010.6211148866
 20
3100.0
 30
0.0
 41
100.0
 42
100.0
 43
100.0
 50
270.0
  0
INSERT
  5
1C4C2
330
12832
100
AcDbEntity
  8
寸法
 62
     0
 48
50.0
370
    -2
100
AcDbBlockReference
  2
_DOTSMALL
 10
11010.6211148866
 20
5120.0
 30
0.0
 41
100.0
 42
100.0
 43
100.0
 50
90.0
  0
MTEXT
  5
1C4C3
330
12832
100
AcDbEntity
  8
寸法
 62
     7
 48
50.0
100
AcDbMText
 10
10910.60930386297
 20
4110.000000000002
 30
0.0
 40
120.0
 41
0.0
 71
     5
 72
     1
  1
\A1;2020
  7
STYLE1
 11
0.0000000000000001
 21
1.0
 31
0.0
 73
     1
 44
1.0
1001
ACAD
1000
MTEXTBEGIN
1070
    73
1070
     1
1070
    44
1040
1.0
1070
    74
1070
     0
1000
MTEXTEND
  0
POINT
  5
1C4C4
330
12832
100
AcDbEntity
  8
DEFPOINTS
 62
     0
 48
50.0
100
AcDbPoint
 10
10305.69395691447
 20
3100.0
 30
0.0
  0
POINT
  5
1C4C5
330
12832
100
AcDbEntity
  8
DEFPOINTS
 62
     0
 48
50.0
100
AcDbPoint
 10
10385.69395691447
 20
5120.0
 30
0.0
  0
POINT
  5
1C4C6
330
12832
100
AcDbEntity
  8
DEFPOINTS
 62
     0
 48
50.0
100
AcDbPoint
 10
11010.6211148866
 20
5120.0
 30
0.0
  0
ENDBLK
  5
13BA7
330
12832
100
AcDbEntity
  8
0
 48
50.0
100
AcDbBlockEnd
  0
BLOCK
  5
14D1F
330
13B45
100
AcDbEntity
  8
0
 48
50.0
100
AcDbBlockBegin
  2
*D7
 70
     1
 10
0.0
 20
0.0
 30
0.0
  3
*D7
  1

  0
LINE
  5
1C4B5
330
13B45
100
AcDbEntity
  8
寸法
 62
     0
 48
50.0
370
    -2
100
AcDbLine
 10
10305.69395691447
 20
5141.810679611654
 30
0.0
 11
10305.69395691447
 21
5633.657453579304
 31
0.0
  0
LINE
  5
1C4B6
330
13B45
100
AcDbEntity
  8
寸法
 62
     0
 48
50.0
370
    -2
100
AcDbLine
 10
9355.693956914477
 20
5191.001618122976
 30
0.0
 11
9355.693956914477
 21
5633.657453579304
 31
0.0
  0
LINE
  5
1C4B7
330
13B45
100
AcDbEntity
  8
寸法
 62
     0
 48
50.0
370
    -2
100
AcDbLine
 10
10305.69395691447
 20
5573.657453579304
 30
0.0
 11
9355.693956914477
 21
5573.657453579304
 31
0.0
  0
INSERT
  5
1C4B8
330
13B45
100
AcDbEntity
  8
寸法
 62
     0
 48
50.0
370
    -2
100
AcDbBlockReference
  2
_DOTSMALL
 10
10305.69395691447
 20
5573.657453579304
 30
0.0
 41
100.0
 42
100.0
 43
100.0
  0
INSERT
  5
1C4B9
330
13B45
100
AcDbEntity
  8
寸法
 62
     0
 48
50.0
370
    -2
100
AcDbBlockReference
  2
_DOTSMALL
 10
9355.693956914477
 20
5573.657453579304
 30
0.0
 41
100.0
 42
100.0
 43
100.0
 50
180.0
  0
MTEXT
  5
1C4BA
330
13B45
100
AcDbEntity
  8
寸法
 62
     7
 48
50.0
100
AcDbMText
 10
9830.693956914474
 20
5673.657453579305
 30
0.0
 40
120.0
 41
0.0
 71
     5
 72
     1
  1
\A1;柱外寸法950
  7
STYLE1
 73
     1
 44
1.0
1001
ACAD
1000
MTEXTBEGIN
1070
    73
1070
     1
1070
    44
1040
1.0
1070
    74
1070
     0
1000
MTEXTEND
  0
POINT
  5
1C4BB
330
13B45
100
AcDbEntity
  8
DEFPOINTS
 62
     0
 48
50.0
100
AcDbPoint
 10
10305.69395691447
 20
5121.810679611654
 30
0.0
  0
POINT
  5
1C4BC
330
13B45
100
AcDbEntity
  8
DEFPOINTS
 62
     0
 48
50.0
100
AcDbPoint
 10
9355.693956914477
 20
5171.001618122977
 30
0.0
  0
POINT
  5
1C4BD
330
13B45
100
AcDbEntity
  8
DEFPOINTS
 62
     0
 48
50.0
100
AcDbPoint
 10
9355.693956914477
 20
5573.657453579304
 30
0.0
  0
ENDBLK
  5
14D29
330
13B45
100
AcDbEntity
  8
0
 48
50.0
100
AcDbBlockEnd
  0
BLOCK
  5
149C9
330
13B60
100
AcDbEntity
  8
0
 48
50.0
100
AcDbBlockBegin
  2
*D8
 70
     1
 10
0.0
 20
0.0
 30
0.0
  3
*D8
  1

  0
LINE
  5
1C4AA
330
13B60
100
AcDbEntity
  8
寸法
 62
     0
 48
50.0
370
    -2
100
AcDbLine
 10
9355.693956914477
 20
5191.001618122976
 30
0.0
 11
9355.693956914477
 21
5633.657453579304
 31
0.0
  0
LINE
  5
1C4AB
330
13B60
100
AcDbEntity
  8
寸法
 62
     0
 48
50.0
370
    -2
100
AcDbLine
 10
9295.693956914476
 20
5195.000000000004
 30
0.0
 11
9295.693956914476
 21
5633.657453579304
 31
0.0
  0
LINE
  5
1C4AC
330
13B60
100
AcDbEntity
  8
寸法
 62
     0
 48
50.0
370
    -2
100
AcDbLine
 10
9355.693956914477
 20
5573.657453579304
 30
0.0
 11
9455.693956914476
 21
5573.657453579304
 31
0.0
  0
LINE
  5
1C4AD
330
13B60
100
AcDbEntity
  8
寸法
 62
     0
 48
50.0
370
    -2
100
AcDbLine
 10
9295.693956914476
 20
5573.657453579304
 30
0.0
 11
8876.418366363296
 21
5573.657453579304
 31
0.0
  0
LINE
  5
1C4AE
330
13B60
100
AcDbEntity
  8
寸法
 62
     0
 48
50.0
370
    -2
100
AcDbLine
 10
9355.693956914477
 20
5573.657453579304
 30
0.0
 11
9295.693956914476
 21
5573.657453579304
 31
0.0
  0
INSERT
  5
1C4AF
330
13B60
100
AcDbEntity
  8
寸法
 62
     0
 48
50.0
370
    -2
100
AcDbBlockReference
  2
_DOTSMALL
 10
9355.693956914477
 20
5573.657453579304
 30
0.0
 41
100.0
 42
100.0
 43
100.0
 50
180.0
  0
INSERT
  5
1C4B0
330
13B60
100
AcDbEntity
  8
寸法
 62
     0
 48
50.0
370
    -2
100
AcDbBlockReference
  2
_DOTSMALL
 10
9295.693956914476
 20
5573.657453579304
 30
0.0
 41
100.0
 42
100.0
 43
100.0
  0
MTEXT
  5
1C4B1
330
13B60
100
AcDbEntity
  8
寸法
 62
     7
 48
50.0
100
AcDbMText
 10
8986.056161638886
 20
5673.657453579305
 30
0.0
 40
120.0
 41
0.0
 71
     5
 72
     1
  1
\A1;60
  7
STYLE1
 73
     1
 44
1.0
1001
ACAD
1000
MTEXTBEGIN
1070
    73
1070
     1
1070
    44
1040
1.0
1070
    74
1070
     0
1000
MTEXTEND
  0
POINT
  5
1C4B2
330
13B60
100
AcDbEntity
  8
DEFPOINTS
 62
     0
 48
50.0
100
AcDbPoint
 10
9355.693956914477
 20
5171.001618122977
 30
0.0
  0
POINT
  5
1C4B3
330
13B60
100
AcDbEntity
  8
DEFPOINTS
 62
     0
 48
50.0
100
AcDbPoint
 10
9295.693956914476
 20
5175.000000000005
 30
0.0
  0
POINT
  5
1C4B4
330
13B60
100
AcDbEntity
  8
DEFPOINTS
 62
     0
 48
50.0
100
AcDbPoint
 10
9295.693956914476
 20
5573.657453579304
 30
0.0
  0
ENDBLK
  5
149D4
330
13B60
100
AcDbEntity
  8
0
 48
50.0
100
AcDbBlockEnd
  0
BLOCK
  5
14D2A
330
13BB3
100
AcDbEntity
  8
0
 48
50.0
100
AcDbBlockBegin
  2
*D9
 70
     1
 10
0.0
 20
0.0
 30
0.0
  3
*D9
  1

  0
LINE
  5
1C4A1
330
13BB3
100
AcDbEntity
  8
寸法
 62
     0
 48
50.0
370
    -2
100
AcDbLine
 10
10385.69395691447
 20
5140.000000000001
 30
0.0
 11
10385.69395691447
 21
5843.251328000755
 31
0.0
  0
LINE
  5
1C4A2
330
13BB3
100
AcDbEntity
  8
寸法
 62
     0
 48
50.0
370
    -2
100
AcDbLine
 10
9295.693956914476
 20
5195.000000000004
 30
0.0
 11
9295.693956914476
 21
5843.251328000755
 31
0.0
  0
LINE
  5
1C4A3
330
13BB3
100
AcDbEntity
  8
寸法
 62
     0
 48
50.0
370
    -2
100
AcDbLine
 10
10385.69395691447
 20
5783.251328000755
 30
0.0
 11
9295.693956914476
 21
5783.251328000755
 31
0.0
  0
INSERT
  5
1C4A4
330
13BB3
100
AcDbEntity
  8
寸法
 62
     0
 48
50.0
370
    -2
100
AcDbBlockReference
  2
_DOTSMALL
 10
10385.69395691447
 20
5783.251328000755
 30
0.0
 41
100.0
 42
100.0
 43
100.0
  0
INSERT
  5
1C4A5
330
13BB3
100
AcDbEntity
  8
寸法
 62
     0
 48
50.0
370
    -2
100
AcDbBlockReference
  2
_DOTSMALL
 10
9295.693956914476
 20
5783.251328000755
 30
0.0
 41
100.0
 42
100.0
 43
100.0
 50
180.0
  0
MTEXT
  5
1C4A6
330
13BB3
100
AcDbEntity
  8
寸法
 62
     7
 48
50.0
100
AcDbMText
 10
9818.812671594898
 20
5883.251328000755
 30
0.0
 40
120.0
 41
0.0
 71
     5
 72
     1
  1
\A1;1090
  7
STYLE1
 73
     1
 44
1.0
1001
ACAD
1000
MTEXTBEGIN
1070
    73
1070
     1
1070
    44
1040
1.0
1070
    74
1070
     0
1000
MTEXTEND
  0
POINT
  5
1C4A7
330
13BB3
100
AcDbEntity
  8
DEFPOINTS
 62
     0
 48
50.0
100
AcDbPoint
 10
10385.69395691447
 20
5120.0
 30
0.0
  0
POINT
  5
1C4A8
330
13BB3
100
AcDbEntity
  8
DEFPOINTS
 62
     0
 48
50.0
100
AcDbPoint
 10
9295.693956914476
 20
5175.000000000005
 30
0.0
  0
POINT
  5
1C4A9
330
13BB3
100
AcDbEntity
  8
DEFPOINTS
 62
     0
 48
50.0
100
AcDbPoint
 10
9295.693956914476
 20
5783.251328000755
 30
0.0
  0
ENDBLK
  5
14D34
330
13BB3
100
AcDbEntity
  8
0
 48
50.0
100
AcDbBlockEnd
  0
BLOCK
  5
14A98
330
13DA8
100
AcDbEntity
  8
0
 48
50.0
100
AcDbBlockBegin
  2
*D10
 70
     1
 10
0.0
 20
0.0
 30
0.0
  3
*D10
  1

  0
LINE
  5
1F41E
330
13DA8
100
AcDbEntity
  8
寸法
 62
     0
 48
50.0
370
    -2
100
AcDbLine
 10
5209.896575106991
 20
5195.000000000005
 30
0.0
 11
5209.896575106991
 21
5655.370389148895
 31
0.0
  0
LINE
  5
1F41F
330
13DA8
100
AcDbEntity
  8
寸法
 62
     0
 48
50.0
370
    -2
100
AcDbLine
 10
7519.896575107009
 20
5195.000000000003
 30
0.0
 11
7519.896575107009
 21
5655.370389148895
 31
0.0
  0
LINE
  5
1F420
330
13DA8
100
AcDbEntity
  8
寸法
 62
     0
 48
50.0
370
    -2
100
AcDbLine
 10
5209.896575106991
 20
5595.370389148895
 30
0.0
 11
7519.896575107009
 21
5595.370389148895
 31
0.0
  0
INSERT
  5
1F421
330
13DA8
100
AcDbEntity
  8
寸法
 62
     0
 48
50.0
370
    -2
100
AcDbBlockReference
  2
_DOTSMALL
 10
5209.896575106991
 20
5595.370389148895
 30
0.0
 41
100.0
 42
100.0
 43
100.0
 50
180.0
  0
INSERT
  5
1F422
330
13DA8
100
AcDbEntity
  8
寸法
 62
     0
 48
50.0
370
    -2
100
AcDbBlockReference
  2
_DOTSMALL
 10
7519.896575107009
 20
5595.370389148895
 30
0.0
 41
100.0
 42
100.0
 43
100.0
  0
MTEXT
  5
1F423
330
13DA8
100
AcDbEntity
  8
寸法
 62
     7
 48
50.0
100
AcDbMText
 10
6358.975848044829
 20
5695.382200172517
 30
0.0
 40
120.0
 41
0.0
 71
     5
 72
     1
  1
\A1;2310
  7
STYLE1
 73
     1
 44
1.0
1001
ACAD
1000
MTEXTBEGIN
1070
    73
1070
     1
1070
    44
1040
1.0
1070
    74
1070
     0
1000
MTEXTEND
  0
POINT
  5
1F424
330
13DA8
100
AcDbEntity
  8
DEFPOINTS
 62
     0
 48
50.0
100
AcDbPoint
 10
5209.896575106991
 20
5175.000000000006
 30
0.0
  0
POINT
  5
1F425
330
13DA8
100
AcDbEntity
  8
DEFPOINTS
 62
     0
 48
50.0
100
AcDbPoint
 10
7519.896575107009
 20
5175.000000000003
 30
0.0
  0
POINT
  5
1F426
330
13DA8
100
AcDbEntity
  8
DEFPOINTS
 62
     0
 48
50.0
100
AcDbPoint
 10
7519.896575107009
 20
5595.370389148895
 30
0.0
  0
ENDBLK
  5
14AA2
330
13DA8
100
AcDbEntity
  8
0
 48
50.0
100
AcDbBlockEnd
  0
BLOCK
  5
14A8A
330
141B5
100
AcDbEntity
  8
0
 48
50.0
100
AcDbBlockBegin
  2
*D11
 70
     1
 10
0.0
 20
0.0
 30
0.0
  3
*D11
  1

  0
LINE
  5
20657
330
141B5
100
AcDbEntity
  8
寸法
 62
     0
 48
50.0
370
    -2
100
AcDbLine
 10
7519.896575107009
 20
5195.000000000003
 30
0.0
 11
7519.896575107009
 21
5439.142231267993
 31
0.0
  0
LINE
  5
20658
330
141B5
100
AcDbEntity
  8
寸法
 62
     0
 48
50.0
370
    -2
100
AcDbLine
 10
7469.896575107011
 20
5195.000000000005
 30
0.0
 11
7469.896575107011
 21
5439.142231267993
 31
0.0
  0
LINE
  5
20659
330
141B5
100
AcDbEntity
  8
寸法
 62
     0
 48
50.0
370
    -2
100
AcDbLine
 10
7469.896575107011
 20
5379.142231267993
 30
0.0
 11
7369.89657510701
 21
5379.142231267993
 31
0.0
  0
LINE
  5
2065A
330
141B5
100
AcDbEntity
  8
寸法
 62
     0
 48
50.0
370
    -2
100
AcDbLine
 10
7519.896575107009
 20
5379.142231267993
 30
0.0
 11
7939.429100575736
 21
5379.142231267993
 31
0.0
  0
LINE
  5
2065B
330
141B5
100
AcDbEntity
  8
寸法
 62
     0
 48
50.0
370
    -2
100
AcDbLine
 10
7469.896575107011
 20
5379.142231267993
 30
0.0
 11
7519.896575107009
 21
5379.142231267993
 31
0.0
  0
INSERT
  5
2065C
330
141B5
100
AcDbEntity
  8
寸法
 62
     0
 48
50.0
370
    -2
100
AcDbBlockReference
  2
_DOTSMALL
 10
7469.896575107011
 20
5379.142231267993
 30
0.0
 41
100.0
 42
100.0
 43
100.0
  0
INSERT
  5
2065D
330
141B5
100
AcDbEntity
  8
寸法
 62
     0
 48
50.0
370
    -2
100
AcDbBlockReference
  2
_DOTSMALL
 10
7519.896575107009
 20
5379.142231267993
 30
0.0
 41
100.0
 42
100.0
 43
100.0
 50
180.0
  0
MTEXT
  5
2065E
330
141B5
100
AcDbEntity
  8
寸法
 62
     7
 48
50.0
100
AcDbMText
 10
7833.381856481247
 20
5479.142231267992
 30
0.0
 40
120.0
 41
0.0
 71
     5
 72
     1
  1
\A1;50
  7
STYLE1
 73
     1
 44
1.0
1001
ACAD
1000
MTEXTBEGIN
1070
    73
1070
     1
1070
    44
1040
1.0
1070
    74
1070
     0
1000
MTEXTEND
  0
POINT
  5
2065F
330
141B5
100
AcDbEntity
  8
DEFPOINTS
 62
     0
 48
50.0
100
AcDbPoint
 10
7519.896575107009
 20
5175.000000000003
 30
0.0
  0
POINT
  5
20660
330
141B5
100
AcDbEntity
  8
DEFPOINTS
 62
     0
 48
50.0
100
AcDbPoint
 10
7469.896575107011
 20
5175.000000000006
 30
0.0
  0
POINT
  5
20661
330
141B5
100
AcDbEntity
  8
DEFPOINTS
 62
     0
 48
50.0
100
AcDbPoint
 10
7469.896575107011
 20
5379.142231267993
 30
0.0
  0
ENDBLK
  5
14A96
330
141B5
100
AcDbEntity
  8
0
 48
50.0
100
AcDbBlockEnd
  0
BLOCK
  5
14A7D
330
141F9
100
AcDbEntity
  8
0
 48
50.0
100
AcDbBlockBegin
  2
*D12
 70
     1
 10
0.0
 20
0.0
 30
0.0
  3
*D12
  1

  0
LINE
  5
2064C
330
141F9
100
AcDbEntity
  8
寸法
 62
     0
 48
50.0
370
    -2
100
AcDbLine
 10
5259.896575106991
 20
5195.000000000007
 30
0.0
 11
5259.896575106991
 21
5439.142231267993
 31
0.0
  0
LINE
  5
2064D
330
141F9
100
AcDbEntity
  8
寸法
 62
     0
 48
50.0
370
    -2
100
AcDbLine
 10
5209.896575106991
 20
5195.000000000005
 30
0.0
 11
5209.896575106991
 21
5439.142231267993
 31
0.0
  0
LINE
  5
2064E
330
141F9
100
AcDbEntity
  8
寸法
 62
     0
 48
50.0
370
    -2
100
AcDbLine
 10
5259.896575106991
 20
5379.142231267993
 30
0.0
 11
5359.896575106991
 21
5379.142231267993
 31
0.0
  0
LINE
  5
2064F
330
141F9
100
AcDbEntity
  8
寸法
 62
     0
 48
50.0
370
    -2
100
AcDbLine
 10
5209.896575106991
 20
5379.142231267993
 30
0.0
 11
4790.364049638257
 21
5379.142231267993
 31
0.0
  0
LINE
  5
20650
330
141F9
100
AcDbEntity
  8
寸法
 62
     0
 48
50.0
370
    -2
100
AcDbLine
 10
5259.896575106991
 20
5379.142231267993
 30
0.0
 11
5209.896575106991
 21
5379.142231267993
 31
0.0
  0
INSERT
  5
20651
330
141F9
100
AcDbEntity
  8
寸法
 62
     0
 48
50.0
370
    -2
100
AcDbBlockReference
  2
_DOTSMALL
 10
5259.896575106991
 20
5379.142231267993
 30
0.0
 41
100.0
 42
100.0
 43
100.0
 50
180.0
  0
INSERT
  5
20652
330
141F9
100
AcDbEntity
  8
寸法
 62
     0
 48
50.0
370
    -2
100
AcDbBlockReference
  2
_DOTSMALL
 10
5209.896575106991
 20
5379.142231267993
 30
0.0
 41
100.0
 42
100.0
 43
100.0
  0
MTEXT
  5
20653
330
141F9
100
AcDbEntity
  8
寸法
 62
     7
 48
50.0
100
AcDbMText
 10
4896.411293732746
 20
5479.142231267992
 30
0.0
 40
120.0
 41
0.0
 71
     5
 72
     1
  1
\A1;50
  7
STYLE1
 73
     1
 44
1.0
1001
ACAD
1000
MTEXTBEGIN
1070
    73
1070
     1
1070
    44
1040
1.0
1070
    74
1070
     0
1000
MTEXTEND
  0
POINT
  5
20654
330
141F9
100
AcDbEntity
  8
DEFPOINTS
 62
     0
 48
50.0
100
AcDbPoint
 10
5259.896575106991
 20
5175.000000000006
 30
0.0
  0
POINT
  5
20655
330
141F9
100
AcDbEntity
  8
DEFPOINTS
 62
     0
 48
50.0
100
AcDbPoint
 10
5209.896575106991
 20
5175.000000000006
 30
0.0
  0
POINT
  5
20656
330
141F9
100
AcDbEntity
  8
DEFPOINTS
 62
     0
 48
50.0
100
AcDbPoint
 10
5209.896575106991
 20
5379.142231267993
 30
0.0
  0
ENDBLK
  5
14A89
330
141F9
100
AcDbEntity
  8
0
 48
50.0
100
AcDbBlockEnd
  0
BLOCK
  5
148C8
330
1458A
100
AcDbEntity
  8
0
 48
50.0
100
AcDbBlockBegin
  2
*D13
 70
     1
 10
0.0
 20
0.0
 30
0.0
  3
*D13
  1

  0
LINE
  5
1FE04
330
1458A
100
AcDbEntity
  8
寸法
 62
     0
 48
50.0
370
    -2
100
AcDbLine
 10
5259.896575106966
 20
8225.015836501013
 30
0.0
 11
5259.896575106966
 21
8480.824056125994
 31
0.0
  0
LINE
  5
1FE05
330
1458A
100
AcDbEntity
  8
寸法
 62
     0
 48
50.0
370
    -2
100
AcDbLine
 10
5314.896575107001
 20
8225.015836501013
 30
0.0
 11
5314.896575107001
 21
8480.824056125994
 31
0.0
  0
LINE
  5
1FE06
330
1458A
100
AcDbEntity
  8
寸法
 62
     0
 48
50.0
370
    -2
100
AcDbLine
 10
5314.896575107001
 20
8420.824056125995
 30
0.0
 11
5414.896575107
 21
8420.824056125995
 31
0.0
  0
LINE
  5
1FE07
330
1458A
100
AcDbEntity
  8
寸法
 62
     0
 48
50.0
370
    -2
100
AcDbLine
 10
5259.896575106966
 20
8420.824056125995
 30
0.0
 11
4842.926012358489
 21
8420.824056125995
 31
0.0
  0
LINE
  5
1FE08
330
1458A
100
AcDbEntity
  8
寸法
 62
     0
 48
50.0
370
    -2
100
AcDbLine
 10
5314.896575107001
 20
8420.824056125995
 30
0.0
 11
5259.896575106966
 21
8420.824056125995
 31
0.0
  0
INSERT
  5
1FE09
330
1458A
100
AcDbEntity
  8
寸法
 62
     0
 48
50.0
370
    -2
100
AcDbBlockReference
  2
_DOTSMALL
 10
5314.896575107001
 20
8420.824056125995
 30
0.0
 41
100.0
 42
100.0
 43
100.0
 50
180.0
  0
INSERT
  5
1FE0A
330
1458A
100
AcDbEntity
  8
寸法
 62
     0
 48
50.0
370
    -2
100
AcDbBlockReference
  2
_DOTSMALL
 10
5259.896575106966
 20
8420.824056125995
 30
0.0
 41
100.0
 42
100.0
 43
100.0
  0
MTEXT
  5
1FE0B
330
1458A
100
AcDbEntity
  8
寸法
 62
     7
 48
50.0
100
AcDbMText
 10
4951.411293732729
 20
8520.824056125995
 30
0.0
 40
120.0
 41
0.0
 71
     5
 72
     1
  1
\A1;55
  7
STYLE1
 73
     1
 44
1.0
1001
ACAD
1000
MTEXTBEGIN
1070
    73
1070
     1
1070
    44
1040
1.0
1070
    74
1070
     0
1000
MTEXTEND
  0
POINT
  5
1FE0C
330
1458A
100
AcDbEntity
  8
DEFPOINTS
 62
     0
 48
50.0
100
AcDbPoint
 10
5259.896575106966
 20
8205.015836501013
 30
0.0
  0
POINT
  5
1FE0D
330
1458A
100
AcDbEntity
  8
DEFPOINTS
 62
     0
 48
50.0
100
AcDbPoint
 10
5314.896575107001
 20
8205.015836501013
 30
0.0
  0
POINT
  5
1FE0E
330
1458A
100
AcDbEntity
  8
DEFPOINTS
 62
     0
 48
50.0
100
AcDbPoint
 10
5314.896575107001
 20
8420.824056125995
 30
0.0
  0
ENDBLK
  5
148D4
330
1458A
100
AcDbEntity
  8
0
 48
50.0
100
AcDbBlockEnd
  0
BLOCK
  5
14D6F
330
14598
100
AcDbEntity
  8
0
 48
50.0
100
AcDbBlockBegin
  2
*D14
 70
     1
 10
0.0
 20
0.0
 30
0.0
  3
*D14
  1

  0
LINE
  5
1FDFB
330
14598
100
AcDbEntity
  8
寸法
 62
     0
 48
50.0
370
    -2
100
AcDbLine
 10
7489.896575107002
 20
8205.015836501109
 30
0.0
 11
8486.434451657091
 21
8205.015836501109
 31
0.0
  0
LINE
  5
1FDFC
330
14598
100
AcDbEntity
  8
寸法
 62
     0
 48
50.0
370
    -2
100
AcDbLine
 10
7489.896575106977
 20
7255.0158365011
 30
0.0
 11
8486.434451657091
 21
7255.0158365011
 31
0.0
  0
LINE
  5
1FDFD
330
14598
100
AcDbEntity
  8
寸法
 62
     0
 48
50.0
370
    -2
100
AcDbLine
 10
8426.434451657092
 20
8205.015836501109
 30
0.0
 11
8426.434451657092
 21
7255.0158365011
 31
0.0
  0
INSERT
  5
1FDFE
330
14598
100
AcDbEntity
  8
寸法
 62
     0
 48
50.0
370
    -2
100
AcDbBlockReference
  2
_DOTSMALL
 10
8426.434451657092
 20
8205.015836501109
 30
0.0
 41
100.0
 42
100.0
 43
100.0
 50
90.0
  0
INSERT
  5
1FDFF
330
14598
100
AcDbEntity
  8
寸法
 62
     0
 48
50.0
370
    -2
100
AcDbBlockReference
  2
_DOTSMALL
 10
8426.434451657092
 20
7255.0158365011
 30
0.0
 41
100.0
 42
100.0
 43
100.0
 50
270.0
  0
MTEXT
  5
1FE00
330
14598
100
AcDbEntity
  8
寸法
 62
     7
 48
50.0
100
AcDbMText
 10
8326.434451657089
 20
7728.993555060016
 30
0.0
 40
120.0
 41
0.0
 71
     5
 72
     1
  1
\A1;950
  7
STYLE1
 11
0.0000000000000001
 21
1.0
 31
0.0
 73
     1
 44
1.0
1001
ACAD
1000
MTEXTBEGIN
1070
    73
1070
     1
1070
    44
1040
1.0
1070
    74
1070
     0
1000
MTEXTEND
  0
POINT
  5
1FE01
330
14598
100
AcDbEntity
  8
DEFPOINTS
 62
     0
 48
50.0
100
AcDbPoint
 10
7469.896575107002
 20
8205.015836501109
 30
0.0
  0
POINT
  5
1FE02
330
14598
100
AcDbEntity
  8
DEFPOINTS
 62
     0
 48
50.0
100
AcDbPoint
 10
7469.896575106976
 20
7255.0158365011
 30
0.0
  0
POINT
  5
1FE03
330
14598
100
AcDbEntity
  8
DEFPOINTS
 62
     0
 48
50.0
100
AcDbPoint
 10
8426.434451657092
 20
7255.0158365011
 30
0.0
  0
ENDBLK
  5
14D79
330
14598
100
AcDbEntity
  8
0
 48
50.0
100
AcDbBlockEnd
  0
BLOCK
  5
1492F
330
145A4
100
AcDbEntity
  8
0
 48
50.0
100
AcDbBlockBegin
  2
*D15
 70
     1
 10
0.0
 20
0.0
 30
0.0
  3
*D15
  1

  0
LINE
  5
1FDF0
330
145A4
100
AcDbEntity
  8
寸法
 62
     0
 48
50.0
370
    -2
100
AcDbLine
 10
7489.896575107002
 20
8205.015836501109
 30
0.0
 11
8177.322920841412
 21
8205.015836501109
 31
0.0
  0
LINE
  5
1FDF1
330
145A4
100
AcDbEntity
  8
寸法
 62
     0
 48
50.0
370
    -2
100
AcDbLine
 10
7489.896575107002
 20
8150.015836501111
 30
0.0
 11
8177.322920841412
 21
8150.015836501111
 31
0.0
  0
LINE
  5
1FDF2
330
145A4
100
AcDbEntity
  8
寸法
 62
     0
 48
50.0
370
    -2
100
AcDbLine
 10
8117.322920841413
 20
8150.015836501111
 30
0.0
 11
8117.322920841413
 21
8050.015836501112
 31
0.0
  0
LINE
  5
1FDF3
330
145A4
100
AcDbEntity
  8
寸法
 62
     0
 48
50.0
370
    -2
100
AcDbLine
 10
8117.322920841413
 20
8205.015836501109
 30
0.0
 11
8117.322920841413
 21
8621.986399249584
 31
0.0
  0
LINE
  5
1FDF4
330
145A4
100
AcDbEntity
  8
寸法
 62
     0
 48
50.0
370
    -2
100
AcDbLine
 10
8117.322920841413
 20
8150.015836501111
 30
0.0
 11
8117.322920841413
 21
8205.015836501109
 31
0.0
  0
INSERT
  5
1FDF5
330
145A4
100
AcDbEntity
  8
寸法
 62
     0
 48
50.0
370
    -2
100
AcDbBlockReference
  2
_DOTSMALL
 10
8117.322920841413
 20
8150.015836501111
 30
0.0
 41
100.0
 42
100.0
 43
100.0
 50
90.0
  0
INSERT
  5
1FDF6
330
145A4
100
AcDbEntity
  8
寸法
 62
     0
 48
50.0
370
    -2
100
AcDbBlockReference
  2
_DOTSMALL
 10
8117.322920841413
 20
8205.015836501109
 30
0.0
 41
100.0
 42
100.0
 43
100.0
 50
270.0
  0
MTEXT
  5
1FDF7
330
145A4
100
AcDbEntity
  8
寸法
 62
     7
 48
50.0
100
AcDbMText
 10
8017.322920841412
 20
8513.501117875348
 30
0.0
 40
120.0
 41
0.0
 71
     5
 72
     1
  1
\A1;55
  7
STYLE1
 11
0.0000000000000001
 21
1.0
 31
0.0
 73
     1
 44
1.0
1001
ACAD
1000
MTEXTBEGIN
1070
    73
1070
     1
1070
    44
1040
1.0
1070
    74
1070
     0
1000
MTEXTEND
  0
POINT
  5
1FDF8
330
145A4
100
AcDbEntity
  8
DEFPOINTS
 62
     0
 48
50.0
100
AcDbPoint
 10
7469.896575107002
 20
8205.015836501109
 30
0.0
  0
POINT
  5
1FDF9
330
145A4
100
AcDbEntity
  8
DEFPOINTS
 62
     0
 48
50.0
100
AcDbPoint
 10
7469.896575107002
 20
8150.015836501111
 30
0.0
  0
POINT
  5
1FDFA
330
145A4
100
AcDbEntity
  8
DEFPOINTS
 62
     0
 48
50.0
100
AcDbPoint
 10
8117.322920841413
 20
8150.015836501111
 30
0.0
  0
ENDBLK
  5
1493B
330
145A4
100
AcDbEntity
  8
0
 48
50.0
100
AcDbBlockEnd
  0
BLOCK
  5
14BDB
330
145B2
100
AcDbEntity
  8
0
 48
50.0
100
AcDbBlockBegin
  2
*D16
 70
     1
 10
0.0
 20
0.0
 30
0.0
  3
*D16
  1

  0
LINE
  5
1FDE7
330
145B2
100
AcDbEntity
  8
寸法
 62
     0
 48
50.0
370
    -2
100
AcDbLine
 10
7461.396575107002
 20
8169.656852652485
 30
0.0
 11
7856.754300969027
 21
8063.721069286351
 31
0.0
  0
LINE
  5
1FDE8
330
145B2
100
AcDbEntity
  8
寸法
 62
     0
 48
50.0
370
    -2
100
AcDbLine
 10
7461.396575107002
 20
7719.656852652488
 30
0.0
 11
7856.754300969027
 21
7613.721069286353
 31
0.0
  0
LINE
  5
1FDE9
330
145B2
100
AcDbEntity
  8
寸法
 62
     0
 48
50.0
370
    -2
100
AcDbLine
 10
7796.754300969026
 20
8079.798020832219
 30
0.0
 11
7796.754300969026
 21
7629.79802083222
 31
0.0
  0
INSERT
  5
1FDEA
330
145B2
100
AcDbEntity
  8
寸法
 62
     0
 48
50.0
370
    -2
100
AcDbBlockReference
  2
_DOTSMALL
 10
7796.754300969026
 20
8079.798020832219
 30
0.0
 41
100.0
 42
100.0
 43
100.0
 50
90.0
  0
INSERT
  5
1FDEB
330
145B2
100
AcDbEntity
  8
寸法
 62
     0
 48
50.0
370
    -2
100
AcDbBlockReference
  2
_DOTSMALL
 10
7796.754300969026
 20
7629.79802083222
 30
0.0
 41
100.0
 42
100.0
 43
100.0
 50
270.0
  0
MTEXT
  5
1FDEC
330
145B2
100
AcDbEntity
  8
寸法
 62
     7
 48
50.0
100
AcDbMText
 10
7696.754300969026
 20
7854.79802083222
 30
0.0
 40
120.0
 41
0.0
 71
     5
 72
     1
  1
\A1;450
  7
STYLE1
 11
0.0000000000000001
 21
1.0
 31
0.0
 73
     1
 44
1.0
1001
ACAD
1000
MTEXTBEGIN
1070
    73
1070
     1
1070
    44
1040
1.0
1070
    74
1070
     0
1000
MTEXTEND
  0
POINT
  5
1FDED
330
145B2
100
AcDbEntity
  8
DEFPOINTS
 62
     0
 48
50.0
100
AcDbPoint
 10
7441.396575107003
 20
8175.015836501108
 30
0.0
  0
POINT
  5
1FDEE
330
145B2
100
AcDbEntity
  8
DEFPOINTS
 62
     0
 48
50.0
100
AcDbPoint
 10
7441.396575107003
 20
7725.015836501111
 30
0.0
  0
POINT
  5
1FDEF
330
145B2
100
AcDbEntity
  8
DEFPOINTS
 62
     0
 48
50.0
100
AcDbPoint
 10
7796.754300969026
 20
7629.79802083222
 30
0.0
  0
ENDBLK
  5
14BE5
330
145B2
100
AcDbEntity
  8
0
 48
50.0
100
AcDbBlockEnd
  0
BLOCK
  5
1496A
330
145BE
100
AcDbEntity
  8
0
 48
50.0
100
AcDbBlockBegin
  2
*D17
 70
     1
 10
0.0
 20
0.0
 30
0.0
  3
*D17
  1

  0
LINE
  5
1FDDC
330
145BE
100
AcDbEntity
  8
寸法
 62
     0
 48
50.0
370
    -2
100
AcDbLine
 10
7489.896575106977
 20
7310.015836501095
 30
0.0
 11
8177.322920841389
 21
7310.015836501095
 31
0.0
  0
LINE
  5
1FDDD
330
145BE
100
AcDbEntity
  8
寸法
 62
     0
 48
50.0
370
    -2
100
AcDbLine
 10
7489.896575106977
 20
7255.0158365011
 30
0.0
 11
8177.322920841389
 21
7255.0158365011
 31
0.0
  0
LINE
  5
1FDDE
330
145BE
100
AcDbEntity
  8
寸法
 62
     0
 48
50.0
370
    -2
100
AcDbLine
 10
8117.322920841386
 20
7310.015836501095
 30
0.0
 11
8117.322920841386
 21
7410.015836501095
 31
0.0
  0
LINE
  5
1FDDF
330
145BE
100
AcDbEntity
  8
寸法
 62
     0
 48
50.0
370
    -2
100
AcDbLine
 10
8117.322920841386
 20
7255.0158365011
 30
0.0
 11
8117.322920841386
 21
6768.669088221997
 31
0.0
  0
LINE
  5
1FDE0
330
145BE
100
AcDbEntity
  8
寸法
 62
     0
 48
50.0
370
    -2
100
AcDbLine
 10
8117.322920841386
 20
7310.015836501095
 30
0.0
 11
8117.322920841386
 21
7255.0158365011
 31
0.0
  0
INSERT
  5
1FDE1
330
145BE
100
AcDbEntity
  8
寸法
 62
     0
 48
50.0
370
    -2
100
AcDbBlockReference
  2
_DOTSMALL
 10
8117.322920841386
 20
7310.015836501095
 30
0.0
 41
100.0
 42
100.0
 43
100.0
 50
270.0
  0
INSERT
  5
1FDE2
330
145BE
100
AcDbEntity
  8
寸法
 62
     0
 48
50.0
370
    -2
100
AcDbBlockReference
  2
_DOTSMALL
 10
8117.322920841386
 20
7255.0158365011
 30
0.0
 41
100.0
 42
100.0
 43
100.0
 50
90.0
  0
MTEXT
  5
1FDE3
330
145BE
100
AcDbEntity
  8
寸法
 62
     7
 48
50.0
100
AcDbMText
 10
8017.322920841385
 20
6877.154369596238
 30
0.0
 40
120.0
 41
0.0
 71
     5
 72
     1
  1
\A1;55
  7
STYLE1
 11
0.0000000000000001
 21
1.0
 31
0.0
 73
     1
 44
1.0
1001
ACAD
1000
MTEXTBEGIN
1070
    73
1070
     1
1070
    44
1040
1.0
1070
    74
1070
     0
1000
MTEXTEND
  0
POINT
  5
1FDE4
330
145BE
100
AcDbEntity
  8
DEFPOINTS
 62
     0
 48
50.0
100
AcDbPoint
 10
7469.896575106976
 20
7310.015836501095
 30
0.0
  0
POINT
  5
1FDE5
330
145BE
100
AcDbEntity
  8
DEFPOINTS
 62
     0
 48
50.0
100
AcDbPoint
 10
7469.896575106976
 20
7255.0158365011
 30
0.0
  0
POINT
  5
1FDE6
330
145BE
100
AcDbEntity
  8
DEFPOINTS
 62
     0
 48
50.0
100
AcDbPoint
 10
8117.322920841386
 20
7255.0158365011
 30
0.0
  0
ENDBLK
  5
14976
330
145BE
100
AcDbEntity
  8
0
 48
50.0
100
AcDbBlockEnd
  0
BLOCK
  5
14D4C
330
145CC
100
AcDbEntity
  8
0
 48
50.0
100
AcDbBlockBegin
  2
*D18
 70
     1
 10
0.0
 20
0.0
 30
0.0
  3
*D18
  1

  0
LINE
  5
1FDD3
330
145CC
100
AcDbEntity
  8
寸法
 62
     0
 48
50.0
370
    -2
100
AcDbLine
 10
7489.896575107002
 20
8150.015836501111
 30
0.0
 11
8177.322920841412
 21
8150.015836501111
 31
0.0
  0
LINE
  5
1FDD4
330
145CC
100
AcDbEntity
  8
寸法
 62
     0
 48
50.0
370
    -2
100
AcDbLine
 10
7489.896575106977
 20
7310.015836501095
 30
0.0
 11
8177.322920841412
 21
7310.015836501095
 31
0.0
  0
LINE
  5
1FDD5
330
145CC
100
AcDbEntity
  8
寸法
 62
     0
 48
50.0
370
    -2
100
AcDbLine
 10
8117.322920841413
 20
8150.015836501111
 30
0.0
 11
8117.322920841413
 21
7310.015836501095
 31
0.0
  0
INSERT
  5
1FDD6
330
145CC
100
AcDbEntity
  8
寸法
 62
     0
 48
50.0
370
    -2
100
AcDbBlockReference
  2
_DOTSMALL
 10
8117.322920841413
 20
8150.015836501111
 30
0.0
 41
100.0
 42
100.0
 43
100.0
 50
90.0
  0
INSERT
  5
1FDD7
330
145CC
100
AcDbEntity
  8
寸法
 62
     0
 48
50.0
370
    -2
100
AcDbBlockReference
  2
_DOTSMALL
 10
8117.322920841413
 20
7310.015836501095
 30
0.0
 41
100.0
 42
100.0
 43
100.0
 50
270.0
  0
MTEXT
  5
1FDD8
330
145CC
100
AcDbEntity
  8
寸法
 62
     7
 48
50.0
100
AcDbMText
 10
8017.311109817789
 20
7730.015836501104
 30
0.0
 40
120.0
 41
0.0
 71
     5
 72
     1
  1
\A1;2X420=840
  7
STYLE1
 11
0.0000000000000001
 21
1.0
 31
0.0
 73
     1
 44
1.0
1001
ACAD
1000
MTEXTBEGIN
1070
    73
1070
     1
1070
    44
1040
1.0
1070
    74
1070
     0
1000
MTEXTEND
  0
POINT
  5
1FDD9
330
145CC
100
AcDbEntity
  8
DEFPOINTS
 62
     0
 48
50.0
100
AcDbPoint
 10
7469.896575107002
 20
8150.015836501111
 30
0.0
  0
POINT
  5
1FDDA
330
145CC
100
AcDbEntity
  8
DEFPOINTS
 62
     0
 48
50.0
100
AcDbPoint
 10
7469.896575106976
 20
7310.015836501095
 30
0.0
  0
POINT
  5
1FDDB
330
145CC
100
AcDbEntity
  8
DEFPOINTS
 62
     0
 48
50.0
100
AcDbPoint
 10
8117.322920841413
 20
7310.015836501095
 30
0.0
  0
ENDBLK
  5
14D56
330
145CC
100
AcDbEntity
  8
0
 48
50.0
100
AcDbBlockEnd
  0
BLOCK
  5
14954
330
145D8
100
AcDbEntity
  8
0
 48
50.0
100
AcDbBlockBegin
  2
*D19
 70
     1
 10
0.0
 20
0.0
 30
0.0
  3
*D19
  1

  0
LINE
  5
1FDCA
330
145D8
100
AcDbEntity
  8
寸法
 62
     0
 48
50.0
370
    -2
100
AcDbLine
 10
5259.896575106995
 20
7235.015836500969
 30
0.0
 11
5259.896575106995
 21
6415.502465133676
 31
0.0
  0
LINE
  5
1FDCB
330
145D8
100
AcDbEntity
  8
寸法
 62
     0
 48
50.0
370
    -2
100
AcDbLine
 10
7469.896575106976
 20
7235.015836501064
 30
0.0
 11
7469.896575106976
 21
6415.502465133676
 31
0.0
  0
LINE
  5
1FDCC
330
145D8
100
AcDbEntity
  8
寸法
 62
     0
 48
50.0
370
    -2
100
AcDbLine
 10
5259.896575106995
 20
6475.502465133676
 30
0.0
 11
7469.896575106976
 21
6475.502465133676
 31
0.0
  0
INSERT
  5
1FDCD
330
145D8
100
AcDbEntity
  8
寸法
 62
     0
 48
50.0
370
    -2
100
AcDbBlockReference
  2
_DOTSMALL
 10
5259.896575106995
 20
6475.502465133676
 30
0.0
 41
100.0
 42
100.0
 43
100.0
 50
180.0
  0
INSERT
  5
1FDCE
330
145D8
100
AcDbEntity
  8
寸法
 62
     0
 48
50.0
370
    -2
100
AcDbBlockReference
  2
_DOTSMALL
 10
7469.896575106976
 20
6475.502465133676
 30
0.0
 41
100.0
 42
100.0
 43
100.0
  0
MTEXT
  5
1FDCF
330
145D8
100
AcDbEntity
  8
寸法
 62
     7
 48
50.0
100
AcDbMText
 10
6375.856517730952
 20
6575.514276157297
 30
0.0
 40
120.0
 41
0.0
 71
     5
 72
     1
  1
\A1;2210
  7
STYLE1
 73
     1
 44
1.0
1001
ACAD
1000
MTEXTBEGIN
1070
    73
1070
     1
1070
    44
1040
1.0
1070
    74
1070
     0
1000
MTEXTEND
  0
POINT
  5
1FDD0
330
145D8
100
AcDbEntity
  8
DEFPOINTS
 62
     0
 48
50.0
100
AcDbPoint
 10
5259.896575106995
 20
7255.01583650097
 30
0.0
  0
POINT
  5
1FDD1
330
145D8
100
AcDbEntity
  8
DEFPOINTS
 62
     0
 48
50.0
100
AcDbPoint
 10
7469.896575106976
 20
7255.015836501065
 30
0.0
  0
POINT
  5
1FDD2
330
145D8
100
AcDbEntity
  8
DEFPOINTS
 62
     0
 48
50.0
100
AcDbPoint
 10
7469.896575106976
 20
6475.502465133676
 30
0.0
  0
ENDBLK
  5
1495E
330
145D8
100
AcDbEntity
  8
0
 48
50.0
100
AcDbBlockEnd
  0
BLOCK
  5
14D90
330
145E4
100
AcDbEntity
  8
0
 48
50.0
100
AcDbBlockBegin
  2
*D20
 70
     1
 10
0.0
 20
0.0
 30
0.0
  3
*D20
  1

  0
LINE
  5
1FDC1
330
145E4
100
AcDbEntity
  8
寸法
 62
     0
 48
50.0
370
    -2
100
AcDbLine
 10
6597.896575106995
 20
7235.01583650103
 30
0.0
 11
6597.896575106995
 21
6641.819084525781
 31
0.0
  0
LINE
  5
1FDC2
330
145E4
100
AcDbEntity
  8
寸法
 62
     0
 48
50.0
370
    -2
100
AcDbLine
 10
5319.896575106994
 20
7235.015836500967
 30
0.0
 11
5319.896575106994
 21
6641.819084525781
 31
0.0
  0
LINE
  5
1FDC3
330
145E4
100
AcDbEntity
  8
寸法
 62
     0
 48
50.0
370
    -2
100
AcDbLine
 10
6597.896575106995
 20
6701.819084525782
 30
0.0
 11
5319.896575106994
 21
6701.819084525782
 31
0.0
  0
INSERT
  5
1FDC4
330
145E4
100
AcDbEntity
  8
寸法
 62
     0
 48
50.0
370
    -2
100
AcDbBlockReference
  2
_DOTSMALL
 10
6597.896575106995
 20
6701.819084525782
 30
0.0
 41
100.0
 42
100.0
 43
100.0
  0
INSERT
  5
1FDC5
330
145E4
100
AcDbEntity
  8
寸法
 62
     0
 48
50.0
370
    -2
100
AcDbBlockReference
  2
_DOTSMALL
 10
5319.896575106994
 20
6701.819084525782
 30
0.0
 41
100.0
 42
100.0
 43
100.0
 50
180.0
  0
MTEXT
  5
1FDC6
330
145E4
100
AcDbEntity
  8
寸法
 62
     7
 48
50.0
100
AcDbMText
 10
5947.686700450972
 20
6901.830895549403
 30
0.0
 40
120.0
 41
0.0
 71
     5
 72
     1
  1
\A1;有効開口部間口\P1278
  7
STYLE1
 73
     1
 44
1.0
1001
ACAD
1000
MTEXTBEGIN
1070
    73
1070
     1
1070
    44
1040
1.0
1070
    74
1070
     0
1000
MTEXTEND
  0
POINT
  5
1FDC7
330
145E4
100
AcDbEntity
  8
DEFPOINTS
 62
     0
 48
50.0
100
AcDbPoint
 10
6597.896575106995
 20
7255.015836501029
 30
0.0
  0
POINT
  5
1FDC8
330
145E4
100
AcDbEntity
  8
DEFPOINTS
 62
     0
 48
50.0
100
AcDbPoint
 10
5319.896575106994
 20
7255.015836500968
 30
0.0
  0
POINT
  5
1FDC9
330
145E4
100
AcDbEntity
  8
DEFPOINTS
 62
     0
 48
50.0
100
AcDbPoint
 10
5319.896575106994
 20
6701.819084525782
 30
0.0
  0
ENDBLK
  5
14D9A
330
145E4
100
AcDbEntity
  8
0
 48
50.0
100
AcDbBlockEnd
  0
BLOCK
  5
14D57
330
145FC
100
AcDbEntity
  8
0
 48
50.0
100
AcDbBlockBegin
  2
*D21
 70
     1
 10
0.0
 20
0.0
 30
0.0
  3
*D21
  1

  0
LINE
  5
1FDB8
330
145FC
100
AcDbEntity
  8
寸法
 62
     0
 48
50.0
370
    -2
100
AcDbLine
 10
6583.037591258379
 20
7705.015836501117
 30
0.0
 11
6513.626127267153
 21
7445.968726258133
 31
0.0
  0
LINE
  5
1FDB9
330
145FC
100
AcDbEntity
  8
寸法
 62
     0
 48
50.0
370
    -2
100
AcDbLine
 10
7436.03759125839
 20
7705.015836501113
 30
0.0
 11
7366.626127267167
 21
7445.968726258133
 31
0.0
  0
LINE
  5
1FDBA
330
145FC
100
AcDbEntity
  8
寸法
 62
     0
 48
50.0
370
    -2
100
AcDbLine
 10
6529.703078813021
 20
7505.968726258132
 30
0.0
 11
7382.703078813036
 21
7505.968726258132
 31
0.0
  0
INSERT
  5
1FDBB
330
145FC
100
AcDbEntity
  8
寸法
 62
     0
 48
50.0
370
    -2
100
AcDbBlockReference
  2
_DOTSMALL
 10
6529.703078813021
 20
7505.968726258132
 30
0.0
 41
100.0
 42
100.0
 43
100.0
 50
180.0
  0
INSERT
  5
1FDBC
330
145FC
100
AcDbEntity
  8
寸法
 62
     0
 48
50.0
370
    -2
100
AcDbBlockReference
  2
_DOTSMALL
 10
7382.703078813036
 20
7505.968726258132
 30
0.0
 41
100.0
 42
100.0
 43
100.0
  0
MTEXT
  5
1FDBD
330
145FC
100
AcDbEntity
  8
寸法
 62
     7
 48
50.0
100
AcDbMText
 10
6967.74363722527
 20
7605.968726258132
 30
0.0
 40
120.0
 41
0.0
 71
     5
 72
     1
  1
\A1;853
  7
STYLE1
 73
     1
 44
1.0
1001
ACAD
1000
MTEXTBEGIN
1070
    73
1070
     1
1070
    44
1040
1.0
1070
    74
1070
     0
1000
MTEXTEND
  0
POINT
  5
1FDBE
330
145FC
100
AcDbEntity
  8
DEFPOINTS
 62
     0
 48
50.0
100
AcDbPoint
 10
6588.396575107001
 20
7725.015836501118
 30
0.0
  0
POINT
  5
1FDBF
330
145FC
100
AcDbEntity
  8
DEFPOINTS
 62
     0
 48
50.0
100
AcDbPoint
 10
7441.396575107012
 20
7725.015836501111
 30
0.0
  0
POINT
  5
1FDC0
330
145FC
100
AcDbEntity
  8
DEFPOINTS
 62
     0
 48
50.0
100
AcDbPoint
 10
7382.703078813036
 20
7505.968726258132
 30
0.0
  0
ENDBLK
  5
14D61
330
145FC
100
AcDbEntity
  8
0
 48
50.0
100
AcDbBlockEnd
  0
BLOCK
  5
148D5
330
14608
100
AcDbEntity
  8
0
 48
50.0
100
AcDbBlockBegin
  2
*D22
 70
     1
 10
0.0
 20
0.0
 30
0.0
  3
*D22
  1

  0
LINE
  5
1FDAD
330
14608
100
AcDbEntity
  8
寸法
 62
     0
 48
50.0
370
    -2
100
AcDbLine
 10
7414.896575107002
 20
8225.015836501109
 30
0.0
 11
7414.896575107002
 21
8480.824056126092
 31
0.0
  0
LINE
  5
1FDAE
330
14608
100
AcDbEntity
  8
寸法
 62
     0
 48
50.0
370
    -2
100
AcDbLine
 10
7469.896575107002
 20
8225.015836501109
 30
0.0
 11
7469.896575107002
 21
8480.824056126092
 31
0.0
  0
LINE
  5
1FDAF
330
14608
100
AcDbEntity
  8
寸法
 62
     0
 48
50.0
370
    -2
100
AcDbLine
 10
7414.896575107002
 20
8420.824056126091
 30
0.0
 11
7314.896575107002
 21
8420.824056126091
 31
0.0
  0
LINE
  5
1FDB0
330
14608
100
AcDbEntity
  8
寸法
 62
     0
 48
50.0
370
    -2
100
AcDbLine
 10
7469.896575107002
 20
8420.824056126091
 30
0.0
 11
7886.867137855479
 21
8420.824056126091
 31
0.0
  0
LINE
  5
1FDB1
330
14608
100
AcDbEntity
  8
寸法
 62
     0
 48
50.0
370
    -2
100
AcDbLine
 10
7414.896575107002
 20
8420.824056126091
 30
0.0
 11
7469.896575107002
 21
8420.824056126091
 31
0.0
  0
INSERT
  5
1FDB2
330
14608
100
AcDbEntity
  8
寸法
 62
     0
 48
50.0
370
    -2
100
AcDbBlockReference
  2
_DOTSMALL
 10
7414.896575107002
 20
8420.824056126091
 30
0.0
 41
100.0
 42
100.0
 43
100.0
  0
INSERT
  5
1FDB3
330
14608
100
AcDbEntity
  8
寸法
 62
     0
 48
50.0
370
    -2
100
AcDbBlockReference
  2
_DOTSMALL
 10
7469.896575107002
 20
8420.824056126091
 30
0.0
 41
100.0
 42
100.0
 43
100.0
 50
180.0
  0
MTEXT
  5
1FDB4
330
14608
100
AcDbEntity
  8
寸法
 62
     7
 48
50.0
100
AcDbMText
 10
7778.381856481241
 20
8520.824056126093
 30
0.0
 40
120.0
 41
0.0
 71
     5
 72
     1
  1
\A1;55
  7
STYLE1
 73
     1
 44
1.0
1001
ACAD
1000
MTEXTBEGIN
1070
    73
1070
     1
1070
    44
1040
1.0
1070
    74
1070
     0
1000
MTEXTEND
  0
POINT
  5
1FDB5
330
14608
100
AcDbEntity
  8
DEFPOINTS
 62
     0
 48
50.0
100
AcDbPoint
 10
7414.896575107002
 20
8205.015836501109
 30
0.0
  0
POINT
  5
1FDB6
330
14608
100
AcDbEntity
  8
DEFPOINTS
 62
     0
 48
50.0
100
AcDbPoint
 10
7469.896575107002
 20
8205.015836501109
 30
0.0
  0
POINT
  5
1FDB7
330
14608
100
AcDbEntity
  8
DEFPOINTS
 62
     0
 48
50.0
100
AcDbPoint
 10
7469.896575107002
 20
8420.824056126091
 30
0.0
  0
ENDBLK
  5
148E1
330
14608
100
AcDbEntity
  8
0
 48
50.0
100
AcDbBlockEnd
  0
BLOCK
  5
14B64
330
14616
100
AcDbEntity
  8
0
 48
50.0
100
AcDbBlockBegin
  2
*D23
 70
     1
 10
0.0
 20
0.0
 30
0.0
  3
*D23
  1

  0
LINE
  5
1FDA4
330
14616
100
AcDbEntity
  8
寸法
 62
     0
 48
50.0
370
    -2
100
AcDbLine
 10
5314.896575107001
 20
8225.015836501013
 30
0.0
 11
5314.896575107001
 21
8480.824056125994
 31
0.0
  0
LINE
  5
1FDA5
330
14616
100
AcDbEntity
  8
寸法
 62
     0
 48
50.0
370
    -2
100
AcDbLine
 10
7414.896575107002
 20
8225.015836501109
 30
0.0
 11
7414.896575107002
 21
8480.824056125994
 31
0.0
  0
LINE
  5
1FDA6
330
14616
100
AcDbEntity
  8
寸法
 62
     0
 48
50.0
370
    -2
100
AcDbLine
 10
5314.896575107001
 20
8420.824056125995
 30
0.0
 11
7414.896575107002
 21
8420.824056125995
 31
0.0
  0
INSERT
  5
1FDA7
330
14616
100
AcDbEntity
  8
寸法
 62
     0
 48
50.0
370
    -2
100
AcDbBlockReference
  2
_DOTSMALL
 10
5314.896575107001
 20
8420.824056125995
 30
0.0
 41
100.0
 42
100.0
 43
100.0
 50
180.0
  0
INSERT
  5
1FDA8
330
14616
100
AcDbEntity
  8
寸法
 62
     0
 48
50.0
370
    -2
100
AcDbBlockReference
  2
_DOTSMALL
 10
7414.896575107002
 20
8420.824056125995
 30
0.0
 41
100.0
 42
100.0
 43
100.0
  0
MTEXT
  5
1FDA9
330
14616
100
AcDbEntity
  8
寸法
 62
     7
 48
50.0
100
AcDbMText
 10
6356.769737990322
 20
8520.835867149617
 30
0.0
 40
120.0
 41
0.0
 71
     5
 72
     1
  1
\A1;5X420=2100
  7
STYLE1
 73
     1
 44
1.0
1001
ACAD
1000
MTEXTBEGIN
1070
    73
1070
     1
1070
    44
1040
1.0
1070
    74
1070
     0
1000
MTEXTEND
  0
POINT
  5
1FDAA
330
14616
100
AcDbEntity
  8
DEFPOINTS
 62
     0
 48
50.0
100
AcDbPoint
 10
5314.896575107001
 20
8205.015836501013
 30
0.0
  0
POINT
  5
1FDAB
330
14616
100
AcDbEntity
  8
DEFPOINTS
 62
     0
 48
50.0
100
AcDbPoint
 10
7414.896575107002
 20
8205.015836501109
 30
0.0
  0
POINT
  5
1FDAC
330
14616
100
AcDbEntity
  8
DEFPOINTS
 62
     0
 48
50.0
100
AcDbPoint
 10
7414.896575107002
 20
8420.824056125995
 30
0.0
  0
ENDBLK
  5
14B6E
330
14616
100
AcDbEntity
  8
0
 48
50.0
100
AcDbBlockEnd
  0
BLOCK
  5
14A72
330
146DC
100
AcDbEntity
  8
0
 48
50.0
100
AcDbBlockBegin
  2
*D24
 70
     1
 10
0.0
 20
0.0
 30
0.0
  3
*D24
  1

  0
LINE
  5
1F439
330
146DC
100
AcDbEntity
  8
寸法
 62
     0
 48
50.0
370
    -2
100
AcDbLine
 10
7469.896575107011
 20
5195.000000000005
 30
0.0
 11
7469.896575107011
 21
5439.142231267993
 31
0.0
  0
LINE
  5
1F43A
330
146DC
100
AcDbEntity
  8
寸法
 62
     0
 48
50.0
370
    -2
100
AcDbLine
 10
5259.896575106991
 20
5195.000000000007
 30
0.0
 11
5259.896575106991
 21
5439.142231267993
 31
0.0
  0
LINE
  5
1F43B
330
146DC
100
AcDbEntity
  8
寸法
 62
     0
 48
50.0
370
    -2
100
AcDbLine
 10
7469.896575107011
 20
5379.142231267993
 30
0.0
 11
5259.896575106991
 21
5379.142231267993
 31
0.0
  0
INSERT
  5
1F43C
330
146DC
100
AcDbEntity
  8
寸法
 62
     0
 48
50.0
370
    -2
100
AcDbBlockReference
  2
_DOTSMALL
 10
7469.896575107011
 20
5379.142231267993
 30
0.0
 41
100.0
 42
100.0
 43
100.0
  0
INSERT
  5
1F43D
330
146DC
100
AcDbEntity
  8
寸法
 62
     0
 48
50.0
370
    -2
100
AcDbBlockReference
  2
_DOTSMALL
 10
5259.896575106991
 20
5379.142231267993
 30
0.0
 41
100.0
 42
100.0
 43
100.0
 50
180.0
  0
MTEXT
  5
1F43E
330
146DC
100
AcDbEntity
  8
寸法
 62
     7
 48
50.0
100
AcDbMText
 10
6397.940818449586
 20
5479.154042291614
 30
0.0
 40
120.0
 41
0.0
 71
     5
 72
     1
  1
\A1;柱外寸法2210
  7
STYLE1
 73
     1
 44
1.0
1001
ACAD
1000
MTEXTBEGIN
1070
    73
1070
     1
1070
    44
1040
1.0
1070
    74
1070
     0
1000
MTEXTEND
  0
POINT
  5
1F43F
330
146DC
100
AcDbEntity
  8
DEFPOINTS
 62
     0
 48
50.0
100
AcDbPoint
 10
7469.896575107011
 20
5175.000000000006
 30
0.0
  0
POINT
  5
1F440
330
146DC
100
AcDbEntity
  8
DEFPOINTS
 62
     0
 48
50.0
100
AcDbPoint
 10
5259.896575106991
 20
5175.000000000006
 30
0.0
  0
POINT
  5
1F441
330
146DC
100
AcDbEntity
  8
DEFPOINTS
 62
     0
 48
50.0
100
AcDbPoint
 10
5259.896575106991
 20
5379.142231267993
 30
0.0
  0
ENDBLK
  5
14A7C
330
146DC
100
AcDbEntity
  8
0
 48
50.0
100
AcDbBlockEnd
  0
BLOCK
  5
14D64
330
14D63
100
AcDbEntity
  8
0
 48
50.0
100
AcDbBlockBegin
  2
*D25
 70
     1
 10
0.0
 20
0.0
 30
0.0
  3
*D25
  1

  0
LINE
  5
1FD9B
330
14D63
100
AcDbEntity
  8
寸法
 62
     0
 48
50.0
370
    -2
100
AcDbLine
 10
5283.037591258377
 20
7705.015836500961
 30
0.0
 11
5213.100968379326
 21
7444.008806606558
 31
0.0
  0
LINE
  5
1FD9C
330
14D63
100
AcDbEntity
  8
寸法
 62
     0
 48
50.0
370
    -2
100
AcDbLine
 10
6556.037591258392
 20
7705.015836501006
 30
0.0
 11
6486.100968379329
 21
7444.008806606558
 31
0.0
  0
LINE
  5
1FD9D
330
14D63
100
AcDbEntity
  8
寸法
 62
     0
 48
50.0
370
    -2
100
AcDbLine
 10
5229.177919925193
 20
7504.008806606558
 30
0.0
 11
6502.177919925197
 21
7504.008806606558
 31
0.0
  0
INSERT
  5
1FD9E
330
14D63
100
AcDbEntity
  8
寸法
 62
     0
 48
50.0
370
    -2
100
AcDbBlockReference
  2
_DOTSMALL
 10
5229.177919925193
 20
7504.008806606558
 30
0.0
 41
100.0
 42
100.0
 43
100.0
 50
180.0
  0
INSERT
  5
1FD9F
330
14D63
100
AcDbEntity
  8
寸法
 62
     0
 48
50.0
370
    -2
100
AcDbBlockReference
  2
_DOTSMALL
 10
6502.177919925197
 20
7504.008806606558
 30
0.0
 41
100.0
 42
100.0
 43
100.0
  0
MTEXT
  5
1FDA0
330
14D63
100
AcDbEntity
  8
寸法
 62
     7
 48
50.0
100
AcDbMText
 10
5765.319254562259
 20
7604.02061763018
 30
0.0
 40
120.0
 41
0.0
 71
     5
 72
     1
  1
\A1;1273
  7
STYLE1
 73
     1
 44
1.0
1001
ACAD
1000
MTEXTBEGIN
1070
    73
1070
     1
1070
    44
1040
1.0
1070
    74
1070
     0
1000
MTEXTEND
  0
POINT
  5
1FDA1
330
14D63
100
AcDbEntity
  8
DEFPOINTS
 62
     0
 48
50.0
100
AcDbPoint
 10
5288.396575107
 20
7725.015836500961
 30
0.0
  0
POINT
  5
1FDA2
330
14D63
100
AcDbEntity
  8
DEFPOINTS
 62
     0
 48
50.0
100
AcDbPoint
 10
6561.396575107014
 20
7725.015836501007
 30
0.0
  0
POINT
  5
1FDA3
330
14D63
100
AcDbEntity
  8
DEFPOINTS
 62
     0
 48
50.0
100
AcDbPoint
 10
6502.177919925197
 20
7504.008806606558
 30
0.0
  0
ENDBLK
  5
14D6E
330
14D63
100
AcDbEntity
  8
0
 48
50.0
100
AcDbBlockEnd
  0
BLOCK
  5
19885
330
19879
100
AcDbEntity
  8
0
 48
50.0
100
AcDbBlockBegin
  2
*D26
 70
     1
 10
0.0
 20
0.0
 30
0.0
  3
*D26
  1

  0
LINE
  5
1C3E0
330
19879
100
AcDbEntity
  8
寸法
 62
     0
 48
50.0
370
    -2
100
AcDbLine
 10
10305.69395691447
 20
5141.810679611654
 30
0.0
 11
10305.69395691447
 21
5633.657453579304
 31
0.0
  0
LINE
  5
1C3E1
330
19879
100
AcDbEntity
  8
寸法
 62
     0
 48
50.0
370
    -2
100
AcDbLine
 10
10385.69395691447
 20
5140.000000000001
 30
0.0
 11
10385.69395691447
 21
5633.657453579304
 31
0.0
  0
LINE
  5
1C3E2
330
19879
100
AcDbEntity
  8
寸法
 62
     0
 48
50.0
370
    -2
100
AcDbLine
 10
10305.69395691447
 20
5573.657453579304
 30
0.0
 11
10385.69395691447
 21
5573.657453579304
 31
0.0
  0
LINE
  5
1C3E3
330
19879
100
AcDbEntity
  8
寸法
 62
     0
 48
50.0
370
    -2
100
AcDbLine
 10
10385.69395691447
 20
5573.657453579304
 30
0.0
 11
10697.78844510345
 21
5573.657453579304
 31
0.0
  0
INSERT
  5
1C3E4
330
19879
100
AcDbEntity
  8
寸法
 62
     0
 48
50.0
370
    -2
100
AcDbBlockReference
  2
_DOTSMALL
 10
10305.69395691447
 20
5573.657453579304
 30
0.0
 41
100.0
 42
100.0
 43
100.0
 50
180.0
  0
INSERT
  5
1C3E5
330
19879
100
AcDbEntity
  8
寸法
 62
     0
 48
50.0
370
    -2
100
AcDbBlockReference
  2
_DOTSMALL
 10
10385.69395691447
 20
5573.657453579304
 30
0.0
 41
100.0
 42
100.0
 43
100.0
  0
MTEXT
  5
1C3E6
330
19879
100
AcDbEntity
  8
寸法
 62
     7
 48
50.0
100
AcDbMText
 10
10591.74120100896
 20
5673.657453579305
 30
0.0
 40
120.0
 41
0.0
 71
     5
 72
     1
  1
\A1;80
  7
STYLE1
 73
     1
 44
1.0
1001
ACAD
1000
MTEXTBEGIN
1070
    73
1070
     1
1070
    44
1040
1.0
1070
    74
1070
     0
1000
MTEXTEND
  0
POINT
  5
1C3E7
330
19879
100
AcDbEntity
  8
DEFPOINTS
 62
     0
 48
50.0
100
AcDbPoint
 10
10305.69395691447
 20
5121.810679611654
 30
0.0
  0
POINT
  5
1C3E8
330
19879
100
AcDbEntity
  8
DEFPOINTS
 62
     0
 48
50.0
100
AcDbPoint
 10
10385.69395691447
 20
5120.0
 30
0.0
  0
POINT
  5
1C3E9
330
19879
100
AcDbEntity
  8
DEFPOINTS
 62
     0
 48
50.0
100
AcDbPoint
 10
10385.69395691447
 20
5573.657453579304
 30
0.0
  0
ENDBLK
  5
19886
330
19879
100
AcDbEntity
  8
0
 48
50.0
100
AcDbBlockEnd
  0
BLOCK
  5
19A52
330
19A47
100
AcDbEntity
  8
0
 48
50.0
100
AcDbBlockBegin
  2
*D27
 70
     1
 10
0.0
 20
0.0
 30
0.0
  3
*D27
  1

  0
LINE
  5
1C3D6
330
19A47
100
AcDbEntity
  8
寸法
 62
     0
 48
50.0
370
    -2
100
AcDbLine
 10
9291.050761601976
 20
5033.535611473499
 30
0.0
 11
8638.150591307564
 21
5058.186642714234
 31
0.0
  0
LINE
  5
1C3D7
330
19A47
100
AcDbEntity
  8
寸法
 62
     0
 48
50.0
370
    -2
100
AcDbLine
 10
9296.370595753931
 20
5174.435218870382
 30
0.0
 11
8643.470425459517
 21
5199.086250111117
 31
0.0
  0
LINE
  5
1C3D8
330
19A47
100
AcDbEntity
  8
寸法
 62
     0
 48
50.0
370
    -2
100
AcDbLine
 10
8698.107871050918
 20
5055.922883500637
 30
0.0
 11
8703.427705202869
 21
5196.82249089752
 31
0.0
  0
LINE
  5
1C3D9
330
19A47
100
AcDbEntity
  8
寸法
 62
     0
 48
50.0
370
    -2
100
AcDbLine
 10
8703.427705202869
 20
5196.82249089752
 30
0.0
 11
8717.010260484453
 21
5556.566169357646
 31
0.0
  0
INSERT
  5
1C3DA
330
19A47
100
AcDbEntity
  8
寸法
 62
     0
 48
50.0
370
    -2
100
AcDbBlockReference
  2
_DOTSMALL
 10
8698.107871050918
 20
5055.922883500637
 30
0.0
 41
100.0
 42
100.0
 43
100.0
 50
267.8377559870924
  0
INSERT
  5
1C3DB
330
19A47
100
AcDbEntity
  8
寸法
 62
     0
 48
50.0
370
    -2
100
AcDbBlockReference
  2
_DOTSMALL
 10
8703.427705202869
 20
5196.82249089752
 30
0.0
 41
100.0
 42
100.0
 43
100.0
 50
87.83775598709235
  0
MTEXT
  5
1C3DC
330
19A47
100
AcDbEntity
  8
寸法
 62
     7
 48
50.0
100
AcDbMText
 10
8612.176649282734
 20
5430.431661936374
 30
0.0
 40
120.0
 41
0.0
 71
     5
 72
     1
  1
\A1;141
  7
STYLE1
 11
0.0377293202266152
 21
0.9992879957225731
 31
0.0
 73
     1
 44
1.0
1001
ACAD
1000
MTEXTBEGIN
1070
    73
1070
     1
1070
    44
1040
1.0
1070
    74
1070
     0
1000
MTEXTEND
  0
POINT
  5
1C3DD
330
19A47
100
AcDbEntity
  8
DEFPOINTS
 62
     0
 48
50.0
100
AcDbPoint
 10
9311.036521516426
 20
5032.781025068967
 30
0.0
  0
POINT
  5
1C3DE
330
19A47
100
AcDbEntity
  8
DEFPOINTS
 62
     0
 48
50.0
100
AcDbPoint
 10
9316.35635566838
 20
5173.680632465849
 30
0.0
  0
POINT
  5
1C3DF
330
19A47
100
AcDbEntity
  8
DEFPOINTS
 62
     0
 48
50.0
100
AcDbPoint
 10
8703.427705202869
 20
5196.82249089752
 30
0.0
  0
ENDBLK
  5
19A53
330
19A47
100
AcDbEntity
  8
0
 48
50.0
100
AcDbBlockEnd
  0
BLOCK
  5
20AAF
330
20AA5
100
AcDbEntity
  8
0
 48
50.0
100
AcDbBlockBegin
  2
*D28
 70
     1
 10
0.0
 20
0.0
 30
0.0
  3
*D28
  1

  0
LINE
  5
20B26
330
20AA5
100
AcDbEntity
  8
寸法
 62
     0
 48
50.0
370
    -2
100
AcDbLine
 10
9508.193956914476
 20
2730.0
 30
0.0
 11
9508.193956914476
 21
2407.87759756039
 31
0.0
  0
LINE
  5
20B27
330
20AA5
100
AcDbEntity
  8
寸法
 62
     0
 48
50.0
370
    -2
100
AcDbLine
 10
9258.193956914478
 20
2730.0
 30
0.0
 11
9258.193956914478
 21
2407.87759756039
 31
0.0
  0
LINE
  5
20B28
330
20AA5
100
AcDbEntity
  8
寸法
 62
     0
 48
50.0
370
    -2
100
AcDbLine
 10
9508.193956914476
 20
2467.87759756039
 30
0.0
 11
9258.193956914478
 21
2467.87759756039
 31
0.0
  0
INSERT
  5
20B29
330
20AA5
100
AcDbEntity
  8
寸法
 62
     0
 48
50.0
370
    -2
100
AcDbBlockReference
  2
_DOTSMALL
 10
9508.193956914476
 20
2467.87759756039
 30
0.0
 41
100.0
 42
100.0
 43
100.0
  0
INSERT
  5
20B2A
330
20AA5
100
AcDbEntity
  8
寸法
 62
     0
 48
50.0
370
    -2
100
AcDbBlockReference
  2
_DOTSMALL
 10
9258.193956914478
 20
2467.87759756039
 30
0.0
 41
100.0
 42
100.0
 43
100.0
 50
180.0
  0
MTEXT
  5
20B2B
330
20AA5
100
AcDbEntity
  8
寸法
 62
     7
 48
50.0
100
AcDbMText
 10
9383.193956914478
 20
2567.889408584012
 30
0.0
 40
120.0
 41
0.0
 71
     5
 72
     1
  1
\A1;250
  7
STYLE1
 73
     1
 44
1.0
1001
ACAD
1000
MTEXTBEGIN
1070
    73
1070
     1
1070
    44
1040
1.0
1070
    74
1070
     0
1000
MTEXTEND
  0
POINT
  5
20B2C
330
20AA5
100
AcDbEntity
  8
DEFPOINTS
 62
     0
 48
50.0
100
AcDbPoint
 10
9508.193956914476
 20
2750.0
 30
0.0
  0
POINT
  5
20B2D
330
20AA5
100
AcDbEntity
  8
DEFPOINTS
 62
     0
 48
50.0
100
AcDbPoint
 10
9258.193956914478
 20
2750.0
 30
0.0
  0
POINT
  5
20B2E
330
20AA5
100
AcDbEntity
  8
DEFPOINTS
 62
     0
 48
50.0
100
AcDbPoint
 10
9258.193956914478
 20
2467.87759756039
 30
0.0
  0
ENDBLK
  5
20AB0
330
20AA5
100
AcDbEntity
  8
0
 48
50.0
100
AcDbBlockEnd
  0
BLOCK
  5
20ABB
330
20AB1
100
AcDbEntity
  8
0
 48
50.0
100
AcDbBlockBegin
  2
*D29
 70
     1
 10
0.0
 20
0.0
 30
0.0
  3
*D29
  1

  0
LINE
  5
20B1D
330
20AB1
100
AcDbEntity
  8
寸法
 62
     0
 48
50.0
370
    -2
100
AcDbLine
 10
9238.193956914477
 20
2750.0
 30
0.0
 11
9044.048535739362
 21
2750.0
 31
0.0
  0
LINE
  5
20B1E
330
20AB1
100
AcDbEntity
  8
寸法
 62
     0
 48
50.0
370
    -2
100
AcDbLine
 10
9213.193956914476
 20
3000.0
 30
0.0
 11
9044.048535739362
 21
3000.0
 31
0.0
  0
LINE
  5
20B1F
330
20AB1
100
AcDbEntity
  8
寸法
 62
     0
 48
50.0
370
    -2
100
AcDbLine
 10
9104.048535739364
 20
2750.0
 30
0.0
 11
9104.048535739364
 21
3000.0
 31
0.0
  0
INSERT
  5
20B20
330
20AB1
100
AcDbEntity
  8
寸法
 62
     0
 48
50.0
370
    -2
100
AcDbBlockReference
  2
_DOTSMALL
 10
9104.048535739364
 20
2750.0
 30
0.0
 41
100.0
 42
100.0
 43
100.0
 50
270.0
  0
INSERT
  5
20B21
330
20AB1
100
AcDbEntity
  8
寸法
 62
     0
 48
50.0
370
    -2
100
AcDbBlockReference
  2
_DOTSMALL
 10
9104.048535739364
 20
3000.0
 30
0.0
 41
100.0
 42
100.0
 43
100.0
 50
90.0
  0
MTEXT
  5
20B22
330
20AB1
100
AcDbEntity
  8
寸法
 62
     7
 48
50.0
100
AcDbMText
 10
9004.03672471574
 20
2875.000000000002
 30
0.0
 40
120.0
 41
0.0
 71
     5
 72
     1
  1
\A1;250
  7
STYLE1
 11
0.0000000000000001
 21
1.0
 31
0.0
 73
     1
 44
1.0
1001
ACAD
1000
MTEXTBEGIN
1070
    73
1070
     1
1070
    44
1040
1.0
1070
    74
1070
     0
1000
MTEXTEND
  0
POINT
  5
20B23
330
20AB1
100
AcDbEntity
  8
DEFPOINTS
 62
     0
 48
50.0
100
AcDbPoint
 10
9258.193956914478
 20
2750.0
 30
0.0
  0
POINT
  5
20B24
330
20AB1
100
AcDbEntity
  8
DEFPOINTS
 62
     0
 48
50.0
100
AcDbPoint
 10
9233.193956914476
 20
3000.0
 30
0.0
  0
POINT
  5
20B25
330
20AB1
100
AcDbEntity
  8
DEFPOINTS
 62
     0
 48
50.0
100
AcDbPoint
 10
9104.048535739364
 20
3000.0
 30
0.0
  0
ENDBLK
  5
20ABC
330
20AB1
100
AcDbEntity
  8
0
 48
50.0
100
AcDbBlockEnd
  0
BLOCK
  5
20AC7
330
20ABD
100
AcDbEntity
  8
0
 48
50.0
100
AcDbBlockBegin
  2
*D30
 70
     1
 10
0.0
 20
0.0
 30
0.0
  3
*D30
  1

  0
LINE
  5
20B14
330
20ABD
100
AcDbEntity
  8
寸法
 62
     0
 48
50.0
370
    -2
100
AcDbLine
 10
7594.896575107007
 20
2732.999999999999
 30
0.0
 11
7594.896575107007
 21
2409.248916440127
 31
0.0
  0
LINE
  5
20B15
330
20ABD
100
AcDbEntity
  8
寸法
 62
     0
 48
50.0
370
    -2
100
AcDbLine
 10
7344.896575107009
 20
2733.0
 30
0.0
 11
7344.896575107009
 21
2409.248916440127
 31
0.0
  0
LINE
  5
20B16
330
20ABD
100
AcDbEntity
  8
寸法
 62
     0
 48
50.0
370
    -2
100
AcDbLine
 10
7594.896575107007
 20
2469.248916440127
 30
0.0
 11
7344.896575107009
 21
2469.248916440127
 31
0.0
  0
INSERT
  5
20B17
330
20ABD
100
AcDbEntity
  8
寸法
 62
     0
 48
50.0
370
    -2
100
AcDbBlockReference
  2
_DOTSMALL
 10
7594.896575107007
 20
2469.248916440127
 30
0.0
 41
100.0
 42
100.0
 43
100.0
  0
INSERT
  5
20B18
330
20ABD
100
AcDbEntity
  8
寸法
 62
     0
 48
50.0
370
    -2
100
AcDbBlockReference
  2
_DOTSMALL
 10
7344.896575107009
 20
2469.248916440127
 30
0.0
 41
100.0
 42
100.0
 43
100.0
 50
180.0
  0
MTEXT
  5
20B19
330
20ABD
100
AcDbEntity
  8
寸法
 62
     7
 48
50.0
100
AcDbMText
 10
7469.896575107007
 20
2569.260727463749
 30
0.0
 40
120.0
 41
0.0
 71
     5
 72
     1
  1
\A1;250
  7
STYLE1
 73
     1
 44
1.0
1001
ACAD
1000
MTEXTBEGIN
1070
    73
1070
     1
1070
    44
1040
1.0
1070
    74
1070
     0
1000
MTEXTEND
  0
POINT
  5
20B1A
330
20ABD
100
AcDbEntity
  8
DEFPOINTS
 62
     0
 48
50.0
100
AcDbPoint
 10
7594.896575107007
 20
2752.999999999999
 30
0.0
  0
POINT
  5
20B1B
330
20ABD
100
AcDbEntity
  8
DEFPOINTS
 62
     0
 48
50.0
100
AcDbPoint
 10
7344.896575107009
 20
2753.0
 30
0.0
  0
POINT
  5
20B1C
330
20ABD
100
AcDbEntity
  8
DEFPOINTS
 62
     0
 48
50.0
100
AcDbPoint
 10
7344.896575107009
 20
2469.248916440127
 30
0.0
  0
ENDBLK
  5
20AC8
330
20ABD
100
AcDbEntity
  8
0
 48
50.0
100
AcDbBlockEnd
  0
ENDSEC
  0
SECTION
  2
ENTITIES
  0
LINE
  5
10B57
330
747D
100
AcDbEntity
  8
補助
  6
PHANTOM
 62
   230
 48
50.0
100
AcDbLine
 10
139.9999999999995
 20
11409.6
 30
0.0
 11
16307.2
 21
11409.6
 31
0.0
  0
LINE
  5
10B59
330
747D
100
AcDbEntity
  8
仕様書枠
  6
Continuous
 48
50.0
100
AcDbLine
 10
13107.2
 20
1200.0
 30
0.0
 11
13107.2
 21
-0.0000000000000729
 31
0.0
  0
LINE
  5
10B5C
330
747D
100
AcDbEntity
  8
仕様書枠
 48
50.0
100
AcDbLine
 10
16307.2
 20
1200.0
 30
0.0
 11
16307.2
 21
-0.0000000000000909
 31
0.0
  0
LINE
  5
10B5D
330
747D
100
AcDbEntity
  8
仕様書枠
 48
50.0
100
AcDbLine
 10
140.0
 20
0.0
 30
0.0
 11
16307.2
 21
-0.0000000000000909
 31
0.0
  0
LINE
  5
10B5E
330
747D
100
AcDbEntity
  8
補助
  6
PHANTOM
 62
   230
 48
50.0
100
AcDbLine
 10
16307.2
 20
11409.6
 30
0.0
 11
16307.2
 21
1200.0
 31
0.0
  0
LINE
  5
10B6C
330
747D
100
AcDbEntity
  8
仕様書枠
 48
50.0
100
AcDbLine
 10
13107.2
 20
1200.0
 30
0.0
 11
16307.2
 21
1200.0
 31
0.0
  0
LINE
  5
10B6D
330
747D
100
AcDbEntity
  8
補助
  6
PHANTOM
 62
   230
 48
50.0
100
AcDbLine
 10
13107.2
 20
11409.6
 30
0.0
 11
13107.2
 21
4800.0
 31
0.0
  0
LINE
  5
10B6F
330
747D
100
AcDbEntity
  8
補助
  6
PHANTOM
 62
   230
 48
50.0
100
AcDbLine
 10
13107.2
 20
4800.0
 30
0.0
 11
16307.2
 21
4800.0
 31
0.0
  0
LINE
  5
10B72
330
747D
100
AcDbEntity
  8
文字
 62
     7
 48
50.0
100
AcDbLine
 10
13187.2
 20
400.0
 30
0.0
 11
16227.2
 21
400.0
 31
0.0
  0
TEXT
  5
10B73
330
747D
100
AcDbEntity
  8
文字
 62
     7
 48
50.0
100
AcDbText
 10
13162.9790565769
 20
895.0906074299405
 30
0.0
 40
200.0
  1
外 形 図
  7
STYLE2
100
AcDbText
  0
TEXT
  5
10B74
330
747D
100
AcDbEntity
  8
文字
 62
     7
 48
50.0
100
AcDbText
 10
13201.43669998441
 20
477.2740661031255
 30
0.0
 40
160.0
  1
機種名
  7
STYLE2
100
AcDbText
  0
TEXT
  5
10B75
330
747D
100
AcDbEntity
  8
文字
 62
     7
 48
50.0
100
AcDbText
 10
13209.4053442172
 20
228.5435242569016
 30
0.0
 40
100.0
  1
○有効開口寸法 ： 1278×1770(mm)
  7
STYLE2
100
AcDbText
  0
TEXT
  5
10B79
330
747D
100
AcDbEntity
  8
文字
 62
     7
 48
50.0
100
AcDbText
 10
14524.131837222
 20
1031.557706291228
 30
0.0
 40
100.0
  1
NO.15      <縮尺> S=1/40
  7
STYLE2
100
AcDbText
  0
LINE
  5
10B7B
330
747D
100
AcDbEntity
  8
仕様書枠
 48
50.0
100
AcDbLine
 10
13107.2
 20
800.0
 30
0.0
 11
14251.2
 21
800.0
 31
0.0
  0
LINE
  5
10B88
330
747D
100
AcDbEntity
  8
仕様書枠
  6
Continuous
 48
50.0
100
AcDbLine
 10
14251.2
 20
1200.0
 30
0.0
 11
14251.2
 21
800.0
 31
0.0
  0
LINE
  5
12765
330
747D
100
AcDbEntity
  8
Ｇ．Ｌ
100
AcDbLine
 10
4541.629972436509
 20
3000.0
 30
0.0
 11
10971.32341359948
 21
3000.0
 31
0.0
  0
LINE
  5
12766
330
747D
100
AcDbEntity
  8
部品1
100
AcDbLine
 10
9355.693956914475
 20
4940.0
 30
0.0
 11
10305.69395691447
 21
4940.0
 31
0.0
  0
LINE
  5
12767
330
747D
100
AcDbEntity
  8
部品1
100
AcDbLine
 10
9355.693956914475
 20
3150.0
 30
0.0
 11
10305.69395691447
 21
3150.0
 31
0.0
  0
LINE
  5
12768
330
747D
100
AcDbEntity
  8
部品1
100
AcDbLine
 10
9355.693956914475
 20
3100.0
 30
0.0
 11
9363.193956914475
 21
3100.0
 31
0.0
  0
LINE
  5
12773
330
747D
100
AcDbEntity
  8
部品1
100
AcDbLine
 10
9410.693956914474
 20
4940.0
 30
0.0
 11
9410.693956914474
 21
3150.0
 31
0.0
  0
LINE
  5
12777
330
747D
100
AcDbEntity
  8
部品1
100
AcDbLine
 10
9355.693956914477
 20
5031.094929881341
 30
0.0
 11
9355.693956914475
 21
3000.0
 31
0.0
  0
DIMENSION
  5
12778
330
747D
100
AcDbEntity
  8
寸法
100
AcDbDimension
  2
*D5
 10
8810.78531551722
 20
3162.000000000001
 30
0.0
 11
8710.785315517219
 21
4047.000000000001
 31
0.0
 70
    32
  1
有効開口部高サ<>
 71
     5
 42
1769.999999999999
  3
INABA_S40G
100
AcDbAlignedDimension
 13
9355.693956914475
 23
4932.0
 33
0.0
 14
9355.693956914475
 24
3162.0
 34
0.0
 50
90.0
100
AcDbRotatedDimension
1001
ACAD
1000
DSTYLE
1002
{
1070
   174
1070
     0
1070
   272
1070
     1
1070
   288
1070
     0
1070
   341
1005
0
1002
}
  0
DIMENSION
  5
12779
330
747D
100
AcDbEntity
  8
寸法
100
AcDbDimension
  2
*D4
 10
8511.943827731213
 20
3150.0
 30
0.0
 11
8411.943827731214
 21
4045.000000000001
 31
0.0
 70
    32
 71
     5
 42
1789.999999999999
  3
INABA_S40G
100
AcDbAlignedDimension
 13
9355.693956914475
 23
4940.0
 33
0.0
 14
9355.693956914475
 24
3150.0
 34
0.0
 50
90.0
100
AcDbRotatedDimension
1001
ACAD
1000
DSTYLE
1002
{
1070
   174
1070
     0
1070
   272
1070
     1
1070
   288
1070
     0
1070
   341
1005
0
1002
}
  0
DIMENSION
  5
1277A
330
747D
100
AcDbEntity
  8
寸法
100
AcDbDimension
  2
*D3
 10
8211.943827731214
 20
5175.000000000005
 30
0.0
 11
8111.932016707591
 21
4137.500000000003
 31
0.0
 70
    32
 71
     5
 42
2075.000000000004
  3
INABA_S40G
100
AcDbAlignedDimension
 13
9355.693956914475
 23
3100.0
 33
0.0
 14
9295.693956914476
 24
5175.000000000005
 34
0.0
 50
90.0
100
AcDbRotatedDimension
1001
ACAD
1000
DSTYLE
1002
{
1070
   174
1070
     0
1070
   272
1070
     1
1070
   288
1070
     0
1070
   341
1005
0
1002
}
  0
DIMENSION
  5
1277B
330
747D
100
AcDbEntity
  8
寸法
100
AcDbDimension
  2
*D1
 10
8211.943827731214
 20
3000.0
 30
0.0
 11
8211.943827731214
 21
2763.952755905513
 31
0.0
 70
   160
 71
     5
 42
100.0000000000004
  3
INABA_S40G
100
AcDbAlignedDimension
 13
9300.693956914475
 23
3100.0
 33
0.0
 14
8299.192881019342
 24
3000.0
 34
0.0
 50
90.0
100
AcDbRotatedDimension
1001
ACAD
1000
DSTYLE
1002
{
1070
   174
1070
     0
1070
   272
1070
     1
1070
   288
1070
     0
1070
   341
1005
0
1002
}
  0
DIMENSION
  5
1277C
330
747D
100
AcDbEntity
  8
寸法
100
AcDbDimension
  2
*D2
 10
8511.943827731213
 20
3100.0
 30
0.0
 11
8511.943827731213
 21
2793.952755905514
 31
0.0
 70
   160
 71
     5
 42
50.0
  3
INABA_S40G
100
AcDbAlignedDimension
 13
9355.693956914475
 23
3150.0
 33
0.0
 14
9300.693956914475
 24
3100.0
 34
0.0
 50
90.0
100
AcDbRotatedDimension
1001
ACAD
1000
DSTYLE
1002
{
1070
   174
1070
     0
1070
   272
1070
     1
1070
   288
1070
     0
1070
   341
1005
0
1002
}
  0
LINE
  5
12787
330
747D
100
AcDbEntity
  8
部品1
100
AcDbLine
 10
9830.693956914474
 20
4940.0
 30
0.0
 11
9830.693956914474
 21
3150.0
 31
0.0
  0
LINE
  5
1279B
330
747D
100
AcDbEntity
  8
部品1
100
AcDbLine
 10
10305.69395691447
 20
4995.226537216828
 30
0.0
 11
10305.69395691447
 21
3000.0
 31
0.0
  0
LINE
  5
1279C
330
747D
100
AcDbEntity
  8
部品1
100
AcDbLine
 10
10250.69395691447
 20
4940.0
 30
0.0
 11
10250.69395691447
 21
3150.0
 31
0.0
  0
DIMENSION
  5
127A4
330
747D
100
AcDbEntity
  8
寸法
100
AcDbDimension
  2
*D6
 10
11010.6211148866
 20
5120.0
 30
0.0
 11
10910.60930386297
 21
4110.000000000002
 31
0.0
 70
    32
 71
     5
 42
2020.000000000001
  3
INABA_S40G
100
AcDbAlignedDimension
 13
10305.69395691447
 23
3100.0
 33
0.0
 14
10385.69395691447
 24
5120.0
 34
0.0
 50
90.0
100
AcDbRotatedDimension
1001
ACAD
1000
DSTYLE
1002
{
1070
   174
1070
     0
1070
   272
1070
     1
1070
   288
1070
     0
1070
   341
1005
0
1002
}
  0
TEXT
  5
127AA
330
747D
100
AcDbEntity
  8
部品1
100
AcDbText
 10
4599.545247166584
 20
3013.953728039225
 30
0.0
 40
125.0
  1
▽G.L
  7
STYLE2
100
AcDbText
  0
LINE
  5
1283F
330
747D
100
AcDbEntity
  8
部品1
100
AcDbLine
 10
9555.693956914474
 20
3100.0
 30
0.0
 11
9555.693956914474
 21
3000.0
 31
0.0
  0
LINE
  5
12840
330
747D
100
AcDbEntity
  8
部品1
100
AcDbLine
 10
10105.69395691447
 20
3100.0
 30
0.0
 11
10105.69395691447
 21
3000.0
 31
0.0
  0
DIMENSION
  5
13B51
330
747D
100
AcDbEntity
  8
寸法
 48
50.0
100
AcDbDimension
  2
*D7
 10
9355.693956914477
 20
5573.657453579304
 30
0.0
 11
9830.693956914474
 21
5573.657453579304
 31
0.0
 70
   160
  1
柱外寸法<>
 71
     5
 42
949.9999999999964
  3
INABA_S40G
100
AcDbAlignedDimension
 13
10305.69395691447
 23
5121.810679611654
 33
0.0
 14
9355.693956914477
 24
5171.001618122977
 34
0.0
100
AcDbRotatedDimension
1001
ACAD
1000
DSTYLE
1002
{
1070
   174
1070
     0
1070
   272
1070
     1
1070
   288
1070
     0
1070
   341
1005
0
1002
}
  0
DIMENSION
  5
13B6D
330
747D
100
AcDbEntity
  8
寸法
 48
50.0
100
AcDbDimension
  2
*D8
 10
9295.693956914476
 20
5573.657453579304
 30
0.0
 11
8986.056161638886
 21
5573.657453579304
 31
0.0
 70
   160
 71
     5
 42
60.0
  3
INABA_S40G
100
AcDbAlignedDimension
 13
9355.693956914477
 23
5171.001618122977
 33
0.0
 14
9295.693956914476
 24
5175.000000000005
 34
0.0
100
AcDbRotatedDimension
1001
ACAD
1000
DSTYLE
1002
{
1070
   174
1070
     0
1070
   272
1070
     1
1070
   288
1070
     0
1070
   341
1005
0
1002
}
  0
DIMENSION
  5
13BBF
330
747D
100
AcDbEntity
  8
寸法
 48
50.0
100
AcDbDimension
  2
*D9
 10
9295.693956914476
 20
5783.251328000755
 30
0.0
 11
9818.812671594898
 21
5783.251328000755
 31
0.0
 70
   160
 71
     5
 42
1089.999999999996
  3
INABA_S40G
100
AcDbAlignedDimension
 13
10385.69395691447
 23
5120.0
 33
0.0
 14
9295.693956914476
 24
5175.000000000005
 34
0.0
100
AcDbRotatedDimension
1001
ACAD
1000
DSTYLE
1002
{
1070
   174
1070
     0
1070
   272
1070
     1
1070
   288
1070
     0
1070
   341
1005
0
1002
}
  0
LINE
  5
13BE8
330
747D
100
AcDbEntity
  8
部品1
100
AcDbLine
 10
5259.896575106991
 20
3100.0
 30
0.0
 11
7469.896575107009
 21
3100.0
 31
0.0
  0
LINE
  5
13BE9
330
747D
100
AcDbEntity
  8
部品1
100
AcDbLine
 10
5259.896575106992
 20
4940.0
 30
0.0
 11
7469.896575107009
 21
4940.000000000001
 31
0.0
  0
LINE
  5
13BEF
330
747D
100
AcDbEntity
  8
部品1
100
AcDbLine
 10
5319.896575106992
 20
3149.000000000001
 30
0.0
 11
6114.896575106991
 21
3149.000000000008
 31
0.0
  0
DIMENSION
  5
13BF0
330
747D
100
AcDbEntity
  8
寸法
 48
50.0
100
AcDbDimension
  2
*D10
 10
7519.896575107009
 20
5595.370389148895
 30
0.0
 11
6358.975848044829
 21
5595.370389148895
 31
0.0
 70
   160
 71
     5
 42
2310.000000000017
  3
INABA_S40G
100
AcDbAlignedDimension
 13
5209.896575106991
 23
5175.000000000006
 33
0.0
 14
7519.896575107009
 24
5175.000000000003
 34
0.0
100
AcDbRotatedDimension
  0
LINE
  5
13C1F
330
747D
100
AcDbEntity
  8
部品1
100
AcDbLine
 10
5259.896575106992
 20
5034.000000000004
 30
0.0
 11
5259.896575106991
 21
3000.0
 31
0.0
  0
LINE
  5
13CFC
330
747D
100
AcDbEntity
  8
部品1
100
AcDbLine
 10
7409.896575107009
 20
4940.0
 30
0.0
 11
7409.896575107009
 21
3142.00000000002
 31
0.0
  0
LINE
  5
13CFE
330
747D
100
AcDbEntity
  8
部品1
100
AcDbLine
 10
5319.896575106991
 20
4940.0
 30
0.0
 11
5319.896575106991
 21
3142.000000000004
 31
0.0
  0
LINE
  5
13D18
330
747D
100
AcDbEntity
  8
部品1
100
AcDbLine
 10
7469.896575107009
 20
5034.000000000004
 30
0.0
 11
7469.896575107009
 21
3000.0
 31
0.0
  0
LINE
  5
13E0C
330
747D
100
AcDbEntity
  8
部品1
100
AcDbLine
 10
7069.896575107009
 20
3100.0
 30
0.0
 11
7069.896575107009
 21
3000.0
 31
0.0
  0
LINE
  5
13E0D
330
747D
100
AcDbEntity
  8
部品1
100
AcDbLine
 10
5659.896575106991
 20
3100.0
 30
0.0
 11
5659.896575106991
 21
3000.0
 31
0.0
  0
DIMENSION
  5
141C3
330
747D
100
AcDbEntity
  8
寸法
 48
50.0
100
AcDbDimension
  2
*D11
 10
7469.896575107011
 20
5379.142231267993
 30
0.0
 11
7833.381856481247
 21
5379.142231267993
 31
0.0
 70
   160
 71
     5
 42
49.99999999999909
  3
INABA_S40G
100
AcDbAlignedDimension
 13
7519.896575107009
 23
5175.000000000003
 33
0.0
 14
7469.896575107011
 24
5175.000000000006
 34
0.0
100
AcDbRotatedDimension
  0
DIMENSION
  5
14206
330
747D
100
AcDbEntity
  8
寸法
 48
50.0
100
AcDbDimension
  2
*D12
 10
5209.896575106991
 20
5379.142231267993
 30
0.0
 11
4896.411293732746
 21
5379.142231267993
 31
0.0
 70
   160
 71
     5
 42
49.99999999999909
  3
INABA_S40G
100
AcDbAlignedDimension
 13
5259.896575106991
 23
5175.000000000006
 33
0.0
 14
5209.896575106991
 24
5175.000000000006
 34
0.0
100
AcDbRotatedDimension
1001
ACAD
1000
DSTYLE
1002
{
1002
}
  0
LINE
  5
1427D
330
747D
100
AcDbEntity
  8
部品1
100
AcDbLine
 10
6114.896575106991
 20
3156.500000000006
 30
0.0
 11
7409.896575107009
 21
3156.500000000022
 31
0.0
  0
LINE
  5
144FC
330
747D
100
AcDbEntity
  8
破線
  6
HIDDEN
 48
5.0
100
AcDbLine
 10
10313.19395691447
 20
2845.0
 30
0.0
 11
10243.19395691447
 21
2845.0
 31
0.0
  0
LINE
  5
144FD
330
747D
100
AcDbEntity
  8
破線
  6
HIDDEN
 48
5.0
100
AcDbLine
 10
10258.19395691447
 20
2995.0
 30
0.0
 11
10243.19395691447
 21
2847.3
 31
0.0
  0
LINE
  5
144FE
330
747D
100
AcDbEntity
  8
破線
  6
HIDDEN
 48
5.0
100
AcDbLine
 10
10243.19395691447
 20
2847.3
 30
0.0
 11
10243.19395691447
 21
2845.0
 31
0.0
  0
LINE
  5
144FF
330
747D
100
AcDbEntity
  8
破線
  6
HIDDEN
 48
5.0
100
AcDbLine
 10
10298.19395691447
 20
2995.0
 30
0.0
 11
10313.19395691447
 21
2847.3
 31
0.0
  0
LINE
  5
14500
330
747D
100
AcDbEntity
  8
破線
  6
HIDDEN
 48
5.0
100
AcDbLine
 10
10313.19395691447
 20
2847.3
 30
0.0
 11
10313.19395691447
 21
2845.0
 31
0.0
  0
LINE
  5
14503
330
747D
100
AcDbEntity
  8
破線
  6
HIDDEN
 48
5.0
100
AcDbLine
 10
9348.193956914473
 20
2845.0
 30
0.0
 11
9418.193956914473
 21
2845.0
 31
0.0
  0
LINE
  5
14504
330
747D
100
AcDbEntity
  8
破線
  6
HIDDEN
 48
5.0
100
AcDbLine
 10
9348.193956914473
 20
2847.3
 30
0.0
 11
9348.193956914473
 21
2845.0
 31
0.0
  0
LINE
  5
14505
330
747D
100
AcDbEntity
  8
破線
  6
HIDDEN
 48
5.0
100
AcDbLine
 10
9418.193956914477
 20
2847.3
 30
0.0
 11
9418.193956914473
 21
2845.0
 31
0.0
  0
LINE
  5
14506
330
747D
100
AcDbEntity
  8
破線
  6
HIDDEN
 48
5.0
100
AcDbLine
 10
9363.193956914477
 20
2995.000000000001
 30
0.0
 11
9348.193956914473
 21
2847.3
 31
0.0
  0
LINE
  5
14507
330
747D
100
AcDbEntity
  8
破線
  6
HIDDEN
 48
5.0
100
AcDbLine
 10
9403.193956914476
 20
2995.0
 30
0.0
 11
9418.193956914477
 21
2847.3
 31
0.0
  0
LINE
  5
14509
330
747D
100
AcDbEntity
  8
部品1
 48
50.0
100
AcDbLine
 10
9363.193956914471
 20
3140.000000000001
 30
0.0
 11
9363.193956914477
 21
3000.0
 31
0.0
  0
LINE
  5
1450A
330
747D
100
AcDbEntity
  8
部品1
 48
50.0
100
AcDbLine
 10
9403.193956914476
 20
3140.0
 30
0.0
 11
9403.193956914472
 21
3000.0
 31
0.0
  0
LINE
  5
1450B
330
747D
100
AcDbEntity
  8
部品1
100
AcDbLine
 10
9368.193956914472
 20
3145.000000000001
 30
0.0
 11
9398.193956914475
 21
3145.0
 31
0.0
  0
ARC
  5
1450C
330
747D
100
AcDbEntity
  8
部品1
 48
50.0
100
AcDbCircle
 10
9368.193956914472
 20
3140.000000000001
 30
0.0
 40
5.0
100
AcDbArc
 50
89.99999999999934
 51
180.0000000000013
  0
ARC
  5
1450D
330
747D
100
AcDbEntity
  8
部品1
 48
50.0
100
AcDbCircle
 10
9398.193956914475
 20
3140.0
 30
0.0
 40
5.0
100
AcDbArc
 50
359.9999999999986
 51
89.99999999999927
  0
LINE
  5
1450E
330
747D
100
AcDbEntity
  8
部品1
 48
50.0
100
AcDbLine
 10
10258.19395691447
 20
3140.0
 30
0.0
 11
10258.19395691447
 21
3000.0
 31
0.0
  0
LINE
  5
1450F
330
747D
100
AcDbEntity
  8
部品1
 48
50.0
100
AcDbLine
 10
10298.19395691447
 20
3140.0
 30
0.0
 11
10298.19395691447
 21
3000.0
 31
0.0
  0
LINE
  5
14510
330
747D
100
AcDbEntity
  8
部品1
100
AcDbLine
 10
10293.19395691447
 20
3145.0
 30
0.0
 11
10263.19395691447
 21
3145.0
 31
0.0
  0
ARC
  5
14511
330
747D
100
AcDbEntity
  8
部品1
 48
50.0
100
AcDbCircle
 10
10263.19395691447
 20
3140.0
 30
0.0
 40
5.0
100
AcDbArc
 50
90.00000000000074
 51
180.0000000000014
  0
ARC
  5
14512
330
747D
100
AcDbEntity
  8
部品1
 48
50.0
100
AcDbCircle
 10
10293.19395691447
 20
3140.0
 30
0.0
 40
5.0
100
AcDbArc
 50
359.9999999999986
 51
90.00000000000063
  0
LINE
  5
14513
330
747D
100
AcDbEntity
  8
破線
  6
HIDDEN
 48
5.0
100
AcDbLine
 10
10258.19395691447
 20
3000.0
 30
0.0
 11
10258.19395691447
 21
2995.0
 31
0.0
  0
LINE
  5
14514
330
747D
100
AcDbEntity
  8
破線
  6
HIDDEN
 48
5.0
100
AcDbLine
 10
10298.19395691447
 20
3000.0
 30
0.0
 11
10298.19395691447
 21
2995.0
 31
0.0
  0
LINE
  5
14515
330
747D
100
AcDbEntity
  8
破線
  6
HIDDEN
 48
5.0
100
AcDbLine
 10
9363.19395691448
 20
3000.0
 30
0.0
 11
9363.19395691448
 21
2995.000000000001
 31
0.0
  0
LINE
  5
14516
330
747D
100
AcDbEntity
  8
破線
  6
HIDDEN
 48
5.0
100
AcDbLine
 10
9403.193956914476
 20
3000.0
 30
0.0
 11
9403.193956914476
 21
2995.0
 31
0.0
  0
LINE
  5
14517
330
747D
100
AcDbEntity
  8
部品1
100
AcDbLine
 10
7474.896575107009
 20
3145.000000000001
 30
0.0
 11
7474.896575107009
 21
3000.0
 31
0.0
  0
LINE
  5
1451B
330
747D
100
AcDbEntity
  8
破線
 48
5.0
100
AcDbLine
 10
7494.896575107009
 20
2845.0
 30
0.0
 11
7474.896575107007
 21
2845.0
 31
0.0
  0
LINE
  5
1451C
330
747D
100
AcDbEntity
  8
部品1
100
AcDbLine
 10
5254.89657510699
 20
3145.000000000002
 30
0.0
 11
5254.896575106992
 21
3000.0
 31
0.0
  0
LINE
  5
1451F
330
747D
100
AcDbEntity
  8
破線
 48
5.0
100
AcDbLine
 10
5234.896575106991
 20
2845.000000000001
 30
0.0
 11
5254.896575106993
 21
2845.000000000001
 31
0.0
  0
DIMENSION
  5
14521
330
747D
100
AcDbEntity
  8
寸法
100
AcDbDimension
  2
*D13
 10
5314.896575107001
 20
8420.824056125995
 30
0.0
 11
4951.411293732729
 21
8420.824056125995
 31
0.0
 70
   160
 71
     5
 42
55.00000000003456
  3
INABA_S40G
100
AcDbAlignedDimension
 13
5259.896575106966
 23
8205.015836501013
 33
0.0
 14
5314.896575107001
 24
8205.015836501013
 34
0.0
100
AcDbRotatedDimension
1001
ACAD
1000
DSTYLE
1002
{
1002
}
  0
LINE
  5
14522
330
747D
100
AcDbEntity
  8
部品1
100
AcDbLine
 10
5734.896575106966
 20
8205.015836500981
 30
0.0
 11
5734.896575106969
 21
8177.015836500981
 31
0.0
  0
LINE
  5
14523
330
747D
100
AcDbEntity
  8
部品1
100
AcDbLine
 10
5259.896575106966
 20
8205.015836500981
 30
0.0
 11
5259.896575106995
 21
7255.01583650097
 31
0.0
  0
LINE
  5
14524
330
747D
100
AcDbEntity
  8
部品1
100
AcDbLine
 10
7414.896575107002
 20
8205.015836501109
 30
0.0
 11
7414.896575107002
 21
8177.015836501109
 31
0.0
  0
LINE
  5
14525
330
747D
100
AcDbEntity
  8
部品1
100
AcDbLine
 10
7414.896575107002
 20
8205.015836501129
 30
0.0
 11
7414.896575107002
 21
8177.015836501128
 31
0.0
  0
DIMENSION
  5
14526
330
747D
100
AcDbEntity
  8
寸法
100
AcDbDimension
  2
*D14
 10
8426.434451657092
 20
7255.0158365011
 30
0.0
 11
8426.434451657089
 21
7728.993555060016
 31
0.0
 70
   160
 71
     5
 42
950.000000000009
  3
INABA_S40G
100
AcDbAlignedDimension
 13
7469.896575107002
 23
8205.015836501109
 33
0.0
 14
7469.896575106976
 24
7255.0158365011
 34
0.0
 50
90.0
100
AcDbRotatedDimension
1001
ACAD
1000
DSTYLE
1002
{
1002
}
  0
LINE
  5
14527
330
747D
100
AcDbEntity
  8
部品1
100
AcDbLine
 10
7469.896575107002
 20
8205.015836501109
 30
0.0
 11
7469.896575106976
 21
7255.0158365011
 31
0.0
  0
LINE
  5
14528
330
747D
100
AcDbEntity
  8
部品1
100
AcDbLine
 10
6994.896575107
 20
8205.015836501129
 30
0.0
 11
6994.896575107
 21
8177.015836501128
 31
0.0
  0
LINE
  5
14529
330
747D
100
AcDbEntity
  8
部品1
100
AcDbLine
 10
6574.896575107001
 20
8205.015836501129
 30
0.0
 11
6574.896575107001
 21
8177.015836501128
 31
0.0
  0
LINE
  5
1452A
330
747D
100
AcDbEntity
  8
部品1
100
AcDbLine
 10
6154.896575107001
 20
8205.015836501129
 30
0.0
 11
6154.896575107001
 21
8177.015836501128
 31
0.0
  0
LINE
  5
1452B
330
747D
100
AcDbEntity
  8
部品1
100
AcDbLine
 10
6154.896575107001
 20
8205.015836501011
 30
0.0
 11
6154.896575107001
 21
8177.015836501011
 31
0.0
  0
LINE
  5
1452C
330
747D
100
AcDbEntity
  8
部品1
100
AcDbLine
 10
6154.896575107001
 20
8205.015836501013
 30
0.0
 11
6154.896575107001
 21
8177.015836501015
 31
0.0
  0
LINE
  5
1452D
330
747D
100
AcDbEntity
  8
部品1
100
AcDbLine
 10
5314.896575107001
 20
8205.015836501013
 30
0.0
 11
5314.896575107001
 21
8177.015836501013
 31
0.0
  0
DIMENSION
  5
1452E
330
747D
100
AcDbEntity
  8
寸法
100
AcDbDimension
  2
*D15
 10
8117.322920841413
 20
8150.015836501111
 30
0.0
 11
8117.322920841411
 21
8513.501117875348
 31
0.0
 70
   160
 71
     5
 42
54.99999999999636
  3
INABA_S40G
100
AcDbAlignedDimension
 13
7469.896575107002
 23
8205.015836501109
 33
0.0
 14
7469.896575107002
 24
8150.015836501111
 34
0.0
 50
90.0
100
AcDbRotatedDimension
1001
ACAD
1000
DSTYLE
1002
{
1002
}
  0
DIMENSION
  5
1452F
330
747D
100
AcDbEntity
  8
寸法
100
AcDbDimension
  2
*D16
 10
7796.754300969026
 20
7629.79802083222
 30
0.0
 11
7696.754300969026
 21
7854.79802083222
 31
0.0
 70
    32
 71
     5
 42
449.9999999999982
  3
INABA_S40G
100
AcDbAlignedDimension
 13
7441.396575107003
 23
8175.015836501108
 33
0.0
 14
7441.396575107003
 24
7725.015836501111
 34
0.0
 50
90.0
100
AcDbRotatedDimension
1001
ACAD
1000
DSTYLE
1002
{
1002
}
  0
DIMENSION
  5
14530
330
747D
100
AcDbEntity
  8
寸法
100
AcDbDimension
  2
*D17
 10
8117.322920841386
 20
7255.0158365011
 30
0.0
 11
8117.322920841386
 21
6877.154369596238
 31
0.0
 70
   160
 71
     5
 42
54.99999999999636
  3
INABA_S40G
100
AcDbAlignedDimension
 13
7469.896575106976
 23
7310.015836501095
 33
0.0
 14
7469.896575106976
 24
7255.0158365011
 34
0.0
 50
90.0
100
AcDbRotatedDimension
1001
ACAD
1000
DSTYLE
1002
{
1002
}
  0
DIMENSION
  5
14531
330
747D
100
AcDbEntity
  8
寸法
100
AcDbDimension
  2
*D18
 10
8117.322920841413
 20
7310.015836501095
 30
0.0
 11
8117.322920841411
 21
7730.015836501104
 31
0.0
 70
   160
  1
2X420=<>
 71
     5
 42
840.0000000000163
  3
INABA_S40G
100
AcDbAlignedDimension
 13
7469.896575107002
 23
8150.015836501111
 33
0.0
 14
7469.896575106976
 24
7310.015836501095
 34
0.0
 50
90.0
100
AcDbRotatedDimension
1001
ACAD
1000
DSTYLE
1002
{
1002
}
  0
DIMENSION
  5
14532
330
747D
100
AcDbEntity
  8
寸法
100
AcDbDimension
  2
*D19
 10
7469.896575106976
 20
6475.502465133676
 30
0.0
 11
6375.856517730952
 21
6475.502465133676
 31
0.0
 70
   160
 71
     5
 42
2209.999999999982
  3
INABA_S40G
100
AcDbAlignedDimension
 13
5259.896575106995
 23
7255.01583650097
 33
0.0
 14
7469.896575106976
 24
7255.015836501065
 34
0.0
100
AcDbRotatedDimension
1001
ACAD
1000
DSTYLE
1002
{
1002
}
  0
DIMENSION
  5
14533
330
747D
100
AcDbEntity
  8
寸法
100
AcDbDimension
  2
*D20
 10
5319.896575106994
 20
6701.819084525782
 30
0.0
 11
5947.686700450972
 21
6701.819084525782
 31
0.0
 70
   160
  1
有効開口部間口\P<>
 71
     5
 42
1278.0
  3
INABA_S40G
100
AcDbAlignedDimension
 13
6597.896575106995
 23
7255.015836501029
 33
0.0
 14
5319.896575106994
 24
7255.015836500968
 34
0.0
100
AcDbRotatedDimension
1001
ACAD
1000
DSTYLE
1002
{
1002
}
  0
LWPOLYLINE
  5
14534
330
747D
100
AcDbEntity
  8
部品1
100
AcDbPolyline
 90
        4
 70
     1
 43
0.0
 10
5983.161241992782
 20
6320.02887121833
 10
5983.161241992782
 20
6080.136549672797
 10
6746.631908221221
 20
6080.136549672797
 10
6746.631908221221
 20
6320.02887121833
  0
TEXT
  5
14535
330
747D
100
AcDbEntity
  8
部品1
100
AcDbText
 10
6073.080851821819
 20
6127.135341999806
 30
0.0
 40
135.0
  1
平面図
  7
STYLE2
100
AcDbText
  0
LINE
  5
14538
330
747D
100
AcDbEntity
  8
部品1
100
AcDbLine
 10
7441.896575106977
 20
7357.015836501102
 30
0.0
 11
5287.89657510687
 21
7357.015836500981
 31
0.0
  0
LINE
  5
1453A
330
747D
100
AcDbEntity
  8
細線
100
AcDbLine
 10
6768.896575106987
 20
7292.015836501097
 30
0.0
 11
6666.396575107008
 21
7292.015836501097
 31
0.0
  0
LINE
  5
1453B
330
747D
100
AcDbEntity
  8
細線
100
AcDbLine
 10
6753.896575106982
 20
7315.015836501098
 30
0.0
 11
6088.896575106993
 21
7315.015836501105
 31
0.0
  0
LINE
  5
1453C
330
747D
100
AcDbEntity
  8
細線
 48
50.0
100
AcDbLine
 10
7409.896575106976
 20
7271.015836501099
 30
0.0
 11
6114.896575106998
 21
7271.015836501099
 31
0.0
  0
LINE
  5
1453E
330
747D
100
AcDbEntity
  8
部品1
100
AcDbLine
 10
5288.396575107
 20
7725.015836500961
 30
0.0
 11
6561.396575107
 21
7725.015836501118
 31
0.0
  0
DIMENSION
  5
1453F
330
747D
100
AcDbEntity
  8
寸法
100
AcDbDimension
  2
*D21
 10
7382.703078813036
 20
7505.968726258132
 30
0.0
 11
6967.74363722527
 21
7505.968726258132
 31
0.0
 70
   160
 71
     5
 42
853.0000000000118
  3
INABA_S40G
100
AcDbAlignedDimension
 13
6588.396575107001
 23
7725.015836501118
 33
0.0
 14
7441.396575107012
 24
7725.015836501111
 34
0.0
100
AcDbRotatedDimension
1001
ACAD
1000
DSTYLE
1002
{
1002
}
  0
LINE
  5
14540
330
747D
100
AcDbEntity
  8
細線
 48
50.0
100
AcDbLine
 10
6561.396575107001
 20
8175.015836501115
 30
0.0
 11
5288.396575107
 21
7725.015836500961
 31
0.0
  0
LINE
  5
14541
330
747D
100
AcDbEntity
  8
細線
 48
50.0
100
AcDbLine
 10
6561.396575107
 20
7725.015836501118
 30
0.0
 11
5288.396575107002
 21
8175.015836500962
 31
0.0
  0
LINE
  5
14542
330
747D
100
AcDbEntity
  8
部品1
100
AcDbLine
 10
5288.396575107002
 20
8175.015836500962
 30
0.0
 11
6561.396575107001
 21
8175.015836501119
 31
0.0
  0
LINE
  5
14543
330
747D
100
AcDbEntity
  8
部品1
100
AcDbLine
 10
5734.896575107001
 20
8177.01583650113
 30
0.0
 11
6562.396575106999
 21
8177.015836501128
 31
0.0
  0
LINE
  5
14544
330
747D
100
AcDbEntity
  8
部品1
100
AcDbLine
 10
7469.896575106976
 20
7255.0158365011
 30
0.0
 11
5259.896575106995
 21
7255.015836500922
 31
0.0
  0
LINE
  5
14546
330
747D
100
AcDbEntity
  8
部品1
100
AcDbLine
 10
5287.896575106977
 20
7310.015836500966
 30
0.0
 11
5287.896575107001
 21
8177.015836501009
 31
0.0
  0
LINE
  5
14547
330
747D
100
AcDbEntity
  8
細線
 48
50.0
100
AcDbLine
 10
6073.896575106992
 20
7305.015836501112
 30
0.0
 11
5319.896575106991
 21
7305.015836500984
 31
0.0
  0
LINE
  5
14548
330
747D
100
AcDbEntity
  8
細線
100
AcDbLine
 10
6114.896575106994
 20
7258.015836501133
 30
0.0
 11
6014.89657510698
 21
7258.015836501119
 31
0.0
  0
LINE
  5
14549
330
747D
100
AcDbEntity
  8
細線
100
AcDbLine
 10
6099.896575106996
 20
7281.01583650113
 30
0.0
 11
5334.896575106991
 21
7281.015836501016
 31
0.0
  0
LINE
  5
1454A
330
747D
100
AcDbEntity
  8
部品1
100
AcDbLine
 10
5730.896575106995
 20
7255.01583650097
 30
0.0
 11
5679.896575106994
 21
7255.01583650097
 31
0.0
  0
LINE
  5
1454B
330
747D
100
AcDbEntity
  8
部品1
100
AcDbLine
 10
5287.896575106977
 20
7310.01583650092
 30
0.0
 11
5259.896575106992
 21
7310.01583650092
 31
0.0
  0
LINE
  5
1454C
330
747D
100
AcDbEntity
  8
部品1
100
AcDbLine
 10
5287.896575106977
 20
7310.015836500955
 30
0.0
 11
5259.896575106992
 21
7310.015836500955
 31
0.0
  0
LINE
  5
1454D
330
747D
100
AcDbEntity
  8
部品1
100
AcDbLine
 10
5287.896575106993
 20
7310.015836500982
 30
0.0
 11
5259.896575106992
 21
7310.015836500982
 31
0.0
  0
LINE
  5
1454E
330
747D
100
AcDbEntity
  8
部品1
100
AcDbLine
 10
5259.896575106992
 20
7310.01583650092
 30
0.0
 11
5259.896575106995
 21
7255.015836500922
 31
0.0
  0
LINE
  5
1454F
330
747D
100
AcDbEntity
  8
部品1
100
AcDbLine
 10
5319.896575106991
 20
7310.01583650093
 30
0.0
 11
5291.896575106991
 21
7310.01583650093
 31
0.0
  0
LINE
  5
14550
330
747D
100
AcDbEntity
  8
部品1
100
AcDbLine
 10
5310.896575106994
 20
7255.015836500932
 30
0.0
 11
5310.896575106993
 21
7262.01583650097
 31
0.0
  0
LINE
  5
14551
330
747D
100
AcDbEntity
  8
部品1
100
AcDbLine
 10
5319.896575106993
 20
7262.015836500967
 30
0.0
 11
5310.896575106993
 21
7262.01583650097
 31
0.0
  0
LINE
  5
14552
330
747D
100
AcDbEntity
  8
部品1
100
AcDbLine
 10
5319.896575106993
 20
7262.015836500967
 30
0.0
 11
5319.896575106991
 21
7310.015836500934
 31
0.0
  0
LINE
  5
14553
330
747D
100
AcDbEntity
  8
細線
100
AcDbLine
 10
5334.896575106991
 20
7288.015836501014
 30
0.0
 11
5334.896575106991
 21
7281.015836501016
 31
0.0
  0
LINE
  5
14554
330
747D
100
AcDbEntity
  8
細線
100
AcDbLine
 10
5334.896575106991
 20
7288.015836501014
 30
0.0
 11
5319.896575106992
 21
7288.015836501014
 31
0.0
  0
LINE
  5
1455D
330
747D
100
AcDbEntity
  8
部品1
100
AcDbLine
 10
5287.896575107001
 20
8177.015836501009
 30
0.0
 11
6154.896575107001
 21
8177.015836501018
 31
0.0
  0
LINE
  5
1455E
330
747D
100
AcDbEntity
  8
部品1
 48
50.0
100
AcDbLine
 10
5288.396575107002
 20
8175.015836500962
 30
0.0
 11
5288.396575107
 21
7725.015836500961
 31
0.0
  0
LINE
  5
1455F
330
747D
100
AcDbEntity
  8
部品1
100
AcDbLine
 10
5287.896575106976
 20
7730.015836500982
 30
0.0
 11
5259.896575106975
 21
7730.015836500982
 31
0.0
  0
LINE
  5
14560
330
747D
100
AcDbEntity
  8
部品1
100
AcDbLine
 10
5287.896575106969
 20
8150.015836500983
 30
0.0
 11
5259.896575106968
 21
8150.015836500983
 31
0.0
  0
LINE
  5
14562
330
747D
100
AcDbEntity
  8
部品1
100
AcDbLine
 10
7441.896575107001
 20
8177.015836501109
 30
0.0
 11
7441.896575106977
 21
7310.015836501095
 31
0.0
  0
LINE
  5
14563
330
747D
100
AcDbEntity
  8
細線
100
AcDbLine
 10
7407.896575106976
 20
7328.015836501096
 30
0.0
 11
7348.896575106976
 21
7328.015836501099
 31
0.0
  0
LINE
  5
14564
330
747D
100
AcDbEntity
  8
細線
 48
50.0
100
AcDbLine
 10
7409.896575106976
 20
7305.015836501103
 30
0.0
 11
6768.89657510699
 21
7305.015836501104
 31
0.0
  0
LINE
  5
14565
330
747D
100
AcDbEntity
  8
細線
100
AcDbLine
 10
7441.896575106977
 20
7356.015836501093
 30
0.0
 11
6727.896575106988
 21
7356.015836501102
 31
0.0
  0
LINE
  5
14566
330
747D
100
AcDbEntity
  8
細線
100
AcDbLine
 10
6747.896575106988
 20
7320.015836501096
 30
0.0
 11
6747.896575106988
 21
7328.015836501096
 31
0.0
  0
LINE
  5
14567
330
747D
100
AcDbEntity
  8
細線
100
AcDbLine
 10
6747.896575106988
 20
7320.015836501096
 30
0.0
 11
6727.896575106988
 21
7320.015836501096
 31
0.0
  0
LINE
  5
14568
330
747D
100
AcDbEntity
  8
細線
100
AcDbLine
 10
6727.896575106988
 20
7320.015836501096
 30
0.0
 11
6727.896575106988
 21
7356.015836501102
 31
0.0
  0
LINE
  5
14569
330
747D
100
AcDbEntity
  8
細線
100
AcDbLine
 10
6768.896575106987
 20
7292.015836501097
 30
0.0
 11
6768.896575106994
 21
7322.015836501094
 31
0.0
  0
LINE
  5
1456A
330
747D
100
AcDbEntity
  8
部品1
100
AcDbLine
 10
7469.896575106976
 20
7255.0158365011
 30
0.0
 11
7418.896575106976
 21
7255.0158365011
 31
0.0
  0
LINE
  5
1456B
330
747D
100
AcDbEntity
  8
部品1
100
AcDbLine
 10
7469.896575106978
 20
7310.015836501095
 30
0.0
 11
7469.896575106976
 21
7255.0158365011
 31
0.0
  0
LINE
  5
1456C
330
747D
100
AcDbEntity
  8
部品1
100
AcDbLine
 10
7441.896575106977
 20
7310.015836501095
 30
0.0
 11
7469.896575106976
 21
7310.015836501095
 31
0.0
  0
LINE
  5
1456E
330
747D
100
AcDbEntity
  8
部品1
100
AcDbLine
 10
7409.896575106976
 20
7310.015836501095
 30
0.0
 11
7441.896575106977
 21
7310.015836501095
 31
0.0
  0
LINE
  5
1456F
330
747D
100
AcDbEntity
  8
細線
100
AcDbLine
 10
7407.896575106976
 20
7310.015836501095
 30
0.0
 11
7407.896575106976
 21
7328.015836501096
 31
0.0
  0
LINE
  5
14570
330
747D
100
AcDbEntity
  8
部品1
100
AcDbLine
 10
7418.896575106976
 20
7255.015836501097
 30
0.0
 11
7418.896575106976
 21
7262.015836501099
 31
0.0
  0
LINE
  5
14571
330
747D
100
AcDbEntity
  8
部品1
100
AcDbLine
 10
7418.896575106976
 20
7262.015836501099
 30
0.0
 11
7409.896575106976
 21
7262.015836501099
 31
0.0
  0
LINE
  5
14572
330
747D
100
AcDbEntity
  8
部品1
100
AcDbLine
 10
7409.896575106976
 20
7262.015836501099
 30
0.0
 11
7409.896575106976
 21
7310.015836501095
 31
0.0
  0
LINE
  5
14573
330
747D
100
AcDbEntity
  8
部品1
100
AcDbLine
 10
7441.896575107008
 20
7310.015836501112
 30
0.0
 11
7469.896575107009
 21
7310.015836501112
 31
0.0
  0
LINE
  5
14575
330
747D
100
AcDbEntity
  8
部品1
100
AcDbLine
 10
6588.396575107001
 20
7725.015836501118
 30
0.0
 11
7441.396575107003
 21
7725.015836501111
 31
0.0
  0
LINE
  5
14576
330
747D
100
AcDbEntity
  8
細線
 48
50.0
100
AcDbLine
 10
7441.396575107003
 20
8175.015836501108
 30
0.0
 11
6588.396575107001
 21
7725.015836501118
 31
0.0
  0
LINE
  5
14577
330
747D
100
AcDbEntity
  8
細線
 48
50.0
100
AcDbLine
 10
7441.396575107003
 20
7725.015836501111
 30
0.0
 11
6588.396575107001
 21
8175.015836501112
 31
0.0
  0
LINE
  5
14578
330
747D
100
AcDbEntity
  8
部品1
100
AcDbLine
 10
6588.396575107001
 20
8175.015836501115
 30
0.0
 11
7441.396575107003
 21
8175.015836501108
 31
0.0
  0
LINE
  5
14579
330
747D
100
AcDbEntity
  8
部品1
100
AcDbLine
 10
6587.396575107002
 20
8177.015836501126
 30
0.0
 11
7441.896575107001
 21
8177.015836501109
 31
0.0
  0
LINE
  5
1457A
330
747D
100
AcDbEntity
  8
部品1
 48
50.0
100
AcDbLine
 10
6588.396575107001
 20
8175.015836501112
 30
0.0
 11
6588.396575107001
 21
7725.015836501118
 31
0.0
  0
LINE
  5
1457B
330
747D
100
AcDbEntity
  8
部品1
 48
50.0
100
AcDbLine
 10
6561.396575107001
 20
8175.015836501115
 30
0.0
 11
6561.396575107001
 21
7725.015836501118
 31
0.0
  0
LINE
  5
1457C
330
747D
100
AcDbEntity
  8
部品1
 48
50.0
100
AcDbLine
 10
6587.396575107002
 20
8177.015836501118
 30
0.0
 11
6587.396575107002
 21
7725.015836501118
 31
0.0
  0
LINE
  5
1457D
330
747D
100
AcDbEntity
  8
部品1
 48
50.0
100
AcDbLine
 10
6562.396575107
 20
8177.015836501123
 30
0.0
 11
6562.396575107001
 21
7725.015836501118
 31
0.0
  0
LINE
  5
1457E
330
747D
100
AcDbEntity
  8
部品1
100
AcDbLine
 10
6562.396575107001
 20
7725.015836501118
 30
0.0
 11
6587.396575107002
 21
7725.015836501118
 31
0.0
  0
LINE
  5
1457F
330
747D
100
AcDbEntity
  8
部品1
100
AcDbLine
 10
6562.396575107001
 20
8169.015836501113
 30
0.0
 11
6587.396575107002
 21
8169.015836501115
 31
0.0
  0
LINE
  5
14580
330
747D
100
AcDbEntity
  8
部品1
100
AcDbLine
 10
6603.896575107
 20
8195.015836501116
 30
0.0
 11
6609.896575107001
 21
8195.015836501116
 31
0.0
  0
LINE
  5
14581
330
747D
100
AcDbEntity
  8
部品1
100
AcDbLine
 10
6609.896575107001
 20
8195.015836501116
 30
0.0
 11
6609.896575107001
 21
8177.015836501116
 31
0.0
  0
LINE
  5
14582
330
747D
100
AcDbEntity
  8
部品1
100
AcDbLine
 10
6539.896575107
 20
8195.015836501116
 30
0.0
 11
6545.896575107001
 21
8195.015836501116
 31
0.0
  0
LINE
  5
14583
330
747D
100
AcDbEntity
  8
部品1
100
AcDbLine
 10
6539.896575107
 20
8195.015836501116
 30
0.0
 11
6539.896575107
 21
8177.015836501116
 31
0.0
  0
LINE
  5
14584
330
747D
100
AcDbEntity
  8
部品1
100
AcDbLine
 10
7441.396575107003
 20
8175.015836501108
 30
0.0
 11
7441.396575107003
 21
7725.015836501111
 31
0.0
  0
LINE
  5
14585
330
747D
100
AcDbEntity
  8
部品1
100
AcDbLine
 10
7441.896575107001
 20
7730.015836501113
 30
0.0
 11
7469.896575107002
 21
7730.015836501113
 31
0.0
  0
LINE
  5
14586
330
747D
100
AcDbEntity
  8
部品1
100
AcDbLine
 10
7441.896575107001
 20
8150.015836501111
 30
0.0
 11
7469.896575107002
 21
8150.015836501111
 31
0.0
  0
DIMENSION
  5
14587
330
747D
100
AcDbEntity
  8
寸法
100
AcDbDimension
  2
*D22
 10
7469.896575107002
 20
8420.824056126091
 30
0.0
 11
7778.381856481241
 21
8420.824056126091
 31
0.0
 70
   160
 71
     5
 42
55.0
  3
INABA_S40G
100
AcDbAlignedDimension
 13
7414.896575107002
 23
8205.015836501109
 33
0.0
 14
7469.896575107002
 24
8205.015836501109
 34
0.0
100
AcDbRotatedDimension
1001
ACAD
1000
DSTYLE
1002
{
1002
}
  0
LINE
  5
14588
330
747D
100
AcDbEntity
  8
部品1
100
AcDbLine
 10
5259.896575106966
 20
8205.01583650099
 30
0.0
 11
7469.896575107002
 21
8205.015836501109
 31
0.0
  0
DIMENSION
  5
14589
330
747D
100
AcDbEntity
  8
寸法
100
AcDbDimension
  2
*D23
 10
7414.896575107002
 20
8420.824056125995
 30
0.0
 11
6356.769737990322
 21
8420.824056125995
 31
0.0
 70
   160
  1
5X420=<>
 71
     5
 42
2100.000000000001
  3
INABA_S40G
100
AcDbAlignedDimension
 13
5314.896575107001
 23
8205.015836501013
 33
0.0
 14
7414.896575107002
 24
8205.015836501109
 34
0.0
100
AcDbRotatedDimension
1001
ACAD
1000
DSTYLE
1002
{
1002
}
  0
LINE
  5
146B0
330
747D
100
AcDbEntity
  8
部品1
100
AcDbLine
 10
10298.19395691447
 20
3100.0
 30
0.0
 11
10305.69395691447
 21
3100.0
 31
0.0
  0
LINE
  5
146B1
330
747D
100
AcDbEntity
  8
部品1
100
AcDbLine
 10
9403.193956914476
 20
3100.0
 30
0.0
 11
10258.19395691447
 21
3100.0
 31
0.0
  0
LINE
  5
146B2
330
747D
100
AcDbEntity
  8
破線
 48
5.0
100
AcDbLine
 10
7474.896575107009
 20
3000.0
 30
0.0
 11
7474.896575107009
 21
2845.0
 31
0.0
  0
LINE
  5
146B3
330
747D
100
AcDbEntity
  8
破線
 48
5.0
100
AcDbLine
 10
5254.896575106992
 20
3000.0
 30
0.0
 11
5254.89657510699
 21
2845.000000000001
 31
0.0
  0
DIMENSION
  5
146E8
330
747D
100
AcDbEntity
  8
寸法
 48
50.0
100
AcDbDimension
  2
*D24
 10
5259.896575106991
 20
5379.142231267993
 30
0.0
 11
6397.940818449586
 21
5379.142231267993
 31
0.0
 70
   160
  1
柱外寸法<>
 71
     5
 42
2210.000000000019
  3
INABA_S40G
100
AcDbAlignedDimension
 13
7469.896575107011
 23
5175.000000000006
 33
0.0
 14
5259.896575106991
 24
5175.000000000006
 34
0.0
100
AcDbRotatedDimension
  0
LINE
  5
1483A
330
747D
100
AcDbEntity
  8
寸法
 48
50.0
100
AcDbLine
 10
6043.563058493196
 20
7185.34343411455
 30
0.0
 11
6262.714998668921
 21
7185.34343411455
 31
0.0
  0
LINE
  5
1483B
330
747D
100
AcDbEntity
  8
寸法
 48
50.0
100
AcDbLine
 10
6262.714998668921
 20
7185.34343411455
 30
0.0
 11
6173.430780073499
 21
7209.267068384036
 31
0.0
  0
LINE
  5
1483C
330
747D
100
AcDbEntity
  8
寸法
 48
50.0
100
AcDbLine
 10
6173.430780073499
 20
7209.267068384036
 30
0.0
 11
6173.430780073499
 21
7155.603433802247
 31
0.0
  0
LINE
  5
1483D
330
747D
100
AcDbEntity
  8
寸法
 48
50.0
100
AcDbLine
 10
5691.69357115194
 20
7152.121477629214
 30
0.0
 11
5743.099579062044
 21
7152.121477629214
 31
0.0
  0
LINE
  5
1483E
330
747D
100
AcDbEntity
  8
寸法
 48
50.0
100
AcDbLine
 10
5743.099579062044
 20
7152.121477629214
 30
0.0
 11
5743.099579062044
 21
7183.43163628138
 31
0.0
  0
LINE
  5
1483F
330
747D
100
AcDbEntity
  8
寸法
 48
50.0
100
AcDbLine
 10
5743.099579062044
 20
7183.43163628138
 30
0.0
 11
5772.860911053468
 21
7183.43163628138
 31
0.0
  0
LINE
  5
14840
330
747D
100
AcDbEntity
  8
寸法
 48
50.0
100
AcDbLine
 10
5772.860911053468
 20
7183.43163628138
 30
0.0
 11
5717.396575106993
 21
7221.011087209991
 31
0.0
  0
LINE
  5
14841
330
747D
100
AcDbEntity
  8
寸法
 48
50.0
100
AcDbLine
 10
5661.932239160517
 20
7183.43163628138
 30
0.0
 11
5717.396575106993
 21
7221.011087209991
 31
0.0
  0
LINE
  5
14842
330
747D
100
AcDbEntity
  8
寸法
 48
50.0
100
AcDbLine
 10
5691.69357115194
 20
7183.43163628138
 30
0.0
 11
5661.932239160517
 21
7183.43163628138
 31
0.0
  0
LINE
  5
14843
330
747D
100
AcDbEntity
  8
寸法
 48
50.0
100
AcDbLine
 10
5691.69357115194
 20
7152.121477629214
 30
0.0
 11
5691.69357115194
 21
7183.43163628138
 31
0.0
  0
LINE
  5
14844
330
747D
100
AcDbEntity
  8
寸法
 48
50.0
100
AcDbLine
 10
5743.099579062044
 20
7152.121477629214
 30
0.0
 11
5691.69357115194
 21
7152.121477629214
 31
0.0
  0
TEXT
  5
149A1
330
747D
100
AcDbEntity
  8
部品1
100
AcDbText
 10
6073.686645730737
 20
1927.790927806517
 30
0.0
 40
135.0
  1
正面図
  7
STYLE2
100
AcDbText
  0
LWPOLYLINE
  5
149A2
330
747D
100
AcDbEntity
  8
部品1
100
AcDbPolyline
 90
        4
 70
     1
 43
0.0
 10
5983.161241992782
 20
2120.684457025041
 10
5983.161241992782
 20
1880.792135479508
 10
6746.631908221221
 20
1880.792135479508
 10
6746.631908221221
 20
2120.684457025041
  0
TEXT
  5
149A3
330
747D
100
AcDbEntity
  8
部品1
100
AcDbText
 10
9548.404725223861
 20
1927.790927806517
 30
0.0
 40
135.0
  1
側面図
  7
STYLE2
100
AcDbText
  0
LWPOLYLINE
  5
149A4
330
747D
100
AcDbEntity
  8
部品1
100
AcDbPolyline
 90
        4
 70
     1
 43
0.0
 10
9458.958623800254
 20
2120.684457025041
 10
9458.958623800254
 20
1880.792135479508
 10
10222.42929002869
 20
1880.792135479508
 10
10222.42929002869
 20
2120.684457025041
  0
LINE
  5
149E3
330
747D
100
AcDbEntity
  8
部品1
100
AcDbLine
 10
5259.896575106991
 20
3142.0
 30
0.0
 11
7469.896575107009
 21
3142.000000000021
 31
0.0
  0
LINE
  5
14A32
330
747D
100
AcDbEntity
  8
細線
100
AcDbLine
 10
6768.896575106985
 20
7322.015836501096
 30
0.0
 11
6753.896575106984
 21
7322.015836501091
 31
0.0
  0
LINE
  5
14A33
330
747D
100
AcDbEntity
  8
細線
100
AcDbLine
 10
6753.896575106982
 20
7315.015836501098
 30
0.0
 11
6753.896575106984
 21
7322.015836501091
 31
0.0
  0
LINE
  5
14A58
330
747D
100
AcDbEntity
  8
細線
100
AcDbLine
 10
6753.896575106988
 20
7328.015836501096
 30
0.0
 11
6747.896575106988
 21
7328.015836501096
 31
0.0
  0
LINE
  5
14AA3
330
747D
100
AcDbEntity
  8
細線
 48
50.0
100
AcDbLine
 10
7407.896575106976
 20
7310.015836501095
 30
0.0
 11
7409.896575106976
 21
7310.015836501095
 31
0.0
  0
LINE
  5
14AC7
330
747D
100
AcDbEntity
  8
破線
 48
10.0
100
AcDbLine
 10
6044.396575106999
 20
7385.515836501025
 30
0.0
 11
6044.396575107001
 21
7725.015836501086
 31
0.0
  0
LINE
  5
14AC8
330
747D
100
AcDbEntity
  8
破線
 48
10.0
100
AcDbLine
 10
5994.396575107002
 20
7385.515836501021
 30
0.0
 11
5994.396575107
 21
7725.015836501086
 31
0.0
  0
LINE
  5
14ADA
330
747D
100
AcDbEntity
  8
細線
100
AcDbLine
 10
6986.896575106979
 20
7356.015836501097
 30
0.0
 11
6986.896575106978
 21
7328.0158365011
 31
0.0
  0
LINE
  5
14ADC
330
747D
100
AcDbEntity
  8
細線
100
AcDbLine
 10
6971.896575106979
 20
7356.015836501097
 30
0.0
 11
6956.896575106977
 21
7328.0158365011
 31
0.0
  0
LINE
  5
14AE0
330
747D
100
AcDbEntity
  8
細線
100
AcDbLine
 10
6451.396575107016
 20
7292.015836501175
 30
0.0
 11
6443.89657510702
 21
7315.015836501103
 31
0.0
  0
LINE
  5
14AE1
330
747D
100
AcDbEntity
  8
細線
100
AcDbLine
 10
6391.396575107016
 20
7292.015836501184
 30
0.0
 11
6398.896575107021
 21
7315.015836501103
 31
0.0
  0
LINE
  5
14AE2
330
747D
100
AcDbEntity
  8
細線
100
AcDbLine
 10
5739.896575106912
 20
7258.015836501198
 30
0.0
 11
5747.396575106917
 21
7281.015836501116
 31
0.0
  0
LINE
  5
14AE3
330
747D
100
AcDbEntity
  8
細線
100
AcDbLine
 10
5799.896575106912
 20
7258.015836501188
 30
0.0
 11
5792.396575106916
 21
7281.015836501116
 31
0.0
  0
LINE
  5
14C0C
330
747D
100
AcDbEntity
  8
部品1
100
AcDbLine
 10
7413.396575106979
 20
7385.515836501101
 30
0.0
 11
5316.396575106873
 21
7385.515836500982
 31
0.0
  0
LINE
  5
14C0D
330
747D
100
AcDbEntity
  8
破線
 48
10.0
100
AcDbLine
 10
7389.89657510698
 20
7409.015836501101
 30
0.0
 11
6735.396575106999
 21
7409.015836501064
 31
0.0
  0
LINE
  5
14C0E
330
747D
100
AcDbEntity
  8
破線
 48
10.0
100
AcDbLine
 10
6685.396575106999
 20
7409.015836501059
 30
0.0
 11
6044.396575106999
 21
7409.015836501023
 31
0.0
  0
LINE
  5
14C1E
330
747D
100
AcDbEntity
  8
部品1
100
AcDbLine
 10
7413.396575106992
 20
7725.015836501111
 30
0.0
 11
7413.396575106978
 21
7385.515836501103
 31
0.0
  0
LINE
  5
14C1F
330
747D
100
AcDbEntity
  8
破線
 48
10.0
100
AcDbLine
 10
7389.896575106995
 20
7725.015836501111
 30
0.0
 11
7389.896575106982
 21
7409.015836501101
 31
0.0
  0
LINE
  5
14C20
330
747D
100
AcDbEntity
  8
部品1
 48
50.0
100
AcDbLine
 10
7413.396575106979
 20
7385.515836501101
 30
0.0
 11
7441.896575106977
 21
7357.015836501102
 31
0.0
  0
LINE
  5
14C31
330
747D
100
AcDbEntity
  8
部品1
100
AcDbLine
 10
5316.396575106978
 20
7725.015836501109
 30
0.0
 11
5316.396575106991
 21
7385.515836501099
 31
0.0
  0
LINE
  5
14C32
330
747D
100
AcDbEntity
  8
破線
 48
10.0
100
AcDbLine
 10
5339.896575106976
 20
7725.015836501111
 30
0.0
 11
5339.89657510699
 21
7409.015836500981
 31
0.0
  0
LINE
  5
14C33
330
747D
100
AcDbEntity
  8
部品1
 48
50.0
100
AcDbLine
 10
5316.396575106991
 20
7385.515836501101
 30
0.0
 11
5287.896575106993
 21
7357.015836501102
 31
0.0
  0
LINE
  5
14C5B
330
747D
100
AcDbEntity
  8
細線
100
AcDbLine
 10
5319.896575106993
 20
7262.015836500967
 30
0.0
 11
5319.896575106993
 21
7258.015836501016
 31
0.0
  0
DIMENSION
  5
14D62
330
747D
100
AcDbEntity
  8
寸法
100
AcDbDimension
  2
*D25
 10
6502.177919925197
 20
7504.008806606558
 30
0.0
 11
5765.319254562259
 21
7504.008806606558
 31
0.0
 70
   160
 71
     5
 42
1273.000000000015
  3
INABA_S40G
100
AcDbAlignedDimension
 13
5288.396575107
 23
7725.015836500961
 33
0.0
 14
6561.396575107014
 24
7725.015836501007
 34
0.0
100
AcDbRotatedDimension
1001
ACAD
1000
DSTYLE
1002
{
1002
}
  0
LINE
  5
14D86
330
747D
100
AcDbEntity
  8
細線
100
AcDbLine
 10
5319.896575106991
 20
4932.000000000003
 30
0.0
 11
7409.896575107008
 21
4932.0
 31
0.0
  0
TEXT
  5
14DEF
330
747D
100
AcDbEntity
  8
文字
 62
     7
 48
50.0
100
AcDbText
 10
14641.2525855784
 20
871.1744590657925
 30
0.0
 40
100.0
  1
～一般型・多雪地型～
  7
STYLE2
100
AcDbText
  0
TEXT
  5
15A0C
330
747D
100
AcDbEntity
  8
文字
 62
     7
 48
50.0
100
AcDbText
 10
13583.11819016569
 20
8890.013745883727
 30
0.0
 40
100.0
  1
アンカープレート
  7
STYLE1
100
AcDbText
  0
TEXT
  5
15A0D
330
747D
100
AcDbEntity
  8
文字
 62
     7
 48
50.0
100
AcDbText
 10
15022.63965474515
 20
8890.013745883722
 30
0.0
 40
100.0
  1
F12            2.3
  7
STYLE1
100
AcDbText
  0
LINE
  5
15A0E
330
747D
100
AcDbEntity
  8
仕様書枠
 48
50.0
100
AcDbLine
 10
16307.19999999999
 20
10049.6
 30
0.0
 11
13127.19999999999
 21
10049.6
 31
0.0
  0
LINE
  5
15A0F
330
747D
100
AcDbEntity
  8
仕様書枠
 48
50.0
100
AcDbLine
 10
16307.19999999999
 20
11409.6
 30
0.0
 11
13127.2
 21
11409.6
 31
0.0
  0
LINE
  5
15A10
330
747D
100
AcDbEntity
  8
仕様書枠
 48
50.0
100
AcDbLine
 10
16307.19999999999
 20
8519.600000000002
 30
0.0
 11
16307.2
 21
11409.6
 31
0.0
  0
LINE
  5
15A11
330
747D
100
AcDbEntity
  8
仕様書枠
 48
50.0
100
AcDbLine
 10
14785.2
 20
11409.59999999999
 30
0.0
 11
14785.2
 21
8859.600000000002
 31
0.0
  0
LINE
  5
15A12
330
747D
100
AcDbEntity
  8
仕様書枠
 48
50.0
100
AcDbLine
 10
13490.2
 20
11409.6
 30
0.0
 11
13490.20000000001
 21
8859.600000000002
 31
0.0
  0
LINE
  5
15A13
330
747D
100
AcDbEntity
  8
仕様書枠
 48
50.0
100
AcDbLine
 10
16307.19999999999
 20
11239.6
 30
0.0
 11
13127.2
 21
11239.6
 31
0.0
  0
LINE
  5
15A14
330
747D
100
AcDbEntity
  8
仕様書枠
 48
50.0
100
AcDbLine
 10
16307.19999999999
 20
10899.6
 30
0.0
 11
13127.2
 21
10899.6
 31
0.0
  0
LINE
  5
15A15
330
747D
100
AcDbEntity
  8
仕様書枠
 48
50.0
100
AcDbLine
 10
16307.19999999999
 20
11069.6
 30
0.0
 11
13127.2
 21
11069.6
 31
0.0
  0
LINE
  5
15A16
330
747D
100
AcDbEntity
  8
仕様書枠
 48
50.0
100
AcDbLine
 10
16307.19999999999
 20
10559.6
 30
0.0
 11
13127.19999999999
 21
10559.6
 31
0.0
  0
LINE
  5
15A17
330
747D
100
AcDbEntity
  8
仕様書枠
 48
50.0
100
AcDbLine
 10
16307.19999999999
 20
10389.6
 30
0.0
 11
13127.19999999999
 21
10389.6
 31
0.0
  0
LINE
  5
15A18
330
747D
100
AcDbEntity
  8
仕様書枠
 48
50.0
100
AcDbLine
 10
16307.19999999999
 20
10729.6
 30
0.0
 11
13127.19999999999
 21
10729.6
 31
0.0
  0
TEXT
  5
15A19
330
747D
100
AcDbEntity
  8
文字
 62
     7
 48
50.0
100
AcDbText
 10
13197.42518560407
 20
11270.01374588372
 30
0.0
 40
100.0
  1
品番
  7
STYLE1
100
AcDbText
  0
TEXT
  5
15A1A
330
747D
100
AcDbEntity
  8
文字
 62
     7
 48
50.0
100
AcDbText
 10
13271.19032244792
 20
11100.01374588373
 30
0.0
 40
100.0
  1
1
  7
STYLE1
100
AcDbText
  0
TEXT
  5
15A1B
330
747D
100
AcDbEntity
  8
文字
 62
     7
 48
50.0
100
AcDbText
 10
13271.19032244792
 20
10930.01374588373
 30
0.0
 40
100.0
  1
2
  7
STYLE1
100
AcDbText
  0
TEXT
  5
15A1C
330
747D
100
AcDbEntity
  8
文字
 62
     7
 48
50.0
100
AcDbText
 10
13271.19032244792
 20
10590.01374588373
 30
0.0
 40
100.0
  1
4
  7
STYLE1
100
AcDbText
  0
TEXT
  5
15A1D
330
747D
100
AcDbEntity
  8
文字
 62
     7
 48
50.0
100
AcDbText
 10
13271.19032244792
 20
10760.01374588373
 30
0.0
 40
100.0
  1
3
  7
STYLE1
100
AcDbText
  0
TEXT
  5
15A1E
330
747D
100
AcDbEntity
  8
文字
 62
     7
 48
50.0
100
AcDbText
 10
13732.03840939434
 20
11270.01374588372
 30
0.0
 40
100.0
  1
部　　品　　名
  7
STYLE1
100
AcDbText
  0
TEXT
  5
15A1F
330
747D
100
AcDbEntity
  8
文字
 62
     7
 48
50.0
100
AcDbText
 10
14859.79774614482
 20
11270.01374588372
 30
0.0
 40
100.0
  1
材料（材質）　　単位mm
  7
STYLE1
100
AcDbText
  0
TEXT
  5
15A20
330
747D
100
AcDbEntity
  8
文字
 62
     7
 48
50.0
100
AcDbText
 10
13583.11819016569
 20
11100.01374588373
 30
0.0
 40
100.0
  1
土台枠
  7
STYLE1
100
AcDbText
  0
TEXT
  5
15A21
330
747D
100
AcDbEntity
  8
文字
 62
     7
 48
50.0
100
AcDbText
 10
13583.1181901657
 20
10760.01374588372
 30
0.0
 40
100.0
  1
柱
  7
STYLE1
100
AcDbText
  0
TEXT
  5
15A22
330
747D
100
AcDbEntity
  8
文字
 62
     7
 48
50.0
100
AcDbText
 10
13583.11819016569
 20
10420.01374588372
 30
0.0
 40
100.0
  1
鴨居
  7
STYLE1
100
AcDbText
  0
TEXT
  5
15A23
330
747D
100
AcDbEntity
  8
文字
 62
     7
 48
50.0
100
AcDbText
 10
13583.11819016569
 20
10250.01374588373
 30
0.0
 40
100.0
  1
桁後
  7
STYLE1
100
AcDbText
  0
TEXT
  5
15A24
330
747D
100
AcDbEntity
  8
文字
 62
     7
 48
50.0
100
AcDbText
 10
13271.19032244792
 20
10420.01374588372
 30
0.0
 40
100.0
  1
5
  7
STYLE1
100
AcDbText
  0
TEXT
  5
15A25
330
747D
100
AcDbEntity
  8
文字
 62
     7
 48
50.0
100
AcDbText
 10
13583.11819016569
 20
10080.01374588372
 30
0.0
 40
100.0
  1
妻板左右
  7
STYLE1
100
AcDbText
  0
TEXT
  5
15A27
330
747D
100
AcDbEntity
  8
文字
 62
     7
 48
50.0
100
AcDbText
 10
13248.77747366448
 20
9570.013745883727
 30
0.0
 40
100.0
  1
10
  7
STYLE1
100
AcDbText
  0
TEXT
  5
15A28
330
747D
100
AcDbEntity
  8
文字
 62
     7
 48
50.0
100
AcDbText
 10
13583.11819016569
 20
9570.013745883729
 30
0.0
 40
100.0
  1
壁パネル
  7
STYLE1
100
AcDbText
  0
TEXT
  5
15A29
330
747D
100
AcDbEntity
  8
文字
 62
     7
 48
50.0
100
AcDbText
 10
13583.11819016569
 20
9740.013745883729
 30
0.0
 40
100.0
  1
屋根パネル
  7
STYLE1
100
AcDbText
  0
TEXT
  5
15A2B
330
747D
100
AcDbEntity
  8
文字
 62
     7
 48
50.0
100
AcDbText
 10
13583.11819016569
 20
9910.013745883727
 30
0.0
 40
100.0
  1
鼻隠シ前後
  7
STYLE1
100
AcDbText
  0
TEXT
  5
15A2C
330
747D
100
AcDbEntity
  8
文字
 62
     7
 48
50.0
100
AcDbText
 10
13271.19032244792
 20
9910.01374588373
 30
0.0
 40
100.0
  1
8
  7
STYLE1
100
AcDbText
  0
TEXT
  5
15A2D
330
747D
100
AcDbEntity
  8
文字
 62
     7
 48
50.0
100
AcDbText
 10
13271.19032244792
 20
9740.013745883729
 30
0.0
 40
100.0
  1
9
  7
STYLE1
100
AcDbText
  0
TEXT
  5
15A2E
330
747D
100
AcDbEntity
  8
文字
 62
     7
 48
50.0
100
AcDbText
 10
13271.19032244792
 20
10080.01374588373
 30
0.0
 40
100.0
  1
7
  7
STYLE1
100
AcDbText
  0
TEXT
  5
15A2F
330
747D
100
AcDbEntity
  8
文字
 62
     7
 48
50.0
100
AcDbText
 10
13271.19032244792
 20
10250.01374588373
 30
0.0
 40
100.0
  1
6
  7
STYLE1
100
AcDbText
  0
LINE
  5
15A30
330
747D
100
AcDbEntity
  8
仕様書枠
 48
50.0
100
AcDbLine
 10
16307.19999999999
 20
9709.6
 30
0.0
 11
13127.19999999999
 21
9709.600000000001
 31
0.0
  0
LINE
  5
15A31
330
747D
100
AcDbEntity
  8
仕様書枠
 48
50.0
100
AcDbLine
 10
16307.19999999999
 20
9369.599999999998
 30
0.0
 11
13127.19999999999
 21
9369.600000000001
 31
0.0
  0
LINE
  5
15A32
330
747D
100
AcDbEntity
  8
仕様書枠
 48
50.0
100
AcDbLine
 10
16307.19999999999
 20
9539.599999999998
 30
0.0
 11
13127.19999999999
 21
9539.6
 31
0.0
  0
LINE
  5
15A33
330
747D
100
AcDbEntity
  8
仕様書枠
 48
50.0
100
AcDbLine
 10
16307.19999999999
 20
10219.6
 30
0.0
 11
13127.2
 21
10219.6
 31
0.0
  0
LINE
  5
15A34
330
747D
100
AcDbEntity
  8
仕様書枠
 48
50.0
100
AcDbLine
 10
16307.19999999999
 20
9879.599999999999
 30
0.0
 11
13127.19999999999
 21
9879.600000000001
 31
0.0
  0
TEXT
  5
15A35
330
747D
100
AcDbEntity
  8
文字
 62
     7
 48
50.0
100
AcDbText
 10
13248.77747366448
 20
9400.013745883727
 30
0.0
 40
100.0
  1
11
  7
STYLE1
100
AcDbText
  0
LINE
  5
15A37
330
747D
100
AcDbEntity
  8
仕様書枠
 48
50.0
100
AcDbLine
 10
16307.19999999999
 20
9199.599999999998
 30
0.0
 11
13127.19999999999
 21
9199.600000000001
 31
0.0
  0
LINE
  5
15A38
330
747D
100
AcDbEntity
  8
仕様書枠
 48
50.0
100
AcDbLine
 10
16307.19999999999
 20
8859.6
 30
0.0
 11
13127.19999999999
 21
8859.600000000002
 31
0.0
  0
TEXT
  5
15A3A
330
747D
100
AcDbEntity
  8
文字
 62
     7
 48
50.0
100
AcDbText
 10
13248.77747366448
 20
9060.013745883729
 30
0.0
 40
100.0
  1
13
  7
STYLE1
100
AcDbText
  0
TEXT
  5
15A3B
330
747D
100
AcDbEntity
  8
文字
 62
     7
 48
50.0
100
AcDbText
 10
13248.77747366448
 20
9230.013745883729
 30
0.0
 40
100.0
  1
12
  7
STYLE1
100
AcDbText
  0
TEXT
  5
15A3C
330
747D
100
AcDbEntity
  8
文字
 62
     7
 48
50.0
100
AcDbText
 10
15022.63965474517
 20
11100.01374588372
 30
0.0
 40
100.0
  1
F12            1.2
  7
STYLE1
100
AcDbText
  0
TEXT
  5
15A3D
330
747D
100
AcDbEntity
  8
文字
 62
     7
 48
50.0
100
AcDbText
 10
15022.63965474518
 20
10760.01374588372
 30
0.0
 40
100.0
  1
F12            1.0
  7
STYLE1
100
AcDbText
  0
TEXT
  5
15A3E
330
747D
100
AcDbEntity
  8
文字
 62
     7
 48
50.0
100
AcDbText
 10
15022.63965474517
 20
10420.01374588372
 30
0.0
 40
100.0
  1
Y10            1.0
  7
STYLE1
100
AcDbText
  0
TEXT
  5
15A3F
330
747D
100
AcDbEntity
  8
文字
 62
     7
 48
50.0
100
AcDbText
 10
15022.63965474516
 20
10250.01374588372
 30
0.0
 40
100.0
  1
Y10            1.0
  7
STYLE1
100
AcDbText
  0
TEXT
  5
15A40
330
747D
100
AcDbEntity
  8
文字
 62
     7
 48
50.0
100
AcDbText
 10
15022.63965474517
 20
10080.01374588372
 30
0.0
 40
100.0
  1
Y10            0.7
  7
STYLE1
100
AcDbText
  0
TEXT
  5
15A41
330
747D
100
AcDbEntity
  8
文字
 62
     7
 48
50.0
100
AcDbText
 10
15022.63965474516
 20
9910.013745883725
 30
0.0
 40
100.0
  1
Y10            0.7
  7
STYLE1
100
AcDbText
  0
TEXT
  5
15A42
330
747D
100
AcDbEntity
  8
文字
 62
     7
 48
50.0
100
AcDbText
 10
15022.63965474517
 20
9740.013745883725
 30
0.0
 40
100.0
  1
Y10            0.5
  7
STYLE1
100
AcDbText
  0
TEXT
  5
15A43
330
747D
100
AcDbEntity
  8
文字
 62
     7
 48
50.0
100
AcDbText
 10
15022.63965474516
 20
9570.013745883725
 30
0.0
 40
100.0
  1
F12            0.6
  7
STYLE1
100
AcDbText
  0
LINE
  5
15A47
330
747D
100
AcDbEntity
  8
仕様書枠
 48
50.0
100
AcDbLine
 10
16307.19999999998
 20
8689.600000000003
 30
0.0
 11
13127.19999999999
 21
8689.600000000003
 31
0.0
  0
LINE
  5
15A48
330
747D
100
AcDbEntity
  8
仕様書枠
 48
50.0
100
AcDbLine
 10
16307.19999999998
 20
8519.600000000002
 30
0.0
 11
13127.19999999999
 21
8519.600000000004
 31
0.0
  0
TEXT
  5
15A4A
330
747D
100
AcDbEntity
  8
文字
 62
     7
 48
50.0
100
AcDbText
 10
13229.83081656554
 20
8720.013745883731
 30
0.0
 40
100.0
  1
F12→溶融亜鉛めっき鋼板(JIS G 3302)
  7
STYLE1
100
AcDbText
  0
TEXT
  5
15A4B
330
747D
100
AcDbEntity
  8
文字
 62
     7
 48
50.0
100
AcDbText
 10
13229.83081656554
 20
8550.013745883731
 30
0.0
 40
100.0
  1
Y10→溶融亜鉛-5％アルミニウム合金めっき鋼板(JIS G 3317)
 41
0.9
  7
STYLE1
100
AcDbText
  0
LINE
  5
15A4D
330
747D
100
AcDbEntity
  8
仕様書枠
 48
50.0
100
AcDbLine
 10
13127.2
 20
11409.6
 30
0.0
 11
13127.19999999999
 21
8519.600000000004
 31
0.0
  0
LINE
  5
15A50
330
747D
100
AcDbEntity
  8
仕様書枠
 48
50.0
100
AcDbLine
 10
16307.19999999999
 20
9029.6
 30
0.0
 11
13127.19999999999
 21
9029.600000000002
 31
0.0
  0
TEXT
  5
15A51
330
747D
100
AcDbEntity
  8
文字
 62
     7
 48
50.0
100
AcDbText
 10
13583.1181901657
 20
10590.01374588373
 30
0.0
 40
100.0
  1
床パネル
 41
0.9
  7
STYLE1
100
AcDbText
  0
TEXT
  5
15A52
330
747D
100
AcDbEntity
  8
文字
 62
     7
 48
50.0
100
AcDbText
 10
13583.11819016569
 20
10930.01374588372
 30
0.0
 40
100.0
  1
根太
  7
STYLE1
100
AcDbText
  0
TEXT
  5
15A53
330
747D
100
AcDbEntity
  8
文字
 62
     7
 48
50.0
100
AcDbText
 10
13248.77747366448
 20
8890.013745883729
 30
0.0
 40
100.0
  1
14
  7
STYLE1
100
AcDbText
  0
TEXT
  5
15A55
330
747D
100
AcDbEntity
  8
文字
 62
     7
 48
50.0
100
AcDbText
 10
15022.63965474516
 20
10930.01374588372
 30
0.0
 40
100.0
  1
F12            1.2
  7
STYLE1
100
AcDbText
  0
TEXT
  5
15A56
330
747D
100
AcDbEntity
  8
文字
 62
     7
 48
50.0
100
AcDbText
 10
15022.63965474517
 20
10590.01374588372
 30
0.0
 40
100.0
  1
F12            1.0
  7
STYLE1
100
AcDbText
  0
TEXT
  5
15A76
330
747D
100
AcDbEntity
  8
文字
 62
     7
 48
50.0
100
AcDbText
 10
14505.34213575793
 20
483.8967129911411
 30
0.0
 40
160.0
  1
ＮＸＮ－２１Ｓ
  7
STYLE2
100
AcDbText
  0
TEXT
  5
15A89
330
747D
100
AcDbEntity
  8
文字
 62
     7
 48
50.0
100
AcDbText
 10
15022.63965474515
 20
9400.013745883725
 30
0.0
 40
100.0
  1
F12            0.7
  7
STYLE1
100
AcDbText
  0
TEXT
  5
15A8A
330
747D
100
AcDbEntity
  8
文字
 62
     7
 48
50.0
100
AcDbText
 10
13583.11819016568
 20
9400.013745883729
 30
0.0
 40
100.0
  1
正面パネル
  7
STYLE1
100
AcDbText
  0
TEXT
  5
15A8B
330
747D
100
AcDbEntity
  8
文字
 62
     7
 48
50.0
100
AcDbText
 10
15022.63965474516
 20
9230.013745883725
 30
0.0
 40
100.0
  1
F12            0.8
  7
STYLE1
100
AcDbText
  0
TEXT
  5
15A8C
330
747D
100
AcDbEntity
  8
文字
 62
     7
 48
50.0
100
AcDbText
 10
13583.11819016569
 20
9230.013745883729
 30
0.0
 40
100.0
  1
扉
  7
STYLE1
100
AcDbText
  0
TEXT
  5
15A8D
330
747D
100
AcDbEntity
  8
文字
 62
     7
 48
50.0
100
AcDbText
 10
15022.63965474516
 20
9060.013745883727
 30
0.0
 40
100.0
  1
F12            0.6
  7
STYLE1
100
AcDbText
  0
TEXT
  5
15A8E
330
747D
100
AcDbEntity
  8
文字
 62
     7
 48
50.0
100
AcDbText
 10
13583.11819016569
 20
9060.013745883731
 30
0.0
 40
100.0
  1
棚板
  7
STYLE1
100
AcDbText
  0
LINE
  5
15A9A
330
747D
100
AcDbEntity
  8
細線
 48
50.0
100
AcDbLine
 10
9908.193956914475
 20
4940.0
 30
0.0
 11
9908.193956914475
 21
3150.0
 31
0.0
  0
LINE
  5
15A9B
330
747D
100
AcDbEntity
  8
細線
 48
50.0
100
AcDbLine
 10
9893.193956914474
 20
4940.0
 30
0.0
 11
9893.193956914474
 21
3150.0
 31
0.0
  0
LINE
  5
15A9C
330
747D
100
AcDbEntity
  8
細線
 48
50.0
100
AcDbLine
 10
10033.19395691447
 20
4940.0
 30
0.0
 11
10033.19395691447
 21
3150.0
 31
0.0
  0
LINE
  5
15A9D
330
747D
100
AcDbEntity
  8
細線
 48
50.0
100
AcDbLine
 10
10048.19395691447
 20
4940.0
 30
0.0
 11
10048.19395691447
 21
3150.0
 31
0.0
  0
LINE
  5
15A9E
330
747D
100
AcDbEntity
  8
細線
 48
50.0
100
AcDbLine
 10
10188.19395691447
 20
4940.0
 30
0.0
 11
10188.19395691447
 21
3150.0
 31
0.0
  0
LINE
  5
15A9F
330
747D
100
AcDbEntity
  8
細線
 48
50.0
100
AcDbLine
 10
10173.19395691447
 20
4940.0
 30
0.0
 11
10173.19395691447
 21
3150.0
 31
0.0
  0
LINE
  5
15AA0
330
747D
100
AcDbEntity
  8
細線
 48
50.0
100
AcDbLine
 10
9753.193956914474
 20
4940.0
 30
0.0
 11
9753.193956914474
 21
3150.0
 31
0.0
  0
LINE
  5
15AA1
330
747D
100
AcDbEntity
  8
細線
 48
50.0
100
AcDbLine
 10
9768.193956914474
 20
4940.0
 30
0.0
 11
9768.193956914474
 21
3150.0
 31
0.0
  0
LINE
  5
15AA2
330
747D
100
AcDbEntity
  8
細線
 48
50.0
100
AcDbLine
 10
9628.193956914474
 20
4940.0
 30
0.0
 11
9628.193956914474
 21
3150.0
 31
0.0
  0
LINE
  5
15AA3
330
747D
100
AcDbEntity
  8
細線
 48
50.0
100
AcDbLine
 10
9613.193956914475
 20
4940.0
 30
0.0
 11
9613.193956914475
 21
3150.0
 31
0.0
  0
LINE
  5
15AA4
330
747D
100
AcDbEntity
  8
細線
 48
50.0
100
AcDbLine
 10
9473.193956914474
 20
4940.0
 30
0.0
 11
9473.193956914474
 21
3150.0
 31
0.0
  0
LINE
  5
15AA5
330
747D
100
AcDbEntity
  8
細線
 48
50.0
100
AcDbLine
 10
9488.193956914475
 20
4940.0
 30
0.0
 11
9488.193956914475
 21
3150.0
 31
0.0
  0
LINE
  5
18FE5
330
747D
100
AcDbEntity
  8
部品1
100
AcDbLine
 10
9303.238943271436
 20
5173.717735334267
 30
0.0
 11
10378.30583377594
 21
5118.050841327565
 31
0.0
  0
LINE
  5
18FE6
330
747D
100
AcDbEntity
  8
部品1
100
AcDbLine
 10
9311.036521516429
 20
5032.781025068967
 30
0.0
 11
10360.35765745432
 21
4993.162643453187
 31
0.0
  0
LINE
  5
18FE9
330
747D
100
AcDbEntity
  8
細線
 48
50.0
100
AcDbLine
 10
9328.693956914476
 20
5172.399676375405
 30
0.0
 11
9323.404855358965
 21
5032.31404374805
 31
0.0
  0
LINE
  5
18FEA
330
747D
100
AcDbEntity
  8
細線
 48
50.0
100
AcDbLine
 10
10352.69395691447
 20
5119.377022653722
 30
0.0
 11
10347.94627402647
 21
4993.631250162977
 31
0.0
  0
LINE
  5
1982C
330
747D
100
AcDbEntity
  8
部品1
 48
50.0
100
AcDbLine
 10
9295.878242827582
 20
5166.593546164693
 30
0.0
 11
9296.258502605395
 21
5146.666581718282
 31
0.0
  0
LINE
  5
1982D
330
747D
100
AcDbEntity
  8
部品1
 48
50.0
100
AcDbLine
 10
9299.32727471164
 20
5143.091300224809
 30
0.0
 11
9301.031176203006
 21
5053.800803518162
 31
0.0
  0
LINE
  5
1982F
330
747D
100
AcDbEntity
  8
細線
 48
50.0
100
AcDbLine
 10
9296.733380015288
 20
5146.017081841361
 30
0.0
 11
10382.36936476045
 21
5089.802920818959
 31
0.0
  0
LINE
  5
19830
330
747D
100
AcDbEntity
  8
細線
 48
50.0
100
AcDbLine
 10
9301.493855252575
 20
5053.155570143498
 30
0.0
 11
10371.49751968321
 21
5012.75629478743
 31
0.0
  0
LINE
  5
19831
330
747D
100
AcDbEntity
  8
部品1
 48
50.0
100
AcDbLine
 10
9304.099948309247
 20
5050.22552202469
 30
0.0
 11
9304.301900929678
 21
5039.642486631597
 31
0.0
  0
ARC
  5
19832
330
747D
100
AcDbEntity
  8
部品1
 48
50.0
100
AcDbCircle
 10
9302.876968655921
 20
5166.727100572121
 30
0.0
 40
7.0
100
AcDbArc
 50
87.03587545295627
 51
181.093224029279
  0
ARC
  5
19833
330
747D
100
AcDbEntity
  8
部品1
 48
50.0
100
AcDbCircle
 10
9311.300626758017
 20
5039.776041039026
 30
0.0
 40
7.0
100
AcDbArc
 50
181.0932240292862
 51
267.8377559870786
  0
ARC
  5
19835
330
747D
100
AcDbEntity
  8
部品1
100
AcDbCircle
 10
9301.100494382813
 20
5050.168284421507
 30
0.0
 40
3.0
100
AcDbArc
 50
1.093224029286912
 51
80.18775403152167
  0
ARC
  5
19836
330
747D
100
AcDbEntity
  8
部品1
100
AcDbCircle
 10
9296.32782078521
 20
5143.034062621626
 30
0.0
 40
3.0
100
AcDbArc
 50
1.093224029279533
 51
80.18775403159015
  0
ARC
  5
19837
330
747D
100
AcDbEntity
  8
部品1
100
AcDbCircle
 10
9296.95837518823
 20
5146.679937159023
 30
0.0
 40
0.7
100
AcDbArc
 50
181.0932240292223
 51
260.1877540315805
  0
ARC
  5
19838
330
747D
100
AcDbEntity
  8
部品1
100
AcDbCircle
 10
9301.731048785839
 20
5053.814158958903
 30
0.0
 40
0.7
100
AcDbArc
 50
181.0932240292252
 51
260.1877540315805
  0
LINE
  5
1983C
330
747D
100
AcDbEntity
  8
部品1
 48
50.0
100
AcDbLine
 10
10384.90785972517
 20
5110.351195892643
 30
0.0
 11
10382.8772385342
 21
5090.406154634864
 31
0.0
  0
LINE
  5
1983D
330
747D
100
AcDbEntity
  8
部品1
 48
50.0
100
AcDbLine
 10
10379.52467204972
 20
5087.095520561955
 30
0.0
 11
10372.01789278488
 21
5013.362899816943
 31
0.0
  0
LINE
  5
1983E
330
747D
100
AcDbEntity
  8
部品1
 48
50.0
100
AcDbLine
 10
10368.6653263004
 20
5010.052265744031
 30
0.0
 11
10367.58576326066
 21
4999.448648750473
 31
0.0
  0
ARC
  5
1983F
330
747D
100
AcDbEntity
  8
部品1
 48
50.0
100
AcDbCircle
 10
10377.94385916042
 20
5111.060206565419
 30
0.0
 40
7.0
100
AcDbArc
 50
354.1866997665259
 51
87.03587545295638
  0
ARC
  5
19840
330
747D
100
AcDbEntity
  8
部品1
 48
50.0
100
AcDbCircle
 10
10360.6217626959
 20
5000.157659423246
 30
0.0
 40
7.0
100
AcDbArc
 50
267.8377559870788
 51
354.1866997665298
  0
ARC
  5
19841
330
747D
100
AcDbEntity
  8
部品1
100
AcDbCircle
 10
10371.64989797101
 20
5009.748404027128
 30
0.0
 40
3.0
100
AcDbArc
 50
95.09216976421097
 51
174.1866997665351
  0
ARC
  5
19842
330
747D
100
AcDbEntity
  8
部品1
100
AcDbCircle
 10
10382.50924372033
 20
5086.791658845052
 30
0.0
 40
3.0
100
AcDbArc
 50
95.09216976431478
 51
174.1866997665315
  0
ARC
  5
19843
330
747D
100
AcDbEntity
  8
部品1
100
AcDbCircle
 10
10382.18083847773
 20
5090.477055702141
 30
0.0
 40
0.7
100
AcDbArc
 50
275.0921697642604
 51
354.1866997665291
  0
ARC
  5
19844
330
747D
100
AcDbEntity
  8
部品1
100
AcDbCircle
 10
10371.32149272841
 20
5013.433800884218
 30
0.0
 40
0.7
100
AcDbArc
 50
275.0921697642539
 51
354.1866997666923
  0
DIMENSION
  5
19878
330
747D
100
AcDbEntity
  8
寸法
 48
50.0
100
AcDbDimension
  2
*D26
 10
10385.69395691447
 20
5573.657453579304
 30
0.0
 11
10591.74120100896
 21
5573.657453579304
 31
0.0
 70
   160
 71
     5
 42
80.0
  3
INABA_S40G
100
AcDbAlignedDimension
 13
10305.69395691447
 23
5121.810679611654
 33
0.0
 14
10385.69395691447
 24
5120.0
 34
0.0
100
AcDbRotatedDimension
1001
ACAD
1000
DSTYLE
1002
{
1070
   174
1070
     0
1070
   272
1070
     1
1070
   288
1070
     0
1070
   341
1005
0
1002
}
  0
DIMENSION
  5
19A46
330
747D
100
AcDbEntity
  8
寸法
 48
50.0
100
AcDbDimension
  2
*D27
 10
8703.427705202869
 20
5196.82249089752
 30
0.0
 11
8712.105448854991
 21
5426.658729913714
 31
0.0
 70
   160
 71
     5
 42
141.0
  3
INABA_S40G
100
AcDbAlignedDimension
 13
9311.036521516429
 23
5032.781025068967
 33
0.0
 14
9316.356355668384
 24
5173.68063246585
 34
0.0
 50
87.83775598709235
100
AcDbRotatedDimension
1001
ACAD
1000
DSTYLE
1002
{
1070
   174
1070
     0
1070
   272
1070
     1
1070
   288
1070
     0
1070
   341
1005
0
1002
}
  0
LINE
  5
1B049
330
747D
100
AcDbEntity
  8
部品1
100
AcDbLine
 10
6768.896575106987
 20
4932.000000000002
 30
0.0
 11
6768.896575106989
 21
3156.500000000015
 31
0.0
  0
LINE
  5
1B556
330
747D
100
AcDbEntity
  8
細線
100
AcDbLine
 10
6014.896575106991
 20
4932.0
 30
0.0
 11
6014.896575106991
 21
3149.000000000008
 31
0.0
  0
LINE
  5
1B557
330
747D
100
AcDbEntity
  8
細線
100
AcDbLine
 10
5944.896575106992
 20
4932.0
 30
0.0
 11
5944.896575106991
 21
3149.000000000007
 31
0.0
  0
LINE
  5
1B558
330
747D
100
AcDbEntity
  8
細線
100
AcDbLine
 10
5874.896575106991
 20
4932.0
 30
0.0
 11
5874.896575106991
 21
3149.000000000006
 31
0.0
  0
LINE
  5
1B559
330
747D
100
AcDbEntity
  8
細線
100
AcDbLine
 10
5804.896575106992
 20
4932.0
 30
0.0
 11
5804.89657510699
 21
3149.000000000004
 31
0.0
  0
LINE
  5
1B55A
330
747D
100
AcDbEntity
  8
細線
100
AcDbLine
 10
5734.896575106992
 20
4932.0
 30
0.0
 11
5734.896575106991
 21
3149.000000000004
 31
0.0
  0
LINE
  5
1B55B
330
747D
100
AcDbEntity
  8
細線
100
AcDbLine
 10
5664.896575106991
 20
4932.0
 30
0.0
 11
5664.896575106991
 21
3149.000000000004
 31
0.0
  0
LINE
  5
1B55D
330
747D
100
AcDbEntity
  8
部品1
100
AcDbLine
 10
5480.89657510699
 20
4932.000000000003
 30
0.0
 11
5480.896575106992
 21
3149.000000000006
 31
0.0
  0
LINE
  5
1B55E
330
747D
100
AcDbEntity
  8
部品1
100
AcDbLine
 10
5430.89657510699
 20
4932.000000000003
 30
0.0
 11
5430.896575106991
 21
3149.000000000005
 31
0.0
  0
LINE
  5
1B560
330
747D
100
AcDbEntity
  8
細線
100
AcDbLine
 10
5472.89657510699
 20
4932.000000000003
 30
0.0
 11
5472.896575106992
 21
3149.000000000006
 31
0.0
  0
LINE
  5
1B561
330
747D
100
AcDbEntity
  8
細線
100
AcDbLine
 10
5438.896575106991
 20
4932.000000000003
 30
0.0
 11
5438.896575106991
 21
3149.000000000005
 31
0.0
  0
LINE
  5
1B562
330
747D
100
AcDbEntity
  8
細線
100
AcDbLine
 10
6666.396575106986
 20
4932.0
 30
0.0
 11
6666.396575106988
 21
3156.500000000013
 31
0.0
  0
LINE
  5
1B563
330
747D
100
AcDbEntity
  8
細線
100
AcDbLine
 10
6596.396575106988
 20
4932.0
 30
0.0
 11
6596.396575106988
 21
3156.500000000013
 31
0.0
  0
LINE
  5
1B564
330
747D
100
AcDbEntity
  8
細線
100
AcDbLine
 10
6526.396575106987
 20
4932.0
 30
0.0
 11
6526.396575106989
 21
3156.500000000013
 31
0.0
  0
LINE
  5
1B565
330
747D
100
AcDbEntity
  8
細線
100
AcDbLine
 10
6456.396575106987
 20
4932.0
 30
0.0
 11
6456.396575106989
 21
3156.500000000013
 31
0.0
  0
LINE
  5
1B566
330
747D
100
AcDbEntity
  8
細線
100
AcDbLine
 10
6386.396575106988
 20
4932.0
 30
0.0
 11
6386.396575106989
 21
3156.500000000013
 31
0.0
  0
LINE
  5
1B567
330
747D
100
AcDbEntity
  8
細線
100
AcDbLine
 10
6316.396575106987
 20
4932.0
 30
0.0
 11
6316.396575106988
 21
3156.500000000013
 31
0.0
  0
LINE
  5
1B594
330
747D
100
AcDbEntity
  8
細線
100
AcDbLine
 10
7278.896575106975
 20
4932.0
 30
0.0
 11
7278.896575106975
 21
3156.500000000019
 31
0.0
  0
LINE
  5
1B595
330
747D
100
AcDbEntity
  8
細線
100
AcDbLine
 10
7208.896575106975
 20
4932.0
 30
0.0
 11
7208.896575106975
 21
3156.500000000019
 31
0.0
  0
LINE
  5
1B596
330
747D
100
AcDbEntity
  8
細線
100
AcDbLine
 10
7138.896575106976
 20
4932.0
 30
0.0
 11
7138.896575106976
 21
3156.500000000019
 31
0.0
  0
LINE
  5
1B597
330
747D
100
AcDbEntity
  8
細線
100
AcDbLine
 10
7068.896575106975
 20
4932.0
 30
0.0
 11
7068.896575106975
 21
3156.500000000019
 31
0.0
  0
LINE
  5
1B598
330
747D
100
AcDbEntity
  8
細線
100
AcDbLine
 10
6998.896575106975
 20
4932.0
 30
0.0
 11
6998.896575106975
 21
3156.500000000019
 31
0.0
  0
LINE
  5
1B599
330
747D
100
AcDbEntity
  8
細線
100
AcDbLine
 10
6928.896575106975
 20
4932.0
 30
0.0
 11
6928.896575106975
 21
3156.500000000019
 31
0.0
  0
LINE
  5
1B9FE
330
747D
100
AcDbEntity
  8
部品1
 48
50.0
100
AcDbLine
 10
5354.896575106991
 20
4105.500000000011
 30
0.0
 11
5407.896575106991
 21
4105.500000000012
 31
0.0
  0
LINE
  5
1BA4E
330
747D
100
AcDbEntity
  8
部品1
 48
50.0
100
AcDbLine
 10
9680.693956914488
 20
5305.86813910128
 30
0.0
 11
9980.693956914475
 21
5305.86813910128
 31
0.0
  0
LINE
  5
1BA4F
330
747D
100
AcDbEntity
  8
部品1
 48
50.0
100
AcDbLine
 10
9980.693956914475
 20
5305.86813910128
 30
0.0
 11
9980.693956914475
 21
5290.334158518757
 31
0.0
  0
TEXT
  5
1BA51
330
747D
100
AcDbEntity
  8
部品1
 48
50.0
100
AcDbText
 10
9668.961792138203
 20
5341.752161253713
 30
0.0
 40
120.0
  1
1000
  7
STYLE1
100
AcDbText
  0
TEXT
  5
1BA52
330
747D
100
AcDbEntity
  8
部品1
 48
50.0
100
AcDbText
 10
10144.62199717746
 20
5176.298582455082
 30
0.0
 40
120.0
  1
104
 50
90.0
  7
STYLE1
100
AcDbText
  0
ARC
  5
1BAB8
330
747D
100
AcDbEntity
  8
部品1
 48
0.01
100
AcDbCircle
 10
6956.896575107009
 20
4972.500000000001
 30
0.0
 40
2.0
100
AcDbArc
 50
180.0
 51
270.0
  0
ARC
  5
1BAB9
330
747D
100
AcDbEntity
  8
部品1
 48
0.01
100
AcDbCircle
 10
6956.896575107009
 20
5004.000000000001
 30
0.0
 40
2.0
100
AcDbArc
 50
90.0
 51
180.0
  0
ARC
  5
1BABA
330
747D
100
AcDbEntity
  8
部品1
 48
0.01
100
AcDbCircle
 10
7132.896575107008
 20
4972.500000000001
 30
0.0
 40
2.0
100
AcDbArc
 50
270.0
 51
0.0
  0
ARC
  5
1BABB
330
747D
100
AcDbEntity
  8
部品1
 48
0.01
100
AcDbCircle
 10
7132.896575107008
 20
5004.000000000001
 30
0.0
 40
2.0
100
AcDbArc
 50
0.0
 51
90.0
  0
LINE
  5
1BABC
330
747D
100
AcDbEntity
  8
細線
100
AcDbLine
 10
7044.89657510701
 20
4976.500000000001
 30
0.0
 11
6970.896575107009
 21
4976.500000000001
 31
0.0
  0
LINE
  5
1BABD
330
747D
100
AcDbEntity
  8
細線
100
AcDbLine
 10
7044.896575107009
 20
4999.500000000001
 30
0.0
 11
7118.896575107008
 21
4999.500000000001
 31
0.0
  0
LINE
  5
1BABE
330
747D
100
AcDbEntity
  8
細線
100
AcDbLine
 10
7118.896575107008
 20
4976.500000000001
 30
0.0
 11
7044.896575107009
 21
4976.500000000001
 31
0.0
  0
LINE
  5
1BABF
330
747D
100
AcDbEntity
  8
細線
100
AcDbLine
 10
6970.896575107009
 20
4999.500000000001
 30
0.0
 11
7044.896575107009
 21
4999.500000000001
 31
0.0
  0
LINE
  5
1BAC0
330
747D
100
AcDbEntity
  8
細線
100
AcDbLine
 10
6970.896575107009
 20
4976.500000000001
 30
0.0
 11
6970.896575107009
 21
4999.500000000001
 31
0.0
  0
LINE
  5
1BAC1
330
747D
100
AcDbEntity
  8
細線
100
AcDbLine
 10
7118.896575107008
 20
4999.500000000001
 30
0.0
 11
7118.896575107008
 21
4976.500000000001
 31
0.0
  0
LINE
  5
1BAC2
330
747D
100
AcDbEntity
  8
部品1
 48
0.01
100
AcDbLine
 10
6954.89657510701
 20
4972.500000000001
 30
0.0
 11
6954.89657510701
 21
5004.000000000001
 31
0.0
  0
LINE
  5
1BAC3
330
747D
100
AcDbEntity
  8
部品1
 48
0.01
100
AcDbLine
 10
7132.896575107008
 20
4970.500000000001
 30
0.0
 11
6956.896575107009
 21
4970.500000000001
 31
0.0
  0
LINE
  5
1BAC4
330
747D
100
AcDbEntity
  8
部品1
 48
0.01
100
AcDbLine
 10
7134.89657510701
 20
5004.000000000001
 30
0.0
 11
7134.89657510701
 21
4972.500000000001
 31
0.0
  0
LINE
  5
1BAC5
330
747D
100
AcDbEntity
  8
部品1
 48
0.01
100
AcDbLine
 10
6956.896575107009
 20
5006.000000000001
 30
0.0
 11
7132.896575107008
 21
5006.000000000001
 31
0.0
  0
LINE
  5
1BAD3
330
747D
100
AcDbEntity
  8
細線
100
AcDbLine
 10
7118.896575107008
 20
4993.5
 30
0.0
 11
7044.896575107009
 21
4993.5
 31
0.0
  0
LINE
  5
1BAD4
330
747D
100
AcDbEntity
  8
細線
100
AcDbLine
 10
7118.896575107008
 20
4987.5
 30
0.0
 11
7044.896575107009
 21
4987.5
 31
0.0
  0
LINE
  5
1BAD5
330
747D
100
AcDbEntity
  8
細線
100
AcDbLine
 10
7118.89657510701
 20
4981.500000000001
 30
0.0
 11
7044.896575107009
 21
4981.500000000001
 31
0.0
  0
LINE
  5
1BAD7
330
747D
100
AcDbEntity
  8
細線
100
AcDbLine
 10
7118.896575107008
 20
4993.5
 30
0.0
 11
7049.896575107009
 21
4993.5
 31
0.0
  0
LINE
  5
1BAE0
330
747D
100
AcDbEntity
  8
細線
100
AcDbLine
 10
6970.896575107009
 20
4993.5
 30
0.0
 11
7044.896575107009
 21
4993.5
 31
0.0
  0
LINE
  5
1BAE4
330
747D
100
AcDbEntity
  8
細線
100
AcDbLine
 10
6970.896575107009
 20
4981.5
 30
0.0
 11
7044.896575107009
 21
4981.500000000001
 31
0.0
  0
LINE
  5
1BAE5
330
747D
100
AcDbEntity
  8
細線
100
AcDbLine
 10
6970.896575107009
 20
4987.5
 30
0.0
 11
7044.896575107009
 21
4987.5
 31
0.0
  0
LINE
  5
1BDC6
330
747D
100
AcDbEntity
  8
細線
100
AcDbLine
 10
7044.896575107009
 20
4999.500000000001
 30
0.0
 11
7044.89657510701
 21
4976.500000000001
 31
0.0
  0
LINE
  5
1BDD2
330
747D
100
AcDbEntity
  8
細線
100
AcDbLine
 10
5684.896575106991
 20
4999.500000000001
 30
0.0
 11
5684.896575106989
 21
4976.5
 31
0.0
  0
LINE
  5
1BDD3
330
747D
100
AcDbEntity
  8
細線
100
AcDbLine
 10
5758.89657510699
 20
4987.5
 30
0.0
 11
5684.896575106991
 21
4987.5
 31
0.0
  0
LINE
  5
1BDD4
330
747D
100
AcDbEntity
  8
細線
100
AcDbLine
 10
5758.89657510699
 20
4981.499999999999
 30
0.0
 11
5684.896575106991
 21
4981.5
 31
0.0
  0
LINE
  5
1BDD5
330
747D
100
AcDbEntity
  8
細線
100
AcDbLine
 10
5758.89657510699
 20
4993.5
 30
0.0
 11
5684.896575106991
 21
4993.5
 31
0.0
  0
LINE
  5
1BDD6
330
747D
100
AcDbEntity
  8
細線
100
AcDbLine
 10
5610.896575106991
 20
4993.5
 30
0.0
 11
5679.89657510699
 21
4993.5
 31
0.0
  0
LINE
  5
1BDD7
330
747D
100
AcDbEntity
  8
細線
100
AcDbLine
 10
5610.89657510699
 20
4981.5
 30
0.0
 11
5684.896575106991
 21
4981.5
 31
0.0
  0
LINE
  5
1BDD8
330
747D
100
AcDbEntity
  8
細線
100
AcDbLine
 10
5610.896575106991
 20
4987.5
 30
0.0
 11
5684.896575106991
 21
4987.5
 31
0.0
  0
LINE
  5
1BDD9
330
747D
100
AcDbEntity
  8
細線
100
AcDbLine
 10
5610.896575106991
 20
4993.5
 30
0.0
 11
5684.896575106991
 21
4993.5
 31
0.0
  0
LINE
  5
1BDDA
330
747D
100
AcDbEntity
  8
部品1
 48
0.01
100
AcDbLine
 10
5772.89657510699
 20
5006.0
 30
0.0
 11
5596.896575106991
 21
5006.0
 31
0.0
  0
LINE
  5
1BDDB
330
747D
100
AcDbEntity
  8
部品1
 48
0.01
100
AcDbLine
 10
5594.896575106991
 20
5004.0
 30
0.0
 11
5594.896575106991
 21
4972.5
 31
0.0
  0
LINE
  5
1BDDC
330
747D
100
AcDbEntity
  8
部品1
 48
0.01
100
AcDbLine
 10
5596.896575106991
 20
4970.5
 30
0.0
 11
5772.89657510699
 21
4970.5
 31
0.0
  0
LINE
  5
1BDDD
330
747D
100
AcDbEntity
  8
部品1
 48
0.01
100
AcDbLine
 10
5774.89657510699
 20
4972.5
 30
0.0
 11
5774.896575106991
 21
5004.0
 31
0.0
  0
LINE
  5
1BDDE
330
747D
100
AcDbEntity
  8
細線
100
AcDbLine
 10
5610.896575106991
 20
4999.500000000001
 30
0.0
 11
5610.896575106991
 21
4976.5
 31
0.0
  0
LINE
  5
1BDDF
330
747D
100
AcDbEntity
  8
細線
100
AcDbLine
 10
5758.896575106991
 20
4976.5
 30
0.0
 11
5758.896575106991
 21
4999.500000000001
 31
0.0
  0
LINE
  5
1BDE0
330
747D
100
AcDbEntity
  8
細線
100
AcDbLine
 10
5758.896575106991
 20
4999.500000000001
 30
0.0
 11
5684.896575106991
 21
4999.500000000001
 31
0.0
  0
LINE
  5
1BDE1
330
747D
100
AcDbEntity
  8
細線
100
AcDbLine
 10
5610.896575106991
 20
4976.5
 30
0.0
 11
5684.896575106991
 21
4976.5
 31
0.0
  0
LINE
  5
1BDE2
330
747D
100
AcDbEntity
  8
細線
100
AcDbLine
 10
5684.896575106991
 20
4999.500000000001
 30
0.0
 11
5610.896575106991
 21
4999.500000000001
 31
0.0
  0
LINE
  5
1BDE3
330
747D
100
AcDbEntity
  8
細線
100
AcDbLine
 10
5684.896575106989
 20
4976.5
 30
0.0
 11
5758.896575106991
 21
4976.5
 31
0.0
  0
ARC
  5
1BDE4
330
747D
100
AcDbEntity
  8
部品1
 48
0.01
100
AcDbCircle
 10
5596.896575106991
 20
5004.0
 30
0.0
 40
2.0
100
AcDbArc
 50
90.0
 51
180.0
  0
ARC
  5
1BDE5
330
747D
100
AcDbEntity
  8
部品1
 48
0.01
100
AcDbCircle
 10
5596.896575106991
 20
4972.5
 30
0.0
 40
2.0
100
AcDbArc
 50
180.0
 51
270.0
  0
ARC
  5
1BDE6
330
747D
100
AcDbEntity
  8
部品1
 48
0.01
100
AcDbCircle
 10
5772.89657510699
 20
5004.0
 30
0.0
 40
2.0
100
AcDbArc
 50
0.000000000000007
 51
90.0
  0
ARC
  5
1BDE7
330
747D
100
AcDbEntity
  8
部品1
 48
0.01
100
AcDbCircle
 10
5772.89657510699
 20
4972.5
 30
0.0
 40
2.0
100
AcDbArc
 50
270.0
 51
0.000000000000007
  0
LINE
  5
1BDE8
330
747D
100
AcDbEntity
  8
部品1
 48
50.0
100
AcDbLine
 10
7512.488154000577
 20
5175.000000000005
 30
0.0
 11
5217.304996213423
 21
5175.000000000005
 31
0.0
  0
LINE
  5
1BDE9
330
747D
100
AcDbEntity
  8
部品1
 48
50.0
100
AcDbLine
 10
7499.272830539545
 20
5034.000000000006
 30
0.0
 11
5230.520319674456
 21
5034.000000000006
 31
0.0
  0
LINE
  5
1BDEA
330
747D
100
AcDbEntity
  8
細線
 48
50.0
100
AcDbLine
 10
7517.737924095093
 20
5146.973242563473
 30
0.0
 11
5212.055226118951
 21
5146.973242563792
 31
0.0
  0
LINE
  5
1BDEB
330
747D
100
AcDbEntity
  8
細線
 48
50.0
100
AcDbLine
 10
7509.501893570207
 20
5054.77324256379
 30
0.0
 11
5220.291256643793
 21
5054.77324256379
 31
0.0
  0
LINE
  5
1BDEC
330
747D
100
AcDbEntity
  8
部品1
100
AcDbLine
 10
7519.476914091676
 20
5167.603474604764
 30
0.0
 11
7518.34351675933
 21
5147.627346622165
 31
0.0
  0
LINE
  5
1BDEE
330
747D
100
AcDbEntity
  8
細線
 48
50.0
100
AcDbLine
 10
7486.896575107009
 20
5175.000000000005
 30
0.0
 11
7486.896575107009
 21
5034.000000000005
 31
0.0
  0
LINE
  5
1BDEF
330
747D
100
AcDbEntity
  8
細線
 48
50.0
100
AcDbLine
 10
5242.896575106992
 20
5175.000000000005
 30
0.0
 11
5242.896575106992
 21
5034.000000000005
 31
0.0
  0
LINE
  5
1BE41
330
747D
100
AcDbEntity
  8
部品1
100
AcDbLine
 10
7506.906496437753
 20
5051.969939455105
 30
0.0
 11
7506.261590630643
 21
5040.603474604766
 31
0.0
  0
LINE
  5
1BE42
330
747D
100
AcDbEntity
  8
部品1
100
AcDbLine
 10
7515.142526962598
 20
5144.169939455108
 30
0.0
 11
7510.107486234487
 21
5055.427346622163
 31
0.0
  0
ARC
  5
1BE44
330
747D
100
AcDbEntity
  8
部品1
 48
50.0
100
AcDbCircle
 10
7518.137709858784
 20
5144.000000000005
 30
0.0
 40
3.0
100
AcDbArc
 50
97.65812720738011
 51
176.7526572096774
  0
ARC
  5
1BE45
330
747D
100
AcDbEntity
  8
部品1
 48
50.0
100
AcDbCircle
 10
7509.90167933394
 20
5051.800000000003
 30
0.0
 40
3.0
100
AcDbArc
 50
97.6581272073629
 51
176.7526572096767
  0
ARC
  5
1BE46
330
747D
100
AcDbEntity
  8
部品1
 48
50.0
100
AcDbCircle
 10
7509.40861022538
 20
5055.466999161687
 30
0.0
 40
0.7
100
AcDbArc
 50
277.6581272073433
 51
356.7526572097019
  0
ARC
  5
1BE47
330
747D
100
AcDbEntity
  8
部品1
 48
50.0
100
AcDbCircle
 10
7517.644640750221
 20
5147.66699916169
 30
0.0
 40
0.7
100
AcDbArc
 50
277.6581272073433
 51
356.7526572096275
  0
ARC
  5
1BE48
330
747D
100
AcDbEntity
  8
部品1
100
AcDbCircle
 10
7499.272830539545
 20
5041.000000000005
 30
0.0
 40
7.0
100
AcDbArc
 50
270.0
 51
356.7526572096773
  0
ARC
  5
1BE49
330
747D
100
AcDbEntity
  8
部品1
100
AcDbCircle
 10
7512.488154000577
 20
5168.000000000005
 30
0.0
 40
7.0
100
AcDbArc
 50
356.752657209676
 51
89.99999999999998
  0
ARC
  5
1BE4A
330
747D
100
AcDbEntity
  8
部品1
100
AcDbCircle
 10
5217.304996213423
 20
5168.000000000005
 30
0.0
 40
7.0
100
AcDbArc
 50
90.00000000000003
 51
183.247342790324
  0
ARC
  5
1BE4B
330
747D
100
AcDbEntity
  8
部品1
100
AcDbCircle
 10
5230.520319674456
 20
5041.000000000005
 30
0.0
 40
7.0
100
AcDbArc
 50
183.2473427903227
 51
270.0
  0
ARC
  5
1BE4C
330
747D
100
AcDbEntity
  8
部品1
 48
50.0
100
AcDbCircle
 10
5212.148509463778
 20
5147.66699916169
 30
0.0
 40
0.7
100
AcDbArc
 50
183.2473427903725
 51
262.3418727926567
  0
ARC
  5
1BE4D
330
747D
100
AcDbEntity
  8
部品1
 48
50.0
100
AcDbCircle
 10
5220.384539988621
 20
5055.466999161687
 30
0.0
 40
0.7
100
AcDbArc
 50
183.2473427902981
 51
262.3418727926567
  0
ARC
  5
1BE4E
330
747D
100
AcDbEntity
  8
部品1
 48
50.0
100
AcDbCircle
 10
5219.891470880059
 20
5051.800000000003
 30
0.0
 40
3.0
100
AcDbArc
 50
3.247342790323342
 51
82.34187279263712
  0
ARC
  5
1BE4F
330
747D
100
AcDbEntity
  8
部品1
 48
50.0
100
AcDbCircle
 10
5211.655440355216
 20
5144.000000000005
 30
0.0
 40
3.0
100
AcDbArc
 50
3.247342790322579
 51
82.34187279261989
  0
LINE
  5
1BE50
330
747D
100
AcDbEntity
  8
部品1
100
AcDbLine
 10
5214.650623251401
 20
5144.169939455108
 30
0.0
 11
5219.685663979512
 21
5055.427346622163
 31
0.0
  0
LINE
  5
1BE51
330
747D
100
AcDbEntity
  8
部品1
100
AcDbLine
 10
5222.886653776247
 20
5051.969939455105
 30
0.0
 11
5223.531559583357
 21
5040.603474604766
 31
0.0
  0
LINE
  5
1BE52
330
747D
100
AcDbEntity
  8
部品1
100
AcDbLine
 10
5210.316236122324
 20
5167.603474604764
 30
0.0
 11
5211.44963345467
 21
5147.627346622165
 31
0.0
  0
LINE
  5
1C310
330
747D
100
AcDbEntity
  8
細線
100
AcDbLine
 10
5874.896575106982
 20
7258.015836501112
 30
0.0
 11
5872.565036816214
 21
7263.015836501097
 31
0.0
  0
LINE
  5
1C316
330
747D
100
AcDbEntity
  8
細線
100
AcDbLine
 10
5872.565036816215
 20
7263.015836501097
 30
0.0
 11
5807.228113397741
 21
7263.015836501087
 31
0.0
  0
LINE
  5
1C318
330
747D
100
AcDbEntity
  8
細線
100
AcDbLine
 10
5804.896575106987
 20
7258.015836501087
 30
0.0
 11
5734.896575106986
 21
7258.015836501077
 31
0.0
  0
LINE
  5
1C319
330
747D
100
AcDbEntity
  8
細線
100
AcDbLine
 10
5664.896575106987
 20
7258.015836501066
 30
0.0
 11
5594.896575106987
 21
7258.015836501058
 31
0.0
  0
LINE
  5
1C31B
330
747D
100
AcDbEntity
  8
細線
100
AcDbLine
 10
5524.896575106987
 20
7258.015836501046
 30
0.0
 11
5310.884268457942
 21
7258.015836501015
 31
0.0
  0
LINE
  5
1C31C
330
747D
100
AcDbEntity
  8
細線
100
AcDbLine
 10
5804.896575106987
 20
7258.01583650113
 30
0.0
 11
5807.228113397755
 21
7263.015836501115
 31
0.0
  0
LINE
  5
1C31D
330
747D
100
AcDbEntity
  8
細線
100
AcDbLine
 10
5732.565036816214
 20
7263.015836501077
 30
0.0
 11
5667.228113397739
 21
7263.015836501065
 31
0.0
  0
LINE
  5
1C31E
330
747D
100
AcDbEntity
  8
細線
100
AcDbLine
 10
5734.896575106979
 20
7258.015836501091
 30
0.0
 11
5732.565036816212
 21
7263.015836501077
 31
0.0
  0
LINE
  5
1C31F
330
747D
100
AcDbEntity
  8
細線
100
AcDbLine
 10
5664.896575106985
 20
7258.01583650111
 30
0.0
 11
5667.228113397754
 21
7263.015836501096
 31
0.0
  0
LINE
  5
1C320
330
747D
100
AcDbEntity
  8
細線
100
AcDbLine
 10
5592.565036816214
 20
7263.015836501057
 30
0.0
 11
5527.22811339774
 21
7263.015836501047
 31
0.0
  0
LINE
  5
1C321
330
747D
100
AcDbEntity
  8
細線
100
AcDbLine
 10
5594.896575106981
 20
7258.015836501072
 30
0.0
 11
5592.565036816213
 21
7263.015836501057
 31
0.0
  0
LINE
  5
1C322
330
747D
100
AcDbEntity
  8
細線
100
AcDbLine
 10
5524.896575106986
 20
7258.01583650109
 30
0.0
 11
5527.228113397754
 21
7263.015836501075
 31
0.0
  0
LINE
  5
1C333
330
747D
100
AcDbEntity
  8
細線
100
AcDbLine
 10
5476.396575106992
 20
7276.01583650104
 30
0.0
 11
5476.396575106992
 21
7258.015836501016
 31
0.0
  0
LINE
  5
1C334
330
747D
100
AcDbEntity
  8
細線
100
AcDbLine
 10
5435.396575106993
 20
7276.015836501034
 30
0.0
 11
5435.396575106993
 21
7258.015836501016
 31
0.0
  0
LINE
  5
1C335
330
747D
100
AcDbEntity
  8
細線
100
AcDbLine
 10
5476.396575106992
 20
7276.01583650104
 30
0.0
 11
5435.396575106993
 21
7276.015836501034
 31
0.0
  0
ARC
  5
1C337
330
747D
100
AcDbEntity
  8
部品1
100
AcDbCircle
 10
5437.940730984269
 20
7257.515836501038
 30
0.0
 40
1.0
100
AcDbArc
 50
270.0
 51
19.47122063447127
  0
LINE
  5
1C339
330
747D
100
AcDbEntity
  8
部品1
 48
0.01
100
AcDbLine
 10
5430.896575106986
 20
7258.015836501039
 30
0.0
 11
5430.896575106986
 21
7257.015836501039
 31
0.0
  0
LINE
  5
1C33C
330
747D
100
AcDbEntity
  8
部品1
 48
0.01
100
AcDbLine
 10
5431.396575106987
 20
7256.515836501039
 30
0.0
 11
5437.940730984269
 21
7256.515836501037
 31
0.0
  0
ARC
  5
1C33D
330
747D
100
AcDbEntity
  8
部品1
 48
0.01
100
AcDbCircle
 10
5431.396575106987
 20
7257.015836501039
 30
0.0
 40
0.5
100
AcDbArc
 50
180.0
 51
270.0
  0
ARC
  5
1C33F
330
747D
100
AcDbEntity
  8
部品1
100
AcDbCircle
 10
5463.396575106987
 20
7266.515836501037
 30
0.0
 40
26.0
100
AcDbArc
 50
180.0
 51
199.4712206344713
  0
ARC
  5
1C341
330
747D
100
AcDbEntity
  8
部品1
 48
0.01
100
AcDbCircle
 10
5439.396575106986
 20
7271.515836501038
 30
0.0
 40
2.0
100
AcDbArc
 50
90.0
 51
180.0
  0
LINE
  5
1C343
330
747D
100
AcDbEntity
  8
部品1
100
AcDbLine
 10
5437.396575106987
 20
7266.515836501037
 30
0.0
 11
5437.396575106987
 21
7271.515836501038
 31
0.0
  0
ARC
  5
1C344
330
747D
100
AcDbEntity
  8
部品1
100
AcDbCircle
 10
5455.896575106987
 20
7282.315836501038
 30
0.0
 40
16.0
100
AcDbArc
 50
218.3930440192126
 51
254.0576313943716
  0
ARC
  5
1C346
330
747D
100
AcDbEntity
  8
部品1
100
AcDbCircle
 10
5441.004966731799
 20
7270.515836501037
 30
0.0
 40
3.0
100
AcDbArc
 50
38.39304401921267
 51
90.0
  0
LINE
  5
1C347
330
747D
100
AcDbEntity
  8
部品1
 48
0.01
100
AcDbLine
 10
5439.396575106986
 20
7273.515836501037
 30
0.0
 11
5441.004966731799
 21
7273.515836501037
 31
0.0
  0
ARC
  5
1C358
330
747D
100
AcDbEntity
  8
部品1
100
AcDbCircle
 10
5455.896575106987
 20
7282.315836501038
 30
0.0
 40
16.0
100
AcDbArc
 50
285.9423686056284
 51
321.6069559807873
  0
LINE
  5
1C35E
330
747D
100
AcDbEntity
  8
部品1
100
AcDbLine
 10
5459.467289321257
 20
7266.815836501038
 30
0.0
 11
5452.325860892714
 21
7266.815836501038
 31
0.0
  0
ARC
  5
1C360
330
747D
100
AcDbEntity
  8
部品1
100
AcDbCircle
 10
5459.467289321257
 20
7269.815836501038
 30
0.0
 40
3.0
100
AcDbArc
 50
270.0
 51
285.9423686056284
  0
ARC
  5
1C362
330
747D
100
AcDbEntity
  8
部品1
100
AcDbCircle
 10
5452.325860892714
 20
7269.815836501038
 30
0.0
 40
3.0
100
AcDbArc
 50
254.0576313943716
 51
270.0
  0
LINE
  5
1C363
330
747D
100
AcDbEntity
  8
部品1
 48
0.01
100
AcDbLine
 10
5472.396575106986
 20
7273.515836501037
 30
0.0
 11
5470.788183482174
 21
7273.515836501037
 31
0.0
  0
ARC
  5
1C366
330
747D
100
AcDbEntity
  8
部品1
100
AcDbCircle
 10
5470.788183482174
 20
7270.515836501037
 30
0.0
 40
3.0
100
AcDbArc
 50
90.0
 51
141.6069559807873
  0
ARC
  5
1C368
330
747D
100
AcDbEntity
  8
部品1
 48
0.01
100
AcDbCircle
 10
5472.396575106986
 20
7271.515836501038
 30
0.0
 40
2.0
100
AcDbArc
 50
0.0
 51
90.0
  0
LINE
  5
1C369
330
747D
100
AcDbEntity
  8
部品1
100
AcDbLine
 10
5474.396575106986
 20
7266.515836501037
 30
0.0
 11
5474.396575106986
 21
7271.515836501038
 31
0.0
  0
ARC
  5
1C36C
330
747D
100
AcDbEntity
  8
部品1
100
AcDbCircle
 10
5448.396575106986
 20
7266.515836501037
 30
0.0
 40
26.0
100
AcDbArc
 50
340.5287793655287
 51
0.0
  0
ARC
  5
1C36D
330
747D
100
AcDbEntity
  8
部品1
100
AcDbCircle
 10
5473.852419229702
 20
7257.515836501038
 30
0.0
 40
1.0
100
AcDbArc
 50
160.5287793655287
 51
270.0
  0
LINE
  5
1C36F
330
747D
100
AcDbEntity
  8
部品1
 48
0.01
100
AcDbLine
 10
5480.396575106986
 20
7256.515836501039
 30
0.0
 11
5473.784069676923
 21
7256.515836501037
 31
0.0
  0
LINE
  5
1C372
330
747D
100
AcDbEntity
  8
部品1
 48
0.01
100
AcDbLine
 10
5480.896575106986
 20
7258.015836501039
 30
0.0
 11
5480.896575106986
 21
7257.015836501039
 31
0.0
  0
LINE
  5
1C373
330
747D
100
AcDbEntity
  8
部品1
 48
0.01
100
AcDbLine
 10
5480.896575106986
 20
7258.015836501039
 30
0.0
 11
5480.896575106986
 21
7257.015836501039
 31
0.0
  0
ARC
  5
1C374
330
747D
100
AcDbEntity
  8
部品1
 48
0.01
100
AcDbCircle
 10
5480.396575106986
 20
7257.015836501039
 30
0.0
 40
0.5
100
AcDbArc
 50
270.0
 51
0.0
  0
LINE
  5
1C386
330
747D
100
AcDbEntity
  8
細線
100
AcDbLine
 10
6176.396575107
 20
7292.015836501104
 30
0.0
 11
6178.728113397761
 21
7297.015836501076
 31
0.0
  0
LINE
  5
1C387
330
747D
100
AcDbEntity
  8
細線
100
AcDbLine
 10
6246.396575106988
 20
7292.015836501073
 30
0.0
 11
6244.065036816221
 21
7297.015836501059
 31
0.0
  0
LINE
  5
1C388
330
747D
100
AcDbEntity
  8
細線
100
AcDbLine
 10
6244.065036816222
 20
7297.015836501059
 30
0.0
 11
6178.728113397748
 21
7297.015836501048
 31
0.0
  0
LINE
  5
1C389
330
747D
100
AcDbEntity
  8
細線
100
AcDbLine
 10
6316.396575106993
 20
7292.015836501111
 30
0.0
 11
6318.72811339776
 21
7297.015836501095
 31
0.0
  0
LINE
  5
1C38A
330
747D
100
AcDbEntity
  8
細線
100
AcDbLine
 10
6386.396575106988
 20
7292.015836501092
 30
0.0
 11
6384.065036816219
 21
7297.015836501078
 31
0.0
  0
LINE
  5
1C38B
330
747D
100
AcDbEntity
  8
細線
100
AcDbLine
 10
6384.06503681622
 20
7297.015836501078
 30
0.0
 11
6318.728113397747
 21
7297.015836501066
 31
0.0
  0
LINE
  5
1C38C
330
747D
100
AcDbEntity
  8
細線
100
AcDbLine
 10
6456.396575106994
 20
7292.015836501132
 30
0.0
 11
6458.728113397762
 21
7297.015836501117
 31
0.0
  0
LINE
  5
1C38D
330
747D
100
AcDbEntity
  8
細線
100
AcDbLine
 10
6524.065036816222
 20
7297.015836501099
 30
0.0
 11
6458.728113397748
 21
7297.015836501087
 31
0.0
  0
LINE
  5
1C38E
330
747D
100
AcDbEntity
  8
細線
100
AcDbLine
 10
6526.396575106989
 20
7292.015836501113
 30
0.0
 11
6524.065036816222
 21
7297.015836501099
 31
0.0
  0
LINE
  5
1C3A4
330
747D
100
AcDbEntity
  8
細線
100
AcDbLine
 10
7208.896575106983
 20
7328.015836501108
 30
0.0
 11
7206.565036816215
 21
7333.015836501094
 31
0.0
  0
LINE
  5
1C3A5
330
747D
100
AcDbEntity
  8
細線
100
AcDbLine
 10
7206.565036816217
 20
7333.015836501094
 30
0.0
 11
7141.228113397743
 21
7333.015836501084
 31
0.0
  0
LINE
  5
1C3A6
330
747D
100
AcDbEntity
  8
細線
100
AcDbLine
 10
7138.896575106989
 20
7328.015836501127
 30
0.0
 11
7141.228113397755
 21
7333.015836501113
 31
0.0
  0
LINE
  5
1C3A7
330
747D
100
AcDbEntity
  8
細線
100
AcDbLine
 10
7066.565036816214
 20
7333.015836501075
 30
0.0
 11
7001.228113397741
 21
7333.015836501063
 31
0.0
  0
LINE
  5
1C3A8
330
747D
100
AcDbEntity
  8
細線
100
AcDbLine
 10
7068.896575106982
 20
7328.015836501089
 30
0.0
 11
7066.565036816213
 21
7333.015836501075
 31
0.0
  0
LINE
  5
1C3A9
330
747D
100
AcDbEntity
  8
細線
100
AcDbLine
 10
6998.896575106987
 20
7328.015836501106
 30
0.0
 11
7001.228113397754
 21
7333.015836501092
 31
0.0
  0
LINE
  5
1C3AA
330
747D
100
AcDbEntity
  8
細線
100
AcDbLine
 10
6926.565036816215
 20
7333.015836501054
 30
0.0
 11
6861.228113397742
 21
7333.015836501044
 31
0.0
  0
LINE
  5
1C3AB
330
747D
100
AcDbEntity
  8
細線
100
AcDbLine
 10
6928.896575106982
 20
7328.015836501069
 30
0.0
 11
6926.565036816214
 21
7333.015836501054
 31
0.0
  0
LINE
  5
1C3AC
330
747D
100
AcDbEntity
  8
細線
100
AcDbLine
 10
6858.896575106992
 20
7328.0158365011
 30
0.0
 11
6861.228113397754
 21
7333.015836501073
 31
0.0
  0
LINE
  5
1C3AD
330
747D
100
AcDbEntity
  8
細線
100
AcDbLine
 10
7138.896575106975
 20
7328.015836501096
 30
0.0
 11
7068.896575106975
 21
7328.015836501096
 31
0.0
  0
LINE
  5
1C3AE
330
747D
100
AcDbEntity
  8
細線
100
AcDbLine
 10
6998.896575106981
 20
7328.015836501096
 30
0.0
 11
6928.896575106969
 21
7328.015836501098
 31
0.0
  0
LINE
  5
1C3AF
330
747D
100
AcDbEntity
  8
細線
100
AcDbLine
 10
6858.896575106992
 20
7328.0158365011
 30
0.0
 11
6759.896575106989
 21
7328.015836501101
 31
0.0
  0
LINE
  5
1C3B0
330
747D
100
AcDbEntity
  8
細線
100
AcDbLine
 10
6456.396575106978
 20
7292.015836501099
 30
0.0
 11
6386.396575106985
 21
7292.015836501099
 31
0.0
  0
LINE
  5
1C3B1
330
747D
100
AcDbEntity
  8
細線
100
AcDbLine
 10
6316.396575106987
 20
7292.015836501099
 30
0.0
 11
6246.396575106974
 21
7292.0158365011
 31
0.0
  0
LINE
  5
1C3B2
330
747D
100
AcDbEntity
  8
細線
100
AcDbLine
 10
6176.396575107
 20
7292.015836501104
 30
0.0
 11
6105.896575107004
 21
7292.015836501126
 31
0.0
  0
TEXT
  5
1C9C5
330
747D
100
AcDbEntity
  8
文字
 62
     7
 48
50.0
100
AcDbText
 10
13209.4053442172
 20
76.09434707649325
 30
0.0
 40
100.0
  1
○床面積 ： 2.10㎡(0.64坪) 　
  7
STYLE2
100
AcDbText
  0
LINE
  5
1DC7C
330
747D
100
AcDbEntity
  8
細線
100
AcDbLine
 10
5944.896575106986
 20
7258.015836501087
 30
0.0
 11
5874.896575106987
 21
7258.015836501077
 31
0.0
  0
LINE
  5
1DC7D
330
747D
100
AcDbEntity
  8
細線
100
AcDbLine
 10
5944.896575106987
 20
7258.01583650113
 30
0.0
 11
5947.228113397756
 21
7263.015836501115
 31
0.0
  0
LINE
  5
1DC7E
330
747D
100
AcDbEntity
  8
細線
100
AcDbLine
 10
6012.565036816216
 20
7263.015836501097
 30
0.0
 11
5947.228113397741
 21
7263.015836501087
 31
0.0
  0
LINE
  5
1DC7F
330
747D
100
AcDbEntity
  8
細線
100
AcDbLine
 10
6014.89657510698
 20
7258.015836501119
 30
0.0
 11
6012.565036816214
 21
7263.015836501097
 31
0.0
  0
LINE
  5
1E435
330
747D
100
AcDbEntity
  8
細線
100
AcDbLine
 10
6596.396575106981
 20
7292.015836501119
 30
0.0
 11
6526.396575106986
 21
7292.015836501119
 31
0.0
  0
LINE
  5
1E436
330
747D
100
AcDbEntity
  8
細線
100
AcDbLine
 10
6666.396575107008
 20
7292.015836501097
 30
0.0
 11
6664.065036816222
 21
7297.01583650112
 31
0.0
  0
LINE
  5
1E437
330
747D
100
AcDbEntity
  8
細線
100
AcDbLine
 10
6664.065036816224
 20
7297.01583650112
 30
0.0
 11
6598.728113397751
 21
7297.015836501109
 31
0.0
  0
LINE
  5
1E438
330
747D
100
AcDbEntity
  8
細線
100
AcDbLine
 10
6596.396575106997
 20
7292.015836501152
 30
0.0
 11
6598.728113397765
 21
7297.015836501137
 31
0.0
  0
LINE
  5
1E4B9
330
747D
100
AcDbEntity
  8
細線
100
AcDbLine
 10
7278.896575106976
 20
7328.015836501117
 30
0.0
 11
7208.896575106978
 21
7328.015836501117
 31
0.0
  0
LINE
  5
1E4BA
330
747D
100
AcDbEntity
  8
細線
100
AcDbLine
 10
7278.89657510699
 20
7328.015836501148
 30
0.0
 11
7281.228113397758
 21
7333.015836501134
 31
0.0
  0
LINE
  5
1E4BB
330
747D
100
AcDbEntity
  8
細線
100
AcDbLine
 10
7346.565036816217
 20
7333.015836501115
 30
0.0
 11
7281.228113397744
 21
7333.015836501104
 31
0.0
  0
LINE
  5
1E4BC
330
747D
100
AcDbEntity
  8
細線
100
AcDbLine
 10
7348.896575106984
 20
7328.01583650113
 30
0.0
 11
7346.565036816217
 21
7333.015836501115
 31
0.0
  0
LINE
  5
1E4BD
330
747D
100
AcDbEntity
  8
部品1
100
AcDbLine
 10
6114.896575106992
 20
4932.000000000003
 30
0.0
 11
6114.896575106991
 21
3149.000000000008
 31
0.0
  0
LINE
  5
1F3C3
330
747D
100
AcDbEntity
  8
細線
100
AcDbLine
 10
5594.896575106992
 20
4932.0
 30
0.0
 11
5594.896575106991
 21
3149.000000000004
 31
0.0
  0
LINE
  5
1F3C4
330
747D
100
AcDbEntity
  8
細線
100
AcDbLine
 10
5524.896575106992
 20
4932.0
 30
0.0
 11
5524.896575106991
 21
3149.000000000004
 31
0.0
  0
LINE
  5
1F3C7
330
747D
100
AcDbEntity
  8
細線
100
AcDbLine
 10
6246.396575106987
 20
4932.0
 30
0.0
 11
6246.396575106988
 21
3156.500000000013
 31
0.0
  0
LINE
  5
1F3C8
330
747D
100
AcDbEntity
  8
細線
100
AcDbLine
 10
6176.396575106988
 20
4932.0
 30
0.0
 11
6176.396575106988
 21
3156.500000000013
 31
0.0
  0
LINE
  5
1F3CA
330
747D
100
AcDbEntity
  8
細線
100
AcDbLine
 10
7348.896575106976
 20
4932.0
 30
0.0
 11
7348.896575106976
 21
3156.500000000019
 31
0.0
  0
LINE
  5
1F414
330
747D
100
AcDbEntity
  8
細線
100
AcDbLine
 10
6858.896575106975
 20
4932.0
 30
0.0
 11
6858.896575106975
 21
3156.500000000019
 31
0.0
  0
LINE
  5
1FD6F
330
747D
100
AcDbEntity
  8
破線
 48
10.0
100
AcDbLine
 10
5994.396575107
 20
7409.015836501019
 30
0.0
 11
5339.89657510699
 21
7409.015836500981
 31
0.0
  0
LINE
  5
1FD71
330
747D
100
AcDbEntity
  8
破線
 48
10.0
100
AcDbLine
 10
6685.396575107001
 20
7385.515836501061
 30
0.0
 11
6685.396575107001
 21
7725.015836501126
 31
0.0
  0
LINE
  5
1FD72
330
747D
100
AcDbEntity
  8
破線
 48
10.0
100
AcDbLine
 10
6735.396575106998
 20
7385.515836501063
 30
0.0
 11
6735.396575107
 21
7725.015836501126
 31
0.0
  0
ARC
  5
20634
330
747D
100
AcDbEntity
  8
細線
100
AcDbCircle
 10
5769.896581606886
 20
7283.515836501088
 30
0.0
 40
6.0
100
AcDbArc
 50
204.6243183521779
 51
335.3756816478222
  0
ARC
  5
20635
330
747D
100
AcDbEntity
  8
細線
100
AcDbCircle
 10
6421.396581606881
 20
7317.515836501105
 30
0.0
 40
6.0
100
AcDbArc
 50
204.6243183521779
 51
335.3756816478222
  0
LINE
  5
20636
330
747D
100
AcDbEntity
  8
細線
100
AcDbLine
 10
6093.896575106977
 20
7288.015836501118
 30
0.0
 11
6093.896575106978
 21
7292.01583650112
 31
0.0
  0
LINE
  5
20637
330
747D
100
AcDbEntity
  8
細線
100
AcDbLine
 10
6093.896575106977
 20
7288.015836501118
 30
0.0
 11
6073.896575106988
 21
7288.015836501118
 31
0.0
  0
LINE
  5
20638
330
747D
100
AcDbEntity
  8
細線
100
AcDbLine
 10
6073.896575106988
 20
7288.015836501118
 30
0.0
 11
6073.896575106997
 21
7322.015836501127
 31
0.0
  0
LINE
  5
20639
330
747D
100
AcDbEntity
  8
細線
100
AcDbLine
 10
6114.896575106994
 20
7258.015836501133
 30
0.0
 11
6114.896575107003
 21
7288.015836501132
 31
0.0
  0
LINE
  5
2063A
330
747D
100
AcDbEntity
  8
細線
100
AcDbLine
 10
6114.896575107002
 20
7288.015836501132
 30
0.0
 11
6099.896575106999
 21
7288.01583650113
 31
0.0
  0
LINE
  5
2063B
330
747D
100
AcDbEntity
  8
細線
100
AcDbLine
 10
6099.896575106997
 20
7281.015836501129
 30
0.0
 11
6099.896575106999
 21
7288.01583650113
 31
0.0
  0
LINE
  5
2063C
330
747D
100
AcDbEntity
  8
細線
100
AcDbLine
 10
6099.896575106978
 20
7292.015836501126
 30
0.0
 11
6093.896575106978
 21
7292.015836501126
 31
0.0
  0
LINE
  5
2063D
330
747D
100
AcDbEntity
  8
細線
100
AcDbLine
 10
6105.896575107004
 20
7291.315836501126
 30
0.0
 11
6105.896575107004
 21
7292.015836501126
 31
0.0
  0
ARC
  5
2063E
330
747D
100
AcDbEntity
  8
細線
100
AcDbCircle
 10
6103.896575107003
 20
7291.315836501126
 30
0.0
 40
2.0
100
AcDbArc
 50
270.0
 51
0.0
  0
LINE
  5
2063F
330
747D
100
AcDbEntity
  8
細線
100
AcDbLine
 10
6101.896575107003
 20
7289.315836501124
 30
0.0
 11
6103.896575107004
 21
7289.315836501124
 31
0.0
  0
LINE
  5
20640
330
747D
100
AcDbEntity
  8
細線
100
AcDbLine
 10
6099.896575107004
 20
7291.315836501126
 30
0.0
 11
6099.896575107004
 21
7292.015836501126
 31
0.0
  0
ARC
  5
20641
330
747D
100
AcDbEntity
  8
細線
100
AcDbCircle
 10
6101.896575107002
 20
7291.315836501126
 30
0.0
 40
2.0
100
AcDbArc
 50
180.0
 51
270.0
  0
LINE
  5
20643
330
747D
100
AcDbEntity
  8
細線
100
AcDbLine
 10
6088.896575106993
 20
7315.015836501105
 30
0.0
 11
6088.896575106996
 21
7322.015836501127
 31
0.0
  0
ARC
  5
20646
330
747D
100
AcDbEntity
  8
細線
100
AcDbCircle
 10
6755.896575106987
 20
7327.315836501096
 30
0.0
 40
2.0
100
AcDbArc
 50
180.0
 51
270.0
  0
LINE
  5
20647
330
747D
100
AcDbEntity
  8
細線
100
AcDbLine
 10
6753.896575106988
 20
7327.315836501097
 30
0.0
 11
6753.896575106988
 21
7328.015836501096
 31
0.0
  0
LINE
  5
20648
330
747D
100
AcDbEntity
  8
細線
100
AcDbLine
 10
6755.896575106987
 20
7325.315836501097
 30
0.0
 11
6757.896575106989
 21
7325.315836501097
 31
0.0
  0
ARC
  5
20649
330
747D
100
AcDbEntity
  8
細線
100
AcDbCircle
 10
6757.896575106987
 20
7327.315836501096
 30
0.0
 40
2.0
100
AcDbArc
 50
270.0
 51
0.0
  0
LINE
  5
2064A
330
747D
100
AcDbEntity
  8
細線
100
AcDbLine
 10
6759.896575106989
 20
7327.315836501097
 30
0.0
 11
6759.896575106989
 21
7328.015836501096
 31
0.0
  0
LINE
  5
20662
330
747D
100
AcDbEntity
  8
部品1
100
AcDbLine
 10
9680.693956914488
 20
5305.86813910128
 30
0.0
 11
9980.693956914475
 21
5290.334158518757
 31
0.0
  0
LINE
  5
20673
330
747D
100
AcDbEntity
  8
部品1
 48
50.0
100
AcDbLine
 10
6118.896575107001
 20
3100.0
 30
0.0
 11
6118.896575107001
 21
3000.0
 31
0.0
  0
LINE
  5
20674
330
747D
100
AcDbEntity
  8
部品1
 48
50.0
100
AcDbLine
 10
5918.896575107001
 20
3100.0
 30
0.0
 11
5918.896575107001
 21
3000.0
 31
0.0
  0
LINE
  5
20675
330
747D
100
AcDbEntity
  8
部品1
 48
50.0
100
AcDbLine
 10
6810.896575107001
 20
3100.0
 30
0.0
 11
6810.896575107001
 21
3000.0
 31
0.0
  0
LINE
  5
20676
330
747D
100
AcDbEntity
  8
部品1
 48
50.0
100
AcDbLine
 10
6610.896575107002
 20
3100.0
 30
0.0
 11
6610.896575107002
 21
3000.0
 31
0.0
  0
LINE
  5
209D3
330
747D
100
AcDbEntity
  8
細線
100
AcDbLine
 10
6088.896575106995
 20
7322.015836501127
 30
0.0
 11
6073.896575106996
 21
7322.015836501127
 31
0.0
  0
LINE
  5
209D4
330
747D
100
AcDbEntity
  8
細線
100
AcDbLine
 10
6742.896575106986
 20
7351.515836501096
 30
0.0
 11
6742.896575106986
 21
7356.015836501092
 31
0.0
  0
LINE
  5
20A68
330
747D
100
AcDbEntity
  8
破線
 48
5.0
100
AcDbLine
 10
9258.193956914476
 20
3000.0
 30
0.0
 11
9258.193956914478
 21
2750.0
 31
0.0
  0
LINE
  5
20A69
330
747D
100
AcDbEntity
  8
破線
 48
5.0
100
AcDbLine
 10
9508.193956914476
 20
3000.0
 30
0.0
 11
9508.193956914476
 21
2750.0
 31
0.0
  0
LINE
  5
20A6A
330
747D
100
AcDbEntity
  8
破線
 48
5.0
100
AcDbLine
 10
10403.19395691447
 20
3000.0
 30
0.0
 11
10403.19395691447
 21
2750.0
 31
0.0
  0
LINE
  5
20A6B
330
747D
100
AcDbEntity
  8
破線
 48
5.0
100
AcDbLine
 10
10153.19395691447
 20
3000.0
 30
0.0
 11
10153.19395691448
 21
2750.0
 31
0.0
  0
LINE
  5
20A6C
330
747D
100
AcDbEntity
  8
破線
 48
5.0
100
AcDbLine
 10
5374.896575106993
 20
2753.0
 30
0.0
 11
5124.896575106994
 21
2753.000000000001
 31
0.0
  0
LINE
  5
20A6D
330
747D
100
AcDbEntity
  8
破線
 48
5.0
100
AcDbLine
 10
5124.896575106994
 20
3000.000000000001
 30
0.0
 11
5124.896575106994
 21
2753.000000000001
 31
0.0
  0
LINE
  5
20A6E
330
747D
100
AcDbEntity
  8
破線
 48
5.0
100
AcDbLine
 10
5374.896575106994
 20
3000.000000000001
 30
0.0
 11
5374.896575106993
 21
2753.0
 31
0.0
  0
LINE
  5
20A6F
330
747D
100
AcDbEntity
  8
破線
 48
5.0
100
AcDbLine
 10
7594.896575107009
 20
3000.0
 30
0.0
 11
7594.896575107007
 21
2752.999999999999
 31
0.0
  0
LINE
  5
20A70
330
747D
100
AcDbEntity
  8
破線
 48
5.0
100
AcDbLine
 10
7344.896575107009
 20
3000.0
 30
0.0
 11
7344.896575107009
 21
2753.0
 31
0.0
  0
LINE
  5
20A71
330
747D
100
AcDbEntity
  8
破線
 48
5.0
100
AcDbLine
 10
10403.19395691447
 20
2750.0
 30
0.0
 11
10153.19395691448
 21
2750.0
 31
0.0
  0
DIMENSION
  5
20A72
330
747D
100
AcDbEntity
  8
寸法
 48
50.0
100
AcDbDimension
  2
*D28
 10
9258.193956914478
 20
2467.87759756039
 30
0.0
 11
9383.193956914478
 21
2467.87759756039
 31
0.0
 70
   160
 71
     5
 42
249.9999999999982
  3
INABA_S40G
100
AcDbAlignedDimension
 13
9508.193956914476
 23
2750.0
 33
0.0
 14
9258.193956914478
 24
2750.0
 34
0.0
100
AcDbRotatedDimension
  0
LINE
  5
20A73
330
747D
100
AcDbEntity
  8
破線
 48
5.0
100
AcDbLine
 10
9508.193956914476
 20
2750.0
 30
0.0
 11
9258.193956914478
 21
2750.0
 31
0.0
  0
LINE
  5
20A74
330
747D
100
AcDbEntity
  8
破線
 48
5.0
100
AcDbLine
 10
7594.896575107007
 20
2752.999999999999
 30
0.0
 11
7344.896575107009
 21
2753.0
 31
0.0
  0
DIMENSION
  5
20A76
330
747D
100
AcDbEntity
  8
寸法
 48
50.0
100
AcDbDimension
  2
*D29
 10
9104.048535739364
 20
3000.0
 30
0.0
 11
9104.048535739364
 21
2875.000000000002
 31
0.0
 70
   160
 71
     5
 42
249.9999999999996
  3
INABA_S40G
100
AcDbAlignedDimension
 13
9258.193956914478
 23
2750.0
 33
0.0
 14
9233.193956914476
 24
3000.0
 34
0.0
 50
90.0
100
AcDbRotatedDimension
1001
ACAD
1000
DSTYLE
1002
{
1070
   174
1070
     0
1070
   272
1070
     1
1070
   288
1070
     0
1070
   341
1005
0
1002
}
  0
DIMENSION
  5
20A77
330
747D
100
AcDbEntity
  8
寸法
 48
50.0
100
AcDbDimension
  2
*D30
 10
7344.896575107009
 20
2469.248916440127
 30
0.0
 11
7469.896575107007
 21
2469.248916440127
 31
0.0
 70
   160
 71
     5
 42
249.9999999999982
  3
INABA_S40G
100
AcDbAlignedDimension
 13
7594.896575107007
 23
2752.999999999999
 33
0.0
 14
7344.896575107009
 24
2753.0
 34
0.0
100
AcDbRotatedDimension
  0
MTEXT
  5
20B3E
330
747D
100
AcDbEntity
  8
寸法
 62
     7
 48
50.0
100
AcDbMText
 10
5936.764598643023
 20
7801.655367280591
 30
0.0
 40
96.0
 41
0.0
 71
     5
 72
     1
  1
棚 2段
  7
STYLE1
 73
     1
 44
1.0
1001
ACAD
1000
MTEXTBEGIN
1070
    73
1070
     1
1070
    44
1040
1.0
1070
    74
1070
     0
1000
MTEXTEND
  0
MTEXT
  5
20B3F
330
747D
100
AcDbEntity
  8
寸法
 62
     7
 48
50.0
100
AcDbMText
 10
7026.764598643023
 20
7801.655367280666
 30
0.0
 40
96.0
 41
0.0
 71
     5
 72
     1
  1
棚 2段
  7
STYLE1
 73
     1
 44
1.0
1001
ACAD
1000
MTEXTBEGIN
1070
    73
1070
     1
1070
    44
1040
1.0
1070
    74
1070
     0
1000
MTEXTEND
  0
LWPOLYLINE
  5
20B96
330
747D
100
AcDbEntity
  8
部品1
 48
50.0
100
AcDbPolyline
 90
        4
 70
     1
 43
0.0
 10
5379.94657510699
 20
4020.25000000001
 10
5382.846575106992
 20
4020.25000000001
 10
5382.846575106992
 20
4029.750000000011
 10
5379.94657510699
 20
4029.750000000011
  0
CIRCLE
  5
20B97
330
747D
100
AcDbEntity
  8
部品1
 48
50.0
100
AcDbCircle
 10
5381.39657510699
 20
4025.000000000011
 30
0.0
 40
9.0
  0
ARC
  5
20B98
330
747D
100
AcDbEntity
  8
細線
 48
50.0
100
AcDbCircle
 10
5381.39657510699
 20
4025.000000000011
 30
0.0
 40
4.0
100
AcDbArc
 50
111.2538091853132
 51
248.7461908146868
  0
ARC
  5
20B99
330
747D
100
AcDbEntity
  8
細線
 48
50.0
100
AcDbCircle
 10
5381.39657510699
 20
4025.000000000011
 30
0.0
 40
17.5
100
AcDbArc
 50
306.4837370612677
 51
233.5162629387323
  0
LINE
  5
20B9A
330
747D
100
AcDbEntity
  8
細線
 48
50.0
100
AcDbLine
 10
5391.396575106988
 20
4001.141039419128
 30
0.0
 11
5391.396575106991
 21
4010.125525219369
 31
0.0
  0
LINE
  5
20B9B
330
747D
100
AcDbEntity
  8
細線
 48
50.0
100
AcDbLine
 10
5371.396575106991
 20
4001.14103941913
 30
0.0
 11
5371.396575106991
 21
4010.125525219366
 31
0.0
  0
ARC
  5
20B9C
330
747D
100
AcDbEntity
  8
細線
 48
50.0
100
AcDbCircle
 10
5381.39657510699
 20
4025.000000000011
 30
0.0
 40
26.5
100
AcDbArc
 50
249.332683506403
 51
290.6673164933835
  0
ARC
  5
20B9D
330
747D
100
AcDbEntity
  8
細線
 48
50.0
100
AcDbCircle
 10
5390.396575106984
 20
4001.141039419128
 30
0.0
 40
1.0
100
AcDbArc
 50
290.667316493597
 51
359.9999999998958
  0
ARC
  5
20B9E
330
747D
100
AcDbEntity
  8
細線
 48
50.0
100
AcDbCircle
 10
5372.396575106991
 20
4001.14103941913
 30
0.0
 40
1.0
100
AcDbArc
 50
180.0
 51
249.3326835066164
  0
ARC
  5
20B9F
330
747D
100
AcDbEntity
  8
細線
 48
50.0
100
AcDbCircle
 10
5370.39657510699
 20
4010.125525219366
 30
0.0
 40
1.0
100
AcDbArc
 50
0.0
 51
53.51626293873231
  0
ARC
  5
20BA0
330
747D
100
AcDbEntity
  8
細線
 48
50.0
100
AcDbCircle
 10
5392.396575106994
 20
4010.125525219369
 30
0.0
 40
1.0
100
AcDbArc
 50
126.4837370615282
 51
180.0
  0
ARC
  5
20BA1
330
747D
100
AcDbEntity
  8
細線
 48
50.0
100
AcDbCircle
 10
5381.39657510699
 20
4025.000000000011
 30
0.0
 40
21.5
100
AcDbArc
 50
255.8014401250294
 51
284.1985598749706
  0
ARC
  5
20BA2
330
747D
100
AcDbEntity
  8
細線
 48
50.0
100
AcDbCircle
 10
5381.39657510699
 20
4025.000000000011
 30
0.0
 40
16.5
100
AcDbArc
 50
251.9694646069326
 51
288.0305353930674
  0
LINE
  5
20BA3
330
747D
100
AcDbEntity
  8
細線
 48
50.0
100
AcDbLine
 10
5386.896575106991
 20
4004.447627874204
 30
0.0
 11
5386.896575106991
 21
4009.025019561541
 31
0.0
  0
LINE
  5
20BA4
330
747D
100
AcDbEntity
  8
細線
 48
50.0
100
AcDbLine
 10
5375.896575106991
 20
4004.447627874204
 30
0.0
 11
5375.896575106991
 21
4009.025019561539
 31
0.0
  0
ARC
  5
20BA5
330
747D
100
AcDbEntity
  8
細線
 48
50.0
100
AcDbCircle
 10
5376.196575106994
 20
4009.025019561539
 30
0.0
 40
0.3
100
AcDbArc
 50
71.96946460693259
 51
180.0
  0
ARC
  5
20BA6
330
747D
100
AcDbEntity
  8
細線
 48
50.0
100
AcDbCircle
 10
5386.596575106992
 20
4009.025019561541
 30
0.0
 40
0.3
100
AcDbArc
 50
0.0
 51
108.0305353930674
  0
ARC
  5
20BA7
330
747D
100
AcDbEntity
  8
細線
 48
50.0
100
AcDbCircle
 10
5386.596575106988
 20
4004.447627874204
 30
0.0
 40
0.3
100
AcDbArc
 50
284.1985598747557
 51
0.0000000001042204
  0
ARC
  5
20BA8
330
747D
100
AcDbEntity
  8
細線
 48
50.0
100
AcDbCircle
 10
5376.196575106994
 20
4004.447627874204
 30
0.0
 40
0.3
100
AcDbArc
 50
180.0
 51
255.8014401248145
  0
CIRCLE
  5
20BA9
330
747D
100
AcDbEntity
  8
細線
 48
50.0
100
AcDbCircle
 10
5381.39657510699
 20
4025.000000000011
 30
0.0
 40
12.0
  0
ARC
  5
20BAA
330
747D
100
AcDbEntity
  8
部品1
 48
50.0
100
AcDbCircle
 10
5381.39657510699
 20
4075.00000000001
 30
0.0
 40
8.5
100
AcDbArc
 50
114.315739171091
 51
245.684260828909
  0
CIRCLE
  5
20BAB
330
747D
100
AcDbEntity
  8
細線
 48
50.0
100
AcDbCircle
 10
5381.39657510699
 20
4075.00000000001
 30
0.0
 40
4.5
  0
LWPOLYLINE
  5
20BAC
330
747D
100
AcDbEntity
  8
部品1
 48
50.0
100
AcDbPolyline
 90
        2
 70
     0
 43
0.0
 10
5377.896575106991
 20
4093.674849396993
 10
5377.896575106991
 20
4082.745966692426
  0
CIRCLE
  5
20BAD
330
747D
100
AcDbEntity
  8
部品1
 48
50.0
100
AcDbCircle
 10
5381.39657510699
 20
4075.00000000001
 30
0.0
 40
19.0
  0
LWPOLYLINE
  5
20BAE
330
747D
100
AcDbEntity
  8
部品1
 48
50.0
100
AcDbPolyline
 90
        2
 70
     0
 43
0.0
 10
5377.896575106991
 20
4067.254033307595
 10
5377.896575106991
 20
4056.325150603028
  0
LWPOLYLINE
  5
20BAF
330
747D
100
AcDbEntity
  8
部品1
 48
50.0
100
AcDbPolyline
 90
        2
 70
     0
 43
0.0
 10
5384.896575106991
 20
4082.745966692426
 10
5384.896575106991
 20
4093.674849396993
  0
ARC
  5
20BB0
330
747D
100
AcDbEntity
  8
部品1
 48
50.0
100
AcDbCircle
 10
5381.39657510699
 20
4075.00000000001
 30
0.0
 40
8.5
100
AcDbArc
 50
294.315739171091
 51
65.68426082890896
  0
LWPOLYLINE
  5
20BB1
330
747D
100
AcDbEntity
  8
部品1
 48
50.0
100
AcDbPolyline
 90
        2
 70
     0
 43
0.0
 10
5384.896575106991
 20
4056.325150603028
 10
5384.896575106991
 20
4067.254033307595
  0
ARC
  5
20BB2
330
747D
100
AcDbEntity
  8
細線
 48
50.0
100
AcDbCircle
 10
5381.39657510699
 20
4075.00000000001
 30
0.0
 40
16.5
100
AcDbArc
 50
332.0012352654438
 51
27.99876473455621
  0
ARC
  5
20BB3
330
747D
100
AcDbEntity
  8
細線
 48
50.0
100
AcDbCircle
 10
5381.39657510699
 20
4075.00000000001
 30
0.0
 40
14.0
100
AcDbArc
 50
326.407443611277
 51
33.59255638872305
  0
LINE
  5
20BB4
330
747D
100
AcDbEntity
  8
細線
 48
50.0
100
AcDbLine
 10
5366.827772822659
 20
4082.745966692426
 30
0.0
 11
5369.734671317302
 21
4082.745966692426
 31
0.0
  0
LINE
  5
20BB5
330
747D
100
AcDbEntity
  8
細線
 48
50.0
100
AcDbLine
 10
5366.827772822659
 20
4067.254033307595
 30
0.0
 11
5369.734671317302
 21
4067.254033307595
 31
0.0
  0
LINE
  5
20BB6
330
747D
100
AcDbEntity
  8
細線
 48
50.0
100
AcDbLine
 10
5393.05847889668
 20
4082.745966692426
 30
0.0
 11
5395.965377391326
 21
4082.745966692426
 31
0.0
  0
LINE
  5
20BB7
330
747D
100
AcDbEntity
  8
細線
 48
50.0
100
AcDbLine
 10
5393.05847889668
 20
4067.254033307595
 30
0.0
 11
5395.965377391326
 21
4067.254033307595
 31
0.0
  0
ARC
  5
20BB8
330
747D
100
AcDbEntity
  8
細線
 48
50.0
100
AcDbCircle
 10
5381.39657510699
 20
4075.00000000001
 30
0.0
 40
14.0
100
AcDbArc
 50
146.4074436112769
 51
213.592556388723
  0
ARC
  5
20BB9
330
747D
100
AcDbEntity
  8
細線
 48
50.0
100
AcDbCircle
 10
5381.39657510699
 20
4075.00000000001
 30
0.0
 40
16.5
100
AcDbArc
 50
152.0012352654438
 51
207.9987647345562
  0
ARC
  5
20BBA
330
747D
100
AcDbEntity
  8
部品1
 48
50.0
100
AcDbCircle
 10
5354.896575106991
 20
4100.50000000001
 30
0.0
 40
5.0
100
AcDbArc
 50
90.0
 51
180.0
  0
ARC
  5
20BBB
330
747D
100
AcDbEntity
  8
部品1
 48
50.0
100
AcDbCircle
 10
5354.896575106991
 20
3989.500000000011
 30
0.0
 40
5.0
100
AcDbArc
 50
180.0
 51
270.0
  0
ARC
  5
20BBC
330
747D
100
AcDbEntity
  8
部品1
 48
50.0
100
AcDbCircle
 10
5407.896575106991
 20
3989.500000000011
 30
0.0
 40
5.0
100
AcDbArc
 50
270.0
 51
0.0
  0
ARC
  5
20BBD
330
747D
100
AcDbEntity
  8
部品1
 48
50.0
100
AcDbCircle
 10
5407.896575106991
 20
4100.50000000001
 30
0.0
 40
5.0
100
AcDbArc
 50
0.0
 51
90.0
  0
LINE
  5
20BBE
330
747D
100
AcDbEntity
  8
部品1
 48
50.0
100
AcDbLine
 10
5349.896575106991
 20
3989.500000000011
 30
0.0
 11
5349.896575106991
 21
4100.50000000001
 31
0.0
  0
LINE
  5
20BBF
330
747D
100
AcDbEntity
  8
部品1
 48
50.0
100
AcDbLine
 10
5407.896575106991
 20
3984.500000000011
 30
0.0
 11
5354.896575106991
 21
3984.500000000011
 31
0.0
  0
LINE
  5
20BC0
330
747D
100
AcDbEntity
  8
部品1
 48
50.0
100
AcDbLine
 10
5412.896575106991
 20
4100.50000000001
 30
0.0
 11
5412.896575106991
 21
3989.500000000011
 31
0.0
  0
ENDSEC
  0
SECTION
  2
OBJECTS
  0
DICTIONARY
  5
7471
330
0
100
AcDbDictionary
281
     1
  3
ACAD_COLOR
350
159B0
  3
ACAD_GROUP
350
7472
  3
ACAD_LAYOUT
350
159B1
  3
ACAD_MATERIAL
350
159AF
  3
ACAD_MLINESTYLE
350
7473
  3
ACAD_PLOTSETTINGS
350
159B2
  3
ACAD_PLOTSTYLENAME
350
159AD
  3
ACDBHEADERROUNDTRIPXREC
350
20BCF
  3
AcDbVariableDictionary
350
20BCB
  3
CONTENTDICTIONARY
350
E71C
  3
DRAWINGVARIABLESDICT
350
F3B9
  0
DICTIONARY
  5
1FFA9
330
7467
100
AcDbDictionary
280
     1
281
     1
  3
ACAD_LAYERSTATES
360
1FFAA
  0
DICTIONARY
  5
159B0
102
{ACAD_REACTORS
330
7471
102
}
330
7471
100
AcDbDictionary
281
     1
  0
DICTIONARY
  5
7472
102
{ACAD_REACTORS
330
7471
102
}
330
7471
100
AcDbDictionary
281
     1
  0
DICTIONARY
  5
159B1
102
{ACAD_REACTORS
330
7471
102
}
330
7471
100
AcDbDictionary
281
     1
  3
Model
350
159B3
  3
レイアウト1
350
159B4
  0
DICTIONARY
  5
159AF
102
{ACAD_REACTORS
330
7471
102
}
330
7471
100
AcDbDictionary
281
     1
  0
DICTIONARY
  5
7473
102
{ACAD_REACTORS
330
7471
102
}
330
7471
100
AcDbDictionary
281
     1
  3
STANDARD
350
7480
  0
DICTIONARY
  5
159B2
102
{ACAD_REACTORS
330
7471
102
}
330
7471
100
AcDbDictionary
281
     1
  0
ACDBDICTIONARYWDFLT
  5
159AD
102
{ACAD_REACTORS
330
7471
102
}
330
7471
100
AcDbDictionary
281
     1
  3
Normal
350
159AE
100
AcDbDictionaryWithDefault
340
159AE
  0
DICTIONARY
  5
20BCF
102
{ACAD_REACTORS
330
7471
102
}
330
7471
100
AcDbDictionary
281
     1
  3
COLORDICT
350
20BD1
  3
MATERIALDICT
350
20BD0
  0
DICTIONARY
  5
20BCB
102
{ACAD_REACTORS
330
7471
102
}
330
7471
100
AcDbDictionary
281
     1
  3
DIMASSOC
350
20BCC
  3
PROJECTNAME
350
20BCD
  0
DICTIONARY
  5
E71C
102
{ACAD_REACTORS
330
7471
102
}
330
7471
100
AcDbDictionary
281
     1
  0
DICTIONARY
  5
F3B9
102
{ACAD_REACTORS
330
7471
102
}
330
7471
100
AcDbDictionary
281
     1
1001
DRAWINGVARIABLESXDATA
1000
POLARMODE
1000
1
  0
DICTIONARY
  5
1FFAA
102
{ACAD_REACTORS
330
1FFA9
102
}
330
1FFA9
100
AcDbDictionary
281
     1
  0
LAYOUT
  5
159B3
102
{ACAD_XDICTIONARY
360
20BD2
102
}
102
{ACAD_REACTORS
330
159B1
102
}
330
159B1
100
AcDbPlotSettings
  1

  2
none_device
  4
Letter_(8.50_x_11.00_Inches)
  6

 40
6.349999904632568
 41
6.349999904632568
 42
6.350006103515625
 43
6.350006103515625
 44
215.8999938964844
 45
279.3999938964844
 46
0.0
 47
0.0
 48
0.0
 49
0.0
140
0.0
141
0.0
142
1.0
143
1.0
 70
 11952
 72
     1
 73
     1
 74
     0
  7

 75
     0
147
1.0
148
-4149.571981164617
149
65.56433826894044
100
AcDbLayout
  1
Model
 70
     1
 71
     0
 10
0.0
 20
0.0
 11
12.0
 21
9.0
 12
0.0
 22
0.0
 32
0.0
 14
0.0
 24
0.0
 34
0.0
 15
0.0
 25
0.0
 35
0.0
146
0.0
 13
0.0
 23
0.0
 33
0.0
 16
1.0
 26
0.0
 36
0.0
 17
0.0
 27
1.0
 37
0.0
 76
     0
330
747D
  0
LAYOUT
  5
159B4
102
{ACAD_XDICTIONARY
360
20BD4
102
}
102
{ACAD_REACTORS
330
159B1
102
}
330
159B1
100
AcDbPlotSettings
  1

  2
自動 EPSON LP-8400FX (TATENO 上)
  4

  6

 40
0.0
 41
0.0
 42
0.0
 43
0.0
 44
0.0
 45
0.0
 46
0.0
 47
0.0
 48
0.0
 49
0.0
140
0.0
141
0.0
142
1.0
143
1.0
 70
   688
 72
     0
 73
     0
 74
     5
  7
inaba.ctb
 75
    16
147
1.0
148
0.0
149
0.0
100
AcDbLayout
  1
レイアウト1
 70
     0
 71
     1
 10
0.0
 20
0.0
 11
420.0
 21
297.0
 12
0.0
 22
0.0
 32
0.0
 14
1.000000000000000E+20
 24
1.000000000000000E+20
 34
1.000000000000000E+20
 15
-1.000000000000000E+20
 25
-1.000000000000000E+20
 35
-1.000000000000000E+20
146
0.0
 13
0.0
 23
0.0
 33
0.0
 16
1.0
 26
0.0
 36
0.0
 17
0.0
 27
1.0
 37
0.0
 76
     0
330
747A
  0
MLINESTYLE
  5
7480
102
{ACAD_REACTORS
330
7473
102
}
330
7473
100
AcDbMlineStyle
  2
STANDARD
 70
     0
  3

 62
     0
 51
90.0
 52
90.0
 71
     2
 49
0.5
 62
   256
  6
BYLAYER
 49
-0.5
 62
   256
  6
BYLAYER
  0
ACDBPLACEHOLDER
  5
159AE
102
{ACAD_REACTORS
330
159AD
102
}
330
159AD
  0
XRECORD
  5
20BD1
102
{ACAD_REACTORS
330
20BCF
102
}
330
20BCF
100
AcDbXrecord
280
     1
340
159B0
  0
XRECORD
  5
20BD0
102
{ACAD_REACTORS
330
20BCF
102
}
330
20BCF
100
AcDbXrecord
280
     1
340
159AF
  0
DICTIONARYVAR
  5
20BCC
102
{ACAD_REACTORS
330
20BCB
102
}
330
20BCB
100
DictionaryVariables
280
     0
  1
1
  0
DICTIONARYVAR
  5
20BCD
102
{ACAD_REACTORS
330
20BCB
102
}
330
20BCB
100
DictionaryVariables
280
     0
  1

  0
DICTIONARY
  5
20BD2
330
159B3
100
AcDbDictionary
280
     1
281
     1
  3
ACAD_XREC_ROUNDTRIP
360
20BD3
  0
DICTIONARY
  5
20BD4
330
159B4
100
AcDbDictionary
280
     1
281
     1
  3
ACAD_XREC_ROUNDTRIP
360
20BD5
  0
XRECORD
  5
20BD3
102
{ACAD_REACTORS
330
20BD2
102
}
330
20BD2
100
AcDbXrecord
280
     1
102
SHADEPLOT
 70
     0
102
SHADEPLOTRESLEVEL
 70
     2
102
SHADEPLOTCUSTOMDPI
 70
   300
  0
XRECORD
  5
20BD5
102
{ACAD_REACTORS
330
20BD4
102
}
330
20BD4
100
AcDbXrecord
280
     1
102
SHADEPLOT
 70
     0
102
SHADEPLOTRESLEVEL
 70
     2
102
SHADEPLOTCUSTOMDPI
 70
   300
  0
ENDSEC
  0
EOF
