  0
SECTION
  2
HEADER
  9
$ACADVER
  1
AC1015
  9
$ACADMAINTVER
 70
    20
  9
$DWGCODEPAGE
  3
ANSI_932
  9
$INSBASE
 10
0.0
 20
0.0
 30
0.0
  9
$EXTMIN
 10
139.9999999999995
 20
-0.0000000000000909
 30
0.0
  9
$EXTMAX
 10
16307.2
 20
11409.6
 30
0.0
  9
$LIMMIN
 10
0.0
 20
0.0
  9
$LIMMAX
 10
16800.0
 20
11880.0
  9
$ORTHOMODE
 70
     0
  9
$REGENMODE
 70
     1
  9
$FILLMODE
 70
     1
  9
$QTEXTMODE
 70
     0
  9
$MIRRTEXT
 70
     1
  9
$LTSCALE
 40
20.0
  9
$ATTMODE
 70
     1
  9
$TEXTSIZE
 40
4.0
  9
$TRACEWID
 40
1.0
  9
$TEXTSTYLE
  7
STYLE1
  9
$CLAYER
  8
寸法
  9
$CELTYPE
  6
BYLAYER
  9
$CECOLOR
 62
   256
  9
$CELTSCALE
 40
50.0
  9
$DISPSILH
 70
     0
  9
$DIMSCALE
 40
40.0
  9
$DIMASZ
 40
2.5
  9
$DIMEXO
 40
0.5
  9
$DIMDLI
 40
7.0
  9
$DIMRND
 40
0.0
  9
$DIMDLE
 40
0.0
  9
$DIMEXE
 40
1.5
  9
$DIMTP
 40
0.0
  9
$DIMTM
 40
0.0
  9
$DIMTXT
 40
3.0
  9
$DIMCEN
 40
0.0
  9
$DIMTSZ
 40
0.0
  9
$DIMTOL
 70
     0
  9
$DIMLIM
 70
     0
  9
$DIMTIH
 70
     0
  9
$DIMTOH
 70
     0
  9
$DIMSE1
 70
     0
  9
$DIMSE2
 70
     0
  9
$DIMTAD
 70
     3
  9
$DIMZIN
 70
     8
  9
$DIMBLK
  1

  9
$DIMASO
 70
     1
  9
$DIMSHO
 70
     1
  9
$DIMPOST
  1

  9
$DIMAPOST
  1

  9
$DIMALT
 70
     0
  9
$DIMALTD
 70
     2
  9
$DIMALTF
 40
0.0394
  9
$DIMLFAC
 40
1.0
  9
$DIMTOFL
 70
     1
  9
$DIMTVP
 40
0.0
  9
$DIMTIX
 70
     1
  9
$DIMSOXD
 70
     0
  9
$DIMSAH
 70
     1
  9
$DIMBLK1
  1
DOTSMALL
  9
$DIMBLK2
  1
DOTSMALL
  9
$DIMSTYLE
  2
INABA_S40G
  9
$DIMCLRD
 70
     0
  9
$DIMCLRE
 70
     0
  9
$DIMCLRT
 70
     7
  9
$DIMTFAC
 40
1.0
  9
$DIMGAP
 40
1.0
  9
$DIMJUST
 70
     0
  9
$DIMSD1
 70
     0
  9
$DIMSD2
 70
     0
  9
$DIMTOLJ
 70
     1
  9
$DIMTZIN
 70
     0
  9
$DIMALTZ
 70
     0
  9
$DIMALTTZ
 70
     0
  9
$DIMUPT
 70
     1
  9
$DIMDEC
 70
     1
  9
$DIMTDEC
 70
     4
  9
$DIMALTU
 70
     2
  9
$DIMALTTD
 70
     2
  9
$DIMTXSTY
  7
STYLE1
  9
$DIMAUNIT
 70
     0
  9
$DIMADEC
 70
     0
  9
$DIMALTRND
 40
0.0
  9
$DIMAZIN
 70
     0
  9
$DIMDSEP
 70
    46
  9
$DIMATFIT
 70
     3
  9
$DIMFRAC
 70
     0
  9
$DIMLDRBLK
  1

  9
$DIMLUNIT
 70
     2
  9
$DIMLWD
 70
    -2
  9
$DIMLWE
 70
    -2
  9
$DIMTMOVE
 70
     0
  9
$LUNITS
 70
     2
  9
$LUPREC
 70
     1
  9
$SKETCHINC
 40
1.0
  9
$FILLETRAD
 40
3.0
  9
$AUNITS
 70
     0
  9
$AUPREC
 70
     0
  9
$MENU
  1
acad
  9
$ELEVATION
 40
0.0
  9
$PELEVATION
 40
0.0
  9
$THICKNESS
 40
0.0
  9
$LIMCHECK
 70
     0
  9
$CHAMFERA
 40
0.0
  9
$CHAMFERB
 40
0.0
  9
$CHAMFERC
 40
0.0
  9
$CHAMFERD
 40
0.0
  9
$SKPOLY
 70
     0
  9
$TDCREATE
 40
2451368.612993866
  9
$TDUCREATE
 40
2451368.237993866
  9
$TDUPDATE
 40
2455575.702009364
  9
$TDUUPDATE
 40
2455575.327009364
  9
$TDINDWG
 40
0.6850518634
  9
$TDUSRTIMER
 40
0.6850518634
  9
$USRTIMER
 70
     1
  9
$ANGBASE
 50
0.0
  9
$ANGDIR
 70
     0
  9
$PDMODE
 70
     3
  9
$PDSIZE
 40
2.0
  9
$PLINEWID
 40
0.0
  9
$SPLFRAME
 70
     0
  9
$SPLINETYPE
 70
     6
  9
$SPLINESEGS
 70
     8
  9
$HANDSEED
  5
1AC7D
  9
$SURFTAB1
 70
     6
  9
$SURFTAB2
 70
     6
  9
$SURFTYPE
 70
     6
  9
$SURFU
 70
     6
  9
$SURFV
 70
     6
  9
$UCSBASE
  2

  9
$UCSNAME
  2

  9
$UCSORG
 10
0.0
 20
0.0
 30
0.0
  9
$UCSXDIR
 10
1.0
 20
0.0
 30
0.0
  9
$UCSYDIR
 10
0.0
 20
1.0
 30
0.0
  9
$UCSORTHOREF
  2

  9
$UCSORTHOVIEW
 70
     0
  9
$UCSORGTOP
 10
0.0
 20
0.0
 30
0.0
  9
$UCSORGBOTTOM
 10
0.0
 20
0.0
 30
0.0
  9
$UCSORGLEFT
 10
0.0
 20
0.0
 30
0.0
  9
$UCSORGRIGHT
 10
0.0
 20
0.0
 30
0.0
  9
$UCSORGFRONT
 10
0.0
 20
0.0
 30
0.0
  9
$UCSORGBACK
 10
0.0
 20
0.0
 30
0.0
  9
$PUCSBASE
  2

  9
$PUCSNAME
  2

  9
$PUCSORG
 10
0.0
 20
0.0
 30
0.0
  9
$PUCSXDIR
 10
1.0
 20
0.0
 30
0.0
  9
$PUCSYDIR
 10
0.0
 20
1.0
 30
0.0
  9
$PUCSORTHOREF
  2

  9
$PUCSORTHOVIEW
 70
     0
  9
$PUCSORGTOP
 10
0.0
 20
0.0
 30
0.0
  9
$PUCSORGBOTTOM
 10
0.0
 20
0.0
 30
0.0
  9
$PUCSORGLEFT
 10
0.0
 20
0.0
 30
0.0
  9
$PUCSORGRIGHT
 10
0.0
 20
0.0
 30
0.0
  9
$PUCSORGFRONT
 10
0.0
 20
0.0
 30
0.0
  9
$PUCSORGBACK
 10
0.0
 20
0.0
 30
0.0
  9
$USERI1
 70
     0
  9
$USERI2
 70
     0
  9
$USERI3
 70
     0
  9
$USERI4
 70
     0
  9
$USERI5
 70
     0
  9
$USERR1
 40
0.0
  9
$USERR2
 40
0.0
  9
$USERR3
 40
0.0
  9
$USERR4
 40
0.0
  9
$USERR5
 40
0.0
  9
$WORLDVIEW
 70
     1
  9
$SHADEDGE
 70
     3
  9
$SHADEDIF
 70
    70
  9
$TILEMODE
 70
     1
  9
$MAXACTVP
 70
    16
  9
$PINSBASE
 10
0.0
 20
0.0
 30
0.0
  9
$PLIMCHECK
 70
     0
  9
$PEXTMIN
 10
1.000000000000000E+20
 20
1.000000000000000E+20
 30
1.000000000000000E+20
  9
$PEXTMAX
 10
-1.000000000000000E+20
 20
-1.000000000000000E+20
 30
-1.000000000000000E+20
  9
$PLIMMIN
 10
0.0
 20
0.0
  9
$PLIMMAX
 10
420.0
 20
297.0
  9
$UNITMODE
 70
     0
  9
$VISRETAIN
 70
     0
  9
$PLINEGEN
 70
     0
  9
$PSLTSCALE
 70
     0
  9
$TREEDEPTH
 70
  3020
  9
$CMLSTYLE
  2
STANDARD
  9
$CMLJUST
 70
     0
  9
$CMLSCALE
 40
1.0
  9
$PROXYGRAPHICS
 70
     1
  9
$MEASUREMENT
 70
     1
  9
$CELWEIGHT
370
    -1
  9
$ENDCAPS
280
     0
  9
$JOINSTYLE
280
     0
  9
$LWDISPLAY
290
     0
  9
$INSUNITS
 70
     0
  9
$HYPERLINKBASE
  1

  9
$STYLESHEET
  1

  9
$XEDIT
290
     1
  9
$CEPSNTYPE
380
     0
  9
$PSTYLEMODE
290
     1
  9
$FINGERPRINTGUID
  2
{62B5C1AA-8FBD-4224-83AA-8F9BE73B9F16}
  9
$VERSIONGUID
  2
{4BEC877D-5775-4D96-845B-BFE167EF0755}
  9
$EXTNAMES
290
     1
  9
$PSVPSCALE
 40
0.0
  9
$OLESTARTUP
290
     0
  0
ENDSEC
  0
SECTION
  2
CLASSES
  0
CLASS
  1
ACDBDICTIONARYWDFLT
  2
AcDbDictionaryWithDefault
  3
ObjectDBX Classes
 90
        0
280
     0
281
     0
  0
CLASS
  1
DICTIONARYVAR
  2
AcDbDictionaryVar
  3
ObjectDBX Classes
 90
        0
280
     0
281
     0
  0
CLASS
  1
ACDBPLACEHOLDER
  2
AcDbPlaceHolder
  3
ObjectDBX Classes
 90
        0
280
     0
281
     0
  0
CLASS
  1
LAYOUT
  2
AcDbLayout
  3
ObjectDBX Classes
 90
        0
280
     0
281
     0
  0
ENDSEC
  0
SECTION
  2
TABLES
  0
TABLE
  2
VPORT
  5
746D
330
0
100
AcDbSymbolTable
 70
     2
  0
VPORT
  5
1AC75
330
746D
100
AcDbSymbolTableRecord
100
AcDbViewportTableRecord
  2
*Active
 70
     0
 10
0.0
 20
0.0
 11
1.0
 21
1.0
 12
8223.761025238502
 22
6348.767642148464
 13
0.0
 23
0.0
 14
10.0
 24
10.0
 15
10.0
 25
10.0
 16
0.0
 26
0.0
 36
1.0
 17
0.0
 27
0.0
 37
0.0
 40
12805.3711672054
 41
1.525925925925925
 42
50.0
 43
0.0
 44
0.0
 50
0.0
 51
0.0
 71
     0
 72
     0
 73
     1
 74
     0
 75
     0
 76
     0
 77
     0
 78
     0
281
     0
 65
     1
110
0.0
120
0.0
130
0.0
111
1.0
121
0.0
131
0.0
112
0.0
122
1.0
132
0.0
 79
     0
146
0.0
  0
ENDTAB
  0
TABLE
  2
LTYPE
  5
746A
330
0
100
AcDbSymbolTable
 70
     5
  0
LTYPE
  5
7477
330
746A
100
AcDbSymbolTableRecord
100
AcDbLinetypeTableRecord
  2
BYBLOCK
 70
     0
  3

 72
    65
 73
     0
 40
0.0
  0
LTYPE
  5
7478
330
746A
100
AcDbSymbolTableRecord
100
AcDbLinetypeTableRecord
  2
BYLAYER
 70
     0
  3

 72
    65
 73
     0
 40
0.0
  0
LTYPE
  5
7479
330
746A
100
AcDbSymbolTableRecord
100
AcDbLinetypeTableRecord
  2
CONTINUOUS
 70
     0
  3
Solid line
 72
    65
 73
     0
 40
0.0
  0
LTYPE
  5
7816
330
746A
100
AcDbSymbolTableRecord
100
AcDbLinetypeTableRecord
  2
CENTER
 70
     0
  3
____ _ ____ _ ____ _ ____ _ ____ _ ____ _ ____ 
 72
    65
 73
     4
 40
2.0
 49
1.25
 74
     0
 49
-0.25
 74
     0
 49
0.25
 74
     0
 49
-0.25
 74
     0
  0
LTYPE
  5
781A
330
746A
100
AcDbSymbolTableRecord
100
AcDbLinetypeTableRecord
  2
HIDDEN
 70
     0
  3
__ __ __ __ __ __ __ __ __ __ __ __ __ __ __ __
 72
    65
 73
     2
 40
0.375
 49
0.25
 74
     0
 49
-0.125
 74
     0
  0
LTYPE
  5
781B
330
746A
100
AcDbSymbolTableRecord
100
AcDbLinetypeTableRecord
  2
PHANTOM
 70
     0
  3
______  __  __  ______  __  __  ______  __  __ 
 72
    65
 73
     6
 40
2.5
 49
1.25
 74
     0
 49
-0.25
 74
     0
 49
0.25
 74
     0
 49
-0.25
 74
     0
 49
0.25
 74
     0
 49
-0.25
 74
     0
  0
LTYPE
  5
12CC3
330
746A
100
AcDbSymbolTableRecord
100
AcDbLinetypeTableRecord
  2
HIDDENX2
 70
     0
  3
Hidden (2x) ____ ____ ____ ____ ____ ____ ____
 72
    65
 73
     2
 40
19.05
 49
12.7
 74
     0
 49
-6.349999999999999
 74
     0
  0
ENDTAB
  0
TABLE
  2
LAYER
  5
7467
102
{ACAD_XDICTIONARY
360
18516
102
}
330
0
100
AcDbSymbolTable
 70
    12
  0
LAYER
  5
7474
330
7467
100
AcDbSymbolTableRecord
100
AcDbLayerTableRecord
  2
0
 70
     0
 62
     7
  6
CONTINUOUS
370
    -3
390
1834B
  0
LAYER
  5
DEB2
330
7467
100
AcDbSymbolTableRecord
100
AcDbLayerTableRecord
  2
センター
 70
     0
 62
     3
  6
CENTER
370
    -3
390
1834B
  0
LAYER
  5
DEB3
330
7467
100
AcDbSymbolTableRecord
100
AcDbLayerTableRecord
  2
寸法
 70
     0
 62
     4
  6
CONTINUOUS
370
    -3
390
1834B
  0
LAYER
  5
DEB4
330
7467
100
AcDbSymbolTableRecord
100
AcDbLayerTableRecord
  2
部品1
 70
     0
 62
     7
  6
CONTINUOUS
370
    -3
390
1834B
  0
LAYER
  5
DEB5
330
7467
100
AcDbSymbolTableRecord
100
AcDbLayerTableRecord
  2
補助
 70
     0
 62
    -1
  6
CONTINUOUS
370
    -3
390
1834B
  0
LAYER
  5
DEB6
330
7467
100
AcDbSymbolTableRecord
100
AcDbLayerTableRecord
  2
文字
 70
     0
 62
     7
  6
CONTINUOUS
370
    -3
390
1834B
  0
LAYER
  5
F255
330
7467
100
AcDbSymbolTableRecord
100
AcDbLayerTableRecord
  2
DEFPOINTS
 70
     0
 62
     7
  6
CONTINUOUS
290
     0
370
    -3
390
1834B
  0
LAYER
  5
10B54
330
7467
100
AcDbSymbolTableRecord
100
AcDbLayerTableRecord
  2
仕様書枠
 70
     0
 62
   230
  6
CONTINUOUS
370
    -3
390
1834B
  0
LAYER
  5
11729
330
7467
100
AcDbSymbolTableRecord
100
AcDbLayerTableRecord
  2
Ｇ．Ｌ
 70
     0
 62
    30
  6
CONTINUOUS
370
    -3
390
1834B
  0
LAYER
  5
1173F
330
7467
100
AcDbSymbolTableRecord
100
AcDbLayerTableRecord
  2
細線
 70
     0
 62
     5
  6
CONTINUOUS
370
    -3
390
1834B
  0
LAYER
  5
12CC4
330
7467
100
AcDbSymbolTableRecord
100
AcDbLayerTableRecord
  2
想像線
 70
     0
 62
     6
  6
PHANTOM
370
    -3
390
1834B
  0
LAYER
  5
142E2
330
7467
100
AcDbSymbolTableRecord
100
AcDbLayerTableRecord
  2
破線
 70
     0
 62
     2
  6
HIDDEN
370
    -3
390
1834B
  0
ENDTAB
  0
TABLE
  2
STYLE
  5
7468
330
0
100
AcDbSymbolTable
 70
     7
  0
STYLE
  5
7475
330
7468
100
AcDbSymbolTableRecord
100
AcDbTextStyleTableRecord
  2
STANDARD
 70
     0
 40
0.0
 41
1.0
 50
0.0
 71
     0
 42
4.0
  3
txt
  4
C:\AutoCAD LT\bigfont.shx
  0
STYLE
  5
763C
330
7468
100
AcDbSymbolTableRecord
100
AcDbTextStyleTableRecord
  2
MSMINCHO
 70
     0
 40
0.0
 41
1.0
 50
0.0
 71
     0
 42
1.199999999999999
  3
C:\AutoCAD LT\msminch2.TTF
  4

  0
STYLE
  5
F706
330
7468
100
AcDbSymbolTableRecord
100
AcDbTextStyleTableRecord
  2
STYLE1
 70
     0
 40
0.0
 41
1.0
 50
0.0
 71
     0
 42
4.0
  3
isocp.shx
  4
bigfont.shx
  0
STYLE
  5
103BF
330
7468
100
AcDbSymbolTableRecord
100
AcDbTextStyleTableRecord
  2
STYLE2
 70
     0
 40
0.0
 41
1.0
 50
0.0
 71
     0
 42
100.0
  3
MS PGothic.ttf
  4

1001
ACAD
1000
MS PGothic
1071
    32818
  0
STYLE
  5
10BAA
330
7468
100
AcDbSymbolTableRecord
100
AcDbTextStyleTableRecord
  2
STYLE3
 70
     0
 40
0.0
 41
1.0
 50
0.0
 71
     0
 42
100.0
  3

  4

1001
ACAD
1000
DFPGothic-EB
1071
    32818
  0
STYLE
  5
11A15
330
7468
100
AcDbSymbolTableRecord
100
AcDbTextStyleTableRecord
  2
MSGOTHIC
 70
     0
 40
0.0
 41
1.0
 50
0.0
 71
     0
 42
3.5
  3
msgothi2.ttf
  4

  0
STYLE
  5
13E96
330
7468
100
AcDbSymbolTableRecord
100
AcDbTextStyleTableRecord
  2
MSPゴシック
 70
     0
 40
0.0
 41
1.0
 50
0.0
 71
     0
 42
4.0
  3
MS PGothic.ttf
  4

1001
ACAD
1000
MS PGothic
1071
    32818
  0
ENDTAB
  0
TABLE
  2
VIEW
  5
746B
330
0
100
AcDbSymbolTable
 70
     0
  0
ENDTAB
  0
TABLE
  2
UCS
  5
746C
330
0
100
AcDbSymbolTable
 70
     0
  0
ENDTAB
  0
TABLE
  2
APPID
  5
746E
330
0
100
AcDbSymbolTable
 70
     6
  0
APPID
  5
7476
330
746E
100
AcDbSymbolTableRecord
100
AcDbRegAppTableRecord
  2
ACAD
 70
     0
  0
APPID
  5
DEA9
330
746E
100
AcDbSymbolTableRecord
100
AcDbRegAppTableRecord
  2
CONTENTBLOCKICON
 70
     0
  0
APPID
  5
DEAA
330
746E
100
AcDbSymbolTableRecord
100
AcDbRegAppTableRecord
  2
CONTENTBLOCKDESCRIPTION
 70
     0
  0
APPID
  5
E71D
330
746E
100
AcDbSymbolTableRecord
100
AcDbRegAppTableRecord
  2
CONTENTTABDATA
 70
     0
  0
APPID
  5
E71E
330
746E
100
AcDbSymbolTableRecord
100
AcDbRegAppTableRecord
  2
CONTENTCURRENTTAB
 70
     0
  0
APPID
  5
F3BA
330
746E
100
AcDbSymbolTableRecord
100
AcDbRegAppTableRecord
  2
DRAWINGVARIABLESXDATA
 70
     0
  0
ENDTAB
  0
TABLE
  2
DIMSTYLE
  5
746F
330
0
100
AcDbSymbolTable
 70
     7
100
AcDbDimStyleTable
 71
     1
340
F71F
  0
DIMSTYLE
105
7484
330
746F
100
AcDbSymbolTableRecord
100
AcDbDimStyleTableRecord
  2
JIS
 70
     0
 41
2.5
 42
1.0
 43
7.0
 44
1.0
 73
     0
 74
     0
 77
     1
 78
     8
140
2.5
141
0.0
143
0.0394
147
0.0
172
     1
174
     1
175
     1
340
7475
  0
DIMSTYLE
105
F236
102
{ACAD_REACTORS
330
19179
330
1995D
330
19C2B
102
}
330
746F
100
AcDbSymbolTableRecord
100
AcDbDimStyleTableRecord
  2
INABA_S40
 70
     0
 40
40.0
 41
2.5
 42
0.5
 43
7.0
 44
1.5
 73
     0
 74
     0
 77
     3
 78
     8
140
3.0
141
0.0
143
0.0394
147
1.0
172
     1
173
     1
174
     1
175
     1
178
     7
289
     0
340
7475
341
DEAC
343
DEAC
344
DEAC
  0
DIMSTYLE
105
F71F
102
{ACAD_REACTORS
330
18AC4
330
18AC5
330
18AC6
330
18AC7
330
188D5
330
188D6
330
188F0
330
188F2
330
1890E
330
18916
330
18919
330
189D5
330
189E2
330
189EE
330
189F0
330
1917C
330
1917D
330
1917E
330
191AE
330
191B2
330
191B3
330
191B4
330
191C2
330
191D1
330
19C2A
330
19D41
102
}
330
746F
100
AcDbSymbolTableRecord
100
AcDbDimStyleTableRecord
  2
INABA_S40G
 70
     0
 40
40.0
 41
2.5
 42
0.5
 43
7.0
 44
1.5
 73
     0
 74
     0
 77
     3
 78
     8
140
3.0
141
0.0
143
0.0394
147
1.0
172
     1
173
     1
174
     1
178
     7
271
     1
340
F706
341
F770
343
F770
344
F770
  0
DIMSTYLE
105
142E3
330
746F
100
AcDbSymbolTableRecord
100
AcDbDimStyleTableRecord
  2
INABA_S1
 70
     0
 40
0.0
 41
2.5
 42
0.5
 43
7.0
 44
1.5
 73
     0
 74
     0
 77
     3
 78
     8
140
3.0
141
0.0
143
0.0394
146
0.5
147
0.5
172
     1
173
     1
176
   256
177
   256
178
     7
271
     2
272
     2
284
     8
288
     1
340
7475
341
DEAC
343
DEAC
344
DEAC
  0
DIMSTYLE
105
14463
330
746F
100
AcDbSymbolTableRecord
100
AcDbDimStyleTableRecord
  2
INABA_S30G
 70
     0
 40
30.0
 41
2.5
 42
0.5
 43
7.0
 44
1.5
 73
     0
 74
     0
 77
     3
 78
     8
140
3.0
141
0.0
143
0.0394
147
1.0
172
     1
173
     1
174
     1
175
     1
178
     7
271
     1
340
F706
341
F770
343
F770
344
F770
  0
DIMSTYLE
105
19853
330
746F
100
AcDbSymbolTableRecord
100
AcDbDimStyleTableRecord
  2
INABA_S50G
 70
     0
 41
125.0
 42
25.0
 43
7.0
 44
75.0
 73
     0
 74
     0
 77
     3
 78
     8
140
150.0
141
0.0
143
0.0394
147
25.0
172
     1
173
     1
174
     1
175
     1
178
     7
271
     1
340
F706
341
F770
343
F770
344
F770
  0
DIMSTYLE
105
1AC0D
330
746F
100
AcDbSymbolTableRecord
100
AcDbDimStyleTableRecord
  2
INABA_S20G
 70
     0
 40
20.0
 41
2.5
 42
0.5
 43
7.0
 44
1.5
 73
     0
 74
     0
 77
     3
 78
     8
140
3.0
141
0.0
143
0.0394
147
1.0
172
     1
173
     1
174
     1
178
     7
271
     1
340
F706
341
F770
343
F770
344
F770
  0
ENDTAB
  0
TABLE
  2
BLOCK_RECORD
  5
7466
330
0
100
AcDbSymbolTable
 70
    32
  0
BLOCK_RECORD
  5
747D
330
7466
100
AcDbSymbolTableRecord
100
AcDbBlockTableRecord
  2
*MODEL_SPACE
340
18350
  0
BLOCK_RECORD
  5
747A
330
7466
100
AcDbSymbolTableRecord
100
AcDbBlockTableRecord
  2
*PAPER_SPACE
340
18351
  0
BLOCK_RECORD
  5
DEAC
330
7466
100
AcDbSymbolTableRecord
100
AcDbBlockTableRecord
  2
_OPEN
340
0
  0
BLOCK_RECORD
  5
F770
330
7466
100
AcDbSymbolTableRecord
100
AcDbBlockTableRecord
  2
_DOTSMALL
340
0
102
{BLKREFS
331
19EBF
331
19EC0
331
19ED3
331
19ED4
331
19EE5
331
19EE6
331
19EEE
331
19EEF
331
19EF7
331
19EF8
331
19F00
331
19F01
331
19F09
331
19F0A
331
19F12
331
19F13
331
19F1D
331
19F1E
331
19F26
331
19F27
331
19F31
331
19F32
331
19F3C
331
19F3D
331
19F47
331
19F48
331
1AADC
331
1AADD
331
1AAE7
331
1AAE8
331
1AAF0
331
1AAF1
331
1AAF9
331
1AAFA
331
1AB32
331
1AB33
331
1AB3C
331
1AB3D
331
1AB45
331
1AB46
331
1AB50
331
1AB51
331
1AB59
331
1AB5A
331
1AB6C
331
1AB6D
331
1AB93
331
1AB94
331
1AB9C
331
1AB9D
331
1ABB0
331
1ABB1
102
}
  0
BLOCK_RECORD
  5
164B4
330
7466
100
AcDbSymbolTableRecord
100
AcDbBlockTableRecord
  2
_DOT
340
0
102
{BLKREFS
331
19ECA
331
19ECB
331
19EDC
331
19EDD
331
1ABA5
331
1ABA6
102
}
  0
BLOCK_RECORD
  5
18AD4
330
7466
100
AcDbSymbolTableRecord
100
AcDbBlockTableRecord
  2
*D3
340
0
  0
BLOCK_RECORD
  5
18AE0
330
7466
100
AcDbSymbolTableRecord
100
AcDbBlockTableRecord
  2
*D4
340
0
  0
BLOCK_RECORD
  5
18AEC
330
7466
100
AcDbSymbolTableRecord
100
AcDbBlockTableRecord
  2
*D5
340
0
  0
BLOCK_RECORD
  5
18AFA
330
7466
100
AcDbSymbolTableRecord
100
AcDbBlockTableRecord
  2
*D6
340
0
  0
BLOCK_RECORD
  5
18B2C
330
7466
100
AcDbSymbolTableRecord
100
AcDbBlockTableRecord
  2
*D7
340
0
  0
BLOCK_RECORD
  5
18B3A
330
7466
100
AcDbSymbolTableRecord
100
AcDbBlockTableRecord
  2
*D8
340
0
  0
BLOCK_RECORD
  5
18B48
330
7466
100
AcDbSymbolTableRecord
100
AcDbBlockTableRecord
  2
*D9
340
0
  0
BLOCK_RECORD
  5
18B56
330
7466
100
AcDbSymbolTableRecord
100
AcDbBlockTableRecord
  2
*D10
340
0
  0
BLOCK_RECORD
  5
18B70
330
7466
100
AcDbSymbolTableRecord
100
AcDbBlockTableRecord
  2
*D11
340
0
  0
BLOCK_RECORD
  5
18B7E
330
7466
100
AcDbSymbolTableRecord
100
AcDbBlockTableRecord
  2
*D12
340
0
  0
BLOCK_RECORD
  5
18B8A
330
7466
100
AcDbSymbolTableRecord
100
AcDbBlockTableRecord
  2
*D13
340
0
  0
BLOCK_RECORD
  5
18BAE
330
7466
100
AcDbSymbolTableRecord
100
AcDbBlockTableRecord
  2
*D14
340
0
  0
BLOCK_RECORD
  5
18BBA
330
7466
100
AcDbSymbolTableRecord
100
AcDbBlockTableRecord
  2
*D15
340
0
  0
BLOCK_RECORD
  5
18BC6
330
7466
100
AcDbSymbolTableRecord
100
AcDbBlockTableRecord
  2
*D16
340
0
  0
BLOCK_RECORD
  5
18BD2
330
7466
100
AcDbSymbolTableRecord
100
AcDbBlockTableRecord
  2
*D17
340
0
  0
BLOCK_RECORD
  5
192E3
330
7466
100
AcDbSymbolTableRecord
100
AcDbBlockTableRecord
  2
*D18
340
0
  0
BLOCK_RECORD
  5
192EF
330
7466
100
AcDbSymbolTableRecord
100
AcDbBlockTableRecord
  2
*D19
340
0
  0
BLOCK_RECORD
  5
192FB
330
7466
100
AcDbSymbolTableRecord
100
AcDbBlockTableRecord
  2
*D20
340
0
  0
BLOCK_RECORD
  5
19307
330
7466
100
AcDbSymbolTableRecord
100
AcDbBlockTableRecord
  2
*D21
340
0
  0
BLOCK_RECORD
  5
19313
330
7466
100
AcDbSymbolTableRecord
100
AcDbBlockTableRecord
  2
*D22
340
0
  0
BLOCK_RECORD
  5
19321
330
7466
100
AcDbSymbolTableRecord
100
AcDbBlockTableRecord
  2
*D23
340
0
  0
BLOCK_RECORD
  5
1932D
330
7466
100
AcDbSymbolTableRecord
100
AcDbBlockTableRecord
  2
*D24
340
0
  0
BLOCK_RECORD
  5
1933B
330
7466
100
AcDbSymbolTableRecord
100
AcDbBlockTableRecord
  2
*D25
340
0
  0
BLOCK_RECORD
  5
19347
330
7466
100
AcDbSymbolTableRecord
100
AcDbBlockTableRecord
  2
*D26
340
0
  0
BLOCK_RECORD
  5
19354
330
7466
100
AcDbSymbolTableRecord
100
AcDbBlockTableRecord
  2
*D27
340
0
  0
BLOCK_RECORD
  5
199C8
330
7466
100
AcDbSymbolTableRecord
100
AcDbBlockTableRecord
  2
*D28
340
0
  0
BLOCK_RECORD
  5
19D50
330
7466
100
AcDbSymbolTableRecord
100
AcDbBlockTableRecord
  2
*D29
340
0
  0
BLOCK_RECORD
  5
19D5C
330
7466
100
AcDbSymbolTableRecord
100
AcDbBlockTableRecord
  2
*D30
340
0
  0
BLOCK_RECORD
  5
19DC0
330
7466
100
AcDbSymbolTableRecord
100
AcDbBlockTableRecord
  2
*D31
340
0
  0
ENDTAB
  0
ENDSEC
  0
SECTION
  2
BLOCKS
  0
BLOCK
  5
7489
330
747D
100
AcDbEntity
  8
0
100
AcDbBlockBegin
  2
*MODEL_SPACE
 70
     0
 10
0.0
 20
0.0
 30
0.0
  3
*MODEL_SPACE
  1

  0
ENDBLK
  5
748A
330
747D
100
AcDbEntity
  8
0
100
AcDbBlockEnd
  0
BLOCK
  5
7487
330
747A
100
AcDbEntity
 67
     1
  8
0
100
AcDbBlockBegin
  2
*PAPER_SPACE
 70
     0
 10
0.0
 20
0.0
 30
0.0
  3
*PAPER_SPACE
  1

  0
ENDBLK
  5
7488
330
747A
100
AcDbEntity
 67
     1
  8
0
100
AcDbBlockEnd
  0
BLOCK
  5
DEAD
330
DEAC
100
AcDbEntity
  8
0
100
AcDbBlockBegin
  2
_OPEN
 70
     0
 10
0.0
 20
0.0
 30
0.0
  3
_OPEN
  1

  0
LINE
  5
DEAE
330
DEAC
100
AcDbEntity
  8
0
  6
ByBlock
 62
     0
100
AcDbLine
 10
-1.0
 20
0.1666666666666666
 30
0.0
 11
0.0
 21
0.0
 31
0.0
  0
LINE
  5
DEAF
330
DEAC
100
AcDbEntity
  8
0
  6
ByBlock
 62
     0
100
AcDbLine
 10
0.0
 20
0.0
 30
0.0
 11
-1.0
 21
-0.1666666666666666
 31
0.0
  0
LINE
  5
DEB0
330
DEAC
100
AcDbEntity
  8
0
  6
ByBlock
 62
     0
100
AcDbLine
 10
0.0
 20
0.0
 30
0.0
 11
-1.0
 21
0.0
 31
0.0
  0
ENDBLK
  5
DEB1
330
DEAC
100
AcDbEntity
  8
0
100
AcDbBlockEnd
  0
BLOCK
  5
F771
330
F770
100
AcDbEntity
  8
0
 48
50.0
100
AcDbBlockBegin
  2
_DOTSMALL
 70
     0
 10
0.0
 20
0.0
 30
0.0
  3
_DOTSMALL
  1

  0
LWPOLYLINE
  5
F772
330
F770
100
AcDbEntity
  8
0
  6
ByBlock
 62
     0
 48
50.0
100
AcDbPolyline
 90
        2
 70
     1
 43
0.5
 10
-0.0625
 20
0.0
 42
1.0
 10
0.0625
 20
0.0
 42
1.0
  0
ENDBLK
  5
F776
330
F770
100
AcDbEntity
  8
0
 48
50.0
100
AcDbBlockEnd
  0
BLOCK
  5
164BA
330
164B4
100
AcDbEntity
  8
0
 48
50.0
100
AcDbBlockBegin
  2
_DOT
 70
     0
 10
0.0
 20
0.0
 30
0.0
  3
_DOT
  1

  0
LWPOLYLINE
  5
164B5
330
164B4
100
AcDbEntity
  8
0
  6
ByBlock
 62
     0
 48
50.0
100
AcDbPolyline
 90
        2
 70
     1
 43
0.5
 10
-0.25
 20
0.0
 42
1.0
 10
0.25
 20
0.0
 42
1.0
  0
LINE
  5
164B9
330
164B4
100
AcDbEntity
  8
0
  6
ByBlock
 62
     0
 48
50.0
100
AcDbLine
 10
-0.5
 20
0.0
 30
0.0
 11
-1.0
 21
0.0
 31
0.0
  0
ENDBLK
  5
164BB
330
164B4
100
AcDbEntity
  8
0
 48
50.0
100
AcDbBlockEnd
  0
BLOCK
  5
18ADE
330
18AD4
100
AcDbEntity
  8
0
 48
50.0
100
AcDbBlockBegin
  2
*D3
 70
     1
 10
0.0
 20
0.0
 30
0.0
  3
*D3
  1

  0
LINE
  5
1AAF6
330
18AD4
100
AcDbEntity
  8
寸法
 62
     0
 48
50.0
370
    -2
100
AcDbLine
 10
7147.585229546447
 20
4227.178294807157
 30
0.0
 11
7147.585229546447
 21
4479.719880065398
 31
0.0
  0
LINE
  5
1AAF7
330
18AD4
100
AcDbEntity
  8
寸法
 62
     0
 48
50.0
370
    -2
100
AcDbLine
 10
3677.585229546443
 20
4227.178294807163
 30
0.0
 11
3677.585229546443
 21
4479.719880065398
 31
0.0
  0
LINE
  5
1AAF8
330
18AD4
100
AcDbEntity
  8
寸法
 62
     0
 48
50.0
370
    -2
100
AcDbLine
 10
7147.585229546447
 20
4419.719880065398
 30
0.0
 11
3677.585229546443
 21
4419.719880065398
 31
0.0
  0
INSERT
  5
1AAF9
330
18AD4
100
AcDbEntity
  8
寸法
 62
     0
 48
50.0
370
    -2
100
AcDbBlockReference
  2
_DOTSMALL
 10
7147.585229546447
 20
4419.719880065398
 30
0.0
 41
100.0
 42
100.0
 43
100.0
  0
INSERT
  5
1AAFA
330
18AD4
100
AcDbEntity
  8
寸法
 62
     0
 48
50.0
370
    -2
100
AcDbBlockReference
  2
_DOTSMALL
 10
3677.585229546443
 20
4419.719880065398
 30
0.0
 41
100.0
 42
100.0
 43
100.0
 50
180.0
  0
MTEXT
  5
1AAFB
330
18AD4
100
AcDbEntity
  8
寸法
 62
     7
 48
50.0
100
AcDbMText
 10
5412.585229546451
 20
4519.719880065397
 30
0.0
 40
120.0
 41
0.0
 71
     5
 72
     1
  1
\A1;柱外寸法3470
  7
STYLE1
 73
     1
 44
1.0
1001
ACAD
1000
MTEXTBEGIN
1070
    73
1070
     1
1070
    44
1040
1.0
1070
    74
1070
     0
1000
MTEXTEND
  0
POINT
  5
1AAFC
330
18AD4
100
AcDbEntity
  8
DEFPOINTS
 62
     0
 48
50.0
100
AcDbPoint
 10
7147.585229546447
 20
4207.178294807158
 30
0.0
  0
POINT
  5
1AAFD
330
18AD4
100
AcDbEntity
  8
DEFPOINTS
 62
     0
 48
50.0
100
AcDbPoint
 10
3677.585229546443
 20
4207.178294807162
 30
0.0
  0
POINT
  5
1AAFE
330
18AD4
100
AcDbEntity
  8
DEFPOINTS
 62
     0
 48
50.0
100
AcDbPoint
 10
3677.585229546443
 20
4419.719880065398
 30
0.0
  0
ENDBLK
  5
18ADF
330
18AD4
100
AcDbEntity
  8
0
 48
50.0
100
AcDbBlockEnd
  0
BLOCK
  5
18AEA
330
18AE0
100
AcDbEntity
  8
0
 48
50.0
100
AcDbBlockBegin
  2
*D4
 70
     1
 10
0.0
 20
0.0
 30
0.0
  3
*D4
  1

  0
LINE
  5
1AAED
330
18AE0
100
AcDbEntity
  8
寸法
 62
     0
 48
50.0
370
    -2
100
AcDbLine
 10
3627.585229546443
 20
4227.17829480716
 30
0.0
 11
3627.585229546443
 21
4700.625180539147
 31
0.0
  0
LINE
  5
1AAEE
330
18AE0
100
AcDbEntity
  8
寸法
 62
     0
 48
50.0
370
    -2
100
AcDbLine
 10
7197.585229546446
 20
4227.178294807155
 30
0.0
 11
7197.585229546446
 21
4700.625180539147
 31
0.0
  0
LINE
  5
1AAEF
330
18AE0
100
AcDbEntity
  8
寸法
 62
     0
 48
50.0
370
    -2
100
AcDbLine
 10
3627.585229546443
 20
4640.625180539148
 30
0.0
 11
7197.585229546446
 21
4640.625180539148
 31
0.0
  0
INSERT
  5
1AAF0
330
18AE0
100
AcDbEntity
  8
寸法
 62
     0
 48
50.0
370
    -2
100
AcDbBlockReference
  2
_DOTSMALL
 10
3627.585229546443
 20
4640.625180539148
 30
0.0
 41
100.0
 42
100.0
 43
100.0
 50
180.0
  0
INSERT
  5
1AAF1
330
18AE0
100
AcDbEntity
  8
寸法
 62
     0
 48
50.0
370
    -2
100
AcDbBlockReference
  2
_DOTSMALL
 10
7197.585229546446
 20
4640.625180539148
 30
0.0
 41
100.0
 42
100.0
 43
100.0
  0
MTEXT
  5
1AAF2
330
18AE0
100
AcDbEntity
  8
寸法
 62
     7
 48
50.0
100
AcDbMText
 10
5412.585229546451
 20
4740.625180539147
 30
0.0
 40
120.0
 41
0.0
 71
     5
 72
     1
  1
\A1;3570
  7
STYLE1
 73
     1
 44
1.0
1001
ACAD
1000
MTEXTBEGIN
1070
    73
1070
     1
1070
    44
1040
1.0
1070
    74
1070
     0
1000
MTEXTEND
  0
POINT
  5
1AAF3
330
18AE0
100
AcDbEntity
  8
DEFPOINTS
 62
     0
 48
50.0
100
AcDbPoint
 10
3627.585229546443
 20
4207.17829480716
 30
0.0
  0
POINT
  5
1AAF4
330
18AE0
100
AcDbEntity
  8
DEFPOINTS
 62
     0
 48
50.0
100
AcDbPoint
 10
7197.585229546446
 20
4207.178294807156
 30
0.0
  0
POINT
  5
1AAF5
330
18AE0
100
AcDbEntity
  8
DEFPOINTS
 62
     0
 48
50.0
100
AcDbPoint
 10
7197.585229546446
 20
4640.625180539148
 30
0.0
  0
ENDBLK
  5
18AEB
330
18AE0
100
AcDbEntity
  8
0
 48
50.0
100
AcDbBlockEnd
  0
BLOCK
  5
18AF8
330
18AEC
100
AcDbEntity
  8
0
 48
50.0
100
AcDbBlockBegin
  2
*D5
 70
     1
 10
0.0
 20
0.0
 30
0.0
  3
*D5
  1

  0
LINE
  5
1AAE2
330
18AEC
100
AcDbEntity
  8
寸法
 62
     0
 48
50.0
370
    -2
100
AcDbLine
 10
3677.585229546443
 20
4227.178294807163
 30
0.0
 11
3677.585229546443
 21
4479.719880065399
 31
0.0
  0
LINE
  5
1AAE3
330
18AEC
100
AcDbEntity
  8
寸法
 62
     0
 48
50.0
370
    -2
100
AcDbLine
 10
3627.585229546443
 20
4227.17829480716
 30
0.0
 11
3627.585229546443
 21
4479.719880065399
 31
0.0
  0
LINE
  5
1AAE4
330
18AEC
100
AcDbEntity
  8
寸法
 62
     0
 48
50.0
370
    -2
100
AcDbLine
 10
3677.585229546443
 20
4419.719880065399
 30
0.0
 11
3777.585229546443
 21
4419.719880065399
 31
0.0
  0
LINE
  5
1AAE5
330
18AEC
100
AcDbEntity
  8
寸法
 62
     0
 48
50.0
370
    -2
100
AcDbLine
 10
3627.585229546443
 20
4419.719880065399
 30
0.0
 11
3208.052704077708
 21
4419.719880065399
 31
0.0
  0
LINE
  5
1AAE6
330
18AEC
100
AcDbEntity
  8
寸法
 62
     0
 48
50.0
370
    -2
100
AcDbLine
 10
3677.585229546443
 20
4419.719880065399
 30
0.0
 11
3627.585229546443
 21
4419.719880065399
 31
0.0
  0
INSERT
  5
1AAE7
330
18AEC
100
AcDbEntity
  8
寸法
 62
     0
 48
50.0
370
    -2
100
AcDbBlockReference
  2
_DOTSMALL
 10
3677.585229546443
 20
4419.719880065399
 30
0.0
 41
100.0
 42
100.0
 43
100.0
 50
180.0
  0
INSERT
  5
1AAE8
330
18AEC
100
AcDbEntity
  8
寸法
 62
     0
 48
50.0
370
    -2
100
AcDbBlockReference
  2
_DOTSMALL
 10
3627.585229546443
 20
4419.719880065399
 30
0.0
 41
100.0
 42
100.0
 43
100.0
  0
MTEXT
  5
1AAE9
330
18AEC
100
AcDbEntity
  8
寸法
 62
     7
 48
50.0
100
AcDbMText
 10
3314.099948172195
 20
4519.7198800654
 30
0.0
 40
120.0
 41
0.0
 71
     5
 72
     1
  1
\A1;50
  7
STYLE1
 73
     1
 44
1.0
1001
ACAD
1000
MTEXTBEGIN
1070
    73
1070
     1
1070
    44
1040
1.0
1070
    74
1070
     0
1000
MTEXTEND
  0
POINT
  5
1AAEA
330
18AEC
100
AcDbEntity
  8
DEFPOINTS
 62
     0
 48
50.0
100
AcDbPoint
 10
3677.585229546443
 20
4207.178294807162
 30
0.0
  0
POINT
  5
1AAEB
330
18AEC
100
AcDbEntity
  8
DEFPOINTS
 62
     0
 48
50.0
100
AcDbPoint
 10
3627.585229546443
 20
4207.17829480716
 30
0.0
  0
POINT
  5
1AAEC
330
18AEC
100
AcDbEntity
  8
DEFPOINTS
 62
     0
 48
50.0
100
AcDbPoint
 10
3627.585229546443
 20
4419.719880065399
 30
0.0
  0
ENDBLK
  5
18AF9
330
18AEC
100
AcDbEntity
  8
0
 48
50.0
100
AcDbBlockEnd
  0
BLOCK
  5
18B06
330
18AFA
100
AcDbEntity
  8
0
 48
50.0
100
AcDbBlockBegin
  2
*D6
 70
     1
 10
0.0
 20
0.0
 30
0.0
  3
*D6
  1

  0
LINE
  5
1AAD7
330
18AFA
100
AcDbEntity
  8
寸法
 62
     0
 48
50.0
370
    -2
100
AcDbLine
 10
7197.585229546446
 20
4227.178294807155
 30
0.0
 11
7197.585229546446
 21
4479.719880065396
 31
0.0
  0
LINE
  5
1AAD8
330
18AFA
100
AcDbEntity
  8
寸法
 62
     0
 48
50.0
370
    -2
100
AcDbLine
 10
7147.585229546447
 20
4227.178294807157
 30
0.0
 11
7147.585229546447
 21
4479.719880065396
 31
0.0
  0
LINE
  5
1AAD9
330
18AFA
100
AcDbEntity
  8
寸法
 62
     0
 48
50.0
370
    -2
100
AcDbLine
 10
7147.585229546447
 20
4419.719880065397
 30
0.0
 11
7047.585229546446
 21
4419.719880065397
 31
0.0
  0
LINE
  5
1AADA
330
18AFA
100
AcDbEntity
  8
寸法
 62
     0
 48
50.0
370
    -2
100
AcDbLine
 10
7197.585229546446
 20
4419.719880065397
 30
0.0
 11
7617.117755015171
 21
4419.719880065397
 31
0.0
  0
LINE
  5
1AADB
330
18AFA
100
AcDbEntity
  8
寸法
 62
     0
 48
50.0
370
    -2
100
AcDbLine
 10
7147.585229546447
 20
4419.719880065397
 30
0.0
 11
7197.585229546446
 21
4419.719880065397
 31
0.0
  0
INSERT
  5
1AADC
330
18AFA
100
AcDbEntity
  8
寸法
 62
     0
 48
50.0
370
    -2
100
AcDbBlockReference
  2
_DOTSMALL
 10
7147.585229546447
 20
4419.719880065397
 30
0.0
 41
100.0
 42
100.0
 43
100.0
  0
INSERT
  5
1AADD
330
18AFA
100
AcDbEntity
  8
寸法
 62
     0
 48
50.0
370
    -2
100
AcDbBlockReference
  2
_DOTSMALL
 10
7197.585229546446
 20
4419.719880065397
 30
0.0
 41
100.0
 42
100.0
 43
100.0
 50
180.0
  0
MTEXT
  5
1AADE
330
18AFA
100
AcDbEntity
  8
寸法
 62
     7
 48
50.0
100
AcDbMText
 10
7511.070510920683
 20
4519.719880065397
 30
0.0
 40
120.0
 41
0.0
 71
     5
 72
     1
  1
\A1;50
  7
STYLE1
 73
     1
 44
1.0
1001
ACAD
1000
MTEXTBEGIN
1070
    73
1070
     1
1070
    44
1040
1.0
1070
    74
1070
     0
1000
MTEXTEND
  0
POINT
  5
1AADF
330
18AFA
100
AcDbEntity
  8
DEFPOINTS
 62
     0
 48
50.0
100
AcDbPoint
 10
7197.585229546446
 20
4207.178294807156
 30
0.0
  0
POINT
  5
1AAE0
330
18AFA
100
AcDbEntity
  8
DEFPOINTS
 62
     0
 48
50.0
100
AcDbPoint
 10
7147.585229546447
 20
4207.178294807158
 30
0.0
  0
POINT
  5
1AAE1
330
18AFA
100
AcDbEntity
  8
DEFPOINTS
 62
     0
 48
50.0
100
AcDbPoint
 10
7147.585229546447
 20
4419.719880065397
 30
0.0
  0
ENDBLK
  5
18B07
330
18AFA
100
AcDbEntity
  8
0
 48
50.0
100
AcDbBlockEnd
  0
BLOCK
  5
18B38
330
18B2C
100
AcDbEntity
  8
0
 48
50.0
100
AcDbBlockBegin
  2
*D7
 70
     1
 10
0.0
 20
0.0
 30
0.0
  3
*D7
  1

  0
LINE
  5
19F42
330
18B2C
100
AcDbEntity
  8
寸法
 62
     0
 48
50.0
370
    -2
100
AcDbLine
 10
7167.585229546451
 20
10326.11570167954
 30
0.0
 11
7855.011575280862
 21
10326.11570167954
 31
0.0
  0
LINE
  5
19F43
330
18B2C
100
AcDbEntity
  8
寸法
 62
     0
 48
50.0
370
    -2
100
AcDbLine
 10
7167.585229546451
 20
10271.11570167954
 30
0.0
 11
7855.011575280862
 21
10271.11570167954
 31
0.0
  0
LINE
  5
19F44
330
18B2C
100
AcDbEntity
  8
寸法
 62
     0
 48
50.0
370
    -2
100
AcDbLine
 10
7795.011575280861
 20
10271.11570167954
 30
0.0
 11
7795.011575280861
 21
10171.11570167954
 31
0.0
  0
LINE
  5
19F45
330
18B2C
100
AcDbEntity
  8
寸法
 62
     0
 48
50.0
370
    -2
100
AcDbLine
 10
7795.011575280861
 20
10326.11570167954
 30
0.0
 11
7795.011575280861
 21
10743.08626442801
 31
0.0
  0
LINE
  5
19F46
330
18B2C
100
AcDbEntity
  8
寸法
 62
     0
 48
50.0
370
    -2
100
AcDbLine
 10
7795.011575280861
 20
10271.11570167954
 30
0.0
 11
7795.011575280861
 21
10326.11570167954
 31
0.0
  0
INSERT
  5
19F47
330
18B2C
100
AcDbEntity
  8
寸法
 62
     0
 48
50.0
370
    -2
100
AcDbBlockReference
  2
_DOTSMALL
 10
7795.011575280861
 20
10271.11570167954
 30
0.0
 41
100.0
 42
100.0
 43
100.0
 50
90.0
  0
INSERT
  5
19F48
330
18B2C
100
AcDbEntity
  8
寸法
 62
     0
 48
50.0
370
    -2
100
AcDbBlockReference
  2
_DOTSMALL
 10
7795.011575280861
 20
10326.11570167954
 30
0.0
 41
100.0
 42
100.0
 43
100.0
 50
270.0
  0
MTEXT
  5
19F49
330
18B2C
100
AcDbEntity
  8
寸法
 62
     7
 48
50.0
100
AcDbMText
 10
7695.01157528086
 20
10634.60098305378
 30
0.0
 40
120.0
 41
0.0
 71
     5
 72
     1
  1
\A1;55
  7
STYLE1
 11
0.0000000000000001
 21
1.0
 31
0.0
 73
     1
 44
1.0
1001
ACAD
1000
MTEXTBEGIN
1070
    73
1070
     1
1070
    44
1040
1.0
1070
    74
1070
     0
1000
MTEXTEND
  0
POINT
  5
19F4A
330
18B2C
100
AcDbEntity
  8
DEFPOINTS
 62
     0
 48
50.0
100
AcDbPoint
 10
7147.58522954645
 20
10326.11570167954
 30
0.0
  0
POINT
  5
19F4B
330
18B2C
100
AcDbEntity
  8
DEFPOINTS
 62
     0
 48
50.0
100
AcDbPoint
 10
7147.58522954645
 20
10271.11570167954
 30
0.0
  0
POINT
  5
19F4C
330
18B2C
100
AcDbEntity
  8
DEFPOINTS
 62
     0
 48
50.0
100
AcDbPoint
 10
7795.011575280861
 20
10271.11570167954
 30
0.0
  0
ENDBLK
  5
18B39
330
18B2C
100
AcDbEntity
  8
0
 48
50.0
100
AcDbBlockEnd
  0
BLOCK
  5
18B46
330
18B3A
100
AcDbEntity
  8
0
 48
50.0
100
AcDbBlockBegin
  2
*D8
 70
     1
 10
0.0
 20
0.0
 30
0.0
  3
*D8
  1

  0
LINE
  5
19F37
330
18B3A
100
AcDbEntity
  8
寸法
 62
     0
 48
50.0
370
    -2
100
AcDbLine
 10
7092.58522954645
 20
10346.11570167954
 30
0.0
 11
7092.58522954645
 21
10901.92392130452
 31
0.0
  0
LINE
  5
19F38
330
18B3A
100
AcDbEntity
  8
寸法
 62
     0
 48
50.0
370
    -2
100
AcDbLine
 10
7147.58522954645
 20
10346.11570167954
 30
0.0
 11
7147.58522954645
 21
10901.92392130452
 31
0.0
  0
LINE
  5
19F39
330
18B3A
100
AcDbEntity
  8
寸法
 62
     0
 48
50.0
370
    -2
100
AcDbLine
 10
7092.58522954645
 20
10841.92392130452
 30
0.0
 11
6992.585229546451
 21
10841.92392130452
 31
0.0
  0
LINE
  5
19F3A
330
18B3A
100
AcDbEntity
  8
寸法
 62
     0
 48
50.0
370
    -2
100
AcDbLine
 10
7147.58522954645
 20
10841.92392130452
 30
0.0
 11
7564.555792294928
 21
10841.92392130452
 31
0.0
  0
LINE
  5
19F3B
330
18B3A
100
AcDbEntity
  8
寸法
 62
     0
 48
50.0
370
    -2
100
AcDbLine
 10
7092.58522954645
 20
10841.92392130452
 30
0.0
 11
7147.58522954645
 21
10841.92392130452
 31
0.0
  0
INSERT
  5
19F3C
330
18B3A
100
AcDbEntity
  8
寸法
 62
     0
 48
50.0
370
    -2
100
AcDbBlockReference
  2
_DOTSMALL
 10
7092.58522954645
 20
10841.92392130452
 30
0.0
 41
100.0
 42
100.0
 43
100.0
  0
INSERT
  5
19F3D
330
18B3A
100
AcDbEntity
  8
寸法
 62
     0
 48
50.0
370
    -2
100
AcDbBlockReference
  2
_DOTSMALL
 10
7147.58522954645
 20
10841.92392130452
 30
0.0
 41
100.0
 42
100.0
 43
100.0
 50
180.0
  0
MTEXT
  5
19F3E
330
18B3A
100
AcDbEntity
  8
寸法
 62
     7
 48
50.0
100
AcDbMText
 10
7456.070510920688
 20
10941.92392130452
 30
0.0
 40
120.0
 41
0.0
 71
     5
 72
     1
  1
\A1;55
  7
STYLE1
 73
     1
 44
1.0
1001
ACAD
1000
MTEXTBEGIN
1070
    73
1070
     1
1070
    44
1040
1.0
1070
    74
1070
     0
1000
MTEXTEND
  0
POINT
  5
19F3F
330
18B3A
100
AcDbEntity
  8
DEFPOINTS
 62
     0
 48
50.0
100
AcDbPoint
 10
7092.58522954645
 20
10326.11570167954
 30
0.0
  0
POINT
  5
19F40
330
18B3A
100
AcDbEntity
  8
DEFPOINTS
 62
     0
 48
50.0
100
AcDbPoint
 10
7147.58522954645
 20
10326.11570167954
 30
0.0
  0
POINT
  5
19F41
330
18B3A
100
AcDbEntity
  8
DEFPOINTS
 62
     0
 48
50.0
100
AcDbPoint
 10
7147.58522954645
 20
10841.92392130452
 30
0.0
  0
ENDBLK
  5
18B47
330
18B3A
100
AcDbEntity
  8
0
 48
50.0
100
AcDbBlockEnd
  0
BLOCK
  5
18B54
330
18B48
100
AcDbEntity
  8
0
 48
50.0
100
AcDbBlockBegin
  2
*D9
 70
     1
 10
0.0
 20
0.0
 30
0.0
  3
*D9
  1

  0
LINE
  5
19F2C
330
18B48
100
AcDbEntity
  8
寸法
 62
     0
 48
50.0
370
    -2
100
AcDbLine
 10
3677.585229546414
 20
10346.11570167944
 30
0.0
 11
3677.585229546414
 21
10901.92392130442
 31
0.0
  0
LINE
  5
19F2D
330
18B48
100
AcDbEntity
  8
寸法
 62
     0
 48
50.0
370
    -2
100
AcDbLine
 10
3732.58522954645
 20
10346.11570167944
 30
0.0
 11
3732.58522954645
 21
10901.92392130442
 31
0.0
  0
LINE
  5
19F2E
330
18B48
100
AcDbEntity
  8
寸法
 62
     0
 48
50.0
370
    -2
100
AcDbLine
 10
3732.58522954645
 20
10841.92392130442
 30
0.0
 11
3832.58522954645
 21
10841.92392130442
 31
0.0
  0
LINE
  5
19F2F
330
18B48
100
AcDbEntity
  8
寸法
 62
     0
 48
50.0
370
    -2
100
AcDbLine
 10
3677.585229546414
 20
10841.92392130442
 30
0.0
 11
3260.614666797935
 21
10841.92392130442
 31
0.0
  0
LINE
  5
19F30
330
18B48
100
AcDbEntity
  8
寸法
 62
     0
 48
50.0
370
    -2
100
AcDbLine
 10
3732.58522954645
 20
10841.92392130442
 30
0.0
 11
3677.585229546414
 21
10841.92392130442
 31
0.0
  0
INSERT
  5
19F31
330
18B48
100
AcDbEntity
  8
寸法
 62
     0
 48
50.0
370
    -2
100
AcDbBlockReference
  2
_DOTSMALL
 10
3732.58522954645
 20
10841.92392130442
 30
0.0
 41
100.0
 42
100.0
 43
100.0
 50
180.0
  0
INSERT
  5
19F32
330
18B48
100
AcDbEntity
  8
寸法
 62
     0
 48
50.0
370
    -2
100
AcDbBlockReference
  2
_DOTSMALL
 10
3677.585229546414
 20
10841.92392130442
 30
0.0
 41
100.0
 42
100.0
 43
100.0
  0
MTEXT
  5
19F33
330
18B48
100
AcDbEntity
  8
寸法
 62
     7
 48
50.0
100
AcDbMText
 10
3369.099948172174
 20
10941.92392130442
 30
0.0
 40
120.0
 41
0.0
 71
     5
 72
     1
  1
\A1;55
  7
STYLE1
 73
     1
 44
1.0
1001
ACAD
1000
MTEXTBEGIN
1070
    73
1070
     1
1070
    44
1040
1.0
1070
    74
1070
     0
1000
MTEXTEND
  0
POINT
  5
19F34
330
18B48
100
AcDbEntity
  8
DEFPOINTS
 62
     0
 48
50.0
100
AcDbPoint
 10
3677.585229546414
 20
10326.11570167944
 30
0.0
  0
POINT
  5
19F35
330
18B48
100
AcDbEntity
  8
DEFPOINTS
 62
     0
 48
50.0
100
AcDbPoint
 10
3732.58522954645
 20
10326.11570167944
 30
0.0
  0
POINT
  5
19F36
330
18B48
100
AcDbEntity
  8
DEFPOINTS
 62
     0
 48
50.0
100
AcDbPoint
 10
3732.58522954645
 20
10841.92392130442
 30
0.0
  0
ENDBLK
  5
18B55
330
18B48
100
AcDbEntity
  8
0
 48
50.0
100
AcDbBlockEnd
  0
BLOCK
  5
18B60
330
18B56
100
AcDbEntity
  8
0
 48
50.0
100
AcDbBlockBegin
  2
*D10
 70
     1
 10
0.0
 20
0.0
 30
0.0
  3
*D10
  1

  0
LINE
  5
19F23
330
18B56
100
AcDbEntity
  8
寸法
 62
     0
 48
50.0
370
    -2
100
AcDbLine
 10
3732.58522954645
 20
10346.11570167944
 30
0.0
 11
3732.58522954645
 21
10901.92392130454
 31
0.0
  0
LINE
  5
19F24
330
18B56
100
AcDbEntity
  8
寸法
 62
     0
 48
50.0
370
    -2
100
AcDbLine
 10
7092.58522954645
 20
10346.11570167954
 30
0.0
 11
7092.58522954645
 21
10901.92392130454
 31
0.0
  0
LINE
  5
19F25
330
18B56
100
AcDbEntity
  8
寸法
 62
     0
 48
50.0
370
    -2
100
AcDbLine
 10
3732.58522954645
 20
10841.92392130454
 30
0.0
 11
7092.58522954645
 21
10841.92392130454
 31
0.0
  0
INSERT
  5
19F26
330
18B56
100
AcDbEntity
  8
寸法
 62
     0
 48
50.0
370
    -2
100
AcDbBlockReference
  2
_DOTSMALL
 10
3732.58522954645
 20
10841.92392130454
 30
0.0
 41
100.0
 42
100.0
 43
100.0
 50
180.0
  0
INSERT
  5
19F27
330
18B56
100
AcDbEntity
  8
寸法
 62
     0
 48
50.0
370
    -2
100
AcDbBlockReference
  2
_DOTSMALL
 10
7092.58522954645
 20
10841.92392130454
 30
0.0
 41
100.0
 42
100.0
 43
100.0
  0
MTEXT
  5
19F28
330
18B56
100
AcDbEntity
  8
寸法
 62
     7
 48
50.0
100
AcDbMText
 10
5412.585229546451
 20
10941.93573232816
 30
0.0
 40
120.0
 41
0.0
 71
     5
 72
     1
  1
\A1;8X420=3360
  7
STYLE1
 73
     1
 44
1.0
1001
ACAD
1000
MTEXTBEGIN
1070
    73
1070
     1
1070
    44
1040
1.0
1070
    74
1070
     0
1000
MTEXTEND
  0
POINT
  5
19F29
330
18B56
100
AcDbEntity
  8
DEFPOINTS
 62
     0
 48
50.0
100
AcDbPoint
 10
3732.58522954645
 20
10326.11570167944
 30
0.0
  0
POINT
  5
19F2A
330
18B56
100
AcDbEntity
  8
DEFPOINTS
 62
     0
 48
50.0
100
AcDbPoint
 10
7092.58522954645
 20
10326.11570167954
 30
0.0
  0
POINT
  5
19F2B
330
18B56
100
AcDbEntity
  8
DEFPOINTS
 62
     0
 48
50.0
100
AcDbPoint
 10
7092.58522954645
 20
10841.92392130454
 30
0.0
  0
ENDBLK
  5
18B61
330
18B56
100
AcDbEntity
  8
0
 48
50.0
100
AcDbBlockEnd
  0
BLOCK
  5
18B7C
330
18B70
100
AcDbEntity
  8
0
 48
50.0
100
AcDbBlockBegin
  2
*D11
 70
     1
 10
0.0
 20
0.0
 30
0.0
  3
*D11
  1

  0
LINE
  5
19F18
330
18B70
100
AcDbEntity
  8
寸法
 62
     0
 48
50.0
370
    -2
100
AcDbLine
 10
7167.585229546425
 20
7331.115701679528
 30
0.0
 11
7855.011575280837
 21
7331.115701679528
 31
0.0
  0
LINE
  5
19F19
330
18B70
100
AcDbEntity
  8
寸法
 62
     0
 48
50.0
370
    -2
100
AcDbLine
 10
7167.585229546425
 20
7276.115701679531
 30
0.0
 11
7855.011575280837
 21
7276.115701679531
 31
0.0
  0
LINE
  5
19F1A
330
18B70
100
AcDbEntity
  8
寸法
 62
     0
 48
50.0
370
    -2
100
AcDbLine
 10
7795.011575280835
 20
7331.115701679528
 30
0.0
 11
7795.011575280835
 21
7431.115701679527
 31
0.0
  0
LINE
  5
19F1B
330
18B70
100
AcDbEntity
  8
寸法
 62
     0
 48
50.0
370
    -2
100
AcDbLine
 10
7795.011575280835
 20
7276.115701679531
 30
0.0
 11
7795.011575280835
 21
6859.145138931049
 31
0.0
  0
LINE
  5
19F1C
330
18B70
100
AcDbEntity
  8
寸法
 62
     0
 48
50.0
370
    -2
100
AcDbLine
 10
7795.011575280835
 20
7331.115701679528
 30
0.0
 11
7795.011575280835
 21
7276.115701679531
 31
0.0
  0
INSERT
  5
19F1D
330
18B70
100
AcDbEntity
  8
寸法
 62
     0
 48
50.0
370
    -2
100
AcDbBlockReference
  2
_DOTSMALL
 10
7795.011575280835
 20
7331.115701679528
 30
0.0
 41
100.0
 42
100.0
 43
100.0
 50
270.0
  0
INSERT
  5
19F1E
330
18B70
100
AcDbEntity
  8
寸法
 62
     0
 48
50.0
370
    -2
100
AcDbBlockReference
  2
_DOTSMALL
 10
7795.011575280835
 20
7276.115701679531
 30
0.0
 41
100.0
 42
100.0
 43
100.0
 50
90.0
  0
MTEXT
  5
19F1F
330
18B70
100
AcDbEntity
  8
寸法
 62
     7
 48
50.0
100
AcDbMText
 10
7695.011575280834
 20
6967.630420305289
 30
0.0
 40
120.0
 41
0.0
 71
     5
 72
     1
  1
\A1;55
  7
STYLE1
 11
0.0000000000000001
 21
1.0
 31
0.0
 73
     1
 44
1.0
1001
ACAD
1000
MTEXTBEGIN
1070
    73
1070
     1
1070
    44
1040
1.0
1070
    74
1070
     0
1000
MTEXTEND
  0
POINT
  5
19F20
330
18B70
100
AcDbEntity
  8
DEFPOINTS
 62
     0
 48
50.0
100
AcDbPoint
 10
7147.585229546425
 20
7331.115701679528
 30
0.0
  0
POINT
  5
19F21
330
18B70
100
AcDbEntity
  8
DEFPOINTS
 62
     0
 48
50.0
100
AcDbPoint
 10
7147.585229546425
 20
7276.115701679531
 30
0.0
  0
POINT
  5
19F22
330
18B70
100
AcDbEntity
  8
DEFPOINTS
 62
     0
 48
50.0
100
AcDbPoint
 10
7795.011575280835
 20
7276.115701679531
 30
0.0
  0
ENDBLK
  5
18B7D
330
18B70
100
AcDbEntity
  8
0
 48
50.0
100
AcDbBlockEnd
  0
BLOCK
  5
18B88
330
18B7E
100
AcDbEntity
  8
0
 48
50.0
100
AcDbBlockBegin
  2
*D12
 70
     1
 10
0.0
 20
0.0
 30
0.0
  3
*D12
  1

  0
LINE
  5
19F0F
330
18B7E
100
AcDbEntity
  8
寸法
 62
     0
 48
50.0
370
    -2
100
AcDbLine
 10
3700.726245697828
 20
9826.115701679441
 30
0.0
 11
3632.772605002116
 21
9572.509262043764
 31
0.0
  0
LINE
  5
19F10
330
18B7E
100
AcDbEntity
  8
寸法
 62
     0
 48
50.0
370
    -2
100
AcDbLine
 10
4763.726245697759
 20
9826.115701679494
 30
0.0
 11
4695.772605002032
 21
9572.509262043764
 31
0.0
  0
LINE
  5
19F11
330
18B7E
100
AcDbEntity
  8
寸法
 62
     0
 48
50.0
370
    -2
100
AcDbLine
 10
3648.849556547983
 20
9632.509262043763
 30
0.0
 11
4711.8495565479
 21
9632.509262043763
 31
0.0
  0
INSERT
  5
19F12
330
18B7E
100
AcDbEntity
  8
寸法
 62
     0
 48
50.0
370
    -2
100
AcDbBlockReference
  2
_DOTSMALL
 10
3648.849556547983
 20
9632.509262043763
 30
0.0
 41
100.0
 42
100.0
 43
100.0
 50
180.0
  0
INSERT
  5
19F13
330
18B7E
100
AcDbEntity
  8
寸法
 62
     0
 48
50.0
370
    -2
100
AcDbBlockReference
  2
_DOTSMALL
 10
4711.8495565479
 20
9632.509262043763
 30
0.0
 41
100.0
 42
100.0
 43
100.0
  0
MTEXT
  5
19F14
330
18B7E
100
AcDbEntity
  8
寸法
 62
     7
 48
50.0
100
AcDbMText
 10
4176.675107094758
 20
9732.509262043762
 30
0.0
 40
120.0
 41
0.0
 71
     5
 72
     1
  1
\A1;1063
  7
STYLE1
 73
     1
 44
1.0
1001
ACAD
1000
MTEXTBEGIN
1070
    73
1070
     1
1070
    44
1040
1.0
1070
    74
1070
     0
1000
MTEXTEND
  0
POINT
  5
19F15
330
18B7E
100
AcDbEntity
  8
DEFPOINTS
 62
     0
 48
50.0
100
AcDbPoint
 10
3706.08522954645
 20
9846.11570167944
 30
0.0
  0
POINT
  5
19F16
330
18B7E
100
AcDbEntity
  8
DEFPOINTS
 62
     0
 48
50.0
100
AcDbPoint
 10
4769.085229546381
 20
9846.115701679494
 30
0.0
  0
POINT
  5
19F17
330
18B7E
100
AcDbEntity
  8
DEFPOINTS
 62
     0
 48
50.0
100
AcDbPoint
 10
4711.8495565479
 20
9632.509262043763
 30
0.0
  0
ENDBLK
  5
18B89
330
18B7E
100
AcDbEntity
  8
0
 48
50.0
100
AcDbBlockEnd
  0
BLOCK
  5
18B94
330
18B8A
100
AcDbEntity
  8
0
 48
50.0
100
AcDbBlockBegin
  2
*D13
 70
     1
 10
0.0
 20
0.0
 30
0.0
  3
*D13
  1

  0
LINE
  5
19F06
330
18B8A
100
AcDbEntity
  8
寸法
 62
     0
 48
50.0
370
    -2
100
AcDbLine
 10
4791.726245697758
 20
9826.115701679491
 30
0.0
 11
4723.772605002031
 21
9572.509262043764
 31
0.0
  0
LINE
  5
19F07
330
18B8A
100
AcDbEntity
  8
寸法
 62
     0
 48
50.0
370
    -2
100
AcDbLine
 10
6022.726245697828
 20
9826.115701679484
 30
0.0
 11
5954.772605002104
 21
9572.509262043764
 31
0.0
  0
LINE
  5
19F08
330
18B8A
100
AcDbEntity
  8
寸法
 62
     0
 48
50.0
370
    -2
100
AcDbLine
 10
4739.849556547899
 20
9632.509262043763
 30
0.0
 11
5970.849556547971
 21
9632.509262043763
 31
0.0
  0
INSERT
  5
19F09
330
18B8A
100
AcDbEntity
  8
寸法
 62
     0
 48
50.0
370
    -2
100
AcDbBlockReference
  2
_DOTSMALL
 10
4739.849556547899
 20
9632.509262043763
 30
0.0
 41
100.0
 42
100.0
 43
100.0
 50
180.0
  0
INSERT
  5
19F0A
330
18B8A
100
AcDbEntity
  8
寸法
 62
     0
 48
50.0
370
    -2
100
AcDbBlockReference
  2
_DOTSMALL
 10
5970.849556547971
 20
9632.509262043763
 30
0.0
 41
100.0
 42
100.0
 43
100.0
  0
MTEXT
  5
19F0B
330
18B8A
100
AcDbEntity
  8
寸法
 62
     7
 48
50.0
100
AcDbMText
 10
5598.933462760077
 20
9732.521073067385
 30
0.0
 40
120.0
 41
0.0
 71
     5
 72
     1
  1
\A1;1231
  7
STYLE1
 73
     1
 44
1.0
1001
ACAD
1000
MTEXTBEGIN
1070
    73
1070
     1
1070
    44
1040
1.0
1070
    74
1070
     0
1000
MTEXTEND
  0
POINT
  5
19F0C
330
18B8A
100
AcDbEntity
  8
DEFPOINTS
 62
     0
 48
50.0
100
AcDbPoint
 10
4797.085229546381
 20
9846.115701679492
 30
0.0
  0
POINT
  5
19F0D
330
18B8A
100
AcDbEntity
  8
DEFPOINTS
 62
     0
 48
50.0
100
AcDbPoint
 10
6028.085229546451
 20
9846.115701679485
 30
0.0
  0
POINT
  5
19F0E
330
18B8A
100
AcDbEntity
  8
DEFPOINTS
 62
     0
 48
50.0
100
AcDbPoint
 10
5970.849556547971
 20
9632.509262043763
 30
0.0
  0
ENDBLK
  5
18B95
330
18B8A
100
AcDbEntity
  8
0
 48
50.0
100
AcDbBlockEnd
  0
BLOCK
  5
18BB8
330
18BAE
100
AcDbEntity
  8
0
 48
50.0
100
AcDbBlockBegin
  2
*D14
 70
     1
 10
0.0
 20
0.0
 30
0.0
  3
*D14
  1

  0
LINE
  5
19EFD
330
18BAE
100
AcDbEntity
  8
寸法
 62
     0
 48
50.0
370
    -2
100
AcDbLine
 10
6050.726245697828
 20
9826.115701679549
 30
0.0
 11
5982.772605002114
 21
9572.509262043871
 31
0.0
  0
LINE
  5
19EFE
330
18BAE
100
AcDbEntity
  8
寸法
 62
     0
 48
50.0
370
    -2
100
AcDbLine
 10
7113.726245697839
 20
9826.115701679542
 30
0.0
 11
7045.772605002127
 21
9572.509262043871
 31
0.0
  0
LINE
  5
19EFF
330
18BAE
100
AcDbEntity
  8
寸法
 62
     0
 48
50.0
370
    -2
100
AcDbLine
 10
5998.849556547982
 20
9632.509262043873
 30
0.0
 11
7061.849556547996
 21
9632.509262043873
 31
0.0
  0
INSERT
  5
19F00
330
18BAE
100
AcDbEntity
  8
寸法
 62
     0
 48
50.0
370
    -2
100
AcDbBlockReference
  2
_DOTSMALL
 10
5998.849556547982
 20
9632.509262043873
 30
0.0
 41
100.0
 42
100.0
 43
100.0
 50
180.0
  0
INSERT
  5
19F01
330
18BAE
100
AcDbEntity
  8
寸法
 62
     0
 48
50.0
370
    -2
100
AcDbBlockReference
  2
_DOTSMALL
 10
7061.849556547996
 20
9632.509262043873
 30
0.0
 41
100.0
 42
100.0
 43
100.0
  0
MTEXT
  5
19F02
330
18BAE
100
AcDbEntity
  8
寸法
 62
     7
 48
50.0
100
AcDbMText
 10
6578.975184668802
 20
9732.509262043873
 30
0.0
 40
120.0
 41
0.0
 71
     5
 72
     1
  1
\A1;1063
  7
STYLE1
 73
     1
 44
1.0
1001
ACAD
1000
MTEXTBEGIN
1070
    73
1070
     1
1070
    44
1040
1.0
1070
    74
1070
     0
1000
MTEXTEND
  0
POINT
  5
19F03
330
18BAE
100
AcDbEntity
  8
DEFPOINTS
 62
     0
 48
50.0
100
AcDbPoint
 10
6056.08522954645
 20
9846.115701679551
 30
0.0
  0
POINT
  5
19F04
330
18BAE
100
AcDbEntity
  8
DEFPOINTS
 62
     0
 48
50.0
100
AcDbPoint
 10
7119.085229546461
 20
9846.115701679543
 30
0.0
  0
POINT
  5
19F05
330
18BAE
100
AcDbEntity
  8
DEFPOINTS
 62
     0
 48
50.0
100
AcDbPoint
 10
7061.849556547996
 20
9632.509262043873
 30
0.0
  0
ENDBLK
  5
18BB9
330
18BAE
100
AcDbEntity
  8
0
 48
50.0
100
AcDbBlockEnd
  0
BLOCK
  5
18BC4
330
18BBA
100
AcDbEntity
  8
0
 48
50.0
100
AcDbBlockBegin
  2
*D15
 70
     1
 10
0.0
 20
0.0
 30
0.0
  3
*D15
  1

  0
LINE
  5
19EF4
330
18BBA
100
AcDbEntity
  8
寸法
 62
     0
 48
50.0
370
    -2
100
AcDbLine
 10
7167.585229546451
 20
10326.11570167954
 30
0.0
 11
8220.1185170205
 21
10326.11570167954
 31
0.0
  0
LINE
  5
19EF5
330
18BBA
100
AcDbEntity
  8
寸法
 62
     0
 48
50.0
370
    -2
100
AcDbLine
 10
7167.585229546425
 20
7276.115701679531
 30
0.0
 11
8220.1185170205
 21
7276.115701679531
 31
0.0
  0
LINE
  5
19EF6
330
18BBA
100
AcDbEntity
  8
寸法
 62
     0
 48
50.0
370
    -2
100
AcDbLine
 10
8160.118517020503
 20
10326.11570167954
 30
0.0
 11
8160.118517020501
 21
7276.115701679531
 31
0.0
  0
INSERT
  5
19EF7
330
18BBA
100
AcDbEntity
  8
寸法
 62
     0
 48
50.0
370
    -2
100
AcDbBlockReference
  2
_DOTSMALL
 10
8160.118517020503
 20
10326.11570167954
 30
0.0
 41
100.0
 42
100.0
 43
100.0
 50
90.0
  0
INSERT
  5
19EF8
330
18BBA
100
AcDbEntity
  8
寸法
 62
     0
 48
50.0
370
    -2
100
AcDbBlockReference
  2
_DOTSMALL
 10
8160.118517020501
 20
7276.115701679531
 30
0.0
 41
100.0
 42
100.0
 43
100.0
 50
270.0
  0
MTEXT
  5
19EF9
330
18BBA
100
AcDbEntity
  8
寸法
 62
     7
 48
50.0
100
AcDbMText
 10
8060.118517020502
 20
8801.115701679533
 30
0.0
 40
120.0
 41
0.0
 71
     5
 72
     1
  1
\A1;3050
  7
STYLE1
 11
0.0000000000000001
 21
1.0
 31
0.0
 73
     1
 44
1.0
1001
ACAD
1000
MTEXTBEGIN
1070
    73
1070
     1
1070
    44
1040
1.0
1070
    74
1070
     0
1000
MTEXTEND
  0
POINT
  5
19EFA
330
18BBA
100
AcDbEntity
  8
DEFPOINTS
 62
     0
 48
50.0
100
AcDbPoint
 10
7147.58522954645
 20
10326.11570167954
 30
0.0
  0
POINT
  5
19EFB
330
18BBA
100
AcDbEntity
  8
DEFPOINTS
 62
     0
 48
50.0
100
AcDbPoint
 10
7147.585229546425
 20
7276.115701679531
 30
0.0
  0
POINT
  5
19EFC
330
18BBA
100
AcDbEntity
  8
DEFPOINTS
 62
     0
 48
50.0
100
AcDbPoint
 10
8160.118517020501
 20
7276.115701679531
 30
0.0
  0
ENDBLK
  5
18BC5
330
18BBA
100
AcDbEntity
  8
0
 48
50.0
100
AcDbBlockEnd
  0
BLOCK
  5
18BD0
330
18BC6
100
AcDbEntity
  8
0
 48
50.0
100
AcDbBlockBegin
  2
*D16
 70
     1
 10
0.0
 20
0.0
 30
0.0
  3
*D16
  1

  0
LINE
  5
19EEB
330
18BC6
100
AcDbEntity
  8
寸法
 62
     0
 48
50.0
370
    -2
100
AcDbLine
 10
7139.085229546449
 20
10290.75671783092
 30
0.0
 11
7534.442955408474
 21
10184.82093446478
 31
0.0
  0
LINE
  5
19EEC
330
18BC6
100
AcDbEntity
  8
寸法
 62
     0
 48
50.0
370
    -2
100
AcDbLine
 10
7139.085229546449
 20
9840.75671783092
 30
0.0
 11
7534.442955408474
 21
9734.820934464785
 31
0.0
  0
LINE
  5
19EED
330
18BC6
100
AcDbEntity
  8
寸法
 62
     0
 48
50.0
370
    -2
100
AcDbLine
 10
7474.442955408474
 20
10200.89788601065
 30
0.0
 11
7474.442955408474
 21
9750.897886010653
 31
0.0
  0
INSERT
  5
19EEE
330
18BC6
100
AcDbEntity
  8
寸法
 62
     0
 48
50.0
370
    -2
100
AcDbBlockReference
  2
_DOTSMALL
 10
7474.442955408474
 20
10200.89788601065
 30
0.0
 41
100.0
 42
100.0
 43
100.0
 50
90.0
  0
INSERT
  5
19EEF
330
18BC6
100
AcDbEntity
  8
寸法
 62
     0
 48
50.0
370
    -2
100
AcDbBlockReference
  2
_DOTSMALL
 10
7474.442955408474
 20
9750.897886010653
 30
0.0
 41
100.0
 42
100.0
 43
100.0
 50
270.0
  0
MTEXT
  5
19EF0
330
18BC6
100
AcDbEntity
  8
寸法
 62
     7
 48
50.0
100
AcDbMText
 10
7374.442955408473
 20
9975.897886010653
 30
0.0
 40
120.0
 41
0.0
 71
     5
 72
     1
  1
\A1;450
  7
STYLE1
 11
0.0000000000000001
 21
1.0
 31
0.0
 73
     1
 44
1.0
1001
ACAD
1000
MTEXTBEGIN
1070
    73
1070
     1
1070
    44
1040
1.0
1070
    74
1070
     0
1000
MTEXTEND
  0
POINT
  5
19EF1
330
18BC6
100
AcDbEntity
  8
DEFPOINTS
 62
     0
 48
50.0
100
AcDbPoint
 10
7119.085229546451
 20
10296.11570167954
 30
0.0
  0
POINT
  5
19EF2
330
18BC6
100
AcDbEntity
  8
DEFPOINTS
 62
     0
 48
50.0
100
AcDbPoint
 10
7119.085229546451
 20
9846.115701679543
 30
0.0
  0
POINT
  5
19EF3
330
18BC6
100
AcDbEntity
  8
DEFPOINTS
 62
     0
 48
50.0
100
AcDbPoint
 10
7474.442955408474
 20
9750.897886010653
 30
0.0
  0
ENDBLK
  5
18BD1
330
18BC6
100
AcDbEntity
  8
0
 48
50.0
100
AcDbBlockEnd
  0
BLOCK
  5
18BDC
330
18BD2
100
AcDbEntity
  8
0
 48
50.0
100
AcDbBlockBegin
  2
*D17
 70
     1
 10
0.0
 20
0.0
 30
0.0
  3
*D17
  1

  0
LINE
  5
19EE2
330
18BD2
100
AcDbEntity
  8
寸法
 62
     0
 48
50.0
370
    -2
100
AcDbLine
 10
7167.585229546451
 20
10271.11570167954
 30
0.0
 11
7855.011575280865
 21
10271.11570167954
 31
0.0
  0
LINE
  5
19EE3
330
18BD2
100
AcDbEntity
  8
寸法
 62
     0
 48
50.0
370
    -2
100
AcDbLine
 10
7167.585229546425
 20
7331.115701679528
 30
0.0
 11
7855.011575280864
 21
7331.115701679528
 31
0.0
  0
LINE
  5
19EE4
330
18BD2
100
AcDbEntity
  8
寸法
 62
     0
 48
50.0
370
    -2
100
AcDbLine
 10
7795.011575280864
 20
10271.11570167954
 30
0.0
 11
7795.011575280863
 21
7331.115701679528
 31
0.0
  0
INSERT
  5
19EE5
330
18BD2
100
AcDbEntity
  8
寸法
 62
     0
 48
50.0
370
    -2
100
AcDbBlockReference
  2
_DOTSMALL
 10
7795.011575280864
 20
10271.11570167954
 30
0.0
 41
100.0
 42
100.0
 43
100.0
 50
90.0
  0
INSERT
  5
19EE6
330
18BD2
100
AcDbEntity
  8
寸法
 62
     0
 48
50.0
370
    -2
100
AcDbBlockReference
  2
_DOTSMALL
 10
7795.011575280863
 20
7331.115701679528
 30
0.0
 41
100.0
 42
100.0
 43
100.0
 50
270.0
  0
MTEXT
  5
19EE7
330
18BD2
100
AcDbEntity
  8
寸法
 62
     7
 48
50.0
100
AcDbMText
 10
7694.999764257241
 20
8801.115701679535
 30
0.0
 40
120.0
 41
0.0
 71
     5
 72
     1
  1
\A1;7X420=2940
  7
STYLE1
 11
0.0000000000000001
 21
1.0
 31
0.0
 73
     1
 44
1.0
1001
ACAD
1000
MTEXTBEGIN
1070
    73
1070
     1
1070
    44
1040
1.0
1070
    74
1070
     0
1000
MTEXTEND
  0
POINT
  5
19EE8
330
18BD2
100
AcDbEntity
  8
DEFPOINTS
 62
     0
 48
50.0
100
AcDbPoint
 10
7147.58522954645
 20
10271.11570167954
 30
0.0
  0
POINT
  5
19EE9
330
18BD2
100
AcDbEntity
  8
DEFPOINTS
 62
     0
 48
50.0
100
AcDbPoint
 10
7147.585229546425
 20
7331.115701679528
 30
0.0
  0
POINT
  5
19EEA
330
18BD2
100
AcDbEntity
  8
DEFPOINTS
 62
     0
 48
50.0
100
AcDbPoint
 10
7795.011575280863
 20
7331.115701679528
 30
0.0
  0
ENDBLK
  5
18BDD
330
18BD2
100
AcDbEntity
  8
0
 48
50.0
100
AcDbBlockEnd
  0
BLOCK
  5
192ED
330
192E3
100
AcDbEntity
  8
0
 48
50.0
100
AcDbBlockBegin
  2
*D18
 70
     1
 10
0.0
 20
0.0
 30
0.0
  3
*D18
  1

  0
LINE
  5
1ABA2
330
192E3
100
AcDbEntity
  8
寸法
 62
     0
 48
50.0
370
    -2
100
AcDbLine
 10
9666.743426128899
 20
3923.178294807154
 30
0.0
 11
9178.834784731639
 21
3923.178294807155
 31
0.0
  0
LINE
  5
1ABA3
330
192E3
100
AcDbEntity
  8
寸法
 62
     0
 48
50.0
370
    -2
100
AcDbLine
 10
9666.743426128896
 20
2198.178294807154
 30
0.0
 11
9178.834784731639
 21
2198.178294807155
 31
0.0
  0
LINE
  5
1ABA4
330
192E3
100
AcDbEntity
  8
寸法
 62
     0
 48
50.0
370
    -2
100
AcDbLine
 10
9218.83478473164
 20
3903.178294807155
 30
0.0
 11
9218.83478473164
 21
2218.178294807154
 31
0.0
  0
INSERT
  5
1ABA5
330
192E3
100
AcDbEntity
  8
寸法
 62
     0
 48
50.0
370
    -2
100
AcDbBlockReference
  2
_DOT
 10
9218.83478473164
 20
3923.178294807154
 30
0.0
 41
20.0
 42
20.0
 43
20.0
 50
90.0
  0
INSERT
  5
1ABA6
330
192E3
100
AcDbEntity
  8
寸法
 62
     0
 48
50.0
370
    -2
100
AcDbBlockReference
  2
_DOT
 10
9218.83478473164
 20
2198.178294807154
 30
0.0
 41
20.0
 42
20.0
 43
20.0
 50
270.0
  0
MTEXT
  5
1ABA7
330
192E3
100
AcDbEntity
  8
寸法
 62
     7
 48
50.0
100
AcDbMText
 10
9126.822973708019
 20
3060.678294807156
 30
0.0
 40
120.0
 41
0.0
 71
     5
 72
     1
  1
\A1;有効開口部高サ1725
  7
STYLE1
 11
0.0000000000000001
 21
1.0
 31
0.0
 73
     1
 44
1.0
1001
ACAD
1000
MTEXTBEGIN
1070
    73
1070
     1
1070
    44
1040
1.0
1070
    74
1070
     0
1000
MTEXTEND
  0
POINT
  5
1ABA8
330
192E3
100
AcDbEntity
  8
DEFPOINTS
 62
     0
 48
50.0
100
AcDbPoint
 10
9686.743426128899
 20
3923.178294807154
 30
0.0
  0
POINT
  5
1ABA9
330
192E3
100
AcDbEntity
  8
DEFPOINTS
 62
     0
 48
50.0
100
AcDbPoint
 10
9686.743426128895
 20
2198.178294807154
 30
0.0
  0
POINT
  5
1ABAA
330
192E3
100
AcDbEntity
  8
DEFPOINTS
 62
     0
 48
50.0
100
AcDbPoint
 10
9218.83478473164
 20
2198.178294807154
 30
0.0
  0
ENDBLK
  5
192EE
330
192E3
100
AcDbEntity
  8
0
 48
50.0
100
AcDbBlockEnd
  0
BLOCK
  5
192F9
330
192EF
100
AcDbEntity
  8
0
 48
50.0
100
AcDbBlockBegin
  2
*D19
 70
     1
 10
0.0
 20
0.0
 30
0.0
  3
*D19
  1

  0
LINE
  5
1AB99
330
192EF
100
AcDbEntity
  8
寸法
 62
     0
 48
50.0
370
    -2
100
AcDbLine
 10
9743.743426128897
 20
3972.178294807151
 30
0.0
 11
8859.993296945637
 21
3972.178294807151
 31
0.0
  0
LINE
  5
1AB9A
330
192EF
100
AcDbEntity
  8
寸法
 62
     0
 48
50.0
370
    -2
100
AcDbLine
 10
9743.743426128897
 20
2182.17829480715
 30
0.0
 11
8859.993296945637
 21
2182.17829480715
 31
0.0
  0
LINE
  5
1AB9B
330
192EF
100
AcDbEntity
  8
寸法
 62
     0
 48
50.0
370
    -2
100
AcDbLine
 10
8919.993296945637
 20
3972.178294807151
 30
0.0
 11
8919.993296945637
 21
2182.17829480715
 31
0.0
  0
INSERT
  5
1AB9C
330
192EF
100
AcDbEntity
  8
寸法
 62
     0
 48
50.0
370
    -2
100
AcDbBlockReference
  2
_DOTSMALL
 10
8919.993296945637
 20
3972.178294807151
 30
0.0
 41
100.0
 42
100.0
 43
100.0
 50
90.0
  0
INSERT
  5
1AB9D
330
192EF
100
AcDbEntity
  8
寸法
 62
     0
 48
50.0
370
    -2
100
AcDbBlockReference
  2
_DOTSMALL
 10
8919.993296945637
 20
2182.17829480715
 30
0.0
 41
100.0
 42
100.0
 43
100.0
 50
270.0
  0
MTEXT
  5
1AB9E
330
192EF
100
AcDbEntity
  8
寸法
 62
     7
 48
50.0
100
AcDbMText
 10
8819.993296945638
 20
3077.178294807152
 30
0.0
 40
120.0
 41
0.0
 71
     5
 72
     1
  1
\A1;1790
  7
STYLE1
 11
0.0000000000000001
 21
1.0
 31
0.0
 73
     1
 44
1.0
1001
ACAD
1000
MTEXTBEGIN
1070
    73
1070
     1
1070
    44
1040
1.0
1070
    74
1070
     0
1000
MTEXTEND
  0
POINT
  5
1AB9F
330
192EF
100
AcDbEntity
  8
DEFPOINTS
 62
     0
 48
50.0
100
AcDbPoint
 10
9763.743426128897
 20
3972.178294807151
 30
0.0
  0
POINT
  5
1ABA0
330
192EF
100
AcDbEntity
  8
DEFPOINTS
 62
     0
 48
50.0
100
AcDbPoint
 10
9763.743426128897
 20
2182.17829480715
 30
0.0
  0
POINT
  5
1ABA1
330
192EF
100
AcDbEntity
  8
DEFPOINTS
 62
     0
 48
50.0
100
AcDbPoint
 10
8919.993296945637
 20
2182.17829480715
 30
0.0
  0
ENDBLK
  5
192FA
330
192EF
100
AcDbEntity
  8
0
 48
50.0
100
AcDbBlockEnd
  0
BLOCK
  5
19305
330
192FB
100
AcDbEntity
  8
0
 48
50.0
100
AcDbBlockBegin
  2
*D20
 70
     1
 10
0.0
 20
0.0
 30
0.0
  3
*D20
  1

  0
LINE
  5
1AB90
330
192FB
100
AcDbEntity
  8
寸法
 62
     0
 48
50.0
370
    -2
100
AcDbLine
 10
9666.743426128896
 20
2132.17829480715
 30
0.0
 11
8559.993296945634
 21
2132.17829480715
 31
0.0
  0
LINE
  5
1AB91
330
192FB
100
AcDbEntity
  8
寸法
 62
     0
 48
50.0
370
    -2
100
AcDbLine
 10
9683.743426128897
 20
4207.178294807154
 30
0.0
 11
8559.993296945638
 21
4207.178294807154
 31
0.0
  0
LINE
  5
1AB92
330
192FB
100
AcDbEntity
  8
寸法
 62
     0
 48
50.0
370
    -2
100
AcDbLine
 10
8619.993296945635
 20
2132.17829480715
 30
0.0
 11
8619.993296945636
 21
4207.178294807154
 31
0.0
  0
INSERT
  5
1AB93
330
192FB
100
AcDbEntity
  8
寸法
 62
     0
 48
50.0
370
    -2
100
AcDbBlockReference
  2
_DOTSMALL
 10
8619.993296945635
 20
2132.17829480715
 30
0.0
 41
100.0
 42
100.0
 43
100.0
 50
270.0
  0
INSERT
  5
1AB94
330
192FB
100
AcDbEntity
  8
寸法
 62
     0
 48
50.0
370
    -2
100
AcDbBlockReference
  2
_DOTSMALL
 10
8619.993296945636
 20
4207.178294807154
 30
0.0
 41
100.0
 42
100.0
 43
100.0
 50
90.0
  0
MTEXT
  5
1AB95
330
192FB
100
AcDbEntity
  8
寸法
 62
     7
 48
50.0
100
AcDbMText
 10
8519.981485922015
 20
3169.678294807154
 30
0.0
 40
120.0
 41
0.0
 71
     5
 72
     1
  1
\A1;2075
  7
STYLE1
 11
0.0000000000000001
 21
1.0
 31
0.0
 73
     1
 44
1.0
1001
ACAD
1000
MTEXTBEGIN
1070
    73
1070
     1
1070
    44
1040
1.0
1070
    74
1070
     0
1000
MTEXTEND
  0
POINT
  5
1AB96
330
192FB
100
AcDbEntity
  8
DEFPOINTS
 62
     0
 48
50.0
100
AcDbPoint
 10
9686.743426128895
 20
2132.17829480715
 30
0.0
  0
POINT
  5
1AB97
330
192FB
100
AcDbEntity
  8
DEFPOINTS
 62
     0
 48
50.0
100
AcDbPoint
 10
9703.743426128896
 20
4207.178294807154
 30
0.0
  0
POINT
  5
1AB98
330
192FB
100
AcDbEntity
  8
DEFPOINTS
 62
     0
 48
50.0
100
AcDbPoint
 10
8619.993296945636
 20
4207.178294807154
 30
0.0
  0
ENDBLK
  5
19306
330
192FB
100
AcDbEntity
  8
0
 48
50.0
100
AcDbBlockEnd
  0
BLOCK
  5
19311
330
19307
100
AcDbEntity
  8
0
 48
50.0
100
AcDbBlockBegin
  2
*D21
 70
     1
 10
0.0
 20
0.0
 30
0.0
  3
*D21
  1

  0
LINE
  5
1AB69
330
19307
100
AcDbEntity
  8
寸法
 62
     0
 48
50.0
370
    -2
100
AcDbLine
 10
12833.74342612889
 20
2132.178294807156
 30
0.0
 11
13578.67058410102
 21
2132.178294807156
 31
0.0
  0
LINE
  5
1AB6A
330
19307
100
AcDbEntity
  8
寸法
 62
     0
 48
50.0
370
    -2
100
AcDbLine
 10
12913.74342612889
 20
4152.178294807156
 30
0.0
 11
13578.67058410102
 21
4152.178294807156
 31
0.0
  0
LINE
  5
1AB6B
330
19307
100
AcDbEntity
  8
寸法
 62
     0
 48
50.0
370
    -2
100
AcDbLine
 10
13518.67058410102
 20
2132.178294807156
 30
0.0
 11
13518.67058410102
 21
4152.178294807156
 31
0.0
  0
INSERT
  5
1AB6C
330
19307
100
AcDbEntity
  8
寸法
 62
     0
 48
50.0
370
    -2
100
AcDbBlockReference
  2
_DOTSMALL
 10
13518.67058410102
 20
2132.178294807156
 30
0.0
 41
100.0
 42
100.0
 43
100.0
 50
270.0
  0
INSERT
  5
1AB6D
330
19307
100
AcDbEntity
  8
寸法
 62
     0
 48
50.0
370
    -2
100
AcDbBlockReference
  2
_DOTSMALL
 10
13518.67058410102
 20
4152.178294807156
 30
0.0
 41
100.0
 42
100.0
 43
100.0
 50
90.0
  0
MTEXT
  5
1AB6E
330
19307
100
AcDbEntity
  8
寸法
 62
     7
 48
50.0
100
AcDbMText
 10
13418.6587730774
 20
3142.178294807158
 30
0.0
 40
120.0
 41
0.0
 71
     5
 72
     1
  1
\A1;2020
  7
STYLE1
 11
0.0000000000000001
 21
1.0
 31
0.0
 73
     1
 44
1.0
1001
ACAD
1000
MTEXTBEGIN
1070
    73
1070
     1
1070
    44
1040
1.0
1070
    74
1070
     0
1000
MTEXTEND
  0
POINT
  5
1AB6F
330
19307
100
AcDbEntity
  8
DEFPOINTS
 62
     0
 48
50.0
100
AcDbPoint
 10
12813.74342612889
 20
2132.178294807156
 30
0.0
  0
POINT
  5
1AB70
330
19307
100
AcDbEntity
  8
DEFPOINTS
 62
     0
 48
50.0
100
AcDbPoint
 10
12893.74342612889
 20
4152.178294807156
 30
0.0
  0
POINT
  5
1AB71
330
19307
100
AcDbEntity
  8
DEFPOINTS
 62
     0
 48
50.0
100
AcDbPoint
 10
13518.67058410102
 20
4152.178294807156
 30
0.0
  0
ENDBLK
  5
19312
330
19307
100
AcDbEntity
  8
0
 48
50.0
100
AcDbBlockEnd
  0
BLOCK
  5
1931F
330
19313
100
AcDbEntity
  8
0
 48
50.0
100
AcDbBlockBegin
  2
*D22
 70
     1
 10
0.0
 20
0.0
 30
0.0
  3
*D22
  1

  0
LINE
  5
1ABAB
330
19313
100
AcDbEntity
  8
寸法
 62
     0
 48
50.0
370
    -2
100
AcDbLine
 10
9743.743426128897
 20
2182.178294807154
 30
0.0
 11
8859.993296945637
 21
2182.178294807155
 31
0.0
  0
LINE
  5
1ABAC
330
19313
100
AcDbEntity
  8
寸法
 62
     0
 48
50.0
370
    -2
100
AcDbLine
 10
9666.743426128896
 20
2132.17829480715
 30
0.0
 11
8859.993296945637
 21
2132.17829480715
 31
0.0
  0
LINE
  5
1ABAD
330
19313
100
AcDbEntity
  8
寸法
 62
     0
 48
50.0
370
    -2
100
AcDbLine
 10
8919.993296945637
 20
2182.178294807155
 30
0.0
 11
8919.993296945637
 21
2282.178294807155
 31
0.0
  0
LINE
  5
1ABAE
330
19313
100
AcDbEntity
  8
寸法
 62
     0
 48
50.0
370
    -2
100
AcDbLine
 10
8919.993296945637
 20
2132.17829480715
 30
0.0
 11
8919.993296945637
 21
1720.083806618171
 31
0.0
  0
LINE
  5
1ABAF
330
19313
100
AcDbEntity
  8
寸法
 62
     0
 48
50.0
370
    -2
100
AcDbLine
 10
8919.993296945637
 20
2182.178294807155
 30
0.0
 11
8919.993296945637
 21
2132.17829480715
 31
0.0
  0
INSERT
  5
1ABB0
330
19313
100
AcDbEntity
  8
寸法
 62
     0
 48
50.0
370
    -2
100
AcDbBlockReference
  2
_DOTSMALL
 10
8919.993296945637
 20
2182.178294807155
 30
0.0
 41
100.0
 42
100.0
 43
100.0
 50
270.0
  0
INSERT
  5
1ABB1
330
19313
100
AcDbEntity
  8
寸法
 62
     0
 48
50.0
370
    -2
100
AcDbBlockReference
  2
_DOTSMALL
 10
8919.993296945637
 20
2132.17829480715
 30
0.0
 41
100.0
 42
100.0
 43
100.0
 50
90.0
  0
MTEXT
  5
1ABB2
330
19313
100
AcDbEntity
  8
寸法
 62
     7
 48
50.0
100
AcDbMText
 10
8819.993296945638
 20
1826.131050712661
 30
0.0
 40
120.0
 41
0.0
 71
     5
 72
     1
  1
\A1;50
  7
STYLE1
 11
0.0000000000000001
 21
1.0
 31
0.0
 73
     1
 44
1.0
1001
ACAD
1000
MTEXTBEGIN
1070
    73
1070
     1
1070
    44
1040
1.0
1070
    74
1070
     0
1000
MTEXTEND
  0
POINT
  5
1ABB3
330
19313
100
AcDbEntity
  8
DEFPOINTS
 62
     0
 48
50.0
100
AcDbPoint
 10
9763.743426128897
 20
2182.178294807154
 30
0.0
  0
POINT
  5
1ABB4
330
19313
100
AcDbEntity
  8
DEFPOINTS
 62
     0
 48
50.0
100
AcDbPoint
 10
9686.743426128895
 20
2132.17829480715
 30
0.0
  0
POINT
  5
1ABB5
330
19313
100
AcDbEntity
  8
DEFPOINTS
 62
     0
 48
50.0
100
AcDbPoint
 10
8919.993296945637
 20
2132.17829480715
 30
0.0
  0
ENDBLK
  5
19320
330
19313
100
AcDbEntity
  8
0
 48
50.0
100
AcDbBlockEnd
  0
BLOCK
  5
1932B
330
19321
100
AcDbEntity
  8
0
 48
50.0
100
AcDbBlockBegin
  2
*D23
 70
     1
 10
0.0
 20
0.0
 30
0.0
  3
*D23
  1

  0
LINE
  5
1AB56
330
19321
100
AcDbEntity
  8
寸法
 62
     0
 48
50.0
370
    -2
100
AcDbLine
 10
12813.74342612889
 20
4173.98897441881
 30
0.0
 11
12813.74342612889
 21
4665.83574838646
 31
0.0
  0
LINE
  5
1AB57
330
19321
100
AcDbEntity
  8
寸法
 62
     0
 48
50.0
370
    -2
100
AcDbLine
 10
9763.743426128897
 20
4223.17991293013
 30
0.0
 11
9763.743426128897
 21
4665.83574838646
 31
0.0
  0
LINE
  5
1AB58
330
19321
100
AcDbEntity
  8
寸法
 62
     0
 48
50.0
370
    -2
100
AcDbLine
 10
12813.74342612889
 20
4605.83574838646
 30
0.0
 11
9763.743426128897
 21
4605.83574838646
 31
0.0
  0
INSERT
  5
1AB59
330
19321
100
AcDbEntity
  8
寸法
 62
     0
 48
50.0
370
    -2
100
AcDbBlockReference
  2
_DOTSMALL
 10
12813.74342612889
 20
4605.83574838646
 30
0.0
 41
100.0
 42
100.0
 43
100.0
  0
INSERT
  5
1AB5A
330
19321
100
AcDbEntity
  8
寸法
 62
     0
 48
50.0
370
    -2
100
AcDbBlockReference
  2
_DOTSMALL
 10
9763.743426128897
 20
4605.83574838646
 30
0.0
 41
100.0
 42
100.0
 43
100.0
 50
180.0
  0
MTEXT
  5
1AB5B
330
19321
100
AcDbEntity
  8
寸法
 62
     7
 48
50.0
100
AcDbMText
 10
11333.80180068831
 20
4705.83574838646
 30
0.0
 40
120.0
 41
0.0
 71
     5
 72
     1
  1
\A1;柱外寸法3050
  7
STYLE1
 73
     1
 44
1.0
1001
ACAD
1000
MTEXTBEGIN
1070
    73
1070
     1
1070
    44
1040
1.0
1070
    74
1070
     0
1000
MTEXTEND
  0
POINT
  5
1AB5C
330
19321
100
AcDbEntity
  8
DEFPOINTS
 62
     0
 48
50.0
100
AcDbPoint
 10
12813.74342612889
 20
4153.988974418809
 30
0.0
  0
POINT
  5
1AB5D
330
19321
100
AcDbEntity
  8
DEFPOINTS
 62
     0
 48
50.0
100
AcDbPoint
 10
9763.743426128897
 20
4203.179912930131
 30
0.0
  0
POINT
  5
1AB5E
330
19321
100
AcDbEntity
  8
DEFPOINTS
 62
     0
 48
50.0
100
AcDbPoint
 10
9763.743426128897
 20
4605.83574838646
 30
0.0
  0
ENDBLK
  5
1932C
330
19321
100
AcDbEntity
  8
0
 48
50.0
100
AcDbBlockEnd
  0
BLOCK
  5
19339
330
1932D
100
AcDbEntity
  8
0
 48
50.0
100
AcDbBlockBegin
  2
*D24
 70
     1
 10
0.0
 20
0.0
 30
0.0
  3
*D24
  1

  0
LINE
  5
1AB4B
330
1932D
100
AcDbEntity
  8
寸法
 62
     0
 48
50.0
370
    -2
100
AcDbLine
 10
9763.743426128897
 20
4223.17991293013
 30
0.0
 11
9763.743426128897
 21
4665.835748386458
 31
0.0
  0
LINE
  5
1AB4C
330
1932D
100
AcDbEntity
  8
寸法
 62
     0
 48
50.0
370
    -2
100
AcDbLine
 10
9703.743426128896
 20
4227.178294807159
 30
0.0
 11
9703.743426128896
 21
4665.835748386458
 31
0.0
  0
LINE
  5
1AB4D
330
1932D
100
AcDbEntity
  8
寸法
 62
     0
 48
50.0
370
    -2
100
AcDbLine
 10
9763.743426128897
 20
4605.835748386458
 30
0.0
 11
9863.743426128896
 21
4605.835748386458
 31
0.0
  0
LINE
  5
1AB4E
330
1932D
100
AcDbEntity
  8
寸法
 62
     0
 48
50.0
370
    -2
100
AcDbLine
 10
9703.743426128896
 20
4605.835748386458
 30
0.0
 11
9284.467835577716
 21
4605.835748386458
 31
0.0
  0
LINE
  5
1AB4F
330
1932D
100
AcDbEntity
  8
寸法
 62
     0
 48
50.0
370
    -2
100
AcDbLine
 10
9763.743426128897
 20
4605.835748386458
 30
0.0
 11
9703.743426128896
 21
4605.835748386458
 31
0.0
  0
INSERT
  5
1AB50
330
1932D
100
AcDbEntity
  8
寸法
 62
     0
 48
50.0
370
    -2
100
AcDbBlockReference
  2
_DOTSMALL
 10
9763.743426128897
 20
4605.835748386458
 30
0.0
 41
100.0
 42
100.0
 43
100.0
 50
180.0
  0
INSERT
  5
1AB51
330
1932D
100
AcDbEntity
  8
寸法
 62
     0
 48
50.0
370
    -2
100
AcDbBlockReference
  2
_DOTSMALL
 10
9703.743426128896
 20
4605.835748386458
 30
0.0
 41
100.0
 42
100.0
 43
100.0
  0
MTEXT
  5
1AB52
330
1932D
100
AcDbEntity
  8
寸法
 62
     7
 48
50.0
100
AcDbMText
 10
9394.105630853307
 20
4705.835748386458
 30
0.0
 40
120.0
 41
0.0
 71
     5
 72
     1
  1
\A1;60
  7
STYLE1
 73
     1
 44
1.0
1001
ACAD
1000
MTEXTBEGIN
1070
    73
1070
     1
1070
    44
1040
1.0
1070
    74
1070
     0
1000
MTEXTEND
  0
POINT
  5
1AB53
330
1932D
100
AcDbEntity
  8
DEFPOINTS
 62
     0
 48
50.0
100
AcDbPoint
 10
9763.743426128897
 20
4203.179912930131
 30
0.0
  0
POINT
  5
1AB54
330
1932D
100
AcDbEntity
  8
DEFPOINTS
 62
     0
 48
50.0
100
AcDbPoint
 10
9703.743426128896
 20
4207.178294807158
 30
0.0
  0
POINT
  5
1AB55
330
1932D
100
AcDbEntity
  8
DEFPOINTS
 62
     0
 48
50.0
100
AcDbPoint
 10
9703.743426128896
 20
4605.835748386458
 30
0.0
  0
ENDBLK
  5
1933A
330
1932D
100
AcDbEntity
  8
0
 48
50.0
100
AcDbBlockEnd
  0
BLOCK
  5
19345
330
1933B
100
AcDbEntity
  8
0
 48
50.0
100
AcDbBlockBegin
  2
*D25
 70
     1
 10
0.0
 20
0.0
 30
0.0
  3
*D25
  1

  0
LINE
  5
1AB42
330
1933B
100
AcDbEntity
  8
寸法
 62
     0
 48
50.0
370
    -2
100
AcDbLine
 10
12893.74342612889
 20
4172.178294807156
 30
0.0
 11
12893.74342612889
 21
4895.949341172737
 31
0.0
  0
LINE
  5
1AB43
330
1933B
100
AcDbEntity
  8
寸法
 62
     0
 48
50.0
370
    -2
100
AcDbLine
 10
9703.743426128896
 20
4227.178294807159
 30
0.0
 11
9703.743426128896
 21
4895.949341172737
 31
0.0
  0
LINE
  5
1AB44
330
1933B
100
AcDbEntity
  8
寸法
 62
     0
 48
50.0
370
    -2
100
AcDbLine
 10
12893.74342612889
 20
4835.949341172736
 30
0.0
 11
9703.743426128896
 21
4835.949341172736
 31
0.0
  0
INSERT
  5
1AB45
330
1933B
100
AcDbEntity
  8
寸法
 62
     0
 48
50.0
370
    -2
100
AcDbBlockReference
  2
_DOTSMALL
 10
12893.74342612889
 20
4835.949341172736
 30
0.0
 41
100.0
 42
100.0
 43
100.0
  0
INSERT
  5
1AB46
330
1933B
100
AcDbEntity
  8
寸法
 62
     0
 48
50.0
370
    -2
100
AcDbBlockReference
  2
_DOTSMALL
 10
9703.743426128896
 20
4835.949341172736
 30
0.0
 41
100.0
 42
100.0
 43
100.0
 50
180.0
  0
MTEXT
  5
1AB47
330
1933B
100
AcDbEntity
  8
寸法
 62
     7
 48
50.0
100
AcDbMText
 10
11375.44923243842
 20
4935.949341172737
 30
0.0
 40
120.0
 41
0.0
 71
     5
 72
     1
  1
\A1;3190
  7
STYLE1
 73
     1
 44
1.0
1001
ACAD
1000
MTEXTBEGIN
1070
    73
1070
     1
1070
    44
1040
1.0
1070
    74
1070
     0
1000
MTEXTEND
  0
POINT
  5
1AB48
330
1933B
100
AcDbEntity
  8
DEFPOINTS
 62
     0
 48
50.0
100
AcDbPoint
 10
12893.74342612889
 20
4152.178294807156
 30
0.0
  0
POINT
  5
1AB49
330
1933B
100
AcDbEntity
  8
DEFPOINTS
 62
     0
 48
50.0
100
AcDbPoint
 10
9703.743426128896
 20
4207.178294807158
 30
0.0
  0
POINT
  5
1AB4A
330
1933B
100
AcDbEntity
  8
DEFPOINTS
 62
     0
 48
50.0
100
AcDbPoint
 10
9703.743426128896
 20
4835.949341172736
 30
0.0
  0
ENDBLK
  5
19346
330
1933B
100
AcDbEntity
  8
0
 48
50.0
100
AcDbBlockEnd
  0
BLOCK
  5
19352
330
19347
100
AcDbEntity
  8
0
 48
50.0
100
AcDbBlockBegin
  2
*D26
 70
     1
 10
0.0
 20
0.0
 30
0.0
  3
*D26
  1

  0
LINE
  5
1AB38
330
19347
100
AcDbEntity
  8
寸法
 62
     0
 48
50.0
370
    -2
100
AcDbLine
 10
12813.74342612889
 20
4173.98897441881
 30
0.0
 11
12813.74342612889
 21
4665.83574838646
 31
0.0
  0
LINE
  5
1AB39
330
19347
100
AcDbEntity
  8
寸法
 62
     0
 48
50.0
370
    -2
100
AcDbLine
 10
12893.74342612889
 20
4172.178294807157
 30
0.0
 11
12893.74342612889
 21
4665.83574838646
 31
0.0
  0
LINE
  5
1AB3A
330
19347
100
AcDbEntity
  8
寸法
 62
     0
 48
50.0
370
    -2
100
AcDbLine
 10
12813.74342612889
 20
4605.83574838646
 30
0.0
 11
12893.74342612889
 21
4605.83574838646
 31
0.0
  0
LINE
  5
1AB3B
330
19347
100
AcDbEntity
  8
寸法
 62
     0
 48
50.0
370
    -2
100
AcDbLine
 10
12893.74342612889
 20
4605.83574838646
 30
0.0
 11
13205.83791431787
 21
4605.83574838646
 31
0.0
  0
INSERT
  5
1AB3C
330
19347
100
AcDbEntity
  8
寸法
 62
     0
 48
50.0
370
    -2
100
AcDbBlockReference
  2
_DOTSMALL
 10
12813.74342612889
 20
4605.83574838646
 30
0.0
 41
100.0
 42
100.0
 43
100.0
 50
180.0
  0
INSERT
  5
1AB3D
330
19347
100
AcDbEntity
  8
寸法
 62
     0
 48
50.0
370
    -2
100
AcDbBlockReference
  2
_DOTSMALL
 10
12893.74342612889
 20
4605.83574838646
 30
0.0
 41
100.0
 42
100.0
 43
100.0
  0
MTEXT
  5
1AB3E
330
19347
100
AcDbEntity
  8
寸法
 62
     7
 48
50.0
100
AcDbMText
 10
13099.79067022338
 20
4705.83574838646
 30
0.0
 40
120.0
 41
0.0
 71
     5
 72
     1
  1
\A1;80
  7
STYLE1
 73
     1
 44
1.0
1001
ACAD
1000
MTEXTBEGIN
1070
    73
1070
     1
1070
    44
1040
1.0
1070
    74
1070
     0
1000
MTEXTEND
  0
POINT
  5
1AB3F
330
19347
100
AcDbEntity
  8
DEFPOINTS
 62
     0
 48
50.0
100
AcDbPoint
 10
12813.74342612889
 20
4153.988974418809
 30
0.0
  0
POINT
  5
1AB40
330
19347
100
AcDbEntity
  8
DEFPOINTS
 62
     0
 48
50.0
100
AcDbPoint
 10
12893.74342612889
 20
4152.178294807157
 30
0.0
  0
POINT
  5
1AB41
330
19347
100
AcDbEntity
  8
DEFPOINTS
 62
     0
 48
50.0
100
AcDbPoint
 10
12893.74342612889
 20
4605.83574838646
 30
0.0
  0
ENDBLK
  5
19353
330
19347
100
AcDbEntity
  8
0
 48
50.0
100
AcDbBlockEnd
  0
BLOCK
  5
1935F
330
19354
100
AcDbEntity
  8
0
 48
50.0
100
AcDbBlockBegin
  2
*D27
 70
     1
 10
0.0
 20
0.0
 30
0.0
  3
*D27
  1

  0
LINE
  5
1AB2E
330
19354
100
AcDbEntity
  8
寸法
 62
     0
 48
50.0
370
    -2
100
AcDbLine
 10
9703.147712419999
 20
4206.476001876817
 30
0.0
 11
9087.213273314716
 21
4224.190152151146
 31
0.0
  0
LINE
  5
1AB2F
330
19354
100
AcDbEntity
  8
寸法
 62
     0
 48
50.0
370
    -2
100
AcDbLine
 10
9699.094256863372
 20
4065.534278111104
 30
0.0
 11
9083.159817758092
 21
4083.248428385434
 31
0.0
  0
LINE
  5
1AB30
330
19354
100
AcDbEntity
  8
寸法
 62
     0
 48
50.0
370
    -2
100
AcDbLine
 10
9143.135019360521
 20
4081.523553680486
 30
0.0
 11
9147.188474917149
 21
4222.465277446199
 31
0.0
  0
LINE
  5
1AB31
330
19354
100
AcDbEntity
  8
寸法
 62
     0
 48
50.0
370
    -2
100
AcDbLine
 10
9147.188474917149
 20
4222.465277446199
 30
0.0
 11
9157.537723146832
 21
4582.316487060783
 31
0.0
  0
INSERT
  5
1AB32
330
19354
100
AcDbEntity
  8
寸法
 62
     0
 48
50.0
370
    -2
100
AcDbBlockReference
  2
_DOTSMALL
 10
9143.135019360521
 20
4081.523553680486
 30
0.0
 41
100.0
 42
100.0
 43
100.0
 50
268.3526390256378
  0
INSERT
  5
1AB33
330
19354
100
AcDbEntity
  8
寸法
 62
     0
 48
50.0
370
    -2
100
AcDbBlockReference
  2
_DOTSMALL
 10
9147.188474917149
 20
4222.465277446199
 30
0.0
 41
100.0
 42
100.0
 43
100.0
 50
88.35263902563776
  0
MTEXT
  5
1AB34
330
19354
100
AcDbEntity
  8
寸法
 62
     7
 48
50.0
100
AcDbMText
 10
9053.841825282061
 20
4455.245008097096
 30
0.0
 40
120.0
 41
0.0
 71
     5
 72
     1
  1
\A1;141
  7
STYLE1
 11
0.0287479117491237
 21
0.9995866933738488
 31
0.0
 73
     1
 44
1.0
1001
ACAD
1000
MTEXTBEGIN
1070
    73
1070
     1
1070
    44
1040
1.0
1070
    74
1070
     0
1000
MTEXTEND
  0
POINT
  5
1AB35
330
19354
100
AcDbEntity
  8
DEFPOINTS
 62
     0
 48
50.0
100
AcDbPoint
 10
9723.139446287477
 20
4205.901043641834
 30
0.0
  0
POINT
  5
1AB36
330
19354
100
AcDbEntity
  8
DEFPOINTS
 62
     0
 48
50.0
100
AcDbPoint
 10
9719.085990730849
 20
4064.959319876122
 30
0.0
  0
POINT
  5
1AB37
330
19354
100
AcDbEntity
  8
DEFPOINTS
 62
     0
 48
50.0
100
AcDbPoint
 10
9143.135019360521
 20
4081.523553680486
 30
0.0
  0
ENDBLK
  5
19360
330
19354
100
AcDbEntity
  8
0
 48
50.0
100
AcDbBlockEnd
  0
BLOCK
  5
199D2
330
199C8
100
AcDbEntity
  8
0
 48
50.0
100
AcDbBlockBegin
  2
*D28
 70
     1
 10
0.0
 20
0.0
 30
0.0
  3
*D28
  1

  0
LINE
  5
19ED9
330
199C8
100
AcDbEntity
  8
寸法
 62
     0
 48
50.0
370
    -2
100
AcDbLine
 10
4584.585229546418
 20
7179.1157016794
 30
0.0
 11
4584.585229546418
 21
6547.032917470722
 31
0.0
  0
LINE
  5
19EDA
330
199C8
100
AcDbEntity
  8
寸法
 62
     0
 48
50.0
370
    -2
100
AcDbLine
 10
5850.585229546418
 20
7179.1157016794
 30
0.0
 11
5850.585229546418
 21
6547.032917470722
 31
0.0
  0
LINE
  5
19EDB
330
199C8
100
AcDbEntity
  8
寸法
 62
     0
 48
50.0
370
    -2
100
AcDbLine
 10
4604.585229546418
 20
6587.032917470722
 30
0.0
 11
5830.585229546418
 21
6587.032917470722
 31
0.0
  0
INSERT
  5
19EDC
330
199C8
100
AcDbEntity
  8
寸法
 62
     0
 48
50.0
370
    -2
100
AcDbBlockReference
  2
_DOT
 10
4584.585229546418
 20
6587.032917470722
 30
0.0
 41
20.0
 42
20.0
 43
20.0
 50
180.0
  0
INSERT
  5
19EDD
330
199C8
100
AcDbEntity
  8
寸法
 62
     0
 48
50.0
370
    -2
100
AcDbBlockReference
  2
_DOT
 10
5850.585229546418
 20
6587.032917470722
 30
0.0
 41
20.0
 42
20.0
 43
20.0
  0
MTEXT
  5
19EDE
330
199C8
100
AcDbEntity
  8
寸法
 62
     7
 48
50.0
100
AcDbMText
 10
5232.074091073984
 20
6779.044728494344
 30
0.0
 40
120.0
 41
0.0
 71
     5
 72
     1
  1
\A1;有効開口部間口\P1266
  7
STYLE1
 73
     1
 44
1.0
1001
ACAD
1000
MTEXTBEGIN
1070
    73
1070
     1
1070
    44
1040
1.0
1070
    74
1070
     0
1000
MTEXTEND
  0
POINT
  5
19EDF
330
199C8
100
AcDbEntity
  8
DEFPOINTS
 62
     0
 48
50.0
100
AcDbPoint
 10
4584.585229546418
 20
7199.1157016794
 30
0.0
  0
POINT
  5
19EE0
330
199C8
100
AcDbEntity
  8
DEFPOINTS
 62
     0
 48
50.0
100
AcDbPoint
 10
5850.585229546418
 20
7199.1157016794
 30
0.0
  0
POINT
  5
19EE1
330
199C8
100
AcDbEntity
  8
DEFPOINTS
 62
     0
 48
50.0
100
AcDbPoint
 10
5850.585229546418
 20
6587.032917470722
 30
0.0
  0
ENDBLK
  5
199D3
330
199C8
100
AcDbEntity
  8
0
 48
50.0
100
AcDbBlockEnd
  0
BLOCK
  5
19D5A
330
19D50
100
AcDbEntity
  8
0
 48
50.0
100
AcDbBlockBegin
  2
*D29
 70
     1
 10
0.0
 20
0.0
 30
0.0
  3
*D29
  1

  0
LINE
  5
19ED0
330
19D50
100
AcDbEntity
  8
寸法
 62
     0
 48
50.0
370
    -2
100
AcDbLine
 10
4545.585229546417
 20
7179.115701679437
 30
0.0
 11
4545.585229546417
 21
6218.985986251669
 31
0.0
  0
LINE
  5
19ED1
330
19D50
100
AcDbEntity
  8
寸法
 62
     0
 48
50.0
370
    -2
100
AcDbLine
 10
6699.585229546418
 20
7179.115701679437
 30
0.0
 11
6699.585229546418
 21
6218.985986251669
 31
0.0
  0
LINE
  5
19ED2
330
19D50
100
AcDbEntity
  8
寸法
 62
     0
 48
50.0
370
    -2
100
AcDbLine
 10
4545.585229546417
 20
6278.985986251669
 30
0.0
 11
6699.585229546418
 21
6278.985986251669
 31
0.0
  0
INSERT
  5
19ED3
330
19D50
100
AcDbEntity
  8
寸法
 62
     0
 48
50.0
370
    -2
100
AcDbBlockReference
  2
_DOTSMALL
 10
4545.585229546417
 20
6278.985986251669
 30
0.0
 41
100.0
 42
100.0
 43
100.0
 50
180.0
  0
INSERT
  5
19ED4
330
19D50
100
AcDbEntity
  8
寸法
 62
     0
 48
50.0
370
    -2
100
AcDbBlockReference
  2
_DOTSMALL
 10
6699.585229546418
 20
6278.985986251669
 30
0.0
 41
100.0
 42
100.0
 43
100.0
  0
MTEXT
  5
19ED5
330
19D50
100
AcDbEntity
  8
寸法
 62
     7
 48
50.0
100
AcDbMText
 10
5644.717986293731
 20
6378.997797275291
 30
0.0
 40
120.0
 41
0.0
 71
     5
 72
     1
  1
\A1;2154
  7
STYLE1
 73
     1
 44
1.0
1001
ACAD
1000
MTEXTBEGIN
1070
    73
1070
     1
1070
    44
1040
1.0
1070
    74
1070
     0
1000
MTEXTEND
  0
POINT
  5
19ED6
330
19D50
100
AcDbEntity
  8
DEFPOINTS
 62
     0
 48
50.0
100
AcDbPoint
 10
4545.585229546417
 20
7199.115701679438
 30
0.0
  0
POINT
  5
19ED7
330
19D50
100
AcDbEntity
  8
DEFPOINTS
 62
     0
 48
50.0
100
AcDbPoint
 10
6699.585229546418
 20
7199.115701679438
 30
0.0
  0
POINT
  5
19ED8
330
19D50
100
AcDbEntity
  8
DEFPOINTS
 62
     0
 48
50.0
100
AcDbPoint
 10
6699.585229546418
 20
6278.985986251669
 30
0.0
  0
ENDBLK
  5
19D5B
330
19D50
100
AcDbEntity
  8
0
 48
50.0
100
AcDbBlockEnd
  0
BLOCK
  5
19D68
330
19D5C
100
AcDbEntity
  8
0
 48
50.0
100
AcDbBlockBegin
  2
*D30
 70
     1
 10
0.0
 20
0.0
 30
0.0
  3
*D30
  1

  0
LINE
  5
19EC5
330
19D5C
100
AcDbEntity
  8
寸法
 62
     0
 48
50.0
370
    -2
100
AcDbLine
 10
4525.585229546417
 20
7276.115701679437
 30
0.0
 11
4296.971261871711
 21
7276.115701679437
 31
0.0
  0
LINE
  5
19EC6
330
19D5C
100
AcDbEntity
  8
寸法
 62
     0
 48
50.0
370
    -2
100
AcDbLine
 10
4525.585229546416
 20
7201.115701679404
 30
0.0
 11
4296.971261871711
 21
7201.115701679404
 31
0.0
  0
LINE
  5
19EC7
330
19D5C
100
AcDbEntity
  8
寸法
 62
     0
 48
50.0
370
    -2
100
AcDbLine
 10
4336.971261871712
 20
7296.115701679437
 30
0.0
 11
4336.971261871712
 21
7316.115701679438
 31
0.0
  0
LINE
  5
19EC8
330
19D5C
100
AcDbEntity
  8
寸法
 62
     0
 48
50.0
370
    -2
100
AcDbLine
 10
4336.971261871712
 20
7181.115701679404
 30
0.0
 11
4336.971261871712
 21
6954.45864635748
 31
0.0
  0
LINE
  5
19EC9
330
19D5C
100
AcDbEntity
  8
寸法
 62
     0
 48
50.0
370
    -2
100
AcDbLine
 10
4336.971261871712
 20
7276.115701679437
 30
0.0
 11
4336.971261871712
 21
7201.115701679404
 31
0.0
  0
INSERT
  5
19ECA
330
19D5C
100
AcDbEntity
  8
寸法
 62
     0
 48
50.0
370
    -2
100
AcDbBlockReference
  2
_DOT
 10
4336.971261871712
 20
7276.115701679437
 30
0.0
 41
20.0
 42
20.0
 43
20.0
 50
270.0
  0
INSERT
  5
19ECB
330
19D5C
100
AcDbEntity
  8
寸法
 62
     0
 48
50.0
370
    -2
100
AcDbBlockReference
  2
_DOT
 10
4336.971261871712
 20
7201.115701679404
 30
0.0
 41
20.0
 42
20.0
 43
20.0
 50
90.0
  0
MTEXT
  5
19ECC
330
19D5C
100
AcDbEntity
  8
寸法
 62
     7
 48
50.0
100
AcDbMText
 10
4244.971261871709
 20
7054.94392773172
 30
0.0
 40
120.0
 41
0.0
 71
     5
 72
     1
  1
\A1;75
  7
STYLE1
 11
0.0000000000000001
 21
1.0
 31
0.0
 73
     1
 44
1.0
1001
ACAD
1000
MTEXTBEGIN
1070
    73
1070
     1
1070
    44
1040
1.0
1070
    74
1070
     0
1000
MTEXTEND
  0
POINT
  5
19ECD
330
19D5C
100
AcDbEntity
  8
DEFPOINTS
 62
     0
 48
50.0
100
AcDbPoint
 10
4545.585229546417
 20
7276.115701679437
 30
0.0
  0
POINT
  5
19ECE
330
19D5C
100
AcDbEntity
  8
DEFPOINTS
 62
     0
 48
50.0
100
AcDbPoint
 10
4545.585229546415
 20
7201.115701679404
 30
0.0
  0
POINT
  5
19ECF
330
19D5C
100
AcDbEntity
  8
DEFPOINTS
 62
     0
 48
50.0
100
AcDbPoint
 10
4336.971261871712
 20
7201.115701679404
 30
0.0
  0
ENDBLK
  5
19D69
330
19D5C
100
AcDbEntity
  8
0
 48
50.0
100
AcDbBlockEnd
  0
BLOCK
  5
19DCA
330
19DC0
100
AcDbEntity
  8
0
 48
50.0
100
AcDbBlockBegin
  2
*D31
 70
     1
 10
0.0
 20
0.0
 30
0.0
  3
*D31
  1

  0
LINE
  5
19EBC
330
19DC0
100
AcDbEntity
  8
寸法
 62
     0
 48
50.0
370
    -2
100
AcDbLine
 10
3677.585229546443
 20
7256.115701679404
 30
0.0
 11
3677.585229546443
 21
5911.789306733203
 31
0.0
  0
LINE
  5
19EBD
330
19DC0
100
AcDbEntity
  8
寸法
 62
     0
 48
50.0
370
    -2
100
AcDbLine
 10
7147.585229546425
 20
7256.115701679532
 30
0.0
 11
7147.585229546425
 21
5911.789306733203
 31
0.0
  0
LINE
  5
19EBE
330
19DC0
100
AcDbEntity
  8
寸法
 62
     0
 48
50.0
370
    -2
100
AcDbLine
 10
3677.585229546443
 20
5971.789306733203
 30
0.0
 11
7147.585229546425
 21
5971.789306733203
 31
0.0
  0
INSERT
  5
19EBF
330
19DC0
100
AcDbEntity
  8
寸法
 62
     0
 48
50.0
370
    -2
100
AcDbBlockReference
  2
_DOTSMALL
 10
3677.585229546443
 20
5971.789306733203
 30
0.0
 41
100.0
 42
100.0
 43
100.0
 50
180.0
  0
INSERT
  5
19EC0
330
19DC0
100
AcDbEntity
  8
寸法
 62
     0
 48
50.0
370
    -2
100
AcDbBlockReference
  2
_DOTSMALL
 10
7147.585229546425
 20
5971.789306733203
 30
0.0
 41
100.0
 42
100.0
 43
100.0
  0
MTEXT
  5
19EC1
330
19DC0
100
AcDbEntity
  8
寸法
 62
     7
 48
50.0
100
AcDbMText
 10
5478.921981555774
 20
6071.789306733203
 30
0.0
 40
120.0
 41
0.0
 71
     5
 72
     1
  1
\A1;3470
  7
STYLE1
 73
     1
 44
1.0
1001
ACAD
1000
MTEXTBEGIN
1070
    73
1070
     1
1070
    44
1040
1.0
1070
    74
1070
     0
1000
MTEXTEND
  0
POINT
  5
19EC2
330
19DC0
100
AcDbEntity
  8
DEFPOINTS
 62
     0
 48
50.0
100
AcDbPoint
 10
3677.585229546443
 20
7276.115701679405
 30
0.0
  0
POINT
  5
19EC3
330
19DC0
100
AcDbEntity
  8
DEFPOINTS
 62
     0
 48
50.0
100
AcDbPoint
 10
7147.585229546425
 20
7276.115701679531
 30
0.0
  0
POINT
  5
19EC4
330
19DC0
100
AcDbEntity
  8
DEFPOINTS
 62
     0
 48
50.0
100
AcDbPoint
 10
7147.585229546425
 20
5971.789306733203
 30
0.0
  0
ENDBLK
  5
19DCB
330
19DC0
100
AcDbEntity
  8
0
 48
50.0
100
AcDbBlockEnd
  0
ENDSEC
  0
SECTION
  2
ENTITIES
  0
MTEXT
  5
763F
330
747D
100
AcDbEntity
  8
0
100
AcDbMText
 10
302.846345836809
 20
280.1983726409901
 30
0.0
 40
3.5
 41
5.323721266742722
 71
     1
 72
     5
  1

  7
MSMINCHO
 73
     1
 44
1.0
1001
ACAD
1000
MTEXTBEGIN
1070
    73
1070
     1
1070
    44
1040
1.0
1070
    74
1070
     0
1000
MTEXTEND
  0
LINE
  5
10B57
330
747D
100
AcDbEntity
  8
補助
  6
PHANTOM
 62
   230
 48
50.0
100
AcDbLine
 10
139.9999999999995
 20
11409.6
 30
0.0
 11
16307.2
 21
11409.6
 31
0.0
  0
LINE
  5
10B59
330
747D
100
AcDbEntity
  8
仕様書枠
  6
Continuous
 48
50.0
100
AcDbLine
 10
13107.2
 20
1200.0
 30
0.0
 11
13107.2
 21
-0.0000000000000729
 31
0.0
  0
LINE
  5
10B5D
330
747D
100
AcDbEntity
  8
仕様書枠
 48
50.0
100
AcDbLine
 10
140.0
 20
0.0
 30
0.0
 11
16307.2
 21
-0.0000000000000909
 31
0.0
  0
LINE
  5
10B5E
330
747D
100
AcDbEntity
  8
補助
  6
PHANTOM
 62
   230
 48
50.0
100
AcDbLine
 10
16307.2
 20
11409.6
 30
0.0
 11
16307.2
 21
1200.0
 31
0.0
  0
LINE
  5
10B6C
330
747D
100
AcDbEntity
  8
仕様書枠
 48
50.0
100
AcDbLine
 10
13107.2
 20
1200.0
 30
0.0
 11
16307.2
 21
1200.0
 31
0.0
  0
LINE
  5
10B6D
330
747D
100
AcDbEntity
  8
補助
  6
PHANTOM
 62
   230
 48
50.0
100
AcDbLine
 10
13107.2
 20
11409.6
 30
0.0
 11
13107.2
 21
4800.0
 31
0.0
  0
LINE
  5
10B6F
330
747D
100
AcDbEntity
  8
補助
  6
PHANTOM
 62
   230
 48
50.0
100
AcDbLine
 10
13107.2
 20
4800.0
 30
0.0
 11
16307.2
 21
4800.0
 31
0.0
  0
LINE
  5
10B72
330
747D
100
AcDbEntity
  8
文字
 62
     7
 48
50.0
100
AcDbLine
 10
13187.2
 20
400.0
 30
0.0
 11
16227.2
 21
400.0
 31
0.0
  0
TEXT
  5
10B73
330
747D
100
AcDbEntity
  8
文字
 62
     7
 48
50.0
100
AcDbText
 10
13162.9790565769
 20
895.0906074299405
 30
0.0
 40
200.0
  1
外 形 図
  7
STYLE2
100
AcDbText
  0
TEXT
  5
10B74
330
747D
100
AcDbEntity
  8
文字
 62
     7
 48
50.0
100
AcDbText
 10
13201.43669998441
 20
477.2740661031255
 30
0.0
 40
160.0
  1
機種名
  7
STYLE2
100
AcDbText
  0
LINE
  5
10B7B
330
747D
100
AcDbEntity
  8
仕様書枠
 48
50.0
100
AcDbLine
 10
13107.2
 20
800.0
 30
0.0
 11
14251.2
 21
800.0
 31
0.0
  0
LINE
  5
10B88
330
747D
100
AcDbEntity
  8
仕様書枠
  6
Continuous
 48
50.0
100
AcDbLine
 10
14251.2
 20
1200.0
 30
0.0
 11
14251.2
 21
800.0
 31
0.0
  0
LINE
  5
16462
330
747D
100
AcDbEntity
  8
仕様書枠
 48
50.0
100
AcDbLine
 10
16307.2
 20
1200.0
 30
0.0
 11
16307.2
 21
-0.0000000000000909
 31
0.0
  0
TEXT
  5
1649E
330
747D
100
AcDbEntity
  8
文字
 62
     7
 48
50.0
100
AcDbText
 10
14524.131837222
 20
1031.557706291228
 30
0.0
 40
100.0
  1
NO.47     <縮尺> S=1/40
  7
STYLE2
100
AcDbText
  0
TEXT
  5
1649F
330
747D
100
AcDbEntity
  8
文字
 62
     7
 48
50.0
100
AcDbText
 10
14883.82156197996
 20
881.2807276968213
 30
0.0
 40
100.0
  1
～一般型～
  7
STYLE2
100
AcDbText
  0
TEXT
  5
164A1
330
747D
100
AcDbEntity
  8
文字
 62
     7
 48
50.0
100
AcDbText
 10
13209.4053442172
 20
76.09434707649348
 30
0.0
 40
100.0
  1
○床面積 ： 10.75㎡(3.26坪) 　
  7
STYLE2
100
AcDbText
  0
LINE
  5
1887D
330
747D
100
AcDbEntity
  8
部品1
100
AcDbLine
 10
7091.085229546435
 20
8171.115701679545
 30
0.0
 11
3734.085229546436
 21
8171.115701679445
 31
0.0
  0
LINE
  5
1887E
330
747D
100
AcDbEntity
  8
部品1
100
AcDbLine
 10
3705.585229546425
 20
8171.115701679445
 30
0.0
 11
3677.585229546425
 21
8171.115701679445
 31
0.0
  0
LINE
  5
1887F
330
747D
100
AcDbEntity
  8
部品1
100
AcDbLine
 10
7119.585229546451
 20
8171.115701679571
 30
0.0
 11
7147.58522954645
 21
8171.115701679571
 31
0.0
  0
TEXT
  5
18880
330
747D
100
AcDbEntity
  8
文字
 62
     7
 48
50.0
100
AcDbText
 10
13583.11819016569
 20
10930.01374588373
 30
0.0
 40
100.0
  1
根太
  7
STYLE1
100
AcDbText
  0
TEXT
  5
18881
330
747D
100
AcDbEntity
  8
文字
 62
     7
 48
50.0
100
AcDbText
 10
13583.11819016569
 20
11100.01374588373
 30
0.0
 40
100.0
  1
土台枠
  7
STYLE1
100
AcDbText
  0
TEXT
  5
18882
330
747D
100
AcDbEntity
  8
文字
 62
     7
 48
50.0
100
AcDbText
 10
13197.42518560407
 20
11270.01374588373
 30
0.0
 40
100.0
  1
品番
  7
STYLE1
100
AcDbText
  0
TEXT
  5
18883
330
747D
100
AcDbEntity
  8
文字
 62
     7
 48
50.0
100
AcDbText
 10
13271.19032244792
 20
10930.01374588373
 30
0.0
 40
100.0
  1
2
  7
STYLE1
100
AcDbText
  0
TEXT
  5
18884
330
747D
100
AcDbEntity
  8
文字
 62
     7
 48
50.0
100
AcDbText
 10
13271.19032244792
 20
11100.01374588373
 30
0.0
 40
100.0
  1
1
  7
STYLE1
100
AcDbText
  0
TEXT
  5
18885
330
747D
100
AcDbEntity
  8
文字
 62
     7
 48
50.0
100
AcDbText
 10
13583.1181901657
 20
10760.01374588373
 30
0.0
 40
100.0
  1
柱
  7
STYLE1
100
AcDbText
  0
TEXT
  5
18886
330
747D
100
AcDbEntity
  8
文字
 62
     7
 48
50.0
100
AcDbText
 10
13583.11819016569
 20
10420.01374588373
 30
0.0
 40
100.0
  1
桁前後
  7
STYLE1
100
AcDbText
  0
TEXT
  5
18887
330
747D
100
AcDbEntity
  8
文字
 62
     7
 48
50.0
100
AcDbText
 10
13583.1181901657
 20
10590.01374588373
 30
0.0
 40
100.0
  1
床パネル
 41
0.9
  7
STYLE1
100
AcDbText
  0
TEXT
  5
18888
330
747D
100
AcDbEntity
  8
文字
 62
     7
 48
50.0
100
AcDbText
 10
13271.19032244792
 20
10760.01374588373
 30
0.0
 40
100.0
  1
3
  7
STYLE1
100
AcDbText
  0
TEXT
  5
18889
330
747D
100
AcDbEntity
  8
文字
 62
     7
 48
50.0
100
AcDbText
 10
13271.19032244792
 20
10420.01374588373
 30
0.0
 40
100.0
  1
5
  7
STYLE1
100
AcDbText
  0
TEXT
  5
1888A
330
747D
100
AcDbEntity
  8
文字
 62
     7
 48
50.0
100
AcDbText
 10
13271.19032244792
 20
10590.01374588373
 30
0.0
 40
100.0
  1
4
  7
STYLE1
100
AcDbText
  0
TEXT
  5
1888B
330
747D
100
AcDbEntity
  8
文字
 62
     7
 48
50.0
100
AcDbText
 10
13732.03840939434
 20
11270.01374588373
 30
0.0
 40
100.0
  1
部　　品　　名
  7
STYLE1
100
AcDbText
  0
TEXT
  5
1888C
330
747D
100
AcDbEntity
  8
文字
 62
     7
 48
50.0
100
AcDbText
 10
13583.11819016569
 20
10080.01374588373
 30
0.0
 40
100.0
  1
鼻隠シ前後
  7
STYLE1
100
AcDbText
  0
TEXT
  5
1888D
330
747D
100
AcDbEntity
  8
文字
 62
     7
 48
50.0
100
AcDbText
 10
13583.11819016569
 20
9910.01374588373
 30
0.0
 40
100.0
  1
屋根パネル
  7
STYLE1
100
AcDbText
  0
TEXT
  5
1888E
330
747D
100
AcDbEntity
  8
文字
 62
     7
 48
50.0
100
AcDbText
 10
13271.19032244792
 20
10080.01374588373
 30
0.0
 40
100.0
  1
7
  7
STYLE1
100
AcDbText
  0
TEXT
  5
1888F
330
747D
100
AcDbEntity
  8
文字
 62
     7
 48
50.0
100
AcDbText
 10
13271.19032244792
 20
9910.01374588373
 30
0.0
 40
100.0
  1
8
  7
STYLE1
100
AcDbText
  0
TEXT
  5
18890
330
747D
100
AcDbEntity
  8
文字
 62
     7
 48
50.0
100
AcDbText
 10
13583.11819016568
 20
9570.013745883729
 30
0.0
 40
100.0
  1
壁パネル
  7
STYLE1
100
AcDbText
  0
TEXT
  5
18891
330
747D
100
AcDbEntity
  8
文字
 62
     7
 48
50.0
100
AcDbText
 10
13583.11819016569
 20
9400.013745883729
 30
0.0
 40
100.0
  1
壁面扉鴨居
  7
STYLE1
100
AcDbText
  0
TEXT
  5
18892
330
747D
100
AcDbEntity
  8
文字
 62
     7
 48
50.0
100
AcDbText
 10
13248.77747366447
 20
9570.013745883729
 30
0.0
 40
100.0
  1
10
  7
STYLE1
100
AcDbText
  0
TEXT
  5
18893
330
747D
100
AcDbEntity
  8
文字
 62
     7
 48
50.0
100
AcDbText
 10
13248.77747366447
 20
9400.013745883729
 30
0.0
 40
100.0
  1
11
  7
STYLE1
100
AcDbText
  0
TEXT
  5
18894
330
747D
100
AcDbEntity
  8
文字
 62
     7
 48
50.0
100
AcDbText
 10
13248.77747366448
 20
9230.013745883729
 30
0.0
 40
100.0
  1
12
  7
STYLE1
100
AcDbText
  0
TEXT
  5
18895
330
747D
100
AcDbEntity
  8
文字
 62
     7
 48
50.0
100
AcDbText
 10
13271.19032244792
 20
9740.013745883729
 30
0.0
 40
100.0
  1
9
  7
STYLE1
100
AcDbText
  0
TEXT
  5
18896
330
747D
100
AcDbEntity
  8
文字
 62
     7
 48
50.0
100
AcDbText
 10
13583.11819016569
 20
9740.013745883729
 30
0.0
 40
100.0
  1
母屋中
  7
STYLE1
100
AcDbText
  0
TEXT
  5
18897
330
747D
100
AcDbEntity
  8
文字
 62
     7
 48
50.0
100
AcDbText
 10
13583.11819016569
 20
10250.01374588373
 30
0.0
 40
100.0
  1
妻板左右
  7
STYLE1
100
AcDbText
  0
TEXT
  5
18898
330
747D
100
AcDbEntity
  8
文字
 62
     7
 48
50.0
100
AcDbText
 10
13271.19032244792
 20
10250.01374588373
 30
0.0
 40
100.0
  1
6
  7
STYLE1
100
AcDbText
  0
TEXT
  5
18899
330
747D
100
AcDbEntity
  8
文字
 62
     7
 48
50.0
100
AcDbText
 10
15022.63965474517
 20
9230.013745883725
 30
0.0
 40
100.0
  1
F12            1.0
  7
STYLE1
100
AcDbText
  0
TEXT
  5
1889A
330
747D
100
AcDbEntity
  8
文字
 62
     7
 48
50.0
100
AcDbText
 10
15022.63965474515
 20
9400.013745883729
 30
0.0
 40
100.0
  1
F12            0.7
  7
STYLE1
100
AcDbText
  0
LINE
  5
1889B
330
747D
100
AcDbEntity
  8
仕様書枠
 48
50.0
100
AcDbLine
 10
16307.2
 20
10049.6
 30
0.0
 11
13127.2
 21
10049.6
 31
0.0
  0
LINE
  5
1889C
330
747D
100
AcDbEntity
  8
仕様書枠
 48
50.0
100
AcDbLine
 10
16307.2
 20
11409.6
 30
0.0
 11
13127.2
 21
11409.6
 31
0.0
  0
LINE
  5
1889D
330
747D
100
AcDbEntity
  8
仕様書枠
 48
50.0
100
AcDbLine
 10
16307.2
 20
11239.6
 30
0.0
 11
13127.2
 21
11239.6
 31
0.0
  0
LINE
  5
1889E
330
747D
100
AcDbEntity
  8
仕様書枠
 48
50.0
100
AcDbLine
 10
16307.2
 20
10899.6
 30
0.0
 11
13127.2
 21
10899.6
 31
0.0
  0
LINE
  5
1889F
330
747D
100
AcDbEntity
  8
仕様書枠
 48
50.0
100
AcDbLine
 10
16307.2
 20
11069.6
 30
0.0
 11
13127.2
 21
11069.6
 31
0.0
  0
LINE
  5
188A0
330
747D
100
AcDbEntity
  8
仕様書枠
 48
50.0
100
AcDbLine
 10
16307.19999999999
 20
10559.6
 30
0.0
 11
13127.2
 21
10559.6
 31
0.0
  0
LINE
  5
188A1
330
747D
100
AcDbEntity
  8
仕様書枠
 48
50.0
100
AcDbLine
 10
16307.19999999999
 20
10389.6
 30
0.0
 11
13127.2
 21
10389.6
 31
0.0
  0
LINE
  5
188A2
330
747D
100
AcDbEntity
  8
仕様書枠
 48
50.0
100
AcDbLine
 10
16307.19999999999
 20
10729.6
 30
0.0
 11
13127.2
 21
10729.6
 31
0.0
  0
TEXT
  5
188A3
330
747D
100
AcDbEntity
  8
文字
 62
     7
 48
50.0
100
AcDbText
 10
14859.79774614482
 20
11270.01374588373
 30
0.0
 40
100.0
  1
材料（材質）　　単位mm
  7
STYLE1
100
AcDbText
  0
LINE
  5
188A4
330
747D
100
AcDbEntity
  8
仕様書枠
 48
50.0
100
AcDbLine
 10
16307.19999999999
 20
9709.600000000001
 30
0.0
 11
13127.2
 21
9709.600000000001
 31
0.0
  0
LINE
  5
188A5
330
747D
100
AcDbEntity
  8
仕様書枠
 48
50.0
100
AcDbLine
 10
16307.19999999999
 20
9369.600000000001
 30
0.0
 11
13127.2
 21
9369.600000000001
 31
0.0
  0
LINE
  5
188A6
330
747D
100
AcDbEntity
  8
仕様書枠
 48
50.0
100
AcDbLine
 10
16307.19999999999
 20
9539.6
 30
0.0
 11
13127.2
 21
9539.6
 31
0.0
  0
LINE
  5
188A7
330
747D
100
AcDbEntity
  8
仕様書枠
 48
50.0
100
AcDbLine
 10
16307.2
 20
10219.6
 30
0.0
 11
13127.2
 21
10219.6
 31
0.0
  0
LINE
  5
188A8
330
747D
100
AcDbEntity
  8
仕様書枠
 48
50.0
100
AcDbLine
 10
16307.2
 20
9879.600000000001
 30
0.0
 11
13127.2
 21
9879.600000000001
 31
0.0
  0
TEXT
  5
188A9
330
747D
100
AcDbEntity
  8
文字
 62
     7
 48
50.0
100
AcDbText
 10
15022.63965474517
 20
11100.01374588372
 30
0.0
 40
100.0
  1
F12            1.2
  7
STYLE1
100
AcDbText
  0
TEXT
  5
188AA
330
747D
100
AcDbEntity
  8
文字
 62
     7
 48
50.0
100
AcDbText
 10
15022.63965474518
 20
10760.01374588372
 30
0.0
 40
100.0
  1
F12            1.0
  7
STYLE1
100
AcDbText
  0
TEXT
  5
188AB
330
747D
100
AcDbEntity
  8
文字
 62
     7
 48
50.0
100
AcDbText
 10
15022.63965474516
 20
10420.01374588372
 30
0.0
 40
100.0
  1
Y10            1.0
  7
STYLE1
100
AcDbText
  0
TEXT
  5
188AC
330
747D
100
AcDbEntity
  8
文字
 62
     7
 48
50.0
100
AcDbText
 10
15022.63965474516
 20
10250.01374588372
 30
0.0
 40
100.0
  1
Y10            0.7
  7
STYLE1
100
AcDbText
  0
TEXT
  5
188AD
330
747D
100
AcDbEntity
  8
文字
 62
     7
 48
50.0
100
AcDbText
 10
15022.63965474516
 20
10080.01374588372
 30
0.0
 40
100.0
  1
Y10            0.7
  7
STYLE1
100
AcDbText
  0
TEXT
  5
188AE
330
747D
100
AcDbEntity
  8
文字
 62
     7
 48
50.0
100
AcDbText
 10
15022.63965474517
 20
9910.013745883725
 30
0.0
 40
100.0
  1
Y10            0.5
  7
STYLE1
100
AcDbText
  0
TEXT
  5
188AF
330
747D
100
AcDbEntity
  8
文字
 62
     7
 48
50.0
100
AcDbText
 10
15022.63965474515
 20
9570.013745883725
 30
0.0
 40
100.0
  1
F12            0.6
  7
STYLE1
100
AcDbText
  0
TEXT
  5
188B0
330
747D
100
AcDbEntity
  8
文字
 62
     7
 48
50.0
100
AcDbText
 10
15022.63965474516
 20
10930.01374588372
 30
0.0
 40
100.0
  1
F12            1.2
  7
STYLE1
100
AcDbText
  0
TEXT
  5
188B1
330
747D
100
AcDbEntity
  8
文字
 62
     7
 48
50.0
100
AcDbText
 10
15022.63965474517
 20
10590.01374588372
 30
0.0
 40
100.0
  1
F12            1.0
  7
STYLE1
100
AcDbText
  0
TEXT
  5
188B2
330
747D
100
AcDbEntity
  8
文字
 62
     7
 48
50.0
100
AcDbText
 10
15022.63965474515
 20
9740.013745883725
 30
0.0
 40
100.0
  1
F12            1.2
  7
STYLE1
100
AcDbText
  0
TEXT
  5
188B3
330
747D
100
AcDbEntity
  8
文字
 62
     7
 48
50.0
100
AcDbText
 10
13583.11819016569
 20
8720.013745883733
 30
0.0
 40
100.0
  1
扉
  7
STYLE1
100
AcDbText
  0
TEXT
  5
188B4
330
747D
100
AcDbEntity
  8
文字
 62
     7
 48
50.0
100
AcDbText
 10
13583.11819016568
 20
8890.013745883733
 30
0.0
 40
100.0
  1
正面パネル
  7
STYLE1
100
AcDbText
  0
TEXT
  5
188B5
330
747D
100
AcDbEntity
  8
文字
 62
     7
 48
50.0
100
AcDbText
 10
13248.77747366448
 20
9060.013745883729
 30
0.0
 40
100.0
  1
13
  7
STYLE1
100
AcDbText
  0
TEXT
  5
188B6
330
747D
100
AcDbEntity
  8
文字
 62
     7
 48
50.0
100
AcDbText
 10
13248.77747366447
 20
8720.013745883729
 30
0.0
 40
100.0
  1
15
  7
STYLE1
100
AcDbText
  0
TEXT
  5
188B7
330
747D
100
AcDbEntity
  8
文字
 62
     7
 48
50.0
100
AcDbText
 10
13248.77747366448
 20
8890.013745883729
 30
0.0
 40
100.0
  1
14
  7
STYLE1
100
AcDbText
  0
TEXT
  5
188B8
330
747D
100
AcDbEntity
  8
文字
 62
     7
 48
50.0
100
AcDbText
 10
13583.11819016569
 20
8550.013745883733
 30
0.0
 40
100.0
  1
棚板
  7
STYLE1
100
AcDbText
  0
TEXT
  5
188B9
330
747D
100
AcDbEntity
  8
文字
 62
     7
 48
50.0
100
AcDbText
 10
13248.77747366447
 20
8550.013745883729
 30
0.0
 40
100.0
  1
16
  7
STYLE1
100
AcDbText
  0
TEXT
  5
188BA
330
747D
100
AcDbEntity
  8
文字
 62
     7
 48
50.0
100
AcDbText
 10
13248.77747366447
 20
8380.013745883728
 30
0.0
 40
100.0
  1
17
  7
STYLE1
100
AcDbText
  0
TEXT
  5
188BB
330
747D
100
AcDbEntity
  8
文字
 62
     7
 48
50.0
100
AcDbText
 10
13583.11819016569
 20
9060.013745883733
 30
0.0
 40
100.0
  1
壁面扉枠左右
  7
STYLE1
100
AcDbText
  0
TEXT
  5
188BC
330
747D
100
AcDbEntity
  8
文字
 62
     7
 48
50.0
100
AcDbText
 10
13583.11819016569
 20
8380.013745883728
 30
0.0
 40
100.0
  1
アンカープレート
  7
STYLE1
100
AcDbText
  0
TEXT
  5
188BD
330
747D
100
AcDbEntity
  8
文字
 62
     7
 48
50.0
100
AcDbText
 10
13229.83081656554
 20
8210.013745883735
 30
0.0
 40
100.0
  1
F12→溶融亜鉛めっき鋼板(JIS G 3302)
  7
STYLE1
100
AcDbText
  0
TEXT
  5
188BE
330
747D
100
AcDbEntity
  8
文字
 62
     7
 48
50.0
100
AcDbText
 10
15022.63965474517
 20
9060.013745883725
 30
0.0
 40
100.0
  1
F12            1.0
  7
STYLE1
100
AcDbText
  0
LINE
  5
188BF
330
747D
100
AcDbEntity
  8
仕様書枠
 48
50.0
100
AcDbLine
 10
16307.19999999999
 20
8689.600000000003
 30
0.0
 11
13127.2
 21
8689.600000000007
 31
0.0
  0
LINE
  5
188C0
330
747D
100
AcDbEntity
  8
仕様書枠
 48
50.0
100
AcDbLine
 10
16307.19999999999
 20
8519.600000000004
 30
0.0
 11
13127.2
 21
8519.600000000009
 31
0.0
  0
TEXT
  5
188C1
330
747D
100
AcDbEntity
  8
文字
 62
     7
 48
50.0
100
AcDbText
 10
15022.63965474515
 20
8380.013745883726
 30
0.0
 40
100.0
  1
F12            2.3
  7
STYLE1
100
AcDbText
  0
LINE
  5
188C2
330
747D
100
AcDbEntity
  8
仕様書枠
 48
50.0
100
AcDbLine
 10
16307.19999999999
 20
9199.600000000001
 30
0.0
 11
13127.2
 21
9199.600000000001
 31
0.0
  0
LINE
  5
188C3
330
747D
100
AcDbEntity
  8
仕様書枠
 48
50.0
100
AcDbLine
 10
16307.19999999999
 20
8859.6
 30
0.0
 11
13127.2
 21
8859.600000000005
 31
0.0
  0
LINE
  5
188C4
330
747D
100
AcDbEntity
  8
仕様書枠
 48
50.0
100
AcDbLine
 10
16307.19999999999
 20
8349.600000000004
 30
0.0
 11
13127.19999999999
 21
8349.600000000007
 31
0.0
  0
LINE
  5
188C5
330
747D
100
AcDbEntity
  8
仕様書枠
 48
50.0
100
AcDbLine
 10
16307.19999999999
 20
8179.600000000005
 30
0.0
 11
13127.19999999999
 21
8179.600000000005
 31
0.0
  0
TEXT
  5
188C6
330
747D
100
AcDbEntity
  8
文字
 62
     7
 48
50.0
100
AcDbText
 10
13229.83081656554
 20
8040.013745883735
 30
0.0
 40
100.0
  1
Y10→溶融亜鉛-5％アルミニウム合金めっき鋼板(JIS G 3317)
 41
0.9
  7
STYLE1
100
AcDbText
  0
LINE
  5
188C7
330
747D
100
AcDbEntity
  8
仕様書枠
 48
50.0
100
AcDbLine
 10
16307.19999999999
 20
9029.6
 30
0.0
 11
13127.2
 21
9029.600000000003
 31
0.0
  0
TEXT
  5
188C8
330
747D
100
AcDbEntity
  8
文字
 62
     7
 48
50.0
100
AcDbText
 10
15022.63965474515
 20
8890.013745883729
 30
0.0
 40
100.0
  1
F12            0.7
  7
STYLE1
100
AcDbText
  0
TEXT
  5
188C9
330
747D
100
AcDbEntity
  8
文字
 62
     7
 48
50.0
100
AcDbText
 10
15022.63965474516
 20
8720.013745883729
 30
0.0
 40
100.0
  1
F12            0.8
  7
STYLE1
100
AcDbText
  0
LINE
  5
188CA
330
747D
100
AcDbEntity
  8
仕様書枠
 48
50.0
100
AcDbLine
 10
16307.19999999999
 20
8009.600000000006
 30
0.0
 11
13127.19999999999
 21
8009.600000000006
 31
0.0
  0
TEXT
  5
188CB
330
747D
100
AcDbEntity
  8
文字
 62
     7
 48
50.0
100
AcDbText
 10
15022.63965474516
 20
8550.013745883729
 30
0.0
 40
100.0
  1
F12            0.6
  7
STYLE1
100
AcDbText
  0
TEXT
  5
188CC
330
747D
100
AcDbEntity
  8
文字
 62
     7
 48
50.0
100
AcDbText
 10
13583.11819016569
 20
9230.013745883733
 30
0.0
 40
100.0
  1
壁面扉敷居
  7
STYLE1
100
AcDbText
  0
LINE
  5
188CD
330
747D
100
AcDbEntity
  8
仕様書枠
 48
50.0
100
AcDbLine
 10
16307.19999999999
 20
8009.600000000006
 30
0.0
 11
16307.2
 21
11409.6
 31
0.0
  0
LINE
  5
188CE
330
747D
100
AcDbEntity
  8
仕様書枠
 48
50.0
100
AcDbLine
 10
14785.2
 20
11409.59999999999
 30
0.0
 11
14785.2
 21
8349.600000000004
 31
0.0
  0
LINE
  5
188CF
330
747D
100
AcDbEntity
  8
仕様書枠
 48
50.0
100
AcDbLine
 10
13490.2
 20
11409.6
 30
0.0
 11
13490.20000000001
 21
8349.600000000007
 31
0.0
  0
LINE
  5
188D0
330
747D
100
AcDbEntity
  8
仕様書枠
 48
50.0
100
AcDbLine
 10
13127.2
 20
11409.6
 30
0.0
 11
13127.19999999999
 21
8009.600000000006
 31
0.0
  0
LINE
  5
188D1
330
747D
100
AcDbEntity
  8
部品1
100
AcDbLine
 10
7119.585229546451
 20
10271.11570167954
 30
0.0
 11
7147.58522954645
 21
10271.11570167954
 31
0.0
  0
LINE
  5
188D2
330
747D
100
AcDbEntity
  8
部品1
100
AcDbLine
 10
7092.58522954645
 20
10326.11570167956
 30
0.0
 11
7092.58522954645
 21
10298.11570167956
 31
0.0
  0
LINE
  5
188D3
330
747D
100
AcDbEntity
  8
部品1
100
AcDbLine
 10
7092.58522954645
 20
10326.11570167954
 30
0.0
 11
7092.58522954645
 21
10298.11570167954
 31
0.0
  0
LINE
  5
188D4
330
747D
100
AcDbEntity
  8
部品1
100
AcDbLine
 10
6672.585229546413
 20
10326.11570167941
 30
0.0
 11
6672.585229546418
 21
10298.11570167941
 31
0.0
  0
DIMENSION
  5
188D5
330
747D
100
AcDbEntity
  8
寸法
100
AcDbDimension
  2
*D7
 10
7795.011575280861
 20
10271.11570167954
 30
0.0
 11
7795.011575280859
 21
10634.60098305378
 31
0.0
 70
   160
 71
     5
 42
54.99999999999636
  3
INABA_S40G
100
AcDbAlignedDimension
 13
7147.58522954645
 23
10326.11570167954
 33
0.0
 14
7147.58522954645
 24
10271.11570167954
 34
0.0
 50
90.0
100
AcDbRotatedDimension
1001
ACAD
1000
DSTYLE
1002
{
1002
}
  0
DIMENSION
  5
188D6
330
747D
100
AcDbEntity
  8
寸法
100
AcDbDimension
  2
*D8
 10
7147.58522954645
 20
10841.92392130452
 30
0.0
 11
7456.070510920688
 21
10841.92392130452
 31
0.0
 70
   160
 71
     5
 42
55.0
  3
INABA_S40G
100
AcDbAlignedDimension
 13
7092.58522954645
 23
10326.11570167954
 33
0.0
 14
7147.58522954645
 24
10326.11570167954
 34
0.0
100
AcDbRotatedDimension
1001
ACAD
1000
DSTYLE
1002
{
1002
}
  0
LINE
  5
188D7
330
747D
100
AcDbEntity
  8
部品1
100
AcDbLine
 10
6252.585229546414
 20
10326.11570167941
 30
0.0
 11
6252.585229546418
 21
10298.11570167941
 31
0.0
  0
LINE
  5
188D8
330
747D
100
AcDbEntity
  8
部品1
100
AcDbLine
 10
6007.58522954645
 20
10316.11570167954
 30
0.0
 11
6007.58522954645
 21
10298.11570167954
 31
0.0
  0
LINE
  5
188D9
330
747D
100
AcDbEntity
  8
部品1
100
AcDbLine
 10
6007.58522954645
 20
10316.11570167954
 30
0.0
 11
6013.58522954645
 21
10316.11570167954
 31
0.0
  0
LINE
  5
188DA
330
747D
100
AcDbEntity
  8
部品1
100
AcDbLine
 10
6077.58522954645
 20
10316.11570167954
 30
0.0
 11
6077.58522954645
 21
10298.11570167954
 31
0.0
  0
LINE
  5
188DB
330
747D
100
AcDbEntity
  8
部品1
100
AcDbLine
 10
6071.58522954645
 20
10316.11570167954
 30
0.0
 11
6077.58522954645
 21
10316.11570167954
 31
0.0
  0
LINE
  5
188DC
330
747D
100
AcDbEntity
  8
部品1
100
AcDbLine
 10
6030.08522954645
 20
10290.11570167954
 30
0.0
 11
6055.08522954645
 21
10290.11570167954
 31
0.0
  0
LINE
  5
188DD
330
747D
100
AcDbEntity
  8
部品1
100
AcDbLine
 10
5832.585229546413
 20
10326.11570167941
 30
0.0
 11
5832.585229546417
 21
10298.11570167941
 31
0.0
  0
LINE
  5
188DE
330
747D
100
AcDbEntity
  8
部品1
100
AcDbLine
 10
5412.585229546414
 20
10326.11570167941
 30
0.0
 11
5412.585229546418
 21
10298.11570167941
 31
0.0
  0
LINE
  5
188DF
330
747D
100
AcDbEntity
  8
部品1
100
AcDbLine
 10
4992.585229546413
 20
10326.11570167941
 30
0.0
 11
4992.585229546417
 21
10298.11570167941
 31
0.0
  0
LINE
  5
188E1
330
747D
100
AcDbEntity
  8
部品1
100
AcDbLine
 10
4572.585229546413
 20
10326.11570167941
 30
0.0
 11
4572.585229546417
 21
10298.11570167941
 31
0.0
  0
LINE
  5
188E2
330
747D
100
AcDbEntity
  8
部品1
100
AcDbLine
 10
4753.585229546381
 20
10316.11570167954
 30
0.0
 11
4747.58522954638
 21
10316.11570167954
 31
0.0
  0
LINE
  5
188E3
330
747D
100
AcDbEntity
  8
部品1
100
AcDbLine
 10
4747.58522954638
 20
10316.11570167954
 30
0.0
 11
4747.58522954638
 21
10298.11570167954
 31
0.0
  0
LINE
  5
188E4
330
747D
100
AcDbEntity
  8
部品1
100
AcDbLine
 10
4795.085229546381
 20
10290.11570167954
 30
0.0
 11
4770.08522954638
 21
10290.11570167954
 31
0.0
  0
LINE
  5
188E5
330
747D
100
AcDbEntity
  8
部品1
100
AcDbLine
 10
4817.585229546381
 20
10316.11570167954
 30
0.0
 11
4811.585229546381
 21
10316.11570167954
 31
0.0
  0
LINE
  5
188E6
330
747D
100
AcDbEntity
  8
部品1
100
AcDbLine
 10
4817.585229546381
 20
10316.11570167954
 30
0.0
 11
4817.585229546381
 21
10298.11570167954
 31
0.0
  0
LINE
  5
188E7
330
747D
100
AcDbEntity
  8
部品1
100
AcDbLine
 10
4152.585229546414
 20
10326.11570167941
 30
0.0
 11
4152.585229546417
 21
10298.11570167941
 31
0.0
  0
LINE
  5
188E8
330
747D
100
AcDbEntity
  8
部品1
100
AcDbLine
 10
3705.585229546418
 20
10271.11570167941
 30
0.0
 11
3677.585229546418
 21
10271.11570167941
 31
0.0
  0
LINE
  5
188E9
330
747D
100
AcDbEntity
  8
部品1
100
AcDbLine
 10
3732.58522954645
 20
10326.11570167944
 30
0.0
 11
3732.58522954645
 21
10298.11570167944
 31
0.0
  0
LINE
  5
188EA
330
747D
100
AcDbEntity
  8
部品1
100
AcDbLine
 10
3732.585229546414
 20
10326.11570167941
 30
0.0
 11
3732.585229546418
 21
10298.11570167941
 31
0.0
  0
LINE
  5
188EB
330
747D
100
AcDbEntity
  8
部品1
100
AcDbLine
 10
3706.08522954645
 20
10296.11570167944
 30
0.0
 11
4769.085229546377
 21
10296.11570167949
 31
0.0
  0
LINE
  5
188EC
330
747D
100
AcDbEntity
  8
部品1
100
AcDbLine
 10
3705.58522954645
 20
10298.11570167956
 30
0.0
 11
4770.08522954638
 21
10298.11570167956
 31
0.0
  0
LINE
  5
188EE
330
747D
100
AcDbEntity
  8
部品1
100
AcDbLine
 10
4797.085229546381
 20
10296.11570167949
 30
0.0
 11
6028.085229546451
 21
10296.11570167955
 31
0.0
  0
LINE
  5
188EF
330
747D
100
AcDbEntity
  8
部品1
100
AcDbLine
 10
4795.085229546381
 20
10298.11570167956
 30
0.0
 11
6030.085229546447
 21
10298.11570167956
 31
0.0
  0
DIMENSION
  5
188F0
330
747D
100
AcDbEntity
  8
寸法
100
AcDbDimension
  2
*D9
 10
3732.58522954645
 20
10841.92392130442
 30
0.0
 11
3369.099948172174
 21
10841.92392130442
 31
0.0
 70
   160
 71
     5
 42
55.00000000003637
  3
INABA_S40G
100
AcDbAlignedDimension
 13
3677.585229546414
 23
10326.11570167944
 33
0.0
 14
3732.58522954645
 24
10326.11570167944
 34
0.0
100
AcDbRotatedDimension
1001
ACAD
1000
DSTYLE
1002
{
1002
}
  0
DIMENSION
  5
188F2
330
747D
100
AcDbEntity
  8
寸法
100
AcDbDimension
  2
*D10
 10
7092.58522954645
 20
10841.92392130454
 30
0.0
 11
5412.585229546451
 21
10841.92392130454
 31
0.0
 70
   160
  1
8X420=<>
 71
     5
 42
3360.0
  3
INABA_S40G
100
AcDbAlignedDimension
 13
3732.58522954645
 23
10326.11570167944
 33
0.0
 14
7092.58522954645
 24
10326.11570167954
 34
0.0
100
AcDbRotatedDimension
1001
ACAD
1000
DSTYLE
1002
{
1002
}
  0
LINE
  5
188F3
330
747D
100
AcDbEntity
  8
部品1
100
AcDbLine
 10
3677.58522954645
 20
10326.11570167944
 30
0.0
 11
7147.58522954645
 21
10326.11570167954
 31
0.0
  0
LINE
  5
188F4
330
747D
100
AcDbEntity
  8
部品1
100
AcDbLine
 10
6056.08522954645
 20
10296.11570167954
 30
0.0
 11
7119.085229546451
 21
10296.11570167954
 31
0.0
  0
LINE
  5
188F5
330
747D
100
AcDbEntity
  8
部品1
100
AcDbLine
 10
6055.08522954645
 20
10298.11570167955
 30
0.0
 11
7119.585229546451
 21
10298.11570167954
 31
0.0
  0
LINE
  5
188F6
330
747D
100
AcDbEntity
  8
部品1
100
AcDbLine
 10
7119.585229546451
 20
9851.115701679542
 30
0.0
 11
7147.58522954645
 21
9851.115701679542
 31
0.0
  0
LINE
  5
188F7
330
747D
100
AcDbEntity
  8
部品1
100
AcDbLine
 10
7119.585229546451
 20
9431.115701679543
 30
0.0
 11
7147.58522954645
 21
9431.115701679543
 31
0.0
  0
LINE
  5
188F8
330
747D
100
AcDbEntity
  8
部品1
100
AcDbLine
 10
7119.585229546451
 20
8591.115701679557
 30
0.0
 11
7147.58522954645
 21
8591.115701679557
 31
0.0
  0
LINE
  5
188F9
330
747D
100
AcDbEntity
  8
部品1
100
AcDbLine
 10
7119.585229546451
 20
7751.115701679542
 30
0.0
 11
7147.58522954645
 21
7751.115701679542
 31
0.0
  0
LINE
  5
188FA
330
747D
100
AcDbEntity
  8
部品1
100
AcDbLine
 10
7119.585229546427
 20
7331.115701679528
 30
0.0
 11
7147.585229546425
 21
7331.115701679528
 31
0.0
  0
LINE
  5
188FB
330
747D
100
AcDbEntity
  8
部品1
100
AcDbLine
 10
7147.585229546425
 20
7276.115701679531
 30
0.0
 11
7096.585229546424
 21
7276.115701679531
 31
0.0
  0
LINE
  5
188FC
330
747D
100
AcDbEntity
  8
部品1
 48
50.0
100
AcDbLine
 10
7091.08522954645
 20
7332.615701679532
 30
0.0
 11
7119.585229546449
 21
7304.115701679531
 31
0.0
  0
LINE
  5
188FD
330
747D
100
AcDbEntity
  8
部品1
100
AcDbLine
 10
7147.585229546426
 20
7331.115701679528
 30
0.0
 11
7147.585229546425
 21
7276.115701679531
 31
0.0
  0
LINE
  5
188FE
330
747D
100
AcDbEntity
  8
部品1
100
AcDbLine
 10
7119.585229546451
 20
7331.115701679528
 30
0.0
 11
7147.58522954645
 21
7331.115701679528
 31
0.0
  0
LINE
  5
188FF
330
747D
100
AcDbEntity
  8
部品1
100
AcDbLine
 10
7092.58522954645
 20
7276.115701679531
 30
0.0
 11
7092.58522954645
 21
7304.115701679531
 31
0.0
  0
LINE
  5
1890C
330
747D
100
AcDbEntity
  8
部品1
100
AcDbLine
 10
7147.585229546425
 20
7276.115701679531
 30
0.0
 11
6672.58522954645
 21
7276.115701679517
 31
0.0
  0
DIMENSION
  5
1890E
330
747D
100
AcDbEntity
  8
寸法
100
AcDbDimension
  2
*D11
 10
7795.011575280835
 20
7276.115701679531
 30
0.0
 11
7795.011575280835
 21
6967.630420305289
 31
0.0
 70
   160
 71
     5
 42
54.99999999999636
  3
INABA_S40G
100
AcDbAlignedDimension
 13
7147.585229546425
 23
7331.115701679528
 33
0.0
 14
7147.585229546425
 24
7276.115701679531
 34
0.0
 50
90.0
100
AcDbRotatedDimension
1001
ACAD
1000
DSTYLE
1002
{
1002
}
  0
LINE
  5
1890F
330
747D
100
AcDbEntity
  8
破線
 48
10.0
100
AcDbLine
 10
7067.585229546442
 20
9846.115701679543
 30
0.0
 11
7067.585229546452
 21
7356.115701679527
 31
0.0
  0
LINE
  5
18910
330
747D
100
AcDbEntity
  8
部品1
100
AcDbLine
 10
7091.085229546441
 20
9846.115701679543
 30
0.0
 11
7091.08522954645
 21
7332.615701679532
 31
0.0
  0
LINE
  5
18911
330
747D
100
AcDbEntity
  8
部品1
100
AcDbLine
 10
6030.08522954645
 20
9846.115701679551
 30
0.0
 11
6055.08522954645
 21
9846.115701679551
 31
0.0
  0
LINE
  5
18912
330
747D
100
AcDbEntity
  8
部品1
100
AcDbLine
 10
4795.085229546381
 20
9846.115701679551
 30
0.0
 11
4770.08522954638
 21
9846.115701679551
 31
0.0
  0
LINE
  5
18913
330
747D
100
AcDbEntity
  8
部品1
100
AcDbLine
 10
3705.585229546425
 20
9851.115701679416
 30
0.0
 11
3677.585229546425
 21
9851.115701679416
 31
0.0
  0
LINE
  5
18914
330
747D
100
AcDbEntity
  8
部品1
100
AcDbLine
 10
3705.585229546425
 20
9431.115701679415
 30
0.0
 11
3677.585229546425
 21
9431.115701679415
 31
0.0
  0
LINE
  5
18915
330
747D
100
AcDbEntity
  8
部品1
100
AcDbLine
 10
3706.08522954645
 20
9846.115701679444
 30
0.0
 11
4769.085229546381
 21
9846.115701679494
 31
0.0
  0
DIMENSION
  5
18916
330
747D
100
AcDbEntity
  8
寸法
100
AcDbDimension
  2
*D12
 10
4711.8495565479
 20
9632.509262043763
 30
0.0
 11
4176.675107094758
 21
9632.509262043763
 31
0.0
 70
   160
 71
     5
 42
1062.999999999931
  3
INABA_S40G
100
AcDbAlignedDimension
 13
3706.08522954645
 23
9846.11570167944
 33
0.0
 14
4769.085229546381
 24
9846.115701679494
 34
0.0
100
AcDbRotatedDimension
1001
ACAD
1000
DSTYLE
1002
{
1002
}
  0
LINE
  5
18917
330
747D
100
AcDbEntity
  8
部品1
100
AcDbLine
 10
3705.585229546425
 20
8591.115701679429
 30
0.0
 11
3677.585229546425
 21
8591.115701679429
 31
0.0
  0
LINE
  5
18918
330
747D
100
AcDbEntity
  8
部品1
100
AcDbLine
 10
4797.085229546381
 20
9846.115701679492
 30
0.0
 11
6028.085229546448
 21
9846.115701679551
 31
0.0
  0
DIMENSION
  5
18919
330
747D
100
AcDbEntity
  8
寸法
100
AcDbDimension
  2
*D13
 10
5970.849556547971
 20
9632.509262043763
 30
0.0
 11
5598.933462760077
 21
9632.509262043763
 31
0.0
 70
   160
 71
     5
 42
1231.000000000069
  3
INABA_S40G
100
AcDbAlignedDimension
 13
4797.085229546381
 23
9846.115701679492
 33
0.0
 14
6028.085229546451
 24
9846.115701679485
 34
0.0
100
AcDbRotatedDimension
1001
ACAD
1000
DSTYLE
1002
{
1002
}
  0
LINE
  5
18985
330
747D
100
AcDbEntity
  8
破線
 48
10.0
100
AcDbLine
 10
6220.085229546429
 20
7356.115701679456
 30
0.0
 11
5437.585229546428
 21
7356.115701679441
 31
0.0
  0
LINE
  5
18988
330
747D
100
AcDbEntity
  8
部品1
100
AcDbLine
 10
3705.585229546425
 20
7751.115701679416
 30
0.0
 11
3677.585229546425
 21
7751.115701679416
 31
0.0
  0
LINE
  5
18989
330
747D
100
AcDbEntity
  8
部品1
100
AcDbLine
 10
4572.585229546417
 20
7276.115701679531
 30
0.0
 11
4572.585229546417
 21
7304.115701679531
 31
0.0
  0
LINE
  5
189B6
330
747D
100
AcDbEntity
  8
部品1
100
AcDbLine
 10
4152.585229546417
 20
7276.115701679531
 30
0.0
 11
4152.585229546417
 21
7304.115701679531
 31
0.0
  0
LINE
  5
189B7
330
747D
100
AcDbEntity
  8
部品1
100
AcDbLine
 10
3677.585229546443
 20
7331.115701679364
 30
0.0
 11
3677.585229546443
 21
7276.115701679367
 31
0.0
  0
LINE
  5
189B8
330
747D
100
AcDbEntity
  8
部品1
100
AcDbLine
 10
3705.585229546443
 20
7331.115701679415
 30
0.0
 11
3677.585229546443
 21
7331.115701679415
 31
0.0
  0
LINE
  5
189B9
330
747D
100
AcDbEntity
  8
部品1
100
AcDbLine
 10
3705.585229546425
 20
7331.115701679401
 30
0.0
 11
3677.585229546443
 21
7331.115701679401
 31
0.0
  0
LINE
  5
189BA
330
747D
100
AcDbEntity
  8
部品1
100
AcDbLine
 10
3705.585229546425
 20
7331.115701679364
 30
0.0
 11
3677.585229546443
 21
7331.115701679364
 31
0.0
  0
LINE
  5
189BB
330
747D
100
AcDbEntity
  8
部品1
100
AcDbLine
 10
3732.585229546418
 20
7276.1157016794
 30
0.0
 11
3677.585229546443
 21
7276.1157016794
 31
0.0
  0
LINE
  5
189BC
330
747D
100
AcDbEntity
  8
部品1
 48
50.0
100
AcDbLine
 10
3734.085229546439
 20
7332.615701679507
 30
0.0
 11
3705.585229546439
 21
7304.11570167951
 31
0.0
  0
LINE
  5
189BD
330
747D
100
AcDbEntity
  8
部品1
100
AcDbLine
 10
3732.585229546418
 20
7276.115701679531
 30
0.0
 11
3732.585229546418
 21
7304.115701679531
 31
0.0
  0
LINE
  5
189BE
330
747D
100
AcDbEntity
  8
破線
 48
10.0
100
AcDbLine
 10
4555.085229546428
 20
7356.115701679404
 30
0.0
 11
3757.585229546436
 21
7356.115701679411
 31
0.0
  0
LINE
  5
189BF
330
747D
100
AcDbEntity
  8
部品1
 48
50.0
100
AcDbLine
 10
3732.585229546418
 20
7276.1157016794
 30
0.0
 11
4572.585229546417
 21
7276.1157016794
 31
0.0
  0
LINE
  5
189C0
330
747D
100
AcDbEntity
  8
破線
 48
10.0
100
AcDbLine
 10
5387.585229546428
 20
7356.115701679437
 30
0.0
 11
4605.085229546424
 21
7356.115701679408
 31
0.0
  0
LINE
  5
189C6
330
747D
100
AcDbEntity
  8
破線
 48
10.0
100
AcDbLine
 10
3757.585229546425
 20
9846.115701679543
 30
0.0
 11
3757.585229546439
 21
7356.115701679411
 31
0.0
  0
LINE
  5
189C7
330
747D
100
AcDbEntity
  8
部品1
100
AcDbLine
 10
3734.085229546428
 20
9846.115701679543
 30
0.0
 11
3734.085229546439
 21
7332.615701679507
 31
0.0
  0
LINE
  5
189C8
330
747D
100
AcDbEntity
  8
破線
 48
10.0
100
AcDbLine
 10
5387.585229546428
 20
7332.615701679441
 30
0.0
 11
5387.585229546425
 21
9846.115701679522
 31
0.0
  0
LINE
  5
189C9
330
747D
100
AcDbEntity
  8
破線
 48
10.0
100
AcDbLine
 10
5437.585229546424
 20
7332.615701679443
 30
0.0
 11
5437.585229546424
 21
9846.115701679522
 31
0.0
  0
LINE
  5
189CA
330
747D
100
AcDbEntity
  8
破線
 48
10.0
100
AcDbLine
 10
4555.085229546428
 20
7332.615701679441
 30
0.0
 11
4555.085229546424
 21
9846.115701679551
 31
0.0
  0
LINE
  5
189CB
330
747D
100
AcDbEntity
  8
破線
 48
10.0
100
AcDbLine
 10
4605.085229546424
 20
7332.615701679443
 30
0.0
 11
4605.085229546424
 21
9846.115701679551
 31
0.0
  0
LINE
  5
189CC
330
747D
100
AcDbEntity
  8
破線
 48
10.0
100
AcDbLine
 10
6220.085229546429
 20
7332.615701679441
 30
0.0
 11
6220.085229546425
 21
9846.115701679551
 31
0.0
  0
LINE
  5
189CD
330
747D
100
AcDbEntity
  8
破線
 48
10.0
100
AcDbLine
 10
6270.085229546425
 20
7332.615701679443
 30
0.0
 11
6270.085229546425
 21
9846.115701679551
 31
0.0
  0
LINE
  5
189CE
330
747D
100
AcDbEntity
  8
部品1
 48
50.0
100
AcDbLine
 10
5412.585229546443
 20
9846.115701679522
 30
0.0
 11
5412.585229546476
 21
7332.615701679429
 31
0.0
  0
LINE
  5
189D2
330
747D
100
AcDbEntity
  8
部品1
100
AcDbLine
 10
7091.08522954645
 20
7332.615701679532
 30
0.0
 11
3734.085229546341
 21
7332.615701679412
 31
0.0
  0
LINE
  5
189D4
330
747D
100
AcDbEntity
  8
破線
 48
10.0
100
AcDbLine
 10
7067.585229546451
 20
7356.115701679529
 30
0.0
 11
6270.085229546425
 21
7356.115701679458
 31
0.0
  0
DIMENSION
  5
189D5
330
747D
100
AcDbEntity
  8
寸法
100
AcDbDimension
  2
*D14
 10
7061.849556547996
 20
9632.509262043873
 30
0.0
 11
6578.975184668802
 21
9632.509262043873
 31
0.0
 70
   160
 71
     5
 42
1063.000000000011
  3
INABA_S40G
100
AcDbAlignedDimension
 13
6056.08522954645
 23
9846.115701679551
 33
0.0
 14
7119.085229546461
 24
9846.115701679543
 34
0.0
100
AcDbRotatedDimension
1001
ACAD
1000
DSTYLE
1002
{
1002
}
  0
LINE
  5
189D6
330
747D
100
AcDbEntity
  8
部品1
100
AcDbLine
 10
6056.085229546448
 20
9846.115701679551
 30
0.0
 11
7119.085229546451
 21
9846.115701679543
 31
0.0
  0
LINE
  5
189D7
330
747D
100
AcDbEntity
  8
部品1
100
AcDbLine
 10
7091.085229546435
 20
9431.115701679514
 30
0.0
 11
3734.085229546436
 21
9431.115701679415
 31
0.0
  0
LINE
  5
189D8
330
747D
100
AcDbEntity
  8
部品1
100
AcDbLine
 10
7091.085229546435
 20
7751.115701679515
 30
0.0
 11
3734.085229546436
 21
7751.115701679416
 31
0.0
  0
LINE
  5
189D9
330
747D
100
AcDbEntity
  8
部品1
100
AcDbLine
 10
3705.585229546425
 20
7304.115701679494
 30
0.0
 11
7119.585229546451
 21
7304.115701679531
 31
0.0
  0
LINE
  5
189DA
330
747D
100
AcDbEntity
  8
部品1
 48
50.0
100
AcDbLine
 10
4572.585229546417
 20
7304.115701679397
 30
0.0
 11
6672.585229546418
 21
7304.1157016794
 31
0.0
  0
LINE
  5
189E1
330
747D
100
AcDbEntity
  8
部品1
100
AcDbLine
 10
7091.085229546435
 20
8591.11570167953
 30
0.0
 11
3734.085229546436
 21
8591.115701679429
 31
0.0
  0
DIMENSION
  5
189E2
330
747D
100
AcDbEntity
  8
寸法
100
AcDbDimension
  2
*D15
 10
8160.118517020501
 20
7276.115701679531
 30
0.0
 11
8160.118517020501
 21
8801.115701679533
 31
0.0
 70
   160
 71
     5
 42
3050.000000000008
  3
INABA_S40G
100
AcDbAlignedDimension
 13
7147.58522954645
 23
10326.11570167954
 33
0.0
 14
7147.585229546425
 24
7276.115701679531
 34
0.0
 50
90.0
100
AcDbRotatedDimension
1001
ACAD
1000
DSTYLE
1002
{
1002
}
  0
LINE
  5
189E3
330
747D
100
AcDbEntity
  8
細線
 48
50.0
100
AcDbLine
 10
6028.085229546448
 20
9846.115701679551
 30
0.0
 11
4797.085229546377
 21
10296.11570167949
 31
0.0
  0
LINE
  5
189E4
330
747D
100
AcDbEntity
  8
細線
 48
50.0
100
AcDbLine
 10
6028.085229546451
 20
10296.11570167954
 30
0.0
 11
4797.085229546381
 21
9846.115701679494
 31
0.0
  0
LINE
  5
189E5
330
747D
100
AcDbEntity
  8
部品1
100
AcDbLine
 10
3705.585229546425
 20
7304.115701679491
 30
0.0
 11
3705.58522954645
 21
10298.11570167944
 31
0.0
  0
LINE
  5
189E6
330
747D
100
AcDbEntity
  8
部品1
100
AcDbLine
 10
3677.585229546414
 20
10326.11570167941
 30
0.0
 11
3677.585229546443
 21
7276.1157016794
 31
0.0
  0
LINE
  5
189E7
330
747D
100
AcDbEntity
  8
部品1
 48
50.0
100
AcDbLine
 10
3706.08522954645
 20
10296.11570167944
 30
0.0
 11
3706.08522954645
 21
9846.11570167944
 31
0.0
  0
LINE
  5
189E8
330
747D
100
AcDbEntity
  8
細線
 48
50.0
100
AcDbLine
 10
7119.085229546451
 20
10296.11570167954
 30
0.0
 11
6056.085229546448
 21
9846.115701679551
 31
0.0
  0
LINE
  5
189E9
330
747D
100
AcDbEntity
  8
細線
 48
50.0
100
AcDbLine
 10
7119.085229546451
 20
9846.115701679543
 30
0.0
 11
6056.08522954645
 21
10296.11570167954
 31
0.0
  0
LINE
  5
189EA
330
747D
100
AcDbEntity
  8
部品1
 48
50.0
100
AcDbLine
 10
6028.085229546451
 20
10296.11570167954
 30
0.0
 11
6028.085229546451
 21
9846.115701679551
 31
0.0
  0
LINE
  5
189EB
330
747D
100
AcDbEntity
  8
部品1
 48
50.0
100
AcDbLine
 10
6056.08522954645
 20
10296.11570167954
 30
0.0
 11
6056.08522954645
 21
9846.115701679551
 31
0.0
  0
LINE
  5
189EC
330
747D
100
AcDbEntity
  8
部品1
 48
50.0
100
AcDbLine
 10
6030.085229546449
 20
10298.11570167955
 30
0.0
 11
6030.08522954645
 21
9846.115701679551
 31
0.0
  0
LINE
  5
189ED
330
747D
100
AcDbEntity
  8
部品1
 48
50.0
100
AcDbLine
 10
6055.08522954645
 20
10298.11570167955
 30
0.0
 11
6055.08522954645
 21
9846.115701679551
 31
0.0
  0
DIMENSION
  5
189EE
330
747D
100
AcDbEntity
  8
寸法
100
AcDbDimension
  2
*D16
 10
7474.442955408474
 20
9750.897886010653
 30
0.0
 11
7374.442955408473
 21
9975.897886010653
 31
0.0
 70
    32
 71
     5
 42
449.9999999999963
  3
INABA_S40G
100
AcDbAlignedDimension
 13
7119.085229546451
 23
10296.11570167954
 33
0.0
 14
7119.085229546451
 24
9846.115701679543
 34
0.0
 50
90.0
100
AcDbRotatedDimension
1001
ACAD
1000
DSTYLE
1002
{
1002
}
  0
LINE
  5
189EF
330
747D
100
AcDbEntity
  8
部品1
100
AcDbLine
 10
7119.585229546451
 20
10298.11570167954
 30
0.0
 11
7119.585229546429
 21
7304.115701679531
 31
0.0
  0
DIMENSION
  5
189F0
330
747D
100
AcDbEntity
  8
寸法
100
AcDbDimension
  2
*D17
 10
7795.011575280863
 20
7331.115701679528
 30
0.0
 11
7795.011575280863
 21
8801.115701679535
 31
0.0
 70
   160
  1
7X420=<>
 71
     5
 42
2940.000000000015
  3
INABA_S40G
100
AcDbAlignedDimension
 13
7147.58522954645
 23
10271.11570167954
 33
0.0
 14
7147.585229546425
 24
7331.115701679528
 34
0.0
 50
90.0
100
AcDbRotatedDimension
1001
ACAD
1000
DSTYLE
1002
{
1002
}
  0
LINE
  5
189F1
330
747D
100
AcDbEntity
  8
部品1
100
AcDbLine
 10
7147.58522954645
 20
10326.11570167954
 30
0.0
 11
7147.585229546425
 21
7276.115701679531
 31
0.0
  0
LINE
  5
189F2
330
747D
100
AcDbEntity
  8
部品1
100
AcDbLine
 10
7119.085229546451
 20
10296.11570167954
 30
0.0
 11
7119.085229546451
 21
9846.115701679543
 31
0.0
  0
LINE
  5
189F3
330
747D
100
AcDbEntity
  8
部品1
 48
50.0
100
AcDbLine
 10
4770.08522954638
 20
10298.11570167955
 30
0.0
 11
4770.08522954638
 21
9846.115701679551
 31
0.0
  0
LINE
  5
189F4
330
747D
100
AcDbEntity
  8
部品1
 48
50.0
100
AcDbLine
 10
4795.085229546381
 20
10298.11570167955
 30
0.0
 11
4795.085229546381
 21
9846.115701679551
 31
0.0
  0
LINE
  5
189F5
330
747D
100
AcDbEntity
  8
部品1
 48
50.0
100
AcDbLine
 10
4769.085229546381
 20
10296.11570167954
 30
0.0
 11
4769.085229546381
 21
9846.115701679551
 31
0.0
  0
LINE
  5
189F6
330
747D
100
AcDbEntity
  8
部品1
 48
50.0
100
AcDbLine
 10
4797.085229546381
 20
10296.11570167954
 30
0.0
 11
4797.085229546381
 21
9846.115701679551
 31
0.0
  0
LINE
  5
189F7
330
747D
100
AcDbEntity
  8
細線
 48
50.0
100
AcDbLine
 10
4769.085229546381
 20
9846.115701679494
 30
0.0
 11
3706.08522954645
 21
10296.11570167944
 31
0.0
  0
LINE
  5
189F8
330
747D
100
AcDbEntity
  8
細線
 48
50.0
100
AcDbLine
 10
4769.085229546381
 20
10296.11570167949
 30
0.0
 11
3706.08522954645
 21
9846.115701679444
 31
0.0
  0
TEXT
  5
189F9
330
747D
100
AcDbEntity
  8
文字
 62
     7
 48
50.0
100
AcDbText
 10
14505.34213575793
 20
483.8967129911411
 30
0.0
 40
160.0
  1
ＮＸＮ－１０５Ｓ
  7
STYLE2
100
AcDbText
  0
TEXT
  5
189FA
330
747D
100
AcDbEntity
  8
文字
 62
     7
 48
50.0
100
AcDbText
 10
13209.4053442172
 20
228.5435242569015
 30
0.0
 40
100.0
  1
○有効開口寸法 ： 1266×1725(mm)
  7
STYLE2
100
AcDbText
  0
TEXT
  5
18A81
330
747D
100
AcDbEntity
  8
部品1
100
AcDbText
 10
5121.375300170185
 20
1458.003444990816
 30
0.0
 40
135.0
  1
正面図
  7
STYLE2
100
AcDbText
  0
LWPOLYLINE
  5
18A82
330
747D
100
AcDbEntity
  8
部品1
100
AcDbPolyline
 90
        4
 70
     1
 43
0.0
 10
5030.849896432228
 20
1650.89697420934
 10
5030.849896432228
 20
1411.004652663808
 10
5794.32056266067
 20
1411.004652663808
 10
5794.32056266067
 20
1650.89697420934
  0
LINE
  5
18A83
330
747D
100
AcDbEntity
  8
部品1
100
AcDbLine
 10
2973.81563820006
 20
2032.178294807154
 30
0.0
 11
2898.81563820006
 21
2162.082105374819
 31
0.0
  0
LINE
  5
18A84
330
747D
100
AcDbEntity
  8
部品1
100
AcDbLine
 10
2898.81563820006
 20
2162.082105374819
 30
0.0
 11
3048.81563820006
 21
2162.082105374819
 31
0.0
  0
LINE
  5
18A85
330
747D
100
AcDbEntity
  8
部品1
100
AcDbLine
 10
3048.81563820006
 20
2162.082105374819
 30
0.0
 11
2973.81563820006
 21
2032.178294807154
 31
0.0
  0
TEXT
  5
18A86
330
747D
100
AcDbEntity
  8
部品1
100
AcDbText
 10
3076.920580324833
 20
2068.285198413056
 30
0.0
 40
125.0
  1
G.L
  7
MSGOTHIC
100
AcDbText
  0
LINE
  5
18AC3
330
747D
100
AcDbEntity
  8
Ｇ．Ｌ
100
AcDbLine
 10
2799.31862687596
 20
2032.178294807154
 30
0.0
 11
13877.82173030571
 21
2032.178294807154
 31
0.0
  0
DIMENSION
  5
18AC4
330
747D
100
AcDbEntity
  8
寸法
 48
50.0
100
AcDbDimension
  2
*D3
 10
3677.585229546443
 20
4419.719880065398
 30
0.0
 11
5412.585229546451
 21
4419.719880065398
 31
0.0
 70
   160
  1
柱外寸法<>
 71
     5
 42
3470.000000000004
  3
INABA_S40G
100
AcDbAlignedDimension
 13
7147.585229546447
 23
4207.178294807158
 33
0.0
 14
3677.585229546443
 24
4207.178294807162
 34
0.0
100
AcDbRotatedDimension
  0
DIMENSION
  5
18AC5
330
747D
100
AcDbEntity
  8
寸法
 48
50.0
100
AcDbDimension
  2
*D4
 10
7197.585229546446
 20
4640.625180539148
 30
0.0
 11
5412.585229546451
 21
4640.625180539148
 31
0.0
 70
   160
 71
     5
 42
3570.000000000004
  3
INABA_S40G
100
AcDbAlignedDimension
 13
3627.585229546443
 23
4207.17829480716
 33
0.0
 14
7197.585229546446
 24
4207.178294807156
 34
0.0
100
AcDbRotatedDimension
  0
DIMENSION
  5
18AC6
330
747D
100
AcDbEntity
  8
寸法
 48
50.0
100
AcDbDimension
  2
*D5
 10
3627.585229546443
 20
4419.719880065399
 30
0.0
 11
3314.099948172195
 21
4419.719880065399
 31
0.0
 70
   160
 71
     5
 42
50.0
  3
INABA_S40G
100
AcDbAlignedDimension
 13
3677.585229546443
 23
4207.178294807162
 33
0.0
 14
3627.585229546443
 24
4207.17829480716
 34
0.0
100
AcDbRotatedDimension
1001
ACAD
1000
DSTYLE
1002
{
1002
}
  0
DIMENSION
  5
18AC7
330
747D
100
AcDbEntity
  8
寸法
 48
50.0
100
AcDbDimension
  2
*D6
 10
7147.585229546447
 20
4419.719880065397
 30
0.0
 11
7511.070510920683
 21
4419.719880065397
 31
0.0
 70
   160
 71
     5
 42
50.0
  3
INABA_S40G
100
AcDbAlignedDimension
 13
7197.585229546446
 23
4207.178294807156
 33
0.0
 14
7147.585229546447
 24
4207.178294807158
 34
0.0
100
AcDbRotatedDimension
  0
LINE
  5
18F33
330
747D
100
AcDbEntity
  8
部品1
100
AcDbLine
 10
7091.085229546454
 20
9011.115701679514
 30
0.0
 11
3734.085229546454
 21
9011.115701679415
 31
0.0
  0
LINE
  5
18F34
330
747D
100
AcDbEntity
  8
部品1
100
AcDbLine
 10
3705.585229546443
 20
9011.115701679415
 30
0.0
 11
3677.585229546443
 21
9011.115701679415
 31
0.0
  0
LINE
  5
18F35
330
747D
100
AcDbEntity
  8
部品1
100
AcDbLine
 10
7119.585229546469
 20
9011.115701679543
 30
0.0
 11
7147.585229546469
 21
9011.115701679543
 31
0.0
  0
LINE
  5
19176
330
747D
100
AcDbEntity
  8
部品1
100
AcDbLine
 10
9763.743426128897
 20
2132.178294807154
 30
0.0
 11
9686.743426128895
 21
2132.178294807154
 31
0.0
  0
LINE
  5
19177
330
747D
100
AcDbEntity
  8
部品1
100
AcDbLine
 10
9686.743426128899
 20
3957.865399715556
 30
0.0
 11
9763.743426128897
 21
3972.178294807154
 31
0.0
  0
LINE
  5
19178
330
747D
100
AcDbEntity
  8
部品1
100
AcDbLine
 10
9686.743426128899
 20
3957.865399715557
 30
0.0
 11
9686.743426128895
 21
2032.178294807154
 31
0.0
  0
DIMENSION
  5
19179
330
747D
100
AcDbEntity
  8
寸法
 48
50.0
100
AcDbDimension
  2
*D18
 10
9218.83478473164
 20
2198.178294807154
 30
0.0
 11
9126.822973708019
 21
3060.678294807156
 31
0.0
 70
    32
  1
有効開口部高サ<>
 71
     5
 42
1725.0
  3
INABA_S40
100
AcDbAlignedDimension
 13
9686.743426128899
 23
3923.178294807154
 33
0.0
 14
9686.743426128895
 24
2198.178294807154
 34
0.0
 50
90.0
100
AcDbRotatedDimension
1001
ACAD
1000
DSTYLE
1002
{
1070
    41
1040
0.5
1070
    44
1040
1.0
1070
   147
1040
0.8
1070
   271
1070
     2
1070
   272
1070
     2
1070
   289
1070
     3
1070
   340
1005
F706
1070
   343
1005
164B4
1070
   344
1005
164B4
1002
}
  0
TEXT
  5
1917A
330
747D
100
AcDbEntity
  8
部品1
100
AcDbText
 10
11006.45419443828
 20
1458.003444990817
 30
0.0
 40
135.0
  1
側面図
  7
STYLE2
100
AcDbText
  0
LWPOLYLINE
  5
1917B
330
747D
100
AcDbEntity
  8
部品1
100
AcDbPolyline
 90
        4
 70
     1
 43
0.0
 10
10917.00809301467
 20
1650.89697420934
 10
10917.00809301467
 20
1411.004652663808
 10
11680.47875924312
 20
1411.004652663808
 10
11680.47875924312
 20
1650.89697420934
  0
DIMENSION
  5
1917C
330
747D
100
AcDbEntity
  8
寸法
100
AcDbDimension
  2
*D19
 10
8919.993296945637
 20
2182.17829480715
 30
0.0
 11
8819.993296945638
 21
3077.178294807152
 31
0.0
 70
    32
 71
     5
 42
1790.000000000001
  3
INABA_S40G
100
AcDbAlignedDimension
 13
9763.743426128897
 23
3972.178294807151
 33
0.0
 14
9763.743426128897
 24
2182.17829480715
 34
0.0
 50
90.0
100
AcDbRotatedDimension
1001
ACAD
1000
DSTYLE
1002
{
1070
   174
1070
     0
1070
   272
1070
     1
1070
   288
1070
     0
1070
   341
1005
0
1002
}
  0
DIMENSION
  5
1917D
330
747D
100
AcDbEntity
  8
寸法
100
AcDbDimension
  2
*D20
 10
8619.993296945636
 20
4207.178294807154
 30
0.0
 11
8519.981485922015
 21
3169.678294807154
 31
0.0
 70
    32
 71
     5
 42
2075.000000000004
  3
INABA_S40G
100
AcDbAlignedDimension
 13
9686.743426128895
 23
2132.17829480715
 33
0.0
 14
9703.743426128896
 24
4207.178294807154
 34
0.0
 50
90.0
100
AcDbRotatedDimension
1001
ACAD
1000
DSTYLE
1002
{
1070
   174
1070
     0
1070
   272
1070
     1
1070
   288
1070
     0
1070
   341
1005
0
1002
}
  0
DIMENSION
  5
1917E
330
747D
100
AcDbEntity
  8
寸法
100
AcDbDimension
  2
*D21
 10
13518.67058410102
 20
4152.178294807156
 30
0.0
 11
13418.6587730774
 21
3142.178294807158
 31
0.0
 70
    32
 71
     5
 42
2020.0
  3
INABA_S40G
100
AcDbAlignedDimension
 13
12813.74342612889
 23
2132.178294807156
 33
0.0
 14
12893.74342612889
 24
4152.178294807156
 34
0.0
 50
90.0
100
AcDbRotatedDimension
1001
ACAD
1000
DSTYLE
1002
{
1070
   174
1070
     0
1070
   272
1070
     1
1070
   288
1070
     0
1070
   341
1005
0
1002
}
  0
LINE
  5
1917F
330
747D
100
AcDbEntity
  8
細線
 48
50.0
100
AcDbLine
 10
11841.2434261289
 20
3972.178294807155
 30
0.0
 11
11841.2434261289
 21
2182.178294807156
 31
0.0
  0
LINE
  5
19180
330
747D
100
AcDbEntity
  8
細線
 48
50.0
100
AcDbLine
 10
11856.2434261289
 20
3972.178294807155
 30
0.0
 11
11856.2434261289
 21
2182.178294807156
 31
0.0
  0
LINE
  5
19181
330
747D
100
AcDbEntity
  8
細線
 48
50.0
100
AcDbLine
 10
11716.2434261289
 20
3972.178294807155
 30
0.0
 11
11716.2434261289
 21
2182.178294807156
 31
0.0
  0
LINE
  5
19182
330
747D
100
AcDbEntity
  8
細線
 48
50.0
100
AcDbLine
 10
11701.2434261289
 20
3972.178294807155
 30
0.0
 11
11701.2434261289
 21
2182.178294807156
 31
0.0
  0
LINE
  5
19183
330
747D
100
AcDbEntity
  8
細線
 48
50.0
100
AcDbLine
 10
11561.24342612889
 20
3972.178294807155
 30
0.0
 11
11561.2434261289
 21
2182.178294807156
 31
0.0
  0
LINE
  5
19184
330
747D
100
AcDbEntity
  8
細線
 48
50.0
100
AcDbLine
 10
11576.2434261289
 20
3972.178294807155
 30
0.0
 11
11576.2434261289
 21
2182.178294807156
 31
0.0
  0
LINE
  5
19185
330
747D
100
AcDbEntity
  8
部品1
100
AcDbLine
 10
11498.74342612889
 20
3972.178294807155
 30
0.0
 11
11498.74342612889
 21
2182.178294807156
 31
0.0
  0
LINE
  5
19186
330
747D
100
AcDbEntity
  8
部品1
100
AcDbLine
 10
11142.25669865241
 20
4332.382682770172
 30
0.0
 11
11467.71171229544
 21
4314.864623811311
 31
0.0
  0
ARC
  5
19187
330
747D
100
AcDbEntity
  8
部品1
100
AcDbCircle
 10
12879.37096194284
 20
4046.202052072947
 30
0.0
 40
0.7
100
AcDbArc
 50
275.0921697642079
 51
354.1866997667087
  0
ARC
  5
19188
330
747D
100
AcDbEntity
  8
部品1
100
AcDbCircle
 10
12890.23030769216
 20
4123.245306890871
 30
0.0
 40
0.7
100
AcDbArc
 50
275.0921697642079
 51
354.1866997665532
  0
ARC
  5
19189
330
747D
100
AcDbEntity
  8
部品1
100
AcDbCircle
 10
12890.55871293476
 20
4119.559910033781
 30
0.0
 40
3.0
100
AcDbArc
 50
95.09216976420788
 51
174.1866997665532
  0
ARC
  5
1918A
330
747D
100
AcDbEntity
  8
部品1
100
AcDbCircle
 10
12879.69936718543
 20
4042.516655215857
 30
0.0
 40
3.0
100
AcDbArc
 50
95.09216976420788
 51
174.1866997665532
  0
ARC
  5
1918B
330
747D
100
AcDbEntity
  8
部品1
 48
50.0
100
AcDbCircle
 10
12868.67123191033
 20
4032.925910611975
 30
0.0
 40
7.0
100
AcDbArc
 50
267.8377559869492
 51
354.1866997665532
  0
ARC
  5
1918C
330
747D
100
AcDbEntity
  8
部品1
 48
50.0
100
AcDbCircle
 10
12885.99332837484
 20
4143.828457754148
 30
0.0
 40
7.0
100
AcDbArc
 50
354.1866997665532
 51
87.03587545283228
  0
LINE
  5
1918D
330
747D
100
AcDbEntity
  8
部品1
 48
50.0
100
AcDbLine
 10
12876.71479551482
 20
4042.82051693276
 30
0.0
 11
12875.63523247508
 21
4032.216899939202
 31
0.0
  0
LINE
  5
1918E
330
747D
100
AcDbEntity
  8
部品1
 48
50.0
100
AcDbLine
 10
12887.57414126415
 20
4119.863771750685
 30
0.0
 11
12880.06736199931
 21
4046.131151005672
 31
0.0
  0
LINE
  5
1918F
330
747D
100
AcDbEntity
  8
部品1
 48
50.0
100
AcDbLine
 10
12892.9573289396
 20
4143.119447081374
 30
0.0
 11
12890.92670774863
 21
4123.174405823593
 31
0.0
  0
ARC
  5
19190
330
747D
100
AcDbEntity
  8
部品1
100
AcDbCircle
 10
9709.780518000265
 20
4085.992453766058
 30
0.0
 40
0.7
100
AcDbArc
 50
181.0932240292635
 51
260.1877540314845
  0
ARC
  5
19191
330
747D
100
AcDbEntity
  8
部品1
100
AcDbCircle
 10
9705.007844402654
 20
4178.858231966176
 30
0.0
 40
0.7
100
AcDbArc
 50
181.0932240292114
 51
260.1877540314845
  0
ARC
  5
19192
330
747D
100
AcDbEntity
  8
部品1
100
AcDbCircle
 10
9704.377289999632
 20
4175.21235742878
 30
0.0
 40
3.0
100
AcDbArc
 50
1.093224029315636
 51
80.18775403169875
  0
ARC
  5
19193
330
747D
100
AcDbEntity
  8
部品1
100
AcDbCircle
 10
9709.149963597239
 20
4082.34657922866
 30
0.0
 40
3.0
100
AcDbArc
 50
1.093224029315636
 51
80.18775403169875
  0
ARC
  5
19194
330
747D
100
AcDbEntity
  8
部品1
 48
50.0
100
AcDbCircle
 10
9719.350095972439
 20
4071.95433584618
 30
0.0
 40
7.0
100
AcDbArc
 50
181.0932240293156
 51
267.8377559869492
  0
ARC
  5
19195
330
747D
100
AcDbEntity
  8
部品1
 48
50.0
100
AcDbCircle
 10
9710.926437870343
 20
4198.905395379274
 30
0.0
 40
7.0
100
AcDbArc
 50
87.03587545283228
 51
181.0932240293156
  0
LINE
  5
19196
330
747D
100
AcDbEntity
  8
部品1
 48
50.0
100
AcDbLine
 10
9712.149417523669
 20
4082.403816831844
 30
0.0
 11
9712.351370144098
 21
4071.820781438751
 31
0.0
  0
LINE
  5
19197
330
747D
100
AcDbEntity
  8
細線
 48
50.0
100
AcDbLine
 10
9709.543324466997
 20
4085.333864950652
 30
0.0
 11
12879.54698889764
 21
4045.524545976159
 31
0.0
  0
LINE
  5
19198
330
747D
100
AcDbEntity
  8
細線
 48
50.0
100
AcDbLine
 10
9704.78284922971
 20
4178.195376648516
 30
0.0
 11
12890.41883397488
 21
4122.571172007687
 31
0.0
  0
LINE
  5
19199
330
747D
100
AcDbEntity
  8
部品1
 48
50.0
100
AcDbLine
 10
9707.376743926062
 20
4175.269595031963
 30
0.0
 11
9709.080645417426
 21
4085.979098325316
 31
0.0
  0
LINE
  5
1919A
330
747D
100
AcDbEntity
  8
部品1
 48
50.0
100
AcDbLine
 10
9703.927712042002
 20
4198.771840971847
 30
0.0
 11
9704.307971819815
 21
4178.844876525435
 31
0.0
  0
LINE
  5
1919B
330
747D
100
AcDbEntity
  8
細線
 48
50.0
100
AcDbLine
 10
12860.71270932259
 20
4151.331717286623
 30
0.0
 11
12855.9957432409
 21
4026.399501351707
 31
0.0
  0
LINE
  5
1919C
330
747D
100
AcDbEntity
  8
細線
 48
50.0
100
AcDbLine
 10
9736.743426128896
 20
4204.577971182558
 30
0.0
 11
9731.454324573391
 21
4064.492338555204
 31
0.0
  0
LINE
  5
1919D
330
747D
100
AcDbEntity
  8
部品1
100
AcDbLine
 10
9719.085990730849
 20
4064.959319876122
 30
0.0
 11
12868.40712666875
 21
4025.930894641915
 31
0.0
  0
LINE
  5
1919E
330
747D
100
AcDbEntity
  8
部品1
100
AcDbLine
 10
9711.28841248586
 20
4205.89603014142
 30
0.0
 11
12886.35530299036
 21
4150.819092516293
 31
0.0
  0
LINE
  5
1919F
330
747D
100
AcDbEntity
  8
部品1
 48
50.0
100
AcDbLine
 10
11167.71171229544
 20
4331.06462381131
 30
0.0
 11
11467.71171229544
 21
4331.06462381131
 31
0.0
  0
LINE
  5
191A0
330
747D
100
AcDbEntity
  8
部品1
 48
50.0
100
AcDbLine
 10
11467.71171229544
 20
4331.06462381131
 30
0.0
 11
11467.71171229544
 21
4314.864623811311
 31
0.0
  0
TEXT
  5
191A1
330
747D
100
AcDbEntity
  8
部品1
 48
50.0
100
AcDbText
 10
11155.97954751917
 20
4366.948645963744
 30
0.0
 40
120.0
  1
1000
  7
STYLE1
100
AcDbText
  0
TEXT
  5
191A2
330
747D
100
AcDbEntity
  8
部品1
 48
50.0
100
AcDbText
 10
11633.61257018426
 20
4229.447387745461
 30
0.0
 40
120.0
  1
32
 50
90.0
  7
STYLE1
100
AcDbText
  0
LINE
  5
191A3
330
747D
100
AcDbEntity
  8
細線
 48
50.0
100
AcDbLine
 10
11156.24342612889
 20
3972.178294807154
 30
0.0
 11
11156.2434261289
 21
2182.178294807154
 31
0.0
  0
LINE
  5
191A4
330
747D
100
AcDbEntity
  8
細線
 48
50.0
100
AcDbLine
 10
11141.24342612889
 20
3972.178294807154
 30
0.0
 11
11141.2434261289
 21
2182.178294807154
 31
0.0
  0
LINE
  5
191A5
330
747D
100
AcDbEntity
  8
細線
 48
50.0
100
AcDbLine
 10
11281.24342612889
 20
3972.178294807154
 30
0.0
 11
11281.2434261289
 21
2182.178294807154
 31
0.0
  0
LINE
  5
191A6
330
747D
100
AcDbEntity
  8
細線
 48
50.0
100
AcDbLine
 10
11296.24342612889
 20
3972.178294807154
 30
0.0
 11
11296.2434261289
 21
2182.178294807154
 31
0.0
  0
LINE
  5
191A7
330
747D
100
AcDbEntity
  8
細線
 48
50.0
100
AcDbLine
 10
11436.24342612889
 20
3972.178294807154
 30
0.0
 11
11436.2434261289
 21
2182.178294807154
 31
0.0
  0
LINE
  5
191A8
330
747D
100
AcDbEntity
  8
細線
 48
50.0
100
AcDbLine
 10
11421.24342612889
 20
3972.178294807154
 30
0.0
 11
11421.2434261289
 21
2182.178294807154
 31
0.0
  0
LINE
  5
191A9
330
747D
100
AcDbEntity
  8
部品1
100
AcDbLine
 10
12758.74342612889
 20
3972.178294807154
 30
0.0
 11
12758.74342612889
 21
2182.178294807158
 31
0.0
  0
LINE
  5
191AA
330
747D
100
AcDbEntity
  8
部品1
100
AcDbLine
 10
9763.743426128897
 20
3972.178294807154
 30
0.0
 11
12813.74342612889
 21
3972.178294807154
 31
0.0
  0
LINE
  5
191AB
330
747D
100
AcDbEntity
  8
部品1
100
AcDbLine
 10
9763.743426128897
 20
2182.178294807154
 30
0.0
 11
12813.7434261289
 21
2182.178294807156
 31
0.0
  0
LINE
  5
191AC
330
747D
100
AcDbEntity
  8
部品1
100
AcDbLine
 10
9818.743426128895
 20
3972.178294807154
 30
0.0
 11
9818.743426128897
 21
2182.178294807154
 31
0.0
  0
LINE
  5
191AD
330
747D
100
AcDbEntity
  8
部品1
100
AcDbLine
 10
9763.743426128895
 20
4064.405896041792
 30
0.0
 11
9763.743426128897
 21
2032.178294807154
 31
0.0
  0
DIMENSION
  5
191AE
330
747D
100
AcDbEntity
  8
寸法
100
AcDbDimension
  2
*D22
 10
8919.993296945637
 20
2132.17829480715
 30
0.0
 11
8919.993296945637
 21
1826.131050712661
 31
0.0
 70
   160
 71
     5
 42
50.00000000000454
  3
INABA_S40G
100
AcDbAlignedDimension
 13
9763.743426128897
 23
2182.178294807154
 33
0.0
 14
9686.743426128895
 24
2132.17829480715
 34
0.0
 50
90.0
100
AcDbRotatedDimension
1001
ACAD
1000
DSTYLE
1002
{
1070
   174
1070
     0
1070
   272
1070
     1
1070
   288
1070
     0
1070
   341
1005
0
1002
}
  0
LINE
  5
191AF
330
747D
100
AcDbEntity
  8
部品1
100
AcDbLine
 10
10238.74342612889
 20
3972.178294807154
 30
0.0
 11
10238.7434261289
 21
2182.178294807154
 31
0.0
  0
LINE
  5
191B0
330
747D
100
AcDbEntity
  8
部品1
100
AcDbLine
 10
12813.74342612889
 20
4026.608322588275
 30
0.0
 11
12813.74342612889
 21
2032.178294807156
 31
0.0
  0
LINE
  5
191B1
330
747D
100
AcDbEntity
  8
部品1
100
AcDbLine
 10
12758.74342612889
 20
3972.178294807154
 30
0.0
 11
12758.7434261289
 21
2182.178294807156
 31
0.0
  0
DIMENSION
  5
191B2
330
747D
100
AcDbEntity
  8
寸法
 48
50.0
100
AcDbDimension
  2
*D23
 10
9763.743426128897
 20
4605.83574838646
 30
0.0
 11
11333.80180068831
 21
4605.83574838646
 31
0.0
 70
   160
  1
柱外寸法<>
 71
     5
 42
3049.999999999997
  3
INABA_S40G
100
AcDbAlignedDimension
 13
12813.74342612889
 23
4153.988974418809
 33
0.0
 14
9763.743426128897
 24
4203.179912930131
 34
0.0
100
AcDbRotatedDimension
1001
ACAD
1000
DSTYLE
1002
{
1070
   174
1070
     0
1070
   272
1070
     1
1070
   288
1070
     0
1070
   341
1005
0
1002
}
  0
DIMENSION
  5
191B3
330
747D
100
AcDbEntity
  8
寸法
 48
50.0
100
AcDbDimension
  2
*D24
 10
9703.743426128896
 20
4605.835748386458
 30
0.0
 11
9394.105630853307
 21
4605.835748386458
 31
0.0
 70
   160
 71
     5
 42
60.0
  3
INABA_S40G
100
AcDbAlignedDimension
 13
9763.743426128897
 23
4203.179912930131
 33
0.0
 14
9703.743426128896
 24
4207.178294807158
 34
0.0
100
AcDbRotatedDimension
1001
ACAD
1000
DSTYLE
1002
{
1070
   174
1070
     0
1070
   272
1070
     1
1070
   288
1070
     0
1070
   341
1005
0
1002
}
  0
DIMENSION
  5
191B4
330
747D
100
AcDbEntity
  8
寸法
 48
50.0
100
AcDbDimension
  2
*D25
 10
9703.743426128896
 20
4835.949341172736
 30
0.0
 11
11375.44923243842
 21
4835.949341172736
 31
0.0
 70
   160
 71
     5
 42
3189.999999999996
  3
INABA_S40G
100
AcDbAlignedDimension
 13
12893.74342612889
 23
4152.178294807156
 33
0.0
 14
9703.743426128896
 24
4207.178294807158
 34
0.0
100
AcDbRotatedDimension
1001
ACAD
1000
DSTYLE
1002
{
1070
   174
1070
     0
1070
   272
1070
     1
1070
   288
1070
     0
1070
   341
1005
0
1002
}
  0
LINE
  5
191B5
330
747D
100
AcDbEntity
  8
部品1
100
AcDbLine
 10
9763.743426128899
 20
2132.178294807154
 30
0.0
 11
12813.74342612889
 21
2132.178294807154
 31
0.0
  0
LINE
  5
191B6
330
747D
100
AcDbEntity
  8
細線
 48
50.0
100
AcDbLine
 10
10316.24342612889
 20
3972.178294807154
 30
0.0
 11
10316.24342612889
 21
2182.178294807154
 31
0.0
  0
LINE
  5
191B7
330
747D
100
AcDbEntity
  8
細線
 48
50.0
100
AcDbLine
 10
10301.24342612889
 20
3972.178294807154
 30
0.0
 11
10301.24342612889
 21
2182.178294807154
 31
0.0
  0
LINE
  5
191B8
330
747D
100
AcDbEntity
  8
細線
 48
50.0
100
AcDbLine
 10
10441.24342612889
 20
3972.178294807154
 30
0.0
 11
10441.24342612889
 21
2182.178294807154
 31
0.0
  0
LINE
  5
191B9
330
747D
100
AcDbEntity
  8
細線
 48
50.0
100
AcDbLine
 10
10456.24342612889
 20
3972.178294807154
 30
0.0
 11
10456.24342612889
 21
2182.178294807154
 31
0.0
  0
LINE
  5
191BA
330
747D
100
AcDbEntity
  8
細線
 48
50.0
100
AcDbLine
 10
10596.24342612889
 20
3972.178294807154
 30
0.0
 11
10596.24342612889
 21
2182.178294807154
 31
0.0
  0
LINE
  5
191BB
330
747D
100
AcDbEntity
  8
細線
 48
50.0
100
AcDbLine
 10
10581.24342612889
 20
3972.178294807154
 30
0.0
 11
10581.24342612889
 21
2182.178294807154
 31
0.0
  0
LINE
  5
191BC
330
747D
100
AcDbEntity
  8
細線
 48
50.0
100
AcDbLine
 10
10161.24342612889
 20
3972.178294807154
 30
0.0
 11
10161.24342612889
 21
2182.178294807154
 31
0.0
  0
LINE
  5
191BD
330
747D
100
AcDbEntity
  8
細線
 48
50.0
100
AcDbLine
 10
10176.24342612889
 20
3972.178294807154
 30
0.0
 11
10176.24342612889
 21
2182.178294807154
 31
0.0
  0
LINE
  5
191BE
330
747D
100
AcDbEntity
  8
細線
 48
50.0
100
AcDbLine
 10
10036.24342612889
 20
3972.178294807154
 30
0.0
 11
10036.24342612889
 21
2182.178294807154
 31
0.0
  0
LINE
  5
191BF
330
747D
100
AcDbEntity
  8
細線
 48
50.0
100
AcDbLine
 10
10021.24342612889
 20
3972.178294807154
 30
0.0
 11
10021.24342612889
 21
2182.178294807154
 31
0.0
  0
LINE
  5
191C0
330
747D
100
AcDbEntity
  8
細線
 48
50.0
100
AcDbLine
 10
9881.243426128895
 20
3972.178294807154
 30
0.0
 11
9881.243426128897
 21
2182.178294807154
 31
0.0
  0
LINE
  5
191C1
330
747D
100
AcDbEntity
  8
細線
 48
50.0
100
AcDbLine
 10
9896.243426128895
 20
3972.178294807154
 30
0.0
 11
9896.243426128897
 21
2182.178294807154
 31
0.0
  0
DIMENSION
  5
191C2
330
747D
100
AcDbEntity
  8
寸法
 48
50.0
100
AcDbDimension
  2
*D26
 10
12893.74342612889
 20
4605.83574838646
 30
0.0
 11
13099.79067022338
 21
4605.83574838646
 31
0.0
 70
   160
 71
     5
 42
80.0
  3
INABA_S40G
100
AcDbAlignedDimension
 13
12813.74342612889
 23
4153.988974418809
 33
0.0
 14
12893.74342612889
 24
4152.178294807157
 34
0.0
100
AcDbRotatedDimension
1001
ACAD
1000
DSTYLE
1002
{
1070
   174
1070
     0
1070
   272
1070
     1
1070
   288
1070
     0
1070
   341
1005
0
1002
}
  0
LINE
  5
191C3
330
747D
100
AcDbEntity
  8
部品1
100
AcDbLine
 10
10658.74342612889
 20
3972.178294807154
 30
0.0
 11
10658.74342612889
 21
2182.178294807154
 31
0.0
  0
LINE
  5
191C4
330
747D
100
AcDbEntity
  8
細線
 48
50.0
100
AcDbLine
 10
11001.24342612889
 20
3972.178294807154
 30
0.0
 11
11001.2434261289
 21
2182.178294807154
 31
0.0
  0
LINE
  5
191C5
330
747D
100
AcDbEntity
  8
細線
 48
50.0
100
AcDbLine
 10
11016.24342612889
 20
3972.178294807154
 30
0.0
 11
11016.2434261289
 21
2182.178294807154
 31
0.0
  0
LINE
  5
191C6
330
747D
100
AcDbEntity
  8
細線
 48
50.0
100
AcDbLine
 10
10876.24342612889
 20
3972.178294807154
 30
0.0
 11
10876.2434261289
 21
2182.178294807154
 31
0.0
  0
LINE
  5
191C7
330
747D
100
AcDbEntity
  8
細線
 48
50.0
100
AcDbLine
 10
10861.24342612889
 20
3972.178294807154
 30
0.0
 11
10861.2434261289
 21
2182.178294807154
 31
0.0
  0
LINE
  5
191C8
330
747D
100
AcDbEntity
  8
細線
 48
50.0
100
AcDbLine
 10
10721.24342612889
 20
3972.178294807154
 30
0.0
 11
10721.2434261289
 21
2182.178294807154
 31
0.0
  0
LINE
  5
191C9
330
747D
100
AcDbEntity
  8
細線
 48
50.0
100
AcDbLine
 10
10736.24342612889
 20
3972.178294807154
 30
0.0
 11
10736.2434261289
 21
2182.178294807154
 31
0.0
  0
LINE
  5
191CA
330
747D
100
AcDbEntity
  8
部品1
100
AcDbLine
 10
11078.74342612889
 20
3972.178294807154
 30
0.0
 11
11078.74342612889
 21
2182.178294807154
 31
0.0
  0
LINE
  5
191CB
330
747D
100
AcDbEntity
  8
細線
 48
50.0
100
AcDbLine
 10
12416.24342612889
 20
3972.178294807154
 30
0.0
 11
12416.2434261289
 21
2182.178294807156
 31
0.0
  0
LINE
  5
191CC
330
747D
100
AcDbEntity
  8
細線
 48
50.0
100
AcDbLine
 10
12401.24342612889
 20
3972.178294807154
 30
0.0
 11
12401.2434261289
 21
2182.178294807156
 31
0.0
  0
LINE
  5
191CD
330
747D
100
AcDbEntity
  8
細線
 48
50.0
100
AcDbLine
 10
12541.2434261289
 20
3972.178294807154
 30
0.0
 11
12541.2434261289
 21
2182.178294807156
 31
0.0
  0
LINE
  5
191CE
330
747D
100
AcDbEntity
  8
細線
 48
50.0
100
AcDbLine
 10
12556.2434261289
 20
3972.178294807154
 30
0.0
 11
12556.2434261289
 21
2182.178294807156
 31
0.0
  0
LINE
  5
191CF
330
747D
100
AcDbEntity
  8
細線
 48
50.0
100
AcDbLine
 10
12696.2434261289
 20
3972.178294807154
 30
0.0
 11
12696.2434261289
 21
2182.178294807156
 31
0.0
  0
LINE
  5
191D0
330
747D
100
AcDbEntity
  8
細線
 48
50.0
100
AcDbLine
 10
12681.2434261289
 20
3972.178294807154
 30
0.0
 11
12681.2434261289
 21
2182.178294807156
 31
0.0
  0
DIMENSION
  5
191D1
330
747D
100
AcDbEntity
  8
寸法
 48
50.0
100
AcDbDimension
  2
*D27
 10
9143.135019360521
 20
4081.523553680486
 30
0.0
 11
9153.800494619444
 21
4452.370216922184
 31
0.0
 70
   161
 71
     5
 42
141.0
  3
INABA_S40G
100
AcDbAlignedDimension
 13
9723.139446287476
 23
4205.901043641834
 33
0.0
 14
9719.085990730849
 24
4064.959319876122
 34
0.0
1001
ACAD
1000
DSTYLE
1002
{
1070
   174
1070
     0
1070
   272
1070
     1
1070
   288
1070
     0
1070
   341
1005
0
1002
}
  0
LINE
  5
191D2
330
747D
100
AcDbEntity
  8
部品1
100
AcDbLine
 10
11918.74342612889
 20
3972.178294807155
 30
0.0
 11
11918.74342612889
 21
2182.178294807156
 31
0.0
  0
LINE
  5
191D3
330
747D
100
AcDbEntity
  8
細線
 48
50.0
100
AcDbLine
 10
11996.24342612889
 20
3972.178294807155
 30
0.0
 11
11996.24342612889
 21
2182.178294807156
 31
0.0
  0
LINE
  5
191D4
330
747D
100
AcDbEntity
  8
細線
 48
50.0
100
AcDbLine
 10
11981.24342612889
 20
3972.178294807155
 30
0.0
 11
11981.24342612889
 21
2182.178294807156
 31
0.0
  0
LINE
  5
191D5
330
747D
100
AcDbEntity
  8
細線
 48
50.0
100
AcDbLine
 10
12121.24342612889
 20
3972.178294807155
 30
0.0
 11
12121.24342612889
 21
2182.178294807156
 31
0.0
  0
LINE
  5
191D6
330
747D
100
AcDbEntity
  8
細線
 48
50.0
100
AcDbLine
 10
12136.24342612889
 20
3972.178294807155
 30
0.0
 11
12136.24342612889
 21
2182.178294807156
 31
0.0
  0
LINE
  5
191D7
330
747D
100
AcDbEntity
  8
細線
 48
50.0
100
AcDbLine
 10
12276.24342612889
 20
3972.178294807155
 30
0.0
 11
12276.24342612889
 21
2182.178294807156
 31
0.0
  0
LINE
  5
191D8
330
747D
100
AcDbEntity
  8
細線
 48
50.0
100
AcDbLine
 10
12261.24342612889
 20
3972.178294807155
 30
0.0
 11
12261.24342612889
 21
2182.178294807156
 31
0.0
  0
LINE
  5
191D9
330
747D
100
AcDbEntity
  8
部品1
100
AcDbLine
 10
12338.74342612888
 20
3972.178294807155
 30
0.0
 11
12338.74342612888
 21
2182.178294807158
 31
0.0
  0
LINE
  5
19822
330
747D
100
AcDbEntity
  8
補助
  6
PHANTOM
 62
   230
 48
50.0
100
AcDbLine
 10
140.0
 20
0.0
 30
0.0
 11
139.9999999999995
 21
11409.6
 31
0.0
  0
LINE
  5
1990B
330
747D
100
AcDbEntity
  8
寸法
 48
50.0
100
AcDbLine
 10
5007.788235828264
 20
7054.152453248264
 30
0.0
 11
4956.382227918159
 21
7054.152453248264
 31
0.0
  0
LINE
  5
1990C
330
747D
100
AcDbEntity
  8
寸法
 48
50.0
100
AcDbLine
 10
4956.382227918159
 20
7054.152453248264
 30
0.0
 11
4956.382227918159
 21
7085.462611900429
 31
0.0
  0
LINE
  5
1990D
330
747D
100
AcDbEntity
  8
寸法
 48
50.0
100
AcDbLine
 10
4956.382227918159
 20
7085.462611900429
 30
0.0
 11
4926.620895926736
 21
7085.462611900429
 31
0.0
  0
LINE
  5
1990E
330
747D
100
AcDbEntity
  8
寸法
 48
50.0
100
AcDbLine
 10
4926.620895926736
 20
7085.462611900429
 30
0.0
 11
4982.085231873211
 21
7123.042062829039
 31
0.0
  0
LINE
  5
1990F
330
747D
100
AcDbEntity
  8
寸法
 48
50.0
100
AcDbLine
 10
5037.549567819687
 20
7085.462611900429
 30
0.0
 11
4982.085231873211
 21
7123.042062829039
 31
0.0
  0
LINE
  5
19910
330
747D
100
AcDbEntity
  8
寸法
 48
50.0
100
AcDbLine
 10
5007.788235828264
 20
7085.462611900429
 30
0.0
 11
5037.549567819687
 21
7085.462611900429
 31
0.0
  0
LINE
  5
19911
330
747D
100
AcDbEntity
  8
寸法
 48
50.0
100
AcDbLine
 10
5007.788235828264
 20
7054.152453248264
 30
0.0
 11
5007.788235828264
 21
7085.462611900429
 31
0.0
  0
LINE
  5
19912
330
747D
100
AcDbEntity
  8
寸法
 48
50.0
100
AcDbLine
 10
4956.382227918159
 20
7054.152453248264
 30
0.0
 11
5007.788235828264
 21
7054.152453248264
 31
0.0
  0
LINE
  5
19913
330
747D
100
AcDbEntity
  8
寸法
 48
50.0
100
AcDbLine
 10
5286.953770105121
 20
7111.298044003087
 30
0.0
 11
5286.953770105121
 21
7057.634409421297
 31
0.0
  0
LINE
  5
19914
330
747D
100
AcDbEntity
  8
寸法
 48
50.0
100
AcDbLine
 10
5376.237988700541
 20
7087.3744097336
 30
0.0
 11
5286.953770105121
 21
7111.298044003087
 31
0.0
  0
LINE
  5
19915
330
747D
100
AcDbEntity
  8
寸法
 48
50.0
100
AcDbLine
 10
5157.086048524817
 20
7087.3744097336
 30
0.0
 11
5376.237988700541
 21
7087.3744097336
 31
0.0
  0
LINE
  5
19916
330
747D
100
AcDbEntity
  8
細線
 48
50.0
100
AcDbLine
 10
6033.585229546422
 20
7252.615816628126
 30
0.0
 11
6660.585229546419
 21
7252.615816628126
 31
0.0
  0
LINE
  5
19917
330
747D
100
AcDbEntity
  8
細線
 48
50.0
100
AcDbLine
 10
5379.585234200008
 20
7218.90704807405
 30
0.0
 11
6660.585229546419
 21
7218.90704807405
 31
0.0
  0
LINE
  5
19918
330
747D
100
AcDbEntity
  8
細線
 48
50.0
100
AcDbLine
 10
5338.585234200012
 20
7248.311956070303
 30
0.0
 11
4584.585229546418
 21
7248.3119560703
 31
0.0
  0
LINE
  5
19919
330
747D
100
AcDbEntity
  8
細線
100
AcDbLine
 10
6436.335220129961
 20
7272.115716593134
 30
0.0
 11
6438.666759651771
 21
7277.115719233096
 31
0.0
  0
LINE
  5
1991A
330
747D
100
AcDbEntity
  8
細線
100
AcDbLine
 10
6506.33522954642
 20
7272.115701679401
 30
0.0
 11
6504.003683070232
 21
7277.115719233082
 31
0.0
  0
LINE
  5
1991B
330
747D
100
AcDbEntity
  8
細線
100
AcDbLine
 10
6504.003683070232
 20
7277.115719233082
 30
0.0
 11
6438.666759651757
 21
7277.115719233066
 31
0.0
  0
LINE
  5
1991C
330
747D
100
AcDbEntity
  8
細線
100
AcDbLine
 10
6364.003683070232
 20
7277.115719233082
 30
0.0
 11
6298.666759651756
 21
7277.115719233066
 31
0.0
  0
LINE
  5
1991D
330
747D
100
AcDbEntity
  8
細線
100
AcDbLine
 10
6366.335229546419
 20
7272.115701679401
 30
0.0
 11
6364.003683070232
 21
7277.115719233082
 31
0.0
  0
LINE
  5
1991E
330
747D
100
AcDbEntity
  8
細線
100
AcDbLine
 10
6296.335220129962
 20
7272.115716593134
 30
0.0
 11
6298.666759651771
 21
7277.115719233096
 31
0.0
  0
LINE
  5
1991F
330
747D
100
AcDbEntity
  8
細線
100
AcDbLine
 10
6156.335229546419
 20
7272.115701679401
 30
0.0
 11
6158.666769068232
 21
7277.115704319361
 31
0.0
  0
LINE
  5
19920
330
747D
100
AcDbEntity
  8
細線
100
AcDbLine
 10
6226.33523896288
 20
7272.115686765665
 30
0.0
 11
6224.003692486689
 21
7277.115704319347
 31
0.0
  0
LINE
  5
19921
330
747D
100
AcDbEntity
  8
細線
100
AcDbLine
 10
6224.003692486693
 20
7277.115704319347
 30
0.0
 11
6158.666769068217
 21
7277.115704319332
 31
0.0
  0
LINE
  5
19922
330
747D
100
AcDbEntity
  8
細線
100
AcDbLine
 10
5928.753713735526
 20
7243.115741016729
 30
0.0
 11
5863.416790317049
 21
7243.115741016715
 31
0.0
  0
LINE
  5
19923
330
747D
100
AcDbEntity
  8
細線
100
AcDbLine
 10
5931.085260211713
 20
7238.115723463048
 30
0.0
 11
5928.753713735526
 21
7243.115741016729
 31
0.0
  0
LINE
  5
19924
330
747D
100
AcDbEntity
  8
細線
100
AcDbLine
 10
5861.085250795255
 20
7238.115738376783
 30
0.0
 11
5863.416790317065
 21
7243.115741016743
 31
0.0
  0
LINE
  5
19925
330
747D
100
AcDbEntity
  8
細線
 48
50.0
100
AcDbLine
 10
5702.468608794433
 20
7256.386564832481
 30
0.0
 11
5708.2241263771
 21
7238.115713541994
 31
0.0
  0
LINE
  5
19926
330
747D
100
AcDbEntity
  8
細線
 48
50.0
100
AcDbLine
 10
5691.540160314002
 20
7256.386564832481
 30
0.0
 11
5702.468608794433
 21
7256.386564832481
 31
0.0
  0
ARC
  5
19927
330
747D
100
AcDbEntity
  8
細線
 48
50.0
100
AcDbCircle
 10
5686.085804256681
 20
7257.886564832481
 30
0.0
 40
5.0
100
AcDbArc
 50
204.6243183521277
 51
335.3756816478722
  0
ARC
  5
19928
330
747D
100
AcDbEntity
  8
細線
 48
50.0
100
AcDbCircle
 10
5691.540160314002
 20
7255.386564832481
 30
0.0
 40
1.0
100
AcDbArc
 50
90.0
 51
155.3756816478722
  0
ARC
  5
19929
330
747D
100
AcDbEntity
  8
細線
 48
50.0
100
AcDbCircle
 10
5680.631448199366
 20
7255.386564832481
 30
0.0
 40
1.0
100
AcDbArc
 50
24.62431835212777
 51
90.0
  0
LINE
  5
1992A
330
747D
100
AcDbEntity
  8
細線
 48
50.0
100
AcDbLine
 10
5669.702999718932
 20
7256.386564832481
 30
0.0
 11
5680.631448199366
 21
7256.386564832481
 31
0.0
  0
LINE
  5
1992B
330
747D
100
AcDbEntity
  8
細線
 48
50.0
100
AcDbLine
 10
5663.947482136265
 20
7238.115713541986
 30
0.0
 11
5669.702999718932
 21
7256.386564832481
 31
0.0
  0
LINE
  5
1992C
330
747D
100
AcDbEntity
  8
細線
100
AcDbLine
 10
5721.085252026297
 20
7238.115710907791
 30
0.0
 11
5723.41679154811
 21
7243.115713547751
 31
0.0
  0
LINE
  5
1992D
330
747D
100
AcDbEntity
  8
細線
100
AcDbLine
 10
5791.085261442757
 20
7238.115695994057
 30
0.0
 11
5788.753714966567
 21
7243.115713547737
 31
0.0
  0
LINE
  5
1992E
330
747D
100
AcDbEntity
  8
細線
100
AcDbLine
 10
5788.753714966567
 20
7243.115713547737
 30
0.0
 11
5723.416791548095
 21
7243.115713547723
 31
0.0
  0
LINE
  5
1992F
330
747D
100
AcDbEntity
  8
細線
100
AcDbLine
 10
5648.75368660205
 20
7243.115713541958
 30
0.0
 11
5583.416763183574
 21
7243.115713541944
 31
0.0
  0
LINE
  5
19930
330
747D
100
AcDbEntity
  8
細線
100
AcDbLine
 10
5651.085233078237
 20
7238.115695988277
 30
0.0
 11
5648.75368660205
 21
7243.115713541958
 31
0.0
  0
LINE
  5
19931
330
747D
100
AcDbEntity
  8
細線
100
AcDbLine
 10
5581.085224892821
 20
7238.115713541986
 30
0.0
 11
5583.416763183588
 21
7243.115713541972
 31
0.0
  0
LINE
  5
19932
330
747D
100
AcDbEntity
  8
細線
100
AcDbLine
 10
5441.085260211713
 20
7238.115721729356
 30
0.0
 11
5443.416798502481
 21
7243.115721729342
 31
0.0
  0
LINE
  5
19933
330
747D
100
AcDbEntity
  8
細線
100
AcDbLine
 10
5511.085268397128
 20
7238.115704175647
 30
0.0
 11
5508.753721920942
 21
7243.115721729324
 31
0.0
  0
LINE
  5
19934
330
747D
100
AcDbEntity
  8
細線
100
AcDbLine
 10
5508.753721920942
 20
7243.115721729324
 30
0.0
 11
5443.416798502465
 21
7243.115721729314
 31
0.0
  0
LINE
  5
19935
330
747D
100
AcDbEntity
  8
細線
100
AcDbLine
 10
5069.585226014591
 20
7204.115893410069
 30
0.0
 11
5071.91676430536
 21
7209.115893410054
 31
0.0
  0
LINE
  5
19936
330
747D
100
AcDbEntity
  8
細線
100
AcDbLine
 10
5139.585234200009
 20
7204.115875856357
 30
0.0
 11
5137.253687723821
 21
7209.115893410033
 31
0.0
  0
LINE
  5
19937
330
747D
100
AcDbEntity
  8
細線
100
AcDbLine
 10
5137.253687723821
 20
7209.115893410033
 30
0.0
 11
5071.916764305349
 21
7209.115893410026
 31
0.0
  0
LINE
  5
19938
330
747D
100
AcDbEntity
  8
細線
100
AcDbLine
 10
5277.25368772382
 20
7209.115893410033
 30
0.0
 11
5211.916764305349
 21
7209.115893410026
 31
0.0
  0
LINE
  5
19939
330
747D
100
AcDbEntity
  8
細線
100
AcDbLine
 10
5279.585234200008
 20
7204.115875856357
 30
0.0
 11
5277.25368772382
 21
7209.115893410033
 31
0.0
  0
LINE
  5
1993A
330
747D
100
AcDbEntity
  8
細線
100
AcDbLine
 10
5209.585226014592
 20
7204.115893410069
 30
0.0
 11
5211.91676430536
 21
7209.115893410054
 31
0.0
  0
LINE
  5
1993B
330
747D
100
AcDbEntity
  8
細線
100
AcDbLine
 10
4997.253687723821
 20
7209.115893410033
 30
0.0
 11
4931.916764305348
 21
7209.115893410022
 31
0.0
  0
LINE
  5
1993C
330
747D
100
AcDbEntity
  8
細線
100
AcDbLine
 10
4999.585234200008
 20
7204.115875856357
 30
0.0
 11
4997.253687723821
 21
7209.115893410033
 31
0.0
  0
LINE
  5
1993D
330
747D
100
AcDbEntity
  8
細線
100
AcDbLine
 10
4929.585226014592
 20
7204.115893410066
 30
0.0
 11
4931.916764305359
 21
7209.115893410052
 31
0.0
  0
LINE
  5
1993E
330
747D
100
AcDbEntity
  8
細線
100
AcDbLine
 10
4789.585234200008
 20
7204.115893410069
 30
0.0
 11
4791.916772490775
 21
7209.115893410054
 31
0.0
  0
LINE
  5
1993F
330
747D
100
AcDbEntity
  8
細線
100
AcDbLine
 10
4859.585242385424
 20
7204.115875856357
 30
0.0
 11
4857.253695909236
 21
7209.115893410033
 31
0.0
  0
LINE
  5
19940
330
747D
100
AcDbEntity
  8
細線
100
AcDbLine
 10
4857.253695909236
 20
7209.115893410033
 30
0.0
 11
4791.916772490765
 21
7209.115893410026
 31
0.0
  0
ARC
  5
19941
330
747D
100
AcDbEntity
  8
部品1
 48
0.01
100
AcDbCircle
 10
4745.085122947673
 20
7203.114771224997
 30
0.0
 40
0.5
100
AcDbArc
 50
270.0
 51
0.0
  0
LINE
  5
19942
330
747D
100
AcDbEntity
  8
部品1
 48
0.01
100
AcDbLine
 10
4745.585122947672
 20
7204.114771224997
 30
0.0
 11
4745.585122947672
 21
7203.114771224997
 31
0.0
  0
LINE
  5
19943
330
747D
100
AcDbEntity
  8
部品1
 48
0.01
100
AcDbLine
 10
4745.585122947672
 20
7204.114771224997
 30
0.0
 11
4745.585122947672
 21
7203.114771224997
 31
0.0
  0
LINE
  5
19944
330
747D
100
AcDbEntity
  8
部品1
 48
0.01
100
AcDbLine
 10
4745.085122947673
 20
7202.614771224997
 30
0.0
 11
4738.472617517608
 21
7202.614771224997
 31
0.0
  0
ARC
  5
19945
330
747D
100
AcDbEntity
  8
部品1
100
AcDbCircle
 10
4738.540967070389
 20
7203.614771224997
 30
0.0
 40
1.0
100
AcDbArc
 50
160.5287793655822
 51
270.0
  0
ARC
  5
19946
330
747D
100
AcDbEntity
  8
部品1
100
AcDbCircle
 10
4713.085122947673
 20
7212.614771224997
 30
0.0
 40
26.0
100
AcDbArc
 50
340.5287793655822
 51
0.0
  0
LINE
  5
19947
330
747D
100
AcDbEntity
  8
部品1
100
AcDbLine
 10
4739.085122947673
 20
7212.614771224997
 30
0.0
 11
4739.085122947673
 21
7217.614771224997
 31
0.0
  0
ARC
  5
19948
330
747D
100
AcDbEntity
  8
部品1
 48
0.01
100
AcDbCircle
 10
4737.085122947672
 20
7217.614771224997
 30
0.0
 40
2.0
100
AcDbArc
 50
0.0
 51
90.0
  0
ARC
  5
19949
330
747D
100
AcDbEntity
  8
部品1
100
AcDbCircle
 10
4735.476731322863
 20
7216.614771224996
 30
0.0
 40
3.0
100
AcDbArc
 50
90.0
 51
141.6069559807873
  0
LINE
  5
1994A
330
747D
100
AcDbEntity
  8
部品1
 48
0.01
100
AcDbLine
 10
4737.085122947672
 20
7219.614771224996
 30
0.0
 11
4735.476731322863
 21
7219.614771224996
 31
0.0
  0
ARC
  5
1994B
330
747D
100
AcDbEntity
  8
部品1
100
AcDbCircle
 10
4717.014408733402
 20
7215.914771225
 30
0.0
 40
3.0
100
AcDbArc
 50
254.0576313943215
 51
270.0
  0
ARC
  5
1994C
330
747D
100
AcDbEntity
  8
部品1
100
AcDbCircle
 10
4724.155837161943
 20
7215.914771225
 30
0.0
 40
3.0
100
AcDbArc
 50
270.0
 51
285.9423686056786
  0
LINE
  5
1994D
330
747D
100
AcDbEntity
  8
部品1
100
AcDbLine
 10
4724.155837161943
 20
7212.914771225
 30
0.0
 11
4717.014408733402
 21
7212.914771225
 31
0.0
  0
ARC
  5
1994E
330
747D
100
AcDbEntity
  8
部品1
100
AcDbCircle
 10
4720.585122947673
 20
7228.414771225001
 30
0.0
 40
16.0
100
AcDbArc
 50
285.9423686056786
 51
321.6069559807873
  0
LINE
  5
1994F
330
747D
100
AcDbEntity
  8
部品1
 48
0.01
100
AcDbLine
 10
4704.085122947673
 20
7219.614771224996
 30
0.0
 11
4705.693514572483
 21
7219.614771224996
 31
0.0
  0
ARC
  5
19950
330
747D
100
AcDbEntity
  8
部品1
100
AcDbCircle
 10
4705.693514572483
 20
7216.614771224996
 30
0.0
 40
3.0
100
AcDbArc
 50
38.39304401921267
 51
90.0
  0
ARC
  5
19951
330
747D
100
AcDbEntity
  8
部品1
100
AcDbCircle
 10
4720.585122947673
 20
7228.414771225001
 30
0.0
 40
16.0
100
AcDbArc
 50
218.3930440192126
 51
254.0576313943215
  0
LINE
  5
19952
330
747D
100
AcDbEntity
  8
部品1
100
AcDbLine
 10
4702.085122947673
 20
7212.614771224997
 30
0.0
 11
4702.085122947673
 21
7217.614771224997
 31
0.0
  0
ARC
  5
19953
330
747D
100
AcDbEntity
  8
部品1
 48
0.01
100
AcDbCircle
 10
4704.085122947673
 20
7217.614771224997
 30
0.0
 40
2.0
100
AcDbArc
 50
90.0
 51
180.0
  0
ARC
  5
19954
330
747D
100
AcDbEntity
  8
部品1
100
AcDbCircle
 10
4728.085122947673
 20
7212.614771224997
 30
0.0
 40
26.0
100
AcDbArc
 50
180.0
 51
199.4712206344178
  0
ARC
  5
19955
330
747D
100
AcDbEntity
  8
部品1
 48
0.01
100
AcDbCircle
 10
4696.085122947673
 20
7203.114771224997
 30
0.0
 40
0.5
100
AcDbArc
 50
180.0
 51
270.0
  0
LINE
  5
19956
330
747D
100
AcDbEntity
  8
部品1
 48
0.01
100
AcDbLine
 10
4696.085122947673
 20
7202.614771224997
 30
0.0
 11
4702.629278824956
 21
7202.614771224997
 31
0.0
  0
LINE
  5
19957
330
747D
100
AcDbEntity
  8
部品1
 48
0.01
100
AcDbLine
 10
4695.585122947672
 20
7204.114771224997
 30
0.0
 11
4695.585122947672
 21
7203.114771224997
 31
0.0
  0
ARC
  5
19958
330
747D
100
AcDbEntity
  8
部品1
100
AcDbCircle
 10
4702.629278824956
 20
7203.614771224997
 30
0.0
 40
1.0
100
AcDbArc
 50
270.0
 51
19.4712206344178
  0
LINE
  5
19959
330
747D
100
AcDbEntity
  8
細線
100
AcDbLine
 10
4741.08512294768
 20
7222.114771225
 30
0.0
 11
4700.08512294768
 21
7222.114771224993
 31
0.0
  0
LINE
  5
1995A
330
747D
100
AcDbEntity
  8
細線
100
AcDbLine
 10
4700.08512294768
 20
7222.114771224993
 30
0.0
 11
4700.08512294768
 21
7204.114771224976
 31
0.0
  0
LINE
  5
1995B
330
747D
100
AcDbEntity
  8
細線
100
AcDbLine
 10
4741.08512294768
 20
7222.114771225
 30
0.0
 11
4741.08512294768
 21
7204.114771224976
 31
0.0
  0
LINE
  5
1995C
330
747D
100
AcDbEntity
  8
細線
100
AcDbLine
 10
4584.585229546418
 20
7208.115701679401
 30
0.0
 11
4584.585229546418
 21
7204.115701679448
 31
0.0
  0
DIMENSION
  5
1995D
330
747D
100
AcDbEntity
  8
寸法
 48
50.0
100
AcDbDimension
  2
*D28
 10
5850.585229546418
 20
6587.032917470722
 30
0.0
 11
5232.074091073984
 21
6587.032917470722
 31
0.0
 70
   160
  1
有効開口部間口\P<>
 71
     5
 42
1266.0
  3
INABA_S40
100
AcDbAlignedDimension
 13
4584.585229546418
 23
7199.1157016794
 33
0.0
 14
5850.585229546418
 24
7199.1157016794
 34
0.0
100
AcDbRotatedDimension
1001
ACAD
1000
DSTYLE
1002
{
1070
    41
1040
0.5
1070
    44
1040
1.0
1070
   147
1040
0.8
1070
   271
1070
     2
1070
   272
1070
     2
1070
   289
1070
     3
1070
   340
1005
F706
1070
   343
1005
164B4
1070
   344
1005
164B4
1002
}
  0
LINE
  5
1995E
330
747D
100
AcDbEntity
  8
部品1
100
AcDbLine
 10
6672.585229546418
 20
7276.1157016794
 30
0.0
 11
6699.585229546419
 21
7276.1157016794
 31
0.0
  0
LINE
  5
19960
330
747D
100
AcDbEntity
  8
部品1
100
AcDbLine
 10
6699.585229546419
 20
7199.1157016794
 30
0.0
 11
6699.585229546419
 21
7276.1157016794
 31
0.0
  0
LINE
  5
19961
330
747D
100
AcDbEntity
  8
部品1
100
AcDbLine
 10
6660.585229546419
 20
7272.115701679401
 30
0.0
 11
6672.585229546418
 21
7272.115701679401
 31
0.0
  0
LINE
  5
19962
330
747D
100
AcDbEntity
  8
部品1
100
AcDbLine
 10
6669.585229546417
 20
7208.115701679401
 30
0.0
 11
6669.585229546417
 21
7199.1157016794
 31
0.0
  0
LINE
  5
19963
330
747D
100
AcDbEntity
  8
部品1
100
AcDbLine
 10
6660.585229546419
 20
7208.115701679401
 30
0.0
 11
6669.585229546417
 21
7208.115701679401
 31
0.0
  0
LINE
  5
19964
330
747D
100
AcDbEntity
  8
部品1
100
AcDbLine
 10
6660.585229546419
 20
7272.115701679401
 30
0.0
 11
6660.585229546419
 21
7208.115701679401
 31
0.0
  0
LINE
  5
19965
330
747D
100
AcDbEntity
  8
部品1
100
AcDbLine
 10
6672.585229546418
 20
7303.115701679401
 30
0.0
 11
6672.585229546418
 21
7272.115701679401
 31
0.0
  0
LINE
  5
19966
330
747D
100
AcDbEntity
  8
部品1
100
AcDbLine
 10
4584.585229546418
 20
7272.115701679401
 30
0.0
 11
4572.585229546418
 21
7272.115701679401
 31
0.0
  0
LINE
  5
19967
330
747D
100
AcDbEntity
  8
部品1
100
AcDbLine
 10
4545.585229546418
 20
7276.1157016794
 30
0.0
 11
4572.585229546417
 21
7276.1157016794
 31
0.0
  0
LINE
  5
19968
330
747D
100
AcDbEntity
  8
部品1
100
AcDbLine
 10
4575.585229546418
 20
7208.115701679401
 30
0.0
 11
4575.585229546418
 21
7199.1157016794
 31
0.0
  0
LINE
  5
19969
330
747D
100
AcDbEntity
  8
部品1
100
AcDbLine
 10
4584.585229546418
 20
7208.115701679401
 30
0.0
 11
4575.585229546418
 21
7208.115701679401
 31
0.0
  0
LINE
  5
1996A
330
747D
100
AcDbEntity
  8
部品1
100
AcDbLine
 10
4575.585229546418
 20
7199.1157016794
 30
0.0
 11
4545.585229546418
 21
7199.1157016794
 31
0.0
  0
LINE
  5
1996B
330
747D
100
AcDbEntity
  8
部品1
100
AcDbLine
 10
4545.585229546418
 20
7199.1157016794
 30
0.0
 11
4545.585229546418
 21
7276.1157016794
 31
0.0
  0
LINE
  5
1996C
330
747D
100
AcDbEntity
  8
部品1
100
AcDbLine
 10
4584.585229546418
 20
7272.115701679401
 30
0.0
 11
4584.585229546418
 21
7208.115701679401
 31
0.0
  0
LINE
  5
1996D
330
747D
100
AcDbEntity
  8
部品1
100
AcDbLine
 10
4572.585229546417
 20
7303.115701679397
 30
0.0
 11
4572.585229546418
 21
7272.115701679401
 31
0.0
  0
LINE
  5
1996E
330
747D
100
AcDbEntity
  8
部品1
100
AcDbLine
 10
4572.585229546417
 20
7303.115701679397
 30
0.0
 11
6672.585229546418
 21
7303.115701679401
 31
0.0
  0
LINE
  5
1996F
330
747D
100
AcDbEntity
  8
部品1
100
AcDbLine
 10
6669.585229546417
 20
7199.1157016794
 30
0.0
 11
6699.585229546419
 21
7199.1157016794
 31
0.0
  0
LINE
  5
19970
330
747D
100
AcDbEntity
  8
部品1
100
AcDbLine
 10
4575.585229546418
 20
7199.1157016794
 30
0.0
 11
6672.585229546418
 21
7199.1157016794
 31
0.0
  0
LINE
  5
19971
330
747D
100
AcDbEntity
  8
細線
  6
Continuous
 62
     5
100
AcDbLine
 10
5951.585229546422
 20
7238.115701679396
 30
0.0
 11
5951.585229546422
 21
7238.115701679396
 31
0.0
  0
LINE
  5
19972
330
747D
100
AcDbEntity
  8
細線
  6
Continuous
 62
     5
100
AcDbLine
 10
5944.085264865313
 20
7238.115711600454
 30
0.0
 11
5944.085264865313
 21
7238.115711600454
 31
0.0
  0
LINE
  5
19973
330
747D
100
AcDbEntity
  8
細線
  6
Continuous
 62
     5
100
AcDbLine
 10
5938.085264865314
 20
7238.115711600454
 30
0.0
 11
5938.085264865314
 21
7238.115711600454
 31
0.0
  0
LINE
  5
19974
330
747D
100
AcDbEntity
  8
細線
  6
Continuous
 62
     5
100
AcDbLine
 10
6005.585229546422
 20
7257.115701679397
 30
0.0
 11
6005.585229546422
 21
7257.115701679397
 31
0.0
  0
LINE
  5
19975
330
747D
100
AcDbEntity
  8
細線
 48
50.0
100
AcDbLine
 10
4598.585234200011
 20
7224.715875856354
 30
0.0
 11
4598.585234200011
 21
7233.112026263994
 31
0.0
  0
LINE
  5
19976
330
747D
100
AcDbEntity
  8
細線
 48
50.0
100
AcDbLine
 10
4598.585234200011
 20
7233.112026263994
 30
0.0
 11
4584.585229546418
 21
7233.112026263992
 31
0.0
  0
LINE
  5
19977
330
747D
100
AcDbEntity
  8
細線
 48
50.0
100
AcDbLine
 10
5349.585234200008
 20
7221.265875856353
 30
0.0
 11
5349.585234200008
 21
7226.115875856357
 31
0.0
  0
LINE
  5
19978
330
747D
100
AcDbEntity
  8
細線
 48
50.0
100
AcDbLine
 10
5349.585234200008
 20
7226.115875856357
 30
0.0
 11
5364.585234200008
 21
7226.115875856357
 31
0.0
  0
LINE
  5
19979
330
747D
100
AcDbEntity
  8
細線
 48
50.0
100
AcDbLine
 10
5364.585234200008
 20
7226.115875856357
 30
0.0
 11
5364.585234200012
 21
7233.115875856356
 31
0.0
  0
LINE
  5
1997A
330
747D
100
AcDbEntity
  8
細線
 48
50.0
100
AcDbLine
 10
5364.585234200012
 20
7233.115875856356
 30
0.0
 11
5379.585234200008
 21
7233.115875856356
 31
0.0
  0
LINE
  5
1997B
330
747D
100
AcDbEntity
  8
細線
 48
50.0
100
AcDbLine
 10
5379.585234200008
 20
7233.115875856356
 30
0.0
 11
5379.585234200008
 21
7204.115875856357
 31
0.0
  0
LINE
  5
1997C
330
747D
100
AcDbEntity
  8
細線
 48
50.0
100
AcDbLine
 10
4575.585229546418
 20
7204.113210199825
 30
0.0
 11
4789.585234200008
 21
7204.115893410069
 31
0.0
  0
LINE
  5
1997D
330
747D
100
AcDbEntity
  8
細線
 48
50.0
100
AcDbLine
 10
5279.585234200008
 20
7204.115875856357
 30
0.0
 11
5379.585234200008
 21
7204.115875856357
 31
0.0
  0
LINE
  5
1997E
330
747D
100
AcDbEntity
  8
細線
 48
50.0
100
AcDbLine
 10
4999.585234200008
 20
7204.115875856357
 30
0.0
 11
5069.585234200008
 21
7204.115875856357
 31
0.0
  0
LINE
  5
1997F
330
747D
100
AcDbEntity
  8
細線
 48
50.0
100
AcDbLine
 10
5012.447199212537
 20
7204.115875856357
 30
0.0
 11
5018.202716795205
 21
7222.386727146851
 31
0.0
  0
LINE
  5
19980
330
747D
100
AcDbEntity
  8
細線
 48
50.0
100
AcDbLine
 10
5018.202716795205
 20
7222.386727146851
 30
0.0
 11
5029.131165275638
 21
7222.386727146846
 31
0.0
  0
ARC
  5
19981
330
747D
100
AcDbEntity
  8
細線
 48
50.0
100
AcDbCircle
 10
5029.131165275638
 20
7221.386727146846
 30
0.0
 40
1.0
100
AcDbArc
 50
24.62431835212777
 51
90.0
  0
ARC
  5
19982
330
747D
100
AcDbEntity
  8
細線
 48
50.0
100
AcDbCircle
 10
5040.039877390271
 20
7221.386727146846
 30
0.0
 40
1.0
100
AcDbArc
 50
90.0
 51
155.3756816478722
  0
ARC
  5
19983
330
747D
100
AcDbEntity
  8
細線
 48
50.0
100
AcDbCircle
 10
5034.585521332953
 20
7223.886727146846
 30
0.0
 40
5.0
100
AcDbArc
 50
204.6243183521277
 51
335.3756816478722
  0
LINE
  5
19984
330
747D
100
AcDbEntity
  8
細線
 48
50.0
100
AcDbLine
 10
5040.039877390271
 20
7222.386727146846
 30
0.0
 11
5050.968325870705
 21
7222.386727146851
 31
0.0
  0
LINE
  5
19985
330
747D
100
AcDbEntity
  8
細線
 48
50.0
100
AcDbLine
 10
5050.968325870705
 20
7222.386727146851
 30
0.0
 11
5056.723843453372
 21
7204.115875856357
 31
0.0
  0
LINE
  5
19986
330
747D
100
AcDbEntity
  8
細線
 48
50.0
100
AcDbLine
 10
5349.585234200008
 20
7224.715875856354
 30
0.0
 11
4598.585234200011
 21
7224.715875856354
 31
0.0
  0
LINE
  5
19987
330
747D
100
AcDbEntity
  8
細線
 48
50.0
100
AcDbLine
 10
5209.585234200008
 20
7204.115875856357
 30
0.0
 11
5139.585234200009
 21
7204.115875856357
 31
0.0
  0
LINE
  5
19988
330
747D
100
AcDbEntity
  8
細線
100
AcDbLine
 10
4929.585234200008
 20
7204.115875856357
 30
0.0
 11
4859.585242385424
 21
7204.115875856357
 31
0.0
  0
LINE
  5
19989
330
747D
100
AcDbEntity
  8
細線
 48
50.0
100
AcDbLine
 10
6003.585224892832
 20
7258.715919714223
 30
0.0
 11
5368.585234200008
 21
7258.715919714219
 31
0.0
  0
LINE
  5
1998A
330
747D
100
AcDbEntity
  8
細線
 48
50.0
100
AcDbLine
 10
5368.585234200008
 20
7255.612070121863
 30
0.0
 11
5368.585234200008
 21
7260.112070121862
 31
0.0
  0
LINE
  5
1998B
330
747D
100
AcDbEntity
  8
細線
 48
50.0
100
AcDbLine
 10
5368.585234200008
 20
7260.112070121862
 30
0.0
 11
5353.585234200008
 21
7260.112070121862
 31
0.0
  0
LINE
  5
1998C
330
747D
100
AcDbEntity
  8
細線
 48
50.0
100
AcDbLine
 10
5353.585234200008
 20
7260.112070121862
 30
0.0
 11
5353.585234200008
 21
7267.112070121862
 31
0.0
  0
LINE
  5
1998D
330
747D
100
AcDbEntity
  8
細線
 48
50.0
100
AcDbLine
 10
5353.585234200008
 20
7267.112070121862
 30
0.0
 11
5338.585234200012
 21
7267.112070121858
 31
0.0
  0
LINE
  5
1998E
330
747D
100
AcDbEntity
  8
細線
 48
50.0
100
AcDbLine
 10
5338.585234200012
 20
7267.112070121858
 30
0.0
 11
5338.585234200012
 21
7229.511842018748
 31
0.0
  0
LINE
  5
1998F
330
747D
100
AcDbEntity
  8
細線
 48
50.0
100
AcDbLine
 10
5338.585234200012
 20
7229.511842018748
 30
0.0
 11
5358.585241501184
 21
7229.51188356829
 31
0.0
  0
LINE
  5
19990
330
747D
100
AcDbEntity
  8
細線
 48
50.0
100
AcDbLine
 10
5358.585196632241
 20
7238.115345204097
 30
0.0
 11
5358.585241501184
 21
7229.51188356829
 31
0.0
  0
LINE
  5
19991
330
747D
100
AcDbEntity
  8
細線
 48
50.0
100
AcDbLine
 10
6003.585224892832
 20
7255.265919714222
 30
0.0
 11
6003.585224892832
 21
7260.115919714221
 31
0.0
  0
LINE
  5
19992
330
747D
100
AcDbEntity
  8
細線
 48
50.0
100
AcDbLine
 10
6003.585224892832
 20
7260.115919714221
 30
0.0
 11
6018.585224892828
 21
7260.115919714221
 31
0.0
  0
LINE
  5
19993
330
747D
100
AcDbEntity
  8
細線
 48
50.0
100
AcDbLine
 10
6018.585224892828
 20
7260.115919714221
 30
0.0
 11
6018.585236526805
 21
7267.115919714264
 31
0.0
  0
LINE
  5
19994
330
747D
100
AcDbEntity
  8
細線
 48
50.0
100
AcDbLine
 10
6018.585236526805
 20
7267.115919714264
 30
0.0
 11
6033.585234697334
 21
7267.115919714264
 31
0.0
  0
LINE
  5
19995
330
747D
100
AcDbEntity
  8
細線
 48
50.0
100
AcDbLine
 10
6033.585234697334
 20
7267.115919714264
 30
0.0
 11
6033.585224395513
 21
7238.115713541991
 31
0.0
  0
LINE
  5
19996
330
747D
100
AcDbEntity
  8
細線
 48
50.0
100
AcDbLine
 10
5721.085252026297
 20
7238.115721729356
 30
0.0
 11
5651.085504108714
 21
7238.115716292019
 31
0.0
  0
LINE
  5
19997
330
747D
100
AcDbEntity
  8
細線
 48
50.0
100
AcDbLine
 10
5358.585196632241
 20
7238.115345204097
 30
0.0
 11
5369.817885986952
 21
7238.115528157244
 31
0.0
  0
ARC
  5
19998
330
747D
100
AcDbEntity
  8
細線
 48
50.0
100
AcDbCircle
 10
5376.400178294288
 20
7236.915692070858
 30
0.0
 40
1.8
100
AcDbArc
 50
270.0006665777295
 51
345.0005554812987
  0
LINE
  5
19999
330
747D
100
AcDbEntity
  8
細線
 48
50.0
100
AcDbLine
 10
5378.386611740367
 20
7237.374532528136
 30
0.0
 11
5378.138849298169
 21
7236.449834646029
 31
0.0
  0
LINE
  5
1999A
330
747D
100
AcDbEntity
  8
細線
 48
50.0
100
AcDbLine
 10
5376.400199235444
 20
7235.115692070978
 30
0.0
 11
5372.770271816674
 21
7235.115649840498
 31
0.0
  0
ARC
  5
1999B
330
747D
100
AcDbEntity
  8
細線
 48
50.0
100
AcDbCircle
 10
5372.770250875522
 20
7236.915649840376
 30
0.0
 40
1.8
100
AcDbArc
 50
195.0010443049445
 51
270.0006665777295
  0
LINE
  5
1999C
330
747D
100
AcDbEntity
  8
細線
 48
50.0
100
AcDbLine
 10
5370.783823383264
 20
7237.374364807941
 30
0.0
 11
5371.031592879776
 21
7236.449743869361
 31
0.0
  0
ARC
  5
1999D
330
747D
100
AcDbEntity
  8
細線
 48
50.0
100
AcDbCircle
 10
5369.817902274514
 20
7237.115528157379
 30
0.0
 40
1.0
100
AcDbArc
 50
15.00104430494449
 51
90.00093320877969
  0
LINE
  5
1999E
330
747D
100
AcDbEntity
  8
細線
 48
50.0
100
AcDbLine
 10
5379.35253309547
 20
7238.115722847649
 30
0.0
 11
5380.294293246375
 21
7238.115729421498
 31
0.0
  0
ARC
  5
1999F
330
747D
100
AcDbEntity
  8
細線
 48
50.0
100
AcDbCircle
 10
5379.352540075856
 20
7237.115722847675
 30
0.0
 40
1.0
100
AcDbArc
 50
90.0003999466794
 51
165.0005554812987
  0
LINE
  5
199A0
330
747D
100
AcDbEntity
  8
細線
 48
50.0
100
AcDbLine
 10
5931.085224892822
 20
7238.115713541991
 30
0.0
 11
6033.585224395513
 21
7238.115713541991
 31
0.0
  0
LINE
  5
199A1
330
747D
100
AcDbEntity
  8
細線
 48
50.0
100
AcDbLine
 10
5441.085260211713
 20
7238.115721729356
 30
0.0
 11
5379.985198984793
 21
7238.115729421498
 31
0.0
  0
LINE
  5
199A2
330
747D
100
AcDbEntity
  8
細線
 48
50.0
100
AcDbLine
 10
5861.085260211712
 20
7238.11575857044
 30
0.0
 11
5791.085253257327
 21
7238.115713547772
 31
0.0
  0
LINE
  5
199A3
330
747D
100
AcDbEntity
  8
細線
 48
50.0
100
AcDbLine
 10
5581.085224892821
 20
7238.115713541986
 30
0.0
 11
5511.085207604946
 21
7238.115713541994
 31
0.0
  0
ARC
  5
199A4
330
747D
100
AcDbEntity
  8
細線
 48
50.0
100
AcDbCircle
 10
6017.785229546429
 20
7271.315701679402
 30
0.0
 40
0.8
100
AcDbArc
 50
359.9997333689499
 51
89.99986668437072
  0
ARC
  5
199A5
330
747D
100
AcDbEntity
  8
細線
 48
50.0
100
AcDbCircle
 10
6025.385236371524
 20
7271.315712848018
 30
0.0
 40
0.8
100
AcDbArc
 50
90.00014387753465
 51
179.9997333689498
  0
LINE
  5
199A6
330
747D
100
AcDbEntity
  8
細線
 48
50.0
100
AcDbLine
 10
6017.785231407863
 20
7272.115701679401
 30
0.0
 11
6012.585229546418
 21
7272.115701679401
 31
0.0
  0
ARC
  5
199A7
330
747D
100
AcDbEntity
  8
細線
 48
50.0
100
AcDbCircle
 10
6019.285229546419
 20
7269.815701679402
 30
0.0
 40
0.7
100
AcDbArc
 50
180.0
 51
270.0
  0
ARC
  5
199A8
330
747D
100
AcDbEntity
  8
細線
 48
50.0
100
AcDbCircle
 10
6023.885229546421
 20
7269.815701679402
 30
0.0
 40
0.7
100
AcDbArc
 50
270.0
 51
0.0
  0
LINE
  5
199A9
330
747D
100
AcDbEntity
  8
細線
 48
50.0
100
AcDbLine
 10
6024.585229546418
 20
7269.815701679402
 30
0.0
 11
6024.585236371535
 21
7271.315716570889
 31
0.0
  0
LINE
  5
199AA
330
747D
100
AcDbEntity
  8
細線
 48
50.0
100
AcDbLine
 10
6019.285229546419
 20
7269.115701679401
 30
0.0
 11
6023.885229546421
 21
7269.115701679401
 31
0.0
  0
LINE
  5
199AB
330
747D
100
AcDbEntity
  8
細線
 48
50.0
100
AcDbLine
 10
6018.585229546419
 20
7271.315701679402
 30
0.0
 11
6018.585229546419
 21
7269.815701679402
 31
0.0
  0
LINE
  5
199AC
330
747D
100
AcDbEntity
  8
細線
 48
50.0
100
AcDbLine
 10
6644.185229546424
 20
7302.115701679401
 30
0.0
 11
6007.585229546418
 21
7302.115701679396
 31
0.0
  0
LINE
  5
199AD
330
747D
100
AcDbEntity
  8
細線
 48
50.0
100
AcDbLine
 10
6670.085229546419
 20
7297.115701679404
 30
0.0
 11
6654.185229546424
 21
7297.115701679401
 31
0.0
  0
LINE
  5
199AE
330
747D
100
AcDbEntity
  8
細線
 48
50.0
100
AcDbLine
 10
6654.18522954642
 20
7297.115701679401
 30
0.0
 11
6644.185229546424
 21
7302.115701679401
 31
0.0
  0
LINE
  5
199AF
330
747D
100
AcDbEntity
  8
細線
100
AcDbLine
 10
6255.08522954642
 20
7272.115701679401
 30
0.0
 11
6255.08522954642
 21
7301.4157016794
 31
0.0
  0
LINE
  5
199B0
330
747D
100
AcDbEntity
  8
細線
100
AcDbLine
 10
6255.08522954642
 20
7301.4157016794
 30
0.0
 11
6275.085229546419
 21
7301.4157016794
 31
0.0
  0
LINE
  5
199B1
330
747D
100
AcDbEntity
  8
細線
100
AcDbLine
 10
6275.085229546419
 20
7272.115701679401
 30
0.0
 11
6275.085229546419
 21
7301.4157016794
 31
0.0
  0
LINE
  5
199B2
330
747D
100
AcDbEntity
  8
細線
100
AcDbLine
 10
6436.335229546419
 20
7272.115701679401
 30
0.0
 11
6366.335229546419
 21
7272.115701679401
 31
0.0
  0
LINE
  5
199B3
330
747D
100
AcDbEntity
  8
細線
 48
50.0
100
AcDbLine
 10
6156.335229546418
 20
7272.115701679401
 30
0.0
 11
6025.381009119262
 21
7272.115701679401
 31
0.0
  0
LINE
  5
199B4
330
747D
100
AcDbEntity
  8
細線
100
AcDbLine
 10
6296.335229546419
 20
7272.115701679401
 30
0.0
 11
6226.335229546419
 21
7272.115701679401
 31
0.0
  0
LINE
  5
199B5
330
747D
100
AcDbEntity
  8
細線
 48
50.0
100
AcDbLine
 10
6012.585229546418
 20
7264.115701679401
 30
0.0
 11
6012.585229546418
 21
7272.115701679401
 31
0.0
  0
LINE
  5
199B6
330
747D
100
AcDbEntity
  8
細線
 48
50.0
100
AcDbLine
 10
5992.585229546418
 20
7264.115701679404
 30
0.0
 11
6012.585229546418
 21
7264.115701679401
 31
0.0
  0
LINE
  5
199B7
330
747D
100
AcDbEntity
  8
細線
 48
50.0
100
AcDbLine
 10
6007.585229546418
 20
7302.115701679401
 30
0.0
 11
6007.585229546418
 21
7297.115701679401
 31
0.0
  0
LINE
  5
199B8
330
747D
100
AcDbEntity
  8
細線
 48
50.0
100
AcDbLine
 10
5992.585229546418
 20
7302.115701679396
 30
0.0
 11
6007.585229546418
 21
7302.115701679401
 31
0.0
  0
LINE
  5
199B9
330
747D
100
AcDbEntity
  8
細線
 48
50.0
100
AcDbLine
 10
5992.585229546418
 20
7264.115701679404
 30
0.0
 11
5992.585229546418
 21
7302.115701679396
 31
0.0
  0
LINE
  5
199BA
330
747D
100
AcDbEntity
  8
細線
100
AcDbLine
 10
6660.585229546419
 20
7272.115701679401
 30
0.0
 11
6506.33522954642
 21
7272.115701679401
 31
0.0
  0
LINE
  5
199BB
330
747D
100
AcDbEntity
  8
細線
 48
50.0
100
AcDbLine
 10
6670.085229546419
 20
7297.115701679404
 30
0.0
 11
6670.085229546419
 21
7272.115701679401
 31
0.0
  0
LINE
  5
199FF
330
747D
100
AcDbEntity
  8
部品1
100
AcDbLine
 10
6672.58522954645
 20
7276.115701679531
 30
0.0
 11
6672.58522954645
 21
7304.115701679531
 31
0.0
  0
DIMENSION
  5
19C2A
330
747D
100
AcDbEntity
  8
寸法
 48
50.0
100
AcDbDimension
  2
*D29
 10
6699.585229546418
 20
6278.985986251669
 30
0.0
 11
5644.717986293731
 21
6278.985986251669
 31
0.0
 70
   160
 71
     5
 42
2154.0
  3
INABA_S40G
100
AcDbAlignedDimension
 13
4545.585229546417
 23
7199.115701679438
 33
0.0
 14
6699.585229546418
 24
7199.115701679438
 34
0.0
100
AcDbRotatedDimension
1001
ACAD
1000
DSTYLE
1002
{
1070
   341
1005
0
1002
}
  0
DIMENSION
  5
19C2B
330
747D
100
AcDbEntity
  8
寸法
100
AcDbDimension
  2
*D30
 10
4336.971261871712
 20
7201.115701679404
 30
0.0
 11
4336.971261871709
 21
7054.94392773172
 31
0.0
 70
   160
 71
     5
 42
75.00000000003274
  3
INABA_S40
100
AcDbAlignedDimension
 13
4545.585229546417
 23
7276.115701679437
 33
0.0
 14
4545.585229546415
 24
7201.115701679404
 34
0.0
 50
90.0
100
AcDbRotatedDimension
1001
ACAD
1000
DSTYLE
1002
{
1070
    41
1040
0.5
1070
    44
1040
1.0
1070
   147
1040
0.8
1070
   271
1070
     2
1070
   272
1070
     2
1070
   289
1070
     3
1070
   340
1005
F706
1070
   343
1005
164B4
1070
   344
1005
164B4
1002
}
  0
TEXT
  5
19CDF
330
747D
100
AcDbEntity
  8
部品1
100
AcDbText
 10
5120.769506261286
 20
5523.19370259169
 30
0.0
 40
135.0
  1
平面図
  7
STYLE2
100
AcDbText
  0
LWPOLYLINE
  5
19CE0
330
747D
100
AcDbEntity
  8
部品1
100
AcDbPolyline
 90
        4
 70
     1
 43
0.0
 10
5030.849896432244
 20
5716.087231810213
 10
5030.849896432244
 20
5476.194910264681
 10
5794.320562660685
 20
5476.194910264681
 10
5794.320562660685
 20
5716.087231810213
  0
DIMENSION
  5
19D41
330
747D
100
AcDbEntity
  8
寸法
100
AcDbDimension
  2
*D31
 10
7147.585229546425
 20
5971.789306733203
 30
0.0
 11
5478.921981555774
 21
5971.789306733203
 31
0.0
 70
   160
 71
     5
 42
3469.999999999982
  3
INABA_S40G
100
AcDbAlignedDimension
 13
3677.585229546443
 23
7276.115701679405
 33
0.0
 14
7147.585229546425
 24
7276.115701679531
 34
0.0
100
AcDbRotatedDimension
1001
ACAD
1000
DSTYLE
1002
{
1070
   341
1005
0
1002
}
  0
LINE
  5
1A482
330
747D
100
AcDbEntity
  8
細線
100
AcDbLine
 10
4572.585229546443
 20
4031.678294807153
 30
0.0
 11
4572.585229546443
 21
4008.678294807152
 31
0.0
  0
LINE
  5
1A483
330
747D
100
AcDbEntity
  8
細線
100
AcDbLine
 10
4646.585229546443
 20
4019.678294807152
 30
0.0
 11
4572.585229546443
 21
4019.678294807152
 31
0.0
  0
LINE
  5
1A484
330
747D
100
AcDbEntity
  8
細線
100
AcDbLine
 10
4646.585229546443
 20
4013.678294807152
 30
0.0
 11
4572.585229546443
 21
4013.678294807152
 31
0.0
  0
LINE
  5
1A485
330
747D
100
AcDbEntity
  8
細線
100
AcDbLine
 10
4646.585229546443
 20
4025.678294807153
 30
0.0
 11
4572.585229546443
 21
4025.678294807153
 31
0.0
  0
LINE
  5
1A486
330
747D
100
AcDbEntity
  8
細線
100
AcDbLine
 10
4498.585229546443
 20
4025.678294807153
 30
0.0
 11
4567.585229546443
 21
4025.678294807153
 31
0.0
  0
LINE
  5
1A487
330
747D
100
AcDbEntity
  8
細線
100
AcDbLine
 10
4498.585229546443
 20
4013.678294807152
 30
0.0
 11
4572.585229546443
 21
4013.678294807152
 31
0.0
  0
LINE
  5
1A488
330
747D
100
AcDbEntity
  8
細線
100
AcDbLine
 10
4498.585229546443
 20
4019.678294807152
 30
0.0
 11
4572.585229546443
 21
4019.678294807152
 31
0.0
  0
LINE
  5
1A489
330
747D
100
AcDbEntity
  8
細線
100
AcDbLine
 10
4498.585229546443
 20
4025.678294807153
 30
0.0
 11
4572.585229546443
 21
4025.678294807153
 31
0.0
  0
LINE
  5
1A48A
330
747D
100
AcDbEntity
  8
部品1
 48
0.01
100
AcDbLine
 10
4660.585229546443
 20
4038.178294807152
 30
0.0
 11
4484.585229546443
 21
4038.178294807152
 31
0.0
  0
LINE
  5
1A48B
330
747D
100
AcDbEntity
  8
部品1
 48
0.01
100
AcDbLine
 10
4482.585229546443
 20
4036.178294807152
 30
0.0
 11
4482.585229546443
 21
4004.678294807152
 31
0.0
  0
LINE
  5
1A48C
330
747D
100
AcDbEntity
  8
部品1
 48
0.01
100
AcDbLine
 10
4484.585229546443
 20
4002.678294807152
 30
0.0
 11
4660.585229546443
 21
4002.678294807152
 31
0.0
  0
LINE
  5
1A48D
330
747D
100
AcDbEntity
  8
部品1
 48
0.01
100
AcDbLine
 10
4662.585229546443
 20
4004.678294807152
 30
0.0
 11
4662.585229546443
 21
4036.178294807152
 31
0.0
  0
LINE
  5
1A48E
330
747D
100
AcDbEntity
  8
細線
100
AcDbLine
 10
4498.585229546443
 20
4031.678294807153
 30
0.0
 11
4498.585229546443
 21
4008.678294807152
 31
0.0
  0
LINE
  5
1A48F
330
747D
100
AcDbEntity
  8
細線
100
AcDbLine
 10
4646.585229546443
 20
4008.678294807152
 30
0.0
 11
4646.585229546443
 21
4031.678294807153
 31
0.0
  0
LINE
  5
1A490
330
747D
100
AcDbEntity
  8
細線
100
AcDbLine
 10
4646.585229546443
 20
4031.678294807153
 30
0.0
 11
4572.585229546443
 21
4031.678294807153
 31
0.0
  0
LINE
  5
1A491
330
747D
100
AcDbEntity
  8
細線
100
AcDbLine
 10
4498.585229546443
 20
4008.678294807152
 30
0.0
 11
4572.585229546443
 21
4008.678294807152
 31
0.0
  0
LINE
  5
1A492
330
747D
100
AcDbEntity
  8
細線
100
AcDbLine
 10
4572.585229546443
 20
4031.678294807153
 30
0.0
 11
4498.585229546443
 21
4031.678294807153
 31
0.0
  0
LINE
  5
1A493
330
747D
100
AcDbEntity
  8
細線
100
AcDbLine
 10
4572.585229546443
 20
4008.678294807152
 30
0.0
 11
4646.585229546443
 21
4008.678294807152
 31
0.0
  0
ARC
  5
1A494
330
747D
100
AcDbEntity
  8
部品1
 48
0.01
100
AcDbCircle
 10
4484.585229546443
 20
4036.178294807152
 30
0.0
 40
2.0
100
AcDbArc
 50
90.0
 51
180.0
  0
ARC
  5
1A495
330
747D
100
AcDbEntity
  8
部品1
 48
0.01
100
AcDbCircle
 10
4484.585229546443
 20
4004.678294807152
 30
0.0
 40
2.0
100
AcDbArc
 50
180.0
 51
270.0
  0
ARC
  5
1A496
330
747D
100
AcDbEntity
  8
部品1
 48
0.01
100
AcDbCircle
 10
4660.585229546443
 20
4036.178294807152
 30
0.0
 40
2.0
100
AcDbArc
 50
0.0
 51
90.0
  0
ARC
  5
1A497
330
747D
100
AcDbEntity
  8
部品1
 48
0.01
100
AcDbCircle
 10
4660.585229546443
 20
4004.678294807152
 30
0.0
 40
2.0
100
AcDbArc
 50
270.0
 51
0.0
  0
ARC
  5
1A498
330
747D
100
AcDbEntity
  8
部品1
 48
0.01
100
AcDbCircle
 10
6164.585229546442
 20
4004.678294807152
 30
0.0
 40
2.0
100
AcDbArc
 50
180.0
 51
270.0
  0
ARC
  5
1A499
330
747D
100
AcDbEntity
  8
部品1
 48
0.01
100
AcDbCircle
 10
6164.585229546442
 20
4036.178294807152
 30
0.0
 40
2.0
100
AcDbArc
 50
90.0
 51
180.0
  0
ARC
  5
1A49A
330
747D
100
AcDbEntity
  8
部品1
 48
0.01
100
AcDbCircle
 10
6340.585229546443
 20
4004.678294807152
 30
0.0
 40
2.0
100
AcDbArc
 50
270.0
 51
0.0
  0
ARC
  5
1A49B
330
747D
100
AcDbEntity
  8
部品1
 48
0.01
100
AcDbCircle
 10
6340.585229546443
 20
4036.178294807152
 30
0.0
 40
2.0
100
AcDbArc
 50
0.0
 51
90.0
  0
LINE
  5
1A49C
330
747D
100
AcDbEntity
  8
細線
100
AcDbLine
 10
6252.585229546443
 20
4008.678294807152
 30
0.0
 11
6178.585229546443
 21
4008.678294807152
 31
0.0
  0
LINE
  5
1A49D
330
747D
100
AcDbEntity
  8
細線
100
AcDbLine
 10
6252.585229546443
 20
4031.678294807153
 30
0.0
 11
6326.585229546442
 21
4031.678294807153
 31
0.0
  0
LINE
  5
1A49E
330
747D
100
AcDbEntity
  8
細線
100
AcDbLine
 10
6326.585229546442
 20
4008.678294807152
 30
0.0
 11
6252.585229546443
 21
4008.678294807152
 31
0.0
  0
LINE
  5
1A49F
330
747D
100
AcDbEntity
  8
細線
100
AcDbLine
 10
6178.585229546443
 20
4031.678294807153
 30
0.0
 11
6252.585229546443
 21
4031.678294807153
 31
0.0
  0
LINE
  5
1A4A0
330
747D
100
AcDbEntity
  8
細線
100
AcDbLine
 10
6178.585229546443
 20
4008.678294807152
 30
0.0
 11
6178.585229546443
 21
4031.678294807153
 31
0.0
  0
LINE
  5
1A4A1
330
747D
100
AcDbEntity
  8
細線
100
AcDbLine
 10
6326.585229546442
 20
4031.678294807153
 30
0.0
 11
6326.585229546442
 21
4008.678294807152
 31
0.0
  0
LINE
  5
1A4A2
330
747D
100
AcDbEntity
  8
部品1
 48
0.01
100
AcDbLine
 10
6162.585229546444
 20
4004.678294807152
 30
0.0
 11
6162.585229546444
 21
4036.178294807152
 31
0.0
  0
LINE
  5
1A4A3
330
747D
100
AcDbEntity
  8
部品1
 48
0.01
100
AcDbLine
 10
6340.585229546443
 20
4002.678294807152
 30
0.0
 11
6164.585229546442
 21
4002.678294807152
 31
0.0
  0
LINE
  5
1A4A4
330
747D
100
AcDbEntity
  8
部品1
 48
0.01
100
AcDbLine
 10
6342.585229546443
 20
4036.178294807152
 30
0.0
 11
6342.585229546443
 21
4004.678294807152
 31
0.0
  0
LINE
  5
1A4A5
330
747D
100
AcDbEntity
  8
部品1
 48
0.01
100
AcDbLine
 10
6164.585229546442
 20
4038.178294807152
 30
0.0
 11
6340.585229546443
 21
4038.178294807152
 31
0.0
  0
LINE
  5
1A4A6
330
747D
100
AcDbEntity
  8
細線
100
AcDbLine
 10
6326.585229546442
 20
4025.678294807153
 30
0.0
 11
6252.585229546443
 21
4025.678294807153
 31
0.0
  0
LINE
  5
1A4A7
330
747D
100
AcDbEntity
  8
細線
100
AcDbLine
 10
6326.585229546442
 20
4019.678294807152
 30
0.0
 11
6252.585229546443
 21
4019.678294807152
 31
0.0
  0
LINE
  5
1A4A8
330
747D
100
AcDbEntity
  8
細線
100
AcDbLine
 10
6326.585229546442
 20
4013.678294807152
 30
0.0
 11
6252.585229546443
 21
4013.678294807152
 31
0.0
  0
LINE
  5
1A4A9
330
747D
100
AcDbEntity
  8
細線
100
AcDbLine
 10
6326.585229546442
 20
4025.678294807153
 30
0.0
 11
6257.585229546442
 21
4025.678294807153
 31
0.0
  0
LINE
  5
1A4AA
330
747D
100
AcDbEntity
  8
細線
100
AcDbLine
 10
6178.585229546443
 20
4025.678294807153
 30
0.0
 11
6252.585229546443
 21
4025.678294807153
 31
0.0
  0
LINE
  5
1A4AB
330
747D
100
AcDbEntity
  8
細線
100
AcDbLine
 10
6178.585229546443
 20
4013.678294807152
 30
0.0
 11
6252.585229546443
 21
4013.678294807152
 31
0.0
  0
LINE
  5
1A4AC
330
747D
100
AcDbEntity
  8
細線
100
AcDbLine
 10
6178.585229546443
 20
4019.678294807152
 30
0.0
 11
6252.585229546443
 21
4019.678294807152
 31
0.0
  0
LINE
  5
1A4AD
330
747D
100
AcDbEntity
  8
細線
100
AcDbLine
 10
6252.585229546443
 20
4031.678294807153
 30
0.0
 11
6252.585229546443
 21
4008.678294807152
 31
0.0
  0
LINE
  5
1A4B1
330
747D
100
AcDbEntity
  8
部品1
100
AcDbLine
 10
6699.585229546443
 20
2182.178294807172
 30
0.0
 11
7147.585229546443
 21
2182.178294807174
 31
0.0
  0
LINE
  5
1A4B2
330
747D
100
AcDbEntity
  8
部品1
 48
50.0
100
AcDbLine
 10
5373.585229546443
 20
3915.178294807154
 30
0.0
 11
5373.585229546443
 21
2182.178294807154
 31
0.0
  0
LINE
  5
1A4B3
330
747D
100
AcDbEntity
  8
部品1
 48
50.0
100
AcDbLine
 10
6699.585229546443
 20
2032.178294807154
 30
0.0
 11
6699.585229546443
 21
3967.178294807155
 31
0.0
  0
LINE
  5
1A4B4
330
747D
100
AcDbEntity
  8
細線
 48
50.0
100
AcDbLine
 10
6669.585229546443
 20
2132.178294807154
 30
0.0
 11
6669.585229546443
 21
3924.678294807154
 31
0.0
  0
LINE
  5
1A4B5
330
747D
100
AcDbEntity
  8
部品1
 48
50.0
100
AcDbLine
 10
6660.585229546443
 20
2179.178294807154
 30
0.0
 11
6660.585229546443
 21
3915.178294807154
 31
0.0
  0
LINE
  5
1A4B6
330
747D
100
AcDbEntity
  8
部品1
 48
50.0
100
AcDbLine
 10
4545.585229546443
 20
3967.178294807155
 30
0.0
 11
4545.585229546443
 21
2032.178294807154
 31
0.0
  0
LINE
  5
1A4B7
330
747D
100
AcDbEntity
  8
細線
 48
50.0
100
AcDbLine
 10
4575.585229546443
 20
3924.678294807154
 30
0.0
 11
4575.585229546443
 21
2132.178294807154
 31
0.0
  0
LINE
  5
1A4B8
330
747D
100
AcDbEntity
  8
部品1
 48
50.0
100
AcDbLine
 10
4575.585229546443
 20
2182.178294807154
 30
0.0
 11
4575.585229546443
 21
3915.178294807154
 31
0.0
  0
LINE
  5
1A4B9
330
747D
100
AcDbEntity
  8
細線
 48
50.0
100
AcDbLine
 10
5373.585229546443
 20
2189.678294807154
 30
0.0
 11
6643.585229546443
 21
2189.678294807154
 31
0.0
  0
LINE
  5
1A4BA
330
747D
100
AcDbEntity
  8
細線
 48
50.0
100
AcDbLine
 10
4575.585229546443
 20
2179.178294807154
 30
0.0
 11
6669.585229546443
 21
2179.178294807154
 31
0.0
  0
LINE
  5
1A4BB
330
747D
100
AcDbEntity
  8
細線
 48
50.0
100
AcDbLine
 10
4575.585229546443
 20
2175.178294807154
 30
0.0
 11
6669.585229546443
 21
2175.178294807154
 31
0.0
  0
LINE
  5
1A4BC
330
747D
100
AcDbEntity
  8
部品1
 48
50.0
100
AcDbLine
 10
4545.585229546443
 20
2132.178294807154
 30
0.0
 11
6699.585229546443
 21
2132.178294807154
 31
0.0
  0
LINE
  5
1A4BD
330
747D
100
AcDbEntity
  8
部品1
 48
50.0
100
AcDbLine
 10
4575.585229546443
 20
2182.178294807154
 30
0.0
 11
5373.585229546443
 21
2182.178294807154
 31
0.0
  0
LINE
  5
1A4BE
330
747D
100
AcDbEntity
  8
部品1
 48
50.0
100
AcDbLine
 10
4584.585229546443
 20
2182.178294807154
 30
0.0
 11
4584.585229546443
 21
2179.178294807154
 31
0.0
  0
LINE
  5
1A4BF
330
747D
100
AcDbEntity
  8
細線
 48
50.0
100
AcDbLine
 10
6647.585229546443
 20
2179.178294807154
 30
0.0
 11
6643.585229546443
 21
2189.678294807154
 31
0.0
  0
LINE
  5
1A4C0
330
747D
100
AcDbEntity
  8
細線
 48
50.0
100
AcDbLine
 10
6669.585229546443
 20
3924.678294807154
 30
0.0
 11
4575.585229546443
 21
3924.678294807154
 31
0.0
  0
LINE
  5
1A4C1
330
747D
100
AcDbEntity
  8
細線
 48
50.0
100
AcDbLine
 10
6669.585229546443
 20
3915.178294807154
 30
0.0
 11
4575.585229546443
 21
3915.178294807154
 31
0.0
  0
LINE
  5
1A4C2
330
747D
100
AcDbEntity
  8
細線
 48
50.0
100
AcDbLine
 10
6699.585229546443
 20
3957.178294807155
 30
0.0
 11
4545.585229546443
 21
3957.178294807155
 31
0.0
  0
LINE
  5
1A4C3
330
747D
100
AcDbEntity
  8
部品1
 48
50.0
100
AcDbLine
 10
6699.585229546443
 20
3967.178294807155
 30
0.0
 11
4545.585229546443
 21
3967.178294807155
 31
0.0
  0
LINE
  5
1A4C4
330
747D
100
AcDbEntity
  8
部品1
 48
50.0
100
AcDbLine
 10
4572.585229546443
 20
3967.178294807155
 30
0.0
 11
4572.585229546443
 21
3972.178294807154
 31
0.0
  0
LINE
  5
1A4C5
330
747D
100
AcDbEntity
  8
部品1
 48
50.0
100
AcDbLine
 10
4575.585229546443
 20
3923.178294807154
 30
0.0
 11
4545.585229546443
 21
3923.178294807154
 31
0.0
  0
LINE
  5
1A4C6
330
747D
100
AcDbEntity
  8
部品1
 48
50.0
100
AcDbLine
 10
6699.585229546443
 20
3923.178294807154
 30
0.0
 11
6669.585229546443
 21
3923.178294807154
 31
0.0
  0
LINE
  5
1A4C7
330
747D
100
AcDbEntity
  8
部品1
100
AcDbLine
 10
6024.585229546439
 20
3915.178294807154
 30
0.0
 11
6024.585229546439
 21
2189.678294807169
 31
0.0
  0
LINE
  5
1A4C8
330
747D
100
AcDbEntity
  8
細線
100
AcDbLine
 10
5279.585229546443
 20
3915.178294807154
 30
0.0
 11
5279.585229546443
 21
2182.178294807162
 31
0.0
  0
LINE
  5
1A4C9
330
747D
100
AcDbEntity
  8
細線
100
AcDbLine
 10
5209.585229546443
 20
3915.178294807154
 30
0.0
 11
5209.585229546443
 21
2182.178294807162
 31
0.0
  0
LINE
  5
1A4CA
330
747D
100
AcDbEntity
  8
細線
100
AcDbLine
 10
5139.585229546443
 20
3915.178294807154
 30
0.0
 11
5139.585229546443
 21
2182.178294807158
 31
0.0
  0
LINE
  5
1A4CB
330
747D
100
AcDbEntity
  8
細線
100
AcDbLine
 10
5069.585229546443
 20
3915.178294807154
 30
0.0
 11
5069.585229546443
 21
2182.178294807158
 31
0.0
  0
LINE
  5
1A4CC
330
747D
100
AcDbEntity
  8
細線
100
AcDbLine
 10
4999.585229546443
 20
3915.178294807154
 30
0.0
 11
4999.585229546443
 21
2182.178294807158
 31
0.0
  0
LINE
  5
1A4CD
330
747D
100
AcDbEntity
  8
細線
100
AcDbLine
 10
4929.585229546443
 20
3915.178294807154
 30
0.0
 11
4929.585229546443
 21
2182.178294807158
 31
0.0
  0
LINE
  5
1A4CE
330
747D
100
AcDbEntity
  8
部品1
100
AcDbLine
 10
4745.585229546443
 20
3915.178294807154
 30
0.0
 11
4745.585229546443
 21
2182.178294807158
 31
0.0
  0
LINE
  5
1A4CF
330
747D
100
AcDbEntity
  8
部品1
100
AcDbLine
 10
4695.585229546443
 20
3915.178294807154
 30
0.0
 11
4695.585229546443
 21
2182.178294807158
 31
0.0
  0
LINE
  5
1A4D0
330
747D
100
AcDbEntity
  8
細線
100
AcDbLine
 10
4737.585229546442
 20
3915.178294807154
 30
0.0
 11
4737.585229546442
 21
2182.178294807158
 31
0.0
  0
LINE
  5
1A4D1
330
747D
100
AcDbEntity
  8
細線
100
AcDbLine
 10
4703.585229546443
 20
3915.178294807154
 30
0.0
 11
4703.585229546443
 21
2182.178294807158
 31
0.0
  0
LINE
  5
1A4D2
330
747D
100
AcDbEntity
  8
細線
100
AcDbLine
 10
5923.585229546443
 20
3915.178294807154
 30
0.0
 11
5923.585229546443
 21
2189.678294807165
 31
0.0
  0
LINE
  5
1A4D3
330
747D
100
AcDbEntity
  8
細線
100
AcDbLine
 10
5853.585229546443
 20
3915.178294807154
 30
0.0
 11
5853.585229546443
 21
2189.678294807165
 31
0.0
  0
LINE
  5
1A4D4
330
747D
100
AcDbEntity
  8
細線
100
AcDbLine
 10
5783.585229546442
 20
3915.178294807154
 30
0.0
 11
5783.585229546442
 21
2189.678294807165
 31
0.0
  0
LINE
  5
1A4D5
330
747D
100
AcDbEntity
  8
細線
100
AcDbLine
 10
5713.585229546443
 20
3915.178294807154
 30
0.0
 11
5713.585229546443
 21
2189.678294807165
 31
0.0
  0
LINE
  5
1A4D6
330
747D
100
AcDbEntity
  8
細線
100
AcDbLine
 10
5643.585229546443
 20
3915.178294807154
 30
0.0
 11
5643.585229546443
 21
2189.678294807165
 31
0.0
  0
LINE
  5
1A4D7
330
747D
100
AcDbEntity
  8
細線
100
AcDbLine
 10
5573.585229546443
 20
3915.178294807154
 30
0.0
 11
5573.585229546443
 21
2189.678294807165
 31
0.0
  0
LINE
  5
1A4D8
330
747D
100
AcDbEntity
  8
細線
100
AcDbLine
 10
6509.085229546442
 20
3915.178294807154
 30
0.0
 11
6509.085229546442
 21
2189.678294807173
 31
0.0
  0
LINE
  5
1A4D9
330
747D
100
AcDbEntity
  8
細線
100
AcDbLine
 10
6439.085229546442
 20
3915.178294807154
 30
0.0
 11
6439.085229546442
 21
2189.678294807173
 31
0.0
  0
LINE
  5
1A4DA
330
747D
100
AcDbEntity
  8
細線
100
AcDbLine
 10
6369.085229546443
 20
3915.178294807154
 30
0.0
 11
6369.085229546443
 21
2189.678294807173
 31
0.0
  0
LINE
  5
1A4DB
330
747D
100
AcDbEntity
  8
細線
100
AcDbLine
 10
6299.085229546443
 20
3915.178294807154
 30
0.0
 11
6299.085229546443
 21
2189.678294807173
 31
0.0
  0
LINE
  5
1A4DC
330
747D
100
AcDbEntity
  8
細線
100
AcDbLine
 10
6229.085229546443
 20
3915.178294807154
 30
0.0
 11
6229.085229546443
 21
2189.678294807173
 31
0.0
  0
LINE
  5
1A4E0
330
747D
100
AcDbEntity
  8
部品1
 48
50.0
100
AcDbLine
 10
4619.585229546443
 20
3113.678294807154
 30
0.0
 11
4672.585229546442
 21
3113.678294807154
 31
0.0
  0
LINE
  5
1A4FA
330
747D
100
AcDbEntity
  8
細線
100
AcDbLine
 10
4859.585229546443
 20
3915.178294807154
 30
0.0
 11
4859.585229546443
 21
2182.178294807158
 31
0.0
  0
LINE
  5
1A4FB
330
747D
100
AcDbEntity
  8
細線
100
AcDbLine
 10
4789.585229546442
 20
3915.178294807154
 30
0.0
 11
4789.585229546442
 21
2182.178294807158
 31
0.0
  0
LINE
  5
1A4FC
330
747D
100
AcDbEntity
  8
細線
100
AcDbLine
 10
5503.585229546443
 20
3915.178294807154
 30
0.0
 11
5503.585229546443
 21
2189.678294807165
 31
0.0
  0
LINE
  5
1A4FD
330
747D
100
AcDbEntity
  8
細線
100
AcDbLine
 10
5433.585229546443
 20
3915.178294807154
 30
0.0
 11
5433.585229546443
 21
2189.678294807165
 31
0.0
  0
LINE
  5
1A4FE
330
747D
100
AcDbEntity
  8
細線
100
AcDbLine
 10
6159.085229546443
 20
3915.178294807154
 30
0.0
 11
6159.085229546443
 21
2189.678294807173
 31
0.0
  0
LINE
  5
1A4FF
330
747D
100
AcDbEntity
  8
細線
 48
50.0
100
AcDbLine
 10
6750.085229546447
 20
3972.178294807154
 30
0.0
 11
6750.085229546449
 21
2182.178294807158
 31
0.0
  0
LINE
  5
1A500
330
747D
100
AcDbEntity
  8
細線
 48
50.0
100
AcDbLine
 10
6735.085229546446
 20
3972.178294807154
 30
0.0
 11
6735.08522954645
 21
2182.178294807158
 31
0.0
  0
LINE
  5
1A501
330
747D
100
AcDbEntity
  8
細線
 48
50.0
100
AcDbLine
 10
6875.085229546447
 20
3972.178294807154
 30
0.0
 11
6875.085229546449
 21
2182.17829480716
 31
0.0
  0
LINE
  5
1A502
330
747D
100
AcDbEntity
  8
細線
 48
50.0
100
AcDbLine
 10
6890.085229546446
 20
3972.178294807154
 30
0.0
 11
6890.08522954645
 21
2182.17829480716
 31
0.0
  0
LINE
  5
1A503
330
747D
100
AcDbEntity
  8
細線
 48
50.0
100
AcDbLine
 10
7030.085229546447
 20
3972.178294807154
 30
0.0
 11
7030.08522954645
 21
2182.17829480716
 31
0.0
  0
LINE
  5
1A504
330
747D
100
AcDbEntity
  8
細線
 48
50.0
100
AcDbLine
 10
7015.085229546446
 20
3972.178294807154
 30
0.0
 11
7015.08522954645
 21
2182.17829480716
 31
0.0
  0
LINE
  5
1A505
330
747D
100
AcDbEntity
  8
細線
 48
50.0
100
AcDbLine
 10
4495.085229546446
 20
3972.178294807154
 30
0.0
 11
4495.085229546449
 21
2182.17829480716
 31
0.0
  0
LINE
  5
1A506
330
747D
100
AcDbEntity
  8
細線
 48
50.0
100
AcDbLine
 10
4510.085229546446
 20
3972.178294807154
 30
0.0
 11
4510.08522954645
 21
2182.17829480716
 31
0.0
  0
LINE
  5
1A507
330
747D
100
AcDbEntity
  8
細線
 48
50.0
100
AcDbLine
 10
4370.085229546446
 20
3972.178294807154
 30
0.0
 11
4370.085229546449
 21
2182.17829480716
 31
0.0
  0
LINE
  5
1A508
330
747D
100
AcDbEntity
  8
細線
 48
50.0
100
AcDbLine
 10
4355.085229546446
 20
3972.178294807154
 30
0.0
 11
4355.08522954645
 21
2182.17829480716
 31
0.0
  0
LINE
  5
1A509
330
747D
100
AcDbEntity
  8
細線
 48
50.0
100
AcDbLine
 10
4215.085229546446
 20
3972.178294807154
 30
0.0
 11
4215.08522954645
 21
2182.178294807158
 31
0.0
  0
LINE
  5
1A50A
330
747D
100
AcDbEntity
  8
細線
 48
50.0
100
AcDbLine
 10
4230.085229546446
 20
3972.178294807154
 30
0.0
 11
4230.08522954645
 21
2182.178294807158
 31
0.0
  0
LINE
  5
1A50B
330
747D
100
AcDbEntity
  8
細線
 48
50.0
100
AcDbLine
 10
3810.085229546447
 20
3972.178294807154
 30
0.0
 11
3810.085229546451
 21
2182.178294807158
 31
0.0
  0
LINE
  5
1A50C
330
747D
100
AcDbEntity
  8
細線
 48
50.0
100
AcDbLine
 10
3795.085229546447
 20
3972.178294807154
 30
0.0
 11
3795.085229546451
 21
2182.178294807158
 31
0.0
  0
LINE
  5
1A50D
330
747D
100
AcDbEntity
  8
細線
 48
50.0
100
AcDbLine
 10
3935.085229546447
 20
3972.178294807154
 30
0.0
 11
3935.085229546451
 21
2182.17829480716
 31
0.0
  0
LINE
  5
1A50E
330
747D
100
AcDbEntity
  8
細線
 48
50.0
100
AcDbLine
 10
3950.085229546447
 20
3972.178294807154
 30
0.0
 11
3950.085229546451
 21
2182.17829480716
 31
0.0
  0
LINE
  5
1A50F
330
747D
100
AcDbEntity
  8
細線
 48
50.0
100
AcDbLine
 10
4090.085229546446
 20
3972.178294807154
 30
0.0
 11
4090.085229546451
 21
2182.17829480716
 31
0.0
  0
LINE
  5
1A510
330
747D
100
AcDbEntity
  8
細線
 48
50.0
100
AcDbLine
 10
4075.085229546447
 20
3972.178294807154
 30
0.0
 11
4075.08522954645
 21
2182.17829480716
 31
0.0
  0
LINE
  5
1A511
330
747D
100
AcDbEntity
  8
部品1
100
AcDbLine
 10
6672.585229546443
 20
3972.178294807154
 30
0.0
 11
6672.585229546443
 21
3967.178294807155
 31
0.0
  0
LINE
  5
1A512
330
747D
100
AcDbEntity
  8
部品1
100
AcDbLine
 10
7197.165568531112
 20
4199.781769411917
 30
0.0
 11
7196.032171198767
 21
4179.805641429317
 31
0.0
  0
LINE
  5
1A513
330
747D
100
AcDbEntity
  8
細線
 48
50.0
100
AcDbLine
 10
7164.585229546446
 20
4207.178294807156
 30
0.0
 11
7164.585229546446
 21
4066.178294807156
 31
0.0
  0
LINE
  5
1A514
330
747D
100
AcDbEntity
  8
部品1
100
AcDbLine
 10
7184.59515087719
 20
4084.148234262258
 30
0.0
 11
7183.950245070079
 21
4072.781769411919
 31
0.0
  0
LINE
  5
1A515
330
747D
100
AcDbEntity
  8
部品1
100
AcDbLine
 10
7192.831181402034
 20
4176.348234262259
 30
0.0
 11
7187.796140673923
 21
4087.605641429315
 31
0.0
  0
ARC
  5
1A516
330
747D
100
AcDbEntity
  8
部品1
 48
50.0
100
AcDbCircle
 10
7195.82636429822
 20
4176.178294807157
 30
0.0
 40
3.0
100
AcDbArc
 50
97.65812720736347
 51
176.7526572096623
  0
ARC
  5
1A517
330
747D
100
AcDbEntity
  8
部品1
 48
50.0
100
AcDbCircle
 10
7187.590333773376
 20
4083.978294807155
 30
0.0
 40
3.0
100
AcDbArc
 50
97.65812720736347
 51
176.7526572096623
  0
ARC
  5
1A518
330
747D
100
AcDbEntity
  8
部品1
 48
50.0
100
AcDbCircle
 10
7187.097264664815
 20
4087.645293968839
 30
0.0
 40
0.7
100
AcDbArc
 50
277.6581272073635
 51
356.7526572097079
  0
ARC
  5
1A519
330
747D
100
AcDbEntity
  8
部品1
 48
50.0
100
AcDbCircle
 10
7195.33329518966
 20
4179.845293968843
 30
0.0
 40
0.7
100
AcDbArc
 50
277.6581272073635
 51
356.7526572096103
  0
ARC
  5
1A51A
330
747D
100
AcDbEntity
  8
部品1
100
AcDbCircle
 10
7176.96148497898
 20
4073.178294807157
 30
0.0
 40
7.0
100
AcDbArc
 50
270.0
 51
356.7526572096623
  0
ARC
  5
1A51B
330
747D
100
AcDbEntity
  8
部品1
100
AcDbCircle
 10
7190.176808440013
 20
4200.178294807155
 30
0.0
 40
7.0
100
AcDbArc
 50
356.7526572096623
 51
90.0
  0
LINE
  5
1A51D
330
747D
100
AcDbEntity
  8
細線
 48
50.0
100
AcDbLine
 10
3660.585229546444
 20
4207.178294807158
 30
0.0
 11
3660.585229546444
 21
4066.178294807158
 31
0.0
  0
ARC
  5
1A51E
330
747D
100
AcDbEntity
  8
部品1
100
AcDbCircle
 10
3634.993650652873
 20
4200.178294807158
 30
0.0
 40
7.0
100
AcDbArc
 50
90.0
 51
183.2473427903377
  0
ARC
  5
1A51F
330
747D
100
AcDbEntity
  8
部品1
100
AcDbCircle
 10
3648.208974113907
 20
4073.17829480716
 30
0.0
 40
7.0
100
AcDbArc
 50
183.2473427903377
 51
270.0
  0
ARC
  5
1A520
330
747D
100
AcDbEntity
  8
部品1
 48
50.0
100
AcDbCircle
 10
3629.837163903231
 20
4179.845293968845
 30
0.0
 40
0.7
100
AcDbArc
 50
183.2473427903897
 51
262.3418727926365
  0
ARC
  5
1A521
330
747D
100
AcDbEntity
  8
部品1
 48
50.0
100
AcDbCircle
 10
3638.073194428071
 20
4087.645293968841
 30
0.0
 40
0.7
100
AcDbArc
 50
183.2473427902922
 51
262.3418727926365
  0
ARC
  5
1A522
330
747D
100
AcDbEntity
  8
部品1
 48
50.0
100
AcDbCircle
 10
3637.58012531951
 20
4083.978294807158
 30
0.0
 40
3.0
100
AcDbArc
 50
3.247342790337682
 51
82.34187279263654
  0
ARC
  5
1A523
330
747D
100
AcDbEntity
  8
部品1
 48
50.0
100
AcDbCircle
 10
3629.344094794666
 20
4176.178294807161
 30
0.0
 40
3.0
100
AcDbArc
 50
3.247342790337682
 51
82.34187279263654
  0
LINE
  5
1A524
330
747D
100
AcDbEntity
  8
部品1
100
AcDbLine
 10
3632.339277690852
 20
4176.348234262262
 30
0.0
 11
3637.374318418963
 21
4087.605641429319
 31
0.0
  0
LINE
  5
1A525
330
747D
100
AcDbEntity
  8
部品1
100
AcDbLine
 10
3640.575308215699
 20
4084.148234262261
 30
0.0
 11
3641.220214022808
 21
4072.78176941192
 31
0.0
  0
LINE
  5
1A526
330
747D
100
AcDbEntity
  8
部品1
100
AcDbLine
 10
3628.004890561774
 20
4199.781769411919
 30
0.0
 11
3629.138287894123
 21
4179.80564142932
 31
0.0
  0
LINE
  5
1A527
330
747D
100
AcDbEntity
  8
部品1
 48
50.0
100
AcDbLine
 10
7190.176808440013
 20
4207.178294807155
 30
0.0
 11
3634.993650652873
 21
4207.178294807156
 31
0.0
  0
LINE
  5
1A528
330
747D
100
AcDbEntity
  8
細線
 48
50.0
100
AcDbLine
 10
7195.42657853293
 20
4179.151537370735
 30
0.0
 11
3629.743880556857
 21
4179.151537371155
 31
0.0
  0
LINE
  5
1A529
330
747D
100
AcDbEntity
  8
細線
 48
50.0
100
AcDbLine
 10
7187.190548008101
 20
4086.951537370734
 30
0.0
 11
3637.97991108169
 21
4086.951537371153
 31
0.0
  0
LINE
  5
1A52A
330
747D
100
AcDbEntity
  8
部品1
 48
50.0
100
AcDbLine
 10
7176.96148497898
 20
4066.178294807158
 30
0.0
 11
3648.208974113907
 21
4066.178294807158
 31
0.0
  0
LINE
  5
1A61B
330
747D
100
AcDbEntity
  8
部品1
100
AcDbLine
 10
4152.585229546443
 20
3972.178294807154
 30
0.0
 11
4152.585229546443
 21
2182.178294807154
 31
0.0
  0
LINE
  5
1A673
330
747D
100
AcDbEntity
  8
部品1
100
AcDbLine
 10
3677.585229546443
 20
2182.178294807158
 30
0.0
 11
4545.585229546443
 21
2182.178294807162
 31
0.0
  0
LINE
  5
1A685
330
747D
100
AcDbEntity
  8
部品1
100
AcDbLine
 10
7147.585229546443
 20
4066.178294807158
 30
0.0
 11
7147.585229546443
 21
2032.178294807154
 31
0.0
  0
LINE
  5
1A686
330
747D
100
AcDbEntity
  8
部品1
100
AcDbLine
 10
3732.585229546444
 20
3972.178294807154
 30
0.0
 11
3732.585229546444
 21
2182.178294807158
 31
0.0
  0
LINE
  5
1A687
330
747D
100
AcDbEntity
  8
部品1
100
AcDbLine
 10
7092.585229546442
 20
3972.178294807154
 30
0.0
 11
7092.585229546442
 21
2182.178294807174
 31
0.0
  0
LINE
  5
1A688
330
747D
100
AcDbEntity
  8
部品1
100
AcDbLine
 10
3677.585229546443
 20
4066.178294807158
 30
0.0
 11
3677.585229546443
 21
2032.178294807154
 31
0.0
  0
LINE
  5
1A689
330
747D
100
AcDbEntity
  8
部品1
100
AcDbLine
 10
3677.585229546443
 20
3972.178294807154
 30
0.0
 11
7147.585229546443
 21
3972.178294807154
 31
0.0
  0
LINE
  5
1A68A
330
747D
100
AcDbEntity
  8
部品1
100
AcDbLine
 10
3677.585229546443
 20
2132.178294807154
 30
0.0
 11
7147.585229546443
 21
2132.178294807154
 31
0.0
  0
MTEXT
  5
1ABCF
330
747D
100
AcDbEntity
  8
寸法
 62
     7
 48
50.0
100
AcDbMText
 10
4252.865027157055
 20
9921.950861638871
 30
0.0
 40
96.0
 41
0.0
 71
     5
 72
     1
  1
棚 2段
  7
STYLE1
 73
     1
 44
1.0
1001
ACAD
1000
MTEXTBEGIN
1070
    73
1070
     1
1070
    44
1040
1.0
1070
    74
1070
     0
1000
MTEXTEND
  0
MTEXT
  5
1ABD5
330
747D
100
AcDbEntity
  8
寸法
 62
     7
 48
50.0
100
AcDbMText
 10
5427.865027157053
 20
9921.950861638926
 30
0.0
 40
96.0
 41
0.0
 71
     5
 72
     1
  1
棚 2段
  7
STYLE1
 73
     1
 44
1.0
1001
ACAD
1000
MTEXTBEGIN
1070
    73
1070
     1
1070
    44
1040
1.0
1070
    74
1070
     0
1000
MTEXTEND
  0
MTEXT
  5
1ABDB
330
747D
100
AcDbEntity
  8
寸法
 62
     7
 48
50.0
100
AcDbMText
 10
6602.865027157086
 20
9921.950861638947
 30
0.0
 40
96.0
 41
0.0
 71
     5
 72
     1
  1
棚 2段
  7
STYLE1
 73
     1
 44
1.0
1001
ACAD
1000
MTEXTBEGIN
1070
    73
1070
     1
1070
    44
1040
1.0
1070
    74
1070
     0
1000
MTEXTEND
  0
LWPOLYLINE
  5
1AC3D
330
747D
100
AcDbEntity
  8
部品1
 48
50.0
100
AcDbPolyline
 90
        4
 70
     1
 43
0.0
 10
4644.635229546442
 20
3028.428294807155
 10
4647.535229546444
 20
3028.428294807155
 10
4647.535229546444
 20
3037.928294807154
 10
4644.635229546442
 20
3037.928294807154
  0
CIRCLE
  5
1AC3E
330
747D
100
AcDbEntity
  8
部品1
 48
50.0
100
AcDbCircle
 10
4646.085229546442
 20
3033.178294807154
 30
0.0
 40
9.0
  0
ARC
  5
1AC3F
330
747D
100
AcDbEntity
  8
細線
 48
50.0
100
AcDbCircle
 10
4646.085229546442
 20
3033.178294807154
 30
0.0
 40
4.0
100
AcDbArc
 50
111.2538091853132
 51
248.7461908146868
  0
ARC
  5
1AC40
330
747D
100
AcDbEntity
  8
細線
 48
50.0
100
AcDbCircle
 10
4646.085229546442
 20
3033.178294807154
 30
0.0
 40
17.5
100
AcDbArc
 50
306.4837370612677
 51
233.5162629387323
  0
LINE
  5
1AC41
330
747D
100
AcDbEntity
  8
細線
 48
50.0
100
AcDbLine
 10
4656.085229546439
 20
3009.319334226271
 30
0.0
 11
4656.085229546443
 21
3018.303820026513
 31
0.0
  0
LINE
  5
1AC42
330
747D
100
AcDbEntity
  8
細線
 48
50.0
100
AcDbLine
 10
4636.085229546443
 20
3009.319334226273
 30
0.0
 11
4636.085229546443
 21
3018.303820026509
 31
0.0
  0
ARC
  5
1AC43
330
747D
100
AcDbEntity
  8
細線
 48
50.0
100
AcDbCircle
 10
4646.085229546442
 20
3033.178294807154
 30
0.0
 40
26.5
100
AcDbArc
 50
249.3326835063939
 51
290.6673164933835
  0
ARC
  5
1AC44
330
747D
100
AcDbEntity
  8
細線
 48
50.0
100
AcDbCircle
 10
4655.085229546435
 20
3009.319334226271
 30
0.0
 40
1.0
100
AcDbArc
 50
290.6673164936062
 51
359.9999999998958
  0
ARC
  5
1AC45
330
747D
100
AcDbEntity
  8
細線
 48
50.0
100
AcDbCircle
 10
4637.085229546443
 20
3009.319334226273
 30
0.0
 40
1.0
100
AcDbArc
 50
180.0
 51
249.3326835066164
  0
ARC
  5
1AC46
330
747D
100
AcDbEntity
  8
細線
 48
50.0
100
AcDbCircle
 10
4635.085229546443
 20
3018.303820026509
 30
0.0
 40
1.0
100
AcDbArc
 50
0.0
 51
53.51626293873231
  0
ARC
  5
1AC47
330
747D
100
AcDbEntity
  8
細線
 48
50.0
100
AcDbCircle
 10
4657.085229546447
 20
3018.303820026513
 30
0.0
 40
1.0
100
AcDbArc
 50
126.4837370615127
 51
180.0
  0
ARC
  5
1AC48
330
747D
100
AcDbEntity
  8
細線
 48
50.0
100
AcDbCircle
 10
4646.085229546442
 20
3033.178294807154
 30
0.0
 40
21.5
100
AcDbArc
 50
255.8014401250294
 51
284.1985598749706
  0
ARC
  5
1AC49
330
747D
100
AcDbEntity
  8
細線
 48
50.0
100
AcDbCircle
 10
4646.085229546442
 20
3033.178294807154
 30
0.0
 40
16.5
100
AcDbArc
 50
251.9694646069326
 51
288.0305353930674
  0
LINE
  5
1AC4A
330
747D
100
AcDbEntity
  8
細線
 48
50.0
100
AcDbLine
 10
4651.585229546443
 20
3012.625922681348
 30
0.0
 11
4651.585229546443
 21
3017.203314368684
 31
0.0
  0
LINE
  5
1AC4B
330
747D
100
AcDbEntity
  8
細線
 48
50.0
100
AcDbLine
 10
4640.585229546442
 20
3012.625922681348
 30
0.0
 11
4640.585229546442
 21
3017.203314368682
 31
0.0
  0
ARC
  5
1AC4C
330
747D
100
AcDbEntity
  8
細線
 48
50.0
100
AcDbCircle
 10
4640.885229546445
 20
3017.203314368682
 30
0.0
 40
0.3
100
AcDbArc
 50
71.96946460693259
 51
180.0
  0
ARC
  5
1AC4D
330
747D
100
AcDbEntity
  8
細線
 48
50.0
100
AcDbCircle
 10
4651.285229546443
 20
3017.203314368684
 30
0.0
 40
0.3
100
AcDbArc
 50
0.0
 51
108.0305353930674
  0
ARC
  5
1AC4E
330
747D
100
AcDbEntity
  8
細線
 48
50.0
100
AcDbCircle
 10
4651.28522954644
 20
3012.625922681348
 30
0.0
 40
0.3
100
AcDbArc
 50
284.1985598747622
 51
0.0000000001042204
  0
ARC
  5
1AC4F
330
747D
100
AcDbEntity
  8
細線
 48
50.0
100
AcDbCircle
 10
4640.885229546445
 20
3012.625922681348
 30
0.0
 40
0.3
100
AcDbArc
 50
180.0
 51
255.8014401248081
  0
CIRCLE
  5
1AC50
330
747D
100
AcDbEntity
  8
細線
 48
50.0
100
AcDbCircle
 10
4646.085229546442
 20
3033.178294807154
 30
0.0
 40
12.0
  0
ARC
  5
1AC51
330
747D
100
AcDbEntity
  8
部品1
 48
50.0
100
AcDbCircle
 10
4646.085229546442
 20
3083.178294807154
 30
0.0
 40
8.5
100
AcDbArc
 50
114.315739171091
 51
245.684260828909
  0
CIRCLE
  5
1AC52
330
747D
100
AcDbEntity
  8
細線
 48
50.0
100
AcDbCircle
 10
4646.085229546442
 20
3083.178294807154
 30
0.0
 40
4.5
  0
LWPOLYLINE
  5
1AC53
330
747D
100
AcDbEntity
  8
部品1
 48
50.0
100
AcDbPolyline
 90
        2
 70
     0
 43
0.0
 10
4642.585229546443
 20
3101.853144204137
 10
4642.585229546443
 20
3090.92426149957
  0
CIRCLE
  5
1AC54
330
747D
100
AcDbEntity
  8
部品1
 48
50.0
100
AcDbCircle
 10
4646.085229546442
 20
3083.178294807154
 30
0.0
 40
19.0
  0
LWPOLYLINE
  5
1AC55
330
747D
100
AcDbEntity
  8
部品1
 48
50.0
100
AcDbPolyline
 90
        2
 70
     0
 43
0.0
 10
4642.585229546443
 20
3075.432328114739
 10
4642.585229546443
 20
3064.503445410172
  0
LWPOLYLINE
  5
1AC56
330
747D
100
AcDbEntity
  8
部品1
 48
50.0
100
AcDbPolyline
 90
        2
 70
     0
 43
0.0
 10
4649.585229546443
 20
3090.92426149957
 10
4649.585229546443
 20
3101.853144204137
  0
ARC
  5
1AC57
330
747D
100
AcDbEntity
  8
部品1
 48
50.0
100
AcDbCircle
 10
4646.085229546442
 20
3083.178294807154
 30
0.0
 40
8.5
100
AcDbArc
 50
294.315739171091
 51
65.68426082890896
  0
LWPOLYLINE
  5
1AC58
330
747D
100
AcDbEntity
  8
部品1
 48
50.0
100
AcDbPolyline
 90
        2
 70
     0
 43
0.0
 10
4649.585229546443
 20
3064.503445410172
 10
4649.585229546443
 20
3075.432328114739
  0
ARC
  5
1AC59
330
747D
100
AcDbEntity
  8
細線
 48
50.0
100
AcDbCircle
 10
4646.085229546442
 20
3083.178294807154
 30
0.0
 40
16.5
100
AcDbArc
 50
332.0012352654438
 51
27.99876473455621
  0
ARC
  5
1AC5A
330
747D
100
AcDbEntity
  8
細線
 48
50.0
100
AcDbCircle
 10
4646.085229546442
 20
3083.178294807154
 30
0.0
 40
14.0
100
AcDbArc
 50
326.4074436112986
 51
33.59255638870134
  0
LINE
  5
1AC5B
330
747D
100
AcDbEntity
  8
細線
 48
50.0
100
AcDbLine
 10
4631.516427262112
 20
3090.92426149957
 30
0.0
 11
4634.423325756753
 21
3090.92426149957
 31
0.0
  0
LINE
  5
1AC5C
330
747D
100
AcDbEntity
  8
細線
 48
50.0
100
AcDbLine
 10
4631.516427262112
 20
3075.432328114739
 30
0.0
 11
4634.423325756753
 21
3075.432328114739
 31
0.0
  0
LINE
  5
1AC5D
330
747D
100
AcDbEntity
  8
細線
 48
50.0
100
AcDbLine
 10
4657.747133336131
 20
3090.92426149957
 30
0.0
 11
4660.654031830778
 21
3090.92426149957
 31
0.0
  0
LINE
  5
1AC5E
330
747D
100
AcDbEntity
  8
細線
 48
50.0
100
AcDbLine
 10
4657.747133336131
 20
3075.432328114739
 30
0.0
 11
4660.654031830778
 21
3075.432328114739
 31
0.0
  0
ARC
  5
1AC5F
330
747D
100
AcDbEntity
  8
細線
 48
50.0
100
AcDbCircle
 10
4646.085229546442
 20
3083.178294807154
 30
0.0
 40
14.0
100
AcDbArc
 50
146.4074436112986
 51
213.5925563887013
  0
ARC
  5
1AC60
330
747D
100
AcDbEntity
  8
細線
 48
50.0
100
AcDbCircle
 10
4646.085229546442
 20
3083.178294807154
 30
0.0
 40
16.5
100
AcDbArc
 50
152.0012352654438
 51
207.9987647345562
  0
ARC
  5
1AC61
330
747D
100
AcDbEntity
  8
部品1
 48
50.0
100
AcDbCircle
 10
4619.585229546443
 20
3108.678294807154
 30
0.0
 40
5.0
100
AcDbArc
 50
90.0
 51
180.0
  0
ARC
  5
1AC62
330
747D
100
AcDbEntity
  8
部品1
 48
50.0
100
AcDbCircle
 10
4619.585229546443
 20
2997.678294807154
 30
0.0
 40
5.0
100
AcDbArc
 50
180.0
 51
270.0
  0
ARC
  5
1AC63
330
747D
100
AcDbEntity
  8
部品1
 48
50.0
100
AcDbCircle
 10
4672.585229546442
 20
2997.678294807154
 30
0.0
 40
5.0
100
AcDbArc
 50
270.0
 51
0.0
  0
ARC
  5
1AC64
330
747D
100
AcDbEntity
  8
部品1
 48
50.0
100
AcDbCircle
 10
4672.585229546442
 20
3108.678294807154
 30
0.0
 40
5.0
100
AcDbArc
 50
0.0
 51
90.0
  0
LINE
  5
1AC65
330
747D
100
AcDbEntity
  8
部品1
 48
50.0
100
AcDbLine
 10
4614.585229546443
 20
2997.678294807154
 30
0.0
 11
4614.585229546443
 21
3108.678294807154
 31
0.0
  0
LINE
  5
1AC66
330
747D
100
AcDbEntity
  8
部品1
 48
50.0
100
AcDbLine
 10
4672.585229546442
 20
2992.678294807154
 30
0.0
 11
4619.585229546443
 21
2992.678294807154
 31
0.0
  0
LINE
  5
1AC67
330
747D
100
AcDbEntity
  8
部品1
 48
50.0
100
AcDbLine
 10
4677.585229546443
 20
3108.678294807154
 30
0.0
 11
4677.585229546443
 21
2997.678294807154
 31
0.0
  0
ENDSEC
  0
SECTION
  2
OBJECTS
  0
DICTIONARY
  5
7471
330
0
100
AcDbDictionary
281
     1
  3
ACAD_COLOR
350
1834D
  3
ACAD_GROUP
350
7472
  3
ACAD_LAYOUT
350
1834E
  3
ACAD_MATERIAL
350
1834C
  3
ACAD_MLINESTYLE
350
7473
  3
ACAD_PLOTSETTINGS
350
1834F
  3
ACAD_PLOTSTYLENAME
350
1834A
  3
ACDBHEADERROUNDTRIPXREC
350
1AC76
  3
AcDbVariableDictionary
350
1AC72
  3
CONTENTDICTIONARY
350
E71C
  3
DRAWINGVARIABLESDICT
350
F3B9
  0
DICTIONARY
  5
18516
330
7467
100
AcDbDictionary
280
     1
281
     1
  3
ACAD_LAYERSTATES
360
18517
  0
DICTIONARY
  5
1834D
102
{ACAD_REACTORS
330
7471
102
}
330
7471
100
AcDbDictionary
281
     1
  0
DICTIONARY
  5
7472
102
{ACAD_REACTORS
330
7471
102
}
330
7471
100
AcDbDictionary
281
     1
  0
DICTIONARY
  5
1834E
102
{ACAD_REACTORS
330
7471
102
}
330
7471
100
AcDbDictionary
281
     1
  3
Model
350
18350
  3
レイアウト1
350
18351
  0
DICTIONARY
  5
1834C
102
{ACAD_REACTORS
330
7471
102
}
330
7471
100
AcDbDictionary
281
     1
  0
DICTIONARY
  5
7473
102
{ACAD_REACTORS
330
7471
102
}
330
7471
100
AcDbDictionary
281
     1
  3
STANDARD
350
7480
  0
DICTIONARY
  5
1834F
102
{ACAD_REACTORS
330
7471
102
}
330
7471
100
AcDbDictionary
281
     1
  0
ACDBDICTIONARYWDFLT
  5
1834A
102
{ACAD_REACTORS
330
7471
102
}
330
7471
100
AcDbDictionary
281
     1
  3
Normal
350
1834B
100
AcDbDictionaryWithDefault
340
1834B
  0
DICTIONARY
  5
1AC76
102
{ACAD_REACTORS
330
7471
102
}
330
7471
100
AcDbDictionary
281
     1
  3
COLORDICT
350
1AC78
  3
MATERIALDICT
350
1AC77
  0
DICTIONARY
  5
1AC72
102
{ACAD_REACTORS
330
7471
102
}
330
7471
100
AcDbDictionary
281
     1
  3
DIMASSOC
350
1AC73
  3
PROJECTNAME
350
1AC74
  0
DICTIONARY
  5
E71C
102
{ACAD_REACTORS
330
7471
102
}
330
7471
100
AcDbDictionary
281
     1
  0
DICTIONARY
  5
F3B9
102
{ACAD_REACTORS
330
7471
102
}
330
7471
100
AcDbDictionary
281
     1
1001
DRAWINGVARIABLESXDATA
1000
POLARMODE
1000
1
  0
DICTIONARY
  5
18517
102
{ACAD_REACTORS
330
18516
102
}
330
18516
100
AcDbDictionary
281
     1
  0
LAYOUT
  5
18350
102
{ACAD_XDICTIONARY
360
1AC79
102
}
102
{ACAD_REACTORS
330
1834E
102
}
330
1834E
100
AcDbPlotSettings
  1

  2
EPSON LP-7000C
  4

  6

 40
0.0
 41
0.0
 42
0.0
 43
0.0
 44
0.0
 45
0.0
 46
0.0
 47
0.0
 48
0.0
 49
0.0
140
0.0
141
0.0
142
1.0
143
1.0
 70
  1712
 72
     0
 73
     0
 74
     0
  7

 75
     0
147
1.0
148
0.0
149
0.0
100
AcDbLayout
  1
Model
 70
     1
 71
     0
 10
0.0
 20
0.0
 11
12.0
 21
9.0
 12
0.0
 22
0.0
 32
0.0
 14
0.0
 24
0.0
 34
0.0
 15
0.0
 25
0.0
 35
0.0
146
0.0
 13
0.0
 23
0.0
 33
0.0
 16
1.0
 26
0.0
 36
0.0
 17
0.0
 27
1.0
 37
0.0
 76
     0
330
747D
  0
LAYOUT
  5
18351
102
{ACAD_XDICTIONARY
360
1AC7B
102
}
102
{ACAD_REACTORS
330
1834E
102
}
330
1834E
100
AcDbPlotSettings
  1

  2
EPSON LP-7000C
  4

  6

 40
0.0
 41
0.0
 42
0.0
 43
0.0
 44
0.0
 45
0.0
 46
0.0
 47
0.0
 48
0.0
 49
0.0
140
0.0
141
0.0
142
1.0
143
1.0
 70
   688
 72
     0
 73
     0
 74
     5
  7

 75
    16
147
1.0
148
0.0
149
0.0
100
AcDbLayout
  1
レイアウト1
 70
     0
 71
     1
 10
0.0
 20
0.0
 11
420.0
 21
297.0
 12
0.0
 22
0.0
 32
0.0
 14
1.000000000000000E+20
 24
1.000000000000000E+20
 34
1.000000000000000E+20
 15
-1.000000000000000E+20
 25
-1.000000000000000E+20
 35
-1.000000000000000E+20
146
0.0
 13
0.0
 23
0.0
 33
0.0
 16
1.0
 26
0.0
 36
0.0
 17
0.0
 27
1.0
 37
0.0
 76
     0
330
747A
  0
MLINESTYLE
  5
7480
102
{ACAD_REACTORS
330
7473
102
}
330
7473
100
AcDbMlineStyle
  2
STANDARD
 70
     0
  3

 62
     0
 51
90.0
 52
90.0
 71
     2
 49
0.5
 62
   256
  6
BYLAYER
 49
-0.5
 62
   256
  6
BYLAYER
  0
ACDBPLACEHOLDER
  5
1834B
102
{ACAD_REACTORS
330
1834A
102
}
330
1834A
  0
XRECORD
  5
1AC78
102
{ACAD_REACTORS
330
1AC76
102
}
330
1AC76
100
AcDbXrecord
280
     1
340
1834D
  0
XRECORD
  5
1AC77
102
{ACAD_REACTORS
330
1AC76
102
}
330
1AC76
100
AcDbXrecord
280
     1
340
1834C
  0
DICTIONARYVAR
  5
1AC73
102
{ACAD_REACTORS
330
1AC72
102
}
330
1AC72
100
DictionaryVariables
280
     0
  1
1
  0
DICTIONARYVAR
  5
1AC74
102
{ACAD_REACTORS
330
1AC72
102
}
330
1AC72
100
DictionaryVariables
280
     0
  1

  0
DICTIONARY
  5
1AC79
330
18350
100
AcDbDictionary
280
     1
281
     1
  3
ACAD_XREC_ROUNDTRIP
360
1AC7A
  0
DICTIONARY
  5
1AC7B
330
18351
100
AcDbDictionary
280
     1
281
     1
  3
ACAD_XREC_ROUNDTRIP
360
1AC7C
  0
XRECORD
  5
1AC7A
102
{ACAD_REACTORS
330
1AC79
102
}
330
1AC79
100
AcDbXrecord
280
     1
102
SHADEPLOT
 70
     0
102
SHADEPLOTRESLEVEL
 70
     2
102
SHADEPLOTCUSTOMDPI
 70
   300
  0
XRECORD
  5
1AC7C
102
{ACAD_REACTORS
330
1AC7B
102
}
330
1AC7B
100
AcDbXrecord
280
     1
102
SHADEPLOT
 70
     0
102
SHADEPLOTRESLEVEL
 70
     2
102
SHADEPLOTCUSTOMDPI
 70
   300
  0
ENDSEC
  0
EOF
