  0
SECTION
  2
HEADER
  9
$ACADVER
  1
AC1015
  9
$ACADMAINTVER
 70
    20
  9
$DWGCODEPAGE
  3
ANSI_932
  9
$INSBASE
 10
0.0
 20
0.0
 30
0.0
  9
$EXTMIN
 10
139.9999999999995
 20
-0.0000000000000909
 30
0.0
  9
$EXTMAX
 10
16307.2
 20
11409.6
 30
0.0
  9
$LIMMIN
 10
0.0
 20
0.0
  9
$LIMMAX
 10
16800.0
 20
11880.0
  9
$ORTHOMODE
 70
     0
  9
$REGENMODE
 70
     1
  9
$FILLMODE
 70
     1
  9
$QTEXTMODE
 70
     0
  9
$MIRRTEXT
 70
     1
  9
$LTSCALE
 40
20.0
  9
$ATTMODE
 70
     1
  9
$TEXTSIZE
 40
4.0
  9
$TRACEWID
 40
1.0
  9
$TEXTSTYLE
  7
STYLE1
  9
$CLAYER
  8
細線
  9
$CELTYPE
  6
BYLAYER
  9
$CECOLOR
 62
   256
  9
$CELTSCALE
 40
50.0
  9
$DISPSILH
 70
     0
  9
$DIMSCALE
 40
40.0
  9
$DIMASZ
 40
2.5
  9
$DIMEXO
 40
0.5
  9
$DIMDLI
 40
7.0
  9
$DIMRND
 40
0.0
  9
$DIMDLE
 40
0.0
  9
$DIMEXE
 40
1.5
  9
$DIMTP
 40
0.0
  9
$DIMTM
 40
0.0
  9
$DIMTXT
 40
3.0
  9
$DIMCEN
 40
0.0
  9
$DIMTSZ
 40
0.0
  9
$DIMTOL
 70
     0
  9
$DIMLIM
 70
     0
  9
$DIMTIH
 70
     0
  9
$DIMTOH
 70
     0
  9
$DIMSE1
 70
     0
  9
$DIMSE2
 70
     0
  9
$DIMTAD
 70
     3
  9
$DIMZIN
 70
     8
  9
$DIMBLK
  1

  9
$DIMASO
 70
     1
  9
$DIMSHO
 70
     1
  9
$DIMPOST
  1

  9
$DIMAPOST
  1

  9
$DIMALT
 70
     0
  9
$DIMALTD
 70
     2
  9
$DIMALTF
 40
0.0394
  9
$DIMLFAC
 40
1.0
  9
$DIMTOFL
 70
     1
  9
$DIMTVP
 40
0.0
  9
$DIMTIX
 70
     1
  9
$DIMSOXD
 70
     0
  9
$DIMSAH
 70
     1
  9
$DIMBLK1
  1
DOTSMALL
  9
$DIMBLK2
  1
DOTSMALL
  9
$DIMSTYLE
  2
INABA_S40G
  9
$DIMCLRD
 70
     0
  9
$DIMCLRE
 70
     0
  9
$DIMCLRT
 70
     7
  9
$DIMTFAC
 40
1.0
  9
$DIMGAP
 40
1.0
  9
$DIMJUST
 70
     0
  9
$DIMSD1
 70
     0
  9
$DIMSD2
 70
     0
  9
$DIMTOLJ
 70
     1
  9
$DIMTZIN
 70
     0
  9
$DIMALTZ
 70
     0
  9
$DIMALTTZ
 70
     0
  9
$DIMUPT
 70
     0
  9
$DIMDEC
 70
     1
  9
$DIMTDEC
 70
     4
  9
$DIMALTU
 70
     2
  9
$DIMALTTD
 70
     2
  9
$DIMTXSTY
  7
STYLE1
  9
$DIMAUNIT
 70
     0
  9
$DIMADEC
 70
     0
  9
$DIMALTRND
 40
0.0
  9
$DIMAZIN
 70
     0
  9
$DIMDSEP
 70
    46
  9
$DIMATFIT
 70
     3
  9
$DIMFRAC
 70
     0
  9
$DIMLDRBLK
  1

  9
$DIMLUNIT
 70
     2
  9
$DIMLWD
 70
    -2
  9
$DIMLWE
 70
    -2
  9
$DIMTMOVE
 70
     0
  9
$LUNITS
 70
     2
  9
$LUPREC
 70
     1
  9
$SKETCHINC
 40
1.0
  9
$FILLETRAD
 40
3.0
  9
$AUNITS
 70
     0
  9
$AUPREC
 70
     0
  9
$MENU
  1
acad
  9
$ELEVATION
 40
0.0
  9
$PELEVATION
 40
0.0
  9
$THICKNESS
 40
0.0
  9
$LIMCHECK
 70
     0
  9
$CHAMFERA
 40
0.0
  9
$CHAMFERB
 40
0.0
  9
$CHAMFERC
 40
0.0
  9
$CHAMFERD
 40
0.0
  9
$SKPOLY
 70
     0
  9
$TDCREATE
 40
2451368.612993866
  9
$TDUCREATE
 40
2451368.237993866
  9
$TDUPDATE
 40
2455826.640888669
  9
$TDUUPDATE
 40
2455826.265888669
  9
$TDINDWG
 40
0.7097889699
  9
$TDUSRTIMER
 40
0.7097889699
  9
$USRTIMER
 70
     1
  9
$ANGBASE
 50
0.0
  9
$ANGDIR
 70
     0
  9
$PDMODE
 70
     3
  9
$PDSIZE
 40
2.0
  9
$PLINEWID
 40
0.0
  9
$SPLFRAME
 70
     0
  9
$SPLINETYPE
 70
     6
  9
$SPLINESEGS
 70
     8
  9
$HANDSEED
  5
225E1
  9
$SURFTAB1
 70
     6
  9
$SURFTAB2
 70
     6
  9
$SURFTYPE
 70
     6
  9
$SURFU
 70
     6
  9
$SURFV
 70
     6
  9
$UCSBASE
  2

  9
$UCSNAME
  2

  9
$UCSORG
 10
0.0
 20
0.0
 30
0.0
  9
$UCSXDIR
 10
1.0
 20
0.0
 30
0.0
  9
$UCSYDIR
 10
0.0
 20
1.0
 30
0.0
  9
$UCSORTHOREF
  2

  9
$UCSORTHOVIEW
 70
     0
  9
$UCSORGTOP
 10
0.0
 20
0.0
 30
0.0
  9
$UCSORGBOTTOM
 10
0.0
 20
0.0
 30
0.0
  9
$UCSORGLEFT
 10
0.0
 20
0.0
 30
0.0
  9
$UCSORGRIGHT
 10
0.0
 20
0.0
 30
0.0
  9
$UCSORGFRONT
 10
0.0
 20
0.0
 30
0.0
  9
$UCSORGBACK
 10
0.0
 20
0.0
 30
0.0
  9
$PUCSBASE
  2

  9
$PUCSNAME
  2

  9
$PUCSORG
 10
0.0
 20
0.0
 30
0.0
  9
$PUCSXDIR
 10
1.0
 20
0.0
 30
0.0
  9
$PUCSYDIR
 10
0.0
 20
1.0
 30
0.0
  9
$PUCSORTHOREF
  2

  9
$PUCSORTHOVIEW
 70
     0
  9
$PUCSORGTOP
 10
0.0
 20
0.0
 30
0.0
  9
$PUCSORGBOTTOM
 10
0.0
 20
0.0
 30
0.0
  9
$PUCSORGLEFT
 10
0.0
 20
0.0
 30
0.0
  9
$PUCSORGRIGHT
 10
0.0
 20
0.0
 30
0.0
  9
$PUCSORGFRONT
 10
0.0
 20
0.0
 30
0.0
  9
$PUCSORGBACK
 10
0.0
 20
0.0
 30
0.0
  9
$USERI1
 70
     0
  9
$USERI2
 70
     0
  9
$USERI3
 70
     0
  9
$USERI4
 70
     0
  9
$USERI5
 70
     0
  9
$USERR1
 40
0.0
  9
$USERR2
 40
0.0
  9
$USERR3
 40
0.0
  9
$USERR4
 40
0.0
  9
$USERR5
 40
0.0
  9
$WORLDVIEW
 70
     1
  9
$SHADEDGE
 70
     3
  9
$SHADEDIF
 70
    70
  9
$TILEMODE
 70
     1
  9
$MAXACTVP
 70
    16
  9
$PINSBASE
 10
0.0
 20
0.0
 30
0.0
  9
$PLIMCHECK
 70
     0
  9
$PEXTMIN
 10
1.000000000000000E+20
 20
1.000000000000000E+20
 30
1.000000000000000E+20
  9
$PEXTMAX
 10
-1.000000000000000E+20
 20
-1.000000000000000E+20
 30
-1.000000000000000E+20
  9
$PLIMMIN
 10
0.0
 20
0.0
  9
$PLIMMAX
 10
420.0
 20
297.0
  9
$UNITMODE
 70
     0
  9
$VISRETAIN
 70
     0
  9
$PLINEGEN
 70
     0
  9
$PSLTSCALE
 70
     0
  9
$TREEDEPTH
 70
  3020
  9
$CMLSTYLE
  2
STANDARD
  9
$CMLJUST
 70
     0
  9
$CMLSCALE
 40
1.0
  9
$PROXYGRAPHICS
 70
     1
  9
$MEASUREMENT
 70
     1
  9
$CELWEIGHT
370
    -1
  9
$ENDCAPS
280
     0
  9
$JOINSTYLE
280
     0
  9
$LWDISPLAY
290
     0
  9
$INSUNITS
 70
     0
  9
$HYPERLINKBASE
  1

  9
$STYLESHEET
  1

  9
$XEDIT
290
     1
  9
$CEPSNTYPE
380
     0
  9
$PSTYLEMODE
290
     1
  9
$FINGERPRINTGUID
  2
{5EAC461A-2277-4BF8-9AB0-99C43BB394F0}
  9
$VERSIONGUID
  2
{07C89945-6288-4A1F-99DC-1F190BE83880}
  9
$EXTNAMES
290
     1
  9
$PSVPSCALE
 40
0.0
  9
$OLESTARTUP
290
     0
  0
ENDSEC
  0
SECTION
  2
CLASSES
  0
CLASS
  1
ACDBDICTIONARYWDFLT
  2
AcDbDictionaryWithDefault
  3
ObjectDBX Classes
 90
        0
280
     0
281
     0
  0
CLASS
  1
DICTIONARYVAR
  2
AcDbDictionaryVar
  3
ObjectDBX Classes
 90
        0
280
     0
281
     0
  0
CLASS
  1
ACDBPLACEHOLDER
  2
AcDbPlaceHolder
  3
ObjectDBX Classes
 90
        0
280
     0
281
     0
  0
CLASS
  1
LAYOUT
  2
AcDbLayout
  3
ObjectDBX Classes
 90
        0
280
     0
281
     0
  0
ENDSEC
  0
SECTION
  2
TABLES
  0
TABLE
  2
VPORT
  5
746D
330
0
100
AcDbSymbolTable
 70
     2
  0
VPORT
  5
225D9
330
746D
100
AcDbSymbolTableRecord
100
AcDbViewportTableRecord
  2
*Active
 70
     0
 10
0.0
 20
0.0
 11
1.0
 21
1.0
 12
8223.761025238502
 22
5855.702754043946
 13
0.0
 23
0.0
 14
10.0
 24
10.0
 15
10.0
 25
10.0
 16
0.0
 26
0.0
 36
1.0
 17
0.0
 27
0.0
 37
0.0
 40
11800.69705489494
 41
1.522222222222222
 42
50.0
 43
0.0
 44
0.0
 50
0.0
 51
0.0
 71
     0
 72
     0
 73
     1
 74
     0
 75
     1
 76
     0
 77
     0
 78
     0
281
     0
 65
     1
110
0.0
120
0.0
130
0.0
111
1.0
121
0.0
131
0.0
112
0.0
122
1.0
132
0.0
 79
     0
146
0.0
  0
ENDTAB
  0
TABLE
  2
LTYPE
  5
746A
330
0
100
AcDbSymbolTable
 70
     5
  0
LTYPE
  5
7477
330
746A
100
AcDbSymbolTableRecord
100
AcDbLinetypeTableRecord
  2
BYBLOCK
 70
     0
  3

 72
    65
 73
     0
 40
0.0
  0
LTYPE
  5
7478
330
746A
100
AcDbSymbolTableRecord
100
AcDbLinetypeTableRecord
  2
BYLAYER
 70
     0
  3

 72
    65
 73
     0
 40
0.0
  0
LTYPE
  5
7479
330
746A
100
AcDbSymbolTableRecord
100
AcDbLinetypeTableRecord
  2
CONTINUOUS
 70
     0
  3
Solid line
 72
    65
 73
     0
 40
0.0
  0
LTYPE
  5
7816
330
746A
100
AcDbSymbolTableRecord
100
AcDbLinetypeTableRecord
  2
CENTER
 70
     0
  3
____ _ ____ _ ____ _ ____ _ ____ _ ____ _ ____ 
 72
    65
 73
     4
 40
2.0
 49
1.25
 74
     0
 49
-0.25
 74
     0
 49
0.25
 74
     0
 49
-0.25
 74
     0
  0
LTYPE
  5
781A
330
746A
100
AcDbSymbolTableRecord
100
AcDbLinetypeTableRecord
  2
HIDDEN
 70
     0
  3
__ __ __ __ __ __ __ __ __ __ __ __ __ __ __ __
 72
    65
 73
     2
 40
0.375
 49
0.25
 74
     0
 49
-0.125
 74
     0
  0
LTYPE
  5
781B
330
746A
100
AcDbSymbolTableRecord
100
AcDbLinetypeTableRecord
  2
PHANTOM
 70
     0
  3
______  __  __  ______  __  __  ______  __  __ 
 72
    65
 73
     6
 40
2.5
 49
1.25
 74
     0
 49
-0.25
 74
     0
 49
0.25
 74
     0
 49
-0.25
 74
     0
 49
0.25
 74
     0
 49
-0.25
 74
     0
  0
LTYPE
  5
12CC3
330
746A
100
AcDbSymbolTableRecord
100
AcDbLinetypeTableRecord
  2
HIDDENX2
 70
     0
  3
Hidden (2x) ____ ____ ____ ____ ____ ____ ____
 72
    65
 73
     2
 40
19.05
 49
12.7
 74
     0
 49
-6.349999999999999
 74
     0
  0
ENDTAB
  0
TABLE
  2
LAYER
  5
7467
102
{ACAD_XDICTIONARY
360
1758F
102
}
330
0
100
AcDbSymbolTable
 70
    12
  0
LAYER
  5
7474
330
7467
100
AcDbSymbolTableRecord
100
AcDbLayerTableRecord
  2
0
 70
     0
 62
     7
  6
CONTINUOUS
370
    -3
390
173D0
  0
LAYER
  5
DEB2
330
7467
100
AcDbSymbolTableRecord
100
AcDbLayerTableRecord
  2
センター
 70
     0
 62
     3
  6
CENTER
370
    -3
390
173D0
  0
LAYER
  5
DEB3
330
7467
100
AcDbSymbolTableRecord
100
AcDbLayerTableRecord
  2
寸法
 70
     0
 62
     4
  6
CONTINUOUS
370
    -3
390
173D0
  0
LAYER
  5
DEB4
330
7467
100
AcDbSymbolTableRecord
100
AcDbLayerTableRecord
  2
部品1
 70
     0
 62
     7
  6
CONTINUOUS
370
    -3
390
173D0
  0
LAYER
  5
DEB5
330
7467
100
AcDbSymbolTableRecord
100
AcDbLayerTableRecord
  2
補助
 70
     0
 62
    -1
  6
CONTINUOUS
370
    -3
390
173D0
  0
LAYER
  5
DEB6
330
7467
100
AcDbSymbolTableRecord
100
AcDbLayerTableRecord
  2
文字
 70
     0
 62
     7
  6
CONTINUOUS
370
    -3
390
173D0
  0
LAYER
  5
F255
330
7467
100
AcDbSymbolTableRecord
100
AcDbLayerTableRecord
  2
DEFPOINTS
 70
     0
 62
     7
  6
CONTINUOUS
290
     0
370
    -3
390
173D0
  0
LAYER
  5
10B54
330
7467
100
AcDbSymbolTableRecord
100
AcDbLayerTableRecord
  2
仕様書枠
 70
     0
 62
   230
  6
CONTINUOUS
370
    -3
390
173D0
  0
LAYER
  5
11729
330
7467
100
AcDbSymbolTableRecord
100
AcDbLayerTableRecord
  2
Ｇ．Ｌ
 70
     0
 62
    30
  6
CONTINUOUS
370
    -3
390
173D0
  0
LAYER
  5
1173F
330
7467
100
AcDbSymbolTableRecord
100
AcDbLayerTableRecord
  2
細線
 70
     0
 62
     5
  6
CONTINUOUS
370
    -3
390
173D0
  0
LAYER
  5
12CC4
330
7467
100
AcDbSymbolTableRecord
100
AcDbLayerTableRecord
  2
想像線
 70
     0
 62
     6
  6
PHANTOM
370
    -3
390
173D0
  0
LAYER
  5
142E2
330
7467
100
AcDbSymbolTableRecord
100
AcDbLayerTableRecord
  2
破線
 70
     0
 62
     2
  6
HIDDEN
370
    -3
390
173D0
  0
ENDTAB
  0
TABLE
  2
STYLE
  5
7468
330
0
100
AcDbSymbolTable
 70
     7
  0
STYLE
  5
7475
330
7468
100
AcDbSymbolTableRecord
100
AcDbTextStyleTableRecord
  2
STANDARD
 70
     0
 40
0.0
 41
1.0
 50
0.0
 71
     0
 42
4.0
  3
txt
  4
C:\AutoCAD LT\bigfont.shx
  0
STYLE
  5
763C
330
7468
100
AcDbSymbolTableRecord
100
AcDbTextStyleTableRecord
  2
MSMINCHO
 70
     0
 40
0.0
 41
1.0
 50
0.0
 71
     0
 42
1.199999999999999
  3
C:\AutoCAD LT\msminch2.TTF
  4

  0
STYLE
  5
F706
330
7468
100
AcDbSymbolTableRecord
100
AcDbTextStyleTableRecord
  2
STYLE1
 70
     0
 40
0.0
 41
1.0
 50
0.0
 71
     0
 42
4.0
  3
isocp.shx
  4
bigfont.shx
  0
STYLE
  5
103BF
330
7468
100
AcDbSymbolTableRecord
100
AcDbTextStyleTableRecord
  2
STYLE2
 70
     0
 40
0.0
 41
1.0
 50
0.0
 71
     0
 42
100.0
  3
MS PGothic.ttf
  4

1001
ACAD
1000
MS PGothic
1071
    32818
  0
STYLE
  5
10BAA
330
7468
100
AcDbSymbolTableRecord
100
AcDbTextStyleTableRecord
  2
STYLE3
 70
     0
 40
0.0
 41
1.0
 50
0.0
 71
     0
 42
100.0
  3

  4

1001
ACAD
1000
DFPGothic-EB
1071
    32818
  0
STYLE
  5
11A15
330
7468
100
AcDbSymbolTableRecord
100
AcDbTextStyleTableRecord
  2
MSGOTHIC
 70
     0
 40
0.0
 41
1.0
 50
0.0
 71
     0
 42
3.5
  3
msgothi2.ttf
  4

  0
STYLE
  5
13E96
330
7468
100
AcDbSymbolTableRecord
100
AcDbTextStyleTableRecord
  2
MSPゴシック
 70
     0
 40
0.0
 41
1.0
 50
0.0
 71
     0
 42
4.0
  3
MS PGothic.ttf
  4

1001
ACAD
1000
MS PGothic
1071
    32818
  0
ENDTAB
  0
TABLE
  2
VIEW
  5
746B
330
0
100
AcDbSymbolTable
 70
     0
  0
ENDTAB
  0
TABLE
  2
UCS
  5
746C
330
0
100
AcDbSymbolTable
 70
     0
  0
ENDTAB
  0
TABLE
  2
APPID
  5
746E
330
0
100
AcDbSymbolTable
 70
     6
  0
APPID
  5
7476
330
746E
100
AcDbSymbolTableRecord
100
AcDbRegAppTableRecord
  2
ACAD
 70
     0
  0
APPID
  5
DEA9
330
746E
100
AcDbSymbolTableRecord
100
AcDbRegAppTableRecord
  2
CONTENTBLOCKICON
 70
     0
  0
APPID
  5
DEAA
330
746E
100
AcDbSymbolTableRecord
100
AcDbRegAppTableRecord
  2
CONTENTBLOCKDESCRIPTION
 70
     0
  0
APPID
  5
E71D
330
746E
100
AcDbSymbolTableRecord
100
AcDbRegAppTableRecord
  2
CONTENTTABDATA
 70
     0
  0
APPID
  5
E71E
330
746E
100
AcDbSymbolTableRecord
100
AcDbRegAppTableRecord
  2
CONTENTCURRENTTAB
 70
     0
  0
APPID
  5
F3BA
330
746E
100
AcDbSymbolTableRecord
100
AcDbRegAppTableRecord
  2
DRAWINGVARIABLESXDATA
 70
     0
  0
ENDTAB
  0
TABLE
  2
DIMSTYLE
  5
746F
330
0
100
AcDbSymbolTable
 70
     6
100
AcDbDimStyleTable
 71
     1
340
F71F
  0
DIMSTYLE
105
7484
330
746F
100
AcDbSymbolTableRecord
100
AcDbDimStyleTableRecord
  2
JIS
 70
     0
 41
2.5
 42
1.0
 43
7.0
 44
1.0
 73
     0
 74
     0
 77
     1
 78
     8
140
2.5
141
0.0
143
0.0394
147
0.0
172
     1
174
     1
175
     1
340
7475
  0
DIMSTYLE
105
F236
330
746F
100
AcDbSymbolTableRecord
100
AcDbDimStyleTableRecord
  2
INABA_S40
 70
     0
 40
40.0
 41
2.5
 42
0.5
 43
7.0
 44
1.5
 73
     0
 74
     0
 77
     3
 78
     8
140
3.0
141
0.0
143
0.0394
147
1.0
172
     1
173
     1
174
     1
175
     1
178
     7
289
     0
340
7475
341
DEAC
343
DEAC
344
DEAC
  0
DIMSTYLE
105
F71F
102
{ACAD_REACTORS
330
1DD07
330
1DCFE
330
1EE10
330
1EE04
330
1E90B
330
1F75A
330
1F75B
330
1F799
330
1F7A3
330
1F7AA
330
1F7AD
330
1F7AF
330
1F7B1
330
1F7B6
330
1F7B9
330
20426
330
2042E
330
206ED
330
2071E
330
2073D
330
21820
330
2184F
330
21854
330
2240C
330
2240D
330
22415
330
2241C
330
2241F
330
2247F
102
}
330
746F
100
AcDbSymbolTableRecord
100
AcDbDimStyleTableRecord
  2
INABA_S40G
 70
     0
 40
40.0
 41
2.5
 42
0.5
 43
7.0
 44
1.5
 73
     0
 74
     0
 77
     3
 78
     8
140
3.0
141
0.0
143
0.0394
147
1.0
172
     1
173
     1
174
     1
178
     7
271
     1
340
F706
341
F770
343
F770
344
F770
  0
DIMSTYLE
105
142E3
330
746F
100
AcDbSymbolTableRecord
100
AcDbDimStyleTableRecord
  2
INABA_S1
 70
     0
 40
0.0
 41
2.5
 42
0.5
 43
7.0
 44
1.5
 73
     0
 74
     0
 77
     3
 78
     8
140
3.0
141
0.0
143
0.0394
146
0.5
147
0.5
172
     1
173
     1
176
   256
177
   256
178
     7
271
     2
272
     2
284
     8
288
     1
340
7475
341
DEAC
343
DEAC
344
DEAC
  0
DIMSTYLE
105
14463
330
746F
100
AcDbSymbolTableRecord
100
AcDbDimStyleTableRecord
  2
INABA_S30G
 70
     0
 40
30.0
 41
2.5
 42
0.5
 43
7.0
 44
1.5
 73
     0
 74
     0
 77
     3
 78
     8
140
3.0
141
0.0
143
0.0394
147
1.0
172
     1
173
     1
174
     1
175
     1
178
     7
271
     1
340
F706
341
F770
343
F770
344
F770
  0
DIMSTYLE
105
1758E
330
746F
100
AcDbSymbolTableRecord
100
AcDbDimStyleTableRecord
  2
INABA_S50G
 70
     0
 41
125.0
 42
25.0
 43
7.0
 44
75.0
 73
     0
 74
     0
 77
     3
 78
     8
140
150.0
141
0.0
143
0.0394
147
25.0
172
     1
173
     1
174
     1
175
     1
178
     7
271
     1
340
F706
341
F770
343
F770
344
F770
  0
ENDTAB
  0
TABLE
  2
BLOCK_RECORD
  5
7466
330
0
100
AcDbSymbolTable
 70
    48
  0
BLOCK_RECORD
  5
747D
330
7466
100
AcDbSymbolTableRecord
100
AcDbBlockTableRecord
  2
*MODEL_SPACE
340
173D5
  0
BLOCK_RECORD
  5
747A
330
7466
100
AcDbSymbolTableRecord
100
AcDbBlockTableRecord
  2
*PAPER_SPACE
340
173D6
  0
BLOCK_RECORD
  5
DEAC
330
7466
100
AcDbSymbolTableRecord
100
AcDbBlockTableRecord
  2
_OPEN
340
0
  0
BLOCK_RECORD
  5
F770
330
7466
100
AcDbSymbolTableRecord
100
AcDbBlockTableRecord
  2
_DOTSMALL
340
0
102
{BLKREFS
331
18C65
331
18C66
331
18C59
331
18C5A
331
18C4D
331
18C4E
331
18C41
331
18C42
331
18C35
331
18C36
331
18C29
331
18C2A
331
18C1D
331
18C1E
331
18C0F
331
18C10
331
18C03
331
18C04
331
18BF5
331
18BF6
331
18BE7
331
18BE8
331
18BD9
331
18BDA
331
18BCD
331
18BCE
331
207A8
331
207A9
331
207C8
331
207C9
331
20C79
331
20C7A
331
20C84
331
20C85
331
20C8D
331
20C8E
331
20C96
331
20C97
331
20CA0
331
20CA1
331
20CBC
331
20CBD
331
20CC6
331
20CC7
331
20CE3
331
20CE4
331
20D00
331
20D01
331
20D09
331
20D0A
331
21578
331
21579
331
21581
331
21582
331
21686
331
21687
331
2168F
331
21690
331
21698
331
21699
331
21A78
331
21A79
331
21E83
331
21E84
331
21F09
331
21F0A
331
21F13
331
21F14
331
21F1D
331
21F1E
331
21F27
331
21F28
331
22589
331
2258A
331
22598
331
22599
331
225A1
331
225A2
331
225AA
331
225AB
331
225B3
331
225B4
331
225BC
331
225BD
102
}
  0
BLOCK_RECORD
  5
164B4
330
7466
100
AcDbSymbolTableRecord
100
AcDbBlockTableRecord
  2
_DOT
340
0
102
{BLKREFS
331
18C73
331
18C74
102
}
  0
BLOCK_RECORD
  5
18BC8
330
7466
100
AcDbSymbolTableRecord
100
AcDbBlockTableRecord
  2
*D3
340
0
  0
BLOCK_RECORD
  5
18BD4
330
7466
100
AcDbSymbolTableRecord
100
AcDbBlockTableRecord
  2
*D4
340
0
  0
BLOCK_RECORD
  5
18BE0
330
7466
100
AcDbSymbolTableRecord
100
AcDbBlockTableRecord
  2
*D5
340
0
  0
BLOCK_RECORD
  5
18BEE
330
7466
100
AcDbSymbolTableRecord
100
AcDbBlockTableRecord
  2
*D6
340
0
  0
BLOCK_RECORD
  5
18BFC
330
7466
100
AcDbSymbolTableRecord
100
AcDbBlockTableRecord
  2
*D7
340
0
  0
BLOCK_RECORD
  5
18C0A
330
7466
100
AcDbSymbolTableRecord
100
AcDbBlockTableRecord
  2
*D8
340
0
  0
BLOCK_RECORD
  5
18C16
330
7466
100
AcDbSymbolTableRecord
100
AcDbBlockTableRecord
  2
*D9
340
0
  0
BLOCK_RECORD
  5
18C24
330
7466
100
AcDbSymbolTableRecord
100
AcDbBlockTableRecord
  2
*D10
340
0
  0
BLOCK_RECORD
  5
18C30
330
7466
100
AcDbSymbolTableRecord
100
AcDbBlockTableRecord
  2
*D11
340
0
  0
BLOCK_RECORD
  5
18C3C
330
7466
100
AcDbSymbolTableRecord
100
AcDbBlockTableRecord
  2
*D12
340
0
  0
BLOCK_RECORD
  5
18C48
330
7466
100
AcDbSymbolTableRecord
100
AcDbBlockTableRecord
  2
*D13
340
0
  0
BLOCK_RECORD
  5
18C54
330
7466
100
AcDbSymbolTableRecord
100
AcDbBlockTableRecord
  2
*D14
340
0
  0
BLOCK_RECORD
  5
18C60
330
7466
100
AcDbSymbolTableRecord
100
AcDbBlockTableRecord
  2
*D15
340
0
  0
BLOCK_RECORD
  5
18C6C
330
7466
100
AcDbSymbolTableRecord
100
AcDbBlockTableRecord
  2
*D16
340
0
  0
BLOCK_RECORD
  5
18C7A
330
7466
100
AcDbSymbolTableRecord
100
AcDbBlockTableRecord
  2
A$C3B1A506B
340
0
  0
BLOCK_RECORD
  5
1C4CA
330
7466
100
AcDbSymbolTableRecord
100
AcDbBlockTableRecord
  2
_NONE
340
0
  0
BLOCK_RECORD
  5
1DDB5
330
7466
100
AcDbSymbolTableRecord
100
AcDbBlockTableRecord
  2
*D19
340
0
  0
BLOCK_RECORD
  5
1DDE3
330
7466
100
AcDbSymbolTableRecord
100
AcDbBlockTableRecord
  2
*D20
340
0
  0
BLOCK_RECORD
  5
1E963
330
7466
100
AcDbSymbolTableRecord
100
AcDbBlockTableRecord
  2
*D21
340
0
  0
BLOCK_RECORD
  5
1EE9F
330
7466
100
AcDbSymbolTableRecord
100
AcDbBlockTableRecord
  2
*D22
340
0
  0
BLOCK_RECORD
  5
1EEE2
330
7466
100
AcDbSymbolTableRecord
100
AcDbBlockTableRecord
  2
*D23
340
0
  0
BLOCK_RECORD
  5
1F7BC
330
7466
100
AcDbSymbolTableRecord
100
AcDbBlockTableRecord
  2
*D24
340
0
  0
BLOCK_RECORD
  5
1F7C8
330
7466
100
AcDbSymbolTableRecord
100
AcDbBlockTableRecord
  2
*D25
340
0
  0
BLOCK_RECORD
  5
1F820
330
7466
100
AcDbSymbolTableRecord
100
AcDbBlockTableRecord
  2
*D26
340
0
  0
BLOCK_RECORD
  5
1F83B
330
7466
100
AcDbSymbolTableRecord
100
AcDbBlockTableRecord
  2
*D27
340
0
  0
BLOCK_RECORD
  5
1F856
330
7466
100
AcDbSymbolTableRecord
100
AcDbBlockTableRecord
  2
*D28
340
0
  0
BLOCK_RECORD
  5
1F863
330
7466
100
AcDbSymbolTableRecord
100
AcDbBlockTableRecord
  2
*D29
340
0
  0
BLOCK_RECORD
  5
1F86F
330
7466
100
AcDbSymbolTableRecord
100
AcDbBlockTableRecord
  2
*D30
340
0
  0
BLOCK_RECORD
  5
1F889
330
7466
100
AcDbSymbolTableRecord
100
AcDbBlockTableRecord
  2
*D31
340
0
  0
BLOCK_RECORD
  5
1F896
330
7466
100
AcDbSymbolTableRecord
100
AcDbBlockTableRecord
  2
*D32
340
0
  0
BLOCK_RECORD
  5
1F8A2
330
7466
100
AcDbSymbolTableRecord
100
AcDbBlockTableRecord
  2
*D33
340
0
  0
BLOCK_RECORD
  5
2048A
330
7466
100
AcDbSymbolTableRecord
100
AcDbBlockTableRecord
  2
*D34
340
0
  0
BLOCK_RECORD
  5
204A6
330
7466
100
AcDbSymbolTableRecord
100
AcDbBlockTableRecord
  2
*D35
340
0
  0
BLOCK_RECORD
  5
206EE
330
7466
100
AcDbSymbolTableRecord
100
AcDbBlockTableRecord
  2
*D36
340
0
  0
BLOCK_RECORD
  5
2071F
330
7466
100
AcDbSymbolTableRecord
100
AcDbBlockTableRecord
  2
*D37
340
0
  0
BLOCK_RECORD
  5
2073E
330
7466
100
AcDbSymbolTableRecord
100
AcDbBlockTableRecord
  2
*D38
340
0
  0
BLOCK_RECORD
  5
21879
330
7466
100
AcDbSymbolTableRecord
100
AcDbBlockTableRecord
  2
*D39
340
0
  0
BLOCK_RECORD
  5
218D7
330
7466
100
AcDbSymbolTableRecord
100
AcDbBlockTableRecord
  2
*D40
340
0
  0
BLOCK_RECORD
  5
218F0
330
7466
100
AcDbSymbolTableRecord
100
AcDbBlockTableRecord
  2
*D41
340
0
  0
BLOCK_RECORD
  5
22539
330
7466
100
AcDbSymbolTableRecord
100
AcDbBlockTableRecord
  2
*D42
340
0
  0
BLOCK_RECORD
  5
22545
330
7466
100
AcDbSymbolTableRecord
100
AcDbBlockTableRecord
  2
*D43
340
0
  0
BLOCK_RECORD
  5
22556
330
7466
100
AcDbSymbolTableRecord
100
AcDbBlockTableRecord
  2
*D44
340
0
  0
BLOCK_RECORD
  5
22562
330
7466
100
AcDbSymbolTableRecord
100
AcDbBlockTableRecord
  2
*D45
340
0
  0
BLOCK_RECORD
  5
2256E
330
7466
100
AcDbSymbolTableRecord
100
AcDbBlockTableRecord
  2
*D46
340
0
  0
BLOCK_RECORD
  5
2257A
330
7466
100
AcDbSymbolTableRecord
100
AcDbBlockTableRecord
  2
*D47
340
0
  0
ENDTAB
  0
ENDSEC
  0
SECTION
  2
BLOCKS
  0
BLOCK
  5
7489
330
747D
100
AcDbEntity
  8
0
100
AcDbBlockBegin
  2
*MODEL_SPACE
 70
     0
 10
0.0
 20
0.0
 30
0.0
  3
*MODEL_SPACE
  1

  0
ENDBLK
  5
748A
330
747D
100
AcDbEntity
  8
0
100
AcDbBlockEnd
  0
BLOCK
  5
7487
330
747A
100
AcDbEntity
 67
     1
  8
0
100
AcDbBlockBegin
  2
*PAPER_SPACE
 70
     0
 10
0.0
 20
0.0
 30
0.0
  3
*PAPER_SPACE
  1

  0
ENDBLK
  5
7488
330
747A
100
AcDbEntity
 67
     1
  8
0
100
AcDbBlockEnd
  0
BLOCK
  5
DEAD
330
DEAC
100
AcDbEntity
  8
0
100
AcDbBlockBegin
  2
_OPEN
 70
     0
 10
0.0
 20
0.0
 30
0.0
  3
_OPEN
  1

  0
LINE
  5
DEAE
330
DEAC
100
AcDbEntity
  8
0
  6
ByBlock
 62
     0
100
AcDbLine
 10
-1.0
 20
0.1666666666666666
 30
0.0
 11
0.0
 21
0.0
 31
0.0
  0
LINE
  5
DEAF
330
DEAC
100
AcDbEntity
  8
0
  6
ByBlock
 62
     0
100
AcDbLine
 10
0.0
 20
0.0
 30
0.0
 11
-1.0
 21
-0.1666666666666666
 31
0.0
  0
LINE
  5
DEB0
330
DEAC
100
AcDbEntity
  8
0
  6
ByBlock
 62
     0
100
AcDbLine
 10
0.0
 20
0.0
 30
0.0
 11
-1.0
 21
0.0
 31
0.0
  0
ENDBLK
  5
DEB1
330
DEAC
100
AcDbEntity
  8
0
100
AcDbBlockEnd
  0
BLOCK
  5
F771
330
F770
100
AcDbEntity
  8
0
 48
50.0
100
AcDbBlockBegin
  2
_DOTSMALL
 70
     0
 10
0.0
 20
0.0
 30
0.0
  3
_DOTSMALL
  1

  0
LWPOLYLINE
  5
F772
330
F770
100
AcDbEntity
  8
0
  6
ByBlock
 62
     0
 48
50.0
100
AcDbPolyline
 90
        2
 70
     1
 43
0.5
 10
-0.0625
 20
0.0
 42
1.0
 10
0.0625
 20
0.0
 42
1.0
  0
ENDBLK
  5
F776
330
F770
100
AcDbEntity
  8
0
 48
50.0
100
AcDbBlockEnd
  0
BLOCK
  5
164BA
330
164B4
100
AcDbEntity
  8
0
 48
50.0
100
AcDbBlockBegin
  2
_DOT
 70
     0
 10
0.0
 20
0.0
 30
0.0
  3
_DOT
  1

  0
LWPOLYLINE
  5
164B5
330
164B4
100
AcDbEntity
  8
0
  6
ByBlock
 62
     0
 48
50.0
100
AcDbPolyline
 90
        2
 70
     1
 43
0.5
 10
-0.25
 20
0.0
 42
1.0
 10
0.25
 20
0.0
 42
1.0
  0
LINE
  5
164B9
330
164B4
100
AcDbEntity
  8
0
  6
ByBlock
 62
     0
 48
50.0
100
AcDbLine
 10
-0.5
 20
0.0
 30
0.0
 11
-1.0
 21
0.0
 31
0.0
  0
ENDBLK
  5
164BB
330
164B4
100
AcDbEntity
  8
0
 48
50.0
100
AcDbBlockEnd
  0
BLOCK
  5
18BC9
330
18BC8
100
AcDbEntity
  8
0
 48
50.0
100
AcDbBlockBegin
  2
*D3
 70
     1
 10
0.0
 20
0.0
 30
0.0
  3
*D3
  1

  0
LINE
  5
18BCA
330
18BC8
100
AcDbEntity
  8
寸法
 62
     0
 48
50.0
370
    -2
100
AcDbLine
 10
7649.896575106999
 20
9636.123139034717
 30
0.0
 11
8702.429862581047
 21
9636.123139034717
 31
0.0
  0
LINE
  5
18BCB
330
18BC8
100
AcDbEntity
  8
寸法
 62
     0
 48
50.0
370
    -2
100
AcDbLine
 10
7649.896575106973
 20
7846.123139034709
 30
0.0
 11
8702.429862581047
 21
7846.123139034709
 31
0.0
  0
LINE
  5
18BCC
330
18BC8
100
AcDbEntity
  8
寸法
 62
     0
 48
50.0
370
    -2
100
AcDbLine
 10
8642.429862581046
 20
9636.123139034717
 30
0.0
 11
8642.429862581046
 21
7846.123139034709
 31
0.0
  0
INSERT
  5
18BCD
330
18BC8
100
AcDbEntity
  8
寸法
 62
     0
 48
50.0
370
    -2
100
AcDbBlockReference
  2
_DOTSMALL
 10
8642.429862581046
 20
9636.123139034717
 30
0.0
 41
100.0
 42
100.0
 43
100.0
 50
90.0
  0
INSERT
  5
18BCE
330
18BC8
100
AcDbEntity
  8
寸法
 62
     0
 48
50.0
370
    -2
100
AcDbBlockReference
  2
_DOTSMALL
 10
8642.429862581046
 20
7846.123139034709
 30
0.0
 41
100.0
 42
100.0
 43
100.0
 50
270.0
  0
MTEXT
  5
18BCF
330
18BC8
100
AcDbEntity
  8
寸法
 62
     7
 48
50.0
100
AcDbMText
 10
8542.429862581045
 20
8741.123139034712
 30
0.0
 40
120.0
 41
0.0
 71
     5
 72
     1
  1
\A1;1790
  7
STYLE1
 11
0.0000000000000001
 21
1.0
 31
0.0
 73
     1
 44
1.0
1001
ACAD
1000
MTEXTBEGIN
1070
    73
1070
     1
1070
    44
1040
1.0
1070
    74
1070
     0
1000
MTEXTEND
  0
POINT
  5
18BD0
330
18BC8
100
AcDbEntity
  8
DEFPOINTS
 62
     0
 48
50.0
100
AcDbPoint
 10
7629.896575106998
 20
9636.123139034717
 30
0.0
  0
POINT
  5
18BD1
330
18BC8
100
AcDbEntity
  8
DEFPOINTS
 62
     0
 48
50.0
100
AcDbPoint
 10
7629.896575106974
 20
7846.123139034709
 30
0.0
  0
POINT
  5
18BD2
330
18BC8
100
AcDbEntity
  8
DEFPOINTS
 62
     0
 48
50.0
100
AcDbPoint
 10
8642.429862581046
 20
7846.123139034709
 30
0.0
  0
ENDBLK
  5
18BD3
330
18BC8
100
AcDbEntity
  8
0
 48
50.0
100
AcDbBlockEnd
  0
BLOCK
  5
18BD5
330
18BD4
100
AcDbEntity
  8
0
 48
50.0
100
AcDbBlockBegin
  2
*D4
 70
     1
 10
0.0
 20
0.0
 30
0.0
  3
*D4
  1

  0
LINE
  5
18BD6
330
18BD4
100
AcDbEntity
  8
寸法
 62
     0
 48
50.0
370
    -2
100
AcDbLine
 10
4214.896575106998
 20
9656.123139034622
 30
0.0
 11
4214.896575106998
 21
10211.93135865972
 31
0.0
  0
LINE
  5
18BD7
330
18BD4
100
AcDbEntity
  8
寸法
 62
     0
 48
50.0
370
    -2
100
AcDbLine
 10
7574.896575106999
 20
9656.123139034718
 30
0.0
 11
7574.896575106999
 21
10211.93135865972
 31
0.0
  0
LINE
  5
18BD8
330
18BD4
100
AcDbEntity
  8
寸法
 62
     0
 48
50.0
370
    -2
100
AcDbLine
 10
4214.896575106998
 20
10151.93135865972
 30
0.0
 11
7574.896575106999
 21
10151.93135865972
 31
0.0
  0
INSERT
  5
18BD9
330
18BD4
100
AcDbEntity
  8
寸法
 62
     0
 48
50.0
370
    -2
100
AcDbBlockReference
  2
_DOTSMALL
 10
4214.896575106998
 20
10151.93135865972
 30
0.0
 41
100.0
 42
100.0
 43
100.0
 50
180.0
  0
INSERT
  5
18BDA
330
18BD4
100
AcDbEntity
  8
寸法
 62
     0
 48
50.0
370
    -2
100
AcDbBlockReference
  2
_DOTSMALL
 10
7574.896575106999
 20
10151.93135865972
 30
0.0
 41
100.0
 42
100.0
 43
100.0
  0
MTEXT
  5
18BDB
330
18BD4
100
AcDbEntity
  8
寸法
 62
     7
 48
50.0
100
AcDbMText
 10
5894.896575106997
 20
10251.94316968334
 30
0.0
 40
120.0
 41
0.0
 71
     5
 72
     1
  1
\A1;8X420=3360
  7
STYLE1
 73
     1
 44
1.0
1001
ACAD
1000
MTEXTBEGIN
1070
    73
1070
     1
1070
    44
1040
1.0
1070
    74
1070
     0
1000
MTEXTEND
  0
POINT
  5
18BDC
330
18BD4
100
AcDbEntity
  8
DEFPOINTS
 62
     0
 48
50.0
100
AcDbPoint
 10
4214.896575106998
 20
9636.123139034623
 30
0.0
  0
POINT
  5
18BDD
330
18BD4
100
AcDbEntity
  8
DEFPOINTS
 62
     0
 48
50.0
100
AcDbPoint
 10
7574.896575106999
 20
9636.123139034717
 30
0.0
  0
POINT
  5
18BDE
330
18BD4
100
AcDbEntity
  8
DEFPOINTS
 62
     0
 48
50.0
100
AcDbPoint
 10
7574.896575106999
 20
10151.93135865972
 30
0.0
  0
ENDBLK
  5
18BDF
330
18BD4
100
AcDbEntity
  8
0
 48
50.0
100
AcDbBlockEnd
  0
BLOCK
  5
18BE1
330
18BE0
100
AcDbEntity
  8
0
 48
50.0
100
AcDbBlockBegin
  2
*D5
 70
     1
 10
0.0
 20
0.0
 30
0.0
  3
*D5
  1

  0
LINE
  5
18BE2
330
18BE0
100
AcDbEntity
  8
寸法
 62
     0
 48
50.0
370
    -2
100
AcDbLine
 10
7574.896575106999
 20
9656.123139034718
 30
0.0
 11
7574.896575106999
 21
10211.9313586597
 31
0.0
  0
LINE
  5
18BE3
330
18BE0
100
AcDbEntity
  8
寸法
 62
     0
 48
50.0
370
    -2
100
AcDbLine
 10
7629.896575106998
 20
9656.123139034718
 30
0.0
 11
7629.896575106998
 21
10211.9313586597
 31
0.0
  0
LINE
  5
18BE4
330
18BE0
100
AcDbEntity
  8
寸法
 62
     0
 48
50.0
370
    -2
100
AcDbLine
 10
7574.896575106999
 20
10151.9313586597
 30
0.0
 11
7474.896575106999
 21
10151.9313586597
 31
0.0
  0
LINE
  5
18BE5
330
18BE0
100
AcDbEntity
  8
寸法
 62
     0
 48
50.0
370
    -2
100
AcDbLine
 10
7629.896575106998
 20
10151.9313586597
 30
0.0
 11
8046.867137855477
 21
10151.9313586597
 31
0.0
  0
LINE
  5
18BE6
330
18BE0
100
AcDbEntity
  8
寸法
 62
     0
 48
50.0
370
    -2
100
AcDbLine
 10
7574.896575106999
 20
10151.9313586597
 30
0.0
 11
7629.896575106998
 21
10151.9313586597
 31
0.0
  0
INSERT
  5
18BE7
330
18BE0
100
AcDbEntity
  8
寸法
 62
     0
 48
50.0
370
    -2
100
AcDbBlockReference
  2
_DOTSMALL
 10
7574.896575106999
 20
10151.9313586597
 30
0.0
 41
100.0
 42
100.0
 43
100.0
  0
INSERT
  5
18BE8
330
18BE0
100
AcDbEntity
  8
寸法
 62
     0
 48
50.0
370
    -2
100
AcDbBlockReference
  2
_DOTSMALL
 10
7629.896575106998
 20
10151.9313586597
 30
0.0
 41
100.0
 42
100.0
 43
100.0
 50
180.0
  0
MTEXT
  5
18BE9
330
18BE0
100
AcDbEntity
  8
寸法
 62
     7
 48
50.0
100
AcDbMText
 10
7938.381856481237
 20
10251.9313586597
 30
0.0
 40
120.0
 41
0.0
 71
     5
 72
     1
  1
\A1;55
  7
STYLE1
 73
     1
 44
1.0
1001
ACAD
1000
MTEXTBEGIN
1070
    73
1070
     1
1070
    44
1040
1.0
1070
    74
1070
     0
1000
MTEXTEND
  0
POINT
  5
18BEA
330
18BE0
100
AcDbEntity
  8
DEFPOINTS
 62
     0
 48
50.0
100
AcDbPoint
 10
7574.896575106999
 20
9636.123139034717
 30
0.0
  0
POINT
  5
18BEB
330
18BE0
100
AcDbEntity
  8
DEFPOINTS
 62
     0
 48
50.0
100
AcDbPoint
 10
7629.896575106998
 20
9636.123139034717
 30
0.0
  0
POINT
  5
18BEC
330
18BE0
100
AcDbEntity
  8
DEFPOINTS
 62
     0
 48
50.0
100
AcDbPoint
 10
7629.896575106998
 20
10151.9313586597
 30
0.0
  0
ENDBLK
  5
18BED
330
18BE0
100
AcDbEntity
  8
0
 48
50.0
100
AcDbBlockEnd
  0
BLOCK
  5
18BEF
330
18BEE
100
AcDbEntity
  8
0
 48
50.0
100
AcDbBlockBegin
  2
*D6
 70
     1
 10
0.0
 20
0.0
 30
0.0
  3
*D6
  1

  0
LINE
  5
18BF0
330
18BEE
100
AcDbEntity
  8
寸法
 62
     0
 48
50.0
370
    -2
100
AcDbLine
 10
7649.896575106999
 20
9636.123139034717
 30
0.0
 11
8337.32292084141
 21
9636.123139034717
 31
0.0
  0
LINE
  5
18BF1
330
18BEE
100
AcDbEntity
  8
寸法
 62
     0
 48
50.0
370
    -2
100
AcDbLine
 10
7649.896575106999
 20
9581.123139034721
 30
0.0
 11
8337.32292084141
 21
9581.123139034721
 31
0.0
  0
LINE
  5
18BF2
330
18BEE
100
AcDbEntity
  8
寸法
 62
     0
 48
50.0
370
    -2
100
AcDbLine
 10
8277.322920841411
 20
9581.123139034721
 30
0.0
 11
8277.322920841411
 21
9481.123139034719
 31
0.0
  0
LINE
  5
18BF3
330
18BEE
100
AcDbEntity
  8
寸法
 62
     0
 48
50.0
370
    -2
100
AcDbLine
 10
8277.322920841411
 20
9636.123139034717
 30
0.0
 11
8277.322920841411
 21
10053.09370178319
 31
0.0
  0
LINE
  5
18BF4
330
18BEE
100
AcDbEntity
  8
寸法
 62
     0
 48
50.0
370
    -2
100
AcDbLine
 10
8277.322920841411
 20
9581.123139034721
 30
0.0
 11
8277.322920841411
 21
9636.123139034717
 31
0.0
  0
INSERT
  5
18BF5
330
18BEE
100
AcDbEntity
  8
寸法
 62
     0
 48
50.0
370
    -2
100
AcDbBlockReference
  2
_DOTSMALL
 10
8277.322920841411
 20
9581.123139034721
 30
0.0
 41
100.0
 42
100.0
 43
100.0
 50
90.0
  0
INSERT
  5
18BF6
330
18BEE
100
AcDbEntity
  8
寸法
 62
     0
 48
50.0
370
    -2
100
AcDbBlockReference
  2
_DOTSMALL
 10
8277.322920841411
 20
9636.123139034717
 30
0.0
 41
100.0
 42
100.0
 43
100.0
 50
270.0
  0
MTEXT
  5
18BF7
330
18BEE
100
AcDbEntity
  8
寸法
 62
     7
 48
50.0
100
AcDbMText
 10
8177.32292084141
 20
9944.608420408957
 30
0.0
 40
120.0
 41
0.0
 71
     5
 72
     1
  1
\A1;55
  7
STYLE1
 11
0.0000000000000001
 21
1.0
 31
0.0
 73
     1
 44
1.0
1001
ACAD
1000
MTEXTBEGIN
1070
    73
1070
     1
1070
    44
1040
1.0
1070
    74
1070
     0
1000
MTEXTEND
  0
POINT
  5
18BF8
330
18BEE
100
AcDbEntity
  8
DEFPOINTS
 62
     0
 48
50.0
100
AcDbPoint
 10
7629.896575106998
 20
9636.123139034717
 30
0.0
  0
POINT
  5
18BF9
330
18BEE
100
AcDbEntity
  8
DEFPOINTS
 62
     0
 48
50.0
100
AcDbPoint
 10
7629.896575106998
 20
9581.123139034721
 30
0.0
  0
POINT
  5
18BFA
330
18BEE
100
AcDbEntity
  8
DEFPOINTS
 62
     0
 48
50.0
100
AcDbPoint
 10
8277.322920841411
 20
9581.123139034721
 30
0.0
  0
ENDBLK
  5
18BFB
330
18BEE
100
AcDbEntity
  8
0
 48
50.0
100
AcDbBlockEnd
  0
BLOCK
  5
18BFD
330
18BFC
100
AcDbEntity
  8
0
 48
50.0
100
AcDbBlockBegin
  2
*D7
 70
     1
 10
0.0
 20
0.0
 30
0.0
  3
*D7
  1

  0
LINE
  5
18BFE
330
18BFC
100
AcDbEntity
  8
寸法
 62
     0
 48
50.0
370
    -2
100
AcDbLine
 10
4159.896575106963
 20
9656.123139034622
 30
0.0
 11
4159.896575106963
 21
10211.9313586596
 31
0.0
  0
LINE
  5
18BFF
330
18BFC
100
AcDbEntity
  8
寸法
 62
     0
 48
50.0
370
    -2
100
AcDbLine
 10
4214.896575106998
 20
9656.123139034622
 30
0.0
 11
4214.896575106998
 21
10211.9313586596
 31
0.0
  0
LINE
  5
18C00
330
18BFC
100
AcDbEntity
  8
寸法
 62
     0
 48
50.0
370
    -2
100
AcDbLine
 10
4214.896575106998
 20
10151.9313586596
 30
0.0
 11
4314.896575106998
 21
10151.9313586596
 31
0.0
  0
LINE
  5
18C01
330
18BFC
100
AcDbEntity
  8
寸法
 62
     0
 48
50.0
370
    -2
100
AcDbLine
 10
4159.896575106963
 20
10151.9313586596
 30
0.0
 11
3742.926012358486
 21
10151.9313586596
 31
0.0
  0
LINE
  5
18C02
330
18BFC
100
AcDbEntity
  8
寸法
 62
     0
 48
50.0
370
    -2
100
AcDbLine
 10
4214.896575106998
 20
10151.9313586596
 30
0.0
 11
4159.896575106963
 21
10151.9313586596
 31
0.0
  0
INSERT
  5
18C03
330
18BFC
100
AcDbEntity
  8
寸法
 62
     0
 48
50.0
370
    -2
100
AcDbBlockReference
  2
_DOTSMALL
 10
4214.896575106998
 20
10151.9313586596
 30
0.0
 41
100.0
 42
100.0
 43
100.0
 50
180.0
  0
INSERT
  5
18C04
330
18BFC
100
AcDbEntity
  8
寸法
 62
     0
 48
50.0
370
    -2
100
AcDbBlockReference
  2
_DOTSMALL
 10
4159.896575106963
 20
10151.9313586596
 30
0.0
 41
100.0
 42
100.0
 43
100.0
  0
MTEXT
  5
18C05
330
18BFC
100
AcDbEntity
  8
寸法
 62
     7
 48
50.0
100
AcDbMText
 10
3851.411293732725
 20
10251.9313586596
 30
0.0
 40
120.0
 41
0.0
 71
     5
 72
     1
  1
\A1;55
  7
STYLE1
 73
     1
 44
1.0
1001
ACAD
1000
MTEXTBEGIN
1070
    73
1070
     1
1070
    44
1040
1.0
1070
    74
1070
     0
1000
MTEXTEND
  0
POINT
  5
18C06
330
18BFC
100
AcDbEntity
  8
DEFPOINTS
 62
     0
 48
50.0
100
AcDbPoint
 10
4159.896575106963
 20
9636.123139034623
 30
0.0
  0
POINT
  5
18C07
330
18BFC
100
AcDbEntity
  8
DEFPOINTS
 62
     0
 48
50.0
100
AcDbPoint
 10
4214.896575106998
 20
9636.123139034623
 30
0.0
  0
POINT
  5
18C08
330
18BFC
100
AcDbEntity
  8
DEFPOINTS
 62
     0
 48
50.0
100
AcDbPoint
 10
4214.896575106998
 20
10151.9313586596
 30
0.0
  0
ENDBLK
  5
18C09
330
18BFC
100
AcDbEntity
  8
0
 48
50.0
100
AcDbBlockEnd
  0
BLOCK
  5
18C0B
330
18C0A
100
AcDbEntity
  8
0
 48
50.0
100
AcDbBlockBegin
  2
*D8
 70
     1
 10
0.0
 20
0.0
 30
0.0
  3
*D8
  1

  0
LINE
  5
18C0C
330
18C0A
100
AcDbEntity
  8
寸法
 62
     0
 48
50.0
370
    -2
100
AcDbLine
 10
4159.896575106992
 20
7826.123139034546
 30
0.0
 11
4159.896575106992
 21
6804.372203245664
 31
0.0
  0
LINE
  5
18C0D
330
18C0A
100
AcDbEntity
  8
寸法
 62
     0
 48
50.0
370
    -2
100
AcDbLine
 10
7629.896575106974
 20
7826.123139034674
 30
0.0
 11
7629.896575106974
 21
6804.372203245664
 31
0.0
  0
LINE
  5
18C0E
330
18C0A
100
AcDbEntity
  8
寸法
 62
     0
 48
50.0
370
    -2
100
AcDbLine
 10
4159.896575106992
 20
6864.372203245665
 30
0.0
 11
7629.896575106974
 21
6864.372203245665
 31
0.0
  0
INSERT
  5
18C0F
330
18C0A
100
AcDbEntity
  8
寸法
 62
     0
 48
50.0
370
    -2
100
AcDbBlockReference
  2
_DOTSMALL
 10
4159.896575106992
 20
6864.372203245665
 30
0.0
 41
100.0
 42
100.0
 43
100.0
 50
180.0
  0
INSERT
  5
18C10
330
18C0A
100
AcDbEntity
  8
寸法
 62
     0
 48
50.0
370
    -2
100
AcDbBlockReference
  2
_DOTSMALL
 10
7629.896575106974
 20
6864.372203245665
 30
0.0
 41
100.0
 42
100.0
 43
100.0
  0
MTEXT
  5
18C11
330
18C0A
100
AcDbEntity
  8
寸法
 62
     7
 48
50.0
100
AcDbMText
 10
5911.12376113973
 20
6964.372203245665
 30
0.0
 40
120.0
 41
0.0
 71
     5
 72
     1
  1
\A1;3470
  7
STYLE1
 73
     1
 44
1.0
1001
ACAD
1000
MTEXTBEGIN
1070
    73
1070
     1
1070
    44
1040
1.0
1070
    74
1070
     0
1000
MTEXTEND
  0
POINT
  5
18C12
330
18C0A
100
AcDbEntity
  8
DEFPOINTS
 62
     0
 48
50.0
100
AcDbPoint
 10
4159.896575106992
 20
7846.123139034546
 30
0.0
  0
POINT
  5
18C13
330
18C0A
100
AcDbEntity
  8
DEFPOINTS
 62
     0
 48
50.0
100
AcDbPoint
 10
7629.896575106974
 20
7846.123139034673
 30
0.0
  0
POINT
  5
18C14
330
18C0A
100
AcDbEntity
  8
DEFPOINTS
 62
     0
 48
50.0
100
AcDbPoint
 10
7629.896575106974
 20
6864.372203245665
 30
0.0
  0
ENDBLK
  5
18C15
330
18C0A
100
AcDbEntity
  8
0
 48
50.0
100
AcDbBlockEnd
  0
BLOCK
  5
18C17
330
18C16
100
AcDbEntity
  8
0
 48
50.0
100
AcDbBlockBegin
  2
*D9
 70
     1
 10
0.0
 20
0.0
 30
0.0
  3
*D9
  1

  0
LINE
  5
18C18
330
18C16
100
AcDbEntity
  8
寸法
 62
     0
 48
50.0
370
    -2
100
AcDbLine
 10
7649.896575106973
 20
7901.123139034706
 30
0.0
 11
8337.322920841385
 21
7901.123139034706
 31
0.0
  0
LINE
  5
18C19
330
18C16
100
AcDbEntity
  8
寸法
 62
     0
 48
50.0
370
    -2
100
AcDbLine
 10
7649.896575106973
 20
7846.123139034709
 30
0.0
 11
8337.322920841385
 21
7846.123139034709
 31
0.0
  0
LINE
  5
18C1A
330
18C16
100
AcDbEntity
  8
寸法
 62
     0
 48
50.0
370
    -2
100
AcDbLine
 10
8277.322920841385
 20
7901.123139034706
 30
0.0
 11
8277.322920841385
 21
8001.123139034707
 31
0.0
  0
LINE
  5
18C1B
330
18C16
100
AcDbEntity
  8
寸法
 62
     0
 48
50.0
370
    -2
100
AcDbLine
 10
8277.322920841385
 20
7846.123139034709
 30
0.0
 11
8277.322920841385
 21
7429.152576286229
 31
0.0
  0
LINE
  5
18C1C
330
18C16
100
AcDbEntity
  8
寸法
 62
     0
 48
50.0
370
    -2
100
AcDbLine
 10
8277.322920841385
 20
7901.123139034706
 30
0.0
 11
8277.322920841385
 21
7846.123139034709
 31
0.0
  0
INSERT
  5
18C1D
330
18C16
100
AcDbEntity
  8
寸法
 62
     0
 48
50.0
370
    -2
100
AcDbBlockReference
  2
_DOTSMALL
 10
8277.322920841385
 20
7901.123139034706
 30
0.0
 41
100.0
 42
100.0
 43
100.0
 50
270.0
  0
INSERT
  5
18C1E
330
18C16
100
AcDbEntity
  8
寸法
 62
     0
 48
50.0
370
    -2
100
AcDbBlockReference
  2
_DOTSMALL
 10
8277.322920841385
 20
7846.123139034709
 30
0.0
 41
100.0
 42
100.0
 43
100.0
 50
90.0
  0
MTEXT
  5
18C1F
330
18C16
100
AcDbEntity
  8
寸法
 62
     7
 48
50.0
100
AcDbMText
 10
8177.322920841383
 20
7537.637857660469
 30
0.0
 40
120.0
 41
0.0
 71
     5
 72
     1
  1
\A1;55
  7
STYLE1
 11
0.0000000000000001
 21
1.0
 31
0.0
 73
     1
 44
1.0
1001
ACAD
1000
MTEXTBEGIN
1070
    73
1070
     1
1070
    44
1040
1.0
1070
    74
1070
     0
1000
MTEXTEND
  0
POINT
  5
18C20
330
18C16
100
AcDbEntity
  8
DEFPOINTS
 62
     0
 48
50.0
100
AcDbPoint
 10
7629.896575106974
 20
7901.123139034706
 30
0.0
  0
POINT
  5
18C21
330
18C16
100
AcDbEntity
  8
DEFPOINTS
 62
     0
 48
50.0
100
AcDbPoint
 10
7629.896575106974
 20
7846.123139034709
 30
0.0
  0
POINT
  5
18C22
330
18C16
100
AcDbEntity
  8
DEFPOINTS
 62
     0
 48
50.0
100
AcDbPoint
 10
8277.322920841385
 20
7846.123139034709
 30
0.0
  0
ENDBLK
  5
18C23
330
18C16
100
AcDbEntity
  8
0
 48
50.0
100
AcDbBlockEnd
  0
BLOCK
  5
18C25
330
18C24
100
AcDbEntity
  8
0
 48
50.0
100
AcDbBlockBegin
  2
*D10
 70
     1
 10
0.0
 20
0.0
 30
0.0
  3
*D10
  1

  0
LINE
  5
18C26
330
18C24
100
AcDbEntity
  8
寸法
 62
     0
 48
50.0
370
    -2
100
AcDbLine
 10
6533.037591258376
 20
9136.123139034728
 30
0.0
 11
6465.083950562664
 21
8882.516699399049
 31
0.0
  0
LINE
  5
18C27
330
18C24
100
AcDbEntity
  8
寸法
 62
     0
 48
50.0
370
    -2
100
AcDbLine
 10
7596.037591258388
 20
9136.123139034721
 30
0.0
 11
7528.083950562677
 21
8882.516699399049
 31
0.0
  0
LINE
  5
18C28
330
18C24
100
AcDbEntity
  8
寸法
 62
     0
 48
50.0
370
    -2
100
AcDbLine
 10
6481.160902108531
 20
8942.51669939905
 30
0.0
 11
7544.160902108544
 21
8942.51669939905
 31
0.0
  0
INSERT
  5
18C29
330
18C24
100
AcDbEntity
  8
寸法
 62
     0
 48
50.0
370
    -2
100
AcDbBlockReference
  2
_DOTSMALL
 10
6481.160902108531
 20
8942.51669939905
 30
0.0
 41
100.0
 42
100.0
 43
100.0
 50
180.0
  0
INSERT
  5
18C2A
330
18C24
100
AcDbEntity
  8
寸法
 62
     0
 48
50.0
370
    -2
100
AcDbBlockReference
  2
_DOTSMALL
 10
7544.160902108544
 20
8942.51669939905
 30
0.0
 41
100.0
 42
100.0
 43
100.0
  0
MTEXT
  5
18C2B
330
18C24
100
AcDbEntity
  8
寸法
 62
     7
 48
50.0
100
AcDbMText
 10
7061.28653022935
 20
9042.516699399049
 30
0.0
 40
120.0
 41
0.0
 71
     5
 72
     1
  1
\A1;1063
  7
STYLE1
 73
     1
 44
1.0
1001
ACAD
1000
MTEXTBEGIN
1070
    73
1070
     1
1070
    44
1040
1.0
1070
    74
1070
     0
1000
MTEXTEND
  0
POINT
  5
18C2C
330
18C24
100
AcDbEntity
  8
DEFPOINTS
 62
     0
 48
50.0
100
AcDbPoint
 10
6538.396575106998
 20
9156.123139034727
 30
0.0
  0
POINT
  5
18C2D
330
18C24
100
AcDbEntity
  8
DEFPOINTS
 62
     0
 48
50.0
100
AcDbPoint
 10
7601.39657510701
 20
9156.12313903472
 30
0.0
  0
POINT
  5
18C2E
330
18C24
100
AcDbEntity
  8
DEFPOINTS
 62
     0
 48
50.0
100
AcDbPoint
 10
7544.160902108544
 20
8942.51669939905
 30
0.0
  0
ENDBLK
  5
18C2F
330
18C24
100
AcDbEntity
  8
0
 48
50.0
100
AcDbBlockEnd
  0
BLOCK
  5
18C31
330
18C30
100
AcDbEntity
  8
0
 48
50.0
100
AcDbBlockBegin
  2
*D11
 70
     1
 10
0.0
 20
0.0
 30
0.0
  3
*D11
  1

  0
LINE
  5
18C32
330
18C30
100
AcDbEntity
  8
寸法
 62
     0
 48
50.0
370
    -2
100
AcDbLine
 10
7621.396575106999
 20
9600.764155186094
 30
0.0
 11
8016.754300969024
 21
9494.828371819961
 31
0.0
  0
LINE
  5
18C33
330
18C30
100
AcDbEntity
  8
寸法
 62
     0
 48
50.0
370
    -2
100
AcDbLine
 10
7621.396575106999
 20
9150.764155186099
 30
0.0
 11
8016.754300969024
 21
9044.828371819964
 31
0.0
  0
LINE
  5
18C34
330
18C30
100
AcDbEntity
  8
寸法
 62
     0
 48
50.0
370
    -2
100
AcDbLine
 10
7956.754300969024
 20
9510.905323365827
 30
0.0
 11
7956.754300969024
 21
9060.90532336583
 31
0.0
  0
INSERT
  5
18C35
330
18C30
100
AcDbEntity
  8
寸法
 62
     0
 48
50.0
370
    -2
100
AcDbBlockReference
  2
_DOTSMALL
 10
7956.754300969024
 20
9510.905323365827
 30
0.0
 41
100.0
 42
100.0
 43
100.0
 50
90.0
  0
INSERT
  5
18C36
330
18C30
100
AcDbEntity
  8
寸法
 62
     0
 48
50.0
370
    -2
100
AcDbBlockReference
  2
_DOTSMALL
 10
7956.754300969024
 20
9060.90532336583
 30
0.0
 41
100.0
 42
100.0
 43
100.0
 50
270.0
  0
MTEXT
  5
18C37
330
18C30
100
AcDbEntity
  8
寸法
 62
     7
 48
50.0
100
AcDbMText
 10
7856.754300969022
 20
9285.905323365829
 30
0.0
 40
120.0
 41
0.0
 71
     5
 72
     1
  1
\A1;450
  7
STYLE1
 11
0.0000000000000001
 21
1.0
 31
0.0
 73
     1
 44
1.0
1001
ACAD
1000
MTEXTBEGIN
1070
    73
1070
     1
1070
    44
1040
1.0
1070
    74
1070
     0
1000
MTEXTEND
  0
POINT
  5
18C38
330
18C30
100
AcDbEntity
  8
DEFPOINTS
 62
     0
 48
50.0
100
AcDbPoint
 10
7601.396575106999
 20
9606.123139034718
 30
0.0
  0
POINT
  5
18C39
330
18C30
100
AcDbEntity
  8
DEFPOINTS
 62
     0
 48
50.0
100
AcDbPoint
 10
7601.396575106999
 20
9156.12313903472
 30
0.0
  0
POINT
  5
18C3A
330
18C30
100
AcDbEntity
  8
DEFPOINTS
 62
     0
 48
50.0
100
AcDbPoint
 10
7956.754300969024
 20
9060.90532336583
 30
0.0
  0
ENDBLK
  5
18C3B
330
18C30
100
AcDbEntity
  8
0
 48
50.0
100
AcDbBlockEnd
  0
BLOCK
  5
18C3D
330
18C3C
100
AcDbEntity
  8
0
 48
50.0
100
AcDbBlockBegin
  2
*D12
 70
     1
 10
0.0
 20
0.0
 30
0.0
  3
*D12
  1

  0
LINE
  5
18C3E
330
18C3C
100
AcDbEntity
  8
寸法
 62
     0
 48
50.0
370
    -2
100
AcDbLine
 10
7649.896575106999
 20
9581.123139034721
 30
0.0
 11
8337.32292084141
 21
9581.123139034721
 31
0.0
  0
LINE
  5
18C3F
330
18C3C
100
AcDbEntity
  8
寸法
 62
     0
 48
50.0
370
    -2
100
AcDbLine
 10
7649.896575106973
 20
7901.123139034706
 30
0.0
 11
8337.32292084141
 21
7901.123139034706
 31
0.0
  0
LINE
  5
18C40
330
18C3C
100
AcDbEntity
  8
寸法
 62
     0
 48
50.0
370
    -2
100
AcDbLine
 10
8277.322920841411
 20
9581.123139034721
 30
0.0
 11
8277.322920841411
 21
7901.123139034706
 31
0.0
  0
INSERT
  5
18C41
330
18C3C
100
AcDbEntity
  8
寸法
 62
     0
 48
50.0
370
    -2
100
AcDbBlockReference
  2
_DOTSMALL
 10
8277.322920841411
 20
9581.123139034721
 30
0.0
 41
100.0
 42
100.0
 43
100.0
 50
90.0
  0
INSERT
  5
18C42
330
18C3C
100
AcDbEntity
  8
寸法
 62
     0
 48
50.0
370
    -2
100
AcDbBlockReference
  2
_DOTSMALL
 10
8277.322920841411
 20
7901.123139034706
 30
0.0
 41
100.0
 42
100.0
 43
100.0
 50
270.0
  0
MTEXT
  5
18C43
330
18C3C
100
AcDbEntity
  8
寸法
 62
     7
 48
50.0
100
AcDbMText
 10
8177.311109817788
 20
8741.123139034712
 30
0.0
 40
120.0
 41
0.0
 71
     5
 72
     1
  1
\A1;4X420=1680
  7
STYLE1
 11
0.0000000000000001
 21
1.0
 31
0.0
 73
     1
 44
1.0
1001
ACAD
1000
MTEXTBEGIN
1070
    73
1070
     1
1070
    44
1040
1.0
1070
    74
1070
     0
1000
MTEXTEND
  0
POINT
  5
18C44
330
18C3C
100
AcDbEntity
  8
DEFPOINTS
 62
     0
 48
50.0
100
AcDbPoint
 10
7629.896575106998
 20
9581.123139034721
 30
0.0
  0
POINT
  5
18C45
330
18C3C
100
AcDbEntity
  8
DEFPOINTS
 62
     0
 48
50.0
100
AcDbPoint
 10
7629.896575106974
 20
7901.123139034706
 30
0.0
  0
POINT
  5
18C46
330
18C3C
100
AcDbEntity
  8
DEFPOINTS
 62
     0
 48
50.0
100
AcDbPoint
 10
8277.322920841411
 20
7901.123139034706
 30
0.0
  0
ENDBLK
  5
18C47
330
18C3C
100
AcDbEntity
  8
0
 48
50.0
100
AcDbBlockEnd
  0
BLOCK
  5
18C49
330
18C48
100
AcDbEntity
  8
0
 48
50.0
100
AcDbBlockBegin
  2
*D13
 70
     1
 10
0.0
 20
0.0
 30
0.0
  3
*D13
  1

  0
LINE
  5
18C4A
330
18C48
100
AcDbEntity
  8
寸法
 62
     0
 48
50.0
370
    -2
100
AcDbLine
 10
4183.037591258377
 20
9136.123139034619
 30
0.0
 11
4115.083950562663
 21
8882.516699398941
 31
0.0
  0
LINE
  5
18C4B
330
18C48
100
AcDbEntity
  8
寸法
 62
     0
 48
50.0
370
    -2
100
AcDbLine
 10
5246.037591258307
 20
9136.123139034671
 30
0.0
 11
5178.08395056258
 21
8882.516699398941
 31
0.0
  0
LINE
  5
18C4C
330
18C48
100
AcDbEntity
  8
寸法
 62
     0
 48
50.0
370
    -2
100
AcDbLine
 10
4131.160902108532
 20
8942.516699398941
 30
0.0
 11
5194.160902108448
 21
8942.516699398941
 31
0.0
  0
INSERT
  5
18C4D
330
18C48
100
AcDbEntity
  8
寸法
 62
     0
 48
50.0
370
    -2
100
AcDbBlockReference
  2
_DOTSMALL
 10
4131.160902108532
 20
8942.516699398941
 30
0.0
 41
100.0
 42
100.0
 43
100.0
 50
180.0
  0
INSERT
  5
18C4E
330
18C48
100
AcDbEntity
  8
寸法
 62
     0
 48
50.0
370
    -2
100
AcDbBlockReference
  2
_DOTSMALL
 10
5194.160902108448
 20
8942.516699398941
 30
0.0
 41
100.0
 42
100.0
 43
100.0
  0
MTEXT
  5
18C4F
330
18C48
100
AcDbEntity
  8
寸法
 62
     7
 48
50.0
100
AcDbMText
 10
4658.986452655306
 20
9042.516699398941
 30
0.0
 40
120.0
 41
0.0
 71
     5
 72
     1
  1
\A1;1063
  7
STYLE1
 73
     1
 44
1.0
1001
ACAD
1000
MTEXTBEGIN
1070
    73
1070
     1
1070
    44
1040
1.0
1070
    74
1070
     0
1000
MTEXTEND
  0
POINT
  5
18C50
330
18C48
100
AcDbEntity
  8
DEFPOINTS
 62
     0
 48
50.0
100
AcDbPoint
 10
4188.396575106999
 20
9156.123139034617
 30
0.0
  0
POINT
  5
18C51
330
18C48
100
AcDbEntity
  8
DEFPOINTS
 62
     0
 48
50.0
100
AcDbPoint
 10
5251.396575106929
 20
9156.123139034672
 30
0.0
  0
POINT
  5
18C52
330
18C48
100
AcDbEntity
  8
DEFPOINTS
 62
     0
 48
50.0
100
AcDbPoint
 10
5194.160902108448
 20
8942.516699398941
 30
0.0
  0
ENDBLK
  5
18C53
330
18C48
100
AcDbEntity
  8
0
 48
50.0
100
AcDbBlockEnd
  0
BLOCK
  5
18C55
330
18C54
100
AcDbEntity
  8
0
 48
50.0
100
AcDbBlockBegin
  2
*D14
 70
     1
 10
0.0
 20
0.0
 30
0.0
  3
*D14
  1

  0
LINE
  5
18C56
330
18C54
100
AcDbEntity
  8
寸法
 62
     0
 48
50.0
370
    -2
100
AcDbLine
 10
5274.037591258307
 20
9136.123139034669
 30
0.0
 11
5206.08395056258
 21
8882.516699398941
 31
0.0
  0
LINE
  5
18C57
330
18C54
100
AcDbEntity
  8
寸法
 62
     0
 48
50.0
370
    -2
100
AcDbLine
 10
6505.037591258377
 20
9136.123139034662
 30
0.0
 11
6437.083950562653
 21
8882.516699398941
 31
0.0
  0
LINE
  5
18C58
330
18C54
100
AcDbEntity
  8
寸法
 62
     0
 48
50.0
370
    -2
100
AcDbLine
 10
5222.160902108448
 20
8942.516699398941
 30
0.0
 11
6453.16090210852
 21
8942.516699398941
 31
0.0
  0
INSERT
  5
18C59
330
18C54
100
AcDbEntity
  8
寸法
 62
     0
 48
50.0
370
    -2
100
AcDbBlockReference
  2
_DOTSMALL
 10
5222.160902108448
 20
8942.516699398941
 30
0.0
 41
100.0
 42
100.0
 43
100.0
 50
180.0
  0
INSERT
  5
18C5A
330
18C54
100
AcDbEntity
  8
寸法
 62
     0
 48
50.0
370
    -2
100
AcDbBlockReference
  2
_DOTSMALL
 10
6453.16090210852
 20
8942.516699398941
 30
0.0
 41
100.0
 42
100.0
 43
100.0
  0
MTEXT
  5
18C5B
330
18C54
100
AcDbEntity
  8
寸法
 62
     7
 48
50.0
100
AcDbMText
 10
6081.244808320626
 20
9042.528510422561
 30
0.0
 40
120.0
 41
0.0
 71
     5
 72
     1
  1
\A1;1231
  7
STYLE1
 73
     1
 44
1.0
1001
ACAD
1000
MTEXTBEGIN
1070
    73
1070
     1
1070
    44
1040
1.0
1070
    74
1070
     0
1000
MTEXTEND
  0
POINT
  5
18C5C
330
18C54
100
AcDbEntity
  8
DEFPOINTS
 62
     0
 48
50.0
100
AcDbPoint
 10
5279.396575106929
 20
9156.123139034669
 30
0.0
  0
POINT
  5
18C5D
330
18C54
100
AcDbEntity
  8
DEFPOINTS
 62
     0
 48
50.0
100
AcDbPoint
 10
6510.396575106999
 20
9156.123139034662
 30
0.0
  0
POINT
  5
18C5E
330
18C54
100
AcDbEntity
  8
DEFPOINTS
 62
     0
 48
50.0
100
AcDbPoint
 10
6453.16090210852
 20
8942.516699398941
 30
0.0
  0
ENDBLK
  5
18C5F
330
18C54
100
AcDbEntity
  8
0
 48
50.0
100
AcDbBlockEnd
  0
BLOCK
  5
18C61
330
18C60
100
AcDbEntity
  8
0
 48
50.0
100
AcDbBlockBegin
  2
*D15
 70
     1
 10
0.0
 20
0.0
 30
0.0
  3
*D15
  1

  0
LINE
  5
18C62
330
18C60
100
AcDbEntity
  8
寸法
 62
     0
 48
50.0
370
    -2
100
AcDbLine
 10
5065.896575106966
 20
7749.123139034579
 30
0.0
 11
5065.896575106966
 21
7099.952920982538
 31
0.0
  0
LINE
  5
18C63
330
18C60
100
AcDbEntity
  8
寸法
 62
     0
 48
50.0
370
    -2
100
AcDbLine
 10
6331.896575106966
 20
7749.123139034579
 30
0.0
 11
6331.896575106966
 21
7099.952920982538
 31
0.0
  0
LINE
  5
18C64
330
18C60
100
AcDbEntity
  8
寸法
 62
     0
 48
50.0
370
    -2
100
AcDbLine
 10
5065.896575106966
 20
7159.952920982537
 30
0.0
 11
6331.896575106966
 21
7159.952920982537
 31
0.0
  0
INSERT
  5
18C65
330
18C60
100
AcDbEntity
  8
寸法
 62
     0
 48
50.0
370
    -2
100
AcDbBlockReference
  2
_DOTSMALL
 10
5065.896575106966
 20
7159.952920982537
 30
0.0
 41
100.0
 42
100.0
 43
100.0
 50
180.0
  0
INSERT
  5
18C66
330
18C60
100
AcDbEntity
  8
寸法
 62
     0
 48
50.0
370
    -2
100
AcDbBlockReference
  2
_DOTSMALL
 10
6331.896575106966
 20
7159.952920982537
 30
0.0
 41
100.0
 42
100.0
 43
100.0
  0
MTEXT
  5
18C67
330
18C60
100
AcDbEntity
  8
寸法
 62
     7
 48
50.0
100
AcDbMText
 10
5711.986008735934
 20
7359.964732006159
 30
0.0
 40
120.0
 41
0.0
 71
     5
 72
     1
  1
\A1;有効開口部間口\P1266
  7
STYLE1
 73
     1
 44
1.0
1001
ACAD
1000
MTEXTBEGIN
1070
    73
1070
     1
1070
    44
1040
1.0
1070
    74
1070
     0
1000
MTEXTEND
  0
POINT
  5
18C68
330
18C60
100
AcDbEntity
  8
DEFPOINTS
 62
     0
 48
50.0
100
AcDbPoint
 10
5065.896575106966
 20
7769.123139034579
 30
0.0
  0
POINT
  5
18C69
330
18C60
100
AcDbEntity
  8
DEFPOINTS
 62
     0
 48
50.0
100
AcDbPoint
 10
6331.896575106966
 20
7769.123139034579
 30
0.0
  0
POINT
  5
18C6A
330
18C60
100
AcDbEntity
  8
DEFPOINTS
 62
     0
 48
50.0
100
AcDbPoint
 10
6331.896575106966
 20
7159.952920982537
 30
0.0
  0
ENDBLK
  5
18C6B
330
18C60
100
AcDbEntity
  8
0
 48
50.0
100
AcDbBlockEnd
  0
BLOCK
  5
18C6D
330
18C6C
100
AcDbEntity
  8
0
 48
50.0
100
AcDbBlockBegin
  2
*D16
 70
     1
 10
0.0
 20
0.0
 30
0.0
  3
*D16
  1

  0
LINE
  5
18C6E
330
18C6C
100
AcDbEntity
  8
寸法
 62
     0
 48
50.0
370
    -2
100
AcDbLine
 10
7200.896575106966
 20
7846.123139034578
 30
0.0
 11
7457.192158500191
 21
7846.123139034578
 31
0.0
  0
LINE
  5
18C6F
330
18C6C
100
AcDbEntity
  8
寸法
 62
     0
 48
50.0
370
    -2
100
AcDbLine
 10
7199.896575106966
 20
7769.123139034579
 30
0.0
 11
7457.192158500191
 21
7769.123139034579
 31
0.0
  0
LINE
  5
18C70
330
18C6C
100
AcDbEntity
  8
寸法
 62
     0
 48
50.0
370
    -2
100
AcDbLine
 10
7417.192158500192
 20
7866.123139034579
 30
0.0
 11
7417.192158500192
 21
7886.123139034578
 31
0.0
  0
LINE
  5
18C71
330
18C6C
100
AcDbEntity
  8
寸法
 62
     0
 48
50.0
370
    -2
100
AcDbLine
 10
7417.192158500192
 20
7749.123139034579
 30
0.0
 11
7417.192158500192
 21
7533.123139034573
 31
0.0
  0
LINE
  5
18C72
330
18C6C
100
AcDbEntity
  8
寸法
 62
     0
 48
50.0
370
    -2
100
AcDbLine
 10
7417.192158500192
 20
7846.123139034578
 30
0.0
 11
7417.192158500192
 21
7769.123139034579
 31
0.0
  0
INSERT
  5
18C73
330
18C6C
100
AcDbEntity
  8
寸法
 62
     0
 48
50.0
370
    -2
100
AcDbBlockReference
  2
_DOT
 10
7417.192158500192
 20
7846.123139034578
 30
0.0
 41
20.0
 42
20.0
 43
20.0
 50
270.0
  0
INSERT
  5
18C74
330
18C6C
100
AcDbEntity
  8
寸法
 62
     0
 48
50.0
370
    -2
100
AcDbBlockReference
  2
_DOT
 10
7417.192158500192
 20
7769.123139034579
 30
0.0
 41
20.0
 42
20.0
 43
20.0
 50
90.0
  0
MTEXT
  5
18C75
330
18C6C
100
AcDbEntity
  8
寸法
 62
     7
 48
50.0
100
AcDbMText
 10
7325.192158500191
 20
7631.123139034575
 30
0.0
 40
120.0
 41
0.0
 71
     5
 72
     1
  1
\A1;77
  7
STYLE1
 11
0.0000000000000001
 21
1.0
 31
0.0
 73
     1
 44
1.0
1001
ACAD
1000
MTEXTBEGIN
1070
    73
1070
     1
1070
    44
1040
1.0
1070
    74
1070
     0
1000
MTEXTEND
  0
POINT
  5
18C76
330
18C6C
100
AcDbEntity
  8
DEFPOINTS
 62
     0
 48
50.0
100
AcDbPoint
 10
7180.896575106967
 20
7846.123139034578
 30
0.0
  0
POINT
  5
18C77
330
18C6C
100
AcDbEntity
  8
DEFPOINTS
 62
     0
 48
50.0
100
AcDbPoint
 10
7179.896575106965
 20
7769.123139034579
 30
0.0
  0
POINT
  5
18C78
330
18C6C
100
AcDbEntity
  8
DEFPOINTS
 62
     0
 48
50.0
100
AcDbPoint
 10
7417.192158500192
 20
7769.123139034579
 30
0.0
  0
ENDBLK
  5
18C79
330
18C6C
100
AcDbEntity
  8
0
 48
50.0
100
AcDbBlockEnd
  0
BLOCK
  5
18DA0
330
18C7A
100
AcDbEntity
  8
0
 48
50.0
100
AcDbBlockBegin
  2
A$C3B1A506B
 70
     0
 10
0.0
 20
0.0
 30
0.0
  3
A$C3B1A506B
  1

  0
MTEXT
  5
18C7B
330
18C7A
100
AcDbEntity
  8
寸法
 62
     7
 48
50.0
100
AcDbMText
 10
3342.250386887194
 20
2778.329429134012
 30
0.0
 40
96.0
 41
0.0
 71
     5
 72
     1
  1
棚 2段
  7
STYLE1
 73
     1
 44
1.0
1001
ACAD
1000
MTEXTBEGIN
1070
    73
1070
     1
1070
    44
1040
1.0
1070
    74
1070
     0
1000
MTEXTEND
  0
MTEXT
  5
18C7C
330
18C7A
100
AcDbEntity
  8
寸法
 62
     7
 48
50.0
100
AcDbMText
 10
2167.25038688716
 20
2778.329429133986
 30
0.0
 40
96.0
 41
0.0
 71
     5
 72
     1
  1
棚 2段
  7
STYLE1
 73
     1
 44
1.0
1001
ACAD
1000
MTEXTBEGIN
1070
    73
1070
     1
1070
    44
1040
1.0
1070
    74
1070
     0
1000
MTEXTEND
  0
MTEXT
  5
18C7D
330
18C7A
100
AcDbEntity
  8
寸法
 62
     7
 48
50.0
100
AcDbMText
 10
992.2503868871608
 20
2778.329429133935
 30
0.0
 40
96.0
 41
0.0
 71
     5
 72
     1
  1
棚 2段
  7
STYLE1
 73
     1
 44
1.0
1001
ACAD
1000
MTEXTBEGIN
1070
    73
1070
     1
1070
    44
1040
1.0
1070
    74
1070
     0
1000
MTEXTEND
  0
LINE
  5
18C7E
330
18C7A
100
AcDbEntity
  8
細線
 48
50.0
100
AcDbLine
 10
2771.970589276527
 20
1368.994384123192
 30
0.0
 11
3398.970589276523
 21
1368.994384123192
 31
0.0
  0
LINE
  5
18C7F
330
18C7A
100
AcDbEntity
  8
細線
 48
50.0
100
AcDbLine
 10
2117.970593930113
 20
1335.285615569113
 30
0.0
 11
3398.970589276523
 21
1335.285615569113
 31
0.0
  0
LINE
  5
18C80
330
18C7A
100
AcDbEntity
  8
細線
 48
50.0
100
AcDbLine
 10
2076.970593930115
 20
1364.690523565368
 30
0.0
 11
1322.970589276523
 21
1364.690523565367
 31
0.0
  0
LINE
  5
18C81
330
18C7A
100
AcDbEntity
  8
細線
100
AcDbLine
 10
3170.720579860066
 20
1388.494284088199
 30
0.0
 11
3173.052119381877
 21
1393.494286728162
 31
0.0
  0
LINE
  5
18C82
330
18C7A
100
AcDbEntity
  8
細線
100
AcDbLine
 10
3240.720589276525
 20
1388.494269174465
 30
0.0
 11
3238.389042800336
 21
1393.494286728144
 31
0.0
  0
LINE
  5
18C83
330
18C7A
100
AcDbEntity
  8
細線
100
AcDbLine
 10
3238.389042800336
 20
1393.494286728144
 30
0.0
 11
3173.052119381862
 21
1393.494286728133
 31
0.0
  0
LINE
  5
18C84
330
18C7A
100
AcDbEntity
  8
細線
100
AcDbLine
 10
3098.389042800336
 20
1393.494286728144
 30
0.0
 11
3033.052119381862
 21
1393.494286728133
 31
0.0
  0
LINE
  5
18C85
330
18C7A
100
AcDbEntity
  8
細線
100
AcDbLine
 10
3100.720589276523
 20
1388.494269174465
 30
0.0
 11
3098.389042800336
 21
1393.494286728144
 31
0.0
  0
LINE
  5
18C86
330
18C7A
100
AcDbEntity
  8
細線
100
AcDbLine
 10
3030.720579860066
 20
1388.494284088199
 30
0.0
 11
3033.052119381875
 21
1393.494286728162
 31
0.0
  0
LINE
  5
18C87
330
18C7A
100
AcDbEntity
  8
細線
100
AcDbLine
 10
2890.720589276525
 20
1388.494269174465
 30
0.0
 11
2893.052128798336
 21
1393.494271814428
 31
0.0
  0
LINE
  5
18C88
330
18C7A
100
AcDbEntity
  8
細線
100
AcDbLine
 10
2960.720598692984
 20
1388.494254260731
 30
0.0
 11
2958.389052216793
 21
1393.49427181441
 31
0.0
  0
LINE
  5
18C89
330
18C7A
100
AcDbEntity
  8
細線
100
AcDbLine
 10
2958.389052216795
 20
1393.49427181441
 30
0.0
 11
2893.052128798321
 21
1393.494271814399
 31
0.0
  0
LINE
  5
18C8A
330
18C7A
100
AcDbEntity
  8
細線
100
AcDbLine
 10
2667.139038146739
 20
1359.494298590735
 30
0.0
 11
2601.802114728263
 21
1359.494298590724
 31
0.0
  0
LINE
  5
18C8B
330
18C7A
100
AcDbEntity
  8
細線
100
AcDbLine
 10
2669.470584622926
 20
1354.494281037055
 30
0.0
 11
2667.139038146737
 21
1359.494298590735
 31
0.0
  0
LINE
  5
18C8C
330
18C7A
100
AcDbEntity
  8
細線
100
AcDbLine
 10
2599.470575206469
 20
1354.49429595079
 30
0.0
 11
2601.802114728278
 21
1359.494298590752
 31
0.0
  0
LINE
  5
18C8D
330
18C7A
100
AcDbEntity
  8
細線
 48
50.0
100
AcDbLine
 10
2440.853968524536
 20
1372.765132327548
 30
0.0
 11
2446.609486107205
 21
1354.494281037057
 31
0.0
  0
LINE
  5
18C8E
330
18C7A
100
AcDbEntity
  8
細線
 48
50.0
100
AcDbLine
 10
2429.925520044106
 20
1372.765132327546
 30
0.0
 11
2440.853968524536
 21
1372.765132327548
 31
0.0
  0
ARC
  5
18C8F
330
18C7A
100
AcDbEntity
  8
細線
 48
50.0
100
AcDbCircle
 10
2424.471163986787
 20
1374.265132327546
 30
0.0
 40
5.0
100
AcDbArc
 50
204.6243183520723
 51
335.3756816479278
  0
ARC
  5
18C90
330
18C7A
100
AcDbEntity
  8
細線
 48
50.0
100
AcDbCircle
 10
2429.925520044106
 20
1371.765132327546
 30
0.0
 40
1.0
100
AcDbArc
 50
90.0
 51
155.3756816479277
  0
ARC
  5
18C91
330
18C7A
100
AcDbEntity
  8
細線
 48
50.0
100
AcDbCircle
 10
2419.016807929469
 20
1371.765132327546
 30
0.0
 40
1.0
100
AcDbArc
 50
24.62431835207225
 51
90.0
  0
LINE
  5
18C92
330
18C7A
100
AcDbEntity
  8
細線
 48
50.0
100
AcDbLine
 10
2408.088359449037
 20
1372.765132327548
 30
0.0
 11
2419.016807929469
 21
1372.765132327546
 31
0.0
  0
LINE
  5
18C93
330
18C7A
100
AcDbEntity
  8
細線
 48
50.0
100
AcDbLine
 10
2402.33284186637
 20
1354.494281037054
 30
0.0
 11
2408.088359449037
 21
1372.765132327548
 31
0.0
  0
LINE
  5
18C94
330
18C7A
100
AcDbEntity
  8
細線
100
AcDbLine
 10
2458.070304175992
 20
1354.494278397076
 30
0.0
 11
2460.401843697802
 21
1359.494281037039
 31
0.0
  0
LINE
  5
18C95
330
18C7A
100
AcDbEntity
  8
細線
100
AcDbLine
 10
2528.070313592451
 20
1354.494263483342
 30
0.0
 11
2525.738767116262
 21
1359.494281037021
 31
0.0
  0
LINE
  5
18C96
330
18C7A
100
AcDbEntity
  8
細線
100
AcDbLine
 10
2525.738767116262
 20
1359.494281037021
 30
0.0
 11
2460.40184369779
 21
1359.49428103701
 31
0.0
  0
LINE
  5
18C97
330
18C7A
100
AcDbEntity
  8
細線
100
AcDbLine
 10
2387.139046332155
 20
1359.494281037021
 30
0.0
 11
2321.80212291368
 21
1359.49428103701
 31
0.0
  0
LINE
  5
18C98
330
18C7A
100
AcDbEntity
  8
細線
100
AcDbLine
 10
2389.470592808342
 20
1354.494263483342
 30
0.0
 11
2387.139046332153
 21
1359.494281037021
 31
0.0
  0
LINE
  5
18C99
330
18C7A
100
AcDbEntity
  8
細線
100
AcDbLine
 10
2319.470584622926
 20
1354.494281037054
 30
0.0
 11
2321.802122913694
 21
1359.494281037039
 31
0.0
  0
LINE
  5
18C9A
330
18C7A
100
AcDbEntity
  8
細線
100
AcDbLine
 10
2179.47061994182
 20
1354.494289224422
 30
0.0
 11
2181.802158232587
 21
1359.494289224407
 31
0.0
  0
LINE
  5
18C9B
330
18C7A
100
AcDbEntity
  8
細線
100
AcDbLine
 10
2249.470628127236
 20
1354.49427167071
 30
0.0
 11
2247.139081651047
 21
1359.494289224389
 31
0.0
  0
LINE
  5
18C9C
330
18C7A
100
AcDbEntity
  8
細線
100
AcDbLine
 10
2247.139081651047
 20
1359.494289224389
 30
0.0
 11
2181.802158232573
 21
1359.494289224378
 31
0.0
  0
LINE
  5
18C9D
330
18C7A
100
AcDbEntity
  8
細線
100
AcDbLine
 10
1807.970585744697
 20
1320.494460905133
 30
0.0
 11
1810.302124035464
 21
1325.494460905118
 31
0.0
  0
LINE
  5
18C9E
330
18C7A
100
AcDbEntity
  8
細線
100
AcDbLine
 10
1877.970593930113
 20
1320.494443351421
 30
0.0
 11
1875.639047453926
 21
1325.4944609051
 31
0.0
  0
LINE
  5
18C9F
330
18C7A
100
AcDbEntity
  8
細線
100
AcDbLine
 10
1875.639047453926
 20
1325.4944609051
 30
0.0
 11
1810.302124035452
 21
1325.494460905089
 31
0.0
  0
LINE
  5
18CA0
330
18C7A
100
AcDbEntity
  8
細線
100
AcDbLine
 10
2015.639047453926
 20
1325.4944609051
 30
0.0
 11
1950.302124035452
 21
1325.494460905089
 31
0.0
  0
LINE
  5
18CA1
330
18C7A
100
AcDbEntity
  8
細線
100
AcDbLine
 10
2017.970593930113
 20
1320.494443351421
 30
0.0
 11
2015.639047453924
 21
1325.4944609051
 31
0.0
  0
LINE
  5
18CA2
330
18C7A
100
AcDbEntity
  8
細線
100
AcDbLine
 10
1947.970585744697
 20
1320.494460905133
 30
0.0
 11
1950.302124035465
 21
1325.494460905118
 31
0.0
  0
LINE
  5
18CA3
330
18C7A
100
AcDbEntity
  8
細線
100
AcDbLine
 10
1735.639047453926
 20
1325.494460905098
 30
0.0
 11
1670.302124035454
 21
1325.494460905087
 31
0.0
  0
LINE
  5
18CA4
330
18C7A
100
AcDbEntity
  8
細線
100
AcDbLine
 10
1737.970593930113
 20
1320.494443351419
 30
0.0
 11
1735.639047453926
 21
1325.494460905098
 31
0.0
  0
LINE
  5
18CA5
330
18C7A
100
AcDbEntity
  8
細線
100
AcDbLine
 10
1667.970585744697
 20
1320.494460905131
 30
0.0
 11
1670.302124035465
 21
1325.494460905116
 31
0.0
  0
LINE
  5
18CA6
330
18C7A
100
AcDbEntity
  8
細線
100
AcDbLine
 10
1527.970593930113
 20
1320.494460905133
 30
0.0
 11
1530.302132220881
 21
1325.494460905118
 31
0.0
  0
LINE
  5
18CA7
330
18C7A
100
AcDbEntity
  8
細線
100
AcDbLine
 10
1597.970602115529
 20
1320.494443351421
 30
0.0
 11
1595.639055639342
 21
1325.4944609051
 31
0.0
  0
LINE
  5
18CA8
330
18C7A
100
AcDbEntity
  8
細線
100
AcDbLine
 10
1595.639055639342
 20
1325.4944609051
 30
0.0
 11
1530.302132220869
 21
1325.494460905089
 31
0.0
  0
ARC
  5
18CA9
330
18C7A
100
AcDbEntity
  8
部品1
 48
0.01
100
AcDbCircle
 10
1483.470482677778
 20
1319.493338720063
 30
0.0
 40
0.5
100
AcDbArc
 50
270.0
 51
0.0
  0
LINE
  5
18CAA
330
18C7A
100
AcDbEntity
  8
部品1
 48
0.01
100
AcDbLine
 10
1483.970482677778
 20
1320.493338720063
 30
0.0
 11
1483.970482677778
 21
1319.493338720063
 31
0.0
  0
LINE
  5
18CAB
330
18C7A
100
AcDbEntity
  8
部品1
 48
0.01
100
AcDbLine
 10
1483.970482677778
 20
1320.493338720063
 30
0.0
 11
1483.970482677778
 21
1319.493338720063
 31
0.0
  0
LINE
  5
18CAC
330
18C7A
100
AcDbEntity
  8
部品1
 48
0.01
100
AcDbLine
 10
1483.470482677778
 20
1318.993338720063
 30
0.0
 11
1476.857977247713
 21
1318.993338720062
 31
0.0
  0
ARC
  5
18CAD
330
18C7A
100
AcDbEntity
  8
部品1
100
AcDbCircle
 10
1476.926326800494
 20
1319.993338720062
 30
0.0
 40
1.0
100
AcDbArc
 50
160.5287793655865
 51
270.0
  0
ARC
  5
18CAE
330
18C7A
100
AcDbEntity
  8
部品1
100
AcDbCircle
 10
1451.470482677778
 20
1328.993338720062
 30
0.0
 40
26.0
100
AcDbArc
 50
340.5287793655865
 51
0.0
  0
LINE
  5
18CAF
330
18C7A
100
AcDbEntity
  8
部品1
100
AcDbLine
 10
1477.470482677778
 20
1328.993338720062
 30
0.0
 11
1477.470482677778
 21
1333.993338720061
 31
0.0
  0
ARC
  5
18CB0
330
18C7A
100
AcDbEntity
  8
部品1
 48
0.01
100
AcDbCircle
 10
1475.470482677778
 20
1333.993338720061
 30
0.0
 40
2.0
100
AcDbArc
 50
0.0
 51
90.0
  0
ARC
  5
18CB1
330
18C7A
100
AcDbEntity
  8
部品1
100
AcDbCircle
 10
1473.862091052968
 20
1332.993338720062
 30
0.0
 40
3.0
100
AcDbArc
 50
90.0
 51
141.6069559808035
  0
LINE
  5
18CB2
330
18C7A
100
AcDbEntity
  8
部品1
 48
0.01
100
AcDbLine
 10
1475.470482677778
 20
1335.993338720062
 30
0.0
 11
1473.862091052968
 21
1335.993338720062
 31
0.0
  0
ARC
  5
18CB3
330
18C7A
100
AcDbEntity
  8
部品1
100
AcDbCircle
 10
1455.399768463507
 20
1332.293338720065
 30
0.0
 40
3.0
100
AcDbArc
 50
254.0576313943215
 51
270.0
  0
ARC
  5
18CB4
330
18C7A
100
AcDbEntity
  8
部品1
100
AcDbCircle
 10
1462.541196892049
 20
1332.293338720065
 30
0.0
 40
3.0
100
AcDbArc
 50
270.0
 51
285.9423686056786
  0
LINE
  5
18CB5
330
18C7A
100
AcDbEntity
  8
部品1
100
AcDbLine
 10
1462.541196892049
 20
1329.293338720064
 30
0.0
 11
1455.399768463507
 21
1329.293338720064
 31
0.0
  0
ARC
  5
18CB6
330
18C7A
100
AcDbEntity
  8
部品1
100
AcDbCircle
 10
1458.970482677778
 20
1344.793338720065
 30
0.0
 40
16.0
100
AcDbArc
 50
285.9423686056786
 51
321.6069559808035
  0
LINE
  5
18CB7
330
18C7A
100
AcDbEntity
  8
部品1
 48
0.01
100
AcDbLine
 10
1442.470482677778
 20
1335.993338720062
 30
0.0
 11
1444.078874302588
 21
1335.993338720062
 31
0.0
  0
ARC
  5
18CB8
330
18C7A
100
AcDbEntity
  8
部品1
100
AcDbCircle
 10
1444.078874302588
 20
1332.993338720062
 30
0.0
 40
3.0
100
AcDbArc
 50
38.39304401919648
 51
90.0
  0
ARC
  5
18CB9
330
18C7A
100
AcDbEntity
  8
部品1
100
AcDbCircle
 10
1458.970482677778
 20
1344.793338720065
 30
0.0
 40
16.0
100
AcDbArc
 50
218.3930440191965
 51
254.0576313943215
  0
LINE
  5
18CBA
330
18C7A
100
AcDbEntity
  8
部品1
100
AcDbLine
 10
1440.470482677778
 20
1328.993338720062
 30
0.0
 11
1440.470482677778
 21
1333.993338720061
 31
0.0
  0
ARC
  5
18CBB
330
18C7A
100
AcDbEntity
  8
部品1
 48
0.01
100
AcDbCircle
 10
1442.470482677778
 20
1333.993338720061
 30
0.0
 40
2.0
100
AcDbArc
 50
90.0
 51
180.0
  0
ARC
  5
18CBC
330
18C7A
100
AcDbEntity
  8
部品1
100
AcDbCircle
 10
1466.470482677778
 20
1328.993338720062
 30
0.0
 40
26.0
100
AcDbArc
 50
180.0
 51
199.4712206344134
  0
ARC
  5
18CBD
330
18C7A
100
AcDbEntity
  8
部品1
 48
0.01
100
AcDbCircle
 10
1434.470482677778
 20
1319.493338720063
 30
0.0
 40
0.5
100
AcDbArc
 50
180.0
 51
270.0
  0
LINE
  5
18CBE
330
18C7A
100
AcDbEntity
  8
部品1
 48
0.01
100
AcDbLine
 10
1434.470482677778
 20
1318.993338720063
 30
0.0
 11
1441.014638555061
 21
1318.993338720062
 31
0.0
  0
LINE
  5
18CBF
330
18C7A
100
AcDbEntity
  8
部品1
 48
0.01
100
AcDbLine
 10
1433.970482677778
 20
1320.493338720063
 30
0.0
 11
1433.970482677778
 21
1319.493338720063
 31
0.0
  0
ARC
  5
18CC0
330
18C7A
100
AcDbEntity
  8
部品1
100
AcDbCircle
 10
1441.014638555061
 20
1319.993338720062
 30
0.0
 40
1.0
100
AcDbArc
 50
270.0
 51
19.47122063441346
  0
LINE
  5
18CC1
330
18C7A
100
AcDbEntity
  8
細線
100
AcDbLine
 10
1479.470482677785
 20
1338.493338720065
 30
0.0
 11
1438.470482677785
 21
1338.493338720058
 31
0.0
  0
LINE
  5
18CC2
330
18C7A
100
AcDbEntity
  8
細線
100
AcDbLine
 10
1438.470482677785
 20
1338.493338720058
 30
0.0
 11
1438.470482677785
 21
1320.49333872004
 31
0.0
  0
LINE
  5
18CC3
330
18C7A
100
AcDbEntity
  8
細線
100
AcDbLine
 10
1479.470482677785
 20
1338.493338720065
 30
0.0
 11
1479.470482677785
 21
1320.49333872004
 31
0.0
  0
LINE
  5
18CC4
330
18C7A
100
AcDbEntity
  8
細線
100
AcDbLine
 10
1322.970589276523
 20
1324.494269174465
 30
0.0
 11
1322.970589276523
 21
1320.494269174513
 31
0.0
  0
LINE
  5
18CC5
330
18C7A
100
AcDbEntity
  8
寸法
 48
50.0
100
AcDbLine
 10
1746.17359555837
 20
1170.531020743327
 30
0.0
 11
1694.767587648266
 21
1170.531020743327
 31
0.0
  0
LINE
  5
18CC6
330
18C7A
100
AcDbEntity
  8
寸法
 48
50.0
100
AcDbLine
 10
1694.767587648266
 20
1170.531020743327
 30
0.0
 11
1694.767587648266
 21
1201.841179395494
 31
0.0
  0
LINE
  5
18CC7
330
18C7A
100
AcDbEntity
  8
寸法
 48
50.0
100
AcDbLine
 10
1694.767587648266
 20
1201.841179395494
 30
0.0
 11
1665.006255656843
 21
1201.841179395494
 31
0.0
  0
LINE
  5
18CC8
330
18C7A
100
AcDbEntity
  8
寸法
 48
50.0
100
AcDbLine
 10
1665.006255656843
 20
1201.841179395494
 30
0.0
 11
1720.470591603318
 21
1239.420630324105
 31
0.0
  0
LINE
  5
18CC9
330
18C7A
100
AcDbEntity
  8
寸法
 48
50.0
100
AcDbLine
 10
1775.934927549793
 20
1201.841179395494
 30
0.0
 11
1720.470591603318
 21
1239.420630324105
 31
0.0
  0
LINE
  5
18CCA
330
18C7A
100
AcDbEntity
  8
寸法
 48
50.0
100
AcDbLine
 10
1746.17359555837
 20
1201.841179395494
 30
0.0
 11
1775.934927549793
 21
1201.841179395494
 31
0.0
  0
LINE
  5
18CCB
330
18C7A
100
AcDbEntity
  8
寸法
 48
50.0
100
AcDbLine
 10
1746.17359555837
 20
1170.531020743327
 30
0.0
 11
1746.17359555837
 21
1201.841179395494
 31
0.0
  0
LINE
  5
18CCC
330
18C7A
100
AcDbEntity
  8
寸法
 48
50.0
100
AcDbLine
 10
1694.767587648266
 20
1170.531020743327
 30
0.0
 11
1746.17359555837
 21
1170.531020743327
 31
0.0
  0
LINE
  5
18CCD
330
18C7A
100
AcDbEntity
  8
寸法
 48
50.0
100
AcDbLine
 10
2025.339129835225
 20
1227.676611498152
 30
0.0
 11
2025.339129835225
 21
1174.01297691636
 31
0.0
  0
LINE
  5
18CCE
330
18C7A
100
AcDbEntity
  8
寸法
 48
50.0
100
AcDbLine
 10
2114.623348430647
 20
1203.752977228664
 30
0.0
 11
2025.339129835225
 21
1227.676611498152
 31
0.0
  0
LINE
  5
18CCF
330
18C7A
100
AcDbEntity
  8
寸法
 48
50.0
100
AcDbLine
 10
1895.471408254923
 20
1203.752977228664
 30
0.0
 11
2114.623348430647
 21
1203.752977228664
 31
0.0
  0
DIMENSION
  5
18CD0
330
18C7A
100
AcDbEntity
  8
寸法
 48
50.0
100
AcDbDimension
  2
*D15
 10
2588.970589276523
 20
706.3240511224249
 30
0.0
 11
1969.060022905491
 21
706.3240511224249
 31
0.0
 12
-3742.925985830444
 22
-6453.628869860112
 32
0.0
 70
   128
  1
有効開口部間口\P<>
 71
     5
 42
1266.0
  3
INABA_S40G
100
AcDbAlignedDimension
 13
1322.970589276523
 23
1315.494269174465
 33
0.0
 14
2588.970589276523
 24
1315.494269174465
 34
0.0
100
AcDbRotatedDimension
1001
ACAD
1000
DSTYLE
1002
{
1070
   341
1005
0
1002
}
  0
LINE
  5
18CD1
330
18C7A
100
AcDbEntity
  8
部品1
100
AcDbLine
 10
3409.970589276524
 20
1392.494269174465
 30
0.0
 11
3437.970589276523
 21
1392.494269174465
 31
0.0
  0
DIMENSION
  5
18CD2
330
18C7A
100
AcDbEntity
  8
寸法
100
AcDbDimension
  2
*D16
 10
3674.266172669749
 20
1315.494269174465
 30
0.0
 11
3674.266172669748
 21
1177.494269174462
 31
0.0
 12
-3742.925985830444
 22
-6453.628869860112
 32
0.0
 70
   128
 71
     5
 42
77.0
  3
INABA_S40
100
AcDbAlignedDimension
 13
3437.970589276523
 23
1392.494269174465
 33
0.0
 14
3436.970589276523
 24
1315.494269174465
 34
0.0
 50
90.0
100
AcDbRotatedDimension
1001
ACAD
1000
DSTYLE
1002
{
1070
    41
1040
0.5
1070
    44
1040
1.0
1070
   147
1040
0.8
1070
   271
1070
     2
1070
   272
1070
     2
1070
   289
1070
     3
1070
   340
1005
F706
1070
   343
1005
164B4
1070
   344
1005
164B4
1002
}
  0
LINE
  5
18CD3
330
18C7A
100
AcDbEntity
  8
部品1
100
AcDbLine
 10
3437.970589276523
 20
1315.494269174465
 30
0.0
 11
3437.970589276523
 21
1392.494269174465
 31
0.0
  0
LINE
  5
18CD4
330
18C7A
100
AcDbEntity
  8
部品1
100
AcDbLine
 10
3398.970589276523
 20
1388.494269174465
 30
0.0
 11
3409.970589276524
 21
1388.494269174465
 31
0.0
  0
LINE
  5
18CD5
330
18C7A
100
AcDbEntity
  8
部品1
100
AcDbLine
 10
3407.970589276523
 20
1324.494269174465
 30
0.0
 11
3407.970589276523
 21
1315.494269174465
 31
0.0
  0
LINE
  5
18CD6
330
18C7A
100
AcDbEntity
  8
部品1
100
AcDbLine
 10
3398.970589276523
 20
1324.494269174465
 30
0.0
 11
3407.970589276523
 21
1324.494269174465
 31
0.0
  0
LINE
  5
18CD7
330
18C7A
100
AcDbEntity
  8
部品1
100
AcDbLine
 10
3398.970589276523
 20
1388.494269174465
 30
0.0
 11
3398.970589276523
 21
1324.494269174465
 31
0.0
  0
LINE
  5
18CD8
330
18C7A
100
AcDbEntity
  8
部品1
100
AcDbLine
 10
3409.970589276524
 20
1419.494269174465
 30
0.0
 11
3409.970589276524
 21
1388.494269174465
 31
0.0
  0
LINE
  5
18CD9
330
18C7A
100
AcDbEntity
  8
部品1
100
AcDbLine
 10
1322.970589276523
 20
1388.494269174465
 30
0.0
 11
1311.970589276523
 21
1388.494269174465
 31
0.0
  0
LINE
  5
18CDA
330
18C7A
100
AcDbEntity
  8
部品1
100
AcDbLine
 10
1283.970589276523
 20
1392.494269174465
 30
0.0
 11
1311.970589276523
 21
1392.494269174465
 31
0.0
  0
LINE
  5
18CDB
330
18C7A
100
AcDbEntity
  8
部品1
100
AcDbLine
 10
1313.970589276523
 20
1324.494269174465
 30
0.0
 11
1313.970589276523
 21
1315.494269174465
 31
0.0
  0
LINE
  5
18CDC
330
18C7A
100
AcDbEntity
  8
部品1
100
AcDbLine
 10
1322.970589276523
 20
1324.494269174465
 30
0.0
 11
1313.970589276523
 21
1324.494269174465
 31
0.0
  0
LINE
  5
18CDD
330
18C7A
100
AcDbEntity
  8
部品1
100
AcDbLine
 10
1313.970589276523
 20
1315.494269174465
 30
0.0
 11
1283.970589276523
 21
1315.494269174465
 31
0.0
  0
LINE
  5
18CDE
330
18C7A
100
AcDbEntity
  8
部品1
100
AcDbLine
 10
1283.970589276523
 20
1315.494269174465
 30
0.0
 11
1283.970589276523
 21
1392.494269174465
 31
0.0
  0
LINE
  5
18CDF
330
18C7A
100
AcDbEntity
  8
部品1
100
AcDbLine
 10
1322.970589276523
 20
1388.494269174465
 30
0.0
 11
1322.970589276523
 21
1324.494269174465
 31
0.0
  0
LINE
  5
18CE0
330
18C7A
100
AcDbEntity
  8
部品1
100
AcDbLine
 10
1311.970589276523
 20
1419.494269174462
 30
0.0
 11
1311.970589276523
 21
1388.494269174465
 31
0.0
  0
LINE
  5
18CE1
330
18C7A
100
AcDbEntity
  8
部品1
100
AcDbLine
 10
1311.970589276523
 20
1419.494269174462
 30
0.0
 11
3409.970589276524
 21
1419.494269174465
 31
0.0
  0
LINE
  5
18CE2
330
18C7A
100
AcDbEntity
  8
部品1
100
AcDbLine
 10
3407.970589276523
 20
1315.494269174465
 30
0.0
 11
3437.970589276523
 21
1315.494269174465
 31
0.0
  0
LINE
  5
18CE3
330
18C7A
100
AcDbEntity
  8
部品1
100
AcDbLine
 10
1313.970589276523
 20
1315.494269174465
 30
0.0
 11
3410.970589276523
 21
1315.494269174465
 31
0.0
  0
LINE
  5
18CE4
330
18C7A
100
AcDbEntity
  8
細線
  6
Continuous
 62
     5
100
AcDbLine
 10
2689.970589276527
 20
1354.494269174462
 30
0.0
 11
2689.970589276527
 21
1354.494269174462
 31
0.0
  0
LINE
  5
18CE5
330
18C7A
100
AcDbEntity
  8
細線
  6
Continuous
 62
     5
100
AcDbLine
 10
2682.470589276527
 20
1354.494269174462
 30
0.0
 11
2682.470589276527
 21
1354.494269174462
 31
0.0
  0
LINE
  5
18CE6
330
18C7A
100
AcDbEntity
  8
細線
  6
Continuous
 62
     5
100
AcDbLine
 10
2676.470589276527
 20
1354.494269174462
 30
0.0
 11
2676.470589276527
 21
1354.494269174462
 31
0.0
  0
LINE
  5
18CE7
330
18C7A
100
AcDbEntity
  8
細線
  6
Continuous
 62
     5
100
AcDbLine
 10
2743.970589276527
 20
1373.494269174462
 30
0.0
 11
2743.970589276527
 21
1373.494269174462
 31
0.0
  0
LINE
  5
18CE8
330
18C7A
100
AcDbEntity
  8
細線
 48
50.0
100
AcDbLine
 10
1336.970593930116
 20
1341.094443351418
 30
0.0
 11
1336.970593930113
 21
1349.490593759059
 31
0.0
  0
LINE
  5
18CE9
330
18C7A
100
AcDbEntity
  8
細線
 48
50.0
100
AcDbLine
 10
1336.970593930113
 20
1349.490593759059
 30
0.0
 11
1322.970589276523
 21
1349.490593759057
 31
0.0
  0
LINE
  5
18CEA
330
18C7A
100
AcDbEntity
  8
細線
 48
50.0
100
AcDbLine
 10
2087.970593930113
 20
1337.644443351419
 30
0.0
 11
2087.970593930113
 21
1342.494443351421
 31
0.0
  0
LINE
  5
18CEB
330
18C7A
100
AcDbEntity
  8
細線
 48
50.0
100
AcDbLine
 10
2087.970593930113
 20
1342.494443351421
 30
0.0
 11
2102.970593930113
 21
1342.494443351421
 31
0.0
  0
LINE
  5
18CEC
330
18C7A
100
AcDbEntity
  8
細線
 48
50.0
100
AcDbLine
 10
2102.970593930113
 20
1342.494443351421
 30
0.0
 11
2102.970593930115
 21
1349.494443351419
 31
0.0
  0
LINE
  5
18CED
330
18C7A
100
AcDbEntity
  8
細線
 48
50.0
100
AcDbLine
 10
2102.970593930115
 20
1349.494443351419
 30
0.0
 11
2117.970593930113
 21
1349.494443351419
 31
0.0
  0
LINE
  5
18CEE
330
18C7A
100
AcDbEntity
  8
細線
 48
50.0
100
AcDbLine
 10
2117.970593930113
 20
1349.494443351419
 30
0.0
 11
2117.970593930113
 21
1320.494443351421
 31
0.0
  0
LINE
  5
18CEF
330
18C7A
100
AcDbEntity
  8
細線
 48
50.0
100
AcDbLine
 10
1313.970589276523
 20
1320.491777694889
 30
0.0
 11
1527.970593930113
 21
1320.494460905133
 31
0.0
  0
LINE
  5
18CF0
330
18C7A
100
AcDbEntity
  8
細線
 48
50.0
100
AcDbLine
 10
2017.970593930113
 20
1320.494443351421
 30
0.0
 11
2117.970593930113
 21
1320.494443351421
 31
0.0
  0
LINE
  5
18CF1
330
18C7A
100
AcDbEntity
  8
細線
 48
50.0
100
AcDbLine
 10
1737.970593930113
 20
1320.494443351419
 30
0.0
 11
1807.970593930113
 21
1320.494443351423
 31
0.0
  0
LINE
  5
18CF2
330
18C7A
100
AcDbEntity
  8
細線
 48
50.0
100
AcDbLine
 10
1750.832558942642
 20
1320.494443351419
 30
0.0
 11
1756.588076525309
 21
1338.765294641913
 31
0.0
  0
LINE
  5
18CF3
330
18C7A
100
AcDbEntity
  8
細線
 48
50.0
100
AcDbLine
 10
1756.588076525309
 20
1338.765294641913
 30
0.0
 11
1767.516525005743
 21
1338.765294641911
 31
0.0
  0
ARC
  5
18CF4
330
18C7A
100
AcDbEntity
  8
細線
 48
50.0
100
AcDbCircle
 10
1767.516525005743
 20
1337.765294641911
 30
0.0
 40
1.0
100
AcDbArc
 50
24.62431835207225
 51
90.0
  0
ARC
  5
18CF5
330
18C7A
100
AcDbEntity
  8
細線
 48
50.0
100
AcDbCircle
 10
1778.425237120377
 20
1337.765294641911
 30
0.0
 40
1.0
100
AcDbArc
 50
90.0
 51
155.3756816479277
  0
ARC
  5
18CF6
330
18C7A
100
AcDbEntity
  8
細線
 48
50.0
100
AcDbCircle
 10
1772.970881063058
 20
1340.265294641911
 30
0.0
 40
5.0
100
AcDbArc
 50
204.6243183520723
 51
335.3756816479278
  0
LINE
  5
18CF7
330
18C7A
100
AcDbEntity
  8
細線
 48
50.0
100
AcDbLine
 10
1778.425237120377
 20
1338.765294641911
 30
0.0
 11
1789.35368560081
 21
1338.765294641913
 31
0.0
  0
LINE
  5
18CF8
330
18C7A
100
AcDbEntity
  8
細線
 48
50.0
100
AcDbLine
 10
1789.35368560081
 20
1338.765294641913
 30
0.0
 11
1795.109203183478
 21
1320.494443351423
 31
0.0
  0
LINE
  5
18CF9
330
18C7A
100
AcDbEntity
  8
細線
 48
50.0
100
AcDbLine
 10
2087.970593930113
 20
1341.094443351419
 30
0.0
 11
1336.970593930116
 21
1341.094443351418
 31
0.0
  0
LINE
  5
18CFA
330
18C7A
100
AcDbEntity
  8
細線
 48
50.0
100
AcDbLine
 10
1947.970593930113
 20
1320.494443351421
 30
0.0
 11
1877.970593930113
 21
1320.494443351421
 31
0.0
  0
LINE
  5
18CFB
330
18C7A
100
AcDbEntity
  8
細線
100
AcDbLine
 10
1667.970593930113
 20
1320.494443351421
 30
0.0
 11
1597.970602115529
 21
1320.494443351421
 31
0.0
  0
LINE
  5
18CFC
330
18C7A
100
AcDbEntity
  8
細線
 48
50.0
100
AcDbLine
 10
2741.970584622936
 20
1375.094487209288
 30
0.0
 11
2106.970593930113
 21
1375.094487209284
 31
0.0
  0
LINE
  5
18CFD
330
18C7A
100
AcDbEntity
  8
細線
 48
50.0
100
AcDbLine
 10
2106.970593930113
 20
1371.990637616925
 30
0.0
 11
2106.970593930113
 21
1376.490637616925
 31
0.0
  0
LINE
  5
18CFE
330
18C7A
100
AcDbEntity
  8
細線
 48
50.0
100
AcDbLine
 10
2106.970593930113
 20
1376.490637616925
 30
0.0
 11
2091.970593930113
 21
1376.490637616925
 31
0.0
  0
LINE
  5
18CFF
330
18C7A
100
AcDbEntity
  8
細線
 48
50.0
100
AcDbLine
 10
2091.970593930113
 20
1376.490637616925
 30
0.0
 11
2091.970593930113
 21
1383.490637616927
 31
0.0
  0
LINE
  5
18D00
330
18C7A
100
AcDbEntity
  8
細線
 48
50.0
100
AcDbLine
 10
2091.970593930113
 20
1383.490637616927
 30
0.0
 11
2076.970593930115
 21
1383.490637616924
 31
0.0
  0
LINE
  5
18D01
330
18C7A
100
AcDbEntity
  8
細線
 48
50.0
100
AcDbLine
 10
2076.970593930115
 20
1383.490637616924
 30
0.0
 11
2076.970593930115
 21
1345.890409513813
 31
0.0
  0
LINE
  5
18D02
330
18C7A
100
AcDbEntity
  8
細線
 48
50.0
100
AcDbLine
 10
2076.970593930115
 20
1345.890409513813
 30
0.0
 11
2096.970601231289
 21
1345.890451063353
 31
0.0
  0
LINE
  5
18D03
330
18C7A
100
AcDbEntity
  8
細線
 48
50.0
100
AcDbLine
 10
2096.970556362348
 20
1354.493912699161
 30
0.0
 11
2096.970601231289
 21
1345.890451063353
 31
0.0
  0
LINE
  5
18D04
330
18C7A
100
AcDbEntity
  8
細線
 48
50.0
100
AcDbLine
 10
2741.970584622936
 20
1371.644487209287
 30
0.0
 11
2741.970584622936
 21
1376.494487209284
 31
0.0
  0
LINE
  5
18D05
330
18C7A
100
AcDbEntity
  8
細線
 48
50.0
100
AcDbLine
 10
2741.970584622936
 20
1376.494487209284
 30
0.0
 11
2756.970584622934
 21
1376.494487209285
 31
0.0
  0
LINE
  5
18D06
330
18C7A
100
AcDbEntity
  8
細線
 48
50.0
100
AcDbLine
 10
2756.970584622934
 20
1376.494487209285
 30
0.0
 11
2756.970596256909
 21
1383.494487209331
 31
0.0
  0
LINE
  5
18D07
330
18C7A
100
AcDbEntity
  8
細線
 48
50.0
100
AcDbLine
 10
2756.970596256909
 20
1383.494487209331
 30
0.0
 11
2771.970594427439
 21
1383.494487209329
 31
0.0
  0
LINE
  5
18D08
330
18C7A
100
AcDbEntity
  8
細線
 48
50.0
100
AcDbLine
 10
2771.970594427439
 20
1383.494487209329
 30
0.0
 11
2771.970584125617
 21
1354.494281037055
 31
0.0
  0
LINE
  5
18D09
330
18C7A
100
AcDbEntity
  8
細線
 48
50.0
100
AcDbLine
 10
2458.070304175992
 20
1354.494278397076
 30
0.0
 11
2389.470863838818
 21
1354.494283787084
 31
0.0
  0
LINE
  5
18D0A
330
18C7A
100
AcDbEntity
  8
細線
 48
50.0
100
AcDbLine
 10
2096.970556362348
 20
1354.493912699161
 30
0.0
 11
2108.203245717057
 21
1354.494095652309
 31
0.0
  0
ARC
  5
18D0B
330
18C7A
100
AcDbEntity
  8
細線
 48
50.0
100
AcDbCircle
 10
2114.785538024393
 20
1353.294259565922
 30
0.0
 40
1.8
100
AcDbArc
 50
270.0006665777295
 51
345.000555481349
  0
LINE
  5
18D0C
330
18C7A
100
AcDbEntity
  8
細線
 48
50.0
100
AcDbLine
 10
2116.771971470473
 20
1353.753100023201
 30
0.0
 11
2116.524209028273
 21
1352.828402141094
 31
0.0
  0
LINE
  5
18D0D
330
18C7A
100
AcDbEntity
  8
細線
 48
50.0
100
AcDbLine
 10
2114.785558965548
 20
1351.494259566043
 30
0.0
 11
2111.155631546781
 21
1351.494217335563
 31
0.0
  0
ARC
  5
18D0E
330
18C7A
100
AcDbEntity
  8
細線
 48
50.0
100
AcDbCircle
 10
2111.155610605627
 20
1353.29421733544
 30
0.0
 40
1.8
100
AcDbArc
 50
195.0010443049965
 51
270.0006665777295
  0
LINE
  5
18D0F
330
18C7A
100
AcDbEntity
  8
細線
 48
50.0
100
AcDbLine
 10
2109.169183113368
 20
1353.752932303007
 30
0.0
 11
2109.416952609882
 21
1352.828311364425
 31
0.0
  0
ARC
  5
18D10
330
18C7A
100
AcDbEntity
  8
細線
 48
50.0
100
AcDbCircle
 10
2108.203262004622
 20
1353.494095652444
 30
0.0
 40
1.0
100
AcDbArc
 50
15.00104430499651
 51
90.00093320877969
  0
LINE
  5
18D11
330
18C7A
100
AcDbEntity
  8
細線
 48
50.0
100
AcDbLine
 10
2117.737892825577
 20
1354.494290342714
 30
0.0
 11
2118.679652976481
 21
1354.494296916564
 31
0.0
  0
ARC
  5
18D12
330
18C7A
100
AcDbEntity
  8
細線
 48
50.0
100
AcDbCircle
 10
2117.737899805961
 20
1353.49429034274
 30
0.0
 40
1.0
100
AcDbArc
 50
90.0003999466794
 51
165.000555481349
  0
LINE
  5
18D13
330
18C7A
100
AcDbEntity
  8
細線
 48
50.0
100
AcDbLine
 10
2669.470584622926
 20
1354.494281037055
 30
0.0
 11
2771.970584125617
 21
1354.494281037055
 31
0.0
  0
LINE
  5
18D14
330
18C7A
100
AcDbEntity
  8
細線
 48
50.0
100
AcDbLine
 10
2179.47061994182
 20
1354.494289224422
 30
0.0
 11
2118.370558714898
 21
1354.494296916564
 31
0.0
  0
LINE
  5
18D15
330
18C7A
100
AcDbEntity
  8
細線
 48
50.0
100
AcDbLine
 10
2599.470584622926
 20
1354.494281037057
 30
0.0
 11
2529.470584622926
 21
1354.494281037055
 31
0.0
  0
LINE
  5
18D16
330
18C7A
100
AcDbEntity
  8
細線
 48
50.0
100
AcDbLine
 10
2319.470584622926
 20
1354.494281037054
 30
0.0
 11
2249.470567335051
 21
1354.494281037057
 31
0.0
  0
ARC
  5
18D17
330
18C7A
100
AcDbEntity
  8
細線
 48
50.0
100
AcDbCircle
 10
2756.170589276533
 20
1387.694269174466
 30
0.0
 40
0.8
100
AcDbArc
 50
359.9997333689499
 51
89.99986668437072
  0
ARC
  5
18D18
330
18C7A
100
AcDbEntity
  8
細線
 48
50.0
100
AcDbCircle
 10
2763.770596101631
 20
1387.694280343081
 30
0.0
 40
0.8
100
AcDbArc
 50
90.00014387753465
 51
179.9997333689498
  0
LINE
  5
18D19
330
18C7A
100
AcDbEntity
  8
細線
 48
50.0
100
AcDbLine
 10
2756.170591137969
 20
1388.494269174465
 30
0.0
 11
2750.970589276525
 21
1388.494269174465
 31
0.0
  0
ARC
  5
18D1A
330
18C7A
100
AcDbEntity
  8
細線
 48
50.0
100
AcDbCircle
 10
2757.670589276524
 20
1386.194269174464
 30
0.0
 40
0.7
100
AcDbArc
 50
180.0
 51
270.0
  0
ARC
  5
18D1B
330
18C7A
100
AcDbEntity
  8
細線
 48
50.0
100
AcDbCircle
 10
2762.270589276524
 20
1386.194269174464
 30
0.0
 40
0.7
100
AcDbArc
 50
270.0
 51
0.0
  0
LINE
  5
18D1C
330
18C7A
100
AcDbEntity
  8
細線
 48
50.0
100
AcDbLine
 10
2762.970589276525
 20
1386.194269174464
 30
0.0
 11
2762.970596101639
 21
1387.694284065954
 31
0.0
  0
LINE
  5
18D1D
330
18C7A
100
AcDbEntity
  8
細線
 48
50.0
100
AcDbLine
 10
2757.670589276524
 20
1385.494269174465
 30
0.0
 11
2762.270589276524
 21
1385.494269174465
 31
0.0
  0
LINE
  5
18D1E
330
18C7A
100
AcDbEntity
  8
細線
 48
50.0
100
AcDbLine
 10
2756.970589276525
 20
1387.694269174466
 30
0.0
 11
2756.970589276525
 21
1386.194269174464
 31
0.0
  0
LINE
  5
18D1F
330
18C7A
100
AcDbEntity
  8
細線
 48
50.0
100
AcDbLine
 10
3382.570589276527
 20
1418.494269174465
 30
0.0
 11
2745.970589276525
 21
1418.494269174463
 31
0.0
  0
LINE
  5
18D20
330
18C7A
100
AcDbEntity
  8
細線
 48
50.0
100
AcDbLine
 10
3408.470589276525
 20
1413.494269174467
 30
0.0
 11
3392.570589276527
 21
1413.494269174465
 31
0.0
  0
LINE
  5
18D21
330
18C7A
100
AcDbEntity
  8
細線
 48
50.0
100
AcDbLine
 10
3392.570589276526
 20
1413.494269174465
 30
0.0
 11
3382.570589276527
 21
1418.494269174465
 31
0.0
  0
LINE
  5
18D22
330
18C7A
100
AcDbEntity
  8
細線
100
AcDbLine
 10
2993.470589276525
 20
1388.494269174465
 30
0.0
 11
2993.470589276525
 21
1417.794269174464
 31
0.0
  0
LINE
  5
18D23
330
18C7A
100
AcDbEntity
  8
細線
100
AcDbLine
 10
2993.470589276525
 20
1417.794269174464
 30
0.0
 11
3013.470589276525
 21
1417.794269174464
 31
0.0
  0
LINE
  5
18D24
330
18C7A
100
AcDbEntity
  8
細線
100
AcDbLine
 10
3013.470589276525
 20
1388.494269174465
 30
0.0
 11
3013.470589276525
 21
1417.794269174464
 31
0.0
  0
LINE
  5
18D25
330
18C7A
100
AcDbEntity
  8
細線
100
AcDbLine
 10
3170.720589276524
 20
1388.494269174465
 30
0.0
 11
3100.720589276523
 21
1388.494269174465
 31
0.0
  0
LINE
  5
18D26
330
18C7A
100
AcDbEntity
  8
細線
 48
50.0
100
AcDbLine
 10
2890.720589276525
 20
1388.494269174465
 30
0.0
 11
2763.766368849365
 21
1388.494269174465
 31
0.0
  0
LINE
  5
18D27
330
18C7A
100
AcDbEntity
  8
細線
100
AcDbLine
 10
3030.720589276525
 20
1388.494269174465
 30
0.0
 11
2960.720589276525
 21
1388.494269174465
 31
0.0
  0
LINE
  5
18D28
330
18C7A
100
AcDbEntity
  8
細線
 48
50.0
100
AcDbLine
 10
2750.970589276525
 20
1380.494269174465
 30
0.0
 11
2750.970589276525
 21
1388.494269174465
 31
0.0
  0
LINE
  5
18D29
330
18C7A
100
AcDbEntity
  8
細線
 48
50.0
100
AcDbLine
 10
2730.970589276524
 20
1380.494269174467
 30
0.0
 11
2750.970589276525
 21
1380.494269174465
 31
0.0
  0
LINE
  5
18D2A
330
18C7A
100
AcDbEntity
  8
細線
 48
50.0
100
AcDbLine
 10
2745.970589276525
 20
1418.494269174465
 30
0.0
 11
2745.970589276525
 21
1413.494269174465
 31
0.0
  0
LINE
  5
18D2B
330
18C7A
100
AcDbEntity
  8
細線
 48
50.0
100
AcDbLine
 10
2730.970589276525
 20
1418.494269174463
 30
0.0
 11
2745.970589276525
 21
1418.494269174465
 31
0.0
  0
LINE
  5
18D2C
330
18C7A
100
AcDbEntity
  8
細線
 48
50.0
100
AcDbLine
 10
2730.970589276524
 20
1380.494269174467
 30
0.0
 11
2730.970589276525
 21
1418.494269174463
 31
0.0
  0
LINE
  5
18D2D
330
18C7A
100
AcDbEntity
  8
細線
100
AcDbLine
 10
3398.970589276523
 20
1388.494269174465
 30
0.0
 11
3240.720589276525
 21
1388.494269174465
 31
0.0
  0
LINE
  5
18D2E
330
18C7A
100
AcDbEntity
  8
細線
 48
50.0
100
AcDbLine
 10
3408.470589276525
 20
1413.494269174467
 30
0.0
 11
3408.470589276524
 21
1388.494269174465
 31
0.0
  0
TEXT
  5
18D2F
330
18C7A
100
AcDbEntity
  8
部品1
100
AcDbText
 10
1860.154865991392
 20
46.99880823813145
 30
0.0
 40
135.0
  1
平面図
  7
STYLE2
100
AcDbText
  0
LWPOLYLINE
  5
18D30
330
18C7A
100
AcDbEntity
  8
部品1
100
AcDbPolyline
 90
        4
 70
     1
 43
0.0
 10
1770.23525616235
 20
239.8923374566548
 10
1770.23525616235
 20
0.0000159111223184
 10
2533.705922390791
 20
0.0000159111223184
 10
2533.705922390791
 20
239.8923374566548
  0
LINE
  5
18D31
330
18C7A
100
AcDbEntity
  8
部品1
100
AcDbLine
 10
1534.470589276487
 20
3154.494269174626
 30
0.0
 11
2769.470589276552
 21
3154.494269174626
 31
0.0
  0
LINE
  5
18D32
330
18C7A
100
AcDbEntity
  8
部品1
 48
50.0
100
AcDbLine
 10
1311.970589276523
 20
1420.494269174462
 30
0.0
 11
3411.970589276523
 21
1420.494269174465
 31
0.0
  0
LINE
  5
18D33
330
18C7A
100
AcDbEntity
  8
部品1
 48
50.0
100
AcDbLine
 10
471.9705892765232
 20
1392.494269174465
 30
0.0
 11
1311.970589276523
 21
1392.494269174465
 31
0.0
  0
DIMENSION
  5
18D34
330
18C7A
100
AcDbEntity
  8
寸法
100
AcDbDimension
  2
*D14
 10
2710.234916278077
 20
2488.887829538828
 30
0.0
 11
2338.318822490183
 21
2488.887829538828
 31
0.0
 12
-3742.925985830444
 22
-6453.628869860112
 32
0.0
 70
   128
 71
     5
 42
1231.00000000007
  3
INABA_S40G
100
AcDbAlignedDimension
 13
1536.470589276486
 23
2702.494269174557
 33
0.0
 14
2767.470589276556
 24
2702.494269174549
 34
0.0
100
AcDbRotatedDimension
1001
ACAD
1000
DSTYLE
1002
{
1002
}
  0
LINE
  5
18D35
330
18C7A
100
AcDbEntity
  8
部品1
100
AcDbLine
 10
1536.470589276487
 20
2702.494269174557
 30
0.0
 11
2767.470589276554
 21
2702.494269174615
 31
0.0
  0
LINE
  5
18D36
330
18C7A
100
AcDbEntity
  8
部品1
100
AcDbLine
 10
1536.470589276487
 20
3152.494269174557
 30
0.0
 11
2767.470589276556
 21
3152.494269174615
 31
0.0
  0
LINE
  5
18D37
330
18C7A
100
AcDbEntity
  8
細線
 48
50.0
100
AcDbLine
 10
1508.470589276487
 20
3152.494269174558
 30
0.0
 11
445.4705892765559
 21
2702.494269174509
 31
0.0
  0
LINE
  5
18D38
330
18C7A
100
AcDbEntity
  8
細線
 48
50.0
100
AcDbLine
 10
1508.470589276487
 20
2702.494269174558
 30
0.0
 11
445.4705892765542
 21
3152.494269174509
 31
0.0
  0
LINE
  5
18D39
330
18C7A
100
AcDbEntity
  8
部品1
100
AcDbLine
 10
1556.970589276487
 20
3172.494269174611
 30
0.0
 11
1556.970589276487
 21
3154.494269174611
 31
0.0
  0
LINE
  5
18D3A
330
18C7A
100
AcDbEntity
  8
部品1
100
AcDbLine
 10
1556.970589276487
 20
3172.494269174611
 30
0.0
 11
1550.970589276487
 21
3172.494269174611
 31
0.0
  0
LINE
  5
18D3B
330
18C7A
100
AcDbEntity
  8
部品1
100
AcDbLine
 10
1534.470589276487
 20
3146.494269174608
 30
0.0
 11
1509.470589276487
 21
3146.494269174611
 31
0.0
  0
LINE
  5
18D3C
330
18C7A
100
AcDbEntity
  8
部品1
100
AcDbLine
 10
1486.970589276487
 20
3172.494269174611
 30
0.0
 11
1486.970589276487
 21
3154.494269174611
 31
0.0
  0
LINE
  5
18D3D
330
18C7A
100
AcDbEntity
  8
部品1
100
AcDbLine
 10
1492.970589276487
 20
3172.494269174611
 30
0.0
 11
1486.970589276487
 21
3172.494269174611
 31
0.0
  0
LINE
  5
18D3E
330
18C7A
100
AcDbEntity
  8
部品1
100
AcDbLine
 10
1534.470589276487
 20
2702.494269174615
 30
0.0
 11
1509.470589276487
 21
2702.494269174615
 31
0.0
  0
LINE
  5
18D3F
330
18C7A
100
AcDbEntity
  8
部品1
 48
50.0
100
AcDbLine
 10
1536.470589276487
 20
3152.494269174611
 30
0.0
 11
1536.470589276487
 21
2702.494269174615
 31
0.0
  0
LINE
  5
18D40
330
18C7A
100
AcDbEntity
  8
部品1
 48
50.0
100
AcDbLine
 10
1508.470589276487
 20
3152.494269174607
 30
0.0
 11
1508.470589276487
 21
2702.494269174615
 31
0.0
  0
LINE
  5
18D41
330
18C7A
100
AcDbEntity
  8
部品1
 48
50.0
100
AcDbLine
 10
1534.470589276487
 20
3154.494269174618
 30
0.0
 11
1534.470589276487
 21
2702.494269174615
 31
0.0
  0
LINE
  5
18D42
330
18C7A
100
AcDbEntity
  8
部品1
 48
50.0
100
AcDbLine
 10
1509.470589276487
 20
3154.494269174615
 30
0.0
 11
1509.470589276487
 21
2702.494269174615
 31
0.0
  0
LINE
  5
18D43
330
18C7A
100
AcDbEntity
  8
部品1
100
AcDbLine
 10
3411.970589276556
 20
1392.494269174582
 30
0.0
 11
3411.970589276556
 21
1420.494269174596
 31
0.0
  0
LINE
  5
18D44
330
18C7A
100
AcDbEntity
  8
部品1
100
AcDbLine
 10
1311.970589276523
 20
1392.494269174596
 30
0.0
 11
1311.970589276523
 21
1420.494269174596
 31
0.0
  0
LINE
  5
18D45
330
18C7A
100
AcDbEntity
  8
部品1
100
AcDbLine
 10
891.9705892765232
 20
1392.494269174596
 30
0.0
 11
891.9705892765232
 21
1420.494269174596
 31
0.0
  0
LINE
  5
18D46
330
18C7A
100
AcDbEntity
  8
部品1
100
AcDbLine
 10
3411.97058927652
 20
3182.494269174477
 30
0.0
 11
3411.970589276523
 21
3154.494269174477
 31
0.0
  0
LINE
  5
18D47
330
18C7A
100
AcDbEntity
  8
部品1
100
AcDbLine
 10
2571.97058927652
 20
3182.494269174477
 30
0.0
 11
2571.970589276523
 21
3154.494269174477
 31
0.0
  0
LINE
  5
18D48
330
18C7A
100
AcDbEntity
  8
部品1
100
AcDbLine
 10
2991.97058927652
 20
3182.494269174477
 30
0.0
 11
2991.970589276523
 21
3154.494269174477
 31
0.0
  0
LINE
  5
18D49
330
18C7A
100
AcDbEntity
  8
部品1
100
AcDbLine
 10
2151.970589276519
 20
3182.494269174477
 30
0.0
 11
2151.970589276523
 21
3154.494269174477
 31
0.0
  0
LINE
  5
18D4A
330
18C7A
100
AcDbEntity
  8
部品1
100
AcDbLine
 10
1731.970589276519
 20
3182.494269174477
 30
0.0
 11
1731.970589276523
 21
3154.494269174477
 31
0.0
  0
LINE
  5
18D4B
330
18C7A
100
AcDbEntity
  8
部品1
100
AcDbLine
 10
1311.970589276519
 20
3182.494269174477
 30
0.0
 11
1311.970589276523
 21
3154.494269174477
 31
0.0
  0
LINE
  5
18D4C
330
18C7A
100
AcDbEntity
  8
部品1
100
AcDbLine
 10
891.9705892765195
 20
3182.494269174477
 30
0.0
 11
891.9705892765232
 21
3154.494269174477
 31
0.0
  0
LINE
  5
18D4D
330
18C7A
100
AcDbEntity
  8
部品1
100
AcDbLine
 10
471.9705892765232
 20
1392.494269174596
 30
0.0
 11
471.9705892765232
 21
1420.494269174596
 31
0.0
  0
LINE
  5
18D4E
330
18C7A
100
AcDbEntity
  8
部品1
100
AcDbLine
 10
444.9705892765305
 20
1420.494269174558
 30
0.0
 11
3858.970589276556
 21
1420.494269174596
 31
0.0
  0
LINE
  5
18D4F
330
18C7A
100
AcDbEntity
  8
部品1
100
AcDbLine
 10
3831.970589276556
 20
1392.494269174596
 30
0.0
 11
3831.970589276556
 21
1420.494269174596
 31
0.0
  0
LINE
  5
18D50
330
18C7A
100
AcDbEntity
  8
部品1
100
AcDbLine
 10
3858.970589276556
 20
1447.494269174593
 30
0.0
 11
3886.970589276556
 21
1447.494269174593
 31
0.0
  0
LINE
  5
18D51
330
18C7A
100
AcDbEntity
  8
部品1
100
AcDbLine
 10
3858.970589276556
 20
1867.494269174607
 30
0.0
 11
3886.970589276556
 21
1867.494269174607
 31
0.0
  0
LINE
  5
18D52
330
18C7A
100
AcDbEntity
  8
部品1
100
AcDbLine
 10
444.9705892765305
 20
1867.49426917448
 30
0.0
 11
416.9705892765305
 21
1867.49426917448
 31
0.0
  0
LINE
  5
18D53
330
18C7A
100
AcDbEntity
  8
部品1
100
AcDbLine
 10
3830.470589276541
 20
1867.49426917458
 30
0.0
 11
473.4705892765396
 21
1867.49426917448
 31
0.0
  0
LINE
  5
18D54
330
18C7A
100
AcDbEntity
  8
部品1
100
AcDbLine
 10
3830.470589276541
 20
2287.49426917458
 30
0.0
 11
473.4705892765396
 21
2287.49426917448
 31
0.0
  0
LINE
  5
18D55
330
18C7A
100
AcDbEntity
  8
部品1
100
AcDbLine
 10
444.9705892765305
 20
2287.49426917448
 30
0.0
 11
416.9705892765305
 21
2287.49426917448
 31
0.0
  0
LINE
  5
18D56
330
18C7A
100
AcDbEntity
  8
部品1
100
AcDbLine
 10
3858.970589276556
 20
2287.494269174608
 30
0.0
 11
3886.970589276556
 21
2287.494269174608
 31
0.0
  0
LINE
  5
18D57
330
18C7A
100
AcDbEntity
  8
部品1
 48
50.0
100
AcDbLine
 10
2151.970589276551
 20
2702.494269174586
 30
0.0
 11
2151.970589276581
 21
1448.994269174494
 31
0.0
  0
LINE
  5
18D58
330
18C7A
100
AcDbEntity
  8
破線
 48
10.0
100
AcDbLine
 10
2959.470589276535
 20
1472.494269174522
 30
0.0
 11
2176.970589276532
 21
1472.494269174505
 31
0.0
  0
LINE
  5
18D59
330
18C7A
100
AcDbEntity
  8
破線
 48
10.0
100
AcDbLine
 10
3009.47058927653
 20
1448.994269174509
 30
0.0
 11
3009.47058927653
 21
2702.494269174615
 31
0.0
  0
LINE
  5
18D5A
330
18C7A
100
AcDbEntity
  8
破線
 48
10.0
100
AcDbLine
 10
2959.470589276535
 20
1448.994269174505
 30
0.0
 11
2959.470589276531
 21
2702.494269174615
 31
0.0
  0
LINE
  5
18D5B
330
18C7A
100
AcDbEntity
  8
破線
 48
10.0
100
AcDbLine
 10
1344.47058927653
 20
1448.994269174509
 30
0.0
 11
1344.47058927653
 21
2702.494269174615
 31
0.0
  0
LINE
  5
18D5C
330
18C7A
100
AcDbEntity
  8
破線
 48
10.0
100
AcDbLine
 10
1294.470589276534
 20
1448.994269174505
 30
0.0
 11
1294.47058927653
 21
2702.494269174615
 31
0.0
  0
DIMENSION
  5
18D5D
330
18C7A
100
AcDbEntity
  8
寸法
100
AcDbDimension
  2
*D13
 10
1451.234916278005
 20
2488.887829538828
 30
0.0
 11
916.0604668248634
 21
2488.887829538828
 31
0.0
 12
-3742.925985830444
 22
-6453.628869860112
 32
0.0
 70
   128
 71
     5
 42
1062.99999999993
  3
INABA_S40G
100
AcDbAlignedDimension
 13
445.4705892765559
 23
2702.494269174505
 33
0.0
 14
1508.470589276486
 24
2702.494269174558
 34
0.0
100
AcDbRotatedDimension
1001
ACAD
1000
DSTYLE
1002
{
1002
}
  0
LINE
  5
18D5E
330
18C7A
100
AcDbEntity
  8
破線
 48
10.0
100
AcDbLine
 10
1294.470589276534
 20
1472.494269174469
 30
0.0
 11
496.9705892765414
 21
1472.494269174476
 31
0.0
  0
LINE
  5
18D5F
330
18C7A
100
AcDbEntity
  8
部品1
100
AcDbLine
 10
3831.970589276556
 20
3182.494269174604
 30
0.0
 11
3831.970589276556
 21
3154.494269174604
 31
0.0
  0
LINE
  5
18D60
330
18C7A
100
AcDbEntity
  8
部品1
100
AcDbLine
 10
3831.970589276556
 20
3182.494269174626
 30
0.0
 11
3831.970589276556
 21
3154.494269174626
 31
0.0
  0
LINE
  5
18D61
330
18C7A
100
AcDbEntity
  8
部品1
100
AcDbLine
 10
3858.970589276556
 20
3127.494269174607
 30
0.0
 11
3886.970589276556
 21
3127.494269174607
 31
0.0
  0
LINE
  5
18D62
330
18C7A
100
AcDbEntity
  8
部品1
100
AcDbLine
 10
3858.970589276556
 20
2707.494269174608
 30
0.0
 11
3886.970589276556
 21
2707.494269174608
 31
0.0
  0
LINE
  5
18D63
330
18C7A
100
AcDbEntity
  8
部品1
100
AcDbLine
 10
3858.470589276556
 20
3152.494269174604
 30
0.0
 11
3858.470589276556
 21
2702.494269174608
 31
0.0
  0
LINE
  5
18D64
330
18C7A
100
AcDbEntity
  8
部品1
100
AcDbLine
 10
3886.970589276533
 20
1447.494269174593
 30
0.0
 11
3886.970589276531
 21
1392.494269174596
 31
0.0
  0
LINE
  5
18D65
330
18C7A
100
AcDbEntity
  8
部品1
 48
50.0
100
AcDbLine
 10
3830.470589276556
 20
1448.994269174596
 30
0.0
 11
3858.970589276554
 21
1420.494269174596
 31
0.0
  0
LINE
  5
18D66
330
18C7A
100
AcDbEntity
  8
部品1
100
AcDbLine
 10
3886.970589276531
 20
1392.494269174596
 30
0.0
 11
3835.970589276531
 21
1392.494269174596
 31
0.0
  0
LINE
  5
18D67
330
18C7A
100
AcDbEntity
  8
部品1
100
AcDbLine
 10
3858.970589276533
 20
1447.494269174593
 30
0.0
 11
3886.970589276531
 21
1447.494269174593
 31
0.0
  0
LINE
  5
18D68
330
18C7A
100
AcDbEntity
  8
部品1
100
AcDbLine
 10
3886.970589276556
 20
3182.494269174604
 30
0.0
 11
3886.970589276531
 21
1392.494269174596
 31
0.0
  0
DIMENSION
  5
18D69
330
18C7A
100
AcDbEntity
  8
寸法
100
AcDbDimension
  2
*D12
 10
4534.396935010967
 20
1447.494269174593
 30
0.0
 11
4534.396935010965
 21
2287.4942691746
 31
0.0
 12
-3742.925985830444
 22
-6453.628869860112
 32
0.0
 70
   128
  1
4X420=<>
 71
     5
 42
1680.000000000014
  3
INABA_S40G
100
AcDbAlignedDimension
 13
3886.970589276556
 23
3127.494269174607
 33
0.0
 14
3886.970589276531
 24
1447.494269174593
 34
0.0
 50
90.0
100
AcDbRotatedDimension
1001
ACAD
1000
DSTYLE
1002
{
1002
}
  0
LINE
  5
18D6A
330
18C7A
100
AcDbEntity
  8
部品1
100
AcDbLine
 10
3858.970589276556
 20
3154.494269174604
 30
0.0
 11
3858.970589276534
 21
1420.494269174596
 31
0.0
  0
DIMENSION
  5
18D6B
330
18C7A
100
AcDbEntity
  8
寸法
100
AcDbDimension
  2
*D11
 10
4213.82831513858
 20
2607.276453505718
 30
0.0
 11
4113.828315138579
 21
2832.276453505718
 31
0.0
 12
-3742.925985830444
 22
-6453.628869860112
 32
0.0
 71
     5
 42
449.9999999999963
  3
INABA_S40G
100
AcDbAlignedDimension
 13
3858.470589276556
 23
3152.494269174604
 33
0.0
 14
3858.470589276556
 24
2702.494269174608
 34
0.0
 50
90.0
100
AcDbRotatedDimension
1001
ACAD
1000
DSTYLE
1002
{
1002
}
  0
LINE
  5
18D6C
330
18C7A
100
AcDbEntity
  8
部品1
100
AcDbLine
 10
3830.470589276547
 20
2702.494269174608
 30
0.0
 11
3830.470589276556
 21
1448.994269174596
 31
0.0
  0
LINE
  5
18D6D
330
18C7A
100
AcDbEntity
  8
破線
 48
10.0
100
AcDbLine
 10
3806.970589276549
 20
2702.494269174608
 30
0.0
 11
3806.970589276558
 21
1472.494269174593
 31
0.0
  0
LINE
  5
18D6E
330
18C7A
100
AcDbEntity
  8
部品1
100
AcDbLine
 10
2769.470589276556
 20
3146.494269174608
 30
0.0
 11
2794.470589276556
 21
3146.494269174611
 31
0.0
  0
LINE
  5
18D6F
330
18C7A
100
AcDbEntity
  8
部品1
100
AcDbLine
 10
2810.970589276556
 20
3172.494269174611
 30
0.0
 11
2816.970589276556
 21
3172.494269174611
 31
0.0
  0
LINE
  5
18D70
330
18C7A
100
AcDbEntity
  8
部品1
100
AcDbLine
 10
2816.970589276556
 20
3172.494269174611
 30
0.0
 11
2816.970589276556
 21
3154.494269174611
 31
0.0
  0
LINE
  5
18D71
330
18C7A
100
AcDbEntity
  8
部品1
100
AcDbLine
 10
2746.970589276556
 20
3172.494269174611
 30
0.0
 11
2752.970589276556
 21
3172.494269174611
 31
0.0
  0
LINE
  5
18D72
330
18C7A
100
AcDbEntity
  8
部品1
100
AcDbLine
 10
2746.970589276556
 20
3172.494269174611
 30
0.0
 11
2746.970589276556
 21
3154.494269174611
 31
0.0
  0
LINE
  5
18D73
330
18C7A
100
AcDbEntity
  8
部品1
100
AcDbLine
 10
2769.470589276556
 20
2702.494269174615
 30
0.0
 11
2794.470589276556
 21
2702.494269174615
 31
0.0
  0
LINE
  5
18D74
330
18C7A
100
AcDbEntity
  8
部品1
 48
50.0
100
AcDbLine
 10
2794.470589276556
 20
3154.494269174615
 30
0.0
 11
2794.470589276556
 21
2702.494269174615
 31
0.0
  0
LINE
  5
18D75
330
18C7A
100
AcDbEntity
  8
部品1
 48
50.0
100
AcDbLine
 10
2769.470589276554
 20
3154.494269174618
 30
0.0
 11
2769.470589276556
 21
2702.494269174615
 31
0.0
  0
LINE
  5
18D76
330
18C7A
100
AcDbEntity
  8
部品1
 48
50.0
100
AcDbLine
 10
2795.470589276556
 20
3152.494269174607
 30
0.0
 11
2795.470589276556
 21
2702.494269174615
 31
0.0
  0
LINE
  5
18D77
330
18C7A
100
AcDbEntity
  8
部品1
 48
50.0
100
AcDbLine
 10
2767.470589276556
 20
3152.494269174611
 30
0.0
 11
2767.470589276556
 21
2702.494269174615
 31
0.0
  0
LINE
  5
18D78
330
18C7A
100
AcDbEntity
  8
破線
 48
10.0
100
AcDbLine
 10
2176.97058927653
 20
1448.994269174509
 30
0.0
 11
2176.97058927653
 21
2702.494269174588
 31
0.0
  0
LINE
  5
18D79
330
18C7A
100
AcDbEntity
  8
破線
 48
10.0
100
AcDbLine
 10
2126.970589276534
 20
1448.994269174505
 30
0.0
 11
2126.970589276531
 21
2702.494269174586
 31
0.0
  0
LINE
  5
18D7A
330
18C7A
100
AcDbEntity
  8
部品1
100
AcDbLine
 10
2794.470589276556
 20
3154.494269174622
 30
0.0
 11
3858.970589276556
 21
3154.494269174604
 31
0.0
  0
LINE
  5
18D7B
330
18C7A
100
AcDbEntity
  8
細線
 48
50.0
100
AcDbLine
 10
3858.470589276556
 20
2702.494269174608
 30
0.0
 11
2795.470589276556
 21
3152.494269174607
 31
0.0
  0
LINE
  5
18D7C
330
18C7A
100
AcDbEntity
  8
部品1
100
AcDbLine
 10
2795.470589276555
 20
2702.494269174615
 30
0.0
 11
3858.470589276556
 21
2702.494269174608
 31
0.0
  0
LINE
  5
18D7D
330
18C7A
100
AcDbEntity
  8
部品1
100
AcDbLine
 10
2795.470589276556
 20
3152.494269174611
 30
0.0
 11
3858.470589276556
 21
3152.494269174604
 31
0.0
  0
LINE
  5
18D7E
330
18C7A
100
AcDbEntity
  8
細線
 48
50.0
100
AcDbLine
 10
3858.470589276556
 20
3152.494269174604
 30
0.0
 11
2795.470589276555
 21
2702.494269174615
 31
0.0
  0
DIMENSION
  5
18D7F
330
18C7A
100
AcDbEntity
  8
寸法
100
AcDbDimension
  2
*D10
 10
3801.234916278101
 20
2488.887829538937
 30
0.0
 11
3318.360544398907
 21
2488.887829538937
 31
0.0
 12
-3742.925985830444
 22
-6453.628869860112
 32
0.0
 70
   128
 71
     5
 42
1063.000000000012
  3
INABA_S40G
100
AcDbAlignedDimension
 13
2795.470589276555
 23
2702.494269174615
 33
0.0
 14
3858.470589276567
 24
2702.494269174608
 34
0.0
100
AcDbRotatedDimension
1001
ACAD
1000
DSTYLE
1002
{
1002
}
  0
LINE
  5
18D80
330
18C7A
100
AcDbEntity
  8
破線
 48
10.0
100
AcDbLine
 10
3806.970589276556
 20
1472.494269174594
 30
0.0
 11
3009.47058927653
 21
1472.494269174523
 31
0.0
  0
DIMENSION
  5
18D81
330
18C7A
100
AcDbEntity
  8
寸法
100
AcDbDimension
  2
*D9
 10
4534.396935010941
 20
1392.494269174596
 30
0.0
 11
4534.39693501094
 21
1084.008987800356
 31
0.0
 12
-3742.925985830444
 22
-6453.628869860112
 32
0.0
 70
   128
 71
     5
 42
54.99999999999636
  3
INABA_S40G
100
AcDbAlignedDimension
 13
3886.970589276531
 23
1447.494269174593
 33
0.0
 14
3886.970589276531
 24
1392.494269174596
 34
0.0
 50
90.0
100
AcDbRotatedDimension
1001
ACAD
1000
DSTYLE
1002
{
1002
}
  0
LINE
  5
18D82
330
18C7A
100
AcDbEntity
  8
部品1
100
AcDbLine
 10
471.9705892765196
 20
3182.494269174477
 30
0.0
 11
471.9705892765232
 21
3154.494269174477
 31
0.0
  0
LINE
  5
18D83
330
18C7A
100
AcDbEntity
  8
部品1
100
AcDbLine
 10
471.9705892765559
 20
3182.494269174509
 30
0.0
 11
471.9705892765559
 21
3154.494269174509
 31
0.0
  0
LINE
  5
18D84
330
18C7A
100
AcDbEntity
  8
部品1
100
AcDbLine
 10
444.9705892765232
 20
3127.49426917448
 30
0.0
 11
416.9705892765232
 21
3127.49426917448
 31
0.0
  0
LINE
  5
18D85
330
18C7A
100
AcDbEntity
  8
部品1
100
AcDbLine
 10
444.9705892765305
 20
2707.49426917448
 30
0.0
 11
416.9705892765305
 21
2707.49426917448
 31
0.0
  0
LINE
  5
18D86
330
18C7A
100
AcDbEntity
  8
部品1
 48
50.0
100
AcDbLine
 10
445.4705892765542
 20
3152.494269174506
 30
0.0
 11
445.4705892765559
 21
2702.494269174505
 31
0.0
  0
LINE
  5
18D87
330
18C7A
100
AcDbEntity
  8
部品1
 48
50.0
100
AcDbLine
 10
473.470589276545
 20
1448.994269174573
 30
0.0
 11
444.970589276545
 21
1420.494269174574
 31
0.0
  0
LINE
  5
18D88
330
18C7A
100
AcDbEntity
  8
部品1
100
AcDbLine
 10
471.9705892765232
 20
1392.494269174465
 30
0.0
 11
416.9705892765486
 21
1392.494269174465
 31
0.0
  0
LINE
  5
18D89
330
18C7A
100
AcDbEntity
  8
部品1
100
AcDbLine
 10
444.9705892765305
 20
1447.494269174429
 30
0.0
 11
416.9705892765469
 21
1447.494269174429
 31
0.0
  0
LINE
  5
18D8A
330
18C7A
100
AcDbEntity
  8
部品1
100
AcDbLine
 10
444.9705892765305
 20
1447.494269174465
 30
0.0
 11
416.9705892765469
 21
1447.494269174465
 31
0.0
  0
LINE
  5
18D8B
330
18C7A
100
AcDbEntity
  8
部品1
100
AcDbLine
 10
444.9705892765469
 20
1447.49426917448
 30
0.0
 11
416.9705892765469
 21
1447.49426917448
 31
0.0
  0
LINE
  5
18D8C
330
18C7A
100
AcDbEntity
  8
部品1
100
AcDbLine
 10
416.9705892765469
 20
1447.494269174429
 30
0.0
 11
416.9705892765486
 21
1392.494269174433
 31
0.0
  0
LINE
  5
18D8D
330
18C7A
100
AcDbEntity
  8
部品1
100
AcDbLine
 10
416.9705892765196
 20
3182.494269174477
 30
0.0
 11
416.9705892765486
 21
1392.494269174465
 31
0.0
  0
LINE
  5
18D8E
330
18C7A
100
AcDbEntity
  8
部品1
100
AcDbLine
 10
444.9705892765305
 20
1420.494269174556
 30
0.0
 11
444.9705892765559
 21
3154.494269174509
 31
0.0
  0
LINE
  5
18D8F
330
18C7A
100
AcDbEntity
  8
部品1
100
AcDbLine
 10
473.4705892765323
 20
2702.494269174608
 30
0.0
 11
473.470589276545
 21
1448.994269174571
 31
0.0
  0
LINE
  5
18D90
330
18C7A
100
AcDbEntity
  8
破線
 48
10.0
100
AcDbLine
 10
496.9705892765305
 20
2702.494269174608
 30
0.0
 11
496.9705892765451
 21
1472.494269174476
 31
0.0
  0
DIMENSION
  5
18D91
330
18C7A
100
AcDbEntity
  8
寸法
100
AcDbDimension
  2
*D8
 10
3886.970589276531
 20
410.7433333855515
 30
0.0
 11
2168.197775309287
 21
410.7433333855515
 31
0.0
 12
-3742.925985830444
 22
-6453.628869860112
 32
0.0
 70
   128
 71
     5
 42
3469.999999999982
  3
INABA_S40G
100
AcDbAlignedDimension
 13
416.9705892765486
 23
1392.494269174433
 33
0.0
 14
3886.970589276531
 24
1392.49426917456
 34
0.0
100
AcDbRotatedDimension
1001
ACAD
1000
DSTYLE
1002
{
1070
   341
1005
0
1002
}
  0
LINE
  5
18D92
330
18C7A
100
AcDbEntity
  8
部品1
100
AcDbLine
 10
444.9705892765559
 20
3154.494269174624
 30
0.0
 11
1509.470589276487
 21
3154.494269174626
 31
0.0
  0
LINE
  5
18D93
330
18C7A
100
AcDbEntity
  8
部品1
100
AcDbLine
 10
3886.970589276531
 20
1392.494269174596
 30
0.0
 11
3411.970589276556
 21
1392.494269174582
 31
0.0
  0
LINE
  5
18D94
330
18C7A
100
AcDbEntity
  8
部品1
100
AcDbLine
 10
416.9705892765559
 20
3182.494269174509
 30
0.0
 11
3886.970589276556
 21
3182.494269174604
 31
0.0
  0
LINE
  5
18D95
330
18C7A
100
AcDbEntity
  8
部品1
100
AcDbLine
 10
445.4705892765559
 20
2702.494269174509
 30
0.0
 11
1508.470589276487
 21
2702.494269174558
 31
0.0
  0
LINE
  5
18D96
330
18C7A
100
AcDbEntity
  8
細線
 48
50.0
100
AcDbLine
 10
2767.470589276556
 20
3152.494269174611
 30
0.0
 11
1536.470589276487
 21
2702.494269174558
 31
0.0
  0
LINE
  5
18D97
330
18C7A
100
AcDbEntity
  8
部品1
100
AcDbLine
 10
445.4705892765542
 20
3152.494269174509
 30
0.0
 11
1508.470589276485
 21
3152.494269174558
 31
0.0
  0
LINE
  5
18D98
330
18C7A
100
AcDbEntity
  8
細線
 48
50.0
100
AcDbLine
 10
2767.470589276554
 20
2702.494269174615
 30
0.0
 11
1536.470589276485
 21
3152.494269174558
 31
0.0
  0
LINE
  5
18D99
330
18C7A
100
AcDbEntity
  8
破線
 48
10.0
100
AcDbLine
 10
2126.970589276534
 20
1472.494269174502
 30
0.0
 11
1344.47058927653
 21
1472.494269174473
 31
0.0
  0
LINE
  5
18D9A
330
18C7A
100
AcDbEntity
  8
部品1
100
AcDbLine
 10
3830.470589276556
 20
1448.994269174596
 30
0.0
 11
473.4705892764487
 21
1448.994269174476
 31
0.0
  0
DIMENSION
  5
18D9B
330
18C7A
100
AcDbEntity
  8
寸法
100
AcDbDimension
  2
*D7
 10
471.970589276555
 20
3698.302488799491
 30
0.0
 11
108.4853079022819
 21
3698.302488799491
 31
0.0
 12
-3742.925985830444
 22
-6453.628869860112
 32
0.0
 70
   128
 71
     5
 42
55.00000000003456
  3
INABA_S40G
100
AcDbAlignedDimension
 13
416.9705892765205
 23
3182.494269174509
 33
0.0
 14
471.970589276555
 24
3182.494269174509
 34
0.0
100
AcDbRotatedDimension
1001
ACAD
1000
DSTYLE
1002
{
1002
}
  0
DIMENSION
  5
18D9C
330
18C7A
100
AcDbEntity
  8
寸法
100
AcDbDimension
  2
*D6
 10
4534.396935010967
 20
3127.494269174607
 30
0.0
 11
4534.396935010965
 21
3490.979550548844
 31
0.0
 12
-3742.925985830444
 22
-6453.628869860112
 32
0.0
 70
   128
 71
     5
 42
54.99999999999636
  3
INABA_S40G
100
AcDbAlignedDimension
 13
3886.970589276556
 23
3182.494269174604
 33
0.0
 14
3886.970589276556
 24
3127.494269174607
 34
0.0
 50
90.0
100
AcDbRotatedDimension
1001
ACAD
1000
DSTYLE
1002
{
1002
}
  0
DIMENSION
  5
18D9D
330
18C7A
100
AcDbEntity
  8
寸法
100
AcDbDimension
  2
*D5
 10
3886.970589276556
 20
3698.302488799589
 30
0.0
 11
4195.455870650794
 21
3698.302488799589
 31
0.0
 12
-3742.925985830444
 22
-6453.628869860112
 32
0.0
 70
   128
 71
     5
 42
55.0
  3
INABA_S40G
100
AcDbAlignedDimension
 13
3831.970589276556
 23
3182.494269174604
 33
0.0
 14
3886.970589276556
 24
3182.494269174604
 34
0.0
100
AcDbRotatedDimension
1001
ACAD
1000
DSTYLE
1002
{
1002
}
  0
DIMENSION
  5
18D9E
330
18C7A
100
AcDbEntity
  8
寸法
100
AcDbDimension
  2
*D4
 10
3831.970589276556
 20
3698.302488799607
 30
0.0
 11
2151.970589276555
 21
3698.302488799607
 31
0.0
 12
-3742.925985830444
 22
-6453.628869860112
 32
0.0
 70
   128
  1
8X420=<>
 71
     5
 42
3360.000000000001
  3
INABA_S40G
100
AcDbAlignedDimension
 13
471.970589276555
 23
3182.494269174509
 33
0.0
 14
3831.970589276556
 24
3182.494269174604
 34
0.0
100
AcDbRotatedDimension
1001
ACAD
1000
DSTYLE
1002
{
1002
}
  0
DIMENSION
  5
18D9F
330
18C7A
100
AcDbEntity
  8
寸法
100
AcDbDimension
  2
*D3
 10
4899.503876750603
 20
1392.494269174596
 30
0.0
 11
4899.503876750601
 21
2287.4942691746
 31
0.0
 12
-3742.925985830444
 22
-6453.628869860112
 32
0.0
 70
   128
 71
     5
 42
1790.000000000007
  3
INABA_S40G
100
AcDbAlignedDimension
 13
3886.970589276556
 23
3182.494269174604
 33
0.0
 14
3886.970589276531
 24
1392.494269174596
 34
0.0
 50
90.0
100
AcDbRotatedDimension
1001
ACAD
1000
DSTYLE
1002
{
1002
}
  0
ENDBLK
  5
18DA1
330
18C7A
100
AcDbEntity
  8
0
 48
50.0
100
AcDbBlockEnd
  0
BLOCK
  5
1C4CB
330
1C4CA
100
AcDbEntity
  8
0
 48
50.0
100
AcDbBlockBegin
  2
_NONE
 70
     0
 10
0.0
 20
0.0
 30
0.0
  3
_NONE
  1

  0
CIRCLE
  5
1C4CC
330
1C4CA
100
AcDbEntity
  8
0
  6
ByBlock
 62
     0
 48
50.0
100
AcDbCircle
 10
0.0
 20
0.0
 30
0.0
 40
0.25
  0
ENDBLK
  5
1C4CD
330
1C4CA
100
AcDbEntity
  8
0
 48
50.0
100
AcDbBlockEnd
  0
BLOCK
  5
1DDC0
330
1DDB5
100
AcDbEntity
  8
0
 48
50.0
100
AcDbBlockBegin
  2
*D19
 70
     1
 10
0.0
 20
0.0
 30
0.0
  3
*D19
  1

  0
LINE
  5
21F0F
330
1DDB5
100
AcDbEntity
  8
寸法
 62
     0
 48
50.0
370
    -2
100
AcDbLine
 10
8793.600000000001
 20
8136.907777930209
 30
0.0
 11
8793.600000000001
 21
7926.106208443712
 31
0.0
  0
LINE
  5
21F10
330
1DDB5
100
AcDbEntity
  8
寸法
 62
     0
 48
50.0
370
    -2
100
AcDbLine
 10
8913.600000000009
 20
8111.907777930206
 30
0.0
 11
8913.600000000009
 21
7926.106208443712
 31
0.0
  0
LINE
  5
21F11
330
1DDB5
100
AcDbEntity
  8
寸法
 62
     0
 48
50.0
370
    -2
100
AcDbLine
 10
8793.600000000001
 20
7986.106208443712
 30
0.0
 11
8913.600000000009
 21
7986.106208443712
 31
0.0
  0
LINE
  5
21F12
330
1DDB5
100
AcDbEntity
  8
寸法
 62
     0
 48
50.0
370
    -2
100
AcDbLine
 10
8913.600000000009
 20
7986.106208443712
 30
0.0
 11
9327.73078736738
 21
7986.106208443712
 31
0.0
  0
INSERT
  5
21F13
330
1DDB5
100
AcDbEntity
  8
寸法
 62
     0
 48
50.0
370
    -2
100
AcDbBlockReference
  2
_DOTSMALL
 10
8793.600000000001
 20
7986.106208443712
 30
0.0
 41
100.0
 42
100.0
 43
100.0
 50
180.0
  0
INSERT
  5
21F14
330
1DDB5
100
AcDbEntity
  8
寸法
 62
     0
 48
50.0
370
    -2
100
AcDbBlockReference
  2
_DOTSMALL
 10
8913.600000000009
 20
7986.106208443712
 30
0.0
 41
100.0
 42
100.0
 43
100.0
  0
MTEXT
  5
21F15
330
1DDB5
100
AcDbEntity
  8
寸法
 62
     7
 48
50.0
100
AcDbMText
 10
9191.683543272892
 20
8086.118019467333
 30
0.0
 40
120.0
 41
0.0
 71
     5
 72
     1
  1
\A1;120
  7
STYLE1
 73
     1
 44
1.0
1001
ACAD
1000
MTEXTBEGIN
1070
    73
1070
     1
1070
    44
1040
1.0
1070
    74
1070
     0
1000
MTEXTEND
  0
POINT
  5
21F16
330
1DDB5
100
AcDbEntity
  8
DEFPOINTS
 62
     0
 48
50.0
100
AcDbPoint
 10
8793.600000000001
 20
8156.907777930211
 30
0.0
  0
POINT
  5
21F17
330
1DDB5
100
AcDbEntity
  8
DEFPOINTS
 62
     0
 48
50.0
100
AcDbPoint
 10
8913.600000000009
 20
8131.907777930207
 30
0.0
  0
POINT
  5
21F18
330
1DDB5
100
AcDbEntity
  8
DEFPOINTS
 62
     0
 48
50.0
100
AcDbPoint
 10
8913.600000000009
 20
7986.106208443712
 30
0.0
  0
ENDBLK
  5
1DDC1
330
1DDB5
100
AcDbEntity
  8
0
 48
50.0
100
AcDbBlockEnd
  0
BLOCK
  5
1DDEE
330
1DDE3
100
AcDbEntity
  8
0
 48
50.0
100
AcDbBlockBegin
  2
*D20
 70
     1
 10
0.0
 20
0.0
 30
0.0
  3
*D20
  1

  0
LINE
  5
21F05
330
1DDE3
100
AcDbEntity
  8
寸法
 62
     0
 48
50.0
370
    -2
100
AcDbLine
 10
8793.600000000003
 20
8136.907777930209
 30
0.0
 11
8793.600000000003
 21
7926.106208443712
 31
0.0
  0
LINE
  5
21F06
330
1DDE3
100
AcDbEntity
  8
寸法
 62
     0
 48
50.0
370
    -2
100
AcDbLine
 10
8683.600000000009
 20
8136.907777930208
 30
0.0
 11
8683.600000000009
 21
7926.106208443712
 31
0.0
  0
LINE
  5
21F07
330
1DDE3
100
AcDbEntity
  8
寸法
 62
     0
 48
50.0
370
    -2
100
AcDbLine
 10
8793.600000000003
 20
7986.106208443712
 30
0.0
 11
8683.600000000009
 21
7986.106208443712
 31
0.0
  0
LINE
  5
21F08
330
1DDE3
100
AcDbEntity
  8
寸法
 62
     0
 48
50.0
370
    -2
100
AcDbLine
 10
8683.600000000009
 20
7986.106208443712
 30
0.0
 11
8323.505511811031
 21
7986.106208443712
 31
0.0
  0
INSERT
  5
21F09
330
1DDE3
100
AcDbEntity
  8
寸法
 62
     0
 48
50.0
370
    -2
100
AcDbBlockReference
  2
_DOTSMALL
 10
8793.600000000003
 20
7986.106208443712
 30
0.0
 41
100.0
 42
100.0
 43
100.0
  0
INSERT
  5
21F0A
330
1DDE3
100
AcDbEntity
  8
寸法
 62
     0
 48
50.0
370
    -2
100
AcDbBlockReference
  2
_DOTSMALL
 10
8683.600000000009
 20
7986.106208443712
 30
0.0
 41
100.0
 42
100.0
 43
100.0
 50
180.0
  0
MTEXT
  5
21F0B
330
1DDE3
100
AcDbEntity
  8
寸法
 62
     7
 48
50.0
100
AcDbMText
 10
8447.552755905519
 20
8086.106208443712
 30
0.0
 40
120.0
 41
0.0
 71
     5
 72
     1
  1
\A1;110
  7
STYLE1
 73
     1
 44
1.0
1001
ACAD
1000
MTEXTBEGIN
1070
    73
1070
     1
1070
    44
1040
1.0
1070
    74
1070
     0
1000
MTEXTEND
  0
POINT
  5
21F0C
330
1DDE3
100
AcDbEntity
  8
DEFPOINTS
 62
     0
 48
50.0
100
AcDbPoint
 10
8793.600000000003
 20
8156.907777930211
 30
0.0
  0
POINT
  5
21F0D
330
1DDE3
100
AcDbEntity
  8
DEFPOINTS
 62
     0
 48
50.0
100
AcDbPoint
 10
8683.600000000009
 20
8156.907777930207
 30
0.0
  0
POINT
  5
21F0E
330
1DDE3
100
AcDbEntity
  8
DEFPOINTS
 62
     0
 48
50.0
100
AcDbPoint
 10
8683.600000000009
 20
7986.106208443712
 30
0.0
  0
ENDBLK
  5
1DDEF
330
1DDE3
100
AcDbEntity
  8
0
 48
50.0
100
AcDbBlockEnd
  0
BLOCK
  5
1E96F
330
1E963
100
AcDbEntity
  8
0
 48
50.0
100
AcDbBlockBegin
  2
*D21
 70
     1
 10
0.0
 20
0.0
 30
0.0
  3
*D21
  1

  0
LINE
  5
21E7E
330
1E963
100
AcDbEntity
  8
寸法
 62
     0
 48
50.0
370
    -2
100
AcDbLine
 10
7513.600000000036
 20
5671.90777793021
 30
0.0
 11
7179.276532889156
 21
5671.90777793021
 31
0.0
  0
LINE
  5
21E7F
330
1E963
100
AcDbEntity
  8
寸法
 62
     0
 48
50.0
370
    -2
100
AcDbLine
 10
7513.600000000036
 20
5746.907777930211
 30
0.0
 11
7179.276532889156
 21
5746.907777930211
 31
0.0
  0
LINE
  5
21E80
330
1E963
100
AcDbEntity
  8
寸法
 62
     0
 48
50.0
370
    -2
100
AcDbLine
 10
7239.276532889156
 20
5746.907777930211
 30
0.0
 11
7239.276532889156
 21
5846.90777793021
 31
0.0
  0
LINE
  5
21E81
330
1E963
100
AcDbEntity
  8
寸法
 62
     0
 48
50.0
370
    -2
100
AcDbLine
 10
7239.276532889156
 20
5671.90777793021
 30
0.0
 11
7239.276532889156
 21
4804.937215181732
 31
0.0
  0
LINE
  5
21E82
330
1E963
100
AcDbEntity
  8
寸法
 62
     0
 48
50.0
370
    -2
100
AcDbLine
 10
7239.276532889156
 20
5746.907777930211
 30
0.0
 11
7239.276532889156
 21
5671.90777793021
 31
0.0
  0
INSERT
  5
21E83
330
1E963
100
AcDbEntity
  8
寸法
 62
     0
 48
50.0
370
    -2
100
AcDbBlockReference
  2
_DOTSMALL
 10
7239.276532889156
 20
5746.907777930211
 30
0.0
 41
100.0
 42
100.0
 43
100.0
 50
270.0
  0
INSERT
  5
21E84
330
1E963
100
AcDbEntity
  8
寸法
 62
     0
 48
50.0
370
    -2
100
AcDbBlockReference
  2
_DOTSMALL
 10
7239.276532889156
 20
5671.90777793021
 30
0.0
 41
100.0
 42
100.0
 43
100.0
 50
90.0
  0
MTEXT
  5
21E85
330
1E963
100
AcDbEntity
  8
寸法
 62
     7
 48
50.0
100
AcDbMText
 10
7139.276532889154
 20
5138.422496555973
 30
0.0
 40
120.0
 41
0.0
 71
     5
 72
     1
  1
\A1;扉の出75
  7
STYLE1
 11
0.0000000000000001
 21
1.0
 31
0.0
 73
     1
 44
1.0
1001
ACAD
1000
MTEXTBEGIN
1070
    73
1070
     1
1070
    44
1040
1.0
1070
    74
1070
     0
1000
MTEXTEND
  0
POINT
  5
21E86
330
1E963
100
AcDbEntity
  8
DEFPOINTS
 62
     0
 48
50.0
100
AcDbPoint
 10
7533.600000000035
 20
5671.90777793021
 30
0.0
  0
POINT
  5
21E87
330
1E963
100
AcDbEntity
  8
DEFPOINTS
 62
     0
 48
50.0
100
AcDbPoint
 10
7533.600000000035
 20
5746.907777930211
 30
0.0
  0
POINT
  5
21E88
330
1E963
100
AcDbEntity
  8
DEFPOINTS
 62
     0
 48
50.0
100
AcDbPoint
 10
7239.276532889156
 20
5746.907777930211
 30
0.0
  0
ENDBLK
  5
1E970
330
1E963
100
AcDbEntity
  8
0
 48
50.0
100
AcDbBlockEnd
  0
BLOCK
  5
1EEAB
330
1EE9F
100
AcDbEntity
  8
0
 48
50.0
100
AcDbBlockBegin
  2
*D22
 70
     1
 10
0.0
 20
0.0
 30
0.0
  3
*D22
  1

  0
LINE
  5
20CDE
330
1EE9F
100
AcDbEntity
  8
寸法
 62
     0
 48
50.0
370
    -2
100
AcDbLine
 10
6717.657733986179
 20
8441.907777930197
 30
0.0
 11
6432.16493184821
 21
8441.907777930197
 31
0.0
  0
LINE
  5
20CDF
330
1EE9F
100
AcDbEntity
  8
寸法
 62
     0
 48
50.0
370
    -2
100
AcDbLine
 10
6684.625627365048
 20
8386.907777930209
 30
0.0
 11
6432.16493184821
 21
8386.907777930209
 31
0.0
  0
LINE
  5
20CE0
330
1EE9F
100
AcDbEntity
  8
寸法
 62
     0
 48
50.0
370
    -2
100
AcDbLine
 10
6492.164931848211
 20
8441.907777930197
 30
0.0
 11
6492.164931848211
 21
8541.907777930196
 31
0.0
  0
LINE
  5
20CE1
330
1EE9F
100
AcDbEntity
  8
寸法
 62
     0
 48
50.0
370
    -2
100
AcDbLine
 10
6492.164931848211
 20
8386.907777930209
 30
0.0
 11
6492.164931848211
 21
8286.90777793021
 31
0.0
  0
LINE
  5
20CE2
330
1EE9F
100
AcDbEntity
  8
寸法
 62
     0
 48
50.0
370
    -2
100
AcDbLine
 10
6492.164931848211
 20
8441.907777930197
 30
0.0
 11
6492.164931848211
 21
8386.907777930209
 31
0.0
  0
INSERT
  5
20CE3
330
1EE9F
100
AcDbEntity
  8
寸法
 62
     0
 48
50.0
370
    -2
100
AcDbBlockReference
  2
_DOTSMALL
 10
6492.164931848211
 20
8441.907777930197
 30
0.0
 41
100.0
 42
100.0
 43
100.0
 50
270.0
  0
INSERT
  5
20CE4
330
1EE9F
100
AcDbEntity
  8
寸法
 62
     0
 48
50.0
370
    -2
100
AcDbBlockReference
  2
_DOTSMALL
 10
6492.164931848211
 20
8386.907777930209
 30
0.0
 41
100.0
 42
100.0
 43
100.0
 50
90.0
  0
MTEXT
  5
20CE5
330
1EE9F
100
AcDbEntity
  8
寸法
 62
     7
 48
50.0
100
AcDbMText
 10
6392.16493184821
 20
8414.407777930206
 30
0.0
 40
120.0
 41
0.0
 71
     5
 72
     1
  1
\A1;b
  7
STYLE1
 11
0.0000000000000001
 21
1.0
 31
0.0
 73
     1
 44
1.0
1001
ACAD
1000
MTEXTBEGIN
1070
    73
1070
     1
1070
    44
1040
1.0
1070
    74
1070
     0
1000
MTEXTEND
  0
POINT
  5
20CE6
330
1EE9F
100
AcDbEntity
  8
DEFPOINTS
 62
     0
 48
50.0
100
AcDbPoint
 10
6737.657733986179
 20
8441.907777930197
 30
0.0
  0
POINT
  5
20CE7
330
1EE9F
100
AcDbEntity
  8
DEFPOINTS
 62
     0
 48
50.0
100
AcDbPoint
 10
6704.625627365048
 20
8386.907777930209
 30
0.0
  0
POINT
  5
20CE8
330
1EE9F
100
AcDbEntity
  8
DEFPOINTS
 62
     0
 48
50.0
100
AcDbPoint
 10
6492.164931848211
 20
8386.907777930209
 30
0.0
  0
ENDBLK
  5
1EEAC
330
1EE9F
100
AcDbEntity
  8
0
 48
50.0
100
AcDbBlockEnd
  0
BLOCK
  5
1EEEE
330
1EEE2
100
AcDbEntity
  8
0
 48
50.0
100
AcDbBlockBegin
  2
*D23
 70
     1
 10
0.0
 20
0.0
 30
0.0
  3
*D23
  1

  0
LINE
  5
207C3
330
1EEE2
100
AcDbEntity
  8
寸法
 62
     0
 48
50.0
370
    -2
100
AcDbLine
 10
6684.625627365048
 20
5746.907777930209
 30
0.0
 11
6432.164931848213
 21
5746.907777930209
 31
0.0
  0
LINE
  5
207C4
330
1EEE2
100
AcDbEntity
  8
寸法
 62
     0
 48
50.0
370
    -2
100
AcDbLine
 10
6717.657733986179
 20
5671.907777930207
 30
0.0
 11
6432.164931848213
 21
5671.907777930207
 31
0.0
  0
LINE
  5
207C5
330
1EEE2
100
AcDbEntity
  8
寸法
 62
     0
 48
50.0
370
    -2
100
AcDbLine
 10
6492.164931848212
 20
5746.907777930209
 30
0.0
 11
6492.164931848212
 21
5846.907777930208
 31
0.0
  0
LINE
  5
207C6
330
1EEE2
100
AcDbEntity
  8
寸法
 62
     0
 48
50.0
370
    -2
100
AcDbLine
 10
6492.164931848212
 20
5671.907777930207
 30
0.0
 11
6492.164931848212
 21
5571.907777930206
 31
0.0
  0
LINE
  5
207C7
330
1EEE2
100
AcDbEntity
  8
寸法
 62
     0
 48
50.0
370
    -2
100
AcDbLine
 10
6492.164931848212
 20
5746.907777930209
 30
0.0
 11
6492.164931848212
 21
5671.907777930207
 31
0.0
  0
INSERT
  5
207C8
330
1EEE2
100
AcDbEntity
  8
寸法
 62
     0
 48
50.0
370
    -2
100
AcDbBlockReference
  2
_DOTSMALL
 10
6492.164931848212
 20
5746.907777930209
 30
0.0
 41
100.0
 42
100.0
 43
100.0
 50
270.0
  0
INSERT
  5
207C9
330
1EEE2
100
AcDbEntity
  8
寸法
 62
     0
 48
50.0
370
    -2
100
AcDbBlockReference
  2
_DOTSMALL
 10
6492.164931848212
 20
5671.907777930207
 30
0.0
 41
100.0
 42
100.0
 43
100.0
 50
90.0
  0
MTEXT
  5
207CA
330
1EEE2
100
AcDbEntity
  8
寸法
 62
     7
 48
50.0
100
AcDbMText
 10
6392.164931848212
 20
5709.407777930209
 30
0.0
 40
120.0
 41
0.0
 71
     5
 72
     1
  1
\A1;c
  7
STYLE1
 11
0.0000000000000001
 21
1.0
 31
0.0
 73
     1
 44
1.0
1001
ACAD
1000
MTEXTBEGIN
1070
    73
1070
     1
1070
    44
1040
1.0
1070
    74
1070
     0
1000
MTEXTEND
  0
POINT
  5
207CB
330
1EEE2
100
AcDbEntity
  8
DEFPOINTS
 62
     0
 48
50.0
100
AcDbPoint
 10
6704.625627365048
 20
5746.907777930209
 30
0.0
  0
POINT
  5
207CC
330
1EEE2
100
AcDbEntity
  8
DEFPOINTS
 62
     0
 48
50.0
100
AcDbPoint
 10
6737.657733986178
 20
5671.907777930207
 30
0.0
  0
POINT
  5
207CD
330
1EEE2
100
AcDbEntity
  8
DEFPOINTS
 62
     0
 48
50.0
100
AcDbPoint
 10
6492.164931848212
 20
5671.907777930207
 30
0.0
  0
ENDBLK
  5
1EEEF
330
1EEE2
100
AcDbEntity
  8
0
 48
50.0
100
AcDbBlockEnd
  0
BLOCK
  5
1F7C6
330
1F7BC
100
AcDbEntity
  8
0
 48
50.0
100
AcDbBlockBegin
  2
*D24
 70
     1
 10
0.0
 20
0.0
 30
0.0
  3
*D24
  1

  0
LINE
  5
2157E
330
1F7BC
100
AcDbEntity
  8
寸法
 62
     0
 48
50.0
370
    -2
100
AcDbLine
 10
8223.600000000001
 20
7601.907777930207
 30
0.0
 11
8223.600000000001
 21
9025.196807820888
 31
0.0
  0
LINE
  5
2157F
330
1F7BC
100
AcDbEntity
  8
寸法
 62
     0
 48
50.0
370
    -2
100
AcDbLine
 10
8913.6
 20
8406.907777930207
 30
0.0
 11
8913.6
 21
9025.196807820888
 31
0.0
  0
LINE
  5
21580
330
1F7BC
100
AcDbEntity
  8
寸法
 62
     0
 48
50.0
370
    -2
100
AcDbLine
 10
8223.600000000001
 20
8965.196807820888
 30
0.0
 11
8913.6
 21
8965.196807820888
 31
0.0
  0
INSERT
  5
21581
330
1F7BC
100
AcDbEntity
  8
寸法
 62
     0
 48
50.0
370
    -2
100
AcDbBlockReference
  2
_DOTSMALL
 10
8223.600000000001
 20
8965.196807820888
 30
0.0
 41
100.0
 42
100.0
 43
100.0
 50
180.0
  0
INSERT
  5
21582
330
1F7BC
100
AcDbEntity
  8
寸法
 62
     0
 48
50.0
370
    -2
100
AcDbBlockReference
  2
_DOTSMALL
 10
8913.6
 20
8965.196807820888
 30
0.0
 41
100.0
 42
100.0
 43
100.0
  0
MTEXT
  5
21583
330
1F7BC
100
AcDbEntity
  8
寸法
 62
     7
 48
50.0
100
AcDbMText
 10
8568.600000000001
 20
9065.196807820887
 30
0.0
 40
120.0
 41
0.0
 71
     5
 72
     1
  1
\A1;690
  7
STYLE1
 73
     1
 44
1.0
1001
ACAD
1000
MTEXTBEGIN
1070
    73
1070
     1
1070
    44
1040
1.0
1070
    74
1070
     0
1000
MTEXTEND
  0
POINT
  5
21584
330
1F7BC
100
AcDbEntity
  8
DEFPOINTS
 62
     0
 48
50.0
100
AcDbPoint
 10
8223.600000000001
 20
7581.907777930208
 30
0.0
  0
POINT
  5
21585
330
1F7BC
100
AcDbEntity
  8
DEFPOINTS
 62
     0
 48
50.0
100
AcDbPoint
 10
8913.6
 20
8386.907777930208
 30
0.0
  0
POINT
  5
21586
330
1F7BC
100
AcDbEntity
  8
DEFPOINTS
 62
     0
 48
50.0
100
AcDbPoint
 10
8913.6
 20
8965.196807820888
 30
0.0
  0
ENDBLK
  5
1F7C7
330
1F7BC
100
AcDbEntity
  8
0
 48
50.0
100
AcDbBlockEnd
  0
BLOCK
  5
1F7D2
330
1F7C8
100
AcDbEntity
  8
0
 48
50.0
100
AcDbBlockBegin
  2
*D25
 70
     1
 10
0.0
 20
0.0
 30
0.0
  3
*D25
  1

  0
LINE
  5
21575
330
1F7C8
100
AcDbEntity
  8
寸法
 62
     0
 48
50.0
370
    -2
100
AcDbLine
 10
7533.599999999999
 20
8406.907777930207
 30
0.0
 11
7533.599999999999
 21
9025.196807820888
 31
0.0
  0
LINE
  5
21576
330
1F7C8
100
AcDbEntity
  8
寸法
 62
     0
 48
50.0
370
    -2
100
AcDbLine
 10
8223.600000000001
 20
7601.907777930207
 30
0.0
 11
8223.600000000001
 21
9025.196807820888
 31
0.0
  0
LINE
  5
21577
330
1F7C8
100
AcDbEntity
  8
寸法
 62
     0
 48
50.0
370
    -2
100
AcDbLine
 10
7533.599999999999
 20
8965.196807820888
 30
0.0
 11
8223.600000000001
 21
8965.196807820888
 31
0.0
  0
INSERT
  5
21578
330
1F7C8
100
AcDbEntity
  8
寸法
 62
     0
 48
50.0
370
    -2
100
AcDbBlockReference
  2
_DOTSMALL
 10
7533.599999999999
 20
8965.196807820888
 30
0.0
 41
100.0
 42
100.0
 43
100.0
 50
180.0
  0
INSERT
  5
21579
330
1F7C8
100
AcDbEntity
  8
寸法
 62
     0
 48
50.0
370
    -2
100
AcDbBlockReference
  2
_DOTSMALL
 10
8223.600000000001
 20
8965.196807820888
 30
0.0
 41
100.0
 42
100.0
 43
100.0
  0
MTEXT
  5
2157A
330
1F7C8
100
AcDbEntity
  8
寸法
 62
     7
 48
50.0
100
AcDbMText
 10
7878.6
 20
9065.196807820887
 30
0.0
 40
120.0
 41
0.0
 71
     5
 72
     1
  1
\A1;690
  7
STYLE1
 73
     1
 44
1.0
1001
ACAD
1000
MTEXTBEGIN
1070
    73
1070
     1
1070
    44
1040
1.0
1070
    74
1070
     0
1000
MTEXTEND
  0
POINT
  5
2157B
330
1F7C8
100
AcDbEntity
  8
DEFPOINTS
 62
     0
 48
50.0
100
AcDbPoint
 10
7533.599999999999
 20
8386.907777930208
 30
0.0
  0
POINT
  5
2157C
330
1F7C8
100
AcDbEntity
  8
DEFPOINTS
 62
     0
 48
50.0
100
AcDbPoint
 10
8223.600000000001
 20
7581.907777930208
 30
0.0
  0
POINT
  5
2157D
330
1F7C8
100
AcDbEntity
  8
DEFPOINTS
 62
     0
 48
50.0
100
AcDbPoint
 10
8223.600000000001
 20
8965.196807820888
 30
0.0
  0
ENDBLK
  5
1F7D3
330
1F7C8
100
AcDbEntity
  8
0
 48
50.0
100
AcDbBlockEnd
  0
BLOCK
  5
1F82B
330
1F820
100
AcDbEntity
  8
0
 48
50.0
100
AcDbBlockBegin
  2
*D26
 70
     1
 10
0.0
 20
0.0
 30
0.0
  3
*D26
  1

  0
LINE
  5
20CC2
330
1F820
100
AcDbEntity
  8
寸法
 62
     0
 48
50.0
370
    -2
100
AcDbLine
 10
8913.6
 20
8406.907777930207
 30
0.0
 11
8913.6
 21
9251.968388320138
 31
0.0
  0
LINE
  5
20CC3
330
1F820
100
AcDbEntity
  8
寸法
 62
     0
 48
50.0
370
    -2
100
AcDbLine
 10
8790.600000000001
 20
8333.907777930209
 30
0.0
 11
8790.600000000001
 21
9251.968388320138
 31
0.0
  0
LINE
  5
20CC4
330
1F820
100
AcDbEntity
  8
寸法
 62
     0
 48
50.0
370
    -2
100
AcDbLine
 10
8790.600000000001
 20
9191.968388320139
 30
0.0
 11
8913.6
 21
9191.968388320139
 31
0.0
  0
LINE
  5
20CC5
330
1F820
100
AcDbEntity
  8
寸法
 62
     0
 48
50.0
370
    -2
100
AcDbLine
 10
8913.6
 20
9191.968388320139
 30
0.0
 11
9290.570562748476
 21
9191.968388320139
 31
0.0
  0
INSERT
  5
20CC6
330
1F820
100
AcDbEntity
  8
寸法
 62
     0
 48
50.0
370
    -2
100
AcDbBlockReference
  2
_DOTSMALL
 10
8790.600000000001
 20
9191.968388320139
 30
0.0
 41
100.0
 42
100.0
 43
100.0
 50
180.0
  0
INSERT
  5
20CC7
330
1F820
100
AcDbEntity
  8
寸法
 62
     0
 48
50.0
370
    -2
100
AcDbBlockReference
  2
_DOTSMALL
 10
8913.6
 20
9191.968388320139
 30
0.0
 41
100.0
 42
100.0
 43
100.0
  0
MTEXT
  5
20CC8
330
1F820
100
AcDbEntity
  8
寸法
 62
     7
 48
50.0
100
AcDbMText
 10
9152.085281374239
 20
9291.980199343759
 30
0.0
 40
120.0
 41
0.0
 71
     5
 72
     1
  1
\A1;123
  7
STYLE1
 73
     1
 44
1.0
1001
ACAD
1000
MTEXTBEGIN
1070
    73
1070
     1
1070
    44
1040
1.0
1070
    74
1070
     0
1000
MTEXTEND
  0
POINT
  5
20CC9
330
1F820
100
AcDbEntity
  8
DEFPOINTS
 62
     0
 48
50.0
100
AcDbPoint
 10
8913.6
 20
8386.907777930208
 30
0.0
  0
POINT
  5
20CCA
330
1F820
100
AcDbEntity
  8
DEFPOINTS
 62
     0
 48
50.0
100
AcDbPoint
 10
8790.600000000001
 20
8313.907777930209
 30
0.0
  0
POINT
  5
20CCB
330
1F820
100
AcDbEntity
  8
DEFPOINTS
 62
     0
 48
50.0
100
AcDbPoint
 10
8790.600000000001
 20
9191.968388320139
 30
0.0
  0
ENDBLK
  5
1F82C
330
1F820
100
AcDbEntity
  8
0
 48
50.0
100
AcDbBlockEnd
  0
BLOCK
  5
1F846
330
1F83B
100
AcDbEntity
  8
0
 48
50.0
100
AcDbBlockBegin
  2
*D27
 70
     1
 10
0.0
 20
0.0
 30
0.0
  3
*D27
  1

  0
LINE
  5
20CB8
330
1F83B
100
AcDbEntity
  8
寸法
 62
     0
 48
50.0
370
    -2
100
AcDbLine
 10
7513.600000000001
 20
8386.907777930208
 30
0.0
 11
6677.657733986179
 21
8386.907777930208
 31
0.0
  0
LINE
  5
20CB9
330
1F83B
100
AcDbEntity
  8
寸法
 62
     0
 48
50.0
370
    -2
100
AcDbLine
 10
7586.6
 20
8263.907777930208
 30
0.0
 11
6677.657733986179
 21
8263.907777930208
 31
0.0
  0
LINE
  5
20CBA
330
1F83B
100
AcDbEntity
  8
寸法
 62
     0
 48
50.0
370
    -2
100
AcDbLine
 10
6737.657733986178
 20
8263.907777930208
 30
0.0
 11
6737.657733986178
 21
8386.907777930208
 31
0.0
  0
LINE
  5
20CBB
330
1F83B
100
AcDbEntity
  8
寸法
 62
     0
 48
50.0
370
    -2
100
AcDbLine
 10
6737.657733986178
 20
8386.907777930208
 30
0.0
 11
6737.657733986178
 21
8763.878340678685
 31
0.0
  0
INSERT
  5
20CBC
330
1F83B
100
AcDbEntity
  8
寸法
 62
     0
 48
50.0
370
    -2
100
AcDbBlockReference
  2
_DOTSMALL
 10
6737.657733986178
 20
8263.907777930208
 30
0.0
 41
100.0
 42
100.0
 43
100.0
 50
270.0
  0
INSERT
  5
20CBD
330
1F83B
100
AcDbEntity
  8
寸法
 62
     0
 48
50.0
370
    -2
100
AcDbBlockReference
  2
_DOTSMALL
 10
6737.657733986178
 20
8386.907777930208
 30
0.0
 41
100.0
 42
100.0
 43
100.0
 50
90.0
  0
MTEXT
  5
20CBE
330
1F83B
100
AcDbEntity
  8
寸法
 62
     7
 48
50.0
100
AcDbMText
 10
6637.645922962557
 20
8625.393059304448
 30
0.0
 40
120.0
 41
0.0
 71
     5
 72
     1
  1
\A1;123
  7
STYLE1
 11
0.0000000000000001
 21
1.0
 31
0.0
 73
     1
 44
1.0
1001
ACAD
1000
MTEXTBEGIN
1070
    73
1070
     1
1070
    44
1040
1.0
1070
    74
1070
     0
1000
MTEXTEND
  0
POINT
  5
20CBF
330
1F83B
100
AcDbEntity
  8
DEFPOINTS
 62
     0
 48
50.0
100
AcDbPoint
 10
7533.599999999999
 20
8386.907777930208
 30
0.0
  0
POINT
  5
20CC0
330
1F83B
100
AcDbEntity
  8
DEFPOINTS
 62
     0
 48
50.0
100
AcDbPoint
 10
7606.6
 20
8263.907777930208
 30
0.0
  0
POINT
  5
20CC1
330
1F83B
100
AcDbEntity
  8
DEFPOINTS
 62
     0
 48
50.0
100
AcDbPoint
 10
6737.657733986178
 20
8263.907777930208
 30
0.0
  0
ENDBLK
  5
1F847
330
1F83B
100
AcDbEntity
  8
0
 48
50.0
100
AcDbBlockEnd
  0
BLOCK
  5
1F861
330
1F856
100
AcDbEntity
  8
0
 48
50.0
100
AcDbBlockBegin
  2
*D28
 70
     1
 10
0.0
 20
0.0
 30
0.0
  3
*D28
  1

  0
LINE
  5
207A4
330
1F856
100
AcDbEntity
  8
寸法
 62
     0
 48
50.0
370
    -2
100
AcDbLine
 10
7586.600000000008
 20
5869.90777793021
 30
0.0
 11
6677.657733986179
 21
5869.90777793021
 31
0.0
  0
LINE
  5
207A5
330
1F856
100
AcDbEntity
  8
寸法
 62
     0
 48
50.0
370
    -2
100
AcDbLine
 10
7513.600000000001
 20
5746.907777930208
 30
0.0
 11
6677.657733986179
 21
5746.907777930208
 31
0.0
  0
LINE
  5
207A6
330
1F856
100
AcDbEntity
  8
寸法
 62
     0
 48
50.0
370
    -2
100
AcDbLine
 10
6737.657733986178
 20
5869.90777793021
 30
0.0
 11
6737.657733986178
 21
5746.907777930208
 31
0.0
  0
LINE
  5
207A7
330
1F856
100
AcDbEntity
  8
寸法
 62
     0
 48
50.0
370
    -2
100
AcDbLine
 10
6737.657733986178
 20
5746.907777930208
 30
0.0
 11
6737.657733986178
 21
5369.93721518173
 31
0.0
  0
INSERT
  5
207A8
330
1F856
100
AcDbEntity
  8
寸法
 62
     0
 48
50.0
370
    -2
100
AcDbBlockReference
  2
_DOTSMALL
 10
6737.657733986178
 20
5869.90777793021
 30
0.0
 41
100.0
 42
100.0
 43
100.0
 50
90.0
  0
INSERT
  5
207A9
330
1F856
100
AcDbEntity
  8
寸法
 62
     0
 48
50.0
370
    -2
100
AcDbBlockReference
  2
_DOTSMALL
 10
6737.657733986178
 20
5746.907777930208
 30
0.0
 41
100.0
 42
100.0
 43
100.0
 50
270.0
  0
MTEXT
  5
207AA
330
1F856
100
AcDbEntity
  8
寸法
 62
     7
 48
50.0
100
AcDbMText
 10
6637.645922962557
 20
5508.42249655597
 30
0.0
 40
120.0
 41
0.0
 71
     5
 72
     1
  1
\A1;123
  7
STYLE1
 11
0.0000000000000001
 21
1.0
 31
0.0
 73
     1
 44
1.0
1001
ACAD
1000
MTEXTBEGIN
1070
    73
1070
     1
1070
    44
1040
1.0
1070
    74
1070
     0
1000
MTEXTEND
  0
POINT
  5
207AB
330
1F856
100
AcDbEntity
  8
DEFPOINTS
 62
     0
 48
50.0
100
AcDbPoint
 10
7606.600000000007
 20
5869.90777793021
 30
0.0
  0
POINT
  5
207AC
330
1F856
100
AcDbEntity
  8
DEFPOINTS
 62
     0
 48
50.0
100
AcDbPoint
 10
7533.599999999999
 20
5746.907777930208
 30
0.0
  0
POINT
  5
207AD
330
1F856
100
AcDbEntity
  8
DEFPOINTS
 62
     0
 48
50.0
100
AcDbPoint
 10
6737.657733986178
 20
5746.907777930208
 30
0.0
  0
ENDBLK
  5
1F862
330
1F856
100
AcDbEntity
  8
0
 48
50.0
100
AcDbBlockEnd
  0
BLOCK
  5
1F86D
330
1F863
100
AcDbEntity
  8
0
 48
50.0
100
AcDbBlockBegin
  2
*D29
 70
     1
 10
0.0
 20
0.0
 30
0.0
  3
*D29
  1

  0
LINE
  5
20CFD
330
1F863
100
AcDbEntity
  8
寸法
 62
     0
 48
50.0
370
    -2
100
AcDbLine
 10
7513.600000000001
 20
8386.907777930208
 30
0.0
 11
6432.164931848214
 21
8386.907777930208
 31
0.0
  0
LINE
  5
20CFE
330
1F863
100
AcDbEntity
  8
寸法
 62
     0
 48
50.0
370
    -2
100
AcDbLine
 10
7513.600000000001
 20
5746.907777930208
 30
0.0
 11
6432.164931848213
 21
5746.907777930208
 31
0.0
  0
LINE
  5
20CFF
330
1F863
100
AcDbEntity
  8
寸法
 62
     0
 48
50.0
370
    -2
100
AcDbLine
 10
6492.164931848214
 20
8386.907777930208
 30
0.0
 11
6492.164931848214
 21
5746.907777930208
 31
0.0
  0
INSERT
  5
20D00
330
1F863
100
AcDbEntity
  8
寸法
 62
     0
 48
50.0
370
    -2
100
AcDbBlockReference
  2
_DOTSMALL
 10
6492.164931848214
 20
8386.907777930208
 30
0.0
 41
100.0
 42
100.0
 43
100.0
 50
90.0
  0
INSERT
  5
20D01
330
1F863
100
AcDbEntity
  8
寸法
 62
     0
 48
50.0
370
    -2
100
AcDbBlockReference
  2
_DOTSMALL
 10
6492.164931848214
 20
5746.907777930208
 30
0.0
 41
100.0
 42
100.0
 43
100.0
 50
270.0
  0
MTEXT
  5
20D02
330
1F863
100
AcDbEntity
  8
寸法
 62
     7
 48
50.0
100
AcDbMText
 10
6392.153120824591
 20
7066.907777930208
 30
0.0
 40
120.0
 41
0.0
 71
     5
 72
     1
  1
\A1;2640
  7
STYLE1
 11
0.0000000000000001
 21
1.0
 31
0.0
 73
     1
 44
1.0
1001
ACAD
1000
MTEXTBEGIN
1070
    73
1070
     1
1070
    44
1040
1.0
1070
    74
1070
     0
1000
MTEXTEND
  0
POINT
  5
20D03
330
1F863
100
AcDbEntity
  8
DEFPOINTS
 62
     0
 48
50.0
100
AcDbPoint
 10
7533.599999999999
 20
8386.907777930208
 30
0.0
  0
POINT
  5
20D04
330
1F863
100
AcDbEntity
  8
DEFPOINTS
 62
     0
 48
50.0
100
AcDbPoint
 10
7533.599999999999
 20
5746.907777930208
 30
0.0
  0
POINT
  5
20D05
330
1F863
100
AcDbEntity
  8
DEFPOINTS
 62
     0
 48
50.0
100
AcDbPoint
 10
6492.164931848214
 20
5746.907777930208
 30
0.0
  0
ENDBLK
  5
1F86E
330
1F863
100
AcDbEntity
  8
0
 48
50.0
100
AcDbBlockEnd
  0
BLOCK
  5
1F879
330
1F86F
100
AcDbEntity
  8
0
 48
50.0
100
AcDbBlockBegin
  2
*D30
 70
     1
 10
0.0
 20
0.0
 30
0.0
  3
*D30
  1

  0
LINE
  5
20D06
330
1F86F
100
AcDbEntity
  8
寸法
 62
     0
 48
50.0
370
    -2
100
AcDbLine
 10
7586.6
 20
8263.907777930208
 30
0.0
 11
6677.657733986182
 21
8263.907777930208
 31
0.0
  0
LINE
  5
20D07
330
1F86F
100
AcDbEntity
  8
寸法
 62
     0
 48
50.0
370
    -2
100
AcDbLine
 10
7586.600000000008
 20
5869.90777793021
 30
0.0
 11
6677.65773398618
 21
5869.90777793021
 31
0.0
  0
LINE
  5
20D08
330
1F86F
100
AcDbEntity
  8
寸法
 62
     0
 48
50.0
370
    -2
100
AcDbLine
 10
6737.657733986181
 20
8263.907777930208
 30
0.0
 11
6737.657733986181
 21
5869.90777793021
 31
0.0
  0
INSERT
  5
20D09
330
1F86F
100
AcDbEntity
  8
寸法
 62
     0
 48
50.0
370
    -2
100
AcDbBlockReference
  2
_DOTSMALL
 10
6737.657733986181
 20
8263.907777930208
 30
0.0
 41
100.0
 42
100.0
 43
100.0
 50
90.0
  0
INSERT
  5
20D0A
330
1F86F
100
AcDbEntity
  8
寸法
 62
     0
 48
50.0
370
    -2
100
AcDbBlockReference
  2
_DOTSMALL
 10
6737.657733986181
 20
5869.90777793021
 30
0.0
 41
100.0
 42
100.0
 43
100.0
 50
270.0
  0
MTEXT
  5
20D0B
330
1F86F
100
AcDbEntity
  8
寸法
 62
     7
 48
50.0
100
AcDbMText
 10
6637.645922962558
 20
7066.907777930208
 30
0.0
 40
120.0
 41
0.0
 71
     5
 72
     1
  1
\A1;2394
  7
STYLE1
 11
0.0000000000000001
 21
1.0
 31
0.0
 73
     1
 44
1.0
1001
ACAD
1000
MTEXTBEGIN
1070
    73
1070
     1
1070
    44
1040
1.0
1070
    74
1070
     0
1000
MTEXTEND
  0
POINT
  5
20D0C
330
1F86F
100
AcDbEntity
  8
DEFPOINTS
 62
     0
 48
50.0
100
AcDbPoint
 10
7606.6
 20
8263.907777930208
 30
0.0
  0
POINT
  5
20D0D
330
1F86F
100
AcDbEntity
  8
DEFPOINTS
 62
     0
 48
50.0
100
AcDbPoint
 10
7606.600000000007
 20
5869.90777793021
 30
0.0
  0
POINT
  5
20D0E
330
1F86F
100
AcDbEntity
  8
DEFPOINTS
 62
     0
 48
50.0
100
AcDbPoint
 10
6737.657733986181
 20
5869.90777793021
 30
0.0
  0
ENDBLK
  5
1F87A
330
1F86F
100
AcDbEntity
  8
0
 48
50.0
100
AcDbBlockEnd
  0
BLOCK
  5
1F894
330
1F889
100
AcDbEntity
  8
0
 48
50.0
100
AcDbBlockBegin
  2
*D31
 70
     1
 10
0.0
 20
0.0
 30
0.0
  3
*D31
  1

  0
LINE
  5
20C9C
330
1F889
100
AcDbEntity
  8
寸法
 62
     0
 48
50.0
370
    -2
100
AcDbLine
 10
7656.6
 20
8333.907777930209
 30
0.0
 11
7656.6
 21
9251.968388320138
 31
0.0
  0
LINE
  5
20C9D
330
1F889
100
AcDbEntity
  8
寸法
 62
     0
 48
50.0
370
    -2
100
AcDbLine
 10
7533.599999999999
 20
8406.907777930207
 30
0.0
 11
7533.599999999999
 21
9251.968388320138
 31
0.0
  0
LINE
  5
20C9E
330
1F889
100
AcDbEntity
  8
寸法
 62
     0
 48
50.0
370
    -2
100
AcDbLine
 10
7656.6
 20
9191.968388320139
 30
0.0
 11
7533.599999999999
 21
9191.968388320139
 31
0.0
  0
LINE
  5
20C9F
330
1F889
100
AcDbEntity
  8
寸法
 62
     0
 48
50.0
370
    -2
100
AcDbLine
 10
7533.599999999999
 20
9191.968388320139
 30
0.0
 11
7156.629437251523
 21
9191.968388320139
 31
0.0
  0
INSERT
  5
20CA0
330
1F889
100
AcDbEntity
  8
寸法
 62
     0
 48
50.0
370
    -2
100
AcDbBlockReference
  2
_DOTSMALL
 10
7656.6
 20
9191.968388320139
 30
0.0
 41
100.0
 42
100.0
 43
100.0
  0
INSERT
  5
20CA1
330
1F889
100
AcDbEntity
  8
寸法
 62
     0
 48
50.0
370
    -2
100
AcDbBlockReference
  2
_DOTSMALL
 10
7533.599999999999
 20
9191.968388320139
 30
0.0
 41
100.0
 42
100.0
 43
100.0
 50
180.0
  0
MTEXT
  5
20CA2
330
1F889
100
AcDbEntity
  8
寸法
 62
     7
 48
50.0
100
AcDbMText
 10
7295.114718625763
 20
9291.980199343759
 30
0.0
 40
120.0
 41
0.0
 71
     5
 72
     1
  1
\A1;123
  7
STYLE1
 73
     1
 44
1.0
1001
ACAD
1000
MTEXTBEGIN
1070
    73
1070
     1
1070
    44
1040
1.0
1070
    74
1070
     0
1000
MTEXTEND
  0
POINT
  5
20CA3
330
1F889
100
AcDbEntity
  8
DEFPOINTS
 62
     0
 48
50.0
100
AcDbPoint
 10
7656.6
 20
8313.907777930209
 30
0.0
  0
POINT
  5
20CA4
330
1F889
100
AcDbEntity
  8
DEFPOINTS
 62
     0
 48
50.0
100
AcDbPoint
 10
7533.599999999999
 20
8386.907777930208
 30
0.0
  0
POINT
  5
20CA5
330
1F889
100
AcDbEntity
  8
DEFPOINTS
 62
     0
 48
50.0
100
AcDbPoint
 10
7533.599999999999
 20
9191.968388320139
 30
0.0
  0
ENDBLK
  5
1F895
330
1F889
100
AcDbEntity
  8
0
 48
50.0
100
AcDbBlockEnd
  0
BLOCK
  5
1F8A0
330
1F896
100
AcDbEntity
  8
0
 48
50.0
100
AcDbBlockBegin
  2
*D32
 70
     1
 10
0.0
 20
0.0
 30
0.0
  3
*D32
  1

  0
LINE
  5
20C93
330
1F896
100
AcDbEntity
  8
寸法
 62
     0
 48
50.0
370
    -2
100
AcDbLine
 10
7533.599999999999
 20
8406.907777930207
 30
0.0
 11
7533.599999999999
 21
9464.429083836973
 31
0.0
  0
LINE
  5
20C94
330
1F896
100
AcDbEntity
  8
寸法
 62
     0
 48
50.0
370
    -2
100
AcDbLine
 10
8913.6
 20
8406.907777930207
 30
0.0
 11
8913.6
 21
9464.429083836973
 31
0.0
  0
LINE
  5
20C95
330
1F896
100
AcDbEntity
  8
寸法
 62
     0
 48
50.0
370
    -2
100
AcDbLine
 10
7533.599999999999
 20
9404.429083836975
 30
0.0
 11
8913.6
 21
9404.429083836975
 31
0.0
  0
INSERT
  5
20C96
330
1F896
100
AcDbEntity
  8
寸法
 62
     0
 48
50.0
370
    -2
100
AcDbBlockReference
  2
_DOTSMALL
 10
7533.599999999999
 20
9404.429083836975
 30
0.0
 41
100.0
 42
100.0
 43
100.0
 50
180.0
  0
INSERT
  5
20C97
330
1F896
100
AcDbEntity
  8
寸法
 62
     0
 48
50.0
370
    -2
100
AcDbBlockReference
  2
_DOTSMALL
 10
8913.6
 20
9404.429083836975
 30
0.0
 41
100.0
 42
100.0
 43
100.0
  0
MTEXT
  5
20C98
330
1F896
100
AcDbEntity
  8
寸法
 62
     7
 48
50.0
100
AcDbMText
 10
8223.600000000001
 20
9504.429083836974
 30
0.0
 40
120.0
 41
0.0
 71
     5
 72
     1
  1
\A1;1380
  7
STYLE1
 73
     1
 44
1.0
1001
ACAD
1000
MTEXTBEGIN
1070
    73
1070
     1
1070
    44
1040
1.0
1070
    74
1070
     0
1000
MTEXTEND
  0
POINT
  5
20C99
330
1F896
100
AcDbEntity
  8
DEFPOINTS
 62
     0
 48
50.0
100
AcDbPoint
 10
7533.599999999999
 20
8386.907777930208
 30
0.0
  0
POINT
  5
20C9A
330
1F896
100
AcDbEntity
  8
DEFPOINTS
 62
     0
 48
50.0
100
AcDbPoint
 10
8913.6
 20
8386.907777930208
 30
0.0
  0
POINT
  5
20C9B
330
1F896
100
AcDbEntity
  8
DEFPOINTS
 62
     0
 48
50.0
100
AcDbPoint
 10
8913.6
 20
9404.429083836975
 30
0.0
  0
ENDBLK
  5
1F8A1
330
1F896
100
AcDbEntity
  8
0
 48
50.0
100
AcDbBlockEnd
  0
BLOCK
  5
1F8AC
330
1F8A2
100
AcDbEntity
  8
0
 48
50.0
100
AcDbBlockBegin
  2
*D33
 70
     1
 10
0.0
 20
0.0
 30
0.0
  3
*D33
  1

  0
LINE
  5
20C8A
330
1F8A2
100
AcDbEntity
  8
寸法
 62
     0
 48
50.0
370
    -2
100
AcDbLine
 10
8790.600000000001
 20
8333.907777930209
 30
0.0
 11
8790.600000000001
 21
9251.968388320138
 31
0.0
  0
LINE
  5
20C8B
330
1F8A2
100
AcDbEntity
  8
寸法
 62
     0
 48
50.0
370
    -2
100
AcDbLine
 10
7656.6
 20
8333.907777930209
 30
0.0
 11
7656.6
 21
9251.968388320138
 31
0.0
  0
LINE
  5
20C8C
330
1F8A2
100
AcDbEntity
  8
寸法
 62
     0
 48
50.0
370
    -2
100
AcDbLine
 10
8790.600000000001
 20
9191.968388320139
 30
0.0
 11
7656.6
 21
9191.968388320139
 31
0.0
  0
INSERT
  5
20C8D
330
1F8A2
100
AcDbEntity
  8
寸法
 62
     0
 48
50.0
370
    -2
100
AcDbBlockReference
  2
_DOTSMALL
 10
8790.600000000001
 20
9191.968388320139
 30
0.0
 41
100.0
 42
100.0
 43
100.0
  0
INSERT
  5
20C8E
330
1F8A2
100
AcDbEntity
  8
寸法
 62
     0
 48
50.0
370
    -2
100
AcDbBlockReference
  2
_DOTSMALL
 10
7656.6
 20
9191.968388320139
 30
0.0
 41
100.0
 42
100.0
 43
100.0
 50
180.0
  0
MTEXT
  5
20C8F
330
1F8A2
100
AcDbEntity
  8
寸法
 62
     7
 48
50.0
100
AcDbMText
 10
8223.600000000001
 20
9291.968388320139
 30
0.0
 40
120.0
 41
0.0
 71
     5
 72
     1
  1
\A1;1134
  7
STYLE1
 73
     1
 44
1.0
1001
ACAD
1000
MTEXTBEGIN
1070
    73
1070
     1
1070
    44
1040
1.0
1070
    74
1070
     0
1000
MTEXTEND
  0
POINT
  5
20C90
330
1F8A2
100
AcDbEntity
  8
DEFPOINTS
 62
     0
 48
50.0
100
AcDbPoint
 10
8790.600000000001
 20
8313.907777930209
 30
0.0
  0
POINT
  5
20C91
330
1F8A2
100
AcDbEntity
  8
DEFPOINTS
 62
     0
 48
50.0
100
AcDbPoint
 10
7656.6
 20
8313.907777930209
 30
0.0
  0
POINT
  5
20C92
330
1F8A2
100
AcDbEntity
  8
DEFPOINTS
 62
     0
 48
50.0
100
AcDbPoint
 10
7656.6
 20
9191.968388320139
 30
0.0
  0
ENDBLK
  5
1F8AD
330
1F8A2
100
AcDbEntity
  8
0
 48
50.0
100
AcDbBlockEnd
  0
BLOCK
  5
20496
330
2048A
100
AcDbEntity
  8
0
 48
50.0
100
AcDbBlockBegin
  2
*D34
 70
     1
 10
0.0
 20
0.0
 30
0.0
  3
*D34
  1

  0
LINE
  5
20C7F
330
2048A
100
AcDbEntity
  8
寸法
 62
     0
 48
50.0
370
    -2
100
AcDbLine
 10
7488.600000000002
 20
9211.968388320137
 30
0.0
 11
7488.600000000002
 21
9464.429083836973
 31
0.0
  0
LINE
  5
20C80
330
2048A
100
AcDbEntity
  8
寸法
 62
     0
 48
50.0
370
    -2
100
AcDbLine
 10
7533.599999999999
 20
8406.907777930207
 30
0.0
 11
7533.599999999999
 21
9464.429083836973
 31
0.0
  0
LINE
  5
20C81
330
2048A
100
AcDbEntity
  8
寸法
 62
     0
 48
50.0
370
    -2
100
AcDbLine
 10
7533.599999999999
 20
9404.429083836975
 30
0.0
 11
7633.6
 21
9404.429083836975
 31
0.0
  0
LINE
  5
20C82
330
2048A
100
AcDbEntity
  8
寸法
 62
     0
 48
50.0
370
    -2
100
AcDbLine
 10
7488.600000000002
 20
9404.429083836975
 30
0.0
 11
7151.250757595083
 21
9404.429083836975
 31
0.0
  0
LINE
  5
20C83
330
2048A
100
AcDbEntity
  8
寸法
 62
     0
 48
50.0
370
    -2
100
AcDbLine
 10
7533.599999999999
 20
9404.429083836975
 30
0.0
 11
7488.600000000002
 21
9404.429083836975
 31
0.0
  0
INSERT
  5
20C84
330
2048A
100
AcDbEntity
  8
寸法
 62
     0
 48
50.0
370
    -2
100
AcDbBlockReference
  2
_DOTSMALL
 10
7533.599999999999
 20
9404.429083836975
 30
0.0
 41
100.0
 42
100.0
 43
100.0
 50
180.0
  0
INSERT
  5
20C85
330
2048A
100
AcDbEntity
  8
寸法
 62
     0
 48
50.0
370
    -2
100
AcDbBlockReference
  2
_DOTSMALL
 10
7488.600000000002
 20
9404.429083836975
 30
0.0
 41
100.0
 42
100.0
 43
100.0
  0
MTEXT
  5
20C86
330
2048A
100
AcDbEntity
  8
寸法
 62
     7
 48
50.0
100
AcDbMText
 10
7217.425378797542
 20
9504.429083836974
 30
0.0
 40
120.0
 41
0.0
 71
     5
 72
     1
  1
\A1;a
  7
STYLE1
 73
     1
 44
1.0
1001
ACAD
1000
MTEXTBEGIN
1070
    73
1070
     1
1070
    44
1040
1.0
1070
    74
1070
     0
1000
MTEXTEND
  0
POINT
  5
20C87
330
2048A
100
AcDbEntity
  8
DEFPOINTS
 62
     0
 48
50.0
100
AcDbPoint
 10
7488.600000000002
 20
9191.968388320139
 30
0.0
  0
POINT
  5
20C88
330
2048A
100
AcDbEntity
  8
DEFPOINTS
 62
     0
 48
50.0
100
AcDbPoint
 10
7533.599999999999
 20
8386.907777930208
 30
0.0
  0
POINT
  5
20C89
330
2048A
100
AcDbEntity
  8
DEFPOINTS
 62
     0
 48
50.0
100
AcDbPoint
 10
7533.599999999999
 20
9404.429083836975
 30
0.0
  0
ENDBLK
  5
20497
330
2048A
100
AcDbEntity
  8
0
 48
50.0
100
AcDbBlockEnd
  0
BLOCK
  5
204B2
330
204A6
100
AcDbEntity
  8
0
 48
50.0
100
AcDbBlockBegin
  2
*D35
 70
     1
 10
0.0
 20
0.0
 30
0.0
  3
*D35
  1

  0
LINE
  5
20C74
330
204A6
100
AcDbEntity
  8
寸法
 62
     0
 48
50.0
370
    -2
100
AcDbLine
 10
8913.599999999989
 20
8406.907777930205
 30
0.0
 11
8913.599999999989
 21
9464.429083836973
 31
0.0
  0
LINE
  5
20C75
330
204A6
100
AcDbEntity
  8
寸法
 62
     0
 48
50.0
370
    -2
100
AcDbLine
 10
8958.6
 20
9211.968388320137
 30
0.0
 11
8958.6
 21
9464.429083836973
 31
0.0
  0
LINE
  5
20C76
330
204A6
100
AcDbEntity
  8
寸法
 62
     0
 48
50.0
370
    -2
100
AcDbLine
 10
8913.599999999989
 20
9404.429083836975
 30
0.0
 11
8813.59999999999
 21
9404.429083836975
 31
0.0
  0
LINE
  5
20C77
330
204A6
100
AcDbEntity
  8
寸法
 62
     0
 48
50.0
370
    -2
100
AcDbLine
 10
8958.6
 20
9404.429083836975
 30
0.0
 11
9295.949242404919
 21
9404.429083836975
 31
0.0
  0
LINE
  5
20C78
330
204A6
100
AcDbEntity
  8
寸法
 62
     0
 48
50.0
370
    -2
100
AcDbLine
 10
8913.599999999989
 20
9404.429083836975
 30
0.0
 11
8958.6
 21
9404.429083836975
 31
0.0
  0
INSERT
  5
20C79
330
204A6
100
AcDbEntity
  8
寸法
 62
     0
 48
50.0
370
    -2
100
AcDbBlockReference
  2
_DOTSMALL
 10
8913.599999999989
 20
9404.429083836975
 30
0.0
 41
100.0
 42
100.0
 43
100.0
  0
INSERT
  5
20C7A
330
204A6
100
AcDbEntity
  8
寸法
 62
     0
 48
50.0
370
    -2
100
AcDbBlockReference
  2
_DOTSMALL
 10
8958.6
 20
9404.429083836975
 30
0.0
 41
100.0
 42
100.0
 43
100.0
 50
180.0
  0
MTEXT
  5
20C7B
330
204A6
100
AcDbEntity
  8
寸法
 62
     7
 48
50.0
100
AcDbMText
 10
9229.774621202459
 20
9504.429083836974
 30
0.0
 40
120.0
 41
0.0
 71
     5
 72
     1
  1
\A1;a
  7
STYLE1
 73
     1
 44
1.0
1001
ACAD
1000
MTEXTBEGIN
1070
    73
1070
     1
1070
    44
1040
1.0
1070
    74
1070
     0
1000
MTEXTEND
  0
POINT
  5
20C7C
330
204A6
100
AcDbEntity
  8
DEFPOINTS
 62
     0
 48
50.0
100
AcDbPoint
 10
8913.599999999989
 20
8386.907777930206
 30
0.0
  0
POINT
  5
20C7D
330
204A6
100
AcDbEntity
  8
DEFPOINTS
 62
     0
 48
50.0
100
AcDbPoint
 10
8958.6
 20
9191.968388320139
 30
0.0
  0
POINT
  5
20C7E
330
204A6
100
AcDbEntity
  8
DEFPOINTS
 62
     0
 48
50.0
100
AcDbPoint
 10
8958.6
 20
9404.429083836975
 30
0.0
  0
ENDBLK
  5
204B3
330
204A6
100
AcDbEntity
  8
0
 48
50.0
100
AcDbBlockEnd
  0
BLOCK
  5
206F8
330
206EE
100
AcDbEntity
  8
0
 48
50.0
100
AcDbBlockBegin
  2
*D36
 70
     1
 10
0.0
 20
0.0
 30
0.0
  3
*D36
  1

  0
LINE
  5
21695
330
206EE
100
AcDbEntity
  8
寸法
 62
     0
 48
50.0
370
    -2
100
AcDbLine
 10
7513.600000000036
 20
5746.907777930211
 30
0.0
 11
6922.503367597602
 21
5746.907777930211
 31
0.0
  0
LINE
  5
21696
330
206EE
100
AcDbEntity
  8
寸法
 62
     0
 48
50.0
370
    -2
100
AcDbLine
 10
8003.6
 20
6651.907777930208
 30
0.0
 11
6922.503367597603
 21
6651.907777930208
 31
0.0
  0
LINE
  5
21697
330
206EE
100
AcDbEntity
  8
寸法
 62
     0
 48
50.0
370
    -2
100
AcDbLine
 10
6982.503367597601
 20
5746.907777930211
 30
0.0
 11
6982.503367597603
 21
6651.907777930208
 31
0.0
  0
INSERT
  5
21698
330
206EE
100
AcDbEntity
  8
寸法
 62
     0
 48
50.0
370
    -2
100
AcDbBlockReference
  2
_DOTSMALL
 10
6982.503367597601
 20
5746.907777930211
 30
0.0
 41
100.0
 42
100.0
 43
100.0
 50
270.0
  0
INSERT
  5
21699
330
206EE
100
AcDbEntity
  8
寸法
 62
     0
 48
50.0
370
    -2
100
AcDbBlockReference
  2
_DOTSMALL
 10
6982.503367597603
 20
6651.907777930208
 30
0.0
 41
100.0
 42
100.0
 43
100.0
 50
90.0
  0
MTEXT
  5
2169A
330
206EE
100
AcDbEntity
  8
寸法
 62
     7
 48
50.0
100
AcDbMText
 10
6882.503367597601
 20
6200.010127818401
 30
0.0
 40
120.0
 41
0.0
 71
     5
 72
     1
  1
\A1;905
  7
STYLE1
 11
0.0000000000000001
 21
1.0
 31
0.0
 73
     1
 44
1.0
1001
ACAD
1000
MTEXTBEGIN
1070
    73
1070
     1
1070
    44
1040
1.0
1070
    74
1070
     0
1000
MTEXTEND
  0
POINT
  5
2169B
330
206EE
100
AcDbEntity
  8
DEFPOINTS
 62
     0
 48
50.0
100
AcDbPoint
 10
7533.600000000035
 20
5746.907777930211
 30
0.0
  0
POINT
  5
2169C
330
206EE
100
AcDbEntity
  8
DEFPOINTS
 62
     0
 48
50.0
100
AcDbPoint
 10
8023.6
 20
6651.907777930208
 30
0.0
  0
POINT
  5
2169D
330
206EE
100
AcDbEntity
  8
DEFPOINTS
 62
     0
 48
50.0
100
AcDbPoint
 10
6982.503367597603
 20
6651.907777930208
 30
0.0
  0
ENDBLK
  5
206F9
330
206EE
100
AcDbEntity
  8
0
 48
50.0
100
AcDbBlockEnd
  0
BLOCK
  5
20729
330
2071F
100
AcDbEntity
  8
0
 48
50.0
100
AcDbBlockBegin
  2
*D37
 70
     1
 10
0.0
 20
0.0
 30
0.0
  3
*D37
  1

  0
LINE
  5
2168C
330
2071F
100
AcDbEntity
  8
寸法
 62
     0
 48
50.0
370
    -2
100
AcDbLine
 10
8003.6
 20
7481.907777930207
 30
0.0
 11
6922.503367597603
 21
7481.907777930207
 31
0.0
  0
LINE
  5
2168D
330
2071F
100
AcDbEntity
  8
寸法
 62
     0
 48
50.0
370
    -2
100
AcDbLine
 10
7513.600000000001
 20
8386.907777930208
 30
0.0
 11
6922.503367597603
 21
8386.907777930208
 31
0.0
  0
LINE
  5
2168E
330
2071F
100
AcDbEntity
  8
寸法
 62
     0
 48
50.0
370
    -2
100
AcDbLine
 10
6982.503367597603
 20
7481.907777930207
 30
0.0
 11
6982.503367597603
 21
8386.907777930208
 31
0.0
  0
INSERT
  5
2168F
330
2071F
100
AcDbEntity
  8
寸法
 62
     0
 48
50.0
370
    -2
100
AcDbBlockReference
  2
_DOTSMALL
 10
6982.503367597603
 20
7481.907777930207
 30
0.0
 41
100.0
 42
100.0
 43
100.0
 50
270.0
  0
INSERT
  5
21690
330
2071F
100
AcDbEntity
  8
寸法
 62
     0
 48
50.0
370
    -2
100
AcDbBlockReference
  2
_DOTSMALL
 10
6982.503367597603
 20
8386.907777930208
 30
0.0
 41
100.0
 42
100.0
 43
100.0
 50
90.0
  0
MTEXT
  5
21691
330
2071F
100
AcDbEntity
  8
寸法
 62
     7
 48
50.0
100
AcDbMText
 10
6882.503367597601
 20
7934.40777793021
 30
0.0
 40
120.0
 41
0.0
 71
     5
 72
     1
  1
\A1;905
  7
STYLE1
 11
0.0000000000000001
 21
1.0
 31
0.0
 73
     1
 44
1.0
1001
ACAD
1000
MTEXTBEGIN
1070
    73
1070
     1
1070
    44
1040
1.0
1070
    74
1070
     0
1000
MTEXTEND
  0
POINT
  5
21692
330
2071F
100
AcDbEntity
  8
DEFPOINTS
 62
     0
 48
50.0
100
AcDbPoint
 10
8023.6
 20
7481.907777930207
 30
0.0
  0
POINT
  5
21693
330
2071F
100
AcDbEntity
  8
DEFPOINTS
 62
     0
 48
50.0
100
AcDbPoint
 10
7533.599999999999
 20
8386.907777930208
 30
0.0
  0
POINT
  5
21694
330
2071F
100
AcDbEntity
  8
DEFPOINTS
 62
     0
 48
50.0
100
AcDbPoint
 10
6982.503367597603
 20
8386.907777930208
 30
0.0
  0
ENDBLK
  5
2072A
330
2071F
100
AcDbEntity
  8
0
 48
50.0
100
AcDbBlockEnd
  0
BLOCK
  5
20748
330
2073E
100
AcDbEntity
  8
0
 48
50.0
100
AcDbBlockBegin
  2
*D38
 70
     1
 10
0.0
 20
0.0
 30
0.0
  3
*D38
  1

  0
LINE
  5
21683
330
2073E
100
AcDbEntity
  8
寸法
 62
     0
 48
50.0
370
    -2
100
AcDbLine
 10
8003.6
 20
6651.907777930208
 30
0.0
 11
6922.503367597606
 21
6651.907777930208
 31
0.0
  0
LINE
  5
21684
330
2073E
100
AcDbEntity
  8
寸法
 62
     0
 48
50.0
370
    -2
100
AcDbLine
 10
8003.6
 20
7481.907777930207
 30
0.0
 11
6922.503367597606
 21
7481.907777930207
 31
0.0
  0
LINE
  5
21685
330
2073E
100
AcDbEntity
  8
寸法
 62
     0
 48
50.0
370
    -2
100
AcDbLine
 10
6982.503367597607
 20
6651.907777930208
 30
0.0
 11
6982.503367597607
 21
7481.907777930207
 31
0.0
  0
INSERT
  5
21686
330
2073E
100
AcDbEntity
  8
寸法
 62
     0
 48
50.0
370
    -2
100
AcDbBlockReference
  2
_DOTSMALL
 10
6982.503367597607
 20
6651.907777930208
 30
0.0
 41
100.0
 42
100.0
 43
100.0
 50
270.0
  0
INSERT
  5
21687
330
2073E
100
AcDbEntity
  8
寸法
 62
     0
 48
50.0
370
    -2
100
AcDbBlockReference
  2
_DOTSMALL
 10
6982.503367597607
 20
7481.907777930207
 30
0.0
 41
100.0
 42
100.0
 43
100.0
 50
90.0
  0
MTEXT
  5
21688
330
2073E
100
AcDbEntity
  8
寸法
 62
     7
 48
50.0
100
AcDbMText
 10
6882.503367597604
 20
7066.907777930208
 30
0.0
 40
120.0
 41
0.0
 71
     5
 72
     1
  1
\A1;830
  7
STYLE1
 11
0.0000000000000001
 21
1.0
 31
0.0
 73
     1
 44
1.0
1001
ACAD
1000
MTEXTBEGIN
1070
    73
1070
     1
1070
    44
1040
1.0
1070
    74
1070
     0
1000
MTEXTEND
  0
POINT
  5
21689
330
2073E
100
AcDbEntity
  8
DEFPOINTS
 62
     0
 48
50.0
100
AcDbPoint
 10
8023.6
 20
6651.907777930208
 30
0.0
  0
POINT
  5
2168A
330
2073E
100
AcDbEntity
  8
DEFPOINTS
 62
     0
 48
50.0
100
AcDbPoint
 10
8023.6
 20
7481.907777930207
 30
0.0
  0
POINT
  5
2168B
330
2073E
100
AcDbEntity
  8
DEFPOINTS
 62
     0
 48
50.0
100
AcDbPoint
 10
6982.503367597607
 20
7481.907777930207
 30
0.0
  0
ENDBLK
  5
20749
330
2073E
100
AcDbEntity
  8
0
 48
50.0
100
AcDbBlockEnd
  0
BLOCK
  5
21883
330
21879
100
AcDbEntity
  8
0
 48
50.0
100
AcDbBlockBegin
  2
*D39
 70
     1
 10
0.0
 20
0.0
 30
0.0
  3
*D39
  1

  0
LINE
  5
21A75
330
21879
100
AcDbEntity
  8
寸法
 62
     0
 48
50.0
370
    -2
100
AcDbLine
 10
8913.600000000018
 20
5651.907777930227
 30
0.0
 11
8913.600000000018
 21
4897.043474506101
 31
0.0
  0
LINE
  5
21A76
330
21879
100
AcDbEntity
  8
寸法
 62
     0
 48
50.0
370
    -2
100
AcDbLine
 10
7533.600000000035
 20
5651.907777930211
 30
0.0
 11
7533.600000000035
 21
4897.043474506101
 31
0.0
  0
LINE
  5
21A77
330
21879
100
AcDbEntity
  8
寸法
 62
     0
 48
50.0
370
    -2
100
AcDbLine
 10
8913.600000000018
 20
4957.0434745061
 30
0.0
 11
7533.600000000035
 21
4957.0434745061
 31
0.0
  0
INSERT
  5
21A78
330
21879
100
AcDbEntity
  8
寸法
 62
     0
 48
50.0
370
    -2
100
AcDbBlockReference
  2
_DOTSMALL
 10
8913.600000000018
 20
4957.0434745061
 30
0.0
 41
100.0
 42
100.0
 43
100.0
  0
INSERT
  5
21A79
330
21879
100
AcDbEntity
  8
寸法
 62
     0
 48
50.0
370
    -2
100
AcDbBlockReference
  2
_DOTSMALL
 10
7533.600000000035
 20
4957.0434745061
 30
0.0
 41
100.0
 42
100.0
 43
100.0
 50
180.0
  0
MTEXT
  5
21A7A
330
21879
100
AcDbEntity
  8
寸法
 62
     7
 48
50.0
100
AcDbMText
 10
8223.600000000027
 20
5057.0434745061
 30
0.0
 40
120.0
 41
0.0
 71
     5
 72
     1
  1
\A1;扉の幅 1380
  7
STYLE1
 73
     1
 44
1.0
1001
ACAD
1000
MTEXTBEGIN
1070
    73
1070
     1
1070
    44
1040
1.0
1070
    74
1070
     0
1000
MTEXTEND
  0
POINT
  5
21A7B
330
21879
100
AcDbEntity
  8
DEFPOINTS
 62
     0
 48
50.0
100
AcDbPoint
 10
8913.600000000018
 20
5671.907777930226
 30
0.0
  0
POINT
  5
21A7C
330
21879
100
AcDbEntity
  8
DEFPOINTS
 62
     0
 48
50.0
100
AcDbPoint
 10
7533.600000000035
 20
5671.90777793021
 30
0.0
  0
POINT
  5
21A7D
330
21879
100
AcDbEntity
  8
DEFPOINTS
 62
     0
 48
50.0
100
AcDbPoint
 10
7533.600000000035
 20
4957.0434745061
 30
0.0
  0
ENDBLK
  5
21884
330
21879
100
AcDbEntity
  8
0
 48
50.0
100
AcDbBlockEnd
  0
BLOCK
  5
218E2
330
218D7
100
AcDbEntity
  8
0
 48
50.0
100
AcDbBlockBegin
  2
*D40
 70
     1
 10
0.0
 20
0.0
 30
0.0
  3
*D40
  1

  0
LINE
  5
21F23
330
218D7
100
AcDbEntity
  8
寸法
 62
     0
 48
50.0
370
    -2
100
AcDbLine
 10
7783.599999999998
 20
5866.907777930228
 30
0.0
 11
8052.9384600463
 21
5866.907777930228
 31
0.0
  0
LINE
  5
21F24
330
218D7
100
AcDbEntity
  8
寸法
 62
     0
 48
50.0
370
    -2
100
AcDbLine
 10
7783.600000000038
 20
5976.907777930225
 30
0.0
 11
8052.9384600463
 21
5976.907777930225
 31
0.0
  0
LINE
  5
21F25
330
218D7
100
AcDbEntity
  8
寸法
 62
     0
 48
50.0
370
    -2
100
AcDbLine
 10
7992.938460046301
 20
5866.907777930228
 30
0.0
 11
7992.938460046301
 21
5976.907777930225
 31
0.0
  0
LINE
  5
21F26
330
218D7
100
AcDbEntity
  8
寸法
 62
     0
 48
50.0
370
    -2
100
AcDbLine
 10
7992.938460046301
 20
5976.907777930225
 30
0.0
 11
7992.938460046302
 21
6337.002266119202
 31
0.0
  0
INSERT
  5
21F27
330
218D7
100
AcDbEntity
  8
寸法
 62
     0
 48
50.0
370
    -2
100
AcDbBlockReference
  2
_DOTSMALL
 10
7992.938460046301
 20
5866.907777930228
 30
0.0
 41
100.0
 42
100.0
 43
100.0
 50
270.0
  0
INSERT
  5
21F28
330
218D7
100
AcDbEntity
  8
寸法
 62
     0
 48
50.0
370
    -2
100
AcDbBlockReference
  2
_DOTSMALL
 10
7992.938460046301
 20
5976.907777930225
 30
0.0
 41
100.0
 42
100.0
 43
100.0
 50
90.0
  0
MTEXT
  5
21F29
330
218D7
100
AcDbEntity
  8
寸法
 62
     7
 48
50.0
100
AcDbMText
 10
7892.938460046299
 20
6212.955022024715
 30
0.0
 40
120.0
 41
0.0
 71
     5
 72
     1
  1
\A1;110
  7
STYLE1
 11
0.0000000000000001
 21
1.0
 31
0.0
 73
     1
 44
1.0
1001
ACAD
1000
MTEXTBEGIN
1070
    73
1070
     1
1070
    44
1040
1.0
1070
    74
1070
     0
1000
MTEXTEND
  0
POINT
  5
21F2A
330
218D7
100
AcDbEntity
  8
DEFPOINTS
 62
     0
 48
50.0
100
AcDbPoint
 10
7763.599999999998
 20
5866.907777930228
 30
0.0
  0
POINT
  5
21F2B
330
218D7
100
AcDbEntity
  8
DEFPOINTS
 62
     0
 48
50.0
100
AcDbPoint
 10
7763.600000000038
 20
5976.907777930225
 30
0.0
  0
POINT
  5
21F2C
330
218D7
100
AcDbEntity
  8
DEFPOINTS
 62
     0
 48
50.0
100
AcDbPoint
 10
7992.938460046301
 20
5976.907777930225
 30
0.0
  0
ENDBLK
  5
218E3
330
218D7
100
AcDbEntity
  8
0
 48
50.0
100
AcDbBlockEnd
  0
BLOCK
  5
218FB
330
218F0
100
AcDbEntity
  8
0
 48
50.0
100
AcDbBlockBegin
  2
*D41
 70
     1
 10
0.0
 20
0.0
 30
0.0
  3
*D41
  1

  0
LINE
  5
21F19
330
218F0
100
AcDbEntity
  8
寸法
 62
     0
 48
50.0
370
    -2
100
AcDbLine
 10
7783.600000000035
 20
5671.907777930226
 30
0.0
 11
8052.9384600463
 21
5671.907777930226
 31
0.0
  0
LINE
  5
21F1A
330
218F0
100
AcDbEntity
  8
寸法
 62
     0
 48
50.0
370
    -2
100
AcDbLine
 10
7783.599999999999
 20
5866.907777930212
 30
0.0
 11
8052.9384600463
 21
5866.907777930212
 31
0.0
  0
LINE
  5
21F1B
330
218F0
100
AcDbEntity
  8
寸法
 62
     0
 48
50.0
370
    -2
100
AcDbLine
 10
7992.938460046301
 20
5866.907777930212
 30
0.0
 11
7992.938460046301
 21
5671.907777930226
 31
0.0
  0
LINE
  5
21F1C
330
218F0
100
AcDbEntity
  8
寸法
 62
     0
 48
50.0
370
    -2
100
AcDbLine
 10
7992.938460046301
 20
5671.907777930226
 30
0.0
 11
7992.938460046301
 21
5294.517895522435
 31
0.0
  0
INSERT
  5
21F1D
330
218F0
100
AcDbEntity
  8
寸法
 62
     0
 48
50.0
370
    -2
100
AcDbBlockReference
  2
_DOTSMALL
 10
7992.938460046301
 20
5866.907777930212
 30
0.0
 41
100.0
 42
100.0
 43
100.0
 50
90.0
  0
INSERT
  5
21F1E
330
218F0
100
AcDbEntity
  8
寸法
 62
     0
 48
50.0
370
    -2
100
AcDbBlockReference
  2
_DOTSMALL
 10
7992.938460046301
 20
5671.907777930226
 30
0.0
 41
100.0
 42
100.0
 43
100.0
 50
270.0
  0
MTEXT
  5
21F1F
330
218F0
100
AcDbEntity
  8
寸法
 62
     7
 48
50.0
100
AcDbMText
 10
7892.938460046299
 20
5433.212836726331
 30
0.0
 40
120.0
 41
0.0
 71
     5
 72
     1
  1
\A1;195
  7
STYLE1
 11
0.0000000000000001
 21
1.0
 31
0.0
 73
     1
 44
1.0
1001
ACAD
1000
MTEXTBEGIN
1070
    73
1070
     1
1070
    44
1040
1.0
1070
    74
1070
     0
1000
MTEXTEND
  0
POINT
  5
21F20
330
218F0
100
AcDbEntity
  8
DEFPOINTS
 62
     0
 48
50.0
100
AcDbPoint
 10
7763.600000000036
 20
5671.907777930226
 30
0.0
  0
POINT
  5
21F21
330
218F0
100
AcDbEntity
  8
DEFPOINTS
 62
     0
 48
50.0
100
AcDbPoint
 10
7763.600000000001
 20
5866.907777930212
 30
0.0
  0
POINT
  5
21F22
330
218F0
100
AcDbEntity
  8
DEFPOINTS
 62
     0
 48
50.0
100
AcDbPoint
 10
7992.938460046301
 20
5866.907777930212
 30
0.0
  0
ENDBLK
  5
218FC
330
218F0
100
AcDbEntity
  8
0
 48
50.0
100
AcDbBlockEnd
  0
BLOCK
  5
22543
330
22539
100
AcDbEntity
  8
0
 48
50.0
100
AcDbBlockBegin
  2
*D42
 70
     1
 10
0.0
 20
0.0
 30
0.0
  3
*D42
  1

  0
LINE
  5
22586
330
22539
100
AcDbEntity
  8
寸法
 62
     0
 48
50.0
370
    -2
100
AcDbLine
 10
8304.70773703273
 20
2143.335363828317
 30
0.0
 11
8846.576336801573
 21
2143.335363828317
 31
0.0
  0
LINE
  5
22587
330
22539
100
AcDbEntity
  8
寸法
 62
     0
 48
50.0
370
    -2
100
AcDbLine
 10
8304.70773703273
 20
1819.335363828316
 30
0.0
 11
8846.576336801573
 21
1819.335363828316
 31
0.0
  0
LINE
  5
22588
330
22539
100
AcDbEntity
  8
寸法
 62
     0
 48
50.0
370
    -2
100
AcDbLine
 10
8786.576336801571
 20
2143.335363828317
 30
0.0
 11
8786.576336801571
 21
1819.335363828316
 31
0.0
  0
INSERT
  5
22589
330
22539
100
AcDbEntity
  8
寸法
 62
     0
 48
50.0
370
    -2
100
AcDbBlockReference
  2
_DOTSMALL
 10
8786.576336801571
 20
2143.335363828317
 30
0.0
 41
100.0
 42
100.0
 43
100.0
 50
90.0
  0
INSERT
  5
2258A
330
22539
100
AcDbEntity
  8
寸法
 62
     0
 48
50.0
370
    -2
100
AcDbBlockReference
  2
_DOTSMALL
 10
8786.576336801571
 20
1819.335363828316
 30
0.0
 41
100.0
 42
100.0
 43
100.0
 50
270.0
  0
MTEXT
  5
2258B
330
22539
100
AcDbEntity
  8
寸法
 62
     7
 48
50.0
100
AcDbMText
 10
8686.576336801572
 20
1981.335363828318
 30
0.0
 40
120.0
 41
0.0
 71
     5
 72
     1
  1
\A1;180
  7
STYLE1
 11
0.0000000000000001
 21
1.0
 31
0.0
 73
     1
 44
1.0
1001
ACAD
1000
MTEXTBEGIN
1070
    73
1070
     1
1070
    44
1040
1.0
1070
    74
1070
     0
1000
MTEXTEND
  0
POINT
  5
2258C
330
22539
100
AcDbEntity
  8
DEFPOINTS
 62
     0
 48
50.0
100
AcDbPoint
 10
8284.70773703273
 20
2143.335363828317
 30
0.0
  0
POINT
  5
2258D
330
22539
100
AcDbEntity
  8
DEFPOINTS
 62
     0
 48
50.0
100
AcDbPoint
 10
8284.70773703273
 20
1819.335363828316
 30
0.0
  0
POINT
  5
2258E
330
22539
100
AcDbEntity
  8
DEFPOINTS
 62
     0
 48
50.0
100
AcDbPoint
 10
8786.576336801571
 20
1819.335363828316
 30
0.0
  0
ENDBLK
  5
22544
330
22539
100
AcDbEntity
  8
0
 48
50.0
100
AcDbBlockEnd
  0
BLOCK
  5
22554
330
22545
100
AcDbEntity
  8
0
 48
50.0
100
AcDbBlockBegin
  2
*D43
 70
     1
 10
0.0
 20
0.0
 30
0.0
  3
*D43
  1

  0
LINE
  5
2258F
330
22545
100
AcDbEntity
  8
寸法
 62
     0
 48
50.0
370
    -2
100
AcDbLine
 10
8117.507737032731
 20
2196.095363828318
 30
0.0
 11
8846.576336801573
 21
2196.095363828318
 31
0.0
  0
LINE
  5
22590
330
22545
100
AcDbEntity
  8
寸法
 62
     0
 48
50.0
370
    -2
100
AcDbLine
 10
8304.70773703273
 20
2143.335363828317
 30
0.0
 11
8846.576336801573
 21
2143.335363828317
 31
0.0
  0
LINE
  5
22591
330
22545
100
AcDbEntity
  8
寸法
 62
     0
 48
50.0
370
    -2
100
AcDbLine
 10
8786.576336801571
 20
2196.095363828318
 30
0.0
 11
8786.576336801571
 21
2296.095363828318
 31
0.0
  0
LINE
  5
22592
330
22545
100
AcDbEntity
  8
寸法
 62
     0
 48
50.0
370
    -2
100
AcDbLine
 10
8786.576336801571
 20
2143.335363828317
 30
0.0
 11
8786.576336801571
 21
2043.335363828317
 31
0.0
  0
LINE
  5
22593
330
22545
100
AcDbEntity
  8
寸法
 62
     0
 48
50.0
370
    -2
100
AcDbLine
 10
8786.576336801571
 20
2169.715363828318
 30
0.0
 11
9062.6310029206
 21
2158.211406224104
 31
0.0
  0
LINE
  5
22594
330
22545
100
AcDbEntity
  8
寸法
 62
     0
 48
50.0
370
    -2
100
AcDbLine
 10
9062.6310029206
 20
2158.211406224104
 30
0.0
 11
9062.6310029206
 21
1626.193599381138
 31
0.0
  0
MTEXT
  5
22595
330
22545
100
AcDbEntity
  8
寸法
 62
     7
 48
50.0
100
AcDbMText
 10
8962.619191896978
 20
1892.202502802622
 30
0.0
 40
120.0
 41
0.0
 71
     5
 72
     1
  1
\A1;20～25
  7
STYLE1
 11
0.0000000000000001
 21
1.0
 31
0.0
 73
     1
 44
1.0
1001
ACAD
1000
MTEXTBEGIN
1070
    73
1070
     1
1070
    44
1040
1.0
1070
    74
1070
     0
1000
MTEXTEND
  0
LINE
  5
22596
330
22545
100
AcDbEntity
  8
寸法
 62
     0
 48
50.0
370
    -2
100
AcDbLine
 10
8786.576336801571
 20
2196.095363828318
 30
0.0
 11
8786.576336801571
 21
2143.335363828317
 31
0.0
  0
LINE
  5
22597
330
22545
100
AcDbEntity
  8
寸法
 62
     0
 48
50.0
370
    -2
100
AcDbLine
 10
8786.576336801571
 20
2196.095363828318
 30
0.0
 11
8786.576336801571
 21
2143.335363828317
 31
0.0
  0
INSERT
  5
22598
330
22545
100
AcDbEntity
  8
寸法
 62
     0
 48
50.0
370
    -2
100
AcDbBlockReference
  2
_DOTSMALL
 10
8786.576336801571
 20
2196.095363828318
 30
0.0
 41
100.0
 42
100.0
 43
100.0
 50
270.0
  0
INSERT
  5
22599
330
22545
100
AcDbEntity
  8
寸法
 62
     0
 48
50.0
370
    -2
100
AcDbBlockReference
  2
_DOTSMALL
 10
8786.576336801571
 20
2143.335363828317
 30
0.0
 41
100.0
 42
100.0
 43
100.0
 50
90.0
  0
POINT
  5
2259A
330
22545
100
AcDbEntity
  8
DEFPOINTS
 62
     0
 48
50.0
100
AcDbPoint
 10
8097.507737032731
 20
2196.095363828318
 30
0.0
  0
POINT
  5
2259B
330
22545
100
AcDbEntity
  8
DEFPOINTS
 62
     0
 48
50.0
100
AcDbPoint
 10
8284.70773703273
 20
2143.335363828317
 30
0.0
  0
POINT
  5
2259C
330
22545
100
AcDbEntity
  8
DEFPOINTS
 62
     0
 48
50.0
100
AcDbPoint
 10
8786.576336801571
 20
2143.335363828317
 30
0.0
  0
ENDBLK
  5
22555
330
22545
100
AcDbEntity
  8
0
 48
50.0
100
AcDbBlockEnd
  0
BLOCK
  5
22560
330
22556
100
AcDbEntity
  8
0
 48
50.0
100
AcDbBlockBegin
  2
*D44
 70
     1
 10
0.0
 20
0.0
 30
0.0
  3
*D44
  1

  0
LINE
  5
2259D
330
22556
100
AcDbEntity
  8
寸法
 62
     0
 48
50.0
370
    -2
100
AcDbLine
 10
6022.668423855535
 20
1599.335363828317
 30
0.0
 11
5840.248110123076
 21
1599.335363828317
 31
0.0
  0
LINE
  5
2259E
330
22556
100
AcDbEntity
  8
寸法
 62
     0
 48
50.0
370
    -2
100
AcDbLine
 10
5942.668423855539
 20
1359.335363828317
 30
0.0
 11
5840.248110123076
 21
1359.335363828317
 31
0.0
  0
LINE
  5
2259F
330
22556
100
AcDbEntity
  8
寸法
 62
     0
 48
50.0
370
    -2
100
AcDbLine
 10
5900.248110123076
 20
1599.335363828317
 30
0.0
 11
5900.248110123076
 21
1359.335363828317
 31
0.0
  0
MTEXT
  5
225A0
330
22556
100
AcDbEntity
  8
寸法
 62
     7
 48
50.0
100
AcDbMText
 10
5800.248110123076
 20
1479.335363828317
 30
0.0
 40
120.0
 41
0.0
 71
     5
 72
     1
  1
\A1;150
  7
STYLE1
 11
0.0000000000000001
 21
1.0
 31
0.0
 73
     1
 44
1.0
1001
ACAD
1000
MTEXTBEGIN
1070
    73
1070
     1
1070
    44
1040
1.0
1070
    74
1070
     0
1000
MTEXTEND
  0
INSERT
  5
225A1
330
22556
100
AcDbEntity
  8
寸法
 62
     0
 48
50.0
370
    -2
100
AcDbBlockReference
  2
_DOTSMALL
 10
5900.248110123076
 20
1599.335363828317
 30
0.0
 41
100.0
 42
100.0
 43
100.0
 50
90.0
  0
INSERT
  5
225A2
330
22556
100
AcDbEntity
  8
寸法
 62
     0
 48
50.0
370
    -2
100
AcDbBlockReference
  2
_DOTSMALL
 10
5900.248110123076
 20
1359.335363828317
 30
0.0
 41
100.0
 42
100.0
 43
100.0
 50
270.0
  0
POINT
  5
225A3
330
22556
100
AcDbEntity
  8
DEFPOINTS
 62
     0
 48
50.0
100
AcDbPoint
 10
6042.668423855535
 20
1599.335363828317
 30
0.0
  0
POINT
  5
225A4
330
22556
100
AcDbEntity
  8
DEFPOINTS
 62
     0
 48
50.0
100
AcDbPoint
 10
5962.668423855539
 20
1359.335363828317
 30
0.0
  0
POINT
  5
225A5
330
22556
100
AcDbEntity
  8
DEFPOINTS
 62
     0
 48
50.0
100
AcDbPoint
 10
5900.248110123076
 20
1359.335363828317
 30
0.0
  0
ENDBLK
  5
22561
330
22556
100
AcDbEntity
  8
0
 48
50.0
100
AcDbBlockEnd
  0
BLOCK
  5
2256C
330
22562
100
AcDbEntity
  8
0
 48
50.0
100
AcDbBlockBegin
  2
*D45
 70
     1
 10
0.0
 20
0.0
 30
0.0
  3
*D45
  1

  0
LINE
  5
225A6
330
22562
100
AcDbEntity
  8
寸法
 62
     0
 48
50.0
370
    -2
100
AcDbLine
 10
6150.668423855536
 20
2143.335363828317
 30
0.0
 11
5375.631185293795
 21
2143.335363828317
 31
0.0
  0
LINE
  5
225A7
330
22562
100
AcDbEntity
  8
寸法
 62
     0
 48
50.0
370
    -2
100
AcDbLine
 10
5942.668423855539
 20
1359.335363828317
 30
0.0
 11
5375.631185293794
 21
1359.335363828317
 31
0.0
  0
LINE
  5
225A8
330
22562
100
AcDbEntity
  8
寸法
 62
     0
 48
50.0
370
    -2
100
AcDbLine
 10
5435.631185293795
 20
2143.335363828317
 30
0.0
 11
5435.631185293794
 21
1359.335363828317
 31
0.0
  0
MTEXT
  5
225A9
330
22562
100
AcDbEntity
  8
寸法
 62
     7
 48
50.0
100
AcDbMText
 10
5335.631185293795
 20
1730.875513484318
 30
0.0
 40
120.0
 41
0.0
 71
     5
 72
     1
  1
\A1;540
  7
STYLE1
 11
0.0000000000000001
 21
1.0
 31
0.0
 73
     1
 44
1.0
1001
ACAD
1000
MTEXTBEGIN
1070
    73
1070
     1
1070
    44
1040
1.0
1070
    74
1070
     0
1000
MTEXTEND
  0
INSERT
  5
225AA
330
22562
100
AcDbEntity
  8
寸法
 62
     0
 48
50.0
370
    -2
100
AcDbBlockReference
  2
_DOTSMALL
 10
5435.631185293795
 20
2143.335363828317
 30
0.0
 41
100.0
 42
100.0
 43
100.0
 50
90.0
  0
INSERT
  5
225AB
330
22562
100
AcDbEntity
  8
寸法
 62
     0
 48
50.0
370
    -2
100
AcDbBlockReference
  2
_DOTSMALL
 10
5435.631185293794
 20
1359.335363828317
 30
0.0
 41
100.0
 42
100.0
 43
100.0
 50
270.0
  0
POINT
  5
225AC
330
22562
100
AcDbEntity
  8
DEFPOINTS
 62
     0
 48
50.0
100
AcDbPoint
 10
6170.668423855535
 20
2143.335363828317
 30
0.0
  0
POINT
  5
225AD
330
22562
100
AcDbEntity
  8
DEFPOINTS
 62
     0
 48
50.0
100
AcDbPoint
 10
5962.668423855539
 20
1359.335363828317
 30
0.0
  0
POINT
  5
225AE
330
22562
100
AcDbEntity
  8
DEFPOINTS
 62
     0
 48
50.0
100
AcDbPoint
 10
5435.631185293794
 20
1359.335363828317
 30
0.0
  0
ENDBLK
  5
2256D
330
22562
100
AcDbEntity
  8
0
 48
50.0
100
AcDbBlockEnd
  0
BLOCK
  5
22578
330
2256E
100
AcDbEntity
  8
0
 48
50.0
100
AcDbBlockBegin
  2
*D46
 70
     1
 10
0.0
 20
0.0
 30
0.0
  3
*D46
  1

  0
LINE
  5
225AF
330
2256E
100
AcDbEntity
  8
寸法
 62
     0
 48
50.0
370
    -2
100
AcDbLine
 10
6042.668423855535
 20
1211.335363828317
 30
0.0
 11
6042.668423855535
 21
760.9057258231569
 31
0.0
  0
LINE
  5
225B0
330
2256E
100
AcDbEntity
  8
寸法
 62
     0
 48
50.0
370
    -2
100
AcDbLine
 10
6490.668423855535
 20
1211.335363828317
 30
0.0
 11
6490.668423855535
 21
760.9057258231569
 31
0.0
  0
LINE
  5
225B1
330
2256E
100
AcDbEntity
  8
寸法
 62
     0
 48
50.0
370
    -2
100
AcDbLine
 10
6042.668423855535
 20
820.9057258231569
 30
0.0
 11
6490.668423855535
 21
820.9057258231569
 31
0.0
  0
MTEXT
  5
225B2
330
2256E
100
AcDbEntity
  8
寸法
 62
     7
 48
50.0
100
AcDbMText
 10
6246.571665177312
 20
920.9057258231569
 30
0.0
 40
120.0
 41
0.0
 71
     5
 72
     1
  1
\A1;300
  7
STYLE1
 73
     1
 44
1.0
1001
ACAD
1000
MTEXTBEGIN
1070
    73
1070
     1
1070
    44
1040
1.0
1070
    74
1070
     0
1000
MTEXTEND
  0
INSERT
  5
225B3
330
2256E
100
AcDbEntity
  8
寸法
 62
     0
 48
50.0
370
    -2
100
AcDbBlockReference
  2
_DOTSMALL
 10
6042.668423855535
 20
820.9057258231569
 30
0.0
 41
100.0
 42
100.0
 43
100.0
 50
180.0
  0
INSERT
  5
225B4
330
2256E
100
AcDbEntity
  8
寸法
 62
     0
 48
50.0
370
    -2
100
AcDbBlockReference
  2
_DOTSMALL
 10
6490.668423855535
 20
820.9057258231569
 30
0.0
 41
100.0
 42
100.0
 43
100.0
  0
POINT
  5
225B5
330
2256E
100
AcDbEntity
  8
DEFPOINTS
 62
     0
 48
50.0
100
AcDbPoint
 10
6042.668423855535
 20
1231.335363828317
 30
0.0
  0
POINT
  5
225B6
330
2256E
100
AcDbEntity
  8
DEFPOINTS
 62
     0
 48
50.0
100
AcDbPoint
 10
6490.668423855535
 20
1231.335363828317
 30
0.0
  0
POINT
  5
225B7
330
2256E
100
AcDbEntity
  8
DEFPOINTS
 62
     0
 48
50.0
100
AcDbPoint
 10
6490.668423855535
 20
820.9057258231569
 30
0.0
  0
ENDBLK
  5
22579
330
2256E
100
AcDbEntity
  8
0
 48
50.0
100
AcDbBlockEnd
  0
BLOCK
  5
22584
330
2257A
100
AcDbEntity
  8
0
 48
50.0
100
AcDbBlockBegin
  2
*D47
 70
     1
 10
0.0
 20
0.0
 30
0.0
  3
*D47
  1

  0
LINE
  5
225B8
330
2257A
100
AcDbEntity
  8
寸法
 62
     0
 48
50.0
370
    -2
100
AcDbLine
 10
6362.668423855535
 20
2163.335363828317
 30
0.0
 11
6362.668423855535
 21
2523.335363828317
 31
0.0
  0
LINE
  5
225B9
330
2257A
100
AcDbEntity
  8
寸法
 62
     0
 48
50.0
370
    -2
100
AcDbLine
 10
6170.668423855535
 20
2163.335363828317
 30
0.0
 11
6170.668423855535
 21
2523.335363828317
 31
0.0
  0
LINE
  5
225BA
330
2257A
100
AcDbEntity
  8
寸法
 62
     0
 48
50.0
370
    -2
100
AcDbLine
 10
6362.668423855535
 20
2463.335363828317
 30
0.0
 11
6170.668423855535
 21
2463.335363828317
 31
0.0
  0
MTEXT
  5
225BB
330
2257A
100
AcDbEntity
  8
寸法
 62
     7
 48
50.0
100
AcDbMText
 10
6277.894754200733
 20
2763.01498276832
 30
0.0
 40
120.0
 41
0.0
 71
     5
 72
     1
  1
\A1;120\P195
  7
STYLE1
 73
     1
 44
1.0
1001
ACAD
1000
MTEXTBEGIN
1070
    73
1070
     1
1070
    44
1040
1.0
1070
    74
1070
     0
1000
MTEXTEND
  0
INSERT
  5
225BC
330
2257A
100
AcDbEntity
  8
寸法
 62
     0
 48
50.0
370
    -2
100
AcDbBlockReference
  2
_DOTSMALL
 10
6362.668423855535
 20
2463.335363828317
 30
0.0
 41
100.0
 42
100.0
 43
100.0
  0
INSERT
  5
225BD
330
2257A
100
AcDbEntity
  8
寸法
 62
     0
 48
50.0
370
    -2
100
AcDbBlockReference
  2
_DOTSMALL
 10
6170.668423855535
 20
2463.335363828317
 30
0.0
 41
100.0
 42
100.0
 43
100.0
 50
180.0
  0
POINT
  5
225BE
330
2257A
100
AcDbEntity
  8
DEFPOINTS
 62
     0
 48
50.0
100
AcDbPoint
 10
6362.668423855535
 20
2143.335363828317
 30
0.0
  0
POINT
  5
225BF
330
2257A
100
AcDbEntity
  8
DEFPOINTS
 62
     0
 48
50.0
100
AcDbPoint
 10
6170.668423855535
 20
2143.335363828317
 30
0.0
  0
POINT
  5
225C0
330
2257A
100
AcDbEntity
  8
DEFPOINTS
 62
     0
 48
50.0
100
AcDbPoint
 10
6170.668423855535
 20
2463.335363828317
 30
0.0
  0
ENDBLK
  5
22585
330
2257A
100
AcDbEntity
  8
0
 48
50.0
100
AcDbBlockEnd
  0
ENDSEC
  0
SECTION
  2
ENTITIES
  0
MTEXT
  5
763F
330
747D
100
AcDbEntity
  8
0
100
AcDbMText
 10
302.846345836809
 20
280.1983726409901
 30
0.0
 40
3.5
 41
5.323721266742722
 71
     1
 72
     5
  1

  7
MSMINCHO
 73
     1
 44
1.0
1001
ACAD
1000
MTEXTBEGIN
1070
    73
1070
     1
1070
    44
1040
1.0
1070
    74
1070
     0
1000
MTEXTEND
  0
LINE
  5
10B57
330
747D
100
AcDbEntity
  8
補助
  6
PHANTOM
 62
   230
 48
50.0
100
AcDbLine
 10
139.9999999999995
 20
11409.6
 30
0.0
 11
16307.2
 21
11409.6
 31
0.0
  0
LINE
  5
10B59
330
747D
100
AcDbEntity
  8
仕様書枠
  6
Continuous
 48
50.0
100
AcDbLine
 10
13107.2
 20
1200.0
 30
0.0
 11
13107.2
 21
-0.0000000000000729
 31
0.0
  0
LINE
  5
10B5D
330
747D
100
AcDbEntity
  8
仕様書枠
 48
50.0
100
AcDbLine
 10
140.0
 20
0.0
 30
0.0
 11
16307.2
 21
-0.0000000000000909
 31
0.0
  0
LINE
  5
10B5E
330
747D
100
AcDbEntity
  8
補助
  6
PHANTOM
 62
   230
 48
50.0
100
AcDbLine
 10
16307.2
 20
11409.6
 30
0.0
 11
16307.2
 21
1200.0
 31
0.0
  0
LINE
  5
10B6C
330
747D
100
AcDbEntity
  8
仕様書枠
 48
50.0
100
AcDbLine
 10
13107.2
 20
1200.0
 30
0.0
 11
16307.2
 21
1200.0
 31
0.0
  0
TEXT
  5
10B73
330
747D
100
AcDbEntity
  8
文字
 62
     7
 48
50.0
100
AcDbText
 10
13162.9790565769
 20
895.0906074299405
 30
0.0
 40
200.0
  1
基 礎 図
  7
STYLE2
100
AcDbText
  0
LINE
  5
10B7B
330
747D
100
AcDbEntity
  8
仕様書枠
 48
50.0
100
AcDbLine
 10
13107.2
 20
800.0
 30
0.0
 11
14251.2
 21
800.0
 31
0.0
  0
LINE
  5
10B88
330
747D
100
AcDbEntity
  8
仕様書枠
  6
Continuous
 48
50.0
100
AcDbLine
 10
14251.2
 20
1200.0
 30
0.0
 11
14251.2
 21
800.0
 31
0.0
  0
LINE
  5
16462
330
747D
100
AcDbEntity
  8
仕様書枠
 48
50.0
100
AcDbLine
 10
16307.2
 20
1200.0
 30
0.0
 11
16307.2
 21
-0.0000000000000909
 31
0.0
  0
LINE
  5
1903B
330
747D
100
AcDbEntity
  8
補助
  6
PHANTOM
 62
   230
 48
50.0
100
AcDbLine
 10
140.0
 20
0.0
 30
0.0
 11
139.9999999999995
 21
11409.6
 31
0.0
  0
TEXT
  5
1C7A1
330
747D
100
AcDbEntity
  8
文字
 62
     7
 48
50.0
100
AcDbText
 10
13188.16259899338
 20
79.80631269190417
 30
0.0
 40
80.0
  1
※布基礎には換気口を設けてください。
  7
STYLE2
100
AcDbText
  0
TEXT
  5
1C7E7
330
747D
100
AcDbEntity
  8
文字
 62
     7
 48
50.0
100
AcDbText
 10
13188.16259899338
 20
246.7109242801889
 30
0.0
 40
80.0
  1
※寒冷地等は地域の実情に合わせた基礎にして下さい。
  7
STYLE2
100
AcDbText
  0
TEXT
  5
1C7E8
330
747D
100
AcDbEntity
  8
文字
 62
     7
 48
50.0
100
AcDbText
 10
14478.98566430227
 20
499.5983841039506
 30
0.0
 40
160.0
  1
ＮＸＮ－３６ＣＳＡ
  7
STYLE2
100
AcDbText
  0
TEXT
  5
1C7E9
330
747D
100
AcDbEntity
  8
文字
 62
     7
 48
50.0
100
AcDbText
 10
14641.2525855784
 20
871.1744590657927
 30
0.0
 40
100.0
  1
～一般型・多雪地型～
  7
STYLE2
100
AcDbText
  0
TEXT
  5
1C7EC
330
747D
100
AcDbEntity
  8
文字
 62
     7
 48
50.0
100
AcDbText
 10
14524.131837222
 20
1031.557706291229
 30
0.0
 40
100.0
  1
      <縮尺> S=1/40
  7
STYLE2
100
AcDbText
  0
TEXT
  5
1C7ED
330
747D
100
AcDbEntity
  8
文字
 62
     7
 48
50.0
100
AcDbText
 10
13201.43669998441
 20
477.2740661031257
 30
0.0
 40
160.0
  1
機種名
  7
STYLE2
100
AcDbText
  0
LINE
  5
1C7EF
330
747D
100
AcDbEntity
  8
文字
 62
     7
 48
50.0
100
AcDbLine
 10
13187.2
 20
400.0
 30
0.0
 11
16227.2
 21
400.0
 31
0.0
  0
DIMENSION
  5
1DCFE
330
747D
100
AcDbEntity
  8
寸法
 48
50.0
100
AcDbDimension
  2
*D19
 10
8913.600000000009
 20
7986.106208443712
 30
0.0
 11
9191.683543272892
 21
7986.106208443712
 31
0.0
 70
   160
 71
     5
 42
120.0000000000091
  3
INABA_S40G
100
AcDbAlignedDimension
 13
8793.600000000001
 23
8156.907777930211
 33
0.0
 14
8913.600000000009
 24
8131.907777930207
 34
0.0
 50
180.0
100
AcDbRotatedDimension
1001
ACAD
1000
DSTYLE
1002
{
1070
   341
1005
0
1002
}
  0
DIMENSION
  5
1DD07
330
747D
100
AcDbEntity
  8
寸法
 48
50.0
100
AcDbDimension
  2
*D20
 10
8683.600000000009
 20
7986.106208443712
 30
0.0
 11
8447.552755905519
 21
7986.106208443712
 31
0.0
 70
   160
 71
     5
 42
109.9999999999945
  3
INABA_S40G
100
AcDbAlignedDimension
 13
8793.600000000003
 23
8156.907777930211
 33
0.0
 14
8683.600000000009
 24
8156.907777930207
 34
0.0
 50
180.0
100
AcDbRotatedDimension
1001
ACAD
1000
DSTYLE
1002
{
1070
   341
1005
0
1002
}
  0
LINE
  5
1DD3B
102
{ACAD_REACTORS
330
21F04
102
}
330
747D
100
AcDbEntity
  8
部品1
 48
50.0
100
AcDbLine
 10
8323.600000000025
 20
5671.907777930219
 30
0.0
 11
8323.600000000025
 21
5866.90777793022
 31
0.0
  0
LINE
  5
1DD44
102
{ACAD_REACTORS
330
21F04
102
}
330
747D
100
AcDbEntity
  8
部品1
 48
50.0
100
AcDbLine
 10
8123.600000000028
 20
5671.907777930217
 30
0.0
 11
8123.600000000028
 21
5866.907777930216
 31
0.0
  0
DIMENSION
  5
1E90B
330
747D
100
AcDbEntity
  8
寸法
 48
50.0
100
AcDbDimension
  2
*D21
 10
7239.276532889156
 20
5746.907777930211
 30
0.0
 11
7239.276532889154
 21
5138.422496555973
 31
0.0
 70
   160
  1
扉の出<>
 71
     5
 42
75.0
  3
INABA_S40G
100
AcDbAlignedDimension
 13
7533.600000000035
 23
5671.90777793021
 33
0.0
 14
7533.600000000035
 24
5746.907777930211
 34
0.0
 50
90.0
100
AcDbRotatedDimension
1001
ACAD
1000
DSTYLE
1002
{
1070
   341
1005
0
1002
}
  0
LINE
  5
1EC47
102
{ACAD_REACTORS
330
21F04
102
}
330
747D
100
AcDbEntity
  8
部品1
 48
50.0
100
AcDbLine
 10
8913.600000000018
 20
5671.907777930226
 30
0.0
 11
7533.600000000035
 21
5671.90777793021
 31
0.0
  0
LEADER
  5
1EDB1
330
747D
100
AcDbEntity
  8
寸法
 48
50.0
100
AcDbLeader
  3
INABA_S50G
 73
     0
 74
     0
 75
     1
 40
120.0
 41
994.3492424049171
 76
     3
 10
8790.680085757008
 20
8263.921501126416
 30
0.0
 10
8964.645988304974
 20
8552.880272274157
 30
0.0
 10
9089.645988304974
 20
8552.880272274157
 30
0.0
340
1EDB2
1001
ACAD
1000
DSTYLE
1002
{
1070
   341
1005
0
1070
    40
1040
1.0
1070
   343
1005
0
1070
   344
1005
0
1002
}
  0
MTEXT
  5
1EDB2
102
{ACAD_REACTORS
330
1EDB1
102
}
330
747D
100
AcDbEntity
  8
部品1
 62
     7
 48
50.0
100
AcDbMText
 10
10108.99523070989
 20
8637.880272274157
 30
0.0
 40
120.0
 41
0.0
 71
     6
 72
     1
  1
アンカーボルト
  7
STYLE1
 73
     1
 44
1.0
1001
ACAD
1000
MTEXTBEGIN
1070
    73
1070
     1
1070
    44
1040
1.0
1070
    74
1070
     0
1000
MTEXTEND
  0
LEADER
  5
1EDEF
330
747D
100
AcDbEntity
  8
寸法
 48
50.0
100
AcDbLeader
  3
INABA_S50G
 73
     0
 74
     0
 75
     1
 40
120.0
 41
672.0
 76
     3
 10
8958.69831350344
 20
5980.332001126508
 30
0.0
 10
9074.638325695481
 20
5721.442657662932
 30
0.0
 10
9199.638325695481
 20
5721.442657662932
 30
0.0
340
1EDF0
1001
ACAD
1000
DSTYLE
1002
{
1070
   341
1005
0
1070
    40
1040
1.0
1070
   343
1005
0
1070
   344
1005
0
1002
}
  0
MTEXT
  5
1EDF0
102
{ACAD_REACTORS
330
1EDEF
102
}
330
747D
100
AcDbEntity
  8
部品1
 62
     7
 48
50.0
100
AcDbMText
 10
9896.638325695482
 20
5806.442657662932
 30
0.0
 40
120.0
 41
0.0
 71
     6
 72
     1
  1
\A1;屋根の外寸
  7
STYLE1
 73
     1
 44
1.0
1001
ACAD
1000
MTEXTBEGIN
1070
    73
1070
     1
1070
    44
1040
1.0
1070
    74
1070
     0
1000
MTEXTEND
  0
TEXT
  5
1EDF1
330
747D
100
AcDbEntity
  8
部品1
 48
50.0
100
AcDbText
 10
9098.851129706874
 20
5627.131970729857
 30
0.0
 40
80.0
  1
※a,b,cは屋根の出幅です。
  7
STYLE1
100
AcDbText
  0
TEXT
  5
1EDF2
330
747D
100
AcDbEntity
  8
部品1
 48
50.0
100
AcDbText
 10
9257.430138461177
 20
5520.286749861102
 30
0.0
 40
80.0
  1
(a=45,b=55,c=75)
  7
STYLE1
100
AcDbText
  0
MTEXT
  5
1EDF3
102
{ACAD_REACTORS
330
1EDF4
102
}
330
747D
100
AcDbEntity
  8
部品1
 62
     7
 48
50.0
100
AcDbMText
 10
9940.469074001279
 20
6889.151411151049
 30
0.0
 40
120.0
 41
0.0
 71
     6
 72
     1
  1
\A1;床下換気口
  7
STYLE1
 73
     1
 44
1.0
1001
ACAD
1000
MTEXTBEGIN
1070
    73
1070
     1
1070
    44
1040
1.0
1070
    74
1070
     0
1000
MTEXTEND
  0
LEADER
  5
1EDF4
330
747D
100
AcDbEntity
  8
寸法
 48
50.0
100
AcDbLeader
  3
INABA_S50G
 73
     0
 74
     0
 75
     1
 40
120.0
 41
720.0000000000001
 76
     3
 10
8913.695499614997
 20
7065.165324718882
 30
0.0
 10
9070.469074001278
 20
6804.15141115105
 30
0.0
 10
9195.469074001278
 20
6804.15141115105
 30
0.0
340
1EDF3
1001
ACAD
1000
DSTYLE
1002
{
1070
   341
1005
0
1070
    40
1040
1.0
1070
   343
1005
0
1070
   344
1005
0
1002
}
  0
DIMENSION
  5
1EE04
330
747D
100
AcDbEntity
  8
寸法
 48
50.0
100
AcDbDimension
  2
*D23
 10
6492.164931848212
 20
5671.907777930207
 30
0.0
 11
6392.164931848212
 21
5709.407777930209
 31
0.0
 70
    32
  1
c
 71
     5
 42
75.00000000000182
  3
INABA_S40G
100
AcDbAlignedDimension
 13
6704.625627365048
 23
5746.907777930209
 33
0.0
 14
6737.657733986178
 24
5671.907777930207
 34
0.0
 50
90.0
100
AcDbRotatedDimension
1001
ACAD
1000
DSTYLE
1002
{
1070
   341
1005
0
1002
}
  0
DIMENSION
  5
1EE10
330
747D
100
AcDbEntity
  8
寸法
 48
50.0
100
AcDbDimension
  2
*D22
 10
6492.164931848211
 20
8386.907777930209
 30
0.0
 11
6392.16493184821
 21
8414.407777930206
 31
0.0
 70
    32
  1
b
 71
     5
 42
54.99999999998727
  3
INABA_S40G
100
AcDbAlignedDimension
 13
6737.657733986179
 23
8441.907777930197
 33
0.0
 14
6704.625627365048
 24
8386.907777930209
 34
0.0
 50
90.0
100
AcDbRotatedDimension
1001
ACAD
1000
DSTYLE
1002
{
1070
   341
1005
0
1002
}
  0
DIMENSION
  5
1F75A
330
747D
100
AcDbEntity
  8
寸法
 48
50.0
100
AcDbDimension
  2
*D24
 10
8913.6
 20
8965.196807820888
 30
0.0
 11
8568.600000000001
 21
9065.196807820887
 31
0.0
 70
    32
 71
     5
 42
690.0
  3
INABA_S40G
100
AcDbAlignedDimension
 13
8223.600000000001
 23
7581.907777930208
 33
0.0
 14
8913.6
 24
8386.907777930208
 34
0.0
100
AcDbRotatedDimension
1001
ACAD
1000
DSTYLE
1002
{
1070
   174
1070
     0
1070
   272
1070
     1
1070
   279
1070
     1
1070
   288
1070
     0
1070
   341
1005
0
1002
}
  0
DIMENSION
  5
1F75B
330
747D
100
AcDbEntity
  8
寸法
 48
50.0
100
AcDbDimension
  2
*D25
 10
8223.600000000001
 20
8965.196807820888
 30
0.0
 11
7878.6
 21
9065.196807820887
 31
0.0
 70
    32
 71
     5
 42
690.0
  3
INABA_S40G
100
AcDbAlignedDimension
 13
7533.599999999999
 23
8386.907777930208
 33
0.0
 14
8223.600000000001
 24
7581.907777930208
 34
0.0
100
AcDbRotatedDimension
1001
ACAD
1000
DSTYLE
1002
{
1070
   174
1070
     0
1070
   272
1070
     1
1070
   279
1070
     1
1070
   288
1070
     0
1070
   341
1005
0
1002
}
  0
LINE
  5
1F75D
330
747D
100
AcDbEntity
  8
部品1
 48
50.0
100
AcDbLine
 10
8423.6
 20
6551.907777930207
 30
0.0
 11
8423.6
 21
6751.907777930208
 31
0.0
  0
LINE
  5
1F75E
330
747D
100
AcDbEntity
  8
センター
 48
2.0
100
AcDbLine
 10
8173.6
 20
6651.907777930208
 30
0.0
 11
8273.6
 21
6651.907777930208
 31
0.0
  0
LINE
  5
1F75F
330
747D
100
AcDbEntity
  8
センター
 48
2.0
100
AcDbLine
 10
8223.600000000001
 20
6701.907777930208
 30
0.0
 11
8223.600000000001
 21
6601.907777930207
 31
0.0
  0
LINE
  5
1F760
330
747D
100
AcDbEntity
  8
部品1
 48
50.0
100
AcDbLine
 10
8023.6
 20
6551.907777930208
 30
0.0
 11
8023.6
 21
6751.907777930208
 31
0.0
  0
LINE
  5
1F761
330
747D
100
AcDbEntity
  8
部品1
 48
50.0
100
AcDbLine
 10
8423.6
 20
6751.907777930208
 30
0.0
 11
8023.6
 21
6751.907777930208
 31
0.0
  0
LINE
  5
1F762
330
747D
100
AcDbEntity
  8
部品1
 48
50.0
100
AcDbLine
 10
8423.6
 20
6551.907777930207
 30
0.0
 11
8023.6
 21
6551.907777930207
 31
0.0
  0
LINE
  5
1F771
330
747D
100
AcDbEntity
  8
部品1
 48
50.0
100
AcDbLine
 10
8423.6
 20
7381.907777930206
 30
0.0
 11
8023.6
 21
7381.907777930206
 31
0.0
  0
LINE
  5
1F772
330
747D
100
AcDbEntity
  8
部品1
 48
50.0
100
AcDbLine
 10
8423.6
 20
7581.907777930208
 30
0.0
 11
8023.6
 21
7581.907777930208
 31
0.0
  0
LINE
  5
1F773
330
747D
100
AcDbEntity
  8
部品1
 48
50.0
100
AcDbLine
 10
8023.6
 20
7381.907777930208
 30
0.0
 11
8023.6
 21
7581.907777930208
 31
0.0
  0
LINE
  5
1F774
330
747D
100
AcDbEntity
  8
センター
 48
2.0
100
AcDbLine
 10
8223.600000000001
 20
7531.907777930207
 30
0.0
 11
8223.600000000001
 21
7431.907777930208
 31
0.0
  0
LINE
  5
1F775
330
747D
100
AcDbEntity
  8
センター
 48
2.0
100
AcDbLine
 10
8173.6
 20
7481.907777930207
 30
0.0
 11
8273.6
 21
7481.907777930207
 31
0.0
  0
LINE
  5
1F776
330
747D
100
AcDbEntity
  8
部品1
 48
50.0
100
AcDbLine
 10
8423.6
 20
7381.907777930206
 30
0.0
 11
8423.6
 21
7581.907777930208
 31
0.0
  0
LINE
  5
1F779
330
747D
100
AcDbEntity
  8
センター
 48
2.0
100
AcDbLine
 10
8790.600000000001
 20
8313.907777930209
 30
0.0
 11
8790.600000000001
 21
8213.907777930208
 31
0.0
  0
LINE
  5
1F77B
102
{ACAD_REACTORS
330
21EBD
102
}
330
747D
100
AcDbEntity
  8
部品1
 48
50.0
100
AcDbLine
 10
8913.6
 20
6966.907777930209
 30
0.0
 11
8793.599999999999
 21
6966.907777930209
 31
0.0
  0
LINE
  5
1F77C
102
{ACAD_REACTORS
330
21EBD
102
}
330
747D
100
AcDbEntity
  8
部品1
 48
50.0
100
AcDbLine
 10
8913.6
 20
7166.907777930209
 30
0.0
 11
8793.599999999999
 21
7166.907777930209
 31
0.0
  0
LINE
  5
1F77D
330
747D
100
AcDbEntity
  8
部品1
 48
50.0
100
AcDbLine
 10
8683.6
 20
8156.907777930205
 30
0.0
 11
8683.6
 21
8266.907777930205
 31
0.0
  0
LINE
  5
1F77E
330
747D
100
AcDbEntity
  8
部品1
 48
50.0
100
AcDbLine
 10
8793.600000000003
 20
8156.907777930211
 30
0.0
 11
8683.6
 21
8156.907777930205
 31
0.0
  0
CIRCLE
  5
1F77F
330
747D
100
AcDbEntity
  8
部品1
 48
50.0
100
AcDbCircle
 10
8790.600000000001
 20
8263.907777930208
 30
0.0
 40
35.0
  0
LINE
  5
1F780
330
747D
100
AcDbEntity
  8
センター
 48
2.0
100
AcDbLine
 10
8740.6
 20
8263.907777930208
 30
0.0
 11
8840.6
 21
8263.907777930208
 31
0.0
  0
LINE
  5
1F783
102
{ACAD_REACTORS
330
21ED9
102
}
330
747D
100
AcDbEntity
  8
部品1
 48
50.0
100
AcDbLine
 10
8123.600000000001
 20
8266.907777930208
 30
0.0
 11
8123.600000000001
 21
8386.907777930208
 31
0.0
  0
LINE
  5
1F784
102
{ACAD_REACTORS
330
21ED9
102
}
330
747D
100
AcDbEntity
  8
部品1
 48
50.0
100
AcDbLine
 10
8323.6
 20
8266.907777930208
 30
0.0
 11
8323.6
 21
8386.907777930208
 31
0.0
  0
LINE
  5
1F785
330
747D
100
AcDbEntity
  8
センター
 48
2.0
100
AcDbLine
 10
8790.600000000008
 20
5919.90777793021
 30
0.0
 11
8790.600000000008
 21
5819.90777793021
 31
0.0
  0
LINE
  5
1F786
330
747D
100
AcDbEntity
  8
部品1
 48
50.0
100
AcDbLine
 10
8683.6
 20
5866.907777930224
 30
0.0
 11
8683.6
 21
5976.907777930226
 31
0.0
  0
LINE
  5
1F787
330
747D
100
AcDbEntity
  8
部品1
 48
50.0
100
AcDbLine
 10
8793.600000000001
 20
5976.907777930227
 30
0.0
 11
8683.6
 21
5976.907777930226
 31
0.0
  0
CIRCLE
  5
1F788
330
747D
100
AcDbEntity
  8
部品1
 48
50.0
100
AcDbCircle
 10
8790.600000000008
 20
5869.90777793021
 30
0.0
 40
35.0
  0
LINE
  5
1F789
330
747D
100
AcDbEntity
  8
センター
 48
2.0
100
AcDbLine
 10
8740.600000000007
 20
5869.90777793021
 30
0.0
 11
8840.600000000007
 21
5869.90777793021
 31
0.0
  0
LINE
  5
1F78E
330
747D
100
AcDbEntity
  8
想像線
 48
10.0
100
AcDbLine
 10
8958.600000000002
 20
8441.907777930213
 30
0.0
 11
8958.600000000005
 21
5671.907777930225
 31
0.0
  0
LINE
  5
1F78F
102
{ACAD_REACTORS
330
21EBD
102
}
330
747D
100
AcDbEntity
  8
部品1
 48
50.0
100
AcDbLine
 10
8913.6
 20
5671.907777930226
 30
0.0
 11
8913.6
 21
8386.907777930208
 31
0.0
  0
DIMENSION
  5
1F799
330
747D
100
AcDbEntity
  8
寸法
 48
50.0
100
AcDbDimension
  2
*D26
 10
8790.600000000001
 20
9191.968388320139
 30
0.0
 11
9152.085281374239
 21
9191.968388320139
 31
0.0
 70
   160
 71
     5
 42
123.0
  3
INABA_S40G
100
AcDbAlignedDimension
 13
8913.6
 23
8386.907777930208
 33
0.0
 14
8790.600000000001
 24
8313.907777930209
 34
0.0
100
AcDbRotatedDimension
1001
ACAD
1000
DSTYLE
1002
{
1070
   174
1070
     0
1070
   272
1070
     1
1070
   288
1070
     0
1070
   341
1005
0
1002
}
  0
LINE
  5
1F79A
330
747D
100
AcDbEntity
  8
部品1
 48
50.0
100
AcDbLine
 10
7763.600000000001
 20
8156.907777930205
 30
0.0
 11
7763.600000000001
 21
8266.907777930208
 31
0.0
  0
LINE
  5
1F79B
330
747D
100
AcDbEntity
  8
部品1
 48
50.0
100
AcDbLine
 10
7763.600000000001
 20
8156.907777930205
 30
0.0
 11
7653.6
 21
8156.907777930207
 31
0.0
  0
CIRCLE
  5
1F79C
330
747D
100
AcDbEntity
  8
部品1
 48
50.0
100
AcDbCircle
 10
7656.6
 20
8263.907777930208
 30
0.0
 40
35.0
  0
LINE
  5
1F79D
330
747D
100
AcDbEntity
  8
センター
 48
2.0
100
AcDbLine
 10
7606.6
 20
8263.907777930208
 30
0.0
 11
7706.6
 21
8263.907777930208
 31
0.0
  0
LINE
  5
1F79E
330
747D
100
AcDbEntity
  8
センター
 48
2.0
100
AcDbLine
 10
7656.6
 20
8313.907777930209
 30
0.0
 11
7656.6
 21
8213.907777930208
 31
0.0
  0
LINE
  5
1F7A0
102
{ACAD_REACTORS
330
21EF5
102
}
330
747D
100
AcDbEntity
  8
部品1
 48
50.0
100
AcDbLine
 10
7653.600000000001
 20
6966.907777930209
 30
0.0
 11
7533.599999999999
 21
6966.907777930209
 31
0.0
  0
LINE
  5
1F7A1
102
{ACAD_REACTORS
330
21EF5
102
}
330
747D
100
AcDbEntity
  8
部品1
 48
50.0
100
AcDbLine
 10
7653.600000000001
 20
7166.907777930209
 30
0.0
 11
7533.599999999999
 21
7166.907777930209
 31
0.0
  0
DIMENSION
  5
1F7A3
330
747D
100
AcDbEntity
  8
寸法
 48
50.0
100
AcDbDimension
  2
*D27
 10
6737.657733986178
 20
8263.907777930208
 30
0.0
 11
6737.657733986178
 21
8625.393059304448
 31
0.0
 70
   160
 71
     5
 42
123.0
  3
INABA_S40G
100
AcDbAlignedDimension
 13
7533.599999999999
 23
8386.907777930208
 33
0.0
 14
7606.6
 24
8263.907777930208
 34
0.0
 50
90.0
100
AcDbRotatedDimension
1001
ACAD
1000
DSTYLE
1002
{
1070
   174
1070
     0
1070
   272
1070
     1
1070
   288
1070
     0
1070
   341
1005
0
1002
}
  0
LINE
  5
1F7A4
330
747D
100
AcDbEntity
  8
部品1
 48
50.0
100
AcDbLine
 10
7763.600000000001
 20
5866.907777930212
 30
0.0
 11
7763.600000000001
 21
5976.907777930211
 31
0.0
  0
LINE
  5
1F7A5
330
747D
100
AcDbEntity
  8
部品1
 48
50.0
100
AcDbLine
 10
7763.600000000001
 20
5976.907777930211
 30
0.0
 11
7653.6
 21
5976.90777793021
 31
0.0
  0
CIRCLE
  5
1F7A6
330
747D
100
AcDbEntity
  8
部品1
 48
50.0
100
AcDbCircle
 10
7656.600000000008
 20
5869.90777793021
 30
0.0
 40
35.0
  0
LINE
  5
1F7A7
330
747D
100
AcDbEntity
  8
センター
 48
2.0
100
AcDbLine
 10
7606.600000000007
 20
5869.90777793021
 30
0.0
 11
7706.600000000007
 21
5869.90777793021
 31
0.0
  0
LINE
  5
1F7A8
330
747D
100
AcDbEntity
  8
センター
 48
2.0
100
AcDbLine
 10
7656.600000000008
 20
5919.90777793021
 30
0.0
 11
7656.600000000008
 21
5819.90777793021
 31
0.0
  0
DIMENSION
  5
1F7AA
330
747D
100
AcDbEntity
  8
寸法
 48
50.0
100
AcDbDimension
  2
*D28
 10
6737.657733986178
 20
5746.907777930208
 30
0.0
 11
6737.657733986178
 21
5508.42249655597
 31
0.0
 70
   160
 71
     5
 42
123.0000000000018
  3
INABA_S40G
100
AcDbAlignedDimension
 13
7606.600000000007
 23
5869.90777793021
 33
0.0
 14
7533.599999999999
 24
5746.907777930208
 34
0.0
 50
90.0
100
AcDbRotatedDimension
1001
ACAD
1000
DSTYLE
1002
{
1070
   174
1070
     0
1070
   272
1070
     1
1070
   288
1070
     0
1070
   341
1005
0
1002
}
  0
LINE
  5
1F7AC
102
{ACAD_REACTORS
330
21EF5
102
}
330
747D
100
AcDbEntity
  8
部品1
 48
50.0
100
AcDbLine
 10
7533.599999999999
 20
5671.907777930225
 30
0.0
 11
7533.599999999999
 21
8386.907777930208
 31
0.0
  0
DIMENSION
  5
1F7AD
330
747D
100
AcDbEntity
  8
寸法
 48
50.0
100
AcDbDimension
  2
*D29
 10
6492.164931848214
 20
5746.907777930208
 30
0.0
 11
6492.164931848212
 21
7066.907777930208
 31
0.0
 70
   160
 71
     5
 42
2640.0
  3
INABA_S40G
100
AcDbAlignedDimension
 13
7533.599999999999
 23
8386.907777930208
 33
0.0
 14
7533.599999999999
 24
5746.907777930208
 34
0.0
 50
90.0
100
AcDbRotatedDimension
1001
ACAD
1000
DSTYLE
1002
{
1070
   174
1070
     0
1070
   272
1070
     1
1070
   288
1070
     0
1070
   341
1005
0
1002
}
  0
DIMENSION
  5
1F7AF
330
747D
100
AcDbEntity
  8
寸法
 48
50.0
100
AcDbDimension
  2
*D30
 10
6737.657733986181
 20
5869.90777793021
 30
0.0
 11
6737.657733986179
 21
7066.907777930208
 31
0.0
 70
   160
 71
     5
 42
2393.999999999998
  3
INABA_S40G
100
AcDbAlignedDimension
 13
7606.6
 23
8263.907777930208
 33
0.0
 14
7606.600000000007
 24
5869.90777793021
 34
0.0
 50
90.0
100
AcDbRotatedDimension
1001
ACAD
1000
DSTYLE
1002
{
1070
   174
1070
     0
1070
   272
1070
     1
1070
   288
1070
     0
1070
   341
1005
0
1002
}
  0
DIMENSION
  5
1F7B1
330
747D
100
AcDbEntity
  8
寸法
 48
50.0
100
AcDbDimension
  2
*D31
 10
7533.599999999999
 20
9191.968388320139
 30
0.0
 11
7295.114718625763
 21
9191.968388320139
 31
0.0
 70
   160
 71
     5
 42
123.0
  3
INABA_S40G
100
AcDbAlignedDimension
 13
7656.6
 23
8313.907777930209
 33
0.0
 14
7533.599999999999
 24
8386.907777930208
 34
0.0
100
AcDbRotatedDimension
1001
ACAD
1000
DSTYLE
1002
{
1070
   174
1070
     0
1070
   272
1070
     1
1070
   288
1070
     0
1070
   341
1005
0
1002
}
  0
LINE
  5
1F7B4
102
{ACAD_REACTORS
330
21ED9
102
}
330
747D
100
AcDbEntity
  8
部品1
 48
50.0
100
AcDbLine
 10
8913.6
 20
8386.907777930208
 30
0.0
 11
7533.599999999999
 21
8386.907777930208
 31
0.0
  0
DIMENSION
  5
1F7B6
330
747D
100
AcDbEntity
  8
寸法
 48
50.0
100
AcDbDimension
  2
*D32
 10
8913.6
 20
9404.429083836975
 30
0.0
 11
8223.600000000001
 21
9504.429083836974
 31
0.0
 70
    32
 71
     5
 42
1380.0
  3
INABA_S40G
100
AcDbAlignedDimension
 13
7533.599999999999
 23
8386.907777930208
 33
0.0
 14
8913.6
 24
8386.907777930208
 34
0.0
100
AcDbRotatedDimension
1001
ACAD
1000
DSTYLE
1002
{
1070
   174
1070
     0
1070
   272
1070
     1
1070
   288
1070
     0
1070
   341
1005
0
1002
}
  0
DIMENSION
  5
1F7B9
330
747D
100
AcDbEntity
  8
寸法
 48
50.0
100
AcDbDimension
  2
*D33
 10
7656.6
 20
9191.968388320139
 30
0.0
 11
8223.600000000001
 21
9291.968388320139
 31
0.0
 70
    32
 71
     5
 42
1134.0
  3
INABA_S40G
100
AcDbAlignedDimension
 13
8790.600000000001
 23
8313.907777930209
 33
0.0
 14
7656.6
 24
8313.907777930209
 34
0.0
100
AcDbRotatedDimension
1001
ACAD
1000
DSTYLE
1002
{
1070
   174
1070
     0
1070
   272
1070
     1
1070
   288
1070
     0
1070
   341
1005
0
1002
}
  0
DIMENSION
  5
20426
330
747D
100
AcDbEntity
  8
寸法
 48
50.0
100
AcDbDimension
  2
*D34
 10
7533.599999999999
 20
9404.429083836975
 30
0.0
 11
7217.425378797542
 21
9404.429083836975
 31
0.0
 70
   160
  1
a
 71
     5
 42
44.99999999999817
  3
INABA_S40G
100
AcDbAlignedDimension
 13
7488.600000000002
 23
9191.968388320139
 33
0.0
 14
7533.599999999999
 24
8386.907777930208
 34
0.0
100
AcDbRotatedDimension
1001
ACAD
1000
DSTYLE
1002
{
1070
   341
1005
0
1002
}
  0
DIMENSION
  5
2042E
330
747D
100
AcDbEntity
  8
寸法
 48
50.0
100
AcDbDimension
  2
*D35
 10
8958.6
 20
9404.429083836975
 30
0.0
 11
9229.774621202459
 21
9404.429083836975
 31
0.0
 70
   160
  1
a
 71
     5
 42
45.00000000001091
  3
INABA_S40G
100
AcDbAlignedDimension
 13
8913.599999999989
 23
8386.907777930206
 33
0.0
 14
8958.6
 24
9191.968388320139
 34
0.0
100
AcDbRotatedDimension
1001
ACAD
1000
DSTYLE
1002
{
1070
   341
1005
0
1002
}
  0
MTEXT
  5
20431
102
{ACAD_REACTORS
330
20432
102
}
330
747D
100
AcDbEntity
  8
部品1
 62
     7
 48
50.0
100
AcDbMText
 10
8541.554835842745
 20
7024.985602051287
 30
0.0
 40
120.0
 41
0.0
 71
     6
 72
     1
  1
CB
  7
STYLE1
 73
     1
 44
1.0
1001
ACAD
1000
MTEXTBEGIN
1070
    73
1070
     1
1070
    44
1040
1.0
1070
    74
1070
     0
1000
MTEXTEND
  0
LEADER
  5
20432
330
747D
100
AcDbEntity
  8
寸法
 48
50.0
100
AcDbLeader
  3
INABA_S50G
 73
     0
 74
     0
 75
     1
 40
120.0
 41
149.591883092037
 76
     3
 10
8101.403724686168
 20
6716.568134216103
 30
0.0
 10
8241.962952750709
 20
6939.985602051288
 30
0.0
 10
8366.962952750709
 20
6939.985602051288
 30
0.0
340
20431
1001
ACAD
1000
DSTYLE
1002
{
1070
   341
1005
0
1070
    40
1040
1.0
1070
   343
1005
0
1070
   344
1005
0
1002
}
  0
DIMENSION
  5
206ED
330
747D
100
AcDbEntity
  8
寸法
 48
50.0
100
AcDbDimension
  2
*D36
 10
6982.503367597603
 20
6651.907777930208
 30
0.0
 11
6982.503367597601
 21
6200.010127818401
 31
0.0
 70
   160
 71
     5
 42
904.9999999999972
  3
INABA_S40G
100
AcDbAlignedDimension
 13
7533.600000000035
 23
5746.907777930211
 33
0.0
 14
8023.6
 24
6651.907777930208
 34
0.0
 50
270.0
100
AcDbRotatedDimension
1001
ACAD
1000
DSTYLE
1002
{
1070
   341
1005
0
1002
}
  0
DIMENSION
  5
2071E
330
747D
100
AcDbEntity
  8
寸法
 48
50.0
100
AcDbDimension
  2
*D37
 10
6982.503367597603
 20
8386.907777930208
 30
0.0
 11
6882.503367597601
 21
7934.40777793021
 31
0.0
 70
    32
 71
     5
 42
905.0
  3
INABA_S40G
100
AcDbAlignedDimension
 13
8023.6
 23
7481.907777930207
 33
0.0
 14
7533.599999999999
 24
8386.907777930208
 34
0.0
 50
270.0
100
AcDbRotatedDimension
1001
ACAD
1000
DSTYLE
1002
{
1070
   341
1005
0
1002
}
  0
DIMENSION
  5
2073D
330
747D
100
AcDbEntity
  8
寸法
 48
50.0
100
AcDbDimension
  2
*D38
 10
6982.503367597607
 20
7481.907777930207
 30
0.0
 11
6982.503367597605
 21
7066.907777930208
 31
0.0
 70
   160
 71
     5
 42
830.0
  3
INABA_S40G
100
AcDbAlignedDimension
 13
8023.6
 23
6651.907777930208
 33
0.0
 14
8023.6
 24
7481.907777930207
 34
0.0
 50
270.0
100
AcDbRotatedDimension
1001
ACAD
1000
DSTYLE
1002
{
1070
   341
1005
0
1002
}
  0
DIMENSION
  5
21820
330
747D
100
AcDbEntity
  8
寸法
 48
50.0
100
AcDbDimension
  2
*D39
 10
7533.600000000035
 20
4957.0434745061
 30
0.0
 11
8223.600000000027
 21
5057.0434745061
 31
0.0
 70
    32
  1
扉の幅 <>
 71
     5
 42
1379.999999999983
  3
INABA_S40G
100
AcDbAlignedDimension
 13
8913.600000000018
 23
5671.907777930226
 33
0.0
 14
7533.600000000035
 24
5671.90777793021
 34
0.0
100
AcDbRotatedDimension
1001
ACAD
1000
DSTYLE
1002
{
1070
   341
1005
0
1002
}
  0
TEXT
  5
21821
330
747D
100
AcDbEntity
  8
寸法
 62
     7
100
AcDbText
 10
7616.285760402178
 20
4588.079265415341
 30
0.0
 40
120.0
  1
扉位置 (1380x75)
  7
STYLE1
100
AcDbText
  0
SOLID
  5
21822
330
747D
100
AcDbEntity
  8
寸法
 48
50.0
100
AcDbTrace
 10
-7823.771060041811
 20
5546.316749025338
 30
0.0
 11
-7840.680265711798
 21
5671.907777930225
 31
0.0
 12
-7783.952845568333
 22
5558.589519994247
 32
0.0
 13
-7783.952845568333
 23
5558.589519994247
 33
0.0
210
0.0
220
0.0
230
-1.0
1001
ACAD
1000
DSTYLE
1002
{
1070
   341
1005
0
1070
    40
1040
1.0
1070
   343
1005
0
1070
   344
1005
0
1002
}
  0
LWPOLYLINE
  5
21823
330
747D
100
AcDbEntity
  8
寸法
 48
50.0
100
AcDbPolyline
 90
        3
 70
     0
 43
0.0
 10
-7840.680265711798
 20
5671.907777930225
 10
-7499.669801209425
 20
4565.811317867022
 10
-10313.73421414107
 20
4565.811317867022
210
0.0
220
0.0
230
-1.0
1001
ACAD
1000
DSTYLE
1002
{
1070
   341
1005
0
1070
    40
1040
1.0
1070
   343
1005
0
1070
   344
1005
0
1002
}
  0
TEXT
  5
21824
330
747D
100
AcDbEntity
  8
寸法
 62
     7
100
AcDbText
 10
7616.285760402178
 20
4416.475502532017
 30
0.0
 40
120.0
  1
扉の位置に合わせた基礎形状として下さい。
  7
STYLE1
100
AcDbText
  0
DIMENSION
  5
2184F
330
747D
100
AcDbEntity
  8
寸法
 48
50.0
100
AcDbDimension
  2
*D40
 10
7992.938460046301
 20
5976.907777930225
 30
0.0
 11
7992.9384600463
 21
6212.955022024715
 31
0.0
 70
   160
 71
     5
 42
109.9999999999972
  3
INABA_S40G
100
AcDbAlignedDimension
 13
7763.599999999998
 23
5866.907777930228
 33
0.0
 14
7763.600000000038
 24
5976.907777930225
 34
0.0
 50
270.0
100
AcDbRotatedDimension
1001
ACAD
1000
DSTYLE
1002
{
1070
   341
1005
0
1002
}
  0
DIMENSION
  5
21854
330
747D
100
AcDbEntity
  8
寸法
 48
50.0
100
AcDbDimension
  2
*D41
 10
7992.938460046301
 20
5866.907777930212
 30
0.0
 11
7992.9384600463
 21
5433.212836726331
 31
0.0
 70
   160
 71
     5
 42
194.9999999999863
  3
INABA_S40G
100
AcDbAlignedDimension
 13
7763.600000000036
 23
5671.907777930226
 33
0.0
 14
7763.600000000001
 24
5866.907777930212
 34
0.0
 50
270.0
100
AcDbRotatedDimension
1001
ACAD
1000
DSTYLE
1002
{
1070
   341
1005
0
1002
}
  0
LINE
  5
21C21
330
747D
100
AcDbEntity
  8
想像線
 48
10.0
100
AcDbLine
 10
8459.139106188329
 20
8441.907777930213
 30
0.0
 11
8958.600000000002
 21
8441.907777930213
 31
0.0
  0
LINE
  5
21E89
330
747D
100
AcDbEntity
  8
想像線
 48
10.0
100
AcDbLine
 10
8459.139106188333
 20
5671.907777930225
 30
0.0
 11
8958.600000000005
 21
5671.907777930225
 31
0.0
  0
LINE
  5
21E9E
102
{ACAD_REACTORS
330
21EBD
102
}
330
747D
100
AcDbEntity
  8
部品1
 48
50.0
100
AcDbLine
 10
8793.599999999999
 20
5976.907777930224
 30
0.0
 11
8793.600000000001
 21
8156.907777930207
 31
0.0
  0
LINE
  5
21E9F
102
{ACAD_REACTORS
330
21ED9
102
}
330
747D
100
AcDbEntity
  8
部品1
 48
50.0
100
AcDbLine
 10
8683.6
 20
8266.907777930205
 30
0.0
 11
7763.600000000001
 21
8266.907777930208
 31
0.0
  0
LINE
  5
21EA0
102
{ACAD_REACTORS
330
21EF5
102
}
330
747D
100
AcDbEntity
  8
部品1
 48
50.0
100
AcDbLine
 10
7653.6
 20
5976.907777930208
 30
0.0
 11
7653.6
 21
8156.907777930205
 31
0.0
  0
LINE
  5
21EA1
102
{ACAD_REACTORS
330
21F04
102
}
330
747D
100
AcDbEntity
  8
部品1
 48
50.0
100
AcDbLine
 10
8683.6
 20
5866.907777930224
 30
0.0
 11
7763.600000000001
 21
5866.907777930212
 31
0.0
  0
HATCH
  5
21EBD
330
747D
100
AcDbEntity
  8
細線
 48
50.0
100
AcDbHatch
 10
0.0
 20
0.0
 30
0.0
210
0.0
220
0.0
230
1.0
  2
LINE
 70
     0
 71
     1
 91
        1
 92
        7
 72
     0
 73
     1
 93
        4
 10
8913.600000000002
 20
7166.90777793021
 10
8793.600000000001
 20
7166.907777930209
 10
8793.599999999999
 20
6966.907777930207
 10
8913.6
 20
6966.907777930209
 97
        4
330
1F77C
330
21E9E
330
1F77B
330
1F78F
 75
     0
 76
     1
 52
45.0
 41
10.0
 77
     0
 78
     1
 53
45.0
 43
0.0
 44
0.0
 45
-22.45064030267288
 46
22.45064030267288
 79
     0
 47
7.953863871657437
 98
        1
 10
8879.062273952163
 20
7079.293635139518
  0
HATCH
  5
21ED9
330
747D
100
AcDbEntity
  8
細線
 48
50.0
100
AcDbHatch
 10
0.0
 20
0.0
 30
0.0
210
0.0
220
0.0
230
1.0
  2
LINE
 70
     0
 71
     1
 91
        1
 92
        7
 72
     0
 73
     1
 93
        4
 10
8323.6
 20
8386.907777930206
 10
8123.599999999999
 20
8386.907777930204
 10
8123.600000000001
 20
8266.907777930205
 10
8323.6
 20
8266.907777930205
 97
        4
330
1F7B4
330
1F783
330
21E9F
330
1F784
 75
     0
 76
     1
 52
45.0
 41
10.0
 77
     0
 78
     1
 53
45.0
 43
0.0
 44
0.0
 45
-22.45064030267288
 46
22.45064030267288
 79
     0
 47
7.953863871657437
 98
        1
 10
8274.287027023806
 20
8328.05025918781
  0
HATCH
  5
21EF5
330
747D
100
AcDbEntity
  8
細線
 48
50.0
100
AcDbHatch
 10
0.0
 20
0.0
 30
0.0
210
0.0
220
0.0
230
1.0
  2
LINE
 70
     0
 71
     1
 91
        1
 92
        7
 72
     0
 73
     1
 93
        4
 10
7653.6
 20
7166.907777930209
 10
7533.599999999999
 20
7166.907777930209
 10
7533.599999999999
 20
6966.907777930209
 10
7653.600000000001
 20
6966.907777930209
 97
        4
330
1F7A1
330
1F7AC
330
1F7A0
330
21EA0
 75
     0
 76
     1
 52
45.0
 41
10.0
 77
     0
 78
     1
 53
45.0
 43
0.0
 44
0.0
 45
-22.45064030267288
 46
22.45064030267288
 79
     0
 47
7.953863871657437
 98
        1
 10
7613.808862655773
 20
7127.016808864645
  0
HATCH
  5
21F04
330
747D
100
AcDbEntity
  8
細線
 48
50.0
100
AcDbHatch
 10
0.0
 20
0.0
 30
0.0
210
0.0
220
0.0
230
1.0
  2
LINE
 70
     0
 71
     1
 91
        1
 92
        7
 72
     0
 73
     1
 93
        4
 10
8323.600000000025
 20
5866.907777930219
 10
8123.600000000029
 20
5866.907777930218
 10
8123.600000000026
 20
5671.907777930217
 10
8323.600000000025
 20
5671.907777930219
 97
        4
330
21EA1
330
1DD44
330
1EC47
330
1DD3B
 75
     0
 76
     1
 52
45.0
 41
10.0
 77
     0
 78
     1
 53
45.0
 43
0.0
 44
0.0
 45
-22.45064030267288
 46
22.45064030267288
 79
     0
 47
2.752479591534639
 98
        1
 10
8221.145864841323
 20
5754.604444563367
  0
LINE
  5
22403
330
747D
100
AcDbEntity
  8
部品1
100
AcDbLine
 10
11170.98517043253
 20
3464.306983605162
 30
0.0
 11
5099.99998504627
 21
3464.306983605162
 31
0.0
  0
LINE
  5
22404
330
747D
100
AcDbEntity
  8
部品1
100
AcDbLine
 10
11170.98517043252
 20
3224.30698360516
 30
0.0
 11
5099.999985046275
 21
3224.30698360516
 31
0.0
  0
LINE
  5
22405
330
747D
100
AcDbEntity
  8
部品1
100
AcDbLine
 10
5099.999985046276
 20
500.0000140205147
 30
0.0
 11
11170.98517043252
 21
500.0000140205147
 31
0.0
  0
LEADER
  5
22406
330
747D
100
AcDbEntity
  8
寸法
 48
50.0
100
AcDbLeader
  3
INABA_S50G
 73
     0
 74
     0
 75
     1
 40
102.2727272727273
 41
680.0000000000001
 76
     3
 10
8108.10773703273
 20
2542.21064493746
 30
0.0
 10
8142.461708146088
 20
2952.663456044001
 30
0.0
 10
8267.461708146088
 20
2952.663456044001
 30
0.0
340
22407
1001
ACAD
1000
DSTYLE
1002
{
1070
   341
1005
0
1070
    40
1040
1.0
1070
   343
1005
0
1070
   344
1005
0
1002
}
  0
MTEXT
  5
22407
102
{ACAD_REACTORS
330
22406
102
}
330
747D
100
AcDbEntity
  8
部品1
 62
     7
 48
50.0
100
AcDbMText
 10
8292.461708146088
 20
3028.799819680365
 30
0.0
 40
80.0
 41
0.8
 71
     4
 72
     1
  1
\A1;ナット(市販品)
  7
STYLE2
 73
     1
 44
1.0
1001
ACAD
1000
MTEXTBEGIN
1070
    73
1070
     1
1070
    44
1040
1.0
1070
    74
1070
     0
1000
MTEXTEND
  0
LEADER
  5
22408
330
747D
100
AcDbEntity
  8
寸法
 48
50.0
100
AcDbLeader
  3
INABA_S50G
 73
     0
 74
     0
 75
     1
 40
102.2727272727273
 41
906.8181818181818
 76
     3
 10
8132.107737032731
 20
2412.458652272597
 30
0.0
 10
8173.979327401568
 20
2767.694373279213
 30
0.0
 10
8298.979327401568
 20
2767.694373279213
 30
0.0
340
22409
1001
ACAD
1000
DSTYLE
1002
{
1070
   341
1005
0
1070
    40
1040
1.0
1070
   343
1005
0
1070
   344
1005
0
1002
}
  0
MTEXT
  5
22409
102
{ACAD_REACTORS
330
22408
102
}
330
747D
100
AcDbEntity
  8
部品1
 62
     7
 48
50.0
100
AcDbMText
 10
8323.979327401568
 20
2843.830736915577
 30
0.0
 40
80.0
 41
0.8
 71
     4
 72
     1
  1
\A1;ワッシャー(市販品)
  7
STYLE2
 73
     1
 44
1.0
1001
ACAD
1000
MTEXTBEGIN
1070
    73
1070
     1
1070
    44
1040
1.0
1070
    74
1070
     0
1000
MTEXTEND
  0
LWPOLYLINE
  5
2240A
330
747D
100
AcDbEntity
  8
部品1
 48
50.0
100
AcDbPolyline
 90
        2
 70
     0
 43
8.0
 10
8284.70773703273
 20
1903.335363828318
 10
8578.410200432115
 20
1903.335363828318
  0
TEXT
  5
2240B
330
747D
100
AcDbEntity
  8
部品1
 48
50.0
100
AcDbText
 10
8289.061321317159
 20
2499.214044590517
 30
0.0
 40
80.0
  1
基礎ボルト(市販品)
  7
STYLE2
100
AcDbText
  0
DIMENSION
  5
2240C
330
747D
100
AcDbEntity
  8
寸法
 48
50.0
100
AcDbDimension
  2
*D42
 10
8786.576336801571
 20
1819.335363828316
 30
0.0
 11
8686.576336801572
 21
1981.335363828318
 31
0.0
 70
    32
  1
180
 71
     5
 42
324.0000000000009
  3
INABA_S40G
100
AcDbAlignedDimension
 13
8284.70773703273
 23
2143.335363828317
 33
0.0
 14
8284.70773703273
 24
1819.335363828316
 34
0.0
 50
90.0
100
AcDbRotatedDimension
1001
ACAD
1000
DSTYLE
1002
{
1070
   174
1070
     0
1070
   272
1070
     1
1070
   279
1070
     1
1070
   288
1070
     0
1070
   341
1005
0
1002
}
  0
DIMENSION
  5
2240D
330
747D
100
AcDbEntity
  8
寸法
 48
50.0
100
AcDbDimension
  2
*D43
 10
8786.576336801571
 20
2143.335363828317
 30
0.0
 11
9062.6310029206
 21
2118.211406224105
 31
0.0
 70
   160
  1
20～25
 71
     5
 42
52.76000000000113
  3
INABA_S40G
100
AcDbAlignedDimension
 13
8097.507737032731
 23
2196.095363828318
 33
0.0
 14
8284.70773703273
 24
2143.335363828317
 34
0.0
 50
90.0
100
AcDbRotatedDimension
1001
ACAD
1000
DSTYLE
1002
{
1070
   174
1070
     0
1070
   272
1070
     1
1070
   279
1070
     1
1070
   288
1070
     0
1070
   341
1005
0
1002
}
  0
MTEXT
  5
2240E
102
{ACAD_REACTORS
330
2240F
102
}
330
747D
100
AcDbEntity
  8
部品1
 62
     7
 48
50.0
100
AcDbMText
 10
8293.652199452047
 20
2407.718689981547
 30
0.0
 40
80.0
 41
0.8
 71
     4
 72
     1
  1
M10X160
  7
STYLE2
 73
     1
 44
1.0
1001
ACAD
1000
MTEXTBEGIN
1070
    73
1070
     1
1070
    44
1040
1.0
1070
    74
1070
     0
1000
MTEXTEND
  0
LEADER
  5
2240F
330
747D
100
AcDbEntity
  8
寸法
 48
50.0
100
AcDbLeader
  3
INABA_S50G
 73
     0
 74
     0
 75
     1
 40
80.0
 41
435.0
 76
     3
 10
8101.10773703273
 20
2192.495363828318
 30
0.0
 10
8143.652199452047
 20
2342.718689981547
 30
0.0
 10
8268.652199452047
 20
2342.718689981547
 30
0.0
340
2240E
1001
ACAD
1000
DSTYLE
1002
{
1070
   341
1005
0
1070
    40
1040
1.0
1070
   343
1005
0
1070
   344
1005
0
1002
}
  0
LINE
  5
22410
330
747D
100
AcDbEntity
  8
部品1
100
AcDbLine
 10
5099.999985046273
 20
3464.306983605162
 30
0.0
 11
5099.999985046275
 21
500.0000140205147
 31
0.0
  0
LEADER
  5
22411
330
747D
100
AcDbEntity
  8
寸法
 48
50.0
100
AcDbLeader
  3
INABA_S50G
 73
     0
 75
     1
 40
113.1818181818182
 41
608.6363636363635
 76
     3
 10
8060.844487170781
 20
2092.851037186596
 30
0.0
 10
7927.040658479433
 20
2944.230119543074
 30
0.0
 10
7802.040658479433
 20
2944.230119543074
 30
0.0
340
22412
1001
ACAD
1000
DSTYLE
1002
{
1070
   341
1005
0
1070
    40
1040
1.0
1070
   343
1005
0
1070
   344
1005
0
1002
}
  0
MTEXT
  5
22412
102
{ACAD_REACTORS
330
22411
102
}
330
747D
100
AcDbEntity
  8
寸法
 62
     7
 48
50.0
100
AcDbMText
 10
7777.040658479433
 20
3025.821028633983
 30
0.0
 40
80.0
 41
0.8
 71
     6
 72
     1
  1
\A1;φ70スリーブ
  7
STYLE2
 73
     1
 44
1.0
1001
ACAD
1000
MTEXTBEGIN
1070
    73
1070
     1
1070
    44
1040
1.0
1070
    74
1070
     0
1000
MTEXTEND
  0
LWPOLYLINE
  5
22413
330
747D
100
AcDbEntity
  8
部品1
 48
50.0
100
AcDbPolyline
 90
        2
 70
     0
 43
8.0
 10
5756.528522022579
 20
1903.335363828318
 10
6170.668423855535
 20
1903.335363828318
  0
TEXT
  5
22414
330
747D
100
AcDbEntity
  8
部品1
 48
50.0
100
AcDbText
 10
5756.528522022579
 20
1914.574356111572
 30
0.0
 40
80.0
  1
▽G.L
  7
STYLE2
100
AcDbText
  0
DIMENSION
  5
22415
330
747D
100
AcDbEntity
  8
寸法
 48
50.0
100
AcDbDimension
  2
*D44
 10
5900.248110123076
 20
1359.335363828317
 30
0.0
 11
5900.248110123076
 21
1479.335363828317
 31
0.0
 70
   160
  1
150
 71
     5
 42
240.0
  3
INABA_S40G
100
AcDbAlignedDimension
 13
6042.668423855535
 23
1599.335363828317
 33
0.0
 14
5962.668423855539
 24
1359.335363828317
 34
0.0
 50
90.0
100
AcDbRotatedDimension
1001
ACAD
1000
DSTYLE
1002
{
1070
   174
1070
     0
1070
   272
1070
     1
1070
   279
1070
     1
1070
   288
1070
     0
1070
   341
1005
0
1002
}
  0
LEADER
  5
22416
330
747D
100
AcDbEntity
  8
寸法
 48
50.0
100
AcDbLeader
  3
INABA_S50G
 71
     0
 73
     0
 75
     1
 40
100.0
 41
225.0
 76
     3
 10
6138.571376207679
 20
1479.335363828317
 30
0.0
 10
6016.733397660342
 20
1215.812670209881
 30
0.0
 10
5891.733397660342
 20
1215.812670209881
 30
0.0
1001
ACAD
1000
DSTYLE
1002
{
1070
    40
1040
1.0
1070
   272
1070
     1
1070
   279
1070
     1
1070
   341
1005
0
1002
}
  0
LEADER
  5
22417
330
747D
100
AcDbEntity
  8
寸法
 48
50.0
100
AcDbLeader
  3
INABA_S50G
 71
     0
 73
     0
 75
     1
 40
100.0
 41
222.7272727272727
 76
     3
 10
6266.668423855535
 20
1479.335363828317
 30
0.0
 10
6044.856125217776
 20
1035.496517670437
 30
0.0
 10
5919.856125217776
 20
1035.496517670437
 30
0.0
1001
ACAD
1000
DSTYLE
1002
{
1070
    40
1040
1.0
1070
   272
1070
     1
1070
   279
1070
     1
1070
   341
1005
0
1002
}
  0
MTEXT
  5
22418
102
{ACAD_REACTORS
330
22419
102
}
330
747D
100
AcDbEntity
  8
寸法
 62
     7
 48
50.0
100
AcDbMText
 10
6081.418369632731
 20
1744.635966645773
 30
0.0
 40
80.0
 41
0.8
 71
     6
 72
     1
  1
\A1;D10@300
  7
STYLE2
 73
     1
 44
1.0
1001
ACAD
1000
MTEXTBEGIN
1070
    73
1070
     1
1070
    44
1040
1.0
1070
    74
1070
     0
1000
MTEXTEND
  0
LEADER
  5
22419
330
747D
100
AcDbEntity
  8
寸法
 48
50.0
100
AcDbLeader
  3
INABA_S50G
 71
     0
 73
     0
 75
     1
 40
100.0
 41
540.3409090909091
 76
     3
 10
6274.668423855535
 20
1901.46257852544
 30
0.0
 10
6216.686187326837
 20
1679.992249984635
 30
0.0
 10
6091.686187326837
 20
1679.992249984635
 30
0.0
213
-9.732182305893367
223
-4.643716661138569
233
0.0
1001
ACAD
1000
DSTYLE
1002
{
1070
    40
1040
1.0
1070
   272
1070
     1
1070
   279
1070
     1
1070
   341
1005
0
1002
}
  0
LEADER
  5
2241A
330
747D
100
AcDbEntity
  8
寸法
 48
50.0
100
AcDbLeader
  3
INABA_S50G
 71
     0
 73
     0
 75
     1
 40
130.1136363636363
 41
651.1363636363636
 76
     3
 10
6250.668423855536
 20
2143.335363828317
 30
0.0
 10
6138.243843691519
 20
2283.806129284905
 30
0.0
 10
6013.243843691519
 20
2283.806129284905
 30
0.0
1001
ACAD
1000
DSTYLE
1002
{
1070
    40
1040
1.0
1070
   272
1070
     1
1070
   279
1070
     1
1070
   341
1005
0
1002
}
  0
MTEXT
  5
2241B
102
{ACAD_REACTORS
330
2241A
102
}
330
747D
100
AcDbEntity
  8
寸法
 62
     7
 48
50.0
100
AcDbMText
 10
5950.569944372262
 20
2355.851583830359
 30
0.0
 40
80.0
 41
0.8
 71
     6
 72
     1
  1
\A1;金コテ押エ
  7
STYLE2
 73
     1
 44
1.0
1001
ACAD
1000
MTEXTBEGIN
1070
    73
1070
     1
1070
    44
1040
1.0
1070
    74
1070
     0
1000
MTEXTEND
  0
DIMENSION
  5
2241C
330
747D
100
AcDbEntity
  8
寸法
 48
50.0
100
AcDbDimension
  2
*D45
 10
5435.631185293794
 20
1359.335363828317
 30
0.0
 11
5435.631185293795
 21
1730.875513484318
 31
0.0
 70
   160
  1
540
 71
     5
 42
784.0
  3
INABA_S40G
100
AcDbAlignedDimension
 13
6170.668423855535
 23
2143.335363828317
 33
0.0
 14
5962.668423855539
 24
1359.335363828317
 34
0.0
 50
90.0
100
AcDbRotatedDimension
1001
ACAD
1000
DSTYLE
1002
{
1070
   174
1070
     0
1070
   272
1070
     1
1070
   279
1070
     1
1070
   288
1070
     0
1070
   341
1005
0
1002
}
  0
MTEXT
  5
2241D
102
{ACAD_REACTORS
330
22417
102
}
330
747D
100
AcDbEntity
  8
寸法
 62
     7
 48
50.0
100
AcDbMText
 10
5899.856125217776
 20
1095.496517670437
 30
0.0
 40
80.0
 41
0.8
 71
     6
 72
     1
  1
D13
  7
STYLE2
 73
     1
 44
1.0
1001
ACAD
1000
MTEXTBEGIN
1070
    73
1070
     1
1070
    44
1040
1.0
1070
    74
1070
     0
1000
MTEXTEND
  0
MTEXT
  5
2241E
102
{ACAD_REACTORS
330
22416
102
}
330
747D
100
AcDbEntity
  8
寸法
 62
     7
 48
50.0
100
AcDbMText
 10
5871.733397660341
 20
1275.81267020988
 30
0.0
 40
80.0
 41
0.8
 71
     6
 72
     1
  1
D10
  7
STYLE2
 73
     1
 44
1.0
1001
ACAD
1000
MTEXTBEGIN
1070
    73
1070
     1
1070
    44
1040
1.0
1070
    74
1070
     0
1000
MTEXTEND
  0
DIMENSION
  5
2241F
330
747D
100
AcDbEntity
  8
寸法
 48
50.0
100
AcDbDimension
  2
*D46
 10
6490.668423855535
 20
820.9057258231569
 30
0.0
 11
6246.571665177312
 21
820.9057258231569
 31
0.0
 70
   160
  1
300
 71
     5
 42
448.0
  3
INABA_S40G
100
AcDbAlignedDimension
 13
6042.668423855535
 23
1231.335363828317
 33
0.0
 14
6490.668423855535
 24
1231.335363828317
 34
0.0
100
AcDbRotatedDimension
1001
ACAD
1000
DSTYLE
1002
{
1070
   174
1070
     0
1070
   272
1070
     1
1070
   279
1070
     1
1070
   288
1070
     0
1070
   341
1005
0
1002
}
  0
MTEXT
  5
22420
102
{ACAD_REACTORS
330
22421
102
}
330
747D
100
AcDbEntity
  8
寸法
 62
     7
 48
50.0
100
AcDbMText
 10
7803.683664687792
 20
2665.136756726469
 30
0.0
 40
80.0
 41
0.8
 71
     6
 72
     1
  1
アンカープレート {\fArial|b0|i0|c0|p32;U}
  7
STYLE2
 73
     1
 44
1.0
1001
ACAD
1000
MTEXTBEGIN
1070
    73
1070
     1
1070
    44
1040
1.0
1070
    74
1070
     0
1000
MTEXTEND
  0
LEADER
  5
22421
330
747D
100
AcDbEntity
  8
寸法
 48
50.0
100
AcDbLeader
  3
INABA_S50G
 73
     0
 75
     1
 40
106.3636363636363
 41
903.5235024184547
 76
     3
 10
8002.107737032728
 20
2212.895363828318
 30
0.0
 10
7953.683664687791
 20
2586.95493854465
 30
0.0
 10
7828.683664687791
 20
2586.95493854465
 30
0.0
340
22420
1001
ACAD
1000
DSTYLE
1002
{
1070
   341
1005
0
1070
    40
1040
1.0
1070
   343
1005
0
1070
   344
1005
0
1002
}
  0
LINE
  5
22422
330
747D
100
AcDbEntity
  8
細線
 48
50.0
100
AcDbLine
 10
6290.668423855536
 20
1981.708256496147
 30
0.0
 11
6362.668423855536
 21
2053.708256496148
 31
0.0
  0
ARC
  5
22423
330
747D
100
AcDbEntity
  8
部品1
 48
50.0
100
AcDbCircle
 10
6266.668423855536
 20
2003.589793222563
 30
0.0
 40
24.0
100
AcDbArc
 50
0.0
 51
180.0
  0
CIRCLE
  5
22424
330
747D
100
AcDbEntity
  8
部品1
 48
50.0
100
AcDbCircle
 10
6266.668423855536
 20
2003.589793222563
 30
0.0
 40
8.0
  0
LINE
  5
22425
330
747D
100
AcDbEntity
  8
部品1
 48
50.0
100
AcDbLine
 10
6170.668423855536
 20
1599.335363828317
 30
0.0
 11
6170.668423855536
 21
2143.335363828317
 31
0.0
  0
LINE
  5
22426
330
747D
100
AcDbEntity
  8
部品1
 48
50.0
100
AcDbLine
 10
6362.668423855536
 20
2143.335363828317
 30
0.0
 11
6362.668423855536
 21
1599.335363828317
 31
0.0
  0
MTEXT
  5
22427
102
{ACAD_REACTORS
330
2242C
102
}
330
747D
100
AcDbEntity
  8
寸法
 62
     7
 48
50.0
100
AcDbMText
 10
6445.55436088293
 20
2004.602925127245
 30
0.0
 40
80.0
 41
0.8
 71
     4
 72
     1
  1
D13
  7
STYLE2
 73
     1
 44
1.0
1001
ACAD
1000
MTEXTBEGIN
1070
    73
1070
     1
1070
    44
1040
1.0
1070
    74
1070
     0
1000
MTEXTEND
  0
LEADER
  5
22428
330
747D
100
AcDbEntity
  8
寸法
 48
50.0
100
AcDbLeader
  3
INABA_S50G
 71
     0
 73
     0
 74
     0
 75
     1
 40
100.0
 41
225.0
 76
     3
 10
6394.571376207679
 20
1479.335363828317
 30
0.0
 10
6448.99608366222
 20
1383.938294885344
 30
0.0
 10
6573.99608366222
 20
1383.938294885344
 30
0.0
1001
ACAD
1000
DSTYLE
1002
{
1070
    40
1040
1.0
1070
   272
1070
     1
1070
   279
1070
     1
1070
   341
1005
0
1002
}
  0
LEADER
  5
22429
330
747D
100
AcDbEntity
  8
寸法
 48
50.0
100
AcDbLeader
  3
INABA_S50G
 71
     0
 73
     0
 74
     0
 75
     1
 40
100.0
 41
540.3409090909091
 76
     3
 10
6340.613592868709
 20
1462.594833414791
 30
0.0
 10
6459.406879716786
 20
1120.964015419894
 30
0.0
 10
6584.406879716786
 20
1120.964015419894
 30
0.0
213
0.0
223
-1.022262676269383
233
0.0
1001
ACAD
1000
DSTYLE
1002
{
1070
    40
1040
1.0
1070
   272
1070
     1
1070
   279
1070
     1
1070
   341
1005
0
1002
}
  0
MTEXT
  5
2242A
102
{ACAD_REACTORS
330
22428
102
}
330
747D
100
AcDbEntity
  8
寸法
 62
     7
 48
50.0
100
AcDbMText
 10
6593.99608366222
 20
1443.938294885344
 30
0.0
 40
80.0
 41
0.8
 71
     4
 72
     1
  1
D10
  7
STYLE2
 73
     1
 44
1.0
1001
ACAD
1000
MTEXTBEGIN
1070
    73
1070
     1
1070
    44
1040
1.0
1070
    74
1070
     0
1000
MTEXTEND
  0
LWPOLYLINE
  5
2242B
330
747D
100
AcDbEntity
  8
部品1
 48
50.0
100
AcDbPolyline
 90
        2
 70
     0
 43
8.0
 10
6362.668423855535
 20
1903.335363828318
 10
6776.808325688493
 20
1903.335363828318
  0
LEADER
  5
2242C
330
747D
100
AcDbEntity
  8
寸法
 48
50.0
100
AcDbLeader
  3
INABA_S50G
 71
     0
 73
     0
 74
     0
 75
     1
 40
100.0
 41
222.7272727272727
 76
     3
 10
6266.668423855535
 20
2003.589793222563
 30
0.0
 10
6300.55436088293
 20
1944.602925127245
 30
0.0
 10
6425.55436088293
 20
1944.602925127245
 30
0.0
1001
ACAD
1000
DSTYLE
1002
{
1070
    40
1040
1.0
1070
   272
1070
     1
1070
   279
1070
     1
1070
   341
1005
0
1002
}
  0
LINE
  5
2242D
330
747D
100
AcDbEntity
  8
細線
 48
50.0
100
AcDbLine
 10
6042.668423855529
 20
1518.182109590488
 30
0.0
 11
6123.821678093364
 21
1599.335363828317
 31
0.0
  0
LINE
  5
2242E
330
747D
100
AcDbEntity
  8
細線
 48
50.0
100
AcDbLine
 10
6250.534271332941
 20
1537.462578525439
 30
0.0
 11
6274.668423855541
 21
1561.596731048038
 31
0.0
  0
LINE
  5
2242F
330
747D
100
AcDbEntity
  8
細線
 48
50.0
100
AcDbLine
 10
6157.466288272608
 20
1471.335363828317
 30
0.0
 11
6274.668423855537
 21
1588.537499411242
 31
0.0
  0
LINE
  5
22430
330
747D
100
AcDbEntity
  8
部品1
 48
50.0
100
AcDbLine
 10
6042.668423855537
 20
1359.335363828317
 30
0.0
 11
6042.668423855537
 21
1599.335363828317
 31
0.0
  0
LINE
  5
22431
330
747D
100
AcDbEntity
  8
細線
 48
50.0
100
AcDbLine
 10
6399.93320354148
 20
1471.335363828317
 30
0.0
 11
6490.668423855535
 21
1562.070584142376
 31
0.0
  0
LINE
  5
22432
330
747D
100
AcDbEntity
  8
細線
 48
50.0
100
AcDbLine
 10
6372.992435178264
 20
1471.335363828317
 30
0.0
 11
6490.668423855535
 21
1589.011352505583
 31
0.0
  0
LINE
  5
22433
330
747D
100
AcDbEntity
  8
部品1
 48
50.0
100
AcDbLine
 10
6490.668423855535
 20
1599.335363828317
 30
0.0
 11
6490.668423855535
 21
1359.335363828317
 31
0.0
  0
LINE
  5
22434
330
747D
100
AcDbEntity
  8
部品1
 48
50.0
100
AcDbLine
 10
6290.668423855542
 20
1479.335363828317
 30
0.0
 11
6290.668423855536
 21
2003.589793222563
 31
0.0
  0
LINE
  5
22435
330
747D
100
AcDbEntity
  8
部品1
 48
50.0
100
AcDbLine
 10
6274.668423855541
 20
1479.335363828317
 30
0.0
 11
6274.668423855529
 21
2003.589793222563
 31
0.0
  0
LINE
  5
22436
330
747D
100
AcDbEntity
  8
細線
 48
50.0
100
AcDbLine
 10
6258.668423855536
 20
1518.655962684828
 30
0.0
 11
6274.668423855541
 21
1534.655962684828
 31
0.0
  0
LINE
  5
22437
330
747D
100
AcDbEntity
  8
細線
 48
50.0
100
AcDbLine
 10
6247.85126335155
 20
1231.335363828317
 30
0.0
 11
6282.148759982733
 21
1359.335363828317
 31
0.0
  0
LINE
  5
22438
330
747D
100
AcDbEntity
  8
部品1
 48
50.0
100
AcDbLine
 10
6570.66842385554
 20
1231.335363828317
 30
0.0
 11
5962.668423855538
 21
1231.335363828317
 31
0.0
  0
LINE
  5
22439
330
747D
100
AcDbEntity
  8
部品1
 48
50.0
100
AcDbLine
 10
6098.668423855536
 20
1455.335363828317
 30
0.0
 11
6434.668423855537
 21
1455.335363828317
 31
0.0
  0
LINE
  5
2243A
330
747D
100
AcDbEntity
  8
部品1
 48
50.0
100
AcDbLine
 10
6098.668423855536
 20
1471.335363828317
 30
0.0
 11
6434.668423855537
 21
1471.335363828317
 31
0.0
  0
LINE
  5
2243B
330
747D
100
AcDbEntity
  8
部品1
 48
50.0
100
AcDbLine
 10
6570.66842385554
 20
1359.335363828317
 30
0.0
 11
5962.668423855538
 21
1359.335363828317
 31
0.0
  0
CIRCLE
  5
2243C
330
747D
100
AcDbEntity
  8
部品1
 48
50.0
100
AcDbCircle
 10
6266.668423855536
 20
1479.335363828317
 30
0.0
 40
8.0
  0
LINE
  5
2243D
330
747D
100
AcDbEntity
  8
細線
 48
50.0
100
AcDbLine
 10
6260.99243517827
 20
1359.335363828317
 30
0.0
 11
6356.99243517827
 21
1455.335363828317
 31
0.0
  0
LINE
  5
2243E
330
747D
100
AcDbEntity
  8
細線
 48
50.0
100
AcDbLine
 10
6090.075173457051
 20
1231.335363828317
 30
0.0
 11
6124.372670088235
 21
1359.335363828317
 31
0.0
  0
LINE
  5
2243F
330
747D
100
AcDbEntity
  8
細線
 48
50.0
100
AcDbLine
 10
6168.963218404297
 20
1231.335363828315
 30
0.0
 11
6203.26071503548
 21
1359.335363828315
 31
0.0
  0
LINE
  5
22440
330
747D
100
AcDbEntity
  8
細線
 48
50.0
100
AcDbLine
 10
6011.187128509794
 20
1231.335363828315
 30
0.0
 11
6045.484625140978
 21
1359.335363828315
 31
0.0
  0
LINE
  5
22441
330
747D
100
AcDbEntity
  8
部品1
 48
50.0
100
AcDbLine
 10
5962.668423855538
 20
1231.335363828317
 30
0.0
 11
5962.668423855538
 21
1359.335363828317
 31
0.0
  0
LINE
  5
22442
330
747D
100
AcDbEntity
  8
細線
 48
50.0
100
AcDbLine
 10
6096.505954075398
 20
1255.335363828317
 30
0.0
 11
6102.936734693746
 21
1231.335363828317
 31
0.0
  0
LINE
  5
22443
330
747D
100
AcDbEntity
  8
細線
 48
50.0
100
AcDbLine
 10
6017.617909128148
 20
1255.335363828317
 30
0.0
 11
6024.048689746493
 21
1231.335363828317
 31
0.0
  0
LINE
  5
22444
330
747D
100
AcDbEntity
  8
細線
 48
50.0
100
AcDbLine
 10
6254.282043969904
 20
1255.335363828317
 30
0.0
 11
6260.712824588249
 21
1231.335363828317
 31
0.0
  0
LINE
  5
22445
330
747D
100
AcDbEntity
  8
細線
 48
50.0
100
AcDbLine
 10
6175.393999022651
 20
1255.335363828317
 30
0.0
 11
6181.824779640997
 21
1231.335363828317
 31
0.0
  0
LINE
  5
22446
330
747D
100
AcDbEntity
  8
細線
 48
50.0
100
AcDbLine
 10
6072.407056635819
 20
1359.335363828317
 30
0.0
 11
6168.407056635819
 21
1455.335363828317
 31
0.0
  0
LINE
  5
22447
330
747D
100
AcDbEntity
  8
細線
 48
50.0
100
AcDbLine
 10
6045.466288272609
 20
1359.335363828317
 30
0.0
 11
6141.466288272609
 21
1455.335363828317
 31
0.0
  0
LINE
  5
22448
330
747D
100
AcDbEntity
  8
部品1
 48
50.0
100
AcDbLine
 10
6098.668423855536
 20
1471.335363828317
 30
0.0
 11
6098.668423855536
 21
1455.335363828317
 31
0.0
  0
LINE
  5
22449
330
747D
100
AcDbEntity
  8
細線
 48
50.0
100
AcDbLine
 10
6039.053844522637
 20
1335.335363828317
 30
0.0
 11
6032.623063904289
 21
1359.335363828317
 31
0.0
  0
LINE
  5
2244A
330
747D
100
AcDbEntity
  8
細線
 48
50.0
100
AcDbLine
 10
5962.668423855536
 20
1344.675284794097
 30
0.0
 11
5966.596580193732
 21
1359.335363828317
 31
0.0
  0
LINE
  5
2244B
330
747D
100
AcDbEntity
  8
部品1
 48
50.0
100
AcDbLine
 10
6258.668423855536
 20
1537.462578525439
 30
0.0
 11
6242.668423855537
 21
1537.462578525439
 31
0.0
  0
CIRCLE
  5
2244C
330
747D
100
AcDbEntity
  8
部品1
 48
50.0
100
AcDbCircle
 10
6138.668423855536
 20
1479.335363828317
 30
0.0
 40
8.0
  0
LINE
  5
2244D
330
747D
100
AcDbEntity
  8
細線
 48
50.0
100
AcDbLine
 10
6211.347824999025
 20
1471.335363828317
 30
0.0
 11
6242.668423855537
 21
1502.655962684828
 31
0.0
  0
ARC
  5
2244E
330
747D
100
AcDbEntity
  8
部品1
 48
50.0
100
AcDbCircle
 10
6266.668423855536
 20
1479.335363828317
 30
0.0
 40
24.0
100
AcDbArc
 50
180.0
 51
199.4712206344927
  0
LINE
  5
2244F
330
747D
100
AcDbEntity
  8
細線
 48
50.0
100
AcDbLine
 10
6117.941889469888
 20
1335.335363828317
 30
0.0
 11
6111.511108851541
 21
1359.335363828317
 31
0.0
  0
LINE
  5
22450
330
747D
100
AcDbEntity
  8
細線
 48
50.0
100
AcDbLine
 10
6196.82993441714
 20
1335.335363828317
 30
0.0
 11
6190.399153798794
 21
1359.335363828317
 31
0.0
  0
LINE
  5
22451
330
747D
100
AcDbEntity
  8
細線
 48
50.0
100
AcDbLine
 10
6099.347824999025
 20
1359.335363828317
 30
0.0
 11
6195.347824999025
 21
1455.335363828317
 31
0.0
  0
LINE
  5
22452
330
747D
100
AcDbEntity
  8
部品1
 48
50.0
100
AcDbLine
 10
6242.668423855537
 20
1537.462578525439
 30
0.0
 11
6242.668423855537
 21
1479.335363828317
 31
0.0
  0
LINE
  5
22453
330
747D
100
AcDbEntity
  8
細線
 48
50.0
100
AcDbLine
 10
6184.407056635819
 20
1471.335363828317
 30
0.0
 11
6242.668423855537
 21
1529.596731048035
 31
0.0
  0
LINE
  5
22454
330
747D
100
AcDbEntity
  8
部品1
 48
50.0
100
AcDbLine
 10
6258.668423855536
 20
1537.462578525439
 30
0.0
 11
6258.668423855536
 21
1479.335363828317
 31
0.0
  0
LINE
  5
22455
330
747D
100
AcDbEntity
  8
部品1
 48
50.0
100
AcDbLine
 10
6570.66842385554
 20
1359.335363828317
 30
0.0
 11
6570.66842385554
 21
1231.335363828317
 31
0.0
  0
LINE
  5
22456
330
747D
100
AcDbEntity
  8
細線
 48
50.0
100
AcDbLine
 10
6484.515398193289
 20
1231.335363828317
 30
0.0
 11
6518.812894824475
 21
1359.335363828315
 31
0.0
  0
LINE
  5
22457
330
747D
100
AcDbEntity
  8
細線
 48
50.0
100
AcDbLine
 10
6326.739308298796
 20
1231.335363828317
 30
0.0
 11
6361.036804929982
 21
1359.335363828315
 31
0.0
  0
LINE
  5
22458
330
747D
100
AcDbEntity
  8
細線
 48
50.0
100
AcDbLine
 10
6405.627353246045
 20
1231.335363828315
 30
0.0
 11
6439.924849877229
 21
1359.335363828315
 31
0.0
  0
LINE
  5
22459
330
747D
100
AcDbEntity
  8
細線
 48
50.0
100
AcDbLine
 10
6412.058133864395
 20
1255.335363828317
 30
0.0
 11
6418.488914482742
 21
1231.335363828317
 31
0.0
  0
LINE
  5
2245A
330
747D
100
AcDbEntity
  8
細線
 48
50.0
100
AcDbLine
 10
6333.17008891715
 20
1255.335363828317
 30
0.0
 11
6339.600869535495
 21
1231.335363828317
 31
0.0
  0
LINE
  5
2245B
330
747D
100
AcDbEntity
  8
細線
 48
50.0
100
AcDbLine
 10
6490.946178811642
 20
1255.335363828317
 30
0.0
 11
6497.376959429989
 21
1231.335363828317
 31
0.0
  0
LINE
  5
2245C
330
747D
100
AcDbEntity
  8
細線
 48
50.0
100
AcDbLine
 10
6569.834223758888
 20
1255.335363828317
 30
0.0
 11
6570.668423855536
 21
1252.222086683952
 31
0.0
  0
LINE
  5
2245D
330
747D
100
AcDbEntity
  8
細線
 48
50.0
100
AcDbLine
 10
6563.40344314054
 20
1231.335363828315
 30
0.0
 11
6570.668423855536
 21
1258.448640972705
 31
0.0
  0
LINE
  5
2245E
330
747D
100
AcDbEntity
  8
細線
 48
50.0
100
AcDbLine
 10
6426.873971904683
 20
1471.335363828317
 30
0.0
 11
6490.668423855535
 21
1535.129815779168
 31
0.0
  0
CIRCLE
  5
2245F
330
747D
100
AcDbEntity
  8
部品1
 48
50.0
100
AcDbCircle
 10
6394.668423855536
 20
1479.335363828317
 30
0.0
 40
8.0
  0
ARC
  5
22460
330
747D
100
AcDbEntity
  8
部品1
 48
50.0
100
AcDbCircle
 10
6266.668423855536
 20
1479.335363828317
 30
0.0
 40
24.0
100
AcDbArc
 50
340.5287793655072
 51
0.0
  0
LINE
  5
22461
330
747D
100
AcDbEntity
  8
細線
 48
50.0
100
AcDbLine
 10
6275.717979364393
 20
1335.335363828317
 30
0.0
 11
6269.287198746045
 21
1359.335363828317
 31
0.0
  0
LINE
  5
22462
330
747D
100
AcDbEntity
  8
細線
 48
50.0
100
AcDbLine
 10
6354.606024311638
 20
1335.335363828317
 30
0.0
 11
6348.175243693292
 21
1359.335363828317
 31
0.0
  0
LINE
  5
22463
330
747D
100
AcDbEntity
  8
細線
 48
50.0
100
AcDbLine
 10
6287.93320354148
 20
1359.335363828317
 30
0.0
 11
6383.93320354148
 21
1455.335363828317
 31
0.0
  0
LINE
  5
22464
330
747D
100
AcDbEntity
  8
細線
 48
50.0
100
AcDbLine
 10
6314.873971904684
 20
1359.335363828317
 30
0.0
 11
6410.874859749821
 21
1455.336251673456
 31
0.0
  0
LINE
  5
22465
330
747D
100
AcDbEntity
  8
部品1
 48
50.0
100
AcDbLine
 10
6434.668423855537
 20
1471.335363828317
 30
0.0
 11
6434.668423855537
 21
1455.335363828317
 31
0.0
  0
LINE
  5
22466
330
747D
100
AcDbEntity
  8
細線
 48
50.0
100
AcDbLine
 10
6512.38211420613
 20
1335.335363828317
 30
0.0
 11
6505.951333587782
 21
1359.335363828317
 31
0.0
  0
LINE
  5
22467
330
747D
100
AcDbEntity
  8
細線
 48
50.0
100
AcDbLine
 10
6476.518582083929
 20
1359.335363828317
 30
0.0
 11
6490.668423855535
 21
1373.485205599923
 31
0.0
  0
LINE
  5
22468
330
747D
100
AcDbEntity
  8
細線
 48
50.0
100
AcDbLine
 10
6433.494069258883
 20
1335.335363828317
 30
0.0
 11
6427.063288640538
 21
1359.335363828317
 31
0.0
  0
LINE
  5
22469
330
747D
100
AcDbEntity
  8
細線
 48
50.0
100
AcDbLine
 10
6170.668423855536
 20
1673.122877953695
 30
0.0
 11
6274.668423855541
 21
1777.122877953698
 31
0.0
  0
LINE
  5
2246A
330
747D
100
AcDbEntity
  8
細線
 48
50.0
100
AcDbLine
 10
6170.668423855536
 20
1700.063646316903
 30
0.0
 11
6274.668423855537
 21
1804.063646316903
 31
0.0
  0
LINE
  5
2246B
330
747D
100
AcDbEntity
  8
細線
 48
50.0
100
AcDbLine
 10
6170.668423855536
 20
1646.182109590488
 30
0.0
 11
6274.668423855541
 21
1750.182109590488
 31
0.0
  0
LINE
  5
2246C
330
747D
100
AcDbEntity
  8
細線
 48
50.0
100
AcDbLine
 10
6258.668423855536
 20
1949.708256496147
 30
0.0
 11
6274.668423855537
 21
1965.708256496147
 31
0.0
  0
LINE
  5
2246D
330
747D
100
AcDbEntity
  8
細線
 48
50.0
100
AcDbLine
 10
6258.668423855536
 20
1976.649024859354
 30
0.0
 11
6274.668423855537
 21
1992.649024859354
 31
0.0
  0
LINE
  5
2246E
330
747D
100
AcDbEntity
  8
部品1
 48
50.0
100
AcDbLine
 10
6042.668423855537
 20
1599.335363828317
 30
0.0
 11
6170.668423855536
 21
1599.335363828317
 31
0.0
  0
LINE
  5
2246F
330
747D
100
AcDbEntity
  8
細線
 48
50.0
100
AcDbLine
 10
6042.668423855529
 20
1545.122877953692
 30
0.0
 11
6096.880909730161
 21
1599.335363828317
 31
0.0
  0
LINE
  5
22470
330
747D
100
AcDbEntity
  8
細線
 48
50.0
100
AcDbLine
 10
6042.668423855529
 20
1572.063646316903
 30
0.0
 11
6069.94014136695
 21
1599.335363828317
 31
0.0
  0
LINE
  5
22471
330
747D
100
AcDbEntity
  8
部品1
 48
50.0
100
AcDbLine
 10
6258.668423855536
 20
1945.462578525439
 30
0.0
 11
6242.668423855537
 21
1945.462578525443
 31
0.0
  0
LINE
  5
22472
330
747D
100
AcDbEntity
  8
細線
 48
50.0
100
AcDbLine
 10
6170.668423855536
 20
1861.708256496147
 30
0.0
 11
6254.422745884831
 21
1945.462578525439
 31
0.0
  0
LINE
  5
22473
330
747D
100
AcDbEntity
  8
細線
 48
50.0
100
AcDbLine
 10
6170.668423855536
 20
1888.649024859354
 30
0.0
 11
6242.668423855537
 21
1960.649024859354
 31
0.0
  0
LINE
  5
22474
330
747D
100
AcDbEntity
  8
部品1
 48
50.0
100
AcDbLine
 10
6242.668423855537
 20
1945.462578525443
 30
0.0
 11
6242.668423855537
 21
2003.589793222563
 31
0.0
  0
LINE
  5
22475
330
747D
100
AcDbEntity
  8
細線
 48
50.0
100
AcDbLine
 10
6170.668423855536
 20
1915.589793222562
 30
0.0
 11
6242.668423855537
 21
1987.589793222563
 31
0.0
  0
LINE
  5
22476
330
747D
100
AcDbEntity
  8
部品1
 48
50.0
100
AcDbLine
 10
6258.668423855536
 20
1945.462578525439
 30
0.0
 11
6258.668423855536
 21
2003.589793222563
 31
0.0
  0
LINE
  5
22477
330
747D
100
AcDbEntity
  8
細線
 48
50.0
100
AcDbLine
 10
6290.668423855542
 20
1766.182109590488
 30
0.0
 11
6362.668423855529
 21
1838.182109590488
 31
0.0
  0
LINE
  5
22478
330
747D
100
AcDbEntity
  8
部品1
 48
50.0
100
AcDbLine
 10
6362.668423855536
 20
1599.335363828317
 30
0.0
 11
6490.668423855535
 21
1599.335363828317
 31
0.0
  0
LINE
  5
22479
330
747D
100
AcDbEntity
  8
細線
 48
50.0
100
AcDbLine
 10
6290.668423855542
 20
1577.596731048038
 30
0.0
 11
6362.668423855529
 21
1649.596731048033
 31
0.0
  0
LINE
  5
2247A
330
747D
100
AcDbEntity
  8
細線
 48
50.0
100
AcDbLine
 10
6290.668423855542
 20
1604.537499411246
 30
0.0
 11
6362.668423855529
 21
1676.537499411242
 31
0.0
  0
LINE
  5
2247B
330
747D
100
AcDbEntity
  8
細線
 48
50.0
100
AcDbLine
 10
6290.668423855542
 20
1550.655962684828
 30
0.0
 11
6362.668423855529
 21
1622.655962684828
 31
0.0
  0
LINE
  5
2247C
330
747D
100
AcDbEntity
  8
細線
 48
50.0
100
AcDbLine
 10
6290.668423855536
 20
1820.063646316903
 30
0.0
 11
6362.668423855536
 21
1892.063646316903
 31
0.0
  0
LINE
  5
2247D
330
747D
100
AcDbEntity
  8
細線
 48
50.0
100
AcDbLine
 10
6290.668423855542
 20
1793.122877953697
 30
0.0
 11
6362.668423855529
 21
1865.122877953692
 31
0.0
  0
MTEXT
  5
2247E
102
{ACAD_REACTORS
330
22429
102
}
330
747D
100
AcDbEntity
  8
寸法
 62
     7
 48
50.0
100
AcDbMText
 10
6604.406879716787
 20
1181.986278096164
 30
0.0
 40
80.0
 41
0.8
 71
     4
 72
     1
  1
\A1;D10@300
  7
STYLE2
 73
     1
 44
1.0
1001
ACAD
1000
MTEXTBEGIN
1070
    73
1070
     1
1070
    44
1040
1.0
1070
    74
1070
     0
1000
MTEXTEND
  0
DIMENSION
  5
2247F
330
747D
100
AcDbEntity
  8
寸法
 48
50.0
100
AcDbDimension
  2
*D47
 10
6170.668423855535
 20
2463.335363828317
 30
0.0
 11
6277.894754200733
 21
2563.003171744697
 31
0.0
 70
   160
  1
120\P195
 71
     5
 42
192.0
  3
INABA_S40G
100
AcDbAlignedDimension
 13
6362.668423855535
 23
2143.335363828317
 33
0.0
 14
6170.668423855535
 24
2143.335363828317
 34
0.0
100
AcDbRotatedDimension
1001
ACAD
1000
DSTYLE
1002
{
1070
   174
1070
     0
1070
   272
1070
     1
1070
   279
1070
     1
1070
   288
1070
     0
1070
   341
1005
0
1002
}
  0
LINE
  5
22480
330
747D
100
AcDbEntity
  8
部品1
 48
50.0
100
AcDbLine
 10
6170.668423855536
 20
2143.335363828317
 30
0.0
 11
6362.668423855536
 21
2143.335363828317
 31
0.0
  0
LINE
  5
22481
330
747D
100
AcDbEntity
  8
細線
 48
50.0
100
AcDbLine
 10
6170.668423855536
 20
2104.175171765015
 30
0.0
 11
6209.828615918841
 21
2143.335363828317
 31
0.0
  0
LINE
  5
22482
330
747D
100
AcDbEntity
  8
細線
 48
50.0
100
AcDbLine
 10
6170.668423855536
 20
2077.234403401807
 30
0.0
 11
6236.769384282045
 21
2143.335363828317
 31
0.0
  0
LINE
  5
22483
330
747D
100
AcDbEntity
  8
細線
 48
50.0
100
AcDbLine
 10
6170.668423855536
 20
2131.115940128222
 30
0.0
 11
6182.887847555631
 21
2143.335363828317
 31
0.0
  0
LINE
  5
22484
330
747D
100
AcDbEntity
  8
細線
 48
50.0
100
AcDbLine
 10
6290.221131121523
 20
2008.201732125339
 30
0.0
 11
6362.668423855536
 21
2080.649024859354
 31
0.0
  0
LINE
  5
22485
330
747D
100
AcDbEntity
  8
細線
 48
50.0
100
AcDbLine
 10
6279.160846358006
 20
2024.082215725033
 30
0.0
 11
6362.668423855536
 21
2107.589793222563
 31
0.0
  0
LINE
  5
22486
330
747D
100
AcDbEntity
  8
細線
 48
50.0
100
AcDbLine
 10
8155.107737032732
 20
1984.463646316905
 30
0.0
 11
8284.70773703273
 21
2114.063646316904
 31
0.0
  0
LINE
  5
22487
330
747D
100
AcDbEntity
  8
部品1
100
AcDbLine
 10
8284.707737032729
 20
1599.335363828317
 30
0.0
 11
8284.70773703273
 21
2143.335363828317
 31
0.0
  0
LINE
  5
22488
330
747D
100
AcDbEntity
  8
部品1
 48
50.0
100
AcDbLine
 10
7870.70773703273
 20
1599.335363828317
 30
0.0
 11
7870.70773703273
 21
2143.335363828317
 31
0.0
  0
LINE
  5
22489
330
747D
100
AcDbEntity
  8
細線
 48
50.0
100
AcDbLine
 10
7870.70773703273
 20
1915.589793222562
 30
0.0
 11
8029.107737032729
 21
2073.98979322256
 31
0.0
  0
LINE
  5
2248A
330
747D
100
AcDbEntity
  8
細線
 48
50.0
100
AcDbLine
 10
7870.70773703273
 20
1888.649024859354
 30
0.0
 11
8029.107737032729
 21
2047.049024859353
 31
0.0
  0
LINE
  5
2248B
330
747D
100
AcDbEntity
  8
細線
 48
50.0
100
AcDbLine
 10
7870.70773703273
 20
1861.708256496147
 30
0.0
 11
8029.107737032726
 21
2020.10825649614
 31
0.0
  0
TEXT
  5
2248C
330
747D
100
AcDbEntity
  8
部品1
 48
50.0
100
AcDbText
 10
7456.567835199774
 20
1914.574356111572
 30
0.0
 40
80.0
  1
▽G.L
  7
STYLE2
100
AcDbText
  0
LINE
  5
2248D
330
747D
100
AcDbEntity
  8
部品1
100
AcDbLine
 10
8101.10773703273
 20
1918.335363828317
 30
0.0
 11
8101.107737032725
 21
2192.495363828318
 31
0.0
  0
LINE
  5
2248E
330
747D
100
AcDbEntity
  8
部品1
100
AcDbLine
 10
8083.10773703273
 20
1918.335363828317
 30
0.0
 11
8083.107737032726
 21
2192.495363828318
 31
0.0
  0
LINE
  5
2248F
330
747D
100
AcDbEntity
  8
細線
 48
50.0
100
AcDbLine
 10
8155.107737032732
 20
1930.582109590476
 30
0.0
 11
8284.70773703273
 21
2060.182109590467
 31
0.0
  0
LINE
  5
22490
330
747D
100
AcDbEntity
  8
細線
 48
50.0
100
AcDbLine
 10
8155.107737032732
 20
1957.522877953688
 30
0.0
 11
8284.70773703273
 21
2087.122877953685
 31
0.0
  0
LINE
  5
22491
330
747D
100
AcDbEntity
  8
部品1
100
AcDbLine
 10
8155.107737032729
 20
1819.335363828317
 30
0.0
 11
8155.107737032729
 21
2143.335363828317
 31
0.0
  0
LINE
  5
22492
330
747D
100
AcDbEntity
  8
部品1
100
AcDbLine
 10
8029.107737032724
 20
1819.335363828317
 30
0.0
 11
8029.107737032729
 21
2143.335363828317
 31
0.0
  0
LINE
  5
22493
330
747D
100
AcDbEntity
  8
細線
 48
50.0
100
AcDbLine
 10
7870.70773703273
 20
1673.122877953695
 30
0.0
 11
8029.107737032722
 21
1831.522877953684
 31
0.0
  0
LINE
  5
22494
330
747D
100
AcDbEntity
  8
細線
 48
50.0
100
AcDbLine
 10
7870.70773703273
 20
1646.182109590488
 30
0.0
 11
8043.860991270566
 21
1819.335363828315
 31
0.0
  0
LINE
  5
22495
330
747D
100
AcDbEntity
  8
細線
 48
50.0
100
AcDbLine
 10
7870.70773703273
 20
1700.063646316903
 30
0.0
 11
8029.107737032722
 21
1858.463646316898
 31
0.0
  0
LINE
  5
22496
330
747D
100
AcDbEntity
  8
細線
 48
50.0
100
AcDbLine
 10
7799.387138176219
 20
1359.335363828317
 30
0.0
 11
8284.70773703273
 21
1844.655962684825
 31
0.0
  0
LINE
  5
22497
330
747D
100
AcDbEntity
  8
細線
 48
50.0
100
AcDbLine
 10
7772.446369813014
 20
1359.335363828317
 30
0.0
 11
8284.70773703273
 21
1871.596731048031
 31
0.0
  0
LINE
  5
22498
330
747D
100
AcDbEntity
  8
細線
 48
50.0
100
AcDbLine
 10
7745.505601449804
 20
1359.335363828317
 30
0.0
 11
8284.707737032729
 21
1898.537499411242
 31
0.0
  0
LINE
  5
22499
330
747D
100
AcDbEntity
  8
部品1
 48
50.0
100
AcDbLine
 10
8492.707737032731
 20
1359.335363828317
 30
0.0
 11
7662.707737032731
 21
1359.335363828317
 31
0.0
  0
LINE
  5
2249A
330
747D
100
AcDbEntity
  8
部品1
 48
50.0
100
AcDbLine
 10
8492.707737032731
 20
1231.335363828317
 30
0.0
 11
7662.707737032731
 21
1231.335363828317
 31
0.0
  0
LINE
  5
2249B
330
747D
100
AcDbEntity
  8
細線
 48
50.0
100
AcDbLine
 10
7742.707737032723
 20
1518.182109590488
 30
0.0
 11
7823.860991270558
 21
1599.335363828317
 31
0.0
  0
LINE
  5
2249C
330
747D
100
AcDbEntity
  8
部品1
 48
50.0
100
AcDbLine
 10
7742.70773703273
 20
1359.335363828317
 30
0.0
 11
7742.70773703273
 21
1599.335363828317
 31
0.0
  0
LINE
  5
2249D
330
747D
100
AcDbEntity
  8
細線
 48
50.0
100
AcDbLine
 10
7790.114486634248
 20
1231.335363828317
 30
0.0
 11
7824.411983265429
 21
1359.335363828317
 31
0.0
  0
LINE
  5
2249E
330
747D
100
AcDbEntity
  8
部品1
 48
50.0
100
AcDbLine
 10
7662.707737032731
 20
1231.335363828317
 30
0.0
 11
7662.707737032731
 21
1359.335363828317
 31
0.0
  0
LINE
  5
2249F
330
747D
100
AcDbEntity
  8
細線
 48
50.0
100
AcDbLine
 10
7711.226441686988
 20
1231.335363828315
 30
0.0
 11
7745.523938318171
 21
1359.335363828315
 31
0.0
  0
LINE
  5
224A0
330
747D
100
AcDbEntity
  8
細線
 48
50.0
100
AcDbLine
 10
7869.002531581493
 20
1231.335363828315
 30
0.0
 11
7903.300028212673
 21
1359.335363828315
 31
0.0
  0
LINE
  5
224A1
330
747D
100
AcDbEntity
  8
細線
 48
50.0
100
AcDbLine
 10
7717.657222305341
 20
1255.335363828317
 30
0.0
 11
7724.088002923688
 21
1231.335363828317
 31
0.0
  0
LINE
  5
224A2
330
747D
100
AcDbEntity
  8
細線
 48
50.0
100
AcDbLine
 10
7875.433312199845
 20
1255.335363828317
 30
0.0
 11
7881.864092818192
 21
1231.335363828317
 31
0.0
  0
LINE
  5
224A3
330
747D
100
AcDbEntity
  8
細線
 48
50.0
100
AcDbLine
 10
7796.545267252594
 20
1255.335363828317
 30
0.0
 11
7802.976047870939
 21
1231.335363828317
 31
0.0
  0
LINE
  5
224A4
330
747D
100
AcDbEntity
  8
細線
 48
50.0
100
AcDbLine
 10
7662.70773703273
 20
1344.675284794097
 30
0.0
 11
7666.635893370925
 21
1359.335363828317
 31
0.0
  0
LINE
  5
224A5
330
747D
100
AcDbEntity
  8
細線
 48
50.0
100
AcDbLine
 10
7739.09315769983
 20
1335.335363828317
 30
0.0
 11
7732.662377081485
 21
1359.335363828317
 31
0.0
  0
LINE
  5
224A6
330
747D
100
AcDbEntity
  8
細線
 48
50.0
100
AcDbLine
 10
7896.869247594335
 20
1335.335363828317
 30
0.0
 11
7890.438466975988
 21
1359.335363828317
 31
0.0
  0
LINE
  5
224A7
330
747D
100
AcDbEntity
  8
細線
 48
50.0
100
AcDbLine
 10
7817.981202647082
 20
1335.335363828317
 30
0.0
 11
7811.550422028736
 21
1359.335363828317
 31
0.0
  0
LWPOLYLINE
  5
224A8
330
747D
100
AcDbEntity
  8
部品1
 48
50.0
100
AcDbPolyline
 90
        2
 70
     0
 43
8.0
 10
7456.567835199774
 20
1903.335363828318
 10
7870.70773703273
 20
1903.335363828318
  0
LINE
  5
224A9
330
747D
100
AcDbEntity
  8
細線
 48
50.0
100
AcDbLine
 10
7742.707737032723
 20
1545.122877953692
 30
0.0
 11
7796.920222907354
 21
1599.335363828317
 31
0.0
  0
LINE
  5
224AA
330
747D
100
AcDbEntity
  8
部品1
 48
50.0
100
AcDbLine
 10
7742.70773703273
 20
1599.335363828317
 30
0.0
 11
7870.70773703273
 21
1599.335363828317
 31
0.0
  0
LINE
  5
224AB
330
747D
100
AcDbEntity
  8
細線
 48
50.0
100
AcDbLine
 10
7742.707737032723
 20
1572.063646316903
 30
0.0
 11
7769.979454544143
 21
1599.335363828317
 31
0.0
  0
LINE
  5
224AC
330
747D
100
AcDbEntity
  8
細線
 48
50.0
100
AcDbLine
 10
7987.972516718674
 20
1359.335363828317
 30
0.0
 11
8284.70773703273
 21
1656.070584142369
 31
0.0
  0
LINE
  5
224AD
330
747D
100
AcDbEntity
  8
細線
 48
50.0
100
AcDbLine
 10
8014.913285081879
 20
1359.335363828317
 30
0.0
 11
8284.70773703273
 21
1629.129815779174
 31
0.0
  0
LINE
  5
224AE
330
747D
100
AcDbEntity
  8
細線
 48
50.0
100
AcDbLine
 10
7961.031748355465
 20
1359.335363828317
 30
0.0
 11
8284.707737032729
 21
1683.011352505583
 31
0.0
  0
LINE
  5
224AF
330
747D
100
AcDbEntity
  8
細線
 48
50.0
100
AcDbLine
 10
8176.557895261124
 20
1359.335363828317
 30
0.0
 11
8412.707737032729
 21
1595.485205599925
 31
0.0
  0
LINE
  5
224B0
330
747D
100
AcDbEntity
  8
細線
 48
50.0
100
AcDbLine
 10
8203.498663624335
 20
1359.335363828317
 30
0.0
 11
8412.707737032729
 21
1568.54443723671
 31
0.0
  0
LINE
  5
224B1
330
747D
100
AcDbEntity
  8
部品1
 48
50.0
100
AcDbLine
 10
8412.707737032729
 20
1599.335363828317
 30
0.0
 11
8412.707737032729
 21
1359.335363828317
 31
0.0
  0
LINE
  5
224B2
330
747D
100
AcDbEntity
  8
細線
 48
50.0
100
AcDbLine
 10
8230.439431987539
 20
1359.335363828317
 30
0.0
 11
8412.707737032729
 21
1541.603668873513
 31
0.0
  0
LINE
  5
224B3
330
747D
100
AcDbEntity
  8
細線
 48
50.0
100
AcDbLine
 10
8105.666666423239
 20
1231.335363828315
 30
0.0
 11
8139.96416305442
 21
1359.335363828315
 31
0.0
  0
LINE
  5
224B4
330
747D
100
AcDbEntity
  8
細線
 48
50.0
100
AcDbLine
 10
7947.890576528745
 20
1231.335363828317
 30
0.0
 11
7982.188073159926
 21
1359.335363828317
 31
0.0
  0
LINE
  5
224B5
330
747D
100
AcDbEntity
  8
細線
 48
50.0
100
AcDbLine
 10
8026.77862147599
 20
1231.335363828317
 30
0.0
 11
8061.076118107177
 21
1359.335363828315
 31
0.0
  0
LINE
  5
224B6
330
747D
100
AcDbEntity
  8
細線
 48
50.0
100
AcDbLine
 10
8184.554711370481
 20
1231.335363828317
 30
0.0
 11
8218.852208001669
 21
1359.335363828315
 31
0.0
  0
LINE
  5
224B7
330
747D
100
AcDbEntity
  8
細線
 48
50.0
100
AcDbLine
 10
8033.209402094344
 20
1255.335363828317
 30
0.0
 11
8039.640182712691
 21
1231.335363828317
 31
0.0
  0
LINE
  5
224B8
330
747D
100
AcDbEntity
  8
細線
 48
50.0
100
AcDbLine
 10
7954.321357147097
 20
1255.335363828317
 30
0.0
 11
7960.752137765445
 21
1231.335363828317
 31
0.0
  0
LINE
  5
224B9
330
747D
100
AcDbEntity
  8
細線
 48
50.0
100
AcDbLine
 10
8190.985491988834
 20
1255.335363828317
 30
0.0
 11
8197.416272607181
 21
1231.335363828317
 31
0.0
  0
LINE
  5
224BA
330
747D
100
AcDbEntity
  8
細線
 48
50.0
100
AcDbLine
 10
8112.097447041589
 20
1255.335363828317
 30
0.0
 11
8118.528227659934
 21
1231.335363828317
 31
0.0
  0
LINE
  5
224BB
330
747D
100
AcDbEntity
  8
細線
 48
50.0
100
AcDbLine
 10
8054.645337488834
 20
1335.335363828317
 30
0.0
 11
8048.214556870485
 21
1359.335363828317
 31
0.0
  0
LINE
  5
224BC
330
747D
100
AcDbEntity
  8
細線
 48
50.0
100
AcDbLine
 10
7975.757292541586
 20
1335.335363828317
 30
0.0
 11
7969.326511923238
 21
1359.335363828317
 31
0.0
  0
LINE
  5
224BD
330
747D
100
AcDbEntity
  8
細線
 48
50.0
100
AcDbLine
 10
8133.533382436079
 20
1335.335363828317
 30
0.0
 11
8127.102601817732
 21
1359.335363828317
 31
0.0
  0
LINE
  5
224BE
330
747D
100
AcDbEntity
  8
細線
 48
50.0
100
AcDbLine
 10
8212.421427383324
 20
1335.335363828317
 30
0.0
 11
8205.990646764979
 21
1359.335363828317
 31
0.0
  0
LINE
  5
224BF
330
747D
100
AcDbEntity
  8
部品1
 48
50.0
100
AcDbLine
 10
8492.707737032731
 20
1359.335363828317
 30
0.0
 11
8492.707737032731
 21
1231.335363828317
 31
0.0
  0
LINE
  5
224C0
330
747D
100
AcDbEntity
  8
細線
 48
50.0
100
AcDbLine
 10
8421.218846212225
 20
1231.335363828315
 30
0.0
 11
8455.516342843409
 21
1359.335363828314
 31
0.0
  0
LINE
  5
224C1
330
747D
100
AcDbEntity
  8
細線
 48
50.0
100
AcDbLine
 10
8263.442756317731
 20
1231.335363828315
 30
0.0
 11
8297.740252948903
 21
1359.335363828317
 31
0.0
  0
LINE
  5
224C2
330
747D
100
AcDbEntity
  8
細線
 48
50.0
100
AcDbLine
 10
8342.33080126498
 20
1231.335363828314
 30
0.0
 11
8376.628297896164
 21
1359.335363828314
 31
0.0
  0
LINE
  5
224C3
330
747D
100
AcDbEntity
  8
細線
 48
50.0
100
AcDbLine
 10
8269.87353693608
 20
1255.335363828317
 30
0.0
 11
8276.304317554437
 21
1231.335363828317
 31
0.0
  0
LINE
  5
224C4
330
747D
100
AcDbEntity
  8
細線
 48
50.0
100
AcDbLine
 10
8348.761581883328
 20
1255.335363828315
 30
0.0
 11
8355.192362501675
 21
1231.335363828315
 31
0.0
  0
LINE
  5
224C5
330
747D
100
AcDbEntity
  8
細線
 48
50.0
100
AcDbLine
 10
8427.649626830575
 20
1255.335363828315
 30
0.0
 11
8434.080407448924
 21
1231.335363828315
 31
0.0
  0
LINE
  5
224C6
330
747D
100
AcDbEntity
  8
細線
 48
50.0
100
AcDbLine
 10
8291.309472330562
 20
1335.335363828317
 30
0.0
 11
8284.878691712217
 21
1359.335363828317
 31
0.0
  0
LINE
  5
224C7
330
747D
100
AcDbEntity
  8
細線
 48
50.0
100
AcDbLine
 10
8370.197517277819
 20
1335.335363828315
 30
0.0
 11
8363.766736659473
 21
1359.335363828315
 31
0.0
  0
LINE
  5
224C8
330
747D
100
AcDbEntity
  8
細線
 48
50.0
100
AcDbLine
 10
8449.085562225063
 20
1335.335363828315
 30
0.0
 11
8442.654781606718
 21
1359.335363828315
 31
0.0
  0
LINE
  5
224C9
330
747D
100
AcDbEntity
  8
部品1
100
AcDbLine
 10
8155.107737032729
 20
1819.335363828315
 30
0.0
 11
8029.107737032724
 21
1819.335363828315
 31
0.0
  0
LINE
  5
224CA
330
747D
100
AcDbEntity
  8
部品1
100
AcDbLine
 10
8137.10773703273
 20
1900.335363828317
 30
0.0
 11
8137.10773703273
 21
1918.335363828317
 31
0.0
  0
ARC
  5
224CB
330
747D
100
AcDbEntity
  8
部品1
100
AcDbCircle
 10
8101.10773703273
 20
1918.335363828317
 30
0.0
 40
18.0
100
AcDbArc
 50
180.0
 51
270.0
  0
LINE
  5
224CC
330
747D
100
AcDbEntity
  8
部品1
100
AcDbLine
 10
8101.10773703273
 20
1900.335363828317
 30
0.0
 11
8137.10773703273
 21
1900.335363828317
 31
0.0
  0
LINE
  5
224CD
330
747D
100
AcDbEntity
  8
部品1
100
AcDbLine
 10
8101.10773703273
 20
1918.335363828317
 30
0.0
 11
8137.10773703273
 21
1918.335363828317
 31
0.0
  0
LINE
  5
224CE
330
747D
100
AcDbEntity
  8
部品1
 48
50.0
100
AcDbLine
 10
8284.70773703273
 20
1599.335363828317
 30
0.0
 11
8412.707737032729
 21
1599.335363828317
 31
0.0
  0
LINE
  5
224CF
330
747D
100
AcDbEntity
  8
部品1
100
AcDbLine
 10
7890.507737032731
 20
2233.335363828317
 30
0.0
 11
7928.307737032731
 21
2233.335363828317
 31
0.0
  0
LINE
  5
224D0
330
747D
100
AcDbEntity
  8
細線
 48
50.0
100
AcDbLine
 10
7870.70773703273
 20
2104.175171765015
 30
0.0
 11
7909.867929096036
 21
2143.335363828317
 31
0.0
  0
LINE
  5
224D1
330
747D
100
AcDbEntity
  8
細線
 48
50.0
100
AcDbLine
 10
7870.70773703273
 20
2077.234403401807
 30
0.0
 11
7936.80869745924
 21
2143.335363828317
 31
0.0
  0
LINE
  5
224D2
330
747D
100
AcDbEntity
  8
部品1
 48
50.0
100
AcDbLine
 10
7870.70773703273
 20
2143.335363828317
 30
0.0
 11
8284.70773703273
 21
2143.335363828317
 31
0.0
  0
TEXT
  5
224D3
330
747D
100
AcDbEntity
  8
部品1
 48
50.0
100
AcDbText
 10
7444.261640453238
 20
2473.895884928793
 30
0.0
 40
80.0
  1
※(別売)
  7
STYLE2
100
AcDbText
  0
LINE
  5
224D4
330
747D
100
AcDbEntity
  8
部品1
100
AcDbLine
 10
7887.80773703273
 20
2222.535363828317
 30
0.0
 11
7887.80773703273
 21
2230.635363828318
 31
0.0
  0
ARC
  5
224D5
330
747D
100
AcDbEntity
  8
部品1
100
AcDbCircle
 10
7890.507737032731
 20
2230.635363828318
 30
0.0
 40
2.7
100
AcDbArc
 50
90.0
 51
180.0
  0
ARC
  5
224D6
330
747D
100
AcDbEntity
  8
部品1
100
AcDbCircle
 10
7879.70773703273
 20
2217.727267531025
 30
0.0
 40
2.7
100
AcDbArc
 50
104.0362434679067
 51
180.0
  0
LINE
  5
224D7
330
747D
100
AcDbEntity
  8
部品1
100
AcDbLine
 10
7879.05289084513
 20
2220.346652281417
 30
0.0
 11
7887.80773703273
 21
2222.535363828317
 31
0.0
  0
ARC
  5
224D8
330
747D
100
AcDbEntity
  8
部品1
100
AcDbCircle
 10
7879.70773703273
 20
2155.595363828317
 30
0.0
 40
2.7
100
AcDbArc
 50
180.0
 51
270.0
  0
LINE
  5
224D9
330
747D
100
AcDbEntity
  8
細線
 48
50.0
100
AcDbLine
 10
7870.70773703273
 20
2131.115940128222
 30
0.0
 11
7882.927160732825
 21
2143.335363828317
 31
0.0
  0
LINE
  5
224DA
330
747D
100
AcDbEntity
  8
部品1
100
AcDbLine
 10
7879.70773703273
 20
2152.895363828317
 30
0.0
 11
7891.407737032725
 21
2152.895363828317
 31
0.0
  0
LINE
  5
224DB
330
747D
100
AcDbEntity
  8
部品1
100
AcDbLine
 10
7877.007737032731
 20
2155.595363828317
 30
0.0
 11
7877.007737032731
 21
2217.727267531025
 31
0.0
  0
LINE
  5
224DC
330
747D
100
AcDbEntity
  8
部品1
100
AcDbLine
 10
8035.667737032722
 20
2152.895363828317
 30
0.0
 11
8237.007737032724
 21
2152.895363828317
 31
0.0
  0
LINE
  5
224DD
330
747D
100
AcDbEntity
  8
部品1
100
AcDbLine
 10
7928.307737032731
 20
2233.335363828317
 30
0.0
 11
7928.307737032731
 21
2241.435363828317
 31
0.0
  0
LINE
  5
224DE
330
747D
100
AcDbEntity
  8
部品1
100
AcDbLine
 10
7978.707737032729
 20
2252.235363828314
 30
0.0
 11
7978.707737032729
 21
2200.935363828318
 31
0.0
  0
LINE
  5
224DF
330
747D
100
AcDbEntity
  8
部品1
100
AcDbLine
 10
8002.107737032728
 20
2212.895363828318
 30
0.0
 11
8030.267737032728
 21
2212.895363828318
 31
0.0
  0
ARC
  5
224E0
330
747D
100
AcDbEntity
  8
部品1
100
AcDbCircle
 10
8002.107737032728
 20
2210.195363828318
 30
0.0
 40
2.7
100
AcDbArc
 50
90.0
 51
180.0
  0
ARC
  5
224E1
330
747D
100
AcDbEntity
  8
部品1
100
AcDbCircle
 10
8030.267737032728
 20
2210.195363828318
 30
0.0
 40
2.7
100
AcDbArc
 50
0.0
 51
90.0
  0
LINE
  5
224E2
330
747D
100
AcDbEntity
  8
部品1
100
AcDbLine
 10
8021.00773703273
 20
2198.235363828317
 30
0.0
 11
8021.00773703273
 21
2155.595363828317
 31
0.0
  0
LINE
  5
224E3
330
747D
100
AcDbEntity
  8
部品1
100
AcDbLine
 10
8006.607737032728
 20
2152.895363828317
 30
0.0
 11
8018.30773703273
 21
2152.895363828317
 31
0.0
  0
ARC
  5
224E4
330
747D
100
AcDbEntity
  8
部品1
100
AcDbCircle
 10
8035.667737032722
 20
2155.595363828317
 30
0.0
 40
2.7
100
AcDbArc
 50
180.0
 51
270.0
  0
ARC
  5
224E5
330
747D
100
AcDbEntity
  8
部品1
100
AcDbCircle
 10
8018.30773703273
 20
2155.595363828317
 30
0.0
 40
2.7
100
AcDbArc
 50
270.0
 51
0.0
  0
LINE
  5
224E6
330
747D
100
AcDbEntity
  8
部品1
100
AcDbLine
 10
7978.707737032729
 20
2200.935363828318
 30
0.0
 11
8018.30773703273
 21
2200.935363828318
 31
0.0
  0
ARC
  5
224E7
330
747D
100
AcDbEntity
  8
部品1
100
AcDbCircle
 10
8018.30773703273
 20
2198.235363828317
 30
0.0
 40
2.7
100
AcDbArc
 50
0.0
 51
90.0
  0
LINE
  5
224E8
330
747D
100
AcDbEntity
  8
部品1
100
AcDbLine
 10
8032.967737032731
 20
2210.195363828318
 30
0.0
 11
8032.967737032725
 21
2155.595363828317
 31
0.0
  0
LINE
  5
224E9
330
747D
100
AcDbEntity
  8
部品1
100
AcDbLine
 10
7999.407737032729
 20
2210.195363828318
 30
0.0
 11
7999.407737032729
 21
2193.095363828317
 31
0.0
  0
LINE
  5
224EA
330
747D
100
AcDbEntity
  8
細線
100
AcDbLine
 10
8097.507737032731
 20
2152.895363828317
 30
0.0
 11
8097.507737032731
 21
2196.095363828317
 31
0.0
  0
LINE
  5
224EB
330
747D
100
AcDbEntity
  8
細線
100
AcDbLine
 10
8086.707737032732
 20
2152.895363828317
 30
0.0
 11
8086.70773703273
 21
2196.095363828317
 31
0.0
  0
LINE
  5
224EC
330
747D
100
AcDbEntity
  8
部品1
100
AcDbLine
 10
8083.10773703273
 20
2192.495363828318
 30
0.0
 11
8101.10773703273
 21
2192.495363828318
 31
0.0
  0
LINE
  5
224ED
330
747D
100
AcDbEntity
  8
部品1
100
AcDbLine
 10
8086.70773703273
 20
2196.095363828317
 30
0.0
 11
8097.507737032731
 21
2196.095363828317
 31
0.0
  0
ELLIPSE
  5
224EE
330
747D
100
AcDbEntity
  8
部品1
 48
50.0
100
AcDbEllipse
 10
8092.10773703273
 20
2412.45865227259
 30
0.0
 11
40.0
 21
0.0
 31
0.0
210
0.0
220
0.0
230
1.0
 40
0.4
 41
0.0
 42
6.283185307179586
  0
ELLIPSE
  5
224EF
330
747D
100
AcDbEntity
  8
部品1
 48
50.0
100
AcDbEllipse
 10
8092.10773703273
 20
2402.85865227259
 30
0.0
 11
40.0
 21
0.0
 31
0.0
210
0.0
220
0.0
230
1.0
 40
0.4
 41
3.141592653589793
 42
6.283185307179586
  0
LINE
  5
224F0
330
747D
100
AcDbEntity
  8
部品1
 48
50.0
100
AcDbLine
 10
8052.107737032729
 20
2412.45865227259
 30
0.0
 11
8052.107737032729
 21
2402.858652272589
 31
0.0
  0
ARC
  5
224F1
330
747D
100
AcDbEntity
  8
部品1
100
AcDbCircle
 10
7976.00773703273
 20
2252.235363828314
 30
0.0
 40
2.7
100
AcDbArc
 50
0.0
 51
90.0
  0
ARC
  5
224F2
330
747D
100
AcDbEntity
  8
部品1
100
AcDbCircle
 10
7933.70773703273
 20
2252.235363828317
 30
0.0
 40
2.7
100
AcDbArc
 50
90.0
 51
180.0
  0
LINE
  5
224F3
330
747D
100
AcDbEntity
  8
部品1
100
AcDbLine
 10
7931.00773703273
 20
2244.135363828317
 30
0.0
 11
7931.00773703273
 21
2244.135363828317
 31
0.0
  0
LINE
  5
224F4
330
747D
100
AcDbEntity
  8
部品1
100
AcDbLine
 10
7931.00773703273
 20
2244.135363828317
 30
0.0
 11
7931.00773703273
 21
2252.235363828317
 31
0.0
  0
LINE
  5
224F5
330
747D
100
AcDbEntity
  8
部品1
100
AcDbLine
 10
7933.70773703273
 20
2254.935363828318
 30
0.0
 11
7976.00773703273
 21
2254.935363828314
 31
0.0
  0
ARC
  5
224F6
330
747D
100
AcDbEntity
  8
部品1
100
AcDbCircle
 10
7931.00773703273
 20
2241.435363828317
 30
0.0
 40
2.7
100
AcDbArc
 50
90.0
 51
180.0
  0
ELLIPSE
  5
224F7
330
747D
100
AcDbEntity
  8
部品1
 48
50.0
100
AcDbEllipse
 10
8092.10773703273
 20
2412.45865227259
 30
0.0
 11
18.4
 21
0.0
 31
0.0
210
0.0
220
0.0
230
1.0
 40
0.3478260869565217
 41
0.0
 42
6.283185307179586
  0
LINE
  5
224F8
330
747D
100
AcDbEntity
  8
部品1
 48
50.0
100
AcDbLine
 10
8132.107737032731
 20
2402.858652272589
 30
0.0
 11
8132.107737032731
 21
2412.45865227259
 31
0.0
  0
LINE
  5
224F9
330
747D
100
AcDbEntity
  8
部品1
 48
50.0
100
AcDbLine
 10
8060.107737032728
 20
2534.21064493746
 30
0.0
 11
8076.10773703273
 21
2526.21064493746
 31
0.0
  0
LINE
  5
224FA
330
747D
100
AcDbEntity
  8
部品1
 48
50.0
100
AcDbLine
 10
8060.107737032728
 20
2502.21064493746
 30
0.0
 11
8076.10773703273
 21
2494.21064493746
 31
0.0
  0
LINE
  5
224FB
330
747D
100
AcDbEntity
  8
部品1
 48
50.0
100
AcDbLine
 10
8060.107737032728
 20
2534.21064493746
 30
0.0
 11
8076.10773703273
 21
2542.21064493746
 31
0.0
  0
LINE
  5
224FC
330
747D
100
AcDbEntity
  8
部品1
 48
50.0
100
AcDbLine
 10
8060.107737032728
 20
2502.21064493746
 30
0.0
 11
8060.107737032728
 21
2534.21064493746
 31
0.0
  0
LINE
  5
224FD
330
747D
100
AcDbEntity
  8
部品1
 48
50.0
100
AcDbLine
 10
8076.10773703273
 20
2542.21064493746
 30
0.0
 11
8108.10773703273
 21
2542.21064493746
 31
0.0
  0
ELLIPSE
  5
224FE
330
747D
100
AcDbEntity
  8
細線
 48
50.0
100
AcDbEllipse
 10
8092.10773703273
 20
2534.21064493746
 30
0.0
 11
14.76670786606846
 21
0.0
 31
0.0
210
0.0
220
0.0
230
1.0
 40
0.2071254069489396
 41
0.0
 42
6.283185307179586
  0
LINE
  5
224FF
330
747D
100
AcDbEntity
  8
部品1
 48
50.0
100
AcDbLine
 10
8076.10773703273
 20
2494.21064493746
 30
0.0
 11
8108.10773703273
 21
2494.21064493746
 31
0.0
  0
LINE
  5
22500
330
747D
100
AcDbEntity
  8
部品1
 48
50.0
100
AcDbLine
 10
8108.10773703273
 20
2494.21064493746
 30
0.0
 11
8124.107737032728
 21
2502.21064493746
 31
0.0
  0
LINE
  5
22501
330
747D
100
AcDbEntity
  8
部品1
 48
50.0
100
AcDbLine
 10
8076.10773703273
 20
2526.21064493746
 30
0.0
 11
8108.10773703273
 21
2526.21064493746
 31
0.0
  0
LINE
  5
22502
330
747D
100
AcDbEntity
  8
部品1
 48
50.0
100
AcDbLine
 10
8108.10773703273
 20
2526.21064493746
 30
0.0
 11
8124.107737032728
 21
2534.21064493746
 31
0.0
  0
LINE
  5
22503
330
747D
100
AcDbEntity
  8
細線
 48
50.0
100
AcDbLine
 10
8108.10773703273
 20
2494.21064493746
 30
0.0
 11
8108.10773703273
 21
2526.21064493746
 31
0.0
  0
LINE
  5
22504
330
747D
100
AcDbEntity
  8
部品1
 48
50.0
100
AcDbLine
 10
8124.107737032728
 20
2502.21064493746
 30
0.0
 11
8124.107737032728
 21
2534.21064493746
 31
0.0
  0
LINE
  5
22505
330
747D
100
AcDbEntity
  8
細線
 48
50.0
100
AcDbLine
 10
8076.10773703273
 20
2494.21064493746
 30
0.0
 11
8076.10773703273
 21
2526.21064493746
 31
0.0
  0
LINE
  5
22506
330
747D
100
AcDbEntity
  8
部品1
 48
50.0
100
AcDbLine
 10
8108.10773703273
 20
2542.21064493746
 30
0.0
 11
8124.107737032728
 21
2534.21064493746
 31
0.0
  0
TEXT
  5
22507
330
747D
100
AcDbEntity
  8
部品1
100
AcDbText
 10
7792.879986224659
 20
3284.755051653734
 30
0.0
 40
120.0
  1
基礎詳細
  7
STYLE2
100
AcDbText
  0
LINE
  5
22508
330
747D
100
AcDbEntity
  8
部品1
100
AcDbLine
 10
11170.98517043252
 20
500.0000140205147
 30
0.0
 11
11170.98517043253
 21
3464.306983605162
 31
0.0
  0
LINE
  5
22509
330
747D
100
AcDbEntity
  8
細線
100
AcDbLine
 10
10178.87700301227
 20
1903.335363828317
 30
0.0
 11
9984.243669335487
 21
2097.9686975051
 31
0.0
  0
LINE
  5
2250A
330
747D
100
AcDbEntity
  8
部品1
100
AcDbLine
 10
9984.243669335487
 20
2143.335363828317
 30
0.0
 11
10464.24366933548
 21
2143.335363828317
 31
0.0
  0
LINE
  5
2250B
330
747D
100
AcDbEntity
  8
細線
 48
50.0
100
AcDbLine
 10
10118.31455377874
 20
1683.636448174967
 30
0.0
 11
10152.61205040993
 21
1811.636448174966
 31
0.0
  0
LINE
  5
2250C
330
747D
100
AcDbEntity
  8
部品1
100
AcDbLine
 10
9864.243669335486
 20
1683.636448174963
 30
0.0
 11
10584.24366933548
 21
1683.636448174967
 31
0.0
  0
LINE
  5
2250D
330
747D
100
AcDbEntity
  8
部品1
100
AcDbLine
 10
9864.243669335486
 20
1811.636448174967
 30
0.0
 11
10584.24366933548
 21
1811.63644817497
 31
0.0
  0
LINE
  5
2250E
330
747D
100
AcDbEntity
  8
細線
100
AcDbLine
 10
10045.16231482873
 20
1811.636448174967
 30
0.0
 11
10136.86123048207
 21
1903.335363828317
 31
0.0
  0
LWPOLYLINE
  5
2250F
330
747D
100
AcDbEntity
  8
部品1
 48
50.0
100
AcDbPolyline
 90
        2
 70
     0
 43
12.0
 10
9599.632407235098
 20
1903.335363828317
 10
10800.72471036672
 20
1903.335363828317
  0
LINE
  5
22510
330
747D
100
AcDbEntity
  8
細線
100
AcDbLine
 10
10127.96531476684
 20
1903.335363828317
 30
0.0
 11
9984.243669335487
 21
2047.05700925967
 31
0.0
  0
TEXT
  5
22511
330
747D
100
AcDbEntity
  8
部品1
 48
50.0
100
AcDbText
 10
9220.125582576985
 20
1636.535623191008
 30
0.0
 40
80.0
  1
ボルトの出
 50
90.0
  7
STYLE2
100
AcDbText
  0
LINE
  5
22512
330
747D
100
AcDbEntity
  8
部品1
100
AcDbLine
 10
9984.243669335487
 20
1903.335363828317
 30
0.0
 11
9984.243669335487
 21
2143.335363828317
 31
0.0
  0
LINE
  5
22513
330
747D
100
AcDbEntity
  8
細線
 48
50.0
100
AcDbLine
 10
9960.538463884248
 20
1683.636448174966
 30
0.0
 11
9994.83596051543
 21
1811.636448174966
 31
0.0
  0
LINE
  5
22514
330
747D
100
AcDbEntity
  8
細線
 48
50.0
100
AcDbLine
 10
10039.42650883149
 20
1683.636448174967
 30
0.0
 11
10073.72400546268
 21
1811.636448174967
 31
0.0
  0
LINE
  5
22515
330
747D
100
AcDbEntity
  8
細線
 48
50.0
100
AcDbLine
 10
9881.650418936999
 20
1683.636448174967
 30
0.0
 11
9915.947915568184
 21
1811.636448174967
 31
0.0
  0
LINE
  5
22516
330
747D
100
AcDbEntity
  8
部品1
100
AcDbLine
 10
9864.243669335486
 20
1683.636448174963
 30
0.0
 11
9864.243669335486
 21
1903.335363828317
 31
0.0
  0
LINE
  5
22517
330
747D
100
AcDbEntity
  8
細線
 48
50.0
100
AcDbLine
 10
9966.969244502598
 20
1707.636448174967
 30
0.0
 11
9973.400025120948
 21
1683.636448174967
 31
0.0
  0
LINE
  5
22518
330
747D
100
AcDbEntity
  8
細線
 48
50.0
100
AcDbLine
 10
9888.081199555349
 20
1707.636448174967
 30
0.0
 11
9894.511980173696
 21
1683.636448174967
 31
0.0
  0
LINE
  5
22519
330
747D
100
AcDbEntity
  8
細線
 48
50.0
100
AcDbLine
 10
10045.85728944985
 20
1707.636448174967
 30
0.0
 11
10052.28807006819
 21
1683.636448174967
 31
0.0
  0
LINE
  5
2251A
330
747D
100
AcDbEntity
  8
細線
 48
50.0
100
AcDbLine
 10
10124.74533439709
 20
1707.636448174967
 30
0.0
 11
10131.17611501544
 21
1683.636448174967
 31
0.0
  0
LINE
  5
2251B
330
747D
100
AcDbEntity
  8
細線
 48
50.0
100
AcDbLine
 10
9909.517134949838
 20
1787.636448174967
 30
0.0
 11
9903.086354331488
 21
1811.636448174967
 31
0.0
  0
LINE
  5
2251C
330
747D
100
AcDbEntity
  8
細線
 48
50.0
100
AcDbLine
 10
10067.29322484434
 20
1787.636448174967
 30
0.0
 11
10060.86244422599
 21
1811.636448174967
 31
0.0
  0
LINE
  5
2251D
330
747D
100
AcDbEntity
  8
細線
 48
50.0
100
AcDbLine
 10
9988.405179897087
 20
1787.636448174967
 30
0.0
 11
9981.97439927874
 21
1811.636448174967
 31
0.0
  0
LINE
  5
2251E
330
747D
100
AcDbEntity
  8
細線
100
AcDbLine
 10
9977.280063834816
 20
1811.636448174967
 30
0.0
 11
10068.97897948816
 21
1903.335363828317
 31
0.0
  0
LINE
  5
2251F
330
747D
100
AcDbEntity
  8
細線
100
AcDbLine
 10
10011.22118933177
 20
1811.636448174967
 30
0.0
 11
10102.92010498512
 21
1903.335363828317
 31
0.0
  0
LINE
  5
22520
330
747D
100
AcDbEntity
  8
細線
100
AcDbLine
 10
10399.49431874247
 20
1903.335363828317
 30
0.0
 11
10159.49431874247
 21
2143.335363828317
 31
0.0
  0
LINE
  5
22521
330
747D
100
AcDbEntity
  8
細線
100
AcDbLine
 10
10450.4060069879
 20
1903.335363828318
 30
0.0
 11
10210.40600698791
 21
2143.335363828317
 31
0.0
  0
LINE
  5
22522
330
747D
100
AcDbEntity
  8
部品1
100
AcDbLine
 10
10464.24366933548
 20
2143.335363828317
 30
0.0
 11
10464.24366933548
 21
1903.335363828317
 31
0.0
  0
LINE
  5
22523
330
747D
100
AcDbEntity
  8
細線
 48
50.0
100
AcDbLine
 10
10433.86673356773
 20
1683.636448174964
 30
0.0
 11
10468.16423019892
 21
1811.636448174964
 31
0.0
  0
LINE
  5
22524
330
747D
100
AcDbEntity
  8
細線
100
AcDbLine
 10
10405.16231482873
 20
1811.636448174969
 30
0.0
 11
10496.86123048207
 21
1903.335363828317
 31
0.0
  0
LINE
  5
22525
330
747D
100
AcDbEntity
  8
細線
 48
50.0
100
AcDbLine
 10
10354.97868862048
 20
1683.636448174966
 30
0.0
 11
10389.27618525166
 21
1811.636448174967
 31
0.0
  0
LINE
  5
22526
330
747D
100
AcDbEntity
  8
細線
 48
50.0
100
AcDbLine
 10
10197.20259872599
 20
1683.636448174966
 30
0.0
 11
10231.50009535717
 21
1811.636448174966
 31
0.0
  0
LINE
  5
22527
330
747D
100
AcDbEntity
  8
細線
 48
50.0
100
AcDbLine
 10
10276.09064367323
 20
1683.636448174967
 30
0.0
 11
10310.38814030442
 21
1811.636448174966
 31
0.0
  0
LINE
  5
22528
330
747D
100
AcDbEntity
  8
細線
 48
50.0
100
AcDbLine
 10
10282.52142429159
 20
1707.636448174967
 30
0.0
 11
10288.95220490993
 21
1683.636448174967
 31
0.0
  0
LINE
  5
22529
330
747D
100
AcDbEntity
  8
細線
 48
50.0
100
AcDbLine
 10
10203.63337934434
 20
1707.636448174967
 30
0.0
 11
10210.06415996269
 21
1683.636448174967
 31
0.0
  0
LINE
  5
2252A
330
747D
100
AcDbEntity
  8
細線
 48
50.0
100
AcDbLine
 10
10361.40946923883
 20
1707.636448174967
 30
0.0
 11
10367.84024985719
 21
1683.636448174967
 31
0.0
  0
LINE
  5
2252B
330
747D
100
AcDbEntity
  8
細線
 48
50.0
100
AcDbLine
 10
10440.29751418608
 20
1707.636448174966
 30
0.0
 11
10446.72829480443
 21
1683.636448174966
 31
0.0
  0
LINE
  5
2252C
330
747D
100
AcDbEntity
  8
細線
 48
50.0
100
AcDbLine
 10
10303.95735968608
 20
1787.636448174967
 30
0.0
 11
10297.52657906773
 21
1811.636448174967
 31
0.0
  0
LINE
  5
2252D
330
747D
100
AcDbEntity
  8
細線
 48
50.0
100
AcDbLine
 10
10225.06931473883
 20
1787.636448174967
 30
0.0
 11
10218.63853412048
 21
1811.636448174967
 31
0.0
  0
LINE
  5
2252E
330
747D
100
AcDbEntity
  8
細線
 48
50.0
100
AcDbLine
 10
10146.18126979158
 20
1787.636448174967
 30
0.0
 11
10139.75048917324
 21
1811.636448174967
 31
0.0
  0
LINE
  5
2252F
330
747D
100
AcDbEntity
  8
細線
100
AcDbLine
 10
10371.22118933177
 20
1811.636448174969
 30
0.0
 11
10462.92010498512
 21
1903.335363828317
 31
0.0
  0
LINE
  5
22530
330
747D
100
AcDbEntity
  8
細線
 48
50.0
100
AcDbLine
 10
10382.84540463332
 20
1787.636448174967
 30
0.0
 11
10376.41462401497
 21
1811.636448174967
 31
0.0
  0
LINE
  5
22531
330
747D
100
AcDbEntity
  8
細線
100
AcDbLine
 10
10337.28006383482
 20
1811.636448174969
 30
0.0
 11
10428.97897948816
 21
1903.335363828317
 31
0.0
  0
LINE
  5
22532
330
747D
100
AcDbEntity
  8
細線
 48
50.0
100
AcDbLine
 10
10461.73344958057
 20
1787.636448174966
 30
0.0
 11
10455.30266896222
 21
1811.636448174966
 31
0.0
  0
LINE
  5
22533
330
747D
100
AcDbEntity
  8
細線
 48
50.0
100
AcDbLine
 10
10512.75477851498
 20
1683.636448174966
 30
0.0
 11
10547.05227514616
 21
1811.636448174964
 31
0.0
  0
LINE
  5
22534
330
747D
100
AcDbEntity
  8
部品1
100
AcDbLine
 10
10584.24366933548
 20
1903.335363828317
 30
0.0
 11
10584.24366933549
 21
1683.636448174967
 31
0.0
  0
LINE
  5
22535
330
747D
100
AcDbEntity
  8
細線
 48
50.0
100
AcDbLine
 10
10519.18555913333
 20
1707.636448174966
 30
0.0
 11
10525.61633975168
 21
1683.636448174966
 31
0.0
  0
LINE
  5
22536
330
747D
100
AcDbEntity
  8
細線
 48
50.0
100
AcDbLine
 10
10540.62149452782
 20
1787.636448174966
 30
0.0
 11
10534.19071390947
 21
1811.636448174966
 31
0.0
  0
LEADER
  5
22537
330
747D
100
AcDbEntity
  8
寸法
 48
50.0
100
AcDbLeader
  3
INABA_S50G
 73
     0
 74
     0
 75
     1
 40
120.0
 41
185.591883092037
 76
     3
 10
10394.96808095141
 20
2143.335363828317
 30
0.0
 10
10428.10628758505
 20
2315.481684509455
 30
0.0
 10
10553.10628758505
 20
2315.481684509455
 30
0.0
340
22538
1001
ACAD
1000
DSTYLE
1002
{
1070
    40
1040
1.0
1002
}
  0
MTEXT
  5
22538
102
{ACAD_REACTORS
330
22537
102
}
330
747D
100
AcDbEntity
  8
寸法
 62
     7
 48
50.0
100
AcDbMText
 10
10578.10628758505
 20
2400.481684509455
 30
0.0
 40
120.0
 41
0.8
 71
     4
 72
     1
  1
\A1;C.B
  7
STYLE1
 73
     1
 44
1.0
1001
ACAD
1000
MTEXTBEGIN
1070
    73
1070
     1
1070
    44
1040
1.0
1070
    74
1070
     0
1000
MTEXTEND
  0
ENDSEC
  0
SECTION
  2
OBJECTS
  0
DICTIONARY
  5
7471
330
0
100
AcDbDictionary
281
     1
  3
ACAD_COLOR
350
173D2
  3
ACAD_GROUP
350
7472
  3
ACAD_LAYOUT
350
173D3
  3
ACAD_MATERIAL
350
173D1
  3
ACAD_MLINESTYLE
350
7473
  3
ACAD_PLOTSETTINGS
350
173D4
  3
ACAD_PLOTSTYLENAME
350
173CF
  3
ACDBHEADERROUNDTRIPXREC
350
225DA
  3
AcDbVariableDictionary
350
225D6
  3
CONTENTDICTIONARY
350
E71C
  3
DRAWINGVARIABLESDICT
350
F3B9
  0
DICTIONARY
  5
1758F
330
7467
100
AcDbDictionary
280
     1
281
     1
  3
ACAD_LAYERSTATES
360
17590
  0
DICTIONARY
  5
173D2
102
{ACAD_REACTORS
330
7471
102
}
330
7471
100
AcDbDictionary
281
     1
  0
DICTIONARY
  5
7472
102
{ACAD_REACTORS
330
7471
102
}
330
7471
100
AcDbDictionary
281
     1
  3
*A1
350
1D2A9
  0
DICTIONARY
  5
173D3
102
{ACAD_REACTORS
330
7471
102
}
330
7471
100
AcDbDictionary
281
     1
  3
Model
350
173D5
  3
レイアウト1
350
173D6
  0
DICTIONARY
  5
173D1
102
{ACAD_REACTORS
330
7471
102
}
330
7471
100
AcDbDictionary
281
     1
  0
DICTIONARY
  5
7473
102
{ACAD_REACTORS
330
7471
102
}
330
7471
100
AcDbDictionary
281
     1
  3
STANDARD
350
7480
  0
DICTIONARY
  5
173D4
102
{ACAD_REACTORS
330
7471
102
}
330
7471
100
AcDbDictionary
281
     1
  0
ACDBDICTIONARYWDFLT
  5
173CF
102
{ACAD_REACTORS
330
7471
102
}
330
7471
100
AcDbDictionary
281
     1
  3
Normal
350
173D0
100
AcDbDictionaryWithDefault
340
173D0
  0
DICTIONARY
  5
225DA
102
{ACAD_REACTORS
330
7471
102
}
330
7471
100
AcDbDictionary
281
     1
  3
COLORDICT
350
225DC
  3
MATERIALDICT
350
225DB
  0
DICTIONARY
  5
225D6
102
{ACAD_REACTORS
330
7471
102
}
330
7471
100
AcDbDictionary
281
     1
  3
DIMASSOC
350
225D7
  3
PROJECTNAME
350
225D8
  0
DICTIONARY
  5
E71C
102
{ACAD_REACTORS
330
7471
102
}
330
7471
100
AcDbDictionary
281
     1
  0
DICTIONARY
  5
F3B9
102
{ACAD_REACTORS
330
7471
102
}
330
7471
100
AcDbDictionary
281
     1
1001
DRAWINGVARIABLESXDATA
1000
POLARMODE
1000
1
  0
DICTIONARY
  5
17590
102
{ACAD_REACTORS
330
1758F
102
}
330
1758F
100
AcDbDictionary
281
     1
  0
GROUP
  5
1D2A9
102
{ACAD_REACTORS
330
7472
102
}
330
7472
100
AcDbGroup
300

 70
     1
 71
     1
  0
LAYOUT
  5
173D5
102
{ACAD_XDICTIONARY
360
225DD
102
}
102
{ACAD_REACTORS
330
173D3
102
}
330
173D3
100
AcDbPlotSettings
  1

  2
Microsoft Office Document Image Writer
  4

  6

 40
0.0
 41
0.0
 42
0.0
 43
0.0
 44
0.0
 45
0.0
 46
0.0
 47
0.0
 48
0.0
 49
0.0
140
0.0
141
0.0
142
1.0
143
1.0
 70
  1712
 72
     0
 73
     0
 74
     0
  7

 75
     0
147
1.0
148
0.0
149
0.0
100
AcDbLayout
  1
Model
 70
     1
 71
     0
 10
0.0
 20
0.0
 11
12.0
 21
9.0
 12
0.0
 22
0.0
 32
0.0
 14
0.0
 24
0.0
 34
0.0
 15
0.0
 25
0.0
 35
0.0
146
0.0
 13
0.0
 23
0.0
 33
0.0
 16
1.0
 26
0.0
 36
0.0
 17
0.0
 27
1.0
 37
0.0
 76
     0
330
747D
  0
LAYOUT
  5
173D6
102
{ACAD_XDICTIONARY
360
225DF
102
}
102
{ACAD_REACTORS
330
173D3
102
}
330
173D3
100
AcDbPlotSettings
  1

  2
Microsoft Office Document Image Writer
  4

  6

 40
0.0
 41
0.0
 42
0.0
 43
0.0
 44
0.0
 45
0.0
 46
0.0
 47
0.0
 48
0.0
 49
0.0
140
0.0
141
0.0
142
1.0
143
1.0
 70
   688
 72
     0
 73
     0
 74
     5
  7

 75
    16
147
1.0
148
0.0
149
0.0
100
AcDbLayout
  1
レイアウト1
 70
     0
 71
     1
 10
0.0
 20
0.0
 11
420.0
 21
297.0
 12
0.0
 22
0.0
 32
0.0
 14
1.000000000000000E+20
 24
1.000000000000000E+20
 34
1.000000000000000E+20
 15
-1.000000000000000E+20
 25
-1.000000000000000E+20
 35
-1.000000000000000E+20
146
0.0
 13
0.0
 23
0.0
 33
0.0
 16
1.0
 26
0.0
 36
0.0
 17
0.0
 27
1.0
 37
0.0
 76
     0
330
747A
  0
MLINESTYLE
  5
7480
102
{ACAD_REACTORS
330
7473
102
}
330
7473
100
AcDbMlineStyle
  2
STANDARD
 70
     0
  3

 62
     0
 51
90.0
 52
90.0
 71
     2
 49
0.5
 62
   256
  6
BYLAYER
 49
-0.5
 62
   256
  6
BYLAYER
  0
ACDBPLACEHOLDER
  5
173D0
102
{ACAD_REACTORS
330
173CF
102
}
330
173CF
  0
XRECORD
  5
225DC
102
{ACAD_REACTORS
330
225DA
102
}
330
225DA
100
AcDbXrecord
280
     1
340
173D2
  0
XRECORD
  5
225DB
102
{ACAD_REACTORS
330
225DA
102
}
330
225DA
100
AcDbXrecord
280
     1
340
173D1
  0
DICTIONARYVAR
  5
225D7
102
{ACAD_REACTORS
330
225D6
102
}
330
225D6
100
DictionaryVariables
280
     0
  1
1
  0
DICTIONARYVAR
  5
225D8
102
{ACAD_REACTORS
330
225D6
102
}
330
225D6
100
DictionaryVariables
280
     0
  1

  0
DICTIONARY
  5
225DD
330
173D5
100
AcDbDictionary
280
     1
281
     1
  3
ACAD_XREC_ROUNDTRIP
360
225DE
  0
DICTIONARY
  5
225DF
330
173D6
100
AcDbDictionary
280
     1
281
     1
  3
ACAD_XREC_ROUNDTRIP
360
225E0
  0
XRECORD
  5
225DE
102
{ACAD_REACTORS
330
225DD
102
}
330
225DD
100
AcDbXrecord
280
     1
102
SHADEPLOT
 70
     0
102
SHADEPLOTRESLEVEL
 70
     2
102
SHADEPLOTCUSTOMDPI
 70
   300
  0
XRECORD
  5
225E0
102
{ACAD_REACTORS
330
225DF
102
}
330
225DF
100
AcDbXrecord
280
     1
102
SHADEPLOT
 70
     0
102
SHADEPLOTRESLEVEL
 70
     2
102
SHADEPLOTCUSTOMDPI
 70
   300
  0
ENDSEC
  0
EOF
