  0
SECTION
  2
HEADER
  9
$ACADVER
  1
AC1015
  9
$ACADMAINTVER
 70
    20
  9
$DWGCODEPAGE
  3
ANSI_932
  9
$INSBASE
 10
0.0
 20
0.0
 30
0.0
  9
$EXTMIN
 10
139.9999999999995
 20
-0.0000000000000909
 30
0.0
  9
$EXTMAX
 10
16307.2
 20
11409.6
 30
0.0
  9
$LIMMIN
 10
0.0
 20
0.0
  9
$LIMMAX
 10
16800.0
 20
11880.0
  9
$ORTHOMODE
 70
     0
  9
$REGENMODE
 70
     1
  9
$FILLMODE
 70
     1
  9
$QTEXTMODE
 70
     0
  9
$MIRRTEXT
 70
     1
  9
$LTSCALE
 40
20.0
  9
$ATTMODE
 70
     1
  9
$TEXTSIZE
 40
100.0
  9
$TRACEWID
 40
1.0
  9
$TEXTSTYLE
  7
STYLE2
  9
$CLAYER
  8
寸法
  9
$CELTYPE
  6
BYLAYER
  9
$CECOLOR
 62
   256
  9
$CELTSCALE
 40
50.0
  9
$DISPSILH
 70
     0
  9
$DIMSCALE
 40
40.0
  9
$DIMASZ
 40
2.5
  9
$DIMEXO
 40
0.5
  9
$DIMDLI
 40
7.0
  9
$DIMRND
 40
0.0
  9
$DIMDLE
 40
0.0
  9
$DIMEXE
 40
1.5
  9
$DIMTP
 40
0.0
  9
$DIMTM
 40
0.0
  9
$DIMTXT
 40
3.0
  9
$DIMCEN
 40
0.0
  9
$DIMTSZ
 40
0.0
  9
$DIMTOL
 70
     0
  9
$DIMLIM
 70
     0
  9
$DIMTIH
 70
     0
  9
$DIMTOH
 70
     0
  9
$DIMSE1
 70
     0
  9
$DIMSE2
 70
     0
  9
$DIMTAD
 70
     3
  9
$DIMZIN
 70
     8
  9
$DIMBLK
  1

  9
$DIMASO
 70
     1
  9
$DIMSHO
 70
     1
  9
$DIMPOST
  1

  9
$DIMAPOST
  1

  9
$DIMALT
 70
     0
  9
$DIMALTD
 70
     2
  9
$DIMALTF
 40
0.0394
  9
$DIMLFAC
 40
1.0
  9
$DIMTOFL
 70
     1
  9
$DIMTVP
 40
0.0
  9
$DIMTIX
 70
     0
  9
$DIMSOXD
 70
     0
  9
$DIMSAH
 70
     1
  9
$DIMBLK1
  1
DOTSMALL
  9
$DIMBLK2
  1
DOTSMALL
  9
$DIMSTYLE
  2
INABA_S40G
  9
$DIMCLRD
 70
     0
  9
$DIMCLRE
 70
     0
  9
$DIMCLRT
 70
     7
  9
$DIMTFAC
 40
1.0
  9
$DIMGAP
 40
1.0
  9
$DIMJUST
 70
     0
  9
$DIMSD1
 70
     0
  9
$DIMSD2
 70
     0
  9
$DIMTOLJ
 70
     1
  9
$DIMTZIN
 70
     0
  9
$DIMALTZ
 70
     0
  9
$DIMALTTZ
 70
     0
  9
$DIMUPT
 70
     0
  9
$DIMDEC
 70
     1
  9
$DIMTDEC
 70
     1
  9
$DIMALTU
 70
     2
  9
$DIMALTTD
 70
     2
  9
$DIMTXSTY
  7
STYLE1
  9
$DIMAUNIT
 70
     0
  9
$DIMADEC
 70
     0
  9
$DIMALTRND
 40
0.0
  9
$DIMAZIN
 70
     0
  9
$DIMDSEP
 70
    46
  9
$DIMATFIT
 70
     3
  9
$DIMFRAC
 70
     0
  9
$DIMLDRBLK
  1

  9
$DIMLUNIT
 70
     2
  9
$DIMLWD
 70
    -2
  9
$DIMLWE
 70
    -2
  9
$DIMTMOVE
 70
     0
  9
$LUNITS
 70
     2
  9
$LUPREC
 70
     1
  9
$SKETCHINC
 40
1.0
  9
$FILLETRAD
 40
0.0
  9
$AUNITS
 70
     0
  9
$AUPREC
 70
     0
  9
$MENU
  1
acad
  9
$ELEVATION
 40
0.0
  9
$PELEVATION
 40
0.0
  9
$THICKNESS
 40
0.0
  9
$LIMCHECK
 70
     0
  9
$CHAMFERA
 40
3.0
  9
$CHAMFERB
 40
3.0
  9
$CHAMFERC
 40
0.0
  9
$CHAMFERD
 40
0.0
  9
$SKPOLY
 70
     0
  9
$TDCREATE
 40
2451368.612993866
  9
$TDUCREATE
 40
2451368.237993866
  9
$TDUPDATE
 40
2455575.709359086
  9
$TDUUPDATE
 40
2455575.334359086
  9
$TDINDWG
 40
1.4447120949
  9
$TDUSRTIMER
 40
1.4447120949
  9
$USRTIMER
 70
     1
  9
$ANGBASE
 50
0.0
  9
$ANGDIR
 70
     0
  9
$PDMODE
 70
     3
  9
$PDSIZE
 40
2.0
  9
$PLINEWID
 40
0.0
  9
$SPLFRAME
 70
     0
  9
$SPLINETYPE
 70
     6
  9
$SPLINESEGS
 70
     8
  9
$HANDSEED
  5
205D2
  9
$SURFTAB1
 70
     6
  9
$SURFTAB2
 70
     6
  9
$SURFTYPE
 70
     6
  9
$SURFU
 70
     6
  9
$SURFV
 70
     6
  9
$UCSBASE
  2

  9
$UCSNAME
  2

  9
$UCSORG
 10
0.0
 20
0.0
 30
0.0
  9
$UCSXDIR
 10
1.0
 20
0.0
 30
0.0
  9
$UCSYDIR
 10
0.0
 20
1.0
 30
0.0
  9
$UCSORTHOREF
  2

  9
$UCSORTHOVIEW
 70
     0
  9
$UCSORGTOP
 10
0.0
 20
0.0
 30
0.0
  9
$UCSORGBOTTOM
 10
0.0
 20
0.0
 30
0.0
  9
$UCSORGLEFT
 10
0.0
 20
0.0
 30
0.0
  9
$UCSORGRIGHT
 10
0.0
 20
0.0
 30
0.0
  9
$UCSORGFRONT
 10
0.0
 20
0.0
 30
0.0
  9
$UCSORGBACK
 10
0.0
 20
0.0
 30
0.0
  9
$PUCSBASE
  2

  9
$PUCSNAME
  2

  9
$PUCSORG
 10
0.0
 20
0.0
 30
0.0
  9
$PUCSXDIR
 10
1.0
 20
0.0
 30
0.0
  9
$PUCSYDIR
 10
0.0
 20
1.0
 30
0.0
  9
$PUCSORTHOREF
  2

  9
$PUCSORTHOVIEW
 70
     0
  9
$PUCSORGTOP
 10
0.0
 20
0.0
 30
0.0
  9
$PUCSORGBOTTOM
 10
0.0
 20
0.0
 30
0.0
  9
$PUCSORGLEFT
 10
0.0
 20
0.0
 30
0.0
  9
$PUCSORGRIGHT
 10
0.0
 20
0.0
 30
0.0
  9
$PUCSORGFRONT
 10
0.0
 20
0.0
 30
0.0
  9
$PUCSORGBACK
 10
0.0
 20
0.0
 30
0.0
  9
$USERI1
 70
     0
  9
$USERI2
 70
     0
  9
$USERI3
 70
     0
  9
$USERI4
 70
     0
  9
$USERI5
 70
     0
  9
$USERR1
 40
0.0
  9
$USERR2
 40
0.0
  9
$USERR3
 40
0.0
  9
$USERR4
 40
0.0
  9
$USERR5
 40
0.0
  9
$WORLDVIEW
 70
     1
  9
$SHADEDGE
 70
     3
  9
$SHADEDIF
 70
    70
  9
$TILEMODE
 70
     1
  9
$MAXACTVP
 70
    16
  9
$PINSBASE
 10
0.0
 20
0.0
 30
0.0
  9
$PLIMCHECK
 70
     0
  9
$PEXTMIN
 10
1.000000000000000E+20
 20
1.000000000000000E+20
 30
1.000000000000000E+20
  9
$PEXTMAX
 10
-1.000000000000000E+20
 20
-1.000000000000000E+20
 30
-1.000000000000000E+20
  9
$PLIMMIN
 10
0.0
 20
0.0
  9
$PLIMMAX
 10
420.0
 20
297.0
  9
$UNITMODE
 70
     0
  9
$VISRETAIN
 70
     0
  9
$PLINEGEN
 70
     0
  9
$PSLTSCALE
 70
     0
  9
$TREEDEPTH
 70
  3020
  9
$CMLSTYLE
  2
STANDARD
  9
$CMLJUST
 70
     0
  9
$CMLSCALE
 40
1.0
  9
$PROXYGRAPHICS
 70
     1
  9
$MEASUREMENT
 70
     1
  9
$CELWEIGHT
370
    -1
  9
$ENDCAPS
280
     0
  9
$JOINSTYLE
280
     0
  9
$LWDISPLAY
290
     0
  9
$INSUNITS
 70
     0
  9
$HYPERLINKBASE
  1

  9
$STYLESHEET
  1
inaba.ctb
  9
$XEDIT
290
     1
  9
$CEPSNTYPE
380
     0
  9
$PSTYLEMODE
290
     1
  9
$FINGERPRINTGUID
  2
{3B57B35E-7D77-4BBF-81B7-6C583B9EB24C}
  9
$VERSIONGUID
  2
{CB8D94E1-86B0-47AB-9642-E256071E3D6C}
  9
$EXTNAMES
290
     1
  9
$PSVPSCALE
 40
0.0
  9
$OLESTARTUP
290
     0
  0
ENDSEC
  0
SECTION
  2
CLASSES
  0
CLASS
  1
ACDBDICTIONARYWDFLT
  2
AcDbDictionaryWithDefault
  3
ObjectDBX Classes
 90
        0
280
     0
281
     0
  0
CLASS
  1
DICTIONARYVAR
  2
AcDbDictionaryVar
  3
ObjectDBX Classes
 90
        0
280
     0
281
     0
  0
CLASS
  1
ACDBPLACEHOLDER
  2
AcDbPlaceHolder
  3
ObjectDBX Classes
 90
        0
280
     0
281
     0
  0
CLASS
  1
LAYOUT
  2
AcDbLayout
  3
ObjectDBX Classes
 90
        0
280
     0
281
     0
  0
ENDSEC
  0
SECTION
  2
TABLES
  0
TABLE
  2
VPORT
  5
746D
330
0
100
AcDbSymbolTable
 70
     2
  0
VPORT
  5
205CA
330
746D
100
AcDbSymbolTableRecord
100
AcDbViewportTableRecord
  2
*Active
 70
     0
 10
0.0
 20
0.0
 11
1.0
 21
1.0
 12
8223.761025238502
 22
6621.405356864127
 13
0.0
 23
0.0
 14
10.0
 24
10.0
 15
10.0
 25
10.0
 16
0.0
 26
0.0
 36
1.0
 17
0.0
 27
0.0
 37
0.0
 40
13358.15368360686
 41
1.525925925925925
 42
50.0
 43
0.0
 44
0.0
 50
0.0
 51
0.0
 71
     0
 72
     0
 73
     1
 74
     0
 75
     0
 76
     0
 77
     0
 78
     0
281
     0
 65
     1
110
0.0
120
0.0
130
0.0
111
1.0
121
0.0
131
0.0
112
0.0
122
1.0
132
0.0
 79
     0
146
0.0
  0
ENDTAB
  0
TABLE
  2
LTYPE
  5
746A
330
0
100
AcDbSymbolTable
 70
     4
  0
LTYPE
  5
7477
330
746A
100
AcDbSymbolTableRecord
100
AcDbLinetypeTableRecord
  2
BYBLOCK
 70
     0
  3

 72
    65
 73
     0
 40
0.0
  0
LTYPE
  5
7478
330
746A
100
AcDbSymbolTableRecord
100
AcDbLinetypeTableRecord
  2
BYLAYER
 70
     0
  3

 72
    65
 73
     0
 40
0.0
  0
LTYPE
  5
7479
330
746A
100
AcDbSymbolTableRecord
100
AcDbLinetypeTableRecord
  2
CONTINUOUS
 70
     0
  3
Solid line
 72
    65
 73
     0
 40
0.0
  0
LTYPE
  5
7816
330
746A
100
AcDbSymbolTableRecord
100
AcDbLinetypeTableRecord
  2
CENTER
 70
     0
  3
____ _ ____ _ ____ _ ____ _ ____ _ ____ _ ____ 
 72
    65
 73
     4
 40
2.0
 49
1.25
 74
     0
 49
-0.25
 74
     0
 49
0.25
 74
     0
 49
-0.25
 74
     0
  0
LTYPE
  5
781A
330
746A
100
AcDbSymbolTableRecord
100
AcDbLinetypeTableRecord
  2
HIDDEN
 70
     0
  3
__ __ __ __ __ __ __ __ __ __ __ __ __ __ __ __
 72
    65
 73
     2
 40
0.375
 49
0.25
 74
     0
 49
-0.125
 74
     0
  0
LTYPE
  5
781B
330
746A
100
AcDbSymbolTableRecord
100
AcDbLinetypeTableRecord
  2
PHANTOM
 70
     0
  3
______  __  __  ______  __  __  ______  __  __ 
 72
    65
 73
     6
 40
2.5
 49
1.25
 74
     0
 49
-0.25
 74
     0
 49
0.25
 74
     0
 49
-0.25
 74
     0
 49
0.25
 74
     0
 49
-0.25
 74
     0
  0
ENDTAB
  0
TABLE
  2
LAYER
  5
7467
102
{ACAD_XDICTIONARY
360
1E67E
102
}
330
0
100
AcDbSymbolTable
 70
    13
  0
LAYER
  5
7474
330
7467
100
AcDbSymbolTableRecord
100
AcDbLayerTableRecord
  2
0
 70
     0
 62
     7
  6
CONTINUOUS
370
    -3
390
159AE
  0
LAYER
  5
DEB2
330
7467
100
AcDbSymbolTableRecord
100
AcDbLayerTableRecord
  2
センター
 70
     0
 62
     3
  6
CENTER
370
    -3
390
159AE
  0
LAYER
  5
DEB3
330
7467
100
AcDbSymbolTableRecord
100
AcDbLayerTableRecord
  2
寸法
 70
     0
 62
     4
  6
CONTINUOUS
370
    -3
390
159AE
  0
LAYER
  5
DEB4
330
7467
100
AcDbSymbolTableRecord
100
AcDbLayerTableRecord
  2
部品1
 70
     0
 62
     7
  6
CONTINUOUS
370
    -3
390
159AE
  0
LAYER
  5
DEB5
330
7467
100
AcDbSymbolTableRecord
100
AcDbLayerTableRecord
  2
補助
 70
     0
 62
    -1
  6
CONTINUOUS
370
    -3
390
159AE
  0
LAYER
  5
DEB6
330
7467
100
AcDbSymbolTableRecord
100
AcDbLayerTableRecord
  2
文字
 70
     0
 62
     7
  6
CONTINUOUS
370
    -3
390
159AE
  0
LAYER
  5
F255
330
7467
100
AcDbSymbolTableRecord
100
AcDbLayerTableRecord
  2
DEFPOINTS
 70
     0
 62
     7
  6
CONTINUOUS
290
     0
370
    -3
390
159AE
  0
LAYER
  5
10B54
330
7467
100
AcDbSymbolTableRecord
100
AcDbLayerTableRecord
  2
仕様書枠
 70
     0
 62
   230
  6
CONTINUOUS
370
    -3
390
159AE
  0
LAYER
  5
11729
330
7467
100
AcDbSymbolTableRecord
100
AcDbLayerTableRecord
  2
Ｇ．Ｌ
 70
     0
 62
    30
  6
CONTINUOUS
370
    -3
390
159AE
  0
LAYER
  5
1173F
330
7467
100
AcDbSymbolTableRecord
100
AcDbLayerTableRecord
  2
細線
 70
     0
 62
     5
  6
CONTINUOUS
370
    -3
390
159AE
  0
LAYER
  5
12CC4
330
7467
100
AcDbSymbolTableRecord
100
AcDbLayerTableRecord
  2
想像線
 70
     0
 62
     6
  6
PHANTOM
370
    -3
390
159AE
  0
LAYER
  5
142E2
330
7467
100
AcDbSymbolTableRecord
100
AcDbLayerTableRecord
  2
破線
 70
     0
 62
     2
  6
HIDDEN
370
    -3
390
159AE
  0
LAYER
  5
1C644
330
7467
100
AcDbSymbolTableRecord
100
AcDbLayerTableRecord
  2
点線
 70
     0
 62
     2
  6
HIDDEN
370
    -3
390
159AE
  0
ENDTAB
  0
TABLE
  2
STYLE
  5
7468
330
0
100
AcDbSymbolTable
 70
     3
  0
STYLE
  5
7475
330
7468
100
AcDbSymbolTableRecord
100
AcDbTextStyleTableRecord
  2
STANDARD
 70
     0
 40
0.0
 41
1.0
 50
0.0
 71
     0
 42
4.0
  3
txt
  4
C:\AutoCAD LT\bigfont.shx
  0
STYLE
  5
F706
330
7468
100
AcDbSymbolTableRecord
100
AcDbTextStyleTableRecord
  2
STYLE1
 70
     0
 40
0.0
 41
1.0
 50
0.0
 71
     0
 42
100.0
  3
isocp.shx
  4
bigfont.shx
  0
STYLE
  5
103BF
330
7468
100
AcDbSymbolTableRecord
100
AcDbTextStyleTableRecord
  2
STYLE2
 70
     0
 40
0.0
 41
1.0
 50
0.0
 71
     0
 42
100.0
  3
MS PGothic.ttf
  4

1001
ACAD
1000
MS PGothic
1071
    32818
  0
ENDTAB
  0
TABLE
  2
VIEW
  5
746B
330
0
100
AcDbSymbolTable
 70
     0
  0
ENDTAB
  0
TABLE
  2
UCS
  5
746C
330
0
100
AcDbSymbolTable
 70
     0
  0
ENDTAB
  0
TABLE
  2
APPID
  5
746E
330
0
100
AcDbSymbolTable
 70
     6
  0
APPID
  5
7476
330
746E
100
AcDbSymbolTableRecord
100
AcDbRegAppTableRecord
  2
ACAD
 70
     0
  0
APPID
  5
DEA9
330
746E
100
AcDbSymbolTableRecord
100
AcDbRegAppTableRecord
  2
CONTENTBLOCKICON
 70
     0
  0
APPID
  5
DEAA
330
746E
100
AcDbSymbolTableRecord
100
AcDbRegAppTableRecord
  2
CONTENTBLOCKDESCRIPTION
 70
     0
  0
APPID
  5
E71D
330
746E
100
AcDbSymbolTableRecord
100
AcDbRegAppTableRecord
  2
CONTENTTABDATA
 70
     0
  0
APPID
  5
E71E
330
746E
100
AcDbSymbolTableRecord
100
AcDbRegAppTableRecord
  2
CONTENTCURRENTTAB
 70
     0
  0
APPID
  5
F3BA
330
746E
100
AcDbSymbolTableRecord
100
AcDbRegAppTableRecord
  2
DRAWINGVARIABLESXDATA
 70
     0
  0
ENDTAB
  0
TABLE
  2
DIMSTYLE
  5
746F
330
0
100
AcDbSymbolTable
 70
     2
100
AcDbDimStyleTable
 71
     1
340
F71F
  0
DIMSTYLE
105
F71F
102
{ACAD_REACTORS
330
1F71E
330
1F71F
330
1F720
330
1F730
330
1F739
330
1F743
330
1F744
330
1F745
330
1F748
330
1F702
330
1F98A
330
1F98B
330
2038E
330
203F0
330
20458
330
204B5
102
}
330
746F
100
AcDbSymbolTableRecord
100
AcDbDimStyleTableRecord
  2
INABA_S40G
 70
     0
 40
40.0
 41
2.5
 42
0.5
 43
7.0
 44
1.5
 73
     0
 74
     0
 77
     3
 78
     8
140
3.0
141
0.0
143
0.0394
147
1.0
172
     1
173
     1
174
     1
178
     7
271
     1
288
     1
340
F706
341
F770
343
F770
344
F770
  0
DIMSTYLE
105
1C645
330
746F
100
AcDbSymbolTableRecord
100
AcDbDimStyleTableRecord
  2
INABA_S50G
 70
     0
 40
0.0
 41
125.0
 42
25.0
 43
7.0
 44
75.0
 73
     0
 74
     0
 77
     3
 78
     8
140
150.0
141
0.0
143
0.0394
147
25.0
172
     1
173
     1
174
     1
178
     7
271
     1
340
F706
341
F770
343
F770
344
F770
  0
ENDTAB
  0
TABLE
  2
BLOCK_RECORD
  5
7466
330
0
100
AcDbSymbolTable
 70
    18
  0
BLOCK_RECORD
  5
747D
330
7466
100
AcDbSymbolTableRecord
100
AcDbBlockTableRecord
  2
*MODEL_SPACE
340
159B3
  0
BLOCK_RECORD
  5
747A
330
7466
100
AcDbSymbolTableRecord
100
AcDbBlockTableRecord
  2
*PAPER_SPACE
340
159B4
  0
BLOCK_RECORD
  5
F770
330
7466
100
AcDbSymbolTableRecord
100
AcDbBlockTableRecord
  2
_DOTSMALL
340
0
102
{BLKREFS
331
20517
331
20518
331
20520
331
20521
331
20529
331
2052A
331
20532
331
20533
331
2053B
331
2053C
331
20544
331
20545
331
2054D
331
2054E
331
20558
331
20559
331
20561
331
20562
331
2056A
331
2056B
331
20575
331
20576
331
20580
331
20581
331
20589
331
2058A
331
20592
331
20593
331
2059B
331
2059C
331
205A4
331
205A5
102
}
  0
BLOCK_RECORD
  5
1C530
330
7466
100
AcDbSymbolTableRecord
100
AcDbBlockTableRecord
  2
_NONE
340
0
  0
BLOCK_RECORD
  5
1F765
330
7466
100
AcDbSymbolTableRecord
100
AcDbBlockTableRecord
  2
*D2
340
0
  0
BLOCK_RECORD
  5
1F771
330
7466
100
AcDbSymbolTableRecord
100
AcDbBlockTableRecord
  2
*D3
340
0
  0
BLOCK_RECORD
  5
1F77D
330
7466
100
AcDbSymbolTableRecord
100
AcDbBlockTableRecord
  2
*D4
340
0
  0
BLOCK_RECORD
  5
1F789
330
7466
100
AcDbSymbolTableRecord
100
AcDbBlockTableRecord
  2
*D5
340
0
  0
BLOCK_RECORD
  5
1F797
330
7466
100
AcDbSymbolTableRecord
100
AcDbBlockTableRecord
  2
*D6
340
0
  0
BLOCK_RECORD
  5
1F7A5
330
7466
100
AcDbSymbolTableRecord
100
AcDbBlockTableRecord
  2
*D7
340
0
  0
BLOCK_RECORD
  5
1F7B1
330
7466
100
AcDbSymbolTableRecord
100
AcDbBlockTableRecord
  2
*D8
340
0
  0
BLOCK_RECORD
  5
1F7BD
330
7466
100
AcDbSymbolTableRecord
100
AcDbBlockTableRecord
  2
*D9
340
0
  0
BLOCK_RECORD
  5
1F7CB
330
7466
100
AcDbSymbolTableRecord
100
AcDbBlockTableRecord
  2
*D10
340
0
  0
BLOCK_RECORD
  5
1F7D7
330
7466
100
AcDbSymbolTableRecord
100
AcDbBlockTableRecord
  2
*D11
340
0
  0
BLOCK_RECORD
  5
1F98D
330
7466
100
AcDbSymbolTableRecord
100
AcDbBlockTableRecord
  2
*D12
340
0
  0
BLOCK_RECORD
  5
1F999
330
7466
100
AcDbSymbolTableRecord
100
AcDbBlockTableRecord
  2
*D13
340
0
  0
BLOCK_RECORD
  5
204C0
330
7466
100
AcDbSymbolTableRecord
100
AcDbBlockTableRecord
  2
*D14
340
0
  0
BLOCK_RECORD
  5
204CC
330
7466
100
AcDbSymbolTableRecord
100
AcDbBlockTableRecord
  2
*D15
340
0
  0
BLOCK_RECORD
  5
204D8
330
7466
100
AcDbSymbolTableRecord
100
AcDbBlockTableRecord
  2
*D16
340
0
  0
BLOCK_RECORD
  5
204E4
330
7466
100
AcDbSymbolTableRecord
100
AcDbBlockTableRecord
  2
*D17
340
0
  0
ENDTAB
  0
ENDSEC
  0
SECTION
  2
BLOCKS
  0
BLOCK
  5
7489
330
747D
100
AcDbEntity
  8
0
100
AcDbBlockBegin
  2
*MODEL_SPACE
 70
     0
 10
0.0
 20
0.0
 30
0.0
  3
*MODEL_SPACE
  1

  0
ENDBLK
  5
748A
330
747D
100
AcDbEntity
  8
0
100
AcDbBlockEnd
  0
BLOCK
  5
7487
330
747A
100
AcDbEntity
 67
     1
  8
0
100
AcDbBlockBegin
  2
*PAPER_SPACE
 70
     0
 10
0.0
 20
0.0
 30
0.0
  3
*PAPER_SPACE
  1

  0
ENDBLK
  5
7488
330
747A
100
AcDbEntity
 67
     1
  8
0
100
AcDbBlockEnd
  0
BLOCK
  5
F771
330
F770
100
AcDbEntity
  8
0
 48
50.0
100
AcDbBlockBegin
  2
_DOTSMALL
 70
     0
 10
0.0
 20
0.0
 30
0.0
  3
_DOTSMALL
  1

  0
LWPOLYLINE
  5
F772
330
F770
100
AcDbEntity
  8
0
  6
ByBlock
 62
     0
 48
50.0
100
AcDbPolyline
 90
        2
 70
     1
 43
0.5
 10
-0.0625
 20
0.0
 42
1.0
 10
0.0625
 20
0.0
 42
1.0
  0
ENDBLK
  5
F776
330
F770
100
AcDbEntity
  8
0
 48
50.0
100
AcDbBlockEnd
  0
BLOCK
  5
1C531
330
1C530
100
AcDbEntity
  8
0
 48
50.0
100
AcDbBlockBegin
  2
_NONE
 70
     0
 10
0.0
 20
0.0
 30
0.0
  3
_NONE
  1

  0
CIRCLE
  5
1C532
330
1C530
100
AcDbEntity
  8
0
  6
ByBlock
 62
     0
 48
50.0
100
AcDbCircle
 10
0.0
 20
0.0
 30
0.0
 40
0.25
  0
ENDBLK
  5
1C533
330
1C530
100
AcDbEntity
  8
0
 48
50.0
100
AcDbBlockEnd
  0
BLOCK
  5
1F76F
330
1F765
100
AcDbEntity
  8
0
 48
50.0
100
AcDbBlockBegin
  2
*D2
 70
     1
 10
0.0
 20
0.0
 30
0.0
  3
*D2
  1

  0
LINE
  5
20598
330
1F765
100
AcDbEntity
  8
寸法
 62
     0
 48
50.0
370
    -2
100
AcDbLine
 10
8252.717288768872
 20
7853.439287029051
 30
0.0
 11
8252.717288768872
 21
8402.063524165017
 31
0.0
  0
LINE
  5
20599
330
1F765
100
AcDbEntity
  8
寸法
 62
     0
 48
50.0
370
    -2
100
AcDbLine
 10
9051.717288768871
 20
7853.439287029054
 30
0.0
 11
9051.717288768871
 21
8402.063524165017
 31
0.0
  0
LINE
  5
2059A
330
1F765
100
AcDbEntity
  8
寸法
 62
     0
 48
50.0
370
    -2
100
AcDbLine
 10
8252.717288768872
 20
8342.063524165016
 30
0.0
 11
9051.717288768871
 21
8342.063524165016
 31
0.0
  0
INSERT
  5
2059B
330
1F765
100
AcDbEntity
  8
寸法
 62
     0
 48
50.0
370
    -2
100
AcDbBlockReference
  2
_DOTSMALL
 10
8252.717288768872
 20
8342.063524165016
 30
0.0
 41
100.0
 42
100.0
 43
100.0
 50
180.0
  0
INSERT
  5
2059C
330
1F765
100
AcDbEntity
  8
寸法
 62
     0
 48
50.0
370
    -2
100
AcDbBlockReference
  2
_DOTSMALL
 10
9051.717288768871
 20
8342.063524165016
 30
0.0
 41
100.0
 42
100.0
 43
100.0
  0
MTEXT
  5
2059D
330
1F765
100
AcDbEntity
  8
寸法
 62
     7
 48
50.0
100
AcDbMText
 10
8652.217288768872
 20
8442.063524165016
 30
0.0
 40
120.0
 41
0.0
 71
     5
 72
     1
  1
\A1;799
  7
STYLE1
 73
     1
 44
1.0
1001
ACAD
1000
MTEXTBEGIN
1070
    73
1070
     1
1070
    44
1040
1.0
1070
    74
1070
     0
1000
MTEXTEND
  0
POINT
  5
2059E
330
1F765
100
AcDbEntity
  8
DEFPOINTS
 62
     0
 48
50.0
100
AcDbPoint
 10
8252.717288768872
 20
7833.43928702905
 30
0.0
  0
POINT
  5
2059F
330
1F765
100
AcDbEntity
  8
DEFPOINTS
 62
     0
 48
50.0
100
AcDbPoint
 10
9051.717288768871
 20
7833.439287029055
 30
0.0
  0
POINT
  5
205A0
330
1F765
100
AcDbEntity
  8
DEFPOINTS
 62
     0
 48
50.0
100
AcDbPoint
 10
9051.717288768871
 20
8342.063524165016
 30
0.0
  0
ENDBLK
  5
1F770
330
1F765
100
AcDbEntity
  8
0
 48
50.0
100
AcDbBlockEnd
  0
BLOCK
  5
1F77B
330
1F771
100
AcDbEntity
  8
0
 48
50.0
100
AcDbBlockBegin
  2
*D3
 70
     1
 10
0.0
 20
0.0
 30
0.0
  3
*D3
  1

  0
LINE
  5
2058F
330
1F771
100
AcDbEntity
  8
寸法
 62
     0
 48
50.0
370
    -2
100
AcDbLine
 10
6798.717288768873
 20
7853.439287029054
 30
0.0
 11
6798.717288768873
 21
8402.063524165017
 31
0.0
  0
LINE
  5
20590
330
1F771
100
AcDbEntity
  8
寸法
 62
     0
 48
50.0
370
    -2
100
AcDbLine
 10
5999.717288768872
 20
7853.439287029054
 30
0.0
 11
5999.717288768872
 21
8402.063524165017
 31
0.0
  0
LINE
  5
20591
330
1F771
100
AcDbEntity
  8
寸法
 62
     0
 48
50.0
370
    -2
100
AcDbLine
 10
6798.717288768873
 20
8342.063524165016
 30
0.0
 11
5999.717288768872
 21
8342.063524165016
 31
0.0
  0
INSERT
  5
20592
330
1F771
100
AcDbEntity
  8
寸法
 62
     0
 48
50.0
370
    -2
100
AcDbBlockReference
  2
_DOTSMALL
 10
6798.717288768873
 20
8342.063524165016
 30
0.0
 41
100.0
 42
100.0
 43
100.0
  0
INSERT
  5
20593
330
1F771
100
AcDbEntity
  8
寸法
 62
     0
 48
50.0
370
    -2
100
AcDbBlockReference
  2
_DOTSMALL
 10
5999.717288768872
 20
8342.063524165016
 30
0.0
 41
100.0
 42
100.0
 43
100.0
 50
180.0
  0
MTEXT
  5
20594
330
1F771
100
AcDbEntity
  8
寸法
 62
     7
 48
50.0
100
AcDbMText
 10
6399.217288768872
 20
8442.063524165016
 30
0.0
 40
120.0
 41
0.0
 71
     5
 72
     1
  1
\A1;799
  7
STYLE1
 73
     1
 44
1.0
1001
ACAD
1000
MTEXTBEGIN
1070
    73
1070
     1
1070
    44
1040
1.0
1070
    74
1070
     0
1000
MTEXTEND
  0
POINT
  5
20595
330
1F771
100
AcDbEntity
  8
DEFPOINTS
 62
     0
 48
50.0
100
AcDbPoint
 10
6798.717288768873
 20
7833.439287029055
 30
0.0
  0
POINT
  5
20596
330
1F771
100
AcDbEntity
  8
DEFPOINTS
 62
     0
 48
50.0
100
AcDbPoint
 10
5999.717288768872
 20
7833.439287029055
 30
0.0
  0
POINT
  5
20597
330
1F771
100
AcDbEntity
  8
DEFPOINTS
 62
     0
 48
50.0
100
AcDbPoint
 10
5999.717288768872
 20
8342.063524165016
 30
0.0
  0
ENDBLK
  5
1F77C
330
1F771
100
AcDbEntity
  8
0
 48
50.0
100
AcDbBlockEnd
  0
BLOCK
  5
1F787
330
1F77D
100
AcDbEntity
  8
0
 48
50.0
100
AcDbBlockBegin
  2
*D4
 70
     1
 10
0.0
 20
0.0
 30
0.0
  3
*D4
  1

  0
LINE
  5
20586
330
1F77D
100
AcDbEntity
  8
寸法
 62
     0
 48
50.0
370
    -2
100
AcDbLine
 10
6798.717288768873
 20
7853.439287029054
 30
0.0
 11
6798.717288768873
 21
8402.063524165017
 31
0.0
  0
LINE
  5
20587
330
1F77D
100
AcDbEntity
  8
寸法
 62
     0
 48
50.0
370
    -2
100
AcDbLine
 10
7525.717288768873
 20
7853.439287029054
 30
0.0
 11
7525.717288768873
 21
8402.063524165017
 31
0.0
  0
LINE
  5
20588
330
1F77D
100
AcDbEntity
  8
寸法
 62
     0
 48
50.0
370
    -2
100
AcDbLine
 10
6798.717288768873
 20
8342.063524165016
 30
0.0
 11
7525.717288768873
 21
8342.063524165016
 31
0.0
  0
INSERT
  5
20589
330
1F77D
100
AcDbEntity
  8
寸法
 62
     0
 48
50.0
370
    -2
100
AcDbBlockReference
  2
_DOTSMALL
 10
6798.717288768873
 20
8342.063524165016
 30
0.0
 41
100.0
 42
100.0
 43
100.0
 50
180.0
  0
INSERT
  5
2058A
330
1F77D
100
AcDbEntity
  8
寸法
 62
     0
 48
50.0
370
    -2
100
AcDbBlockReference
  2
_DOTSMALL
 10
7525.717288768873
 20
8342.063524165016
 30
0.0
 41
100.0
 42
100.0
 43
100.0
  0
MTEXT
  5
2058B
330
1F77D
100
AcDbEntity
  8
寸法
 62
     7
 48
50.0
100
AcDbMText
 10
7162.217288768871
 20
8442.075335188638
 30
0.0
 40
120.0
 41
0.0
 71
     5
 72
     1
  1
\A1;727
  7
STYLE1
 73
     1
 44
1.0
1001
ACAD
1000
MTEXTBEGIN
1070
    73
1070
     1
1070
    44
1040
1.0
1070
    74
1070
     0
1000
MTEXTEND
  0
POINT
  5
2058C
330
1F77D
100
AcDbEntity
  8
DEFPOINTS
 62
     0
 48
50.0
100
AcDbPoint
 10
6798.717288768873
 20
7833.439287029055
 30
0.0
  0
POINT
  5
2058D
330
1F77D
100
AcDbEntity
  8
DEFPOINTS
 62
     0
 48
50.0
100
AcDbPoint
 10
7525.717288768873
 20
7833.439287029055
 30
0.0
  0
POINT
  5
2058E
330
1F77D
100
AcDbEntity
  8
DEFPOINTS
 62
     0
 48
50.0
100
AcDbPoint
 10
7525.717288768873
 20
8342.063524165016
 30
0.0
  0
ENDBLK
  5
1F788
330
1F77D
100
AcDbEntity
  8
0
 48
50.0
100
AcDbBlockEnd
  0
BLOCK
  5
1F795
330
1F789
100
AcDbEntity
  8
0
 48
50.0
100
AcDbBlockBegin
  2
*D5
 70
     1
 10
0.0
 20
0.0
 30
0.0
  3
*D5
  1

  0
LINE
  5
2057B
330
1F789
100
AcDbEntity
  8
寸法
 62
     0
 48
50.0
370
    -2
100
AcDbLine
 10
9051.717288768871
 20
7853.439287029054
 30
0.0
 11
9051.717288768871
 21
8659.990912831075
 31
0.0
  0
LINE
  5
2057C
330
1F789
100
AcDbEntity
  8
寸法
 62
     0
 48
50.0
370
    -2
100
AcDbLine
 10
9101.717288768872
 20
7933.439287029057
 30
0.0
 11
9101.717288768872
 21
8659.990912831075
 31
0.0
  0
LINE
  5
2057D
330
1F789
100
AcDbEntity
  8
寸法
 62
     0
 48
50.0
370
    -2
100
AcDbLine
 10
9051.717288768871
 20
8599.990912831076
 30
0.0
 11
8951.717288768872
 21
8599.990912831076
 31
0.0
  0
LINE
  5
2057E
330
1F789
100
AcDbEntity
  8
寸法
 62
     0
 48
50.0
370
    -2
100
AcDbLine
 10
9101.717288768872
 20
8599.990912831076
 30
0.0
 11
9201.717288768872
 21
8599.990912831076
 31
0.0
  0
LINE
  5
2057F
330
1F789
100
AcDbEntity
  8
寸法
 62
     0
 48
50.0
370
    -2
100
AcDbLine
 10
9051.717288768871
 20
8599.990912831076
 30
0.0
 11
9101.717288768872
 21
8599.990912831076
 31
0.0
  0
INSERT
  5
20580
330
1F789
100
AcDbEntity
  8
寸法
 62
     0
 48
50.0
370
    -2
100
AcDbBlockReference
  2
_DOTSMALL
 10
9051.717288768871
 20
8599.990912831076
 30
0.0
 41
100.0
 42
100.0
 43
100.0
  0
INSERT
  5
20581
330
1F789
100
AcDbEntity
  8
寸法
 62
     0
 48
50.0
370
    -2
100
AcDbBlockReference
  2
_DOTSMALL
 10
9101.717288768872
 20
8599.990912831076
 30
0.0
 41
100.0
 42
100.0
 43
100.0
 50
180.0
  0
MTEXT
  5
20582
330
1F789
100
AcDbEntity
  8
寸法
 62
     7
 48
50.0
100
AcDbMText
 10
9076.717288768872
 20
8699.990912831076
 30
0.0
 40
120.0
 41
0.0
 71
     5
 72
     1
  1
\A1;a
  7
STYLE1
 73
     1
 44
1.0
1001
ACAD
1000
MTEXTBEGIN
1070
    73
1070
     1
1070
    44
1040
1.0
1070
    74
1070
     0
1000
MTEXTEND
  0
POINT
  5
20583
330
1F789
100
AcDbEntity
  8
DEFPOINTS
 62
     0
 48
50.0
100
AcDbPoint
 10
9051.717288768871
 20
7833.439287029055
 30
0.0
  0
POINT
  5
20584
330
1F789
100
AcDbEntity
  8
DEFPOINTS
 62
     0
 48
50.0
100
AcDbPoint
 10
9101.717288768872
 20
7913.439287029058
 30
0.0
  0
POINT
  5
20585
330
1F789
100
AcDbEntity
  8
DEFPOINTS
 62
     0
 48
50.0
100
AcDbPoint
 10
9101.717288768872
 20
8599.990912831076
 30
0.0
  0
ENDBLK
  5
1F796
330
1F789
100
AcDbEntity
  8
0
 48
50.0
100
AcDbBlockEnd
  0
BLOCK
  5
1F7A3
330
1F797
100
AcDbEntity
  8
0
 48
50.0
100
AcDbBlockBegin
  2
*D6
 70
     1
 10
0.0
 20
0.0
 30
0.0
  3
*D6
  1

  0
LINE
  5
20570
330
1F797
100
AcDbEntity
  8
寸法
 62
     0
 48
50.0
370
    -2
100
AcDbLine
 10
5949.717288768872
 20
7933.439287029054
 30
0.0
 11
5949.717288768872
 21
8659.990912831075
 31
0.0
  0
LINE
  5
20571
330
1F797
100
AcDbEntity
  8
寸法
 62
     0
 48
50.0
370
    -2
100
AcDbLine
 10
5999.717288768872
 20
7853.439287029054
 30
0.0
 11
5999.717288768872
 21
8659.990912831075
 31
0.0
  0
LINE
  5
20572
330
1F797
100
AcDbEntity
  8
寸法
 62
     0
 48
50.0
370
    -2
100
AcDbLine
 10
5949.717288768872
 20
8599.990912831076
 30
0.0
 11
5849.717288768871
 21
8599.990912831076
 31
0.0
  0
LINE
  5
20573
330
1F797
100
AcDbEntity
  8
寸法
 62
     0
 48
50.0
370
    -2
100
AcDbLine
 10
5999.717288768872
 20
8599.990912831076
 30
0.0
 11
6099.717288768871
 21
8599.990912831076
 31
0.0
  0
LINE
  5
20574
330
1F797
100
AcDbEntity
  8
寸法
 62
     0
 48
50.0
370
    -2
100
AcDbLine
 10
5949.717288768872
 20
8599.990912831076
 30
0.0
 11
5999.717288768872
 21
8599.990912831076
 31
0.0
  0
INSERT
  5
20575
330
1F797
100
AcDbEntity
  8
寸法
 62
     0
 48
50.0
370
    -2
100
AcDbBlockReference
  2
_DOTSMALL
 10
5949.717288768872
 20
8599.990912831076
 30
0.0
 41
100.0
 42
100.0
 43
100.0
  0
INSERT
  5
20576
330
1F797
100
AcDbEntity
  8
寸法
 62
     0
 48
50.0
370
    -2
100
AcDbBlockReference
  2
_DOTSMALL
 10
5999.717288768872
 20
8599.990912831076
 30
0.0
 41
100.0
 42
100.0
 43
100.0
 50
180.0
  0
MTEXT
  5
20577
330
1F797
100
AcDbEntity
  8
寸法
 62
     7
 48
50.0
100
AcDbMText
 10
5974.717288768871
 20
8699.990912831076
 30
0.0
 40
120.0
 41
0.0
 71
     5
 72
     1
  1
\A1;a
  7
STYLE1
 73
     1
 44
1.0
1001
ACAD
1000
MTEXTBEGIN
1070
    73
1070
     1
1070
    44
1040
1.0
1070
    74
1070
     0
1000
MTEXTEND
  0
POINT
  5
20578
330
1F797
100
AcDbEntity
  8
DEFPOINTS
 62
     0
 48
50.0
100
AcDbPoint
 10
5949.717288768872
 20
7913.439287029054
 30
0.0
  0
POINT
  5
20579
330
1F797
100
AcDbEntity
  8
DEFPOINTS
 62
     0
 48
50.0
100
AcDbPoint
 10
5999.717288768872
 20
7833.439287029055
 30
0.0
  0
POINT
  5
2057A
330
1F797
100
AcDbEntity
  8
DEFPOINTS
 62
     0
 48
50.0
100
AcDbPoint
 10
5999.717288768872
 20
8599.990912831076
 30
0.0
  0
ENDBLK
  5
1F7A4
330
1F797
100
AcDbEntity
  8
0
 48
50.0
100
AcDbBlockEnd
  0
BLOCK
  5
1F7AF
330
1F7A5
100
AcDbEntity
  8
0
 48
50.0
100
AcDbBlockBegin
  2
*D7
 70
     1
 10
0.0
 20
0.0
 30
0.0
  3
*D7
  1

  0
LINE
  5
20567
330
1F7A5
100
AcDbEntity
  8
寸法
 62
     0
 48
50.0
370
    -2
100
AcDbLine
 10
5929.717288768872
 20
7913.439287029054
 30
0.0
 11
5499.005405319621
 21
7913.439287029054
 31
0.0
  0
LINE
  5
20568
330
1F7A5
100
AcDbEntity
  8
寸法
 62
     0
 48
50.0
370
    -2
100
AcDbLine
 10
5979.717288768872
 20
7833.439287029055
 30
0.0
 11
5499.005405319621
 21
7833.439287029055
 31
0.0
  0
LINE
  5
20569
330
1F7A5
100
AcDbEntity
  8
寸法
 62
     0
 48
50.0
370
    -2
100
AcDbLine
 10
5559.005405319622
 20
7913.439287029054
 30
0.0
 11
5559.005405319622
 21
7833.439287029055
 31
0.0
  0
INSERT
  5
2056A
330
1F7A5
100
AcDbEntity
  8
寸法
 62
     0
 48
50.0
370
    -2
100
AcDbBlockReference
  2
_DOTSMALL
 10
5559.005405319622
 20
7913.439287029054
 30
0.0
 41
100.0
 42
100.0
 43
100.0
 50
90.0
  0
INSERT
  5
2056B
330
1F7A5
100
AcDbEntity
  8
寸法
 62
     0
 48
50.0
370
    -2
100
AcDbBlockReference
  2
_DOTSMALL
 10
5559.005405319622
 20
7833.439287029055
 30
0.0
 41
100.0
 42
100.0
 43
100.0
 50
270.0
  0
MTEXT
  5
2056C
330
1F7A5
100
AcDbEntity
  8
寸法
 62
     7
 48
50.0
100
AcDbMText
 10
5459.005405319621
 20
7873.439287029055
 30
0.0
 40
120.0
 41
0.0
 71
     5
 72
     1
  1
\A1;c
  7
STYLE1
 11
0.0000000000000001
 21
1.0
 31
0.0
 73
     1
 44
1.0
1001
ACAD
1000
MTEXTBEGIN
1070
    73
1070
     1
1070
    44
1040
1.0
1070
    74
1070
     0
1000
MTEXTEND
  0
POINT
  5
2056D
330
1F7A5
100
AcDbEntity
  8
DEFPOINTS
 62
     0
 48
50.0
100
AcDbPoint
 10
5949.717288768872
 20
7913.439287029054
 30
0.0
  0
POINT
  5
2056E
330
1F7A5
100
AcDbEntity
  8
DEFPOINTS
 62
     0
 48
50.0
100
AcDbPoint
 10
5999.717288768872
 20
7833.439287029055
 30
0.0
  0
POINT
  5
2056F
330
1F7A5
100
AcDbEntity
  8
DEFPOINTS
 62
     0
 48
50.0
100
AcDbPoint
 10
5559.005405319622
 20
7833.439287029055
 30
0.0
  0
ENDBLK
  5
1F7B0
330
1F7A5
100
AcDbEntity
  8
0
 48
50.0
100
AcDbBlockEnd
  0
BLOCK
  5
1F7BB
330
1F7B1
100
AcDbEntity
  8
0
 48
50.0
100
AcDbBlockBegin
  2
*D8
 70
     1
 10
0.0
 20
0.0
 30
0.0
  3
*D8
  1

  0
LINE
  5
2055E
330
1F7B1
100
AcDbEntity
  8
寸法
 62
     0
 48
50.0
370
    -2
100
AcDbLine
 10
5979.717288768872
 20
7833.439287029055
 30
0.0
 11
5499.005405319625
 21
7833.439287029055
 31
0.0
  0
LINE
  5
2055F
330
1F7B1
100
AcDbEntity
  8
寸法
 62
     0
 48
50.0
370
    -2
100
AcDbLine
 10
5979.717288768856
 20
5621.439287029054
 30
0.0
 11
5499.005405319625
 21
5621.439287029054
 31
0.0
  0
LINE
  5
20560
330
1F7B1
100
AcDbEntity
  8
寸法
 62
     0
 48
50.0
370
    -2
100
AcDbLine
 10
5559.005405319625
 20
7833.439287029055
 30
0.0
 11
5559.005405319624
 21
5621.439287029054
 31
0.0
  0
INSERT
  5
20561
330
1F7B1
100
AcDbEntity
  8
寸法
 62
     0
 48
50.0
370
    -2
100
AcDbBlockReference
  2
_DOTSMALL
 10
5559.005405319625
 20
7833.439287029055
 30
0.0
 41
100.0
 42
100.0
 43
100.0
 50
90.0
  0
INSERT
  5
20562
330
1F7B1
100
AcDbEntity
  8
寸法
 62
     0
 48
50.0
370
    -2
100
AcDbBlockReference
  2
_DOTSMALL
 10
5559.005405319624
 20
5621.439287029054
 30
0.0
 41
100.0
 42
100.0
 43
100.0
 50
270.0
  0
MTEXT
  5
20563
330
1F7B1
100
AcDbEntity
  8
寸法
 62
     7
 48
50.0
100
AcDbMText
 10
5458.993594296002
 20
6727.439287029054
 30
0.0
 40
120.0
 41
0.0
 71
     5
 72
     1
  1
\A1;2212
  7
STYLE1
 11
0.0000000000000001
 21
1.0
 31
0.0
 73
     1
 44
1.0
1001
ACAD
1000
MTEXTBEGIN
1070
    73
1070
     1
1070
    44
1040
1.0
1070
    74
1070
     0
1000
MTEXTEND
  0
POINT
  5
20564
330
1F7B1
100
AcDbEntity
  8
DEFPOINTS
 62
     0
 48
50.0
100
AcDbPoint
 10
5999.717288768872
 20
7833.439287029055
 30
0.0
  0
POINT
  5
20565
330
1F7B1
100
AcDbEntity
  8
DEFPOINTS
 62
     0
 48
50.0
100
AcDbPoint
 10
5999.717288768856
 20
5621.439287029054
 30
0.0
  0
POINT
  5
20566
330
1F7B1
100
AcDbEntity
  8
DEFPOINTS
 62
     0
 48
50.0
100
AcDbPoint
 10
5559.005405319624
 20
5621.439287029054
 30
0.0
  0
ENDBLK
  5
1F7BC
330
1F7B1
100
AcDbEntity
  8
0
 48
50.0
100
AcDbBlockEnd
  0
BLOCK
  5
1F7C9
330
1F7BD
100
AcDbEntity
  8
0
 48
50.0
100
AcDbBlockBegin
  2
*D9
 70
     1
 10
0.0
 20
0.0
 30
0.0
  3
*D9
  1

  0
LINE
  5
20553
330
1F7BD
100
AcDbEntity
  8
寸法
 62
     0
 48
50.0
370
    -2
100
AcDbLine
 10
5979.717288768856
 20
5621.439287029054
 30
0.0
 11
5499.005405319605
 21
5621.439287029054
 31
0.0
  0
LINE
  5
20554
330
1F7BD
100
AcDbEntity
  8
寸法
 62
     0
 48
50.0
370
    -2
100
AcDbLine
 10
5929.717288768856
 20
5561.439287029054
 30
0.0
 11
5499.005405319605
 21
5561.439287029054
 31
0.0
  0
LINE
  5
20555
330
1F7BD
100
AcDbEntity
  8
寸法
 62
     0
 48
50.0
370
    -2
100
AcDbLine
 10
5559.005405319606
 20
5621.439287029054
 30
0.0
 11
5559.005405319606
 21
5721.439287029054
 31
0.0
  0
LINE
  5
20556
330
1F7BD
100
AcDbEntity
  8
寸法
 62
     0
 48
50.0
370
    -2
100
AcDbLine
 10
5559.005405319606
 20
5561.439287029054
 30
0.0
 11
5559.005405319606
 21
5461.439287029055
 31
0.0
  0
LINE
  5
20557
330
1F7BD
100
AcDbEntity
  8
寸法
 62
     0
 48
50.0
370
    -2
100
AcDbLine
 10
5559.005405319606
 20
5621.439287029054
 30
0.0
 11
5559.005405319606
 21
5561.439287029054
 31
0.0
  0
INSERT
  5
20558
330
1F7BD
100
AcDbEntity
  8
寸法
 62
     0
 48
50.0
370
    -2
100
AcDbBlockReference
  2
_DOTSMALL
 10
5559.005405319606
 20
5621.439287029054
 30
0.0
 41
100.0
 42
100.0
 43
100.0
 50
270.0
  0
INSERT
  5
20559
330
1F7BD
100
AcDbEntity
  8
寸法
 62
     0
 48
50.0
370
    -2
100
AcDbBlockReference
  2
_DOTSMALL
 10
5559.005405319606
 20
5561.439287029054
 30
0.0
 41
100.0
 42
100.0
 43
100.0
 50
90.0
  0
MTEXT
  5
2055A
330
1F7BD
100
AcDbEntity
  8
寸法
 62
     7
 48
50.0
100
AcDbMText
 10
5459.005405319604
 20
5591.439287029055
 30
0.0
 40
120.0
 41
0.0
 71
     5
 72
     1
  1
\A1;b
  7
STYLE1
 11
0.0000000000000001
 21
1.0
 31
0.0
 73
     1
 44
1.0
1001
ACAD
1000
MTEXTBEGIN
1070
    73
1070
     1
1070
    44
1040
1.0
1070
    74
1070
     0
1000
MTEXTEND
  0
POINT
  5
2055B
330
1F7BD
100
AcDbEntity
  8
DEFPOINTS
 62
     0
 48
50.0
100
AcDbPoint
 10
5999.717288768856
 20
5621.439287029054
 30
0.0
  0
POINT
  5
2055C
330
1F7BD
100
AcDbEntity
  8
DEFPOINTS
 62
     0
 48
50.0
100
AcDbPoint
 10
5949.717288768855
 20
5561.439287029054
 30
0.0
  0
POINT
  5
2055D
330
1F7BD
100
AcDbEntity
  8
DEFPOINTS
 62
     0
 48
50.0
100
AcDbPoint
 10
5559.005405319606
 20
5561.439287029054
 30
0.0
  0
ENDBLK
  5
1F7CA
330
1F7BD
100
AcDbEntity
  8
0
 48
50.0
100
AcDbBlockEnd
  0
BLOCK
  5
1F7D5
330
1F7CB
100
AcDbEntity
  8
0
 48
50.0
100
AcDbBlockBegin
  2
*D10
 70
     1
 10
0.0
 20
0.0
 30
0.0
  3
*D10
  1

  0
LINE
  5
2054A
330
1F7CB
100
AcDbEntity
  8
寸法
 62
     0
 48
50.0
370
    -2
100
AcDbLine
 10
5999.717288768872
 20
7853.439287029054
 30
0.0
 11
5999.717288768872
 21
8659.990912831075
 31
0.0
  0
LINE
  5
2054B
330
1F7CB
100
AcDbEntity
  8
寸法
 62
     0
 48
50.0
370
    -2
100
AcDbLine
 10
9051.717288768871
 20
7853.439287029054
 30
0.0
 11
9051.717288768871
 21
8659.990912831075
 31
0.0
  0
LINE
  5
2054C
330
1F7CB
100
AcDbEntity
  8
寸法
 62
     0
 48
50.0
370
    -2
100
AcDbLine
 10
5999.717288768872
 20
8599.990912831076
 30
0.0
 11
9051.717288768871
 21
8599.990912831076
 31
0.0
  0
INSERT
  5
2054D
330
1F7CB
100
AcDbEntity
  8
寸法
 62
     0
 48
50.0
370
    -2
100
AcDbBlockReference
  2
_DOTSMALL
 10
5999.717288768872
 20
8599.990912831076
 30
0.0
 41
100.0
 42
100.0
 43
100.0
 50
180.0
  0
INSERT
  5
2054E
330
1F7CB
100
AcDbEntity
  8
寸法
 62
     0
 48
50.0
370
    -2
100
AcDbBlockReference
  2
_DOTSMALL
 10
9051.717288768871
 20
8599.990912831076
 30
0.0
 41
100.0
 42
100.0
 43
100.0
  0
MTEXT
  5
2054F
330
1F7CB
100
AcDbEntity
  8
寸法
 62
     7
 48
50.0
100
AcDbMText
 10
7525.717288768873
 20
8700.002723854698
 30
0.0
 40
120.0
 41
0.0
 71
     5
 72
     1
  1
\A1;3052
  7
STYLE1
 73
     1
 44
1.0
1001
ACAD
1000
MTEXTBEGIN
1070
    73
1070
     1
1070
    44
1040
1.0
1070
    74
1070
     0
1000
MTEXTEND
  0
POINT
  5
20550
330
1F7CB
100
AcDbEntity
  8
DEFPOINTS
 62
     0
 48
50.0
100
AcDbPoint
 10
5999.717288768872
 20
7833.439287029055
 30
0.0
  0
POINT
  5
20551
330
1F7CB
100
AcDbEntity
  8
DEFPOINTS
 62
     0
 48
50.0
100
AcDbPoint
 10
9051.717288768871
 20
7833.439287029055
 30
0.0
  0
POINT
  5
20552
330
1F7CB
100
AcDbEntity
  8
DEFPOINTS
 62
     0
 48
50.0
100
AcDbPoint
 10
9051.717288768871
 20
8599.990912831076
 30
0.0
  0
ENDBLK
  5
1F7D6
330
1F7CB
100
AcDbEntity
  8
0
 48
50.0
100
AcDbBlockEnd
  0
BLOCK
  5
1F7E1
330
1F7D7
100
AcDbEntity
  8
0
 48
50.0
100
AcDbBlockBegin
  2
*D11
 70
     1
 10
0.0
 20
0.0
 30
0.0
  3
*D11
  1

  0
LINE
  5
205A1
330
1F7D7
100
AcDbEntity
  8
寸法
 62
     0
 48
50.0
370
    -2
100
AcDbLine
 10
7525.717288768873
 20
7853.439287029054
 30
0.0
 11
7525.717288768873
 21
8402.063524165017
 31
0.0
  0
LINE
  5
205A2
330
1F7D7
100
AcDbEntity
  8
寸法
 62
     0
 48
50.0
370
    -2
100
AcDbLine
 10
8252.717288768872
 20
7853.439287029051
 30
0.0
 11
8252.717288768872
 21
8402.063524165017
 31
0.0
  0
LINE
  5
205A3
330
1F7D7
100
AcDbEntity
  8
寸法
 62
     0
 48
50.0
370
    -2
100
AcDbLine
 10
7525.717288768873
 20
8342.063524165016
 30
0.0
 11
8252.717288768872
 21
8342.063524165016
 31
0.0
  0
INSERT
  5
205A4
330
1F7D7
100
AcDbEntity
  8
寸法
 62
     0
 48
50.0
370
    -2
100
AcDbBlockReference
  2
_DOTSMALL
 10
7525.717288768873
 20
8342.063524165016
 30
0.0
 41
100.0
 42
100.0
 43
100.0
 50
180.0
  0
INSERT
  5
205A5
330
1F7D7
100
AcDbEntity
  8
寸法
 62
     0
 48
50.0
370
    -2
100
AcDbBlockReference
  2
_DOTSMALL
 10
8252.717288768872
 20
8342.063524165016
 30
0.0
 41
100.0
 42
100.0
 43
100.0
  0
MTEXT
  5
205A6
330
1F7D7
100
AcDbEntity
  8
寸法
 62
     7
 48
50.0
100
AcDbMText
 10
7889.217288768872
 20
8442.075335188638
 30
0.0
 40
120.0
 41
0.0
 71
     5
 72
     1
  1
\A1;727
  7
STYLE1
 73
     1
 44
1.0
1001
ACAD
1000
MTEXTBEGIN
1070
    73
1070
     1
1070
    44
1040
1.0
1070
    74
1070
     0
1000
MTEXTEND
  0
POINT
  5
205A7
330
1F7D7
100
AcDbEntity
  8
DEFPOINTS
 62
     0
 48
50.0
100
AcDbPoint
 10
7525.717288768873
 20
7833.439287029055
 30
0.0
  0
POINT
  5
205A8
330
1F7D7
100
AcDbEntity
  8
DEFPOINTS
 62
     0
 48
50.0
100
AcDbPoint
 10
8252.717288768872
 20
7833.43928702905
 30
0.0
  0
POINT
  5
205A9
330
1F7D7
100
AcDbEntity
  8
DEFPOINTS
 62
     0
 48
50.0
100
AcDbPoint
 10
8252.717288768872
 20
8342.063524165016
 30
0.0
  0
ENDBLK
  5
1F7E2
330
1F7D7
100
AcDbEntity
  8
0
 48
50.0
100
AcDbBlockEnd
  0
BLOCK
  5
1F997
330
1F98D
100
AcDbEntity
  8
0
 48
50.0
100
AcDbBlockBegin
  2
*D12
 70
     1
 10
0.0
 20
0.0
 30
0.0
  3
*D12
  1

  0
LINE
  5
20541
330
1F98D
100
AcDbEntity
  8
寸法
 62
     0
 48
50.0
370
    -2
100
AcDbLine
 10
9171.717288768853
 20
5721.439287029053
 30
0.0
 11
9500.782436285064
 21
5721.439287029053
 31
0.0
  0
LINE
  5
20542
330
1F98D
100
AcDbEntity
  8
寸法
 62
     0
 48
50.0
370
    -2
100
AcDbLine
 10
9171.717288768856
 20
5521.439287029053
 30
0.0
 11
9500.782436285064
 21
5521.439287029053
 31
0.0
  0
LINE
  5
20543
330
1F98D
100
AcDbEntity
  8
寸法
 62
     0
 48
50.0
370
    -2
100
AcDbLine
 10
9440.782436285065
 20
5721.439287029053
 30
0.0
 11
9440.782436285065
 21
5521.439287029053
 31
0.0
  0
INSERT
  5
20544
330
1F98D
100
AcDbEntity
  8
寸法
 62
     0
 48
50.0
370
    -2
100
AcDbBlockReference
  2
_DOTSMALL
 10
9440.782436285065
 20
5721.439287029053
 30
0.0
 41
100.0
 42
100.0
 43
100.0
 50
90.0
  0
INSERT
  5
20545
330
1F98D
100
AcDbEntity
  8
寸法
 62
     0
 48
50.0
370
    -2
100
AcDbBlockReference
  2
_DOTSMALL
 10
9440.782436285065
 20
5521.439287029053
 30
0.0
 41
100.0
 42
100.0
 43
100.0
 50
270.0
  0
MTEXT
  5
20546
330
1F98D
100
AcDbEntity
  8
寸法
 62
     7
 48
50.0
100
AcDbMText
 10
9340.770625261439
 20
5621.439287029054
 30
0.0
 40
120.0
 41
0.0
 71
     5
 72
     1
  1
\A1;200
  7
STYLE1
 11
0.0000000000000001
 21
1.0
 31
0.0
 73
     1
 44
1.0
1001
ACAD
1000
MTEXTBEGIN
1070
    73
1070
     1
1070
    44
1040
1.0
1070
    74
1070
     0
1000
MTEXTEND
  0
POINT
  5
20547
330
1F98D
100
AcDbEntity
  8
DEFPOINTS
 62
     0
 48
50.0
100
AcDbPoint
 10
9151.717288768855
 20
5721.439287029053
 30
0.0
  0
POINT
  5
20548
330
1F98D
100
AcDbEntity
  8
DEFPOINTS
 62
     0
 48
50.0
100
AcDbPoint
 10
9151.717288768855
 20
5521.439287029053
 30
0.0
  0
POINT
  5
20549
330
1F98D
100
AcDbEntity
  8
DEFPOINTS
 62
     0
 48
50.0
100
AcDbPoint
 10
9440.782436285065
 20
5521.439287029053
 30
0.0
  0
ENDBLK
  5
1F998
330
1F98D
100
AcDbEntity
  8
0
 48
50.0
100
AcDbBlockEnd
  0
BLOCK
  5
1F9A3
330
1F999
100
AcDbEntity
  8
0
 48
50.0
100
AcDbBlockBegin
  2
*D13
 70
     1
 10
0.0
 20
0.0
 30
0.0
  3
*D13
  1

  0
LINE
  5
20538
330
1F999
100
AcDbEntity
  8
寸法
 62
     0
 48
50.0
370
    -2
100
AcDbLine
 10
9151.717288768855
 20
5501.439287029053
 30
0.0
 11
9151.717288768855
 21
5208.11380208359
 31
0.0
  0
LINE
  5
20539
330
1F999
100
AcDbEntity
  8
寸法
 62
     0
 48
50.0
370
    -2
100
AcDbLine
 10
8951.717288768856
 20
5501.439287029053
 30
0.0
 11
8951.717288768856
 21
5208.11380208359
 31
0.0
  0
LINE
  5
2053A
330
1F999
100
AcDbEntity
  8
寸法
 62
     0
 48
50.0
370
    -2
100
AcDbLine
 10
9151.717288768855
 20
5268.11380208359
 30
0.0
 11
8951.717288768856
 21
5268.11380208359
 31
0.0
  0
INSERT
  5
2053B
330
1F999
100
AcDbEntity
  8
寸法
 62
     0
 48
50.0
370
    -2
100
AcDbBlockReference
  2
_DOTSMALL
 10
9151.717288768855
 20
5268.11380208359
 30
0.0
 41
100.0
 42
100.0
 43
100.0
  0
INSERT
  5
2053C
330
1F999
100
AcDbEntity
  8
寸法
 62
     0
 48
50.0
370
    -2
100
AcDbBlockReference
  2
_DOTSMALL
 10
8951.717288768856
 20
5268.11380208359
 30
0.0
 41
100.0
 42
100.0
 43
100.0
 50
180.0
  0
MTEXT
  5
2053D
330
1F999
100
AcDbEntity
  8
寸法
 62
     7
 48
50.0
100
AcDbMText
 10
9051.717288768855
 20
5368.125613107212
 30
0.0
 40
120.0
 41
0.0
 71
     5
 72
     1
  1
\A1;200
  7
STYLE1
 73
     1
 44
1.0
1001
ACAD
1000
MTEXTBEGIN
1070
    73
1070
     1
1070
    44
1040
1.0
1070
    74
1070
     0
1000
MTEXTEND
  0
POINT
  5
2053E
330
1F999
100
AcDbEntity
  8
DEFPOINTS
 62
     0
 48
50.0
100
AcDbPoint
 10
9151.717288768855
 20
5521.439287029053
 30
0.0
  0
POINT
  5
2053F
330
1F999
100
AcDbEntity
  8
DEFPOINTS
 62
     0
 48
50.0
100
AcDbPoint
 10
8951.717288768856
 20
5521.439287029053
 30
0.0
  0
POINT
  5
20540
330
1F999
100
AcDbEntity
  8
DEFPOINTS
 62
     0
 48
50.0
100
AcDbPoint
 10
8951.717288768856
 20
5268.11380208359
 30
0.0
  0
ENDBLK
  5
1F9A4
330
1F999
100
AcDbEntity
  8
0
 48
50.0
100
AcDbBlockEnd
  0
BLOCK
  5
204CA
330
204C0
100
AcDbEntity
  8
0
 48
50.0
100
AcDbBlockBegin
  2
*D14
 70
     1
 10
0.0
 20
0.0
 30
0.0
  3
*D14
  1

  0
LINE
  5
2052F
330
204C0
100
AcDbEntity
  8
寸法
 62
     0
 48
50.0
370
    -2
100
AcDbLine
 10
5805.003061183852
 20
1407.69474813831
 30
0.0
 11
5671.673314108322
 21
1407.69474813831
 31
0.0
  0
LINE
  5
20530
330
204C0
100
AcDbEntity
  8
寸法
 62
     0
 48
50.0
370
    -2
100
AcDbLine
 10
5955.003061183852
 20
1007.69474813831
 30
0.0
 11
5671.673314108322
 21
1007.69474813831
 31
0.0
  0
LINE
  5
20531
330
204C0
100
AcDbEntity
  8
寸法
 62
     0
 48
50.0
370
    -2
100
AcDbLine
 10
5731.673314108323
 20
1407.69474813831
 30
0.0
 11
5731.673314108323
 21
1007.69474813831
 31
0.0
  0
INSERT
  5
20532
330
204C0
100
AcDbEntity
  8
寸法
 62
     0
 48
50.0
370
    -2
100
AcDbBlockReference
  2
_DOTSMALL
 10
5731.673314108323
 20
1407.69474813831
 30
0.0
 41
100.0
 42
100.0
 43
100.0
 50
90.0
  0
INSERT
  5
20533
330
204C0
100
AcDbEntity
  8
寸法
 62
     0
 48
50.0
370
    -2
100
AcDbBlockReference
  2
_DOTSMALL
 10
5731.673314108323
 20
1007.69474813831
 30
0.0
 41
100.0
 42
100.0
 43
100.0
 50
270.0
  0
MTEXT
  5
20534
330
204C0
100
AcDbEntity
  8
寸法
 62
     7
 48
50.0
100
AcDbMText
 10
5631.6615030847
 20
1195.319381254216
 30
0.0
 40
120.0
 41
0.0
 71
     5
 72
     1
  1
\A1;200
  7
STYLE1
 11
0.0000000000000001
 21
1.0
 31
0.0
 73
     1
 44
1.0
1001
ACAD
1000
MTEXTBEGIN
1070
    73
1070
     1
1070
    44
1040
1.0
1070
    74
1070
     0
1000
MTEXTEND
  0
POINT
  5
20535
330
204C0
100
AcDbEntity
  8
DEFPOINTS
 62
     0
 48
50.0
100
AcDbPoint
 10
5825.003061183852
 20
1407.69474813831
 30
0.0
  0
POINT
  5
20536
330
204C0
100
AcDbEntity
  8
DEFPOINTS
 62
     0
 48
50.0
100
AcDbPoint
 10
5975.003061183851
 20
1007.69474813831
 30
0.0
  0
POINT
  5
20537
330
204C0
100
AcDbEntity
  8
DEFPOINTS
 62
     0
 48
50.0
100
AcDbPoint
 10
5731.673314108323
 20
1007.69474813831
 30
0.0
  0
ENDBLK
  5
204CB
330
204C0
100
AcDbEntity
  8
0
 48
50.0
100
AcDbBlockEnd
  0
BLOCK
  5
204D6
330
204CC
100
AcDbEntity
  8
0
 48
50.0
100
AcDbBlockBegin
  2
*D15
 70
     1
 10
0.0
 20
0.0
 30
0.0
  3
*D15
  1

  0
LINE
  5
20526
330
204CC
100
AcDbEntity
  8
寸法
 62
     0
 48
50.0
370
    -2
100
AcDbLine
 10
7858.609325302461
 20
1607.694748138312
 30
0.0
 11
8120.82257276536
 21
1607.694748138312
 31
0.0
  0
LINE
  5
20527
330
204CC
100
AcDbEntity
  8
寸法
 62
     0
 48
50.0
370
    -2
100
AcDbLine
 10
7878.058562196951
 20
1407.69474813831
 30
0.0
 11
8120.82257276536
 21
1407.69474813831
 31
0.0
  0
LINE
  5
20528
330
204CC
100
AcDbEntity
  8
寸法
 62
     0
 48
50.0
370
    -2
100
AcDbLine
 10
8060.82257276536
 20
1607.694748138312
 30
0.0
 11
8060.82257276536
 21
1407.69474813831
 31
0.0
  0
INSERT
  5
20529
330
204CC
100
AcDbEntity
  8
寸法
 62
     0
 48
50.0
370
    -2
100
AcDbBlockReference
  2
_DOTSMALL
 10
8060.82257276536
 20
1607.694748138312
 30
0.0
 41
100.0
 42
100.0
 43
100.0
 50
90.0
  0
INSERT
  5
2052A
330
204CC
100
AcDbEntity
  8
寸法
 62
     0
 48
50.0
370
    -2
100
AcDbBlockReference
  2
_DOTSMALL
 10
8060.82257276536
 20
1407.69474813831
 30
0.0
 41
100.0
 42
100.0
 43
100.0
 50
270.0
  0
MTEXT
  5
2052B
330
204CC
100
AcDbEntity
  8
寸法
 62
     7
 48
50.0
100
AcDbMText
 10
7960.82257276536
 20
1507.694748138313
 30
0.0
 40
120.0
 41
0.0
 71
     5
 72
     1
  1
\A1;b
  7
STYLE1
 11
0.0000000000000001
 21
1.0
 31
0.0
 73
     1
 44
1.0
1001
ACAD
1000
MTEXTBEGIN
1070
    73
1070
     1
1070
    44
1040
1.0
1070
    74
1070
     0
1000
MTEXTEND
  0
POINT
  5
2052C
330
204CC
100
AcDbEntity
  8
DEFPOINTS
 62
     0
 48
50.0
100
AcDbPoint
 10
7838.609325302461
 20
1607.694748138312
 30
0.0
  0
POINT
  5
2052D
330
204CC
100
AcDbEntity
  8
DEFPOINTS
 62
     0
 48
50.0
100
AcDbPoint
 10
7858.058562196951
 20
1407.69474813831
 30
0.0
  0
POINT
  5
2052E
330
204CC
100
AcDbEntity
  8
DEFPOINTS
 62
     0
 48
50.0
100
AcDbPoint
 10
8060.82257276536
 20
1407.69474813831
 30
0.0
  0
ENDBLK
  5
204D7
330
204CC
100
AcDbEntity
  8
0
 48
50.0
100
AcDbBlockEnd
  0
BLOCK
  5
204E2
330
204D8
100
AcDbEntity
  8
0
 48
50.0
100
AcDbBlockBegin
  2
*D16
 70
     1
 10
0.0
 20
0.0
 30
0.0
  3
*D16
  1

  0
LINE
  5
2051D
330
204D8
100
AcDbEntity
  8
寸法
 62
     0
 48
50.0
370
    -2
100
AcDbLine
 10
9358.502258819601
 20
1707.69474813831
 30
0.0
 11
9601.137812536718
 21
1707.69474813831
 31
0.0
  0
LINE
  5
2051E
330
204D8
100
AcDbEntity
  8
寸法
 62
     0
 48
50.0
370
    -2
100
AcDbLine
 10
9388.391166909933
 20
1407.69474813831
 30
0.0
 11
9601.137812536718
 21
1407.69474813831
 31
0.0
  0
LINE
  5
2051F
330
204D8
100
AcDbEntity
  8
寸法
 62
     0
 48
50.0
370
    -2
100
AcDbLine
 10
9541.137812536717
 20
1707.69474813831
 30
0.0
 11
9541.137812536717
 21
1407.69474813831
 31
0.0
  0
INSERT
  5
20520
330
204D8
100
AcDbEntity
  8
寸法
 62
     0
 48
50.0
370
    -2
100
AcDbBlockReference
  2
_DOTSMALL
 10
9541.137812536717
 20
1707.69474813831
 30
0.0
 41
100.0
 42
100.0
 43
100.0
 50
90.0
  0
INSERT
  5
20521
330
204D8
100
AcDbEntity
  8
寸法
 62
     0
 48
50.0
370
    -2
100
AcDbBlockReference
  2
_DOTSMALL
 10
9541.137812536717
 20
1407.69474813831
 30
0.0
 41
100.0
 42
100.0
 43
100.0
 50
270.0
  0
MTEXT
  5
20522
330
204D8
100
AcDbEntity
  8
寸法
 62
     7
 48
50.0
100
AcDbMText
 10
9441.137812536718
 20
1557.694748138312
 30
0.0
 40
120.0
 41
0.0
 71
     5
 72
     1
  1
\A1;c
  7
STYLE1
 11
0.0000000000000001
 21
1.0
 31
0.0
 73
     1
 44
1.0
1001
ACAD
1000
MTEXTBEGIN
1070
    73
1070
     1
1070
    44
1040
1.0
1070
    74
1070
     0
1000
MTEXTEND
  0
POINT
  5
20523
330
204D8
100
AcDbEntity
  8
DEFPOINTS
 62
     0
 48
50.0
100
AcDbPoint
 10
9338.5022588196
 20
1707.69474813831
 30
0.0
  0
POINT
  5
20524
330
204D8
100
AcDbEntity
  8
DEFPOINTS
 62
     0
 48
50.0
100
AcDbPoint
 10
9368.391166909933
 20
1407.69474813831
 30
0.0
  0
POINT
  5
20525
330
204D8
100
AcDbEntity
  8
DEFPOINTS
 62
     0
 48
50.0
100
AcDbPoint
 10
9541.137812536717
 20
1407.69474813831
 30
0.0
  0
ENDBLK
  5
204E3
330
204D8
100
AcDbEntity
  8
0
 48
50.0
100
AcDbBlockEnd
  0
BLOCK
  5
204EE
330
204E4
100
AcDbEntity
  8
0
 48
50.0
100
AcDbBlockBegin
  2
*D17
 70
     1
 10
0.0
 20
0.0
 30
0.0
  3
*D17
  1

  0
LINE
  5
20514
330
204E4
100
AcDbEntity
  8
寸法
 62
     0
 48
50.0
370
    -2
100
AcDbLine
 10
6245.003061183854
 20
1607.694748138311
 30
0.0
 11
6533.074065544248
 21
1607.694748138311
 31
0.0
  0
LINE
  5
20515
330
204E4
100
AcDbEntity
  8
寸法
 62
     0
 48
50.0
370
    -2
100
AcDbLine
 10
6245.003061183855
 20
1407.69474813831
 30
0.0
 11
6533.074065544248
 21
1407.69474813831
 31
0.0
  0
LINE
  5
20516
330
204E4
100
AcDbEntity
  8
寸法
 62
     0
 48
50.0
370
    -2
100
AcDbLine
 10
6473.074065544247
 20
1607.694748138311
 30
0.0
 11
6473.074065544247
 21
1407.69474813831
 31
0.0
  0
INSERT
  5
20517
330
204E4
100
AcDbEntity
  8
寸法
 62
     0
 48
50.0
370
    -2
100
AcDbBlockReference
  2
_DOTSMALL
 10
6473.074065544247
 20
1607.694748138311
 30
0.0
 41
100.0
 42
100.0
 43
100.0
 50
90.0
  0
INSERT
  5
20518
330
204E4
100
AcDbEntity
  8
寸法
 62
     0
 48
50.0
370
    -2
100
AcDbBlockReference
  2
_DOTSMALL
 10
6473.074065544247
 20
1407.69474813831
 30
0.0
 41
100.0
 42
100.0
 43
100.0
 50
270.0
  0
MTEXT
  5
20519
330
204E4
100
AcDbEntity
  8
寸法
 62
     7
 48
50.0
100
AcDbMText
 10
6373.074065544248
 20
1507.694748138312
 30
0.0
 40
120.0
 41
0.0
 71
     5
 72
     1
  1
\A1;a
  7
STYLE1
 11
0.0000000000000001
 21
1.0
 31
0.0
 73
     1
 44
1.0
1001
ACAD
1000
MTEXTBEGIN
1070
    73
1070
     1
1070
    44
1040
1.0
1070
    74
1070
     0
1000
MTEXTEND
  0
POINT
  5
2051A
330
204E4
100
AcDbEntity
  8
DEFPOINTS
 62
     0
 48
50.0
100
AcDbPoint
 10
6225.003061183854
 20
1607.694748138311
 30
0.0
  0
POINT
  5
2051B
330
204E4
100
AcDbEntity
  8
DEFPOINTS
 62
     0
 48
50.0
100
AcDbPoint
 10
6225.003061183856
 20
1407.69474813831
 30
0.0
  0
POINT
  5
2051C
330
204E4
100
AcDbEntity
  8
DEFPOINTS
 62
     0
 48
50.0
100
AcDbPoint
 10
6473.074065544247
 20
1407.69474813831
 30
0.0
  0
ENDBLK
  5
204EF
330
204E4
100
AcDbEntity
  8
0
 48
50.0
100
AcDbBlockEnd
  0
ENDSEC
  0
SECTION
  2
ENTITIES
  0
LINE
  5
10B57
330
747D
100
AcDbEntity
  8
補助
  6
PHANTOM
 62
   230
 48
50.0
100
AcDbLine
 10
139.9999999999995
 20
11409.6
 30
0.0
 11
16307.2
 21
11409.6
 31
0.0
  0
LINE
  5
10B59
330
747D
100
AcDbEntity
  8
仕様書枠
  6
Continuous
 48
50.0
100
AcDbLine
 10
13107.2
 20
1200.0
 30
0.0
 11
13107.2
 21
-0.0000000000000729
 31
0.0
  0
LINE
  5
10B5C
330
747D
100
AcDbEntity
  8
仕様書枠
 48
50.0
100
AcDbLine
 10
16307.2
 20
1200.0
 30
0.0
 11
16307.2
 21
-0.0000000000000909
 31
0.0
  0
LINE
  5
10B5D
330
747D
100
AcDbEntity
  8
仕様書枠
 48
50.0
100
AcDbLine
 10
140.0
 20
0.0
 30
0.0
 11
16307.2
 21
-0.0000000000000909
 31
0.0
  0
LINE
  5
10B5E
330
747D
100
AcDbEntity
  8
補助
  6
PHANTOM
 62
   230
 48
50.0
100
AcDbLine
 10
16307.2
 20
11409.6
 30
0.0
 11
16307.2
 21
1200.0
 31
0.0
  0
LINE
  5
10B6C
330
747D
100
AcDbEntity
  8
仕様書枠
 48
50.0
100
AcDbLine
 10
13107.2
 20
1200.0
 30
0.0
 11
16307.2
 21
1200.0
 31
0.0
  0
LINE
  5
10B6D
330
747D
100
AcDbEntity
  8
補助
  6
PHANTOM
 62
   230
 48
50.0
100
AcDbLine
 10
13107.2
 20
11409.6
 30
0.0
 11
13107.2
 21
4800.0
 31
0.0
  0
LINE
  5
10B6F
330
747D
100
AcDbEntity
  8
補助
  6
PHANTOM
 62
   230
 48
50.0
100
AcDbLine
 10
13107.2
 20
4800.0
 30
0.0
 11
16307.2
 21
4800.0
 31
0.0
  0
LINE
  5
10B72
330
747D
100
AcDbEntity
  8
文字
 62
     7
 48
50.0
100
AcDbLine
 10
13187.2
 20
400.0
 30
0.0
 11
16227.2
 21
400.0
 31
0.0
  0
TEXT
  5
10B73
330
747D
100
AcDbEntity
  8
文字
 62
     7
 48
50.0
100
AcDbText
 10
13162.9790565769
 20
895.0906074299405
 30
0.0
 40
200.0
  1
基 礎 図
  7
STYLE2
100
AcDbText
  0
TEXT
  5
10B74
330
747D
100
AcDbEntity
  8
文字
 62
     7
 48
50.0
100
AcDbText
 10
13201.43669998441
 20
477.2740661031255
 30
0.0
 40
160.0
  1
機種名
  7
STYLE2
100
AcDbText
  0
TEXT
  5
10B79
330
747D
100
AcDbEntity
  8
文字
 62
     7
 48
50.0
100
AcDbText
 10
14524.131837222
 20
1031.557706291228
 30
0.0
 40
100.0
  1
NO.25      <縮尺> S=1/40
  7
STYLE2
100
AcDbText
  0
LINE
  5
10B7B
330
747D
100
AcDbEntity
  8
仕様書枠
 48
50.0
100
AcDbLine
 10
13107.2
 20
800.0
 30
0.0
 11
14251.2
 21
800.0
 31
0.0
  0
LINE
  5
10B88
330
747D
100
AcDbEntity
  8
仕様書枠
  6
Continuous
 48
50.0
100
AcDbLine
 10
14251.2
 20
1200.0
 30
0.0
 11
14251.2
 21
800.0
 31
0.0
  0
TEXT
  5
14DEF
330
747D
100
AcDbEntity
  8
文字
 62
     7
 48
50.0
100
AcDbText
 10
14641.2525855784
 20
871.1744590657925
 30
0.0
 40
100.0
  1
～一般型・多雪地型～
  7
STYLE2
100
AcDbText
  0
TEXT
  5
15A76
330
747D
100
AcDbEntity
  8
文字
 62
     7
 48
50.0
100
AcDbText
 10
14482.61482192223
 20
488.1241585855691
 30
0.0
 40
160.0
  1
ＮＸＮ－６５Ｓ・Ｈ
  7
STYLE2
100
AcDbText
  0
LINE
  5
1CAC7
330
747D
100
AcDbEntity
  8
部品1
 48
50.0
100
AcDbLine
 10
6389.717288768872
 20
7833.439287029055
 30
0.0
 11
5999.717288768872
 21
7833.439287029055
 31
0.0
  0
LINE
  5
1CAC8
330
747D
100
AcDbEntity
  8
部品1
 48
50.0
100
AcDbLine
 10
6389.717288768872
 20
7833.43928702905
 30
0.0
 11
5999.717288768872
 21
7833.439287029055
 31
0.0
  0
TEXT
  5
1D002
330
747D
100
AcDbEntity
  8
文字
 62
     7
 48
50.0
100
AcDbText
 10
13188.16259899338
 20
246.7109242801889
 30
0.0
 40
80.0
  1
※寒冷地等は地域の実情に合わせた基礎にして下さい。
  7
STYLE2
100
AcDbText
  0
DIMENSION
  5
1F702
330
747D
100
AcDbEntity
  8
寸法
 48
50.0
100
AcDbDimension
  2
*D11
 10
8252.717288768872
 20
8342.063524165016
 30
0.0
 11
7889.217288768872
 21
8442.075335188638
 31
0.0
 70
    32
 71
     5
 42
727.0
  3
INABA_S40G
100
AcDbAlignedDimension
 13
7525.717288768873
 23
7833.439287029055
 33
0.0
 14
8252.717288768872
 24
7833.43928702905
 34
0.0
100
AcDbRotatedDimension
1001
ACAD
1000
DSTYLE
1002
{
1070
   174
1070
     0
1070
   272
1070
     1
1070
   288
1070
     0
1070
   341
1005
0
1002
}
  0
LINE
  5
1F703
330
747D
100
AcDbEntity
  8
部品1
 48
50.0
100
AcDbLine
 10
8661.717288768873
 20
7643.439287029051
 30
0.0
 11
8661.717288768873
 21
7833.43928702905
 31
0.0
  0
LINE
  5
1F704
330
747D
100
AcDbEntity
  8
部品1
 48
50.0
100
AcDbLine
 10
8347.717288768855
 20
5621.43928702905
 30
0.0
 11
8157.717288768855
 21
5621.43928702905
 31
0.0
  0
LINE
  5
1F706
330
747D
100
AcDbEntity
  8
部品1
 48
50.0
100
AcDbLine
 10
8157.717288768855
 20
5621.439287029054
 30
0.0
 11
8157.717288768855
 21
5811.439287029054
 31
0.0
  0
LINE
  5
1F707
330
747D
100
AcDbEntity
  8
部品1
 48
50.0
100
AcDbLine
 10
8347.717288768855
 20
5621.439287029054
 30
0.0
 11
8347.717288768855
 21
5811.439287029054
 31
0.0
  0
LINE
  5
1F708
330
747D
100
AcDbEntity
  8
部品1
 48
50.0
100
AcDbLine
 10
9051.717288768871
 20
7643.439287029053
 30
0.0
 11
9051.717288768871
 21
7833.439287029055
 31
0.0
  0
LINE
  5
1F709
330
747D
100
AcDbEntity
  8
部品1
 48
50.0
100
AcDbLine
 10
8347.717288768873
 20
7833.43928702905
 30
0.0
 11
8157.717288768871
 21
7833.43928702905
 31
0.0
  0
LINE
  5
1F70B
330
747D
100
AcDbEntity
  8
部品1
 48
50.0
100
AcDbLine
 10
8157.717288768871
 20
7643.439287029053
 30
0.0
 11
8157.717288768871
 21
7833.439287029055
 31
0.0
  0
LINE
  5
1F70C
330
747D
100
AcDbEntity
  8
部品1
 48
50.0
100
AcDbLine
 10
8347.717288768873
 20
7643.439287029053
 30
0.0
 11
8347.717288768873
 21
7833.439287029055
 31
0.0
  0
TEXT
  5
1F715
330
747D
100
AcDbEntity
  8
文字
 48
50.0
100
AcDbText
 10
9578.867705001195
 20
7828.802816416988
 30
0.0
 40
120.0
  1
深サ:200
  7
STYLE1
100
AcDbText
  0
LEADER
  5
1F716
330
747D
100
AcDbEntity
  8
寸法
 48
50.0
100
AcDbLeader
  3
INABA_S50G
 71
     0
 73
     0
 74
     0
 75
     1
 40
120.0
 41
185.591883092037
 76
     3
 10
6219.72390494914
 20
7673.498751814058
 30
0.0
 10
6291.197650107177
 20
7399.570416121896
 30
0.0
 10
6416.197650107176
 20
7399.570416121896
 30
0.0
340
1F717
1001
ACAD
1000
DSTYLE
1002
{
1070
   341
1005
1C530
1070
    40
1040
1.0
1070
   343
1005
1C530
1070
   344
1005
1C530
1002
}
  0
MTEXT
  5
1F717
102
{ACAD_REACTORS
330
1F716
102
}
330
747D
100
AcDbEntity
  8
部品1
 62
     7
 48
50.0
100
AcDbMText
 10
6441.197650107176
 20
7484.570416121896
 30
0.0
 40
120.0
 41
0.0
 71
     4
 72
     1
  1
\A1;C.B
  7
STYLE1
 73
     1
 44
1.0
1001
ACAD
1000
MTEXTBEGIN
1070
    73
1070
     1
1070
    44
1040
1.0
1070
    74
1070
     0
1000
MTEXTEND
  0
TEXT
  5
1F718
330
747D
100
AcDbEntity
  8
文字
 48
50.0
100
AcDbText
 10
6302.256465242641
 20
7232.071816628274
 30
0.0
 40
120.0
  1
100x190x390
  7
STYLE1
100
AcDbText
  0
LEADER
  5
1F71B
330
747D
100
AcDbEntity
  8
寸法
 48
50.0
100
AcDbLeader
  3
INABA_S50G
 71
     0
 73
     0
 74
     0
 75
     1
 40
120.0
 41
1282.349242404918
 76
     3
 10
9141.441964093129
 20
7822.895926316971
 30
0.0
 10
9397.829175675546
 20
8019.239863933112
 30
0.0
 10
9522.829175675546
 20
8019.239863933112
 30
0.0
340
1F71C
1001
ACAD
1000
DSTYLE
1002
{
1070
   341
1005
1C530
1070
    40
1040
1.0
1070
   343
1005
1C530
1070
   344
1005
1C530
1002
}
  0
MTEXT
  5
1F71C
102
{ACAD_REACTORS
330
1F71B
102
}
330
747D
100
AcDbEntity
  8
部品1
 62
     7
 48
50.0
100
AcDbMText
 10
9547.829175675547
 20
8104.239863933111
 30
0.0
 40
120.0
 41
0.0
 71
     4
 72
     1
  1
現場打コンクリート
  7
STYLE1
 73
     1
 44
1.0
1001
ACAD
1000
MTEXTBEGIN
1070
    73
1070
     1
1070
    44
1040
1.0
1070
    74
1070
     0
1000
MTEXTEND
  0
TEXT
  5
1F71D
330
747D
100
AcDbEntity
  8
部品1
 48
50.0
100
AcDbText
 10
9555.953107770639
 20
8230.717452405189
 30
0.0
 40
120.0
  1
組立後
  7
STYLE1
100
AcDbText
  0
DIMENSION
  5
1F71E
330
747D
100
AcDbEntity
  8
寸法
 48
50.0
100
AcDbDimension
  2
*D2
 10
9051.717288768871
 20
8342.063524165016
 30
0.0
 11
8652.217288768872
 21
8442.063524165016
 31
0.0
 70
    32
 71
     5
 42
799.0
  3
INABA_S40G
100
AcDbAlignedDimension
 13
8252.717288768872
 23
7833.43928702905
 33
0.0
 14
9051.717288768871
 24
7833.439287029055
 34
0.0
100
AcDbRotatedDimension
1001
ACAD
1000
DSTYLE
1002
{
1070
   174
1070
     0
1070
   272
1070
     1
1070
   288
1070
     0
1070
   341
1005
0
1002
}
  0
DIMENSION
  5
1F71F
330
747D
100
AcDbEntity
  8
寸法
 48
50.0
100
AcDbDimension
  2
*D3
 10
5999.717288768872
 20
8342.063524165016
 30
0.0
 11
6399.217288768872
 21
8442.063524165016
 31
0.0
 70
    32
 71
     5
 42
799.0
  3
INABA_S40G
100
AcDbAlignedDimension
 13
6798.717288768873
 23
7833.439287029055
 33
0.0
 14
5999.717288768872
 24
7833.439287029055
 34
0.0
100
AcDbRotatedDimension
1001
ACAD
1000
DSTYLE
1002
{
1070
   174
1070
     0
1070
   272
1070
     1
1070
   288
1070
     0
1070
   341
1005
0
1002
}
  0
DIMENSION
  5
1F720
330
747D
100
AcDbEntity
  8
寸法
 48
50.0
100
AcDbDimension
  2
*D4
 10
7525.717288768873
 20
8342.063524165016
 30
0.0
 11
7162.217288768871
 21
8442.075335188638
 31
0.0
 70
    32
 71
     5
 42
727.0
  3
INABA_S40G
100
AcDbAlignedDimension
 13
6798.717288768873
 23
7833.439287029055
 33
0.0
 14
7525.717288768873
 24
7833.439287029055
 34
0.0
100
AcDbRotatedDimension
1001
ACAD
1000
DSTYLE
1002
{
1070
   174
1070
     0
1070
   272
1070
     1
1070
   288
1070
     0
1070
   341
1005
0
1002
}
  0
LINE
  5
1F721
330
747D
100
AcDbEntity
  8
部品1
 48
50.0
100
AcDbLine
 10
6893.717288768872
 20
7833.439287029055
 30
0.0
 11
6703.717288768872
 21
7833.439287029055
 31
0.0
  0
LINE
  5
1F723
330
747D
100
AcDbEntity
  8
部品1
 48
50.0
100
AcDbLine
 10
6703.717288768872
 20
7643.439287029058
 30
0.0
 11
6703.717288768872
 21
7833.439287029057
 31
0.0
  0
LINE
  5
1F724
330
747D
100
AcDbEntity
  8
部品1
 48
50.0
100
AcDbLine
 10
6893.717288768872
 20
7643.439287029058
 30
0.0
 11
6893.717288768872
 21
7833.439287029057
 31
0.0
  0
LINE
  5
1F725
330
747D
100
AcDbEntity
  8
部品1
 48
50.0
100
AcDbLine
 10
6893.717288768856
 20
5621.439287029054
 30
0.0
 11
6703.717288768856
 21
5621.439287029054
 31
0.0
  0
LINE
  5
1F727
330
747D
100
AcDbEntity
  8
部品1
 48
50.0
100
AcDbLine
 10
6703.717288768856
 20
5621.439287029057
 30
0.0
 11
6703.717288768856
 21
5811.439287029058
 31
0.0
  0
LINE
  5
1F728
330
747D
100
AcDbEntity
  8
部品1
 48
50.0
100
AcDbLine
 10
6893.717288768856
 20
5621.439287029057
 30
0.0
 11
6893.717288768856
 21
5811.439287029058
 31
0.0
  0
LINE
  5
1F729
330
747D
100
AcDbEntity
  8
想像線
 48
10.0
100
AcDbLine
 10
5949.717288768855
 20
5564.439287029053
 30
0.0
 11
5952.717288768855
 21
5561.439287029054
 31
0.0
  0
LINE
  5
1F72A
330
747D
100
AcDbEntity
  8
想像線
 48
10.0
100
AcDbLine
 10
5952.717288768872
 20
7913.439287029053
 30
0.0
 11
5949.717288768872
 21
7910.439287029054
 31
0.0
  0
TEXT
  5
1F72B
330
747D
100
AcDbEntity
  8
部品1
 48
50.0
100
AcDbText
 10
7397.904068427571
 20
5402.972674835486
 30
0.0
 40
120.0
  1
扉面
  7
STYLE1
 72
     1
 11
7525.904068427571
 21
5386.972674835487
 31
0.0
100
AcDbText
 73
     1
  0
LINE
  5
1F72C
330
747D
100
AcDbEntity
  8
部品1
 48
50.0
100
AcDbLine
 10
9051.717288768871
 20
7643.439287029058
 30
0.0
 11
9051.717288768871
 21
7833.439287029057
 31
0.0
  0
LINE
  5
1F72D
330
747D
100
AcDbEntity
  8
部品1
 48
50.0
100
AcDbLine
 10
8661.717288768873
 20
7643.439287029053
 30
0.0
 11
9051.717288768871
 21
7643.439287029053
 31
0.0
  0
LINE
  5
1F72E
330
747D
100
AcDbEntity
  8
部品1
 48
50.0
100
AcDbLine
 10
8661.717288768873
 20
7833.439287029055
 30
0.0
 11
9051.717288768871
 21
7833.439287029055
 31
0.0
  0
LINE
  5
1F72F
330
747D
100
AcDbEntity
  8
部品1
 48
50.0
100
AcDbLine
 10
8661.717288768873
 20
7833.43928702905
 30
0.0
 11
9051.717288768871
 21
7833.439287029055
 31
0.0
  0
DIMENSION
  5
1F730
330
747D
100
AcDbEntity
  8
寸法
 48
50.0
100
AcDbDimension
  2
*D5
 10
9101.717288768872
 20
8599.990912831076
 30
0.0
 11
9076.717288768872
 21
8599.990912831076
 31
0.0
 70
   160
  1
a
 71
     5
 42
50.0
  3
INABA_S40G
100
AcDbAlignedDimension
 13
9051.717288768871
 23
7833.439287029055
 33
0.0
 14
9101.717288768872
 24
7913.439287029058
 34
0.0
100
AcDbRotatedDimension
1001
ACAD
1000
DSTYLE
1002
{
1070
   174
1070
     0
1070
   272
1070
     1
1070
   288
1070
     0
1070
   341
1005
0
1002
}
  0
LINE
  5
1F731
330
747D
100
AcDbEntity
  8
部品1
 48
50.0
100
AcDbLine
 10
9051.717288768855
 20
5811.439287029054
 30
0.0
 11
9051.717288768855
 21
5621.439287029054
 31
0.0
  0
LINE
  5
1F732
330
747D
100
AcDbEntity
  8
部品1
 48
50.0
100
AcDbLine
 10
8661.717288768855
 20
5811.439287029054
 30
0.0
 11
8661.717288768855
 21
5621.439287029054
 31
0.0
  0
LINE
  5
1F733
330
747D
100
AcDbEntity
  8
部品1
 48
50.0
100
AcDbLine
 10
8661.717288768855
 20
5621.439287029057
 30
0.0
 11
9051.717288768855
 21
5621.439287029054
 31
0.0
  0
LINE
  5
1F734
330
747D
100
AcDbEntity
  8
部品1
 48
50.0
100
AcDbLine
 10
8661.717288768855
 20
5621.439287029054
 30
0.0
 11
9051.717288768855
 21
5621.439287029054
 31
0.0
  0
LINE
  5
1F735
330
747D
100
AcDbEntity
  8
部品1
 48
50.0
100
AcDbLine
 10
8661.717288768855
 20
5811.439287029054
 30
0.0
 11
9051.717288768855
 21
5811.439287029054
 31
0.0
  0
LINE
  5
1F736
330
747D
100
AcDbEntity
  8
想像線
 48
10.0
100
AcDbLine
 10
9101.717288768876
 20
7913.473462048924
 30
0.0
 11
9101.717288768856
 21
5561.43928702905
 31
0.0
  0
LINE
  5
1F737
330
747D
100
AcDbEntity
  8
部品1
 48
50.0
100
AcDbLine
 10
6389.717288768872
 20
7643.439287029053
 30
0.0
 11
6389.717288768872
 21
7833.439287029055
 31
0.0
  0
DIMENSION
  5
1F739
330
747D
100
AcDbEntity
  8
寸法
 48
50.0
100
AcDbDimension
  2
*D6
 10
5999.717288768872
 20
8599.990912831076
 30
0.0
 11
5974.717288768871
 21
8599.990912831076
 31
0.0
 70
   160
  1
a
 71
     5
 42
50.0
  3
INABA_S40G
100
AcDbAlignedDimension
 13
5949.717288768872
 23
7913.439287029054
 33
0.0
 14
5999.717288768872
 24
7833.439287029055
 34
0.0
100
AcDbRotatedDimension
1001
ACAD
1000
DSTYLE
1002
{
1070
   174
1070
     0
1070
   272
1070
     1
1070
   288
1070
     0
1070
   341
1005
0
1002
}
  0
LINE
  5
1F73A
330
747D
100
AcDbEntity
  8
部品1
 48
50.0
100
AcDbLine
 10
6389.717288768872
 20
7643.439287029053
 30
0.0
 11
5999.717288768872
 21
7643.439287029053
 31
0.0
  0
LINE
  5
1F73B
330
747D
100
AcDbEntity
  8
部品1
 48
50.0
100
AcDbLine
 10
6389.717288768872
 20
7833.43928702905
 30
0.0
 11
5999.717288768872
 21
7833.439287029055
 31
0.0
  0
LINE
  5
1F73C
330
747D
100
AcDbEntity
  8
部品1
 48
50.0
100
AcDbLine
 10
6389.717288768872
 20
7833.439287029055
 30
0.0
 11
5999.717288768872
 21
7833.439287029055
 31
0.0
  0
LINE
  5
1F73D
330
747D
100
AcDbEntity
  8
部品1
 48
50.0
100
AcDbLine
 10
6389.717288768856
 20
5811.439287029054
 30
0.0
 11
6389.717288768856
 21
5621.439287029054
 31
0.0
  0
LINE
  5
1F73F
330
747D
100
AcDbEntity
  8
部品1
 48
50.0
100
AcDbLine
 10
6389.717288768856
 20
5811.439287029054
 30
0.0
 11
5999.717288768856
 21
5811.439287029054
 31
0.0
  0
LINE
  5
1F742
330
747D
100
AcDbEntity
  8
想像線
 48
10.0
100
AcDbLine
 10
5949.717288768855
 20
5564.439287029053
 30
0.0
 11
5949.717288768872
 21
7910.439287029054
 31
0.0
  0
DIMENSION
  5
1F743
330
747D
100
AcDbEntity
  8
寸法
 48
50.0
100
AcDbDimension
  2
*D7
 10
5559.005405319622
 20
7833.439287029055
 30
0.0
 11
5559.005405319621
 21
7873.439287029055
 31
0.0
 70
   160
  1
c
 71
     5
 42
80.0
  3
INABA_S40G
100
AcDbAlignedDimension
 13
5949.717288768872
 23
7913.439287029054
 33
0.0
 14
5999.717288768872
 24
7833.439287029055
 34
0.0
 50
90.0
100
AcDbRotatedDimension
1001
ACAD
1000
DSTYLE
1002
{
1070
   174
1070
     0
1070
   272
1070
     1
1070
   288
1070
     0
1070
   341
1005
0
1002
}
  0
DIMENSION
  5
1F744
330
747D
100
AcDbEntity
  8
寸法
 48
50.0
100
AcDbDimension
  2
*D8
 10
5559.005405319624
 20
5621.439287029054
 30
0.0
 11
5559.005405319624
 21
6727.439287029054
 31
0.0
 70
   160
 71
     5
 42
2212.0
  3
INABA_S40G
100
AcDbAlignedDimension
 13
5999.717288768872
 23
7833.439287029055
 33
0.0
 14
5999.717288768856
 24
5621.439287029054
 34
0.0
 50
90.0
100
AcDbRotatedDimension
1001
ACAD
1000
DSTYLE
1002
{
1070
   174
1070
     0
1070
   272
1070
     1
1070
   288
1070
     0
1070
   341
1005
0
1002
}
  0
DIMENSION
  5
1F745
330
747D
100
AcDbEntity
  8
寸法
 48
50.0
100
AcDbDimension
  2
*D9
 10
5559.005405319606
 20
5561.439287029054
 30
0.0
 11
5559.005405319605
 21
5591.439287029055
 31
0.0
 70
   160
  1
b
 71
     5
 42
60.0
  3
INABA_S40G
100
AcDbAlignedDimension
 13
5999.717288768856
 23
5621.439287029054
 33
0.0
 14
5949.717288768855
 24
5561.439287029054
 34
0.0
 50
90.0
100
AcDbRotatedDimension
1001
ACAD
1000
DSTYLE
1002
{
1070
   174
1070
     0
1070
   272
1070
     1
1070
   288
1070
     0
1070
   341
1005
0
1002
}
  0
LINE
  5
1F746
330
747D
100
AcDbEntity
  8
想像線
 48
10.0
100
AcDbLine
 10
5952.717288768872
 20
7913.439287029053
 30
0.0
 11
9101.717288768876
 21
7913.439287029058
 31
0.0
  0
LINE
  5
1F747
330
747D
100
AcDbEntity
  8
想像線
 48
10.0
100
AcDbLine
 10
9101.717288768856
 20
5561.43928702905
 30
0.0
 11
5952.717288768855
 21
5561.439287029054
 31
0.0
  0
DIMENSION
  5
1F748
330
747D
100
AcDbEntity
  8
寸法
 48
50.0
100
AcDbDimension
  2
*D10
 10
9051.717288768871
 20
8599.990912831076
 30
0.0
 11
7525.717288768873
 21
8599.990912831076
 31
0.0
 70
   160
 71
     5
 42
3052.0
  3
INABA_S40G
100
AcDbAlignedDimension
 13
5999.717288768872
 23
7833.439287029055
 33
0.0
 14
9051.717288768871
 24
7833.439287029055
 34
0.0
100
AcDbRotatedDimension
1001
ACAD
1000
DSTYLE
1002
{
1070
   174
1070
     0
1070
   272
1070
     1
1070
   288
1070
     0
1070
   341
1005
0
1002
}
  0
LEADER
  5
1F749
330
747D
100
AcDbEntity
  8
寸法
 48
50.0
100
AcDbLeader
  3
INABA_S50G
 71
     0
 73
     0
 74
     0
 75
     1
 40
120.0
 41
672.0
 76
     3
 10
6184.614214039799
 20
5561.439287029054
 30
0.0
 10
6432.851400644292
 20
5181.421895069263
 30
0.0
 10
6557.851400644292
 20
5181.421895069263
 30
0.0
340
1F74A
1001
ACAD
1000
DSTYLE
1002
{
1070
   341
1005
1C530
1070
    40
1040
1.0
1070
   343
1005
1C530
1070
   344
1005
1C530
1002
}
  0
MTEXT
  5
1F74A
102
{ACAD_REACTORS
330
1F749
102
}
330
747D
100
AcDbEntity
  8
部品1
 62
     7
 48
50.0
100
AcDbMText
 10
7254.851400644291
 20
5266.421895069263
 30
0.0
 40
120.0
 41
0.0
 71
     6
 72
     1
  1
\A1;屋根の外寸
  7
STYLE1
 73
     1
 44
1.0
1001
ACAD
1000
MTEXTBEGIN
1070
    73
1070
     1
1070
    44
1040
1.0
1070
    74
1070
     0
1000
MTEXTEND
  0
TEXT
  5
1F74B
330
747D
100
AcDbEntity
  8
部品1
 48
50.0
100
AcDbText
 10
6388.681310467521
 20
5054.753994869798
 30
0.0
 40
80.0
  1
※a,b,cは屋根の出幅です。
  7
STYLE1
100
AcDbText
  0
TEXT
  5
1F74C
330
747D
100
AcDbEntity
  8
部品1
 48
50.0
100
AcDbText
 10
6502.381551193471
 20
4921.197468783854
 30
0.0
 40
80.0
  1
(a=50,b=60,c=80)
  7
STYLE1
100
AcDbText
  0
DIMENSION
  5
1F98A
330
747D
100
AcDbEntity
  8
寸法
 48
50.0
100
AcDbDimension
  2
*D12
 10
9440.782436285065
 20
5521.439287029053
 30
0.0
 11
9440.782436285063
 21
5621.439287029054
 31
0.0
 70
   160
 71
     5
 42
200.0
  3
INABA_S40G
100
AcDbAlignedDimension
 13
9151.717288768855
 23
5721.439287029053
 33
0.0
 14
9151.717288768855
 24
5521.439287029053
 34
0.0
 50
90.0
100
AcDbRotatedDimension
1001
ACAD
1000
DSTYLE
1002
{
1070
   174
1070
     0
1070
   272
1070
     1
1070
   288
1070
     0
1070
   341
1005
0
1002
}
  0
DIMENSION
  5
1F98B
330
747D
100
AcDbEntity
  8
寸法
 48
50.0
100
AcDbDimension
  2
*D13
 10
8951.717288768856
 20
5268.11380208359
 30
0.0
 11
9051.717288768855
 21
5268.11380208359
 31
0.0
 70
   160
 71
     5
 42
200.0
  3
INABA_S40G
100
AcDbAlignedDimension
 13
9151.717288768855
 23
5521.439287029053
 33
0.0
 14
8951.717288768856
 24
5521.439287029053
 34
0.0
100
AcDbRotatedDimension
1001
ACAD
1000
DSTYLE
1002
{
1070
   174
1070
     0
1070
   272
1070
     1
1070
   288
1070
     0
1070
   341
1005
0
1002
}
  0
LINE
  5
1F9DD
330
747D
100
AcDbEntity
  8
部品1
 48
50.0
100
AcDbLine
 10
6703.717288768856
 20
6011.439287029058
 30
0.0
 11
6893.717288768856
 21
6011.439287029058
 31
0.0
  0
LINE
  5
1F9DE
330
747D
100
AcDbEntity
  8
部品1
 48
50.0
100
AcDbLine
 10
6703.717288768856
 20
5621.439287029057
 30
0.0
 11
6893.717288768856
 21
5621.439287029057
 31
0.0
  0
LINE
  5
1F9DF
330
747D
100
AcDbEntity
  8
部品1
 48
50.0
100
AcDbLine
 10
6703.717288768856
 20
6011.439287029058
 30
0.0
 11
6703.717288768856
 21
5621.439287029057
 31
0.0
  0
LINE
  5
1F9E0
330
747D
100
AcDbEntity
  8
部品1
 48
50.0
100
AcDbLine
 10
6893.717288768856
 20
6011.439287029058
 30
0.0
 11
6893.717288768856
 21
5621.439287029057
 31
0.0
  0
LINE
  5
1F9E1
330
747D
100
AcDbEntity
  8
部品1
 48
50.0
100
AcDbLine
 10
6893.717288768852
 20
6011.439287029058
 30
0.0
 11
6893.717288768856
 21
5621.439287029057
 31
0.0
  0
LINE
  5
1F9E2
330
747D
100
AcDbEntity
  8
部品1
 48
50.0
100
AcDbLine
 10
6893.717288768856
 20
6011.439287029058
 30
0.0
 11
6893.717288768856
 21
5621.439287029057
 31
0.0
  0
LINE
  5
1F9E3
330
747D
100
AcDbEntity
  8
部品1
 48
50.0
100
AcDbLine
 10
6703.717288768856
 20
5811.439287029058
 30
0.0
 11
6703.717288768856
 21
5621.439287029057
 31
0.0
  0
LINE
  5
1F9E4
330
747D
100
AcDbEntity
  8
部品1
 48
50.0
100
AcDbLine
 10
8157.717288768855
 20
6011.439287029054
 30
0.0
 11
8347.717288768855
 21
6011.439287029054
 31
0.0
  0
LINE
  5
1F9E5
330
747D
100
AcDbEntity
  8
部品1
 48
50.0
100
AcDbLine
 10
8157.717288768855
 20
5621.439287029054
 30
0.0
 11
8347.717288768855
 21
5621.439287029054
 31
0.0
  0
LINE
  5
1F9E6
330
747D
100
AcDbEntity
  8
部品1
 48
50.0
100
AcDbLine
 10
8157.717288768855
 20
6011.439287029054
 30
0.0
 11
8157.717288768855
 21
5621.439287029054
 31
0.0
  0
LINE
  5
1F9E7
330
747D
100
AcDbEntity
  8
部品1
 48
50.0
100
AcDbLine
 10
8347.717288768855
 20
6011.439287029054
 30
0.0
 11
8347.717288768855
 21
5621.439287029054
 31
0.0
  0
LINE
  5
1F9E8
330
747D
100
AcDbEntity
  8
部品1
 48
50.0
100
AcDbLine
 10
8347.717288768853
 20
6011.439287029054
 30
0.0
 11
8347.717288768855
 21
5621.439287029054
 31
0.0
  0
LINE
  5
1F9E9
330
747D
100
AcDbEntity
  8
部品1
 48
50.0
100
AcDbLine
 10
8347.717288768855
 20
6011.439287029054
 30
0.0
 11
8347.717288768855
 21
5621.439287029054
 31
0.0
  0
LINE
  5
1F9EA
330
747D
100
AcDbEntity
  8
部品1
 48
50.0
100
AcDbLine
 10
8157.717288768855
 20
5811.439287029054
 30
0.0
 11
8157.717288768855
 21
5621.439287029054
 31
0.0
  0
LINE
  5
1F9EB
330
747D
100
AcDbEntity
  8
部品1
 48
50.0
100
AcDbLine
 10
8347.717288768855
 20
5621.43928702905
 30
0.0
 11
8157.717288768855
 21
5621.43928702905
 31
0.0
  0
LINE
  5
1F9ED
330
747D
100
AcDbEntity
  8
部品1
 48
50.0
100
AcDbLine
 10
8157.717288768855
 20
5621.439287029054
 30
0.0
 11
8157.717288768855
 21
5811.439287029054
 31
0.0
  0
LINE
  5
1F9EE
330
747D
100
AcDbEntity
  8
部品1
 48
50.0
100
AcDbLine
 10
8347.717288768855
 20
5621.439287029054
 30
0.0
 11
8347.717288768855
 21
5811.439287029054
 31
0.0
  0
LINE
  5
1F9EF
330
747D
100
AcDbEntity
  8
寸法
 62
     0
 48
50.0
100
AcDbLine
 10
5999.717288768856
 20
5811.439287029054
 30
0.0
 11
5999.717288768856
 21
5621.439287029054
 31
0.0
  0
LINE
  5
1F9F0
330
747D
100
AcDbEntity
  8
部品1
 48
50.0
100
AcDbLine
 10
8347.717288768873
 20
7443.43928702905
 30
0.0
 11
8347.717288768873
 21
7633.43928702905
 31
0.0
  0
LINE
  5
1F9F1
330
747D
100
AcDbEntity
  8
部品1
 48
50.0
100
AcDbLine
 10
8157.717288768871
 20
7443.43928702905
 30
0.0
 11
8157.717288768871
 21
7633.43928702905
 31
0.0
  0
LINE
  5
1F9F3
330
747D
100
AcDbEntity
  8
部品1
 48
50.0
100
AcDbLine
 10
8347.717288768873
 20
7443.439287029047
 30
0.0
 11
8157.717288768871
 21
7443.439287029047
 31
0.0
  0
LINE
  5
1F9F4
330
747D
100
AcDbEntity
  8
部品1
 48
50.0
100
AcDbLine
 10
8157.717288768871
 20
7633.43928702905
 30
0.0
 11
8157.717288768871
 21
7443.43928702905
 31
0.0
  0
LINE
  5
1F9F5
330
747D
100
AcDbEntity
  8
部品1
 48
50.0
100
AcDbLine
 10
8347.717288768873
 20
7833.43928702905
 30
0.0
 11
8347.717288768873
 21
7443.43928702905
 31
0.0
  0
LINE
  5
1F9F6
330
747D
100
AcDbEntity
  8
部品1
 48
50.0
100
AcDbLine
 10
8347.717288768867
 20
7833.43928702905
 30
0.0
 11
8347.717288768873
 21
7443.43928702905
 31
0.0
  0
LINE
  5
1F9F7
330
747D
100
AcDbEntity
  8
部品1
 48
50.0
100
AcDbLine
 10
8347.717288768873
 20
7833.43928702905
 30
0.0
 11
8347.717288768873
 21
7443.43928702905
 31
0.0
  0
LINE
  5
1F9F8
330
747D
100
AcDbEntity
  8
部品1
 48
50.0
100
AcDbLine
 10
8157.717288768871
 20
7833.43928702905
 30
0.0
 11
8157.717288768871
 21
7443.43928702905
 31
0.0
  0
LINE
  5
1F9F9
330
747D
100
AcDbEntity
  8
部品1
 48
50.0
100
AcDbLine
 10
8157.717288768871
 20
7443.43928702905
 30
0.0
 11
8347.717288768873
 21
7443.43928702905
 31
0.0
  0
LINE
  5
1F9FA
330
747D
100
AcDbEntity
  8
部品1
 48
50.0
100
AcDbLine
 10
8157.717288768871
 20
7833.43928702905
 30
0.0
 11
8347.717288768873
 21
7833.43928702905
 31
0.0
  0
LINE
  5
1F9FB
330
747D
100
AcDbEntity
  8
部品1
 48
50.0
100
AcDbLine
 10
6893.717288768872
 20
7833.439287029055
 30
0.0
 11
6893.717288768872
 21
7443.439287029054
 31
0.0
  0
LINE
  5
1F9FC
330
747D
100
AcDbEntity
  8
部品1
 48
50.0
100
AcDbLine
 10
6893.717288768868
 20
7833.439287029055
 30
0.0
 11
6893.717288768872
 21
7443.439287029054
 31
0.0
  0
LINE
  5
1F9FD
330
747D
100
AcDbEntity
  8
部品1
 48
50.0
100
AcDbLine
 10
6893.717288768872
 20
7833.439287029055
 30
0.0
 11
6893.717288768872
 21
7443.439287029054
 31
0.0
  0
LINE
  5
1F9FE
330
747D
100
AcDbEntity
  8
部品1
 48
50.0
100
AcDbLine
 10
6703.717288768872
 20
7443.439287029054
 30
0.0
 11
6893.717288768872
 21
7443.439287029054
 31
0.0
  0
LINE
  5
1F9FF
330
747D
100
AcDbEntity
  8
部品1
 48
50.0
100
AcDbLine
 10
6703.717288768872
 20
7833.439287029055
 30
0.0
 11
6893.717288768872
 21
7833.439287029055
 31
0.0
  0
LINE
  5
1FA07
330
747D
100
AcDbEntity
  8
部品1
 48
50.0
100
AcDbLine
 10
6893.717288768872
 20
7443.439287029054
 30
0.0
 11
6893.717288768872
 21
7633.439287029054
 31
0.0
  0
LINE
  5
1FA09
330
747D
100
AcDbEntity
  8
部品1
 48
50.0
100
AcDbLine
 10
6893.717288768872
 20
7443.43928702905
 30
0.0
 11
6703.717288768872
 21
7443.43928702905
 31
0.0
  0
LINE
  5
1FA0E
330
747D
100
AcDbEntity
  8
部品1
 48
50.0
100
AcDbLine
 10
8347.717288768873
 20
7443.43928702905
 30
0.0
 11
8347.717288768873
 21
7633.43928702905
 31
0.0
  0
LINE
  5
1FA0F
330
747D
100
AcDbEntity
  8
部品1
 48
50.0
100
AcDbLine
 10
8157.717288768871
 20
7443.43928702905
 30
0.0
 11
8157.717288768871
 21
7633.43928702905
 31
0.0
  0
LINE
  5
1FA11
330
747D
100
AcDbEntity
  8
部品1
 48
50.0
100
AcDbLine
 10
8347.717288768873
 20
7443.439287029047
 30
0.0
 11
8157.717288768871
 21
7443.439287029047
 31
0.0
  0
LINE
  5
1FA12
330
747D
100
AcDbEntity
  8
部品1
 48
50.0
100
AcDbLine
 10
6703.717288768872
 20
7833.439287029055
 30
0.0
 11
6703.717288768872
 21
7443.439287029054
 31
0.0
  0
LINE
  5
1FB3A
102
{ACAD_REACTORS
330
1FC8E
102
}
330
747D
100
AcDbEntity
  8
点線
 48
10.0
100
AcDbLine
 10
8951.717288768856
 20
5721.439287029054
 30
0.0
 11
9151.717288768855
 21
5721.439287029053
 31
0.0
  0
LINE
  5
1FB3B
102
{ACAD_REACTORS
330
1FC8E
102
}
330
747D
100
AcDbEntity
  8
点線
 48
10.0
100
AcDbLine
 10
8951.717288768856
 20
5721.439287029054
 30
0.0
 11
8951.717288768856
 21
5521.439287029053
 31
0.0
  0
LINE
  5
1FB3C
102
{ACAD_REACTORS
330
1FC8E
102
}
330
747D
100
AcDbEntity
  8
点線
 48
10.0
100
AcDbLine
 10
8951.717288768856
 20
5521.439287029053
 30
0.0
 11
9151.717288768855
 21
5521.439287029053
 31
0.0
  0
LINE
  5
1FB3D
102
{ACAD_REACTORS
330
1FC8E
102
}
330
747D
100
AcDbEntity
  8
点線
 48
10.0
100
AcDbLine
 10
9151.717288768855
 20
5721.439287029053
 30
0.0
 11
9151.717288768855
 21
5521.439287029053
 31
0.0
  0
LINE
  5
1FB72
330
747D
100
AcDbEntity
  8
部品1
 48
50.0
100
AcDbLine
 10
6389.717288768872
 20
7833.439287029055
 30
0.0
 11
5999.717288768872
 21
7833.439287029055
 31
0.0
  0
LINE
  5
1FCB3
330
747D
100
AcDbEntity
  8
部品1
 48
50.0
100
AcDbLine
 10
6389.717288768872
 20
7833.439287029055
 30
0.0
 11
5999.717288768872
 21
7833.439287029055
 31
0.0
  0
LINE
  5
1FCB4
330
747D
100
AcDbEntity
  8
部品1
 48
50.0
100
AcDbLine
 10
6389.717288768872
 20
7833.43928702905
 30
0.0
 11
5999.717288768872
 21
7833.439287029055
 31
0.0
  0
LINE
  5
1FD3E
102
{ACAD_REACTORS
330
1FD42
102
}
330
747D
100
AcDbEntity
  8
点線
 48
10.0
100
AcDbLine
 10
8951.717288768872
 20
7733.439287029053
 30
0.0
 11
9151.717288768871
 21
7733.439287029053
 31
0.0
  0
LINE
  5
1FD3F
102
{ACAD_REACTORS
330
1FD42
102
}
330
747D
100
AcDbEntity
  8
点線
 48
10.0
100
AcDbLine
 10
8951.717288768872
 20
7933.439287029054
 30
0.0
 11
8951.717288768872
 21
7733.439287029053
 31
0.0
  0
LINE
  5
1FD40
102
{ACAD_REACTORS
330
1FD42
102
}
330
747D
100
AcDbEntity
  8
点線
 48
10.0
100
AcDbLine
 10
8951.717288768872
 20
7933.439287029054
 30
0.0
 11
9151.717288768869
 21
7933.439287029052
 31
0.0
  0
LINE
  5
1FD41
102
{ACAD_REACTORS
330
1FD42
102
}
330
747D
100
AcDbEntity
  8
点線
 48
10.0
100
AcDbLine
 10
9151.717288768869
 20
7933.439287029052
 30
0.0
 11
9151.717288768871
 21
7733.439287029053
 31
0.0
  0
LINE
  5
1FD43
102
{ACAD_REACTORS
330
1FD47
102
}
330
747D
100
AcDbEntity
  8
点線
 48
10.0
100
AcDbLine
 10
5899.717288768872
 20
7733.439287029053
 30
0.0
 11
6099.717288768871
 21
7733.439287029053
 31
0.0
  0
LINE
  5
1FD44
102
{ACAD_REACTORS
330
1FD47
102
}
330
747D
100
AcDbEntity
  8
点線
 48
10.0
100
AcDbLine
 10
5899.717288768872
 20
7933.439287029054
 30
0.0
 11
5899.717288768872
 21
7733.439287029053
 31
0.0
  0
LINE
  5
1FD45
102
{ACAD_REACTORS
330
1FD47
102
}
330
747D
100
AcDbEntity
  8
点線
 48
10.0
100
AcDbLine
 10
5899.717288768872
 20
7933.439287029054
 30
0.0
 11
6099.717288768871
 21
7933.439287029052
 31
0.0
  0
LINE
  5
1FD46
102
{ACAD_REACTORS
330
1FD47
102
}
330
747D
100
AcDbEntity
  8
点線
 48
10.0
100
AcDbLine
 10
6099.717288768871
 20
7933.439287029052
 30
0.0
 11
6099.717288768871
 21
7733.439287029053
 31
0.0
  0
LINE
  5
1FD48
102
{ACAD_REACTORS
330
1FD4C
102
}
330
747D
100
AcDbEntity
  8
点線
 48
10.0
100
AcDbLine
 10
5899.717288768855
 20
5521.439287029053
 30
0.0
 11
6099.717288768855
 21
5521.439287029053
 31
0.0
  0
LINE
  5
1FD49
102
{ACAD_REACTORS
330
1FD4C
102
}
330
747D
100
AcDbEntity
  8
点線
 48
10.0
100
AcDbLine
 10
5899.717288768855
 20
5721.439287029054
 30
0.0
 11
5899.717288768855
 21
5521.439287029053
 31
0.0
  0
LINE
  5
1FD4A
102
{ACAD_REACTORS
330
1FD4C
102
}
330
747D
100
AcDbEntity
  8
点線
 48
10.0
100
AcDbLine
 10
5899.717288768855
 20
5721.439287029054
 30
0.0
 11
6099.717288768854
 21
5721.439287029053
 31
0.0
  0
LINE
  5
1FD4B
102
{ACAD_REACTORS
330
1FD4C
102
}
330
747D
100
AcDbEntity
  8
点線
 48
10.0
100
AcDbLine
 10
6099.717288768854
 20
5721.439287029053
 30
0.0
 11
6099.717288768855
 21
5521.439287029053
 31
0.0
  0
LINE
  5
1FFE4
330
747D
100
AcDbEntity
  8
部品1
 48
50.0
100
AcDbLine
 10
6389.717288768872
 20
7833.439287029055
 30
0.0
 11
5999.717288768872
 21
7833.439287029055
 31
0.0
  0
LINE
  5
200C8
330
747D
100
AcDbEntity
  8
部品1
 48
50.0
100
AcDbLine
 10
6189.717288768873
 20
6632.439287029054
 30
0.0
 11
6189.717288768874
 21
6822.439287029054
 31
0.0
  0
LINE
  5
200C9
330
747D
100
AcDbEntity
  8
部品1
 48
50.0
100
AcDbLine
 10
6189.717288768874
 20
6822.439287029054
 30
0.0
 11
5999.717288768874
 21
6822.439287029053
 31
0.0
  0
LINE
  5
200CA
330
747D
100
AcDbEntity
  8
部品1
 48
50.0
100
AcDbLine
 10
5999.717288768874
 20
6632.439287029054
 30
0.0
 11
5999.717288768874
 21
6822.439287029054
 31
0.0
  0
LINE
  5
200CB
330
747D
100
AcDbEntity
  8
部品1
 48
50.0
100
AcDbLine
 10
6189.717288768873
 20
6632.439287029054
 30
0.0
 11
5999.717288768874
 21
6632.439287029054
 31
0.0
  0
LINE
  5
200D6
330
747D
100
AcDbEntity
  8
部品1
 48
50.0
100
AcDbLine
 10
6893.717288768863
 20
6907.439287029048
 30
0.0
 11
6893.717288768865
 21
7097.43928702905
 31
0.0
  0
LINE
  5
200D7
330
747D
100
AcDbEntity
  8
部品1
 48
50.0
100
AcDbLine
 10
6893.717288768865
 20
7097.43928702905
 30
0.0
 11
6703.717288768863
 21
7097.439287029049
 31
0.0
  0
LINE
  5
200D8
330
747D
100
AcDbEntity
  8
部品1
 48
50.0
100
AcDbLine
 10
6703.717288768864
 20
6907.439287029049
 30
0.0
 11
6703.717288768864
 21
7097.43928702905
 31
0.0
  0
LINE
  5
200D9
330
747D
100
AcDbEntity
  8
部品1
 48
50.0
100
AcDbLine
 10
6893.717288768863
 20
6907.439287029048
 30
0.0
 11
6703.717288768864
 21
6907.439287029049
 31
0.0
  0
LINE
  5
200DE
330
747D
100
AcDbEntity
  8
部品1
 48
50.0
100
AcDbLine
 10
7620.717288768869
 20
6907.439287029053
 30
0.0
 11
7620.71728876887
 21
7097.439287029053
 31
0.0
  0
LINE
  5
200DF
330
747D
100
AcDbEntity
  8
部品1
 48
50.0
100
AcDbLine
 10
7620.71728876887
 20
7097.439287029053
 30
0.0
 11
7430.717288768867
 21
7097.439287029053
 31
0.0
  0
LINE
  5
200E0
330
747D
100
AcDbEntity
  8
部品1
 48
50.0
100
AcDbLine
 10
7430.717288768871
 20
6907.439287029053
 30
0.0
 11
7430.717288768871
 21
7097.439287029053
 31
0.0
  0
LINE
  5
200E1
330
747D
100
AcDbEntity
  8
部品1
 48
50.0
100
AcDbLine
 10
7620.717288768869
 20
6907.439287029053
 30
0.0
 11
7430.717288768871
 21
6907.439287029053
 31
0.0
  0
LINE
  5
200E2
330
747D
100
AcDbEntity
  8
部品1
 48
50.0
100
AcDbLine
 10
8347.71728876886
 20
6907.439287029048
 30
0.0
 11
8347.71728876886
 21
7097.43928702905
 31
0.0
  0
LINE
  5
200E3
330
747D
100
AcDbEntity
  8
部品1
 48
50.0
100
AcDbLine
 10
8157.717288768862
 20
6907.439287029049
 30
0.0
 11
8157.717288768862
 21
7097.43928702905
 31
0.0
  0
LINE
  5
200E4
330
747D
100
AcDbEntity
  8
部品1
 48
50.0
100
AcDbLine
 10
8347.71728876886
 20
6907.439287029048
 30
0.0
 11
8157.717288768862
 21
6907.439287029049
 31
0.0
  0
LINE
  5
200E5
330
747D
100
AcDbEntity
  8
部品1
 48
50.0
100
AcDbLine
 10
8347.71728876886
 20
7097.43928702905
 30
0.0
 11
8157.717288768859
 21
7097.439287029049
 31
0.0
  0
LINE
  5
200E6
330
747D
100
AcDbEntity
  8
部品1
 48
50.0
100
AcDbLine
 10
6893.717288768863
 20
6907.439287029048
 30
0.0
 11
6703.717288768864
 21
6907.439287029049
 31
0.0
  0
LINE
  5
200E7
330
747D
100
AcDbEntity
  8
部品1
 48
50.0
100
AcDbLine
 10
6703.717288768864
 20
6907.439287029049
 30
0.0
 11
6703.717288768864
 21
7097.43928702905
 31
0.0
  0
LINE
  5
200E8
330
747D
100
AcDbEntity
  8
部品1
 48
50.0
100
AcDbLine
 10
6893.717288768865
 20
7097.43928702905
 30
0.0
 11
6703.717288768863
 21
7097.439287029049
 31
0.0
  0
LINE
  5
200E9
330
747D
100
AcDbEntity
  8
部品1
 48
50.0
100
AcDbLine
 10
6893.717288768863
 20
6907.439287029048
 30
0.0
 11
6893.717288768865
 21
7097.43928702905
 31
0.0
  0
LINE
  5
200FE
330
747D
100
AcDbEntity
  8
部品1
 48
50.0
100
AcDbLine
 10
6893.717288768865
 20
6357.439287029053
 30
0.0
 11
6893.717288768866
 21
6547.439287029054
 31
0.0
  0
LINE
  5
200FF
330
747D
100
AcDbEntity
  8
部品1
 48
50.0
100
AcDbLine
 10
6893.717288768866
 20
6547.439287029054
 30
0.0
 11
6703.717288768865
 21
6547.439287029053
 31
0.0
  0
LINE
  5
20100
330
747D
100
AcDbEntity
  8
部品1
 48
50.0
100
AcDbLine
 10
6703.717288768865
 20
6357.439287029054
 30
0.0
 11
6703.717288768865
 21
6547.439287029054
 31
0.0
  0
LINE
  5
20101
330
747D
100
AcDbEntity
  8
部品1
 48
50.0
100
AcDbLine
 10
6893.717288768865
 20
6357.439287029053
 30
0.0
 11
6703.717288768865
 21
6357.439287029054
 31
0.0
  0
LINE
  5
20102
330
747D
100
AcDbEntity
  8
部品1
 48
50.0
100
AcDbLine
 10
8347.717288768864
 20
6547.439287029054
 30
0.0
 11
8157.717288768862
 21
6547.439287029053
 31
0.0
  0
LINE
  5
20103
330
747D
100
AcDbEntity
  8
部品1
 48
50.0
100
AcDbLine
 10
8347.71728876886
 20
6357.439287029053
 30
0.0
 11
8157.717288768862
 21
6357.439287029054
 31
0.0
  0
LINE
  5
20104
330
747D
100
AcDbEntity
  8
部品1
 48
50.0
100
AcDbLine
 10
8157.717288768862
 20
6357.439287029054
 30
0.0
 11
8157.717288768862
 21
6547.439287029054
 31
0.0
  0
LINE
  5
20105
330
747D
100
AcDbEntity
  8
部品1
 48
50.0
100
AcDbLine
 10
8347.71728876886
 20
6357.439287029053
 30
0.0
 11
8347.717288768864
 21
6547.439287029054
 31
0.0
  0
LINE
  5
20106
330
747D
100
AcDbEntity
  8
部品1
 48
50.0
100
AcDbLine
 10
7620.71728876887
 20
6357.439287029056
 30
0.0
 11
7430.717288768872
 21
6357.439287029058
 31
0.0
  0
LINE
  5
20107
330
747D
100
AcDbEntity
  8
部品1
 48
50.0
100
AcDbLine
 10
7430.717288768872
 20
6357.439287029058
 30
0.0
 11
7430.717288768872
 21
6547.439287029057
 31
0.0
  0
LINE
  5
20108
330
747D
100
AcDbEntity
  8
部品1
 48
50.0
100
AcDbLine
 10
7620.717288768872
 20
6547.439287029057
 30
0.0
 11
7430.717288768871
 21
6547.439287029057
 31
0.0
  0
LINE
  5
20109
330
747D
100
AcDbEntity
  8
部品1
 48
50.0
100
AcDbLine
 10
7620.71728876887
 20
6357.439287029056
 30
0.0
 11
7620.717288768872
 21
6547.439287029057
 31
0.0
  0
LINE
  5
2010C
330
747D
100
AcDbEntity
  8
部品1
 48
50.0
100
AcDbLine
 10
6893.717288768865
 20
6357.439287029053
 30
0.0
 11
6703.717288768865
 21
6357.439287029054
 31
0.0
  0
LINE
  5
2010D
330
747D
100
AcDbEntity
  8
部品1
 48
50.0
100
AcDbLine
 10
6703.717288768865
 20
6357.439287029054
 30
0.0
 11
6703.717288768865
 21
6547.439287029054
 31
0.0
  0
LINE
  5
2010E
330
747D
100
AcDbEntity
  8
部品1
 48
50.0
100
AcDbLine
 10
6893.717288768866
 20
6547.439287029054
 30
0.0
 11
6703.717288768865
 21
6547.439287029053
 31
0.0
  0
LINE
  5
2010F
330
747D
100
AcDbEntity
  8
部品1
 48
50.0
100
AcDbLine
 10
6893.717288768865
 20
6357.439287029053
 30
0.0
 11
6893.717288768866
 21
6547.439287029054
 31
0.0
  0
LINE
  5
20112
330
747D
100
AcDbEntity
  8
部品1
 48
50.0
100
AcDbLine
 10
7620.71728876887
 20
5621.43928702906
 30
0.0
 11
7620.717288768872
 21
5811.439287029061
 31
0.0
  0
LINE
  5
20113
330
747D
100
AcDbEntity
  8
部品1
 48
50.0
100
AcDbLine
 10
7620.717288768872
 20
5811.439287029061
 30
0.0
 11
7430.717288768871
 21
5811.43928702906
 31
0.0
  0
LINE
  5
20114
330
747D
100
AcDbEntity
  8
部品1
 48
50.0
100
AcDbLine
 10
7430.717288768872
 20
5621.439287029062
 30
0.0
 11
7430.717288768872
 21
5811.439287029061
 31
0.0
  0
LINE
  5
20115
330
747D
100
AcDbEntity
  8
部品1
 48
50.0
100
AcDbLine
 10
7620.71728876887
 20
5621.43928702906
 30
0.0
 11
7430.717288768872
 21
5621.439287029062
 31
0.0
  0
LINE
  5
20116
330
747D
100
AcDbEntity
  8
部品1
 48
50.0
100
AcDbLine
 10
7620.71728876887
 20
7638.439287029061
 30
0.0
 11
7430.717288768872
 21
7638.439287029061
 31
0.0
  0
LINE
  5
20117
330
747D
100
AcDbEntity
  8
部品1
 48
50.0
100
AcDbLine
 10
7430.717288768872
 20
7638.439287029061
 30
0.0
 11
7430.717288768872
 21
7828.439287029062
 31
0.0
  0
LINE
  5
20118
330
747D
100
AcDbEntity
  8
部品1
 48
50.0
100
AcDbLine
 10
7620.717288768872
 20
7828.439287029062
 30
0.0
 11
7430.717288768871
 21
7828.43928702906
 31
0.0
  0
LINE
  5
20119
330
747D
100
AcDbEntity
  8
部品1
 48
50.0
100
AcDbLine
 10
7620.71728876887
 20
7638.439287029061
 30
0.0
 11
7620.717288768872
 21
7828.439287029062
 31
0.0
  0
LINE
  5
201AB
330
747D
100
AcDbEntity
  8
寸法
 62
     0
 48
50.0
100
AcDbLine
 10
5999.717288768872
 20
7833.439287029055
 30
0.0
 11
5999.717288768872
 21
7643.439287029053
 31
0.0
  0
LINE
  5
201B1
330
747D
100
AcDbEntity
  8
部品1
 48
50.0
100
AcDbLine
 10
6189.717288768873
 20
6632.439287029054
 30
0.0
 11
5999.717288768874
 21
6632.439287029054
 31
0.0
  0
LINE
  5
201B2
330
747D
100
AcDbEntity
  8
部品1
 48
50.0
100
AcDbLine
 10
5999.717288768874
 20
6632.439287029054
 30
0.0
 11
5999.717288768874
 21
6822.439287029054
 31
0.0
  0
LINE
  5
201B3
330
747D
100
AcDbEntity
  8
部品1
 48
50.0
100
AcDbLine
 10
6189.717288768874
 20
6822.439287029054
 30
0.0
 11
5999.717288768874
 21
6822.439287029053
 31
0.0
  0
LINE
  5
201B4
330
747D
100
AcDbEntity
  8
部品1
 48
50.0
100
AcDbLine
 10
6189.717288768873
 20
6632.439287029054
 30
0.0
 11
6189.717288768874
 21
6822.439287029054
 31
0.0
  0
LINE
  5
201B5
330
747D
100
AcDbEntity
  8
部品1
 48
50.0
100
AcDbLine
 10
9051.717288768871
 20
6822.439287029054
 30
0.0
 11
8861.71728876887
 21
6822.439287029053
 31
0.0
  0
LINE
  5
201B7
330
747D
100
AcDbEntity
  8
部品1
 48
50.0
100
AcDbLine
 10
9051.71728876887
 20
6632.439287029054
 30
0.0
 11
8861.717288768872
 21
6632.439287029054
 31
0.0
  0
LINE
  5
201B8
330
747D
100
AcDbEntity
  8
部品1
 48
50.0
100
AcDbLine
 10
9051.71728876887
 20
6632.439287029054
 30
0.0
 11
9051.717288768871
 21
6822.439287029054
 31
0.0
  0
LINE
  5
201B9
330
747D
100
AcDbEntity
  8
寸法
 62
     0
 48
50.0
100
AcDbLine
 10
8861.71728876887
 20
6822.439287029053
 30
0.0
 11
8861.717288768872
 21
6632.439287029054
 31
0.0
  0
LINE
  5
201C6
330
747D
100
AcDbEntity
  8
寸法
 62
     0
 48
50.0
100
AcDbLine
 10
5999.717288768856
 20
5621.439287029054
 30
0.0
 11
6389.717288768856
 21
5621.439287029054
 31
0.0
  0
LINE
  5
20362
330
747D
100
AcDbEntity
  8
部品1
 48
50.0
100
AcDbLine
 10
3842.295358920652
 20
2386.933960526556
 30
0.0
 11
10242.29535892065
 21
2386.933960526556
 31
0.0
  0
LINE
  5
20363
330
747D
100
AcDbEntity
  8
部品1
 48
50.0
100
AcDbLine
 10
10242.29535892065
 20
2626.933960526556
 30
0.0
 11
5442.295358920652
 21
2626.933960526556
 31
0.0
  0
LINE
  5
20364
330
747D
100
AcDbEntity
  8
部品1
 48
50.0
100
AcDbLine
 10
10242.29535892065
 20
2866.933960526556
 30
0.0
 11
3842.295358920652
 21
2866.933960526558
 31
0.0
  0
LINE
  5
20365
330
747D
100
AcDbEntity
  8
部品1
 48
50.0
100
AcDbLine
 10
3842.295358920652
 20
466.9339605265559
 30
0.0
 11
10242.29535892065
 21
466.9339605265559
 31
0.0
  0
TEXT
  5
20366
330
747D
100
AcDbEntity
  8
部品1
100
AcDbText
 10
7096.022675299344
 20
2680.99777512929
 30
0.0
 40
120.0
  1
アンカー部詳細
  7
STYLE2
100
AcDbText
  0
LINE
  5
20367
330
747D
100
AcDbEntity
  8
細線
100
AcDbLine
 10
4637.781867955443
 20
1307.69474813831
 30
0.0
 11
4737.781867955439
 21
1407.694748138312
 31
0.0
  0
LINE
  5
20368
330
747D
100
AcDbEntity
  8
細線
100
AcDbLine
 10
4713.211317334033
 20
1407.694748138312
 30
0.0
 11
4513.211317334036
 21
1607.69474813831
 31
0.0
  0
LEADER
  5
20369
330
747D
100
AcDbEntity
  8
寸法
 48
50.0
100
AcDbLeader
  3
INABA_S50G
 71
     0
 73
     0
 74
     0
 75
     1
 40
120.0
 41
185.591883092037
 76
     3
 10
4567.169109494878
 20
1607.69474813831
 30
0.0
 10
4722.432692066055
 20
1820.546665947079
 30
0.0
 10
4847.432692066055
 20
1820.546665947079
 30
0.0
340
2036A
213
67.73172584638814
223
0.0
233
0.0
1001
ACAD
1000
DSTYLE
1002
{
1070
    40
1040
1.0
1002
}
  0
MTEXT
  5
2036A
102
{ACAD_REACTORS
330
20369
102
}
330
747D
100
AcDbEntity
  8
寸法
 62
     7
 48
50.0
100
AcDbMText
 10
4804.700966219667
 20
1905.546665947078
 30
0.0
 40
120.0
 41
1.0
 71
     4
 72
     1
  1
\A1;C.B
  7
STYLE1
 73
     1
 44
1.0
1001
ACAD
1000
MTEXTBEGIN
1070
    73
1070
     1
1070
    44
1040
1.0
1070
    74
1070
     0
1000
MTEXTEND
  0
TEXT
  5
2036B
330
747D
100
AcDbEntity
  8
部品1
100
AcDbText
 10
4307.89537992545
 20
2574.906177704877
 30
0.0
 40
120.0
  1
基礎詳細
  7
STYLE2
100
AcDbText
  0
LINE
  5
2036C
330
747D
100
AcDbEntity
  8
細線
100
AcDbLine
 10
4755.637724205225
 20
1407.694748138312
 30
0.0
 11
4555.637724205229
 21
1607.69474813831
 31
0.0
  0
LINE
  5
2036D
330
747D
100
AcDbEntity
  8
Ｇ．Ｌ
100
AcDbLine
 10
3937.068103449554
 20
1407.694748138312
 30
0.0
 11
5367.961387272713
 21
1407.694748138312
 31
0.0
  0
LINE
  5
2036E
330
747D
100
AcDbEntity
  8
部品1
100
AcDbLine
 10
4367.16910949488
 20
1607.69474813831
 30
0.0
 11
4767.169109494876
 21
1607.69474813831
 31
0.0
  0
LINE
  5
2036F
330
747D
100
AcDbEntity
  8
部品1
100
AcDbLine
 10
4267.169109494876
 20
1307.694748138308
 30
0.0
 11
4867.169109494876
 21
1307.69474813831
 31
0.0
  0
LINE
  5
20370
330
747D
100
AcDbEntity
  8
部品1
100
AcDbLine
 10
4267.169109494876
 20
1107.694748138307
 30
0.0
 11
4867.169109494876
 21
1107.69474813831
 31
0.0
  0
LINE
  5
20371
330
747D
100
AcDbEntity
  8
部品1
 48
50.0
100
AcDbLine
 10
3842.295358920652
 20
2866.933960526556
 30
0.0
 11
3842.295358920652
 21
466.9339605265559
 31
0.0
  0
LINE
  5
20372
330
747D
100
AcDbEntity
  8
細線
100
AcDbLine
 10
4367.16910949488
 20
1307.694748138308
 30
0.0
 11
4420.7589479811
 21
1107.694748138305
 31
0.0
  0
LINE
  5
20373
330
747D
100
AcDbEntity
  8
細線
100
AcDbLine
 10
4467.169109494876
 20
1307.69474813831
 30
0.0
 11
4520.758947981099
 21
1107.694748138307
 31
0.0
  0
LINE
  5
20374
330
747D
100
AcDbEntity
  8
細線
100
AcDbLine
 10
4567.169109494876
 20
1307.69474813831
 30
0.0
 11
4620.758947981103
 21
1107.694748138307
 31
0.0
  0
LINE
  5
20375
330
747D
100
AcDbEntity
  8
細線
100
AcDbLine
 10
4267.169109494876
 20
1307.694748138308
 30
0.0
 11
4320.758947981103
 21
1107.694748138305
 31
0.0
  0
LINE
  5
20376
330
747D
100
AcDbEntity
  8
部品1
100
AcDbLine
 10
4267.169109494876
 20
1107.694748138307
 30
0.0
 11
4267.169109494876
 21
1407.694748138312
 31
0.0
  0
LINE
  5
20377
330
747D
100
AcDbEntity
  8
細線
100
AcDbLine
 10
4407.361488359547
 20
1157.694748138308
 30
0.0
 11
4393.964028737988
 21
1107.694748138307
 31
0.0
  0
LINE
  5
20378
330
747D
100
AcDbEntity
  8
細線
100
AcDbLine
 10
4307.361488359544
 20
1157.694748138308
 30
0.0
 11
4293.964028737987
 21
1107.694748138307
 31
0.0
  0
LINE
  5
20379
330
747D
100
AcDbEntity
  8
細線
100
AcDbLine
 10
4507.361488359544
 20
1157.69474813831
 30
0.0
 11
4493.964028737991
 21
1107.69474813831
 31
0.0
  0
LINE
  5
2037A
330
747D
100
AcDbEntity
  8
細線
100
AcDbLine
 10
4607.361488359543
 20
1157.69474813831
 30
0.0
 11
4593.964028737988
 21
1107.69474813831
 31
0.0
  0
LINE
  5
2037B
330
747D
100
AcDbEntity
  8
部品1
100
AcDbLine
 10
4367.16910949488
 20
1407.694748138312
 30
0.0
 11
4367.16910949488
 21
1607.69474813831
 31
0.0
  0
LINE
  5
2037C
330
747D
100
AcDbEntity
  8
細線
100
AcDbLine
 10
4529.363554225532
 20
1407.694748138312
 30
0.0
 11
4367.169109494876
 21
1569.889192868964
 31
0.0
  0
LINE
  5
2037D
330
747D
100
AcDbEntity
  8
細線
100
AcDbLine
 10
4394.35041045037
 20
1307.69474813831
 30
0.0
 11
4494.350410450366
 21
1407.694748138312
 31
0.0
  0
LINE
  5
2037E
330
747D
100
AcDbEntity
  8
細線
100
AcDbLine
 10
4486.937147354339
 20
1407.694748138312
 30
0.0
 11
4367.16910949488
 21
1527.462785997772
 31
0.0
  0
LINE
  5
2037F
330
747D
100
AcDbEntity
  8
細線
100
AcDbLine
 10
4366.066139202906
 20
1307.69474813831
 30
0.0
 11
4466.066139202903
 21
1407.694748138312
 31
0.0
  0
LINE
  5
20380
330
747D
100
AcDbEntity
  8
細線
100
AcDbLine
 10
4337.781867955444
 20
1307.694748138308
 30
0.0
 11
4437.781867955443
 21
1407.694748138312
 31
0.0
  0
LINE
  5
20381
330
747D
100
AcDbEntity
  8
細線
100
AcDbLine
 10
4393.964028737988
 20
1307.694748138308
 30
0.0
 11
4380.566569116432
 21
1257.694748138306
 31
0.0
  0
LINE
  5
20382
330
747D
100
AcDbEntity
  8
細線
100
AcDbLine
 10
4293.964028737987
 20
1307.694748138308
 30
0.0
 11
4280.566569116436
 21
1257.694748138306
 31
0.0
  0
LINE
  5
20383
330
747D
100
AcDbEntity
  8
細線
100
AcDbLine
 10
4493.964028737991
 20
1307.69474813831
 30
0.0
 11
4480.566569116432
 21
1257.694748138312
 31
0.0
  0
LINE
  5
20384
330
747D
100
AcDbEntity
  8
細線
100
AcDbLine
 10
4593.964028737988
 20
1307.69474813831
 30
0.0
 11
4580.566569116435
 21
1257.694748138312
 31
0.0
  0
LINE
  5
20385
330
747D
100
AcDbEntity
  8
細線
 48
50.0
100
AcDbLine
 10
5680.003061183852
 20
2207.694748138309
 30
0.0
 11
5680.003061183852
 21
1707.69474813831
 31
0.0
  0
LINE
  5
20386
330
747D
100
AcDbEntity
  8
細線
 48
50.0
100
AcDbLine
 10
5710.003061183852
 20
2207.694748138309
 30
0.0
 11
5710.003061183852
 21
1707.69474813831
 31
0.0
  0
LINE
  5
20387
330
747D
100
AcDbEntity
  8
細線
 48
50.0
100
AcDbLine
 10
5990.003061183852
 20
2207.694748138309
 30
0.0
 11
5990.003061183852
 21
1707.69474813831
 31
0.0
  0
LINE
  5
20388
330
747D
100
AcDbEntity
  8
細線
 48
50.0
100
AcDbLine
 10
5960.003061183852
 20
2207.694748138309
 30
0.0
 11
5960.003061183852
 21
1707.69474813831
 31
0.0
  0
LINE
  5
20389
330
747D
100
AcDbEntity
  8
部品1
 48
50.0
100
AcDbLine
 10
7042.295358920651
 20
2626.933960526556
 30
0.0
 11
7042.295358920651
 21
466.9339605265559
 31
0.0
  0
LINE
  5
2038A
330
747D
100
AcDbEntity
  8
部品1
 48
50.0
100
AcDbLine
 10
5442.295358920652
 20
2866.933960526556
 30
0.0
 11
5442.295358920652
 21
466.9339605265559
 31
0.0
  0
LINE
  5
2038B
330
747D
100
AcDbEntity
  8
部品1
100
AcDbLine
 10
6225.003061183851
 20
2207.694748138309
 30
0.0
 11
6225.003061183851
 21
1407.69474813831
 31
0.0
  0
LINE
  5
2038C
330
747D
100
AcDbEntity
  8
部品1
100
AcDbLine
 10
6115.003061183852
 20
2207.694748138309
 30
0.0
 11
6115.003061183855
 21
1701.694748138312
 31
0.0
  0
LINE
  5
2038D
330
747D
100
AcDbEntity
  8
部品1
100
AcDbLine
 10
5509.748627940258
 20
1701.69474813831
 30
0.0
 11
6225.003061183851
 21
1701.69474813831
 31
0.0
  0
DIMENSION
  5
2038E
330
747D
100
AcDbEntity
  8
寸法
 48
50.0
100
AcDbDimension
  2
*D14
 10
5731.673314108323
 20
1007.69474813831
 30
0.0
 11
5731.673314108323
 21
1195.319381254216
 31
0.0
 70
   160
  1
200
 71
     5
 42
400.0
  3
INABA_S40G
100
AcDbAlignedDimension
 13
5825.003061183852
 23
1407.69474813831
 33
0.0
 14
5975.003061183851
 24
1007.69474813831
 34
0.0
 50
90.0
100
AcDbRotatedDimension
1001
ACAD
1000
DSTYLE
1002
{
1070
   174
1070
     0
1070
   272
1070
     1
1070
   288
1070
     0
1070
   341
1005
0
1002
}
  0
LINE
  5
2038F
330
747D
100
AcDbEntity
  8
Ｇ．Ｌ
100
AcDbLine
 10
5509.748627940258
 20
1407.69474813831
 30
0.0
 11
6145.003061183852
 21
1407.69474813831
 31
0.0
  0
LINE
  5
20390
330
747D
100
AcDbEntity
  8
部品1
100
AcDbLine
 10
5509.748627940258
 20
1607.69474813831
 30
0.0
 11
6145.003061183852
 21
1607.69474813831
 31
0.0
  0
LINE
  5
20391
330
747D
100
AcDbEntity
  8
部品1
100
AcDbLine
 10
5509.748627940258
 20
1707.694748138312
 30
0.0
 11
6115.003061183852
 21
1707.69474813831
 31
0.0
  0
LINE
  5
20392
330
747D
100
AcDbEntity
  8
細線
100
AcDbLine
 10
4767.169109494876
 20
1307.69474813831
 30
0.0
 11
4820.7589479811
 21
1107.69474813831
 31
0.0
  0
LINE
  5
20393
330
747D
100
AcDbEntity
  8
細線
100
AcDbLine
 10
4667.169109494881
 20
1307.69474813831
 30
0.0
 11
4720.758947981099
 21
1107.694748138307
 31
0.0
  0
LINE
  5
20394
330
747D
100
AcDbEntity
  8
部品1
100
AcDbLine
 10
4867.169109494876
 20
1407.694748138312
 30
0.0
 11
4867.169109494876
 21
1107.69474813831
 31
0.0
  0
LINE
  5
20395
330
747D
100
AcDbEntity
  8
細線
100
AcDbLine
 10
4807.361488359544
 20
1157.69474813831
 30
0.0
 11
4793.964028737991
 21
1107.69474813831
 31
0.0
  0
LINE
  5
20396
330
747D
100
AcDbEntity
  8
細線
100
AcDbLine
 10
4707.361488359548
 20
1157.69474813831
 30
0.0
 11
4693.964028737988
 21
1107.69474813831
 31
0.0
  0
TEXT
  5
20397
330
747D
100
AcDbEntity
  8
部品1
100
AcDbText
 10
4990.421735362306
 20
1415.600789817215
 30
0.0
 40
120.0
  1
▽G.L
  7
STYLE1
100
AcDbText
  0
LINE
  5
20398
330
747D
100
AcDbEntity
  8
部品1
100
AcDbLine
 10
4767.169109494876
 20
1607.69474813831
 30
0.0
 11
4767.169109494876
 21
1407.694748138312
 31
0.0
  0
LINE
  5
20399
330
747D
100
AcDbEntity
  8
細線
100
AcDbLine
 10
4694.350410450367
 20
1307.69474813831
 30
0.0
 11
4794.350410450366
 21
1407.694748138312
 31
0.0
  0
LINE
  5
2039A
330
747D
100
AcDbEntity
  8
細線
100
AcDbLine
 10
4666.066139202906
 20
1307.69474813831
 30
0.0
 11
4766.066139202903
 21
1407.694748138312
 31
0.0
  0
LINE
  5
2039B
330
747D
100
AcDbEntity
  8
細線
100
AcDbLine
 10
4793.964028737991
 20
1307.69474813831
 30
0.0
 11
4780.566569116432
 21
1257.694748138312
 31
0.0
  0
LINE
  5
2039C
330
747D
100
AcDbEntity
  8
細線
100
AcDbLine
 10
4693.964028737988
 20
1307.69474813831
 30
0.0
 11
4680.566569116431
 21
1257.694748138312
 31
0.0
  0
TEXT
  5
2039D
330
747D
100
AcDbEntity
  8
部品1
100
AcDbText
 10
6609.566608253462
 20
1415.600789817214
 30
0.0
 40
120.0
  1
▽G.L
  7
STYLE1
100
AcDbText
  0
LINE
  5
2039E
330
747D
100
AcDbEntity
  8
細線
  6
HIDDEN
 48
10.0
100
AcDbLine
 10
6259.729790085809
 20
1007.694748138312
 30
0.0
 11
6375.003061183851
 21
1122.968019236359
 31
0.0
  0
LINE
  5
2039F
330
747D
100
AcDbEntity
  8
細線
  6
HIDDEN
 48
10.0
100
AcDbLine
 10
6231.445518838348
 20
1007.694748138311
 30
0.0
 11
6375.003061183852
 21
1151.25229048382
 31
0.0
  0
LINE
  5
203A0
330
747D
100
AcDbEntity
  8
細線
  6
HIDDEN
 48
10.0
100
AcDbLine
 10
6288.01406133327
 20
1007.694748138312
 30
0.0
 11
6375.003061183851
 21
1094.683747988895
 31
0.0
  0
LINE
  5
203A1
330
747D
100
AcDbEntity
  8
Ｇ．Ｌ
100
AcDbLine
 10
6225.003061183851
 20
1407.69474813831
 30
0.0
 11
6977.09930342219
 21
1407.69474813831
 31
0.0
  0
LINE
  5
203A2
330
747D
100
AcDbEntity
  8
細線
  6
HIDDEN
 48
10.0
100
AcDbLine
 10
5975.003061183853
 20
1149.626408089185
 30
0.0
 11
6138.265387137085
 21
1312.888734042428
 31
0.0
  0
LINE
  5
203A3
330
747D
100
AcDbEntity
  8
細線
  6
HIDDEN
 48
10.0
100
AcDbLine
 10
5975.003061183851
 20
1177.910679336646
 30
0.0
 11
6141.482287333689
 21
1344.389905486487
 31
0.0
  0
LINE
  5
203A4
330
747D
100
AcDbEntity
  8
細線
  6
HIDDEN
 48
10.0
100
AcDbLine
 10
5975.003061183853
 20
1121.342136841724
 30
0.0
 11
6135.048486940475
 21
1281.387562598364
 31
0.0
  0
LINE
  5
203A5
330
747D
100
AcDbEntity
  8
部品1
100
AcDbLine
 10
6144.106292175784
 20
1370.085208837212
 30
0.0
 11
6115.003061183852
 21
1085.09474813831
 31
0.0
  0
LINE
  5
203A6
330
747D
100
AcDbEntity
  8
部品1
100
AcDbLine
 10
6225.899830191927
 20
1370.085208837212
 30
0.0
 11
6255.003061183852
 21
1085.09474813831
 31
0.0
  0
LINE
  5
203A7
330
747D
100
AcDbEntity
  8
部品1
100
AcDbLine
 10
6115.003061183852
 20
1085.09474813831
 30
0.0
 11
6255.003061183852
 21
1085.09474813831
 31
0.0
  0
LINE
  5
203A8
330
747D
100
AcDbEntity
  8
部品1
100
AcDbLine
 10
6115.003061183852
 20
1073.09474813831
 30
0.0
 11
6255.003061183852
 21
1073.09474813831
 31
0.0
  0
LINE
  5
203A9
330
747D
100
AcDbEntity
  8
部品1
100
AcDbLine
 10
6115.003061183852
 20
1085.094748138308
 30
0.0
 11
6115.003061183852
 21
1073.09474813831
 31
0.0
  0
LINE
  5
203AA
330
747D
100
AcDbEntity
  8
細線
100
AcDbLine
 10
6170.003061183852
 20
1097.094748138312
 30
0.0
 11
6200.003061183852
 21
1097.094748138308
 31
0.0
  0
LINE
  5
203AB
330
747D
100
AcDbEntity
  8
細線
100
AcDbLine
 10
6170.003061183852
 20
1103.094748138312
 30
0.0
 11
6200.003061183852
 21
1103.094748138308
 31
0.0
  0
LINE
  5
203AC
330
747D
100
AcDbEntity
  8
細線
100
AcDbLine
 10
6170.003061183852
 20
1143.094748138314
 30
0.0
 11
6200.003061183852
 21
1143.094748138308
 31
0.0
  0
LINE
  5
203AD
330
747D
100
AcDbEntity
  8
細線
100
AcDbLine
 10
6170.003061183852
 20
1137.094748138314
 30
0.0
 11
6200.003061183852
 21
1137.094748138308
 31
0.0
  0
LINE
  5
203AE
330
747D
100
AcDbEntity
  8
細線
100
AcDbLine
 10
6170.003061183852
 20
1103.094748138312
 30
0.0
 11
6170.003061183852
 21
1097.094748138308
 31
0.0
  0
LINE
  5
203AF
330
747D
100
AcDbEntity
  8
細線
100
AcDbLine
 10
6170.003061183852
 20
1143.094748138314
 30
0.0
 11
6170.003061183852
 21
1137.094748138308
 31
0.0
  0
LINE
  5
203B0
330
747D
100
AcDbEntity
  8
細線
100
AcDbLine
 10
6200.003061183852
 20
1103.094748138306
 30
0.0
 11
6200.003061183852
 21
1097.094748138306
 31
0.0
  0
LINE
  5
203B1
330
747D
100
AcDbEntity
  8
細線
100
AcDbLine
 10
6200.003061183852
 20
1143.094748138304
 30
0.0
 11
6200.003061183852
 21
1137.094748138304
 31
0.0
  0
LINE
  5
203B2
330
747D
100
AcDbEntity
  8
部品1
100
AcDbLine
 10
6255.003061183852
 20
1085.09474813831
 30
0.0
 11
6255.003061183852
 21
1073.09474813831
 31
0.0
  0
LINE
  5
203B3
330
747D
100
AcDbEntity
  8
細線
100
AcDbLine
 10
5953.457730747243
 20
1407.69474813831
 30
0.0
 11
5825.003061183852
 21
1536.149417701703
 31
0.0
  0
LINE
  5
203B4
330
747D
100
AcDbEntity
  8
細線
100
AcDbLine
 10
6137.305493855747
 20
1407.69474813831
 30
0.0
 11
5937.305493855747
 21
1607.69474813831
 31
0.0
  0
LINE
  5
203B5
330
747D
100
AcDbEntity
  8
部品1
100
AcDbLine
 10
5825.003061183852
 20
1407.69474813831
 30
0.0
 11
5825.003061183852
 21
1607.69474813831
 31
0.0
  0
LINE
  5
203B6
330
747D
100
AcDbEntity
  8
細線
100
AcDbLine
 10
5911.03132387605
 20
1407.69474813831
 30
0.0
 11
5825.003061183852
 21
1493.72301083051
 31
0.0
  0
LINE
  5
203B7
330
747D
100
AcDbEntity
  8
細線
100
AcDbLine
 10
6145.003061183852
 20
1442.423587681398
 30
0.0
 11
5979.73190072694
 21
1607.69474813831
 31
0.0
  0
LINE
  5
203B8
330
747D
100
AcDbEntity
  8
部品1
100
AcDbLine
 10
6225.003061183851
 20
1670.69474813831
 30
0.0
 11
6225.003061183856
 21
1373.340217126319
 31
0.0
  0
LINE
  5
203B9
330
747D
100
AcDbEntity
  8
部品1
100
AcDbLine
 10
6145.003061183852
 20
1671.69474813831
 30
0.0
 11
6145.003061183852
 21
1373.340217126319
 31
0.0
  0
LINE
  5
203BA
330
747D
100
AcDbEntity
  8
部品1
100
AcDbLine
 10
6154.057120664096
 20
1379.09474813831
 30
0.0
 11
6215.949001703608
 21
1379.094748138304
 31
0.0
  0
ARC
  5
203BB
330
747D
100
AcDbEntity
  8
部品1
100
AcDbCircle
 10
6154.057120664096
 20
1369.094748138308
 30
0.0
 40
10.0
100
AcDbArc
 50
90.0
 51
174.3157584018092
  0
LINE
  5
203BC
330
747D
100
AcDbEntity
  8
細線
  6
HIDDEN
 48
10.0
100
AcDbLine
 10
6225.003061183851
 20
1399.626408089198
 30
0.0
 11
6233.071401232966
 21
1407.69474813831
 31
0.0
  0
LINE
  5
203BD
330
747D
100
AcDbEntity
  8
細線
  6
HIDDEN
 48
10.0
100
AcDbLine
 10
6225.55050684074
 20
1371.889582498628
 30
0.0
 11
6261.355672480422
 21
1407.694748138312
 31
0.0
  0
ARC
  5
203BE
330
747D
100
AcDbEntity
  8
部品1
100
AcDbCircle
 10
6215.949001703608
 20
1369.094748138304
 30
0.0
 40
10.0
100
AcDbArc
 50
5.684241598190771
 51
90.0
  0
CIRCLE
  5
203BF
330
747D
100
AcDbEntity
  8
細線
100
AcDbCircle
 10
6185.003061183852
 20
1511.694748138312
 30
0.0
 40
6.0
  0
CIRCLE
  5
203C0
330
747D
100
AcDbEntity
  8
細線
100
AcDbCircle
 10
6185.003061183852
 20
1511.694748138312
 30
0.0
 40
7.0
  0
CIRCLE
  5
203C1
330
747D
100
AcDbEntity
  8
細線
100
AcDbCircle
 10
6185.003061183852
 20
1356.69474813831
 30
0.0
 40
16.0
  0
LINE
  5
203C2
330
747D
100
AcDbEntity
  8
細線
100
AcDbLine
 10
6170.003061183852
 20
1287.094748138312
 30
0.0
 11
6171.003061183852
 21
1287.094748138312
 31
0.0
  0
LINE
  5
203C3
330
747D
100
AcDbEntity
  8
細線
100
AcDbLine
 10
6170.003061183852
 20
1293.094748138312
 30
0.0
 11
6200.003061183852
 21
1293.094748138308
 31
0.0
  0
ARC
  5
203C4
330
747D
100
AcDbEntity
  8
細線
100
AcDbCircle
 10
6185.003061183852
 20
1317.094748138306
 30
0.0
 40
8.0
100
AcDbArc
 50
180.0
 51
0.0
  0
LINE
  5
203C5
330
747D
100
AcDbEntity
  8
細線
100
AcDbLine
 10
6170.003061183852
 20
1293.094748138312
 30
0.0
 11
6170.003061183852
 21
1287.094748138308
 31
0.0
  0
LINE
  5
203C6
330
747D
100
AcDbEntity
  8
細線
100
AcDbLine
 10
6170.003061183852
 20
1291.694748138305
 30
0.0
 11
6200.003061183852
 21
1291.69474813831
 31
0.0
  0
LINE
  5
203C7
330
747D
100
AcDbEntity
  8
細線
100
AcDbLine
 10
6177.126166809474
 20
1275.094748138301
 30
0.0
 11
6192.879955558237
 21
1275.094748138306
 31
0.0
  0
LINE
  5
203C8
330
747D
100
AcDbEntity
  8
細線
100
AcDbLine
 10
6171.003061183852
 20
1291.694748138305
 30
0.0
 11
6171.003061183852
 21
1287.094748138308
 31
0.0
  0
LINE
  5
203C9
330
747D
100
AcDbEntity
  8
細線
100
AcDbLine
 10
6171.003061183852
 20
1287.094748138306
 30
0.0
 11
6173.24559680889
 21
1278.124605638157
 31
0.0
  0
ARC
  5
203CA
330
747D
100
AcDbEntity
  8
細線
100
AcDbCircle
 10
6177.126166809474
 20
1279.094748138303
 30
0.0
 40
4.0
100
AcDbArc
 50
194.0362434679644
 51
270.0
  0
LINE
  5
203CB
330
747D
100
AcDbEntity
  8
細線
100
AcDbLine
 10
6199.003061183852
 20
1291.694748138306
 30
0.0
 11
6199.003061183852
 21
1287.094748138308
 31
0.0
  0
LINE
  5
203CC
330
747D
100
AcDbEntity
  8
細線
100
AcDbLine
 10
6199.003061183852
 20
1287.094748138306
 30
0.0
 11
6196.760525558813
 21
1278.124605638157
 31
0.0
  0
ARC
  5
203CD
330
747D
100
AcDbEntity
  8
細線
100
AcDbCircle
 10
6192.879955558237
 20
1279.094748138305
 30
0.0
 40
4.0
100
AcDbArc
 50
270.0
 51
345.9637565320356
  0
LINE
  5
203CE
330
747D
100
AcDbEntity
  8
細線
100
AcDbLine
 10
6200.003061183852
 20
1293.094748138306
 30
0.0
 11
6200.003061183852
 21
1287.094748138306
 31
0.0
  0
LINE
  5
203CF
330
747D
100
AcDbEntity
  8
細線
100
AcDbLine
 10
6199.003061183852
 20
1287.094748138312
 30
0.0
 11
6200.003061183852
 21
1287.094748138308
 31
0.0
  0
LINE
  5
203D0
330
747D
100
AcDbEntity
  8
細線
100
AcDbLine
 10
6193.003061183851
 20
1342.83834167776
 30
0.0
 11
6193.003061183851
 21
1317.094748138306
 31
0.0
  0
LINE
  5
203D1
330
747D
100
AcDbEntity
  8
細線
100
AcDbLine
 10
6177.003061183852
 20
1342.83834167776
 30
0.0
 11
6177.003061183852
 21
1317.094748138306
 31
0.0
  0
LINE
  5
203D2
330
747D
100
AcDbEntity
  8
部品1
100
AcDbLine
 10
6155.003061183852
 20
1681.69474813831
 30
0.0
 11
6215.003061183852
 21
1681.69474813831
 31
0.0
  0
ARC
  5
203D3
330
747D
100
AcDbEntity
  8
部品1
100
AcDbCircle
 10
6155.003061183852
 20
1671.69474813831
 30
0.0
 40
10.0
100
AcDbArc
 50
90.0
 51
180.0
  0
ARC
  5
203D4
330
747D
100
AcDbEntity
  8
細線
100
AcDbCircle
 10
6185.003061183852
 20
1621.69474813831
 30
0.0
 40
8.0
100
AcDbArc
 50
0.0
 51
180.0
  0
ARC
  5
203D5
330
747D
100
AcDbEntity
  8
細線
100
AcDbCircle
 10
6185.003061183852
 20
1581.69474813831
 30
0.0
 40
8.0
100
AcDbArc
 50
180.0
 51
0.0
  0
LINE
  5
203D6
330
747D
100
AcDbEntity
  8
細線
100
AcDbLine
 10
6177.003061183852
 20
1621.69474813831
 30
0.0
 11
6177.003061183852
 21
1581.69474813831
 31
0.0
  0
LINE
  5
203D7
330
747D
100
AcDbEntity
  8
細線
100
AcDbLine
 10
6193.003061183851
 20
1621.69474813831
 30
0.0
 11
6193.003061183851
 21
1581.69474813831
 31
0.0
  0
ARC
  5
203D8
330
747D
100
AcDbEntity
  8
部品1
100
AcDbCircle
 10
6215.003061183852
 20
1671.69474813831
 30
0.0
 40
10.0
100
AcDbArc
 50
0.0
 51
90.0
  0
CIRCLE
  5
203D9
330
747D
100
AcDbEntity
  8
部品1
100
AcDbCircle
 10
6185.003061183852
 20
1651.69474813831
 30
0.0
 40
16.0
  0
TEXT
  5
203DA
330
747D
100
AcDbEntity
  8
部品1
100
AcDbText
 10
5654.448720359222
 20
2445.219076867759
 30
0.0
 40
120.0
  1
地盤が土の場合
  7
STYLE2
100
AcDbText
  0
TEXT
  5
203DB
330
747D
100
AcDbEntity
  8
部品1
100
AcDbText
 10
9788.461401561724
 20
1415.600789817214
 30
0.0
 40
120.0
  1
▽G.L
  7
STYLE1
100
AcDbText
  0
LINE
  5
203DC
330
747D
100
AcDbEntity
  8
細線
 48
10.0
100
AcDbLine
 10
9809.182856548581
 20
1100.776550799026
 30
0.0
 11
10116.10105388786
 21
1407.69474813831
 31
0.0
  0
LINE
  5
203DD
330
747D
100
AcDbEntity
  8
細線
 48
10.0
100
AcDbLine
 10
9780.898585301116
 20
1100.776550799026
 30
0.0
 11
10087.81678264039
 21
1407.69474813831
 31
0.0
  0
LINE
  5
203DE
330
747D
100
AcDbEntity
  8
細線
 48
10.0
100
AcDbLine
 10
9752.614314053658
 20
1100.776550799026
 30
0.0
 11
10059.53251139293
 21
1407.69474813831
 31
0.0
  0
LINE
  5
203DF
330
747D
100
AcDbEntity
  8
Ｇ．Ｌ
100
AcDbLine
 10
8715.593770111224
 20
1407.69474813831
 30
0.0
 11
10160.48547211637
 21
1407.69474813831
 31
0.0
  0
LINE
  5
203E0
330
747D
100
AcDbEntity
  8
部品1
100
AcDbLine
 10
9228.391166909936
 20
2307.694748138309
 30
0.0
 11
9228.39116690994
 21
1801.694748138312
 31
0.0
  0
LINE
  5
203E1
330
747D
100
AcDbEntity
  8
部品1
100
AcDbLine
 10
9338.391166909936
 20
2307.694748138309
 30
0.0
 11
9338.391166909941
 21
1807.940217126317
 31
0.0
  0
LINE
  5
203E2
330
747D
100
AcDbEntity
  8
細線
 48
50.0
100
AcDbLine
 10
8793.391166909932
 20
2307.694748138309
 30
0.0
 11
8793.391166909932
 21
1807.694748138312
 31
0.0
  0
LINE
  5
203E3
330
747D
100
AcDbEntity
  8
細線
 48
50.0
100
AcDbLine
 10
8823.391166909933
 20
2307.694748138309
 30
0.0
 11
8823.391166909933
 21
1807.694748138312
 31
0.0
  0
LINE
  5
203E4
330
747D
100
AcDbEntity
  8
細線
 48
50.0
100
AcDbLine
 10
9073.391166909933
 20
2307.694748138309
 30
0.0
 11
9073.391166909933
 21
1807.694748138312
 31
0.0
  0
LINE
  5
203E5
330
747D
100
AcDbEntity
  8
細線
 48
50.0
100
AcDbLine
 10
9103.391166909933
 20
2307.694748138309
 30
0.0
 11
9103.391166909933
 21
1807.694748138312
 31
0.0
  0
LINE
  5
203E6
330
747D
100
AcDbEntity
  8
部品1
100
AcDbLine
 10
7718.058562196955
 20
2207.69474813831
 30
0.0
 11
7718.058562196958
 21
1701.694748138314
 31
0.0
  0
LINE
  5
203E7
330
747D
100
AcDbEntity
  8
細線
 48
50.0
100
AcDbLine
 10
7593.058562196951
 20
2207.69474813831
 30
0.0
 11
7593.058562196951
 21
1707.694748138312
 31
0.0
  0
LINE
  5
203E8
330
747D
100
AcDbEntity
  8
細線
 48
50.0
100
AcDbLine
 10
7563.058562196951
 20
2207.69474813831
 30
0.0
 11
7563.058562196951
 21
1707.694748138312
 31
0.0
  0
LINE
  5
203E9
330
747D
100
AcDbEntity
  8
細線
 48
50.0
100
AcDbLine
 10
7313.058562196951
 20
2207.69474813831
 30
0.0
 11
7313.058562196951
 21
1707.694748138312
 31
0.0
  0
LINE
  5
203EA
330
747D
100
AcDbEntity
  8
細線
 48
50.0
100
AcDbLine
 10
7283.058562196952
 20
2207.69474813831
 30
0.0
 11
7283.058562196952
 21
1707.694748138312
 31
0.0
  0
LINE
  5
203EB
330
747D
100
AcDbEntity
  8
部品1
100
AcDbLine
 10
7828.058562196955
 20
2207.69474813831
 30
0.0
 11
7828.058562196959
 21
1707.940217126317
 31
0.0
  0
LINE
  5
203EC
330
747D
100
AcDbEntity
  8
部品1
 48
50.0
100
AcDbLine
 10
8642.295358920652
 20
2386.933960526556
 30
0.0
 11
8642.295358920652
 21
466.9339605265559
 31
0.0
  0
LINE
  5
203ED
330
747D
100
AcDbEntity
  8
細線
 48
10.0
100
AcDbLine
 10
7725.19442592734
 20
1100.776550799026
 30
0.0
 11
8032.112623266614
 21
1407.69474813831
 31
0.0
  0
LINE
  5
203EE
330
747D
100
AcDbEntity
  8
細線
 48
10.0
100
AcDbLine
 10
7696.910154679881
 20
1100.776550799026
 30
0.0
 11
8003.828352019153
 21
1407.69474813831
 31
0.0
  0
LINE
  5
203EF
330
747D
100
AcDbEntity
  8
細線
 48
10.0
100
AcDbLine
 10
7753.478697174802
 20
1100.776550799026
 30
0.0
 11
8060.396894514081
 21
1407.69474813831
 31
0.0
  0
DIMENSION
  5
203F0
330
747D
100
AcDbEntity
  8
寸法
 48
50.0
100
AcDbDimension
  2
*D15
 10
8060.82257276536
 20
1407.69474813831
 30
0.0
 11
7960.82257276536
 21
1507.694748138313
 31
0.0
 70
    32
  1
b
 71
     5
 42
200.0000000000018
  3
INABA_S40G
100
AcDbAlignedDimension
 13
7838.609325302461
 23
1607.694748138312
 33
0.0
 14
7858.058562196951
 24
1407.69474813831
 34
0.0
 50
90.0
100
AcDbRotatedDimension
1001
ACAD
1000
DSTYLE
1002
{
1070
   174
1070
     0
1070
   272
1070
     1
1070
   288
1070
     0
1070
   341
1005
0
1002
}
  0
LINE
  5
203F1
330
747D
100
AcDbEntity
  8
Ｇ．Ｌ
100
AcDbLine
 10
7112.804128953361
 20
1407.69474813831
 30
0.0
 11
8576.839367717644
 21
1407.69474813831
 31
0.0
  0
LINE
  5
203F2
330
747D
100
AcDbEntity
  8
細線
 48
10.0
100
AcDbLine
 10
7298.536037074518
 20
1100.776550799026
 30
0.0
 11
7605.454234413788
 21
1407.69474813831
 31
0.0
  0
LINE
  5
203F3
330
747D
100
AcDbEntity
  8
細線
 48
10.0
100
AcDbLine
 10
7270.251765827055
 20
1100.776550799026
 30
0.0
 11
7577.169963166332
 21
1407.69474813831
 31
0.0
  0
LINE
  5
203F4
330
747D
100
AcDbEntity
  8
細線
 48
10.0
100
AcDbLine
 10
7326.82030832198
 20
1100.776550799026
 30
0.0
 11
7633.738505661241
 21
1407.69474813831
 31
0.0
  0
LINE
  5
203F5
330
747D
100
AcDbEntity
  8
部品1
100
AcDbLine
 10
7112.804128953358
 20
1607.694748138312
 30
0.0
 11
7737.257125591198
 21
1607.694748138312
 31
0.0
  0
LINE
  5
203F6
330
747D
100
AcDbEntity
  8
部品1
100
AcDbLine
 10
7112.804128953358
 20
1707.694748138314
 30
0.0
 11
7718.058562196955
 21
1707.694748138312
 31
0.0
  0
LINE
  5
203F7
330
747D
100
AcDbEntity
  8
部品1
100
AcDbLine
 10
7112.804128953358
 20
1701.694748138314
 30
0.0
 11
7746.856407288317
 21
1701.694748138314
 31
0.0
  0
LINE
  5
203F8
330
747D
100
AcDbEntity
  8
細線
100
AcDbLine
 10
7514.086824889149
 20
1407.69474813831
 30
0.0
 11
7428.058562196951
 21
1493.72301083051
 31
0.0
  0
LINE
  5
203F9
330
747D
100
AcDbEntity
  8
細線
100
AcDbLine
 10
7556.513231760343
 20
1407.69474813831
 30
0.0
 11
7428.058562196951
 21
1536.149417701703
 31
0.0
  0
LINE
  5
203FA
330
747D
100
AcDbEntity
  8
部品1
100
AcDbLine
 10
7428.058562196951
 20
1407.69474813831
 30
0.0
 11
7428.058562196951
 21
1607.694748138312
 31
0.0
  0
LINE
  5
203FB
330
747D
100
AcDbEntity
  8
細線
 48
10.0
100
AcDbLine
 10
7112.804128953358
 20
1369.987302778176
 30
0.0
 11
7150.511574313497
 21
1407.69474813831
 31
0.0
  0
LINE
  5
203FC
330
747D
100
AcDbEntity
  8
細線
 48
10.0
100
AcDbLine
 10
7112.804128953361
 20
1313.41876028326
 30
0.0
 11
7207.0801168084
 21
1407.69474813831
 31
0.0
  0
LINE
  5
203FD
330
747D
100
AcDbEntity
  8
細線
 48
10.0
100
AcDbLine
 10
7112.804128953361
 20
1341.70303153072
 30
0.0
 11
7178.795845560948
 21
1407.69474813831
 31
0.0
  0
LINE
  5
203FE
330
747D
100
AcDbEntity
  8
細線
100
AcDbLine
 10
7719.013162960234
 20
1429.042580046925
 30
0.0
 11
7540.360994868847
 21
1607.69474813831
 31
0.0
  0
LINE
  5
203FF
330
747D
100
AcDbEntity
  8
細線
100
AcDbLine
 10
7722.944300553871
 20
1467.537849324482
 30
0.0
 11
7582.787401740039
 21
1607.69474813831
 31
0.0
  0
LINE
  5
20400
330
747D
100
AcDbEntity
  8
部品1
100
AcDbLine
 10
7828.955331205027
 20
1704.685208837213
 30
0.0
 11
7858.058562196951
 21
1419.69474813831
 31
0.0
  0
LINE
  5
20401
330
747D
100
AcDbEntity
  8
部品1
100
AcDbLine
 10
7747.161793188883
 20
1704.685208837213
 30
0.0
 11
7718.058562196951
 21
1419.69474813831
 31
0.0
  0
LINE
  5
20402
330
747D
100
AcDbEntity
  8
部品1
100
AcDbLine
 10
7718.058562196951
 20
1419.69474813831
 30
0.0
 11
7858.058562196951
 21
1419.69474813831
 31
0.0
  0
LINE
  5
20403
330
747D
100
AcDbEntity
  8
部品1
100
AcDbLine
 10
7718.058562196951
 20
1407.69474813831
 30
0.0
 11
7858.058562196951
 21
1407.69474813831
 31
0.0
  0
LINE
  5
20404
330
747D
100
AcDbEntity
  8
部品1
100
AcDbLine
 10
7718.058562196951
 20
1419.69474813831
 30
0.0
 11
7718.058562196951
 21
1407.69474813831
 31
0.0
  0
LINE
  5
20405
330
747D
100
AcDbEntity
  8
部品1
100
AcDbLine
 10
7773.058562196951
 20
1474.094748138313
 30
0.0
 11
7803.058562196951
 21
1474.094748138313
 31
0.0
  0
LINE
  5
20406
330
747D
100
AcDbEntity
  8
部品1
100
AcDbLine
 10
7773.058562196951
 20
1480.094748138314
 30
0.0
 11
7803.058562196951
 21
1480.094748138314
 31
0.0
  0
LINE
  5
20407
330
747D
100
AcDbEntity
  8
部品1
100
AcDbLine
 10
7773.058562196951
 20
1440.094748138313
 30
0.0
 11
7778.05856219695
 21
1440.094748138313
 31
0.0
  0
LINE
  5
20408
330
747D
100
AcDbEntity
  8
部品1
100
AcDbLine
 10
7773.058562196951
 20
1480.094748138314
 30
0.0
 11
7773.058562196951
 21
1474.094748138313
 31
0.0
  0
LINE
  5
20409
330
747D
100
AcDbEntity
  8
部品1
100
AcDbLine
 10
7773.058562196951
 20
1440.094748138313
 30
0.0
 11
7773.058562196951
 21
1438.694748138312
 31
0.0
  0
LINE
  5
2040A
330
747D
100
AcDbEntity
  8
部品1
100
AcDbLine
 10
7858.058562196951
 20
1419.69474813831
 30
0.0
 11
7858.058562196951
 21
1407.69474813831
 31
0.0
  0
LINE
  5
2040B
330
747D
100
AcDbEntity
  8
部品1
100
AcDbLine
 10
7803.058562196951
 20
1480.09474813831
 30
0.0
 11
7803.058562196951
 21
1474.09474813831
 31
0.0
  0
LINE
  5
2040C
330
747D
100
AcDbEntity
  8
部品1
100
AcDbLine
 10
7803.058562196951
 20
1440.094748138308
 30
0.0
 11
7803.058562196951
 21
1438.694748138312
 31
0.0
  0
LINE
  5
2040D
330
747D
100
AcDbEntity
  8
部品1
100
AcDbLine
 10
7758.058562196952
 20
1422.69474813831
 30
0.0
 11
7818.058562196951
 21
1422.694748138316
 31
0.0
  0
LINE
  5
2040E
330
747D
100
AcDbEntity
  8
部品1
100
AcDbLine
 10
7778.05856219695
 20
1459.694748138312
 30
0.0
 11
7798.058562196951
 21
1459.694748138312
 31
0.0
  0
LINE
  5
2040F
330
747D
100
AcDbEntity
  8
部品1
100
AcDbLine
 10
7778.05856219695
 20
1422.69474813831
 30
0.0
 11
7778.05856219695
 21
1459.694748138312
 31
0.0
  0
LINE
  5
20410
330
747D
100
AcDbEntity
  8
部品1
100
AcDbLine
 10
7798.058562196951
 20
1422.69474813831
 30
0.0
 11
7798.058562196951
 21
1459.694748138312
 31
0.0
  0
LINE
  5
20411
330
747D
100
AcDbEntity
  8
部品1
100
AcDbLine
 10
7771.058562196952
 20
1438.694748138312
 30
0.0
 11
7805.058562196951
 21
1438.694748138312
 31
0.0
  0
LINE
  5
20412
330
747D
100
AcDbEntity
  8
部品1
100
AcDbLine
 10
7768.058562196952
 20
1422.69474813831
 30
0.0
 11
7768.058562196952
 21
1435.694748138312
 31
0.0
  0
LINE
  5
20413
330
747D
100
AcDbEntity
  8
部品1
100
AcDbLine
 10
7808.058562196952
 20
1422.694748138316
 30
0.0
 11
7808.058562196952
 21
1435.694748138312
 31
0.0
  0
LINE
  5
20414
330
747D
100
AcDbEntity
  8
部品1
100
AcDbLine
 10
7771.058562196952
 20
1438.694748138312
 30
0.0
 11
7768.058562196952
 21
1435.694748138312
 31
0.0
  0
LINE
  5
20415
330
747D
100
AcDbEntity
  8
部品1
100
AcDbLine
 10
7805.058562196951
 20
1438.694748138312
 30
0.0
 11
7808.058562196952
 21
1435.694748138312
 31
0.0
  0
LINE
  5
20416
330
747D
100
AcDbEntity
  8
部品1
100
AcDbLine
 10
7758.058562196952
 20
1419.69474813831
 30
0.0
 11
7758.058562196952
 21
1422.69474813831
 31
0.0
  0
LINE
  5
20417
330
747D
100
AcDbEntity
  8
部品1
100
AcDbLine
 10
7818.058562196951
 20
1419.69474813831
 30
0.0
 11
7818.058562196951
 21
1422.694748138319
 31
0.0
  0
LINE
  5
20418
330
747D
100
AcDbEntity
  8
部品1
100
AcDbLine
 10
7798.058562196951
 20
1440.094748138313
 30
0.0
 11
7803.058562196951
 21
1440.094748138313
 31
0.0
  0
LINE
  5
20419
330
747D
100
AcDbEntity
  8
部品1
100
AcDbLine
 10
7768.058562196952
 20
1435.694748138312
 30
0.0
 11
7808.058562196952
 21
1435.694748138312
 31
0.0
  0
ARC
  5
2041A
330
747D
100
AcDbEntity
  8
部品1
100
AcDbCircle
 10
7773.058562196951
 20
1431.179993347994
 30
0.0
 40
6.736691384996243
100
AcDbArc
 50
42.08048849858703
 51
137.9195115014129
  0
ARC
  5
2041B
330
747D
100
AcDbEntity
  8
部品1
100
AcDbCircle
 10
7803.058562196951
 20
1431.179993347994
 30
0.0
 40
6.736691384996243
100
AcDbArc
 50
42.08048849858703
 51
137.9195115014129
  0
ARC
  5
2041C
330
747D
100
AcDbEntity
  8
部品1
100
AcDbCircle
 10
7788.058562196951
 20
1414.606114917493
 30
0.0
 40
23.33946124318486
100
AcDbArc
 50
64.63020194521864
 51
115.3697980547813
  0
LINE
  5
2041D
330
747D
100
AcDbEntity
  8
部品1
100
AcDbLine
 10
7781.058562196951
 20
1471.947644161972
 30
0.0
 11
7795.058562196951
 21
1471.947644161972
 31
0.0
  0
LINE
  5
2041E
330
747D
100
AcDbEntity
  8
部品1
100
AcDbLine
 10
7783.058562196952
 20
1459.694748138312
 30
0.0
 11
7783.058562196952
 21
1467.947644161972
 31
0.0
  0
LINE
  5
2041F
330
747D
100
AcDbEntity
  8
部品1
100
AcDbLine
 10
7793.058562196951
 20
1459.694748138312
 30
0.0
 11
7793.058562196951
 21
1467.947644161972
 31
0.0
  0
LINE
  5
20420
330
747D
100
AcDbEntity
  8
部品1
100
AcDbLine
 10
7781.058562196951
 20
1467.947644161972
 30
0.0
 11
7781.058562196951
 21
1471.947644161972
 31
0.0
  0
LINE
  5
20421
330
747D
100
AcDbEntity
  8
部品1
100
AcDbLine
 10
7795.058562196951
 20
1467.947644161972
 30
0.0
 11
7795.058562196951
 21
1471.947644161972
 31
0.0
  0
LINE
  5
20422
330
747D
100
AcDbEntity
  8
部品1
100
AcDbLine
 10
7781.058562196951
 20
1467.947644161972
 30
0.0
 11
7795.058562196951
 21
1467.947644161972
 31
0.0
  0
LINE
  5
20423
330
747D
100
AcDbEntity
  8
部品1
100
AcDbLine
 10
7778.05856219695
 20
1407.69474813831
 30
0.0
 11
7778.05856219695
 21
1372.29474813831
 31
0.0
  0
LINE
  5
20424
330
747D
100
AcDbEntity
  8
部品1
100
AcDbLine
 10
7798.058562196951
 20
1407.69474813831
 30
0.0
 11
7798.058562196951
 21
1372.29474813831
 31
0.0
  0
LINE
  5
20425
330
747D
100
AcDbEntity
  8
部品1
100
AcDbLine
 10
7786.148061563413
 20
1372.29474813831
 30
0.0
 11
7789.96906283049
 21
1372.29474813831
 31
0.0
  0
LINE
  5
20426
330
747D
100
AcDbEntity
  8
部品1
100
AcDbLine
 10
7778.05856219695
 20
1372.29474813831
 30
0.0
 11
7772.058562196952
 21
1332.294748138311
 31
0.0
  0
LINE
  5
20427
330
747D
100
AcDbEntity
  8
部品1
100
AcDbLine
 10
7804.058562196951
 20
1332.294748138311
 30
0.0
 11
7798.058562196951
 21
1372.29474813831
 31
0.0
  0
LINE
  5
20428
330
747D
100
AcDbEntity
  8
部品1
100
AcDbLine
 10
7786.148061563413
 20
1372.29474813831
 30
0.0
 11
7779.970053019898
 21
1331.108024514871
 31
0.0
  0
LINE
  5
20429
330
747D
100
AcDbEntity
  8
部品1
100
AcDbLine
 10
7796.147071374005
 20
1331.108024514871
 30
0.0
 11
7789.96906283049
 21
1372.29474813831
 31
0.0
  0
LINE
  5
2042A
330
747D
100
AcDbEntity
  8
部品1
100
AcDbLine
 10
7772.058562196952
 20
1332.294748138311
 30
0.0
 11
7779.970053019898
 21
1331.108024514871
 31
0.0
  0
LINE
  5
2042B
330
747D
100
AcDbEntity
  8
部品1
100
AcDbLine
 10
7796.147071374005
 20
1331.108024514871
 30
0.0
 11
7804.058562196951
 21
1332.294748138311
 31
0.0
  0
LINE
  5
2042C
330
747D
100
AcDbEntity
  8
部品1
100
AcDbLine
 10
7772.948604914535
 20
1338.22836625552
 30
0.0
 11
7780.86009573748
 21
1337.041642632077
 31
0.0
  0
LINE
  5
2042D
330
747D
100
AcDbEntity
  8
部品1
100
AcDbLine
 10
7773.838647632111
 20
1344.161984372729
 30
0.0
 11
7781.750138455056
 21
1342.975260749286
 31
0.0
  0
LINE
  5
2042E
330
747D
100
AcDbEntity
  8
部品1
100
AcDbLine
 10
7774.728690349694
 20
1350.095602489937
 30
0.0
 11
7782.64018117264
 21
1348.908878866496
 31
0.0
  0
LINE
  5
2042F
330
747D
100
AcDbEntity
  8
部品1
100
AcDbLine
 10
7775.618733067277
 20
1356.029220607148
 30
0.0
 11
7783.530223890223
 21
1354.842496983709
 31
0.0
  0
LINE
  5
20430
330
747D
100
AcDbEntity
  8
部品1
100
AcDbLine
 10
7776.508775784852
 20
1361.962838724357
 30
0.0
 11
7784.420266607797
 21
1360.776115100914
 31
0.0
  0
LINE
  5
20431
330
747D
100
AcDbEntity
  8
部品1
100
AcDbLine
 10
7777.398818502435
 20
1367.896456841567
 30
0.0
 11
7785.310309325381
 21
1366.709733218124
 31
0.0
  0
LINE
  5
20432
330
747D
100
AcDbEntity
  8
部品1
100
AcDbLine
 10
7795.257028656422
 20
1337.041642632077
 30
0.0
 11
7803.168519479375
 21
1338.22836625552
 31
0.0
  0
LINE
  5
20433
330
747D
100
AcDbEntity
  8
部品1
100
AcDbLine
 10
7794.366985938847
 20
1342.975260749286
 30
0.0
 11
7802.278476761792
 21
1344.161984372729
 31
0.0
  0
LINE
  5
20434
330
747D
100
AcDbEntity
  8
部品1
100
AcDbLine
 10
7793.476943221263
 20
1348.908878866496
 30
0.0
 11
7801.388434044209
 21
1350.095602489937
 31
0.0
  0
LINE
  5
20435
330
747D
100
AcDbEntity
  8
部品1
100
AcDbLine
 10
7792.586900503687
 20
1354.842496983709
 30
0.0
 11
7800.498391326633
 21
1356.029220607148
 31
0.0
  0
LINE
  5
20436
330
747D
100
AcDbEntity
  8
部品1
100
AcDbLine
 10
7791.696857786104
 20
1360.776115100914
 30
0.0
 11
7799.60834860905
 21
1361.962838724357
 31
0.0
  0
LINE
  5
20437
330
747D
100
AcDbEntity
  8
部品1
100
AcDbLine
 10
7790.806815068521
 20
1366.709733218124
 30
0.0
 11
7798.718305891466
 21
1367.896456841567
 31
0.0
  0
ARC
  5
20438
330
747D
100
AcDbEntity
  8
部品1
100
AcDbCircle
 10
7757.112621677196
 20
1703.694748138312
 30
0.0
 40
10.0
100
AcDbArc
 50
90.0
 51
174.3157584018092
  0
CIRCLE
  5
20439
330
747D
100
AcDbEntity
  8
部品1
100
AcDbCircle
 10
7788.058562196951
 20
1651.69474813831
 30
0.0
 40
16.0
  0
LINE
  5
2043A
330
747D
100
AcDbEntity
  8
細線
100
AcDbLine
 10
7773.058562196951
 20
1627.694748138312
 30
0.0
 11
7803.058562196951
 21
1627.694748138312
 31
0.0
  0
LINE
  5
2043B
330
747D
100
AcDbEntity
  8
細線
100
AcDbLine
 10
7780.058562196952
 20
1691.694748138308
 30
0.0
 11
7780.058562196952
 21
1665.551154598863
 31
0.0
  0
LINE
  5
2043C
330
747D
100
AcDbEntity
  8
細線
100
AcDbLine
 10
7796.058562196951
 20
1691.694748138308
 30
0.0
 11
7796.058562196951
 21
1665.551154598863
 31
0.0
  0
ARC
  5
2043D
330
747D
100
AcDbEntity
  8
細線
100
AcDbCircle
 10
7788.058562196951
 20
1691.694748138308
 30
0.0
 40
8.0
100
AcDbArc
 50
0.0
 51
180.0
  0
LINE
  5
2043E
330
747D
100
AcDbEntity
  8
部品1
100
AcDbLine
 10
7757.112621677196
 20
1713.69474813831
 30
0.0
 11
7819.004502716707
 21
1713.694748138308
 31
0.0
  0
ARC
  5
2043F
330
747D
100
AcDbEntity
  8
部品1
100
AcDbCircle
 10
7819.004502716707
 20
1703.694748138309
 30
0.0
 40
10.0
100
AcDbArc
 50
5.684241598190771
 51
90.0
  0
LINE
  5
20440
330
747D
100
AcDbEntity
  8
細線
100
AcDbLine
 10
7773.058562196951
 20
1621.694748138312
 30
0.0
 11
7803.058562196951
 21
1621.694748138312
 31
0.0
  0
LINE
  5
20441
330
747D
100
AcDbEntity
  8
細線
100
AcDbLine
 10
7773.058562196951
 20
1627.694748138312
 30
0.0
 11
7773.058562196951
 21
1621.694748138312
 31
0.0
  0
LINE
  5
20442
330
747D
100
AcDbEntity
  8
細線
100
AcDbLine
 10
7803.058562196951
 20
1627.694748138307
 30
0.0
 11
7803.058562196951
 21
1621.694748138306
 31
0.0
  0
LINE
  5
20443
330
747D
100
AcDbEntity
  8
細線
 48
10.0
100
AcDbLine
 10
8180.137086027622
 20
1100.776550799026
 30
0.0
 11
8487.055283366899
 21
1407.69474813831
 31
0.0
  0
LINE
  5
20444
330
747D
100
AcDbEntity
  8
細線
 48
10.0
100
AcDbLine
 10
8151.852814780159
 20
1100.776550799026
 30
0.0
 11
8458.771012119433
 21
1407.69474813831
 31
0.0
  0
LINE
  5
20445
330
747D
100
AcDbEntity
  8
細線
 48
10.0
100
AcDbLine
 10
8123.568543532698
 20
1100.776550799026
 30
0.0
 11
8430.486740871973
 21
1407.69474813831
 31
0.0
  0
TEXT
  5
20446
330
747D
100
AcDbEntity
  8
部品1
100
AcDbText
 10
8202.547765465325
 20
1415.600789817214
 30
0.0
 40
120.0
  1
▽G.L
  7
STYLE1
100
AcDbText
  0
LINE
  5
20447
330
747D
100
AcDbEntity
  8
部品1
100
AcDbLine
 10
8715.593770111224
 20
1707.69474813831
 30
0.0
 11
9258.280075000268
 21
1707.694748138312
 31
0.0
  0
LINE
  5
20448
330
747D
100
AcDbEntity
  8
部品1
100
AcDbLine
 10
8715.593770111224
 20
1807.694748138312
 30
0.0
 11
9228.391166909936
 21
1807.694748138312
 31
0.0
  0
LINE
  5
20449
330
747D
100
AcDbEntity
  8
部品1
100
AcDbLine
 10
8715.593770111224
 20
1801.694748138312
 30
0.0
 11
9258.391166909936
 21
1801.694748138312
 31
0.0
  0
LINE
  5
2044A
330
747D
100
AcDbEntity
  8
細線
100
AcDbLine
 10
9229.345767673214
 20
1429.042580046925
 30
0.0
 11
8950.693599581828
 21
1707.69474813831
 31
0.0
  0
LINE
  5
2044B
330
747D
100
AcDbEntity
  8
細線
100
AcDbLine
 10
9233.276905266853
 20
1467.537849324482
 30
0.0
 11
8993.12000645302
 21
1707.69474813831
 31
0.0
  0
LINE
  5
2044C
330
747D
100
AcDbEntity
  8
細線
 48
10.0
100
AcDbLine
 10
8899.297536348013
 20
1100.776550799026
 30
0.0
 11
9206.215733687288
 21
1407.694748138312
 31
0.0
  0
LINE
  5
2044D
330
747D
100
AcDbEntity
  8
細線
 48
10.0
100
AcDbLine
 10
8927.581807595471
 20
1100.776550799026
 30
0.0
 11
9234.500004934742
 21
1407.69474813831
 31
0.0
  0
LINE
  5
2044E
330
747D
100
AcDbEntity
  8
細線
 48
10.0
100
AcDbLine
 10
8955.866078842937
 20
1100.776550799026
 30
0.0
 11
9262.784276182195
 21
1407.69474813831
 31
0.0
  0
LINE
  5
2044F
330
747D
100
AcDbEntity
  8
細線
 48
10.0
100
AcDbLine
 10
8715.593770111224
 20
1287.162630920169
 30
0.0
 11
8836.125887329355
 21
1407.69474813831
 31
0.0
  0
LINE
  5
20450
330
747D
100
AcDbEntity
  8
細線
 48
10.0
100
AcDbLine
 10
8715.593770111228
 20
1315.446902167628
 30
0.0
 11
8807.841616081903
 21
1407.69474813831
 31
0.0
  0
LINE
  5
20451
330
747D
100
AcDbEntity
  8
細線
 48
10.0
100
AcDbLine
 10
8715.593770111224
 20
1343.731173415082
 30
0.0
 11
8779.557344834451
 21
1407.69474813831
 31
0.0
  0
LINE
  5
20452
330
747D
100
AcDbEntity
  8
部品1
100
AcDbLine
 10
8938.391166909934
 20
1407.694748138307
 30
0.0
 11
8938.391166909934
 21
1707.69474813831
 31
0.0
  0
LINE
  5
20453
330
747D
100
AcDbEntity
  8
細線
100
AcDbLine
 10
9066.845836473325
 20
1407.69474813831
 30
0.0
 11
8938.391166909934
 21
1536.149417701703
 31
0.0
  0
LINE
  5
20454
330
747D
100
AcDbEntity
  8
細線
100
AcDbLine
 10
9024.419429602131
 20
1407.69474813831
 30
0.0
 11
8938.391166909934
 21
1493.72301083051
 31
0.0
  0
LINE
  5
20455
330
747D
100
AcDbEntity
  8
細線
 48
10.0
100
AcDbLine
 10
9382.524467695754
 20
1100.776550799026
 30
0.0
 11
9689.442665035038
 21
1407.694748138312
 31
0.0
  0
LINE
  5
20456
330
747D
100
AcDbEntity
  8
細線
 48
10.0
100
AcDbLine
 10
9354.240196448296
 20
1100.776550799026
 30
0.0
 11
9661.15839378757
 21
1407.69474813831
 31
0.0
  0
LINE
  5
20457
330
747D
100
AcDbEntity
  8
細線
 48
10.0
100
AcDbLine
 10
9325.955925200837
 20
1100.776550799026
 30
0.0
 11
9632.87412254011
 21
1407.69474813831
 31
0.0
  0
DIMENSION
  5
20458
330
747D
100
AcDbEntity
  8
寸法
 48
50.0
100
AcDbDimension
  2
*D16
 10
9541.137812536717
 20
1407.69474813831
 30
0.0
 11
9441.137812536718
 21
1557.694748138312
 31
0.0
 70
    32
  1
c
 71
     5
 42
300.0
  3
INABA_S40G
100
AcDbAlignedDimension
 13
9338.5022588196
 23
1707.69474813831
 33
0.0
 14
9368.391166909933
 24
1407.69474813831
 34
0.0
 50
90.0
100
AcDbRotatedDimension
1001
ACAD
1000
DSTYLE
1002
{
1070
   174
1070
     0
1070
   272
1070
     1
1070
   288
1070
     0
1070
   341
1005
0
1002
}
  0
LINE
  5
20459
330
747D
100
AcDbEntity
  8
部品1
100
AcDbLine
 10
9257.494397901863
 20
1704.68520883721
 30
0.0
 11
9228.391166909933
 21
1419.69474813831
 31
0.0
  0
LINE
  5
2045A
330
747D
100
AcDbEntity
  8
部品1
100
AcDbLine
 10
9339.287935918004
 20
1704.68520883721
 30
0.0
 11
9368.391166909933
 21
1419.69474813831
 31
0.0
  0
LINE
  5
2045B
330
747D
100
AcDbEntity
  8
部品1
100
AcDbLine
 10
9228.391166909933
 20
1419.69474813831
 30
0.0
 11
9368.391166909933
 21
1419.69474813831
 31
0.0
  0
LINE
  5
2045C
330
747D
100
AcDbEntity
  8
部品1
100
AcDbLine
 10
9228.391166909933
 20
1407.69474813831
 30
0.0
 11
9368.391166909933
 21
1407.69474813831
 31
0.0
  0
LINE
  5
2045D
330
747D
100
AcDbEntity
  8
部品1
100
AcDbLine
 10
9306.479676086986
 20
1331.108024514869
 30
0.0
 11
9300.30166754347
 21
1372.294748138309
 31
0.0
  0
LINE
  5
2045E
330
747D
100
AcDbEntity
  8
部品1
100
AcDbLine
 10
9296.480666276394
 20
1372.294748138309
 30
0.0
 11
9290.302657732878
 21
1331.108024514869
 31
0.0
  0
LINE
  5
2045F
330
747D
100
AcDbEntity
  8
部品1
100
AcDbLine
 10
9314.391166909933
 20
1332.294748138309
 30
0.0
 11
9308.391166909933
 21
1372.294748138309
 31
0.0
  0
LINE
  5
20460
330
747D
100
AcDbEntity
  8
部品1
100
AcDbLine
 10
9288.391166909933
 20
1372.294748138309
 30
0.0
 11
9282.391166909933
 21
1332.294748138309
 31
0.0
  0
LINE
  5
20461
330
747D
100
AcDbEntity
  8
部品1
100
AcDbLine
 10
9304.699590651827
 20
1342.975260749284
 30
0.0
 11
9312.611081474774
 21
1344.161984372727
 31
0.0
  0
LINE
  5
20462
330
747D
100
AcDbEntity
  8
部品1
100
AcDbLine
 10
9305.589633369404
 20
1337.041642632077
 30
0.0
 11
9313.501124192354
 21
1338.22836625552
 31
0.0
  0
LINE
  5
20463
330
747D
100
AcDbEntity
  8
部品1
100
AcDbLine
 10
9284.171252345092
 20
1344.161984372727
 30
0.0
 11
9292.082743168037
 21
1342.975260749284
 31
0.0
  0
LINE
  5
20464
330
747D
100
AcDbEntity
  8
部品1
100
AcDbLine
 10
9283.281209627515
 20
1338.22836625552
 30
0.0
 11
9291.192700450462
 21
1337.041642632077
 31
0.0
  0
LINE
  5
20465
330
747D
100
AcDbEntity
  8
部品1
100
AcDbLine
 10
9306.479676086986
 20
1331.108024514869
 30
0.0
 11
9314.391166909933
 21
1332.294748138309
 31
0.0
  0
LINE
  5
20466
330
747D
100
AcDbEntity
  8
部品1
100
AcDbLine
 10
9282.391166909933
 20
1332.294748138309
 30
0.0
 11
9290.302657732878
 21
1331.108024514869
 31
0.0
  0
LINE
  5
20467
330
747D
100
AcDbEntity
  8
部品1
100
AcDbLine
 10
9228.391166909933
 20
1419.69474813831
 30
0.0
 11
9228.391166909933
 21
1407.69474813831
 31
0.0
  0
LINE
  5
20468
330
747D
100
AcDbEntity
  8
部品1
100
AcDbLine
 10
9283.391166909932
 20
1474.094748138312
 30
0.0
 11
9313.391166909934
 21
1474.094748138312
 31
0.0
  0
LINE
  5
20469
330
747D
100
AcDbEntity
  8
部品1
100
AcDbLine
 10
9283.391166909932
 20
1480.094748138312
 30
0.0
 11
9313.391166909934
 21
1480.094748138312
 31
0.0
  0
LINE
  5
2046A
330
747D
100
AcDbEntity
  8
部品1
100
AcDbLine
 10
9283.391166909932
 20
1480.094748138312
 30
0.0
 11
9283.391166909932
 21
1474.094748138312
 31
0.0
  0
LINE
  5
2046B
330
747D
100
AcDbEntity
  8
部品1
100
AcDbLine
 10
9313.391166909934
 20
1480.094748138308
 30
0.0
 11
9313.391166909934
 21
1474.094748138308
 31
0.0
  0
LINE
  5
2046C
330
747D
100
AcDbEntity
  8
部品1
100
AcDbLine
 10
9283.391166909932
 20
1440.094748138312
 30
0.0
 11
9288.391166909933
 21
1440.094748138312
 31
0.0
  0
LINE
  5
2046D
330
747D
100
AcDbEntity
  8
部品1
100
AcDbLine
 10
9283.391166909932
 20
1440.094748138312
 30
0.0
 11
9283.391166909932
 21
1438.694748138306
 31
0.0
  0
LINE
  5
2046E
330
747D
100
AcDbEntity
  8
部品1
100
AcDbLine
 10
9313.391166909934
 20
1440.094748138308
 30
0.0
 11
9313.391166909934
 21
1438.69474813831
 31
0.0
  0
LINE
  5
2046F
330
747D
100
AcDbEntity
  8
部品1
100
AcDbLine
 10
9283.391166909932
 20
1438.69474813831
 30
0.0
 11
9313.391166909934
 21
1438.69474813831
 31
0.0
  0
LINE
  5
20470
330
747D
100
AcDbEntity
  8
部品1
100
AcDbLine
 10
9305.391166909933
 20
1467.94764416197
 30
0.0
 11
9305.391166909933
 21
1471.94764416197
 31
0.0
  0
LINE
  5
20471
330
747D
100
AcDbEntity
  8
部品1
100
AcDbLine
 10
9291.391166909932
 20
1467.94764416197
 30
0.0
 11
9291.391166909932
 21
1471.94764416197
 31
0.0
  0
LINE
  5
20472
330
747D
100
AcDbEntity
  8
部品1
100
AcDbLine
 10
9301.139419781502
 20
1366.709733218122
 30
0.0
 11
9309.050910604447
 21
1367.896456841565
 31
0.0
  0
LINE
  5
20473
330
747D
100
AcDbEntity
  8
部品1
100
AcDbLine
 10
9302.029462499085
 20
1360.776115100914
 30
0.0
 11
9309.940953322032
 21
1361.962838724357
 31
0.0
  0
LINE
  5
20474
330
747D
100
AcDbEntity
  8
部品1
100
AcDbLine
 10
9302.919505216669
 20
1354.842496983707
 30
0.0
 11
9310.830996039614
 21
1356.029220607146
 31
0.0
  0
LINE
  5
20475
330
747D
100
AcDbEntity
  8
部品1
100
AcDbLine
 10
9303.809547934244
 20
1348.908878866496
 30
0.0
 11
9311.721038757189
 21
1350.095602489935
 31
0.0
  0
LINE
  5
20476
330
747D
100
AcDbEntity
  8
部品1
100
AcDbLine
 10
9287.731423215417
 20
1367.896456841565
 30
0.0
 11
9295.642914038364
 21
1366.709733218122
 31
0.0
  0
LINE
  5
20477
330
747D
100
AcDbEntity
  8
部品1
100
AcDbLine
 10
9286.841380497833
 20
1361.962838724357
 30
0.0
 11
9294.752871320779
 21
1360.776115100914
 31
0.0
  0
LINE
  5
20478
330
747D
100
AcDbEntity
  8
部品1
100
AcDbLine
 10
9285.951337780259
 20
1356.029220607146
 30
0.0
 11
9293.862828603201
 21
1354.842496983707
 31
0.0
  0
LINE
  5
20479
330
747D
100
AcDbEntity
  8
部品1
100
AcDbLine
 10
9285.061295062675
 20
1350.095602489935
 30
0.0
 11
9292.972785885622
 21
1348.908878866496
 31
0.0
  0
LINE
  5
2047A
330
747D
100
AcDbEntity
  8
部品1
100
AcDbLine
 10
9296.480666276394
 20
1372.294748138309
 30
0.0
 11
9300.30166754347
 21
1372.294748138309
 31
0.0
  0
LINE
  5
2047B
330
747D
100
AcDbEntity
  8
部品1
100
AcDbLine
 10
9308.391166909933
 20
1407.69474813831
 30
0.0
 11
9308.391166909933
 21
1372.294748138309
 31
0.0
  0
LINE
  5
2047C
330
747D
100
AcDbEntity
  8
部品1
100
AcDbLine
 10
9288.391166909933
 20
1407.69474813831
 30
0.0
 11
9288.391166909933
 21
1372.294748138309
 31
0.0
  0
LINE
  5
2047D
330
747D
100
AcDbEntity
  8
部品1
100
AcDbLine
 10
9303.391166909932
 20
1459.69474813831
 30
0.0
 11
9303.391166909932
 21
1467.94764416197
 31
0.0
  0
LINE
  5
2047E
330
747D
100
AcDbEntity
  8
部品1
100
AcDbLine
 10
9293.391166909932
 20
1459.69474813831
 30
0.0
 11
9293.391166909932
 21
1467.94764416197
 31
0.0
  0
LINE
  5
2047F
330
747D
100
AcDbEntity
  8
部品1
100
AcDbLine
 10
9291.391166909932
 20
1467.94764416197
 30
0.0
 11
9305.391166909933
 21
1467.94764416197
 31
0.0
  0
ARC
  5
20480
330
747D
100
AcDbEntity
  8
部品1
100
AcDbCircle
 10
9298.391166909933
 20
1414.606114917493
 30
0.0
 40
23.33946124318486
100
AcDbArc
 50
64.63020194521864
 51
115.3697980547813
  0
ARC
  5
20481
330
747D
100
AcDbEntity
  8
部品1
100
AcDbCircle
 10
9313.391166909934
 20
1431.179993347992
 30
0.0
 40
6.736691384996243
100
AcDbArc
 50
42.08048849858703
 51
137.9195115014129
  0
ARC
  5
20482
330
747D
100
AcDbEntity
  8
部品1
100
AcDbCircle
 10
9283.391166909932
 20
1431.179993347992
 30
0.0
 40
6.736691384996243
100
AcDbArc
 50
42.08048849858703
 51
137.9195115014129
  0
LINE
  5
20483
330
747D
100
AcDbEntity
  8
部品1
100
AcDbLine
 10
9278.391166909932
 20
1435.69474813831
 30
0.0
 11
9318.391166909933
 21
1435.69474813831
 31
0.0
  0
LINE
  5
20484
330
747D
100
AcDbEntity
  8
部品1
100
AcDbLine
 10
9308.391166909933
 20
1440.094748138312
 30
0.0
 11
9313.391166909934
 21
1440.094748138312
 31
0.0
  0
LINE
  5
20485
330
747D
100
AcDbEntity
  8
部品1
100
AcDbLine
 10
9283.391166909932
 20
1440.094748138312
 30
0.0
 11
9288.391166909933
 21
1440.094748138312
 31
0.0
  0
LINE
  5
20486
330
747D
100
AcDbEntity
  8
部品1
100
AcDbLine
 10
9318.391166909933
 20
1422.694748138314
 30
0.0
 11
9318.391166909933
 21
1435.69474813831
 31
0.0
  0
LINE
  5
20487
330
747D
100
AcDbEntity
  8
部品1
100
AcDbLine
 10
9308.391166909933
 20
1422.69474813831
 30
0.0
 11
9308.391166909933
 21
1459.69474813831
 31
0.0
  0
LINE
  5
20488
330
747D
100
AcDbEntity
  8
部品1
100
AcDbLine
 10
9288.391166909933
 20
1422.69474813831
 30
0.0
 11
9288.391166909933
 21
1459.69474813831
 31
0.0
  0
LINE
  5
20489
330
747D
100
AcDbEntity
  8
部品1
100
AcDbLine
 10
9278.391166909932
 20
1422.69474813831
 30
0.0
 11
9278.391166909932
 21
1435.69474813831
 31
0.0
  0
LINE
  5
2048A
330
747D
100
AcDbEntity
  8
部品1
100
AcDbLine
 10
9328.391166909932
 20
1419.69474813831
 30
0.0
 11
9328.391166909932
 21
1422.694748138318
 31
0.0
  0
LINE
  5
2048B
330
747D
100
AcDbEntity
  8
部品1
100
AcDbLine
 10
9268.391166909934
 20
1419.69474813831
 30
0.0
 11
9268.391166909934
 21
1422.69474813831
 31
0.0
  0
LINE
  5
2048C
330
747D
100
AcDbEntity
  8
部品1
100
AcDbLine
 10
9268.391166909934
 20
1422.69474813831
 30
0.0
 11
9328.391166909932
 21
1422.694748138314
 31
0.0
  0
LINE
  5
2048D
330
747D
100
AcDbEntity
  8
部品1
100
AcDbLine
 10
9313.391166909934
 20
1440.094748138308
 30
0.0
 11
9313.391166909934
 21
1438.69474813831
 31
0.0
  0
LINE
  5
2048E
330
747D
100
AcDbEntity
  8
部品1
100
AcDbLine
 10
9283.391166909932
 20
1440.094748138312
 30
0.0
 11
9283.391166909932
 21
1438.69474813831
 31
0.0
  0
LINE
  5
2048F
330
747D
100
AcDbEntity
  8
部品1
100
AcDbLine
 10
9315.391166909932
 20
1438.69474813831
 30
0.0
 11
9318.391166909933
 21
1435.69474813831
 31
0.0
  0
LINE
  5
20490
330
747D
100
AcDbEntity
  8
部品1
100
AcDbLine
 10
9281.391166909932
 20
1438.69474813831
 30
0.0
 11
9315.391166909932
 21
1438.69474813831
 31
0.0
  0
LINE
  5
20491
330
747D
100
AcDbEntity
  8
部品1
100
AcDbLine
 10
9281.391166909932
 20
1438.69474813831
 30
0.0
 11
9278.391166909932
 21
1435.69474813831
 31
0.0
  0
LINE
  5
20492
330
747D
100
AcDbEntity
  8
部品1
100
AcDbLine
 10
9288.391166909933
 20
1459.69474813831
 30
0.0
 11
9308.391166909933
 21
1459.69474813831
 31
0.0
  0
LINE
  5
20493
330
747D
100
AcDbEntity
  8
部品1
100
AcDbLine
 10
9291.391166909932
 20
1471.94764416197
 30
0.0
 11
9305.391166909933
 21
1471.94764416197
 31
0.0
  0
LINE
  5
20494
330
747D
100
AcDbEntity
  8
部品1
100
AcDbLine
 10
9313.391166909934
 20
1480.094748138308
 30
0.0
 11
9313.391166909934
 21
1474.094748138308
 31
0.0
  0
LINE
  5
20495
330
747D
100
AcDbEntity
  8
部品1
100
AcDbLine
 10
9283.391166909932
 20
1480.094748138312
 30
0.0
 11
9283.391166909932
 21
1474.094748138312
 31
0.0
  0
LINE
  5
20496
330
747D
100
AcDbEntity
  8
部品1
100
AcDbLine
 10
9283.391166909932
 20
1480.094748138312
 30
0.0
 11
9313.391166909934
 21
1480.094748138312
 31
0.0
  0
LINE
  5
20497
330
747D
100
AcDbEntity
  8
部品1
100
AcDbLine
 10
9283.391166909932
 20
1474.094748138312
 30
0.0
 11
9313.391166909934
 21
1474.094748138312
 31
0.0
  0
LINE
  5
20498
330
747D
100
AcDbEntity
  8
部品1
100
AcDbLine
 10
9308.391166909933
 20
1440.094748138312
 30
0.0
 11
9313.391166909934
 21
1440.094748138312
 31
0.0
  0
LINE
  5
20499
330
747D
100
AcDbEntity
  8
部品1
100
AcDbLine
 10
9368.391166909933
 20
1419.69474813831
 30
0.0
 11
9368.391166909933
 21
1407.69474813831
 31
0.0
  0
LINE
  5
2049A
330
747D
100
AcDbEntity
  8
細線
100
AcDbLine
 10
9254.242972432908
 20
1672.845952138121
 30
0.0
 11
9219.39417643272
 21
1707.69474813831
 31
0.0
  0
LINE
  5
2049B
330
747D
100
AcDbEntity
  8
細線
100
AcDbLine
 10
9250.311834839274
 20
1634.350682860564
 30
0.0
 11
9176.967769561528
 21
1707.69474813831
 31
0.0
  0
LINE
  5
2049C
330
747D
100
AcDbEntity
  8
部品1
100
AcDbLine
 10
9268.391166909934
 20
1821.294748138309
 30
0.0
 11
9328.391166909932
 21
1821.294748138312
 31
0.0
  0
ARC
  5
2049D
330
747D
100
AcDbEntity
  8
部品1
100
AcDbCircle
 10
9268.391166909934
 20
1811.294748138308
 30
0.0
 40
10.0
100
AcDbArc
 50
90.0
 51
180.0
  0
ARC
  5
2049E
330
747D
100
AcDbEntity
  8
部品1
100
AcDbCircle
 10
9328.391166909932
 20
1811.294748138313
 30
0.0
 40
10.0
100
AcDbArc
 50
0.0
 51
90.0
  0
ARC
  5
2049F
330
747D
100
AcDbEntity
  8
部品1
100
AcDbCircle
 10
9298.391166909933
 20
1761.294748138309
 30
0.0
 40
8.0
100
AcDbArc
 50
28.00674301450029
 51
151.9932569854997
  0
CIRCLE
  5
204A0
330
747D
100
AcDbEntity
  8
部品1
100
AcDbCircle
 10
9298.391166909933
 20
1750.69474813831
 30
0.0
 40
16.0
  0
CIRCLE
  5
204A1
330
747D
100
AcDbEntity
  8
細線
100
AcDbCircle
 10
9298.391166909933
 20
1791.294748138309
 30
0.0
 40
8.0
  0
ARC
  5
204A2
330
747D
100
AcDbEntity
  8
細線
100
AcDbCircle
 10
9298.391166909933
 20
1691.694748138307
 30
0.0
 40
8.0
100
AcDbArc
 50
0.0
 51
180.0
  0
LINE
  5
204A3
330
747D
100
AcDbEntity
  8
細線
100
AcDbLine
 10
9283.391166909932
 20
1621.69474813831
 30
0.0
 11
9313.391166909934
 21
1621.69474813831
 31
0.0
  0
LINE
  5
204A4
330
747D
100
AcDbEntity
  8
細線
100
AcDbLine
 10
9283.391166909932
 20
1627.69474813831
 30
0.0
 11
9313.391166909934
 21
1627.69474813831
 31
0.0
  0
LINE
  5
204A5
330
747D
100
AcDbEntity
  8
細線
100
AcDbLine
 10
9283.391166909932
 20
1627.69474813831
 30
0.0
 11
9283.391166909932
 21
1621.69474813831
 31
0.0
  0
LINE
  5
204A6
330
747D
100
AcDbEntity
  8
細線
100
AcDbLine
 10
9313.391166909934
 20
1627.694748138307
 30
0.0
 11
9313.391166909934
 21
1621.694748138306
 31
0.0
  0
LINE
  5
204A7
330
747D
100
AcDbEntity
  8
細線
100
AcDbLine
 10
9290.391166909932
 20
1691.694748138307
 30
0.0
 11
9290.391166909932
 21
1665.151154598861
 31
0.0
  0
LINE
  5
204A8
330
747D
100
AcDbEntity
  8
細線
100
AcDbLine
 10
9306.391166909932
 20
1691.694748138307
 30
0.0
 11
9306.391166909932
 21
1665.151154598861
 31
0.0
  0
CIRCLE
  5
204A9
330
747D
100
AcDbEntity
  8
部品1
100
AcDbCircle
 10
9298.391166909933
 20
1651.294748138309
 30
0.0
 40
16.0
  0
LINE
  5
204AA
330
747D
100
AcDbEntity
  8
部品1
100
AcDbLine
 10
9267.445226390178
 20
1713.69474813831
 30
0.0
 11
9329.337107429688
 21
1713.694748138307
 31
0.0
  0
ARC
  5
204AB
330
747D
100
AcDbEntity
  8
部品1
100
AcDbCircle
 10
9267.445226390178
 20
1703.69474813831
 30
0.0
 40
10.0
100
AcDbArc
 50
90.0
 51
174.3157584018092
  0
ARC
  5
204AC
330
747D
100
AcDbEntity
  8
部品1
100
AcDbCircle
 10
9329.337107429688
 20
1703.694748138306
 30
0.0
 40
10.0
100
AcDbArc
 50
5.684241598190771
 51
90.0
  0
ARC
  5
204AD
330
747D
100
AcDbEntity
  8
部品1
100
AcDbCircle
 10
9298.391166909933
 20
1721.294748138309
 30
0.0
 40
8.0
100
AcDbArc
 50
180.0
 51
251.8051276613376
  0
ARC
  5
204AE
330
747D
100
AcDbEntity
  8
部品1
100
AcDbCircle
 10
9298.391166909933
 20
1721.294748138309
 30
0.0
 40
8.0
100
AcDbArc
 50
288.1948723386625
 51
0.0
  0
LINE
  5
204AF
330
747D
100
AcDbEntity
  8
部品1
100
AcDbLine
 10
9258.391166909932
 20
1811.294748138308
 30
0.0
 11
9258.391166909932
 21
1707.940217126317
 31
0.0
  0
LINE
  5
204B0
330
747D
100
AcDbEntity
  8
部品1
100
AcDbLine
 10
9338.391166909934
 20
1811.294748138313
 30
0.0
 11
9338.391166909934
 21
1707.940217126323
 31
0.0
  0
LINE
  5
204B1
330
747D
100
AcDbEntity
  8
部品1
100
AcDbLine
 10
9306.391166909932
 20
1736.838341677758
 30
0.0
 11
9306.391166909932
 21
1721.294748138309
 31
0.0
  0
LINE
  5
204B2
330
747D
100
AcDbEntity
  8
部品1
100
AcDbLine
 10
9290.391166909932
 20
1736.838341677758
 30
0.0
 11
9290.391166909932
 21
1721.294748138309
 31
0.0
  0
TEXT
  5
204B3
330
747D
100
AcDbEntity
  8
部品1
100
AcDbText
 10
7803.640139765929
 20
2442.800010031197
 30
0.0
 40
120.0
  1
地盤がコンクリートの場合
  7
STYLE2
100
AcDbText
  0
LINE
  5
204B4
330
747D
100
AcDbEntity
  8
部品1
 48
50.0
100
AcDbLine
 10
10242.29535892065
 20
2866.933960526558
 30
0.0
 11
10242.29535892065
 21
466.9339605265559
 31
0.0
  0
DIMENSION
  5
204B5
330
747D
100
AcDbEntity
  8
寸法
 48
50.0
100
AcDbDimension
  2
*D17
 10
6473.074065544247
 20
1407.69474813831
 30
0.0
 11
6373.074065544248
 21
1507.694748138312
 31
0.0
 70
    32
  1
a
 71
     5
 42
200.0000000000009
  3
INABA_S40G
100
AcDbAlignedDimension
 13
6225.003061183854
 23
1607.694748138311
 33
0.0
 14
6225.003061183856
 24
1407.69474813831
 34
0.0
 50
90.0
100
AcDbRotatedDimension
1001
ACAD
1000
DSTYLE
1002
{
1070
   174
1070
     0
1070
   272
1070
     1
1070
   288
1070
     0
1070
   341
1005
0
1002
}
  0
TEXT
  5
204B6
330
747D
100
AcDbEntity
  8
部品1
100
AcDbText
 10
7131.462616169248
 20
940.8590703736635
 30
0.0
 40
80.0
  1
b寸法：100～120mmに対応
  7
STYLE2
100
AcDbText
  0
TEXT
  5
204B7
330
747D
100
AcDbEntity
  8
部品1
100
AcDbText
 10
7136.008070714703
 20
795.2530097676026
 30
0.0
 40
80.0
  1
\U+203BオールアンカーM10(市販品)
  7
STYLE2
100
AcDbText
  0
TEXT
  5
204B8
330
747D
100
AcDbEntity
  8
部品1
100
AcDbText
 10
7137.371707078338
 20
645.5560400706335
 30
0.0
 40
80.0
  1
  が4本必要になります。
  7
STYLE2
100
AcDbText
  0
TEXT
  5
204B9
330
747D
100
AcDbEntity
  8
部品1
100
AcDbText
 10
8690.794460693885
 20
940.8590703736635
 30
0.0
 40
80.0
  1
c寸法：135～175,190mmに対応
  7
STYLE2
100
AcDbText
  0
TEXT
  5
204BA
330
747D
100
AcDbEntity
  8
部品1
100
AcDbText
 10
8694.885369784794
 20
795.2530097676026
 30
0.0
 40
80.0
  1
\U+203BオールアンカーM10(市販品)
  7
STYLE2
100
AcDbText
  0
TEXT
  5
204BB
330
747D
100
AcDbEntity
  8
部品1
100
AcDbText
 10
8696.24900614843
 20
645.5560400706335
 30
0.0
 40
80.0
  1
  が4本必要になります。
  7
STYLE2
100
AcDbText
  0
TEXT
  5
204BC
330
747D
100
AcDbEntity
  8
部品1
100
AcDbText
 10
5578.844636969594
 20
669.0253276535741
 30
0.0
 40
80.0
  1
a寸法：100～150mmに対応
  7
STYLE2
100
AcDbText
  0
LINE
  5
204BD
330
747D
100
AcDbEntity
  8
部品1
 48
50.0
100
AcDbLine
 10
5975.003061183851
 20
1007.69474813831
 30
0.0
 11
5975.003061183851
 21
1407.69474813831
 31
0.0
  0
LINE
  5
204BE
330
747D
100
AcDbEntity
  8
部品1
 48
50.0
100
AcDbLine
 10
6375.003061183852
 20
1407.69474813831
 30
0.0
 11
6375.003061183851
 21
1007.694748138312
 31
0.0
  0
LINE
  5
204BF
330
747D
100
AcDbEntity
  8
部品1
 48
50.0
100
AcDbLine
 10
6375.003061183851
 20
1007.694748138312
 30
0.0
 11
5975.003061183851
 21
1007.69474813831
 31
0.0
  0
ENDSEC
  0
SECTION
  2
OBJECTS
  0
DICTIONARY
  5
7471
330
0
100
AcDbDictionary
281
     1
  3
ACAD_COLOR
350
159B0
  3
ACAD_GROUP
350
7472
  3
ACAD_LAYOUT
350
159B1
  3
ACAD_MATERIAL
350
159AF
  3
ACAD_MLINESTYLE
350
7473
  3
ACAD_PLOTSETTINGS
350
159B2
  3
ACAD_PLOTSTYLENAME
350
159AD
  3
ACDBHEADERROUNDTRIPXREC
350
205CB
  3
AcDbVariableDictionary
350
205C7
  3
CONTENTDICTIONARY
350
E71C
  3
DRAWINGVARIABLESDICT
350
F3B9
  0
DICTIONARY
  5
1E67E
330
7467
100
AcDbDictionary
280
     1
281
     1
  3
ACAD_LAYERSTATES
360
1E67F
  0
DICTIONARY
  5
159B0
102
{ACAD_REACTORS
330
7471
102
}
330
7471
100
AcDbDictionary
281
     1
  0
DICTIONARY
  5
7472
102
{ACAD_REACTORS
330
7471
102
}
330
7471
100
AcDbDictionary
281
     1
  3
*A1
350
1FC8E
  3
*A2
350
1FD42
  3
*A3
350
1FD47
  3
*A4
350
1FD4C
  0
DICTIONARY
  5
159B1
102
{ACAD_REACTORS
330
7471
102
}
330
7471
100
AcDbDictionary
281
     1
  3
Model
350
159B3
  3
レイアウト1
350
159B4
  0
DICTIONARY
  5
159AF
102
{ACAD_REACTORS
330
7471
102
}
330
7471
100
AcDbDictionary
281
     1
  0
DICTIONARY
  5
7473
102
{ACAD_REACTORS
330
7471
102
}
330
7471
100
AcDbDictionary
281
     1
  3
STANDARD
350
7480
  0
DICTIONARY
  5
159B2
102
{ACAD_REACTORS
330
7471
102
}
330
7471
100
AcDbDictionary
281
     1
  0
ACDBDICTIONARYWDFLT
  5
159AD
102
{ACAD_REACTORS
330
7471
102
}
330
7471
100
AcDbDictionary
281
     1
  3
Normal
350
159AE
100
AcDbDictionaryWithDefault
340
159AE
  0
DICTIONARY
  5
205CB
102
{ACAD_REACTORS
330
7471
102
}
330
7471
100
AcDbDictionary
281
     1
  3
COLORDICT
350
205CD
  3
MATERIALDICT
350
205CC
  0
DICTIONARY
  5
205C7
102
{ACAD_REACTORS
330
7471
102
}
330
7471
100
AcDbDictionary
281
     1
  3
DIMASSOC
350
205C8
  3
PROJECTNAME
350
205C9
  0
DICTIONARY
  5
E71C
102
{ACAD_REACTORS
330
7471
102
}
330
7471
100
AcDbDictionary
281
     1
  0
DICTIONARY
  5
F3B9
102
{ACAD_REACTORS
330
7471
102
}
330
7471
100
AcDbDictionary
281
     1
1001
DRAWINGVARIABLESXDATA
1000
POLARMODE
1000
1
  0
DICTIONARY
  5
1E67F
102
{ACAD_REACTORS
330
1E67E
102
}
330
1E67E
100
AcDbDictionary
281
     1
  0
GROUP
  5
1FC8E
102
{ACAD_REACTORS
330
7472
102
}
330
7472
100
AcDbGroup
300

 70
     1
 71
     1
340
1FB3C
340
1FB3B
340
1FB3A
340
1FB3D
  0
GROUP
  5
1FD42
102
{ACAD_REACTORS
330
7472
102
}
330
7472
100
AcDbGroup
300

 70
     1
 71
     1
340
1FD3E
340
1FD3F
340
1FD40
340
1FD41
  0
GROUP
  5
1FD47
102
{ACAD_REACTORS
330
7472
102
}
330
7472
100
AcDbGroup
300

 70
     1
 71
     1
340
1FD43
340
1FD44
340
1FD45
340
1FD46
  0
GROUP
  5
1FD4C
102
{ACAD_REACTORS
330
7472
102
}
330
7472
100
AcDbGroup
300

 70
     1
 71
     1
340
1FD48
340
1FD49
340
1FD4A
340
1FD4B
  0
LAYOUT
  5
159B3
102
{ACAD_XDICTIONARY
360
205CE
102
}
102
{ACAD_REACTORS
330
159B1
102
}
330
159B1
100
AcDbPlotSettings
  1

  2
none_device
  4
Letter_(8.50_x_11.00_Inches)
  6

 40
6.349999904632568
 41
6.349999904632568
 42
6.350006103515625
 43
6.350006103515625
 44
215.8999938964844
 45
279.3999938964844
 46
0.0
 47
0.0
 48
0.0
 49
0.0
140
0.0
141
0.0
142
1.0
143
1.0
 70
 11952
 72
     1
 73
     1
 74
     0
  7

 75
     0
147
1.0
148
-4149.571981164617
149
65.56433826894044
100
AcDbLayout
  1
Model
 70
     1
 71
     0
 10
0.0
 20
0.0
 11
12.0
 21
9.0
 12
0.0
 22
0.0
 32
0.0
 14
0.0
 24
0.0
 34
0.0
 15
0.0
 25
0.0
 35
0.0
146
0.0
 13
0.0
 23
0.0
 33
0.0
 16
1.0
 26
0.0
 36
0.0
 17
0.0
 27
1.0
 37
0.0
 76
     0
330
747D
  0
LAYOUT
  5
159B4
102
{ACAD_XDICTIONARY
360
205D0
102
}
102
{ACAD_REACTORS
330
159B1
102
}
330
159B1
100
AcDbPlotSettings
  1

  2
自動 EPSON LP-8400FX (TATENO 上)
  4

  6

 40
0.0
 41
0.0
 42
0.0
 43
0.0
 44
0.0
 45
0.0
 46
0.0
 47
0.0
 48
0.0
 49
0.0
140
0.0
141
0.0
142
1.0
143
1.0
 70
   688
 72
     0
 73
     0
 74
     5
  7
inaba.ctb
 75
    16
147
1.0
148
0.0
149
0.0
100
AcDbLayout
  1
レイアウト1
 70
     0
 71
     1
 10
0.0
 20
0.0
 11
420.0
 21
297.0
 12
0.0
 22
0.0
 32
0.0
 14
1.000000000000000E+20
 24
1.000000000000000E+20
 34
1.000000000000000E+20
 15
-1.000000000000000E+20
 25
-1.000000000000000E+20
 35
-1.000000000000000E+20
146
0.0
 13
0.0
 23
0.0
 33
0.0
 16
1.0
 26
0.0
 36
0.0
 17
0.0
 27
1.0
 37
0.0
 76
     0
330
747A
  0
MLINESTYLE
  5
7480
102
{ACAD_REACTORS
330
7473
102
}
330
7473
100
AcDbMlineStyle
  2
STANDARD
 70
     0
  3

 62
     0
 51
90.0
 52
90.0
 71
     2
 49
0.5
 62
   256
  6
BYLAYER
 49
-0.5
 62
   256
  6
BYLAYER
  0
ACDBPLACEHOLDER
  5
159AE
102
{ACAD_REACTORS
330
159AD
102
}
330
159AD
  0
XRECORD
  5
205CD
102
{ACAD_REACTORS
330
205CB
102
}
330
205CB
100
AcDbXrecord
280
     1
340
159B0
  0
XRECORD
  5
205CC
102
{ACAD_REACTORS
330
205CB
102
}
330
205CB
100
AcDbXrecord
280
     1
340
159AF
  0
DICTIONARYVAR
  5
205C8
102
{ACAD_REACTORS
330
205C7
102
}
330
205C7
100
DictionaryVariables
280
     0
  1
1
  0
DICTIONARYVAR
  5
205C9
102
{ACAD_REACTORS
330
205C7
102
}
330
205C7
100
DictionaryVariables
280
     0
  1

  0
DICTIONARY
  5
205CE
330
159B3
100
AcDbDictionary
280
     1
281
     1
  3
ACAD_XREC_ROUNDTRIP
360
205CF
  0
DICTIONARY
  5
205D0
330
159B4
100
AcDbDictionary
280
     1
281
     1
  3
ACAD_XREC_ROUNDTRIP
360
205D1
  0
XRECORD
  5
205CF
102
{ACAD_REACTORS
330
205CE
102
}
330
205CE
100
AcDbXrecord
280
     1
102
SHADEPLOT
 70
     0
102
SHADEPLOTRESLEVEL
 70
     2
102
SHADEPLOTCUSTOMDPI
 70
   300
  0
XRECORD
  5
205D1
102
{ACAD_REACTORS
330
205D0
102
}
330
205D0
100
AcDbXrecord
280
     1
102
SHADEPLOT
 70
     0
102
SHADEPLOTRESLEVEL
 70
     2
102
SHADEPLOTCUSTOMDPI
 70
   300
  0
ENDSEC
  0
EOF
