  0
SECTION
  2
HEADER
  9
$ACADVER
  1
AC1015
  9
$ACADMAINTVER
 70
    20
  9
$DWGCODEPAGE
  3
ANSI_932
  9
$INSBASE
 10
0.0
 20
0.0
 30
0.0
  9
$EXTMIN
 10
139.8427842704986
 20
-0.264306497767393
 30
-0.000000000000013
  9
$EXTMAX
 10
16307.98708817691
 20
11409.90526204624
 30
0.0000000000000023
  9
$LIMMIN
 10
-25.79074261211281
 20
-125.8223078213959
  9
$LIMMAX
 10
16471.10331197129
 20
11496.44801950658
  9
$ORTHOMODE
 70
     0
  9
$REGENMODE
 70
     1
  9
$FILLMODE
 70
     1
  9
$QTEXTMODE
 70
     0
  9
$MIRRTEXT
 70
     1
  9
$LTSCALE
 40
20.0
  9
$ATTMODE
 70
     1
  9
$TEXTSIZE
 40
100.0
  9
$TRACEWID
 40
1.0
  9
$TEXTSTYLE
  7
STYLE3
  9
$CLAYER
  8
寸法
  9
$CELTYPE
  6
BYLAYER
  9
$CECOLOR
 62
   256
  9
$CELTSCALE
 40
50.0
  9
$DISPSILH
 70
     0
  9
$DIMSCALE
 40
40.0
  9
$DIMASZ
 40
2.5
  9
$DIMEXO
 40
0.5
  9
$DIMDLI
 40
7.0
  9
$DIMRND
 40
0.0
  9
$DIMDLE
 40
0.0
  9
$DIMEXE
 40
1.5
  9
$DIMTP
 40
0.0
  9
$DIMTM
 40
0.0
  9
$DIMTXT
 40
3.0
  9
$DIMCEN
 40
0.0
  9
$DIMTSZ
 40
0.0
  9
$DIMTOL
 70
     0
  9
$DIMLIM
 70
     0
  9
$DIMTIH
 70
     0
  9
$DIMTOH
 70
     0
  9
$DIMSE1
 70
     0
  9
$DIMSE2
 70
     0
  9
$DIMTAD
 70
     3
  9
$DIMZIN
 70
     8
  9
$DIMBLK
  1

  9
$DIMASO
 70
     1
  9
$DIMSHO
 70
     1
  9
$DIMPOST
  1

  9
$DIMAPOST
  1

  9
$DIMALT
 70
     0
  9
$DIMALTD
 70
     2
  9
$DIMALTF
 40
0.0394
  9
$DIMLFAC
 40
1.0
  9
$DIMTOFL
 70
     1
  9
$DIMTVP
 40
0.0
  9
$DIMTIX
 70
     1
  9
$DIMSOXD
 70
     0
  9
$DIMSAH
 70
     1
  9
$DIMBLK1
  1
DOTSMALL
  9
$DIMBLK2
  1
DOTSMALL
  9
$DIMSTYLE
  2
INABA_S40G
  9
$DIMCLRD
 70
     0
  9
$DIMCLRE
 70
     0
  9
$DIMCLRT
 70
     7
  9
$DIMTFAC
 40
1.0
  9
$DIMGAP
 40
1.0
  9
$DIMJUST
 70
     0
  9
$DIMSD1
 70
     0
  9
$DIMSD2
 70
     0
  9
$DIMTOLJ
 70
     1
  9
$DIMTZIN
 70
     0
  9
$DIMALTZ
 70
     0
  9
$DIMALTTZ
 70
     0
  9
$DIMUPT
 70
     0
  9
$DIMDEC
 70
     1
  9
$DIMTDEC
 70
     4
  9
$DIMALTU
 70
     2
  9
$DIMALTTD
 70
     2
  9
$DIMTXSTY
  7
STYLE1
  9
$DIMAUNIT
 70
     0
  9
$DIMADEC
 70
     0
  9
$DIMALTRND
 40
0.0
  9
$DIMAZIN
 70
     0
  9
$DIMDSEP
 70
    46
  9
$DIMATFIT
 70
     3
  9
$DIMFRAC
 70
     0
  9
$DIMLDRBLK
  1

  9
$DIMLUNIT
 70
     2
  9
$DIMLWD
 70
    -2
  9
$DIMLWE
 70
    -2
  9
$DIMTMOVE
 70
     0
  9
$LUNITS
 70
     2
  9
$LUPREC
 70
     1
  9
$SKETCHINC
 40
1.0
  9
$FILLETRAD
 40
5.0
  9
$AUNITS
 70
     0
  9
$AUPREC
 70
     0
  9
$MENU
  1
acad
  9
$ELEVATION
 40
0.0
  9
$PELEVATION
 40
0.0
  9
$THICKNESS
 40
0.0
  9
$LIMCHECK
 70
     0
  9
$CHAMFERA
 40
0.0
  9
$CHAMFERB
 40
0.0
  9
$CHAMFERC
 40
0.0
  9
$CHAMFERD
 40
0.0
  9
$SKPOLY
 70
     0
  9
$TDCREATE
 40
2452116.684896065
  9
$TDUCREATE
 40
2452116.309896065
  9
$TDUPDATE
 40
2457984.463946644
  9
$TDUUPDATE
 40
2457984.088946644
  9
$TDINDWG
 40
0.5103810995
  9
$TDUSRTIMER
 40
0.5103810995
  9
$USRTIMER
 70
     1
  9
$ANGBASE
 50
0.0
  9
$ANGDIR
 70
     0
  9
$PDMODE
 70
     3
  9
$PDSIZE
 40
2.0
  9
$PLINEWID
 40
0.0
  9
$SPLFRAME
 70
     0
  9
$SPLINETYPE
 70
     6
  9
$SPLINESEGS
 70
     8
  9
$HANDSEED
  5
17100
  9
$SURFTAB1
 70
     6
  9
$SURFTAB2
 70
     6
  9
$SURFTYPE
 70
     6
  9
$SURFU
 70
     6
  9
$SURFV
 70
     6
  9
$UCSBASE
  2

  9
$UCSNAME
  2

  9
$UCSORG
 10
0.0
 20
0.0
 30
0.0
  9
$UCSXDIR
 10
1.0
 20
0.0
 30
0.0
  9
$UCSYDIR
 10
0.0
 20
1.0
 30
0.0
  9
$UCSORTHOREF
  2

  9
$UCSORTHOVIEW
 70
     0
  9
$UCSORGTOP
 10
0.0
 20
0.0
 30
0.0
  9
$UCSORGBOTTOM
 10
0.0
 20
0.0
 30
0.0
  9
$UCSORGLEFT
 10
0.0
 20
0.0
 30
0.0
  9
$UCSORGRIGHT
 10
0.0
 20
0.0
 30
0.0
  9
$UCSORGFRONT
 10
0.0
 20
0.0
 30
0.0
  9
$UCSORGBACK
 10
0.0
 20
0.0
 30
0.0
  9
$PUCSBASE
  2

  9
$PUCSNAME
  2

  9
$PUCSORG
 10
0.0
 20
0.0
 30
0.0
  9
$PUCSXDIR
 10
1.0
 20
0.0
 30
0.0
  9
$PUCSYDIR
 10
0.0
 20
1.0
 30
0.0
  9
$PUCSORTHOREF
  2

  9
$PUCSORTHOVIEW
 70
     0
  9
$PUCSORGTOP
 10
0.0
 20
0.0
 30
0.0
  9
$PUCSORGBOTTOM
 10
0.0
 20
0.0
 30
0.0
  9
$PUCSORGLEFT
 10
0.0
 20
0.0
 30
0.0
  9
$PUCSORGRIGHT
 10
0.0
 20
0.0
 30
0.0
  9
$PUCSORGFRONT
 10
0.0
 20
0.0
 30
0.0
  9
$PUCSORGBACK
 10
0.0
 20
0.0
 30
0.0
  9
$USERI1
 70
     0
  9
$USERI2
 70
     0
  9
$USERI3
 70
     0
  9
$USERI4
 70
     0
  9
$USERI5
 70
     0
  9
$USERR1
 40
0.0
  9
$USERR2
 40
0.0
  9
$USERR3
 40
0.0
  9
$USERR4
 40
0.0
  9
$USERR5
 40
0.0
  9
$WORLDVIEW
 70
     1
  9
$SHADEDGE
 70
     3
  9
$SHADEDIF
 70
    70
  9
$TILEMODE
 70
     1
  9
$MAXACTVP
 70
    16
  9
$PINSBASE
 10
0.0
 20
0.0
 30
0.0
  9
$PLIMCHECK
 70
     0
  9
$PEXTMIN
 10
1.000000000000000E+20
 20
1.000000000000000E+20
 30
1.000000000000000E+20
  9
$PEXTMAX
 10
-1.000000000000000E+20
 20
-1.000000000000000E+20
 30
-1.000000000000000E+20
  9
$PLIMMIN
 10
0.0
 20
0.0
  9
$PLIMMAX
 10
420.0
 20
297.0
  9
$UNITMODE
 70
     0
  9
$VISRETAIN
 70
     0
  9
$PLINEGEN
 70
     0
  9
$PSLTSCALE
 70
     0
  9
$TREEDEPTH
 70
  3020
  9
$CMLSTYLE
  2
STANDARD
  9
$CMLJUST
 70
     0
  9
$CMLSCALE
 40
1.0
  9
$PROXYGRAPHICS
 70
     1
  9
$MEASUREMENT
 70
     1
  9
$CELWEIGHT
370
    -1
  9
$ENDCAPS
280
     0
  9
$JOINSTYLE
280
     0
  9
$LWDISPLAY
290
     0
  9
$INSUNITS
 70
     0
  9
$HYPERLINKBASE
  1

  9
$STYLESHEET
  1
inabass.ctb
  9
$XEDIT
290
     1
  9
$CEPSNTYPE
380
     0
  9
$PSTYLEMODE
290
     1
  9
$FINGERPRINTGUID
  2
{0B39EEAE-ED75-4FFA-8511-0047DE88461E}
  9
$VERSIONGUID
  2
{0C4CFBF0-170F-451B-A268-D0357554C304}
  9
$EXTNAMES
290
     1
  9
$PSVPSCALE
 40
0.0
  9
$OLESTARTUP
290
     0
  0
ENDSEC
  0
SECTION
  2
CLASSES
  0
CLASS
  1
ACDBDICTIONARYWDFLT
  2
AcDbDictionaryWithDefault
  3
ObjectDBX Classes
 90
        0
280
     0
281
     0
  0
CLASS
  1
MATERIAL
  2
AcDbMaterial
  3
ObjectDBX Classes
 90
     1153
280
     0
281
     0
  0
CLASS
  1
VISUALSTYLE
  2
AcDbVisualStyle
  3
ObjectDBX Classes
 90
     4095
280
     0
281
     0
  0
CLASS
  1
TABLESTYLE
  2
AcDbTableStyle
  3
ObjectDBX Classes
 90
     4095
280
     0
281
     0
  0
CLASS
  1
SCALE
  2
AcDbScale
  3
ObjectDBX Classes
 90
     1153
280
     0
281
     0
  0
CLASS
  1
MLEADERSTYLE
  2
AcDbMLeaderStyle
  3
ACDB_MLEADERSTYLE_CLASS
 90
     4095
280
     0
281
     0
  0
CLASS
  1
ACDBSECTIONVIEWSTYLE
  2
AcDbSectionViewStyle
  3
ObjectDBX Classes
 90
     1025
280
     0
281
     0
  0
CLASS
  1
ACDBDETAILVIEWSTYLE
  2
AcDbDetailViewStyle
  3
ObjectDBX Classes
 90
     1025
280
     0
281
     0
  0
CLASS
  1
DICTIONARYVAR
  2
AcDbDictionaryVar
  3
ObjectDBX Classes
 90
        0
280
     0
281
     0
  0
CLASS
  1
SORTENTSTABLE
  2
AcDbSortentsTable
  3
ObjectDBX Classes
 90
        0
280
     0
281
     0
  0
CLASS
  1
CELLSTYLEMAP
  2
AcDbCellStyleMap
  3
ObjectDBX Classes
 90
     1152
280
     0
281
     0
  0
CLASS
  1
ACDBPLACEHOLDER
  2
AcDbPlaceHolder
  3
ObjectDBX Classes
 90
        0
280
     0
281
     0
  0
CLASS
  1
LAYOUT
  2
AcDbLayout
  3
ObjectDBX Classes
 90
        0
280
     0
281
     0
  0
ENDSEC
  0
SECTION
  2
TABLES
  0
TABLE
  2
VPORT
  5
746D
330
0
100
AcDbSymbolTable
 70
     1
  0
VPORT
  5
16EA5
330
746D
100
AcDbSymbolTableRecord
100
AcDbViewportTableRecord
  2
*Active
 70
     0
 10
0.0
 20
0.0
 11
1.0
 21
1.0
 12
8222.656284679592
 22
5685.312855842594
 13
0.0
 23
0.0
 14
10.0
 24
10.0
 15
10.0
 25
10.0
 16
0.0
 26
0.0
 36
1.0
 17
0.0
 27
0.0
 37
0.0
 40
11713.55108077679
 41
1.646596858638743
 42
50.0
 43
0.0
 44
0.0
 50
0.0
 51
0.0
 71
     0
 72
     0
 73
     1
 74
     0
 75
     0
 76
     0
 77
     0
 78
     0
281
     0
 65
     1
110
0.0
120
0.0
130
0.0
111
1.0
121
0.0
131
0.0
112
0.0
122
1.0
132
0.0
 79
     0
146
0.0
1001
ACAD_NAV_VCDISPLAY
1070
     3
  0
ENDTAB
  0
TABLE
  2
LTYPE
  5
746A
330
0
100
AcDbSymbolTable
 70
     4
  0
LTYPE
  5
7477
330
746A
100
AcDbSymbolTableRecord
100
AcDbLinetypeTableRecord
  2
BYBLOCK
 70
     0
  3

 72
    65
 73
     0
 40
0.0
  0
LTYPE
  5
7478
330
746A
100
AcDbSymbolTableRecord
100
AcDbLinetypeTableRecord
  2
BYLAYER
 70
     0
  3

 72
    65
 73
     0
 40
0.0
  0
LTYPE
  5
7479
330
746A
100
AcDbSymbolTableRecord
100
AcDbLinetypeTableRecord
  2
CONTINUOUS
 70
     0
  3
Solid line
 72
    65
 73
     0
 40
0.0
  0
LTYPE
  5
7816
330
746A
100
AcDbSymbolTableRecord
100
AcDbLinetypeTableRecord
  2
CENTER
 70
     0
  3
____ _ ____ _ ____ _ ____ _ ____ _ ____ _ ____ 
 72
    65
 73
     4
 40
2.0
 49
1.25
 74
     0
 49
-0.25
 74
     0
 49
0.25
 74
     0
 49
-0.25
 74
     0
  0
LTYPE
  5
781A
330
746A
100
AcDbSymbolTableRecord
100
AcDbLinetypeTableRecord
  2
HIDDEN
 70
     0
  3
__ __ __ __ __ __ __ __ __ __ __ __ __ __ __ __
 72
    65
 73
     2
 40
0.375
 49
0.25
 74
     0
 49
-0.125
 74
     0
  0
LTYPE
  5
781B
330
746A
100
AcDbSymbolTableRecord
100
AcDbLinetypeTableRecord
  2
PHANTOM
 70
     0
  3
______  __  __  ______  __  __  ______  __  __ 
 72
    65
 73
     6
 40
2.5
 49
1.25
 74
     0
 49
-0.25
 74
     0
 49
0.25
 74
     0
 49
-0.25
 74
     0
 49
0.25
 74
     0
 49
-0.25
 74
     0
  0
ENDTAB
  0
TABLE
  2
LAYER
  5
7467
102
{ACAD_XDICTIONARY
360
15B73
102
}
330
0
100
AcDbSymbolTable
 70
    13
  0
LAYER
  5
7474
102
{ACAD_XDICTIONARY
360
17017
102
}
330
7467
100
AcDbSymbolTableRecord
100
AcDbLayerTableRecord
  2
0
 70
     0
 62
     7
  6
CONTINUOUS
370
    -3
390
159F7
  0
LAYER
  5
DEB2
102
{ACAD_XDICTIONARY
360
17019
102
}
330
7467
100
AcDbSymbolTableRecord
100
AcDbLayerTableRecord
  2
センター
 70
     0
 62
     3
  6
CENTER
370
    -3
390
159F7
  0
LAYER
  5
DEB3
102
{ACAD_XDICTIONARY
360
1701B
102
}
330
7467
100
AcDbSymbolTableRecord
100
AcDbLayerTableRecord
  2
寸法
 70
     0
 62
     4
  6
CONTINUOUS
370
    -3
390
159F7
  0
LAYER
  5
DEB4
102
{ACAD_XDICTIONARY
360
1701D
102
}
330
7467
100
AcDbSymbolTableRecord
100
AcDbLayerTableRecord
  2
部品1
 70
     0
 62
     7
  6
CONTINUOUS
370
    -3
390
159F7
  0
LAYER
  5
DEB5
102
{ACAD_XDICTIONARY
360
1701F
102
}
330
7467
100
AcDbSymbolTableRecord
100
AcDbLayerTableRecord
  2
補助
 70
     0
 62
    -1
  6
CONTINUOUS
370
    -3
390
159F7
  0
LAYER
  5
DEB6
102
{ACAD_XDICTIONARY
360
17021
102
}
330
7467
100
AcDbSymbolTableRecord
100
AcDbLayerTableRecord
  2
文字
 70
     0
 62
     7
  6
CONTINUOUS
370
    -3
390
159F7
  0
LAYER
  5
F255
330
7467
100
AcDbSymbolTableRecord
100
AcDbLayerTableRecord
  2
DEFPOINTS
 70
     0
 62
     7
  6
CONTINUOUS
290
     0
370
    -3
390
159F7
  0
LAYER
  5
10B54
102
{ACAD_XDICTIONARY
360
17023
102
}
330
7467
100
AcDbSymbolTableRecord
100
AcDbLayerTableRecord
  2
仕様書枠
 70
     0
 62
   230
  6
CONTINUOUS
370
    -3
390
159F7
  0
LAYER
  5
11729
102
{ACAD_XDICTIONARY
360
17025
102
}
330
7467
100
AcDbSymbolTableRecord
100
AcDbLayerTableRecord
  2
Ｇ．Ｌ
 70
     0
 62
    30
  6
CONTINUOUS
370
    -3
390
159F7
  0
LAYER
  5
1173F
102
{ACAD_XDICTIONARY
360
17027
102
}
330
7467
100
AcDbSymbolTableRecord
100
AcDbLayerTableRecord
  2
細線
 70
     0
 62
     5
  6
CONTINUOUS
370
    -3
390
159F7
  0
LAYER
  5
118A1
102
{ACAD_XDICTIONARY
360
17029
102
}
330
7467
100
AcDbSymbolTableRecord
100
AcDbLayerTableRecord
  2
想像線
 70
     0
 62
     6
  6
PHANTOM
370
    -3
390
159F7
  0
LAYER
  5
123C1
102
{ACAD_XDICTIONARY
360
1702B
102
}
330
7467
100
AcDbSymbolTableRecord
100
AcDbLayerTableRecord
  2
破線
 70
     0
 62
     2
  6
HIDDEN
370
    -3
390
159F7
  0
LAYER
  5
1706D
102
{ACAD_XDICTIONARY
360
1706E
102
}
330
7467
100
AcDbSymbolTableRecord
100
AcDbLayerTableRecord
  2
部品
 70
     0
 62
     7
  6
CONTINUOUS
370
    -3
390
159F7
  0
ENDTAB
  0
TABLE
  2
STYLE
  5
7468
330
0
100
AcDbSymbolTable
 70
     5
  0
STYLE
  5
7475
330
7468
100
AcDbSymbolTableRecord
100
AcDbTextStyleTableRecord
  2
STANDARD
 70
     0
 40
0.0
 41
1.0
 50
0.0
 71
     0
 42
4.0
  3
txt
  4
C:\AutoCAD LT\bigfont.shx
  0
STYLE
  5
F706
330
7468
100
AcDbSymbolTableRecord
100
AcDbTextStyleTableRecord
  2
STYLE1
 70
     0
 40
0.0
 41
1.0
 50
0.0
 71
     0
 42
4.0
  3
isocp.shx
  4
bigfont.shx
  0
STYLE
  5
103BF
330
7468
100
AcDbSymbolTableRecord
100
AcDbTextStyleTableRecord
  2
STYLE2
 70
     0
 40
0.0
 41
1.0
 50
0.0
 71
     0
 42
100.0
  3
MS PGothic.ttf
  4

1001
ACAD
1000
MS PGothic
1071
    32818
  0
STYLE
  5
10BAA
330
7468
100
AcDbSymbolTableRecord
100
AcDbTextStyleTableRecord
  2
STYLE3
 70
     0
 40
0.0
 41
1.0
 50
0.0
 71
     0
 42
100.0
  3
DFPGothic-EB.ttf
  4

1001
ACAD
1000
DFPGothic-EB
1071
    32818
  0
ENDTAB
  0
TABLE
  2
VIEW
  5
746B
330
0
100
AcDbSymbolTable
 70
     0
  0
ENDTAB
  0
TABLE
  2
UCS
  5
746C
330
0
100
AcDbSymbolTable
 70
     0
  0
ENDTAB
  0
TABLE
  2
APPID
  5
746E
330
0
100
AcDbSymbolTable
 70
    10
  0
APPID
  5
7476
330
746E
100
AcDbSymbolTableRecord
100
AcDbRegAppTableRecord
  2
ACAD
 70
     0
  0
APPID
  5
DEA9
330
746E
100
AcDbSymbolTableRecord
100
AcDbRegAppTableRecord
  2
CONTENTBLOCKICON
 70
     0
  0
APPID
  5
DEAA
330
746E
100
AcDbSymbolTableRecord
100
AcDbRegAppTableRecord
  2
CONTENTBLOCKDESCRIPTION
 70
     0
  0
APPID
  5
E71D
330
746E
100
AcDbSymbolTableRecord
100
AcDbRegAppTableRecord
  2
CONTENTTABDATA
 70
     0
  0
APPID
  5
E71E
330
746E
100
AcDbSymbolTableRecord
100
AcDbRegAppTableRecord
  2
CONTENTCURRENTTAB
 70
     0
  0
APPID
  5
F3BA
330
746E
100
AcDbSymbolTableRecord
100
AcDbRegAppTableRecord
  2
DRAWINGVARIABLESXDATA
 70
     0
  0
APPID
  5
16EFC
330
746E
100
AcDbSymbolTableRecord
100
AcDbRegAppTableRecord
  2
ACAD_NAV_VCDISPLAY
 70
     0
  0
APPID
  5
17015
330
746E
100
AcDbSymbolTableRecord
100
AcDbRegAppTableRecord
  2
ACAD_EXEMPT_FROM_CAD_STANDARDS
 70
     0
  0
APPID
  5
1704D
330
746E
100
AcDbSymbolTableRecord
100
AcDbRegAppTableRecord
  2
ACAD_PSEXT
 70
     0
  0
APPID
  5
170FB
330
746E
100
AcDbSymbolTableRecord
100
AcDbRegAppTableRecord
  2
ACAD_MLEADERVER
 70
     0
  0
ENDTAB
  0
TABLE
  2
DIMSTYLE
  5
746F
330
0
100
AcDbSymbolTable
 70
     3
100
AcDbDimStyleTable
 71
     1
340
F71F
  0
DIMSTYLE
105
7484
330
746F
100
AcDbSymbolTableRecord
100
AcDbDimStyleTableRecord
  2
JIS
 70
     0
 41
2.5
 42
1.0
 43
7.0
 44
1.0
 73
     0
 74
     0
 77
     1
 78
     8
140
2.5
141
0.0
143
0.0394
147
0.0
172
     1
174
     1
175
     1
340
7475
  0
DIMSTYLE
105
F71F
102
{ACAD_REACTORS
330
1551E
330
15523
330
15524
330
15525
330
15529
330
15537
330
1555C
330
15591
330
15596
330
155AA
330
155AB
330
155B3
330
155B4
330
155B5
330
155B8
330
1599F
330
1684C
330
1684D
330
16851
330
16852
330
16853
330
16854
330
16878
330
16879
330
16BE0
330
16BE1
330
16C10
330
16C0F
330
16C0E
330
16C6C
330
1707C
102
}
330
746F
100
AcDbSymbolTableRecord
100
AcDbDimStyleTableRecord
  2
INABA_S40G
 70
     0
 40
40.0
 41
2.5
 42
0.5
 43
7.0
 44
1.5
 73
     0
 74
     0
 77
     3
 78
     8
140
3.0
141
0.0
143
0.0394
147
1.0
172
     1
173
     1
174
     1
178
     7
271
     1
340
F706
341
F770
343
F770
344
F770
  0
ENDTAB
  0
TABLE
  2
BLOCK_RECORD
  5
7466
330
0
100
AcDbSymbolTable
 70
    36
  0
BLOCK_RECORD
  5
747D
330
7466
100
AcDbSymbolTableRecord
100
AcDbBlockTableRecord
  2
*MODEL_SPACE
340
159FC
  0
BLOCK_RECORD
  5
747A
330
7466
100
AcDbSymbolTableRecord
100
AcDbBlockTableRecord
  2
*PAPER_SPACE
340
159FD
  0
BLOCK_RECORD
  5
F770
330
7466
100
AcDbSymbolTableRecord
100
AcDbBlockTableRecord
  2
_DOTSMALL
340
0
102
{BLKREFS
331
16D86
331
16D87
331
16D8F
331
16D90
331
16DAA
331
16DAB
331
16DB5
331
16DB6
331
16DBF
331
16DC0
331
16DC7
331
16DC8
331
16DD0
331
16DD1
331
16DD9
331
16DDA
331
16DE2
331
16DE3
331
16DEB
331
16DEC
331
16DF6
331
16DF7
331
16DFF
331
16E00
331
16E0A
331
16E0B
331
16E13
331
16E14
331
16E1E
331
16E1F
331
16E27
331
16E28
331
16E30
331
16E31
331
16E58
331
16E59
331
16E61
331
16E62
331
17092
331
17093
331
16D12
331
16D13
331
16D1B
331
16D1C
331
16D24
331
16D25
331
16D2F
331
16D30
331
16D42
331
16D43
331
16D4C
331
16D4D
331
16D55
331
16D56
331
16D60
331
16D61
331
16D69
331
16D6A
331
16D72
331
16D73
331
16D7D
331
16D7E
102
}
  0
BLOCK_RECORD
  5
15691
330
7466
100
AcDbSymbolTableRecord
100
AcDbBlockTableRecord
  2
*D1
340
0
  0
BLOCK_RECORD
  5
1569D
330
7466
100
AcDbSymbolTableRecord
100
AcDbBlockTableRecord
  2
*D2
340
0
  0
BLOCK_RECORD
  5
156A9
330
7466
100
AcDbSymbolTableRecord
100
AcDbBlockTableRecord
  2
*D3
340
0
  0
BLOCK_RECORD
  5
156B7
330
7466
100
AcDbSymbolTableRecord
100
AcDbBlockTableRecord
  2
*D4
340
0
  0
BLOCK_RECORD
  5
156CF
330
7466
100
AcDbSymbolTableRecord
100
AcDbBlockTableRecord
  2
*D5
340
0
  0
BLOCK_RECORD
  5
156E9
330
7466
100
AcDbSymbolTableRecord
100
AcDbBlockTableRecord
  2
*D6
340
0
  0
BLOCK_RECORD
  5
156F5
330
7466
100
AcDbSymbolTableRecord
100
AcDbBlockTableRecord
  2
*D7
340
0
  0
BLOCK_RECORD
  5
1570F
330
7466
100
AcDbSymbolTableRecord
100
AcDbBlockTableRecord
  2
*D8
340
0
  0
BLOCK_RECORD
  5
1571B
330
7466
100
AcDbSymbolTableRecord
100
AcDbBlockTableRecord
  2
*D9
340
0
  0
BLOCK_RECORD
  5
15727
330
7466
100
AcDbSymbolTableRecord
100
AcDbBlockTableRecord
  2
*D10
340
0
  0
BLOCK_RECORD
  5
15733
330
7466
100
AcDbSymbolTableRecord
100
AcDbBlockTableRecord
  2
*D11
340
0
  0
BLOCK_RECORD
  5
1573F
330
7466
100
AcDbSymbolTableRecord
100
AcDbBlockTableRecord
  2
*D12
340
0
  0
BLOCK_RECORD
  5
1574B
330
7466
100
AcDbSymbolTableRecord
100
AcDbBlockTableRecord
  2
*D13
340
0
  0
BLOCK_RECORD
  5
15757
330
7466
100
AcDbSymbolTableRecord
100
AcDbBlockTableRecord
  2
*D14
340
0
  0
BLOCK_RECORD
  5
15765
330
7466
100
AcDbSymbolTableRecord
100
AcDbBlockTableRecord
  2
*D15
340
0
  0
BLOCK_RECORD
  5
159A0
330
7466
100
AcDbSymbolTableRecord
100
AcDbBlockTableRecord
  2
*D16
340
0
  0
BLOCK_RECORD
  5
16971
330
7466
100
AcDbSymbolTableRecord
100
AcDbBlockTableRecord
  2
*D17
340
0
  0
BLOCK_RECORD
  5
1697D
330
7466
100
AcDbSymbolTableRecord
100
AcDbBlockTableRecord
  2
*D18
340
0
  0
BLOCK_RECORD
  5
1698B
330
7466
100
AcDbSymbolTableRecord
100
AcDbBlockTableRecord
  2
*D19
340
0
  0
BLOCK_RECORD
  5
16997
330
7466
100
AcDbSymbolTableRecord
100
AcDbBlockTableRecord
  2
*D20
340
0
  0
BLOCK_RECORD
  5
169A3
330
7466
100
AcDbSymbolTableRecord
100
AcDbBlockTableRecord
  2
*D21
340
0
  0
BLOCK_RECORD
  5
169B1
330
7466
100
AcDbSymbolTableRecord
100
AcDbBlockTableRecord
  2
*D22
340
0
  0
BLOCK_RECORD
  5
169BD
330
7466
100
AcDbSymbolTableRecord
100
AcDbBlockTableRecord
  2
*D23
340
0
  0
BLOCK_RECORD
  5
169CA
330
7466
100
AcDbSymbolTableRecord
100
AcDbBlockTableRecord
  2
*D24
340
0
  0
BLOCK_RECORD
  5
16BE4
330
7466
100
AcDbSymbolTableRecord
100
AcDbBlockTableRecord
  2
*D26
340
0
  0
BLOCK_RECORD
  5
16BF0
330
7466
100
AcDbSymbolTableRecord
100
AcDbBlockTableRecord
  2
*D27
340
0
  0
BLOCK_RECORD
  5
16C1F
330
7466
100
AcDbSymbolTableRecord
100
AcDbBlockTableRecord
  2
*D28
340
0
  0
BLOCK_RECORD
  5
16C2B
330
7466
100
AcDbSymbolTableRecord
100
AcDbBlockTableRecord
  2
*D29
340
0
  0
BLOCK_RECORD
  5
16C37
330
7466
100
AcDbSymbolTableRecord
100
AcDbBlockTableRecord
  2
*D30
340
0
  0
BLOCK_RECORD
  5
16C6D
330
7466
100
AcDbSymbolTableRecord
100
AcDbBlockTableRecord
  2
*D31
340
0
  0
BLOCK_RECORD
  5
16EFD
330
7466
100
AcDbSymbolTableRecord
100
AcDbBlockTableRecord
  2
A$C44421CB0
340
0
  0
BLOCK_RECORD
  5
17083
330
7466
100
AcDbSymbolTableRecord
100
AcDbBlockTableRecord
  2
*D34
340
0
  0
ENDTAB
  0
ENDSEC
  0
SECTION
  2
BLOCKS
  0
BLOCK
  5
7489
330
747D
100
AcDbEntity
  8
0
100
AcDbBlockBegin
  2
*MODEL_SPACE
 70
     0
 10
0.0
 20
0.0
 30
0.0
  3
*MODEL_SPACE
  1

  0
ENDBLK
  5
748A
330
747D
100
AcDbEntity
  8
0
100
AcDbBlockEnd
  0
BLOCK
  5
7487
330
747A
100
AcDbEntity
 67
     1
  8
0
100
AcDbBlockBegin
  2
*PAPER_SPACE
 70
     0
 10
0.0
 20
0.0
 30
0.0
  3
*PAPER_SPACE
  1

  0
ENDBLK
  5
7488
330
747A
100
AcDbEntity
 67
     1
  8
0
100
AcDbBlockEnd
  0
BLOCK
  5
F771
330
F770
100
AcDbEntity
  8
0
 48
50.0
100
AcDbBlockBegin
  2
_DOTSMALL
 70
     0
 10
0.0
 20
0.0
 30
0.0
  3
_DOTSMALL
  1

  0
LWPOLYLINE
  5
F772
330
F770
100
AcDbEntity
  8
0
  6
ByBlock
 62
     0
 48
50.0
100
AcDbPolyline
 90
        2
 70
     1
 43
0.5
 10
-0.0625
 20
0.0
 42
1.0
 10
0.0625
 20
0.0
 42
1.0
  0
ENDBLK
  5
F776
330
F770
100
AcDbEntity
  8
0
 48
50.0
100
AcDbBlockEnd
  0
BLOCK
  5
157A5
330
15691
100
AcDbEntity
  8
0
 48
50.0
100
AcDbBlockBegin
  2
*D1
 70
     1
 10
0.0
 20
0.0
 30
0.0
  3
*D1
  1

  0
LINE
  5
16E2D
330
15691
100
AcDbEntity
  8
寸法
 62
     0
 48
50.0
370
    -2
100
AcDbLine
 10
7168.729156633929
 20
9379.132495543613
 30
0.0
 11
8165.267033184017
 21
9379.132495543613
 31
0.0
  0
LINE
  5
16E2E
330
15691
100
AcDbEntity
  8
寸法
 62
     0
 48
50.0
370
    -2
100
AcDbLine
 10
7168.729156633904
 20
7849.132495543603
 30
0.0
 11
8165.267033184017
 21
7849.132495543603
 31
0.0
  0
LINE
  5
16E2F
330
15691
100
AcDbEntity
  8
寸法
 62
     0
 48
50.0
370
    -2
100
AcDbLine
 10
8105.267033184018
 20
9379.132495543613
 30
0.0
 11
8105.267033184018
 21
7849.132495543603
 31
0.0
  0
INSERT
  5
16E30
330
15691
100
AcDbEntity
  8
寸法
 62
     0
 48
50.0
370
    -2
100
AcDbBlockReference
  2
_DOTSMALL
 10
8105.267033184018
 20
9379.132495543613
 30
0.0
 41
100.0
 42
100.0
 43
100.0
 50
90.0
  0
INSERT
  5
16E31
330
15691
100
AcDbEntity
  8
寸法
 62
     0
 48
50.0
370
    -2
100
AcDbBlockReference
  2
_DOTSMALL
 10
8105.267033184018
 20
7849.132495543603
 30
0.0
 41
100.0
 42
100.0
 43
100.0
 50
270.0
  0
MTEXT
  5
16E32
330
15691
100
AcDbEntity
  8
寸法
 62
     7
 48
50.0
100
AcDbMText
 10
8005.267033184017
 20
8614.132495543611
 30
0.0
 40
120.0
 41
0.0
 71
     5
 72
     1
  1
\A1;1530
  7
STYLE1
 11
0.0000000000000001
 21
1.0
 31
0.0
 73
     1
 44
1.0
1001
ACAD
1000
MTEXTBEGIN
1070
    73
1070
     1
1070
    44
1040
1.0
1070
    74
1070
     0
1000
MTEXTEND
  0
POINT
  5
16E33
330
15691
100
AcDbEntity
  8
DEFPOINTS
 62
     0
 48
50.0
100
AcDbPoint
 10
7148.72915663393
 20
9379.132495543613
 30
0.0
  0
POINT
  5
16E34
330
15691
100
AcDbEntity
  8
DEFPOINTS
 62
     0
 48
50.0
100
AcDbPoint
 10
7148.729156633905
 20
7849.132495543603
 30
0.0
  0
POINT
  5
16E35
330
15691
100
AcDbEntity
  8
DEFPOINTS
 62
     0
 48
50.0
100
AcDbPoint
 10
8105.267033184018
 20
7849.132495543603
 30
0.0
  0
ENDBLK
  5
157AF
330
15691
100
AcDbEntity
  8
0
 48
50.0
100
AcDbBlockEnd
  0
BLOCK
  5
157B0
330
1569D
100
AcDbEntity
  8
0
 48
50.0
100
AcDbBlockBegin
  2
*D2
 70
     1
 10
0.0
 20
0.0
 30
0.0
  3
*D2
  1

  0
LINE
  5
16E24
330
1569D
100
AcDbEntity
  8
寸法
 62
     0
 48
50.0
370
    -2
100
AcDbLine
 10
5248.729156633923
 20
7829.132495543439
 30
0.0
 11
5248.729156633923
 21
6802.030620683371
 31
0.0
  0
LINE
  5
16E25
330
1569D
100
AcDbEntity
  8
寸法
 62
     0
 48
50.0
370
    -2
100
AcDbLine
 10
7148.729156633905
 20
7829.13249554357
 30
0.0
 11
7148.729156633905
 21
6802.030620683371
 31
0.0
  0
LINE
  5
16E26
330
1569D
100
AcDbEntity
  8
寸法
 62
     0
 48
50.0
370
    -2
100
AcDbLine
 10
5248.729156633923
 20
6862.03062068337
 30
0.0
 11
7148.729156633905
 21
6862.03062068337
 31
0.0
  0
INSERT
  5
16E27
330
1569D
100
AcDbEntity
  8
寸法
 62
     0
 48
50.0
370
    -2
100
AcDbBlockReference
  2
_DOTSMALL
 10
5248.729156633923
 20
6862.03062068337
 30
0.0
 41
100.0
 42
100.0
 43
100.0
 50
180.0
  0
INSERT
  5
16E28
330
1569D
100
AcDbEntity
  8
寸法
 62
     0
 48
50.0
370
    -2
100
AcDbBlockReference
  2
_DOTSMALL
 10
7148.729156633905
 20
6862.03062068337
 30
0.0
 41
100.0
 42
100.0
 43
100.0
  0
MTEXT
  5
16E29
330
1569D
100
AcDbEntity
  8
寸法
 62
     7
 48
50.0
100
AcDbMText
 10
6198.72915663393
 20
6962.03062068337
 30
0.0
 40
120.0
 41
0.0
 71
     5
 72
     1
  1
\A1;1900
  7
STYLE1
 73
     1
 44
1.0
1001
ACAD
1000
MTEXTBEGIN
1070
    73
1070
     1
1070
    44
1040
1.0
1070
    74
1070
     0
1000
MTEXTEND
  0
POINT
  5
16E2A
330
1569D
100
AcDbEntity
  8
DEFPOINTS
 62
     0
 48
50.0
100
AcDbPoint
 10
5248.729156633923
 20
7849.13249554344
 30
0.0
  0
POINT
  5
16E2B
330
1569D
100
AcDbEntity
  8
DEFPOINTS
 62
     0
 48
50.0
100
AcDbPoint
 10
7148.729156633905
 20
7849.13249554357
 30
0.0
  0
POINT
  5
16E2C
330
1569D
100
AcDbEntity
  8
DEFPOINTS
 62
     0
 48
50.0
100
AcDbPoint
 10
7148.729156633905
 20
6862.03062068337
 30
0.0
  0
ENDBLK
  5
157BA
330
1569D
100
AcDbEntity
  8
0
 48
50.0
100
AcDbBlockEnd
  0
BLOCK
  5
157BB
330
156A9
100
AcDbEntity
  8
0
 48
50.0
100
AcDbBlockBegin
  2
*D3
 70
     1
 10
0.0
 20
0.0
 30
0.0
  3
*D3
  1

  0
LINE
  5
16E19
330
156A9
100
AcDbEntity
  8
寸法
 62
     0
 48
50.0
370
    -2
100
AcDbLine
 10
7168.729156633904
 20
7904.132495543599
 30
0.0
 11
7856.155502368316
 21
7904.132495543599
 31
0.0
  0
LINE
  5
16E1A
330
156A9
100
AcDbEntity
  8
寸法
 62
     0
 48
50.0
370
    -2
100
AcDbLine
 10
7168.729156633904
 20
7849.132495543603
 30
0.0
 11
7856.155502368316
 21
7849.132495543603
 31
0.0
  0
LINE
  5
16E1B
330
156A9
100
AcDbEntity
  8
寸法
 62
     0
 48
50.0
370
    -2
100
AcDbLine
 10
7796.155502368314
 20
7904.132495543599
 30
0.0
 11
7796.155502368314
 21
8004.132495543599
 31
0.0
  0
LINE
  5
16E1C
330
156A9
100
AcDbEntity
  8
寸法
 62
     0
 48
50.0
370
    -2
100
AcDbLine
 10
7796.155502368314
 20
7849.132495543603
 30
0.0
 11
7796.155502368314
 21
7362.785747264505
 31
0.0
  0
LINE
  5
16E1D
330
156A9
100
AcDbEntity
  8
寸法
 62
     0
 48
50.0
370
    -2
100
AcDbLine
 10
7796.155502368314
 20
7904.132495543599
 30
0.0
 11
7796.155502368314
 21
7849.132495543603
 31
0.0
  0
INSERT
  5
16E1E
330
156A9
100
AcDbEntity
  8
寸法
 62
     0
 48
50.0
370
    -2
100
AcDbBlockReference
  2
_DOTSMALL
 10
7796.155502368314
 20
7904.132495543599
 30
0.0
 41
100.0
 42
100.0
 43
100.0
 50
270.0
  0
INSERT
  5
16E1F
330
156A9
100
AcDbEntity
  8
寸法
 62
     0
 48
50.0
370
    -2
100
AcDbBlockReference
  2
_DOTSMALL
 10
7796.155502368314
 20
7849.132495543603
 30
0.0
 41
100.0
 42
100.0
 43
100.0
 50
90.0
  0
MTEXT
  5
16E20
330
156A9
100
AcDbEntity
  8
寸法
 62
     7
 48
50.0
100
AcDbMText
 10
7696.155502368315
 20
7471.271028638745
 30
0.0
 40
120.0
 41
0.0
 71
     5
 72
     1
  1
\A1;55
  7
STYLE1
 11
0.0000000000000001
 21
1.0
 31
0.0
 73
     1
 44
1.0
1001
ACAD
1000
MTEXTBEGIN
1070
    73
1070
     1
1070
    44
1040
1.0
1070
    74
1070
     0
1000
MTEXTEND
  0
POINT
  5
16E21
330
156A9
100
AcDbEntity
  8
DEFPOINTS
 62
     0
 48
50.0
100
AcDbPoint
 10
7148.729156633905
 20
7904.132495543599
 30
0.0
  0
POINT
  5
16E22
330
156A9
100
AcDbEntity
  8
DEFPOINTS
 62
     0
 48
50.0
100
AcDbPoint
 10
7148.729156633905
 20
7849.132495543603
 30
0.0
  0
POINT
  5
16E23
330
156A9
100
AcDbEntity
  8
DEFPOINTS
 62
     0
 48
50.0
100
AcDbPoint
 10
7796.155502368314
 20
7849.132495543603
 30
0.0
  0
ENDBLK
  5
157C7
330
156A9
100
AcDbEntity
  8
0
 48
50.0
100
AcDbBlockEnd
  0
BLOCK
  5
157C8
330
156B7
100
AcDbEntity
  8
0
 48
50.0
100
AcDbBlockBegin
  2
*D4
 70
     1
 10
0.0
 20
0.0
 30
0.0
  3
*D4
  1

  0
LINE
  5
16E10
330
156B7
100
AcDbEntity
  8
寸法
 62
     0
 48
50.0
370
    -2
100
AcDbLine
 10
6253.729156633927
 20
7829.132495543511
 30
0.0
 11
6253.729156633927
 21
7349.308827748434
 31
0.0
  0
LINE
  5
16E11
330
156B7
100
AcDbEntity
  8
寸法
 62
     0
 48
50.0
370
    -2
100
AcDbLine
 10
6938.729156633923
 20
7829.132495543476
 30
0.0
 11
6938.729156633923
 21
7349.308827748434
 31
0.0
  0
LINE
  5
16E12
330
156B7
100
AcDbEntity
  8
寸法
 62
     0
 48
50.0
370
    -2
100
AcDbLine
 10
6253.729156633927
 20
7409.308827748436
 30
0.0
 11
6938.729156633923
 21
7409.308827748436
 31
0.0
  0
INSERT
  5
16E13
330
156B7
100
AcDbEntity
  8
寸法
 62
     0
 48
50.0
370
    -2
100
AcDbBlockReference
  2
_DOTSMALL
 10
6253.729156633927
 20
7409.308827748436
 30
0.0
 41
100.0
 42
100.0
 43
100.0
 50
180.0
  0
INSERT
  5
16E14
330
156B7
100
AcDbEntity
  8
寸法
 62
     0
 48
50.0
370
    -2
100
AcDbBlockReference
  2
_DOTSMALL
 10
6938.729156633923
 20
7409.308827748436
 30
0.0
 41
100.0
 42
100.0
 43
100.0
  0
MTEXT
  5
16E15
330
156B7
100
AcDbEntity
  8
寸法
 62
     7
 48
50.0
100
AcDbMText
 10
6596.229156633924
 20
7609.308827748435
 30
0.0
 40
120.0
 41
0.0
 71
     5
 72
     1
  1
\A1;有効開口部間口\P685
  7
STYLE1
 73
     1
 44
1.0
1001
ACAD
1000
MTEXTBEGIN
1070
    73
1070
     1
1070
    44
1040
1.0
1070
    74
1070
     0
1000
MTEXTEND
  0
POINT
  5
16E16
330
156B7
100
AcDbEntity
  8
DEFPOINTS
 62
     0
 48
50.0
100
AcDbPoint
 10
6253.729156633927
 20
7849.132495543512
 30
0.0
  0
POINT
  5
16E17
330
156B7
100
AcDbEntity
  8
DEFPOINTS
 62
     0
 48
50.0
100
AcDbPoint
 10
6938.729156633923
 20
7849.132495543476
 30
0.0
  0
POINT
  5
16E18
330
156B7
100
AcDbEntity
  8
DEFPOINTS
 62
     0
 48
50.0
100
AcDbPoint
 10
6938.729156633923
 20
7409.308827748436
 30
0.0
  0
ENDBLK
  5
157D2
330
156B7
100
AcDbEntity
  8
0
 48
50.0
100
AcDbBlockEnd
  0
BLOCK
  5
157DE
330
156CF
100
AcDbEntity
  8
0
 48
50.0
100
AcDbBlockBegin
  2
*D5
 70
     1
 10
0.0
 20
0.0
 30
0.0
  3
*D5
  1

  0
LINE
  5
16E05
330
156CF
100
AcDbEntity
  8
寸法
 62
     0
 48
50.0
370
    -2
100
AcDbLine
 10
5248.729156633894
 20
9399.132495543518
 30
0.0
 11
5248.729156633894
 21
9654.940715168502
 31
0.0
  0
LINE
  5
16E06
330
156CF
100
AcDbEntity
  8
寸法
 62
     0
 48
50.0
370
    -2
100
AcDbLine
 10
5303.72915663393
 20
9399.132495543518
 30
0.0
 11
5303.72915663393
 21
9654.940715168502
 31
0.0
  0
LINE
  5
16E07
330
156CF
100
AcDbEntity
  8
寸法
 62
     0
 48
50.0
370
    -2
100
AcDbLine
 10
5303.72915663393
 20
9594.940715168501
 30
0.0
 11
5403.72915663393
 21
9594.940715168501
 31
0.0
  0
LINE
  5
16E08
330
156CF
100
AcDbEntity
  8
寸法
 62
     0
 48
50.0
370
    -2
100
AcDbLine
 10
5248.729156633894
 20
9594.940715168501
 30
0.0
 11
4831.758593885414
 21
9594.940715168501
 31
0.0
  0
LINE
  5
16E09
330
156CF
100
AcDbEntity
  8
寸法
 62
     0
 48
50.0
370
    -2
100
AcDbLine
 10
5303.72915663393
 20
9594.940715168501
 30
0.0
 11
5248.729156633894
 21
9594.940715168501
 31
0.0
  0
INSERT
  5
16E0A
330
156CF
100
AcDbEntity
  8
寸法
 62
     0
 48
50.0
370
    -2
100
AcDbBlockReference
  2
_DOTSMALL
 10
5303.72915663393
 20
9594.940715168501
 30
0.0
 41
100.0
 42
100.0
 43
100.0
 50
180.0
  0
INSERT
  5
16E0B
330
156CF
100
AcDbEntity
  8
寸法
 62
     0
 48
50.0
370
    -2
100
AcDbBlockReference
  2
_DOTSMALL
 10
5248.729156633894
 20
9594.940715168501
 30
0.0
 41
100.0
 42
100.0
 43
100.0
  0
MTEXT
  5
16E0C
330
156CF
100
AcDbEntity
  8
寸法
 62
     7
 48
50.0
100
AcDbMText
 10
4940.243875259653
 20
9694.940715168501
 30
0.0
 40
120.0
 41
0.0
 71
     5
 72
     1
  1
\A1;55
  7
STYLE1
 73
     1
 44
1.0
1001
ACAD
1000
MTEXTBEGIN
1070
    73
1070
     1
1070
    44
1040
1.0
1070
    74
1070
     0
1000
MTEXTEND
  0
POINT
  5
16E0D
330
156CF
100
AcDbEntity
  8
DEFPOINTS
 62
     0
 48
50.0
100
AcDbPoint
 10
5248.729156633894
 20
9379.132495543521
 30
0.0
  0
POINT
  5
16E0E
330
156CF
100
AcDbEntity
  8
DEFPOINTS
 62
     0
 48
50.0
100
AcDbPoint
 10
5303.72915663393
 20
9379.132495543521
 30
0.0
  0
POINT
  5
16E0F
330
156CF
100
AcDbEntity
  8
DEFPOINTS
 62
     0
 48
50.0
100
AcDbPoint
 10
5303.72915663393
 20
9594.940715168501
 30
0.0
  0
ENDBLK
  5
157EA
330
156CF
100
AcDbEntity
  8
0
 48
50.0
100
AcDbBlockEnd
  0
BLOCK
  5
157F6
330
156E9
100
AcDbEntity
  8
0
 48
50.0
100
AcDbBlockBegin
  2
*D6
 70
     1
 10
0.0
 20
0.0
 30
0.0
  3
*D6
  1

  0
LINE
  5
16DFC
330
156E9
100
AcDbEntity
  8
寸法
 62
     0
 48
50.0
370
    -2
100
AcDbLine
 10
5303.72915663393
 20
9399.132495543552
 30
0.0
 11
5303.72915663393
 21
9654.940715168619
 31
0.0
  0
LINE
  5
16DFD
330
156E9
100
AcDbEntity
  8
寸法
 62
     0
 48
50.0
370
    -2
100
AcDbLine
 10
6143.72915663393
 20
9399.132495543639
 30
0.0
 11
6143.72915663393
 21
9654.940715168619
 31
0.0
  0
LINE
  5
16DFE
330
156E9
100
AcDbEntity
  8
寸法
 62
     0
 48
50.0
370
    -2
100
AcDbLine
 10
5303.72915663393
 20
9594.940715168617
 30
0.0
 11
6143.72915663393
 21
9594.940715168617
 31
0.0
  0
INSERT
  5
16DFF
330
156E9
100
AcDbEntity
  8
寸法
 62
     0
 48
50.0
370
    -2
100
AcDbBlockReference
  2
_DOTSMALL
 10
5303.72915663393
 20
9594.940715168617
 30
0.0
 41
100.0
 42
100.0
 43
100.0
 50
180.0
  0
INSERT
  5
16E00
330
156E9
100
AcDbEntity
  8
寸法
 62
     0
 48
50.0
370
    -2
100
AcDbBlockReference
  2
_DOTSMALL
 10
6143.72915663393
 20
9594.940715168617
 30
0.0
 41
100.0
 42
100.0
 43
100.0
  0
MTEXT
  5
16E01
330
156E9
100
AcDbEntity
  8
寸法
 62
     7
 48
50.0
100
AcDbMText
 10
5723.72915663393
 20
9694.952526192238
 30
0.0
 40
120.0
 41
0.0
 71
     5
 72
     1
  1
\A1;2X420=840
  7
STYLE1
 73
     1
 44
1.0
1001
ACAD
1000
MTEXTBEGIN
1070
    73
1070
     1
1070
    44
1040
1.0
1070
    74
1070
     0
1000
MTEXTEND
  0
POINT
  5
16E02
330
156E9
100
AcDbEntity
  8
DEFPOINTS
 62
     0
 48
50.0
100
AcDbPoint
 10
5303.72915663393
 20
9379.132495543553
 30
0.0
  0
POINT
  5
16E03
330
156E9
100
AcDbEntity
  8
DEFPOINTS
 62
     0
 48
50.0
100
AcDbPoint
 10
6143.72915663393
 20
9379.13249554364
 30
0.0
  0
POINT
  5
16E04
330
156E9
100
AcDbEntity
  8
DEFPOINTS
 62
     0
 48
50.0
100
AcDbPoint
 10
6143.72915663393
 20
9594.940715168617
 30
0.0
  0
ENDBLK
  5
15800
330
156E9
100
AcDbEntity
  8
0
 48
50.0
100
AcDbBlockEnd
  0
BLOCK
  5
15801
330
156F5
100
AcDbEntity
  8
0
 48
50.0
100
AcDbBlockBegin
  2
*D7
 70
     1
 10
0.0
 20
0.0
 30
0.0
  3
*D7
  1

  0
LINE
  5
16DF1
330
156F5
100
AcDbEntity
  8
寸法
 62
     0
 48
50.0
370
    -2
100
AcDbLine
 10
7168.729156633929
 20
9379.132495543613
 30
0.0
 11
7856.155502368341
 21
9379.132495543613
 31
0.0
  0
LINE
  5
16DF2
330
156F5
100
AcDbEntity
  8
寸法
 62
     0
 48
50.0
370
    -2
100
AcDbLine
 10
7168.729156633929
 20
9324.132495543619
 30
0.0
 11
7856.155502368341
 21
9324.132495543619
 31
0.0
  0
LINE
  5
16DF3
330
156F5
100
AcDbEntity
  8
寸法
 62
     0
 48
50.0
370
    -2
100
AcDbLine
 10
7796.15550236834
 20
9324.132495543619
 30
0.0
 11
7796.15550236834
 21
9224.132495543619
 31
0.0
  0
LINE
  5
16DF4
330
156F5
100
AcDbEntity
  8
寸法
 62
     0
 48
50.0
370
    -2
100
AcDbLine
 10
7796.15550236834
 20
9379.132495543613
 30
0.0
 11
7796.15550236834
 21
9796.103058292089
 31
0.0
  0
LINE
  5
16DF5
330
156F5
100
AcDbEntity
  8
寸法
 62
     0
 48
50.0
370
    -2
100
AcDbLine
 10
7796.15550236834
 20
9324.132495543619
 30
0.0
 11
7796.15550236834
 21
9379.132495543613
 31
0.0
  0
INSERT
  5
16DF6
330
156F5
100
AcDbEntity
  8
寸法
 62
     0
 48
50.0
370
    -2
100
AcDbBlockReference
  2
_DOTSMALL
 10
7796.15550236834
 20
9324.132495543619
 30
0.0
 41
100.0
 42
100.0
 43
100.0
 50
90.0
  0
INSERT
  5
16DF7
330
156F5
100
AcDbEntity
  8
寸法
 62
     0
 48
50.0
370
    -2
100
AcDbBlockReference
  2
_DOTSMALL
 10
7796.15550236834
 20
9379.132495543613
 30
0.0
 41
100.0
 42
100.0
 43
100.0
 50
270.0
  0
MTEXT
  5
16DF8
330
156F5
100
AcDbEntity
  8
寸法
 62
     7
 48
50.0
100
AcDbMText
 10
7696.15550236834
 20
9687.617776917853
 30
0.0
 40
120.0
 41
0.0
 71
     5
 72
     1
  1
\A1;55
  7
STYLE1
 11
0.0000000000000001
 21
1.0
 31
0.0
 73
     1
 44
1.0
1001
ACAD
1000
MTEXTBEGIN
1070
    73
1070
     1
1070
    44
1040
1.0
1070
    74
1070
     0
1000
MTEXTEND
  0
POINT
  5
16DF9
330
156F5
100
AcDbEntity
  8
DEFPOINTS
 62
     0
 48
50.0
100
AcDbPoint
 10
7148.72915663393
 20
9379.132495543613
 30
0.0
  0
POINT
  5
16DFA
330
156F5
100
AcDbEntity
  8
DEFPOINTS
 62
     0
 48
50.0
100
AcDbPoint
 10
7148.72915663393
 20
9324.132495543619
 30
0.0
  0
POINT
  5
16DFB
330
156F5
100
AcDbEntity
  8
DEFPOINTS
 62
     0
 48
50.0
100
AcDbPoint
 10
7796.15550236834
 20
9324.132495543619
 30
0.0
  0
ENDBLK
  5
1580D
330
156F5
100
AcDbEntity
  8
0
 48
50.0
100
AcDbBlockEnd
  0
BLOCK
  5
15819
330
1570F
100
AcDbEntity
  8
0
 48
50.0
100
AcDbBlockBegin
  2
*D8
 70
     1
 10
0.0
 20
0.0
 30
0.0
  3
*D8
  1

  0
LINE
  5
16DE8
330
1570F
100
AcDbEntity
  8
寸法
 62
     0
 48
50.0
370
    -2
100
AcDbLine
 10
7168.729156633929
 20
8904.132495543599
 30
0.0
 11
7856.15550236834
 21
8904.132495543599
 31
0.0
  0
LINE
  5
16DE9
330
1570F
100
AcDbEntity
  8
寸法
 62
     0
 48
50.0
370
    -2
100
AcDbLine
 10
7168.729156633929
 20
8324.132495543599
 30
0.0
 11
7856.15550236834
 21
8324.132495543599
 31
0.0
  0
LINE
  5
16DEA
330
1570F
100
AcDbEntity
  8
寸法
 62
     0
 48
50.0
370
    -2
100
AcDbLine
 10
7796.15550236834
 20
8904.132495543599
 30
0.0
 11
7796.15550236834
 21
8324.132495543599
 31
0.0
  0
INSERT
  5
16DEB
330
1570F
100
AcDbEntity
  8
寸法
 62
     0
 48
50.0
370
    -2
100
AcDbBlockReference
  2
_DOTSMALL
 10
7796.15550236834
 20
8904.132495543599
 30
0.0
 41
100.0
 42
100.0
 43
100.0
 50
90.0
  0
INSERT
  5
16DEC
330
1570F
100
AcDbEntity
  8
寸法
 62
     0
 48
50.0
370
    -2
100
AcDbBlockReference
  2
_DOTSMALL
 10
7796.15550236834
 20
8324.132495543599
 30
0.0
 41
100.0
 42
100.0
 43
100.0
 50
270.0
  0
MTEXT
  5
16DED
330
1570F
100
AcDbEntity
  8
寸法
 62
     7
 48
50.0
100
AcDbMText
 10
7696.155502368339
 20
8614.132495543602
 30
0.0
 40
120.0
 41
0.0
 71
     5
 72
     1
  1
\A1;580
  7
STYLE1
 11
0.0000000000000001
 21
1.0
 31
0.0
 73
     1
 44
1.0
1001
ACAD
1000
MTEXTBEGIN
1070
    73
1070
     1
1070
    44
1040
1.0
1070
    74
1070
     0
1000
MTEXTEND
  0
POINT
  5
16DEE
330
1570F
100
AcDbEntity
  8
DEFPOINTS
 62
     0
 48
50.0
100
AcDbPoint
 10
7148.72915663393
 20
8904.132495543599
 30
0.0
  0
POINT
  5
16DEF
330
1570F
100
AcDbEntity
  8
DEFPOINTS
 62
     0
 48
50.0
100
AcDbPoint
 10
7148.72915663393
 20
8324.132495543599
 30
0.0
  0
POINT
  5
16DF0
330
1570F
100
AcDbEntity
  8
DEFPOINTS
 62
     0
 48
50.0
100
AcDbPoint
 10
7796.15550236834
 20
8324.132495543599
 30
0.0
  0
ENDBLK
  5
15823
330
1570F
100
AcDbEntity
  8
0
 48
50.0
100
AcDbBlockEnd
  0
BLOCK
  5
15824
330
1571B
100
AcDbEntity
  8
0
 48
50.0
100
AcDbBlockBegin
  2
*D9
 70
     1
 10
0.0
 20
0.0
 30
0.0
  3
*D9
  1

  0
LINE
  5
16DDF
330
1571B
100
AcDbEntity
  8
寸法
 62
     0
 48
50.0
370
    -2
100
AcDbLine
 10
7168.729156633929
 20
8324.132495543599
 30
0.0
 11
7856.155502368314
 21
8324.132495543599
 31
0.0
  0
LINE
  5
16DE0
330
1571B
100
AcDbEntity
  8
寸法
 62
     0
 48
50.0
370
    -2
100
AcDbLine
 10
7168.729156633936
 20
7904.132495543599
 30
0.0
 11
7856.155502368314
 21
7904.132495543599
 31
0.0
  0
LINE
  5
16DE1
330
1571B
100
AcDbEntity
  8
寸法
 62
     0
 48
50.0
370
    -2
100
AcDbLine
 10
7796.155502368314
 20
8324.132495543599
 30
0.0
 11
7796.155502368314
 21
7904.132495543599
 31
0.0
  0
INSERT
  5
16DE2
330
1571B
100
AcDbEntity
  8
寸法
 62
     0
 48
50.0
370
    -2
100
AcDbBlockReference
  2
_DOTSMALL
 10
7796.155502368314
 20
8324.132495543599
 30
0.0
 41
100.0
 42
100.0
 43
100.0
 50
90.0
  0
INSERT
  5
16DE3
330
1571B
100
AcDbEntity
  8
寸法
 62
     0
 48
50.0
370
    -2
100
AcDbBlockReference
  2
_DOTSMALL
 10
7796.155502368314
 20
7904.132495543599
 30
0.0
 41
100.0
 42
100.0
 43
100.0
 50
270.0
  0
MTEXT
  5
16DE4
330
1571B
100
AcDbEntity
  8
寸法
 62
     7
 48
50.0
100
AcDbMText
 10
7696.143691344691
 20
8114.1324955436
 30
0.0
 40
120.0
 41
0.0
 71
     5
 72
     1
  1
\A1;420
  7
STYLE1
 11
0.0000000000000001
 21
1.0
 31
0.0
 73
     1
 44
1.0
1001
ACAD
1000
MTEXTBEGIN
1070
    73
1070
     1
1070
    44
1040
1.0
1070
    74
1070
     0
1000
MTEXTEND
  0
POINT
  5
16DE5
330
1571B
100
AcDbEntity
  8
DEFPOINTS
 62
     0
 48
50.0
100
AcDbPoint
 10
7148.72915663393
 20
8324.132495543599
 30
0.0
  0
POINT
  5
16DE6
330
1571B
100
AcDbEntity
  8
DEFPOINTS
 62
     0
 48
50.0
100
AcDbPoint
 10
7148.729156633938
 20
7904.132495543599
 30
0.0
  0
POINT
  5
16DE7
330
1571B
100
AcDbEntity
  8
DEFPOINTS
 62
     0
 48
50.0
100
AcDbPoint
 10
7796.155502368314
 20
7904.132495543599
 30
0.0
  0
ENDBLK
  5
1582E
330
1571B
100
AcDbEntity
  8
0
 48
50.0
100
AcDbBlockEnd
  0
BLOCK
  5
1582F
330
15727
100
AcDbEntity
  8
0
 48
50.0
100
AcDbBlockBegin
  2
*D10
 70
     1
 10
0.0
 20
0.0
 30
0.0
  3
*D10
  1

  0
LINE
  5
16DD6
330
15727
100
AcDbEntity
  8
寸法
 62
     0
 48
50.0
370
    -2
100
AcDbLine
 10
7168.729156633929
 20
9324.132495543599
 30
0.0
 11
7856.15550236834
 21
9324.132495543599
 31
0.0
  0
LINE
  5
16DD7
330
15727
100
AcDbEntity
  8
寸法
 62
     0
 48
50.0
370
    -2
100
AcDbLine
 10
7168.729156633929
 20
8904.132495543599
 30
0.0
 11
7856.15550236834
 21
8904.132495543599
 31
0.0
  0
LINE
  5
16DD8
330
15727
100
AcDbEntity
  8
寸法
 62
     0
 48
50.0
370
    -2
100
AcDbLine
 10
7796.15550236834
 20
9324.132495543599
 30
0.0
 11
7796.15550236834
 21
8904.132495543599
 31
0.0
  0
INSERT
  5
16DD9
330
15727
100
AcDbEntity
  8
寸法
 62
     0
 48
50.0
370
    -2
100
AcDbBlockReference
  2
_DOTSMALL
 10
7796.15550236834
 20
9324.132495543599
 30
0.0
 41
100.0
 42
100.0
 43
100.0
 50
90.0
  0
INSERT
  5
16DDA
330
15727
100
AcDbEntity
  8
寸法
 62
     0
 48
50.0
370
    -2
100
AcDbBlockReference
  2
_DOTSMALL
 10
7796.15550236834
 20
8904.132495543599
 30
0.0
 41
100.0
 42
100.0
 43
100.0
 50
270.0
  0
MTEXT
  5
16DDB
330
15727
100
AcDbEntity
  8
寸法
 62
     7
 48
50.0
100
AcDbMText
 10
7696.143691344717
 20
9114.132495543602
 30
0.0
 40
120.0
 41
0.0
 71
     5
 72
     1
  1
\A1;420
  7
STYLE1
 11
0.0000000000000001
 21
1.0
 31
0.0
 73
     1
 44
1.0
1001
ACAD
1000
MTEXTBEGIN
1070
    73
1070
     1
1070
    44
1040
1.0
1070
    74
1070
     0
1000
MTEXTEND
  0
POINT
  5
16DDC
330
15727
100
AcDbEntity
  8
DEFPOINTS
 62
     0
 48
50.0
100
AcDbPoint
 10
7148.72915663393
 20
9324.132495543599
 30
0.0
  0
POINT
  5
16DDD
330
15727
100
AcDbEntity
  8
DEFPOINTS
 62
     0
 48
50.0
100
AcDbPoint
 10
7148.72915663393
 20
8904.132495543599
 30
0.0
  0
POINT
  5
16DDE
330
15727
100
AcDbEntity
  8
DEFPOINTS
 62
     0
 48
50.0
100
AcDbPoint
 10
7796.15550236834
 20
8904.132495543599
 30
0.0
  0
ENDBLK
  5
15839
330
15727
100
AcDbEntity
  8
0
 48
50.0
100
AcDbBlockEnd
  0
BLOCK
  5
1583A
330
15733
100
AcDbEntity
  8
0
 48
50.0
100
AcDbBlockBegin
  2
*D11
 70
     1
 10
0.0
 20
0.0
 30
0.0
  3
*D11
  1

  0
LINE
  5
16DCD
330
15733
100
AcDbEntity
  8
寸法
 62
     0
 48
50.0
370
    -2
100
AcDbLine
 10
7139.729163311539
 20
9344.273511694863
 30
0.0
 11
7535.086889173564
 21
9238.33772832873
 31
0.0
  0
LINE
  5
16DCE
330
15733
100
AcDbEntity
  8
寸法
 62
     0
 48
50.0
370
    -2
100
AcDbLine
 10
7139.72916331155
 20
8894.273511694867
 30
0.0
 11
7535.086889173564
 21
8788.337728328736
 31
0.0
  0
LINE
  5
16DCF
330
15733
100
AcDbEntity
  8
寸法
 62
     0
 48
50.0
370
    -2
100
AcDbLine
 10
7475.086889173564
 20
9254.414679874598
 30
0.0
 11
7475.086889173564
 21
8804.414679874602
 31
0.0
  0
INSERT
  5
16DD0
330
15733
100
AcDbEntity
  8
寸法
 62
     0
 48
50.0
370
    -2
100
AcDbBlockReference
  2
_DOTSMALL
 10
7475.086889173564
 20
9254.414679874598
 30
0.0
 41
100.0
 42
100.0
 43
100.0
 50
90.0
  0
INSERT
  5
16DD1
330
15733
100
AcDbEntity
  8
寸法
 62
     0
 48
50.0
370
    -2
100
AcDbBlockReference
  2
_DOTSMALL
 10
7475.086889173564
 20
8804.414679874602
 30
0.0
 41
100.0
 42
100.0
 43
100.0
 50
270.0
  0
MTEXT
  5
16DD2
330
15733
100
AcDbEntity
  8
寸法
 62
     7
 48
50.0
100
AcDbMText
 10
7375.086889173563
 20
9029.414679874602
 30
0.0
 40
120.0
 41
0.0
 71
     5
 72
     1
  1
\A1;450
  7
STYLE1
 11
0.0000000000000001
 21
1.0
 31
0.0
 73
     1
 44
1.0
1001
ACAD
1000
MTEXTBEGIN
1070
    73
1070
     1
1070
    44
1040
1.0
1070
    74
1070
     0
1000
MTEXTEND
  0
POINT
  5
16DD3
330
15733
100
AcDbEntity
  8
DEFPOINTS
 62
     0
 48
50.0
100
AcDbPoint
 10
7119.729163311538
 20
9349.632495543486
 30
0.0
  0
POINT
  5
16DD4
330
15733
100
AcDbEntity
  8
DEFPOINTS
 62
     0
 48
50.0
100
AcDbPoint
 10
7119.72916331155
 20
8899.632495543491
 30
0.0
  0
POINT
  5
16DD5
330
15733
100
AcDbEntity
  8
DEFPOINTS
 62
     0
 48
50.0
100
AcDbPoint
 10
7475.086889173564
 20
8804.414679874602
 30
0.0
  0
ENDBLK
  5
15844
330
15733
100
AcDbEntity
  8
0
 48
50.0
100
AcDbBlockEnd
  0
BLOCK
  5
15845
330
1573F
100
AcDbEntity
  8
0
 48
50.0
100
AcDbBlockBegin
  2
*D12
 70
     1
 10
0.0
 20
0.0
 30
0.0
  3
*D12
  1

  0
LINE
  5
16DC4
330
1573F
100
AcDbEntity
  8
寸法
 62
     0
 48
50.0
370
    -2
100
AcDbLine
 10
6253.72915663393
 20
9399.132495543552
 30
0.0
 11
6253.72915663393
 21
9654.940715168619
 31
0.0
  0
LINE
  5
16DC5
330
1573F
100
AcDbEntity
  8
寸法
 62
     0
 48
50.0
370
    -2
100
AcDbLine
 10
7093.72915663393
 20
9399.132495543639
 30
0.0
 11
7093.72915663393
 21
9654.940715168619
 31
0.0
  0
LINE
  5
16DC6
330
1573F
100
AcDbEntity
  8
寸法
 62
     0
 48
50.0
370
    -2
100
AcDbLine
 10
6253.72915663393
 20
9594.940715168617
 30
0.0
 11
7093.72915663393
 21
9594.940715168617
 31
0.0
  0
INSERT
  5
16DC7
330
1573F
100
AcDbEntity
  8
寸法
 62
     0
 48
50.0
370
    -2
100
AcDbBlockReference
  2
_DOTSMALL
 10
6253.72915663393
 20
9594.940715168617
 30
0.0
 41
100.0
 42
100.0
 43
100.0
 50
180.0
  0
INSERT
  5
16DC8
330
1573F
100
AcDbEntity
  8
寸法
 62
     0
 48
50.0
370
    -2
100
AcDbBlockReference
  2
_DOTSMALL
 10
7093.72915663393
 20
9594.940715168617
 30
0.0
 41
100.0
 42
100.0
 43
100.0
  0
MTEXT
  5
16DC9
330
1573F
100
AcDbEntity
  8
寸法
 62
     7
 48
50.0
100
AcDbMText
 10
6673.729156633929
 20
9694.952526192238
 30
0.0
 40
120.0
 41
0.0
 71
     5
 72
     1
  1
\A1;2X420=840
  7
STYLE1
 73
     1
 44
1.0
1001
ACAD
1000
MTEXTBEGIN
1070
    73
1070
     1
1070
    44
1040
1.0
1070
    74
1070
     0
1000
MTEXTEND
  0
POINT
  5
16DCA
330
1573F
100
AcDbEntity
  8
DEFPOINTS
 62
     0
 48
50.0
100
AcDbPoint
 10
6253.72915663393
 20
9379.132495543553
 30
0.0
  0
POINT
  5
16DCB
330
1573F
100
AcDbEntity
  8
DEFPOINTS
 62
     0
 48
50.0
100
AcDbPoint
 10
7093.72915663393
 20
9379.13249554364
 30
0.0
  0
POINT
  5
16DCC
330
1573F
100
AcDbEntity
  8
DEFPOINTS
 62
     0
 48
50.0
100
AcDbPoint
 10
7093.72915663393
 20
9594.940715168617
 30
0.0
  0
ENDBLK
  5
1584F
330
1573F
100
AcDbEntity
  8
0
 48
50.0
100
AcDbBlockEnd
  0
BLOCK
  5
15850
330
1574B
100
AcDbEntity
  8
0
 48
50.0
100
AcDbBlockBegin
  2
*D13
 70
     1
 10
0.0
 20
0.0
 30
0.0
  3
*D13
  1

  0
LINE
  5
16DBB
330
1574B
100
AcDbEntity
  8
寸法
 62
     0
 48
50.0
370
    -2
100
AcDbLine
 10
6143.72915663393
 20
9399.132495543639
 30
0.0
 11
6143.72915663393
 21
9654.940715168619
 31
0.0
  0
LINE
  5
16DBC
330
1574B
100
AcDbEntity
  8
寸法
 62
     0
 48
50.0
370
    -2
100
AcDbLine
 10
6253.729156633934
 20
9399.132495543618
 30
0.0
 11
6253.729156633934
 21
9654.940715168619
 31
0.0
  0
LINE
  5
16DBD
330
1574B
100
AcDbEntity
  8
寸法
 62
     0
 48
50.0
370
    -2
100
AcDbLine
 10
6143.72915663393
 20
9594.940715168617
 30
0.0
 11
6253.729156633934
 21
9594.940715168617
 31
0.0
  0
MTEXT
  5
16DBE
330
1574B
100
AcDbEntity
  8
寸法
 62
     7
 48
50.0
100
AcDbMText
 10
6198.72915663393
 20
9851.537606486864
 30
0.0
 40
120.0
 41
0.0
 71
     5
 72
     1
  1
\A1;110
  7
STYLE1
 73
     1
 44
1.0
1001
ACAD
1000
MTEXTBEGIN
1070
    73
1070
     1
1070
    44
1040
1.0
1070
    74
1070
     0
1000
MTEXTEND
  0
INSERT
  5
16DBF
330
1574B
100
AcDbEntity
  8
寸法
 62
     0
 48
50.0
370
    -2
100
AcDbBlockReference
  2
_DOTSMALL
 10
6143.72915663393
 20
9594.940715168617
 30
0.0
 41
100.0
 42
100.0
 43
100.0
 50
180.0
  0
INSERT
  5
16DC0
330
1574B
100
AcDbEntity
  8
寸法
 62
     0
 48
50.0
370
    -2
100
AcDbBlockReference
  2
_DOTSMALL
 10
6253.729156633934
 20
9594.940715168617
 30
0.0
 41
100.0
 42
100.0
 43
100.0
  0
POINT
  5
16DC1
330
1574B
100
AcDbEntity
  8
DEFPOINTS
 62
     0
 48
50.0
100
AcDbPoint
 10
6143.72915663393
 20
9379.13249554364
 30
0.0
  0
POINT
  5
16DC2
330
1574B
100
AcDbEntity
  8
DEFPOINTS
 62
     0
 48
50.0
100
AcDbPoint
 10
6253.729156633934
 20
9379.132495543618
 30
0.0
  0
POINT
  5
16DC3
330
1574B
100
AcDbEntity
  8
DEFPOINTS
 62
     0
 48
50.0
100
AcDbPoint
 10
6253.729156633934
 20
9594.940715168617
 30
0.0
  0
ENDBLK
  5
1585A
330
1574B
100
AcDbEntity
  8
0
 48
50.0
100
AcDbBlockEnd
  0
BLOCK
  5
1585B
330
15757
100
AcDbEntity
  8
0
 48
50.0
100
AcDbBlockBegin
  2
*D14
 70
     1
 10
0.0
 20
0.0
 30
0.0
  3
*D14
  1

  0
LINE
  5
16DB0
330
15757
100
AcDbEntity
  8
寸法
 62
     0
 48
50.0
370
    -2
100
AcDbLine
 10
7093.72915663393
 20
9399.132495543614
 30
0.0
 11
7093.72915663393
 21
9654.940715168596
 31
0.0
  0
LINE
  5
16DB1
330
15757
100
AcDbEntity
  8
寸法
 62
     0
 48
50.0
370
    -2
100
AcDbLine
 10
7148.72915663393
 20
9399.132495543614
 30
0.0
 11
7148.72915663393
 21
9654.940715168596
 31
0.0
  0
LINE
  5
16DB2
330
15757
100
AcDbEntity
  8
寸法
 62
     0
 48
50.0
370
    -2
100
AcDbLine
 10
7093.72915663393
 20
9594.940715168595
 30
0.0
 11
6993.729156633929
 21
9594.940715168595
 31
0.0
  0
LINE
  5
16DB3
330
15757
100
AcDbEntity
  8
寸法
 62
     0
 48
50.0
370
    -2
100
AcDbLine
 10
7148.72915663393
 20
9594.940715168595
 30
0.0
 11
7565.69971938241
 21
9594.940715168595
 31
0.0
  0
LINE
  5
16DB4
330
15757
100
AcDbEntity
  8
寸法
 62
     0
 48
50.0
370
    -2
100
AcDbLine
 10
7093.72915663393
 20
9594.940715168595
 30
0.0
 11
7148.72915663393
 21
9594.940715168595
 31
0.0
  0
INSERT
  5
16DB5
330
15757
100
AcDbEntity
  8
寸法
 62
     0
 48
50.0
370
    -2
100
AcDbBlockReference
  2
_DOTSMALL
 10
7093.72915663393
 20
9594.940715168595
 30
0.0
 41
100.0
 42
100.0
 43
100.0
  0
INSERT
  5
16DB6
330
15757
100
AcDbEntity
  8
寸法
 62
     0
 48
50.0
370
    -2
100
AcDbBlockReference
  2
_DOTSMALL
 10
7148.72915663393
 20
9594.940715168595
 30
0.0
 41
100.0
 42
100.0
 43
100.0
 50
180.0
  0
MTEXT
  5
16DB7
330
15757
100
AcDbEntity
  8
寸法
 62
     7
 48
50.0
100
AcDbMText
 10
7457.214438008169
 20
9694.940715168597
 30
0.0
 40
120.0
 41
0.0
 71
     5
 72
     1
  1
\A1;55
  7
STYLE1
 73
     1
 44
1.0
1001
ACAD
1000
MTEXTBEGIN
1070
    73
1070
     1
1070
    44
1040
1.0
1070
    74
1070
     0
1000
MTEXTEND
  0
POINT
  5
16DB8
330
15757
100
AcDbEntity
  8
DEFPOINTS
 62
     0
 48
50.0
100
AcDbPoint
 10
7093.72915663393
 20
9379.132495543613
 30
0.0
  0
POINT
  5
16DB9
330
15757
100
AcDbEntity
  8
DEFPOINTS
 62
     0
 48
50.0
100
AcDbPoint
 10
7148.72915663393
 20
9379.132495543613
 30
0.0
  0
POINT
  5
16DBA
330
15757
100
AcDbEntity
  8
DEFPOINTS
 62
     0
 48
50.0
100
AcDbPoint
 10
7148.72915663393
 20
9594.940715168595
 30
0.0
  0
ENDBLK
  5
15867
330
15757
100
AcDbEntity
  8
0
 48
50.0
100
AcDbBlockEnd
  0
BLOCK
  5
15868
330
15765
100
AcDbEntity
  8
0
 48
50.0
100
AcDbBlockBegin
  2
*D15
 70
     1
 10
0.0
 20
0.0
 30
0.0
  3
*D15
  1

  0
LINE
  5
16D8C
330
15765
100
AcDbEntity
  8
寸法
 62
     0
 48
50.0
370
    -2
100
AcDbLine
 10
5228.729156633904
 20
4879.443315457628
 30
0.0
 11
4870.624629026302
 21
4879.443315457628
 31
0.0
  0
LINE
  5
16D8D
330
15765
100
AcDbEntity
  8
寸法
 62
     0
 48
50.0
370
    -2
100
AcDbLine
 10
5228.729156633904
 20
3119.443315457631
 30
0.0
 11
4870.624629026302
 21
3119.443315457632
 31
0.0
  0
LINE
  5
16D8E
330
15765
100
AcDbEntity
  8
寸法
 62
     0
 48
50.0
370
    -2
100
AcDbLine
 10
4930.624629026302
 20
4879.443315457628
 30
0.0
 11
4930.624629026302
 21
3119.443315457632
 31
0.0
  0
INSERT
  5
16D8F
330
15765
100
AcDbEntity
  8
寸法
 62
     0
 48
50.0
370
    -2
100
AcDbBlockReference
  2
_DOTSMALL
 10
4930.624629026302
 20
4879.443315457628
 30
0.0
 41
100.0
 42
100.0
 43
100.0
 50
90.0
  0
INSERT
  5
16D90
330
15765
100
AcDbEntity
  8
寸法
 62
     0
 48
50.0
370
    -2
100
AcDbBlockReference
  2
_DOTSMALL
 10
4930.624629026302
 20
3119.443315457632
 30
0.0
 41
100.0
 42
100.0
 43
100.0
 50
270.0
  0
MTEXT
  5
16D91
330
15765
100
AcDbEntity
  8
寸法
 62
     7
 48
50.0
100
AcDbMText
 10
4830.6246290263
 20
3998.44331545763
 30
0.0
 40
120.0
 41
0.0
 71
     5
 72
     1
  1
\A1;有効開口部高サ1760
  7
STYLE1
 11
0.0000000000000001
 21
1.0
 31
0.0
 73
     1
 44
1.0
1001
ACAD
1000
MTEXTBEGIN
1070
    73
1070
     1
1070
    44
1040
1.0
1070
    74
1070
     0
1000
MTEXTEND
  0
POINT
  5
16D92
330
15765
100
AcDbEntity
  8
DEFPOINTS
 62
     0
 48
50.0
100
AcDbPoint
 10
5248.729156633904
 20
4879.443315457628
 30
0.0
  0
POINT
  5
16D93
330
15765
100
AcDbEntity
  8
DEFPOINTS
 62
     0
 48
50.0
100
AcDbPoint
 10
5248.729156633904
 20
3119.443315457631
 30
0.0
  0
POINT
  5
16D94
330
15765
100
AcDbEntity
  8
DEFPOINTS
 62
     0
 48
50.0
100
AcDbPoint
 10
4930.624629026302
 20
3119.443315457632
 30
0.0
  0
ENDBLK
  5
15872
330
15765
100
AcDbEntity
  8
0
 48
50.0
100
AcDbBlockEnd
  0
BLOCK
  5
159AC
330
159A0
100
AcDbEntity
  8
0
 48
50.0
100
AcDbBlockBegin
  2
*D16
 70
     1
 10
0.0
 20
0.0
 30
0.0
  3
*D16
  1

  0
LINE
  5
16DA7
330
159A0
100
AcDbEntity
  8
寸法
 62
     0
 48
50.0
370
    -2
100
AcDbLine
 10
5303.729156633926
 20
7829.132495543511
 30
0.0
 11
5303.729156633926
 21
7349.308827748434
 31
0.0
  0
LINE
  5
16DA8
330
159A0
100
AcDbEntity
  8
寸法
 62
     0
 48
50.0
370
    -2
100
AcDbLine
 10
5988.729156633922
 20
7829.132495543476
 30
0.0
 11
5988.729156633922
 21
7349.308827748434
 31
0.0
  0
LINE
  5
16DA9
330
159A0
100
AcDbEntity
  8
寸法
 62
     0
 48
50.0
370
    -2
100
AcDbLine
 10
5303.729156633926
 20
7409.308827748436
 30
0.0
 11
5988.729156633922
 21
7409.308827748436
 31
0.0
  0
INSERT
  5
16DAA
330
159A0
100
AcDbEntity
  8
寸法
 62
     0
 48
50.0
370
    -2
100
AcDbBlockReference
  2
_DOTSMALL
 10
5303.729156633926
 20
7409.308827748436
 30
0.0
 41
100.0
 42
100.0
 43
100.0
 50
180.0
  0
INSERT
  5
16DAB
330
159A0
100
AcDbEntity
  8
寸法
 62
     0
 48
50.0
370
    -2
100
AcDbBlockReference
  2
_DOTSMALL
 10
5988.729156633922
 20
7409.308827748436
 30
0.0
 41
100.0
 42
100.0
 43
100.0
  0
MTEXT
  5
16DAC
330
159A0
100
AcDbEntity
  8
寸法
 62
     7
 48
50.0
100
AcDbMText
 10
5646.229156633925
 20
7509.308827748435
 30
0.0
 40
120.0
 41
0.0
 71
     5
 72
     1
  1
\A1;685
  7
STYLE1
 73
     1
 44
1.0
1001
ACAD
1000
MTEXTBEGIN
1070
    73
1070
     1
1070
    44
1040
1.0
1070
    74
1070
     0
1000
MTEXTEND
  0
POINT
  5
16DAD
330
159A0
100
AcDbEntity
  8
DEFPOINTS
 62
     0
 48
50.0
100
AcDbPoint
 10
5303.729156633926
 20
7849.132495543512
 30
0.0
  0
POINT
  5
16DAE
330
159A0
100
AcDbEntity
  8
DEFPOINTS
 62
     0
 48
50.0
100
AcDbPoint
 10
5988.729156633922
 20
7849.132495543476
 30
0.0
  0
POINT
  5
16DAF
330
159A0
100
AcDbEntity
  8
DEFPOINTS
 62
     0
 48
50.0
100
AcDbPoint
 10
5988.729156633922
 20
7409.308827748436
 30
0.0
  0
ENDBLK
  5
159B6
330
159A0
100
AcDbEntity
  8
0
 48
50.0
100
AcDbBlockEnd
  0
BLOCK
  5
1697B
330
16971
100
AcDbEntity
  8
0
 48
50.0
100
AcDbBlockBegin
  2
*D17
 70
     1
 10
0.0
 20
0.0
 30
0.0
  3
*D17
  1

  0
LINE
  5
16D83
330
16971
100
AcDbEntity
  8
寸法
 62
     0
 48
50.0
370
    -2
100
AcDbLine
 10
9515.601069194287
 20
3057.94331545763
 30
0.0
 11
8571.329257553808
 21
3057.94331545763
 31
0.0
  0
LINE
  5
16D84
330
16971
100
AcDbEntity
  8
寸法
 62
     0
 48
50.0
370
    -2
100
AcDbLine
 10
9455.601069194289
 20
5132.943315457633
 30
0.0
 11
8571.329257553809
 21
5132.943315457633
 31
0.0
  0
LINE
  5
16D85
330
16971
100
AcDbEntity
  8
寸法
 62
     0
 48
50.0
370
    -2
100
AcDbLine
 10
8631.329257553806
 20
3057.94331545763
 30
0.0
 11
8631.329257553808
 21
5132.943315457633
 31
0.0
  0
INSERT
  5
16D86
330
16971
100
AcDbEntity
  8
寸法
 62
     0
 48
50.0
370
    -2
100
AcDbBlockReference
  2
_DOTSMALL
 10
8631.329257553806
 20
3057.94331545763
 30
0.0
 41
100.0
 42
100.0
 43
100.0
 50
270.0
  0
INSERT
  5
16D87
330
16971
100
AcDbEntity
  8
寸法
 62
     0
 48
50.0
370
    -2
100
AcDbBlockReference
  2
_DOTSMALL
 10
8631.329257553808
 20
5132.943315457633
 30
0.0
 41
100.0
 42
100.0
 43
100.0
 50
90.0
  0
MTEXT
  5
16D88
330
16971
100
AcDbEntity
  8
寸法
 62
     7
 48
50.0
100
AcDbMText
 10
8531.317446530186
 20
4033.15030587743
 30
0.0
 40
120.0
 41
0.0
 71
     5
 72
     1
  1
\A1;2075
  7
STYLE1
 11
0.0000000000000001
 21
1.0
 31
0.0
 73
     1
 44
1.0
1001
ACAD
1000
MTEXTBEGIN
1070
    73
1070
     1
1070
    44
1040
1.0
1070
    74
1070
     0
1000
MTEXTEND
  0
POINT
  5
16D89
330
16971
100
AcDbEntity
  8
DEFPOINTS
 62
     0
 48
50.0
100
AcDbPoint
 10
9535.601069194287
 20
3057.94331545763
 30
0.0
  0
POINT
  5
16D8A
330
16971
100
AcDbEntity
  8
DEFPOINTS
 62
     0
 48
50.0
100
AcDbPoint
 10
9475.601069194288
 20
5132.943315457633
 30
0.0
  0
POINT
  5
16D8B
330
16971
100
AcDbEntity
  8
DEFPOINTS
 62
     0
 48
50.0
100
AcDbPoint
 10
8631.329257553808
 20
5132.943315457633
 30
0.0
  0
ENDBLK
  5
1697C
330
16971
100
AcDbEntity
  8
0
 48
50.0
100
AcDbBlockEnd
  0
BLOCK
  5
16989
330
1697D
100
AcDbEntity
  8
0
 48
50.0
100
AcDbBlockBegin
  2
*D18
 70
     1
 10
0.0
 20
0.0
 30
0.0
  3
*D18
  1

  0
LINE
  5
16D78
330
1697D
100
AcDbEntity
  8
寸法
 62
     0
 48
50.0
370
    -2
100
AcDbLine
 10
9508.59869914951
 20
3107.943315457631
 30
0.0
 11
8873.637978502085
 21
3107.943315457632
 31
0.0
  0
LINE
  5
16D79
330
1697D
100
AcDbEntity
  8
寸法
 62
     0
 48
50.0
370
    -2
100
AcDbLine
 10
9460.601069194288
 20
3057.94331545763
 30
0.0
 11
8873.637978502085
 21
3057.94331545763
 31
0.0
  0
LINE
  5
16D7A
330
1697D
100
AcDbEntity
  8
寸法
 62
     0
 48
50.0
370
    -2
100
AcDbLine
 10
8933.637978502083
 20
3107.943315457632
 30
0.0
 11
8933.637978502083
 21
3207.943315457632
 31
0.0
  0
LINE
  5
16D7B
330
1697D
100
AcDbEntity
  8
寸法
 62
     0
 48
50.0
370
    -2
100
AcDbLine
 10
8933.637978502083
 20
3057.94331545763
 30
0.0
 11
8933.637978502083
 21
2645.848827268649
 31
0.0
  0
LINE
  5
16D7C
330
1697D
100
AcDbEntity
  8
寸法
 62
     0
 48
50.0
370
    -2
100
AcDbLine
 10
8933.637978502083
 20
3107.943315457632
 30
0.0
 11
8933.637978502083
 21
3057.94331545763
 31
0.0
  0
INSERT
  5
16D7D
330
1697D
100
AcDbEntity
  8
寸法
 62
     0
 48
50.0
370
    -2
100
AcDbBlockReference
  2
_DOTSMALL
 10
8933.637978502083
 20
3107.943315457632
 30
0.0
 41
100.0
 42
100.0
 43
100.0
 50
270.0
  0
INSERT
  5
16D7E
330
1697D
100
AcDbEntity
  8
寸法
 62
     0
 48
50.0
370
    -2
100
AcDbBlockReference
  2
_DOTSMALL
 10
8933.637978502083
 20
3057.94331545763
 30
0.0
 41
100.0
 42
100.0
 43
100.0
 50
90.0
  0
MTEXT
  5
16D7F
330
1697D
100
AcDbEntity
  8
寸法
 62
     7
 48
50.0
100
AcDbMText
 10
8833.637978502084
 20
2751.896071363139
 30
0.0
 40
120.0
 41
0.0
 71
     5
 72
     1
  1
\A1;50
  7
STYLE1
 11
0.0000000000000001
 21
1.0
 31
0.0
 73
     1
 44
1.0
1001
ACAD
1000
MTEXTBEGIN
1070
    73
1070
     1
1070
    44
1040
1.0
1070
    74
1070
     0
1000
MTEXTEND
  0
POINT
  5
16D80
330
1697D
100
AcDbEntity
  8
DEFPOINTS
 62
     0
 48
50.0
100
AcDbPoint
 10
9528.59869914951
 20
3107.943315457631
 30
0.0
  0
POINT
  5
16D81
330
1697D
100
AcDbEntity
  8
DEFPOINTS
 62
     0
 48
50.0
100
AcDbPoint
 10
9480.601069194287
 20
3057.94331545763
 30
0.0
  0
POINT
  5
16D82
330
1697D
100
AcDbEntity
  8
DEFPOINTS
 62
     0
 48
50.0
100
AcDbPoint
 10
8933.637978502083
 20
3057.94331545763
 30
0.0
  0
ENDBLK
  5
1698A
330
1697D
100
AcDbEntity
  8
0
 48
50.0
100
AcDbBlockEnd
  0
BLOCK
  5
16995
330
1698B
100
AcDbEntity
  8
0
 48
50.0
100
AcDbBlockBegin
  2
*D19
 70
     1
 10
0.0
 20
0.0
 30
0.0
  3
*D19
  1

  0
LINE
  5
16D6F
330
1698B
100
AcDbEntity
  8
寸法
 62
     0
 48
50.0
370
    -2
100
AcDbLine
 10
11085.60106919429
 20
3057.94331545763
 30
0.0
 11
11830.52822716641
 21
3057.943315457629
 31
0.0
  0
LINE
  5
16D70
330
1698B
100
AcDbEntity
  8
寸法
 62
     0
 48
50.0
370
    -2
100
AcDbLine
 10
11165.60106919429
 20
5077.943315457629
 30
0.0
 11
11830.52822716641
 21
5077.943315457629
 31
0.0
  0
LINE
  5
16D71
330
1698B
100
AcDbEntity
  8
寸法
 62
     0
 48
50.0
370
    -2
100
AcDbLine
 10
11770.52822716641
 20
3057.943315457629
 30
0.0
 11
11770.52822716641
 21
5077.943315457629
 31
0.0
  0
INSERT
  5
16D72
330
1698B
100
AcDbEntity
  8
寸法
 62
     0
 48
50.0
370
    -2
100
AcDbBlockReference
  2
_DOTSMALL
 10
11770.52822716641
 20
3057.943315457629
 30
0.0
 41
100.0
 42
100.0
 43
100.0
 50
270.0
  0
INSERT
  5
16D73
330
1698B
100
AcDbEntity
  8
寸法
 62
     0
 48
50.0
370
    -2
100
AcDbBlockReference
  2
_DOTSMALL
 10
11770.52822716641
 20
5077.943315457629
 30
0.0
 41
100.0
 42
100.0
 43
100.0
 50
90.0
  0
MTEXT
  5
16D74
330
1698B
100
AcDbEntity
  8
寸法
 62
     7
 48
50.0
100
AcDbMText
 10
11670.51641614279
 20
4067.943315457631
 30
0.0
 40
120.0
 41
0.0
 71
     5
 72
     1
  1
\A1;2020
  7
STYLE1
 11
0.0000000000000001
 21
1.0
 31
0.0
 73
     1
 44
1.0
1001
ACAD
1000
MTEXTBEGIN
1070
    73
1070
     1
1070
    44
1040
1.0
1070
    74
1070
     0
1000
MTEXTEND
  0
POINT
  5
16D75
330
1698B
100
AcDbEntity
  8
DEFPOINTS
 62
     0
 48
50.0
100
AcDbPoint
 10
11065.60106919429
 20
3057.94331545763
 30
0.0
  0
POINT
  5
16D76
330
1698B
100
AcDbEntity
  8
DEFPOINTS
 62
     0
 48
50.0
100
AcDbPoint
 10
11145.60106919429
 20
5077.943315457629
 30
0.0
  0
POINT
  5
16D77
330
1698B
100
AcDbEntity
  8
DEFPOINTS
 62
     0
 48
50.0
100
AcDbPoint
 10
11770.52822716641
 20
5077.943315457629
 30
0.0
  0
ENDBLK
  5
16996
330
1698B
100
AcDbEntity
  8
0
 48
50.0
100
AcDbBlockEnd
  0
BLOCK
  5
169A1
330
16997
100
AcDbEntity
  8
0
 48
50.0
100
AcDbBlockBegin
  2
*D20
 70
     1
 10
0.0
 20
0.0
 30
0.0
  3
*D20
  1

  0
LINE
  5
16D66
330
16997
100
AcDbEntity
  8
寸法
 62
     0
 48
50.0
370
    -2
100
AcDbLine
 10
11065.60106919429
 20
5099.753995069281
 30
0.0
 11
11065.60106919429
 21
5591.600769036932
 31
0.0
  0
LINE
  5
16D67
330
16997
100
AcDbEntity
  8
寸法
 62
     0
 48
50.0
370
    -2
100
AcDbLine
 10
9535.601069194289
 20
5148.944933580605
 30
0.0
 11
9535.601069194289
 21
5591.600769036932
 31
0.0
  0
LINE
  5
16D68
330
16997
100
AcDbEntity
  8
寸法
 62
     0
 48
50.0
370
    -2
100
AcDbLine
 10
11065.60106919429
 20
5531.600769036931
 30
0.0
 11
9535.601069194289
 21
5531.600769036931
 31
0.0
  0
INSERT
  5
16D69
330
16997
100
AcDbEntity
  8
寸法
 62
     0
 48
50.0
370
    -2
100
AcDbBlockReference
  2
_DOTSMALL
 10
11065.60106919429
 20
5531.600769036931
 30
0.0
 41
100.0
 42
100.0
 43
100.0
  0
INSERT
  5
16D6A
330
16997
100
AcDbEntity
  8
寸法
 62
     0
 48
50.0
370
    -2
100
AcDbBlockReference
  2
_DOTSMALL
 10
9535.601069194289
 20
5531.600769036931
 30
0.0
 41
100.0
 42
100.0
 43
100.0
 50
180.0
  0
MTEXT
  5
16D6B
330
16997
100
AcDbEntity
  8
寸法
 62
     7
 48
50.0
100
AcDbMText
 10
10345.42010208483
 20
5631.600769036932
 30
0.0
 40
120.0
 41
0.0
 71
     5
 72
     1
  1
\A1;柱外寸法1530
  7
STYLE1
 73
     1
 44
1.0
1001
ACAD
1000
MTEXTBEGIN
1070
    73
1070
     1
1070
    44
1040
1.0
1070
    74
1070
     0
1000
MTEXTEND
  0
POINT
  5
16D6C
330
16997
100
AcDbEntity
  8
DEFPOINTS
 62
     0
 48
50.0
100
AcDbPoint
 10
11065.60106919429
 20
5079.753995069281
 30
0.0
  0
POINT
  5
16D6D
330
16997
100
AcDbEntity
  8
DEFPOINTS
 62
     0
 48
50.0
100
AcDbPoint
 10
9535.601069194289
 20
5128.944933580604
 30
0.0
  0
POINT
  5
16D6E
330
16997
100
AcDbEntity
  8
DEFPOINTS
 62
     0
 48
50.0
100
AcDbPoint
 10
9535.601069194289
 20
5531.600769036931
 30
0.0
  0
ENDBLK
  5
169A2
330
16997
100
AcDbEntity
  8
0
 48
50.0
100
AcDbBlockEnd
  0
BLOCK
  5
169AF
330
169A3
100
AcDbEntity
  8
0
 48
50.0
100
AcDbBlockBegin
  2
*D21
 70
     1
 10
0.0
 20
0.0
 30
0.0
  3
*D21
  1

  0
LINE
  5
16D5B
330
169A3
100
AcDbEntity
  8
寸法
 62
     0
 48
50.0
370
    -2
100
AcDbLine
 10
9535.601069194289
 20
5148.944933580605
 30
0.0
 11
9535.601069194289
 21
5591.600769036932
 31
0.0
  0
LINE
  5
16D5C
330
169A3
100
AcDbEntity
  8
寸法
 62
     0
 48
50.0
370
    -2
100
AcDbLine
 10
9475.601069194288
 20
5152.943315457633
 30
0.0
 11
9475.601069194288
 21
5591.600769036932
 31
0.0
  0
LINE
  5
16D5D
330
169A3
100
AcDbEntity
  8
寸法
 62
     0
 48
50.0
370
    -2
100
AcDbLine
 10
9535.601069194289
 20
5531.600769036931
 30
0.0
 11
9635.601069194288
 21
5531.600769036931
 31
0.0
  0
LINE
  5
16D5E
330
169A3
100
AcDbEntity
  8
寸法
 62
     0
 48
50.0
370
    -2
100
AcDbLine
 10
9475.601069194288
 20
5531.600769036931
 30
0.0
 11
9056.325478643108
 21
5531.600769036931
 31
0.0
  0
LINE
  5
16D5F
330
169A3
100
AcDbEntity
  8
寸法
 62
     0
 48
50.0
370
    -2
100
AcDbLine
 10
9535.601069194289
 20
5531.600769036931
 30
0.0
 11
9475.601069194288
 21
5531.600769036931
 31
0.0
  0
INSERT
  5
16D60
330
169A3
100
AcDbEntity
  8
寸法
 62
     0
 48
50.0
370
    -2
100
AcDbBlockReference
  2
_DOTSMALL
 10
9535.601069194289
 20
5531.600769036931
 30
0.0
 41
100.0
 42
100.0
 43
100.0
 50
180.0
  0
INSERT
  5
16D61
330
169A3
100
AcDbEntity
  8
寸法
 62
     0
 48
50.0
370
    -2
100
AcDbBlockReference
  2
_DOTSMALL
 10
9475.601069194288
 20
5531.600769036931
 30
0.0
 41
100.0
 42
100.0
 43
100.0
  0
MTEXT
  5
16D62
330
169A3
100
AcDbEntity
  8
寸法
 62
     7
 48
50.0
100
AcDbMText
 10
9165.963273918698
 20
5631.600769036932
 30
0.0
 40
120.0
 41
0.0
 71
     5
 72
     1
  1
\A1;60
  7
STYLE1
 73
     1
 44
1.0
1001
ACAD
1000
MTEXTBEGIN
1070
    73
1070
     1
1070
    44
1040
1.0
1070
    74
1070
     0
1000
MTEXTEND
  0
POINT
  5
16D63
330
169A3
100
AcDbEntity
  8
DEFPOINTS
 62
     0
 48
50.0
100
AcDbPoint
 10
9535.601069194289
 20
5128.944933580604
 30
0.0
  0
POINT
  5
16D64
330
169A3
100
AcDbEntity
  8
DEFPOINTS
 62
     0
 48
50.0
100
AcDbPoint
 10
9475.601069194288
 20
5132.943315457633
 30
0.0
  0
POINT
  5
16D65
330
169A3
100
AcDbEntity
  8
DEFPOINTS
 62
     0
 48
50.0
100
AcDbPoint
 10
9475.601069194288
 20
5531.600769036931
 30
0.0
  0
ENDBLK
  5
169B0
330
169A3
100
AcDbEntity
  8
0
 48
50.0
100
AcDbBlockEnd
  0
BLOCK
  5
169BB
330
169B1
100
AcDbEntity
  8
0
 48
50.0
100
AcDbBlockBegin
  2
*D22
 70
     1
 10
0.0
 20
0.0
 30
0.0
  3
*D22
  1

  0
LINE
  5
16D52
330
169B1
100
AcDbEntity
  8
寸法
 62
     0
 48
50.0
370
    -2
100
AcDbLine
 10
11145.60106919429
 20
5097.943315457629
 30
0.0
 11
11145.60106919429
 21
5799.775090228895
 31
0.0
  0
LINE
  5
16D53
330
169B1
100
AcDbEntity
  8
寸法
 62
     0
 48
50.0
370
    -2
100
AcDbLine
 10
9475.601069194288
 20
5152.943315457633
 30
0.0
 11
9475.601069194288
 21
5799.775090228895
 31
0.0
  0
LINE
  5
16D54
330
169B1
100
AcDbEntity
  8
寸法
 62
     0
 48
50.0
370
    -2
100
AcDbLine
 10
11145.60106919429
 20
5739.775090228896
 30
0.0
 11
9475.601069194288
 21
5739.775090228896
 31
0.0
  0
INSERT
  5
16D55
330
169B1
100
AcDbEntity
  8
寸法
 62
     0
 48
50.0
370
    -2
100
AcDbBlockReference
  2
_DOTSMALL
 10
11145.60106919429
 20
5739.775090228896
 30
0.0
 41
100.0
 42
100.0
 43
100.0
  0
INSERT
  5
16D56
330
169B1
100
AcDbEntity
  8
寸法
 62
     0
 48
50.0
370
    -2
100
AcDbBlockReference
  2
_DOTSMALL
 10
9475.601069194288
 20
5739.775090228896
 30
0.0
 41
100.0
 42
100.0
 43
100.0
 50
180.0
  0
MTEXT
  5
16D57
330
169B1
100
AcDbEntity
  8
寸法
 62
     7
 48
50.0
100
AcDbMText
 10
10362.72589889611
 20
5839.775090228895
 30
0.0
 40
120.0
 41
0.0
 71
     5
 72
     1
  1
\A1;1670
  7
STYLE1
 73
     1
 44
1.0
1001
ACAD
1000
MTEXTBEGIN
1070
    73
1070
     1
1070
    44
1040
1.0
1070
    74
1070
     0
1000
MTEXTEND
  0
POINT
  5
16D58
330
169B1
100
AcDbEntity
  8
DEFPOINTS
 62
     0
 48
50.0
100
AcDbPoint
 10
11145.60106919429
 20
5077.943315457629
 30
0.0
  0
POINT
  5
16D59
330
169B1
100
AcDbEntity
  8
DEFPOINTS
 62
     0
 48
50.0
100
AcDbPoint
 10
9475.601069194288
 20
5132.943315457633
 30
0.0
  0
POINT
  5
16D5A
330
169B1
100
AcDbEntity
  8
DEFPOINTS
 62
     0
 48
50.0
100
AcDbPoint
 10
9475.601069194288
 20
5739.775090228896
 30
0.0
  0
ENDBLK
  5
169BC
330
169B1
100
AcDbEntity
  8
0
 48
50.0
100
AcDbBlockEnd
  0
BLOCK
  5
169C8
330
169BD
100
AcDbEntity
  8
0
 48
50.0
100
AcDbBlockBegin
  2
*D23
 70
     1
 10
0.0
 20
0.0
 30
0.0
  3
*D23
  1

  0
LINE
  5
16D48
330
169BD
100
AcDbEntity
  8
寸法
 62
     0
 48
50.0
370
    -2
100
AcDbLine
 10
11065.60106919429
 20
5099.753995069281
 30
0.0
 11
11065.60106919429
 21
5591.600769036932
 31
0.0
  0
LINE
  5
16D49
330
169BD
100
AcDbEntity
  8
寸法
 62
     0
 48
50.0
370
    -2
100
AcDbLine
 10
11145.60106919429
 20
5097.943315457629
 30
0.0
 11
11145.60106919429
 21
5591.600769036932
 31
0.0
  0
LINE
  5
16D4A
330
169BD
100
AcDbEntity
  8
寸法
 62
     0
 48
50.0
370
    -2
100
AcDbLine
 10
11065.60106919429
 20
5531.600769036931
 30
0.0
 11
11145.60106919429
 21
5531.600769036931
 31
0.0
  0
LINE
  5
16D4B
330
169BD
100
AcDbEntity
  8
寸法
 62
     0
 48
50.0
370
    -2
100
AcDbLine
 10
11145.60106919429
 20
5531.600769036931
 30
0.0
 11
11457.69555738326
 21
5531.600769036931
 31
0.0
  0
INSERT
  5
16D4C
330
169BD
100
AcDbEntity
  8
寸法
 62
     0
 48
50.0
370
    -2
100
AcDbBlockReference
  2
_DOTSMALL
 10
11065.60106919429
 20
5531.600769036931
 30
0.0
 41
100.0
 42
100.0
 43
100.0
 50
180.0
  0
INSERT
  5
16D4D
330
169BD
100
AcDbEntity
  8
寸法
 62
     0
 48
50.0
370
    -2
100
AcDbBlockReference
  2
_DOTSMALL
 10
11145.60106919429
 20
5531.600769036931
 30
0.0
 41
100.0
 42
100.0
 43
100.0
  0
MTEXT
  5
16D4E
330
169BD
100
AcDbEntity
  8
寸法
 62
     7
 48
50.0
100
AcDbMText
 10
11351.64831328878
 20
5631.600769036932
 30
0.0
 40
120.0
 41
0.0
 71
     5
 72
     1
  1
\A1;80
  7
STYLE1
 73
     1
 44
1.0
1001
ACAD
1000
MTEXTBEGIN
1070
    73
1070
     1
1070
    44
1040
1.0
1070
    74
1070
     0
1000
MTEXTEND
  0
POINT
  5
16D4F
330
169BD
100
AcDbEntity
  8
DEFPOINTS
 62
     0
 48
50.0
100
AcDbPoint
 10
11065.60106919429
 20
5079.753995069281
 30
0.0
  0
POINT
  5
16D50
330
169BD
100
AcDbEntity
  8
DEFPOINTS
 62
     0
 48
50.0
100
AcDbPoint
 10
11145.60106919429
 20
5077.943315457629
 30
0.0
  0
POINT
  5
16D51
330
169BD
100
AcDbEntity
  8
DEFPOINTS
 62
     0
 48
50.0
100
AcDbPoint
 10
11145.60106919429
 20
5531.600769036931
 30
0.0
  0
ENDBLK
  5
169C9
330
169BD
100
AcDbEntity
  8
0
 48
50.0
100
AcDbBlockEnd
  0
BLOCK
  5
169D5
330
169CA
100
AcDbEntity
  8
0
 48
50.0
100
AcDbBlockBegin
  2
*D24
 70
     1
 10
0.0
 20
0.0
 30
0.0
  3
*D24
  1

  0
LINE
  5
16D3E
330
169CA
100
AcDbEntity
  8
寸法
 62
     0
 48
50.0
370
    -2
100
AcDbLine
 10
9470.957873881786
 20
4991.478926931103
 30
0.0
 11
8818.057703587758
 21
5016.129958171082
 31
0.0
  0
LINE
  5
16D3F
330
169CA
100
AcDbEntity
  8
寸法
 62
     0
 48
50.0
370
    -2
100
AcDbLine
 10
9476.277708033745
 20
5132.378534327987
 30
0.0
 11
8823.377537739551
 21
5157.029565567972
 31
0.0
  0
LINE
  5
16D40
330
169CA
100
AcDbEntity
  8
寸法
 62
     0
 48
50.0
370
    -2
100
AcDbLine
 10
8878.014983331114
 20
5013.866198957553
 30
0.0
 11
8883.334817482907
 21
5154.765806354443
 31
0.0
  0
LINE
  5
16D41
330
169CA
100
AcDbEntity
  8
寸法
 62
     0
 48
50.0
370
    -2
100
AcDbLine
 10
8883.334817482907
 20
5154.765806354443
 30
0.0
 11
8896.917372764105
 21
5514.509484815273
 31
0.0
  0
INSERT
  5
16D42
330
169CA
100
AcDbEntity
  8
寸法
 62
     0
 48
50.0
370
    -2
100
AcDbBlockReference
  2
_DOTSMALL
 10
8878.014983331114
 20
5013.866198957553
 30
0.0
 41
100.0
 42
100.0
 43
100.0
 50
267.8377559871574
  0
INSERT
  5
16D43
330
169CA
100
AcDbEntity
  8
寸法
 62
     0
 48
50.0
370
    -2
100
AcDbBlockReference
  2
_DOTSMALL
 10
8883.334817482907
 20
5154.765806354443
 30
0.0
 41
100.0
 42
100.0
 43
100.0
 50
87.83775598715743
  0
MTEXT
  5
16D44
330
169CA
100
AcDbEntity
  8
寸法
 62
     7
 48
50.0
100
AcDbMText
 10
8792.083761562532
 20
5388.37497739388
 30
0.0
 40
120.0
 41
0.0
 71
     5
 72
     1
  1
\A1;141
  7
STYLE1
 11
0.03772932022548
 21
0.9992879957226159
 31
0.0
 73
     1
 44
1.0
1001
ACAD
1000
MTEXTBEGIN
1070
    73
1070
     1
1070
    44
1040
1.0
1070
    74
1070
     0
1000
MTEXTEND
  0
POINT
  5
16D45
330
169CA
100
AcDbEntity
  8
DEFPOINTS
 62
     0
 48
50.0
100
AcDbPoint
 10
9490.94363379624
 20
4990.724340526593
 30
0.0
  0
POINT
  5
16D46
330
169CA
100
AcDbEntity
  8
DEFPOINTS
 62
     0
 48
50.0
100
AcDbPoint
 10
9496.263467948196
 20
5131.623947923477
 30
0.0
  0
POINT
  5
16D47
330
169CA
100
AcDbEntity
  8
DEFPOINTS
 62
     0
 48
50.0
100
AcDbPoint
 10
8883.334817482907
 20
5154.765806354443
 30
0.0
  0
ENDBLK
  5
169D6
330
169CA
100
AcDbEntity
  8
0
 48
50.0
100
AcDbBlockEnd
  0
BLOCK
  5
16BEE
330
16BE4
100
AcDbEntity
  8
0
 48
50.0
100
AcDbBlockBegin
  2
*D26
 70
     1
 10
0.0
 20
0.0
 30
0.0
  3
*D26
  1

  0
LINE
  5
16E5D
330
16BE4
100
AcDbEntity
  8
寸法
 62
     0
 48
50.0
370
    -2
100
AcDbLine
 10
6222.370179462912
 20
8879.632495543487
 30
0.0
 11
6157.513851743018
 21
8637.585385300505
 31
0.0
  0
LINE
  5
16E5E
330
16BE4
100
AcDbEntity
  8
寸法
 62
     0
 48
50.0
370
    -2
100
AcDbLine
 10
7114.370179462923
 20
8879.632495543486
 30
0.0
 11
7049.513851743029
 21
8637.585385300505
 31
0.0
  0
LINE
  5
16E5F
330
16BE4
100
AcDbEntity
  8
寸法
 62
     0
 48
50.0
370
    -2
100
AcDbLine
 10
6173.590803288885
 20
8697.585385300504
 30
0.0
 11
7065.590803288897
 21
8697.585385300504
 31
0.0
  0
MTEXT
  5
16E60
330
16BE4
100
AcDbEntity
  8
寸法
 62
     7
 48
50.0
100
AcDbMText
 10
6712.38381519321
 20
8802.670661077035
 30
0.0
 40
120.0
 41
0.0
 71
     5
 72
     1
  1
\A1;892
  7
STYLE1
 73
     1
 44
1.0
1001
ACAD
1000
MTEXTBEGIN
1070
    73
1070
     1
1070
    44
1040
1.0
1070
    74
1070
     0
1000
MTEXTEND
  0
INSERT
  5
16E61
330
16BE4
100
AcDbEntity
  8
寸法
 62
     0
 48
50.0
370
    -2
100
AcDbBlockReference
  2
_DOTSMALL
 10
6173.590803288885
 20
8697.585385300504
 30
0.0
 41
100.0
 42
100.0
 43
100.0
 50
180.0
  0
INSERT
  5
16E62
330
16BE4
100
AcDbEntity
  8
寸法
 62
     0
 48
50.0
370
    -2
100
AcDbBlockReference
  2
_DOTSMALL
 10
7065.590803288897
 20
8697.585385300504
 30
0.0
 41
100.0
 42
100.0
 43
100.0
  0
POINT
  5
16E63
330
16BE4
100
AcDbEntity
  8
DEFPOINTS
 62
     0
 48
50.0
100
AcDbPoint
 10
6227.729163311535
 20
8899.632495543489
 30
0.0
  0
POINT
  5
16E64
330
16BE4
100
AcDbEntity
  8
DEFPOINTS
 62
     0
 48
50.0
100
AcDbPoint
 10
7119.729163311546
 20
8899.632495543484
 30
0.0
  0
POINT
  5
16E65
330
16BE4
100
AcDbEntity
  8
DEFPOINTS
 62
     0
 48
50.0
100
AcDbPoint
 10
7065.590803288897
 20
8697.585385300504
 30
0.0
  0
ENDBLK
  5
16BEF
330
16BE4
100
AcDbEntity
  8
0
 48
50.0
100
AcDbBlockEnd
  0
BLOCK
  5
16BFA
330
16BF0
100
AcDbEntity
  8
0
 48
50.0
100
AcDbBlockBegin
  2
*D27
 70
     1
 10
0.0
 20
0.0
 30
0.0
  3
*D27
  1

  0
LINE
  5
16E54
330
16BF0
100
AcDbEntity
  8
寸法
 62
     0
 48
50.0
370
    -2
100
AcDbLine
 10
5272.370179462912
 20
8879.632495543487
 30
0.0
 11
5207.513851743017
 21
8637.585385300505
 31
0.0
  0
LINE
  5
16E55
330
16BF0
100
AcDbEntity
  8
寸法
 62
     0
 48
50.0
370
    -2
100
AcDbLine
 10
6164.370179462924
 20
8879.632495543486
 30
0.0
 11
6099.513851743029
 21
8637.585385300505
 31
0.0
  0
LINE
  5
16E56
330
16BF0
100
AcDbEntity
  8
寸法
 62
     0
 48
50.0
370
    -2
100
AcDbLine
 10
5223.590803288885
 20
8697.585385300504
 30
0.0
 11
6115.590803288896
 21
8697.585385300504
 31
0.0
  0
MTEXT
  5
16E57
330
16BF0
100
AcDbEntity
  8
寸法
 62
     7
 48
50.0
100
AcDbMText
 10
5768.854978087457
 20
8800.869500693501
 30
0.0
 40
120.0
 41
0.0
 71
     5
 72
     1
  1
\A1;892
  7
STYLE1
 73
     1
 44
1.0
1001
ACAD
1000
MTEXTBEGIN
1070
    73
1070
     1
1070
    44
1040
1.0
1070
    74
1070
     0
1000
MTEXTEND
  0
INSERT
  5
16E58
330
16BF0
100
AcDbEntity
  8
寸法
 62
     0
 48
50.0
370
    -2
100
AcDbBlockReference
  2
_DOTSMALL
 10
5223.590803288885
 20
8697.585385300504
 30
0.0
 41
100.0
 42
100.0
 43
100.0
 50
180.0
  0
INSERT
  5
16E59
330
16BF0
100
AcDbEntity
  8
寸法
 62
     0
 48
50.0
370
    -2
100
AcDbBlockReference
  2
_DOTSMALL
 10
6115.590803288896
 20
8697.585385300504
 30
0.0
 41
100.0
 42
100.0
 43
100.0
  0
POINT
  5
16E5A
330
16BF0
100
AcDbEntity
  8
DEFPOINTS
 62
     0
 48
50.0
100
AcDbPoint
 10
5277.729163311534
 20
8899.632495543489
 30
0.0
  0
POINT
  5
16E5B
330
16BF0
100
AcDbEntity
  8
DEFPOINTS
 62
     0
 48
50.0
100
AcDbPoint
 10
6169.729163311545
 20
8899.632495543484
 30
0.0
  0
POINT
  5
16E5C
330
16BF0
100
AcDbEntity
  8
DEFPOINTS
 62
     0
 48
50.0
100
AcDbPoint
 10
6115.590803288896
 20
8697.585385300504
 30
0.0
  0
ENDBLK
  5
16BFB
330
16BF0
100
AcDbEntity
  8
0
 48
50.0
100
AcDbBlockEnd
  0
BLOCK
  5
16C29
330
16C1F
100
AcDbEntity
  8
0
 48
50.0
100
AcDbBlockBegin
  2
*D28
 70
     1
 10
0.0
 20
0.0
 30
0.0
  3
*D28
  1

  0
LINE
  5
16D18
330
16C1F
100
AcDbEntity
  8
寸法
 62
     0
 48
50.0
370
    -2
100
AcDbLine
 10
5198.729156633905
 20
5152.943315457634
 30
0.0
 11
5198.729156633905
 21
5628.441879153721
 31
0.0
  0
LINE
  5
16D19
330
16C1F
100
AcDbEntity
  8
寸法
 62
     0
 48
50.0
370
    -2
100
AcDbLine
 10
7198.729156633908
 20
5152.943315457629
 30
0.0
 11
7198.729156633908
 21
5628.441879153721
 31
0.0
  0
LINE
  5
16D1A
330
16C1F
100
AcDbEntity
  8
寸法
 62
     0
 48
50.0
370
    -2
100
AcDbLine
 10
5198.729156633905
 20
5568.441879153721
 30
0.0
 11
7198.729156633908
 21
5568.441879153721
 31
0.0
  0
INSERT
  5
16D1B
330
16C1F
100
AcDbEntity
  8
寸法
 62
     0
 48
50.0
370
    -2
100
AcDbBlockReference
  2
_DOTSMALL
 10
5198.729156633905
 20
5568.441879153721
 30
0.0
 41
100.0
 42
100.0
 43
100.0
 50
180.0
  0
INSERT
  5
16D1C
330
16C1F
100
AcDbEntity
  8
寸法
 62
     0
 48
50.0
370
    -2
100
AcDbBlockReference
  2
_DOTSMALL
 10
7198.729156633908
 20
5568.441879153721
 30
0.0
 41
100.0
 42
100.0
 43
100.0
  0
MTEXT
  5
16D1D
330
16C1F
100
AcDbEntity
  8
寸法
 62
     7
 48
50.0
100
AcDbMText
 10
6198.729156633905
 20
5668.453690177343
 30
0.0
 40
120.0
 41
0.0
 71
     5
 72
     1
  1
\A1;2000
  7
STYLE1
 73
     1
 44
1.0
1001
ACAD
1000
MTEXTBEGIN
1070
    73
1070
     1
1070
    44
1040
1.0
1070
    74
1070
     0
1000
MTEXTEND
  0
POINT
  5
16D1E
330
16C1F
100
AcDbEntity
  8
DEFPOINTS
 62
     0
 48
50.0
100
AcDbPoint
 10
5198.729156633905
 20
5132.943315457635
 30
0.0
  0
POINT
  5
16D1F
330
16C1F
100
AcDbEntity
  8
DEFPOINTS
 62
     0
 48
50.0
100
AcDbPoint
 10
7198.729156633908
 20
5132.943315457629
 30
0.0
  0
POINT
  5
16D20
330
16C1F
100
AcDbEntity
  8
DEFPOINTS
 62
     0
 48
50.0
100
AcDbPoint
 10
7198.729156633908
 20
5568.441879153721
 30
0.0
  0
ENDBLK
  5
16C2A
330
16C1F
100
AcDbEntity
  8
0
 48
50.0
100
AcDbBlockEnd
  0
BLOCK
  5
16C35
330
16C2B
100
AcDbEntity
  8
0
 48
50.0
100
AcDbBlockBegin
  2
*D29
 70
     1
 10
0.0
 20
0.0
 30
0.0
  3
*D29
  1

  0
LINE
  5
16D21
330
16C2B
100
AcDbEntity
  8
寸法
 62
     0
 48
50.0
370
    -2
100
AcDbLine
 10
7148.729156633908
 20
5152.943315457631
 30
0.0
 11
7148.729156633908
 21
5405.484900715873
 31
0.0
  0
LINE
  5
16D22
330
16C2B
100
AcDbEntity
  8
寸法
 62
     0
 48
50.0
370
    -2
100
AcDbLine
 10
5248.729156633904
 20
5152.943315457637
 30
0.0
 11
5248.729156633904
 21
5405.484900715873
 31
0.0
  0
LINE
  5
16D23
330
16C2B
100
AcDbEntity
  8
寸法
 62
     0
 48
50.0
370
    -2
100
AcDbLine
 10
7148.729156633908
 20
5345.484900715874
 30
0.0
 11
5248.729156633904
 21
5345.484900715874
 31
0.0
  0
INSERT
  5
16D24
330
16C2B
100
AcDbEntity
  8
寸法
 62
     0
 48
50.0
370
    -2
100
AcDbBlockReference
  2
_DOTSMALL
 10
7148.729156633908
 20
5345.484900715874
 30
0.0
 41
100.0
 42
100.0
 43
100.0
  0
INSERT
  5
16D25
330
16C2B
100
AcDbEntity
  8
寸法
 62
     0
 48
50.0
370
    -2
100
AcDbBlockReference
  2
_DOTSMALL
 10
5248.729156633904
 20
5345.484900715874
 30
0.0
 41
100.0
 42
100.0
 43
100.0
 50
180.0
  0
MTEXT
  5
16D26
330
16C2B
100
AcDbEntity
  8
寸法
 62
     7
 48
50.0
100
AcDbMText
 10
6198.729156633905
 20
5445.484900715873
 30
0.0
 40
120.0
 41
0.0
 71
     5
 72
     1
  1
\A1;柱外寸法1900
  7
STYLE1
 73
     1
 44
1.0
1001
ACAD
1000
MTEXTBEGIN
1070
    73
1070
     1
1070
    44
1040
1.0
1070
    74
1070
     0
1000
MTEXTEND
  0
POINT
  5
16D27
330
16C2B
100
AcDbEntity
  8
DEFPOINTS
 62
     0
 48
50.0
100
AcDbPoint
 10
7148.729156633908
 20
5132.94331545763
 30
0.0
  0
POINT
  5
16D28
330
16C2B
100
AcDbEntity
  8
DEFPOINTS
 62
     0
 48
50.0
100
AcDbPoint
 10
5248.729156633904
 20
5132.943315457636
 30
0.0
  0
POINT
  5
16D29
330
16C2B
100
AcDbEntity
  8
DEFPOINTS
 62
     0
 48
50.0
100
AcDbPoint
 10
5248.729156633904
 20
5345.484900715874
 30
0.0
  0
ENDBLK
  5
16C36
330
16C2B
100
AcDbEntity
  8
0
 48
50.0
100
AcDbBlockEnd
  0
BLOCK
  5
16C43
330
16C37
100
AcDbEntity
  8
0
 48
50.0
100
AcDbBlockBegin
  2
*D30
 70
     1
 10
0.0
 20
0.0
 30
0.0
  3
*D30
  1

  0
LINE
  5
16D2A
330
16C37
100
AcDbEntity
  8
寸法
 62
     0
 48
50.0
370
    -2
100
AcDbLine
 10
5248.729156633904
 20
5152.943315457637
 30
0.0
 11
5248.729156633904
 21
5405.484900715873
 31
0.0
  0
LINE
  5
16D2B
330
16C37
100
AcDbEntity
  8
寸法
 62
     0
 48
50.0
370
    -2
100
AcDbLine
 10
5198.729156633905
 20
5152.943315457634
 30
0.0
 11
5198.729156633905
 21
5405.484900715873
 31
0.0
  0
LINE
  5
16D2C
330
16C37
100
AcDbEntity
  8
寸法
 62
     0
 48
50.0
370
    -2
100
AcDbLine
 10
5248.729156633904
 20
5345.484900715874
 30
0.0
 11
5348.729156633904
 21
5345.484900715874
 31
0.0
  0
LINE
  5
16D2D
330
16C37
100
AcDbEntity
  8
寸法
 62
     0
 48
50.0
370
    -2
100
AcDbLine
 10
5198.729156633905
 20
5345.484900715874
 30
0.0
 11
4779.196631165169
 21
5345.484900715874
 31
0.0
  0
LINE
  5
16D2E
330
16C37
100
AcDbEntity
  8
寸法
 62
     0
 48
50.0
370
    -2
100
AcDbLine
 10
5248.729156633904
 20
5345.484900715874
 30
0.0
 11
5198.729156633905
 21
5345.484900715874
 31
0.0
  0
INSERT
  5
16D2F
330
16C37
100
AcDbEntity
  8
寸法
 62
     0
 48
50.0
370
    -2
100
AcDbBlockReference
  2
_DOTSMALL
 10
5248.729156633904
 20
5345.484900715874
 30
0.0
 41
100.0
 42
100.0
 43
100.0
 50
180.0
  0
INSERT
  5
16D30
330
16C37
100
AcDbEntity
  8
寸法
 62
     0
 48
50.0
370
    -2
100
AcDbBlockReference
  2
_DOTSMALL
 10
5198.729156633905
 20
5345.484900715874
 30
0.0
 41
100.0
 42
100.0
 43
100.0
  0
MTEXT
  5
16D31
330
16C37
100
AcDbEntity
  8
寸法
 62
     7
 48
50.0
100
AcDbMText
 10
4885.243875259657
 20
5445.484900715873
 30
0.0
 40
120.0
 41
0.0
 71
     5
 72
     1
  1
\A1;50
  7
STYLE1
 73
     1
 44
1.0
1001
ACAD
1000
MTEXTBEGIN
1070
    73
1070
     1
1070
    44
1040
1.0
1070
    74
1070
     0
1000
MTEXTEND
  0
POINT
  5
16D32
330
16C37
100
AcDbEntity
  8
DEFPOINTS
 62
     0
 48
50.0
100
AcDbPoint
 10
5248.729156633904
 20
5132.943315457636
 30
0.0
  0
POINT
  5
16D33
330
16C37
100
AcDbEntity
  8
DEFPOINTS
 62
     0
 48
50.0
100
AcDbPoint
 10
5198.729156633905
 20
5132.943315457635
 30
0.0
  0
POINT
  5
16D34
330
16C37
100
AcDbEntity
  8
DEFPOINTS
 62
     0
 48
50.0
100
AcDbPoint
 10
5198.729156633905
 20
5345.484900715874
 30
0.0
  0
ENDBLK
  5
16C44
330
16C37
100
AcDbEntity
  8
0
 48
50.0
100
AcDbBlockEnd
  0
BLOCK
  5
16C79
330
16C6D
100
AcDbEntity
  8
0
 48
50.0
100
AcDbBlockBegin
  2
*D31
 70
     1
 10
0.0
 20
0.0
 30
0.0
  3
*D31
  1

  0
LINE
  5
16D0D
330
16C6D
100
AcDbEntity
  8
寸法
 62
     0
 48
50.0
370
    -2
100
AcDbLine
 10
7198.729156633908
 20
5152.943315457629
 30
0.0
 11
7198.729156633908
 21
5405.48490071587
 31
0.0
  0
LINE
  5
16D0E
330
16C6D
100
AcDbEntity
  8
寸法
 62
     0
 48
50.0
370
    -2
100
AcDbLine
 10
7148.729156633908
 20
5152.943315457631
 30
0.0
 11
7148.729156633908
 21
5405.48490071587
 31
0.0
  0
LINE
  5
16D0F
330
16C6D
100
AcDbEntity
  8
寸法
 62
     0
 48
50.0
370
    -2
100
AcDbLine
 10
7148.729156633908
 20
5345.48490071587
 30
0.0
 11
7048.729156633908
 21
5345.48490071587
 31
0.0
  0
LINE
  5
16D10
330
16C6D
100
AcDbEntity
  8
寸法
 62
     0
 48
50.0
370
    -2
100
AcDbLine
 10
7198.729156633908
 20
5345.48490071587
 30
0.0
 11
7618.261682102633
 21
5345.48490071587
 31
0.0
  0
LINE
  5
16D11
330
16C6D
100
AcDbEntity
  8
寸法
 62
     0
 48
50.0
370
    -2
100
AcDbLine
 10
7148.729156633908
 20
5345.48490071587
 30
0.0
 11
7198.729156633908
 21
5345.48490071587
 31
0.0
  0
INSERT
  5
16D12
330
16C6D
100
AcDbEntity
  8
寸法
 62
     0
 48
50.0
370
    -2
100
AcDbBlockReference
  2
_DOTSMALL
 10
7148.729156633908
 20
5345.48490071587
 30
0.0
 41
100.0
 42
100.0
 43
100.0
  0
INSERT
  5
16D13
330
16C6D
100
AcDbEntity
  8
寸法
 62
     0
 48
50.0
370
    -2
100
AcDbBlockReference
  2
_DOTSMALL
 10
7198.729156633908
 20
5345.48490071587
 30
0.0
 41
100.0
 42
100.0
 43
100.0
 50
180.0
  0
MTEXT
  5
16D14
330
16C6D
100
AcDbEntity
  8
寸法
 62
     7
 48
50.0
100
AcDbMText
 10
7512.214438008145
 20
5445.48490071587
 30
0.0
 40
120.0
 41
0.0
 71
     5
 72
     1
  1
\A1;50
  7
STYLE1
 73
     1
 44
1.0
1001
ACAD
1000
MTEXTBEGIN
1070
    73
1070
     1
1070
    44
1040
1.0
1070
    74
1070
     0
1000
MTEXTEND
  0
POINT
  5
16D15
330
16C6D
100
AcDbEntity
  8
DEFPOINTS
 62
     0
 48
50.0
100
AcDbPoint
 10
7198.729156633908
 20
5132.943315457629
 30
0.0
  0
POINT
  5
16D16
330
16C6D
100
AcDbEntity
  8
DEFPOINTS
 62
     0
 48
50.0
100
AcDbPoint
 10
7148.729156633908
 20
5132.94331545763
 30
0.0
  0
POINT
  5
16D17
330
16C6D
100
AcDbEntity
  8
DEFPOINTS
 62
     0
 48
50.0
100
AcDbPoint
 10
7148.729156633908
 20
5345.48490071587
 30
0.0
  0
ENDBLK
  5
16C7A
330
16C6D
100
AcDbEntity
  8
0
 48
50.0
100
AcDbBlockEnd
  0
BLOCK
  5
16F07
330
16EFD
100
AcDbEntity
  8
0
 48
50.0
100
AcDbBlockBegin
  2
A$C44421CB0
 70
     0
 10
0.0
 20
0.0
 30
0.0
  3
A$C44421CB0
  1

  0
LINE
  5
16EFE
330
16EFD
100
AcDbEntity
  8
細線
 48
50.0
100
AcDbLine
 10
-858.4999999999981
 20
0.0000000018044375
 30
0.0
 11
-858.4999999999981
 21
-25.99999999824286
 31
0.0
  0
LINE
  5
16EFF
330
16EFD
100
AcDbEntity
  8
細線
 48
50.0
100
AcDbLine
 10
-615.9999999999982
 20
0.0000000017935236
 30
0.0
 11
-615.9999999999982
 21
-25.99999999824286
 31
0.0
  0
LINE
  5
16F00
330
16EFD
100
AcDbEntity
  8
細線
 48
50.0
100
AcDbLine
 10
-655.9999999999981
 20
0.0000000017935236
 30
0.0
 11
-655.9999999999981
 21
-25.99999999824286
 31
0.0
  0
LINE
  5
16F01
330
16EFD
100
AcDbEntity
  8
細線
 48
50.0
100
AcDbLine
 10
91.50000000000181
 20
0.0000000018044375
 30
0.0
 11
91.50000000000181
 21
-25.99999999824286
 31
0.0
  0
LINE
  5
16F02
330
16EFD
100
AcDbEntity
  8
細線
 48
50.0
100
AcDbLine
 10
334.0000000000018
 20
0.0000000017935236
 30
0.0
 11
334.0000000000018
 21
-25.99999999824286
 31
0.0
  0
LINE
  5
16F03
330
16EFD
100
AcDbEntity
  8
細線
 48
50.0
100
AcDbLine
 10
294.0000000000018
 20
0.0000000017935236
 30
0.0
 11
294.0000000000018
 21
-25.99999999824286
 31
0.0
  0
LINE
  5
16F04
330
16EFD
100
AcDbEntity
  8
細線
 48
50.0
100
AcDbLine
 10
-1808.499999999998
 20
0.0000000018408173
 30
0.0
 11
-1808.499999999998
 21
-25.99999999820648
 31
0.0
  0
LINE
  5
16F05
330
16EFD
100
AcDbEntity
  8
細線
 48
50.0
100
AcDbLine
 10
-1565.999999999998
 20
0.0000000018299033
 30
0.0
 11
-1565.999999999998
 21
-25.99999999820648
 31
0.0
  0
LINE
  5
16F06
330
16EFD
100
AcDbEntity
  8
細線
 48
50.0
100
AcDbLine
 10
-1605.999999999998
 20
0.0000000018299033
 30
0.0
 11
-1605.999999999998
 21
-25.99999999820648
 31
0.0
  0
ENDBLK
  5
16F08
330
16EFD
100
AcDbEntity
  8
0
 48
50.0
100
AcDbBlockEnd
  0
BLOCK
  5
17084
330
17083
100
AcDbEntity
  8
0
 48
50.0
100
AcDbBlockBegin
  2
*D34
 70
     1
 10
0.0
 20
0.0
 30
0.0
  3
*D34
  1

  0
LINE
  5
1708F
330
17083
100
AcDbEntity
  8
寸法
 62
     0
370
    -2
100
AcDbLine
 10
9515.601069194287
 20
4897.94331545763
 30
0.0
 11
8873.637978502086
 21
4897.94331545763
 31
0.0
  0
LINE
  5
17090
330
17083
100
AcDbEntity
  8
寸法
 62
     0
370
    -2
100
AcDbLine
 10
9508.598699149509
 20
3107.943315457633
 30
0.0
 11
8873.637978502085
 21
3107.943315457633
 31
0.0
  0
LINE
  5
17091
330
17083
100
AcDbEntity
  8
寸法
 62
     0
370
    -2
100
AcDbLine
 10
8933.637978502085
 20
4897.94331545763
 30
0.0
 11
8933.637978502083
 21
3107.943315457633
 31
0.0
  0
INSERT
  5
17092
330
17083
100
AcDbEntity
  8
寸法
 62
     0
370
    -2
100
AcDbBlockReference
  2
_DOTSMALL
 10
8933.637978502085
 20
4897.94331545763
 30
0.0
 41
100.0
 42
100.0
 43
100.0
 50
90.0
  0
INSERT
  5
17093
330
17083
100
AcDbEntity
  8
寸法
 62
     0
370
    -2
100
AcDbBlockReference
  2
_DOTSMALL
 10
8933.637978502083
 20
3107.943315457633
 30
0.0
 41
100.0
 42
100.0
 43
100.0
 50
270.0
  0
MTEXT
  5
17094
330
17083
100
AcDbEntity
  8
寸法
 62
     7
100
AcDbMText
 10
8833.637978502084
 20
4012.978327334018
 30
0.0
 40
120.0
 41
0.0
 71
     5
 72
     1
  1
\A1;1790
  7
STYLE1
 11
0.0000000000000001
 21
1.0
 31
0.0
 73
     1
 44
1.0
1001
ACAD
1000
MTEXTBEGIN
1070
    73
1070
     1
1070
    44
1040
1.0
1070
    74
1070
     0
1000
MTEXTEND
  0
POINT
  5
17095
330
17083
100
AcDbEntity
  8
DEFPOINTS
 62
     0
100
AcDbPoint
 10
9535.601069194287
 20
4897.94331545763
 30
0.0
  0
POINT
  5
17096
330
17083
100
AcDbEntity
  8
DEFPOINTS
 62
     0
100
AcDbPoint
 10
9528.598699149508
 20
3107.943315457633
 30
0.0
  0
POINT
  5
17097
330
17083
100
AcDbEntity
  8
DEFPOINTS
 62
     0
100
AcDbPoint
 10
8933.637978502083
 20
3107.943315457633
 30
0.0
  0
ENDBLK
  5
17085
330
17083
100
AcDbEntity
  8
0
 48
50.0
100
AcDbBlockEnd
  0
ENDSEC
  0
SECTION
  2
ENTITIES
  0
LINE
  5
10B56
330
747D
100
AcDbEntity
  8
補助
  6
PHANTOM
 62
   230
 48
50.0
100
AcDbLine
 10
140.0
 20
0.0
 30
0.0
 11
139.9999999999995
 21
11409.6
 31
0.0
  0
LINE
  5
10B57
330
747D
100
AcDbEntity
  8
補助
  6
PHANTOM
 62
   230
 48
50.0
100
AcDbLine
 10
139.9999999999995
 20
11409.6
 30
0.0
 11
16307.2
 21
11409.6
 31
0.0
  0
LINE
  5
10B59
330
747D
100
AcDbEntity
  8
仕様書枠
  6
Continuous
 48
50.0
100
AcDbLine
 10
13107.2
 20
1200.0
 30
0.0
 11
13107.2
 21
-0.0000000000000729
 31
0.0
  0
LINE
  5
10B5C
330
747D
100
AcDbEntity
  8
仕様書枠
 48
50.0
100
AcDbLine
 10
16307.2
 20
1200.0
 30
0.0
 11
16307.2
 21
-0.0000000000000909
 31
0.0
  0
LINE
  5
10B5D
330
747D
100
AcDbEntity
  8
仕様書枠
 48
50.0
100
AcDbLine
 10
140.0
 20
0.0
 30
0.0
 11
16307.2
 21
-0.0000000000000909
 31
0.0
  0
LINE
  5
10B5E
330
747D
100
AcDbEntity
  8
補助
  6
PHANTOM
 62
   230
 48
50.0
100
AcDbLine
 10
16307.2
 20
11409.6
 30
0.0
 11
16307.2
 21
1200.0
 31
0.0
  0
LINE
  5
10B6C
330
747D
100
AcDbEntity
  8
仕様書枠
 48
50.0
100
AcDbLine
 10
13107.2
 20
1200.0
 30
0.0
 11
16307.2
 21
1200.0
 31
0.0
  0
LINE
  5
10B6D
330
747D
100
AcDbEntity
  8
補助
  6
PHANTOM
 62
   230
 48
50.0
100
AcDbLine
 10
13107.2
 20
11409.6
 30
0.0
 11
13107.2
 21
4800.0
 31
0.0
  0
LINE
  5
10B6F
330
747D
100
AcDbEntity
  8
補助
  6
PHANTOM
 62
   230
 48
50.0
100
AcDbLine
 10
13107.2
 20
4800.0
 30
0.0
 11
16307.2
 21
4800.0
 31
0.0
  0
LINE
  5
10B72
330
747D
100
AcDbEntity
  8
文字
 62
     7
 48
50.0
100
AcDbLine
 10
13187.2
 20
400.0
 30
0.0
 11
16227.2
 21
400.0
 31
0.0
  0
TEXT
  5
10B73
330
747D
100
AcDbEntity
  8
文字
 62
     7
 48
50.0
100
AcDbText
 10
13162.9790565769
 20
895.0906074299405
 30
0.0
 40
200.0
  1
外 形 図
  7
STYLE2
100
AcDbText
  0
TEXT
  5
10B74
330
747D
100
AcDbEntity
  8
文字
 62
     7
 48
50.0
100
AcDbText
 10
13201.43669998441
 20
477.2740661031255
 30
0.0
 40
160.0
  1
機種名
  7
STYLE2
100
AcDbText
  0
TEXT
  5
10B75
330
747D
100
AcDbEntity
  8
文字
 62
     7
 48
50.0
100
AcDbText
 10
13209.4053442172
 20
228.5435242569016
 30
0.0
 40
100.0
  1
○有効開口寸法 ： 685\U+00D71760(mm)
  7
STYLE2
100
AcDbText
  0
TEXT
  5
10B76
330
747D
100
AcDbEntity
  8
文字
 62
     7
 48
50.0
100
AcDbText
 10
13209.4053442172
 20
76.09434707649343
 30
0.0
 40
100.0
  1
○床面積 ： 2.91㎡(0.88坪) 　
  7
STYLE2
100
AcDbText
  0
LINE
  5
10B7B
330
747D
100
AcDbEntity
  8
仕様書枠
 48
50.0
100
AcDbLine
 10
13107.2
 20
800.0
 30
0.0
 11
14251.2
 21
800.0
 31
0.0
  0
LINE
  5
10B88
330
747D
100
AcDbEntity
  8
仕様書枠
  6
Continuous
 48
50.0
100
AcDbLine
 10
14251.2
 20
1200.0
 30
0.0
 11
14251.2
 21
800.0
 31
0.0
  0
LINE
  5
13A41
330
747D
100
AcDbEntity
  8
Ｇ．Ｌ
100
AcDbLine
 10
3870.356750071682
 20
2957.943315457628
 30
0.0
 11
11935.06049805943
 21
2957.943315457628
 31
0.0
  0
TEXT
  5
13A63
330
747D
100
AcDbEntity
  8
部品1
100
AcDbText
 10
3890.083297599522
 20
2994.050219063529
 30
0.0
 40
125.0
  1
▽G.L
  7
STYLE2
100
AcDbText
  0
TEXT
  5
14E82
330
747D
100
AcDbEntity
  8
部品1
100
AcDbText
 10
5914.111823691983
 20
6318.660277525211
 30
0.0
 40
135.0
  1
平面図
  7
STYLE2
100
AcDbText
  0
LWPOLYLINE
  5
14E83
330
747D
100
AcDbEntity
  8
部品1
100
AcDbPolyline
 90
        4
 70
     1
 43
0.0
 10
5824.192213862946
 20
6511.553806743737
 10
5824.192213862946
 20
6271.661485198201
 10
6587.662880091386
 20
6271.661485198201
 10
6587.662880091386
 20
6511.553806743737
  0
DIMENSION
  5
1551E
330
747D
100
AcDbEntity
  8
寸法
100
AcDbDimension
  2
*D1
 10
8105.267033184018
 20
7849.132495543603
 30
0.0
 11
8105.267033184016
 21
8614.132495543611
 31
0.0
 70
   160
 71
     5
 42
1530.000000000011
  3
INABA_S40G
100
AcDbAlignedDimension
 13
7148.72915663393
 23
9379.132495543613
 33
0.0
 14
7148.729156633905
 24
7849.132495543603
 34
0.0
 50
90.0
100
AcDbRotatedDimension
1001
ACAD
1000
DSTYLE
1002
{
1002
}
  0
LINE
  5
1551F
330
747D
100
AcDbEntity
  8
想像線
 48
10.0
100
AcDbLine
 10
6973.729156633922
 20
7849.132495543556
 30
0.0
 11
6973.729156633922
 21
7128.214851887766
 31
0.0
  0
LINE
  5
15520
330
747D
100
AcDbEntity
  8
想像線
 48
10.0
100
AcDbLine
 10
6023.729156633923
 20
7849.132495543556
 30
0.0
 11
6023.729156633923
 21
7128.214851887766
 31
0.0
  0
ARC
  5
15521
330
747D
100
AcDbEntity
  8
想像線
 48
10.0
100
AcDbCircle
 10
6966.377105956765
 20
7850.827388919132
 30
0.0
 40
722.64993691556
100
AcDbArc
 50
180.1343808685448
 51
270.5829222700353
  0
ARC
  5
15522
330
747D
100
AcDbEntity
  8
想像線
 48
10.0
100
AcDbCircle
 10
6016.377105956765
 20
7850.827388919133
 30
0.0
 40
722.6499369155609
100
AcDbArc
 50
180.1343808685462
 51
270.5829222700353
  0
DIMENSION
  5
15523
330
747D
100
AcDbEntity
  8
寸法
100
AcDbDimension
  2
*D2
 10
7148.729156633905
 20
6862.03062068337
 30
0.0
 11
6198.72915663393
 21
6862.03062068337
 31
0.0
 70
   160
 71
     5
 42
1899.999999999982
  3
INABA_S40G
100
AcDbAlignedDimension
 13
5248.729156633923
 23
7849.13249554344
 33
0.0
 14
7148.729156633905
 24
7849.13249554357
 34
0.0
100
AcDbRotatedDimension
1001
ACAD
1000
DSTYLE
1002
{
1002
}
  0
DIMENSION
  5
15524
330
747D
100
AcDbEntity
  8
寸法
100
AcDbDimension
  2
*D3
 10
7796.155502368314
 20
7849.132495543603
 30
0.0
 11
7796.155502368314
 21
7471.271028638745
 31
0.0
 70
   160
 71
     5
 42
54.99999999999636
  3
INABA_S40G
100
AcDbAlignedDimension
 13
7148.729156633905
 23
7904.132495543599
 33
0.0
 14
7148.729156633905
 24
7849.132495543603
 34
0.0
 50
90.0
100
AcDbRotatedDimension
1001
ACAD
1000
DSTYLE
1002
{
1002
}
  0
DIMENSION
  5
15525
330
747D
100
AcDbEntity
  8
寸法
 48
50.0
100
AcDbDimension
  2
*D4
 10
6938.729156633923
 20
7409.308827748436
 30
0.0
 11
6596.229156633924
 21
7409.308827748436
 31
0.0
 70
   160
  1
有効開口部間口\P<>
 71
     5
 42
684.9999999999964
  3
INABA_S40G
100
AcDbAlignedDimension
 13
6253.729156633927
 23
7849.132495543512
 33
0.0
 14
6938.729156633923
 24
7849.132495543476
 34
0.0
100
AcDbRotatedDimension
  0
LINE
  5
15527
330
747D
100
AcDbEntity
  8
破線
 48
10.0
100
AcDbLine
 10
5305.229785127813
 20
8626.632198018008
 30
0.0
 11
6143.22915663389
 21
8626.632176552353
 31
0.0
  0
LINE
  5
15528
330
747D
100
AcDbEntity
  8
破線
 48
10.0
100
AcDbLine
 10
5305.229759265727
 20
8676.632198017996
 30
0.0
 11
6143.22915663389
 21
8676.632176552354
 31
0.0
  0
DIMENSION
  5
15529
330
747D
100
AcDbEntity
  8
寸法
100
AcDbDimension
  2
*D5
 10
5303.72915663393
 20
9594.940715168501
 30
0.0
 11
4940.243875259653
 21
9594.940715168501
 31
0.0
 70
   160
 71
     5
 42
55.00000000003637
  3
INABA_S40G
100
AcDbAlignedDimension
 13
5248.729156633894
 23
9379.132495543521
 33
0.0
 14
5303.72915663393
 24
9379.132495543521
 34
0.0
100
AcDbRotatedDimension
1001
ACAD
1000
DSTYLE
1002
{
1002
}
  0
LINE
  5
1552A
330
747D
100
AcDbEntity
  8
部品1
100
AcDbLine
 10
6249.729156633923
 20
7849.132495543504
 30
0.0
 11
5248.729156633923
 21
7849.132495543476
 31
0.0
  0
LINE
  5
1552B
330
747D
100
AcDbEntity
  8
部品1
 48
5.0
100
AcDbLine
 10
5291.729156633923
 20
7878.632495543439
 30
0.0
 11
6174.729156633926
 21
7878.632495543498
 31
0.0
  0
LINE
  5
1552C
330
747D
100
AcDbEntity
  8
部品1
100
AcDbLine
 10
7148.729156633905
 20
7849.132495543603
 30
0.0
 11
5248.729156633923
 21
7849.132495543509
 31
0.0
  0
LINE
  5
1552D
330
747D
100
AcDbEntity
  8
破線
 48
10.0
100
AcDbLine
 10
6119.729156633916
 20
8004.132495543549
 30
0.0
 11
5328.729156633915
 21
8004.132495543528
 31
0.0
  0
LINE
  5
1552E
330
747D
100
AcDbEntity
  8
部品1
100
AcDbLine
 10
6023.729156633923
 20
7875.132495543573
 30
0.0
 11
5293.729156633922
 21
7875.132495543578
 31
0.0
  0
LINE
  5
1552F
330
747D
100
AcDbEntity
  8
部品1
100
AcDbLine
 10
6143.229727082089
 20
7980.631914723602
 30
0.0
 11
5305.230128060316
 21
7980.631413235082
 31
0.0
  0
LINE
  5
15530
330
747D
100
AcDbEntity
  8
部品1
100
AcDbLine
 10
5248.72915663393
 20
9379.132495543521
 30
0.0
 11
7148.72915663393
 21
9379.132495543613
 31
0.0
  0
LINE
  5
15531
330
747D
100
AcDbEntity
  8
部品1
100
AcDbLine
 10
5276.72915663393
 20
9351.13249554352
 30
0.0
 11
6196.109859652551
 21
9351.132495543541
 31
0.0
  0
LINE
  5
15532
330
747D
100
AcDbEntity
  8
部品1
100
AcDbLine
 10
5277.729163311527
 20
8899.632495543491
 30
0.0
 11
6169.729163311524
 21
8899.632495543595
 31
0.0
  0
LINE
  5
15533
330
747D
100
AcDbEntity
  8
細線
 48
50.0
100
AcDbLine
 10
6169.729163311528
 20
9349.632495543595
 30
0.0
 11
5277.729163311527
 21
8899.632495543491
 31
0.0
  0
LINE
  5
15534
330
747D
100
AcDbEntity
  8
細線
 48
50.0
100
AcDbLine
 10
6169.729163311524
 20
8899.632495543595
 30
0.0
 11
5277.729163311524
 21
9349.632495543493
 31
0.0
  0
LINE
  5
15535
330
747D
100
AcDbEntity
  8
部品1
100
AcDbLine
 10
5277.729163311524
 20
9349.632495543493
 30
0.0
 11
6169.729163311528
 21
9349.6324955436
 31
0.0
  0
DIMENSION
  5
15537
330
747D
100
AcDbEntity
  8
寸法
100
AcDbDimension
  2
*D6
 10
6143.72915663393
 20
9594.940715168617
 30
0.0
 11
5723.72915663393
 21
9594.940715168617
 31
0.0
 70
   160
  1
2X420=<>
 71
     5
 42
840.0
  3
INABA_S40G
100
AcDbAlignedDimension
 13
5303.72915663393
 23
9379.132495543553
 33
0.0
 14
6143.72915663393
 24
9379.13249554364
 34
0.0
100
AcDbRotatedDimension
1001
ACAD
1000
DSTYLE
1002
{
1002
}
  0
LINE
  5
15538
330
747D
100
AcDbEntity
  8
部品1
100
AcDbLine
 10
5303.729156633893
 20
9379.132495543487
 30
0.0
 11
5303.729156633897
 21
9351.132495543486
 31
0.0
  0
LINE
  5
15539
330
747D
100
AcDbEntity
  8
部品1
100
AcDbLine
 10
5303.72915663393
 20
9379.132495543521
 30
0.0
 11
5303.72915663393
 21
9351.13249554352
 31
0.0
  0
LINE
  5
1553A
330
747D
100
AcDbEntity
  8
部品1
100
AcDbLine
 10
5248.729156633894
 20
9379.132495543487
 30
0.0
 11
5248.729156633923
 21
7849.132495543476
 31
0.0
  0
LINE
  5
1553B
330
747D
100
AcDbEntity
  8
破線
 48
10.0
100
AcDbLine
 10
5328.729201302383
 20
8626.632197416062
 30
0.0
 11
5328.729156633915
 21
8004.132495543528
 31
0.0
  0
LINE
  5
1553C
330
747D
100
AcDbEntity
  8
部品1
 48
5.0
100
AcDbLine
 10
5305.230128058887
 20
7980.632495543614
 30
0.0
 11
5305.229635127576
 21
8899.632495543526
 31
0.0
  0
LINE
  5
1553D
330
747D
100
AcDbEntity
  8
部品1
100
AcDbLine
 10
5276.729156633905
 20
7904.132495543471
 30
0.0
 11
5276.72915663393
 21
9351.13249554352
 31
0.0
  0
LINE
  5
1553E
330
747D
100
AcDbEntity
  8
部品1
 48
50.0
100
AcDbLine
 10
5305.230128060316
 20
7980.631413235082
 30
0.0
 11
5276.729156633908
 21
7951.612242302617
 31
0.0
  0
LINE
  5
1553F
330
747D
100
AcDbEntity
  8
部品1
100
AcDbLine
 10
5293.729156633922
 20
7875.132495543578
 30
0.0
 11
5293.729156633922
 21
7849.132495543542
 31
0.0
  0
LINE
  5
15540
330
747D
100
AcDbEntity
  8
部品1
 48
2.83
100
AcDbLine
 10
5303.729156633923
 20
7904.132495543439
 30
0.0
 11
5303.729156633926
 21
7878.632495543439
 31
0.0
  0
LINE
  5
15541
330
747D
100
AcDbEntity
  8
部品1
 48
2.83
100
AcDbLine
 10
5291.729156633923
 20
7878.632495543439
 30
0.0
 11
5291.729156633923
 21
7849.13249554344
 31
0.0
  0
LINE
  5
15542
330
747D
100
AcDbEntity
  8
部品1
100
AcDbLine
 10
5248.729156633923
 20
7904.132495543439
 30
0.0
 11
5248.729156633923
 21
7849.13249554344
 31
0.0
  0
LINE
  5
15543
330
747D
100
AcDbEntity
  8
部品1
 48
2.83
100
AcDbLine
 10
5248.729156633923
 20
7849.13249554344
 30
0.0
 11
5248.729156633923
 21
7904.132495543439
 31
0.0
  0
LINE
  5
15544
330
747D
100
AcDbEntity
  8
部品1
100
AcDbLine
 10
5276.729156633923
 20
7904.132495543487
 30
0.0
 11
5248.729156633923
 21
7904.132495543487
 31
0.0
  0
LINE
  5
15545
330
747D
100
AcDbEntity
  8
部品1
100
AcDbLine
 10
5276.729156633905
 20
7904.132495543471
 30
0.0
 11
5248.729156633923
 21
7904.132495543471
 31
0.0
  0
LINE
  5
15546
330
747D
100
AcDbEntity
  8
部品1
100
AcDbLine
 10
5276.729156633905
 20
7904.132495543439
 30
0.0
 11
5248.729156633923
 21
7904.132495543439
 31
0.0
  0
LINE
  5
15547
330
747D
100
AcDbEntity
  8
部品1
 48
2.83
100
AcDbLine
 10
5248.729156633923
 20
7904.132495543439
 30
0.0
 11
5271.729156633923
 21
7904.132495543439
 31
0.0
  0
LINE
  5
15548
330
747D
100
AcDbEntity
  8
部品1
 48
2.83
100
AcDbLine
 10
5280.729156633923
 20
7904.132495543439
 30
0.0
 11
5303.729156633923
 21
7904.132495543439
 31
0.0
  0
LINE
  5
15549
330
747D
100
AcDbEntity
  8
部品1
 48
2.83
100
AcDbLine
 10
5291.729156633923
 20
7849.13249554344
 30
0.0
 11
5248.729156633923
 21
7849.13249554344
 31
0.0
  0
LINE
  5
1554A
330
747D
100
AcDbEntity
  8
部品1
100
AcDbLine
 10
5276.729156633905
 20
8324.132495543485
 30
0.0
 11
5248.729156633904
 21
8324.132495543485
 31
0.0
  0
LINE
  5
1554B
330
747D
100
AcDbEntity
  8
部品1
 48
50.0
100
AcDbLine
 10
5277.729163311524
 20
9349.632495543486
 30
0.0
 11
5277.729163311527
 21
8899.632495543491
 31
0.0
  0
LINE
  5
1554C
330
747D
100
AcDbEntity
  8
部品1
100
AcDbLine
 10
5276.729156633905
 20
8904.132495543487
 30
0.0
 11
5248.729156633904
 21
8904.132495543487
 31
0.0
  0
LINE
  5
1554D
330
747D
100
AcDbEntity
  8
破線
 48
10.0
100
AcDbLine
 10
5328.729221558631
 20
8899.632495543526
 30
0.0
 11
5328.729204794836
 21
8676.632197416049
 31
0.0
  0
LINE
  5
1554E
330
747D
100
AcDbEntity
  8
部品1
100
AcDbLine
 10
5276.729156633898
 20
9324.132495543491
 30
0.0
 11
5248.729156633897
 21
9324.132495543491
 31
0.0
  0
LINE
  5
1554F
330
747D
100
AcDbEntity
  8
部品1
 48
50.0
100
AcDbLine
 10
5278.22916331152
 20
9349.632495543493
 30
0.0
 11
5276.729156633894
 21
9351.132495543486
 31
0.0
  0
LINE
  5
15550
330
747D
100
AcDbEntity
  8
部品1
100
AcDbLine
 10
6673.22915663386
 20
9379.13249554357
 30
0.0
 11
6673.229156633865
 21
9351.132495543572
 31
0.0
  0
LINE
  5
15551
330
747D
100
AcDbEntity
  8
部品1
100
AcDbLine
 10
6673.229156633897
 20
9379.132495543606
 30
0.0
 11
6673.229156633897
 21
9351.132495543607
 31
0.0
  0
LINE
  5
15552
330
747D
100
AcDbEntity
  8
部品1
 48
5.0
100
AcDbLine
 10
7093.72915663393
 20
9351.132495543563
 30
0.0
 11
7093.72915663393
 21
9379.132495543563
 31
0.0
  0
LINE
  5
15553
330
747D
100
AcDbEntity
  8
部品1
100
AcDbLine
 10
7093.72915663393
 20
9379.132495543613
 30
0.0
 11
7093.72915663393
 21
9351.132495543614
 31
0.0
  0
LINE
  5
15554
330
747D
100
AcDbEntity
  8
部品1
100
AcDbLine
 10
7093.72915663393
 20
9379.132495543633
 30
0.0
 11
7093.72915663393
 21
9351.132495543632
 31
0.0
  0
LINE
  5
15555
330
747D
100
AcDbEntity
  8
部品1
 48
5.0
100
AcDbLine
 10
6253.729156633934
 20
9379.13249554357
 30
0.0
 11
6253.729156633927
 21
9351.132495543572
 31
0.0
  0
LINE
  5
15556
330
747D
100
AcDbEntity
  8
部品1
 48
5.0
100
AcDbLine
 10
6143.72915663393
 20
9351.132495543563
 30
0.0
 11
6143.72915663393
 21
9379.132495543563
 31
0.0
  0
LINE
  5
15557
330
747D
100
AcDbEntity
  8
部品1
 48
5.0
100
AcDbLine
 10
6173.438431081104
 20
9379.132495543563
 30
0.0
 11
6196.109859652533
 21
9351.132495543566
 31
0.0
  0
LINE
  5
15558
330
747D
100
AcDbEntity
  8
部品1
 48
50.0
100
AcDbLine
 10
6226.729156633908
 20
7904.132495543556
 30
0.0
 11
6226.729156633854
 21
9379.132495543567
 31
0.0
  0
LINE
  5
15559
330
747D
100
AcDbEntity
  8
部品1
100
AcDbLine
 10
7148.72915663393
 20
9379.132495543613
 30
0.0
 11
7148.729156633905
 21
7849.132495543603
 31
0.0
  0
LINE
  5
1555A
330
747D
100
AcDbEntity
  8
部品1
100
AcDbLine
 10
5723.229156633894
 20
9379.132495543512
 30
0.0
 11
5723.229156633894
 21
9351.132495543513
 31
0.0
  0
LINE
  5
1555B
330
747D
100
AcDbEntity
  8
部品1
100
AcDbLine
 10
5723.229156633861
 20
9379.132495543483
 30
0.0
 11
5723.229156633864
 21
9351.132495543483
 31
0.0
  0
DIMENSION
  5
1555C
330
747D
100
AcDbEntity
  8
寸法
100
AcDbDimension
  2
*D7
 10
7796.15550236834
 20
9324.132495543619
 30
0.0
 11
7796.15550236834
 21
9687.617776917853
 31
0.0
 70
   160
 71
     5
 42
54.99999999999636
  3
INABA_S40G
100
AcDbAlignedDimension
 13
7148.72915663393
 23
9379.132495543613
 33
0.0
 14
7148.72915663393
 24
9324.132495543619
 34
0.0
 50
90.0
100
AcDbRotatedDimension
1001
ACAD
1000
DSTYLE
1002
{
1002
}
  0
LINE
  5
1555D
330
747D
100
AcDbEntity
  8
破線
 48
10.0
100
AcDbLine
 10
6254.229152357835
 20
8676.632205818114
 30
0.0
 11
7093.22915663389
 21
8676.632171186284
 31
0.0
  0
LINE
  5
1555E
330
747D
100
AcDbEntity
  8
破線
 48
10.0
100
AcDbLine
 10
6254.229152357835
 20
8626.632205818115
 30
0.0
 11
7093.22915663389
 21
8626.632171186285
 31
0.0
  0
LINE
  5
1555F
330
747D
100
AcDbEntity
  8
部品1
100
AcDbLine
 10
6227.729163311524
 20
9349.632495543493
 30
0.0
 11
7119.729163311527
 21
9349.6324955436
 31
0.0
  0
LINE
  5
15560
330
747D
100
AcDbEntity
  8
部品1
100
AcDbLine
 10
6226.729156633879
 20
9351.132495543545
 30
0.0
 11
7120.729156633931
 21
9351.132495543566
 31
0.0
  0
LINE
  5
15561
330
747D
100
AcDbEntity
  8
部品1
100
AcDbLine
 10
6973.729156633922
 20
7875.132495543606
 30
0.0
 11
6243.729156633922
 21
7875.132495543578
 31
0.0
  0
LINE
  5
15562
330
747D
100
AcDbEntity
  8
破線
 48
10.0
100
AcDbLine
 10
7069.729156633916
 20
8004.132495543567
 30
0.0
 11
6277.729156633916
 21
8004.132495543549
 31
0.0
  0
LINE
  5
15563
330
747D
100
AcDbEntity
  8
部品1
100
AcDbLine
 10
7093.229156633909
 20
7980.632495543567
 30
0.0
 11
6254.228663380025
 21
7980.631993346091
 31
0.0
  0
LINE
  5
15564
330
747D
100
AcDbEntity
  8
部品1
 48
5.0
100
AcDbLine
 10
6222.729156633927
 20
7878.6324955435
 30
0.0
 11
7124.729156633927
 21
7878.632495543556
 31
0.0
  0
LINE
  5
15565
330
747D
100
AcDbEntity
  8
部品1
100
AcDbLine
 10
6227.729163311527
 20
8899.632495543491
 30
0.0
 11
7119.729163311524
 21
8899.632495543595
 31
0.0
  0
LINE
  5
15567
330
747D
100
AcDbEntity
  8
細線
 48
50.0
100
AcDbLine
 10
7119.729163311524
 20
8899.632495543595
 30
0.0
 11
6227.729163311524
 21
9349.632495543493
 31
0.0
  0
LINE
  5
15568
330
747D
100
AcDbEntity
  8
細線
 48
50.0
100
AcDbLine
 10
7119.729163311527
 20
9349.632495543595
 30
0.0
 11
6227.729163311527
 21
8899.632495543491
 31
0.0
  0
LINE
  5
15569
330
747D
100
AcDbEntity
  8
部品1
 48
50.0
100
AcDbLine
 10
6673.229156633915
 20
8899.632495543546
 30
0.0
 11
6673.228993761812
 21
7980.631663380347
 31
0.0
  0
LINE
  5
1556A
330
747D
100
AcDbEntity
  8
破線
 48
10.0
100
AcDbLine
 10
6119.729156633916
 20
8004.132495543563
 30
0.0
 11
6119.729150885956
 21
8626.632177154316
 31
0.0
  0
LINE
  5
1556B
330
747D
100
AcDbEntity
  8
部品1
 48
50.0
100
AcDbLine
 10
6143.229156633908
 20
7980.632495543567
 30
0.0
 11
6143.229156633886
 21
8899.63249554362
 31
0.0
  0
LINE
  5
1556C
330
747D
100
AcDbEntity
  8
破線
 48
10.0
100
AcDbLine
 10
6277.729156633916
 20
8004.132495543574
 30
0.0
 11
6277.729148081263
 21
8626.632204848096
 31
0.0
  0
LINE
  5
1556D
330
747D
100
AcDbEntity
  8
部品1
 48
50.0
100
AcDbLine
 10
6254.229150289623
 20
7980.632495568229
 30
0.0
 11
6254.229153262484
 21
8899.632495543571
 31
0.0
  0
LINE
  5
1556E
330
747D
100
AcDbEntity
  8
部品1
 48
50.0
100
AcDbLine
 10
6170.729156633908
 20
7904.132495543556
 30
0.0
 11
6170.729156633857
 21
9351.132495543566
 31
0.0
  0
LINE
  5
1556F
330
747D
100
AcDbEntity
  8
部品1
 48
50.0
100
AcDbLine
 10
6198.729156633908
 20
7904.132495543556
 30
0.0
 11
6198.729156633908
 21
9324.132495543567
 31
0.0
  0
LINE
  5
15570
330
747D
100
AcDbEntity
  8
部品1
 48
50.0
100
AcDbLine
 10
5723.229156633916
 20
8899.632495543546
 30
0.0
 11
5723.228993761812
 21
7980.631663380347
 31
0.0
  0
LINE
  5
15571
330
747D
100
AcDbEntity
  8
部品1
 48
5.0
100
AcDbLine
 10
6025.729156633926
 20
7878.632495543556
 30
0.0
 11
6025.729156633926
 21
7849.132495543556
 31
0.0
  0
ARC
  5
15572
330
747D
100
AcDbEntity
  8
部品1
 48
0.2
100
AcDbCircle
 10
6015.7916044626
 20
7850.130125498778
 30
0.0
 40
8.0
100
AcDbArc
 50
270.0
 51
352.8363522778074
  0
ARC
  5
15573
330
747D
100
AcDbEntity
  8
部品1
 48
0.2
100
AcDbCircle
 10
6010.7916044626
 20
7850.130125498778
 30
0.0
 40
8.0
100
AcDbArc
 50
187.1636477221926
 51
269.9999999999992
  0
ARC
  5
15574
330
747D
100
AcDbEntity
  8
細線
 48
0.2
100
AcDbCircle
 10
6015.7916044626
 20
7850.130125498778
 30
0.0
 40
4.049999999999999
100
AcDbArc
 50
194.2603506853988
 51
345.7396493146012
  0
LINE
  5
15575
330
747D
100
AcDbEntity
  8
部品1
 48
0.2
100
AcDbLine
 10
6010.7916044626
 20
7842.130125498778
 30
0.0
 11
6015.7916044626
 21
7842.130125498778
 31
0.0
  0
LINE
  5
15576
330
747D
100
AcDbEntity
  8
部品1
100
AcDbLine
 10
6023.729156633923
 20
7875.13249554361
 30
0.0
 11
6023.729156633923
 21
7849.132495543556
 31
0.0
  0
LINE
  5
15577
330
747D
100
AcDbEntity
  8
部品1
 48
50.0
100
AcDbLine
 10
6254.229156633908
 20
7980.632495568229
 30
0.0
 11
6226.729156633908
 21
7952.632495543555
 31
0.0
  0
LINE
  5
15578
330
747D
100
AcDbEntity
  8
部品1
 48
5.0
100
AcDbLine
 10
6230.729156633927
 20
7904.132495543556
 30
0.0
 11
6253.729156633927
 21
7904.132495543556
 31
0.0
  0
LINE
  5
15579
330
747D
100
AcDbEntity
  8
部品1
 48
5.0
100
AcDbLine
 10
6222.729156633927
 20
7904.132495543556
 30
0.0
 11
6222.729156633927
 21
7878.632495543556
 31
0.0
  0
LINE
  5
1557A
330
747D
100
AcDbEntity
  8
部品1
 48
5.0
100
AcDbLine
 10
6253.729156633927
 20
7904.132495543556
 30
0.0
 11
6253.729156633927
 21
7878.632495543556
 31
0.0
  0
LINE
  5
1557B
330
747D
100
AcDbEntity
  8
部品1
 48
5.0
100
AcDbLine
 10
6241.729156633926
 20
7878.632495543556
 30
0.0
 11
6241.729156633926
 21
7849.132495543556
 31
0.0
  0
LINE
  5
1557C
330
747D
100
AcDbEntity
  8
部品1
100
AcDbLine
 10
6241.729156633923
 20
7878.632495543512
 30
0.0
 11
6241.729156633926
 21
7849.132495543556
 31
0.0
  0
LINE
  5
1557D
330
747D
100
AcDbEntity
  8
部品1
100
AcDbLine
 10
6243.729156633922
 20
7875.132495543578
 30
0.0
 11
6243.729156633922
 21
7849.132495543542
 31
0.0
  0
LINE
  5
1557E
330
747D
100
AcDbEntity
  8
部品1
 48
50.0
100
AcDbLine
 10
6170.729156633908
 20
7952.632495543555
 30
0.0
 11
6143.229156633908
 21
7980.632495543567
 31
0.0
  0
LINE
  5
1557F
330
747D
100
AcDbEntity
  8
部品1
 48
5.0
100
AcDbLine
 10
6166.729156633927
 20
7904.132495543556
 30
0.0
 11
6143.729156633923
 21
7904.132495543556
 31
0.0
  0
LINE
  5
15580
330
747D
100
AcDbEntity
  8
部品1
 48
5.0
100
AcDbLine
 10
6143.729156633926
 20
7904.13249554356
 30
0.0
 11
6143.729156633926
 21
7878.632495543556
 31
0.0
  0
LINE
  5
15581
330
747D
100
AcDbEntity
  8
部品1
 48
5.0
100
AcDbLine
 10
6174.729156633926
 20
7904.132495543556
 30
0.0
 11
6174.729156633926
 21
7878.632495543556
 31
0.0
  0
LINE
  5
15582
330
747D
100
AcDbEntity
  8
部品1
 48
5.0
100
AcDbLine
 10
6155.729156633927
 20
7878.632495543556
 30
0.0
 11
6155.729156633927
 21
7849.132495543556
 31
0.0
  0
LINE
  5
15583
330
747D
100
AcDbEntity
  8
部品1
100
AcDbLine
 10
6155.729156633923
 20
7878.632495543505
 30
0.0
 11
6155.729156633923
 21
7849.132495543551
 31
0.0
  0
LINE
  5
15584
330
747D
100
AcDbEntity
  8
部品1
 48
5.0
100
AcDbLine
 10
6155.729156633927
 20
7849.132495543556
 30
0.0
 11
6241.729156633926
 21
7849.132495543556
 31
0.0
  0
LINE
  5
15585
330
747D
100
AcDbEntity
  8
部品1
 48
5.0
100
AcDbLine
 10
6170.729156633908
 20
7904.132495543556
 30
0.0
 11
6226.729156633908
 21
7904.132495543556
 31
0.0
  0
LINE
  5
15586
330
747D
100
AcDbEntity
  8
部品1
 48
5.0
100
AcDbLine
 10
6198.729156633908
 20
8324.132495543564
 30
0.0
 11
6170.729156633857
 21
8324.132495543567
 31
0.0
  0
LINE
  5
15587
330
747D
100
AcDbEntity
  8
部品1
 48
50.0
100
AcDbLine
 10
6169.729163311528
 20
9349.632495543595
 30
0.0
 11
6169.729163311528
 21
8899.632495543595
 31
0.0
  0
LINE
  5
15588
330
747D
100
AcDbEntity
  8
部品1
 48
50.0
100
AcDbLine
 10
6227.729163311524
 20
9349.632495543486
 30
0.0
 11
6227.729163311527
 21
8899.632495543491
 31
0.0
  0
LINE
  5
15589
330
747D
100
AcDbEntity
  8
破線
 48
10.0
100
AcDbLine
 10
6119.729150436542
 20
8676.632177154315
 30
0.0
 11
6119.729148279362
 21
8899.63249554362
 31
0.0
  0
LINE
  5
1558A
330
747D
100
AcDbEntity
  8
破線
 48
10.0
100
AcDbLine
 10
6277.729147412567
 20
8676.632204848095
 30
0.0
 11
6277.729144202807
 21
8899.632495543571
 31
0.0
  0
LINE
  5
1558B
330
747D
100
AcDbEntity
  8
部品1
 48
50.0
100
AcDbLine
 10
6198.729156633901
 20
8904.132495543567
 30
0.0
 11
6226.729156633886
 21
8904.132495543569
 31
0.0
  0
LINE
  5
1558C
330
747D
100
AcDbEntity
  8
部品1
 48
50.0
100
AcDbLine
 10
6198.729156633901
 20
8942.132495543566
 30
0.0
 11
6226.729156633886
 21
8942.132495543571
 31
0.0
  0
LINE
  5
1558D
330
747D
100
AcDbEntity
  8
部品1
 48
5.0
100
AcDbLine
 10
6198.729156633908
 20
8904.132495543562
 30
0.0
 11
6170.729156633857
 21
8904.132495543567
 31
0.0
  0
LINE
  5
1558E
330
747D
100
AcDbEntity
  8
部品1
 48
50.0
100
AcDbLine
 10
6228.22916331152
 20
9349.632495543493
 30
0.0
 11
6226.729156633894
 21
9351.132495543486
 31
0.0
  0
LINE
  5
1558F
330
747D
100
AcDbEntity
  8
部品1
 48
50.0
100
AcDbLine
 10
6169.281764121948
 20
9349.6324955436
 30
0.0
 11
6170.729156633821
 21
9351.132495543534
 31
0.0
  0
LINE
  5
15590
330
747D
100
AcDbEntity
  8
部品1
 48
5.0
100
AcDbLine
 10
6226.729156633857
 20
9324.132495543567
 30
0.0
 11
6170.729156633857
 21
9324.132495543567
 31
0.0
  0
DIMENSION
  5
15591
330
747D
100
AcDbEntity
  8
寸法
 48
50.0
100
AcDbDimension
  2
*D8
 10
7796.15550236834
 20
8324.132495543599
 30
0.0
 11
7696.155502368339
 21
8614.132495543602
 31
0.0
 70
    32
 71
     5
 42
580.0
  3
INABA_S40G
100
AcDbAlignedDimension
 13
7148.72915663393
 23
8904.132495543599
 33
0.0
 14
7148.72915663393
 24
8324.132495543599
 34
0.0
 50
90.0
100
AcDbRotatedDimension
  0
LINE
  5
15592
330
747D
100
AcDbEntity
  8
破線
 48
10.0
100
AcDbLine
 10
7069.729156633916
 20
8004.132495543563
 30
0.0
 11
7069.729150885942
 21
8626.632172156307
 31
0.0
  0
LINE
  5
15593
330
747D
100
AcDbEntity
  8
部品1
 48
50.0
100
AcDbLine
 10
7093.229156633909
 20
7980.632495543567
 30
0.0
 11
7093.229156633886
 21
8899.63249554362
 31
0.0
  0
LINE
  5
15594
330
747D
100
AcDbEntity
  8
部品1
 48
50.0
100
AcDbLine
 10
7120.729156633908
 20
7904.132495543556
 30
0.0
 11
7120.729156633856
 21
9351.132495543566
 31
0.0
  0
LINE
  5
15595
330
747D
100
AcDbEntity
  8
部品1
100
AcDbLine
 10
7120.729156633931
 20
9351.132495543614
 30
0.0
 11
7120.729156633908
 21
7904.132495543599
 31
0.0
  0
DIMENSION
  5
15596
330
747D
100
AcDbEntity
  8
寸法
 48
50.0
100
AcDbDimension
  2
*D9
 10
7796.155502368314
 20
7904.132495543599
 30
0.0
 11
7696.143691344691
 21
8114.1324955436
 31
0.0
 70
    32
 71
     5
 42
420.0
  3
INABA_S40G
100
AcDbAlignedDimension
 13
7148.72915663393
 23
8324.132495543599
 33
0.0
 14
7148.729156633938
 24
7904.132495543599
 34
0.0
 50
90.0
100
AcDbRotatedDimension
  0
ARC
  5
15597
330
747D
100
AcDbEntity
  8
部品1
 48
0.2
100
AcDbCircle
 10
6965.791604462601
 20
7850.130125498778
 30
0.0
 40
8.0
100
AcDbArc
 50
270.0
 51
352.8363522778074
  0
ARC
  5
15598
330
747D
100
AcDbEntity
  8
細線
 48
0.2
100
AcDbCircle
 10
6965.791604462601
 20
7850.130125498778
 30
0.0
 40
4.049999999999999
100
AcDbArc
 50
194.2603506853988
 51
345.7396493146012
  0
LINE
  5
15599
330
747D
100
AcDbEntity
  8
部品1
 48
0.2
100
AcDbLine
 10
6960.791604462599
 20
7842.130125498778
 30
0.0
 11
6965.791604462601
 21
7842.130125498778
 31
0.0
  0
ARC
  5
1559A
330
747D
100
AcDbEntity
  8
部品1
 48
0.2
100
AcDbCircle
 10
6960.791604462599
 20
7850.130125498778
 30
0.0
 40
8.0
100
AcDbArc
 50
187.1636477221926
 51
269.9999999999992
  0
LINE
  5
1559B
330
747D
100
AcDbEntity
  8
部品1
 48
5.0
100
AcDbLine
 10
6975.729156633926
 20
7878.632495543556
 30
0.0
 11
6975.729156633926
 21
7849.132495543556
 31
0.0
  0
LINE
  5
1559C
330
747D
100
AcDbEntity
  8
部品1
100
AcDbLine
 10
6973.729156633922
 20
7875.13249554361
 30
0.0
 11
6973.729156633922
 21
7849.132495543556
 31
0.0
  0
LINE
  5
1559D
330
747D
100
AcDbEntity
  8
部品1
100
AcDbLine
 10
7120.729156633938
 20
7904.132495543618
 30
0.0
 11
7148.729156633938
 21
7904.132495543618
 31
0.0
  0
LINE
  5
1559E
330
747D
100
AcDbEntity
  8
部品1
100
AcDbLine
 10
7120.729156633908
 20
7904.132495543599
 30
0.0
 11
7148.729156633905
 21
7904.132495543599
 31
0.0
  0
LINE
  5
1559F
330
747D
100
AcDbEntity
  8
部品1
 48
2.83
100
AcDbLine
 10
7148.729156633905
 20
7904.13249554357
 30
0.0
 11
7125.729156633905
 21
7904.13249554357
 31
0.0
  0
LINE
  5
155A0
330
747D
100
AcDbEntity
  8
部品1
 48
50.0
100
AcDbLine
 10
7120.729156633908
 20
7952.632495543555
 30
0.0
 11
7093.229156633909
 21
7980.632495543567
 31
0.0
  0
LINE
  5
155A1
330
747D
100
AcDbEntity
  8
部品1
 48
2.83
100
AcDbLine
 10
7116.729156633905
 20
7904.13249554357
 30
0.0
 11
7093.729156633904
 21
7904.13249554357
 31
0.0
  0
LINE
  5
155A2
330
747D
100
AcDbEntity
  8
部品1
 48
2.83
100
AcDbLine
 10
7093.729156633904
 20
7904.13249554357
 30
0.0
 11
7093.729156633904
 21
7878.63249554357
 31
0.0
  0
LINE
  5
155A3
330
747D
100
AcDbEntity
  8
部品1
 48
2.83
100
AcDbLine
 10
7105.729156633905
 20
7878.63249554357
 30
0.0
 11
7105.729156633905
 21
7849.13249554357
 31
0.0
  0
LINE
  5
155A4
330
747D
100
AcDbEntity
  8
部品1
 48
5.0
100
AcDbLine
 10
7124.729156633927
 20
7904.132495543556
 30
0.0
 11
7124.729156633927
 21
7878.632495543556
 31
0.0
  0
LINE
  5
155A5
330
747D
100
AcDbEntity
  8
部品1
 48
5.0
100
AcDbLine
 10
7093.729156633926
 20
7904.13249554356
 30
0.0
 11
7093.729156633926
 21
7878.632495543556
 31
0.0
  0
LINE
  5
155A6
330
747D
100
AcDbEntity
  8
部品1
 48
5.0
100
AcDbLine
 10
7105.729156633926
 20
7878.632495543556
 30
0.0
 11
7105.729156633926
 21
7849.132495543556
 31
0.0
  0
LINE
  5
155A7
330
747D
100
AcDbEntity
  8
部品1
100
AcDbLine
 10
7105.729156633923
 20
7878.632495543505
 30
0.0
 11
7105.729156633923
 21
7849.132495543551
 31
0.0
  0
LINE
  5
155A8
330
747D
100
AcDbEntity
  8
部品1
 48
5.0
100
AcDbLine
 10
7116.729156633926
 20
7904.132495543556
 30
0.0
 11
7093.729156633923
 21
7904.132495543556
 31
0.0
  0
LINE
  5
155A9
330
747D
100
AcDbEntity
  8
部品1
100
AcDbLine
 10
7120.729156633931
 20
8324.132495543619
 30
0.0
 11
7148.72915663393
 21
8324.132495543619
 31
0.0
  0
DIMENSION
  5
155AA
330
747D
100
AcDbEntity
  8
寸法
 48
50.0
100
AcDbDimension
  2
*D10
 10
7796.15550236834
 20
8904.132495543599
 30
0.0
 11
7696.143691344717
 21
9114.132495543602
 31
0.0
 70
    32
 71
     5
 42
420.0
  3
INABA_S40G
100
AcDbAlignedDimension
 13
7148.72915663393
 23
9324.132495543599
 33
0.0
 14
7148.72915663393
 24
8904.132495543599
 34
0.0
 50
90.0
100
AcDbRotatedDimension
  0
DIMENSION
  5
155AB
330
747D
100
AcDbEntity
  8
寸法
100
AcDbDimension
  2
*D11
 10
7475.086889173564
 20
8804.414679874602
 30
0.0
 11
7475.086889173564
 21
9029.414679874602
 31
0.0
 70
   160
 71
     5
 42
449.9999999999963
  3
INABA_S40G
100
AcDbAlignedDimension
 13
7119.729163311538
 23
9349.632495543486
 33
0.0
 14
7119.72916331155
 24
8899.632495543491
 34
0.0
 50
90.0
100
AcDbRotatedDimension
1001
ACAD
1000
DSTYLE
1002
{
1002
}
  0
LINE
  5
155AC
330
747D
100
AcDbEntity
  8
部品1
 48
50.0
100
AcDbLine
 10
7119.729163311527
 20
9349.632495543595
 30
0.0
 11
7119.729163311527
 21
8899.632495543595
 31
0.0
  0
LINE
  5
155AD
330
747D
100
AcDbEntity
  8
部品1
 48
50.0
100
AcDbLine
 10
7119.729163311527
 20
9349.632495543595
 30
0.0
 11
7119.729163311527
 21
8899.632495543595
 31
0.0
  0
LINE
  5
155AE
330
747D
100
AcDbEntity
  8
破線
 48
10.0
100
AcDbLine
 10
7069.729150436535
 20
8676.632172156303
 30
0.0
 11
7069.729148279363
 21
8899.63249554362
 31
0.0
  0
LINE
  5
155AF
330
747D
100
AcDbEntity
  8
部品1
100
AcDbLine
 10
7120.729156633931
 20
8904.132495543619
 30
0.0
 11
7148.72915663393
 21
8904.132495543619
 31
0.0
  0
LINE
  5
155B0
330
747D
100
AcDbEntity
  8
部品1
100
AcDbLine
 10
7120.729156633931
 20
9324.132495543619
 30
0.0
 11
7148.72915663393
 21
9324.132495543619
 31
0.0
  0
LINE
  5
155B1
330
747D
100
AcDbEntity
  8
部品1
 48
50.0
100
AcDbLine
 10
7119.281764121947
 20
9349.6324955436
 30
0.0
 11
7120.729156633821
 21
9351.132495543534
 31
0.0
  0
LINE
  5
155B2
330
747D
100
AcDbEntity
  8
部品1
 48
50.0
100
AcDbLine
 10
7119.281764121947
 20
9349.6324955436
 30
0.0
 11
7120.729156633821
 21
9351.132495543534
 31
0.0
  0
DIMENSION
  5
155B3
330
747D
100
AcDbEntity
  8
寸法
100
AcDbDimension
  2
*D12
 10
7093.72915663393
 20
9594.940715168617
 30
0.0
 11
6673.729156633929
 21
9594.940715168617
 31
0.0
 70
   160
  1
2X420=<>
 71
     5
 42
840.0
  3
INABA_S40G
100
AcDbAlignedDimension
 13
6253.72915663393
 23
9379.132495543553
 33
0.0
 14
7093.72915663393
 24
9379.13249554364
 34
0.0
100
AcDbRotatedDimension
1001
ACAD
1000
DSTYLE
1002
{
1002
}
  0
DIMENSION
  5
155B4
330
747D
100
AcDbEntity
  8
寸法
 48
50.0
100
AcDbDimension
  2
*D13
 10
6253.729156633934
 20
9594.940715168617
 30
0.0
 11
6198.72915663393
 21
9851.537606486864
 31
0.0
 70
   160
 71
     5
 42
110.0000000000036
  3
INABA_S40G
100
AcDbAlignedDimension
 13
6143.72915663393
 23
9379.13249554364
 33
0.0
 14
6253.729156633934
 24
9379.132495543618
 34
0.0
100
AcDbRotatedDimension
1001
ACAD
1000
DSTYLE
1002
{
1070
   279
1070
     2
1002
}
  0
DIMENSION
  5
155B5
330
747D
100
AcDbEntity
  8
寸法
100
AcDbDimension
  2
*D14
 10
7148.72915663393
 20
9594.940715168595
 30
0.0
 11
7457.214438008169
 21
9594.940715168595
 31
0.0
 70
   160
 71
     5
 42
55.0
  3
INABA_S40G
100
AcDbAlignedDimension
 13
7093.72915663393
 23
9379.132495543613
 33
0.0
 14
7148.72915663393
 24
9379.132495543613
 34
0.0
100
AcDbRotatedDimension
1001
ACAD
1000
DSTYLE
1002
{
1002
}
  0
LINE
  5
155B6
330
747D
100
AcDbEntity
  8
部品1
100
AcDbLine
 10
6025.729156633905
 20
4897.943315457627
 30
0.0
 11
6025.729156633905
 21
3100.943315457648
 31
0.0
  0
LINE
  5
155B7
330
747D
100
AcDbEntity
  8
部品1
100
AcDbLine
 10
6975.729156633905
 20
4897.943315457627
 30
0.0
 11
6975.729156633905
 21
3100.943315457648
 31
0.0
  0
DIMENSION
  5
155B8
330
747D
100
AcDbEntity
  8
寸法
100
AcDbDimension
  2
*D15
 10
4930.624629026302
 20
3119.443315457632
 30
0.0
 11
4930.624629026301
 21
3998.44331545763
 31
0.0
 70
   160
  1
有効開口部高サ<>
 71
     5
 42
1759.999999999995
  3
INABA_S40G
100
AcDbAlignedDimension
 13
5248.729156633904
 23
4879.443315457628
 33
0.0
 14
5248.729156633904
 24
3119.443315457631
 34
0.0
 50
90.0
100
AcDbRotatedDimension
1001
ACAD
1000
DSTYLE
1002
{
1070
   288
1070
     1
1002
}
  0
LINE
  5
155B9
330
747D
100
AcDbEntity
  8
部品1
100
AcDbLine
 10
7105.729156633905
 20
4897.943315457627
 30
0.0
 11
7105.729156633905
 21
3100.943315457648
 31
0.0
  0
LINE
  5
155BA
330
747D
100
AcDbEntity
  8
部品1
100
AcDbLine
 10
7148.729156633905
 20
4991.94331545763
 30
0.0
 11
7148.729156633905
 21
2957.943315457628
 31
0.0
  0
LINE
  5
155BB
330
747D
100
AcDbEntity
  8
部品1
100
AcDbLine
 10
6973.729156633904
 20
4895.443315457626
 30
0.0
 11
6973.729156633905
 21
3104.443315457648
 31
0.0
  0
LINE
  5
155BC
330
747D
100
AcDbEntity
  8
部品1
100
AcDbLine
 10
6243.729156633904
 20
4895.443315457627
 30
0.0
 11
6243.729156633905
 21
3104.443315457642
 31
0.0
  0
LINE
  5
155BD
330
747D
100
AcDbEntity
  8
部品1
100
AcDbLine
 10
6241.729156633905
 20
4897.943315457627
 30
0.0
 11
6241.729156633905
 21
3100.943315457648
 31
0.0
  0
LINE
  5
155BE
330
747D
100
AcDbEntity
  8
部品1
100
AcDbLine
 10
6155.729156633904
 20
4897.943315457627
 30
0.0
 11
6155.729156633904
 21
3100.943315457648
 31
0.0
  0
LINE
  5
155BF
330
747D
100
AcDbEntity
  8
部品1
100
AcDbLine
 10
6023.729156633902
 20
4895.443315457626
 30
0.0
 11
6023.729156633905
 21
3104.443315457638
 31
0.0
  0
LINE
  5
155C0
330
747D
100
AcDbEntity
  8
部品1
100
AcDbLine
 10
5293.729156633904
 20
4895.44331545763
 30
0.0
 11
5293.729156633904
 21
3104.443315457631
 31
0.0
  0
LINE
  5
155C1
330
747D
100
AcDbEntity
  8
部品1
100
AcDbLine
 10
5248.729156633904
 20
4991.943315457632
 30
0.0
 11
5248.729156633904
 21
2957.943315457628
 31
0.0
  0
LINE
  5
155C2
330
747D
100
AcDbEntity
  8
部品1
100
AcDbLine
 10
5291.729156633905
 20
4897.943315457627
 30
0.0
 11
5291.729156633905
 21
3100.943315457648
 31
0.0
  0
LINE
  5
155C3
330
747D
100
AcDbEntity
  8
部品1
100
AcDbLine
 10
6243.729156633905
 20
3104.443315457641
 30
0.0
 11
6953.666708805222
 21
3104.443315457646
 31
0.0
  0
LINE
  5
155C4
330
747D
100
AcDbEntity
  8
部品1
100
AcDbLine
 10
5248.729156633904
 20
3100.943315457632
 30
0.0
 11
7148.729156633905
 21
3100.943315457648
 31
0.0
  0
LINE
  5
155C5
330
747D
100
AcDbEntity
  8
部品1
100
AcDbLine
 10
5248.729156633904
 20
3057.943315457628
 30
0.0
 11
7148.729156633905
 21
3057.943315457628
 31
0.0
  0
LINE
  5
155C6
330
747D
100
AcDbEntity
  8
部品1
100
AcDbLine
 10
5293.729156633904
 20
3104.443315457633
 30
0.0
 11
6003.666708805223
 21
3104.443315457648
 31
0.0
  0
LINE
  5
155C9
330
747D
100
AcDbEntity
  8
細線
 48
0.2
100
AcDbLine
 10
6023.666708805222
 20
3108.693315457646
 30
0.0
 11
6003.666708805224
 21
3108.693315457646
 31
0.0
  0
LINE
  5
155CA
330
747D
100
AcDbEntity
  8
部品1
 48
0.2
100
AcDbLine
 10
6023.666708805222
 20
3111.193315457646
 30
0.0
 11
6003.666708805223
 21
3111.193315457646
 31
0.0
  0
ARC
  5
155CB
330
747D
100
AcDbEntity
  8
細線
 48
0.2
100
AcDbCircle
 10
6020.666708805222
 20
3104.222805626398
 30
0.0
 40
1.0
100
AcDbArc
 50
286.6015495990217
 51
0.0
  0
LINE
  5
155CC
330
747D
100
AcDbEntity
  8
細線
 48
0.2
100
AcDbLine
 10
6023.666708805222
 20
3104.193315457646
 30
0.0
 11
6003.666708805224
 21
3104.193315457646
 31
0.0
  0
LINE
  5
155CD
330
747D
100
AcDbEntity
  8
細線
 48
0.2
100
AcDbLine
 10
6023.666708805222
 20
3106.693315457646
 30
0.0
 11
6003.666708805224
 21
3106.693315457648
 31
0.0
  0
ARC
  5
155CE
330
747D
100
AcDbEntity
  8
細線
 48
0.2
100
AcDbCircle
 10
6010.666708805223
 20
3104.222805626398
 30
0.0
 40
1.0
100
AcDbArc
 50
179.9999999999984
 51
253.3984504009775
  0
ARC
  5
155CF
330
747D
100
AcDbEntity
  8
細線
 48
0.2
100
AcDbCircle
 10
6015.666708805223
 20
3120.993315457643
 30
0.0
 40
18.49999999999796
100
AcDbArc
 50
253.3984504009772
 51
286.6015495990217
  0
LINE
  5
155D0
330
747D
100
AcDbEntity
  8
細線
 48
0.2
100
AcDbLine
 10
6021.350700101731
 20
3103.493315457646
 30
0.0
 11
6009.982717508719
 21
3103.493315457646
 31
0.0
  0
LINE
  5
155D1
330
747D
100
AcDbEntity
  8
細線
 48
50.0
100
AcDbLine
 10
6003.666708805223
 20
3104.443315457648
 30
0.0
 11
6003.666708805223
 21
3104.193315457646
 31
0.0
  0
LINE
  5
155D2
330
747D
100
AcDbEntity
  8
部品1
100
AcDbLine
 10
6023.666708805223
 20
3104.443315457648
 30
0.0
 11
6023.729156633905
 21
3104.443315457648
 31
0.0
  0
LINE
  5
155D3
330
747D
100
AcDbEntity
  8
部品1
100
AcDbLine
 10
6023.666708805223
 20
3104.443315457638
 30
0.0
 11
6023.729156633905
 21
3104.443315457638
 31
0.0
  0
LINE
  5
155D4
330
747D
100
AcDbEntity
  8
細線
 48
0.1
100
AcDbLine
 10
6023.666708805222
 20
3104.193315457646
 30
0.0
 11
6023.666708805222
 21
3111.193315457646
 31
0.0
  0
LINE
  5
155D5
330
747D
100
AcDbEntity
  8
細線
 48
50.0
100
AcDbLine
 10
6011.803951610919
 20
3106.693315457648
 30
0.0
 11
6011.803951610921
 21
3108.693315457646
 31
0.0
  0
LINE
  5
155D6
330
747D
100
AcDbEntity
  8
細線
 48
50.0
100
AcDbLine
 10
6019.654361656883
 20
3106.693315457648
 30
0.0
 11
6019.654361656883
 21
3108.693315457646
 31
0.0
  0
LINE
  5
155D7
330
747D
100
AcDbEntity
  8
部品1
 48
50.0
100
AcDbLine
 10
6003.666708805223
 20
3111.193315457646
 30
0.0
 11
6003.666708805223
 21
3104.443315457648
 31
0.0
  0
LINE
  5
15628
330
747D
100
AcDbEntity
  8
部品1
 48
0.2
100
AcDbLine
 10
6973.666708805223
 20
3111.193315457646
 30
0.0
 11
6953.666708805222
 21
3111.193315457646
 31
0.0
  0
LINE
  5
15629
330
747D
100
AcDbEntity
  8
細線
 48
0.2
100
AcDbLine
 10
6973.666708805223
 20
3108.693315457646
 30
0.0
 11
6953.666708805224
 21
3108.693315457646
 31
0.0
  0
LINE
  5
1562A
330
747D
100
AcDbEntity
  8
部品1
100
AcDbLine
 10
6973.666708805224
 20
3104.44331545765
 30
0.0
 11
6973.729156633905
 21
3104.44331545765
 31
0.0
  0
LINE
  5
1562B
330
747D
100
AcDbEntity
  8
部品1
100
AcDbLine
 10
6973.666708805224
 20
3104.443315457648
 30
0.0
 11
6973.729156633905
 21
3104.443315457648
 31
0.0
  0
LINE
  5
1562C
330
747D
100
AcDbEntity
  8
細線
 48
50.0
100
AcDbLine
 10
6953.666708805222
 20
3104.443315457648
 30
0.0
 11
6953.666708805222
 21
3104.193315457646
 31
0.0
  0
LINE
  5
1562D
330
747D
100
AcDbEntity
  8
細線
 48
0.2
100
AcDbLine
 10
6971.35070010173
 20
3103.493315457646
 30
0.0
 11
6959.982717508719
 21
3103.493315457646
 31
0.0
  0
ARC
  5
1562E
330
747D
100
AcDbEntity
  8
細線
 48
0.2
100
AcDbCircle
 10
6965.666708805223
 20
3120.993315457643
 30
0.0
 40
18.49999999999796
100
AcDbArc
 50
253.3984504009772
 51
286.6015495990217
  0
ARC
  5
1562F
330
747D
100
AcDbEntity
  8
細線
 48
0.2
100
AcDbCircle
 10
6960.666708805224
 20
3104.222805626398
 30
0.0
 40
1.0
100
AcDbArc
 50
179.9999999999984
 51
253.3984504009775
  0
LINE
  5
15630
330
747D
100
AcDbEntity
  8
細線
 48
0.2
100
AcDbLine
 10
6973.666708805223
 20
3106.693315457646
 30
0.0
 11
6953.666708805224
 21
3106.693315457648
 31
0.0
  0
LINE
  5
15631
330
747D
100
AcDbEntity
  8
細線
 48
0.2
100
AcDbLine
 10
6973.666708805223
 20
3104.193315457646
 30
0.0
 11
6953.666708805224
 21
3104.193315457646
 31
0.0
  0
ARC
  5
15632
330
747D
100
AcDbEntity
  8
細線
 48
0.2
100
AcDbCircle
 10
6970.666708805222
 20
3104.222805626398
 30
0.0
 40
1.0
100
AcDbArc
 50
286.6015495990217
 51
0.0
  0
LINE
  5
15633
330
747D
100
AcDbEntity
  8
部品1
100
AcDbLine
 10
6973.666708805224
 20
3104.443315457648
 30
0.0
 11
6973.729156633904
 21
3104.443315457648
 31
0.0
  0
LINE
  5
15634
330
747D
100
AcDbEntity
  8
部品1
 48
50.0
100
AcDbLine
 10
6953.666708805222
 20
3111.193315457646
 30
0.0
 11
6953.666708805222
 21
3104.443315457648
 31
0.0
  0
LINE
  5
15635
330
747D
100
AcDbEntity
  8
細線
 48
50.0
100
AcDbLine
 10
6969.654361656883
 20
3106.693315457648
 30
0.0
 11
6969.654361656883
 21
3108.693315457646
 31
0.0
  0
LINE
  5
15636
330
747D
100
AcDbEntity
  8
細線
 48
50.0
100
AcDbLine
 10
6961.803951610919
 20
3106.693315457648
 30
0.0
 11
6961.803951610921
 21
3108.693315457646
 31
0.0
  0
LINE
  5
15637
330
747D
100
AcDbEntity
  8
細線
 48
0.1
100
AcDbLine
 10
6973.666708805223
 20
3104.193315457646
 30
0.0
 11
6973.666708805223
 21
3111.193315457646
 31
0.0
  0
LINE
  5
15638
330
747D
100
AcDbEntity
  8
部品1
100
AcDbLine
 10
6243.729156633904
 20
4895.443315457626
 30
0.0
 11
6953.666708805222
 21
4895.443315457627
 31
0.0
  0
LINE
  5
1563D
330
747D
100
AcDbEntity
  8
部品1
100
AcDbLine
 10
5248.729156633904
 20
4897.943315457627
 30
0.0
 11
7148.729156633905
 21
4897.943315457627
 31
0.0
  0
LINE
  5
15641
330
747D
100
AcDbEntity
  8
部品1
100
AcDbLine
 10
5293.729156633904
 20
4895.44331545763
 30
0.0
 11
6003.666708805223
 21
4895.44331545763
 31
0.0
  0
LINE
  5
1565B
330
747D
100
AcDbEntity
  8
細線
 48
50.0
100
AcDbLine
 10
6019.654361656883
 20
4893.193315457629
 30
0.0
 11
6019.654361656883
 21
4891.193315457629
 31
0.0
  0
LINE
  5
1565C
330
747D
100
AcDbEntity
  8
細線
 48
50.0
100
AcDbLine
 10
6011.803951610919
 20
4893.193315457629
 30
0.0
 11
6011.803951610921
 21
4891.193315457629
 31
0.0
  0
LINE
  5
1565D
330
747D
100
AcDbEntity
  8
細線
 48
0.2
100
AcDbLine
 10
6021.350700101731
 20
4896.393315457629
 30
0.0
 11
6009.982717508719
 21
4896.393315457629
 31
0.0
  0
ARC
  5
1565E
330
747D
100
AcDbEntity
  8
細線
 48
0.2
100
AcDbCircle
 10
6015.666708805223
 20
4878.893315457632
 30
0.0
 40
18.49999999999796
100
AcDbArc
 50
73.39845040097829
 51
106.6015495990228
  0
LINE
  5
1565F
330
747D
100
AcDbEntity
  8
細線
 48
0.1
100
AcDbLine
 10
6023.666708805222
 20
4895.693315457629
 30
0.0
 11
6023.666708805222
 21
4888.693315457629
 31
0.0
  0
ARC
  5
15660
330
747D
100
AcDbEntity
  8
細線
 48
0.2
100
AcDbCircle
 10
6020.666708805222
 20
4895.663825288878
 30
0.0
 40
1.0
100
AcDbArc
 50
0.0
 51
73.39845040097829
  0
ARC
  5
15661
330
747D
100
AcDbEntity
  8
細線
 48
0.2
100
AcDbCircle
 10
6010.666708805223
 20
4895.663825288878
 30
0.0
 40
1.0
100
AcDbArc
 50
106.6015495990225
 51
180.0000000000016
  0
LINE
  5
15662
330
747D
100
AcDbEntity
  8
部品1
 48
0.2
100
AcDbLine
 10
6023.666708805222
 20
4888.693315457629
 30
0.0
 11
6003.666708805223
 21
4888.693315457629
 31
0.0
  0
LINE
  5
15663
330
747D
100
AcDbEntity
  8
細線
 48
0.2
100
AcDbLine
 10
6023.666708805222
 20
4893.193315457629
 30
0.0
 11
6003.666708805224
 21
4893.193315457629
 31
0.0
  0
LINE
  5
15664
330
747D
100
AcDbEntity
  8
細線
 48
0.2
100
AcDbLine
 10
6023.666708805222
 20
4891.193315457629
 30
0.0
 11
6003.666708805224
 21
4891.193315457629
 31
0.0
  0
LINE
  5
15665
330
747D
100
AcDbEntity
  8
細線
 48
0.2
100
AcDbLine
 10
6023.666708805222
 20
4895.693315457629
 30
0.0
 11
6003.666708805224
 21
4895.693315457629
 31
0.0
  0
LINE
  5
15666
330
747D
100
AcDbEntity
  8
部品1
 48
50.0
100
AcDbLine
 10
6003.666708805223
 20
4888.693315457629
 30
0.0
 11
6003.666708805223
 21
4895.44331545763
 31
0.0
  0
LINE
  5
15667
330
747D
100
AcDbEntity
  8
部品1
100
AcDbLine
 10
6023.666708805223
 20
4895.44331545763
 30
0.0
 11
6023.729156633905
 21
4895.443315457627
 31
0.0
  0
LINE
  5
15668
330
747D
100
AcDbEntity
  8
細線
 48
50.0
100
AcDbLine
 10
6003.666708805223
 20
4895.44331545763
 30
0.0
 11
6003.666708805223
 21
4895.693315457629
 31
0.0
  0
ARC
  5
1567B
330
747D
100
AcDbEntity
  8
細線
 48
0.2
100
AcDbCircle
 10
6970.666708805222
 20
4895.663825288878
 30
0.0
 40
1.0
100
AcDbArc
 50
0.0
 51
73.39845040097829
  0
LINE
  5
1567C
330
747D
100
AcDbEntity
  8
細線
 48
0.1
100
AcDbLine
 10
6973.666708805223
 20
4895.693315457629
 30
0.0
 11
6973.666708805223
 21
4888.693315457629
 31
0.0
  0
LINE
  5
1567D
330
747D
100
AcDbEntity
  8
細線
 48
50.0
100
AcDbLine
 10
6961.803951610919
 20
4893.193315457629
 30
0.0
 11
6961.803951610921
 21
4891.193315457629
 31
0.0
  0
LINE
  5
1567E
330
747D
100
AcDbEntity
  8
細線
 48
50.0
100
AcDbLine
 10
6969.654361656883
 20
4893.193315457629
 30
0.0
 11
6969.654361656883
 21
4891.193315457629
 31
0.0
  0
LINE
  5
1567F
330
747D
100
AcDbEntity
  8
細線
 48
0.2
100
AcDbLine
 10
6973.666708805223
 20
4895.693315457629
 30
0.0
 11
6953.666708805224
 21
4895.693315457629
 31
0.0
  0
LINE
  5
15680
330
747D
100
AcDbEntity
  8
細線
 48
0.2
100
AcDbLine
 10
6973.666708805223
 20
4891.193315457629
 30
0.0
 11
6953.666708805224
 21
4891.193315457629
 31
0.0
  0
LINE
  5
15681
330
747D
100
AcDbEntity
  8
細線
 48
0.2
100
AcDbLine
 10
6973.666708805223
 20
4893.193315457629
 30
0.0
 11
6953.666708805224
 21
4893.193315457629
 31
0.0
  0
ARC
  5
15682
330
747D
100
AcDbEntity
  8
細線
 48
0.2
100
AcDbCircle
 10
6960.666708805224
 20
4895.663825288878
 30
0.0
 40
1.0
100
AcDbArc
 50
106.6015495990225
 51
180.0000000000016
  0
ARC
  5
15683
330
747D
100
AcDbEntity
  8
細線
 48
0.2
100
AcDbCircle
 10
6965.666708805223
 20
4878.893315457632
 30
0.0
 40
18.49999999999796
100
AcDbArc
 50
73.39845040097829
 51
106.6015495990228
  0
LINE
  5
15684
330
747D
100
AcDbEntity
  8
細線
 48
0.2
100
AcDbLine
 10
6971.35070010173
 20
4896.393315457629
 30
0.0
 11
6959.982717508719
 21
4896.393315457629
 31
0.0
  0
LINE
  5
15685
330
747D
100
AcDbEntity
  8
細線
 48
50.0
100
AcDbLine
 10
6953.666708805222
 20
4895.44331545763
 30
0.0
 11
6953.666708805222
 21
4895.693315457629
 31
0.0
  0
LINE
  5
15686
330
747D
100
AcDbEntity
  8
部品1
 48
50.0
100
AcDbLine
 10
6953.666708805222
 20
4888.693315457629
 30
0.0
 11
6953.666708805222
 21
4895.44331545763
 31
0.0
  0
LINE
  5
15687
330
747D
100
AcDbEntity
  8
部品1
100
AcDbLine
 10
6973.666708805224
 20
4895.44331545763
 30
0.0
 11
6973.729156633905
 21
4895.443315457627
 31
0.0
  0
LINE
  5
15688
330
747D
100
AcDbEntity
  8
部品1
 48
0.2
100
AcDbLine
 10
6973.666708805223
 20
4888.693315457629
 30
0.0
 11
6953.666708805222
 21
4888.693315457629
 31
0.0
  0
LINE
  5
15689
330
747D
100
AcDbEntity
  8
部品1
100
AcDbLine
 10
6973.666708805224
 20
4895.443315457626
 30
0.0
 11
6973.729156633905
 21
4895.443315457627
 31
0.0
  0
LINE
  5
158CA
330
747D
100
AcDbEntity
  8
細線
 48
50.0
100
AcDbLine
 10
5870.729156633919
 20
7875.132495543792
 30
0.0
 11
5870.729156633919
 21
7849.132495543756
 31
0.0
  0
LINE
  5
158CB
330
747D
100
AcDbEntity
  8
細線
 48
50.0
100
AcDbLine
 10
5830.729156633918
 20
7875.132495543792
 30
0.0
 11
5830.729156633918
 21
7849.132495543756
 31
0.0
  0
LINE
  5
158CF
330
747D
100
AcDbEntity
  8
細線
 48
50.0
100
AcDbLine
 10
6780.729156633919
 20
7875.132495543792
 30
0.0
 11
6780.729156633919
 21
7849.132495543756
 31
0.0
  0
LINE
  5
158D0
330
747D
100
AcDbEntity
  8
細線
 48
50.0
100
AcDbLine
 10
6820.72915663392
 20
7875.132495543792
 30
0.0
 11
6820.72915663392
 21
7849.132495543756
 31
0.0
  0
DIMENSION
  5
1599F
330
747D
100
AcDbEntity
  8
寸法
 48
50.0
100
AcDbDimension
  2
*D16
 10
5988.729156633922
 20
7409.308827748436
 30
0.0
 11
5646.229156633925
 21
7409.308827748436
 31
0.0
 70
   160
 71
     5
 42
684.9999999999964
  3
INABA_S40G
100
AcDbAlignedDimension
 13
5303.729156633926
 23
7849.132495543512
 33
0.0
 14
5988.729156633922
 24
7849.132495543476
 34
0.0
100
AcDbRotatedDimension
  0
TEXT
  5
15ED2
330
747D
100
AcDbEntity
  8
文字
 62
     7
 48
50.0
100
AcDbText
 10
14271.39351435261
 20
483.8967129911416
 30
0.0
 40
160.0
  1
ＮＸＤ－１４Ｌ－２
  7
STYLE2
100
AcDbText
  0
LINE
  5
1670D
330
747D
100
AcDbEntity
  8
細線
 48
50.0
100
AcDbLine
 10
10075.60106919428
 20
4897.943315457627
 30
0.0
 11
10075.60106919428
 21
3107.943315457627
 31
0.0
  0
LINE
  5
1670E
330
747D
100
AcDbEntity
  8
細線
 48
50.0
100
AcDbLine
 10
10090.60106919428
 20
4897.943315457627
 30
0.0
 11
10090.60106919428
 21
3107.943315457627
 31
0.0
  0
LINE
  5
1670F
330
747D
100
AcDbEntity
  8
細線
 48
50.0
100
AcDbLine
 10
10220.60106919428
 20
4897.943315457627
 30
0.0
 11
10220.60106919428
 21
3107.943315457627
 31
0.0
  0
LINE
  5
16710
330
747D
100
AcDbEntity
  8
細線
 48
50.0
100
AcDbLine
 10
10235.60106919428
 20
4897.943315457627
 30
0.0
 11
10235.60106919428
 21
3107.943315457627
 31
0.0
  0
LINE
  5
16711
330
747D
100
AcDbEntity
  8
細線
 48
50.0
100
AcDbLine
 10
10365.60106919429
 20
4897.943315457627
 30
0.0
 11
10365.60106919429
 21
3107.943315457627
 31
0.0
  0
LINE
  5
16712
330
747D
100
AcDbEntity
  8
細線
 48
50.0
100
AcDbLine
 10
10380.60106919428
 20
4897.943315457627
 30
0.0
 11
10380.60106919428
 21
3107.943315457627
 31
0.0
  0
TEXT
  5
16713
330
747D
100
AcDbEntity
  8
文字
 62
     7
 48
50.0
100
AcDbText
 10
15022.63965474517
 20
10930.01374588372
 30
0.0
 40
100.0
  1
F12            1.2
  7
STYLE1
100
AcDbText
  0
TEXT
  5
16714
330
747D
100
AcDbEntity
  8
文字
 62
     7
 48
50.0
100
AcDbText
 10
13583.11819016569
 20
10930.01374588373
 30
0.0
 40
100.0
  1
根太
  7
STYLE1
100
AcDbText
  0
TEXT
  5
16715
330
747D
100
AcDbEntity
  8
文字
 62
     7
 48
50.0
100
AcDbText
 10
13248.77747366447
 20
8720.013745883735
 30
0.0
 40
100.0
  1
15
  7
STYLE1
100
AcDbText
  0
LINE
  5
16716
330
747D
100
AcDbEntity
  8
仕様書枠
 48
50.0
100
AcDbLine
 10
16307.2
 20
10899.6
 30
0.0
 11
13127.2
 21
10899.6
 31
0.0
  0
TEXT
  5
16762
330
747D
100
AcDbEntity
  8
文字
 62
     7
 48
50.0
100
AcDbText
 10
13583.1181901657
 20
9740.013745883729
 30
0.0
 40
100.0
  1
梁中央
 41
0.9
  7
STYLE1
100
AcDbText
  0
TEXT
  5
16763
330
747D
100
AcDbEntity
  8
文字
 62
     7
 48
50.0
100
AcDbText
 10
15022.63965474517
 20
9740.013745883729
 30
0.0
 40
100.0
  1
F12,Y10       0.7+1.0
  7
STYLE1
100
AcDbText
  0
TEXT
  5
16764
330
747D
100
AcDbEntity
  8
文字
 62
     7
 48
50.0
100
AcDbText
 10
13583.11819016566
 20
8550.013745883729
 30
0.0
 40
100.0
  1
アンカープレート
  7
STYLE1
100
AcDbText
  0
TEXT
  5
16765
330
747D
100
AcDbEntity
  8
文字
 62
     7
 48
50.0
100
AcDbText
 10
15022.63965474512
 20
8550.013745883722
 30
0.0
 40
100.0
  1
F12            2.3
  7
STYLE1
100
AcDbText
  0
LINE
  5
16766
330
747D
100
AcDbEntity
  8
仕様書枠
 48
50.0
100
AcDbLine
 10
16307.2
 20
9879.600000000001
 30
0.0
 11
13127.2
 21
9879.600000000001
 31
0.0
  0
LINE
  5
16767
330
747D
100
AcDbEntity
  8
仕様書枠
 48
50.0
100
AcDbLine
 10
16307.19999999999
 20
11409.6
 30
0.0
 11
13127.2
 21
11409.6
 31
0.0
  0
LINE
  5
16768
330
747D
100
AcDbEntity
  8
仕様書枠
 48
50.0
100
AcDbLine
 10
16307.19999999999
 20
8179.600000000007
 30
0.0
 11
16307.2
 21
11409.6
 31
0.0
  0
LINE
  5
16769
330
747D
100
AcDbEntity
  8
仕様書枠
 48
50.0
100
AcDbLine
 10
14785.2
 20
11409.59999999999
 30
0.0
 11
14785.19999999999
 21
8519.600000000002
 31
0.0
  0
LINE
  5
1676A
330
747D
100
AcDbEntity
  8
仕様書枠
 48
50.0
100
AcDbLine
 10
13490.2
 20
11409.6
 30
0.0
 11
13490.2
 21
8519.600000000004
 31
0.0
  0
LINE
  5
1676B
330
747D
100
AcDbEntity
  8
仕様書枠
 48
50.0
100
AcDbLine
 10
16307.19999999999
 20
11239.6
 30
0.0
 11
13127.2
 21
11239.6
 31
0.0
  0
LINE
  5
1676C
330
747D
100
AcDbEntity
  8
仕様書枠
 48
50.0
100
AcDbLine
 10
16307.2
 20
10729.6
 30
0.0
 11
13127.2
 21
10729.6
 31
0.0
  0
LINE
  5
1676D
330
747D
100
AcDbEntity
  8
仕様書枠
 48
50.0
100
AcDbLine
 10
16307.19999999999
 20
11069.6
 30
0.0
 11
13127.2
 21
11069.6
 31
0.0
  0
LINE
  5
1676E
330
747D
100
AcDbEntity
  8
仕様書枠
 48
50.0
100
AcDbLine
 10
16307.19999999999
 20
10389.6
 30
0.0
 11
13127.2
 21
10389.6
 31
0.0
  0
LINE
  5
1676F
330
747D
100
AcDbEntity
  8
仕様書枠
 48
50.0
100
AcDbLine
 10
16307.19999999999
 20
10219.6
 30
0.0
 11
13127.2
 21
10219.6
 31
0.0
  0
LINE
  5
16770
330
747D
100
AcDbEntity
  8
仕様書枠
 48
50.0
100
AcDbLine
 10
16307.19999999999
 20
10559.6
 30
0.0
 11
13127.2
 21
10559.6
 31
0.0
  0
TEXT
  5
16771
330
747D
100
AcDbEntity
  8
文字
 62
     7
 48
50.0
100
AcDbText
 10
13197.42518560407
 20
11270.01374588373
 30
0.0
 40
100.0
  1
品番
  7
STYLE1
100
AcDbText
  0
TEXT
  5
16772
330
747D
100
AcDbEntity
  8
文字
 62
     7
 48
50.0
100
AcDbText
 10
13271.19032244792
 20
11100.01374588373
 30
0.0
 40
100.0
  1
1
  7
STYLE1
100
AcDbText
  0
TEXT
  5
16773
330
747D
100
AcDbEntity
  8
文字
 62
     7
 48
50.0
100
AcDbText
 10
13271.19032244792
 20
10930.01374588373
 30
0.0
 40
100.0
  1
2
  7
STYLE1
100
AcDbText
  0
TEXT
  5
16774
330
747D
100
AcDbEntity
  8
文字
 62
     7
 48
50.0
100
AcDbText
 10
13271.19032244793
 20
10590.01374588373
 30
0.0
 40
100.0
  1
4
  7
STYLE1
100
AcDbText
  0
TEXT
  5
16775
330
747D
100
AcDbEntity
  8
文字
 62
     7
 48
50.0
100
AcDbText
 10
13271.19032244793
 20
10760.01374588373
 30
0.0
 40
100.0
  1
3
  7
STYLE1
100
AcDbText
  0
TEXT
  5
16776
330
747D
100
AcDbEntity
  8
文字
 62
     7
 48
50.0
100
AcDbText
 10
13732.03840939434
 20
11270.01374588373
 30
0.0
 40
100.0
  1
部　　品　　名
  7
STYLE1
100
AcDbText
  0
TEXT
  5
16777
330
747D
100
AcDbEntity
  8
文字
 62
     7
 48
50.0
100
AcDbText
 10
14859.79774614482
 20
11270.01374588373
 30
0.0
 40
100.0
  1
材料（材質）　　単位mm
  7
STYLE1
100
AcDbText
  0
TEXT
  5
16778
330
747D
100
AcDbEntity
  8
文字
 62
     7
 48
50.0
100
AcDbText
 10
13583.11819016569
 20
11100.01374588373
 30
0.0
 40
100.0
  1
土台枠
  7
STYLE1
100
AcDbText
  0
TEXT
  5
16779
330
747D
100
AcDbEntity
  8
文字
 62
     7
 48
50.0
100
AcDbText
 10
13583.1181901657
 20
10760.01374588373
 30
0.0
 40
100.0
  1
柱
  7
STYLE1
100
AcDbText
  0
TEXT
  5
1677A
330
747D
100
AcDbEntity
  8
文字
 62
     7
 48
50.0
100
AcDbText
 10
13583.1181901657
 20
10420.01374588373
 30
0.0
 40
100.0
  1
鴨居
  7
STYLE1
100
AcDbText
  0
TEXT
  5
1677B
330
747D
100
AcDbEntity
  8
文字
 62
     7
 48
50.0
100
AcDbText
 10
13583.1181901657
 20
10250.01374588373
 30
0.0
 40
100.0
  1
桁後
  7
STYLE1
100
AcDbText
  0
TEXT
  5
1677C
330
747D
100
AcDbEntity
  8
文字
 62
     7
 48
50.0
100
AcDbText
 10
13271.19032244793
 20
10420.01374588373
 30
0.0
 40
100.0
  1
5
  7
STYLE1
100
AcDbText
  0
TEXT
  5
1677D
330
747D
100
AcDbEntity
  8
文字
 62
     7
 48
50.0
100
AcDbText
 10
13583.1181901657
 20
10080.01374588373
 30
0.0
 40
100.0
  1
妻板左右
  7
STYLE1
100
AcDbText
  0
TEXT
  5
1677E
330
747D
100
AcDbEntity
  8
文字
 62
     7
 48
50.0
100
AcDbText
 10
13248.77747366447
 20
9570.013745883729
 30
0.0
 40
100.0
  1
10
  7
STYLE1
100
AcDbText
  0
TEXT
  5
1677F
330
747D
100
AcDbEntity
  8
文字
 62
     7
 48
50.0
100
AcDbText
 10
13583.11819016568
 20
9230.013745883729
 30
0.0
 40
100.0
  1
壁パネル
  7
STYLE1
100
AcDbText
  0
TEXT
  5
16780
330
747D
100
AcDbEntity
  8
文字
 62
     7
 48
50.0
100
AcDbText
 10
13583.11819016569
 20
9400.013745883729
 30
0.0
 40
100.0
  1
屋根パネル
  7
STYLE1
100
AcDbText
  0
TEXT
  5
16781
330
747D
100
AcDbEntity
  8
文字
 62
     7
 48
50.0
100
AcDbText
 10
13583.1181901657
 20
9910.01374588373
 30
0.0
 40
100.0
  1
鼻隠シ前後
  7
STYLE1
100
AcDbText
  0
TEXT
  5
16782
330
747D
100
AcDbEntity
  8
文字
 62
     7
 48
50.0
100
AcDbText
 10
13271.19032244792
 20
9910.01374588373
 30
0.0
 40
100.0
  1
8
  7
STYLE1
100
AcDbText
  0
TEXT
  5
16783
330
747D
100
AcDbEntity
  8
文字
 62
     7
 48
50.0
100
AcDbText
 10
13271.19032244792
 20
9740.013745883729
 30
0.0
 40
100.0
  1
9
  7
STYLE1
100
AcDbText
  0
TEXT
  5
16784
330
747D
100
AcDbEntity
  8
文字
 62
     7
 48
50.0
100
AcDbText
 10
13271.19032244792
 20
10080.01374588373
 30
0.0
 40
100.0
  1
7
  7
STYLE1
100
AcDbText
  0
TEXT
  5
16785
330
747D
100
AcDbEntity
  8
文字
 62
     7
 48
50.0
100
AcDbText
 10
13271.19032244793
 20
10250.01374588373
 30
0.0
 40
100.0
  1
6
  7
STYLE1
100
AcDbText
  0
LINE
  5
16786
330
747D
100
AcDbEntity
  8
仕様書枠
 48
50.0
100
AcDbLine
 10
16307.19999999998
 20
9369.600000000001
 30
0.0
 11
13127.19999999999
 21
9369.600000000001
 31
0.0
  0
LINE
  5
16787
330
747D
100
AcDbEntity
  8
仕様書枠
 48
50.0
100
AcDbLine
 10
16307.19999999998
 20
9029.6
 30
0.0
 11
13127.19999999999
 21
9029.6
 31
0.0
  0
LINE
  5
16788
330
747D
100
AcDbEntity
  8
仕様書枠
 48
50.0
100
AcDbLine
 10
16307.19999999998
 20
9199.600000000001
 30
0.0
 11
13127.19999999999
 21
9199.600000000001
 31
0.0
  0
LINE
  5
16789
330
747D
100
AcDbEntity
  8
仕様書枠
 48
50.0
100
AcDbLine
 10
16307.2
 20
10049.6
 30
0.0
 11
13127.2
 21
10049.6
 31
0.0
  0
LINE
  5
1678A
330
747D
100
AcDbEntity
  8
仕様書枠
 48
50.0
100
AcDbLine
 10
16307.2
 20
9709.600000000001
 30
0.0
 11
13127.2
 21
9709.600000000001
 31
0.0
  0
TEXT
  5
1678B
330
747D
100
AcDbEntity
  8
文字
 62
     7
 48
50.0
100
AcDbText
 10
13248.77747366447
 20
9400.013745883729
 30
0.0
 40
100.0
  1
11
  7
STYLE1
100
AcDbText
  0
LINE
  5
1678C
330
747D
100
AcDbEntity
  8
仕様書枠
 48
50.0
100
AcDbLine
 10
16307.19999999998
 20
8859.6
 30
0.0
 11
13127.19999999999
 21
8859.6
 31
0.0
  0
LINE
  5
1678D
330
747D
100
AcDbEntity
  8
仕様書枠
 48
50.0
100
AcDbLine
 10
16307.19999999998
 20
8519.600000000002
 30
0.0
 11
13127.19999999999
 21
8519.600000000004
 31
0.0
  0
TEXT
  5
1678E
330
747D
100
AcDbEntity
  8
文字
 62
     7
 48
50.0
100
AcDbText
 10
13248.77747366447
 20
9060.013745883729
 30
0.0
 40
100.0
  1
13
  7
STYLE1
100
AcDbText
  0
TEXT
  5
1678F
330
747D
100
AcDbEntity
  8
文字
 62
     7
 48
50.0
100
AcDbText
 10
13248.77747366447
 20
9230.013745883729
 30
0.0
 40
100.0
  1
12
  7
STYLE1
100
AcDbText
  0
TEXT
  5
16790
330
747D
100
AcDbEntity
  8
文字
 62
     7
 48
50.0
100
AcDbText
 10
15022.63965474517
 20
11100.01374588372
 30
0.0
 40
100.0
  1
F12            1.2
  7
STYLE1
100
AcDbText
  0
TEXT
  5
16791
330
747D
100
AcDbEntity
  8
文字
 62
     7
 48
50.0
100
AcDbText
 10
15022.63965474518
 20
10760.01374588372
 30
0.0
 40
100.0
  1
F12            1.0
  7
STYLE1
100
AcDbText
  0
TEXT
  5
16792
330
747D
100
AcDbEntity
  8
文字
 62
     7
 48
50.0
100
AcDbText
 10
15022.63965474517
 20
10420.01374588372
 30
0.0
 40
100.0
  1
Y10            1.0
  7
STYLE1
100
AcDbText
  0
TEXT
  5
16793
330
747D
100
AcDbEntity
  8
文字
 62
     7
 48
50.0
100
AcDbText
 10
15022.63965474517
 20
10250.01374588372
 30
0.0
 40
100.0
  1
Y10            1.0
  7
STYLE1
100
AcDbText
  0
TEXT
  5
16794
330
747D
100
AcDbEntity
  8
文字
 62
     7
 48
50.0
100
AcDbText
 10
15022.63965474517
 20
10080.01374588372
 30
0.0
 40
100.0
  1
Y10            0.7
  7
STYLE1
100
AcDbText
  0
TEXT
  5
16795
330
747D
100
AcDbEntity
  8
文字
 62
     7
 48
50.0
100
AcDbText
 10
15022.63965474517
 20
9910.013745883725
 30
0.0
 40
100.0
  1
Y10            0.7
  7
STYLE1
100
AcDbText
  0
TEXT
  5
16796
330
747D
100
AcDbEntity
  8
文字
 62
     7
 48
50.0
100
AcDbText
 10
15022.63965474516
 20
9400.013745883725
 30
0.0
 40
100.0
  1
Y10            0.5
  7
STYLE1
100
AcDbText
  0
TEXT
  5
16797
330
747D
100
AcDbEntity
  8
文字
 62
     7
 48
50.0
100
AcDbText
 10
15022.63965474515
 20
9230.013745883725
 30
0.0
 40
100.0
  1
F12            0.6
  7
STYLE1
100
AcDbText
  0
LINE
  5
16798
330
747D
100
AcDbEntity
  8
仕様書枠
 48
50.0
100
AcDbLine
 10
16307.19999999998
 20
8349.600000000004
 30
0.0
 11
13127.19999999999
 21
8349.600000000004
 31
0.0
  0
TEXT
  5
16799
330
747D
100
AcDbEntity
  8
文字
 62
     7
 48
50.0
100
AcDbText
 10
13229.83081656552
 20
8380.013745883728
 30
0.0
 40
100.0
  1
F12→溶融亜鉛めっき鋼板(JIS G 3302)
  7
STYLE1
100
AcDbText
  0
TEXT
  5
1679A
330
747D
100
AcDbEntity
  8
文字
 62
     7
 48
50.0
100
AcDbText
 10
13229.83081656552
 20
8210.013745883729
 30
0.0
 40
100.0
  1
Y10→溶融亜鉛-5％アルミニウム合金めっき鋼板(JIS G 3317)
 41
0.9
  7
STYLE1
100
AcDbText
  0
LINE
  5
1679B
330
747D
100
AcDbEntity
  8
仕様書枠
 48
50.0
100
AcDbLine
 10
13127.2
 20
11409.6
 30
0.0
 11
13127.19999999999
 21
8179.600000000007
 31
0.0
  0
LINE
  5
1679C
330
747D
100
AcDbEntity
  8
仕様書枠
 48
50.0
100
AcDbLine
 10
16307.19999999998
 20
8689.6
 30
0.0
 11
13127.19999999999
 21
8689.600000000003
 31
0.0
  0
TEXT
  5
1679D
330
747D
100
AcDbEntity
  8
文字
 62
     7
 48
50.0
100
AcDbText
 10
13583.1181901657
 20
10590.01374588373
 30
0.0
 40
100.0
  1
床パネル
 41
0.9
  7
STYLE1
100
AcDbText
  0
TEXT
  5
1679E
330
747D
100
AcDbEntity
  8
文字
 62
     7
 48
50.0
100
AcDbText
 10
15022.63965474517
 20
10590.01374588372
 30
0.0
 40
100.0
  1
F12            1.0
  7
STYLE1
100
AcDbText
  0
TEXT
  5
1679F
330
747D
100
AcDbEntity
  8
文字
 62
     7
 48
50.0
100
AcDbText
 10
15022.63965474513
 20
8890.013745883726
 30
0.0
 40
100.0
  1
F12            0.8
  7
STYLE1
100
AcDbText
  0
TEXT
  5
167A0
330
747D
100
AcDbEntity
  8
文字
 62
     7
 48
50.0
100
AcDbText
 10
13583.11819016567
 20
8890.013745883729
 30
0.0
 40
100.0
  1
扉
  7
STYLE1
100
AcDbText
  0
TEXT
  5
167A1
330
747D
100
AcDbEntity
  8
文字
 62
     7
 48
50.0
100
AcDbText
 10
15022.63965474513
 20
8720.013745883729
 30
0.0
 40
100.0
  1
F12            0.6
  7
STYLE1
100
AcDbText
  0
TEXT
  5
167A2
330
747D
100
AcDbEntity
  8
文字
 62
     7
 48
50.0
100
AcDbText
 10
13583.11819016567
 20
8720.013745883733
 30
0.0
 40
100.0
  1
棚板
  7
STYLE1
100
AcDbText
  0
TEXT
  5
1683A
330
747D
100
AcDbEntity
  8
部品1
100
AcDbText
 10
6029.270769100626
 20
2161.973205422386
 30
0.0
 40
135.0
  1
正面図
  7
STYLE2
100
AcDbText
  0
LWPOLYLINE
  5
1683B
330
747D
100
AcDbEntity
  8
部品1
100
AcDbPolyline
 90
        4
 70
     1
 43
0.0
 10
5938.745365362669
 20
2354.866734640909
 10
5938.745365362669
 20
2114.974413095377
 10
6702.216031591106
 20
2114.974413095377
 10
6702.216031591106
 20
2354.866734640909
  0
LINE
  5
16844
330
747D
100
AcDbEntity
  8
仕様書枠
 48
50.0
100
AcDbLine
 10
16307.2
 20
9539.6
 30
0.0
 11
13127.2
 21
9539.6
 31
0.0
  0
TEXT
  5
16845
330
747D
100
AcDbEntity
  8
文字
 62
     7
 48
50.0
100
AcDbText
 10
13248.77747366447
 20
8890.013745883731
 30
0.0
 40
100.0
  1
14
  7
STYLE1
100
AcDbText
  0
TEXT
  5
16846
330
747D
100
AcDbEntity
  8
文字
 62
     7
 48
50.0
100
AcDbText
 10
15022.63965474518
 20
9570.013745883725
 30
0.0
 40
100.0
  1
F12            1.0
  7
STYLE1
100
AcDbText
  0
TEXT
  5
16847
330
747D
100
AcDbEntity
  8
文字
 62
     7
 48
50.0
100
AcDbText
 10
13583.1181901657
 20
9570.013745883729
 30
0.0
 40
100.0
  1
母屋中
  7
STYLE1
100
AcDbText
  0
LINE
  5
16848
330
747D
100
AcDbEntity
  8
部品1
100
AcDbLine
 10
9535.601069194292
 20
4897.94331545763
 30
0.0
 11
11065.60106919429
 21
4897.943315457627
 31
0.0
  0
LINE
  5
16849
330
747D
100
AcDbEntity
  8
部品1
100
AcDbLine
 10
9535.601069194287
 20
3107.943315457627
 30
0.0
 11
11065.60106919429
 21
3107.943315457629
 31
0.0
  0
LINE
  5
1684A
330
747D
100
AcDbEntity
  8
部品1
100
AcDbLine
 10
9590.601069194287
 20
4897.943315457627
 30
0.0
 11
9590.601069194287
 21
3107.943315457627
 31
0.0
  0
LINE
  5
1684B
330
747D
100
AcDbEntity
  8
部品1
100
AcDbLine
 10
9535.601069194292
 20
4989.52020939807
 30
0.0
 11
9535.601069194287
 21
2957.943315457627
 31
0.0
  0
DIMENSION
  5
1684C
330
747D
100
AcDbEntity
  8
寸法
100
AcDbDimension
  2
*D17
 10
8631.329257553808
 20
5132.943315457633
 30
0.0
 11
8631.329257553806
 21
4033.15030587743
 31
0.0
 70
   160
 71
     5
 42
2075.000000000003
  3
INABA_S40G
100
AcDbAlignedDimension
 13
9535.601069194287
 23
3057.94331545763
 33
0.0
 14
9475.601069194288
 24
5132.943315457633
 34
0.0
 50
90.0
100
AcDbRotatedDimension
1001
ACAD
1000
DSTYLE
1002
{
1070
   174
1070
     0
1070
   272
1070
     1
1070
   288
1070
     0
1070
   341
1005
0
1002
}
  0
DIMENSION
  5
1684D
330
747D
100
AcDbEntity
  8
寸法
100
AcDbDimension
  2
*D18
 10
8933.637978502083
 20
3057.94331545763
 30
0.0
 11
8933.637978502083
 21
2751.896071363139
 31
0.0
 70
   160
 71
     5
 42
50.00000000000182
  3
INABA_S40G
100
AcDbAlignedDimension
 13
9528.59869914951
 23
3107.943315457631
 33
0.0
 14
9480.601069194287
 24
3057.94331545763
 34
0.0
 50
90.0
100
AcDbRotatedDimension
1001
ACAD
1000
DSTYLE
1002
{
1070
   174
1070
     0
1070
   272
1070
     1
1070
   288
1070
     0
1070
   341
1005
0
1002
}
  0
LINE
  5
1684E
330
747D
100
AcDbEntity
  8
部品1
100
AcDbLine
 10
10010.60106919428
 20
4897.943315457627
 30
0.0
 11
10010.60106919428
 21
3107.943315457627
 31
0.0
  0
LINE
  5
1684F
330
747D
100
AcDbEntity
  8
部品1
100
AcDbLine
 10
11065.60106919428
 20
4952.57989629288
 30
0.0
 11
11065.60106919429
 21
2957.943315457627
 31
0.0
  0
LINE
  5
16850
330
747D
100
AcDbEntity
  8
部品1
100
AcDbLine
 10
11010.60106919429
 20
4897.943315457627
 30
0.0
 11
11010.60106919429
 21
3107.943315457627
 31
0.0
  0
DIMENSION
  5
16851
330
747D
100
AcDbEntity
  8
寸法
100
AcDbDimension
  2
*D19
 10
11770.52822716641
 20
5077.943315457629
 30
0.0
 11
11670.51641614279
 21
4067.943315457631
 31
0.0
 70
    32
 71
     5
 42
2020.000000000001
  3
INABA_S40G
100
AcDbAlignedDimension
 13
11065.60106919429
 23
3057.94331545763
 33
0.0
 14
11145.60106919429
 24
5077.943315457629
 34
0.0
 50
90.0
100
AcDbRotatedDimension
1001
ACAD
1000
DSTYLE
1002
{
1070
   174
1070
     0
1070
   272
1070
     1
1070
   288
1070
     0
1070
   341
1005
0
1002
}
  0
DIMENSION
  5
16852
330
747D
100
AcDbEntity
  8
寸法
 48
50.0
100
AcDbDimension
  2
*D20
 10
9535.601069194289
 20
5531.600769036931
 30
0.0
 11
10345.42010208483
 21
5531.600769036931
 31
0.0
 70
   160
  1
柱外寸法<>
 71
     5
 42
1530.0
  3
INABA_S40G
100
AcDbAlignedDimension
 13
11065.60106919429
 23
5079.753995069281
 33
0.0
 14
9535.601069194289
 24
5128.944933580604
 34
0.0
100
AcDbRotatedDimension
1001
ACAD
1000
DSTYLE
1002
{
1070
   174
1070
     0
1070
   272
1070
     1
1070
   288
1070
     0
1070
   341
1005
0
1002
}
  0
DIMENSION
  5
16853
330
747D
100
AcDbEntity
  8
寸法
 48
50.0
100
AcDbDimension
  2
*D21
 10
9475.601069194288
 20
5531.600769036931
 30
0.0
 11
9165.963273918698
 21
5531.600769036931
 31
0.0
 70
   160
 71
     5
 42
60.0
  3
INABA_S40G
100
AcDbAlignedDimension
 13
9535.601069194289
 23
5128.944933580604
 33
0.0
 14
9475.601069194288
 24
5132.943315457633
 34
0.0
100
AcDbRotatedDimension
1001
ACAD
1000
DSTYLE
1002
{
1070
   174
1070
     0
1070
   272
1070
     1
1070
   288
1070
     0
1070
   341
1005
0
1002
}
  0
DIMENSION
  5
16854
330
747D
100
AcDbEntity
  8
寸法
 48
50.0
100
AcDbDimension
  2
*D22
 10
9475.601069194288
 20
5739.775090228896
 30
0.0
 11
10362.72589889611
 21
5739.775090228896
 31
0.0
 70
   160
 71
     5
 42
1670.0
  3
INABA_S40G
100
AcDbAlignedDimension
 13
11145.60106919429
 23
5077.943315457629
 33
0.0
 14
9475.601069194288
 24
5132.943315457633
 34
0.0
100
AcDbRotatedDimension
1001
ACAD
1000
DSTYLE
1002
{
1070
   174
1070
     0
1070
   272
1070
     1
1070
   288
1070
     0
1070
   341
1005
0
1002
}
  0
LINE
  5
16855
330
747D
100
AcDbEntity
  8
部品1
100
AcDbLine
 10
9535.601069194287
 20
3057.94331545763
 30
0.0
 11
11065.60106919429
 21
3057.943315457627
 31
0.0
  0
TEXT
  5
16856
330
747D
100
AcDbEntity
  8
部品1
100
AcDbText
 10
9938.311837503675
 20
2161.973205422386
 30
0.0
 40
135.0
  1
側面図
  7
STYLE2
100
AcDbText
  0
LWPOLYLINE
  5
16857
330
747D
100
AcDbEntity
  8
部品1
100
AcDbPolyline
 90
        4
 70
     1
 43
0.0
 10
9848.865736080069
 20
2354.866734640911
 10
9848.865736080069
 20
2114.974413095379
 10
10612.3364023085
 20
2114.974413095379
 10
10612.3364023085
 20
2354.866734640911
  0
LINE
  5
16858
330
747D
100
AcDbEntity
  8
細線
 48
50.0
100
AcDbLine
 10
10525.60106919429
 20
4897.943315457627
 30
0.0
 11
10525.60106919429
 21
3107.943315457627
 31
0.0
  0
LINE
  5
16859
330
747D
100
AcDbEntity
  8
細線
 48
50.0
100
AcDbLine
 10
10510.60106919428
 20
4897.943315457627
 30
0.0
 11
10510.60106919428
 21
3107.943315457627
 31
0.0
  0
LINE
  5
1685A
330
747D
100
AcDbEntity
  8
細線
 48
50.0
100
AcDbLine
 10
9933.101069194286
 20
4897.943315457627
 30
0.0
 11
9933.101069194286
 21
3107.943315457627
 31
0.0
  0
LINE
  5
1685B
330
747D
100
AcDbEntity
  8
細線
 48
50.0
100
AcDbLine
 10
9948.101069194287
 20
4897.943315457627
 30
0.0
 11
9948.101069194287
 21
3107.943315457627
 31
0.0
  0
LINE
  5
1685C
330
747D
100
AcDbEntity
  8
細線
 48
50.0
100
AcDbLine
 10
9808.101069194286
 20
4897.943315457627
 30
0.0
 11
9808.101069194286
 21
3107.943315457627
 31
0.0
  0
LINE
  5
1685D
330
747D
100
AcDbEntity
  8
細線
 48
50.0
100
AcDbLine
 10
9793.101069194287
 20
4897.943315457627
 30
0.0
 11
9793.101069194287
 21
3107.943315457627
 31
0.0
  0
LINE
  5
1685E
330
747D
100
AcDbEntity
  8
細線
 48
50.0
100
AcDbLine
 10
9653.101069194287
 20
4897.943315457627
 30
0.0
 11
9653.101069194287
 21
3107.943315457627
 31
0.0
  0
LINE
  5
1685F
330
747D
100
AcDbEntity
  8
細線
 48
50.0
100
AcDbLine
 10
9668.101069194287
 20
4897.943315457627
 30
0.0
 11
9668.101069194287
 21
3107.943315457627
 31
0.0
  0
LINE
  5
16860
330
747D
100
AcDbEntity
  8
部品1
100
AcDbLine
 10
9483.14605555125
 20
5131.661050791894
 30
0.0
 11
11138.21294605575
 21
5075.994156785193
 31
0.0
  0
LINE
  5
16861
330
747D
100
AcDbEntity
  8
部品1
100
AcDbLine
 10
9490.943633796241
 20
4990.724340526594
 30
0.0
 11
11120.26476973413
 21
4951.105958910815
 31
0.0
  0
LINE
  5
16862
330
747D
100
AcDbEntity
  8
細線
 48
50.0
100
AcDbLine
 10
9508.601069194289
 20
5130.342991833033
 30
0.0
 11
9503.311967638778
 21
4990.257359205678
 31
0.0
  0
LINE
  5
16863
330
747D
100
AcDbEntity
  8
細線
 48
50.0
100
AcDbLine
 10
11112.60106919429
 20
5077.320338111348
 30
0.0
 11
11107.85338630629
 21
4951.574565620606
 31
0.0
  0
LINE
  5
16864
330
747D
100
AcDbEntity
  8
部品1
 48
50.0
100
AcDbLine
 10
9475.785355107396
 20
5124.536861622321
 30
0.0
 11
9476.165614885207
 21
5104.609897175909
 31
0.0
  0
LINE
  5
16865
330
747D
100
AcDbEntity
  8
部品1
 48
50.0
100
AcDbLine
 10
9479.234386991452
 20
5101.034615682436
 30
0.0
 11
9480.938288482818
 21
5011.744118975791
 31
0.0
  0
LINE
  5
16866
330
747D
100
AcDbEntity
  8
細線
 48
50.0
100
AcDbLine
 10
9476.640492295102
 20
5103.96039729899
 30
0.0
 11
11142.27647704027
 21
5047.746236276587
 31
0.0
  0
LINE
  5
16867
330
747D
100
AcDbEntity
  8
細線
 48
50.0
100
AcDbLine
 10
9481.400967532387
 20
5011.098885601126
 30
0.0
 11
11131.40463196302
 21
4970.699610245057
 31
0.0
  0
LINE
  5
16868
330
747D
100
AcDbEntity
  8
部品1
 48
50.0
100
AcDbLine
 10
9484.007060589057
 20
5008.168837482317
 30
0.0
 11
9484.209013209492
 21
4997.585802089225
 31
0.0
  0
ARC
  5
16869
330
747D
100
AcDbEntity
  8
部品1
 48
50.0
100
AcDbCircle
 10
9482.784080935733
 20
5124.670416029749
 30
0.0
 40
7.0
100
AcDbArc
 50
87.03587545282958
 51
181.0932240293156
  0
ARC
  5
1686A
330
747D
100
AcDbEntity
  8
部品1
 48
50.0
100
AcDbCircle
 10
9491.207739037829
 20
4997.719356496652
 30
0.0
 40
7.0
100
AcDbArc
 50
181.0932240293156
 51
267.8377559869492
  0
ARC
  5
1686B
330
747D
100
AcDbEntity
  8
部品1
100
AcDbCircle
 10
9481.007606662627
 20
5008.111599879134
 30
0.0
 40
3.0
100
AcDbArc
 50
1.093224029315636
 51
80.18775403148449
  0
ARC
  5
1686C
330
747D
100
AcDbEntity
  8
部品1
100
AcDbCircle
 10
9476.23493306502
 20
5100.977378079253
 30
0.0
 40
3.0
100
AcDbArc
 50
1.093224029315636
 51
80.18775403168987
  0
ARC
  5
1686D
330
747D
100
AcDbEntity
  8
部品1
100
AcDbCircle
 10
9476.865487468044
 20
5104.623252616651
 30
0.0
 40
0.7
100
AcDbArc
 50
181.0932240292114
 51
260.1877540314845
  0
ARC
  5
1686E
330
747D
100
AcDbEntity
  8
部品1
100
AcDbCircle
 10
9481.638161065651
 20
5011.757474416532
 30
0.0
 40
0.7
100
AcDbArc
 50
181.0932240292114
 51
260.1877540314845
  0
LINE
  5
1686F
330
747D
100
AcDbEntity
  8
部品1
 48
50.0
100
AcDbLine
 10
11144.81497200499
 20
5068.294511350272
 30
0.0
 11
11142.78435081402
 21
5048.349470092492
 31
0.0
  0
LINE
  5
16870
330
747D
100
AcDbEntity
  8
部品1
 48
50.0
100
AcDbLine
 10
11139.43178432953
 20
5045.038836019583
 30
0.0
 11
11131.9250050647
 21
4971.306215274569
 31
0.0
  0
LINE
  5
16871
330
747D
100
AcDbEntity
  8
部品1
 48
50.0
100
AcDbLine
 10
11128.57243858021
 20
4967.995581201658
 30
0.0
 11
11127.49287554047
 21
4957.3919642081
 31
0.0
  0
ARC
  5
16872
330
747D
100
AcDbEntity
  8
部品1
 48
50.0
100
AcDbCircle
 10
11137.85097144023
 20
5069.003522023045
 30
0.0
 40
7.0
100
AcDbArc
 50
354.1866997665532
 51
87.03587545282958
  0
ARC
  5
16873
330
747D
100
AcDbEntity
  8
部品1
 48
50.0
100
AcDbCircle
 10
11120.52887497572
 20
4958.100974880874
 30
0.0
 40
7.0
100
AcDbArc
 50
267.8377559869492
 51
354.1866997665532
  0
ARC
  5
16874
330
747D
100
AcDbEntity
  8
部品1
100
AcDbCircle
 10
11131.55701025082
 20
4967.691719484755
 30
0.0
 40
3.0
100
AcDbArc
 50
95.09216976420788
 51
174.1866997665532
  0
ARC
  5
16875
330
747D
100
AcDbEntity
  8
部品1
100
AcDbCircle
 10
11142.41635600014
 20
5044.734974302679
 30
0.0
 40
3.0
100
AcDbArc
 50
95.09216976420788
 51
174.1866997665532
  0
ARC
  5
16876
330
747D
100
AcDbEntity
  8
部品1
100
AcDbCircle
 10
11142.08795075754
 20
5048.420371159769
 30
0.0
 40
0.7
100
AcDbArc
 50
275.0921697642079
 51
354.1866997665532
  0
ARC
  5
16877
330
747D
100
AcDbEntity
  8
部品1
100
AcDbCircle
 10
11131.22860500822
 20
4971.377116341846
 30
0.0
 40
0.7
100
AcDbArc
 50
275.0921697642079
 51
354.1866997667606
  0
DIMENSION
  5
16878
330
747D
100
AcDbEntity
  8
寸法
 48
50.0
100
AcDbDimension
  2
*D23
 10
11145.60106919429
 20
5531.600769036931
 30
0.0
 11
11351.64831328878
 21
5531.600769036931
 31
0.0
 70
   160
 71
     5
 42
80.0
  3
INABA_S40G
100
AcDbAlignedDimension
 13
11065.60106919429
 23
5079.753995069281
 33
0.0
 14
11145.60106919429
 24
5077.943315457629
 34
0.0
100
AcDbRotatedDimension
1001
ACAD
1000
DSTYLE
1002
{
1070
   174
1070
     0
1070
   272
1070
     1
1070
   288
1070
     0
1070
   341
1005
0
1002
}
  0
DIMENSION
  5
16879
330
747D
100
AcDbEntity
  8
寸法
 48
50.0
100
AcDbDimension
  2
*D24
 10
8883.334817482907
 20
5154.765806354443
 30
0.0
 11
8892.012561134793
 21
5384.602045371332
 31
0.0
 70
   160
 71
     5
 42
141.0000000000009
  3
INABA_S40G
100
AcDbAlignedDimension
 13
9490.943633796241
 23
4990.724340526594
 33
0.0
 14
9496.263467948196
 24
5131.623947923477
 34
0.0
 50
87.83775598715743
100
AcDbRotatedDimension
1001
ACAD
1000
DSTYLE
1002
{
1070
   174
1070
     0
1070
   272
1070
     1
1070
   288
1070
     0
1070
   341
1005
0
1002
}
  0
LINE
  5
1687A
330
747D
100
AcDbEntity
  8
部品1
 48
50.0
100
AcDbLine
 10
10150.60106919429
 20
5263.811454558907
 30
0.0
 11
10450.60106919429
 21
5263.811454558907
 31
0.0
  0
LINE
  5
1687B
330
747D
100
AcDbEntity
  8
部品1
 48
50.0
100
AcDbLine
 10
10450.60106919429
 20
5263.811454558907
 30
0.0
 11
10450.60106919429
 21
5242.211454558908
 31
0.0
  0
TEXT
  5
1687C
330
747D
100
AcDbEntity
  8
部品1
 48
50.0
100
AcDbText
 10
10138.86890441801
 20
5299.69547671134
 30
0.0
 40
120.0
  1
1000
  7
STYLE1
100
AcDbText
  0
TEXT
  5
1687D
330
747D
100
AcDbEntity
  8
部品1
 48
50.0
100
AcDbText
 10
10627.69391648215
 20
5162.194218493057
 30
0.0
 40
120.0
  1
64
 50
90.0
  7
STYLE1
100
AcDbText
  0
LINE
  5
1687E
330
747D
100
AcDbEntity
  8
部品1
100
AcDbLine
 10
10590.60106919428
 20
4897.943315457627
 30
0.0
 11
10590.60106919428
 21
3107.943315457627
 31
0.0
  0
LINE
  5
1687F
330
747D
100
AcDbEntity
  8
細線
 48
50.0
100
AcDbLine
 10
10933.10106919429
 20
4897.943315457627
 30
0.0
 11
10933.10106919429
 21
3107.943315457627
 31
0.0
  0
LINE
  5
16880
330
747D
100
AcDbEntity
  8
細線
 48
50.0
100
AcDbLine
 10
10948.10106919429
 20
4897.943315457627
 30
0.0
 11
10948.10106919429
 21
3107.943315457627
 31
0.0
  0
LINE
  5
16881
330
747D
100
AcDbEntity
  8
細線
 48
50.0
100
AcDbLine
 10
10808.10106919429
 20
4897.943315457627
 30
0.0
 11
10808.10106919429
 21
3107.943315457627
 31
0.0
  0
LINE
  5
16882
330
747D
100
AcDbEntity
  8
細線
 48
50.0
100
AcDbLine
 10
10793.10106919429
 20
4897.943315457627
 30
0.0
 11
10793.10106919429
 21
3107.943315457627
 31
0.0
  0
LINE
  5
16883
330
747D
100
AcDbEntity
  8
細線
 48
50.0
100
AcDbLine
 10
10653.10106919429
 20
4897.943315457627
 30
0.0
 11
10653.10106919429
 21
3107.943315457627
 31
0.0
  0
LINE
  5
16884
330
747D
100
AcDbEntity
  8
細線
 48
50.0
100
AcDbLine
 10
10668.10106919429
 20
4897.943315457627
 30
0.0
 11
10668.10106919429
 21
3107.943315457627
 31
0.0
  0
LINE
  5
16885
330
747D
100
AcDbEntity
  8
部品1
 48
50.0
100
AcDbLine
 10
10150.60106919429
 20
5263.811454558907
 30
0.0
 11
10450.60106919429
 21
5242.211454558908
 31
0.0
  0
DIMENSION
  5
16BE0
330
747D
100
AcDbEntity
  8
寸法
100
AcDbDimension
  2
*D26
 10
7065.590803288897
 20
8697.585385300504
 30
0.0
 11
6712.38381519321
 21
8802.670661077035
 31
0.0
 70
   160
 71
     5
 42
892.000000000011
  3
INABA_S40G
100
AcDbAlignedDimension
 13
6227.729163311535
 23
8899.632495543489
 33
0.0
 14
7119.729163311546
 24
8899.632495543484
 34
0.0
100
AcDbRotatedDimension
1001
ACAD
1000
DSTYLE
1002
{
1070
   279
1070
     2
1002
}
  0
DIMENSION
  5
16BE1
330
747D
100
AcDbEntity
  8
寸法
100
AcDbDimension
  2
*D27
 10
6115.590803288896
 20
8697.585385300504
 30
0.0
 11
5768.854978087457
 21
8800.869500693501
 31
0.0
 70
   160
 71
     5
 42
892.000000000011
  3
INABA_S40G
100
AcDbAlignedDimension
 13
5277.729163311534
 23
8899.632495543489
 33
0.0
 14
6169.729163311545
 24
8899.632495543484
 34
0.0
100
AcDbRotatedDimension
1001
ACAD
1000
DSTYLE
1002
{
1070
   279
1070
     2
1002
}
  0
MTEXT
  5
16BE2
330
747D
100
AcDbEntity
  8
寸法
 62
     7
 48
50.0
100
AcDbMText
 10
5738.277359477164
 20
8969.246243080787
 30
0.0
 40
96.0
 41
0.0
 71
     5
 72
     1
  1
棚 2段
  7
STYLE1
 73
     1
 44
1.0
1001
ACAD
1000
MTEXTBEGIN
1070
    73
1070
     1
1070
    44
1040
1.0
1070
    74
1070
     0
1000
MTEXTEND
  0
MTEXT
  5
16BE3
330
747D
100
AcDbEntity
  8
寸法
 62
     7
 48
50.0
100
AcDbMText
 10
6689.008960922172
 20
8969.246243080775
 30
0.0
 40
96.0
 41
0.0
 71
     5
 72
     1
  1
棚 2段
  7
STYLE1
 73
     1
 44
1.0
1001
ACAD
1000
MTEXTBEGIN
1070
    73
1070
     1
1070
    44
1040
1.0
1070
    74
1070
     0
1000
MTEXTEND
  0
DIMENSION
  5
16C0E
330
747D
100
AcDbEntity
  8
寸法
 48
50.0
100
AcDbDimension
  2
*D30
 10
5198.729156633905
 20
5345.484900715874
 30
0.0
 11
4885.243875259657
 21
5345.484900715874
 31
0.0
 70
   160
 71
     5
 42
50.0
  3
INABA_S40G
100
AcDbAlignedDimension
 13
5248.729156633904
 23
5132.943315457636
 33
0.0
 14
5198.729156633905
 24
5132.943315457635
 34
0.0
100
AcDbRotatedDimension
1001
ACAD
1000
DSTYLE
1002
{
1002
}
  0
DIMENSION
  5
16C0F
330
747D
100
AcDbEntity
  8
寸法
 48
50.0
100
AcDbDimension
  2
*D29
 10
5248.729156633904
 20
5345.484900715874
 30
0.0
 11
6198.729156633905
 21
5345.484900715874
 31
0.0
 70
   160
  1
柱外寸法<>
 71
     5
 42
1900.000000000003
  3
INABA_S40G
100
AcDbAlignedDimension
 13
7148.729156633908
 23
5132.94331545763
 33
0.0
 14
5248.729156633904
 24
5132.943315457636
 34
0.0
100
AcDbRotatedDimension
  0
DIMENSION
  5
16C10
330
747D
100
AcDbEntity
  8
寸法
 48
50.0
100
AcDbDimension
  2
*D28
 10
7198.729156633908
 20
5568.441879153721
 30
0.0
 11
6198.729156633905
 21
5568.441879153721
 31
0.0
 70
   160
 71
     5
 42
2000.000000000003
  3
INABA_S40G
100
AcDbAlignedDimension
 13
5198.729156633905
 23
5132.943315457635
 33
0.0
 14
7198.729156633908
 24
5132.943315457629
 34
0.0
100
AcDbRotatedDimension
  0
LINE
  5
16C11
330
747D
100
AcDbEntity
  8
部品1
100
AcDbLine
 10
5199.148817649234
 20
5125.546790062394
 30
0.0
 11
5200.282214981584
 21
5105.570662079793
 31
0.0
  0
LINE
  5
16C12
330
747D
100
AcDbEntity
  8
部品1
100
AcDbLine
 10
5211.71923530316
 20
5009.913254912735
 30
0.0
 11
5212.364141110269
 21
4998.546790062394
 31
0.0
  0
LINE
  5
16C13
330
747D
100
AcDbEntity
  8
部品1
100
AcDbLine
 10
5203.483204778313
 20
5102.113254912736
 30
0.0
 11
5208.518245506424
 21
5013.370662079793
 31
0.0
  0
ARC
  5
16C14
330
747D
100
AcDbEntity
  8
部品1
 48
50.0
100
AcDbCircle
 10
5200.488021882127
 20
5101.943315457635
 30
0.0
 40
3.0
100
AcDbArc
 50
3.247342790337682
 51
82.3418727926348
  0
ARC
  5
16C15
330
747D
100
AcDbEntity
  8
部品1
 48
50.0
100
AcDbCircle
 10
5208.724052406971
 20
5009.743315457632
 30
0.0
 40
3.0
100
AcDbArc
 50
3.247342790337682
 51
82.3418727926348
  0
ARC
  5
16C16
330
747D
100
AcDbEntity
  8
部品1
 48
50.0
100
AcDbCircle
 10
5209.217121515532
 20
5013.410314619315
 30
0.0
 40
0.7
100
AcDbArc
 50
183.2473427902856
 51
262.3418727926349
  0
ARC
  5
16C17
330
747D
100
AcDbEntity
  8
部品1
 48
50.0
100
AcDbCircle
 10
5200.981090990691
 20
5105.61031461932
 30
0.0
 40
0.7
100
AcDbArc
 50
183.2473427903897
 51
262.3418727926349
  0
ARC
  5
16C18
330
747D
100
AcDbEntity
  8
部品1
100
AcDbCircle
 10
5219.352901201368
 20
4998.943315457634
 30
0.0
 40
7.0
100
AcDbArc
 50
183.2473427903377
 51
270.0
  0
ARC
  5
16C19
330
747D
100
AcDbEntity
  8
部品1
100
AcDbCircle
 10
5206.137577740333
 20
5125.943315457632
 30
0.0
 40
7.0
100
AcDbArc
 50
90.0
 51
183.2473427903377
  0
LINE
  5
16C1A
330
747D
100
AcDbEntity
  8
細線
 48
50.0
100
AcDbLine
 10
5231.729156633904
 20
5132.943315457633
 30
0.0
 11
5231.729156633904
 21
4991.943315457631
 31
0.0
  0
LINE
  5
16C1B
330
747D
100
AcDbEntity
  8
部品1
 48
50.0
100
AcDbLine
 10
7178.10541206644
 20
4991.943315457628
 30
0.0
 11
5219.352901201368
 21
4991.943315457631
 31
0.0
  0
LINE
  5
16C1C
330
747D
100
AcDbEntity
  8
細線
 48
50.0
100
AcDbLine
 10
7188.334475096948
 20
5012.716558021393
 30
0.0
 11
5209.123838169151
 21
5012.716558021628
 31
0.0
  0
LINE
  5
16C1D
330
747D
100
AcDbEntity
  8
細線
 48
50.0
100
AcDbLine
 10
7196.570505621749
 20
5104.91655802139
 30
0.0
 11
5200.887807644318
 21
5104.916558021629
 31
0.0
  0
LINE
  5
16C1E
330
747D
100
AcDbEntity
  8
部品1
 48
50.0
100
AcDbLine
 10
7191.320735527475
 20
5132.94331545763
 30
0.0
 11
5206.137577740333
 21
5132.943315457629
 31
0.0
  0
ARC
  5
16C62
330
747D
100
AcDbEntity
  8
部品1
100
AcDbCircle
 10
7191.320735527475
 20
5125.943315457629
 30
0.0
 40
7.0
100
AcDbArc
 50
356.7526572096623
 51
90.0
  0
ARC
  5
16C63
330
747D
100
AcDbEntity
  8
部品1
100
AcDbCircle
 10
7178.10541206644
 20
4998.943315457631
 30
0.0
 40
7.0
100
AcDbArc
 50
270.0
 51
356.7526572096623
  0
ARC
  5
16C64
330
747D
100
AcDbEntity
  8
部品1
 48
50.0
100
AcDbCircle
 10
7196.47722227712
 20
5105.610314619316
 30
0.0
 40
0.7
100
AcDbArc
 50
277.6581272073652
 51
356.7526572096103
  0
ARC
  5
16C65
330
747D
100
AcDbEntity
  8
部品1
 48
50.0
100
AcDbCircle
 10
7188.241191752277
 20
5013.410314619312
 30
0.0
 40
0.7
100
AcDbArc
 50
277.6581272073652
 51
356.7526572097143
  0
ARC
  5
16C66
330
747D
100
AcDbEntity
  8
部品1
 48
50.0
100
AcDbCircle
 10
7188.734260860837
 20
5009.743315457629
 30
0.0
 40
3.0
100
AcDbArc
 50
97.65812720736519
 51
176.7526572096623
  0
ARC
  5
16C67
330
747D
100
AcDbEntity
  8
部品1
 48
50.0
100
AcDbCircle
 10
7196.970291385682
 20
5101.943315457631
 30
0.0
 40
3.0
100
AcDbArc
 50
97.65812720736519
 51
176.7526572096623
  0
LINE
  5
16C68
330
747D
100
AcDbEntity
  8
部品1
100
AcDbLine
 10
7193.975108489496
 20
5102.113254912732
 30
0.0
 11
7188.940067761385
 21
5013.37066207979
 31
0.0
  0
LINE
  5
16C69
330
747D
100
AcDbEntity
  8
部品1
100
AcDbLine
 10
7185.739077964652
 20
5009.913254912731
 30
0.0
 11
7185.09417215754
 21
4998.546790062391
 31
0.0
  0
LINE
  5
16C6A
330
747D
100
AcDbEntity
  8
細線
 48
50.0
100
AcDbLine
 10
7165.729156633908
 20
5132.943315457629
 30
0.0
 11
7165.729156633908
 21
4991.943315457628
 31
0.0
  0
LINE
  5
16C6B
330
747D
100
AcDbEntity
  8
部品1
100
AcDbLine
 10
7198.309495618573
 20
5125.54679006239
 30
0.0
 11
7197.176098286229
 21
5105.57066207979
 31
0.0
  0
DIMENSION
  5
16C6C
330
747D
100
AcDbEntity
  8
寸法
 48
50.0
100
AcDbDimension
  2
*D31
 10
7148.729156633908
 20
5345.48490071587
 30
0.0
 11
7512.214438008145
 21
5345.48490071587
 31
0.0
 70
   160
 71
     5
 42
50.0
  3
INABA_S40G
100
AcDbAlignedDimension
 13
7198.729156633908
 23
5132.943315457629
 33
0.0
 14
7148.729156633908
 24
5132.94331545763
 34
0.0
100
AcDbRotatedDimension
  0
ARC
  5
16C86
330
747D
100
AcDbEntity
  8
部品1
 48
0.01
100
AcDbCircle
 10
6761.729156633901
 20
4930.443315457623
 30
0.0
 40
2.0
100
AcDbArc
 50
270.0
 51
0.0
  0
ARC
  5
16C87
330
747D
100
AcDbEntity
  8
部品1
 48
0.01
100
AcDbCircle
 10
6761.729156633904
 20
4961.943315457624
 30
0.0
 40
2.0
100
AcDbArc
 50
0.0
 51
90.0
  0
ARC
  5
16C88
330
747D
100
AcDbEntity
  8
部品1
 48
0.01
100
AcDbCircle
 10
6585.729156633904
 20
4930.443315457623
 30
0.0
 40
2.0
100
AcDbArc
 50
180.0
 51
270.0
  0
ARC
  5
16C89
330
747D
100
AcDbEntity
  8
部品1
 48
0.01
100
AcDbCircle
 10
6585.729156633904
 20
4961.943315457624
 30
0.0
 40
2.0
100
AcDbArc
 50
90.0
 51
180.0
  0
LINE
  5
16C8A
330
747D
100
AcDbEntity
  8
細線
100
AcDbLine
 10
6673.729156633901
 20
4934.443315457624
 30
0.0
 11
6747.729156633905
 21
4934.443315457624
 31
0.0
  0
LINE
  5
16C8B
330
747D
100
AcDbEntity
  8
細線
100
AcDbLine
 10
6673.729156633905
 20
4957.443315457624
 30
0.0
 11
6599.729156633904
 21
4957.443315457624
 31
0.0
  0
LINE
  5
16C8C
330
747D
100
AcDbEntity
  8
細線
100
AcDbLine
 10
6599.729156633904
 20
4934.443315457624
 30
0.0
 11
6673.729156633905
 21
4934.443315457624
 31
0.0
  0
LINE
  5
16C8D
330
747D
100
AcDbEntity
  8
細線
100
AcDbLine
 10
6747.729156633905
 20
4957.443315457624
 30
0.0
 11
6673.729156633905
 21
4957.443315457624
 31
0.0
  0
LINE
  5
16C8E
330
747D
100
AcDbEntity
  8
細線
100
AcDbLine
 10
6747.729156633905
 20
4934.443315457624
 30
0.0
 11
6747.729156633905
 21
4957.443315457624
 31
0.0
  0
LINE
  5
16C8F
330
747D
100
AcDbEntity
  8
細線
100
AcDbLine
 10
6599.729156633904
 20
4957.443315457624
 30
0.0
 11
6599.729156633904
 21
4934.443315457624
 31
0.0
  0
LINE
  5
16C90
330
747D
100
AcDbEntity
  8
部品1
 48
0.01
100
AcDbLine
 10
6763.729156633901
 20
4930.443315457623
 30
0.0
 11
6763.729156633904
 21
4961.943315457624
 31
0.0
  0
LINE
  5
16C91
330
747D
100
AcDbEntity
  8
部品1
 48
0.01
100
AcDbLine
 10
6585.729156633904
 20
4928.443315457624
 30
0.0
 11
6761.729156633901
 21
4928.443315457624
 31
0.0
  0
LINE
  5
16C92
330
747D
100
AcDbEntity
  8
部品1
 48
0.01
100
AcDbLine
 10
6583.729156633904
 20
4961.943315457624
 30
0.0
 11
6583.729156633904
 21
4930.443315457623
 31
0.0
  0
LINE
  5
16C93
330
747D
100
AcDbEntity
  8
部品1
 48
0.01
100
AcDbLine
 10
6761.729156633904
 20
4963.943315457624
 30
0.0
 11
6585.729156633904
 21
4963.943315457624
 31
0.0
  0
LINE
  5
16C94
330
747D
100
AcDbEntity
  8
細線
100
AcDbLine
 10
6599.729156633904
 20
4951.443315457623
 30
0.0
 11
6673.729156633905
 21
4951.443315457623
 31
0.0
  0
LINE
  5
16C95
330
747D
100
AcDbEntity
  8
細線
100
AcDbLine
 10
6599.729156633904
 20
4945.443315457623
 30
0.0
 11
6673.729156633905
 21
4945.443315457623
 31
0.0
  0
LINE
  5
16C96
330
747D
100
AcDbEntity
  8
細線
100
AcDbLine
 10
6599.729156633902
 20
4939.443315457623
 30
0.0
 11
6673.729156633905
 21
4939.443315457623
 31
0.0
  0
LINE
  5
16C97
330
747D
100
AcDbEntity
  8
細線
100
AcDbLine
 10
6599.729156633904
 20
4951.443315457623
 30
0.0
 11
6668.729156633904
 21
4951.443315457623
 31
0.0
  0
LINE
  5
16C98
330
747D
100
AcDbEntity
  8
細線
100
AcDbLine
 10
6747.729156633901
 20
4951.443315457623
 30
0.0
 11
6673.729156633905
 21
4951.443315457623
 31
0.0
  0
LINE
  5
16C99
330
747D
100
AcDbEntity
  8
細線
100
AcDbLine
 10
6747.729156633901
 20
4939.443315457623
 30
0.0
 11
6673.729156633905
 21
4939.443315457623
 31
0.0
  0
LINE
  5
16C9A
330
747D
100
AcDbEntity
  8
細線
100
AcDbLine
 10
6747.729156633901
 20
4945.443315457623
 30
0.0
 11
6673.729156633905
 21
4945.443315457623
 31
0.0
  0
LINE
  5
16C9B
330
747D
100
AcDbEntity
  8
細線
100
AcDbLine
 10
6673.729156633905
 20
4957.443315457624
 30
0.0
 11
6673.729156633901
 21
4934.443315457624
 31
0.0
  0
LINE
  5
16C9C
330
747D
100
AcDbEntity
  8
細線
100
AcDbLine
 10
5723.729156633904
 20
4957.443315457625
 30
0.0
 11
5723.729156633901
 21
4934.443315457626
 31
0.0
  0
LINE
  5
16C9D
330
747D
100
AcDbEntity
  8
細線
100
AcDbLine
 10
5797.729156633901
 20
4945.443315457626
 30
0.0
 11
5723.729156633904
 21
4945.443315457626
 31
0.0
  0
LINE
  5
16C9E
330
747D
100
AcDbEntity
  8
細線
100
AcDbLine
 10
5797.729156633901
 20
4939.443315457626
 30
0.0
 11
5723.729156633904
 21
4939.443315457626
 31
0.0
  0
LINE
  5
16C9F
330
747D
100
AcDbEntity
  8
細線
100
AcDbLine
 10
5797.729156633901
 20
4951.443315457625
 30
0.0
 11
5723.729156633904
 21
4951.443315457625
 31
0.0
  0
LINE
  5
16CA0
330
747D
100
AcDbEntity
  8
細線
100
AcDbLine
 10
5649.729156633904
 20
4951.443315457625
 30
0.0
 11
5718.729156633905
 21
4951.443315457625
 31
0.0
  0
LINE
  5
16CA1
330
747D
100
AcDbEntity
  8
細線
100
AcDbLine
 10
5649.729156633901
 20
4939.443315457626
 30
0.0
 11
5723.729156633904
 21
4939.443315457626
 31
0.0
  0
LINE
  5
16CA2
330
747D
100
AcDbEntity
  8
細線
100
AcDbLine
 10
5649.729156633904
 20
4945.443315457626
 30
0.0
 11
5723.729156633904
 21
4945.443315457626
 31
0.0
  0
LINE
  5
16CA3
330
747D
100
AcDbEntity
  8
細線
100
AcDbLine
 10
5649.729156633904
 20
4951.443315457625
 30
0.0
 11
5723.729156633904
 21
4951.443315457625
 31
0.0
  0
LINE
  5
16CA4
330
747D
100
AcDbEntity
  8
部品1
 48
0.01
100
AcDbLine
 10
5811.729156633905
 20
4963.943315457625
 30
0.0
 11
5635.729156633904
 21
4963.943315457625
 31
0.0
  0
LINE
  5
16CA5
330
747D
100
AcDbEntity
  8
部品1
 48
0.01
100
AcDbLine
 10
5633.729156633904
 20
4961.943315457626
 30
0.0
 11
5633.729156633904
 21
4930.443315457626
 31
0.0
  0
LINE
  5
16CA6
330
747D
100
AcDbEntity
  8
部品1
 48
0.01
100
AcDbLine
 10
5635.729156633904
 20
4928.443315457625
 30
0.0
 11
5811.729156633901
 21
4928.443315457625
 31
0.0
  0
LINE
  5
16CA7
330
747D
100
AcDbEntity
  8
部品1
 48
0.01
100
AcDbLine
 10
5813.7291566339
 20
4930.443315457626
 30
0.0
 11
5813.729156633904
 21
4961.943315457626
 31
0.0
  0
LINE
  5
16CA8
330
747D
100
AcDbEntity
  8
細線
100
AcDbLine
 10
5649.729156633904
 20
4957.443315457625
 30
0.0
 11
5649.729156633904
 21
4934.443315457626
 31
0.0
  0
LINE
  5
16CA9
330
747D
100
AcDbEntity
  8
細線
100
AcDbLine
 10
5797.729156633905
 20
4934.443315457626
 30
0.0
 11
5797.729156633905
 21
4957.443315457625
 31
0.0
  0
LINE
  5
16CAA
330
747D
100
AcDbEntity
  8
細線
100
AcDbLine
 10
5797.729156633905
 20
4957.443315457625
 30
0.0
 11
5723.729156633904
 21
4957.443315457625
 31
0.0
  0
LINE
  5
16CAB
330
747D
100
AcDbEntity
  8
細線
100
AcDbLine
 10
5649.729156633904
 20
4934.443315457626
 30
0.0
 11
5723.729156633904
 21
4934.443315457626
 31
0.0
  0
LINE
  5
16CAC
330
747D
100
AcDbEntity
  8
細線
100
AcDbLine
 10
5723.729156633904
 20
4957.443315457625
 30
0.0
 11
5649.729156633904
 21
4957.443315457625
 31
0.0
  0
LINE
  5
16CAD
330
747D
100
AcDbEntity
  8
細線
100
AcDbLine
 10
5723.729156633901
 20
4934.443315457626
 30
0.0
 11
5797.729156633905
 21
4934.443315457626
 31
0.0
  0
ARC
  5
16CAE
330
747D
100
AcDbEntity
  8
部品1
 48
0.01
100
AcDbCircle
 10
5635.729156633904
 20
4961.943315457626
 30
0.0
 40
2.0
100
AcDbArc
 50
90.0
 51
180.0
  0
ARC
  5
16CAF
330
747D
100
AcDbEntity
  8
部品1
 48
0.01
100
AcDbCircle
 10
5635.729156633904
 20
4930.443315457626
 30
0.0
 40
2.0
100
AcDbArc
 50
180.0
 51
270.0
  0
ARC
  5
16CB0
330
747D
100
AcDbEntity
  8
部品1
 48
0.01
100
AcDbCircle
 10
5811.729156633905
 20
4961.943315457626
 30
0.0
 40
2.0
100
AcDbArc
 50
0.0
 51
90.0
  0
ARC
  5
16CB1
330
747D
100
AcDbEntity
  8
部品1
 48
0.01
100
AcDbCircle
 10
5811.729156633901
 20
4930.443315457626
 30
0.0
 40
2.0
100
AcDbArc
 50
270.0
 51
0.0
  0
LINE
  5
16D09
330
747D
100
AcDbEntity
  8
仕様書枠
 48
50.0
100
AcDbLine
 10
16307.19999999997
 20
8179.600000000007
 30
0.0
 11
13127.19999999997
 21
8179.600000000007
 31
0.0
  0
TEXT
  5
16D0A
330
747D
100
AcDbEntity
  8
文字
 62
     7
 48
50.0
100
AcDbText
 10
13248.77747366447
 20
8550.013745883735
 30
0.0
 40
100.0
  1
16
  7
STYLE1
100
AcDbText
  0
TEXT
  5
16D0B
330
747D
100
AcDbEntity
  8
文字
 62
     7
 48
50.0
100
AcDbText
 10
15022.63965474515
 20
9060.013745883725
 30
0.0
 40
100.0
  1
F12            0.6
  7
STYLE1
100
AcDbText
  0
TEXT
  5
16D0C
330
747D
100
AcDbEntity
  8
文字
 62
     7
 48
50.0
100
AcDbText
 10
13583.11819016568
 20
9060.013745883729
 30
0.0
 40
100.0
  1
脇パネル
  7
STYLE1
100
AcDbText
  0
TEXT
  5
16E80
330
747D
100
AcDbEntity
  8
文字
 62
     7
 48
50.0
100
AcDbText
 10
14260.68475616112
 20
855.469579666289
 30
0.0
 40
100.0
  1
～一般型・多雪地型・豪雪地型～
  7
STYLE2
100
AcDbText
  0
LINE
  5
16F0A
330
747D
100
AcDbEntity
  8
細線
 48
50.0
100
AcDbLine
 10
5385.229156633925
 20
7875.132495545383
 30
0.0
 11
5385.229156633925
 21
7849.132495545335
 31
0.0
  0
LINE
  5
16F0B
330
747D
100
AcDbEntity
  8
細線
 48
50.0
100
AcDbLine
 10
5627.729156633924
 20
7875.132495545371
 30
0.0
 11
5627.729156633924
 21
7849.132495545335
 31
0.0
  0
LINE
  5
16F0C
330
747D
100
AcDbEntity
  8
細線
 48
50.0
100
AcDbLine
 10
5587.729156633924
 20
7875.132495545371
 30
0.0
 11
5587.729156633924
 21
7849.132495545335
 31
0.0
  0
LINE
  5
16F0D
330
747D
100
AcDbEntity
  8
細線
 48
50.0
100
AcDbLine
 10
6335.229156633925
 20
7875.132495545383
 30
0.0
 11
6335.229156633925
 21
7849.132495545335
 31
0.0
  0
LINE
  5
16F0E
330
747D
100
AcDbEntity
  8
細線
 48
50.0
100
AcDbLine
 10
6577.729156633925
 20
7875.132495545371
 30
0.0
 11
6577.729156633925
 21
7849.132495545335
 31
0.0
  0
LINE
  5
16F0F
330
747D
100
AcDbEntity
  8
細線
 48
50.0
100
AcDbLine
 10
6537.729156633925
 20
7875.132495545371
 30
0.0
 11
6537.729156633925
 21
7849.132495545335
 31
0.0
  0
LWPOLYLINE
  5
16F93
330
747D
100
AcDbEntity
  8
細線
  6
Continuous
370
    15
100
AcDbPolyline
 90
        3
 70
   128
 43
0.0
 10
5344.142383238366
 20
3975.456847142503
 10
5344.213968416741
 20
3975.432588052079
 10
5344.229167601159
 20
3975.429905843065
  0
ARC
  5
16F94
330
747D
100
AcDbEntity
  8
細線
  6
Continuous
370
    15
100
AcDbCircle
 10
5340.729155735468
 20
3968.443272864958
 30
0.0
 40
7.799999999999959
100
AcDbArc
 50
64.04961909222373
 51
115.6437752580401
  0
LWPOLYLINE
  5
16F95
330
747D
100
AcDbEntity
  8
細線
  6
Continuous
370
    15
100
AcDbPolyline
 90
        3
 70
   128
 43
0.0
 10
5337.229168316414
 20
3975.445462655351
 10
5337.281799217751
 20
3975.451125096605
 10
5337.353503605416
 20
3975.474966954515
  0
SPLINE
  5
16F96
330
747D
100
AcDbEntity
  8
細線
  6
Continuous
370
    15
100
AcDbSpline
210
0.0
220
0.0
230
1.0
 70
     8
 71
     3
 72
     9
 73
     5
 74
     0
 42
0.000000001
 43
0.0000000001
 40
0.0
 40
0.0
 40
0.0
 40
0.0
 40
0.7237658969060897
 40
1.0
 40
1.0
 40
1.0
 40
1.0
 10
5322.634076973488
 20
4002.755059193894
 30
0.0
 10
5322.82981847041
 20
4002.983740636106
 30
0.0
 10
5323.100267102716
 20
4003.299701146521
 30
0.0
 10
5323.137799348426
 20
4003.8587155804
 30
0.0
 10
5323.148167034676
 20
4004.013134431168
 30
0.0
  0
SPLINE
  5
16F97
330
747D
100
AcDbEntity
  8
細線
  6
Continuous
370
    15
100
AcDbSpline
210
0.0
220
0.0
230
1.0
 70
     8
 71
     3
 72
     9
 73
     5
 74
     0
 42
0.000000001
 43
0.0000000001
 40
0.0
 40
0.0
 40
0.0
 40
0.0
 40
0.1817420378681831
 40
1.0
 40
1.0
 40
1.0
 40
1.0
 10
5323.142951628258
 20
4084.981693219468
 30
0.0
 10
5323.135955963756
 20
4085.076207685882
 30
0.0
 10
5323.097463688704
 20
4085.596255042722
 30
0.0
 10
5322.842611668318
 20
4085.890609191369
 30
0.0
 10
5322.634076973488
 20
4086.131466817185
 30
0.0
  0
LINE
  5
16F98
330
747D
100
AcDbEntity
  8
細線
  6
Continuous
370
    15
100
AcDbLine
 10
5348.317360779335
 20
4080.693615865037
 30
0.0
 11
5348.317360779335
 21
4008.192910146043
 31
0.0
  0
LINE
  5
16F99
330
747D
100
AcDbEntity
  8
細線
  6
Continuous
370
    15
100
AcDbLine
 10
5342.879509827187
 20
4002.755059193894
 30
0.0
 11
5322.634076973488
 21
4002.755059193894
 31
0.0
  0
ELLIPSE
  5
16F9A
330
747D
100
AcDbEntity
  8
細線
  6
Continuous
370
    15
100
AcDbEllipse
 10
5317.829155735503
 20
4003.90419539543
 30
0.0
 11
5.399999999999976
 21
0.0
 31
0.0
210
0.0
220
0.0
230
1.0
 40
0.4663076581550023
 41
5.04728513882407
 42
5.809296398627029
  0
LINE
  5
16F9B
330
747D
100
AcDbEntity
  8
細線
  6
Continuous
370
    15
100
AcDbLine
 10
5319.603985449364
 20
4001.526011418626
 30
0.0
 11
5317.82916774421
 21
4001.526011418626
 31
0.0
  0
LINE
  5
16F9C
330
747D
100
AcDbEntity
  8
細線
  6
Continuous
370
    15
100
AcDbLine
 10
5317.82916774421
 20
4087.360514592454
 30
0.0
 11
5319.603985449364
 21
4087.360514592454
 31
0.0
  0
ELLIPSE
  5
16F9D
330
747D
100
AcDbEntity
  8
細線
  6
Continuous
370
    15
100
AcDbEllipse
 10
5317.829155735503
 20
4084.982350334469
 30
0.0
 11
5.399999999999976
 21
0.0
 31
0.0
210
0.0
220
0.0
230
1.0
 40
0.4663076581550023
 41
0.4738889085525403
 42
1.235900168355494
  0
LINE
  5
16F9E
330
747D
100
AcDbEntity
  8
細線
  6
Continuous
370
    15
100
AcDbLine
 10
5322.634076973488
 20
4086.131466817185
 30
0.0
 11
5342.879509827187
 21
4086.131466817185
 31
0.0
  0
ELLIPSE
  5
16F9F
330
747D
100
AcDbEntity
  8
細線
  6
Continuous
370
    15
100
AcDbEllipse
 10
5317.829155735503
 20
4084.050385634184
 30
0.0
 11
0.0
 21
-3.310133756887523
 31
0.0
210
0.0
220
0.0
230
1.0
 40
0.9063077870366367
 41
3.141592653589783
 42
4.712388980384702
  0
ELLIPSE
  5
16FA0
330
747D
100
AcDbEntity
  8
細線
  6
Continuous
370
    15
100
AcDbEllipse
 10
5317.829155735503
 20
4004.83616009573
 30
0.0
 11
0.0
 21
-3.310133756887466
 31
0.0
210
0.0
220
0.0
230
1.0
 40
0.9063077870366523
 41
4.712388980384702
 42
6.283185307179586
  0
ARC
  5
16FA1
330
747D
100
AcDbEntity
  8
細線
  6
Continuous
370
    15
100
AcDbCircle
 10
5340.729155735468
 20
3968.443272864958
 30
0.0
 40
7.499999999999996
100
AcDbArc
 50
120.3006176375393
 51
59.69938236246067
  0
SPLINE
  5
16FA2
330
747D
100
AcDbEntity
  8
細線
  6
Continuous
370
    15
100
AcDbSpline
210
0.0
220
0.0
230
1.0
 70
    24
 71
     3
 72
     9
 73
     5
 74
     0
 42
0.000000001
 43
0.0000000001
 40
0.0
 40
0.0
 40
0.0
 40
0.0
 40
0.8663703693180105
 40
1.0
 40
1.0
 40
1.0
 40
1.0
 10
5337.229168316414
 20
3975.252641629503
 30
0.0
 10
5337.229168316414
 20
3975.200270069314
 30
0.0
 10
5337.229168316414
 20
3975.1398206795
 30
0.0
 10
5337.229168316414
 20
3975.083972831491
 30
0.0
 10
5337.229168316414
 20
3975.076509904191
 30
0.0
  0
LINE
  5
16FA3
330
747D
100
AcDbEntity
  8
細線
  6
Continuous
370
    15
100
AcDbLine
 10
5337.229168316414
 20
3975.076509904191
 30
0.0
 11
5336.945122381737
 21
3974.918676804826
 31
0.0
  0
LINE
  5
16FA4
330
747D
100
AcDbEntity
  8
細線
  6
Continuous
370
    15
100
AcDbLine
 10
5344.513183733513
 20
3974.918676804826
 30
0.0
 11
5344.229167601159
 21
3975.076509904191
 31
0.0
  0
SPLINE
  5
16FA5
330
747D
100
AcDbEntity
  8
細線
  6
Continuous
370
    15
100
AcDbSpline
210
0.0
220
0.0
230
1.0
 70
    24
 71
     3
 72
     9
 73
     5
 74
     0
 42
0.000000001
 43
0.0000000001
 40
0.0
 40
0.0
 40
0.0
 40
0.0
 40
0.8651188723649402
 40
1.0
 40
1.0
 40
1.0
 40
1.0
 10
5344.229167601159
 20
3975.076509904191
 30
0.0
 10
5344.229167601159
 20
3975.126597221623
 30
0.0
 10
5344.229167601159
 20
3975.184493678435
 30
0.0
 10
5344.229167601159
 20
3975.244542215153
 30
0.0
 10
5344.229167601159
 20
3975.252641629503
 30
0.0
  0
ARC
  5
16FA6
330
747D
100
AcDbEntity
  8
細線
  6
Continuous
370
    15
100
AcDbCircle
 10
5340.729155735468
 20
3968.443272864958
 30
0.0
 40
9.499999999999973
100
AcDbArc
 50
69.15570700480905
 51
110.8442929951909
  0
LINE
  5
16FA7
330
747D
100
AcDbEntity
  8
細線
  6
Continuous
370
    15
100
AcDbLine
 10
5344.229167601159
 20
3975.252641629503
 30
0.0
 11
5344.229167601159
 21
3977.14795012407
 31
0.0
  0
LINE
  5
16FA8
330
747D
100
AcDbEntity
  8
細線
  6
Continuous
370
    15
100
AcDbLine
 10
5337.229168316414
 20
3977.14795012407
 30
0.0
 11
5337.229168316414
 21
3975.252641629503
 31
0.0
  0
LINE
  5
16FA9
330
747D
100
AcDbEntity
  8
細線
  6
Continuous
370
    15
100
AcDbLine
 10
5344.229167601159
 20
3977.14795012407
 30
0.0
 11
5344.229167601159
 21
3977.275027226732
 31
0.0
  0
LINE
  5
16FAA
330
747D
100
AcDbEntity
  8
細線
  6
Continuous
370
    15
100
AcDbLine
 10
5344.229167601159
 20
3977.275027226732
 30
0.0
 11
5344.109541079094
 21
3977.321518849656
 31
0.0
  0
LINE
  5
16FAB
330
747D
100
AcDbEntity
  8
細線
  6
Continuous
370
    15
100
AcDbLine
 10
5337.348765036156
 20
3977.321518849656
 30
0.0
 11
5337.229168316414
 21
3977.275027226732
 31
0.0
  0
LINE
  5
16FAC
330
747D
100
AcDbEntity
  8
細線
  6
Continuous
370
    15
100
AcDbLine
 10
5337.229168316414
 20
3977.275027226732
 30
0.0
 11
5337.229168316414
 21
3977.14795012407
 31
0.0
  0
ARC
  5
16FAD
330
747D
100
AcDbEntity
  8
細線
  6
Continuous
370
    15
100
AcDbCircle
 10
5357.729155735468
 20
4108.443272864957
 30
0.0
 40
6.0
100
AcDbArc
 50
0.0
 51
90.0
  0
LINE
  5
16FAE
330
747D
100
AcDbEntity
  8
細線
  6
Continuous
370
    15
100
AcDbLine
 10
5363.729154964974
 20
4108.443273495957
 30
0.0
 11
5363.729154964974
 21
3940.443290662095
 31
0.0
  0
LINE
  5
16FAF
330
747D
100
AcDbEntity
  8
細線
  6
Continuous
370
    15
100
AcDbLine
 10
5305.729156633904
 20
3940.443290662095
 30
0.0
 11
5305.729156633904
 21
4108.443273495957
 31
0.0
  0
LINE
  5
16FB0
330
747D
100
AcDbEntity
  8
細線
  6
Continuous
370
    15
100
AcDbLine
 10
5311.729168793251
 20
4114.443315457627
 30
0.0
 11
5357.729142805626
 21
4114.443315457627
 31
0.0
  0
ARC
  5
16FB1
330
747D
100
AcDbEntity
  8
細線
  6
Continuous
370
    15
100
AcDbCircle
 10
5357.729155735468
 20
3940.443272864957
 30
0.0
 40
6.0
100
AcDbArc
 50
270.0
 51
0.0
  0
ARC
  5
16FB2
330
747D
100
AcDbEntity
  8
細線
  6
Continuous
370
    15
100
AcDbCircle
 10
5311.729155735468
 20
4108.443272864957
 30
0.0
 40
6.0
100
AcDbArc
 50
90.0
 51
180.0
  0
LINE
  5
16FB3
330
747D
100
AcDbEntity
  8
細線
  6
Continuous
370
    15
100
AcDbLine
 10
5357.729142805626
 20
3934.443248700425
 30
0.0
 11
5311.729168793251
 21
3934.443248700425
 31
0.0
  0
ARC
  5
16FB4
330
747D
100
AcDbEntity
  8
細線
  6
Continuous
370
    15
100
AcDbCircle
 10
5311.729155735468
 20
3940.443272864957
 30
0.0
 40
6.0
100
AcDbArc
 50
180.0
 51
270.0
  0
LINE
  5
16FB5
330
747D
100
AcDbEntity
  8
細線
  6
Continuous
370
    15
100
AcDbLine
 10
5346.825456520607
 20
3978.675497960374
 30
0.0
 11
5346.825456520607
 21
3974.66011185579
 31
0.0
  0
ARC
  5
16FB6
330
747D
100
AcDbEntity
  8
細線
  6
Continuous
370
    15
100
AcDbCircle
 10
5340.729155735468
 20
3968.443272864958
 30
0.0
 40
8.707106781186586
100
AcDbArc
 50
134.4391355081549
 51
45.56086449184513
  0
LINE
  5
16FB7
330
747D
100
AcDbEntity
  8
細線
  6
Continuous
370
    15
100
AcDbLine
 10
5334.632879396965
 20
3974.66011185579
 30
0.0
 11
5334.632879396965
 21
3978.675497960374
 31
0.0
  0
SPLINE
  5
16FB8
330
747D
100
AcDbEntity
  8
細線
  6
Continuous
370
    15
100
AcDbSpline
210
0.0
220
0.0
230
1.0
 70
     8
 71
     3
 72
    11
 73
     7
 74
     0
 42
0.000000001
 43
0.0000000001
 40
0.0
 40
0.0
 40
0.0
 40
0.0
 40
0.0781314889249488
 40
0.3601777463886433
 40
0.6812698848259567
 40
1.0
 40
1.0
 40
1.0
 40
1.0
 10
5334.822928806832
 20
3978.999628018663
 30
0.0
 10
5334.814066376136
 20
3978.994439903154
 30
0.0
 10
5334.77321152541
 20
3978.970523249637
 30
0.0
 10
5334.704466381844
 20
3978.911212921785
 30
0.0
 10
5334.642424870522
 20
3978.8023476158
 30
0.0
 10
5334.63605338097
 20
3978.717676986375
 30
0.0
 10
5334.632879396965
 20
3978.675497960374
 30
0.0
  0
ARC
  5
16FB9
330
747D
100
AcDbEntity
  8
細線
  6
Continuous
370
    15
100
AcDbCircle
 10
5340.729155735468
 20
3968.443272864958
 30
0.0
 40
12.09629120178367
100
AcDbArc
 50
60.77315626978887
 51
119.2268437302111
  0
SPLINE
  5
16FBA
330
747D
100
AcDbEntity
  8
細線
  6
Continuous
370
    15
100
AcDbSpline
210
0.0
220
0.0
230
1.0
 70
     8
 71
     3
 72
    11
 73
     7
 74
     0
 42
0.000000001
 43
0.0000000001
 40
0.0
 40
0.0
 40
0.0
 40
0.0
 40
0.0779029322309155
 40
0.3600683505069131
 40
0.6812326600027312
 40
1.0
 40
1.0
 40
1.0
 40
1.0
 10
5346.825456520607
 20
3978.675497960374
 30
0.0
 10
5346.825254247443
 20
3978.685734886111
 30
0.0
 10
5346.824319338374
 20
3978.733050087992
 30
0.0
 10
5346.806122328715
 20
3978.821986844169
 30
0.0
 10
5346.741465299629
 20
3978.929351323504
 30
0.0
 10
5346.670671450329
 20
3978.976261022939
 30
0.0
 10
5346.635407110741
 20
3978.999628018663
 30
0.0
  0
LINE
  5
16FBB
330
747D
100
AcDbEntity
  8
細線
  6
Continuous
370
    15
100
AcDbLine
 10
5317.761700054695
 20
4093.443287801072
 30
0.0
 11
5348.629151960899
 21
4093.443287801072
 31
0.0
  0
LINE
  5
16FBC
330
747D
100
AcDbEntity
  8
細線
  6
Continuous
370
    15
100
AcDbLine
 10
5312.761700054696
 20
4000.443297814652
 30
0.0
 11
5312.761700054696
 21
4088.443287801072
 31
0.0
  0
ARC
  5
16FBD
330
747D
100
AcDbEntity
  8
細線
  6
Continuous
370
    15
100
AcDbCircle
 10
5317.761700054695
 20
4088.443287801072
 30
0.0
 40
5.0
100
AcDbArc
 50
90.0
 51
180.0
  0
LINE
  5
16FBE
330
747D
100
AcDbEntity
  8
細線
  6
Continuous
370
    15
100
AcDbLine
 10
5314.829146763375
 20
4084.050385634184
 30
0.0
 11
5314.829146763375
 21
4004.83616009573
 31
0.0
  0
LINE
  5
16FBF
330
747D
100
AcDbEntity
  8
細線
  6
Continuous
370
    15
100
AcDbLine
 10
5355.6291519609
 20
4086.443287801072
 30
0.0
 11
5355.6291519609
 21
4002.443297814653
 31
0.0
  0
ARC
  5
16FC0
330
747D
100
AcDbEntity
  8
細線
  6
Continuous
370
    15
100
AcDbCircle
 10
5348.629151960899
 20
4002.443297814653
 30
0.0
 40
7.0
100
AcDbArc
 50
270.0
 51
0.0
  0
ARC
  5
16FC1
330
747D
100
AcDbEntity
  8
細線
  6
Continuous
370
    15
100
AcDbCircle
 10
5348.629151960899
 20
4086.443287801072
 30
0.0
 40
7.0
100
AcDbArc
 50
0.0
 51
90.0
  0
LINE
  5
16FC2
330
747D
100
AcDbEntity
  8
細線
  6
Continuous
370
    15
100
AcDbLine
 10
5348.629151960899
 20
3995.443297814653
 30
0.0
 11
5317.761700054695
 21
3995.443297814653
 31
0.0
  0
ARC
  5
16FC3
330
747D
100
AcDbEntity
  8
細線
  6
Continuous
370
    15
100
AcDbCircle
 10
5317.761700054695
 20
4000.443297814652
 30
0.0
 40
5.0
100
AcDbArc
 50
180.0
 51
270.0
  0
ARC
  5
16FC4
330
747D
100
AcDbEntity
  8
細線
  6
Continuous
370
    15
100
AcDbCircle
 10
5341.548758650379
 20
4009.52366132285
 30
0.0
 40
6.898178997000096
100
AcDbArc
 50
281.1228560456502
 51
348.8771439544009
  0
ARC
  5
16FC5
330
747D
100
AcDbEntity
  8
細線
  6
Continuous
370
    15
100
AcDbCircle
 10
5341.548810676736
 20
4079.3629167146
 30
0.0
 40
6.89811791144148
100
AcDbArc
 50
11.12251539540163
 51
78.87748460464951
  0
LINE
  5
16FC6
330
747D
100
AcDbEntity
  8
細線
  6
Continuous
370
    15
100
AcDbLine
 10
5330.826944014122
 20
4006.013134431168
 30
0.0
 11
5330.826944014122
 21
4082.981693219468
 31
0.0
  0
ARC
  5
16FC7
330
747D
100
AcDbEntity
  8
細線
  6
Continuous
370
    15
100
AcDbCircle
 10
5328.826944014122
 20
4082.981693219468
 30
0.0
 40
2.0
100
AcDbArc
 50
0.0
 51
90.0
  0
ARC
  5
16FC8
330
747D
100
AcDbEntity
  8
細線
  6
Continuous
370
    15
100
AcDbCircle
 10
5328.826933092852
 20
4005.997429227153
 30
0.0
 40
2.0
100
AcDbArc
 50
262.8149626715364
 51
0.0
  0
LWPOLYLINE
  5
16FC9
330
747D
100
AcDbEntity
  8
細線
 48
50.0
100
AcDbPolyline
 90
        4
 70
     1
 43
0.0
 10
5341.991251608422
 20
3963.614894341752
 10
5339.467084309151
 20
3963.614894341752
 10
5339.467084309151
 20
3973.271681260392
 10
5341.991251608422
 20
3973.271681260392
  0
LINE
  5
16FCA
330
747D
100
AcDbEntity
  8
細線
  6
Continuous
370
    15
100
AcDbLine
 10
5328.826944014122
 20
4004.013134431168
 30
0.0
 11
5323.148167034676
 21
4004.01313443117
 31
0.0
  0
LINE
  5
16FCB
330
747D
100
AcDbEntity
  8
細線
  6
Continuous
370
    15
100
AcDbLine
 10
5317.556953331521
 20
4005.013134431169
 30
0.0
 11
5317.556953331521
 21
4083.981693219468
 31
0.0
  0
ARC
  5
16FCC
330
747D
100
AcDbEntity
  8
細線
  6
Continuous
370
    15
100
AcDbCircle
 10
5318.55695333152
 20
4083.981693219468
 30
0.0
 40
1.0
100
AcDbArc
 50
90.0
 51
180.0
  0
LINE
  5
16FCD
330
747D
100
AcDbEntity
  8
細線
  6
Continuous
370
    15
100
AcDbLine
 10
5323.142951628258
 20
4084.981693219468
 30
0.0
 11
5318.55695333152
 21
4084.981693219468
 31
0.0
  0
LINE
  5
16FCE
330
747D
100
AcDbEntity
  8
細線
  6
Continuous
370
    15
100
AcDbLine
 10
5323.148167034676
 20
4004.013134431168
 30
0.0
 11
5318.55695333152
 21
4004.013134431168
 31
0.0
  0
ARC
  5
16FCF
330
747D
100
AcDbEntity
  8
細線
  6
Continuous
370
    15
100
AcDbCircle
 10
5318.55695333152
 20
4005.013134431169
 30
0.0
 40
1.0
100
AcDbArc
 50
180.0
 51
270.0
  0
LINE
  5
16FD0
330
747D
100
AcDbEntity
  8
細線
  6
Continuous
370
    15
100
AcDbLine
 10
5328.826944014122
 20
4084.981693219468
 30
0.0
 11
5323.027474803236
 21
4084.981693219468
 31
0.0
  0
LWPOLYLINE
  5
16FD1
330
747D
100
AcDbEntity
  8
細線
  6
Continuous
370
    15
100
AcDbPolyline
 90
        3
 70
   128
 43
0.0
 10
6294.142383238364
 20
3975.456847142504
 10
6294.213968416739
 20
3975.43258805208
 10
6294.229167601157
 20
3975.429905843066
  0
ARC
  5
16FD2
330
747D
100
AcDbEntity
  8
細線
  6
Continuous
370
    15
100
AcDbCircle
 10
6290.729155735467
 20
3968.443272864958
 30
0.0
 40
7.799999999999959
100
AcDbArc
 50
64.04961909222373
 51
115.6437752580401
  0
LWPOLYLINE
  5
16FD3
330
747D
100
AcDbEntity
  8
細線
  6
Continuous
370
    15
100
AcDbPolyline
 90
        3
 70
   128
 43
0.0
 10
6287.229168316413
 20
3975.445462655352
 10
6287.281799217749
 20
3975.451125096606
 10
6287.353503605414
 20
3975.474966954516
  0
SPLINE
  5
16FD4
330
747D
100
AcDbEntity
  8
細線
  6
Continuous
370
    15
100
AcDbSpline
210
0.0
220
0.0
230
1.0
 70
     8
 71
     3
 72
     9
 73
     5
 74
     0
 42
0.000000001
 43
0.0000000001
 40
0.0
 40
0.0
 40
0.0
 40
0.0
 40
0.7237658969060897
 40
1.0
 40
1.0
 40
1.0
 40
1.0
 10
6272.634076973487
 20
4002.755059193895
 30
0.0
 10
6272.829818470409
 20
4002.983740636106
 30
0.0
 10
6273.100267102715
 20
4003.299701146522
 30
0.0
 10
6273.137799348425
 20
4003.858715580401
 30
0.0
 10
6273.148167034674
 20
4004.013134431169
 30
0.0
  0
SPLINE
  5
16FD5
330
747D
100
AcDbEntity
  8
細線
  6
Continuous
370
    15
100
AcDbSpline
210
0.0
220
0.0
230
1.0
 70
     8
 71
     3
 72
     9
 73
     5
 74
     0
 42
0.000000001
 43
0.0000000001
 40
0.0
 40
0.0
 40
0.0
 40
0.0
 40
0.1817420378681831
 40
1.0
 40
1.0
 40
1.0
 40
1.0
 10
6273.142951628257
 20
4084.981693219469
 30
0.0
 10
6273.135955963756
 20
4085.076207685883
 30
0.0
 10
6273.097463688703
 20
4085.596255042724
 30
0.0
 10
6272.842611668316
 20
4085.890609191369
 30
0.0
 10
6272.634076973487
 20
4086.131466817186
 30
0.0
  0
LINE
  5
16FD6
330
747D
100
AcDbEntity
  8
細線
  6
Continuous
370
    15
100
AcDbLine
 10
6298.317360779334
 20
4080.693615865038
 30
0.0
 11
6298.317360779334
 21
4008.192910146044
 31
0.0
  0
LINE
  5
16FD7
330
747D
100
AcDbEntity
  8
細線
  6
Continuous
370
    15
100
AcDbLine
 10
6292.879509827185
 20
4002.755059193895
 30
0.0
 11
6272.634076973487
 21
4002.755059193895
 31
0.0
  0
ELLIPSE
  5
16FD8
330
747D
100
AcDbEntity
  8
細線
  6
Continuous
370
    15
100
AcDbEllipse
 10
6267.829155735502
 20
4003.904195395431
 30
0.0
 11
5.399999999999976
 21
0.0
 31
0.0
210
0.0
220
0.0
230
1.0
 40
0.4663076581550023
 41
5.04728513882407
 42
5.809296398627029
  0
LINE
  5
16FD9
330
747D
100
AcDbEntity
  8
細線
  6
Continuous
370
    15
100
AcDbLine
 10
6269.603985449363
 20
4001.526011418627
 30
0.0
 11
6267.829167744208
 21
4001.526011418627
 31
0.0
  0
LINE
  5
16FDA
330
747D
100
AcDbEntity
  8
細線
  6
Continuous
370
    15
100
AcDbLine
 10
6267.829167744208
 20
4087.360514592455
 30
0.0
 11
6269.603985449363
 21
4087.360514592455
 31
0.0
  0
ELLIPSE
  5
16FDB
330
747D
100
AcDbEntity
  8
細線
  6
Continuous
370
    15
100
AcDbEllipse
 10
6267.829155735502
 20
4084.982350334469
 30
0.0
 11
5.399999999999976
 21
0.0
 31
0.0
210
0.0
220
0.0
230
1.0
 40
0.4663076581550023
 41
0.4738889085525403
 42
1.235900168355494
  0
LINE
  5
16FDC
330
747D
100
AcDbEntity
  8
細線
  6
Continuous
370
    15
100
AcDbLine
 10
6272.634076973487
 20
4086.131466817186
 30
0.0
 11
6292.879509827185
 21
4086.131466817186
 31
0.0
  0
ELLIPSE
  5
16FDD
330
747D
100
AcDbEntity
  8
細線
  6
Continuous
370
    15
100
AcDbEllipse
 10
6267.829155735502
 20
4084.050385634184
 30
0.0
 11
0.0
 21
-3.310133756887523
 31
0.0
210
0.0
220
0.0
230
1.0
 40
0.9063077870366367
 41
3.141592653589783
 42
4.712388980384702
  0
ELLIPSE
  5
16FDE
330
747D
100
AcDbEntity
  8
細線
  6
Continuous
370
    15
100
AcDbEllipse
 10
6267.829155735502
 20
4004.836160095731
 30
0.0
 11
0.0
 21
-3.310133756887466
 31
0.0
210
0.0
220
0.0
230
1.0
 40
0.9063077870366523
 41
4.712388980384702
 42
6.283185307179586
  0
ARC
  5
16FDF
330
747D
100
AcDbEntity
  8
細線
  6
Continuous
370
    15
100
AcDbCircle
 10
6290.729155735467
 20
3968.443272864958
 30
0.0
 40
7.499999999999996
100
AcDbArc
 50
120.3006176375393
 51
59.69938236246067
  0
SPLINE
  5
16FE0
330
747D
100
AcDbEntity
  8
細線
  6
Continuous
370
    15
100
AcDbSpline
210
0.0
220
0.0
230
1.0
 70
    24
 71
     3
 72
     9
 73
     5
 74
     0
 42
0.000000001
 43
0.0000000001
 40
0.0
 40
0.0
 40
0.0
 40
0.0
 40
0.8663703693180105
 40
1.0
 40
1.0
 40
1.0
 40
1.0
 10
6287.229168316413
 20
3975.252641629504
 30
0.0
 10
6287.229168316413
 20
3975.200270069315
 30
0.0
 10
6287.229168316413
 20
3975.139820679501
 30
0.0
 10
6287.229168316413
 20
3975.083972831492
 30
0.0
 10
6287.229168316413
 20
3975.076509904192
 30
0.0
  0
LINE
  5
16FE1
330
747D
100
AcDbEntity
  8
細線
  6
Continuous
370
    15
100
AcDbLine
 10
6287.229168316413
 20
3975.076509904192
 30
0.0
 11
6286.945122381736
 21
3974.918676804827
 31
0.0
  0
LINE
  5
16FE2
330
747D
100
AcDbEntity
  8
細線
  6
Continuous
370
    15
100
AcDbLine
 10
6294.513183733512
 20
3974.918676804827
 30
0.0
 11
6294.229167601157
 21
3975.076509904192
 31
0.0
  0
SPLINE
  5
16FE3
330
747D
100
AcDbEntity
  8
細線
  6
Continuous
370
    15
100
AcDbSpline
210
0.0
220
0.0
230
1.0
 70
    24
 71
     3
 72
     9
 73
     5
 74
     0
 42
0.000000001
 43
0.0000000001
 40
0.0
 40
0.0
 40
0.0
 40
0.0
 40
0.8651188723649402
 40
1.0
 40
1.0
 40
1.0
 40
1.0
 10
6294.229167601157
 20
3975.076509904192
 30
0.0
 10
6294.229167601157
 20
3975.126597221623
 30
0.0
 10
6294.229167601157
 20
3975.184493678436
 30
0.0
 10
6294.229167601157
 20
3975.244542215153
 30
0.0
 10
6294.229167601157
 20
3975.252641629504
 30
0.0
  0
ARC
  5
16FE4
330
747D
100
AcDbEntity
  8
細線
  6
Continuous
370
    15
100
AcDbCircle
 10
6290.729155735467
 20
3968.443272864958
 30
0.0
 40
9.499999999999973
100
AcDbArc
 50
69.15570700480905
 51
110.8442929951909
  0
LINE
  5
16FE5
330
747D
100
AcDbEntity
  8
細線
  6
Continuous
370
    15
100
AcDbLine
 10
6294.229167601157
 20
3975.252641629504
 30
0.0
 11
6294.229167601157
 21
3977.147950124071
 31
0.0
  0
LINE
  5
16FE6
330
747D
100
AcDbEntity
  8
細線
  6
Continuous
370
    15
100
AcDbLine
 10
6287.229168316413
 20
3977.147950124071
 30
0.0
 11
6287.229168316413
 21
3975.252641629504
 31
0.0
  0
LINE
  5
16FE7
330
747D
100
AcDbEntity
  8
細線
  6
Continuous
370
    15
100
AcDbLine
 10
6294.229167601157
 20
3977.147950124071
 30
0.0
 11
6294.229167601157
 21
3977.275027226733
 31
0.0
  0
LINE
  5
16FE8
330
747D
100
AcDbEntity
  8
細線
  6
Continuous
370
    15
100
AcDbLine
 10
6294.229167601157
 20
3977.275027226733
 30
0.0
 11
6294.109541079093
 21
3977.321518849657
 31
0.0
  0
LINE
  5
16FE9
330
747D
100
AcDbEntity
  8
細線
  6
Continuous
370
    15
100
AcDbLine
 10
6287.348765036155
 20
3977.321518849657
 30
0.0
 11
6287.229168316413
 21
3977.275027226733
 31
0.0
  0
LINE
  5
16FEA
330
747D
100
AcDbEntity
  8
細線
  6
Continuous
370
    15
100
AcDbLine
 10
6287.229168316413
 20
3977.275027226733
 30
0.0
 11
6287.229168316413
 21
3977.147950124071
 31
0.0
  0
ARC
  5
16FEB
330
747D
100
AcDbEntity
  8
細線
  6
Continuous
370
    15
100
AcDbCircle
 10
6307.729155735468
 20
4108.443272864958
 30
0.0
 40
6.0
100
AcDbArc
 50
0.0
 51
90.0
  0
LINE
  5
16FEC
330
747D
100
AcDbEntity
  8
細線
  6
Continuous
370
    15
100
AcDbLine
 10
6313.729154964972
 20
4108.443273495958
 30
0.0
 11
6313.729154964972
 21
3940.443290662096
 31
0.0
  0
LINE
  5
16FED
330
747D
100
AcDbEntity
  8
細線
  6
Continuous
370
    15
100
AcDbLine
 10
6255.729156633902
 20
3940.443290662096
 30
0.0
 11
6255.729156633902
 21
4108.443273495958
 31
0.0
  0
LINE
  5
16FEE
330
747D
100
AcDbEntity
  8
細線
  6
Continuous
370
    15
100
AcDbLine
 10
6261.72916879325
 20
4114.443315457628
 30
0.0
 11
6307.729142805625
 21
4114.443315457628
 31
0.0
  0
ARC
  5
16FEF
330
747D
100
AcDbEntity
  8
細線
  6
Continuous
370
    15
100
AcDbCircle
 10
6307.729155735468
 20
3940.443272864958
 30
0.0
 40
6.0
100
AcDbArc
 50
270.0
 51
0.0
  0
ARC
  5
16FF0
330
747D
100
AcDbEntity
  8
細線
  6
Continuous
370
    15
100
AcDbCircle
 10
6261.729155735467
 20
4108.443272864958
 30
0.0
 40
6.0
100
AcDbArc
 50
90.0
 51
180.0
  0
LINE
  5
16FF1
330
747D
100
AcDbEntity
  8
細線
  6
Continuous
370
    15
100
AcDbLine
 10
6307.729142805625
 20
3934.443248700426
 30
0.0
 11
6261.72916879325
 21
3934.443248700426
 31
0.0
  0
ARC
  5
16FF2
330
747D
100
AcDbEntity
  8
細線
  6
Continuous
370
    15
100
AcDbCircle
 10
6261.729155735467
 20
3940.443272864958
 30
0.0
 40
6.0
100
AcDbArc
 50
180.0
 51
270.0
  0
LINE
  5
16FF3
330
747D
100
AcDbEntity
  8
細線
  6
Continuous
370
    15
100
AcDbLine
 10
6296.825456520606
 20
3978.675497960375
 30
0.0
 11
6296.825456520606
 21
3974.660111855791
 31
0.0
  0
ARC
  5
16FF4
330
747D
100
AcDbEntity
  8
細線
  6
Continuous
370
    15
100
AcDbCircle
 10
6290.729155735467
 20
3968.443272864958
 30
0.0
 40
8.707106781186586
100
AcDbArc
 50
134.4391355081549
 51
45.56086449184513
  0
LINE
  5
16FF5
330
747D
100
AcDbEntity
  8
細線
  6
Continuous
370
    15
100
AcDbLine
 10
6284.632879396964
 20
3974.660111855791
 30
0.0
 11
6284.632879396964
 21
3978.675497960375
 31
0.0
  0
SPLINE
  5
16FF6
330
747D
100
AcDbEntity
  8
細線
  6
Continuous
370
    15
100
AcDbSpline
210
0.0
220
0.0
230
1.0
 70
     8
 71
     3
 72
    11
 73
     7
 74
     0
 42
0.000000001
 43
0.0000000001
 40
0.0
 40
0.0
 40
0.0
 40
0.0
 40
0.0781314889249488
 40
0.3601777463886433
 40
0.6812698848259567
 40
1.0
 40
1.0
 40
1.0
 40
1.0
 10
6284.82292880683
 20
3978.999628018664
 30
0.0
 10
6284.814066376135
 20
3978.994439903155
 30
0.0
 10
6284.77321152541
 20
3978.970523249638
 30
0.0
 10
6284.704466381843
 20
3978.911212921786
 30
0.0
 10
6284.642424870521
 20
3978.8023476158
 30
0.0
 10
6284.636053380969
 20
3978.717676986376
 30
0.0
 10
6284.632879396964
 20
3978.675497960375
 30
0.0
  0
ARC
  5
16FF7
330
747D
100
AcDbEntity
  8
細線
  6
Continuous
370
    15
100
AcDbCircle
 10
6290.729155735467
 20
3968.443272864958
 30
0.0
 40
12.09629120178367
100
AcDbArc
 50
60.77315626978887
 51
119.2268437302111
  0
SPLINE
  5
16FF8
330
747D
100
AcDbEntity
  8
細線
  6
Continuous
370
    15
100
AcDbSpline
210
0.0
220
0.0
230
1.0
 70
     8
 71
     3
 72
    11
 73
     7
 74
     0
 42
0.000000001
 43
0.0000000001
 40
0.0
 40
0.0
 40
0.0
 40
0.0
 40
0.0779029322309155
 40
0.3600683505069131
 40
0.6812326600027312
 40
1.0
 40
1.0
 40
1.0
 40
1.0
 10
6296.825456520606
 20
3978.675497960375
 30
0.0
 10
6296.825254247442
 20
3978.685734886111
 30
0.0
 10
6296.824319338373
 20
3978.733050087993
 30
0.0
 10
6296.806122328713
 20
3978.821986844169
 30
0.0
 10
6296.741465299628
 20
3978.929351323505
 30
0.0
 10
6296.670671450328
 20
3978.97626102294
 30
0.0
 10
6296.635407110739
 20
3978.999628018664
 30
0.0
  0
LINE
  5
16FF9
330
747D
100
AcDbEntity
  8
細線
  6
Continuous
370
    15
100
AcDbLine
 10
6267.761700054695
 20
4093.443287801073
 30
0.0
 11
6298.629151960899
 21
4093.443287801073
 31
0.0
  0
LINE
  5
16FFA
330
747D
100
AcDbEntity
  8
細線
  6
Continuous
370
    15
100
AcDbLine
 10
6262.761700054694
 20
4000.443297814653
 30
0.0
 11
6262.761700054694
 21
4088.443287801072
 31
0.0
  0
ARC
  5
16FFB
330
747D
100
AcDbEntity
  8
細線
  6
Continuous
370
    15
100
AcDbCircle
 10
6267.761700054695
 20
4088.443287801072
 30
0.0
 40
5.0
100
AcDbArc
 50
90.0
 51
180.0
  0
LINE
  5
16FFC
330
747D
100
AcDbEntity
  8
細線
  6
Continuous
370
    15
100
AcDbLine
 10
6264.829146763373
 20
4084.050385634184
 30
0.0
 11
6264.829146763373
 21
4004.836160095731
 31
0.0
  0
LINE
  5
16FFD
330
747D
100
AcDbEntity
  8
細線
  6
Continuous
370
    15
100
AcDbLine
 10
6305.629151960898
 20
4086.443287801073
 30
0.0
 11
6305.629151960898
 21
4002.443297814653
 31
0.0
  0
ARC
  5
16FFE
330
747D
100
AcDbEntity
  8
細線
  6
Continuous
370
    15
100
AcDbCircle
 10
6298.629151960899
 20
4002.443297814653
 30
0.0
 40
7.0
100
AcDbArc
 50
270.0
 51
0.0
  0
ARC
  5
16FFF
330
747D
100
AcDbEntity
  8
細線
  6
Continuous
370
    15
100
AcDbCircle
 10
6298.629151960899
 20
4086.443287801073
 30
0.0
 40
7.0
100
AcDbArc
 50
0.0
 51
90.0
  0
LINE
  5
17000
330
747D
100
AcDbEntity
  8
細線
  6
Continuous
370
    15
100
AcDbLine
 10
6298.629151960899
 20
3995.443297814654
 30
0.0
 11
6267.761700054695
 21
3995.443297814654
 31
0.0
  0
ARC
  5
17001
330
747D
100
AcDbEntity
  8
細線
  6
Continuous
370
    15
100
AcDbCircle
 10
6267.761700054695
 20
4000.443297814653
 30
0.0
 40
5.0
100
AcDbArc
 50
180.0
 51
270.0
  0
ARC
  5
17002
330
747D
100
AcDbEntity
  8
細線
  6
Continuous
370
    15
100
AcDbCircle
 10
6291.548758650378
 20
4009.523661322851
 30
0.0
 40
6.898178997000096
100
AcDbArc
 50
281.1228560456502
 51
348.8771439544009
  0
ARC
  5
17003
330
747D
100
AcDbEntity
  8
細線
  6
Continuous
370
    15
100
AcDbCircle
 10
6291.548810676736
 20
4079.362916714602
 30
0.0
 40
6.89811791144148
100
AcDbArc
 50
11.12251539540163
 51
78.87748460464951
  0
LINE
  5
17004
330
747D
100
AcDbEntity
  8
細線
  6
Continuous
370
    15
100
AcDbLine
 10
6280.826944014121
 20
4006.013134431169
 30
0.0
 11
6280.826944014121
 21
4082.981693219468
 31
0.0
  0
ARC
  5
17005
330
747D
100
AcDbEntity
  8
細線
  6
Continuous
370
    15
100
AcDbCircle
 10
6278.826944014121
 20
4082.981693219468
 30
0.0
 40
2.0
100
AcDbArc
 50
0.0
 51
90.0
  0
ARC
  5
17006
330
747D
100
AcDbEntity
  8
細線
  6
Continuous
370
    15
100
AcDbCircle
 10
6278.826933092851
 20
4005.997429227153
 30
0.0
 40
2.0
100
AcDbArc
 50
262.8149626715364
 51
0.0
  0
LWPOLYLINE
  5
17007
330
747D
100
AcDbEntity
  8
細線
 48
50.0
100
AcDbPolyline
 90
        4
 70
     1
 43
0.0
 10
6291.99125160842
 20
3963.614894341753
 10
6289.46708430915
 20
3963.614894341753
 10
6289.46708430915
 20
3973.271681260393
 10
6291.99125160842
 20
3973.271681260393
  0
LINE
  5
17008
330
747D
100
AcDbEntity
  8
細線
  6
Continuous
370
    15
100
AcDbLine
 10
6278.826944014121
 20
4004.013134431169
 30
0.0
 11
6273.148167034674
 21
4004.013134431171
 31
0.0
  0
LINE
  5
17009
330
747D
100
AcDbEntity
  8
細線
  6
Continuous
370
    15
100
AcDbLine
 10
6267.556953331519
 20
4005.013134431169
 30
0.0
 11
6267.556953331519
 21
4083.981693219469
 31
0.0
  0
ARC
  5
1700A
330
747D
100
AcDbEntity
  8
細線
  6
Continuous
370
    15
100
AcDbCircle
 10
6268.556953331519
 20
4083.981693219469
 30
0.0
 40
1.0
100
AcDbArc
 50
90.0
 51
180.0
  0
LINE
  5
1700B
330
747D
100
AcDbEntity
  8
細線
  6
Continuous
370
    15
100
AcDbLine
 10
6273.142951628257
 20
4084.981693219469
 30
0.0
 11
6268.556953331519
 21
4084.981693219469
 31
0.0
  0
LINE
  5
1700C
330
747D
100
AcDbEntity
  8
細線
  6
Continuous
370
    15
100
AcDbLine
 10
6273.148167034674
 20
4004.013134431169
 30
0.0
 11
6268.556953331519
 21
4004.013134431169
 31
0.0
  0
ARC
  5
1700D
330
747D
100
AcDbEntity
  8
細線
  6
Continuous
370
    15
100
AcDbCircle
 10
6268.556953331519
 20
4005.013134431169
 30
0.0
 40
1.0
100
AcDbArc
 50
180.0
 51
270.0
  0
LINE
  5
1700E
330
747D
100
AcDbEntity
  8
細線
  6
Continuous
370
    15
100
AcDbLine
 10
6278.826944014121
 20
4084.981693219469
 30
0.0
 11
6273.027474803235
 21
4084.981693219469
 31
0.0
  0
TEXT
  5
17014
330
747D
100
AcDbEntity
  8
文字
 62
     7
 48
50.0
100
AcDbText
 10
15047.13957933145
 20
1031.557706291228
 30
0.0
 40
100.0
  1
     <縮尺> S=1/40
  7
STYLE2
100
AcDbText
  0
DIMENSION
  5
1707C
330
747D
100
AcDbEntity
  8
寸法
100
AcDbDimension
  2
*D34
 10
8933.637978502083
 20
3107.943315457633
 30
0.0
 11
8933.637978502083
 21
4012.978327334018
 31
0.0
 70
   160
 71
     5
 42
1789.999999999997
  3
INABA_S40G
100
AcDbAlignedDimension
 13
9535.601069194287
 23
4897.94331545763
 33
0.0
 14
9528.598699149508
 24
3107.943315457633
 34
0.0
 50
90.0
100
AcDbRotatedDimension
1001
ACAD
1000
DSTYLE
1002
{
1070
   288
1070
     1
1002
}
  0
LINE
  5
1707D
330
747D
100
AcDbEntity
  8
部品1
 48
50.0
100
AcDbLine
 10
9528.598699149508
 20
4888.943426907377
 30
0.0
 11
9535.601069194287
 21
4888.943426907377
 31
0.0
  0
LINE
  5
1707E
330
747D
100
AcDbEntity
  8
部品1
 48
0.2
100
AcDbLine
 10
9528.598699149508
 20
4897.843426907376
 30
0.0
 11
9528.598699149508
 21
4888.943426907377
 31
0.0
  0
LINE
  5
1707F
330
747D
100
AcDbEntity
  8
部品1
 48
50.0
100
AcDbLine
 10
9528.598699149508
 20
3102.043426907368
 30
0.0
 11
9535.601069194287
 21
3102.043426907368
 31
0.0
  0
LINE
  5
17080
330
747D
100
AcDbEntity
  8
部品1
 48
0.2
100
AcDbLine
 10
9528.598699149508
 20
3110.943426907368
 30
0.0
 11
9528.598699149508
 21
3102.043426907369
 31
0.0
  0
LINE
  5
17081
330
747D
100
AcDbEntity
  8
部品1
 48
50.0
100
AcDbLine
 10
9528.598699149508
 20
3110.943426907368
 30
0.0
 11
9535.601069194287
 21
3110.943426907368
 31
0.0
  0
LINE
  5
17082
330
747D
100
AcDbEntity
  8
部品
 48
50.0
100
AcDbLine
 10
9528.598699149508
 20
4897.843426907376
 30
0.0
 11
9535.601069194287
 21
4897.843426907376
 31
0.0
  0
ENDSEC
  0
SECTION
  2
OBJECTS
  0
DICTIONARY
  5
7471
330
0
100
AcDbDictionary
281
     1
  3
ACAD_CIP_PREVIOUS_PRODUCT_INFO
350
16EFA
  3
ACAD_COLOR
350
159F9
  3
ACAD_DETAILVIEWSTYLE
350
16EF0
  3
ACAD_GROUP
350
7472
  3
ACAD_LAYOUT
350
159FA
  3
ACAD_MATERIAL
350
159F8
  3
ACAD_MLEADERSTYLE
350
16EEC
  3
ACAD_MLINESTYLE
350
7473
  3
ACAD_PLOTSETTINGS
350
159FB
  3
ACAD_PLOTSTYLENAME
350
159F6
  3
ACAD_SCALELIST
350
16EDA
  3
ACAD_SECTIONVIEWSTYLE
350
16EEE
  3
ACAD_TABLESTYLE
350
16ED8
  3
ACAD_VISUALSTYLE
350
16EBF
  3
ACDB_RECOMPOSE_DATA
350
170B9
  3
AcDbVariableDictionary
350
17032
  3
AcDsDecomposeData
350
170C0
  3
CONTENTDICTIONARY
350
E71C
  3
DRAWINGVARIABLESDICT
350
F3B9
  3
DWGPROPS
350
170BA
  0
DICTIONARY
  5
15B73
330
7467
100
AcDbDictionary
280
     1
281
     1
  3
ACAD_LAYERSTATES
360
15B74
  0
DICTIONARY
  5
17017
330
7474
100
AcDbDictionary
280
     1
281
     1
  3
ADSK_XREC_LAYER_RECONCILED
360
17018
  0
DICTIONARY
  5
17019
330
DEB2
100
AcDbDictionary
280
     1
281
     1
  3
ADSK_XREC_LAYER_RECONCILED
360
1701A
  0
DICTIONARY
  5
1701B
330
DEB3
100
AcDbDictionary
280
     1
281
     1
  3
ADSK_XREC_LAYER_RECONCILED
360
1701C
  0
DICTIONARY
  5
1701D
330
DEB4
100
AcDbDictionary
280
     1
281
     1
  3
ADSK_XREC_LAYER_RECONCILED
360
1701E
  0
DICTIONARY
  5
1701F
330
DEB5
100
AcDbDictionary
280
     1
281
     1
  3
ADSK_XREC_LAYER_RECONCILED
360
17020
  0
DICTIONARY
  5
17021
330
DEB6
100
AcDbDictionary
280
     1
281
     1
  3
ADSK_XREC_LAYER_RECONCILED
360
17022
  0
DICTIONARY
  5
17023
330
10B54
100
AcDbDictionary
280
     1
281
     1
  3
ADSK_XREC_LAYER_RECONCILED
360
17024
  0
DICTIONARY
  5
17025
330
11729
100
AcDbDictionary
280
     1
281
     1
  3
ADSK_XREC_LAYER_RECONCILED
360
17026
  0
DICTIONARY
  5
17027
330
1173F
100
AcDbDictionary
280
     1
281
     1
  3
ADSK_XREC_LAYER_RECONCILED
360
17028
  0
DICTIONARY
  5
17029
330
118A1
100
AcDbDictionary
280
     1
281
     1
  3
ADSK_XREC_LAYER_RECONCILED
360
1702A
  0
DICTIONARY
  5
1702B
330
123C1
100
AcDbDictionary
280
     1
281
     1
  3
ADSK_XREC_LAYER_RECONCILED
360
1702C
  0
DICTIONARY
  5
1706E
330
1706D
100
AcDbDictionary
280
     1
281
     1
  0
XRECORD
  5
16EFA
102
{ACAD_REACTORS
330
7471
102
}
330
7471
100
AcDbXrecord
280
     1
300
ACDLT
300
2014
300
ACDLT_F_S
  0
DICTIONARY
  5
159F9
102
{ACAD_REACTORS
330
7471
102
}
330
7471
100
AcDbDictionary
281
     1
  0
DICTIONARY
  5
16EF0
102
{ACAD_REACTORS
330
7471
102
}
330
7471
100
AcDbDictionary
281
     1
  3
Metric50
350
16EF1
  0
DICTIONARY
  5
7472
102
{ACAD_REACTORS
330
7471
102
}
330
7471
100
AcDbDictionary
281
     1
  0
DICTIONARY
  5
159FA
102
{ACAD_REACTORS
330
7471
102
}
330
7471
100
AcDbDictionary
281
     1
  3
Model
350
159FC
  3
レイアウト1
350
159FD
  0
DICTIONARY
  5
159F8
102
{ACAD_REACTORS
330
7471
102
}
330
7471
100
AcDbDictionary
281
     1
  3
ByBlock
350
16EAF
  3
ByLayer
350
16EA7
  3
Global
350
16EB7
  0
DICTIONARY
  5
16EEC
102
{ACAD_REACTORS
330
7471
102
}
330
7471
100
AcDbDictionary
281
     1
  3
Standard
350
16EED
  0
DICTIONARY
  5
7473
102
{ACAD_REACTORS
330
7471
102
}
330
7471
100
AcDbDictionary
281
     1
  3
STANDARD
350
7480
  0
DICTIONARY
  5
159FB
102
{ACAD_REACTORS
330
7471
102
}
330
7471
100
AcDbDictionary
281
     1
  0
ACDBDICTIONARYWDFLT
  5
159F6
102
{ACAD_REACTORS
330
7471
102
}
330
7471
100
AcDbDictionary
281
     1
  3
Normal
350
159F7
100
AcDbDictionaryWithDefault
340
159F7
  0
DICTIONARY
  5
16EDA
102
{ACAD_REACTORS
330
7471
102
}
330
7471
100
AcDbDictionary
281
     1
  3
A0
350
16EDB
  3
A1
350
16EDC
  3
A2
350
16EDD
  3
A3
350
16EDE
  3
A4
350
16EDF
  3
A5
350
16EE0
  3
A6
350
16EE1
  3
A7
350
16EE2
  3
A8
350
16EE3
  3
A9
350
16EE4
  3
B0
350
16EE5
  3
B1
350
16EE6
  3
B2
350
16EE7
  3
B3
350
16EE8
  3
B4
350
16EE9
  3
B5
350
16EEA
  3
B6
350
16EEB
  0
DICTIONARY
  5
16EEE
102
{ACAD_REACTORS
330
7471
102
}
330
7471
100
AcDbDictionary
281
     1
  3
Metric50
350
16EEF
  0
DICTIONARY
  5
16ED8
102
{ACAD_REACTORS
330
7471
102
}
330
7471
100
AcDbDictionary
281
     1
  3
Standard
350
16ED9
  0
DICTIONARY
  5
16EBF
102
{ACAD_REACTORS
330
7471
102
}
330
7471
100
AcDbDictionary
281
     1
  3
2dWireframe
350
16EC5
  3
Basic
350
16EC4
  3
Brighten
350
16ECB
  3
ColorChange
350
16ECF
  3
Conceptual
350
16EC8
  3
Dim
350
16ECA
  3
EdgeColorOff
350
16ED7
  3
Facepattern
350
16ECE
  3
Flat
350
16EC0
  3
FlatWithEdges
350
16EC1
  3
Gouraud
350
16EC2
  3
GouraudWithEdges
350
16EC3
  3
Hidden
350
16EC7
  3
JitterOff
350
16ED5
  3
Linepattern
350
16ECD
  3
OverhangOff
350
16ED6
  3
Realistic
350
16EC9
  3
Shaded
350
16ED4
  3
Shaded with edges
350
16ED3
  3
Shades of Gray
350
16ED0
  3
Sketchy
350
16ED1
  3
Thicken
350
16ECC
  3
Wireframe
350
16EC6
  3
X-Ray
350
16ED2
  0
XRECORD
  5
170B9
102
{ACAD_REACTORS
330
7471
102
}
330
7471
100
AcDbXrecord
280
     1
 90
        1
330
155B4
330
16BE0
330
16BE1
330
16ED9
  0
DICTIONARY
  5
17032
102
{ACAD_REACTORS
330
7471
102
}
330
7471
100
AcDbDictionary
281
     1
  3
CANNOSCALE
350
17038
  3
CMLEADERSTYLE
350
17034
  3
CTABLESTYLE
350
17033
  3
CVIEWDETAILSTYLE
350
17035
  3
CVIEWSECTIONSTYLE
350
17036
  3
DIMASSOC
350
170B6
  3
INDEXCTL
350
170B4
  3
LAYEREVAL
350
1703A
  3
LAYERNOTIFY
350
1703B
  3
LIGHTINGUNITS
350
17039
  3
MSLTSCALE
350
17037
  3
SORTENTS
350
170B3
  3
XCLIPFRAME
350
170B5
  0
DICTIONARY
  5
170C0
102
{ACAD_REACTORS
330
7471
102
}
330
7471
100
AcDbDictionary
281
     1
  3
AcDsRecords
350
170C2
  3
AcDsSchemas
350
170C1
1001
ACAD
1070
     2
  0
DICTIONARY
  5
E71C
102
{ACAD_REACTORS
330
7471
102
}
330
7471
100
AcDbDictionary
281
     1
  0
DICTIONARY
  5
F3B9
102
{ACAD_REACTORS
330
7471
102
}
330
7471
100
AcDbDictionary
281
     1
1001
DRAWINGVARIABLESXDATA
1000
POLARMODE
1000
1
  0
XRECORD
  5
170BA
102
{ACAD_REACTORS
330
7471
102
}
330
7471
100
AcDbXrecord
280
     1
  1
DWGPROPS COOKIE
  2

  3

  4

  6

  7

  8
TSUJIKAWA
  9

300
=
301
=
302
=
303
=
304
=
305
=
306
=
307
=
308
=
309
=
 40
0.510379837962963
 41
2452116.684896065
 42
2457984.463946644
  1

 90
        0
  0
DICTIONARY
  5
15B74
102
{ACAD_REACTORS
330
15B73
102
}
330
15B73
100
AcDbDictionary
281
     1
  0
XRECORD
  5
17018
102
{ACAD_REACTORS
330
17017
102
}
330
17017
100
AcDbXrecord
280
     1
290
     1
  0
XRECORD
  5
1701A
102
{ACAD_REACTORS
330
17019
102
}
330
17019
100
AcDbXrecord
280
     1
290
     1
  0
XRECORD
  5
1701C
102
{ACAD_REACTORS
330
1701B
102
}
330
1701B
100
AcDbXrecord
280
     1
290
     1
  0
XRECORD
  5
1701E
102
{ACAD_REACTORS
330
1701D
102
}
330
1701D
100
AcDbXrecord
280
     1
290
     1
  0
XRECORD
  5
17020
102
{ACAD_REACTORS
330
1701F
102
}
330
1701F
100
AcDbXrecord
280
     1
290
     1
  0
XRECORD
  5
17022
102
{ACAD_REACTORS
330
17021
102
}
330
17021
100
AcDbXrecord
280
     1
290
     1
  0
XRECORD
  5
17024
102
{ACAD_REACTORS
330
17023
102
}
330
17023
100
AcDbXrecord
280
     1
290
     1
  0
XRECORD
  5
17026
102
{ACAD_REACTORS
330
17025
102
}
330
17025
100
AcDbXrecord
280
     1
290
     1
  0
XRECORD
  5
17028
102
{ACAD_REACTORS
330
17027
102
}
330
17027
100
AcDbXrecord
280
     1
290
     1
  0
XRECORD
  5
1702A
102
{ACAD_REACTORS
330
17029
102
}
330
17029
100
AcDbXrecord
280
     1
290
     1
  0
XRECORD
  5
1702C
102
{ACAD_REACTORS
330
1702B
102
}
330
1702B
100
AcDbXrecord
280
     1
290
     1
  0
ACDBDETAILVIEWSTYLE
  5
16EF1
102
{ACAD_XDICTIONARY
360
1702F
102
}
102
{ACAD_REACTORS
330
16EF0
102
}
330
16EF0
100
AcDbModelDocViewStyle
 70
     0
  3
Metric50
290
     0
100
AcDbDetailViewStyle
 70
     0
 71
     0
 90
        3
 71
     1
340
7475
 40
5.0
340
0
 40
5.0
300

 40
0.0
280
     1
 71
     2
340
7479
 90
       25
 71
     3
340
7475
 40
5.0
 90
        0
 40
15.0
 90
        1
300
%<\AcVar ViewDetailId>% (%<\AcVar ViewScale \f "%sn">%)
 71
     4
340
7479
 90
       25
340
7479
 90
       25
280
     0
  0
LAYOUT
  5
159FC
102
{ACAD_XDICTIONARY
360
170C3
102
}
102
{ACAD_REACTORS
330
159FA
102
}
330
159FA
100
AcDbPlotSettings
  1

  2
CubePDF
  4
A3
  6

 40
3.174999952316284
 41
3.174999952316284
 42
3.17498779296875
 43
3.17498779296875
 44
420.1583251953125
 45
297.0318298339844
 46
0.6042196843820023
 47
0.0
 48
424.6042489999999
 49
264.156711
140
1777.606053
141
968.930615
142
1.0
143
39.98278751715608
 70
  3764
 72
     1
 73
     0
 74
     2
  7
inabass.ctb
 75
     0
147
0.0250107624329823
148
25.79074261211281
149
125.8223078213959
100
AcDbLayout
  1
Model
 70
     1
 71
     0
 10
0.0
 20
0.0
 11
12.0
 21
9.0
 12
0.0
 22
0.0
 32
0.0
 14
0.0
 24
0.0
 34
0.0
 15
0.0
 25
0.0
 35
0.0
146
0.0
 13
0.0
 23
0.0
 33
0.0
 16
1.0
 26
0.0
 36
0.0
 17
0.0
 27
1.0
 37
0.0
 76
     0
330
747D
331
16EA5
1001
ACAD_PSEXT
1000
CubePDF
1000
CubePDF
1000
CubePDF:
1000
CubePDF
1070
     0
  0
LAYOUT
  5
159FD
102
{ACAD_XDICTIONARY
360
170C5
102
}
102
{ACAD_REACTORS
330
159FA
102
}
330
159FA
100
AcDbPlotSettings
  1

  2
Microsoft Office Document Image Writer
  4

  6

 40
0.0
 41
0.0
 42
0.0
 43
0.0
 44
0.0
 45
0.0
 46
0.0
 47
0.0
 48
0.0
 49
0.0
140
0.0
141
0.0
142
1.0
143
1.0
 70
   688
 72
     0
 73
     0
 74
     5
  7

 75
    16
147
1.0
148
0.0
149
0.0
100
AcDbLayout
  1
レイアウト1
 70
     0
 71
     1
 10
0.0
 20
0.0
 11
420.0
 21
297.0
 12
0.0
 22
0.0
 32
0.0
 14
1.000000000000000E+20
 24
1.000000000000000E+20
 34
1.000000000000000E+20
 15
-1.000000000000000E+20
 25
-1.000000000000000E+20
 35
-1.000000000000000E+20
146
0.0
 13
0.0
 23
0.0
 33
0.0
 16
1.0
 26
0.0
 36
0.0
 17
0.0
 27
1.0
 37
0.0
 76
     0
330
747A
  0
MATERIAL
  5
16EAF
102
{ACAD_XDICTIONARY
360
16EB0
102
}
102
{ACAD_REACTORS
330
159F8
102
}
330
159F8
100
AcDbMaterial
  1
ByBlock
 72
     0
 43
0.0208333333333333
 43
0.0
 43
0.0
 43
0.0
 43
0.0
 43
0.0208333333333333
 43
0.0
 43
0.0
 43
0.0
 43
0.0
 43
1.0
 43
0.0
 43
0.0
 43
0.0
 43
0.0
 43
1.0
 77
     0
 47
0.0208333333333333
 47
0.0
 47
0.0
 47
0.0
 47
0.0
 47
0.0208333333333333
 47
0.0
 47
0.0
 47
0.0
 47
0.0
 47
1.0
 47
0.0
 47
0.0
 47
0.0
 47
0.0
 47
1.0
171
     0
 49
0.0208333333333333
 49
0.0
 49
0.0
 49
0.0
 49
0.0
 49
0.0208333333333333
 49
0.0
 49
0.0
 49
0.0
 49
0.0
 49
1.0
 49
0.0
 49
0.0
 49
0.0
 49
0.0
 49
1.0
175
     0
142
0.0208333333333333
142
0.0
142
0.0
142
0.0
142
0.0
142
0.0208333333333333
142
0.0
142
0.0
142
0.0
142
0.0
142
1.0
142
0.0
142
0.0
142
0.0
142
0.0
142
1.0
179
     0
144
0.0208333333333333
144
0.0
144
0.0
144
0.0
144
0.0
144
0.0208333333333333
144
0.0
144
0.0
144
0.0
144
0.0
144
1.0
144
0.0
144
0.0
144
0.0
144
0.0
144
1.0
147
0.0208333333333333
147
0.0
147
0.0
147
0.0
147
0.0
147
0.0208333333333333
147
0.0
147
0.0
147
0.0
147
0.0
147
1.0
147
0.0
147
0.0
147
0.0
147
0.0
147
1.0
  0
MATERIAL
  5
16EA7
102
{ACAD_XDICTIONARY
360
16EA8
102
}
102
{ACAD_REACTORS
330
159F8
102
}
330
159F8
100
AcDbMaterial
  1
ByLayer
 72
     0
 43
0.0208333333333333
 43
0.0
 43
0.0
 43
0.0
 43
0.0
 43
0.0208333333333333
 43
0.0
 43
0.0
 43
0.0
 43
0.0
 43
1.0
 43
0.0
 43
0.0
 43
0.0
 43
0.0
 43
1.0
 77
     0
 47
0.0208333333333333
 47
0.0
 47
0.0
 47
0.0
 47
0.0
 47
0.0208333333333333
 47
0.0
 47
0.0
 47
0.0
 47
0.0
 47
1.0
 47
0.0
 47
0.0
 47
0.0
 47
0.0
 47
1.0
171
     0
 49
0.0208333333333333
 49
0.0
 49
0.0
 49
0.0
 49
0.0
 49
0.0208333333333333
 49
0.0
 49
0.0
 49
0.0
 49
0.0
 49
1.0
 49
0.0
 49
0.0
 49
0.0
 49
0.0
 49
1.0
175
     0
142
0.0208333333333333
142
0.0
142
0.0
142
0.0
142
0.0
142
0.0208333333333333
142
0.0
142
0.0
142
0.0
142
0.0
142
1.0
142
0.0
142
0.0
142
0.0
142
0.0
142
1.0
179
     0
144
0.0208333333333333
144
0.0
144
0.0
144
0.0
144
0.0
144
0.0208333333333333
144
0.0
144
0.0
144
0.0
144
0.0
144
1.0
144
0.0
144
0.0
144
0.0
144
0.0
144
1.0
147
0.0208333333333333
147
0.0
147
0.0
147
0.0
147
0.0
147
0.0208333333333333
147
0.0
147
0.0
147
0.0
147
0.0
147
1.0
147
0.0
147
0.0
147
0.0
147
0.0
147
1.0
  0
MATERIAL
  5
16EB7
102
{ACAD_XDICTIONARY
360
16EB8
102
}
102
{ACAD_REACTORS
330
159F8
102
}
330
159F8
100
AcDbMaterial
  1
Global
 72
     0
 43
0.0208333333333333
 43
0.0
 43
0.0
 43
0.0
 43
0.0
 43
0.0208333333333333
 43
0.0
 43
0.0
 43
0.0
 43
0.0
 43
1.0
 43
0.0
 43
0.0
 43
0.0
 43
0.0
 43
1.0
 77
     0
 47
0.0208333333333333
 47
0.0
 47
0.0
 47
0.0
 47
0.0
 47
0.0208333333333333
 47
0.0
 47
0.0
 47
0.0
 47
0.0
 47
1.0
 47
0.0
 47
0.0
 47
0.0
 47
0.0
 47
1.0
171
     0
 49
0.0208333333333333
 49
0.0
 49
0.0
 49
0.0
 49
0.0
 49
0.0208333333333333
 49
0.0
 49
0.0
 49
0.0
 49
0.0
 49
1.0
 49
0.0
 49
0.0
 49
0.0
 49
0.0
 49
1.0
175
     0
142
0.0208333333333333
142
0.0
142
0.0
142
0.0
142
0.0
142
0.0208333333333333
142
0.0
142
0.0
142
0.0
142
0.0
142
1.0
142
0.0
142
0.0
142
0.0
142
0.0
142
1.0
179
     0
144
0.0208333333333333
144
0.0
144
0.0
144
0.0
144
0.0
144
0.0208333333333333
144
0.0
144
0.0
144
0.0
144
0.0
144
1.0
144
0.0
144
0.0
144
0.0
144
0.0
144
1.0
147
0.0208333333333333
147
0.0
147
0.0
147
0.0
147
0.0
147
0.0208333333333333
147
0.0
147
0.0
147
0.0
147
0.0
147
1.0
147
0.0
147
0.0
147
0.0
147
0.0
147
1.0
  0
MLEADERSTYLE
  5
16EED
102
{ACAD_XDICTIONARY
360
170FC
102
}
102
{ACAD_REACTORS
330
16EEC
102
}
330
16EEC
100
AcDbMLeaderStyle
170
     2
171
     1
172
     0
 90
        2
 40
0.0
 41
0.0
173
     1
 91
-1056964608
340
7477
 92
       -2
290
     1
 42
2.0
291
     1
 43
0.36
  3
Standard
 44
4.0
300

342
7475
174
     1
178
     6
175
     1
176
     0
 93
-1056964608
 45
4.0
292
     0
297
     0
 46
4.0
 94
-1056964608
 47
1.0
 49
1.0
140
1.0
293
     1
141
0.0
294
     1
177
     0
142
1.0
295
     0
296
     0
143
0.125
1001
ACAD_MLEADERVER
1070
     2
  0
MLINESTYLE
  5
7480
102
{ACAD_REACTORS
330
7473
102
}
330
7473
100
AcDbMlineStyle
  2
STANDARD
 70
     0
  3

 62
     0
 51
90.0
 52
90.0
 71
     2
 49
0.5
 62
   256
  6
BYLAYER
 49
-0.5
 62
   256
  6
BYLAYER
  0
ACDBPLACEHOLDER
  5
159F7
102
{ACAD_REACTORS
330
159F6
102
}
330
159F6
  0
SCALE
  5
16EDB
102
{ACAD_REACTORS
330
16EDA
102
}
330
16EDA
100
AcDbScale
 70
     0
300
1:1
140
1.0
141
1.0
290
     1
  0
SCALE
  5
16EDC
102
{ACAD_REACTORS
330
16EDA
102
}
330
16EDA
100
AcDbScale
 70
     0
300
1:2
140
1.0
141
2.0
290
     0
  0
SCALE
  5
16EDD
102
{ACAD_REACTORS
330
16EDA
102
}
330
16EDA
100
AcDbScale
 70
     0
300
1:4
140
1.0
141
4.0
290
     0
  0
SCALE
  5
16EDE
102
{ACAD_REACTORS
330
16EDA
102
}
330
16EDA
100
AcDbScale
 70
     0
300
1:5
140
1.0
141
5.0
290
     0
  0
SCALE
  5
16EDF
102
{ACAD_REACTORS
330
16EDA
102
}
330
16EDA
100
AcDbScale
 70
     0
300
1:8
140
1.0
141
8.0
290
     0
  0
SCALE
  5
16EE0
102
{ACAD_REACTORS
330
16EDA
102
}
330
16EDA
100
AcDbScale
 70
     0
300
1:10
140
1.0
141
10.0
290
     0
  0
SCALE
  5
16EE1
102
{ACAD_REACTORS
330
16EDA
102
}
330
16EDA
100
AcDbScale
 70
     0
300
1:16
140
1.0
141
16.0
290
     0
  0
SCALE
  5
16EE2
102
{ACAD_REACTORS
330
16EDA
102
}
330
16EDA
100
AcDbScale
 70
     0
300
1:20
140
1.0
141
20.0
290
     0
  0
SCALE
  5
16EE3
102
{ACAD_REACTORS
330
16EDA
102
}
330
16EDA
100
AcDbScale
 70
     0
300
1:30
140
1.0
141
30.0
290
     0
  0
SCALE
  5
16EE4
102
{ACAD_REACTORS
330
16EDA
102
}
330
16EDA
100
AcDbScale
 70
     0
300
1:40
140
1.0
141
40.0
290
     0
  0
SCALE
  5
16EE5
102
{ACAD_REACTORS
330
16EDA
102
}
330
16EDA
100
AcDbScale
 70
     0
300
1:50
140
1.0
141
50.0
290
     0
  0
SCALE
  5
16EE6
102
{ACAD_REACTORS
330
16EDA
102
}
330
16EDA
100
AcDbScale
 70
     0
300
1:100
140
1.0
141
100.0
290
     0
  0
SCALE
  5
16EE7
102
{ACAD_REACTORS
330
16EDA
102
}
330
16EDA
100
AcDbScale
 70
     0
300
2:1
140
2.0
141
1.0
290
     0
  0
SCALE
  5
16EE8
102
{ACAD_REACTORS
330
16EDA
102
}
330
16EDA
100
AcDbScale
 70
     0
300
4:1
140
4.0
141
1.0
290
     0
  0
SCALE
  5
16EE9
102
{ACAD_REACTORS
330
16EDA
102
}
330
16EDA
100
AcDbScale
 70
     0
300
8:1
140
8.0
141
1.0
290
     0
  0
SCALE
  5
16EEA
102
{ACAD_REACTORS
330
16EDA
102
}
330
16EDA
100
AcDbScale
 70
     0
300
10:1
140
10.0
141
1.0
290
     0
  0
SCALE
  5
16EEB
102
{ACAD_REACTORS
330
16EDA
102
}
330
16EDA
100
AcDbScale
 70
     0
300
100:1
140
100.0
141
1.0
290
     0
  0
ACDBSECTIONVIEWSTYLE
  5
16EEF
102
{ACAD_XDICTIONARY
360
1702D
102
}
102
{ACAD_REACTORS
330
16EEE
102
}
330
16EEE
100
AcDbModelDocViewStyle
 70
     0
  3
Metric50
290
     0
100
AcDbSectionViewStyle
 70
     0
 71
     0
 90
      102
 71
     1
340
7475
 40
5.0
340
0
340
0
 40
5.0
300
I, O, Q, S, X, Z
 40
10.0
 90
        0
 40
2.5
 90
        0
 71
     2
340
7479
 90
       25
340
7479
 90
       50
 40
5.0
 40
2.5
 40
5.0
 71
     3
340
7475
 40
5.0
 90
        0
 40
15.0
 90
        1
300
%<\AcVar ViewSectionStartId>%-%<\AcVar ViewSectionEndId>% (%<\AcVar ViewScale \f "%sn">%)
 71
     4
300
ANSI31
 40
1.0
 90
        0
290
     0
290
     0
 90
        6
 40
0.0
 40
1.570796326794896
 40
0.2617993877991494
 40
1.308996938995747
 40
-0.2617993877991494
 40
1.832595714594046
  0
TABLESTYLE
  5
16ED9
102
{ACAD_XDICTIONARY
360
170B7
102
}
102
{ACAD_REACTORS
330
16ED8
102
}
330
16ED8
100
AcDbTableStyle
  3
Standard
 70
     0
 71
     0
 40
1.5
 41
1.5
280
     0
281
     0
  7
STANDARD
140
4.5
170
     2
 62
     0
 63
     7
283
     0
274
    -2
284
     1
 64
     0
275
    -2
285
     1
 65
     0
276
    -2
286
     1
 66
     0
277
    -2
287
     1
 67
     0
278
    -2
288
     1
 68
     0
279
    -2
289
     1
 69
     0
  7
STANDARD
140
6.0
170
     5
 62
     0
 63
     7
283
     0
274
    -2
284
     1
 64
     0
275
    -2
285
     1
 65
     0
276
    -2
286
     1
 66
     0
277
    -2
287
     1
 67
     0
278
    -2
288
     1
 68
     0
279
    -2
289
     1
 69
     0
  7
STANDARD
140
4.5
170
     5
 62
     0
 63
     7
283
     0
274
    -2
284
     1
 64
     0
275
    -2
285
     1
 65
     0
276
    -2
286
     1
 66
     0
277
    -2
287
     1
 67
     0
278
    -2
288
     1
 68
     0
279
    -2
289
     1
 69
     0
  0
VISUALSTYLE
  5
16EC5
102
{ACAD_XDICTIONARY
360
170D4
102
}
102
{ACAD_REACTORS
330
16EBF
102
}
330
16EBF
100
AcDbVisualStyle
  2
2dWireframe
 70
     4
 71
     0
 72
     2
 73
     0
 90
        0
 40
-0.6
 41
-30.0
 62
     5
 63
     7
 74
     1
 91
        4
 64
     7
 65
   257
 75
     1
175
     1
 42
1.0
 92
        0
 66
   257
 43
1.0
 76
     1
 77
     6
 78
     2
 67
     7
 79
     5
170
     0
171
     0
290
     0
174
     0
 93
        1
 44
0.0
173
     0
291
     0
 45
0.0
1001
ACAD
1000
AcDbSavedByObjectVersion
1070
     0
  0
VISUALSTYLE
  5
16EC4
102
{ACAD_XDICTIONARY
360
170D2
102
}
102
{ACAD_REACTORS
330
16EBF
102
}
330
16EBF
100
AcDbVisualStyle
  2
Basic
 70
     7
 71
     1
 72
     0
 73
     1
 90
        0
 40
-0.6
 41
-30.0
 62
     5
 63
     7
 74
     0
 91
        4
 64
     7
 65
   257
 75
     1
175
     1
 42
1.0
 92
        8
 66
     7
 43
1.0
 76
     1
 77
     6
 78
     2
 67
     7
 79
     5
170
     0
171
     0
290
     0
174
     0
 93
        1
 44
0.0
173
     0
291
     1
 45
0.0
1001
ACAD
1000
AcDbSavedByObjectVersion
1070
     0
  0
VISUALSTYLE
  5
16ECB
102
{ACAD_XDICTIONARY
360
170E0
102
}
102
{ACAD_REACTORS
330
16EBF
102
}
330
16EBF
100
AcDbVisualStyle
  2
Brighten
 70
    12
 71
     2
 72
     2
 73
     0
 90
        0
 40
-0.6
 41
-30.0
 62
     5
 63
     7
 74
     1
 91
        4
 64
     7
 65
   257
 75
     1
175
     1
 42
1.0
 92
        8
 66
     7
 43
1.0
 76
     1
 77
     6
 78
     2
 67
     7
 79
     5
170
     0
171
     0
290
     0
174
     0
 93
        1
 44
50.0
173
     0
291
     1
 45
0.0
1001
ACAD
1000
AcDbSavedByObjectVersion
1070
     0
  0
VISUALSTYLE
  5
16ECF
102
{ACAD_XDICTIONARY
360
170E8
102
}
102
{ACAD_REACTORS
330
16EBF
102
}
330
16EBF
100
AcDbVisualStyle
  2
ColorChange
 70
    16
 71
     2
 72
     2
 73
     3
 90
        0
 40
-0.6
 41
-30.0
 62
     5
 63
     8
 74
     1
 91
        4
 64
     7
 65
   257
 75
     1
175
     1
 42
1.0
 92
        8
 66
     8
 43
1.0
 76
     1
 77
     6
 78
     2
 67
     7
 79
     5
170
     0
171
     0
290
     0
174
     0
 93
        1
 44
0.0
173
     0
291
     1
 45
0.0
1001
ACAD
1000
AcDbSavedByObjectVersion
1070
     0
  0
VISUALSTYLE
  5
16EC8
102
{ACAD_XDICTIONARY
360
170DA
102
}
102
{ACAD_REACTORS
330
16EBF
102
}
330
16EBF
100
AcDbVisualStyle
  2
Conceptual
 70
     9
 71
     3
 72
     2
 73
     0
 90
        0
 40
-0.6
 41
-30.0
 62
     5
 63
     7
 74
     2
 91
        2
 64
     7
 65
   257
 75
     1
175
     1
 42
179.0
 92
        8
 66
     7
 43
1.0
 76
     1
 77
     6
 78
     2
 67
     7
 79
     3
170
     0
171
     0
290
     0
174
     0
 93
        1
 44
0.0
173
     0
291
     0
 45
0.0
1001
ACAD
1000
AcDbSavedByObjectVersion
1070
     0
  0
VISUALSTYLE
  5
16ECA
102
{ACAD_XDICTIONARY
360
170DE
102
}
102
{ACAD_REACTORS
330
16EBF
102
}
330
16EBF
100
AcDbVisualStyle
  2
Dim
 70
    11
 71
     2
 72
     2
 73
     0
 90
        0
 40
-0.6
 41
-30.0
 62
     5
 63
     7
 74
     1
 91
        4
 64
     7
 65
   257
 75
     1
175
     1
 42
1.0
 92
        8
 66
     7
 43
1.0
 76
     1
 77
     6
 78
     2
 67
     7
 79
     5
170
     0
171
     0
290
     0
174
     0
 93
        1
 44
-50.0
173
     0
291
     1
 45
0.0
1001
ACAD
1000
AcDbSavedByObjectVersion
1070
     0
  0
VISUALSTYLE
  5
16ED7
102
{ACAD_XDICTIONARY
360
170F8
102
}
102
{ACAD_REACTORS
330
16EBF
102
}
330
16EBF
100
AcDbVisualStyle
  2
EdgeColorOff
 70
    22
 71
     2
 72
     2
 73
     0
 90
        0
 40
-0.6
 41
-30.0
 62
     5
 63
     7
 74
     1
 91
        4
 64
     7
 65
   257
 75
     1
175
     1
 42
1.0
 92
        8
 66
     7
 43
1.0
 76
     1
 77
     6
 78
     2
 67
     7
 79
     5
170
     0
171
     0
290
     0
174
     0
 93
        1
 44
0.0
173
     0
291
     1
 45
0.0
1001
ACAD
1000
AcDbSavedByObjectVersion
1070
     0
  0
VISUALSTYLE
  5
16ECE
102
{ACAD_XDICTIONARY
360
170E6
102
}
102
{ACAD_REACTORS
330
16EBF
102
}
330
16EBF
100
AcDbVisualStyle
  2
Facepattern
 70
    15
 71
     2
 72
     2
 73
     0
 90
        0
 40
-0.6
 41
-30.0
 62
     5
 63
     7
 74
     1
 91
        4
 64
     7
 65
   257
 75
     1
175
     1
 42
1.0
 92
        8
 66
     7
 43
1.0
 76
     1
 77
     6
 78
     2
 67
     7
 79
     5
170
     0
171
     0
290
     0
174
     0
 93
        1
 44
0.0
173
     0
291
     1
 45
0.0
1001
ACAD
1000
AcDbSavedByObjectVersion
1070
     0
  0
VISUALSTYLE
  5
16EC0
102
{ACAD_XDICTIONARY
360
170CA
102
}
102
{ACAD_REACTORS
330
16EBF
102
}
330
16EBF
100
AcDbVisualStyle
  2
Flat
 70
     0
 71
     2
 72
     1
 73
     1
 90
        2
 40
-0.6
 41
30.0
 62
     5
 63
     7
 74
     0
 91
        0
 64
     7
 65
   257
 75
     1
175
     1
 42
1.0
 92
        8
 66
     7
 43
1.0
 76
     1
 77
     6
 78
     2
 67
     7
 79
     5
170
     0
171
     0
290
     0
174
     0
 93
       13
 44
0.0
173
     0
291
     1
 45
0.0
1001
ACAD
1000
AcDbSavedByObjectVersion
1070
     0
  0
VISUALSTYLE
  5
16EC1
102
{ACAD_XDICTIONARY
360
170CC
102
}
102
{ACAD_REACTORS
330
16EBF
102
}
330
16EBF
100
AcDbVisualStyle
  2
FlatWithEdges
 70
     1
 71
     2
 72
     1
 73
     1
 90
        2
 40
-0.6
 41
30.0
 62
     5
 63
     7
 74
     1
 91
        0
 64
     7
 65
   257
 75
     1
175
     1
 42
1.0
 92
        0
 66
   257
 43
1.0
 76
     1
 77
     6
 78
     2
 67
     7
 79
     5
170
     0
171
     0
290
     0
174
     0
 93
       13
 44
0.0
173
     0
291
     1
 45
0.0
1001
ACAD
1000
AcDbSavedByObjectVersion
1070
     0
  0
VISUALSTYLE
  5
16EC2
102
{ACAD_XDICTIONARY
360
170CE
102
}
102
{ACAD_REACTORS
330
16EBF
102
}
330
16EBF
100
AcDbVisualStyle
  2
Gouraud
 70
     2
 71
     2
 72
     2
 73
     1
 90
        2
 40
-0.6
 41
30.0
 62
     5
 63
     7
 74
     0
 91
        0
 64
     7
 65
   257
 75
     1
175
     1
 42
1.0
 92
        0
 66
     7
 43
1.0
 76
     1
 77
     6
 78
     2
 67
     7
 79
     5
170
     0
171
     0
290
     0
174
     0
 93
       13
 44
0.0
173
     0
291
     1
 45
0.0
1001
ACAD
1000
AcDbSavedByObjectVersion
1070
     0
  0
VISUALSTYLE
  5
16EC3
102
{ACAD_XDICTIONARY
360
170D0
102
}
102
{ACAD_REACTORS
330
16EBF
102
}
330
16EBF
100
AcDbVisualStyle
  2
GouraudWithEdges
 70
     3
 71
     2
 72
     2
 73
     1
 90
        2
 40
-0.6
 41
30.0
 62
     5
 63
     7
 74
     1
 91
        0
 64
     7
 65
   257
 75
     1
175
     1
 42
1.0
 92
        0
 66
   257
 43
1.0
 76
     1
 77
     6
 78
     2
 67
     7
 79
     5
170
     0
171
     0
290
     0
174
     0
 93
       13
 44
0.0
173
     0
291
     1
 45
0.0
1001
ACAD
1000
AcDbSavedByObjectVersion
1070
     0
  0
VISUALSTYLE
  5
16EC7
102
{ACAD_XDICTIONARY
360
170D8
102
}
102
{ACAD_REACTORS
330
16EBF
102
}
330
16EBF
100
AcDbVisualStyle
  2
Hidden
 70
     6
 71
     1
 72
     2
 73
     2
 90
        0
 40
-0.6
 41
-30.0
 62
     5
 63
     7
 74
     2
 91
        2
 64
     7
 65
   257
 75
     2
175
     1
 42
40.0
 92
        0
 66
   257
 43
1.0
 76
     1
 77
     6
 78
     2
 67
     7
 79
     3
170
     0
171
     0
290
     0
174
     0
 93
        1
 44
0.0
173
     0
291
     0
 45
0.0
1001
ACAD
1000
AcDbSavedByObjectVersion
1070
     0
  0
VISUALSTYLE
  5
16ED5
102
{ACAD_XDICTIONARY
360
170F4
102
}
102
{ACAD_REACTORS
330
16EBF
102
}
330
16EBF
100
AcDbVisualStyle
  2
JitterOff
 70
    20
 71
     2
 72
     2
 73
     0
 90
        0
 40
-0.6
 41
-30.0
 62
     5
 63
     7
 74
     1
 91
        4
 64
     7
 65
   257
 75
     1
175
     1
 42
1.0
 92
       10
 66
     7
 43
1.0
 76
     1
 77
     6
 78
     2
 67
     7
 79
     5
170
     0
171
     0
290
     0
174
     0
 93
        1
 44
0.0
173
     0
291
     1
 45
0.0
1001
ACAD
1000
AcDbSavedByObjectVersion
1070
     0
  0
VISUALSTYLE
  5
16ECD
102
{ACAD_XDICTIONARY
360
170E4
102
}
102
{ACAD_REACTORS
330
16EBF
102
}
330
16EBF
100
AcDbVisualStyle
  2
Linepattern
 70
    14
 71
     2
 72
     2
 73
     0
 90
        0
 40
-0.6
 41
-30.0
 62
     5
 63
     7
 74
     1
 91
        4
 64
     7
 65
   257
 75
     7
175
     7
 42
1.0
 92
        8
 66
     7
 43
1.0
 76
     1
 77
     6
 78
     2
 67
     7
 79
     5
170
     0
171
     0
290
     0
174
     0
 93
        1
 44
0.0
173
     0
291
     1
 45
0.0
1001
ACAD
1000
AcDbSavedByObjectVersion
1070
     0
  0
VISUALSTYLE
  5
16ED6
102
{ACAD_XDICTIONARY
360
170F6
102
}
102
{ACAD_REACTORS
330
16EBF
102
}
330
16EBF
100
AcDbVisualStyle
  2
OverhangOff
 70
    21
 71
     2
 72
     2
 73
     0
 90
        0
 40
-0.6
 41
-30.0
 62
     5
 63
     7
 74
     1
 91
        4
 64
     7
 65
   257
 75
     1
175
     1
 42
1.0
 92
        9
 66
     7
 43
1.0
 76
     1
 77
     6
 78
     2
 67
     7
 79
     5
170
     0
171
     0
290
     0
174
     0
 93
        1
 44
0.0
173
     0
291
     1
 45
0.0
1001
ACAD
1000
AcDbSavedByObjectVersion
1070
     0
  0
VISUALSTYLE
  5
16EC9
102
{ACAD_XDICTIONARY
360
170DC
102
}
102
{ACAD_REACTORS
330
16EBF
102
}
330
16EBF
100
AcDbVisualStyle
  2
Realistic
 70
     8
 71
     2
 72
     3
 73
     0
 90
        2
 40
-0.6
 41
30.0
 62
     5
 63
     7
 74
     0
 91
        0
 64
     7
 65
   257
 75
     1
175
     1
 42
1.0
 92
        8
 66
   257
 43
1.0
 76
     1
 77
     6
 78
     2
 67
     7
 79
     3
170
     0
171
     0
290
     0
174
     0
 93
       13
 44
0.0
173
     0
291
     0
 45
0.0
1001
ACAD
1000
AcDbSavedByObjectVersion
1070
     0
  0
VISUALSTYLE
  5
16ED4
102
{ACAD_XDICTIONARY
360
170F2
102
}
102
{ACAD_REACTORS
330
16EBF
102
}
330
16EBF
100
AcDbVisualStyle
  2
Shaded
 70
    27
 71
     2
 72
     2
 73
     1
 90
        2
 40
-0.6
 41
30.0
 62
     5
 63
     7
 74
     0
 91
        4
 64
     7
 65
   257
 75
     1
175
     1
 42
1.0
 92
        8
 66
   257
 43
1.0
 76
     1
 77
     6
 78
     2
 67
     8
 79
     3
170
     0
171
     0
290
     0
174
     0
 93
        5
 44
0.0
173
     0
291
     0
 45
0.0
1001
ACAD
1000
AcDbSavedByObjectVersion
1070
     0
  0
VISUALSTYLE
  5
16ED3
102
{ACAD_XDICTIONARY
360
170F0
102
}
102
{ACAD_REACTORS
330
16EBF
102
}
330
16EBF
100
AcDbVisualStyle
  2
Shaded with edges
 70
    26
 71
     2
 72
     2
 73
     1
 90
        2
 40
-0.6
 41
30.0
 62
     5
 63
     7
 74
     1
 91
       10
 64
     7
 65
   257
 75
     2
175
     1
 42
1.0
 92
        8
 66
   257
 43
1.0
 76
     1
 77
     6
 78
     2
 67
     7
 79
     3
170
     0
171
     0
290
     0
174
     0
 93
        5
 44
0.0
173
     0
291
     0
 45
0.0
1001
ACAD
1000
AcDbSavedByObjectVersion
1070
     0
  0
VISUALSTYLE
  5
16ED0
102
{ACAD_XDICTIONARY
360
170EA
102
}
102
{ACAD_REACTORS
330
16EBF
102
}
330
16EBF
100
AcDbVisualStyle
  2
Shades of Gray
 70
    23
 71
     2
 72
     2
 73
     3
 90
        0
 40
-0.6
 41
-30.0
 62
     5
 63
     7
 74
     2
 91
        2
 64
     7
 65
     7
 75
     1
175
     1
 42
40.0
 92
        8
 66
     7
 43
1.0
 76
     1
 77
     6
 78
     2
 67
     7
 79
     3
170
     0
171
     0
290
     0
174
     0
 93
        1
 44
0.0
173
     0
291
     0
 45
0.0
1001
ACAD
1000
AcDbSavedByObjectVersion
1070
     0
  0
VISUALSTYLE
  5
16ED1
102
{ACAD_XDICTIONARY
360
170EC
102
}
102
{ACAD_REACTORS
330
16EBF
102
}
330
16EBF
100
AcDbVisualStyle
  2
Sketchy
 70
    24
 71
     1
 72
     2
 73
     2
 90
        0
 40
-0.6
 41
-30.0
 62
     5
 63
     7
 74
     2
 91
        2
 64
     7
 65
     7
 75
     1
175
     1
 42
40.0
 92
       11
 66
     7
 43
1.0
 76
     1
 77
     6
 78
     2
 67
     7
 79
     6
170
     0
171
     0
290
     0
174
     0
 93
        1
 44
0.0
173
     0
291
     0
 45
0.0
1001
ACAD
1000
AcDbSavedByObjectVersion
1070
     0
  0
VISUALSTYLE
  5
16ECC
102
{ACAD_XDICTIONARY
360
170E2
102
}
102
{ACAD_REACTORS
330
16EBF
102
}
330
16EBF
100
AcDbVisualStyle
  2
Thicken
 70
    13
 71
     2
 72
     2
 73
     0
 90
        0
 40
-0.6
 41
-30.0
 62
     5
 63
     7
 74
     1
 91
        4
 64
     7
 65
   257
 75
     1
175
     1
 42
1.0
 92
       12
 66
     7
 43
1.0
 76
     1
 77
     6
 78
     2
 67
     7
 79
     5
170
     0
171
     0
290
     0
174
     0
 93
        1
 44
0.0
173
     0
291
     1
 45
0.0
1001
ACAD
1000
AcDbSavedByObjectVersion
1070
     0
  0
VISUALSTYLE
  5
16EC6
102
{ACAD_XDICTIONARY
360
170D6
102
}
102
{ACAD_REACTORS
330
16EBF
102
}
330
16EBF
100
AcDbVisualStyle
  2
Wireframe
 70
     5
 71
     0
 72
     2
 73
     0
 90
        0
 40
-0.6
 41
-30.0
 62
     5
 63
     7
 74
     1
 91
        4
 64
     7
 65
   257
 75
     1
175
     1
 42
1.0
 92
        0
 66
   257
 43
1.0
 76
     1
 77
     6
 78
     2
 67
     7
 79
     3
170
     0
171
     0
290
     0
174
     0
 93
        1
 44
0.0
173
     0
291
     0
 45
0.0
1001
ACAD
1000
AcDbSavedByObjectVersion
1070
     0
  0
VISUALSTYLE
  5
16ED2
102
{ACAD_XDICTIONARY
360
170EE
102
}
102
{ACAD_REACTORS
330
16EBF
102
}
330
16EBF
100
AcDbVisualStyle
  2
X-Ray
 70
    25
 71
     2
 72
     2
 73
     1
 90
        1
 40
0.5
 41
-30.0
 62
     5
 63
     7
 74
     1
 91
        0
 64
     7
 65
   257
 75
     1
175
     1
 42
1.0
 92
        8
 66
     7
 43
1.0
 76
     1
 77
     6
 78
     2
 67
     7
 79
     3
170
     0
171
     0
290
     0
174
     0
 93
       13
 44
0.0
173
     0
291
     0
 45
0.0
1001
ACAD
1000
AcDbSavedByObjectVersion
1070
     0
  0
DICTIONARYVAR
  5
17038
102
{ACAD_REACTORS
330
17032
102
}
330
17032
100
DictionaryVariables
280
     0
  1
1:1
  0
DICTIONARYVAR
  5
17034
102
{ACAD_REACTORS
330
17032
102
}
330
17032
100
DictionaryVariables
280
     0
  1
STANDARD
  0
DICTIONARYVAR
  5
17033
102
{ACAD_REACTORS
330
17032
102
}
330
17032
100
DictionaryVariables
280
     0
  1
STANDARD
  0
DICTIONARYVAR
  5
17035
102
{ACAD_REACTORS
330
17032
102
}
330
17032
100
DictionaryVariables
280
     0
  1
Metric50
  0
DICTIONARYVAR
  5
17036
102
{ACAD_REACTORS
330
17032
102
}
330
17032
100
DictionaryVariables
280
     0
  1
Metric50
  0
DICTIONARYVAR
  5
170B6
102
{ACAD_REACTORS
330
17032
102
}
330
17032
100
DictionaryVariables
280
     0
  1
1
  0
DICTIONARYVAR
  5
170B4
102
{ACAD_REACTORS
330
17032
102
}
330
17032
100
DictionaryVariables
280
     0
  1
0
  0
DICTIONARYVAR
  5
1703A
102
{ACAD_REACTORS
330
17032
102
}
330
17032
100
DictionaryVariables
280
     0
  1
1
  0
DICTIONARYVAR
  5
1703B
102
{ACAD_REACTORS
330
17032
102
}
330
17032
100
DictionaryVariables
280
     0
  1
15
  0
DICTIONARYVAR
  5
17039
102
{ACAD_REACTORS
330
17032
102
}
330
17032
100
DictionaryVariables
280
     0
  1
0
  0
DICTIONARYVAR
  5
17037
102
{ACAD_REACTORS
330
17032
102
}
330
17032
100
DictionaryVariables
280
     0
  1
0
  0
DICTIONARYVAR
  5
170B3
102
{ACAD_REACTORS
330
17032
102
}
330
17032
100
DictionaryVariables
280
     0
  1
127
  0
DICTIONARYVAR
  5
170B5
102
{ACAD_REACTORS
330
17032
102
}
330
17032
100
DictionaryVariables
280
     0
  1
0
  0
DICTIONARY
  5
170C2
102
{ACAD_REACTORS
330
170C0
102
}
330
170C0
100
AcDbDictionary
281
     1
  0
DICTIONARY
  5
170C1
102
{ACAD_REACTORS
330
170C0
102
}
330
170C0
100
AcDbDictionary
281
     1
  3
2129720216
350
170BB
  3
2129720224
350
170BC
  3
2129720232
350
170BD
  3
2129720240
350
170BE
  3
2129720248
350
170BF
  0
DICTIONARY
  5
1702F
330
16EF1
100
AcDbDictionary
280
     1
281
     1
  3
ACAD_XREC_ROUNDTRIP
360
170FF
  0
DICTIONARY
  5
170C3
330
159FC
100
AcDbDictionary
280
     1
281
     1
  3
ACAD_XREC_ROUNDTRIP
360
170C4
  0
DICTIONARY
  5
170C5
330
159FD
100
AcDbDictionary
280
     1
281
     1
  3
ACAD_XREC_ROUNDTRIP
360
170C6
  0
DICTIONARY
  5
16EB0
330
16EAF
100
AcDbDictionary
280
     1
281
     1
  3
ACAD_XREC_ROUNDTRIP
360
170C8
  3
BUMPTILE
360
16EB2
  3
DIFFUSETILE
360
16EB1
  3
OPACITYTILE
360
16EB5
  3
REFLECTIONTILE
360
16EB4
  3
REFRACTIONTILE
360
16EB6
  3
SPECULARTILE
360
16EB3
  0
DICTIONARY
  5
16EA8
330
16EA7
100
AcDbDictionary
280
     1
281
     1
  3
ACAD_XREC_ROUNDTRIP
360
170C7
  3
BUMPTILE
360
16EAA
  3
DIFFUSETILE
360
16EA9
  3
OPACITYTILE
360
16EAD
  3
REFLECTIONTILE
360
16EAC
  3
REFRACTIONTILE
360
16EAE
  3
SPECULARTILE
360
16EAB
  0
DICTIONARY
  5
16EB8
330
16EB7
100
AcDbDictionary
280
     1
281
     1
  3
ACAD_XREC_ROUNDTRIP
360
170C9
  3
BUMPTILE
360
16EBA
  3
DIFFUSETILE
360
16EB9
  3
OPACITYTILE
360
16EBD
  3
REFLECTIONTILE
360
16EBC
  3
REFRACTIONTILE
360
16EBE
  3
SPECULARTILE
360
16EBB
  0
DICTIONARY
  5
170FC
330
16EED
100
AcDbDictionary
280
     1
281
     1
  3
ACAD_XREC_ROUNDTRIP
360
170FD
  0
DICTIONARY
  5
1702D
330
16EEF
100
AcDbDictionary
280
     1
281
     1
  3
ACAD_XREC_ROUNDTRIP
360
170FE
  0
DICTIONARY
  5
170B7
330
16ED9
100
AcDbDictionary
280
     1
281
     1
  3
ACAD_ROUNDTRIP_2008_TABLESTYLE_CELLSTYLEMAP
360
170B8
  3
ACAD_XREC_ROUNDTRIP
360
170FA
  0
DICTIONARY
  5
170D4
330
16EC5
100
AcDbDictionary
280
     1
281
     1
  3
ACAD_XREC_ROUNDTRIP
360
170D5
  0
DICTIONARY
  5
170D2
330
16EC4
100
AcDbDictionary
280
     1
281
     1
  3
ACAD_XREC_ROUNDTRIP
360
170D3
  0
DICTIONARY
  5
170E0
330
16ECB
100
AcDbDictionary
280
     1
281
     1
  3
ACAD_XREC_ROUNDTRIP
360
170E1
  0
DICTIONARY
  5
170E8
330
16ECF
100
AcDbDictionary
280
     1
281
     1
  3
ACAD_XREC_ROUNDTRIP
360
170E9
  0
DICTIONARY
  5
170DA
330
16EC8
100
AcDbDictionary
280
     1
281
     1
  3
ACAD_XREC_ROUNDTRIP
360
170DB
  0
DICTIONARY
  5
170DE
330
16ECA
100
AcDbDictionary
280
     1
281
     1
  3
ACAD_XREC_ROUNDTRIP
360
170DF
  0
DICTIONARY
  5
170F8
330
16ED7
100
AcDbDictionary
280
     1
281
     1
  3
ACAD_XREC_ROUNDTRIP
360
170F9
  0
DICTIONARY
  5
170E6
330
16ECE
100
AcDbDictionary
280
     1
281
     1
  3
ACAD_XREC_ROUNDTRIP
360
170E7
  0
DICTIONARY
  5
170CA
330
16EC0
100
AcDbDictionary
280
     1
281
     1
  3
ACAD_XREC_ROUNDTRIP
360
170CB
  0
DICTIONARY
  5
170CC
330
16EC1
100
AcDbDictionary
280
     1
281
     1
  3
ACAD_XREC_ROUNDTRIP
360
170CD
  0
DICTIONARY
  5
170CE
330
16EC2
100
AcDbDictionary
280
     1
281
     1
  3
ACAD_XREC_ROUNDTRIP
360
170CF
  0
DICTIONARY
  5
170D0
330
16EC3
100
AcDbDictionary
280
     1
281
     1
  3
ACAD_XREC_ROUNDTRIP
360
170D1
  0
DICTIONARY
  5
170D8
330
16EC7
100
AcDbDictionary
280
     1
281
     1
  3
ACAD_XREC_ROUNDTRIP
360
170D9
  0
DICTIONARY
  5
170F4
330
16ED5
100
AcDbDictionary
280
     1
281
     1
  3
ACAD_XREC_ROUNDTRIP
360
170F5
  0
DICTIONARY
  5
170E4
330
16ECD
100
AcDbDictionary
280
     1
281
     1
  3
ACAD_XREC_ROUNDTRIP
360
170E5
  0
DICTIONARY
  5
170F6
330
16ED6
100
AcDbDictionary
280
     1
281
     1
  3
ACAD_XREC_ROUNDTRIP
360
170F7
  0
DICTIONARY
  5
170DC
330
16EC9
100
AcDbDictionary
280
     1
281
     1
  3
ACAD_XREC_ROUNDTRIP
360
170DD
  0
DICTIONARY
  5
170F2
330
16ED4
100
AcDbDictionary
280
     1
281
     1
  3
ACAD_XREC_ROUNDTRIP
360
170F3
  0
DICTIONARY
  5
170F0
330
16ED3
100
AcDbDictionary
280
     1
281
     1
  3
ACAD_XREC_ROUNDTRIP
360
170F1
  0
DICTIONARY
  5
170EA
330
16ED0
100
AcDbDictionary
280
     1
281
     1
  3
ACAD_XREC_ROUNDTRIP
360
170EB
  0
DICTIONARY
  5
170EC
330
16ED1
100
AcDbDictionary
280
     1
281
     1
  3
ACAD_XREC_ROUNDTRIP
360
170ED
  0
DICTIONARY
  5
170E2
330
16ECC
100
AcDbDictionary
280
     1
281
     1
  3
ACAD_XREC_ROUNDTRIP
360
170E3
  0
DICTIONARY
  5
170D6
330
16EC6
100
AcDbDictionary
280
     1
281
     1
  3
ACAD_XREC_ROUNDTRIP
360
170D7
  0
DICTIONARY
  5
170EE
330
16ED2
100
AcDbDictionary
280
     1
281
     1
  3
ACAD_XREC_ROUNDTRIP
360
170EF
  0
XRECORD
  5
170BB
102
{ACAD_REACTORS
330
170C1
102
}
330
170C1
100
AcDbXrecord
280
     1
  1
AcDb_Thumbnail_Schema
102
{ATTRRECORD
341
170BC
  2
AcDbDs::TreatedAsObjectData
280
     1
291
     1
102
ATTRRECORD}
102
{ATTRRECORD
341
170BD
  2
AcDbDs::Legacy
280
     1
291
     1
102
ATTRRECORD}
  2
AcDbDs::ID
280
    10
 91
        8
102
{ATTRRECORD
341
170BE
  2
AcDs:Indexable
280
     1
291
     1
102
ATTRRECORD}
102
{ATTRRECORD
341
170BF
  2
AcDbDs::HandleAttribute
280
     7
282
     1
102
ATTRRECORD}
  2
Thumbnail_Data
280
    15
 91
        0
  0
XRECORD
  5
170BC
102
{ACAD_REACTORS
330
170C1
102
}
330
170C1
100
AcDbXrecord
280
     1
  1
AcDbDs::TreatedAsObjectDataSchema
  2
AcDbDs::TreatedAsObjectData
280
     1
 91
        0
  0
XRECORD
  5
170BD
102
{ACAD_REACTORS
330
170C1
102
}
330
170C1
100
AcDbXrecord
280
     1
  1
AcDbDs::LegacySchema
  2
AcDbDs::Legacy
280
     1
 91
        0
  0
XRECORD
  5
170BE
102
{ACAD_REACTORS
330
170C1
102
}
330
170C1
100
AcDbXrecord
280
     1
  1
AcDbDs::IndexedPropertySchema
  2
AcDs:Indexable
280
     1
 91
        0
  0
XRECORD
  5
170BF
102
{ACAD_REACTORS
330
170C1
102
}
330
170C1
100
AcDbXrecord
280
     1
  1
AcDbDs::HandleAttributeSchema
  2
AcDbDs::HandleAttribute
280
     7
 91
        1
284
     1
  0
XRECORD
  5
170FF
102
{ACAD_REACTORS
330
1702F
102
}
330
1702F
100
AcDbXrecord
280
     1
102
DISPLAYNAME
  1
Metric50
102
FLAGS
 90
        0
  0
XRECORD
  5
170C4
102
{ACAD_REACTORS
330
170C3
102
}
330
170C3
100
AcDbXrecord
280
     1
102
SHADEPLOT
 70
     1
102
SHADEPLOTRESLEVEL
 70
     2
102
SHADEPLOTCUSTOMDPI
 70
   300
  0
XRECORD
  5
170C6
102
{ACAD_REACTORS
330
170C5
102
}
330
170C5
100
AcDbXrecord
280
     1
102
SHADEPLOT
 70
     0
102
SHADEPLOTRESLEVEL
 70
     2
102
SHADEPLOTCUSTOMDPI
 70
   300
  0
XRECORD
  5
170C8
102
{ACAD_REACTORS
330
16EB0
102
}
330
16EB0
100
AcDbXrecord
280
     1
102
MATERIAL
148
0.0
149
0.0
149
0.0
 93
        0
 94
      127
282
     0
 72
     0
 77
     0
171
     0
175
     0
179
     0
273
     0
  0
XRECORD
  5
16EB2
102
{ACAD_REACTORS
330
16EB0
102
}
330
16EB0
100
AcDbXrecord
280
     1
270
     1
271
     1
  0
XRECORD
  5
16EB1
102
{ACAD_REACTORS
330
16EB0
102
}
330
16EB0
100
AcDbXrecord
280
     1
270
     1
271
     1
  0
XRECORD
  5
16EB5
102
{ACAD_REACTORS
330
16EB0
102
}
330
16EB0
100
AcDbXrecord
280
     1
270
     1
271
     1
  0
XRECORD
  5
16EB4
102
{ACAD_REACTORS
330
16EB0
102
}
330
16EB0
100
AcDbXrecord
280
     1
270
     1
271
     1
  0
XRECORD
  5
16EB6
102
{ACAD_REACTORS
330
16EB0
102
}
330
16EB0
100
AcDbXrecord
280
     1
270
     1
271
     1
  0
XRECORD
  5
16EB3
102
{ACAD_REACTORS
330
16EB0
102
}
330
16EB0
100
AcDbXrecord
280
     1
270
     1
271
     1
  0
XRECORD
  5
170C7
102
{ACAD_REACTORS
330
16EA8
102
}
330
16EA8
100
AcDbXrecord
280
     1
102
MATERIAL
148
0.0
149
0.0
149
0.0
 93
        0
 94
      127
282
     0
 72
     0
 77
     0
171
     0
175
     0
179
     0
273
     0
  0
XRECORD
  5
16EAA
102
{ACAD_REACTORS
330
16EA8
102
}
330
16EA8
100
AcDbXrecord
280
     1
270
     1
271
     1
  0
XRECORD
  5
16EA9
102
{ACAD_REACTORS
330
16EA8
102
}
330
16EA8
100
AcDbXrecord
280
     1
270
     1
271
     1
  0
XRECORD
  5
16EAD
102
{ACAD_REACTORS
330
16EA8
102
}
330
16EA8
100
AcDbXrecord
280
     1
270
     1
271
     1
  0
XRECORD
  5
16EAC
102
{ACAD_REACTORS
330
16EA8
102
}
330
16EA8
100
AcDbXrecord
280
     1
270
     1
271
     1
  0
XRECORD
  5
16EAE
102
{ACAD_REACTORS
330
16EA8
102
}
330
16EA8
100
AcDbXrecord
280
     1
270
     1
271
     1
  0
XRECORD
  5
16EAB
102
{ACAD_REACTORS
330
16EA8
102
}
330
16EA8
100
AcDbXrecord
280
     1
270
     1
271
     1
  0
XRECORD
  5
170C9
102
{ACAD_REACTORS
330
16EB8
102
}
330
16EB8
100
AcDbXrecord
280
     1
102
MATERIAL
148
0.0
149
0.0
149
0.0
 93
        0
 94
      127
282
     0
 72
     0
 77
     0
171
     0
175
     0
179
     0
273
     0
  0
XRECORD
  5
16EBA
102
{ACAD_REACTORS
330
16EB8
102
}
330
16EB8
100
AcDbXrecord
280
     1
270
     1
271
     1
  0
XRECORD
  5
16EB9
102
{ACAD_REACTORS
330
16EB8
102
}
330
16EB8
100
AcDbXrecord
280
     1
270
     1
271
     1
  0
XRECORD
  5
16EBD
102
{ACAD_REACTORS
330
16EB8
102
}
330
16EB8
100
AcDbXrecord
280
     1
270
     1
271
     1
  0
XRECORD
  5
16EBC
102
{ACAD_REACTORS
330
16EB8
102
}
330
16EB8
100
AcDbXrecord
280
     1
270
     1
271
     1
  0
XRECORD
  5
16EBE
102
{ACAD_REACTORS
330
16EB8
102
}
330
16EB8
100
AcDbXrecord
280
     1
270
     1
271
     1
  0
XRECORD
  5
16EBB
102
{ACAD_REACTORS
330
16EB8
102
}
330
16EB8
100
AcDbXrecord
280
     1
270
     1
271
     1
  0
XRECORD
  5
170FD
102
{ACAD_REACTORS
330
170FC
102
}
330
170FC
100
AcDbXrecord
280
     1
102
ACAD_ROUNDTRIP_2012_MLEADER_STYLE
298
     1
  0
XRECORD
  5
170FE
102
{ACAD_REACTORS
330
1702D
102
}
330
1702D
100
AcDbXrecord
280
     1
102
DISPLAYNAME
  1
Metric50
102
FLAGS
 90
        0
  0
CELLSTYLEMAP
  5
170B8
102
{ACAD_REACTORS
330
170B7
102
}
330
170B7
100
AcDbCellStyleMap
 90
        3
300
CELLSTYLE
  1
TABLEFORMAT_BEGIN
 90
        5
170
     1
 91
        0
 92
    32768
 62
   257
 93
        1
300
CONTENTFORMAT
  1
CONTENTFORMAT_BEGIN
 90
        0
 91
        0
 92
      512
 93
        0
300

 40
0.0
140
1.0
 94
        5
 62
     0
340
7475
144
6.0
309
CONTENTFORMAT_END
171
     1
301
MARGIN
  1
CELLMARGIN_BEGIN
 40
1.5
 40
1.5
 40
1.5
 40
1.5
 40
4.5
 40
4.5
309
CELLMARGIN_END
 94
        6
 95
        1
302
GRIDFORMAT
  1
GRIDFORMAT_BEGIN
 90
        0
 91
        1
 62
     0
 92
       -2
340
0
 93
        0
 40
1.125
309
GRIDFORMAT_END
 95
        2
302
GRIDFORMAT
  1
GRIDFORMAT_BEGIN
 90
        0
 91
        1
 62
     0
 92
       -2
340
0
 93
        0
 40
1.125
309
GRIDFORMAT_END
 95
        4
302
GRIDFORMAT
  1
GRIDFORMAT_BEGIN
 90
        0
 91
        1
 62
     0
 92
       -2
340
0
 93
        0
 40
1.125
309
GRIDFORMAT_END
 95
        8
302
GRIDFORMAT
  1
GRIDFORMAT_BEGIN
 90
        0
 91
        1
 62
     0
 92
       -2
340
0
 93
        0
 40
1.125
309
GRIDFORMAT_END
 95
       16
302
GRIDFORMAT
  1
GRIDFORMAT_BEGIN
 90
        0
 91
        1
 62
     0
 92
       -2
340
0
 93
        0
 40
1.125
309
GRIDFORMAT_END
 95
       32
302
GRIDFORMAT
  1
GRIDFORMAT_BEGIN
 90
        0
 91
        1
 62
     0
 92
       -2
340
0
 93
        0
 40
1.125
309
GRIDFORMAT_END
309
TABLEFORMAT_END
  1
CELLSTYLE_BEGIN
 90
        1
 91
        1
300
_TITLE
309
CELLSTYLE_END
300
CELLSTYLE
  1
TABLEFORMAT_BEGIN
 90
        5
170
     1
 91
        0
 92
        0
 62
   257
 93
        1
300
CONTENTFORMAT
  1
CONTENTFORMAT_BEGIN
 90
        0
 91
        0
 92
      512
 93
        0
300

 40
0.0
140
1.0
 94
        5
 62
     0
340
7475
144
4.5
309
CONTENTFORMAT_END
171
     1
301
MARGIN
  1
CELLMARGIN_BEGIN
 40
1.5
 40
1.5
 40
1.5
 40
1.5
 40
4.5
 40
4.5
309
CELLMARGIN_END
 94
        6
 95
        1
302
GRIDFORMAT
  1
GRIDFORMAT_BEGIN
 90
        0
 91
        1
 62
     0
 92
       -2
340
0
 93
        0
 40
1.125
309
GRIDFORMAT_END
 95
        2
302
GRIDFORMAT
  1
GRIDFORMAT_BEGIN
 90
        0
 91
        1
 62
     0
 92
       -2
340
0
 93
        0
 40
1.125
309
GRIDFORMAT_END
 95
        4
302
GRIDFORMAT
  1
GRIDFORMAT_BEGIN
 90
        0
 91
        1
 62
     0
 92
       -2
340
0
 93
        0
 40
1.125
309
GRIDFORMAT_END
 95
        8
302
GRIDFORMAT
  1
GRIDFORMAT_BEGIN
 90
        0
 91
        1
 62
     0
 92
       -2
340
0
 93
        0
 40
1.125
309
GRIDFORMAT_END
 95
       16
302
GRIDFORMAT
  1
GRIDFORMAT_BEGIN
 90
        0
 91
        1
 62
     0
 92
       -2
340
0
 93
        0
 40
1.125
309
GRIDFORMAT_END
 95
       32
302
GRIDFORMAT
  1
GRIDFORMAT_BEGIN
 90
        0
 91
        1
 62
     0
 92
       -2
340
0
 93
        0
 40
1.125
309
GRIDFORMAT_END
309
TABLEFORMAT_END
  1
CELLSTYLE_BEGIN
 90
        2
 91
        1
300
_HEADER
309
CELLSTYLE_END
300
CELLSTYLE
  1
TABLEFORMAT_BEGIN
 90
        5
170
     1
 91
        0
 92
        0
 62
   257
 93
        1
300
CONTENTFORMAT
  1
CONTENTFORMAT_BEGIN
 90
        0
 91
        0
 92
      512
 93
        0
300

 40
0.0
140
1.0
 94
        2
 62
     0
340
7475
144
4.5
309
CONTENTFORMAT_END
171
     1
301
MARGIN
  1
CELLMARGIN_BEGIN
 40
1.5
 40
1.5
 40
1.5
 40
1.5
 40
4.5
 40
4.5
309
CELLMARGIN_END
 94
        6
 95
        1
302
GRIDFORMAT
  1
GRIDFORMAT_BEGIN
 90
        0
 91
        1
 62
     0
 92
       -2
340
0
 93
        0
 40
1.125
309
GRIDFORMAT_END
 95
        2
302
GRIDFORMAT
  1
GRIDFORMAT_BEGIN
 90
        0
 91
        1
 62
     0
 92
       -2
340
0
 93
        0
 40
1.125
309
GRIDFORMAT_END
 95
        4
302
GRIDFORMAT
  1
GRIDFORMAT_BEGIN
 90
        0
 91
        1
 62
     0
 92
       -2
340
0
 93
        0
 40
1.125
309
GRIDFORMAT_END
 95
        8
302
GRIDFORMAT
  1
GRIDFORMAT_BEGIN
 90
        0
 91
        1
 62
     0
 92
       -2
340
0
 93
        0
 40
1.125
309
GRIDFORMAT_END
 95
       16
302
GRIDFORMAT
  1
GRIDFORMAT_BEGIN
 90
        0
 91
        1
 62
     0
 92
       -2
340
0
 93
        0
 40
1.125
309
GRIDFORMAT_END
 95
       32
302
GRIDFORMAT
  1
GRIDFORMAT_BEGIN
 90
        0
 91
        1
 62
     0
 92
       -2
340
0
 93
        0
 40
1.125
309
GRIDFORMAT_END
309
TABLEFORMAT_END
  1
CELLSTYLE_BEGIN
 90
        3
 91
        2
300
_DATA
309
CELLSTYLE_END
  0
XRECORD
  5
170FA
102
{ACAD_REACTORS
330
170B7
102
}
330
170B7
100
AcDbXrecord
280
     1
102
ACAD_ROUNDTRIP_PRE2007_TABLESTYLE
 90
      512
 91
        0
  1

 92
      512
 93
        0
  2

 94
      512
 95
        0
  3

  0
XRECORD
  5
170D5
102
{ACAD_REACTORS
330
170D4
102
}
330
170D4
100
AcDbXrecord
280
     1
102
RTVSPost2010Prop28
280
     1
102
RTVSPost2010PropOp28
 70
     1
102
RTVSPost2010Prop29
280
     1
102
RTVSPost2010PropOp29
 70
     1
102
RTVSPost2010Prop30
280
     0
102
RTVSPost2010PropOp30
 70
     1
102
RTVSPost2010Prop31
280
     0
102
RTVSPost2010PropOp31
 70
     1
102
RTVSPost2010Prop32
280
     0
102
RTVSPost2010PropOp32
 70
     1
102
RTVSPost2010Prop33
280
     0
102
RTVSPost2010PropOp33
 70
     1
102
RTVSPost2010Prop34
280
     0
102
RTVSPost2010PropOp34
 70
     1
102
RTVSPost2010Prop35
280
     0
102
RTVSPost2010PropOp35
 70
     1
102
RTVSPost2010Prop36
280
     0
102
RTVSPost2010PropOp36
 70
     1
102
RTVSPost2010Prop37
 90
       50
102
RTVSPost2010PropOp37
 70
     1
102
RTVSPost2010Prop38
140
0.0
102
RTVSPost2010PropOp38
 70
     1
102
RTVSPost2010Prop39
140
1.0
102
RTVSPost2010PropOp39
 70
     1
102
RTVSPost2010Prop40
 90
        0
102
RTVSPost2010PropOp40
 70
     1
102
RTVSPost2010Prop41ColorIndex
 90
       18
102
RTVSPost2010Prop41ColorRGB
 90
        0
102
RTVSPost2010PropOp41
 70
     1
102
RTVSPost2010Prop42
 90
       50
102
RTVSPost2010PropOp42
 70
     1
102
RTVSPost2010Prop43
 90
        3
102
RTVSPost2010PropOp43
 70
     1
102
RTVSPost2010Prop44ColorIndex
 90
        5
102
RTVSPost2010Prop44ColorRGB
 90
      255
102
RTVSPost2010PropOp44
 70
     1
102
RTVSPost2010Prop45
280
     0
102
RTVSPost2010PropOp45
 70
     1
102
RTVSPost2010Prop46
 90
       50
102
RTVSPost2010PropOp46
 70
     1
102
RTVSPost2010Prop47
 90
       50
102
RTVSPost2010PropOp47
 70
     1
102
RTVSPost2010Prop48
 90
       50
102
RTVSPost2010PropOp48
 70
     1
102
RTVSPost2010Prop49
280
     0
102
RTVSPost2010PropOp49
 70
     1
102
RTVSPost2010Prop50
 90
       50
102
RTVSPost2010PropOp50
 70
     1
102
RTVSPost2010Prop51ColorIndex
 90
      256
102
RTVSPost2010Prop51ColorRGB
 90
-16777216
102
RTVSPost2010PropOp51
 70
     0
102
RTVSPost2010Prop52
140
1.0
102
RTVSPost2010PropOp52
 70
     0
102
RTVSPost2010Prop53
 90
        2
102
RTVSPost2010PropOp53
 70
     1
102
RTVSPost2010Prop54
  1
strokes_ogs.tif
102
RTVSPost2010PropOp54
 70
     1
102
RTVSPost2010Prop55
280
     0
102
RTVSPost2010PropOp55
 70
     1
102
RTVSPost2010Prop56
140
1.0
102
RTVSPost2010PropOp56
 70
     1
102
RTVSPost2010Prop57
140
1.0
102
RTVSPost2010PropOp57
 70
     1
102
RTVSPropertyOp0
 70
     1
102
RTVSPropertyOp1
 70
     1
102
RTVSPropertyOp2
 70
     1
102
RTVSPropertyOp3
 70
     1
102
RTVSPropertyOp4
 70
     1
102
RTVSPropertyOp5
 70
     1
102
RTVSPropertyOp6
 70
     1
102
RTVSPropertyOp7
 70
     1
102
RTVSPropertyOp8
 70
     1
102
RTVSPropertyOp9
 70
     1
102
RTVSPropertyOp10
 70
     1
102
RTVSPropertyOp11
 70
     1
102
RTVSPropertyOp12
 70
     1
102
RTVSPropertyOp13
 70
     1
102
RTVSPropertyOp14
 70
     1
102
RTVSPropertyOp15
 70
     1
102
RTVSPropertyOp16
 70
     1
102
RTVSPropertyOp17
 70
     1
102
RTVSPropertyOp18
 70
     1
102
RTVSPropertyOp19
 70
     1
102
RTVSPropertyOp20
 70
     1
102
RTVSPropertyOp21
 70
     1
102
RTVSPropertyOp22
 70
     1
102
RTVSPropertyOp23
 70
     1
102
RTVSPropertyOp24
 70
     1
102
RTVSPropertyOp25
 70
     1
102
RTVSPropertyOp26
 70
     1
102
RTVSPropertyOp27
 70
     1
102
RTVSPropertyOp28
 70
     1
102
RTVSPropertyOp29
 70
     1
102
RTVSPropertyOp30
 70
     1
102
RTVSPropertyOp31
 70
     1
102
RTVSPropertyOp32
 70
     1
102
RTVSPropertyOp33
 70
     1
102
RTVSPropertyOp34
 70
     1
102
RTVSPropertyOp35
 70
     1
102
RTVSPropertyOp36
 70
     1
102
RTVSPropertyOp37
 70
     1
102
RTVSPropertyOp38
 70
     1
102
RTVSPropertyOp39
 70
     1
102
RTVSPropertyOp40
 70
     1
102
RTVSPropertyOp41
 70
     1
102
RTVSPropertyOp42
 70
     1
102
RTVSPropertyOp43
 70
     1
102
RTVSPropertyOp44
 70
     1
102
RTVSPropertyOp45
 70
     1
102
RTVSPropertyOp46
 70
     1
102
RTVSPropertyOp47
 70
     1
102
RTVSPropertyOp48
 70
     1
102
RTVSPropertyOp49
 70
     1
102
RTVSPropertyOp50
 70
     1
102
RTVSPropertyOp51
 70
     0
102
RTVSPropertyOp52
 70
     0
102
RTVSPropertyOp53
 70
     1
102
RTVSPropertyOp54
 70
     1
102
RTVSPropertyOp55
 70
     1
102
RTVSPropertyOp56
 70
     1
102
RTVSPropertyOp57
 70
     1
102
RTVSPropertyOp58
 70
     1
102
RTVSPropertyOp59
 70
     1
102
RTVSPropertyOp60
 70
     1
102
RTVSPropertyOp61
 70
     1
102
RTVSPropertyOp62
 70
     1
  0
XRECORD
  5
170D3
102
{ACAD_REACTORS
330
170D2
102
}
330
170D2
100
AcDbXrecord
280
     1
102
RTVSPost2010Prop28
280
     0
102
RTVSPost2010PropOp28
 70
     1
102
RTVSPost2010Prop29
280
     1
102
RTVSPost2010PropOp29
 70
     1
102
RTVSPost2010Prop30
280
     1
102
RTVSPost2010PropOp30
 70
     1
102
RTVSPost2010Prop31
280
     0
102
RTVSPost2010PropOp31
 70
     1
102
RTVSPost2010Prop32
280
     0
102
RTVSPost2010PropOp32
 70
     1
102
RTVSPost2010Prop33
280
     0
102
RTVSPost2010PropOp33
 70
     1
102
RTVSPost2010Prop34
280
     0
102
RTVSPost2010PropOp34
 70
     1
102
RTVSPost2010Prop35
280
     0
102
RTVSPost2010PropOp35
 70
     1
102
RTVSPost2010Prop36
280
     0
102
RTVSPost2010PropOp36
 70
     1
102
RTVSPost2010Prop37
 90
       50
102
RTVSPost2010PropOp37
 70
     1
102
RTVSPost2010Prop38
140
0.0
102
RTVSPost2010PropOp38
 70
     1
102
RTVSPost2010Prop39
140
1.0
102
RTVSPost2010PropOp39
 70
     1
102
RTVSPost2010Prop40
 90
        0
102
RTVSPost2010PropOp40
 70
     1
102
RTVSPost2010Prop41ColorIndex
 90
       18
102
RTVSPost2010Prop41ColorRGB
 90
        0
102
RTVSPost2010PropOp41
 70
     1
102
RTVSPost2010Prop42
 90
       50
102
RTVSPost2010PropOp42
 70
     1
102
RTVSPost2010Prop43
 90
        3
102
RTVSPost2010PropOp43
 70
     1
102
RTVSPost2010Prop44ColorIndex
 90
        5
102
RTVSPost2010Prop44ColorRGB
 90
      255
102
RTVSPost2010PropOp44
 70
     1
102
RTVSPost2010Prop45
280
     0
102
RTVSPost2010PropOp45
 70
     1
102
RTVSPost2010Prop46
 90
       50
102
RTVSPost2010PropOp46
 70
     1
102
RTVSPost2010Prop47
 90
       50
102
RTVSPost2010PropOp47
 70
     1
102
RTVSPost2010Prop48
 90
       50
102
RTVSPost2010PropOp48
 70
     1
102
RTVSPost2010Prop49
280
     0
102
RTVSPost2010PropOp49
 70
     1
102
RTVSPost2010Prop50
 90
       50
102
RTVSPost2010PropOp50
 70
     1
102
RTVSPost2010Prop51ColorIndex
 90
      256
102
RTVSPost2010Prop51ColorRGB
 90
-16777216
102
RTVSPost2010PropOp51
 70
     0
102
RTVSPost2010Prop52
140
1.0
102
RTVSPost2010PropOp52
 70
     0
102
RTVSPost2010Prop53
 90
        2
102
RTVSPost2010PropOp53
 70
     1
102
RTVSPost2010Prop54
  1
strokes_ogs.tif
102
RTVSPost2010PropOp54
 70
     1
102
RTVSPost2010Prop55
280
     0
102
RTVSPost2010PropOp55
 70
     1
102
RTVSPost2010Prop56
140
1.0
102
RTVSPost2010PropOp56
 70
     1
102
RTVSPost2010Prop57
140
1.0
102
RTVSPost2010PropOp57
 70
     1
102
RTVSPropertyOp0
 70
     1
102
RTVSPropertyOp1
 70
     1
102
RTVSPropertyOp2
 70
     1
102
RTVSPropertyOp3
 70
     1
102
RTVSPropertyOp4
 70
     1
102
RTVSPropertyOp5
 70
     1
102
RTVSPropertyOp6
 70
     1
102
RTVSPropertyOp7
 70
     1
102
RTVSPropertyOp8
 70
     1
102
RTVSPropertyOp9
 70
     1
102
RTVSPropertyOp10
 70
     1
102
RTVSPropertyOp11
 70
     1
102
RTVSPropertyOp12
 70
     1
102
RTVSPropertyOp13
 70
     1
102
RTVSPropertyOp14
 70
     1
102
RTVSPropertyOp15
 70
     1
102
RTVSPropertyOp16
 70
     1
102
RTVSPropertyOp17
 70
     1
102
RTVSPropertyOp18
 70
     1
102
RTVSPropertyOp19
 70
     1
102
RTVSPropertyOp20
 70
     1
102
RTVSPropertyOp21
 70
     1
102
RTVSPropertyOp22
 70
     1
102
RTVSPropertyOp23
 70
     1
102
RTVSPropertyOp24
 70
     1
102
RTVSPropertyOp25
 70
     1
102
RTVSPropertyOp26
 70
     1
102
RTVSPropertyOp27
 70
     1
102
RTVSPropertyOp28
 70
     1
102
RTVSPropertyOp29
 70
     1
102
RTVSPropertyOp30
 70
     1
102
RTVSPropertyOp31
 70
     1
102
RTVSPropertyOp32
 70
     1
102
RTVSPropertyOp33
 70
     1
102
RTVSPropertyOp34
 70
     1
102
RTVSPropertyOp35
 70
     1
102
RTVSPropertyOp36
 70
     1
102
RTVSPropertyOp37
 70
     1
102
RTVSPropertyOp38
 70
     1
102
RTVSPropertyOp39
 70
     1
102
RTVSPropertyOp40
 70
     1
102
RTVSPropertyOp41
 70
     1
102
RTVSPropertyOp42
 70
     1
102
RTVSPropertyOp43
 70
     1
102
RTVSPropertyOp44
 70
     1
102
RTVSPropertyOp45
 70
     1
102
RTVSPropertyOp46
 70
     1
102
RTVSPropertyOp47
 70
     1
102
RTVSPropertyOp48
 70
     1
102
RTVSPropertyOp49
 70
     1
102
RTVSPropertyOp50
 70
     1
102
RTVSPropertyOp51
 70
     0
102
RTVSPropertyOp52
 70
     0
102
RTVSPropertyOp53
 70
     1
102
RTVSPropertyOp54
 70
     1
102
RTVSPropertyOp55
 70
     1
102
RTVSPropertyOp56
 70
     1
102
RTVSPropertyOp57
 70
     1
102
RTVSPropertyOp58
 70
     1
102
RTVSPropertyOp59
 70
     1
102
RTVSPropertyOp60
 70
     1
102
RTVSPropertyOp61
 70
     1
102
RTVSPropertyOp62
 70
     1
  0
XRECORD
  5
170E1
102
{ACAD_REACTORS
330
170E0
102
}
330
170E0
100
AcDbXrecord
280
     1
102
RTVSPost2010Prop28
280
     0
102
RTVSPost2010PropOp28
 70
     1
102
RTVSPost2010Prop29
280
     1
102
RTVSPost2010PropOp29
 70
     1
102
RTVSPost2010Prop30
280
     1
102
RTVSPost2010PropOp30
 70
     1
102
RTVSPost2010Prop31
280
     0
102
RTVSPost2010PropOp31
 70
     1
102
RTVSPost2010Prop32
280
     0
102
RTVSPost2010PropOp32
 70
     1
102
RTVSPost2010Prop33
280
     0
102
RTVSPost2010PropOp33
 70
     1
102
RTVSPost2010Prop34
280
     0
102
RTVSPost2010PropOp34
 70
     1
102
RTVSPost2010Prop35
280
     0
102
RTVSPost2010PropOp35
 70
     1
102
RTVSPost2010Prop36
280
     0
102
RTVSPost2010PropOp36
 70
     1
102
RTVSPost2010Prop37
 90
       50
102
RTVSPost2010PropOp37
 70
     1
102
RTVSPost2010Prop38
140
0.0
102
RTVSPost2010PropOp38
 70
     1
102
RTVSPost2010Prop39
140
1.0
102
RTVSPost2010PropOp39
 70
     1
102
RTVSPost2010Prop40
 90
        0
102
RTVSPost2010PropOp40
 70
     1
102
RTVSPost2010Prop41ColorIndex
 90
       18
102
RTVSPost2010Prop41ColorRGB
 90
        0
102
RTVSPost2010PropOp41
 70
     1
102
RTVSPost2010Prop42
 90
       50
102
RTVSPost2010PropOp42
 70
     1
102
RTVSPost2010Prop43
 90
        3
102
RTVSPost2010PropOp43
 70
     1
102
RTVSPost2010Prop44ColorIndex
 90
        5
102
RTVSPost2010Prop44ColorRGB
 90
      255
102
RTVSPost2010PropOp44
 70
     1
102
RTVSPost2010Prop45
280
     0
102
RTVSPost2010PropOp45
 70
     1
102
RTVSPost2010Prop46
 90
       50
102
RTVSPost2010PropOp46
 70
     1
102
RTVSPost2010Prop47
 90
       50
102
RTVSPost2010PropOp47
 70
     1
102
RTVSPost2010Prop48
 90
       50
102
RTVSPost2010PropOp48
 70
     1
102
RTVSPost2010Prop49
280
     0
102
RTVSPost2010PropOp49
 70
     1
102
RTVSPost2010Prop50
 90
       50
102
RTVSPost2010PropOp50
 70
     1
102
RTVSPost2010Prop51ColorIndex
 90
      256
102
RTVSPost2010Prop51ColorRGB
 90
-16777216
102
RTVSPost2010PropOp51
 70
     0
102
RTVSPost2010Prop52
140
1.0
102
RTVSPost2010PropOp52
 70
     0
102
RTVSPost2010Prop53
 90
        2
102
RTVSPost2010PropOp53
 70
     1
102
RTVSPost2010Prop54
  1
strokes_ogs.tif
102
RTVSPost2010PropOp54
 70
     1
102
RTVSPost2010Prop55
280
     0
102
RTVSPost2010PropOp55
 70
     1
102
RTVSPost2010Prop56
140
1.0
102
RTVSPost2010PropOp56
 70
     1
102
RTVSPost2010Prop57
140
1.0
102
RTVSPost2010PropOp57
 70
     1
102
RTVSPropertyOp0
 70
     1
102
RTVSPropertyOp1
 70
     1
102
RTVSPropertyOp2
 70
     1
102
RTVSPropertyOp3
 70
     1
102
RTVSPropertyOp4
 70
     1
102
RTVSPropertyOp5
 70
     1
102
RTVSPropertyOp6
 70
     1
102
RTVSPropertyOp7
 70
     1
102
RTVSPropertyOp8
 70
     1
102
RTVSPropertyOp9
 70
     1
102
RTVSPropertyOp10
 70
     1
102
RTVSPropertyOp11
 70
     1
102
RTVSPropertyOp12
 70
     1
102
RTVSPropertyOp13
 70
     1
102
RTVSPropertyOp14
 70
     1
102
RTVSPropertyOp15
 70
     1
102
RTVSPropertyOp16
 70
     1
102
RTVSPropertyOp17
 70
     1
102
RTVSPropertyOp18
 70
     1
102
RTVSPropertyOp19
 70
     1
102
RTVSPropertyOp20
 70
     1
102
RTVSPropertyOp21
 70
     1
102
RTVSPropertyOp22
 70
     1
102
RTVSPropertyOp23
 70
     1
102
RTVSPropertyOp24
 70
     1
102
RTVSPropertyOp25
 70
     1
102
RTVSPropertyOp26
 70
     1
102
RTVSPropertyOp27
 70
     1
102
RTVSPropertyOp28
 70
     1
102
RTVSPropertyOp29
 70
     1
102
RTVSPropertyOp30
 70
     1
102
RTVSPropertyOp31
 70
     1
102
RTVSPropertyOp32
 70
     1
102
RTVSPropertyOp33
 70
     1
102
RTVSPropertyOp34
 70
     1
102
RTVSPropertyOp35
 70
     1
102
RTVSPropertyOp36
 70
     1
102
RTVSPropertyOp37
 70
     1
102
RTVSPropertyOp38
 70
     1
102
RTVSPropertyOp39
 70
     1
102
RTVSPropertyOp40
 70
     1
102
RTVSPropertyOp41
 70
     1
102
RTVSPropertyOp42
 70
     1
102
RTVSPropertyOp43
 70
     1
102
RTVSPropertyOp44
 70
     1
102
RTVSPropertyOp45
 70
     1
102
RTVSPropertyOp46
 70
     1
102
RTVSPropertyOp47
 70
     1
102
RTVSPropertyOp48
 70
     1
102
RTVSPropertyOp49
 70
     1
102
RTVSPropertyOp50
 70
     1
102
RTVSPropertyOp51
 70
     0
102
RTVSPropertyOp52
 70
     0
102
RTVSPropertyOp53
 70
     1
102
RTVSPropertyOp54
 70
     1
102
RTVSPropertyOp55
 70
     1
102
RTVSPropertyOp56
 70
     1
102
RTVSPropertyOp57
 70
     1
102
RTVSPropertyOp58
 70
     1
102
RTVSPropertyOp59
 70
     1
102
RTVSPropertyOp60
 70
     1
102
RTVSPropertyOp61
 70
     1
102
RTVSPropertyOp62
 70
     1
  0
XRECORD
  5
170E9
102
{ACAD_REACTORS
330
170E8
102
}
330
170E8
100
AcDbXrecord
280
     1
102
RTVSPost2010Prop28
280
     0
102
RTVSPost2010PropOp28
 70
     1
102
RTVSPost2010Prop29
280
     1
102
RTVSPost2010PropOp29
 70
     1
102
RTVSPost2010Prop30
280
     1
102
RTVSPost2010PropOp30
 70
     1
102
RTVSPost2010Prop31
280
     0
102
RTVSPost2010PropOp31
 70
     1
102
RTVSPost2010Prop32
280
     0
102
RTVSPost2010PropOp32
 70
     1
102
RTVSPost2010Prop33
280
     0
102
RTVSPost2010PropOp33
 70
     1
102
RTVSPost2010Prop34
280
     0
102
RTVSPost2010PropOp34
 70
     1
102
RTVSPost2010Prop35
280
     0
102
RTVSPost2010PropOp35
 70
     1
102
RTVSPost2010Prop36
280
     0
102
RTVSPost2010PropOp36
 70
     1
102
RTVSPost2010Prop37
 90
       50
102
RTVSPost2010PropOp37
 70
     1
102
RTVSPost2010Prop38
140
0.0
102
RTVSPost2010PropOp38
 70
     1
102
RTVSPost2010Prop39
140
1.0
102
RTVSPost2010PropOp39
 70
     1
102
RTVSPost2010Prop40
 90
        0
102
RTVSPost2010PropOp40
 70
     1
102
RTVSPost2010Prop41ColorIndex
 90
       18
102
RTVSPost2010Prop41ColorRGB
 90
        0
102
RTVSPost2010PropOp41
 70
     1
102
RTVSPost2010Prop42
 90
       50
102
RTVSPost2010PropOp42
 70
     1
102
RTVSPost2010Prop43
 90
        3
102
RTVSPost2010PropOp43
 70
     1
102
RTVSPost2010Prop44ColorIndex
 90
        5
102
RTVSPost2010Prop44ColorRGB
 90
      255
102
RTVSPost2010PropOp44
 70
     1
102
RTVSPost2010Prop45
280
     0
102
RTVSPost2010PropOp45
 70
     1
102
RTVSPost2010Prop46
 90
       50
102
RTVSPost2010PropOp46
 70
     1
102
RTVSPost2010Prop47
 90
       50
102
RTVSPost2010PropOp47
 70
     1
102
RTVSPost2010Prop48
 90
       50
102
RTVSPost2010PropOp48
 70
     1
102
RTVSPost2010Prop49
280
     0
102
RTVSPost2010PropOp49
 70
     1
102
RTVSPost2010Prop50
 90
       50
102
RTVSPost2010PropOp50
 70
     1
102
RTVSPost2010Prop51ColorIndex
 90
      256
102
RTVSPost2010Prop51ColorRGB
 90
-16777216
102
RTVSPost2010PropOp51
 70
     0
102
RTVSPost2010Prop52
140
1.0
102
RTVSPost2010PropOp52
 70
     0
102
RTVSPost2010Prop53
 90
        2
102
RTVSPost2010PropOp53
 70
     1
102
RTVSPost2010Prop54
  1
strokes_ogs.tif
102
RTVSPost2010PropOp54
 70
     1
102
RTVSPost2010Prop55
280
     0
102
RTVSPost2010PropOp55
 70
     1
102
RTVSPost2010Prop56
140
1.0
102
RTVSPost2010PropOp56
 70
     1
102
RTVSPost2010Prop57
140
1.0
102
RTVSPost2010PropOp57
 70
     1
102
RTVSPropertyOp0
 70
     1
102
RTVSPropertyOp1
 70
     1
102
RTVSPropertyOp2
 70
     1
102
RTVSPropertyOp3
 70
     1
102
RTVSPropertyOp4
 70
     1
102
RTVSPropertyOp5
 70
     1
102
RTVSPropertyOp6
 70
     1
102
RTVSPropertyOp7
 70
     1
102
RTVSPropertyOp8
 70
     1
102
RTVSPropertyOp9
 70
     1
102
RTVSPropertyOp10
 70
     1
102
RTVSPropertyOp11
 70
     1
102
RTVSPropertyOp12
 70
     1
102
RTVSPropertyOp13
 70
     1
102
RTVSPropertyOp14
 70
     1
102
RTVSPropertyOp15
 70
     1
102
RTVSPropertyOp16
 70
     1
102
RTVSPropertyOp17
 70
     1
102
RTVSPropertyOp18
 70
     1
102
RTVSPropertyOp19
 70
     1
102
RTVSPropertyOp20
 70
     1
102
RTVSPropertyOp21
 70
     1
102
RTVSPropertyOp22
 70
     1
102
RTVSPropertyOp23
 70
     1
102
RTVSPropertyOp24
 70
     1
102
RTVSPropertyOp25
 70
     1
102
RTVSPropertyOp26
 70
     1
102
RTVSPropertyOp27
 70
     1
102
RTVSPropertyOp28
 70
     1
102
RTVSPropertyOp29
 70
     1
102
RTVSPropertyOp30
 70
     1
102
RTVSPropertyOp31
 70
     1
102
RTVSPropertyOp32
 70
     1
102
RTVSPropertyOp33
 70
     1
102
RTVSPropertyOp34
 70
     1
102
RTVSPropertyOp35
 70
     1
102
RTVSPropertyOp36
 70
     1
102
RTVSPropertyOp37
 70
     1
102
RTVSPropertyOp38
 70
     1
102
RTVSPropertyOp39
 70
     1
102
RTVSPropertyOp40
 70
     1
102
RTVSPropertyOp41
 70
     1
102
RTVSPropertyOp42
 70
     1
102
RTVSPropertyOp43
 70
     1
102
RTVSPropertyOp44
 70
     1
102
RTVSPropertyOp45
 70
     1
102
RTVSPropertyOp46
 70
     1
102
RTVSPropertyOp47
 70
     1
102
RTVSPropertyOp48
 70
     1
102
RTVSPropertyOp49
 70
     1
102
RTVSPropertyOp50
 70
     1
102
RTVSPropertyOp51
 70
     0
102
RTVSPropertyOp52
 70
     0
102
RTVSPropertyOp53
 70
     1
102
RTVSPropertyOp54
 70
     1
102
RTVSPropertyOp55
 70
     1
102
RTVSPropertyOp56
 70
     1
102
RTVSPropertyOp57
 70
     1
102
RTVSPropertyOp58
 70
     1
102
RTVSPropertyOp59
 70
     1
102
RTVSPropertyOp60
 70
     1
102
RTVSPropertyOp61
 70
     1
102
RTVSPropertyOp62
 70
     1
  0
XRECORD
  5
170DB
102
{ACAD_REACTORS
330
170DA
102
}
330
170DA
100
AcDbXrecord
280
     1
102
RTVSPost2010Prop28
280
     0
102
RTVSPost2010PropOp28
 70
     1
102
RTVSPost2010Prop29
280
     1
102
RTVSPost2010PropOp29
 70
     1
102
RTVSPost2010Prop30
280
     1
102
RTVSPost2010PropOp30
 70
     1
102
RTVSPost2010Prop31
280
     0
102
RTVSPost2010PropOp31
 70
     1
102
RTVSPost2010Prop32
280
     0
102
RTVSPost2010PropOp32
 70
     1
102
RTVSPost2010Prop33
280
     0
102
RTVSPost2010PropOp33
 70
     1
102
RTVSPost2010Prop34
280
     0
102
RTVSPost2010PropOp34
 70
     1
102
RTVSPost2010Prop35
280
     0
102
RTVSPost2010PropOp35
 70
     1
102
RTVSPost2010Prop36
280
     0
102
RTVSPost2010PropOp36
 70
     1
102
RTVSPost2010Prop37
 90
       50
102
RTVSPost2010PropOp37
 70
     1
102
RTVSPost2010Prop38
140
0.0
102
RTVSPost2010PropOp38
 70
     1
102
RTVSPost2010Prop39
140
1.0
102
RTVSPost2010PropOp39
 70
     1
102
RTVSPost2010Prop40
 90
        0
102
RTVSPost2010PropOp40
 70
     1
102
RTVSPost2010Prop41ColorIndex
 90
       18
102
RTVSPost2010Prop41ColorRGB
 90
        0
102
RTVSPost2010PropOp41
 70
     1
102
RTVSPost2010Prop42
 90
       50
102
RTVSPost2010PropOp42
 70
     1
102
RTVSPost2010Prop43
 90
        3
102
RTVSPost2010PropOp43
 70
     1
102
RTVSPost2010Prop44ColorIndex
 90
        5
102
RTVSPost2010Prop44ColorRGB
 90
      255
102
RTVSPost2010PropOp44
 70
     1
102
RTVSPost2010Prop45
280
     0
102
RTVSPost2010PropOp45
 70
     1
102
RTVSPost2010Prop46
 90
       50
102
RTVSPost2010PropOp46
 70
     1
102
RTVSPost2010Prop47
 90
       50
102
RTVSPost2010PropOp47
 70
     1
102
RTVSPost2010Prop48
 90
       50
102
RTVSPost2010PropOp48
 70
     1
102
RTVSPost2010Prop49
280
     0
102
RTVSPost2010PropOp49
 70
     1
102
RTVSPost2010Prop50
 90
       50
102
RTVSPost2010PropOp50
 70
     1
102
RTVSPost2010Prop51ColorIndex
 90
      256
102
RTVSPost2010Prop51ColorRGB
 90
-16777216
102
RTVSPost2010PropOp51
 70
     0
102
RTVSPost2010Prop52
140
1.0
102
RTVSPost2010PropOp52
 70
     0
102
RTVSPost2010Prop53
 90
        2
102
RTVSPost2010PropOp53
 70
     1
102
RTVSPost2010Prop54
  1
strokes_ogs.tif
102
RTVSPost2010PropOp54
 70
     1
102
RTVSPost2010Prop55
280
     0
102
RTVSPost2010PropOp55
 70
     1
102
RTVSPost2010Prop56
140
1.0
102
RTVSPost2010PropOp56
 70
     1
102
RTVSPost2010Prop57
140
1.0
102
RTVSPost2010PropOp57
 70
     1
102
RTVSPropertyOp0
 70
     1
102
RTVSPropertyOp1
 70
     1
102
RTVSPropertyOp2
 70
     1
102
RTVSPropertyOp3
 70
     1
102
RTVSPropertyOp4
 70
     1
102
RTVSPropertyOp5
 70
     1
102
RTVSPropertyOp6
 70
     1
102
RTVSPropertyOp7
 70
     1
102
RTVSPropertyOp8
 70
     1
102
RTVSPropertyOp9
 70
     1
102
RTVSPropertyOp10
 70
     1
102
RTVSPropertyOp11
 70
     1
102
RTVSPropertyOp12
 70
     1
102
RTVSPropertyOp13
 70
     1
102
RTVSPropertyOp14
 70
     1
102
RTVSPropertyOp15
 70
     1
102
RTVSPropertyOp16
 70
     1
102
RTVSPropertyOp17
 70
     1
102
RTVSPropertyOp18
 70
     1
102
RTVSPropertyOp19
 70
     1
102
RTVSPropertyOp20
 70
     1
102
RTVSPropertyOp21
 70
     1
102
RTVSPropertyOp22
 70
     1
102
RTVSPropertyOp23
 70
     1
102
RTVSPropertyOp24
 70
     1
102
RTVSPropertyOp25
 70
     1
102
RTVSPropertyOp26
 70
     1
102
RTVSPropertyOp27
 70
     1
102
RTVSPropertyOp28
 70
     1
102
RTVSPropertyOp29
 70
     1
102
RTVSPropertyOp30
 70
     1
102
RTVSPropertyOp31
 70
     1
102
RTVSPropertyOp32
 70
     1
102
RTVSPropertyOp33
 70
     1
102
RTVSPropertyOp34
 70
     1
102
RTVSPropertyOp35
 70
     1
102
RTVSPropertyOp36
 70
     1
102
RTVSPropertyOp37
 70
     1
102
RTVSPropertyOp38
 70
     1
102
RTVSPropertyOp39
 70
     1
102
RTVSPropertyOp40
 70
     1
102
RTVSPropertyOp41
 70
     1
102
RTVSPropertyOp42
 70
     1
102
RTVSPropertyOp43
 70
     1
102
RTVSPropertyOp44
 70
     1
102
RTVSPropertyOp45
 70
     1
102
RTVSPropertyOp46
 70
     1
102
RTVSPropertyOp47
 70
     1
102
RTVSPropertyOp48
 70
     1
102
RTVSPropertyOp49
 70
     1
102
RTVSPropertyOp50
 70
     1
102
RTVSPropertyOp51
 70
     0
102
RTVSPropertyOp52
 70
     0
102
RTVSPropertyOp53
 70
     1
102
RTVSPropertyOp54
 70
     1
102
RTVSPropertyOp55
 70
     1
102
RTVSPropertyOp56
 70
     1
102
RTVSPropertyOp57
 70
     1
102
RTVSPropertyOp58
 70
     1
102
RTVSPropertyOp59
 70
     1
102
RTVSPropertyOp60
 70
     1
102
RTVSPropertyOp61
 70
     1
102
RTVSPropertyOp62
 70
     1
  0
XRECORD
  5
170DF
102
{ACAD_REACTORS
330
170DE
102
}
330
170DE
100
AcDbXrecord
280
     1
102
RTVSPost2010Prop28
280
     0
102
RTVSPost2010PropOp28
 70
     1
102
RTVSPost2010Prop29
280
     1
102
RTVSPost2010PropOp29
 70
     1
102
RTVSPost2010Prop30
280
     1
102
RTVSPost2010PropOp30
 70
     1
102
RTVSPost2010Prop31
280
     0
102
RTVSPost2010PropOp31
 70
     1
102
RTVSPost2010Prop32
280
     0
102
RTVSPost2010PropOp32
 70
     1
102
RTVSPost2010Prop33
280
     0
102
RTVSPost2010PropOp33
 70
     1
102
RTVSPost2010Prop34
280
     0
102
RTVSPost2010PropOp34
 70
     1
102
RTVSPost2010Prop35
280
     0
102
RTVSPost2010PropOp35
 70
     1
102
RTVSPost2010Prop36
280
     0
102
RTVSPost2010PropOp36
 70
     1
102
RTVSPost2010Prop37
 90
       50
102
RTVSPost2010PropOp37
 70
     1
102
RTVSPost2010Prop38
140
0.0
102
RTVSPost2010PropOp38
 70
     1
102
RTVSPost2010Prop39
140
1.0
102
RTVSPost2010PropOp39
 70
     1
102
RTVSPost2010Prop40
 90
        0
102
RTVSPost2010PropOp40
 70
     1
102
RTVSPost2010Prop41ColorIndex
 90
       18
102
RTVSPost2010Prop41ColorRGB
 90
        0
102
RTVSPost2010PropOp41
 70
     1
102
RTVSPost2010Prop42
 90
       50
102
RTVSPost2010PropOp42
 70
     1
102
RTVSPost2010Prop43
 90
        3
102
RTVSPost2010PropOp43
 70
     1
102
RTVSPost2010Prop44ColorIndex
 90
        5
102
RTVSPost2010Prop44ColorRGB
 90
      255
102
RTVSPost2010PropOp44
 70
     1
102
RTVSPost2010Prop45
280
     0
102
RTVSPost2010PropOp45
 70
     1
102
RTVSPost2010Prop46
 90
       50
102
RTVSPost2010PropOp46
 70
     1
102
RTVSPost2010Prop47
 90
       50
102
RTVSPost2010PropOp47
 70
     1
102
RTVSPost2010Prop48
 90
       50
102
RTVSPost2010PropOp48
 70
     1
102
RTVSPost2010Prop49
280
     0
102
RTVSPost2010PropOp49
 70
     1
102
RTVSPost2010Prop50
 90
       50
102
RTVSPost2010PropOp50
 70
     1
102
RTVSPost2010Prop51ColorIndex
 90
      256
102
RTVSPost2010Prop51ColorRGB
 90
-16777216
102
RTVSPost2010PropOp51
 70
     0
102
RTVSPost2010Prop52
140
1.0
102
RTVSPost2010PropOp52
 70
     0
102
RTVSPost2010Prop53
 90
        2
102
RTVSPost2010PropOp53
 70
     1
102
RTVSPost2010Prop54
  1
strokes_ogs.tif
102
RTVSPost2010PropOp54
 70
     1
102
RTVSPost2010Prop55
280
     0
102
RTVSPost2010PropOp55
 70
     1
102
RTVSPost2010Prop56
140
1.0
102
RTVSPost2010PropOp56
 70
     1
102
RTVSPost2010Prop57
140
1.0
102
RTVSPost2010PropOp57
 70
     1
102
RTVSPropertyOp0
 70
     1
102
RTVSPropertyOp1
 70
     1
102
RTVSPropertyOp2
 70
     1
102
RTVSPropertyOp3
 70
     1
102
RTVSPropertyOp4
 70
     1
102
RTVSPropertyOp5
 70
     1
102
RTVSPropertyOp6
 70
     1
102
RTVSPropertyOp7
 70
     1
102
RTVSPropertyOp8
 70
     1
102
RTVSPropertyOp9
 70
     1
102
RTVSPropertyOp10
 70
     1
102
RTVSPropertyOp11
 70
     1
102
RTVSPropertyOp12
 70
     1
102
RTVSPropertyOp13
 70
     1
102
RTVSPropertyOp14
 70
     1
102
RTVSPropertyOp15
 70
     1
102
RTVSPropertyOp16
 70
     1
102
RTVSPropertyOp17
 70
     1
102
RTVSPropertyOp18
 70
     1
102
RTVSPropertyOp19
 70
     1
102
RTVSPropertyOp20
 70
     1
102
RTVSPropertyOp21
 70
     1
102
RTVSPropertyOp22
 70
     1
102
RTVSPropertyOp23
 70
     1
102
RTVSPropertyOp24
 70
     1
102
RTVSPropertyOp25
 70
     1
102
RTVSPropertyOp26
 70
     1
102
RTVSPropertyOp27
 70
     1
102
RTVSPropertyOp28
 70
     1
102
RTVSPropertyOp29
 70
     1
102
RTVSPropertyOp30
 70
     1
102
RTVSPropertyOp31
 70
     1
102
RTVSPropertyOp32
 70
     1
102
RTVSPropertyOp33
 70
     1
102
RTVSPropertyOp34
 70
     1
102
RTVSPropertyOp35
 70
     1
102
RTVSPropertyOp36
 70
     1
102
RTVSPropertyOp37
 70
     1
102
RTVSPropertyOp38
 70
     1
102
RTVSPropertyOp39
 70
     1
102
RTVSPropertyOp40
 70
     1
102
RTVSPropertyOp41
 70
     1
102
RTVSPropertyOp42
 70
     1
102
RTVSPropertyOp43
 70
     1
102
RTVSPropertyOp44
 70
     1
102
RTVSPropertyOp45
 70
     1
102
RTVSPropertyOp46
 70
     1
102
RTVSPropertyOp47
 70
     1
102
RTVSPropertyOp48
 70
     1
102
RTVSPropertyOp49
 70
     1
102
RTVSPropertyOp50
 70
     1
102
RTVSPropertyOp51
 70
     0
102
RTVSPropertyOp52
 70
     0
102
RTVSPropertyOp53
 70
     1
102
RTVSPropertyOp54
 70
     1
102
RTVSPropertyOp55
 70
     1
102
RTVSPropertyOp56
 70
     1
102
RTVSPropertyOp57
 70
     1
102
RTVSPropertyOp58
 70
     1
102
RTVSPropertyOp59
 70
     1
102
RTVSPropertyOp60
 70
     1
102
RTVSPropertyOp61
 70
     1
102
RTVSPropertyOp62
 70
     1
  0
XRECORD
  5
170F9
102
{ACAD_REACTORS
330
170F8
102
}
330
170F8
100
AcDbXrecord
280
     1
102
RTVSPost2010Prop28
280
     0
102
RTVSPost2010PropOp28
 70
     0
102
RTVSPost2010Prop29
280
     1
102
RTVSPost2010PropOp29
 70
     0
102
RTVSPost2010Prop30
280
     1
102
RTVSPost2010PropOp30
 70
     0
102
RTVSPost2010Prop31
280
     0
102
RTVSPost2010PropOp31
 70
     0
102
RTVSPost2010Prop32
280
     0
102
RTVSPost2010PropOp32
 70
     0
102
RTVSPost2010Prop33
280
     0
102
RTVSPost2010PropOp33
 70
     0
102
RTVSPost2010Prop34
280
     0
102
RTVSPost2010PropOp34
 70
     0
102
RTVSPost2010Prop35
280
     0
102
RTVSPost2010PropOp35
 70
     0
102
RTVSPost2010Prop36
280
     0
102
RTVSPost2010PropOp36
 70
     0
102
RTVSPost2010Prop37
 90
       50
102
RTVSPost2010PropOp37
 70
     0
102
RTVSPost2010Prop38
140
0.0
102
RTVSPost2010PropOp38
 70
     0
102
RTVSPost2010Prop39
140
1.0
102
RTVSPost2010PropOp39
 70
     0
102
RTVSPost2010Prop40
 90
        0
102
RTVSPost2010PropOp40
 70
     0
102
RTVSPost2010Prop41ColorIndex
 90
       18
102
RTVSPost2010Prop41ColorRGB
 90
        0
102
RTVSPost2010PropOp41
 70
     0
102
RTVSPost2010Prop42
 90
       50
102
RTVSPost2010PropOp42
 70
     0
102
RTVSPost2010Prop43
 90
        3
102
RTVSPost2010PropOp43
 70
     0
102
RTVSPost2010Prop44ColorIndex
 90
        5
102
RTVSPost2010Prop44ColorRGB
 90
      255
102
RTVSPost2010PropOp44
 70
     0
102
RTVSPost2010Prop45
280
     0
102
RTVSPost2010PropOp45
 70
     0
102
RTVSPost2010Prop46
 90
       50
102
RTVSPost2010PropOp46
 70
     0
102
RTVSPost2010Prop47
 90
       50
102
RTVSPost2010PropOp47
 70
     0
102
RTVSPost2010Prop48
 90
       50
102
RTVSPost2010PropOp48
 70
     0
102
RTVSPost2010Prop49
280
     0
102
RTVSPost2010PropOp49
 70
     0
102
RTVSPost2010Prop50
 90
       50
102
RTVSPost2010PropOp50
 70
     0
102
RTVSPost2010Prop51ColorIndex
 90
      256
102
RTVSPost2010Prop51ColorRGB
 90
-16777216
102
RTVSPost2010PropOp51
 70
     0
102
RTVSPost2010Prop52
140
1.0
102
RTVSPost2010PropOp52
 70
     0
102
RTVSPost2010Prop53
 90
        2
102
RTVSPost2010PropOp53
 70
     0
102
RTVSPost2010Prop54
  1
strokes_ogs.tif
102
RTVSPost2010PropOp54
 70
     0
102
RTVSPost2010Prop55
280
     0
102
RTVSPost2010PropOp55
 70
     0
102
RTVSPost2010Prop56
140
1.0
102
RTVSPost2010PropOp56
 70
     0
102
RTVSPost2010Prop57
140
1.0
102
RTVSPost2010PropOp57
 70
     0
102
RTVSPropertyOp0
 70
     0
102
RTVSPropertyOp1
 70
     0
102
RTVSPropertyOp2
 70
     0
102
RTVSPropertyOp3
 70
     0
102
RTVSPropertyOp4
 70
     0
102
RTVSPropertyOp5
 70
     0
102
RTVSPropertyOp6
 70
     0
102
RTVSPropertyOp7
 70
     0
102
RTVSPropertyOp8
 70
     0
102
RTVSPropertyOp9
 70
     0
102
RTVSPropertyOp10
 70
     0
102
RTVSPropertyOp11
 70
     0
102
RTVSPropertyOp12
 70
     0
102
RTVSPropertyOp13
 70
     0
102
RTVSPropertyOp14
 70
     2
102
RTVSPropertyOp15
 70
     0
102
RTVSPropertyOp16
 70
     0
102
RTVSPropertyOp17
 70
     0
102
RTVSPropertyOp18
 70
     0
102
RTVSPropertyOp19
 70
     0
102
RTVSPropertyOp20
 70
     0
102
RTVSPropertyOp21
 70
     0
102
RTVSPropertyOp22
 70
     0
102
RTVSPropertyOp23
 70
     0
102
RTVSPropertyOp24
 70
     0
102
RTVSPropertyOp25
 70
     0
102
RTVSPropertyOp26
 70
     0
102
RTVSPropertyOp27
 70
     0
102
RTVSPropertyOp28
 70
     0
102
RTVSPropertyOp29
 70
     0
102
RTVSPropertyOp30
 70
     0
102
RTVSPropertyOp31
 70
     0
102
RTVSPropertyOp32
 70
     0
102
RTVSPropertyOp33
 70
     0
102
RTVSPropertyOp34
 70
     0
102
RTVSPropertyOp35
 70
     0
102
RTVSPropertyOp36
 70
     0
102
RTVSPropertyOp37
 70
     0
102
RTVSPropertyOp38
 70
     0
102
RTVSPropertyOp39
 70
     0
102
RTVSPropertyOp40
 70
     0
102
RTVSPropertyOp41
 70
     0
102
RTVSPropertyOp42
 70
     0
102
RTVSPropertyOp43
 70
     0
102
RTVSPropertyOp44
 70
     0
102
RTVSPropertyOp45
 70
     0
102
RTVSPropertyOp46
 70
     0
102
RTVSPropertyOp47
 70
     0
102
RTVSPropertyOp48
 70
     0
102
RTVSPropertyOp49
 70
     0
102
RTVSPropertyOp50
 70
     0
102
RTVSPropertyOp51
 70
     0
102
RTVSPropertyOp52
 70
     0
102
RTVSPropertyOp53
 70
     0
102
RTVSPropertyOp54
 70
     0
102
RTVSPropertyOp55
 70
     0
102
RTVSPropertyOp56
 70
     0
102
RTVSPropertyOp57
 70
     0
102
RTVSPropertyOp58
 70
     1
102
RTVSPropertyOp59
 70
     1
102
RTVSPropertyOp60
 70
     1
102
RTVSPropertyOp61
 70
     1
102
RTVSPropertyOp62
 70
     1
  0
XRECORD
  5
170E7
102
{ACAD_REACTORS
330
170E6
102
}
330
170E6
100
AcDbXrecord
280
     1
102
RTVSPost2010Prop28
280
     0
102
RTVSPost2010PropOp28
 70
     1
102
RTVSPost2010Prop29
280
     1
102
RTVSPost2010PropOp29
 70
     1
102
RTVSPost2010Prop30
280
     1
102
RTVSPost2010PropOp30
 70
     1
102
RTVSPost2010Prop31
280
     0
102
RTVSPost2010PropOp31
 70
     1
102
RTVSPost2010Prop32
280
     0
102
RTVSPost2010PropOp32
 70
     1
102
RTVSPost2010Prop33
280
     0
102
RTVSPost2010PropOp33
 70
     1
102
RTVSPost2010Prop34
280
     0
102
RTVSPost2010PropOp34
 70
     1
102
RTVSPost2010Prop35
280
     0
102
RTVSPost2010PropOp35
 70
     1
102
RTVSPost2010Prop36
280
     0
102
RTVSPost2010PropOp36
 70
     1
102
RTVSPost2010Prop37
 90
       50
102
RTVSPost2010PropOp37
 70
     1
102
RTVSPost2010Prop38
140
0.0
102
RTVSPost2010PropOp38
 70
     1
102
RTVSPost2010Prop39
140
1.0
102
RTVSPost2010PropOp39
 70
     1
102
RTVSPost2010Prop40
 90
        0
102
RTVSPost2010PropOp40
 70
     1
102
RTVSPost2010Prop41ColorIndex
 90
       18
102
RTVSPost2010Prop41ColorRGB
 90
        0
102
RTVSPost2010PropOp41
 70
     1
102
RTVSPost2010Prop42
 90
       50
102
RTVSPost2010PropOp42
 70
     1
102
RTVSPost2010Prop43
 90
        3
102
RTVSPost2010PropOp43
 70
     1
102
RTVSPost2010Prop44ColorIndex
 90
        5
102
RTVSPost2010Prop44ColorRGB
 90
      255
102
RTVSPost2010PropOp44
 70
     1
102
RTVSPost2010Prop45
280
     0
102
RTVSPost2010PropOp45
 70
     1
102
RTVSPost2010Prop46
 90
       50
102
RTVSPost2010PropOp46
 70
     1
102
RTVSPost2010Prop47
 90
       50
102
RTVSPost2010PropOp47
 70
     1
102
RTVSPost2010Prop48
 90
       50
102
RTVSPost2010PropOp48
 70
     1
102
RTVSPost2010Prop49
280
     0
102
RTVSPost2010PropOp49
 70
     1
102
RTVSPost2010Prop50
 90
       50
102
RTVSPost2010PropOp50
 70
     1
102
RTVSPost2010Prop51ColorIndex
 90
      256
102
RTVSPost2010Prop51ColorRGB
 90
-16777216
102
RTVSPost2010PropOp51
 70
     0
102
RTVSPost2010Prop52
140
1.0
102
RTVSPost2010PropOp52
 70
     0
102
RTVSPost2010Prop53
 90
        2
102
RTVSPost2010PropOp53
 70
     1
102
RTVSPost2010Prop54
  1
strokes_ogs.tif
102
RTVSPost2010PropOp54
 70
     1
102
RTVSPost2010Prop55
280
     0
102
RTVSPost2010PropOp55
 70
     1
102
RTVSPost2010Prop56
140
1.0
102
RTVSPost2010PropOp56
 70
     1
102
RTVSPost2010Prop57
140
1.0
102
RTVSPost2010PropOp57
 70
     1
102
RTVSPropertyOp0
 70
     1
102
RTVSPropertyOp1
 70
     1
102
RTVSPropertyOp2
 70
     1
102
RTVSPropertyOp3
 70
     1
102
RTVSPropertyOp4
 70
     1
102
RTVSPropertyOp5
 70
     1
102
RTVSPropertyOp6
 70
     1
102
RTVSPropertyOp7
 70
     1
102
RTVSPropertyOp8
 70
     1
102
RTVSPropertyOp9
 70
     1
102
RTVSPropertyOp10
 70
     1
102
RTVSPropertyOp11
 70
     1
102
RTVSPropertyOp12
 70
     1
102
RTVSPropertyOp13
 70
     1
102
RTVSPropertyOp14
 70
     1
102
RTVSPropertyOp15
 70
     1
102
RTVSPropertyOp16
 70
     1
102
RTVSPropertyOp17
 70
     1
102
RTVSPropertyOp18
 70
     1
102
RTVSPropertyOp19
 70
     1
102
RTVSPropertyOp20
 70
     1
102
RTVSPropertyOp21
 70
     1
102
RTVSPropertyOp22
 70
     1
102
RTVSPropertyOp23
 70
     1
102
RTVSPropertyOp24
 70
     1
102
RTVSPropertyOp25
 70
     1
102
RTVSPropertyOp26
 70
     1
102
RTVSPropertyOp27
 70
     1
102
RTVSPropertyOp28
 70
     1
102
RTVSPropertyOp29
 70
     1
102
RTVSPropertyOp30
 70
     1
102
RTVSPropertyOp31
 70
     1
102
RTVSPropertyOp32
 70
     1
102
RTVSPropertyOp33
 70
     1
102
RTVSPropertyOp34
 70
     1
102
RTVSPropertyOp35
 70
     1
102
RTVSPropertyOp36
 70
     1
102
RTVSPropertyOp37
 70
     1
102
RTVSPropertyOp38
 70
     1
102
RTVSPropertyOp39
 70
     1
102
RTVSPropertyOp40
 70
     1
102
RTVSPropertyOp41
 70
     1
102
RTVSPropertyOp42
 70
     1
102
RTVSPropertyOp43
 70
     1
102
RTVSPropertyOp44
 70
     1
102
RTVSPropertyOp45
 70
     1
102
RTVSPropertyOp46
 70
     1
102
RTVSPropertyOp47
 70
     1
102
RTVSPropertyOp48
 70
     1
102
RTVSPropertyOp49
 70
     1
102
RTVSPropertyOp50
 70
     1
102
RTVSPropertyOp51
 70
     0
102
RTVSPropertyOp52
 70
     0
102
RTVSPropertyOp53
 70
     1
102
RTVSPropertyOp54
 70
     1
102
RTVSPropertyOp55
 70
     1
102
RTVSPropertyOp56
 70
     1
102
RTVSPropertyOp57
 70
     1
102
RTVSPropertyOp58
 70
     1
102
RTVSPropertyOp59
 70
     1
102
RTVSPropertyOp60
 70
     1
102
RTVSPropertyOp61
 70
     1
102
RTVSPropertyOp62
 70
     1
  0
XRECORD
  5
170CB
102
{ACAD_REACTORS
330
170CA
102
}
330
170CA
100
AcDbXrecord
280
     1
102
RTVSPost2010Prop28
280
     0
102
RTVSPost2010PropOp28
 70
     1
102
RTVSPost2010Prop29
280
     1
102
RTVSPost2010PropOp29
 70
     1
102
RTVSPost2010Prop30
280
     1
102
RTVSPost2010PropOp30
 70
     1
102
RTVSPost2010Prop31
280
     0
102
RTVSPost2010PropOp31
 70
     1
102
RTVSPost2010Prop32
280
     0
102
RTVSPost2010PropOp32
 70
     1
102
RTVSPost2010Prop33
280
     0
102
RTVSPost2010PropOp33
 70
     1
102
RTVSPost2010Prop34
280
     0
102
RTVSPost2010PropOp34
 70
     1
102
RTVSPost2010Prop35
280
     0
102
RTVSPost2010PropOp35
 70
     1
102
RTVSPost2010Prop36
280
     0
102
RTVSPost2010PropOp36
 70
     1
102
RTVSPost2010Prop37
 90
       50
102
RTVSPost2010PropOp37
 70
     1
102
RTVSPost2010Prop38
140
0.0
102
RTVSPost2010PropOp38
 70
     1
102
RTVSPost2010Prop39
140
1.0
102
RTVSPost2010PropOp39
 70
     1
102
RTVSPost2010Prop40
 90
        0
102
RTVSPost2010PropOp40
 70
     1
102
RTVSPost2010Prop41ColorIndex
 90
       18
102
RTVSPost2010Prop41ColorRGB
 90
        0
102
RTVSPost2010PropOp41
 70
     1
102
RTVSPost2010Prop42
 90
       50
102
RTVSPost2010PropOp42
 70
     1
102
RTVSPost2010Prop43
 90
        3
102
RTVSPost2010PropOp43
 70
     1
102
RTVSPost2010Prop44ColorIndex
 90
        5
102
RTVSPost2010Prop44ColorRGB
 90
      255
102
RTVSPost2010PropOp44
 70
     1
102
RTVSPost2010Prop45
280
     0
102
RTVSPost2010PropOp45
 70
     1
102
RTVSPost2010Prop46
 90
       50
102
RTVSPost2010PropOp46
 70
     1
102
RTVSPost2010Prop47
 90
       50
102
RTVSPost2010PropOp47
 70
     1
102
RTVSPost2010Prop48
 90
       50
102
RTVSPost2010PropOp48
 70
     1
102
RTVSPost2010Prop49
280
     0
102
RTVSPost2010PropOp49
 70
     1
102
RTVSPost2010Prop50
 90
       50
102
RTVSPost2010PropOp50
 70
     1
102
RTVSPost2010Prop51ColorIndex
 90
      256
102
RTVSPost2010Prop51ColorRGB
 90
-16777216
102
RTVSPost2010PropOp51
 70
     0
102
RTVSPost2010Prop52
140
1.0
102
RTVSPost2010PropOp52
 70
     0
102
RTVSPost2010Prop53
 90
        2
102
RTVSPost2010PropOp53
 70
     1
102
RTVSPost2010Prop54
  1
strokes_ogs.tif
102
RTVSPost2010PropOp54
 70
     1
102
RTVSPost2010Prop55
280
     0
102
RTVSPost2010PropOp55
 70
     1
102
RTVSPost2010Prop56
140
1.0
102
RTVSPost2010PropOp56
 70
     1
102
RTVSPost2010Prop57
140
1.0
102
RTVSPost2010PropOp57
 70
     1
102
RTVSPropertyOp0
 70
     1
102
RTVSPropertyOp1
 70
     1
102
RTVSPropertyOp2
 70
     1
102
RTVSPropertyOp3
 70
     1
102
RTVSPropertyOp4
 70
     1
102
RTVSPropertyOp5
 70
     1
102
RTVSPropertyOp6
 70
     1
102
RTVSPropertyOp7
 70
     1
102
RTVSPropertyOp8
 70
     1
102
RTVSPropertyOp9
 70
     1
102
RTVSPropertyOp10
 70
     1
102
RTVSPropertyOp11
 70
     1
102
RTVSPropertyOp12
 70
     1
102
RTVSPropertyOp13
 70
     1
102
RTVSPropertyOp14
 70
     1
102
RTVSPropertyOp15
 70
     1
102
RTVSPropertyOp16
 70
     1
102
RTVSPropertyOp17
 70
     1
102
RTVSPropertyOp18
 70
     1
102
RTVSPropertyOp19
 70
     1
102
RTVSPropertyOp20
 70
     1
102
RTVSPropertyOp21
 70
     1
102
RTVSPropertyOp22
 70
     1
102
RTVSPropertyOp23
 70
     1
102
RTVSPropertyOp24
 70
     1
102
RTVSPropertyOp25
 70
     1
102
RTVSPropertyOp26
 70
     1
102
RTVSPropertyOp27
 70
     1
102
RTVSPropertyOp28
 70
     1
102
RTVSPropertyOp29
 70
     1
102
RTVSPropertyOp30
 70
     1
102
RTVSPropertyOp31
 70
     1
102
RTVSPropertyOp32
 70
     1
102
RTVSPropertyOp33
 70
     1
102
RTVSPropertyOp34
 70
     1
102
RTVSPropertyOp35
 70
     1
102
RTVSPropertyOp36
 70
     1
102
RTVSPropertyOp37
 70
     1
102
RTVSPropertyOp38
 70
     1
102
RTVSPropertyOp39
 70
     1
102
RTVSPropertyOp40
 70
     1
102
RTVSPropertyOp41
 70
     1
102
RTVSPropertyOp42
 70
     1
102
RTVSPropertyOp43
 70
     1
102
RTVSPropertyOp44
 70
     1
102
RTVSPropertyOp45
 70
     1
102
RTVSPropertyOp46
 70
     1
102
RTVSPropertyOp47
 70
     1
102
RTVSPropertyOp48
 70
     1
102
RTVSPropertyOp49
 70
     1
102
RTVSPropertyOp50
 70
     1
102
RTVSPropertyOp51
 70
     0
102
RTVSPropertyOp52
 70
     0
102
RTVSPropertyOp53
 70
     1
102
RTVSPropertyOp54
 70
     1
102
RTVSPropertyOp55
 70
     1
102
RTVSPropertyOp56
 70
     1
102
RTVSPropertyOp57
 70
     1
102
RTVSPropertyOp58
 70
     1
102
RTVSPropertyOp59
 70
     1
102
RTVSPropertyOp60
 70
     1
102
RTVSPropertyOp61
 70
     1
102
RTVSPropertyOp62
 70
     1
  0
XRECORD
  5
170CD
102
{ACAD_REACTORS
330
170CC
102
}
330
170CC
100
AcDbXrecord
280
     1
102
RTVSPost2010Prop28
280
     0
102
RTVSPost2010PropOp28
 70
     1
102
RTVSPost2010Prop29
280
     1
102
RTVSPost2010PropOp29
 70
     1
102
RTVSPost2010Prop30
280
     1
102
RTVSPost2010PropOp30
 70
     1
102
RTVSPost2010Prop31
280
     0
102
RTVSPost2010PropOp31
 70
     1
102
RTVSPost2010Prop32
280
     0
102
RTVSPost2010PropOp32
 70
     1
102
RTVSPost2010Prop33
280
     0
102
RTVSPost2010PropOp33
 70
     1
102
RTVSPost2010Prop34
280
     0
102
RTVSPost2010PropOp34
 70
     1
102
RTVSPost2010Prop35
280
     0
102
RTVSPost2010PropOp35
 70
     1
102
RTVSPost2010Prop36
280
     0
102
RTVSPost2010PropOp36
 70
     1
102
RTVSPost2010Prop37
 90
       50
102
RTVSPost2010PropOp37
 70
     1
102
RTVSPost2010Prop38
140
0.0
102
RTVSPost2010PropOp38
 70
     1
102
RTVSPost2010Prop39
140
1.0
102
RTVSPost2010PropOp39
 70
     1
102
RTVSPost2010Prop40
 90
        0
102
RTVSPost2010PropOp40
 70
     1
102
RTVSPost2010Prop41ColorIndex
 90
       18
102
RTVSPost2010Prop41ColorRGB
 90
        0
102
RTVSPost2010PropOp41
 70
     1
102
RTVSPost2010Prop42
 90
       50
102
RTVSPost2010PropOp42
 70
     1
102
RTVSPost2010Prop43
 90
        3
102
RTVSPost2010PropOp43
 70
     1
102
RTVSPost2010Prop44ColorIndex
 90
        5
102
RTVSPost2010Prop44ColorRGB
 90
      255
102
RTVSPost2010PropOp44
 70
     1
102
RTVSPost2010Prop45
280
     0
102
RTVSPost2010PropOp45
 70
     1
102
RTVSPost2010Prop46
 90
       50
102
RTVSPost2010PropOp46
 70
     1
102
RTVSPost2010Prop47
 90
       50
102
RTVSPost2010PropOp47
 70
     1
102
RTVSPost2010Prop48
 90
       50
102
RTVSPost2010PropOp48
 70
     1
102
RTVSPost2010Prop49
280
     0
102
RTVSPost2010PropOp49
 70
     1
102
RTVSPost2010Prop50
 90
       50
102
RTVSPost2010PropOp50
 70
     1
102
RTVSPost2010Prop51ColorIndex
 90
      256
102
RTVSPost2010Prop51ColorRGB
 90
-16777216
102
RTVSPost2010PropOp51
 70
     0
102
RTVSPost2010Prop52
140
1.0
102
RTVSPost2010PropOp52
 70
     0
102
RTVSPost2010Prop53
 90
        2
102
RTVSPost2010PropOp53
 70
     1
102
RTVSPost2010Prop54
  1
strokes_ogs.tif
102
RTVSPost2010PropOp54
 70
     1
102
RTVSPost2010Prop55
280
     0
102
RTVSPost2010PropOp55
 70
     1
102
RTVSPost2010Prop56
140
1.0
102
RTVSPost2010PropOp56
 70
     1
102
RTVSPost2010Prop57
140
1.0
102
RTVSPost2010PropOp57
 70
     1
102
RTVSPropertyOp0
 70
     1
102
RTVSPropertyOp1
 70
     1
102
RTVSPropertyOp2
 70
     1
102
RTVSPropertyOp3
 70
     1
102
RTVSPropertyOp4
 70
     1
102
RTVSPropertyOp5
 70
     1
102
RTVSPropertyOp6
 70
     1
102
RTVSPropertyOp7
 70
     1
102
RTVSPropertyOp8
 70
     1
102
RTVSPropertyOp9
 70
     1
102
RTVSPropertyOp10
 70
     1
102
RTVSPropertyOp11
 70
     1
102
RTVSPropertyOp12
 70
     1
102
RTVSPropertyOp13
 70
     1
102
RTVSPropertyOp14
 70
     1
102
RTVSPropertyOp15
 70
     1
102
RTVSPropertyOp16
 70
     1
102
RTVSPropertyOp17
 70
     1
102
RTVSPropertyOp18
 70
     1
102
RTVSPropertyOp19
 70
     1
102
RTVSPropertyOp20
 70
     1
102
RTVSPropertyOp21
 70
     1
102
RTVSPropertyOp22
 70
     1
102
RTVSPropertyOp23
 70
     1
102
RTVSPropertyOp24
 70
     1
102
RTVSPropertyOp25
 70
     1
102
RTVSPropertyOp26
 70
     1
102
RTVSPropertyOp27
 70
     1
102
RTVSPropertyOp28
 70
     1
102
RTVSPropertyOp29
 70
     1
102
RTVSPropertyOp30
 70
     1
102
RTVSPropertyOp31
 70
     1
102
RTVSPropertyOp32
 70
     1
102
RTVSPropertyOp33
 70
     1
102
RTVSPropertyOp34
 70
     1
102
RTVSPropertyOp35
 70
     1
102
RTVSPropertyOp36
 70
     1
102
RTVSPropertyOp37
 70
     1
102
RTVSPropertyOp38
 70
     1
102
RTVSPropertyOp39
 70
     1
102
RTVSPropertyOp40
 70
     1
102
RTVSPropertyOp41
 70
     1
102
RTVSPropertyOp42
 70
     1
102
RTVSPropertyOp43
 70
     1
102
RTVSPropertyOp44
 70
     1
102
RTVSPropertyOp45
 70
     1
102
RTVSPropertyOp46
 70
     1
102
RTVSPropertyOp47
 70
     1
102
RTVSPropertyOp48
 70
     1
102
RTVSPropertyOp49
 70
     1
102
RTVSPropertyOp50
 70
     1
102
RTVSPropertyOp51
 70
     0
102
RTVSPropertyOp52
 70
     0
102
RTVSPropertyOp53
 70
     1
102
RTVSPropertyOp54
 70
     1
102
RTVSPropertyOp55
 70
     1
102
RTVSPropertyOp56
 70
     1
102
RTVSPropertyOp57
 70
     1
102
RTVSPropertyOp58
 70
     1
102
RTVSPropertyOp59
 70
     1
102
RTVSPropertyOp60
 70
     1
102
RTVSPropertyOp61
 70
     1
102
RTVSPropertyOp62
 70
     1
  0
XRECORD
  5
170CF
102
{ACAD_REACTORS
330
170CE
102
}
330
170CE
100
AcDbXrecord
280
     1
102
RTVSPost2010Prop28
280
     0
102
RTVSPost2010PropOp28
 70
     1
102
RTVSPost2010Prop29
280
     1
102
RTVSPost2010PropOp29
 70
     1
102
RTVSPost2010Prop30
280
     1
102
RTVSPost2010PropOp30
 70
     1
102
RTVSPost2010Prop31
280
     0
102
RTVSPost2010PropOp31
 70
     1
102
RTVSPost2010Prop32
280
     0
102
RTVSPost2010PropOp32
 70
     1
102
RTVSPost2010Prop33
280
     0
102
RTVSPost2010PropOp33
 70
     1
102
RTVSPost2010Prop34
280
     0
102
RTVSPost2010PropOp34
 70
     1
102
RTVSPost2010Prop35
280
     0
102
RTVSPost2010PropOp35
 70
     1
102
RTVSPost2010Prop36
280
     0
102
RTVSPost2010PropOp36
 70
     1
102
RTVSPost2010Prop37
 90
       50
102
RTVSPost2010PropOp37
 70
     1
102
RTVSPost2010Prop38
140
0.0
102
RTVSPost2010PropOp38
 70
     1
102
RTVSPost2010Prop39
140
1.0
102
RTVSPost2010PropOp39
 70
     1
102
RTVSPost2010Prop40
 90
        0
102
RTVSPost2010PropOp40
 70
     1
102
RTVSPost2010Prop41ColorIndex
 90
       18
102
RTVSPost2010Prop41ColorRGB
 90
        0
102
RTVSPost2010PropOp41
 70
     1
102
RTVSPost2010Prop42
 90
       50
102
RTVSPost2010PropOp42
 70
     1
102
RTVSPost2010Prop43
 90
        3
102
RTVSPost2010PropOp43
 70
     1
102
RTVSPost2010Prop44ColorIndex
 90
        5
102
RTVSPost2010Prop44ColorRGB
 90
      255
102
RTVSPost2010PropOp44
 70
     1
102
RTVSPost2010Prop45
280
     0
102
RTVSPost2010PropOp45
 70
     1
102
RTVSPost2010Prop46
 90
       50
102
RTVSPost2010PropOp46
 70
     1
102
RTVSPost2010Prop47
 90
       50
102
RTVSPost2010PropOp47
 70
     1
102
RTVSPost2010Prop48
 90
       50
102
RTVSPost2010PropOp48
 70
     1
102
RTVSPost2010Prop49
280
     0
102
RTVSPost2010PropOp49
 70
     1
102
RTVSPost2010Prop50
 90
       50
102
RTVSPost2010PropOp50
 70
     1
102
RTVSPost2010Prop51ColorIndex
 90
      256
102
RTVSPost2010Prop51ColorRGB
 90
-16777216
102
RTVSPost2010PropOp51
 70
     0
102
RTVSPost2010Prop52
140
1.0
102
RTVSPost2010PropOp52
 70
     0
102
RTVSPost2010Prop53
 90
        2
102
RTVSPost2010PropOp53
 70
     1
102
RTVSPost2010Prop54
  1
strokes_ogs.tif
102
RTVSPost2010PropOp54
 70
     1
102
RTVSPost2010Prop55
280
     0
102
RTVSPost2010PropOp55
 70
     1
102
RTVSPost2010Prop56
140
1.0
102
RTVSPost2010PropOp56
 70
     1
102
RTVSPost2010Prop57
140
1.0
102
RTVSPost2010PropOp57
 70
     1
102
RTVSPropertyOp0
 70
     1
102
RTVSPropertyOp1
 70
     1
102
RTVSPropertyOp2
 70
     1
102
RTVSPropertyOp3
 70
     1
102
RTVSPropertyOp4
 70
     1
102
RTVSPropertyOp5
 70
     1
102
RTVSPropertyOp6
 70
     1
102
RTVSPropertyOp7
 70
     1
102
RTVSPropertyOp8
 70
     1
102
RTVSPropertyOp9
 70
     1
102
RTVSPropertyOp10
 70
     1
102
RTVSPropertyOp11
 70
     1
102
RTVSPropertyOp12
 70
     1
102
RTVSPropertyOp13
 70
     1
102
RTVSPropertyOp14
 70
     1
102
RTVSPropertyOp15
 70
     1
102
RTVSPropertyOp16
 70
     1
102
RTVSPropertyOp17
 70
     1
102
RTVSPropertyOp18
 70
     1
102
RTVSPropertyOp19
 70
     1
102
RTVSPropertyOp20
 70
     1
102
RTVSPropertyOp21
 70
     1
102
RTVSPropertyOp22
 70
     1
102
RTVSPropertyOp23
 70
     1
102
RTVSPropertyOp24
 70
     1
102
RTVSPropertyOp25
 70
     1
102
RTVSPropertyOp26
 70
     1
102
RTVSPropertyOp27
 70
     1
102
RTVSPropertyOp28
 70
     1
102
RTVSPropertyOp29
 70
     1
102
RTVSPropertyOp30
 70
     1
102
RTVSPropertyOp31
 70
     1
102
RTVSPropertyOp32
 70
     1
102
RTVSPropertyOp33
 70
     1
102
RTVSPropertyOp34
 70
     1
102
RTVSPropertyOp35
 70
     1
102
RTVSPropertyOp36
 70
     1
102
RTVSPropertyOp37
 70
     1
102
RTVSPropertyOp38
 70
     1
102
RTVSPropertyOp39
 70
     1
102
RTVSPropertyOp40
 70
     1
102
RTVSPropertyOp41
 70
     1
102
RTVSPropertyOp42
 70
     1
102
RTVSPropertyOp43
 70
     1
102
RTVSPropertyOp44
 70
     1
102
RTVSPropertyOp45
 70
     1
102
RTVSPropertyOp46
 70
     1
102
RTVSPropertyOp47
 70
     1
102
RTVSPropertyOp48
 70
     1
102
RTVSPropertyOp49
 70
     1
102
RTVSPropertyOp50
 70
     1
102
RTVSPropertyOp51
 70
     0
102
RTVSPropertyOp52
 70
     0
102
RTVSPropertyOp53
 70
     1
102
RTVSPropertyOp54
 70
     1
102
RTVSPropertyOp55
 70
     1
102
RTVSPropertyOp56
 70
     1
102
RTVSPropertyOp57
 70
     1
102
RTVSPropertyOp58
 70
     1
102
RTVSPropertyOp59
 70
     1
102
RTVSPropertyOp60
 70
     1
102
RTVSPropertyOp61
 70
     1
102
RTVSPropertyOp62
 70
     1
  0
XRECORD
  5
170D1
102
{ACAD_REACTORS
330
170D0
102
}
330
170D0
100
AcDbXrecord
280
     1
102
RTVSPost2010Prop28
280
     0
102
RTVSPost2010PropOp28
 70
     1
102
RTVSPost2010Prop29
280
     1
102
RTVSPost2010PropOp29
 70
     1
102
RTVSPost2010Prop30
280
     1
102
RTVSPost2010PropOp30
 70
     1
102
RTVSPost2010Prop31
280
     0
102
RTVSPost2010PropOp31
 70
     1
102
RTVSPost2010Prop32
280
     0
102
RTVSPost2010PropOp32
 70
     1
102
RTVSPost2010Prop33
280
     0
102
RTVSPost2010PropOp33
 70
     1
102
RTVSPost2010Prop34
280
     0
102
RTVSPost2010PropOp34
 70
     1
102
RTVSPost2010Prop35
280
     0
102
RTVSPost2010PropOp35
 70
     1
102
RTVSPost2010Prop36
280
     0
102
RTVSPost2010PropOp36
 70
     1
102
RTVSPost2010Prop37
 90
       50
102
RTVSPost2010PropOp37
 70
     1
102
RTVSPost2010Prop38
140
0.0
102
RTVSPost2010PropOp38
 70
     1
102
RTVSPost2010Prop39
140
1.0
102
RTVSPost2010PropOp39
 70
     1
102
RTVSPost2010Prop40
 90
        0
102
RTVSPost2010PropOp40
 70
     1
102
RTVSPost2010Prop41ColorIndex
 90
       18
102
RTVSPost2010Prop41ColorRGB
 90
        0
102
RTVSPost2010PropOp41
 70
     1
102
RTVSPost2010Prop42
 90
       50
102
RTVSPost2010PropOp42
 70
     1
102
RTVSPost2010Prop43
 90
        3
102
RTVSPost2010PropOp43
 70
     1
102
RTVSPost2010Prop44ColorIndex
 90
        5
102
RTVSPost2010Prop44ColorRGB
 90
      255
102
RTVSPost2010PropOp44
 70
     1
102
RTVSPost2010Prop45
280
     0
102
RTVSPost2010PropOp45
 70
     1
102
RTVSPost2010Prop46
 90
       50
102
RTVSPost2010PropOp46
 70
     1
102
RTVSPost2010Prop47
 90
       50
102
RTVSPost2010PropOp47
 70
     1
102
RTVSPost2010Prop48
 90
       50
102
RTVSPost2010PropOp48
 70
     1
102
RTVSPost2010Prop49
280
     0
102
RTVSPost2010PropOp49
 70
     1
102
RTVSPost2010Prop50
 90
       50
102
RTVSPost2010PropOp50
 70
     1
102
RTVSPost2010Prop51ColorIndex
 90
      256
102
RTVSPost2010Prop51ColorRGB
 90
-16777216
102
RTVSPost2010PropOp51
 70
     0
102
RTVSPost2010Prop52
140
1.0
102
RTVSPost2010PropOp52
 70
     0
102
RTVSPost2010Prop53
 90
        2
102
RTVSPost2010PropOp53
 70
     1
102
RTVSPost2010Prop54
  1
strokes_ogs.tif
102
RTVSPost2010PropOp54
 70
     1
102
RTVSPost2010Prop55
280
     0
102
RTVSPost2010PropOp55
 70
     1
102
RTVSPost2010Prop56
140
1.0
102
RTVSPost2010PropOp56
 70
     1
102
RTVSPost2010Prop57
140
1.0
102
RTVSPost2010PropOp57
 70
     1
102
RTVSPropertyOp0
 70
     1
102
RTVSPropertyOp1
 70
     1
102
RTVSPropertyOp2
 70
     1
102
RTVSPropertyOp3
 70
     1
102
RTVSPropertyOp4
 70
     1
102
RTVSPropertyOp5
 70
     1
102
RTVSPropertyOp6
 70
     1
102
RTVSPropertyOp7
 70
     1
102
RTVSPropertyOp8
 70
     1
102
RTVSPropertyOp9
 70
     1
102
RTVSPropertyOp10
 70
     1
102
RTVSPropertyOp11
 70
     1
102
RTVSPropertyOp12
 70
     1
102
RTVSPropertyOp13
 70
     1
102
RTVSPropertyOp14
 70
     1
102
RTVSPropertyOp15
 70
     1
102
RTVSPropertyOp16
 70
     1
102
RTVSPropertyOp17
 70
     1
102
RTVSPropertyOp18
 70
     1
102
RTVSPropertyOp19
 70
     1
102
RTVSPropertyOp20
 70
     1
102
RTVSPropertyOp21
 70
     1
102
RTVSPropertyOp22
 70
     1
102
RTVSPropertyOp23
 70
     1
102
RTVSPropertyOp24
 70
     1
102
RTVSPropertyOp25
 70
     1
102
RTVSPropertyOp26
 70
     1
102
RTVSPropertyOp27
 70
     1
102
RTVSPropertyOp28
 70
     1
102
RTVSPropertyOp29
 70
     1
102
RTVSPropertyOp30
 70
     1
102
RTVSPropertyOp31
 70
     1
102
RTVSPropertyOp32
 70
     1
102
RTVSPropertyOp33
 70
     1
102
RTVSPropertyOp34
 70
     1
102
RTVSPropertyOp35
 70
     1
102
RTVSPropertyOp36
 70
     1
102
RTVSPropertyOp37
 70
     1
102
RTVSPropertyOp38
 70
     1
102
RTVSPropertyOp39
 70
     1
102
RTVSPropertyOp40
 70
     1
102
RTVSPropertyOp41
 70
     1
102
RTVSPropertyOp42
 70
     1
102
RTVSPropertyOp43
 70
     1
102
RTVSPropertyOp44
 70
     1
102
RTVSPropertyOp45
 70
     1
102
RTVSPropertyOp46
 70
     1
102
RTVSPropertyOp47
 70
     1
102
RTVSPropertyOp48
 70
     1
102
RTVSPropertyOp49
 70
     1
102
RTVSPropertyOp50
 70
     1
102
RTVSPropertyOp51
 70
     0
102
RTVSPropertyOp52
 70
     0
102
RTVSPropertyOp53
 70
     1
102
RTVSPropertyOp54
 70
     1
102
RTVSPropertyOp55
 70
     1
102
RTVSPropertyOp56
 70
     1
102
RTVSPropertyOp57
 70
     1
102
RTVSPropertyOp58
 70
     1
102
RTVSPropertyOp59
 70
     1
102
RTVSPropertyOp60
 70
     1
102
RTVSPropertyOp61
 70
     1
102
RTVSPropertyOp62
 70
     1
  0
XRECORD
  5
170D9
102
{ACAD_REACTORS
330
170D8
102
}
330
170D8
100
AcDbXrecord
280
     1
102
RTVSPost2010Prop28
280
     0
102
RTVSPost2010PropOp28
 70
     1
102
RTVSPost2010Prop29
280
     1
102
RTVSPost2010PropOp29
 70
     1
102
RTVSPost2010Prop30
280
     1
102
RTVSPost2010PropOp30
 70
     1
102
RTVSPost2010Prop31
280
     0
102
RTVSPost2010PropOp31
 70
     1
102
RTVSPost2010Prop32
280
     0
102
RTVSPost2010PropOp32
 70
     1
102
RTVSPost2010Prop33
280
     0
102
RTVSPost2010PropOp33
 70
     1
102
RTVSPost2010Prop34
280
     0
102
RTVSPost2010PropOp34
 70
     1
102
RTVSPost2010Prop35
280
     0
102
RTVSPost2010PropOp35
 70
     1
102
RTVSPost2010Prop36
280
     0
102
RTVSPost2010PropOp36
 70
     1
102
RTVSPost2010Prop37
 90
       50
102
RTVSPost2010PropOp37
 70
     1
102
RTVSPost2010Prop38
140
0.0
102
RTVSPost2010PropOp38
 70
     1
102
RTVSPost2010Prop39
140
1.0
102
RTVSPost2010PropOp39
 70
     1
102
RTVSPost2010Prop40
 90
        0
102
RTVSPost2010PropOp40
 70
     1
102
RTVSPost2010Prop41ColorIndex
 90
       18
102
RTVSPost2010Prop41ColorRGB
 90
        0
102
RTVSPost2010PropOp41
 70
     1
102
RTVSPost2010Prop42
 90
       50
102
RTVSPost2010PropOp42
 70
     1
102
RTVSPost2010Prop43
 90
        3
102
RTVSPost2010PropOp43
 70
     1
102
RTVSPost2010Prop44ColorIndex
 90
        5
102
RTVSPost2010Prop44ColorRGB
 90
      255
102
RTVSPost2010PropOp44
 70
     1
102
RTVSPost2010Prop45
280
     0
102
RTVSPost2010PropOp45
 70
     1
102
RTVSPost2010Prop46
 90
       50
102
RTVSPost2010PropOp46
 70
     1
102
RTVSPost2010Prop47
 90
       50
102
RTVSPost2010PropOp47
 70
     1
102
RTVSPost2010Prop48
 90
       50
102
RTVSPost2010PropOp48
 70
     1
102
RTVSPost2010Prop49
280
     0
102
RTVSPost2010PropOp49
 70
     1
102
RTVSPost2010Prop50
 90
       50
102
RTVSPost2010PropOp50
 70
     1
102
RTVSPost2010Prop51ColorIndex
 90
      256
102
RTVSPost2010Prop51ColorRGB
 90
-16777216
102
RTVSPost2010PropOp51
 70
     0
102
RTVSPost2010Prop52
140
1.0
102
RTVSPost2010PropOp52
 70
     0
102
RTVSPost2010Prop53
 90
        2
102
RTVSPost2010PropOp53
 70
     1
102
RTVSPost2010Prop54
  1
strokes_ogs.tif
102
RTVSPost2010PropOp54
 70
     1
102
RTVSPost2010Prop55
280
     0
102
RTVSPost2010PropOp55
 70
     1
102
RTVSPost2010Prop56
140
1.0
102
RTVSPost2010PropOp56
 70
     1
102
RTVSPost2010Prop57
140
1.0
102
RTVSPost2010PropOp57
 70
     1
102
RTVSPropertyOp0
 70
     1
102
RTVSPropertyOp1
 70
     1
102
RTVSPropertyOp2
 70
     1
102
RTVSPropertyOp3
 70
     1
102
RTVSPropertyOp4
 70
     1
102
RTVSPropertyOp5
 70
     1
102
RTVSPropertyOp6
 70
     1
102
RTVSPropertyOp7
 70
     1
102
RTVSPropertyOp8
 70
     1
102
RTVSPropertyOp9
 70
     1
102
RTVSPropertyOp10
 70
     1
102
RTVSPropertyOp11
 70
     1
102
RTVSPropertyOp12
 70
     1
102
RTVSPropertyOp13
 70
     1
102
RTVSPropertyOp14
 70
     1
102
RTVSPropertyOp15
 70
     1
102
RTVSPropertyOp16
 70
     1
102
RTVSPropertyOp17
 70
     1
102
RTVSPropertyOp18
 70
     1
102
RTVSPropertyOp19
 70
     1
102
RTVSPropertyOp20
 70
     1
102
RTVSPropertyOp21
 70
     1
102
RTVSPropertyOp22
 70
     1
102
RTVSPropertyOp23
 70
     1
102
RTVSPropertyOp24
 70
     1
102
RTVSPropertyOp25
 70
     1
102
RTVSPropertyOp26
 70
     1
102
RTVSPropertyOp27
 70
     1
102
RTVSPropertyOp28
 70
     1
102
RTVSPropertyOp29
 70
     1
102
RTVSPropertyOp30
 70
     1
102
RTVSPropertyOp31
 70
     1
102
RTVSPropertyOp32
 70
     1
102
RTVSPropertyOp33
 70
     1
102
RTVSPropertyOp34
 70
     1
102
RTVSPropertyOp35
 70
     1
102
RTVSPropertyOp36
 70
     1
102
RTVSPropertyOp37
 70
     1
102
RTVSPropertyOp38
 70
     1
102
RTVSPropertyOp39
 70
     1
102
RTVSPropertyOp40
 70
     1
102
RTVSPropertyOp41
 70
     1
102
RTVSPropertyOp42
 70
     1
102
RTVSPropertyOp43
 70
     1
102
RTVSPropertyOp44
 70
     1
102
RTVSPropertyOp45
 70
     1
102
RTVSPropertyOp46
 70
     1
102
RTVSPropertyOp47
 70
     1
102
RTVSPropertyOp48
 70
     1
102
RTVSPropertyOp49
 70
     1
102
RTVSPropertyOp50
 70
     1
102
RTVSPropertyOp51
 70
     0
102
RTVSPropertyOp52
 70
     0
102
RTVSPropertyOp53
 70
     1
102
RTVSPropertyOp54
 70
     1
102
RTVSPropertyOp55
 70
     1
102
RTVSPropertyOp56
 70
     1
102
RTVSPropertyOp57
 70
     1
102
RTVSPropertyOp58
 70
     1
102
RTVSPropertyOp59
 70
     1
102
RTVSPropertyOp60
 70
     1
102
RTVSPropertyOp61
 70
     1
102
RTVSPropertyOp62
 70
     1
  0
XRECORD
  5
170F5
102
{ACAD_REACTORS
330
170F4
102
}
330
170F4
100
AcDbXrecord
280
     1
102
RTVSPost2010Prop28
280
     0
102
RTVSPost2010PropOp28
 70
     0
102
RTVSPost2010Prop29
280
     1
102
RTVSPost2010PropOp29
 70
     0
102
RTVSPost2010Prop30
280
     1
102
RTVSPost2010PropOp30
 70
     0
102
RTVSPost2010Prop31
280
     0
102
RTVSPost2010PropOp31
 70
     0
102
RTVSPost2010Prop32
280
     0
102
RTVSPost2010PropOp32
 70
     0
102
RTVSPost2010Prop33
280
     0
102
RTVSPost2010PropOp33
 70
     0
102
RTVSPost2010Prop34
280
     0
102
RTVSPost2010PropOp34
 70
     0
102
RTVSPost2010Prop35
280
     0
102
RTVSPost2010PropOp35
 70
     0
102
RTVSPost2010Prop36
280
     0
102
RTVSPost2010PropOp36
 70
     0
102
RTVSPost2010Prop37
 90
       50
102
RTVSPost2010PropOp37
 70
     0
102
RTVSPost2010Prop38
140
0.0
102
RTVSPost2010PropOp38
 70
     0
102
RTVSPost2010Prop39
140
1.0
102
RTVSPost2010PropOp39
 70
     0
102
RTVSPost2010Prop40
 90
        0
102
RTVSPost2010PropOp40
 70
     0
102
RTVSPost2010Prop41ColorIndex
 90
       18
102
RTVSPost2010Prop41ColorRGB
 90
        0
102
RTVSPost2010PropOp41
 70
     0
102
RTVSPost2010Prop42
 90
       50
102
RTVSPost2010PropOp42
 70
     0
102
RTVSPost2010Prop43
 90
        3
102
RTVSPost2010PropOp43
 70
     0
102
RTVSPost2010Prop44ColorIndex
 90
        5
102
RTVSPost2010Prop44ColorRGB
 90
      255
102
RTVSPost2010PropOp44
 70
     0
102
RTVSPost2010Prop45
280
     0
102
RTVSPost2010PropOp45
 70
     0
102
RTVSPost2010Prop46
 90
       50
102
RTVSPost2010PropOp46
 70
     0
102
RTVSPost2010Prop47
 90
       50
102
RTVSPost2010PropOp47
 70
     0
102
RTVSPost2010Prop48
 90
       50
102
RTVSPost2010PropOp48
 70
     0
102
RTVSPost2010Prop49
280
     0
102
RTVSPost2010PropOp49
 70
     0
102
RTVSPost2010Prop50
 90
       50
102
RTVSPost2010PropOp50
 70
     0
102
RTVSPost2010Prop51ColorIndex
 90
      256
102
RTVSPost2010Prop51ColorRGB
 90
-16777216
102
RTVSPost2010PropOp51
 70
     0
102
RTVSPost2010Prop52
140
1.0
102
RTVSPost2010PropOp52
 70
     0
102
RTVSPost2010Prop53
 90
        2
102
RTVSPost2010PropOp53
 70
     0
102
RTVSPost2010Prop54
  1
strokes_ogs.tif
102
RTVSPost2010PropOp54
 70
     0
102
RTVSPost2010Prop55
280
     0
102
RTVSPost2010PropOp55
 70
     0
102
RTVSPost2010Prop56
140
1.0
102
RTVSPost2010PropOp56
 70
     0
102
RTVSPost2010Prop57
140
1.0
102
RTVSPost2010PropOp57
 70
     0
102
RTVSPropertyOp0
 70
     0
102
RTVSPropertyOp1
 70
     0
102
RTVSPropertyOp2
 70
     0
102
RTVSPropertyOp3
 70
     0
102
RTVSPropertyOp4
 70
     0
102
RTVSPropertyOp5
 70
     0
102
RTVSPropertyOp6
 70
     0
102
RTVSPropertyOp7
 70
     0
102
RTVSPropertyOp8
 70
     0
102
RTVSPropertyOp9
 70
     0
102
RTVSPropertyOp10
 70
     0
102
RTVSPropertyOp11
 70
     0
102
RTVSPropertyOp12
 70
     0
102
RTVSPropertyOp13
 70
     0
102
RTVSPropertyOp14
 70
     2
102
RTVSPropertyOp15
 70
     0
102
RTVSPropertyOp16
 70
     0
102
RTVSPropertyOp17
 70
     0
102
RTVSPropertyOp18
 70
     0
102
RTVSPropertyOp19
 70
     0
102
RTVSPropertyOp20
 70
     0
102
RTVSPropertyOp21
 70
     0
102
RTVSPropertyOp22
 70
     0
102
RTVSPropertyOp23
 70
     0
102
RTVSPropertyOp24
 70
     0
102
RTVSPropertyOp25
 70
     0
102
RTVSPropertyOp26
 70
     0
102
RTVSPropertyOp27
 70
     0
102
RTVSPropertyOp28
 70
     0
102
RTVSPropertyOp29
 70
     0
102
RTVSPropertyOp30
 70
     0
102
RTVSPropertyOp31
 70
     0
102
RTVSPropertyOp32
 70
     0
102
RTVSPropertyOp33
 70
     0
102
RTVSPropertyOp34
 70
     0
102
RTVSPropertyOp35
 70
     0
102
RTVSPropertyOp36
 70
     0
102
RTVSPropertyOp37
 70
     0
102
RTVSPropertyOp38
 70
     0
102
RTVSPropertyOp39
 70
     0
102
RTVSPropertyOp40
 70
     0
102
RTVSPropertyOp41
 70
     0
102
RTVSPropertyOp42
 70
     0
102
RTVSPropertyOp43
 70
     0
102
RTVSPropertyOp44
 70
     0
102
RTVSPropertyOp45
 70
     0
102
RTVSPropertyOp46
 70
     0
102
RTVSPropertyOp47
 70
     0
102
RTVSPropertyOp48
 70
     0
102
RTVSPropertyOp49
 70
     0
102
RTVSPropertyOp50
 70
     0
102
RTVSPropertyOp51
 70
     0
102
RTVSPropertyOp52
 70
     0
102
RTVSPropertyOp53
 70
     0
102
RTVSPropertyOp54
 70
     0
102
RTVSPropertyOp55
 70
     0
102
RTVSPropertyOp56
 70
     0
102
RTVSPropertyOp57
 70
     0
102
RTVSPropertyOp58
 70
     1
102
RTVSPropertyOp59
 70
     1
102
RTVSPropertyOp60
 70
     1
102
RTVSPropertyOp61
 70
     1
102
RTVSPropertyOp62
 70
     1
  0
XRECORD
  5
170E5
102
{ACAD_REACTORS
330
170E4
102
}
330
170E4
100
AcDbXrecord
280
     1
102
RTVSPost2010Prop28
280
     0
102
RTVSPost2010PropOp28
 70
     1
102
RTVSPost2010Prop29
280
     1
102
RTVSPost2010PropOp29
 70
     1
102
RTVSPost2010Prop30
280
     1
102
RTVSPost2010PropOp30
 70
     1
102
RTVSPost2010Prop31
280
     0
102
RTVSPost2010PropOp31
 70
     1
102
RTVSPost2010Prop32
280
     0
102
RTVSPost2010PropOp32
 70
     1
102
RTVSPost2010Prop33
280
     0
102
RTVSPost2010PropOp33
 70
     1
102
RTVSPost2010Prop34
280
     0
102
RTVSPost2010PropOp34
 70
     1
102
RTVSPost2010Prop35
280
     0
102
RTVSPost2010PropOp35
 70
     1
102
RTVSPost2010Prop36
280
     0
102
RTVSPost2010PropOp36
 70
     1
102
RTVSPost2010Prop37
 90
       50
102
RTVSPost2010PropOp37
 70
     1
102
RTVSPost2010Prop38
140
0.0
102
RTVSPost2010PropOp38
 70
     1
102
RTVSPost2010Prop39
140
1.0
102
RTVSPost2010PropOp39
 70
     1
102
RTVSPost2010Prop40
 90
        0
102
RTVSPost2010PropOp40
 70
     1
102
RTVSPost2010Prop41ColorIndex
 90
       18
102
RTVSPost2010Prop41ColorRGB
 90
        0
102
RTVSPost2010PropOp41
 70
     1
102
RTVSPost2010Prop42
 90
       50
102
RTVSPost2010PropOp42
 70
     1
102
RTVSPost2010Prop43
 90
        3
102
RTVSPost2010PropOp43
 70
     1
102
RTVSPost2010Prop44ColorIndex
 90
        5
102
RTVSPost2010Prop44ColorRGB
 90
      255
102
RTVSPost2010PropOp44
 70
     1
102
RTVSPost2010Prop45
280
     0
102
RTVSPost2010PropOp45
 70
     1
102
RTVSPost2010Prop46
 90
       50
102
RTVSPost2010PropOp46
 70
     1
102
RTVSPost2010Prop47
 90
       50
102
RTVSPost2010PropOp47
 70
     1
102
RTVSPost2010Prop48
 90
       50
102
RTVSPost2010PropOp48
 70
     1
102
RTVSPost2010Prop49
280
     0
102
RTVSPost2010PropOp49
 70
     1
102
RTVSPost2010Prop50
 90
       50
102
RTVSPost2010PropOp50
 70
     1
102
RTVSPost2010Prop51ColorIndex
 90
      256
102
RTVSPost2010Prop51ColorRGB
 90
-16777216
102
RTVSPost2010PropOp51
 70
     0
102
RTVSPost2010Prop52
140
1.0
102
RTVSPost2010PropOp52
 70
     0
102
RTVSPost2010Prop53
 90
        2
102
RTVSPost2010PropOp53
 70
     1
102
RTVSPost2010Prop54
  1
strokes_ogs.tif
102
RTVSPost2010PropOp54
 70
     1
102
RTVSPost2010Prop55
280
     0
102
RTVSPost2010PropOp55
 70
     1
102
RTVSPost2010Prop56
140
1.0
102
RTVSPost2010PropOp56
 70
     1
102
RTVSPost2010Prop57
140
1.0
102
RTVSPost2010PropOp57
 70
     1
102
RTVSPropertyOp0
 70
     1
102
RTVSPropertyOp1
 70
     1
102
RTVSPropertyOp2
 70
     1
102
RTVSPropertyOp3
 70
     1
102
RTVSPropertyOp4
 70
     1
102
RTVSPropertyOp5
 70
     1
102
RTVSPropertyOp6
 70
     1
102
RTVSPropertyOp7
 70
     1
102
RTVSPropertyOp8
 70
     1
102
RTVSPropertyOp9
 70
     1
102
RTVSPropertyOp10
 70
     1
102
RTVSPropertyOp11
 70
     1
102
RTVSPropertyOp12
 70
     1
102
RTVSPropertyOp13
 70
     1
102
RTVSPropertyOp14
 70
     1
102
RTVSPropertyOp15
 70
     1
102
RTVSPropertyOp16
 70
     1
102
RTVSPropertyOp17
 70
     1
102
RTVSPropertyOp18
 70
     1
102
RTVSPropertyOp19
 70
     1
102
RTVSPropertyOp20
 70
     1
102
RTVSPropertyOp21
 70
     1
102
RTVSPropertyOp22
 70
     1
102
RTVSPropertyOp23
 70
     1
102
RTVSPropertyOp24
 70
     1
102
RTVSPropertyOp25
 70
     1
102
RTVSPropertyOp26
 70
     1
102
RTVSPropertyOp27
 70
     1
102
RTVSPropertyOp28
 70
     1
102
RTVSPropertyOp29
 70
     1
102
RTVSPropertyOp30
 70
     1
102
RTVSPropertyOp31
 70
     1
102
RTVSPropertyOp32
 70
     1
102
RTVSPropertyOp33
 70
     1
102
RTVSPropertyOp34
 70
     1
102
RTVSPropertyOp35
 70
     1
102
RTVSPropertyOp36
 70
     1
102
RTVSPropertyOp37
 70
     1
102
RTVSPropertyOp38
 70
     1
102
RTVSPropertyOp39
 70
     1
102
RTVSPropertyOp40
 70
     1
102
RTVSPropertyOp41
 70
     1
102
RTVSPropertyOp42
 70
     1
102
RTVSPropertyOp43
 70
     1
102
RTVSPropertyOp44
 70
     1
102
RTVSPropertyOp45
 70
     1
102
RTVSPropertyOp46
 70
     1
102
RTVSPropertyOp47
 70
     1
102
RTVSPropertyOp48
 70
     1
102
RTVSPropertyOp49
 70
     1
102
RTVSPropertyOp50
 70
     1
102
RTVSPropertyOp51
 70
     0
102
RTVSPropertyOp52
 70
     0
102
RTVSPropertyOp53
 70
     1
102
RTVSPropertyOp54
 70
     1
102
RTVSPropertyOp55
 70
     1
102
RTVSPropertyOp56
 70
     1
102
RTVSPropertyOp57
 70
     1
102
RTVSPropertyOp58
 70
     1
102
RTVSPropertyOp59
 70
     1
102
RTVSPropertyOp60
 70
     1
102
RTVSPropertyOp61
 70
     1
102
RTVSPropertyOp62
 70
     1
  0
XRECORD
  5
170F7
102
{ACAD_REACTORS
330
170F6
102
}
330
170F6
100
AcDbXrecord
280
     1
102
RTVSPost2010Prop28
280
     0
102
RTVSPost2010PropOp28
 70
     0
102
RTVSPost2010Prop29
280
     1
102
RTVSPost2010PropOp29
 70
     0
102
RTVSPost2010Prop30
280
     1
102
RTVSPost2010PropOp30
 70
     0
102
RTVSPost2010Prop31
280
     0
102
RTVSPost2010PropOp31
 70
     0
102
RTVSPost2010Prop32
280
     0
102
RTVSPost2010PropOp32
 70
     0
102
RTVSPost2010Prop33
280
     0
102
RTVSPost2010PropOp33
 70
     0
102
RTVSPost2010Prop34
280
     0
102
RTVSPost2010PropOp34
 70
     0
102
RTVSPost2010Prop35
280
     0
102
RTVSPost2010PropOp35
 70
     0
102
RTVSPost2010Prop36
280
     0
102
RTVSPost2010PropOp36
 70
     0
102
RTVSPost2010Prop37
 90
       50
102
RTVSPost2010PropOp37
 70
     0
102
RTVSPost2010Prop38
140
0.0
102
RTVSPost2010PropOp38
 70
     0
102
RTVSPost2010Prop39
140
1.0
102
RTVSPost2010PropOp39
 70
     0
102
RTVSPost2010Prop40
 90
        0
102
RTVSPost2010PropOp40
 70
     0
102
RTVSPost2010Prop41ColorIndex
 90
       18
102
RTVSPost2010Prop41ColorRGB
 90
        0
102
RTVSPost2010PropOp41
 70
     0
102
RTVSPost2010Prop42
 90
       50
102
RTVSPost2010PropOp42
 70
     0
102
RTVSPost2010Prop43
 90
        3
102
RTVSPost2010PropOp43
 70
     0
102
RTVSPost2010Prop44ColorIndex
 90
        5
102
RTVSPost2010Prop44ColorRGB
 90
      255
102
RTVSPost2010PropOp44
 70
     0
102
RTVSPost2010Prop45
280
     0
102
RTVSPost2010PropOp45
 70
     0
102
RTVSPost2010Prop46
 90
       50
102
RTVSPost2010PropOp46
 70
     0
102
RTVSPost2010Prop47
 90
       50
102
RTVSPost2010PropOp47
 70
     0
102
RTVSPost2010Prop48
 90
       50
102
RTVSPost2010PropOp48
 70
     0
102
RTVSPost2010Prop49
280
     0
102
RTVSPost2010PropOp49
 70
     0
102
RTVSPost2010Prop50
 90
       50
102
RTVSPost2010PropOp50
 70
     0
102
RTVSPost2010Prop51ColorIndex
 90
      256
102
RTVSPost2010Prop51ColorRGB
 90
-16777216
102
RTVSPost2010PropOp51
 70
     0
102
RTVSPost2010Prop52
140
1.0
102
RTVSPost2010PropOp52
 70
     0
102
RTVSPost2010Prop53
 90
        2
102
RTVSPost2010PropOp53
 70
     0
102
RTVSPost2010Prop54
  1
strokes_ogs.tif
102
RTVSPost2010PropOp54
 70
     0
102
RTVSPost2010Prop55
280
     0
102
RTVSPost2010PropOp55
 70
     0
102
RTVSPost2010Prop56
140
1.0
102
RTVSPost2010PropOp56
 70
     0
102
RTVSPost2010Prop57
140
1.0
102
RTVSPost2010PropOp57
 70
     0
102
RTVSPropertyOp0
 70
     0
102
RTVSPropertyOp1
 70
     0
102
RTVSPropertyOp2
 70
     0
102
RTVSPropertyOp3
 70
     0
102
RTVSPropertyOp4
 70
     0
102
RTVSPropertyOp5
 70
     0
102
RTVSPropertyOp6
 70
     0
102
RTVSPropertyOp7
 70
     0
102
RTVSPropertyOp8
 70
     0
102
RTVSPropertyOp9
 70
     0
102
RTVSPropertyOp10
 70
     0
102
RTVSPropertyOp11
 70
     0
102
RTVSPropertyOp12
 70
     0
102
RTVSPropertyOp13
 70
     0
102
RTVSPropertyOp14
 70
     2
102
RTVSPropertyOp15
 70
     0
102
RTVSPropertyOp16
 70
     0
102
RTVSPropertyOp17
 70
     0
102
RTVSPropertyOp18
 70
     0
102
RTVSPropertyOp19
 70
     0
102
RTVSPropertyOp20
 70
     0
102
RTVSPropertyOp21
 70
     0
102
RTVSPropertyOp22
 70
     0
102
RTVSPropertyOp23
 70
     0
102
RTVSPropertyOp24
 70
     0
102
RTVSPropertyOp25
 70
     0
102
RTVSPropertyOp26
 70
     0
102
RTVSPropertyOp27
 70
     0
102
RTVSPropertyOp28
 70
     0
102
RTVSPropertyOp29
 70
     0
102
RTVSPropertyOp30
 70
     0
102
RTVSPropertyOp31
 70
     0
102
RTVSPropertyOp32
 70
     0
102
RTVSPropertyOp33
 70
     0
102
RTVSPropertyOp34
 70
     0
102
RTVSPropertyOp35
 70
     0
102
RTVSPropertyOp36
 70
     0
102
RTVSPropertyOp37
 70
     0
102
RTVSPropertyOp38
 70
     0
102
RTVSPropertyOp39
 70
     0
102
RTVSPropertyOp40
 70
     0
102
RTVSPropertyOp41
 70
     0
102
RTVSPropertyOp42
 70
     0
102
RTVSPropertyOp43
 70
     0
102
RTVSPropertyOp44
 70
     0
102
RTVSPropertyOp45
 70
     0
102
RTVSPropertyOp46
 70
     0
102
RTVSPropertyOp47
 70
     0
102
RTVSPropertyOp48
 70
     0
102
RTVSPropertyOp49
 70
     0
102
RTVSPropertyOp50
 70
     0
102
RTVSPropertyOp51
 70
     0
102
RTVSPropertyOp52
 70
     0
102
RTVSPropertyOp53
 70
     0
102
RTVSPropertyOp54
 70
     0
102
RTVSPropertyOp55
 70
     0
102
RTVSPropertyOp56
 70
     0
102
RTVSPropertyOp57
 70
     0
102
RTVSPropertyOp58
 70
     1
102
RTVSPropertyOp59
 70
     1
102
RTVSPropertyOp60
 70
     1
102
RTVSPropertyOp61
 70
     1
102
RTVSPropertyOp62
 70
     1
  0
XRECORD
  5
170DD
102
{ACAD_REACTORS
330
170DC
102
}
330
170DC
100
AcDbXrecord
280
     1
102
RTVSPost2010Prop28
280
     0
102
RTVSPost2010PropOp28
 70
     1
102
RTVSPost2010Prop29
280
     1
102
RTVSPost2010PropOp29
 70
     1
102
RTVSPost2010Prop30
280
     1
102
RTVSPost2010PropOp30
 70
     1
102
RTVSPost2010Prop31
280
     0
102
RTVSPost2010PropOp31
 70
     1
102
RTVSPost2010Prop32
280
     0
102
RTVSPost2010PropOp32
 70
     1
102
RTVSPost2010Prop33
280
     0
102
RTVSPost2010PropOp33
 70
     1
102
RTVSPost2010Prop34
280
     0
102
RTVSPost2010PropOp34
 70
     1
102
RTVSPost2010Prop35
280
     0
102
RTVSPost2010PropOp35
 70
     1
102
RTVSPost2010Prop36
280
     0
102
RTVSPost2010PropOp36
 70
     1
102
RTVSPost2010Prop37
 90
       50
102
RTVSPost2010PropOp37
 70
     1
102
RTVSPost2010Prop38
140
0.0
102
RTVSPost2010PropOp38
 70
     1
102
RTVSPost2010Prop39
140
1.0
102
RTVSPost2010PropOp39
 70
     1
102
RTVSPost2010Prop40
 90
        0
102
RTVSPost2010PropOp40
 70
     1
102
RTVSPost2010Prop41ColorIndex
 90
       18
102
RTVSPost2010Prop41ColorRGB
 90
        0
102
RTVSPost2010PropOp41
 70
     1
102
RTVSPost2010Prop42
 90
       50
102
RTVSPost2010PropOp42
 70
     1
102
RTVSPost2010Prop43
 90
        3
102
RTVSPost2010PropOp43
 70
     1
102
RTVSPost2010Prop44ColorIndex
 90
        5
102
RTVSPost2010Prop44ColorRGB
 90
      255
102
RTVSPost2010PropOp44
 70
     1
102
RTVSPost2010Prop45
280
     0
102
RTVSPost2010PropOp45
 70
     1
102
RTVSPost2010Prop46
 90
       50
102
RTVSPost2010PropOp46
 70
     1
102
RTVSPost2010Prop47
 90
       50
102
RTVSPost2010PropOp47
 70
     1
102
RTVSPost2010Prop48
 90
       50
102
RTVSPost2010PropOp48
 70
     1
102
RTVSPost2010Prop49
280
     0
102
RTVSPost2010PropOp49
 70
     1
102
RTVSPost2010Prop50
 90
       50
102
RTVSPost2010PropOp50
 70
     1
102
RTVSPost2010Prop51ColorIndex
 90
      256
102
RTVSPost2010Prop51ColorRGB
 90
-16777216
102
RTVSPost2010PropOp51
 70
     0
102
RTVSPost2010Prop52
140
1.0
102
RTVSPost2010PropOp52
 70
     0
102
RTVSPost2010Prop53
 90
        2
102
RTVSPost2010PropOp53
 70
     1
102
RTVSPost2010Prop54
  1
strokes_ogs.tif
102
RTVSPost2010PropOp54
 70
     1
102
RTVSPost2010Prop55
280
     0
102
RTVSPost2010PropOp55
 70
     1
102
RTVSPost2010Prop56
140
1.0
102
RTVSPost2010PropOp56
 70
     1
102
RTVSPost2010Prop57
140
1.0
102
RTVSPost2010PropOp57
 70
     1
102
RTVSPropertyOp0
 70
     1
102
RTVSPropertyOp1
 70
     1
102
RTVSPropertyOp2
 70
     1
102
RTVSPropertyOp3
 70
     1
102
RTVSPropertyOp4
 70
     1
102
RTVSPropertyOp5
 70
     1
102
RTVSPropertyOp6
 70
     1
102
RTVSPropertyOp7
 70
     1
102
RTVSPropertyOp8
 70
     1
102
RTVSPropertyOp9
 70
     1
102
RTVSPropertyOp10
 70
     1
102
RTVSPropertyOp11
 70
     1
102
RTVSPropertyOp12
 70
     1
102
RTVSPropertyOp13
 70
     1
102
RTVSPropertyOp14
 70
     1
102
RTVSPropertyOp15
 70
     1
102
RTVSPropertyOp16
 70
     1
102
RTVSPropertyOp17
 70
     1
102
RTVSPropertyOp18
 70
     1
102
RTVSPropertyOp19
 70
     1
102
RTVSPropertyOp20
 70
     1
102
RTVSPropertyOp21
 70
     1
102
RTVSPropertyOp22
 70
     1
102
RTVSPropertyOp23
 70
     1
102
RTVSPropertyOp24
 70
     1
102
RTVSPropertyOp25
 70
     1
102
RTVSPropertyOp26
 70
     1
102
RTVSPropertyOp27
 70
     1
102
RTVSPropertyOp28
 70
     1
102
RTVSPropertyOp29
 70
     1
102
RTVSPropertyOp30
 70
     1
102
RTVSPropertyOp31
 70
     1
102
RTVSPropertyOp32
 70
     1
102
RTVSPropertyOp33
 70
     1
102
RTVSPropertyOp34
 70
     1
102
RTVSPropertyOp35
 70
     1
102
RTVSPropertyOp36
 70
     1
102
RTVSPropertyOp37
 70
     1
102
RTVSPropertyOp38
 70
     1
102
RTVSPropertyOp39
 70
     1
102
RTVSPropertyOp40
 70
     1
102
RTVSPropertyOp41
 70
     1
102
RTVSPropertyOp42
 70
     1
102
RTVSPropertyOp43
 70
     1
102
RTVSPropertyOp44
 70
     1
102
RTVSPropertyOp45
 70
     1
102
RTVSPropertyOp46
 70
     1
102
RTVSPropertyOp47
 70
     1
102
RTVSPropertyOp48
 70
     1
102
RTVSPropertyOp49
 70
     1
102
RTVSPropertyOp50
 70
     1
102
RTVSPropertyOp51
 70
     0
102
RTVSPropertyOp52
 70
     0
102
RTVSPropertyOp53
 70
     1
102
RTVSPropertyOp54
 70
     1
102
RTVSPropertyOp55
 70
     1
102
RTVSPropertyOp56
 70
     1
102
RTVSPropertyOp57
 70
     1
102
RTVSPropertyOp58
 70
     1
102
RTVSPropertyOp59
 70
     1
102
RTVSPropertyOp60
 70
     1
102
RTVSPropertyOp61
 70
     1
102
RTVSPropertyOp62
 70
     1
  0
XRECORD
  5
170F3
102
{ACAD_REACTORS
330
170F2
102
}
330
170F2
100
AcDbXrecord
280
     1
102
RTVSPost2010Prop28
280
     0
102
RTVSPost2010PropOp28
 70
     1
102
RTVSPost2010Prop29
280
     1
102
RTVSPost2010PropOp29
 70
     1
102
RTVSPost2010Prop30
280
     1
102
RTVSPost2010PropOp30
 70
     1
102
RTVSPost2010Prop31
280
     0
102
RTVSPost2010PropOp31
 70
     1
102
RTVSPost2010Prop32
280
     0
102
RTVSPost2010PropOp32
 70
     1
102
RTVSPost2010Prop33
280
     0
102
RTVSPost2010PropOp33
 70
     1
102
RTVSPost2010Prop34
280
     0
102
RTVSPost2010PropOp34
 70
     1
102
RTVSPost2010Prop35
280
     0
102
RTVSPost2010PropOp35
 70
     1
102
RTVSPost2010Prop36
280
     0
102
RTVSPost2010PropOp36
 70
     1
102
RTVSPost2010Prop37
 90
       50
102
RTVSPost2010PropOp37
 70
     1
102
RTVSPost2010Prop38
140
0.0
102
RTVSPost2010PropOp38
 70
     1
102
RTVSPost2010Prop39
140
1.0
102
RTVSPost2010PropOp39
 70
     1
102
RTVSPost2010Prop40
 90
        0
102
RTVSPost2010PropOp40
 70
     1
102
RTVSPost2010Prop41ColorIndex
 90
       18
102
RTVSPost2010Prop41ColorRGB
 90
        0
102
RTVSPost2010PropOp41
 70
     1
102
RTVSPost2010Prop42
 90
       50
102
RTVSPost2010PropOp42
 70
     1
102
RTVSPost2010Prop43
 90
        3
102
RTVSPost2010PropOp43
 70
     1
102
RTVSPost2010Prop44ColorIndex
 90
        5
102
RTVSPost2010Prop44ColorRGB
 90
      255
102
RTVSPost2010PropOp44
 70
     1
102
RTVSPost2010Prop45
280
     0
102
RTVSPost2010PropOp45
 70
     1
102
RTVSPost2010Prop46
 90
       50
102
RTVSPost2010PropOp46
 70
     1
102
RTVSPost2010Prop47
 90
       50
102
RTVSPost2010PropOp47
 70
     1
102
RTVSPost2010Prop48
 90
       50
102
RTVSPost2010PropOp48
 70
     1
102
RTVSPost2010Prop49
280
     0
102
RTVSPost2010PropOp49
 70
     1
102
RTVSPost2010Prop50
 90
       50
102
RTVSPost2010PropOp50
 70
     1
102
RTVSPost2010Prop51ColorIndex
 90
      256
102
RTVSPost2010Prop51ColorRGB
 90
-16777216
102
RTVSPost2010PropOp51
 70
     0
102
RTVSPost2010Prop52
140
1.0
102
RTVSPost2010PropOp52
 70
     0
102
RTVSPost2010Prop53
 90
        2
102
RTVSPost2010PropOp53
 70
     1
102
RTVSPost2010Prop54
  1
strokes_ogs.tif
102
RTVSPost2010PropOp54
 70
     1
102
RTVSPost2010Prop55
280
     0
102
RTVSPost2010PropOp55
 70
     1
102
RTVSPost2010Prop56
140
1.0
102
RTVSPost2010PropOp56
 70
     1
102
RTVSPost2010Prop57
140
1.0
102
RTVSPost2010PropOp57
 70
     1
102
RTVSPropertyOp0
 70
     1
102
RTVSPropertyOp1
 70
     1
102
RTVSPropertyOp2
 70
     1
102
RTVSPropertyOp3
 70
     1
102
RTVSPropertyOp4
 70
     1
102
RTVSPropertyOp5
 70
     1
102
RTVSPropertyOp6
 70
     1
102
RTVSPropertyOp7
 70
     1
102
RTVSPropertyOp8
 70
     1
102
RTVSPropertyOp9
 70
     1
102
RTVSPropertyOp10
 70
     1
102
RTVSPropertyOp11
 70
     1
102
RTVSPropertyOp12
 70
     1
102
RTVSPropertyOp13
 70
     1
102
RTVSPropertyOp14
 70
     1
102
RTVSPropertyOp15
 70
     1
102
RTVSPropertyOp16
 70
     1
102
RTVSPropertyOp17
 70
     1
102
RTVSPropertyOp18
 70
     1
102
RTVSPropertyOp19
 70
     1
102
RTVSPropertyOp20
 70
     1
102
RTVSPropertyOp21
 70
     1
102
RTVSPropertyOp22
 70
     1
102
RTVSPropertyOp23
 70
     1
102
RTVSPropertyOp24
 70
     1
102
RTVSPropertyOp25
 70
     1
102
RTVSPropertyOp26
 70
     1
102
RTVSPropertyOp27
 70
     1
102
RTVSPropertyOp28
 70
     1
102
RTVSPropertyOp29
 70
     1
102
RTVSPropertyOp30
 70
     1
102
RTVSPropertyOp31
 70
     1
102
RTVSPropertyOp32
 70
     1
102
RTVSPropertyOp33
 70
     1
102
RTVSPropertyOp34
 70
     1
102
RTVSPropertyOp35
 70
     1
102
RTVSPropertyOp36
 70
     1
102
RTVSPropertyOp37
 70
     1
102
RTVSPropertyOp38
 70
     1
102
RTVSPropertyOp39
 70
     1
102
RTVSPropertyOp40
 70
     1
102
RTVSPropertyOp41
 70
     1
102
RTVSPropertyOp42
 70
     1
102
RTVSPropertyOp43
 70
     1
102
RTVSPropertyOp44
 70
     1
102
RTVSPropertyOp45
 70
     1
102
RTVSPropertyOp46
 70
     1
102
RTVSPropertyOp47
 70
     1
102
RTVSPropertyOp48
 70
     1
102
RTVSPropertyOp49
 70
     1
102
RTVSPropertyOp50
 70
     1
102
RTVSPropertyOp51
 70
     0
102
RTVSPropertyOp52
 70
     0
102
RTVSPropertyOp53
 70
     1
102
RTVSPropertyOp54
 70
     1
102
RTVSPropertyOp55
 70
     1
102
RTVSPropertyOp56
 70
     1
102
RTVSPropertyOp57
 70
     1
102
RTVSPropertyOp58
 70
     1
102
RTVSPropertyOp59
 70
     1
102
RTVSPropertyOp60
 70
     1
102
RTVSPropertyOp61
 70
     1
102
RTVSPropertyOp62
 70
     1
  0
XRECORD
  5
170F1
102
{ACAD_REACTORS
330
170F0
102
}
330
170F0
100
AcDbXrecord
280
     1
102
RTVSPost2010Prop28
280
     0
102
RTVSPost2010PropOp28
 70
     1
102
RTVSPost2010Prop29
280
     1
102
RTVSPost2010PropOp29
 70
     1
102
RTVSPost2010Prop30
280
     1
102
RTVSPost2010PropOp30
 70
     1
102
RTVSPost2010Prop31
280
     0
102
RTVSPost2010PropOp31
 70
     1
102
RTVSPost2010Prop32
280
     0
102
RTVSPost2010PropOp32
 70
     1
102
RTVSPost2010Prop33
280
     0
102
RTVSPost2010PropOp33
 70
     1
102
RTVSPost2010Prop34
280
     0
102
RTVSPost2010PropOp34
 70
     1
102
RTVSPost2010Prop35
280
     0
102
RTVSPost2010PropOp35
 70
     1
102
RTVSPost2010Prop36
280
     0
102
RTVSPost2010PropOp36
 70
     1
102
RTVSPost2010Prop37
 90
       50
102
RTVSPost2010PropOp37
 70
     1
102
RTVSPost2010Prop38
140
0.0
102
RTVSPost2010PropOp38
 70
     1
102
RTVSPost2010Prop39
140
1.0
102
RTVSPost2010PropOp39
 70
     1
102
RTVSPost2010Prop40
 90
        0
102
RTVSPost2010PropOp40
 70
     1
102
RTVSPost2010Prop41ColorIndex
 90
       18
102
RTVSPost2010Prop41ColorRGB
 90
        0
102
RTVSPost2010PropOp41
 70
     1
102
RTVSPost2010Prop42
 90
       50
102
RTVSPost2010PropOp42
 70
     1
102
RTVSPost2010Prop43
 90
        3
102
RTVSPost2010PropOp43
 70
     1
102
RTVSPost2010Prop44ColorIndex
 90
        5
102
RTVSPost2010Prop44ColorRGB
 90
      255
102
RTVSPost2010PropOp44
 70
     1
102
RTVSPost2010Prop45
280
     0
102
RTVSPost2010PropOp45
 70
     1
102
RTVSPost2010Prop46
 90
       50
102
RTVSPost2010PropOp46
 70
     1
102
RTVSPost2010Prop47
 90
       50
102
RTVSPost2010PropOp47
 70
     1
102
RTVSPost2010Prop48
 90
       50
102
RTVSPost2010PropOp48
 70
     1
102
RTVSPost2010Prop49
280
     0
102
RTVSPost2010PropOp49
 70
     1
102
RTVSPost2010Prop50
 90
       50
102
RTVSPost2010PropOp50
 70
     1
102
RTVSPost2010Prop51ColorIndex
 90
      256
102
RTVSPost2010Prop51ColorRGB
 90
-16777216
102
RTVSPost2010PropOp51
 70
     0
102
RTVSPost2010Prop52
140
1.0
102
RTVSPost2010PropOp52
 70
     0
102
RTVSPost2010Prop53
 90
        2
102
RTVSPost2010PropOp53
 70
     1
102
RTVSPost2010Prop54
  1
strokes_ogs.tif
102
RTVSPost2010PropOp54
 70
     1
102
RTVSPost2010Prop55
280
     0
102
RTVSPost2010PropOp55
 70
     1
102
RTVSPost2010Prop56
140
1.0
102
RTVSPost2010PropOp56
 70
     1
102
RTVSPost2010Prop57
140
1.0
102
RTVSPost2010PropOp57
 70
     1
102
RTVSPropertyOp0
 70
     1
102
RTVSPropertyOp1
 70
     1
102
RTVSPropertyOp2
 70
     1
102
RTVSPropertyOp3
 70
     1
102
RTVSPropertyOp4
 70
     1
102
RTVSPropertyOp5
 70
     1
102
RTVSPropertyOp6
 70
     1
102
RTVSPropertyOp7
 70
     1
102
RTVSPropertyOp8
 70
     1
102
RTVSPropertyOp9
 70
     1
102
RTVSPropertyOp10
 70
     1
102
RTVSPropertyOp11
 70
     1
102
RTVSPropertyOp12
 70
     1
102
RTVSPropertyOp13
 70
     1
102
RTVSPropertyOp14
 70
     1
102
RTVSPropertyOp15
 70
     1
102
RTVSPropertyOp16
 70
     1
102
RTVSPropertyOp17
 70
     1
102
RTVSPropertyOp18
 70
     1
102
RTVSPropertyOp19
 70
     1
102
RTVSPropertyOp20
 70
     1
102
RTVSPropertyOp21
 70
     1
102
RTVSPropertyOp22
 70
     1
102
RTVSPropertyOp23
 70
     1
102
RTVSPropertyOp24
 70
     1
102
RTVSPropertyOp25
 70
     1
102
RTVSPropertyOp26
 70
     1
102
RTVSPropertyOp27
 70
     1
102
RTVSPropertyOp28
 70
     1
102
RTVSPropertyOp29
 70
     1
102
RTVSPropertyOp30
 70
     1
102
RTVSPropertyOp31
 70
     1
102
RTVSPropertyOp32
 70
     1
102
RTVSPropertyOp33
 70
     1
102
RTVSPropertyOp34
 70
     1
102
RTVSPropertyOp35
 70
     1
102
RTVSPropertyOp36
 70
     1
102
RTVSPropertyOp37
 70
     1
102
RTVSPropertyOp38
 70
     1
102
RTVSPropertyOp39
 70
     1
102
RTVSPropertyOp40
 70
     1
102
RTVSPropertyOp41
 70
     1
102
RTVSPropertyOp42
 70
     1
102
RTVSPropertyOp43
 70
     1
102
RTVSPropertyOp44
 70
     1
102
RTVSPropertyOp45
 70
     1
102
RTVSPropertyOp46
 70
     1
102
RTVSPropertyOp47
 70
     1
102
RTVSPropertyOp48
 70
     1
102
RTVSPropertyOp49
 70
     1
102
RTVSPropertyOp50
 70
     1
102
RTVSPropertyOp51
 70
     0
102
RTVSPropertyOp52
 70
     0
102
RTVSPropertyOp53
 70
     1
102
RTVSPropertyOp54
 70
     1
102
RTVSPropertyOp55
 70
     1
102
RTVSPropertyOp56
 70
     1
102
RTVSPropertyOp57
 70
     1
102
RTVSPropertyOp58
 70
     1
102
RTVSPropertyOp59
 70
     1
102
RTVSPropertyOp60
 70
     1
102
RTVSPropertyOp61
 70
     1
102
RTVSPropertyOp62
 70
     1
  0
XRECORD
  5
170EB
102
{ACAD_REACTORS
330
170EA
102
}
330
170EA
100
AcDbXrecord
280
     1
102
RTVSPost2010Prop28
280
     0
102
RTVSPost2010PropOp28
 70
     1
102
RTVSPost2010Prop29
280
     1
102
RTVSPost2010PropOp29
 70
     1
102
RTVSPost2010Prop30
280
     1
102
RTVSPost2010PropOp30
 70
     1
102
RTVSPost2010Prop31
280
     0
102
RTVSPost2010PropOp31
 70
     1
102
RTVSPost2010Prop32
280
     0
102
RTVSPost2010PropOp32
 70
     1
102
RTVSPost2010Prop33
280
     0
102
RTVSPost2010PropOp33
 70
     1
102
RTVSPost2010Prop34
280
     0
102
RTVSPost2010PropOp34
 70
     1
102
RTVSPost2010Prop35
280
     0
102
RTVSPost2010PropOp35
 70
     1
102
RTVSPost2010Prop36
280
     0
102
RTVSPost2010PropOp36
 70
     1
102
RTVSPost2010Prop37
 90
       50
102
RTVSPost2010PropOp37
 70
     1
102
RTVSPost2010Prop38
140
0.0
102
RTVSPost2010PropOp38
 70
     1
102
RTVSPost2010Prop39
140
1.0
102
RTVSPost2010PropOp39
 70
     1
102
RTVSPost2010Prop40
 90
        0
102
RTVSPost2010PropOp40
 70
     1
102
RTVSPost2010Prop41ColorIndex
 90
       18
102
RTVSPost2010Prop41ColorRGB
 90
        0
102
RTVSPost2010PropOp41
 70
     1
102
RTVSPost2010Prop42
 90
       50
102
RTVSPost2010PropOp42
 70
     1
102
RTVSPost2010Prop43
 90
        3
102
RTVSPost2010PropOp43
 70
     1
102
RTVSPost2010Prop44ColorIndex
 90
        5
102
RTVSPost2010Prop44ColorRGB
 90
      255
102
RTVSPost2010PropOp44
 70
     1
102
RTVSPost2010Prop45
280
     0
102
RTVSPost2010PropOp45
 70
     1
102
RTVSPost2010Prop46
 90
       50
102
RTVSPost2010PropOp46
 70
     1
102
RTVSPost2010Prop47
 90
       50
102
RTVSPost2010PropOp47
 70
     1
102
RTVSPost2010Prop48
 90
       50
102
RTVSPost2010PropOp48
 70
     1
102
RTVSPost2010Prop49
280
     0
102
RTVSPost2010PropOp49
 70
     1
102
RTVSPost2010Prop50
 90
       50
102
RTVSPost2010PropOp50
 70
     1
102
RTVSPost2010Prop51ColorIndex
 90
      256
102
RTVSPost2010Prop51ColorRGB
 90
-16777216
102
RTVSPost2010PropOp51
 70
     0
102
RTVSPost2010Prop52
140
1.0
102
RTVSPost2010PropOp52
 70
     0
102
RTVSPost2010Prop53
 90
        2
102
RTVSPost2010PropOp53
 70
     1
102
RTVSPost2010Prop54
  1
strokes_ogs.tif
102
RTVSPost2010PropOp54
 70
     1
102
RTVSPost2010Prop55
280
     0
102
RTVSPost2010PropOp55
 70
     1
102
RTVSPost2010Prop56
140
1.0
102
RTVSPost2010PropOp56
 70
     1
102
RTVSPost2010Prop57
140
1.0
102
RTVSPost2010PropOp57
 70
     1
102
RTVSPropertyOp0
 70
     1
102
RTVSPropertyOp1
 70
     1
102
RTVSPropertyOp2
 70
     1
102
RTVSPropertyOp3
 70
     1
102
RTVSPropertyOp4
 70
     1
102
RTVSPropertyOp5
 70
     1
102
RTVSPropertyOp6
 70
     1
102
RTVSPropertyOp7
 70
     1
102
RTVSPropertyOp8
 70
     1
102
RTVSPropertyOp9
 70
     1
102
RTVSPropertyOp10
 70
     1
102
RTVSPropertyOp11
 70
     1
102
RTVSPropertyOp12
 70
     1
102
RTVSPropertyOp13
 70
     1
102
RTVSPropertyOp14
 70
     1
102
RTVSPropertyOp15
 70
     1
102
RTVSPropertyOp16
 70
     1
102
RTVSPropertyOp17
 70
     1
102
RTVSPropertyOp18
 70
     1
102
RTVSPropertyOp19
 70
     1
102
RTVSPropertyOp20
 70
     1
102
RTVSPropertyOp21
 70
     1
102
RTVSPropertyOp22
 70
     1
102
RTVSPropertyOp23
 70
     1
102
RTVSPropertyOp24
 70
     1
102
RTVSPropertyOp25
 70
     1
102
RTVSPropertyOp26
 70
     1
102
RTVSPropertyOp27
 70
     1
102
RTVSPropertyOp28
 70
     1
102
RTVSPropertyOp29
 70
     1
102
RTVSPropertyOp30
 70
     1
102
RTVSPropertyOp31
 70
     1
102
RTVSPropertyOp32
 70
     1
102
RTVSPropertyOp33
 70
     1
102
RTVSPropertyOp34
 70
     1
102
RTVSPropertyOp35
 70
     1
102
RTVSPropertyOp36
 70
     1
102
RTVSPropertyOp37
 70
     1
102
RTVSPropertyOp38
 70
     1
102
RTVSPropertyOp39
 70
     1
102
RTVSPropertyOp40
 70
     1
102
RTVSPropertyOp41
 70
     1
102
RTVSPropertyOp42
 70
     1
102
RTVSPropertyOp43
 70
     1
102
RTVSPropertyOp44
 70
     1
102
RTVSPropertyOp45
 70
     1
102
RTVSPropertyOp46
 70
     1
102
RTVSPropertyOp47
 70
     1
102
RTVSPropertyOp48
 70
     1
102
RTVSPropertyOp49
 70
     1
102
RTVSPropertyOp50
 70
     1
102
RTVSPropertyOp51
 70
     0
102
RTVSPropertyOp52
 70
     0
102
RTVSPropertyOp53
 70
     1
102
RTVSPropertyOp54
 70
     1
102
RTVSPropertyOp55
 70
     1
102
RTVSPropertyOp56
 70
     1
102
RTVSPropertyOp57
 70
     1
102
RTVSPropertyOp58
 70
     1
102
RTVSPropertyOp59
 70
     1
102
RTVSPropertyOp60
 70
     1
102
RTVSPropertyOp61
 70
     1
102
RTVSPropertyOp62
 70
     1
  0
XRECORD
  5
170ED
102
{ACAD_REACTORS
330
170EC
102
}
330
170EC
100
AcDbXrecord
280
     1
102
RTVSPost2010Prop28
280
     0
102
RTVSPost2010PropOp28
 70
     1
102
RTVSPost2010Prop29
280
     1
102
RTVSPost2010PropOp29
 70
     1
102
RTVSPost2010Prop30
280
     1
102
RTVSPost2010PropOp30
 70
     1
102
RTVSPost2010Prop31
280
     0
102
RTVSPost2010PropOp31
 70
     1
102
RTVSPost2010Prop32
280
     0
102
RTVSPost2010PropOp32
 70
     1
102
RTVSPost2010Prop33
280
     0
102
RTVSPost2010PropOp33
 70
     1
102
RTVSPost2010Prop34
280
     0
102
RTVSPost2010PropOp34
 70
     1
102
RTVSPost2010Prop35
280
     0
102
RTVSPost2010PropOp35
 70
     1
102
RTVSPost2010Prop36
280
     0
102
RTVSPost2010PropOp36
 70
     1
102
RTVSPost2010Prop37
 90
       50
102
RTVSPost2010PropOp37
 70
     1
102
RTVSPost2010Prop38
140
0.0
102
RTVSPost2010PropOp38
 70
     1
102
RTVSPost2010Prop39
140
1.0
102
RTVSPost2010PropOp39
 70
     1
102
RTVSPost2010Prop40
 90
        0
102
RTVSPost2010PropOp40
 70
     1
102
RTVSPost2010Prop41ColorIndex
 90
       18
102
RTVSPost2010Prop41ColorRGB
 90
        0
102
RTVSPost2010PropOp41
 70
     1
102
RTVSPost2010Prop42
 90
       50
102
RTVSPost2010PropOp42
 70
     1
102
RTVSPost2010Prop43
 90
        3
102
RTVSPost2010PropOp43
 70
     1
102
RTVSPost2010Prop44ColorIndex
 90
        5
102
RTVSPost2010Prop44ColorRGB
 90
      255
102
RTVSPost2010PropOp44
 70
     1
102
RTVSPost2010Prop45
280
     0
102
RTVSPost2010PropOp45
 70
     1
102
RTVSPost2010Prop46
 90
       50
102
RTVSPost2010PropOp46
 70
     1
102
RTVSPost2010Prop47
 90
       50
102
RTVSPost2010PropOp47
 70
     1
102
RTVSPost2010Prop48
 90
       50
102
RTVSPost2010PropOp48
 70
     1
102
RTVSPost2010Prop49
280
     0
102
RTVSPost2010PropOp49
 70
     1
102
RTVSPost2010Prop50
 90
       50
102
RTVSPost2010PropOp50
 70
     1
102
RTVSPost2010Prop51ColorIndex
 90
      256
102
RTVSPost2010Prop51ColorRGB
 90
-16777216
102
RTVSPost2010PropOp51
 70
     0
102
RTVSPost2010Prop52
140
1.0
102
RTVSPost2010PropOp52
 70
     0
102
RTVSPost2010Prop53
 90
        2
102
RTVSPost2010PropOp53
 70
     1
102
RTVSPost2010Prop54
  1
strokes_ogs.tif
102
RTVSPost2010PropOp54
 70
     1
102
RTVSPost2010Prop55
280
     0
102
RTVSPost2010PropOp55
 70
     1
102
RTVSPost2010Prop56
140
1.0
102
RTVSPost2010PropOp56
 70
     1
102
RTVSPost2010Prop57
140
1.0
102
RTVSPost2010PropOp57
 70
     1
102
RTVSPropertyOp0
 70
     1
102
RTVSPropertyOp1
 70
     1
102
RTVSPropertyOp2
 70
     1
102
RTVSPropertyOp3
 70
     1
102
RTVSPropertyOp4
 70
     1
102
RTVSPropertyOp5
 70
     1
102
RTVSPropertyOp6
 70
     1
102
RTVSPropertyOp7
 70
     1
102
RTVSPropertyOp8
 70
     1
102
RTVSPropertyOp9
 70
     1
102
RTVSPropertyOp10
 70
     1
102
RTVSPropertyOp11
 70
     1
102
RTVSPropertyOp12
 70
     1
102
RTVSPropertyOp13
 70
     1
102
RTVSPropertyOp14
 70
     1
102
RTVSPropertyOp15
 70
     1
102
RTVSPropertyOp16
 70
     1
102
RTVSPropertyOp17
 70
     1
102
RTVSPropertyOp18
 70
     1
102
RTVSPropertyOp19
 70
     1
102
RTVSPropertyOp20
 70
     1
102
RTVSPropertyOp21
 70
     1
102
RTVSPropertyOp22
 70
     1
102
RTVSPropertyOp23
 70
     1
102
RTVSPropertyOp24
 70
     1
102
RTVSPropertyOp25
 70
     1
102
RTVSPropertyOp26
 70
     1
102
RTVSPropertyOp27
 70
     1
102
RTVSPropertyOp28
 70
     1
102
RTVSPropertyOp29
 70
     1
102
RTVSPropertyOp30
 70
     1
102
RTVSPropertyOp31
 70
     1
102
RTVSPropertyOp32
 70
     1
102
RTVSPropertyOp33
 70
     1
102
RTVSPropertyOp34
 70
     1
102
RTVSPropertyOp35
 70
     1
102
RTVSPropertyOp36
 70
     1
102
RTVSPropertyOp37
 70
     1
102
RTVSPropertyOp38
 70
     1
102
RTVSPropertyOp39
 70
     1
102
RTVSPropertyOp40
 70
     1
102
RTVSPropertyOp41
 70
     1
102
RTVSPropertyOp42
 70
     1
102
RTVSPropertyOp43
 70
     1
102
RTVSPropertyOp44
 70
     1
102
RTVSPropertyOp45
 70
     1
102
RTVSPropertyOp46
 70
     1
102
RTVSPropertyOp47
 70
     1
102
RTVSPropertyOp48
 70
     1
102
RTVSPropertyOp49
 70
     1
102
RTVSPropertyOp50
 70
     1
102
RTVSPropertyOp51
 70
     0
102
RTVSPropertyOp52
 70
     0
102
RTVSPropertyOp53
 70
     1
102
RTVSPropertyOp54
 70
     1
102
RTVSPropertyOp55
 70
     1
102
RTVSPropertyOp56
 70
     1
102
RTVSPropertyOp57
 70
     1
102
RTVSPropertyOp58
 70
     1
102
RTVSPropertyOp59
 70
     1
102
RTVSPropertyOp60
 70
     1
102
RTVSPropertyOp61
 70
     1
102
RTVSPropertyOp62
 70
     1
  0
XRECORD
  5
170E3
102
{ACAD_REACTORS
330
170E2
102
}
330
170E2
100
AcDbXrecord
280
     1
102
RTVSPost2010Prop28
280
     0
102
RTVSPost2010PropOp28
 70
     1
102
RTVSPost2010Prop29
280
     1
102
RTVSPost2010PropOp29
 70
     1
102
RTVSPost2010Prop30
280
     1
102
RTVSPost2010PropOp30
 70
     1
102
RTVSPost2010Prop31
280
     0
102
RTVSPost2010PropOp31
 70
     1
102
RTVSPost2010Prop32
280
     0
102
RTVSPost2010PropOp32
 70
     1
102
RTVSPost2010Prop33
280
     0
102
RTVSPost2010PropOp33
 70
     1
102
RTVSPost2010Prop34
280
     0
102
RTVSPost2010PropOp34
 70
     1
102
RTVSPost2010Prop35
280
     0
102
RTVSPost2010PropOp35
 70
     1
102
RTVSPost2010Prop36
280
     0
102
RTVSPost2010PropOp36
 70
     1
102
RTVSPost2010Prop37
 90
       50
102
RTVSPost2010PropOp37
 70
     1
102
RTVSPost2010Prop38
140
0.0
102
RTVSPost2010PropOp38
 70
     1
102
RTVSPost2010Prop39
140
1.0
102
RTVSPost2010PropOp39
 70
     1
102
RTVSPost2010Prop40
 90
        0
102
RTVSPost2010PropOp40
 70
     1
102
RTVSPost2010Prop41ColorIndex
 90
       18
102
RTVSPost2010Prop41ColorRGB
 90
        0
102
RTVSPost2010PropOp41
 70
     1
102
RTVSPost2010Prop42
 90
       50
102
RTVSPost2010PropOp42
 70
     1
102
RTVSPost2010Prop43
 90
        3
102
RTVSPost2010PropOp43
 70
     1
102
RTVSPost2010Prop44ColorIndex
 90
        5
102
RTVSPost2010Prop44ColorRGB
 90
      255
102
RTVSPost2010PropOp44
 70
     1
102
RTVSPost2010Prop45
280
     0
102
RTVSPost2010PropOp45
 70
     1
102
RTVSPost2010Prop46
 90
       50
102
RTVSPost2010PropOp46
 70
     1
102
RTVSPost2010Prop47
 90
       50
102
RTVSPost2010PropOp47
 70
     1
102
RTVSPost2010Prop48
 90
       50
102
RTVSPost2010PropOp48
 70
     1
102
RTVSPost2010Prop49
280
     0
102
RTVSPost2010PropOp49
 70
     1
102
RTVSPost2010Prop50
 90
       50
102
RTVSPost2010PropOp50
 70
     1
102
RTVSPost2010Prop51ColorIndex
 90
      256
102
RTVSPost2010Prop51ColorRGB
 90
-16777216
102
RTVSPost2010PropOp51
 70
     0
102
RTVSPost2010Prop52
140
1.0
102
RTVSPost2010PropOp52
 70
     0
102
RTVSPost2010Prop53
 90
        2
102
RTVSPost2010PropOp53
 70
     1
102
RTVSPost2010Prop54
  1
strokes_ogs.tif
102
RTVSPost2010PropOp54
 70
     1
102
RTVSPost2010Prop55
280
     0
102
RTVSPost2010PropOp55
 70
     1
102
RTVSPost2010Prop56
140
1.0
102
RTVSPost2010PropOp56
 70
     1
102
RTVSPost2010Prop57
140
1.0
102
RTVSPost2010PropOp57
 70
     1
102
RTVSPropertyOp0
 70
     1
102
RTVSPropertyOp1
 70
     1
102
RTVSPropertyOp2
 70
     1
102
RTVSPropertyOp3
 70
     1
102
RTVSPropertyOp4
 70
     1
102
RTVSPropertyOp5
 70
     1
102
RTVSPropertyOp6
 70
     1
102
RTVSPropertyOp7
 70
     1
102
RTVSPropertyOp8
 70
     1
102
RTVSPropertyOp9
 70
     1
102
RTVSPropertyOp10
 70
     1
102
RTVSPropertyOp11
 70
     1
102
RTVSPropertyOp12
 70
     1
102
RTVSPropertyOp13
 70
     1
102
RTVSPropertyOp14
 70
     1
102
RTVSPropertyOp15
 70
     1
102
RTVSPropertyOp16
 70
     1
102
RTVSPropertyOp17
 70
     1
102
RTVSPropertyOp18
 70
     1
102
RTVSPropertyOp19
 70
     1
102
RTVSPropertyOp20
 70
     1
102
RTVSPropertyOp21
 70
     1
102
RTVSPropertyOp22
 70
     1
102
RTVSPropertyOp23
 70
     1
102
RTVSPropertyOp24
 70
     1
102
RTVSPropertyOp25
 70
     1
102
RTVSPropertyOp26
 70
     1
102
RTVSPropertyOp27
 70
     1
102
RTVSPropertyOp28
 70
     1
102
RTVSPropertyOp29
 70
     1
102
RTVSPropertyOp30
 70
     1
102
RTVSPropertyOp31
 70
     1
102
RTVSPropertyOp32
 70
     1
102
RTVSPropertyOp33
 70
     1
102
RTVSPropertyOp34
 70
     1
102
RTVSPropertyOp35
 70
     1
102
RTVSPropertyOp36
 70
     1
102
RTVSPropertyOp37
 70
     1
102
RTVSPropertyOp38
 70
     1
102
RTVSPropertyOp39
 70
     1
102
RTVSPropertyOp40
 70
     1
102
RTVSPropertyOp41
 70
     1
102
RTVSPropertyOp42
 70
     1
102
RTVSPropertyOp43
 70
     1
102
RTVSPropertyOp44
 70
     1
102
RTVSPropertyOp45
 70
     1
102
RTVSPropertyOp46
 70
     1
102
RTVSPropertyOp47
 70
     1
102
RTVSPropertyOp48
 70
     1
102
RTVSPropertyOp49
 70
     1
102
RTVSPropertyOp50
 70
     1
102
RTVSPropertyOp51
 70
     0
102
RTVSPropertyOp52
 70
     0
102
RTVSPropertyOp53
 70
     1
102
RTVSPropertyOp54
 70
     1
102
RTVSPropertyOp55
 70
     1
102
RTVSPropertyOp56
 70
     1
102
RTVSPropertyOp57
 70
     1
102
RTVSPropertyOp58
 70
     1
102
RTVSPropertyOp59
 70
     1
102
RTVSPropertyOp60
 70
     1
102
RTVSPropertyOp61
 70
     1
102
RTVSPropertyOp62
 70
     1
  0
XRECORD
  5
170D7
102
{ACAD_REACTORS
330
170D6
102
}
330
170D6
100
AcDbXrecord
280
     1
102
RTVSPost2010Prop28
280
     0
102
RTVSPost2010PropOp28
 70
     1
102
RTVSPost2010Prop29
280
     1
102
RTVSPost2010PropOp29
 70
     1
102
RTVSPost2010Prop30
280
     1
102
RTVSPost2010PropOp30
 70
     1
102
RTVSPost2010Prop31
280
     0
102
RTVSPost2010PropOp31
 70
     1
102
RTVSPost2010Prop32
280
     0
102
RTVSPost2010PropOp32
 70
     1
102
RTVSPost2010Prop33
280
     0
102
RTVSPost2010PropOp33
 70
     1
102
RTVSPost2010Prop34
280
     0
102
RTVSPost2010PropOp34
 70
     1
102
RTVSPost2010Prop35
280
     0
102
RTVSPost2010PropOp35
 70
     1
102
RTVSPost2010Prop36
280
     0
102
RTVSPost2010PropOp36
 70
     1
102
RTVSPost2010Prop37
 90
       50
102
RTVSPost2010PropOp37
 70
     1
102
RTVSPost2010Prop38
140
0.0
102
RTVSPost2010PropOp38
 70
     1
102
RTVSPost2010Prop39
140
1.0
102
RTVSPost2010PropOp39
 70
     1
102
RTVSPost2010Prop40
 90
        0
102
RTVSPost2010PropOp40
 70
     1
102
RTVSPost2010Prop41ColorIndex
 90
       18
102
RTVSPost2010Prop41ColorRGB
 90
        0
102
RTVSPost2010PropOp41
 70
     1
102
RTVSPost2010Prop42
 90
       50
102
RTVSPost2010PropOp42
 70
     1
102
RTVSPost2010Prop43
 90
        3
102
RTVSPost2010PropOp43
 70
     1
102
RTVSPost2010Prop44ColorIndex
 90
        5
102
RTVSPost2010Prop44ColorRGB
 90
      255
102
RTVSPost2010PropOp44
 70
     1
102
RTVSPost2010Prop45
280
     0
102
RTVSPost2010PropOp45
 70
     1
102
RTVSPost2010Prop46
 90
       50
102
RTVSPost2010PropOp46
 70
     1
102
RTVSPost2010Prop47
 90
       50
102
RTVSPost2010PropOp47
 70
     1
102
RTVSPost2010Prop48
 90
       50
102
RTVSPost2010PropOp48
 70
     1
102
RTVSPost2010Prop49
280
     0
102
RTVSPost2010PropOp49
 70
     1
102
RTVSPost2010Prop50
 90
       50
102
RTVSPost2010PropOp50
 70
     1
102
RTVSPost2010Prop51ColorIndex
 90
      256
102
RTVSPost2010Prop51ColorRGB
 90
-16777216
102
RTVSPost2010PropOp51
 70
     0
102
RTVSPost2010Prop52
140
1.0
102
RTVSPost2010PropOp52
 70
     0
102
RTVSPost2010Prop53
 90
        2
102
RTVSPost2010PropOp53
 70
     1
102
RTVSPost2010Prop54
  1
strokes_ogs.tif
102
RTVSPost2010PropOp54
 70
     1
102
RTVSPost2010Prop55
280
     0
102
RTVSPost2010PropOp55
 70
     1
102
RTVSPost2010Prop56
140
1.0
102
RTVSPost2010PropOp56
 70
     1
102
RTVSPost2010Prop57
140
1.0
102
RTVSPost2010PropOp57
 70
     1
102
RTVSPropertyOp0
 70
     1
102
RTVSPropertyOp1
 70
     1
102
RTVSPropertyOp2
 70
     1
102
RTVSPropertyOp3
 70
     1
102
RTVSPropertyOp4
 70
     1
102
RTVSPropertyOp5
 70
     1
102
RTVSPropertyOp6
 70
     1
102
RTVSPropertyOp7
 70
     1
102
RTVSPropertyOp8
 70
     1
102
RTVSPropertyOp9
 70
     1
102
RTVSPropertyOp10
 70
     1
102
RTVSPropertyOp11
 70
     1
102
RTVSPropertyOp12
 70
     1
102
RTVSPropertyOp13
 70
     1
102
RTVSPropertyOp14
 70
     1
102
RTVSPropertyOp15
 70
     1
102
RTVSPropertyOp16
 70
     1
102
RTVSPropertyOp17
 70
     1
102
RTVSPropertyOp18
 70
     1
102
RTVSPropertyOp19
 70
     1
102
RTVSPropertyOp20
 70
     1
102
RTVSPropertyOp21
 70
     1
102
RTVSPropertyOp22
 70
     1
102
RTVSPropertyOp23
 70
     1
102
RTVSPropertyOp24
 70
     1
102
RTVSPropertyOp25
 70
     1
102
RTVSPropertyOp26
 70
     1
102
RTVSPropertyOp27
 70
     1
102
RTVSPropertyOp28
 70
     1
102
RTVSPropertyOp29
 70
     1
102
RTVSPropertyOp30
 70
     1
102
RTVSPropertyOp31
 70
     1
102
RTVSPropertyOp32
 70
     1
102
RTVSPropertyOp33
 70
     1
102
RTVSPropertyOp34
 70
     1
102
RTVSPropertyOp35
 70
     1
102
RTVSPropertyOp36
 70
     1
102
RTVSPropertyOp37
 70
     1
102
RTVSPropertyOp38
 70
     1
102
RTVSPropertyOp39
 70
     1
102
RTVSPropertyOp40
 70
     1
102
RTVSPropertyOp41
 70
     1
102
RTVSPropertyOp42
 70
     1
102
RTVSPropertyOp43
 70
     1
102
RTVSPropertyOp44
 70
     1
102
RTVSPropertyOp45
 70
     1
102
RTVSPropertyOp46
 70
     1
102
RTVSPropertyOp47
 70
     1
102
RTVSPropertyOp48
 70
     1
102
RTVSPropertyOp49
 70
     1
102
RTVSPropertyOp50
 70
     1
102
RTVSPropertyOp51
 70
     0
102
RTVSPropertyOp52
 70
     0
102
RTVSPropertyOp53
 70
     1
102
RTVSPropertyOp54
 70
     1
102
RTVSPropertyOp55
 70
     1
102
RTVSPropertyOp56
 70
     1
102
RTVSPropertyOp57
 70
     1
102
RTVSPropertyOp58
 70
     1
102
RTVSPropertyOp59
 70
     1
102
RTVSPropertyOp60
 70
     1
102
RTVSPropertyOp61
 70
     1
102
RTVSPropertyOp62
 70
     1
  0
XRECORD
  5
170EF
102
{ACAD_REACTORS
330
170EE
102
}
330
170EE
100
AcDbXrecord
280
     1
102
RTVSPost2010Prop28
280
     0
102
RTVSPost2010PropOp28
 70
     1
102
RTVSPost2010Prop29
280
     1
102
RTVSPost2010PropOp29
 70
     1
102
RTVSPost2010Prop30
280
     1
102
RTVSPost2010PropOp30
 70
     1
102
RTVSPost2010Prop31
280
     0
102
RTVSPost2010PropOp31
 70
     1
102
RTVSPost2010Prop32
280
     0
102
RTVSPost2010PropOp32
 70
     1
102
RTVSPost2010Prop33
280
     0
102
RTVSPost2010PropOp33
 70
     1
102
RTVSPost2010Prop34
280
     0
102
RTVSPost2010PropOp34
 70
     1
102
RTVSPost2010Prop35
280
     0
102
RTVSPost2010PropOp35
 70
     1
102
RTVSPost2010Prop36
280
     0
102
RTVSPost2010PropOp36
 70
     1
102
RTVSPost2010Prop37
 90
       50
102
RTVSPost2010PropOp37
 70
     1
102
RTVSPost2010Prop38
140
0.0
102
RTVSPost2010PropOp38
 70
     1
102
RTVSPost2010Prop39
140
1.0
102
RTVSPost2010PropOp39
 70
     1
102
RTVSPost2010Prop40
 90
        0
102
RTVSPost2010PropOp40
 70
     1
102
RTVSPost2010Prop41ColorIndex
 90
       18
102
RTVSPost2010Prop41ColorRGB
 90
        0
102
RTVSPost2010PropOp41
 70
     1
102
RTVSPost2010Prop42
 90
       50
102
RTVSPost2010PropOp42
 70
     1
102
RTVSPost2010Prop43
 90
        3
102
RTVSPost2010PropOp43
 70
     1
102
RTVSPost2010Prop44ColorIndex
 90
        5
102
RTVSPost2010Prop44ColorRGB
 90
      255
102
RTVSPost2010PropOp44
 70
     1
102
RTVSPost2010Prop45
280
     0
102
RTVSPost2010PropOp45
 70
     1
102
RTVSPost2010Prop46
 90
       50
102
RTVSPost2010PropOp46
 70
     1
102
RTVSPost2010Prop47
 90
       50
102
RTVSPost2010PropOp47
 70
     1
102
RTVSPost2010Prop48
 90
       50
102
RTVSPost2010PropOp48
 70
     1
102
RTVSPost2010Prop49
280
     0
102
RTVSPost2010PropOp49
 70
     1
102
RTVSPost2010Prop50
 90
       50
102
RTVSPost2010PropOp50
 70
     1
102
RTVSPost2010Prop51ColorIndex
 90
      256
102
RTVSPost2010Prop51ColorRGB
 90
-16777216
102
RTVSPost2010PropOp51
 70
     0
102
RTVSPost2010Prop52
140
1.0
102
RTVSPost2010PropOp52
 70
     0
102
RTVSPost2010Prop53
 90
        2
102
RTVSPost2010PropOp53
 70
     1
102
RTVSPost2010Prop54
  1
strokes_ogs.tif
102
RTVSPost2010PropOp54
 70
     1
102
RTVSPost2010Prop55
280
     0
102
RTVSPost2010PropOp55
 70
     1
102
RTVSPost2010Prop56
140
1.0
102
RTVSPost2010PropOp56
 70
     1
102
RTVSPost2010Prop57
140
1.0
102
RTVSPost2010PropOp57
 70
     1
102
RTVSPropertyOp0
 70
     1
102
RTVSPropertyOp1
 70
     1
102
RTVSPropertyOp2
 70
     1
102
RTVSPropertyOp3
 70
     1
102
RTVSPropertyOp4
 70
     1
102
RTVSPropertyOp5
 70
     1
102
RTVSPropertyOp6
 70
     1
102
RTVSPropertyOp7
 70
     1
102
RTVSPropertyOp8
 70
     1
102
RTVSPropertyOp9
 70
     1
102
RTVSPropertyOp10
 70
     1
102
RTVSPropertyOp11
 70
     1
102
RTVSPropertyOp12
 70
     1
102
RTVSPropertyOp13
 70
     1
102
RTVSPropertyOp14
 70
     1
102
RTVSPropertyOp15
 70
     1
102
RTVSPropertyOp16
 70
     1
102
RTVSPropertyOp17
 70
     1
102
RTVSPropertyOp18
 70
     1
102
RTVSPropertyOp19
 70
     1
102
RTVSPropertyOp20
 70
     1
102
RTVSPropertyOp21
 70
     1
102
RTVSPropertyOp22
 70
     1
102
RTVSPropertyOp23
 70
     1
102
RTVSPropertyOp24
 70
     1
102
RTVSPropertyOp25
 70
     1
102
RTVSPropertyOp26
 70
     1
102
RTVSPropertyOp27
 70
     1
102
RTVSPropertyOp28
 70
     1
102
RTVSPropertyOp29
 70
     1
102
RTVSPropertyOp30
 70
     1
102
RTVSPropertyOp31
 70
     1
102
RTVSPropertyOp32
 70
     1
102
RTVSPropertyOp33
 70
     1
102
RTVSPropertyOp34
 70
     1
102
RTVSPropertyOp35
 70
     1
102
RTVSPropertyOp36
 70
     1
102
RTVSPropertyOp37
 70
     1
102
RTVSPropertyOp38
 70
     1
102
RTVSPropertyOp39
 70
     1
102
RTVSPropertyOp40
 70
     1
102
RTVSPropertyOp41
 70
     1
102
RTVSPropertyOp42
 70
     1
102
RTVSPropertyOp43
 70
     1
102
RTVSPropertyOp44
 70
     1
102
RTVSPropertyOp45
 70
     1
102
RTVSPropertyOp46
 70
     1
102
RTVSPropertyOp47
 70
     1
102
RTVSPropertyOp48
 70
     1
102
RTVSPropertyOp49
 70
     1
102
RTVSPropertyOp50
 70
     1
102
RTVSPropertyOp51
 70
     0
102
RTVSPropertyOp52
 70
     0
102
RTVSPropertyOp53
 70
     1
102
RTVSPropertyOp54
 70
     1
102
RTVSPropertyOp55
 70
     1
102
RTVSPropertyOp56
 70
     1
102
RTVSPropertyOp57
 70
     1
102
RTVSPropertyOp58
 70
     1
102
RTVSPropertyOp59
 70
     1
102
RTVSPropertyOp60
 70
     1
102
RTVSPropertyOp61
 70
     1
102
RTVSPropertyOp62
 70
     1
  0
ENDSEC
  0
EOF
