  0
SECTION
  2
HEADER
  9
$ACADVER
  1
AC1015
  9
$ACADMAINTVER
 70
    20
  9
$DWGCODEPAGE
  3
ANSI_932
  9
$INSBASE
 10
0.0
 20
0.0
 30
0.0
  9
$EXTMIN
 10
139.8427842704986
 20
-0.264306497767393
 30
-0.0000000000000053
  9
$EXTMAX
 10
16307.98708817691
 20
11409.90526204624
 30
0.0000000000000099
  9
$LIMMIN
 10
-25.79074261211281
 20
-125.8223078213959
  9
$LIMMAX
 10
16471.10331197129
 20
11496.44801950658
  9
$ORTHOMODE
 70
     0
  9
$REGENMODE
 70
     1
  9
$FILLMODE
 70
     1
  9
$QTEXTMODE
 70
     0
  9
$MIRRTEXT
 70
     1
  9
$LTSCALE
 40
20.0
  9
$ATTMODE
 70
     1
  9
$TEXTSIZE
 40
100.0
  9
$TRACEWID
 40
1.0
  9
$TEXTSTYLE
  7
STYLE3
  9
$CLAYER
  8
寸法
  9
$CELTYPE
  6
BYLAYER
  9
$CECOLOR
 62
   256
  9
$CELTSCALE
 40
50.0
  9
$DISPSILH
 70
     0
  9
$DIMSCALE
 40
40.0
  9
$DIMASZ
 40
2.5
  9
$DIMEXO
 40
0.5
  9
$DIMDLI
 40
7.0
  9
$DIMRND
 40
0.0
  9
$DIMDLE
 40
0.0
  9
$DIMEXE
 40
1.5
  9
$DIMTP
 40
0.0
  9
$DIMTM
 40
0.0
  9
$DIMTXT
 40
3.0
  9
$DIMCEN
 40
0.0
  9
$DIMTSZ
 40
0.0
  9
$DIMTOL
 70
     0
  9
$DIMLIM
 70
     0
  9
$DIMTIH
 70
     0
  9
$DIMTOH
 70
     0
  9
$DIMSE1
 70
     0
  9
$DIMSE2
 70
     0
  9
$DIMTAD
 70
     3
  9
$DIMZIN
 70
     8
  9
$DIMBLK
  1

  9
$DIMASO
 70
     1
  9
$DIMSHO
 70
     1
  9
$DIMPOST
  1

  9
$DIMAPOST
  1

  9
$DIMALT
 70
     0
  9
$DIMALTD
 70
     2
  9
$DIMALTF
 40
0.0394
  9
$DIMLFAC
 40
1.0
  9
$DIMTOFL
 70
     1
  9
$DIMTVP
 40
0.0
  9
$DIMTIX
 70
     1
  9
$DIMSOXD
 70
     0
  9
$DIMSAH
 70
     1
  9
$DIMBLK1
  1
DOTSMALL
  9
$DIMBLK2
  1
DOTSMALL
  9
$DIMSTYLE
  2
INABA_S40G
  9
$DIMCLRD
 70
     0
  9
$DIMCLRE
 70
     0
  9
$DIMCLRT
 70
     7
  9
$DIMTFAC
 40
1.0
  9
$DIMGAP
 40
1.0
  9
$DIMJUST
 70
     0
  9
$DIMSD1
 70
     0
  9
$DIMSD2
 70
     0
  9
$DIMTOLJ
 70
     1
  9
$DIMTZIN
 70
     0
  9
$DIMALTZ
 70
     0
  9
$DIMALTTZ
 70
     0
  9
$DIMUPT
 70
     0
  9
$DIMDEC
 70
     1
  9
$DIMTDEC
 70
     4
  9
$DIMALTU
 70
     2
  9
$DIMALTTD
 70
     2
  9
$DIMTXSTY
  7
STYLE1
  9
$DIMAUNIT
 70
     0
  9
$DIMADEC
 70
     0
  9
$DIMALTRND
 40
0.0
  9
$DIMAZIN
 70
     0
  9
$DIMDSEP
 70
    46
  9
$DIMATFIT
 70
     3
  9
$DIMFRAC
 70
     0
  9
$DIMLDRBLK
  1

  9
$DIMLUNIT
 70
     2
  9
$DIMLWD
 70
    -2
  9
$DIMLWE
 70
    -2
  9
$DIMTMOVE
 70
     0
  9
$LUNITS
 70
     2
  9
$LUPREC
 70
     1
  9
$SKETCHINC
 40
1.0
  9
$FILLETRAD
 40
5.0
  9
$AUNITS
 70
     0
  9
$AUPREC
 70
     0
  9
$MENU
  1
acad
  9
$ELEVATION
 40
0.0
  9
$PELEVATION
 40
0.0
  9
$THICKNESS
 40
0.0
  9
$LIMCHECK
 70
     0
  9
$CHAMFERA
 40
0.0
  9
$CHAMFERB
 40
0.0
  9
$CHAMFERC
 40
0.0
  9
$CHAMFERD
 40
0.0
  9
$SKPOLY
 70
     0
  9
$TDCREATE
 40
2452116.684896065
  9
$TDUCREATE
 40
2452116.309896065
  9
$TDUPDATE
 40
2457984.456316100
  9
$TDUUPDATE
 40
2457984.081316100
  9
$TDINDWG
 40
0.5296465278
  9
$TDUSRTIMER
 40
0.5296465278
  9
$USRTIMER
 70
     1
  9
$ANGBASE
 50
0.0
  9
$ANGDIR
 70
     0
  9
$PDMODE
 70
     3
  9
$PDSIZE
 40
2.0
  9
$PLINEWID
 40
0.0
  9
$SPLFRAME
 70
     0
  9
$SPLINETYPE
 70
     6
  9
$SPLINESEGS
 70
     8
  9
$HANDSEED
  5
16525
  9
$SURFTAB1
 70
     6
  9
$SURFTAB2
 70
     6
  9
$SURFTYPE
 70
     6
  9
$SURFU
 70
     6
  9
$SURFV
 70
     6
  9
$UCSBASE
  2

  9
$UCSNAME
  2

  9
$UCSORG
 10
0.0
 20
0.0
 30
0.0
  9
$UCSXDIR
 10
1.0
 20
0.0
 30
0.0
  9
$UCSYDIR
 10
0.0
 20
1.0
 30
0.0
  9
$UCSORTHOREF
  2

  9
$UCSORTHOVIEW
 70
     0
  9
$UCSORGTOP
 10
0.0
 20
0.0
 30
0.0
  9
$UCSORGBOTTOM
 10
0.0
 20
0.0
 30
0.0
  9
$UCSORGLEFT
 10
0.0
 20
0.0
 30
0.0
  9
$UCSORGRIGHT
 10
0.0
 20
0.0
 30
0.0
  9
$UCSORGFRONT
 10
0.0
 20
0.0
 30
0.0
  9
$UCSORGBACK
 10
0.0
 20
0.0
 30
0.0
  9
$PUCSBASE
  2

  9
$PUCSNAME
  2

  9
$PUCSORG
 10
0.0
 20
0.0
 30
0.0
  9
$PUCSXDIR
 10
1.0
 20
0.0
 30
0.0
  9
$PUCSYDIR
 10
0.0
 20
1.0
 30
0.0
  9
$PUCSORTHOREF
  2

  9
$PUCSORTHOVIEW
 70
     0
  9
$PUCSORGTOP
 10
0.0
 20
0.0
 30
0.0
  9
$PUCSORGBOTTOM
 10
0.0
 20
0.0
 30
0.0
  9
$PUCSORGLEFT
 10
0.0
 20
0.0
 30
0.0
  9
$PUCSORGRIGHT
 10
0.0
 20
0.0
 30
0.0
  9
$PUCSORGFRONT
 10
0.0
 20
0.0
 30
0.0
  9
$PUCSORGBACK
 10
0.0
 20
0.0
 30
0.0
  9
$USERI1
 70
     0
  9
$USERI2
 70
     0
  9
$USERI3
 70
     0
  9
$USERI4
 70
     0
  9
$USERI5
 70
     0
  9
$USERR1
 40
0.0
  9
$USERR2
 40
0.0
  9
$USERR3
 40
0.0
  9
$USERR4
 40
0.0
  9
$USERR5
 40
0.0
  9
$WORLDVIEW
 70
     1
  9
$SHADEDGE
 70
     3
  9
$SHADEDIF
 70
    70
  9
$TILEMODE
 70
     1
  9
$MAXACTVP
 70
    16
  9
$PINSBASE
 10
0.0
 20
0.0
 30
0.0
  9
$PLIMCHECK
 70
     0
  9
$PEXTMIN
 10
1.000000000000000E+20
 20
1.000000000000000E+20
 30
1.000000000000000E+20
  9
$PEXTMAX
 10
-1.000000000000000E+20
 20
-1.000000000000000E+20
 30
-1.000000000000000E+20
  9
$PLIMMIN
 10
0.0
 20
0.0
  9
$PLIMMAX
 10
420.0
 20
297.0
  9
$UNITMODE
 70
     0
  9
$VISRETAIN
 70
     0
  9
$PLINEGEN
 70
     0
  9
$PSLTSCALE
 70
     0
  9
$TREEDEPTH
 70
  3020
  9
$CMLSTYLE
  2
STANDARD
  9
$CMLJUST
 70
     0
  9
$CMLSCALE
 40
1.0
  9
$PROXYGRAPHICS
 70
     1
  9
$MEASUREMENT
 70
     1
  9
$CELWEIGHT
370
    -1
  9
$ENDCAPS
280
     0
  9
$JOINSTYLE
280
     0
  9
$LWDISPLAY
290
     0
  9
$INSUNITS
 70
     0
  9
$HYPERLINKBASE
  1

  9
$STYLESHEET
  1
inabass.ctb
  9
$XEDIT
290
     1
  9
$CEPSNTYPE
380
     0
  9
$PSTYLEMODE
290
     1
  9
$FINGERPRINTGUID
  2
{F45BDEB8-DDFF-4623-9229-7C0EFF851523}
  9
$VERSIONGUID
  2
{54F08066-79BD-4D12-9FB8-1A4CD25FBA90}
  9
$EXTNAMES
290
     1
  9
$PSVPSCALE
 40
0.0
  9
$OLESTARTUP
290
     0
  0
ENDSEC
  0
SECTION
  2
CLASSES
  0
CLASS
  1
ACDBDICTIONARYWDFLT
  2
AcDbDictionaryWithDefault
  3
ObjectDBX Classes
 90
        0
280
     0
281
     0
  0
CLASS
  1
MATERIAL
  2
AcDbMaterial
  3
ObjectDBX Classes
 90
     1153
280
     0
281
     0
  0
CLASS
  1
VISUALSTYLE
  2
AcDbVisualStyle
  3
ObjectDBX Classes
 90
     4095
280
     0
281
     0
  0
CLASS
  1
TABLESTYLE
  2
AcDbTableStyle
  3
ObjectDBX Classes
 90
     4095
280
     0
281
     0
  0
CLASS
  1
SCALE
  2
AcDbScale
  3
ObjectDBX Classes
 90
     1153
280
     0
281
     0
  0
CLASS
  1
MLEADERSTYLE
  2
AcDbMLeaderStyle
  3
ACDB_MLEADERSTYLE_CLASS
 90
     4095
280
     0
281
     0
  0
CLASS
  1
ACDBSECTIONVIEWSTYLE
  2
AcDbSectionViewStyle
  3
ObjectDBX Classes
 90
     1025
280
     0
281
     0
  0
CLASS
  1
ACDBDETAILVIEWSTYLE
  2
AcDbDetailViewStyle
  3
ObjectDBX Classes
 90
     1025
280
     0
281
     0
  0
CLASS
  1
DICTIONARYVAR
  2
AcDbDictionaryVar
  3
ObjectDBX Classes
 90
        0
280
     0
281
     0
  0
CLASS
  1
SORTENTSTABLE
  2
AcDbSortentsTable
  3
ObjectDBX Classes
 90
        0
280
     0
281
     0
  0
CLASS
  1
CELLSTYLEMAP
  2
AcDbCellStyleMap
  3
ObjectDBX Classes
 90
     1152
280
     0
281
     0
  0
CLASS
  1
ACDBPLACEHOLDER
  2
AcDbPlaceHolder
  3
ObjectDBX Classes
 90
        0
280
     0
281
     0
  0
CLASS
  1
LAYOUT
  2
AcDbLayout
  3
ObjectDBX Classes
 90
        0
280
     0
281
     0
  0
ENDSEC
  0
SECTION
  2
TABLES
  0
TABLE
  2
VPORT
  5
746D
330
0
100
AcDbSymbolTable
 70
     1
  0
VPORT
  5
162AA
330
746D
100
AcDbSymbolTableRecord
100
AcDbViewportTableRecord
  2
*Active
 70
     0
 10
0.0
 20
0.0
 11
1.0
 21
1.0
 12
8222.656284679592
 22
5685.312855842594
 13
0.0
 23
0.0
 14
10.0
 24
10.0
 15
10.0
 25
10.0
 16
0.0
 26
0.0
 36
1.0
 17
0.0
 27
0.0
 37
0.0
 40
11713.55108077679
 41
1.646596858638743
 42
50.0
 43
0.0
 44
0.0
 50
0.0
 51
0.0
 71
     0
 72
     0
 73
     1
 74
     0
 75
     0
 76
     0
 77
     0
 78
     0
281
     0
 65
     1
110
0.0
120
0.0
130
0.0
111
1.0
121
0.0
131
0.0
112
0.0
122
1.0
132
0.0
 79
     0
146
0.0
1001
ACAD_NAV_VCDISPLAY
1070
     3
  0
ENDTAB
  0
TABLE
  2
LTYPE
  5
746A
330
0
100
AcDbSymbolTable
 70
     4
  0
LTYPE
  5
7477
330
746A
100
AcDbSymbolTableRecord
100
AcDbLinetypeTableRecord
  2
BYBLOCK
 70
     0
  3

 72
    65
 73
     0
 40
0.0
  0
LTYPE
  5
7478
330
746A
100
AcDbSymbolTableRecord
100
AcDbLinetypeTableRecord
  2
BYLAYER
 70
     0
  3

 72
    65
 73
     0
 40
0.0
  0
LTYPE
  5
7479
330
746A
100
AcDbSymbolTableRecord
100
AcDbLinetypeTableRecord
  2
CONTINUOUS
 70
     0
  3
Solid line
 72
    65
 73
     0
 40
0.0
  0
LTYPE
  5
7816
330
746A
100
AcDbSymbolTableRecord
100
AcDbLinetypeTableRecord
  2
CENTER
 70
     0
  3
____ _ ____ _ ____ _ ____ _ ____ _ ____ _ ____ 
 72
    65
 73
     4
 40
2.0
 49
1.25
 74
     0
 49
-0.25
 74
     0
 49
0.25
 74
     0
 49
-0.25
 74
     0
  0
LTYPE
  5
781A
330
746A
100
AcDbSymbolTableRecord
100
AcDbLinetypeTableRecord
  2
HIDDEN
 70
     0
  3
__ __ __ __ __ __ __ __ __ __ __ __ __ __ __ __
 72
    65
 73
     2
 40
0.375
 49
0.25
 74
     0
 49
-0.125
 74
     0
  0
LTYPE
  5
781B
330
746A
100
AcDbSymbolTableRecord
100
AcDbLinetypeTableRecord
  2
PHANTOM
 70
     0
  3
______  __  __  ______  __  __  ______  __  __ 
 72
    65
 73
     6
 40
2.5
 49
1.25
 74
     0
 49
-0.25
 74
     0
 49
0.25
 74
     0
 49
-0.25
 74
     0
 49
0.25
 74
     0
 49
-0.25
 74
     0
  0
ENDTAB
  0
TABLE
  2
LAYER
  5
7467
102
{ACAD_XDICTIONARY
360
15137
102
}
330
0
100
AcDbSymbolTable
 70
    13
  0
LAYER
  5
7474
102
{ACAD_XDICTIONARY
360
16301
102
}
330
7467
100
AcDbSymbolTableRecord
100
AcDbLayerTableRecord
  2
0
 70
     0
 62
     7
  6
CONTINUOUS
370
    -3
390
14FA3
  0
LAYER
  5
DEB2
102
{ACAD_XDICTIONARY
360
16303
102
}
330
7467
100
AcDbSymbolTableRecord
100
AcDbLayerTableRecord
  2
センター
 70
     0
 62
     3
  6
CENTER
370
    -3
390
14FA3
  0
LAYER
  5
DEB3
102
{ACAD_XDICTIONARY
360
16305
102
}
330
7467
100
AcDbSymbolTableRecord
100
AcDbLayerTableRecord
  2
寸法
 70
     0
 62
     4
  6
CONTINUOUS
370
    -3
390
14FA3
  0
LAYER
  5
DEB4
102
{ACAD_XDICTIONARY
360
16307
102
}
330
7467
100
AcDbSymbolTableRecord
100
AcDbLayerTableRecord
  2
部品1
 70
     0
 62
     7
  6
CONTINUOUS
370
    -3
390
14FA3
  0
LAYER
  5
DEB5
102
{ACAD_XDICTIONARY
360
16309
102
}
330
7467
100
AcDbSymbolTableRecord
100
AcDbLayerTableRecord
  2
補助
 70
     0
 62
    -1
  6
CONTINUOUS
370
    -3
390
14FA3
  0
LAYER
  5
DEB6
102
{ACAD_XDICTIONARY
360
1630B
102
}
330
7467
100
AcDbSymbolTableRecord
100
AcDbLayerTableRecord
  2
文字
 70
     0
 62
     7
  6
CONTINUOUS
370
    -3
390
14FA3
  0
LAYER
  5
F255
330
7467
100
AcDbSymbolTableRecord
100
AcDbLayerTableRecord
  2
DEFPOINTS
 70
     0
 62
     7
  6
CONTINUOUS
290
     0
370
    -3
390
14FA3
  0
LAYER
  5
10B54
102
{ACAD_XDICTIONARY
360
1630D
102
}
330
7467
100
AcDbSymbolTableRecord
100
AcDbLayerTableRecord
  2
仕様書枠
 70
     0
 62
   230
  6
CONTINUOUS
370
    -3
390
14FA3
  0
LAYER
  5
11729
102
{ACAD_XDICTIONARY
360
1630F
102
}
330
7467
100
AcDbSymbolTableRecord
100
AcDbLayerTableRecord
  2
Ｇ．Ｌ
 70
     0
 62
    30
  6
CONTINUOUS
370
    -3
390
14FA3
  0
LAYER
  5
1173F
102
{ACAD_XDICTIONARY
360
16311
102
}
330
7467
100
AcDbSymbolTableRecord
100
AcDbLayerTableRecord
  2
細線
 70
     0
 62
     5
  6
CONTINUOUS
370
    -3
390
14FA3
  0
LAYER
  5
118A1
102
{ACAD_XDICTIONARY
360
16313
102
}
330
7467
100
AcDbSymbolTableRecord
100
AcDbLayerTableRecord
  2
想像線
 70
     0
 62
     6
  6
PHANTOM
370
    -3
390
14FA3
  0
LAYER
  5
123C1
102
{ACAD_XDICTIONARY
360
16315
102
}
330
7467
100
AcDbSymbolTableRecord
100
AcDbLayerTableRecord
  2
破線
 70
     0
 62
     2
  6
HIDDEN
370
    -3
390
14FA3
  0
LAYER
  5
16492
102
{ACAD_XDICTIONARY
360
16493
102
}
330
7467
100
AcDbSymbolTableRecord
100
AcDbLayerTableRecord
  2
部品
 70
     0
 62
     7
  6
CONTINUOUS
370
    -3
390
14FA3
  0
ENDTAB
  0
TABLE
  2
STYLE
  5
7468
330
0
100
AcDbSymbolTable
 70
     5
  0
STYLE
  5
7475
330
7468
100
AcDbSymbolTableRecord
100
AcDbTextStyleTableRecord
  2
STANDARD
 70
     0
 40
0.0
 41
1.0
 50
0.0
 71
     0
 42
4.0
  3
txt
  4
C:\AutoCAD LT\bigfont.shx
  0
STYLE
  5
F706
330
7468
100
AcDbSymbolTableRecord
100
AcDbTextStyleTableRecord
  2
STYLE1
 70
     0
 40
0.0
 41
1.0
 50
0.0
 71
     0
 42
4.0
  3
isocp.shx
  4
bigfont.shx
  0
STYLE
  5
103BF
330
7468
100
AcDbSymbolTableRecord
100
AcDbTextStyleTableRecord
  2
STYLE2
 70
     0
 40
0.0
 41
1.0
 50
0.0
 71
     0
 42
100.0
  3
MS PGothic.ttf
  4

1001
ACAD
1000
MS PGothic
1071
    32818
  0
STYLE
  5
10BAA
330
7468
100
AcDbSymbolTableRecord
100
AcDbTextStyleTableRecord
  2
STYLE3
 70
     0
 40
0.0
 41
1.0
 50
0.0
 71
     0
 42
100.0
  3
DFPGothic-EB.ttf
  4

1001
ACAD
1000
DFPGothic-EB
1071
    32818
  0
ENDTAB
  0
TABLE
  2
VIEW
  5
746B
330
0
100
AcDbSymbolTable
 70
     0
  0
ENDTAB
  0
TABLE
  2
UCS
  5
746C
330
0
100
AcDbSymbolTable
 70
     0
  0
ENDTAB
  0
TABLE
  2
APPID
  5
746E
330
0
100
AcDbSymbolTable
 70
    10
  0
APPID
  5
7476
330
746E
100
AcDbSymbolTableRecord
100
AcDbRegAppTableRecord
  2
ACAD
 70
     0
  0
APPID
  5
DEA9
330
746E
100
AcDbSymbolTableRecord
100
AcDbRegAppTableRecord
  2
CONTENTBLOCKICON
 70
     0
  0
APPID
  5
DEAA
330
746E
100
AcDbSymbolTableRecord
100
AcDbRegAppTableRecord
  2
CONTENTBLOCKDESCRIPTION
 70
     0
  0
APPID
  5
E71D
330
746E
100
AcDbSymbolTableRecord
100
AcDbRegAppTableRecord
  2
CONTENTTABDATA
 70
     0
  0
APPID
  5
E71E
330
746E
100
AcDbSymbolTableRecord
100
AcDbRegAppTableRecord
  2
CONTENTCURRENTTAB
 70
     0
  0
APPID
  5
F3BA
330
746E
100
AcDbSymbolTableRecord
100
AcDbRegAppTableRecord
  2
DRAWINGVARIABLESXDATA
 70
     0
  0
APPID
  5
1631E
330
746E
100
AcDbSymbolTableRecord
100
AcDbRegAppTableRecord
  2
ACAD_NAV_VCDISPLAY
 70
     0
  0
APPID
  5
1644C
330
746E
100
AcDbSymbolTableRecord
100
AcDbRegAppTableRecord
  2
ACAD_EXEMPT_FROM_CAD_STANDARDS
 70
     0
  0
APPID
  5
16472
330
746E
100
AcDbSymbolTableRecord
100
AcDbRegAppTableRecord
  2
ACAD_PSEXT
 70
     0
  0
APPID
  5
16520
330
746E
100
AcDbSymbolTableRecord
100
AcDbRegAppTableRecord
  2
ACAD_MLEADERVER
 70
     0
  0
ENDTAB
  0
TABLE
  2
DIMSTYLE
  5
746F
330
0
100
AcDbSymbolTable
 70
     3
100
AcDbDimStyleTable
 71
     1
340
F71F
  0
DIMSTYLE
105
7484
330
746F
100
AcDbSymbolTableRecord
100
AcDbDimStyleTableRecord
  2
JIS
 70
     0
 41
2.5
 42
1.0
 43
7.0
 44
1.0
 73
     0
 74
     0
 77
     1
 78
     8
140
2.5
141
0.0
143
0.0394
147
0.0
172
     1
174
     1
175
     1
340
7475
  0
DIMSTYLE
105
F71F
102
{ACAD_REACTORS
330
14B1A
330
14BFD
330
14BFF
330
14C02
330
14C17
330
14C43
330
14C46
330
14C4B
330
14C59
330
14C5A
330
14C5B
330
14C5C
330
14C5D
330
14C75
330
14F43
330
14F93
330
15AA5
330
15B02
330
15B03
330
15B04
330
15B08
330
15D7E
330
15D7D
330
15D7F
330
15F0F
330
15F0E
330
15F0D
330
15F7B
330
164A1
102
}
330
746F
100
AcDbSymbolTableRecord
100
AcDbDimStyleTableRecord
  2
INABA_S40G
 70
     0
 40
40.0
 41
2.5
 42
0.5
 43
7.0
 44
1.5
 73
     0
 74
     0
 77
     3
 78
     8
140
3.0
141
0.0
143
0.0394
147
1.0
172
     1
173
     1
174
     1
178
     7
271
     1
340
F706
341
F770
343
F770
344
F770
  0
ENDTAB
  0
TABLE
  2
BLOCK_RECORD
  5
7466
330
0
100
AcDbSymbolTable
 70
    34
  0
BLOCK_RECORD
  5
747D
330
7466
100
AcDbSymbolTableRecord
100
AcDbBlockTableRecord
  2
*MODEL_SPACE
340
14FA8
  0
BLOCK_RECORD
  5
747A
330
7466
100
AcDbSymbolTableRecord
100
AcDbBlockTableRecord
  2
*PAPER_SPACE
340
14FA9
  0
BLOCK_RECORD
  5
F770
330
7466
100
AcDbSymbolTableRecord
100
AcDbBlockTableRecord
  2
_DOTSMALL
340
0
102
{BLKREFS
331
16198
331
16199
331
161A3
331
161A4
331
161AC
331
161AD
331
161B6
331
161B7
331
161C1
331
161C2
331
161C9
331
161CA
331
161D4
331
161D5
331
161DF
331
161E0
331
161EA
331
161EB
331
161F3
331
161F4
331
161FC
331
161FD
331
16205
331
16206
331
1620F
331
16210
331
16217
331
16218
331
16222
331
16223
331
1622B
331
1622C
331
16234
331
16235
331
1623D
331
1623E
331
16247
331
16248
331
164B7
331
164B8
331
16049
331
1604A
331
16054
331
16055
331
1605D
331
1605E
331
16066
331
16067
331
160FE
331
160FF
331
1616A
331
1616B
331
16174
331
16175
331
1617D
331
1617E
331
1618F
331
16190
102
}
  0
BLOCK_RECORD
  5
14C7E
330
7466
100
AcDbSymbolTableRecord
100
AcDbBlockTableRecord
  2
*D1
340
0
  0
BLOCK_RECORD
  5
14CCA
330
7466
100
AcDbSymbolTableRecord
100
AcDbBlockTableRecord
  2
*D2
340
0
  0
BLOCK_RECORD
  5
14CD6
330
7466
100
AcDbSymbolTableRecord
100
AcDbBlockTableRecord
  2
*D3
340
0
  0
BLOCK_RECORD
  5
14CE2
330
7466
100
AcDbSymbolTableRecord
100
AcDbBlockTableRecord
  2
*D4
340
0
  0
BLOCK_RECORD
  5
14CEE
330
7466
100
AcDbSymbolTableRecord
100
AcDbBlockTableRecord
  2
*D5
340
0
  0
BLOCK_RECORD
  5
14D06
330
7466
100
AcDbSymbolTableRecord
100
AcDbBlockTableRecord
  2
*D6
340
0
  0
BLOCK_RECORD
  5
14D14
330
7466
100
AcDbSymbolTableRecord
100
AcDbBlockTableRecord
  2
*D7
340
0
  0
BLOCK_RECORD
  5
14D20
330
7466
100
AcDbSymbolTableRecord
100
AcDbBlockTableRecord
  2
*D8
340
0
  0
BLOCK_RECORD
  5
14D2C
330
7466
100
AcDbSymbolTableRecord
100
AcDbBlockTableRecord
  2
*D9
340
0
  0
BLOCK_RECORD
  5
14D38
330
7466
100
AcDbSymbolTableRecord
100
AcDbBlockTableRecord
  2
*D10
340
0
  0
BLOCK_RECORD
  5
14D44
330
7466
100
AcDbSymbolTableRecord
100
AcDbBlockTableRecord
  2
*D11
340
0
  0
BLOCK_RECORD
  5
14D50
330
7466
100
AcDbSymbolTableRecord
100
AcDbBlockTableRecord
  2
*D12
340
0
  0
BLOCK_RECORD
  5
14D5E
330
7466
100
AcDbSymbolTableRecord
100
AcDbBlockTableRecord
  2
*D13
340
0
  0
BLOCK_RECORD
  5
14D6C
330
7466
100
AcDbSymbolTableRecord
100
AcDbBlockTableRecord
  2
*D14
340
0
  0
BLOCK_RECORD
  5
14F44
330
7466
100
AcDbSymbolTableRecord
100
AcDbBlockTableRecord
  2
*D15
340
0
  0
BLOCK_RECORD
  5
14F94
330
7466
100
AcDbSymbolTableRecord
100
AcDbBlockTableRecord
  2
*D16
340
0
  0
BLOCK_RECORD
  5
15B30
330
7466
100
AcDbSymbolTableRecord
100
AcDbBlockTableRecord
  2
*D17
340
0
  0
BLOCK_RECORD
  5
15B89
330
7466
100
AcDbSymbolTableRecord
100
AcDbBlockTableRecord
  2
*D18
340
0
  0
BLOCK_RECORD
  5
15B95
330
7466
100
AcDbSymbolTableRecord
100
AcDbBlockTableRecord
  2
*D19
340
0
  0
BLOCK_RECORD
  5
15BA3
330
7466
100
AcDbSymbolTableRecord
100
AcDbBlockTableRecord
  2
*D20
340
0
  0
BLOCK_RECORD
  5
15BAF
330
7466
100
AcDbSymbolTableRecord
100
AcDbBlockTableRecord
  2
*D21
340
0
  0
BLOCK_RECORD
  5
15D85
330
7466
100
AcDbSymbolTableRecord
100
AcDbBlockTableRecord
  2
*D22
340
0
  0
BLOCK_RECORD
  5
15D91
330
7466
100
AcDbSymbolTableRecord
100
AcDbBlockTableRecord
  2
*D23
340
0
  0
BLOCK_RECORD
  5
15D9F
330
7466
100
AcDbSymbolTableRecord
100
AcDbBlockTableRecord
  2
*D24
340
0
  0
BLOCK_RECORD
  5
15F2D
330
7466
100
AcDbSymbolTableRecord
100
AcDbBlockTableRecord
  2
*D26
340
0
  0
BLOCK_RECORD
  5
15F3B
330
7466
100
AcDbSymbolTableRecord
100
AcDbBlockTableRecord
  2
*D27
340
0
  0
BLOCK_RECORD
  5
15F47
330
7466
100
AcDbSymbolTableRecord
100
AcDbBlockTableRecord
  2
*D28
340
0
  0
BLOCK_RECORD
  5
15F86
330
7466
100
AcDbSymbolTableRecord
100
AcDbBlockTableRecord
  2
*D29
340
0
  0
BLOCK_RECORD
  5
1626A
330
7466
100
AcDbSymbolTableRecord
100
AcDbBlockTableRecord
  2
A$C6B1A4113
340
0
  0
BLOCK_RECORD
  5
164A8
330
7466
100
AcDbSymbolTableRecord
100
AcDbBlockTableRecord
  2
*D32
340
0
  0
ENDTAB
  0
ENDSEC
  0
SECTION
  2
BLOCKS
  0
BLOCK
  5
7489
330
747D
100
AcDbEntity
  8
0
100
AcDbBlockBegin
  2
*MODEL_SPACE
 70
     0
 10
0.0
 20
0.0
 30
0.0
  3
*MODEL_SPACE
  1

  0
ENDBLK
  5
748A
330
747D
100
AcDbEntity
  8
0
100
AcDbBlockEnd
  0
BLOCK
  5
7487
330
747A
100
AcDbEntity
 67
     1
  8
0
100
AcDbBlockBegin
  2
*PAPER_SPACE
 70
     0
 10
0.0
 20
0.0
 30
0.0
  3
*PAPER_SPACE
  1

  0
ENDBLK
  5
7488
330
747A
100
AcDbEntity
 67
     1
  8
0
100
AcDbBlockEnd
  0
BLOCK
  5
F771
330
F770
100
AcDbEntity
  8
0
 48
50.0
100
AcDbBlockBegin
  2
_DOTSMALL
 70
     0
 10
0.0
 20
0.0
 30
0.0
  3
_DOTSMALL
  1

  0
LWPOLYLINE
  5
F772
330
F770
100
AcDbEntity
  8
0
  6
ByBlock
 62
     0
 48
50.0
100
AcDbPolyline
 90
        2
 70
     1
 43
0.5
 10
-0.0625
 20
0.0
 42
1.0
 10
0.0625
 20
0.0
 42
1.0
  0
ENDBLK
  5
F776
330
F770
100
AcDbEntity
  8
0
 48
50.0
100
AcDbBlockEnd
  0
BLOCK
  5
14D7A
330
14C7E
100
AcDbEntity
  8
0
 48
50.0
100
AcDbBlockBegin
  2
*D1
 70
     1
 10
0.0
 20
0.0
 30
0.0
  3
*D1
  1

  0
LINE
  5
160FB
330
14C7E
100
AcDbEntity
  8
寸法
 62
     0
 48
50.0
370
    -2
100
AcDbLine
 10
5492.488900113116
 20
5224.71106276853
 30
0.0
 11
5134.384372505513
 21
5224.71106276853
 31
0.0
  0
LINE
  5
160FC
330
14C7E
100
AcDbEntity
  8
寸法
 62
     0
 48
50.0
370
    -2
100
AcDbLine
 10
5492.488900113116
 20
3464.711062768535
 30
0.0
 11
5134.384372505513
 21
3464.711062768535
 31
0.0
  0
LINE
  5
160FD
330
14C7E
100
AcDbEntity
  8
寸法
 62
     0
 48
50.0
370
    -2
100
AcDbLine
 10
5194.384372505513
 20
5224.71106276853
 30
0.0
 11
5194.384372505513
 21
3464.711062768535
 31
0.0
  0
INSERT
  5
160FE
330
14C7E
100
AcDbEntity
  8
寸法
 62
     0
 48
50.0
370
    -2
100
AcDbBlockReference
  2
_DOTSMALL
 10
5194.384372505513
 20
5224.71106276853
 30
0.0
 41
100.0
 42
100.0
 43
100.0
 50
90.0
  0
INSERT
  5
160FF
330
14C7E
100
AcDbEntity
  8
寸法
 62
     0
 48
50.0
370
    -2
100
AcDbBlockReference
  2
_DOTSMALL
 10
5194.384372505513
 20
3464.711062768535
 30
0.0
 41
100.0
 42
100.0
 43
100.0
 50
270.0
  0
MTEXT
  5
16100
330
14C7E
100
AcDbEntity
  8
寸法
 62
     7
 48
50.0
100
AcDbMText
 10
5094.384372505512
 20
4343.711062768533
 30
0.0
 40
120.0
 41
0.0
 71
     5
 72
     1
  1
\A1;有効開口部高サ1760
  7
STYLE1
 11
0.0000000000000001
 21
1.0
 31
0.0
 73
     1
 44
1.0
1001
ACAD
1000
MTEXTBEGIN
1070
    73
1070
     1
1070
    44
1040
1.0
1070
    74
1070
     0
1000
MTEXTEND
  0
POINT
  5
16101
330
14C7E
100
AcDbEntity
  8
DEFPOINTS
 62
     0
 48
50.0
100
AcDbPoint
 10
5512.488900113115
 20
5224.71106276853
 30
0.0
  0
POINT
  5
16102
330
14C7E
100
AcDbEntity
  8
DEFPOINTS
 62
     0
 48
50.0
100
AcDbPoint
 10
5512.488900113115
 20
3464.711062768535
 30
0.0
  0
POINT
  5
16103
330
14C7E
100
AcDbEntity
  8
DEFPOINTS
 62
     0
 48
50.0
100
AcDbPoint
 10
5194.384372505513
 20
3464.711062768535
 30
0.0
  0
ENDBLK
  5
14D84
330
14C7E
100
AcDbEntity
  8
0
 48
50.0
100
AcDbBlockEnd
  0
BLOCK
  5
14DC0
330
14CCA
100
AcDbEntity
  8
0
 48
50.0
100
AcDbBlockBegin
  2
*D2
 70
     1
 10
0.0
 20
0.0
 30
0.0
  3
*D2
  1

  0
LINE
  5
16243
330
14CCA
100
AcDbEntity
  8
寸法
 62
     0
 48
50.0
370
    -2
100
AcDbLine
 10
6486.129922942097
 20
8772.419259791981
 30
0.0
 11
6416.718458950874
 21
8513.372149548997
 31
0.0
  0
LINE
  5
16244
330
14CCA
100
AcDbEntity
  8
寸法
 62
     0
 48
50.0
370
    -2
100
AcDbLine
 10
7378.129922942109
 20
8772.419259791979
 30
0.0
 11
7308.718458950886
 21
8513.372149548997
 31
0.0
  0
LINE
  5
16245
330
14CCA
100
AcDbEntity
  8
寸法
 62
     0
 48
50.0
370
    -2
100
AcDbLine
 10
6432.795410496741
 20
8573.372149548998
 30
0.0
 11
7324.795410496754
 21
8573.372149548998
 31
0.0
  0
MTEXT
  5
16246
330
14CCA
100
AcDbEntity
  8
寸法
 62
     7
 48
50.0
100
AcDbMText
 10
6976.143558672396
 20
8678.457425325527
 30
0.0
 40
120.0
 41
0.0
 71
     5
 72
     1
  1
\A1;892
  7
STYLE1
 73
     1
 44
1.0
1001
ACAD
1000
MTEXTBEGIN
1070
    73
1070
     1
1070
    44
1040
1.0
1070
    74
1070
     0
1000
MTEXTEND
  0
INSERT
  5
16247
330
14CCA
100
AcDbEntity
  8
寸法
 62
     0
 48
50.0
370
    -2
100
AcDbBlockReference
  2
_DOTSMALL
 10
6432.795410496741
 20
8573.372149548998
 30
0.0
 41
100.0
 42
100.0
 43
100.0
 50
180.0
  0
INSERT
  5
16248
330
14CCA
100
AcDbEntity
  8
寸法
 62
     0
 48
50.0
370
    -2
100
AcDbBlockReference
  2
_DOTSMALL
 10
7324.795410496754
 20
8573.372149548998
 30
0.0
 41
100.0
 42
100.0
 43
100.0
  0
POINT
  5
16249
330
14CCA
100
AcDbEntity
  8
DEFPOINTS
 62
     0
 48
50.0
100
AcDbPoint
 10
6491.48890679072
 20
8792.419259791982
 30
0.0
  0
POINT
  5
1624A
330
14CCA
100
AcDbEntity
  8
DEFPOINTS
 62
     0
 48
50.0
100
AcDbPoint
 10
7383.488906790731
 20
8792.419259791977
 30
0.0
  0
POINT
  5
1624B
330
14CCA
100
AcDbEntity
  8
DEFPOINTS
 62
     0
 48
50.0
100
AcDbPoint
 10
7324.795410496754
 20
8573.372149548998
 30
0.0
  0
ENDBLK
  5
14DCA
330
14CCA
100
AcDbEntity
  8
0
 48
50.0
100
AcDbBlockEnd
  0
BLOCK
  5
14DCB
330
14CD6
100
AcDbEntity
  8
0
 48
50.0
100
AcDbBlockBegin
  2
*D3
 70
     1
 10
0.0
 20
0.0
 30
0.0
  3
*D3
  1

  0
LINE
  5
1623A
330
14CD6
100
AcDbEntity
  8
寸法
 62
     0
 48
50.0
370
    -2
100
AcDbLine
 10
5512.488900113115
 20
8301.91925979193
 30
0.0
 11
5512.488900113115
 21
7274.817384931859
 31
0.0
  0
LINE
  5
1623B
330
14CD6
100
AcDbEntity
  8
寸法
 62
     0
 48
50.0
370
    -2
100
AcDbLine
 10
7412.488900113098
 20
8301.919259792061
 30
0.0
 11
7412.488900113098
 21
7274.817384931859
 31
0.0
  0
LINE
  5
1623C
330
14CD6
100
AcDbEntity
  8
寸法
 62
     0
 48
50.0
370
    -2
100
AcDbLine
 10
5512.488900113115
 20
7334.817384931859
 30
0.0
 11
7412.488900113098
 21
7334.817384931859
 31
0.0
  0
INSERT
  5
1623D
330
14CD6
100
AcDbEntity
  8
寸法
 62
     0
 48
50.0
370
    -2
100
AcDbBlockReference
  2
_DOTSMALL
 10
5512.488900113115
 20
7334.817384931859
 30
0.0
 41
100.0
 42
100.0
 43
100.0
 50
180.0
  0
INSERT
  5
1623E
330
14CD6
100
AcDbEntity
  8
寸法
 62
     0
 48
50.0
370
    -2
100
AcDbBlockReference
  2
_DOTSMALL
 10
7412.488900113098
 20
7334.817384931859
 30
0.0
 41
100.0
 42
100.0
 43
100.0
  0
MTEXT
  5
1623F
330
14CD6
100
AcDbEntity
  8
寸法
 62
     7
 48
50.0
100
AcDbMText
 10
6462.488900113122
 20
7434.81738493186
 30
0.0
 40
120.0
 41
0.0
 71
     5
 72
     1
  1
\A1;1900
  7
STYLE1
 73
     1
 44
1.0
1001
ACAD
1000
MTEXTBEGIN
1070
    73
1070
     1
1070
    44
1040
1.0
1070
    74
1070
     0
1000
MTEXTEND
  0
POINT
  5
16240
330
14CD6
100
AcDbEntity
  8
DEFPOINTS
 62
     0
 48
50.0
100
AcDbPoint
 10
5512.488900113115
 20
8321.919259791931
 30
0.0
  0
POINT
  5
16241
330
14CD6
100
AcDbEntity
  8
DEFPOINTS
 62
     0
 48
50.0
100
AcDbPoint
 10
7412.488900113098
 20
8321.919259792061
 30
0.0
  0
POINT
  5
16242
330
14CD6
100
AcDbEntity
  8
DEFPOINTS
 62
     0
 48
50.0
100
AcDbPoint
 10
7412.488900113098
 20
7334.817384931859
 30
0.0
  0
ENDBLK
  5
14DD5
330
14CD6
100
AcDbEntity
  8
0
 48
50.0
100
AcDbBlockEnd
  0
BLOCK
  5
14DD6
330
14CE2
100
AcDbEntity
  8
0
 48
50.0
100
AcDbBlockBegin
  2
*D4
 70
     1
 10
0.0
 20
0.0
 30
0.0
  3
*D4
  1

  0
LINE
  5
16231
330
14CE2
100
AcDbEntity
  8
寸法
 62
     0
 48
50.0
370
    -2
100
AcDbLine
 10
6517.488900113121
 20
9291.919259792043
 30
0.0
 11
6517.488900113121
 21
9547.727479417108
 31
0.0
  0
LINE
  5
16232
330
14CE2
100
AcDbEntity
  8
寸法
 62
     0
 48
50.0
370
    -2
100
AcDbLine
 10
7357.488900113121
 20
9291.91925979213
 30
0.0
 11
7357.488900113121
 21
9547.727479417108
 31
0.0
  0
LINE
  5
16233
330
14CE2
100
AcDbEntity
  8
寸法
 62
     0
 48
50.0
370
    -2
100
AcDbLine
 10
6517.488900113121
 20
9487.727479417108
 30
0.0
 11
7357.488900113121
 21
9487.727479417108
 31
0.0
  0
INSERT
  5
16234
330
14CE2
100
AcDbEntity
  8
寸法
 62
     0
 48
50.0
370
    -2
100
AcDbBlockReference
  2
_DOTSMALL
 10
6517.488900113121
 20
9487.727479417108
 30
0.0
 41
100.0
 42
100.0
 43
100.0
 50
180.0
  0
INSERT
  5
16235
330
14CE2
100
AcDbEntity
  8
寸法
 62
     0
 48
50.0
370
    -2
100
AcDbBlockReference
  2
_DOTSMALL
 10
7357.488900113121
 20
9487.727479417108
 30
0.0
 41
100.0
 42
100.0
 43
100.0
  0
MTEXT
  5
16236
330
14CE2
100
AcDbEntity
  8
寸法
 62
     7
 48
50.0
100
AcDbMText
 10
6937.488900113122
 20
9587.73929044073
 30
0.0
 40
120.0
 41
0.0
 71
     5
 72
     1
  1
\A1;2X420=840
  7
STYLE1
 73
     1
 44
1.0
1001
ACAD
1000
MTEXTBEGIN
1070
    73
1070
     1
1070
    44
1040
1.0
1070
    74
1070
     0
1000
MTEXTEND
  0
POINT
  5
16237
330
14CE2
100
AcDbEntity
  8
DEFPOINTS
 62
     0
 48
50.0
100
AcDbPoint
 10
6517.488900113121
 20
9271.919259792042
 30
0.0
  0
POINT
  5
16238
330
14CE2
100
AcDbEntity
  8
DEFPOINTS
 62
     0
 48
50.0
100
AcDbPoint
 10
7357.488900113121
 20
9271.919259792131
 30
0.0
  0
POINT
  5
16239
330
14CE2
100
AcDbEntity
  8
DEFPOINTS
 62
     0
 48
50.0
100
AcDbPoint
 10
7357.488900113121
 20
9487.727479417108
 30
0.0
  0
ENDBLK
  5
14DE0
330
14CE2
100
AcDbEntity
  8
0
 48
50.0
100
AcDbBlockEnd
  0
BLOCK
  5
14DE1
330
14CEE
100
AcDbEntity
  8
0
 48
50.0
100
AcDbBlockBegin
  2
*D5
 70
     1
 10
0.0
 20
0.0
 30
0.0
  3
*D5
  1

  0
LINE
  5
16228
330
14CEE
100
AcDbEntity
  8
寸法
 62
     0
 48
50.0
370
    -2
100
AcDbLine
 10
6517.488900113119
 20
8301.919259792002
 30
0.0
 11
6517.488900113119
 21
7822.095591996926
 31
0.0
  0
LINE
  5
16229
330
14CEE
100
AcDbEntity
  8
寸法
 62
     0
 48
50.0
370
    -2
100
AcDbLine
 10
7202.488900113116
 20
8301.919259791967
 30
0.0
 11
7202.488900113116
 21
7822.095591996926
 31
0.0
  0
LINE
  5
1622A
330
14CEE
100
AcDbEntity
  8
寸法
 62
     0
 48
50.0
370
    -2
100
AcDbLine
 10
6517.488900113119
 20
7882.095591996925
 30
0.0
 11
7202.488900113116
 21
7882.095591996925
 31
0.0
  0
INSERT
  5
1622B
330
14CEE
100
AcDbEntity
  8
寸法
 62
     0
 48
50.0
370
    -2
100
AcDbBlockReference
  2
_DOTSMALL
 10
6517.488900113119
 20
7882.095591996925
 30
0.0
 41
100.0
 42
100.0
 43
100.0
 50
180.0
  0
INSERT
  5
1622C
330
14CEE
100
AcDbEntity
  8
寸法
 62
     0
 48
50.0
370
    -2
100
AcDbBlockReference
  2
_DOTSMALL
 10
7202.488900113116
 20
7882.095591996925
 30
0.0
 41
100.0
 42
100.0
 43
100.0
  0
MTEXT
  5
1622D
330
14CEE
100
AcDbEntity
  8
寸法
 62
     7
 48
50.0
100
AcDbMText
 10
6859.988900113117
 20
8082.095591996925
 30
0.0
 40
120.0
 41
0.0
 71
     5
 72
     1
  1
\A1;有効開口部間口\P685
  7
STYLE1
 73
     1
 44
1.0
1001
ACAD
1000
MTEXTBEGIN
1070
    73
1070
     1
1070
    44
1040
1.0
1070
    74
1070
     0
1000
MTEXTEND
  0
POINT
  5
1622E
330
14CEE
100
AcDbEntity
  8
DEFPOINTS
 62
     0
 48
50.0
100
AcDbPoint
 10
6517.488900113119
 20
8321.919259792002
 30
0.0
  0
POINT
  5
1622F
330
14CEE
100
AcDbEntity
  8
DEFPOINTS
 62
     0
 48
50.0
100
AcDbPoint
 10
7202.488900113116
 20
8321.919259791966
 30
0.0
  0
POINT
  5
16230
330
14CEE
100
AcDbEntity
  8
DEFPOINTS
 62
     0
 48
50.0
100
AcDbPoint
 10
7202.488900113116
 20
7882.095591996925
 30
0.0
  0
ENDBLK
  5
14DEB
330
14CEE
100
AcDbEntity
  8
0
 48
50.0
100
AcDbBlockEnd
  0
BLOCK
  5
14DF7
330
14D06
100
AcDbEntity
  8
0
 48
50.0
100
AcDbBlockBegin
  2
*D6
 70
     1
 10
0.0
 20
0.0
 30
0.0
  3
*D6
  1

  0
LINE
  5
1621D
330
14D06
100
AcDbEntity
  8
寸法
 62
     0
 48
50.0
370
    -2
100
AcDbLine
 10
5512.488900113088
 20
9291.91925979201
 30
0.0
 11
5512.488900113088
 21
9547.727479416991
 31
0.0
  0
LINE
  5
1621E
330
14D06
100
AcDbEntity
  8
寸法
 62
     0
 48
50.0
370
    -2
100
AcDbLine
 10
5567.488900113122
 20
9291.91925979201
 30
0.0
 11
5567.488900113122
 21
9547.727479416991
 31
0.0
  0
LINE
  5
1621F
330
14D06
100
AcDbEntity
  8
寸法
 62
     0
 48
50.0
370
    -2
100
AcDbLine
 10
5567.488900113122
 20
9487.727479416992
 30
0.0
 11
5667.488900113123
 21
9487.727479416992
 31
0.0
  0
LINE
  5
16220
330
14D06
100
AcDbEntity
  8
寸法
 62
     0
 48
50.0
370
    -2
100
AcDbLine
 10
5512.488900113088
 20
9487.727479416992
 30
0.0
 11
5095.518337364609
 21
9487.727479416992
 31
0.0
  0
LINE
  5
16221
330
14D06
100
AcDbEntity
  8
寸法
 62
     0
 48
50.0
370
    -2
100
AcDbLine
 10
5567.488900113122
 20
9487.727479416992
 30
0.0
 11
5512.488900113088
 21
9487.727479416992
 31
0.0
  0
INSERT
  5
16222
330
14D06
100
AcDbEntity
  8
寸法
 62
     0
 48
50.0
370
    -2
100
AcDbBlockReference
  2
_DOTSMALL
 10
5567.488900113122
 20
9487.727479416992
 30
0.0
 41
100.0
 42
100.0
 43
100.0
 50
180.0
  0
INSERT
  5
16223
330
14D06
100
AcDbEntity
  8
寸法
 62
     0
 48
50.0
370
    -2
100
AcDbBlockReference
  2
_DOTSMALL
 10
5512.488900113088
 20
9487.727479416992
 30
0.0
 41
100.0
 42
100.0
 43
100.0
  0
MTEXT
  5
16224
330
14D06
100
AcDbEntity
  8
寸法
 62
     7
 48
50.0
100
AcDbMText
 10
5204.003618738848
 20
9587.727479416992
 30
0.0
 40
120.0
 41
0.0
 71
     5
 72
     1
  1
\A1;55
  7
STYLE1
 73
     1
 44
1.0
1001
ACAD
1000
MTEXTBEGIN
1070
    73
1070
     1
1070
    44
1040
1.0
1070
    74
1070
     0
1000
MTEXTEND
  0
POINT
  5
16225
330
14D06
100
AcDbEntity
  8
DEFPOINTS
 62
     0
 48
50.0
100
AcDbPoint
 10
5512.488900113088
 20
9271.91925979201
 30
0.0
  0
POINT
  5
16226
330
14D06
100
AcDbEntity
  8
DEFPOINTS
 62
     0
 48
50.0
100
AcDbPoint
 10
5567.488900113122
 20
9271.91925979201
 30
0.0
  0
POINT
  5
16227
330
14D06
100
AcDbEntity
  8
DEFPOINTS
 62
     0
 48
50.0
100
AcDbPoint
 10
5567.488900113122
 20
9487.727479416992
 30
0.0
  0
ENDBLK
  5
14E03
330
14D06
100
AcDbEntity
  8
0
 48
50.0
100
AcDbBlockEnd
  0
BLOCK
  5
14E04
330
14D14
100
AcDbEntity
  8
0
 48
50.0
100
AcDbBlockBegin
  2
*D7
 70
     1
 10
0.0
 20
0.0
 30
0.0
  3
*D7
  1

  0
LINE
  5
16214
330
14D14
100
AcDbEntity
  8
寸法
 62
     0
 48
50.0
370
    -2
100
AcDbLine
 10
5567.488900113122
 20
9291.919259792043
 30
0.0
 11
5567.488900113122
 21
9547.727479417108
 31
0.0
  0
LINE
  5
16215
330
14D14
100
AcDbEntity
  8
寸法
 62
     0
 48
50.0
370
    -2
100
AcDbLine
 10
6407.488900113121
 20
9291.91925979213
 30
0.0
 11
6407.488900113121
 21
9547.727479417108
 31
0.0
  0
LINE
  5
16216
330
14D14
100
AcDbEntity
  8
寸法
 62
     0
 48
50.0
370
    -2
100
AcDbLine
 10
5567.488900113122
 20
9487.727479417108
 30
0.0
 11
6407.488900113121
 21
9487.727479417108
 31
0.0
  0
INSERT
  5
16217
330
14D14
100
AcDbEntity
  8
寸法
 62
     0
 48
50.0
370
    -2
100
AcDbBlockReference
  2
_DOTSMALL
 10
5567.488900113122
 20
9487.727479417108
 30
0.0
 41
100.0
 42
100.0
 43
100.0
 50
180.0
  0
INSERT
  5
16218
330
14D14
100
AcDbEntity
  8
寸法
 62
     0
 48
50.0
370
    -2
100
AcDbBlockReference
  2
_DOTSMALL
 10
6407.488900113121
 20
9487.727479417108
 30
0.0
 41
100.0
 42
100.0
 43
100.0
  0
MTEXT
  5
16219
330
14D14
100
AcDbEntity
  8
寸法
 62
     7
 48
50.0
100
AcDbMText
 10
5987.488900113121
 20
9587.73929044073
 30
0.0
 40
120.0
 41
0.0
 71
     5
 72
     1
  1
\A1;2X420=840
  7
STYLE1
 73
     1
 44
1.0
1001
ACAD
1000
MTEXTBEGIN
1070
    73
1070
     1
1070
    44
1040
1.0
1070
    74
1070
     0
1000
MTEXTEND
  0
POINT
  5
1621A
330
14D14
100
AcDbEntity
  8
DEFPOINTS
 62
     0
 48
50.0
100
AcDbPoint
 10
5567.488900113122
 20
9271.919259792042
 30
0.0
  0
POINT
  5
1621B
330
14D14
100
AcDbEntity
  8
DEFPOINTS
 62
     0
 48
50.0
100
AcDbPoint
 10
6407.488900113121
 20
9271.919259792131
 30
0.0
  0
POINT
  5
1621C
330
14D14
100
AcDbEntity
  8
DEFPOINTS
 62
     0
 48
50.0
100
AcDbPoint
 10
6407.488900113121
 20
9487.727479417108
 30
0.0
  0
ENDBLK
  5
14E0E
330
14D14
100
AcDbEntity
  8
0
 48
50.0
100
AcDbBlockEnd
  0
BLOCK
  5
14E0F
330
14D20
100
AcDbEntity
  8
0
 48
50.0
100
AcDbBlockBegin
  2
*D8
 70
     1
 10
0.0
 20
0.0
 30
0.0
  3
*D8
  1

  0
LINE
  5
1620B
330
14D20
100
AcDbEntity
  8
寸法
 62
     0
 48
50.0
370
    -2
100
AcDbLine
 10
6407.488900113121
 20
9291.91925979213
 30
0.0
 11
6407.488900113121
 21
9547.727479417108
 31
0.0
  0
LINE
  5
1620C
330
14D20
100
AcDbEntity
  8
寸法
 62
     0
 48
50.0
370
    -2
100
AcDbLine
 10
6517.488900113125
 20
9291.919259792107
 30
0.0
 11
6517.488900113125
 21
9547.727479417108
 31
0.0
  0
LINE
  5
1620D
330
14D20
100
AcDbEntity
  8
寸法
 62
     0
 48
50.0
370
    -2
100
AcDbLine
 10
6407.488900113121
 20
9487.727479417108
 30
0.0
 11
6517.488900113125
 21
9487.727479417108
 31
0.0
  0
MTEXT
  5
1620E
330
14D20
100
AcDbEntity
  8
寸法
 62
     7
 48
50.0
100
AcDbMText
 10
6462.488900113124
 20
9756.192343046501
 30
0.0
 40
120.0
 41
0.0
 71
     5
 72
     1
  1
\A1;110
  7
STYLE1
 73
     1
 44
1.0
1001
ACAD
1000
MTEXTBEGIN
1070
    73
1070
     1
1070
    44
1040
1.0
1070
    74
1070
     0
1000
MTEXTEND
  0
INSERT
  5
1620F
330
14D20
100
AcDbEntity
  8
寸法
 62
     0
 48
50.0
370
    -2
100
AcDbBlockReference
  2
_DOTSMALL
 10
6407.488900113121
 20
9487.727479417108
 30
0.0
 41
100.0
 42
100.0
 43
100.0
 50
180.0
  0
INSERT
  5
16210
330
14D20
100
AcDbEntity
  8
寸法
 62
     0
 48
50.0
370
    -2
100
AcDbBlockReference
  2
_DOTSMALL
 10
6517.488900113125
 20
9487.727479417108
 30
0.0
 41
100.0
 42
100.0
 43
100.0
  0
POINT
  5
16211
330
14D20
100
AcDbEntity
  8
DEFPOINTS
 62
     0
 48
50.0
100
AcDbPoint
 10
6407.488900113121
 20
9271.919259792131
 30
0.0
  0
POINT
  5
16212
330
14D20
100
AcDbEntity
  8
DEFPOINTS
 62
     0
 48
50.0
100
AcDbPoint
 10
6517.488900113125
 20
9271.919259792108
 30
0.0
  0
POINT
  5
16213
330
14D20
100
AcDbEntity
  8
DEFPOINTS
 62
     0
 48
50.0
100
AcDbPoint
 10
6517.488900113125
 20
9487.727479417108
 30
0.0
  0
ENDBLK
  5
14E19
330
14D20
100
AcDbEntity
  8
0
 48
50.0
100
AcDbBlockEnd
  0
BLOCK
  5
14E1A
330
14D2C
100
AcDbEntity
  8
0
 48
50.0
100
AcDbBlockBegin
  2
*D9
 70
     1
 10
0.0
 20
0.0
 30
0.0
  3
*D9
  1

  0
LINE
  5
16202
330
14D2C
100
AcDbEntity
  8
寸法
 62
     0
 48
50.0
370
    -2
100
AcDbLine
 10
7403.488906790731
 20
9237.060275943354
 30
0.0
 11
7798.846632652758
 21
9131.124492577219
 31
0.0
  0
LINE
  5
16203
330
14D2C
100
AcDbEntity
  8
寸法
 62
     0
 48
50.0
370
    -2
100
AcDbLine
 10
7403.488906790741
 20
8787.060275943359
 30
0.0
 11
7798.846632652758
 21
8681.124492577225
 31
0.0
  0
LINE
  5
16204
330
14D2C
100
AcDbEntity
  8
寸法
 62
     0
 48
50.0
370
    -2
100
AcDbLine
 10
7738.846632652758
 20
9147.201444123089
 30
0.0
 11
7738.846632652758
 21
8697.201444123093
 31
0.0
  0
INSERT
  5
16205
330
14D2C
100
AcDbEntity
  8
寸法
 62
     0
 48
50.0
370
    -2
100
AcDbBlockReference
  2
_DOTSMALL
 10
7738.846632652758
 20
9147.201444123089
 30
0.0
 41
100.0
 42
100.0
 43
100.0
 50
90.0
  0
INSERT
  5
16206
330
14D2C
100
AcDbEntity
  8
寸法
 62
     0
 48
50.0
370
    -2
100
AcDbBlockReference
  2
_DOTSMALL
 10
7738.846632652758
 20
8697.201444123093
 30
0.0
 41
100.0
 42
100.0
 43
100.0
 50
270.0
  0
MTEXT
  5
16207
330
14D2C
100
AcDbEntity
  8
寸法
 62
     7
 48
50.0
100
AcDbMText
 10
7638.846632652756
 20
8922.201444123089
 30
0.0
 40
120.0
 41
0.0
 71
     5
 72
     1
  1
\A1;450
  7
STYLE1
 11
0.0000000000000001
 21
1.0
 31
0.0
 73
     1
 44
1.0
1001
ACAD
1000
MTEXTBEGIN
1070
    73
1070
     1
1070
    44
1040
1.0
1070
    74
1070
     0
1000
MTEXTEND
  0
POINT
  5
16208
330
14D2C
100
AcDbEntity
  8
DEFPOINTS
 62
     0
 48
50.0
100
AcDbPoint
 10
7383.488906790731
 20
9242.419259791978
 30
0.0
  0
POINT
  5
16209
330
14D2C
100
AcDbEntity
  8
DEFPOINTS
 62
     0
 48
50.0
100
AcDbPoint
 10
7383.488906790741
 20
8792.419259791982
 30
0.0
  0
POINT
  5
1620A
330
14D2C
100
AcDbEntity
  8
DEFPOINTS
 62
     0
 48
50.0
100
AcDbPoint
 10
7738.846632652758
 20
8697.201444123093
 30
0.0
  0
ENDBLK
  5
14E24
330
14D2C
100
AcDbEntity
  8
0
 48
50.0
100
AcDbBlockEnd
  0
BLOCK
  5
14E25
330
14D38
100
AcDbEntity
  8
0
 48
50.0
100
AcDbBlockBegin
  2
*D10
 70
     1
 10
0.0
 20
0.0
 30
0.0
  3
*D10
  1

  0
LINE
  5
161F9
330
14D38
100
AcDbEntity
  8
寸法
 62
     0
 48
50.0
370
    -2
100
AcDbLine
 10
7432.488900113124
 20
9271.919259792104
 30
0.0
 11
8429.026776663212
 21
9271.919259792104
 31
0.0
  0
LINE
  5
161FA
330
14D38
100
AcDbEntity
  8
寸法
 62
     0
 48
50.0
370
    -2
100
AcDbLine
 10
7432.488900113098
 20
8321.919259792094
 30
0.0
 11
8429.026776663212
 21
8321.919259792094
 31
0.0
  0
LINE
  5
161FB
330
14D38
100
AcDbEntity
  8
寸法
 62
     0
 48
50.0
370
    -2
100
AcDbLine
 10
8369.026776663211
 20
9271.919259792104
 30
0.0
 11
8369.026776663211
 21
8321.919259792094
 31
0.0
  0
INSERT
  5
161FC
330
14D38
100
AcDbEntity
  8
寸法
 62
     0
 48
50.0
370
    -2
100
AcDbBlockReference
  2
_DOTSMALL
 10
8369.026776663211
 20
9271.919259792104
 30
0.0
 41
100.0
 42
100.0
 43
100.0
 50
90.0
  0
INSERT
  5
161FD
330
14D38
100
AcDbEntity
  8
寸法
 62
     0
 48
50.0
370
    -2
100
AcDbBlockReference
  2
_DOTSMALL
 10
8369.026776663211
 20
8321.919259792094
 30
0.0
 41
100.0
 42
100.0
 43
100.0
 50
270.0
  0
MTEXT
  5
161FE
330
14D38
100
AcDbEntity
  8
寸法
 62
     7
 48
50.0
100
AcDbMText
 10
8269.02677666321
 20
8795.896978351013
 30
0.0
 40
120.0
 41
0.0
 71
     5
 72
     1
  1
\A1;950
  7
STYLE1
 11
0.0000000000000001
 21
1.0
 31
0.0
 73
     1
 44
1.0
1001
ACAD
1000
MTEXTBEGIN
1070
    73
1070
     1
1070
    44
1040
1.0
1070
    74
1070
     0
1000
MTEXTEND
  0
POINT
  5
161FF
330
14D38
100
AcDbEntity
  8
DEFPOINTS
 62
     0
 48
50.0
100
AcDbPoint
 10
7412.488900113124
 20
9271.919259792104
 30
0.0
  0
POINT
  5
16200
330
14D38
100
AcDbEntity
  8
DEFPOINTS
 62
     0
 48
50.0
100
AcDbPoint
 10
7412.488900113098
 20
8321.919259792094
 30
0.0
  0
POINT
  5
16201
330
14D38
100
AcDbEntity
  8
DEFPOINTS
 62
     0
 48
50.0
100
AcDbPoint
 10
8369.026776663211
 20
8321.919259792094
 30
0.0
  0
ENDBLK
  5
14E2F
330
14D38
100
AcDbEntity
  8
0
 48
50.0
100
AcDbBlockEnd
  0
BLOCK
  5
14E30
330
14D44
100
AcDbEntity
  8
0
 48
50.0
100
AcDbBlockBegin
  2
*D11
 70
     1
 10
0.0
 20
0.0
 30
0.0
  3
*D11
  1

  0
LINE
  5
161F0
330
14D44
100
AcDbEntity
  8
寸法
 62
     0
 48
50.0
370
    -2
100
AcDbLine
 10
7432.488900113124
 20
9216.919259792108
 30
0.0
 11
8119.915245847534
 21
9216.919259792108
 31
0.0
  0
LINE
  5
161F1
330
14D44
100
AcDbEntity
  8
寸法
 62
     0
 48
50.0
370
    -2
100
AcDbLine
 10
7432.488900113098
 20
8376.91925979209
 30
0.0
 11
8119.915245847534
 21
8376.91925979209
 31
0.0
  0
LINE
  5
161F2
330
14D44
100
AcDbEntity
  8
寸法
 62
     0
 48
50.0
370
    -2
100
AcDbLine
 10
8059.915245847534
 20
9216.919259792108
 30
0.0
 11
8059.915245847534
 21
8376.91925979209
 31
0.0
  0
INSERT
  5
161F3
330
14D44
100
AcDbEntity
  8
寸法
 62
     0
 48
50.0
370
    -2
100
AcDbBlockReference
  2
_DOTSMALL
 10
8059.915245847534
 20
9216.919259792108
 30
0.0
 41
100.0
 42
100.0
 43
100.0
 50
90.0
  0
INSERT
  5
161F4
330
14D44
100
AcDbEntity
  8
寸法
 62
     0
 48
50.0
370
    -2
100
AcDbBlockReference
  2
_DOTSMALL
 10
8059.915245847534
 20
8376.91925979209
 30
0.0
 41
100.0
 42
100.0
 43
100.0
 50
270.0
  0
MTEXT
  5
161F5
330
14D44
100
AcDbEntity
  8
寸法
 62
     7
 48
50.0
100
AcDbMText
 10
7959.903434823911
 20
8796.919259792101
 30
0.0
 40
120.0
 41
0.0
 71
     5
 72
     1
  1
\A1;2X420=840
  7
STYLE1
 11
0.0000000000000001
 21
1.0
 31
0.0
 73
     1
 44
1.0
1001
ACAD
1000
MTEXTBEGIN
1070
    73
1070
     1
1070
    44
1040
1.0
1070
    74
1070
     0
1000
MTEXTEND
  0
POINT
  5
161F6
330
14D44
100
AcDbEntity
  8
DEFPOINTS
 62
     0
 48
50.0
100
AcDbPoint
 10
7412.488900113124
 20
9216.919259792108
 30
0.0
  0
POINT
  5
161F7
330
14D44
100
AcDbEntity
  8
DEFPOINTS
 62
     0
 48
50.0
100
AcDbPoint
 10
7412.488900113098
 20
8376.91925979209
 30
0.0
  0
POINT
  5
161F8
330
14D44
100
AcDbEntity
  8
DEFPOINTS
 62
     0
 48
50.0
100
AcDbPoint
 10
8059.915245847534
 20
8376.91925979209
 30
0.0
  0
ENDBLK
  5
14E3A
330
14D44
100
AcDbEntity
  8
0
 48
50.0
100
AcDbBlockEnd
  0
BLOCK
  5
14E3B
330
14D50
100
AcDbEntity
  8
0
 48
50.0
100
AcDbBlockBegin
  2
*D12
 70
     1
 10
0.0
 20
0.0
 30
0.0
  3
*D12
  1

  0
LINE
  5
161E5
330
14D50
100
AcDbEntity
  8
寸法
 62
     0
 48
50.0
370
    -2
100
AcDbLine
 10
7432.488900113124
 20
9271.919259792104
 30
0.0
 11
8119.915245847534
 21
9271.919259792104
 31
0.0
  0
LINE
  5
161E6
330
14D50
100
AcDbEntity
  8
寸法
 62
     0
 48
50.0
370
    -2
100
AcDbLine
 10
7432.488900113124
 20
9216.919259792108
 30
0.0
 11
8119.915245847534
 21
9216.919259792108
 31
0.0
  0
LINE
  5
161E7
330
14D50
100
AcDbEntity
  8
寸法
 62
     0
 48
50.0
370
    -2
100
AcDbLine
 10
8059.915245847534
 20
9216.919259792108
 30
0.0
 11
8059.915245847534
 21
9116.919259792108
 31
0.0
  0
LINE
  5
161E8
330
14D50
100
AcDbEntity
  8
寸法
 62
     0
 48
50.0
370
    -2
100
AcDbLine
 10
8059.915245847534
 20
9271.919259792104
 30
0.0
 11
8059.915245847534
 21
9688.889822540581
 31
0.0
  0
LINE
  5
161E9
330
14D50
100
AcDbEntity
  8
寸法
 62
     0
 48
50.0
370
    -2
100
AcDbLine
 10
8059.915245847534
 20
9216.919259792108
 30
0.0
 11
8059.915245847534
 21
9271.919259792104
 31
0.0
  0
INSERT
  5
161EA
330
14D50
100
AcDbEntity
  8
寸法
 62
     0
 48
50.0
370
    -2
100
AcDbBlockReference
  2
_DOTSMALL
 10
8059.915245847534
 20
9216.919259792108
 30
0.0
 41
100.0
 42
100.0
 43
100.0
 50
90.0
  0
INSERT
  5
161EB
330
14D50
100
AcDbEntity
  8
寸法
 62
     0
 48
50.0
370
    -2
100
AcDbBlockReference
  2
_DOTSMALL
 10
8059.915245847534
 20
9271.919259792104
 30
0.0
 41
100.0
 42
100.0
 43
100.0
 50
270.0
  0
MTEXT
  5
161EC
330
14D50
100
AcDbEntity
  8
寸法
 62
     7
 48
50.0
100
AcDbMText
 10
7959.915245847533
 20
9580.404541166345
 30
0.0
 40
120.0
 41
0.0
 71
     5
 72
     1
  1
\A1;55
  7
STYLE1
 11
0.0000000000000001
 21
1.0
 31
0.0
 73
     1
 44
1.0
1001
ACAD
1000
MTEXTBEGIN
1070
    73
1070
     1
1070
    44
1040
1.0
1070
    74
1070
     0
1000
MTEXTEND
  0
POINT
  5
161ED
330
14D50
100
AcDbEntity
  8
DEFPOINTS
 62
     0
 48
50.0
100
AcDbPoint
 10
7412.488900113124
 20
9271.919259792104
 30
0.0
  0
POINT
  5
161EE
330
14D50
100
AcDbEntity
  8
DEFPOINTS
 62
     0
 48
50.0
100
AcDbPoint
 10
7412.488900113124
 20
9216.919259792108
 30
0.0
  0
POINT
  5
161EF
330
14D50
100
AcDbEntity
  8
DEFPOINTS
 62
     0
 48
50.0
100
AcDbPoint
 10
8059.915245847534
 20
9216.919259792108
 30
0.0
  0
ENDBLK
  5
14E47
330
14D50
100
AcDbEntity
  8
0
 48
50.0
100
AcDbBlockEnd
  0
BLOCK
  5
14E48
330
14D5E
100
AcDbEntity
  8
0
 48
50.0
100
AcDbBlockBegin
  2
*D13
 70
     1
 10
0.0
 20
0.0
 30
0.0
  3
*D13
  1

  0
LINE
  5
161DA
330
14D5E
100
AcDbEntity
  8
寸法
 62
     0
 48
50.0
370
    -2
100
AcDbLine
 10
7432.488900113098
 20
8376.91925979209
 30
0.0
 11
8119.915245847508
 21
8376.91925979209
 31
0.0
  0
LINE
  5
161DB
330
14D5E
100
AcDbEntity
  8
寸法
 62
     0
 48
50.0
370
    -2
100
AcDbLine
 10
7432.488900113098
 20
8321.919259792094
 30
0.0
 11
8119.915245847508
 21
8321.919259792094
 31
0.0
  0
LINE
  5
161DC
330
14D5E
100
AcDbEntity
  8
寸法
 62
     0
 48
50.0
370
    -2
100
AcDbLine
 10
8059.915245847509
 20
8376.91925979209
 30
0.0
 11
8059.915245847509
 21
8476.91925979209
 31
0.0
  0
LINE
  5
161DD
330
14D5E
100
AcDbEntity
  8
寸法
 62
     0
 48
50.0
370
    -2
100
AcDbLine
 10
8059.915245847509
 20
8321.919259792094
 30
0.0
 11
8059.915245847509
 21
7835.572511512994
 31
0.0
  0
LINE
  5
161DE
330
14D5E
100
AcDbEntity
  8
寸法
 62
     0
 48
50.0
370
    -2
100
AcDbLine
 10
8059.915245847509
 20
8376.91925979209
 30
0.0
 11
8059.915245847509
 21
8321.919259792094
 31
0.0
  0
INSERT
  5
161DF
330
14D5E
100
AcDbEntity
  8
寸法
 62
     0
 48
50.0
370
    -2
100
AcDbBlockReference
  2
_DOTSMALL
 10
8059.915245847509
 20
8376.91925979209
 30
0.0
 41
100.0
 42
100.0
 43
100.0
 50
270.0
  0
INSERT
  5
161E0
330
14D5E
100
AcDbEntity
  8
寸法
 62
     0
 48
50.0
370
    -2
100
AcDbBlockReference
  2
_DOTSMALL
 10
8059.915245847509
 20
8321.919259792094
 30
0.0
 41
100.0
 42
100.0
 43
100.0
 50
90.0
  0
MTEXT
  5
161E1
330
14D5E
100
AcDbEntity
  8
寸法
 62
     7
 48
50.0
100
AcDbMText
 10
7959.915245847508
 20
7944.057792887234
 30
0.0
 40
120.0
 41
0.0
 71
     5
 72
     1
  1
\A1;55
  7
STYLE1
 11
0.0000000000000001
 21
1.0
 31
0.0
 73
     1
 44
1.0
1001
ACAD
1000
MTEXTBEGIN
1070
    73
1070
     1
1070
    44
1040
1.0
1070
    74
1070
     0
1000
MTEXTEND
  0
POINT
  5
161E2
330
14D5E
100
AcDbEntity
  8
DEFPOINTS
 62
     0
 48
50.0
100
AcDbPoint
 10
7412.488900113098
 20
8376.91925979209
 30
0.0
  0
POINT
  5
161E3
330
14D5E
100
AcDbEntity
  8
DEFPOINTS
 62
     0
 48
50.0
100
AcDbPoint
 10
7412.488900113098
 20
8321.919259792094
 30
0.0
  0
POINT
  5
161E4
330
14D5E
100
AcDbEntity
  8
DEFPOINTS
 62
     0
 48
50.0
100
AcDbPoint
 10
8059.915245847509
 20
8321.919259792094
 30
0.0
  0
ENDBLK
  5
14E54
330
14D5E
100
AcDbEntity
  8
0
 48
50.0
100
AcDbBlockEnd
  0
BLOCK
  5
14E55
330
14D6C
100
AcDbEntity
  8
0
 48
50.0
100
AcDbBlockBegin
  2
*D14
 70
     1
 10
0.0
 20
0.0
 30
0.0
  3
*D14
  1

  0
LINE
  5
161CF
330
14D6C
100
AcDbEntity
  8
寸法
 62
     0
 48
50.0
370
    -2
100
AcDbLine
 10
7357.488900113124
 20
9291.919259792106
 30
0.0
 11
7357.488900113124
 21
9547.727479417087
 31
0.0
  0
LINE
  5
161D0
330
14D6C
100
AcDbEntity
  8
寸法
 62
     0
 48
50.0
370
    -2
100
AcDbLine
 10
7412.488900113124
 20
9291.919259792106
 30
0.0
 11
7412.488900113124
 21
9547.727479417087
 31
0.0
  0
LINE
  5
161D1
330
14D6C
100
AcDbEntity
  8
寸法
 62
     0
 48
50.0
370
    -2
100
AcDbLine
 10
7357.488900113124
 20
9487.727479417086
 30
0.0
 11
7257.488900113123
 21
9487.727479417086
 31
0.0
  0
LINE
  5
161D2
330
14D6C
100
AcDbEntity
  8
寸法
 62
     0
 48
50.0
370
    -2
100
AcDbLine
 10
7412.488900113124
 20
9487.727479417086
 30
0.0
 11
7829.459462861601
 21
9487.727479417086
 31
0.0
  0
LINE
  5
161D3
330
14D6C
100
AcDbEntity
  8
寸法
 62
     0
 48
50.0
370
    -2
100
AcDbLine
 10
7357.488900113124
 20
9487.727479417086
 30
0.0
 11
7412.488900113124
 21
9487.727479417086
 31
0.0
  0
INSERT
  5
161D4
330
14D6C
100
AcDbEntity
  8
寸法
 62
     0
 48
50.0
370
    -2
100
AcDbBlockReference
  2
_DOTSMALL
 10
7357.488900113124
 20
9487.727479417086
 30
0.0
 41
100.0
 42
100.0
 43
100.0
  0
INSERT
  5
161D5
330
14D6C
100
AcDbEntity
  8
寸法
 62
     0
 48
50.0
370
    -2
100
AcDbBlockReference
  2
_DOTSMALL
 10
7412.488900113124
 20
9487.727479417086
 30
0.0
 41
100.0
 42
100.0
 43
100.0
 50
180.0
  0
MTEXT
  5
161D6
330
14D6C
100
AcDbEntity
  8
寸法
 62
     7
 48
50.0
100
AcDbMText
 10
7720.974181487362
 20
9587.727479417086
 30
0.0
 40
120.0
 41
0.0
 71
     5
 72
     1
  1
\A1;55
  7
STYLE1
 73
     1
 44
1.0
1001
ACAD
1000
MTEXTBEGIN
1070
    73
1070
     1
1070
    44
1040
1.0
1070
    74
1070
     0
1000
MTEXTEND
  0
POINT
  5
161D7
330
14D6C
100
AcDbEntity
  8
DEFPOINTS
 62
     0
 48
50.0
100
AcDbPoint
 10
7357.488900113124
 20
9271.919259792104
 30
0.0
  0
POINT
  5
161D8
330
14D6C
100
AcDbEntity
  8
DEFPOINTS
 62
     0
 48
50.0
100
AcDbPoint
 10
7412.488900113124
 20
9271.919259792104
 30
0.0
  0
POINT
  5
161D9
330
14D6C
100
AcDbEntity
  8
DEFPOINTS
 62
     0
 48
50.0
100
AcDbPoint
 10
7412.488900113124
 20
9487.727479417086
 30
0.0
  0
ENDBLK
  5
14E61
330
14D6C
100
AcDbEntity
  8
0
 48
50.0
100
AcDbBlockEnd
  0
BLOCK
  5
14F50
330
14F44
100
AcDbEntity
  8
0
 48
50.0
100
AcDbBlockBegin
  2
*D15
 70
     1
 10
0.0
 20
0.0
 30
0.0
  3
*D15
  1

  0
LINE
  5
161C6
330
14F44
100
AcDbEntity
  8
寸法
 62
     0
 48
50.0
370
    -2
100
AcDbLine
 10
5567.48890011312
 20
8301.919259792002
 30
0.0
 11
5567.48890011312
 21
7822.095591996926
 31
0.0
  0
LINE
  5
161C7
330
14F44
100
AcDbEntity
  8
寸法
 62
     0
 48
50.0
370
    -2
100
AcDbLine
 10
6252.488900113115
 20
8301.919259791967
 30
0.0
 11
6252.488900113115
 21
7822.095591996926
 31
0.0
  0
LINE
  5
161C8
330
14F44
100
AcDbEntity
  8
寸法
 62
     0
 48
50.0
370
    -2
100
AcDbLine
 10
5567.48890011312
 20
7882.095591996925
 30
0.0
 11
6252.488900113115
 21
7882.095591996925
 31
0.0
  0
INSERT
  5
161C9
330
14F44
100
AcDbEntity
  8
寸法
 62
     0
 48
50.0
370
    -2
100
AcDbBlockReference
  2
_DOTSMALL
 10
5567.48890011312
 20
7882.095591996925
 30
0.0
 41
100.0
 42
100.0
 43
100.0
 50
180.0
  0
INSERT
  5
161CA
330
14F44
100
AcDbEntity
  8
寸法
 62
     0
 48
50.0
370
    -2
100
AcDbBlockReference
  2
_DOTSMALL
 10
6252.488900113115
 20
7882.095591996925
 30
0.0
 41
100.0
 42
100.0
 43
100.0
  0
MTEXT
  5
161CB
330
14F44
100
AcDbEntity
  8
寸法
 62
     7
 48
50.0
100
AcDbMText
 10
5909.988900113118
 20
7982.095591996925
 30
0.0
 40
120.0
 41
0.0
 71
     5
 72
     1
  1
\A1;685
  7
STYLE1
 73
     1
 44
1.0
1001
ACAD
1000
MTEXTBEGIN
1070
    73
1070
     1
1070
    44
1040
1.0
1070
    74
1070
     0
1000
MTEXTEND
  0
POINT
  5
161CC
330
14F44
100
AcDbEntity
  8
DEFPOINTS
 62
     0
 48
50.0
100
AcDbPoint
 10
5567.48890011312
 20
8321.919259792002
 30
0.0
  0
POINT
  5
161CD
330
14F44
100
AcDbEntity
  8
DEFPOINTS
 62
     0
 48
50.0
100
AcDbPoint
 10
6252.488900113115
 20
8321.919259791966
 30
0.0
  0
POINT
  5
161CE
330
14F44
100
AcDbEntity
  8
DEFPOINTS
 62
     0
 48
50.0
100
AcDbPoint
 10
6252.488900113115
 20
7882.095591996925
 30
0.0
  0
ENDBLK
  5
14F5A
330
14F44
100
AcDbEntity
  8
0
 48
50.0
100
AcDbBlockEnd
  0
BLOCK
  5
14F95
330
14F94
100
AcDbEntity
  8
0
 48
50.0
100
AcDbBlockBegin
  2
*D16
 70
     1
 10
0.0
 20
0.0
 30
0.0
  3
*D16
  1

  0
LINE
  5
161BD
330
14F94
100
AcDbEntity
  8
寸法
 62
     0
 48
50.0
370
    -2
100
AcDbLine
 10
5536.129922942098
 20
8772.419259791981
 30
0.0
 11
5466.718458950873
 21
8513.372149548997
 31
0.0
  0
LINE
  5
161BE
330
14F94
100
AcDbEntity
  8
寸法
 62
     0
 48
50.0
370
    -2
100
AcDbLine
 10
6428.129922942109
 20
8772.419259791979
 30
0.0
 11
6358.718458950886
 21
8513.372149548997
 31
0.0
  0
LINE
  5
161BF
330
14F94
100
AcDbEntity
  8
寸法
 62
     0
 48
50.0
370
    -2
100
AcDbLine
 10
5482.795410496741
 20
8573.372149548998
 30
0.0
 11
6374.795410496754
 21
8573.372149548998
 31
0.0
  0
MTEXT
  5
161C0
330
14F94
100
AcDbEntity
  8
寸法
 62
     7
 48
50.0
100
AcDbMText
 10
6032.614721566642
 20
8676.656264941994
 30
0.0
 40
120.0
 41
0.0
 71
     5
 72
     1
  1
\A1;892
  7
STYLE1
 73
     1
 44
1.0
1001
ACAD
1000
MTEXTBEGIN
1070
    73
1070
     1
1070
    44
1040
1.0
1070
    74
1070
     0
1000
MTEXTEND
  0
INSERT
  5
161C1
330
14F94
100
AcDbEntity
  8
寸法
 62
     0
 48
50.0
370
    -2
100
AcDbBlockReference
  2
_DOTSMALL
 10
5482.795410496741
 20
8573.372149548998
 30
0.0
 41
100.0
 42
100.0
 43
100.0
 50
180.0
  0
INSERT
  5
161C2
330
14F94
100
AcDbEntity
  8
寸法
 62
     0
 48
50.0
370
    -2
100
AcDbBlockReference
  2
_DOTSMALL
 10
6374.795410496754
 20
8573.372149548998
 30
0.0
 41
100.0
 42
100.0
 43
100.0
  0
POINT
  5
161C3
330
14F94
100
AcDbEntity
  8
DEFPOINTS
 62
     0
 48
50.0
100
AcDbPoint
 10
5541.48890679072
 20
8792.419259791982
 30
0.0
  0
POINT
  5
161C4
330
14F94
100
AcDbEntity
  8
DEFPOINTS
 62
     0
 48
50.0
100
AcDbPoint
 10
6433.488906790731
 20
8792.419259791977
 30
0.0
  0
POINT
  5
161C5
330
14F94
100
AcDbEntity
  8
DEFPOINTS
 62
     0
 48
50.0
100
AcDbPoint
 10
6374.795410496754
 20
8573.372149548998
 30
0.0
  0
ENDBLK
  5
14F9F
330
14F94
100
AcDbEntity
  8
0
 48
50.0
100
AcDbBlockEnd
  0
BLOCK
  5
15B3B
330
15B30
100
AcDbEntity
  8
0
 48
50.0
100
AcDbBlockBegin
  2
*D17
 70
     1
 10
0.0
 20
0.0
 30
0.0
  3
*D17
  1

  0
LINE
  5
161B2
330
15B30
100
AcDbEntity
  8
寸法
 62
     0
 48
50.0
370
    -2
100
AcDbLine
 10
10298.28628192059
 20
5445.021742380184
 30
0.0
 11
10298.28628192059
 21
5936.868516347835
 31
0.0
  0
LINE
  5
161B3
330
15B30
100
AcDbEntity
  8
寸法
 62
     0
 48
50.0
370
    -2
100
AcDbLine
 10
10378.28628192059
 20
5443.211062768533
 30
0.0
 11
10378.28628192059
 21
5936.868516347835
 31
0.0
  0
LINE
  5
161B4
330
15B30
100
AcDbEntity
  8
寸法
 62
     0
 48
50.0
370
    -2
100
AcDbLine
 10
10298.28628192059
 20
5876.868516347835
 30
0.0
 11
10378.28628192059
 21
5876.868516347835
 31
0.0
  0
LINE
  5
161B5
330
15B30
100
AcDbEntity
  8
寸法
 62
     0
 48
50.0
370
    -2
100
AcDbLine
 10
10378.28628192059
 20
5876.868516347835
 30
0.0
 11
10690.38077010957
 21
5876.868516347835
 31
0.0
  0
INSERT
  5
161B6
330
15B30
100
AcDbEntity
  8
寸法
 62
     0
 48
50.0
370
    -2
100
AcDbBlockReference
  2
_DOTSMALL
 10
10298.28628192059
 20
5876.868516347835
 30
0.0
 41
100.0
 42
100.0
 43
100.0
 50
180.0
  0
INSERT
  5
161B7
330
15B30
100
AcDbEntity
  8
寸法
 62
     0
 48
50.0
370
    -2
100
AcDbBlockReference
  2
_DOTSMALL
 10
10378.28628192059
 20
5876.868516347835
 30
0.0
 41
100.0
 42
100.0
 43
100.0
  0
MTEXT
  5
161B8
330
15B30
100
AcDbEntity
  8
寸法
 62
     7
 48
50.0
100
AcDbMText
 10
10584.33352601508
 20
5976.868516347835
 30
0.0
 40
120.0
 41
0.0
 71
     5
 72
     1
  1
\A1;80
  7
STYLE1
 73
     1
 44
1.0
1001
ACAD
1000
MTEXTBEGIN
1070
    73
1070
     1
1070
    44
1040
1.0
1070
    74
1070
     0
1000
MTEXTEND
  0
POINT
  5
161B9
330
15B30
100
AcDbEntity
  8
DEFPOINTS
 62
     0
 48
50.0
100
AcDbPoint
 10
10298.28628192059
 20
5425.021742380184
 30
0.0
  0
POINT
  5
161BA
330
15B30
100
AcDbEntity
  8
DEFPOINTS
 62
     0
 48
50.0
100
AcDbPoint
 10
10378.28628192059
 20
5423.211062768532
 30
0.0
  0
POINT
  5
161BB
330
15B30
100
AcDbEntity
  8
DEFPOINTS
 62
     0
 48
50.0
100
AcDbPoint
 10
10378.28628192059
 20
5876.868516347835
 30
0.0
  0
ENDBLK
  5
15B3C
330
15B30
100
AcDbEntity
  8
0
 48
50.0
100
AcDbBlockEnd
  0
BLOCK
  5
15B93
330
15B89
100
AcDbEntity
  8
0
 48
50.0
100
AcDbBlockBegin
  2
*D18
 70
     1
 10
0.0
 20
0.0
 30
0.0
  3
*D18
  1

  0
LINE
  5
161A9
330
15B89
100
AcDbEntity
  8
寸法
 62
     0
 48
50.0
370
    -2
100
AcDbLine
 10
10378.28628192059
 20
5443.211062768533
 30
0.0
 11
10378.28628192059
 21
6146.462390769286
 31
0.0
  0
LINE
  5
161AA
330
15B89
100
AcDbEntity
  8
寸法
 62
     0
 48
50.0
370
    -2
100
AcDbLine
 10
9288.286281920601
 20
5498.211062768536
 30
0.0
 11
9288.286281920601
 21
6146.462390769286
 31
0.0
  0
LINE
  5
161AB
330
15B89
100
AcDbEntity
  8
寸法
 62
     0
 48
50.0
370
    -2
100
AcDbLine
 10
10378.28628192059
 20
6086.462390769286
 30
0.0
 11
9288.286281920601
 21
6086.462390769286
 31
0.0
  0
INSERT
  5
161AC
330
15B89
100
AcDbEntity
  8
寸法
 62
     0
 48
50.0
370
    -2
100
AcDbBlockReference
  2
_DOTSMALL
 10
10378.28628192059
 20
6086.462390769286
 30
0.0
 41
100.0
 42
100.0
 43
100.0
  0
INSERT
  5
161AD
330
15B89
100
AcDbEntity
  8
寸法
 62
     0
 48
50.0
370
    -2
100
AcDbBlockReference
  2
_DOTSMALL
 10
9288.286281920601
 20
6086.462390769286
 30
0.0
 41
100.0
 42
100.0
 43
100.0
 50
180.0
  0
MTEXT
  5
161AE
330
15B89
100
AcDbEntity
  8
寸法
 62
     7
 48
50.0
100
AcDbMText
 10
9811.404996601021
 20
6186.462390769285
 30
0.0
 40
120.0
 41
0.0
 71
     5
 72
     1
  1
\A1;1090
  7
STYLE1
 73
     1
 44
1.0
1001
ACAD
1000
MTEXTBEGIN
1070
    73
1070
     1
1070
    44
1040
1.0
1070
    74
1070
     0
1000
MTEXTEND
  0
POINT
  5
161AF
330
15B89
100
AcDbEntity
  8
DEFPOINTS
 62
     0
 48
50.0
100
AcDbPoint
 10
10378.28628192059
 20
5423.211062768532
 30
0.0
  0
POINT
  5
161B0
330
15B89
100
AcDbEntity
  8
DEFPOINTS
 62
     0
 48
50.0
100
AcDbPoint
 10
9288.286281920601
 20
5478.211062768536
 30
0.0
  0
POINT
  5
161B1
330
15B89
100
AcDbEntity
  8
DEFPOINTS
 62
     0
 48
50.0
100
AcDbPoint
 10
9288.286281920601
 20
6086.462390769286
 30
0.0
  0
ENDBLK
  5
15B94
330
15B89
100
AcDbEntity
  8
0
 48
50.0
100
AcDbBlockEnd
  0
BLOCK
  5
15BA1
330
15B95
100
AcDbEntity
  8
0
 48
50.0
100
AcDbBlockBegin
  2
*D19
 70
     1
 10
0.0
 20
0.0
 30
0.0
  3
*D19
  1

  0
LINE
  5
1619E
330
15B95
100
AcDbEntity
  8
寸法
 62
     0
 48
50.0
370
    -2
100
AcDbLine
 10
9348.2862819206
 20
5494.212680891507
 30
0.0
 11
9348.2862819206
 21
5936.868516347835
 31
0.0
  0
LINE
  5
1619F
330
15B95
100
AcDbEntity
  8
寸法
 62
     0
 48
50.0
370
    -2
100
AcDbLine
 10
9288.286281920601
 20
5498.211062768536
 30
0.0
 11
9288.286281920601
 21
5936.868516347835
 31
0.0
  0
LINE
  5
161A0
330
15B95
100
AcDbEntity
  8
寸法
 62
     0
 48
50.0
370
    -2
100
AcDbLine
 10
9348.2862819206
 20
5876.868516347835
 30
0.0
 11
9448.2862819206
 21
5876.868516347835
 31
0.0
  0
LINE
  5
161A1
330
15B95
100
AcDbEntity
  8
寸法
 62
     0
 48
50.0
370
    -2
100
AcDbLine
 10
9288.286281920601
 20
5876.868516347835
 30
0.0
 11
8869.010691369419
 21
5876.868516347835
 31
0.0
  0
LINE
  5
161A2
330
15B95
100
AcDbEntity
  8
寸法
 62
     0
 48
50.0
370
    -2
100
AcDbLine
 10
9348.2862819206
 20
5876.868516347835
 30
0.0
 11
9288.286281920601
 21
5876.868516347835
 31
0.0
  0
INSERT
  5
161A3
330
15B95
100
AcDbEntity
  8
寸法
 62
     0
 48
50.0
370
    -2
100
AcDbBlockReference
  2
_DOTSMALL
 10
9348.2862819206
 20
5876.868516347835
 30
0.0
 41
100.0
 42
100.0
 43
100.0
 50
180.0
  0
INSERT
  5
161A4
330
15B95
100
AcDbEntity
  8
寸法
 62
     0
 48
50.0
370
    -2
100
AcDbBlockReference
  2
_DOTSMALL
 10
9288.286281920601
 20
5876.868516347835
 30
0.0
 41
100.0
 42
100.0
 43
100.0
  0
MTEXT
  5
161A5
330
15B95
100
AcDbEntity
  8
寸法
 62
     7
 48
50.0
100
AcDbMText
 10
8978.64848664501
 20
5976.868516347835
 30
0.0
 40
120.0
 41
0.0
 71
     5
 72
     1
  1
\A1;60
  7
STYLE1
 73
     1
 44
1.0
1001
ACAD
1000
MTEXTBEGIN
1070
    73
1070
     1
1070
    44
1040
1.0
1070
    74
1070
     0
1000
MTEXTEND
  0
POINT
  5
161A6
330
15B95
100
AcDbEntity
  8
DEFPOINTS
 62
     0
 48
50.0
100
AcDbPoint
 10
9348.2862819206
 20
5474.212680891508
 30
0.0
  0
POINT
  5
161A7
330
15B95
100
AcDbEntity
  8
DEFPOINTS
 62
     0
 48
50.0
100
AcDbPoint
 10
9288.286281920601
 20
5478.211062768536
 30
0.0
  0
POINT
  5
161A8
330
15B95
100
AcDbEntity
  8
DEFPOINTS
 62
     0
 48
50.0
100
AcDbPoint
 10
9288.286281920601
 20
5876.868516347835
 30
0.0
  0
ENDBLK
  5
15BA2
330
15B95
100
AcDbEntity
  8
0
 48
50.0
100
AcDbBlockEnd
  0
BLOCK
  5
15BAD
330
15BA3
100
AcDbEntity
  8
0
 48
50.0
100
AcDbBlockBegin
  2
*D20
 70
     1
 10
0.0
 20
0.0
 30
0.0
  3
*D20
  1

  0
LINE
  5
16195
330
15BA3
100
AcDbEntity
  8
寸法
 62
     0
 48
50.0
370
    -2
100
AcDbLine
 10
10298.28628192059
 20
5445.021742380184
 30
0.0
 11
10298.28628192059
 21
5936.868516347835
 31
0.0
  0
LINE
  5
16196
330
15BA3
100
AcDbEntity
  8
寸法
 62
     0
 48
50.0
370
    -2
100
AcDbLine
 10
9348.2862819206
 20
5494.212680891507
 30
0.0
 11
9348.2862819206
 21
5936.868516347835
 31
0.0
  0
LINE
  5
16197
330
15BA3
100
AcDbEntity
  8
寸法
 62
     0
 48
50.0
370
    -2
100
AcDbLine
 10
10298.28628192059
 20
5876.868516347835
 30
0.0
 11
9348.2862819206
 21
5876.868516347835
 31
0.0
  0
INSERT
  5
16198
330
15BA3
100
AcDbEntity
  8
寸法
 62
     0
 48
50.0
370
    -2
100
AcDbBlockReference
  2
_DOTSMALL
 10
10298.28628192059
 20
5876.868516347835
 30
0.0
 41
100.0
 42
100.0
 43
100.0
  0
INSERT
  5
16199
330
15BA3
100
AcDbEntity
  8
寸法
 62
     0
 48
50.0
370
    -2
100
AcDbBlockReference
  2
_DOTSMALL
 10
9348.2862819206
 20
5876.868516347835
 30
0.0
 41
100.0
 42
100.0
 43
100.0
 50
180.0
  0
MTEXT
  5
1619A
330
15BA3
100
AcDbEntity
  8
寸法
 62
     7
 48
50.0
100
AcDbMText
 10
9823.2862819206
 20
5976.868516347835
 30
0.0
 40
120.0
 41
0.0
 71
     5
 72
     1
  1
\A1;柱外寸法950
  7
STYLE1
 73
     1
 44
1.0
1001
ACAD
1000
MTEXTBEGIN
1070
    73
1070
     1
1070
    44
1040
1.0
1070
    74
1070
     0
1000
MTEXTEND
  0
POINT
  5
1619B
330
15BA3
100
AcDbEntity
  8
DEFPOINTS
 62
     0
 48
50.0
100
AcDbPoint
 10
10298.28628192059
 20
5425.021742380184
 30
0.0
  0
POINT
  5
1619C
330
15BA3
100
AcDbEntity
  8
DEFPOINTS
 62
     0
 48
50.0
100
AcDbPoint
 10
9348.2862819206
 20
5474.212680891508
 30
0.0
  0
POINT
  5
1619D
330
15BA3
100
AcDbEntity
  8
DEFPOINTS
 62
     0
 48
50.0
100
AcDbPoint
 10
9348.2862819206
 20
5876.868516347835
 30
0.0
  0
ENDBLK
  5
15BAE
330
15BA3
100
AcDbEntity
  8
0
 48
50.0
100
AcDbBlockEnd
  0
BLOCK
  5
15BB9
330
15BAF
100
AcDbEntity
  8
0
 48
50.0
100
AcDbBlockBegin
  2
*D21
 70
     1
 10
0.0
 20
0.0
 30
0.0
  3
*D21
  1

  0
LINE
  5
1618C
330
15BAF
100
AcDbEntity
  8
寸法
 62
     0
 48
50.0
370
    -2
100
AcDbLine
 10
10318.2862819206
 20
3403.211062768531
 30
0.0
 11
11063.21343989272
 21
3403.211062768531
 31
0.0
  0
LINE
  5
1618D
330
15BAF
100
AcDbEntity
  8
寸法
 62
     0
 48
50.0
370
    -2
100
AcDbLine
 10
10398.28628192059
 20
5423.211062768532
 30
0.0
 11
11063.21343989272
 21
5423.211062768532
 31
0.0
  0
LINE
  5
1618E
330
15BAF
100
AcDbEntity
  8
寸法
 62
     0
 48
50.0
370
    -2
100
AcDbLine
 10
11003.21343989272
 20
3403.211062768531
 30
0.0
 11
11003.21343989272
 21
5423.211062768532
 31
0.0
  0
INSERT
  5
1618F
330
15BAF
100
AcDbEntity
  8
寸法
 62
     0
 48
50.0
370
    -2
100
AcDbBlockReference
  2
_DOTSMALL
 10
11003.21343989272
 20
3403.211062768531
 30
0.0
 41
100.0
 42
100.0
 43
100.0
 50
270.0
  0
INSERT
  5
16190
330
15BAF
100
AcDbEntity
  8
寸法
 62
     0
 48
50.0
370
    -2
100
AcDbBlockReference
  2
_DOTSMALL
 10
11003.21343989272
 20
5423.211062768532
 30
0.0
 41
100.0
 42
100.0
 43
100.0
 50
90.0
  0
MTEXT
  5
16191
330
15BAF
100
AcDbEntity
  8
寸法
 62
     7
 48
50.0
100
AcDbMText
 10
10903.2016288691
 20
4413.211062768533
 30
0.0
 40
120.0
 41
0.0
 71
     5
 72
     1
  1
\A1;2020
  7
STYLE1
 11
0.0000000000000001
 21
1.0
 31
0.0
 73
     1
 44
1.0
1001
ACAD
1000
MTEXTBEGIN
1070
    73
1070
     1
1070
    44
1040
1.0
1070
    74
1070
     0
1000
MTEXTEND
  0
POINT
  5
16192
330
15BAF
100
AcDbEntity
  8
DEFPOINTS
 62
     0
 48
50.0
100
AcDbPoint
 10
10298.2862819206
 20
3403.211062768531
 30
0.0
  0
POINT
  5
16193
330
15BAF
100
AcDbEntity
  8
DEFPOINTS
 62
     0
 48
50.0
100
AcDbPoint
 10
10378.28628192059
 20
5423.211062768532
 30
0.0
  0
POINT
  5
16194
330
15BAF
100
AcDbEntity
  8
DEFPOINTS
 62
     0
 48
50.0
100
AcDbPoint
 10
11003.21343989272
 20
5423.211062768532
 30
0.0
  0
ENDBLK
  5
15BBA
330
15BAF
100
AcDbEntity
  8
0
 48
50.0
100
AcDbBlockEnd
  0
BLOCK
  5
15D8F
330
15D85
100
AcDbEntity
  8
0
 48
50.0
100
AcDbBlockBegin
  2
*D22
 70
     1
 10
0.0
 20
0.0
 30
0.0
  3
*D22
  1

  0
LINE
  5
1617A
330
15D85
100
AcDbEntity
  8
寸法
 62
     0
 48
50.0
370
    -2
100
AcDbLine
 10
9328.286281920599
 20
3403.211062768531
 30
0.0
 11
8384.014470280119
 21
3403.211062768531
 31
0.0
  0
LINE
  5
1617B
330
15D85
100
AcDbEntity
  8
寸法
 62
     0
 48
50.0
370
    -2
100
AcDbLine
 10
9268.2862819206
 20
5478.211062768534
 30
0.0
 11
8384.014470280121
 21
5478.211062768534
 31
0.0
  0
LINE
  5
1617C
330
15D85
100
AcDbEntity
  8
寸法
 62
     0
 48
50.0
370
    -2
100
AcDbLine
 10
8444.014470280119
 20
3403.211062768531
 30
0.0
 11
8444.014470280121
 21
5478.211062768534
 31
0.0
  0
INSERT
  5
1617D
330
15D85
100
AcDbEntity
  8
寸法
 62
     0
 48
50.0
370
    -2
100
AcDbBlockReference
  2
_DOTSMALL
 10
8444.014470280119
 20
3403.211062768531
 30
0.0
 41
100.0
 42
100.0
 43
100.0
 50
270.0
  0
INSERT
  5
1617E
330
15D85
100
AcDbEntity
  8
寸法
 62
     0
 48
50.0
370
    -2
100
AcDbBlockReference
  2
_DOTSMALL
 10
8444.014470280121
 20
5478.211062768534
 30
0.0
 41
100.0
 42
100.0
 43
100.0
 50
90.0
  0
MTEXT
  5
1617F
330
15D85
100
AcDbEntity
  8
寸法
 62
     7
 48
50.0
100
AcDbMText
 10
8344.002659256497
 20
4378.418053188332
 30
0.0
 40
120.0
 41
0.0
 71
     5
 72
     1
  1
\A1;2075
  7
STYLE1
 11
0.0000000000000001
 21
1.0
 31
0.0
 73
     1
 44
1.0
1001
ACAD
1000
MTEXTBEGIN
1070
    73
1070
     1
1070
    44
1040
1.0
1070
    74
1070
     0
1000
MTEXTEND
  0
POINT
  5
16180
330
15D85
100
AcDbEntity
  8
DEFPOINTS
 62
     0
 48
50.0
100
AcDbPoint
 10
9348.286281920598
 20
3403.211062768531
 30
0.0
  0
POINT
  5
16181
330
15D85
100
AcDbEntity
  8
DEFPOINTS
 62
     0
 48
50.0
100
AcDbPoint
 10
9288.286281920601
 20
5478.211062768534
 30
0.0
  0
POINT
  5
16182
330
15D85
100
AcDbEntity
  8
DEFPOINTS
 62
     0
 48
50.0
100
AcDbPoint
 10
8444.014470280121
 20
5478.211062768534
 30
0.0
  0
ENDBLK
  5
15D90
330
15D85
100
AcDbEntity
  8
0
 48
50.0
100
AcDbBlockEnd
  0
BLOCK
  5
15D9D
330
15D91
100
AcDbEntity
  8
0
 48
50.0
100
AcDbBlockBegin
  2
*D23
 70
     1
 10
0.0
 20
0.0
 30
0.0
  3
*D23
  1

  0
LINE
  5
16165
330
15D91
100
AcDbEntity
  8
寸法
 62
     0
 48
50.0
370
    -2
100
AcDbLine
 10
9321.283911875822
 20
3453.211062768533
 30
0.0
 11
8686.323191228394
 21
3453.211062768533
 31
0.0
  0
LINE
  5
16166
330
15D91
100
AcDbEntity
  8
寸法
 62
     0
 48
50.0
370
    -2
100
AcDbLine
 10
9273.286281920599
 20
3403.211062768531
 30
0.0
 11
8686.323191228394
 21
3403.211062768531
 31
0.0
  0
LINE
  5
16167
330
15D91
100
AcDbEntity
  8
寸法
 62
     0
 48
50.0
370
    -2
100
AcDbLine
 10
8746.323191228396
 20
3453.211062768533
 30
0.0
 11
8746.323191228396
 21
3553.211062768534
 31
0.0
  0
LINE
  5
16168
330
15D91
100
AcDbEntity
  8
寸法
 62
     0
 48
50.0
370
    -2
100
AcDbLine
 10
8746.323191228396
 20
3403.211062768531
 30
0.0
 11
8746.323191228396
 21
2991.116574579552
 31
0.0
  0
LINE
  5
16169
330
15D91
100
AcDbEntity
  8
寸法
 62
     0
 48
50.0
370
    -2
100
AcDbLine
 10
8746.323191228396
 20
3453.211062768533
 30
0.0
 11
8746.323191228396
 21
3403.211062768531
 31
0.0
  0
INSERT
  5
1616A
330
15D91
100
AcDbEntity
  8
寸法
 62
     0
 48
50.0
370
    -2
100
AcDbBlockReference
  2
_DOTSMALL
 10
8746.323191228396
 20
3453.211062768533
 30
0.0
 41
100.0
 42
100.0
 43
100.0
 50
270.0
  0
INSERT
  5
1616B
330
15D91
100
AcDbEntity
  8
寸法
 62
     0
 48
50.0
370
    -2
100
AcDbBlockReference
  2
_DOTSMALL
 10
8746.323191228396
 20
3403.211062768531
 30
0.0
 41
100.0
 42
100.0
 43
100.0
 50
90.0
  0
MTEXT
  5
1616C
330
15D91
100
AcDbEntity
  8
寸法
 62
     7
 48
50.0
100
AcDbMText
 10
8646.323191228395
 20
3097.163818674041
 30
0.0
 40
120.0
 41
0.0
 71
     5
 72
     1
  1
\A1;50
  7
STYLE1
 11
0.0000000000000001
 21
1.0
 31
0.0
 73
     1
 44
1.0
1001
ACAD
1000
MTEXTBEGIN
1070
    73
1070
     1
1070
    44
1040
1.0
1070
    74
1070
     0
1000
MTEXTEND
  0
POINT
  5
1616D
330
15D91
100
AcDbEntity
  8
DEFPOINTS
 62
     0
 48
50.0
100
AcDbPoint
 10
9341.283911875823
 20
3453.211062768533
 30
0.0
  0
POINT
  5
1616E
330
15D91
100
AcDbEntity
  8
DEFPOINTS
 62
     0
 48
50.0
100
AcDbPoint
 10
9293.286281920599
 20
3403.211062768531
 30
0.0
  0
POINT
  5
1616F
330
15D91
100
AcDbEntity
  8
DEFPOINTS
 62
     0
 48
50.0
100
AcDbPoint
 10
8746.323191228396
 20
3403.211062768531
 30
0.0
  0
ENDBLK
  5
15D9E
330
15D91
100
AcDbEntity
  8
0
 48
50.0
100
AcDbBlockEnd
  0
BLOCK
  5
15DAA
330
15D9F
100
AcDbEntity
  8
0
 48
50.0
100
AcDbBlockBegin
  2
*D24
 70
     1
 10
0.0
 20
0.0
 30
0.0
  3
*D24
  1

  0
LINE
  5
16170
330
15D9F
100
AcDbEntity
  8
寸法
 62
     0
 48
50.0
370
    -2
100
AcDbLine
 10
9283.643086608101
 20
5336.746674242005
 30
0.0
 11
8630.742916314074
 21
5361.397705481984
 31
0.0
  0
LINE
  5
16171
330
15D9F
100
AcDbEntity
  8
寸法
 62
     0
 48
50.0
370
    -2
100
AcDbLine
 10
9288.962920760056
 20
5477.646281638889
 30
0.0
 11
8636.062750465866
 21
5502.297312878873
 31
0.0
  0
LINE
  5
16172
330
15D9F
100
AcDbEntity
  8
寸法
 62
     0
 48
50.0
370
    -2
100
AcDbLine
 10
8690.700196057431
 20
5359.133946268456
 30
0.0
 11
8696.020030209224
 21
5500.033553665343
 31
0.0
  0
LINE
  5
16173
330
15D9F
100
AcDbEntity
  8
寸法
 62
     0
 48
50.0
370
    -2
100
AcDbLine
 10
8696.020030209224
 20
5500.033553665343
 30
0.0
 11
8709.602585490422
 21
5859.777232126177
 31
0.0
  0
INSERT
  5
16174
330
15D9F
100
AcDbEntity
  8
寸法
 62
     0
 48
50.0
370
    -2
100
AcDbBlockReference
  2
_DOTSMALL
 10
8690.700196057431
 20
5359.133946268456
 30
0.0
 41
100.0
 42
100.0
 43
100.0
 50
267.8377559871574
  0
INSERT
  5
16175
330
15D9F
100
AcDbEntity
  8
寸法
 62
     0
 48
50.0
370
    -2
100
AcDbBlockReference
  2
_DOTSMALL
 10
8696.020030209224
 20
5500.033553665343
 30
0.0
 41
100.0
 42
100.0
 43
100.0
 50
87.83775598715743
  0
MTEXT
  5
16176
330
15D9F
100
AcDbEntity
  8
寸法
 62
     7
 48
50.0
100
AcDbMText
 10
8604.76897428885
 20
5733.642724704782
 30
0.0
 40
120.0
 41
0.0
 71
     5
 72
     1
  1
\A1;141
  7
STYLE1
 11
0.03772932022548
 21
0.9992879957226159
 31
0.0
 73
     1
 44
1.0
1001
ACAD
1000
MTEXTBEGIN
1070
    73
1070
     1
1070
    44
1040
1.0
1070
    74
1070
     0
1000
MTEXTEND
  0
POINT
  5
16177
330
15D9F
100
AcDbEntity
  8
DEFPOINTS
 62
     0
 48
50.0
100
AcDbPoint
 10
9303.628846522554
 20
5335.992087837496
 30
0.0
  0
POINT
  5
16178
330
15D9F
100
AcDbEntity
  8
DEFPOINTS
 62
     0
 48
50.0
100
AcDbPoint
 10
9308.948680674509
 20
5476.891695234378
 30
0.0
  0
POINT
  5
16179
330
15D9F
100
AcDbEntity
  8
DEFPOINTS
 62
     0
 48
50.0
100
AcDbPoint
 10
8696.020030209224
 20
5500.033553665343
 30
0.0
  0
ENDBLK
  5
15DAB
330
15D9F
100
AcDbEntity
  8
0
 48
50.0
100
AcDbBlockEnd
  0
BLOCK
  5
15F39
330
15F2D
100
AcDbEntity
  8
0
 48
50.0
100
AcDbBlockBegin
  2
*D26
 70
     1
 10
0.0
 20
0.0
 30
0.0
  3
*D26
  1

  0
LINE
  5
1604F
330
15F2D
100
AcDbEntity
  8
寸法
 62
     0
 48
50.0
370
    -2
100
AcDbLine
 10
5512.488900113115
 20
5498.21106276854
 30
0.0
 11
5512.488900113115
 21
5750.752648026777
 31
0.0
  0
LINE
  5
16050
330
15F2D
100
AcDbEntity
  8
寸法
 62
     0
 48
50.0
370
    -2
100
AcDbLine
 10
5462.488900113116
 20
5498.211062768538
 30
0.0
 11
5462.488900113116
 21
5750.752648026777
 31
0.0
  0
LINE
  5
16051
330
15F2D
100
AcDbEntity
  8
寸法
 62
     0
 48
50.0
370
    -2
100
AcDbLine
 10
5512.488900113115
 20
5690.752648026776
 30
0.0
 11
5612.488900113116
 21
5690.752648026776
 31
0.0
  0
LINE
  5
16052
330
15F2D
100
AcDbEntity
  8
寸法
 62
     0
 48
50.0
370
    -2
100
AcDbLine
 10
5462.488900113116
 20
5690.752648026776
 30
0.0
 11
5042.956374644381
 21
5690.752648026776
 31
0.0
  0
LINE
  5
16053
330
15F2D
100
AcDbEntity
  8
寸法
 62
     0
 48
50.0
370
    -2
100
AcDbLine
 10
5512.488900113115
 20
5690.752648026776
 30
0.0
 11
5462.488900113116
 21
5690.752648026776
 31
0.0
  0
INSERT
  5
16054
330
15F2D
100
AcDbEntity
  8
寸法
 62
     0
 48
50.0
370
    -2
100
AcDbBlockReference
  2
_DOTSMALL
 10
5512.488900113115
 20
5690.752648026776
 30
0.0
 41
100.0
 42
100.0
 43
100.0
 50
180.0
  0
INSERT
  5
16055
330
15F2D
100
AcDbEntity
  8
寸法
 62
     0
 48
50.0
370
    -2
100
AcDbBlockReference
  2
_DOTSMALL
 10
5462.488900113116
 20
5690.752648026776
 30
0.0
 41
100.0
 42
100.0
 43
100.0
  0
MTEXT
  5
16056
330
15F2D
100
AcDbEntity
  8
寸法
 62
     7
 48
50.0
100
AcDbMText
 10
5149.003618738869
 20
5790.752648026777
 30
0.0
 40
120.0
 41
0.0
 71
     5
 72
     1
  1
\A1;50
  7
STYLE1
 73
     1
 44
1.0
1001
ACAD
1000
MTEXTBEGIN
1070
    73
1070
     1
1070
    44
1040
1.0
1070
    74
1070
     0
1000
MTEXTEND
  0
POINT
  5
16057
330
15F2D
100
AcDbEntity
  8
DEFPOINTS
 62
     0
 48
50.0
100
AcDbPoint
 10
5512.488900113115
 20
5478.21106276854
 30
0.0
  0
POINT
  5
16058
330
15F2D
100
AcDbEntity
  8
DEFPOINTS
 62
     0
 48
50.0
100
AcDbPoint
 10
5462.488900113116
 20
5478.211062768537
 30
0.0
  0
POINT
  5
16059
330
15F2D
100
AcDbEntity
  8
DEFPOINTS
 62
     0
 48
50.0
100
AcDbPoint
 10
5462.488900113116
 20
5690.752648026776
 30
0.0
  0
ENDBLK
  5
15F3A
330
15F2D
100
AcDbEntity
  8
0
 48
50.0
100
AcDbBlockEnd
  0
BLOCK
  5
15F45
330
15F3B
100
AcDbEntity
  8
0
 48
50.0
100
AcDbBlockBegin
  2
*D27
 70
     1
 10
0.0
 20
0.0
 30
0.0
  3
*D27
  1

  0
LINE
  5
1605A
330
15F3B
100
AcDbEntity
  8
寸法
 62
     0
 48
50.0
370
    -2
100
AcDbLine
 10
7412.488900113119
 20
5498.211062768534
 30
0.0
 11
7412.488900113119
 21
5750.752648026776
 31
0.0
  0
LINE
  5
1605B
330
15F3B
100
AcDbEntity
  8
寸法
 62
     0
 48
50.0
370
    -2
100
AcDbLine
 10
5512.488900113115
 20
5498.21106276854
 30
0.0
 11
5512.488900113115
 21
5750.752648026776
 31
0.0
  0
LINE
  5
1605C
330
15F3B
100
AcDbEntity
  8
寸法
 62
     0
 48
50.0
370
    -2
100
AcDbLine
 10
7412.488900113119
 20
5690.752648026776
 30
0.0
 11
5512.488900113115
 21
5690.752648026776
 31
0.0
  0
INSERT
  5
1605D
330
15F3B
100
AcDbEntity
  8
寸法
 62
     0
 48
50.0
370
    -2
100
AcDbBlockReference
  2
_DOTSMALL
 10
7412.488900113119
 20
5690.752648026776
 30
0.0
 41
100.0
 42
100.0
 43
100.0
  0
INSERT
  5
1605E
330
15F3B
100
AcDbEntity
  8
寸法
 62
     0
 48
50.0
370
    -2
100
AcDbBlockReference
  2
_DOTSMALL
 10
5512.488900113115
 20
5690.752648026776
 30
0.0
 41
100.0
 42
100.0
 43
100.0
 50
180.0
  0
MTEXT
  5
1605F
330
15F3B
100
AcDbEntity
  8
寸法
 62
     7
 48
50.0
100
AcDbMText
 10
6462.488900113118
 20
5790.752648026776
 30
0.0
 40
120.0
 41
0.0
 71
     5
 72
     1
  1
\A1;柱外寸法1900
  7
STYLE1
 73
     1
 44
1.0
1001
ACAD
1000
MTEXTBEGIN
1070
    73
1070
     1
1070
    44
1040
1.0
1070
    74
1070
     0
1000
MTEXTEND
  0
POINT
  5
16060
330
15F3B
100
AcDbEntity
  8
DEFPOINTS
 62
     0
 48
50.0
100
AcDbPoint
 10
7412.488900113119
 20
5478.211062768534
 30
0.0
  0
POINT
  5
16061
330
15F3B
100
AcDbEntity
  8
DEFPOINTS
 62
     0
 48
50.0
100
AcDbPoint
 10
5512.488900113115
 20
5478.21106276854
 30
0.0
  0
POINT
  5
16062
330
15F3B
100
AcDbEntity
  8
DEFPOINTS
 62
     0
 48
50.0
100
AcDbPoint
 10
5512.488900113115
 20
5690.752648026776
 30
0.0
  0
ENDBLK
  5
15F46
330
15F3B
100
AcDbEntity
  8
0
 48
50.0
100
AcDbBlockEnd
  0
BLOCK
  5
15F51
330
15F47
100
AcDbEntity
  8
0
 48
50.0
100
AcDbBlockBegin
  2
*D28
 70
     1
 10
0.0
 20
0.0
 30
0.0
  3
*D28
  1

  0
LINE
  5
16063
330
15F47
100
AcDbEntity
  8
寸法
 62
     0
 48
50.0
370
    -2
100
AcDbLine
 10
5462.488900113116
 20
5498.211062768538
 30
0.0
 11
5462.488900113116
 21
5973.709626464625
 31
0.0
  0
LINE
  5
16064
330
15F47
100
AcDbEntity
  8
寸法
 62
     0
 48
50.0
370
    -2
100
AcDbLine
 10
7462.488900113119
 20
5498.211062768532
 30
0.0
 11
7462.488900113119
 21
5973.709626464625
 31
0.0
  0
LINE
  5
16065
330
15F47
100
AcDbEntity
  8
寸法
 62
     0
 48
50.0
370
    -2
100
AcDbLine
 10
5462.488900113116
 20
5913.709626464624
 30
0.0
 11
7462.488900113119
 21
5913.709626464624
 31
0.0
  0
INSERT
  5
16066
330
15F47
100
AcDbEntity
  8
寸法
 62
     0
 48
50.0
370
    -2
100
AcDbBlockReference
  2
_DOTSMALL
 10
5462.488900113116
 20
5913.709626464624
 30
0.0
 41
100.0
 42
100.0
 43
100.0
 50
180.0
  0
INSERT
  5
16067
330
15F47
100
AcDbEntity
  8
寸法
 62
     0
 48
50.0
370
    -2
100
AcDbBlockReference
  2
_DOTSMALL
 10
7462.488900113119
 20
5913.709626464624
 30
0.0
 41
100.0
 42
100.0
 43
100.0
  0
MTEXT
  5
16068
330
15F47
100
AcDbEntity
  8
寸法
 62
     7
 48
50.0
100
AcDbMText
 10
6462.488900113118
 20
6013.721437488246
 30
0.0
 40
120.0
 41
0.0
 71
     5
 72
     1
  1
\A1;2000
  7
STYLE1
 73
     1
 44
1.0
1001
ACAD
1000
MTEXTBEGIN
1070
    73
1070
     1
1070
    44
1040
1.0
1070
    74
1070
     0
1000
MTEXTEND
  0
POINT
  5
16069
330
15F47
100
AcDbEntity
  8
DEFPOINTS
 62
     0
 48
50.0
100
AcDbPoint
 10
5462.488900113116
 20
5478.211062768537
 30
0.0
  0
POINT
  5
1606A
330
15F47
100
AcDbEntity
  8
DEFPOINTS
 62
     0
 48
50.0
100
AcDbPoint
 10
7462.488900113119
 20
5478.211062768533
 30
0.0
  0
POINT
  5
1606B
330
15F47
100
AcDbEntity
  8
DEFPOINTS
 62
     0
 48
50.0
100
AcDbPoint
 10
7462.488900113119
 20
5913.709626464624
 30
0.0
  0
ENDBLK
  5
15F52
330
15F47
100
AcDbEntity
  8
0
 48
50.0
100
AcDbBlockEnd
  0
BLOCK
  5
15F92
330
15F86
100
AcDbEntity
  8
0
 48
50.0
100
AcDbBlockBegin
  2
*D29
 70
     1
 10
0.0
 20
0.0
 30
0.0
  3
*D29
  1

  0
LINE
  5
16044
330
15F86
100
AcDbEntity
  8
寸法
 62
     0
 48
50.0
370
    -2
100
AcDbLine
 10
7462.488900113119
 20
5498.211062768532
 30
0.0
 11
7462.488900113119
 21
5750.752648026773
 31
0.0
  0
LINE
  5
16045
330
15F86
100
AcDbEntity
  8
寸法
 62
     0
 48
50.0
370
    -2
100
AcDbLine
 10
7412.488900113119
 20
5498.211062768534
 30
0.0
 11
7412.488900113119
 21
5750.752648026773
 31
0.0
  0
LINE
  5
16046
330
15F86
100
AcDbEntity
  8
寸法
 62
     0
 48
50.0
370
    -2
100
AcDbLine
 10
7412.488900113119
 20
5690.752648026773
 30
0.0
 11
7312.48890011312
 21
5690.752648026773
 31
0.0
  0
LINE
  5
16047
330
15F86
100
AcDbEntity
  8
寸法
 62
     0
 48
50.0
370
    -2
100
AcDbLine
 10
7462.488900113119
 20
5690.752648026773
 30
0.0
 11
7882.021425581844
 21
5690.752648026773
 31
0.0
  0
LINE
  5
16048
330
15F86
100
AcDbEntity
  8
寸法
 62
     0
 48
50.0
370
    -2
100
AcDbLine
 10
7412.488900113119
 20
5690.752648026773
 30
0.0
 11
7462.488900113119
 21
5690.752648026773
 31
0.0
  0
INSERT
  5
16049
330
15F86
100
AcDbEntity
  8
寸法
 62
     0
 48
50.0
370
    -2
100
AcDbBlockReference
  2
_DOTSMALL
 10
7412.488900113119
 20
5690.752648026773
 30
0.0
 41
100.0
 42
100.0
 43
100.0
  0
INSERT
  5
1604A
330
15F86
100
AcDbEntity
  8
寸法
 62
     0
 48
50.0
370
    -2
100
AcDbBlockReference
  2
_DOTSMALL
 10
7462.488900113119
 20
5690.752648026773
 30
0.0
 41
100.0
 42
100.0
 43
100.0
 50
180.0
  0
MTEXT
  5
1604B
330
15F86
100
AcDbEntity
  8
寸法
 62
     7
 48
50.0
100
AcDbMText
 10
7775.974181487356
 20
5790.752648026773
 30
0.0
 40
120.0
 41
0.0
 71
     5
 72
     1
  1
\A1;50
  7
STYLE1
 73
     1
 44
1.0
1001
ACAD
1000
MTEXTBEGIN
1070
    73
1070
     1
1070
    44
1040
1.0
1070
    74
1070
     0
1000
MTEXTEND
  0
POINT
  5
1604C
330
15F86
100
AcDbEntity
  8
DEFPOINTS
 62
     0
 48
50.0
100
AcDbPoint
 10
7462.488900113119
 20
5478.211062768533
 30
0.0
  0
POINT
  5
1604D
330
15F86
100
AcDbEntity
  8
DEFPOINTS
 62
     0
 48
50.0
100
AcDbPoint
 10
7412.488900113119
 20
5478.211062768534
 30
0.0
  0
POINT
  5
1604E
330
15F86
100
AcDbEntity
  8
DEFPOINTS
 62
     0
 48
50.0
100
AcDbPoint
 10
7412.488900113119
 20
5690.752648026773
 30
0.0
  0
ENDBLK
  5
15F93
330
15F86
100
AcDbEntity
  8
0
 48
50.0
100
AcDbBlockEnd
  0
BLOCK
  5
1626F
330
1626A
100
AcDbEntity
  8
0
 48
50.0
100
AcDbBlockBegin
  2
A$C6B1A4113
 70
     0
 10
0.0
 20
0.0
 30
0.0
  3
A$C6B1A4113
  1

  0
TEXT
  5
1626B
330
1626A
100
AcDbEntity
  8
文字
 62
     7
 48
50.0
100
AcDbText
 10
1895.439654745143
 20
-139.5862541162787
 30
0.0
 40
100.0
  1
F12            1.0
  7
STYLE1
100
AcDbText
  0
TEXT
  5
1626C
330
1626A
100
AcDbEntity
  8
文字
 62
     7
 48
50.0
100
AcDbText
 10
455.9181901656812
 20
-139.5862541162733
 30
0.0
 40
100.0
  1
※豪雪補強
  7
STYLE1
100
AcDbText
  0
TEXT
  5
1626D
330
1626A
100
AcDbEntity
  8
文字
 62
     7
 48
50.0
100
AcDbText
 10
121.5774736644744
 20
-139.5862541162714
 30
0.0
 40
100.0
  1
14
  7
STYLE1
100
AcDbText
  0
TEXT
  5
1626E
330
1626A
100
AcDbEntity
  8
文字
 62
     7
 48
50.0
100
AcDbText
 10
102.6308165655355
 20
-309.5862541162733
 30
0.0
 40
100.0
  1
※豪雪補強は豪雪地型のみ取付
 41
0.9
  7
STYLE1
100
AcDbText
  0
ENDBLK
  5
16270
330
1626A
100
AcDbEntity
  8
0
 48
50.0
100
AcDbBlockEnd
  0
BLOCK
  5
164A9
330
164A8
100
AcDbEntity
  8
0
 48
50.0
100
AcDbBlockBegin
  2
*D32
 70
     1
 10
0.0
 20
0.0
 30
0.0
  3
*D32
  1

  0
LINE
  5
164B4
330
164A8
100
AcDbEntity
  8
寸法
 62
     0
370
    -2
100
AcDbLine
 10
9328.286281920599
 20
5243.211062768533
 30
0.0
 11
8686.323191228398
 21
5243.211062768533
 31
0.0
  0
LINE
  5
164B5
330
164A8
100
AcDbEntity
  8
寸法
 62
     0
370
    -2
100
AcDbLine
 10
9321.28391187582
 20
3453.211062768535
 30
0.0
 11
8686.323191228394
 21
3453.211062768536
 31
0.0
  0
LINE
  5
164B6
330
164A8
100
AcDbEntity
  8
寸法
 62
     0
370
    -2
100
AcDbLine
 10
8746.323191228396
 20
5243.211062768533
 30
0.0
 11
8746.323191228396
 21
3453.211062768536
 31
0.0
  0
INSERT
  5
164B7
330
164A8
100
AcDbEntity
  8
寸法
 62
     0
370
    -2
100
AcDbBlockReference
  2
_DOTSMALL
 10
8746.323191228396
 20
5243.211062768533
 30
0.0
 41
100.0
 42
100.0
 43
100.0
 50
90.0
  0
INSERT
  5
164B8
330
164A8
100
AcDbEntity
  8
寸法
 62
     0
370
    -2
100
AcDbBlockReference
  2
_DOTSMALL
 10
8746.323191228396
 20
3453.211062768536
 30
0.0
 41
100.0
 42
100.0
 43
100.0
 50
270.0
  0
MTEXT
  5
164B9
330
164A8
100
AcDbEntity
  8
寸法
 62
     7
100
AcDbMText
 10
8646.323191228395
 20
4358.246074644919
 30
0.0
 40
120.0
 41
0.0
 71
     5
 72
     1
  1
\A1;1790
  7
STYLE1
 11
0.0000000000000001
 21
1.0
 31
0.0
 73
     1
 44
1.0
1001
ACAD
1000
MTEXTBEGIN
1070
    73
1070
     1
1070
    44
1040
1.0
1070
    74
1070
     0
1000
MTEXTEND
  0
POINT
  5
164BA
330
164A8
100
AcDbEntity
  8
DEFPOINTS
 62
     0
100
AcDbPoint
 10
9348.286281920598
 20
5243.211062768533
 30
0.0
  0
POINT
  5
164BB
330
164A8
100
AcDbEntity
  8
DEFPOINTS
 62
     0
100
AcDbPoint
 10
9341.283911875819
 20
3453.211062768535
 30
0.0
  0
POINT
  5
164BC
330
164A8
100
AcDbEntity
  8
DEFPOINTS
 62
     0
100
AcDbPoint
 10
8746.323191228396
 20
3453.211062768536
 30
0.0
  0
ENDBLK
  5
164AA
330
164A8
100
AcDbEntity
  8
0
 48
50.0
100
AcDbBlockEnd
  0
ENDSEC
  0
SECTION
  2
ENTITIES
  0
LINE
  5
10B56
330
747D
100
AcDbEntity
  8
補助
  6
PHANTOM
 62
   230
 48
50.0
100
AcDbLine
 10
140.0
 20
0.0
 30
0.0
 11
139.9999999999995
 21
11409.6
 31
0.0
  0
LINE
  5
10B57
330
747D
100
AcDbEntity
  8
補助
  6
PHANTOM
 62
   230
 48
50.0
100
AcDbLine
 10
139.9999999999995
 20
11409.6
 30
0.0
 11
16307.2
 21
11409.6
 31
0.0
  0
LINE
  5
10B59
330
747D
100
AcDbEntity
  8
仕様書枠
  6
Continuous
 48
50.0
100
AcDbLine
 10
13107.2
 20
1200.0
 30
0.0
 11
13107.2
 21
-0.0000000000000729
 31
0.0
  0
LINE
  5
10B5C
330
747D
100
AcDbEntity
  8
仕様書枠
 48
50.0
100
AcDbLine
 10
16307.2
 20
1200.0
 30
0.0
 11
16307.2
 21
-0.0000000000000909
 31
0.0
  0
LINE
  5
10B5D
330
747D
100
AcDbEntity
  8
仕様書枠
 48
50.0
100
AcDbLine
 10
140.0
 20
0.0
 30
0.0
 11
16307.2
 21
-0.0000000000000909
 31
0.0
  0
LINE
  5
10B5E
330
747D
100
AcDbEntity
  8
補助
  6
PHANTOM
 62
   230
 48
50.0
100
AcDbLine
 10
16307.2
 20
11409.6
 30
0.0
 11
16307.2
 21
1200.0
 31
0.0
  0
LINE
  5
10B6C
330
747D
100
AcDbEntity
  8
仕様書枠
 48
50.0
100
AcDbLine
 10
13107.2
 20
1200.0
 30
0.0
 11
16307.2
 21
1200.0
 31
0.0
  0
LINE
  5
10B6D
330
747D
100
AcDbEntity
  8
補助
  6
PHANTOM
 62
   230
 48
50.0
100
AcDbLine
 10
13107.2
 20
11409.6
 30
0.0
 11
13107.2
 21
4800.0
 31
0.0
  0
LINE
  5
10B6F
330
747D
100
AcDbEntity
  8
補助
  6
PHANTOM
 62
   230
 48
50.0
100
AcDbLine
 10
13107.2
 20
4800.0
 30
0.0
 11
16307.2
 21
4800.0
 31
0.0
  0
LINE
  5
10B72
330
747D
100
AcDbEntity
  8
文字
 62
     7
 48
50.0
100
AcDbLine
 10
13187.2
 20
400.0
 30
0.0
 11
16227.2
 21
400.0
 31
0.0
  0
TEXT
  5
10B73
330
747D
100
AcDbEntity
  8
文字
 62
     7
 48
50.0
100
AcDbText
 10
13162.9790565769
 20
895.0906074299405
 30
0.0
 40
200.0
  1
外 形 図
  7
STYLE2
100
AcDbText
  0
TEXT
  5
10B74
330
747D
100
AcDbEntity
  8
文字
 62
     7
 48
50.0
100
AcDbText
 10
13201.43669998441
 20
477.2740661031255
 30
0.0
 40
160.0
  1
機種名
  7
STYLE2
100
AcDbText
  0
TEXT
  5
10B75
330
747D
100
AcDbEntity
  8
文字
 62
     7
 48
50.0
100
AcDbText
 10
13209.4053442172
 20
228.5435242569016
 30
0.0
 40
100.0
  1
○有効開口寸法 ： 685\U+00D71760(mm)
  7
STYLE2
100
AcDbText
  0
TEXT
  5
10B76
330
747D
100
AcDbEntity
  8
文字
 62
     7
 48
50.0
100
AcDbText
 10
13209.4053442172
 20
76.09434707649343
 30
0.0
 40
100.0
  1
○床面積 ： 1.81㎡(0.55坪) 　
  7
STYLE2
100
AcDbText
  0
LINE
  5
10B7B
330
747D
100
AcDbEntity
  8
仕様書枠
 48
50.0
100
AcDbLine
 10
13107.2
 20
800.0
 30
0.0
 11
14251.2
 21
800.0
 31
0.0
  0
LINE
  5
10B88
330
747D
100
AcDbEntity
  8
仕様書枠
  6
Continuous
 48
50.0
100
AcDbLine
 10
14251.2
 20
1200.0
 30
0.0
 11
14251.2
 21
800.0
 31
0.0
  0
LINE
  5
13A41
330
747D
100
AcDbEntity
  8
Ｇ．Ｌ
100
AcDbLine
 10
4388.239719388678
 20
3303.211062768531
 30
0.0
 11
11081.96376610193
 21
3303.211062768531
 31
0.0
  0
TEXT
  5
13A63
330
747D
100
AcDbEntity
  8
部品1
100
AcDbText
 10
4385.820253108621
 20
3339.317966374433
 30
0.0
 40
125.0
  1
▽G.L
  7
STYLE2
100
AcDbText
  0
LWPOLYLINE
  5
13A6B
330
747D
100
AcDbEntity
  8
部品1
100
AcDbPolyline
 90
        4
 70
     1
 43
0.0
 10
6080.753566998897
 20
2512.161776412089
 10
6080.753566998897
 20
2272.269454866556
 10
6844.224233227336
 20
2272.269454866556
 10
6844.224233227336
 20
2512.161776412089
  0
TEXT
  5
13A6C
330
747D
100
AcDbEntity
  8
部品1
100
AcDbText
 10
6171.278970736853
 20
2319.268247193566
 30
0.0
 40
135.0
  1
正面図
  7
STYLE2
100
AcDbText
  0
LWPOLYLINE
  5
13AD7
330
747D
100
AcDbEntity
  8
部品1
100
AcDbPolyline
 90
        4
 70
     1
 43
0.0
 10
9441.550948806378
 20
2512.161776412089
 10
9441.550948806378
 20
2272.269454866556
 10
10205.02161503481
 20
2272.269454866556
 10
10205.02161503481
 20
2512.161776412089
  0
TEXT
  5
13AD8
330
747D
100
AcDbEntity
  8
部品1
100
AcDbText
 10
9530.997050229986
 20
2319.268247193566
 30
0.0
 40
135.0
  1
側面図
  7
STYLE2
100
AcDbText
  0
TEXT
  5
13B2F
330
747D
100
AcDbEntity
  8
部品1
100
AcDbText
 10
6170.673176827936
 20
6791.447041773699
 30
0.0
 40
135.0
  1
平面図
  7
STYLE2
100
AcDbText
  0
LWPOLYLINE
  5
13B30
330
747D
100
AcDbEntity
  8
部品1
100
AcDbPolyline
 90
        4
 70
     1
 43
0.0
 10
6080.753566998897
 20
6984.340570992222
 10
6080.753566998897
 20
6744.44824944669
 10
6844.224233227336
 20
6744.44824944669
 10
6844.224233227336
 20
6984.340570992222
  0
LINE
  5
14B18
330
747D
100
AcDbEntity
  8
部品1
100
AcDbLine
 10
6289.488900113116
 20
5243.21106276853
 30
0.0
 11
6289.488900113116
 21
3446.211062768551
 31
0.0
  0
LINE
  5
14B19
330
747D
100
AcDbEntity
  8
部品1
100
AcDbLine
 10
7239.488900113116
 20
5243.21106276853
 30
0.0
 11
7239.488900113116
 21
3446.211062768551
 31
0.0
  0
DIMENSION
  5
14B1A
330
747D
100
AcDbEntity
  8
寸法
100
AcDbDimension
  2
*D1
 10
5194.384372505513
 20
3464.711062768535
 30
0.0
 11
5194.384372505512
 21
4343.711062768533
 31
0.0
 70
   160
  1
有効開口部高サ<>
 71
     5
 42
1759.999999999995
  3
INABA_S40G
100
AcDbAlignedDimension
 13
5512.488900113115
 23
5224.71106276853
 33
0.0
 14
5512.488900113115
 24
3464.711062768535
 34
0.0
 50
90.0
100
AcDbRotatedDimension
1001
ACAD
1000
DSTYLE
1002
{
1070
   288
1070
     1
1002
}
  0
LINE
  5
14B1B
330
747D
100
AcDbEntity
  8
部品1
100
AcDbLine
 10
7369.488900113116
 20
5243.21106276853
 30
0.0
 11
7369.488900113116
 21
3446.211062768551
 31
0.0
  0
LINE
  5
14B1C
330
747D
100
AcDbEntity
  8
部品1
100
AcDbLine
 10
7412.488900113117
 20
5337.211062768535
 30
0.0
 11
7412.488900113117
 21
3303.211062768531
 31
0.0
  0
LINE
  5
14B1D
330
747D
100
AcDbEntity
  8
部品1
100
AcDbLine
 10
7237.488900113115
 20
5240.711062768529
 30
0.0
 11
7237.488900113117
 21
3449.711062768551
 31
0.0
  0
LINE
  5
14B1E
330
747D
100
AcDbEntity
  8
部品1
100
AcDbLine
 10
6507.488900113115
 20
5240.71106276853
 30
0.0
 11
6507.488900113115
 21
3449.711062768546
 31
0.0
  0
LINE
  5
14B1F
330
747D
100
AcDbEntity
  8
部品1
100
AcDbLine
 10
6505.488900113116
 20
5243.21106276853
 30
0.0
 11
6505.488900113116
 21
3446.211062768551
 31
0.0
  0
LINE
  5
14B20
330
747D
100
AcDbEntity
  8
部品1
100
AcDbLine
 10
6419.488900113115
 20
5243.21106276853
 30
0.0
 11
6419.488900113115
 21
3446.211062768551
 31
0.0
  0
LINE
  5
14B21
330
747D
100
AcDbEntity
  8
部品1
100
AcDbLine
 10
6287.488900113114
 20
5240.711062768529
 30
0.0
 11
6287.488900113118
 21
3449.711062768543
 31
0.0
  0
LINE
  5
14B22
330
747D
100
AcDbEntity
  8
部品1
100
AcDbLine
 10
5557.488900113116
 20
5240.711062768532
 30
0.0
 11
5557.488900113116
 21
3449.711062768535
 31
0.0
  0
LINE
  5
14B23
330
747D
100
AcDbEntity
  8
部品1
100
AcDbLine
 10
5512.488900113115
 20
5337.211062768535
 30
0.0
 11
5512.488900113115
 21
3303.211062768531
 31
0.0
  0
LINE
  5
14B24
330
747D
100
AcDbEntity
  8
部品1
100
AcDbLine
 10
5555.488900113116
 20
5243.21106276853
 30
0.0
 11
5555.488900113116
 21
3446.211062768551
 31
0.0
  0
LINE
  5
14B25
330
747D
100
AcDbEntity
  8
部品1
100
AcDbLine
 10
6507.488900113115
 20
3449.711062768544
 30
0.0
 11
7217.426452284434
 21
3449.71106276855
 31
0.0
  0
LINE
  5
14B26
330
747D
100
AcDbEntity
  8
部品1
100
AcDbLine
 10
5512.488900113115
 20
3446.211062768535
 30
0.0
 11
7412.488900113117
 21
3446.211062768551
 31
0.0
  0
LINE
  5
14B27
330
747D
100
AcDbEntity
  8
部品1
100
AcDbLine
 10
5512.488900113115
 20
3403.211062768531
 30
0.0
 11
7412.488900113117
 21
3403.211062768531
 31
0.0
  0
LINE
  5
14B28
330
747D
100
AcDbEntity
  8
部品1
100
AcDbLine
 10
5557.488900113116
 20
3449.711062768537
 30
0.0
 11
6267.426452284435
 21
3449.711062768551
 31
0.0
  0
LINE
  5
14B2B
330
747D
100
AcDbEntity
  8
細線
 48
0.2
100
AcDbLine
 10
6287.426452284434
 20
3453.961062768549
 30
0.0
 11
6267.426452284436
 21
3453.961062768549
 31
0.0
  0
LINE
  5
14B2C
330
747D
100
AcDbEntity
  8
部品1
 48
0.2
100
AcDbLine
 10
6287.426452284434
 20
3456.46106276855
 30
0.0
 11
6267.426452284435
 21
3456.46106276855
 31
0.0
  0
ARC
  5
14B2D
330
747D
100
AcDbEntity
  8
細線
 48
0.2
100
AcDbCircle
 10
6284.426452284434
 20
3449.490552937302
 30
0.0
 40
1.0
100
AcDbArc
 50
286.6015495990217
 51
0.0
  0
LINE
  5
14B2E
330
747D
100
AcDbEntity
  8
細線
 48
0.2
100
AcDbLine
 10
6287.426452284434
 20
3449.46106276855
 30
0.0
 11
6267.426452284436
 21
3449.46106276855
 31
0.0
  0
LINE
  5
14B2F
330
747D
100
AcDbEntity
  8
細線
 48
0.2
100
AcDbLine
 10
6287.426452284434
 20
3451.96106276855
 30
0.0
 11
6267.426452284436
 21
3451.961062768551
 31
0.0
  0
ARC
  5
14B30
330
747D
100
AcDbEntity
  8
細線
 48
0.2
100
AcDbCircle
 10
6274.426452284433
 20
3449.490552937302
 30
0.0
 40
1.0
100
AcDbArc
 50
179.9999999999984
 51
253.3984504009775
  0
ARC
  5
14B31
330
747D
100
AcDbEntity
  8
細線
 48
0.2
100
AcDbCircle
 10
6279.426452284434
 20
3466.261062768547
 30
0.0
 40
18.49999999999796
100
AcDbArc
 50
253.3984504009772
 51
286.6015495990217
  0
LINE
  5
14B32
330
747D
100
AcDbEntity
  8
細線
 48
0.2
100
AcDbLine
 10
6285.110443580943
 20
3448.761062768549
 30
0.0
 11
6273.742460987929
 21
3448.761062768549
 31
0.0
  0
LINE
  5
14B33
330
747D
100
AcDbEntity
  8
細線
 48
50.0
100
AcDbLine
 10
6267.426452284435
 20
3449.711062768551
 30
0.0
 11
6267.426452284435
 21
3449.46106276855
 31
0.0
  0
LINE
  5
14B34
330
747D
100
AcDbEntity
  8
部品1
100
AcDbLine
 10
6287.426452284435
 20
3449.711062768551
 30
0.0
 11
6287.488900113116
 21
3449.711062768551
 31
0.0
  0
LINE
  5
14B35
330
747D
100
AcDbEntity
  8
部品1
100
AcDbLine
 10
6287.426452284435
 20
3449.711062768543
 30
0.0
 11
6287.488900113116
 21
3449.711062768543
 31
0.0
  0
LINE
  5
14B36
330
747D
100
AcDbEntity
  8
細線
 48
0.1
100
AcDbLine
 10
6287.426452284434
 20
3449.46106276855
 30
0.0
 11
6287.426452284434
 21
3456.46106276855
 31
0.0
  0
LINE
  5
14B37
330
747D
100
AcDbEntity
  8
細線
 48
50.0
100
AcDbLine
 10
6275.563695090131
 20
3451.961062768551
 30
0.0
 11
6275.563695090132
 21
3453.961062768549
 31
0.0
  0
LINE
  5
14B38
330
747D
100
AcDbEntity
  8
細線
 48
50.0
100
AcDbLine
 10
6283.414105136095
 20
3451.961062768551
 30
0.0
 11
6283.414105136095
 21
3453.961062768549
 31
0.0
  0
LINE
  5
14B39
330
747D
100
AcDbEntity
  8
部品1
 48
50.0
100
AcDbLine
 10
6267.426452284435
 20
3456.46106276855
 30
0.0
 11
6267.426452284435
 21
3449.711062768551
 31
0.0
  0
LINE
  5
14B8A
330
747D
100
AcDbEntity
  8
部品1
 48
0.2
100
AcDbLine
 10
7237.426452284434
 20
3456.46106276855
 30
0.0
 11
7217.426452284434
 21
3456.46106276855
 31
0.0
  0
LINE
  5
14B8B
330
747D
100
AcDbEntity
  8
細線
 48
0.2
100
AcDbLine
 10
7237.426452284434
 20
3453.961062768549
 30
0.0
 11
7217.426452284435
 21
3453.961062768549
 31
0.0
  0
LINE
  5
14B8C
330
747D
100
AcDbEntity
  8
部品1
100
AcDbLine
 10
7237.426452284435
 20
3449.711062768553
 30
0.0
 11
7237.488900113117
 21
3449.711062768553
 31
0.0
  0
LINE
  5
14B8D
330
747D
100
AcDbEntity
  8
部品1
100
AcDbLine
 10
7237.426452284435
 20
3449.711062768551
 30
0.0
 11
7237.488900113117
 21
3449.711062768551
 31
0.0
  0
LINE
  5
14B8E
330
747D
100
AcDbEntity
  8
細線
 48
50.0
100
AcDbLine
 10
7217.426452284434
 20
3449.711062768551
 30
0.0
 11
7217.426452284434
 21
3449.46106276855
 31
0.0
  0
LINE
  5
14B8F
330
747D
100
AcDbEntity
  8
細線
 48
0.2
100
AcDbLine
 10
7235.110443580942
 20
3448.761062768549
 30
0.0
 11
7223.74246098793
 21
3448.761062768549
 31
0.0
  0
ARC
  5
14B90
330
747D
100
AcDbEntity
  8
細線
 48
0.2
100
AcDbCircle
 10
7229.426452284434
 20
3466.261062768547
 30
0.0
 40
18.49999999999796
100
AcDbArc
 50
253.3984504009772
 51
286.6015495990217
  0
ARC
  5
14B91
330
747D
100
AcDbEntity
  8
細線
 48
0.2
100
AcDbCircle
 10
7224.426452284435
 20
3449.490552937302
 30
0.0
 40
1.0
100
AcDbArc
 50
179.9999999999984
 51
253.3984504009775
  0
LINE
  5
14B92
330
747D
100
AcDbEntity
  8
細線
 48
0.2
100
AcDbLine
 10
7237.426452284434
 20
3451.96106276855
 30
0.0
 11
7217.426452284435
 21
3451.961062768551
 31
0.0
  0
LINE
  5
14B93
330
747D
100
AcDbEntity
  8
細線
 48
0.2
100
AcDbLine
 10
7237.426452284434
 20
3449.46106276855
 30
0.0
 11
7217.426452284435
 21
3449.46106276855
 31
0.0
  0
ARC
  5
14B94
330
747D
100
AcDbEntity
  8
細線
 48
0.2
100
AcDbCircle
 10
7234.426452284434
 20
3449.490552937302
 30
0.0
 40
1.0
100
AcDbArc
 50
286.6015495990217
 51
0.0
  0
LINE
  5
14B95
330
747D
100
AcDbEntity
  8
部品1
100
AcDbLine
 10
7237.426452284435
 20
3449.711062768551
 30
0.0
 11
7237.488900113115
 21
3449.711062768551
 31
0.0
  0
LINE
  5
14B96
330
747D
100
AcDbEntity
  8
部品1
 48
50.0
100
AcDbLine
 10
7217.426452284434
 20
3456.46106276855
 30
0.0
 11
7217.426452284434
 21
3449.711062768551
 31
0.0
  0
LINE
  5
14B97
330
747D
100
AcDbEntity
  8
細線
 48
50.0
100
AcDbLine
 10
7233.414105136095
 20
3451.961062768551
 30
0.0
 11
7233.414105136095
 21
3453.961062768549
 31
0.0
  0
LINE
  5
14B98
330
747D
100
AcDbEntity
  8
細線
 48
50.0
100
AcDbLine
 10
7225.56369509013
 20
3451.961062768551
 30
0.0
 11
7225.563695090132
 21
3453.961062768549
 31
0.0
  0
LINE
  5
14B99
330
747D
100
AcDbEntity
  8
細線
 48
0.1
100
AcDbLine
 10
7237.426452284434
 20
3449.46106276855
 30
0.0
 11
7237.426452284434
 21
3456.46106276855
 31
0.0
  0
LINE
  5
14B9A
330
747D
100
AcDbEntity
  8
部品1
100
AcDbLine
 10
6507.488900113115
 20
5240.711062768529
 30
0.0
 11
7217.426452284434
 21
5240.71106276853
 31
0.0
  0
LINE
  5
14B9F
330
747D
100
AcDbEntity
  8
部品1
100
AcDbLine
 10
5512.488900113115
 20
5243.21106276853
 30
0.0
 11
7412.488900113117
 21
5243.21106276853
 31
0.0
  0
LINE
  5
14BA3
330
747D
100
AcDbEntity
  8
部品1
100
AcDbLine
 10
5557.488900113116
 20
5240.711062768532
 30
0.0
 11
6267.426452284435
 21
5240.711062768532
 31
0.0
  0
LINE
  5
14BBD
330
747D
100
AcDbEntity
  8
細線
 48
50.0
100
AcDbLine
 10
6283.414105136095
 20
5238.461062768532
 30
0.0
 11
6283.414105136095
 21
5236.461062768532
 31
0.0
  0
LINE
  5
14BBE
330
747D
100
AcDbEntity
  8
細線
 48
50.0
100
AcDbLine
 10
6275.563695090131
 20
5238.461062768532
 30
0.0
 11
6275.563695090132
 21
5236.461062768532
 31
0.0
  0
LINE
  5
14BBF
330
747D
100
AcDbEntity
  8
細線
 48
0.2
100
AcDbLine
 10
6285.110443580943
 20
5241.661062768533
 30
0.0
 11
6273.742460987929
 21
5241.661062768533
 31
0.0
  0
ARC
  5
14BC0
330
747D
100
AcDbEntity
  8
細線
 48
0.2
100
AcDbCircle
 10
6279.426452284434
 20
5224.161062768535
 30
0.0
 40
18.49999999999796
100
AcDbArc
 50
73.39845040097829
 51
106.6015495990228
  0
LINE
  5
14BC1
330
747D
100
AcDbEntity
  8
細線
 48
0.1
100
AcDbLine
 10
6287.426452284434
 20
5240.961062768533
 30
0.0
 11
6287.426452284434
 21
5233.961062768532
 31
0.0
  0
ARC
  5
14BC2
330
747D
100
AcDbEntity
  8
細線
 48
0.2
100
AcDbCircle
 10
6284.426452284434
 20
5240.93157259978
 30
0.0
 40
1.0
100
AcDbArc
 50
0.0
 51
73.39845040097829
  0
ARC
  5
14BC3
330
747D
100
AcDbEntity
  8
細線
 48
0.2
100
AcDbCircle
 10
6274.426452284433
 20
5240.93157259978
 30
0.0
 40
1.0
100
AcDbArc
 50
106.6015495990225
 51
180.0000000000016
  0
LINE
  5
14BC4
330
747D
100
AcDbEntity
  8
部品1
 48
0.2
100
AcDbLine
 10
6287.426452284434
 20
5233.961062768532
 30
0.0
 11
6267.426452284435
 21
5233.961062768532
 31
0.0
  0
LINE
  5
14BC5
330
747D
100
AcDbEntity
  8
細線
 48
0.2
100
AcDbLine
 10
6287.426452284434
 20
5238.461062768532
 30
0.0
 11
6267.426452284436
 21
5238.461062768532
 31
0.0
  0
LINE
  5
14BC6
330
747D
100
AcDbEntity
  8
細線
 48
0.2
100
AcDbLine
 10
6287.426452284434
 20
5236.461062768532
 30
0.0
 11
6267.426452284436
 21
5236.461062768532
 31
0.0
  0
LINE
  5
14BC7
330
747D
100
AcDbEntity
  8
細線
 48
0.2
100
AcDbLine
 10
6287.426452284434
 20
5240.961062768533
 30
0.0
 11
6267.426452284436
 21
5240.961062768533
 31
0.0
  0
LINE
  5
14BC8
330
747D
100
AcDbEntity
  8
部品1
 48
50.0
100
AcDbLine
 10
6267.426452284435
 20
5233.961062768532
 30
0.0
 11
6267.426452284435
 21
5240.711062768532
 31
0.0
  0
LINE
  5
14BC9
330
747D
100
AcDbEntity
  8
部品1
100
AcDbLine
 10
6287.426452284435
 20
5240.711062768532
 30
0.0
 11
6287.488900113116
 21
5240.71106276853
 31
0.0
  0
LINE
  5
14BCA
330
747D
100
AcDbEntity
  8
細線
 48
50.0
100
AcDbLine
 10
6267.426452284435
 20
5240.711062768532
 30
0.0
 11
6267.426452284435
 21
5240.961062768533
 31
0.0
  0
ARC
  5
14BDD
330
747D
100
AcDbEntity
  8
細線
 48
0.2
100
AcDbCircle
 10
7234.426452284434
 20
5240.93157259978
 30
0.0
 40
1.0
100
AcDbArc
 50
0.0
 51
73.39845040097829
  0
LINE
  5
14BDE
330
747D
100
AcDbEntity
  8
細線
 48
0.1
100
AcDbLine
 10
7237.426452284434
 20
5240.961062768533
 30
0.0
 11
7237.426452284434
 21
5233.961062768532
 31
0.0
  0
LINE
  5
14BDF
330
747D
100
AcDbEntity
  8
細線
 48
50.0
100
AcDbLine
 10
7225.56369509013
 20
5238.461062768532
 30
0.0
 11
7225.563695090132
 21
5236.461062768532
 31
0.0
  0
LINE
  5
14BE0
330
747D
100
AcDbEntity
  8
細線
 48
50.0
100
AcDbLine
 10
7233.414105136095
 20
5238.461062768532
 30
0.0
 11
7233.414105136095
 21
5236.461062768532
 31
0.0
  0
LINE
  5
14BE1
330
747D
100
AcDbEntity
  8
細線
 48
0.2
100
AcDbLine
 10
7237.426452284434
 20
5240.961062768533
 30
0.0
 11
7217.426452284435
 21
5240.961062768533
 31
0.0
  0
LINE
  5
14BE2
330
747D
100
AcDbEntity
  8
細線
 48
0.2
100
AcDbLine
 10
7237.426452284434
 20
5236.461062768532
 30
0.0
 11
7217.426452284435
 21
5236.461062768532
 31
0.0
  0
LINE
  5
14BE3
330
747D
100
AcDbEntity
  8
細線
 48
0.2
100
AcDbLine
 10
7237.426452284434
 20
5238.461062768532
 30
0.0
 11
7217.426452284435
 21
5238.461062768532
 31
0.0
  0
ARC
  5
14BE4
330
747D
100
AcDbEntity
  8
細線
 48
0.2
100
AcDbCircle
 10
7224.426452284435
 20
5240.93157259978
 30
0.0
 40
1.0
100
AcDbArc
 50
106.6015495990225
 51
180.0000000000016
  0
ARC
  5
14BE5
330
747D
100
AcDbEntity
  8
細線
 48
0.2
100
AcDbCircle
 10
7229.426452284434
 20
5224.161062768535
 30
0.0
 40
18.49999999999796
100
AcDbArc
 50
73.39845040097829
 51
106.6015495990228
  0
LINE
  5
14BE6
330
747D
100
AcDbEntity
  8
細線
 48
0.2
100
AcDbLine
 10
7235.110443580942
 20
5241.661062768533
 30
0.0
 11
7223.74246098793
 21
5241.661062768533
 31
0.0
  0
LINE
  5
14BE7
330
747D
100
AcDbEntity
  8
細線
 48
50.0
100
AcDbLine
 10
7217.426452284434
 20
5240.711062768532
 30
0.0
 11
7217.426452284434
 21
5240.961062768533
 31
0.0
  0
LINE
  5
14BE8
330
747D
100
AcDbEntity
  8
部品1
 48
50.0
100
AcDbLine
 10
7217.426452284434
 20
5233.961062768532
 30
0.0
 11
7217.426452284434
 21
5240.711062768532
 31
0.0
  0
LINE
  5
14BE9
330
747D
100
AcDbEntity
  8
部品1
100
AcDbLine
 10
7237.426452284435
 20
5240.711062768532
 30
0.0
 11
7237.488900113117
 21
5240.71106276853
 31
0.0
  0
LINE
  5
14BEA
330
747D
100
AcDbEntity
  8
部品1
 48
0.2
100
AcDbLine
 10
7237.426452284434
 20
5233.961062768532
 30
0.0
 11
7217.426452284434
 21
5233.961062768532
 31
0.0
  0
LINE
  5
14BEB
330
747D
100
AcDbEntity
  8
部品1
100
AcDbLine
 10
7237.426452284435
 20
5240.711062768529
 30
0.0
 11
7237.488900113117
 21
5240.71106276853
 31
0.0
  0
LINE
  5
14BF3
330
747D
100
AcDbEntity
  8
部品1
100
AcDbLine
 10
6491.488906790717
 20
9242.419259791985
 30
0.0
 11
7383.488906790718
 21
9242.419259792091
 31
0.0
  0
LINE
  5
14BF4
330
747D
100
AcDbEntity
  8
細線
 48
50.0
100
AcDbLine
 10
7383.488906790717
 20
8792.419259792087
 30
0.0
 11
6491.488906790717
 21
9242.419259791985
 31
0.0
  0
LINE
  5
14BF5
330
747D
100
AcDbEntity
  8
細線
 48
50.0
100
AcDbLine
 10
7383.488906790718
 20
9242.419259792086
 30
0.0
 11
6491.488906790718
 21
8792.419259791982
 31
0.0
  0
LINE
  5
14BF6
330
747D
100
AcDbEntity
  8
部品1
100
AcDbLine
 10
6491.488906790718
 20
8792.419259791982
 30
0.0
 11
7383.488906790717
 21
8792.419259792087
 31
0.0
  0
LINE
  5
14BF7
330
747D
100
AcDbEntity
  8
部品1
100
AcDbLine
 10
6490.488900113071
 20
9243.919259792034
 30
0.0
 11
7384.488900113123
 21
9243.919259792058
 31
0.0
  0
LINE
  5
14BF9
330
747D
100
AcDbEntity
  8
部品1
 48
5.0
100
AcDbLine
 10
6486.488900113117
 20
8351.419259791992
 30
0.0
 11
7388.488900113118
 21
8351.419259792049
 31
0.0
  0
LINE
  5
14BFA
330
747D
100
AcDbEntity
  8
部品1
100
AcDbLine
 10
7356.9889001131
 20
8453.419259792058
 30
0.0
 11
6517.988406859219
 21
8453.418757594583
 31
0.0
  0
LINE
  5
14BFB
330
747D
100
AcDbEntity
  8
破線
 48
10.0
100
AcDbLine
 10
7333.48890011311
 20
8476.919259792058
 30
0.0
 11
6541.488900113108
 21
8476.919259792039
 31
0.0
  0
LINE
  5
14BFC
330
747D
100
AcDbEntity
  8
部品1
100
AcDbLine
 10
7237.488900113115
 20
8347.919259792096
 30
0.0
 11
6507.488900113115
 21
8347.919259792069
 31
0.0
  0
DIMENSION
  5
14BFD
330
747D
100
AcDbEntity
  8
寸法
100
AcDbDimension
  2
*D2
 10
7324.795410496754
 20
8573.372149548998
 30
0.0
 11
6976.143558672396
 21
8678.457425325527
 31
0.0
 70
   160
 71
     5
 42
892.0000000000118
  3
INABA_S40G
100
AcDbAlignedDimension
 13
6491.48890679072
 23
8792.419259791982
 33
0.0
 14
7383.488906790731
 24
8792.419259791977
 34
0.0
100
AcDbRotatedDimension
1001
ACAD
1000
DSTYLE
1002
{
1070
   279
1070
     2
1002
}
  0
ARC
  5
14BFE
330
747D
100
AcDbEntity
  8
想像線
 48
10.0
100
AcDbCircle
 10
7230.136849435957
 20
8323.614153167621
 30
0.0
 40
722.6499369155592
100
AcDbArc
 50
180.1343808685487
 51
270.5829222700353
  0
DIMENSION
  5
14BFF
330
747D
100
AcDbEntity
  8
寸法
100
AcDbDimension
  2
*D3
 10
7412.488900113098
 20
7334.817384931859
 30
0.0
 11
6462.488900113122
 21
7334.817384931859
 31
0.0
 70
   160
 71
     5
 42
1899.999999999982
  3
INABA_S40G
100
AcDbAlignedDimension
 13
5512.488900113115
 23
8321.919259791931
 33
0.0
 14
7412.488900113098
 24
8321.919259792061
 34
0.0
100
AcDbRotatedDimension
1001
ACAD
1000
DSTYLE
1002
{
1002
}
  0
LINE
  5
14C00
330
747D
100
AcDbEntity
  8
部品1
100
AcDbLine
 10
7412.488900113098
 20
8321.919259792094
 30
0.0
 11
5512.488900113115
 21
8321.919259792
 31
0.0
  0
LINE
  5
14C01
330
747D
100
AcDbEntity
  8
部品1
100
AcDbLine
 10
5512.488900113122
 20
9271.91925979201
 30
0.0
 11
7412.488900113124
 21
9271.919259792104
 31
0.0
  0
DIMENSION
  5
14C02
330
747D
100
AcDbEntity
  8
寸法
100
AcDbDimension
  2
*D4
 10
7357.488900113121
 20
9487.727479417108
 30
0.0
 11
6937.488900113122
 21
9487.727479417108
 31
0.0
 70
   160
  1
2X420=<>
 71
     5
 42
839.9999999999991
  3
INABA_S40G
100
AcDbAlignedDimension
 13
6517.488900113121
 23
9271.919259792042
 33
0.0
 14
7357.488900113121
 24
9271.919259792131
 34
0.0
100
AcDbRotatedDimension
1001
ACAD
1000
DSTYLE
1002
{
1002
}
  0
ARC
  5
14C03
330
747D
100
AcDbEntity
  8
想像線
 48
10.0
100
AcDbCircle
 10
6280.136849435955
 20
8323.614153167618
 30
0.0
 40
722.6499369155575
100
AcDbArc
 50
180.1343808685508
 51
270.5829222700355
  0
LINE
  5
14C04
330
747D
100
AcDbEntity
  8
部品1
 48
50.0
100
AcDbLine
 10
6491.488906790717
 20
9242.419259791978
 30
0.0
 11
6491.488906790718
 21
8792.419259791982
 31
0.0
  0
LINE
  5
14C05
330
747D
100
AcDbEntity
  8
部品1
 48
50.0
100
AcDbLine
 10
6433.488906790718
 20
9242.419259792086
 30
0.0
 11
6433.488906790718
 21
8792.419259792087
 31
0.0
  0
LINE
  5
14C06
330
747D
100
AcDbEntity
  8
部品1
 48
50.0
100
AcDbLine
 10
6490.488900113103
 20
8376.919259792048
 30
0.0
 11
6490.488900113047
 21
9271.919259792058
 31
0.0
  0
LINE
  5
14C07
330
747D
100
AcDbEntity
  8
部品1
 48
50.0
100
AcDbLine
 10
6434.488900113102
 20
8376.919259792048
 30
0.0
 11
6434.488900113048
 21
9243.919259792058
 31
0.0
  0
LINE
  5
14C08
330
747D
100
AcDbEntity
  8
部品1
 48
50.0
100
AcDbLine
 10
6462.488900113102
 20
8376.919259792048
 30
0.0
 11
6462.488900113102
 21
9216.919259792057
 31
0.0
  0
LINE
  5
14C09
330
747D
100
AcDbEntity
  8
部品1
 48
50.0
100
AcDbLine
 10
5541.488906790717
 20
9242.419259791978
 30
0.0
 11
5541.488906790718
 21
8792.419259791982
 31
0.0
  0
LINE
  5
14C0A
330
747D
100
AcDbEntity
  8
部品1
100
AcDbLine
 10
5512.488900113088
 20
9271.919259791976
 30
0.0
 11
5512.488900113115
 21
8321.919259791966
 31
0.0
  0
LINE
  5
14C0B
330
747D
100
AcDbEntity
  8
部品1
100
AcDbLine
 10
5540.488900113098
 20
8376.919259791963
 30
0.0
 11
5540.488900113122
 21
9243.91925979201
 31
0.0
  0
LINE
  5
14C0C
330
747D
100
AcDbEntity
  8
細線
 48
50.0
100
AcDbLine
 10
6433.488906790718
 20
9242.419259792086
 30
0.0
 11
5541.488906790718
 21
8792.419259791982
 31
0.0
  0
LINE
  5
14C0D
330
747D
100
AcDbEntity
  8
細線
 48
50.0
100
AcDbLine
 10
6433.488906790717
 20
8792.419259792087
 30
0.0
 11
5541.488906790717
 21
9242.419259791985
 31
0.0
  0
LINE
  5
14C0E
330
747D
100
AcDbEntity
  8
部品1
100
AcDbLine
 10
6505.488900113117
 20
8351.419259792001
 30
0.0
 11
6505.488900113117
 21
8321.919259792048
 31
0.0
  0
LINE
  5
14C0F
330
747D
100
AcDbEntity
  8
部品1
 48
5.0
100
AcDbLine
 10
6505.488900113117
 20
8351.419259792049
 30
0.0
 11
6505.488900113117
 21
8321.919259792048
 31
0.0
  0
LINE
  5
14C10
330
747D
100
AcDbEntity
  8
部品1
100
AcDbLine
 10
6419.488900113115
 20
8351.419259791994
 30
0.0
 11
6419.488900113113
 21
8321.919259792043
 31
0.0
  0
LINE
  5
14C11
330
747D
100
AcDbEntity
  8
部品1
 48
5.0
100
AcDbLine
 10
6419.488900113117
 20
8351.419259792049
 30
0.0
 11
6419.488900113117
 21
8321.919259792048
 31
0.0
  0
LINE
  5
14C12
330
747D
100
AcDbEntity
  8
部品1
 48
5.0
100
AcDbLine
 10
6289.488900113117
 20
8351.419259792049
 30
0.0
 11
6289.488900113117
 21
8321.919259792048
 31
0.0
  0
LINE
  5
14C13
330
747D
100
AcDbEntity
  8
部品1
 48
2.83
100
AcDbLine
 10
5512.488900113115
 20
8321.919259791931
 30
0.0
 11
5512.488900113117
 21
8376.919259791931
 31
0.0
  0
LINE
  5
14C14
330
747D
100
AcDbEntity
  8
部品1
100
AcDbLine
 10
5512.488900113114
 20
8376.919259791931
 30
0.0
 11
5512.488900113115
 21
8321.919259791931
 31
0.0
  0
LINE
  5
14C15
330
747D
100
AcDbEntity
  8
部品1
 48
2.83
100
AcDbLine
 10
5555.488900113117
 20
8351.419259791931
 30
0.0
 11
5555.488900113117
 21
8321.919259791931
 31
0.0
  0
LINE
  5
14C16
330
747D
100
AcDbEntity
  8
部品1
100
AcDbLine
 10
6287.488900113115
 20
8347.919259792064
 30
0.0
 11
5557.488900113116
 21
8347.919259792069
 31
0.0
  0
DIMENSION
  5
14C17
330
747D
100
AcDbEntity
  8
寸法
 48
50.0
100
AcDbDimension
  2
*D5
 10
7202.488900113116
 20
7882.095591996925
 30
0.0
 11
6859.988900113117
 21
7882.095591996925
 31
0.0
 70
   160
  1
有効開口部間口\P<>
 71
     5
 42
684.9999999999954
  3
INABA_S40G
100
AcDbAlignedDimension
 13
6517.488900113119
 23
8321.919259792002
 33
0.0
 14
7202.488900113116
 24
8321.919259791966
 34
0.0
100
AcDbRotatedDimension
  0
LINE
  5
14C18
330
747D
100
AcDbEntity
  8
部品1
100
AcDbLine
 10
6513.488900113116
 20
8321.919259791997
 30
0.0
 11
5512.488900113115
 21
8321.919259791966
 31
0.0
  0
LINE
  5
14C19
330
747D
100
AcDbEntity
  8
部品1
 48
2.83
100
AcDbLine
 10
5555.488900113117
 20
8321.919259791931
 30
0.0
 11
5512.488900113115
 21
8321.919259791931
 31
0.0
  0
LINE
  5
14C1A
330
747D
100
AcDbEntity
  8
部品1
100
AcDbLine
 10
5557.488900113116
 20
8347.919259792069
 30
0.0
 11
5557.488900113116
 21
8321.919259792032
 31
0.0
  0
LINE
  5
14C1B
330
747D
100
AcDbEntity
  8
想像線
 48
10.0
100
AcDbLine
 10
6287.488900113115
 20
8321.919259792048
 30
0.0
 11
6287.488900113115
 21
7601.001616136257
 31
0.0
  0
LINE
  5
14C1C
330
747D
100
AcDbEntity
  8
部品1
100
AcDbLine
 10
6287.488900113115
 20
8347.919259792101
 30
0.0
 11
6287.488900113115
 21
8321.919259792045
 31
0.0
  0
LINE
  5
14C1D
330
747D
100
AcDbEntity
  8
部品1
 48
0.2
100
AcDbLine
 10
6274.551347941795
 20
8314.916889747268
 30
0.0
 11
6279.551347941794
 21
8314.916889747268
 31
0.0
  0
ARC
  5
14C1E
330
747D
100
AcDbEntity
  8
細線
 48
0.2
100
AcDbCircle
 10
6279.551347941794
 20
8322.916889747268
 30
0.0
 40
4.049999999999999
100
AcDbArc
 50
194.2603506853988
 51
345.7396493146012
  0
ARC
  5
14C1F
330
747D
100
AcDbEntity
  8
部品1
 48
0.2
100
AcDbCircle
 10
6274.551347941795
 20
8322.916889747268
 30
0.0
 40
8.0
100
AcDbArc
 50
187.1636477221926
 51
269.9999999999992
  0
ARC
  5
14C20
330
747D
100
AcDbEntity
  8
部品1
 48
0.2
100
AcDbCircle
 10
6279.551347941794
 20
8322.916889747268
 30
0.0
 40
8.0
100
AcDbArc
 50
270.0
 51
352.8363522778074
  0
LINE
  5
14C21
330
747D
100
AcDbEntity
  8
部品1
100
AcDbLine
 10
6507.488900113115
 20
8347.919259792069
 30
0.0
 11
6507.488900113115
 21
8321.919259792032
 31
0.0
  0
LINE
  5
14C22
330
747D
100
AcDbEntity
  8
部品1
 48
5.0
100
AcDbLine
 10
6419.488900113117
 20
8321.919259792048
 30
0.0
 11
6505.488900113117
 21
8321.919259792048
 31
0.0
  0
LINE
  5
14C23
330
747D
100
AcDbEntity
  8
部品1
100
AcDbLine
 10
6406.989470561281
 20
8453.418678972093
 30
0.0
 11
5568.98987153951
 21
8453.41817748357
 31
0.0
  0
LINE
  5
14C24
330
747D
100
AcDbEntity
  8
破線
 48
10.0
100
AcDbLine
 10
6383.48890011311
 20
8476.919259792039
 30
0.0
 11
5592.48890011311
 21
8476.919259792019
 31
0.0
  0
LINE
  5
14C25
330
747D
100
AcDbEntity
  8
部品1
100
AcDbLine
 10
5541.488906790719
 20
8792.419259791982
 30
0.0
 11
6433.488906790717
 21
8792.419259792087
 31
0.0
  0
LINE
  5
14C26
330
747D
100
AcDbEntity
  8
部品1
 48
5.0
100
AcDbLine
 10
5555.488900113117
 20
8351.419259791931
 30
0.0
 11
6438.488900113118
 21
8351.419259791988
 31
0.0
  0
LINE
  5
14C28
330
747D
100
AcDbEntity
  8
部品1
 48
5.0
100
AcDbLine
 10
5568.98987153808
 20
8453.419259792106
 30
0.0
 11
5568.989378606769
 21
8792.419259792019
 31
0.0
  0
LINE
  5
14C29
330
747D
100
AcDbEntity
  8
破線
 48
10.0
100
AcDbLine
 10
5592.488965037824
 20
8792.419259792019
 30
0.0
 11
5592.48890011311
 21
8476.919259792019
 31
0.0
  0
LINE
  5
14C2A
330
747D
100
AcDbEntity
  8
部品1
 48
2.83
100
AcDbLine
 10
5544.488900113117
 20
8376.919259791931
 30
0.0
 11
5567.488900113117
 21
8376.919259791931
 31
0.0
  0
LINE
  5
14C2B
330
747D
100
AcDbEntity
  8
部品1
 48
2.83
100
AcDbLine
 10
5512.488900113117
 20
8376.919259791931
 30
0.0
 11
5535.488900113117
 21
8376.919259791931
 31
0.0
  0
LINE
  5
14C2C
330
747D
100
AcDbEntity
  8
部品1
100
AcDbLine
 10
5540.488900113098
 20
8376.919259791931
 30
0.0
 11
5512.488900113114
 21
8376.919259791931
 31
0.0
  0
LINE
  5
14C2D
330
747D
100
AcDbEntity
  8
部品1
100
AcDbLine
 10
5540.488900113098
 20
8376.919259791963
 30
0.0
 11
5512.488900113114
 21
8376.919259791963
 31
0.0
  0
LINE
  5
14C2E
330
747D
100
AcDbEntity
  8
部品1
100
AcDbLine
 10
5540.488900113114
 20
8376.919259791977
 30
0.0
 11
5512.488900113114
 21
8376.919259791977
 31
0.0
  0
LINE
  5
14C2F
330
747D
100
AcDbEntity
  8
部品1
 48
2.83
100
AcDbLine
 10
5567.488900113116
 20
8376.919259791931
 30
0.0
 11
5567.488900113119
 21
8351.419259791931
 31
0.0
  0
LINE
  5
14C30
330
747D
100
AcDbEntity
  8
部品1
 48
50.0
100
AcDbLine
 10
5568.98987153951
 20
8453.41817748357
 30
0.0
 11
5540.488900113099
 21
8424.399006551105
 31
0.0
  0
LINE
  5
14C31
330
747D
100
AcDbEntity
  8
部品1
100
AcDbLine
 10
5540.488900113096
 20
8796.919259791977
 30
0.0
 11
5512.488900113097
 21
8796.919259791977
 31
0.0
  0
LINE
  5
14C32
330
747D
100
AcDbEntity
  8
破線
 48
10.0
100
AcDbLine
 10
6541.488900113108
 20
8476.919259792065
 30
0.0
 11
6541.488887681999
 21
8792.41925979206
 31
0.0
  0
LINE
  5
14C33
330
747D
100
AcDbEntity
  8
部品1
 48
50.0
100
AcDbLine
 10
6517.988893768815
 20
8453.419259816717
 30
0.0
 11
6517.988896741679
 21
8792.41925979206
 31
0.0
  0
LINE
  5
14C34
330
747D
100
AcDbEntity
  8
破線
 48
10.0
100
AcDbLine
 10
6383.48890011311
 20
8476.919259792055
 30
0.0
 11
6383.488891758556
 21
8792.419259792112
 31
0.0
  0
LINE
  5
14C35
330
747D
100
AcDbEntity
  8
部品1
 48
50.0
100
AcDbLine
 10
6406.9889001131
 20
8453.419259792058
 30
0.0
 11
6406.988900113077
 21
8792.419259792113
 31
0.0
  0
LINE
  5
14C36
330
747D
100
AcDbEntity
  8
部品1
 48
50.0
100
AcDbLine
 10
5986.988900113108
 20
8792.419259792035
 30
0.0
 11
5986.988737241005
 21
8453.418427628838
 31
0.0
  0
LINE
  5
14C37
330
747D
100
AcDbEntity
  8
部品1
 48
5.0
100
AcDbLine
 10
6517.488900113118
 20
8376.919259792048
 30
0.0
 11
6517.488900113119
 21
8351.419259792049
 31
0.0
  0
LINE
  5
14C38
330
747D
100
AcDbEntity
  8
部品1
 48
5.0
100
AcDbLine
 10
6486.488900113119
 20
8376.919259792048
 30
0.0
 11
6486.488900113117
 21
8351.419259792049
 31
0.0
  0
LINE
  5
14C39
330
747D
100
AcDbEntity
  8
部品1
 48
5.0
100
AcDbLine
 10
6438.488900113118
 20
8376.919259792048
 30
0.0
 11
6438.488900113118
 21
8351.419259792049
 31
0.0
  0
LINE
  5
14C3A
330
747D
100
AcDbEntity
  8
部品1
 48
5.0
100
AcDbLine
 10
6434.488900113102
 20
8376.919259792048
 30
0.0
 11
6490.488900113103
 21
8376.919259792048
 31
0.0
  0
LINE
  5
14C3B
330
747D
100
AcDbEntity
  8
部品1
 48
5.0
100
AcDbLine
 10
6494.488900113117
 20
8376.919259792048
 30
0.0
 11
6517.488900113118
 21
8376.919259792048
 31
0.0
  0
LINE
  5
14C3C
330
747D
100
AcDbEntity
  8
部品1
 48
50.0
100
AcDbLine
 10
6517.9889001131
 20
8453.419259816719
 30
0.0
 11
6490.488900113103
 21
8425.419259792048
 31
0.0
  0
LINE
  5
14C3D
330
747D
100
AcDbEntity
  8
部品1
 48
5.0
100
AcDbLine
 10
6407.488900113119
 20
8376.919259792051
 30
0.0
 11
6407.488900113119
 21
8351.419259792049
 31
0.0
  0
LINE
  5
14C3E
330
747D
100
AcDbEntity
  8
部品1
 48
5.0
100
AcDbLine
 10
6430.488900113117
 20
8376.919259792048
 30
0.0
 11
6407.488900113115
 21
8376.919259792048
 31
0.0
  0
LINE
  5
14C3F
330
747D
100
AcDbEntity
  8
部品1
 48
50.0
100
AcDbLine
 10
6434.488900113102
 20
8425.419259792048
 30
0.0
 11
6406.9889001131
 21
8453.419259792058
 31
0.0
  0
LINE
  5
14C40
330
747D
100
AcDbEntity
  8
部品1
 48
5.0
100
AcDbLine
 10
6462.488900113102
 20
8796.919259792053
 30
0.0
 11
6434.488900113049
 21
8796.919259792058
 31
0.0
  0
LINE
  5
14C41
330
747D
100
AcDbEntity
  8
部品1
 48
50.0
100
AcDbLine
 10
6462.488900113093
 20
8796.919259792058
 30
0.0
 11
6490.488900113077
 21
8796.91925979206
 31
0.0
  0
LINE
  5
14C42
330
747D
100
AcDbEntity
  8
部品1
 48
50.0
100
AcDbLine
 10
6462.488900113093
 20
8834.919259792057
 30
0.0
 11
6490.488900113077
 21
8834.919259792059
 31
0.0
  0
DIMENSION
  5
14C43
330
747D
100
AcDbEntity
  8
寸法
100
AcDbDimension
  2
*D6
 10
5567.488900113122
 20
9487.727479416992
 30
0.0
 11
5204.003618738848
 21
9487.727479416992
 31
0.0
 70
   160
 71
     5
 42
55.00000000003456
  3
INABA_S40G
100
AcDbAlignedDimension
 13
5512.488900113088
 23
9271.91925979201
 33
0.0
 14
5567.488900113122
 24
9271.91925979201
 34
0.0
100
AcDbRotatedDimension
1001
ACAD
1000
DSTYLE
1002
{
1002
}
  0
LINE
  5
14C44
330
747D
100
AcDbEntity
  8
部品1
100
AcDbLine
 10
5540.488900113122
 20
9243.91925979201
 30
0.0
 11
6459.869603131744
 21
9243.919259792034
 31
0.0
  0
LINE
  5
14C45
330
747D
100
AcDbEntity
  8
部品1
100
AcDbLine
 10
5541.488906790717
 20
9242.419259791985
 30
0.0
 11
6433.488906790718
 21
9242.419259792091
 31
0.0
  0
DIMENSION
  5
14C46
330
747D
100
AcDbEntity
  8
寸法
100
AcDbDimension
  2
*D7
 10
6407.488900113121
 20
9487.727479417108
 30
0.0
 11
5987.488900113121
 21
9487.727479417108
 31
0.0
 70
   160
  1
2X420=<>
 71
     5
 42
839.9999999999991
  3
INABA_S40G
100
AcDbAlignedDimension
 13
5567.488900113122
 23
9271.919259792042
 33
0.0
 14
6407.488900113121
 24
9271.919259792131
 34
0.0
100
AcDbRotatedDimension
1001
ACAD
1000
DSTYLE
1002
{
1002
}
  0
LINE
  5
14C47
330
747D
100
AcDbEntity
  8
部品1
100
AcDbLine
 10
5540.488900113089
 20
9216.919259791982
 30
0.0
 11
5512.48890011309
 21
9216.919259791982
 31
0.0
  0
LINE
  5
14C48
330
747D
100
AcDbEntity
  8
部品1
100
AcDbLine
 10
5567.488900113088
 20
9271.919259791976
 30
0.0
 11
5567.48890011309
 21
9243.919259791978
 31
0.0
  0
LINE
  5
14C49
330
747D
100
AcDbEntity
  8
部品1
100
AcDbLine
 10
5567.488900113122
 20
9271.91925979201
 30
0.0
 11
5567.488900113122
 21
9243.91925979201
 31
0.0
  0
LINE
  5
14C4A
330
747D
100
AcDbEntity
  8
部品1
 48
50.0
100
AcDbLine
 10
5541.988906790711
 20
9242.419259791985
 30
0.0
 11
5540.488900113087
 21
9243.919259791978
 31
0.0
  0
DIMENSION
  5
14C4B
330
747D
100
AcDbEntity
  8
寸法
 48
50.0
100
AcDbDimension
  2
*D8
 10
6517.488900113125
 20
9487.727479417108
 30
0.0
 11
6462.488900113124
 21
9756.192343046501
 31
0.0
 70
   160
 71
     5
 42
110.0000000000036
  3
INABA_S40G
100
AcDbAlignedDimension
 13
6407.488900113121
 23
9271.919259792131
 33
0.0
 14
6517.488900113125
 24
9271.919259792108
 34
0.0
100
AcDbRotatedDimension
1001
ACAD
1000
DSTYLE
1002
{
1070
   279
1070
     2
1002
}
  0
LINE
  5
14C4C
330
747D
100
AcDbEntity
  8
部品1
100
AcDbLine
 10
5986.988900113088
 20
9271.919259792005
 30
0.0
 11
5986.988900113088
 21
9243.919259792004
 31
0.0
  0
LINE
  5
14C4D
330
747D
100
AcDbEntity
  8
部品1
100
AcDbLine
 10
5986.988900113053
 20
9271.919259791971
 30
0.0
 11
5986.988900113055
 21
9243.919259791971
 31
0.0
  0
LINE
  5
14C4E
330
747D
100
AcDbEntity
  8
部品1
 48
50.0
100
AcDbLine
 10
6491.988906790712
 20
9242.419259791985
 30
0.0
 11
6490.488900113088
 21
9243.919259791978
 31
0.0
  0
LINE
  5
14C4F
330
747D
100
AcDbEntity
  8
部品1
 48
5.0
100
AcDbLine
 10
6517.488900113125
 20
9271.91925979206
 30
0.0
 11
6517.488900113119
 21
9243.919259792061
 31
0.0
  0
LINE
  5
14C50
330
747D
100
AcDbEntity
  8
部品1
 48
5.0
100
AcDbLine
 10
6437.198174560297
 20
9271.919259792055
 30
0.0
 11
6459.869603131725
 21
9243.919259792058
 31
0.0
  0
LINE
  5
14C51
330
747D
100
AcDbEntity
  8
部品1
 48
5.0
100
AcDbLine
 10
6490.488900113049
 20
9216.919259792057
 30
0.0
 11
6434.488900113049
 21
9216.919259792057
 31
0.0
  0
LINE
  5
14C52
330
747D
100
AcDbEntity
  8
部品1
 48
50.0
100
AcDbLine
 10
6433.041507601139
 20
9242.419259792091
 30
0.0
 11
6434.488900113014
 21
9243.919259792022
 31
0.0
  0
LINE
  5
14C53
330
747D
100
AcDbEntity
  8
部品1
 48
5.0
100
AcDbLine
 10
6407.488900113121
 20
9243.919259792054
 30
0.0
 11
6407.488900113121
 21
9271.919259792055
 31
0.0
  0
LINE
  5
14C54
330
747D
100
AcDbEntity
  8
部品1
 48
50.0
100
AcDbLine
 10
7383.488906790718
 20
9242.419259792086
 30
0.0
 11
7383.488906790718
 21
8792.419259792087
 31
0.0
  0
LINE
  5
14C55
330
747D
100
AcDbEntity
  8
部品1
 48
50.0
100
AcDbLine
 10
7383.488906790718
 20
9242.419259792086
 30
0.0
 11
7383.488906790718
 21
8792.419259792087
 31
0.0
  0
LINE
  5
14C56
330
747D
100
AcDbEntity
  8
部品1
 48
50.0
100
AcDbLine
 10
7384.488900113102
 20
8376.919259792048
 30
0.0
 11
7384.488900113048
 21
9243.919259792058
 31
0.0
  0
LINE
  5
14C57
330
747D
100
AcDbEntity
  8
部品1
100
AcDbLine
 10
7412.488900113124
 20
9271.919259792104
 30
0.0
 11
7412.488900113098
 21
8321.919259792094
 31
0.0
  0
LINE
  5
14C58
330
747D
100
AcDbEntity
  8
部品1
100
AcDbLine
 10
7384.488900113123
 20
9243.919259792106
 30
0.0
 11
7384.488900113099
 21
8376.91925979209
 31
0.0
  0
DIMENSION
  5
14C59
330
747D
100
AcDbEntity
  8
寸法
100
AcDbDimension
  2
*D9
 10
7738.846632652758
 20
8697.201444123093
 30
0.0
 11
7738.846632652756
 21
8922.201444123089
 31
0.0
 70
   160
 71
     5
 42
449.9999999999963
  3
INABA_S40G
100
AcDbAlignedDimension
 13
7383.488906790731
 23
9242.419259791978
 33
0.0
 14
7383.488906790741
 24
8792.419259791982
 34
0.0
 50
90.0
100
AcDbRotatedDimension
1001
ACAD
1000
DSTYLE
1002
{
1002
}
  0
DIMENSION
  5
14C5A
330
747D
100
AcDbEntity
  8
寸法
100
AcDbDimension
  2
*D10
 10
8369.026776663211
 20
8321.919259792094
 30
0.0
 11
8369.02677666321
 21
8795.896978351013
 31
0.0
 70
   160
 71
     5
 42
950.000000000011
  3
INABA_S40G
100
AcDbAlignedDimension
 13
7412.488900113124
 23
9271.919259792104
 33
0.0
 14
7412.488900113098
 24
8321.919259792094
 34
0.0
 50
90.0
100
AcDbRotatedDimension
1001
ACAD
1000
DSTYLE
1002
{
1002
}
  0
DIMENSION
  5
14C5B
330
747D
100
AcDbEntity
  8
寸法
100
AcDbDimension
  2
*D11
 10
8059.915245847534
 20
8376.91925979209
 30
0.0
 11
8059.915245847532
 21
8796.919259792101
 31
0.0
 70
   160
  1
2X420=<>
 71
     5
 42
840.0000000000181
  3
INABA_S40G
100
AcDbAlignedDimension
 13
7412.488900113124
 23
9216.919259792108
 33
0.0
 14
7412.488900113098
 24
8376.91925979209
 34
0.0
 50
90.0
100
AcDbRotatedDimension
1001
ACAD
1000
DSTYLE
1002
{
1002
}
  0
DIMENSION
  5
14C5C
330
747D
100
AcDbEntity
  8
寸法
100
AcDbDimension
  2
*D12
 10
8059.915245847534
 20
9216.919259792108
 30
0.0
 11
8059.915245847532
 21
9580.404541166345
 31
0.0
 70
   160
 71
     5
 42
54.99999999999636
  3
INABA_S40G
100
AcDbAlignedDimension
 13
7412.488900113124
 23
9271.919259792104
 33
0.0
 14
7412.488900113124
 24
9216.919259792108
 34
0.0
 50
90.0
100
AcDbRotatedDimension
1001
ACAD
1000
DSTYLE
1002
{
1002
}
  0
DIMENSION
  5
14C5D
330
747D
100
AcDbEntity
  8
寸法
100
AcDbDimension
  2
*D13
 10
8059.915245847509
 20
8321.919259792094
 30
0.0
 11
8059.915245847507
 21
7944.057792887234
 31
0.0
 70
   160
 71
     5
 42
54.99999999999636
  3
INABA_S40G
100
AcDbAlignedDimension
 13
7412.488900113098
 23
8376.91925979209
 33
0.0
 14
7412.488900113098
 24
8321.919259792094
 34
0.0
 50
90.0
100
AcDbRotatedDimension
1001
ACAD
1000
DSTYLE
1002
{
1002
}
  0
LINE
  5
14C5E
330
747D
100
AcDbEntity
  8
部品1
100
AcDbLine
 10
7369.488900113116
 20
8351.419259791994
 30
0.0
 11
7369.488900113113
 21
8321.919259792043
 31
0.0
  0
LINE
  5
14C5F
330
747D
100
AcDbEntity
  8
部品1
 48
5.0
100
AcDbLine
 10
7369.488900113117
 20
8351.419259792049
 30
0.0
 11
7369.488900113117
 21
8321.919259792048
 31
0.0
  0
LINE
  5
14C60
330
747D
100
AcDbEntity
  8
部品1
 48
5.0
100
AcDbLine
 10
7239.488900113117
 20
8351.419259792049
 30
0.0
 11
7239.488900113117
 21
8321.919259792048
 31
0.0
  0
LINE
  5
14C61
330
747D
100
AcDbEntity
  8
部品1
 48
2.83
100
AcDbLine
 10
7369.488900113097
 20
8351.419259792063
 30
0.0
 11
7369.488900113097
 21
8321.919259792062
 31
0.0
  0
LINE
  5
14C62
330
747D
100
AcDbEntity
  8
想像線
 48
10.0
100
AcDbLine
 10
7237.488900113115
 20
8321.919259792048
 30
0.0
 11
7237.488900113115
 21
7601.001616136257
 31
0.0
  0
LINE
  5
14C63
330
747D
100
AcDbEntity
  8
部品1
100
AcDbLine
 10
7237.488900113115
 20
8347.919259792101
 30
0.0
 11
7237.488900113115
 21
8321.919259792045
 31
0.0
  0
ARC
  5
14C64
330
747D
100
AcDbEntity
  8
部品1
 48
0.2
100
AcDbCircle
 10
7224.551347941794
 20
8322.916889747268
 30
0.0
 40
8.0
100
AcDbArc
 50
187.1636477221926
 51
269.9999999999992
  0
LINE
  5
14C65
330
747D
100
AcDbEntity
  8
部品1
 48
0.2
100
AcDbLine
 10
7224.551347941794
 20
8314.916889747268
 30
0.0
 11
7229.551347941795
 21
8314.916889747268
 31
0.0
  0
ARC
  5
14C66
330
747D
100
AcDbEntity
  8
細線
 48
0.2
100
AcDbCircle
 10
7229.551347941795
 20
8322.916889747268
 30
0.0
 40
4.049999999999999
100
AcDbArc
 50
194.2603506853988
 51
345.7396493146012
  0
ARC
  5
14C67
330
747D
100
AcDbEntity
  8
部品1
 48
0.2
100
AcDbCircle
 10
7229.551347941795
 20
8322.916889747268
 30
0.0
 40
8.0
100
AcDbArc
 50
270.0
 51
352.8363522778074
  0
LINE
  5
14C68
330
747D
100
AcDbEntity
  8
部品1
 48
50.0
100
AcDbLine
 10
6936.988900113108
 20
8792.419259792035
 30
0.0
 11
6936.988737241005
 21
8453.418427628838
 31
0.0
  0
LINE
  5
14C69
330
747D
100
AcDbEntity
  8
破線
 48
10.0
100
AcDbLine
 10
7333.48890011311
 20
8476.919259792055
 30
0.0
 11
7333.488891758557
 21
8792.419259792112
 31
0.0
  0
LINE
  5
14C6A
330
747D
100
AcDbEntity
  8
部品1
 48
50.0
100
AcDbLine
 10
7356.9889001131
 20
8453.419259792058
 30
0.0
 11
7356.988900113077
 21
8792.419259792113
 31
0.0
  0
LINE
  5
14C6B
330
747D
100
AcDbEntity
  8
部品1
 48
5.0
100
AcDbLine
 10
7380.488900113117
 20
8376.919259792048
 30
0.0
 11
7357.488900113115
 21
8376.919259792048
 31
0.0
  0
LINE
  5
14C6C
330
747D
100
AcDbEntity
  8
部品1
 48
5.0
100
AcDbLine
 10
7357.488900113118
 20
8376.919259792051
 30
0.0
 11
7357.488900113118
 21
8351.419259792049
 31
0.0
  0
LINE
  5
14C6D
330
747D
100
AcDbEntity
  8
部品1
 48
5.0
100
AcDbLine
 10
7388.488900113118
 20
8376.919259792048
 30
0.0
 11
7388.488900113118
 21
8351.419259792049
 31
0.0
  0
LINE
  5
14C6E
330
747D
100
AcDbEntity
  8
部品1
 48
2.83
100
AcDbLine
 10
7357.488900113098
 20
8376.91925979206
 30
0.0
 11
7357.488900113096
 21
8351.419259792063
 31
0.0
  0
LINE
  5
14C6F
330
747D
100
AcDbEntity
  8
部品1
 48
2.83
100
AcDbLine
 10
7380.488900113097
 20
8376.919259792064
 30
0.0
 11
7357.488900113096
 21
8376.91925979206
 31
0.0
  0
LINE
  5
14C70
330
747D
100
AcDbEntity
  8
部品1
 48
50.0
100
AcDbLine
 10
7384.488900113102
 20
8425.419259792048
 30
0.0
 11
7356.9889001131
 21
8453.419259792058
 31
0.0
  0
LINE
  5
14C71
330
747D
100
AcDbEntity
  8
部品1
 48
2.83
100
AcDbLine
 10
7412.488900113096
 20
8376.91925979206
 30
0.0
 11
7389.488900113097
 21
8376.919259792064
 31
0.0
  0
LINE
  5
14C72
330
747D
100
AcDbEntity
  8
部品1
100
AcDbLine
 10
7384.488900113099
 20
8376.91925979209
 30
0.0
 11
7412.488900113098
 21
8376.91925979209
 31
0.0
  0
LINE
  5
14C73
330
747D
100
AcDbEntity
  8
部品1
100
AcDbLine
 10
7384.48890011313
 20
8376.919259792108
 30
0.0
 11
7412.488900113131
 21
8376.919259792108
 31
0.0
  0
LINE
  5
14C74
330
747D
100
AcDbEntity
  8
部品1
100
AcDbLine
 10
7384.488900113123
 20
8796.919259792108
 30
0.0
 11
7412.488900113124
 21
8796.919259792108
 31
0.0
  0
DIMENSION
  5
14C75
330
747D
100
AcDbEntity
  8
寸法
100
AcDbDimension
  2
*D14
 10
7412.488900113124
 20
9487.727479417086
 30
0.0
 11
7720.974181487362
 21
9487.727479417086
 31
0.0
 70
   160
 71
     5
 42
55.0
  3
INABA_S40G
100
AcDbAlignedDimension
 13
7357.488900113124
 23
9271.919259792104
 33
0.0
 14
7412.488900113124
 24
9271.919259792104
 34
0.0
100
AcDbRotatedDimension
1001
ACAD
1000
DSTYLE
1002
{
1002
}
  0
LINE
  5
14C76
330
747D
100
AcDbEntity
  8
部品1
100
AcDbLine
 10
6936.988900113053
 20
9271.919259791971
 30
0.0
 11
6936.988900113054
 21
9243.919259791971
 31
0.0
  0
LINE
  5
14C77
330
747D
100
AcDbEntity
  8
部品1
100
AcDbLine
 10
6936.988900113089
 20
9271.919259792005
 30
0.0
 11
6936.988900113089
 21
9243.919259792004
 31
0.0
  0
LINE
  5
14C78
330
747D
100
AcDbEntity
  8
部品1
 48
5.0
100
AcDbLine
 10
7357.488900113121
 20
9243.919259792054
 30
0.0
 11
7357.488900113121
 21
9271.919259792055
 31
0.0
  0
LINE
  5
14C79
330
747D
100
AcDbEntity
  8
部品1
 48
50.0
100
AcDbLine
 10
7383.041507601139
 20
9242.419259792091
 30
0.0
 11
7384.488900113014
 21
9243.919259792022
 31
0.0
  0
LINE
  5
14C7A
330
747D
100
AcDbEntity
  8
部品1
 48
50.0
100
AcDbLine
 10
7383.041507601139
 20
9242.419259792091
 30
0.0
 11
7384.488900113014
 21
9243.919259792022
 31
0.0
  0
LINE
  5
14C7B
330
747D
100
AcDbEntity
  8
部品1
100
AcDbLine
 10
7357.488900113124
 20
9271.919259792104
 30
0.0
 11
7357.488900113124
 21
9243.919259792106
 31
0.0
  0
LINE
  5
14C7C
330
747D
100
AcDbEntity
  8
部品1
100
AcDbLine
 10
7357.488900113124
 20
9271.919259792124
 30
0.0
 11
7357.488900113124
 21
9243.919259792123
 31
0.0
  0
LINE
  5
14C7D
330
747D
100
AcDbEntity
  8
部品1
100
AcDbLine
 10
7384.488900113123
 20
9216.919259792108
 30
0.0
 11
7412.488900113124
 21
9216.919259792108
 31
0.0
  0
LINE
  5
14E95
330
747D
100
AcDbEntity
  8
細線
 48
50.0
100
AcDbLine
 10
6134.488900113105
 20
8347.919259792284
 30
0.0
 11
6134.488900113105
 21
8321.919259792249
 31
0.0
  0
LINE
  5
14E96
330
747D
100
AcDbEntity
  8
細線
 48
50.0
100
AcDbLine
 10
6094.488900113105
 20
8347.919259792284
 30
0.0
 11
6094.488900113105
 21
8321.919259792249
 31
0.0
  0
LINE
  5
14E9A
330
747D
100
AcDbEntity
  8
細線
 48
50.0
100
AcDbLine
 10
7044.488900113106
 20
8347.919259792284
 30
0.0
 11
7044.488900113106
 21
8321.919259792249
 31
0.0
  0
LINE
  5
14E9B
330
747D
100
AcDbEntity
  8
細線
 48
50.0
100
AcDbLine
 10
7084.488900113107
 20
8347.919259792284
 30
0.0
 11
7084.488900113107
 21
8321.919259792249
 31
0.0
  0
DIMENSION
  5
14F43
330
747D
100
AcDbEntity
  8
寸法
 48
50.0
100
AcDbDimension
  2
*D15
 10
6252.488900113115
 20
7882.095591996925
 30
0.0
 11
5909.988900113118
 21
7882.095591996925
 31
0.0
 70
   160
 71
     5
 42
684.9999999999954
  3
INABA_S40G
100
AcDbAlignedDimension
 13
5567.48890011312
 23
8321.919259792002
 33
0.0
 14
6252.488900113115
 24
8321.919259791966
 34
0.0
100
AcDbRotatedDimension
  0
DIMENSION
  5
14F93
330
747D
100
AcDbEntity
  8
寸法
100
AcDbDimension
  2
*D16
 10
6374.795410496754
 20
8573.372149548998
 30
0.0
 11
6032.614721566642
 21
8676.656264941994
 31
0.0
 70
   160
 71
     5
 42
892.0000000000118
  3
INABA_S40G
100
AcDbAlignedDimension
 13
5541.48890679072
 23
8792.419259791982
 33
0.0
 14
6433.488906790731
 24
8792.419259791977
 34
0.0
100
AcDbRotatedDimension
1001
ACAD
1000
DSTYLE
1002
{
1070
   279
1070
     2
1002
}
  0
LINE
  5
1536A
330
747D
100
AcDbEntity
  8
仕様書枠
 48
50.0
100
AcDbLine
 10
16307.2
 20
10899.6
 30
0.0
 11
13127.2
 21
10899.6
 31
0.0
  0
MTEXT
  5
15398
330
747D
100
AcDbEntity
  8
寸法
 62
     7
 48
50.0
100
AcDbMText
 10
6952.768704401359
 20
8862.033007329268
 30
0.0
 40
96.0
 41
0.0
 71
     5
 72
     1
  1
棚 2段
  7
STYLE1
 73
     1
 44
1.0
1001
ACAD
1000
MTEXTBEGIN
1070
    73
1070
     1
1070
    44
1040
1.0
1070
    74
1070
     0
1000
MTEXTEND
  0
MTEXT
  5
15399
330
747D
100
AcDbEntity
  8
寸法
 62
     7
 48
50.0
100
AcDbMText
 10
6002.03710295635
 20
8862.03300732928
 30
0.0
 40
96.0
 41
0.0
 71
     5
 72
     1
  1
棚 2段
  7
STYLE1
 73
     1
 44
1.0
1001
ACAD
1000
MTEXTBEGIN
1070
    73
1070
     1
1070
    44
1040
1.0
1070
    74
1070
     0
1000
MTEXTEND
  0
TEXT
  5
153B6
330
747D
100
AcDbEntity
  8
文字
 62
     7
 48
50.0
100
AcDbText
 10
13583.11819016569
 20
9910.01374588373
 30
0.0
 40
100.0
  1
梁中央
 41
0.9
  7
STYLE1
100
AcDbText
  0
TEXT
  5
153B7
330
747D
100
AcDbEntity
  8
文字
 62
     7
 48
50.0
100
AcDbText
 10
15022.63965474516
 20
9910.01374588373
 30
0.0
 40
100.0
  1
F12,Y10       0.7+1.0
  7
STYLE1
100
AcDbText
  0
TEXT
  5
153B8
330
747D
100
AcDbEntity
  8
文字
 62
     7
 48
50.0
100
AcDbText
 10
13583.11819016567
 20
8890.013745883729
 30
0.0
 40
100.0
  1
アンカープレート
  7
STYLE1
100
AcDbText
  0
TEXT
  5
153B9
330
747D
100
AcDbEntity
  8
文字
 62
     7
 48
50.0
100
AcDbText
 10
15022.63965474513
 20
8890.013745883722
 30
0.0
 40
100.0
  1
F12            2.3
  7
STYLE1
100
AcDbText
  0
LINE
  5
153BA
330
747D
100
AcDbEntity
  8
仕様書枠
 48
50.0
100
AcDbLine
 10
16307.2
 20
9879.600000000001
 30
0.0
 11
13127.2
 21
9879.600000000001
 31
0.0
  0
LINE
  5
153BB
330
747D
100
AcDbEntity
  8
仕様書枠
 48
50.0
100
AcDbLine
 10
16307.19999999999
 20
11409.6
 30
0.0
 11
13127.2
 21
11409.6
 31
0.0
  0
LINE
  5
153BC
330
747D
100
AcDbEntity
  8
仕様書枠
 48
50.0
100
AcDbLine
 10
16307.19999999999
 20
8179.600000000004
 30
0.0
 11
16307.2
 21
11409.6
 31
0.0
  0
LINE
  5
153BD
330
747D
100
AcDbEntity
  8
仕様書枠
 48
50.0
100
AcDbLine
 10
14785.2
 20
11409.59999999999
 30
0.0
 11
14785.19999999999
 21
8689.599999999998
 31
0.0
  0
LINE
  5
153BE
330
747D
100
AcDbEntity
  8
仕様書枠
 48
50.0
100
AcDbLine
 10
13490.2
 20
11409.6
 30
0.0
 11
13490.2
 21
8689.6
 31
0.0
  0
LINE
  5
153BF
330
747D
100
AcDbEntity
  8
仕様書枠
 48
50.0
100
AcDbLine
 10
16307.19999999999
 20
11239.6
 30
0.0
 11
13127.2
 21
11239.6
 31
0.0
  0
LINE
  5
153C0
330
747D
100
AcDbEntity
  8
仕様書枠
 48
50.0
100
AcDbLine
 10
16307.2
 20
10729.6
 30
0.0
 11
13127.2
 21
10729.6
 31
0.0
  0
LINE
  5
153C1
330
747D
100
AcDbEntity
  8
仕様書枠
 48
50.0
100
AcDbLine
 10
16307.19999999999
 20
11069.6
 30
0.0
 11
13127.2
 21
11069.6
 31
0.0
  0
LINE
  5
153C2
330
747D
100
AcDbEntity
  8
仕様書枠
 48
50.0
100
AcDbLine
 10
16307.19999999999
 20
10389.6
 30
0.0
 11
13127.2
 21
10389.6
 31
0.0
  0
LINE
  5
153C3
330
747D
100
AcDbEntity
  8
仕様書枠
 48
50.0
100
AcDbLine
 10
16307.19999999999
 20
10219.6
 30
0.0
 11
13127.2
 21
10219.6
 31
0.0
  0
LINE
  5
153C4
330
747D
100
AcDbEntity
  8
仕様書枠
 48
50.0
100
AcDbLine
 10
16307.19999999999
 20
10559.6
 30
0.0
 11
13127.2
 21
10559.6
 31
0.0
  0
TEXT
  5
153C5
330
747D
100
AcDbEntity
  8
文字
 62
     7
 48
50.0
100
AcDbText
 10
13197.42518560407
 20
11270.01374588373
 30
0.0
 40
100.0
  1
品番
  7
STYLE1
100
AcDbText
  0
TEXT
  5
153C6
330
747D
100
AcDbEntity
  8
文字
 62
     7
 48
50.0
100
AcDbText
 10
13271.19032244792
 20
11100.01374588373
 30
0.0
 40
100.0
  1
1
  7
STYLE1
100
AcDbText
  0
TEXT
  5
153C7
330
747D
100
AcDbEntity
  8
文字
 62
     7
 48
50.0
100
AcDbText
 10
13271.19032244792
 20
10930.01374588373
 30
0.0
 40
100.0
  1
2
  7
STYLE1
100
AcDbText
  0
TEXT
  5
153C8
330
747D
100
AcDbEntity
  8
文字
 62
     7
 48
50.0
100
AcDbText
 10
13271.19032244793
 20
10590.01374588373
 30
0.0
 40
100.0
  1
4
  7
STYLE1
100
AcDbText
  0
TEXT
  5
153C9
330
747D
100
AcDbEntity
  8
文字
 62
     7
 48
50.0
100
AcDbText
 10
13271.19032244793
 20
10760.01374588373
 30
0.0
 40
100.0
  1
3
  7
STYLE1
100
AcDbText
  0
TEXT
  5
153CA
330
747D
100
AcDbEntity
  8
文字
 62
     7
 48
50.0
100
AcDbText
 10
13732.03840939434
 20
11270.01374588373
 30
0.0
 40
100.0
  1
部　　品　　名
  7
STYLE1
100
AcDbText
  0
TEXT
  5
153CB
330
747D
100
AcDbEntity
  8
文字
 62
     7
 48
50.0
100
AcDbText
 10
14859.79774614482
 20
11270.01374588373
 30
0.0
 40
100.0
  1
材料（材質）　　単位mm
  7
STYLE1
100
AcDbText
  0
TEXT
  5
153CC
330
747D
100
AcDbEntity
  8
文字
 62
     7
 48
50.0
100
AcDbText
 10
13583.11819016569
 20
11100.01374588373
 30
0.0
 40
100.0
  1
土台枠
  7
STYLE1
100
AcDbText
  0
TEXT
  5
153CD
330
747D
100
AcDbEntity
  8
文字
 62
     7
 48
50.0
100
AcDbText
 10
13583.11819016569
 20
10930.01374588373
 30
0.0
 40
100.0
  1
柱
  7
STYLE1
100
AcDbText
  0
TEXT
  5
153CE
330
747D
100
AcDbEntity
  8
文字
 62
     7
 48
50.0
100
AcDbText
 10
13583.11819016569
 20
10590.01374588373
 30
0.0
 40
100.0
  1
鴨居
  7
STYLE1
100
AcDbText
  0
TEXT
  5
153CF
330
747D
100
AcDbEntity
  8
文字
 62
     7
 48
50.0
100
AcDbText
 10
13583.11819016569
 20
10420.01374588373
 30
0.0
 40
100.0
  1
桁後
  7
STYLE1
100
AcDbText
  0
TEXT
  5
153D0
330
747D
100
AcDbEntity
  8
文字
 62
     7
 48
50.0
100
AcDbText
 10
13271.19032244793
 20
10420.01374588373
 30
0.0
 40
100.0
  1
5
  7
STYLE1
100
AcDbText
  0
TEXT
  5
153D1
330
747D
100
AcDbEntity
  8
文字
 62
     7
 48
50.0
100
AcDbText
 10
13583.11819016569
 20
10250.01374588373
 30
0.0
 40
100.0
  1
妻板左右
  7
STYLE1
100
AcDbText
  0
TEXT
  5
153D2
330
747D
100
AcDbEntity
  8
文字
 62
     7
 48
50.0
100
AcDbText
 10
13248.77747366447
 20
9570.013745883729
 30
0.0
 40
100.0
  1
10
  7
STYLE1
100
AcDbText
  0
TEXT
  5
153D3
330
747D
100
AcDbEntity
  8
文字
 62
     7
 48
50.0
100
AcDbText
 10
13583.11819016568
 20
9570.013745883729
 30
0.0
 40
100.0
  1
壁パネル
  7
STYLE1
100
AcDbText
  0
TEXT
  5
153D4
330
747D
100
AcDbEntity
  8
文字
 62
     7
 48
50.0
100
AcDbText
 10
13583.11819016568
 20
9740.013745883729
 30
0.0
 40
100.0
  1
屋根パネル
  7
STYLE1
100
AcDbText
  0
TEXT
  5
153D5
330
747D
100
AcDbEntity
  8
文字
 62
     7
 48
50.0
100
AcDbText
 10
13583.11819016569
 20
10080.01374588373
 30
0.0
 40
100.0
  1
鼻隠シ前後
  7
STYLE1
100
AcDbText
  0
TEXT
  5
153D6
330
747D
100
AcDbEntity
  8
文字
 62
     7
 48
50.0
100
AcDbText
 10
13271.19032244792
 20
9910.01374588373
 30
0.0
 40
100.0
  1
8
  7
STYLE1
100
AcDbText
  0
TEXT
  5
153D7
330
747D
100
AcDbEntity
  8
文字
 62
     7
 48
50.0
100
AcDbText
 10
13271.19032244792
 20
9740.013745883729
 30
0.0
 40
100.0
  1
9
  7
STYLE1
100
AcDbText
  0
TEXT
  5
153D8
330
747D
100
AcDbEntity
  8
文字
 62
     7
 48
50.0
100
AcDbText
 10
13271.19032244792
 20
10080.01374588373
 30
0.0
 40
100.0
  1
7
  7
STYLE1
100
AcDbText
  0
TEXT
  5
153D9
330
747D
100
AcDbEntity
  8
文字
 62
     7
 48
50.0
100
AcDbText
 10
13271.19032244793
 20
10250.01374588373
 30
0.0
 40
100.0
  1
6
  7
STYLE1
100
AcDbText
  0
LINE
  5
153DA
330
747D
100
AcDbEntity
  8
仕様書枠
 48
50.0
100
AcDbLine
 10
16307.19999999998
 20
9369.600000000001
 30
0.0
 11
13127.19999999999
 21
9369.600000000001
 31
0.0
  0
LINE
  5
153DB
330
747D
100
AcDbEntity
  8
仕様書枠
 48
50.0
100
AcDbLine
 10
16307.19999999998
 20
9029.6
 30
0.0
 11
13127.19999999999
 21
9029.6
 31
0.0
  0
LINE
  5
153DC
330
747D
100
AcDbEntity
  8
仕様書枠
 48
50.0
100
AcDbLine
 10
16307.19999999998
 20
9199.600000000001
 30
0.0
 11
13127.19999999999
 21
9199.600000000001
 31
0.0
  0
LINE
  5
153DD
330
747D
100
AcDbEntity
  8
仕様書枠
 48
50.0
100
AcDbLine
 10
16307.2
 20
10049.6
 30
0.0
 11
13127.2
 21
10049.6
 31
0.0
  0
LINE
  5
153DE
330
747D
100
AcDbEntity
  8
仕様書枠
 48
50.0
100
AcDbLine
 10
16307.2
 20
9709.600000000001
 30
0.0
 11
13127.2
 21
9709.600000000001
 31
0.0
  0
TEXT
  5
153DF
330
747D
100
AcDbEntity
  8
文字
 62
     7
 48
50.0
100
AcDbText
 10
13248.77747366447
 20
9400.013745883729
 30
0.0
 40
100.0
  1
11
  7
STYLE1
100
AcDbText
  0
LINE
  5
153E0
330
747D
100
AcDbEntity
  8
仕様書枠
 48
50.0
100
AcDbLine
 10
16307.19999999998
 20
8859.6
 30
0.0
 11
13127.19999999999
 21
8859.6
 31
0.0
  0
LINE
  5
153E1
330
747D
100
AcDbEntity
  8
仕様書枠
 48
50.0
100
AcDbLine
 10
16307.19999999998
 20
8179.600000000004
 30
0.0
 11
13127.19999999999
 21
8179.600000000007
 31
0.0
  0
TEXT
  5
153E2
330
747D
100
AcDbEntity
  8
文字
 62
     7
 48
50.0
100
AcDbText
 10
13248.77747366447
 20
9060.013745883729
 30
0.0
 40
100.0
  1
13
  7
STYLE1
100
AcDbText
  0
TEXT
  5
153E3
330
747D
100
AcDbEntity
  8
文字
 62
     7
 48
50.0
100
AcDbText
 10
13248.77747366447
 20
9230.013745883729
 30
0.0
 40
100.0
  1
12
  7
STYLE1
100
AcDbText
  0
TEXT
  5
153E4
330
747D
100
AcDbEntity
  8
文字
 62
     7
 48
50.0
100
AcDbText
 10
15022.63965474517
 20
11100.01374588372
 30
0.0
 40
100.0
  1
F12            1.2
  7
STYLE1
100
AcDbText
  0
TEXT
  5
153E5
330
747D
100
AcDbEntity
  8
文字
 62
     7
 48
50.0
100
AcDbText
 10
15022.63965474517
 20
10930.01374588372
 30
0.0
 40
100.0
  1
F12            1.0
  7
STYLE1
100
AcDbText
  0
TEXT
  5
153E6
330
747D
100
AcDbEntity
  8
文字
 62
     7
 48
50.0
100
AcDbText
 10
15022.63965474517
 20
10590.01374588372
 30
0.0
 40
100.0
  1
Y10            1.0
  7
STYLE1
100
AcDbText
  0
TEXT
  5
153E7
330
747D
100
AcDbEntity
  8
文字
 62
     7
 48
50.0
100
AcDbText
 10
15022.63965474516
 20
10420.01374588372
 30
0.0
 40
100.0
  1
Y10            1.0
  7
STYLE1
100
AcDbText
  0
TEXT
  5
153E8
330
747D
100
AcDbEntity
  8
文字
 62
     7
 48
50.0
100
AcDbText
 10
15022.63965474517
 20
10250.01374588372
 30
0.0
 40
100.0
  1
Y10            0.7
  7
STYLE1
100
AcDbText
  0
TEXT
  5
153E9
330
747D
100
AcDbEntity
  8
文字
 62
     7
 48
50.0
100
AcDbText
 10
15022.63965474516
 20
10080.01374588372
 30
0.0
 40
100.0
  1
Y10            0.7
  7
STYLE1
100
AcDbText
  0
TEXT
  5
153EA
330
747D
100
AcDbEntity
  8
文字
 62
     7
 48
50.0
100
AcDbText
 10
15022.63965474516
 20
9740.013745883725
 30
0.0
 40
100.0
  1
Y10            0.5
  7
STYLE1
100
AcDbText
  0
TEXT
  5
153EB
330
747D
100
AcDbEntity
  8
文字
 62
     7
 48
50.0
100
AcDbText
 10
15022.63965474515
 20
9570.013745883725
 30
0.0
 40
100.0
  1
F12            0.6
  7
STYLE1
100
AcDbText
  0
TEXT
  5
153ED
330
747D
100
AcDbEntity
  8
文字
 62
     7
 48
50.0
100
AcDbText
 10
13229.83081656552
 20
8380.013745883728
 30
0.0
 40
100.0
  1
F12→溶融亜鉛めっき鋼板(JIS G 3302)
  7
STYLE1
100
AcDbText
  0
TEXT
  5
153EE
330
747D
100
AcDbEntity
  8
文字
 62
     7
 48
50.0
100
AcDbText
 10
13229.83081656552
 20
8210.013745883729
 30
0.0
 40
100.0
  1
Y10→溶融亜鉛-5％アルミニウム合金めっき鋼板(JIS G 3317)
 41
0.9
  7
STYLE1
100
AcDbText
  0
LINE
  5
153EF
330
747D
100
AcDbEntity
  8
仕様書枠
 48
50.0
100
AcDbLine
 10
13127.2
 20
11409.6
 30
0.0
 11
13127.19999999999
 21
8179.600000000005
 31
0.0
  0
LINE
  5
153F0
330
747D
100
AcDbEntity
  8
仕様書枠
 48
50.0
100
AcDbLine
 10
16307.19999999998
 20
8349.600000000004
 30
0.0
 11
13127.19999999999
 21
8349.600000000007
 31
0.0
  0
TEXT
  5
153F1
330
747D
100
AcDbEntity
  8
文字
 62
     7
 48
50.0
100
AcDbText
 10
13583.1181901657
 20
10760.01374588373
 30
0.0
 40
100.0
  1
床パネル
 41
0.9
  7
STYLE1
100
AcDbText
  0
TEXT
  5
153F2
330
747D
100
AcDbEntity
  8
文字
 62
     7
 48
50.0
100
AcDbText
 10
15022.63965474517
 20
10760.01374588372
 30
0.0
 40
100.0
  1
F12            1.0
  7
STYLE1
100
AcDbText
  0
TEXT
  5
153F3
330
747D
100
AcDbEntity
  8
文字
 62
     7
 48
50.0
100
AcDbText
 10
15022.63965474514
 20
9230.013745883725
 30
0.0
 40
100.0
  1
F12            0.8
  7
STYLE1
100
AcDbText
  0
TEXT
  5
153F4
330
747D
100
AcDbEntity
  8
文字
 62
     7
 48
50.0
100
AcDbText
 10
13583.11819016567
 20
9230.013745883729
 30
0.0
 40
100.0
  1
扉
  7
STYLE1
100
AcDbText
  0
TEXT
  5
153F5
330
747D
100
AcDbEntity
  8
文字
 62
     7
 48
50.0
100
AcDbText
 10
15022.63965474514
 20
9060.013745883729
 30
0.0
 40
100.0
  1
F12            0.6
  7
STYLE1
100
AcDbText
  0
TEXT
  5
153F6
330
747D
100
AcDbEntity
  8
文字
 62
     7
 48
50.0
100
AcDbText
 10
13583.11819016567
 20
9060.013745883733
 30
0.0
 40
100.0
  1
棚板
  7
STYLE1
100
AcDbText
  0
TEXT
  5
153F7
330
747D
100
AcDbEntity
  8
文字
 62
     7
 48
50.0
100
AcDbText
 10
14271.39351435261
 20
483.8967129911411
 30
0.0
 40
160.0
  1
ＮＸＤ－０９Ｌ－２
  7
STYLE2
100
AcDbText
  0
LINE
  5
15498
330
747D
100
AcDbEntity
  8
仕様書枠
 48
50.0
100
AcDbLine
 10
16307.2
 20
9539.6
 30
0.0
 11
13127.2
 21
9539.6
 31
0.0
  0
TEXT
  5
15499
330
747D
100
AcDbEntity
  8
文字
 62
     7
 48
50.0
100
AcDbText
 10
13248.77747366447
 20
8890.013745883731
 30
0.0
 40
100.0
  1
14
  7
STYLE1
100
AcDbText
  0
LINE
  5
15A22
330
747D
100
AcDbEntity
  8
部品1
100
AcDbLine
 10
9673.286281920614
 20
5609.079201869811
 30
0.0
 11
9973.2862819206
 21
5593.545221287288
 31
0.0
  0
TEXT
  5
15A6B
330
747D
100
AcDbEntity
  8
部品1
 48
50.0
100
AcDbText
 10
10137.21432218359
 20
5479.509645223612
 30
0.0
 40
120.0
  1
104
 50
90.0
  7
STYLE1
100
AcDbText
  0
TEXT
  5
15A6C
330
747D
100
AcDbEntity
  8
部品1
 48
50.0
100
AcDbText
 10
9661.554117144326
 20
5644.963224022244
 30
0.0
 40
120.0
  1
1000
  7
STYLE1
100
AcDbText
  0
LINE
  5
15A6D
330
747D
100
AcDbEntity
  8
部品1
 48
50.0
100
AcDbLine
 10
9973.2862819206
 20
5609.079201869811
 30
0.0
 11
9973.2862819206
 21
5593.545221287288
 31
0.0
  0
LINE
  5
15A6E
330
747D
100
AcDbEntity
  8
部品1
 48
50.0
100
AcDbLine
 10
9673.286281920614
 20
5609.079201869811
 30
0.0
 11
9973.2862819206
 21
5609.079201869811
 31
0.0
  0
DIMENSION
  5
15AA5
330
747D
100
AcDbEntity
  8
寸法
 48
50.0
100
AcDbDimension
  2
*D17
 10
10378.28628192059
 20
5876.868516347835
 30
0.0
 11
10584.33352601508
 21
5876.868516347835
 31
0.0
 70
   160
 71
     5
 42
80.0
  3
INABA_S40G
100
AcDbAlignedDimension
 13
10298.28628192059
 23
5425.021742380184
 33
0.0
 14
10378.28628192059
 24
5423.211062768532
 34
0.0
100
AcDbRotatedDimension
1001
ACAD
1000
DSTYLE
1002
{
1070
   174
1070
     0
1070
   272
1070
     1
1070
   288
1070
     0
1070
   341
1005
0
1002
}
  0
ARC
  5
15AA6
330
747D
100
AcDbEntity
  8
部品1
100
AcDbCircle
 10
10363.91381773453
 20
5316.644863652747
 30
0.0
 40
0.7
100
AcDbArc
 50
275.0921697642079
 51
354.1866997666569
  0
ARC
  5
15AA7
330
747D
100
AcDbEntity
  8
部品1
100
AcDbCircle
 10
10374.77316348385
 20
5393.68811847067
 30
0.0
 40
0.7
100
AcDbArc
 50
275.0921697642079
 51
354.1866997665532
  0
ARC
  5
15AA8
330
747D
100
AcDbEntity
  8
部品1
100
AcDbCircle
 10
10375.10156872646
 20
5390.002721613583
 30
0.0
 40
3.0
100
AcDbArc
 50
95.09216976441548
 51
174.1866997665532
  0
ARC
  5
15AA9
330
747D
100
AcDbEntity
  8
部品1
100
AcDbCircle
 10
10364.24222297713
 20
5312.959466795657
 30
0.0
 40
3.0
100
AcDbArc
 50
95.09216976420788
 51
174.1866997665532
  0
ARC
  5
15AAA
330
747D
100
AcDbEntity
  8
部品1
 48
50.0
100
AcDbCircle
 10
10353.21408770203
 20
5303.368722191777
 30
0.0
 40
7.0
100
AcDbArc
 50
267.8377559871574
 51
354.1866997665532
  0
ARC
  5
15AAB
330
747D
100
AcDbEntity
  8
部品1
 48
50.0
100
AcDbCircle
 10
10370.53618416654
 20
5414.271269333949
 30
0.0
 40
7.0
100
AcDbArc
 50
354.1866997665532
 51
87.03587545303774
  0
LINE
  5
15AAC
330
747D
100
AcDbEntity
  8
部品1
 48
50.0
100
AcDbLine
 10
10361.25765130652
 20
5313.263328512562
 30
0.0
 11
10360.17808826678
 21
5302.659711519003
 31
0.0
  0
LINE
  5
15AAD
330
747D
100
AcDbEntity
  8
部品1
 48
50.0
100
AcDbLine
 10
10372.11699705585
 20
5390.306583330485
 30
0.0
 11
10364.61021779101
 21
5316.573962585473
 31
0.0
  0
LINE
  5
15AAE
330
747D
100
AcDbEntity
  8
部品1
 48
50.0
100
AcDbLine
 10
10377.5001847313
 20
5413.562258661174
 30
0.0
 11
10375.46956354033
 21
5393.617217403395
 31
0.0
  0
ARC
  5
15AAF
330
747D
100
AcDbEntity
  8
部品1
100
AcDbCircle
 10
9294.323373791964
 20
5357.025221727433
 30
0.0
 40
0.7
100
AcDbArc
 50
181.0932240292114
 51
260.1877540316898
  0
ARC
  5
15AB0
330
747D
100
AcDbEntity
  8
部品1
100
AcDbCircle
 10
9289.550700194356
 20
5449.890999927554
 30
0.0
 40
0.7
100
AcDbArc
 50
181.0932240292114
 51
260.1877540316898
  0
ARC
  5
15AB1
330
747D
100
AcDbEntity
  8
部品1
100
AcDbCircle
 10
9288.920145791333
 20
5446.245125390156
 30
0.0
 40
3.0
100
AcDbArc
 50
1.093224029315636
 51
80.18775403168987
  0
ARC
  5
15AB2
330
747D
100
AcDbEntity
  8
部品1
100
AcDbCircle
 10
9293.692819388938
 20
5353.379347190037
 30
0.0
 40
3.0
100
AcDbArc
 50
1.093224029315636
 51
80.18775403148449
  0
ARC
  5
15AB3
330
747D
100
AcDbEntity
  8
部品1
 48
50.0
100
AcDbCircle
 10
9303.89295176414
 20
5342.987103807556
 30
0.0
 40
7.0
100
AcDbArc
 50
181.0932240293156
 51
267.8377559871574
  0
ARC
  5
15AB4
330
747D
100
AcDbEntity
  8
部品1
 48
50.0
100
AcDbCircle
 10
9295.469293662044
 20
5469.93816334065
 30
0.0
 40
7.0
100
AcDbArc
 50
87.03587545303774
 51
181.0932240293156
  0
LINE
  5
15AB5
330
747D
100
AcDbEntity
  8
部品1
 48
50.0
100
AcDbLine
 10
9296.69227331537
 20
5353.436584793221
 30
0.0
 11
9296.894225935803
 21
5342.853549400128
 31
0.0
  0
LINE
  5
15AB6
330
747D
100
AcDbEntity
  8
細線
 48
50.0
100
AcDbLine
 10
9294.0861802587
 20
5356.366632912029
 30
0.0
 11
10364.08984468933
 21
5315.967357555961
 31
0.0
  0
LINE
  5
15AB7
330
747D
100
AcDbEntity
  8
細線
 48
50.0
100
AcDbLine
 10
9289.325705021413
 20
5449.228144609891
 30
0.0
 11
10374.96168976658
 21
5393.013983587489
 31
0.0
  0
LINE
  5
15AB8
330
747D
100
AcDbEntity
  8
部品1
 48
50.0
100
AcDbLine
 10
9291.919599717763
 20
5446.302362993339
 30
0.0
 11
9293.623501209129
 21
5357.011866286693
 31
0.0
  0
LINE
  5
15AB9
330
747D
100
AcDbEntity
  8
部品1
 48
50.0
100
AcDbLine
 10
9288.470567833707
 20
5469.804608933223
 30
0.0
 11
9288.850827611518
 21
5449.877644486811
 31
0.0
  0
LINE
  5
15ABA
330
747D
100
AcDbEntity
  8
細線
 48
50.0
100
AcDbLine
 10
10345.2862819206
 20
5422.588085422252
 30
0.0
 11
10340.5385990326
 21
5296.842312931507
 31
0.0
  0
LINE
  5
15ABB
330
747D
100
AcDbEntity
  8
細線
 48
50.0
100
AcDbLine
 10
9321.286281920601
 20
5475.610739143935
 30
0.0
 11
9315.997180365091
 21
5335.525106516581
 31
0.0
  0
LINE
  5
15ABC
330
747D
100
AcDbEntity
  8
部品1
100
AcDbLine
 10
9303.628846522554
 20
5335.992087837498
 30
0.0
 11
10352.94998246044
 21
5296.373706221717
 31
0.0
  0
LINE
  5
15ABD
330
747D
100
AcDbEntity
  8
部品1
100
AcDbLine
 10
9295.831268277561
 20
5476.928798102797
 30
0.0
 11
10370.89815878206
 21
5421.261904096095
 31
0.0
  0
LINE
  5
15ABE
330
747D
100
AcDbEntity
  8
細線
 48
50.0
100
AcDbLine
 10
9480.786281920599
 20
5243.21106276853
 30
0.0
 11
9480.786281920599
 21
3453.211062768531
 31
0.0
  0
LINE
  5
15ABF
330
747D
100
AcDbEntity
  8
細線
 48
50.0
100
AcDbLine
 10
9465.786281920598
 20
5243.21106276853
 30
0.0
 11
9465.786281920598
 21
3453.211062768531
 31
0.0
  0
LINE
  5
15AC0
330
747D
100
AcDbEntity
  8
細線
 48
50.0
100
AcDbLine
 10
9605.786281920599
 20
5243.21106276853
 30
0.0
 11
9605.786281920599
 21
3453.211062768531
 31
0.0
  0
LINE
  5
15AC1
330
747D
100
AcDbEntity
  8
細線
 48
50.0
100
AcDbLine
 10
9620.786281920599
 20
5243.21106276853
 30
0.0
 11
9620.786281920599
 21
3453.211062768531
 31
0.0
  0
LINE
  5
15AC2
330
747D
100
AcDbEntity
  8
細線
 48
50.0
100
AcDbLine
 10
9760.7862819206
 20
5243.21106276853
 30
0.0
 11
9760.7862819206
 21
3453.211062768531
 31
0.0
  0
LINE
  5
15AC3
330
747D
100
AcDbEntity
  8
細線
 48
50.0
100
AcDbLine
 10
9745.786281920599
 20
5243.21106276853
 30
0.0
 11
9745.786281920599
 21
3453.211062768531
 31
0.0
  0
LINE
  5
15AC4
330
747D
100
AcDbEntity
  8
細線
 48
50.0
100
AcDbLine
 10
10165.7862819206
 20
5243.21106276853
 30
0.0
 11
10165.7862819206
 21
3453.211062768531
 31
0.0
  0
LINE
  5
15AC5
330
747D
100
AcDbEntity
  8
細線
 48
50.0
100
AcDbLine
 10
10180.7862819206
 20
5243.21106276853
 30
0.0
 11
10180.7862819206
 21
3453.211062768531
 31
0.0
  0
LINE
  5
15AC6
330
747D
100
AcDbEntity
  8
細線
 48
50.0
100
AcDbLine
 10
10040.7862819206
 20
5243.21106276853
 30
0.0
 11
10040.7862819206
 21
3453.211062768531
 31
0.0
  0
LINE
  5
15AC7
330
747D
100
AcDbEntity
  8
細線
 48
50.0
100
AcDbLine
 10
10025.7862819206
 20
5243.21106276853
 30
0.0
 11
10025.7862819206
 21
3453.211062768531
 31
0.0
  0
LINE
  5
15AC8
330
747D
100
AcDbEntity
  8
細線
 48
50.0
100
AcDbLine
 10
9885.7862819206
 20
5243.21106276853
 30
0.0
 11
9885.7862819206
 21
3453.211062768531
 31
0.0
  0
LINE
  5
15AC9
330
747D
100
AcDbEntity
  8
細線
 48
50.0
100
AcDbLine
 10
9900.786281920598
 20
5243.21106276853
 30
0.0
 11
9900.786281920598
 21
3453.211062768531
 31
0.0
  0
LINE
  5
15AD5
330
747D
100
AcDbEntity
  8
部品1
100
AcDbLine
 10
9348.286281920598
 20
3403.211062768531
 30
0.0
 11
10298.28628192059
 21
3403.211062768531
 31
0.0
  0
DIMENSION
  5
15B02
330
747D
100
AcDbEntity
  8
寸法
 48
50.0
100
AcDbDimension
  2
*D18
 10
9288.286281920601
 20
6086.462390769286
 30
0.0
 11
9811.404996601021
 21
6086.462390769286
 31
0.0
 70
   160
 71
     5
 42
1089.999999999996
  3
INABA_S40G
100
AcDbAlignedDimension
 13
10378.28628192059
 23
5423.211062768532
 33
0.0
 14
9288.286281920601
 24
5478.211062768536
 34
0.0
100
AcDbRotatedDimension
1001
ACAD
1000
DSTYLE
1002
{
1070
   174
1070
     0
1070
   272
1070
     1
1070
   288
1070
     0
1070
   341
1005
0
1002
}
  0
DIMENSION
  5
15B03
330
747D
100
AcDbEntity
  8
寸法
 48
50.0
100
AcDbDimension
  2
*D19
 10
9288.286281920601
 20
5876.868516347835
 30
0.0
 11
8978.64848664501
 21
5876.868516347835
 31
0.0
 70
   160
 71
     5
 42
60.0
  3
INABA_S40G
100
AcDbAlignedDimension
 13
9348.2862819206
 23
5474.212680891508
 33
0.0
 14
9288.286281920601
 24
5478.211062768536
 34
0.0
100
AcDbRotatedDimension
1001
ACAD
1000
DSTYLE
1002
{
1070
   174
1070
     0
1070
   272
1070
     1
1070
   288
1070
     0
1070
   341
1005
0
1002
}
  0
DIMENSION
  5
15B04
330
747D
100
AcDbEntity
  8
寸法
 48
50.0
100
AcDbDimension
  2
*D20
 10
9348.2862819206
 20
5876.868516347835
 30
0.0
 11
9823.2862819206
 21
5876.868516347835
 31
0.0
 70
   160
  1
柱外寸法<>
 71
     5
 42
949.9999999999964
  3
INABA_S40G
100
AcDbAlignedDimension
 13
10298.28628192059
 23
5425.021742380184
 33
0.0
 14
9348.2862819206
 24
5474.212680891508
 34
0.0
100
AcDbRotatedDimension
1001
ACAD
1000
DSTYLE
1002
{
1070
   174
1070
     0
1070
   272
1070
     1
1070
   288
1070
     0
1070
   341
1005
0
1002
}
  0
DIMENSION
  5
15B08
330
747D
100
AcDbEntity
  8
寸法
100
AcDbDimension
  2
*D21
 10
11003.21343989272
 20
5423.211062768532
 30
0.0
 11
10903.2016288691
 21
4413.211062768533
 31
0.0
 70
    32
 71
     5
 42
2020.000000000002
  3
INABA_S40G
100
AcDbAlignedDimension
 13
10298.2862819206
 23
3403.211062768531
 33
0.0
 14
10378.28628192059
 24
5423.211062768532
 34
0.0
 50
90.0
100
AcDbRotatedDimension
1001
ACAD
1000
DSTYLE
1002
{
1070
   174
1070
     0
1070
   272
1070
     1
1070
   288
1070
     0
1070
   341
1005
0
1002
}
  0
LINE
  5
15B09
330
747D
100
AcDbEntity
  8
部品1
100
AcDbLine
 10
10243.2862819206
 20
5243.21106276853
 30
0.0
 11
10243.2862819206
 21
3453.211062768531
 31
0.0
  0
LINE
  5
15B0A
330
747D
100
AcDbEntity
  8
部品1
100
AcDbLine
 10
10298.28628192059
 20
5298.437599985359
 30
0.0
 11
10298.2862819206
 21
3303.211062768531
 31
0.0
  0
LINE
  5
15B0B
330
747D
100
AcDbEntity
  8
部品1
100
AcDbLine
 10
9823.2862819206
 20
5243.21106276853
 30
0.0
 11
9823.2862819206
 21
3453.211062768531
 31
0.0
  0
LINE
  5
15B11
330
747D
100
AcDbEntity
  8
部品1
100
AcDbLine
 10
9348.2862819206
 20
5334.30599264987
 30
0.0
 11
9348.286281920598
 21
3303.211062768531
 31
0.0
  0
LINE
  5
15B12
330
747D
100
AcDbEntity
  8
部品1
100
AcDbLine
 10
9403.286281920598
 20
5243.21106276853
 30
0.0
 11
9403.286281920598
 21
3453.211062768531
 31
0.0
  0
LINE
  5
15B14
330
747D
100
AcDbEntity
  8
部品1
100
AcDbLine
 10
9348.286281920598
 20
3453.211062768531
 30
0.0
 11
10298.2862819206
 21
3453.211062768531
 31
0.0
  0
LINE
  5
15B15
330
747D
100
AcDbEntity
  8
部品1
100
AcDbLine
 10
9348.286281920598
 20
5243.211062768532
 30
0.0
 11
10298.2862819206
 21
5243.21106276853
 31
0.0
  0
DIMENSION
  5
15D7D
330
747D
100
AcDbEntity
  8
寸法
100
AcDbDimension
  2
*D23
 10
8746.323191228396
 20
3403.211062768531
 30
0.0
 11
8746.323191228396
 21
3097.163818674041
 31
0.0
 70
   160
 71
     5
 42
50.00000000000182
  3
INABA_S40G
100
AcDbAlignedDimension
 13
9341.283911875823
 23
3453.211062768533
 33
0.0
 14
9293.286281920599
 24
3403.211062768531
 34
0.0
 50
90.0
100
AcDbRotatedDimension
1001
ACAD
1000
DSTYLE
1002
{
1070
   174
1070
     0
1070
   272
1070
     1
1070
   288
1070
     0
1070
   341
1005
0
1002
}
  0
DIMENSION
  5
15D7E
330
747D
100
AcDbEntity
  8
寸法
100
AcDbDimension
  2
*D22
 10
8444.014470280121
 20
5478.211062768534
 30
0.0
 11
8444.014470280119
 21
4378.418053188332
 31
0.0
 70
   160
 71
     5
 42
2075.000000000003
  3
INABA_S40G
100
AcDbAlignedDimension
 13
9348.286281920598
 23
3403.211062768531
 33
0.0
 14
9288.286281920601
 24
5478.211062768534
 34
0.0
 50
90.0
100
AcDbRotatedDimension
1001
ACAD
1000
DSTYLE
1002
{
1070
   174
1070
     0
1070
   272
1070
     1
1070
   288
1070
     0
1070
   341
1005
0
1002
}
  0
DIMENSION
  5
15D7F
330
747D
100
AcDbEntity
  8
寸法
 48
50.0
100
AcDbDimension
  2
*D24
 10
8696.020030209224
 20
5500.033553665343
 30
0.0
 11
8704.697773861109
 21
5729.869792682235
 31
0.0
 70
   160
 71
     5
 42
141.0
  3
INABA_S40G
100
AcDbAlignedDimension
 13
9303.628846522554
 23
5335.992087837496
 33
0.0
 14
9308.948680674509
 24
5476.891695234378
 34
0.0
 50
87.83775598715743
100
AcDbRotatedDimension
1001
ACAD
1000
DSTYLE
1002
{
1070
   174
1070
     0
1070
   272
1070
     1
1070
   288
1070
     0
1070
   341
1005
0
1002
}
  0
DIMENSION
  5
15F0D
330
747D
100
AcDbEntity
  8
寸法
 48
50.0
100
AcDbDimension
  2
*D28
 10
7462.488900113119
 20
5913.709626464624
 30
0.0
 11
6462.488900113118
 21
5913.709626464624
 31
0.0
 70
   160
 71
     5
 42
2000.000000000003
  3
INABA_S40G
100
AcDbAlignedDimension
 13
5462.488900113116
 23
5478.211062768537
 33
0.0
 14
7462.488900113119
 24
5478.211062768533
 34
0.0
100
AcDbRotatedDimension
  0
DIMENSION
  5
15F0E
330
747D
100
AcDbEntity
  8
寸法
 48
50.0
100
AcDbDimension
  2
*D27
 10
5512.488900113115
 20
5690.752648026776
 30
0.0
 11
6462.488900113118
 21
5690.752648026776
 31
0.0
 70
   160
  1
柱外寸法<>
 71
     5
 42
1900.000000000003
  3
INABA_S40G
100
AcDbAlignedDimension
 13
7412.488900113119
 23
5478.211062768534
 33
0.0
 14
5512.488900113115
 24
5478.21106276854
 34
0.0
100
AcDbRotatedDimension
  0
DIMENSION
  5
15F0F
330
747D
100
AcDbEntity
  8
寸法
 48
50.0
100
AcDbDimension
  2
*D26
 10
5462.488900113116
 20
5690.752648026776
 30
0.0
 11
5149.003618738869
 21
5690.752648026776
 31
0.0
 70
   160
 71
     5
 42
50.0
  3
INABA_S40G
100
AcDbAlignedDimension
 13
5512.488900113115
 23
5478.21106276854
 33
0.0
 14
5462.488900113116
 24
5478.211062768537
 34
0.0
100
AcDbRotatedDimension
1001
ACAD
1000
DSTYLE
1002
{
1002
}
  0
LINE
  5
15F11
330
747D
100
AcDbEntity
  8
細線
 48
50.0
100
AcDbLine
 10
5495.488900113116
 20
5478.211062768536
 30
0.0
 11
5495.488900113116
 21
5337.211062768535
 31
0.0
  0
ARC
  5
15F12
330
747D
100
AcDbEntity
  8
部品1
100
AcDbCircle
 10
5469.897321219545
 20
5471.211062768536
 30
0.0
 40
7.0
100
AcDbArc
 50
90.0
 51
183.2473427903377
  0
ARC
  5
15F13
330
747D
100
AcDbEntity
  8
部品1
100
AcDbCircle
 10
5483.11264468058
 20
5344.211062768538
 30
0.0
 40
7.0
100
AcDbArc
 50
183.2473427903377
 51
270.0
  0
ARC
  5
15F14
330
747D
100
AcDbEntity
  8
部品1
 48
50.0
100
AcDbCircle
 10
5464.740834469903
 20
5450.878061930223
 30
0.0
 40
0.7
100
AcDbArc
 50
183.2473427903897
 51
262.3418727926365
  0
ARC
  5
15F15
330
747D
100
AcDbEntity
  8
部品1
 48
50.0
100
AcDbCircle
 10
5472.976864994744
 20
5358.678061930219
 30
0.0
 40
0.7
100
AcDbArc
 50
183.2473427902856
 51
262.3418727926365
  0
ARC
  5
15F16
330
747D
100
AcDbEntity
  8
部品1
 48
50.0
100
AcDbCircle
 10
5472.483795886183
 20
5355.011062768536
 30
0.0
 40
3.0
100
AcDbArc
 50
3.247342790337682
 51
82.34187279263654
  0
ARC
  5
15F17
330
747D
100
AcDbEntity
  8
部品1
 48
50.0
100
AcDbCircle
 10
5464.247765361339
 20
5447.211062768538
 30
0.0
 40
3.0
100
AcDbArc
 50
3.247342790337682
 51
82.34187279263654
  0
LINE
  5
15F18
330
747D
100
AcDbEntity
  8
部品1
100
AcDbLine
 10
5467.242948257524
 20
5447.381002223639
 30
0.0
 11
5472.277988985635
 21
5358.638409390696
 31
0.0
  0
LINE
  5
15F19
330
747D
100
AcDbEntity
  8
部品1
100
AcDbLine
 10
5475.478978782372
 20
5355.181002223639
 30
0.0
 11
5476.123884589481
 21
5343.814537373297
 31
0.0
  0
LINE
  5
15F1A
330
747D
100
AcDbEntity
  8
部品1
100
AcDbLine
 10
5462.908561128447
 20
5470.814537373296
 30
0.0
 11
5464.041958460795
 21
5450.838409390697
 31
0.0
  0
LINE
  5
15F1B
330
747D
100
AcDbEntity
  8
部品1
 48
50.0
100
AcDbLine
 10
7455.080479006686
 20
5478.211062768533
 30
0.0
 11
5469.897321219545
 21
5478.211062768533
 31
0.0
  0
LINE
  5
15F1C
330
747D
100
AcDbEntity
  8
細線
 48
50.0
100
AcDbLine
 10
7460.33024910096
 20
5450.184305332294
 30
0.0
 11
5464.64755112353
 21
5450.184305332532
 31
0.0
  0
LINE
  5
15F1D
330
747D
100
AcDbEntity
  8
細線
 48
50.0
100
AcDbLine
 10
7452.094218576158
 20
5357.984305332298
 30
0.0
 11
5472.883581648362
 21
5357.984305332531
 31
0.0
  0
LINE
  5
15F1E
330
747D
100
AcDbEntity
  8
部品1
 48
50.0
100
AcDbLine
 10
7441.865155545653
 20
5337.211062768532
 30
0.0
 11
5483.11264468058
 21
5337.211062768535
 31
0.0
  0
DIMENSION
  5
15F7B
330
747D
100
AcDbEntity
  8
寸法
 48
50.0
100
AcDbDimension
  2
*D29
 10
7412.488900113119
 20
5690.752648026773
 30
0.0
 11
7775.974181487356
 21
5690.752648026773
 31
0.0
 70
   160
 71
     5
 42
50.0
  3
INABA_S40G
100
AcDbAlignedDimension
 13
7462.488900113119
 23
5478.211062768533
 33
0.0
 14
7412.488900113119
 24
5478.211062768534
 34
0.0
100
AcDbRotatedDimension
  0
LINE
  5
15F7C
330
747D
100
AcDbEntity
  8
部品1
100
AcDbLine
 10
7462.069239097785
 20
5470.814537373293
 30
0.0
 11
7460.93584176544
 21
5450.838409390693
 31
0.0
  0
LINE
  5
15F7D
330
747D
100
AcDbEntity
  8
細線
 48
50.0
100
AcDbLine
 10
7429.48890011312
 20
5478.211062768533
 30
0.0
 11
7429.48890011312
 21
5337.211062768532
 31
0.0
  0
LINE
  5
15F7E
330
747D
100
AcDbEntity
  8
部品1
100
AcDbLine
 10
7449.498821443864
 20
5355.181002223635
 30
0.0
 11
7448.853915636752
 21
5343.814537373295
 31
0.0
  0
LINE
  5
15F7F
330
747D
100
AcDbEntity
  8
部品1
100
AcDbLine
 10
7457.734851968708
 20
5447.381002223636
 30
0.0
 11
7452.699811240596
 21
5358.638409390692
 31
0.0
  0
ARC
  5
15F80
330
747D
100
AcDbEntity
  8
部品1
 48
50.0
100
AcDbCircle
 10
7460.730034864893
 20
5447.211062768534
 30
0.0
 40
3.0
100
AcDbArc
 50
97.65812720736347
 51
176.7526572096623
  0
ARC
  5
15F81
330
747D
100
AcDbEntity
  8
部品1
 48
50.0
100
AcDbCircle
 10
7452.494004340049
 20
5355.011062768532
 30
0.0
 40
3.0
100
AcDbArc
 50
97.65812720736347
 51
176.7526572096623
  0
ARC
  5
15F82
330
747D
100
AcDbEntity
  8
部品1
 48
50.0
100
AcDbCircle
 10
7452.000935231488
 20
5358.678061930215
 30
0.0
 40
0.7
100
AcDbArc
 50
277.6581272073635
 51
356.7526572097143
  0
ARC
  5
15F83
330
747D
100
AcDbEntity
  8
部品1
 48
50.0
100
AcDbCircle
 10
7460.236965756333
 20
5450.87806193022
 30
0.0
 40
0.7
100
AcDbArc
 50
277.6581272073635
 51
356.7526572096103
  0
ARC
  5
15F84
330
747D
100
AcDbEntity
  8
部品1
100
AcDbCircle
 10
7441.865155545653
 20
5344.211062768534
 30
0.0
 40
7.0
100
AcDbArc
 50
270.0
 51
356.7526572096623
  0
ARC
  5
15F85
330
747D
100
AcDbEntity
  8
部品1
100
AcDbCircle
 10
7455.080479006686
 20
5471.211062768532
 30
0.0
 40
7.0
100
AcDbArc
 50
356.7526572096623
 51
90.0
  0
ARC
  5
15FC4
330
747D
100
AcDbEntity
  8
部品1
 48
0.01
100
AcDbCircle
 10
6075.488900113112
 20
5275.711062768529
 30
0.0
 40
2.0
100
AcDbArc
 50
270.0
 51
0.0
  0
ARC
  5
15FC5
330
747D
100
AcDbEntity
  8
部品1
 48
0.01
100
AcDbCircle
 10
6075.488900113116
 20
5307.211062768529
 30
0.0
 40
2.0
100
AcDbArc
 50
0.0
 51
90.0
  0
ARC
  5
15FC6
330
747D
100
AcDbEntity
  8
部品1
 48
0.01
100
AcDbCircle
 10
5899.488900113116
 20
5275.711062768529
 30
0.0
 40
2.0
100
AcDbArc
 50
180.0
 51
270.0
  0
ARC
  5
15FC7
330
747D
100
AcDbEntity
  8
部品1
 48
0.01
100
AcDbCircle
 10
5899.488900113116
 20
5307.211062768529
 30
0.0
 40
2.0
100
AcDbArc
 50
90.0
 51
180.0
  0
LINE
  5
15FC8
330
747D
100
AcDbEntity
  8
細線
100
AcDbLine
 10
5987.488900113112
 20
5279.711062768529
 30
0.0
 11
6061.488900113116
 21
5279.711062768529
 31
0.0
  0
LINE
  5
15FC9
330
747D
100
AcDbEntity
  8
細線
100
AcDbLine
 10
5987.488900113116
 20
5302.711062768529
 30
0.0
 11
5913.488900113116
 21
5302.711062768529
 31
0.0
  0
LINE
  5
15FCA
330
747D
100
AcDbEntity
  8
細線
100
AcDbLine
 10
5913.488900113116
 20
5279.711062768529
 30
0.0
 11
5987.488900113116
 21
5279.711062768529
 31
0.0
  0
LINE
  5
15FCB
330
747D
100
AcDbEntity
  8
細線
100
AcDbLine
 10
6061.488900113116
 20
5302.711062768529
 30
0.0
 11
5987.488900113116
 21
5302.711062768529
 31
0.0
  0
LINE
  5
15FCC
330
747D
100
AcDbEntity
  8
細線
100
AcDbLine
 10
6061.488900113116
 20
5279.711062768529
 30
0.0
 11
6061.488900113116
 21
5302.711062768529
 31
0.0
  0
LINE
  5
15FCD
330
747D
100
AcDbEntity
  8
細線
100
AcDbLine
 10
5913.488900113116
 20
5302.711062768529
 30
0.0
 11
5913.488900113116
 21
5279.711062768529
 31
0.0
  0
LINE
  5
15FCE
330
747D
100
AcDbEntity
  8
部品1
 48
0.01
100
AcDbLine
 10
6077.488900113112
 20
5275.711062768529
 30
0.0
 11
6077.488900113116
 21
5307.211062768529
 31
0.0
  0
LINE
  5
15FCF
330
747D
100
AcDbEntity
  8
部品1
 48
0.01
100
AcDbLine
 10
5899.488900113116
 20
5273.711062768529
 30
0.0
 11
6075.488900113112
 21
5273.711062768529
 31
0.0
  0
LINE
  5
15FD0
330
747D
100
AcDbEntity
  8
部品1
 48
0.01
100
AcDbLine
 10
5897.488900113116
 20
5307.211062768529
 30
0.0
 11
5897.488900113116
 21
5275.711062768529
 31
0.0
  0
LINE
  5
15FD1
330
747D
100
AcDbEntity
  8
部品1
 48
0.01
100
AcDbLine
 10
6075.488900113116
 20
5309.211062768529
 30
0.0
 11
5899.488900113116
 21
5309.211062768529
 31
0.0
  0
LINE
  5
15FD2
330
747D
100
AcDbEntity
  8
細線
100
AcDbLine
 10
5913.488900113116
 20
5296.711062768529
 30
0.0
 11
5987.488900113116
 21
5296.711062768529
 31
0.0
  0
LINE
  5
15FD3
330
747D
100
AcDbEntity
  8
細線
100
AcDbLine
 10
5913.488900113116
 20
5290.711062768529
 30
0.0
 11
5987.488900113116
 21
5290.711062768529
 31
0.0
  0
LINE
  5
15FD4
330
747D
100
AcDbEntity
  8
細線
100
AcDbLine
 10
5913.488900113112
 20
5284.711062768529
 30
0.0
 11
5987.488900113116
 21
5284.711062768529
 31
0.0
  0
LINE
  5
15FD5
330
747D
100
AcDbEntity
  8
細線
100
AcDbLine
 10
5913.488900113116
 20
5296.711062768529
 30
0.0
 11
5982.488900113116
 21
5296.711062768529
 31
0.0
  0
LINE
  5
15FD6
330
747D
100
AcDbEntity
  8
細線
100
AcDbLine
 10
6061.488900113112
 20
5296.711062768529
 30
0.0
 11
5987.488900113116
 21
5296.711062768529
 31
0.0
  0
LINE
  5
15FD7
330
747D
100
AcDbEntity
  8
細線
100
AcDbLine
 10
6061.488900113112
 20
5284.711062768529
 30
0.0
 11
5987.488900113116
 21
5284.711062768529
 31
0.0
  0
LINE
  5
15FD8
330
747D
100
AcDbEntity
  8
細線
100
AcDbLine
 10
6061.488900113112
 20
5290.711062768529
 30
0.0
 11
5987.488900113116
 21
5290.711062768529
 31
0.0
  0
LINE
  5
15FD9
330
747D
100
AcDbEntity
  8
細線
100
AcDbLine
 10
5987.488900113116
 20
5302.711062768529
 30
0.0
 11
5987.488900113112
 21
5279.711062768529
 31
0.0
  0
LINE
  5
15FDA
330
747D
100
AcDbEntity
  8
細線
100
AcDbLine
 10
6937.488900113116
 20
5302.711062768528
 30
0.0
 11
6937.488900113113
 21
5279.711062768527
 31
0.0
  0
LINE
  5
15FDB
330
747D
100
AcDbEntity
  8
細線
100
AcDbLine
 10
7011.488900113111
 20
5290.711062768528
 30
0.0
 11
6937.488900113116
 21
5290.711062768528
 31
0.0
  0
LINE
  5
15FDC
330
747D
100
AcDbEntity
  8
細線
100
AcDbLine
 10
7011.488900113111
 20
5284.711062768528
 30
0.0
 11
6937.488900113116
 21
5284.711062768528
 31
0.0
  0
LINE
  5
15FDD
330
747D
100
AcDbEntity
  8
細線
100
AcDbLine
 10
7011.488900113111
 20
5296.711062768528
 30
0.0
 11
6937.488900113116
 21
5296.711062768528
 31
0.0
  0
LINE
  5
15FDE
330
747D
100
AcDbEntity
  8
細線
100
AcDbLine
 10
6863.488900113115
 20
5296.711062768528
 30
0.0
 11
6932.488900113115
 21
5296.711062768528
 31
0.0
  0
LINE
  5
15FDF
330
747D
100
AcDbEntity
  8
細線
100
AcDbLine
 10
6863.488900113113
 20
5284.711062768528
 30
0.0
 11
6937.488900113116
 21
5284.711062768528
 31
0.0
  0
LINE
  5
15FE0
330
747D
100
AcDbEntity
  8
細線
100
AcDbLine
 10
6863.488900113115
 20
5290.711062768528
 30
0.0
 11
6937.488900113116
 21
5290.711062768528
 31
0.0
  0
LINE
  5
15FE1
330
747D
100
AcDbEntity
  8
細線
100
AcDbLine
 10
6863.488900113115
 20
5296.711062768528
 30
0.0
 11
6937.488900113116
 21
5296.711062768528
 31
0.0
  0
LINE
  5
15FE2
330
747D
100
AcDbEntity
  8
部品1
 48
0.01
100
AcDbLine
 10
7025.488900113116
 20
5309.211062768528
 30
0.0
 11
6849.488900113115
 21
5309.211062768528
 31
0.0
  0
LINE
  5
15FE3
330
747D
100
AcDbEntity
  8
部品1
 48
0.01
100
AcDbLine
 10
6847.488900113116
 20
5307.211062768527
 30
0.0
 11
6847.488900113116
 21
5275.711062768528
 31
0.0
  0
LINE
  5
15FE4
330
747D
100
AcDbEntity
  8
部品1
 48
0.01
100
AcDbLine
 10
6849.488900113115
 20
5273.711062768528
 30
0.0
 11
7025.488900113112
 21
5273.711062768528
 31
0.0
  0
LINE
  5
15FE5
330
747D
100
AcDbEntity
  8
部品1
 48
0.01
100
AcDbLine
 10
7027.488900113112
 20
5275.711062768528
 30
0.0
 11
7027.488900113116
 21
5307.211062768527
 31
0.0
  0
LINE
  5
15FE6
330
747D
100
AcDbEntity
  8
細線
100
AcDbLine
 10
6863.488900113115
 20
5302.711062768528
 30
0.0
 11
6863.488900113115
 21
5279.711062768527
 31
0.0
  0
LINE
  5
15FE7
330
747D
100
AcDbEntity
  8
細線
100
AcDbLine
 10
7011.488900113116
 20
5279.711062768527
 30
0.0
 11
7011.488900113116
 21
5302.711062768528
 31
0.0
  0
LINE
  5
15FE8
330
747D
100
AcDbEntity
  8
細線
100
AcDbLine
 10
7011.488900113116
 20
5302.711062768528
 30
0.0
 11
6937.488900113116
 21
5302.711062768528
 31
0.0
  0
LINE
  5
15FE9
330
747D
100
AcDbEntity
  8
細線
100
AcDbLine
 10
6863.488900113115
 20
5279.711062768527
 30
0.0
 11
6937.488900113116
 21
5279.711062768527
 31
0.0
  0
LINE
  5
15FEA
330
747D
100
AcDbEntity
  8
細線
100
AcDbLine
 10
6937.488900113116
 20
5302.711062768528
 30
0.0
 11
6863.488900113115
 21
5302.711062768528
 31
0.0
  0
LINE
  5
15FEB
330
747D
100
AcDbEntity
  8
細線
100
AcDbLine
 10
6937.488900113113
 20
5279.711062768527
 30
0.0
 11
7011.488900113116
 21
5279.711062768527
 31
0.0
  0
ARC
  5
15FEC
330
747D
100
AcDbEntity
  8
部品1
 48
0.01
100
AcDbCircle
 10
6849.488900113115
 20
5307.211062768527
 30
0.0
 40
2.0
100
AcDbArc
 50
90.0
 51
180.0
  0
ARC
  5
15FED
330
747D
100
AcDbEntity
  8
部品1
 48
0.01
100
AcDbCircle
 10
6849.488900113115
 20
5275.711062768528
 30
0.0
 40
2.0
100
AcDbArc
 50
180.0
 51
270.0
  0
ARC
  5
15FEE
330
747D
100
AcDbEntity
  8
部品1
 48
0.01
100
AcDbCircle
 10
7025.488900113116
 20
5307.211062768527
 30
0.0
 40
2.0
100
AcDbArc
 50
0.0
 51
90.0
  0
ARC
  5
15FEF
330
747D
100
AcDbEntity
  8
部品1
 48
0.01
100
AcDbCircle
 10
7025.488900113112
 20
5275.711062768528
 30
0.0
 40
2.0
100
AcDbArc
 50
270.0
 51
0.0
  0
TEXT
  5
16042
330
747D
100
AcDbEntity
  8
文字
 62
     7
 48
50.0
100
AcDbText
 10
15022.63965474513
 20
9400.013745883725
 30
0.0
 40
100.0
  1
F12            0.6
  7
STYLE1
100
AcDbText
  0
TEXT
  5
16043
330
747D
100
AcDbEntity
  8
文字
 62
     7
 48
50.0
100
AcDbText
 10
13583.11819016567
 20
9400.013745883729
 30
0.0
 40
100.0
  1
脇パネル
  7
STYLE1
100
AcDbText
  0
TEXT
  5
1627A
330
747D
100
AcDbEntity
  8
文字
 62
     7
 48
50.0
100
AcDbText
 10
15022.63965474513
 20
8720.013745883722
 30
0.0
 40
100.0
  1
F12            1.0
  7
STYLE1
100
AcDbText
  0
TEXT
  5
1627B
330
747D
100
AcDbEntity
  8
文字
 62
     7
 48
50.0
100
AcDbText
 10
13583.11819016567
 20
8720.013745883727
 30
0.0
 40
100.0
  1
※豪雪補強
  7
STYLE1
100
AcDbText
  0
TEXT
  5
1627C
330
747D
100
AcDbEntity
  8
文字
 62
     7
 48
50.0
100
AcDbText
 10
13248.77747366447
 20
8720.013745883729
 30
0.0
 40
100.0
  1
15
  7
STYLE1
100
AcDbText
  0
TEXT
  5
1627D
330
747D
100
AcDbEntity
  8
文字
 62
     7
 48
50.0
100
AcDbText
 10
13229.83081656553
 20
8550.013745883727
 30
0.0
 40
100.0
  1
※豪雪補強は豪雪地型のみ取付
 41
0.9
  7
STYLE1
100
AcDbText
  0
LINE
  5
1627E
330
747D
100
AcDbEntity
  8
仕様書枠
 48
50.0
100
AcDbLine
 10
16307.19999999998
 20
8689.6
 30
0.0
 11
13127.19999999999
 21
8689.6
 31
0.0
  0
LINE
  5
1627F
330
747D
100
AcDbEntity
  8
仕様書枠
 48
50.0
100
AcDbLine
 10
16307.19999999998
 20
8519.600000000002
 30
0.0
 11
13127.19999999999
 21
8519.600000000002
 31
0.0
  0
TEXT
  5
16290
330
747D
100
AcDbEntity
  8
文字
 62
     7
 48
50.0
100
AcDbText
 10
14251.2
 20
838.2527270729188
 30
0.0
 40
100.0
  1
～一般型・多雪地型・豪雪地型～
  7
STYLE2
100
AcDbText
  0
LWPOLYLINE
  5
16379
330
747D
100
AcDbEntity
  8
細線
  6
Continuous
370
    15
100
AcDbPolyline
 90
        3
 70
   128
 43
0.0
 10
5607.902126717577
 20
4320.724594453408
 10
5607.973711895952
 20
4320.700335362984
 10
5607.98891108037
 20
4320.69765315397
  0
ARC
  5
1637A
330
747D
100
AcDbEntity
  8
細線
  6
Continuous
370
    15
100
AcDbCircle
 10
5604.48889921468
 20
4313.711020175862
 30
0.0
 40
7.799999999999959
100
AcDbArc
 50
64.04961909222373
 51
115.6437752580401
  0
LWPOLYLINE
  5
1637B
330
747D
100
AcDbEntity
  8
細線
  6
Continuous
370
    15
100
AcDbPolyline
 90
        3
 70
   128
 43
0.0
 10
5600.988911795625
 20
4320.713209966256
 10
5601.041542696962
 20
4320.71887240751
 10
5601.113247084627
 20
4320.74271426542
  0
SPLINE
  5
1637C
330
747D
100
AcDbEntity
  8
細線
  6
Continuous
370
    15
100
AcDbSpline
210
0.0
220
0.0
230
1.0
 70
     8
 71
     3
 72
     9
 73
     5
 74
     0
 42
0.000000001
 43
0.0000000001
 40
0.0
 40
0.0
 40
0.0
 40
0.0
 40
0.7237658969060897
 40
1.0
 40
1.0
 40
1.0
 40
1.0
 10
5586.393820452699
 20
4348.0228065048
 30
0.0
 10
5586.589561949621
 20
4348.251487947011
 30
0.0
 10
5586.860010581927
 20
4348.567448457426
 30
0.0
 10
5586.897542827638
 20
4349.126462891304
 30
0.0
 10
5586.907910513887
 20
4349.280881742074
 30
0.0
  0
SPLINE
  5
1637D
330
747D
100
AcDbEntity
  8
細線
  6
Continuous
370
    15
100
AcDbSpline
210
0.0
220
0.0
230
1.0
 70
     8
 71
     3
 72
     9
 73
     5
 74
     0
 42
0.000000001
 43
0.0000000001
 40
0.0
 40
0.0
 40
0.0
 40
0.0
 40
0.1817420378681831
 40
1.0
 40
1.0
 40
1.0
 40
1.0
 10
5586.902695107469
 20
4430.249440530373
 30
0.0
 10
5586.895699442967
 20
4430.343954996788
 30
0.0
 10
5586.857207167915
 20
4430.864002353628
 30
0.0
 10
5586.60235514753
 20
4431.158356502273
 30
0.0
 10
5586.393820452699
 20
4431.399214128091
 30
0.0
  0
LINE
  5
1637E
330
747D
100
AcDbEntity
  8
細線
  6
Continuous
370
    15
100
AcDbLine
 10
5612.077104258546
 20
4425.961363175942
 30
0.0
 11
5612.077104258546
 21
4353.460657456948
 31
0.0
  0
LINE
  5
1637F
330
747D
100
AcDbEntity
  8
細線
  6
Continuous
370
    15
100
AcDbLine
 10
5606.639253306398
 20
4348.0228065048
 30
0.0
 11
5586.393820452699
 21
4348.0228065048
 31
0.0
  0
ELLIPSE
  5
16380
330
747D
100
AcDbEntity
  8
細線
  6
Continuous
370
    15
100
AcDbEllipse
 10
5581.588899214715
 20
4349.171942706337
 30
0.0
 11
5.399999999999976
 21
0.0
 31
0.0
210
0.0
220
0.0
230
1.0
 40
0.4663076581550023
 41
5.04728513882407
 42
5.809296398627029
  0
LINE
  5
16381
330
747D
100
AcDbEntity
  8
細線
  6
Continuous
370
    15
100
AcDbLine
 10
5583.363728928575
 20
4346.793758729531
 30
0.0
 11
5581.588911223421
 21
4346.793758729531
 31
0.0
  0
LINE
  5
16382
330
747D
100
AcDbEntity
  8
細線
  6
Continuous
370
    15
100
AcDbLine
 10
5581.588911223421
 20
4432.628261903359
 30
0.0
 11
5583.363728928575
 21
4432.628261903359
 31
0.0
  0
ELLIPSE
  5
16383
330
747D
100
AcDbEntity
  8
細線
  6
Continuous
370
    15
100
AcDbEllipse
 10
5581.588899214715
 20
4430.250097645374
 30
0.0
 11
5.399999999999976
 21
0.0
 31
0.0
210
0.0
220
0.0
230
1.0
 40
0.4663076581550023
 41
0.4738889085525403
 42
1.235900168355494
  0
LINE
  5
16384
330
747D
100
AcDbEntity
  8
細線
  6
Continuous
370
    15
100
AcDbLine
 10
5586.393820452699
 20
4431.399214128091
 30
0.0
 11
5606.639253306398
 21
4431.399214128091
 31
0.0
  0
ELLIPSE
  5
16385
330
747D
100
AcDbEntity
  8
細線
  6
Continuous
370
    15
100
AcDbEllipse
 10
5581.588899214715
 20
4429.318132945089
 30
0.0
 11
0.0
 21
-3.310133756887523
 31
0.0
210
0.0
220
0.0
230
1.0
 40
0.9063077870366367
 41
3.141592653589783
 42
4.712388980384702
  0
ELLIPSE
  5
16386
330
747D
100
AcDbEntity
  8
細線
  6
Continuous
370
    15
100
AcDbEllipse
 10
5581.588899214715
 20
4350.103907406635
 30
0.0
 11
0.0
 21
-3.310133756887466
 31
0.0
210
0.0
220
0.0
230
1.0
 40
0.9063077870366523
 41
4.712388980384702
 42
6.283185307179586
  0
ARC
  5
16387
330
747D
100
AcDbEntity
  8
細線
  6
Continuous
370
    15
100
AcDbCircle
 10
5604.48889921468
 20
4313.711020175862
 30
0.0
 40
7.499999999999996
100
AcDbArc
 50
120.3006176375393
 51
59.69938236246067
  0
SPLINE
  5
16388
330
747D
100
AcDbEntity
  8
細線
  6
Continuous
370
    15
100
AcDbSpline
210
0.0
220
0.0
230
1.0
 70
    24
 71
     3
 72
     9
 73
     5
 74
     0
 42
0.000000001
 43
0.0000000001
 40
0.0
 40
0.0
 40
0.0
 40
0.0
 40
0.8663703693180105
 40
1.0
 40
1.0
 40
1.0
 40
1.0
 10
5600.988911795625
 20
4320.520388940408
 30
0.0
 10
5600.988911795625
 20
4320.468017380219
 30
0.0
 10
5600.988911795625
 20
4320.407567990406
 30
0.0
 10
5600.988911795625
 20
4320.351720142396
 30
0.0
 10
5600.988911795625
 20
4320.344257215096
 30
0.0
  0
LINE
  5
16389
330
747D
100
AcDbEntity
  8
細線
  6
Continuous
370
    15
100
AcDbLine
 10
5600.988911795625
 20
4320.344257215096
 30
0.0
 11
5600.704865860948
 21
4320.186424115731
 31
0.0
  0
LINE
  5
1638A
330
747D
100
AcDbEntity
  8
細線
  6
Continuous
370
    15
100
AcDbLine
 10
5608.272927212724
 20
4320.186424115731
 30
0.0
 11
5607.98891108037
 21
4320.344257215096
 31
0.0
  0
SPLINE
  5
1638B
330
747D
100
AcDbEntity
  8
細線
  6
Continuous
370
    15
100
AcDbSpline
210
0.0
220
0.0
230
1.0
 70
    24
 71
     3
 72
     9
 73
     5
 74
     0
 42
0.000000001
 43
0.0000000001
 40
0.0
 40
0.0
 40
0.0
 40
0.0
 40
0.8651188723649402
 40
1.0
 40
1.0
 40
1.0
 40
1.0
 10
5607.98891108037
 20
4320.344257215096
 30
0.0
 10
5607.98891108037
 20
4320.394344532528
 30
0.0
 10
5607.98891108037
 20
4320.452240989339
 30
0.0
 10
5607.98891108037
 20
4320.512289526057
 30
0.0
 10
5607.98891108037
 20
4320.520388940408
 30
0.0
  0
ARC
  5
1638C
330
747D
100
AcDbEntity
  8
細線
  6
Continuous
370
    15
100
AcDbCircle
 10
5604.48889921468
 20
4313.711020175862
 30
0.0
 40
9.499999999999973
100
AcDbArc
 50
69.15570700480905
 51
110.8442929951909
  0
LINE
  5
1638D
330
747D
100
AcDbEntity
  8
細線
  6
Continuous
370
    15
100
AcDbLine
 10
5607.98891108037
 20
4320.520388940408
 30
0.0
 11
5607.98891108037
 21
4322.415697434975
 31
0.0
  0
LINE
  5
1638E
330
747D
100
AcDbEntity
  8
細線
  6
Continuous
370
    15
100
AcDbLine
 10
5600.988911795625
 20
4322.415697434975
 30
0.0
 11
5600.988911795625
 21
4320.520388940408
 31
0.0
  0
LINE
  5
1638F
330
747D
100
AcDbEntity
  8
細線
  6
Continuous
370
    15
100
AcDbLine
 10
5607.98891108037
 20
4322.415697434975
 30
0.0
 11
5607.98891108037
 21
4322.542774537637
 31
0.0
  0
LINE
  5
16390
330
747D
100
AcDbEntity
  8
細線
  6
Continuous
370
    15
100
AcDbLine
 10
5607.98891108037
 20
4322.542774537637
 30
0.0
 11
5607.869284558305
 21
4322.589266160561
 31
0.0
  0
LINE
  5
16391
330
747D
100
AcDbEntity
  8
細線
  6
Continuous
370
    15
100
AcDbLine
 10
5601.108508515367
 20
4322.589266160561
 30
0.0
 11
5600.988911795625
 21
4322.542774537637
 31
0.0
  0
LINE
  5
16392
330
747D
100
AcDbEntity
  8
細線
  6
Continuous
370
    15
100
AcDbLine
 10
5600.988911795625
 20
4322.542774537637
 30
0.0
 11
5600.988911795625
 21
4322.415697434975
 31
0.0
  0
ARC
  5
16393
330
747D
100
AcDbEntity
  8
細線
  6
Continuous
370
    15
100
AcDbCircle
 10
5621.488899214679
 20
4453.711020175862
 30
0.0
 40
6.0
100
AcDbArc
 50
0.0
 51
90.0
  0
LINE
  5
16394
330
747D
100
AcDbEntity
  8
細線
  6
Continuous
370
    15
100
AcDbLine
 10
5627.488898444185
 20
4453.711020806863
 30
0.0
 11
5627.488898444185
 21
4285.711037973
 31
0.0
  0
LINE
  5
16395
330
747D
100
AcDbEntity
  8
細線
  6
Continuous
370
    15
100
AcDbLine
 10
5569.488900113115
 20
4285.711037973
 30
0.0
 11
5569.488900113115
 21
4453.711020806863
 31
0.0
  0
LINE
  5
16396
330
747D
100
AcDbEntity
  8
細線
  6
Continuous
370
    15
100
AcDbLine
 10
5575.488912272462
 20
4459.711062768533
 30
0.0
 11
5621.488886284837
 21
4459.711062768533
 31
0.0
  0
ARC
  5
16397
330
747D
100
AcDbEntity
  8
細線
  6
Continuous
370
    15
100
AcDbCircle
 10
5621.488899214679
 20
4285.711020175862
 30
0.0
 40
6.0
100
AcDbArc
 50
270.0
 51
0.0
  0
ARC
  5
16398
330
747D
100
AcDbEntity
  8
細線
  6
Continuous
370
    15
100
AcDbCircle
 10
5575.488899214679
 20
4453.711020175862
 30
0.0
 40
6.0
100
AcDbArc
 50
90.0
 51
180.0
  0
LINE
  5
16399
330
747D
100
AcDbEntity
  8
細線
  6
Continuous
370
    15
100
AcDbLine
 10
5621.488886284837
 20
4279.71099601133
 30
0.0
 11
5575.488912272462
 21
4279.71099601133
 31
0.0
  0
ARC
  5
1639A
330
747D
100
AcDbEntity
  8
細線
  6
Continuous
370
    15
100
AcDbCircle
 10
5575.488899214679
 20
4285.711020175862
 30
0.0
 40
6.0
100
AcDbArc
 50
180.0
 51
270.0
  0
LINE
  5
1639B
330
747D
100
AcDbEntity
  8
細線
  6
Continuous
370
    15
100
AcDbLine
 10
5610.585199999818
 20
4323.943245271279
 30
0.0
 11
5610.585199999818
 21
4319.927859166695
 31
0.0
  0
ARC
  5
1639C
330
747D
100
AcDbEntity
  8
細線
  6
Continuous
370
    15
100
AcDbCircle
 10
5604.48889921468
 20
4313.711020175862
 30
0.0
 40
8.707106781186586
100
AcDbArc
 50
134.4391355081549
 51
45.56086449184513
  0
LINE
  5
1639D
330
747D
100
AcDbEntity
  8
細線
  6
Continuous
370
    15
100
AcDbLine
 10
5598.392622876176
 20
4319.927859166695
 30
0.0
 11
5598.392622876176
 21
4323.943245271279
 31
0.0
  0
SPLINE
  5
1639E
330
747D
100
AcDbEntity
  8
細線
  6
Continuous
370
    15
100
AcDbSpline
210
0.0
220
0.0
230
1.0
 70
     8
 71
     3
 72
    11
 73
     7
 74
     0
 42
0.000000001
 43
0.0000000001
 40
0.0
 40
0.0
 40
0.0
 40
0.0
 40
0.0781314889249488
 40
0.3601777463886433
 40
0.6812698848259567
 40
1.0
 40
1.0
 40
1.0
 40
1.0
 10
5598.582672286043
 20
4324.267375329568
 30
0.0
 10
5598.573809855348
 20
4324.262187214059
 30
0.0
 10
5598.532955004621
 20
4324.238270560541
 30
0.0
 10
5598.464209861056
 20
4324.178960232689
 30
0.0
 10
5598.402168349733
 20
4324.070094926705
 30
0.0
 10
5598.395796860182
 20
4323.985424297279
 30
0.0
 10
5598.392622876176
 20
4323.943245271279
 30
0.0
  0
ARC
  5
1639F
330
747D
100
AcDbEntity
  8
細線
  6
Continuous
370
    15
100
AcDbCircle
 10
5604.48889921468
 20
4313.711020175862
 30
0.0
 40
12.09629120178367
100
AcDbArc
 50
60.77315626978887
 51
119.2268437302111
  0
SPLINE
  5
163A0
330
747D
100
AcDbEntity
  8
細線
  6
Continuous
370
    15
100
AcDbSpline
210
0.0
220
0.0
230
1.0
 70
     8
 71
     3
 72
    11
 73
     7
 74
     0
 42
0.000000001
 43
0.0000000001
 40
0.0
 40
0.0
 40
0.0
 40
0.0
 40
0.0779029322309155
 40
0.3600683505069131
 40
0.6812326600027312
 40
1.0
 40
1.0
 40
1.0
 40
1.0
 10
5610.585199999818
 20
4323.943245271279
 30
0.0
 10
5610.584997726654
 20
4323.953482197015
 30
0.0
 10
5610.584062817586
 20
4324.000797398897
 30
0.0
 10
5610.565865807926
 20
4324.089734155073
 30
0.0
 10
5610.501208778841
 20
4324.197098634409
 30
0.0
 10
5610.430414929542
 20
4324.244008333844
 30
0.0
 10
5610.395150589952
 20
4324.267375329568
 30
0.0
  0
LINE
  5
163A1
330
747D
100
AcDbEntity
  8
細線
  6
Continuous
370
    15
100
AcDbLine
 10
5581.521443533906
 20
4438.711035111977
 30
0.0
 11
5612.388895440111
 21
4438.711035111977
 31
0.0
  0
LINE
  5
163A2
330
747D
100
AcDbEntity
  8
細線
  6
Continuous
370
    15
100
AcDbLine
 10
5576.521443533906
 20
4345.711045125557
 30
0.0
 11
5576.521443533906
 21
4433.711035111977
 31
0.0
  0
ARC
  5
163A3
330
747D
100
AcDbEntity
  8
細線
  6
Continuous
370
    15
100
AcDbCircle
 10
5581.521443533906
 20
4433.711035111977
 30
0.0
 40
5.0
100
AcDbArc
 50
90.0
 51
180.0
  0
LINE
  5
163A4
330
747D
100
AcDbEntity
  8
細線
  6
Continuous
370
    15
100
AcDbLine
 10
5578.588890242586
 20
4429.318132945089
 30
0.0
 11
5578.588890242586
 21
4350.103907406635
 31
0.0
  0
LINE
  5
163A5
330
747D
100
AcDbEntity
  8
細線
  6
Continuous
370
    15
100
AcDbLine
 10
5619.388895440111
 20
4431.711035111977
 30
0.0
 11
5619.388895440111
 21
4347.711045125557
 31
0.0
  0
ARC
  5
163A6
330
747D
100
AcDbEntity
  8
細線
  6
Continuous
370
    15
100
AcDbCircle
 10
5612.388895440111
 20
4347.711045125557
 30
0.0
 40
7.0
100
AcDbArc
 50
270.0
 51
0.0
  0
ARC
  5
163A7
330
747D
100
AcDbEntity
  8
細線
  6
Continuous
370
    15
100
AcDbCircle
 10
5612.388895440111
 20
4431.711035111977
 30
0.0
 40
7.0
100
AcDbArc
 50
0.0
 51
90.0
  0
LINE
  5
163A8
330
747D
100
AcDbEntity
  8
細線
  6
Continuous
370
    15
100
AcDbLine
 10
5612.388895440111
 20
4340.711045125558
 30
0.0
 11
5581.521443533906
 21
4340.711045125558
 31
0.0
  0
ARC
  5
163A9
330
747D
100
AcDbEntity
  8
細線
  6
Continuous
370
    15
100
AcDbCircle
 10
5581.521443533906
 20
4345.711045125557
 30
0.0
 40
5.0
100
AcDbArc
 50
180.0
 51
270.0
  0
ARC
  5
163AA
330
747D
100
AcDbEntity
  8
細線
  6
Continuous
370
    15
100
AcDbCircle
 10
5605.308502129592
 20
4354.791408633754
 30
0.0
 40
6.898178997000096
100
AcDbArc
 50
281.1228560456502
 51
348.8771439544009
  0
ARC
  5
163AB
330
747D
100
AcDbEntity
  8
細線
  6
Continuous
370
    15
100
AcDbCircle
 10
5605.308554155947
 20
4424.630664025506
 30
0.0
 40
6.89811791144148
100
AcDbArc
 50
11.12251539540163
 51
78.87748460464951
  0
LINE
  5
163AC
330
747D
100
AcDbEntity
  8
細線
  6
Continuous
370
    15
100
AcDbLine
 10
5594.586687493333
 20
4351.280881742074
 30
0.0
 11
5594.586687493333
 21
4428.249440530373
 31
0.0
  0
ARC
  5
163AD
330
747D
100
AcDbEntity
  8
細線
  6
Continuous
370
    15
100
AcDbCircle
 10
5592.586687493334
 20
4428.249440530373
 30
0.0
 40
2.0
100
AcDbArc
 50
0.0
 51
90.0
  0
ARC
  5
163AE
330
747D
100
AcDbEntity
  8
細線
  6
Continuous
370
    15
100
AcDbCircle
 10
5592.586676572063
 20
4351.265176538058
 30
0.0
 40
2.0
100
AcDbArc
 50
262.8149626715364
 51
0.0
  0
LWPOLYLINE
  5
163AF
330
747D
100
AcDbEntity
  8
細線
 48
50.0
100
AcDbPolyline
 90
        4
 70
     1
 43
0.0
 10
5605.750995087633
 20
4308.882641652657
 10
5603.226827788362
 20
4308.882641652657
 10
5603.226827788362
 20
4318.539428571297
 10
5605.750995087633
 20
4318.539428571297
  0
LINE
  5
163B0
330
747D
100
AcDbEntity
  8
細線
  6
Continuous
370
    15
100
AcDbLine
 10
5592.586687493334
 20
4349.280881742074
 30
0.0
 11
5586.907910513887
 21
4349.280881742076
 31
0.0
  0
LINE
  5
163B1
330
747D
100
AcDbEntity
  8
細線
  6
Continuous
370
    15
100
AcDbLine
 10
5581.316696810731
 20
4350.280881742073
 30
0.0
 11
5581.316696810731
 21
4429.249440530373
 31
0.0
  0
ARC
  5
163B2
330
747D
100
AcDbEntity
  8
細線
  6
Continuous
370
    15
100
AcDbCircle
 10
5582.316696810732
 20
4429.249440530373
 30
0.0
 40
1.0
100
AcDbArc
 50
90.0
 51
180.0
  0
LINE
  5
163B3
330
747D
100
AcDbEntity
  8
細線
  6
Continuous
370
    15
100
AcDbLine
 10
5586.902695107469
 20
4430.249440530373
 30
0.0
 11
5582.316696810732
 21
4430.249440530373
 31
0.0
  0
LINE
  5
163B4
330
747D
100
AcDbEntity
  8
細線
  6
Continuous
370
    15
100
AcDbLine
 10
5586.907910513887
 20
4349.280881742074
 30
0.0
 11
5582.316696810732
 21
4349.280881742074
 31
0.0
  0
ARC
  5
163B5
330
747D
100
AcDbEntity
  8
細線
  6
Continuous
370
    15
100
AcDbCircle
 10
5582.316696810732
 20
4350.280881742073
 30
0.0
 40
1.0
100
AcDbArc
 50
180.0
 51
270.0
  0
LINE
  5
163B6
330
747D
100
AcDbEntity
  8
細線
  6
Continuous
370
    15
100
AcDbLine
 10
5592.586687493334
 20
4430.249440530373
 30
0.0
 11
5586.787218282448
 21
4430.249440530373
 31
0.0
  0
LWPOLYLINE
  5
163F9
330
747D
100
AcDbEntity
  8
細線
  6
Continuous
370
    15
100
AcDbPolyline
 90
        3
 70
   128
 43
0.0
 10
6557.902126717576
 20
4320.724594453408
 10
6557.973711895951
 20
4320.700335362984
 10
6557.988911080369
 20
4320.69765315397
  0
ARC
  5
163FA
330
747D
100
AcDbEntity
  8
細線
  6
Continuous
370
    15
100
AcDbCircle
 10
6554.488899214679
 20
4313.711020175863
 30
0.0
 40
7.799999999999959
100
AcDbArc
 50
64.04961909222373
 51
115.6437752580401
  0
LWPOLYLINE
  5
163FB
330
747D
100
AcDbEntity
  8
細線
  6
Continuous
370
    15
100
AcDbPolyline
 90
        3
 70
   128
 43
0.0
 10
6550.988911795625
 20
4320.713209966256
 10
6551.041542696961
 20
4320.71887240751
 10
6551.113247084626
 20
4320.74271426542
  0
SPLINE
  5
163FC
330
747D
100
AcDbEntity
  8
細線
  6
Continuous
370
    15
100
AcDbSpline
210
0.0
220
0.0
230
1.0
 70
     8
 71
     3
 72
     9
 73
     5
 74
     0
 42
0.000000001
 43
0.0000000001
 40
0.0
 40
0.0
 40
0.0
 40
0.0
 40
0.7237658969060897
 40
1.0
 40
1.0
 40
1.0
 40
1.0
 10
6536.393820452699
 20
4348.0228065048
 30
0.0
 10
6536.58956194962
 20
4348.251487947011
 30
0.0
 10
6536.860010581925
 20
4348.567448457427
 30
0.0
 10
6536.897542827637
 20
4349.126462891305
 30
0.0
 10
6536.907910513886
 20
4349.280881742074
 30
0.0
  0
SPLINE
  5
163FD
330
747D
100
AcDbEntity
  8
細線
  6
Continuous
370
    15
100
AcDbSpline
210
0.0
220
0.0
230
1.0
 70
     8
 71
     3
 72
     9
 73
     5
 74
     0
 42
0.000000001
 43
0.0000000001
 40
0.0
 40
0.0
 40
0.0
 40
0.0
 40
0.1817420378681831
 40
1.0
 40
1.0
 40
1.0
 40
1.0
 10
6536.902695107468
 20
4430.249440530373
 30
0.0
 10
6536.895699442967
 20
4430.343954996788
 30
0.0
 10
6536.857207167914
 20
4430.864002353628
 30
0.0
 10
6536.602355147528
 20
4431.158356502275
 30
0.0
 10
6536.393820452699
 20
4431.399214128091
 30
0.0
  0
LINE
  5
163FE
330
747D
100
AcDbEntity
  8
細線
  6
Continuous
370
    15
100
AcDbLine
 10
6562.077104258546
 20
4425.961363175942
 30
0.0
 11
6562.077104258546
 21
4353.460657456948
 31
0.0
  0
LINE
  5
163FF
330
747D
100
AcDbEntity
  8
細線
  6
Continuous
370
    15
100
AcDbLine
 10
6556.639253306397
 20
4348.0228065048
 30
0.0
 11
6536.393820452699
 21
4348.0228065048
 31
0.0
  0
ELLIPSE
  5
16400
330
747D
100
AcDbEntity
  8
細線
  6
Continuous
370
    15
100
AcDbEllipse
 10
6531.588899214714
 20
4349.171942706337
 30
0.0
 11
5.399999999999976
 21
0.0
 31
0.0
210
0.0
220
0.0
230
1.0
 40
0.4663076581550023
 41
5.04728513882407
 42
5.809296398627029
  0
LINE
  5
16401
330
747D
100
AcDbEntity
  8
細線
  6
Continuous
370
    15
100
AcDbLine
 10
6533.363728928574
 20
4346.793758729531
 30
0.0
 11
6531.58891122342
 21
4346.793758729531
 31
0.0
  0
LINE
  5
16402
330
747D
100
AcDbEntity
  8
細線
  6
Continuous
370
    15
100
AcDbLine
 10
6531.58891122342
 20
4432.628261903359
 30
0.0
 11
6533.363728928574
 21
4432.628261903359
 31
0.0
  0
ELLIPSE
  5
16403
330
747D
100
AcDbEntity
  8
細線
  6
Continuous
370
    15
100
AcDbEllipse
 10
6531.588899214714
 20
4430.250097645375
 30
0.0
 11
5.399999999999976
 21
0.0
 31
0.0
210
0.0
220
0.0
230
1.0
 40
0.4663076581550023
 41
0.4738889085525403
 42
1.235900168355494
  0
LINE
  5
16404
330
747D
100
AcDbEntity
  8
細線
  6
Continuous
370
    15
100
AcDbLine
 10
6536.393820452699
 20
4431.399214128091
 30
0.0
 11
6556.639253306397
 21
4431.399214128091
 31
0.0
  0
ELLIPSE
  5
16405
330
747D
100
AcDbEntity
  8
細線
  6
Continuous
370
    15
100
AcDbEllipse
 10
6531.588899214714
 20
4429.31813294509
 30
0.0
 11
0.0
 21
-3.310133756887523
 31
0.0
210
0.0
220
0.0
230
1.0
 40
0.9063077870366367
 41
3.141592653589783
 42
4.712388980384702
  0
ELLIPSE
  5
16406
330
747D
100
AcDbEntity
  8
細線
  6
Continuous
370
    15
100
AcDbEllipse
 10
6531.588899214714
 20
4350.103907406636
 30
0.0
 11
0.0
 21
-3.310133756887466
 31
0.0
210
0.0
220
0.0
230
1.0
 40
0.9063077870366523
 41
4.712388980384702
 42
6.283185307179586
  0
ARC
  5
16407
330
747D
100
AcDbEntity
  8
細線
  6
Continuous
370
    15
100
AcDbCircle
 10
6554.488899214679
 20
4313.711020175863
 30
0.0
 40
7.499999999999996
100
AcDbArc
 50
120.3006176375393
 51
59.69938236246067
  0
SPLINE
  5
16408
330
747D
100
AcDbEntity
  8
細線
  6
Continuous
370
    15
100
AcDbSpline
210
0.0
220
0.0
230
1.0
 70
    24
 71
     3
 72
     9
 73
     5
 74
     0
 42
0.000000001
 43
0.0000000001
 40
0.0
 40
0.0
 40
0.0
 40
0.0
 40
0.8663703693180105
 40
1.0
 40
1.0
 40
1.0
 40
1.0
 10
6550.988911795625
 20
4320.520388940408
 30
0.0
 10
6550.988911795625
 20
4320.46801738022
 30
0.0
 10
6550.988911795625
 20
4320.407567990407
 30
0.0
 10
6550.988911795625
 20
4320.351720142397
 30
0.0
 10
6550.988911795625
 20
4320.344257215096
 30
0.0
  0
LINE
  5
16409
330
747D
100
AcDbEntity
  8
細線
  6
Continuous
370
    15
100
AcDbLine
 10
6550.988911795625
 20
4320.344257215096
 30
0.0
 11
6550.704865860947
 21
4320.186424115731
 31
0.0
  0
LINE
  5
1640A
330
747D
100
AcDbEntity
  8
細線
  6
Continuous
370
    15
100
AcDbLine
 10
6558.272927212724
 20
4320.186424115731
 30
0.0
 11
6557.988911080369
 21
4320.344257215096
 31
0.0
  0
SPLINE
  5
1640B
330
747D
100
AcDbEntity
  8
細線
  6
Continuous
370
    15
100
AcDbSpline
210
0.0
220
0.0
230
1.0
 70
    24
 71
     3
 72
     9
 73
     5
 74
     0
 42
0.000000001
 43
0.0000000001
 40
0.0
 40
0.0
 40
0.0
 40
0.0
 40
0.8651188723649402
 40
1.0
 40
1.0
 40
1.0
 40
1.0
 10
6557.988911080369
 20
4320.344257215096
 30
0.0
 10
6557.988911080369
 20
4320.394344532529
 30
0.0
 10
6557.988911080369
 20
4320.45224098934
 30
0.0
 10
6557.988911080369
 20
4320.512289526059
 30
0.0
 10
6557.988911080369
 20
4320.520388940408
 30
0.0
  0
ARC
  5
1640C
330
747D
100
AcDbEntity
  8
細線
  6
Continuous
370
    15
100
AcDbCircle
 10
6554.488899214679
 20
4313.711020175863
 30
0.0
 40
9.499999999999973
100
AcDbArc
 50
69.15570700480905
 51
110.8442929951909
  0
LINE
  5
1640D
330
747D
100
AcDbEntity
  8
細線
  6
Continuous
370
    15
100
AcDbLine
 10
6557.988911080369
 20
4320.520388940408
 30
0.0
 11
6557.988911080369
 21
4322.415697434975
 31
0.0
  0
LINE
  5
1640E
330
747D
100
AcDbEntity
  8
細線
  6
Continuous
370
    15
100
AcDbLine
 10
6550.988911795625
 20
4322.415697434975
 30
0.0
 11
6550.988911795625
 21
4320.520388940408
 31
0.0
  0
LINE
  5
1640F
330
747D
100
AcDbEntity
  8
細線
  6
Continuous
370
    15
100
AcDbLine
 10
6557.988911080369
 20
4322.415697434975
 30
0.0
 11
6557.988911080369
 21
4322.542774537637
 31
0.0
  0
LINE
  5
16410
330
747D
100
AcDbEntity
  8
細線
  6
Continuous
370
    15
100
AcDbLine
 10
6557.988911080369
 20
4322.542774537637
 30
0.0
 11
6557.869284558305
 21
4322.589266160561
 31
0.0
  0
LINE
  5
16411
330
747D
100
AcDbEntity
  8
細線
  6
Continuous
370
    15
100
AcDbLine
 10
6551.108508515366
 20
4322.589266160561
 30
0.0
 11
6550.988911795625
 21
4322.542774537637
 31
0.0
  0
LINE
  5
16412
330
747D
100
AcDbEntity
  8
細線
  6
Continuous
370
    15
100
AcDbLine
 10
6550.988911795625
 20
4322.542774537637
 30
0.0
 11
6550.988911795625
 21
4322.415697434975
 31
0.0
  0
ARC
  5
16413
330
747D
100
AcDbEntity
  8
細線
  6
Continuous
370
    15
100
AcDbCircle
 10
6571.48889921468
 20
4453.711020175863
 30
0.0
 40
6.0
100
AcDbArc
 50
0.0
 51
90.0
  0
LINE
  5
16414
330
747D
100
AcDbEntity
  8
細線
  6
Continuous
370
    15
100
AcDbLine
 10
6577.488898444184
 20
4453.711020806863
 30
0.0
 11
6577.488898444184
 21
4285.711037973
 31
0.0
  0
LINE
  5
16415
330
747D
100
AcDbEntity
  8
細線
  6
Continuous
370
    15
100
AcDbLine
 10
6519.488900113114
 20
4285.711037973
 30
0.0
 11
6519.488900113114
 21
4453.711020806863
 31
0.0
  0
LINE
  5
16416
330
747D
100
AcDbEntity
  8
細線
  6
Continuous
370
    15
100
AcDbLine
 10
6525.488912272462
 20
4459.711062768533
 30
0.0
 11
6571.488886284837
 21
4459.711062768533
 31
0.0
  0
ARC
  5
16417
330
747D
100
AcDbEntity
  8
細線
  6
Continuous
370
    15
100
AcDbCircle
 10
6571.48889921468
 20
4285.711020175863
 30
0.0
 40
6.0
100
AcDbArc
 50
270.0
 51
0.0
  0
ARC
  5
16418
330
747D
100
AcDbEntity
  8
細線
  6
Continuous
370
    15
100
AcDbCircle
 10
6525.488899214678
 20
4453.711020175863
 30
0.0
 40
6.0
100
AcDbArc
 50
90.0
 51
180.0
  0
LINE
  5
16419
330
747D
100
AcDbEntity
  8
細線
  6
Continuous
370
    15
100
AcDbLine
 10
6571.488886284837
 20
4279.71099601133
 30
0.0
 11
6525.488912272462
 21
4279.71099601133
 31
0.0
  0
ARC
  5
1641A
330
747D
100
AcDbEntity
  8
細線
  6
Continuous
370
    15
100
AcDbCircle
 10
6525.488899214678
 20
4285.711020175863
 30
0.0
 40
6.0
100
AcDbArc
 50
180.0
 51
270.0
  0
LINE
  5
1641B
330
747D
100
AcDbEntity
  8
細線
  6
Continuous
370
    15
100
AcDbLine
 10
6560.585199999818
 20
4323.943245271279
 30
0.0
 11
6560.585199999818
 21
4319.927859166695
 31
0.0
  0
ARC
  5
1641C
330
747D
100
AcDbEntity
  8
細線
  6
Continuous
370
    15
100
AcDbCircle
 10
6554.488899214679
 20
4313.711020175863
 30
0.0
 40
8.707106781186586
100
AcDbArc
 50
134.4391355081549
 51
45.56086449184513
  0
LINE
  5
1641D
330
747D
100
AcDbEntity
  8
細線
  6
Continuous
370
    15
100
AcDbLine
 10
6548.392622876176
 20
4319.927859166695
 30
0.0
 11
6548.392622876176
 21
4323.943245271279
 31
0.0
  0
SPLINE
  5
1641E
330
747D
100
AcDbEntity
  8
細線
  6
Continuous
370
    15
100
AcDbSpline
210
0.0
220
0.0
230
1.0
 70
     8
 71
     3
 72
    11
 73
     7
 74
     0
 42
0.000000001
 43
0.0000000001
 40
0.0
 40
0.0
 40
0.0
 40
0.0
 40
0.0781314889249488
 40
0.3601777463886433
 40
0.6812698848259567
 40
1.0
 40
1.0
 40
1.0
 40
1.0
 10
6548.582672286042
 20
4324.267375329568
 30
0.0
 10
6548.573809855347
 20
4324.262187214059
 30
0.0
 10
6548.53295500462
 20
4324.238270560542
 30
0.0
 10
6548.464209861055
 20
4324.178960232691
 30
0.0
 10
6548.402168349731
 20
4324.070094926706
 30
0.0
 10
6548.395796860181
 20
4323.98542429728
 30
0.0
 10
6548.392622876176
 20
4323.943245271279
 30
0.0
  0
ARC
  5
1641F
330
747D
100
AcDbEntity
  8
細線
  6
Continuous
370
    15
100
AcDbCircle
 10
6554.488899214679
 20
4313.711020175863
 30
0.0
 40
12.09629120178367
100
AcDbArc
 50
60.77315626978887
 51
119.2268437302111
  0
SPLINE
  5
16420
330
747D
100
AcDbEntity
  8
細線
  6
Continuous
370
    15
100
AcDbSpline
210
0.0
220
0.0
230
1.0
 70
     8
 71
     3
 72
    11
 73
     7
 74
     0
 42
0.000000001
 43
0.0000000001
 40
0.0
 40
0.0
 40
0.0
 40
0.0
 40
0.0779029322309155
 40
0.3600683505069131
 40
0.6812326600027312
 40
1.0
 40
1.0
 40
1.0
 40
1.0
 10
6560.585199999818
 20
4323.943245271279
 30
0.0
 10
6560.584997726653
 20
4323.953482197016
 30
0.0
 10
6560.584062817586
 20
4324.000797398898
 30
0.0
 10
6560.565865807925
 20
4324.089734155074
 30
0.0
 10
6560.501208778839
 20
4324.19709863441
 30
0.0
 10
6560.43041492954
 20
4324.244008333844
 30
0.0
 10
6560.395150589951
 20
4324.267375329568
 30
0.0
  0
LINE
  5
16421
330
747D
100
AcDbEntity
  8
細線
  6
Continuous
370
    15
100
AcDbLine
 10
6531.521443533906
 20
4438.711035111977
 30
0.0
 11
6562.388895440109
 21
4438.711035111977
 31
0.0
  0
LINE
  5
16422
330
747D
100
AcDbEntity
  8
細線
  6
Continuous
370
    15
100
AcDbLine
 10
6526.521443533906
 20
4345.711045125558
 30
0.0
 11
6526.521443533906
 21
4433.711035111978
 31
0.0
  0
ARC
  5
16423
330
747D
100
AcDbEntity
  8
細線
  6
Continuous
370
    15
100
AcDbCircle
 10
6531.521443533906
 20
4433.711035111978
 30
0.0
 40
5.0
100
AcDbArc
 50
90.0
 51
180.0
  0
LINE
  5
16424
330
747D
100
AcDbEntity
  8
細線
  6
Continuous
370
    15
100
AcDbLine
 10
6528.588890242585
 20
4429.31813294509
 30
0.0
 11
6528.588890242585
 21
4350.103907406636
 31
0.0
  0
LINE
  5
16425
330
747D
100
AcDbEntity
  8
細線
  6
Continuous
370
    15
100
AcDbLine
 10
6569.38889544011
 20
4431.711035111978
 30
0.0
 11
6569.38889544011
 21
4347.711045125558
 31
0.0
  0
ARC
  5
16426
330
747D
100
AcDbEntity
  8
細線
  6
Continuous
370
    15
100
AcDbCircle
 10
6562.388895440109
 20
4347.711045125558
 30
0.0
 40
7.0
100
AcDbArc
 50
270.0
 51
0.0
  0
ARC
  5
16427
330
747D
100
AcDbEntity
  8
細線
  6
Continuous
370
    15
100
AcDbCircle
 10
6562.388895440109
 20
4431.711035111978
 30
0.0
 40
7.0
100
AcDbArc
 50
0.0
 51
90.0
  0
LINE
  5
16428
330
747D
100
AcDbEntity
  8
細線
  6
Continuous
370
    15
100
AcDbLine
 10
6562.388895440109
 20
4340.711045125558
 30
0.0
 11
6531.521443533906
 21
4340.711045125558
 31
0.0
  0
ARC
  5
16429
330
747D
100
AcDbEntity
  8
細線
  6
Continuous
370
    15
100
AcDbCircle
 10
6531.521443533906
 20
4345.711045125558
 30
0.0
 40
5.0
100
AcDbArc
 50
180.0
 51
270.0
  0
ARC
  5
1642A
330
747D
100
AcDbEntity
  8
細線
  6
Continuous
370
    15
100
AcDbCircle
 10
6555.30850212959
 20
4354.791408633756
 30
0.0
 40
6.898178997000096
100
AcDbArc
 50
281.1228560456502
 51
348.8771439544009
  0
ARC
  5
1642B
330
747D
100
AcDbEntity
  8
細線
  6
Continuous
370
    15
100
AcDbCircle
 10
6555.308554155947
 20
4424.630664025507
 30
0.0
 40
6.89811791144148
100
AcDbArc
 50
11.12251539540163
 51
78.87748460464951
  0
LINE
  5
1642C
330
747D
100
AcDbEntity
  8
細線
  6
Continuous
370
    15
100
AcDbLine
 10
6544.586687493333
 20
4351.280881742074
 30
0.0
 11
6544.586687493333
 21
4428.249440530374
 31
0.0
  0
ARC
  5
1642D
330
747D
100
AcDbEntity
  8
細線
  6
Continuous
370
    15
100
AcDbCircle
 10
6542.586687493333
 20
4428.249440530374
 30
0.0
 40
2.0
100
AcDbArc
 50
0.0
 51
90.0
  0
ARC
  5
1642E
330
747D
100
AcDbEntity
  8
細線
  6
Continuous
370
    15
100
AcDbCircle
 10
6542.586676572063
 20
4351.265176538059
 30
0.0
 40
2.0
100
AcDbArc
 50
262.8149626715364
 51
0.0
  0
LWPOLYLINE
  5
1642F
330
747D
100
AcDbEntity
  8
細線
 48
50.0
100
AcDbPolyline
 90
        4
 70
     1
 43
0.0
 10
6555.750995087632
 20
4308.882641652657
 10
6553.226827788361
 20
4308.882641652657
 10
6553.226827788361
 20
4318.539428571297
 10
6555.750995087632
 20
4318.539428571297
  0
LINE
  5
16430
330
747D
100
AcDbEntity
  8
細線
  6
Continuous
370
    15
100
AcDbLine
 10
6542.586687493333
 20
4349.280881742074
 30
0.0
 11
6536.907910513886
 21
4349.280881742076
 31
0.0
  0
LINE
  5
16431
330
747D
100
AcDbEntity
  8
細線
  6
Continuous
370
    15
100
AcDbLine
 10
6531.316696810731
 20
4350.280881742075
 30
0.0
 11
6531.316696810731
 21
4429.249440530374
 31
0.0
  0
ARC
  5
16432
330
747D
100
AcDbEntity
  8
細線
  6
Continuous
370
    15
100
AcDbCircle
 10
6532.31669681073
 20
4429.249440530374
 30
0.0
 40
1.0
100
AcDbArc
 50
90.0
 51
180.0
  0
LINE
  5
16433
330
747D
100
AcDbEntity
  8
細線
  6
Continuous
370
    15
100
AcDbLine
 10
6536.902695107468
 20
4430.249440530373
 30
0.0
 11
6532.31669681073
 21
4430.249440530373
 31
0.0
  0
LINE
  5
16434
330
747D
100
AcDbEntity
  8
細線
  6
Continuous
370
    15
100
AcDbLine
 10
6536.907910513886
 20
4349.280881742074
 30
0.0
 11
6532.31669681073
 21
4349.280881742074
 31
0.0
  0
ARC
  5
16435
330
747D
100
AcDbEntity
  8
細線
  6
Continuous
370
    15
100
AcDbCircle
 10
6532.31669681073
 20
4350.280881742075
 30
0.0
 40
1.0
100
AcDbArc
 50
180.0
 51
270.0
  0
LINE
  5
16436
330
747D
100
AcDbEntity
  8
細線
  6
Continuous
370
    15
100
AcDbLine
 10
6542.586687493333
 20
4430.249440530373
 30
0.0
 11
6536.787218282447
 21
4430.249440530373
 31
0.0
  0
LINE
  5
1643E
330
747D
100
AcDbEntity
  8
細線
 48
50.0
100
AcDbLine
 10
5648.988900113118
 20
8347.919259793874
 30
0.0
 11
5648.988900113118
 21
8321.919259793826
 31
0.0
  0
LINE
  5
1643F
330
747D
100
AcDbEntity
  8
細線
 48
50.0
100
AcDbLine
 10
5891.488900113118
 20
8347.919259793862
 30
0.0
 11
5891.488900113118
 21
8321.919259793826
 31
0.0
  0
LINE
  5
16440
330
747D
100
AcDbEntity
  8
細線
 48
50.0
100
AcDbLine
 10
5851.488900113118
 20
8347.919259793862
 30
0.0
 11
5851.488900113118
 21
8321.919259793826
 31
0.0
  0
LINE
  5
16448
330
747D
100
AcDbEntity
  8
細線
 48
50.0
100
AcDbLine
 10
6598.988900113117
 20
8347.919259793874
 30
0.0
 11
6598.988900113117
 21
8321.919259793826
 31
0.0
  0
LINE
  5
16449
330
747D
100
AcDbEntity
  8
細線
 48
50.0
100
AcDbLine
 10
6841.488900113119
 20
8347.919259793862
 30
0.0
 11
6841.488900113119
 21
8321.919259793826
 31
0.0
  0
LINE
  5
1644A
330
747D
100
AcDbEntity
  8
細線
 48
50.0
100
AcDbLine
 10
6801.488900113118
 20
8347.919259793862
 30
0.0
 11
6801.488900113118
 21
8321.919259793826
 31
0.0
  0
TEXT
  5
16453
330
747D
100
AcDbEntity
  8
文字
 62
     7
 48
50.0
100
AcDbText
 10
15047.13957933145
 20
1031.557706291228
 30
0.0
 40
100.0
  1
     <縮尺> S=1/40
  7
STYLE2
100
AcDbText
  0
DIMENSION
  5
164A1
330
747D
100
AcDbEntity
  8
寸法
100
AcDbDimension
  2
*D32
 10
8746.323191228396
 20
3453.211062768536
 30
0.0
 11
8746.323191228396
 21
4358.246074644919
 31
0.0
 70
   160
 71
     5
 42
1789.999999999997
  3
INABA_S40G
100
AcDbAlignedDimension
 13
9348.286281920598
 23
5243.211062768533
 33
0.0
 14
9341.283911875819
 24
3453.211062768535
 34
0.0
 50
90.0
100
AcDbRotatedDimension
1001
ACAD
1000
DSTYLE
1002
{
1070
   288
1070
     1
1002
}
  0
LINE
  5
164A2
330
747D
100
AcDbEntity
  8
部品1
 48
50.0
100
AcDbLine
 10
9341.283911875819
 20
5234.211174218279
 30
0.0
 11
9348.286281920598
 21
5234.211174218279
 31
0.0
  0
LINE
  5
164A3
330
747D
100
AcDbEntity
  8
部品1
 48
0.2
100
AcDbLine
 10
9341.283911875819
 20
5243.111174218278
 30
0.0
 11
9341.283911875819
 21
5234.211174218279
 31
0.0
  0
LINE
  5
164A4
330
747D
100
AcDbEntity
  8
部品1
 48
50.0
100
AcDbLine
 10
9341.283911875819
 20
3447.31117421827
 30
0.0
 11
9348.286281920598
 21
3447.31117421827
 31
0.0
  0
LINE
  5
164A5
330
747D
100
AcDbEntity
  8
部品1
 48
0.2
100
AcDbLine
 10
9341.283911875819
 20
3456.21117421827
 30
0.0
 11
9341.283911875819
 21
3447.31117421827
 31
0.0
  0
LINE
  5
164A6
330
747D
100
AcDbEntity
  8
部品1
 48
50.0
100
AcDbLine
 10
9341.283911875819
 20
3456.21117421827
 30
0.0
 11
9348.286281920598
 21
3456.21117421827
 31
0.0
  0
LINE
  5
164A7
330
747D
100
AcDbEntity
  8
部品
 48
50.0
100
AcDbLine
 10
9341.283911875819
 20
5243.111174218278
 30
0.0
 11
9348.286281920598
 21
5243.111174218278
 31
0.0
  0
ENDSEC
  0
SECTION
  2
OBJECTS
  0
DICTIONARY
  5
7471
330
0
100
AcDbDictionary
281
     1
  3
ACAD_CIP_PREVIOUS_PRODUCT_INFO
350
162FF
  3
ACAD_COLOR
350
14FA5
  3
ACAD_DETAILVIEWSTYLE
350
162F5
  3
ACAD_GROUP
350
7472
  3
ACAD_LAYOUT
350
14FA6
  3
ACAD_MATERIAL
350
14FA4
  3
ACAD_MLEADERSTYLE
350
162F1
  3
ACAD_MLINESTYLE
350
7473
  3
ACAD_PLOTSETTINGS
350
14FA7
  3
ACAD_PLOTSTYLENAME
350
14FA2
  3
ACAD_SCALELIST
350
162DF
  3
ACAD_SECTIONVIEWSTYLE
350
162F3
  3
ACAD_TABLESTYLE
350
162DD
  3
ACAD_VISUALSTYLE
350
162C4
  3
ACDB_RECOMPOSE_DATA
350
164DE
  3
AcDbVariableDictionary
350
16324
  3
AcDsDecomposeData
350
164E5
  3
CONTENTDICTIONARY
350
E71C
  3
DRAWINGVARIABLESDICT
350
F3B9
  3
DWGPROPS
350
164DF
  0
DICTIONARY
  5
15137
330
7467
100
AcDbDictionary
280
     1
281
     1
  3
ACAD_LAYERSTATES
360
15138
  0
DICTIONARY
  5
16301
330
7474
100
AcDbDictionary
280
     1
281
     1
  3
ADSK_XREC_LAYER_RECONCILED
360
16302
  0
DICTIONARY
  5
16303
330
DEB2
100
AcDbDictionary
280
     1
281
     1
  3
ADSK_XREC_LAYER_RECONCILED
360
16304
  0
DICTIONARY
  5
16305
330
DEB3
100
AcDbDictionary
280
     1
281
     1
  3
ADSK_XREC_LAYER_RECONCILED
360
16306
  0
DICTIONARY
  5
16307
330
DEB4
100
AcDbDictionary
280
     1
281
     1
  3
ADSK_XREC_LAYER_RECONCILED
360
16308
  0
DICTIONARY
  5
16309
330
DEB5
100
AcDbDictionary
280
     1
281
     1
  3
ADSK_XREC_LAYER_RECONCILED
360
1630A
  0
DICTIONARY
  5
1630B
330
DEB6
100
AcDbDictionary
280
     1
281
     1
  3
ADSK_XREC_LAYER_RECONCILED
360
1630C
  0
DICTIONARY
  5
1630D
330
10B54
100
AcDbDictionary
280
     1
281
     1
  3
ADSK_XREC_LAYER_RECONCILED
360
1630E
  0
DICTIONARY
  5
1630F
330
11729
100
AcDbDictionary
280
     1
281
     1
  3
ADSK_XREC_LAYER_RECONCILED
360
16310
  0
DICTIONARY
  5
16311
330
1173F
100
AcDbDictionary
280
     1
281
     1
  3
ADSK_XREC_LAYER_RECONCILED
360
16312
  0
DICTIONARY
  5
16313
330
118A1
100
AcDbDictionary
280
     1
281
     1
  3
ADSK_XREC_LAYER_RECONCILED
360
16314
  0
DICTIONARY
  5
16315
330
123C1
100
AcDbDictionary
280
     1
281
     1
  3
ADSK_XREC_LAYER_RECONCILED
360
16316
  0
DICTIONARY
  5
16493
330
16492
100
AcDbDictionary
280
     1
281
     1
  0
XRECORD
  5
162FF
102
{ACAD_REACTORS
330
7471
102
}
330
7471
100
AcDbXrecord
280
     1
300
ACDLT
300
2014
300
ACDLT_F_S
  0
DICTIONARY
  5
14FA5
102
{ACAD_REACTORS
330
7471
102
}
330
7471
100
AcDbDictionary
281
     1
  0
DICTIONARY
  5
162F5
102
{ACAD_REACTORS
330
7471
102
}
330
7471
100
AcDbDictionary
281
     1
  3
Metric50
350
162F6
  0
DICTIONARY
  5
7472
102
{ACAD_REACTORS
330
7471
102
}
330
7471
100
AcDbDictionary
281
     1
  0
DICTIONARY
  5
14FA6
102
{ACAD_REACTORS
330
7471
102
}
330
7471
100
AcDbDictionary
281
     1
  3
Model
350
14FA8
  3
レイアウト1
350
14FA9
  0
DICTIONARY
  5
14FA4
102
{ACAD_REACTORS
330
7471
102
}
330
7471
100
AcDbDictionary
281
     1
  3
ByBlock
350
162B4
  3
ByLayer
350
162AC
  3
Global
350
162BC
  0
DICTIONARY
  5
162F1
102
{ACAD_REACTORS
330
7471
102
}
330
7471
100
AcDbDictionary
281
     1
  3
Standard
350
162F2
  0
DICTIONARY
  5
7473
102
{ACAD_REACTORS
330
7471
102
}
330
7471
100
AcDbDictionary
281
     1
  3
STANDARD
350
7480
  0
DICTIONARY
  5
14FA7
102
{ACAD_REACTORS
330
7471
102
}
330
7471
100
AcDbDictionary
281
     1
  0
ACDBDICTIONARYWDFLT
  5
14FA2
102
{ACAD_REACTORS
330
7471
102
}
330
7471
100
AcDbDictionary
281
     1
  3
Normal
350
14FA3
100
AcDbDictionaryWithDefault
340
14FA3
  0
DICTIONARY
  5
162DF
102
{ACAD_REACTORS
330
7471
102
}
330
7471
100
AcDbDictionary
281
     1
  3
A0
350
162E0
  3
A1
350
162E1
  3
A2
350
162E2
  3
A3
350
162E3
  3
A4
350
162E4
  3
A5
350
162E5
  3
A6
350
162E6
  3
A7
350
162E7
  3
A8
350
162E8
  3
A9
350
162E9
  3
B0
350
162EA
  3
B1
350
162EB
  3
B2
350
162EC
  3
B3
350
162ED
  3
B4
350
162EE
  3
B5
350
162EF
  3
B6
350
162F0
  0
DICTIONARY
  5
162F3
102
{ACAD_REACTORS
330
7471
102
}
330
7471
100
AcDbDictionary
281
     1
  3
Metric50
350
162F4
  0
DICTIONARY
  5
162DD
102
{ACAD_REACTORS
330
7471
102
}
330
7471
100
AcDbDictionary
281
     1
  3
Standard
350
162DE
  0
DICTIONARY
  5
162C4
102
{ACAD_REACTORS
330
7471
102
}
330
7471
100
AcDbDictionary
281
     1
  3
2dWireframe
350
162CA
  3
Basic
350
162C9
  3
Brighten
350
162D0
  3
ColorChange
350
162D4
  3
Conceptual
350
162CD
  3
Dim
350
162CF
  3
EdgeColorOff
350
162DC
  3
Facepattern
350
162D3
  3
Flat
350
162C5
  3
FlatWithEdges
350
162C6
  3
Gouraud
350
162C7
  3
GouraudWithEdges
350
162C8
  3
Hidden
350
162CC
  3
JitterOff
350
162DA
  3
Linepattern
350
162D2
  3
OverhangOff
350
162DB
  3
Realistic
350
162CE
  3
Shaded
350
162D9
  3
Shaded with edges
350
162D8
  3
Shades of Gray
350
162D5
  3
Sketchy
350
162D6
  3
Thicken
350
162D1
  3
Wireframe
350
162CB
  3
X-Ray
350
162D7
  0
XRECORD
  5
164DE
102
{ACAD_REACTORS
330
7471
102
}
330
7471
100
AcDbXrecord
280
     1
 90
        1
330
14BFD
330
14C4B
330
14F93
330
162DE
  0
DICTIONARY
  5
16324
102
{ACAD_REACTORS
330
7471
102
}
330
7471
100
AcDbDictionary
281
     1
  3
CANNOSCALE
350
1632A
  3
CMLEADERSTYLE
350
16326
  3
CTABLESTYLE
350
16325
  3
CVIEWDETAILSTYLE
350
16327
  3
CVIEWSECTIONSTYLE
350
16328
  3
DIMASSOC
350
164DB
  3
INDEXCTL
350
164D9
  3
LAYEREVAL
350
1632C
  3
LAYERNOTIFY
350
1632D
  3
LIGHTINGUNITS
350
1632B
  3
MSLTSCALE
350
16329
  3
SORTENTS
350
164D8
  3
XCLIPFRAME
350
164DA
  0
DICTIONARY
  5
164E5
102
{ACAD_REACTORS
330
7471
102
}
330
7471
100
AcDbDictionary
281
     1
  3
AcDsRecords
350
164E7
  3
AcDsSchemas
350
164E6
1001
ACAD
1070
     2
  0
DICTIONARY
  5
E71C
102
{ACAD_REACTORS
330
7471
102
}
330
7471
100
AcDbDictionary
281
     1
  0
DICTIONARY
  5
F3B9
102
{ACAD_REACTORS
330
7471
102
}
330
7471
100
AcDbDictionary
281
     1
1001
DRAWINGVARIABLESXDATA
1000
POLARMODE
1000
1
  0
XRECORD
  5
164DF
102
{ACAD_REACTORS
330
7471
102
}
330
7471
100
AcDbXrecord
280
     1
  1
DWGPROPS COOKIE
  2

  3

  4

  6

  7

  8
TSUJIKAWA
  9

300
=
301
=
302
=
303
=
304
=
305
=
306
=
307
=
308
=
309
=
 40
0.5296452662037038
 41
2452116.684896065
 42
2457984.4563161
  1

 90
        0
  0
DICTIONARY
  5
15138
102
{ACAD_REACTORS
330
15137
102
}
330
15137
100
AcDbDictionary
281
     1
  0
XRECORD
  5
16302
102
{ACAD_REACTORS
330
16301
102
}
330
16301
100
AcDbXrecord
280
     1
290
     1
  0
XRECORD
  5
16304
102
{ACAD_REACTORS
330
16303
102
}
330
16303
100
AcDbXrecord
280
     1
290
     1
  0
XRECORD
  5
16306
102
{ACAD_REACTORS
330
16305
102
}
330
16305
100
AcDbXrecord
280
     1
290
     1
  0
XRECORD
  5
16308
102
{ACAD_REACTORS
330
16307
102
}
330
16307
100
AcDbXrecord
280
     1
290
     1
  0
XRECORD
  5
1630A
102
{ACAD_REACTORS
330
16309
102
}
330
16309
100
AcDbXrecord
280
     1
290
     1
  0
XRECORD
  5
1630C
102
{ACAD_REACTORS
330
1630B
102
}
330
1630B
100
AcDbXrecord
280
     1
290
     1
  0
XRECORD
  5
1630E
102
{ACAD_REACTORS
330
1630D
102
}
330
1630D
100
AcDbXrecord
280
     1
290
     1
  0
XRECORD
  5
16310
102
{ACAD_REACTORS
330
1630F
102
}
330
1630F
100
AcDbXrecord
280
     1
290
     1
  0
XRECORD
  5
16312
102
{ACAD_REACTORS
330
16311
102
}
330
16311
100
AcDbXrecord
280
     1
290
     1
  0
XRECORD
  5
16314
102
{ACAD_REACTORS
330
16313
102
}
330
16313
100
AcDbXrecord
280
     1
290
     1
  0
XRECORD
  5
16316
102
{ACAD_REACTORS
330
16315
102
}
330
16315
100
AcDbXrecord
280
     1
290
     1
  0
ACDBDETAILVIEWSTYLE
  5
162F6
102
{ACAD_XDICTIONARY
360
16321
102
}
102
{ACAD_REACTORS
330
162F5
102
}
330
162F5
100
AcDbModelDocViewStyle
 70
     0
  3
Metric50
290
     0
100
AcDbDetailViewStyle
 70
     0
 71
     0
 90
        3
 71
     1
340
7475
 40
5.0
340
0
 40
5.0
300

 40
0.0
280
     1
 71
     2
340
7479
 90
       25
 71
     3
340
7475
 40
5.0
 90
        0
 40
15.0
 90
        1
300
%<\AcVar ViewDetailId>% (%<\AcVar ViewScale \f "%sn">%)
 71
     4
340
7479
 90
       25
340
7479
 90
       25
280
     0
  0
LAYOUT
  5
14FA8
102
{ACAD_XDICTIONARY
360
164E8
102
}
102
{ACAD_REACTORS
330
14FA6
102
}
330
14FA6
100
AcDbPlotSettings
  1

  2
CubePDF
  4
A3
  6

 40
3.174999952316284
 41
3.174999952316284
 42
3.17498779296875
 43
3.17498779296875
 44
420.1583251953125
 45
297.0318298339844
 46
0.6042196843820023
 47
0.0
 48
424.6042489999999
 49
264.156711
140
1777.606053
141
968.930615
142
1.0
143
39.98278751715608
 70
  3764
 72
     1
 73
     0
 74
     2
  7
inabass.ctb
 75
     0
147
0.0250107624329823
148
25.79074261211281
149
125.8223078213959
100
AcDbLayout
  1
Model
 70
     1
 71
     0
 10
0.0
 20
0.0
 11
12.0
 21
9.0
 12
0.0
 22
0.0
 32
0.0
 14
0.0
 24
0.0
 34
0.0
 15
0.0
 25
0.0
 35
0.0
146
0.0
 13
0.0
 23
0.0
 33
0.0
 16
1.0
 26
0.0
 36
0.0
 17
0.0
 27
1.0
 37
0.0
 76
     0
330
747D
331
162AA
1001
ACAD_PSEXT
1000
CubePDF
1000
CubePDF
1000
CubePDF:
1000
CubePDF
1070
     0
  0
LAYOUT
  5
14FA9
102
{ACAD_XDICTIONARY
360
164EA
102
}
102
{ACAD_REACTORS
330
14FA6
102
}
330
14FA6
100
AcDbPlotSettings
  1

  2
Microsoft Office Document Image Writer
  4

  6

 40
0.0
 41
0.0
 42
0.0
 43
0.0
 44
0.0
 45
0.0
 46
0.0
 47
0.0
 48
0.0
 49
0.0
140
0.0
141
0.0
142
1.0
143
1.0
 70
   688
 72
     0
 73
     0
 74
     5
  7

 75
    16
147
1.0
148
0.0
149
0.0
100
AcDbLayout
  1
レイアウト1
 70
     0
 71
     1
 10
0.0
 20
0.0
 11
420.0
 21
297.0
 12
0.0
 22
0.0
 32
0.0
 14
1.000000000000000E+20
 24
1.000000000000000E+20
 34
1.000000000000000E+20
 15
-1.000000000000000E+20
 25
-1.000000000000000E+20
 35
-1.000000000000000E+20
146
0.0
 13
0.0
 23
0.0
 33
0.0
 16
1.0
 26
0.0
 36
0.0
 17
0.0
 27
1.0
 37
0.0
 76
     0
330
747A
  0
MATERIAL
  5
162B4
102
{ACAD_XDICTIONARY
360
162B5
102
}
102
{ACAD_REACTORS
330
14FA4
102
}
330
14FA4
100
AcDbMaterial
  1
ByBlock
 72
     0
 43
0.0208333333333333
 43
0.0
 43
0.0
 43
0.0
 43
0.0
 43
0.0208333333333333
 43
0.0
 43
0.0
 43
0.0
 43
0.0
 43
1.0
 43
0.0
 43
0.0
 43
0.0
 43
0.0
 43
1.0
 77
     0
 47
0.0208333333333333
 47
0.0
 47
0.0
 47
0.0
 47
0.0
 47
0.0208333333333333
 47
0.0
 47
0.0
 47
0.0
 47
0.0
 47
1.0
 47
0.0
 47
0.0
 47
0.0
 47
0.0
 47
1.0
171
     0
 49
0.0208333333333333
 49
0.0
 49
0.0
 49
0.0
 49
0.0
 49
0.0208333333333333
 49
0.0
 49
0.0
 49
0.0
 49
0.0
 49
1.0
 49
0.0
 49
0.0
 49
0.0
 49
0.0
 49
1.0
175
     0
142
0.0208333333333333
142
0.0
142
0.0
142
0.0
142
0.0
142
0.0208333333333333
142
0.0
142
0.0
142
0.0
142
0.0
142
1.0
142
0.0
142
0.0
142
0.0
142
0.0
142
1.0
179
     0
144
0.0208333333333333
144
0.0
144
0.0
144
0.0
144
0.0
144
0.0208333333333333
144
0.0
144
0.0
144
0.0
144
0.0
144
1.0
144
0.0
144
0.0
144
0.0
144
0.0
144
1.0
147
0.0208333333333333
147
0.0
147
0.0
147
0.0
147
0.0
147
0.0208333333333333
147
0.0
147
0.0
147
0.0
147
0.0
147
1.0
147
0.0
147
0.0
147
0.0
147
0.0
147
1.0
  0
MATERIAL
  5
162AC
102
{ACAD_XDICTIONARY
360
162AD
102
}
102
{ACAD_REACTORS
330
14FA4
102
}
330
14FA4
100
AcDbMaterial
  1
ByLayer
 72
     0
 43
0.0208333333333333
 43
0.0
 43
0.0
 43
0.0
 43
0.0
 43
0.0208333333333333
 43
0.0
 43
0.0
 43
0.0
 43
0.0
 43
1.0
 43
0.0
 43
0.0
 43
0.0
 43
0.0
 43
1.0
 77
     0
 47
0.0208333333333333
 47
0.0
 47
0.0
 47
0.0
 47
0.0
 47
0.0208333333333333
 47
0.0
 47
0.0
 47
0.0
 47
0.0
 47
1.0
 47
0.0
 47
0.0
 47
0.0
 47
0.0
 47
1.0
171
     0
 49
0.0208333333333333
 49
0.0
 49
0.0
 49
0.0
 49
0.0
 49
0.0208333333333333
 49
0.0
 49
0.0
 49
0.0
 49
0.0
 49
1.0
 49
0.0
 49
0.0
 49
0.0
 49
0.0
 49
1.0
175
     0
142
0.0208333333333333
142
0.0
142
0.0
142
0.0
142
0.0
142
0.0208333333333333
142
0.0
142
0.0
142
0.0
142
0.0
142
1.0
142
0.0
142
0.0
142
0.0
142
0.0
142
1.0
179
     0
144
0.0208333333333333
144
0.0
144
0.0
144
0.0
144
0.0
144
0.0208333333333333
144
0.0
144
0.0
144
0.0
144
0.0
144
1.0
144
0.0
144
0.0
144
0.0
144
0.0
144
1.0
147
0.0208333333333333
147
0.0
147
0.0
147
0.0
147
0.0
147
0.0208333333333333
147
0.0
147
0.0
147
0.0
147
0.0
147
1.0
147
0.0
147
0.0
147
0.0
147
0.0
147
1.0
  0
MATERIAL
  5
162BC
102
{ACAD_XDICTIONARY
360
162BD
102
}
102
{ACAD_REACTORS
330
14FA4
102
}
330
14FA4
100
AcDbMaterial
  1
Global
 72
     0
 43
0.0208333333333333
 43
0.0
 43
0.0
 43
0.0
 43
0.0
 43
0.0208333333333333
 43
0.0
 43
0.0
 43
0.0
 43
0.0
 43
1.0
 43
0.0
 43
0.0
 43
0.0
 43
0.0
 43
1.0
 77
     0
 47
0.0208333333333333
 47
0.0
 47
0.0
 47
0.0
 47
0.0
 47
0.0208333333333333
 47
0.0
 47
0.0
 47
0.0
 47
0.0
 47
1.0
 47
0.0
 47
0.0
 47
0.0
 47
0.0
 47
1.0
171
     0
 49
0.0208333333333333
 49
0.0
 49
0.0
 49
0.0
 49
0.0
 49
0.0208333333333333
 49
0.0
 49
0.0
 49
0.0
 49
0.0
 49
1.0
 49
0.0
 49
0.0
 49
0.0
 49
0.0
 49
1.0
175
     0
142
0.0208333333333333
142
0.0
142
0.0
142
0.0
142
0.0
142
0.0208333333333333
142
0.0
142
0.0
142
0.0
142
0.0
142
1.0
142
0.0
142
0.0
142
0.0
142
0.0
142
1.0
179
     0
144
0.0208333333333333
144
0.0
144
0.0
144
0.0
144
0.0
144
0.0208333333333333
144
0.0
144
0.0
144
0.0
144
0.0
144
1.0
144
0.0
144
0.0
144
0.0
144
0.0
144
1.0
147
0.0208333333333333
147
0.0
147
0.0
147
0.0
147
0.0
147
0.0208333333333333
147
0.0
147
0.0
147
0.0
147
0.0
147
1.0
147
0.0
147
0.0
147
0.0
147
0.0
147
1.0
  0
MLEADERSTYLE
  5
162F2
102
{ACAD_XDICTIONARY
360
16521
102
}
102
{ACAD_REACTORS
330
162F1
102
}
330
162F1
100
AcDbMLeaderStyle
170
     2
171
     1
172
     0
 90
        2
 40
0.0
 41
0.0
173
     1
 91
-1056964608
340
7477
 92
       -2
290
     1
 42
2.0
291
     1
 43
0.36
  3
Standard
 44
4.0
300

342
7475
174
     1
178
     6
175
     1
176
     0
 93
-1056964608
 45
4.0
292
     0
297
     0
 46
4.0
 94
-1056964608
 47
1.0
 49
1.0
140
1.0
293
     1
141
0.0
294
     1
177
     0
142
1.0
295
     0
296
     0
143
0.125
1001
ACAD_MLEADERVER
1070
     2
  0
MLINESTYLE
  5
7480
102
{ACAD_REACTORS
330
7473
102
}
330
7473
100
AcDbMlineStyle
  2
STANDARD
 70
     0
  3

 62
     0
 51
90.0
 52
90.0
 71
     2
 49
0.5
 62
   256
  6
BYLAYER
 49
-0.5
 62
   256
  6
BYLAYER
  0
ACDBPLACEHOLDER
  5
14FA3
102
{ACAD_REACTORS
330
14FA2
102
}
330
14FA2
  0
SCALE
  5
162E0
102
{ACAD_REACTORS
330
162DF
102
}
330
162DF
100
AcDbScale
 70
     0
300
1:1
140
1.0
141
1.0
290
     1
  0
SCALE
  5
162E1
102
{ACAD_REACTORS
330
162DF
102
}
330
162DF
100
AcDbScale
 70
     0
300
1:2
140
1.0
141
2.0
290
     0
  0
SCALE
  5
162E2
102
{ACAD_REACTORS
330
162DF
102
}
330
162DF
100
AcDbScale
 70
     0
300
1:4
140
1.0
141
4.0
290
     0
  0
SCALE
  5
162E3
102
{ACAD_REACTORS
330
162DF
102
}
330
162DF
100
AcDbScale
 70
     0
300
1:5
140
1.0
141
5.0
290
     0
  0
SCALE
  5
162E4
102
{ACAD_REACTORS
330
162DF
102
}
330
162DF
100
AcDbScale
 70
     0
300
1:8
140
1.0
141
8.0
290
     0
  0
SCALE
  5
162E5
102
{ACAD_REACTORS
330
162DF
102
}
330
162DF
100
AcDbScale
 70
     0
300
1:10
140
1.0
141
10.0
290
     0
  0
SCALE
  5
162E6
102
{ACAD_REACTORS
330
162DF
102
}
330
162DF
100
AcDbScale
 70
     0
300
1:16
140
1.0
141
16.0
290
     0
  0
SCALE
  5
162E7
102
{ACAD_REACTORS
330
162DF
102
}
330
162DF
100
AcDbScale
 70
     0
300
1:20
140
1.0
141
20.0
290
     0
  0
SCALE
  5
162E8
102
{ACAD_REACTORS
330
162DF
102
}
330
162DF
100
AcDbScale
 70
     0
300
1:30
140
1.0
141
30.0
290
     0
  0
SCALE
  5
162E9
102
{ACAD_REACTORS
330
162DF
102
}
330
162DF
100
AcDbScale
 70
     0
300
1:40
140
1.0
141
40.0
290
     0
  0
SCALE
  5
162EA
102
{ACAD_REACTORS
330
162DF
102
}
330
162DF
100
AcDbScale
 70
     0
300
1:50
140
1.0
141
50.0
290
     0
  0
SCALE
  5
162EB
102
{ACAD_REACTORS
330
162DF
102
}
330
162DF
100
AcDbScale
 70
     0
300
1:100
140
1.0
141
100.0
290
     0
  0
SCALE
  5
162EC
102
{ACAD_REACTORS
330
162DF
102
}
330
162DF
100
AcDbScale
 70
     0
300
2:1
140
2.0
141
1.0
290
     0
  0
SCALE
  5
162ED
102
{ACAD_REACTORS
330
162DF
102
}
330
162DF
100
AcDbScale
 70
     0
300
4:1
140
4.0
141
1.0
290
     0
  0
SCALE
  5
162EE
102
{ACAD_REACTORS
330
162DF
102
}
330
162DF
100
AcDbScale
 70
     0
300
8:1
140
8.0
141
1.0
290
     0
  0
SCALE
  5
162EF
102
{ACAD_REACTORS
330
162DF
102
}
330
162DF
100
AcDbScale
 70
     0
300
10:1
140
10.0
141
1.0
290
     0
  0
SCALE
  5
162F0
102
{ACAD_REACTORS
330
162DF
102
}
330
162DF
100
AcDbScale
 70
     0
300
100:1
140
100.0
141
1.0
290
     0
  0
ACDBSECTIONVIEWSTYLE
  5
162F4
102
{ACAD_XDICTIONARY
360
1631F
102
}
102
{ACAD_REACTORS
330
162F3
102
}
330
162F3
100
AcDbModelDocViewStyle
 70
     0
  3
Metric50
290
     0
100
AcDbSectionViewStyle
 70
     0
 71
     0
 90
      102
 71
     1
340
7475
 40
5.0
340
0
340
0
 40
5.0
300
I, O, Q, S, X, Z
 40
10.0
 90
        0
 40
2.5
 90
        0
 71
     2
340
7479
 90
       25
340
7479
 90
       50
 40
5.0
 40
2.5
 40
5.0
 71
     3
340
7475
 40
5.0
 90
        0
 40
15.0
 90
        1
300
%<\AcVar ViewSectionStartId>%-%<\AcVar ViewSectionEndId>% (%<\AcVar ViewScale \f "%sn">%)
 71
     4
300
ANSI31
 40
1.0
 90
        0
290
     0
290
     0
 90
        6
 40
0.0
 40
1.570796326794896
 40
0.2617993877991494
 40
1.308996938995747
 40
-0.2617993877991494
 40
1.832595714594046
  0
TABLESTYLE
  5
162DE
102
{ACAD_XDICTIONARY
360
164DC
102
}
102
{ACAD_REACTORS
330
162DD
102
}
330
162DD
100
AcDbTableStyle
  3
Standard
 70
     0
 71
     0
 40
1.5
 41
1.5
280
     0
281
     0
  7
STANDARD
140
4.5
170
     2
 62
     0
 63
     7
283
     0
274
    -2
284
     1
 64
     0
275
    -2
285
     1
 65
     0
276
    -2
286
     1
 66
     0
277
    -2
287
     1
 67
     0
278
    -2
288
     1
 68
     0
279
    -2
289
     1
 69
     0
  7
STANDARD
140
6.0
170
     5
 62
     0
 63
     7
283
     0
274
    -2
284
     1
 64
     0
275
    -2
285
     1
 65
     0
276
    -2
286
     1
 66
     0
277
    -2
287
     1
 67
     0
278
    -2
288
     1
 68
     0
279
    -2
289
     1
 69
     0
  7
STANDARD
140
4.5
170
     5
 62
     0
 63
     7
283
     0
274
    -2
284
     1
 64
     0
275
    -2
285
     1
 65
     0
276
    -2
286
     1
 66
     0
277
    -2
287
     1
 67
     0
278
    -2
288
     1
 68
     0
279
    -2
289
     1
 69
     0
  0
VISUALSTYLE
  5
162CA
102
{ACAD_XDICTIONARY
360
164F9
102
}
102
{ACAD_REACTORS
330
162C4
102
}
330
162C4
100
AcDbVisualStyle
  2
2dWireframe
 70
     4
 71
     0
 72
     2
 73
     0
 90
        0
 40
-0.6
 41
-30.0
 62
     5
 63
     7
 74
     1
 91
        4
 64
     7
 65
   257
 75
     1
175
     1
 42
1.0
 92
        0
 66
   257
 43
1.0
 76
     1
 77
     6
 78
     2
 67
     7
 79
     5
170
     0
171
     0
290
     0
174
     0
 93
        1
 44
0.0
173
     0
291
     0
 45
0.0
1001
ACAD
1000
AcDbSavedByObjectVersion
1070
     0
  0
VISUALSTYLE
  5
162C9
102
{ACAD_XDICTIONARY
360
164F7
102
}
102
{ACAD_REACTORS
330
162C4
102
}
330
162C4
100
AcDbVisualStyle
  2
Basic
 70
     7
 71
     1
 72
     0
 73
     1
 90
        0
 40
-0.6
 41
-30.0
 62
     5
 63
     7
 74
     0
 91
        4
 64
     7
 65
   257
 75
     1
175
     1
 42
1.0
 92
        8
 66
     7
 43
1.0
 76
     1
 77
     6
 78
     2
 67
     7
 79
     5
170
     0
171
     0
290
     0
174
     0
 93
        1
 44
0.0
173
     0
291
     1
 45
0.0
1001
ACAD
1000
AcDbSavedByObjectVersion
1070
     0
  0
VISUALSTYLE
  5
162D0
102
{ACAD_XDICTIONARY
360
16505
102
}
102
{ACAD_REACTORS
330
162C4
102
}
330
162C4
100
AcDbVisualStyle
  2
Brighten
 70
    12
 71
     2
 72
     2
 73
     0
 90
        0
 40
-0.6
 41
-30.0
 62
     5
 63
     7
 74
     1
 91
        4
 64
     7
 65
   257
 75
     1
175
     1
 42
1.0
 92
        8
 66
     7
 43
1.0
 76
     1
 77
     6
 78
     2
 67
     7
 79
     5
170
     0
171
     0
290
     0
174
     0
 93
        1
 44
50.0
173
     0
291
     1
 45
0.0
1001
ACAD
1000
AcDbSavedByObjectVersion
1070
     0
  0
VISUALSTYLE
  5
162D4
102
{ACAD_XDICTIONARY
360
1650D
102
}
102
{ACAD_REACTORS
330
162C4
102
}
330
162C4
100
AcDbVisualStyle
  2
ColorChange
 70
    16
 71
     2
 72
     2
 73
     3
 90
        0
 40
-0.6
 41
-30.0
 62
     5
 63
     8
 74
     1
 91
        4
 64
     7
 65
   257
 75
     1
175
     1
 42
1.0
 92
        8
 66
     8
 43
1.0
 76
     1
 77
     6
 78
     2
 67
     7
 79
     5
170
     0
171
     0
290
     0
174
     0
 93
        1
 44
0.0
173
     0
291
     1
 45
0.0
1001
ACAD
1000
AcDbSavedByObjectVersion
1070
     0
  0
VISUALSTYLE
  5
162CD
102
{ACAD_XDICTIONARY
360
164FF
102
}
102
{ACAD_REACTORS
330
162C4
102
}
330
162C4
100
AcDbVisualStyle
  2
Conceptual
 70
     9
 71
     3
 72
     2
 73
     0
 90
        0
 40
-0.6
 41
-30.0
 62
     5
 63
     7
 74
     2
 91
        2
 64
     7
 65
   257
 75
     1
175
     1
 42
179.0
 92
        8
 66
     7
 43
1.0
 76
     1
 77
     6
 78
     2
 67
     7
 79
     3
170
     0
171
     0
290
     0
174
     0
 93
        1
 44
0.0
173
     0
291
     0
 45
0.0
1001
ACAD
1000
AcDbSavedByObjectVersion
1070
     0
  0
VISUALSTYLE
  5
162CF
102
{ACAD_XDICTIONARY
360
16503
102
}
102
{ACAD_REACTORS
330
162C4
102
}
330
162C4
100
AcDbVisualStyle
  2
Dim
 70
    11
 71
     2
 72
     2
 73
     0
 90
        0
 40
-0.6
 41
-30.0
 62
     5
 63
     7
 74
     1
 91
        4
 64
     7
 65
   257
 75
     1
175
     1
 42
1.0
 92
        8
 66
     7
 43
1.0
 76
     1
 77
     6
 78
     2
 67
     7
 79
     5
170
     0
171
     0
290
     0
174
     0
 93
        1
 44
-50.0
173
     0
291
     1
 45
0.0
1001
ACAD
1000
AcDbSavedByObjectVersion
1070
     0
  0
VISUALSTYLE
  5
162DC
102
{ACAD_XDICTIONARY
360
1651D
102
}
102
{ACAD_REACTORS
330
162C4
102
}
330
162C4
100
AcDbVisualStyle
  2
EdgeColorOff
 70
    22
 71
     2
 72
     2
 73
     0
 90
        0
 40
-0.6
 41
-30.0
 62
     5
 63
     7
 74
     1
 91
        4
 64
     7
 65
   257
 75
     1
175
     1
 42
1.0
 92
        8
 66
     7
 43
1.0
 76
     1
 77
     6
 78
     2
 67
     7
 79
     5
170
     0
171
     0
290
     0
174
     0
 93
        1
 44
0.0
173
     0
291
     1
 45
0.0
1001
ACAD
1000
AcDbSavedByObjectVersion
1070
     0
  0
VISUALSTYLE
  5
162D3
102
{ACAD_XDICTIONARY
360
1650B
102
}
102
{ACAD_REACTORS
330
162C4
102
}
330
162C4
100
AcDbVisualStyle
  2
Facepattern
 70
    15
 71
     2
 72
     2
 73
     0
 90
        0
 40
-0.6
 41
-30.0
 62
     5
 63
     7
 74
     1
 91
        4
 64
     7
 65
   257
 75
     1
175
     1
 42
1.0
 92
        8
 66
     7
 43
1.0
 76
     1
 77
     6
 78
     2
 67
     7
 79
     5
170
     0
171
     0
290
     0
174
     0
 93
        1
 44
0.0
173
     0
291
     1
 45
0.0
1001
ACAD
1000
AcDbSavedByObjectVersion
1070
     0
  0
VISUALSTYLE
  5
162C5
102
{ACAD_XDICTIONARY
360
164EF
102
}
102
{ACAD_REACTORS
330
162C4
102
}
330
162C4
100
AcDbVisualStyle
  2
Flat
 70
     0
 71
     2
 72
     1
 73
     1
 90
        2
 40
-0.6
 41
30.0
 62
     5
 63
     7
 74
     0
 91
        0
 64
     7
 65
   257
 75
     1
175
     1
 42
1.0
 92
        8
 66
     7
 43
1.0
 76
     1
 77
     6
 78
     2
 67
     7
 79
     5
170
     0
171
     0
290
     0
174
     0
 93
       13
 44
0.0
173
     0
291
     1
 45
0.0
1001
ACAD
1000
AcDbSavedByObjectVersion
1070
     0
  0
VISUALSTYLE
  5
162C6
102
{ACAD_XDICTIONARY
360
164F1
102
}
102
{ACAD_REACTORS
330
162C4
102
}
330
162C4
100
AcDbVisualStyle
  2
FlatWithEdges
 70
     1
 71
     2
 72
     1
 73
     1
 90
        2
 40
-0.6
 41
30.0
 62
     5
 63
     7
 74
     1
 91
        0
 64
     7
 65
   257
 75
     1
175
     1
 42
1.0
 92
        0
 66
   257
 43
1.0
 76
     1
 77
     6
 78
     2
 67
     7
 79
     5
170
     0
171
     0
290
     0
174
     0
 93
       13
 44
0.0
173
     0
291
     1
 45
0.0
1001
ACAD
1000
AcDbSavedByObjectVersion
1070
     0
  0
VISUALSTYLE
  5
162C7
102
{ACAD_XDICTIONARY
360
164F3
102
}
102
{ACAD_REACTORS
330
162C4
102
}
330
162C4
100
AcDbVisualStyle
  2
Gouraud
 70
     2
 71
     2
 72
     2
 73
     1
 90
        2
 40
-0.6
 41
30.0
 62
     5
 63
     7
 74
     0
 91
        0
 64
     7
 65
   257
 75
     1
175
     1
 42
1.0
 92
        0
 66
     7
 43
1.0
 76
     1
 77
     6
 78
     2
 67
     7
 79
     5
170
     0
171
     0
290
     0
174
     0
 93
       13
 44
0.0
173
     0
291
     1
 45
0.0
1001
ACAD
1000
AcDbSavedByObjectVersion
1070
     0
  0
VISUALSTYLE
  5
162C8
102
{ACAD_XDICTIONARY
360
164F5
102
}
102
{ACAD_REACTORS
330
162C4
102
}
330
162C4
100
AcDbVisualStyle
  2
GouraudWithEdges
 70
     3
 71
     2
 72
     2
 73
     1
 90
        2
 40
-0.6
 41
30.0
 62
     5
 63
     7
 74
     1
 91
        0
 64
     7
 65
   257
 75
     1
175
     1
 42
1.0
 92
        0
 66
   257
 43
1.0
 76
     1
 77
     6
 78
     2
 67
     7
 79
     5
170
     0
171
     0
290
     0
174
     0
 93
       13
 44
0.0
173
     0
291
     1
 45
0.0
1001
ACAD
1000
AcDbSavedByObjectVersion
1070
     0
  0
VISUALSTYLE
  5
162CC
102
{ACAD_XDICTIONARY
360
164FD
102
}
102
{ACAD_REACTORS
330
162C4
102
}
330
162C4
100
AcDbVisualStyle
  2
Hidden
 70
     6
 71
     1
 72
     2
 73
     2
 90
        0
 40
-0.6
 41
-30.0
 62
     5
 63
     7
 74
     2
 91
        2
 64
     7
 65
   257
 75
     2
175
     1
 42
40.0
 92
        0
 66
   257
 43
1.0
 76
     1
 77
     6
 78
     2
 67
     7
 79
     3
170
     0
171
     0
290
     0
174
     0
 93
        1
 44
0.0
173
     0
291
     0
 45
0.0
1001
ACAD
1000
AcDbSavedByObjectVersion
1070
     0
  0
VISUALSTYLE
  5
162DA
102
{ACAD_XDICTIONARY
360
16519
102
}
102
{ACAD_REACTORS
330
162C4
102
}
330
162C4
100
AcDbVisualStyle
  2
JitterOff
 70
    20
 71
     2
 72
     2
 73
     0
 90
        0
 40
-0.6
 41
-30.0
 62
     5
 63
     7
 74
     1
 91
        4
 64
     7
 65
   257
 75
     1
175
     1
 42
1.0
 92
       10
 66
     7
 43
1.0
 76
     1
 77
     6
 78
     2
 67
     7
 79
     5
170
     0
171
     0
290
     0
174
     0
 93
        1
 44
0.0
173
     0
291
     1
 45
0.0
1001
ACAD
1000
AcDbSavedByObjectVersion
1070
     0
  0
VISUALSTYLE
  5
162D2
102
{ACAD_XDICTIONARY
360
16509
102
}
102
{ACAD_REACTORS
330
162C4
102
}
330
162C4
100
AcDbVisualStyle
  2
Linepattern
 70
    14
 71
     2
 72
     2
 73
     0
 90
        0
 40
-0.6
 41
-30.0
 62
     5
 63
     7
 74
     1
 91
        4
 64
     7
 65
   257
 75
     7
175
     7
 42
1.0
 92
        8
 66
     7
 43
1.0
 76
     1
 77
     6
 78
     2
 67
     7
 79
     5
170
     0
171
     0
290
     0
174
     0
 93
        1
 44
0.0
173
     0
291
     1
 45
0.0
1001
ACAD
1000
AcDbSavedByObjectVersion
1070
     0
  0
VISUALSTYLE
  5
162DB
102
{ACAD_XDICTIONARY
360
1651B
102
}
102
{ACAD_REACTORS
330
162C4
102
}
330
162C4
100
AcDbVisualStyle
  2
OverhangOff
 70
    21
 71
     2
 72
     2
 73
     0
 90
        0
 40
-0.6
 41
-30.0
 62
     5
 63
     7
 74
     1
 91
        4
 64
     7
 65
   257
 75
     1
175
     1
 42
1.0
 92
        9
 66
     7
 43
1.0
 76
     1
 77
     6
 78
     2
 67
     7
 79
     5
170
     0
171
     0
290
     0
174
     0
 93
        1
 44
0.0
173
     0
291
     1
 45
0.0
1001
ACAD
1000
AcDbSavedByObjectVersion
1070
     0
  0
VISUALSTYLE
  5
162CE
102
{ACAD_XDICTIONARY
360
16501
102
}
102
{ACAD_REACTORS
330
162C4
102
}
330
162C4
100
AcDbVisualStyle
  2
Realistic
 70
     8
 71
     2
 72
     3
 73
     0
 90
        2
 40
-0.6
 41
30.0
 62
     5
 63
     7
 74
     0
 91
        0
 64
     7
 65
   257
 75
     1
175
     1
 42
1.0
 92
        8
 66
   257
 43
1.0
 76
     1
 77
     6
 78
     2
 67
     7
 79
     3
170
     0
171
     0
290
     0
174
     0
 93
       13
 44
0.0
173
     0
291
     0
 45
0.0
1001
ACAD
1000
AcDbSavedByObjectVersion
1070
     0
  0
VISUALSTYLE
  5
162D9
102
{ACAD_XDICTIONARY
360
16517
102
}
102
{ACAD_REACTORS
330
162C4
102
}
330
162C4
100
AcDbVisualStyle
  2
Shaded
 70
    27
 71
     2
 72
     2
 73
     1
 90
        2
 40
-0.6
 41
30.0
 62
     5
 63
     7
 74
     0
 91
        4
 64
     7
 65
   257
 75
     1
175
     1
 42
1.0
 92
        8
 66
   257
 43
1.0
 76
     1
 77
     6
 78
     2
 67
     8
 79
     3
170
     0
171
     0
290
     0
174
     0
 93
        5
 44
0.0
173
     0
291
     0
 45
0.0
1001
ACAD
1000
AcDbSavedByObjectVersion
1070
     0
  0
VISUALSTYLE
  5
162D8
102
{ACAD_XDICTIONARY
360
16515
102
}
102
{ACAD_REACTORS
330
162C4
102
}
330
162C4
100
AcDbVisualStyle
  2
Shaded with edges
 70
    26
 71
     2
 72
     2
 73
     1
 90
        2
 40
-0.6
 41
30.0
 62
     5
 63
     7
 74
     1
 91
       10
 64
     7
 65
   257
 75
     2
175
     1
 42
1.0
 92
        8
 66
   257
 43
1.0
 76
     1
 77
     6
 78
     2
 67
     7
 79
     3
170
     0
171
     0
290
     0
174
     0
 93
        5
 44
0.0
173
     0
291
     0
 45
0.0
1001
ACAD
1000
AcDbSavedByObjectVersion
1070
     0
  0
VISUALSTYLE
  5
162D5
102
{ACAD_XDICTIONARY
360
1650F
102
}
102
{ACAD_REACTORS
330
162C4
102
}
330
162C4
100
AcDbVisualStyle
  2
Shades of Gray
 70
    23
 71
     2
 72
     2
 73
     3
 90
        0
 40
-0.6
 41
-30.0
 62
     5
 63
     7
 74
     2
 91
        2
 64
     7
 65
     7
 75
     1
175
     1
 42
40.0
 92
        8
 66
     7
 43
1.0
 76
     1
 77
     6
 78
     2
 67
     7
 79
     3
170
     0
171
     0
290
     0
174
     0
 93
        1
 44
0.0
173
     0
291
     0
 45
0.0
1001
ACAD
1000
AcDbSavedByObjectVersion
1070
     0
  0
VISUALSTYLE
  5
162D6
102
{ACAD_XDICTIONARY
360
16511
102
}
102
{ACAD_REACTORS
330
162C4
102
}
330
162C4
100
AcDbVisualStyle
  2
Sketchy
 70
    24
 71
     1
 72
     2
 73
     2
 90
        0
 40
-0.6
 41
-30.0
 62
     5
 63
     7
 74
     2
 91
        2
 64
     7
 65
     7
 75
     1
175
     1
 42
40.0
 92
       11
 66
     7
 43
1.0
 76
     1
 77
     6
 78
     2
 67
     7
 79
     6
170
     0
171
     0
290
     0
174
     0
 93
        1
 44
0.0
173
     0
291
     0
 45
0.0
1001
ACAD
1000
AcDbSavedByObjectVersion
1070
     0
  0
VISUALSTYLE
  5
162D1
102
{ACAD_XDICTIONARY
360
16507
102
}
102
{ACAD_REACTORS
330
162C4
102
}
330
162C4
100
AcDbVisualStyle
  2
Thicken
 70
    13
 71
     2
 72
     2
 73
     0
 90
        0
 40
-0.6
 41
-30.0
 62
     5
 63
     7
 74
     1
 91
        4
 64
     7
 65
   257
 75
     1
175
     1
 42
1.0
 92
       12
 66
     7
 43
1.0
 76
     1
 77
     6
 78
     2
 67
     7
 79
     5
170
     0
171
     0
290
     0
174
     0
 93
        1
 44
0.0
173
     0
291
     1
 45
0.0
1001
ACAD
1000
AcDbSavedByObjectVersion
1070
     0
  0
VISUALSTYLE
  5
162CB
102
{ACAD_XDICTIONARY
360
164FB
102
}
102
{ACAD_REACTORS
330
162C4
102
}
330
162C4
100
AcDbVisualStyle
  2
Wireframe
 70
     5
 71
     0
 72
     2
 73
     0
 90
        0
 40
-0.6
 41
-30.0
 62
     5
 63
     7
 74
     1
 91
        4
 64
     7
 65
   257
 75
     1
175
     1
 42
1.0
 92
        0
 66
   257
 43
1.0
 76
     1
 77
     6
 78
     2
 67
     7
 79
     3
170
     0
171
     0
290
     0
174
     0
 93
        1
 44
0.0
173
     0
291
     0
 45
0.0
1001
ACAD
1000
AcDbSavedByObjectVersion
1070
     0
  0
VISUALSTYLE
  5
162D7
102
{ACAD_XDICTIONARY
360
16513
102
}
102
{ACAD_REACTORS
330
162C4
102
}
330
162C4
100
AcDbVisualStyle
  2
X-Ray
 70
    25
 71
     2
 72
     2
 73
     1
 90
        1
 40
0.5
 41
-30.0
 62
     5
 63
     7
 74
     1
 91
        0
 64
     7
 65
   257
 75
     1
175
     1
 42
1.0
 92
        8
 66
     7
 43
1.0
 76
     1
 77
     6
 78
     2
 67
     7
 79
     3
170
     0
171
     0
290
     0
174
     0
 93
       13
 44
0.0
173
     0
291
     0
 45
0.0
1001
ACAD
1000
AcDbSavedByObjectVersion
1070
     0
  0
DICTIONARYVAR
  5
1632A
102
{ACAD_REACTORS
330
16324
102
}
330
16324
100
DictionaryVariables
280
     0
  1
1:1
  0
DICTIONARYVAR
  5
16326
102
{ACAD_REACTORS
330
16324
102
}
330
16324
100
DictionaryVariables
280
     0
  1
STANDARD
  0
DICTIONARYVAR
  5
16325
102
{ACAD_REACTORS
330
16324
102
}
330
16324
100
DictionaryVariables
280
     0
  1
STANDARD
  0
DICTIONARYVAR
  5
16327
102
{ACAD_REACTORS
330
16324
102
}
330
16324
100
DictionaryVariables
280
     0
  1
Metric50
  0
DICTIONARYVAR
  5
16328
102
{ACAD_REACTORS
330
16324
102
}
330
16324
100
DictionaryVariables
280
     0
  1
Metric50
  0
DICTIONARYVAR
  5
164DB
102
{ACAD_REACTORS
330
16324
102
}
330
16324
100
DictionaryVariables
280
     0
  1
1
  0
DICTIONARYVAR
  5
164D9
102
{ACAD_REACTORS
330
16324
102
}
330
16324
100
DictionaryVariables
280
     0
  1
0
  0
DICTIONARYVAR
  5
1632C
102
{ACAD_REACTORS
330
16324
102
}
330
16324
100
DictionaryVariables
280
     0
  1
1
  0
DICTIONARYVAR
  5
1632D
102
{ACAD_REACTORS
330
16324
102
}
330
16324
100
DictionaryVariables
280
     0
  1
15
  0
DICTIONARYVAR
  5
1632B
102
{ACAD_REACTORS
330
16324
102
}
330
16324
100
DictionaryVariables
280
     0
  1
0
  0
DICTIONARYVAR
  5
16329
102
{ACAD_REACTORS
330
16324
102
}
330
16324
100
DictionaryVariables
280
     0
  1
0
  0
DICTIONARYVAR
  5
164D8
102
{ACAD_REACTORS
330
16324
102
}
330
16324
100
DictionaryVariables
280
     0
  1
127
  0
DICTIONARYVAR
  5
164DA
102
{ACAD_REACTORS
330
16324
102
}
330
16324
100
DictionaryVariables
280
     0
  1
0
  0
DICTIONARY
  5
164E7
102
{ACAD_REACTORS
330
164E5
102
}
330
164E5
100
AcDbDictionary
281
     1
  0
DICTIONARY
  5
164E6
102
{ACAD_REACTORS
330
164E5
102
}
330
164E5
100
AcDbDictionary
281
     1
  3
2129941760
350
164E0
  3
2129941768
350
164E1
  3
2129941776
350
164E2
  3
2129941784
350
164E3
  3
2129941792
350
164E4
  0
DICTIONARY
  5
16321
330
162F6
100
AcDbDictionary
280
     1
281
     1
  3
ACAD_XREC_ROUNDTRIP
360
16524
  0
DICTIONARY
  5
164E8
330
14FA8
100
AcDbDictionary
280
     1
281
     1
  3
ACAD_XREC_ROUNDTRIP
360
164E9
  0
DICTIONARY
  5
164EA
330
14FA9
100
AcDbDictionary
280
     1
281
     1
  3
ACAD_XREC_ROUNDTRIP
360
164EB
  0
DICTIONARY
  5
162B5
330
162B4
100
AcDbDictionary
280
     1
281
     1
  3
ACAD_XREC_ROUNDTRIP
360
164ED
  3
BUMPTILE
360
162B7
  3
DIFFUSETILE
360
162B6
  3
OPACITYTILE
360
162BA
  3
REFLECTIONTILE
360
162B9
  3
REFRACTIONTILE
360
162BB
  3
SPECULARTILE
360
162B8
  0
DICTIONARY
  5
162AD
330
162AC
100
AcDbDictionary
280
     1
281
     1
  3
ACAD_XREC_ROUNDTRIP
360
164EC
  3
BUMPTILE
360
162AF
  3
DIFFUSETILE
360
162AE
  3
OPACITYTILE
360
162B2
  3
REFLECTIONTILE
360
162B1
  3
REFRACTIONTILE
360
162B3
  3
SPECULARTILE
360
162B0
  0
DICTIONARY
  5
162BD
330
162BC
100
AcDbDictionary
280
     1
281
     1
  3
ACAD_XREC_ROUNDTRIP
360
164EE
  3
BUMPTILE
360
162BF
  3
DIFFUSETILE
360
162BE
  3
OPACITYTILE
360
162C2
  3
REFLECTIONTILE
360
162C1
  3
REFRACTIONTILE
360
162C3
  3
SPECULARTILE
360
162C0
  0
DICTIONARY
  5
16521
330
162F2
100
AcDbDictionary
280
     1
281
     1
  3
ACAD_XREC_ROUNDTRIP
360
16522
  0
DICTIONARY
  5
1631F
330
162F4
100
AcDbDictionary
280
     1
281
     1
  3
ACAD_XREC_ROUNDTRIP
360
16523
  0
DICTIONARY
  5
164DC
330
162DE
100
AcDbDictionary
280
     1
281
     1
  3
ACAD_ROUNDTRIP_2008_TABLESTYLE_CELLSTYLEMAP
360
164DD
  3
ACAD_XREC_ROUNDTRIP
360
1651F
  0
DICTIONARY
  5
164F9
330
162CA
100
AcDbDictionary
280
     1
281
     1
  3
ACAD_XREC_ROUNDTRIP
360
164FA
  0
DICTIONARY
  5
164F7
330
162C9
100
AcDbDictionary
280
     1
281
     1
  3
ACAD_XREC_ROUNDTRIP
360
164F8
  0
DICTIONARY
  5
16505
330
162D0
100
AcDbDictionary
280
     1
281
     1
  3
ACAD_XREC_ROUNDTRIP
360
16506
  0
DICTIONARY
  5
1650D
330
162D4
100
AcDbDictionary
280
     1
281
     1
  3
ACAD_XREC_ROUNDTRIP
360
1650E
  0
DICTIONARY
  5
164FF
330
162CD
100
AcDbDictionary
280
     1
281
     1
  3
ACAD_XREC_ROUNDTRIP
360
16500
  0
DICTIONARY
  5
16503
330
162CF
100
AcDbDictionary
280
     1
281
     1
  3
ACAD_XREC_ROUNDTRIP
360
16504
  0
DICTIONARY
  5
1651D
330
162DC
100
AcDbDictionary
280
     1
281
     1
  3
ACAD_XREC_ROUNDTRIP
360
1651E
  0
DICTIONARY
  5
1650B
330
162D3
100
AcDbDictionary
280
     1
281
     1
  3
ACAD_XREC_ROUNDTRIP
360
1650C
  0
DICTIONARY
  5
164EF
330
162C5
100
AcDbDictionary
280
     1
281
     1
  3
ACAD_XREC_ROUNDTRIP
360
164F0
  0
DICTIONARY
  5
164F1
330
162C6
100
AcDbDictionary
280
     1
281
     1
  3
ACAD_XREC_ROUNDTRIP
360
164F2
  0
DICTIONARY
  5
164F3
330
162C7
100
AcDbDictionary
280
     1
281
     1
  3
ACAD_XREC_ROUNDTRIP
360
164F4
  0
DICTIONARY
  5
164F5
330
162C8
100
AcDbDictionary
280
     1
281
     1
  3
ACAD_XREC_ROUNDTRIP
360
164F6
  0
DICTIONARY
  5
164FD
330
162CC
100
AcDbDictionary
280
     1
281
     1
  3
ACAD_XREC_ROUNDTRIP
360
164FE
  0
DICTIONARY
  5
16519
330
162DA
100
AcDbDictionary
280
     1
281
     1
  3
ACAD_XREC_ROUNDTRIP
360
1651A
  0
DICTIONARY
  5
16509
330
162D2
100
AcDbDictionary
280
     1
281
     1
  3
ACAD_XREC_ROUNDTRIP
360
1650A
  0
DICTIONARY
  5
1651B
330
162DB
100
AcDbDictionary
280
     1
281
     1
  3
ACAD_XREC_ROUNDTRIP
360
1651C
  0
DICTIONARY
  5
16501
330
162CE
100
AcDbDictionary
280
     1
281
     1
  3
ACAD_XREC_ROUNDTRIP
360
16502
  0
DICTIONARY
  5
16517
330
162D9
100
AcDbDictionary
280
     1
281
     1
  3
ACAD_XREC_ROUNDTRIP
360
16518
  0
DICTIONARY
  5
16515
330
162D8
100
AcDbDictionary
280
     1
281
     1
  3
ACAD_XREC_ROUNDTRIP
360
16516
  0
DICTIONARY
  5
1650F
330
162D5
100
AcDbDictionary
280
     1
281
     1
  3
ACAD_XREC_ROUNDTRIP
360
16510
  0
DICTIONARY
  5
16511
330
162D6
100
AcDbDictionary
280
     1
281
     1
  3
ACAD_XREC_ROUNDTRIP
360
16512
  0
DICTIONARY
  5
16507
330
162D1
100
AcDbDictionary
280
     1
281
     1
  3
ACAD_XREC_ROUNDTRIP
360
16508
  0
DICTIONARY
  5
164FB
330
162CB
100
AcDbDictionary
280
     1
281
     1
  3
ACAD_XREC_ROUNDTRIP
360
164FC
  0
DICTIONARY
  5
16513
330
162D7
100
AcDbDictionary
280
     1
281
     1
  3
ACAD_XREC_ROUNDTRIP
360
16514
  0
XRECORD
  5
164E0
102
{ACAD_REACTORS
330
164E6
102
}
330
164E6
100
AcDbXrecord
280
     1
  1
AcDb_Thumbnail_Schema
102
{ATTRRECORD
341
164E1
  2
AcDbDs::TreatedAsObjectData
280
     1
291
     1
102
ATTRRECORD}
102
{ATTRRECORD
341
164E2
  2
AcDbDs::Legacy
280
     1
291
     1
102
ATTRRECORD}
  2
AcDbDs::ID
280
    10
 91
        8
102
{ATTRRECORD
341
164E3
  2
AcDs:Indexable
280
     1
291
     1
102
ATTRRECORD}
102
{ATTRRECORD
341
164E4
  2
AcDbDs::HandleAttribute
280
     7
282
     1
102
ATTRRECORD}
  2
Thumbnail_Data
280
    15
 91
        0
  0
XRECORD
  5
164E1
102
{ACAD_REACTORS
330
164E6
102
}
330
164E6
100
AcDbXrecord
280
     1
  1
AcDbDs::TreatedAsObjectDataSchema
  2
AcDbDs::TreatedAsObjectData
280
     1
 91
        0
  0
XRECORD
  5
164E2
102
{ACAD_REACTORS
330
164E6
102
}
330
164E6
100
AcDbXrecord
280
     1
  1
AcDbDs::LegacySchema
  2
AcDbDs::Legacy
280
     1
 91
        0
  0
XRECORD
  5
164E3
102
{ACAD_REACTORS
330
164E6
102
}
330
164E6
100
AcDbXrecord
280
     1
  1
AcDbDs::IndexedPropertySchema
  2
AcDs:Indexable
280
     1
 91
        0
  0
XRECORD
  5
164E4
102
{ACAD_REACTORS
330
164E6
102
}
330
164E6
100
AcDbXrecord
280
     1
  1
AcDbDs::HandleAttributeSchema
  2
AcDbDs::HandleAttribute
280
     7
 91
        1
284
     1
  0
XRECORD
  5
16524
102
{ACAD_REACTORS
330
16321
102
}
330
16321
100
AcDbXrecord
280
     1
102
DISPLAYNAME
  1
Metric50
102
FLAGS
 90
        0
  0
XRECORD
  5
164E9
102
{ACAD_REACTORS
330
164E8
102
}
330
164E8
100
AcDbXrecord
280
     1
102
SHADEPLOT
 70
     1
102
SHADEPLOTRESLEVEL
 70
     2
102
SHADEPLOTCUSTOMDPI
 70
   300
  0
XRECORD
  5
164EB
102
{ACAD_REACTORS
330
164EA
102
}
330
164EA
100
AcDbXrecord
280
     1
102
SHADEPLOT
 70
     0
102
SHADEPLOTRESLEVEL
 70
     2
102
SHADEPLOTCUSTOMDPI
 70
   300
  0
XRECORD
  5
164ED
102
{ACAD_REACTORS
330
162B5
102
}
330
162B5
100
AcDbXrecord
280
     1
102
MATERIAL
148
0.0
149
0.0
149
0.0
 93
        0
 94
      127
282
     0
 72
     0
 77
     0
171
     0
175
     0
179
     0
273
     0
  0
XRECORD
  5
162B7
102
{ACAD_REACTORS
330
162B5
102
}
330
162B5
100
AcDbXrecord
280
     1
270
     1
271
     1
  0
XRECORD
  5
162B6
102
{ACAD_REACTORS
330
162B5
102
}
330
162B5
100
AcDbXrecord
280
     1
270
     1
271
     1
  0
XRECORD
  5
162BA
102
{ACAD_REACTORS
330
162B5
102
}
330
162B5
100
AcDbXrecord
280
     1
270
     1
271
     1
  0
XRECORD
  5
162B9
102
{ACAD_REACTORS
330
162B5
102
}
330
162B5
100
AcDbXrecord
280
     1
270
     1
271
     1
  0
XRECORD
  5
162BB
102
{ACAD_REACTORS
330
162B5
102
}
330
162B5
100
AcDbXrecord
280
     1
270
     1
271
     1
  0
XRECORD
  5
162B8
102
{ACAD_REACTORS
330
162B5
102
}
330
162B5
100
AcDbXrecord
280
     1
270
     1
271
     1
  0
XRECORD
  5
164EC
102
{ACAD_REACTORS
330
162AD
102
}
330
162AD
100
AcDbXrecord
280
     1
102
MATERIAL
148
0.0
149
0.0
149
0.0
 93
        0
 94
      127
282
     0
 72
     0
 77
     0
171
     0
175
     0
179
     0
273
     0
  0
XRECORD
  5
162AF
102
{ACAD_REACTORS
330
162AD
102
}
330
162AD
100
AcDbXrecord
280
     1
270
     1
271
     1
  0
XRECORD
  5
162AE
102
{ACAD_REACTORS
330
162AD
102
}
330
162AD
100
AcDbXrecord
280
     1
270
     1
271
     1
  0
XRECORD
  5
162B2
102
{ACAD_REACTORS
330
162AD
102
}
330
162AD
100
AcDbXrecord
280
     1
270
     1
271
     1
  0
XRECORD
  5
162B1
102
{ACAD_REACTORS
330
162AD
102
}
330
162AD
100
AcDbXrecord
280
     1
270
     1
271
     1
  0
XRECORD
  5
162B3
102
{ACAD_REACTORS
330
162AD
102
}
330
162AD
100
AcDbXrecord
280
     1
270
     1
271
     1
  0
XRECORD
  5
162B0
102
{ACAD_REACTORS
330
162AD
102
}
330
162AD
100
AcDbXrecord
280
     1
270
     1
271
     1
  0
XRECORD
  5
164EE
102
{ACAD_REACTORS
330
162BD
102
}
330
162BD
100
AcDbXrecord
280
     1
102
MATERIAL
148
0.0
149
0.0
149
0.0
 93
        0
 94
      127
282
     0
 72
     0
 77
     0
171
     0
175
     0
179
     0
273
     0
  0
XRECORD
  5
162BF
102
{ACAD_REACTORS
330
162BD
102
}
330
162BD
100
AcDbXrecord
280
     1
270
     1
271
     1
  0
XRECORD
  5
162BE
102
{ACAD_REACTORS
330
162BD
102
}
330
162BD
100
AcDbXrecord
280
     1
270
     1
271
     1
  0
XRECORD
  5
162C2
102
{ACAD_REACTORS
330
162BD
102
}
330
162BD
100
AcDbXrecord
280
     1
270
     1
271
     1
  0
XRECORD
  5
162C1
102
{ACAD_REACTORS
330
162BD
102
}
330
162BD
100
AcDbXrecord
280
     1
270
     1
271
     1
  0
XRECORD
  5
162C3
102
{ACAD_REACTORS
330
162BD
102
}
330
162BD
100
AcDbXrecord
280
     1
270
     1
271
     1
  0
XRECORD
  5
162C0
102
{ACAD_REACTORS
330
162BD
102
}
330
162BD
100
AcDbXrecord
280
     1
270
     1
271
     1
  0
XRECORD
  5
16522
102
{ACAD_REACTORS
330
16521
102
}
330
16521
100
AcDbXrecord
280
     1
102
ACAD_ROUNDTRIP_2012_MLEADER_STYLE
298
     1
  0
XRECORD
  5
16523
102
{ACAD_REACTORS
330
1631F
102
}
330
1631F
100
AcDbXrecord
280
     1
102
DISPLAYNAME
  1
Metric50
102
FLAGS
 90
        0
  0
CELLSTYLEMAP
  5
164DD
102
{ACAD_REACTORS
330
164DC
102
}
330
164DC
100
AcDbCellStyleMap
 90
        3
300
CELLSTYLE
  1
TABLEFORMAT_BEGIN
 90
        5
170
     1
 91
        0
 92
    32768
 62
   257
 93
        1
300
CONTENTFORMAT
  1
CONTENTFORMAT_BEGIN
 90
        0
 91
        0
 92
      512
 93
        0
300

 40
0.0
140
1.0
 94
        5
 62
     0
340
7475
144
6.0
309
CONTENTFORMAT_END
171
     1
301
MARGIN
  1
CELLMARGIN_BEGIN
 40
1.5
 40
1.5
 40
1.5
 40
1.5
 40
4.5
 40
4.5
309
CELLMARGIN_END
 94
        6
 95
        1
302
GRIDFORMAT
  1
GRIDFORMAT_BEGIN
 90
        0
 91
        1
 62
     0
 92
       -2
340
0
 93
        0
 40
1.125
309
GRIDFORMAT_END
 95
        2
302
GRIDFORMAT
  1
GRIDFORMAT_BEGIN
 90
        0
 91
        1
 62
     0
 92
       -2
340
0
 93
        0
 40
1.125
309
GRIDFORMAT_END
 95
        4
302
GRIDFORMAT
  1
GRIDFORMAT_BEGIN
 90
        0
 91
        1
 62
     0
 92
       -2
340
0
 93
        0
 40
1.125
309
GRIDFORMAT_END
 95
        8
302
GRIDFORMAT
  1
GRIDFORMAT_BEGIN
 90
        0
 91
        1
 62
     0
 92
       -2
340
0
 93
        0
 40
1.125
309
GRIDFORMAT_END
 95
       16
302
GRIDFORMAT
  1
GRIDFORMAT_BEGIN
 90
        0
 91
        1
 62
     0
 92
       -2
340
0
 93
        0
 40
1.125
309
GRIDFORMAT_END
 95
       32
302
GRIDFORMAT
  1
GRIDFORMAT_BEGIN
 90
        0
 91
        1
 62
     0
 92
       -2
340
0
 93
        0
 40
1.125
309
GRIDFORMAT_END
309
TABLEFORMAT_END
  1
CELLSTYLE_BEGIN
 90
        1
 91
        1
300
_TITLE
309
CELLSTYLE_END
300
CELLSTYLE
  1
TABLEFORMAT_BEGIN
 90
        5
170
     1
 91
        0
 92
        0
 62
   257
 93
        1
300
CONTENTFORMAT
  1
CONTENTFORMAT_BEGIN
 90
        0
 91
        0
 92
      512
 93
        0
300

 40
0.0
140
1.0
 94
        5
 62
     0
340
7475
144
4.5
309
CONTENTFORMAT_END
171
     1
301
MARGIN
  1
CELLMARGIN_BEGIN
 40
1.5
 40
1.5
 40
1.5
 40
1.5
 40
4.5
 40
4.5
309
CELLMARGIN_END
 94
        6
 95
        1
302
GRIDFORMAT
  1
GRIDFORMAT_BEGIN
 90
        0
 91
        1
 62
     0
 92
       -2
340
0
 93
        0
 40
1.125
309
GRIDFORMAT_END
 95
        2
302
GRIDFORMAT
  1
GRIDFORMAT_BEGIN
 90
        0
 91
        1
 62
     0
 92
       -2
340
0
 93
        0
 40
1.125
309
GRIDFORMAT_END
 95
        4
302
GRIDFORMAT
  1
GRIDFORMAT_BEGIN
 90
        0
 91
        1
 62
     0
 92
       -2
340
0
 93
        0
 40
1.125
309
GRIDFORMAT_END
 95
        8
302
GRIDFORMAT
  1
GRIDFORMAT_BEGIN
 90
        0
 91
        1
 62
     0
 92
       -2
340
0
 93
        0
 40
1.125
309
GRIDFORMAT_END
 95
       16
302
GRIDFORMAT
  1
GRIDFORMAT_BEGIN
 90
        0
 91
        1
 62
     0
 92
       -2
340
0
 93
        0
 40
1.125
309
GRIDFORMAT_END
 95
       32
302
GRIDFORMAT
  1
GRIDFORMAT_BEGIN
 90
        0
 91
        1
 62
     0
 92
       -2
340
0
 93
        0
 40
1.125
309
GRIDFORMAT_END
309
TABLEFORMAT_END
  1
CELLSTYLE_BEGIN
 90
        2
 91
        1
300
_HEADER
309
CELLSTYLE_END
300
CELLSTYLE
  1
TABLEFORMAT_BEGIN
 90
        5
170
     1
 91
        0
 92
        0
 62
   257
 93
        1
300
CONTENTFORMAT
  1
CONTENTFORMAT_BEGIN
 90
        0
 91
        0
 92
      512
 93
        0
300

 40
0.0
140
1.0
 94
        2
 62
     0
340
7475
144
4.5
309
CONTENTFORMAT_END
171
     1
301
MARGIN
  1
CELLMARGIN_BEGIN
 40
1.5
 40
1.5
 40
1.5
 40
1.5
 40
4.5
 40
4.5
309
CELLMARGIN_END
 94
        6
 95
        1
302
GRIDFORMAT
  1
GRIDFORMAT_BEGIN
 90
        0
 91
        1
 62
     0
 92
       -2
340
0
 93
        0
 40
1.125
309
GRIDFORMAT_END
 95
        2
302
GRIDFORMAT
  1
GRIDFORMAT_BEGIN
 90
        0
 91
        1
 62
     0
 92
       -2
340
0
 93
        0
 40
1.125
309
GRIDFORMAT_END
 95
        4
302
GRIDFORMAT
  1
GRIDFORMAT_BEGIN
 90
        0
 91
        1
 62
     0
 92
       -2
340
0
 93
        0
 40
1.125
309
GRIDFORMAT_END
 95
        8
302
GRIDFORMAT
  1
GRIDFORMAT_BEGIN
 90
        0
 91
        1
 62
     0
 92
       -2
340
0
 93
        0
 40
1.125
309
GRIDFORMAT_END
 95
       16
302
GRIDFORMAT
  1
GRIDFORMAT_BEGIN
 90
        0
 91
        1
 62
     0
 92
       -2
340
0
 93
        0
 40
1.125
309
GRIDFORMAT_END
 95
       32
302
GRIDFORMAT
  1
GRIDFORMAT_BEGIN
 90
        0
 91
        1
 62
     0
 92
       -2
340
0
 93
        0
 40
1.125
309
GRIDFORMAT_END
309
TABLEFORMAT_END
  1
CELLSTYLE_BEGIN
 90
        3
 91
        2
300
_DATA
309
CELLSTYLE_END
  0
XRECORD
  5
1651F
102
{ACAD_REACTORS
330
164DC
102
}
330
164DC
100
AcDbXrecord
280
     1
102
ACAD_ROUNDTRIP_PRE2007_TABLESTYLE
 90
      512
 91
        0
  1

 92
      512
 93
        0
  2

 94
      512
 95
        0
  3

  0
XRECORD
  5
164FA
102
{ACAD_REACTORS
330
164F9
102
}
330
164F9
100
AcDbXrecord
280
     1
102
RTVSPost2010Prop28
280
     1
102
RTVSPost2010PropOp28
 70
     1
102
RTVSPost2010Prop29
280
     1
102
RTVSPost2010PropOp29
 70
     1
102
RTVSPost2010Prop30
280
     0
102
RTVSPost2010PropOp30
 70
     1
102
RTVSPost2010Prop31
280
     0
102
RTVSPost2010PropOp31
 70
     1
102
RTVSPost2010Prop32
280
     0
102
RTVSPost2010PropOp32
 70
     1
102
RTVSPost2010Prop33
280
     0
102
RTVSPost2010PropOp33
 70
     1
102
RTVSPost2010Prop34
280
     0
102
RTVSPost2010PropOp34
 70
     1
102
RTVSPost2010Prop35
280
     0
102
RTVSPost2010PropOp35
 70
     1
102
RTVSPost2010Prop36
280
     0
102
RTVSPost2010PropOp36
 70
     1
102
RTVSPost2010Prop37
 90
       50
102
RTVSPost2010PropOp37
 70
     1
102
RTVSPost2010Prop38
140
0.0
102
RTVSPost2010PropOp38
 70
     1
102
RTVSPost2010Prop39
140
1.0
102
RTVSPost2010PropOp39
 70
     1
102
RTVSPost2010Prop40
 90
        0
102
RTVSPost2010PropOp40
 70
     1
102
RTVSPost2010Prop41ColorIndex
 90
       18
102
RTVSPost2010Prop41ColorRGB
 90
        0
102
RTVSPost2010PropOp41
 70
     1
102
RTVSPost2010Prop42
 90
       50
102
RTVSPost2010PropOp42
 70
     1
102
RTVSPost2010Prop43
 90
        3
102
RTVSPost2010PropOp43
 70
     1
102
RTVSPost2010Prop44ColorIndex
 90
        5
102
RTVSPost2010Prop44ColorRGB
 90
      255
102
RTVSPost2010PropOp44
 70
     1
102
RTVSPost2010Prop45
280
     0
102
RTVSPost2010PropOp45
 70
     1
102
RTVSPost2010Prop46
 90
       50
102
RTVSPost2010PropOp46
 70
     1
102
RTVSPost2010Prop47
 90
       50
102
RTVSPost2010PropOp47
 70
     1
102
RTVSPost2010Prop48
 90
       50
102
RTVSPost2010PropOp48
 70
     1
102
RTVSPost2010Prop49
280
     0
102
RTVSPost2010PropOp49
 70
     1
102
RTVSPost2010Prop50
 90
       50
102
RTVSPost2010PropOp50
 70
     1
102
RTVSPost2010Prop51ColorIndex
 90
      256
102
RTVSPost2010Prop51ColorRGB
 90
-16777216
102
RTVSPost2010PropOp51
 70
     0
102
RTVSPost2010Prop52
140
1.0
102
RTVSPost2010PropOp52
 70
     0
102
RTVSPost2010Prop53
 90
        2
102
RTVSPost2010PropOp53
 70
     1
102
RTVSPost2010Prop54
  1
strokes_ogs.tif
102
RTVSPost2010PropOp54
 70
     1
102
RTVSPost2010Prop55
280
     0
102
RTVSPost2010PropOp55
 70
     1
102
RTVSPost2010Prop56
140
1.0
102
RTVSPost2010PropOp56
 70
     1
102
RTVSPost2010Prop57
140
1.0
102
RTVSPost2010PropOp57
 70
     1
102
RTVSPropertyOp0
 70
     1
102
RTVSPropertyOp1
 70
     1
102
RTVSPropertyOp2
 70
     1
102
RTVSPropertyOp3
 70
     1
102
RTVSPropertyOp4
 70
     1
102
RTVSPropertyOp5
 70
     1
102
RTVSPropertyOp6
 70
     1
102
RTVSPropertyOp7
 70
     1
102
RTVSPropertyOp8
 70
     1
102
RTVSPropertyOp9
 70
     1
102
RTVSPropertyOp10
 70
     1
102
RTVSPropertyOp11
 70
     1
102
RTVSPropertyOp12
 70
     1
102
RTVSPropertyOp13
 70
     1
102
RTVSPropertyOp14
 70
     1
102
RTVSPropertyOp15
 70
     1
102
RTVSPropertyOp16
 70
     1
102
RTVSPropertyOp17
 70
     1
102
RTVSPropertyOp18
 70
     1
102
RTVSPropertyOp19
 70
     1
102
RTVSPropertyOp20
 70
     1
102
RTVSPropertyOp21
 70
     1
102
RTVSPropertyOp22
 70
     1
102
RTVSPropertyOp23
 70
     1
102
RTVSPropertyOp24
 70
     1
102
RTVSPropertyOp25
 70
     1
102
RTVSPropertyOp26
 70
     1
102
RTVSPropertyOp27
 70
     1
102
RTVSPropertyOp28
 70
     1
102
RTVSPropertyOp29
 70
     1
102
RTVSPropertyOp30
 70
     1
102
RTVSPropertyOp31
 70
     1
102
RTVSPropertyOp32
 70
     1
102
RTVSPropertyOp33
 70
     1
102
RTVSPropertyOp34
 70
     1
102
RTVSPropertyOp35
 70
     1
102
RTVSPropertyOp36
 70
     1
102
RTVSPropertyOp37
 70
     1
102
RTVSPropertyOp38
 70
     1
102
RTVSPropertyOp39
 70
     1
102
RTVSPropertyOp40
 70
     1
102
RTVSPropertyOp41
 70
     1
102
RTVSPropertyOp42
 70
     1
102
RTVSPropertyOp43
 70
     1
102
RTVSPropertyOp44
 70
     1
102
RTVSPropertyOp45
 70
     1
102
RTVSPropertyOp46
 70
     1
102
RTVSPropertyOp47
 70
     1
102
RTVSPropertyOp48
 70
     1
102
RTVSPropertyOp49
 70
     1
102
RTVSPropertyOp50
 70
     1
102
RTVSPropertyOp51
 70
     0
102
RTVSPropertyOp52
 70
     0
102
RTVSPropertyOp53
 70
     1
102
RTVSPropertyOp54
 70
     1
102
RTVSPropertyOp55
 70
     1
102
RTVSPropertyOp56
 70
     1
102
RTVSPropertyOp57
 70
     1
102
RTVSPropertyOp58
 70
     1
102
RTVSPropertyOp59
 70
     1
102
RTVSPropertyOp60
 70
     1
102
RTVSPropertyOp61
 70
     1
102
RTVSPropertyOp62
 70
     1
  0
XRECORD
  5
164F8
102
{ACAD_REACTORS
330
164F7
102
}
330
164F7
100
AcDbXrecord
280
     1
102
RTVSPost2010Prop28
280
     0
102
RTVSPost2010PropOp28
 70
     1
102
RTVSPost2010Prop29
280
     1
102
RTVSPost2010PropOp29
 70
     1
102
RTVSPost2010Prop30
280
     1
102
RTVSPost2010PropOp30
 70
     1
102
RTVSPost2010Prop31
280
     0
102
RTVSPost2010PropOp31
 70
     1
102
RTVSPost2010Prop32
280
     0
102
RTVSPost2010PropOp32
 70
     1
102
RTVSPost2010Prop33
280
     0
102
RTVSPost2010PropOp33
 70
     1
102
RTVSPost2010Prop34
280
     0
102
RTVSPost2010PropOp34
 70
     1
102
RTVSPost2010Prop35
280
     0
102
RTVSPost2010PropOp35
 70
     1
102
RTVSPost2010Prop36
280
     0
102
RTVSPost2010PropOp36
 70
     1
102
RTVSPost2010Prop37
 90
       50
102
RTVSPost2010PropOp37
 70
     1
102
RTVSPost2010Prop38
140
0.0
102
RTVSPost2010PropOp38
 70
     1
102
RTVSPost2010Prop39
140
1.0
102
RTVSPost2010PropOp39
 70
     1
102
RTVSPost2010Prop40
 90
        0
102
RTVSPost2010PropOp40
 70
     1
102
RTVSPost2010Prop41ColorIndex
 90
       18
102
RTVSPost2010Prop41ColorRGB
 90
        0
102
RTVSPost2010PropOp41
 70
     1
102
RTVSPost2010Prop42
 90
       50
102
RTVSPost2010PropOp42
 70
     1
102
RTVSPost2010Prop43
 90
        3
102
RTVSPost2010PropOp43
 70
     1
102
RTVSPost2010Prop44ColorIndex
 90
        5
102
RTVSPost2010Prop44ColorRGB
 90
      255
102
RTVSPost2010PropOp44
 70
     1
102
RTVSPost2010Prop45
280
     0
102
RTVSPost2010PropOp45
 70
     1
102
RTVSPost2010Prop46
 90
       50
102
RTVSPost2010PropOp46
 70
     1
102
RTVSPost2010Prop47
 90
       50
102
RTVSPost2010PropOp47
 70
     1
102
RTVSPost2010Prop48
 90
       50
102
RTVSPost2010PropOp48
 70
     1
102
RTVSPost2010Prop49
280
     0
102
RTVSPost2010PropOp49
 70
     1
102
RTVSPost2010Prop50
 90
       50
102
RTVSPost2010PropOp50
 70
     1
102
RTVSPost2010Prop51ColorIndex
 90
      256
102
RTVSPost2010Prop51ColorRGB
 90
-16777216
102
RTVSPost2010PropOp51
 70
     0
102
RTVSPost2010Prop52
140
1.0
102
RTVSPost2010PropOp52
 70
     0
102
RTVSPost2010Prop53
 90
        2
102
RTVSPost2010PropOp53
 70
     1
102
RTVSPost2010Prop54
  1
strokes_ogs.tif
102
RTVSPost2010PropOp54
 70
     1
102
RTVSPost2010Prop55
280
     0
102
RTVSPost2010PropOp55
 70
     1
102
RTVSPost2010Prop56
140
1.0
102
RTVSPost2010PropOp56
 70
     1
102
RTVSPost2010Prop57
140
1.0
102
RTVSPost2010PropOp57
 70
     1
102
RTVSPropertyOp0
 70
     1
102
RTVSPropertyOp1
 70
     1
102
RTVSPropertyOp2
 70
     1
102
RTVSPropertyOp3
 70
     1
102
RTVSPropertyOp4
 70
     1
102
RTVSPropertyOp5
 70
     1
102
RTVSPropertyOp6
 70
     1
102
RTVSPropertyOp7
 70
     1
102
RTVSPropertyOp8
 70
     1
102
RTVSPropertyOp9
 70
     1
102
RTVSPropertyOp10
 70
     1
102
RTVSPropertyOp11
 70
     1
102
RTVSPropertyOp12
 70
     1
102
RTVSPropertyOp13
 70
     1
102
RTVSPropertyOp14
 70
     1
102
RTVSPropertyOp15
 70
     1
102
RTVSPropertyOp16
 70
     1
102
RTVSPropertyOp17
 70
     1
102
RTVSPropertyOp18
 70
     1
102
RTVSPropertyOp19
 70
     1
102
RTVSPropertyOp20
 70
     1
102
RTVSPropertyOp21
 70
     1
102
RTVSPropertyOp22
 70
     1
102
RTVSPropertyOp23
 70
     1
102
RTVSPropertyOp24
 70
     1
102
RTVSPropertyOp25
 70
     1
102
RTVSPropertyOp26
 70
     1
102
RTVSPropertyOp27
 70
     1
102
RTVSPropertyOp28
 70
     1
102
RTVSPropertyOp29
 70
     1
102
RTVSPropertyOp30
 70
     1
102
RTVSPropertyOp31
 70
     1
102
RTVSPropertyOp32
 70
     1
102
RTVSPropertyOp33
 70
     1
102
RTVSPropertyOp34
 70
     1
102
RTVSPropertyOp35
 70
     1
102
RTVSPropertyOp36
 70
     1
102
RTVSPropertyOp37
 70
     1
102
RTVSPropertyOp38
 70
     1
102
RTVSPropertyOp39
 70
     1
102
RTVSPropertyOp40
 70
     1
102
RTVSPropertyOp41
 70
     1
102
RTVSPropertyOp42
 70
     1
102
RTVSPropertyOp43
 70
     1
102
RTVSPropertyOp44
 70
     1
102
RTVSPropertyOp45
 70
     1
102
RTVSPropertyOp46
 70
     1
102
RTVSPropertyOp47
 70
     1
102
RTVSPropertyOp48
 70
     1
102
RTVSPropertyOp49
 70
     1
102
RTVSPropertyOp50
 70
     1
102
RTVSPropertyOp51
 70
     0
102
RTVSPropertyOp52
 70
     0
102
RTVSPropertyOp53
 70
     1
102
RTVSPropertyOp54
 70
     1
102
RTVSPropertyOp55
 70
     1
102
RTVSPropertyOp56
 70
     1
102
RTVSPropertyOp57
 70
     1
102
RTVSPropertyOp58
 70
     1
102
RTVSPropertyOp59
 70
     1
102
RTVSPropertyOp60
 70
     1
102
RTVSPropertyOp61
 70
     1
102
RTVSPropertyOp62
 70
     1
  0
XRECORD
  5
16506
102
{ACAD_REACTORS
330
16505
102
}
330
16505
100
AcDbXrecord
280
     1
102
RTVSPost2010Prop28
280
     0
102
RTVSPost2010PropOp28
 70
     1
102
RTVSPost2010Prop29
280
     1
102
RTVSPost2010PropOp29
 70
     1
102
RTVSPost2010Prop30
280
     1
102
RTVSPost2010PropOp30
 70
     1
102
RTVSPost2010Prop31
280
     0
102
RTVSPost2010PropOp31
 70
     1
102
RTVSPost2010Prop32
280
     0
102
RTVSPost2010PropOp32
 70
     1
102
RTVSPost2010Prop33
280
     0
102
RTVSPost2010PropOp33
 70
     1
102
RTVSPost2010Prop34
280
     0
102
RTVSPost2010PropOp34
 70
     1
102
RTVSPost2010Prop35
280
     0
102
RTVSPost2010PropOp35
 70
     1
102
RTVSPost2010Prop36
280
     0
102
RTVSPost2010PropOp36
 70
     1
102
RTVSPost2010Prop37
 90
       50
102
RTVSPost2010PropOp37
 70
     1
102
RTVSPost2010Prop38
140
0.0
102
RTVSPost2010PropOp38
 70
     1
102
RTVSPost2010Prop39
140
1.0
102
RTVSPost2010PropOp39
 70
     1
102
RTVSPost2010Prop40
 90
        0
102
RTVSPost2010PropOp40
 70
     1
102
RTVSPost2010Prop41ColorIndex
 90
       18
102
RTVSPost2010Prop41ColorRGB
 90
        0
102
RTVSPost2010PropOp41
 70
     1
102
RTVSPost2010Prop42
 90
       50
102
RTVSPost2010PropOp42
 70
     1
102
RTVSPost2010Prop43
 90
        3
102
RTVSPost2010PropOp43
 70
     1
102
RTVSPost2010Prop44ColorIndex
 90
        5
102
RTVSPost2010Prop44ColorRGB
 90
      255
102
RTVSPost2010PropOp44
 70
     1
102
RTVSPost2010Prop45
280
     0
102
RTVSPost2010PropOp45
 70
     1
102
RTVSPost2010Prop46
 90
       50
102
RTVSPost2010PropOp46
 70
     1
102
RTVSPost2010Prop47
 90
       50
102
RTVSPost2010PropOp47
 70
     1
102
RTVSPost2010Prop48
 90
       50
102
RTVSPost2010PropOp48
 70
     1
102
RTVSPost2010Prop49
280
     0
102
RTVSPost2010PropOp49
 70
     1
102
RTVSPost2010Prop50
 90
       50
102
RTVSPost2010PropOp50
 70
     1
102
RTVSPost2010Prop51ColorIndex
 90
      256
102
RTVSPost2010Prop51ColorRGB
 90
-16777216
102
RTVSPost2010PropOp51
 70
     0
102
RTVSPost2010Prop52
140
1.0
102
RTVSPost2010PropOp52
 70
     0
102
RTVSPost2010Prop53
 90
        2
102
RTVSPost2010PropOp53
 70
     1
102
RTVSPost2010Prop54
  1
strokes_ogs.tif
102
RTVSPost2010PropOp54
 70
     1
102
RTVSPost2010Prop55
280
     0
102
RTVSPost2010PropOp55
 70
     1
102
RTVSPost2010Prop56
140
1.0
102
RTVSPost2010PropOp56
 70
     1
102
RTVSPost2010Prop57
140
1.0
102
RTVSPost2010PropOp57
 70
     1
102
RTVSPropertyOp0
 70
     1
102
RTVSPropertyOp1
 70
     1
102
RTVSPropertyOp2
 70
     1
102
RTVSPropertyOp3
 70
     1
102
RTVSPropertyOp4
 70
     1
102
RTVSPropertyOp5
 70
     1
102
RTVSPropertyOp6
 70
     1
102
RTVSPropertyOp7
 70
     1
102
RTVSPropertyOp8
 70
     1
102
RTVSPropertyOp9
 70
     1
102
RTVSPropertyOp10
 70
     1
102
RTVSPropertyOp11
 70
     1
102
RTVSPropertyOp12
 70
     1
102
RTVSPropertyOp13
 70
     1
102
RTVSPropertyOp14
 70
     1
102
RTVSPropertyOp15
 70
     1
102
RTVSPropertyOp16
 70
     1
102
RTVSPropertyOp17
 70
     1
102
RTVSPropertyOp18
 70
     1
102
RTVSPropertyOp19
 70
     1
102
RTVSPropertyOp20
 70
     1
102
RTVSPropertyOp21
 70
     1
102
RTVSPropertyOp22
 70
     1
102
RTVSPropertyOp23
 70
     1
102
RTVSPropertyOp24
 70
     1
102
RTVSPropertyOp25
 70
     1
102
RTVSPropertyOp26
 70
     1
102
RTVSPropertyOp27
 70
     1
102
RTVSPropertyOp28
 70
     1
102
RTVSPropertyOp29
 70
     1
102
RTVSPropertyOp30
 70
     1
102
RTVSPropertyOp31
 70
     1
102
RTVSPropertyOp32
 70
     1
102
RTVSPropertyOp33
 70
     1
102
RTVSPropertyOp34
 70
     1
102
RTVSPropertyOp35
 70
     1
102
RTVSPropertyOp36
 70
     1
102
RTVSPropertyOp37
 70
     1
102
RTVSPropertyOp38
 70
     1
102
RTVSPropertyOp39
 70
     1
102
RTVSPropertyOp40
 70
     1
102
RTVSPropertyOp41
 70
     1
102
RTVSPropertyOp42
 70
     1
102
RTVSPropertyOp43
 70
     1
102
RTVSPropertyOp44
 70
     1
102
RTVSPropertyOp45
 70
     1
102
RTVSPropertyOp46
 70
     1
102
RTVSPropertyOp47
 70
     1
102
RTVSPropertyOp48
 70
     1
102
RTVSPropertyOp49
 70
     1
102
RTVSPropertyOp50
 70
     1
102
RTVSPropertyOp51
 70
     0
102
RTVSPropertyOp52
 70
     0
102
RTVSPropertyOp53
 70
     1
102
RTVSPropertyOp54
 70
     1
102
RTVSPropertyOp55
 70
     1
102
RTVSPropertyOp56
 70
     1
102
RTVSPropertyOp57
 70
     1
102
RTVSPropertyOp58
 70
     1
102
RTVSPropertyOp59
 70
     1
102
RTVSPropertyOp60
 70
     1
102
RTVSPropertyOp61
 70
     1
102
RTVSPropertyOp62
 70
     1
  0
XRECORD
  5
1650E
102
{ACAD_REACTORS
330
1650D
102
}
330
1650D
100
AcDbXrecord
280
     1
102
RTVSPost2010Prop28
280
     0
102
RTVSPost2010PropOp28
 70
     1
102
RTVSPost2010Prop29
280
     1
102
RTVSPost2010PropOp29
 70
     1
102
RTVSPost2010Prop30
280
     1
102
RTVSPost2010PropOp30
 70
     1
102
RTVSPost2010Prop31
280
     0
102
RTVSPost2010PropOp31
 70
     1
102
RTVSPost2010Prop32
280
     0
102
RTVSPost2010PropOp32
 70
     1
102
RTVSPost2010Prop33
280
     0
102
RTVSPost2010PropOp33
 70
     1
102
RTVSPost2010Prop34
280
     0
102
RTVSPost2010PropOp34
 70
     1
102
RTVSPost2010Prop35
280
     0
102
RTVSPost2010PropOp35
 70
     1
102
RTVSPost2010Prop36
280
     0
102
RTVSPost2010PropOp36
 70
     1
102
RTVSPost2010Prop37
 90
       50
102
RTVSPost2010PropOp37
 70
     1
102
RTVSPost2010Prop38
140
0.0
102
RTVSPost2010PropOp38
 70
     1
102
RTVSPost2010Prop39
140
1.0
102
RTVSPost2010PropOp39
 70
     1
102
RTVSPost2010Prop40
 90
        0
102
RTVSPost2010PropOp40
 70
     1
102
RTVSPost2010Prop41ColorIndex
 90
       18
102
RTVSPost2010Prop41ColorRGB
 90
        0
102
RTVSPost2010PropOp41
 70
     1
102
RTVSPost2010Prop42
 90
       50
102
RTVSPost2010PropOp42
 70
     1
102
RTVSPost2010Prop43
 90
        3
102
RTVSPost2010PropOp43
 70
     1
102
RTVSPost2010Prop44ColorIndex
 90
        5
102
RTVSPost2010Prop44ColorRGB
 90
      255
102
RTVSPost2010PropOp44
 70
     1
102
RTVSPost2010Prop45
280
     0
102
RTVSPost2010PropOp45
 70
     1
102
RTVSPost2010Prop46
 90
       50
102
RTVSPost2010PropOp46
 70
     1
102
RTVSPost2010Prop47
 90
       50
102
RTVSPost2010PropOp47
 70
     1
102
RTVSPost2010Prop48
 90
       50
102
RTVSPost2010PropOp48
 70
     1
102
RTVSPost2010Prop49
280
     0
102
RTVSPost2010PropOp49
 70
     1
102
RTVSPost2010Prop50
 90
       50
102
RTVSPost2010PropOp50
 70
     1
102
RTVSPost2010Prop51ColorIndex
 90
      256
102
RTVSPost2010Prop51ColorRGB
 90
-16777216
102
RTVSPost2010PropOp51
 70
     0
102
RTVSPost2010Prop52
140
1.0
102
RTVSPost2010PropOp52
 70
     0
102
RTVSPost2010Prop53
 90
        2
102
RTVSPost2010PropOp53
 70
     1
102
RTVSPost2010Prop54
  1
strokes_ogs.tif
102
RTVSPost2010PropOp54
 70
     1
102
RTVSPost2010Prop55
280
     0
102
RTVSPost2010PropOp55
 70
     1
102
RTVSPost2010Prop56
140
1.0
102
RTVSPost2010PropOp56
 70
     1
102
RTVSPost2010Prop57
140
1.0
102
RTVSPost2010PropOp57
 70
     1
102
RTVSPropertyOp0
 70
     1
102
RTVSPropertyOp1
 70
     1
102
RTVSPropertyOp2
 70
     1
102
RTVSPropertyOp3
 70
     1
102
RTVSPropertyOp4
 70
     1
102
RTVSPropertyOp5
 70
     1
102
RTVSPropertyOp6
 70
     1
102
RTVSPropertyOp7
 70
     1
102
RTVSPropertyOp8
 70
     1
102
RTVSPropertyOp9
 70
     1
102
RTVSPropertyOp10
 70
     1
102
RTVSPropertyOp11
 70
     1
102
RTVSPropertyOp12
 70
     1
102
RTVSPropertyOp13
 70
     1
102
RTVSPropertyOp14
 70
     1
102
RTVSPropertyOp15
 70
     1
102
RTVSPropertyOp16
 70
     1
102
RTVSPropertyOp17
 70
     1
102
RTVSPropertyOp18
 70
     1
102
RTVSPropertyOp19
 70
     1
102
RTVSPropertyOp20
 70
     1
102
RTVSPropertyOp21
 70
     1
102
RTVSPropertyOp22
 70
     1
102
RTVSPropertyOp23
 70
     1
102
RTVSPropertyOp24
 70
     1
102
RTVSPropertyOp25
 70
     1
102
RTVSPropertyOp26
 70
     1
102
RTVSPropertyOp27
 70
     1
102
RTVSPropertyOp28
 70
     1
102
RTVSPropertyOp29
 70
     1
102
RTVSPropertyOp30
 70
     1
102
RTVSPropertyOp31
 70
     1
102
RTVSPropertyOp32
 70
     1
102
RTVSPropertyOp33
 70
     1
102
RTVSPropertyOp34
 70
     1
102
RTVSPropertyOp35
 70
     1
102
RTVSPropertyOp36
 70
     1
102
RTVSPropertyOp37
 70
     1
102
RTVSPropertyOp38
 70
     1
102
RTVSPropertyOp39
 70
     1
102
RTVSPropertyOp40
 70
     1
102
RTVSPropertyOp41
 70
     1
102
RTVSPropertyOp42
 70
     1
102
RTVSPropertyOp43
 70
     1
102
RTVSPropertyOp44
 70
     1
102
RTVSPropertyOp45
 70
     1
102
RTVSPropertyOp46
 70
     1
102
RTVSPropertyOp47
 70
     1
102
RTVSPropertyOp48
 70
     1
102
RTVSPropertyOp49
 70
     1
102
RTVSPropertyOp50
 70
     1
102
RTVSPropertyOp51
 70
     0
102
RTVSPropertyOp52
 70
     0
102
RTVSPropertyOp53
 70
     1
102
RTVSPropertyOp54
 70
     1
102
RTVSPropertyOp55
 70
     1
102
RTVSPropertyOp56
 70
     1
102
RTVSPropertyOp57
 70
     1
102
RTVSPropertyOp58
 70
     1
102
RTVSPropertyOp59
 70
     1
102
RTVSPropertyOp60
 70
     1
102
RTVSPropertyOp61
 70
     1
102
RTVSPropertyOp62
 70
     1
  0
XRECORD
  5
16500
102
{ACAD_REACTORS
330
164FF
102
}
330
164FF
100
AcDbXrecord
280
     1
102
RTVSPost2010Prop28
280
     0
102
RTVSPost2010PropOp28
 70
     1
102
RTVSPost2010Prop29
280
     1
102
RTVSPost2010PropOp29
 70
     1
102
RTVSPost2010Prop30
280
     1
102
RTVSPost2010PropOp30
 70
     1
102
RTVSPost2010Prop31
280
     0
102
RTVSPost2010PropOp31
 70
     1
102
RTVSPost2010Prop32
280
     0
102
RTVSPost2010PropOp32
 70
     1
102
RTVSPost2010Prop33
280
     0
102
RTVSPost2010PropOp33
 70
     1
102
RTVSPost2010Prop34
280
     0
102
RTVSPost2010PropOp34
 70
     1
102
RTVSPost2010Prop35
280
     0
102
RTVSPost2010PropOp35
 70
     1
102
RTVSPost2010Prop36
280
     0
102
RTVSPost2010PropOp36
 70
     1
102
RTVSPost2010Prop37
 90
       50
102
RTVSPost2010PropOp37
 70
     1
102
RTVSPost2010Prop38
140
0.0
102
RTVSPost2010PropOp38
 70
     1
102
RTVSPost2010Prop39
140
1.0
102
RTVSPost2010PropOp39
 70
     1
102
RTVSPost2010Prop40
 90
        0
102
RTVSPost2010PropOp40
 70
     1
102
RTVSPost2010Prop41ColorIndex
 90
       18
102
RTVSPost2010Prop41ColorRGB
 90
        0
102
RTVSPost2010PropOp41
 70
     1
102
RTVSPost2010Prop42
 90
       50
102
RTVSPost2010PropOp42
 70
     1
102
RTVSPost2010Prop43
 90
        3
102
RTVSPost2010PropOp43
 70
     1
102
RTVSPost2010Prop44ColorIndex
 90
        5
102
RTVSPost2010Prop44ColorRGB
 90
      255
102
RTVSPost2010PropOp44
 70
     1
102
RTVSPost2010Prop45
280
     0
102
RTVSPost2010PropOp45
 70
     1
102
RTVSPost2010Prop46
 90
       50
102
RTVSPost2010PropOp46
 70
     1
102
RTVSPost2010Prop47
 90
       50
102
RTVSPost2010PropOp47
 70
     1
102
RTVSPost2010Prop48
 90
       50
102
RTVSPost2010PropOp48
 70
     1
102
RTVSPost2010Prop49
280
     0
102
RTVSPost2010PropOp49
 70
     1
102
RTVSPost2010Prop50
 90
       50
102
RTVSPost2010PropOp50
 70
     1
102
RTVSPost2010Prop51ColorIndex
 90
      256
102
RTVSPost2010Prop51ColorRGB
 90
-16777216
102
RTVSPost2010PropOp51
 70
     0
102
RTVSPost2010Prop52
140
1.0
102
RTVSPost2010PropOp52
 70
     0
102
RTVSPost2010Prop53
 90
        2
102
RTVSPost2010PropOp53
 70
     1
102
RTVSPost2010Prop54
  1
strokes_ogs.tif
102
RTVSPost2010PropOp54
 70
     1
102
RTVSPost2010Prop55
280
     0
102
RTVSPost2010PropOp55
 70
     1
102
RTVSPost2010Prop56
140
1.0
102
RTVSPost2010PropOp56
 70
     1
102
RTVSPost2010Prop57
140
1.0
102
RTVSPost2010PropOp57
 70
     1
102
RTVSPropertyOp0
 70
     1
102
RTVSPropertyOp1
 70
     1
102
RTVSPropertyOp2
 70
     1
102
RTVSPropertyOp3
 70
     1
102
RTVSPropertyOp4
 70
     1
102
RTVSPropertyOp5
 70
     1
102
RTVSPropertyOp6
 70
     1
102
RTVSPropertyOp7
 70
     1
102
RTVSPropertyOp8
 70
     1
102
RTVSPropertyOp9
 70
     1
102
RTVSPropertyOp10
 70
     1
102
RTVSPropertyOp11
 70
     1
102
RTVSPropertyOp12
 70
     1
102
RTVSPropertyOp13
 70
     1
102
RTVSPropertyOp14
 70
     1
102
RTVSPropertyOp15
 70
     1
102
RTVSPropertyOp16
 70
     1
102
RTVSPropertyOp17
 70
     1
102
RTVSPropertyOp18
 70
     1
102
RTVSPropertyOp19
 70
     1
102
RTVSPropertyOp20
 70
     1
102
RTVSPropertyOp21
 70
     1
102
RTVSPropertyOp22
 70
     1
102
RTVSPropertyOp23
 70
     1
102
RTVSPropertyOp24
 70
     1
102
RTVSPropertyOp25
 70
     1
102
RTVSPropertyOp26
 70
     1
102
RTVSPropertyOp27
 70
     1
102
RTVSPropertyOp28
 70
     1
102
RTVSPropertyOp29
 70
     1
102
RTVSPropertyOp30
 70
     1
102
RTVSPropertyOp31
 70
     1
102
RTVSPropertyOp32
 70
     1
102
RTVSPropertyOp33
 70
     1
102
RTVSPropertyOp34
 70
     1
102
RTVSPropertyOp35
 70
     1
102
RTVSPropertyOp36
 70
     1
102
RTVSPropertyOp37
 70
     1
102
RTVSPropertyOp38
 70
     1
102
RTVSPropertyOp39
 70
     1
102
RTVSPropertyOp40
 70
     1
102
RTVSPropertyOp41
 70
     1
102
RTVSPropertyOp42
 70
     1
102
RTVSPropertyOp43
 70
     1
102
RTVSPropertyOp44
 70
     1
102
RTVSPropertyOp45
 70
     1
102
RTVSPropertyOp46
 70
     1
102
RTVSPropertyOp47
 70
     1
102
RTVSPropertyOp48
 70
     1
102
RTVSPropertyOp49
 70
     1
102
RTVSPropertyOp50
 70
     1
102
RTVSPropertyOp51
 70
     0
102
RTVSPropertyOp52
 70
     0
102
RTVSPropertyOp53
 70
     1
102
RTVSPropertyOp54
 70
     1
102
RTVSPropertyOp55
 70
     1
102
RTVSPropertyOp56
 70
     1
102
RTVSPropertyOp57
 70
     1
102
RTVSPropertyOp58
 70
     1
102
RTVSPropertyOp59
 70
     1
102
RTVSPropertyOp60
 70
     1
102
RTVSPropertyOp61
 70
     1
102
RTVSPropertyOp62
 70
     1
  0
XRECORD
  5
16504
102
{ACAD_REACTORS
330
16503
102
}
330
16503
100
AcDbXrecord
280
     1
102
RTVSPost2010Prop28
280
     0
102
RTVSPost2010PropOp28
 70
     1
102
RTVSPost2010Prop29
280
     1
102
RTVSPost2010PropOp29
 70
     1
102
RTVSPost2010Prop30
280
     1
102
RTVSPost2010PropOp30
 70
     1
102
RTVSPost2010Prop31
280
     0
102
RTVSPost2010PropOp31
 70
     1
102
RTVSPost2010Prop32
280
     0
102
RTVSPost2010PropOp32
 70
     1
102
RTVSPost2010Prop33
280
     0
102
RTVSPost2010PropOp33
 70
     1
102
RTVSPost2010Prop34
280
     0
102
RTVSPost2010PropOp34
 70
     1
102
RTVSPost2010Prop35
280
     0
102
RTVSPost2010PropOp35
 70
     1
102
RTVSPost2010Prop36
280
     0
102
RTVSPost2010PropOp36
 70
     1
102
RTVSPost2010Prop37
 90
       50
102
RTVSPost2010PropOp37
 70
     1
102
RTVSPost2010Prop38
140
0.0
102
RTVSPost2010PropOp38
 70
     1
102
RTVSPost2010Prop39
140
1.0
102
RTVSPost2010PropOp39
 70
     1
102
RTVSPost2010Prop40
 90
        0
102
RTVSPost2010PropOp40
 70
     1
102
RTVSPost2010Prop41ColorIndex
 90
       18
102
RTVSPost2010Prop41ColorRGB
 90
        0
102
RTVSPost2010PropOp41
 70
     1
102
RTVSPost2010Prop42
 90
       50
102
RTVSPost2010PropOp42
 70
     1
102
RTVSPost2010Prop43
 90
        3
102
RTVSPost2010PropOp43
 70
     1
102
RTVSPost2010Prop44ColorIndex
 90
        5
102
RTVSPost2010Prop44ColorRGB
 90
      255
102
RTVSPost2010PropOp44
 70
     1
102
RTVSPost2010Prop45
280
     0
102
RTVSPost2010PropOp45
 70
     1
102
RTVSPost2010Prop46
 90
       50
102
RTVSPost2010PropOp46
 70
     1
102
RTVSPost2010Prop47
 90
       50
102
RTVSPost2010PropOp47
 70
     1
102
RTVSPost2010Prop48
 90
       50
102
RTVSPost2010PropOp48
 70
     1
102
RTVSPost2010Prop49
280
     0
102
RTVSPost2010PropOp49
 70
     1
102
RTVSPost2010Prop50
 90
       50
102
RTVSPost2010PropOp50
 70
     1
102
RTVSPost2010Prop51ColorIndex
 90
      256
102
RTVSPost2010Prop51ColorRGB
 90
-16777216
102
RTVSPost2010PropOp51
 70
     0
102
RTVSPost2010Prop52
140
1.0
102
RTVSPost2010PropOp52
 70
     0
102
RTVSPost2010Prop53
 90
        2
102
RTVSPost2010PropOp53
 70
     1
102
RTVSPost2010Prop54
  1
strokes_ogs.tif
102
RTVSPost2010PropOp54
 70
     1
102
RTVSPost2010Prop55
280
     0
102
RTVSPost2010PropOp55
 70
     1
102
RTVSPost2010Prop56
140
1.0
102
RTVSPost2010PropOp56
 70
     1
102
RTVSPost2010Prop57
140
1.0
102
RTVSPost2010PropOp57
 70
     1
102
RTVSPropertyOp0
 70
     1
102
RTVSPropertyOp1
 70
     1
102
RTVSPropertyOp2
 70
     1
102
RTVSPropertyOp3
 70
     1
102
RTVSPropertyOp4
 70
     1
102
RTVSPropertyOp5
 70
     1
102
RTVSPropertyOp6
 70
     1
102
RTVSPropertyOp7
 70
     1
102
RTVSPropertyOp8
 70
     1
102
RTVSPropertyOp9
 70
     1
102
RTVSPropertyOp10
 70
     1
102
RTVSPropertyOp11
 70
     1
102
RTVSPropertyOp12
 70
     1
102
RTVSPropertyOp13
 70
     1
102
RTVSPropertyOp14
 70
     1
102
RTVSPropertyOp15
 70
     1
102
RTVSPropertyOp16
 70
     1
102
RTVSPropertyOp17
 70
     1
102
RTVSPropertyOp18
 70
     1
102
RTVSPropertyOp19
 70
     1
102
RTVSPropertyOp20
 70
     1
102
RTVSPropertyOp21
 70
     1
102
RTVSPropertyOp22
 70
     1
102
RTVSPropertyOp23
 70
     1
102
RTVSPropertyOp24
 70
     1
102
RTVSPropertyOp25
 70
     1
102
RTVSPropertyOp26
 70
     1
102
RTVSPropertyOp27
 70
     1
102
RTVSPropertyOp28
 70
     1
102
RTVSPropertyOp29
 70
     1
102
RTVSPropertyOp30
 70
     1
102
RTVSPropertyOp31
 70
     1
102
RTVSPropertyOp32
 70
     1
102
RTVSPropertyOp33
 70
     1
102
RTVSPropertyOp34
 70
     1
102
RTVSPropertyOp35
 70
     1
102
RTVSPropertyOp36
 70
     1
102
RTVSPropertyOp37
 70
     1
102
RTVSPropertyOp38
 70
     1
102
RTVSPropertyOp39
 70
     1
102
RTVSPropertyOp40
 70
     1
102
RTVSPropertyOp41
 70
     1
102
RTVSPropertyOp42
 70
     1
102
RTVSPropertyOp43
 70
     1
102
RTVSPropertyOp44
 70
     1
102
RTVSPropertyOp45
 70
     1
102
RTVSPropertyOp46
 70
     1
102
RTVSPropertyOp47
 70
     1
102
RTVSPropertyOp48
 70
     1
102
RTVSPropertyOp49
 70
     1
102
RTVSPropertyOp50
 70
     1
102
RTVSPropertyOp51
 70
     0
102
RTVSPropertyOp52
 70
     0
102
RTVSPropertyOp53
 70
     1
102
RTVSPropertyOp54
 70
     1
102
RTVSPropertyOp55
 70
     1
102
RTVSPropertyOp56
 70
     1
102
RTVSPropertyOp57
 70
     1
102
RTVSPropertyOp58
 70
     1
102
RTVSPropertyOp59
 70
     1
102
RTVSPropertyOp60
 70
     1
102
RTVSPropertyOp61
 70
     1
102
RTVSPropertyOp62
 70
     1
  0
XRECORD
  5
1651E
102
{ACAD_REACTORS
330
1651D
102
}
330
1651D
100
AcDbXrecord
280
     1
102
RTVSPost2010Prop28
280
     0
102
RTVSPost2010PropOp28
 70
     0
102
RTVSPost2010Prop29
280
     1
102
RTVSPost2010PropOp29
 70
     0
102
RTVSPost2010Prop30
280
     1
102
RTVSPost2010PropOp30
 70
     0
102
RTVSPost2010Prop31
280
     0
102
RTVSPost2010PropOp31
 70
     0
102
RTVSPost2010Prop32
280
     0
102
RTVSPost2010PropOp32
 70
     0
102
RTVSPost2010Prop33
280
     0
102
RTVSPost2010PropOp33
 70
     0
102
RTVSPost2010Prop34
280
     0
102
RTVSPost2010PropOp34
 70
     0
102
RTVSPost2010Prop35
280
     0
102
RTVSPost2010PropOp35
 70
     0
102
RTVSPost2010Prop36
280
     0
102
RTVSPost2010PropOp36
 70
     0
102
RTVSPost2010Prop37
 90
       50
102
RTVSPost2010PropOp37
 70
     0
102
RTVSPost2010Prop38
140
0.0
102
RTVSPost2010PropOp38
 70
     0
102
RTVSPost2010Prop39
140
1.0
102
RTVSPost2010PropOp39
 70
     0
102
RTVSPost2010Prop40
 90
        0
102
RTVSPost2010PropOp40
 70
     0
102
RTVSPost2010Prop41ColorIndex
 90
       18
102
RTVSPost2010Prop41ColorRGB
 90
        0
102
RTVSPost2010PropOp41
 70
     0
102
RTVSPost2010Prop42
 90
       50
102
RTVSPost2010PropOp42
 70
     0
102
RTVSPost2010Prop43
 90
        3
102
RTVSPost2010PropOp43
 70
     0
102
RTVSPost2010Prop44ColorIndex
 90
        5
102
RTVSPost2010Prop44ColorRGB
 90
      255
102
RTVSPost2010PropOp44
 70
     0
102
RTVSPost2010Prop45
280
     0
102
RTVSPost2010PropOp45
 70
     0
102
RTVSPost2010Prop46
 90
       50
102
RTVSPost2010PropOp46
 70
     0
102
RTVSPost2010Prop47
 90
       50
102
RTVSPost2010PropOp47
 70
     0
102
RTVSPost2010Prop48
 90
       50
102
RTVSPost2010PropOp48
 70
     0
102
RTVSPost2010Prop49
280
     0
102
RTVSPost2010PropOp49
 70
     0
102
RTVSPost2010Prop50
 90
       50
102
RTVSPost2010PropOp50
 70
     0
102
RTVSPost2010Prop51ColorIndex
 90
      256
102
RTVSPost2010Prop51ColorRGB
 90
-16777216
102
RTVSPost2010PropOp51
 70
     0
102
RTVSPost2010Prop52
140
1.0
102
RTVSPost2010PropOp52
 70
     0
102
RTVSPost2010Prop53
 90
        2
102
RTVSPost2010PropOp53
 70
     0
102
RTVSPost2010Prop54
  1
strokes_ogs.tif
102
RTVSPost2010PropOp54
 70
     0
102
RTVSPost2010Prop55
280
     0
102
RTVSPost2010PropOp55
 70
     0
102
RTVSPost2010Prop56
140
1.0
102
RTVSPost2010PropOp56
 70
     0
102
RTVSPost2010Prop57
140
1.0
102
RTVSPost2010PropOp57
 70
     0
102
RTVSPropertyOp0
 70
     0
102
RTVSPropertyOp1
 70
     0
102
RTVSPropertyOp2
 70
     0
102
RTVSPropertyOp3
 70
     0
102
RTVSPropertyOp4
 70
     0
102
RTVSPropertyOp5
 70
     0
102
RTVSPropertyOp6
 70
     0
102
RTVSPropertyOp7
 70
     0
102
RTVSPropertyOp8
 70
     0
102
RTVSPropertyOp9
 70
     0
102
RTVSPropertyOp10
 70
     0
102
RTVSPropertyOp11
 70
     0
102
RTVSPropertyOp12
 70
     0
102
RTVSPropertyOp13
 70
     0
102
RTVSPropertyOp14
 70
     2
102
RTVSPropertyOp15
 70
     0
102
RTVSPropertyOp16
 70
     0
102
RTVSPropertyOp17
 70
     0
102
RTVSPropertyOp18
 70
     0
102
RTVSPropertyOp19
 70
     0
102
RTVSPropertyOp20
 70
     0
102
RTVSPropertyOp21
 70
     0
102
RTVSPropertyOp22
 70
     0
102
RTVSPropertyOp23
 70
     0
102
RTVSPropertyOp24
 70
     0
102
RTVSPropertyOp25
 70
     0
102
RTVSPropertyOp26
 70
     0
102
RTVSPropertyOp27
 70
     0
102
RTVSPropertyOp28
 70
     0
102
RTVSPropertyOp29
 70
     0
102
RTVSPropertyOp30
 70
     0
102
RTVSPropertyOp31
 70
     0
102
RTVSPropertyOp32
 70
     0
102
RTVSPropertyOp33
 70
     0
102
RTVSPropertyOp34
 70
     0
102
RTVSPropertyOp35
 70
     0
102
RTVSPropertyOp36
 70
     0
102
RTVSPropertyOp37
 70
     0
102
RTVSPropertyOp38
 70
     0
102
RTVSPropertyOp39
 70
     0
102
RTVSPropertyOp40
 70
     0
102
RTVSPropertyOp41
 70
     0
102
RTVSPropertyOp42
 70
     0
102
RTVSPropertyOp43
 70
     0
102
RTVSPropertyOp44
 70
     0
102
RTVSPropertyOp45
 70
     0
102
RTVSPropertyOp46
 70
     0
102
RTVSPropertyOp47
 70
     0
102
RTVSPropertyOp48
 70
     0
102
RTVSPropertyOp49
 70
     0
102
RTVSPropertyOp50
 70
     0
102
RTVSPropertyOp51
 70
     0
102
RTVSPropertyOp52
 70
     0
102
RTVSPropertyOp53
 70
     0
102
RTVSPropertyOp54
 70
     0
102
RTVSPropertyOp55
 70
     0
102
RTVSPropertyOp56
 70
     0
102
RTVSPropertyOp57
 70
     0
102
RTVSPropertyOp58
 70
     1
102
RTVSPropertyOp59
 70
     1
102
RTVSPropertyOp60
 70
     1
102
RTVSPropertyOp61
 70
     1
102
RTVSPropertyOp62
 70
     1
  0
XRECORD
  5
1650C
102
{ACAD_REACTORS
330
1650B
102
}
330
1650B
100
AcDbXrecord
280
     1
102
RTVSPost2010Prop28
280
     0
102
RTVSPost2010PropOp28
 70
     1
102
RTVSPost2010Prop29
280
     1
102
RTVSPost2010PropOp29
 70
     1
102
RTVSPost2010Prop30
280
     1
102
RTVSPost2010PropOp30
 70
     1
102
RTVSPost2010Prop31
280
     0
102
RTVSPost2010PropOp31
 70
     1
102
RTVSPost2010Prop32
280
     0
102
RTVSPost2010PropOp32
 70
     1
102
RTVSPost2010Prop33
280
     0
102
RTVSPost2010PropOp33
 70
     1
102
RTVSPost2010Prop34
280
     0
102
RTVSPost2010PropOp34
 70
     1
102
RTVSPost2010Prop35
280
     0
102
RTVSPost2010PropOp35
 70
     1
102
RTVSPost2010Prop36
280
     0
102
RTVSPost2010PropOp36
 70
     1
102
RTVSPost2010Prop37
 90
       50
102
RTVSPost2010PropOp37
 70
     1
102
RTVSPost2010Prop38
140
0.0
102
RTVSPost2010PropOp38
 70
     1
102
RTVSPost2010Prop39
140
1.0
102
RTVSPost2010PropOp39
 70
     1
102
RTVSPost2010Prop40
 90
        0
102
RTVSPost2010PropOp40
 70
     1
102
RTVSPost2010Prop41ColorIndex
 90
       18
102
RTVSPost2010Prop41ColorRGB
 90
        0
102
RTVSPost2010PropOp41
 70
     1
102
RTVSPost2010Prop42
 90
       50
102
RTVSPost2010PropOp42
 70
     1
102
RTVSPost2010Prop43
 90
        3
102
RTVSPost2010PropOp43
 70
     1
102
RTVSPost2010Prop44ColorIndex
 90
        5
102
RTVSPost2010Prop44ColorRGB
 90
      255
102
RTVSPost2010PropOp44
 70
     1
102
RTVSPost2010Prop45
280
     0
102
RTVSPost2010PropOp45
 70
     1
102
RTVSPost2010Prop46
 90
       50
102
RTVSPost2010PropOp46
 70
     1
102
RTVSPost2010Prop47
 90
       50
102
RTVSPost2010PropOp47
 70
     1
102
RTVSPost2010Prop48
 90
       50
102
RTVSPost2010PropOp48
 70
     1
102
RTVSPost2010Prop49
280
     0
102
RTVSPost2010PropOp49
 70
     1
102
RTVSPost2010Prop50
 90
       50
102
RTVSPost2010PropOp50
 70
     1
102
RTVSPost2010Prop51ColorIndex
 90
      256
102
RTVSPost2010Prop51ColorRGB
 90
-16777216
102
RTVSPost2010PropOp51
 70
     0
102
RTVSPost2010Prop52
140
1.0
102
RTVSPost2010PropOp52
 70
     0
102
RTVSPost2010Prop53
 90
        2
102
RTVSPost2010PropOp53
 70
     1
102
RTVSPost2010Prop54
  1
strokes_ogs.tif
102
RTVSPost2010PropOp54
 70
     1
102
RTVSPost2010Prop55
280
     0
102
RTVSPost2010PropOp55
 70
     1
102
RTVSPost2010Prop56
140
1.0
102
RTVSPost2010PropOp56
 70
     1
102
RTVSPost2010Prop57
140
1.0
102
RTVSPost2010PropOp57
 70
     1
102
RTVSPropertyOp0
 70
     1
102
RTVSPropertyOp1
 70
     1
102
RTVSPropertyOp2
 70
     1
102
RTVSPropertyOp3
 70
     1
102
RTVSPropertyOp4
 70
     1
102
RTVSPropertyOp5
 70
     1
102
RTVSPropertyOp6
 70
     1
102
RTVSPropertyOp7
 70
     1
102
RTVSPropertyOp8
 70
     1
102
RTVSPropertyOp9
 70
     1
102
RTVSPropertyOp10
 70
     1
102
RTVSPropertyOp11
 70
     1
102
RTVSPropertyOp12
 70
     1
102
RTVSPropertyOp13
 70
     1
102
RTVSPropertyOp14
 70
     1
102
RTVSPropertyOp15
 70
     1
102
RTVSPropertyOp16
 70
     1
102
RTVSPropertyOp17
 70
     1
102
RTVSPropertyOp18
 70
     1
102
RTVSPropertyOp19
 70
     1
102
RTVSPropertyOp20
 70
     1
102
RTVSPropertyOp21
 70
     1
102
RTVSPropertyOp22
 70
     1
102
RTVSPropertyOp23
 70
     1
102
RTVSPropertyOp24
 70
     1
102
RTVSPropertyOp25
 70
     1
102
RTVSPropertyOp26
 70
     1
102
RTVSPropertyOp27
 70
     1
102
RTVSPropertyOp28
 70
     1
102
RTVSPropertyOp29
 70
     1
102
RTVSPropertyOp30
 70
     1
102
RTVSPropertyOp31
 70
     1
102
RTVSPropertyOp32
 70
     1
102
RTVSPropertyOp33
 70
     1
102
RTVSPropertyOp34
 70
     1
102
RTVSPropertyOp35
 70
     1
102
RTVSPropertyOp36
 70
     1
102
RTVSPropertyOp37
 70
     1
102
RTVSPropertyOp38
 70
     1
102
RTVSPropertyOp39
 70
     1
102
RTVSPropertyOp40
 70
     1
102
RTVSPropertyOp41
 70
     1
102
RTVSPropertyOp42
 70
     1
102
RTVSPropertyOp43
 70
     1
102
RTVSPropertyOp44
 70
     1
102
RTVSPropertyOp45
 70
     1
102
RTVSPropertyOp46
 70
     1
102
RTVSPropertyOp47
 70
     1
102
RTVSPropertyOp48
 70
     1
102
RTVSPropertyOp49
 70
     1
102
RTVSPropertyOp50
 70
     1
102
RTVSPropertyOp51
 70
     0
102
RTVSPropertyOp52
 70
     0
102
RTVSPropertyOp53
 70
     1
102
RTVSPropertyOp54
 70
     1
102
RTVSPropertyOp55
 70
     1
102
RTVSPropertyOp56
 70
     1
102
RTVSPropertyOp57
 70
     1
102
RTVSPropertyOp58
 70
     1
102
RTVSPropertyOp59
 70
     1
102
RTVSPropertyOp60
 70
     1
102
RTVSPropertyOp61
 70
     1
102
RTVSPropertyOp62
 70
     1
  0
XRECORD
  5
164F0
102
{ACAD_REACTORS
330
164EF
102
}
330
164EF
100
AcDbXrecord
280
     1
102
RTVSPost2010Prop28
280
     0
102
RTVSPost2010PropOp28
 70
     1
102
RTVSPost2010Prop29
280
     1
102
RTVSPost2010PropOp29
 70
     1
102
RTVSPost2010Prop30
280
     1
102
RTVSPost2010PropOp30
 70
     1
102
RTVSPost2010Prop31
280
     0
102
RTVSPost2010PropOp31
 70
     1
102
RTVSPost2010Prop32
280
     0
102
RTVSPost2010PropOp32
 70
     1
102
RTVSPost2010Prop33
280
     0
102
RTVSPost2010PropOp33
 70
     1
102
RTVSPost2010Prop34
280
     0
102
RTVSPost2010PropOp34
 70
     1
102
RTVSPost2010Prop35
280
     0
102
RTVSPost2010PropOp35
 70
     1
102
RTVSPost2010Prop36
280
     0
102
RTVSPost2010PropOp36
 70
     1
102
RTVSPost2010Prop37
 90
       50
102
RTVSPost2010PropOp37
 70
     1
102
RTVSPost2010Prop38
140
0.0
102
RTVSPost2010PropOp38
 70
     1
102
RTVSPost2010Prop39
140
1.0
102
RTVSPost2010PropOp39
 70
     1
102
RTVSPost2010Prop40
 90
        0
102
RTVSPost2010PropOp40
 70
     1
102
RTVSPost2010Prop41ColorIndex
 90
       18
102
RTVSPost2010Prop41ColorRGB
 90
        0
102
RTVSPost2010PropOp41
 70
     1
102
RTVSPost2010Prop42
 90
       50
102
RTVSPost2010PropOp42
 70
     1
102
RTVSPost2010Prop43
 90
        3
102
RTVSPost2010PropOp43
 70
     1
102
RTVSPost2010Prop44ColorIndex
 90
        5
102
RTVSPost2010Prop44ColorRGB
 90
      255
102
RTVSPost2010PropOp44
 70
     1
102
RTVSPost2010Prop45
280
     0
102
RTVSPost2010PropOp45
 70
     1
102
RTVSPost2010Prop46
 90
       50
102
RTVSPost2010PropOp46
 70
     1
102
RTVSPost2010Prop47
 90
       50
102
RTVSPost2010PropOp47
 70
     1
102
RTVSPost2010Prop48
 90
       50
102
RTVSPost2010PropOp48
 70
     1
102
RTVSPost2010Prop49
280
     0
102
RTVSPost2010PropOp49
 70
     1
102
RTVSPost2010Prop50
 90
       50
102
RTVSPost2010PropOp50
 70
     1
102
RTVSPost2010Prop51ColorIndex
 90
      256
102
RTVSPost2010Prop51ColorRGB
 90
-16777216
102
RTVSPost2010PropOp51
 70
     0
102
RTVSPost2010Prop52
140
1.0
102
RTVSPost2010PropOp52
 70
     0
102
RTVSPost2010Prop53
 90
        2
102
RTVSPost2010PropOp53
 70
     1
102
RTVSPost2010Prop54
  1
strokes_ogs.tif
102
RTVSPost2010PropOp54
 70
     1
102
RTVSPost2010Prop55
280
     0
102
RTVSPost2010PropOp55
 70
     1
102
RTVSPost2010Prop56
140
1.0
102
RTVSPost2010PropOp56
 70
     1
102
RTVSPost2010Prop57
140
1.0
102
RTVSPost2010PropOp57
 70
     1
102
RTVSPropertyOp0
 70
     1
102
RTVSPropertyOp1
 70
     1
102
RTVSPropertyOp2
 70
     1
102
RTVSPropertyOp3
 70
     1
102
RTVSPropertyOp4
 70
     1
102
RTVSPropertyOp5
 70
     1
102
RTVSPropertyOp6
 70
     1
102
RTVSPropertyOp7
 70
     1
102
RTVSPropertyOp8
 70
     1
102
RTVSPropertyOp9
 70
     1
102
RTVSPropertyOp10
 70
     1
102
RTVSPropertyOp11
 70
     1
102
RTVSPropertyOp12
 70
     1
102
RTVSPropertyOp13
 70
     1
102
RTVSPropertyOp14
 70
     1
102
RTVSPropertyOp15
 70
     1
102
RTVSPropertyOp16
 70
     1
102
RTVSPropertyOp17
 70
     1
102
RTVSPropertyOp18
 70
     1
102
RTVSPropertyOp19
 70
     1
102
RTVSPropertyOp20
 70
     1
102
RTVSPropertyOp21
 70
     1
102
RTVSPropertyOp22
 70
     1
102
RTVSPropertyOp23
 70
     1
102
RTVSPropertyOp24
 70
     1
102
RTVSPropertyOp25
 70
     1
102
RTVSPropertyOp26
 70
     1
102
RTVSPropertyOp27
 70
     1
102
RTVSPropertyOp28
 70
     1
102
RTVSPropertyOp29
 70
     1
102
RTVSPropertyOp30
 70
     1
102
RTVSPropertyOp31
 70
     1
102
RTVSPropertyOp32
 70
     1
102
RTVSPropertyOp33
 70
     1
102
RTVSPropertyOp34
 70
     1
102
RTVSPropertyOp35
 70
     1
102
RTVSPropertyOp36
 70
     1
102
RTVSPropertyOp37
 70
     1
102
RTVSPropertyOp38
 70
     1
102
RTVSPropertyOp39
 70
     1
102
RTVSPropertyOp40
 70
     1
102
RTVSPropertyOp41
 70
     1
102
RTVSPropertyOp42
 70
     1
102
RTVSPropertyOp43
 70
     1
102
RTVSPropertyOp44
 70
     1
102
RTVSPropertyOp45
 70
     1
102
RTVSPropertyOp46
 70
     1
102
RTVSPropertyOp47
 70
     1
102
RTVSPropertyOp48
 70
     1
102
RTVSPropertyOp49
 70
     1
102
RTVSPropertyOp50
 70
     1
102
RTVSPropertyOp51
 70
     0
102
RTVSPropertyOp52
 70
     0
102
RTVSPropertyOp53
 70
     1
102
RTVSPropertyOp54
 70
     1
102
RTVSPropertyOp55
 70
     1
102
RTVSPropertyOp56
 70
     1
102
RTVSPropertyOp57
 70
     1
102
RTVSPropertyOp58
 70
     1
102
RTVSPropertyOp59
 70
     1
102
RTVSPropertyOp60
 70
     1
102
RTVSPropertyOp61
 70
     1
102
RTVSPropertyOp62
 70
     1
  0
XRECORD
  5
164F2
102
{ACAD_REACTORS
330
164F1
102
}
330
164F1
100
AcDbXrecord
280
     1
102
RTVSPost2010Prop28
280
     0
102
RTVSPost2010PropOp28
 70
     1
102
RTVSPost2010Prop29
280
     1
102
RTVSPost2010PropOp29
 70
     1
102
RTVSPost2010Prop30
280
     1
102
RTVSPost2010PropOp30
 70
     1
102
RTVSPost2010Prop31
280
     0
102
RTVSPost2010PropOp31
 70
     1
102
RTVSPost2010Prop32
280
     0
102
RTVSPost2010PropOp32
 70
     1
102
RTVSPost2010Prop33
280
     0
102
RTVSPost2010PropOp33
 70
     1
102
RTVSPost2010Prop34
280
     0
102
RTVSPost2010PropOp34
 70
     1
102
RTVSPost2010Prop35
280
     0
102
RTVSPost2010PropOp35
 70
     1
102
RTVSPost2010Prop36
280
     0
102
RTVSPost2010PropOp36
 70
     1
102
RTVSPost2010Prop37
 90
       50
102
RTVSPost2010PropOp37
 70
     1
102
RTVSPost2010Prop38
140
0.0
102
RTVSPost2010PropOp38
 70
     1
102
RTVSPost2010Prop39
140
1.0
102
RTVSPost2010PropOp39
 70
     1
102
RTVSPost2010Prop40
 90
        0
102
RTVSPost2010PropOp40
 70
     1
102
RTVSPost2010Prop41ColorIndex
 90
       18
102
RTVSPost2010Prop41ColorRGB
 90
        0
102
RTVSPost2010PropOp41
 70
     1
102
RTVSPost2010Prop42
 90
       50
102
RTVSPost2010PropOp42
 70
     1
102
RTVSPost2010Prop43
 90
        3
102
RTVSPost2010PropOp43
 70
     1
102
RTVSPost2010Prop44ColorIndex
 90
        5
102
RTVSPost2010Prop44ColorRGB
 90
      255
102
RTVSPost2010PropOp44
 70
     1
102
RTVSPost2010Prop45
280
     0
102
RTVSPost2010PropOp45
 70
     1
102
RTVSPost2010Prop46
 90
       50
102
RTVSPost2010PropOp46
 70
     1
102
RTVSPost2010Prop47
 90
       50
102
RTVSPost2010PropOp47
 70
     1
102
RTVSPost2010Prop48
 90
       50
102
RTVSPost2010PropOp48
 70
     1
102
RTVSPost2010Prop49
280
     0
102
RTVSPost2010PropOp49
 70
     1
102
RTVSPost2010Prop50
 90
       50
102
RTVSPost2010PropOp50
 70
     1
102
RTVSPost2010Prop51ColorIndex
 90
      256
102
RTVSPost2010Prop51ColorRGB
 90
-16777216
102
RTVSPost2010PropOp51
 70
     0
102
RTVSPost2010Prop52
140
1.0
102
RTVSPost2010PropOp52
 70
     0
102
RTVSPost2010Prop53
 90
        2
102
RTVSPost2010PropOp53
 70
     1
102
RTVSPost2010Prop54
  1
strokes_ogs.tif
102
RTVSPost2010PropOp54
 70
     1
102
RTVSPost2010Prop55
280
     0
102
RTVSPost2010PropOp55
 70
     1
102
RTVSPost2010Prop56
140
1.0
102
RTVSPost2010PropOp56
 70
     1
102
RTVSPost2010Prop57
140
1.0
102
RTVSPost2010PropOp57
 70
     1
102
RTVSPropertyOp0
 70
     1
102
RTVSPropertyOp1
 70
     1
102
RTVSPropertyOp2
 70
     1
102
RTVSPropertyOp3
 70
     1
102
RTVSPropertyOp4
 70
     1
102
RTVSPropertyOp5
 70
     1
102
RTVSPropertyOp6
 70
     1
102
RTVSPropertyOp7
 70
     1
102
RTVSPropertyOp8
 70
     1
102
RTVSPropertyOp9
 70
     1
102
RTVSPropertyOp10
 70
     1
102
RTVSPropertyOp11
 70
     1
102
RTVSPropertyOp12
 70
     1
102
RTVSPropertyOp13
 70
     1
102
RTVSPropertyOp14
 70
     1
102
RTVSPropertyOp15
 70
     1
102
RTVSPropertyOp16
 70
     1
102
RTVSPropertyOp17
 70
     1
102
RTVSPropertyOp18
 70
     1
102
RTVSPropertyOp19
 70
     1
102
RTVSPropertyOp20
 70
     1
102
RTVSPropertyOp21
 70
     1
102
RTVSPropertyOp22
 70
     1
102
RTVSPropertyOp23
 70
     1
102
RTVSPropertyOp24
 70
     1
102
RTVSPropertyOp25
 70
     1
102
RTVSPropertyOp26
 70
     1
102
RTVSPropertyOp27
 70
     1
102
RTVSPropertyOp28
 70
     1
102
RTVSPropertyOp29
 70
     1
102
RTVSPropertyOp30
 70
     1
102
RTVSPropertyOp31
 70
     1
102
RTVSPropertyOp32
 70
     1
102
RTVSPropertyOp33
 70
     1
102
RTVSPropertyOp34
 70
     1
102
RTVSPropertyOp35
 70
     1
102
RTVSPropertyOp36
 70
     1
102
RTVSPropertyOp37
 70
     1
102
RTVSPropertyOp38
 70
     1
102
RTVSPropertyOp39
 70
     1
102
RTVSPropertyOp40
 70
     1
102
RTVSPropertyOp41
 70
     1
102
RTVSPropertyOp42
 70
     1
102
RTVSPropertyOp43
 70
     1
102
RTVSPropertyOp44
 70
     1
102
RTVSPropertyOp45
 70
     1
102
RTVSPropertyOp46
 70
     1
102
RTVSPropertyOp47
 70
     1
102
RTVSPropertyOp48
 70
     1
102
RTVSPropertyOp49
 70
     1
102
RTVSPropertyOp50
 70
     1
102
RTVSPropertyOp51
 70
     0
102
RTVSPropertyOp52
 70
     0
102
RTVSPropertyOp53
 70
     1
102
RTVSPropertyOp54
 70
     1
102
RTVSPropertyOp55
 70
     1
102
RTVSPropertyOp56
 70
     1
102
RTVSPropertyOp57
 70
     1
102
RTVSPropertyOp58
 70
     1
102
RTVSPropertyOp59
 70
     1
102
RTVSPropertyOp60
 70
     1
102
RTVSPropertyOp61
 70
     1
102
RTVSPropertyOp62
 70
     1
  0
XRECORD
  5
164F4
102
{ACAD_REACTORS
330
164F3
102
}
330
164F3
100
AcDbXrecord
280
     1
102
RTVSPost2010Prop28
280
     0
102
RTVSPost2010PropOp28
 70
     1
102
RTVSPost2010Prop29
280
     1
102
RTVSPost2010PropOp29
 70
     1
102
RTVSPost2010Prop30
280
     1
102
RTVSPost2010PropOp30
 70
     1
102
RTVSPost2010Prop31
280
     0
102
RTVSPost2010PropOp31
 70
     1
102
RTVSPost2010Prop32
280
     0
102
RTVSPost2010PropOp32
 70
     1
102
RTVSPost2010Prop33
280
     0
102
RTVSPost2010PropOp33
 70
     1
102
RTVSPost2010Prop34
280
     0
102
RTVSPost2010PropOp34
 70
     1
102
RTVSPost2010Prop35
280
     0
102
RTVSPost2010PropOp35
 70
     1
102
RTVSPost2010Prop36
280
     0
102
RTVSPost2010PropOp36
 70
     1
102
RTVSPost2010Prop37
 90
       50
102
RTVSPost2010PropOp37
 70
     1
102
RTVSPost2010Prop38
140
0.0
102
RTVSPost2010PropOp38
 70
     1
102
RTVSPost2010Prop39
140
1.0
102
RTVSPost2010PropOp39
 70
     1
102
RTVSPost2010Prop40
 90
        0
102
RTVSPost2010PropOp40
 70
     1
102
RTVSPost2010Prop41ColorIndex
 90
       18
102
RTVSPost2010Prop41ColorRGB
 90
        0
102
RTVSPost2010PropOp41
 70
     1
102
RTVSPost2010Prop42
 90
       50
102
RTVSPost2010PropOp42
 70
     1
102
RTVSPost2010Prop43
 90
        3
102
RTVSPost2010PropOp43
 70
     1
102
RTVSPost2010Prop44ColorIndex
 90
        5
102
RTVSPost2010Prop44ColorRGB
 90
      255
102
RTVSPost2010PropOp44
 70
     1
102
RTVSPost2010Prop45
280
     0
102
RTVSPost2010PropOp45
 70
     1
102
RTVSPost2010Prop46
 90
       50
102
RTVSPost2010PropOp46
 70
     1
102
RTVSPost2010Prop47
 90
       50
102
RTVSPost2010PropOp47
 70
     1
102
RTVSPost2010Prop48
 90
       50
102
RTVSPost2010PropOp48
 70
     1
102
RTVSPost2010Prop49
280
     0
102
RTVSPost2010PropOp49
 70
     1
102
RTVSPost2010Prop50
 90
       50
102
RTVSPost2010PropOp50
 70
     1
102
RTVSPost2010Prop51ColorIndex
 90
      256
102
RTVSPost2010Prop51ColorRGB
 90
-16777216
102
RTVSPost2010PropOp51
 70
     0
102
RTVSPost2010Prop52
140
1.0
102
RTVSPost2010PropOp52
 70
     0
102
RTVSPost2010Prop53
 90
        2
102
RTVSPost2010PropOp53
 70
     1
102
RTVSPost2010Prop54
  1
strokes_ogs.tif
102
RTVSPost2010PropOp54
 70
     1
102
RTVSPost2010Prop55
280
     0
102
RTVSPost2010PropOp55
 70
     1
102
RTVSPost2010Prop56
140
1.0
102
RTVSPost2010PropOp56
 70
     1
102
RTVSPost2010Prop57
140
1.0
102
RTVSPost2010PropOp57
 70
     1
102
RTVSPropertyOp0
 70
     1
102
RTVSPropertyOp1
 70
     1
102
RTVSPropertyOp2
 70
     1
102
RTVSPropertyOp3
 70
     1
102
RTVSPropertyOp4
 70
     1
102
RTVSPropertyOp5
 70
     1
102
RTVSPropertyOp6
 70
     1
102
RTVSPropertyOp7
 70
     1
102
RTVSPropertyOp8
 70
     1
102
RTVSPropertyOp9
 70
     1
102
RTVSPropertyOp10
 70
     1
102
RTVSPropertyOp11
 70
     1
102
RTVSPropertyOp12
 70
     1
102
RTVSPropertyOp13
 70
     1
102
RTVSPropertyOp14
 70
     1
102
RTVSPropertyOp15
 70
     1
102
RTVSPropertyOp16
 70
     1
102
RTVSPropertyOp17
 70
     1
102
RTVSPropertyOp18
 70
     1
102
RTVSPropertyOp19
 70
     1
102
RTVSPropertyOp20
 70
     1
102
RTVSPropertyOp21
 70
     1
102
RTVSPropertyOp22
 70
     1
102
RTVSPropertyOp23
 70
     1
102
RTVSPropertyOp24
 70
     1
102
RTVSPropertyOp25
 70
     1
102
RTVSPropertyOp26
 70
     1
102
RTVSPropertyOp27
 70
     1
102
RTVSPropertyOp28
 70
     1
102
RTVSPropertyOp29
 70
     1
102
RTVSPropertyOp30
 70
     1
102
RTVSPropertyOp31
 70
     1
102
RTVSPropertyOp32
 70
     1
102
RTVSPropertyOp33
 70
     1
102
RTVSPropertyOp34
 70
     1
102
RTVSPropertyOp35
 70
     1
102
RTVSPropertyOp36
 70
     1
102
RTVSPropertyOp37
 70
     1
102
RTVSPropertyOp38
 70
     1
102
RTVSPropertyOp39
 70
     1
102
RTVSPropertyOp40
 70
     1
102
RTVSPropertyOp41
 70
     1
102
RTVSPropertyOp42
 70
     1
102
RTVSPropertyOp43
 70
     1
102
RTVSPropertyOp44
 70
     1
102
RTVSPropertyOp45
 70
     1
102
RTVSPropertyOp46
 70
     1
102
RTVSPropertyOp47
 70
     1
102
RTVSPropertyOp48
 70
     1
102
RTVSPropertyOp49
 70
     1
102
RTVSPropertyOp50
 70
     1
102
RTVSPropertyOp51
 70
     0
102
RTVSPropertyOp52
 70
     0
102
RTVSPropertyOp53
 70
     1
102
RTVSPropertyOp54
 70
     1
102
RTVSPropertyOp55
 70
     1
102
RTVSPropertyOp56
 70
     1
102
RTVSPropertyOp57
 70
     1
102
RTVSPropertyOp58
 70
     1
102
RTVSPropertyOp59
 70
     1
102
RTVSPropertyOp60
 70
     1
102
RTVSPropertyOp61
 70
     1
102
RTVSPropertyOp62
 70
     1
  0
XRECORD
  5
164F6
102
{ACAD_REACTORS
330
164F5
102
}
330
164F5
100
AcDbXrecord
280
     1
102
RTVSPost2010Prop28
280
     0
102
RTVSPost2010PropOp28
 70
     1
102
RTVSPost2010Prop29
280
     1
102
RTVSPost2010PropOp29
 70
     1
102
RTVSPost2010Prop30
280
     1
102
RTVSPost2010PropOp30
 70
     1
102
RTVSPost2010Prop31
280
     0
102
RTVSPost2010PropOp31
 70
     1
102
RTVSPost2010Prop32
280
     0
102
RTVSPost2010PropOp32
 70
     1
102
RTVSPost2010Prop33
280
     0
102
RTVSPost2010PropOp33
 70
     1
102
RTVSPost2010Prop34
280
     0
102
RTVSPost2010PropOp34
 70
     1
102
RTVSPost2010Prop35
280
     0
102
RTVSPost2010PropOp35
 70
     1
102
RTVSPost2010Prop36
280
     0
102
RTVSPost2010PropOp36
 70
     1
102
RTVSPost2010Prop37
 90
       50
102
RTVSPost2010PropOp37
 70
     1
102
RTVSPost2010Prop38
140
0.0
102
RTVSPost2010PropOp38
 70
     1
102
RTVSPost2010Prop39
140
1.0
102
RTVSPost2010PropOp39
 70
     1
102
RTVSPost2010Prop40
 90
        0
102
RTVSPost2010PropOp40
 70
     1
102
RTVSPost2010Prop41ColorIndex
 90
       18
102
RTVSPost2010Prop41ColorRGB
 90
        0
102
RTVSPost2010PropOp41
 70
     1
102
RTVSPost2010Prop42
 90
       50
102
RTVSPost2010PropOp42
 70
     1
102
RTVSPost2010Prop43
 90
        3
102
RTVSPost2010PropOp43
 70
     1
102
RTVSPost2010Prop44ColorIndex
 90
        5
102
RTVSPost2010Prop44ColorRGB
 90
      255
102
RTVSPost2010PropOp44
 70
     1
102
RTVSPost2010Prop45
280
     0
102
RTVSPost2010PropOp45
 70
     1
102
RTVSPost2010Prop46
 90
       50
102
RTVSPost2010PropOp46
 70
     1
102
RTVSPost2010Prop47
 90
       50
102
RTVSPost2010PropOp47
 70
     1
102
RTVSPost2010Prop48
 90
       50
102
RTVSPost2010PropOp48
 70
     1
102
RTVSPost2010Prop49
280
     0
102
RTVSPost2010PropOp49
 70
     1
102
RTVSPost2010Prop50
 90
       50
102
RTVSPost2010PropOp50
 70
     1
102
RTVSPost2010Prop51ColorIndex
 90
      256
102
RTVSPost2010Prop51ColorRGB
 90
-16777216
102
RTVSPost2010PropOp51
 70
     0
102
RTVSPost2010Prop52
140
1.0
102
RTVSPost2010PropOp52
 70
     0
102
RTVSPost2010Prop53
 90
        2
102
RTVSPost2010PropOp53
 70
     1
102
RTVSPost2010Prop54
  1
strokes_ogs.tif
102
RTVSPost2010PropOp54
 70
     1
102
RTVSPost2010Prop55
280
     0
102
RTVSPost2010PropOp55
 70
     1
102
RTVSPost2010Prop56
140
1.0
102
RTVSPost2010PropOp56
 70
     1
102
RTVSPost2010Prop57
140
1.0
102
RTVSPost2010PropOp57
 70
     1
102
RTVSPropertyOp0
 70
     1
102
RTVSPropertyOp1
 70
     1
102
RTVSPropertyOp2
 70
     1
102
RTVSPropertyOp3
 70
     1
102
RTVSPropertyOp4
 70
     1
102
RTVSPropertyOp5
 70
     1
102
RTVSPropertyOp6
 70
     1
102
RTVSPropertyOp7
 70
     1
102
RTVSPropertyOp8
 70
     1
102
RTVSPropertyOp9
 70
     1
102
RTVSPropertyOp10
 70
     1
102
RTVSPropertyOp11
 70
     1
102
RTVSPropertyOp12
 70
     1
102
RTVSPropertyOp13
 70
     1
102
RTVSPropertyOp14
 70
     1
102
RTVSPropertyOp15
 70
     1
102
RTVSPropertyOp16
 70
     1
102
RTVSPropertyOp17
 70
     1
102
RTVSPropertyOp18
 70
     1
102
RTVSPropertyOp19
 70
     1
102
RTVSPropertyOp20
 70
     1
102
RTVSPropertyOp21
 70
     1
102
RTVSPropertyOp22
 70
     1
102
RTVSPropertyOp23
 70
     1
102
RTVSPropertyOp24
 70
     1
102
RTVSPropertyOp25
 70
     1
102
RTVSPropertyOp26
 70
     1
102
RTVSPropertyOp27
 70
     1
102
RTVSPropertyOp28
 70
     1
102
RTVSPropertyOp29
 70
     1
102
RTVSPropertyOp30
 70
     1
102
RTVSPropertyOp31
 70
     1
102
RTVSPropertyOp32
 70
     1
102
RTVSPropertyOp33
 70
     1
102
RTVSPropertyOp34
 70
     1
102
RTVSPropertyOp35
 70
     1
102
RTVSPropertyOp36
 70
     1
102
RTVSPropertyOp37
 70
     1
102
RTVSPropertyOp38
 70
     1
102
RTVSPropertyOp39
 70
     1
102
RTVSPropertyOp40
 70
     1
102
RTVSPropertyOp41
 70
     1
102
RTVSPropertyOp42
 70
     1
102
RTVSPropertyOp43
 70
     1
102
RTVSPropertyOp44
 70
     1
102
RTVSPropertyOp45
 70
     1
102
RTVSPropertyOp46
 70
     1
102
RTVSPropertyOp47
 70
     1
102
RTVSPropertyOp48
 70
     1
102
RTVSPropertyOp49
 70
     1
102
RTVSPropertyOp50
 70
     1
102
RTVSPropertyOp51
 70
     0
102
RTVSPropertyOp52
 70
     0
102
RTVSPropertyOp53
 70
     1
102
RTVSPropertyOp54
 70
     1
102
RTVSPropertyOp55
 70
     1
102
RTVSPropertyOp56
 70
     1
102
RTVSPropertyOp57
 70
     1
102
RTVSPropertyOp58
 70
     1
102
RTVSPropertyOp59
 70
     1
102
RTVSPropertyOp60
 70
     1
102
RTVSPropertyOp61
 70
     1
102
RTVSPropertyOp62
 70
     1
  0
XRECORD
  5
164FE
102
{ACAD_REACTORS
330
164FD
102
}
330
164FD
100
AcDbXrecord
280
     1
102
RTVSPost2010Prop28
280
     0
102
RTVSPost2010PropOp28
 70
     1
102
RTVSPost2010Prop29
280
     1
102
RTVSPost2010PropOp29
 70
     1
102
RTVSPost2010Prop30
280
     1
102
RTVSPost2010PropOp30
 70
     1
102
RTVSPost2010Prop31
280
     0
102
RTVSPost2010PropOp31
 70
     1
102
RTVSPost2010Prop32
280
     0
102
RTVSPost2010PropOp32
 70
     1
102
RTVSPost2010Prop33
280
     0
102
RTVSPost2010PropOp33
 70
     1
102
RTVSPost2010Prop34
280
     0
102
RTVSPost2010PropOp34
 70
     1
102
RTVSPost2010Prop35
280
     0
102
RTVSPost2010PropOp35
 70
     1
102
RTVSPost2010Prop36
280
     0
102
RTVSPost2010PropOp36
 70
     1
102
RTVSPost2010Prop37
 90
       50
102
RTVSPost2010PropOp37
 70
     1
102
RTVSPost2010Prop38
140
0.0
102
RTVSPost2010PropOp38
 70
     1
102
RTVSPost2010Prop39
140
1.0
102
RTVSPost2010PropOp39
 70
     1
102
RTVSPost2010Prop40
 90
        0
102
RTVSPost2010PropOp40
 70
     1
102
RTVSPost2010Prop41ColorIndex
 90
       18
102
RTVSPost2010Prop41ColorRGB
 90
        0
102
RTVSPost2010PropOp41
 70
     1
102
RTVSPost2010Prop42
 90
       50
102
RTVSPost2010PropOp42
 70
     1
102
RTVSPost2010Prop43
 90
        3
102
RTVSPost2010PropOp43
 70
     1
102
RTVSPost2010Prop44ColorIndex
 90
        5
102
RTVSPost2010Prop44ColorRGB
 90
      255
102
RTVSPost2010PropOp44
 70
     1
102
RTVSPost2010Prop45
280
     0
102
RTVSPost2010PropOp45
 70
     1
102
RTVSPost2010Prop46
 90
       50
102
RTVSPost2010PropOp46
 70
     1
102
RTVSPost2010Prop47
 90
       50
102
RTVSPost2010PropOp47
 70
     1
102
RTVSPost2010Prop48
 90
       50
102
RTVSPost2010PropOp48
 70
     1
102
RTVSPost2010Prop49
280
     0
102
RTVSPost2010PropOp49
 70
     1
102
RTVSPost2010Prop50
 90
       50
102
RTVSPost2010PropOp50
 70
     1
102
RTVSPost2010Prop51ColorIndex
 90
      256
102
RTVSPost2010Prop51ColorRGB
 90
-16777216
102
RTVSPost2010PropOp51
 70
     0
102
RTVSPost2010Prop52
140
1.0
102
RTVSPost2010PropOp52
 70
     0
102
RTVSPost2010Prop53
 90
        2
102
RTVSPost2010PropOp53
 70
     1
102
RTVSPost2010Prop54
  1
strokes_ogs.tif
102
RTVSPost2010PropOp54
 70
     1
102
RTVSPost2010Prop55
280
     0
102
RTVSPost2010PropOp55
 70
     1
102
RTVSPost2010Prop56
140
1.0
102
RTVSPost2010PropOp56
 70
     1
102
RTVSPost2010Prop57
140
1.0
102
RTVSPost2010PropOp57
 70
     1
102
RTVSPropertyOp0
 70
     1
102
RTVSPropertyOp1
 70
     1
102
RTVSPropertyOp2
 70
     1
102
RTVSPropertyOp3
 70
     1
102
RTVSPropertyOp4
 70
     1
102
RTVSPropertyOp5
 70
     1
102
RTVSPropertyOp6
 70
     1
102
RTVSPropertyOp7
 70
     1
102
RTVSPropertyOp8
 70
     1
102
RTVSPropertyOp9
 70
     1
102
RTVSPropertyOp10
 70
     1
102
RTVSPropertyOp11
 70
     1
102
RTVSPropertyOp12
 70
     1
102
RTVSPropertyOp13
 70
     1
102
RTVSPropertyOp14
 70
     1
102
RTVSPropertyOp15
 70
     1
102
RTVSPropertyOp16
 70
     1
102
RTVSPropertyOp17
 70
     1
102
RTVSPropertyOp18
 70
     1
102
RTVSPropertyOp19
 70
     1
102
RTVSPropertyOp20
 70
     1
102
RTVSPropertyOp21
 70
     1
102
RTVSPropertyOp22
 70
     1
102
RTVSPropertyOp23
 70
     1
102
RTVSPropertyOp24
 70
     1
102
RTVSPropertyOp25
 70
     1
102
RTVSPropertyOp26
 70
     1
102
RTVSPropertyOp27
 70
     1
102
RTVSPropertyOp28
 70
     1
102
RTVSPropertyOp29
 70
     1
102
RTVSPropertyOp30
 70
     1
102
RTVSPropertyOp31
 70
     1
102
RTVSPropertyOp32
 70
     1
102
RTVSPropertyOp33
 70
     1
102
RTVSPropertyOp34
 70
     1
102
RTVSPropertyOp35
 70
     1
102
RTVSPropertyOp36
 70
     1
102
RTVSPropertyOp37
 70
     1
102
RTVSPropertyOp38
 70
     1
102
RTVSPropertyOp39
 70
     1
102
RTVSPropertyOp40
 70
     1
102
RTVSPropertyOp41
 70
     1
102
RTVSPropertyOp42
 70
     1
102
RTVSPropertyOp43
 70
     1
102
RTVSPropertyOp44
 70
     1
102
RTVSPropertyOp45
 70
     1
102
RTVSPropertyOp46
 70
     1
102
RTVSPropertyOp47
 70
     1
102
RTVSPropertyOp48
 70
     1
102
RTVSPropertyOp49
 70
     1
102
RTVSPropertyOp50
 70
     1
102
RTVSPropertyOp51
 70
     0
102
RTVSPropertyOp52
 70
     0
102
RTVSPropertyOp53
 70
     1
102
RTVSPropertyOp54
 70
     1
102
RTVSPropertyOp55
 70
     1
102
RTVSPropertyOp56
 70
     1
102
RTVSPropertyOp57
 70
     1
102
RTVSPropertyOp58
 70
     1
102
RTVSPropertyOp59
 70
     1
102
RTVSPropertyOp60
 70
     1
102
RTVSPropertyOp61
 70
     1
102
RTVSPropertyOp62
 70
     1
  0
XRECORD
  5
1651A
102
{ACAD_REACTORS
330
16519
102
}
330
16519
100
AcDbXrecord
280
     1
102
RTVSPost2010Prop28
280
     0
102
RTVSPost2010PropOp28
 70
     0
102
RTVSPost2010Prop29
280
     1
102
RTVSPost2010PropOp29
 70
     0
102
RTVSPost2010Prop30
280
     1
102
RTVSPost2010PropOp30
 70
     0
102
RTVSPost2010Prop31
280
     0
102
RTVSPost2010PropOp31
 70
     0
102
RTVSPost2010Prop32
280
     0
102
RTVSPost2010PropOp32
 70
     0
102
RTVSPost2010Prop33
280
     0
102
RTVSPost2010PropOp33
 70
     0
102
RTVSPost2010Prop34
280
     0
102
RTVSPost2010PropOp34
 70
     0
102
RTVSPost2010Prop35
280
     0
102
RTVSPost2010PropOp35
 70
     0
102
RTVSPost2010Prop36
280
     0
102
RTVSPost2010PropOp36
 70
     0
102
RTVSPost2010Prop37
 90
       50
102
RTVSPost2010PropOp37
 70
     0
102
RTVSPost2010Prop38
140
0.0
102
RTVSPost2010PropOp38
 70
     0
102
RTVSPost2010Prop39
140
1.0
102
RTVSPost2010PropOp39
 70
     0
102
RTVSPost2010Prop40
 90
        0
102
RTVSPost2010PropOp40
 70
     0
102
RTVSPost2010Prop41ColorIndex
 90
       18
102
RTVSPost2010Prop41ColorRGB
 90
        0
102
RTVSPost2010PropOp41
 70
     0
102
RTVSPost2010Prop42
 90
       50
102
RTVSPost2010PropOp42
 70
     0
102
RTVSPost2010Prop43
 90
        3
102
RTVSPost2010PropOp43
 70
     0
102
RTVSPost2010Prop44ColorIndex
 90
        5
102
RTVSPost2010Prop44ColorRGB
 90
      255
102
RTVSPost2010PropOp44
 70
     0
102
RTVSPost2010Prop45
280
     0
102
RTVSPost2010PropOp45
 70
     0
102
RTVSPost2010Prop46
 90
       50
102
RTVSPost2010PropOp46
 70
     0
102
RTVSPost2010Prop47
 90
       50
102
RTVSPost2010PropOp47
 70
     0
102
RTVSPost2010Prop48
 90
       50
102
RTVSPost2010PropOp48
 70
     0
102
RTVSPost2010Prop49
280
     0
102
RTVSPost2010PropOp49
 70
     0
102
RTVSPost2010Prop50
 90
       50
102
RTVSPost2010PropOp50
 70
     0
102
RTVSPost2010Prop51ColorIndex
 90
      256
102
RTVSPost2010Prop51ColorRGB
 90
-16777216
102
RTVSPost2010PropOp51
 70
     0
102
RTVSPost2010Prop52
140
1.0
102
RTVSPost2010PropOp52
 70
     0
102
RTVSPost2010Prop53
 90
        2
102
RTVSPost2010PropOp53
 70
     0
102
RTVSPost2010Prop54
  1
strokes_ogs.tif
102
RTVSPost2010PropOp54
 70
     0
102
RTVSPost2010Prop55
280
     0
102
RTVSPost2010PropOp55
 70
     0
102
RTVSPost2010Prop56
140
1.0
102
RTVSPost2010PropOp56
 70
     0
102
RTVSPost2010Prop57
140
1.0
102
RTVSPost2010PropOp57
 70
     0
102
RTVSPropertyOp0
 70
     0
102
RTVSPropertyOp1
 70
     0
102
RTVSPropertyOp2
 70
     0
102
RTVSPropertyOp3
 70
     0
102
RTVSPropertyOp4
 70
     0
102
RTVSPropertyOp5
 70
     0
102
RTVSPropertyOp6
 70
     0
102
RTVSPropertyOp7
 70
     0
102
RTVSPropertyOp8
 70
     0
102
RTVSPropertyOp9
 70
     0
102
RTVSPropertyOp10
 70
     0
102
RTVSPropertyOp11
 70
     0
102
RTVSPropertyOp12
 70
     0
102
RTVSPropertyOp13
 70
     0
102
RTVSPropertyOp14
 70
     2
102
RTVSPropertyOp15
 70
     0
102
RTVSPropertyOp16
 70
     0
102
RTVSPropertyOp17
 70
     0
102
RTVSPropertyOp18
 70
     0
102
RTVSPropertyOp19
 70
     0
102
RTVSPropertyOp20
 70
     0
102
RTVSPropertyOp21
 70
     0
102
RTVSPropertyOp22
 70
     0
102
RTVSPropertyOp23
 70
     0
102
RTVSPropertyOp24
 70
     0
102
RTVSPropertyOp25
 70
     0
102
RTVSPropertyOp26
 70
     0
102
RTVSPropertyOp27
 70
     0
102
RTVSPropertyOp28
 70
     0
102
RTVSPropertyOp29
 70
     0
102
RTVSPropertyOp30
 70
     0
102
RTVSPropertyOp31
 70
     0
102
RTVSPropertyOp32
 70
     0
102
RTVSPropertyOp33
 70
     0
102
RTVSPropertyOp34
 70
     0
102
RTVSPropertyOp35
 70
     0
102
RTVSPropertyOp36
 70
     0
102
RTVSPropertyOp37
 70
     0
102
RTVSPropertyOp38
 70
     0
102
RTVSPropertyOp39
 70
     0
102
RTVSPropertyOp40
 70
     0
102
RTVSPropertyOp41
 70
     0
102
RTVSPropertyOp42
 70
     0
102
RTVSPropertyOp43
 70
     0
102
RTVSPropertyOp44
 70
     0
102
RTVSPropertyOp45
 70
     0
102
RTVSPropertyOp46
 70
     0
102
RTVSPropertyOp47
 70
     0
102
RTVSPropertyOp48
 70
     0
102
RTVSPropertyOp49
 70
     0
102
RTVSPropertyOp50
 70
     0
102
RTVSPropertyOp51
 70
     0
102
RTVSPropertyOp52
 70
     0
102
RTVSPropertyOp53
 70
     0
102
RTVSPropertyOp54
 70
     0
102
RTVSPropertyOp55
 70
     0
102
RTVSPropertyOp56
 70
     0
102
RTVSPropertyOp57
 70
     0
102
RTVSPropertyOp58
 70
     1
102
RTVSPropertyOp59
 70
     1
102
RTVSPropertyOp60
 70
     1
102
RTVSPropertyOp61
 70
     1
102
RTVSPropertyOp62
 70
     1
  0
XRECORD
  5
1650A
102
{ACAD_REACTORS
330
16509
102
}
330
16509
100
AcDbXrecord
280
     1
102
RTVSPost2010Prop28
280
     0
102
RTVSPost2010PropOp28
 70
     1
102
RTVSPost2010Prop29
280
     1
102
RTVSPost2010PropOp29
 70
     1
102
RTVSPost2010Prop30
280
     1
102
RTVSPost2010PropOp30
 70
     1
102
RTVSPost2010Prop31
280
     0
102
RTVSPost2010PropOp31
 70
     1
102
RTVSPost2010Prop32
280
     0
102
RTVSPost2010PropOp32
 70
     1
102
RTVSPost2010Prop33
280
     0
102
RTVSPost2010PropOp33
 70
     1
102
RTVSPost2010Prop34
280
     0
102
RTVSPost2010PropOp34
 70
     1
102
RTVSPost2010Prop35
280
     0
102
RTVSPost2010PropOp35
 70
     1
102
RTVSPost2010Prop36
280
     0
102
RTVSPost2010PropOp36
 70
     1
102
RTVSPost2010Prop37
 90
       50
102
RTVSPost2010PropOp37
 70
     1
102
RTVSPost2010Prop38
140
0.0
102
RTVSPost2010PropOp38
 70
     1
102
RTVSPost2010Prop39
140
1.0
102
RTVSPost2010PropOp39
 70
     1
102
RTVSPost2010Prop40
 90
        0
102
RTVSPost2010PropOp40
 70
     1
102
RTVSPost2010Prop41ColorIndex
 90
       18
102
RTVSPost2010Prop41ColorRGB
 90
        0
102
RTVSPost2010PropOp41
 70
     1
102
RTVSPost2010Prop42
 90
       50
102
RTVSPost2010PropOp42
 70
     1
102
RTVSPost2010Prop43
 90
        3
102
RTVSPost2010PropOp43
 70
     1
102
RTVSPost2010Prop44ColorIndex
 90
        5
102
RTVSPost2010Prop44ColorRGB
 90
      255
102
RTVSPost2010PropOp44
 70
     1
102
RTVSPost2010Prop45
280
     0
102
RTVSPost2010PropOp45
 70
     1
102
RTVSPost2010Prop46
 90
       50
102
RTVSPost2010PropOp46
 70
     1
102
RTVSPost2010Prop47
 90
       50
102
RTVSPost2010PropOp47
 70
     1
102
RTVSPost2010Prop48
 90
       50
102
RTVSPost2010PropOp48
 70
     1
102
RTVSPost2010Prop49
280
     0
102
RTVSPost2010PropOp49
 70
     1
102
RTVSPost2010Prop50
 90
       50
102
RTVSPost2010PropOp50
 70
     1
102
RTVSPost2010Prop51ColorIndex
 90
      256
102
RTVSPost2010Prop51ColorRGB
 90
-16777216
102
RTVSPost2010PropOp51
 70
     0
102
RTVSPost2010Prop52
140
1.0
102
RTVSPost2010PropOp52
 70
     0
102
RTVSPost2010Prop53
 90
        2
102
RTVSPost2010PropOp53
 70
     1
102
RTVSPost2010Prop54
  1
strokes_ogs.tif
102
RTVSPost2010PropOp54
 70
     1
102
RTVSPost2010Prop55
280
     0
102
RTVSPost2010PropOp55
 70
     1
102
RTVSPost2010Prop56
140
1.0
102
RTVSPost2010PropOp56
 70
     1
102
RTVSPost2010Prop57
140
1.0
102
RTVSPost2010PropOp57
 70
     1
102
RTVSPropertyOp0
 70
     1
102
RTVSPropertyOp1
 70
     1
102
RTVSPropertyOp2
 70
     1
102
RTVSPropertyOp3
 70
     1
102
RTVSPropertyOp4
 70
     1
102
RTVSPropertyOp5
 70
     1
102
RTVSPropertyOp6
 70
     1
102
RTVSPropertyOp7
 70
     1
102
RTVSPropertyOp8
 70
     1
102
RTVSPropertyOp9
 70
     1
102
RTVSPropertyOp10
 70
     1
102
RTVSPropertyOp11
 70
     1
102
RTVSPropertyOp12
 70
     1
102
RTVSPropertyOp13
 70
     1
102
RTVSPropertyOp14
 70
     1
102
RTVSPropertyOp15
 70
     1
102
RTVSPropertyOp16
 70
     1
102
RTVSPropertyOp17
 70
     1
102
RTVSPropertyOp18
 70
     1
102
RTVSPropertyOp19
 70
     1
102
RTVSPropertyOp20
 70
     1
102
RTVSPropertyOp21
 70
     1
102
RTVSPropertyOp22
 70
     1
102
RTVSPropertyOp23
 70
     1
102
RTVSPropertyOp24
 70
     1
102
RTVSPropertyOp25
 70
     1
102
RTVSPropertyOp26
 70
     1
102
RTVSPropertyOp27
 70
     1
102
RTVSPropertyOp28
 70
     1
102
RTVSPropertyOp29
 70
     1
102
RTVSPropertyOp30
 70
     1
102
RTVSPropertyOp31
 70
     1
102
RTVSPropertyOp32
 70
     1
102
RTVSPropertyOp33
 70
     1
102
RTVSPropertyOp34
 70
     1
102
RTVSPropertyOp35
 70
     1
102
RTVSPropertyOp36
 70
     1
102
RTVSPropertyOp37
 70
     1
102
RTVSPropertyOp38
 70
     1
102
RTVSPropertyOp39
 70
     1
102
RTVSPropertyOp40
 70
     1
102
RTVSPropertyOp41
 70
     1
102
RTVSPropertyOp42
 70
     1
102
RTVSPropertyOp43
 70
     1
102
RTVSPropertyOp44
 70
     1
102
RTVSPropertyOp45
 70
     1
102
RTVSPropertyOp46
 70
     1
102
RTVSPropertyOp47
 70
     1
102
RTVSPropertyOp48
 70
     1
102
RTVSPropertyOp49
 70
     1
102
RTVSPropertyOp50
 70
     1
102
RTVSPropertyOp51
 70
     0
102
RTVSPropertyOp52
 70
     0
102
RTVSPropertyOp53
 70
     1
102
RTVSPropertyOp54
 70
     1
102
RTVSPropertyOp55
 70
     1
102
RTVSPropertyOp56
 70
     1
102
RTVSPropertyOp57
 70
     1
102
RTVSPropertyOp58
 70
     1
102
RTVSPropertyOp59
 70
     1
102
RTVSPropertyOp60
 70
     1
102
RTVSPropertyOp61
 70
     1
102
RTVSPropertyOp62
 70
     1
  0
XRECORD
  5
1651C
102
{ACAD_REACTORS
330
1651B
102
}
330
1651B
100
AcDbXrecord
280
     1
102
RTVSPost2010Prop28
280
     0
102
RTVSPost2010PropOp28
 70
     0
102
RTVSPost2010Prop29
280
     1
102
RTVSPost2010PropOp29
 70
     0
102
RTVSPost2010Prop30
280
     1
102
RTVSPost2010PropOp30
 70
     0
102
RTVSPost2010Prop31
280
     0
102
RTVSPost2010PropOp31
 70
     0
102
RTVSPost2010Prop32
280
     0
102
RTVSPost2010PropOp32
 70
     0
102
RTVSPost2010Prop33
280
     0
102
RTVSPost2010PropOp33
 70
     0
102
RTVSPost2010Prop34
280
     0
102
RTVSPost2010PropOp34
 70
     0
102
RTVSPost2010Prop35
280
     0
102
RTVSPost2010PropOp35
 70
     0
102
RTVSPost2010Prop36
280
     0
102
RTVSPost2010PropOp36
 70
     0
102
RTVSPost2010Prop37
 90
       50
102
RTVSPost2010PropOp37
 70
     0
102
RTVSPost2010Prop38
140
0.0
102
RTVSPost2010PropOp38
 70
     0
102
RTVSPost2010Prop39
140
1.0
102
RTVSPost2010PropOp39
 70
     0
102
RTVSPost2010Prop40
 90
        0
102
RTVSPost2010PropOp40
 70
     0
102
RTVSPost2010Prop41ColorIndex
 90
       18
102
RTVSPost2010Prop41ColorRGB
 90
        0
102
RTVSPost2010PropOp41
 70
     0
102
RTVSPost2010Prop42
 90
       50
102
RTVSPost2010PropOp42
 70
     0
102
RTVSPost2010Prop43
 90
        3
102
RTVSPost2010PropOp43
 70
     0
102
RTVSPost2010Prop44ColorIndex
 90
        5
102
RTVSPost2010Prop44ColorRGB
 90
      255
102
RTVSPost2010PropOp44
 70
     0
102
RTVSPost2010Prop45
280
     0
102
RTVSPost2010PropOp45
 70
     0
102
RTVSPost2010Prop46
 90
       50
102
RTVSPost2010PropOp46
 70
     0
102
RTVSPost2010Prop47
 90
       50
102
RTVSPost2010PropOp47
 70
     0
102
RTVSPost2010Prop48
 90
       50
102
RTVSPost2010PropOp48
 70
     0
102
RTVSPost2010Prop49
280
     0
102
RTVSPost2010PropOp49
 70
     0
102
RTVSPost2010Prop50
 90
       50
102
RTVSPost2010PropOp50
 70
     0
102
RTVSPost2010Prop51ColorIndex
 90
      256
102
RTVSPost2010Prop51ColorRGB
 90
-16777216
102
RTVSPost2010PropOp51
 70
     0
102
RTVSPost2010Prop52
140
1.0
102
RTVSPost2010PropOp52
 70
     0
102
RTVSPost2010Prop53
 90
        2
102
RTVSPost2010PropOp53
 70
     0
102
RTVSPost2010Prop54
  1
strokes_ogs.tif
102
RTVSPost2010PropOp54
 70
     0
102
RTVSPost2010Prop55
280
     0
102
RTVSPost2010PropOp55
 70
     0
102
RTVSPost2010Prop56
140
1.0
102
RTVSPost2010PropOp56
 70
     0
102
RTVSPost2010Prop57
140
1.0
102
RTVSPost2010PropOp57
 70
     0
102
RTVSPropertyOp0
 70
     0
102
RTVSPropertyOp1
 70
     0
102
RTVSPropertyOp2
 70
     0
102
RTVSPropertyOp3
 70
     0
102
RTVSPropertyOp4
 70
     0
102
RTVSPropertyOp5
 70
     0
102
RTVSPropertyOp6
 70
     0
102
RTVSPropertyOp7
 70
     0
102
RTVSPropertyOp8
 70
     0
102
RTVSPropertyOp9
 70
     0
102
RTVSPropertyOp10
 70
     0
102
RTVSPropertyOp11
 70
     0
102
RTVSPropertyOp12
 70
     0
102
RTVSPropertyOp13
 70
     0
102
RTVSPropertyOp14
 70
     2
102
RTVSPropertyOp15
 70
     0
102
RTVSPropertyOp16
 70
     0
102
RTVSPropertyOp17
 70
     0
102
RTVSPropertyOp18
 70
     0
102
RTVSPropertyOp19
 70
     0
102
RTVSPropertyOp20
 70
     0
102
RTVSPropertyOp21
 70
     0
102
RTVSPropertyOp22
 70
     0
102
RTVSPropertyOp23
 70
     0
102
RTVSPropertyOp24
 70
     0
102
RTVSPropertyOp25
 70
     0
102
RTVSPropertyOp26
 70
     0
102
RTVSPropertyOp27
 70
     0
102
RTVSPropertyOp28
 70
     0
102
RTVSPropertyOp29
 70
     0
102
RTVSPropertyOp30
 70
     0
102
RTVSPropertyOp31
 70
     0
102
RTVSPropertyOp32
 70
     0
102
RTVSPropertyOp33
 70
     0
102
RTVSPropertyOp34
 70
     0
102
RTVSPropertyOp35
 70
     0
102
RTVSPropertyOp36
 70
     0
102
RTVSPropertyOp37
 70
     0
102
RTVSPropertyOp38
 70
     0
102
RTVSPropertyOp39
 70
     0
102
RTVSPropertyOp40
 70
     0
102
RTVSPropertyOp41
 70
     0
102
RTVSPropertyOp42
 70
     0
102
RTVSPropertyOp43
 70
     0
102
RTVSPropertyOp44
 70
     0
102
RTVSPropertyOp45
 70
     0
102
RTVSPropertyOp46
 70
     0
102
RTVSPropertyOp47
 70
     0
102
RTVSPropertyOp48
 70
     0
102
RTVSPropertyOp49
 70
     0
102
RTVSPropertyOp50
 70
     0
102
RTVSPropertyOp51
 70
     0
102
RTVSPropertyOp52
 70
     0
102
RTVSPropertyOp53
 70
     0
102
RTVSPropertyOp54
 70
     0
102
RTVSPropertyOp55
 70
     0
102
RTVSPropertyOp56
 70
     0
102
RTVSPropertyOp57
 70
     0
102
RTVSPropertyOp58
 70
     1
102
RTVSPropertyOp59
 70
     1
102
RTVSPropertyOp60
 70
     1
102
RTVSPropertyOp61
 70
     1
102
RTVSPropertyOp62
 70
     1
  0
XRECORD
  5
16502
102
{ACAD_REACTORS
330
16501
102
}
330
16501
100
AcDbXrecord
280
     1
102
RTVSPost2010Prop28
280
     0
102
RTVSPost2010PropOp28
 70
     1
102
RTVSPost2010Prop29
280
     1
102
RTVSPost2010PropOp29
 70
     1
102
RTVSPost2010Prop30
280
     1
102
RTVSPost2010PropOp30
 70
     1
102
RTVSPost2010Prop31
280
     0
102
RTVSPost2010PropOp31
 70
     1
102
RTVSPost2010Prop32
280
     0
102
RTVSPost2010PropOp32
 70
     1
102
RTVSPost2010Prop33
280
     0
102
RTVSPost2010PropOp33
 70
     1
102
RTVSPost2010Prop34
280
     0
102
RTVSPost2010PropOp34
 70
     1
102
RTVSPost2010Prop35
280
     0
102
RTVSPost2010PropOp35
 70
     1
102
RTVSPost2010Prop36
280
     0
102
RTVSPost2010PropOp36
 70
     1
102
RTVSPost2010Prop37
 90
       50
102
RTVSPost2010PropOp37
 70
     1
102
RTVSPost2010Prop38
140
0.0
102
RTVSPost2010PropOp38
 70
     1
102
RTVSPost2010Prop39
140
1.0
102
RTVSPost2010PropOp39
 70
     1
102
RTVSPost2010Prop40
 90
        0
102
RTVSPost2010PropOp40
 70
     1
102
RTVSPost2010Prop41ColorIndex
 90
       18
102
RTVSPost2010Prop41ColorRGB
 90
        0
102
RTVSPost2010PropOp41
 70
     1
102
RTVSPost2010Prop42
 90
       50
102
RTVSPost2010PropOp42
 70
     1
102
RTVSPost2010Prop43
 90
        3
102
RTVSPost2010PropOp43
 70
     1
102
RTVSPost2010Prop44ColorIndex
 90
        5
102
RTVSPost2010Prop44ColorRGB
 90
      255
102
RTVSPost2010PropOp44
 70
     1
102
RTVSPost2010Prop45
280
     0
102
RTVSPost2010PropOp45
 70
     1
102
RTVSPost2010Prop46
 90
       50
102
RTVSPost2010PropOp46
 70
     1
102
RTVSPost2010Prop47
 90
       50
102
RTVSPost2010PropOp47
 70
     1
102
RTVSPost2010Prop48
 90
       50
102
RTVSPost2010PropOp48
 70
     1
102
RTVSPost2010Prop49
280
     0
102
RTVSPost2010PropOp49
 70
     1
102
RTVSPost2010Prop50
 90
       50
102
RTVSPost2010PropOp50
 70
     1
102
RTVSPost2010Prop51ColorIndex
 90
      256
102
RTVSPost2010Prop51ColorRGB
 90
-16777216
102
RTVSPost2010PropOp51
 70
     0
102
RTVSPost2010Prop52
140
1.0
102
RTVSPost2010PropOp52
 70
     0
102
RTVSPost2010Prop53
 90
        2
102
RTVSPost2010PropOp53
 70
     1
102
RTVSPost2010Prop54
  1
strokes_ogs.tif
102
RTVSPost2010PropOp54
 70
     1
102
RTVSPost2010Prop55
280
     0
102
RTVSPost2010PropOp55
 70
     1
102
RTVSPost2010Prop56
140
1.0
102
RTVSPost2010PropOp56
 70
     1
102
RTVSPost2010Prop57
140
1.0
102
RTVSPost2010PropOp57
 70
     1
102
RTVSPropertyOp0
 70
     1
102
RTVSPropertyOp1
 70
     1
102
RTVSPropertyOp2
 70
     1
102
RTVSPropertyOp3
 70
     1
102
RTVSPropertyOp4
 70
     1
102
RTVSPropertyOp5
 70
     1
102
RTVSPropertyOp6
 70
     1
102
RTVSPropertyOp7
 70
     1
102
RTVSPropertyOp8
 70
     1
102
RTVSPropertyOp9
 70
     1
102
RTVSPropertyOp10
 70
     1
102
RTVSPropertyOp11
 70
     1
102
RTVSPropertyOp12
 70
     1
102
RTVSPropertyOp13
 70
     1
102
RTVSPropertyOp14
 70
     1
102
RTVSPropertyOp15
 70
     1
102
RTVSPropertyOp16
 70
     1
102
RTVSPropertyOp17
 70
     1
102
RTVSPropertyOp18
 70
     1
102
RTVSPropertyOp19
 70
     1
102
RTVSPropertyOp20
 70
     1
102
RTVSPropertyOp21
 70
     1
102
RTVSPropertyOp22
 70
     1
102
RTVSPropertyOp23
 70
     1
102
RTVSPropertyOp24
 70
     1
102
RTVSPropertyOp25
 70
     1
102
RTVSPropertyOp26
 70
     1
102
RTVSPropertyOp27
 70
     1
102
RTVSPropertyOp28
 70
     1
102
RTVSPropertyOp29
 70
     1
102
RTVSPropertyOp30
 70
     1
102
RTVSPropertyOp31
 70
     1
102
RTVSPropertyOp32
 70
     1
102
RTVSPropertyOp33
 70
     1
102
RTVSPropertyOp34
 70
     1
102
RTVSPropertyOp35
 70
     1
102
RTVSPropertyOp36
 70
     1
102
RTVSPropertyOp37
 70
     1
102
RTVSPropertyOp38
 70
     1
102
RTVSPropertyOp39
 70
     1
102
RTVSPropertyOp40
 70
     1
102
RTVSPropertyOp41
 70
     1
102
RTVSPropertyOp42
 70
     1
102
RTVSPropertyOp43
 70
     1
102
RTVSPropertyOp44
 70
     1
102
RTVSPropertyOp45
 70
     1
102
RTVSPropertyOp46
 70
     1
102
RTVSPropertyOp47
 70
     1
102
RTVSPropertyOp48
 70
     1
102
RTVSPropertyOp49
 70
     1
102
RTVSPropertyOp50
 70
     1
102
RTVSPropertyOp51
 70
     0
102
RTVSPropertyOp52
 70
     0
102
RTVSPropertyOp53
 70
     1
102
RTVSPropertyOp54
 70
     1
102
RTVSPropertyOp55
 70
     1
102
RTVSPropertyOp56
 70
     1
102
RTVSPropertyOp57
 70
     1
102
RTVSPropertyOp58
 70
     1
102
RTVSPropertyOp59
 70
     1
102
RTVSPropertyOp60
 70
     1
102
RTVSPropertyOp61
 70
     1
102
RTVSPropertyOp62
 70
     1
  0
XRECORD
  5
16518
102
{ACAD_REACTORS
330
16517
102
}
330
16517
100
AcDbXrecord
280
     1
102
RTVSPost2010Prop28
280
     0
102
RTVSPost2010PropOp28
 70
     1
102
RTVSPost2010Prop29
280
     1
102
RTVSPost2010PropOp29
 70
     1
102
RTVSPost2010Prop30
280
     1
102
RTVSPost2010PropOp30
 70
     1
102
RTVSPost2010Prop31
280
     0
102
RTVSPost2010PropOp31
 70
     1
102
RTVSPost2010Prop32
280
     0
102
RTVSPost2010PropOp32
 70
     1
102
RTVSPost2010Prop33
280
     0
102
RTVSPost2010PropOp33
 70
     1
102
RTVSPost2010Prop34
280
     0
102
RTVSPost2010PropOp34
 70
     1
102
RTVSPost2010Prop35
280
     0
102
RTVSPost2010PropOp35
 70
     1
102
RTVSPost2010Prop36
280
     0
102
RTVSPost2010PropOp36
 70
     1
102
RTVSPost2010Prop37
 90
       50
102
RTVSPost2010PropOp37
 70
     1
102
RTVSPost2010Prop38
140
0.0
102
RTVSPost2010PropOp38
 70
     1
102
RTVSPost2010Prop39
140
1.0
102
RTVSPost2010PropOp39
 70
     1
102
RTVSPost2010Prop40
 90
        0
102
RTVSPost2010PropOp40
 70
     1
102
RTVSPost2010Prop41ColorIndex
 90
       18
102
RTVSPost2010Prop41ColorRGB
 90
        0
102
RTVSPost2010PropOp41
 70
     1
102
RTVSPost2010Prop42
 90
       50
102
RTVSPost2010PropOp42
 70
     1
102
RTVSPost2010Prop43
 90
        3
102
RTVSPost2010PropOp43
 70
     1
102
RTVSPost2010Prop44ColorIndex
 90
        5
102
RTVSPost2010Prop44ColorRGB
 90
      255
102
RTVSPost2010PropOp44
 70
     1
102
RTVSPost2010Prop45
280
     0
102
RTVSPost2010PropOp45
 70
     1
102
RTVSPost2010Prop46
 90
       50
102
RTVSPost2010PropOp46
 70
     1
102
RTVSPost2010Prop47
 90
       50
102
RTVSPost2010PropOp47
 70
     1
102
RTVSPost2010Prop48
 90
       50
102
RTVSPost2010PropOp48
 70
     1
102
RTVSPost2010Prop49
280
     0
102
RTVSPost2010PropOp49
 70
     1
102
RTVSPost2010Prop50
 90
       50
102
RTVSPost2010PropOp50
 70
     1
102
RTVSPost2010Prop51ColorIndex
 90
      256
102
RTVSPost2010Prop51ColorRGB
 90
-16777216
102
RTVSPost2010PropOp51
 70
     0
102
RTVSPost2010Prop52
140
1.0
102
RTVSPost2010PropOp52
 70
     0
102
RTVSPost2010Prop53
 90
        2
102
RTVSPost2010PropOp53
 70
     1
102
RTVSPost2010Prop54
  1
strokes_ogs.tif
102
RTVSPost2010PropOp54
 70
     1
102
RTVSPost2010Prop55
280
     0
102
RTVSPost2010PropOp55
 70
     1
102
RTVSPost2010Prop56
140
1.0
102
RTVSPost2010PropOp56
 70
     1
102
RTVSPost2010Prop57
140
1.0
102
RTVSPost2010PropOp57
 70
     1
102
RTVSPropertyOp0
 70
     1
102
RTVSPropertyOp1
 70
     1
102
RTVSPropertyOp2
 70
     1
102
RTVSPropertyOp3
 70
     1
102
RTVSPropertyOp4
 70
     1
102
RTVSPropertyOp5
 70
     1
102
RTVSPropertyOp6
 70
     1
102
RTVSPropertyOp7
 70
     1
102
RTVSPropertyOp8
 70
     1
102
RTVSPropertyOp9
 70
     1
102
RTVSPropertyOp10
 70
     1
102
RTVSPropertyOp11
 70
     1
102
RTVSPropertyOp12
 70
     1
102
RTVSPropertyOp13
 70
     1
102
RTVSPropertyOp14
 70
     1
102
RTVSPropertyOp15
 70
     1
102
RTVSPropertyOp16
 70
     1
102
RTVSPropertyOp17
 70
     1
102
RTVSPropertyOp18
 70
     1
102
RTVSPropertyOp19
 70
     1
102
RTVSPropertyOp20
 70
     1
102
RTVSPropertyOp21
 70
     1
102
RTVSPropertyOp22
 70
     1
102
RTVSPropertyOp23
 70
     1
102
RTVSPropertyOp24
 70
     1
102
RTVSPropertyOp25
 70
     1
102
RTVSPropertyOp26
 70
     1
102
RTVSPropertyOp27
 70
     1
102
RTVSPropertyOp28
 70
     1
102
RTVSPropertyOp29
 70
     1
102
RTVSPropertyOp30
 70
     1
102
RTVSPropertyOp31
 70
     1
102
RTVSPropertyOp32
 70
     1
102
RTVSPropertyOp33
 70
     1
102
RTVSPropertyOp34
 70
     1
102
RTVSPropertyOp35
 70
     1
102
RTVSPropertyOp36
 70
     1
102
RTVSPropertyOp37
 70
     1
102
RTVSPropertyOp38
 70
     1
102
RTVSPropertyOp39
 70
     1
102
RTVSPropertyOp40
 70
     1
102
RTVSPropertyOp41
 70
     1
102
RTVSPropertyOp42
 70
     1
102
RTVSPropertyOp43
 70
     1
102
RTVSPropertyOp44
 70
     1
102
RTVSPropertyOp45
 70
     1
102
RTVSPropertyOp46
 70
     1
102
RTVSPropertyOp47
 70
     1
102
RTVSPropertyOp48
 70
     1
102
RTVSPropertyOp49
 70
     1
102
RTVSPropertyOp50
 70
     1
102
RTVSPropertyOp51
 70
     0
102
RTVSPropertyOp52
 70
     0
102
RTVSPropertyOp53
 70
     1
102
RTVSPropertyOp54
 70
     1
102
RTVSPropertyOp55
 70
     1
102
RTVSPropertyOp56
 70
     1
102
RTVSPropertyOp57
 70
     1
102
RTVSPropertyOp58
 70
     1
102
RTVSPropertyOp59
 70
     1
102
RTVSPropertyOp60
 70
     1
102
RTVSPropertyOp61
 70
     1
102
RTVSPropertyOp62
 70
     1
  0
XRECORD
  5
16516
102
{ACAD_REACTORS
330
16515
102
}
330
16515
100
AcDbXrecord
280
     1
102
RTVSPost2010Prop28
280
     0
102
RTVSPost2010PropOp28
 70
     1
102
RTVSPost2010Prop29
280
     1
102
RTVSPost2010PropOp29
 70
     1
102
RTVSPost2010Prop30
280
     1
102
RTVSPost2010PropOp30
 70
     1
102
RTVSPost2010Prop31
280
     0
102
RTVSPost2010PropOp31
 70
     1
102
RTVSPost2010Prop32
280
     0
102
RTVSPost2010PropOp32
 70
     1
102
RTVSPost2010Prop33
280
     0
102
RTVSPost2010PropOp33
 70
     1
102
RTVSPost2010Prop34
280
     0
102
RTVSPost2010PropOp34
 70
     1
102
RTVSPost2010Prop35
280
     0
102
RTVSPost2010PropOp35
 70
     1
102
RTVSPost2010Prop36
280
     0
102
RTVSPost2010PropOp36
 70
     1
102
RTVSPost2010Prop37
 90
       50
102
RTVSPost2010PropOp37
 70
     1
102
RTVSPost2010Prop38
140
0.0
102
RTVSPost2010PropOp38
 70
     1
102
RTVSPost2010Prop39
140
1.0
102
RTVSPost2010PropOp39
 70
     1
102
RTVSPost2010Prop40
 90
        0
102
RTVSPost2010PropOp40
 70
     1
102
RTVSPost2010Prop41ColorIndex
 90
       18
102
RTVSPost2010Prop41ColorRGB
 90
        0
102
RTVSPost2010PropOp41
 70
     1
102
RTVSPost2010Prop42
 90
       50
102
RTVSPost2010PropOp42
 70
     1
102
RTVSPost2010Prop43
 90
        3
102
RTVSPost2010PropOp43
 70
     1
102
RTVSPost2010Prop44ColorIndex
 90
        5
102
RTVSPost2010Prop44ColorRGB
 90
      255
102
RTVSPost2010PropOp44
 70
     1
102
RTVSPost2010Prop45
280
     0
102
RTVSPost2010PropOp45
 70
     1
102
RTVSPost2010Prop46
 90
       50
102
RTVSPost2010PropOp46
 70
     1
102
RTVSPost2010Prop47
 90
       50
102
RTVSPost2010PropOp47
 70
     1
102
RTVSPost2010Prop48
 90
       50
102
RTVSPost2010PropOp48
 70
     1
102
RTVSPost2010Prop49
280
     0
102
RTVSPost2010PropOp49
 70
     1
102
RTVSPost2010Prop50
 90
       50
102
RTVSPost2010PropOp50
 70
     1
102
RTVSPost2010Prop51ColorIndex
 90
      256
102
RTVSPost2010Prop51ColorRGB
 90
-16777216
102
RTVSPost2010PropOp51
 70
     0
102
RTVSPost2010Prop52
140
1.0
102
RTVSPost2010PropOp52
 70
     0
102
RTVSPost2010Prop53
 90
        2
102
RTVSPost2010PropOp53
 70
     1
102
RTVSPost2010Prop54
  1
strokes_ogs.tif
102
RTVSPost2010PropOp54
 70
     1
102
RTVSPost2010Prop55
280
     0
102
RTVSPost2010PropOp55
 70
     1
102
RTVSPost2010Prop56
140
1.0
102
RTVSPost2010PropOp56
 70
     1
102
RTVSPost2010Prop57
140
1.0
102
RTVSPost2010PropOp57
 70
     1
102
RTVSPropertyOp0
 70
     1
102
RTVSPropertyOp1
 70
     1
102
RTVSPropertyOp2
 70
     1
102
RTVSPropertyOp3
 70
     1
102
RTVSPropertyOp4
 70
     1
102
RTVSPropertyOp5
 70
     1
102
RTVSPropertyOp6
 70
     1
102
RTVSPropertyOp7
 70
     1
102
RTVSPropertyOp8
 70
     1
102
RTVSPropertyOp9
 70
     1
102
RTVSPropertyOp10
 70
     1
102
RTVSPropertyOp11
 70
     1
102
RTVSPropertyOp12
 70
     1
102
RTVSPropertyOp13
 70
     1
102
RTVSPropertyOp14
 70
     1
102
RTVSPropertyOp15
 70
     1
102
RTVSPropertyOp16
 70
     1
102
RTVSPropertyOp17
 70
     1
102
RTVSPropertyOp18
 70
     1
102
RTVSPropertyOp19
 70
     1
102
RTVSPropertyOp20
 70
     1
102
RTVSPropertyOp21
 70
     1
102
RTVSPropertyOp22
 70
     1
102
RTVSPropertyOp23
 70
     1
102
RTVSPropertyOp24
 70
     1
102
RTVSPropertyOp25
 70
     1
102
RTVSPropertyOp26
 70
     1
102
RTVSPropertyOp27
 70
     1
102
RTVSPropertyOp28
 70
     1
102
RTVSPropertyOp29
 70
     1
102
RTVSPropertyOp30
 70
     1
102
RTVSPropertyOp31
 70
     1
102
RTVSPropertyOp32
 70
     1
102
RTVSPropertyOp33
 70
     1
102
RTVSPropertyOp34
 70
     1
102
RTVSPropertyOp35
 70
     1
102
RTVSPropertyOp36
 70
     1
102
RTVSPropertyOp37
 70
     1
102
RTVSPropertyOp38
 70
     1
102
RTVSPropertyOp39
 70
     1
102
RTVSPropertyOp40
 70
     1
102
RTVSPropertyOp41
 70
     1
102
RTVSPropertyOp42
 70
     1
102
RTVSPropertyOp43
 70
     1
102
RTVSPropertyOp44
 70
     1
102
RTVSPropertyOp45
 70
     1
102
RTVSPropertyOp46
 70
     1
102
RTVSPropertyOp47
 70
     1
102
RTVSPropertyOp48
 70
     1
102
RTVSPropertyOp49
 70
     1
102
RTVSPropertyOp50
 70
     1
102
RTVSPropertyOp51
 70
     0
102
RTVSPropertyOp52
 70
     0
102
RTVSPropertyOp53
 70
     1
102
RTVSPropertyOp54
 70
     1
102
RTVSPropertyOp55
 70
     1
102
RTVSPropertyOp56
 70
     1
102
RTVSPropertyOp57
 70
     1
102
RTVSPropertyOp58
 70
     1
102
RTVSPropertyOp59
 70
     1
102
RTVSPropertyOp60
 70
     1
102
RTVSPropertyOp61
 70
     1
102
RTVSPropertyOp62
 70
     1
  0
XRECORD
  5
16510
102
{ACAD_REACTORS
330
1650F
102
}
330
1650F
100
AcDbXrecord
280
     1
102
RTVSPost2010Prop28
280
     0
102
RTVSPost2010PropOp28
 70
     1
102
RTVSPost2010Prop29
280
     1
102
RTVSPost2010PropOp29
 70
     1
102
RTVSPost2010Prop30
280
     1
102
RTVSPost2010PropOp30
 70
     1
102
RTVSPost2010Prop31
280
     0
102
RTVSPost2010PropOp31
 70
     1
102
RTVSPost2010Prop32
280
     0
102
RTVSPost2010PropOp32
 70
     1
102
RTVSPost2010Prop33
280
     0
102
RTVSPost2010PropOp33
 70
     1
102
RTVSPost2010Prop34
280
     0
102
RTVSPost2010PropOp34
 70
     1
102
RTVSPost2010Prop35
280
     0
102
RTVSPost2010PropOp35
 70
     1
102
RTVSPost2010Prop36
280
     0
102
RTVSPost2010PropOp36
 70
     1
102
RTVSPost2010Prop37
 90
       50
102
RTVSPost2010PropOp37
 70
     1
102
RTVSPost2010Prop38
140
0.0
102
RTVSPost2010PropOp38
 70
     1
102
RTVSPost2010Prop39
140
1.0
102
RTVSPost2010PropOp39
 70
     1
102
RTVSPost2010Prop40
 90
        0
102
RTVSPost2010PropOp40
 70
     1
102
RTVSPost2010Prop41ColorIndex
 90
       18
102
RTVSPost2010Prop41ColorRGB
 90
        0
102
RTVSPost2010PropOp41
 70
     1
102
RTVSPost2010Prop42
 90
       50
102
RTVSPost2010PropOp42
 70
     1
102
RTVSPost2010Prop43
 90
        3
102
RTVSPost2010PropOp43
 70
     1
102
RTVSPost2010Prop44ColorIndex
 90
        5
102
RTVSPost2010Prop44ColorRGB
 90
      255
102
RTVSPost2010PropOp44
 70
     1
102
RTVSPost2010Prop45
280
     0
102
RTVSPost2010PropOp45
 70
     1
102
RTVSPost2010Prop46
 90
       50
102
RTVSPost2010PropOp46
 70
     1
102
RTVSPost2010Prop47
 90
       50
102
RTVSPost2010PropOp47
 70
     1
102
RTVSPost2010Prop48
 90
       50
102
RTVSPost2010PropOp48
 70
     1
102
RTVSPost2010Prop49
280
     0
102
RTVSPost2010PropOp49
 70
     1
102
RTVSPost2010Prop50
 90
       50
102
RTVSPost2010PropOp50
 70
     1
102
RTVSPost2010Prop51ColorIndex
 90
      256
102
RTVSPost2010Prop51ColorRGB
 90
-16777216
102
RTVSPost2010PropOp51
 70
     0
102
RTVSPost2010Prop52
140
1.0
102
RTVSPost2010PropOp52
 70
     0
102
RTVSPost2010Prop53
 90
        2
102
RTVSPost2010PropOp53
 70
     1
102
RTVSPost2010Prop54
  1
strokes_ogs.tif
102
RTVSPost2010PropOp54
 70
     1
102
RTVSPost2010Prop55
280
     0
102
RTVSPost2010PropOp55
 70
     1
102
RTVSPost2010Prop56
140
1.0
102
RTVSPost2010PropOp56
 70
     1
102
RTVSPost2010Prop57
140
1.0
102
RTVSPost2010PropOp57
 70
     1
102
RTVSPropertyOp0
 70
     1
102
RTVSPropertyOp1
 70
     1
102
RTVSPropertyOp2
 70
     1
102
RTVSPropertyOp3
 70
     1
102
RTVSPropertyOp4
 70
     1
102
RTVSPropertyOp5
 70
     1
102
RTVSPropertyOp6
 70
     1
102
RTVSPropertyOp7
 70
     1
102
RTVSPropertyOp8
 70
     1
102
RTVSPropertyOp9
 70
     1
102
RTVSPropertyOp10
 70
     1
102
RTVSPropertyOp11
 70
     1
102
RTVSPropertyOp12
 70
     1
102
RTVSPropertyOp13
 70
     1
102
RTVSPropertyOp14
 70
     1
102
RTVSPropertyOp15
 70
     1
102
RTVSPropertyOp16
 70
     1
102
RTVSPropertyOp17
 70
     1
102
RTVSPropertyOp18
 70
     1
102
RTVSPropertyOp19
 70
     1
102
RTVSPropertyOp20
 70
     1
102
RTVSPropertyOp21
 70
     1
102
RTVSPropertyOp22
 70
     1
102
RTVSPropertyOp23
 70
     1
102
RTVSPropertyOp24
 70
     1
102
RTVSPropertyOp25
 70
     1
102
RTVSPropertyOp26
 70
     1
102
RTVSPropertyOp27
 70
     1
102
RTVSPropertyOp28
 70
     1
102
RTVSPropertyOp29
 70
     1
102
RTVSPropertyOp30
 70
     1
102
RTVSPropertyOp31
 70
     1
102
RTVSPropertyOp32
 70
     1
102
RTVSPropertyOp33
 70
     1
102
RTVSPropertyOp34
 70
     1
102
RTVSPropertyOp35
 70
     1
102
RTVSPropertyOp36
 70
     1
102
RTVSPropertyOp37
 70
     1
102
RTVSPropertyOp38
 70
     1
102
RTVSPropertyOp39
 70
     1
102
RTVSPropertyOp40
 70
     1
102
RTVSPropertyOp41
 70
     1
102
RTVSPropertyOp42
 70
     1
102
RTVSPropertyOp43
 70
     1
102
RTVSPropertyOp44
 70
     1
102
RTVSPropertyOp45
 70
     1
102
RTVSPropertyOp46
 70
     1
102
RTVSPropertyOp47
 70
     1
102
RTVSPropertyOp48
 70
     1
102
RTVSPropertyOp49
 70
     1
102
RTVSPropertyOp50
 70
     1
102
RTVSPropertyOp51
 70
     0
102
RTVSPropertyOp52
 70
     0
102
RTVSPropertyOp53
 70
     1
102
RTVSPropertyOp54
 70
     1
102
RTVSPropertyOp55
 70
     1
102
RTVSPropertyOp56
 70
     1
102
RTVSPropertyOp57
 70
     1
102
RTVSPropertyOp58
 70
     1
102
RTVSPropertyOp59
 70
     1
102
RTVSPropertyOp60
 70
     1
102
RTVSPropertyOp61
 70
     1
102
RTVSPropertyOp62
 70
     1
  0
XRECORD
  5
16512
102
{ACAD_REACTORS
330
16511
102
}
330
16511
100
AcDbXrecord
280
     1
102
RTVSPost2010Prop28
280
     0
102
RTVSPost2010PropOp28
 70
     1
102
RTVSPost2010Prop29
280
     1
102
RTVSPost2010PropOp29
 70
     1
102
RTVSPost2010Prop30
280
     1
102
RTVSPost2010PropOp30
 70
     1
102
RTVSPost2010Prop31
280
     0
102
RTVSPost2010PropOp31
 70
     1
102
RTVSPost2010Prop32
280
     0
102
RTVSPost2010PropOp32
 70
     1
102
RTVSPost2010Prop33
280
     0
102
RTVSPost2010PropOp33
 70
     1
102
RTVSPost2010Prop34
280
     0
102
RTVSPost2010PropOp34
 70
     1
102
RTVSPost2010Prop35
280
     0
102
RTVSPost2010PropOp35
 70
     1
102
RTVSPost2010Prop36
280
     0
102
RTVSPost2010PropOp36
 70
     1
102
RTVSPost2010Prop37
 90
       50
102
RTVSPost2010PropOp37
 70
     1
102
RTVSPost2010Prop38
140
0.0
102
RTVSPost2010PropOp38
 70
     1
102
RTVSPost2010Prop39
140
1.0
102
RTVSPost2010PropOp39
 70
     1
102
RTVSPost2010Prop40
 90
        0
102
RTVSPost2010PropOp40
 70
     1
102
RTVSPost2010Prop41ColorIndex
 90
       18
102
RTVSPost2010Prop41ColorRGB
 90
        0
102
RTVSPost2010PropOp41
 70
     1
102
RTVSPost2010Prop42
 90
       50
102
RTVSPost2010PropOp42
 70
     1
102
RTVSPost2010Prop43
 90
        3
102
RTVSPost2010PropOp43
 70
     1
102
RTVSPost2010Prop44ColorIndex
 90
        5
102
RTVSPost2010Prop44ColorRGB
 90
      255
102
RTVSPost2010PropOp44
 70
     1
102
RTVSPost2010Prop45
280
     0
102
RTVSPost2010PropOp45
 70
     1
102
RTVSPost2010Prop46
 90
       50
102
RTVSPost2010PropOp46
 70
     1
102
RTVSPost2010Prop47
 90
       50
102
RTVSPost2010PropOp47
 70
     1
102
RTVSPost2010Prop48
 90
       50
102
RTVSPost2010PropOp48
 70
     1
102
RTVSPost2010Prop49
280
     0
102
RTVSPost2010PropOp49
 70
     1
102
RTVSPost2010Prop50
 90
       50
102
RTVSPost2010PropOp50
 70
     1
102
RTVSPost2010Prop51ColorIndex
 90
      256
102
RTVSPost2010Prop51ColorRGB
 90
-16777216
102
RTVSPost2010PropOp51
 70
     0
102
RTVSPost2010Prop52
140
1.0
102
RTVSPost2010PropOp52
 70
     0
102
RTVSPost2010Prop53
 90
        2
102
RTVSPost2010PropOp53
 70
     1
102
RTVSPost2010Prop54
  1
strokes_ogs.tif
102
RTVSPost2010PropOp54
 70
     1
102
RTVSPost2010Prop55
280
     0
102
RTVSPost2010PropOp55
 70
     1
102
RTVSPost2010Prop56
140
1.0
102
RTVSPost2010PropOp56
 70
     1
102
RTVSPost2010Prop57
140
1.0
102
RTVSPost2010PropOp57
 70
     1
102
RTVSPropertyOp0
 70
     1
102
RTVSPropertyOp1
 70
     1
102
RTVSPropertyOp2
 70
     1
102
RTVSPropertyOp3
 70
     1
102
RTVSPropertyOp4
 70
     1
102
RTVSPropertyOp5
 70
     1
102
RTVSPropertyOp6
 70
     1
102
RTVSPropertyOp7
 70
     1
102
RTVSPropertyOp8
 70
     1
102
RTVSPropertyOp9
 70
     1
102
RTVSPropertyOp10
 70
     1
102
RTVSPropertyOp11
 70
     1
102
RTVSPropertyOp12
 70
     1
102
RTVSPropertyOp13
 70
     1
102
RTVSPropertyOp14
 70
     1
102
RTVSPropertyOp15
 70
     1
102
RTVSPropertyOp16
 70
     1
102
RTVSPropertyOp17
 70
     1
102
RTVSPropertyOp18
 70
     1
102
RTVSPropertyOp19
 70
     1
102
RTVSPropertyOp20
 70
     1
102
RTVSPropertyOp21
 70
     1
102
RTVSPropertyOp22
 70
     1
102
RTVSPropertyOp23
 70
     1
102
RTVSPropertyOp24
 70
     1
102
RTVSPropertyOp25
 70
     1
102
RTVSPropertyOp26
 70
     1
102
RTVSPropertyOp27
 70
     1
102
RTVSPropertyOp28
 70
     1
102
RTVSPropertyOp29
 70
     1
102
RTVSPropertyOp30
 70
     1
102
RTVSPropertyOp31
 70
     1
102
RTVSPropertyOp32
 70
     1
102
RTVSPropertyOp33
 70
     1
102
RTVSPropertyOp34
 70
     1
102
RTVSPropertyOp35
 70
     1
102
RTVSPropertyOp36
 70
     1
102
RTVSPropertyOp37
 70
     1
102
RTVSPropertyOp38
 70
     1
102
RTVSPropertyOp39
 70
     1
102
RTVSPropertyOp40
 70
     1
102
RTVSPropertyOp41
 70
     1
102
RTVSPropertyOp42
 70
     1
102
RTVSPropertyOp43
 70
     1
102
RTVSPropertyOp44
 70
     1
102
RTVSPropertyOp45
 70
     1
102
RTVSPropertyOp46
 70
     1
102
RTVSPropertyOp47
 70
     1
102
RTVSPropertyOp48
 70
     1
102
RTVSPropertyOp49
 70
     1
102
RTVSPropertyOp50
 70
     1
102
RTVSPropertyOp51
 70
     0
102
RTVSPropertyOp52
 70
     0
102
RTVSPropertyOp53
 70
     1
102
RTVSPropertyOp54
 70
     1
102
RTVSPropertyOp55
 70
     1
102
RTVSPropertyOp56
 70
     1
102
RTVSPropertyOp57
 70
     1
102
RTVSPropertyOp58
 70
     1
102
RTVSPropertyOp59
 70
     1
102
RTVSPropertyOp60
 70
     1
102
RTVSPropertyOp61
 70
     1
102
RTVSPropertyOp62
 70
     1
  0
XRECORD
  5
16508
102
{ACAD_REACTORS
330
16507
102
}
330
16507
100
AcDbXrecord
280
     1
102
RTVSPost2010Prop28
280
     0
102
RTVSPost2010PropOp28
 70
     1
102
RTVSPost2010Prop29
280
     1
102
RTVSPost2010PropOp29
 70
     1
102
RTVSPost2010Prop30
280
     1
102
RTVSPost2010PropOp30
 70
     1
102
RTVSPost2010Prop31
280
     0
102
RTVSPost2010PropOp31
 70
     1
102
RTVSPost2010Prop32
280
     0
102
RTVSPost2010PropOp32
 70
     1
102
RTVSPost2010Prop33
280
     0
102
RTVSPost2010PropOp33
 70
     1
102
RTVSPost2010Prop34
280
     0
102
RTVSPost2010PropOp34
 70
     1
102
RTVSPost2010Prop35
280
     0
102
RTVSPost2010PropOp35
 70
     1
102
RTVSPost2010Prop36
280
     0
102
RTVSPost2010PropOp36
 70
     1
102
RTVSPost2010Prop37
 90
       50
102
RTVSPost2010PropOp37
 70
     1
102
RTVSPost2010Prop38
140
0.0
102
RTVSPost2010PropOp38
 70
     1
102
RTVSPost2010Prop39
140
1.0
102
RTVSPost2010PropOp39
 70
     1
102
RTVSPost2010Prop40
 90
        0
102
RTVSPost2010PropOp40
 70
     1
102
RTVSPost2010Prop41ColorIndex
 90
       18
102
RTVSPost2010Prop41ColorRGB
 90
        0
102
RTVSPost2010PropOp41
 70
     1
102
RTVSPost2010Prop42
 90
       50
102
RTVSPost2010PropOp42
 70
     1
102
RTVSPost2010Prop43
 90
        3
102
RTVSPost2010PropOp43
 70
     1
102
RTVSPost2010Prop44ColorIndex
 90
        5
102
RTVSPost2010Prop44ColorRGB
 90
      255
102
RTVSPost2010PropOp44
 70
     1
102
RTVSPost2010Prop45
280
     0
102
RTVSPost2010PropOp45
 70
     1
102
RTVSPost2010Prop46
 90
       50
102
RTVSPost2010PropOp46
 70
     1
102
RTVSPost2010Prop47
 90
       50
102
RTVSPost2010PropOp47
 70
     1
102
RTVSPost2010Prop48
 90
       50
102
RTVSPost2010PropOp48
 70
     1
102
RTVSPost2010Prop49
280
     0
102
RTVSPost2010PropOp49
 70
     1
102
RTVSPost2010Prop50
 90
       50
102
RTVSPost2010PropOp50
 70
     1
102
RTVSPost2010Prop51ColorIndex
 90
      256
102
RTVSPost2010Prop51ColorRGB
 90
-16777216
102
RTVSPost2010PropOp51
 70
     0
102
RTVSPost2010Prop52
140
1.0
102
RTVSPost2010PropOp52
 70
     0
102
RTVSPost2010Prop53
 90
        2
102
RTVSPost2010PropOp53
 70
     1
102
RTVSPost2010Prop54
  1
strokes_ogs.tif
102
RTVSPost2010PropOp54
 70
     1
102
RTVSPost2010Prop55
280
     0
102
RTVSPost2010PropOp55
 70
     1
102
RTVSPost2010Prop56
140
1.0
102
RTVSPost2010PropOp56
 70
     1
102
RTVSPost2010Prop57
140
1.0
102
RTVSPost2010PropOp57
 70
     1
102
RTVSPropertyOp0
 70
     1
102
RTVSPropertyOp1
 70
     1
102
RTVSPropertyOp2
 70
     1
102
RTVSPropertyOp3
 70
     1
102
RTVSPropertyOp4
 70
     1
102
RTVSPropertyOp5
 70
     1
102
RTVSPropertyOp6
 70
     1
102
RTVSPropertyOp7
 70
     1
102
RTVSPropertyOp8
 70
     1
102
RTVSPropertyOp9
 70
     1
102
RTVSPropertyOp10
 70
     1
102
RTVSPropertyOp11
 70
     1
102
RTVSPropertyOp12
 70
     1
102
RTVSPropertyOp13
 70
     1
102
RTVSPropertyOp14
 70
     1
102
RTVSPropertyOp15
 70
     1
102
RTVSPropertyOp16
 70
     1
102
RTVSPropertyOp17
 70
     1
102
RTVSPropertyOp18
 70
     1
102
RTVSPropertyOp19
 70
     1
102
RTVSPropertyOp20
 70
     1
102
RTVSPropertyOp21
 70
     1
102
RTVSPropertyOp22
 70
     1
102
RTVSPropertyOp23
 70
     1
102
RTVSPropertyOp24
 70
     1
102
RTVSPropertyOp25
 70
     1
102
RTVSPropertyOp26
 70
     1
102
RTVSPropertyOp27
 70
     1
102
RTVSPropertyOp28
 70
     1
102
RTVSPropertyOp29
 70
     1
102
RTVSPropertyOp30
 70
     1
102
RTVSPropertyOp31
 70
     1
102
RTVSPropertyOp32
 70
     1
102
RTVSPropertyOp33
 70
     1
102
RTVSPropertyOp34
 70
     1
102
RTVSPropertyOp35
 70
     1
102
RTVSPropertyOp36
 70
     1
102
RTVSPropertyOp37
 70
     1
102
RTVSPropertyOp38
 70
     1
102
RTVSPropertyOp39
 70
     1
102
RTVSPropertyOp40
 70
     1
102
RTVSPropertyOp41
 70
     1
102
RTVSPropertyOp42
 70
     1
102
RTVSPropertyOp43
 70
     1
102
RTVSPropertyOp44
 70
     1
102
RTVSPropertyOp45
 70
     1
102
RTVSPropertyOp46
 70
     1
102
RTVSPropertyOp47
 70
     1
102
RTVSPropertyOp48
 70
     1
102
RTVSPropertyOp49
 70
     1
102
RTVSPropertyOp50
 70
     1
102
RTVSPropertyOp51
 70
     0
102
RTVSPropertyOp52
 70
     0
102
RTVSPropertyOp53
 70
     1
102
RTVSPropertyOp54
 70
     1
102
RTVSPropertyOp55
 70
     1
102
RTVSPropertyOp56
 70
     1
102
RTVSPropertyOp57
 70
     1
102
RTVSPropertyOp58
 70
     1
102
RTVSPropertyOp59
 70
     1
102
RTVSPropertyOp60
 70
     1
102
RTVSPropertyOp61
 70
     1
102
RTVSPropertyOp62
 70
     1
  0
XRECORD
  5
164FC
102
{ACAD_REACTORS
330
164FB
102
}
330
164FB
100
AcDbXrecord
280
     1
102
RTVSPost2010Prop28
280
     0
102
RTVSPost2010PropOp28
 70
     1
102
RTVSPost2010Prop29
280
     1
102
RTVSPost2010PropOp29
 70
     1
102
RTVSPost2010Prop30
280
     1
102
RTVSPost2010PropOp30
 70
     1
102
RTVSPost2010Prop31
280
     0
102
RTVSPost2010PropOp31
 70
     1
102
RTVSPost2010Prop32
280
     0
102
RTVSPost2010PropOp32
 70
     1
102
RTVSPost2010Prop33
280
     0
102
RTVSPost2010PropOp33
 70
     1
102
RTVSPost2010Prop34
280
     0
102
RTVSPost2010PropOp34
 70
     1
102
RTVSPost2010Prop35
280
     0
102
RTVSPost2010PropOp35
 70
     1
102
RTVSPost2010Prop36
280
     0
102
RTVSPost2010PropOp36
 70
     1
102
RTVSPost2010Prop37
 90
       50
102
RTVSPost2010PropOp37
 70
     1
102
RTVSPost2010Prop38
140
0.0
102
RTVSPost2010PropOp38
 70
     1
102
RTVSPost2010Prop39
140
1.0
102
RTVSPost2010PropOp39
 70
     1
102
RTVSPost2010Prop40
 90
        0
102
RTVSPost2010PropOp40
 70
     1
102
RTVSPost2010Prop41ColorIndex
 90
       18
102
RTVSPost2010Prop41ColorRGB
 90
        0
102
RTVSPost2010PropOp41
 70
     1
102
RTVSPost2010Prop42
 90
       50
102
RTVSPost2010PropOp42
 70
     1
102
RTVSPost2010Prop43
 90
        3
102
RTVSPost2010PropOp43
 70
     1
102
RTVSPost2010Prop44ColorIndex
 90
        5
102
RTVSPost2010Prop44ColorRGB
 90
      255
102
RTVSPost2010PropOp44
 70
     1
102
RTVSPost2010Prop45
280
     0
102
RTVSPost2010PropOp45
 70
     1
102
RTVSPost2010Prop46
 90
       50
102
RTVSPost2010PropOp46
 70
     1
102
RTVSPost2010Prop47
 90
       50
102
RTVSPost2010PropOp47
 70
     1
102
RTVSPost2010Prop48
 90
       50
102
RTVSPost2010PropOp48
 70
     1
102
RTVSPost2010Prop49
280
     0
102
RTVSPost2010PropOp49
 70
     1
102
RTVSPost2010Prop50
 90
       50
102
RTVSPost2010PropOp50
 70
     1
102
RTVSPost2010Prop51ColorIndex
 90
      256
102
RTVSPost2010Prop51ColorRGB
 90
-16777216
102
RTVSPost2010PropOp51
 70
     0
102
RTVSPost2010Prop52
140
1.0
102
RTVSPost2010PropOp52
 70
     0
102
RTVSPost2010Prop53
 90
        2
102
RTVSPost2010PropOp53
 70
     1
102
RTVSPost2010Prop54
  1
strokes_ogs.tif
102
RTVSPost2010PropOp54
 70
     1
102
RTVSPost2010Prop55
280
     0
102
RTVSPost2010PropOp55
 70
     1
102
RTVSPost2010Prop56
140
1.0
102
RTVSPost2010PropOp56
 70
     1
102
RTVSPost2010Prop57
140
1.0
102
RTVSPost2010PropOp57
 70
     1
102
RTVSPropertyOp0
 70
     1
102
RTVSPropertyOp1
 70
     1
102
RTVSPropertyOp2
 70
     1
102
RTVSPropertyOp3
 70
     1
102
RTVSPropertyOp4
 70
     1
102
RTVSPropertyOp5
 70
     1
102
RTVSPropertyOp6
 70
     1
102
RTVSPropertyOp7
 70
     1
102
RTVSPropertyOp8
 70
     1
102
RTVSPropertyOp9
 70
     1
102
RTVSPropertyOp10
 70
     1
102
RTVSPropertyOp11
 70
     1
102
RTVSPropertyOp12
 70
     1
102
RTVSPropertyOp13
 70
     1
102
RTVSPropertyOp14
 70
     1
102
RTVSPropertyOp15
 70
     1
102
RTVSPropertyOp16
 70
     1
102
RTVSPropertyOp17
 70
     1
102
RTVSPropertyOp18
 70
     1
102
RTVSPropertyOp19
 70
     1
102
RTVSPropertyOp20
 70
     1
102
RTVSPropertyOp21
 70
     1
102
RTVSPropertyOp22
 70
     1
102
RTVSPropertyOp23
 70
     1
102
RTVSPropertyOp24
 70
     1
102
RTVSPropertyOp25
 70
     1
102
RTVSPropertyOp26
 70
     1
102
RTVSPropertyOp27
 70
     1
102
RTVSPropertyOp28
 70
     1
102
RTVSPropertyOp29
 70
     1
102
RTVSPropertyOp30
 70
     1
102
RTVSPropertyOp31
 70
     1
102
RTVSPropertyOp32
 70
     1
102
RTVSPropertyOp33
 70
     1
102
RTVSPropertyOp34
 70
     1
102
RTVSPropertyOp35
 70
     1
102
RTVSPropertyOp36
 70
     1
102
RTVSPropertyOp37
 70
     1
102
RTVSPropertyOp38
 70
     1
102
RTVSPropertyOp39
 70
     1
102
RTVSPropertyOp40
 70
     1
102
RTVSPropertyOp41
 70
     1
102
RTVSPropertyOp42
 70
     1
102
RTVSPropertyOp43
 70
     1
102
RTVSPropertyOp44
 70
     1
102
RTVSPropertyOp45
 70
     1
102
RTVSPropertyOp46
 70
     1
102
RTVSPropertyOp47
 70
     1
102
RTVSPropertyOp48
 70
     1
102
RTVSPropertyOp49
 70
     1
102
RTVSPropertyOp50
 70
     1
102
RTVSPropertyOp51
 70
     0
102
RTVSPropertyOp52
 70
     0
102
RTVSPropertyOp53
 70
     1
102
RTVSPropertyOp54
 70
     1
102
RTVSPropertyOp55
 70
     1
102
RTVSPropertyOp56
 70
     1
102
RTVSPropertyOp57
 70
     1
102
RTVSPropertyOp58
 70
     1
102
RTVSPropertyOp59
 70
     1
102
RTVSPropertyOp60
 70
     1
102
RTVSPropertyOp61
 70
     1
102
RTVSPropertyOp62
 70
     1
  0
XRECORD
  5
16514
102
{ACAD_REACTORS
330
16513
102
}
330
16513
100
AcDbXrecord
280
     1
102
RTVSPost2010Prop28
280
     0
102
RTVSPost2010PropOp28
 70
     1
102
RTVSPost2010Prop29
280
     1
102
RTVSPost2010PropOp29
 70
     1
102
RTVSPost2010Prop30
280
     1
102
RTVSPost2010PropOp30
 70
     1
102
RTVSPost2010Prop31
280
     0
102
RTVSPost2010PropOp31
 70
     1
102
RTVSPost2010Prop32
280
     0
102
RTVSPost2010PropOp32
 70
     1
102
RTVSPost2010Prop33
280
     0
102
RTVSPost2010PropOp33
 70
     1
102
RTVSPost2010Prop34
280
     0
102
RTVSPost2010PropOp34
 70
     1
102
RTVSPost2010Prop35
280
     0
102
RTVSPost2010PropOp35
 70
     1
102
RTVSPost2010Prop36
280
     0
102
RTVSPost2010PropOp36
 70
     1
102
RTVSPost2010Prop37
 90
       50
102
RTVSPost2010PropOp37
 70
     1
102
RTVSPost2010Prop38
140
0.0
102
RTVSPost2010PropOp38
 70
     1
102
RTVSPost2010Prop39
140
1.0
102
RTVSPost2010PropOp39
 70
     1
102
RTVSPost2010Prop40
 90
        0
102
RTVSPost2010PropOp40
 70
     1
102
RTVSPost2010Prop41ColorIndex
 90
       18
102
RTVSPost2010Prop41ColorRGB
 90
        0
102
RTVSPost2010PropOp41
 70
     1
102
RTVSPost2010Prop42
 90
       50
102
RTVSPost2010PropOp42
 70
     1
102
RTVSPost2010Prop43
 90
        3
102
RTVSPost2010PropOp43
 70
     1
102
RTVSPost2010Prop44ColorIndex
 90
        5
102
RTVSPost2010Prop44ColorRGB
 90
      255
102
RTVSPost2010PropOp44
 70
     1
102
RTVSPost2010Prop45
280
     0
102
RTVSPost2010PropOp45
 70
     1
102
RTVSPost2010Prop46
 90
       50
102
RTVSPost2010PropOp46
 70
     1
102
RTVSPost2010Prop47
 90
       50
102
RTVSPost2010PropOp47
 70
     1
102
RTVSPost2010Prop48
 90
       50
102
RTVSPost2010PropOp48
 70
     1
102
RTVSPost2010Prop49
280
     0
102
RTVSPost2010PropOp49
 70
     1
102
RTVSPost2010Prop50
 90
       50
102
RTVSPost2010PropOp50
 70
     1
102
RTVSPost2010Prop51ColorIndex
 90
      256
102
RTVSPost2010Prop51ColorRGB
 90
-16777216
102
RTVSPost2010PropOp51
 70
     0
102
RTVSPost2010Prop52
140
1.0
102
RTVSPost2010PropOp52
 70
     0
102
RTVSPost2010Prop53
 90
        2
102
RTVSPost2010PropOp53
 70
     1
102
RTVSPost2010Prop54
  1
strokes_ogs.tif
102
RTVSPost2010PropOp54
 70
     1
102
RTVSPost2010Prop55
280
     0
102
RTVSPost2010PropOp55
 70
     1
102
RTVSPost2010Prop56
140
1.0
102
RTVSPost2010PropOp56
 70
     1
102
RTVSPost2010Prop57
140
1.0
102
RTVSPost2010PropOp57
 70
     1
102
RTVSPropertyOp0
 70
     1
102
RTVSPropertyOp1
 70
     1
102
RTVSPropertyOp2
 70
     1
102
RTVSPropertyOp3
 70
     1
102
RTVSPropertyOp4
 70
     1
102
RTVSPropertyOp5
 70
     1
102
RTVSPropertyOp6
 70
     1
102
RTVSPropertyOp7
 70
     1
102
RTVSPropertyOp8
 70
     1
102
RTVSPropertyOp9
 70
     1
102
RTVSPropertyOp10
 70
     1
102
RTVSPropertyOp11
 70
     1
102
RTVSPropertyOp12
 70
     1
102
RTVSPropertyOp13
 70
     1
102
RTVSPropertyOp14
 70
     1
102
RTVSPropertyOp15
 70
     1
102
RTVSPropertyOp16
 70
     1
102
RTVSPropertyOp17
 70
     1
102
RTVSPropertyOp18
 70
     1
102
RTVSPropertyOp19
 70
     1
102
RTVSPropertyOp20
 70
     1
102
RTVSPropertyOp21
 70
     1
102
RTVSPropertyOp22
 70
     1
102
RTVSPropertyOp23
 70
     1
102
RTVSPropertyOp24
 70
     1
102
RTVSPropertyOp25
 70
     1
102
RTVSPropertyOp26
 70
     1
102
RTVSPropertyOp27
 70
     1
102
RTVSPropertyOp28
 70
     1
102
RTVSPropertyOp29
 70
     1
102
RTVSPropertyOp30
 70
     1
102
RTVSPropertyOp31
 70
     1
102
RTVSPropertyOp32
 70
     1
102
RTVSPropertyOp33
 70
     1
102
RTVSPropertyOp34
 70
     1
102
RTVSPropertyOp35
 70
     1
102
RTVSPropertyOp36
 70
     1
102
RTVSPropertyOp37
 70
     1
102
RTVSPropertyOp38
 70
     1
102
RTVSPropertyOp39
 70
     1
102
RTVSPropertyOp40
 70
     1
102
RTVSPropertyOp41
 70
     1
102
RTVSPropertyOp42
 70
     1
102
RTVSPropertyOp43
 70
     1
102
RTVSPropertyOp44
 70
     1
102
RTVSPropertyOp45
 70
     1
102
RTVSPropertyOp46
 70
     1
102
RTVSPropertyOp47
 70
     1
102
RTVSPropertyOp48
 70
     1
102
RTVSPropertyOp49
 70
     1
102
RTVSPropertyOp50
 70
     1
102
RTVSPropertyOp51
 70
     0
102
RTVSPropertyOp52
 70
     0
102
RTVSPropertyOp53
 70
     1
102
RTVSPropertyOp54
 70
     1
102
RTVSPropertyOp55
 70
     1
102
RTVSPropertyOp56
 70
     1
102
RTVSPropertyOp57
 70
     1
102
RTVSPropertyOp58
 70
     1
102
RTVSPropertyOp59
 70
     1
102
RTVSPropertyOp60
 70
     1
102
RTVSPropertyOp61
 70
     1
102
RTVSPropertyOp62
 70
     1
  0
ENDSEC
  0
EOF
