  0
SECTION
  2
HEADER
  9
$ACADVER
  1
AC1015
  9
$ACADMAINTVER
 70
    20
  9
$DWGCODEPAGE
  3
ANSI_932
  9
$INSBASE
 10
0.0
 20
0.0
 30
0.0
  9
$EXTMIN
 10
139.9999999999995
 20
-0.0000000000000909
 30
0.0
  9
$EXTMAX
 10
16307.2
 20
11409.6
 30
0.0
  9
$LIMMIN
 10
0.0
 20
0.0
  9
$LIMMAX
 10
16800.0
 20
11880.0
  9
$ORTHOMODE
 70
     0
  9
$REGENMODE
 70
     1
  9
$FILLMODE
 70
     1
  9
$QTEXTMODE
 70
     0
  9
$MIRRTEXT
 70
     1
  9
$LTSCALE
 40
20.0
  9
$ATTMODE
 70
     1
  9
$TEXTSIZE
 40
100.0
  9
$TRACEWID
 40
1.0
  9
$TEXTSTYLE
  7
STYLE3
  9
$CLAYER
  8
部品1
  9
$CELTYPE
  6
BYLAYER
  9
$CECOLOR
 62
   256
  9
$CELTSCALE
 40
50.0
  9
$DISPSILH
 70
     0
  9
$DIMSCALE
 40
40.0
  9
$DIMASZ
 40
0.5
  9
$DIMEXO
 40
0.5
  9
$DIMDLI
 40
7.0
  9
$DIMRND
 40
0.0
  9
$DIMDLE
 40
0.0
  9
$DIMEXE
 40
1.0
  9
$DIMTP
 40
0.0
  9
$DIMTM
 40
0.0
  9
$DIMTXT
 40
3.0
  9
$DIMCEN
 40
0.0
  9
$DIMTSZ
 40
0.0
  9
$DIMTOL
 70
     0
  9
$DIMLIM
 70
     0
  9
$DIMTIH
 70
     0
  9
$DIMTOH
 70
     0
  9
$DIMSE1
 70
     0
  9
$DIMSE2
 70
     0
  9
$DIMTAD
 70
     3
  9
$DIMZIN
 70
     8
  9
$DIMBLK
  1

  9
$DIMASO
 70
     1
  9
$DIMSHO
 70
     1
  9
$DIMPOST
  1

  9
$DIMAPOST
  1

  9
$DIMALT
 70
     0
  9
$DIMALTD
 70
     2
  9
$DIMALTF
 40
0.0394
  9
$DIMLFAC
 40
1.0
  9
$DIMTOFL
 70
     1
  9
$DIMTVP
 40
0.0
  9
$DIMTIX
 70
     1
  9
$DIMSOXD
 70
     1
  9
$DIMSAH
 70
     1
  9
$DIMBLK1
  1
DOT
  9
$DIMBLK2
  1
DOT
  9
$DIMSTYLE
  2
INABA_S40
  9
$DIMCLRD
 70
     0
  9
$DIMCLRE
 70
     0
  9
$DIMCLRT
 70
     7
  9
$DIMTFAC
 40
1.0
  9
$DIMGAP
 40
0.8
  9
$DIMJUST
 70
     0
  9
$DIMSD1
 70
     0
  9
$DIMSD2
 70
     0
  9
$DIMTOLJ
 70
     1
  9
$DIMTZIN
 70
     0
  9
$DIMALTZ
 70
     0
  9
$DIMALTTZ
 70
     0
  9
$DIMUPT
 70
     0
  9
$DIMDEC
 70
     2
  9
$DIMTDEC
 70
     2
  9
$DIMALTU
 70
     2
  9
$DIMALTTD
 70
     2
  9
$DIMTXSTY
  7
STYLE1
  9
$DIMAUNIT
 70
     0
  9
$DIMADEC
 70
     0
  9
$DIMALTRND
 40
0.0
  9
$DIMAZIN
 70
     0
  9
$DIMDSEP
 70
    46
  9
$DIMATFIT
 70
     3
  9
$DIMFRAC
 70
     0
  9
$DIMLDRBLK
  1

  9
$DIMLUNIT
 70
     2
  9
$DIMLWD
 70
    -2
  9
$DIMLWE
 70
    -2
  9
$DIMTMOVE
 70
     0
  9
$LUNITS
 70
     2
  9
$LUPREC
 70
     1
  9
$SKETCHINC
 40
1.0
  9
$FILLETRAD
 40
5.0
  9
$AUNITS
 70
     0
  9
$AUPREC
 70
     0
  9
$MENU
  1
acad
  9
$ELEVATION
 40
0.0
  9
$PELEVATION
 40
0.0
  9
$THICKNESS
 40
0.0
  9
$LIMCHECK
 70
     0
  9
$CHAMFERA
 40
0.0
  9
$CHAMFERB
 40
0.0
  9
$CHAMFERC
 40
0.0
  9
$CHAMFERD
 40
0.0
  9
$SKPOLY
 70
     0
  9
$TDCREATE
 40
2451590.492424190
  9
$TDUCREATE
 40
2451590.117424190
  9
$TDUPDATE
 40
2455575.701759618
  9
$TDUUPDATE
 40
2455575.326759618
  9
$TDINDWG
 40
0.0658099537
  9
$TDUSRTIMER
 40
0.0658099537
  9
$USRTIMER
 70
     1
  9
$ANGBASE
 50
0.0
  9
$ANGDIR
 70
     0
  9
$PDMODE
 70
     3
  9
$PDSIZE
 40
2.0
  9
$PLINEWID
 40
0.0
  9
$SPLFRAME
 70
     0
  9
$SPLINETYPE
 70
     6
  9
$SPLINESEGS
 70
     8
  9
$HANDSEED
  5
15227
  9
$SURFTAB1
 70
     6
  9
$SURFTAB2
 70
     6
  9
$SURFTYPE
 70
     6
  9
$SURFU
 70
     6
  9
$SURFV
 70
     6
  9
$UCSBASE
  2

  9
$UCSNAME
  2

  9
$UCSORG
 10
0.0
 20
0.0
 30
0.0
  9
$UCSXDIR
 10
1.0
 20
0.0
 30
0.0
  9
$UCSYDIR
 10
0.0
 20
1.0
 30
0.0
  9
$UCSORTHOREF
  2

  9
$UCSORTHOVIEW
 70
     0
  9
$UCSORGTOP
 10
0.0
 20
0.0
 30
0.0
  9
$UCSORGBOTTOM
 10
0.0
 20
0.0
 30
0.0
  9
$UCSORGLEFT
 10
0.0
 20
0.0
 30
0.0
  9
$UCSORGRIGHT
 10
0.0
 20
0.0
 30
0.0
  9
$UCSORGFRONT
 10
0.0
 20
0.0
 30
0.0
  9
$UCSORGBACK
 10
0.0
 20
0.0
 30
0.0
  9
$PUCSBASE
  2

  9
$PUCSNAME
  2

  9
$PUCSORG
 10
0.0
 20
0.0
 30
0.0
  9
$PUCSXDIR
 10
1.0
 20
0.0
 30
0.0
  9
$PUCSYDIR
 10
0.0
 20
1.0
 30
0.0
  9
$PUCSORTHOREF
  2

  9
$PUCSORTHOVIEW
 70
     0
  9
$PUCSORGTOP
 10
0.0
 20
0.0
 30
0.0
  9
$PUCSORGBOTTOM
 10
0.0
 20
0.0
 30
0.0
  9
$PUCSORGLEFT
 10
0.0
 20
0.0
 30
0.0
  9
$PUCSORGRIGHT
 10
0.0
 20
0.0
 30
0.0
  9
$PUCSORGFRONT
 10
0.0
 20
0.0
 30
0.0
  9
$PUCSORGBACK
 10
0.0
 20
0.0
 30
0.0
  9
$USERI1
 70
     0
  9
$USERI2
 70
     0
  9
$USERI3
 70
     0
  9
$USERI4
 70
     0
  9
$USERI5
 70
     0
  9
$USERR1
 40
0.0
  9
$USERR2
 40
0.0
  9
$USERR3
 40
0.0
  9
$USERR4
 40
0.0
  9
$USERR5
 40
0.0
  9
$WORLDVIEW
 70
     1
  9
$SHADEDGE
 70
     3
  9
$SHADEDIF
 70
    70
  9
$TILEMODE
 70
     1
  9
$MAXACTVP
 70
    16
  9
$PINSBASE
 10
0.0
 20
0.0
 30
0.0
  9
$PLIMCHECK
 70
     0
  9
$PEXTMIN
 10
1.000000000000000E+20
 20
1.000000000000000E+20
 30
1.000000000000000E+20
  9
$PEXTMAX
 10
-1.000000000000000E+20
 20
-1.000000000000000E+20
 30
-1.000000000000000E+20
  9
$PLIMMIN
 10
0.0
 20
0.0
  9
$PLIMMAX
 10
420.0
 20
297.0
  9
$UNITMODE
 70
     0
  9
$VISRETAIN
 70
     0
  9
$PLINEGEN
 70
     0
  9
$PSLTSCALE
 70
     0
  9
$TREEDEPTH
 70
  3020
  9
$CMLSTYLE
  2
STANDARD
  9
$CMLJUST
 70
     0
  9
$CMLSCALE
 40
1.0
  9
$PROXYGRAPHICS
 70
     1
  9
$MEASUREMENT
 70
     1
  9
$CELWEIGHT
370
    -1
  9
$ENDCAPS
280
     0
  9
$JOINSTYLE
280
     0
  9
$LWDISPLAY
290
     0
  9
$INSUNITS
 70
     0
  9
$HYPERLINKBASE
  1

  9
$STYLESHEET
  1

  9
$XEDIT
290
     1
  9
$CEPSNTYPE
380
     0
  9
$PSTYLEMODE
290
     1
  9
$FINGERPRINTGUID
  2
{29C4B78B-51C3-4DE5-A831-B6D87135EEA5}
  9
$VERSIONGUID
  2
{3F3AC94C-39AF-4737-B5C0-898B9E060DA1}
  9
$EXTNAMES
290
     1
  9
$PSVPSCALE
 40
0.0
  9
$OLESTARTUP
290
     0
  0
ENDSEC
  0
SECTION
  2
CLASSES
  0
CLASS
  1
ACDBDICTIONARYWDFLT
  2
AcDbDictionaryWithDefault
  3
ObjectDBX Classes
 90
        0
280
     0
281
     0
  0
CLASS
  1
DICTIONARYVAR
  2
AcDbDictionaryVar
  3
ObjectDBX Classes
 90
        0
280
     0
281
     0
  0
CLASS
  1
ACDBPLACEHOLDER
  2
AcDbPlaceHolder
  3
ObjectDBX Classes
 90
        0
280
     0
281
     0
  0
CLASS
  1
LAYOUT
  2
AcDbLayout
  3
ObjectDBX Classes
 90
        0
280
     0
281
     0
  0
ENDSEC
  0
SECTION
  2
TABLES
  0
TABLE
  2
VPORT
  5
746D
330
0
100
AcDbSymbolTable
 70
     2
  0
VPORT
  5
1521F
330
746D
100
AcDbSymbolTableRecord
100
AcDbViewportTableRecord
  2
*Active
 70
     0
 10
0.0
 20
0.0
 11
1.0
 21
1.0
 12
8223.761025238502
 22
6348.683291179126
 13
0.0
 23
0.0
 14
10.0
 24
10.0
 15
10.0
 25
10.0
 16
0.0
 26
0.0
 36
1.0
 17
0.0
 27
0.0
 37
0.0
 40
12805.56644836532
 41
1.525925925925925
 42
50.0
 43
0.0
 44
0.0
 50
0.0
 51
0.0
 71
     0
 72
     0
 73
     1
 74
     0
 75
     0
 76
     0
 77
     0
 78
     0
281
     0
 65
     1
110
0.0
120
0.0
130
0.0
111
1.0
121
0.0
131
0.0
112
0.0
122
1.0
132
0.0
 79
     0
146
0.0
  0
ENDTAB
  0
TABLE
  2
LTYPE
  5
746A
330
0
100
AcDbSymbolTable
 70
     4
  0
LTYPE
  5
7477
330
746A
100
AcDbSymbolTableRecord
100
AcDbLinetypeTableRecord
  2
BYBLOCK
 70
     0
  3

 72
    65
 73
     0
 40
0.0
  0
LTYPE
  5
7478
330
746A
100
AcDbSymbolTableRecord
100
AcDbLinetypeTableRecord
  2
BYLAYER
 70
     0
  3

 72
    65
 73
     0
 40
0.0
  0
LTYPE
  5
7479
330
746A
100
AcDbSymbolTableRecord
100
AcDbLinetypeTableRecord
  2
CONTINUOUS
 70
     0
  3
Solid line
 72
    65
 73
     0
 40
0.0
  0
LTYPE
  5
7816
330
746A
100
AcDbSymbolTableRecord
100
AcDbLinetypeTableRecord
  2
CENTER
 70
     0
  3
____ _ ____ _ ____ _ ____ _ ____ _ ____ _ ____ 
 72
    65
 73
     4
 40
2.0
 49
1.25
 74
     0
 49
-0.25
 74
     0
 49
0.25
 74
     0
 49
-0.25
 74
     0
  0
LTYPE
  5
781A
330
746A
100
AcDbSymbolTableRecord
100
AcDbLinetypeTableRecord
  2
HIDDEN
 70
     0
  3
__ __ __ __ __ __ __ __ __ __ __ __ __ __ __ __
 72
    65
 73
     2
 40
0.375
 49
0.25
 74
     0
 49
-0.125
 74
     0
  0
LTYPE
  5
781B
330
746A
100
AcDbSymbolTableRecord
100
AcDbLinetypeTableRecord
  2
PHANTOM
 70
     0
  3
______  __  __  ______  __  __  ______  __  __ 
 72
    65
 73
     6
 40
2.5
 49
1.25
 74
     0
 49
-0.25
 74
     0
 49
0.25
 74
     0
 49
-0.25
 74
     0
 49
0.25
 74
     0
 49
-0.25
 74
     0
  0
ENDTAB
  0
TABLE
  2
LAYER
  5
7467
102
{ACAD_XDICTIONARY
360
13811
102
}
330
0
100
AcDbSymbolTable
 70
    12
  0
LAYER
  5
7474
330
7467
100
AcDbSymbolTableRecord
100
AcDbLayerTableRecord
  2
0
 70
     0
 62
     7
  6
CONTINUOUS
370
    -3
390
13693
  0
LAYER
  5
DEB2
330
7467
100
AcDbSymbolTableRecord
100
AcDbLayerTableRecord
  2
センター
 70
     0
 62
     3
  6
CENTER
370
    -3
390
13693
  0
LAYER
  5
DEB3
330
7467
100
AcDbSymbolTableRecord
100
AcDbLayerTableRecord
  2
寸法
 70
     0
 62
     4
  6
CONTINUOUS
370
    -3
390
13693
  0
LAYER
  5
DEB4
330
7467
100
AcDbSymbolTableRecord
100
AcDbLayerTableRecord
  2
部品1
 70
     0
 62
     7
  6
CONTINUOUS
370
    -3
390
13693
  0
LAYER
  5
DEB5
330
7467
100
AcDbSymbolTableRecord
100
AcDbLayerTableRecord
  2
補助
 70
     0
 62
    -1
  6
CONTINUOUS
370
    -3
390
13693
  0
LAYER
  5
DEB6
330
7467
100
AcDbSymbolTableRecord
100
AcDbLayerTableRecord
  2
文字
 70
     0
 62
     7
  6
CONTINUOUS
370
    -3
390
13693
  0
LAYER
  5
F255
330
7467
100
AcDbSymbolTableRecord
100
AcDbLayerTableRecord
  2
DEFPOINTS
 70
     0
 62
     7
  6
CONTINUOUS
290
     0
370
    -3
390
13693
  0
LAYER
  5
10B54
330
7467
100
AcDbSymbolTableRecord
100
AcDbLayerTableRecord
  2
仕様書枠
 70
     0
 62
   230
  6
CONTINUOUS
370
    -3
390
13693
  0
LAYER
  5
11729
330
7467
100
AcDbSymbolTableRecord
100
AcDbLayerTableRecord
  2
Ｇ．Ｌ
 70
     0
 62
    30
  6
CONTINUOUS
370
    -3
390
13693
  0
LAYER
  5
1173F
330
7467
100
AcDbSymbolTableRecord
100
AcDbLayerTableRecord
  2
細線
 70
     0
 62
     5
  6
CONTINUOUS
370
    -3
390
13693
  0
LAYER
  5
11740
330
7467
100
AcDbSymbolTableRecord
100
AcDbLayerTableRecord
  2
点線
 70
     0
 62
     2
  6
HIDDEN
370
    -3
390
13693
  0
LAYER
  5
11905
330
7467
100
AcDbSymbolTableRecord
100
AcDbLayerTableRecord
  2
破線
 70
     0
 62
     2
  6
HIDDEN
370
    -3
390
13693
  0
ENDTAB
  0
TABLE
  2
STYLE
  5
7468
330
0
100
AcDbSymbolTable
 70
     7
  0
STYLE
  5
7475
330
7468
100
AcDbSymbolTableRecord
100
AcDbTextStyleTableRecord
  2
STANDARD
 70
     0
 40
0.0
 41
1.0
 50
0.0
 71
     0
 42
4.0
  3
txt
  4
C:\AutoCAD LT\bigfont.shx
  0
STYLE
  5
763C
330
7468
100
AcDbSymbolTableRecord
100
AcDbTextStyleTableRecord
  2
MSMINCHO
 70
     0
 40
0.0
 41
1.0
 50
0.0
 71
     0
 42
1.199999999999999
  3
C:\AutoCAD LT\msminch2.TTF
  4

  0
STYLE
  5
F5E9
330
7468
100
AcDbSymbolTableRecord
100
AcDbTextStyleTableRecord
  2

 70
     1
 40
0.0
 41
1.0
 50
0.0
 71
     0
 42
4.0
  3
ltypeshp.shx
  4

  0
STYLE
  5
F706
330
7468
100
AcDbSymbolTableRecord
100
AcDbTextStyleTableRecord
  2
STYLE1
 70
     0
 40
0.0
 41
1.0
 50
0.0
 71
     0
 42
4.0
  3
isocp.shx
  4
bigfont.shx
  0
STYLE
  5
103BF
330
7468
100
AcDbSymbolTableRecord
100
AcDbTextStyleTableRecord
  2
STYLE2
 70
     0
 40
0.0
 41
1.0
 50
0.0
 71
     0
 42
100.0
  3
MS PGothic.ttf
  4

1001
ACAD
1000
MS PGothic
1071
    32818
  0
STYLE
  5
10BAA
330
7468
100
AcDbSymbolTableRecord
100
AcDbTextStyleTableRecord
  2
STYLE3
 70
     0
 40
0.0
 41
1.0
 50
0.0
 71
     0
 42
100.0
  3

  4

1001
ACAD
1000
DFPGothic-EB
1071
    32818
  0
STYLE
  5
11906
330
7468
100
AcDbSymbolTableRecord
100
AcDbTextStyleTableRecord
  2
MSGOTHIC
 70
     0
 40
0.0
 41
1.0
 50
0.0
 71
     0
 42
3.5
  3
msgothi2.ttf
  4

  0
ENDTAB
  0
TABLE
  2
VIEW
  5
746B
330
0
100
AcDbSymbolTable
 70
     0
  0
ENDTAB
  0
TABLE
  2
UCS
  5
746C
330
0
100
AcDbSymbolTable
 70
     0
  0
ENDTAB
  0
TABLE
  2
APPID
  5
746E
330
0
100
AcDbSymbolTable
 70
     6
  0
APPID
  5
7476
330
746E
100
AcDbSymbolTableRecord
100
AcDbRegAppTableRecord
  2
ACAD
 70
     0
  0
APPID
  5
DEA9
330
746E
100
AcDbSymbolTableRecord
100
AcDbRegAppTableRecord
  2
CONTENTBLOCKICON
 70
     0
  0
APPID
  5
DEAA
330
746E
100
AcDbSymbolTableRecord
100
AcDbRegAppTableRecord
  2
CONTENTBLOCKDESCRIPTION
 70
     0
  0
APPID
  5
E71D
330
746E
100
AcDbSymbolTableRecord
100
AcDbRegAppTableRecord
  2
CONTENTTABDATA
 70
     0
  0
APPID
  5
E71E
330
746E
100
AcDbSymbolTableRecord
100
AcDbRegAppTableRecord
  2
CONTENTCURRENTTAB
 70
     0
  0
APPID
  5
F3BA
330
746E
100
AcDbSymbolTableRecord
100
AcDbRegAppTableRecord
  2
DRAWINGVARIABLESXDATA
 70
     0
  0
ENDTAB
  0
TABLE
  2
DIMSTYLE
  5
746F
330
0
100
AcDbSymbolTable
 70
     7
100
AcDbDimStyleTable
 71
     0
  0
DIMSTYLE
105
7484
330
746F
100
AcDbSymbolTableRecord
100
AcDbDimStyleTableRecord
  2
JIS
 70
     0
 41
2.5
 42
1.0
 43
7.0
 44
1.0
 73
     0
 74
     0
 77
     1
 78
     8
140
2.5
141
0.0
143
0.0394
147
0.0
172
     1
174
     1
175
     1
340
7475
  0
DIMSTYLE
105
F236
102
{ACAD_REACTORS
330
13DC8
330
13DD3
330
13E1B
330
13E32
330
13E33
330
13E5A
330
13E5B
330
13E5C
330
13E5D
330
13E5E
330
14486
330
14B54
330
14E23
330
14F20
330
14F5B
102
}
330
746F
100
AcDbSymbolTableRecord
100
AcDbDimStyleTableRecord
  2
INABA_S40
 70
     0
 40
40.0
 41
2.5
 42
0.5
 43
7.0
 44
1.5
 73
     0
 74
     0
 77
     3
 78
     8
140
3.0
141
0.0
143
0.0394
147
1.0
172
     1
173
     1
174
     1
175
     1
178
     7
289
     0
340
7475
  0
DIMSTYLE
105
F71F
102
{ACAD_REACTORS
330
13CDD
330
13CF6
330
13CF7
330
13CF8
330
14489
330
1448A
330
1448B
330
144BB
330
144BF
330
144C0
330
144C1
330
144CF
330
144DE
330
14E24
102
}
330
746F
100
AcDbSymbolTableRecord
100
AcDbDimStyleTableRecord
  2
INABA_S40G
 70
     0
 40
40.0
 41
2.5
 42
0.5
 43
7.0
 44
1.5
 73
     0
 74
     0
 77
     3
 78
     8
140
3.0
141
0.0
143
0.0394
147
1.0
172
     1
173
     1
174
     1
175
     1
178
     7
271
     1
340
F706
341
F770
343
F770
344
F770
  0
DIMSTYLE
105
11907
330
746F
100
AcDbSymbolTableRecord
100
AcDbDimStyleTableRecord
  2
INABA_S50
 70
     0
 40
50.0
 41
0.5
 42
0.5
 43
7.0
 44
1.0
 73
     0
 74
     0
 77
     3
 78
     8
140
2.5
141
0.0
143
0.0394
147
0.8
172
     1
173
     1
174
     1
175
     1
178
     7
271
     2
272
     2
289
     0
340
7475
341
F744
343
F744
344
F744
  0
DIMSTYLE
105
11908
330
746F
100
AcDbSymbolTableRecord
100
AcDbDimStyleTableRecord
  2
INABA_S50G
 70
     0
 41
125.0
 42
25.0
 43
7.0
 44
75.0
 73
     0
 74
     0
 77
     3
 78
     8
140
150.0
141
0.0
143
0.0394
147
25.0
172
     1
173
     1
174
     1
175
     1
178
     7
271
     1
340
F706
341
F770
343
F770
344
F770
  0
DIMSTYLE
105
13488
330
746F
100
AcDbSymbolTableRecord
100
AcDbDimStyleTableRecord
  2
INABA_S60G
 70
     0
 40
60.0
 41
2.5
 42
0.5
 43
7.0
 44
1.5
 73
     0
 74
     0
 77
     3
 78
     8
140
3.0
141
0.0
143
0.0394
147
1.0
172
     1
173
     1
174
     1
178
     7
271
     1
340
F706
341
F770
343
F770
344
F770
  0
DIMSTYLE
105
151B6
330
746F
100
AcDbSymbolTableRecord
100
AcDbDimStyleTableRecord
  2
INABA_S20G
 70
     0
 40
20.0
 41
2.5
 42
0.5
 43
7.0
 44
1.5
 73
     0
 74
     0
 77
     3
 78
     8
140
3.0
141
0.0
143
0.0394
147
1.0
172
     1
173
     1
174
     1
178
     7
271
     1
340
F706
341
F770
343
F770
344
F770
  0
ENDTAB
  0
TABLE
  2
BLOCK_RECORD
  5
7466
330
0
100
AcDbSymbolTable
 70
    32
  0
BLOCK_RECORD
  5
747D
330
7466
100
AcDbSymbolTableRecord
100
AcDbBlockTableRecord
  2
*MODEL_SPACE
340
13698
  0
BLOCK_RECORD
  5
747A
330
7466
100
AcDbSymbolTableRecord
100
AcDbBlockTableRecord
  2
*PAPER_SPACE
340
13699
  0
BLOCK_RECORD
  5
ECB3
330
7466
100
AcDbSymbolTableRecord
100
AcDbBlockTableRecord
  2
作図枠S50
340
0
310
2800000020000000200000000100040000000000000200000000000000000000000000000000000000000000000080000080000000808000800000008000800080800000C0C0C000808080000000FF0000FF000000FFFF00FF000000FF00FF00FFFF0000FFFFFF00FFFFFFFFFFFFFFFFFFFFFFFFFFFFFFFFFFFFFFFFFFFFFF
310
FFFFFFFFFFFFFFFFFFFFFFFFFFFFFFFFFFFFFFFFFFFFFFFFFFFFFFFFFFFFFFFFFFFFFFFFFFFFFFFFFFFFFFFFFFFFFFFFFFFFFFFFFFFFFFFFFFFFFFFFFFFFFFFFFFFFFFFFFFFFFFFFFF999999999999999999999999999999999FFFFFFFFFFFFFFFFFFFFFFFFFFFFFF99FFFFFFFFFFFFFFFFFFFFFFFFFFFFFF99FFFFFFFFFFF
310
FFFFFFFFFFFFFFFFFFF99FFFFFFFFFFFFFFFFFFFFFFFFFFFFFF99FFFFFFFFFFFFFFFFFFFFFFFFFFFFFF99FFFFFFFFFFFFFFFFFFFFFFFFFFFFFF99FFFFFFFFFFFFFFFFFFFFFFFFFFFFFF99FFFFFFFFFFFFFFFFFFFFFFFFFFFFFF99FFFFFFFFFFFFFFFFFFFFFFFFFFFFFF99FFFFFFFFFFFFFFFFFFFFFFFFFFFFFF99FFFFFFFFF
310
FFFFFFFFFFFFFFFFFFFFF99FFFFFFFFFFFFFFFFFFFFFFFFFFFFFF99FFFFFFFFFFFFFFFFFFFFFFFFFFFFFF99FFFFFFFFFFFFFFFFFFFFFFFFFFFFFF99FFFFFFFFFFFFFFFFFFFFFFFFFFFFFF99FFFFFFFFFFFFFFFFFFFFFFFFFFFFFF99FFFFFFFFFFFFFFFFFFFFFFFFFFFFFF99FFFFFFFFFFFFFFFFFFFFF99999999999FFFFFFF
310
FFFFFFFFFFFFFF9FFFFFFFFF99999999999999999999999FFFFFFFFFFFFFFFFFFFFFFFFFFFFFFFFFFFFFFFFFFFFFFFFFFFFFFFFFFFFFFFFFFFFFFFFFFFFFFFFFFFFFFFFFFFFFFFFFFFFFFFFFFFFFFFFFFFFFFFFFFFFFFFFFFFFFFFFFFFFFFFFFFFFFFFFFFFFFFFFFFFFFFFFF
102
{BLKREFS
331
F235
102
}
  0
BLOCK_RECORD
  5
F744
330
7466
100
AcDbSymbolTableRecord
100
AcDbBlockTableRecord
  2
_DOT
340
0
102
{BLKREFS
331
14A12
331
14A13
331
150E7
331
150E8
331
150F0
331
150F1
331
15104
331
15105
331
1510D
331
1510E
331
15118
331
15119
331
15121
331
15122
331
1512C
331
1512D
331
15135
331
15136
331
15140
331
15141
331
15149
331
1514A
331
15152
331
15153
331
1515D
331
1515E
331
15166
331
15167
331
1516F
331
15170
102
}
  0
BLOCK_RECORD
  5
F770
330
7466
100
AcDbSymbolTableRecord
100
AcDbBlockTableRecord
  2
_DOTSMALL
340
0
102
{BLKREFS
331
14981
331
14982
331
1498A
331
1498B
331
14993
331
14994
331
1499E
331
1499F
331
149BC
331
149BD
331
149C6
331
149C7
331
149CF
331
149D0
331
149DA
331
149DB
331
149E3
331
149E4
331
149EE
331
149EF
331
149F7
331
149F8
331
14A00
331
14A01
331
14A09
331
14A0A
331
150F9
331
150FA
102
}
  0
BLOCK_RECORD
  5
13E85
330
7466
100
AcDbSymbolTableRecord
100
AcDbBlockTableRecord
  2
*D3
340
0
  0
BLOCK_RECORD
  5
13E93
330
7466
100
AcDbSymbolTableRecord
100
AcDbBlockTableRecord
  2
*D4
340
0
  0
BLOCK_RECORD
  5
13E9F
330
7466
100
AcDbSymbolTableRecord
100
AcDbBlockTableRecord
  2
*D5
340
0
  0
BLOCK_RECORD
  5
13EAB
330
7466
100
AcDbSymbolTableRecord
100
AcDbBlockTableRecord
  2
*D6
340
0
  0
BLOCK_RECORD
  5
13F37
330
7466
100
AcDbSymbolTableRecord
100
AcDbBlockTableRecord
  2
*D7
340
0
  0
BLOCK_RECORD
  5
13F43
330
7466
100
AcDbSymbolTableRecord
100
AcDbBlockTableRecord
  2
*D8
340
0
  0
BLOCK_RECORD
  5
13F5B
330
7466
100
AcDbSymbolTableRecord
100
AcDbBlockTableRecord
  2
*D9
340
0
  0
BLOCK_RECORD
  5
13F75
330
7466
100
AcDbSymbolTableRecord
100
AcDbBlockTableRecord
  2
*D10
340
0
  0
BLOCK_RECORD
  5
13F81
330
7466
100
AcDbSymbolTableRecord
100
AcDbBlockTableRecord
  2
*D11
340
0
  0
BLOCK_RECORD
  5
13F8D
330
7466
100
AcDbSymbolTableRecord
100
AcDbBlockTableRecord
  2
*D12
340
0
  0
BLOCK_RECORD
  5
13F9B
330
7466
100
AcDbSymbolTableRecord
100
AcDbBlockTableRecord
  2
*D13
340
0
  0
BLOCK_RECORD
  5
13FA7
330
7466
100
AcDbSymbolTableRecord
100
AcDbBlockTableRecord
  2
*D14
340
0
  0
BLOCK_RECORD
  5
13FB5
330
7466
100
AcDbSymbolTableRecord
100
AcDbBlockTableRecord
  2
*D15
340
0
  0
BLOCK_RECORD
  5
13FC1
330
7466
100
AcDbSymbolTableRecord
100
AcDbBlockTableRecord
  2
*D16
340
0
  0
BLOCK_RECORD
  5
145FD
330
7466
100
AcDbSymbolTableRecord
100
AcDbBlockTableRecord
  2
*D17
340
0
  0
BLOCK_RECORD
  5
14609
330
7466
100
AcDbSymbolTableRecord
100
AcDbBlockTableRecord
  2
*D18
340
0
  0
BLOCK_RECORD
  5
14615
330
7466
100
AcDbSymbolTableRecord
100
AcDbBlockTableRecord
  2
*D19
340
0
  0
BLOCK_RECORD
  5
14621
330
7466
100
AcDbSymbolTableRecord
100
AcDbBlockTableRecord
  2
*D20
340
0
  0
BLOCK_RECORD
  5
1462D
330
7466
100
AcDbSymbolTableRecord
100
AcDbBlockTableRecord
  2
*D21
340
0
  0
BLOCK_RECORD
  5
1463B
330
7466
100
AcDbSymbolTableRecord
100
AcDbBlockTableRecord
  2
*D22
340
0
  0
BLOCK_RECORD
  5
14647
330
7466
100
AcDbSymbolTableRecord
100
AcDbBlockTableRecord
  2
*D23
340
0
  0
BLOCK_RECORD
  5
14655
330
7466
100
AcDbSymbolTableRecord
100
AcDbBlockTableRecord
  2
*D24
340
0
  0
BLOCK_RECORD
  5
14661
330
7466
100
AcDbSymbolTableRecord
100
AcDbBlockTableRecord
  2
*D25
340
0
  0
BLOCK_RECORD
  5
1466E
330
7466
100
AcDbSymbolTableRecord
100
AcDbBlockTableRecord
  2
*D26
340
0
  0
BLOCK_RECORD
  5
14BBF
330
7466
100
AcDbSymbolTableRecord
100
AcDbBlockTableRecord
  2
*D27
340
0
  0
BLOCK_RECORD
  5
14F6F
330
7466
100
AcDbSymbolTableRecord
100
AcDbBlockTableRecord
  2
*D28
340
0
  0
BLOCK_RECORD
  5
14F7D
330
7466
100
AcDbSymbolTableRecord
100
AcDbBlockTableRecord
  2
*D29
340
0
  0
BLOCK_RECORD
  5
14FAD
330
7466
100
AcDbSymbolTableRecord
100
AcDbBlockTableRecord
  2
*D30
340
0
  0
BLOCK_RECORD
  5
14FC7
330
7466
100
AcDbSymbolTableRecord
100
AcDbBlockTableRecord
  2
*D31
340
0
  0
ENDTAB
  0
ENDSEC
  0
SECTION
  2
BLOCKS
  0
BLOCK
  5
7489
330
747D
100
AcDbEntity
  8
0
100
AcDbBlockBegin
  2
*MODEL_SPACE
 70
     0
 10
0.0
 20
0.0
 30
0.0
  3
*MODEL_SPACE
  1

  0
ENDBLK
  5
748A
330
747D
100
AcDbEntity
  8
0
100
AcDbBlockEnd
  0
BLOCK
  5
7487
330
747A
100
AcDbEntity
 67
     1
  8
0
100
AcDbBlockBegin
  2
*PAPER_SPACE
 70
     0
 10
0.0
 20
0.0
 30
0.0
  3
*PAPER_SPACE
  1

  0
ENDBLK
  5
7488
330
747A
100
AcDbEntity
 67
     1
  8
0
100
AcDbBlockEnd
  0
BLOCK
  5
ECB4
330
ECB3
100
AcDbEntity
  8
0
100
AcDbBlockBegin
  2
作図枠S50
 70
     0
 10
0.0
 20
0.0
 30
0.0
  3
作図枠S50
  1

  4
作図領域枠 縮尺 1/50
  0
LINE
  5
ECB5
330
ECB3
100
AcDbEntity
  8
補助
100
AcDbLine
 10
14364.0
 20
14262.0
 30
0.0
 11
174.9999999999993
 21
14262.0
 31
0.0
  0
LINE
  5
ECB6
330
ECB3
100
AcDbEntity
  8
補助
100
AcDbLine
 10
174.9999999999993
 20
14262.0
 30
0.0
 11
174.9999999999993
 21
1520.0
 31
0.0
  0
LINE
  5
ECB7
330
ECB3
100
AcDbEntity
  8
補助
100
AcDbLine
 10
174.9999999999993
 20
1520.0
 30
0.0
 11
20384.0
 21
1520.0
 31
0.0
  0
LINE
  5
ECB8
330
ECB3
100
AcDbEntity
  8
補助
100
AcDbLine
 10
20384.0
 20
1520.0
 30
0.0
 11
20384.0
 21
13042.0
 31
0.0
  0
LINE
  5
ECB9
330
ECB3
100
AcDbEntity
  8
補助
100
AcDbLine
 10
20384.0
 20
13042.0
 30
0.0
 11
14364.0
 21
13042.0
 31
0.0
  0
LINE
  5
ECBA
330
ECB3
100
AcDbEntity
  8
補助
100
AcDbLine
 10
14364.0
 20
13042.0
 30
0.0
 11
14364.0
 21
14262.0
 31
0.0
  0
ENDBLK
  5
ECBB
330
ECB3
100
AcDbEntity
  8
0
100
AcDbBlockEnd
  0
BLOCK
  5
F745
330
F744
100
AcDbEntity
  8
0
 48
50.0
100
AcDbBlockBegin
  2
_DOT
 70
     0
 10
0.0
 20
0.0
 30
0.0
  3
_DOT
  1

  0
LWPOLYLINE
  5
F746
330
F744
100
AcDbEntity
  8
0
  6
ByBlock
 62
     0
 48
50.0
100
AcDbPolyline
 90
        2
 70
     1
 43
0.5
 10
-0.25
 20
0.0
 42
1.0
 10
0.25
 20
0.0
 42
1.0
  0
LINE
  5
F74A
330
F744
100
AcDbEntity
  8
0
  6
ByBlock
 62
     0
 48
50.0
100
AcDbLine
 10
-0.5
 20
0.0
 30
0.0
 11
-1.0
 21
0.0
 31
0.0
  0
ENDBLK
  5
F74B
330
F744
100
AcDbEntity
  8
0
 48
50.0
100
AcDbBlockEnd
  0
BLOCK
  5
F771
330
F770
100
AcDbEntity
  8
0
 48
50.0
100
AcDbBlockBegin
  2
_DOTSMALL
 70
     0
 10
0.0
 20
0.0
 30
0.0
  3
_DOTSMALL
  1

  0
LWPOLYLINE
  5
F772
330
F770
100
AcDbEntity
  8
0
  6
ByBlock
 62
     0
 48
50.0
100
AcDbPolyline
 90
        2
 70
     1
 43
0.5
 10
-0.0625
 20
0.0
 42
1.0
 10
0.0625
 20
0.0
 42
1.0
  0
ENDBLK
  5
F776
330
F770
100
AcDbEntity
  8
0
 48
50.0
100
AcDbBlockEnd
  0
BLOCK
  5
13E91
330
13E85
100
AcDbEntity
  8
0
 48
50.0
100
AcDbBlockBegin
  2
*D3
 70
     1
 10
0.0
 20
0.0
 30
0.0
  3
*D3
  1

  0
LINE
  5
14999
330
13E85
100
AcDbEntity
  8
寸法
 62
     0
 48
50.0
370
    -2
100
AcDbLine
 10
8860.622108757267
 20
4683.112805903258
 30
0.0
 11
8860.622108757267
 21
4935.654391161499
 31
0.0
  0
LINE
  5
1499A
330
13E85
100
AcDbEntity
  8
寸法
 62
     0
 48
50.0
370
    -2
100
AcDbLine
 10
8810.622108757266
 20
4683.11280590326
 30
0.0
 11
8810.622108757266
 21
4935.654391161499
 31
0.0
  0
LINE
  5
1499B
330
13E85
100
AcDbEntity
  8
寸法
 62
     0
 48
50.0
370
    -2
100
AcDbLine
 10
8810.622108757266
 20
4875.654391161499
 30
0.0
 11
8710.622108757267
 21
4875.654391161499
 31
0.0
  0
LINE
  5
1499C
330
13E85
100
AcDbEntity
  8
寸法
 62
     0
 48
50.0
370
    -2
100
AcDbLine
 10
8860.622108757267
 20
4875.654391161499
 30
0.0
 11
9280.15463422599
 21
4875.654391161499
 31
0.0
  0
LINE
  5
1499D
330
13E85
100
AcDbEntity
  8
寸法
 62
     0
 48
50.0
370
    -2
100
AcDbLine
 10
8810.622108757266
 20
4875.654391161499
 30
0.0
 11
8860.622108757267
 21
4875.654391161499
 31
0.0
  0
INSERT
  5
1499E
330
13E85
100
AcDbEntity
  8
寸法
 62
     0
 48
50.0
370
    -2
100
AcDbBlockReference
  2
_DOTSMALL
 10
8810.622108757266
 20
4875.654391161499
 30
0.0
 41
100.0
 42
100.0
 43
100.0
  0
INSERT
  5
1499F
330
13E85
100
AcDbEntity
  8
寸法
 62
     0
 48
50.0
370
    -2
100
AcDbBlockReference
  2
_DOTSMALL
 10
8860.622108757267
 20
4875.654391161499
 30
0.0
 41
100.0
 42
100.0
 43
100.0
 50
180.0
  0
MTEXT
  5
149A0
330
13E85
100
AcDbEntity
  8
寸法
 62
     7
 48
50.0
100
AcDbMText
 10
9174.107390131503
 20
4975.654391161499
 30
0.0
 40
120.0
 41
0.0
 71
     5
 72
     1
  1
\A1;50
  7
STYLE1
 73
     1
 44
1.0
1001
ACAD
1000
MTEXTBEGIN
1070
    73
1070
     1
1070
    44
1040
1.0
1070
    74
1070
     0
1000
MTEXTEND
  0
POINT
  5
149A1
330
13E85
100
AcDbEntity
  8
DEFPOINTS
 62
     0
 48
50.0
100
AcDbPoint
 10
8860.622108757267
 20
4663.112805903258
 30
0.0
  0
POINT
  5
149A2
330
13E85
100
AcDbEntity
  8
DEFPOINTS
 62
     0
 48
50.0
100
AcDbPoint
 10
8810.622108757266
 20
4663.112805903259
 30
0.0
  0
POINT
  5
149A3
330
13E85
100
AcDbEntity
  8
DEFPOINTS
 62
     0
 48
50.0
100
AcDbPoint
 10
8810.622108757266
 20
4875.654391161499
 30
0.0
  0
ENDBLK
  5
13E92
330
13E85
100
AcDbEntity
  8
0
 48
50.0
100
AcDbBlockEnd
  0
BLOCK
  5
13E9D
330
13E93
100
AcDbEntity
  8
0
 48
50.0
100
AcDbBlockBegin
  2
*D4
 70
     1
 10
0.0
 20
0.0
 30
0.0
  3
*D4
  1

  0
LINE
  5
14990
330
13E93
100
AcDbEntity
  8
寸法
 62
     0
 48
50.0
370
    -2
100
AcDbLine
 10
8810.622108757266
 20
4683.11280590326
 30
0.0
 11
8810.622108757266
 21
4935.6543911615
 31
0.0
  0
LINE
  5
14991
330
13E93
100
AcDbEntity
  8
寸法
 62
     0
 48
50.0
370
    -2
100
AcDbLine
 10
1870.622108757263
 20
4683.112805903264
 30
0.0
 11
1870.622108757263
 21
4935.6543911615
 31
0.0
  0
LINE
  5
14992
330
13E93
100
AcDbEntity
  8
寸法
 62
     0
 48
50.0
370
    -2
100
AcDbLine
 10
8810.622108757266
 20
4875.6543911615
 30
0.0
 11
1870.622108757263
 21
4875.6543911615
 31
0.0
  0
INSERT
  5
14993
330
13E93
100
AcDbEntity
  8
寸法
 62
     0
 48
50.0
370
    -2
100
AcDbBlockReference
  2
_DOTSMALL
 10
8810.622108757266
 20
4875.6543911615
 30
0.0
 41
100.0
 42
100.0
 43
100.0
  0
INSERT
  5
14994
330
13E93
100
AcDbEntity
  8
寸法
 62
     0
 48
50.0
370
    -2
100
AcDbBlockReference
  2
_DOTSMALL
 10
1870.622108757263
 20
4875.6543911615
 30
0.0
 41
100.0
 42
100.0
 43
100.0
 50
180.0
  0
MTEXT
  5
14995
330
13E93
100
AcDbEntity
  8
寸法
 62
     7
 48
50.0
100
AcDbMText
 10
5340.622108757263
 20
4975.6543911615
 30
0.0
 40
120.0
 41
0.0
 71
     5
 72
     1
  1
\A1;柱外寸法6940
  7
STYLE1
 73
     1
 44
1.0
1001
ACAD
1000
MTEXTBEGIN
1070
    73
1070
     1
1070
    44
1040
1.0
1070
    74
1070
     0
1000
MTEXTEND
  0
POINT
  5
14996
330
13E93
100
AcDbEntity
  8
DEFPOINTS
 62
     0
 48
50.0
100
AcDbPoint
 10
8810.622108757266
 20
4663.112805903259
 30
0.0
  0
POINT
  5
14997
330
13E93
100
AcDbEntity
  8
DEFPOINTS
 62
     0
 48
50.0
100
AcDbPoint
 10
1870.622108757263
 20
4663.112805903264
 30
0.0
  0
POINT
  5
14998
330
13E93
100
AcDbEntity
  8
DEFPOINTS
 62
     0
 48
50.0
100
AcDbPoint
 10
1870.622108757263
 20
4875.6543911615
 30
0.0
  0
ENDBLK
  5
13E9E
330
13E93
100
AcDbEntity
  8
0
 48
50.0
100
AcDbBlockEnd
  0
BLOCK
  5
13EA9
330
13E9F
100
AcDbEntity
  8
0
 48
50.0
100
AcDbBlockBegin
  2
*D5
 70
     1
 10
0.0
 20
0.0
 30
0.0
  3
*D5
  1

  0
LINE
  5
14987
330
13E9F
100
AcDbEntity
  8
寸法
 62
     0
 48
50.0
370
    -2
100
AcDbLine
 10
1820.622108757263
 20
4683.112805903262
 30
0.0
 11
1820.622108757263
 21
5156.55969163525
 31
0.0
  0
LINE
  5
14988
330
13E9F
100
AcDbEntity
  8
寸法
 62
     0
 48
50.0
370
    -2
100
AcDbLine
 10
8860.622108757267
 20
4683.112805903258
 30
0.0
 11
8860.622108757267
 21
5156.55969163525
 31
0.0
  0
LINE
  5
14989
330
13E9F
100
AcDbEntity
  8
寸法
 62
     0
 48
50.0
370
    -2
100
AcDbLine
 10
1820.622108757263
 20
5096.559691635249
 30
0.0
 11
8860.622108757267
 21
5096.559691635249
 31
0.0
  0
INSERT
  5
1498A
330
13E9F
100
AcDbEntity
  8
寸法
 62
     0
 48
50.0
370
    -2
100
AcDbBlockReference
  2
_DOTSMALL
 10
1820.622108757263
 20
5096.559691635249
 30
0.0
 41
100.0
 42
100.0
 43
100.0
 50
180.0
  0
INSERT
  5
1498B
330
13E9F
100
AcDbEntity
  8
寸法
 62
     0
 48
50.0
370
    -2
100
AcDbBlockReference
  2
_DOTSMALL
 10
8860.622108757267
 20
5096.559691635249
 30
0.0
 41
100.0
 42
100.0
 43
100.0
  0
MTEXT
  5
1498C
330
13E9F
100
AcDbEntity
  8
寸法
 62
     7
 48
50.0
100
AcDbMText
 10
5340.622108757263
 20
5196.55969163525
 30
0.0
 40
120.0
 41
0.0
 71
     5
 72
     1
  1
\A1;7040
  7
STYLE1
 73
     1
 44
1.0
1001
ACAD
1000
MTEXTBEGIN
1070
    73
1070
     1
1070
    44
1040
1.0
1070
    74
1070
     0
1000
MTEXTEND
  0
POINT
  5
1498D
330
13E9F
100
AcDbEntity
  8
DEFPOINTS
 62
     0
 48
50.0
100
AcDbPoint
 10
1820.622108757263
 20
4663.112805903263
 30
0.0
  0
POINT
  5
1498E
330
13E9F
100
AcDbEntity
  8
DEFPOINTS
 62
     0
 48
50.0
100
AcDbPoint
 10
8860.622108757267
 20
4663.112805903258
 30
0.0
  0
POINT
  5
1498F
330
13E9F
100
AcDbEntity
  8
DEFPOINTS
 62
     0
 48
50.0
100
AcDbPoint
 10
8860.622108757267
 20
5096.559691635249
 30
0.0
  0
ENDBLK
  5
13EAA
330
13E9F
100
AcDbEntity
  8
0
 48
50.0
100
AcDbBlockEnd
  0
BLOCK
  5
13EB7
330
13EAB
100
AcDbEntity
  8
0
 48
50.0
100
AcDbBlockBegin
  2
*D6
 70
     1
 10
0.0
 20
0.0
 30
0.0
  3
*D6
  1

  0
LINE
  5
1497C
330
13EAB
100
AcDbEntity
  8
寸法
 62
     0
 48
50.0
370
    -2
100
AcDbLine
 10
1870.622108757263
 20
4683.112805903264
 30
0.0
 11
1870.622108757263
 21
4935.654391161502
 31
0.0
  0
LINE
  5
1497D
330
13EAB
100
AcDbEntity
  8
寸法
 62
     0
 48
50.0
370
    -2
100
AcDbLine
 10
1820.622108757263
 20
4683.112805903262
 30
0.0
 11
1820.622108757263
 21
4935.654391161502
 31
0.0
  0
LINE
  5
1497E
330
13EAB
100
AcDbEntity
  8
寸法
 62
     0
 48
50.0
370
    -2
100
AcDbLine
 10
1870.622108757263
 20
4875.654391161502
 30
0.0
 11
1970.622108757263
 21
4875.654391161502
 31
0.0
  0
LINE
  5
1497F
330
13EAB
100
AcDbEntity
  8
寸法
 62
     0
 48
50.0
370
    -2
100
AcDbLine
 10
1820.622108757263
 20
4875.654391161502
 30
0.0
 11
1401.089583288527
 21
4875.654391161502
 31
0.0
  0
LINE
  5
14980
330
13EAB
100
AcDbEntity
  8
寸法
 62
     0
 48
50.0
370
    -2
100
AcDbLine
 10
1870.622108757263
 20
4875.654391161502
 30
0.0
 11
1820.622108757263
 21
4875.654391161502
 31
0.0
  0
INSERT
  5
14981
330
13EAB
100
AcDbEntity
  8
寸法
 62
     0
 48
50.0
370
    -2
100
AcDbBlockReference
  2
_DOTSMALL
 10
1870.622108757263
 20
4875.654391161502
 30
0.0
 41
100.0
 42
100.0
 43
100.0
 50
180.0
  0
INSERT
  5
14982
330
13EAB
100
AcDbEntity
  8
寸法
 62
     0
 48
50.0
370
    -2
100
AcDbBlockReference
  2
_DOTSMALL
 10
1820.622108757263
 20
4875.654391161502
 30
0.0
 41
100.0
 42
100.0
 43
100.0
  0
MTEXT
  5
14983
330
13EAB
100
AcDbEntity
  8
寸法
 62
     7
 48
50.0
100
AcDbMText
 10
1507.136827383016
 20
4975.654391161501
 30
0.0
 40
120.0
 41
0.0
 71
     5
 72
     1
  1
\A1;50
  7
STYLE1
 73
     1
 44
1.0
1001
ACAD
1000
MTEXTBEGIN
1070
    73
1070
     1
1070
    44
1040
1.0
1070
    74
1070
     0
1000
MTEXTEND
  0
POINT
  5
14984
330
13EAB
100
AcDbEntity
  8
DEFPOINTS
 62
     0
 48
50.0
100
AcDbPoint
 10
1870.622108757263
 20
4663.112805903264
 30
0.0
  0
POINT
  5
14985
330
13EAB
100
AcDbEntity
  8
DEFPOINTS
 62
     0
 48
50.0
100
AcDbPoint
 10
1820.622108757263
 20
4663.112805903263
 30
0.0
  0
POINT
  5
14986
330
13EAB
100
AcDbEntity
  8
DEFPOINTS
 62
     0
 48
50.0
100
AcDbPoint
 10
1820.622108757263
 20
4875.654391161502
 30
0.0
  0
ENDBLK
  5
13EB8
330
13EAB
100
AcDbEntity
  8
0
 48
50.0
100
AcDbBlockEnd
  0
BLOCK
  5
13F41
330
13F37
100
AcDbEntity
  8
0
 48
50.0
100
AcDbBlockBegin
  2
*D7
 70
     1
 10
0.0
 20
0.0
 30
0.0
  3
*D7
  1

  0
LINE
  5
1516C
330
13F37
100
AcDbEntity
  8
寸法
 62
     0
 48
50.0
370
    -2
100
AcDbLine
 10
5285.622108757263
 20
10380.71630477584
 30
0.0
 11
5285.622108757263
 21
10675.42871479463
 31
0.0
  0
LINE
  5
1516D
330
13F37
100
AcDbEntity
  8
寸法
 62
     0
 48
50.0
370
    -2
100
AcDbLine
 10
5395.622108757263
 20
10380.71630477584
 30
0.0
 11
5395.622108757263
 21
10675.42871479463
 31
0.0
  0
LINE
  5
1516E
330
13F37
100
AcDbEntity
  8
寸法
 62
     0
 48
50.0
370
    -2
100
AcDbLine
 10
5305.622108757263
 20
10635.42871479463
 30
0.0
 11
5375.622108757263
 21
10635.42871479463
 31
0.0
  0
INSERT
  5
1516F
330
13F37
100
AcDbEntity
  8
寸法
 62
     0
 48
50.0
370
    -2
100
AcDbBlockReference
  2
_DOT
 10
5285.622108757263
 20
10635.42871479463
 30
0.0
 41
20.0
 42
20.0
 43
20.0
 50
180.0
  0
INSERT
  5
15170
330
13F37
100
AcDbEntity
  8
寸法
 62
     0
 48
50.0
370
    -2
100
AcDbBlockReference
  2
_DOT
 10
5395.622108757263
 20
10635.42871479463
 30
0.0
 41
20.0
 42
20.0
 43
20.0
  0
MTEXT
  5
15171
330
13F37
100
AcDbEntity
  8
寸法
 62
     7
 48
50.0
100
AcDbMText
 10
5340.622108757263
 20
10727.42871479463
 30
0.0
 40
120.0
 41
0.0
 71
     5
 72
     1
  1
\A1;110
  7
STYLE1
 73
     1
 44
1.0
1001
ACAD
1000
MTEXTBEGIN
1070
    73
1070
     1
1070
    44
1040
1.0
1070
    74
1070
     0
1000
MTEXTEND
  0
POINT
  5
15172
330
13F37
100
AcDbEntity
  8
DEFPOINTS
 62
     0
 48
50.0
100
AcDbPoint
 10
5285.622108757263
 20
10360.71630477584
 30
0.0
  0
POINT
  5
15173
330
13F37
100
AcDbEntity
  8
DEFPOINTS
 62
     0
 48
50.0
100
AcDbPoint
 10
5395.622108757263
 20
10360.71630477584
 30
0.0
  0
POINT
  5
15174
330
13F37
100
AcDbEntity
  8
DEFPOINTS
 62
     0
 48
50.0
100
AcDbPoint
 10
5395.622108757263
 20
10635.42871479463
 30
0.0
  0
ENDBLK
  5
13F42
330
13F37
100
AcDbEntity
  8
0
 48
50.0
100
AcDbBlockEnd
  0
BLOCK
  5
13F4D
330
13F43
100
AcDbEntity
  8
0
 48
50.0
100
AcDbBlockBegin
  2
*D8
 70
     1
 10
0.0
 20
0.0
 30
0.0
  3
*D8
  1

  0
LINE
  5
15163
330
13F43
100
AcDbEntity
  8
寸法
 62
     0
 48
50.0
370
    -2
100
AcDbLine
 10
5395.622108757263
 20
10380.71630477584
 30
0.0
 11
5395.622108757263
 21
10675.42871479463
 31
0.0
  0
LINE
  5
15164
330
13F43
100
AcDbEntity
  8
寸法
 62
     0
 48
50.0
370
    -2
100
AcDbLine
 10
8755.622108757263
 20
10380.71630477584
 30
0.0
 11
8755.622108757263
 21
10675.42871479463
 31
0.0
  0
LINE
  5
15165
330
13F43
100
AcDbEntity
  8
寸法
 62
     0
 48
50.0
370
    -2
100
AcDbLine
 10
5415.622108757263
 20
10635.42871479463
 30
0.0
 11
8735.622108757263
 21
10635.42871479463
 31
0.0
  0
INSERT
  5
15166
330
13F43
100
AcDbEntity
  8
寸法
 62
     0
 48
50.0
370
    -2
100
AcDbBlockReference
  2
_DOT
 10
5395.622108757263
 20
10635.42871479463
 30
0.0
 41
20.0
 42
20.0
 43
20.0
 50
180.0
  0
INSERT
  5
15167
330
13F43
100
AcDbEntity
  8
寸法
 62
     0
 48
50.0
370
    -2
100
AcDbBlockReference
  2
_DOT
 10
8755.622108757263
 20
10635.42871479463
 30
0.0
 41
20.0
 42
20.0
 43
20.0
  0
MTEXT
  5
15168
330
13F43
100
AcDbEntity
  8
寸法
 62
     7
 48
50.0
100
AcDbMText
 10
7075.622108757262
 20
10727.44052581825
 30
0.0
 40
120.0
 41
0.0
 71
     5
 72
     1
  1
\A1;8X420=3360
  7
STYLE1
 73
     1
 44
1.0
1001
ACAD
1000
MTEXTBEGIN
1070
    73
1070
     1
1070
    44
1040
1.0
1070
    74
1070
     0
1000
MTEXTEND
  0
POINT
  5
15169
330
13F43
100
AcDbEntity
  8
DEFPOINTS
 62
     0
 48
50.0
100
AcDbPoint
 10
5395.622108757263
 20
10360.71630477584
 30
0.0
  0
POINT
  5
1516A
330
13F43
100
AcDbEntity
  8
DEFPOINTS
 62
     0
 48
50.0
100
AcDbPoint
 10
8755.622108757263
 20
10360.71630477584
 30
0.0
  0
POINT
  5
1516B
330
13F43
100
AcDbEntity
  8
DEFPOINTS
 62
     0
 48
50.0
100
AcDbPoint
 10
8755.622108757263
 20
10635.42871479463
 30
0.0
  0
ENDBLK
  5
13F4E
330
13F43
100
AcDbEntity
  8
0
 48
50.0
100
AcDbBlockEnd
  0
BLOCK
  5
13F67
330
13F5B
100
AcDbEntity
  8
0
 48
50.0
100
AcDbBlockBegin
  2
*D9
 70
     1
 10
0.0
 20
0.0
 30
0.0
  3
*D9
  1

  0
LINE
  5
15158
330
13F5B
100
AcDbEntity
  8
寸法
 62
     0
 48
50.0
370
    -2
100
AcDbLine
 10
1870.622108757263
 20
10380.71630477583
 30
0.0
 11
1870.622108757263
 21
10675.42871479463
 31
0.0
  0
LINE
  5
15159
330
13F5B
100
AcDbEntity
  8
寸法
 62
     0
 48
50.0
370
    -2
100
AcDbLine
 10
1925.622108757263
 20
10380.71630477584
 30
0.0
 11
1925.622108757263
 21
10675.42871479463
 31
0.0
  0
LINE
  5
1515A
330
13F5B
100
AcDbEntity
  8
寸法
 62
     0
 48
50.0
370
    -2
100
AcDbLine
 10
1945.622108757263
 20
10635.42871479463
 30
0.0
 11
1965.622108757263
 21
10635.42871479463
 31
0.0
  0
LINE
  5
1515B
330
13F5B
100
AcDbEntity
  8
寸法
 62
     0
 48
50.0
370
    -2
100
AcDbLine
 10
1850.622108757263
 20
10635.42871479463
 30
0.0
 11
1375.97016071636
 21
10635.42871479463
 31
0.0
  0
LINE
  5
1515C
330
13F5B
100
AcDbEntity
  8
寸法
 62
     0
 48
50.0
370
    -2
100
AcDbLine
 10
1925.622108757263
 20
10635.42871479463
 30
0.0
 11
1870.622108757263
 21
10635.42871479463
 31
0.0
  0
INSERT
  5
1515D
330
13F5B
100
AcDbEntity
  8
寸法
 62
     0
 48
50.0
370
    -2
100
AcDbBlockReference
  2
_DOT
 10
1925.622108757263
 20
10635.42871479463
 30
0.0
 41
20.0
 42
20.0
 43
20.0
 50
180.0
  0
INSERT
  5
1515E
330
13F5B
100
AcDbEntity
  8
寸法
 62
     0
 48
50.0
370
    -2
100
AcDbBlockReference
  2
_DOT
 10
1870.622108757263
 20
10635.42871479463
 30
0.0
 41
20.0
 42
20.0
 43
20.0
  0
MTEXT
  5
1515F
330
13F5B
100
AcDbEntity
  8
寸法
 62
     7
 48
50.0
100
AcDbMText
 10
1476.455442090599
 20
10727.42871479463
 30
0.0
 40
120.0
 41
0.0
 71
     5
 72
     1
  1
\A1;55
  7
STYLE1
 73
     1
 44
1.0
1001
ACAD
1000
MTEXTBEGIN
1070
    73
1070
     1
1070
    44
1040
1.0
1070
    74
1070
     0
1000
MTEXTEND
  0
POINT
  5
15160
330
13F5B
100
AcDbEntity
  8
DEFPOINTS
 62
     0
 48
50.0
100
AcDbPoint
 10
1870.622108757263
 20
10360.71630477583
 30
0.0
  0
POINT
  5
15161
330
13F5B
100
AcDbEntity
  8
DEFPOINTS
 62
     0
 48
50.0
100
AcDbPoint
 10
1925.622108757263
 20
10360.71630477584
 30
0.0
  0
POINT
  5
15162
330
13F5B
100
AcDbEntity
  8
DEFPOINTS
 62
     0
 48
50.0
100
AcDbPoint
 10
1925.622108757263
 20
10635.42871479463
 30
0.0
  0
ENDBLK
  5
13F68
330
13F5B
100
AcDbEntity
  8
0
 48
50.0
100
AcDbBlockEnd
  0
BLOCK
  5
13F7F
330
13F75
100
AcDbEntity
  8
0
 48
50.0
100
AcDbBlockBegin
  2
*D10
 70
     1
 10
0.0
 20
0.0
 30
0.0
  3
*D10
  1

  0
LINE
  5
1514F
330
13F75
100
AcDbEntity
  8
寸法
 62
     0
 48
50.0
370
    -2
100
AcDbLine
 10
1925.622108757263
 20
10380.71630477584
 30
0.0
 11
1925.622108757263
 21
10675.42871479463
 31
0.0
  0
LINE
  5
15150
330
13F75
100
AcDbEntity
  8
寸法
 62
     0
 48
50.0
370
    -2
100
AcDbLine
 10
5285.622108757263
 20
10380.71630477584
 30
0.0
 11
5285.622108757263
 21
10675.42871479463
 31
0.0
  0
LINE
  5
15151
330
13F75
100
AcDbEntity
  8
寸法
 62
     0
 48
50.0
370
    -2
100
AcDbLine
 10
1945.622108757263
 20
10635.42871479463
 30
0.0
 11
5265.622108757263
 21
10635.42871479463
 31
0.0
  0
INSERT
  5
15152
330
13F75
100
AcDbEntity
  8
寸法
 62
     0
 48
50.0
370
    -2
100
AcDbBlockReference
  2
_DOT
 10
1925.622108757263
 20
10635.42871479463
 30
0.0
 41
20.0
 42
20.0
 43
20.0
 50
180.0
  0
INSERT
  5
15153
330
13F75
100
AcDbEntity
  8
寸法
 62
     0
 48
50.0
370
    -2
100
AcDbBlockReference
  2
_DOT
 10
5285.622108757263
 20
10635.42871479463
 30
0.0
 41
20.0
 42
20.0
 43
20.0
  0
MTEXT
  5
15154
330
13F75
100
AcDbEntity
  8
寸法
 62
     7
 48
50.0
100
AcDbMText
 10
3605.622108757263
 20
10727.44052581825
 30
0.0
 40
120.0
 41
0.0
 71
     5
 72
     1
  1
\A1;8X420=3360
  7
STYLE1
 73
     1
 44
1.0
1001
ACAD
1000
MTEXTBEGIN
1070
    73
1070
     1
1070
    44
1040
1.0
1070
    74
1070
     0
1000
MTEXTEND
  0
POINT
  5
15155
330
13F75
100
AcDbEntity
  8
DEFPOINTS
 62
     0
 48
50.0
100
AcDbPoint
 10
1925.622108757263
 20
10360.71630477584
 30
0.0
  0
POINT
  5
15156
330
13F75
100
AcDbEntity
  8
DEFPOINTS
 62
     0
 48
50.0
100
AcDbPoint
 10
5285.622108757263
 20
10360.71630477584
 30
0.0
  0
POINT
  5
15157
330
13F75
100
AcDbEntity
  8
DEFPOINTS
 62
     0
 48
50.0
100
AcDbPoint
 10
5285.622108757263
 20
10635.42871479463
 30
0.0
  0
ENDBLK
  5
13F80
330
13F75
100
AcDbEntity
  8
0
 48
50.0
100
AcDbBlockEnd
  0
BLOCK
  5
13F8B
330
13F81
100
AcDbEntity
  8
0
 48
50.0
100
AcDbBlockBegin
  2
*D11
 70
     1
 10
0.0
 20
0.0
 30
0.0
  3
*D11
  1

  0
LINE
  5
15146
330
13F81
100
AcDbEntity
  8
寸法
 62
     0
 48
50.0
370
    -2
100
AcDbLine
 10
1870.622108757263
 20
10380.71630477583
 30
0.0
 11
1870.622108757263
 21
10975.42871479463
 31
0.0
  0
LINE
  5
15147
330
13F81
100
AcDbEntity
  8
寸法
 62
     0
 48
50.0
370
    -2
100
AcDbLine
 10
8810.622108757263
 20
10380.71630477583
 30
0.0
 11
8810.622108757263
 21
10975.42871479463
 31
0.0
  0
LINE
  5
15148
330
13F81
100
AcDbEntity
  8
寸法
 62
     0
 48
50.0
370
    -2
100
AcDbLine
 10
1890.622108757263
 20
10935.42871479463
 30
0.0
 11
8790.622108757263
 21
10935.42871479463
 31
0.0
  0
INSERT
  5
15149
330
13F81
100
AcDbEntity
  8
寸法
 62
     0
 48
50.0
370
    -2
100
AcDbBlockReference
  2
_DOT
 10
1870.622108757263
 20
10935.42871479463
 30
0.0
 41
20.0
 42
20.0
 43
20.0
 50
180.0
  0
INSERT
  5
1514A
330
13F81
100
AcDbEntity
  8
寸法
 62
     0
 48
50.0
370
    -2
100
AcDbBlockReference
  2
_DOT
 10
8810.622108757263
 20
10935.42871479463
 30
0.0
 41
20.0
 42
20.0
 43
20.0
  0
MTEXT
  5
1514B
330
13F81
100
AcDbEntity
  8
寸法
 62
     7
 48
50.0
100
AcDbMText
 10
5340.622108757263
 20
11027.42871479463
 30
0.0
 40
120.0
 41
0.0
 71
     5
 72
     1
  1
\A1;6940
  7
STYLE1
 73
     1
 44
1.0
1001
ACAD
1000
MTEXTBEGIN
1070
    73
1070
     1
1070
    44
1040
1.0
1070
    74
1070
     0
1000
MTEXTEND
  0
POINT
  5
1514C
330
13F81
100
AcDbEntity
  8
DEFPOINTS
 62
     0
 48
50.0
100
AcDbPoint
 10
1870.622108757263
 20
10360.71630477583
 30
0.0
  0
POINT
  5
1514D
330
13F81
100
AcDbEntity
  8
DEFPOINTS
 62
     0
 48
50.0
100
AcDbPoint
 10
8810.622108757263
 20
10360.71630477583
 30
0.0
  0
POINT
  5
1514E
330
13F81
100
AcDbEntity
  8
DEFPOINTS
 62
     0
 48
50.0
100
AcDbPoint
 10
8810.622108757263
 20
10935.42871479463
 30
0.0
  0
ENDBLK
  5
13F8C
330
13F81
100
AcDbEntity
  8
0
 48
50.0
100
AcDbBlockEnd
  0
BLOCK
  5
13F99
330
13F8D
100
AcDbEntity
  8
0
 48
50.0
100
AcDbBlockBegin
  2
*D12
 70
     1
 10
0.0
 20
0.0
 30
0.0
  3
*D12
  1

  0
LINE
  5
1513B
330
13F8D
100
AcDbEntity
  8
寸法
 62
     0
 48
50.0
370
    -2
100
AcDbLine
 10
8830.622108757264
 20
10360.71630477583
 30
0.0
 11
9621.369225801618
 21
10360.71630477583
 31
0.0
  0
LINE
  5
1513C
330
13F8D
100
AcDbEntity
  8
寸法
 62
     0
 48
50.0
370
    -2
100
AcDbLine
 10
8830.622108757264
 20
10305.71630477584
 30
0.0
 11
9621.369225801618
 21
10305.71630477584
 31
0.0
  0
LINE
  5
1513D
330
13F8D
100
AcDbEntity
  8
寸法
 62
     0
 48
50.0
370
    -2
100
AcDbLine
 10
9581.369225801619
 20
10285.71630477584
 30
0.0
 11
9581.369225801619
 21
10265.71630477584
 31
0.0
  0
LINE
  5
1513E
330
13F8D
100
AcDbEntity
  8
寸法
 62
     0
 48
50.0
370
    -2
100
AcDbLine
 10
9581.369225801619
 20
10380.71630477583
 30
0.0
 11
9581.369225801619
 21
10855.36825281674
 31
0.0
  0
LINE
  5
1513F
330
13F8D
100
AcDbEntity
  8
寸法
 62
     0
 48
50.0
370
    -2
100
AcDbLine
 10
9581.369225801619
 20
10305.71630477584
 30
0.0
 11
9581.369225801619
 21
10360.71630477583
 31
0.0
  0
INSERT
  5
15140
330
13F8D
100
AcDbEntity
  8
寸法
 62
     0
 48
50.0
370
    -2
100
AcDbBlockReference
  2
_DOT
 10
9581.369225801619
 20
10305.71630477584
 30
0.0
 41
20.0
 42
20.0
 43
20.0
 50
90.0
  0
INSERT
  5
15141
330
13F8D
100
AcDbEntity
  8
寸法
 62
     0
 48
50.0
370
    -2
100
AcDbBlockReference
  2
_DOT
 10
9581.369225801619
 20
10360.71630477583
 30
0.0
 41
20.0
 42
20.0
 43
20.0
 50
270.0
  0
MTEXT
  5
15142
330
13F8D
100
AcDbEntity
  8
寸法
 62
     7
 48
50.0
100
AcDbMText
 10
9489.369225801615
 20
10754.8829714425
 30
0.0
 40
120.0
 41
0.0
 71
     5
 72
     1
  1
\A1;55
  7
STYLE1
 11
0.0000000000000001
 21
1.0
 31
0.0
 73
     1
 44
1.0
1001
ACAD
1000
MTEXTBEGIN
1070
    73
1070
     1
1070
    44
1040
1.0
1070
    74
1070
     0
1000
MTEXTEND
  0
POINT
  5
15143
330
13F8D
100
AcDbEntity
  8
DEFPOINTS
 62
     0
 48
50.0
100
AcDbPoint
 10
8810.622108757263
 20
10360.71630477583
 30
0.0
  0
POINT
  5
15144
330
13F8D
100
AcDbEntity
  8
DEFPOINTS
 62
     0
 48
50.0
100
AcDbPoint
 10
8810.622108757263
 20
10305.71630477584
 30
0.0
  0
POINT
  5
15145
330
13F8D
100
AcDbEntity
  8
DEFPOINTS
 62
     0
 48
50.0
100
AcDbPoint
 10
9581.369225801619
 20
10305.71630477584
 30
0.0
  0
ENDBLK
  5
13F9A
330
13F8D
100
AcDbEntity
  8
0
 48
50.0
100
AcDbBlockEnd
  0
BLOCK
  5
13FA5
330
13F9B
100
AcDbEntity
  8
0
 48
50.0
100
AcDbBlockBegin
  2
*D13
 70
     1
 10
0.0
 20
0.0
 30
0.0
  3
*D13
  1

  0
LINE
  5
15132
330
13F9B
100
AcDbEntity
  8
寸法
 62
     0
 48
50.0
370
    -2
100
AcDbLine
 10
8830.622108757264
 20
10305.71630477584
 30
0.0
 11
9621.369225801617
 21
10305.71630477584
 31
0.0
  0
LINE
  5
15133
330
13F9B
100
AcDbEntity
  8
寸法
 62
     0
 48
50.0
370
    -2
100
AcDbLine
 10
8830.622108757264
 20
7365.716304775833
 30
0.0
 11
9621.369225801617
 21
7365.716304775833
 31
0.0
  0
LINE
  5
15134
330
13F9B
100
AcDbEntity
  8
寸法
 62
     0
 48
50.0
370
    -2
100
AcDbLine
 10
9581.369225801616
 20
10285.71630477584
 30
0.0
 11
9581.369225801616
 21
7385.716304775833
 31
0.0
  0
INSERT
  5
15135
330
13F9B
100
AcDbEntity
  8
寸法
 62
     0
 48
50.0
370
    -2
100
AcDbBlockReference
  2
_DOT
 10
9581.369225801616
 20
10305.71630477584
 30
0.0
 41
20.0
 42
20.0
 43
20.0
 50
90.0
  0
INSERT
  5
15136
330
13F9B
100
AcDbEntity
  8
寸法
 62
     0
 48
50.0
370
    -2
100
AcDbBlockReference
  2
_DOT
 10
9581.369225801616
 20
7365.716304775833
 30
0.0
 41
20.0
 42
20.0
 43
20.0
 50
270.0
  0
MTEXT
  5
15137
330
13F9B
100
AcDbEntity
  8
寸法
 62
     7
 48
50.0
100
AcDbMText
 10
9489.357414777993
 20
8835.716304775839
 30
0.0
 40
120.0
 41
0.0
 71
     5
 72
     1
  1
\A1;7X420=2940
  7
STYLE1
 11
0.0000000000000001
 21
1.0
 31
0.0
 73
     1
 44
1.0
1001
ACAD
1000
MTEXTBEGIN
1070
    73
1070
     1
1070
    44
1040
1.0
1070
    74
1070
     0
1000
MTEXTEND
  0
POINT
  5
15138
330
13F9B
100
AcDbEntity
  8
DEFPOINTS
 62
     0
 48
50.0
100
AcDbPoint
 10
8810.622108757263
 20
10305.71630477584
 30
0.0
  0
POINT
  5
15139
330
13F9B
100
AcDbEntity
  8
DEFPOINTS
 62
     0
 48
50.0
100
AcDbPoint
 10
8810.622108757263
 20
7365.716304775833
 30
0.0
  0
POINT
  5
1513A
330
13F9B
100
AcDbEntity
  8
DEFPOINTS
 62
     0
 48
50.0
100
AcDbPoint
 10
9581.369225801616
 20
7365.716304775833
 30
0.0
  0
ENDBLK
  5
13FA6
330
13F9B
100
AcDbEntity
  8
0
 48
50.0
100
AcDbBlockEnd
  0
BLOCK
  5
13FB3
330
13FA7
100
AcDbEntity
  8
0
 48
50.0
100
AcDbBlockBegin
  2
*D14
 70
     1
 10
0.0
 20
0.0
 30
0.0
  3
*D14
  1

  0
LINE
  5
15127
330
13FA7
100
AcDbEntity
  8
寸法
 62
     0
 48
50.0
370
    -2
100
AcDbLine
 10
8830.622108757264
 20
7365.716304775833
 30
0.0
 11
9621.369225801618
 21
7365.716304775833
 31
0.0
  0
LINE
  5
15128
330
13FA7
100
AcDbEntity
  8
寸法
 62
     0
 48
50.0
370
    -2
100
AcDbLine
 10
8830.622108757264
 20
7310.716304775836
 30
0.0
 11
9621.369225801618
 21
7310.716304775836
 31
0.0
  0
LINE
  5
15129
330
13FA7
100
AcDbEntity
  8
寸法
 62
     0
 48
50.0
370
    -2
100
AcDbLine
 10
9581.369225801619
 20
7385.716304775833
 30
0.0
 11
9581.369225801619
 21
7405.716304775833
 31
0.0
  0
LINE
  5
1512A
330
13FA7
100
AcDbEntity
  8
寸法
 62
     0
 48
50.0
370
    -2
100
AcDbLine
 10
9581.369225801619
 20
7290.716304775838
 30
0.0
 11
9581.369225801619
 21
6816.064356734931
 31
0.0
  0
LINE
  5
1512B
330
13FA7
100
AcDbEntity
  8
寸法
 62
     0
 48
50.0
370
    -2
100
AcDbLine
 10
9581.369225801619
 20
7365.716304775833
 30
0.0
 11
9581.369225801619
 21
7310.716304775836
 31
0.0
  0
INSERT
  5
1512C
330
13FA7
100
AcDbEntity
  8
寸法
 62
     0
 48
50.0
370
    -2
100
AcDbBlockReference
  2
_DOT
 10
9581.369225801619
 20
7365.716304775833
 30
0.0
 41
20.0
 42
20.0
 43
20.0
 50
270.0
  0
INSERT
  5
1512D
330
13FA7
100
AcDbEntity
  8
寸法
 62
     0
 48
50.0
370
    -2
100
AcDbBlockReference
  2
_DOT
 10
9581.369225801619
 20
7310.716304775836
 30
0.0
 41
20.0
 42
20.0
 43
20.0
 50
90.0
  0
MTEXT
  5
1512E
330
13FA7
100
AcDbEntity
  8
寸法
 62
     7
 48
50.0
100
AcDbMText
 10
9489.369225801615
 20
6916.549638109171
 30
0.0
 40
120.0
 41
0.0
 71
     5
 72
     1
  1
\A1;55
  7
STYLE1
 11
0.0000000000000001
 21
1.0
 31
0.0
 73
     1
 44
1.0
1001
ACAD
1000
MTEXTBEGIN
1070
    73
1070
     1
1070
    44
1040
1.0
1070
    74
1070
     0
1000
MTEXTEND
  0
POINT
  5
1512F
330
13FA7
100
AcDbEntity
  8
DEFPOINTS
 62
     0
 48
50.0
100
AcDbPoint
 10
8810.622108757263
 20
7365.716304775833
 30
0.0
  0
POINT
  5
15130
330
13FA7
100
AcDbEntity
  8
DEFPOINTS
 62
     0
 48
50.0
100
AcDbPoint
 10
8810.622108757263
 20
7310.716304775836
 30
0.0
  0
POINT
  5
15131
330
13FA7
100
AcDbEntity
  8
DEFPOINTS
 62
     0
 48
50.0
100
AcDbPoint
 10
9581.369225801619
 20
7310.716304775836
 30
0.0
  0
ENDBLK
  5
13FB4
330
13FA7
100
AcDbEntity
  8
0
 48
50.0
100
AcDbBlockEnd
  0
BLOCK
  5
13FBF
330
13FB5
100
AcDbEntity
  8
0
 48
50.0
100
AcDbBlockBegin
  2
*D15
 70
     1
 10
0.0
 20
0.0
 30
0.0
  3
*D15
  1

  0
LINE
  5
1511E
330
13FB5
100
AcDbEntity
  8
寸法
 62
     0
 48
50.0
370
    -2
100
AcDbLine
 10
8830.622108757264
 20
10360.71630477583
 30
0.0
 11
9921.369225801617
 21
10360.71630477583
 31
0.0
  0
LINE
  5
1511F
330
13FB5
100
AcDbEntity
  8
寸法
 62
     0
 48
50.0
370
    -2
100
AcDbLine
 10
8830.622108757264
 20
7310.716304775836
 30
0.0
 11
9921.369225801617
 21
7310.716304775836
 31
0.0
  0
LINE
  5
15120
330
13FB5
100
AcDbEntity
  8
寸法
 62
     0
 48
50.0
370
    -2
100
AcDbLine
 10
9881.369225801616
 20
10340.71630477583
 30
0.0
 11
9881.369225801616
 21
7330.716304775837
 31
0.0
  0
INSERT
  5
15121
330
13FB5
100
AcDbEntity
  8
寸法
 62
     0
 48
50.0
370
    -2
100
AcDbBlockReference
  2
_DOT
 10
9881.369225801616
 20
10360.71630477583
 30
0.0
 41
20.0
 42
20.0
 43
20.0
 50
90.0
  0
INSERT
  5
15122
330
13FB5
100
AcDbEntity
  8
寸法
 62
     0
 48
50.0
370
    -2
100
AcDbBlockReference
  2
_DOT
 10
9881.369225801616
 20
7310.716304775836
 30
0.0
 41
20.0
 42
20.0
 43
20.0
 50
270.0
  0
MTEXT
  5
15123
330
13FB5
100
AcDbEntity
  8
寸法
 62
     7
 48
50.0
100
AcDbMText
 10
9789.369225801614
 20
8835.716304775839
 30
0.0
 40
120.0
 41
0.0
 71
     5
 72
     1
  1
\A1;3050
  7
STYLE1
 11
0.0000000000000001
 21
1.0
 31
0.0
 73
     1
 44
1.0
1001
ACAD
1000
MTEXTBEGIN
1070
    73
1070
     1
1070
    44
1040
1.0
1070
    74
1070
     0
1000
MTEXTEND
  0
POINT
  5
15124
330
13FB5
100
AcDbEntity
  8
DEFPOINTS
 62
     0
 48
50.0
100
AcDbPoint
 10
8810.622108757263
 20
10360.71630477583
 30
0.0
  0
POINT
  5
15125
330
13FB5
100
AcDbEntity
  8
DEFPOINTS
 62
     0
 48
50.0
100
AcDbPoint
 10
8810.622108757263
 20
7310.716304775836
 30
0.0
  0
POINT
  5
15126
330
13FB5
100
AcDbEntity
  8
DEFPOINTS
 62
     0
 48
50.0
100
AcDbPoint
 10
9881.369225801616
 20
7310.716304775836
 30
0.0
  0
ENDBLK
  5
13FC0
330
13FB5
100
AcDbEntity
  8
0
 48
50.0
100
AcDbBlockEnd
  0
BLOCK
  5
13FCD
330
13FC1
100
AcDbEntity
  8
0
 48
50.0
100
AcDbBlockBegin
  2
*D16
 70
     1
 10
0.0
 20
0.0
 30
0.0
  3
*D16
  1

  0
LINE
  5
15113
330
13FC1
100
AcDbEntity
  8
寸法
 62
     0
 48
50.0
370
    -2
100
AcDbLine
 10
8755.622108757263
 20
10380.71630477584
 30
0.0
 11
8755.622108757263
 21
10675.42871479463
 31
0.0
  0
LINE
  5
15114
330
13FC1
100
AcDbEntity
  8
寸法
 62
     0
 48
50.0
370
    -2
100
AcDbLine
 10
8810.622108757263
 20
10380.71630477583
 30
0.0
 11
8810.622108757263
 21
10675.42871479463
 31
0.0
  0
LINE
  5
15115
330
13FC1
100
AcDbEntity
  8
寸法
 62
     0
 48
50.0
370
    -2
100
AcDbLine
 10
8735.622108757263
 20
10635.42871479463
 30
0.0
 11
8715.622108757264
 21
10635.42871479463
 31
0.0
  0
LINE
  5
15116
330
13FC1
100
AcDbEntity
  8
寸法
 62
     0
 48
50.0
370
    -2
100
AcDbLine
 10
8830.622108757264
 20
10635.42871479463
 30
0.0
 11
9305.274056798166
 21
10635.42871479463
 31
0.0
  0
LINE
  5
15117
330
13FC1
100
AcDbEntity
  8
寸法
 62
     0
 48
50.0
370
    -2
100
AcDbLine
 10
8755.622108757263
 20
10635.42871479463
 30
0.0
 11
8810.622108757263
 21
10635.42871479463
 31
0.0
  0
INSERT
  5
15118
330
13FC1
100
AcDbEntity
  8
寸法
 62
     0
 48
50.0
370
    -2
100
AcDbBlockReference
  2
_DOT
 10
8755.622108757263
 20
10635.42871479463
 30
0.0
 41
20.0
 42
20.0
 43
20.0
  0
INSERT
  5
15119
330
13FC1
100
AcDbEntity
  8
寸法
 62
     0
 48
50.0
370
    -2
100
AcDbBlockReference
  2
_DOT
 10
8810.622108757263
 20
10635.42871479463
 30
0.0
 41
20.0
 42
20.0
 43
20.0
 50
180.0
  0
MTEXT
  5
1511A
330
13FC1
100
AcDbEntity
  8
寸法
 62
     7
 48
50.0
100
AcDbMText
 10
9204.78877542393
 20
10727.42871479463
 30
0.0
 40
120.0
 41
0.0
 71
     5
 72
     1
  1
\A1;55
  7
STYLE1
 73
     1
 44
1.0
1001
ACAD
1000
MTEXTBEGIN
1070
    73
1070
     1
1070
    44
1040
1.0
1070
    74
1070
     0
1000
MTEXTEND
  0
POINT
  5
1511B
330
13FC1
100
AcDbEntity
  8
DEFPOINTS
 62
     0
 48
50.0
100
AcDbPoint
 10
8755.622108757263
 20
10360.71630477584
 30
0.0
  0
POINT
  5
1511C
330
13FC1
100
AcDbEntity
  8
DEFPOINTS
 62
     0
 48
50.0
100
AcDbPoint
 10
8810.622108757263
 20
10360.71630477583
 30
0.0
  0
POINT
  5
1511D
330
13FC1
100
AcDbEntity
  8
DEFPOINTS
 62
     0
 48
50.0
100
AcDbPoint
 10
8810.622108757263
 20
10635.42871479463
 30
0.0
  0
ENDBLK
  5
13FCE
330
13FC1
100
AcDbEntity
  8
0
 48
50.0
100
AcDbBlockEnd
  0
BLOCK
  5
14607
330
145FD
100
AcDbEntity
  8
0
 48
50.0
100
AcDbBlockBegin
  2
*D17
 70
     1
 10
0.0
 20
0.0
 30
0.0
  3
*D17
  1

  0
LINE
  5
14A0F
330
145FD
100
AcDbEntity
  8
寸法
 62
     0
 48
50.0
370
    -2
100
AcDbLine
 10
11749.97651690093
 20
4379.112805903257
 30
0.0
 11
11262.06787550367
 21
4379.112805903257
 31
0.0
  0
LINE
  5
14A10
330
145FD
100
AcDbEntity
  8
寸法
 62
     0
 48
50.0
370
    -2
100
AcDbLine
 10
11749.97651690092
 20
2354.112805903256
 30
0.0
 11
11262.06787550367
 21
2354.112805903257
 31
0.0
  0
LINE
  5
14A11
330
145FD
100
AcDbEntity
  8
寸法
 62
     0
 48
50.0
370
    -2
100
AcDbLine
 10
11302.06787550367
 20
4359.112805903256
 30
0.0
 11
11302.06787550367
 21
2374.112805903256
 31
0.0
  0
INSERT
  5
14A12
330
145FD
100
AcDbEntity
  8
寸法
 62
     0
 48
50.0
370
    -2
100
AcDbBlockReference
  2
_DOT
 10
11302.06787550367
 20
4379.112805903257
 30
0.0
 41
20.0
 42
20.0
 43
20.0
 50
90.0
  0
INSERT
  5
14A13
330
145FD
100
AcDbEntity
  8
寸法
 62
     0
 48
50.0
370
    -2
100
AcDbBlockReference
  2
_DOT
 10
11302.06787550367
 20
2354.112805903256
 30
0.0
 41
20.0
 42
20.0
 43
20.0
 50
270.0
  0
MTEXT
  5
14A14
330
145FD
100
AcDbEntity
  8
寸法
 62
     7
 48
50.0
100
AcDbMText
 10
11210.05606448005
 20
3366.612805903258
 30
0.0
 40
120.0
 41
0.0
 71
     5
 72
     1
  1
\A1;有効開口部高サ2025
  7
STYLE1
 11
0.0000000000000001
 21
1.0
 31
0.0
 73
     1
 44
1.0
1001
ACAD
1000
MTEXTBEGIN
1070
    73
1070
     1
1070
    44
1040
1.0
1070
    74
1070
     0
1000
MTEXTEND
  0
POINT
  5
14A15
330
145FD
100
AcDbEntity
  8
DEFPOINTS
 62
     0
 48
50.0
100
AcDbPoint
 10
11769.97651690093
 20
4379.112805903257
 30
0.0
  0
POINT
  5
14A16
330
145FD
100
AcDbEntity
  8
DEFPOINTS
 62
     0
 48
50.0
100
AcDbPoint
 10
11769.97651690092
 20
2354.112805903256
 30
0.0
  0
POINT
  5
14A17
330
145FD
100
AcDbEntity
  8
DEFPOINTS
 62
     0
 48
50.0
100
AcDbPoint
 10
11302.06787550367
 20
2354.112805903256
 30
0.0
  0
ENDBLK
  5
14608
330
145FD
100
AcDbEntity
  8
0
 48
50.0
100
AcDbBlockEnd
  0
BLOCK
  5
14613
330
14609
100
AcDbEntity
  8
0
 48
50.0
100
AcDbBlockBegin
  2
*D18
 70
     1
 10
0.0
 20
0.0
 30
0.0
  3
*D18
  1

  0
LINE
  5
14A06
330
14609
100
AcDbEntity
  8
寸法
 62
     0
 48
50.0
370
    -2
100
AcDbLine
 10
11826.97651690093
 20
4428.112805903253
 30
0.0
 11
10943.22638771767
 21
4428.112805903253
 31
0.0
  0
LINE
  5
14A07
330
14609
100
AcDbEntity
  8
寸法
 62
     0
 48
50.0
370
    -2
100
AcDbLine
 10
11826.97651690093
 20
2338.112805903252
 30
0.0
 11
10943.22638771767
 21
2338.112805903252
 31
0.0
  0
LINE
  5
14A08
330
14609
100
AcDbEntity
  8
寸法
 62
     0
 48
50.0
370
    -2
100
AcDbLine
 10
11003.22638771767
 20
4428.112805903253
 30
0.0
 11
11003.22638771767
 21
2338.112805903252
 31
0.0
  0
INSERT
  5
14A09
330
14609
100
AcDbEntity
  8
寸法
 62
     0
 48
50.0
370
    -2
100
AcDbBlockReference
  2
_DOTSMALL
 10
11003.22638771767
 20
4428.112805903253
 30
0.0
 41
100.0
 42
100.0
 43
100.0
 50
90.0
  0
INSERT
  5
14A0A
330
14609
100
AcDbEntity
  8
寸法
 62
     0
 48
50.0
370
    -2
100
AcDbBlockReference
  2
_DOTSMALL
 10
11003.22638771767
 20
2338.112805903252
 30
0.0
 41
100.0
 42
100.0
 43
100.0
 50
270.0
  0
MTEXT
  5
14A0B
330
14609
100
AcDbEntity
  8
寸法
 62
     7
 48
50.0
100
AcDbMText
 10
10903.21457669405
 20
3383.112805903254
 30
0.0
 40
120.0
 41
0.0
 71
     5
 72
     1
  1
\A1;2090
  7
STYLE1
 11
0.0000000000000001
 21
1.0
 31
0.0
 73
     1
 44
1.0
1001
ACAD
1000
MTEXTBEGIN
1070
    73
1070
     1
1070
    44
1040
1.0
1070
    74
1070
     0
1000
MTEXTEND
  0
POINT
  5
14A0C
330
14609
100
AcDbEntity
  8
DEFPOINTS
 62
     0
 48
50.0
100
AcDbPoint
 10
11846.97651690093
 20
4428.112805903253
 30
0.0
  0
POINT
  5
14A0D
330
14609
100
AcDbEntity
  8
DEFPOINTS
 62
     0
 48
50.0
100
AcDbPoint
 10
11846.97651690093
 20
2338.112805903252
 30
0.0
  0
POINT
  5
14A0E
330
14609
100
AcDbEntity
  8
DEFPOINTS
 62
     0
 48
50.0
100
AcDbPoint
 10
11003.22638771767
 20
2338.112805903252
 30
0.0
  0
ENDBLK
  5
14614
330
14609
100
AcDbEntity
  8
0
 48
50.0
100
AcDbBlockEnd
  0
BLOCK
  5
1461F
330
14615
100
AcDbEntity
  8
0
 48
50.0
100
AcDbBlockBegin
  2
*D19
 70
     1
 10
0.0
 20
0.0
 30
0.0
  3
*D19
  1

  0
LINE
  5
149FD
330
14615
100
AcDbEntity
  8
寸法
 62
     0
 48
50.0
370
    -2
100
AcDbLine
 10
11749.97651690092
 20
2288.112805903252
 30
0.0
 11
10643.22638771767
 21
2288.112805903252
 31
0.0
  0
LINE
  5
149FE
330
14615
100
AcDbEntity
  8
寸法
 62
     0
 48
50.0
370
    -2
100
AcDbLine
 10
11766.97651690093
 20
4663.112805903256
 30
0.0
 11
10643.22638771767
 21
4663.112805903256
 31
0.0
  0
LINE
  5
149FF
330
14615
100
AcDbEntity
  8
寸法
 62
     0
 48
50.0
370
    -2
100
AcDbLine
 10
10703.22638771767
 20
2288.112805903252
 30
0.0
 11
10703.22638771767
 21
4663.112805903256
 31
0.0
  0
INSERT
  5
14A00
330
14615
100
AcDbEntity
  8
寸法
 62
     0
 48
50.0
370
    -2
100
AcDbBlockReference
  2
_DOTSMALL
 10
10703.22638771767
 20
2288.112805903252
 30
0.0
 41
100.0
 42
100.0
 43
100.0
 50
270.0
  0
INSERT
  5
14A01
330
14615
100
AcDbEntity
  8
寸法
 62
     0
 48
50.0
370
    -2
100
AcDbBlockReference
  2
_DOTSMALL
 10
10703.22638771767
 20
4663.112805903256
 30
0.0
 41
100.0
 42
100.0
 43
100.0
 50
90.0
  0
MTEXT
  5
14A02
330
14615
100
AcDbEntity
  8
寸法
 62
     7
 48
50.0
100
AcDbMText
 10
10603.21457669404
 20
3475.612805903256
 30
0.0
 40
120.0
 41
0.0
 71
     5
 72
     1
  1
\A1;2375
  7
STYLE1
 11
0.0000000000000001
 21
1.0
 31
0.0
 73
     1
 44
1.0
1001
ACAD
1000
MTEXTBEGIN
1070
    73
1070
     1
1070
    44
1040
1.0
1070
    74
1070
     0
1000
MTEXTEND
  0
POINT
  5
14A03
330
14615
100
AcDbEntity
  8
DEFPOINTS
 62
     0
 48
50.0
100
AcDbPoint
 10
11769.97651690092
 20
2288.112805903252
 30
0.0
  0
POINT
  5
14A04
330
14615
100
AcDbEntity
  8
DEFPOINTS
 62
     0
 48
50.0
100
AcDbPoint
 10
11786.97651690093
 20
4663.112805903256
 30
0.0
  0
POINT
  5
14A05
330
14615
100
AcDbEntity
  8
DEFPOINTS
 62
     0
 48
50.0
100
AcDbPoint
 10
10703.22638771767
 20
4663.112805903256
 30
0.0
  0
ENDBLK
  5
14620
330
14615
100
AcDbEntity
  8
0
 48
50.0
100
AcDbBlockEnd
  0
BLOCK
  5
1462B
330
14621
100
AcDbEntity
  8
0
 48
50.0
100
AcDbBlockBegin
  2
*D20
 70
     1
 10
0.0
 20
0.0
 30
0.0
  3
*D20
  1

  0
LINE
  5
149F4
330
14621
100
AcDbEntity
  8
寸法
 62
     0
 48
50.0
370
    -2
100
AcDbLine
 10
14916.97651690093
 20
2288.112805903258
 30
0.0
 11
15661.90367487305
 21
2288.112805903258
 31
0.0
  0
LINE
  5
149F5
330
14621
100
AcDbEntity
  8
寸法
 62
     0
 48
50.0
370
    -2
100
AcDbLine
 10
14996.97651690092
 20
4608.112805903258
 30
0.0
 11
15661.90367487306
 21
4608.112805903258
 31
0.0
  0
LINE
  5
149F6
330
14621
100
AcDbEntity
  8
寸法
 62
     0
 48
50.0
370
    -2
100
AcDbLine
 10
15601.90367487305
 20
2288.112805903258
 30
0.0
 11
15601.90367487306
 21
4608.112805903258
 31
0.0
  0
INSERT
  5
149F7
330
14621
100
AcDbEntity
  8
寸法
 62
     0
 48
50.0
370
    -2
100
AcDbBlockReference
  2
_DOTSMALL
 10
15601.90367487305
 20
2288.112805903258
 30
0.0
 41
100.0
 42
100.0
 43
100.0
 50
270.0
  0
INSERT
  5
149F8
330
14621
100
AcDbEntity
  8
寸法
 62
     0
 48
50.0
370
    -2
100
AcDbBlockReference
  2
_DOTSMALL
 10
15601.90367487306
 20
4608.112805903258
 30
0.0
 41
100.0
 42
100.0
 43
100.0
 50
90.0
  0
MTEXT
  5
149F9
330
14621
100
AcDbEntity
  8
寸法
 62
     7
 48
50.0
100
AcDbMText
 10
15501.89186384943
 20
3448.112805903261
 30
0.0
 40
120.0
 41
0.0
 71
     5
 72
     1
  1
\A1;2320
  7
STYLE1
 11
0.0000000000000001
 21
1.0
 31
0.0
 73
     1
 44
1.0
1001
ACAD
1000
MTEXTBEGIN
1070
    73
1070
     1
1070
    44
1040
1.0
1070
    74
1070
     0
1000
MTEXTEND
  0
POINT
  5
149FA
330
14621
100
AcDbEntity
  8
DEFPOINTS
 62
     0
 48
50.0
100
AcDbPoint
 10
14896.97651690093
 20
2288.112805903258
 30
0.0
  0
POINT
  5
149FB
330
14621
100
AcDbEntity
  8
DEFPOINTS
 62
     0
 48
50.0
100
AcDbPoint
 10
14976.97651690092
 20
4608.112805903258
 30
0.0
  0
POINT
  5
149FC
330
14621
100
AcDbEntity
  8
DEFPOINTS
 62
     0
 48
50.0
100
AcDbPoint
 10
15601.90367487306
 20
4608.112805903258
 30
0.0
  0
ENDBLK
  5
1462C
330
14621
100
AcDbEntity
  8
0
 48
50.0
100
AcDbBlockEnd
  0
BLOCK
  5
14639
330
1462D
100
AcDbEntity
  8
0
 48
50.0
100
AcDbBlockBegin
  2
*D21
 70
     1
 10
0.0
 20
0.0
 30
0.0
  3
*D21
  1

  0
LINE
  5
149E9
330
1462D
100
AcDbEntity
  8
寸法
 62
     0
 48
50.0
370
    -2
100
AcDbLine
 10
11826.97651690093
 20
2338.112805903256
 30
0.0
 11
10943.22638771767
 21
2338.112805903257
 31
0.0
  0
LINE
  5
149EA
330
1462D
100
AcDbEntity
  8
寸法
 62
     0
 48
50.0
370
    -2
100
AcDbLine
 10
11749.97651690092
 20
2288.112805903252
 30
0.0
 11
10943.22638771767
 21
2288.112805903252
 31
0.0
  0
LINE
  5
149EB
330
1462D
100
AcDbEntity
  8
寸法
 62
     0
 48
50.0
370
    -2
100
AcDbLine
 10
11003.22638771767
 20
2338.112805903257
 30
0.0
 11
11003.22638771767
 21
2438.112805903257
 31
0.0
  0
LINE
  5
149EC
330
1462D
100
AcDbEntity
  8
寸法
 62
     0
 48
50.0
370
    -2
100
AcDbLine
 10
11003.22638771767
 20
2288.112805903252
 30
0.0
 11
11003.22638771767
 21
1876.018317714271
 31
0.0
  0
LINE
  5
149ED
330
1462D
100
AcDbEntity
  8
寸法
 62
     0
 48
50.0
370
    -2
100
AcDbLine
 10
11003.22638771767
 20
2338.112805903257
 30
0.0
 11
11003.22638771767
 21
2288.112805903252
 31
0.0
  0
INSERT
  5
149EE
330
1462D
100
AcDbEntity
  8
寸法
 62
     0
 48
50.0
370
    -2
100
AcDbBlockReference
  2
_DOTSMALL
 10
11003.22638771767
 20
2338.112805903257
 30
0.0
 41
100.0
 42
100.0
 43
100.0
 50
270.0
  0
INSERT
  5
149EF
330
1462D
100
AcDbEntity
  8
寸法
 62
     0
 48
50.0
370
    -2
100
AcDbBlockReference
  2
_DOTSMALL
 10
11003.22638771767
 20
2288.112805903252
 30
0.0
 41
100.0
 42
100.0
 43
100.0
 50
90.0
  0
MTEXT
  5
149F0
330
1462D
100
AcDbEntity
  8
寸法
 62
     7
 48
50.0
100
AcDbMText
 10
10903.22638771767
 20
1982.065561808761
 30
0.0
 40
120.0
 41
0.0
 71
     5
 72
     1
  1
\A1;50
  7
STYLE1
 11
0.0000000000000001
 21
1.0
 31
0.0
 73
     1
 44
1.0
1001
ACAD
1000
MTEXTBEGIN
1070
    73
1070
     1
1070
    44
1040
1.0
1070
    74
1070
     0
1000
MTEXTEND
  0
POINT
  5
149F1
330
1462D
100
AcDbEntity
  8
DEFPOINTS
 62
     0
 48
50.0
100
AcDbPoint
 10
11846.97651690093
 20
2338.112805903256
 30
0.0
  0
POINT
  5
149F2
330
1462D
100
AcDbEntity
  8
DEFPOINTS
 62
     0
 48
50.0
100
AcDbPoint
 10
11769.97651690092
 20
2288.112805903252
 30
0.0
  0
POINT
  5
149F3
330
1462D
100
AcDbEntity
  8
DEFPOINTS
 62
     0
 48
50.0
100
AcDbPoint
 10
11003.22638771767
 20
2288.112805903252
 30
0.0
  0
ENDBLK
  5
1463A
330
1462D
100
AcDbEntity
  8
0
 48
50.0
100
AcDbBlockEnd
  0
BLOCK
  5
14645
330
1463B
100
AcDbEntity
  8
0
 48
50.0
100
AcDbBlockBegin
  2
*D22
 70
     1
 10
0.0
 20
0.0
 30
0.0
  3
*D22
  1

  0
LINE
  5
149E0
330
1463B
100
AcDbEntity
  8
寸法
 62
     0
 48
50.0
370
    -2
100
AcDbLine
 10
14896.97651690092
 20
4629.923485514911
 30
0.0
 11
14896.97651690092
 21
5121.770259482563
 31
0.0
  0
LINE
  5
149E1
330
1463B
100
AcDbEntity
  8
寸法
 62
     0
 48
50.0
370
    -2
100
AcDbLine
 10
11846.97651690093
 20
4679.114424026233
 30
0.0
 11
11846.97651690093
 21
5121.770259482563
 31
0.0
  0
LINE
  5
149E2
330
1463B
100
AcDbEntity
  8
寸法
 62
     0
 48
50.0
370
    -2
100
AcDbLine
 10
14896.97651690092
 20
5061.770259482562
 30
0.0
 11
11846.97651690093
 21
5061.770259482562
 31
0.0
  0
INSERT
  5
149E3
330
1463B
100
AcDbEntity
  8
寸法
 62
     0
 48
50.0
370
    -2
100
AcDbBlockReference
  2
_DOTSMALL
 10
14896.97651690092
 20
5061.770259482562
 30
0.0
 41
100.0
 42
100.0
 43
100.0
  0
INSERT
  5
149E4
330
1463B
100
AcDbEntity
  8
寸法
 62
     0
 48
50.0
370
    -2
100
AcDbBlockReference
  2
_DOTSMALL
 10
11846.97651690093
 20
5061.770259482562
 30
0.0
 41
100.0
 42
100.0
 43
100.0
 50
180.0
  0
MTEXT
  5
149E5
330
1463B
100
AcDbEntity
  8
寸法
 62
     7
 48
50.0
100
AcDbMText
 10
13417.03489146034
 20
5161.770259482562
 30
0.0
 40
120.0
 41
0.0
 71
     5
 72
     1
  1
\A1;柱外寸法3050
  7
STYLE1
 73
     1
 44
1.0
1001
ACAD
1000
MTEXTBEGIN
1070
    73
1070
     1
1070
    44
1040
1.0
1070
    74
1070
     0
1000
MTEXTEND
  0
POINT
  5
149E6
330
1463B
100
AcDbEntity
  8
DEFPOINTS
 62
     0
 48
50.0
100
AcDbPoint
 10
14896.97651690092
 20
4609.923485514911
 30
0.0
  0
POINT
  5
149E7
330
1463B
100
AcDbEntity
  8
DEFPOINTS
 62
     0
 48
50.0
100
AcDbPoint
 10
11846.97651690093
 20
4659.114424026233
 30
0.0
  0
POINT
  5
149E8
330
1463B
100
AcDbEntity
  8
DEFPOINTS
 62
     0
 48
50.0
100
AcDbPoint
 10
11846.97651690093
 20
5061.770259482562
 30
0.0
  0
ENDBLK
  5
14646
330
1463B
100
AcDbEntity
  8
0
 48
50.0
100
AcDbBlockEnd
  0
BLOCK
  5
14653
330
14647
100
AcDbEntity
  8
0
 48
50.0
100
AcDbBlockBegin
  2
*D23
 70
     1
 10
0.0
 20
0.0
 30
0.0
  3
*D23
  1

  0
LINE
  5
149D5
330
14647
100
AcDbEntity
  8
寸法
 62
     0
 48
50.0
370
    -2
100
AcDbLine
 10
11846.97651690093
 20
4679.114424026233
 30
0.0
 11
11846.97651690093
 21
5121.77025948256
 31
0.0
  0
LINE
  5
149D6
330
14647
100
AcDbEntity
  8
寸法
 62
     0
 48
50.0
370
    -2
100
AcDbLine
 10
11786.97651690093
 20
4683.11280590326
 30
0.0
 11
11786.97651690093
 21
5121.77025948256
 31
0.0
  0
LINE
  5
149D7
330
14647
100
AcDbEntity
  8
寸法
 62
     0
 48
50.0
370
    -2
100
AcDbLine
 10
11846.97651690093
 20
5061.77025948256
 30
0.0
 11
11946.97651690093
 21
5061.77025948256
 31
0.0
  0
LINE
  5
149D8
330
14647
100
AcDbEntity
  8
寸法
 62
     0
 48
50.0
370
    -2
100
AcDbLine
 10
11786.97651690093
 20
5061.77025948256
 30
0.0
 11
11367.70092634975
 21
5061.77025948256
 31
0.0
  0
LINE
  5
149D9
330
14647
100
AcDbEntity
  8
寸法
 62
     0
 48
50.0
370
    -2
100
AcDbLine
 10
11846.97651690093
 20
5061.77025948256
 30
0.0
 11
11786.97651690093
 21
5061.77025948256
 31
0.0
  0
INSERT
  5
149DA
330
14647
100
AcDbEntity
  8
寸法
 62
     0
 48
50.0
370
    -2
100
AcDbBlockReference
  2
_DOTSMALL
 10
11846.97651690093
 20
5061.77025948256
 30
0.0
 41
100.0
 42
100.0
 43
100.0
 50
180.0
  0
INSERT
  5
149DB
330
14647
100
AcDbEntity
  8
寸法
 62
     0
 48
50.0
370
    -2
100
AcDbBlockReference
  2
_DOTSMALL
 10
11786.97651690093
 20
5061.77025948256
 30
0.0
 41
100.0
 42
100.0
 43
100.0
  0
MTEXT
  5
149DC
330
14647
100
AcDbEntity
  8
寸法
 62
     7
 48
50.0
100
AcDbMText
 10
11477.33872162534
 20
5161.770259482561
 30
0.0
 40
120.0
 41
0.0
 71
     5
 72
     1
  1
\A1;60
  7
STYLE1
 73
     1
 44
1.0
1001
ACAD
1000
MTEXTBEGIN
1070
    73
1070
     1
1070
    44
1040
1.0
1070
    74
1070
     0
1000
MTEXTEND
  0
POINT
  5
149DD
330
14647
100
AcDbEntity
  8
DEFPOINTS
 62
     0
 48
50.0
100
AcDbPoint
 10
11846.97651690093
 20
4659.114424026233
 30
0.0
  0
POINT
  5
149DE
330
14647
100
AcDbEntity
  8
DEFPOINTS
 62
     0
 48
50.0
100
AcDbPoint
 10
11786.97651690093
 20
4663.112805903261
 30
0.0
  0
POINT
  5
149DF
330
14647
100
AcDbEntity
  8
DEFPOINTS
 62
     0
 48
50.0
100
AcDbPoint
 10
11786.97651690093
 20
5061.77025948256
 30
0.0
  0
ENDBLK
  5
14654
330
14647
100
AcDbEntity
  8
0
 48
50.0
100
AcDbBlockEnd
  0
BLOCK
  5
1465F
330
14655
100
AcDbEntity
  8
0
 48
50.0
100
AcDbBlockBegin
  2
*D24
 70
     1
 10
0.0
 20
0.0
 30
0.0
  3
*D24
  1

  0
LINE
  5
149CC
330
14655
100
AcDbEntity
  8
寸法
 62
     0
 48
50.0
370
    -2
100
AcDbLine
 10
14976.97651690092
 20
4628.112805903258
 30
0.0
 11
14976.97651690092
 21
5351.883852268838
 31
0.0
  0
LINE
  5
149CD
330
14655
100
AcDbEntity
  8
寸法
 62
     0
 48
50.0
370
    -2
100
AcDbLine
 10
11786.97651690093
 20
4683.11280590326
 30
0.0
 11
11786.97651690093
 21
5351.883852268838
 31
0.0
  0
LINE
  5
149CE
330
14655
100
AcDbEntity
  8
寸法
 62
     0
 48
50.0
370
    -2
100
AcDbLine
 10
14976.97651690092
 20
5291.883852268838
 30
0.0
 11
11786.97651690093
 21
5291.883852268838
 31
0.0
  0
INSERT
  5
149CF
330
14655
100
AcDbEntity
  8
寸法
 62
     0
 48
50.0
370
    -2
100
AcDbBlockReference
  2
_DOTSMALL
 10
14976.97651690092
 20
5291.883852268838
 30
0.0
 41
100.0
 42
100.0
 43
100.0
  0
INSERT
  5
149D0
330
14655
100
AcDbEntity
  8
寸法
 62
     0
 48
50.0
370
    -2
100
AcDbBlockReference
  2
_DOTSMALL
 10
11786.97651690093
 20
5291.883852268838
 30
0.0
 41
100.0
 42
100.0
 43
100.0
 50
180.0
  0
MTEXT
  5
149D1
330
14655
100
AcDbEntity
  8
寸法
 62
     7
 48
50.0
100
AcDbMText
 10
13458.68232321045
 20
5391.883852268838
 30
0.0
 40
120.0
 41
0.0
 71
     5
 72
     1
  1
\A1;3190
  7
STYLE1
 73
     1
 44
1.0
1001
ACAD
1000
MTEXTBEGIN
1070
    73
1070
     1
1070
    44
1040
1.0
1070
    74
1070
     0
1000
MTEXTEND
  0
POINT
  5
149D2
330
14655
100
AcDbEntity
  8
DEFPOINTS
 62
     0
 48
50.0
100
AcDbPoint
 10
14976.97651690092
 20
4608.112805903258
 30
0.0
  0
POINT
  5
149D3
330
14655
100
AcDbEntity
  8
DEFPOINTS
 62
     0
 48
50.0
100
AcDbPoint
 10
11786.97651690093
 20
4663.112805903261
 30
0.0
  0
POINT
  5
149D4
330
14655
100
AcDbEntity
  8
DEFPOINTS
 62
     0
 48
50.0
100
AcDbPoint
 10
11786.97651690093
 20
5291.883852268838
 30
0.0
  0
ENDBLK
  5
14660
330
14655
100
AcDbEntity
  8
0
 48
50.0
100
AcDbBlockEnd
  0
BLOCK
  5
1466C
330
14661
100
AcDbEntity
  8
0
 48
50.0
100
AcDbBlockBegin
  2
*D25
 70
     1
 10
0.0
 20
0.0
 30
0.0
  3
*D25
  1

  0
LINE
  5
149C2
330
14661
100
AcDbEntity
  8
寸法
 62
     0
 48
50.0
370
    -2
100
AcDbLine
 10
14896.97651690092
 20
4629.923485514911
 30
0.0
 11
14896.97651690092
 21
5121.770259482563
 31
0.0
  0
LINE
  5
149C3
330
14661
100
AcDbEntity
  8
寸法
 62
     0
 48
50.0
370
    -2
100
AcDbLine
 10
14976.97651690092
 20
4628.112805903259
 30
0.0
 11
14976.97651690092
 21
5121.770259482563
 31
0.0
  0
LINE
  5
149C4
330
14661
100
AcDbEntity
  8
寸法
 62
     0
 48
50.0
370
    -2
100
AcDbLine
 10
14896.97651690092
 20
5061.770259482562
 30
0.0
 11
14976.97651690092
 21
5061.770259482562
 31
0.0
  0
LINE
  5
149C5
330
14661
100
AcDbEntity
  8
寸法
 62
     0
 48
50.0
370
    -2
100
AcDbLine
 10
14976.97651690092
 20
5061.770259482562
 30
0.0
 11
15289.0710050899
 21
5061.770259482562
 31
0.0
  0
INSERT
  5
149C6
330
14661
100
AcDbEntity
  8
寸法
 62
     0
 48
50.0
370
    -2
100
AcDbBlockReference
  2
_DOTSMALL
 10
14896.97651690092
 20
5061.770259482562
 30
0.0
 41
100.0
 42
100.0
 43
100.0
 50
180.0
  0
INSERT
  5
149C7
330
14661
100
AcDbEntity
  8
寸法
 62
     0
 48
50.0
370
    -2
100
AcDbBlockReference
  2
_DOTSMALL
 10
14976.97651690092
 20
5061.770259482562
 30
0.0
 41
100.0
 42
100.0
 43
100.0
  0
MTEXT
  5
149C8
330
14661
100
AcDbEntity
  8
寸法
 62
     7
 48
50.0
100
AcDbMText
 10
15183.02376099541
 20
5161.770259482562
 30
0.0
 40
120.0
 41
0.0
 71
     5
 72
     1
  1
\A1;80
  7
STYLE1
 73
     1
 44
1.0
1001
ACAD
1000
MTEXTBEGIN
1070
    73
1070
     1
1070
    44
1040
1.0
1070
    74
1070
     0
1000
MTEXTEND
  0
POINT
  5
149C9
330
14661
100
AcDbEntity
  8
DEFPOINTS
 62
     0
 48
50.0
100
AcDbPoint
 10
14896.97651690092
 20
4609.923485514911
 30
0.0
  0
POINT
  5
149CA
330
14661
100
AcDbEntity
  8
DEFPOINTS
 62
     0
 48
50.0
100
AcDbPoint
 10
14976.97651690092
 20
4608.112805903259
 30
0.0
  0
POINT
  5
149CB
330
14661
100
AcDbEntity
  8
DEFPOINTS
 62
     0
 48
50.0
100
AcDbPoint
 10
14976.97651690092
 20
5061.770259482562
 30
0.0
  0
ENDBLK
  5
1466D
330
14661
100
AcDbEntity
  8
0
 48
50.0
100
AcDbBlockEnd
  0
BLOCK
  5
14679
330
1466E
100
AcDbEntity
  8
0
 48
50.0
100
AcDbBlockBegin
  2
*D26
 70
     1
 10
0.0
 20
0.0
 30
0.0
  3
*D26
  1

  0
LINE
  5
149B8
330
1466E
100
AcDbEntity
  8
寸法
 62
     0
 48
50.0
370
    -2
100
AcDbLine
 10
11786.38080319203
 20
4662.410512972917
 30
0.0
 11
11170.44636408675
 21
4680.124663247248
 31
0.0
  0
LINE
  5
149B9
330
1466E
100
AcDbEntity
  8
寸法
 62
     0
 48
50.0
370
    -2
100
AcDbLine
 10
11782.3273476354
 20
4521.468789207204
 30
0.0
 11
11166.39290853012
 21
4539.182939481536
 31
0.0
  0
LINE
  5
149BA
330
1466E
100
AcDbEntity
  8
寸法
 62
     0
 48
50.0
370
    -2
100
AcDbLine
 10
11226.36811013255
 20
4537.458064776588
 30
0.0
 11
11230.42156568917
 21
4678.3997885423
 31
0.0
  0
LINE
  5
149BB
330
1466E
100
AcDbEntity
  8
寸法
 62
     0
 48
50.0
370
    -2
100
AcDbLine
 10
11230.42156568917
 20
4678.3997885423
 30
0.0
 11
11240.77081391886
 21
5038.250998156886
 31
0.0
  0
INSERT
  5
149BC
330
1466E
100
AcDbEntity
  8
寸法
 62
     0
 48
50.0
370
    -2
100
AcDbBlockReference
  2
_DOTSMALL
 10
11226.36811013255
 20
4537.458064776588
 30
0.0
 41
100.0
 42
100.0
 43
100.0
 50
268.3526390256378
  0
INSERT
  5
149BD
330
1466E
100
AcDbEntity
  8
寸法
 62
     0
 48
50.0
370
    -2
100
AcDbBlockReference
  2
_DOTSMALL
 10
11230.42156568917
 20
4678.3997885423
 30
0.0
 41
100.0
 42
100.0
 43
100.0
 50
88.35263902563776
  0
MTEXT
  5
149BE
330
1466E
100
AcDbEntity
  8
寸法
 62
     7
 48
50.0
100
AcDbMText
 10
11137.07491605409
 20
4911.179519193199
 30
0.0
 40
120.0
 41
0.0
 71
     5
 72
     1
  1
\A1;141
  7
STYLE1
 11
0.0287479117491237
 21
0.9995866933738488
 31
0.0
 73
     1
 44
1.0
1001
ACAD
1000
MTEXTBEGIN
1070
    73
1070
     1
1070
    44
1040
1.0
1070
    74
1070
     0
1000
MTEXTEND
  0
POINT
  5
149BF
330
1466E
100
AcDbEntity
  8
DEFPOINTS
 62
     0
 48
50.0
100
AcDbPoint
 10
11806.37253705951
 20
4661.835554737936
 30
0.0
  0
POINT
  5
149C0
330
1466E
100
AcDbEntity
  8
DEFPOINTS
 62
     0
 48
50.0
100
AcDbPoint
 10
11802.31908150288
 20
4520.893830972223
 30
0.0
  0
POINT
  5
149C1
330
1466E
100
AcDbEntity
  8
DEFPOINTS
 62
     0
 48
50.0
100
AcDbPoint
 10
11226.36811013255
 20
4537.458064776588
 30
0.0
  0
ENDBLK
  5
1467A
330
1466E
100
AcDbEntity
  8
0
 48
50.0
100
AcDbBlockEnd
  0
BLOCK
  5
14BC9
330
14BBF
100
AcDbEntity
  8
0
 48
50.0
100
AcDbBlockBegin
  2
*D27
 70
     1
 10
0.0
 20
0.0
 30
0.0
  3
*D27
  1

  0
LINE
  5
1510A
330
14BBF
100
AcDbEntity
  8
寸法
 62
     0
 48
50.0
370
    -2
100
AcDbLine
 10
2777.622108757264
 20
7213.716304775835
 30
0.0
 11
2777.622108757264
 21
6496.963478579643
 31
0.0
  0
LINE
  5
1510B
330
14BBF
100
AcDbEntity
  8
寸法
 62
     0
 48
50.0
370
    -2
100
AcDbLine
 10
4043.622108757264
 20
7213.716304775835
 30
0.0
 11
4043.622108757264
 21
6496.963478579643
 31
0.0
  0
LINE
  5
1510C
330
14BBF
100
AcDbEntity
  8
寸法
 62
     0
 48
50.0
370
    -2
100
AcDbLine
 10
2797.622108757264
 20
6536.963478579642
 30
0.0
 11
4023.622108757264
 21
6536.963478579642
 31
0.0
  0
INSERT
  5
1510D
330
14BBF
100
AcDbEntity
  8
寸法
 62
     0
 48
50.0
370
    -2
100
AcDbBlockReference
  2
_DOT
 10
2777.622108757264
 20
6536.963478579642
 30
0.0
 41
20.0
 42
20.0
 43
20.0
 50
180.0
  0
INSERT
  5
1510E
330
14BBF
100
AcDbEntity
  8
寸法
 62
     0
 48
50.0
370
    -2
100
AcDbBlockReference
  2
_DOT
 10
4043.622108757264
 20
6536.963478579642
 30
0.0
 41
20.0
 42
20.0
 43
20.0
  0
MTEXT
  5
1510F
330
14BBF
100
AcDbEntity
  8
寸法
 62
     7
 48
50.0
100
AcDbMText
 10
3438.309764353181
 20
6728.975289603264
 30
0.0
 40
120.0
 41
0.0
 71
     5
 72
     1
  1
\A1;有効開口部間口\P1266
  7
STYLE1
 73
     1
 44
1.0
1001
ACAD
1000
MTEXTBEGIN
1070
    73
1070
     1
1070
    44
1040
1.0
1070
    74
1070
     0
1000
MTEXTEND
  0
POINT
  5
15110
330
14BBF
100
AcDbEntity
  8
DEFPOINTS
 62
     0
 48
50.0
100
AcDbPoint
 10
2777.622108757264
 20
7233.716304775835
 30
0.0
  0
POINT
  5
15111
330
14BBF
100
AcDbEntity
  8
DEFPOINTS
 62
     0
 48
50.0
100
AcDbPoint
 10
4043.622108757264
 20
7233.716304775835
 30
0.0
  0
POINT
  5
15112
330
14BBF
100
AcDbEntity
  8
DEFPOINTS
 62
     0
 48
50.0
100
AcDbPoint
 10
4043.622108757264
 20
6536.963478579642
 30
0.0
  0
ENDBLK
  5
14BCA
330
14BBF
100
AcDbEntity
  8
0
 48
50.0
100
AcDbBlockEnd
  0
BLOCK
  5
14F7B
330
14F6F
100
AcDbEntity
  8
0
 48
50.0
100
AcDbBlockBegin
  2
*D28
 70
     1
 10
0.0
 20
0.0
 30
0.0
  3
*D28
  1

  0
LINE
  5
150FF
330
14F6F
100
AcDbEntity
  8
寸法
 62
     0
 48
50.0
370
    -2
100
AcDbLine
 10
1850.622108757263
 20
7310.716304775836
 30
0.0
 11
1499.303294853214
 21
7310.716304775836
 31
0.0
  0
LINE
  5
15100
330
14F6F
100
AcDbEntity
  8
寸法
 62
     0
 48
50.0
370
    -2
100
AcDbLine
 10
2718.622108757263
 20
7235.716304775809
 30
0.0
 11
1499.303294853214
 21
7235.71630477581
 31
0.0
  0
LINE
  5
15101
330
14F6F
100
AcDbEntity
  8
寸法
 62
     0
 48
50.0
370
    -2
100
AcDbLine
 10
1539.303294853214
 20
7330.716304775837
 30
0.0
 11
1539.303294853214
 21
7350.716304775836
 31
0.0
  0
LINE
  5
15102
330
14F6F
100
AcDbEntity
  8
寸法
 62
     0
 48
50.0
370
    -2
100
AcDbLine
 10
1539.303294853214
 20
7215.71630477581
 30
0.0
 11
1539.303294853214
 21
6994.745742027331
 31
0.0
  0
LINE
  5
15103
330
14F6F
100
AcDbEntity
  8
寸法
 62
     0
 48
50.0
370
    -2
100
AcDbLine
 10
1539.303294853214
 20
7310.716304775836
 30
0.0
 11
1539.303294853214
 21
7235.71630477581
 31
0.0
  0
INSERT
  5
15104
330
14F6F
100
AcDbEntity
  8
寸法
 62
     0
 48
50.0
370
    -2
100
AcDbBlockReference
  2
_DOT
 10
1539.303294853214
 20
7310.716304775836
 30
0.0
 41
20.0
 42
20.0
 43
20.0
 50
270.0
  0
INSERT
  5
15105
330
14F6F
100
AcDbEntity
  8
寸法
 62
     0
 48
50.0
370
    -2
100
AcDbBlockReference
  2
_DOT
 10
1539.303294853214
 20
7235.71630477581
 30
0.0
 41
20.0
 42
20.0
 43
20.0
 50
90.0
  0
MTEXT
  5
15106
330
14F6F
100
AcDbEntity
  8
寸法
 62
     7
 48
50.0
100
AcDbMText
 10
1447.303294853212
 20
7095.231023401571
 30
0.0
 40
120.0
 41
0.0
 71
     5
 72
     1
  1
\A1;75
  7
STYLE1
 11
0.0000000000000001
 21
1.0
 31
0.0
 73
     1
 44
1.0
1001
ACAD
1000
MTEXTBEGIN
1070
    73
1070
     1
1070
    44
1040
1.0
1070
    74
1070
     0
1000
MTEXTEND
  0
POINT
  5
15107
330
14F6F
100
AcDbEntity
  8
DEFPOINTS
 62
     0
 48
50.0
100
AcDbPoint
 10
1870.622108757263
 20
7310.716304775836
 30
0.0
  0
POINT
  5
15108
330
14F6F
100
AcDbEntity
  8
DEFPOINTS
 62
     0
 48
50.0
100
AcDbPoint
 10
2738.622108757263
 20
7235.716304775809
 30
0.0
  0
POINT
  5
15109
330
14F6F
100
AcDbEntity
  8
DEFPOINTS
 62
     0
 48
50.0
100
AcDbPoint
 10
1539.303294853214
 20
7235.71630477581
 30
0.0
  0
ENDBLK
  5
14F7C
330
14F6F
100
AcDbEntity
  8
0
 48
50.0
100
AcDbBlockEnd
  0
BLOCK
  5
14F87
330
14F7D
100
AcDbEntity
  8
0
 48
50.0
100
AcDbBlockBegin
  2
*D29
 70
     1
 10
0.0
 20
0.0
 30
0.0
  3
*D29
  1

  0
LINE
  5
150F6
330
14F7D
100
AcDbEntity
  8
寸法
 62
     0
 48
50.0
370
    -2
100
AcDbLine
 10
2738.622108757263
 20
7213.716304775835
 30
0.0
 11
2738.622108757263
 21
6214.759297266581
 31
0.0
  0
LINE
  5
150F7
330
14F7D
100
AcDbEntity
  8
寸法
 62
     0
 48
50.0
370
    -2
100
AcDbLine
 10
4892.622108757264
 20
7213.716304775835
 30
0.0
 11
4892.622108757264
 21
6214.759297266581
 31
0.0
  0
LINE
  5
150F8
330
14F7D
100
AcDbEntity
  8
寸法
 62
     0
 48
50.0
370
    -2
100
AcDbLine
 10
2738.622108757263
 20
6274.75929726658
 30
0.0
 11
4892.622108757264
 21
6274.75929726658
 31
0.0
  0
INSERT
  5
150F9
330
14F7D
100
AcDbEntity
  8
寸法
 62
     0
 48
50.0
370
    -2
100
AcDbBlockReference
  2
_DOTSMALL
 10
2738.622108757263
 20
6274.75929726658
 30
0.0
 41
100.0
 42
100.0
 43
100.0
 50
180.0
  0
INSERT
  5
150FA
330
14F7D
100
AcDbEntity
  8
寸法
 62
     0
 48
50.0
370
    -2
100
AcDbBlockReference
  2
_DOTSMALL
 10
4892.622108757264
 20
6274.75929726658
 30
0.0
 41
100.0
 42
100.0
 43
100.0
  0
MTEXT
  5
150FB
330
14F7D
100
AcDbEntity
  8
寸法
 62
     7
 48
50.0
100
AcDbMText
 10
3792.744109406122
 20
6374.771108290202
 30
0.0
 40
120.0
 41
0.0
 71
     5
 72
     1
  1
\A1;2154
  7
STYLE1
 73
     1
 44
1.0
1001
ACAD
1000
MTEXTBEGIN
1070
    73
1070
     1
1070
    44
1040
1.0
1070
    74
1070
     0
1000
MTEXTEND
  0
POINT
  5
150FC
330
14F7D
100
AcDbEntity
  8
DEFPOINTS
 62
     0
 48
50.0
100
AcDbPoint
 10
2738.622108757263
 20
7233.716304775835
 30
0.0
  0
POINT
  5
150FD
330
14F7D
100
AcDbEntity
  8
DEFPOINTS
 62
     0
 48
50.0
100
AcDbPoint
 10
4892.622108757264
 20
7233.716304775835
 30
0.0
  0
POINT
  5
150FE
330
14F7D
100
AcDbEntity
  8
DEFPOINTS
 62
     0
 48
50.0
100
AcDbPoint
 10
4892.622108757264
 20
6274.75929726658
 30
0.0
  0
ENDBLK
  5
14F88
330
14F7D
100
AcDbEntity
  8
0
 48
50.0
100
AcDbBlockEnd
  0
BLOCK
  5
14FB7
330
14FAD
100
AcDbEntity
  8
0
 48
50.0
100
AcDbBlockBegin
  2
*D30
 70
     1
 10
0.0
 20
0.0
 30
0.0
  3
*D30
  1

  0
LINE
  5
150ED
330
14FAD
100
AcDbEntity
  8
寸法
 62
     0
 48
50.0
370
    -2
100
AcDbLine
 10
5340.622108757263
 20
7345.716304775833
 30
0.0
 11
5340.622108757263
 21
5945.63434727299
 31
0.0
  0
LINE
  5
150EE
330
14FAD
100
AcDbEntity
  8
寸法
 62
     0
 48
50.0
370
    -2
100
AcDbLine
 10
8810.622108757263
 20
7290.716304775838
 30
0.0
 11
8810.622108757263
 21
5945.63434727299
 31
0.0
  0
LINE
  5
150EF
330
14FAD
100
AcDbEntity
  8
寸法
 62
     0
 48
50.0
370
    -2
100
AcDbLine
 10
5360.622108757263
 20
5985.63434727299
 30
0.0
 11
8790.622108757263
 21
5985.63434727299
 31
0.0
  0
INSERT
  5
150F0
330
14FAD
100
AcDbEntity
  8
寸法
 62
     0
 48
50.0
370
    -2
100
AcDbBlockReference
  2
_DOT
 10
5340.622108757263
 20
5985.63434727299
 30
0.0
 41
20.0
 42
20.0
 43
20.0
 50
180.0
  0
INSERT
  5
150F1
330
14FAD
100
AcDbEntity
  8
寸法
 62
     0
 48
50.0
370
    -2
100
AcDbBlockReference
  2
_DOT
 10
8810.622108757263
 20
5985.63434727299
 30
0.0
 41
20.0
 42
20.0
 43
20.0
  0
MTEXT
  5
150F2
330
14FAD
100
AcDbEntity
  8
寸法
 62
     7
 48
50.0
100
AcDbMText
 10
7075.622108757262
 20
6077.63434727299
 30
0.0
 40
120.0
 41
0.0
 71
     5
 72
     1
  1
\A1;3470
  7
STYLE1
 73
     1
 44
1.0
1001
ACAD
1000
MTEXTBEGIN
1070
    73
1070
     1
1070
    44
1040
1.0
1070
    74
1070
     0
1000
MTEXTEND
  0
POINT
  5
150F3
330
14FAD
100
AcDbEntity
  8
DEFPOINTS
 62
     0
 48
50.0
100
AcDbPoint
 10
5340.622108757263
 20
7365.716304775833
 30
0.0
  0
POINT
  5
150F4
330
14FAD
100
AcDbEntity
  8
DEFPOINTS
 62
     0
 48
50.0
100
AcDbPoint
 10
8810.622108757263
 20
7310.716304775836
 30
0.0
  0
POINT
  5
150F5
330
14FAD
100
AcDbEntity
  8
DEFPOINTS
 62
     0
 48
50.0
100
AcDbPoint
 10
8810.622108757263
 20
5985.63434727299
 30
0.0
  0
ENDBLK
  5
14FB8
330
14FAD
100
AcDbEntity
  8
0
 48
50.0
100
AcDbBlockEnd
  0
BLOCK
  5
14FD1
330
14FC7
100
AcDbEntity
  8
0
 48
50.0
100
AcDbBlockBegin
  2
*D31
 70
     1
 10
0.0
 20
0.0
 30
0.0
  3
*D31
  1

  0
LINE
  5
150E4
330
14FC7
100
AcDbEntity
  8
寸法
 62
     0
 48
50.0
370
    -2
100
AcDbLine
 10
1870.622108757263
 20
7290.716304775838
 30
0.0
 11
1870.622108757263
 21
5945.63434727299
 31
0.0
  0
LINE
  5
150E5
330
14FC7
100
AcDbEntity
  8
寸法
 62
     0
 48
50.0
370
    -2
100
AcDbLine
 10
5340.622108757263
 20
7345.716304775837
 30
0.0
 11
5340.622108757263
 21
5945.63434727299
 31
0.0
  0
LINE
  5
150E6
330
14FC7
100
AcDbEntity
  8
寸法
 62
     0
 48
50.0
370
    -2
100
AcDbLine
 10
1890.622108757263
 20
5985.63434727299
 30
0.0
 11
5320.622108757262
 21
5985.63434727299
 31
0.0
  0
INSERT
  5
150E7
330
14FC7
100
AcDbEntity
  8
寸法
 62
     0
 48
50.0
370
    -2
100
AcDbBlockReference
  2
_DOT
 10
1870.622108757263
 20
5985.63434727299
 30
0.0
 41
20.0
 42
20.0
 43
20.0
 50
180.0
  0
INSERT
  5
150E8
330
14FC7
100
AcDbEntity
  8
寸法
 62
     0
 48
50.0
370
    -2
100
AcDbBlockReference
  2
_DOT
 10
5340.622108757263
 20
5985.63434727299
 30
0.0
 41
20.0
 42
20.0
 43
20.0
  0
MTEXT
  5
150E9
330
14FC7
100
AcDbEntity
  8
寸法
 62
     7
 48
50.0
100
AcDbMText
 10
3605.622108757263
 20
6077.63434727299
 30
0.0
 40
120.0
 41
0.0
 71
     5
 72
     1
  1
\A1;3470
  7
STYLE1
 73
     1
 44
1.0
1001
ACAD
1000
MTEXTBEGIN
1070
    73
1070
     1
1070
    44
1040
1.0
1070
    74
1070
     0
1000
MTEXTEND
  0
POINT
  5
150EA
330
14FC7
100
AcDbEntity
  8
DEFPOINTS
 62
     0
 48
50.0
100
AcDbPoint
 10
1870.622108757263
 20
7310.716304775836
 30
0.0
  0
POINT
  5
150EB
330
14FC7
100
AcDbEntity
  8
DEFPOINTS
 62
     0
 48
50.0
100
AcDbPoint
 10
5340.622108757263
 20
7365.716304775837
 30
0.0
  0
POINT
  5
150EC
330
14FC7
100
AcDbEntity
  8
DEFPOINTS
 62
     0
 48
50.0
100
AcDbPoint
 10
5340.622108757263
 20
5985.63434727299
 30
0.0
  0
ENDBLK
  5
14FD2
330
14FC7
100
AcDbEntity
  8
0
 48
50.0
100
AcDbBlockEnd
  0
ENDSEC
  0
SECTION
  2
ENTITIES
  0
MTEXT
  5
763F
330
747D
100
AcDbEntity
  8
0
100
AcDbMText
 10
302.846345836809
 20
280.1983726409901
 30
0.0
 40
3.5
 41
5.323721266742722
 71
     1
 72
     5
  1

  7
MSMINCHO
 73
     1
 44
1.0
1001
ACAD
1000
MTEXTBEGIN
1070
    73
1070
     1
1070
    44
1040
1.0
1070
    74
1070
     0
1000
MTEXTEND
  0
INSERT
  5
F235
330
747D
100
AcDbEntity
  8
0
100
AcDbBlockReference
  2
作図枠S50
 10
0.0
 20
0.0
 30
0.0
 41
0.8
 42
0.8
 43
0.8
  0
LINE
  5
10B56
330
747D
100
AcDbEntity
  8
補助
  6
PHANTOM
 62
   230
 48
50.0
100
AcDbLine
 10
140.0
 20
0.0
 30
0.0
 11
139.9999999999995
 21
11409.6
 31
0.0
  0
LINE
  5
10B57
330
747D
100
AcDbEntity
  8
補助
  6
PHANTOM
 62
   230
 48
50.0
100
AcDbLine
 10
139.9999999999995
 20
11409.6
 30
0.0
 11
16307.2
 21
11409.6
 31
0.0
  0
LINE
  5
10B59
330
747D
100
AcDbEntity
  8
仕様書枠
  6
Continuous
 48
50.0
100
AcDbLine
 10
13107.2
 20
1200.0
 30
0.0
 11
13107.2
 21
-0.0000000000000729
 31
0.0
  0
LINE
  5
10B5C
330
747D
100
AcDbEntity
  8
仕様書枠
 48
50.0
100
AcDbLine
 10
16307.2
 20
1200.0
 30
0.0
 11
16307.2
 21
-0.0000000000000909
 31
0.0
  0
LINE
  5
10B5D
330
747D
100
AcDbEntity
  8
仕様書枠
 48
50.0
100
AcDbLine
 10
140.0
 20
0.0
 30
0.0
 11
16307.2
 21
-0.0000000000000909
 31
0.0
  0
LINE
  5
10B5E
330
747D
100
AcDbEntity
  8
補助
  6
PHANTOM
 62
   230
 48
50.0
100
AcDbLine
 10
16307.2
 20
11409.6
 30
0.0
 11
16307.2
 21
1200.0
 31
0.0
  0
LINE
  5
10B6C
330
747D
100
AcDbEntity
  8
仕様書枠
 48
50.0
100
AcDbLine
 10
13107.2
 20
1200.0
 30
0.0
 11
16307.2
 21
1200.0
 31
0.0
  0
LINE
  5
10B6D
330
747D
100
AcDbEntity
  8
補助
  6
PHANTOM
 62
   230
 48
50.0
100
AcDbLine
 10
13107.2
 20
11409.6
 30
0.0
 11
13107.2
 21
4800.0
 31
0.0
  0
LINE
  5
10B6F
330
747D
100
AcDbEntity
  8
補助
  6
PHANTOM
 62
   230
 48
50.0
100
AcDbLine
 10
13107.2
 20
4800.0
 30
0.0
 11
16307.2
 21
4800.0
 31
0.0
  0
LINE
  5
10B72
330
747D
100
AcDbEntity
  8
文字
 62
     7
 48
50.0
100
AcDbLine
 10
13187.2
 20
400.0
 30
0.0
 11
16227.2
 21
400.0
 31
0.0
  0
TEXT
  5
10B73
330
747D
100
AcDbEntity
  8
文字
 62
     7
 48
50.0
100
AcDbText
 10
13162.9790565769
 20
895.0906074299405
 30
0.0
 40
200.0
  1
外 形 図
  7
STYLE2
100
AcDbText
  0
TEXT
  5
10B74
330
747D
100
AcDbEntity
  8
文字
 62
     7
 48
50.0
100
AcDbText
 10
13201.43669998441
 20
477.2740661031255
 30
0.0
 40
160.0
  1
機種名
  7
STYLE2
100
AcDbText
  0
TEXT
  5
10B76
330
747D
100
AcDbEntity
  8
文字
 62
     7
 48
50.0
100
AcDbText
 10
13209.4053442172
 20
76.09434707649343
 30
0.0
 40
100.0
  1
○床面積 ： 21.33㎡(6.46坪) 　
  7
STYLE2
100
AcDbText
  0
TEXT
  5
10B79
330
747D
100
AcDbEntity
  8
文字
 62
     7
 48
50.0
100
AcDbText
 10
14524.131837222
 20
1031.557706291228
 30
0.0
 40
100.0
  1
NO.33     <縮尺> S=1/40
  7
STYLE2
100
AcDbText
  0
LINE
  5
10B7B
330
747D
100
AcDbEntity
  8
仕様書枠
 48
50.0
100
AcDbLine
 10
13107.2
 20
800.0
 30
0.0
 11
14251.2
 21
800.0
 31
0.0
  0
LINE
  5
10B88
330
747D
100
AcDbEntity
  8
仕様書枠
  6
Continuous
 48
50.0
100
AcDbLine
 10
14251.2
 20
1200.0
 30
0.0
 11
14251.2
 21
800.0
 31
0.0
  0
TEXT
  5
10EA8
330
747D
100
AcDbEntity
  8
文字
 62
     7
 48
50.0
100
AcDbText
 10
14851.62318972916
 20
838.2527270729188
 30
0.0
 40
100.0
  1
～一般型～
  7
STYLE2
100
AcDbText
  0
LINE
  5
13B41
330
747D
100
AcDbEntity
  8
細線
 48
50.0
100
AcDbLine
 10
5208.122108757248
 20
4428.112805903256
 30
0.0
 11
5208.122108757248
 21
2338.112805903256
 31
0.0
  0
LINE
  5
13B42
330
747D
100
AcDbEntity
  8
細線
 48
50.0
100
AcDbLine
 10
5223.122108757248
 20
4428.112805903256
 30
0.0
 11
5223.122108757248
 21
2338.112805903256
 31
0.0
  0
LINE
  5
13B43
330
747D
100
AcDbEntity
  8
細線
 48
50.0
100
AcDbLine
 10
5083.122108757248
 20
4428.112805903256
 30
0.0
 11
5083.122108757248
 21
2338.112805903256
 31
0.0
  0
LINE
  5
13B44
330
747D
100
AcDbEntity
  8
細線
 48
50.0
100
AcDbLine
 10
5068.122108757249
 20
4428.112805903256
 30
0.0
 11
5068.122108757249
 21
2338.112805903256
 31
0.0
  0
LINE
  5
13B45
330
747D
100
AcDbEntity
  8
細線
 48
50.0
100
AcDbLine
 10
4928.122108757248
 20
4428.112805903256
 30
0.0
 11
4928.122108757248
 21
2338.112805903256
 31
0.0
  0
LINE
  5
13B46
330
747D
100
AcDbEntity
  8
細線
 48
50.0
100
AcDbLine
 10
4943.122108757249
 20
4428.112805903256
 30
0.0
 11
4943.122108757249
 21
2338.112805903256
 31
0.0
  0
LINE
  5
13B47
330
747D
100
AcDbEntity
  8
細線
 48
50.0
100
AcDbLine
 10
2268.122108757248
 20
4428.112805903256
 30
0.0
 11
2268.122108757248
 21
2338.112805903256
 31
0.0
  0
LINE
  5
13B48
330
747D
100
AcDbEntity
  8
細線
 48
50.0
100
AcDbLine
 10
2283.122108757249
 20
4428.112805903256
 30
0.0
 11
2283.122108757249
 21
2338.112805903256
 31
0.0
  0
LINE
  5
13B49
330
747D
100
AcDbEntity
  8
細線
 48
50.0
100
AcDbLine
 10
2143.122108757248
 20
4428.112805903256
 30
0.0
 11
2143.122108757248
 21
2338.112805903256
 31
0.0
  0
LINE
  5
13B4A
330
747D
100
AcDbEntity
  8
細線
 48
50.0
100
AcDbLine
 10
2128.122108757249
 20
4428.112805903256
 30
0.0
 11
2128.122108757249
 21
2338.112805903256
 31
0.0
  0
LINE
  5
13B4B
330
747D
100
AcDbEntity
  8
細線
 48
50.0
100
AcDbLine
 10
1988.122108757248
 20
4428.112805903256
 30
0.0
 11
1988.122108757248
 21
2338.112805903256
 31
0.0
  0
LINE
  5
13B4C
330
747D
100
AcDbEntity
  8
細線
 48
50.0
100
AcDbLine
 10
2003.122108757249
 20
4428.112805903256
 30
0.0
 11
2003.122108757249
 21
2338.112805903256
 31
0.0
  0
LINE
  5
13B4D
330
747D
100
AcDbEntity
  8
細線
 48
50.0
100
AcDbLine
 10
2688.122108757252
 20
4428.112805903256
 30
0.0
 11
2688.122108757252
 21
2338.112805903256
 31
0.0
  0
LINE
  5
13B4E
330
747D
100
AcDbEntity
  8
細線
 48
50.0
100
AcDbLine
 10
2703.122108757253
 20
4428.112805903256
 30
0.0
 11
2703.122108757253
 21
2338.112805903256
 31
0.0
  0
LINE
  5
13B4F
330
747D
100
AcDbEntity
  8
細線
 48
50.0
100
AcDbLine
 10
2563.122108757252
 20
4428.112805903256
 30
0.0
 11
2563.122108757252
 21
2338.112805903256
 31
0.0
  0
LINE
  5
13B50
330
747D
100
AcDbEntity
  8
細線
 48
50.0
100
AcDbLine
 10
2548.122108757252
 20
4428.112805903256
 30
0.0
 11
2548.122108757252
 21
2338.112805903256
 31
0.0
  0
LINE
  5
13B51
330
747D
100
AcDbEntity
  8
細線
 48
50.0
100
AcDbLine
 10
2408.122108757253
 20
4428.112805903256
 30
0.0
 11
2408.122108757253
 21
2338.112805903256
 31
0.0
  0
LINE
  5
13B52
330
747D
100
AcDbEntity
  8
細線
 48
50.0
100
AcDbLine
 10
2423.122108757252
 20
4428.112805903256
 30
0.0
 11
2423.122108757252
 21
2338.112805903256
 31
0.0
  0
LINE
  5
13B53
330
747D
100
AcDbEntity
  8
部品1
100
AcDbLine
 10
2765.622108757263
 20
4428.112805903258
 30
0.0
 11
2765.622108757263
 21
4423.112805903256
 31
0.0
  0
LINE
  5
13B54
330
747D
100
AcDbEntity
  8
部品1
100
AcDbLine
 10
4865.622108757263
 20
4428.112805903258
 30
0.0
 11
4865.622108757263
 21
4423.112805903256
 31
0.0
  0
LINE
  5
13B55
330
747D
100
AcDbEntity
  8
部品1
 48
50.0
100
AcDbLine
 10
2768.622108757263
 20
4379.112805903257
 30
0.0
 11
2738.622108757263
 21
4379.112805903257
 31
0.0
  0
LINE
  5
13B56
330
747D
100
AcDbEntity
  8
細線
 48
50.0
100
AcDbLine
 10
4862.622108757263
 20
4371.112805903256
 30
0.0
 11
2768.622108757263
 21
4371.112805903256
 31
0.0
  0
LINE
  5
13B57
330
747D
100
AcDbEntity
  8
細線
 48
50.0
100
AcDbLine
 10
4862.622108757263
 20
4380.612805903257
 30
0.0
 11
2768.622108757263
 21
4380.612805903257
 31
0.0
  0
LINE
  5
13B58
330
747D
100
AcDbEntity
  8
部品1
 48
50.0
100
AcDbLine
 10
4892.622108757262
 20
4423.112805903256
 30
0.0
 11
2738.622108757263
 21
4423.112805903256
 31
0.0
  0
LINE
  5
13B59
330
747D
100
AcDbEntity
  8
細線
 48
50.0
100
AcDbLine
 10
4892.622108757262
 20
4413.112805903256
 30
0.0
 11
2738.622108757263
 21
4413.112805903256
 31
0.0
  0
LINE
  5
13B5A
330
747D
100
AcDbEntity
  8
部品1
 48
50.0
100
AcDbLine
 10
4892.622108757262
 20
4379.112805903257
 30
0.0
 11
4862.622108757263
 21
4379.112805903257
 31
0.0
  0
LINE
  5
13B5B
330
747D
100
AcDbEntity
  8
細線
 48
50.0
100
AcDbLine
 10
3566.622108757263
 20
2345.612805903256
 30
0.0
 11
4836.622108757263
 21
2345.612805903256
 31
0.0
  0
LINE
  5
13B5C
330
747D
100
AcDbEntity
  8
細線
 48
50.0
100
AcDbLine
 10
4840.622108757263
 20
2335.112805903256
 30
0.0
 11
4836.622108757263
 21
2345.612805903256
 31
0.0
  0
LINE
  5
13B5D
330
747D
100
AcDbEntity
  8
部品1
 48
50.0
100
AcDbLine
 10
2738.622108757263
 20
4423.112805903256
 30
0.0
 11
2738.622108757263
 21
2188.112805903256
 31
0.0
  0
LINE
  5
13B5E
330
747D
100
AcDbEntity
  8
部品1
 48
50.0
100
AcDbLine
 10
2768.622108757263
 20
2338.112805903256
 30
0.0
 11
2768.622108757263
 21
4371.112805903256
 31
0.0
  0
LINE
  5
13B5F
330
747D
100
AcDbEntity
  8
細線
 48
50.0
100
AcDbLine
 10
2768.622108757263
 20
4380.612805903257
 30
0.0
 11
2768.622108757263
 21
2288.112805903256
 31
0.0
  0
LINE
  5
13B60
330
747D
100
AcDbEntity
  8
部品1
 48
50.0
100
AcDbLine
 10
2777.622108757263
 20
2338.112805903256
 30
0.0
 11
2777.622108757263
 21
2335.112805903256
 31
0.0
  0
LINE
  5
13B61
330
747D
100
AcDbEntity
  8
細線
 48
50.0
100
AcDbLine
 10
2768.622108757263
 20
2331.112805903256
 30
0.0
 11
4862.622108757263
 21
2331.112805903256
 31
0.0
  0
LINE
  5
13B62
330
747D
100
AcDbEntity
  8
細線
 48
50.0
100
AcDbLine
 10
2768.622108757263
 20
2335.112805903256
 30
0.0
 11
4862.622108757263
 21
2335.112805903256
 31
0.0
  0
LINE
  5
13B63
330
747D
100
AcDbEntity
  8
部品1
 48
50.0
100
AcDbLine
 10
2768.622108757263
 20
2338.112805903256
 30
0.0
 11
3566.622108757263
 21
2338.112805903256
 31
0.0
  0
LINE
  5
13B64
330
747D
100
AcDbEntity
  8
部品1
 48
50.0
100
AcDbLine
 10
3566.622108757263
 20
4371.112805903256
 30
0.0
 11
3566.622108757263
 21
2338.112805903256
 31
0.0
  0
LINE
  5
13B65
330
747D
100
AcDbEntity
  8
部品1
 48
50.0
100
AcDbLine
 10
4853.622108757264
 20
2335.112805903256
 30
0.0
 11
4853.622108757264
 21
4371.112805903256
 31
0.0
  0
LINE
  5
13B66
330
747D
100
AcDbEntity
  8
細線
 48
50.0
100
AcDbLine
 10
4862.622108757263
 20
2288.112805903256
 30
0.0
 11
4862.622108757263
 21
4380.612805903257
 31
0.0
  0
LINE
  5
13B67
330
747D
100
AcDbEntity
  8
部品1
 48
50.0
100
AcDbLine
 10
4892.622108757262
 20
2188.112805903256
 30
0.0
 11
4892.622108757262
 21
4423.112805903256
 31
0.0
  0
LINE
  5
13B68
330
747D
100
AcDbEntity
  8
部品1
 48
50.0
100
AcDbLine
 10
4217.622108757263
 20
4371.112805903256
 30
0.0
 11
4217.622108757263
 21
2345.612805903256
 31
0.0
  0
LINE
  5
13B69
330
747D
100
AcDbEntity
  8
細線
100
AcDbLine
 10
4352.122108757263
 20
4371.112805903258
 30
0.0
 11
4352.122108757263
 21
2345.612805903275
 31
0.0
  0
LINE
  5
13B6A
330
747D
100
AcDbEntity
  8
細線
100
AcDbLine
 10
3626.622108757263
 20
4371.112805903258
 30
0.0
 11
3626.622108757263
 21
2345.612805903271
 31
0.0
  0
LINE
  5
13B6B
330
747D
100
AcDbEntity
  8
細線
100
AcDbLine
 10
3696.622108757264
 20
4371.112805903258
 30
0.0
 11
3696.622108757264
 21
2345.612805903271
 31
0.0
  0
LINE
  5
13B6C
330
747D
100
AcDbEntity
  8
細線
100
AcDbLine
 10
2982.622108757263
 20
4371.112805903258
 30
0.0
 11
2982.622108757263
 21
2338.11280590326
 31
0.0
  0
LINE
  5
13B6D
330
747D
100
AcDbEntity
  8
細線
100
AcDbLine
 10
3052.622108757263
 20
4371.112805903258
 30
0.0
 11
3052.622108757263
 21
2338.11280590326
 31
0.0
  0
LINE
  5
13B87
330
747D
100
AcDbEntity
  8
部品1
 48
50.0
100
AcDbLine
 10
2812.622108757263
 20
3419.612805903258
 30
0.0
 11
2865.622108757263
 21
3419.612805903258
 31
0.0
  0
LINE
  5
13B8B
330
747D
100
AcDbEntity
  8
細線
100
AcDbLine
 10
4422.122108757263
 20
4371.112805903258
 30
0.0
 11
4422.122108757263
 21
2345.612805903275
 31
0.0
  0
LINE
  5
13B8C
330
747D
100
AcDbEntity
  8
細線
100
AcDbLine
 10
4492.122108757263
 20
4371.112805903258
 30
0.0
 11
4492.122108757263
 21
2345.612805903275
 31
0.0
  0
LINE
  5
13B8D
330
747D
100
AcDbEntity
  8
細線
100
AcDbLine
 10
4562.122108757263
 20
4371.112805903258
 30
0.0
 11
4562.122108757263
 21
2345.612805903275
 31
0.0
  0
LINE
  5
13B8E
330
747D
100
AcDbEntity
  8
細線
100
AcDbLine
 10
4632.122108757263
 20
4371.112805903258
 30
0.0
 11
4632.122108757263
 21
2345.612805903275
 31
0.0
  0
LINE
  5
13B8F
330
747D
100
AcDbEntity
  8
細線
100
AcDbLine
 10
4702.122108757263
 20
4371.112805903258
 30
0.0
 11
4702.122108757263
 21
2345.612805903275
 31
0.0
  0
LINE
  5
13B90
330
747D
100
AcDbEntity
  8
細線
100
AcDbLine
 10
3766.622108757263
 20
4371.112805903258
 30
0.0
 11
3766.622108757263
 21
2345.612805903271
 31
0.0
  0
LINE
  5
13B91
330
747D
100
AcDbEntity
  8
細線
100
AcDbLine
 10
3836.622108757263
 20
4371.112805903258
 30
0.0
 11
3836.622108757263
 21
2345.612805903271
 31
0.0
  0
LINE
  5
13B92
330
747D
100
AcDbEntity
  8
細線
100
AcDbLine
 10
3906.622108757263
 20
4371.112805903258
 30
0.0
 11
3906.622108757263
 21
2345.612805903271
 31
0.0
  0
LINE
  5
13B93
330
747D
100
AcDbEntity
  8
細線
100
AcDbLine
 10
3976.622108757263
 20
4371.112805903258
 30
0.0
 11
3976.622108757263
 21
2345.612805903271
 31
0.0
  0
LINE
  5
13B94
330
747D
100
AcDbEntity
  8
細線
100
AcDbLine
 10
4046.622108757263
 20
4371.112805903258
 30
0.0
 11
4046.622108757263
 21
2345.612805903271
 31
0.0
  0
LINE
  5
13B95
330
747D
100
AcDbEntity
  8
細線
100
AcDbLine
 10
4116.622108757263
 20
4371.112805903258
 30
0.0
 11
4116.622108757263
 21
2345.612805903271
 31
0.0
  0
LINE
  5
13B96
330
747D
100
AcDbEntity
  8
細線
100
AcDbLine
 10
2896.622108757263
 20
4371.112805903258
 30
0.0
 11
2896.622108757263
 21
2338.112805903264
 31
0.0
  0
LINE
  5
13B97
330
747D
100
AcDbEntity
  8
細線
100
AcDbLine
 10
2930.622108757263
 20
4371.112805903258
 30
0.0
 11
2930.622108757263
 21
2338.112805903264
 31
0.0
  0
LINE
  5
13B98
330
747D
100
AcDbEntity
  8
部品1
100
AcDbLine
 10
2888.622108757263
 20
4371.112805903258
 30
0.0
 11
2888.622108757263
 21
2338.112805903264
 31
0.0
  0
LINE
  5
13B99
330
747D
100
AcDbEntity
  8
部品1
100
AcDbLine
 10
2938.622108757263
 20
4371.112805903258
 30
0.0
 11
2938.622108757263
 21
2338.112805903264
 31
0.0
  0
LINE
  5
13B9A
330
747D
100
AcDbEntity
  8
細線
100
AcDbLine
 10
3122.622108757263
 20
4371.112805903258
 30
0.0
 11
3122.622108757263
 21
2338.11280590326
 31
0.0
  0
LINE
  5
13B9B
330
747D
100
AcDbEntity
  8
細線
100
AcDbLine
 10
3192.622108757263
 20
4371.112805903258
 30
0.0
 11
3192.622108757263
 21
2338.11280590326
 31
0.0
  0
LINE
  5
13B9C
330
747D
100
AcDbEntity
  8
細線
100
AcDbLine
 10
3262.622108757263
 20
4371.112805903258
 30
0.0
 11
3262.622108757263
 21
2338.11280590326
 31
0.0
  0
LINE
  5
13B9D
330
747D
100
AcDbEntity
  8
細線
100
AcDbLine
 10
3332.622108757263
 20
4371.112805903258
 30
0.0
 11
3332.622108757263
 21
2338.112805903264
 31
0.0
  0
LINE
  5
13B9E
330
747D
100
AcDbEntity
  8
細線
100
AcDbLine
 10
3402.622108757263
 20
4371.112805903258
 30
0.0
 11
3402.622108757263
 21
2338.112805903264
 31
0.0
  0
LINE
  5
13B9F
330
747D
100
AcDbEntity
  8
細線
100
AcDbLine
 10
3472.622108757263
 20
4371.112805903258
 30
0.0
 11
3472.622108757263
 21
2338.112805903264
 31
0.0
  0
LINE
  5
13BA0
330
747D
100
AcDbEntity
  8
部品1
100
AcDbLine
 10
4217.622108757256
 20
4371.112805903258
 30
0.0
 11
4217.622108757263
 21
2345.612805903271
 31
0.0
  0
LINE
  5
13BA1
330
747D
100
AcDbEntity
  8
部品1
 48
50.0
100
AcDbLine
 10
3566.622108757263
 20
4371.112805903258
 30
0.0
 11
3566.622108757263
 21
2338.112805903256
 31
0.0
  0
LINE
  5
13BA2
330
747D
100
AcDbEntity
  8
細線
100
AcDbLine
 10
2765.622108757256
 20
4487.612805903254
 30
0.0
 11
2765.622108757256
 21
4464.612805903254
 31
0.0
  0
LINE
  5
13BA3
330
747D
100
AcDbEntity
  8
細線
100
AcDbLine
 10
2839.622108757256
 20
4475.612805903255
 30
0.0
 11
2765.622108757256
 21
4475.612805903255
 31
0.0
  0
LINE
  5
13BA4
330
747D
100
AcDbEntity
  8
細線
100
AcDbLine
 10
2839.622108757256
 20
4469.612805903252
 30
0.0
 11
2765.622108757256
 21
4469.612805903254
 31
0.0
  0
LINE
  5
13BA5
330
747D
100
AcDbEntity
  8
細線
100
AcDbLine
 10
2839.622108757256
 20
4481.612805903252
 30
0.0
 11
2765.622108757256
 21
4481.612805903254
 31
0.0
  0
LINE
  5
13BA6
330
747D
100
AcDbEntity
  8
細線
100
AcDbLine
 10
2691.622108757256
 20
4481.612805903254
 30
0.0
 11
2760.622108757256
 21
4481.612805903254
 31
0.0
  0
LINE
  5
13BA7
330
747D
100
AcDbEntity
  8
細線
100
AcDbLine
 10
2691.622108757256
 20
4469.612805903254
 30
0.0
 11
2765.622108757256
 21
4469.612805903254
 31
0.0
  0
LINE
  5
13BA8
330
747D
100
AcDbEntity
  8
細線
100
AcDbLine
 10
2691.622108757256
 20
4475.612805903255
 30
0.0
 11
2765.622108757256
 21
4475.612805903255
 31
0.0
  0
LINE
  5
13BA9
330
747D
100
AcDbEntity
  8
細線
100
AcDbLine
 10
2691.622108757256
 20
4481.612805903254
 30
0.0
 11
2765.622108757256
 21
4481.612805903254
 31
0.0
  0
LINE
  5
13BAA
330
747D
100
AcDbEntity
  8
部品1
 48
0.01
100
AcDbLine
 10
2853.622108757256
 20
4494.112805903254
 30
0.0
 11
2677.622108757256
 21
4494.112805903254
 31
0.0
  0
LINE
  5
13BAB
330
747D
100
AcDbEntity
  8
部品1
 48
0.01
100
AcDbLine
 10
2675.622108757256
 20
4492.112805903254
 30
0.0
 11
2675.622108757256
 21
4460.612805903254
 31
0.0
  0
LINE
  5
13BAC
330
747D
100
AcDbEntity
  8
部品1
 48
0.01
100
AcDbLine
 10
2677.622108757256
 20
4458.612805903254
 30
0.0
 11
2853.622108757256
 21
4458.612805903254
 31
0.0
  0
LINE
  5
13BAD
330
747D
100
AcDbEntity
  8
部品1
 48
0.01
100
AcDbLine
 10
2855.622108757256
 20
4460.612805903254
 30
0.0
 11
2855.622108757256
 21
4492.112805903254
 31
0.0
  0
LINE
  5
13BAE
330
747D
100
AcDbEntity
  8
細線
100
AcDbLine
 10
2691.622108757256
 20
4487.612805903254
 30
0.0
 11
2691.622108757256
 21
4464.612805903254
 31
0.0
  0
LINE
  5
13BAF
330
747D
100
AcDbEntity
  8
細線
100
AcDbLine
 10
2839.622108757256
 20
4464.612805903254
 30
0.0
 11
2839.622108757256
 21
4487.612805903254
 31
0.0
  0
LINE
  5
13BB0
330
747D
100
AcDbEntity
  8
細線
100
AcDbLine
 10
2839.622108757256
 20
4487.612805903254
 30
0.0
 11
2765.622108757256
 21
4487.612805903254
 31
0.0
  0
LINE
  5
13BB1
330
747D
100
AcDbEntity
  8
細線
100
AcDbLine
 10
2691.622108757256
 20
4464.612805903254
 30
0.0
 11
2765.622108757256
 21
4464.612805903254
 31
0.0
  0
LINE
  5
13BB2
330
747D
100
AcDbEntity
  8
細線
100
AcDbLine
 10
2765.622108757256
 20
4487.612805903254
 30
0.0
 11
2691.622108757256
 21
4487.612805903254
 31
0.0
  0
LINE
  5
13BB3
330
747D
100
AcDbEntity
  8
細線
100
AcDbLine
 10
2765.622108757256
 20
4464.612805903254
 30
0.0
 11
2839.622108757256
 21
4464.612805903254
 31
0.0
  0
ARC
  5
13BB4
330
747D
100
AcDbEntity
  8
部品1
 48
0.01
100
AcDbCircle
 10
2677.622108757256
 20
4492.112805903254
 30
0.0
 40
2.0
100
AcDbArc
 50
90.0
 51
180.0
  0
ARC
  5
13BB5
330
747D
100
AcDbEntity
  8
部品1
 48
0.01
100
AcDbCircle
 10
2677.622108757256
 20
4460.612805903254
 30
0.0
 40
2.0
100
AcDbArc
 50
180.0
 51
270.0
  0
ARC
  5
13BB6
330
747D
100
AcDbEntity
  8
部品1
 48
0.01
100
AcDbCircle
 10
2853.622108757256
 20
4492.112805903254
 30
0.0
 40
2.0
100
AcDbArc
 50
0.0
 51
90.0
  0
ARC
  5
13BB7
330
747D
100
AcDbEntity
  8
部品1
 48
0.01
100
AcDbCircle
 10
2853.622108757256
 20
4460.612805903254
 30
0.0
 40
2.0
100
AcDbArc
 50
270.0
 51
0.0
  0
ARC
  5
13BB8
330
747D
100
AcDbEntity
  8
部品1
 48
0.01
100
AcDbCircle
 10
4357.62210875727
 20
4460.612805903256
 30
0.0
 40
2.0
100
AcDbArc
 50
180.0
 51
270.0
  0
ARC
  5
13BB9
330
747D
100
AcDbEntity
  8
部品1
 48
0.01
100
AcDbCircle
 10
4357.62210875727
 20
4492.112805903256
 30
0.0
 40
2.0
100
AcDbArc
 50
90.0
 51
180.0
  0
ARC
  5
13BBA
330
747D
100
AcDbEntity
  8
部品1
 48
0.01
100
AcDbCircle
 10
4533.62210875727
 20
4460.612805903256
 30
0.0
 40
2.0
100
AcDbArc
 50
270.0
 51
0.0
  0
ARC
  5
13BBB
330
747D
100
AcDbEntity
  8
部品1
 48
0.01
100
AcDbCircle
 10
4533.62210875727
 20
4492.112805903256
 30
0.0
 40
2.0
100
AcDbArc
 50
0.0
 51
90.0
  0
LINE
  5
13BBC
330
747D
100
AcDbEntity
  8
細線
100
AcDbLine
 10
4445.62210875727
 20
4464.612805903256
 30
0.0
 11
4371.622108757271
 21
4464.612805903256
 31
0.0
  0
LINE
  5
13BBD
330
747D
100
AcDbEntity
  8
細線
100
AcDbLine
 10
4445.62210875727
 20
4487.612805903256
 30
0.0
 11
4519.62210875727
 21
4487.612805903256
 31
0.0
  0
LINE
  5
13BBE
330
747D
100
AcDbEntity
  8
細線
100
AcDbLine
 10
4519.62210875727
 20
4464.612805903256
 30
0.0
 11
4445.62210875727
 21
4464.612805903256
 31
0.0
  0
LINE
  5
13BBF
330
747D
100
AcDbEntity
  8
細線
100
AcDbLine
 10
4371.622108757271
 20
4487.612805903256
 30
0.0
 11
4445.62210875727
 21
4487.612805903256
 31
0.0
  0
LINE
  5
13BC0
330
747D
100
AcDbEntity
  8
細線
100
AcDbLine
 10
4371.622108757271
 20
4464.612805903256
 30
0.0
 11
4371.622108757271
 21
4487.612805903256
 31
0.0
  0
LINE
  5
13BC1
330
747D
100
AcDbEntity
  8
細線
100
AcDbLine
 10
4519.62210875727
 20
4487.612805903256
 30
0.0
 11
4519.62210875727
 21
4464.612805903256
 31
0.0
  0
LINE
  5
13BC2
330
747D
100
AcDbEntity
  8
部品1
 48
0.01
100
AcDbLine
 10
4355.62210875727
 20
4460.612805903256
 30
0.0
 11
4355.62210875727
 21
4492.112805903256
 31
0.0
  0
LINE
  5
13BC3
330
747D
100
AcDbEntity
  8
部品1
 48
0.01
100
AcDbLine
 10
4533.62210875727
 20
4458.612805903256
 30
0.0
 11
4357.62210875727
 21
4458.612805903256
 31
0.0
  0
LINE
  5
13BC4
330
747D
100
AcDbEntity
  8
部品1
 48
0.01
100
AcDbLine
 10
4535.62210875727
 20
4492.112805903256
 30
0.0
 11
4535.62210875727
 21
4460.612805903256
 31
0.0
  0
LINE
  5
13BC5
330
747D
100
AcDbEntity
  8
部品1
 48
0.01
100
AcDbLine
 10
4357.62210875727
 20
4494.112805903256
 30
0.0
 11
4533.62210875727
 21
4494.112805903256
 31
0.0
  0
LINE
  5
13BC6
330
747D
100
AcDbEntity
  8
細線
100
AcDbLine
 10
4519.62210875727
 20
4481.612805903256
 30
0.0
 11
4445.62210875727
 21
4481.612805903256
 31
0.0
  0
LINE
  5
13BC7
330
747D
100
AcDbEntity
  8
細線
100
AcDbLine
 10
4519.62210875727
 20
4475.612805903256
 30
0.0
 11
4445.62210875727
 21
4475.612805903256
 31
0.0
  0
LINE
  5
13BC8
330
747D
100
AcDbEntity
  8
細線
100
AcDbLine
 10
4519.62210875727
 20
4469.612805903255
 30
0.0
 11
4445.62210875727
 21
4469.612805903255
 31
0.0
  0
LINE
  5
13BC9
330
747D
100
AcDbEntity
  8
細線
100
AcDbLine
 10
4519.62210875727
 20
4481.612805903256
 30
0.0
 11
4450.62210875727
 21
4481.612805903256
 31
0.0
  0
LINE
  5
13BCA
330
747D
100
AcDbEntity
  8
細線
100
AcDbLine
 10
4371.622108757271
 20
4481.612805903254
 30
0.0
 11
4445.62210875727
 21
4481.612805903256
 31
0.0
  0
LINE
  5
13BCB
330
747D
100
AcDbEntity
  8
細線
100
AcDbLine
 10
4371.622108757271
 20
4469.612805903254
 30
0.0
 11
4445.62210875727
 21
4469.612805903255
 31
0.0
  0
LINE
  5
13BCC
330
747D
100
AcDbEntity
  8
細線
100
AcDbLine
 10
4371.622108757271
 20
4475.612805903256
 30
0.0
 11
4445.62210875727
 21
4475.612805903256
 31
0.0
  0
LINE
  5
13BCD
330
747D
100
AcDbEntity
  8
細線
100
AcDbLine
 10
4445.62210875727
 20
4487.612805903256
 30
0.0
 11
4445.62210875727
 21
4464.612805903256
 31
0.0
  0
LINE
  5
13BCE
330
747D
100
AcDbEntity
  8
細線
100
AcDbLine
 10
7915.62210875727
 20
4487.612805903256
 30
0.0
 11
7915.62210875727
 21
4464.612805903256
 31
0.0
  0
LINE
  5
13BCF
330
747D
100
AcDbEntity
  8
細線
100
AcDbLine
 10
7841.62210875727
 20
4475.612805903256
 30
0.0
 11
7915.62210875727
 21
4475.612805903256
 31
0.0
  0
LINE
  5
13BD0
330
747D
100
AcDbEntity
  8
細線
100
AcDbLine
 10
7841.62210875727
 20
4469.612805903254
 30
0.0
 11
7915.62210875727
 21
4469.612805903255
 31
0.0
  0
LINE
  5
13BD1
330
747D
100
AcDbEntity
  8
細線
100
AcDbLine
 10
7841.62210875727
 20
4481.612805903254
 30
0.0
 11
7915.62210875727
 21
4481.612805903256
 31
0.0
  0
LINE
  5
13BD2
330
747D
100
AcDbEntity
  8
細線
100
AcDbLine
 10
7989.62210875727
 20
4481.612805903256
 30
0.0
 11
7920.62210875727
 21
4481.612805903256
 31
0.0
  0
LINE
  5
13BD3
330
747D
100
AcDbEntity
  8
細線
100
AcDbLine
 10
7989.62210875727
 20
4469.612805903255
 30
0.0
 11
7915.62210875727
 21
4469.612805903255
 31
0.0
  0
LINE
  5
13BD4
330
747D
100
AcDbEntity
  8
細線
100
AcDbLine
 10
7989.62210875727
 20
4475.612805903256
 30
0.0
 11
7915.62210875727
 21
4475.612805903256
 31
0.0
  0
LINE
  5
13BD5
330
747D
100
AcDbEntity
  8
細線
100
AcDbLine
 10
7989.62210875727
 20
4481.612805903256
 30
0.0
 11
7915.62210875727
 21
4481.612805903256
 31
0.0
  0
LINE
  5
13BD6
330
747D
100
AcDbEntity
  8
部品1
 48
0.01
100
AcDbLine
 10
7827.622108757271
 20
4494.112805903256
 30
0.0
 11
8003.622108757269
 21
4494.112805903256
 31
0.0
  0
LINE
  5
13BD7
330
747D
100
AcDbEntity
  8
部品1
 48
0.01
100
AcDbLine
 10
8005.62210875727
 20
4492.112805903256
 30
0.0
 11
8005.62210875727
 21
4460.612805903256
 31
0.0
  0
LINE
  5
13BD8
330
747D
100
AcDbEntity
  8
部品1
 48
0.01
100
AcDbLine
 10
8003.622108757269
 20
4458.612805903256
 30
0.0
 11
7827.622108757271
 21
4458.612805903256
 31
0.0
  0
LINE
  5
13BD9
330
747D
100
AcDbEntity
  8
部品1
 48
0.01
100
AcDbLine
 10
7825.622108757271
 20
4460.612805903256
 30
0.0
 11
7825.622108757271
 21
4492.112805903256
 31
0.0
  0
LINE
  5
13BDA
330
747D
100
AcDbEntity
  8
細線
100
AcDbLine
 10
7989.62210875727
 20
4487.612805903256
 30
0.0
 11
7989.62210875727
 21
4464.612805903256
 31
0.0
  0
LINE
  5
13BDB
330
747D
100
AcDbEntity
  8
細線
100
AcDbLine
 10
7841.62210875727
 20
4464.612805903256
 30
0.0
 11
7841.62210875727
 21
4487.612805903256
 31
0.0
  0
LINE
  5
13BDC
330
747D
100
AcDbEntity
  8
細線
100
AcDbLine
 10
7841.62210875727
 20
4487.612805903256
 30
0.0
 11
7915.62210875727
 21
4487.612805903256
 31
0.0
  0
LINE
  5
13BDD
330
747D
100
AcDbEntity
  8
細線
100
AcDbLine
 10
7989.62210875727
 20
4464.612805903256
 30
0.0
 11
7915.62210875727
 21
4464.612805903256
 31
0.0
  0
LINE
  5
13BDE
330
747D
100
AcDbEntity
  8
細線
100
AcDbLine
 10
7915.62210875727
 20
4487.612805903256
 30
0.0
 11
7989.62210875727
 21
4487.612805903256
 31
0.0
  0
LINE
  5
13BDF
330
747D
100
AcDbEntity
  8
細線
100
AcDbLine
 10
7915.62210875727
 20
4464.612805903256
 30
0.0
 11
7841.62210875727
 21
4464.612805903256
 31
0.0
  0
ARC
  5
13BE0
330
747D
100
AcDbEntity
  8
部品1
 48
0.01
100
AcDbCircle
 10
8003.622108757269
 20
4492.112805903256
 30
0.0
 40
2.0
100
AcDbArc
 50
0.0
 51
90.0
  0
ARC
  5
13BE1
330
747D
100
AcDbEntity
  8
部品1
 48
0.01
100
AcDbCircle
 10
8003.622108757269
 20
4460.612805903256
 30
0.0
 40
2.0
100
AcDbArc
 50
270.0
 51
0.0
  0
ARC
  5
13BE2
330
747D
100
AcDbEntity
  8
部品1
 48
0.01
100
AcDbCircle
 10
7827.622108757271
 20
4492.112805903256
 30
0.0
 40
2.0
100
AcDbArc
 50
90.0
 51
180.0
  0
ARC
  5
13BE3
330
747D
100
AcDbEntity
  8
部品1
 48
0.01
100
AcDbCircle
 10
7827.622108757271
 20
4460.612805903256
 30
0.0
 40
2.0
100
AcDbArc
 50
180.0
 51
270.0
  0
ARC
  5
13BE4
330
747D
100
AcDbEntity
  8
部品1
 48
0.01
100
AcDbCircle
 10
6323.622108757255
 20
4460.612805903254
 30
0.0
 40
2.0
100
AcDbArc
 50
270.0
 51
0.0
  0
ARC
  5
13BE5
330
747D
100
AcDbEntity
  8
部品1
 48
0.01
100
AcDbCircle
 10
6323.622108757255
 20
4492.112805903254
 30
0.0
 40
2.0
100
AcDbArc
 50
0.0
 51
90.0
  0
ARC
  5
13BE6
330
747D
100
AcDbEntity
  8
部品1
 48
0.01
100
AcDbCircle
 10
6147.622108757256
 20
4460.612805903254
 30
0.0
 40
2.0
100
AcDbArc
 50
180.0
 51
270.0
  0
ARC
  5
13BE7
330
747D
100
AcDbEntity
  8
部品1
 48
0.01
100
AcDbCircle
 10
6147.622108757256
 20
4492.112805903254
 30
0.0
 40
2.0
100
AcDbArc
 50
90.0
 51
180.0
  0
LINE
  5
13BE8
330
747D
100
AcDbEntity
  8
細線
100
AcDbLine
 10
6235.622108757255
 20
4464.612805903254
 30
0.0
 11
6309.622108757256
 21
4464.612805903254
 31
0.0
  0
LINE
  5
13BE9
330
747D
100
AcDbEntity
  8
細線
100
AcDbLine
 10
6235.622108757255
 20
4487.612805903254
 30
0.0
 11
6161.622108757256
 21
4487.612805903254
 31
0.0
  0
LINE
  5
13BEA
330
747D
100
AcDbEntity
  8
細線
100
AcDbLine
 10
6161.622108757256
 20
4464.612805903254
 30
0.0
 11
6235.622108757255
 21
4464.612805903254
 31
0.0
  0
LINE
  5
13BEB
330
747D
100
AcDbEntity
  8
細線
100
AcDbLine
 10
6309.622108757256
 20
4487.612805903254
 30
0.0
 11
6235.622108757255
 21
4487.612805903254
 31
0.0
  0
LINE
  5
13BEC
330
747D
100
AcDbEntity
  8
細線
100
AcDbLine
 10
6309.622108757256
 20
4464.612805903254
 30
0.0
 11
6309.622108757256
 21
4487.612805903254
 31
0.0
  0
LINE
  5
13BED
330
747D
100
AcDbEntity
  8
細線
100
AcDbLine
 10
6161.622108757256
 20
4487.612805903254
 30
0.0
 11
6161.622108757256
 21
4464.612805903254
 31
0.0
  0
LINE
  5
13BEE
330
747D
100
AcDbEntity
  8
部品1
 48
0.01
100
AcDbLine
 10
6325.622108757256
 20
4460.612805903254
 30
0.0
 11
6325.622108757256
 21
4492.112805903254
 31
0.0
  0
LINE
  5
13BEF
330
747D
100
AcDbEntity
  8
部品1
 48
0.01
100
AcDbLine
 10
6147.622108757256
 20
4458.612805903254
 30
0.0
 11
6323.622108757255
 21
4458.612805903254
 31
0.0
  0
LINE
  5
13BF0
330
747D
100
AcDbEntity
  8
部品1
 48
0.01
100
AcDbLine
 10
6145.622108757256
 20
4492.112805903254
 30
0.0
 11
6145.622108757256
 21
4460.612805903254
 31
0.0
  0
LINE
  5
13BF1
330
747D
100
AcDbEntity
  8
部品1
 48
0.01
100
AcDbLine
 10
6323.622108757255
 20
4494.112805903254
 30
0.0
 11
6147.622108757256
 21
4494.112805903254
 31
0.0
  0
LINE
  5
13BF2
330
747D
100
AcDbEntity
  8
細線
100
AcDbLine
 10
6161.622108757256
 20
4481.612805903254
 30
0.0
 11
6235.622108757255
 21
4481.612805903254
 31
0.0
  0
LINE
  5
13BF3
330
747D
100
AcDbEntity
  8
細線
100
AcDbLine
 10
6161.622108757256
 20
4475.612805903255
 30
0.0
 11
6235.622108757255
 21
4475.612805903255
 31
0.0
  0
LINE
  5
13BF4
330
747D
100
AcDbEntity
  8
細線
100
AcDbLine
 10
6161.622108757256
 20
4469.612805903254
 30
0.0
 11
6235.622108757255
 21
4469.612805903254
 31
0.0
  0
LINE
  5
13BF5
330
747D
100
AcDbEntity
  8
細線
100
AcDbLine
 10
6161.622108757256
 20
4481.612805903254
 30
0.0
 11
6230.622108757255
 21
4481.612805903254
 31
0.0
  0
LINE
  5
13BF6
330
747D
100
AcDbEntity
  8
細線
100
AcDbLine
 10
6309.622108757256
 20
4481.612805903252
 30
0.0
 11
6235.622108757255
 21
4481.612805903254
 31
0.0
  0
LINE
  5
13BF7
330
747D
100
AcDbEntity
  8
細線
100
AcDbLine
 10
6309.622108757256
 20
4469.612805903252
 30
0.0
 11
6235.622108757255
 21
4469.612805903254
 31
0.0
  0
LINE
  5
13BF8
330
747D
100
AcDbEntity
  8
細線
100
AcDbLine
 10
6309.622108757256
 20
4475.612805903255
 30
0.0
 11
6235.622108757255
 21
4475.612805903255
 31
0.0
  0
LINE
  5
13BF9
330
747D
100
AcDbEntity
  8
細線
100
AcDbLine
 10
6235.622108757255
 20
4487.612805903254
 30
0.0
 11
6235.622108757255
 21
4464.612805903254
 31
0.0
  0
LINE
  5
13BFA
330
747D
100
AcDbEntity
  8
細線
 48
50.0
100
AcDbLine
 10
5473.122108757248
 20
4428.112805903256
 30
0.0
 11
5473.122108757248
 21
2338.112805903256
 31
0.0
  0
LINE
  5
13BFB
330
747D
100
AcDbEntity
  8
細線
 48
50.0
100
AcDbLine
 10
5458.122108757248
 20
4428.112805903256
 30
0.0
 11
5458.122108757248
 21
2338.112805903256
 31
0.0
  0
LINE
  5
13BFC
330
747D
100
AcDbEntity
  8
細線
 48
50.0
100
AcDbLine
 10
5598.122108757248
 20
4428.112805903256
 30
0.0
 11
5598.122108757248
 21
2338.112805903256
 31
0.0
  0
LINE
  5
13BFD
330
747D
100
AcDbEntity
  8
細線
 48
50.0
100
AcDbLine
 10
5613.122108757249
 20
4428.112805903256
 30
0.0
 11
5613.122108757249
 21
2338.112805903256
 31
0.0
  0
LINE
  5
13BFE
330
747D
100
AcDbEntity
  8
細線
 48
50.0
100
AcDbLine
 10
5753.122108757248
 20
4428.112805903256
 30
0.0
 11
5753.122108757248
 21
2338.112805903256
 31
0.0
  0
LINE
  5
13BFF
330
747D
100
AcDbEntity
  8
細線
 48
50.0
100
AcDbLine
 10
5738.122108757249
 20
4428.112805903256
 30
0.0
 11
5738.122108757249
 21
2338.112805903256
 31
0.0
  0
LINE
  5
13C00
330
747D
100
AcDbEntity
  8
細線
 48
50.0
100
AcDbLine
 10
5893.122108757252
 20
4428.112805903256
 30
0.0
 11
5893.122108757252
 21
2338.112805903256
 31
0.0
  0
LINE
  5
13C01
330
747D
100
AcDbEntity
  8
細線
 48
50.0
100
AcDbLine
 10
5878.122108757253
 20
4428.112805903256
 30
0.0
 11
5878.122108757253
 21
2338.112805903256
 31
0.0
  0
LINE
  5
13C02
330
747D
100
AcDbEntity
  8
細線
 48
50.0
100
AcDbLine
 10
6018.122108757252
 20
4428.112805903256
 30
0.0
 11
6018.122108757252
 21
2338.112805903256
 31
0.0
  0
LINE
  5
13C03
330
747D
100
AcDbEntity
  8
細線
 48
50.0
100
AcDbLine
 10
6033.122108757252
 20
4428.112805903256
 30
0.0
 11
6033.122108757252
 21
2338.112805903256
 31
0.0
  0
LINE
  5
13C04
330
747D
100
AcDbEntity
  8
細線
 48
50.0
100
AcDbLine
 10
6173.122108757252
 20
4428.112805903256
 30
0.0
 11
6173.122108757252
 21
2338.112805903256
 31
0.0
  0
LINE
  5
13C05
330
747D
100
AcDbEntity
  8
細線
 48
50.0
100
AcDbLine
 10
6158.122108757252
 20
4428.112805903256
 30
0.0
 11
6158.122108757252
 21
2338.112805903256
 31
0.0
  0
LINE
  5
13C06
330
747D
100
AcDbEntity
  8
細線
 48
50.0
100
AcDbLine
 10
6578.122108757233
 20
4428.112805903256
 30
0.0
 11
6578.122108757233
 21
2338.112805903256
 31
0.0
  0
LINE
  5
13C07
330
747D
100
AcDbEntity
  8
細線
 48
50.0
100
AcDbLine
 10
6593.122108757234
 20
4428.112805903256
 30
0.0
 11
6593.122108757234
 21
2338.112805903256
 31
0.0
  0
LINE
  5
13C08
330
747D
100
AcDbEntity
  8
細線
 48
50.0
100
AcDbLine
 10
6453.122108757233
 20
4428.112805903256
 30
0.0
 11
6453.122108757233
 21
2338.112805903256
 31
0.0
  0
LINE
  5
13C09
330
747D
100
AcDbEntity
  8
細線
 48
50.0
100
AcDbLine
 10
6438.122108757234
 20
4428.112805903256
 30
0.0
 11
6438.122108757234
 21
2338.112805903256
 31
0.0
  0
LINE
  5
13C0A
330
747D
100
AcDbEntity
  8
細線
 48
50.0
100
AcDbLine
 10
6298.122108757234
 20
4428.112805903256
 30
0.0
 11
6298.122108757234
 21
2338.112805903256
 31
0.0
  0
LINE
  5
13C0B
330
747D
100
AcDbEntity
  8
細線
 48
50.0
100
AcDbLine
 10
6313.122108757234
 20
4428.112805903256
 30
0.0
 11
6313.122108757234
 21
2338.112805903256
 31
0.0
  0
LINE
  5
13C0C
330
747D
100
AcDbEntity
  8
細線
 48
50.0
100
AcDbLine
 10
6998.12210875724
 20
4428.112805903256
 30
0.0
 11
6998.12210875724
 21
2338.112805903256
 31
0.0
  0
LINE
  5
13C0D
330
747D
100
AcDbEntity
  8
細線
 48
50.0
100
AcDbLine
 10
7013.12210875724
 20
4428.112805903256
 30
0.0
 11
7013.12210875724
 21
2338.112805903256
 31
0.0
  0
LINE
  5
13C0E
330
747D
100
AcDbEntity
  8
細線
 48
50.0
100
AcDbLine
 10
6873.12210875724
 20
4428.112805903256
 30
0.0
 11
6873.12210875724
 21
2338.112805903256
 31
0.0
  0
LINE
  5
13C0F
330
747D
100
AcDbEntity
  8
細線
 48
50.0
100
AcDbLine
 10
6858.12210875724
 20
4428.112805903256
 30
0.0
 11
6858.12210875724
 21
2338.112805903256
 31
0.0
  0
LINE
  5
13C10
330
747D
100
AcDbEntity
  8
細線
 48
50.0
100
AcDbLine
 10
6718.122108757239
 20
4428.112805903256
 30
0.0
 11
6718.122108757239
 21
2338.112805903256
 31
0.0
  0
LINE
  5
13C11
330
747D
100
AcDbEntity
  8
細線
 48
50.0
100
AcDbLine
 10
6733.12210875724
 20
4428.112805903256
 30
0.0
 11
6733.12210875724
 21
2338.112805903256
 31
0.0
  0
LINE
  5
13C12
330
747D
100
AcDbEntity
  8
細線
 48
50.0
100
AcDbLine
 10
7418.122108757261
 20
4428.112805903256
 30
0.0
 11
7418.122108757261
 21
2338.112805903256
 31
0.0
  0
LINE
  5
13C13
330
747D
100
AcDbEntity
  8
細線
 48
50.0
100
AcDbLine
 10
7433.122108757261
 20
4428.112805903256
 30
0.0
 11
7433.122108757261
 21
2338.112805903256
 31
0.0
  0
LINE
  5
13C14
330
747D
100
AcDbEntity
  8
細線
 48
50.0
100
AcDbLine
 10
7293.122108757261
 20
4428.112805903256
 30
0.0
 11
7293.122108757261
 21
2338.112805903256
 31
0.0
  0
LINE
  5
13C15
330
747D
100
AcDbEntity
  8
細線
 48
50.0
100
AcDbLine
 10
7278.122108757262
 20
4428.112805903256
 30
0.0
 11
7278.122108757262
 21
2338.112805903256
 31
0.0
  0
LINE
  5
13C16
330
747D
100
AcDbEntity
  8
細線
 48
50.0
100
AcDbLine
 10
7138.122108757261
 20
4428.112805903256
 30
0.0
 11
7138.122108757261
 21
2338.112805903256
 31
0.0
  0
LINE
  5
13C17
330
747D
100
AcDbEntity
  8
細線
 48
50.0
100
AcDbLine
 10
7153.122108757262
 20
4428.112805903256
 30
0.0
 11
7153.122108757262
 21
2338.112805903256
 31
0.0
  0
LINE
  5
13C18
330
747D
100
AcDbEntity
  8
細線
 48
50.0
100
AcDbLine
 10
7838.122108757265
 20
4428.112805903256
 30
0.0
 11
7838.122108757265
 21
2338.112805903256
 31
0.0
  0
LINE
  5
13C19
330
747D
100
AcDbEntity
  8
細線
 48
50.0
100
AcDbLine
 10
7853.122108757265
 20
4428.112805903256
 30
0.0
 11
7853.122108757265
 21
2338.112805903256
 31
0.0
  0
LINE
  5
13C1A
330
747D
100
AcDbEntity
  8
細線
 48
50.0
100
AcDbLine
 10
7713.122108757265
 20
4428.112805903256
 30
0.0
 11
7713.122108757265
 21
2338.112805903256
 31
0.0
  0
LINE
  5
13C1B
330
747D
100
AcDbEntity
  8
細線
 48
50.0
100
AcDbLine
 10
7698.122108757265
 20
4428.112805903256
 30
0.0
 11
7698.122108757265
 21
2338.112805903256
 31
0.0
  0
LINE
  5
13C1C
330
747D
100
AcDbEntity
  8
細線
 48
50.0
100
AcDbLine
 10
7558.122108757264
 20
4428.112805903256
 30
0.0
 11
7558.122108757264
 21
2338.112805903256
 31
0.0
  0
LINE
  5
13C1D
330
747D
100
AcDbEntity
  8
細線
 48
50.0
100
AcDbLine
 10
7573.122108757265
 20
4428.112805903256
 30
0.0
 11
7573.122108757265
 21
2338.112805903256
 31
0.0
  0
LINE
  5
13C1E
330
747D
100
AcDbEntity
  8
細線
 48
50.0
100
AcDbLine
 10
7993.122108757248
 20
4428.112805903256
 30
0.0
 11
7993.122108757248
 21
2338.112805903256
 31
0.0
  0
LINE
  5
13C1F
330
747D
100
AcDbEntity
  8
細線
 48
50.0
100
AcDbLine
 10
7978.122108757249
 20
4428.112805903256
 30
0.0
 11
7978.122108757249
 21
2338.112805903256
 31
0.0
  0
LINE
  5
13C20
330
747D
100
AcDbEntity
  8
細線
 48
50.0
100
AcDbLine
 10
8118.122108757248
 20
4428.112805903256
 30
0.0
 11
8118.122108757248
 21
2338.112805903256
 31
0.0
  0
LINE
  5
13C21
330
747D
100
AcDbEntity
  8
細線
 48
50.0
100
AcDbLine
 10
8133.122108757248
 20
4428.112805903256
 30
0.0
 11
8133.122108757248
 21
2338.112805903256
 31
0.0
  0
LINE
  5
13C22
330
747D
100
AcDbEntity
  8
細線
 48
50.0
100
AcDbLine
 10
8273.122108757249
 20
4428.112805903256
 30
0.0
 11
8273.122108757249
 21
2338.112805903256
 31
0.0
  0
LINE
  5
13C23
330
747D
100
AcDbEntity
  8
細線
 48
50.0
100
AcDbLine
 10
8258.122108757248
 20
4428.112805903256
 30
0.0
 11
8258.122108757248
 21
2338.112805903256
 31
0.0
  0
LINE
  5
13C24
330
747D
100
AcDbEntity
  8
細線
 48
50.0
100
AcDbLine
 10
8413.122108757253
 20
4428.112805903256
 30
0.0
 11
8413.122108757253
 21
2338.112805903256
 31
0.0
  0
LINE
  5
13C25
330
747D
100
AcDbEntity
  8
細線
 48
50.0
100
AcDbLine
 10
8398.122108757252
 20
4428.112805903256
 30
0.0
 11
8398.122108757252
 21
2338.112805903256
 31
0.0
  0
LINE
  5
13C26
330
747D
100
AcDbEntity
  8
細線
 48
50.0
100
AcDbLine
 10
8538.122108757253
 20
4428.112805903256
 30
0.0
 11
8538.122108757253
 21
2338.112805903256
 31
0.0
  0
LINE
  5
13C27
330
747D
100
AcDbEntity
  8
細線
 48
50.0
100
AcDbLine
 10
8553.122108757252
 20
4428.112805903256
 30
0.0
 11
8553.122108757252
 21
2338.112805903256
 31
0.0
  0
LINE
  5
13C28
330
747D
100
AcDbEntity
  8
細線
 48
50.0
100
AcDbLine
 10
8693.122108757252
 20
4428.112805903256
 30
0.0
 11
8693.122108757252
 21
2338.112805903256
 31
0.0
  0
LINE
  5
13C29
330
747D
100
AcDbEntity
  8
細線
 48
50.0
100
AcDbLine
 10
8678.122108757252
 20
4428.112805903256
 30
0.0
 11
8678.122108757252
 21
2338.112805903256
 31
0.0
  0
LINE
  5
13C2A
330
747D
100
AcDbEntity
  8
部品1
100
AcDbLine
 10
5330.622108757263
 20
4522.11280590326
 30
0.0
 11
5330.62210875726
 21
4663.112805903258
 31
0.0
  0
TEXT
  5
13CDC
330
747D
100
AcDbEntity
  8
文字
 62
     7
 48
50.0
100
AcDbText
 10
15022.63965474515
 20
9570.013745883725
 30
0.0
 40
100.0
  1
F12            1.2
  7
STYLE1
100
AcDbText
  0
DIMENSION
  5
13CDD
330
747D
100
AcDbEntity
  8
寸法
 48
50.0
100
AcDbDimension
  2
*D3
 10
8810.622108757266
 20
4875.654391161499
 30
0.0
 11
9174.107390131503
 21
4875.654391161499
 31
0.0
 70
   160
 71
     5
 42
50.0
  3
INABA_S40G
100
AcDbAlignedDimension
 13
8860.622108757267
 23
4663.112805903258
 33
0.0
 14
8810.622108757266
 24
4663.112805903259
 34
0.0
100
AcDbRotatedDimension
  0
ARC
  5
13CDE
330
747D
100
AcDbEntity
  8
部品1
100
AcDbCircle
 10
8853.213687650834
 20
4656.112805903258
 30
0.0
 40
7.0
100
AcDbArc
 50
356.7526572096623
 51
90.0
  0
ARC
  5
13CDF
330
747D
100
AcDbEntity
  8
部品1
100
AcDbCircle
 10
8839.998364189801
 20
4529.11280590326
 30
0.0
 40
7.0
100
AcDbArc
 50
270.0
 51
356.7526572096623
  0
ARC
  5
13CE0
330
747D
100
AcDbEntity
  8
部品1
 48
50.0
100
AcDbCircle
 10
8858.37017440048
 20
4635.779805064945
 30
0.0
 40
0.7
100
AcDbArc
 50
277.6581272073635
 51
356.7526572096103
  0
ARC
  5
13CE1
330
747D
100
AcDbEntity
  8
部品1
 48
50.0
100
AcDbCircle
 10
8850.134143875635
 20
4543.579805064941
 30
0.0
 40
0.7
100
AcDbArc
 50
277.6581272073635
 51
356.7526572097013
  0
ARC
  5
13CE2
330
747D
100
AcDbEntity
  8
部品1
 48
50.0
100
AcDbCircle
 10
8850.627212984196
 20
4539.912805903258
 30
0.0
 40
3.0
100
AcDbArc
 50
97.65812720736347
 51
176.7526572096623
  0
ARC
  5
13CE3
330
747D
100
AcDbEntity
  8
部品1
 48
50.0
100
AcDbCircle
 10
8858.863243509039
 20
4632.11280590326
 30
0.0
 40
3.0
100
AcDbArc
 50
97.65812720736347
 51
176.7526572096623
  0
LINE
  5
13CE4
330
747D
100
AcDbEntity
  8
部品1
100
AcDbLine
 10
8855.868060612854
 20
4632.282745358361
 30
0.0
 11
8850.833019884744
 21
4543.540152525419
 31
0.0
  0
LINE
  5
13CE5
330
747D
100
AcDbEntity
  8
部品1
100
AcDbLine
 10
8847.632030088011
 20
4540.08274535836
 30
0.0
 11
8846.987124280898
 21
4528.71628050802
 31
0.0
  0
LINE
  5
13CE6
330
747D
100
AcDbEntity
  8
細線
 48
50.0
100
AcDbLine
 10
8827.622108757266
 20
4663.112805903258
 30
0.0
 11
8827.622108757266
 21
4522.112805903257
 31
0.0
  0
LINE
  5
13CE7
330
747D
100
AcDbEntity
  8
部品1
100
AcDbLine
 10
8860.202447741933
 20
4655.716280508019
 30
0.0
 11
8859.069050409587
 21
4635.740152525419
 31
0.0
  0
LINE
  5
13CE8
330
747D
100
AcDbEntity
  8
部品1
 48
50.0
100
AcDbLine
 10
8839.998364189801
 20
4522.112805903261
 30
0.0
 11
1841.245853324726
 21
4522.11280590326
 31
0.0
  0
LINE
  5
13CE9
330
747D
100
AcDbEntity
  8
細線
 48
50.0
100
AcDbLine
 10
8850.227427215882
 20
4542.886048466428
 30
0.0
 11
1831.016790292509
 21
4542.886048467255
 31
0.0
  0
LINE
  5
13CEA
330
747D
100
AcDbEntity
  8
細線
 48
50.0
100
AcDbLine
 10
8858.463457740713
 20
4635.086048466429
 30
0.0
 11
1822.780759767676
 21
4635.086048467257
 31
0.0
  0
LINE
  5
13CEB
330
747D
100
AcDbEntity
  8
部品1
 48
50.0
100
AcDbLine
 10
8853.213687650834
 20
4663.112805903259
 30
0.0
 11
1828.030529863692
 21
4663.112805903258
 31
0.0
  0
LINE
  5
13CEC
330
747D
100
AcDbEntity
  8
部品1
100
AcDbLine
 10
1821.041769772593
 20
4655.716280508022
 30
0.0
 11
1822.175167104942
 21
4635.74015252542
 31
0.0
  0
LINE
  5
13CED
330
747D
100
AcDbEntity
  8
部品1
100
AcDbLine
 10
1833.612187426519
 20
4540.082745358362
 30
0.0
 11
1834.257093233627
 21
4528.716280508023
 31
0.0
  0
LINE
  5
13CEE
330
747D
100
AcDbEntity
  8
部品1
100
AcDbLine
 10
1825.376156901671
 20
4632.282745358363
 30
0.0
 11
1830.411197629783
 21
4543.540152525419
 31
0.0
  0
ARC
  5
13CEF
330
747D
100
AcDbEntity
  8
部品1
 48
50.0
100
AcDbCircle
 10
1822.380974005486
 20
4632.112805903264
 30
0.0
 40
3.0
100
AcDbArc
 50
3.247342790337682
 51
82.34187279263654
  0
ARC
  5
13CF0
330
747D
100
AcDbEntity
  8
部品1
 48
50.0
100
AcDbCircle
 10
1830.61700453033
 20
4539.912805903258
 30
0.0
 40
3.0
100
AcDbArc
 50
3.247342790337682
 51
82.34187279263654
  0
ARC
  5
13CF1
330
747D
100
AcDbEntity
  8
部品1
 48
50.0
100
AcDbCircle
 10
1831.110073638891
 20
4543.579805064942
 30
0.0
 40
0.7
100
AcDbArc
 50
183.2473427902987
 51
262.3418727926365
  0
ARC
  5
13CF2
330
747D
100
AcDbEntity
  8
部品1
 48
50.0
100
AcDbCircle
 10
1822.87404311405
 20
4635.779805064947
 30
0.0
 40
0.7
100
AcDbArc
 50
183.2473427903897
 51
262.3418727926365
  0
ARC
  5
13CF3
330
747D
100
AcDbEntity
  8
部品1
100
AcDbCircle
 10
1841.245853324726
 20
4529.112805903263
 30
0.0
 40
7.0
100
AcDbArc
 50
183.2473427903377
 51
270.0
  0
ARC
  5
13CF4
330
747D
100
AcDbEntity
  8
部品1
100
AcDbCircle
 10
1828.030529863692
 20
4656.112805903259
 30
0.0
 40
7.0
100
AcDbArc
 50
90.0
 51
183.2473427903377
  0
LINE
  5
13CF5
330
747D
100
AcDbEntity
  8
細線
 48
50.0
100
AcDbLine
 10
1853.622108757263
 20
4663.112805903259
 30
0.0
 11
1853.622108757263
 21
4522.11280590326
 31
0.0
  0
DIMENSION
  5
13CF6
330
747D
100
AcDbEntity
  8
寸法
 48
50.0
100
AcDbDimension
  2
*D4
 10
1870.622108757263
 20
4875.6543911615
 30
0.0
 11
5340.622108757263
 21
4875.6543911615
 31
0.0
 70
   160
  1
柱外寸法<>
 71
     5
 42
6940.000000000003
  3
INABA_S40G
100
AcDbAlignedDimension
 13
8810.622108757266
 23
4663.112805903259
 33
0.0
 14
1870.622108757263
 24
4663.112805903264
 34
0.0
100
AcDbRotatedDimension
  0
DIMENSION
  5
13CF7
330
747D
100
AcDbEntity
  8
寸法
 48
50.0
100
AcDbDimension
  2
*D5
 10
8860.622108757267
 20
5096.559691635249
 30
0.0
 11
5340.622108757263
 21
5096.559691635249
 31
0.0
 70
   160
 71
     5
 42
7040.000000000003
  3
INABA_S40G
100
AcDbAlignedDimension
 13
1820.622108757263
 23
4663.112805903263
 33
0.0
 14
8860.622108757267
 24
4663.112805903258
 34
0.0
100
AcDbRotatedDimension
  0
DIMENSION
  5
13CF8
330
747D
100
AcDbEntity
  8
寸法
 48
50.0
100
AcDbDimension
  2
*D6
 10
1820.622108757263
 20
4875.654391161502
 30
0.0
 11
1507.136827383016
 21
4875.654391161502
 31
0.0
 70
   160
 71
     5
 42
50.0
  3
INABA_S40G
100
AcDbAlignedDimension
 13
1870.622108757263
 23
4663.112805903264
 33
0.0
 14
1820.622108757263
 24
4663.112805903263
 34
0.0
100
AcDbRotatedDimension
1001
ACAD
1000
DSTYLE
1002
{
1002
}
  0
LINE
  5
13CF9
330
747D
100
AcDbEntity
  8
仕様書枠
 48
50.0
100
AcDbLine
 10
16307.19999999999
 20
8179.600000000005
 30
0.0
 11
13127.19999999999
 21
8179.600000000007
 31
0.0
  0
TEXT
  5
13CFA
330
747D
100
AcDbEntity
  8
文字
 62
     7
 48
50.0
100
AcDbText
 10
13583.11819016569
 20
9570.013745883729
 30
0.0
 40
100.0
  1
母屋中
  7
STYLE1
100
AcDbText
  0
TEXT
  5
13CFB
330
747D
100
AcDbEntity
  8
文字
 62
     7
 48
50.0
100
AcDbText
 10
13248.77747366447
 20
8720.013745883729
 30
0.0
 40
100.0
  1
15
  7
STYLE1
100
AcDbText
  0
TEXT
  5
13CFC
330
747D
100
AcDbEntity
  8
文字
 62
     7
 48
50.0
100
AcDbText
 10
13583.11819016569
 20
8550.013745883733
 30
0.0
 40
100.0
  1
扉
  7
STYLE1
100
AcDbText
  0
TEXT
  5
13CFD
330
747D
100
AcDbEntity
  8
文字
 62
     7
 48
50.0
100
AcDbText
 10
15022.63965474516
 20
8550.013745883729
 30
0.0
 40
100.0
  1
F12            0.8
  7
STYLE1
100
AcDbText
  0
TEXT
  5
13CFE
330
747D
100
AcDbEntity
  8
文字
 62
     7
 48
50.0
100
AcDbText
 10
13583.11819016568
 20
8720.013745883733
 30
0.0
 40
100.0
  1
正面パネル
  7
STYLE1
100
AcDbText
  0
TEXT
  5
13CFF
330
747D
100
AcDbEntity
  8
文字
 62
     7
 48
50.0
100
AcDbText
 10
15022.63965474515
 20
8720.013745883729
 30
0.0
 40
100.0
  1
F12            0.7
  7
STYLE1
100
AcDbText
  0
TEXT
  5
13D00
330
747D
100
AcDbEntity
  8
文字
 62
     7
 48
50.0
100
AcDbText
 10
15022.63965474517
 20
10590.01374588372
 30
0.0
 40
100.0
  1
F12            1.0
  7
STYLE1
100
AcDbText
  0
TEXT
  5
13D01
330
747D
100
AcDbEntity
  8
文字
 62
     7
 48
50.0
100
AcDbText
 10
15022.63965474516
 20
10930.01374588372
 30
0.0
 40
100.0
  1
F12            1.2
  7
STYLE1
100
AcDbText
  0
TEXT
  5
13D02
330
747D
100
AcDbEntity
  8
文字
 62
     7
 48
50.0
100
AcDbText
 10
13248.77747366448
 20
8890.013745883729
 30
0.0
 40
100.0
  1
14
  7
STYLE1
100
AcDbText
  0
TEXT
  5
13D03
330
747D
100
AcDbEntity
  8
文字
 62
     7
 48
50.0
100
AcDbText
 10
13583.11819016569
 20
10930.01374588373
 30
0.0
 40
100.0
  1
根太
  7
STYLE1
100
AcDbText
  0
TEXT
  5
13D04
330
747D
100
AcDbEntity
  8
文字
 62
     7
 48
50.0
100
AcDbText
 10
13583.1181901657
 20
10590.01374588373
 30
0.0
 40
100.0
  1
床パネル
 41
0.9
  7
STYLE1
100
AcDbText
  0
LINE
  5
13D05
330
747D
100
AcDbEntity
  8
仕様書枠
 48
50.0
100
AcDbLine
 10
16307.19999999999
 20
9029.6
 30
0.0
 11
13127.2
 21
9029.600000000003
 31
0.0
  0
LINE
  5
13D06
330
747D
100
AcDbEntity
  8
仕様書枠
 48
50.0
100
AcDbLine
 10
13127.2
 20
11409.6
 30
0.0
 11
13127.19999999999
 21
8009.600000000004
 31
0.0
  0
TEXT
  5
13D07
330
747D
100
AcDbEntity
  8
文字
 62
     7
 48
50.0
100
AcDbText
 10
13229.83081656554
 20
8040.013745883737
 30
0.0
 40
100.0
  1
Y10→溶融亜鉛-5％アルミニウム合金めっき鋼板(JIS G 3317)
 41
0.9
  7
STYLE1
100
AcDbText
  0
TEXT
  5
13D08
330
747D
100
AcDbEntity
  8
文字
 62
     7
 48
50.0
100
AcDbText
 10
13229.83081656554
 20
8210.013745883737
 30
0.0
 40
100.0
  1
F12→溶融亜鉛めっき鋼板(JIS G 3302)
  7
STYLE1
100
AcDbText
  0
LINE
  5
13D09
330
747D
100
AcDbEntity
  8
仕様書枠
 48
50.0
100
AcDbLine
 10
16307.19999999999
 20
8009.600000000006
 30
0.0
 11
13127.19999999999
 21
8009.600000000006
 31
0.0
  0
LINE
  5
13D0A
330
747D
100
AcDbEntity
  8
仕様書枠
 48
50.0
100
AcDbLine
 10
16307.19999999999
 20
8349.600000000004
 30
0.0
 11
13127.19999999999
 21
8349.600000000007
 31
0.0
  0
TEXT
  5
13D0B
330
747D
100
AcDbEntity
  8
文字
 62
     7
 48
50.0
100
AcDbText
 10
15022.63965474515
 20
9400.013745883725
 30
0.0
 40
100.0
  1
F12            0.7
  7
STYLE1
100
AcDbText
  0
TEXT
  5
13D0C
330
747D
100
AcDbEntity
  8
文字
 62
     7
 48
50.0
100
AcDbText
 10
15022.63965474517
 20
9740.013745883725
 30
0.0
 40
100.0
  1
Y10            0.5
  7
STYLE1
100
AcDbText
  0
TEXT
  5
13D0D
330
747D
100
AcDbEntity
  8
文字
 62
     7
 48
50.0
100
AcDbText
 10
15022.63965474516
 20
10080.01374588372
 30
0.0
 40
100.0
  1
Y10            0.7
  7
STYLE1
100
AcDbText
  0
TEXT
  5
13D0E
330
747D
100
AcDbEntity
  8
文字
 62
     7
 48
50.0
100
AcDbText
 10
15022.63965474516
 20
10250.01374588372
 30
0.0
 40
100.0
  1
Y10            0.7
  7
STYLE1
100
AcDbText
  0
TEXT
  5
13D0F
330
747D
100
AcDbEntity
  8
文字
 62
     7
 48
50.0
100
AcDbText
 10
15022.63965474516
 20
10420.01374588372
 30
0.0
 40
100.0
  1
Y10            1.0
  7
STYLE1
100
AcDbText
  0
TEXT
  5
13D10
330
747D
100
AcDbEntity
  8
文字
 62
     7
 48
50.0
100
AcDbText
 10
15022.63965474518
 20
10760.01374588372
 30
0.0
 40
100.0
  1
F12            1.0
  7
STYLE1
100
AcDbText
  0
TEXT
  5
13D11
330
747D
100
AcDbEntity
  8
文字
 62
     7
 48
50.0
100
AcDbText
 10
15022.63965474517
 20
11100.01374588372
 30
0.0
 40
100.0
  1
F12            1.2
  7
STYLE1
100
AcDbText
  0
TEXT
  5
13D12
330
747D
100
AcDbEntity
  8
文字
 62
     7
 48
50.0
100
AcDbText
 10
13248.77747366448
 20
9230.013745883729
 30
0.0
 40
100.0
  1
12
  7
STYLE1
100
AcDbText
  0
TEXT
  5
13D13
330
747D
100
AcDbEntity
  8
文字
 62
     7
 48
50.0
100
AcDbText
 10
13248.77747366448
 20
9060.013745883729
 30
0.0
 40
100.0
  1
13
  7
STYLE1
100
AcDbText
  0
LINE
  5
13D14
330
747D
100
AcDbEntity
  8
仕様書枠
 48
50.0
100
AcDbLine
 10
16307.19999999999
 20
8859.6
 30
0.0
 11
13127.2
 21
8859.600000000005
 31
0.0
  0
LINE
  5
13D15
330
747D
100
AcDbEntity
  8
仕様書枠
 48
50.0
100
AcDbLine
 10
16307.19999999999
 20
9199.600000000001
 30
0.0
 11
13127.2
 21
9199.600000000001
 31
0.0
  0
TEXT
  5
13D16
330
747D
100
AcDbEntity
  8
文字
 62
     7
 48
50.0
100
AcDbText
 10
13248.77747366447
 20
9400.013745883729
 30
0.0
 40
100.0
  1
11
  7
STYLE1
100
AcDbText
  0
LINE
  5
13D17
330
747D
100
AcDbEntity
  8
仕様書枠
 48
50.0
100
AcDbLine
 10
16307.2
 20
9879.600000000001
 30
0.0
 11
13127.2
 21
9879.600000000001
 31
0.0
  0
LINE
  5
13D18
330
747D
100
AcDbEntity
  8
仕様書枠
 48
50.0
100
AcDbLine
 10
16307.2
 20
10219.6
 30
0.0
 11
13127.2
 21
10219.6
 31
0.0
  0
LINE
  5
13D19
330
747D
100
AcDbEntity
  8
仕様書枠
 48
50.0
100
AcDbLine
 10
16307.19999999999
 20
9539.6
 30
0.0
 11
13127.2
 21
9539.6
 31
0.0
  0
LINE
  5
13D1A
330
747D
100
AcDbEntity
  8
仕様書枠
 48
50.0
100
AcDbLine
 10
16307.19999999999
 20
9369.600000000001
 30
0.0
 11
13127.2
 21
9369.600000000001
 31
0.0
  0
LINE
  5
13D1B
330
747D
100
AcDbEntity
  8
仕様書枠
 48
50.0
100
AcDbLine
 10
16307.19999999999
 20
9709.600000000001
 30
0.0
 11
13127.2
 21
9709.600000000001
 31
0.0
  0
TEXT
  5
13D1C
330
747D
100
AcDbEntity
  8
文字
 62
     7
 48
50.0
100
AcDbText
 10
13271.19032244792
 20
10250.01374588373
 30
0.0
 40
100.0
  1
6
  7
STYLE1
100
AcDbText
  0
TEXT
  5
13D1D
330
747D
100
AcDbEntity
  8
文字
 62
     7
 48
50.0
100
AcDbText
 10
13271.19032244792
 20
10080.01374588373
 30
0.0
 40
100.0
  1
7
  7
STYLE1
100
AcDbText
  0
TEXT
  5
13D1E
330
747D
100
AcDbEntity
  8
文字
 62
     7
 48
50.0
100
AcDbText
 10
13271.19032244792
 20
9740.013745883729
 30
0.0
 40
100.0
  1
9
  7
STYLE1
100
AcDbText
  0
TEXT
  5
13D1F
330
747D
100
AcDbEntity
  8
文字
 62
     7
 48
50.0
100
AcDbText
 10
13271.19032244792
 20
9910.01374588373
 30
0.0
 40
100.0
  1
8
  7
STYLE1
100
AcDbText
  0
TEXT
  5
13D20
330
747D
100
AcDbEntity
  8
文字
 62
     7
 48
50.0
100
AcDbText
 10
13583.11819016569
 20
10080.01374588373
 30
0.0
 40
100.0
  1
鼻隠シ前後
  7
STYLE1
100
AcDbText
  0
TEXT
  5
13D21
330
747D
100
AcDbEntity
  8
文字
 62
     7
 48
50.0
100
AcDbText
 10
13583.11819016569
 20
9740.013745883729
 30
0.0
 40
100.0
  1
屋根パネル
  7
STYLE1
100
AcDbText
  0
TEXT
  5
13D22
330
747D
100
AcDbEntity
  8
文字
 62
     7
 48
50.0
100
AcDbText
 10
13583.11819016568
 20
9400.013745883729
 30
0.0
 40
100.0
  1
壁パネル
  7
STYLE1
100
AcDbText
  0
TEXT
  5
13D23
330
747D
100
AcDbEntity
  8
文字
 62
     7
 48
50.0
100
AcDbText
 10
13248.77747366447
 20
9570.013745883729
 30
0.0
 40
100.0
  1
10
  7
STYLE1
100
AcDbText
  0
TEXT
  5
13D24
330
747D
100
AcDbEntity
  8
文字
 62
     7
 48
50.0
100
AcDbText
 10
13583.11819016569
 20
10250.01374588373
 30
0.0
 40
100.0
  1
妻板左右
  7
STYLE1
100
AcDbText
  0
TEXT
  5
13D25
330
747D
100
AcDbEntity
  8
文字
 62
     7
 48
50.0
100
AcDbText
 10
13271.19032244792
 20
10420.01374588373
 30
0.0
 40
100.0
  1
5
  7
STYLE1
100
AcDbText
  0
TEXT
  5
13D26
330
747D
100
AcDbEntity
  8
文字
 62
     7
 48
50.0
100
AcDbText
 10
13583.11819016569
 20
10420.01374588373
 30
0.0
 40
100.0
  1
桁前後
  7
STYLE1
100
AcDbText
  0
TEXT
  5
13D27
330
747D
100
AcDbEntity
  8
文字
 62
     7
 48
50.0
100
AcDbText
 10
13583.1181901657
 20
10760.01374588373
 30
0.0
 40
100.0
  1
柱
  7
STYLE1
100
AcDbText
  0
TEXT
  5
13D28
330
747D
100
AcDbEntity
  8
文字
 62
     7
 48
50.0
100
AcDbText
 10
13583.11819016569
 20
11100.01374588373
 30
0.0
 40
100.0
  1
土台枠
  7
STYLE1
100
AcDbText
  0
TEXT
  5
13D29
330
747D
100
AcDbEntity
  8
文字
 62
     7
 48
50.0
100
AcDbText
 10
14859.79774614482
 20
11270.01374588373
 30
0.0
 40
100.0
  1
材料（材質）　　単位mm
  7
STYLE1
100
AcDbText
  0
TEXT
  5
13D2A
330
747D
100
AcDbEntity
  8
文字
 62
     7
 48
50.0
100
AcDbText
 10
13732.03840939434
 20
11270.01374588373
 30
0.0
 40
100.0
  1
部　　品　　名
  7
STYLE1
100
AcDbText
  0
TEXT
  5
13D2B
330
747D
100
AcDbEntity
  8
文字
 62
     7
 48
50.0
100
AcDbText
 10
13271.19032244792
 20
10760.01374588373
 30
0.0
 40
100.0
  1
3
  7
STYLE1
100
AcDbText
  0
TEXT
  5
13D2C
330
747D
100
AcDbEntity
  8
文字
 62
     7
 48
50.0
100
AcDbText
 10
13271.19032244792
 20
10590.01374588373
 30
0.0
 40
100.0
  1
4
  7
STYLE1
100
AcDbText
  0
TEXT
  5
13D2D
330
747D
100
AcDbEntity
  8
文字
 62
     7
 48
50.0
100
AcDbText
 10
13271.19032244792
 20
10930.01374588373
 30
0.0
 40
100.0
  1
2
  7
STYLE1
100
AcDbText
  0
TEXT
  5
13D2E
330
747D
100
AcDbEntity
  8
文字
 62
     7
 48
50.0
100
AcDbText
 10
13271.19032244792
 20
11100.01374588373
 30
0.0
 40
100.0
  1
1
  7
STYLE1
100
AcDbText
  0
TEXT
  5
13D2F
330
747D
100
AcDbEntity
  8
文字
 62
     7
 48
50.0
100
AcDbText
 10
13197.42518560407
 20
11270.01374588373
 30
0.0
 40
100.0
  1
品番
  7
STYLE1
100
AcDbText
  0
LINE
  5
13D30
330
747D
100
AcDbEntity
  8
仕様書枠
 48
50.0
100
AcDbLine
 10
16307.19999999999
 20
10729.6
 30
0.0
 11
13127.2
 21
10729.6
 31
0.0
  0
LINE
  5
13D31
330
747D
100
AcDbEntity
  8
仕様書枠
 48
50.0
100
AcDbLine
 10
16307.19999999999
 20
10389.6
 30
0.0
 11
13127.2
 21
10389.6
 31
0.0
  0
LINE
  5
13D32
330
747D
100
AcDbEntity
  8
仕様書枠
 48
50.0
100
AcDbLine
 10
16307.19999999999
 20
10559.6
 30
0.0
 11
13127.2
 21
10559.6
 31
0.0
  0
LINE
  5
13D33
330
747D
100
AcDbEntity
  8
仕様書枠
 48
50.0
100
AcDbLine
 10
16307.2
 20
11069.6
 30
0.0
 11
13127.2
 21
11069.6
 31
0.0
  0
LINE
  5
13D34
330
747D
100
AcDbEntity
  8
仕様書枠
 48
50.0
100
AcDbLine
 10
16307.2
 20
10899.6
 30
0.0
 11
13127.2
 21
10899.6
 31
0.0
  0
LINE
  5
13D35
330
747D
100
AcDbEntity
  8
仕様書枠
 48
50.0
100
AcDbLine
 10
16307.2
 20
11239.6
 30
0.0
 11
13127.2
 21
11239.6
 31
0.0
  0
LINE
  5
13D36
330
747D
100
AcDbEntity
  8
仕様書枠
 48
50.0
100
AcDbLine
 10
13490.2
 20
11409.6
 30
0.0
 11
13490.20000000001
 21
8349.600000000007
 31
0.0
  0
LINE
  5
13D37
330
747D
100
AcDbEntity
  8
仕様書枠
 48
50.0
100
AcDbLine
 10
14785.2
 20
11409.59999999999
 30
0.0
 11
14785.2
 21
8349.600000000004
 31
0.0
  0
LINE
  5
13D38
330
747D
100
AcDbEntity
  8
仕様書枠
 48
50.0
100
AcDbLine
 10
16307.19999999999
 20
8009.600000000004
 30
0.0
 11
16307.2
 21
11409.6
 31
0.0
  0
LINE
  5
13D39
330
747D
100
AcDbEntity
  8
仕様書枠
 48
50.0
100
AcDbLine
 10
16307.2
 20
11409.6
 30
0.0
 11
13127.2
 21
11409.6
 31
0.0
  0
LINE
  5
13D3A
330
747D
100
AcDbEntity
  8
仕様書枠
 48
50.0
100
AcDbLine
 10
16307.2
 20
10049.6
 30
0.0
 11
13127.2
 21
10049.6
 31
0.0
  0
TEXT
  5
13D3B
330
747D
100
AcDbEntity
  8
文字
 62
     7
 48
50.0
100
AcDbText
 10
15022.63965474515
 20
8380.013745883726
 30
0.0
 40
100.0
  1
F12            2.3
  7
STYLE1
100
AcDbText
  0
TEXT
  5
13D3C
330
747D
100
AcDbEntity
  8
文字
 62
     7
 48
50.0
100
AcDbText
 10
13583.11819016569
 20
8380.013745883728
 30
0.0
 40
100.0
  1
アンカープレート
  7
STYLE1
100
AcDbText
  0
LINE
  5
13D3D
330
747D
100
AcDbEntity
  8
仕様書枠
 48
50.0
100
AcDbLine
 10
16307.19999999999
 20
8519.600000000004
 30
0.0
 11
13127.2
 21
8519.600000000009
 31
0.0
  0
LINE
  5
13D3E
330
747D
100
AcDbEntity
  8
仕様書枠
 48
50.0
100
AcDbLine
 10
16307.19999999999
 20
8689.600000000003
 30
0.0
 11
13127.2
 21
8689.600000000007
 31
0.0
  0
TEXT
  5
13D3F
330
747D
100
AcDbEntity
  8
文字
 62
     7
 48
50.0
100
AcDbText
 10
13583.11819016569
 20
9230.013745883729
 30
0.0
 40
100.0
  1
壁面扉鴨居
  7
STYLE1
100
AcDbText
  0
TEXT
  5
13D40
330
747D
100
AcDbEntity
  8
文字
 62
     7
 48
50.0
100
AcDbText
 10
13583.11819016569
 20
9060.013745883733
 30
0.0
 40
100.0
  1
壁面扉敷居
  7
STYLE1
100
AcDbText
  0
TEXT
  5
13D41
330
747D
100
AcDbEntity
  8
文字
 62
     7
 48
50.0
100
AcDbText
 10
15022.63965474515
 20
9230.013745883729
 30
0.0
 40
100.0
  1
F12            0.7
  7
STYLE1
100
AcDbText
  0
TEXT
  5
13D42
330
747D
100
AcDbEntity
  8
文字
 62
     7
 48
50.0
100
AcDbText
 10
15022.63965474517
 20
9060.013745883725
 30
0.0
 40
100.0
  1
F12            1.0
  7
STYLE1
100
AcDbText
  0
TEXT
  5
13D43
330
747D
100
AcDbEntity
  8
文字
 62
     7
 48
50.0
100
AcDbText
 10
13583.11819016569
 20
8890.013745883733
 30
0.0
 40
100.0
  1
壁面扉枠左右
  7
STYLE1
100
AcDbText
  0
TEXT
  5
13D44
330
747D
100
AcDbEntity
  8
文字
 62
     7
 48
50.0
100
AcDbText
 10
15022.63965474517
 20
8890.013745883726
 30
0.0
 40
100.0
  1
F12            1.0
  7
STYLE1
100
AcDbText
  0
TEXT
  5
13D45
330
747D
100
AcDbEntity
  8
文字
 62
     7
 48
50.0
100
AcDbText
 10
13248.77747366447
 20
8550.013745883729
 30
0.0
 40
100.0
  1
16
  7
STYLE1
100
AcDbText
  0
TEXT
  5
13D46
330
747D
100
AcDbEntity
  8
文字
 62
     7
 48
50.0
100
AcDbText
 10
13248.77747366447
 20
8380.013745883728
 30
0.0
 40
100.0
  1
17
  7
STYLE1
100
AcDbText
  0
TEXT
  5
13D47
330
747D
100
AcDbEntity
  8
文字
 62
     7
 48
50.0
100
AcDbText
 10
13583.1181901657
 20
9910.01374588373
 30
0.0
 40
100.0
  1
梁中
 41
0.9
  7
STYLE1
100
AcDbText
  0
TEXT
  5
13D48
330
747D
100
AcDbEntity
  8
文字
 62
     7
 48
50.0
100
AcDbText
 10
15022.63965474517
 20
9910.01374588373
 30
0.0
 40
100.0
  1
F12,Y10      1.2+1.6
  7
STYLE1
100
AcDbText
  0
TEXT
  5
13D49
330
747D
100
AcDbEntity
  8
文字
 62
     7
 48
50.0
100
AcDbText
 10
13209.4053442172
 20
228.5435242569015
 30
0.0
 40
100.0
  1
○有効開口寸法 ： 1266×2025(mm)
  7
STYLE2
100
AcDbText
  0
TEXT
  5
13D4A
330
747D
100
AcDbEntity
  8
文字
 62
     7
 48
50.0
100
AcDbText
 10
14505.34213575793
 20
483.8967129911411
 30
0.0
 40
160.0
  1
ＮＸＮ－２２０Ｈ
  7
STYLE2
100
AcDbText
  0
LWPOLYLINE
  5
13D4B
330
747D
100
AcDbEntity
  8
部品1
100
AcDbPolyline
 90
        4
 70
     1
 43
0.0
 10
4958.886775643033
 20
1828.710439851412
 10
4958.886775643033
 20
1588.818118305879
 10
5722.357441871478
 20
1588.818118305879
 10
5722.357441871478
 20
1828.710439851412
  0
TEXT
  5
13D4C
330
747D
100
AcDbEntity
  8
部品1
100
AcDbText
 10
5049.41217938099
 20
1635.816910632888
 30
0.0
 40
135.0
  1
正面図
  7
STYLE2
100
AcDbText
  0
LINE
  5
13DAD
330
747D
100
AcDbEntity
  8
部品1
 48
50.0
100
AcDbLine
 10
2765.622108757263
 20
7338.716304775832
 30
0.0
 11
4865.622108757263
 21
7338.716304775835
 31
0.0
  0
LINE
  5
13DAE
330
747D
100
AcDbEntity
  8
部品1
100
AcDbLine
 10
5312.622111000834
 20
10332.716308353
 30
0.0
 11
5340.622111000834
 21
10332.716308353
 31
0.0
  0
LINE
  5
13DAF
330
747D
100
AcDbEntity
  8
部品1
100
AcDbLine
 10
5368.622111000834
 20
10332.716308353
 30
0.0
 11
5368.622111000834
 21
10360.716308353
 31
0.0
  0
LINE
  5
13DB0
330
747D
100
AcDbEntity
  8
部品1
100
AcDbLine
 10
5312.622111000834
 20
10332.716308353
 30
0.0
 11
5312.622111000834
 21
10360.71630835301
 31
0.0
  0
LINE
  5
13DB1
330
747D
100
AcDbEntity
  8
部品1
 48
50.0
100
AcDbLine
 10
5340.622111000834
 20
10332.716308353
 30
0.0
 11
5312.622111000834
 21
10360.716308353
 31
0.0
  0
LINE
  5
13DB2
330
747D
100
AcDbEntity
  8
部品1
100
AcDbLine
 10
8782.622108757264
 20
10305.71630477584
 30
0.0
 11
8810.622108757263
 21
10305.71630477584
 31
0.0
  0
LINE
  5
13DB3
330
747D
100
AcDbEntity
  8
部品1
100
AcDbLine
 10
8755.622108757263
 20
10360.71630477584
 30
0.0
 11
8755.622108757263
 21
10332.71630477583
 31
0.0
  0
LINE
  5
13DB4
330
747D
100
AcDbEntity
  8
部品1
 48
50.0
100
AcDbLine
 10
8782.622108757264
 20
10332.71630477583
 30
0.0
 11
8755.622108757263
 21
10305.71630477584
 31
0.0
  0
LINE
  5
13DB5
330
747D
100
AcDbEntity
  8
部品1
100
AcDbLine
 10
8335.622108757263
 20
10360.71630477584
 30
0.0
 11
8335.622108757263
 21
10332.71630477583
 31
0.0
  0
LINE
  5
13DB6
330
747D
100
AcDbEntity
  8
部品1
100
AcDbLine
 10
7915.622108757263
 20
10360.71630477584
 30
0.0
 11
7915.622108757263
 21
10332.71630477583
 31
0.0
  0
LINE
  5
13DB7
330
747D
100
AcDbEntity
  8
部品1
100
AcDbLine
 10
7915.622108757263
 20
10332.71630477583
 30
0.0
 11
8782.622108757264
 21
10332.71630477583
 31
0.0
  0
LINE
  5
13DB8
330
747D
100
AcDbEntity
  8
破線
  6
HIDDEN
 48
10.0
100
AcDbLine
 10
8732.122108757264
 20
10282.21630477584
 30
0.0
 11
7933.622108757264
 21
10282.21630477584
 31
0.0
  0
LINE
  5
13DB9
330
747D
100
AcDbEntity
  8
部品1
100
AcDbLine
 10
7495.622108757263
 20
10360.71630477584
 30
0.0
 11
7495.622108757263
 21
10332.71630477583
 31
0.0
  0
LINE
  5
13DBA
330
747D
100
AcDbEntity
  8
部品1
100
AcDbLine
 10
7075.622108757262
 20
10360.71630477584
 30
0.0
 11
7075.622108757262
 21
10332.71630477583
 31
0.0
  0
LINE
  5
13DBB
330
747D
100
AcDbEntity
  8
部品1
100
AcDbLine
 10
6655.622108757263
 20
10360.71630477584
 30
0.0
 11
6655.622108757263
 21
10332.71630477583
 31
0.0
  0
LINE
  5
13DBC
330
747D
100
AcDbEntity
  8
部品1
100
AcDbLine
 10
6235.622108757263
 20
10360.71630477584
 30
0.0
 11
6235.622108757263
 21
10332.71630477583
 31
0.0
  0
LINE
  5
13DBD
330
747D
100
AcDbEntity
  8
破線
  6
HIDDEN
 48
10.0
100
AcDbLine
 10
7050.622108757263
 20
10282.21630477584
 30
0.0
 11
6267.622108757263
 21
10282.21630477584
 31
0.0
  0
LINE
  5
13DBE
330
747D
100
AcDbEntity
  8
部品1
100
AcDbLine
 10
6878.122108757263
 20
10332.71630477584
 30
0.0
 11
8113.122108757263
 21
10332.71630477583
 31
0.0
  0
LINE
  5
13DBF
330
747D
100
AcDbEntity
  8
破線
  6
HIDDEN
 48
10.0
100
AcDbLine
 10
7883.622108757264
 20
10282.21630477584
 30
0.0
 11
7100.622108757263
 21
10282.21630477584
 31
0.0
  0
LINE
  5
13DC0
330
747D
100
AcDbEntity
  8
部品1
100
AcDbLine
 10
5815.622108757263
 20
10360.71630477584
 30
0.0
 11
5815.622108757263
 21
10332.71630477583
 31
0.0
  0
LINE
  5
13DC1
330
747D
100
AcDbEntity
  8
部品1
100
AcDbLine
 10
5395.622108757263
 20
10360.71630477584
 30
0.0
 11
5395.622108757263
 21
10332.71630477583
 31
0.0
  0
LINE
  5
13DC2
330
747D
100
AcDbEntity
  8
部品1
100
AcDbLine
 10
5395.622108757263
 20
10360.71630477584
 30
0.0
 11
5395.622108757263
 21
10332.71630477583
 31
0.0
  0
LINE
  5
13DC3
330
747D
100
AcDbEntity
  8
部品1
100
AcDbLine
 10
5312.622108757263
 20
10305.71630477584
 30
0.0
 11
5340.622108757263
 21
10305.71630477584
 31
0.0
  0
LINE
  5
13DC4
330
747D
100
AcDbEntity
  8
部品1
100
AcDbLine
 10
5285.622108757263
 20
10360.71630477584
 30
0.0
 11
5285.622108757263
 21
10332.71630477583
 31
0.0
  0
LINE
  5
13DC5
330
747D
100
AcDbEntity
  8
部品1
100
AcDbLine
 10
5368.622108757263
 20
10305.71630477584
 30
0.0
 11
5340.622108757263
 21
10305.71630477584
 31
0.0
  0
LINE
  5
13DC6
330
747D
100
AcDbEntity
  8
部品1
 48
50.0
100
AcDbLine
 10
5312.622108757263
 20
10332.71630477584
 30
0.0
 11
5285.622108757263
 21
10305.71630477584
 31
0.0
  0
LINE
  5
13DC7
330
747D
100
AcDbEntity
  8
部品1
 48
50.0
100
AcDbLine
 10
5368.622108757263
 20
10332.71630477584
 30
0.0
 11
5395.622108757263
 21
10305.71630477584
 31
0.0
  0
DIMENSION
  5
13DC8
330
747D
100
AcDbEntity
  8
寸法
 48
50.0
100
AcDbDimension
  2
*D7
 10
5395.622108757263
 20
10635.42871479463
 30
0.0
 11
5340.622108757263
 21
10635.42871479463
 31
0.0
 70
   160
 71
     5
 42
110.0
  3
INABA_S40
100
AcDbAlignedDimension
 13
5285.622108757263
 23
10360.71630477584
 33
0.0
 14
5395.622108757263
 24
10360.71630477584
 34
0.0
100
AcDbRotatedDimension
1001
ACAD
1000
DSTYLE
1002
{
1070
    41
1040
0.5
1070
    44
1040
1.0
1070
   147
1040
0.8
1070
   271
1070
     2
1070
   272
1070
     2
1070
   289
1070
     3
1070
   340
1005
F706
1070
   343
1005
F744
1070
   344
1005
F744
1002
}
  0
LINE
  5
13DC9
330
747D
100
AcDbEntity
  8
部品1
100
AcDbLine
 10
4865.622108757263
 20
10360.71630477584
 30
0.0
 11
4865.622108757263
 21
10332.71630477583
 31
0.0
  0
LINE
  5
13DCA
330
747D
100
AcDbEntity
  8
部品1
100
AcDbLine
 10
4445.622108757262
 20
10360.71630477584
 30
0.0
 11
4445.622108757262
 21
10332.71630477583
 31
0.0
  0
LINE
  5
13DCB
330
747D
100
AcDbEntity
  8
部品1
100
AcDbLine
 10
5312.622108757263
 20
10332.71630477584
 30
0.0
 11
4445.622108757262
 21
10332.71630477584
 31
0.0
  0
LINE
  5
13DCC
330
747D
100
AcDbEntity
  8
破線
  6
HIDDEN
 48
10.0
100
AcDbLine
 10
4463.622108757262
 20
10282.21630477584
 30
0.0
 11
5262.122108757263
 21
10282.21630477584
 31
0.0
  0
LINE
  5
13DCD
330
747D
100
AcDbEntity
  8
部品1
100
AcDbLine
 10
4025.622108757263
 20
10360.71630477584
 30
0.0
 11
4025.622108757263
 21
10332.71630477583
 31
0.0
  0
LINE
  5
13DCE
330
747D
100
AcDbEntity
  8
部品1
100
AcDbLine
 10
3605.622108757263
 20
10360.71630477584
 30
0.0
 11
3605.622108757263
 21
10332.71630477583
 31
0.0
  0
LINE
  5
13DCF
330
747D
100
AcDbEntity
  8
部品1
100
AcDbLine
 10
3185.622108757263
 20
10360.71630477584
 30
0.0
 11
3185.622108757263
 21
10332.71630477583
 31
0.0
  0
LINE
  5
13DD0
330
747D
100
AcDbEntity
  8
部品1
100
AcDbLine
 10
4445.622108757262
 20
10332.71630477584
 30
0.0
 11
3185.622108757263
 21
10332.71630477584
 31
0.0
  0
LINE
  5
13DD1
330
747D
100
AcDbEntity
  8
破線
  6
HIDDEN
 48
10.0
100
AcDbLine
 10
3630.62210875726
 20
10282.21630477583
 30
0.0
 11
4413.622108757262
 21
10282.21630477584
 31
0.0
  0
LINE
  5
13DD2
330
747D
100
AcDbEntity
  8
部品1
100
AcDbLine
 10
5340.622108757263
 20
10360.71630477583
 30
0.0
 11
8810.622108757263
 21
10360.71630477583
 31
0.0
  0
DIMENSION
  5
13DD3
330
747D
100
AcDbEntity
  8
寸法
 48
50.0
100
AcDbDimension
  2
*D8
 10
8755.622108757263
 20
10635.42871479463
 30
0.0
 11
7075.622108757262
 21
10727.44052581825
 31
0.0
 70
    32
  1
8X420=<>
 71
     5
 42
3360.0
  3
INABA_S40
100
AcDbAlignedDimension
 13
5395.622108757263
 23
10360.71630477584
 33
0.0
 14
8755.622108757263
 24
10360.71630477584
 34
0.0
100
AcDbRotatedDimension
1001
ACAD
1000
DSTYLE
1002
{
1070
    41
1040
0.5
1070
    44
1040
1.0
1070
   147
1040
0.8
1070
   271
1070
     2
1070
   272
1070
     2
1070
   289
1070
     3
1070
   340
1005
F706
1070
   343
1005
F744
1070
   344
1005
F744
1002
}
  0
LINE
  5
13DD4
330
747D
100
AcDbEntity
  8
部品1
100
AcDbLine
 10
5368.622108757263
 20
10332.71630477584
 30
0.0
 11
7075.622108757262
 21
10332.71630477584
 31
0.0
  0
LINE
  5
13DD5
330
747D
100
AcDbEntity
  8
部品1
100
AcDbLine
 10
8755.622108757263
 20
10305.71630477584
 30
0.0
 11
5395.622108757263
 21
10305.71630477584
 31
0.0
  0
LINE
  5
13DD6
330
747D
100
AcDbEntity
  8
破線
  6
HIDDEN
 48
10.0
100
AcDbLine
 10
6217.622108757264
 20
10282.21630477584
 30
0.0
 11
5419.122108757263
 21
10282.21630477584
 31
0.0
  0
LINE
  5
13DD7
330
747D
100
AcDbEntity
  8
部品1
100
AcDbLine
 10
8782.622108757264
 20
9465.71630477584
 30
0.0
 11
8810.622108757263
 21
9465.71630477584
 31
0.0
  0
LINE
  5
13DD8
330
747D
100
AcDbEntity
  8
部品1
100
AcDbLine
 10
8782.622108757264
 20
9045.71630477584
 30
0.0
 11
8810.622108757263
 21
9045.71630477584
 31
0.0
  0
LINE
  5
13DD9
330
747D
100
AcDbEntity
  8
部品1
100
AcDbLine
 10
8782.622108757264
 20
8625.71630477584
 30
0.0
 11
8810.622108757263
 21
8625.71630477584
 31
0.0
  0
LINE
  5
13DDA
330
747D
100
AcDbEntity
  8
部品1
100
AcDbLine
 10
8782.622108757264
 20
8205.71630477584
 30
0.0
 11
8810.622108757263
 21
8205.71630477584
 31
0.0
  0
LINE
  5
13DDB
330
747D
100
AcDbEntity
  8
部品1
100
AcDbLine
 10
8782.622108757264
 20
7785.71630477584
 30
0.0
 11
8810.622108757263
 21
7785.71630477584
 31
0.0
  0
LINE
  5
13DDC
330
747D
100
AcDbEntity
  8
部品1
100
AcDbLine
 10
8782.622108757264
 20
7365.716304775833
 30
0.0
 11
8810.622108757263
 21
7365.716304775833
 31
0.0
  0
LINE
  5
13DDD
330
747D
100
AcDbEntity
  8
部品1
100
AcDbLine
 10
8755.622108757263
 20
7310.716304775835
 30
0.0
 11
8755.622108757263
 21
7338.716304775836
 31
0.0
  0
LINE
  5
13DDE
330
747D
100
AcDbEntity
  8
部品1
 48
50.0
100
AcDbLine
 10
8782.622108757264
 20
7338.716304775836
 30
0.0
 11
8755.622108757263
 21
7365.716304775837
 31
0.0
  0
LINE
  5
13DDF
330
747D
100
AcDbEntity
  8
部品1
100
AcDbLine
 10
8335.622108757263
 20
7310.716304775835
 30
0.0
 11
8335.622108757263
 21
7338.716304775836
 31
0.0
  0
LINE
  5
13DE0
330
747D
100
AcDbEntity
  8
部品1
100
AcDbLine
 10
7915.622108757263
 20
7310.716304775835
 30
0.0
 11
7915.622108757263
 21
7338.716304775836
 31
0.0
  0
LINE
  5
13DE1
330
747D
100
AcDbEntity
  8
破線
  6
HIDDEN
 48
10.0
100
AcDbLine
 10
8732.122108757264
 20
7389.216304775835
 30
0.0
 11
7933.622108757261
 21
7389.216304775837
 31
0.0
  0
LINE
  5
13DE2
330
747D
100
AcDbEntity
  8
部品1
100
AcDbLine
 10
7495.622108757263
 20
7310.716304775835
 30
0.0
 11
7495.622108757263
 21
7338.716304775836
 31
0.0
  0
LINE
  5
13DE3
330
747D
100
AcDbEntity
  8
部品1
100
AcDbLine
 10
7075.622108757262
 20
7310.716304775835
 30
0.0
 11
7075.622108757262
 21
7338.716304775836
 31
0.0
  0
LINE
  5
13DE4
330
747D
100
AcDbEntity
  8
部品1
100
AcDbLine
 10
6655.622108757263
 20
7310.716304775835
 30
0.0
 11
6655.622108757263
 21
7338.716304775836
 31
0.0
  0
LINE
  5
13DE5
330
747D
100
AcDbEntity
  8
部品1
100
AcDbLine
 10
6235.622108757263
 20
7310.716304775835
 30
0.0
 11
6235.622108757263
 21
7338.716304775836
 31
0.0
  0
LINE
  5
13DE6
330
747D
100
AcDbEntity
  8
破線
  6
HIDDEN
 48
10.0
100
AcDbLine
 10
7050.622108757259
 20
7389.216304775833
 30
0.0
 11
6267.622108757263
 21
7389.216304775837
 31
0.0
  0
LINE
  5
13DE7
330
747D
100
AcDbEntity
  8
破線
  6
HIDDEN
 48
10.0
100
AcDbLine
 10
7883.622108757261
 20
7389.216304775837
 30
0.0
 11
7100.62210875726
 21
7389.216304775837
 31
0.0
  0
LINE
  5
13DE8
330
747D
100
AcDbEntity
  8
部品1
100
AcDbLine
 10
8782.622108757264
 20
9465.71630477584
 30
0.0
 11
8782.622108757264
 21
7338.716304775836
 31
0.0
  0
LINE
  5
13DE9
330
747D
100
AcDbEntity
  8
部品1
100
AcDbLine
 10
5815.622108757263
 20
7310.716304775835
 30
0.0
 11
5815.622108757263
 21
7338.716304775836
 31
0.0
  0
LINE
  5
13DEA
330
747D
100
AcDbEntity
  8
部品1
100
AcDbLine
 10
5312.622108757263
 20
7365.716304775833
 30
0.0
 11
5340.622108757263
 21
7365.716304775833
 31
0.0
  0
LINE
  5
13DEB
330
747D
100
AcDbEntity
  8
部品1
100
AcDbLine
 10
5368.622108757263
 20
7365.716304775833
 30
0.0
 11
5340.622108757263
 21
7365.716304775833
 31
0.0
  0
LINE
  5
13DEC
330
747D
100
AcDbEntity
  8
部品1
100
AcDbLine
 10
5395.622108757263
 20
7310.716304775835
 30
0.0
 11
5395.622108757263
 21
7338.716304775836
 31
0.0
  0
LINE
  5
13DED
330
747D
100
AcDbEntity
  8
部品1
100
AcDbLine
 10
5285.622108757263
 20
7310.716304775835
 30
0.0
 11
5285.622108757263
 21
7338.716304775836
 31
0.0
  0
LINE
  5
13DEE
330
747D
100
AcDbEntity
  8
部品1
100
AcDbLine
 10
5395.622108757263
 20
7310.716304775839
 30
0.0
 11
5340.622108757263
 21
7310.716304775836
 31
0.0
  0
LINE
  5
13DEF
330
747D
100
AcDbEntity
  8
部品1
 48
50.0
100
AcDbLine
 10
5312.622108757263
 20
7338.716304775839
 30
0.0
 11
5285.622108757263
 21
7365.716304775833
 31
0.0
  0
LINE
  5
13DF0
330
747D
100
AcDbEntity
  8
部品1
 48
50.0
100
AcDbLine
 10
5368.622108757263
 20
7338.716304775836
 30
0.0
 11
5395.622108757263
 21
7365.716304775837
 31
0.0
  0
LINE
  5
13DF1
330
747D
100
AcDbEntity
  8
部品1
100
AcDbLine
 10
4865.622108757263
 20
7310.716304775835
 30
0.0
 11
4865.622108757263
 21
7338.716304775836
 31
0.0
  0
LINE
  5
13DF2
330
747D
100
AcDbEntity
  8
部品1
100
AcDbLine
 10
4865.622108757263
 20
7310.716304775835
 30
0.0
 11
4865.622108757263
 21
7338.716304775836
 31
0.0
  0
LINE
  5
13DF3
330
747D
100
AcDbEntity
  8
部品1
100
AcDbLine
 10
4865.622108757263
 20
7310.716304775836
 30
0.0
 11
5340.622108757263
 21
7310.716304775836
 31
0.0
  0
LINE
  5
13DF4
330
747D
100
AcDbEntity
  8
破線
  6
HIDDEN
 48
10.0
100
AcDbLine
 10
4463.622108757255
 20
7389.216304775835
 30
0.0
 11
5262.122108757263
 21
7389.216304775833
 31
0.0
  0
LINE
  5
13DF5
330
747D
100
AcDbEntity
  8
破線
  6
HIDDEN
 48
10.0
100
AcDbLine
 10
3630.622108757256
 20
7389.216304775835
 30
0.0
 11
4413.622108757255
 21
7389.216304775835
 31
0.0
  0
LINE
  5
13DF7
330
747D
100
AcDbEntity
  8
部品1
100
AcDbLine
 10
8782.622108757264
 20
7338.716304775836
 30
0.0
 11
5368.622108757263
 21
7338.716304775839
 31
0.0
  0
LINE
  5
13DF8
330
747D
100
AcDbEntity
  8
部品1
100
AcDbLine
 10
8755.622108757263
 20
7365.716304775837
 30
0.0
 11
5395.622108757263
 21
7365.716304775839
 31
0.0
  0
LINE
  5
13DF9
330
747D
100
AcDbEntity
  8
部品1
100
AcDbLine
 10
8810.622108757263
 20
7310.716304775836
 30
0.0
 11
5395.622108757263
 21
7310.716304775836
 31
0.0
  0
LINE
  5
13DFA
330
747D
100
AcDbEntity
  8
部品1
100
AcDbLine
 10
5395.622108757263
 20
9045.716304775838
 30
0.0
 11
8755.622108757263
 21
9045.716304775838
 31
0.0
  0
LINE
  5
13DFB
330
747D
100
AcDbEntity
  8
部品1
100
AcDbLine
 10
5395.622108757263
 20
8625.716304775838
 30
0.0
 11
8755.622108757263
 21
8625.716304775838
 31
0.0
  0
LINE
  5
13DFC
330
747D
100
AcDbEntity
  8
部品1
100
AcDbLine
 10
5395.622108757263
 20
8205.716304775839
 30
0.0
 11
8755.622108757263
 21
8205.716304775839
 31
0.0
  0
LINE
  5
13DFD
330
747D
100
AcDbEntity
  8
部品1
100
AcDbLine
 10
5395.622108757263
 20
7785.716304775839
 30
0.0
 11
8755.622108757263
 21
7785.716304775839
 31
0.0
  0
LINE
  5
13DFE
330
747D
100
AcDbEntity
  8
部品1
100
AcDbLine
 10
5395.622108757263
 20
9465.716304775838
 30
0.0
 11
8755.622108757263
 21
9465.716304775838
 31
0.0
  0
LINE
  5
13DFF
330
747D
100
AcDbEntity
  8
破線
  6
HIDDEN
 48
10.0
100
AcDbLine
 10
6217.622108757264
 20
7389.216304775837
 30
0.0
 11
5419.122108757263
 21
7389.216304775839
 31
0.0
  0
LINE
  5
13E00
330
747D
100
AcDbEntity
  8
部品1
100
AcDbLine
 10
8782.622108757264
 20
10332.71630477583
 30
0.0
 11
8782.622108757264
 21
9263.716304775838
 31
0.0
  0
LINE
  5
13E01
330
747D
100
AcDbEntity
  8
部品1
100
AcDbLine
 10
8810.622108757263
 20
10360.71630477583
 30
0.0
 11
8810.622108757263
 21
7310.716304775836
 31
0.0
  0
LINE
  5
13E02
330
747D
100
AcDbEntity
  8
破線
  6
HIDDEN
 48
10.0
100
AcDbLine
 10
8732.122108757264
 20
10282.21630477584
 30
0.0
 11
8732.122108757264
 21
7389.216304775835
 31
0.0
  0
LINE
  5
13E03
330
747D
100
AcDbEntity
  8
部品1
100
AcDbLine
 10
5312.622108757263
 20
7338.716304775839
 30
0.0
 11
5312.622108757263
 21
10332.71630477584
 31
0.0
  0
LINE
  5
13E04
330
747D
100
AcDbEntity
  8
部品1
100
AcDbLine
 10
5285.622108757263
 20
7365.716304775833
 30
0.0
 11
5285.622108757259
 21
10305.71630477584
 31
0.0
  0
LINE
  5
13E05
330
747D
100
AcDbEntity
  8
破線
  6
HIDDEN
 48
10.0
100
AcDbLine
 10
5262.122108757263
 20
7389.216304775833
 30
0.0
 11
5262.122108757259
 21
10282.21630477584
 31
0.0
  0
LINE
  5
13E06
330
747D
100
AcDbEntity
  8
部品1
100
AcDbLine
 10
3605.622108757263
 20
10305.71630477584
 30
0.0
 11
3605.622108757256
 21
7365.716304775839
 31
0.0
  0
LINE
  5
13E07
330
747D
100
AcDbEntity
  8
部品1
100
AcDbLine
 10
5368.622108757263
 20
7338.716304775836
 30
0.0
 11
5368.622108757263
 21
10332.71630477584
 31
0.0
  0
LINE
  5
13E08
330
747D
100
AcDbEntity
  8
破線
  6
HIDDEN
 48
10.0
100
AcDbLine
 10
5419.122108757263
 20
7389.216304775837
 30
0.0
 11
5419.122108757263
 21
10282.21630477583
 31
0.0
  0
LINE
  5
13E09
330
747D
100
AcDbEntity
  8
部品1
100
AcDbLine
 10
5395.622108757263
 20
7365.716304775837
 30
0.0
 11
5395.622108757263
 21
10305.71630477584
 31
0.0
  0
LINE
  5
13E0A
330
747D
100
AcDbEntity
  8
部品1
100
AcDbLine
 10
7075.622108757262
 20
7365.716304775837
 30
0.0
 11
7075.622108757262
 21
10305.71630477584
 31
0.0
  0
LINE
  5
13E0B
330
747D
100
AcDbEntity
  8
破線
  6
HIDDEN
 48
10.0
100
AcDbLine
 10
3580.62210875726
 20
10282.21630477584
 30
0.0
 11
3580.622108757256
 21
7389.216304775839
 31
0.0
  0
LINE
  5
13E0C
330
747D
100
AcDbEntity
  8
破線
  6
HIDDEN
 48
10.0
100
AcDbLine
 10
3630.62210875726
 20
10282.21630477584
 30
0.0
 11
3630.622108757256
 21
7389.216304775839
 31
0.0
  0
LINE
  5
13E0D
330
747D
100
AcDbEntity
  8
破線
  6
HIDDEN
 48
10.0
100
AcDbLine
 10
7100.622108757263
 20
10282.21630477584
 30
0.0
 11
7100.622108757261
 21
7389.216304775837
 31
0.0
  0
LINE
  5
13E0E
330
747D
100
AcDbEntity
  8
破線
  6
HIDDEN
 48
10.0
100
AcDbLine
 10
7050.622108757263
 20
10282.21630477584
 30
0.0
 11
7050.622108757261
 21
7389.216304775837
 31
0.0
  0
LINE
  5
13E0F
330
747D
100
AcDbEntity
  8
部品1
100
AcDbLine
 10
8755.622108757263
 20
10305.71630477584
 30
0.0
 11
8755.622108757263
 21
7365.716304775837
 31
0.0
  0
LINE
  5
13E10
330
747D
100
AcDbEntity
  8
破線
  6
HIDDEN
 48
10.0
100
AcDbLine
 10
4413.622108757259
 20
10305.71630477584
 30
0.0
 11
4413.622108757255
 21
7365.716304775837
 31
0.0
  0
LINE
  5
13E11
330
747D
100
AcDbEntity
  8
破線
  6
HIDDEN
 48
10.0
100
AcDbLine
 10
4463.622108757259
 20
10305.71630477584
 30
0.0
 11
4463.622108757255
 21
7365.716304775837
 31
0.0
  0
LINE
  5
13E12
330
747D
100
AcDbEntity
  8
破線
  6
HIDDEN
 48
10.0
100
AcDbLine
 10
6217.622108757264
 20
10305.71630477584
 30
0.0
 11
6217.622108757264
 21
7365.716304775839
 31
0.0
  0
LINE
  5
13E13
330
747D
100
AcDbEntity
  8
破線
  6
HIDDEN
 48
10.0
100
AcDbLine
 10
6267.622108757263
 20
10305.71630477584
 30
0.0
 11
6267.622108757263
 21
7365.716304775839
 31
0.0
  0
LINE
  5
13E14
330
747D
100
AcDbEntity
  8
破線
  6
HIDDEN
 48
10.0
100
AcDbLine
 10
7883.622108757264
 20
10305.71630477584
 30
0.0
 11
7883.622108757261
 21
7365.716304775837
 31
0.0
  0
LINE
  5
13E15
330
747D
100
AcDbEntity
  8
破線
  6
HIDDEN
 48
10.0
100
AcDbLine
 10
7933.622108757264
 20
10305.71630477584
 30
0.0
 11
7933.622108757261
 21
7365.716304775837
 31
0.0
  0
LINE
  5
13E16
330
747D
100
AcDbEntity
  8
部品1
100
AcDbLine
 10
2765.622108757263
 20
10360.71630477584
 30
0.0
 11
2765.622108757263
 21
10332.71630477583
 31
0.0
  0
LINE
  5
13E17
330
747D
100
AcDbEntity
  8
部品1
100
AcDbLine
 10
2345.622108757263
 20
10360.71630477584
 30
0.0
 11
2345.622108757263
 21
10332.71630477583
 31
0.0
  0
LINE
  5
13E18
330
747D
100
AcDbEntity
  8
部品1
100
AcDbLine
 10
1898.622108757263
 20
10305.71630477584
 30
0.0
 11
1870.622108757263
 21
10305.71630477584
 31
0.0
  0
LINE
  5
13E19
330
747D
100
AcDbEntity
  8
部品1
100
AcDbLine
 10
1925.622108757263
 20
10360.71630477584
 30
0.0
 11
1925.622108757263
 21
10332.71630477583
 31
0.0
  0
LINE
  5
13E1A
330
747D
100
AcDbEntity
  8
部品1
 48
50.0
100
AcDbLine
 10
1898.622108757263
 20
10332.71630477584
 30
0.0
 11
1925.622108757259
 21
10305.71630477584
 31
0.0
  0
DIMENSION
  5
13E1B
330
747D
100
AcDbEntity
  8
寸法
 48
50.0
100
AcDbDimension
  2
*D9
 10
1925.622108757263
 20
10635.42871479463
 30
0.0
 11
1476.455442090599
 21
10635.42871479463
 31
0.0
 70
   160
 71
     5
 42
55.0
  3
INABA_S40
100
AcDbAlignedDimension
 13
1870.622108757263
 23
10360.71630477583
 33
0.0
 14
1925.622108757263
 24
10360.71630477584
 34
0.0
100
AcDbRotatedDimension
1001
ACAD
1000
DSTYLE
1002
{
1070
    41
1040
0.5
1070
    44
1040
1.0
1070
   147
1040
0.8
1070
   271
1070
     2
1070
   272
1070
     2
1070
   289
1070
     3
1070
   340
1005
F706
1070
   343
1005
F744
1070
   344
1005
F744
1002
}
  0
LINE
  5
13E1C
330
747D
100
AcDbEntity
  8
破線
  6
HIDDEN
 48
10.0
100
AcDbLine
 10
1949.122108757259
 20
10282.21630477584
 30
0.0
 11
2747.622108757263
 21
10282.21630477584
 31
0.0
  0
LINE
  5
13E1D
330
747D
100
AcDbEntity
  8
部品1
100
AcDbLine
 10
1898.622108757263
 20
9465.71630477584
 30
0.0
 11
1870.622108757263
 21
9465.71630477584
 31
0.0
  0
LINE
  5
13E1E
330
747D
100
AcDbEntity
  8
部品1
100
AcDbLine
 10
1898.622108757263
 20
9045.71630477584
 30
0.0
 11
1870.622108757263
 21
9045.71630477584
 31
0.0
  0
LINE
  5
13E1F
330
747D
100
AcDbEntity
  8
部品1
100
AcDbLine
 10
1898.622108757263
 20
8625.71630477584
 30
0.0
 11
1870.622108757263
 21
8625.71630477584
 31
0.0
  0
LINE
  5
13E20
330
747D
100
AcDbEntity
  8
部品1
100
AcDbLine
 10
1898.622108757263
 20
8205.71630477584
 30
0.0
 11
1870.622108757263
 21
8205.71630477584
 31
0.0
  0
LINE
  5
13E21
330
747D
100
AcDbEntity
  8
部品1
100
AcDbLine
 10
1898.622108757263
 20
7785.71630477584
 30
0.0
 11
1870.622108757263
 21
7785.71630477584
 31
0.0
  0
LINE
  5
13E22
330
747D
100
AcDbEntity
  8
部品1
100
AcDbLine
 10
2765.622108757263
 20
7310.716304775835
 30
0.0
 11
2765.622108757263
 21
7338.716304775836
 31
0.0
  0
LINE
  5
13E23
330
747D
100
AcDbEntity
  8
部品1
100
AcDbLine
 10
2765.622108757263
 20
7310.716304775842
 30
0.0
 11
2765.622108757263
 21
7338.716304775845
 31
0.0
  0
LINE
  5
13E24
330
747D
100
AcDbEntity
  8
部品1
100
AcDbLine
 10
2345.622108757263
 20
7338.716304775839
 30
0.0
 11
2345.622108757263
 21
7310.716304775836
 31
0.0
  0
LINE
  5
13E25
330
747D
100
AcDbEntity
  8
部品1
100
AcDbLine
 10
1898.622108757263
 20
7365.716304775833
 30
0.0
 11
1870.622108757263
 21
7365.716304775833
 31
0.0
  0
LINE
  5
13E26
330
747D
100
AcDbEntity
  8
部品1
100
AcDbLine
 10
1925.622108757263
 20
7310.716304775835
 30
0.0
 11
1925.622108757263
 21
7338.716304775836
 31
0.0
  0
LINE
  5
13E27
330
747D
100
AcDbEntity
  8
部品1
 48
50.0
100
AcDbLine
 10
1898.622108757263
 20
7338.716304775836
 30
0.0
 11
1925.622108757259
 21
7365.716304775839
 31
0.0
  0
LINE
  5
13E28
330
747D
100
AcDbEntity
  8
部品1
100
AcDbLine
 10
1870.622108757263
 20
7310.716304775836
 30
0.0
 11
2765.622108757263
 21
7310.716304775835
 31
0.0
  0
LINE
  5
13E29
330
747D
100
AcDbEntity
  8
破線
  6
HIDDEN
 48
10.0
100
AcDbLine
 10
1949.122108757259
 20
7389.216304775837
 30
0.0
 11
2747.622108757256
 21
7389.216304775837
 31
0.0
  0
LINE
  5
13E2A
330
747D
100
AcDbEntity
  8
部品1
100
AcDbLine
 10
1898.622108757263
 20
9465.71630477584
 30
0.0
 11
1898.622108757263
 21
7338.716304775836
 31
0.0
  0
LINE
  5
13E2B
330
747D
100
AcDbEntity
  8
部品1
100
AcDbLine
 10
1898.622108757263
 20
10332.71630477584
 30
0.0
 11
1898.622108757263
 21
9263.716304775838
 31
0.0
  0
LINE
  5
13E2C
330
747D
100
AcDbEntity
  8
部品1
100
AcDbLine
 10
1870.622108757263
 20
10360.71630477583
 30
0.0
 11
1870.622108757263
 21
7310.716304775836
 31
0.0
  0
LINE
  5
13E2D
330
747D
100
AcDbEntity
  8
破線
  6
HIDDEN
 48
10.0
100
AcDbLine
 10
1949.12210875727
 20
10282.21630477584
 30
0.0
 11
1949.122108757259
 21
7389.216304775837
 31
0.0
  0
LINE
  5
13E2E
330
747D
100
AcDbEntity
  8
部品1
100
AcDbLine
 10
1925.62210875727
 20
10305.71630477584
 30
0.0
 11
1925.622108757259
 21
7365.716304775839
 31
0.0
  0
LINE
  5
13E2F
330
747D
100
AcDbEntity
  8
破線
  6
HIDDEN
 48
10.0
100
AcDbLine
 10
2747.622108757259
 20
10305.71630477584
 30
0.0
 11
2747.622108757256
 21
7365.716304775839
 31
0.0
  0
LINE
  5
13E30
330
747D
100
AcDbEntity
  8
破線
  6
HIDDEN
 48
10.0
100
AcDbLine
 10
2797.62210875726
 20
10305.71630477584
 30
0.0
 11
2797.622108757256
 21
7365.716304775837
 31
0.0
  0
DIMENSION
  5
13E32
330
747D
100
AcDbEntity
  8
寸法
 48
50.0
100
AcDbDimension
  2
*D10
 10
5285.622108757263
 20
10635.42871479463
 30
0.0
 11
3605.622108757263
 21
10727.44052581825
 31
0.0
 70
    32
  1
8X420=<>
 71
     5
 42
3360.0
  3
INABA_S40
100
AcDbAlignedDimension
 13
1925.622108757263
 23
10360.71630477584
 33
0.0
 14
5285.622108757263
 24
10360.71630477584
 34
0.0
100
AcDbRotatedDimension
1001
ACAD
1000
DSTYLE
1002
{
1070
    41
1040
0.5
1070
    44
1040
1.0
1070
   147
1040
0.8
1070
   271
1070
     2
1070
   272
1070
     2
1070
   289
1070
     3
1070
   340
1005
F706
1070
   343
1005
F744
1070
   344
1005
F744
1002
}
  0
DIMENSION
  5
13E33
330
747D
100
AcDbEntity
  8
寸法
 48
50.0
100
AcDbDimension
  2
*D11
 10
8810.622108757263
 20
10935.42871479463
 30
0.0
 11
5340.622108757263
 21
11027.42871479463
 31
0.0
 70
    32
 71
     5
 42
6940.0
  3
INABA_S40
100
AcDbAlignedDimension
 13
1870.622108757263
 23
10360.71630477583
 33
0.0
 14
8810.622108757263
 24
10360.71630477583
 34
0.0
100
AcDbRotatedDimension
1001
ACAD
1000
DSTYLE
1002
{
1070
    41
1040
0.5
1070
    44
1040
1.0
1070
   147
1040
0.8
1070
   271
1070
     2
1070
   272
1070
     2
1070
   289
1070
     3
1070
   340
1005
F706
1070
   343
1005
F744
1070
   344
1005
F744
1002
}
  0
LINE
  5
13E34
330
747D
100
AcDbEntity
  8
部品1
100
AcDbLine
 10
1898.622108757263
 20
7338.716304775836
 30
0.0
 11
5312.622108757263
 21
7338.716304775839
 31
0.0
  0
LINE
  5
13E35
330
747D
100
AcDbEntity
  8
部品1
100
AcDbLine
 10
1925.622108757259
 20
7365.716304775839
 30
0.0
 11
5285.622108757263
 21
7365.716304775833
 31
0.0
  0
LINE
  5
13E36
330
747D
100
AcDbEntity
  8
部品1
100
AcDbLine
 10
5340.622108757263
 20
10360.71630477583
 30
0.0
 11
1870.622108757263
 21
10360.71630477583
 31
0.0
  0
LINE
  5
13E37
330
747D
100
AcDbEntity
  8
部品1
100
AcDbLine
 10
5285.622108757263
 20
9045.716304775838
 30
0.0
 11
1925.622108757263
 21
9045.716304775835
 31
0.0
  0
LINE
  5
13E38
330
747D
100
AcDbEntity
  8
部品1
100
AcDbLine
 10
5285.622108757263
 20
8625.716304775838
 30
0.0
 11
1925.622108757263
 21
8625.716304775835
 31
0.0
  0
LINE
  5
13E39
330
747D
100
AcDbEntity
  8
部品1
100
AcDbLine
 10
5285.622108757263
 20
8205.716304775839
 30
0.0
 11
1925.622108757263
 21
8205.716304775835
 31
0.0
  0
LINE
  5
13E3A
330
747D
100
AcDbEntity
  8
部品1
100
AcDbLine
 10
5285.622108757263
 20
7785.716304775839
 30
0.0
 11
1925.622108757263
 21
7785.716304775835
 31
0.0
  0
LINE
  5
13E3B
330
747D
100
AcDbEntity
  8
部品1
100
AcDbLine
 10
3185.622108757263
 20
10332.71630477584
 30
0.0
 11
1898.622108757263
 21
10332.71630477584
 31
0.0
  0
LINE
  5
13E3C
330
747D
100
AcDbEntity
  8
部品1
100
AcDbLine
 10
1925.622108757259
 20
10305.71630477584
 30
0.0
 11
5285.622108757263
 21
10305.71630477584
 31
0.0
  0
LINE
  5
13E3D
330
747D
100
AcDbEntity
  8
部品1
100
AcDbLine
 10
5285.622108757259
 20
9465.716304775838
 30
0.0
 11
1925.622108757263
 21
9465.716304775835
 31
0.0
  0
LINE
  5
13E3E
330
747D
100
AcDbEntity
  8
破線
  6
HIDDEN
 48
10.0
100
AcDbLine
 10
2797.622108757256
 20
7389.216304775835
 30
0.0
 11
3580.622108757256
 21
7389.216304775837
 31
0.0
  0
LINE
  5
13E3F
330
747D
100
AcDbEntity
  8
破線
  6
HIDDEN
 48
10.0
100
AcDbLine
 10
2797.62210875726
 20
10282.21630477584
 30
0.0
 11
3580.62210875726
 21
10282.21630477584
 31
0.0
  0
LINE
  5
13E40
330
747D
100
AcDbEntity
  8
部品1
100
AcDbLine
 10
8810.622108757263
 20
4522.112805903261
 30
0.0
 11
8810.622108757263
 21
2188.112805903256
 31
0.0
  0
LINE
  5
13E41
330
747D
100
AcDbEntity
  8
部品1
100
AcDbLine
 10
8755.622108757263
 20
4428.112805903256
 30
0.0
 11
8755.622108757261
 21
2338.112805903256
 31
0.0
  0
LINE
  5
13E42
330
747D
100
AcDbEntity
  8
部品1
100
AcDbLine
 10
8335.622108757263
 20
4428.112805903257
 30
0.0
 11
8335.622108757249
 21
2338.112805903256
 31
0.0
  0
LINE
  5
13E43
330
747D
100
AcDbEntity
  8
部品1
100
AcDbLine
 10
6235.622108757263
 20
4428.112805903256
 30
0.0
 11
6235.622108757263
 21
2338.112805903256
 31
0.0
  0
LINE
  5
13E44
330
747D
100
AcDbEntity
  8
部品1
100
AcDbLine
 10
6655.622108757263
 20
4428.112805903256
 30
0.0
 11
6655.622108757261
 21
2338.112805903256
 31
0.0
  0
LINE
  5
13E45
330
747D
100
AcDbEntity
  8
部品1
100
AcDbLine
 10
7075.622108757276
 20
4428.112805903256
 30
0.0
 11
7075.622108757274
 21
2338.112805903256
 31
0.0
  0
LINE
  5
13E46
330
747D
100
AcDbEntity
  8
部品1
100
AcDbLine
 10
7495.622108757276
 20
4428.112805903256
 30
0.0
 11
7495.622108757274
 21
2338.112805903256
 31
0.0
  0
LINE
  5
13E47
330
747D
100
AcDbEntity
  8
部品1
100
AcDbLine
 10
7915.622108757276
 20
4428.112805903256
 30
0.0
 11
7915.622108757275
 21
2338.112805903256
 31
0.0
  0
LINE
  5
13E48
330
747D
100
AcDbEntity
  8
部品1
100
AcDbLine
 10
5340.622108757263
 20
4428.112805903256
 30
0.0
 11
5340.622108757263
 21
4522.112805903261
 31
0.0
  0
LINE
  5
13E49
330
747D
100
AcDbEntity
  8
部品1
100
AcDbLine
 10
5340.622108757263
 20
2338.112805903256
 30
0.0
 11
5340.622108757256
 21
2288.112805903256
 31
0.0
  0
LINE
  5
13E4A
330
747D
100
AcDbEntity
  8
部品1
 48
50.0
100
AcDbLine
 10
5340.622108757263
 20
2338.112805903256
 30
0.0
 11
4892.622108757262
 21
2338.112805903256
 31
0.0
  0
LINE
  5
13E4B
330
747D
100
AcDbEntity
  8
部品1
100
AcDbLine
 10
5285.622108757263
 20
4428.112805903256
 30
0.0
 11
5285.622108757263
 21
2338.112805903256
 31
0.0
  0
LINE
  5
13E4C
330
747D
100
AcDbEntity
  8
部品1
100
AcDbLine
 10
5815.622108757263
 20
4428.112805903256
 30
0.0
 11
5815.622108757263
 21
2338.112805903256
 31
0.0
  0
LINE
  5
13E4D
330
747D
100
AcDbEntity
  8
部品1
100
AcDbLine
 10
5395.622108757263
 20
4428.112805903256
 30
0.0
 11
5395.622108757263
 21
2338.112805903256
 31
0.0
  0
LINE
  5
13E4E
330
747D
100
AcDbEntity
  8
部品1
 48
50.0
100
AcDbLine
 10
5340.622108757263
 20
2338.112805903256
 30
0.0
 11
8810.622108757263
 21
2338.112805903256
 31
0.0
  0
LINE
  5
13E4F
330
747D
100
AcDbEntity
  8
部品1
 48
50.0
100
AcDbLine
 10
2738.622108757263
 20
2338.112805903255
 30
0.0
 11
1870.622108757263
 21
2338.112805903256
 31
0.0
  0
LINE
  5
13E50
330
747D
100
AcDbEntity
  8
部品1
100
AcDbLine
 10
955.2074597097089
 20
2188.112805903256
 30
0.0
 11
895.2074597097089
 21
2292.035854357388
 31
0.0
  0
LINE
  5
13E51
330
747D
100
AcDbEntity
  8
部品1
100
AcDbLine
 10
1015.207459709709
 20
2292.035854357388
 30
0.0
 11
955.2074597097089
 21
2188.112805903256
 31
0.0
  0
LINE
  5
13E52
330
747D
100
AcDbEntity
  8
部品1
100
AcDbLine
 10
895.2074597097089
 20
2292.035854357388
 30
0.0
 11
1015.207459709709
 21
2292.035854357388
 31
0.0
  0
TEXT
  5
13E53
330
747D
100
AcDbEntity
  8
部品1
100
AcDbText
 10
1037.691413409528
 20
2202.954510774245
 30
0.0
 40
125.0
  1
G.L
  7
MSGOTHIC
100
AcDbText
  0
LINE
  5
13E54
330
747D
100
AcDbEntity
  8
部品1
100
AcDbLine
 10
1870.622108757263
 20
4522.11280590326
 30
0.0
 11
1870.622108757263
 21
2188.112805903256
 31
0.0
  0
LINE
  5
13E55
330
747D
100
AcDbEntity
  8
部品1
100
AcDbLine
 10
1925.622108757263
 20
4428.112805903256
 30
0.0
 11
1925.622108757263
 21
2338.112805903256
 31
0.0
  0
LINE
  5
13E56
330
747D
100
AcDbEntity
  8
部品1
100
AcDbLine
 10
2345.622108757263
 20
4428.112805903256
 30
0.0
 11
2345.622108757263
 21
2338.112805903256
 31
0.0
  0
LINE
  5
13E57
330
747D
100
AcDbEntity
  8
部品1
100
AcDbLine
 10
1870.622108757263
 20
2288.112805903256
 30
0.0
 11
8810.622108757263
 21
2288.112805903256
 31
0.0
  0
LINE
  5
13E58
330
747D
100
AcDbEntity
  8
部品1
100
AcDbLine
 10
1870.622108757263
 20
4428.112805903256
 30
0.0
 11
8810.622108757263
 21
4428.112805903256
 31
0.0
  0
LINE
  5
13E59
330
747D
100
AcDbEntity
  8
Ｇ．Ｌ
 48
50.0
100
AcDbLine
 10
606.7547215311206
 20
2188.112805903256
 30
0.0
 11
15817.19340083079
 21
2188.112805903256
 31
0.0
  0
DIMENSION
  5
13E5A
330
747D
100
AcDbEntity
  8
寸法
 48
50.0
100
AcDbDimension
  2
*D12
 10
9581.369225801619
 20
10305.71630477584
 30
0.0
 11
9581.369225801616
 21
10754.8829714425
 31
0.0
 70
   160
 71
     5
 42
54.99999999999636
  3
INABA_S40
100
AcDbAlignedDimension
 13
8810.622108757263
 23
10360.71630477583
 33
0.0
 14
8810.622108757263
 24
10305.71630477584
 34
0.0
 50
90.0
100
AcDbRotatedDimension
1001
ACAD
1000
DSTYLE
1002
{
1070
    41
1040
0.5
1070
    44
1040
1.0
1070
   147
1040
0.8
1070
   271
1070
     2
1070
   272
1070
     2
1070
   289
1070
     3
1070
   340
1005
F706
1070
   343
1005
F744
1070
   344
1005
F744
1002
}
  0
DIMENSION
  5
13E5B
330
747D
100
AcDbEntity
  8
寸法
 48
50.0
100
AcDbDimension
  2
*D13
 10
9581.369225801616
 20
7365.716304775833
 30
0.0
 11
9489.357414777993
 21
8835.716304775839
 31
0.0
 70
    32
  1
7X420=<>
 71
     5
 42
2940.000000000008
  3
INABA_S40
100
AcDbAlignedDimension
 13
8810.622108757263
 23
10305.71630477584
 33
0.0
 14
8810.622108757263
 24
7365.716304775833
 34
0.0
 50
90.0
100
AcDbRotatedDimension
1001
ACAD
1000
DSTYLE
1002
{
1070
    41
1040
0.5
1070
    44
1040
1.0
1070
   147
1040
0.8
1070
   271
1070
     2
1070
   272
1070
     2
1070
   289
1070
     3
1070
   340
1005
F706
1070
   343
1005
F744
1070
   344
1005
F744
1002
}
  0
DIMENSION
  5
13E5C
330
747D
100
AcDbEntity
  8
寸法
 48
50.0
100
AcDbDimension
  2
*D14
 10
9581.369225801619
 20
7310.716304775836
 30
0.0
 11
9581.369225801616
 21
6916.549638109171
 31
0.0
 70
   160
 71
     5
 42
54.99999999999636
  3
INABA_S40
100
AcDbAlignedDimension
 13
8810.622108757263
 23
7365.716304775833
 33
0.0
 14
8810.622108757263
 24
7310.716304775836
 34
0.0
 50
90.0
100
AcDbRotatedDimension
1001
ACAD
1000
DSTYLE
1002
{
1070
    41
1040
0.5
1070
    44
1040
1.0
1070
   147
1040
0.8
1070
   271
1070
     2
1070
   272
1070
     2
1070
   289
1070
     3
1070
   340
1005
F706
1070
   343
1005
F744
1070
   344
1005
F744
1002
}
  0
DIMENSION
  5
13E5D
330
747D
100
AcDbEntity
  8
寸法
 48
50.0
100
AcDbDimension
  2
*D15
 10
9881.369225801616
 20
7310.716304775836
 30
0.0
 11
9789.369225801614
 21
8835.716304775839
 31
0.0
 70
    32
 71
     5
 42
3050.0
  3
INABA_S40
100
AcDbAlignedDimension
 13
8810.622108757263
 23
10360.71630477583
 33
0.0
 14
8810.622108757263
 24
7310.716304775836
 34
0.0
 50
90.0
100
AcDbRotatedDimension
1001
ACAD
1000
DSTYLE
1002
{
1070
    41
1040
0.5
1070
    44
1040
1.0
1070
   147
1040
0.8
1070
   271
1070
     2
1070
   272
1070
     2
1070
   289
1070
     3
1070
   340
1005
F706
1070
   343
1005
F744
1070
   344
1005
F744
1002
}
  0
DIMENSION
  5
13E5E
330
747D
100
AcDbEntity
  8
寸法
 48
50.0
100
AcDbDimension
  2
*D16
 10
8810.622108757263
 20
10635.42871479463
 30
0.0
 11
9204.78877542393
 21
10635.42871479463
 31
0.0
 70
   160
 71
     5
 42
55.0
  3
INABA_S40
100
AcDbAlignedDimension
 13
8755.622108757263
 23
10360.71630477584
 33
0.0
 14
8810.622108757263
 24
10360.71630477583
 34
0.0
100
AcDbRotatedDimension
1001
ACAD
1000
DSTYLE
1002
{
1070
    41
1040
0.5
1070
    44
1040
1.0
1070
   147
1040
0.8
1070
   271
1070
     2
1070
   272
1070
     2
1070
   289
1070
     3
1070
   340
1005
F706
1070
   343
1005
F744
1070
   344
1005
F744
1002
}
  0
LINE
  5
14246
330
747D
100
AcDbEntity
  8
部品1
100
AcDbLine
 10
5285.622108757259
 20
9885.71630477584
 30
0.0
 11
1925.622108757263
 21
9885.716304775835
 31
0.0
  0
LINE
  5
14247
330
747D
100
AcDbEntity
  8
部品1
100
AcDbLine
 10
1898.622108757263
 20
9885.71630477584
 30
0.0
 11
1870.622108757263
 21
9885.71630477584
 31
0.0
  0
LINE
  5
14248
330
747D
100
AcDbEntity
  8
部品1
100
AcDbLine
 10
5395.622108757263
 20
9885.71630477584
 30
0.0
 11
8755.622108757263
 21
9885.71630477584
 31
0.0
  0
LINE
  5
14249
330
747D
100
AcDbEntity
  8
部品1
100
AcDbLine
 10
8782.622108757264
 20
9885.71630477584
 30
0.0
 11
8810.622108757263
 21
9885.71630477584
 31
0.0
  0
LINE
  5
14483
330
747D
100
AcDbEntity
  8
部品1
100
AcDbLine
 10
11846.97651690093
 20
2288.112805903256
 30
0.0
 11
11769.97651690092
 21
2288.112805903256
 31
0.0
  0
LINE
  5
14484
330
747D
100
AcDbEntity
  8
部品1
100
AcDbLine
 10
11769.97651690093
 20
4413.799910811658
 30
0.0
 11
11846.97651690093
 21
4428.112805903256
 31
0.0
  0
LINE
  5
14485
330
747D
100
AcDbEntity
  8
部品1
100
AcDbLine
 10
11769.97651690093
 20
4413.799910811658
 30
0.0
 11
11769.97651690092
 21
2188.112805903256
 31
0.0
  0
DIMENSION
  5
14486
330
747D
100
AcDbEntity
  8
寸法
 48
50.0
100
AcDbDimension
  2
*D17
 10
11302.06787550367
 20
2354.112805903256
 30
0.0
 11
11210.05606448005
 21
3366.612805903258
 31
0.0
 70
    32
  1
有効開口部高サ<>
 71
     5
 42
2025.0
  3
INABA_S40
100
AcDbAlignedDimension
 13
11769.97651690093
 23
4379.112805903257
 33
0.0
 14
11769.97651690092
 24
2354.112805903256
 34
0.0
 50
90.0
100
AcDbRotatedDimension
1001
ACAD
1000
DSTYLE
1002
{
1070
    41
1040
0.5
1070
    44
1040
1.0
1070
   147
1040
0.8
1070
   271
1070
     2
1070
   272
1070
     2
1070
   289
1070
     3
1070
   340
1005
F706
1070
   343
1005
F744
1070
   344
1005
F744
1002
}
  0
TEXT
  5
14487
330
747D
100
AcDbEntity
  8
部品1
100
AcDbText
 10
13089.68728521031
 20
1635.816910632888
 30
0.0
 40
135.0
  1
側面図
  7
STYLE2
100
AcDbText
  0
LWPOLYLINE
  5
14488
330
747D
100
AcDbEntity
  8
部品1
100
AcDbPolyline
 90
        4
 70
     1
 43
0.0
 10
13000.2411837867
 20
1828.710439851412
 10
13000.2411837867
 20
1588.818118305879
 10
13763.71185001515
 20
1588.818118305879
 10
13763.71185001515
 20
1828.710439851412
  0
DIMENSION
  5
14489
330
747D
100
AcDbEntity
  8
寸法
100
AcDbDimension
  2
*D18
 10
11003.22638771767
 20
2338.112805903252
 30
0.0
 11
10903.21457669405
 21
3383.112805903254
 31
0.0
 70
    32
 71
     5
 42
2090.000000000001
  3
INABA_S40G
100
AcDbAlignedDimension
 13
11846.97651690093
 23
4428.112805903253
 33
0.0
 14
11846.97651690093
 24
2338.112805903252
 34
0.0
 50
90.0
100
AcDbRotatedDimension
1001
ACAD
1000
DSTYLE
1002
{
1070
   174
1070
     0
1070
   272
1070
     1
1070
   288
1070
     0
1070
   341
1005
0
1002
}
  0
DIMENSION
  5
1448A
330
747D
100
AcDbEntity
  8
寸法
100
AcDbDimension
  2
*D19
 10
10703.22638771767
 20
4663.112805903256
 30
0.0
 11
10603.21457669404
 21
3475.612805903256
 31
0.0
 70
    32
 71
     5
 42
2375.000000000005
  3
INABA_S40G
100
AcDbAlignedDimension
 13
11769.97651690092
 23
2288.112805903252
 33
0.0
 14
11786.97651690093
 24
4663.112805903256
 34
0.0
 50
90.0
100
AcDbRotatedDimension
1001
ACAD
1000
DSTYLE
1002
{
1070
   174
1070
     0
1070
   272
1070
     1
1070
   288
1070
     0
1070
   341
1005
0
1002
}
  0
DIMENSION
  5
1448B
330
747D
100
AcDbEntity
  8
寸法
100
AcDbDimension
  2
*D20
 10
15601.90367487306
 20
4608.112805903258
 30
0.0
 11
15501.89186384943
 21
3448.112805903261
 31
0.0
 70
    32
 71
     5
 42
2320.000000000001
  3
INABA_S40G
100
AcDbAlignedDimension
 13
14896.97651690093
 23
2288.112805903258
 33
0.0
 14
14976.97651690092
 24
4608.112805903258
 34
0.0
 50
90.0
100
AcDbRotatedDimension
1001
ACAD
1000
DSTYLE
1002
{
1070
   174
1070
     0
1070
   272
1070
     1
1070
   288
1070
     0
1070
   341
1005
0
1002
}
  0
LINE
  5
1448C
330
747D
100
AcDbEntity
  8
細線
 48
50.0
100
AcDbLine
 10
13924.47651690093
 20
4428.112805903256
 30
0.0
 11
13924.47651690093
 21
2338.112805903258
 31
0.0
  0
LINE
  5
1448D
330
747D
100
AcDbEntity
  8
細線
 48
50.0
100
AcDbLine
 10
13939.47651690093
 20
4428.112805903256
 30
0.0
 11
13939.47651690093
 21
2338.112805903258
 31
0.0
  0
LINE
  5
1448E
330
747D
100
AcDbEntity
  8
細線
 48
50.0
100
AcDbLine
 10
13799.47651690093
 20
4428.112805903256
 30
0.0
 11
13799.47651690093
 21
2338.112805903258
 31
0.0
  0
LINE
  5
1448F
330
747D
100
AcDbEntity
  8
細線
 48
50.0
100
AcDbLine
 10
13784.47651690093
 20
4428.112805903256
 30
0.0
 11
13784.47651690093
 21
2338.112805903258
 31
0.0
  0
LINE
  5
14490
330
747D
100
AcDbEntity
  8
細線
 48
50.0
100
AcDbLine
 10
13644.47651690093
 20
4428.112805903256
 30
0.0
 11
13644.47651690093
 21
2338.112805903258
 31
0.0
  0
LINE
  5
14491
330
747D
100
AcDbEntity
  8
細線
 48
50.0
100
AcDbLine
 10
13659.47651690093
 20
4428.112805903256
 30
0.0
 11
13659.47651690093
 21
2338.112805903258
 31
0.0
  0
LINE
  5
14492
330
747D
100
AcDbEntity
  8
部品1
100
AcDbLine
 10
13581.97651690092
 20
4428.112805903256
 30
0.0
 11
13581.97651690092
 21
2338.112805903258
 31
0.0
  0
LINE
  5
14493
330
747D
100
AcDbEntity
  8
部品1
100
AcDbLine
 10
13225.48978942444
 20
4788.317193866275
 30
0.0
 11
13550.94480306748
 21
4770.799134907413
 31
0.0
  0
ARC
  5
14494
330
747D
100
AcDbEntity
  8
部品1
100
AcDbCircle
 10
14962.60405271487
 20
4502.13656316905
 30
0.0
 40
0.7
100
AcDbArc
 50
275.0921697642079
 51
354.1866997667061
  0
ARC
  5
14495
330
747D
100
AcDbEntity
  8
部品1
100
AcDbCircle
 10
14973.46339846419
 20
4579.179817986973
 30
0.0
 40
0.7
100
AcDbArc
 50
275.0921697642079
 51
354.1866997665479
  0
ARC
  5
14496
330
747D
100
AcDbEntity
  8
部品1
100
AcDbCircle
 10
14973.79180370679
 20
4575.494421129883
 30
0.0
 40
3.0
100
AcDbArc
 50
95.09216976420788
 51
174.1866997665479
  0
ARC
  5
14497
330
747D
100
AcDbEntity
  8
部品1
100
AcDbCircle
 10
14962.93245795746
 20
4498.451166311959
 30
0.0
 40
3.0
100
AcDbArc
 50
95.09216976420788
 51
174.1866997665479
  0
ARC
  5
14498
330
747D
100
AcDbEntity
  8
部品1
 48
50.0
100
AcDbCircle
 10
14951.90432268236
 20
4488.860421708078
 30
0.0
 40
7.0
100
AcDbArc
 50
267.8377559869492
 51
354.1866997665479
  0
ARC
  5
14499
330
747D
100
AcDbEntity
  8
部品1
 48
50.0
100
AcDbCircle
 10
14969.22641914688
 20
4599.76296885025
 30
0.0
 40
7.0
100
AcDbArc
 50
354.1866997665479
 51
87.03587545283228
  0
LINE
  5
1449A
330
747D
100
AcDbEntity
  8
部品1
 48
50.0
100
AcDbLine
 10
14959.94788628686
 20
4498.755028028862
 30
0.0
 11
14958.86832324712
 21
4488.151411035303
 31
0.0
  0
LINE
  5
1449B
330
747D
100
AcDbEntity
  8
部品1
 48
50.0
100
AcDbLine
 10
14970.80723203618
 20
4575.798282846786
 30
0.0
 11
14963.30045277134
 21
4502.065662101774
 31
0.0
  0
LINE
  5
1449C
330
747D
100
AcDbEntity
  8
部品1
 48
50.0
100
AcDbLine
 10
14976.19041971163
 20
4599.053958177475
 30
0.0
 11
14974.15979852066
 21
4579.108916919696
 31
0.0
  0
ARC
  5
1449D
330
747D
100
AcDbEntity
  8
部品1
100
AcDbCircle
 10
11793.0136087723
 20
4541.92696486216
 30
0.0
 40
0.7
100
AcDbArc
 50
181.093224029263
 51
260.1877540314845
  0
ARC
  5
1449E
330
747D
100
AcDbEntity
  8
部品1
100
AcDbCircle
 10
11788.24093517468
 20
4634.79274306228
 30
0.0
 40
0.7
100
AcDbArc
 50
181.0932240292109
 51
260.1877540314845
  0
ARC
  5
1449F
330
747D
100
AcDbEntity
  8
部品1
100
AcDbCircle
 10
11787.61038077166
 20
4631.146868524882
 30
0.0
 40
3.0
100
AcDbArc
 50
1.093224029315139
 51
80.18775403169875
  0
ARC
  5
144A0
330
747D
100
AcDbEntity
  8
部品1
100
AcDbCircle
 10
11792.38305436927
 20
4538.281090324763
 30
0.0
 40
3.0
100
AcDbArc
 50
1.093224029315139
 51
80.18775403169875
  0
ARC
  5
144A1
330
747D
100
AcDbEntity
  8
部品1
 48
50.0
100
AcDbCircle
 10
11802.58318674447
 20
4527.888846942281
 30
0.0
 40
7.0
100
AcDbArc
 50
181.0932240293151
 51
267.8377559869492
  0
ARC
  5
144A2
330
747D
100
AcDbEntity
  8
部品1
 48
50.0
100
AcDbCircle
 10
11794.15952864237
 20
4654.839906475376
 30
0.0
 40
7.0
100
AcDbArc
 50
87.03587545283228
 51
181.0932240293151
  0
LINE
  5
144A3
330
747D
100
AcDbEntity
  8
部品1
 48
50.0
100
AcDbLine
 10
11795.3825082957
 20
4538.338327927946
 30
0.0
 11
11795.58446091613
 21
4527.755292534854
 31
0.0
  0
LINE
  5
144A4
330
747D
100
AcDbEntity
  8
細線
 48
50.0
100
AcDbLine
 10
11792.77641523903
 20
4541.268376046754
 30
0.0
 11
14962.78007966967
 21
4501.459057072261
 31
0.0
  0
LINE
  5
144A5
330
747D
100
AcDbEntity
  8
細線
 48
50.0
100
AcDbLine
 10
11788.01594000174
 20
4634.129887744617
 30
0.0
 11
14973.65192474691
 21
4578.50568310379
 31
0.0
  0
LINE
  5
144A6
330
747D
100
AcDbEntity
  8
部品1
 48
50.0
100
AcDbLine
 10
11790.60983469809
 20
4631.204106128065
 30
0.0
 11
11792.31373618946
 21
4541.913609421418
 31
0.0
  0
LINE
  5
144A7
330
747D
100
AcDbEntity
  8
部品1
 48
50.0
100
AcDbLine
 10
11787.16080281403
 20
4654.706352067949
 30
0.0
 11
11787.54106259185
 21
4634.779387621537
 31
0.0
  0
LINE
  5
144A8
330
747D
100
AcDbEntity
  8
細線
 48
50.0
100
AcDbLine
 10
14943.94580009462
 20
4607.266228382726
 30
0.0
 11
14939.22883401293
 21
4482.334012447809
 31
0.0
  0
LINE
  5
144A9
330
747D
100
AcDbEntity
  8
細線
 48
50.0
100
AcDbLine
 10
11819.97651690093
 20
4660.512482278661
 30
0.0
 11
11814.68741534542
 21
4520.426849651307
 31
0.0
  0
LINE
  5
144AA
330
747D
100
AcDbEntity
  8
部品1
100
AcDbLine
 10
11802.31908150288
 20
4520.893830972223
 30
0.0
 11
14951.64021744078
 21
4481.865405738018
 31
0.0
  0
LINE
  5
144AB
330
747D
100
AcDbEntity
  8
部品1
100
AcDbLine
 10
11794.52150325789
 20
4661.830541237523
 30
0.0
 11
14969.5883937624
 21
4606.753603612395
 31
0.0
  0
LINE
  5
144AC
330
747D
100
AcDbEntity
  8
部品1
 48
50.0
100
AcDbLine
 10
13250.94480306748
 20
4786.999134907413
 30
0.0
 11
13550.94480306748
 21
4786.999134907413
 31
0.0
  0
LINE
  5
144AD
330
747D
100
AcDbEntity
  8
部品1
 48
50.0
100
AcDbLine
 10
13550.94480306748
 20
4786.999134907413
 30
0.0
 11
13550.94480306748
 21
4770.799134907413
 31
0.0
  0
TEXT
  5
144AE
330
747D
100
AcDbEntity
  8
部品1
 48
50.0
100
AcDbText
 10
13239.2126382912
 20
4822.883157059846
 30
0.0
 40
120.0
  1
1000
  7
STYLE1
100
AcDbText
  0
TEXT
  5
144AF
330
747D
100
AcDbEntity
  8
部品1
 48
50.0
100
AcDbText
 10
13716.84566095629
 20
4685.381898841563
 30
0.0
 40
120.0
  1
32
 50
90.0
  7
STYLE1
100
AcDbText
  0
LINE
  5
144B0
330
747D
100
AcDbEntity
  8
細線
 48
50.0
100
AcDbLine
 10
13239.47651690093
 20
4428.112805903256
 30
0.0
 11
13239.47651690093
 21
2338.112805903256
 31
0.0
  0
LINE
  5
144B1
330
747D
100
AcDbEntity
  8
細線
 48
50.0
100
AcDbLine
 10
13224.47651690093
 20
4428.112805903256
 30
0.0
 11
13224.47651690093
 21
2338.112805903256
 31
0.0
  0
LINE
  5
144B2
330
747D
100
AcDbEntity
  8
細線
 48
50.0
100
AcDbLine
 10
13364.47651690093
 20
4428.112805903256
 30
0.0
 11
13364.47651690093
 21
2338.112805903256
 31
0.0
  0
LINE
  5
144B3
330
747D
100
AcDbEntity
  8
細線
 48
50.0
100
AcDbLine
 10
13379.47651690093
 20
4428.112805903256
 30
0.0
 11
13379.47651690093
 21
2338.112805903256
 31
0.0
  0
LINE
  5
144B4
330
747D
100
AcDbEntity
  8
細線
 48
50.0
100
AcDbLine
 10
13519.47651690093
 20
4428.112805903256
 30
0.0
 11
13519.47651690093
 21
2338.112805903256
 31
0.0
  0
LINE
  5
144B5
330
747D
100
AcDbEntity
  8
細線
 48
50.0
100
AcDbLine
 10
13504.47651690093
 20
4428.112805903256
 30
0.0
 11
13504.47651690093
 21
2338.112805903256
 31
0.0
  0
LINE
  5
144B6
330
747D
100
AcDbEntity
  8
部品1
100
AcDbLine
 10
14841.97651690092
 20
4428.11280590326
 30
0.0
 11
14841.97651690092
 21
2338.11280590326
 31
0.0
  0
LINE
  5
144B7
330
747D
100
AcDbEntity
  8
部品1
100
AcDbLine
 10
11846.97651690093
 20
4428.112805903256
 30
0.0
 11
14896.97651690092
 21
4428.112805903256
 31
0.0
  0
LINE
  5
144B8
330
747D
100
AcDbEntity
  8
部品1
100
AcDbLine
 10
11846.97651690093
 20
2338.112805903256
 30
0.0
 11
14896.97651690093
 21
2338.112805903258
 31
0.0
  0
LINE
  5
144B9
330
747D
100
AcDbEntity
  8
部品1
100
AcDbLine
 10
11901.97651690093
 20
4428.112805903256
 30
0.0
 11
11901.97651690093
 21
2338.112805903256
 31
0.0
  0
LINE
  5
144BA
330
747D
100
AcDbEntity
  8
部品1
100
AcDbLine
 10
11846.97651690093
 20
4520.255243832134
 30
0.0
 11
11846.97651690093
 21
2188.112805903256
 31
0.0
  0
DIMENSION
  5
144BB
330
747D
100
AcDbEntity
  8
寸法
100
AcDbDimension
  2
*D21
 10
11003.22638771767
 20
2288.112805903252
 30
0.0
 11
11003.22638771767
 21
1982.065561808761
 31
0.0
 70
   160
 71
     5
 42
50.00000000000454
  3
INABA_S40G
100
AcDbAlignedDimension
 13
11846.97651690093
 23
2338.112805903256
 33
0.0
 14
11769.97651690092
 24
2288.112805903252
 34
0.0
 50
90.0
100
AcDbRotatedDimension
1001
ACAD
1000
DSTYLE
1002
{
1070
   174
1070
     0
1070
   272
1070
     1
1070
   288
1070
     0
1070
   341
1005
0
1002
}
  0
LINE
  5
144BC
330
747D
100
AcDbEntity
  8
部品1
100
AcDbLine
 10
12321.97651690093
 20
4428.112805903256
 30
0.0
 11
12321.97651690093
 21
2338.112805903256
 31
0.0
  0
LINE
  5
144BD
330
747D
100
AcDbEntity
  8
部品1
100
AcDbLine
 10
14896.97651690092
 20
4482.542833684377
 30
0.0
 11
14896.97651690093
 21
2188.112805903258
 31
0.0
  0
LINE
  5
144BE
330
747D
100
AcDbEntity
  8
部品1
100
AcDbLine
 10
14841.97651690092
 20
4428.112805903258
 30
0.0
 11
14841.97651690093
 21
2338.112805903258
 31
0.0
  0
DIMENSION
  5
144BF
330
747D
100
AcDbEntity
  8
寸法
 48
50.0
100
AcDbDimension
  2
*D22
 10
11846.97651690093
 20
5061.770259482562
 30
0.0
 11
13417.03489146034
 21
5061.770259482562
 31
0.0
 70
   160
  1
柱外寸法<>
 71
     5
 42
3049.999999999997
  3
INABA_S40G
100
AcDbAlignedDimension
 13
14896.97651690092
 23
4609.923485514911
 33
0.0
 14
11846.97651690093
 24
4659.114424026233
 34
0.0
100
AcDbRotatedDimension
1001
ACAD
1000
DSTYLE
1002
{
1070
   174
1070
     0
1070
   272
1070
     1
1070
   288
1070
     0
1070
   341
1005
0
1002
}
  0
DIMENSION
  5
144C0
330
747D
100
AcDbEntity
  8
寸法
 48
50.0
100
AcDbDimension
  2
*D23
 10
11786.97651690093
 20
5061.77025948256
 30
0.0
 11
11477.33872162534
 21
5061.77025948256
 31
0.0
 70
   160
 71
     5
 42
60.0
  3
INABA_S40G
100
AcDbAlignedDimension
 13
11846.97651690093
 23
4659.114424026233
 33
0.0
 14
11786.97651690093
 24
4663.112805903261
 34
0.0
100
AcDbRotatedDimension
1001
ACAD
1000
DSTYLE
1002
{
1070
   174
1070
     0
1070
   272
1070
     1
1070
   288
1070
     0
1070
   341
1005
0
1002
}
  0
DIMENSION
  5
144C1
330
747D
100
AcDbEntity
  8
寸法
 48
50.0
100
AcDbDimension
  2
*D24
 10
11786.97651690093
 20
5291.883852268838
 30
0.0
 11
13458.68232321045
 21
5291.883852268838
 31
0.0
 70
   160
 71
     5
 42
3189.999999999996
  3
INABA_S40G
100
AcDbAlignedDimension
 13
14976.97651690092
 23
4608.112805903258
 33
0.0
 14
11786.97651690093
 24
4663.112805903261
 34
0.0
100
AcDbRotatedDimension
1001
ACAD
1000
DSTYLE
1002
{
1070
   174
1070
     0
1070
   272
1070
     1
1070
   288
1070
     0
1070
   341
1005
0
1002
}
  0
LINE
  5
144C2
330
747D
100
AcDbEntity
  8
部品1
100
AcDbLine
 10
11846.97651690093
 20
2288.112805903256
 30
0.0
 11
14896.97651690092
 21
2288.112805903256
 31
0.0
  0
LINE
  5
144C3
330
747D
100
AcDbEntity
  8
細線
 48
50.0
100
AcDbLine
 10
12399.47651690093
 20
4428.112805903256
 30
0.0
 11
12399.47651690093
 21
2338.112805903256
 31
0.0
  0
LINE
  5
144C4
330
747D
100
AcDbEntity
  8
細線
 48
50.0
100
AcDbLine
 10
12384.47651690093
 20
4428.112805903256
 30
0.0
 11
12384.47651690093
 21
2338.112805903256
 31
0.0
  0
LINE
  5
144C5
330
747D
100
AcDbEntity
  8
細線
 48
50.0
100
AcDbLine
 10
12524.47651690093
 20
4428.112805903256
 30
0.0
 11
12524.47651690093
 21
2338.112805903256
 31
0.0
  0
LINE
  5
144C6
330
747D
100
AcDbEntity
  8
細線
 48
50.0
100
AcDbLine
 10
12539.47651690093
 20
4428.112805903256
 30
0.0
 11
12539.47651690093
 21
2338.112805903256
 31
0.0
  0
LINE
  5
144C7
330
747D
100
AcDbEntity
  8
細線
 48
50.0
100
AcDbLine
 10
12679.47651690093
 20
4428.112805903256
 30
0.0
 11
12679.47651690093
 21
2338.112805903256
 31
0.0
  0
LINE
  5
144C8
330
747D
100
AcDbEntity
  8
細線
 48
50.0
100
AcDbLine
 10
12664.47651690093
 20
4428.112805903256
 30
0.0
 11
12664.47651690093
 21
2338.112805903256
 31
0.0
  0
LINE
  5
144C9
330
747D
100
AcDbEntity
  8
細線
 48
50.0
100
AcDbLine
 10
12244.47651690093
 20
4428.112805903256
 30
0.0
 11
12244.47651690093
 21
2338.112805903256
 31
0.0
  0
LINE
  5
144CA
330
747D
100
AcDbEntity
  8
細線
 48
50.0
100
AcDbLine
 10
12259.47651690093
 20
4428.112805903256
 30
0.0
 11
12259.47651690093
 21
2338.112805903256
 31
0.0
  0
LINE
  5
144CB
330
747D
100
AcDbEntity
  8
細線
 48
50.0
100
AcDbLine
 10
12119.47651690093
 20
4428.112805903256
 30
0.0
 11
12119.47651690093
 21
2338.112805903256
 31
0.0
  0
LINE
  5
144CC
330
747D
100
AcDbEntity
  8
細線
 48
50.0
100
AcDbLine
 10
12104.47651690093
 20
4428.112805903256
 30
0.0
 11
12104.47651690093
 21
2338.112805903256
 31
0.0
  0
LINE
  5
144CD
330
747D
100
AcDbEntity
  8
細線
 48
50.0
100
AcDbLine
 10
11964.47651690093
 20
4428.112805903256
 30
0.0
 11
11964.47651690093
 21
2338.112805903256
 31
0.0
  0
LINE
  5
144CE
330
747D
100
AcDbEntity
  8
細線
 48
50.0
100
AcDbLine
 10
11979.47651690093
 20
4428.112805903256
 30
0.0
 11
11979.47651690093
 21
2338.112805903256
 31
0.0
  0
DIMENSION
  5
144CF
330
747D
100
AcDbEntity
  8
寸法
 48
50.0
100
AcDbDimension
  2
*D25
 10
14976.97651690092
 20
5061.770259482562
 30
0.0
 11
15183.02376099541
 21
5061.770259482562
 31
0.0
 70
   160
 71
     5
 42
80.0
  3
INABA_S40G
100
AcDbAlignedDimension
 13
14896.97651690092
 23
4609.923485514911
 33
0.0
 14
14976.97651690092
 24
4608.112805903259
 34
0.0
100
AcDbRotatedDimension
1001
ACAD
1000
DSTYLE
1002
{
1070
   174
1070
     0
1070
   272
1070
     1
1070
   288
1070
     0
1070
   341
1005
0
1002
}
  0
LINE
  5
144D0
330
747D
100
AcDbEntity
  8
部品1
100
AcDbLine
 10
12741.97651690093
 20
4428.112805903256
 30
0.0
 11
12741.97651690093
 21
2338.112805903256
 31
0.0
  0
LINE
  5
144D1
330
747D
100
AcDbEntity
  8
細線
 48
50.0
100
AcDbLine
 10
13084.47651690093
 20
4428.112805903256
 30
0.0
 11
13084.47651690093
 21
2338.112805903256
 31
0.0
  0
LINE
  5
144D2
330
747D
100
AcDbEntity
  8
細線
 48
50.0
100
AcDbLine
 10
13099.47651690093
 20
4428.112805903256
 30
0.0
 11
13099.47651690093
 21
2338.112805903256
 31
0.0
  0
LINE
  5
144D3
330
747D
100
AcDbEntity
  8
細線
 48
50.0
100
AcDbLine
 10
12959.47651690093
 20
4428.112805903256
 30
0.0
 11
12959.47651690093
 21
2338.112805903256
 31
0.0
  0
LINE
  5
144D4
330
747D
100
AcDbEntity
  8
細線
 48
50.0
100
AcDbLine
 10
12944.47651690093
 20
4428.112805903256
 30
0.0
 11
12944.47651690093
 21
2338.112805903256
 31
0.0
  0
LINE
  5
144D5
330
747D
100
AcDbEntity
  8
細線
 48
50.0
100
AcDbLine
 10
12804.47651690093
 20
4428.112805903256
 30
0.0
 11
12804.47651690093
 21
2338.112805903256
 31
0.0
  0
LINE
  5
144D6
330
747D
100
AcDbEntity
  8
細線
 48
50.0
100
AcDbLine
 10
12819.47651690093
 20
4428.112805903256
 30
0.0
 11
12819.47651690093
 21
2338.112805903256
 31
0.0
  0
LINE
  5
144D7
330
747D
100
AcDbEntity
  8
部品1
100
AcDbLine
 10
13161.97651690093
 20
4428.112805903256
 30
0.0
 11
13161.97651690093
 21
2338.112805903256
 31
0.0
  0
LINE
  5
144D8
330
747D
100
AcDbEntity
  8
細線
 48
50.0
100
AcDbLine
 10
14499.47651690093
 20
4428.112805903258
 30
0.0
 11
14499.47651690093
 21
2338.112805903258
 31
0.0
  0
LINE
  5
144D9
330
747D
100
AcDbEntity
  8
細線
 48
50.0
100
AcDbLine
 10
14484.47651690093
 20
4428.112805903258
 30
0.0
 11
14484.47651690093
 21
2338.112805903258
 31
0.0
  0
LINE
  5
144DA
330
747D
100
AcDbEntity
  8
細線
 48
50.0
100
AcDbLine
 10
14624.47651690093
 20
4428.112805903258
 30
0.0
 11
14624.47651690093
 21
2338.112805903258
 31
0.0
  0
LINE
  5
144DB
330
747D
100
AcDbEntity
  8
細線
 48
50.0
100
AcDbLine
 10
14639.47651690093
 20
4428.112805903258
 30
0.0
 11
14639.47651690093
 21
2338.112805903258
 31
0.0
  0
LINE
  5
144DC
330
747D
100
AcDbEntity
  8
細線
 48
50.0
100
AcDbLine
 10
14779.47651690093
 20
4428.112805903258
 30
0.0
 11
14779.47651690093
 21
2338.112805903258
 31
0.0
  0
LINE
  5
144DD
330
747D
100
AcDbEntity
  8
細線
 48
50.0
100
AcDbLine
 10
14764.47651690093
 20
4428.112805903258
 30
0.0
 11
14764.47651690093
 21
2338.112805903258
 31
0.0
  0
DIMENSION
  5
144DE
330
747D
100
AcDbEntity
  8
寸法
 48
50.0
100
AcDbDimension
  2
*D26
 10
11226.36811013255
 20
4537.458064776588
 30
0.0
 11
11237.03358539147
 21
4908.304728018286
 31
0.0
 70
   161
 71
     5
 42
141.0
  3
INABA_S40G
100
AcDbAlignedDimension
 13
11806.37253705951
 23
4661.835554737936
 33
0.0
 14
11802.31908150288
 24
4520.893830972223
 34
0.0
1001
ACAD
1000
DSTYLE
1002
{
1070
   174
1070
     0
1070
   272
1070
     1
1070
   288
1070
     0
1070
   341
1005
0
1002
}
  0
LINE
  5
144DF
330
747D
100
AcDbEntity
  8
部品1
100
AcDbLine
 10
14001.97651690092
 20
4428.112805903256
 30
0.0
 11
14001.97651690092
 21
2338.112805903258
 31
0.0
  0
LINE
  5
144E0
330
747D
100
AcDbEntity
  8
細線
 48
50.0
100
AcDbLine
 10
14079.47651690092
 20
4428.112805903256
 30
0.0
 11
14079.47651690093
 21
2338.112805903258
 31
0.0
  0
LINE
  5
144E1
330
747D
100
AcDbEntity
  8
細線
 48
50.0
100
AcDbLine
 10
14064.47651690093
 20
4428.112805903256
 30
0.0
 11
14064.47651690093
 21
2338.112805903258
 31
0.0
  0
LINE
  5
144E2
330
747D
100
AcDbEntity
  8
細線
 48
50.0
100
AcDbLine
 10
14204.47651690092
 20
4428.112805903256
 30
0.0
 11
14204.47651690093
 21
2338.112805903258
 31
0.0
  0
LINE
  5
144E3
330
747D
100
AcDbEntity
  8
細線
 48
50.0
100
AcDbLine
 10
14219.47651690092
 20
4428.112805903256
 30
0.0
 11
14219.47651690093
 21
2338.112805903258
 31
0.0
  0
LINE
  5
144E4
330
747D
100
AcDbEntity
  8
細線
 48
50.0
100
AcDbLine
 10
14359.47651690092
 20
4428.112805903256
 30
0.0
 11
14359.47651690093
 21
2338.112805903258
 31
0.0
  0
LINE
  5
144E5
330
747D
100
AcDbEntity
  8
細線
 48
50.0
100
AcDbLine
 10
14344.47651690092
 20
4428.112805903256
 30
0.0
 11
14344.47651690093
 21
2338.112805903258
 31
0.0
  0
LINE
  5
144E6
330
747D
100
AcDbEntity
  8
部品1
100
AcDbLine
 10
14421.97651690092
 20
4428.112805903258
 30
0.0
 11
14421.97651690092
 21
2338.11280590326
 31
0.0
  0
LINE
  5
14B02
330
747D
100
AcDbEntity
  8
寸法
 48
50.0
100
AcDbLine
 10
3200.825115039109
 20
7088.753056344699
 30
0.0
 11
3149.419107129006
 21
7088.753056344699
 31
0.0
  0
LINE
  5
14B03
330
747D
100
AcDbEntity
  8
寸法
 48
50.0
100
AcDbLine
 10
3149.419107129006
 20
7088.753056344699
 30
0.0
 11
3149.419107129006
 21
7120.063214996864
 31
0.0
  0
LINE
  5
14B04
330
747D
100
AcDbEntity
  8
寸法
 48
50.0
100
AcDbLine
 10
3149.419107129006
 20
7120.063214996864
 30
0.0
 11
3119.657775137582
 21
7120.063214996864
 31
0.0
  0
LINE
  5
14B05
330
747D
100
AcDbEntity
  8
寸法
 48
50.0
100
AcDbLine
 10
3119.657775137582
 20
7120.063214996864
 30
0.0
 11
3175.122111084057
 21
7157.642665925473
 31
0.0
  0
LINE
  5
14B06
330
747D
100
AcDbEntity
  8
寸法
 48
50.0
100
AcDbLine
 10
3230.586447030532
 20
7120.063214996864
 30
0.0
 11
3175.122111084057
 21
7157.642665925473
 31
0.0
  0
LINE
  5
14B07
330
747D
100
AcDbEntity
  8
寸法
 48
50.0
100
AcDbLine
 10
3200.825115039109
 20
7120.063214996864
 30
0.0
 11
3230.586447030532
 21
7120.063214996864
 31
0.0
  0
LINE
  5
14B08
330
747D
100
AcDbEntity
  8
寸法
 48
50.0
100
AcDbLine
 10
3200.825115039109
 20
7088.753056344699
 30
0.0
 11
3200.825115039109
 21
7120.063214996864
 31
0.0
  0
LINE
  5
14B09
330
747D
100
AcDbEntity
  8
寸法
 48
50.0
100
AcDbLine
 10
3149.419107129006
 20
7088.753056344699
 30
0.0
 11
3200.825115039109
 21
7088.753056344699
 31
0.0
  0
LINE
  5
14B0A
330
747D
100
AcDbEntity
  8
寸法
 48
50.0
100
AcDbLine
 10
3479.990649315966
 20
7145.898647099521
 30
0.0
 11
3479.990649315966
 21
7092.235012517732
 31
0.0
  0
LINE
  5
14B0B
330
747D
100
AcDbEntity
  8
寸法
 48
50.0
100
AcDbLine
 10
3569.274867911388
 20
7121.975012830034
 30
0.0
 11
3479.990649315966
 21
7145.898647099521
 31
0.0
  0
LINE
  5
14B0C
330
747D
100
AcDbEntity
  8
寸法
 48
50.0
100
AcDbLine
 10
3350.122927735662
 20
7121.975012830034
 30
0.0
 11
3569.274867911388
 21
7121.975012830034
 31
0.0
  0
LINE
  5
14B0D
330
747D
100
AcDbEntity
  8
細線
 48
50.0
100
AcDbLine
 10
4226.622108757267
 20
7287.216419724561
 30
0.0
 11
4853.622108757264
 21
7287.216419724561
 31
0.0
  0
LINE
  5
14B0E
330
747D
100
AcDbEntity
  8
細線
 48
50.0
100
AcDbLine
 10
3572.622113410854
 20
7253.507651170484
 30
0.0
 11
4853.622108757264
 21
7253.507651170484
 31
0.0
  0
LINE
  5
14B0F
330
747D
100
AcDbEntity
  8
細線
 48
50.0
100
AcDbLine
 10
3531.622113410858
 20
7282.912559166738
 30
0.0
 11
2777.622108757264
 21
7282.912559166735
 31
0.0
  0
LINE
  5
14B10
330
747D
100
AcDbEntity
  8
細線
100
AcDbLine
 10
4629.372099340808
 20
7306.716319689569
 30
0.0
 11
4631.703638862616
 21
7311.71632232953
 31
0.0
  0
LINE
  5
14B11
330
747D
100
AcDbEntity
  8
細線
100
AcDbLine
 10
4699.372108757265
 20
7306.716304775836
 30
0.0
 11
4697.040562281078
 21
7311.716322329515
 31
0.0
  0
LINE
  5
14B12
330
747D
100
AcDbEntity
  8
細線
100
AcDbLine
 10
4697.040562281078
 20
7311.716322329515
 30
0.0
 11
4631.703638862602
 21
7311.716322329501
 31
0.0
  0
LINE
  5
14B13
330
747D
100
AcDbEntity
  8
細線
100
AcDbLine
 10
4557.040562281077
 20
7311.716322329515
 30
0.0
 11
4491.703638862602
 21
7311.716322329501
 31
0.0
  0
LINE
  5
14B14
330
747D
100
AcDbEntity
  8
細線
100
AcDbLine
 10
4559.372108757265
 20
7306.716304775836
 30
0.0
 11
4557.040562281077
 21
7311.716322329515
 31
0.0
  0
LINE
  5
14B15
330
747D
100
AcDbEntity
  8
細線
100
AcDbLine
 10
4489.372099340807
 20
7306.716319689569
 30
0.0
 11
4491.703638862616
 21
7311.71632232953
 31
0.0
  0
LINE
  5
14B16
330
747D
100
AcDbEntity
  8
細線
100
AcDbLine
 10
4349.372108757265
 20
7306.716304775836
 30
0.0
 11
4351.703648279077
 21
7311.716307415796
 31
0.0
  0
LINE
  5
14B17
330
747D
100
AcDbEntity
  8
細線
100
AcDbLine
 10
4419.372118173725
 20
7306.716289862101
 30
0.0
 11
4417.040571697534
 21
7311.716307415782
 31
0.0
  0
LINE
  5
14B18
330
747D
100
AcDbEntity
  8
細線
100
AcDbLine
 10
4417.040571697538
 20
7311.716307415782
 30
0.0
 11
4351.703648279062
 21
7311.716307415768
 31
0.0
  0
LINE
  5
14B19
330
747D
100
AcDbEntity
  8
細線
100
AcDbLine
 10
4121.79059294637
 20
7277.716344113163
 30
0.0
 11
4056.453669527896
 21
7277.716344113149
 31
0.0
  0
LINE
  5
14B1A
330
747D
100
AcDbEntity
  8
細線
100
AcDbLine
 10
4124.122139422558
 20
7272.716326559482
 30
0.0
 11
4121.79059294637
 21
7277.716344113163
 31
0.0
  0
LINE
  5
14B1B
330
747D
100
AcDbEntity
  8
細線
100
AcDbLine
 10
4054.122130006102
 20
7272.716341473217
 30
0.0
 11
4056.45366952791
 21
7277.716344113177
 31
0.0
  0
LINE
  5
14B1C
330
747D
100
AcDbEntity
  8
細線
 48
50.0
100
AcDbLine
 10
3895.505488005279
 20
7290.987167928915
 30
0.0
 11
3901.261005587946
 21
7272.716316638429
 31
0.0
  0
LINE
  5
14B1D
330
747D
100
AcDbEntity
  8
細線
 48
50.0
100
AcDbLine
 10
3884.577039524849
 20
7290.987167928915
 30
0.0
 11
3895.505488005279
 21
7290.987167928915
 31
0.0
  0
ARC
  5
14B1E
330
747D
100
AcDbEntity
  8
細線
 48
50.0
100
AcDbCircle
 10
3879.122683467527
 20
7292.487167928915
 30
0.0
 40
5.0
100
AcDbArc
 50
204.6243183521304
 51
335.3756816478695
  0
ARC
  5
14B1F
330
747D
100
AcDbEntity
  8
細線
 48
50.0
100
AcDbCircle
 10
3884.577039524849
 20
7289.987167928915
 30
0.0
 40
1.0
100
AcDbArc
 50
90.0
 51
155.3756816478695
  0
ARC
  5
14B20
330
747D
100
AcDbEntity
  8
細線
 48
50.0
100
AcDbCircle
 10
3873.668327410211
 20
7289.987167928915
 30
0.0
 40
1.0
100
AcDbArc
 50
24.62431835213048
 51
90.0
  0
LINE
  5
14B21
330
747D
100
AcDbEntity
  8
細線
 48
50.0
100
AcDbLine
 10
3862.739878929778
 20
7290.987167928915
 30
0.0
 11
3873.668327410211
 21
7290.987167928915
 31
0.0
  0
LINE
  5
14B22
330
747D
100
AcDbEntity
  8
細線
 48
50.0
100
AcDbLine
 10
3856.98436134711
 20
7272.716316638422
 30
0.0
 11
3862.739878929778
 21
7290.987167928915
 31
0.0
  0
LINE
  5
14B23
330
747D
100
AcDbEntity
  8
細線
100
AcDbLine
 10
3914.122131237143
 20
7272.716314004227
 30
0.0
 11
3916.453670758955
 21
7277.716316644187
 31
0.0
  0
LINE
  5
14B24
330
747D
100
AcDbEntity
  8
細線
100
AcDbLine
 10
3984.122140653603
 20
7272.716299090491
 30
0.0
 11
3981.790594177413
 21
7277.716316644172
 31
0.0
  0
LINE
  5
14B25
330
747D
100
AcDbEntity
  8
細線
100
AcDbLine
 10
3981.790594177413
 20
7277.716316644172
 30
0.0
 11
3916.45367075894
 21
7277.716316644158
 31
0.0
  0
LINE
  5
14B26
330
747D
100
AcDbEntity
  8
細線
100
AcDbLine
 10
3841.790565812896
 20
7277.716316638393
 30
0.0
 11
3776.45364239442
 21
7277.716316638379
 31
0.0
  0
LINE
  5
14B27
330
747D
100
AcDbEntity
  8
細線
100
AcDbLine
 10
3844.122112289083
 20
7272.716299084712
 30
0.0
 11
3841.790565812896
 21
7277.716316638393
 31
0.0
  0
LINE
  5
14B28
330
747D
100
AcDbEntity
  8
細線
100
AcDbLine
 10
3774.122104103668
 20
7272.716316638422
 30
0.0
 11
3776.453642394435
 21
7277.716316638407
 31
0.0
  0
LINE
  5
14B29
330
747D
100
AcDbEntity
  8
細線
100
AcDbLine
 10
3634.122139422558
 20
7272.716324825791
 30
0.0
 11
3636.453677713326
 21
7277.716324825776
 31
0.0
  0
LINE
  5
14B2A
330
747D
100
AcDbEntity
  8
細線
100
AcDbLine
 10
3704.122147607975
 20
7272.716307272081
 30
0.0
 11
3701.790601131788
 21
7277.716324825758
 31
0.0
  0
LINE
  5
14B2B
330
747D
100
AcDbEntity
  8
細線
100
AcDbLine
 10
3701.790601131788
 20
7277.716324825758
 30
0.0
 11
3636.453677713312
 21
7277.716324825748
 31
0.0
  0
LINE
  5
14B2C
330
747D
100
AcDbEntity
  8
細線
100
AcDbLine
 10
3262.622105225438
 20
7238.716496506504
 30
0.0
 11
3264.953643516206
 21
7243.71649650649
 31
0.0
  0
LINE
  5
14B2D
330
747D
100
AcDbEntity
  8
細線
100
AcDbLine
 10
3332.622113410854
 20
7238.71647895279
 30
0.0
 11
3330.290566934666
 21
7243.716496506468
 31
0.0
  0
LINE
  5
14B2E
330
747D
100
AcDbEntity
  8
細線
100
AcDbLine
 10
3330.290566934666
 20
7243.716496506468
 30
0.0
 11
3264.953643516195
 21
7243.716496506461
 31
0.0
  0
LINE
  5
14B2F
330
747D
100
AcDbEntity
  8
細線
100
AcDbLine
 10
3470.290566934667
 20
7243.716496506468
 30
0.0
 11
3404.953643516195
 21
7243.716496506461
 31
0.0
  0
LINE
  5
14B30
330
747D
100
AcDbEntity
  8
細線
100
AcDbLine
 10
3472.622113410853
 20
7238.71647895279
 30
0.0
 11
3470.290566934667
 21
7243.716496506468
 31
0.0
  0
LINE
  5
14B31
330
747D
100
AcDbEntity
  8
細線
100
AcDbLine
 10
3402.622105225438
 20
7238.716496506504
 30
0.0
 11
3404.953643516205
 21
7243.71649650649
 31
0.0
  0
LINE
  5
14B32
330
747D
100
AcDbEntity
  8
細線
100
AcDbLine
 10
3190.290566934667
 20
7243.716496506468
 30
0.0
 11
3124.953643516195
 21
7243.716496506457
 31
0.0
  0
LINE
  5
14B33
330
747D
100
AcDbEntity
  8
細線
100
AcDbLine
 10
3192.622113410854
 20
7238.71647895279
 30
0.0
 11
3190.290566934667
 21
7243.716496506468
 31
0.0
  0
LINE
  5
14B34
330
747D
100
AcDbEntity
  8
細線
100
AcDbLine
 10
3122.622105225438
 20
7238.716496506501
 30
0.0
 11
3124.953643516205
 21
7243.716496506486
 31
0.0
  0
LINE
  5
14B35
330
747D
100
AcDbEntity
  8
細線
100
AcDbLine
 10
2982.622113410854
 20
7238.716496506504
 30
0.0
 11
2984.953651701621
 21
7243.71649650649
 31
0.0
  0
LINE
  5
14B36
330
747D
100
AcDbEntity
  8
細線
100
AcDbLine
 10
3052.62212159627
 20
7238.71647895279
 30
0.0
 11
3050.290575120083
 21
7243.716496506468
 31
0.0
  0
LINE
  5
14B37
330
747D
100
AcDbEntity
  8
細線
100
AcDbLine
 10
3050.290575120083
 20
7243.716496506468
 30
0.0
 11
2984.953651701611
 21
7243.716496506461
 31
0.0
  0
ARC
  5
14B38
330
747D
100
AcDbEntity
  8
部品1
 48
0.01
100
AcDbCircle
 10
2938.122002158518
 20
7237.715374321431
 30
0.0
 40
0.5
100
AcDbArc
 50
270.0
 51
0.0
  0
LINE
  5
14B39
330
747D
100
AcDbEntity
  8
部品1
 48
0.01
100
AcDbLine
 10
2938.622002158519
 20
7238.715374321431
 30
0.0
 11
2938.622002158519
 21
7237.715374321431
 31
0.0
  0
LINE
  5
14B3A
330
747D
100
AcDbEntity
  8
部品1
 48
0.01
100
AcDbLine
 10
2938.622002158519
 20
7238.715374321431
 30
0.0
 11
2938.622002158519
 21
7237.715374321431
 31
0.0
  0
LINE
  5
14B3B
330
747D
100
AcDbEntity
  8
部品1
 48
0.01
100
AcDbLine
 10
2938.122002158518
 20
7237.215374321431
 30
0.0
 11
2931.509496728454
 21
7237.215374321431
 31
0.0
  0
ARC
  5
14B3C
330
747D
100
AcDbEntity
  8
部品1
100
AcDbCircle
 10
2931.577846281235
 20
7238.215374321431
 30
0.0
 40
1.0
100
AcDbArc
 50
160.5287793655865
 51
270.0
  0
ARC
  5
14B3D
330
747D
100
AcDbEntity
  8
部品1
100
AcDbCircle
 10
2906.122002158518
 20
7247.215374321432
 30
0.0
 40
26.0
100
AcDbArc
 50
340.5287793655865
 51
0.0
  0
LINE
  5
14B3E
330
747D
100
AcDbEntity
  8
部品1
100
AcDbLine
 10
2932.122002158519
 20
7247.215374321432
 30
0.0
 11
2932.122002158519
 21
7252.215374321432
 31
0.0
  0
ARC
  5
14B3F
330
747D
100
AcDbEntity
  8
部品1
 48
0.01
100
AcDbCircle
 10
2930.122002158519
 20
7252.215374321432
 30
0.0
 40
2.0
100
AcDbArc
 50
0.0
 51
90.0
  0
ARC
  5
14B40
330
747D
100
AcDbEntity
  8
部品1
100
AcDbCircle
 10
2928.513610533709
 20
7251.215374321431
 30
0.0
 40
3.0
100
AcDbArc
 50
90.0
 51
141.6069559807873
  0
LINE
  5
14B41
330
747D
100
AcDbEntity
  8
部品1
 48
0.01
100
AcDbLine
 10
2930.122002158519
 20
7254.215374321431
 30
0.0
 11
2928.513610533709
 21
7254.215374321431
 31
0.0
  0
ARC
  5
14B42
330
747D
100
AcDbEntity
  8
部品1
100
AcDbCircle
 10
2910.051287944248
 20
7250.515374321434
 30
0.0
 40
3.0
100
AcDbArc
 50
254.0576313943215
 51
270.0
  0
ARC
  5
14B43
330
747D
100
AcDbEntity
  8
部品1
100
AcDbCircle
 10
2917.19271637279
 20
7250.515374321434
 30
0.0
 40
3.0
100
AcDbArc
 50
270.0
 51
285.9423686056786
  0
LINE
  5
14B44
330
747D
100
AcDbEntity
  8
部品1
100
AcDbLine
 10
2917.19271637279
 20
7247.515374321435
 30
0.0
 11
2910.051287944248
 21
7247.515374321435
 31
0.0
  0
ARC
  5
14B45
330
747D
100
AcDbEntity
  8
部品1
100
AcDbCircle
 10
2913.622002158519
 20
7263.015374321433
 30
0.0
 40
16.0
100
AcDbArc
 50
285.9423686056786
 51
321.6069559807873
  0
LINE
  5
14B46
330
747D
100
AcDbEntity
  8
部品1
 48
0.01
100
AcDbLine
 10
2897.122002158519
 20
7254.215374321431
 30
0.0
 11
2898.730393783329
 21
7254.215374321431
 31
0.0
  0
ARC
  5
14B47
330
747D
100
AcDbEntity
  8
部品1
100
AcDbCircle
 10
2898.730393783329
 20
7251.215374321431
 30
0.0
 40
3.0
100
AcDbArc
 50
38.39304401921267
 51
90.0
  0
ARC
  5
14B48
330
747D
100
AcDbEntity
  8
部品1
100
AcDbCircle
 10
2913.622002158519
 20
7263.015374321433
 30
0.0
 40
16.0
100
AcDbArc
 50
218.3930440192126
 51
254.0576313943215
  0
LINE
  5
14B49
330
747D
100
AcDbEntity
  8
部品1
100
AcDbLine
 10
2895.122002158519
 20
7247.215374321432
 30
0.0
 11
2895.122002158519
 21
7252.215374321432
 31
0.0
  0
ARC
  5
14B4A
330
747D
100
AcDbEntity
  8
部品1
 48
0.01
100
AcDbCircle
 10
2897.122002158519
 20
7252.215374321432
 30
0.0
 40
2.0
100
AcDbArc
 50
90.0
 51
180.0
  0
ARC
  5
14B4B
330
747D
100
AcDbEntity
  8
部品1
100
AcDbCircle
 10
2921.122002158519
 20
7247.215374321432
 30
0.0
 40
26.0
100
AcDbArc
 50
180.0
 51
199.4712206344135
  0
ARC
  5
14B4C
330
747D
100
AcDbEntity
  8
部品1
 48
0.01
100
AcDbCircle
 10
2889.122002158519
 20
7237.715374321431
 30
0.0
 40
0.5
100
AcDbArc
 50
180.0
 51
270.0
  0
LINE
  5
14B4D
330
747D
100
AcDbEntity
  8
部品1
 48
0.01
100
AcDbLine
 10
2889.122002158519
 20
7237.215374321431
 30
0.0
 11
2895.666158035803
 21
7237.215374321431
 31
0.0
  0
LINE
  5
14B4E
330
747D
100
AcDbEntity
  8
部品1
 48
0.01
100
AcDbLine
 10
2888.622002158519
 20
7238.715374321431
 30
0.0
 11
2888.622002158519
 21
7237.715374321431
 31
0.0
  0
ARC
  5
14B4F
330
747D
100
AcDbEntity
  8
部品1
100
AcDbCircle
 10
2895.666158035803
 20
7238.215374321431
 30
0.0
 40
1.0
100
AcDbArc
 50
270.0
 51
19.47122063441346
  0
LINE
  5
14B50
330
747D
100
AcDbEntity
  8
細線
100
AcDbLine
 10
2934.122002158526
 20
7256.715374321434
 30
0.0
 11
2893.122002158526
 21
7256.715374321427
 31
0.0
  0
LINE
  5
14B51
330
747D
100
AcDbEntity
  8
細線
100
AcDbLine
 10
2893.122002158526
 20
7256.715374321427
 30
0.0
 11
2893.122002158526
 21
7238.71537432141
 31
0.0
  0
LINE
  5
14B52
330
747D
100
AcDbEntity
  8
細線
100
AcDbLine
 10
2934.122002158526
 20
7256.715374321434
 30
0.0
 11
2934.122002158526
 21
7238.71537432141
 31
0.0
  0
LINE
  5
14B53
330
747D
100
AcDbEntity
  8
細線
100
AcDbLine
 10
2777.622108757264
 20
7242.716304775836
 30
0.0
 11
2777.622108757264
 21
7238.716304775882
 31
0.0
  0
DIMENSION
  5
14B54
330
747D
100
AcDbEntity
  8
寸法
 48
50.0
100
AcDbDimension
  2
*D27
 10
4043.622108757264
 20
6536.963478579642
 30
0.0
 11
3438.309764353181
 21
6536.963478579642
 31
0.0
 70
   160
  1
有効開口部間口\P<>
 71
     5
 42
1266.0
  3
INABA_S40
100
AcDbAlignedDimension
 13
2777.622108757264
 23
7233.716304775835
 33
0.0
 14
4043.622108757264
 24
7233.716304775835
 34
0.0
100
AcDbRotatedDimension
1001
ACAD
1000
DSTYLE
1002
{
1070
    41
1040
0.5
1070
    44
1040
1.0
1070
   147
1040
0.8
1070
   271
1070
     2
1070
   272
1070
     2
1070
   289
1070
     3
1070
   340
1005
F706
1070
   343
1005
F744
1070
   344
1005
F744
1002
}
  0
LINE
  5
14B55
330
747D
100
AcDbEntity
  8
部品1
100
AcDbLine
 10
4865.622108757264
 20
7310.716304775835
 30
0.0
 11
4892.622108757264
 21
7310.716304775835
 31
0.0
  0
LINE
  5
14B57
330
747D
100
AcDbEntity
  8
部品1
100
AcDbLine
 10
4892.622108757264
 20
7233.716304775835
 30
0.0
 11
4892.622108757264
 21
7310.716304775835
 31
0.0
  0
LINE
  5
14B58
330
747D
100
AcDbEntity
  8
部品1
100
AcDbLine
 10
4853.622108757264
 20
7306.716304775836
 30
0.0
 11
4865.622108757264
 21
7306.716304775836
 31
0.0
  0
LINE
  5
14B59
330
747D
100
AcDbEntity
  8
部品1
100
AcDbLine
 10
4862.622108757264
 20
7242.716304775836
 30
0.0
 11
4862.622108757264
 21
7233.716304775835
 31
0.0
  0
LINE
  5
14B5A
330
747D
100
AcDbEntity
  8
部品1
100
AcDbLine
 10
4853.622108757264
 20
7242.716304775836
 30
0.0
 11
4862.622108757264
 21
7242.716304775836
 31
0.0
  0
LINE
  5
14B5B
330
747D
100
AcDbEntity
  8
部品1
100
AcDbLine
 10
4853.622108757264
 20
7306.716304775836
 30
0.0
 11
4853.622108757264
 21
7242.716304775836
 31
0.0
  0
LINE
  5
14B5C
330
747D
100
AcDbEntity
  8
部品1
100
AcDbLine
 10
4865.622108757264
 20
7337.716304775836
 30
0.0
 11
4865.622108757264
 21
7306.716304775836
 31
0.0
  0
LINE
  5
14B5D
330
747D
100
AcDbEntity
  8
部品1
100
AcDbLine
 10
2777.622108757264
 20
7306.716304775836
 30
0.0
 11
2765.622108757264
 21
7306.716304775836
 31
0.0
  0
LINE
  5
14B5E
330
747D
100
AcDbEntity
  8
部品1
100
AcDbLine
 10
2738.622108757264
 20
7310.716304775835
 30
0.0
 11
2765.622108757263
 21
7310.716304775835
 31
0.0
  0
LINE
  5
14B5F
330
747D
100
AcDbEntity
  8
部品1
100
AcDbLine
 10
2768.622108757264
 20
7242.716304775836
 30
0.0
 11
2768.622108757264
 21
7233.716304775835
 31
0.0
  0
LINE
  5
14B60
330
747D
100
AcDbEntity
  8
部品1
100
AcDbLine
 10
2777.622108757264
 20
7242.716304775836
 30
0.0
 11
2768.622108757264
 21
7242.716304775836
 31
0.0
  0
LINE
  5
14B61
330
747D
100
AcDbEntity
  8
部品1
100
AcDbLine
 10
2768.622108757264
 20
7233.716304775835
 30
0.0
 11
2738.622108757264
 21
7233.716304775835
 31
0.0
  0
LINE
  5
14B62
330
747D
100
AcDbEntity
  8
部品1
100
AcDbLine
 10
2738.622108757264
 20
7233.716304775835
 30
0.0
 11
2738.622108757264
 21
7310.716304775835
 31
0.0
  0
LINE
  5
14B63
330
747D
100
AcDbEntity
  8
部品1
100
AcDbLine
 10
2777.622108757264
 20
7306.716304775836
 30
0.0
 11
2777.622108757264
 21
7242.716304775836
 31
0.0
  0
LINE
  5
14B64
330
747D
100
AcDbEntity
  8
部品1
100
AcDbLine
 10
2765.622108757263
 20
7337.716304775831
 30
0.0
 11
2765.622108757264
 21
7306.716304775836
 31
0.0
  0
LINE
  5
14B65
330
747D
100
AcDbEntity
  8
部品1
100
AcDbLine
 10
2765.622108757263
 20
7337.716304775831
 30
0.0
 11
4865.622108757264
 21
7337.716304775836
 31
0.0
  0
LINE
  5
14B66
330
747D
100
AcDbEntity
  8
部品1
100
AcDbLine
 10
4862.622108757264
 20
7233.716304775835
 30
0.0
 11
4892.622108757264
 21
7233.716304775835
 31
0.0
  0
LINE
  5
14B67
330
747D
100
AcDbEntity
  8
部品1
100
AcDbLine
 10
2768.622108757264
 20
7233.716304775835
 30
0.0
 11
4865.622108757264
 21
7233.716304775835
 31
0.0
  0
LINE
  5
14B68
330
747D
100
AcDbEntity
  8
細線
  6
Continuous
 62
     5
100
AcDbLine
 10
4144.622108757267
 20
7272.716304775831
 30
0.0
 11
4144.622108757267
 21
7272.716304775831
 31
0.0
  0
LINE
  5
14B69
330
747D
100
AcDbEntity
  8
細線
  6
Continuous
 62
     5
100
AcDbLine
 10
4137.122144076159
 20
7272.716314696889
 30
0.0
 11
4137.122144076159
 21
7272.716314696889
 31
0.0
  0
LINE
  5
14B6A
330
747D
100
AcDbEntity
  8
細線
  6
Continuous
 62
     5
100
AcDbLine
 10
4131.122144076159
 20
7272.716314696889
 30
0.0
 11
4131.122144076159
 21
7272.716314696889
 31
0.0
  0
LINE
  5
14B6B
330
747D
100
AcDbEntity
  8
細線
  6
Continuous
 62
     5
100
AcDbLine
 10
4198.622108757268
 20
7291.716304775831
 30
0.0
 11
4198.622108757268
 21
7291.716304775831
 31
0.0
  0
LINE
  5
14B6C
330
747D
100
AcDbEntity
  8
細線
 48
50.0
100
AcDbLine
 10
2791.622113410858
 20
7259.316478952789
 30
0.0
 11
2791.622113410858
 21
7267.712629360429
 31
0.0
  0
LINE
  5
14B6D
330
747D
100
AcDbEntity
  8
細線
 48
50.0
100
AcDbLine
 10
2791.622113410858
 20
7267.712629360429
 30
0.0
 11
2777.622108757264
 21
7267.712629360424
 31
0.0
  0
LINE
  5
14B6E
330
747D
100
AcDbEntity
  8
細線
 48
50.0
100
AcDbLine
 10
3542.622113410854
 20
7255.866478952788
 30
0.0
 11
3542.622113410854
 21
7260.716478952791
 31
0.0
  0
LINE
  5
14B6F
330
747D
100
AcDbEntity
  8
細線
 48
50.0
100
AcDbLine
 10
3542.622113410854
 20
7260.716478952791
 30
0.0
 11
3557.622113410854
 21
7260.716478952791
 31
0.0
  0
LINE
  5
14B70
330
747D
100
AcDbEntity
  8
細線
 48
50.0
100
AcDbLine
 10
3557.622113410854
 20
7260.716478952791
 30
0.0
 11
3557.622113410857
 21
7267.716478952791
 31
0.0
  0
LINE
  5
14B71
330
747D
100
AcDbEntity
  8
細線
 48
50.0
100
AcDbLine
 10
3557.622113410857
 20
7267.716478952791
 30
0.0
 11
3572.622113410854
 21
7267.716478952791
 31
0.0
  0
LINE
  5
14B72
330
747D
100
AcDbEntity
  8
細線
 48
50.0
100
AcDbLine
 10
3572.622113410854
 20
7267.716478952791
 30
0.0
 11
3572.622113410854
 21
7238.71647895279
 31
0.0
  0
LINE
  5
14B73
330
747D
100
AcDbEntity
  8
細線
 48
50.0
100
AcDbLine
 10
2768.622108757264
 20
7238.713813296259
 30
0.0
 11
2982.622113410854
 21
7238.716496506504
 31
0.0
  0
LINE
  5
14B74
330
747D
100
AcDbEntity
  8
細線
 48
50.0
100
AcDbLine
 10
3472.622113410853
 20
7238.71647895279
 30
0.0
 11
3572.622113410854
 21
7238.71647895279
 31
0.0
  0
LINE
  5
14B75
330
747D
100
AcDbEntity
  8
細線
 48
50.0
100
AcDbLine
 10
3192.622113410854
 20
7238.71647895279
 30
0.0
 11
3262.622113410854
 21
7238.71647895279
 31
0.0
  0
LINE
  5
14B76
330
747D
100
AcDbEntity
  8
細線
 48
50.0
100
AcDbLine
 10
3205.484078423384
 20
7238.71647895279
 30
0.0
 11
3211.239596006051
 21
7256.987330243283
 31
0.0
  0
LINE
  5
14B77
330
747D
100
AcDbEntity
  8
細線
 48
50.0
100
AcDbLine
 10
3211.239596006051
 20
7256.987330243283
 30
0.0
 11
3222.168044486485
 21
7256.987330243281
 31
0.0
  0
ARC
  5
14B78
330
747D
100
AcDbEntity
  8
細線
 48
50.0
100
AcDbCircle
 10
3222.168044486485
 20
7255.98733024328
 30
0.0
 40
1.0
100
AcDbArc
 50
24.62431835213048
 51
90.0
  0
ARC
  5
14B79
330
747D
100
AcDbEntity
  8
細線
 48
50.0
100
AcDbCircle
 10
3233.076756601118
 20
7255.98733024328
 30
0.0
 40
1.0
100
AcDbArc
 50
90.0
 51
155.3756816478695
  0
ARC
  5
14B7A
330
747D
100
AcDbEntity
  8
細線
 48
50.0
100
AcDbCircle
 10
3227.622400543799
 20
7258.487330243281
 30
0.0
 40
5.0
100
AcDbArc
 50
204.6243183521304
 51
335.3756816478695
  0
LINE
  5
14B7B
330
747D
100
AcDbEntity
  8
細線
 48
50.0
100
AcDbLine
 10
3233.076756601118
 20
7256.987330243281
 30
0.0
 11
3244.005205081551
 21
7256.987330243283
 31
0.0
  0
LINE
  5
14B7C
330
747D
100
AcDbEntity
  8
細線
 48
50.0
100
AcDbLine
 10
3244.005205081551
 20
7256.987330243283
 30
0.0
 11
3249.760722664219
 21
7238.71647895279
 31
0.0
  0
LINE
  5
14B7D
330
747D
100
AcDbEntity
  8
細線
 48
50.0
100
AcDbLine
 10
3542.622113410854
 20
7259.316478952789
 30
0.0
 11
2791.622113410858
 21
7259.316478952789
 31
0.0
  0
LINE
  5
14B7E
330
747D
100
AcDbEntity
  8
細線
 48
50.0
100
AcDbLine
 10
3402.622113410854
 20
7238.71647895279
 30
0.0
 11
3332.622113410854
 21
7238.71647895279
 31
0.0
  0
LINE
  5
14B7F
330
747D
100
AcDbEntity
  8
細線
100
AcDbLine
 10
3122.622113410854
 20
7238.71647895279
 30
0.0
 11
3052.62212159627
 21
7238.71647895279
 31
0.0
  0
LINE
  5
14B80
330
747D
100
AcDbEntity
  8
細線
 48
50.0
100
AcDbLine
 10
4196.622104103678
 20
7293.316522810657
 30
0.0
 11
3561.622113410854
 21
7293.316522810653
 31
0.0
  0
LINE
  5
14B81
330
747D
100
AcDbEntity
  8
細線
 48
50.0
100
AcDbLine
 10
3561.622113410854
 20
7290.212673218296
 30
0.0
 11
3561.622113410854
 21
7294.712673218296
 31
0.0
  0
LINE
  5
14B82
330
747D
100
AcDbEntity
  8
細線
 48
50.0
100
AcDbLine
 10
3561.622113410854
 20
7294.712673218296
 30
0.0
 11
3546.622113410854
 21
7294.712673218296
 31
0.0
  0
LINE
  5
14B83
330
747D
100
AcDbEntity
  8
細線
 48
50.0
100
AcDbLine
 10
3546.622113410854
 20
7294.712673218296
 30
0.0
 11
3546.622113410854
 21
7301.712673218297
 31
0.0
  0
LINE
  5
14B84
330
747D
100
AcDbEntity
  8
細線
 48
50.0
100
AcDbLine
 10
3546.622113410854
 20
7301.712673218297
 30
0.0
 11
3531.622113410858
 21
7301.712673218293
 31
0.0
  0
LINE
  5
14B85
330
747D
100
AcDbEntity
  8
細線
 48
50.0
100
AcDbLine
 10
3531.622113410858
 20
7301.712673218293
 30
0.0
 11
3531.622113410858
 21
7264.112445115182
 31
0.0
  0
LINE
  5
14B86
330
747D
100
AcDbEntity
  8
細線
 48
50.0
100
AcDbLine
 10
3531.622113410858
 20
7264.112445115182
 30
0.0
 11
3551.62212071203
 21
7264.112486664725
 31
0.0
  0
LINE
  5
14B87
330
747D
100
AcDbEntity
  8
細線
 48
50.0
100
AcDbLine
 10
3551.622075843088
 20
7272.715948300533
 30
0.0
 11
3551.62212071203
 21
7264.112486664725
 31
0.0
  0
LINE
  5
14B88
330
747D
100
AcDbEntity
  8
細線
 48
50.0
100
AcDbLine
 10
4196.622104103678
 20
7289.866522810656
 30
0.0
 11
4196.622104103678
 21
7294.716522810656
 31
0.0
  0
LINE
  5
14B89
330
747D
100
AcDbEntity
  8
細線
 48
50.0
100
AcDbLine
 10
4196.622104103678
 20
7294.716522810656
 30
0.0
 11
4211.622104103674
 21
7294.716522810656
 31
0.0
  0
LINE
  5
14B8A
330
747D
100
AcDbEntity
  8
細線
 48
50.0
100
AcDbLine
 10
4211.622104103674
 20
7294.716522810656
 30
0.0
 11
4211.62211573765
 21
7301.716522810699
 31
0.0
  0
LINE
  5
14B8B
330
747D
100
AcDbEntity
  8
細線
 48
50.0
100
AcDbLine
 10
4211.62211573765
 20
7301.716522810699
 30
0.0
 11
4226.62211390818
 21
7301.716522810699
 31
0.0
  0
LINE
  5
14B8C
330
747D
100
AcDbEntity
  8
細線
 48
50.0
100
AcDbLine
 10
4226.62211390818
 20
7301.716522810699
 30
0.0
 11
4226.622103606358
 21
7272.716316638426
 31
0.0
  0
LINE
  5
14B8D
330
747D
100
AcDbEntity
  8
細線
 48
50.0
100
AcDbLine
 10
3914.122131237143
 20
7272.716324825791
 30
0.0
 11
3844.12238331956
 21
7272.716319388454
 31
0.0
  0
LINE
  5
14B8E
330
747D
100
AcDbEntity
  8
細線
 48
50.0
100
AcDbLine
 10
3551.622075843088
 20
7272.715948300533
 30
0.0
 11
3562.854765197798
 21
7272.716131253679
 31
0.0
  0
ARC
  5
14B8F
330
747D
100
AcDbEntity
  8
細線
 48
50.0
100
AcDbCircle
 10
3569.437057505134
 20
7271.516295167292
 30
0.0
 40
1.8
100
AcDbArc
 50
270.0006665777295
 51
345.0005554812987
  0
LINE
  5
14B90
330
747D
100
AcDbEntity
  8
細線
 48
50.0
100
AcDbLine
 10
3571.423490951214
 20
7271.975135624571
 30
0.0
 11
3571.175728509015
 21
7271.050437742464
 31
0.0
  0
LINE
  5
14B91
330
747D
100
AcDbEntity
  8
細線
 48
50.0
100
AcDbLine
 10
3569.437078446289
 20
7269.716295167413
 30
0.0
 11
3565.807151027519
 21
7269.716252936932
 31
0.0
  0
ARC
  5
14B92
330
747D
100
AcDbEntity
  8
細線
 48
50.0
100
AcDbCircle
 10
3565.807130086368
 20
7271.516252936812
 30
0.0
 40
1.8
100
AcDbArc
 50
195.0010443049461
 51
270.0006665777295
  0
LINE
  5
14B93
330
747D
100
AcDbEntity
  8
細線
 48
50.0
100
AcDbLine
 10
3563.820702594109
 20
7271.974967904376
 30
0.0
 11
3564.068472090622
 21
7271.050346965795
 31
0.0
  0
ARC
  5
14B94
330
747D
100
AcDbEntity
  8
細線
 48
50.0
100
AcDbCircle
 10
3562.854781485361
 20
7271.716131253814
 30
0.0
 40
1.0
100
AcDbArc
 50
15.00104430494617
 51
90.00093320877969
  0
LINE
  5
14B95
330
747D
100
AcDbEntity
  8
細線
 48
50.0
100
AcDbLine
 10
3572.389412306316
 20
7272.716325944085
 30
0.0
 11
3573.33117245722
 21
7272.716332517934
 31
0.0
  0
ARC
  5
14B96
330
747D
100
AcDbEntity
  8
細線
 48
50.0
100
AcDbCircle
 10
3572.389419286702
 20
7271.716325944109
 30
0.0
 40
1.0
100
AcDbArc
 50
90.0003999466794
 51
165.0005554812987
  0
LINE
  5
14B97
330
747D
100
AcDbEntity
  8
細線
 48
50.0
100
AcDbLine
 10
4124.122104103667
 20
7272.716316638426
 30
0.0
 11
4226.622103606358
 21
7272.716316638426
 31
0.0
  0
LINE
  5
14B98
330
747D
100
AcDbEntity
  8
細線
 48
50.0
100
AcDbLine
 10
3634.122139422558
 20
7272.716324825791
 30
0.0
 11
3573.022078195639
 21
7272.716332517934
 31
0.0
  0
LINE
  5
14B99
330
747D
100
AcDbEntity
  8
細線
 48
50.0
100
AcDbLine
 10
4054.122139422559
 20
7272.716361666875
 30
0.0
 11
3984.122132468172
 21
7272.716316644206
 31
0.0
  0
LINE
  5
14B9A
330
747D
100
AcDbEntity
  8
細線
 48
50.0
100
AcDbLine
 10
3774.122104103668
 20
7272.716316638422
 30
0.0
 11
3704.122086815792
 21
7272.716316638429
 31
0.0
  0
ARC
  5
14B9B
330
747D
100
AcDbEntity
  8
細線
 48
50.0
100
AcDbCircle
 10
4210.822108757276
 20
7305.916304775836
 30
0.0
 40
0.8
100
AcDbArc
 50
359.9997333689499
 51
89.99986668437072
  0
ARC
  5
14B9C
330
747D
100
AcDbEntity
  8
細線
 48
50.0
100
AcDbCircle
 10
4218.422115582369
 20
7305.916315944452
 30
0.0
 40
0.8
100
AcDbArc
 50
90.00014387753465
 51
179.9997333689498
  0
LINE
  5
14B9D
330
747D
100
AcDbEntity
  8
細線
 48
50.0
100
AcDbLine
 10
4210.82211061871
 20
7306.716304775836
 30
0.0
 11
4205.622108757263
 21
7306.716304775836
 31
0.0
  0
ARC
  5
14B9E
330
747D
100
AcDbEntity
  8
細線
 48
50.0
100
AcDbCircle
 10
4212.322108757264
 20
7304.416304775836
 30
0.0
 40
0.7
100
AcDbArc
 50
180.0
 51
270.0
  0
ARC
  5
14B9F
330
747D
100
AcDbEntity
  8
細線
 48
50.0
100
AcDbCircle
 10
4216.922108757267
 20
7304.416304775836
 30
0.0
 40
0.7
100
AcDbArc
 50
270.0
 51
0.0
  0
LINE
  5
14BA0
330
747D
100
AcDbEntity
  8
細線
 48
50.0
100
AcDbLine
 10
4217.622108757264
 20
7304.416304775836
 30
0.0
 11
4217.622115582382
 21
7305.916319667324
 31
0.0
  0
LINE
  5
14BA1
330
747D
100
AcDbEntity
  8
細線
 48
50.0
100
AcDbLine
 10
4212.322108757264
 20
7303.716304775836
 30
0.0
 11
4216.922108757267
 21
7303.716304775836
 31
0.0
  0
LINE
  5
14BA2
330
747D
100
AcDbEntity
  8
細線
 48
50.0
100
AcDbLine
 10
4211.622108757263
 20
7305.916304775836
 30
0.0
 11
4211.622108757263
 21
7304.416304775836
 31
0.0
  0
LINE
  5
14BA3
330
747D
100
AcDbEntity
  8
細線
 48
50.0
100
AcDbLine
 10
4837.22210875727
 20
7336.716304775835
 30
0.0
 11
4200.622108757264
 21
7336.716304775831
 31
0.0
  0
LINE
  5
14BA4
330
747D
100
AcDbEntity
  8
細線
 48
50.0
100
AcDbLine
 10
4863.122108757264
 20
7331.716304775838
 30
0.0
 11
4847.22210875727
 21
7331.716304775835
 31
0.0
  0
LINE
  5
14BA5
330
747D
100
AcDbEntity
  8
細線
 48
50.0
100
AcDbLine
 10
4847.222108757266
 20
7331.716304775835
 30
0.0
 11
4837.22210875727
 21
7336.716304775835
 31
0.0
  0
LINE
  5
14BA6
330
747D
100
AcDbEntity
  8
細線
100
AcDbLine
 10
4448.122108757265
 20
7306.716304775836
 30
0.0
 11
4448.122108757265
 21
7336.016304775835
 31
0.0
  0
LINE
  5
14BA7
330
747D
100
AcDbEntity
  8
細線
100
AcDbLine
 10
4448.122108757265
 20
7336.016304775835
 30
0.0
 11
4468.122108757265
 21
7336.016304775835
 31
0.0
  0
LINE
  5
14BA8
330
747D
100
AcDbEntity
  8
細線
100
AcDbLine
 10
4468.122108757265
 20
7306.716304775836
 30
0.0
 11
4468.122108757265
 21
7336.016304775835
 31
0.0
  0
LINE
  5
14BA9
330
747D
100
AcDbEntity
  8
細線
100
AcDbLine
 10
4629.372108757265
 20
7306.716304775836
 30
0.0
 11
4559.372108757265
 21
7306.716304775836
 31
0.0
  0
LINE
  5
14BAA
330
747D
100
AcDbEntity
  8
細線
 48
50.0
100
AcDbLine
 10
4349.372108757264
 20
7306.716304775836
 30
0.0
 11
4218.417888330107
 21
7306.716304775836
 31
0.0
  0
LINE
  5
14BAB
330
747D
100
AcDbEntity
  8
細線
100
AcDbLine
 10
4489.372108757264
 20
7306.716304775836
 30
0.0
 11
4419.372108757264
 21
7306.716304775836
 31
0.0
  0
LINE
  5
14BAC
330
747D
100
AcDbEntity
  8
細線
 48
50.0
100
AcDbLine
 10
4205.622108757263
 20
7298.716304775836
 30
0.0
 11
4205.622108757263
 21
7306.716304775836
 31
0.0
  0
LINE
  5
14BAD
330
747D
100
AcDbEntity
  8
細線
 48
50.0
100
AcDbLine
 10
4185.622108757264
 20
7298.716304775838
 30
0.0
 11
4205.622108757263
 21
7298.716304775836
 31
0.0
  0
LINE
  5
14BAE
330
747D
100
AcDbEntity
  8
細線
 48
50.0
100
AcDbLine
 10
4200.622108757264
 20
7336.716304775835
 30
0.0
 11
4200.622108757264
 21
7331.716304775835
 31
0.0
  0
LINE
  5
14BAF
330
747D
100
AcDbEntity
  8
細線
 48
50.0
100
AcDbLine
 10
4185.622108757264
 20
7336.716304775831
 30
0.0
 11
4200.622108757264
 21
7336.716304775835
 31
0.0
  0
LINE
  5
14BB0
330
747D
100
AcDbEntity
  8
細線
 48
50.0
100
AcDbLine
 10
4185.622108757264
 20
7298.716304775838
 30
0.0
 11
4185.622108757264
 21
7336.716304775831
 31
0.0
  0
LINE
  5
14BB1
330
747D
100
AcDbEntity
  8
細線
100
AcDbLine
 10
4853.622108757264
 20
7306.716304775836
 30
0.0
 11
4699.372108757265
 21
7306.716304775836
 31
0.0
  0
LINE
  5
14BB2
330
747D
100
AcDbEntity
  8
細線
 48
50.0
100
AcDbLine
 10
4863.122108757264
 20
7331.716304775838
 30
0.0
 11
4863.122108757264
 21
7306.716304775836
 31
0.0
  0
DIMENSION
  5
14E23
330
747D
100
AcDbEntity
  8
寸法
100
AcDbDimension
  2
*D28
 10
1539.303294853214
 20
7235.71630477581
 30
0.0
 11
1539.303294853213
 21
7095.231023401571
 31
0.0
 70
   160
 71
     5
 42
75.00000000002637
  3
INABA_S40
100
AcDbAlignedDimension
 13
1870.622108757263
 23
7310.716304775836
 33
0.0
 14
2738.622108757263
 24
7235.716304775809
 34
0.0
 50
90.0
100
AcDbRotatedDimension
1001
ACAD
1000
DSTYLE
1002
{
1070
    41
1040
0.5
1070
    44
1040
1.0
1070
   147
1040
0.8
1070
   271
1070
     2
1070
   272
1070
     2
1070
   289
1070
     3
1070
   340
1005
F706
1070
   343
1005
F744
1070
   344
1005
F744
1002
}
  0
DIMENSION
  5
14E24
330
747D
100
AcDbEntity
  8
寸法
 48
50.0
100
AcDbDimension
  2
*D29
 10
4892.622108757264
 20
6274.75929726658
 30
0.0
 11
3792.744109406122
 21
6274.75929726658
 31
0.0
 70
   160
 71
     5
 42
2154.000000000001
  3
INABA_S40G
100
AcDbAlignedDimension
 13
2738.622108757263
 23
7233.716304775835
 33
0.0
 14
4892.622108757264
 24
7233.716304775835
 34
0.0
100
AcDbRotatedDimension
1001
ACAD
1000
DSTYLE
1002
{
1070
   341
1005
0
1002
}
  0
TEXT
  5
14ED5
330
747D
100
AcDbEntity
  8
部品1
100
AcDbText
 10
5048.806385472097
 20
5509.404299409052
 30
0.0
 40
135.0
  1
平面図
  7
STYLE2
100
AcDbText
  0
LWPOLYLINE
  5
14ED6
330
747D
100
AcDbEntity
  8
部品1
100
AcDbPolyline
 90
        4
 70
     1
 43
0.0
 10
4958.886775643055
 20
5702.297828627576
 10
4958.886775643055
 20
5462.405507082043
 10
5722.357441871499
 20
5462.405507082043
 10
5722.357441871499
 20
5702.297828627576
  0
DIMENSION
  5
14F20
330
747D
100
AcDbEntity
  8
寸法
 48
50.0
100
AcDbDimension
  2
*D30
 10
8810.622108757263
 20
5985.63434727299
 30
0.0
 11
7075.622108757262
 21
6077.63434727299
 31
0.0
 70
    32
 71
     5
 42
3470.0
  3
INABA_S40
100
AcDbAlignedDimension
 13
5340.622108757263
 23
7365.716304775833
 33
0.0
 14
8810.622108757263
 24
7310.716304775836
 34
0.0
100
AcDbRotatedDimension
1001
ACAD
1000
DSTYLE
1002
{
1070
    41
1040
0.5
1070
    44
1040
1.0
1070
   147
1040
0.8
1070
   271
1070
     2
1070
   272
1070
     2
1070
   289
1070
     3
1070
   340
1005
F706
1070
   343
1005
F744
1070
   344
1005
F744
1002
}
  0
DIMENSION
  5
14F5B
330
747D
100
AcDbEntity
  8
寸法
 48
50.0
100
AcDbDimension
  2
*D31
 10
5340.622108757263
 20
5985.63434727299
 30
0.0
 11
3605.622108757263
 21
6077.63434727299
 31
0.0
 70
    32
 71
     5
 42
3470.0
  3
INABA_S40
100
AcDbAlignedDimension
 13
1870.622108757263
 23
7310.716304775836
 33
0.0
 14
5340.622108757263
 24
7365.716304775837
 34
0.0
100
AcDbRotatedDimension
1001
ACAD
1000
DSTYLE
1002
{
1070
    41
1040
0.5
1070
    44
1040
1.0
1070
   147
1040
0.8
1070
   271
1070
     2
1070
   272
1070
     2
1070
   289
1070
     3
1070
   340
1005
F706
1070
   343
1005
F744
1070
   344
1005
F744
1002
}
  0
LWPOLYLINE
  5
151E6
330
747D
100
AcDbEntity
  8
部品1
 48
50.0
100
AcDbPolyline
 90
        4
 70
     1
 43
0.0
 10
2837.672108757262
 20
3334.362805903258
 10
2840.572108757264
 20
3334.362805903258
 10
2840.572108757264
 20
3343.862805903258
 10
2837.672108757262
 20
3343.862805903258
  0
CIRCLE
  5
151E7
330
747D
100
AcDbEntity
  8
部品1
 48
50.0
100
AcDbCircle
 10
2839.122108757263
 20
3339.112805903258
 30
0.0
 40
9.0
  0
ARC
  5
151E8
330
747D
100
AcDbEntity
  8
細線
 48
50.0
100
AcDbCircle
 10
2839.122108757263
 20
3339.112805903258
 30
0.0
 40
4.0
100
AcDbArc
 50
111.2538091853375
 51
248.7461908146625
  0
ARC
  5
151E9
330
747D
100
AcDbEntity
  8
細線
 48
50.0
100
AcDbCircle
 10
2839.122108757263
 20
3339.112805903258
 30
0.0
 40
17.5
100
AcDbArc
 50
306.4837370612677
 51
233.5162629387323
  0
LINE
  5
151EA
330
747D
100
AcDbEntity
  8
細線
 48
50.0
100
AcDbLine
 10
2849.12210875726
 20
3315.253845322376
 30
0.0
 11
2849.122108757263
 21
3324.238331122617
 31
0.0
  0
LINE
  5
151EB
330
747D
100
AcDbEntity
  8
細線
 48
50.0
100
AcDbLine
 10
2829.122108757263
 20
3315.253845322377
 30
0.0
 11
2829.122108757263
 21
3324.238331122614
 31
0.0
  0
ARC
  5
151EC
330
747D
100
AcDbEntity
  8
細線
 48
50.0
100
AcDbCircle
 10
2839.122108757263
 20
3339.112805903258
 30
0.0
 40
26.5
100
AcDbArc
 50
249.3326835063939
 51
290.6673164933835
  0
ARC
  5
151ED
330
747D
100
AcDbEntity
  8
細線
 48
50.0
100
AcDbCircle
 10
2848.122108757256
 20
3315.253845322376
 30
0.0
 40
1.0
100
AcDbArc
 50
290.6673164936062
 51
359.9999999998958
  0
ARC
  5
151EE
330
747D
100
AcDbEntity
  8
細線
 48
50.0
100
AcDbCircle
 10
2830.122108757263
 20
3315.253845322377
 30
0.0
 40
1.0
100
AcDbArc
 50
180.0
 51
249.3326835066164
  0
ARC
  5
151EF
330
747D
100
AcDbEntity
  8
細線
 48
50.0
100
AcDbCircle
 10
2828.122108757263
 20
3324.238331122614
 30
0.0
 40
1.0
100
AcDbArc
 50
0.0
 51
53.51626293873231
  0
ARC
  5
151F0
330
747D
100
AcDbEntity
  8
細線
 48
50.0
100
AcDbCircle
 10
2850.122108757267
 20
3324.238331122617
 30
0.0
 40
1.0
100
AcDbArc
 50
126.4837370614917
 51
180.0
  0
ARC
  5
151F1
330
747D
100
AcDbEntity
  8
細線
 48
50.0
100
AcDbCircle
 10
2839.122108757263
 20
3339.112805903258
 30
0.0
 40
21.5
100
AcDbArc
 50
255.8014401250294
 51
284.1985598749706
  0
ARC
  5
151F2
330
747D
100
AcDbEntity
  8
細線
 48
50.0
100
AcDbCircle
 10
2839.122108757263
 20
3339.112805903258
 30
0.0
 40
16.5
100
AcDbArc
 50
251.9694646069326
 51
288.0305353930674
  0
LINE
  5
151F3
330
747D
100
AcDbEntity
  8
細線
 48
50.0
100
AcDbLine
 10
2844.622108757263
 20
3318.560433777451
 30
0.0
 11
2844.622108757263
 21
3323.137825464788
 31
0.0
  0
LINE
  5
151F4
330
747D
100
AcDbEntity
  8
細線
 48
50.0
100
AcDbLine
 10
2833.622108757263
 20
3318.560433777451
 30
0.0
 11
2833.622108757263
 21
3323.137825464787
 31
0.0
  0
ARC
  5
151F5
330
747D
100
AcDbEntity
  8
細線
 48
50.0
100
AcDbCircle
 10
2833.922108757266
 20
3323.137825464787
 30
0.0
 40
0.3
100
AcDbArc
 50
71.96946460693259
 51
180.0
  0
ARC
  5
151F6
330
747D
100
AcDbEntity
  8
細線
 48
50.0
100
AcDbCircle
 10
2844.322108757264
 20
3323.137825464788
 30
0.0
 40
0.3
100
AcDbArc
 50
0.0
 51
108.0305353930674
  0
ARC
  5
151F7
330
747D
100
AcDbEntity
  8
細線
 48
50.0
100
AcDbCircle
 10
2844.32210875726
 20
3318.560433777451
 30
0.0
 40
0.3
100
AcDbArc
 50
284.1985598747622
 51
0.0000000001042204
  0
ARC
  5
151F8
330
747D
100
AcDbEntity
  8
細線
 48
50.0
100
AcDbCircle
 10
2833.922108757266
 20
3318.560433777451
 30
0.0
 40
0.3
100
AcDbArc
 50
180.0
 51
255.8014401248081
  0
CIRCLE
  5
151F9
330
747D
100
AcDbEntity
  8
細線
 48
50.0
100
AcDbCircle
 10
2839.122108757263
 20
3339.112805903258
 30
0.0
 40
12.0
  0
ARC
  5
151FA
330
747D
100
AcDbEntity
  8
部品1
 48
50.0
100
AcDbCircle
 10
2839.122108757263
 20
3389.112805903258
 30
0.0
 40
8.5
100
AcDbArc
 50
114.315739171091
 51
245.684260828909
  0
CIRCLE
  5
151FB
330
747D
100
AcDbEntity
  8
細線
 48
50.0
100
AcDbCircle
 10
2839.122108757263
 20
3389.112805903258
 30
0.0
 40
4.5
  0
LWPOLYLINE
  5
151FC
330
747D
100
AcDbEntity
  8
部品1
 48
50.0
100
AcDbPolyline
 90
        2
 70
     0
 43
0.0
 10
2835.622108757263
 20
3407.787655300241
 10
2835.622108757263
 20
3396.858772595673
  0
CIRCLE
  5
151FD
330
747D
100
AcDbEntity
  8
部品1
 48
50.0
100
AcDbCircle
 10
2839.122108757263
 20
3389.112805903258
 30
0.0
 40
19.0
  0
LWPOLYLINE
  5
151FE
330
747D
100
AcDbEntity
  8
部品1
 48
50.0
100
AcDbPolyline
 90
        2
 70
     0
 43
0.0
 10
2835.622108757263
 20
3381.366839210843
 10
2835.622108757263
 20
3370.437956506275
  0
LWPOLYLINE
  5
151FF
330
747D
100
AcDbEntity
  8
部品1
 48
50.0
100
AcDbPolyline
 90
        2
 70
     0
 43
0.0
 10
2842.622108757263
 20
3396.858772595673
 10
2842.622108757263
 20
3407.787655300241
  0
ARC
  5
15200
330
747D
100
AcDbEntity
  8
部品1
 48
50.0
100
AcDbCircle
 10
2839.122108757263
 20
3389.112805903258
 30
0.0
 40
8.5
100
AcDbArc
 50
294.315739171091
 51
65.68426082890896
  0
LWPOLYLINE
  5
15201
330
747D
100
AcDbEntity
  8
部品1
 48
50.0
100
AcDbPolyline
 90
        2
 70
     0
 43
0.0
 10
2842.622108757263
 20
3370.437956506275
 10
2842.622108757263
 20
3381.366839210843
  0
ARC
  5
15202
330
747D
100
AcDbEntity
  8
細線
 48
50.0
100
AcDbCircle
 10
2839.122108757263
 20
3389.112805903258
 30
0.0
 40
16.5
100
AcDbArc
 50
332.0012352654316
 51
27.99876473456844
  0
ARC
  5
15203
330
747D
100
AcDbEntity
  8
細線
 48
50.0
100
AcDbCircle
 10
2839.122108757263
 20
3389.112805903258
 30
0.0
 40
14.0
100
AcDbArc
 50
326.4074436112843
 51
33.59255638871576
  0
LINE
  5
15204
330
747D
100
AcDbEntity
  8
細線
 48
50.0
100
AcDbLine
 10
2824.553306472932
 20
3396.858772595673
 30
0.0
 11
2827.460204967574
 21
3396.858772595673
 31
0.0
  0
LINE
  5
15205
330
747D
100
AcDbEntity
  8
細線
 48
50.0
100
AcDbLine
 10
2824.553306472932
 20
3381.366839210843
 30
0.0
 11
2827.460204967574
 21
3381.366839210843
 31
0.0
  0
LINE
  5
15206
330
747D
100
AcDbEntity
  8
細線
 48
50.0
100
AcDbLine
 10
2850.784012546952
 20
3396.858772595673
 30
0.0
 11
2853.690911041598
 21
3396.858772595673
 31
0.0
  0
LINE
  5
15207
330
747D
100
AcDbEntity
  8
細線
 48
50.0
100
AcDbLine
 10
2850.784012546952
 20
3381.366839210843
 30
0.0
 11
2853.690911041598
 21
3381.366839210843
 31
0.0
  0
ARC
  5
15208
330
747D
100
AcDbEntity
  8
細線
 48
50.0
100
AcDbCircle
 10
2839.122108757263
 20
3389.112805903258
 30
0.0
 40
14.0
100
AcDbArc
 50
146.4074436112842
 51
213.5925563887158
  0
ARC
  5
15209
330
747D
100
AcDbEntity
  8
細線
 48
50.0
100
AcDbCircle
 10
2839.122108757263
 20
3389.112805903258
 30
0.0
 40
16.5
100
AcDbArc
 50
152.0012352654315
 51
207.9987647345685
  0
ARC
  5
1520A
330
747D
100
AcDbEntity
  8
部品1
 48
50.0
100
AcDbCircle
 10
2812.622108757263
 20
3414.612805903259
 30
0.0
 40
5.0
100
AcDbArc
 50
90.0
 51
180.0
  0
ARC
  5
1520B
330
747D
100
AcDbEntity
  8
部品1
 48
50.0
100
AcDbCircle
 10
2812.622108757263
 20
3303.612805903258
 30
0.0
 40
5.0
100
AcDbArc
 50
180.0
 51
270.0
  0
ARC
  5
1520C
330
747D
100
AcDbEntity
  8
部品1
 48
50.0
100
AcDbCircle
 10
2865.622108757263
 20
3303.612805903258
 30
0.0
 40
5.0
100
AcDbArc
 50
270.0
 51
0.0
  0
ARC
  5
1520D
330
747D
100
AcDbEntity
  8
部品1
 48
50.0
100
AcDbCircle
 10
2865.622108757263
 20
3414.612805903259
 30
0.0
 40
5.0
100
AcDbArc
 50
0.0
 51
90.0
  0
LINE
  5
1520E
330
747D
100
AcDbEntity
  8
部品1
 48
50.0
100
AcDbLine
 10
2807.622108757263
 20
3303.612805903258
 30
0.0
 11
2807.622108757263
 21
3414.612805903259
 31
0.0
  0
LINE
  5
1520F
330
747D
100
AcDbEntity
  8
部品1
 48
50.0
100
AcDbLine
 10
2865.622108757263
 20
3298.612805903258
 30
0.0
 11
2812.622108757263
 21
3298.612805903258
 31
0.0
  0
LINE
  5
15210
330
747D
100
AcDbEntity
  8
部品1
 48
50.0
100
AcDbLine
 10
2870.622108757263
 20
3414.612805903259
 30
0.0
 11
2870.622108757263
 21
3303.612805903258
 31
0.0
  0
ENDSEC
  0
SECTION
  2
OBJECTS
  0
DICTIONARY
  5
7471
330
0
100
AcDbDictionary
281
     1
  3
ACAD_COLOR
350
13695
  3
ACAD_GROUP
350
7472
  3
ACAD_LAYOUT
350
13696
  3
ACAD_MATERIAL
350
13694
  3
ACAD_MLINESTYLE
350
7473
  3
ACAD_PLOTSETTINGS
350
13697
  3
ACAD_PLOTSTYLENAME
350
13692
  3
ACDBHEADERROUNDTRIPXREC
350
15220
  3
AcDbVariableDictionary
350
1521C
  3
CONTENTDICTIONARY
350
E71C
  3
DRAWINGVARIABLESDICT
350
F3B9
  0
DICTIONARY
  5
13811
330
7467
100
AcDbDictionary
280
     1
281
     1
  3
ACAD_LAYERSTATES
360
13812
  0
DICTIONARY
  5
13695
102
{ACAD_REACTORS
330
7471
102
}
330
7471
100
AcDbDictionary
281
     1
  0
DICTIONARY
  5
7472
102
{ACAD_REACTORS
330
7471
102
}
330
7471
100
AcDbDictionary
281
     1
  0
DICTIONARY
  5
13696
102
{ACAD_REACTORS
330
7471
102
}
330
7471
100
AcDbDictionary
281
     1
  3
Model
350
13698
  3
レイアウト1
350
13699
  0
DICTIONARY
  5
13694
102
{ACAD_REACTORS
330
7471
102
}
330
7471
100
AcDbDictionary
281
     1
  0
DICTIONARY
  5
7473
102
{ACAD_REACTORS
330
7471
102
}
330
7471
100
AcDbDictionary
281
     1
  3
STANDARD
350
7480
  0
DICTIONARY
  5
13697
102
{ACAD_REACTORS
330
7471
102
}
330
7471
100
AcDbDictionary
281
     1
  0
ACDBDICTIONARYWDFLT
  5
13692
102
{ACAD_REACTORS
330
7471
102
}
330
7471
100
AcDbDictionary
281
     1
  3
Normal
350
13693
100
AcDbDictionaryWithDefault
340
13693
  0
DICTIONARY
  5
15220
102
{ACAD_REACTORS
330
7471
102
}
330
7471
100
AcDbDictionary
281
     1
  3
COLORDICT
350
15222
  3
MATERIALDICT
350
15221
  0
DICTIONARY
  5
1521C
102
{ACAD_REACTORS
330
7471
102
}
330
7471
100
AcDbDictionary
281
     1
  3
DIMASSOC
350
1521D
  3
PROJECTNAME
350
1521E
  0
DICTIONARY
  5
E71C
102
{ACAD_REACTORS
330
7471
102
}
330
7471
100
AcDbDictionary
281
     1
  0
DICTIONARY
  5
F3B9
102
{ACAD_REACTORS
330
7471
102
}
330
7471
100
AcDbDictionary
281
     1
1001
DRAWINGVARIABLESXDATA
1000
POLARMODE
1000
1
  0
DICTIONARY
  5
13812
102
{ACAD_REACTORS
330
13811
102
}
330
13811
100
AcDbDictionary
281
     1
  0
LAYOUT
  5
13698
102
{ACAD_XDICTIONARY
360
15223
102
}
102
{ACAD_REACTORS
330
13696
102
}
330
13696
100
AcDbPlotSettings
  1

  2
EPSON LP-7000C
  4

  6

 40
0.0
 41
0.0
 42
0.0
 43
0.0
 44
0.0
 45
0.0
 46
0.0
 47
0.0
 48
0.0
 49
0.0
140
0.0
141
0.0
142
1.0
143
1.0
 70
  1712
 72
     0
 73
     0
 74
     0
  7

 75
     0
147
1.0
148
0.0
149
0.0
100
AcDbLayout
  1
Model
 70
     1
 71
     0
 10
0.0
 20
0.0
 11
12.0
 21
9.0
 12
0.0
 22
0.0
 32
0.0
 14
0.0
 24
0.0
 34
0.0
 15
0.0
 25
0.0
 35
0.0
146
0.0
 13
0.0
 23
0.0
 33
0.0
 16
1.0
 26
0.0
 36
0.0
 17
0.0
 27
1.0
 37
0.0
 76
     0
330
747D
  0
LAYOUT
  5
13699
102
{ACAD_XDICTIONARY
360
15225
102
}
102
{ACAD_REACTORS
330
13696
102
}
330
13696
100
AcDbPlotSettings
  1

  2
EPSON LP-7000C
  4

  6

 40
0.0
 41
0.0
 42
0.0
 43
0.0
 44
0.0
 45
0.0
 46
0.0
 47
0.0
 48
0.0
 49
0.0
140
0.0
141
0.0
142
1.0
143
1.0
 70
   688
 72
     0
 73
     0
 74
     5
  7

 75
    16
147
1.0
148
0.0
149
0.0
100
AcDbLayout
  1
レイアウト1
 70
     0
 71
     1
 10
0.0
 20
0.0
 11
420.0
 21
297.0
 12
0.0
 22
0.0
 32
0.0
 14
1.000000000000000E+20
 24
1.000000000000000E+20
 34
1.000000000000000E+20
 15
-1.000000000000000E+20
 25
-1.000000000000000E+20
 35
-1.000000000000000E+20
146
0.0
 13
0.0
 23
0.0
 33
0.0
 16
1.0
 26
0.0
 36
0.0
 17
0.0
 27
1.0
 37
0.0
 76
     0
330
747A
  0
MLINESTYLE
  5
7480
102
{ACAD_REACTORS
330
7473
102
}
330
7473
100
AcDbMlineStyle
  2
STANDARD
 70
     0
  3

 62
     0
 51
90.0
 52
90.0
 71
     2
 49
0.5
 62
   256
  6
BYLAYER
 49
-0.5
 62
   256
  6
BYLAYER
  0
ACDBPLACEHOLDER
  5
13693
102
{ACAD_REACTORS
330
13692
102
}
330
13692
  0
XRECORD
  5
15222
102
{ACAD_REACTORS
330
15220
102
}
330
15220
100
AcDbXrecord
280
     1
340
13695
  0
XRECORD
  5
15221
102
{ACAD_REACTORS
330
15220
102
}
330
15220
100
AcDbXrecord
280
     1
340
13694
  0
DICTIONARYVAR
  5
1521D
102
{ACAD_REACTORS
330
1521C
102
}
330
1521C
100
DictionaryVariables
280
     0
  1
1
  0
DICTIONARYVAR
  5
1521E
102
{ACAD_REACTORS
330
1521C
102
}
330
1521C
100
DictionaryVariables
280
     0
  1

  0
DICTIONARY
  5
15223
330
13698
100
AcDbDictionary
280
     1
281
     1
  3
ACAD_XREC_ROUNDTRIP
360
15224
  0
DICTIONARY
  5
15225
330
13699
100
AcDbDictionary
280
     1
281
     1
  3
ACAD_XREC_ROUNDTRIP
360
15226
  0
XRECORD
  5
15224
102
{ACAD_REACTORS
330
15223
102
}
330
15223
100
AcDbXrecord
280
     1
102
SHADEPLOT
 70
     0
102
SHADEPLOTRESLEVEL
 70
     2
102
SHADEPLOTCUSTOMDPI
 70
   300
  0
XRECORD
  5
15226
102
{ACAD_REACTORS
330
15225
102
}
330
15225
100
AcDbXrecord
280
     1
102
SHADEPLOT
 70
     0
102
SHADEPLOTRESLEVEL
 70
     2
102
SHADEPLOTCUSTOMDPI
 70
   300
  0
ENDSEC
  0
EOF
