  0
SECTION
  2
HEADER
  9
$ACADVER
  1
AC1015
  9
$ACADMAINTVER
 70
    20
  9
$DWGCODEPAGE
  3
ANSI_932
  9
$INSBASE
 10
0.0
 20
0.0
 30
0.0
  9
$EXTMIN
 10
139.9999999999995
 20
-0.0000000000000909
 30
0.0
  9
$EXTMAX
 10
16307.2
 20
11409.6
 30
0.0
  9
$LIMMIN
 10
0.0
 20
0.0
  9
$LIMMAX
 10
16800.0
 20
11880.0
  9
$ORTHOMODE
 70
     0
  9
$REGENMODE
 70
     1
  9
$FILLMODE
 70
     1
  9
$QTEXTMODE
 70
     0
  9
$MIRRTEXT
 70
     1
  9
$LTSCALE
 40
20.0
  9
$ATTMODE
 70
     1
  9
$TEXTSIZE
 40
100.0
  9
$TRACEWID
 40
1.0
  9
$TEXTSTYLE
  7
STYLE3
  9
$CLAYER
  8
寸法
  9
$CELTYPE
  6
BYLAYER
  9
$CECOLOR
 62
   256
  9
$CELTSCALE
 40
50.0
  9
$DISPSILH
 70
     0
  9
$DIMSCALE
 40
40.0
  9
$DIMASZ
 40
0.5
  9
$DIMEXO
 40
0.5
  9
$DIMDLI
 40
7.0
  9
$DIMRND
 40
0.0
  9
$DIMDLE
 40
0.0
  9
$DIMEXE
 40
1.0
  9
$DIMTP
 40
0.0
  9
$DIMTM
 40
0.0
  9
$DIMTXT
 40
3.0
  9
$DIMCEN
 40
0.0
  9
$DIMTSZ
 40
0.0
  9
$DIMTOL
 70
     0
  9
$DIMLIM
 70
     0
  9
$DIMTIH
 70
     0
  9
$DIMTOH
 70
     0
  9
$DIMSE1
 70
     0
  9
$DIMSE2
 70
     0
  9
$DIMTAD
 70
     3
  9
$DIMZIN
 70
     8
  9
$DIMBLK
  1

  9
$DIMASO
 70
     1
  9
$DIMSHO
 70
     1
  9
$DIMPOST
  1

  9
$DIMAPOST
  1

  9
$DIMALT
 70
     0
  9
$DIMALTD
 70
     2
  9
$DIMALTF
 40
0.0394
  9
$DIMLFAC
 40
1.0
  9
$DIMTOFL
 70
     1
  9
$DIMTVP
 40
0.0
  9
$DIMTIX
 70
     1
  9
$DIMSOXD
 70
     1
  9
$DIMSAH
 70
     1
  9
$DIMBLK1
  1
DOT
  9
$DIMBLK2
  1
DOT
  9
$DIMSTYLE
  2
INABA_S40
  9
$DIMCLRD
 70
     0
  9
$DIMCLRE
 70
     0
  9
$DIMCLRT
 70
     7
  9
$DIMTFAC
 40
1.0
  9
$DIMGAP
 40
0.8
  9
$DIMJUST
 70
     0
  9
$DIMSD1
 70
     0
  9
$DIMSD2
 70
     0
  9
$DIMTOLJ
 70
     1
  9
$DIMTZIN
 70
     0
  9
$DIMALTZ
 70
     0
  9
$DIMALTTZ
 70
     0
  9
$DIMUPT
 70
     0
  9
$DIMDEC
 70
     2
  9
$DIMTDEC
 70
     2
  9
$DIMALTU
 70
     2
  9
$DIMALTTD
 70
     2
  9
$DIMTXSTY
  7
STYLE1
  9
$DIMAUNIT
 70
     0
  9
$DIMADEC
 70
     0
  9
$DIMALTRND
 40
0.0
  9
$DIMAZIN
 70
     0
  9
$DIMDSEP
 70
    46
  9
$DIMATFIT
 70
     3
  9
$DIMFRAC
 70
     0
  9
$DIMLDRBLK
  1

  9
$DIMLUNIT
 70
     2
  9
$DIMLWD
 70
    -2
  9
$DIMLWE
 70
    -2
  9
$DIMTMOVE
 70
     0
  9
$LUNITS
 70
     2
  9
$LUPREC
 70
     1
  9
$SKETCHINC
 40
1.0
  9
$FILLETRAD
 40
5.0
  9
$AUNITS
 70
     0
  9
$AUPREC
 70
     0
  9
$MENU
  1
acad
  9
$ELEVATION
 40
0.0
  9
$PELEVATION
 40
0.0
  9
$THICKNESS
 40
0.0
  9
$LIMCHECK
 70
     0
  9
$CHAMFERA
 40
0.0
  9
$CHAMFERB
 40
0.0
  9
$CHAMFERC
 40
0.0
  9
$CHAMFERD
 40
0.0
  9
$SKPOLY
 70
     0
  9
$TDCREATE
 40
2451590.492424190
  9
$TDUCREATE
 40
2451590.117424190
  9
$TDUPDATE
 40
2455575.701728877
  9
$TDUUPDATE
 40
2455575.326728877
  9
$TDINDWG
 40
0.0569975347
  9
$TDUSRTIMER
 40
0.0569975347
  9
$USRTIMER
 70
     1
  9
$ANGBASE
 50
0.0
  9
$ANGDIR
 70
     0
  9
$PDMODE
 70
     3
  9
$PDSIZE
 40
2.0
  9
$PLINEWID
 40
0.0
  9
$SPLFRAME
 70
     0
  9
$SPLINETYPE
 70
     6
  9
$SPLINESEGS
 70
     8
  9
$HANDSEED
  5
14403
  9
$SURFTAB1
 70
     6
  9
$SURFTAB2
 70
     6
  9
$SURFTYPE
 70
     6
  9
$SURFU
 70
     6
  9
$SURFV
 70
     6
  9
$UCSBASE
  2

  9
$UCSNAME
  2

  9
$UCSORG
 10
0.0
 20
0.0
 30
0.0
  9
$UCSXDIR
 10
1.0
 20
0.0
 30
0.0
  9
$UCSYDIR
 10
0.0
 20
1.0
 30
0.0
  9
$UCSORTHOREF
  2

  9
$UCSORTHOVIEW
 70
     0
  9
$UCSORGTOP
 10
0.0
 20
0.0
 30
0.0
  9
$UCSORGBOTTOM
 10
0.0
 20
0.0
 30
0.0
  9
$UCSORGLEFT
 10
0.0
 20
0.0
 30
0.0
  9
$UCSORGRIGHT
 10
0.0
 20
0.0
 30
0.0
  9
$UCSORGFRONT
 10
0.0
 20
0.0
 30
0.0
  9
$UCSORGBACK
 10
0.0
 20
0.0
 30
0.0
  9
$PUCSBASE
  2

  9
$PUCSNAME
  2

  9
$PUCSORG
 10
0.0
 20
0.0
 30
0.0
  9
$PUCSXDIR
 10
1.0
 20
0.0
 30
0.0
  9
$PUCSYDIR
 10
0.0
 20
1.0
 30
0.0
  9
$PUCSORTHOREF
  2

  9
$PUCSORTHOVIEW
 70
     0
  9
$PUCSORGTOP
 10
0.0
 20
0.0
 30
0.0
  9
$PUCSORGBOTTOM
 10
0.0
 20
0.0
 30
0.0
  9
$PUCSORGLEFT
 10
0.0
 20
0.0
 30
0.0
  9
$PUCSORGRIGHT
 10
0.0
 20
0.0
 30
0.0
  9
$PUCSORGFRONT
 10
0.0
 20
0.0
 30
0.0
  9
$PUCSORGBACK
 10
0.0
 20
0.0
 30
0.0
  9
$USERI1
 70
     0
  9
$USERI2
 70
     0
  9
$USERI3
 70
     0
  9
$USERI4
 70
     0
  9
$USERI5
 70
     0
  9
$USERR1
 40
0.0
  9
$USERR2
 40
0.0
  9
$USERR3
 40
0.0
  9
$USERR4
 40
0.0
  9
$USERR5
 40
0.0
  9
$WORLDVIEW
 70
     1
  9
$SHADEDGE
 70
     3
  9
$SHADEDIF
 70
    70
  9
$TILEMODE
 70
     1
  9
$MAXACTVP
 70
    16
  9
$PINSBASE
 10
0.0
 20
0.0
 30
0.0
  9
$PLIMCHECK
 70
     0
  9
$PEXTMIN
 10
1.000000000000000E+20
 20
1.000000000000000E+20
 30
1.000000000000000E+20
  9
$PEXTMAX
 10
-1.000000000000000E+20
 20
-1.000000000000000E+20
 30
-1.000000000000000E+20
  9
$PLIMMIN
 10
0.0
 20
0.0
  9
$PLIMMAX
 10
420.0
 20
297.0
  9
$UNITMODE
 70
     0
  9
$VISRETAIN
 70
     0
  9
$PLINEGEN
 70
     0
  9
$PSLTSCALE
 70
     0
  9
$TREEDEPTH
 70
  3020
  9
$CMLSTYLE
  2
STANDARD
  9
$CMLJUST
 70
     0
  9
$CMLSCALE
 40
1.0
  9
$PROXYGRAPHICS
 70
     1
  9
$MEASUREMENT
 70
     1
  9
$CELWEIGHT
370
    -1
  9
$ENDCAPS
280
     0
  9
$JOINSTYLE
280
     0
  9
$LWDISPLAY
290
     0
  9
$INSUNITS
 70
     0
  9
$HYPERLINKBASE
  1

  9
$STYLESHEET
  1

  9
$XEDIT
290
     1
  9
$CEPSNTYPE
380
     0
  9
$PSTYLEMODE
290
     1
  9
$FINGERPRINTGUID
  2
{2630365E-B32F-4F2A-A39A-053C87226EFF}
  9
$VERSIONGUID
  2
{5D463EF2-B10F-479A-B76D-5F20448322FF}
  9
$EXTNAMES
290
     1
  9
$PSVPSCALE
 40
0.0
  9
$OLESTARTUP
290
     0
  0
ENDSEC
  0
SECTION
  2
CLASSES
  0
CLASS
  1
ACDBDICTIONARYWDFLT
  2
AcDbDictionaryWithDefault
  3
ObjectDBX Classes
 90
        0
280
     0
281
     0
  0
CLASS
  1
DICTIONARYVAR
  2
AcDbDictionaryVar
  3
ObjectDBX Classes
 90
        0
280
     0
281
     0
  0
CLASS
  1
ACDBPLACEHOLDER
  2
AcDbPlaceHolder
  3
ObjectDBX Classes
 90
        0
280
     0
281
     0
  0
CLASS
  1
LAYOUT
  2
AcDbLayout
  3
ObjectDBX Classes
 90
        0
280
     0
281
     0
  0
ENDSEC
  0
SECTION
  2
TABLES
  0
TABLE
  2
VPORT
  5
746D
330
0
100
AcDbSymbolTable
 70
     2
  0
VPORT
  5
143FB
330
746D
100
AcDbSymbolTableRecord
100
AcDbViewportTableRecord
  2
*Active
 70
     0
 10
0.0
 20
0.0
 11
1.0
 21
1.0
 12
8223.761025238502
 22
6348.618810942607
 13
0.0
 23
0.0
 14
10.0
 24
10.0
 15
10.0
 25
10.0
 16
0.0
 26
0.0
 36
1.0
 17
0.0
 27
0.0
 37
0.0
 40
12805.80217557516
 41
1.525925925925925
 42
50.0
 43
0.0
 44
0.0
 50
0.0
 51
0.0
 71
     0
 72
     0
 73
     1
 74
     0
 75
     0
 76
     0
 77
     0
 78
     0
281
     0
 65
     1
110
0.0
120
0.0
130
0.0
111
1.0
121
0.0
131
0.0
112
0.0
122
1.0
132
0.0
 79
     0
146
0.0
  0
ENDTAB
  0
TABLE
  2
LTYPE
  5
746A
330
0
100
AcDbSymbolTable
 70
     4
  0
LTYPE
  5
7477
330
746A
100
AcDbSymbolTableRecord
100
AcDbLinetypeTableRecord
  2
BYBLOCK
 70
     0
  3

 72
    65
 73
     0
 40
0.0
  0
LTYPE
  5
7478
330
746A
100
AcDbSymbolTableRecord
100
AcDbLinetypeTableRecord
  2
BYLAYER
 70
     0
  3

 72
    65
 73
     0
 40
0.0
  0
LTYPE
  5
7479
330
746A
100
AcDbSymbolTableRecord
100
AcDbLinetypeTableRecord
  2
CONTINUOUS
 70
     0
  3
Solid line
 72
    65
 73
     0
 40
0.0
  0
LTYPE
  5
7816
330
746A
100
AcDbSymbolTableRecord
100
AcDbLinetypeTableRecord
  2
CENTER
 70
     0
  3
____ _ ____ _ ____ _ ____ _ ____ _ ____ _ ____ 
 72
    65
 73
     4
 40
2.0
 49
1.25
 74
     0
 49
-0.25
 74
     0
 49
0.25
 74
     0
 49
-0.25
 74
     0
  0
LTYPE
  5
781A
330
746A
100
AcDbSymbolTableRecord
100
AcDbLinetypeTableRecord
  2
HIDDEN
 70
     0
  3
__ __ __ __ __ __ __ __ __ __ __ __ __ __ __ __
 72
    65
 73
     2
 40
0.375
 49
0.25
 74
     0
 49
-0.125
 74
     0
  0
LTYPE
  5
781B
330
746A
100
AcDbSymbolTableRecord
100
AcDbLinetypeTableRecord
  2
PHANTOM
 70
     0
  3
______  __  __  ______  __  __  ______  __  __ 
 72
    65
 73
     6
 40
2.5
 49
1.25
 74
     0
 49
-0.25
 74
     0
 49
0.25
 74
     0
 49
-0.25
 74
     0
 49
0.25
 74
     0
 49
-0.25
 74
     0
  0
ENDTAB
  0
TABLE
  2
LAYER
  5
7467
102
{ACAD_XDICTIONARY
360
12E25
102
}
330
0
100
AcDbSymbolTable
 70
    12
  0
LAYER
  5
7474
330
7467
100
AcDbSymbolTableRecord
100
AcDbLayerTableRecord
  2
0
 70
     0
 62
     7
  6
CONTINUOUS
370
    -3
390
12CA7
  0
LAYER
  5
DEB2
330
7467
100
AcDbSymbolTableRecord
100
AcDbLayerTableRecord
  2
センター
 70
     0
 62
     3
  6
CENTER
370
    -3
390
12CA7
  0
LAYER
  5
DEB3
330
7467
100
AcDbSymbolTableRecord
100
AcDbLayerTableRecord
  2
寸法
 70
     0
 62
     4
  6
CONTINUOUS
370
    -3
390
12CA7
  0
LAYER
  5
DEB4
330
7467
100
AcDbSymbolTableRecord
100
AcDbLayerTableRecord
  2
部品1
 70
     0
 62
     7
  6
CONTINUOUS
370
    -3
390
12CA7
  0
LAYER
  5
DEB5
330
7467
100
AcDbSymbolTableRecord
100
AcDbLayerTableRecord
  2
補助
 70
     0
 62
    -1
  6
CONTINUOUS
370
    -3
390
12CA7
  0
LAYER
  5
DEB6
330
7467
100
AcDbSymbolTableRecord
100
AcDbLayerTableRecord
  2
文字
 70
     0
 62
     7
  6
CONTINUOUS
370
    -3
390
12CA7
  0
LAYER
  5
F255
330
7467
100
AcDbSymbolTableRecord
100
AcDbLayerTableRecord
  2
DEFPOINTS
 70
     0
 62
     7
  6
CONTINUOUS
290
     0
370
    -3
390
12CA7
  0
LAYER
  5
10B54
330
7467
100
AcDbSymbolTableRecord
100
AcDbLayerTableRecord
  2
仕様書枠
 70
     0
 62
   230
  6
CONTINUOUS
370
    -3
390
12CA7
  0
LAYER
  5
11729
330
7467
100
AcDbSymbolTableRecord
100
AcDbLayerTableRecord
  2
Ｇ．Ｌ
 70
     0
 62
    30
  6
CONTINUOUS
370
    -3
390
12CA7
  0
LAYER
  5
1173F
330
7467
100
AcDbSymbolTableRecord
100
AcDbLayerTableRecord
  2
細線
 70
     0
 62
     5
  6
CONTINUOUS
370
    -3
390
12CA7
  0
LAYER
  5
11740
330
7467
100
AcDbSymbolTableRecord
100
AcDbLayerTableRecord
  2
点線
 70
     0
 62
     2
  6
HIDDEN
370
    -3
390
12CA7
  0
LAYER
  5
11905
330
7467
100
AcDbSymbolTableRecord
100
AcDbLayerTableRecord
  2
破線
 70
     0
 62
     2
  6
HIDDEN
370
    -3
390
12CA7
  0
ENDTAB
  0
TABLE
  2
STYLE
  5
7468
330
0
100
AcDbSymbolTable
 70
     7
  0
STYLE
  5
7475
330
7468
100
AcDbSymbolTableRecord
100
AcDbTextStyleTableRecord
  2
STANDARD
 70
     0
 40
0.0
 41
1.0
 50
0.0
 71
     0
 42
4.0
  3
txt
  4
C:\AutoCAD LT\bigfont.shx
  0
STYLE
  5
763C
330
7468
100
AcDbSymbolTableRecord
100
AcDbTextStyleTableRecord
  2
MSMINCHO
 70
     0
 40
0.0
 41
1.0
 50
0.0
 71
     0
 42
1.199999999999999
  3
C:\AutoCAD LT\msminch2.TTF
  4

  0
STYLE
  5
F5E9
330
7468
100
AcDbSymbolTableRecord
100
AcDbTextStyleTableRecord
  2

 70
     1
 40
0.0
 41
1.0
 50
0.0
 71
     0
 42
4.0
  3
ltypeshp.shx
  4

  0
STYLE
  5
F706
330
7468
100
AcDbSymbolTableRecord
100
AcDbTextStyleTableRecord
  2
STYLE1
 70
     0
 40
0.0
 41
1.0
 50
0.0
 71
     0
 42
4.0
  3
isocp.shx
  4
bigfont.shx
  0
STYLE
  5
103BF
330
7468
100
AcDbSymbolTableRecord
100
AcDbTextStyleTableRecord
  2
STYLE2
 70
     0
 40
0.0
 41
1.0
 50
0.0
 71
     0
 42
100.0
  3
MS PGothic.ttf
  4

1001
ACAD
1000
MS PGothic
1071
    32818
  0
STYLE
  5
10BAA
330
7468
100
AcDbSymbolTableRecord
100
AcDbTextStyleTableRecord
  2
STYLE3
 70
     0
 40
0.0
 41
1.0
 50
0.0
 71
     0
 42
100.0
  3

  4

1001
ACAD
1000
DFPGothic-EB
1071
    32818
  0
STYLE
  5
11906
330
7468
100
AcDbSymbolTableRecord
100
AcDbTextStyleTableRecord
  2
MSGOTHIC
 70
     0
 40
0.0
 41
1.0
 50
0.0
 71
     0
 42
3.5
  3
msgothi2.ttf
  4

  0
ENDTAB
  0
TABLE
  2
VIEW
  5
746B
330
0
100
AcDbSymbolTable
 70
     0
  0
ENDTAB
  0
TABLE
  2
UCS
  5
746C
330
0
100
AcDbSymbolTable
 70
     0
  0
ENDTAB
  0
TABLE
  2
APPID
  5
746E
330
0
100
AcDbSymbolTable
 70
     6
  0
APPID
  5
7476
330
746E
100
AcDbSymbolTableRecord
100
AcDbRegAppTableRecord
  2
ACAD
 70
     0
  0
APPID
  5
DEA9
330
746E
100
AcDbSymbolTableRecord
100
AcDbRegAppTableRecord
  2
CONTENTBLOCKICON
 70
     0
  0
APPID
  5
DEAA
330
746E
100
AcDbSymbolTableRecord
100
AcDbRegAppTableRecord
  2
CONTENTBLOCKDESCRIPTION
 70
     0
  0
APPID
  5
E71D
330
746E
100
AcDbSymbolTableRecord
100
AcDbRegAppTableRecord
  2
CONTENTTABDATA
 70
     0
  0
APPID
  5
E71E
330
746E
100
AcDbSymbolTableRecord
100
AcDbRegAppTableRecord
  2
CONTENTCURRENTTAB
 70
     0
  0
APPID
  5
F3BA
330
746E
100
AcDbSymbolTableRecord
100
AcDbRegAppTableRecord
  2
DRAWINGVARIABLESXDATA
 70
     0
  0
ENDTAB
  0
TABLE
  2
DIMSTYLE
  5
746F
330
0
100
AcDbSymbolTable
 70
     6
100
AcDbDimStyleTable
 71
     1
340
F236
  0
DIMSTYLE
105
7484
330
746F
100
AcDbSymbolTableRecord
100
AcDbDimStyleTableRecord
  2
JIS
 70
     0
 41
2.5
 42
1.0
 43
7.0
 44
1.0
 73
     0
 74
     0
 77
     1
 78
     8
140
2.5
141
0.0
143
0.0394
147
0.0
172
     1
174
     1
175
     1
340
7475
  0
DIMSTYLE
105
F236
102
{ACAD_REACTORS
330
120D6
330
120D7
330
120D8
330
120D9
330
120DA
330
121FB
330
121FC
330
1221B
330
12294
330
1229F
330
1319E
330
13D1A
330
13FF6
330
121FD
330
12240
102
}
330
746F
100
AcDbSymbolTableRecord
100
AcDbDimStyleTableRecord
  2
INABA_S40
 70
     0
 40
40.0
 41
2.5
 42
0.5
 43
7.0
 44
1.5
 73
     0
 74
     0
 77
     3
 78
     8
140
3.0
141
0.0
143
0.0394
147
1.0
172
     1
173
     1
174
     1
175
     1
178
     7
289
     0
340
7475
  0
DIMSTYLE
105
F71F
102
{ACAD_REACTORS
330
1335E
330
1335F
330
13360
330
13379
330
13147
330
13156
330
13164
330
13165
330
13166
330
1316A
330
1319A
330
1319B
330
1319C
330
13FF5
102
}
330
746F
100
AcDbSymbolTableRecord
100
AcDbDimStyleTableRecord
  2
INABA_S40G
 70
     0
 40
40.0
 41
2.5
 42
0.5
 43
7.0
 44
1.5
 73
     0
 74
     0
 77
     3
 78
     8
140
3.0
141
0.0
143
0.0394
147
1.0
172
     1
173
     1
174
     1
175
     1
178
     7
271
     1
340
F706
341
F770
343
F770
344
F770
  0
DIMSTYLE
105
11907
330
746F
100
AcDbSymbolTableRecord
100
AcDbDimStyleTableRecord
  2
INABA_S50
 70
     0
 40
50.0
 41
0.5
 42
0.5
 43
7.0
 44
1.0
 73
     0
 74
     0
 77
     3
 78
     8
140
2.5
141
0.0
143
0.0394
147
0.8
172
     1
173
     1
174
     1
175
     1
178
     7
271
     2
272
     2
289
     0
340
7475
341
F744
343
F744
344
F744
  0
DIMSTYLE
105
11908
102
{ACAD_REACTORS
330
120D6
330
120D7
330
120D8
330
120D9
330
120DA
330
121FB
330
121FC
330
121FD
330
1221B
330
12240
330
12294
330
1229F
102
}
330
746F
100
AcDbSymbolTableRecord
100
AcDbDimStyleTableRecord
  2
INABA_S50G
 70
     0
 41
125.0
 42
25.0
 43
7.0
 44
75.0
 73
     0
 74
     0
 77
     3
 78
     8
140
150.0
141
0.0
143
0.0394
147
25.0
172
     1
173
     1
174
     1
175
     1
178
     7
271
     1
340
F706
341
F770
343
F770
344
F770
  0
DIMSTYLE
105
14392
330
746F
100
AcDbSymbolTableRecord
100
AcDbDimStyleTableRecord
  2
INABA_S20G
 70
     0
 40
20.0
 41
2.5
 42
0.5
 43
7.0
 44
1.5
 73
     0
 74
     0
 77
     3
 78
     8
140
3.0
141
0.0
143
0.0394
147
1.0
172
     1
173
     1
174
     1
178
     7
271
     1
340
F706
341
F770
343
F770
344
F770
  0
ENDTAB
  0
TABLE
  2
BLOCK_RECORD
  5
7466
330
0
100
AcDbSymbolTable
 70
    32
  0
BLOCK_RECORD
  5
747D
330
7466
100
AcDbSymbolTableRecord
100
AcDbBlockTableRecord
  2
*MODEL_SPACE
340
12CAC
  0
BLOCK_RECORD
  5
747A
330
7466
100
AcDbSymbolTableRecord
100
AcDbBlockTableRecord
  2
*PAPER_SPACE
340
12CAD
  0
BLOCK_RECORD
  5
ECB3
330
7466
100
AcDbSymbolTableRecord
100
AcDbBlockTableRecord
  2
作図枠S50
340
0
310
2800000020000000200000000100040000000000000200000000000000000000000000000000000000000000000080000080000000808000800000008000800080800000C0C0C000808080000000FF0000FF000000FFFF00FF000000FF00FF00FFFF0000FFFFFF00FFFFFFFFFFFFFFFFFFFFFFFFFFFFFFFFFFFFFFFFFFFFFF
310
FFFFFFFFFFFFFFFFFFFFFFFFFFFFFFFFFFFFFFFFFFFFFFFFFFFFFFFFFFFFFFFFFFFFFFFFFFFFFFFFFFFFFFFFFFFFFFFFFFFFFFFFFFFFFFFFFFFFFFFFFFFFFFFFFFFFFFFFFFFFFFFFFF999999999999999999999999999999999FFFFFFFFFFFFFFFFFFFFFFFFFFFFFF99FFFFFFFFFFFFFFFFFFFFFFFFFFFFFF99FFFFFFFFFFF
310
FFFFFFFFFFFFFFFFFFF99FFFFFFFFFFFFFFFFFFFFFFFFFFFFFF99FFFFFFFFFFFFFFFFFFFFFFFFFFFFFF99FFFFFFFFFFFFFFFFFFFFFFFFFFFFFF99FFFFFFFFFFFFFFFFFFFFFFFFFFFFFF99FFFFFFFFFFFFFFFFFFFFFFFFFFFFFF99FFFFFFFFFFFFFFFFFFFFFFFFFFFFFF99FFFFFFFFFFFFFFFFFFFFFFFFFFFFFF99FFFFFFFFF
310
FFFFFFFFFFFFFFFFFFFFF99FFFFFFFFFFFFFFFFFFFFFFFFFFFFFF99FFFFFFFFFFFFFFFFFFFFFFFFFFFFFF99FFFFFFFFFFFFFFFFFFFFFFFFFFFFFF99FFFFFFFFFFFFFFFFFFFFFFFFFFFFFF99FFFFFFFFFFFFFFFFFFFFFFFFFFFFFF99FFFFFFFFFFFFFFFFFFFFFFFFFFFFFF99FFFFFFFFFFFFFFFFFFFFF99999999999FFFFFFF
310
FFFFFFFFFFFFFF9FFFFFFFFF99999999999999999999999FFFFFFFFFFFFFFFFFFFFFFFFFFFFFFFFFFFFFFFFFFFFFFFFFFFFFFFFFFFFFFFFFFFFFFFFFFFFFFFFFFFFFFFFFFFFFFFFFFFFFFFFFFFFFFFFFFFFFFFFFFFFFFFFFFFFFFFFFFFFFFFFFFFFFFFFFFFFFFFFFFFFFFFFF
102
{BLKREFS
331
F235
102
}
  0
BLOCK_RECORD
  5
F744
330
7466
100
AcDbSymbolTableRecord
100
AcDbBlockTableRecord
  2
_DOT
340
0
102
{BLKREFS
331
13B60
331
13B61
331
142A5
331
142A6
331
142AE
331
142AF
331
142B7
331
142B8
331
142C0
331
142C1
331
142D4
331
142D5
331
142E6
331
142E7
331
142EF
331
142F0
331
142FA
331
142FB
331
14303
331
14304
331
1430E
331
1430F
331
14317
331
14318
331
14322
331
14323
331
1432B
331
1432C
331
14334
331
14335
102
}
  0
BLOCK_RECORD
  5
F770
330
7466
100
AcDbSymbolTableRecord
100
AcDbBlockTableRecord
  2
_DOTSMALL
340
0
102
{BLKREFS
331
13A04
331
13A05
331
13A0F
331
13A10
331
13A2B
331
13A2C
331
13A34
331
13A35
331
13B69
331
13B6A
331
13B72
331
13B73
331
13B7B
331
13B7C
331
13B86
331
13B87
331
13B8F
331
13B90
331
13B9A
331
13B9B
331
13BA3
331
13BA4
331
13BAD
331
13BAE
331
13BB7
331
13BB8
331
1433D
331
1433E
102
}
  0
BLOCK_RECORD
  5
12352
330
7466
100
AcDbSymbolTableRecord
100
AcDbBlockTableRecord
  2
*D3
340
0
  0
BLOCK_RECORD
  5
1235F
330
7466
100
AcDbSymbolTableRecord
100
AcDbBlockTableRecord
  2
*D4
340
0
  0
BLOCK_RECORD
  5
1236B
330
7466
100
AcDbSymbolTableRecord
100
AcDbBlockTableRecord
  2
*D5
340
0
  0
BLOCK_RECORD
  5
12378
330
7466
100
AcDbSymbolTableRecord
100
AcDbBlockTableRecord
  2
*D6
340
0
  0
BLOCK_RECORD
  5
12384
330
7466
100
AcDbSymbolTableRecord
100
AcDbBlockTableRecord
  2
*D7
340
0
  0
BLOCK_RECORD
  5
123CF
330
7466
100
AcDbSymbolTableRecord
100
AcDbBlockTableRecord
  2
*D8
340
0
  0
BLOCK_RECORD
  5
123DB
330
7466
100
AcDbSymbolTableRecord
100
AcDbBlockTableRecord
  2
*D9
340
0
  0
BLOCK_RECORD
  5
123E7
330
7466
100
AcDbSymbolTableRecord
100
AcDbBlockTableRecord
  2
*D10
340
0
  0
BLOCK_RECORD
  5
123F3
330
7466
100
AcDbSymbolTableRecord
100
AcDbBlockTableRecord
  2
*D11
340
0
  0
BLOCK_RECORD
  5
12400
330
7466
100
AcDbSymbolTableRecord
100
AcDbBlockTableRecord
  2
*D12
340
0
  0
BLOCK_RECORD
  5
1240C
330
7466
100
AcDbSymbolTableRecord
100
AcDbBlockTableRecord
  2
*D13
340
0
  0
BLOCK_RECORD
  5
12418
330
7466
100
AcDbSymbolTableRecord
100
AcDbBlockTableRecord
  2
*D14
340
0
  0
BLOCK_RECORD
  5
1347D
330
7466
100
AcDbSymbolTableRecord
100
AcDbBlockTableRecord
  2
*D15
340
0
  0
BLOCK_RECORD
  5
1348B
330
7466
100
AcDbSymbolTableRecord
100
AcDbBlockTableRecord
  2
*D16
340
0
  0
BLOCK_RECORD
  5
13497
330
7466
100
AcDbSymbolTableRecord
100
AcDbBlockTableRecord
  2
*D17
340
0
  0
BLOCK_RECORD
  5
134A3
330
7466
100
AcDbSymbolTableRecord
100
AcDbBlockTableRecord
  2
*D18
340
0
  0
BLOCK_RECORD
  5
134B1
330
7466
100
AcDbSymbolTableRecord
100
AcDbBlockTableRecord
  2
*D19
340
0
  0
BLOCK_RECORD
  5
134BE
330
7466
100
AcDbSymbolTableRecord
100
AcDbBlockTableRecord
  2
*D20
340
0
  0
BLOCK_RECORD
  5
134CB
330
7466
100
AcDbSymbolTableRecord
100
AcDbBlockTableRecord
  2
*D21
340
0
  0
BLOCK_RECORD
  5
134D7
330
7466
100
AcDbSymbolTableRecord
100
AcDbBlockTableRecord
  2
*D22
340
0
  0
BLOCK_RECORD
  5
134E5
330
7466
100
AcDbSymbolTableRecord
100
AcDbBlockTableRecord
  2
*D23
340
0
  0
BLOCK_RECORD
  5
134F1
330
7466
100
AcDbSymbolTableRecord
100
AcDbBlockTableRecord
  2
*D24
340
0
  0
BLOCK_RECORD
  5
134FF
330
7466
100
AcDbSymbolTableRecord
100
AcDbBlockTableRecord
  2
*D25
340
0
  0
BLOCK_RECORD
  5
1350B
330
7466
100
AcDbSymbolTableRecord
100
AcDbBlockTableRecord
  2
*D26
340
0
  0
BLOCK_RECORD
  5
13517
330
7466
100
AcDbSymbolTableRecord
100
AcDbBlockTableRecord
  2
*D27
340
0
  0
BLOCK_RECORD
  5
13523
330
7466
100
AcDbSymbolTableRecord
100
AcDbBlockTableRecord
  2
*D28
340
0
  0
BLOCK_RECORD
  5
13D85
330
7466
100
AcDbSymbolTableRecord
100
AcDbBlockTableRecord
  2
*D29
340
0
  0
BLOCK_RECORD
  5
1413B
330
7466
100
AcDbSymbolTableRecord
100
AcDbBlockTableRecord
  2
*D30
340
0
  0
BLOCK_RECORD
  5
14147
330
7466
100
AcDbSymbolTableRecord
100
AcDbBlockTableRecord
  2
*D31
340
0
  0
ENDTAB
  0
ENDSEC
  0
SECTION
  2
BLOCKS
  0
BLOCK
  5
7489
330
747D
100
AcDbEntity
  8
0
100
AcDbBlockBegin
  2
*MODEL_SPACE
 70
     0
 10
0.0
 20
0.0
 30
0.0
  3
*MODEL_SPACE
  1

  0
ENDBLK
  5
748A
330
747D
100
AcDbEntity
  8
0
100
AcDbBlockEnd
  0
BLOCK
  5
7487
330
747A
100
AcDbEntity
 67
     1
  8
0
100
AcDbBlockBegin
  2
*PAPER_SPACE
 70
     0
 10
0.0
 20
0.0
 30
0.0
  3
*PAPER_SPACE
  1

  0
ENDBLK
  5
7488
330
747A
100
AcDbEntity
 67
     1
  8
0
100
AcDbBlockEnd
  0
BLOCK
  5
ECB4
330
ECB3
100
AcDbEntity
  8
0
100
AcDbBlockBegin
  2
作図枠S50
 70
     0
 10
0.0
 20
0.0
 30
0.0
  3
作図枠S50
  1

  4
作図領域枠 縮尺 1/50
  0
LINE
  5
ECB5
330
ECB3
100
AcDbEntity
  8
補助
100
AcDbLine
 10
14364.0
 20
14262.0
 30
0.0
 11
174.9999999999993
 21
14262.0
 31
0.0
  0
LINE
  5
ECB6
330
ECB3
100
AcDbEntity
  8
補助
100
AcDbLine
 10
174.9999999999993
 20
14262.0
 30
0.0
 11
174.9999999999993
 21
1520.0
 31
0.0
  0
LINE
  5
ECB7
330
ECB3
100
AcDbEntity
  8
補助
100
AcDbLine
 10
174.9999999999993
 20
1520.0
 30
0.0
 11
20384.0
 21
1520.0
 31
0.0
  0
LINE
  5
ECB8
330
ECB3
100
AcDbEntity
  8
補助
100
AcDbLine
 10
20384.0
 20
1520.0
 30
0.0
 11
20384.0
 21
13042.0
 31
0.0
  0
LINE
  5
ECB9
330
ECB3
100
AcDbEntity
  8
補助
100
AcDbLine
 10
20384.0
 20
13042.0
 30
0.0
 11
14364.0
 21
13042.0
 31
0.0
  0
LINE
  5
ECBA
330
ECB3
100
AcDbEntity
  8
補助
100
AcDbLine
 10
14364.0
 20
13042.0
 30
0.0
 11
14364.0
 21
14262.0
 31
0.0
  0
ENDBLK
  5
ECBB
330
ECB3
100
AcDbEntity
  8
0
100
AcDbBlockEnd
  0
BLOCK
  5
F745
330
F744
100
AcDbEntity
  8
0
 48
50.0
100
AcDbBlockBegin
  2
_DOT
 70
     0
 10
0.0
 20
0.0
 30
0.0
  3
_DOT
  1

  0
LWPOLYLINE
  5
F746
330
F744
100
AcDbEntity
  8
0
  6
ByBlock
 62
     0
 48
50.0
100
AcDbPolyline
 90
        2
 70
     1
 43
0.5
 10
-0.25
 20
0.0
 42
1.0
 10
0.25
 20
0.0
 42
1.0
  0
LINE
  5
F74A
330
F744
100
AcDbEntity
  8
0
  6
ByBlock
 62
     0
 48
50.0
100
AcDbLine
 10
-0.5
 20
0.0
 30
0.0
 11
-1.0
 21
0.0
 31
0.0
  0
ENDBLK
  5
F74B
330
F744
100
AcDbEntity
  8
0
 48
50.0
100
AcDbBlockEnd
  0
BLOCK
  5
F771
330
F770
100
AcDbEntity
  8
0
 48
50.0
100
AcDbBlockBegin
  2
_DOTSMALL
 70
     0
 10
0.0
 20
0.0
 30
0.0
  3
_DOTSMALL
  1

  0
LWPOLYLINE
  5
F772
330
F770
100
AcDbEntity
  8
0
  6
ByBlock
 62
     0
 48
50.0
100
AcDbPolyline
 90
        2
 70
     1
 43
0.5
 10
-0.0625
 20
0.0
 42
1.0
 10
0.0625
 20
0.0
 42
1.0
  0
ENDBLK
  5
F776
330
F770
100
AcDbEntity
  8
0
 48
50.0
100
AcDbBlockEnd
  0
BLOCK
  5
129B7
330
12352
100
AcDbEntity
  8
0
 48
50.0
100
AcDbBlockBegin
  2
*D3
 70
     1
 10
0.0
 20
0.0
 30
0.0
  3
*D3
  1

  0
LINE
  5
1431D
330
12352
100
AcDbEntity
  8
寸法
 62
     0
 48
50.0
370
    -2
100
AcDbLine
 10
8544.695515348525
 20
10346.22749224365
 30
0.0
 11
8544.695515348525
 21
10640.93990226244
 31
0.0
  0
LINE
  5
1431E
330
12352
100
AcDbEntity
  8
寸法
 62
     0
 48
50.0
370
    -2
100
AcDbLine
 10
8599.695515348525
 20
10346.22749224365
 30
0.0
 11
8599.695515348525
 21
10640.93990226244
 31
0.0
  0
LINE
  5
1431F
330
12352
100
AcDbEntity
  8
寸法
 62
     0
 48
50.0
370
    -2
100
AcDbLine
 10
8524.695515348524
 20
10600.93990226244
 30
0.0
 11
8504.695515348526
 21
10600.93990226244
 31
0.0
  0
LINE
  5
14320
330
12352
100
AcDbEntity
  8
寸法
 62
     0
 48
50.0
370
    -2
100
AcDbLine
 10
8619.695515348524
 20
10600.93990226244
 30
0.0
 11
9094.34746338943
 21
10600.93990226244
 31
0.0
  0
LINE
  5
14321
330
12352
100
AcDbEntity
  8
寸法
 62
     0
 48
50.0
370
    -2
100
AcDbLine
 10
8544.695515348525
 20
10600.93990226244
 30
0.0
 11
8599.695515348525
 21
10600.93990226244
 31
0.0
  0
INSERT
  5
14322
330
12352
100
AcDbEntity
  8
寸法
 62
     0
 48
50.0
370
    -2
100
AcDbBlockReference
  2
_DOT
 10
8544.695515348525
 20
10600.93990226244
 30
0.0
 41
20.0
 42
20.0
 43
20.0
  0
INSERT
  5
14323
330
12352
100
AcDbEntity
  8
寸法
 62
     0
 48
50.0
370
    -2
100
AcDbBlockReference
  2
_DOT
 10
8599.695515348525
 20
10600.93990226244
 30
0.0
 41
20.0
 42
20.0
 43
20.0
 50
180.0
  0
MTEXT
  5
14324
330
12352
100
AcDbEntity
  8
寸法
 62
     7
 48
50.0
100
AcDbMText
 10
8993.86218201519
 20
10692.93990226244
 30
0.0
 40
120.0
 41
0.0
 71
     5
 72
     1
  1
\A1;55
  7
STYLE1
 73
     1
 44
1.0
1001
ACAD
1000
MTEXTBEGIN
1070
    73
1070
     1
1070
    44
1040
1.0
1070
    74
1070
     0
1000
MTEXTEND
  0
POINT
  5
14325
330
12352
100
AcDbEntity
  8
DEFPOINTS
 62
     0
 48
50.0
100
AcDbPoint
 10
8544.695515348525
 20
10326.22749224365
 30
0.0
  0
POINT
  5
14326
330
12352
100
AcDbEntity
  8
DEFPOINTS
 62
     0
 48
50.0
100
AcDbPoint
 10
8599.695515348525
 20
10326.22749224365
 30
0.0
  0
POINT
  5
14327
330
12352
100
AcDbEntity
  8
DEFPOINTS
 62
     0
 48
50.0
100
AcDbPoint
 10
8599.695515348525
 20
10600.93990226244
 30
0.0
  0
ENDBLK
  5
129C3
330
12352
100
AcDbEntity
  8
0
 48
50.0
100
AcDbBlockEnd
  0
BLOCK
  5
12992
330
1235F
100
AcDbEntity
  8
0
 48
50.0
100
AcDbBlockBegin
  2
*D4
 70
     1
 10
0.0
 20
0.0
 30
0.0
  3
*D4
  1

  0
LINE
  5
14314
330
1235F
100
AcDbEntity
  8
寸法
 62
     0
 48
50.0
370
    -2
100
AcDbLine
 10
8619.695515348524
 20
10326.22749224365
 30
0.0
 11
9710.442632392879
 21
10326.22749224365
 31
0.0
  0
LINE
  5
14315
330
1235F
100
AcDbEntity
  8
寸法
 62
     0
 48
50.0
370
    -2
100
AcDbLine
 10
8619.695515348524
 20
7696.227492243647
 30
0.0
 11
9710.442632392879
 21
7696.227492243647
 31
0.0
  0
LINE
  5
14316
330
1235F
100
AcDbEntity
  8
寸法
 62
     0
 48
50.0
370
    -2
100
AcDbLine
 10
9670.442632392878
 20
10306.22749224365
 30
0.0
 11
9670.442632392878
 21
7716.227492243648
 31
0.0
  0
INSERT
  5
14317
330
1235F
100
AcDbEntity
  8
寸法
 62
     0
 48
50.0
370
    -2
100
AcDbBlockReference
  2
_DOT
 10
9670.442632392878
 20
10326.22749224365
 30
0.0
 41
20.0
 42
20.0
 43
20.0
 50
90.0
  0
INSERT
  5
14318
330
1235F
100
AcDbEntity
  8
寸法
 62
     0
 48
50.0
370
    -2
100
AcDbBlockReference
  2
_DOT
 10
9670.442632392878
 20
7696.227492243647
 30
0.0
 41
20.0
 42
20.0
 43
20.0
 50
270.0
  0
MTEXT
  5
14319
330
1235F
100
AcDbEntity
  8
寸法
 62
     7
 48
50.0
100
AcDbMText
 10
9578.430821369256
 20
9011.22749224365
 30
0.0
 40
120.0
 41
0.0
 71
     5
 72
     1
  1
\A1;2630
  7
STYLE1
 11
0.0000000000000001
 21
1.0
 31
0.0
 73
     1
 44
1.0
1001
ACAD
1000
MTEXTBEGIN
1070
    73
1070
     1
1070
    44
1040
1.0
1070
    74
1070
     0
1000
MTEXTEND
  0
POINT
  5
1431A
330
1235F
100
AcDbEntity
  8
DEFPOINTS
 62
     0
 48
50.0
100
AcDbPoint
 10
8599.695515348525
 20
10326.22749224365
 30
0.0
  0
POINT
  5
1431B
330
1235F
100
AcDbEntity
  8
DEFPOINTS
 62
     0
 48
50.0
100
AcDbPoint
 10
8599.695515348525
 20
7696.227492243647
 30
0.0
  0
POINT
  5
1431C
330
1235F
100
AcDbEntity
  8
DEFPOINTS
 62
     0
 48
50.0
100
AcDbPoint
 10
9670.442632392878
 20
7696.227492243647
 30
0.0
  0
ENDBLK
  5
1299C
330
1235F
100
AcDbEntity
  8
0
 48
50.0
100
AcDbBlockEnd
  0
BLOCK
  5
1299D
330
1236B
100
AcDbEntity
  8
0
 48
50.0
100
AcDbBlockBegin
  2
*D5
 70
     1
 10
0.0
 20
0.0
 30
0.0
  3
*D5
  1

  0
LINE
  5
14309
330
1236B
100
AcDbEntity
  8
寸法
 62
     0
 48
50.0
370
    -2
100
AcDbLine
 10
8619.695515348524
 20
7751.227492243645
 30
0.0
 11
9410.44263239288
 21
7751.227492243645
 31
0.0
  0
LINE
  5
1430A
330
1236B
100
AcDbEntity
  8
寸法
 62
     0
 48
50.0
370
    -2
100
AcDbLine
 10
8619.695515348524
 20
7696.227492243647
 30
0.0
 11
9410.44263239288
 21
7696.227492243647
 31
0.0
  0
LINE
  5
1430B
330
1236B
100
AcDbEntity
  8
寸法
 62
     0
 48
50.0
370
    -2
100
AcDbLine
 10
9370.44263239288
 20
7771.227492243645
 30
0.0
 11
9370.44263239288
 21
7791.227492243645
 31
0.0
  0
LINE
  5
1430C
330
1236B
100
AcDbEntity
  8
寸法
 62
     0
 48
50.0
370
    -2
100
AcDbLine
 10
9370.44263239288
 20
7676.227492243649
 30
0.0
 11
9370.44263239288
 21
7201.575544202743
 31
0.0
  0
LINE
  5
1430D
330
1236B
100
AcDbEntity
  8
寸法
 62
     0
 48
50.0
370
    -2
100
AcDbLine
 10
9370.44263239288
 20
7751.227492243645
 30
0.0
 11
9370.44263239288
 21
7696.227492243647
 31
0.0
  0
INSERT
  5
1430E
330
1236B
100
AcDbEntity
  8
寸法
 62
     0
 48
50.0
370
    -2
100
AcDbBlockReference
  2
_DOT
 10
9370.44263239288
 20
7751.227492243645
 30
0.0
 41
20.0
 42
20.0
 43
20.0
 50
270.0
  0
INSERT
  5
1430F
330
1236B
100
AcDbEntity
  8
寸法
 62
     0
 48
50.0
370
    -2
100
AcDbBlockReference
  2
_DOT
 10
9370.44263239288
 20
7696.227492243647
 30
0.0
 41
20.0
 42
20.0
 43
20.0
 50
90.0
  0
MTEXT
  5
14310
330
1236B
100
AcDbEntity
  8
寸法
 62
     7
 48
50.0
100
AcDbMText
 10
9278.442632392879
 20
7302.060825576983
 30
0.0
 40
120.0
 41
0.0
 71
     5
 72
     1
  1
\A1;55
  7
STYLE1
 11
0.0000000000000001
 21
1.0
 31
0.0
 73
     1
 44
1.0
1001
ACAD
1000
MTEXTBEGIN
1070
    73
1070
     1
1070
    44
1040
1.0
1070
    74
1070
     0
1000
MTEXTEND
  0
POINT
  5
14311
330
1236B
100
AcDbEntity
  8
DEFPOINTS
 62
     0
 48
50.0
100
AcDbPoint
 10
8599.695515348525
 20
7751.227492243645
 30
0.0
  0
POINT
  5
14312
330
1236B
100
AcDbEntity
  8
DEFPOINTS
 62
     0
 48
50.0
100
AcDbPoint
 10
8599.695515348525
 20
7696.227492243647
 30
0.0
  0
POINT
  5
14313
330
1236B
100
AcDbEntity
  8
DEFPOINTS
 62
     0
 48
50.0
100
AcDbPoint
 10
9370.44263239288
 20
7696.227492243647
 30
0.0
  0
ENDBLK
  5
129A9
330
1236B
100
AcDbEntity
  8
0
 48
50.0
100
AcDbBlockEnd
  0
BLOCK
  5
12987
330
12378
100
AcDbEntity
  8
0
 48
50.0
100
AcDbBlockBegin
  2
*D6
 70
     1
 10
0.0
 20
0.0
 30
0.0
  3
*D6
  1

  0
LINE
  5
14300
330
12378
100
AcDbEntity
  8
寸法
 62
     0
 48
50.0
370
    -2
100
AcDbLine
 10
8619.695515348524
 20
10271.22749224365
 30
0.0
 11
9410.442632392879
 21
10271.22749224365
 31
0.0
  0
LINE
  5
14301
330
12378
100
AcDbEntity
  8
寸法
 62
     0
 48
50.0
370
    -2
100
AcDbLine
 10
8619.695515348524
 20
7751.227492243645
 30
0.0
 11
9410.442632392879
 21
7751.227492243645
 31
0.0
  0
LINE
  5
14302
330
12378
100
AcDbEntity
  8
寸法
 62
     0
 48
50.0
370
    -2
100
AcDbLine
 10
9370.442632392878
 20
10251.22749224365
 30
0.0
 11
9370.442632392878
 21
7771.227492243645
 31
0.0
  0
INSERT
  5
14303
330
12378
100
AcDbEntity
  8
寸法
 62
     0
 48
50.0
370
    -2
100
AcDbBlockReference
  2
_DOT
 10
9370.442632392878
 20
10271.22749224365
 30
0.0
 41
20.0
 42
20.0
 43
20.0
 50
90.0
  0
INSERT
  5
14304
330
12378
100
AcDbEntity
  8
寸法
 62
     0
 48
50.0
370
    -2
100
AcDbBlockReference
  2
_DOT
 10
9370.442632392878
 20
7751.227492243645
 30
0.0
 41
20.0
 42
20.0
 43
20.0
 50
270.0
  0
MTEXT
  5
14305
330
12378
100
AcDbEntity
  8
寸法
 62
     7
 48
50.0
100
AcDbMText
 10
9278.430821369255
 20
9011.22749224365
 30
0.0
 40
120.0
 41
0.0
 71
     5
 72
     1
  1
\A1;6X420=2520
  7
STYLE1
 11
0.0000000000000001
 21
1.0
 31
0.0
 73
     1
 44
1.0
1001
ACAD
1000
MTEXTBEGIN
1070
    73
1070
     1
1070
    44
1040
1.0
1070
    74
1070
     0
1000
MTEXTEND
  0
POINT
  5
14306
330
12378
100
AcDbEntity
  8
DEFPOINTS
 62
     0
 48
50.0
100
AcDbPoint
 10
8599.695515348525
 20
10271.22749224365
 30
0.0
  0
POINT
  5
14307
330
12378
100
AcDbEntity
  8
DEFPOINTS
 62
     0
 48
50.0
100
AcDbPoint
 10
8599.695515348525
 20
7751.227492243645
 30
0.0
  0
POINT
  5
14308
330
12378
100
AcDbEntity
  8
DEFPOINTS
 62
     0
 48
50.0
100
AcDbPoint
 10
9370.442632392878
 20
7751.227492243645
 30
0.0
  0
ENDBLK
  5
12991
330
12378
100
AcDbEntity
  8
0
 48
50.0
100
AcDbBlockEnd
  0
BLOCK
  5
129AA
330
12384
100
AcDbEntity
  8
0
 48
50.0
100
AcDbBlockBegin
  2
*D7
 70
     1
 10
0.0
 20
0.0
 30
0.0
  3
*D7
  1

  0
LINE
  5
142F5
330
12384
100
AcDbEntity
  8
寸法
 62
     0
 48
50.0
370
    -2
100
AcDbLine
 10
8619.695515348524
 20
10326.22749224365
 30
0.0
 11
9410.44263239288
 21
10326.22749224365
 31
0.0
  0
LINE
  5
142F6
330
12384
100
AcDbEntity
  8
寸法
 62
     0
 48
50.0
370
    -2
100
AcDbLine
 10
8619.695515348524
 20
10271.22749224365
 30
0.0
 11
9410.44263239288
 21
10271.22749224365
 31
0.0
  0
LINE
  5
142F7
330
12384
100
AcDbEntity
  8
寸法
 62
     0
 48
50.0
370
    -2
100
AcDbLine
 10
9370.44263239288
 20
10251.22749224365
 30
0.0
 11
9370.44263239288
 21
10231.22749224365
 31
0.0
  0
LINE
  5
142F8
330
12384
100
AcDbEntity
  8
寸法
 62
     0
 48
50.0
370
    -2
100
AcDbLine
 10
9370.44263239288
 20
10346.22749224365
 30
0.0
 11
9370.44263239288
 21
10820.87944028455
 31
0.0
  0
LINE
  5
142F9
330
12384
100
AcDbEntity
  8
寸法
 62
     0
 48
50.0
370
    -2
100
AcDbLine
 10
9370.44263239288
 20
10271.22749224365
 30
0.0
 11
9370.44263239288
 21
10326.22749224365
 31
0.0
  0
INSERT
  5
142FA
330
12384
100
AcDbEntity
  8
寸法
 62
     0
 48
50.0
370
    -2
100
AcDbBlockReference
  2
_DOT
 10
9370.44263239288
 20
10271.22749224365
 30
0.0
 41
20.0
 42
20.0
 43
20.0
 50
90.0
  0
INSERT
  5
142FB
330
12384
100
AcDbEntity
  8
寸法
 62
     0
 48
50.0
370
    -2
100
AcDbBlockReference
  2
_DOT
 10
9370.44263239288
 20
10326.22749224365
 30
0.0
 41
20.0
 42
20.0
 43
20.0
 50
270.0
  0
MTEXT
  5
142FC
330
12384
100
AcDbEntity
  8
寸法
 62
     7
 48
50.0
100
AcDbMText
 10
9278.442632392879
 20
10720.39415891031
 30
0.0
 40
120.0
 41
0.0
 71
     5
 72
     1
  1
\A1;55
  7
STYLE1
 11
0.0000000000000001
 21
1.0
 31
0.0
 73
     1
 44
1.0
1001
ACAD
1000
MTEXTBEGIN
1070
    73
1070
     1
1070
    44
1040
1.0
1070
    74
1070
     0
1000
MTEXTEND
  0
POINT
  5
142FD
330
12384
100
AcDbEntity
  8
DEFPOINTS
 62
     0
 48
50.0
100
AcDbPoint
 10
8599.695515348525
 20
10326.22749224365
 30
0.0
  0
POINT
  5
142FE
330
12384
100
AcDbEntity
  8
DEFPOINTS
 62
     0
 48
50.0
100
AcDbPoint
 10
8599.695515348525
 20
10271.22749224365
 30
0.0
  0
POINT
  5
142FF
330
12384
100
AcDbEntity
  8
DEFPOINTS
 62
     0
 48
50.0
100
AcDbPoint
 10
9370.44263239288
 20
10271.22749224365
 30
0.0
  0
ENDBLK
  5
129B6
330
12384
100
AcDbEntity
  8
0
 48
50.0
100
AcDbBlockEnd
  0
BLOCK
  5
12943
330
123CF
100
AcDbEntity
  8
0
 48
50.0
100
AcDbBlockBegin
  2
*D8
 70
     1
 10
0.0
 20
0.0
 30
0.0
  3
*D8
  1

  0
LINE
  5
142EC
330
123CF
100
AcDbEntity
  8
寸法
 62
     0
 48
50.0
370
    -2
100
AcDbLine
 10
1659.695515348525
 20
10346.22749224365
 30
0.0
 11
1659.695515348525
 21
10940.93990226244
 31
0.0
  0
LINE
  5
142ED
330
123CF
100
AcDbEntity
  8
寸法
 62
     0
 48
50.0
370
    -2
100
AcDbLine
 10
8599.695515348525
 20
10346.22749224365
 30
0.0
 11
8599.695515348525
 21
10940.93990226244
 31
0.0
  0
LINE
  5
142EE
330
123CF
100
AcDbEntity
  8
寸法
 62
     0
 48
50.0
370
    -2
100
AcDbLine
 10
1679.695515348525
 20
10900.93990226244
 30
0.0
 11
8579.695515348525
 21
10900.93990226244
 31
0.0
  0
INSERT
  5
142EF
330
123CF
100
AcDbEntity
  8
寸法
 62
     0
 48
50.0
370
    -2
100
AcDbBlockReference
  2
_DOT
 10
1659.695515348525
 20
10900.93990226244
 30
0.0
 41
20.0
 42
20.0
 43
20.0
 50
180.0
  0
INSERT
  5
142F0
330
123CF
100
AcDbEntity
  8
寸法
 62
     0
 48
50.0
370
    -2
100
AcDbBlockReference
  2
_DOT
 10
8599.695515348525
 20
10900.93990226244
 30
0.0
 41
20.0
 42
20.0
 43
20.0
  0
MTEXT
  5
142F1
330
123CF
100
AcDbEntity
  8
寸法
 62
     7
 48
50.0
100
AcDbMText
 10
5129.695515348525
 20
10992.93990226244
 30
0.0
 40
120.0
 41
0.0
 71
     5
 72
     1
  1
\A1;6940
  7
STYLE1
 73
     1
 44
1.0
1001
ACAD
1000
MTEXTBEGIN
1070
    73
1070
     1
1070
    44
1040
1.0
1070
    74
1070
     0
1000
MTEXTEND
  0
POINT
  5
142F2
330
123CF
100
AcDbEntity
  8
DEFPOINTS
 62
     0
 48
50.0
100
AcDbPoint
 10
1659.695515348525
 20
10326.22749224365
 30
0.0
  0
POINT
  5
142F3
330
123CF
100
AcDbEntity
  8
DEFPOINTS
 62
     0
 48
50.0
100
AcDbPoint
 10
8599.695515348525
 20
10326.22749224365
 30
0.0
  0
POINT
  5
142F4
330
123CF
100
AcDbEntity
  8
DEFPOINTS
 62
     0
 48
50.0
100
AcDbPoint
 10
8599.695515348525
 20
10900.93990226244
 30
0.0
  0
ENDBLK
  5
1294D
330
123CF
100
AcDbEntity
  8
0
 48
50.0
100
AcDbBlockEnd
  0
BLOCK
  5
12959
330
123DB
100
AcDbEntity
  8
0
 48
50.0
100
AcDbBlockBegin
  2
*D9
 70
     1
 10
0.0
 20
0.0
 30
0.0
  3
*D9
  1

  0
LINE
  5
142E3
330
123DB
100
AcDbEntity
  8
寸法
 62
     0
 48
50.0
370
    -2
100
AcDbLine
 10
1714.695515348525
 20
10346.22749224365
 30
0.0
 11
1714.695515348525
 21
10640.93990226244
 31
0.0
  0
LINE
  5
142E4
330
123DB
100
AcDbEntity
  8
寸法
 62
     0
 48
50.0
370
    -2
100
AcDbLine
 10
5074.695515348525
 20
10346.22749224365
 30
0.0
 11
5074.695515348525
 21
10640.93990226244
 31
0.0
  0
LINE
  5
142E5
330
123DB
100
AcDbEntity
  8
寸法
 62
     0
 48
50.0
370
    -2
100
AcDbLine
 10
1734.695515348525
 20
10600.93990226244
 30
0.0
 11
5054.695515348525
 21
10600.93990226244
 31
0.0
  0
INSERT
  5
142E6
330
123DB
100
AcDbEntity
  8
寸法
 62
     0
 48
50.0
370
    -2
100
AcDbBlockReference
  2
_DOT
 10
1714.695515348525
 20
10600.93990226244
 30
0.0
 41
20.0
 42
20.0
 43
20.0
 50
180.0
  0
INSERT
  5
142E7
330
123DB
100
AcDbEntity
  8
寸法
 62
     0
 48
50.0
370
    -2
100
AcDbBlockReference
  2
_DOT
 10
5074.695515348525
 20
10600.93990226244
 30
0.0
 41
20.0
 42
20.0
 43
20.0
  0
MTEXT
  5
142E8
330
123DB
100
AcDbEntity
  8
寸法
 62
     7
 48
50.0
100
AcDbMText
 10
3394.695515348525
 20
10692.95171328606
 30
0.0
 40
120.0
 41
0.0
 71
     5
 72
     1
  1
\A1;8X420=3360
  7
STYLE1
 73
     1
 44
1.0
1001
ACAD
1000
MTEXTBEGIN
1070
    73
1070
     1
1070
    44
1040
1.0
1070
    74
1070
     0
1000
MTEXTEND
  0
POINT
  5
142E9
330
123DB
100
AcDbEntity
  8
DEFPOINTS
 62
     0
 48
50.0
100
AcDbPoint
 10
1714.695515348525
 20
10326.22749224365
 30
0.0
  0
POINT
  5
142EA
330
123DB
100
AcDbEntity
  8
DEFPOINTS
 62
     0
 48
50.0
100
AcDbPoint
 10
5074.695515348525
 20
10326.22749224365
 30
0.0
  0
POINT
  5
142EB
330
123DB
100
AcDbEntity
  8
DEFPOINTS
 62
     0
 48
50.0
100
AcDbPoint
 10
5074.695515348525
 20
10600.93990226244
 30
0.0
  0
ENDBLK
  5
12963
330
123DB
100
AcDbEntity
  8
0
 48
50.0
100
AcDbBlockEnd
  0
BLOCK
  5
1294E
330
123E7
100
AcDbEntity
  8
0
 48
50.0
100
AcDbBlockBegin
  2
*D10
 70
     1
 10
0.0
 20
0.0
 30
0.0
  3
*D10
  1

  0
LINE
  5
14331
330
123E7
100
AcDbEntity
  8
寸法
 62
     0
 48
50.0
370
    -2
100
AcDbLine
 10
1659.695515348525
 20
7676.227492243649
 30
0.0
 11
1659.695515348525
 21
6331.145534740802
 31
0.0
  0
LINE
  5
14332
330
123E7
100
AcDbEntity
  8
寸法
 62
     0
 48
50.0
370
    -2
100
AcDbLine
 10
5129.695515348525
 20
7731.227492243649
 30
0.0
 11
5129.695515348525
 21
6331.145534740802
 31
0.0
  0
LINE
  5
14333
330
123E7
100
AcDbEntity
  8
寸法
 62
     0
 48
50.0
370
    -2
100
AcDbLine
 10
1679.695515348525
 20
6371.145534740801
 30
0.0
 11
5109.695515348525
 21
6371.145534740801
 31
0.0
  0
INSERT
  5
14334
330
123E7
100
AcDbEntity
  8
寸法
 62
     0
 48
50.0
370
    -2
100
AcDbBlockReference
  2
_DOT
 10
1659.695515348525
 20
6371.145534740801
 30
0.0
 41
20.0
 42
20.0
 43
20.0
 50
180.0
  0
INSERT
  5
14335
330
123E7
100
AcDbEntity
  8
寸法
 62
     0
 48
50.0
370
    -2
100
AcDbBlockReference
  2
_DOT
 10
5129.695515348525
 20
6371.145534740801
 30
0.0
 41
20.0
 42
20.0
 43
20.0
  0
MTEXT
  5
14336
330
123E7
100
AcDbEntity
  8
寸法
 62
     7
 48
50.0
100
AcDbMText
 10
3394.695515348525
 20
6463.1455347408
 30
0.0
 40
120.0
 41
0.0
 71
     5
 72
     1
  1
\A1;3470
  7
STYLE1
 73
     1
 44
1.0
1001
ACAD
1000
MTEXTBEGIN
1070
    73
1070
     1
1070
    44
1040
1.0
1070
    74
1070
     0
1000
MTEXTEND
  0
POINT
  5
14337
330
123E7
100
AcDbEntity
  8
DEFPOINTS
 62
     0
 48
50.0
100
AcDbPoint
 10
1659.695515348525
 20
7696.227492243647
 30
0.0
  0
POINT
  5
14338
330
123E7
100
AcDbEntity
  8
DEFPOINTS
 62
     0
 48
50.0
100
AcDbPoint
 10
5129.695515348525
 20
7751.227492243649
 30
0.0
  0
POINT
  5
14339
330
123E7
100
AcDbEntity
  8
DEFPOINTS
 62
     0
 48
50.0
100
AcDbPoint
 10
5129.695515348525
 20
6371.145534740801
 30
0.0
  0
ENDBLK
  5
12958
330
123E7
100
AcDbEntity
  8
0
 48
50.0
100
AcDbBlockEnd
  0
BLOCK
  5
1296F
330
123F3
100
AcDbEntity
  8
0
 48
50.0
100
AcDbBlockBegin
  2
*D11
 70
     1
 10
0.0
 20
0.0
 30
0.0
  3
*D11
  1

  0
LINE
  5
142CF
330
123F3
100
AcDbEntity
  8
寸法
 62
     0
 48
50.0
370
    -2
100
AcDbLine
 10
1659.695515348525
 20
10346.22749224365
 30
0.0
 11
1659.695515348525
 21
10640.93990226244
 31
0.0
  0
LINE
  5
142D0
330
123F3
100
AcDbEntity
  8
寸法
 62
     0
 48
50.0
370
    -2
100
AcDbLine
 10
1714.695515348525
 20
10346.22749224365
 30
0.0
 11
1714.695515348525
 21
10640.93990226244
 31
0.0
  0
LINE
  5
142D1
330
123F3
100
AcDbEntity
  8
寸法
 62
     0
 48
50.0
370
    -2
100
AcDbLine
 10
1734.695515348525
 20
10600.93990226244
 30
0.0
 11
1754.695515348525
 21
10600.93990226244
 31
0.0
  0
LINE
  5
142D2
330
123F3
100
AcDbEntity
  8
寸法
 62
     0
 48
50.0
370
    -2
100
AcDbLine
 10
1639.695515348525
 20
10600.93990226244
 30
0.0
 11
1165.04356730762
 21
10600.93990226244
 31
0.0
  0
LINE
  5
142D3
330
123F3
100
AcDbEntity
  8
寸法
 62
     0
 48
50.0
370
    -2
100
AcDbLine
 10
1714.695515348525
 20
10600.93990226244
 30
0.0
 11
1659.695515348525
 21
10600.93990226244
 31
0.0
  0
INSERT
  5
142D4
330
123F3
100
AcDbEntity
  8
寸法
 62
     0
 48
50.0
370
    -2
100
AcDbBlockReference
  2
_DOT
 10
1714.695515348525
 20
10600.93990226244
 30
0.0
 41
20.0
 42
20.0
 43
20.0
 50
180.0
  0
INSERT
  5
142D5
330
123F3
100
AcDbEntity
  8
寸法
 62
     0
 48
50.0
370
    -2
100
AcDbBlockReference
  2
_DOT
 10
1659.695515348525
 20
10600.93990226244
 30
0.0
 41
20.0
 42
20.0
 43
20.0
  0
MTEXT
  5
142D6
330
123F3
100
AcDbEntity
  8
寸法
 62
     7
 48
50.0
100
AcDbMText
 10
1265.528848681859
 20
10692.93990226244
 30
0.0
 40
120.0
 41
0.0
 71
     5
 72
     1
  1
\A1;55
  7
STYLE1
 73
     1
 44
1.0
1001
ACAD
1000
MTEXTBEGIN
1070
    73
1070
     1
1070
    44
1040
1.0
1070
    74
1070
     0
1000
MTEXTEND
  0
POINT
  5
142D7
330
123F3
100
AcDbEntity
  8
DEFPOINTS
 62
     0
 48
50.0
100
AcDbPoint
 10
1659.695515348525
 20
10326.22749224365
 30
0.0
  0
POINT
  5
142D8
330
123F3
100
AcDbEntity
  8
DEFPOINTS
 62
     0
 48
50.0
100
AcDbPoint
 10
1714.695515348525
 20
10326.22749224365
 30
0.0
  0
POINT
  5
142D9
330
123F3
100
AcDbEntity
  8
DEFPOINTS
 62
     0
 48
50.0
100
AcDbPoint
 10
1714.695515348525
 20
10600.93990226244
 30
0.0
  0
ENDBLK
  5
1297B
330
123F3
100
AcDbEntity
  8
0
 48
50.0
100
AcDbBlockEnd
  0
BLOCK
  5
12938
330
12400
100
AcDbEntity
  8
0
 48
50.0
100
AcDbBlockBegin
  2
*D12
 70
     1
 10
0.0
 20
0.0
 30
0.0
  3
*D12
  1

  0
LINE
  5
14328
330
12400
100
AcDbEntity
  8
寸法
 62
     0
 48
50.0
370
    -2
100
AcDbLine
 10
5129.695515348525
 20
7731.227492243644
 30
0.0
 11
5129.695515348525
 21
6331.145534740802
 31
0.0
  0
LINE
  5
14329
330
12400
100
AcDbEntity
  8
寸法
 62
     0
 48
50.0
370
    -2
100
AcDbLine
 10
8599.695515348525
 20
7676.227492243649
 30
0.0
 11
8599.695515348525
 21
6331.145534740802
 31
0.0
  0
LINE
  5
1432A
330
12400
100
AcDbEntity
  8
寸法
 62
     0
 48
50.0
370
    -2
100
AcDbLine
 10
5149.695515348525
 20
6371.145534740801
 30
0.0
 11
8579.695515348525
 21
6371.145534740801
 31
0.0
  0
INSERT
  5
1432B
330
12400
100
AcDbEntity
  8
寸法
 62
     0
 48
50.0
370
    -2
100
AcDbBlockReference
  2
_DOT
 10
5129.695515348525
 20
6371.145534740801
 30
0.0
 41
20.0
 42
20.0
 43
20.0
 50
180.0
  0
INSERT
  5
1432C
330
12400
100
AcDbEntity
  8
寸法
 62
     0
 48
50.0
370
    -2
100
AcDbBlockReference
  2
_DOT
 10
8599.695515348525
 20
6371.145534740801
 30
0.0
 41
20.0
 42
20.0
 43
20.0
  0
MTEXT
  5
1432D
330
12400
100
AcDbEntity
  8
寸法
 62
     7
 48
50.0
100
AcDbMText
 10
6864.695515348525
 20
6463.1455347408
 30
0.0
 40
120.0
 41
0.0
 71
     5
 72
     1
  1
\A1;3470
  7
STYLE1
 73
     1
 44
1.0
1001
ACAD
1000
MTEXTBEGIN
1070
    73
1070
     1
1070
    44
1040
1.0
1070
    74
1070
     0
1000
MTEXTEND
  0
POINT
  5
1432E
330
12400
100
AcDbEntity
  8
DEFPOINTS
 62
     0
 48
50.0
100
AcDbPoint
 10
5129.695515348525
 20
7751.227492243645
 30
0.0
  0
POINT
  5
1432F
330
12400
100
AcDbEntity
  8
DEFPOINTS
 62
     0
 48
50.0
100
AcDbPoint
 10
8599.695515348525
 20
7696.227492243647
 30
0.0
  0
POINT
  5
14330
330
12400
100
AcDbEntity
  8
DEFPOINTS
 62
     0
 48
50.0
100
AcDbPoint
 10
8599.695515348525
 20
6371.145534740801
 30
0.0
  0
ENDBLK
  5
12942
330
12400
100
AcDbEntity
  8
0
 48
50.0
100
AcDbBlockEnd
  0
BLOCK
  5
1292D
330
1240C
100
AcDbEntity
  8
0
 48
50.0
100
AcDbBlockBegin
  2
*D13
 70
     1
 10
0.0
 20
0.0
 30
0.0
  3
*D13
  1

  0
LINE
  5
142BD
330
1240C
100
AcDbEntity
  8
寸法
 62
     0
 48
50.0
370
    -2
100
AcDbLine
 10
5184.695515348526
 20
10346.22749224365
 30
0.0
 11
5184.695515348526
 21
10640.93990226244
 31
0.0
  0
LINE
  5
142BE
330
1240C
100
AcDbEntity
  8
寸法
 62
     0
 48
50.0
370
    -2
100
AcDbLine
 10
8544.695515348525
 20
10346.22749224365
 30
0.0
 11
8544.695515348525
 21
10640.93990226244
 31
0.0
  0
LINE
  5
142BF
330
1240C
100
AcDbEntity
  8
寸法
 62
     0
 48
50.0
370
    -2
100
AcDbLine
 10
5204.695515348525
 20
10600.93990226244
 30
0.0
 11
8524.695515348524
 21
10600.93990226244
 31
0.0
  0
INSERT
  5
142C0
330
1240C
100
AcDbEntity
  8
寸法
 62
     0
 48
50.0
370
    -2
100
AcDbBlockReference
  2
_DOT
 10
5184.695515348526
 20
10600.93990226244
 30
0.0
 41
20.0
 42
20.0
 43
20.0
 50
180.0
  0
INSERT
  5
142C1
330
1240C
100
AcDbEntity
  8
寸法
 62
     0
 48
50.0
370
    -2
100
AcDbBlockReference
  2
_DOT
 10
8544.695515348525
 20
10600.93990226244
 30
0.0
 41
20.0
 42
20.0
 43
20.0
  0
MTEXT
  5
142C2
330
1240C
100
AcDbEntity
  8
寸法
 62
     7
 48
50.0
100
AcDbMText
 10
6864.695515348525
 20
10692.95171328606
 30
0.0
 40
120.0
 41
0.0
 71
     5
 72
     1
  1
\A1;8X420=3360
  7
STYLE1
 73
     1
 44
1.0
1001
ACAD
1000
MTEXTBEGIN
1070
    73
1070
     1
1070
    44
1040
1.0
1070
    74
1070
     0
1000
MTEXTEND
  0
POINT
  5
142C3
330
1240C
100
AcDbEntity
  8
DEFPOINTS
 62
     0
 48
50.0
100
AcDbPoint
 10
5184.695515348526
 20
10326.22749224365
 30
0.0
  0
POINT
  5
142C4
330
1240C
100
AcDbEntity
  8
DEFPOINTS
 62
     0
 48
50.0
100
AcDbPoint
 10
8544.695515348525
 20
10326.22749224365
 30
0.0
  0
POINT
  5
142C5
330
1240C
100
AcDbEntity
  8
DEFPOINTS
 62
     0
 48
50.0
100
AcDbPoint
 10
8544.695515348525
 20
10600.93990226244
 30
0.0
  0
ENDBLK
  5
12937
330
1240C
100
AcDbEntity
  8
0
 48
50.0
100
AcDbBlockEnd
  0
BLOCK
  5
1297C
330
12418
100
AcDbEntity
  8
0
 48
50.0
100
AcDbBlockBegin
  2
*D14
 70
     1
 10
0.0
 20
0.0
 30
0.0
  3
*D14
  1

  0
LINE
  5
142B4
330
12418
100
AcDbEntity
  8
寸法
 62
     0
 48
50.0
370
    -2
100
AcDbLine
 10
5074.695515348525
 20
10346.22749224365
 30
0.0
 11
5074.695515348525
 21
10640.93990226244
 31
0.0
  0
LINE
  5
142B5
330
12418
100
AcDbEntity
  8
寸法
 62
     0
 48
50.0
370
    -2
100
AcDbLine
 10
5184.695515348526
 20
10346.22749224365
 30
0.0
 11
5184.695515348526
 21
10640.93990226244
 31
0.0
  0
LINE
  5
142B6
330
12418
100
AcDbEntity
  8
寸法
 62
     0
 48
50.0
370
    -2
100
AcDbLine
 10
5094.695515348525
 20
10600.93990226244
 30
0.0
 11
5164.695515348525
 21
10600.93990226244
 31
0.0
  0
INSERT
  5
142B7
330
12418
100
AcDbEntity
  8
寸法
 62
     0
 48
50.0
370
    -2
100
AcDbBlockReference
  2
_DOT
 10
5074.695515348525
 20
10600.93990226244
 30
0.0
 41
20.0
 42
20.0
 43
20.0
 50
180.0
  0
INSERT
  5
142B8
330
12418
100
AcDbEntity
  8
寸法
 62
     0
 48
50.0
370
    -2
100
AcDbBlockReference
  2
_DOT
 10
5184.695515348526
 20
10600.93990226244
 30
0.0
 41
20.0
 42
20.0
 43
20.0
  0
MTEXT
  5
142B9
330
12418
100
AcDbEntity
  8
寸法
 62
     7
 48
50.0
100
AcDbMText
 10
5129.695515348525
 20
10692.93990226244
 30
0.0
 40
120.0
 41
0.0
 71
     5
 72
     1
  1
\A1;110
  7
STYLE1
 73
     1
 44
1.0
1001
ACAD
1000
MTEXTBEGIN
1070
    73
1070
     1
1070
    44
1040
1.0
1070
    74
1070
     0
1000
MTEXTEND
  0
POINT
  5
142BA
330
12418
100
AcDbEntity
  8
DEFPOINTS
 62
     0
 48
50.0
100
AcDbPoint
 10
5074.695515348525
 20
10326.22749224365
 30
0.0
  0
POINT
  5
142BB
330
12418
100
AcDbEntity
  8
DEFPOINTS
 62
     0
 48
50.0
100
AcDbPoint
 10
5184.695515348526
 20
10326.22749224365
 30
0.0
  0
POINT
  5
142BC
330
12418
100
AcDbEntity
  8
DEFPOINTS
 62
     0
 48
50.0
100
AcDbPoint
 10
5184.695515348526
 20
10600.93990226244
 30
0.0
  0
ENDBLK
  5
12986
330
12418
100
AcDbEntity
  8
0
 48
50.0
100
AcDbBlockEnd
  0
BLOCK
  5
13489
330
1347D
100
AcDbEntity
  8
0
 48
50.0
100
AcDbBlockBegin
  2
*D15
 70
     1
 10
0.0
 20
0.0
 30
0.0
  3
*D15
  1

  0
LINE
  5
139FF
330
1347D
100
AcDbEntity
  8
寸法
 62
     0
 48
50.0
370
    -2
100
AcDbLine
 10
1659.695515348525
 20
4683.112805903264
 30
0.0
 11
1659.695515348525
 21
4935.654391161502
 31
0.0
  0
LINE
  5
13A00
330
1347D
100
AcDbEntity
  8
寸法
 62
     0
 48
50.0
370
    -2
100
AcDbLine
 10
1609.695515348525
 20
4683.112805903262
 30
0.0
 11
1609.695515348525
 21
4935.654391161502
 31
0.0
  0
LINE
  5
13A01
330
1347D
100
AcDbEntity
  8
寸法
 62
     0
 48
50.0
370
    -2
100
AcDbLine
 10
1659.695515348525
 20
4875.654391161502
 30
0.0
 11
1759.695515348525
 21
4875.654391161502
 31
0.0
  0
LINE
  5
13A02
330
1347D
100
AcDbEntity
  8
寸法
 62
     0
 48
50.0
370
    -2
100
AcDbLine
 10
1609.695515348525
 20
4875.654391161502
 30
0.0
 11
1190.162989879789
 21
4875.654391161502
 31
0.0
  0
LINE
  5
13A03
330
1347D
100
AcDbEntity
  8
寸法
 62
     0
 48
50.0
370
    -2
100
AcDbLine
 10
1659.695515348525
 20
4875.654391161502
 30
0.0
 11
1609.695515348525
 21
4875.654391161502
 31
0.0
  0
INSERT
  5
13A04
330
1347D
100
AcDbEntity
  8
寸法
 62
     0
 48
50.0
370
    -2
100
AcDbBlockReference
  2
_DOTSMALL
 10
1659.695515348525
 20
4875.654391161502
 30
0.0
 41
100.0
 42
100.0
 43
100.0
 50
180.0
  0
INSERT
  5
13A05
330
1347D
100
AcDbEntity
  8
寸法
 62
     0
 48
50.0
370
    -2
100
AcDbBlockReference
  2
_DOTSMALL
 10
1609.695515348525
 20
4875.654391161502
 30
0.0
 41
100.0
 42
100.0
 43
100.0
  0
MTEXT
  5
13A06
330
1347D
100
AcDbEntity
  8
寸法
 62
     7
 48
50.0
100
AcDbMText
 10
1296.210233974278
 20
4975.654391161501
 30
0.0
 40
120.0
 41
0.0
 71
     5
 72
     1
  1
\A1;50
  7
STYLE1
 73
     1
 44
1.0
1001
ACAD
1000
MTEXTBEGIN
1070
    73
1070
     1
1070
    44
1040
1.0
1070
    74
1070
     0
1000
MTEXTEND
  0
POINT
  5
13A07
330
1347D
100
AcDbEntity
  8
DEFPOINTS
 62
     0
 48
50.0
100
AcDbPoint
 10
1659.695515348525
 20
4663.112805903264
 30
0.0
  0
POINT
  5
13A08
330
1347D
100
AcDbEntity
  8
DEFPOINTS
 62
     0
 48
50.0
100
AcDbPoint
 10
1609.695515348525
 20
4663.112805903263
 30
0.0
  0
POINT
  5
13A09
330
1347D
100
AcDbEntity
  8
DEFPOINTS
 62
     0
 48
50.0
100
AcDbPoint
 10
1609.695515348525
 20
4875.654391161502
 30
0.0
  0
ENDBLK
  5
1348A
330
1347D
100
AcDbEntity
  8
0
 48
50.0
100
AcDbBlockEnd
  0
BLOCK
  5
13495
330
1348B
100
AcDbEntity
  8
0
 48
50.0
100
AcDbBlockBegin
  2
*D16
 70
     1
 10
0.0
 20
0.0
 30
0.0
  3
*D16
  1

  0
LINE
  5
13A28
330
1348B
100
AcDbEntity
  8
寸法
 62
     0
 48
50.0
370
    -2
100
AcDbLine
 10
1609.695515348525
 20
4683.112805903262
 30
0.0
 11
1609.695515348525
 21
5156.55969163525
 31
0.0
  0
LINE
  5
13A29
330
1348B
100
AcDbEntity
  8
寸法
 62
     0
 48
50.0
370
    -2
100
AcDbLine
 10
8649.695515348529
 20
4683.112805903258
 30
0.0
 11
8649.695515348529
 21
5156.55969163525
 31
0.0
  0
LINE
  5
13A2A
330
1348B
100
AcDbEntity
  8
寸法
 62
     0
 48
50.0
370
    -2
100
AcDbLine
 10
1609.695515348525
 20
5096.559691635249
 30
0.0
 11
8649.695515348529
 21
5096.559691635249
 31
0.0
  0
INSERT
  5
13A2B
330
1348B
100
AcDbEntity
  8
寸法
 62
     0
 48
50.0
370
    -2
100
AcDbBlockReference
  2
_DOTSMALL
 10
1609.695515348525
 20
5096.559691635249
 30
0.0
 41
100.0
 42
100.0
 43
100.0
 50
180.0
  0
INSERT
  5
13A2C
330
1348B
100
AcDbEntity
  8
寸法
 62
     0
 48
50.0
370
    -2
100
AcDbBlockReference
  2
_DOTSMALL
 10
8649.695515348529
 20
5096.559691635249
 30
0.0
 41
100.0
 42
100.0
 43
100.0
  0
MTEXT
  5
13A2D
330
1348B
100
AcDbEntity
  8
寸法
 62
     7
 48
50.0
100
AcDbMText
 10
5129.695515348525
 20
5196.55969163525
 30
0.0
 40
120.0
 41
0.0
 71
     5
 72
     1
  1
\A1;7040
  7
STYLE1
 73
     1
 44
1.0
1001
ACAD
1000
MTEXTBEGIN
1070
    73
1070
     1
1070
    44
1040
1.0
1070
    74
1070
     0
1000
MTEXTEND
  0
POINT
  5
13A2E
330
1348B
100
AcDbEntity
  8
DEFPOINTS
 62
     0
 48
50.0
100
AcDbPoint
 10
1609.695515348525
 20
4663.112805903263
 30
0.0
  0
POINT
  5
13A2F
330
1348B
100
AcDbEntity
  8
DEFPOINTS
 62
     0
 48
50.0
100
AcDbPoint
 10
8649.695515348529
 20
4663.112805903258
 30
0.0
  0
POINT
  5
13A30
330
1348B
100
AcDbEntity
  8
DEFPOINTS
 62
     0
 48
50.0
100
AcDbPoint
 10
8649.695515348529
 20
5096.559691635249
 30
0.0
  0
ENDBLK
  5
13496
330
1348B
100
AcDbEntity
  8
0
 48
50.0
100
AcDbBlockEnd
  0
BLOCK
  5
134A1
330
13497
100
AcDbEntity
  8
0
 48
50.0
100
AcDbBlockBegin
  2
*D17
 70
     1
 10
0.0
 20
0.0
 30
0.0
  3
*D17
  1

  0
LINE
  5
13A31
330
13497
100
AcDbEntity
  8
寸法
 62
     0
 48
50.0
370
    -2
100
AcDbLine
 10
8599.695515348528
 20
4683.11280590326
 30
0.0
 11
8599.695515348528
 21
4935.6543911615
 31
0.0
  0
LINE
  5
13A32
330
13497
100
AcDbEntity
  8
寸法
 62
     0
 48
50.0
370
    -2
100
AcDbLine
 10
1659.695515348525
 20
4683.112805903264
 30
0.0
 11
1659.695515348525
 21
4935.6543911615
 31
0.0
  0
LINE
  5
13A33
330
13497
100
AcDbEntity
  8
寸法
 62
     0
 48
50.0
370
    -2
100
AcDbLine
 10
8599.695515348528
 20
4875.6543911615
 30
0.0
 11
1659.695515348525
 21
4875.6543911615
 31
0.0
  0
INSERT
  5
13A34
330
13497
100
AcDbEntity
  8
寸法
 62
     0
 48
50.0
370
    -2
100
AcDbBlockReference
  2
_DOTSMALL
 10
8599.695515348528
 20
4875.6543911615
 30
0.0
 41
100.0
 42
100.0
 43
100.0
  0
INSERT
  5
13A35
330
13497
100
AcDbEntity
  8
寸法
 62
     0
 48
50.0
370
    -2
100
AcDbBlockReference
  2
_DOTSMALL
 10
1659.695515348525
 20
4875.6543911615
 30
0.0
 41
100.0
 42
100.0
 43
100.0
 50
180.0
  0
MTEXT
  5
13A36
330
13497
100
AcDbEntity
  8
寸法
 62
     7
 48
50.0
100
AcDbMText
 10
5129.695515348525
 20
4975.6543911615
 30
0.0
 40
120.0
 41
0.0
 71
     5
 72
     1
  1
\A1;柱外寸法6940
  7
STYLE1
 73
     1
 44
1.0
1001
ACAD
1000
MTEXTBEGIN
1070
    73
1070
     1
1070
    44
1040
1.0
1070
    74
1070
     0
1000
MTEXTEND
  0
POINT
  5
13A37
330
13497
100
AcDbEntity
  8
DEFPOINTS
 62
     0
 48
50.0
100
AcDbPoint
 10
8599.695515348528
 20
4663.112805903259
 30
0.0
  0
POINT
  5
13A38
330
13497
100
AcDbEntity
  8
DEFPOINTS
 62
     0
 48
50.0
100
AcDbPoint
 10
1659.695515348525
 20
4663.112805903264
 30
0.0
  0
POINT
  5
13A39
330
13497
100
AcDbEntity
  8
DEFPOINTS
 62
     0
 48
50.0
100
AcDbPoint
 10
1659.695515348525
 20
4875.6543911615
 30
0.0
  0
ENDBLK
  5
134A2
330
13497
100
AcDbEntity
  8
0
 48
50.0
100
AcDbBlockEnd
  0
BLOCK
  5
134AF
330
134A3
100
AcDbEntity
  8
0
 48
50.0
100
AcDbBlockBegin
  2
*D18
 70
     1
 10
0.0
 20
0.0
 30
0.0
  3
*D18
  1

  0
LINE
  5
13A0A
330
134A3
100
AcDbEntity
  8
寸法
 62
     0
 48
50.0
370
    -2
100
AcDbLine
 10
8649.695515348529
 20
4683.112805903258
 30
0.0
 11
8649.695515348529
 21
4935.654391161499
 31
0.0
  0
LINE
  5
13A0B
330
134A3
100
AcDbEntity
  8
寸法
 62
     0
 48
50.0
370
    -2
100
AcDbLine
 10
8599.695515348528
 20
4683.11280590326
 30
0.0
 11
8599.695515348528
 21
4935.654391161499
 31
0.0
  0
LINE
  5
13A0C
330
134A3
100
AcDbEntity
  8
寸法
 62
     0
 48
50.0
370
    -2
100
AcDbLine
 10
8599.695515348528
 20
4875.654391161499
 30
0.0
 11
8499.695515348529
 21
4875.654391161499
 31
0.0
  0
LINE
  5
13A0D
330
134A3
100
AcDbEntity
  8
寸法
 62
     0
 48
50.0
370
    -2
100
AcDbLine
 10
8649.695515348529
 20
4875.654391161499
 30
0.0
 11
9069.228040817252
 21
4875.654391161499
 31
0.0
  0
LINE
  5
13A0E
330
134A3
100
AcDbEntity
  8
寸法
 62
     0
 48
50.0
370
    -2
100
AcDbLine
 10
8599.695515348528
 20
4875.654391161499
 30
0.0
 11
8649.695515348529
 21
4875.654391161499
 31
0.0
  0
INSERT
  5
13A0F
330
134A3
100
AcDbEntity
  8
寸法
 62
     0
 48
50.0
370
    -2
100
AcDbBlockReference
  2
_DOTSMALL
 10
8599.695515348528
 20
4875.654391161499
 30
0.0
 41
100.0
 42
100.0
 43
100.0
  0
INSERT
  5
13A10
330
134A3
100
AcDbEntity
  8
寸法
 62
     0
 48
50.0
370
    -2
100
AcDbBlockReference
  2
_DOTSMALL
 10
8649.695515348529
 20
4875.654391161499
 30
0.0
 41
100.0
 42
100.0
 43
100.0
 50
180.0
  0
MTEXT
  5
13A11
330
134A3
100
AcDbEntity
  8
寸法
 62
     7
 48
50.0
100
AcDbMText
 10
8963.180796722765
 20
4975.654391161499
 30
0.0
 40
120.0
 41
0.0
 71
     5
 72
     1
  1
\A1;50
  7
STYLE1
 73
     1
 44
1.0
1001
ACAD
1000
MTEXTBEGIN
1070
    73
1070
     1
1070
    44
1040
1.0
1070
    74
1070
     0
1000
MTEXTEND
  0
POINT
  5
13A12
330
134A3
100
AcDbEntity
  8
DEFPOINTS
 62
     0
 48
50.0
100
AcDbPoint
 10
8649.695515348529
 20
4663.112805903258
 30
0.0
  0
POINT
  5
13A13
330
134A3
100
AcDbEntity
  8
DEFPOINTS
 62
     0
 48
50.0
100
AcDbPoint
 10
8599.695515348528
 20
4663.112805903259
 30
0.0
  0
POINT
  5
13A14
330
134A3
100
AcDbEntity
  8
DEFPOINTS
 62
     0
 48
50.0
100
AcDbPoint
 10
8599.695515348528
 20
4875.654391161499
 30
0.0
  0
ENDBLK
  5
134B0
330
134A3
100
AcDbEntity
  8
0
 48
50.0
100
AcDbBlockEnd
  0
BLOCK
  5
134BC
330
134B1
100
AcDbEntity
  8
0
 48
50.0
100
AcDbBlockBegin
  2
*D19
 70
     1
 10
0.0
 20
0.0
 30
0.0
  3
*D19
  1

  0
LINE
  5
13BB3
330
134B1
100
AcDbEntity
  8
寸法
 62
     0
 48
50.0
370
    -2
100
AcDbLine
 10
11421.49956448263
 20
4662.410512972917
 30
0.0
 11
10805.56512537736
 21
4680.124663247247
 31
0.0
  0
LINE
  5
13BB4
330
134B1
100
AcDbEntity
  8
寸法
 62
     0
 48
50.0
370
    -2
100
AcDbLine
 10
11417.44610892601
 20
4521.468789207206
 30
0.0
 11
10801.51166982073
 21
4539.182939481536
 31
0.0
  0
LINE
  5
13BB5
330
134B1
100
AcDbEntity
  8
寸法
 62
     0
 48
50.0
370
    -2
100
AcDbLine
 10
10861.48687142316
 20
4537.458064776588
 30
0.0
 11
10865.54032697979
 21
4678.399788542299
 31
0.0
  0
LINE
  5
13BB6
330
134B1
100
AcDbEntity
  8
寸法
 62
     0
 48
50.0
370
    -2
100
AcDbLine
 10
10865.54032697979
 20
4678.399788542299
 30
0.0
 11
10875.88957520947
 21
5038.250998156886
 31
0.0
  0
INSERT
  5
13BB7
330
134B1
100
AcDbEntity
  8
寸法
 62
     0
 48
50.0
370
    -2
100
AcDbBlockReference
  2
_DOTSMALL
 10
10861.48687142316
 20
4537.458064776588
 30
0.0
 41
100.0
 42
100.0
 43
100.0
 50
268.3526390256378
  0
INSERT
  5
13BB8
330
134B1
100
AcDbEntity
  8
寸法
 62
     0
 48
50.0
370
    -2
100
AcDbBlockReference
  2
_DOTSMALL
 10
10865.54032697979
 20
4678.399788542299
 30
0.0
 41
100.0
 42
100.0
 43
100.0
 50
88.35263902563776
  0
MTEXT
  5
13BB9
330
134B1
100
AcDbEntity
  8
寸法
 62
     7
 48
50.0
100
AcDbMText
 10
10772.1936773447
 20
4911.179519193199
 30
0.0
 40
120.0
 41
0.0
 71
     5
 72
     1
  1
\A1;141
  7
STYLE1
 11
0.0287479117491237
 21
0.9995866933738488
 31
0.0
 73
     1
 44
1.0
1001
ACAD
1000
MTEXTBEGIN
1070
    73
1070
     1
1070
    44
1040
1.0
1070
    74
1070
     0
1000
MTEXTEND
  0
POINT
  5
13BBA
330
134B1
100
AcDbEntity
  8
DEFPOINTS
 62
     0
 48
50.0
100
AcDbPoint
 10
11441.49129835011
 20
4661.835554737935
 30
0.0
  0
POINT
  5
13BBB
330
134B1
100
AcDbEntity
  8
DEFPOINTS
 62
     0
 48
50.0
100
AcDbPoint
 10
11437.43784279348
 20
4520.893830972223
 30
0.0
  0
POINT
  5
13BBC
330
134B1
100
AcDbEntity
  8
DEFPOINTS
 62
     0
 48
50.0
100
AcDbPoint
 10
10861.48687142316
 20
4537.458064776588
 30
0.0
  0
ENDBLK
  5
134BD
330
134B1
100
AcDbEntity
  8
0
 48
50.0
100
AcDbBlockEnd
  0
BLOCK
  5
134C9
330
134BE
100
AcDbEntity
  8
0
 48
50.0
100
AcDbBlockBegin
  2
*D20
 70
     1
 10
0.0
 20
0.0
 30
0.0
  3
*D20
  1

  0
LINE
  5
13BA9
330
134BE
100
AcDbEntity
  8
寸法
 62
     0
 48
50.0
370
    -2
100
AcDbLine
 10
14112.09527819153
 20
4629.92348551491
 30
0.0
 11
14112.09527819153
 21
5121.770259482562
 31
0.0
  0
LINE
  5
13BAA
330
134BE
100
AcDbEntity
  8
寸法
 62
     0
 48
50.0
370
    -2
100
AcDbLine
 10
14192.09527819153
 20
4628.112805903258
 30
0.0
 11
14192.09527819153
 21
5121.770259482562
 31
0.0
  0
LINE
  5
13BAB
330
134BE
100
AcDbEntity
  8
寸法
 62
     0
 48
50.0
370
    -2
100
AcDbLine
 10
14112.09527819153
 20
5061.770259482561
 30
0.0
 11
14192.09527819153
 21
5061.770259482561
 31
0.0
  0
LINE
  5
13BAC
330
134BE
100
AcDbEntity
  8
寸法
 62
     0
 48
50.0
370
    -2
100
AcDbLine
 10
14192.09527819153
 20
5061.770259482561
 30
0.0
 11
14504.18976638051
 21
5061.770259482561
 31
0.0
  0
INSERT
  5
13BAD
330
134BE
100
AcDbEntity
  8
寸法
 62
     0
 48
50.0
370
    -2
100
AcDbBlockReference
  2
_DOTSMALL
 10
14112.09527819153
 20
5061.770259482561
 30
0.0
 41
100.0
 42
100.0
 43
100.0
 50
180.0
  0
INSERT
  5
13BAE
330
134BE
100
AcDbEntity
  8
寸法
 62
     0
 48
50.0
370
    -2
100
AcDbBlockReference
  2
_DOTSMALL
 10
14192.09527819153
 20
5061.770259482561
 30
0.0
 41
100.0
 42
100.0
 43
100.0
  0
MTEXT
  5
13BAF
330
134BE
100
AcDbEntity
  8
寸法
 62
     7
 48
50.0
100
AcDbMText
 10
14398.14252228602
 20
5161.770259482562
 30
0.0
 40
120.0
 41
0.0
 71
     5
 72
     1
  1
\A1;80
  7
STYLE1
 73
     1
 44
1.0
1001
ACAD
1000
MTEXTBEGIN
1070
    73
1070
     1
1070
    44
1040
1.0
1070
    74
1070
     0
1000
MTEXTEND
  0
POINT
  5
13BB0
330
134BE
100
AcDbEntity
  8
DEFPOINTS
 62
     0
 48
50.0
100
AcDbPoint
 10
14112.09527819153
 20
4609.923485514911
 30
0.0
  0
POINT
  5
13BB1
330
134BE
100
AcDbEntity
  8
DEFPOINTS
 62
     0
 48
50.0
100
AcDbPoint
 10
14192.09527819153
 20
4608.112805903258
 30
0.0
  0
POINT
  5
13BB2
330
134BE
100
AcDbEntity
  8
DEFPOINTS
 62
     0
 48
50.0
100
AcDbPoint
 10
14192.09527819153
 20
5061.770259482561
 30
0.0
  0
ENDBLK
  5
134CA
330
134BE
100
AcDbEntity
  8
0
 48
50.0
100
AcDbBlockEnd
  0
BLOCK
  5
134D5
330
134CB
100
AcDbEntity
  8
0
 48
50.0
100
AcDbBlockBegin
  2
*D21
 70
     1
 10
0.0
 20
0.0
 30
0.0
  3
*D21
  1

  0
LINE
  5
13BA0
330
134CB
100
AcDbEntity
  8
寸法
 62
     0
 48
50.0
370
    -2
100
AcDbLine
 10
14192.09527819153
 20
4628.112805903258
 30
0.0
 11
14192.09527819153
 21
5341.980946214178
 31
0.0
  0
LINE
  5
13BA1
330
134CB
100
AcDbEntity
  8
寸法
 62
     0
 48
50.0
370
    -2
100
AcDbLine
 10
11422.09527819153
 20
4683.11280590326
 30
0.0
 11
11422.09527819153
 21
5341.980946214178
 31
0.0
  0
LINE
  5
13BA2
330
134CB
100
AcDbEntity
  8
寸法
 62
     0
 48
50.0
370
    -2
100
AcDbLine
 10
14192.09527819153
 20
5281.980946214178
 30
0.0
 11
11422.09527819153
 21
5281.980946214178
 31
0.0
  0
INSERT
  5
13BA3
330
134CB
100
AcDbEntity
  8
寸法
 62
     0
 48
50.0
370
    -2
100
AcDbBlockReference
  2
_DOTSMALL
 10
14192.09527819153
 20
5281.980946214178
 30
0.0
 41
100.0
 42
100.0
 43
100.0
  0
INSERT
  5
13BA4
330
134CB
100
AcDbEntity
  8
寸法
 62
     0
 48
50.0
370
    -2
100
AcDbBlockReference
  2
_DOTSMALL
 10
11422.09527819153
 20
5281.980946214178
 30
0.0
 41
100.0
 42
100.0
 43
100.0
 50
180.0
  0
MTEXT
  5
13BA5
330
134CB
100
AcDbEntity
  8
寸法
 62
     7
 48
50.0
100
AcDbMText
 10
12825.45420307891
 20
5381.992757237799
 30
0.0
 40
120.0
 41
0.0
 71
     5
 72
     1
  1
\A1;2770
  7
STYLE1
 73
     1
 44
1.0
1001
ACAD
1000
MTEXTBEGIN
1070
    73
1070
     1
1070
    44
1040
1.0
1070
    74
1070
     0
1000
MTEXTEND
  0
POINT
  5
13BA6
330
134CB
100
AcDbEntity
  8
DEFPOINTS
 62
     0
 48
50.0
100
AcDbPoint
 10
14192.09527819153
 20
4608.112805903258
 30
0.0
  0
POINT
  5
13BA7
330
134CB
100
AcDbEntity
  8
DEFPOINTS
 62
     0
 48
50.0
100
AcDbPoint
 10
11422.09527819153
 20
4663.112805903261
 30
0.0
  0
POINT
  5
13BA8
330
134CB
100
AcDbEntity
  8
DEFPOINTS
 62
     0
 48
50.0
100
AcDbPoint
 10
11422.09527819153
 20
5281.980946214178
 30
0.0
  0
ENDBLK
  5
134D6
330
134CB
100
AcDbEntity
  8
0
 48
50.0
100
AcDbBlockEnd
  0
BLOCK
  5
134E3
330
134D7
100
AcDbEntity
  8
0
 48
50.0
100
AcDbBlockBegin
  2
*D22
 70
     1
 10
0.0
 20
0.0
 30
0.0
  3
*D22
  1

  0
LINE
  5
13B95
330
134D7
100
AcDbEntity
  8
寸法
 62
     0
 48
50.0
370
    -2
100
AcDbLine
 10
11482.09527819153
 20
4679.114424026233
 30
0.0
 11
11482.09527819153
 21
5121.77025948256
 31
0.0
  0
LINE
  5
13B96
330
134D7
100
AcDbEntity
  8
寸法
 62
     0
 48
50.0
370
    -2
100
AcDbLine
 10
11422.09527819153
 20
4683.11280590326
 30
0.0
 11
11422.09527819153
 21
5121.77025948256
 31
0.0
  0
LINE
  5
13B97
330
134D7
100
AcDbEntity
  8
寸法
 62
     0
 48
50.0
370
    -2
100
AcDbLine
 10
11482.09527819153
 20
5061.77025948256
 30
0.0
 11
11582.09527819153
 21
5061.77025948256
 31
0.0
  0
LINE
  5
13B98
330
134D7
100
AcDbEntity
  8
寸法
 62
     0
 48
50.0
370
    -2
100
AcDbLine
 10
11422.09527819153
 20
5061.77025948256
 30
0.0
 11
11002.81968764035
 21
5061.77025948256
 31
0.0
  0
LINE
  5
13B99
330
134D7
100
AcDbEntity
  8
寸法
 62
     0
 48
50.0
370
    -2
100
AcDbLine
 10
11482.09527819153
 20
5061.77025948256
 30
0.0
 11
11422.09527819153
 21
5061.77025948256
 31
0.0
  0
INSERT
  5
13B9A
330
134D7
100
AcDbEntity
  8
寸法
 62
     0
 48
50.0
370
    -2
100
AcDbBlockReference
  2
_DOTSMALL
 10
11482.09527819153
 20
5061.77025948256
 30
0.0
 41
100.0
 42
100.0
 43
100.0
 50
180.0
  0
INSERT
  5
13B9B
330
134D7
100
AcDbEntity
  8
寸法
 62
     0
 48
50.0
370
    -2
100
AcDbBlockReference
  2
_DOTSMALL
 10
11422.09527819153
 20
5061.77025948256
 30
0.0
 41
100.0
 42
100.0
 43
100.0
  0
MTEXT
  5
13B9C
330
134D7
100
AcDbEntity
  8
寸法
 62
     7
 48
50.0
100
AcDbMText
 10
11112.45748291594
 20
5161.770259482561
 30
0.0
 40
120.0
 41
0.0
 71
     5
 72
     1
  1
\A1;60
  7
STYLE1
 73
     1
 44
1.0
1001
ACAD
1000
MTEXTBEGIN
1070
    73
1070
     1
1070
    44
1040
1.0
1070
    74
1070
     0
1000
MTEXTEND
  0
POINT
  5
13B9D
330
134D7
100
AcDbEntity
  8
DEFPOINTS
 62
     0
 48
50.0
100
AcDbPoint
 10
11482.09527819153
 20
4659.114424026233
 30
0.0
  0
POINT
  5
13B9E
330
134D7
100
AcDbEntity
  8
DEFPOINTS
 62
     0
 48
50.0
100
AcDbPoint
 10
11422.09527819153
 20
4663.112805903261
 30
0.0
  0
POINT
  5
13B9F
330
134D7
100
AcDbEntity
  8
DEFPOINTS
 62
     0
 48
50.0
100
AcDbPoint
 10
11422.09527819153
 20
5061.77025948256
 30
0.0
  0
ENDBLK
  5
134E4
330
134D7
100
AcDbEntity
  8
0
 48
50.0
100
AcDbBlockEnd
  0
BLOCK
  5
134EF
330
134E5
100
AcDbEntity
  8
0
 48
50.0
100
AcDbBlockBegin
  2
*D23
 70
     1
 10
0.0
 20
0.0
 30
0.0
  3
*D23
  1

  0
LINE
  5
13B8C
330
134E5
100
AcDbEntity
  8
寸法
 62
     0
 48
50.0
370
    -2
100
AcDbLine
 10
14112.09527819153
 20
4629.92348551491
 30
0.0
 11
14112.09527819153
 21
5121.770259482562
 31
0.0
  0
LINE
  5
13B8D
330
134E5
100
AcDbEntity
  8
寸法
 62
     0
 48
50.0
370
    -2
100
AcDbLine
 10
11482.09527819153
 20
4679.114424026233
 30
0.0
 11
11482.09527819153
 21
5121.770259482562
 31
0.0
  0
LINE
  5
13B8E
330
134E5
100
AcDbEntity
  8
寸法
 62
     0
 48
50.0
370
    -2
100
AcDbLine
 10
14112.09527819153
 20
5061.770259482561
 30
0.0
 11
11482.09527819153
 21
5061.770259482561
 31
0.0
  0
INSERT
  5
13B8F
330
134E5
100
AcDbEntity
  8
寸法
 62
     0
 48
50.0
370
    -2
100
AcDbBlockReference
  2
_DOTSMALL
 10
14112.09527819153
 20
5061.770259482561
 30
0.0
 41
100.0
 42
100.0
 43
100.0
  0
INSERT
  5
13B90
330
134E5
100
AcDbEntity
  8
寸法
 62
     0
 48
50.0
370
    -2
100
AcDbBlockReference
  2
_DOTSMALL
 10
11482.09527819153
 20
5061.770259482561
 30
0.0
 41
100.0
 42
100.0
 43
100.0
 50
180.0
  0
MTEXT
  5
13B91
330
134E5
100
AcDbEntity
  8
寸法
 62
     7
 48
50.0
100
AcDbMText
 10
12836.86546922073
 20
5161.782070506183
 30
0.0
 40
120.0
 41
0.0
 71
     5
 72
     1
  1
\A1;柱外寸法2630
  7
STYLE1
 73
     1
 44
1.0
1001
ACAD
1000
MTEXTBEGIN
1070
    73
1070
     1
1070
    44
1040
1.0
1070
    74
1070
     0
1000
MTEXTEND
  0
POINT
  5
13B92
330
134E5
100
AcDbEntity
  8
DEFPOINTS
 62
     0
 48
50.0
100
AcDbPoint
 10
14112.09527819153
 20
4609.923485514911
 30
0.0
  0
POINT
  5
13B93
330
134E5
100
AcDbEntity
  8
DEFPOINTS
 62
     0
 48
50.0
100
AcDbPoint
 10
11482.09527819153
 20
4659.114424026233
 30
0.0
  0
POINT
  5
13B94
330
134E5
100
AcDbEntity
  8
DEFPOINTS
 62
     0
 48
50.0
100
AcDbPoint
 10
11482.09527819153
 20
5061.770259482561
 30
0.0
  0
ENDBLK
  5
134F0
330
134E5
100
AcDbEntity
  8
0
 48
50.0
100
AcDbBlockEnd
  0
BLOCK
  5
134FD
330
134F1
100
AcDbEntity
  8
0
 48
50.0
100
AcDbBlockBegin
  2
*D24
 70
     1
 10
0.0
 20
0.0
 30
0.0
  3
*D24
  1

  0
LINE
  5
13B81
330
134F1
100
AcDbEntity
  8
寸法
 62
     0
 48
50.0
370
    -2
100
AcDbLine
 10
11462.09527819153
 20
2338.112805903256
 30
0.0
 11
10578.34514900827
 21
2338.112805903257
 31
0.0
  0
LINE
  5
13B82
330
134F1
100
AcDbEntity
  8
寸法
 62
     0
 48
50.0
370
    -2
100
AcDbLine
 10
11407.09527819153
 20
2288.112805903256
 30
0.0
 11
10578.34514900827
 21
2288.112805903256
 31
0.0
  0
LINE
  5
13B83
330
134F1
100
AcDbEntity
  8
寸法
 62
     0
 48
50.0
370
    -2
100
AcDbLine
 10
10638.34514900827
 20
2338.112805903257
 30
0.0
 11
10638.34514900827
 21
2438.112805903257
 31
0.0
  0
LINE
  5
13B84
330
134F1
100
AcDbEntity
  8
寸法
 62
     0
 48
50.0
370
    -2
100
AcDbLine
 10
10638.34514900827
 20
2288.112805903256
 30
0.0
 11
10638.34514900827
 21
1876.018317714277
 31
0.0
  0
LINE
  5
13B85
330
134F1
100
AcDbEntity
  8
寸法
 62
     0
 48
50.0
370
    -2
100
AcDbLine
 10
10638.34514900827
 20
2338.112805903257
 30
0.0
 11
10638.34514900827
 21
2288.112805903256
 31
0.0
  0
INSERT
  5
13B86
330
134F1
100
AcDbEntity
  8
寸法
 62
     0
 48
50.0
370
    -2
100
AcDbBlockReference
  2
_DOTSMALL
 10
10638.34514900827
 20
2338.112805903257
 30
0.0
 41
100.0
 42
100.0
 43
100.0
 50
270.0
  0
INSERT
  5
13B87
330
134F1
100
AcDbEntity
  8
寸法
 62
     0
 48
50.0
370
    -2
100
AcDbBlockReference
  2
_DOTSMALL
 10
10638.34514900827
 20
2288.112805903256
 30
0.0
 41
100.0
 42
100.0
 43
100.0
 50
90.0
  0
MTEXT
  5
13B88
330
134F1
100
AcDbEntity
  8
寸法
 62
     7
 48
50.0
100
AcDbMText
 10
10538.34514900827
 20
1982.065561808767
 30
0.0
 40
120.0
 41
0.0
 71
     5
 72
     1
  1
\A1;50
  7
STYLE1
 11
0.0000000000000001
 21
1.0
 31
0.0
 73
     1
 44
1.0
1001
ACAD
1000
MTEXTBEGIN
1070
    73
1070
     1
1070
    44
1040
1.0
1070
    74
1070
     0
1000
MTEXTEND
  0
POINT
  5
13B89
330
134F1
100
AcDbEntity
  8
DEFPOINTS
 62
     0
 48
50.0
100
AcDbPoint
 10
11482.09527819153
 20
2338.112805903256
 30
0.0
  0
POINT
  5
13B8A
330
134F1
100
AcDbEntity
  8
DEFPOINTS
 62
     0
 48
50.0
100
AcDbPoint
 10
11427.09527819153
 20
2288.112805903256
 30
0.0
  0
POINT
  5
13B8B
330
134F1
100
AcDbEntity
  8
DEFPOINTS
 62
     0
 48
50.0
100
AcDbPoint
 10
10638.34514900827
 20
2288.112805903256
 30
0.0
  0
ENDBLK
  5
134FE
330
134F1
100
AcDbEntity
  8
0
 48
50.0
100
AcDbBlockEnd
  0
BLOCK
  5
13509
330
134FF
100
AcDbEntity
  8
0
 48
50.0
100
AcDbBlockBegin
  2
*D25
 70
     1
 10
0.0
 20
0.0
 30
0.0
  3
*D25
  1

  0
LINE
  5
13B78
330
134FF
100
AcDbEntity
  8
寸法
 62
     0
 48
50.0
370
    -2
100
AcDbLine
 10
14132.09527819154
 20
2288.112805903257
 30
0.0
 11
14877.02243616366
 21
2288.112805903257
 31
0.0
  0
LINE
  5
13B79
330
134FF
100
AcDbEntity
  8
寸法
 62
     0
 48
50.0
370
    -2
100
AcDbLine
 10
14212.09527819153
 20
4608.112805903257
 30
0.0
 11
14877.02243616366
 21
4608.112805903256
 31
0.0
  0
LINE
  5
13B7A
330
134FF
100
AcDbEntity
  8
寸法
 62
     0
 48
50.0
370
    -2
100
AcDbLine
 10
14817.02243616366
 20
2288.112805903257
 30
0.0
 11
14817.02243616366
 21
4608.112805903256
 31
0.0
  0
INSERT
  5
13B7B
330
134FF
100
AcDbEntity
  8
寸法
 62
     0
 48
50.0
370
    -2
100
AcDbBlockReference
  2
_DOTSMALL
 10
14817.02243616366
 20
2288.112805903257
 30
0.0
 41
100.0
 42
100.0
 43
100.0
 50
270.0
  0
INSERT
  5
13B7C
330
134FF
100
AcDbEntity
  8
寸法
 62
     0
 48
50.0
370
    -2
100
AcDbBlockReference
  2
_DOTSMALL
 10
14817.02243616366
 20
4608.112805903256
 30
0.0
 41
100.0
 42
100.0
 43
100.0
 50
90.0
  0
MTEXT
  5
13B7D
330
134FF
100
AcDbEntity
  8
寸法
 62
     7
 48
50.0
100
AcDbMText
 10
14717.01062514004
 20
3448.112805903259
 30
0.0
 40
120.0
 41
0.0
 71
     5
 72
     1
  1
\A1;2320
  7
STYLE1
 11
0.0000000000000001
 21
1.0
 31
0.0
 73
     1
 44
1.0
1001
ACAD
1000
MTEXTBEGIN
1070
    73
1070
     1
1070
    44
1040
1.0
1070
    74
1070
     0
1000
MTEXTEND
  0
POINT
  5
13B7E
330
134FF
100
AcDbEntity
  8
DEFPOINTS
 62
     0
 48
50.0
100
AcDbPoint
 10
14112.09527819154
 20
2288.112805903257
 30
0.0
  0
POINT
  5
13B7F
330
134FF
100
AcDbEntity
  8
DEFPOINTS
 62
     0
 48
50.0
100
AcDbPoint
 10
14192.09527819153
 20
4608.112805903257
 30
0.0
  0
POINT
  5
13B80
330
134FF
100
AcDbEntity
  8
DEFPOINTS
 62
     0
 48
50.0
100
AcDbPoint
 10
14817.02243616366
 20
4608.112805903256
 30
0.0
  0
ENDBLK
  5
1350A
330
134FF
100
AcDbEntity
  8
0
 48
50.0
100
AcDbBlockEnd
  0
BLOCK
  5
13515
330
1350B
100
AcDbEntity
  8
0
 48
50.0
100
AcDbBlockBegin
  2
*D26
 70
     1
 10
0.0
 20
0.0
 30
0.0
  3
*D26
  1

  0
LINE
  5
13B6F
330
1350B
100
AcDbEntity
  8
寸法
 62
     0
 48
50.0
370
    -2
100
AcDbLine
 10
11462.09527819153
 20
2288.112805903252
 30
0.0
 11
10278.34514900827
 21
2288.112805903252
 31
0.0
  0
LINE
  5
13B70
330
1350B
100
AcDbEntity
  8
寸法
 62
     0
 48
50.0
370
    -2
100
AcDbLine
 10
11402.09527819153
 20
4663.112805903256
 30
0.0
 11
10278.34514900827
 21
4663.112805903256
 31
0.0
  0
LINE
  5
13B71
330
1350B
100
AcDbEntity
  8
寸法
 62
     0
 48
50.0
370
    -2
100
AcDbLine
 10
10338.34514900827
 20
2288.112805903252
 30
0.0
 11
10338.34514900827
 21
4663.112805903256
 31
0.0
  0
INSERT
  5
13B72
330
1350B
100
AcDbEntity
  8
寸法
 62
     0
 48
50.0
370
    -2
100
AcDbBlockReference
  2
_DOTSMALL
 10
10338.34514900827
 20
2288.112805903252
 30
0.0
 41
100.0
 42
100.0
 43
100.0
 50
270.0
  0
INSERT
  5
13B73
330
1350B
100
AcDbEntity
  8
寸法
 62
     0
 48
50.0
370
    -2
100
AcDbBlockReference
  2
_DOTSMALL
 10
10338.34514900827
 20
4663.112805903256
 30
0.0
 41
100.0
 42
100.0
 43
100.0
 50
90.0
  0
MTEXT
  5
13B74
330
1350B
100
AcDbEntity
  8
寸法
 62
     7
 48
50.0
100
AcDbMText
 10
10238.33333798465
 20
3475.612805903256
 30
0.0
 40
120.0
 41
0.0
 71
     5
 72
     1
  1
\A1;2375
  7
STYLE1
 11
0.0000000000000001
 21
1.0
 31
0.0
 73
     1
 44
1.0
1001
ACAD
1000
MTEXTBEGIN
1070
    73
1070
     1
1070
    44
1040
1.0
1070
    74
1070
     0
1000
MTEXTEND
  0
POINT
  5
13B75
330
1350B
100
AcDbEntity
  8
DEFPOINTS
 62
     0
 48
50.0
100
AcDbPoint
 10
11482.09527819153
 20
2288.112805903252
 30
0.0
  0
POINT
  5
13B76
330
1350B
100
AcDbEntity
  8
DEFPOINTS
 62
     0
 48
50.0
100
AcDbPoint
 10
11422.09527819153
 20
4663.112805903256
 30
0.0
  0
POINT
  5
13B77
330
1350B
100
AcDbEntity
  8
DEFPOINTS
 62
     0
 48
50.0
100
AcDbPoint
 10
10338.34514900827
 20
4663.112805903256
 30
0.0
  0
ENDBLK
  5
13516
330
1350B
100
AcDbEntity
  8
0
 48
50.0
100
AcDbBlockEnd
  0
BLOCK
  5
13521
330
13517
100
AcDbEntity
  8
0
 48
50.0
100
AcDbBlockBegin
  2
*D27
 70
     1
 10
0.0
 20
0.0
 30
0.0
  3
*D27
  1

  0
LINE
  5
13B66
330
13517
100
AcDbEntity
  8
寸法
 62
     0
 48
50.0
370
    -2
100
AcDbLine
 10
11462.09527819153
 20
4428.112805903253
 30
0.0
 11
10578.34514900827
 21
4428.112805903253
 31
0.0
  0
LINE
  5
13B67
330
13517
100
AcDbEntity
  8
寸法
 62
     0
 48
50.0
370
    -2
100
AcDbLine
 10
11462.09527819153
 20
2338.112805903252
 30
0.0
 11
10578.34514900827
 21
2338.112805903252
 31
0.0
  0
LINE
  5
13B68
330
13517
100
AcDbEntity
  8
寸法
 62
     0
 48
50.0
370
    -2
100
AcDbLine
 10
10638.34514900827
 20
4428.112805903253
 30
0.0
 11
10638.34514900827
 21
2338.112805903252
 31
0.0
  0
INSERT
  5
13B69
330
13517
100
AcDbEntity
  8
寸法
 62
     0
 48
50.0
370
    -2
100
AcDbBlockReference
  2
_DOTSMALL
 10
10638.34514900827
 20
4428.112805903253
 30
0.0
 41
100.0
 42
100.0
 43
100.0
 50
90.0
  0
INSERT
  5
13B6A
330
13517
100
AcDbEntity
  8
寸法
 62
     0
 48
50.0
370
    -2
100
AcDbBlockReference
  2
_DOTSMALL
 10
10638.34514900827
 20
2338.112805903252
 30
0.0
 41
100.0
 42
100.0
 43
100.0
 50
270.0
  0
MTEXT
  5
13B6B
330
13517
100
AcDbEntity
  8
寸法
 62
     7
 48
50.0
100
AcDbMText
 10
10538.33333798465
 20
3383.112805903254
 30
0.0
 40
120.0
 41
0.0
 71
     5
 72
     1
  1
\A1;2090
  7
STYLE1
 11
0.0000000000000001
 21
1.0
 31
0.0
 73
     1
 44
1.0
1001
ACAD
1000
MTEXTBEGIN
1070
    73
1070
     1
1070
    44
1040
1.0
1070
    74
1070
     0
1000
MTEXTEND
  0
POINT
  5
13B6C
330
13517
100
AcDbEntity
  8
DEFPOINTS
 62
     0
 48
50.0
100
AcDbPoint
 10
11482.09527819153
 20
4428.112805903253
 30
0.0
  0
POINT
  5
13B6D
330
13517
100
AcDbEntity
  8
DEFPOINTS
 62
     0
 48
50.0
100
AcDbPoint
 10
11482.09527819153
 20
2338.112805903252
 30
0.0
  0
POINT
  5
13B6E
330
13517
100
AcDbEntity
  8
DEFPOINTS
 62
     0
 48
50.0
100
AcDbPoint
 10
10638.34514900827
 20
2338.112805903252
 30
0.0
  0
ENDBLK
  5
13522
330
13517
100
AcDbEntity
  8
0
 48
50.0
100
AcDbBlockEnd
  0
BLOCK
  5
1352D
330
13523
100
AcDbEntity
  8
0
 48
50.0
100
AcDbBlockBegin
  2
*D28
 70
     1
 10
0.0
 20
0.0
 30
0.0
  3
*D28
  1

  0
LINE
  5
13B5D
330
13523
100
AcDbEntity
  8
寸法
 62
     0
 48
50.0
370
    -2
100
AcDbLine
 10
11385.09527819153
 20
4379.112805903257
 30
0.0
 11
10897.18663679428
 21
4379.112805903257
 31
0.0
  0
LINE
  5
13B5E
330
13523
100
AcDbEntity
  8
寸法
 62
     0
 48
50.0
370
    -2
100
AcDbLine
 10
11385.09527819153
 20
2354.112805903256
 30
0.0
 11
10897.18663679428
 21
2354.112805903257
 31
0.0
  0
LINE
  5
13B5F
330
13523
100
AcDbEntity
  8
寸法
 62
     0
 48
50.0
370
    -2
100
AcDbLine
 10
10937.18663679428
 20
4359.112805903256
 30
0.0
 11
10937.18663679428
 21
2374.112805903257
 31
0.0
  0
INSERT
  5
13B60
330
13523
100
AcDbEntity
  8
寸法
 62
     0
 48
50.0
370
    -2
100
AcDbBlockReference
  2
_DOT
 10
10937.18663679428
 20
4379.112805903257
 30
0.0
 41
20.0
 42
20.0
 43
20.0
 50
90.0
  0
INSERT
  5
13B61
330
13523
100
AcDbEntity
  8
寸法
 62
     0
 48
50.0
370
    -2
100
AcDbBlockReference
  2
_DOT
 10
10937.18663679428
 20
2354.112805903257
 30
0.0
 41
20.0
 42
20.0
 43
20.0
 50
270.0
  0
MTEXT
  5
13B62
330
13523
100
AcDbEntity
  8
寸法
 62
     7
 48
50.0
100
AcDbMText
 10
10845.17482577066
 20
3366.612805903259
 30
0.0
 40
120.0
 41
0.0
 71
     5
 72
     1
  1
\A1;有効開口部高サ2025
  7
STYLE1
 11
0.0000000000000001
 21
1.0
 31
0.0
 73
     1
 44
1.0
1001
ACAD
1000
MTEXTBEGIN
1070
    73
1070
     1
1070
    44
1040
1.0
1070
    74
1070
     0
1000
MTEXTEND
  0
POINT
  5
13B63
330
13523
100
AcDbEntity
  8
DEFPOINTS
 62
     0
 48
50.0
100
AcDbPoint
 10
11405.09527819153
 20
4379.112805903257
 30
0.0
  0
POINT
  5
13B64
330
13523
100
AcDbEntity
  8
DEFPOINTS
 62
     0
 48
50.0
100
AcDbPoint
 10
11405.09527819153
 20
2354.112805903256
 30
0.0
  0
POINT
  5
13B65
330
13523
100
AcDbEntity
  8
DEFPOINTS
 62
     0
 48
50.0
100
AcDbPoint
 10
10937.18663679428
 20
2354.112805903257
 30
0.0
  0
ENDBLK
  5
1352E
330
13523
100
AcDbEntity
  8
0
 48
50.0
100
AcDbBlockEnd
  0
BLOCK
  5
13D8F
330
13D85
100
AcDbEntity
  8
0
 48
50.0
100
AcDbBlockBegin
  2
*D29
 70
     1
 10
0.0
 20
0.0
 30
0.0
  3
*D29
  1

  0
LINE
  5
142AB
330
13D85
100
AcDbEntity
  8
寸法
 62
     0
 48
50.0
370
    -2
100
AcDbLine
 10
2566.695515348526
 20
7599.227492243646
 30
0.0
 11
2566.695515348526
 21
6909.317003223136
 31
0.0
  0
LINE
  5
142AC
330
13D85
100
AcDbEntity
  8
寸法
 62
     0
 48
50.0
370
    -2
100
AcDbLine
 10
3832.695515348526
 20
7599.227492243646
 30
0.0
 11
3832.695515348526
 21
6909.317003223136
 31
0.0
  0
LINE
  5
142AD
330
13D85
100
AcDbEntity
  8
寸法
 62
     0
 48
50.0
370
    -2
100
AcDbLine
 10
2586.695515348526
 20
6949.317003223136
 30
0.0
 11
3812.695515348526
 21
6949.317003223136
 31
0.0
  0
INSERT
  5
142AE
330
13D85
100
AcDbEntity
  8
寸法
 62
     0
 48
50.0
370
    -2
100
AcDbBlockReference
  2
_DOT
 10
2566.695515348526
 20
6949.317003223136
 30
0.0
 41
20.0
 42
20.0
 43
20.0
 50
180.0
  0
INSERT
  5
142AF
330
13D85
100
AcDbEntity
  8
寸法
 62
     0
 48
50.0
370
    -2
100
AcDbBlockReference
  2
_DOT
 10
3832.695515348526
 20
6949.317003223136
 30
0.0
 41
20.0
 42
20.0
 43
20.0
  0
MTEXT
  5
142B0
330
13D85
100
AcDbEntity
  8
寸法
 62
     7
 48
50.0
100
AcDbMText
 10
3224.405186261938
 20
7141.328814246758
 30
0.0
 40
120.0
 41
0.0
 71
     5
 72
     1
  1
\A1;有効開口部間口\P1266
  7
STYLE1
 73
     1
 44
1.0
1001
ACAD
1000
MTEXTBEGIN
1070
    73
1070
     1
1070
    44
1040
1.0
1070
    74
1070
     0
1000
MTEXTEND
  0
POINT
  5
142B1
330
13D85
100
AcDbEntity
  8
DEFPOINTS
 62
     0
 48
50.0
100
AcDbPoint
 10
2566.695515348526
 20
7619.227492243647
 30
0.0
  0
POINT
  5
142B2
330
13D85
100
AcDbEntity
  8
DEFPOINTS
 62
     0
 48
50.0
100
AcDbPoint
 10
3832.695515348526
 20
7619.227492243647
 30
0.0
  0
POINT
  5
142B3
330
13D85
100
AcDbEntity
  8
DEFPOINTS
 62
     0
 48
50.0
100
AcDbPoint
 10
3832.695515348526
 20
6949.317003223136
 30
0.0
  0
ENDBLK
  5
13D90
330
13D85
100
AcDbEntity
  8
0
 48
50.0
100
AcDbBlockEnd
  0
BLOCK
  5
14145
330
1413B
100
AcDbEntity
  8
0
 48
50.0
100
AcDbBlockBegin
  2
*D30
 70
     1
 10
0.0
 20
0.0
 30
0.0
  3
*D30
  1

  0
LINE
  5
1433A
330
1413B
100
AcDbEntity
  8
寸法
 62
     0
 48
50.0
370
    -2
100
AcDbLine
 10
2527.695515348526
 20
7599.227492243646
 30
0.0
 11
2527.695515348526
 21
6600.270484734392
 31
0.0
  0
LINE
  5
1433B
330
1413B
100
AcDbEntity
  8
寸法
 62
     0
 48
50.0
370
    -2
100
AcDbLine
 10
4681.695515348526
 20
7599.227492243646
 30
0.0
 11
4681.695515348526
 21
6600.270484734392
 31
0.0
  0
LINE
  5
1433C
330
1413B
100
AcDbEntity
  8
寸法
 62
     0
 48
50.0
370
    -2
100
AcDbLine
 10
2527.695515348526
 20
6660.270484734391
 30
0.0
 11
4681.695515348526
 21
6660.270484734391
 31
0.0
  0
INSERT
  5
1433D
330
1413B
100
AcDbEntity
  8
寸法
 62
     0
 48
50.0
370
    -2
100
AcDbBlockReference
  2
_DOTSMALL
 10
2527.695515348526
 20
6660.270484734391
 30
0.0
 41
100.0
 42
100.0
 43
100.0
 50
180.0
  0
INSERT
  5
1433E
330
1413B
100
AcDbEntity
  8
寸法
 62
     0
 48
50.0
370
    -2
100
AcDbBlockReference
  2
_DOTSMALL
 10
4681.695515348526
 20
6660.270484734391
 30
0.0
 41
100.0
 42
100.0
 43
100.0
  0
MTEXT
  5
1433F
330
1413B
100
AcDbEntity
  8
寸法
 62
     7
 48
50.0
100
AcDbMText
 10
3581.817515997383
 20
6760.282295758014
 30
0.0
 40
120.0
 41
0.0
 71
     5
 72
     1
  1
\A1;2154
  7
STYLE1
 73
     1
 44
1.0
1001
ACAD
1000
MTEXTBEGIN
1070
    73
1070
     1
1070
    44
1040
1.0
1070
    74
1070
     0
1000
MTEXTEND
  0
POINT
  5
14340
330
1413B
100
AcDbEntity
  8
DEFPOINTS
 62
     0
 48
50.0
100
AcDbPoint
 10
2527.695515348526
 20
7619.227492243647
 30
0.0
  0
POINT
  5
14341
330
1413B
100
AcDbEntity
  8
DEFPOINTS
 62
     0
 48
50.0
100
AcDbPoint
 10
4681.695515348526
 20
7619.227492243647
 30
0.0
  0
POINT
  5
14342
330
1413B
100
AcDbEntity
  8
DEFPOINTS
 62
     0
 48
50.0
100
AcDbPoint
 10
4681.695515348526
 20
6660.270484734391
 30
0.0
  0
ENDBLK
  5
14146
330
1413B
100
AcDbEntity
  8
0
 48
50.0
100
AcDbBlockEnd
  0
BLOCK
  5
14153
330
14147
100
AcDbEntity
  8
0
 48
50.0
100
AcDbBlockBegin
  2
*D31
 70
     1
 10
0.0
 20
0.0
 30
0.0
  3
*D31
  1

  0
LINE
  5
142A0
330
14147
100
AcDbEntity
  8
寸法
 62
     0
 48
50.0
370
    -2
100
AcDbLine
 10
1639.695515348526
 20
7696.227492243647
 30
0.0
 11
1288.376701444477
 21
7696.227492243647
 31
0.0
  0
LINE
  5
142A1
330
14147
100
AcDbEntity
  8
寸法
 62
     0
 48
50.0
370
    -2
100
AcDbLine
 10
2507.695515348526
 20
7621.227492243621
 30
0.0
 11
1288.376701444477
 21
7621.227492243622
 31
0.0
  0
LINE
  5
142A2
330
14147
100
AcDbEntity
  8
寸法
 62
     0
 48
50.0
370
    -2
100
AcDbLine
 10
1328.376701444477
 20
7716.227492243648
 30
0.0
 11
1328.376701444477
 21
7736.227492243648
 31
0.0
  0
LINE
  5
142A3
330
14147
100
AcDbEntity
  8
寸法
 62
     0
 48
50.0
370
    -2
100
AcDbLine
 10
1328.376701444477
 20
7601.227492243622
 30
0.0
 11
1328.376701444477
 21
7380.256929495143
 31
0.0
  0
LINE
  5
142A4
330
14147
100
AcDbEntity
  8
寸法
 62
     0
 48
50.0
370
    -2
100
AcDbLine
 10
1328.376701444477
 20
7696.227492243647
 30
0.0
 11
1328.376701444477
 21
7621.227492243622
 31
0.0
  0
INSERT
  5
142A5
330
14147
100
AcDbEntity
  8
寸法
 62
     0
 48
50.0
370
    -2
100
AcDbBlockReference
  2
_DOT
 10
1328.376701444477
 20
7696.227492243647
 30
0.0
 41
20.0
 42
20.0
 43
20.0
 50
270.0
  0
INSERT
  5
142A6
330
14147
100
AcDbEntity
  8
寸法
 62
     0
 48
50.0
370
    -2
100
AcDbBlockReference
  2
_DOT
 10
1328.376701444477
 20
7621.227492243622
 30
0.0
 41
20.0
 42
20.0
 43
20.0
 50
90.0
  0
MTEXT
  5
142A7
330
14147
100
AcDbEntity
  8
寸法
 62
     7
 48
50.0
100
AcDbMText
 10
1236.376701444475
 20
7480.742210869381
 30
0.0
 40
120.0
 41
0.0
 71
     5
 72
     1
  1
\A1;75
  7
STYLE1
 11
0.0000000000000001
 21
1.0
 31
0.0
 73
     1
 44
1.0
1001
ACAD
1000
MTEXTBEGIN
1070
    73
1070
     1
1070
    44
1040
1.0
1070
    74
1070
     0
1000
MTEXTEND
  0
POINT
  5
142A8
330
14147
100
AcDbEntity
  8
DEFPOINTS
 62
     0
 48
50.0
100
AcDbPoint
 10
1659.695515348526
 20
7696.227492243647
 30
0.0
  0
POINT
  5
142A9
330
14147
100
AcDbEntity
  8
DEFPOINTS
 62
     0
 48
50.0
100
AcDbPoint
 10
2527.695515348526
 20
7621.227492243621
 30
0.0
  0
POINT
  5
142AA
330
14147
100
AcDbEntity
  8
DEFPOINTS
 62
     0
 48
50.0
100
AcDbPoint
 10
1328.376701444477
 20
7621.227492243622
 30
0.0
  0
ENDBLK
  5
14154
330
14147
100
AcDbEntity
  8
0
 48
50.0
100
AcDbBlockEnd
  0
ENDSEC
  0
SECTION
  2
ENTITIES
  0
MTEXT
  5
763F
330
747D
100
AcDbEntity
  8
0
100
AcDbMText
 10
302.846345836809
 20
280.1983726409901
 30
0.0
 40
3.5
 41
5.323721266742722
 71
     1
 72
     5
  1

  7
MSMINCHO
 73
     1
 44
1.0
1001
ACAD
1000
MTEXTBEGIN
1070
    73
1070
     1
1070
    44
1040
1.0
1070
    74
1070
     0
1000
MTEXTEND
  0
INSERT
  5
F235
330
747D
100
AcDbEntity
  8
0
100
AcDbBlockReference
  2
作図枠S50
 10
0.0
 20
0.0
 30
0.0
 41
0.8
 42
0.8
 43
0.8
  0
LINE
  5
10B56
330
747D
100
AcDbEntity
  8
補助
  6
PHANTOM
 62
   230
 48
50.0
100
AcDbLine
 10
140.0
 20
0.0
 30
0.0
 11
139.9999999999995
 21
11409.6
 31
0.0
  0
LINE
  5
10B57
330
747D
100
AcDbEntity
  8
補助
  6
PHANTOM
 62
   230
 48
50.0
100
AcDbLine
 10
139.9999999999995
 20
11409.6
 30
0.0
 11
16307.2
 21
11409.6
 31
0.0
  0
LINE
  5
10B59
330
747D
100
AcDbEntity
  8
仕様書枠
  6
Continuous
 48
50.0
100
AcDbLine
 10
13107.2
 20
1200.0
 30
0.0
 11
13107.2
 21
-0.0000000000000729
 31
0.0
  0
LINE
  5
10B5C
330
747D
100
AcDbEntity
  8
仕様書枠
 48
50.0
100
AcDbLine
 10
16307.2
 20
1200.0
 30
0.0
 11
16307.2
 21
-0.0000000000000909
 31
0.0
  0
LINE
  5
10B5D
330
747D
100
AcDbEntity
  8
仕様書枠
 48
50.0
100
AcDbLine
 10
140.0
 20
0.0
 30
0.0
 11
16307.2
 21
-0.0000000000000909
 31
0.0
  0
LINE
  5
10B5E
330
747D
100
AcDbEntity
  8
補助
  6
PHANTOM
 62
   230
 48
50.0
100
AcDbLine
 10
16307.2
 20
11409.6
 30
0.0
 11
16307.2
 21
1200.0
 31
0.0
  0
LINE
  5
10B6C
330
747D
100
AcDbEntity
  8
仕様書枠
 48
50.0
100
AcDbLine
 10
13107.2
 20
1200.0
 30
0.0
 11
16307.2
 21
1200.0
 31
0.0
  0
LINE
  5
10B6D
330
747D
100
AcDbEntity
  8
補助
  6
PHANTOM
 62
   230
 48
50.0
100
AcDbLine
 10
13107.2
 20
11409.6
 30
0.0
 11
13107.2
 21
4800.0
 31
0.0
  0
LINE
  5
10B6F
330
747D
100
AcDbEntity
  8
補助
  6
PHANTOM
 62
   230
 48
50.0
100
AcDbLine
 10
13107.2
 20
4800.0
 30
0.0
 11
16307.2
 21
4800.0
 31
0.0
  0
LINE
  5
10B72
330
747D
100
AcDbEntity
  8
文字
 62
     7
 48
50.0
100
AcDbLine
 10
13187.2
 20
400.0
 30
0.0
 11
16227.2
 21
400.0
 31
0.0
  0
TEXT
  5
10B73
330
747D
100
AcDbEntity
  8
文字
 62
     7
 48
50.0
100
AcDbText
 10
13162.9790565769
 20
895.0906074299405
 30
0.0
 40
200.0
  1
外 形 図
  7
STYLE2
100
AcDbText
  0
TEXT
  5
10B74
330
747D
100
AcDbEntity
  8
文字
 62
     7
 48
50.0
100
AcDbText
 10
13201.43669998441
 20
477.2740661031255
 30
0.0
 40
160.0
  1
機種名
  7
STYLE2
100
AcDbText
  0
TEXT
  5
10B76
330
747D
100
AcDbEntity
  8
文字
 62
     7
 48
50.0
100
AcDbText
 10
13209.4053442172
 20
62.03918579336385
 30
0.0
 40
100.0
  1
○床面積 ： 18.41㎡(5.58坪) 　
  7
STYLE2
100
AcDbText
  0
TEXT
  5
10B79
330
747D
100
AcDbEntity
  8
文字
 62
     7
 48
50.0
100
AcDbText
 10
14524.131837222
 20
1031.557706291228
 30
0.0
 40
100.0
  1
NO.32     <縮尺> S=1/40
  7
STYLE2
100
AcDbText
  0
LINE
  5
10B7B
330
747D
100
AcDbEntity
  8
仕様書枠
 48
50.0
100
AcDbLine
 10
13107.2
 20
800.0
 30
0.0
 11
14251.2
 21
800.0
 31
0.0
  0
LINE
  5
10B88
330
747D
100
AcDbEntity
  8
仕様書枠
  6
Continuous
 48
50.0
100
AcDbLine
 10
14251.2
 20
1200.0
 30
0.0
 11
14251.2
 21
800.0
 31
0.0
  0
TEXT
  5
10EA8
330
747D
100
AcDbEntity
  8
文字
 62
     7
 48
50.0
100
AcDbText
 10
14851.62318972916
 20
838.2527270729188
 30
0.0
 40
100.0
  1
～一般型～
  7
STYLE2
100
AcDbText
  0
DIMENSION
  5
120D6
330
747D
100
AcDbEntity
  8
寸法
 48
50.0
100
AcDbDimension
  2
*D3
 10
8599.695515348525
 20
10600.93990226244
 30
0.0
 11
8993.86218201519
 21
10600.93990226244
 31
0.0
 70
   160
 71
     5
 42
55.0
  3
INABA_S40
100
AcDbAlignedDimension
 13
8544.695515348525
 23
10326.22749224365
 33
0.0
 14
8599.695515348525
 24
10326.22749224365
 34
0.0
100
AcDbRotatedDimension
1001
ACAD
1000
DSTYLE
1002
{
1070
    41
1040
0.5
1070
    44
1040
1.0
1070
   147
1040
0.8
1070
   271
1070
     2
1070
   272
1070
     2
1070
   289
1070
     3
1070
   340
1005
F706
1070
   343
1005
F744
1070
   344
1005
F744
1002
}
  0
DIMENSION
  5
120D7
330
747D
100
AcDbEntity
  8
寸法
 48
50.0
100
AcDbDimension
  2
*D4
 10
9670.442632392878
 20
7696.227492243647
 30
0.0
 11
9578.430821369256
 21
9011.22749224365
 31
0.0
 70
    32
 71
     5
 42
2630.0
  3
INABA_S40
100
AcDbAlignedDimension
 13
8599.695515348525
 23
10326.22749224365
 33
0.0
 14
8599.695515348525
 24
7696.227492243647
 34
0.0
 50
90.0
100
AcDbRotatedDimension
1001
ACAD
1000
DSTYLE
1002
{
1070
    41
1040
0.5
1070
    44
1040
1.0
1070
   147
1040
0.8
1070
   271
1070
     2
1070
   272
1070
     2
1070
   289
1070
     3
1070
   340
1005
F706
1070
   343
1005
F744
1070
   344
1005
F744
1002
}
  0
DIMENSION
  5
120D8
330
747D
100
AcDbEntity
  8
寸法
 48
50.0
100
AcDbDimension
  2
*D5
 10
9370.44263239288
 20
7696.227492243647
 30
0.0
 11
9370.442632392878
 21
7302.060825576983
 31
0.0
 70
   160
 71
     5
 42
54.99999999999636
  3
INABA_S40
100
AcDbAlignedDimension
 13
8599.695515348525
 23
7751.227492243645
 33
0.0
 14
8599.695515348525
 24
7696.227492243647
 34
0.0
 50
90.0
100
AcDbRotatedDimension
1001
ACAD
1000
DSTYLE
1002
{
1070
    41
1040
0.5
1070
    44
1040
1.0
1070
   147
1040
0.8
1070
   271
1070
     2
1070
   272
1070
     2
1070
   289
1070
     3
1070
   340
1005
F706
1070
   343
1005
F744
1070
   344
1005
F744
1002
}
  0
DIMENSION
  5
120D9
330
747D
100
AcDbEntity
  8
寸法
 48
50.0
100
AcDbDimension
  2
*D6
 10
9370.442632392878
 20
7751.227492243645
 30
0.0
 11
9278.430821369255
 21
9011.22749224365
 31
0.0
 70
    32
  1
6X420=<>
 71
     5
 42
2520.000000000008
  3
INABA_S40
100
AcDbAlignedDimension
 13
8599.695515348525
 23
10271.22749224365
 33
0.0
 14
8599.695515348525
 24
7751.227492243645
 34
0.0
 50
90.0
100
AcDbRotatedDimension
1001
ACAD
1000
DSTYLE
1002
{
1070
    41
1040
0.5
1070
    44
1040
1.0
1070
   147
1040
0.8
1070
   271
1070
     2
1070
   272
1070
     2
1070
   289
1070
     3
1070
   340
1005
F706
1070
   343
1005
F744
1070
   344
1005
F744
1002
}
  0
DIMENSION
  5
120DA
330
747D
100
AcDbEntity
  8
寸法
 48
50.0
100
AcDbDimension
  2
*D7
 10
9370.44263239288
 20
10271.22749224365
 30
0.0
 11
9370.442632392878
 21
10720.39415891031
 31
0.0
 70
   160
 71
     5
 42
54.99999999999636
  3
INABA_S40
100
AcDbAlignedDimension
 13
8599.695515348525
 23
10326.22749224365
 33
0.0
 14
8599.695515348525
 24
10271.22749224365
 34
0.0
 50
90.0
100
AcDbRotatedDimension
1001
ACAD
1000
DSTYLE
1002
{
1070
    41
1040
0.5
1070
    44
1040
1.0
1070
   147
1040
0.8
1070
   271
1070
     2
1070
   272
1070
     2
1070
   289
1070
     3
1070
   340
1005
F706
1070
   343
1005
F744
1070
   344
1005
F744
1002
}
  0
LINE
  5
120DB
330
747D
100
AcDbEntity
  8
Ｇ．Ｌ
 48
50.0
100
AcDbLine
 10
395.8281281223826
 20
2188.112805903256
 30
0.0
 11
15606.26680742205
 21
2188.112805903256
 31
0.0
  0
LINE
  5
120F0
330
747D
100
AcDbEntity
  8
部品1
100
AcDbLine
 10
1659.695515348525
 20
4428.112805903256
 30
0.0
 11
8599.695515348525
 21
4428.112805903256
 31
0.0
  0
LINE
  5
120F1
330
747D
100
AcDbEntity
  8
部品1
100
AcDbLine
 10
1659.695515348525
 20
2288.112805903256
 30
0.0
 11
8599.695515348525
 21
2288.112805903256
 31
0.0
  0
LINE
  5
120F8
330
747D
100
AcDbEntity
  8
部品1
100
AcDbLine
 10
2134.695515348525
 20
4428.112805903256
 30
0.0
 11
2134.695515348525
 21
2338.112805903256
 31
0.0
  0
LINE
  5
120FB
330
747D
100
AcDbEntity
  8
部品1
100
AcDbLine
 10
1714.695515348525
 20
4428.112805903256
 30
0.0
 11
1714.695515348525
 21
2338.112805903256
 31
0.0
  0
LINE
  5
12102
330
747D
100
AcDbEntity
  8
部品1
100
AcDbLine
 10
1659.695515348525
 20
4522.11280590326
 30
0.0
 11
1659.695515348525
 21
2188.112805903256
 31
0.0
  0
TEXT
  5
12103
330
747D
100
AcDbEntity
  8
部品1
100
AcDbText
 10
826.7648200007897
 20
2202.954510774246
 30
0.0
 40
125.0
  1
G.L
  7
MSGOTHIC
100
AcDbText
  0
LINE
  5
12104
330
747D
100
AcDbEntity
  8
部品1
100
AcDbLine
 10
684.280866300971
 20
2292.035854357388
 30
0.0
 11
804.280866300971
 21
2292.035854357388
 31
0.0
  0
LINE
  5
12105
330
747D
100
AcDbEntity
  8
部品1
100
AcDbLine
 10
804.280866300971
 20
2292.035854357388
 30
0.0
 11
744.2808663009709
 21
2188.112805903256
 31
0.0
  0
LINE
  5
12106
330
747D
100
AcDbEntity
  8
部品1
100
AcDbLine
 10
744.2808663009709
 20
2188.112805903256
 30
0.0
 11
684.280866300971
 21
2292.035854357388
 31
0.0
  0
LINE
  5
12107
330
747D
100
AcDbEntity
  8
部品1
 48
50.0
100
AcDbLine
 10
2527.695515348525
 20
2338.112805903255
 30
0.0
 11
1659.695515348525
 21
2338.112805903256
 31
0.0
  0
LINE
  5
12125
330
747D
100
AcDbEntity
  8
部品1
 48
50.0
100
AcDbLine
 10
5129.695515348525
 20
2338.112805903256
 30
0.0
 11
8599.695515348525
 21
2338.112805903256
 31
0.0
  0
LINE
  5
12130
330
747D
100
AcDbEntity
  8
部品1
100
AcDbLine
 10
5184.695515348526
 20
4428.112805903256
 30
0.0
 11
5184.695515348526
 21
2338.112805903256
 31
0.0
  0
LINE
  5
12131
330
747D
100
AcDbEntity
  8
部品1
100
AcDbLine
 10
5604.695515348525
 20
4428.112805903256
 30
0.0
 11
5604.695515348524
 21
2338.112805903256
 31
0.0
  0
LINE
  5
1213E
330
747D
100
AcDbEntity
  8
部品1
100
AcDbLine
 10
5074.695515348525
 20
4428.112805903256
 30
0.0
 11
5074.695515348525
 21
2338.112805903256
 31
0.0
  0
LINE
  5
12161
330
747D
100
AcDbEntity
  8
部品1
 48
50.0
100
AcDbLine
 10
5129.695515348525
 20
2338.112805903256
 30
0.0
 11
4681.695515348525
 21
2338.112805903256
 31
0.0
  0
LINE
  5
1216E
330
747D
100
AcDbEntity
  8
部品1
100
AcDbLine
 10
5129.695515348525
 20
2338.112805903256
 30
0.0
 11
5129.695515348515
 21
2288.112805903256
 31
0.0
  0
LINE
  5
12184
330
747D
100
AcDbEntity
  8
部品1
100
AcDbLine
 10
5129.695515348525
 20
4428.112805903256
 30
0.0
 11
5129.695515348526
 21
4522.112805903261
 31
0.0
  0
LINE
  5
12185
330
747D
100
AcDbEntity
  8
部品1
100
AcDbLine
 10
7704.695515348539
 20
4428.112805903256
 30
0.0
 11
7704.695515348536
 21
2338.112805903256
 31
0.0
  0
LINE
  5
12192
330
747D
100
AcDbEntity
  8
部品1
100
AcDbLine
 10
7284.695515348538
 20
4428.112805903256
 30
0.0
 11
7284.695515348537
 21
2338.112805903256
 31
0.0
  0
LINE
  5
12199
330
747D
100
AcDbEntity
  8
部品1
100
AcDbLine
 10
6864.695515348538
 20
4428.112805903256
 30
0.0
 11
6864.695515348536
 21
2338.112805903256
 31
0.0
  0
LINE
  5
121A0
330
747D
100
AcDbEntity
  8
部品1
100
AcDbLine
 10
6444.695515348525
 20
4428.112805903256
 30
0.0
 11
6444.695515348524
 21
2338.112805903256
 31
0.0
  0
LINE
  5
121A7
330
747D
100
AcDbEntity
  8
部品1
100
AcDbLine
 10
6024.695515348525
 20
4428.112805903256
 30
0.0
 11
6024.695515348523
 21
2338.112805903256
 31
0.0
  0
LINE
  5
121B4
330
747D
100
AcDbEntity
  8
部品1
100
AcDbLine
 10
8124.695515348525
 20
4428.112805903257
 30
0.0
 11
8124.695515348511
 21
2338.112805903256
 31
0.0
  0
LINE
  5
121B5
330
747D
100
AcDbEntity
  8
部品1
100
AcDbLine
 10
8544.695515348525
 20
4428.112805903256
 30
0.0
 11
8544.695515348523
 21
2338.112805903256
 31
0.0
  0
LINE
  5
121B6
330
747D
100
AcDbEntity
  8
部品1
100
AcDbLine
 10
8599.695515348525
 20
4522.112805903261
 30
0.0
 11
8599.695515348525
 21
2188.112805903256
 31
0.0
  0
LINE
  5
121EA
330
747D
100
AcDbEntity
  8
破線
  6
HIDDEN
 48
10.0
100
AcDbLine
 10
2586.695515348522
 20
10247.72749224365
 30
0.0
 11
3369.695515348521
 21
10247.72749224365
 31
0.0
  0
LINE
  5
121EB
330
747D
100
AcDbEntity
  8
破線
  6
HIDDEN
 48
10.0
100
AcDbLine
 10
2586.69551534852
 20
7774.727492243646
 30
0.0
 11
3369.69551534852
 21
7774.727492243648
 31
0.0
  0
LINE
  5
121F0
330
747D
100
AcDbEntity
  8
部品1
100
AcDbLine
 10
5074.695515348522
 20
9851.227492243651
 30
0.0
 11
1714.695515348527
 21
9851.227492243646
 31
0.0
  0
LINE
  5
121F1
330
747D
100
AcDbEntity
  8
部品1
100
AcDbLine
 10
1714.695515348521
 20
10271.22749224365
 30
0.0
 11
5074.695515348525
 21
10271.22749224365
 31
0.0
  0
LINE
  5
121F2
330
747D
100
AcDbEntity
  8
部品1
100
AcDbLine
 10
2974.695515348525
 20
10298.22749224365
 30
0.0
 11
1687.695515348525
 21
10298.22749224365
 31
0.0
  0
LINE
  5
121F3
330
747D
100
AcDbEntity
  8
部品1
100
AcDbLine
 10
5074.695515348523
 20
8171.22749224365
 30
0.0
 11
1714.695515348527
 21
8171.227492243646
 31
0.0
  0
LINE
  5
121F4
330
747D
100
AcDbEntity
  8
部品1
100
AcDbLine
 10
5074.695515348523
 20
8591.22749224365
 30
0.0
 11
1714.695515348527
 21
8591.227492243646
 31
0.0
  0
LINE
  5
121F5
330
747D
100
AcDbEntity
  8
部品1
100
AcDbLine
 10
5074.695515348523
 20
9011.22749224365
 30
0.0
 11
1714.695515348527
 21
9011.227492243646
 31
0.0
  0
LINE
  5
121F6
330
747D
100
AcDbEntity
  8
部品1
100
AcDbLine
 10
5074.695515348523
 20
9431.22749224365
 30
0.0
 11
1714.695515348527
 21
9431.227492243646
 31
0.0
  0
LINE
  5
121F8
330
747D
100
AcDbEntity
  8
部品1
100
AcDbLine
 10
5129.695515348525
 20
10326.22749224365
 30
0.0
 11
1659.695515348525
 21
10326.22749224365
 31
0.0
  0
LINE
  5
121F9
330
747D
100
AcDbEntity
  8
部品1
100
AcDbLine
 10
1714.695515348521
 20
7751.22749224365
 30
0.0
 11
5074.695515348525
 21
7751.227492243645
 31
0.0
  0
LINE
  5
121FA
330
747D
100
AcDbEntity
  8
部品1
100
AcDbLine
 10
1687.695515348523
 20
7724.227492243648
 30
0.0
 11
5101.695515348525
 21
7724.227492243651
 31
0.0
  0
DIMENSION
  5
121FB
330
747D
100
AcDbEntity
  8
寸法
 48
50.0
100
AcDbDimension
  2
*D8
 10
8599.695515348525
 20
10900.93990226244
 30
0.0
 11
5129.695515348525
 21
10992.93990226244
 31
0.0
 70
    32
 71
     5
 42
6940.0
  3
INABA_S40
100
AcDbAlignedDimension
 13
1659.695515348525
 23
10326.22749224365
 33
0.0
 14
8599.695515348525
 24
10326.22749224365
 34
0.0
100
AcDbRotatedDimension
1001
ACAD
1000
DSTYLE
1002
{
1070
    41
1040
0.5
1070
    44
1040
1.0
1070
   147
1040
0.8
1070
   271
1070
     2
1070
   272
1070
     2
1070
   289
1070
     3
1070
   340
1005
F706
1070
   343
1005
F744
1070
   344
1005
F744
1002
}
  0
DIMENSION
  5
121FC
330
747D
100
AcDbEntity
  8
寸法
 48
50.0
100
AcDbDimension
  2
*D9
 10
5074.695515348525
 20
10600.93990226244
 30
0.0
 11
3394.695515348525
 21
10692.95171328606
 31
0.0
 70
    32
  1
8X420=<>
 71
     5
 42
3360.0
  3
INABA_S40
100
AcDbAlignedDimension
 13
1714.695515348525
 23
10326.22749224365
 33
0.0
 14
5074.695515348525
 24
10326.22749224365
 34
0.0
100
AcDbRotatedDimension
1001
ACAD
1000
DSTYLE
1002
{
1070
    41
1040
0.5
1070
    44
1040
1.0
1070
   147
1040
0.8
1070
   271
1070
     2
1070
   272
1070
     2
1070
   289
1070
     3
1070
   340
1005
F706
1070
   343
1005
F744
1070
   344
1005
F744
1002
}
  0
DIMENSION
  5
121FD
330
747D
100
AcDbEntity
  8
寸法
 48
50.0
100
AcDbDimension
  2
*D10
 10
5129.695515348525
 20
6371.145534740801
 30
0.0
 11
3394.695515348525
 21
6463.1455347408
 31
0.0
 70
    32
 71
     5
 42
3470.0
  3
INABA_S40
100
AcDbAlignedDimension
 13
1659.695515348525
 23
7696.227492243647
 33
0.0
 14
5129.695515348525
 24
7751.227492243649
 34
0.0
100
AcDbRotatedDimension
1001
ACAD
1000
DSTYLE
1002
{
1070
    41
1040
0.5
1070
    44
1040
1.0
1070
   147
1040
0.8
1070
   271
1070
     2
1070
   272
1070
     2
1070
   289
1070
     3
1070
   340
1005
F706
1070
   343
1005
F744
1070
   344
1005
F744
1002
}
  0
LINE
  5
121FE
330
747D
100
AcDbEntity
  8
破線
  6
HIDDEN
 48
10.0
100
AcDbLine
 10
2586.695515348522
 20
10271.22749224365
 30
0.0
 11
2586.69551534852
 21
7751.227492243649
 31
0.0
  0
LINE
  5
121FF
330
747D
100
AcDbEntity
  8
破線
  6
HIDDEN
 48
10.0
100
AcDbLine
 10
2536.695515348522
 20
10271.22749224365
 30
0.0
 11
2536.69551534852
 21
7751.22749224365
 31
0.0
  0
LINE
  5
12200
330
747D
100
AcDbEntity
  8
部品1
100
AcDbLine
 10
1714.69551534853
 20
10271.22749224365
 30
0.0
 11
1714.695515348521
 21
7751.22749224365
 31
0.0
  0
LINE
  5
12201
330
747D
100
AcDbEntity
  8
破線
  6
HIDDEN
 48
10.0
100
AcDbLine
 10
1738.19551534853
 20
10247.72749224365
 30
0.0
 11
1738.195515348521
 21
7774.727492243648
 31
0.0
  0
LINE
  5
12202
330
747D
100
AcDbEntity
  8
部品1
100
AcDbLine
 10
1659.695515348525
 20
10326.22749224365
 30
0.0
 11
1659.695515348525
 21
7696.227492243647
 31
0.0
  0
LINE
  5
12203
330
747D
100
AcDbEntity
  8
部品1
100
AcDbLine
 10
1687.695515348525
 20
10298.22749224365
 30
0.0
 11
1687.695515348525
 21
9649.227492243651
 31
0.0
  0
LINE
  5
12204
330
747D
100
AcDbEntity
  8
部品1
100
AcDbLine
 10
1687.695515348527
 20
9851.227492243651
 30
0.0
 11
1687.695515348523
 21
7724.227492243648
 31
0.0
  0
LINE
  5
12205
330
747D
100
AcDbEntity
  8
破線
  6
HIDDEN
 48
10.0
100
AcDbLine
 10
1738.195515348521
 20
7774.727492243648
 30
0.0
 11
2536.69551534852
 21
7774.727492243648
 31
0.0
  0
LINE
  5
12206
330
747D
100
AcDbEntity
  8
部品1
100
AcDbLine
 10
1659.695515348525
 20
7696.227492243647
 30
0.0
 11
2554.695515348525
 21
7696.227492243647
 31
0.0
  0
LINE
  5
12207
330
747D
100
AcDbEntity
  8
部品1
 48
50.0
100
AcDbLine
 10
1687.695515348523
 20
7724.227492243648
 30
0.0
 11
1714.695515348521
 21
7751.22749224365
 31
0.0
  0
LINE
  5
12208
330
747D
100
AcDbEntity
  8
部品1
100
AcDbLine
 10
1714.695515348525
 20
7696.227492243647
 30
0.0
 11
1714.695515348525
 21
7724.227492243648
 31
0.0
  0
LINE
  5
12209
330
747D
100
AcDbEntity
  8
部品1
100
AcDbLine
 10
1687.695515348525
 20
7751.227492243645
 30
0.0
 11
1659.695515348525
 21
7751.227492243645
 31
0.0
  0
LINE
  5
1220A
330
747D
100
AcDbEntity
  8
部品1
100
AcDbLine
 10
2134.695515348525
 20
7724.227492243651
 30
0.0
 11
2134.695515348525
 21
7696.227492243647
 31
0.0
  0
LINE
  5
12210
330
747D
100
AcDbEntity
  8
部品1
100
AcDbLine
 10
2554.695515348525
 20
7696.227492243654
 30
0.0
 11
2554.695515348525
 21
7724.227492243655
 31
0.0
  0
LINE
  5
12214
330
747D
100
AcDbEntity
  8
部品1
100
AcDbLine
 10
2554.695515348525
 20
7696.227492243647
 30
0.0
 11
2554.695515348525
 21
7724.227492243648
 31
0.0
  0
LINE
  5
12215
330
747D
100
AcDbEntity
  8
部品1
100
AcDbLine
 10
1687.695515348525
 20
8171.227492243652
 30
0.0
 11
1659.695515348525
 21
8171.227492243652
 31
0.0
  0
LINE
  5
12216
330
747D
100
AcDbEntity
  8
部品1
100
AcDbLine
 10
1687.695515348525
 20
8591.227492243652
 30
0.0
 11
1659.695515348525
 21
8591.227492243652
 31
0.0
  0
LINE
  5
12217
330
747D
100
AcDbEntity
  8
部品1
100
AcDbLine
 10
1687.695515348525
 20
9011.227492243653
 30
0.0
 11
1659.695515348525
 21
9011.227492243653
 31
0.0
  0
LINE
  5
12218
330
747D
100
AcDbEntity
  8
部品1
100
AcDbLine
 10
1687.695515348525
 20
9431.227492243651
 30
0.0
 11
1659.695515348525
 21
9431.227492243651
 31
0.0
  0
LINE
  5
12219
330
747D
100
AcDbEntity
  8
部品1
100
AcDbLine
 10
1687.695515348525
 20
9851.227492243651
 30
0.0
 11
1659.695515348525
 21
9851.227492243651
 31
0.0
  0
LINE
  5
1221A
330
747D
100
AcDbEntity
  8
破線
  6
HIDDEN
 48
10.0
100
AcDbLine
 10
1738.195515348521
 20
10247.72749224365
 30
0.0
 11
2536.695515348523
 21
10247.72749224365
 31
0.0
  0
DIMENSION
  5
1221B
330
747D
100
AcDbEntity
  8
寸法
 48
50.0
100
AcDbDimension
  2
*D11
 10
1714.695515348525
 20
10600.93990226244
 30
0.0
 11
1265.528848681859
 21
10600.93990226244
 31
0.0
 70
   160
 71
     5
 42
55.0
  3
INABA_S40
100
AcDbAlignedDimension
 13
1659.695515348525
 23
10326.22749224365
 33
0.0
 14
1714.695515348525
 24
10326.22749224365
 34
0.0
100
AcDbRotatedDimension
1001
ACAD
1000
DSTYLE
1002
{
1070
    41
1040
0.5
1070
    44
1040
1.0
1070
   147
1040
0.8
1070
   271
1070
     2
1070
   272
1070
     2
1070
   289
1070
     3
1070
   340
1005
F706
1070
   343
1005
F744
1070
   344
1005
F744
1002
}
  0
LINE
  5
1221C
330
747D
100
AcDbEntity
  8
部品1
 48
50.0
100
AcDbLine
 10
1687.695515348525
 20
10298.22749224365
 30
0.0
 11
1714.695515348521
 21
10271.22749224365
 31
0.0
  0
LINE
  5
1221D
330
747D
100
AcDbEntity
  8
部品1
100
AcDbLine
 10
1714.695515348525
 20
10326.22749224365
 30
0.0
 11
1714.695515348525
 21
10298.22749224365
 31
0.0
  0
LINE
  5
1221E
330
747D
100
AcDbEntity
  8
部品1
100
AcDbLine
 10
1687.695515348525
 20
10271.22749224365
 30
0.0
 11
1659.695515348525
 21
10271.22749224365
 31
0.0
  0
LINE
  5
1221F
330
747D
100
AcDbEntity
  8
部品1
100
AcDbLine
 10
2134.695515348525
 20
10326.22749224365
 30
0.0
 11
2134.695515348525
 21
10298.22749224365
 31
0.0
  0
LINE
  5
12220
330
747D
100
AcDbEntity
  8
部品1
100
AcDbLine
 10
2554.695515348525
 20
10326.22749224365
 30
0.0
 11
2554.695515348525
 21
10298.22749224365
 31
0.0
  0
LINE
  5
12221
330
747D
100
AcDbEntity
  8
破線
  6
HIDDEN
 48
10.0
100
AcDbLine
 10
7722.695515348525
 20
10271.22749224365
 30
0.0
 11
7722.695515348523
 21
7751.227492243649
 31
0.0
  0
LINE
  5
12222
330
747D
100
AcDbEntity
  8
破線
  6
HIDDEN
 48
10.0
100
AcDbLine
 10
7672.695515348525
 20
10271.22749224365
 30
0.0
 11
7672.695515348523
 21
7751.227492243649
 31
0.0
  0
LINE
  5
12223
330
747D
100
AcDbEntity
  8
破線
  6
HIDDEN
 48
10.0
100
AcDbLine
 10
6056.695515348526
 20
10271.22749224365
 30
0.0
 11
6056.695515348523
 21
7751.22749224365
 31
0.0
  0
LINE
  5
12224
330
747D
100
AcDbEntity
  8
破線
  6
HIDDEN
 48
10.0
100
AcDbLine
 10
6006.695515348525
 20
10271.22749224365
 30
0.0
 11
6006.695515348523
 21
7751.22749224365
 31
0.0
  0
LINE
  5
12225
330
747D
100
AcDbEntity
  8
破線
  6
HIDDEN
 48
10.0
100
AcDbLine
 10
4252.695515348522
 20
10271.22749224365
 30
0.0
 11
4252.695515348519
 21
7751.227492243649
 31
0.0
  0
LINE
  5
12226
330
747D
100
AcDbEntity
  8
破線
  6
HIDDEN
 48
10.0
100
AcDbLine
 10
4202.695515348522
 20
10271.22749224365
 30
0.0
 11
4202.695515348519
 21
7751.227492243649
 31
0.0
  0
LINE
  5
12227
330
747D
100
AcDbEntity
  8
部品1
100
AcDbLine
 10
8544.695515348525
 20
10271.22749224365
 30
0.0
 11
8544.695515348525
 21
7751.227492243649
 31
0.0
  0
LINE
  5
12228
330
747D
100
AcDbEntity
  8
破線
  6
HIDDEN
 48
10.0
100
AcDbLine
 10
6839.695515348525
 20
10247.72749224365
 30
0.0
 11
6839.695515348523
 21
7774.727492243648
 31
0.0
  0
LINE
  5
12229
330
747D
100
AcDbEntity
  8
破線
  6
HIDDEN
 48
10.0
100
AcDbLine
 10
6889.695515348525
 20
10247.72749224365
 30
0.0
 11
6889.695515348524
 21
7774.727492243648
 31
0.0
  0
LINE
  5
1222A
330
747D
100
AcDbEntity
  8
破線
  6
HIDDEN
 48
10.0
100
AcDbLine
 10
3419.695515348522
 20
10247.72749224365
 30
0.0
 11
3419.69551534852
 21
7774.72749224365
 31
0.0
  0
LINE
  5
1222B
330
747D
100
AcDbEntity
  8
破線
  6
HIDDEN
 48
10.0
100
AcDbLine
 10
3369.695515348521
 20
10247.72749224365
 30
0.0
 11
3369.69551534852
 21
7774.72749224365
 31
0.0
  0
LINE
  5
1222C
330
747D
100
AcDbEntity
  8
部品1
100
AcDbLine
 10
6864.695515348525
 20
7751.227492243649
 30
0.0
 11
6864.695515348525
 21
10271.22749224365
 31
0.0
  0
LINE
  5
1222D
330
747D
100
AcDbEntity
  8
部品1
100
AcDbLine
 10
5184.695515348526
 20
7751.227492243649
 30
0.0
 11
5184.695515348526
 21
10271.22749224365
 31
0.0
  0
LINE
  5
1222E
330
747D
100
AcDbEntity
  8
破線
  6
HIDDEN
 48
10.0
100
AcDbLine
 10
5208.195515348525
 20
7774.727492243648
 30
0.0
 11
5208.195515348523
 21
10247.72749224365
 31
0.0
  0
LINE
  5
1222F
330
747D
100
AcDbEntity
  8
部品1
100
AcDbLine
 10
5157.695515348525
 20
7724.227492243648
 30
0.0
 11
5157.695515348525
 21
10298.22749224365
 31
0.0
  0
LINE
  5
12230
330
747D
100
AcDbEntity
  8
部品1
100
AcDbLine
 10
3394.695515348527
 20
10271.22749224365
 30
0.0
 11
3394.69551534852
 21
7751.22749224365
 31
0.0
  0
LINE
  5
12231
330
747D
100
AcDbEntity
  8
破線
  6
HIDDEN
 48
10.0
100
AcDbLine
 10
5051.195515348525
 20
7774.727492243645
 30
0.0
 11
5051.195515348521
 21
10247.72749224365
 31
0.0
  0
LINE
  5
12232
330
747D
100
AcDbEntity
  8
部品1
100
AcDbLine
 10
5074.695515348525
 20
7751.227492243645
 30
0.0
 11
5074.695515348522
 21
10271.22749224365
 31
0.0
  0
LINE
  5
12233
330
747D
100
AcDbEntity
  8
部品1
100
AcDbLine
 10
5101.695515348525
 20
7724.227492243651
 30
0.0
 11
5101.695515348525
 21
10298.22749224365
 31
0.0
  0
LINE
  5
12234
330
747D
100
AcDbEntity
  8
破線
  6
HIDDEN
 48
10.0
100
AcDbLine
 10
8521.195515348525
 20
10247.72749224365
 30
0.0
 11
8521.195515348525
 21
7774.727492243646
 31
0.0
  0
LINE
  5
12235
330
747D
100
AcDbEntity
  8
部品1
100
AcDbLine
 10
8599.695515348525
 20
10326.22749224365
 30
0.0
 11
8599.695515348525
 21
7696.227492243647
 31
0.0
  0
LINE
  5
12236
330
747D
100
AcDbEntity
  8
部品1
100
AcDbLine
 10
8571.695515348526
 20
10298.22749224365
 30
0.0
 11
8571.695515348526
 21
9649.227492243651
 31
0.0
  0
LINE
  5
12237
330
747D
100
AcDbEntity
  8
破線
  6
HIDDEN
 48
10.0
100
AcDbLine
 10
6006.695515348525
 20
7774.727492243648
 30
0.0
 11
5208.195515348527
 21
7774.72749224365
 31
0.0
  0
LINE
  5
12238
330
747D
100
AcDbEntity
  8
部品1
100
AcDbLine
 10
5184.695515348526
 20
9851.227492243651
 30
0.0
 11
8544.695515348525
 21
9851.227492243651
 31
0.0
  0
LINE
  5
12239
330
747D
100
AcDbEntity
  8
部品1
100
AcDbLine
 10
5184.695515348526
 20
8171.22749224365
 30
0.0
 11
8544.695515348525
 21
8171.22749224365
 31
0.0
  0
LINE
  5
1223A
330
747D
100
AcDbEntity
  8
部品1
100
AcDbLine
 10
5184.695515348526
 20
8591.22749224365
 30
0.0
 11
8544.695515348525
 21
8591.22749224365
 31
0.0
  0
LINE
  5
1223B
330
747D
100
AcDbEntity
  8
部品1
100
AcDbLine
 10
5184.695515348526
 20
9011.22749224365
 30
0.0
 11
8544.695515348525
 21
9011.22749224365
 31
0.0
  0
LINE
  5
1223C
330
747D
100
AcDbEntity
  8
部品1
100
AcDbLine
 10
5184.695515348526
 20
9431.22749224365
 30
0.0
 11
8544.695515348525
 21
9431.22749224365
 31
0.0
  0
LINE
  5
1223D
330
747D
100
AcDbEntity
  8
部品1
100
AcDbLine
 10
8599.695515348525
 20
7696.227492243647
 30
0.0
 11
5184.695515348526
 21
7696.227492243647
 31
0.0
  0
LINE
  5
1223E
330
747D
100
AcDbEntity
  8
部品1
100
AcDbLine
 10
8544.695515348525
 20
7751.227492243649
 30
0.0
 11
5184.695515348526
 21
7751.22749224365
 31
0.0
  0
LINE
  5
1223F
330
747D
100
AcDbEntity
  8
部品1
100
AcDbLine
 10
8571.695515348526
 20
7724.227492243648
 30
0.0
 11
5157.695515348525
 21
7724.227492243651
 31
0.0
  0
DIMENSION
  5
12240
330
747D
100
AcDbEntity
  8
寸法
 48
50.0
100
AcDbDimension
  2
*D12
 10
8599.695515348525
 20
6371.145534740801
 30
0.0
 11
6864.695515348525
 21
6463.1455347408
 31
0.0
 70
    32
 71
     5
 42
3470.0
  3
INABA_S40
100
AcDbAlignedDimension
 13
5129.695515348525
 23
7751.227492243645
 33
0.0
 14
8599.695515348525
 24
7696.227492243647
 34
0.0
100
AcDbRotatedDimension
1001
ACAD
1000
DSTYLE
1002
{
1070
    41
1040
0.5
1070
    44
1040
1.0
1070
   147
1040
0.8
1070
   271
1070
     2
1070
   272
1070
     2
1070
   289
1070
     3
1070
   340
1005
F706
1070
   343
1005
F744
1070
   344
1005
F744
1002
}
  0
LINE
  5
12241
330
747D
100
AcDbEntity
  8
破線
  6
HIDDEN
 48
10.0
100
AcDbLine
 10
3419.69551534852
 20
7774.727492243646
 30
0.0
 11
4202.695515348519
 21
7774.727492243646
 31
0.0
  0
LINE
  5
1226B
330
747D
100
AcDbEntity
  8
破線
  6
HIDDEN
 48
10.0
100
AcDbLine
 10
4252.695515348519
 20
7774.727492243646
 30
0.0
 11
5051.195515348525
 21
7774.727492243645
 31
0.0
  0
LINE
  5
1226C
330
747D
100
AcDbEntity
  8
部品1
100
AcDbLine
 10
4654.695515348524
 20
7696.227492243647
 30
0.0
 11
5129.695515348525
 21
7696.227492243647
 31
0.0
  0
LINE
  5
12272
330
747D
100
AcDbEntity
  8
部品1
100
AcDbLine
 10
4654.695515348524
 20
7696.227492243647
 30
0.0
 11
4654.695515348524
 21
7724.227492243648
 31
0.0
  0
LINE
  5
12276
330
747D
100
AcDbEntity
  8
部品1
100
AcDbLine
 10
4654.695515348524
 20
7696.227492243647
 30
0.0
 11
4654.695515348524
 21
7724.227492243648
 31
0.0
  0
LINE
  5
12277
330
747D
100
AcDbEntity
  8
部品1
 48
50.0
100
AcDbLine
 10
5157.695515348525
 20
7724.227492243648
 30
0.0
 11
5184.695515348526
 21
7751.227492243649
 31
0.0
  0
LINE
  5
12278
330
747D
100
AcDbEntity
  8
部品1
 48
50.0
100
AcDbLine
 10
5101.695515348525
 20
7724.227492243651
 30
0.0
 11
5074.695515348525
 21
7751.227492243645
 31
0.0
  0
LINE
  5
12279
330
747D
100
AcDbEntity
  8
部品1
100
AcDbLine
 10
5184.695515348526
 20
7696.22749224365
 30
0.0
 11
5129.695515348525
 21
7696.227492243647
 31
0.0
  0
LINE
  5
1227A
330
747D
100
AcDbEntity
  8
部品1
100
AcDbLine
 10
5074.695515348525
 20
7696.227492243647
 30
0.0
 11
5074.695515348525
 21
7724.227492243648
 31
0.0
  0
LINE
  5
1227B
330
747D
100
AcDbEntity
  8
部品1
100
AcDbLine
 10
5184.695515348526
 20
7696.227492243647
 30
0.0
 11
5184.695515348526
 21
7724.227492243648
 31
0.0
  0
LINE
  5
1227C
330
747D
100
AcDbEntity
  8
部品1
100
AcDbLine
 10
5157.695515348525
 20
7751.227492243645
 30
0.0
 11
5129.695515348525
 21
7751.227492243645
 31
0.0
  0
LINE
  5
1227D
330
747D
100
AcDbEntity
  8
部品1
100
AcDbLine
 10
5101.695515348525
 20
7751.227492243645
 30
0.0
 11
5129.695515348525
 21
7751.227492243645
 31
0.0
  0
LINE
  5
1227E
330
747D
100
AcDbEntity
  8
部品1
100
AcDbLine
 10
5604.695515348525
 20
7696.227492243647
 30
0.0
 11
5604.695515348525
 21
7724.227492243648
 31
0.0
  0
LINE
  5
1227F
330
747D
100
AcDbEntity
  8
部品1
100
AcDbLine
 10
8571.695515348526
 20
9851.227492243651
 30
0.0
 11
8571.695515348526
 21
7724.227492243648
 31
0.0
  0
LINE
  5
12280
330
747D
100
AcDbEntity
  8
破線
  6
HIDDEN
 48
10.0
100
AcDbLine
 10
7672.695515348523
 20
7774.727492243648
 30
0.0
 11
6889.695515348522
 21
7774.727492243648
 31
0.0
  0
LINE
  5
12281
330
747D
100
AcDbEntity
  8
破線
  6
HIDDEN
 48
10.0
100
AcDbLine
 10
6839.695515348522
 20
7774.727492243645
 30
0.0
 11
6056.695515348526
 21
7774.727492243648
 31
0.0
  0
LINE
  5
12282
330
747D
100
AcDbEntity
  8
部品1
100
AcDbLine
 10
6024.695515348525
 20
7696.227492243647
 30
0.0
 11
6024.695515348525
 21
7724.227492243648
 31
0.0
  0
LINE
  5
12283
330
747D
100
AcDbEntity
  8
部品1
100
AcDbLine
 10
6444.695515348525
 20
7696.227492243647
 30
0.0
 11
6444.695515348525
 21
7724.227492243648
 31
0.0
  0
LINE
  5
12284
330
747D
100
AcDbEntity
  8
部品1
100
AcDbLine
 10
6864.695515348525
 20
7696.227492243647
 30
0.0
 11
6864.695515348525
 21
7724.227492243648
 31
0.0
  0
LINE
  5
12285
330
747D
100
AcDbEntity
  8
部品1
100
AcDbLine
 10
7284.695515348525
 20
7696.227492243647
 30
0.0
 11
7284.695515348525
 21
7724.227492243648
 31
0.0
  0
LINE
  5
12286
330
747D
100
AcDbEntity
  8
破線
  6
HIDDEN
 48
10.0
100
AcDbLine
 10
8521.195515348525
 20
7774.727492243646
 30
0.0
 11
7722.695515348523
 21
7774.727492243648
 31
0.0
  0
LINE
  5
12287
330
747D
100
AcDbEntity
  8
部品1
100
AcDbLine
 10
7704.695515348525
 20
7696.227492243647
 30
0.0
 11
7704.695515348525
 21
7724.227492243648
 31
0.0
  0
LINE
  5
12288
330
747D
100
AcDbEntity
  8
部品1
100
AcDbLine
 10
8124.695515348525
 20
7696.227492243647
 30
0.0
 11
8124.695515348525
 21
7724.227492243648
 31
0.0
  0
LINE
  5
12289
330
747D
100
AcDbEntity
  8
部品1
 48
50.0
100
AcDbLine
 10
8571.695515348526
 20
7724.227492243648
 30
0.0
 11
8544.695515348525
 21
7751.227492243649
 31
0.0
  0
LINE
  5
1228A
330
747D
100
AcDbEntity
  8
部品1
100
AcDbLine
 10
8544.695515348525
 20
7696.227492243647
 30
0.0
 11
8544.695515348525
 21
7724.227492243648
 31
0.0
  0
LINE
  5
1228B
330
747D
100
AcDbEntity
  8
部品1
100
AcDbLine
 10
8571.695515348526
 20
7751.227492243645
 30
0.0
 11
8599.695515348525
 21
7751.227492243645
 31
0.0
  0
LINE
  5
1228C
330
747D
100
AcDbEntity
  8
部品1
100
AcDbLine
 10
8571.695515348526
 20
8171.227492243652
 30
0.0
 11
8599.695515348525
 21
8171.227492243652
 31
0.0
  0
LINE
  5
1228D
330
747D
100
AcDbEntity
  8
部品1
100
AcDbLine
 10
8571.695515348526
 20
8591.227492243652
 30
0.0
 11
8599.695515348525
 21
8591.227492243652
 31
0.0
  0
LINE
  5
1228E
330
747D
100
AcDbEntity
  8
部品1
100
AcDbLine
 10
8571.695515348526
 20
9011.227492243653
 30
0.0
 11
8599.695515348525
 21
9011.227492243653
 31
0.0
  0
LINE
  5
1228F
330
747D
100
AcDbEntity
  8
部品1
100
AcDbLine
 10
8571.695515348526
 20
9431.227492243651
 30
0.0
 11
8599.695515348525
 21
9431.227492243651
 31
0.0
  0
LINE
  5
12290
330
747D
100
AcDbEntity
  8
部品1
100
AcDbLine
 10
8571.695515348526
 20
9851.227492243651
 30
0.0
 11
8599.695515348525
 21
9851.227492243651
 31
0.0
  0
LINE
  5
12291
330
747D
100
AcDbEntity
  8
破線
  6
HIDDEN
 48
10.0
100
AcDbLine
 10
6006.695515348525
 20
10247.72749224365
 30
0.0
 11
5208.195515348527
 21
10247.72749224365
 31
0.0
  0
LINE
  5
12292
330
747D
100
AcDbEntity
  8
部品1
100
AcDbLine
 10
8544.695515348525
 20
10271.22749224365
 30
0.0
 11
5184.695515348526
 21
10271.22749224365
 31
0.0
  0
LINE
  5
12293
330
747D
100
AcDbEntity
  8
部品1
100
AcDbLine
 10
5157.695515348525
 20
10298.22749224365
 30
0.0
 11
6864.695515348525
 21
10298.22749224365
 31
0.0
  0
DIMENSION
  5
12294
330
747D
100
AcDbEntity
  8
寸法
 48
50.0
100
AcDbDimension
  2
*D13
 10
8544.695515348525
 20
10600.93990226244
 30
0.0
 11
6864.695515348525
 21
10692.95171328606
 31
0.0
 70
    32
  1
8X420=<>
 71
     5
 42
3360.0
  3
INABA_S40
100
AcDbAlignedDimension
 13
5184.695515348526
 23
10326.22749224365
 33
0.0
 14
8544.695515348525
 24
10326.22749224365
 34
0.0
100
AcDbRotatedDimension
1001
ACAD
1000
DSTYLE
1002
{
1070
    41
1040
0.5
1070
    44
1040
1.0
1070
   147
1040
0.8
1070
   271
1070
     2
1070
   272
1070
     2
1070
   289
1070
     3
1070
   340
1005
F706
1070
   343
1005
F744
1070
   344
1005
F744
1002
}
  0
LINE
  5
12295
330
747D
100
AcDbEntity
  8
部品1
100
AcDbLine
 10
5129.695515348525
 20
10326.22749224365
 30
0.0
 11
8599.695515348525
 21
10326.22749224365
 31
0.0
  0
LINE
  5
12296
330
747D
100
AcDbEntity
  8
破線
  6
HIDDEN
 48
10.0
100
AcDbLine
 10
3419.695515348522
 20
10247.72749224365
 30
0.0
 11
4202.695515348523
 21
10247.72749224365
 31
0.0
  0
LINE
  5
12297
330
747D
100
AcDbEntity
  8
部品1
100
AcDbLine
 10
4234.695515348525
 20
10298.22749224365
 30
0.0
 11
2974.695515348525
 21
10298.22749224365
 31
0.0
  0
LINE
  5
12298
330
747D
100
AcDbEntity
  8
部品1
100
AcDbLine
 10
2974.695515348525
 20
10326.22749224365
 30
0.0
 11
2974.695515348525
 21
10298.22749224365
 31
0.0
  0
LINE
  5
12299
330
747D
100
AcDbEntity
  8
部品1
100
AcDbLine
 10
3394.695515348525
 20
10326.22749224365
 30
0.0
 11
3394.695515348525
 21
10298.22749224365
 31
0.0
  0
LINE
  5
1229A
330
747D
100
AcDbEntity
  8
部品1
100
AcDbLine
 10
3814.695515348525
 20
10326.22749224365
 30
0.0
 11
3814.695515348525
 21
10298.22749224365
 31
0.0
  0
LINE
  5
1229B
330
747D
100
AcDbEntity
  8
破線
  6
HIDDEN
 48
10.0
100
AcDbLine
 10
4252.695515348523
 20
10247.72749224365
 30
0.0
 11
5051.195515348525
 21
10247.72749224365
 31
0.0
  0
LINE
  5
1229C
330
747D
100
AcDbEntity
  8
部品1
100
AcDbLine
 10
5101.695515348525
 20
10298.22749224365
 30
0.0
 11
4234.695515348525
 21
10298.22749224365
 31
0.0
  0
LINE
  5
1229D
330
747D
100
AcDbEntity
  8
部品1
100
AcDbLine
 10
4234.695515348525
 20
10326.22749224365
 30
0.0
 11
4234.695515348525
 21
10298.22749224365
 31
0.0
  0
LINE
  5
1229E
330
747D
100
AcDbEntity
  8
部品1
100
AcDbLine
 10
4654.695515348524
 20
10326.22749224365
 30
0.0
 11
4654.695515348524
 21
10298.22749224365
 31
0.0
  0
DIMENSION
  5
1229F
330
747D
100
AcDbEntity
  8
寸法
 48
50.0
100
AcDbDimension
  2
*D14
 10
5184.695515348526
 20
10600.93990226244
 30
0.0
 11
5129.695515348525
 21
10600.93990226244
 31
0.0
 70
   160
 71
     5
 42
110.0
  3
INABA_S40
100
AcDbAlignedDimension
 13
5074.695515348525
 23
10326.22749224365
 33
0.0
 14
5184.695515348526
 24
10326.22749224365
 34
0.0
100
AcDbRotatedDimension
1001
ACAD
1000
DSTYLE
1002
{
1070
    41
1040
0.5
1070
    44
1040
1.0
1070
   147
1040
0.8
1070
   271
1070
     2
1070
   272
1070
     2
1070
   289
1070
     3
1070
   340
1005
F706
1070
   343
1005
F744
1070
   344
1005
F744
1002
}
  0
LINE
  5
122A0
330
747D
100
AcDbEntity
  8
部品1
 48
50.0
100
AcDbLine
 10
5157.695515348525
 20
10298.22749224365
 30
0.0
 11
5184.695515348526
 21
10271.22749224365
 31
0.0
  0
LINE
  5
122A1
330
747D
100
AcDbEntity
  8
部品1
 48
50.0
100
AcDbLine
 10
5101.695515348525
 20
10298.22749224365
 30
0.0
 11
5074.695515348525
 21
10271.22749224365
 31
0.0
  0
LINE
  5
122A2
330
747D
100
AcDbEntity
  8
部品1
100
AcDbLine
 10
5157.695515348525
 20
10271.22749224365
 30
0.0
 11
5129.695515348525
 21
10271.22749224365
 31
0.0
  0
LINE
  5
122A3
330
747D
100
AcDbEntity
  8
部品1
100
AcDbLine
 10
5074.695515348525
 20
10326.22749224365
 30
0.0
 11
5074.695515348525
 21
10298.22749224365
 31
0.0
  0
LINE
  5
122A4
330
747D
100
AcDbEntity
  8
部品1
100
AcDbLine
 10
5101.695515348525
 20
10271.22749224365
 30
0.0
 11
5129.695515348525
 21
10271.22749224365
 31
0.0
  0
LINE
  5
122A5
330
747D
100
AcDbEntity
  8
部品1
100
AcDbLine
 10
5184.695515348526
 20
10326.22749224365
 30
0.0
 11
5184.695515348526
 21
10298.22749224365
 31
0.0
  0
LINE
  5
122A6
330
747D
100
AcDbEntity
  8
部品1
100
AcDbLine
 10
5184.695515348526
 20
10326.22749224365
 30
0.0
 11
5184.695515348526
 21
10298.22749224365
 31
0.0
  0
LINE
  5
122A7
330
747D
100
AcDbEntity
  8
部品1
100
AcDbLine
 10
5604.695515348525
 20
10326.22749224365
 30
0.0
 11
5604.695515348525
 21
10298.22749224365
 31
0.0
  0
LINE
  5
122A8
330
747D
100
AcDbEntity
  8
破線
  6
HIDDEN
 48
10.0
100
AcDbLine
 10
7672.695515348525
 20
10247.72749224365
 30
0.0
 11
6889.695515348525
 21
10247.72749224365
 31
0.0
  0
LINE
  5
122A9
330
747D
100
AcDbEntity
  8
部品1
100
AcDbLine
 10
6667.195515348526
 20
10298.22749224365
 30
0.0
 11
7902.195515348525
 21
10298.22749224365
 31
0.0
  0
LINE
  5
122AA
330
747D
100
AcDbEntity
  8
破線
  6
HIDDEN
 48
10.0
100
AcDbLine
 10
6839.695515348525
 20
10247.72749224365
 30
0.0
 11
6056.695515348526
 21
10247.72749224365
 31
0.0
  0
LINE
  5
122AB
330
747D
100
AcDbEntity
  8
部品1
100
AcDbLine
 10
6024.695515348525
 20
10326.22749224365
 30
0.0
 11
6024.695515348525
 21
10298.22749224365
 31
0.0
  0
LINE
  5
122AC
330
747D
100
AcDbEntity
  8
部品1
100
AcDbLine
 10
6444.695515348525
 20
10326.22749224365
 30
0.0
 11
6444.695515348525
 21
10298.22749224365
 31
0.0
  0
LINE
  5
122AD
330
747D
100
AcDbEntity
  8
部品1
100
AcDbLine
 10
6864.695515348525
 20
10326.22749224365
 30
0.0
 11
6864.695515348525
 21
10298.22749224365
 31
0.0
  0
LINE
  5
122AE
330
747D
100
AcDbEntity
  8
部品1
100
AcDbLine
 10
7284.695515348525
 20
10326.22749224365
 30
0.0
 11
7284.695515348525
 21
10298.22749224365
 31
0.0
  0
LINE
  5
122AF
330
747D
100
AcDbEntity
  8
破線
  6
HIDDEN
 48
10.0
100
AcDbLine
 10
8521.195515348525
 20
10247.72749224365
 30
0.0
 11
7722.695515348525
 21
10247.72749224365
 31
0.0
  0
LINE
  5
122B0
330
747D
100
AcDbEntity
  8
部品1
100
AcDbLine
 10
7704.695515348525
 20
10298.22749224365
 30
0.0
 11
8571.695515348526
 21
10298.22749224365
 31
0.0
  0
LINE
  5
122B1
330
747D
100
AcDbEntity
  8
部品1
100
AcDbLine
 10
7704.695515348525
 20
10326.22749224365
 30
0.0
 11
7704.695515348525
 21
10298.22749224365
 31
0.0
  0
LINE
  5
122B2
330
747D
100
AcDbEntity
  8
部品1
100
AcDbLine
 10
8124.695515348525
 20
10326.22749224365
 30
0.0
 11
8124.695515348525
 21
10298.22749224365
 31
0.0
  0
LINE
  5
122B3
330
747D
100
AcDbEntity
  8
部品1
 48
50.0
100
AcDbLine
 10
8571.695515348526
 20
10298.22749224365
 30
0.0
 11
8544.695515348525
 21
10271.22749224365
 31
0.0
  0
LINE
  5
122B4
330
747D
100
AcDbEntity
  8
部品1
100
AcDbLine
 10
8544.695515348525
 20
10326.22749224365
 30
0.0
 11
8544.695515348525
 21
10298.22749224365
 31
0.0
  0
LINE
  5
122B5
330
747D
100
AcDbEntity
  8
部品1
100
AcDbLine
 10
8571.695515348526
 20
10271.22749224365
 30
0.0
 11
8599.695515348525
 21
10271.22749224365
 31
0.0
  0
LINE
  5
12AC4
330
747D
100
AcDbEntity
  8
部品1
 48
50.0
100
AcDbLine
 10
5129.695517592096
 20
10298.22749582081
 30
0.0
 11
5101.695517592095
 21
10326.22749582082
 31
0.0
  0
LINE
  5
12AC5
330
747D
100
AcDbEntity
  8
部品1
100
AcDbLine
 10
5101.695517592095
 20
10298.22749582081
 30
0.0
 11
5101.695517592095
 21
10326.22749582082
 31
0.0
  0
LINE
  5
12AC6
330
747D
100
AcDbEntity
  8
部品1
100
AcDbLine
 10
5157.695517592095
 20
10298.22749582081
 30
0.0
 11
5157.695517592095
 21
10326.22749582081
 31
0.0
  0
LINE
  5
12AC7
330
747D
100
AcDbEntity
  8
部品1
100
AcDbLine
 10
5101.695517592095
 20
10298.22749582081
 30
0.0
 11
5129.695517592096
 21
10298.22749582081
 31
0.0
  0
LINE
  5
12BCC
330
747D
100
AcDbEntity
  8
部品1
 48
50.0
100
AcDbLine
 10
2554.695515348525
 20
7724.227492243642
 30
0.0
 11
4654.695515348524
 21
7724.227492243646
 31
0.0
  0
DIMENSION
  5
13147
330
747D
100
AcDbEntity
  8
寸法
 48
50.0
100
AcDbDimension
  2
*D19
 10
10861.48687142316
 20
4537.458064776588
 30
0.0
 11
10872.15234668209
 21
4908.304728018286
 31
0.0
 70
   161
 71
     5
 42
140.9999999999991
  3
INABA_S40G
100
AcDbAlignedDimension
 13
11441.49129835011
 23
4661.835554737936
 33
0.0
 14
11437.43784279348
 24
4520.893830972223
 34
0.0
1001
ACAD
1000
DSTYLE
1002
{
1070
   174
1070
     0
1070
   272
1070
     1
1070
   288
1070
     0
1070
   341
1005
0
1002
}
  0
LINE
  5
13148
330
747D
100
AcDbEntity
  8
細線
 48
50.0
100
AcDbLine
 10
13979.59527819154
 20
4428.112805903256
 30
0.0
 11
13979.59527819154
 21
2338.112805903256
 31
0.0
  0
LINE
  5
13149
330
747D
100
AcDbEntity
  8
細線
 48
50.0
100
AcDbLine
 10
13994.59527819154
 20
4428.112805903256
 30
0.0
 11
13994.59527819154
 21
2338.112805903256
 31
0.0
  0
LINE
  5
1314A
330
747D
100
AcDbEntity
  8
細線
 48
50.0
100
AcDbLine
 10
13854.59527819154
 20
4428.112805903256
 30
0.0
 11
13854.59527819154
 21
2338.112805903256
 31
0.0
  0
LINE
  5
1314B
330
747D
100
AcDbEntity
  8
細線
 48
50.0
100
AcDbLine
 10
13839.59527819154
 20
4428.112805903256
 30
0.0
 11
13839.59527819154
 21
2338.112805903256
 31
0.0
  0
LINE
  5
1314C
330
747D
100
AcDbEntity
  8
細線
 48
50.0
100
AcDbLine
 10
13699.59527819154
 20
4428.112805903256
 30
0.0
 11
13699.59527819154
 21
2338.112805903256
 31
0.0
  0
LINE
  5
1314D
330
747D
100
AcDbEntity
  8
細線
 48
50.0
100
AcDbLine
 10
13714.59527819154
 20
4428.112805903256
 30
0.0
 11
13714.59527819154
 21
2338.112805903256
 31
0.0
  0
LINE
  5
1314E
330
747D
100
AcDbEntity
  8
部品1
100
AcDbLine
 10
12797.09527819153
 20
4428.112805903256
 30
0.0
 11
12797.09527819153
 21
2338.112805903256
 31
0.0
  0
LINE
  5
1314F
330
747D
100
AcDbEntity
  8
細線
 48
50.0
100
AcDbLine
 10
12454.59527819153
 20
4428.112805903256
 30
0.0
 11
12454.59527819154
 21
2338.112805903256
 31
0.0
  0
LINE
  5
13150
330
747D
100
AcDbEntity
  8
細線
 48
50.0
100
AcDbLine
 10
12439.59527819153
 20
4428.112805903256
 30
0.0
 11
12439.59527819154
 21
2338.112805903256
 31
0.0
  0
LINE
  5
13151
330
747D
100
AcDbEntity
  8
細線
 48
50.0
100
AcDbLine
 10
12579.59527819153
 20
4428.112805903256
 30
0.0
 11
12579.59527819154
 21
2338.112805903256
 31
0.0
  0
LINE
  5
13152
330
747D
100
AcDbEntity
  8
細線
 48
50.0
100
AcDbLine
 10
12594.59527819153
 20
4428.112805903256
 30
0.0
 11
12594.59527819154
 21
2338.112805903256
 31
0.0
  0
LINE
  5
13153
330
747D
100
AcDbEntity
  8
細線
 48
50.0
100
AcDbLine
 10
12734.59527819153
 20
4428.112805903256
 30
0.0
 11
12734.59527819154
 21
2338.112805903256
 31
0.0
  0
LINE
  5
13154
330
747D
100
AcDbEntity
  8
細線
 48
50.0
100
AcDbLine
 10
12719.59527819153
 20
4428.112805903256
 30
0.0
 11
12719.59527819154
 21
2338.112805903256
 31
0.0
  0
LINE
  5
13155
330
747D
100
AcDbEntity
  8
部品1
100
AcDbLine
 10
12377.09527819153
 20
4428.112805903256
 30
0.0
 11
12377.09527819153
 21
2338.112805903256
 31
0.0
  0
DIMENSION
  5
13156
330
747D
100
AcDbEntity
  8
寸法
 48
50.0
100
AcDbDimension
  2
*D20
 10
14192.09527819153
 20
5061.770259482561
 30
0.0
 11
14398.14252228602
 21
5061.770259482561
 31
0.0
 70
   160
 71
     5
 42
80.0
  3
INABA_S40G
100
AcDbAlignedDimension
 13
14112.09527819153
 23
4609.923485514911
 33
0.0
 14
14192.09527819153
 24
4608.112805903258
 34
0.0
100
AcDbRotatedDimension
1001
ACAD
1000
DSTYLE
1002
{
1070
   174
1070
     0
1070
   272
1070
     1
1070
   288
1070
     0
1070
   341
1005
0
1002
}
  0
LINE
  5
13157
330
747D
100
AcDbEntity
  8
細線
 48
50.0
100
AcDbLine
 10
11614.59527819153
 20
4428.112805903256
 30
0.0
 11
11614.59527819153
 21
2338.112805903256
 31
0.0
  0
LINE
  5
13158
330
747D
100
AcDbEntity
  8
細線
 48
50.0
100
AcDbLine
 10
11599.59527819153
 20
4428.112805903256
 30
0.0
 11
11599.59527819153
 21
2338.112805903256
 31
0.0
  0
LINE
  5
13159
330
747D
100
AcDbEntity
  8
細線
 48
50.0
100
AcDbLine
 10
11739.59527819153
 20
4428.112805903256
 30
0.0
 11
11739.59527819153
 21
2338.112805903256
 31
0.0
  0
LINE
  5
1315A
330
747D
100
AcDbEntity
  8
細線
 48
50.0
100
AcDbLine
 10
11754.59527819153
 20
4428.112805903256
 30
0.0
 11
11754.59527819153
 21
2338.112805903256
 31
0.0
  0
LINE
  5
1315B
330
747D
100
AcDbEntity
  8
細線
 48
50.0
100
AcDbLine
 10
11894.59527819153
 20
4428.112805903256
 30
0.0
 11
11894.59527819153
 21
2338.112805903256
 31
0.0
  0
LINE
  5
1315C
330
747D
100
AcDbEntity
  8
細線
 48
50.0
100
AcDbLine
 10
11879.59527819153
 20
4428.112805903256
 30
0.0
 11
11879.59527819153
 21
2338.112805903256
 31
0.0
  0
LINE
  5
1315D
330
747D
100
AcDbEntity
  8
細線
 48
50.0
100
AcDbLine
 10
12299.59527819153
 20
4428.112805903256
 30
0.0
 11
12299.59527819153
 21
2338.112805903256
 31
0.0
  0
LINE
  5
1315E
330
747D
100
AcDbEntity
  8
細線
 48
50.0
100
AcDbLine
 10
12314.59527819153
 20
4428.112805903256
 30
0.0
 11
12314.59527819153
 21
2338.112805903256
 31
0.0
  0
LINE
  5
1315F
330
747D
100
AcDbEntity
  8
細線
 48
50.0
100
AcDbLine
 10
12174.59527819153
 20
4428.112805903256
 30
0.0
 11
12174.59527819153
 21
2338.112805903256
 31
0.0
  0
LINE
  5
13160
330
747D
100
AcDbEntity
  8
細線
 48
50.0
100
AcDbLine
 10
12159.59527819153
 20
4428.112805903256
 30
0.0
 11
12159.59527819153
 21
2338.112805903256
 31
0.0
  0
LINE
  5
13161
330
747D
100
AcDbEntity
  8
細線
 48
50.0
100
AcDbLine
 10
12019.59527819153
 20
4428.112805903256
 30
0.0
 11
12019.59527819153
 21
2338.112805903256
 31
0.0
  0
LINE
  5
13162
330
747D
100
AcDbEntity
  8
細線
 48
50.0
100
AcDbLine
 10
12034.59527819153
 20
4428.112805903256
 30
0.0
 11
12034.59527819153
 21
2338.112805903256
 31
0.0
  0
LINE
  5
13163
330
747D
100
AcDbEntity
  8
部品1
100
AcDbLine
 10
11482.09527819153
 20
2288.112805903256
 30
0.0
 11
14112.09527819154
 21
2288.112805903256
 31
0.0
  0
DIMENSION
  5
13164
330
747D
100
AcDbEntity
  8
寸法
 48
50.0
100
AcDbDimension
  2
*D21
 10
11422.09527819153
 20
5281.980946214178
 30
0.0
 11
12825.45420307891
 21
5281.980946214178
 31
0.0
 70
   160
 71
     5
 42
2770.0
  3
INABA_S40G
100
AcDbAlignedDimension
 13
14192.09527819153
 23
4608.112805903258
 33
0.0
 14
11422.09527819153
 24
4663.112805903261
 34
0.0
100
AcDbRotatedDimension
1001
ACAD
1000
DSTYLE
1002
{
1070
   174
1070
     0
1070
   272
1070
     1
1070
   288
1070
     0
1070
   341
1005
0
1002
}
  0
DIMENSION
  5
13165
330
747D
100
AcDbEntity
  8
寸法
 48
50.0
100
AcDbDimension
  2
*D22
 10
11422.09527819153
 20
5061.77025948256
 30
0.0
 11
11112.45748291594
 21
5061.77025948256
 31
0.0
 70
   160
 71
     5
 42
60.0
  3
INABA_S40G
100
AcDbAlignedDimension
 13
11482.09527819153
 23
4659.114424026233
 33
0.0
 14
11422.09527819153
 24
4663.112805903261
 34
0.0
100
AcDbRotatedDimension
1001
ACAD
1000
DSTYLE
1002
{
1070
   174
1070
     0
1070
   272
1070
     1
1070
   288
1070
     0
1070
   341
1005
0
1002
}
  0
DIMENSION
  5
13166
330
747D
100
AcDbEntity
  8
寸法
 48
50.0
100
AcDbDimension
  2
*D23
 10
11482.09527819153
 20
5061.770259482561
 30
0.0
 11
12836.86546922073
 21
5061.770259482561
 31
0.0
 70
   160
  1
柱外寸法<>
 71
     5
 42
2630.0
  3
INABA_S40G
100
AcDbAlignedDimension
 13
14112.09527819153
 23
4609.923485514911
 33
0.0
 14
11482.09527819153
 24
4659.114424026233
 34
0.0
100
AcDbRotatedDimension
1001
ACAD
1000
DSTYLE
1002
{
1070
   174
1070
     0
1070
   272
1070
     1
1070
   288
1070
     0
1070
   341
1005
0
1002
}
  0
LINE
  5
13167
330
747D
100
AcDbEntity
  8
部品1
100
AcDbLine
 10
14057.09527819153
 20
4428.112805903256
 30
0.0
 11
14057.09527819154
 21
2338.112805903256
 31
0.0
  0
LINE
  5
13168
330
747D
100
AcDbEntity
  8
部品1
100
AcDbLine
 10
14112.09527819153
 20
4482.647079290995
 30
0.0
 11
14112.09527819154
 21
2188.112805903256
 31
0.0
  0
LINE
  5
13169
330
747D
100
AcDbEntity
  8
部品1
100
AcDbLine
 10
11957.09527819153
 20
4428.112805903256
 30
0.0
 11
11957.09527819153
 21
2338.112805903256
 31
0.0
  0
DIMENSION
  5
1316A
330
747D
100
AcDbEntity
  8
寸法
100
AcDbDimension
  2
*D24
 10
10638.34514900827
 20
2288.112805903256
 30
0.0
 11
10638.34514900827
 21
1982.065561808767
 31
0.0
 70
   160
 71
     5
 42
50.0
  3
INABA_S40G
100
AcDbAlignedDimension
 13
11482.09527819153
 23
2338.112805903256
 33
0.0
 14
11427.09527819153
 24
2288.112805903256
 34
0.0
 50
90.0
100
AcDbRotatedDimension
1001
ACAD
1000
DSTYLE
1002
{
1070
   174
1070
     0
1070
   272
1070
     1
1070
   288
1070
     0
1070
   341
1005
0
1002
}
  0
LINE
  5
1316B
330
747D
100
AcDbEntity
  8
部品1
100
AcDbLine
 10
11482.09527819153
 20
4520.255243832134
 30
0.0
 11
11482.09527819153
 21
2188.112805903256
 31
0.0
  0
LINE
  5
1316C
330
747D
100
AcDbEntity
  8
部品1
100
AcDbLine
 10
11537.09527819153
 20
4428.112805903256
 30
0.0
 11
11537.09527819153
 21
2338.112805903256
 31
0.0
  0
LINE
  5
1316D
330
747D
100
AcDbEntity
  8
部品1
100
AcDbLine
 10
11482.09527819153
 20
2338.112805903256
 30
0.0
 11
14112.09527819154
 21
2338.112805903256
 31
0.0
  0
LINE
  5
1316E
330
747D
100
AcDbEntity
  8
部品1
100
AcDbLine
 10
11482.09527819153
 20
4428.112805903256
 30
0.0
 11
14112.09527819153
 21
4428.112805903256
 31
0.0
  0
LINE
  5
1316F
330
747D
100
AcDbEntity
  8
部品1
100
AcDbLine
 10
13637.09527819153
 20
4428.112805903256
 30
0.0
 11
13637.09527819153
 21
2338.112805903256
 31
0.0
  0
LINE
  5
13170
330
747D
100
AcDbEntity
  8
細線
 48
50.0
100
AcDbLine
 10
13139.59527819153
 20
4428.112805903256
 30
0.0
 11
13139.59527819154
 21
2338.112805903256
 31
0.0
  0
LINE
  5
13171
330
747D
100
AcDbEntity
  8
細線
 48
50.0
100
AcDbLine
 10
13154.59527819153
 20
4428.112805903256
 30
0.0
 11
13154.59527819154
 21
2338.112805903256
 31
0.0
  0
LINE
  5
13172
330
747D
100
AcDbEntity
  8
細線
 48
50.0
100
AcDbLine
 10
13014.59527819153
 20
4428.112805903256
 30
0.0
 11
13014.59527819154
 21
2338.112805903256
 31
0.0
  0
LINE
  5
13173
330
747D
100
AcDbEntity
  8
細線
 48
50.0
100
AcDbLine
 10
12999.59527819153
 20
4428.112805903256
 30
0.0
 11
12999.59527819154
 21
2338.112805903256
 31
0.0
  0
LINE
  5
13174
330
747D
100
AcDbEntity
  8
細線
 48
50.0
100
AcDbLine
 10
12859.59527819153
 20
4428.112805903256
 30
0.0
 11
12859.59527819154
 21
2338.112805903256
 31
0.0
  0
LINE
  5
13175
330
747D
100
AcDbEntity
  8
細線
 48
50.0
100
AcDbLine
 10
12874.59527819153
 20
4428.112805903256
 30
0.0
 11
12874.59527819154
 21
2338.112805903256
 31
0.0
  0
TEXT
  5
13176
330
747D
100
AcDbEntity
  8
部品1
 48
50.0
100
AcDbText
 10
13148.67628015263
 20
4685.381898841562
 30
0.0
 40
120.0
  1
37
 50
90.0
  7
STYLE1
100
AcDbText
  0
TEXT
  5
13177
330
747D
100
AcDbEntity
  8
部品1
 48
50.0
100
AcDbText
 10
12671.04325748754
 20
4822.883157059845
 30
0.0
 40
120.0
  1
1000
  7
STYLE1
100
AcDbText
  0
LINE
  5
13178
330
747D
100
AcDbEntity
  8
部品1
 48
50.0
100
AcDbLine
 10
12982.77542226381
 20
4786.999134907412
 30
0.0
 11
12982.77542226381
 21
4770.799134907415
 31
0.0
  0
LINE
  5
13179
330
747D
100
AcDbEntity
  8
部品1
 48
50.0
100
AcDbLine
 10
12682.77542226381
 20
4786.999134907412
 30
0.0
 11
12982.77542226381
 21
4786.999134907412
 31
0.0
  0
LINE
  5
1317A
330
747D
100
AcDbEntity
  8
部品1
100
AcDbLine
 10
11429.64026454849
 20
4661.830541237523
 30
0.0
 11
14184.707155053
 21
4606.753603612396
 31
0.0
  0
LINE
  5
1317B
330
747D
100
AcDbEntity
  8
部品1
100
AcDbLine
 10
11437.43784279348
 20
4520.893830972223
 30
0.0
 11
14166.75897873138
 21
4481.865405738019
 31
0.0
  0
LINE
  5
1317C
330
747D
100
AcDbEntity
  8
細線
 48
50.0
100
AcDbLine
 10
11455.09527819153
 20
4660.51248227866
 30
0.0
 11
11449.80617663603
 21
4520.426849651307
 31
0.0
  0
LINE
  5
1317D
330
747D
100
AcDbEntity
  8
細線
 48
50.0
100
AcDbLine
 10
14159.06456138523
 20
4607.266228382727
 30
0.0
 11
14154.34759530354
 21
4482.334012447809
 31
0.0
  0
LINE
  5
1317E
330
747D
100
AcDbEntity
  8
部品1
 48
50.0
100
AcDbLine
 10
11422.27956410464
 20
4654.706352067949
 30
0.0
 11
11422.65982388245
 21
4634.779387621536
 31
0.0
  0
LINE
  5
1317F
330
747D
100
AcDbEntity
  8
部品1
 48
50.0
100
AcDbLine
 10
11425.7285959887
 20
4631.204106128065
 30
0.0
 11
11427.43249748006
 21
4541.913609421419
 31
0.0
  0
LINE
  5
13180
330
747D
100
AcDbEntity
  8
細線
 48
50.0
100
AcDbLine
 10
11423.13470129235
 20
4634.129887744617
 30
0.0
 11
14188.77068603752
 21
4578.505683103791
 31
0.0
  0
LINE
  5
13181
330
747D
100
AcDbEntity
  8
細線
 48
50.0
100
AcDbLine
 10
11427.89517652963
 20
4541.268376046755
 30
0.0
 11
14177.89884096027
 21
4501.459057072261
 31
0.0
  0
LINE
  5
13182
330
747D
100
AcDbEntity
  8
部品1
 48
50.0
100
AcDbLine
 10
11430.5012695863
 20
4538.338327927946
 30
0.0
 11
11430.70322220673
 21
4527.755292534854
 31
0.0
  0
ARC
  5
13183
330
747D
100
AcDbEntity
  8
部品1
 48
50.0
100
AcDbCircle
 10
11429.27828993298
 20
4654.839906475376
 30
0.0
 40
7.0
100
AcDbArc
 50
87.03587545283102
 51
181.0932240293156
  0
ARC
  5
13184
330
747D
100
AcDbEntity
  8
部品1
 48
50.0
100
AcDbCircle
 10
11437.70194803507
 20
4527.888846942281
 30
0.0
 40
7.0
100
AcDbArc
 50
181.0932240293156
 51
267.8377559869488
  0
ARC
  5
13185
330
747D
100
AcDbEntity
  8
部品1
100
AcDbCircle
 10
11427.50181565987
 20
4538.281090324763
 30
0.0
 40
3.0
100
AcDbArc
 50
1.093224029315636
 51
80.18775403169737
  0
ARC
  5
13186
330
747D
100
AcDbEntity
  8
部品1
100
AcDbCircle
 10
11422.72914206227
 20
4631.146868524882
 30
0.0
 40
3.0
100
AcDbArc
 50
1.093224029315636
 51
80.18775403169737
  0
ARC
  5
13187
330
747D
100
AcDbEntity
  8
部品1
100
AcDbCircle
 10
11423.35969646529
 20
4634.79274306228
 30
0.0
 40
0.7
100
AcDbArc
 50
181.0932240292114
 51
260.1877540314855
  0
ARC
  5
13188
330
747D
100
AcDbEntity
  8
部品1
100
AcDbCircle
 10
11428.1323700629
 20
4541.926964862159
 30
0.0
 40
0.7
100
AcDbArc
 50
181.0932240292635
 51
260.1877540314855
  0
LINE
  5
13189
330
747D
100
AcDbEntity
  8
部品1
 48
50.0
100
AcDbLine
 10
14191.30918100224
 20
4599.053958177475
 30
0.0
 11
14189.27855981127
 21
4579.108916919696
 31
0.0
  0
LINE
  5
1318A
330
747D
100
AcDbEntity
  8
部品1
 48
50.0
100
AcDbLine
 10
14185.92599332679
 20
4575.798282846786
 30
0.0
 11
14178.41921406195
 21
4502.065662101773
 31
0.0
  0
LINE
  5
1318B
330
747D
100
AcDbEntity
  8
部品1
 48
50.0
100
AcDbLine
 10
14175.06664757746
 20
4498.755028028863
 30
0.0
 11
14173.98708453772
 21
4488.151411035303
 31
0.0
  0
ARC
  5
1318C
330
747D
100
AcDbEntity
  8
部品1
 48
50.0
100
AcDbCircle
 10
14184.34518043748
 20
4599.762968850249
 30
0.0
 40
7.0
100
AcDbArc
 50
354.186699766558
 51
87.03587545283102
  0
ARC
  5
1318D
330
747D
100
AcDbEntity
  8
部品1
 48
50.0
100
AcDbCircle
 10
14167.02308397297
 20
4488.860421708078
 30
0.0
 40
7.0
100
AcDbArc
 50
267.8377559869488
 51
354.186699766558
  0
ARC
  5
1318E
330
747D
100
AcDbEntity
  8
部品1
100
AcDbCircle
 10
14178.05121924807
 20
4498.451166311959
 30
0.0
 40
3.0
100
AcDbArc
 50
95.0921697642102
 51
174.186699766558
  0
ARC
  5
1318F
330
747D
100
AcDbEntity
  8
部品1
100
AcDbCircle
 10
14188.9105649974
 20
4575.494421129882
 30
0.0
 40
3.0
100
AcDbArc
 50
95.0921697642102
 51
174.186699766558
  0
ARC
  5
13190
330
747D
100
AcDbEntity
  8
部品1
100
AcDbCircle
 10
14188.58215975479
 20
4579.179817986973
 30
0.0
 40
0.7
100
AcDbArc
 50
275.0921697642102
 51
354.186699766558
  0
ARC
  5
13191
330
747D
100
AcDbEntity
  8
部品1
100
AcDbCircle
 10
14177.72281400548
 20
4502.13656316905
 30
0.0
 40
0.7
100
AcDbArc
 50
275.0921697642102
 51
354.186699766712
  0
LINE
  5
13192
330
747D
100
AcDbEntity
  8
部品1
100
AcDbLine
 10
12657.32040862077
 20
4788.317193866275
 30
0.0
 11
12982.77542226381
 21
4770.799134907415
 31
0.0
  0
LINE
  5
13193
330
747D
100
AcDbEntity
  8
部品1
100
AcDbLine
 10
13217.09527819153
 20
4428.112805903256
 30
0.0
 11
13217.09527819153
 21
2338.112805903258
 31
0.0
  0
LINE
  5
13194
330
747D
100
AcDbEntity
  8
細線
 48
50.0
100
AcDbLine
 10
13294.59527819153
 20
4428.112805903256
 30
0.0
 11
13294.59527819154
 21
2338.112805903258
 31
0.0
  0
LINE
  5
13195
330
747D
100
AcDbEntity
  8
細線
 48
50.0
100
AcDbLine
 10
13279.59527819153
 20
4428.112805903256
 30
0.0
 11
13279.59527819154
 21
2338.112805903258
 31
0.0
  0
LINE
  5
13196
330
747D
100
AcDbEntity
  8
細線
 48
50.0
100
AcDbLine
 10
13419.59527819153
 20
4428.112805903256
 30
0.0
 11
13419.59527819154
 21
2338.112805903258
 31
0.0
  0
LINE
  5
13197
330
747D
100
AcDbEntity
  8
細線
 48
50.0
100
AcDbLine
 10
13434.59527819153
 20
4428.112805903256
 30
0.0
 11
13434.59527819154
 21
2338.112805903258
 31
0.0
  0
LINE
  5
13198
330
747D
100
AcDbEntity
  8
細線
 48
50.0
100
AcDbLine
 10
13574.59527819153
 20
4428.112805903256
 30
0.0
 11
13574.59527819154
 21
2338.112805903258
 31
0.0
  0
LINE
  5
13199
330
747D
100
AcDbEntity
  8
細線
 48
50.0
100
AcDbLine
 10
13559.59527819153
 20
4428.112805903256
 30
0.0
 11
13559.59527819154
 21
2338.112805903258
 31
0.0
  0
DIMENSION
  5
1319A
330
747D
100
AcDbEntity
  8
寸法
100
AcDbDimension
  2
*D25
 10
14817.02243616366
 20
4608.112805903256
 30
0.0
 11
14717.01062514004
 21
3448.112805903259
 31
0.0
 70
    32
 71
     5
 42
2320.0
  3
INABA_S40G
100
AcDbAlignedDimension
 13
14112.09527819154
 23
2288.112805903257
 33
0.0
 14
14192.09527819153
 24
4608.112805903257
 34
0.0
 50
90.0
100
AcDbRotatedDimension
1001
ACAD
1000
DSTYLE
1002
{
1070
   174
1070
     0
1070
   272
1070
     1
1070
   288
1070
     0
1070
   341
1005
0
1002
}
  0
DIMENSION
  5
1319B
330
747D
100
AcDbEntity
  8
寸法
100
AcDbDimension
  2
*D26
 10
10338.34514900827
 20
4663.112805903256
 30
0.0
 11
10238.33333798465
 21
3475.612805903256
 31
0.0
 70
    32
 71
     5
 42
2375.000000000005
  3
INABA_S40G
100
AcDbAlignedDimension
 13
11482.09527819153
 23
2288.112805903252
 33
0.0
 14
11422.09527819153
 24
4663.112805903256
 34
0.0
 50
90.0
100
AcDbRotatedDimension
1001
ACAD
1000
DSTYLE
1002
{
1070
   174
1070
     0
1070
   272
1070
     1
1070
   288
1070
     0
1070
   341
1005
0
1002
}
  0
DIMENSION
  5
1319C
330
747D
100
AcDbEntity
  8
寸法
100
AcDbDimension
  2
*D27
 10
10638.34514900827
 20
2338.112805903252
 30
0.0
 11
10538.33333798465
 21
3383.112805903254
 31
0.0
 70
    32
 71
     5
 42
2090.000000000001
  3
INABA_S40G
100
AcDbAlignedDimension
 13
11482.09527819153
 23
4428.112805903253
 33
0.0
 14
11482.09527819153
 24
2338.112805903252
 34
0.0
 50
90.0
100
AcDbRotatedDimension
1001
ACAD
1000
DSTYLE
1002
{
1070
   174
1070
     0
1070
   272
1070
     1
1070
   288
1070
     0
1070
   341
1005
0
1002
}
  0
LINE
  5
1319D
330
747D
100
AcDbEntity
  8
部品1
100
AcDbLine
 10
11405.09527819153
 20
4413.799910811658
 30
0.0
 11
11405.09527819153
 21
2188.112805903256
 31
0.0
  0
DIMENSION
  5
1319E
330
747D
100
AcDbEntity
  8
寸法
 48
50.0
100
AcDbDimension
  2
*D28
 10
10937.18663679428
 20
2354.112805903257
 30
0.0
 11
10845.17482577066
 21
3366.612805903259
 31
0.0
 70
    32
  1
有効開口部高サ<>
 71
     5
 42
2025.0
  3
INABA_S40
100
AcDbAlignedDimension
 13
11405.09527819153
 23
4379.112805903257
 33
0.0
 14
11405.09527819153
 24
2354.112805903256
 34
0.0
 50
90.0
100
AcDbRotatedDimension
1001
ACAD
1000
DSTYLE
1002
{
1070
    41
1040
0.5
1070
    44
1040
1.0
1070
   147
1040
0.8
1070
   271
1070
     2
1070
   272
1070
     2
1070
   289
1070
     3
1070
   340
1005
F706
1070
   343
1005
F744
1070
   344
1005
F744
1002
}
  0
LINE
  5
1319F
330
747D
100
AcDbEntity
  8
部品1
100
AcDbLine
 10
11482.09527819153
 20
2288.112805903256
 30
0.0
 11
11405.09527819153
 21
2288.112805903256
 31
0.0
  0
LINE
  5
131A0
330
747D
100
AcDbEntity
  8
部品1
100
AcDbLine
 10
11405.09527819153
 20
4413.799910811658
 30
0.0
 11
11482.09527819153
 21
4428.112805903256
 31
0.0
  0
TEXT
  5
1324E
330
747D
100
AcDbEntity
  8
部品1
100
AcDbText
 10
12559.52947298091
 20
1635.81691063289
 30
0.0
 40
135.0
  1
側面図
  7
STYLE2
100
AcDbText
  0
LWPOLYLINE
  5
1324F
330
747D
100
AcDbEntity
  8
部品1
100
AcDbPolyline
 90
        4
 70
     1
 43
0.0
 10
12470.0833715573
 20
1828.710439851413
 10
12470.0833715573
 20
1588.81811830588
 10
13233.55403778574
 20
1588.81811830588
 10
13233.55403778574
 20
1828.710439851413
  0
LWPOLYLINE
  5
13305
330
747D
100
AcDbEntity
  8
部品1
100
AcDbPolyline
 90
        4
 70
     1
 43
0.0
 10
4747.960182234318
 20
6087.809016095388
 10
4747.960182234318
 20
5847.916694549855
 10
5511.430848462762
 20
5847.916694549855
 10
5511.430848462762
 20
6087.809016095388
  0
TEXT
  5
13306
330
747D
100
AcDbEntity
  8
部品1
100
AcDbText
 10
4837.879792063358
 20
5894.915486876864
 30
0.0
 40
135.0
  1
平面図
  7
STYLE2
100
AcDbText
  0
TEXT
  5
13307
330
747D
100
AcDbEntity
  8
部品1
100
AcDbText
 10
4838.485585972252
 20
1635.816910632888
 30
0.0
 40
135.0
  1
正面図
  7
STYLE2
100
AcDbText
  0
LWPOLYLINE
  5
13308
330
747D
100
AcDbEntity
  8
部品1
100
AcDbPolyline
 90
        4
 70
     1
 43
0.0
 10
4747.960182234296
 20
1828.710439851412
 10
4747.960182234296
 20
1588.818118305879
 10
5511.43084846274
 20
1588.818118305879
 10
5511.43084846274
 20
1828.710439851412
  0
TEXT
  5
13309
330
747D
100
AcDbEntity
  8
文字
 62
     7
 48
50.0
100
AcDbText
 10
14505.34213575793
 20
483.8967129911411
 30
0.0
 40
160.0
  1
ＮＸＮ－１８０Ｈ
  7
STYLE2
100
AcDbText
  0
TEXT
  5
1330A
330
747D
100
AcDbEntity
  8
文字
 62
     7
 48
50.0
100
AcDbText
 10
13209.4053442172
 20
228.5435242569015
 30
0.0
 40
100.0
  1
○有効開口寸法 ： 1266×2025(mm)
  7
STYLE2
100
AcDbText
  0
TEXT
  5
1330B
330
747D
100
AcDbEntity
  8
文字
 62
     7
 48
50.0
100
AcDbText
 10
15022.63965474517
 20
9910.01374588373
 30
0.0
 40
100.0
  1
F12,Y10        1.0
  7
STYLE1
100
AcDbText
  0
TEXT
  5
1330C
330
747D
100
AcDbEntity
  8
文字
 62
     7
 48
50.0
100
AcDbText
 10
13583.1181901657
 20
9910.01374588373
 30
0.0
 40
100.0
  1
梁中
 41
0.9
  7
STYLE1
100
AcDbText
  0
TEXT
  5
1330D
330
747D
100
AcDbEntity
  8
文字
 62
     7
 48
50.0
100
AcDbText
 10
13248.77747366447
 20
8380.013745883728
 30
0.0
 40
100.0
  1
17
  7
STYLE1
100
AcDbText
  0
TEXT
  5
1330E
330
747D
100
AcDbEntity
  8
文字
 62
     7
 48
50.0
100
AcDbText
 10
13248.77747366447
 20
8550.013745883729
 30
0.0
 40
100.0
  1
16
  7
STYLE1
100
AcDbText
  0
TEXT
  5
1330F
330
747D
100
AcDbEntity
  8
文字
 62
     7
 48
50.0
100
AcDbText
 10
15022.63965474517
 20
8890.013745883726
 30
0.0
 40
100.0
  1
F12            1.0
  7
STYLE1
100
AcDbText
  0
TEXT
  5
13310
330
747D
100
AcDbEntity
  8
文字
 62
     7
 48
50.0
100
AcDbText
 10
13583.11819016569
 20
8890.013745883733
 30
0.0
 40
100.0
  1
壁面扉枠左右
  7
STYLE1
100
AcDbText
  0
TEXT
  5
13311
330
747D
100
AcDbEntity
  8
文字
 62
     7
 48
50.0
100
AcDbText
 10
15022.63965474517
 20
9060.013745883725
 30
0.0
 40
100.0
  1
F12            1.0
  7
STYLE1
100
AcDbText
  0
TEXT
  5
13312
330
747D
100
AcDbEntity
  8
文字
 62
     7
 48
50.0
100
AcDbText
 10
15022.63965474515
 20
9230.013745883729
 30
0.0
 40
100.0
  1
F12            0.7
  7
STYLE1
100
AcDbText
  0
TEXT
  5
13313
330
747D
100
AcDbEntity
  8
文字
 62
     7
 48
50.0
100
AcDbText
 10
13583.11819016569
 20
9060.013745883733
 30
0.0
 40
100.0
  1
壁面扉敷居
  7
STYLE1
100
AcDbText
  0
TEXT
  5
13314
330
747D
100
AcDbEntity
  8
文字
 62
     7
 48
50.0
100
AcDbText
 10
13583.11819016569
 20
9230.013745883729
 30
0.0
 40
100.0
  1
壁面扉鴨居
  7
STYLE1
100
AcDbText
  0
LINE
  5
13315
330
747D
100
AcDbEntity
  8
仕様書枠
 48
50.0
100
AcDbLine
 10
16307.19999999999
 20
8689.600000000003
 30
0.0
 11
13127.2
 21
8689.600000000007
 31
0.0
  0
LINE
  5
13316
330
747D
100
AcDbEntity
  8
仕様書枠
 48
50.0
100
AcDbLine
 10
16307.19999999999
 20
8519.600000000004
 30
0.0
 11
13127.2
 21
8519.600000000009
 31
0.0
  0
TEXT
  5
13317
330
747D
100
AcDbEntity
  8
文字
 62
     7
 48
50.0
100
AcDbText
 10
13583.11819016569
 20
8380.013745883728
 30
0.0
 40
100.0
  1
アンカープレート
  7
STYLE1
100
AcDbText
  0
TEXT
  5
13318
330
747D
100
AcDbEntity
  8
文字
 62
     7
 48
50.0
100
AcDbText
 10
15022.63965474515
 20
8380.013745883726
 30
0.0
 40
100.0
  1
F12            2.3
  7
STYLE1
100
AcDbText
  0
LINE
  5
13319
330
747D
100
AcDbEntity
  8
仕様書枠
 48
50.0
100
AcDbLine
 10
16307.2
 20
10049.6
 30
0.0
 11
13127.2
 21
10049.6
 31
0.0
  0
LINE
  5
1331A
330
747D
100
AcDbEntity
  8
仕様書枠
 48
50.0
100
AcDbLine
 10
16307.2
 20
11409.6
 30
0.0
 11
13127.2
 21
11409.6
 31
0.0
  0
LINE
  5
1331B
330
747D
100
AcDbEntity
  8
仕様書枠
 48
50.0
100
AcDbLine
 10
16307.19999999999
 20
8009.600000000004
 30
0.0
 11
16307.2
 21
11409.6
 31
0.0
  0
LINE
  5
1331C
330
747D
100
AcDbEntity
  8
仕様書枠
 48
50.0
100
AcDbLine
 10
14785.2
 20
11409.59999999999
 30
0.0
 11
14785.2
 21
8349.600000000004
 31
0.0
  0
LINE
  5
1331D
330
747D
100
AcDbEntity
  8
仕様書枠
 48
50.0
100
AcDbLine
 10
13490.2
 20
11409.6
 30
0.0
 11
13490.20000000001
 21
8349.600000000007
 31
0.0
  0
LINE
  5
1331E
330
747D
100
AcDbEntity
  8
仕様書枠
 48
50.0
100
AcDbLine
 10
16307.2
 20
11239.6
 30
0.0
 11
13127.2
 21
11239.6
 31
0.0
  0
LINE
  5
1331F
330
747D
100
AcDbEntity
  8
仕様書枠
 48
50.0
100
AcDbLine
 10
16307.2
 20
10899.6
 30
0.0
 11
13127.2
 21
10899.6
 31
0.0
  0
LINE
  5
13320
330
747D
100
AcDbEntity
  8
仕様書枠
 48
50.0
100
AcDbLine
 10
16307.2
 20
11069.6
 30
0.0
 11
13127.2
 21
11069.6
 31
0.0
  0
LINE
  5
13321
330
747D
100
AcDbEntity
  8
仕様書枠
 48
50.0
100
AcDbLine
 10
16307.19999999999
 20
10559.6
 30
0.0
 11
13127.2
 21
10559.6
 31
0.0
  0
LINE
  5
13322
330
747D
100
AcDbEntity
  8
仕様書枠
 48
50.0
100
AcDbLine
 10
16307.19999999999
 20
10389.6
 30
0.0
 11
13127.2
 21
10389.6
 31
0.0
  0
LINE
  5
13323
330
747D
100
AcDbEntity
  8
仕様書枠
 48
50.0
100
AcDbLine
 10
16307.19999999999
 20
10729.6
 30
0.0
 11
13127.2
 21
10729.6
 31
0.0
  0
TEXT
  5
13324
330
747D
100
AcDbEntity
  8
文字
 62
     7
 48
50.0
100
AcDbText
 10
13197.42518560407
 20
11270.01374588373
 30
0.0
 40
100.0
  1
品番
  7
STYLE1
100
AcDbText
  0
TEXT
  5
13325
330
747D
100
AcDbEntity
  8
文字
 62
     7
 48
50.0
100
AcDbText
 10
13271.19032244792
 20
11100.01374588373
 30
0.0
 40
100.0
  1
1
  7
STYLE1
100
AcDbText
  0
TEXT
  5
13326
330
747D
100
AcDbEntity
  8
文字
 62
     7
 48
50.0
100
AcDbText
 10
13271.19032244792
 20
10930.01374588373
 30
0.0
 40
100.0
  1
2
  7
STYLE1
100
AcDbText
  0
TEXT
  5
13327
330
747D
100
AcDbEntity
  8
文字
 62
     7
 48
50.0
100
AcDbText
 10
13271.19032244792
 20
10590.01374588373
 30
0.0
 40
100.0
  1
4
  7
STYLE1
100
AcDbText
  0
TEXT
  5
13328
330
747D
100
AcDbEntity
  8
文字
 62
     7
 48
50.0
100
AcDbText
 10
13271.19032244792
 20
10760.01374588373
 30
0.0
 40
100.0
  1
3
  7
STYLE1
100
AcDbText
  0
TEXT
  5
13329
330
747D
100
AcDbEntity
  8
文字
 62
     7
 48
50.0
100
AcDbText
 10
13732.03840939434
 20
11270.01374588373
 30
0.0
 40
100.0
  1
部　　品　　名
  7
STYLE1
100
AcDbText
  0
TEXT
  5
1332A
330
747D
100
AcDbEntity
  8
文字
 62
     7
 48
50.0
100
AcDbText
 10
14859.79774614482
 20
11270.01374588373
 30
0.0
 40
100.0
  1
材料（材質）　　単位mm
  7
STYLE1
100
AcDbText
  0
TEXT
  5
1332B
330
747D
100
AcDbEntity
  8
文字
 62
     7
 48
50.0
100
AcDbText
 10
13583.11819016569
 20
11100.01374588373
 30
0.0
 40
100.0
  1
土台枠
  7
STYLE1
100
AcDbText
  0
TEXT
  5
1332C
330
747D
100
AcDbEntity
  8
文字
 62
     7
 48
50.0
100
AcDbText
 10
13583.1181901657
 20
10760.01374588373
 30
0.0
 40
100.0
  1
柱
  7
STYLE1
100
AcDbText
  0
TEXT
  5
1332D
330
747D
100
AcDbEntity
  8
文字
 62
     7
 48
50.0
100
AcDbText
 10
13583.11819016569
 20
10420.01374588373
 30
0.0
 40
100.0
  1
桁前後
  7
STYLE1
100
AcDbText
  0
TEXT
  5
1332E
330
747D
100
AcDbEntity
  8
文字
 62
     7
 48
50.0
100
AcDbText
 10
13271.19032244792
 20
10420.01374588373
 30
0.0
 40
100.0
  1
5
  7
STYLE1
100
AcDbText
  0
TEXT
  5
1332F
330
747D
100
AcDbEntity
  8
文字
 62
     7
 48
50.0
100
AcDbText
 10
13583.11819016569
 20
10250.01374588373
 30
0.0
 40
100.0
  1
妻板左右
  7
STYLE1
100
AcDbText
  0
TEXT
  5
13330
330
747D
100
AcDbEntity
  8
文字
 62
     7
 48
50.0
100
AcDbText
 10
13248.77747366447
 20
9570.013745883729
 30
0.0
 40
100.0
  1
10
  7
STYLE1
100
AcDbText
  0
TEXT
  5
13331
330
747D
100
AcDbEntity
  8
文字
 62
     7
 48
50.0
100
AcDbText
 10
13583.11819016568
 20
9400.013745883729
 30
0.0
 40
100.0
  1
壁パネル
  7
STYLE1
100
AcDbText
  0
TEXT
  5
13332
330
747D
100
AcDbEntity
  8
文字
 62
     7
 48
50.0
100
AcDbText
 10
13583.11819016569
 20
9740.013745883729
 30
0.0
 40
100.0
  1
屋根パネル
  7
STYLE1
100
AcDbText
  0
TEXT
  5
13333
330
747D
100
AcDbEntity
  8
文字
 62
     7
 48
50.0
100
AcDbText
 10
13583.11819016569
 20
10080.01374588373
 30
0.0
 40
100.0
  1
鼻隠シ前後
  7
STYLE1
100
AcDbText
  0
TEXT
  5
13334
330
747D
100
AcDbEntity
  8
文字
 62
     7
 48
50.0
100
AcDbText
 10
13271.19032244792
 20
9910.01374588373
 30
0.0
 40
100.0
  1
8
  7
STYLE1
100
AcDbText
  0
TEXT
  5
13335
330
747D
100
AcDbEntity
  8
文字
 62
     7
 48
50.0
100
AcDbText
 10
13271.19032244792
 20
9740.013745883729
 30
0.0
 40
100.0
  1
9
  7
STYLE1
100
AcDbText
  0
TEXT
  5
13336
330
747D
100
AcDbEntity
  8
文字
 62
     7
 48
50.0
100
AcDbText
 10
13271.19032244792
 20
10080.01374588373
 30
0.0
 40
100.0
  1
7
  7
STYLE1
100
AcDbText
  0
TEXT
  5
13337
330
747D
100
AcDbEntity
  8
文字
 62
     7
 48
50.0
100
AcDbText
 10
13271.19032244792
 20
10250.01374588373
 30
0.0
 40
100.0
  1
6
  7
STYLE1
100
AcDbText
  0
LINE
  5
13338
330
747D
100
AcDbEntity
  8
仕様書枠
 48
50.0
100
AcDbLine
 10
16307.19999999999
 20
9709.600000000001
 30
0.0
 11
13127.2
 21
9709.600000000001
 31
0.0
  0
LINE
  5
13339
330
747D
100
AcDbEntity
  8
仕様書枠
 48
50.0
100
AcDbLine
 10
16307.19999999999
 20
9369.600000000001
 30
0.0
 11
13127.2
 21
9369.600000000001
 31
0.0
  0
LINE
  5
1333A
330
747D
100
AcDbEntity
  8
仕様書枠
 48
50.0
100
AcDbLine
 10
16307.19999999999
 20
9539.6
 30
0.0
 11
13127.2
 21
9539.6
 31
0.0
  0
LINE
  5
1333B
330
747D
100
AcDbEntity
  8
仕様書枠
 48
50.0
100
AcDbLine
 10
16307.2
 20
10219.6
 30
0.0
 11
13127.2
 21
10219.6
 31
0.0
  0
LINE
  5
1333C
330
747D
100
AcDbEntity
  8
仕様書枠
 48
50.0
100
AcDbLine
 10
16307.2
 20
9879.600000000001
 30
0.0
 11
13127.2
 21
9879.600000000001
 31
0.0
  0
TEXT
  5
1333D
330
747D
100
AcDbEntity
  8
文字
 62
     7
 48
50.0
100
AcDbText
 10
13248.77747366447
 20
9400.013745883729
 30
0.0
 40
100.0
  1
11
  7
STYLE1
100
AcDbText
  0
LINE
  5
1333E
330
747D
100
AcDbEntity
  8
仕様書枠
 48
50.0
100
AcDbLine
 10
16307.19999999999
 20
9199.600000000001
 30
0.0
 11
13127.2
 21
9199.600000000001
 31
0.0
  0
LINE
  5
1333F
330
747D
100
AcDbEntity
  8
仕様書枠
 48
50.0
100
AcDbLine
 10
16307.19999999999
 20
8859.6
 30
0.0
 11
13127.2
 21
8859.600000000005
 31
0.0
  0
TEXT
  5
13340
330
747D
100
AcDbEntity
  8
文字
 62
     7
 48
50.0
100
AcDbText
 10
13248.77747366448
 20
9060.013745883729
 30
0.0
 40
100.0
  1
13
  7
STYLE1
100
AcDbText
  0
TEXT
  5
13341
330
747D
100
AcDbEntity
  8
文字
 62
     7
 48
50.0
100
AcDbText
 10
13248.77747366448
 20
9230.013745883729
 30
0.0
 40
100.0
  1
12
  7
STYLE1
100
AcDbText
  0
TEXT
  5
13342
330
747D
100
AcDbEntity
  8
文字
 62
     7
 48
50.0
100
AcDbText
 10
15022.63965474517
 20
11100.01374588372
 30
0.0
 40
100.0
  1
F12            1.2
  7
STYLE1
100
AcDbText
  0
TEXT
  5
13343
330
747D
100
AcDbEntity
  8
文字
 62
     7
 48
50.0
100
AcDbText
 10
15022.63965474518
 20
10760.01374588372
 30
0.0
 40
100.0
  1
F12            1.0
  7
STYLE1
100
AcDbText
  0
TEXT
  5
13344
330
747D
100
AcDbEntity
  8
文字
 62
     7
 48
50.0
100
AcDbText
 10
15022.63965474516
 20
10420.01374588372
 30
0.0
 40
100.0
  1
Y10            1.0
  7
STYLE1
100
AcDbText
  0
TEXT
  5
13345
330
747D
100
AcDbEntity
  8
文字
 62
     7
 48
50.0
100
AcDbText
 10
15022.63965474516
 20
10250.01374588372
 30
0.0
 40
100.0
  1
Y10            0.7
  7
STYLE1
100
AcDbText
  0
TEXT
  5
13346
330
747D
100
AcDbEntity
  8
文字
 62
     7
 48
50.0
100
AcDbText
 10
15022.63965474516
 20
10080.01374588372
 30
0.0
 40
100.0
  1
Y10            0.7
  7
STYLE1
100
AcDbText
  0
TEXT
  5
13347
330
747D
100
AcDbEntity
  8
文字
 62
     7
 48
50.0
100
AcDbText
 10
15022.63965474517
 20
9740.013745883725
 30
0.0
 40
100.0
  1
Y10            0.5
  7
STYLE1
100
AcDbText
  0
TEXT
  5
13348
330
747D
100
AcDbEntity
  8
文字
 62
     7
 48
50.0
100
AcDbText
 10
15022.63965474515
 20
9400.013745883725
 30
0.0
 40
100.0
  1
F12            0.7
  7
STYLE1
100
AcDbText
  0
LINE
  5
13349
330
747D
100
AcDbEntity
  8
仕様書枠
 48
50.0
100
AcDbLine
 10
16307.19999999999
 20
8349.600000000004
 30
0.0
 11
13127.19999999999
 21
8349.600000000007
 31
0.0
  0
LINE
  5
1334A
330
747D
100
AcDbEntity
  8
仕様書枠
 48
50.0
100
AcDbLine
 10
16307.19999999999
 20
8009.600000000006
 30
0.0
 11
13127.19999999999
 21
8009.600000000006
 31
0.0
  0
TEXT
  5
1334B
330
747D
100
AcDbEntity
  8
文字
 62
     7
 48
50.0
100
AcDbText
 10
13229.83081656554
 20
8210.013745883737
 30
0.0
 40
100.0
  1
F12→溶融亜鉛めっき鋼板(JIS G 3302)
  7
STYLE1
100
AcDbText
  0
TEXT
  5
1334C
330
747D
100
AcDbEntity
  8
文字
 62
     7
 48
50.0
100
AcDbText
 10
13229.83081656554
 20
8040.013745883737
 30
0.0
 40
100.0
  1
Y10→溶融亜鉛-5％アルミニウム合金めっき鋼板(JIS G 3317)
 41
0.9
  7
STYLE1
100
AcDbText
  0
LINE
  5
1334D
330
747D
100
AcDbEntity
  8
仕様書枠
 48
50.0
100
AcDbLine
 10
13127.2
 20
11409.6
 30
0.0
 11
13127.19999999999
 21
8009.600000000004
 31
0.0
  0
LINE
  5
1334E
330
747D
100
AcDbEntity
  8
仕様書枠
 48
50.0
100
AcDbLine
 10
16307.19999999999
 20
9029.6
 30
0.0
 11
13127.2
 21
9029.600000000003
 31
0.0
  0
TEXT
  5
1334F
330
747D
100
AcDbEntity
  8
文字
 62
     7
 48
50.0
100
AcDbText
 10
13583.1181901657
 20
10590.01374588373
 30
0.0
 40
100.0
  1
床パネル
 41
0.9
  7
STYLE1
100
AcDbText
  0
TEXT
  5
13350
330
747D
100
AcDbEntity
  8
文字
 62
     7
 48
50.0
100
AcDbText
 10
13583.11819016569
 20
10930.01374588373
 30
0.0
 40
100.0
  1
根太
  7
STYLE1
100
AcDbText
  0
TEXT
  5
13351
330
747D
100
AcDbEntity
  8
文字
 62
     7
 48
50.0
100
AcDbText
 10
13248.77747366448
 20
8890.013745883729
 30
0.0
 40
100.0
  1
14
  7
STYLE1
100
AcDbText
  0
TEXT
  5
13352
330
747D
100
AcDbEntity
  8
文字
 62
     7
 48
50.0
100
AcDbText
 10
15022.63965474516
 20
10930.01374588372
 30
0.0
 40
100.0
  1
F12            1.2
  7
STYLE1
100
AcDbText
  0
TEXT
  5
13353
330
747D
100
AcDbEntity
  8
文字
 62
     7
 48
50.0
100
AcDbText
 10
15022.63965474517
 20
10590.01374588372
 30
0.0
 40
100.0
  1
F12            1.0
  7
STYLE1
100
AcDbText
  0
TEXT
  5
13354
330
747D
100
AcDbEntity
  8
文字
 62
     7
 48
50.0
100
AcDbText
 10
15022.63965474515
 20
8720.013745883729
 30
0.0
 40
100.0
  1
F12            0.7
  7
STYLE1
100
AcDbText
  0
TEXT
  5
13355
330
747D
100
AcDbEntity
  8
文字
 62
     7
 48
50.0
100
AcDbText
 10
13583.11819016568
 20
8720.013745883733
 30
0.0
 40
100.0
  1
正面パネル
  7
STYLE1
100
AcDbText
  0
TEXT
  5
13356
330
747D
100
AcDbEntity
  8
文字
 62
     7
 48
50.0
100
AcDbText
 10
15022.63965474516
 20
8550.013745883729
 30
0.0
 40
100.0
  1
F12            0.8
  7
STYLE1
100
AcDbText
  0
TEXT
  5
13357
330
747D
100
AcDbEntity
  8
文字
 62
     7
 48
50.0
100
AcDbText
 10
13583.11819016569
 20
8550.013745883733
 30
0.0
 40
100.0
  1
扉
  7
STYLE1
100
AcDbText
  0
TEXT
  5
13359
330
747D
100
AcDbEntity
  8
文字
 62
     7
 48
50.0
100
AcDbText
 10
13248.77747366447
 20
8720.013745883729
 30
0.0
 40
100.0
  1
15
  7
STYLE1
100
AcDbText
  0
TEXT
  5
1335A
330
747D
100
AcDbEntity
  8
文字
 62
     7
 48
50.0
100
AcDbText
 10
13583.11819016569
 20
9570.013745883729
 30
0.0
 40
100.0
  1
母屋中
  7
STYLE1
100
AcDbText
  0
LINE
  5
1335C
330
747D
100
AcDbEntity
  8
仕様書枠
 48
50.0
100
AcDbLine
 10
16307.19999999999
 20
8179.600000000005
 30
0.0
 11
13127.19999999999
 21
8179.600000000007
 31
0.0
  0
DIMENSION
  5
1335E
330
747D
100
AcDbEntity
  8
寸法
 48
50.0
100
AcDbDimension
  2
*D15
 10
1609.695515348525
 20
4875.654391161502
 30
0.0
 11
1296.210233974278
 21
4875.654391161502
 31
0.0
 70
   160
 71
     5
 42
50.0
  3
INABA_S40G
100
AcDbAlignedDimension
 13
1659.695515348525
 23
4663.112805903264
 33
0.0
 14
1609.695515348525
 24
4663.112805903263
 34
0.0
100
AcDbRotatedDimension
1001
ACAD
1000
DSTYLE
1002
{
1002
}
  0
DIMENSION
  5
1335F
330
747D
100
AcDbEntity
  8
寸法
 48
50.0
100
AcDbDimension
  2
*D16
 10
8649.695515348529
 20
5096.559691635249
 30
0.0
 11
5129.695515348525
 21
5096.559691635249
 31
0.0
 70
   160
 71
     5
 42
7040.000000000003
  3
INABA_S40G
100
AcDbAlignedDimension
 13
1609.695515348525
 23
4663.112805903263
 33
0.0
 14
8649.695515348529
 24
4663.112805903258
 34
0.0
100
AcDbRotatedDimension
  0
DIMENSION
  5
13360
330
747D
100
AcDbEntity
  8
寸法
 48
50.0
100
AcDbDimension
  2
*D17
 10
1659.695515348525
 20
4875.6543911615
 30
0.0
 11
5129.695515348525
 21
4875.6543911615
 31
0.0
 70
   160
  1
柱外寸法<>
 71
     5
 42
6940.000000000003
  3
INABA_S40G
100
AcDbAlignedDimension
 13
8599.695515348528
 23
4663.112805903259
 33
0.0
 14
1659.695515348525
 24
4663.112805903264
 34
0.0
100
AcDbRotatedDimension
  0
LINE
  5
13361
330
747D
100
AcDbEntity
  8
細線
 48
50.0
100
AcDbLine
 10
1642.695515348525
 20
4663.112805903259
 30
0.0
 11
1642.695515348525
 21
4522.11280590326
 31
0.0
  0
ARC
  5
13362
330
747D
100
AcDbEntity
  8
部品1
100
AcDbCircle
 10
1617.103936454954
 20
4656.112805903259
 30
0.0
 40
7.0
100
AcDbArc
 50
90.0
 51
183.247342790341
  0
ARC
  5
13363
330
747D
100
AcDbEntity
  8
部品1
100
AcDbCircle
 10
1630.319259915988
 20
4529.112805903263
 30
0.0
 40
7.0
100
AcDbArc
 50
183.247342790341
 51
270.0
  0
ARC
  5
13364
330
747D
100
AcDbEntity
  8
部品1
 48
50.0
100
AcDbCircle
 10
1611.947449705312
 20
4635.779805064947
 30
0.0
 40
0.7
100
AcDbArc
 50
183.2473427903929
 51
262.3418727926363
  0
ARC
  5
13365
330
747D
100
AcDbEntity
  8
部品1
 48
50.0
100
AcDbCircle
 10
1620.183480230152
 20
4543.579805064942
 30
0.0
 40
0.7
100
AcDbArc
 50
183.2473427902889
 51
262.3418727926363
  0
ARC
  5
13366
330
747D
100
AcDbEntity
  8
部品1
 48
50.0
100
AcDbCircle
 10
1619.690411121592
 20
4539.912805903258
 30
0.0
 40
3.0
100
AcDbArc
 50
3.247342790340932
 51
82.34187279263631
  0
ARC
  5
13367
330
747D
100
AcDbEntity
  8
部品1
 48
50.0
100
AcDbCircle
 10
1611.454380596748
 20
4632.112805903264
 30
0.0
 40
3.0
100
AcDbArc
 50
3.247342790340932
 51
82.34187279263631
  0
LINE
  5
13368
330
747D
100
AcDbEntity
  8
部品1
100
AcDbLine
 10
1614.449563492933
 20
4632.282745358363
 30
0.0
 11
1619.484604221044
 21
4543.540152525419
 31
0.0
  0
LINE
  5
13369
330
747D
100
AcDbEntity
  8
部品1
100
AcDbLine
 10
1622.685594017781
 20
4540.082745358362
 30
0.0
 11
1623.33049982489
 21
4528.716280508023
 31
0.0
  0
LINE
  5
1336A
330
747D
100
AcDbEntity
  8
部品1
100
AcDbLine
 10
1610.115176363855
 20
4655.716280508022
 30
0.0
 11
1611.248573696204
 21
4635.74015252542
 31
0.0
  0
LINE
  5
1336B
330
747D
100
AcDbEntity
  8
部品1
 48
50.0
100
AcDbLine
 10
8642.287094242096
 20
4663.112805903259
 30
0.0
 11
1617.103936454954
 21
4663.112805903258
 31
0.0
  0
LINE
  5
1336C
330
747D
100
AcDbEntity
  8
細線
 48
50.0
100
AcDbLine
 10
8647.536864331973
 20
4635.086048466429
 30
0.0
 11
1611.854166358939
 21
4635.086048467257
 31
0.0
  0
LINE
  5
1336D
330
747D
100
AcDbEntity
  8
細線
 48
50.0
100
AcDbLine
 10
8639.300833807144
 20
4542.886048466428
 30
0.0
 11
1620.090196883771
 21
4542.886048467255
 31
0.0
  0
LINE
  5
1336E
330
747D
100
AcDbEntity
  8
部品1
 48
50.0
100
AcDbLine
 10
8629.071770781061
 20
4522.112805903261
 30
0.0
 11
1630.319259915988
 21
4522.11280590326
 31
0.0
  0
LINE
  5
1336F
330
747D
100
AcDbEntity
  8
部品1
100
AcDbLine
 10
8649.275854333195
 20
4655.716280508019
 30
0.0
 11
8648.142457000849
 21
4635.740152525419
 31
0.0
  0
LINE
  5
13370
330
747D
100
AcDbEntity
  8
細線
 48
50.0
100
AcDbLine
 10
8616.69551534853
 20
4663.112805903258
 30
0.0
 11
8616.69551534853
 21
4522.112805903257
 31
0.0
  0
LINE
  5
13371
330
747D
100
AcDbEntity
  8
部品1
100
AcDbLine
 10
8636.705436679273
 20
4540.08274535836
 30
0.0
 11
8636.06053087216
 21
4528.71628050802
 31
0.0
  0
LINE
  5
13372
330
747D
100
AcDbEntity
  8
部品1
100
AcDbLine
 10
8644.941467204118
 20
4632.282745358361
 30
0.0
 11
8639.906426476006
 21
4543.540152525419
 31
0.0
  0
ARC
  5
13373
330
747D
100
AcDbEntity
  8
部品1
 48
50.0
100
AcDbCircle
 10
8647.936650100303
 20
4632.11280590326
 30
0.0
 40
3.0
100
AcDbArc
 50
97.6581272073637
 51
176.752657209659
  0
ARC
  5
13374
330
747D
100
AcDbEntity
  8
部品1
 48
50.0
100
AcDbCircle
 10
8639.700619575458
 20
4539.912805903258
 30
0.0
 40
3.0
100
AcDbArc
 50
97.6581272073637
 51
176.752657209659
  0
ARC
  5
13375
330
747D
100
AcDbEntity
  8
部品1
 48
50.0
100
AcDbCircle
 10
8639.207550466897
 20
4543.579805064941
 30
0.0
 40
0.7
100
AcDbArc
 50
277.6581272073637
 51
356.7526572097111
  0
ARC
  5
13376
330
747D
100
AcDbEntity
  8
部品1
 48
50.0
100
AcDbCircle
 10
8647.44358099174
 20
4635.779805064945
 30
0.0
 40
0.7
100
AcDbArc
 50
277.6581272073637
 51
356.752657209607
  0
ARC
  5
13377
330
747D
100
AcDbEntity
  8
部品1
100
AcDbCircle
 10
8629.071770781061
 20
4529.11280590326
 30
0.0
 40
7.0
100
AcDbArc
 50
270.0
 51
356.752657209659
  0
ARC
  5
13378
330
747D
100
AcDbEntity
  8
部品1
100
AcDbCircle
 10
8642.287094242096
 20
4656.112805903258
 30
0.0
 40
7.0
100
AcDbArc
 50
356.752657209659
 51
90.0
  0
DIMENSION
  5
13379
330
747D
100
AcDbEntity
  8
寸法
 48
50.0
100
AcDbDimension
  2
*D18
 10
8599.695515348528
 20
4875.654391161499
 30
0.0
 11
8963.180796722765
 21
4875.654391161499
 31
0.0
 70
   160
 71
     5
 42
50.0
  3
INABA_S40G
100
AcDbAlignedDimension
 13
8649.695515348529
 23
4663.112805903258
 33
0.0
 14
8599.695515348528
 24
4663.112805903259
 34
0.0
100
AcDbRotatedDimension
  0
TEXT
  5
137E7
330
747D
100
AcDbEntity
  8
文字
 62
     7
 48
50.0
100
AcDbText
 10
15022.63965474515
 20
9570.013745883725
 30
0.0
 40
100.0
  1
F12            1.2
  7
STYLE1
100
AcDbText
  0
LINE
  5
13A3A
330
747D
100
AcDbEntity
  8
部品1
100
AcDbLine
 10
5119.695515348524
 20
4522.11280590326
 30
0.0
 11
5119.695515348521
 21
4663.112805903258
 31
0.0
  0
LINE
  5
13A3B
330
747D
100
AcDbEntity
  8
細線
 48
50.0
100
AcDbLine
 10
8467.195515348514
 20
4428.112805903256
 30
0.0
 11
8467.195515348514
 21
2338.112805903256
 31
0.0
  0
LINE
  5
13A3C
330
747D
100
AcDbEntity
  8
細線
 48
50.0
100
AcDbLine
 10
8482.195515348514
 20
4428.112805903256
 30
0.0
 11
8482.195515348514
 21
2338.112805903256
 31
0.0
  0
LINE
  5
13A3D
330
747D
100
AcDbEntity
  8
細線
 48
50.0
100
AcDbLine
 10
8342.195515348514
 20
4428.112805903256
 30
0.0
 11
8342.195515348514
 21
2338.112805903256
 31
0.0
  0
LINE
  5
13A3E
330
747D
100
AcDbEntity
  8
細線
 48
50.0
100
AcDbLine
 10
8327.195515348513
 20
4428.112805903256
 30
0.0
 11
8327.195515348513
 21
2338.112805903256
 31
0.0
  0
LINE
  5
13A3F
330
747D
100
AcDbEntity
  8
細線
 48
50.0
100
AcDbLine
 10
8187.195515348514
 20
4428.112805903256
 30
0.0
 11
8187.195515348514
 21
2338.112805903256
 31
0.0
  0
LINE
  5
13A40
330
747D
100
AcDbEntity
  8
細線
 48
50.0
100
AcDbLine
 10
8202.195515348513
 20
4428.112805903256
 30
0.0
 11
8202.195515348513
 21
2338.112805903256
 31
0.0
  0
LINE
  5
13A41
330
747D
100
AcDbEntity
  8
細線
 48
50.0
100
AcDbLine
 10
8047.19551534851
 20
4428.112805903256
 30
0.0
 11
8047.19551534851
 21
2338.112805903256
 31
0.0
  0
LINE
  5
13A42
330
747D
100
AcDbEntity
  8
細線
 48
50.0
100
AcDbLine
 10
8062.195515348511
 20
4428.112805903256
 30
0.0
 11
8062.195515348511
 21
2338.112805903256
 31
0.0
  0
LINE
  5
13A43
330
747D
100
AcDbEntity
  8
細線
 48
50.0
100
AcDbLine
 10
7922.195515348511
 20
4428.112805903256
 30
0.0
 11
7922.195515348511
 21
2338.112805903256
 31
0.0
  0
LINE
  5
13A44
330
747D
100
AcDbEntity
  8
細線
 48
50.0
100
AcDbLine
 10
7907.195515348511
 20
4428.112805903256
 30
0.0
 11
7907.195515348511
 21
2338.112805903256
 31
0.0
  0
LINE
  5
13A45
330
747D
100
AcDbEntity
  8
細線
 48
50.0
100
AcDbLine
 10
7767.19551534851
 20
4428.112805903256
 30
0.0
 11
7767.19551534851
 21
2338.112805903256
 31
0.0
  0
LINE
  5
13A46
330
747D
100
AcDbEntity
  8
細線
 48
50.0
100
AcDbLine
 10
7782.195515348511
 20
4428.112805903256
 30
0.0
 11
7782.195515348511
 21
2338.112805903256
 31
0.0
  0
LINE
  5
13A47
330
747D
100
AcDbEntity
  8
細線
 48
50.0
100
AcDbLine
 10
7362.195515348528
 20
4428.112805903256
 30
0.0
 11
7362.195515348528
 21
2338.112805903256
 31
0.0
  0
LINE
  5
13A48
330
747D
100
AcDbEntity
  8
細線
 48
50.0
100
AcDbLine
 10
7347.195515348527
 20
4428.112805903256
 30
0.0
 11
7347.195515348527
 21
2338.112805903256
 31
0.0
  0
LINE
  5
13A49
330
747D
100
AcDbEntity
  8
細線
 48
50.0
100
AcDbLine
 10
7487.195515348528
 20
4428.112805903256
 30
0.0
 11
7487.195515348528
 21
2338.112805903256
 31
0.0
  0
LINE
  5
13A4A
330
747D
100
AcDbEntity
  8
細線
 48
50.0
100
AcDbLine
 10
7502.195515348526
 20
4428.112805903256
 30
0.0
 11
7502.195515348526
 21
2338.112805903256
 31
0.0
  0
LINE
  5
13A4B
330
747D
100
AcDbEntity
  8
細線
 48
50.0
100
AcDbLine
 10
7642.195515348527
 20
4428.112805903256
 30
0.0
 11
7642.195515348527
 21
2338.112805903256
 31
0.0
  0
LINE
  5
13A4C
330
747D
100
AcDbEntity
  8
細線
 48
50.0
100
AcDbLine
 10
7627.195515348526
 20
4428.112805903256
 30
0.0
 11
7627.195515348526
 21
2338.112805903256
 31
0.0
  0
LINE
  5
13A4D
330
747D
100
AcDbEntity
  8
細線
 48
50.0
100
AcDbLine
 10
6942.195515348522
 20
4428.112805903256
 30
0.0
 11
6942.195515348522
 21
2338.112805903256
 31
0.0
  0
LINE
  5
13A4E
330
747D
100
AcDbEntity
  8
細線
 48
50.0
100
AcDbLine
 10
6927.195515348524
 20
4428.112805903256
 30
0.0
 11
6927.195515348524
 21
2338.112805903256
 31
0.0
  0
LINE
  5
13A4F
330
747D
100
AcDbEntity
  8
細線
 48
50.0
100
AcDbLine
 10
7067.195515348522
 20
4428.112805903256
 30
0.0
 11
7067.195515348522
 21
2338.112805903256
 31
0.0
  0
LINE
  5
13A50
330
747D
100
AcDbEntity
  8
細線
 48
50.0
100
AcDbLine
 10
7082.195515348523
 20
4428.112805903256
 30
0.0
 11
7082.195515348523
 21
2338.112805903256
 31
0.0
  0
LINE
  5
13A51
330
747D
100
AcDbEntity
  8
細線
 48
50.0
100
AcDbLine
 10
7222.195515348523
 20
4428.112805903256
 30
0.0
 11
7222.195515348523
 21
2338.112805903256
 31
0.0
  0
LINE
  5
13A52
330
747D
100
AcDbEntity
  8
細線
 48
50.0
100
AcDbLine
 10
7207.195515348523
 20
4428.112805903256
 30
0.0
 11
7207.195515348523
 21
2338.112805903256
 31
0.0
  0
LINE
  5
13A53
330
747D
100
AcDbEntity
  8
細線
 48
50.0
100
AcDbLine
 10
6522.195515348501
 20
4428.112805903256
 30
0.0
 11
6522.195515348501
 21
2338.112805903256
 31
0.0
  0
LINE
  5
13A54
330
747D
100
AcDbEntity
  8
細線
 48
50.0
100
AcDbLine
 10
6507.195515348502
 20
4428.112805903256
 30
0.0
 11
6507.195515348502
 21
2338.112805903256
 31
0.0
  0
LINE
  5
13A55
330
747D
100
AcDbEntity
  8
細線
 48
50.0
100
AcDbLine
 10
6647.195515348501
 20
4428.112805903256
 30
0.0
 11
6647.195515348501
 21
2338.112805903256
 31
0.0
  0
LINE
  5
13A56
330
747D
100
AcDbEntity
  8
細線
 48
50.0
100
AcDbLine
 10
6662.195515348502
 20
4428.112805903256
 30
0.0
 11
6662.195515348502
 21
2338.112805903256
 31
0.0
  0
LINE
  5
13A57
330
747D
100
AcDbEntity
  8
細線
 48
50.0
100
AcDbLine
 10
6802.1955153485
 20
4428.112805903256
 30
0.0
 11
6802.1955153485
 21
2338.112805903256
 31
0.0
  0
LINE
  5
13A58
330
747D
100
AcDbEntity
  8
細線
 48
50.0
100
AcDbLine
 10
6787.195515348502
 20
4428.112805903256
 30
0.0
 11
6787.195515348502
 21
2338.112805903256
 31
0.0
  0
LINE
  5
13A59
330
747D
100
AcDbEntity
  8
細線
 48
50.0
100
AcDbLine
 10
6102.195515348498
 20
4428.112805903256
 30
0.0
 11
6102.195515348498
 21
2338.112805903256
 31
0.0
  0
LINE
  5
13A5A
330
747D
100
AcDbEntity
  8
細線
 48
50.0
100
AcDbLine
 10
6087.195515348497
 20
4428.112805903256
 30
0.0
 11
6087.195515348497
 21
2338.112805903256
 31
0.0
  0
LINE
  5
13A5B
330
747D
100
AcDbEntity
  8
細線
 48
50.0
100
AcDbLine
 10
6227.195515348498
 20
4428.112805903256
 30
0.0
 11
6227.195515348498
 21
2338.112805903256
 31
0.0
  0
LINE
  5
13A5C
330
747D
100
AcDbEntity
  8
細線
 48
50.0
100
AcDbLine
 10
6242.195515348498
 20
4428.112805903256
 30
0.0
 11
6242.195515348498
 21
2338.112805903256
 31
0.0
  0
LINE
  5
13A5D
330
747D
100
AcDbEntity
  8
細線
 48
50.0
100
AcDbLine
 10
6382.195515348498
 20
4428.112805903256
 30
0.0
 11
6382.195515348498
 21
2338.112805903256
 31
0.0
  0
LINE
  5
13A5E
330
747D
100
AcDbEntity
  8
細線
 48
50.0
100
AcDbLine
 10
6367.195515348498
 20
4428.112805903256
 30
0.0
 11
6367.195515348498
 21
2338.112805903256
 31
0.0
  0
LINE
  5
13A5F
330
747D
100
AcDbEntity
  8
細線
 48
50.0
100
AcDbLine
 10
5947.195515348514
 20
4428.112805903256
 30
0.0
 11
5947.195515348514
 21
2338.112805903256
 31
0.0
  0
LINE
  5
13A60
330
747D
100
AcDbEntity
  8
細線
 48
50.0
100
AcDbLine
 10
5962.195515348515
 20
4428.112805903256
 30
0.0
 11
5962.195515348515
 21
2338.112805903256
 31
0.0
  0
LINE
  5
13A61
330
747D
100
AcDbEntity
  8
細線
 48
50.0
100
AcDbLine
 10
5822.195515348514
 20
4428.112805903256
 30
0.0
 11
5822.195515348514
 21
2338.112805903256
 31
0.0
  0
LINE
  5
13A62
330
747D
100
AcDbEntity
  8
細線
 48
50.0
100
AcDbLine
 10
5807.195515348514
 20
4428.112805903256
 30
0.0
 11
5807.195515348514
 21
2338.112805903256
 31
0.0
  0
LINE
  5
13A63
330
747D
100
AcDbEntity
  8
細線
 48
50.0
100
AcDbLine
 10
5667.195515348514
 20
4428.112805903256
 30
0.0
 11
5667.195515348514
 21
2338.112805903256
 31
0.0
  0
LINE
  5
13A64
330
747D
100
AcDbEntity
  8
細線
 48
50.0
100
AcDbLine
 10
5682.195515348514
 20
4428.112805903256
 30
0.0
 11
5682.195515348514
 21
2338.112805903256
 31
0.0
  0
LINE
  5
13A65
330
747D
100
AcDbEntity
  8
細線
 48
50.0
100
AcDbLine
 10
5527.195515348511
 20
4428.112805903256
 30
0.0
 11
5527.195515348511
 21
2338.112805903256
 31
0.0
  0
LINE
  5
13A66
330
747D
100
AcDbEntity
  8
細線
 48
50.0
100
AcDbLine
 10
5542.19551534851
 20
4428.112805903256
 30
0.0
 11
5542.19551534851
 21
2338.112805903256
 31
0.0
  0
LINE
  5
13A67
330
747D
100
AcDbEntity
  8
細線
 48
50.0
100
AcDbLine
 10
5402.195515348511
 20
4428.112805903256
 30
0.0
 11
5402.195515348511
 21
2338.112805903256
 31
0.0
  0
LINE
  5
13A68
330
747D
100
AcDbEntity
  8
細線
 48
50.0
100
AcDbLine
 10
5387.19551534851
 20
4428.112805903256
 30
0.0
 11
5387.19551534851
 21
2338.112805903256
 31
0.0
  0
LINE
  5
13A69
330
747D
100
AcDbEntity
  8
細線
 48
50.0
100
AcDbLine
 10
5247.195515348511
 20
4428.112805903256
 30
0.0
 11
5247.195515348511
 21
2338.112805903256
 31
0.0
  0
LINE
  5
13A6A
330
747D
100
AcDbEntity
  8
細線
 48
50.0
100
AcDbLine
 10
5262.19551534851
 20
4428.112805903256
 30
0.0
 11
5262.19551534851
 21
2338.112805903256
 31
0.0
  0
LINE
  5
13A6D
330
747D
100
AcDbEntity
  8
細線
100
AcDbLine
 10
6024.695515348518
 20
4487.612805903254
 30
0.0
 11
6024.695515348518
 21
4464.612805903254
 31
0.0
  0
LINE
  5
13A6E
330
747D
100
AcDbEntity
  8
細線
100
AcDbLine
 10
6098.695515348517
 20
4475.612805903255
 30
0.0
 11
6024.695515348518
 21
4475.612805903255
 31
0.0
  0
LINE
  5
13A6F
330
747D
100
AcDbEntity
  8
細線
100
AcDbLine
 10
6098.695515348517
 20
4469.612805903252
 30
0.0
 11
6024.695515348518
 21
4469.612805903254
 31
0.0
  0
LINE
  5
13A70
330
747D
100
AcDbEntity
  8
細線
100
AcDbLine
 10
6098.695515348517
 20
4481.612805903252
 30
0.0
 11
6024.695515348518
 21
4481.612805903254
 31
0.0
  0
LINE
  5
13A71
330
747D
100
AcDbEntity
  8
細線
100
AcDbLine
 10
5950.695515348518
 20
4481.612805903254
 30
0.0
 11
6019.695515348518
 21
4481.612805903254
 31
0.0
  0
LINE
  5
13A72
330
747D
100
AcDbEntity
  8
細線
100
AcDbLine
 10
5950.695515348518
 20
4469.612805903254
 30
0.0
 11
6024.695515348518
 21
4469.612805903254
 31
0.0
  0
LINE
  5
13A73
330
747D
100
AcDbEntity
  8
細線
100
AcDbLine
 10
5950.695515348518
 20
4475.612805903255
 30
0.0
 11
6024.695515348518
 21
4475.612805903255
 31
0.0
  0
LINE
  5
13A74
330
747D
100
AcDbEntity
  8
細線
100
AcDbLine
 10
5950.695515348518
 20
4481.612805903254
 30
0.0
 11
6024.695515348518
 21
4481.612805903254
 31
0.0
  0
LINE
  5
13A75
330
747D
100
AcDbEntity
  8
部品1
 48
0.01
100
AcDbLine
 10
6112.695515348518
 20
4494.112805903254
 30
0.0
 11
5936.695515348517
 21
4494.112805903254
 31
0.0
  0
LINE
  5
13A76
330
747D
100
AcDbEntity
  8
部品1
 48
0.01
100
AcDbLine
 10
5934.695515348518
 20
4492.112805903254
 30
0.0
 11
5934.695515348518
 21
4460.612805903254
 31
0.0
  0
LINE
  5
13A77
330
747D
100
AcDbEntity
  8
部品1
 48
0.01
100
AcDbLine
 10
5936.695515348517
 20
4458.612805903254
 30
0.0
 11
6112.695515348518
 21
4458.612805903254
 31
0.0
  0
LINE
  5
13A78
330
747D
100
AcDbEntity
  8
部品1
 48
0.01
100
AcDbLine
 10
6114.695515348518
 20
4460.612805903254
 30
0.0
 11
6114.695515348518
 21
4492.112805903254
 31
0.0
  0
LINE
  5
13A79
330
747D
100
AcDbEntity
  8
細線
100
AcDbLine
 10
5950.695515348518
 20
4487.612805903254
 30
0.0
 11
5950.695515348518
 21
4464.612805903254
 31
0.0
  0
LINE
  5
13A7A
330
747D
100
AcDbEntity
  8
細線
100
AcDbLine
 10
6098.695515348517
 20
4464.612805903254
 30
0.0
 11
6098.695515348517
 21
4487.612805903254
 31
0.0
  0
LINE
  5
13A7B
330
747D
100
AcDbEntity
  8
細線
100
AcDbLine
 10
6098.695515348517
 20
4487.612805903254
 30
0.0
 11
6024.695515348518
 21
4487.612805903254
 31
0.0
  0
LINE
  5
13A7C
330
747D
100
AcDbEntity
  8
細線
100
AcDbLine
 10
5950.695515348518
 20
4464.612805903254
 30
0.0
 11
6024.695515348518
 21
4464.612805903254
 31
0.0
  0
LINE
  5
13A7D
330
747D
100
AcDbEntity
  8
細線
100
AcDbLine
 10
6024.695515348518
 20
4487.612805903254
 30
0.0
 11
5950.695515348518
 21
4487.612805903254
 31
0.0
  0
LINE
  5
13A7E
330
747D
100
AcDbEntity
  8
細線
100
AcDbLine
 10
6024.695515348518
 20
4464.612805903254
 30
0.0
 11
6098.695515348517
 21
4464.612805903254
 31
0.0
  0
ARC
  5
13A7F
330
747D
100
AcDbEntity
  8
部品1
 48
0.01
100
AcDbCircle
 10
5936.695515348517
 20
4492.112805903254
 30
0.0
 40
2.0
100
AcDbArc
 50
90.0
 51
180.0
  0
ARC
  5
13A80
330
747D
100
AcDbEntity
  8
部品1
 48
0.01
100
AcDbCircle
 10
5936.695515348517
 20
4460.612805903254
 30
0.0
 40
2.0
100
AcDbArc
 50
180.0
 51
270.0
  0
ARC
  5
13A81
330
747D
100
AcDbEntity
  8
部品1
 48
0.01
100
AcDbCircle
 10
6112.695515348518
 20
4492.112805903254
 30
0.0
 40
2.0
100
AcDbArc
 50
0.0
 51
90.0
  0
ARC
  5
13A82
330
747D
100
AcDbEntity
  8
部品1
 48
0.01
100
AcDbCircle
 10
6112.695515348518
 20
4460.612805903254
 30
0.0
 40
2.0
100
AcDbArc
 50
270.0
 51
0.0
  0
ARC
  5
13A83
330
747D
100
AcDbEntity
  8
部品1
 48
0.01
100
AcDbCircle
 10
7616.695515348531
 20
4460.612805903256
 30
0.0
 40
2.0
100
AcDbArc
 50
180.0
 51
270.0
  0
ARC
  5
13A84
330
747D
100
AcDbEntity
  8
部品1
 48
0.01
100
AcDbCircle
 10
7616.695515348531
 20
4492.112805903256
 30
0.0
 40
2.0
100
AcDbArc
 50
90.0
 51
180.0
  0
ARC
  5
13A85
330
747D
100
AcDbEntity
  8
部品1
 48
0.01
100
AcDbCircle
 10
7792.695515348532
 20
4460.612805903256
 30
0.0
 40
2.0
100
AcDbArc
 50
270.0
 51
0.0
  0
ARC
  5
13A86
330
747D
100
AcDbEntity
  8
部品1
 48
0.01
100
AcDbCircle
 10
7792.695515348532
 20
4492.112805903256
 30
0.0
 40
2.0
100
AcDbArc
 50
0.0
 51
90.0
  0
LINE
  5
13A87
330
747D
100
AcDbEntity
  8
細線
100
AcDbLine
 10
7704.695515348532
 20
4464.612805903256
 30
0.0
 11
7630.695515348532
 21
4464.612805903256
 31
0.0
  0
LINE
  5
13A88
330
747D
100
AcDbEntity
  8
細線
100
AcDbLine
 10
7704.695515348532
 20
4487.612805903256
 30
0.0
 11
7778.695515348532
 21
4487.612805903256
 31
0.0
  0
LINE
  5
13A89
330
747D
100
AcDbEntity
  8
細線
100
AcDbLine
 10
7778.695515348532
 20
4464.612805903256
 30
0.0
 11
7704.695515348532
 21
4464.612805903256
 31
0.0
  0
LINE
  5
13A8A
330
747D
100
AcDbEntity
  8
細線
100
AcDbLine
 10
7630.695515348532
 20
4487.612805903256
 30
0.0
 11
7704.695515348532
 21
4487.612805903256
 31
0.0
  0
LINE
  5
13A8B
330
747D
100
AcDbEntity
  8
細線
100
AcDbLine
 10
7630.695515348532
 20
4464.612805903256
 30
0.0
 11
7630.695515348532
 21
4487.612805903256
 31
0.0
  0
LINE
  5
13A8C
330
747D
100
AcDbEntity
  8
細線
100
AcDbLine
 10
7778.695515348532
 20
4487.612805903256
 30
0.0
 11
7778.695515348532
 21
4464.612805903256
 31
0.0
  0
LINE
  5
13A8D
330
747D
100
AcDbEntity
  8
部品1
 48
0.01
100
AcDbLine
 10
7614.695515348532
 20
4460.612805903256
 30
0.0
 11
7614.695515348532
 21
4492.112805903256
 31
0.0
  0
LINE
  5
13A8E
330
747D
100
AcDbEntity
  8
部品1
 48
0.01
100
AcDbLine
 10
7792.695515348532
 20
4458.612805903256
 30
0.0
 11
7616.695515348531
 21
4458.612805903256
 31
0.0
  0
LINE
  5
13A8F
330
747D
100
AcDbEntity
  8
部品1
 48
0.01
100
AcDbLine
 10
7794.695515348532
 20
4492.112805903256
 30
0.0
 11
7794.695515348532
 21
4460.612805903256
 31
0.0
  0
LINE
  5
13A90
330
747D
100
AcDbEntity
  8
部品1
 48
0.01
100
AcDbLine
 10
7616.695515348531
 20
4494.112805903256
 30
0.0
 11
7792.695515348532
 21
4494.112805903256
 31
0.0
  0
LINE
  5
13A91
330
747D
100
AcDbEntity
  8
細線
100
AcDbLine
 10
7778.695515348532
 20
4481.612805903256
 30
0.0
 11
7704.695515348532
 21
4481.612805903256
 31
0.0
  0
LINE
  5
13A92
330
747D
100
AcDbEntity
  8
細線
100
AcDbLine
 10
7778.695515348532
 20
4475.612805903256
 30
0.0
 11
7704.695515348532
 21
4475.612805903256
 31
0.0
  0
LINE
  5
13A93
330
747D
100
AcDbEntity
  8
細線
100
AcDbLine
 10
7778.695515348532
 20
4469.612805903255
 30
0.0
 11
7704.695515348532
 21
4469.612805903255
 31
0.0
  0
LINE
  5
13A94
330
747D
100
AcDbEntity
  8
細線
100
AcDbLine
 10
7778.695515348532
 20
4481.612805903256
 30
0.0
 11
7709.695515348532
 21
4481.612805903256
 31
0.0
  0
LINE
  5
13A95
330
747D
100
AcDbEntity
  8
細線
100
AcDbLine
 10
7630.695515348532
 20
4481.612805903254
 30
0.0
 11
7704.695515348532
 21
4481.612805903256
 31
0.0
  0
LINE
  5
13A96
330
747D
100
AcDbEntity
  8
細線
100
AcDbLine
 10
7630.695515348532
 20
4469.612805903254
 30
0.0
 11
7704.695515348532
 21
4469.612805903255
 31
0.0
  0
LINE
  5
13A97
330
747D
100
AcDbEntity
  8
細線
100
AcDbLine
 10
7630.695515348532
 20
4475.612805903256
 30
0.0
 11
7704.695515348532
 21
4475.612805903256
 31
0.0
  0
LINE
  5
13A98
330
747D
100
AcDbEntity
  8
細線
100
AcDbLine
 10
7704.695515348532
 20
4487.612805903256
 30
0.0
 11
7704.695515348532
 21
4464.612805903256
 31
0.0
  0
LINE
  5
13ABA
330
747D
100
AcDbEntity
  8
細線
100
AcDbLine
 10
4234.695515348533
 20
4487.612805903256
 30
0.0
 11
4234.695515348533
 21
4464.612805903256
 31
0.0
  0
LINE
  5
13ABB
330
747D
100
AcDbEntity
  8
細線
100
AcDbLine
 10
4160.695515348532
 20
4475.612805903256
 30
0.0
 11
4234.695515348533
 21
4475.612805903256
 31
0.0
  0
LINE
  5
13ABC
330
747D
100
AcDbEntity
  8
細線
100
AcDbLine
 10
4160.695515348532
 20
4469.612805903254
 30
0.0
 11
4234.695515348533
 21
4469.612805903255
 31
0.0
  0
LINE
  5
13ABD
330
747D
100
AcDbEntity
  8
細線
100
AcDbLine
 10
4160.695515348532
 20
4481.612805903254
 30
0.0
 11
4234.695515348533
 21
4481.612805903256
 31
0.0
  0
LINE
  5
13ABE
330
747D
100
AcDbEntity
  8
細線
100
AcDbLine
 10
4308.695515348532
 20
4481.612805903256
 30
0.0
 11
4239.695515348532
 21
4481.612805903256
 31
0.0
  0
LINE
  5
13ABF
330
747D
100
AcDbEntity
  8
細線
100
AcDbLine
 10
4308.695515348532
 20
4469.612805903255
 30
0.0
 11
4234.695515348533
 21
4469.612805903255
 31
0.0
  0
LINE
  5
13AC0
330
747D
100
AcDbEntity
  8
細線
100
AcDbLine
 10
4308.695515348532
 20
4475.612805903256
 30
0.0
 11
4234.695515348533
 21
4475.612805903256
 31
0.0
  0
LINE
  5
13AC1
330
747D
100
AcDbEntity
  8
細線
100
AcDbLine
 10
4308.695515348532
 20
4481.612805903256
 30
0.0
 11
4234.695515348533
 21
4481.612805903256
 31
0.0
  0
LINE
  5
13AC2
330
747D
100
AcDbEntity
  8
部品1
 48
0.01
100
AcDbLine
 10
4146.695515348532
 20
4494.112805903256
 30
0.0
 11
4322.695515348533
 21
4494.112805903256
 31
0.0
  0
LINE
  5
13AC3
330
747D
100
AcDbEntity
  8
部品1
 48
0.01
100
AcDbLine
 10
4324.695515348532
 20
4492.112805903256
 30
0.0
 11
4324.695515348532
 21
4460.612805903256
 31
0.0
  0
LINE
  5
13AC4
330
747D
100
AcDbEntity
  8
部品1
 48
0.01
100
AcDbLine
 10
4322.695515348533
 20
4458.612805903256
 30
0.0
 11
4146.695515348532
 21
4458.612805903256
 31
0.0
  0
LINE
  5
13AC5
330
747D
100
AcDbEntity
  8
部品1
 48
0.01
100
AcDbLine
 10
4144.695515348533
 20
4460.612805903256
 30
0.0
 11
4144.695515348533
 21
4492.112805903256
 31
0.0
  0
LINE
  5
13AC6
330
747D
100
AcDbEntity
  8
細線
100
AcDbLine
 10
4308.695515348532
 20
4487.612805903256
 30
0.0
 11
4308.695515348532
 21
4464.612805903256
 31
0.0
  0
LINE
  5
13AC7
330
747D
100
AcDbEntity
  8
細線
100
AcDbLine
 10
4160.695515348532
 20
4464.612805903256
 30
0.0
 11
4160.695515348532
 21
4487.612805903256
 31
0.0
  0
LINE
  5
13AC8
330
747D
100
AcDbEntity
  8
細線
100
AcDbLine
 10
4160.695515348532
 20
4487.612805903256
 30
0.0
 11
4234.695515348533
 21
4487.612805903256
 31
0.0
  0
LINE
  5
13AC9
330
747D
100
AcDbEntity
  8
細線
100
AcDbLine
 10
4308.695515348532
 20
4464.612805903256
 30
0.0
 11
4234.695515348533
 21
4464.612805903256
 31
0.0
  0
LINE
  5
13ACA
330
747D
100
AcDbEntity
  8
細線
100
AcDbLine
 10
4234.695515348533
 20
4487.612805903256
 30
0.0
 11
4308.695515348532
 21
4487.612805903256
 31
0.0
  0
LINE
  5
13ACB
330
747D
100
AcDbEntity
  8
細線
100
AcDbLine
 10
4234.695515348533
 20
4464.612805903256
 30
0.0
 11
4160.695515348532
 21
4464.612805903256
 31
0.0
  0
ARC
  5
13ACC
330
747D
100
AcDbEntity
  8
部品1
 48
0.01
100
AcDbCircle
 10
4322.695515348533
 20
4492.112805903256
 30
0.0
 40
2.0
100
AcDbArc
 50
0.0
 51
90.0
  0
ARC
  5
13ACD
330
747D
100
AcDbEntity
  8
部品1
 48
0.01
100
AcDbCircle
 10
4322.695515348533
 20
4460.612805903256
 30
0.0
 40
2.0
100
AcDbArc
 50
270.0
 51
0.0
  0
ARC
  5
13ACE
330
747D
100
AcDbEntity
  8
部品1
 48
0.01
100
AcDbCircle
 10
4146.695515348532
 20
4492.112805903256
 30
0.0
 40
2.0
100
AcDbArc
 50
90.0
 51
180.0
  0
ARC
  5
13ACF
330
747D
100
AcDbEntity
  8
部品1
 48
0.01
100
AcDbCircle
 10
4146.695515348532
 20
4460.612805903256
 30
0.0
 40
2.0
100
AcDbArc
 50
180.0
 51
270.0
  0
ARC
  5
13AD0
330
747D
100
AcDbEntity
  8
部品1
 48
0.01
100
AcDbCircle
 10
2642.695515348518
 20
4460.612805903254
 30
0.0
 40
2.0
100
AcDbArc
 50
270.0
 51
0.0
  0
ARC
  5
13AD1
330
747D
100
AcDbEntity
  8
部品1
 48
0.01
100
AcDbCircle
 10
2642.695515348518
 20
4492.112805903254
 30
0.0
 40
2.0
100
AcDbArc
 50
0.0
 51
90.0
  0
ARC
  5
13AD2
330
747D
100
AcDbEntity
  8
部品1
 48
0.01
100
AcDbCircle
 10
2466.695515348518
 20
4460.612805903254
 30
0.0
 40
2.0
100
AcDbArc
 50
180.0
 51
270.0
  0
ARC
  5
13AD3
330
747D
100
AcDbEntity
  8
部品1
 48
0.01
100
AcDbCircle
 10
2466.695515348518
 20
4492.112805903254
 30
0.0
 40
2.0
100
AcDbArc
 50
90.0
 51
180.0
  0
LINE
  5
13AD4
330
747D
100
AcDbEntity
  8
細線
100
AcDbLine
 10
2554.695515348518
 20
4464.612805903254
 30
0.0
 11
2628.695515348518
 21
4464.612805903254
 31
0.0
  0
LINE
  5
13AD5
330
747D
100
AcDbEntity
  8
細線
100
AcDbLine
 10
2554.695515348518
 20
4487.612805903254
 30
0.0
 11
2480.695515348518
 21
4487.612805903254
 31
0.0
  0
LINE
  5
13AD6
330
747D
100
AcDbEntity
  8
細線
100
AcDbLine
 10
2480.695515348518
 20
4464.612805903254
 30
0.0
 11
2554.695515348518
 21
4464.612805903254
 31
0.0
  0
LINE
  5
13AD7
330
747D
100
AcDbEntity
  8
細線
100
AcDbLine
 10
2628.695515348518
 20
4487.612805903254
 30
0.0
 11
2554.695515348518
 21
4487.612805903254
 31
0.0
  0
LINE
  5
13AD8
330
747D
100
AcDbEntity
  8
細線
100
AcDbLine
 10
2628.695515348518
 20
4464.612805903254
 30
0.0
 11
2628.695515348518
 21
4487.612805903254
 31
0.0
  0
LINE
  5
13AD9
330
747D
100
AcDbEntity
  8
細線
100
AcDbLine
 10
2480.695515348518
 20
4487.612805903254
 30
0.0
 11
2480.695515348518
 21
4464.612805903254
 31
0.0
  0
LINE
  5
13ADA
330
747D
100
AcDbEntity
  8
部品1
 48
0.01
100
AcDbLine
 10
2644.695515348518
 20
4460.612805903254
 30
0.0
 11
2644.695515348518
 21
4492.112805903254
 31
0.0
  0
LINE
  5
13ADB
330
747D
100
AcDbEntity
  8
部品1
 48
0.01
100
AcDbLine
 10
2466.695515348518
 20
4458.612805903254
 30
0.0
 11
2642.695515348518
 21
4458.612805903254
 31
0.0
  0
LINE
  5
13ADC
330
747D
100
AcDbEntity
  8
部品1
 48
0.01
100
AcDbLine
 10
2464.695515348518
 20
4492.112805903254
 30
0.0
 11
2464.695515348518
 21
4460.612805903254
 31
0.0
  0
LINE
  5
13ADD
330
747D
100
AcDbEntity
  8
部品1
 48
0.01
100
AcDbLine
 10
2642.695515348518
 20
4494.112805903254
 30
0.0
 11
2466.695515348518
 21
4494.112805903254
 31
0.0
  0
LINE
  5
13ADE
330
747D
100
AcDbEntity
  8
細線
100
AcDbLine
 10
2480.695515348518
 20
4481.612805903254
 30
0.0
 11
2554.695515348518
 21
4481.612805903254
 31
0.0
  0
LINE
  5
13ADF
330
747D
100
AcDbEntity
  8
細線
100
AcDbLine
 10
2480.695515348518
 20
4475.612805903255
 30
0.0
 11
2554.695515348518
 21
4475.612805903255
 31
0.0
  0
LINE
  5
13AE0
330
747D
100
AcDbEntity
  8
細線
100
AcDbLine
 10
2480.695515348518
 20
4469.612805903254
 30
0.0
 11
2554.695515348518
 21
4469.612805903254
 31
0.0
  0
LINE
  5
13AE1
330
747D
100
AcDbEntity
  8
細線
100
AcDbLine
 10
2480.695515348518
 20
4481.612805903254
 30
0.0
 11
2549.695515348518
 21
4481.612805903254
 31
0.0
  0
LINE
  5
13AE2
330
747D
100
AcDbEntity
  8
細線
100
AcDbLine
 10
2628.695515348518
 20
4481.612805903252
 30
0.0
 11
2554.695515348518
 21
4481.612805903254
 31
0.0
  0
LINE
  5
13AE3
330
747D
100
AcDbEntity
  8
細線
100
AcDbLine
 10
2628.695515348518
 20
4469.612805903252
 30
0.0
 11
2554.695515348518
 21
4469.612805903254
 31
0.0
  0
LINE
  5
13AE4
330
747D
100
AcDbEntity
  8
細線
100
AcDbLine
 10
2628.695515348518
 20
4475.612805903255
 30
0.0
 11
2554.695515348518
 21
4475.612805903255
 31
0.0
  0
LINE
  5
13AE5
330
747D
100
AcDbEntity
  8
細線
100
AcDbLine
 10
2554.695515348518
 20
4487.612805903254
 30
0.0
 11
2554.695515348518
 21
4464.612805903254
 31
0.0
  0
LINE
  5
13AFB
330
747D
100
AcDbEntity
  8
部品1
 48
50.0
100
AcDbLine
 10
3355.695515348525
 20
4371.112805903258
 30
0.0
 11
3355.695515348525
 21
2338.112805903256
 31
0.0
  0
LINE
  5
13AFC
330
747D
100
AcDbEntity
  8
部品1
100
AcDbLine
 10
4006.695515348518
 20
4371.112805903258
 30
0.0
 11
4006.695515348525
 21
2345.612805903271
 31
0.0
  0
LINE
  5
13AFD
330
747D
100
AcDbEntity
  8
細線
100
AcDbLine
 10
3261.695515348525
 20
4371.112805903258
 30
0.0
 11
3261.695515348525
 21
2338.112805903264
 31
0.0
  0
LINE
  5
13AFE
330
747D
100
AcDbEntity
  8
細線
100
AcDbLine
 10
3191.695515348525
 20
4371.112805903258
 30
0.0
 11
3191.695515348525
 21
2338.112805903264
 31
0.0
  0
LINE
  5
13AFF
330
747D
100
AcDbEntity
  8
細線
100
AcDbLine
 10
3121.695515348525
 20
4371.112805903258
 30
0.0
 11
3121.695515348525
 21
2338.112805903264
 31
0.0
  0
LINE
  5
13B00
330
747D
100
AcDbEntity
  8
細線
100
AcDbLine
 10
3051.695515348525
 20
4371.112805903258
 30
0.0
 11
3051.695515348525
 21
2338.11280590326
 31
0.0
  0
LINE
  5
13B01
330
747D
100
AcDbEntity
  8
細線
100
AcDbLine
 10
2981.695515348525
 20
4371.112805903258
 30
0.0
 11
2981.695515348525
 21
2338.11280590326
 31
0.0
  0
LINE
  5
13B02
330
747D
100
AcDbEntity
  8
細線
100
AcDbLine
 10
2911.695515348525
 20
4371.112805903258
 30
0.0
 11
2911.695515348525
 21
2338.11280590326
 31
0.0
  0
LINE
  5
13B03
330
747D
100
AcDbEntity
  8
部品1
100
AcDbLine
 10
2727.695515348525
 20
4371.112805903258
 30
0.0
 11
2727.695515348525
 21
2338.112805903264
 31
0.0
  0
LINE
  5
13B04
330
747D
100
AcDbEntity
  8
部品1
100
AcDbLine
 10
2677.695515348525
 20
4371.112805903258
 30
0.0
 11
2677.695515348525
 21
2338.112805903264
 31
0.0
  0
LINE
  5
13B05
330
747D
100
AcDbEntity
  8
細線
100
AcDbLine
 10
2719.695515348525
 20
4371.112805903258
 30
0.0
 11
2719.695515348525
 21
2338.112805903264
 31
0.0
  0
LINE
  5
13B06
330
747D
100
AcDbEntity
  8
細線
100
AcDbLine
 10
2685.695515348526
 20
4371.112805903258
 30
0.0
 11
2685.695515348526
 21
2338.112805903264
 31
0.0
  0
LINE
  5
13B07
330
747D
100
AcDbEntity
  8
細線
100
AcDbLine
 10
3905.695515348526
 20
4371.112805903258
 30
0.0
 11
3905.695515348526
 21
2345.612805903271
 31
0.0
  0
LINE
  5
13B08
330
747D
100
AcDbEntity
  8
細線
100
AcDbLine
 10
3835.695515348525
 20
4371.112805903258
 30
0.0
 11
3835.695515348525
 21
2345.612805903271
 31
0.0
  0
LINE
  5
13B09
330
747D
100
AcDbEntity
  8
細線
100
AcDbLine
 10
3765.695515348525
 20
4371.112805903258
 30
0.0
 11
3765.695515348525
 21
2345.612805903271
 31
0.0
  0
LINE
  5
13B0A
330
747D
100
AcDbEntity
  8
細線
100
AcDbLine
 10
3695.695515348525
 20
4371.112805903258
 30
0.0
 11
3695.695515348525
 21
2345.612805903271
 31
0.0
  0
LINE
  5
13B0B
330
747D
100
AcDbEntity
  8
細線
100
AcDbLine
 10
3625.695515348525
 20
4371.112805903258
 30
0.0
 11
3625.695515348525
 21
2345.612805903271
 31
0.0
  0
LINE
  5
13B0C
330
747D
100
AcDbEntity
  8
細線
100
AcDbLine
 10
3555.695515348526
 20
4371.112805903258
 30
0.0
 11
3555.695515348526
 21
2345.612805903271
 31
0.0
  0
LINE
  5
13B0D
330
747D
100
AcDbEntity
  8
細線
100
AcDbLine
 10
4491.195515348525
 20
4371.112805903258
 30
0.0
 11
4491.195515348525
 21
2345.612805903275
 31
0.0
  0
LINE
  5
13B0E
330
747D
100
AcDbEntity
  8
細線
100
AcDbLine
 10
4421.195515348524
 20
4371.112805903258
 30
0.0
 11
4421.195515348524
 21
2345.612805903275
 31
0.0
  0
LINE
  5
13B0F
330
747D
100
AcDbEntity
  8
細線
100
AcDbLine
 10
4351.195515348525
 20
4371.112805903258
 30
0.0
 11
4351.195515348525
 21
2345.612805903275
 31
0.0
  0
LINE
  5
13B10
330
747D
100
AcDbEntity
  8
細線
100
AcDbLine
 10
4281.195515348525
 20
4371.112805903258
 30
0.0
 11
4281.195515348525
 21
2345.612805903275
 31
0.0
  0
LINE
  5
13B11
330
747D
100
AcDbEntity
  8
細線
100
AcDbLine
 10
4211.195515348525
 20
4371.112805903258
 30
0.0
 11
4211.195515348525
 21
2345.612805903275
 31
0.0
  0
LINE
  5
13B15
330
747D
100
AcDbEntity
  8
部品1
 48
50.0
100
AcDbLine
 10
2601.695515348525
 20
3419.612805903258
 30
0.0
 11
2654.695515348525
 21
3419.612805903258
 31
0.0
  0
LINE
  5
13B2F
330
747D
100
AcDbEntity
  8
細線
100
AcDbLine
 10
2841.695515348525
 20
4371.112805903258
 30
0.0
 11
2841.695515348525
 21
2338.11280590326
 31
0.0
  0
LINE
  5
13B30
330
747D
100
AcDbEntity
  8
細線
100
AcDbLine
 10
2771.695515348525
 20
4371.112805903258
 30
0.0
 11
2771.695515348525
 21
2338.11280590326
 31
0.0
  0
LINE
  5
13B31
330
747D
100
AcDbEntity
  8
細線
100
AcDbLine
 10
3485.695515348525
 20
4371.112805903258
 30
0.0
 11
3485.695515348525
 21
2345.612805903271
 31
0.0
  0
LINE
  5
13B32
330
747D
100
AcDbEntity
  8
細線
100
AcDbLine
 10
3415.695515348525
 20
4371.112805903258
 30
0.0
 11
3415.695515348525
 21
2345.612805903271
 31
0.0
  0
LINE
  5
13B33
330
747D
100
AcDbEntity
  8
細線
100
AcDbLine
 10
4141.195515348525
 20
4371.112805903258
 30
0.0
 11
4141.195515348525
 21
2345.612805903275
 31
0.0
  0
LINE
  5
13B34
330
747D
100
AcDbEntity
  8
部品1
 48
50.0
100
AcDbLine
 10
4006.695515348525
 20
4371.112805903256
 30
0.0
 11
4006.695515348525
 21
2345.612805903256
 31
0.0
  0
LINE
  5
13B35
330
747D
100
AcDbEntity
  8
部品1
 48
50.0
100
AcDbLine
 10
4681.695515348525
 20
2188.112805903256
 30
0.0
 11
4681.695515348525
 21
4423.112805903256
 31
0.0
  0
LINE
  5
13B36
330
747D
100
AcDbEntity
  8
細線
 48
50.0
100
AcDbLine
 10
4651.695515348524
 20
2288.112805903256
 30
0.0
 11
4651.695515348524
 21
4380.612805903257
 31
0.0
  0
LINE
  5
13B37
330
747D
100
AcDbEntity
  8
部品1
 48
50.0
100
AcDbLine
 10
4642.695515348525
 20
2335.112805903256
 30
0.0
 11
4642.695515348525
 21
4371.112805903256
 31
0.0
  0
LINE
  5
13B38
330
747D
100
AcDbEntity
  8
部品1
 48
50.0
100
AcDbLine
 10
3355.695515348525
 20
4371.112805903256
 30
0.0
 11
3355.695515348525
 21
2338.112805903256
 31
0.0
  0
LINE
  5
13B39
330
747D
100
AcDbEntity
  8
部品1
 48
50.0
100
AcDbLine
 10
2557.695515348525
 20
2338.112805903256
 30
0.0
 11
3355.695515348525
 21
2338.112805903256
 31
0.0
  0
LINE
  5
13B3A
330
747D
100
AcDbEntity
  8
細線
 48
50.0
100
AcDbLine
 10
2557.695515348525
 20
2335.112805903256
 30
0.0
 11
4651.695515348524
 21
2335.112805903256
 31
0.0
  0
LINE
  5
13B3B
330
747D
100
AcDbEntity
  8
細線
 48
50.0
100
AcDbLine
 10
2557.695515348525
 20
2331.112805903256
 30
0.0
 11
4651.695515348524
 21
2331.112805903256
 31
0.0
  0
LINE
  5
13B3C
330
747D
100
AcDbEntity
  8
部品1
 48
50.0
100
AcDbLine
 10
2566.695515348525
 20
2338.112805903256
 30
0.0
 11
2566.695515348525
 21
2335.112805903256
 31
0.0
  0
LINE
  5
13B3D
330
747D
100
AcDbEntity
  8
細線
 48
50.0
100
AcDbLine
 10
2557.695515348525
 20
4380.612805903257
 30
0.0
 11
2557.695515348525
 21
2288.112805903256
 31
0.0
  0
LINE
  5
13B3E
330
747D
100
AcDbEntity
  8
部品1
 48
50.0
100
AcDbLine
 10
2557.695515348525
 20
2338.112805903256
 30
0.0
 11
2557.695515348525
 21
4371.112805903256
 31
0.0
  0
LINE
  5
13B3F
330
747D
100
AcDbEntity
  8
部品1
 48
50.0
100
AcDbLine
 10
2527.695515348525
 20
4423.112805903256
 30
0.0
 11
2527.695515348525
 21
2188.112805903256
 31
0.0
  0
LINE
  5
13B40
330
747D
100
AcDbEntity
  8
細線
 48
50.0
100
AcDbLine
 10
4629.695515348525
 20
2335.112805903256
 30
0.0
 11
4625.695515348525
 21
2345.612805903256
 31
0.0
  0
LINE
  5
13B41
330
747D
100
AcDbEntity
  8
細線
 48
50.0
100
AcDbLine
 10
3355.695515348525
 20
2345.612805903256
 30
0.0
 11
4625.695515348525
 21
2345.612805903256
 31
0.0
  0
LINE
  5
13B42
330
747D
100
AcDbEntity
  8
部品1
 48
50.0
100
AcDbLine
 10
4681.695515348525
 20
4379.112805903257
 30
0.0
 11
4651.695515348524
 21
4379.112805903257
 31
0.0
  0
LINE
  5
13B43
330
747D
100
AcDbEntity
  8
細線
 48
50.0
100
AcDbLine
 10
4681.695515348525
 20
4413.112805903256
 30
0.0
 11
2527.695515348525
 21
4413.112805903256
 31
0.0
  0
LINE
  5
13B44
330
747D
100
AcDbEntity
  8
部品1
 48
50.0
100
AcDbLine
 10
4681.695515348525
 20
4423.112805903256
 30
0.0
 11
2527.695515348525
 21
4423.112805903256
 31
0.0
  0
LINE
  5
13B45
330
747D
100
AcDbEntity
  8
細線
 48
50.0
100
AcDbLine
 10
4651.695515348524
 20
4380.612805903257
 30
0.0
 11
2557.695515348525
 21
4380.612805903257
 31
0.0
  0
LINE
  5
13B46
330
747D
100
AcDbEntity
  8
細線
 48
50.0
100
AcDbLine
 10
4651.695515348524
 20
4371.112805903256
 30
0.0
 11
2557.695515348525
 21
4371.112805903256
 31
0.0
  0
LINE
  5
13B47
330
747D
100
AcDbEntity
  8
部品1
 48
50.0
100
AcDbLine
 10
2557.695515348525
 20
4379.112805903257
 30
0.0
 11
2527.695515348525
 21
4379.112805903257
 31
0.0
  0
LINE
  5
13B48
330
747D
100
AcDbEntity
  8
部品1
100
AcDbLine
 10
4654.695515348524
 20
4428.112805903258
 30
0.0
 11
4654.695515348524
 21
4423.112805903256
 31
0.0
  0
LINE
  5
13B49
330
747D
100
AcDbEntity
  8
部品1
100
AcDbLine
 10
2554.695515348525
 20
4428.112805903258
 30
0.0
 11
2554.695515348525
 21
4423.112805903256
 31
0.0
  0
LINE
  5
13B4A
330
747D
100
AcDbEntity
  8
細線
 48
50.0
100
AcDbLine
 10
2212.195515348515
 20
4428.112805903256
 30
0.0
 11
2212.195515348515
 21
2338.112805903257
 31
0.0
  0
LINE
  5
13B4B
330
747D
100
AcDbEntity
  8
細線
 48
50.0
100
AcDbLine
 10
2197.195515348515
 20
4428.112805903256
 30
0.0
 11
2197.195515348515
 21
2338.112805903257
 31
0.0
  0
LINE
  5
13B4C
330
747D
100
AcDbEntity
  8
細線
 48
50.0
100
AcDbLine
 10
2337.195515348515
 20
4428.112805903256
 30
0.0
 11
2337.195515348515
 21
2338.112805903257
 31
0.0
  0
LINE
  5
13B4D
330
747D
100
AcDbEntity
  8
細線
 48
50.0
100
AcDbLine
 10
2352.195515348515
 20
4428.112805903256
 30
0.0
 11
2352.195515348515
 21
2338.112805903257
 31
0.0
  0
LINE
  5
13B4E
330
747D
100
AcDbEntity
  8
細線
 48
50.0
100
AcDbLine
 10
2492.195515348515
 20
4428.112805903256
 30
0.0
 11
2492.195515348515
 21
2338.112805903257
 31
0.0
  0
LINE
  5
13B4F
330
747D
100
AcDbEntity
  8
細線
 48
50.0
100
AcDbLine
 10
2477.195515348515
 20
4428.112805903256
 30
0.0
 11
2477.195515348515
 21
2338.112805903257
 31
0.0
  0
LINE
  5
13B50
330
747D
100
AcDbEntity
  8
細線
 48
50.0
100
AcDbLine
 10
1792.195515348511
 20
4428.112805903256
 30
0.0
 11
1792.195515348511
 21
2338.112805903257
 31
0.0
  0
LINE
  5
13B51
330
747D
100
AcDbEntity
  8
細線
 48
50.0
100
AcDbLine
 10
1777.195515348511
 20
4428.112805903256
 30
0.0
 11
1777.195515348511
 21
2338.112805903257
 31
0.0
  0
LINE
  5
13B52
330
747D
100
AcDbEntity
  8
細線
 48
50.0
100
AcDbLine
 10
1917.195515348511
 20
4428.112805903256
 30
0.0
 11
1917.195515348511
 21
2338.112805903257
 31
0.0
  0
LINE
  5
13B53
330
747D
100
AcDbEntity
  8
細線
 48
50.0
100
AcDbLine
 10
1932.195515348511
 20
4428.112805903256
 30
0.0
 11
1932.195515348511
 21
2338.112805903257
 31
0.0
  0
LINE
  5
13B54
330
747D
100
AcDbEntity
  8
細線
 48
50.0
100
AcDbLine
 10
2072.195515348512
 20
4428.112805903256
 30
0.0
 11
2072.195515348512
 21
2338.112805903257
 31
0.0
  0
LINE
  5
13B55
330
747D
100
AcDbEntity
  8
細線
 48
50.0
100
AcDbLine
 10
2057.195515348511
 20
4428.112805903256
 30
0.0
 11
2057.195515348511
 21
2338.112805903257
 31
0.0
  0
LINE
  5
13B56
330
747D
100
AcDbEntity
  8
細線
 48
50.0
100
AcDbLine
 10
4732.195515348511
 20
4428.112805903256
 30
0.0
 11
4732.195515348511
 21
2338.112805903257
 31
0.0
  0
LINE
  5
13B57
330
747D
100
AcDbEntity
  8
細線
 48
50.0
100
AcDbLine
 10
4717.195515348511
 20
4428.112805903256
 30
0.0
 11
4717.195515348511
 21
2338.112805903257
 31
0.0
  0
LINE
  5
13B58
330
747D
100
AcDbEntity
  8
細線
 48
50.0
100
AcDbLine
 10
4857.195515348511
 20
4428.112805903256
 30
0.0
 11
4857.195515348511
 21
2338.112805903257
 31
0.0
  0
LINE
  5
13B59
330
747D
100
AcDbEntity
  8
細線
 48
50.0
100
AcDbLine
 10
4872.195515348511
 20
4428.112805903256
 30
0.0
 11
4872.195515348511
 21
2338.112805903257
 31
0.0
  0
LINE
  5
13B5A
330
747D
100
AcDbEntity
  8
細線
 48
50.0
100
AcDbLine
 10
5012.195515348512
 20
4428.112805903256
 30
0.0
 11
5012.195515348512
 21
2338.112805903257
 31
0.0
  0
LINE
  5
13B5B
330
747D
100
AcDbEntity
  8
細線
 48
50.0
100
AcDbLine
 10
4997.195515348511
 20
4428.112805903256
 30
0.0
 11
4997.195515348511
 21
2338.112805903257
 31
0.0
  0
LINE
  5
13CC8
330
747D
100
AcDbEntity
  8
寸法
 48
50.0
100
AcDbLine
 10
2989.89852163037
 20
7474.26424381251
 30
0.0
 11
2938.492513720266
 21
7474.26424381251
 31
0.0
  0
LINE
  5
13CC9
330
747D
100
AcDbEntity
  8
寸法
 48
50.0
100
AcDbLine
 10
2938.492513720266
 20
7474.26424381251
 30
0.0
 11
2938.492513720266
 21
7505.574402464675
 31
0.0
  0
LINE
  5
13CCA
330
747D
100
AcDbEntity
  8
寸法
 48
50.0
100
AcDbLine
 10
2938.492513720266
 20
7505.574402464675
 30
0.0
 11
2908.731181728843
 21
7505.574402464675
 31
0.0
  0
LINE
  5
13CCB
330
747D
100
AcDbEntity
  8
寸法
 48
50.0
100
AcDbLine
 10
2908.731181728843
 20
7505.574402464675
 30
0.0
 11
2964.195517675318
 21
7543.153853393285
 31
0.0
  0
LINE
  5
13CCC
330
747D
100
AcDbEntity
  8
寸法
 48
50.0
100
AcDbLine
 10
3019.659853621794
 20
7505.574402464675
 30
0.0
 11
2964.195517675318
 21
7543.153853393285
 31
0.0
  0
LINE
  5
13CCD
330
747D
100
AcDbEntity
  8
寸法
 48
50.0
100
AcDbLine
 10
2989.89852163037
 20
7505.574402464675
 30
0.0
 11
3019.659853621794
 21
7505.574402464675
 31
0.0
  0
LINE
  5
13CCE
330
747D
100
AcDbEntity
  8
寸法
 48
50.0
100
AcDbLine
 10
2989.89852163037
 20
7474.26424381251
 30
0.0
 11
2989.89852163037
 21
7505.574402464675
 31
0.0
  0
LINE
  5
13CCF
330
747D
100
AcDbEntity
  8
寸法
 48
50.0
100
AcDbLine
 10
2938.492513720266
 20
7474.26424381251
 30
0.0
 11
2989.89852163037
 21
7474.26424381251
 31
0.0
  0
LINE
  5
13CD0
330
747D
100
AcDbEntity
  8
寸法
 48
50.0
100
AcDbLine
 10
3269.064055907228
 20
7531.409834567331
 30
0.0
 11
3269.064055907228
 21
7477.746199985542
 31
0.0
  0
LINE
  5
13CD1
330
747D
100
AcDbEntity
  8
寸法
 48
50.0
100
AcDbLine
 10
3358.348274502649
 20
7507.486200297846
 30
0.0
 11
3269.064055907228
 21
7531.409834567331
 31
0.0
  0
LINE
  5
13CD2
330
747D
100
AcDbEntity
  8
寸法
 48
50.0
100
AcDbLine
 10
3139.196334326925
 20
7507.486200297846
 30
0.0
 11
3358.348274502649
 21
7507.486200297846
 31
0.0
  0
LINE
  5
13CD3
330
747D
100
AcDbEntity
  8
細線
 48
50.0
100
AcDbLine
 10
4015.69551534853
 20
7672.727607192371
 30
0.0
 11
4642.695515348526
 21
7672.727607192371
 31
0.0
  0
LINE
  5
13CD4
330
747D
100
AcDbEntity
  8
細線
 48
50.0
100
AcDbLine
 10
3361.695520002116
 20
7639.018838638296
 30
0.0
 11
4642.695515348526
 21
7639.018838638296
 31
0.0
  0
LINE
  5
13CD5
330
747D
100
AcDbEntity
  8
細線
 48
50.0
100
AcDbLine
 10
3320.695520002119
 20
7668.423746634549
 30
0.0
 11
2566.695515348525
 21
7668.423746634546
 31
0.0
  0
LINE
  5
13CD6
330
747D
100
AcDbEntity
  8
細線
100
AcDbLine
 10
4418.445505932069
 20
7692.22750715738
 30
0.0
 11
4420.777045453879
 21
7697.227509797342
 31
0.0
  0
LINE
  5
13CD7
330
747D
100
AcDbEntity
  8
細線
100
AcDbLine
 10
4488.445515348526
 20
7692.227492243647
 30
0.0
 11
4486.11396887234
 21
7697.227509797326
 31
0.0
  0
LINE
  5
13CD8
330
747D
100
AcDbEntity
  8
細線
100
AcDbLine
 10
4486.11396887234
 20
7697.227509797326
 30
0.0
 11
4420.777045453863
 21
7697.227509797312
 31
0.0
  0
LINE
  5
13CD9
330
747D
100
AcDbEntity
  8
細線
100
AcDbLine
 10
4346.11396887234
 20
7697.227509797326
 30
0.0
 11
4280.777045453864
 21
7697.227509797312
 31
0.0
  0
LINE
  5
13CDA
330
747D
100
AcDbEntity
  8
細線
100
AcDbLine
 10
4348.445515348527
 20
7692.227492243647
 30
0.0
 11
4346.11396887234
 21
7697.227509797326
 31
0.0
  0
LINE
  5
13CDB
330
747D
100
AcDbEntity
  8
細線
100
AcDbLine
 10
4278.44550593207
 20
7692.22750715738
 30
0.0
 11
4280.777045453879
 21
7697.227509797342
 31
0.0
  0
LINE
  5
13CDC
330
747D
100
AcDbEntity
  8
細線
100
AcDbLine
 10
4138.445515348527
 20
7692.227492243647
 30
0.0
 11
4140.77705487034
 21
7697.227494883607
 31
0.0
  0
LINE
  5
13CDD
330
747D
100
AcDbEntity
  8
細線
100
AcDbLine
 10
4208.445524764988
 20
7692.227477329912
 30
0.0
 11
4206.113978288796
 21
7697.227494883593
 31
0.0
  0
LINE
  5
13CDE
330
747D
100
AcDbEntity
  8
細線
100
AcDbLine
 10
4206.1139782888
 20
7697.227494883593
 30
0.0
 11
4140.777054870325
 21
7697.227494883579
 31
0.0
  0
LINE
  5
13CDF
330
747D
100
AcDbEntity
  8
細線
100
AcDbLine
 10
3910.863999537634
 20
7663.227531580975
 30
0.0
 11
3845.527076119158
 21
7663.227531580961
 31
0.0
  0
LINE
  5
13CE0
330
747D
100
AcDbEntity
  8
細線
100
AcDbLine
 10
3913.195546013821
 20
7658.227514027294
 30
0.0
 11
3910.863999537634
 21
7663.227531580975
 31
0.0
  0
LINE
  5
13CE1
330
747D
100
AcDbEntity
  8
細線
100
AcDbLine
 10
3843.195536597363
 20
7658.227528941027
 30
0.0
 11
3845.527076119173
 21
7663.227531580989
 31
0.0
  0
LINE
  5
13CE2
330
747D
100
AcDbEntity
  8
細線
 48
50.0
100
AcDbLine
 10
3684.57889459654
 20
7676.498355396727
 30
0.0
 11
3690.334412179208
 21
7658.22750410624
 31
0.0
  0
LINE
  5
13CE3
330
747D
100
AcDbEntity
  8
細線
 48
50.0
100
AcDbLine
 10
3673.650446116111
 20
7676.498355396727
 30
0.0
 11
3684.57889459654
 21
7676.498355396727
 31
0.0
  0
ARC
  5
13CE4
330
747D
100
AcDbEntity
  8
細線
 48
50.0
100
AcDbCircle
 10
3668.196090058788
 20
7677.998355396727
 30
0.0
 40
5.0
100
AcDbArc
 50
204.6243183521304
 51
335.3756816478695
  0
ARC
  5
13CE5
330
747D
100
AcDbEntity
  8
細線
 48
50.0
100
AcDbCircle
 10
3673.650446116111
 20
7675.498355396726
 30
0.0
 40
1.0
100
AcDbArc
 50
90.0
 51
155.3756816478695
  0
ARC
  5
13CE6
330
747D
100
AcDbEntity
  8
細線
 48
50.0
100
AcDbCircle
 10
3662.741734001474
 20
7675.498355396726
 30
0.0
 40
1.0
100
AcDbArc
 50
24.62431835213048
 51
90.0
  0
LINE
  5
13CE7
330
747D
100
AcDbEntity
  8
細線
 48
50.0
100
AcDbLine
 10
3651.81328552104
 20
7676.498355396727
 30
0.0
 11
3662.741734001474
 21
7676.498355396727
 31
0.0
  0
LINE
  5
13CE8
330
747D
100
AcDbEntity
  8
細線
 48
50.0
100
AcDbLine
 10
3646.057767938373
 20
7658.227504106233
 30
0.0
 11
3651.81328552104
 21
7676.498355396727
 31
0.0
  0
LINE
  5
13CE9
330
747D
100
AcDbEntity
  8
細線
100
AcDbLine
 10
3703.195537828405
 20
7658.227501472037
 30
0.0
 11
3705.527077350217
 21
7663.227504111998
 31
0.0
  0
LINE
  5
13CEA
330
747D
100
AcDbEntity
  8
細線
100
AcDbLine
 10
3773.195547244866
 20
7658.227486558303
 30
0.0
 11
3770.864000768675
 21
7663.227504111984
 31
0.0
  0
LINE
  5
13CEB
330
747D
100
AcDbEntity
  8
細線
100
AcDbLine
 10
3770.864000768675
 20
7663.227504111984
 30
0.0
 11
3705.527077350203
 21
7663.227504111969
 31
0.0
  0
LINE
  5
13CEC
330
747D
100
AcDbEntity
  8
細線
100
AcDbLine
 10
3630.863972404158
 20
7663.227504106204
 30
0.0
 11
3565.527048985682
 21
7663.22750410619
 31
0.0
  0
LINE
  5
13CED
330
747D
100
AcDbEntity
  8
細線
100
AcDbLine
 10
3633.195518880345
 20
7658.227486552523
 30
0.0
 11
3630.863972404158
 21
7663.227504106204
 31
0.0
  0
LINE
  5
13CEE
330
747D
100
AcDbEntity
  8
細線
100
AcDbLine
 10
3563.195510694929
 20
7658.227504106233
 30
0.0
 11
3565.527048985697
 21
7663.227504106219
 31
0.0
  0
LINE
  5
13CEF
330
747D
100
AcDbEntity
  8
細線
100
AcDbLine
 10
3423.195546013821
 20
7658.227512293603
 30
0.0
 11
3425.527084304589
 21
7663.227512293588
 31
0.0
  0
LINE
  5
13CF0
330
747D
100
AcDbEntity
  8
細線
100
AcDbLine
 10
3493.195554199237
 20
7658.227494739893
 30
0.0
 11
3490.864007723049
 21
7663.22751229357
 31
0.0
  0
LINE
  5
13CF1
330
747D
100
AcDbEntity
  8
細線
100
AcDbLine
 10
3490.864007723049
 20
7663.22751229357
 30
0.0
 11
3425.527084304574
 21
7663.227512293559
 31
0.0
  0
LINE
  5
13CF2
330
747D
100
AcDbEntity
  8
細線
100
AcDbLine
 10
3051.6955118167
 20
7624.227683974315
 30
0.0
 11
3054.027050107467
 21
7629.227683974301
 31
0.0
  0
LINE
  5
13CF3
330
747D
100
AcDbEntity
  8
細線
100
AcDbLine
 10
3121.695520002116
 20
7624.227666420601
 30
0.0
 11
3119.363973525929
 21
7629.22768397428
 31
0.0
  0
LINE
  5
13CF4
330
747D
100
AcDbEntity
  8
細線
100
AcDbLine
 10
3119.363973525929
 20
7629.22768397428
 30
0.0
 11
3054.027050107457
 21
7629.227683974271
 31
0.0
  0
LINE
  5
13CF5
330
747D
100
AcDbEntity
  8
細線
100
AcDbLine
 10
3259.363973525929
 20
7629.22768397428
 30
0.0
 11
3194.027050107457
 21
7629.227683974271
 31
0.0
  0
LINE
  5
13CF6
330
747D
100
AcDbEntity
  8
細線
100
AcDbLine
 10
3261.695520002116
 20
7624.227666420601
 30
0.0
 11
3259.363973525929
 21
7629.22768397428
 31
0.0
  0
LINE
  5
13CF7
330
747D
100
AcDbEntity
  8
細線
100
AcDbLine
 10
3191.6955118167
 20
7624.227683974315
 30
0.0
 11
3194.027050107468
 21
7629.227683974301
 31
0.0
  0
LINE
  5
13CF8
330
747D
100
AcDbEntity
  8
細線
100
AcDbLine
 10
2979.363973525927
 20
7629.22768397428
 30
0.0
 11
2914.027050107456
 21
7629.227683974268
 31
0.0
  0
LINE
  5
13CF9
330
747D
100
AcDbEntity
  8
細線
100
AcDbLine
 10
2981.695520002115
 20
7624.227666420601
 30
0.0
 11
2979.363973525927
 21
7629.22768397428
 31
0.0
  0
LINE
  5
13CFA
330
747D
100
AcDbEntity
  8
細線
100
AcDbLine
 10
2911.695511816699
 20
7624.227683974311
 30
0.0
 11
2914.027050107467
 21
7629.227683974296
 31
0.0
  0
LINE
  5
13CFB
330
747D
100
AcDbEntity
  8
細線
100
AcDbLine
 10
2771.695520002115
 20
7624.227683974315
 30
0.0
 11
2774.027058292883
 21
7629.227683974301
 31
0.0
  0
LINE
  5
13CFC
330
747D
100
AcDbEntity
  8
細線
100
AcDbLine
 10
2841.695528187531
 20
7624.227666420601
 30
0.0
 11
2839.363981711344
 21
7629.22768397428
 31
0.0
  0
LINE
  5
13CFD
330
747D
100
AcDbEntity
  8
細線
100
AcDbLine
 10
2839.363981711344
 20
7629.22768397428
 30
0.0
 11
2774.027058292872
 21
7629.227683974271
 31
0.0
  0
ARC
  5
13CFE
330
747D
100
AcDbEntity
  8
部品1
 48
0.01
100
AcDbCircle
 10
2727.19540874978
 20
7623.226561789242
 30
0.0
 40
0.5
100
AcDbArc
 50
270.0
 51
0.0
  0
LINE
  5
13CFF
330
747D
100
AcDbEntity
  8
部品1
 48
0.01
100
AcDbLine
 10
2727.69540874978
 20
7624.226561789242
 30
0.0
 11
2727.69540874978
 21
7623.226561789242
 31
0.0
  0
LINE
  5
13D00
330
747D
100
AcDbEntity
  8
部品1
 48
0.01
100
AcDbLine
 10
2727.69540874978
 20
7624.226561789242
 30
0.0
 11
2727.69540874978
 21
7623.226561789242
 31
0.0
  0
LINE
  5
13D01
330
747D
100
AcDbEntity
  8
部品1
 48
0.01
100
AcDbLine
 10
2727.19540874978
 20
7622.726561789242
 30
0.0
 11
2720.582903319715
 21
7622.726561789242
 31
0.0
  0
ARC
  5
13D02
330
747D
100
AcDbEntity
  8
部品1
100
AcDbCircle
 10
2720.651252872496
 20
7623.726561789244
 30
0.0
 40
1.0
100
AcDbArc
 50
160.5287793655778
 51
270.0
  0
ARC
  5
13D03
330
747D
100
AcDbEntity
  8
部品1
100
AcDbCircle
 10
2695.19540874978
 20
7632.726561789242
 30
0.0
 40
26.0
100
AcDbArc
 50
340.5287793655779
 51
0.0
  0
LINE
  5
13D04
330
747D
100
AcDbEntity
  8
部品1
100
AcDbLine
 10
2721.19540874978
 20
7632.726561789242
 30
0.0
 11
2721.19540874978
 21
7637.726561789243
 31
0.0
  0
ARC
  5
13D05
330
747D
100
AcDbEntity
  8
部品1
 48
0.01
100
AcDbCircle
 10
2719.19540874978
 20
7637.726561789243
 30
0.0
 40
2.0
100
AcDbArc
 50
0.0
 51
90.0
  0
ARC
  5
13D06
330
747D
100
AcDbEntity
  8
部品1
100
AcDbCircle
 10
2717.58701712497
 20
7636.726561789243
 30
0.0
 40
3.0
100
AcDbArc
 50
90.0
 51
141.6069559807873
  0
LINE
  5
13D07
330
747D
100
AcDbEntity
  8
部品1
 48
0.01
100
AcDbLine
 10
2719.19540874978
 20
7639.726561789243
 30
0.0
 11
2717.58701712497
 21
7639.726561789243
 31
0.0
  0
ARC
  5
13D08
330
747D
100
AcDbEntity
  8
部品1
100
AcDbCircle
 10
2699.124694535509
 20
7636.026561789245
 30
0.0
 40
3.0
100
AcDbArc
 50
254.0576313943215
 51
270.0
  0
ARC
  5
13D09
330
747D
100
AcDbEntity
  8
部品1
100
AcDbCircle
 10
2706.266122964051
 20
7636.026561789245
 30
0.0
 40
3.0
100
AcDbArc
 50
270.0
 51
285.9423686056786
  0
LINE
  5
13D0A
330
747D
100
AcDbEntity
  8
部品1
100
AcDbLine
 10
2706.266122964051
 20
7633.026561789245
 30
0.0
 11
2699.124694535509
 21
7633.026561789245
 31
0.0
  0
ARC
  5
13D0B
330
747D
100
AcDbEntity
  8
部品1
100
AcDbCircle
 10
2702.69540874978
 20
7648.526561789245
 30
0.0
 40
16.0
100
AcDbArc
 50
285.9423686056786
 51
321.6069559807873
  0
LINE
  5
13D0C
330
747D
100
AcDbEntity
  8
部品1
 48
0.01
100
AcDbLine
 10
2686.19540874978
 20
7639.726561789243
 30
0.0
 11
2687.80380037459
 21
7639.726561789243
 31
0.0
  0
ARC
  5
13D0D
330
747D
100
AcDbEntity
  8
部品1
100
AcDbCircle
 10
2687.80380037459
 20
7636.726561789243
 30
0.0
 40
3.0
100
AcDbArc
 50
38.39304401921267
 51
90.0
  0
ARC
  5
13D0E
330
747D
100
AcDbEntity
  8
部品1
100
AcDbCircle
 10
2702.69540874978
 20
7648.526561789245
 30
0.0
 40
16.0
100
AcDbArc
 50
218.3930440192126
 51
254.0576313943215
  0
LINE
  5
13D0F
330
747D
100
AcDbEntity
  8
部品1
100
AcDbLine
 10
2684.19540874978
 20
7632.726561789242
 30
0.0
 11
2684.19540874978
 21
7637.726561789243
 31
0.0
  0
ARC
  5
13D10
330
747D
100
AcDbEntity
  8
部品1
 48
0.01
100
AcDbCircle
 10
2686.19540874978
 20
7637.726561789243
 30
0.0
 40
2.0
100
AcDbArc
 50
90.0
 51
180.0
  0
ARC
  5
13D11
330
747D
100
AcDbEntity
  8
部品1
100
AcDbCircle
 10
2710.19540874978
 20
7632.726561789242
 30
0.0
 40
26.0
100
AcDbArc
 50
180.0
 51
199.4712206344221
  0
ARC
  5
13D12
330
747D
100
AcDbEntity
  8
部品1
 48
0.01
100
AcDbCircle
 10
2678.19540874978
 20
7623.226561789242
 30
0.0
 40
0.5
100
AcDbArc
 50
180.0
 51
270.0
  0
LINE
  5
13D13
330
747D
100
AcDbEntity
  8
部品1
 48
0.01
100
AcDbLine
 10
2678.19540874978
 20
7622.726561789242
 30
0.0
 11
2684.739564627064
 21
7622.726561789242
 31
0.0
  0
LINE
  5
13D14
330
747D
100
AcDbEntity
  8
部品1
 48
0.01
100
AcDbLine
 10
2677.69540874978
 20
7624.226561789242
 30
0.0
 11
2677.69540874978
 21
7623.226561789242
 31
0.0
  0
ARC
  5
13D15
330
747D
100
AcDbEntity
  8
部品1
100
AcDbCircle
 10
2684.739564627064
 20
7623.726561789244
 30
0.0
 40
1.0
100
AcDbArc
 50
270.0
 51
19.47122063442214
  0
LINE
  5
13D16
330
747D
100
AcDbEntity
  8
細線
100
AcDbLine
 10
2723.195408749787
 20
7642.226561789247
 30
0.0
 11
2682.195408749787
 21
7642.226561789239
 31
0.0
  0
LINE
  5
13D17
330
747D
100
AcDbEntity
  8
細線
100
AcDbLine
 10
2682.195408749787
 20
7642.226561789239
 30
0.0
 11
2682.195408749787
 21
7624.226561789221
 31
0.0
  0
LINE
  5
13D18
330
747D
100
AcDbEntity
  8
細線
100
AcDbLine
 10
2723.195408749787
 20
7642.226561789247
 30
0.0
 11
2723.195408749787
 21
7624.226561789221
 31
0.0
  0
LINE
  5
13D19
330
747D
100
AcDbEntity
  8
細線
100
AcDbLine
 10
2566.695515348525
 20
7628.227492243647
 30
0.0
 11
2566.695515348525
 21
7624.227492243694
 31
0.0
  0
DIMENSION
  5
13D1A
330
747D
100
AcDbEntity
  8
寸法
 48
50.0
100
AcDbDimension
  2
*D29
 10
3832.695515348526
 20
6949.317003223136
 30
0.0
 11
3224.405186261938
 21
6949.317003223136
 31
0.0
 70
   160
  1
有効開口部間口\P<>
 71
     5
 42
1266.0
  3
INABA_S40
100
AcDbAlignedDimension
 13
2566.695515348526
 23
7619.227492243647
 33
0.0
 14
3832.695515348526
 24
7619.227492243647
 34
0.0
100
AcDbRotatedDimension
1001
ACAD
1000
DSTYLE
1002
{
1070
    41
1040
0.5
1070
    44
1040
1.0
1070
   147
1040
0.8
1070
   271
1070
     2
1070
   272
1070
     2
1070
   289
1070
     3
1070
   340
1005
F706
1070
   343
1005
F744
1070
   344
1005
F744
1002
}
  0
LINE
  5
13D1B
330
747D
100
AcDbEntity
  8
部品1
100
AcDbLine
 10
4654.695515348526
 20
7696.227492243645
 30
0.0
 11
4681.695515348526
 21
7696.227492243647
 31
0.0
  0
LINE
  5
13D1D
330
747D
100
AcDbEntity
  8
部品1
100
AcDbLine
 10
4681.695515348526
 20
7619.227492243647
 30
0.0
 11
4681.695515348526
 21
7696.227492243647
 31
0.0
  0
LINE
  5
13D1E
330
747D
100
AcDbEntity
  8
部品1
100
AcDbLine
 10
4642.695515348526
 20
7692.227492243647
 30
0.0
 11
4654.695515348526
 21
7692.227492243647
 31
0.0
  0
LINE
  5
13D1F
330
747D
100
AcDbEntity
  8
部品1
100
AcDbLine
 10
4651.695515348526
 20
7628.227492243647
 30
0.0
 11
4651.695515348526
 21
7619.227492243647
 31
0.0
  0
LINE
  5
13D20
330
747D
100
AcDbEntity
  8
部品1
100
AcDbLine
 10
4642.695515348526
 20
7628.227492243647
 30
0.0
 11
4651.695515348526
 21
7628.227492243647
 31
0.0
  0
LINE
  5
13D21
330
747D
100
AcDbEntity
  8
部品1
100
AcDbLine
 10
4642.695515348526
 20
7692.227492243647
 30
0.0
 11
4642.695515348526
 21
7628.227492243647
 31
0.0
  0
LINE
  5
13D22
330
747D
100
AcDbEntity
  8
部品1
100
AcDbLine
 10
4654.695515348526
 20
7723.227492243648
 30
0.0
 11
4654.695515348526
 21
7692.227492243647
 31
0.0
  0
LINE
  5
13D23
330
747D
100
AcDbEntity
  8
部品1
100
AcDbLine
 10
2566.695515348525
 20
7692.227492243647
 30
0.0
 11
2554.695515348525
 21
7692.227492243647
 31
0.0
  0
LINE
  5
13D24
330
747D
100
AcDbEntity
  8
部品1
100
AcDbLine
 10
2527.695515348525
 20
7696.227492243647
 30
0.0
 11
2554.695515348525
 21
7696.227492243647
 31
0.0
  0
LINE
  5
13D25
330
747D
100
AcDbEntity
  8
部品1
100
AcDbLine
 10
2557.695515348525
 20
7628.227492243647
 30
0.0
 11
2557.695515348525
 21
7619.227492243647
 31
0.0
  0
LINE
  5
13D26
330
747D
100
AcDbEntity
  8
部品1
100
AcDbLine
 10
2566.695515348525
 20
7628.227492243647
 30
0.0
 11
2557.695515348525
 21
7628.227492243647
 31
0.0
  0
LINE
  5
13D27
330
747D
100
AcDbEntity
  8
部品1
100
AcDbLine
 10
2557.695515348525
 20
7619.227492243647
 30
0.0
 11
2527.695515348525
 21
7619.227492243647
 31
0.0
  0
LINE
  5
13D28
330
747D
100
AcDbEntity
  8
部品1
100
AcDbLine
 10
2527.695515348525
 20
7619.227492243647
 30
0.0
 11
2527.695515348525
 21
7696.227492243647
 31
0.0
  0
LINE
  5
13D29
330
747D
100
AcDbEntity
  8
部品1
100
AcDbLine
 10
2566.695515348525
 20
7692.227492243647
 30
0.0
 11
2566.695515348525
 21
7628.227492243647
 31
0.0
  0
LINE
  5
13D2A
330
747D
100
AcDbEntity
  8
部品1
100
AcDbLine
 10
2554.695515348525
 20
7723.227492243643
 30
0.0
 11
2554.695515348525
 21
7692.227492243647
 31
0.0
  0
LINE
  5
13D2B
330
747D
100
AcDbEntity
  8
部品1
100
AcDbLine
 10
2554.695515348525
 20
7723.227492243643
 30
0.0
 11
4654.695515348526
 21
7723.227492243648
 31
0.0
  0
LINE
  5
13D2C
330
747D
100
AcDbEntity
  8
部品1
100
AcDbLine
 10
4651.695515348526
 20
7619.227492243647
 30
0.0
 11
4681.695515348526
 21
7619.227492243647
 31
0.0
  0
LINE
  5
13D2D
330
747D
100
AcDbEntity
  8
部品1
100
AcDbLine
 10
2557.695515348525
 20
7619.227492243647
 30
0.0
 11
4654.695515348526
 21
7619.227492243647
 31
0.0
  0
LINE
  5
13D2E
330
747D
100
AcDbEntity
  8
細線
  6
Continuous
 62
     5
100
AcDbLine
 10
3933.69551534853
 20
7658.227492243643
 30
0.0
 11
3933.69551534853
 21
7658.227492243643
 31
0.0
  0
LINE
  5
13D2F
330
747D
100
AcDbEntity
  8
細線
  6
Continuous
 62
     5
100
AcDbLine
 10
3926.195550667421
 20
7658.227502164701
 30
0.0
 11
3926.195550667421
 21
7658.227502164701
 31
0.0
  0
LINE
  5
13D30
330
747D
100
AcDbEntity
  8
細線
  6
Continuous
 62
     5
100
AcDbLine
 10
3920.195550667421
 20
7658.227502164701
 30
0.0
 11
3920.195550667421
 21
7658.227502164701
 31
0.0
  0
LINE
  5
13D31
330
747D
100
AcDbEntity
  8
細線
  6
Continuous
 62
     5
100
AcDbLine
 10
3987.69551534853
 20
7677.227492243642
 30
0.0
 11
3987.69551534853
 21
7677.227492243642
 31
0.0
  0
LINE
  5
13D32
330
747D
100
AcDbEntity
  8
細線
 48
50.0
100
AcDbLine
 10
2580.695520002119
 20
7644.8276664206
 30
0.0
 11
2580.695520002119
 21
7653.223816828241
 31
0.0
  0
LINE
  5
13D33
330
747D
100
AcDbEntity
  8
細線
 48
50.0
100
AcDbLine
 10
2580.695520002119
 20
7653.223816828241
 30
0.0
 11
2566.695515348525
 21
7653.223816828236
 31
0.0
  0
LINE
  5
13D34
330
747D
100
AcDbEntity
  8
細線
 48
50.0
100
AcDbLine
 10
3331.695520002116
 20
7641.377666420599
 30
0.0
 11
3331.695520002116
 21
7646.227666420601
 31
0.0
  0
LINE
  5
13D35
330
747D
100
AcDbEntity
  8
細線
 48
50.0
100
AcDbLine
 10
3331.695520002116
 20
7646.227666420601
 30
0.0
 11
3346.695520002116
 21
7646.227666420601
 31
0.0
  0
LINE
  5
13D36
330
747D
100
AcDbEntity
  8
細線
 48
50.0
100
AcDbLine
 10
3346.695520002116
 20
7646.227666420601
 30
0.0
 11
3346.69552000212
 21
7653.227666420602
 31
0.0
  0
LINE
  5
13D37
330
747D
100
AcDbEntity
  8
細線
 48
50.0
100
AcDbLine
 10
3346.69552000212
 20
7653.227666420602
 30
0.0
 11
3361.695520002116
 21
7653.227666420602
 31
0.0
  0
LINE
  5
13D38
330
747D
100
AcDbEntity
  8
細線
 48
50.0
100
AcDbLine
 10
3361.695520002116
 20
7653.227666420602
 30
0.0
 11
3361.695520002116
 21
7624.227666420601
 31
0.0
  0
LINE
  5
13D39
330
747D
100
AcDbEntity
  8
細線
 48
50.0
100
AcDbLine
 10
2557.695515348525
 20
7624.22500076407
 30
0.0
 11
2771.695520002115
 21
7624.227683974315
 31
0.0
  0
LINE
  5
13D3A
330
747D
100
AcDbEntity
  8
細線
 48
50.0
100
AcDbLine
 10
3261.695520002116
 20
7624.227666420601
 30
0.0
 11
3361.695520002116
 21
7624.227666420601
 31
0.0
  0
LINE
  5
13D3B
330
747D
100
AcDbEntity
  8
細線
 48
50.0
100
AcDbLine
 10
2981.695520002115
 20
7624.227666420601
 30
0.0
 11
3051.695520002116
 21
7624.227666420601
 31
0.0
  0
LINE
  5
13D3C
330
747D
100
AcDbEntity
  8
細線
 48
50.0
100
AcDbLine
 10
2994.557485014644
 20
7624.227666420601
 30
0.0
 11
3000.313002597311
 21
7642.498517711096
 31
0.0
  0
LINE
  5
13D3D
330
747D
100
AcDbEntity
  8
細線
 48
50.0
100
AcDbLine
 10
3000.313002597311
 20
7642.498517711096
 30
0.0
 11
3011.241451077746
 21
7642.498517711093
 31
0.0
  0
ARC
  5
13D3E
330
747D
100
AcDbEntity
  8
細線
 48
50.0
100
AcDbCircle
 10
3011.241451077746
 20
7641.498517711092
 30
0.0
 40
1.0
100
AcDbArc
 50
24.62431835213048
 51
90.0
  0
ARC
  5
13D3F
330
747D
100
AcDbEntity
  8
細線
 48
50.0
100
AcDbCircle
 10
3022.150163192379
 20
7641.498517711092
 30
0.0
 40
1.0
100
AcDbArc
 50
90.0
 51
155.3756816478695
  0
ARC
  5
13D40
330
747D
100
AcDbEntity
  8
細線
 48
50.0
100
AcDbCircle
 10
3016.69580713506
 20
7643.998517711093
 30
0.0
 40
5.0
100
AcDbArc
 50
204.6243183521304
 51
335.3756816478695
  0
LINE
  5
13D41
330
747D
100
AcDbEntity
  8
細線
 48
50.0
100
AcDbLine
 10
3022.150163192379
 20
7642.498517711093
 30
0.0
 11
3033.078611672813
 21
7642.498517711096
 31
0.0
  0
LINE
  5
13D42
330
747D
100
AcDbEntity
  8
細線
 48
50.0
100
AcDbLine
 10
3033.078611672813
 20
7642.498517711096
 30
0.0
 11
3038.834129255481
 21
7624.227666420601
 31
0.0
  0
LINE
  5
13D43
330
747D
100
AcDbEntity
  8
細線
 48
50.0
100
AcDbLine
 10
3331.695520002116
 20
7644.8276664206
 30
0.0
 11
2580.695520002119
 21
7644.8276664206
 31
0.0
  0
LINE
  5
13D44
330
747D
100
AcDbEntity
  8
細線
 48
50.0
100
AcDbLine
 10
3191.695520002116
 20
7624.227666420601
 30
0.0
 11
3121.695520002116
 21
7624.227666420601
 31
0.0
  0
LINE
  5
13D45
330
747D
100
AcDbEntity
  8
細線
100
AcDbLine
 10
2911.695520002115
 20
7624.227666420601
 30
0.0
 11
2841.695528187531
 21
7624.227666420601
 31
0.0
  0
LINE
  5
13D46
330
747D
100
AcDbEntity
  8
細線
 48
50.0
100
AcDbLine
 10
3985.69551069494
 20
7678.827710278468
 30
0.0
 11
3350.695520002116
 21
7678.827710278465
 31
0.0
  0
LINE
  5
13D47
330
747D
100
AcDbEntity
  8
細線
 48
50.0
100
AcDbLine
 10
3350.695520002116
 20
7675.723860686108
 30
0.0
 11
3350.695520002116
 21
7680.223860686108
 31
0.0
  0
LINE
  5
13D48
330
747D
100
AcDbEntity
  8
細線
 48
50.0
100
AcDbLine
 10
3350.695520002116
 20
7680.223860686108
 30
0.0
 11
3335.695520002115
 21
7680.223860686108
 31
0.0
  0
LINE
  5
13D49
330
747D
100
AcDbEntity
  8
細線
 48
50.0
100
AcDbLine
 10
3335.695520002115
 20
7680.223860686108
 30
0.0
 11
3335.695520002115
 21
7687.223860686109
 31
0.0
  0
LINE
  5
13D4A
330
747D
100
AcDbEntity
  8
細線
 48
50.0
100
AcDbLine
 10
3335.695520002115
 20
7687.223860686109
 30
0.0
 11
3320.695520002119
 21
7687.223860686104
 31
0.0
  0
LINE
  5
13D4B
330
747D
100
AcDbEntity
  8
細線
 48
50.0
100
AcDbLine
 10
3320.695520002119
 20
7687.223860686104
 30
0.0
 11
3320.695520002119
 21
7649.623632582994
 31
0.0
  0
LINE
  5
13D4C
330
747D
100
AcDbEntity
  8
細線
 48
50.0
100
AcDbLine
 10
3320.695520002119
 20
7649.623632582994
 30
0.0
 11
3340.695527303292
 21
7649.623674132536
 31
0.0
  0
LINE
  5
13D4D
330
747D
100
AcDbEntity
  8
細線
 48
50.0
100
AcDbLine
 10
3340.695482434349
 20
7658.227135768344
 30
0.0
 11
3340.695527303292
 21
7649.623674132536
 31
0.0
  0
LINE
  5
13D4E
330
747D
100
AcDbEntity
  8
細線
 48
50.0
100
AcDbLine
 10
3985.69551069494
 20
7675.377710278468
 30
0.0
 11
3985.69551069494
 21
7680.227710278467
 31
0.0
  0
LINE
  5
13D4F
330
747D
100
AcDbEntity
  8
細線
 48
50.0
100
AcDbLine
 10
3985.69551069494
 20
7680.227710278467
 30
0.0
 11
4000.695510694936
 21
7680.227710278467
 31
0.0
  0
LINE
  5
13D50
330
747D
100
AcDbEntity
  8
細線
 48
50.0
100
AcDbLine
 10
4000.695510694936
 20
7680.227710278467
 30
0.0
 11
4000.695522328912
 21
7687.22771027851
 31
0.0
  0
LINE
  5
13D51
330
747D
100
AcDbEntity
  8
細線
 48
50.0
100
AcDbLine
 10
4000.695522328912
 20
7687.22771027851
 30
0.0
 11
4015.695520499441
 21
7687.22771027851
 31
0.0
  0
LINE
  5
13D52
330
747D
100
AcDbEntity
  8
細線
 48
50.0
100
AcDbLine
 10
4015.695520499441
 20
7687.22771027851
 30
0.0
 11
4015.695510197621
 21
7658.227504106237
 31
0.0
  0
LINE
  5
13D53
330
747D
100
AcDbEntity
  8
細線
 48
50.0
100
AcDbLine
 10
3703.195537828405
 20
7658.227512293603
 30
0.0
 11
3633.195789910821
 21
7658.227506856265
 31
0.0
  0
LINE
  5
13D54
330
747D
100
AcDbEntity
  8
細線
 48
50.0
100
AcDbLine
 10
3340.695482434349
 20
7658.227135768344
 30
0.0
 11
3351.92817178906
 21
7658.227318721491
 31
0.0
  0
ARC
  5
13D55
330
747D
100
AcDbEntity
  8
細線
 48
50.0
100
AcDbCircle
 10
3358.510464096396
 20
7657.027482635104
 30
0.0
 40
1.8
100
AcDbArc
 50
270.0006665777295
 51
345.0005554812987
  0
LINE
  5
13D56
330
747D
100
AcDbEntity
  8
細線
 48
50.0
100
AcDbLine
 10
3360.496897542475
 20
7657.486323092382
 30
0.0
 11
3360.249135100276
 21
7656.561625210276
 31
0.0
  0
LINE
  5
13D57
330
747D
100
AcDbEntity
  8
細線
 48
50.0
100
AcDbLine
 10
3358.510485037551
 20
7655.227482635225
 30
0.0
 11
3354.880557618782
 21
7655.227440404743
 31
0.0
  0
ARC
  5
13D58
330
747D
100
AcDbEntity
  8
細線
 48
50.0
100
AcDbCircle
 10
3354.88053667763
 20
7657.027440404623
 30
0.0
 40
1.8
100
AcDbArc
 50
195.0010443049394
 51
270.0006665777295
  0
LINE
  5
13D59
330
747D
100
AcDbEntity
  8
細線
 48
50.0
100
AcDbLine
 10
3352.894109185371
 20
7657.486155372187
 30
0.0
 11
3353.141878681884
 21
7656.561534433605
 31
0.0
  0
ARC
  5
13D5A
330
747D
100
AcDbEntity
  8
細線
 48
50.0
100
AcDbCircle
 10
3351.928188076622
 20
7657.227318721625
 30
0.0
 40
1.0
100
AcDbArc
 50
15.00104430493943
 51
90.00093320877969
  0
LINE
  5
13D5B
330
747D
100
AcDbEntity
  8
細線
 48
50.0
100
AcDbLine
 10
3361.462818897578
 20
7658.227513411896
 30
0.0
 11
3362.404579048483
 21
7658.227519985745
 31
0.0
  0
ARC
  5
13D5C
330
747D
100
AcDbEntity
  8
細線
 48
50.0
100
AcDbCircle
 10
3361.462825877964
 20
7657.227513411921
 30
0.0
 40
1.0
100
AcDbArc
 50
90.0003999466794
 51
165.0005554812987
  0
LINE
  5
13D5D
330
747D
100
AcDbEntity
  8
細線
 48
50.0
100
AcDbLine
 10
3913.195510694929
 20
7658.227504106237
 30
0.0
 11
4015.695510197621
 21
7658.227504106237
 31
0.0
  0
LINE
  5
13D5E
330
747D
100
AcDbEntity
  8
細線
 48
50.0
100
AcDbLine
 10
3423.195546013821
 20
7658.227512293603
 30
0.0
 11
3362.095484786901
 21
7658.227519985745
 31
0.0
  0
LINE
  5
13D5F
330
747D
100
AcDbEntity
  8
細線
 48
50.0
100
AcDbLine
 10
3843.19554601382
 20
7658.227549134686
 30
0.0
 11
3773.195539059435
 21
7658.227504112017
 31
0.0
  0
LINE
  5
13D60
330
747D
100
AcDbEntity
  8
細線
 48
50.0
100
AcDbLine
 10
3563.195510694929
 20
7658.227504106233
 30
0.0
 11
3493.195493407054
 21
7658.22750410624
 31
0.0
  0
ARC
  5
13D61
330
747D
100
AcDbEntity
  8
細線
 48
50.0
100
AcDbCircle
 10
3999.895515348537
 20
7691.427492243647
 30
0.0
 40
0.8
100
AcDbArc
 50
359.9997333689499
 51
89.99986668437072
  0
ARC
  5
13D62
330
747D
100
AcDbEntity
  8
細線
 48
50.0
100
AcDbCircle
 10
4007.495522173631
 20
7691.427503412263
 30
0.0
 40
0.8
100
AcDbArc
 50
90.00014387753465
 51
179.9997333689498
  0
LINE
  5
13D63
330
747D
100
AcDbEntity
  8
細線
 48
50.0
100
AcDbLine
 10
3999.895517209971
 20
7692.227492243647
 30
0.0
 11
3994.695515348526
 21
7692.227492243647
 31
0.0
  0
ARC
  5
13D64
330
747D
100
AcDbEntity
  8
細線
 48
50.0
100
AcDbCircle
 10
4001.395515348526
 20
7689.927492243647
 30
0.0
 40
0.7
100
AcDbArc
 50
180.0
 51
270.0
  0
ARC
  5
13D65
330
747D
100
AcDbEntity
  8
細線
 48
50.0
100
AcDbCircle
 10
4005.995515348529
 20
7689.927492243647
 30
0.0
 40
0.7
100
AcDbArc
 50
270.0
 51
0.0
  0
LINE
  5
13D66
330
747D
100
AcDbEntity
  8
細線
 48
50.0
100
AcDbLine
 10
4006.695515348526
 20
7689.927492243647
 30
0.0
 11
4006.695522173643
 21
7691.427507135135
 31
0.0
  0
LINE
  5
13D67
330
747D
100
AcDbEntity
  8
細線
 48
50.0
100
AcDbLine
 10
4001.395515348526
 20
7689.227492243647
 30
0.0
 11
4005.995515348529
 21
7689.227492243647
 31
0.0
  0
LINE
  5
13D68
330
747D
100
AcDbEntity
  8
細線
 48
50.0
100
AcDbLine
 10
4000.695515348525
 20
7691.427492243647
 30
0.0
 11
4000.695515348525
 21
7689.927492243647
 31
0.0
  0
LINE
  5
13D69
330
747D
100
AcDbEntity
  8
細線
 48
50.0
100
AcDbLine
 10
4626.295515348532
 20
7722.227492243646
 30
0.0
 11
3989.695515348526
 21
7722.227492243643
 31
0.0
  0
LINE
  5
13D6A
330
747D
100
AcDbEntity
  8
細線
 48
50.0
100
AcDbLine
 10
4652.195515348526
 20
7717.22749224365
 30
0.0
 11
4636.295515348531
 21
7717.227492243647
 31
0.0
  0
LINE
  5
13D6B
330
747D
100
AcDbEntity
  8
細線
 48
50.0
100
AcDbLine
 10
4636.295515348527
 20
7717.227492243647
 30
0.0
 11
4626.295515348532
 21
7722.227492243646
 31
0.0
  0
LINE
  5
13D6C
330
747D
100
AcDbEntity
  8
細線
100
AcDbLine
 10
4237.195515348527
 20
7692.227492243647
 30
0.0
 11
4237.195515348527
 21
7721.527492243646
 31
0.0
  0
LINE
  5
13D6D
330
747D
100
AcDbEntity
  8
細線
100
AcDbLine
 10
4237.195515348527
 20
7721.527492243646
 30
0.0
 11
4257.195515348526
 21
7721.527492243646
 31
0.0
  0
LINE
  5
13D6E
330
747D
100
AcDbEntity
  8
細線
100
AcDbLine
 10
4257.195515348526
 20
7692.227492243647
 30
0.0
 11
4257.195515348526
 21
7721.527492243646
 31
0.0
  0
LINE
  5
13D6F
330
747D
100
AcDbEntity
  8
細線
100
AcDbLine
 10
4418.445515348526
 20
7692.227492243647
 30
0.0
 11
4348.445515348527
 21
7692.227492243647
 31
0.0
  0
LINE
  5
13D70
330
747D
100
AcDbEntity
  8
細線
 48
50.0
100
AcDbLine
 10
4138.445515348526
 20
7692.227492243647
 30
0.0
 11
4007.491294921369
 21
7692.227492243647
 31
0.0
  0
LINE
  5
13D71
330
747D
100
AcDbEntity
  8
細線
100
AcDbLine
 10
4278.445515348527
 20
7692.227492243647
 30
0.0
 11
4208.445515348527
 21
7692.227492243647
 31
0.0
  0
LINE
  5
13D72
330
747D
100
AcDbEntity
  8
細線
 48
50.0
100
AcDbLine
 10
3994.695515348526
 20
7684.227492243646
 30
0.0
 11
3994.695515348526
 21
7692.227492243647
 31
0.0
  0
LINE
  5
13D73
330
747D
100
AcDbEntity
  8
細線
 48
50.0
100
AcDbLine
 10
3974.695515348526
 20
7684.22749224365
 30
0.0
 11
3994.695515348526
 21
7684.227492243646
 31
0.0
  0
LINE
  5
13D74
330
747D
100
AcDbEntity
  8
細線
 48
50.0
100
AcDbLine
 10
3989.695515348526
 20
7722.227492243646
 30
0.0
 11
3989.695515348526
 21
7717.227492243647
 31
0.0
  0
LINE
  5
13D75
330
747D
100
AcDbEntity
  8
細線
 48
50.0
100
AcDbLine
 10
3974.695515348526
 20
7722.227492243643
 30
0.0
 11
3989.695515348526
 21
7722.227492243646
 31
0.0
  0
LINE
  5
13D76
330
747D
100
AcDbEntity
  8
細線
 48
50.0
100
AcDbLine
 10
3974.695515348526
 20
7684.22749224365
 30
0.0
 11
3974.695515348526
 21
7722.227492243643
 31
0.0
  0
LINE
  5
13D77
330
747D
100
AcDbEntity
  8
細線
100
AcDbLine
 10
4642.695515348526
 20
7692.227492243647
 30
0.0
 11
4488.445515348526
 21
7692.227492243647
 31
0.0
  0
LINE
  5
13D78
330
747D
100
AcDbEntity
  8
細線
 48
50.0
100
AcDbLine
 10
4652.195515348526
 20
7717.22749224365
 30
0.0
 11
4652.195515348526
 21
7692.227492243647
 31
0.0
  0
DIMENSION
  5
13FF5
330
747D
100
AcDbEntity
  8
寸法
 48
50.0
100
AcDbDimension
  2
*D30
 10
4681.695515348526
 20
6660.270484734391
 30
0.0
 11
3581.817515997383
 21
6660.270484734391
 31
0.0
 70
   160
 71
     5
 42
2154.0
  3
INABA_S40G
100
AcDbAlignedDimension
 13
2527.695515348526
 23
7619.227492243647
 33
0.0
 14
4681.695515348526
 24
7619.227492243647
 34
0.0
100
AcDbRotatedDimension
1001
ACAD
1000
DSTYLE
1002
{
1070
   341
1005
0
1002
}
  0
DIMENSION
  5
13FF6
330
747D
100
AcDbEntity
  8
寸法
100
AcDbDimension
  2
*D31
 10
1328.376701444477
 20
7621.227492243622
 30
0.0
 11
1328.376701444476
 21
7480.742210869381
 31
0.0
 70
   160
 71
     5
 42
75.00000000002637
  3
INABA_S40
100
AcDbAlignedDimension
 13
1659.695515348526
 23
7696.227492243647
 33
0.0
 14
2527.695515348526
 24
7621.227492243621
 34
0.0
 50
90.0
100
AcDbRotatedDimension
1001
ACAD
1000
DSTYLE
1002
{
1070
    41
1040
0.5
1070
    44
1040
1.0
1070
   147
1040
0.8
1070
   271
1070
     2
1070
   272
1070
     2
1070
   289
1070
     3
1070
   340
1005
F706
1070
   343
1005
F744
1070
   344
1005
F744
1002
}
  0
LWPOLYLINE
  5
143C2
330
747D
100
AcDbEntity
  8
部品1
 48
50.0
100
AcDbPolyline
 90
        4
 70
     1
 43
0.0
 10
2626.745515348524
 20
3334.362805903258
 10
2629.645515348526
 20
3334.362805903258
 10
2629.645515348526
 20
3343.862805903258
 10
2626.745515348524
 20
3343.862805903258
  0
CIRCLE
  5
143C3
330
747D
100
AcDbEntity
  8
部品1
 48
50.0
100
AcDbCircle
 10
2628.195515348525
 20
3339.112805903258
 30
0.0
 40
9.0
  0
ARC
  5
143C4
330
747D
100
AcDbEntity
  8
細線
 48
50.0
100
AcDbCircle
 10
2628.195515348525
 20
3339.112805903258
 30
0.0
 40
4.0
100
AcDbArc
 50
111.2538091853375
 51
248.7461908146625
  0
ARC
  5
143C5
330
747D
100
AcDbEntity
  8
細線
 48
50.0
100
AcDbCircle
 10
2628.195515348525
 20
3339.112805903258
 30
0.0
 40
17.5
100
AcDbArc
 50
306.4837370612677
 51
233.5162629387323
  0
LINE
  5
143C6
330
747D
100
AcDbEntity
  8
細線
 48
50.0
100
AcDbLine
 10
2638.195515348522
 20
3315.253845322376
 30
0.0
 11
2638.195515348525
 21
3324.238331122617
 31
0.0
  0
LINE
  5
143C7
330
747D
100
AcDbEntity
  8
細線
 48
50.0
100
AcDbLine
 10
2618.195515348525
 20
3315.253845322377
 30
0.0
 11
2618.195515348525
 21
3324.238331122614
 31
0.0
  0
ARC
  5
143C8
330
747D
100
AcDbEntity
  8
細線
 48
50.0
100
AcDbCircle
 10
2628.195515348525
 20
3339.112805903258
 30
0.0
 40
26.5
100
AcDbArc
 50
249.3326835063939
 51
290.6673164933835
  0
ARC
  5
143C9
330
747D
100
AcDbEntity
  8
細線
 48
50.0
100
AcDbCircle
 10
2637.195515348518
 20
3315.253845322376
 30
0.0
 40
1.0
100
AcDbArc
 50
290.6673164936062
 51
359.9999999998958
  0
ARC
  5
143CA
330
747D
100
AcDbEntity
  8
細線
 48
50.0
100
AcDbCircle
 10
2619.195515348526
 20
3315.253845322377
 30
0.0
 40
1.0
100
AcDbArc
 50
180.0
 51
249.3326835066164
  0
ARC
  5
143CB
330
747D
100
AcDbEntity
  8
細線
 48
50.0
100
AcDbCircle
 10
2617.195515348525
 20
3324.238331122614
 30
0.0
 40
1.0
100
AcDbArc
 50
0.0
 51
53.51626293873231
  0
ARC
  5
143CC
330
747D
100
AcDbEntity
  8
細線
 48
50.0
100
AcDbCircle
 10
2639.195515348529
 20
3324.238331122617
 30
0.0
 40
1.0
100
AcDbArc
 50
126.4837370614917
 51
180.0
  0
ARC
  5
143CD
330
747D
100
AcDbEntity
  8
細線
 48
50.0
100
AcDbCircle
 10
2628.195515348525
 20
3339.112805903258
 30
0.0
 40
21.5
100
AcDbArc
 50
255.8014401250294
 51
284.1985598749706
  0
ARC
  5
143CE
330
747D
100
AcDbEntity
  8
細線
 48
50.0
100
AcDbCircle
 10
2628.195515348525
 20
3339.112805903258
 30
0.0
 40
16.5
100
AcDbArc
 50
251.9694646069326
 51
288.0305353930674
  0
LINE
  5
143CF
330
747D
100
AcDbEntity
  8
細線
 48
50.0
100
AcDbLine
 10
2633.695515348525
 20
3318.560433777451
 30
0.0
 11
2633.695515348525
 21
3323.137825464788
 31
0.0
  0
LINE
  5
143D0
330
747D
100
AcDbEntity
  8
細線
 48
50.0
100
AcDbLine
 10
2622.695515348525
 20
3318.560433777451
 30
0.0
 11
2622.695515348525
 21
3323.137825464787
 31
0.0
  0
ARC
  5
143D1
330
747D
100
AcDbEntity
  8
細線
 48
50.0
100
AcDbCircle
 10
2622.995515348528
 20
3323.137825464787
 30
0.0
 40
0.3
100
AcDbArc
 50
71.96946460693259
 51
180.0
  0
ARC
  5
143D2
330
747D
100
AcDbEntity
  8
細線
 48
50.0
100
AcDbCircle
 10
2633.395515348526
 20
3323.137825464788
 30
0.0
 40
0.3
100
AcDbArc
 50
0.0
 51
108.0305353930674
  0
ARC
  5
143D3
330
747D
100
AcDbEntity
  8
細線
 48
50.0
100
AcDbCircle
 10
2633.395515348522
 20
3318.560433777451
 30
0.0
 40
0.3
100
AcDbArc
 50
284.1985598747622
 51
0.0000000001042204
  0
ARC
  5
143D4
330
747D
100
AcDbEntity
  8
細線
 48
50.0
100
AcDbCircle
 10
2622.995515348528
 20
3318.560433777451
 30
0.0
 40
0.3
100
AcDbArc
 50
180.0
 51
255.8014401248081
  0
CIRCLE
  5
143D5
330
747D
100
AcDbEntity
  8
細線
 48
50.0
100
AcDbCircle
 10
2628.195515348525
 20
3339.112805903258
 30
0.0
 40
12.0
  0
ARC
  5
143D6
330
747D
100
AcDbEntity
  8
部品1
 48
50.0
100
AcDbCircle
 10
2628.195515348525
 20
3389.112805903258
 30
0.0
 40
8.5
100
AcDbArc
 50
114.315739171091
 51
245.684260828909
  0
CIRCLE
  5
143D7
330
747D
100
AcDbEntity
  8
細線
 48
50.0
100
AcDbCircle
 10
2628.195515348525
 20
3389.112805903258
 30
0.0
 40
4.5
  0
LWPOLYLINE
  5
143D8
330
747D
100
AcDbEntity
  8
部品1
 48
50.0
100
AcDbPolyline
 90
        2
 70
     0
 43
0.0
 10
2624.695515348526
 20
3407.787655300241
 10
2624.695515348526
 20
3396.858772595673
  0
CIRCLE
  5
143D9
330
747D
100
AcDbEntity
  8
部品1
 48
50.0
100
AcDbCircle
 10
2628.195515348525
 20
3389.112805903258
 30
0.0
 40
19.0
  0
LWPOLYLINE
  5
143DA
330
747D
100
AcDbEntity
  8
部品1
 48
50.0
100
AcDbPolyline
 90
        2
 70
     0
 43
0.0
 10
2624.695515348526
 20
3381.366839210843
 10
2624.695515348526
 20
3370.437956506275
  0
LWPOLYLINE
  5
143DB
330
747D
100
AcDbEntity
  8
部品1
 48
50.0
100
AcDbPolyline
 90
        2
 70
     0
 43
0.0
 10
2631.695515348525
 20
3396.858772595673
 10
2631.695515348525
 20
3407.787655300241
  0
ARC
  5
143DC
330
747D
100
AcDbEntity
  8
部品1
 48
50.0
100
AcDbCircle
 10
2628.195515348525
 20
3389.112805903258
 30
0.0
 40
8.5
100
AcDbArc
 50
294.315739171091
 51
65.68426082890896
  0
LWPOLYLINE
  5
143DD
330
747D
100
AcDbEntity
  8
部品1
 48
50.0
100
AcDbPolyline
 90
        2
 70
     0
 43
0.0
 10
2631.695515348525
 20
3370.437956506275
 10
2631.695515348525
 20
3381.366839210843
  0
ARC
  5
143DE
330
747D
100
AcDbEntity
  8
細線
 48
50.0
100
AcDbCircle
 10
2628.195515348525
 20
3389.112805903258
 30
0.0
 40
16.5
100
AcDbArc
 50
332.0012352654316
 51
27.99876473456844
  0
ARC
  5
143DF
330
747D
100
AcDbEntity
  8
細線
 48
50.0
100
AcDbCircle
 10
2628.195515348525
 20
3389.112805903258
 30
0.0
 40
14.0
100
AcDbArc
 50
326.4074436112843
 51
33.59255638871576
  0
LINE
  5
143E0
330
747D
100
AcDbEntity
  8
細線
 48
50.0
100
AcDbLine
 10
2613.626713064194
 20
3396.858772595673
 30
0.0
 11
2616.533611558836
 21
3396.858772595673
 31
0.0
  0
LINE
  5
143E1
330
747D
100
AcDbEntity
  8
細線
 48
50.0
100
AcDbLine
 10
2613.626713064194
 20
3381.366839210843
 30
0.0
 11
2616.533611558836
 21
3381.366839210843
 31
0.0
  0
LINE
  5
143E2
330
747D
100
AcDbEntity
  8
細線
 48
50.0
100
AcDbLine
 10
2639.857419138214
 20
3396.858772595673
 30
0.0
 11
2642.76431763286
 21
3396.858772595673
 31
0.0
  0
LINE
  5
143E3
330
747D
100
AcDbEntity
  8
細線
 48
50.0
100
AcDbLine
 10
2639.857419138214
 20
3381.366839210843
 30
0.0
 11
2642.76431763286
 21
3381.366839210843
 31
0.0
  0
ARC
  5
143E4
330
747D
100
AcDbEntity
  8
細線
 48
50.0
100
AcDbCircle
 10
2628.195515348525
 20
3389.112805903258
 30
0.0
 40
14.0
100
AcDbArc
 50
146.4074436112842
 51
213.5925563887158
  0
ARC
  5
143E5
330
747D
100
AcDbEntity
  8
細線
 48
50.0
100
AcDbCircle
 10
2628.195515348525
 20
3389.112805903258
 30
0.0
 40
16.5
100
AcDbArc
 50
152.0012352654315
 51
207.9987647345685
  0
ARC
  5
143E6
330
747D
100
AcDbEntity
  8
部品1
 48
50.0
100
AcDbCircle
 10
2601.695515348525
 20
3414.612805903259
 30
0.0
 40
5.0
100
AcDbArc
 50
90.0
 51
180.0
  0
ARC
  5
143E7
330
747D
100
AcDbEntity
  8
部品1
 48
50.0
100
AcDbCircle
 10
2601.695515348525
 20
3303.612805903258
 30
0.0
 40
5.0
100
AcDbArc
 50
180.0
 51
270.0
  0
ARC
  5
143E8
330
747D
100
AcDbEntity
  8
部品1
 48
50.0
100
AcDbCircle
 10
2654.695515348525
 20
3303.612805903258
 30
0.0
 40
5.0
100
AcDbArc
 50
270.0
 51
0.0
  0
ARC
  5
143E9
330
747D
100
AcDbEntity
  8
部品1
 48
50.0
100
AcDbCircle
 10
2654.695515348525
 20
3414.612805903259
 30
0.0
 40
5.0
100
AcDbArc
 50
0.0
 51
90.0
  0
LINE
  5
143EA
330
747D
100
AcDbEntity
  8
部品1
 48
50.0
100
AcDbLine
 10
2596.695515348525
 20
3303.612805903258
 30
0.0
 11
2596.695515348525
 21
3414.612805903259
 31
0.0
  0
LINE
  5
143EB
330
747D
100
AcDbEntity
  8
部品1
 48
50.0
100
AcDbLine
 10
2654.695515348525
 20
3298.612805903258
 30
0.0
 11
2601.695515348525
 21
3298.612805903258
 31
0.0
  0
LINE
  5
143EC
330
747D
100
AcDbEntity
  8
部品1
 48
50.0
100
AcDbLine
 10
2659.695515348525
 20
3414.612805903259
 30
0.0
 11
2659.695515348525
 21
3303.612805903258
 31
0.0
  0
ENDSEC
  0
SECTION
  2
OBJECTS
  0
DICTIONARY
  5
7471
330
0
100
AcDbDictionary
281
     1
  3
ACAD_COLOR
350
12CA9
  3
ACAD_GROUP
350
7472
  3
ACAD_LAYOUT
350
12CAA
  3
ACAD_MATERIAL
350
12CA8
  3
ACAD_MLINESTYLE
350
7473
  3
ACAD_PLOTSETTINGS
350
12CAB
  3
ACAD_PLOTSTYLENAME
350
12CA6
  3
ACDBHEADERROUNDTRIPXREC
350
143FC
  3
AcDbVariableDictionary
350
143F8
  3
CONTENTDICTIONARY
350
E71C
  3
DRAWINGVARIABLESDICT
350
F3B9
  0
DICTIONARY
  5
12E25
330
7467
100
AcDbDictionary
280
     1
281
     1
  3
ACAD_LAYERSTATES
360
12E26
  0
DICTIONARY
  5
12CA9
102
{ACAD_REACTORS
330
7471
102
}
330
7471
100
AcDbDictionary
281
     1
  0
DICTIONARY
  5
7472
102
{ACAD_REACTORS
330
7471
102
}
330
7471
100
AcDbDictionary
281
     1
  0
DICTIONARY
  5
12CAA
102
{ACAD_REACTORS
330
7471
102
}
330
7471
100
AcDbDictionary
281
     1
  3
Model
350
12CAC
  3
レイアウト1
350
12CAD
  0
DICTIONARY
  5
12CA8
102
{ACAD_REACTORS
330
7471
102
}
330
7471
100
AcDbDictionary
281
     1
  0
DICTIONARY
  5
7473
102
{ACAD_REACTORS
330
7471
102
}
330
7471
100
AcDbDictionary
281
     1
  3
STANDARD
350
7480
  0
DICTIONARY
  5
12CAB
102
{ACAD_REACTORS
330
7471
102
}
330
7471
100
AcDbDictionary
281
     1
  0
ACDBDICTIONARYWDFLT
  5
12CA6
102
{ACAD_REACTORS
330
7471
102
}
330
7471
100
AcDbDictionary
281
     1
  3
Normal
350
12CA7
100
AcDbDictionaryWithDefault
340
12CA7
  0
DICTIONARY
  5
143FC
102
{ACAD_REACTORS
330
7471
102
}
330
7471
100
AcDbDictionary
281
     1
  3
COLORDICT
350
143FE
  3
MATERIALDICT
350
143FD
  0
DICTIONARY
  5
143F8
102
{ACAD_REACTORS
330
7471
102
}
330
7471
100
AcDbDictionary
281
     1
  3
DIMASSOC
350
143F9
  3
PROJECTNAME
350
143FA
  0
DICTIONARY
  5
E71C
102
{ACAD_REACTORS
330
7471
102
}
330
7471
100
AcDbDictionary
281
     1
  0
DICTIONARY
  5
F3B9
102
{ACAD_REACTORS
330
7471
102
}
330
7471
100
AcDbDictionary
281
     1
1001
DRAWINGVARIABLESXDATA
1000
POLARMODE
1000
1
  0
DICTIONARY
  5
12E26
102
{ACAD_REACTORS
330
12E25
102
}
330
12E25
100
AcDbDictionary
281
     1
  0
LAYOUT
  5
12CAC
102
{ACAD_XDICTIONARY
360
143FF
102
}
102
{ACAD_REACTORS
330
12CAA
102
}
330
12CAA
100
AcDbPlotSettings
  1

  2
EPSON LP-7000C
  4

  6

 40
0.0
 41
0.0
 42
0.0
 43
0.0
 44
0.0
 45
0.0
 46
0.0
 47
0.0
 48
0.0
 49
0.0
140
0.0
141
0.0
142
1.0
143
1.0
 70
  1712
 72
     0
 73
     0
 74
     0
  7

 75
     0
147
1.0
148
0.0
149
0.0
100
AcDbLayout
  1
Model
 70
     1
 71
     0
 10
0.0
 20
0.0
 11
12.0
 21
9.0
 12
0.0
 22
0.0
 32
0.0
 14
0.0
 24
0.0
 34
0.0
 15
0.0
 25
0.0
 35
0.0
146
0.0
 13
0.0
 23
0.0
 33
0.0
 16
1.0
 26
0.0
 36
0.0
 17
0.0
 27
1.0
 37
0.0
 76
     0
330
747D
  0
LAYOUT
  5
12CAD
102
{ACAD_XDICTIONARY
360
14401
102
}
102
{ACAD_REACTORS
330
12CAA
102
}
330
12CAA
100
AcDbPlotSettings
  1

  2
EPSON LP-7000C
  4

  6

 40
0.0
 41
0.0
 42
0.0
 43
0.0
 44
0.0
 45
0.0
 46
0.0
 47
0.0
 48
0.0
 49
0.0
140
0.0
141
0.0
142
1.0
143
1.0
 70
   688
 72
     0
 73
     0
 74
     5
  7

 75
    16
147
1.0
148
0.0
149
0.0
100
AcDbLayout
  1
レイアウト1
 70
     0
 71
     1
 10
0.0
 20
0.0
 11
420.0
 21
297.0
 12
0.0
 22
0.0
 32
0.0
 14
1.000000000000000E+20
 24
1.000000000000000E+20
 34
1.000000000000000E+20
 15
-1.000000000000000E+20
 25
-1.000000000000000E+20
 35
-1.000000000000000E+20
146
0.0
 13
0.0
 23
0.0
 33
0.0
 16
1.0
 26
0.0
 36
0.0
 17
0.0
 27
1.0
 37
0.0
 76
     0
330
747A
  0
MLINESTYLE
  5
7480
102
{ACAD_REACTORS
330
7473
102
}
330
7473
100
AcDbMlineStyle
  2
STANDARD
 70
     0
  3

 62
     0
 51
90.0
 52
90.0
 71
     2
 49
0.5
 62
   256
  6
BYLAYER
 49
-0.5
 62
   256
  6
BYLAYER
  0
ACDBPLACEHOLDER
  5
12CA7
102
{ACAD_REACTORS
330
12CA6
102
}
330
12CA6
  0
XRECORD
  5
143FE
102
{ACAD_REACTORS
330
143FC
102
}
330
143FC
100
AcDbXrecord
280
     1
340
12CA9
  0
XRECORD
  5
143FD
102
{ACAD_REACTORS
330
143FC
102
}
330
143FC
100
AcDbXrecord
280
     1
340
12CA8
  0
DICTIONARYVAR
  5
143F9
102
{ACAD_REACTORS
330
143F8
102
}
330
143F8
100
DictionaryVariables
280
     0
  1
1
  0
DICTIONARYVAR
  5
143FA
102
{ACAD_REACTORS
330
143F8
102
}
330
143F8
100
DictionaryVariables
280
     0
  1

  0
DICTIONARY
  5
143FF
330
12CAC
100
AcDbDictionary
280
     1
281
     1
  3
ACAD_XREC_ROUNDTRIP
360
14400
  0
DICTIONARY
  5
14401
330
12CAD
100
AcDbDictionary
280
     1
281
     1
  3
ACAD_XREC_ROUNDTRIP
360
14402
  0
XRECORD
  5
14400
102
{ACAD_REACTORS
330
143FF
102
}
330
143FF
100
AcDbXrecord
280
     1
102
SHADEPLOT
 70
     0
102
SHADEPLOTRESLEVEL
 70
     2
102
SHADEPLOTCUSTOMDPI
 70
   300
  0
XRECORD
  5
14402
102
{ACAD_REACTORS
330
14401
102
}
330
14401
100
AcDbXrecord
280
     1
102
SHADEPLOT
 70
     0
102
SHADEPLOTRESLEVEL
 70
     2
102
SHADEPLOTCUSTOMDPI
 70
   300
  0
ENDSEC
  0
EOF
