  0
SECTION
  2
HEADER
  9
$ACADVER
  1
AC1015
  9
$ACADMAINTVER
 70
    20
  9
$DWGCODEPAGE
  3
ANSI_932
  9
$INSBASE
 10
0.0
 20
0.0
 30
0.0
  9
$EXTMIN
 10
69.8181344077675
 20
-0.1980529461779952
 30
-0.0000000000000153
  9
$EXTMAX
 10
8153.955097163509
 20
5704.977071337551
 30
0.0
  9
$LIMMIN
 10
0.0
 20
0.0
  9
$LIMMAX
 10
8200.0
 20
5940.0
  9
$ORTHOMODE
 70
     0
  9
$REGENMODE
 70
     1
  9
$FILLMODE
 70
     1
  9
$QTEXTMODE
 70
     0
  9
$MIRRTEXT
 70
     1
  9
$LTSCALE
 40
20.0
  9
$ATTMODE
 70
     1
  9
$TEXTSIZE
 40
40.0
  9
$TRACEWID
 40
1.0
  9
$TEXTSTYLE
  7
STYLE1
  9
$CLAYER
  8
寸法
  9
$CELTYPE
  6
BYLAYER
  9
$CECOLOR
 62
   256
  9
$CELTSCALE
 40
50.0
  9
$DISPSILH
 70
     0
  9
$DIMSCALE
 40
20.0
  9
$DIMASZ
 40
2.5
  9
$DIMEXO
 40
0.5
  9
$DIMDLI
 40
7.0
  9
$DIMRND
 40
0.0
  9
$DIMDLE
 40
0.0
  9
$DIMEXE
 40
1.5
  9
$DIMTP
 40
0.0
  9
$DIMTM
 40
0.0
  9
$DIMTXT
 40
3.0
  9
$DIMCEN
 40
0.0
  9
$DIMTSZ
 40
0.0
  9
$DIMTOL
 70
     0
  9
$DIMLIM
 70
     0
  9
$DIMTIH
 70
     0
  9
$DIMTOH
 70
     0
  9
$DIMSE1
 70
     0
  9
$DIMSE2
 70
     0
  9
$DIMTAD
 70
     3
  9
$DIMZIN
 70
     8
  9
$DIMBLK
  1

  9
$DIMASO
 70
     1
  9
$DIMSHO
 70
     1
  9
$DIMPOST
  1

  9
$DIMAPOST
  1

  9
$DIMALT
 70
     0
  9
$DIMALTD
 70
     2
  9
$DIMALTF
 40
0.0394
  9
$DIMLFAC
 40
1.0
  9
$DIMTOFL
 70
     1
  9
$DIMTVP
 40
0.0
  9
$DIMTIX
 70
     1
  9
$DIMSOXD
 70
     0
  9
$DIMSAH
 70
     1
  9
$DIMBLK1
  1
DOTSMALL
  9
$DIMBLK2
  1
DOTSMALL
  9
$DIMSTYLE
  2
INABA_S20G
  9
$DIMCLRD
 70
     0
  9
$DIMCLRE
 70
     0
  9
$DIMCLRT
 70
     7
  9
$DIMTFAC
 40
1.0
  9
$DIMGAP
 40
1.0
  9
$DIMJUST
 70
     0
  9
$DIMSD1
 70
     0
  9
$DIMSD2
 70
     0
  9
$DIMTOLJ
 70
     1
  9
$DIMTZIN
 70
     8
  9
$DIMALTZ
 70
     0
  9
$DIMALTTZ
 70
     0
  9
$DIMUPT
 70
     0
  9
$DIMDEC
 70
     1
  9
$DIMTDEC
 70
     2
  9
$DIMALTU
 70
     2
  9
$DIMALTTD
 70
     2
  9
$DIMTXSTY
  7
STYLE1
  9
$DIMAUNIT
 70
     0
  9
$DIMADEC
 70
     0
  9
$DIMALTRND
 40
0.0
  9
$DIMAZIN
 70
     0
  9
$DIMDSEP
 70
    46
  9
$DIMATFIT
 70
     3
  9
$DIMFRAC
 70
     0
  9
$DIMLDRBLK
  1

  9
$DIMLUNIT
 70
     2
  9
$DIMLWD
 70
    -2
  9
$DIMLWE
 70
    -2
  9
$DIMTMOVE
 70
     0
  9
$LUNITS
 70
     2
  9
$LUPREC
 70
     1
  9
$SKETCHINC
 40
1.0
  9
$FILLETRAD
 40
10.0
  9
$AUNITS
 70
     0
  9
$AUPREC
 70
     0
  9
$MENU
  1
acad
  9
$ELEVATION
 40
0.0
  9
$PELEVATION
 40
0.0
  9
$THICKNESS
 40
0.0
  9
$LIMCHECK
 70
     0
  9
$CHAMFERA
 40
0.0
  9
$CHAMFERB
 40
0.0
  9
$CHAMFERC
 40
0.0
  9
$CHAMFERD
 40
0.0
  9
$SKPOLY
 70
     0
  9
$TDCREATE
 40
2451557.399918519
  9
$TDUCREATE
 40
2451557.024918519
  9
$TDUPDATE
 40
2454572.686179005
  9
$TDUUPDATE
 40
2454572.311179005
  9
$TDINDWG
 40
0.9835969676
  9
$TDUSRTIMER
 40
0.9835969676
  9
$USRTIMER
 70
     1
  9
$ANGBASE
 50
0.0
  9
$ANGDIR
 70
     0
  9
$PDMODE
 70
     3
  9
$PDSIZE
 40
2.0
  9
$PLINEWID
 40
0.0
  9
$SPLFRAME
 70
     0
  9
$SPLINETYPE
 70
     6
  9
$SPLINESEGS
 70
     8
  9
$HANDSEED
  5
173F7
  9
$SURFTAB1
 70
     6
  9
$SURFTAB2
 70
     6
  9
$SURFTYPE
 70
     6
  9
$SURFU
 70
     6
  9
$SURFV
 70
     6
  9
$UCSBASE
  2

  9
$UCSNAME
  2

  9
$UCSORG
 10
0.0
 20
0.0
 30
0.0
  9
$UCSXDIR
 10
1.0
 20
0.0
 30
0.0
  9
$UCSYDIR
 10
0.0
 20
1.0
 30
0.0
  9
$UCSORTHOREF
  2

  9
$UCSORTHOVIEW
 70
     0
  9
$UCSORGTOP
 10
0.0
 20
0.0
 30
0.0
  9
$UCSORGBOTTOM
 10
0.0
 20
0.0
 30
0.0
  9
$UCSORGLEFT
 10
0.0
 20
0.0
 30
0.0
  9
$UCSORGRIGHT
 10
0.0
 20
0.0
 30
0.0
  9
$UCSORGFRONT
 10
0.0
 20
0.0
 30
0.0
  9
$UCSORGBACK
 10
0.0
 20
0.0
 30
0.0
  9
$PUCSBASE
  2

  9
$PUCSNAME
  2

  9
$PUCSORG
 10
0.0
 20
0.0
 30
0.0
  9
$PUCSXDIR
 10
1.0
 20
0.0
 30
0.0
  9
$PUCSYDIR
 10
0.0
 20
1.0
 30
0.0
  9
$PUCSORTHOREF
  2

  9
$PUCSORTHOVIEW
 70
     0
  9
$PUCSORGTOP
 10
0.0
 20
0.0
 30
0.0
  9
$PUCSORGBOTTOM
 10
0.0
 20
0.0
 30
0.0
  9
$PUCSORGLEFT
 10
0.0
 20
0.0
 30
0.0
  9
$PUCSORGRIGHT
 10
0.0
 20
0.0
 30
0.0
  9
$PUCSORGFRONT
 10
0.0
 20
0.0
 30
0.0
  9
$PUCSORGBACK
 10
0.0
 20
0.0
 30
0.0
  9
$USERI1
 70
     0
  9
$USERI2
 70
     0
  9
$USERI3
 70
     0
  9
$USERI4
 70
     0
  9
$USERI5
 70
     0
  9
$USERR1
 40
0.0
  9
$USERR2
 40
0.0
  9
$USERR3
 40
0.0
  9
$USERR4
 40
0.0
  9
$USERR5
 40
0.0
  9
$WORLDVIEW
 70
     1
  9
$SHADEDGE
 70
     3
  9
$SHADEDIF
 70
    70
  9
$TILEMODE
 70
     1
  9
$MAXACTVP
 70
    16
  9
$PINSBASE
 10
0.0
 20
0.0
 30
0.0
  9
$PLIMCHECK
 70
     0
  9
$PEXTMIN
 10
1.000000000000000E+20
 20
1.000000000000000E+20
 30
1.000000000000000E+20
  9
$PEXTMAX
 10
-1.000000000000000E+20
 20
-1.000000000000000E+20
 30
-1.000000000000000E+20
  9
$PLIMMIN
 10
0.0
 20
0.0
  9
$PLIMMAX
 10
420.0
 20
297.0
  9
$UNITMODE
 70
     0
  9
$VISRETAIN
 70
     0
  9
$PLINEGEN
 70
     0
  9
$PSLTSCALE
 70
     0
  9
$TREEDEPTH
 70
  3020
  9
$CMLSTYLE
  2
STANDARD
  9
$CMLJUST
 70
     0
  9
$CMLSCALE
 40
1.0
  9
$PROXYGRAPHICS
 70
     1
  9
$MEASUREMENT
 70
     1
  9
$CELWEIGHT
370
    -1
  9
$ENDCAPS
280
     0
  9
$JOINSTYLE
280
     0
  9
$LWDISPLAY
290
     0
  9
$INSUNITS
 70
     0
  9
$HYPERLINKBASE
  1

  9
$STYLESHEET
  1

  9
$XEDIT
290
     1
  9
$CEPSNTYPE
380
     0
  9
$PSTYLEMODE
290
     1
  9
$FINGERPRINTGUID
  2
{DC0CE358-DFB3-4420-86DC-11C8643094F6}
  9
$VERSIONGUID
  2
{E4EE590D-744E-4F29-AF03-46F144B787B6}
  9
$EXTNAMES
290
     1
  9
$PSVPSCALE
 40
0.0
  9
$OLESTARTUP
290
     0
  0
ENDSEC
  0
SECTION
  2
CLASSES
  0
CLASS
  1
ACDBDICTIONARYWDFLT
  2
AcDbDictionaryWithDefault
  3
ObjectDBX Classes
 90
        0
280
     0
281
     0
  0
CLASS
  1
DICTIONARYVAR
  2
AcDbDictionaryVar
  3
ObjectDBX Classes
 90
        0
280
     0
281
     0
  0
CLASS
  1
ACDBPLACEHOLDER
  2
AcDbPlaceHolder
  3
ObjectDBX Classes
 90
        0
280
     0
281
     0
  0
CLASS
  1
LAYOUT
  2
AcDbLayout
  3
ObjectDBX Classes
 90
        0
280
     0
281
     0
  0
ENDSEC
  0
SECTION
  2
TABLES
  0
TABLE
  2
VPORT
  5
746D
330
0
100
AcDbSymbolTable
 70
     2
  0
VPORT
  5
173EF
330
746D
100
AcDbSymbolTableRecord
100
AcDbViewportTableRecord
  2
*Active
 70
     0
 10
0.0
 20
0.0
 11
1.0
 21
1.0
 12
4111.886615785637
 22
2852.389509195687
 13
0.0
 23
0.0
 14
10.0
 24
10.0
 15
10.0
 25
10.0
 16
0.0
 26
0.0
 36
1.0
 17
0.0
 27
0.0
 37
0.0
 40
5747.279737747078
 41
1.549261083743842
 42
50.0
 43
0.0
 44
0.0
 50
0.0
 51
0.0
 71
     0
 72
     0
 73
     1
 74
     0
 75
     0
 76
     0
 77
     0
 78
     0
281
     0
 65
     1
110
0.0
120
0.0
130
0.0
111
1.0
121
0.0
131
0.0
112
0.0
122
1.0
132
0.0
 79
     0
146
0.0
  0
ENDTAB
  0
TABLE
  2
LTYPE
  5
746A
330
0
100
AcDbSymbolTable
 70
     4
  0
LTYPE
  5
7477
330
746A
100
AcDbSymbolTableRecord
100
AcDbLinetypeTableRecord
  2
BYBLOCK
 70
     0
  3

 72
    65
 73
     0
 40
0.0
  0
LTYPE
  5
7478
330
746A
100
AcDbSymbolTableRecord
100
AcDbLinetypeTableRecord
  2
BYLAYER
 70
     0
  3

 72
    65
 73
     0
 40
0.0
  0
LTYPE
  5
7479
330
746A
100
AcDbSymbolTableRecord
100
AcDbLinetypeTableRecord
  2
CONTINUOUS
 70
     0
  3
Solid line
 72
    65
 73
     0
 40
0.0
  0
LTYPE
  5
7816
330
746A
100
AcDbSymbolTableRecord
100
AcDbLinetypeTableRecord
  2
CENTER
 70
     0
  3
____ _ ____ _ ____ _ ____ _ ____ _ ____ _ ____ 
 72
    65
 73
     4
 40
2.0
 49
1.25
 74
     0
 49
-0.25
 74
     0
 49
0.25
 74
     0
 49
-0.25
 74
     0
  0
LTYPE
  5
781A
330
746A
100
AcDbSymbolTableRecord
100
AcDbLinetypeTableRecord
  2
HIDDEN
 70
     0
  3
__ __ __ __ __ __ __ __ __ __ __ __ __ __ __ __
 72
    65
 73
     2
 40
0.375
 49
0.25
 74
     0
 49
-0.125
 74
     0
  0
LTYPE
  5
781B
330
746A
100
AcDbSymbolTableRecord
100
AcDbLinetypeTableRecord
  2
PHANTOM
 70
     0
  3
______  __  __  ______  __  __  ______  __  __ 
 72
    65
 73
     6
 40
2.5
 49
1.25
 74
     0
 49
-0.25
 74
     0
 49
0.25
 74
     0
 49
-0.25
 74
     0
 49
0.25
 74
     0
 49
-0.25
 74
     0
  0
ENDTAB
  0
TABLE
  2
LAYER
  5
7467
330
0
100
AcDbSymbolTable
 70
    12
  0
LAYER
  5
7474
330
7467
100
AcDbSymbolTableRecord
100
AcDbLayerTableRecord
  2
0
 70
     0
 62
     7
  6
CONTINUOUS
370
    -3
390
173DF
  0
LAYER
  5
DEB2
330
7467
100
AcDbSymbolTableRecord
100
AcDbLayerTableRecord
  2
センター
 70
     0
 62
     3
  6
CENTER
370
    -3
390
173DF
  0
LAYER
  5
DEB3
330
7467
100
AcDbSymbolTableRecord
100
AcDbLayerTableRecord
  2
寸法
 70
     0
 62
     4
  6
CONTINUOUS
370
    -3
390
173DF
  0
LAYER
  5
DEB4
330
7467
100
AcDbSymbolTableRecord
100
AcDbLayerTableRecord
  2
部品1
 70
     0
 62
     7
  6
CONTINUOUS
370
    -3
390
173DF
  0
LAYER
  5
DEB5
330
7467
100
AcDbSymbolTableRecord
100
AcDbLayerTableRecord
  2
補助
 70
     0
 62
    -1
  6
CONTINUOUS
370
    -3
390
173DF
  0
LAYER
  5
DEB6
330
7467
100
AcDbSymbolTableRecord
100
AcDbLayerTableRecord
  2
文字
 70
     0
 62
     7
  6
CONTINUOUS
370
    -3
390
173DF
  0
LAYER
  5
F255
330
7467
100
AcDbSymbolTableRecord
100
AcDbLayerTableRecord
  2
DEFPOINTS
 70
     0
 62
     7
  6
CONTINUOUS
290
     0
370
    -3
390
173DF
  0
LAYER
  5
10B54
330
7467
100
AcDbSymbolTableRecord
100
AcDbLayerTableRecord
  2
仕様書枠
 70
     0
 62
   230
  6
CONTINUOUS
370
    -3
390
173DF
  0
LAYER
  5
11729
330
7467
100
AcDbSymbolTableRecord
100
AcDbLayerTableRecord
  2
Ｇ．Ｌ
 70
     0
 62
    30
  6
CONTINUOUS
370
    -3
390
173DF
  0
LAYER
  5
1173F
330
7467
100
AcDbSymbolTableRecord
100
AcDbLayerTableRecord
  2
細線
 70
     0
 62
     5
  6
CONTINUOUS
370
    -3
390
173DF
  0
LAYER
  5
11740
330
7467
100
AcDbSymbolTableRecord
100
AcDbLayerTableRecord
  2
点線
 70
     0
 62
     2
  6
HIDDEN
370
    -3
390
173DF
  0
LAYER
  5
12229
330
7467
100
AcDbSymbolTableRecord
100
AcDbLayerTableRecord
  2
想像線
 70
     0
 62
     6
  6
PHANTOM
370
    -3
390
173DF
  0
ENDTAB
  0
TABLE
  2
STYLE
  5
7468
330
0
100
AcDbSymbolTable
 70
     3
  0
STYLE
  5
7475
330
7468
100
AcDbSymbolTableRecord
100
AcDbTextStyleTableRecord
  2
STANDARD
 70
     0
 40
0.0
 41
1.0
 50
0.0
 71
     0
 42
4.0
  3
txt
  4
C:\AutoCAD LT\bigfont.shx
  0
STYLE
  5
F706
330
7468
100
AcDbSymbolTableRecord
100
AcDbTextStyleTableRecord
  2
STYLE1
 70
     0
 40
0.0
 41
1.0
 50
0.0
 71
     0
 42
40.0
  3
isocp.shx
  4
bigfont.shx
  0
STYLE
  5
103BF
330
7468
100
AcDbSymbolTableRecord
100
AcDbTextStyleTableRecord
  2
STYLE2
 70
     0
 40
0.0
 41
1.0
 50
0.0
 71
     0
 42
100.0
  3
MS PGothic.ttf
  4

1001
ACAD
1000
MS PGothic
1071
    32818
  0
ENDTAB
  0
TABLE
  2
VIEW
  5
746B
330
0
100
AcDbSymbolTable
 70
     0
  0
ENDTAB
  0
TABLE
  2
UCS
  5
746C
330
0
100
AcDbSymbolTable
 70
     0
  0
ENDTAB
  0
TABLE
  2
APPID
  5
746E
330
0
100
AcDbSymbolTable
 70
     6
  0
APPID
  5
7476
330
746E
100
AcDbSymbolTableRecord
100
AcDbRegAppTableRecord
  2
ACAD
 70
     0
  0
APPID
  5
DEA9
330
746E
100
AcDbSymbolTableRecord
100
AcDbRegAppTableRecord
  2
CONTENTBLOCKICON
 70
     0
  0
APPID
  5
DEAA
330
746E
100
AcDbSymbolTableRecord
100
AcDbRegAppTableRecord
  2
CONTENTBLOCKDESCRIPTION
 70
     0
  0
APPID
  5
E71D
330
746E
100
AcDbSymbolTableRecord
100
AcDbRegAppTableRecord
  2
CONTENTTABDATA
 70
     0
  0
APPID
  5
E71E
330
746E
100
AcDbSymbolTableRecord
100
AcDbRegAppTableRecord
  2
CONTENTCURRENTTAB
 70
     0
  0
APPID
  5
F3BA
330
746E
100
AcDbSymbolTableRecord
100
AcDbRegAppTableRecord
  2
DRAWINGVARIABLESXDATA
 70
     0
  0
ENDTAB
  0
TABLE
  2
DIMSTYLE
  5
746F
330
0
100
AcDbSymbolTable
 70
     2
100
AcDbDimStyleTable
 71
     0
  0
DIMSTYLE
105
7484
330
746F
100
AcDbSymbolTableRecord
100
AcDbDimStyleTableRecord
  2
JIS
 70
     0
 41
2.5
 42
1.0
 43
7.0
 44
1.0
 73
     0
 74
     0
 77
     1
 78
     8
140
2.5
141
0.0
143
0.0394
147
0.0
172
     1
174
     1
175
     1
340
7475
  0
DIMSTYLE
105
F71F
102
{ACAD_REACTORS
330
14B3D
330
14BA2
330
14A55
330
14A4A
330
14AE1
330
14B60
330
14B49
330
14B6A
330
14B3A
330
14BB3
330
14B3B
330
16ED4
330
16ED5
330
16ED6
330
16ED7
330
16ED8
330
16ED9
330
16EDA
330
16EDB
330
16EDC
330
16EE0
330
16EE1
330
16EE2
330
16EE3
330
16EFA
330
16F17
330
14A49
102
}
330
746F
100
AcDbSymbolTableRecord
100
AcDbDimStyleTableRecord
  2
INABA_S20G
 70
     0
 40
20.0
 41
2.5
 42
0.5
 43
7.0
 44
1.5
 73
     0
 74
     0
 77
     3
 78
     8
140
3.0
141
0.0
143
0.0394
147
1.0
172
     1
173
     1
174
     1
178
     7
271
     1
272
     2
284
     8
340
F706
341
F770
343
F770
344
F770
  0
ENDTAB
  0
TABLE
  2
BLOCK_RECORD
  5
7466
330
0
100
AcDbSymbolTable
 70
    28
  0
BLOCK_RECORD
  5
747D
330
7466
100
AcDbSymbolTableRecord
100
AcDbBlockTableRecord
  2
*MODEL_SPACE
340
173E4
  0
BLOCK_RECORD
  5
747A
330
7466
100
AcDbSymbolTableRecord
100
AcDbBlockTableRecord
  2
*PAPER_SPACE
340
173E5
  0
BLOCK_RECORD
  5
F770
330
7466
100
AcDbSymbolTableRecord
100
AcDbBlockTableRecord
  2
_DOTSMALL
340
0
102
{BLKREFS
331
14E59
331
14E5A
331
17221
331
17222
331
15AA7
331
15AA8
331
15ACB
331
15ACC
331
15AD8
331
15AD9
331
15AE3
331
15AE4
331
14E0C
331
14E0D
331
14E4E
331
14E4F
331
14D9E
331
14D9F
331
1726C
331
1726D
331
17216
331
17217
331
16C4A
331
16C4B
331
17237
331
17238
331
170FA
331
170FB
331
17243
331
17244
331
17111
331
17112
331
1711C
331
1711D
331
17129
331
1712A
331
17134
331
17135
331
1713F
331
17140
331
1714A
331
1714B
331
17155
331
17156
331
17160
331
17161
331
1716A
331
1716B
331
17179
331
1717A
331
17182
331
17183
331
1718F
331
17190
102
}
  0
BLOCK_RECORD
  5
14BD2
330
7466
100
AcDbSymbolTableRecord
100
AcDbBlockTableRecord
  2
*D1
340
0
  0
BLOCK_RECORD
  5
14BDE
330
7466
100
AcDbSymbolTableRecord
100
AcDbBlockTableRecord
  2
*D2
340
0
  0
BLOCK_RECORD
  5
14BEA
330
7466
100
AcDbSymbolTableRecord
100
AcDbBlockTableRecord
  2
*D3
340
0
  0
BLOCK_RECORD
  5
14BF8
330
7466
100
AcDbSymbolTableRecord
100
AcDbBlockTableRecord
  2
*D4
340
0
  0
BLOCK_RECORD
  5
14C04
330
7466
100
AcDbSymbolTableRecord
100
AcDbBlockTableRecord
  2
*D5
340
0
  0
BLOCK_RECORD
  5
14C12
330
7466
100
AcDbSymbolTableRecord
100
AcDbBlockTableRecord
  2
*D6
340
0
  0
BLOCK_RECORD
  5
14C90
330
7466
100
AcDbSymbolTableRecord
100
AcDbBlockTableRecord
  2
*D7
340
0
  0
BLOCK_RECORD
  5
14C9C
330
7466
100
AcDbSymbolTableRecord
100
AcDbBlockTableRecord
  2
*D8
340
0
  0
BLOCK_RECORD
  5
14CA8
330
7466
100
AcDbSymbolTableRecord
100
AcDbBlockTableRecord
  2
*D9
340
0
  0
BLOCK_RECORD
  5
14CB4
330
7466
100
AcDbSymbolTableRecord
100
AcDbBlockTableRecord
  2
*D10
340
0
  0
BLOCK_RECORD
  5
14CC0
330
7466
100
AcDbSymbolTableRecord
100
AcDbBlockTableRecord
  2
*D11
340
0
  0
BLOCK_RECORD
  5
14D09
330
7466
100
AcDbSymbolTableRecord
100
AcDbBlockTableRecord
  2
*D12
340
0
  0
BLOCK_RECORD
  5
16FCD
330
7466
100
AcDbSymbolTableRecord
100
AcDbBlockTableRecord
  2
*D13
340
0
  0
BLOCK_RECORD
  5
16FD9
330
7466
100
AcDbSymbolTableRecord
100
AcDbBlockTableRecord
  2
*D14
340
0
  0
BLOCK_RECORD
  5
16FE7
330
7466
100
AcDbSymbolTableRecord
100
AcDbBlockTableRecord
  2
*D15
340
0
  0
BLOCK_RECORD
  5
16FF3
330
7466
100
AcDbSymbolTableRecord
100
AcDbBlockTableRecord
  2
*D16
340
0
  0
BLOCK_RECORD
  5
17000
330
7466
100
AcDbSymbolTableRecord
100
AcDbBlockTableRecord
  2
*D17
340
0
  0
BLOCK_RECORD
  5
1700C
330
7466
100
AcDbSymbolTableRecord
100
AcDbBlockTableRecord
  2
*D18
340
0
  0
BLOCK_RECORD
  5
1701A
330
7466
100
AcDbSymbolTableRecord
100
AcDbBlockTableRecord
  2
*D19
340
0
  0
BLOCK_RECORD
  5
17026
330
7466
100
AcDbSymbolTableRecord
100
AcDbBlockTableRecord
  2
*D20
340
0
  0
BLOCK_RECORD
  5
17032
330
7466
100
AcDbSymbolTableRecord
100
AcDbBlockTableRecord
  2
*D21
340
0
  0
BLOCK_RECORD
  5
1703E
330
7466
100
AcDbSymbolTableRecord
100
AcDbBlockTableRecord
  2
*D22
340
0
  0
BLOCK_RECORD
  5
1704A
330
7466
100
AcDbSymbolTableRecord
100
AcDbBlockTableRecord
  2
*D23
340
0
  0
BLOCK_RECORD
  5
17056
330
7466
100
AcDbSymbolTableRecord
100
AcDbBlockTableRecord
  2
*D24
340
0
  0
BLOCK_RECORD
  5
17061
330
7466
100
AcDbSymbolTableRecord
100
AcDbBlockTableRecord
  2
*D25
340
0
  0
BLOCK_RECORD
  5
17070
330
7466
100
AcDbSymbolTableRecord
100
AcDbBlockTableRecord
  2
*D26
340
0
  0
BLOCK_RECORD
  5
1707B
330
7466
100
AcDbSymbolTableRecord
100
AcDbBlockTableRecord
  2
*D27
340
0
  0
ENDTAB
  0
ENDSEC
  0
SECTION
  2
BLOCKS
  0
BLOCK
  5
7489
330
747D
100
AcDbEntity
  8
0
100
AcDbBlockBegin
  2
*MODEL_SPACE
 70
     0
 10
0.0
 20
0.0
 30
0.0
  3
*MODEL_SPACE
  1

  0
ENDBLK
  5
748A
330
747D
100
AcDbEntity
  8
0
100
AcDbBlockEnd
  0
BLOCK
  5
7487
330
747A
100
AcDbEntity
 67
     1
  8
0
100
AcDbBlockBegin
  2
*PAPER_SPACE
 70
     0
 10
0.0
 20
0.0
 30
0.0
  3
*PAPER_SPACE
  1

  0
ENDBLK
  5
7488
330
747A
100
AcDbEntity
 67
     1
  8
0
100
AcDbBlockEnd
  0
BLOCK
  5
F771
330
F770
100
AcDbEntity
  8
0
 48
50.0
100
AcDbBlockBegin
  2
_DOTSMALL
 70
     0
 10
0.0
 20
0.0
 30
0.0
  3
_DOTSMALL
  1

  0
LWPOLYLINE
  5
F772
330
F770
100
AcDbEntity
  8
0
  6
ByBlock
 62
     0
 48
50.0
100
AcDbPolyline
 90
        2
 70
     1
 43
0.5
 10
-0.0625
 20
0.0
 42
1.0
 10
0.0625
 20
0.0
 42
1.0
  0
ENDBLK
  5
F776
330
F770
100
AcDbEntity
  8
0
 48
50.0
100
AcDbBlockEnd
  0
BLOCK
  5
14E55
330
14BD2
100
AcDbEntity
  8
0
 48
50.0
100
AcDbBlockBegin
  2
*D1
 70
     1
 10
0.0
 20
0.0
 30
0.0
  3
*D1
  1

  0
LINE
  5
14E56
330
14BD2
100
AcDbEntity
  8
0
  6
ByBlock
 62
     0
 48
50.0
100
AcDbLine
 10
14550.8535325993
 20
4122.600585333674
 30
0.0
 11
14550.8535325993
 21
3660.902081281427
 31
0.0
  0
LINE
  5
14E57
330
14BD2
100
AcDbEntity
  8
0
  6
ByBlock
 62
     0
 48
50.0
100
AcDbLine
 10
12450.8535325993
 20
4122.600585333673
 30
0.0
 11
12450.8535325993
 21
3660.902081281427
 31
0.0
  0
LINE
  5
14E58
330
14BD2
100
AcDbEntity
  8
0
  6
ByBlock
 62
     0
 48
50.0
100
AcDbLine
 10
14550.8535325993
 20
3690.902081281427
 30
0.0
 11
12450.8535325993
 21
3690.902081281427
 31
0.0
  0
INSERT
  5
14E59
330
14BD2
100
AcDbEntity
  8
0
  6
ByBlock
 62
     0
 48
50.0
100
AcDbBlockReference
  2
_DOTSMALL
 10
14550.8535325993
 20
3690.902081281427
 30
0.0
 41
50.0
 42
50.0
 43
50.0
  0
INSERT
  5
14E5A
330
14BD2
100
AcDbEntity
  8
0
  6
ByBlock
 62
     0
 48
50.0
100
AcDbBlockReference
  2
_DOTSMALL
 10
12450.8535325993
 20
3690.902081281427
 30
0.0
 41
50.0
 42
50.0
 43
50.0
 50
180.0
  0
MTEXT
  5
14E5B
330
14BD2
100
AcDbEntity
  8
0
  6
ByBlock
 62
     7
 48
50.0
100
AcDbMText
 10
13500.8535325993
 20
3740.907986793238
 30
0.0
 40
60.0
 41
0.0
 71
     5
 72
     1
  1
\A1;2100
  7
STYLE1
 73
     1
 44
1.0
1001
ACAD
1000
MTEXTBEGIN
1070
    73
1070
     1
1070
    44
1040
1.0
1070
    74
1070
     0
1000
MTEXTEND
  0
POINT
  5
14E5C
330
14BD2
100
AcDbEntity
  8
DEFPOINTS
  6
ByBlock
 62
     0
 48
50.0
100
AcDbPoint
 10
14550.8535325993
 20
4132.600585333674
 30
0.0
  0
POINT
  5
14E5D
330
14BD2
100
AcDbEntity
  8
DEFPOINTS
  6
ByBlock
 62
     0
 48
50.0
100
AcDbPoint
 10
12450.8535325993
 20
4132.600585333673
 30
0.0
  0
POINT
  5
14E5E
330
14BD2
100
AcDbEntity
  8
DEFPOINTS
  6
ByBlock
 62
     0
 48
50.0
100
AcDbPoint
 10
12450.8535325993
 20
3690.902081281427
 30
0.0
  0
ENDBLK
  5
14E5F
330
14BD2
100
AcDbEntity
  8
0
 48
50.0
100
AcDbBlockEnd
  0
BLOCK
  5
1721D
330
14BDE
100
AcDbEntity
  8
0
 48
50.0
100
AcDbBlockBegin
  2
*D2
 70
     1
 10
0.0
 20
0.0
 30
0.0
  3
*D2
  1

  0
LINE
  5
1721E
330
14BDE
100
AcDbEntity
  8
0
  6
ByBlock
 62
     0
 48
50.0
100
AcDbLine
 10
4208.600000000002
 20
4664.582580843268
 30
0.0
 11
4730.800861439186
 21
4664.582580843268
 31
0.0
  0
LINE
  5
1721F
330
14BDE
100
AcDbEntity
  8
0
  6
ByBlock
 62
     0
 48
50.0
100
AcDbLine
 10
4213.6
 20
4104.582580843267
 30
0.0
 11
4730.800861439186
 21
4104.582580843267
 31
0.0
  0
LINE
  5
17220
330
14BDE
100
AcDbEntity
  8
0
  6
ByBlock
 62
     0
 48
50.0
100
AcDbLine
 10
4700.800861439185
 20
4664.582580843268
 30
0.0
 11
4700.800861439185
 21
4104.582580843267
 31
0.0
  0
INSERT
  5
17221
330
14BDE
100
AcDbEntity
  8
0
  6
ByBlock
 62
     0
 48
50.0
100
AcDbBlockReference
  2
_DOTSMALL
 10
4700.800861439185
 20
4664.582580843268
 30
0.0
 41
50.0
 42
50.0
 43
50.0
 50
90.0
  0
INSERT
  5
17222
330
14BDE
100
AcDbEntity
  8
0
  6
ByBlock
 62
     0
 48
50.0
100
AcDbBlockReference
  2
_DOTSMALL
 10
4700.800861439185
 20
4104.582580843267
 30
0.0
 41
50.0
 42
50.0
 43
50.0
 50
270.0
  0
MTEXT
  5
17223
330
14BDE
100
AcDbEntity
  8
0
  6
ByBlock
 62
     7
 48
50.0
100
AcDbMText
 10
4650.800861439186
 20
4384.582580843268
 30
0.0
 40
60.0
 41
0.0
 71
     5
 72
     1
  1
\A1;560
  7
STYLE1
 11
0.0000000000000001
 21
1.0
 31
0.0
 73
     1
 44
1.0
1001
ACAD
1000
MTEXTBEGIN
1070
    73
1070
     1
1070
    44
1040
1.0
1070
    74
1070
     0
1000
MTEXTEND
  0
POINT
  5
17224
330
14BDE
100
AcDbEntity
  8
DEFPOINTS
  6
ByBlock
 62
     0
 48
50.0
100
AcDbPoint
 10
4198.600000000002
 20
4664.582580843268
 30
0.0
  0
POINT
  5
17225
330
14BDE
100
AcDbEntity
  8
DEFPOINTS
  6
ByBlock
 62
     0
 48
50.0
100
AcDbPoint
 10
4203.6
 20
4104.582580843267
 30
0.0
  0
POINT
  5
17226
330
14BDE
100
AcDbEntity
  8
DEFPOINTS
  6
ByBlock
 62
     0
 48
50.0
100
AcDbPoint
 10
4700.800861439185
 20
4104.582580843267
 30
0.0
  0
ENDBLK
  5
17227
330
14BDE
100
AcDbEntity
  8
0
 48
50.0
100
AcDbBlockEnd
  0
BLOCK
  5
15AA1
330
14BEA
100
AcDbEntity
  8
0
 48
50.0
100
AcDbBlockBegin
  2
*D3
 70
     1
 10
0.0
 20
0.0
 30
0.0
  3
*D3
  1

  0
LINE
  5
15AA2
330
14BEA
100
AcDbEntity
  8
0
  6
ByBlock
 62
     0
 48
50.0
100
AcDbLine
 10
2098.599999999997
 20
2823.560713214081
 30
0.0
 11
2098.599999999997
 21
3005.024113945669
 31
0.0
  0
LINE
  5
15AA3
330
14BEA
100
AcDbEntity
  8
0
  6
ByBlock
 62
     0
 48
50.0
100
AcDbLine
 10
2103.6
 20
2827.391201416256
 30
0.0
 11
2103.6
 21
3005.024113945669
 31
0.0
  0
LINE
  5
15AA4
330
14BEA
100
AcDbEntity
  8
0
  6
ByBlock
 62
     0
 48
50.0
100
AcDbLine
 10
2103.6
 20
2975.024113945668
 30
0.0
 11
2153.6
 21
2975.024113945668
 31
0.0
  0
LINE
  5
15AA5
330
14BEA
100
AcDbEntity
  8
0
  6
ByBlock
 62
     0
 48
50.0
100
AcDbLine
 10
2098.599999999997
 20
2975.024113945668
 30
0.0
 11
1917.313392581187
 21
2975.024113945668
 31
0.0
  0
LINE
  5
15AA6
330
14BEA
100
AcDbEntity
  8
0
  6
ByBlock
 62
     0
 48
50.0
100
AcDbLine
 10
2103.6
 20
2975.024113945668
 30
0.0
 11
2098.599999999997
 21
2975.024113945668
 31
0.0
  0
INSERT
  5
15AA7
330
14BEA
100
AcDbEntity
  8
0
  6
ByBlock
 62
     0
 48
50.0
100
AcDbBlockReference
  2
_DOTSMALL
 10
2103.6
 20
2975.024113945668
 30
0.0
 41
50.0
 42
50.0
 43
50.0
 50
180.0
  0
INSERT
  5
15AA8
330
14BEA
100
AcDbEntity
  8
0
  6
ByBlock
 62
     0
 48
50.0
100
AcDbBlockReference
  2
_DOTSMALL
 10
2098.599999999997
 20
2975.024113945668
 30
0.0
 41
50.0
 42
50.0
 43
50.0
  0
MTEXT
  5
15AA9
330
14BEA
100
AcDbEntity
  8
0
  6
ByBlock
 62
     7
 48
50.0
100
AcDbMText
 10
1950.556033268307
 20
3025.024113945669
 30
0.0
 40
60.0
 41
0.0
 71
     5
 72
     1
  1
\A1;5
  7
STYLE1
 73
     1
 44
1.0
1001
ACAD
1000
MTEXTBEGIN
1070
    73
1070
     1
1070
    44
1040
1.0
1070
    74
1070
     0
1000
MTEXTEND
  0
POINT
  5
15AAA
330
14BEA
100
AcDbEntity
  8
DEFPOINTS
  6
ByBlock
 62
     0
 48
50.0
100
AcDbPoint
 10
2098.599999999997
 20
2813.560713214081
 30
0.0
  0
POINT
  5
15AAB
330
14BEA
100
AcDbEntity
  8
DEFPOINTS
  6
ByBlock
 62
     0
 48
50.0
100
AcDbPoint
 10
2103.6
 20
2817.391201416256
 30
0.0
  0
POINT
  5
15AAC
330
14BEA
100
AcDbEntity
  8
DEFPOINTS
  6
ByBlock
 62
     0
 48
50.0
100
AcDbPoint
 10
2103.6
 20
2975.024113945668
 30
0.0
  0
ENDBLK
  5
15AAD
330
14BEA
100
AcDbEntity
  8
0
 48
50.0
100
AcDbBlockEnd
  0
BLOCK
  5
15AC7
330
14BF8
100
AcDbEntity
  8
0
 48
50.0
100
AcDbBlockBegin
  2
*D4
 70
     1
 10
0.0
 20
0.0
 30
0.0
  3
*D4
  1

  0
LINE
  5
15AC8
330
14BF8
100
AcDbEntity
  8
0
  6
ByBlock
 62
     0
 48
50.0
100
AcDbLine
 10
2103.6
 20
2827.391201416256
 30
0.0
 11
2103.6
 21
3005.024113945669
 31
0.0
  0
LINE
  5
15AC9
330
14BF8
100
AcDbEntity
  8
0
  6
ByBlock
 62
     0
 48
50.0
100
AcDbLine
 10
4203.6
 20
2827.391201416256
 30
0.0
 11
4203.6
 21
3005.024113945669
 31
0.0
  0
LINE
  5
15ACA
330
14BF8
100
AcDbEntity
  8
0
  6
ByBlock
 62
     0
 48
50.0
100
AcDbLine
 10
2103.6
 20
2975.024113945668
 30
0.0
 11
4203.6
 21
2975.024113945668
 31
0.0
  0
INSERT
  5
15ACB
330
14BF8
100
AcDbEntity
  8
0
  6
ByBlock
 62
     0
 48
50.0
100
AcDbBlockReference
  2
_DOTSMALL
 10
2103.6
 20
2975.024113945668
 30
0.0
 41
50.0
 42
50.0
 43
50.0
 50
180.0
  0
INSERT
  5
15ACC
330
14BF8
100
AcDbEntity
  8
0
  6
ByBlock
 62
     0
 48
50.0
100
AcDbBlockReference
  2
_DOTSMALL
 10
4203.6
 20
2975.024113945668
 30
0.0
 41
50.0
 42
50.0
 43
50.0
  0
MTEXT
  5
15ACD
330
14BF8
100
AcDbEntity
  8
0
  6
ByBlock
 62
     7
 48
50.0
100
AcDbMText
 10
3153.600000000001
 20
3025.03001945748
 30
0.0
 40
60.0
 41
0.0
 71
     5
 72
     1
  1
\A1;2100
  7
STYLE1
 73
     1
 44
1.0
1001
ACAD
1000
MTEXTBEGIN
1070
    73
1070
     1
1070
    44
1040
1.0
1070
    74
1070
     0
1000
MTEXTEND
  0
POINT
  5
15ACE
330
14BF8
100
AcDbEntity
  8
DEFPOINTS
  6
ByBlock
 62
     0
 48
50.0
100
AcDbPoint
 10
2103.6
 20
2817.391201416256
 30
0.0
  0
POINT
  5
15ACF
330
14BF8
100
AcDbEntity
  8
DEFPOINTS
  6
ByBlock
 62
     0
 48
50.0
100
AcDbPoint
 10
4203.6
 20
2817.391201416256
 30
0.0
  0
POINT
  5
15AD0
330
14BF8
100
AcDbEntity
  8
DEFPOINTS
  6
ByBlock
 62
     0
 48
50.0
100
AcDbPoint
 10
4203.6
 20
2975.024113945668
 30
0.0
  0
ENDBLK
  5
15AD1
330
14BF8
100
AcDbEntity
  8
0
 48
50.0
100
AcDbBlockEnd
  0
BLOCK
  5
15AD2
330
14C04
100
AcDbEntity
  8
0
 48
50.0
100
AcDbBlockBegin
  2
*D5
 70
     1
 10
0.0
 20
0.0
 30
0.0
  3
*D5
  1

  0
LINE
  5
15AD3
330
14C04
100
AcDbEntity
  8
0
  6
ByBlock
 62
     0
 48
50.0
100
AcDbLine
 10
4203.6
 20
2827.391201416256
 30
0.0
 11
4203.6
 21
3005.024113945669
 31
0.0
  0
LINE
  5
15AD4
330
14C04
100
AcDbEntity
  8
0
  6
ByBlock
 62
     0
 48
50.0
100
AcDbLine
 10
4208.600000000004
 20
2823.560713214081
 30
0.0
 11
4208.600000000004
 21
3005.024113945669
 31
0.0
  0
LINE
  5
15AD5
330
14C04
100
AcDbEntity
  8
0
  6
ByBlock
 62
     0
 48
50.0
100
AcDbLine
 10
4203.6
 20
2975.024113945668
 30
0.0
 11
4153.599999999999
 21
2975.024113945668
 31
0.0
  0
LINE
  5
15AD6
330
14C04
100
AcDbEntity
  8
0
  6
ByBlock
 62
     0
 48
50.0
100
AcDbLine
 10
4208.600000000004
 20
2975.024113945668
 30
0.0
 11
4375.085281374242
 21
2975.024113945668
 31
0.0
  0
LINE
  5
15AD7
330
14C04
100
AcDbEntity
  8
0
  6
ByBlock
 62
     0
 48
50.0
100
AcDbLine
 10
4203.6
 20
2975.024113945668
 30
0.0
 11
4208.600000000004
 21
2975.024113945668
 31
0.0
  0
INSERT
  5
15AD8
330
14C04
100
AcDbEntity
  8
0
  6
ByBlock
 62
     0
 48
50.0
100
AcDbBlockReference
  2
_DOTSMALL
 10
4203.6
 20
2975.024113945668
 30
0.0
 41
50.0
 42
50.0
 43
50.0
  0
INSERT
  5
15AD9
330
14C04
100
AcDbEntity
  8
0
  6
ByBlock
 62
     0
 48
50.0
100
AcDbBlockReference
  2
_DOTSMALL
 10
4208.600000000004
 20
2975.024113945668
 30
0.0
 41
50.0
 42
50.0
 43
50.0
 50
180.0
  0
MTEXT
  5
15ADA
330
14C04
100
AcDbEntity
  8
0
  6
ByBlock
 62
     7
 48
50.0
100
AcDbMText
 10
4341.842640687123
 20
3025.024113945669
 30
0.0
 40
60.0
 41
0.0
 71
     5
 72
     1
  1
\A1;5
  7
STYLE1
 73
     1
 44
1.0
1001
ACAD
1000
MTEXTBEGIN
1070
    73
1070
     1
1070
    44
1040
1.0
1070
    74
1070
     0
1000
MTEXTEND
  0
POINT
  5
15ADB
330
14C04
100
AcDbEntity
  8
DEFPOINTS
  6
ByBlock
 62
     0
 48
50.0
100
AcDbPoint
 10
4203.6
 20
2817.391201416256
 30
0.0
  0
POINT
  5
15ADC
330
14C04
100
AcDbEntity
  8
DEFPOINTS
  6
ByBlock
 62
     0
 48
50.0
100
AcDbPoint
 10
4208.600000000004
 20
2813.560713214081
 30
0.0
  0
POINT
  5
15ADD
330
14C04
100
AcDbEntity
  8
DEFPOINTS
  6
ByBlock
 62
     0
 48
50.0
100
AcDbPoint
 10
4208.600000000004
 20
2975.024113945668
 30
0.0
  0
ENDBLK
  5
15ADE
330
14C04
100
AcDbEntity
  8
0
 48
50.0
100
AcDbBlockEnd
  0
BLOCK
  5
15ADF
330
14C12
100
AcDbEntity
  8
0
 48
50.0
100
AcDbBlockBegin
  2
*D6
 70
     1
 10
0.0
 20
0.0
 30
0.0
  3
*D6
  1

  0
LINE
  5
15AE0
330
14C12
100
AcDbEntity
  8
0
  6
ByBlock
 62
     0
 48
50.0
100
AcDbLine
 10
2098.599999999997
 20
2823.560713214081
 30
0.0
 11
2098.599999999997
 21
3133.220335370565
 31
0.0
  0
LINE
  5
15AE1
330
14C12
100
AcDbEntity
  8
0
  6
ByBlock
 62
     0
 48
50.0
100
AcDbLine
 10
4208.600000000004
 20
2823.560713214081
 30
0.0
 11
4208.600000000004
 21
3133.220335370565
 31
0.0
  0
LINE
  5
15AE2
330
14C12
100
AcDbEntity
  8
0
  6
ByBlock
 62
     0
 48
50.0
100
AcDbLine
 10
2098.599999999997
 20
3103.220335370565
 30
0.0
 11
4208.600000000004
 21
3103.220335370565
 31
0.0
  0
INSERT
  5
15AE3
330
14C12
100
AcDbEntity
  8
0
  6
ByBlock
 62
     0
 48
50.0
100
AcDbBlockReference
  2
_DOTSMALL
 10
2098.599999999997
 20
3103.220335370565
 30
0.0
 41
50.0
 42
50.0
 43
50.0
 50
180.0
  0
INSERT
  5
15AE4
330
14C12
100
AcDbEntity
  8
0
  6
ByBlock
 62
     0
 48
50.0
100
AcDbBlockReference
  2
_DOTSMALL
 10
4208.600000000004
 20
3103.220335370565
 30
0.0
 41
50.0
 42
50.0
 43
50.0
  0
MTEXT
  5
15AE5
330
14C12
100
AcDbEntity
  8
0
  6
ByBlock
 62
     7
 48
50.0
100
AcDbMText
 10
3153.600000000001
 20
3153.226240882375
 30
0.0
 40
60.0
 41
0.0
 71
     5
 72
     1
  1
\A1;2110
  7
STYLE1
 73
     1
 44
1.0
1001
ACAD
1000
MTEXTBEGIN
1070
    73
1070
     1
1070
    44
1040
1.0
1070
    74
1070
     0
1000
MTEXTEND
  0
POINT
  5
15AE6
330
14C12
100
AcDbEntity
  8
DEFPOINTS
  6
ByBlock
 62
     0
 48
50.0
100
AcDbPoint
 10
2098.599999999997
 20
2813.560713214081
 30
0.0
  0
POINT
  5
15AE7
330
14C12
100
AcDbEntity
  8
DEFPOINTS
  6
ByBlock
 62
     0
 48
50.0
100
AcDbPoint
 10
4208.600000000004
 20
2813.560713214081
 30
0.0
  0
POINT
  5
15AE8
330
14C12
100
AcDbEntity
  8
DEFPOINTS
  6
ByBlock
 62
     0
 48
50.0
100
AcDbPoint
 10
4208.600000000004
 20
3103.220335370565
 30
0.0
  0
ENDBLK
  5
15AE9
330
14C12
100
AcDbEntity
  8
0
 48
50.0
100
AcDbBlockEnd
  0
BLOCK
  5
14E08
330
14C90
100
AcDbEntity
  8
0
 48
50.0
100
AcDbBlockBegin
  2
*D7
 70
     1
 10
0.0
 20
0.0
 30
0.0
  3
*D7
  1

  0
LINE
  5
14E09
330
14C90
100
AcDbEntity
  8
0
  6
ByBlock
 62
     0
 48
50.0
100
AcDbLine
 10
12484.67404067499
 20
5011.600585333674
 30
0.0
 11
12420.80417054844
 21
5249.966185718768
 31
0.0
  0
LINE
  5
14E0A
330
14C90
100
AcDbEntity
  8
0
  6
ByBlock
 62
     0
 48
50.0
100
AcDbLine
 10
13483.67404067499
 20
5011.600585333676
 30
0.0
 11
13419.80417054844
 21
5249.966185718768
 31
0.0
  0
LINE
  5
14E0B
330
14C90
100
AcDbEntity
  8
0
  6
ByBlock
 62
     0
 48
50.0
100
AcDbLine
 10
12428.84264632138
 20
5219.966185718767
 30
0.0
 11
13427.84264632138
 21
5219.966185718767
 31
0.0
  0
INSERT
  5
14E0C
330
14C90
100
AcDbEntity
  8
0
  6
ByBlock
 62
     0
 48
50.0
100
AcDbBlockReference
  2
_DOTSMALL
 10
12428.84264632138
 20
5219.966185718767
 30
0.0
 41
50.0
 42
50.0
 43
50.0
 50
180.0
  0
INSERT
  5
14E0D
330
14C90
100
AcDbEntity
  8
0
  6
ByBlock
 62
     0
 48
50.0
100
AcDbBlockReference
  2
_DOTSMALL
 10
13427.84264632138
 20
5219.966185718767
 30
0.0
 41
50.0
 42
50.0
 43
50.0
  0
MTEXT
  5
14E0E
330
14C90
100
AcDbEntity
  8
0
  6
ByBlock
 62
     7
 48
50.0
100
AcDbMText
 10
12928.34264632138
 20
5269.966185718768
 30
0.0
 40
60.0
 41
0.0
 71
     5
 72
     1
  1
\A1;999
  7
STYLE1
 73
     1
 44
1.0
1001
ACAD
1000
MTEXTBEGIN
1070
    73
1070
     1
1070
    44
1040
1.0
1070
    74
1070
     0
1000
MTEXTEND
  0
POINT
  5
14E0F
330
14C90
100
AcDbEntity
  8
DEFPOINTS
  6
ByBlock
 62
     0
 48
50.0
100
AcDbPoint
 10
12487.3535325993
 20
5001.600585333675
 30
0.0
  0
POINT
  5
14E10
330
14C90
100
AcDbEntity
  8
DEFPOINTS
  6
ByBlock
 62
     0
 48
50.0
100
AcDbPoint
 10
13486.3535325993
 20
5001.600585333676
 30
0.0
  0
POINT
  5
14E11
330
14C90
100
AcDbEntity
  8
DEFPOINTS
  6
ByBlock
 62
     0
 48
50.0
100
AcDbPoint
 10
13427.84264632138
 20
5219.966185718767
 30
0.0
  0
ENDBLK
  5
14E12
330
14C90
100
AcDbEntity
  8
0
 48
50.0
100
AcDbBlockEnd
  0
BLOCK
  5
14E4A
330
14C9C
100
AcDbEntity
  8
0
 48
50.0
100
AcDbBlockBegin
  2
*D8
 70
     1
 10
0.0
 20
0.0
 30
0.0
  3
*D8
  1

  0
LINE
  5
14E4B
330
14C9C
100
AcDbEntity
  8
0
  6
ByBlock
 62
     0
 48
50.0
100
AcDbLine
 10
13512.67404067499
 20
5011.600585333674
 30
0.0
 11
13448.80417054845
 21
5249.966185718767
 31
0.0
  0
LINE
  5
14E4C
330
14C9C
100
AcDbEntity
  8
0
  6
ByBlock
 62
     0
 48
50.0
100
AcDbLine
 10
14511.67404067499
 20
5011.600585333674
 30
0.0
 11
14447.80417054845
 21
5249.966185718767
 31
0.0
  0
LINE
  5
14E4D
330
14C9C
100
AcDbEntity
  8
0
  6
ByBlock
 62
     0
 48
50.0
100
AcDbLine
 10
13456.84264632138
 20
5219.966185718766
 30
0.0
 11
14455.84264632138
 21
5219.966185718766
 31
0.0
  0
INSERT
  5
14E4E
330
14C9C
100
AcDbEntity
  8
0
  6
ByBlock
 62
     0
 48
50.0
100
AcDbBlockReference
  2
_DOTSMALL
 10
13456.84264632138
 20
5219.966185718766
 30
0.0
 41
50.0
 42
50.0
 43
50.0
 50
180.0
  0
INSERT
  5
14E4F
330
14C9C
100
AcDbEntity
  8
0
  6
ByBlock
 62
     0
 48
50.0
100
AcDbBlockReference
  2
_DOTSMALL
 10
14455.84264632138
 20
5219.966185718766
 30
0.0
 41
50.0
 42
50.0
 43
50.0
  0
MTEXT
  5
14E50
330
14C9C
100
AcDbEntity
  8
0
  6
ByBlock
 62
     7
 48
50.0
100
AcDbMText
 10
13956.34264632138
 20
5269.966185718766
 30
0.0
 40
60.0
 41
0.0
 71
     5
 72
     1
  1
\A1;999
  7
STYLE1
 73
     1
 44
1.0
1001
ACAD
1000
MTEXTBEGIN
1070
    73
1070
     1
1070
    44
1040
1.0
1070
    74
1070
     0
1000
MTEXTEND
  0
POINT
  5
14E51
330
14C9C
100
AcDbEntity
  8
DEFPOINTS
  6
ByBlock
 62
     0
 48
50.0
100
AcDbPoint
 10
13515.35353259931
 20
5001.600585333673
 30
0.0
  0
POINT
  5
14E52
330
14C9C
100
AcDbEntity
  8
DEFPOINTS
  6
ByBlock
 62
     0
 48
50.0
100
AcDbPoint
 10
14514.3535325993
 20
5001.600585333675
 30
0.0
  0
POINT
  5
14E53
330
14C9C
100
AcDbEntity
  8
DEFPOINTS
  6
ByBlock
 62
     0
 48
50.0
100
AcDbPoint
 10
14455.84264632138
 20
5219.966185718766
 30
0.0
  0
ENDBLK
  5
14E54
330
14C9C
100
AcDbEntity
  8
0
 48
50.0
100
AcDbBlockEnd
  0
BLOCK
  5
14D9A
330
14CA8
100
AcDbEntity
  8
0
 48
50.0
100
AcDbBlockBegin
  2
*D9
 70
     1
 10
0.0
 20
0.0
 30
0.0
  3
*D9
  1

  0
LINE
  5
14D9B
330
14CA8
100
AcDbEntity
  8
0
  6
ByBlock
 62
     0
 48
50.0
100
AcDbLine
 10
12777.3535325993
 20
5004.280077257985
 30
0.0
 11
12500.09068220099
 21
5078.572434113363
 31
0.0
  0
LINE
  5
14D9C
330
14CA8
100
AcDbEntity
  8
0
  6
ByBlock
 62
     0
 48
50.0
100
AcDbLine
 10
12777.3535325993
 20
4554.280077257986
 30
0.0
 11
12500.09068220099
 21
4628.572434113364
 31
0.0
  0
LINE
  5
14D9D
330
14CA8
100
AcDbEntity
  8
0
  6
ByBlock
 62
     0
 48
50.0
100
AcDbLine
 10
12530.09068220099
 20
5070.53395834043
 30
0.0
 11
12530.09068220099
 21
4620.533958340431
 31
0.0
  0
INSERT
  5
14D9E
330
14CA8
100
AcDbEntity
  8
0
  6
ByBlock
 62
     0
 48
50.0
100
AcDbBlockReference
  2
_DOTSMALL
 10
12530.09068220099
 20
5070.53395834043
 30
0.0
 41
50.0
 42
50.0
 43
50.0
 50
90.0
  0
INSERT
  5
14D9F
330
14CA8
100
AcDbEntity
  8
0
  6
ByBlock
 62
     0
 48
50.0
100
AcDbBlockReference
  2
_DOTSMALL
 10
12530.09068220099
 20
4620.533958340431
 30
0.0
 41
50.0
 42
50.0
 43
50.0
 50
270.0
  0
MTEXT
  5
14DA0
330
14CA8
100
AcDbEntity
  8
0
  6
ByBlock
 62
     7
 48
50.0
100
AcDbMText
 10
12480.09068220099
 20
4845.53395834043
 30
0.0
 40
60.0
 41
0.0
 71
     5
 72
     1
  1
\A1;450
  7
STYLE1
 11
0.0000000000000001
 21
1.0
 31
0.0
 73
     1
 44
1.0
1001
ACAD
1000
MTEXTBEGIN
1070
    73
1070
     1
1070
    44
1040
1.0
1070
    74
1070
     0
1000
MTEXTEND
  0
POINT
  5
14DA1
330
14CA8
100
AcDbEntity
  8
DEFPOINTS
  6
ByBlock
 62
     0
 48
50.0
100
AcDbPoint
 10
12787.3535325993
 20
5001.600585333673
 30
0.0
  0
POINT
  5
14DA2
330
14CA8
100
AcDbEntity
  8
DEFPOINTS
  6
ByBlock
 62
     0
 48
50.0
100
AcDbPoint
 10
12787.3535325993
 20
4551.600585333675
 30
0.0
  0
POINT
  5
14DA3
330
14CA8
100
AcDbEntity
  8
DEFPOINTS
  6
ByBlock
 62
     0
 48
50.0
100
AcDbPoint
 10
12530.09068220099
 20
4620.533958340431
 30
0.0
  0
ENDBLK
  5
14DA4
330
14CA8
100
AcDbEntity
  8
0
 48
50.0
100
AcDbBlockEnd
  0
BLOCK
  5
17268
330
14CB4
100
AcDbEntity
  8
0
 48
50.0
100
AcDbBlockBegin
  2
*D10
 70
     1
 10
0.0
 20
0.0
 30
0.0
  3
*D10
  1

  0
LINE
  5
17269
330
14CB4
100
AcDbEntity
  8
0
  6
ByBlock
 62
     0
 48
50.0
100
AcDbLine
 10
2138.6
 20
4674.582580843269
 30
0.0
 11
2138.6
 21
5086.414712708183
 31
0.0
  0
LINE
  5
1726A
330
14CB4
100
AcDbEntity
  8
0
  6
ByBlock
 62
     0
 48
50.0
100
AcDbLine
 10
4168.600000000002
 20
4674.582580843177
 30
0.0
 11
4168.600000000002
 21
5086.414712708183
 31
0.0
  0
LINE
  5
1726B
330
14CB4
100
AcDbEntity
  8
0
  6
ByBlock
 62
     0
 48
50.0
100
AcDbLine
 10
2138.6
 20
5056.414712708183
 30
0.0
 11
4168.600000000002
 21
5056.414712708183
 31
0.0
  0
INSERT
  5
1726C
330
14CB4
100
AcDbEntity
  8
0
  6
ByBlock
 62
     0
 48
50.0
100
AcDbBlockReference
  2
_DOTSMALL
 10
2138.6
 20
5056.414712708183
 30
0.0
 41
50.0
 42
50.0
 43
50.0
 50
180.0
  0
INSERT
  5
1726D
330
14CB4
100
AcDbEntity
  8
0
  6
ByBlock
 62
     0
 48
50.0
100
AcDbBlockReference
  2
_DOTSMALL
 10
4168.600000000002
 20
5056.414712708183
 30
0.0
 41
50.0
 42
50.0
 43
50.0
  0
MTEXT
  5
1726E
330
14CB4
100
AcDbEntity
  8
0
  6
ByBlock
 62
     7
 48
50.0
100
AcDbMText
 10
3153.600000000001
 20
5106.420618219994
 30
0.0
 40
60.0
 41
0.0
 71
     5
 72
     1
  1
\A1;内部寸法 2030
  7
STYLE1
 73
     1
 44
1.0
1001
ACAD
1000
MTEXTBEGIN
1070
    73
1070
     1
1070
    44
1040
1.0
1070
    74
1070
     0
1000
MTEXTEND
  0
POINT
  5
1726F
330
14CB4
100
AcDbEntity
  8
DEFPOINTS
  6
ByBlock
 62
     0
 48
50.0
100
AcDbPoint
 10
2138.6
 20
4664.582580843268
 30
0.0
  0
POINT
  5
17270
330
14CB4
100
AcDbEntity
  8
DEFPOINTS
  6
ByBlock
 62
     0
 48
50.0
100
AcDbPoint
 10
4168.600000000002
 20
4664.582580843176
 30
0.0
  0
POINT
  5
17271
330
14CB4
100
AcDbEntity
  8
DEFPOINTS
  6
ByBlock
 62
     0
 48
50.0
100
AcDbPoint
 10
4168.600000000002
 20
5056.414712708183
 30
0.0
  0
ENDBLK
  5
17272
330
14CB4
100
AcDbEntity
  8
0
 48
50.0
100
AcDbBlockEnd
  0
BLOCK
  5
17212
330
14CC0
100
AcDbEntity
  8
0
 48
50.0
100
AcDbBlockBegin
  2
*D11
 70
     1
 10
0.0
 20
0.0
 30
0.0
  3
*D11
  1

  0
LINE
  5
17213
330
14CC0
100
AcDbEntity
  8
0
  6
ByBlock
 62
     0
 48
50.0
100
AcDbLine
 10
4208.600000000002
 20
4635.582580843268
 30
0.0
 11
4584.624603998787
 21
4635.582580843268
 31
0.0
  0
LINE
  5
17214
330
14CC0
100
AcDbEntity
  8
0
  6
ByBlock
 62
     0
 48
50.0
100
AcDbLine
 10
4208.6
 20
4171.582580843269
 30
0.0
 11
4584.624603998787
 21
4171.582580843269
 31
0.0
  0
LINE
  5
17215
330
14CC0
100
AcDbEntity
  8
0
  6
ByBlock
 62
     0
 48
50.0
100
AcDbLine
 10
4554.624603998787
 20
4635.582580843268
 30
0.0
 11
4554.624603998787
 21
4171.582580843269
 31
0.0
  0
INSERT
  5
17216
330
14CC0
100
AcDbEntity
  8
0
  6
ByBlock
 62
     0
 48
50.0
100
AcDbBlockReference
  2
_DOTSMALL
 10
4554.624603998787
 20
4635.582580843268
 30
0.0
 41
50.0
 42
50.0
 43
50.0
 50
90.0
  0
INSERT
  5
17217
330
14CC0
100
AcDbEntity
  8
0
  6
ByBlock
 62
     0
 48
50.0
100
AcDbBlockReference
  2
_DOTSMALL
 10
4554.624603998787
 20
4171.582580843269
 30
0.0
 41
50.0
 42
50.0
 43
50.0
 50
270.0
  0
MTEXT
  5
17218
330
14CC0
100
AcDbEntity
  8
0
  6
ByBlock
 62
     7
 48
50.0
100
AcDbMText
 10
4454.624603998786
 20
4403.582580843269
 30
0.0
 40
60.0
 41
0.0
 71
     5
 72
     1
  1
\A1;内部寸法\P464
  7
STYLE1
 11
0.0000000000000001
 21
1.0
 31
0.0
 73
     1
 44
1.0
1001
ACAD
1000
MTEXTBEGIN
1070
    73
1070
     1
1070
    44
1040
1.0
1070
    74
1070
     0
1000
MTEXTEND
  0
POINT
  5
17219
330
14CC0
100
AcDbEntity
  8
DEFPOINTS
  6
ByBlock
 62
     0
 48
50.0
100
AcDbPoint
 10
4198.600000000002
 20
4635.582580843268
 30
0.0
  0
POINT
  5
1721A
330
14CC0
100
AcDbEntity
  8
DEFPOINTS
  6
ByBlock
 62
     0
 48
50.0
100
AcDbPoint
 10
4198.6
 20
4171.582580843269
 30
0.0
  0
POINT
  5
1721B
330
14CC0
100
AcDbEntity
  8
DEFPOINTS
  6
ByBlock
 62
     0
 48
50.0
100
AcDbPoint
 10
4554.624603998787
 20
4171.582580843269
 30
0.0
  0
ENDBLK
  5
1721C
330
14CC0
100
AcDbEntity
  8
0
 48
50.0
100
AcDbBlockEnd
  0
BLOCK
  5
16C46
330
14D09
100
AcDbEntity
  8
0
 48
50.0
100
AcDbBlockBegin
  2
*D12
 70
     1
 10
0.0
 20
0.0
 30
0.0
  3
*D12
  1

  0
LINE
  5
16C47
330
14D09
100
AcDbEntity
  8
0
  6
ByBlock
 62
     0
 48
50.0
100
AcDbLine
 10
3631.600000000001
 20
4099.582580843269
 30
0.0
 11
3631.600000000001
 21
3795.232679255116
 31
0.0
  0
LINE
  5
16C48
330
14D09
100
AcDbEntity
  8
0
  6
ByBlock
 62
     0
 48
50.0
100
AcDbLine
 10
2675.6
 20
4099.582580843269
 30
0.0
 11
2675.6
 21
3795.232679255116
 31
0.0
  0
LINE
  5
16C49
330
14D09
100
AcDbEntity
  8
0
  6
ByBlock
 62
     0
 48
50.0
100
AcDbLine
 10
3631.600000000001
 20
3825.232679255116
 30
0.0
 11
2675.6
 21
3825.232679255116
 31
0.0
  0
INSERT
  5
16C4A
330
14D09
100
AcDbEntity
  8
0
  6
ByBlock
 62
     0
 48
50.0
100
AcDbBlockReference
  2
_DOTSMALL
 10
3631.600000000001
 20
3825.232679255116
 30
0.0
 41
50.0
 42
50.0
 43
50.0
  0
INSERT
  5
16C4B
330
14D09
100
AcDbEntity
  8
0
  6
ByBlock
 62
     0
 48
50.0
100
AcDbBlockReference
  2
_DOTSMALL
 10
2675.6
 20
3825.232679255116
 30
0.0
 41
50.0
 42
50.0
 43
50.0
 50
180.0
  0
MTEXT
  5
16C4C
330
14D09
100
AcDbEntity
  8
0
  6
ByBlock
 62
     7
 48
50.0
100
AcDbMText
 10
3153.600000000001
 20
3925.232679255116
 30
0.0
 40
60.0
 41
0.0
 71
     5
 72
     1
  1
\A1;有効開口部間口\P956
  7
STYLE1
 73
     1
 44
1.0
1001
ACAD
1000
MTEXTBEGIN
1070
    73
1070
     1
1070
    44
1040
1.0
1070
    74
1070
     0
1000
MTEXTEND
  0
POINT
  5
16C4D
330
14D09
100
AcDbEntity
  8
DEFPOINTS
  6
ByBlock
 62
     0
 48
50.0
100
AcDbPoint
 10
3631.600000000001
 20
4109.582580843269
 30
0.0
  0
POINT
  5
16C4E
330
14D09
100
AcDbEntity
  8
DEFPOINTS
  6
ByBlock
 62
     0
 48
50.0
100
AcDbPoint
 10
2675.6
 20
4109.582580843269
 30
0.0
  0
POINT
  5
16C4F
330
14D09
100
AcDbEntity
  8
DEFPOINTS
  6
ByBlock
 62
     0
 48
50.0
100
AcDbPoint
 10
2675.6
 20
3825.232679255116
 30
0.0
  0
ENDBLK
  5
16C50
330
14D09
100
AcDbEntity
  8
0
 48
50.0
100
AcDbBlockEnd
  0
BLOCK
  5
17233
330
16FCD
100
AcDbEntity
  8
0
 48
50.0
100
AcDbBlockBegin
  2
*D13
 70
     1
 10
0.0
 20
0.0
 30
0.0
  3
*D13
  1

  0
LINE
  5
17234
330
16FCD
100
AcDbEntity
  8
0
  6
ByBlock
 62
     0
 48
50.0
100
AcDbLine
 10
5463.599999999997
 20
2803.667939162581
 30
0.0
 11
5463.599999999997
 21
3133.220335370565
 31
0.0
  0
LINE
  5
17235
330
16FCD
100
AcDbEntity
  8
0
  6
ByBlock
 62
     0
 48
50.0
100
AcDbLine
 10
6073.599999999998
 20
2810.0
 30
0.0
 11
6073.599999999998
 21
3133.220335370565
 31
0.0
  0
LINE
  5
17236
330
16FCD
100
AcDbEntity
  8
0
  6
ByBlock
 62
     0
 48
50.0
100
AcDbLine
 10
5463.599999999997
 20
3103.220335370565
 30
0.0
 11
6073.599999999998
 21
3103.220335370565
 31
0.0
  0
INSERT
  5
17237
330
16FCD
100
AcDbEntity
  8
0
  6
ByBlock
 62
     0
 48
50.0
100
AcDbBlockReference
  2
_DOTSMALL
 10
5463.599999999997
 20
3103.220335370565
 30
0.0
 41
50.0
 42
50.0
 43
50.0
 50
180.0
  0
INSERT
  5
17238
330
16FCD
100
AcDbEntity
  8
0
  6
ByBlock
 62
     0
 48
50.0
100
AcDbBlockReference
  2
_DOTSMALL
 10
6073.599999999998
 20
3103.220335370565
 30
0.0
 41
50.0
 42
50.0
 43
50.0
  0
MTEXT
  5
17239
330
16FCD
100
AcDbEntity
  8
0
  6
ByBlock
 62
     7
 48
50.0
100
AcDbMText
 10
5768.599999999998
 20
3153.220335370565
 30
0.0
 40
60.0
 41
0.0
 71
     5
 72
     1
  1
\A1;610
  7
STYLE1
 73
     1
 44
1.0
1001
ACAD
1000
MTEXTBEGIN
1070
    73
1070
     1
1070
    44
1040
1.0
1070
    74
1070
     0
1000
MTEXTEND
  0
POINT
  5
1723A
330
16FCD
100
AcDbEntity
  8
DEFPOINTS
  6
ByBlock
 62
     0
 48
50.0
100
AcDbPoint
 10
5463.599999999997
 20
2793.66793916258
 30
0.0
  0
POINT
  5
1723B
330
16FCD
100
AcDbEntity
  8
DEFPOINTS
  6
ByBlock
 62
     0
 48
50.0
100
AcDbPoint
 10
6073.599999999998
 20
2800.0
 30
0.0
  0
POINT
  5
1723C
330
16FCD
100
AcDbEntity
  8
DEFPOINTS
  6
ByBlock
 62
     0
 48
50.0
100
AcDbPoint
 10
6073.599999999998
 20
3103.220335370565
 30
0.0
  0
ENDBLK
  5
1723D
330
16FCD
100
AcDbEntity
  8
0
 48
50.0
100
AcDbBlockEnd
  0
BLOCK
  5
170F4
330
16FD9
100
AcDbEntity
  8
0
 48
50.0
100
AcDbBlockBegin
  2
*D14
 70
     1
 10
0.0
 20
0.0
 30
0.0
  3
*D14
  1

  0
LINE
  5
170F5
330
16FD9
100
AcDbEntity
  8
0
  6
ByBlock
 62
     0
 48
50.0
100
AcDbLine
 10
14231.96732356758
 20
3567.613636392704
 30
0.0
 11
14231.96732356758
 21
3762.411676487582
 31
0.0
  0
LINE
  5
170F6
330
16FD9
100
AcDbEntity
  8
0
  6
ByBlock
 62
     0
 48
50.0
100
AcDbLine
 10
14241.96732356757
 20
3567.387562541914
 30
0.0
 11
14241.96732356757
 21
3762.411676487582
 31
0.0
  0
LINE
  5
170F7
330
16FD9
100
AcDbEntity
  8
0
  6
ByBlock
 62
     0
 48
50.0
100
AcDbLine
 10
14231.96732356758
 20
3732.411676487582
 30
0.0
 11
14181.96732356757
 21
3732.411676487582
 31
0.0
  0
LINE
  5
170F8
330
16FD9
100
AcDbEntity
  8
0
  6
ByBlock
 62
     0
 48
50.0
100
AcDbLine
 10
14241.96732356757
 20
3732.411676487582
 30
0.0
 11
14436.01456766206
 21
3732.411676487582
 31
0.0
  0
LINE
  5
170F9
330
16FD9
100
AcDbEntity
  8
0
  6
ByBlock
 62
     0
 48
50.0
100
AcDbLine
 10
14231.96732356758
 20
3732.411676487582
 30
0.0
 11
14241.96732356757
 21
3732.411676487582
 31
0.0
  0
INSERT
  5
170FA
330
16FD9
100
AcDbEntity
  8
0
  6
ByBlock
 62
     0
 48
50.0
100
AcDbBlockReference
  2
_DOTSMALL
 10
14231.96732356758
 20
3732.411676487582
 30
0.0
 41
50.0
 42
50.0
 43
50.0
  0
INSERT
  5
170FB
330
16FD9
100
AcDbEntity
  8
0
  6
ByBlock
 62
     0
 48
50.0
100
AcDbBlockReference
  2
_DOTSMALL
 10
14241.96732356757
 20
3732.411676487582
 30
0.0
 41
50.0
 42
50.0
 43
50.0
 50
180.0
  0
MTEXT
  5
170FC
330
16FD9
100
AcDbEntity
  8
0
  6
ByBlock
 62
     7
 48
50.0
100
AcDbMText
 10
14388.99094561482
 20
3782.411676487582
 30
0.0
 40
60.0
 41
0.0
 71
     5
 72
     1
  1
\A1;10
  7
STYLE1
 73
     1
 44
1.0
1001
ACAD
1000
MTEXTBEGIN
1070
    73
1070
     1
1070
    44
1040
1.0
1070
    74
1070
     0
1000
MTEXTEND
  0
POINT
  5
170FD
330
16FD9
100
AcDbEntity
  8
DEFPOINTS
  6
ByBlock
 62
     0
 48
50.0
100
AcDbPoint
 10
14231.96732356758
 20
3557.613636392704
 30
0.0
  0
POINT
  5
170FE
330
16FD9
100
AcDbEntity
  8
DEFPOINTS
  6
ByBlock
 62
     0
 48
50.0
100
AcDbPoint
 10
14241.96732356757
 20
3557.387562541914
 30
0.0
  0
POINT
  5
170FF
330
16FD9
100
AcDbEntity
  8
DEFPOINTS
  6
ByBlock
 62
     0
 48
50.0
100
AcDbPoint
 10
14241.96732356757
 20
3732.411676487582
 30
0.0
  0
ENDBLK
  5
17100
330
16FD9
100
AcDbEntity
  8
0
 48
50.0
100
AcDbBlockEnd
  0
BLOCK
  5
1723F
330
16FE7
100
AcDbEntity
  8
0
 48
50.0
100
AcDbBlockBegin
  2
*D15
 70
     1
 10
0.0
 20
0.0
 30
0.0
  3
*D15
  1

  0
LINE
  5
17240
330
16FE7
100
AcDbEntity
  8
0
  6
ByBlock
 62
     0
 48
50.0
100
AcDbLine
 10
5573.599999999998
 20
2830.0
 30
0.0
 11
5573.599999999998
 21
3005.024113945669
 31
0.0
  0
LINE
  5
17241
330
16FE7
100
AcDbEntity
  8
0
  6
ByBlock
 62
     0
 48
50.0
100
AcDbLine
 10
6133.6
 20
2810.226073850791
 30
0.0
 11
6133.6
 21
3005.024113945669
 31
0.0
  0
LINE
  5
17242
330
16FE7
100
AcDbEntity
  8
0
  6
ByBlock
 62
     0
 48
50.0
100
AcDbLine
 10
5573.599999999998
 20
2975.024113945668
 30
0.0
 11
6133.6
 21
2975.024113945668
 31
0.0
  0
INSERT
  5
17243
330
16FE7
100
AcDbEntity
  8
0
  6
ByBlock
 62
     0
 48
50.0
100
AcDbBlockReference
  2
_DOTSMALL
 10
5573.599999999998
 20
2975.024113945668
 30
0.0
 41
50.0
 42
50.0
 43
50.0
 50
180.0
  0
INSERT
  5
17244
330
16FE7
100
AcDbEntity
  8
0
  6
ByBlock
 62
     0
 48
50.0
100
AcDbBlockReference
  2
_DOTSMALL
 10
6133.6
 20
2975.024113945668
 30
0.0
 41
50.0
 42
50.0
 43
50.0
  0
MTEXT
  5
17245
330
16FE7
100
AcDbEntity
  8
0
  6
ByBlock
 62
     7
 48
50.0
100
AcDbMText
 10
5853.599999999999
 20
3025.024113945669
 30
0.0
 40
60.0
 41
0.0
 71
     5
 72
     1
  1
\A1;560
  7
STYLE1
 73
     1
 44
1.0
1001
ACAD
1000
MTEXTBEGIN
1070
    73
1070
     1
1070
    44
1040
1.0
1070
    74
1070
     0
1000
MTEXTEND
  0
POINT
  5
17246
330
16FE7
100
AcDbEntity
  8
DEFPOINTS
  6
ByBlock
 62
     0
 48
50.0
100
AcDbPoint
 10
5573.599999999998
 20
2820.0
 30
0.0
  0
POINT
  5
17247
330
16FE7
100
AcDbEntity
  8
DEFPOINTS
  6
ByBlock
 62
     0
 48
50.0
100
AcDbPoint
 10
6133.6
 20
2800.226073850792
 30
0.0
  0
POINT
  5
17248
330
16FE7
100
AcDbEntity
  8
DEFPOINTS
  6
ByBlock
 62
     0
 48
50.0
100
AcDbPoint
 10
6133.6
 20
2975.024113945668
 30
0.0
  0
ENDBLK
  5
17249
330
16FE7
100
AcDbEntity
  8
0
 48
50.0
100
AcDbBlockEnd
  0
BLOCK
  5
1710C
330
16FF3
100
AcDbEntity
  8
0
 48
50.0
100
AcDbBlockBegin
  2
*D16
 70
     1
 10
0.0
 20
0.0
 30
0.0
  3
*D16
  1

  0
LINE
  5
1710D
330
16FF3
100
AcDbEntity
  8
0
  6
ByBlock
 62
     0
 48
50.0
100
AcDbLine
 10
13491.96732356757
 20
3561.055501704494
 30
0.0
 11
13491.96732356757
 21
3762.411676487582
 31
0.0
  0
LINE
  5
1710E
330
16FF3
100
AcDbEntity
  8
0
  6
ByBlock
 62
     0
 48
50.0
100
AcDbLine
 10
13531.96732356757
 20
3587.387562541913
 30
0.0
 11
13531.96732356757
 21
3762.411676487582
 31
0.0
  0
LINE
  5
1710F
330
16FF3
100
AcDbEntity
  8
0
  6
ByBlock
 62
     0
 48
50.0
100
AcDbLine
 10
13531.96732356757
 20
3732.411676487582
 30
0.0
 11
13491.96732356757
 21
3732.411676487582
 31
0.0
  0
LINE
  5
17110
330
16FF3
100
AcDbEntity
  8
0
  6
ByBlock
 62
     0
 48
50.0
100
AcDbLine
 10
13491.96732356757
 20
3732.411676487582
 30
0.0
 11
13279.92007947308
 21
3732.411676487582
 31
0.0
  0
INSERT
  5
17111
330
16FF3
100
AcDbEntity
  8
0
  6
ByBlock
 62
     0
 48
50.0
100
AcDbBlockReference
  2
_DOTSMALL
 10
13531.96732356757
 20
3732.411676487582
 30
0.0
 41
50.0
 42
50.0
 43
50.0
  0
INSERT
  5
17112
330
16FF3
100
AcDbEntity
  8
0
  6
ByBlock
 62
     0
 48
50.0
100
AcDbBlockReference
  2
_DOTSMALL
 10
13491.96732356757
 20
3732.411676487582
 30
0.0
 41
50.0
 42
50.0
 43
50.0
 50
180.0
  0
MTEXT
  5
17113
330
16FF3
100
AcDbEntity
  8
0
  6
ByBlock
 62
     7
 48
50.0
100
AcDbMText
 10
13335.94370152033
 20
3782.411676487582
 30
0.0
 40
60.0
 41
0.0
 71
     5
 72
     1
  1
\A1;40
  7
STYLE1
 73
     1
 44
1.0
1001
ACAD
1000
MTEXTBEGIN
1070
    73
1070
     1
1070
    44
1040
1.0
1070
    74
1070
     0
1000
MTEXTEND
  0
POINT
  5
17114
330
16FF3
100
AcDbEntity
  8
DEFPOINTS
  6
ByBlock
 62
     0
 48
50.0
100
AcDbPoint
 10
13491.96732356757
 20
3551.055501704494
 30
0.0
  0
POINT
  5
17115
330
16FF3
100
AcDbEntity
  8
DEFPOINTS
  6
ByBlock
 62
     0
 48
50.0
100
AcDbPoint
 10
13531.96732356757
 20
3577.387562541913
 30
0.0
  0
POINT
  5
17116
330
16FF3
100
AcDbEntity
  8
DEFPOINTS
  6
ByBlock
 62
     0
 48
50.0
100
AcDbPoint
 10
13531.96732356757
 20
3732.411676487582
 30
0.0
  0
ENDBLK
  5
17117
330
16FF3
100
AcDbEntity
  8
0
 48
50.0
100
AcDbBlockEnd
  0
BLOCK
  5
17118
330
17000
100
AcDbEntity
  8
0
 48
50.0
100
AcDbBlockBegin
  2
*D17
 70
     1
 10
0.0
 20
0.0
 30
0.0
  3
*D17
  1

  0
LINE
  5
17119
330
17000
100
AcDbEntity
  8
0
  6
ByBlock
 62
     0
 48
50.0
100
AcDbLine
 10
14235.96732356757
 20
1657.387562541913
 30
0.0
 11
14938.28066073774
 21
1657.387562541913
 31
0.0
  0
LINE
  5
1711A
330
17000
100
AcDbEntity
  8
0
  6
ByBlock
 62
     0
 48
50.0
100
AcDbLine
 10
14251.96732356757
 20
3557.387562541914
 30
0.0
 11
14938.28066073774
 21
3557.387562541914
 31
0.0
  0
LINE
  5
1711B
330
17000
100
AcDbEntity
  8
0
  6
ByBlock
 62
     0
 48
50.0
100
AcDbLine
 10
14908.28066073774
 20
1657.387562541913
 30
0.0
 11
14908.28066073774
 21
3557.387562541914
 31
0.0
  0
INSERT
  5
1711C
330
17000
100
AcDbEntity
  8
0
  6
ByBlock
 62
     0
 48
50.0
100
AcDbBlockReference
  2
_DOTSMALL
 10
14908.28066073774
 20
1657.387562541913
 30
0.0
 41
50.0
 42
50.0
 43
50.0
 50
270.0
  0
INSERT
  5
1711D
330
17000
100
AcDbEntity
  8
0
  6
ByBlock
 62
     0
 48
50.0
100
AcDbBlockReference
  2
_DOTSMALL
 10
14908.28066073774
 20
3557.387562541914
 30
0.0
 41
50.0
 42
50.0
 43
50.0
 50
90.0
  0
MTEXT
  5
1711E
330
17000
100
AcDbEntity
  8
0
  6
ByBlock
 62
     7
 48
50.0
100
AcDbMText
 10
14858.28066073774
 20
2607.387562541914
 30
0.0
 40
60.0
 41
0.0
 71
     5
 72
     1
  1
\A1;1900
  7
STYLE1
 11
0.0000000000000001
 21
1.0
 31
0.0
 73
     1
 44
1.0
1001
ACAD
1000
MTEXTBEGIN
1070
    73
1070
     1
1070
    44
1040
1.0
1070
    74
1070
     0
1000
MTEXTEND
  0
POINT
  5
1711F
330
17000
100
AcDbEntity
  8
DEFPOINTS
  6
ByBlock
 62
     0
 48
50.0
100
AcDbPoint
 10
14225.96732356757
 20
1657.387562541913
 30
0.0
  0
POINT
  5
17120
330
17000
100
AcDbEntity
  8
DEFPOINTS
  6
ByBlock
 62
     0
 48
50.0
100
AcDbPoint
 10
14241.96732356757
 20
3557.387562541914
 30
0.0
  0
POINT
  5
17121
330
17000
100
AcDbEntity
  8
DEFPOINTS
  6
ByBlock
 62
     0
 48
50.0
100
AcDbPoint
 10
14908.28066073774
 20
3557.387562541914
 30
0.0
  0
ENDBLK
  5
17122
330
17000
100
AcDbEntity
  8
0
 48
50.0
100
AcDbBlockEnd
  0
BLOCK
  5
17123
330
1700C
100
AcDbEntity
  8
0
 48
50.0
100
AcDbBlockBegin
  2
*D18
 70
     1
 10
0.0
 20
0.0
 30
0.0
  3
*D18
  1

  0
LINE
  5
17124
330
1700C
100
AcDbEntity
  8
0
  6
ByBlock
 62
     0
 48
50.0
100
AcDbLine
 10
14251.96732356757
 20
3557.387562541914
 30
0.0
 11
14766.42541328168
 21
3557.387562541914
 31
0.0
  0
LINE
  5
17125
330
1700C
100
AcDbEntity
  8
0
  6
ByBlock
 62
     0
 48
50.0
100
AcDbLine
 10
14251.96732356757
 20
3482.387562541914
 30
0.0
 11
14766.42541328168
 21
3482.387562541914
 31
0.0
  0
LINE
  5
17126
330
1700C
100
AcDbEntity
  8
0
  6
ByBlock
 62
     0
 48
50.0
100
AcDbLine
 10
14736.42541328167
 20
3557.387562541914
 30
0.0
 11
14736.42541328167
 21
3607.387562541914
 31
0.0
  0
LINE
  5
17127
330
1700C
100
AcDbEntity
  8
0
  6
ByBlock
 62
     0
 48
50.0
100
AcDbLine
 10
14736.42541328167
 20
3482.387562541914
 30
0.0
 11
14736.42541328167
 21
3432.387562541914
 31
0.0
  0
LINE
  5
17128
330
1700C
100
AcDbEntity
  8
0
  6
ByBlock
 62
     0
 48
50.0
100
AcDbLine
 10
14736.42541328167
 20
3557.387562541914
 30
0.0
 11
14736.42541328167
 21
3482.387562541914
 31
0.0
  0
INSERT
  5
17129
330
1700C
100
AcDbEntity
  8
0
  6
ByBlock
 62
     0
 48
50.0
100
AcDbBlockReference
  2
_DOTSMALL
 10
14736.42541328167
 20
3557.387562541914
 30
0.0
 41
50.0
 42
50.0
 43
50.0
 50
270.0
  0
INSERT
  5
1712A
330
1700C
100
AcDbEntity
  8
0
  6
ByBlock
 62
     0
 48
50.0
100
AcDbBlockReference
  2
_DOTSMALL
 10
14736.42541328167
 20
3482.387562541914
 30
0.0
 41
50.0
 42
50.0
 43
50.0
 50
90.0
  0
MTEXT
  5
1712B
330
1700C
100
AcDbEntity
  8
0
  6
ByBlock
 62
     7
 48
50.0
100
AcDbMText
 10
14686.42541328168
 20
3519.887562541914
 30
0.0
 40
60.0
 41
0.0
 71
     5
 72
     1
  1
\A1;75
  7
STYLE1
 11
0.0000000000000001
 21
1.0
 31
0.0
 73
     1
 44
1.0
1001
ACAD
1000
MTEXTBEGIN
1070
    73
1070
     1
1070
    44
1040
1.0
1070
    74
1070
     0
1000
MTEXTEND
  0
POINT
  5
1712C
330
1700C
100
AcDbEntity
  8
DEFPOINTS
  6
ByBlock
 62
     0
 48
50.0
100
AcDbPoint
 10
14241.96732356757
 20
3557.387562541914
 30
0.0
  0
POINT
  5
1712D
330
1700C
100
AcDbEntity
  8
DEFPOINTS
  6
ByBlock
 62
     0
 48
50.0
100
AcDbPoint
 10
14241.96732356757
 20
3482.387562541914
 30
0.0
  0
POINT
  5
1712E
330
1700C
100
AcDbEntity
  8
DEFPOINTS
  6
ByBlock
 62
     0
 48
50.0
100
AcDbPoint
 10
14736.42541328167
 20
3482.387562541914
 30
0.0
  0
ENDBLK
  5
1712F
330
1700C
100
AcDbEntity
  8
0
 48
50.0
100
AcDbBlockEnd
  0
BLOCK
  5
17130
330
1701A
100
AcDbEntity
  8
0
 48
50.0
100
AcDbBlockBegin
  2
*D19
 70
     1
 10
0.0
 20
0.0
 30
0.0
  3
*D19
  1

  0
LINE
  5
17131
330
1701A
100
AcDbEntity
  8
0
  6
ByBlock
 62
     0
 48
50.0
100
AcDbLine
 10
14251.96732356757
 20
3482.387562541914
 30
0.0
 11
14766.42541328168
 21
3482.387562541914
 31
0.0
  0
LINE
  5
17132
330
1701A
100
AcDbEntity
  8
0
  6
ByBlock
 62
     0
 48
50.0
100
AcDbLine
 10
14235.96732356757
 20
1657.387562541913
 30
0.0
 11
14766.42541328168
 21
1657.387562541913
 31
0.0
  0
LINE
  5
17133
330
1701A
100
AcDbEntity
  8
0
  6
ByBlock
 62
     0
 48
50.0
100
AcDbLine
 10
14736.42541328167
 20
3482.387562541914
 30
0.0
 11
14736.42541328167
 21
1657.387562541913
 31
0.0
  0
INSERT
  5
17134
330
1701A
100
AcDbEntity
  8
0
  6
ByBlock
 62
     0
 48
50.0
100
AcDbBlockReference
  2
_DOTSMALL
 10
14736.42541328167
 20
3482.387562541914
 30
0.0
 41
50.0
 42
50.0
 43
50.0
 50
90.0
  0
INSERT
  5
17135
330
1701A
100
AcDbEntity
  8
0
  6
ByBlock
 62
     0
 48
50.0
100
AcDbBlockReference
  2
_DOTSMALL
 10
14736.42541328167
 20
1657.387562541913
 30
0.0
 41
50.0
 42
50.0
 43
50.0
 50
270.0
  0
MTEXT
  5
17136
330
1701A
100
AcDbEntity
  8
0
  6
ByBlock
 62
     7
 48
50.0
100
AcDbMText
 10
14686.41950776986
 20
2569.887562541913
 30
0.0
 40
60.0
 41
0.0
 71
     5
 72
     1
  1
\A1;1825
  7
STYLE1
 11
0.0000000000000001
 21
1.0
 31
0.0
 73
     1
 44
1.0
1001
ACAD
1000
MTEXTBEGIN
1070
    73
1070
     1
1070
    44
1040
1.0
1070
    74
1070
     0
1000
MTEXTEND
  0
POINT
  5
17137
330
1701A
100
AcDbEntity
  8
DEFPOINTS
  6
ByBlock
 62
     0
 48
50.0
100
AcDbPoint
 10
14241.96732356757
 20
3482.387562541914
 30
0.0
  0
POINT
  5
17138
330
1701A
100
AcDbEntity
  8
DEFPOINTS
  6
ByBlock
 62
     0
 48
50.0
100
AcDbPoint
 10
14225.96732356757
 20
1657.387562541913
 30
0.0
  0
POINT
  5
17139
330
1701A
100
AcDbEntity
  8
DEFPOINTS
  6
ByBlock
 62
     0
 48
50.0
100
AcDbPoint
 10
14736.42541328167
 20
1657.387562541913
 30
0.0
  0
ENDBLK
  5
1713A
330
1701A
100
AcDbEntity
  8
0
 48
50.0
100
AcDbBlockEnd
  0
BLOCK
  5
1713B
330
17026
100
AcDbEntity
  8
0
 48
50.0
100
AcDbBlockBegin
  2
*D20
 70
     1
 10
0.0
 20
0.0
 30
0.0
  3
*D20
  1

  0
LINE
  5
1713C
330
17026
100
AcDbEntity
  8
0
  6
ByBlock
 62
     0
 48
50.0
100
AcDbLine
 10
14212.96732356757
 20
1744.387562541913
 30
0.0
 11
14586.79778193784
 21
1744.387562541913
 31
0.0
  0
LINE
  5
1713D
330
17026
100
AcDbEntity
  8
0
  6
ByBlock
 62
     0
 48
50.0
100
AcDbLine
 10
14210.96732356757
 20
2146.387562541913
 30
0.0
 11
14586.79778193784
 21
2146.387562541913
 31
0.0
  0
LINE
  5
1713E
330
17026
100
AcDbEntity
  8
0
  6
ByBlock
 62
     0
 48
50.0
100
AcDbLine
 10
14556.79778193784
 20
1744.387562541913
 30
0.0
 11
14556.79778193784
 21
2146.387562541913
 31
0.0
  0
INSERT
  5
1713F
330
17026
100
AcDbEntity
  8
0
  6
ByBlock
 62
     0
 48
50.0
100
AcDbBlockReference
  2
_DOTSMALL
 10
14556.79778193784
 20
1744.387562541913
 30
0.0
 41
50.0
 42
50.0
 43
50.0
 50
270.0
  0
INSERT
  5
17140
330
17026
100
AcDbEntity
  8
0
  6
ByBlock
 62
     0
 48
50.0
100
AcDbBlockReference
  2
_DOTSMALL
 10
14556.79778193784
 20
2146.387562541913
 30
0.0
 41
50.0
 42
50.0
 43
50.0
 50
90.0
  0
MTEXT
  5
17141
330
17026
100
AcDbEntity
  8
0
  6
ByBlock
 62
     7
 48
50.0
100
AcDbMText
 10
14506.79187642603
 20
1945.387562541913
 30
0.0
 40
60.0
 41
0.0
 71
     5
 72
     1
  1
\A1;402
  7
STYLE1
 11
0.0000000000000001
 21
1.0
 31
0.0
 73
     1
 44
1.0
1001
ACAD
1000
MTEXTBEGIN
1070
    73
1070
     1
1070
    44
1040
1.0
1070
    74
1070
     0
1000
MTEXTEND
  0
POINT
  5
17142
330
17026
100
AcDbEntity
  8
DEFPOINTS
  6
ByBlock
 62
     0
 48
50.0
100
AcDbPoint
 10
14202.96732356757
 20
1744.387562541913
 30
0.0
  0
POINT
  5
17143
330
17026
100
AcDbEntity
  8
DEFPOINTS
  6
ByBlock
 62
     0
 48
50.0
100
AcDbPoint
 10
14200.96732356757
 20
2146.387562541913
 30
0.0
  0
POINT
  5
17144
330
17026
100
AcDbEntity
  8
DEFPOINTS
  6
ByBlock
 62
     0
 48
50.0
100
AcDbPoint
 10
14556.79778193784
 20
2146.387562541913
 30
0.0
  0
ENDBLK
  5
17145
330
17026
100
AcDbEntity
  8
0
 48
50.0
100
AcDbBlockEnd
  0
BLOCK
  5
17146
330
17032
100
AcDbEntity
  8
0
 48
50.0
100
AcDbBlockBegin
  2
*D21
 70
     1
 10
0.0
 20
0.0
 30
0.0
  3
*D21
  1

  0
LINE
  5
17147
330
17032
100
AcDbEntity
  8
0
  6
ByBlock
 62
     0
 48
50.0
100
AcDbLine
 10
13588.96732356757
 20
1744.387562541913
 30
0.0
 11
13349.44260425246
 21
1744.387562541913
 31
0.0
  0
LINE
  5
17148
330
17032
100
AcDbEntity
  8
0
  6
ByBlock
 62
     0
 48
50.0
100
AcDbLine
 10
13513.96732356757
 20
3493.387562541914
 30
0.0
 11
13349.44260425246
 21
3493.387562541914
 31
0.0
  0
LINE
  5
17149
330
17032
100
AcDbEntity
  8
0
  6
ByBlock
 62
     0
 48
50.0
100
AcDbLine
 10
13379.44260425246
 20
1744.387562541913
 30
0.0
 11
13379.44260425246
 21
3493.387562541914
 31
0.0
  0
INSERT
  5
1714A
330
17032
100
AcDbEntity
  8
0
  6
ByBlock
 62
     0
 48
50.0
100
AcDbBlockReference
  2
_DOTSMALL
 10
13379.44260425246
 20
1744.387562541913
 30
0.0
 41
50.0
 42
50.0
 43
50.0
 50
270.0
  0
INSERT
  5
1714B
330
17032
100
AcDbEntity
  8
0
  6
ByBlock
 62
     0
 48
50.0
100
AcDbBlockReference
  2
_DOTSMALL
 10
13379.44260425246
 20
3493.387562541914
 30
0.0
 41
50.0
 42
50.0
 43
50.0
 50
90.0
  0
MTEXT
  5
1714C
330
17032
100
AcDbEntity
  8
0
  6
ByBlock
 62
     7
 48
50.0
100
AcDbMText
 10
13329.44260425246
 20
2618.887562541913
 30
0.0
 40
60.0
 41
0.0
 71
     5
 72
     1
  1
\A1;有効開口部高サ 1749
  7
STYLE1
 11
0.0000000000000001
 21
1.0
 31
0.0
 73
     1
 44
1.0
1001
ACAD
1000
MTEXTBEGIN
1070
    73
1070
     1
1070
    44
1040
1.0
1070
    74
1070
     0
1000
MTEXTEND
  0
POINT
  5
1714D
330
17032
100
AcDbEntity
  8
DEFPOINTS
  6
ByBlock
 62
     0
 48
50.0
100
AcDbPoint
 10
13598.96732356757
 20
1744.387562541913
 30
0.0
  0
POINT
  5
1714E
330
17032
100
AcDbEntity
  8
DEFPOINTS
  6
ByBlock
 62
     0
 48
50.0
100
AcDbPoint
 10
13523.96732356757
 20
3493.387562541914
 30
0.0
  0
POINT
  5
1714F
330
17032
100
AcDbEntity
  8
DEFPOINTS
  6
ByBlock
 62
     0
 48
50.0
100
AcDbPoint
 10
13379.44260425246
 20
3493.387562541914
 30
0.0
  0
ENDBLK
  5
17150
330
17032
100
AcDbEntity
  8
0
 48
50.0
100
AcDbBlockEnd
  0
BLOCK
  5
17151
330
1703E
100
AcDbEntity
  8
0
 48
50.0
100
AcDbBlockBegin
  2
*D22
 70
     1
 10
0.0
 20
0.0
 30
0.0
  3
*D22
  1

  0
LINE
  5
17152
330
1703E
100
AcDbEntity
  8
0
  6
ByBlock
 62
     0
 48
50.0
100
AcDbLine
 10
13891.96732356757
 20
1741.708070617602
 30
0.0
 11
13986.10138945107
 21
1716.484923683859
 31
0.0
  0
LINE
  5
17153
330
1703E
100
AcDbEntity
  8
0
  6
ByBlock
 62
     0
 48
50.0
100
AcDbLine
 10
13891.96732356757
 20
3512.708070617601
 30
0.0
 11
13986.10138945107
 21
3487.484923683857
 31
0.0
  0
LINE
  5
17154
330
1703E
100
AcDbEntity
  8
0
  6
ByBlock
 62
     0
 48
50.0
100
AcDbLine
 10
13956.10138945108
 20
1724.523399456793
 30
0.0
 11
13956.10138945108
 21
3495.523399456792
 31
0.0
  0
INSERT
  5
17155
330
1703E
100
AcDbEntity
  8
0
  6
ByBlock
 62
     0
 48
50.0
100
AcDbBlockReference
  2
_DOTSMALL
 10
13956.10138945108
 20
1724.523399456793
 30
0.0
 41
50.0
 42
50.0
 43
50.0
 50
270.0
  0
INSERT
  5
17156
330
1703E
100
AcDbEntity
  8
0
  6
ByBlock
 62
     0
 48
50.0
100
AcDbBlockReference
  2
_DOTSMALL
 10
13956.10138945108
 20
3495.523399456792
 30
0.0
 41
50.0
 42
50.0
 43
50.0
 50
90.0
  0
MTEXT
  5
17157
330
1703E
100
AcDbEntity
  8
0
  6
ByBlock
 62
     7
 48
50.0
100
AcDbMText
 10
13906.10138945107
 20
2610.023399456792
 30
0.0
 40
60.0
 41
0.0
 71
     5
 72
     1
  1
\A1;内高 1771
  7
STYLE1
 11
0.0000000000000001
 21
1.0
 31
0.0
 73
     1
 44
1.0
1001
ACAD
1000
MTEXTBEGIN
1070
    73
1070
     1
1070
    44
1040
1.0
1070
    74
1070
     0
1000
MTEXTEND
  0
POINT
  5
17158
330
1703E
100
AcDbEntity
  8
DEFPOINTS
  6
ByBlock
 62
     0
 48
50.0
100
AcDbPoint
 10
13881.96732356757
 20
1744.387562541913
 30
0.0
  0
POINT
  5
17159
330
1703E
100
AcDbEntity
  8
DEFPOINTS
  6
ByBlock
 62
     0
 48
50.0
100
AcDbPoint
 10
13881.96732356757
 20
3515.387562541911
 30
0.0
  0
POINT
  5
1715A
330
1703E
100
AcDbEntity
  8
DEFPOINTS
  6
ByBlock
 62
     0
 48
50.0
100
AcDbPoint
 10
13956.10138945108
 20
3495.523399456792
 30
0.0
  0
ENDBLK
  5
1715B
330
1703E
100
AcDbEntity
  8
0
 48
50.0
100
AcDbBlockEnd
  0
BLOCK
  5
1715C
330
1704A
100
AcDbEntity
  8
0
 48
50.0
100
AcDbBlockBegin
  2
*D23
 70
     1
 10
0.0
 20
0.0
 30
0.0
  3
*D23
  1

  0
LINE
  5
1715D
330
1704A
100
AcDbEntity
  8
0
  6
ByBlock
 62
     0
 48
50.0
100
AcDbLine
 10
13530.96732356757
 20
1657.387562541913
 30
0.0
 11
13039.54109129289
 21
1657.387562541913
 31
0.0
  0
LINE
  5
1715E
330
1704A
100
AcDbEntity
  8
0
  6
ByBlock
 62
     0
 48
50.0
100
AcDbLine
 10
13501.39664328848
 20
3577.387562541913
 30
0.0
 11
13039.54109129289
 21
3577.387562541913
 31
0.0
  0
LINE
  5
1715F
330
1704A
100
AcDbEntity
  8
0
  6
ByBlock
 62
     0
 48
50.0
100
AcDbLine
 10
13069.54109129289
 20
1657.387562541913
 30
0.0
 11
13069.54109129289
 21
3577.387562541913
 31
0.0
  0
INSERT
  5
17160
330
1704A
100
AcDbEntity
  8
0
  6
ByBlock
 62
     0
 48
50.0
100
AcDbBlockReference
  2
_DOTSMALL
 10
13069.54109129289
 20
1657.387562541913
 30
0.0
 41
50.0
 42
50.0
 43
50.0
 50
270.0
  0
INSERT
  5
17161
330
1704A
100
AcDbEntity
  8
0
  6
ByBlock
 62
     0
 48
50.0
100
AcDbBlockReference
  2
_DOTSMALL
 10
13069.54109129289
 20
3577.387562541913
 30
0.0
 41
50.0
 42
50.0
 43
50.0
 50
90.0
  0
MTEXT
  5
17162
330
1704A
100
AcDbEntity
  8
0
  6
ByBlock
 62
     7
 48
50.0
100
AcDbMText
 10
13019.52068501049
 20
2617.387562541913
 30
0.0
 40
60.0
 41
0.0
 71
     5
 72
     1
  1
\A1;1920
  7
STYLE1
 11
0.0000000000000001
 21
1.0
 31
0.0
 73
     1
 44
1.0
1001
ACAD
1000
MTEXTBEGIN
1070
    73
1070
     1
1070
    44
1040
1.0
1070
    74
1070
     0
1000
MTEXTEND
  0
POINT
  5
17163
330
1704A
100
AcDbEntity
  8
DEFPOINTS
  6
ByBlock
 62
     0
 48
50.0
100
AcDbPoint
 10
13540.96732356757
 20
1657.387562541913
 30
0.0
  0
POINT
  5
17164
330
1704A
100
AcDbEntity
  8
DEFPOINTS
  6
ByBlock
 62
     0
 48
50.0
100
AcDbPoint
 10
13511.39664328848
 20
3577.387562541913
 30
0.0
  0
POINT
  5
17165
330
1704A
100
AcDbEntity
  8
DEFPOINTS
  6
ByBlock
 62
     0
 48
50.0
100
AcDbPoint
 10
13069.54109129289
 20
3577.387562541913
 30
0.0
  0
ENDBLK
  5
17166
330
1704A
100
AcDbEntity
  8
0
 48
50.0
100
AcDbBlockEnd
  0
BLOCK
  5
17167
330
17056
100
AcDbEntity
  8
0
 48
50.0
100
AcDbBlockBegin
  2
*D24
 70
     1
 10
0.0
 20
0.0
 30
0.0
  3
*D24
  1

  0
LINE
  5
17168
330
17056
100
AcDbEntity
  8
0
  6
ByBlock
 62
     0
 48
50.0
100
AcDbLine
 10
13501.39664328848
 20
3577.387562541913
 30
0.0
 11
13183.32824343035
 21
3577.387562541913
 31
0.0
  0
LINE
  5
17169
330
17056
100
AcDbEntity
  8
0
  6
ByBlock
 62
     0
 48
50.0
100
AcDbLine
 10
13213.32824343035
 20
1663.387562541913
 30
0.0
 11
13213.32824343035
 21
3577.387562541913
 31
0.0
  0
INSERT
  5
1716A
330
17056
100
AcDbEntity
  8
0
  6
ByBlock
 62
     0
 48
50.0
100
AcDbBlockReference
  2
_DOTSMALL
 10
13213.32824343035
 20
1663.387562541913
 30
0.0
 41
50.0
 42
50.0
 43
50.0
 50
270.0
  0
INSERT
  5
1716B
330
17056
100
AcDbEntity
  8
0
  6
ByBlock
 62
     0
 48
50.0
100
AcDbBlockReference
  2
_DOTSMALL
 10
13213.32824343035
 20
3577.387562541913
 30
0.0
 41
50.0
 42
50.0
 43
50.0
 50
90.0
  0
MTEXT
  5
1716C
330
17056
100
AcDbEntity
  8
0
  6
ByBlock
 62
     7
 48
50.0
100
AcDbMText
 10
13163.32824343035
 20
2620.387562541913
 30
0.0
 40
60.0
 41
0.0
 71
     5
 72
     1
  1
\A1;1917
  7
STYLE1
 11
0.0000000000000001
 21
1.0
 31
0.0
 73
     1
 44
1.0
1001
ACAD
1000
MTEXTBEGIN
1070
    73
1070
     1
1070
    44
1040
1.0
1070
    74
1070
     0
1000
MTEXTEND
  0
POINT
  5
1716D
330
17056
100
AcDbEntity
  8
DEFPOINTS
  6
ByBlock
 62
     0
 48
50.0
100
AcDbPoint
 10
13536.96732356757
 20
1663.387562541913
 30
0.0
  0
POINT
  5
1716E
330
17056
100
AcDbEntity
  8
DEFPOINTS
  6
ByBlock
 62
     0
 48
50.0
100
AcDbPoint
 10
13511.39664328848
 20
3577.387562541913
 30
0.0
  0
POINT
  5
1716F
330
17056
100
AcDbEntity
  8
DEFPOINTS
  6
ByBlock
 62
     0
 48
50.0
100
AcDbPoint
 10
13213.32824343035
 20
3577.387562541913
 30
0.0
  0
ENDBLK
  5
17170
330
17056
100
AcDbEntity
  8
0
 48
50.0
100
AcDbBlockEnd
  0
BLOCK
  5
17171
330
17061
100
AcDbEntity
  8
0
 48
50.0
100
AcDbBlockBegin
  2
*D25
 70
     1
 10
0.0
 20
0.0
 30
0.0
  3
*D25
  1

  0
LINE
  5
17172
330
17061
100
AcDbEntity
  8
0
  6
ByBlock
 62
     0
 48
50.0
100
AcDbLine
 10
13530.96732356757
 20
1657.387562541913
 30
0.0
 11
13183.32824343035
 21
1657.387562541913
 31
0.0
  0
LINE
  5
17173
330
17061
100
AcDbEntity
  8
0
  6
ByBlock
 62
     0
 48
50.0
100
AcDbLine
 10
13526.96732356757
 20
1663.387562541913
 30
0.0
 11
13183.32824343035
 21
1663.387562541913
 31
0.0
  0
LINE
  5
17174
330
17061
100
AcDbEntity
  8
0
  6
ByBlock
 62
     0
 48
50.0
100
AcDbLine
 10
13213.32824343035
 20
1657.387562541913
 30
0.0
 11
13213.32824343035
 21
1607.387562541913
 31
0.0
  0
LINE
  5
17175
330
17061
100
AcDbEntity
  8
0
  6
ByBlock
 62
     0
 48
50.0
100
AcDbLine
 10
13213.32824343035
 20
1663.387562541913
 30
0.0
 11
13213.32824343035
 21
1713.387562541913
 31
0.0
  0
MTEXT
  5
17176
330
17061
100
AcDbEntity
  8
0
  6
ByBlock
 62
     7
 48
50.0
100
AcDbMText
 10
13163.32824343035
 20
1627.811750463465
 30
0.0
 40
60.0
 41
0.0
 71
     5
 72
     1
  1
\A1;3
  7
STYLE1
 11
0.0000000000000001
 21
1.0
 31
0.0
 73
     1
 44
1.0
1001
ACAD
1000
MTEXTBEGIN
1070
    73
1070
     1
1070
    44
1040
1.0
1070
    74
1070
     0
1000
MTEXTEND
  0
LINE
  5
17177
330
17061
100
AcDbEntity
  8
0
  6
ByBlock
 62
     0
 48
50.0
100
AcDbLine
 10
13213.32824343035
 20
1657.387562541913
 30
0.0
 11
13213.32824343035
 21
1663.387562541913
 31
0.0
  0
LINE
  5
17178
330
17061
100
AcDbEntity
  8
0
  6
ByBlock
 62
     0
 48
50.0
100
AcDbLine
 10
13213.32824343035
 20
1657.387562541913
 30
0.0
 11
13213.32824343035
 21
1663.387562541913
 31
0.0
  0
INSERT
  5
17179
330
17061
100
AcDbEntity
  8
0
  6
ByBlock
 62
     0
 48
50.0
100
AcDbBlockReference
  2
_DOTSMALL
 10
13213.32824343035
 20
1657.387562541913
 30
0.0
 41
50.0
 42
50.0
 43
50.0
 50
90.0
  0
INSERT
  5
1717A
330
17061
100
AcDbEntity
  8
0
  6
ByBlock
 62
     0
 48
50.0
100
AcDbBlockReference
  2
_DOTSMALL
 10
13213.32824343035
 20
1663.387562541913
 30
0.0
 41
50.0
 42
50.0
 43
50.0
 50
270.0
  0
POINT
  5
1717B
330
17061
100
AcDbEntity
  8
DEFPOINTS
  6
ByBlock
 62
     0
 48
50.0
100
AcDbPoint
 10
13540.96732356757
 20
1657.387562541913
 30
0.0
  0
POINT
  5
1717C
330
17061
100
AcDbEntity
  8
DEFPOINTS
  6
ByBlock
 62
     0
 48
50.0
100
AcDbPoint
 10
13536.96732356757
 20
1663.387562541913
 30
0.0
  0
POINT
  5
1717D
330
17061
100
AcDbEntity
  8
DEFPOINTS
  6
ByBlock
 62
     0
 48
50.0
100
AcDbPoint
 10
13213.32824343035
 20
1663.387562541913
 30
0.0
  0
ENDBLK
  5
1717E
330
17061
100
AcDbEntity
  8
0
 48
50.0
100
AcDbBlockEnd
  0
BLOCK
  5
1717F
330
17070
100
AcDbEntity
  8
0
 48
50.0
100
AcDbBlockBegin
  2
*D26
 70
     1
 10
0.0
 20
0.0
 30
0.0
  3
*D26
  1

  0
LINE
  5
17180
330
17070
100
AcDbEntity
  8
0
  6
ByBlock
 62
     0
 48
50.0
100
AcDbLine
 10
14210.96732356757
 20
3121.387562541913
 30
0.0
 11
14586.79778193784
 21
3121.387562541913
 31
0.0
  0
LINE
  5
17181
330
17070
100
AcDbEntity
  8
0
  6
ByBlock
 62
     0
 48
50.0
100
AcDbLine
 10
14556.79778193784
 20
2146.387562541913
 30
0.0
 11
14556.79778193784
 21
3121.387562541913
 31
0.0
  0
INSERT
  5
17182
330
17070
100
AcDbEntity
  8
0
  6
ByBlock
 62
     0
 48
50.0
100
AcDbBlockReference
  2
_DOTSMALL
 10
14556.79778193784
 20
2146.387562541913
 30
0.0
 41
50.0
 42
50.0
 43
50.0
 50
270.0
  0
INSERT
  5
17183
330
17070
100
AcDbEntity
  8
0
  6
ByBlock
 62
     0
 48
50.0
100
AcDbBlockReference
  2
_DOTSMALL
 10
14556.79778193784
 20
3121.387562541913
 30
0.0
 41
50.0
 42
50.0
 43
50.0
 50
90.0
  0
MTEXT
  5
17184
330
17070
100
AcDbEntity
  8
0
  6
ByBlock
 62
     7
 48
50.0
100
AcDbMText
 10
14506.79778193784
 20
2633.887562541913
 30
0.0
 40
60.0
 41
0.0
 71
     5
 72
     1
  1
\A1;65x15=975
  7
STYLE1
 11
0.0000000000000001
 21
1.0
 31
0.0
 73
     1
 44
1.0
1001
ACAD
1000
MTEXTBEGIN
1070
    73
1070
     1
1070
    44
1040
1.0
1070
    74
1070
     0
1000
MTEXTEND
  0
POINT
  5
17185
330
17070
100
AcDbEntity
  8
DEFPOINTS
  6
ByBlock
 62
     0
 48
50.0
100
AcDbPoint
 10
14200.96732356757
 20
2146.387562541913
 30
0.0
  0
POINT
  5
17186
330
17070
100
AcDbEntity
  8
DEFPOINTS
  6
ByBlock
 62
     0
 48
50.0
100
AcDbPoint
 10
14200.96732356757
 20
3121.387562541913
 30
0.0
  0
POINT
  5
17187
330
17070
100
AcDbEntity
  8
DEFPOINTS
  6
ByBlock
 62
     0
 48
50.0
100
AcDbPoint
 10
14556.79778193784
 20
3121.387562541913
 30
0.0
  0
ENDBLK
  5
17188
330
17070
100
AcDbEntity
  8
0
 48
50.0
100
AcDbBlockEnd
  0
BLOCK
  5
17189
330
1707B
100
AcDbEntity
  8
0
 48
50.0
100
AcDbBlockBegin
  2
*D27
 70
     1
 10
0.0
 20
0.0
 30
0.0
  3
*D27
  1

  0
LINE
  5
1718A
330
1707B
100
AcDbEntity
  8
0
  6
ByBlock
 62
     0
 48
50.0
100
AcDbLine
 10
14210.96732356757
 20
3121.387562541913
 30
0.0
 11
14424.45829277089
 21
3121.387562541913
 31
0.0
  0
LINE
  5
1718B
330
1707B
100
AcDbEntity
  8
0
  6
ByBlock
 62
     0
 48
50.0
100
AcDbLine
 10
14210.96732356757
 20
3091.387562541914
 30
0.0
 11
14424.45829277089
 21
3091.387562541914
 31
0.0
  0
LINE
  5
1718C
330
1707B
100
AcDbEntity
  8
0
  6
ByBlock
 62
     0
 48
50.0
100
AcDbLine
 10
14394.45829277089
 20
3121.387562541913
 30
0.0
 11
14394.45829277089
 21
3171.387562541913
 31
0.0
  0
LINE
  5
1718D
330
1707B
100
AcDbEntity
  8
0
  6
ByBlock
 62
     0
 48
50.0
100
AcDbLine
 10
14394.45829277089
 20
3091.387562541914
 30
0.0
 11
14394.45829277089
 21
2885.340318447425
 31
0.0
  0
LINE
  5
1718E
330
1707B
100
AcDbEntity
  8
0
  6
ByBlock
 62
     0
 48
50.0
100
AcDbLine
 10
14394.45829277089
 20
3121.387562541913
 30
0.0
 11
14394.45829277089
 21
3091.387562541914
 31
0.0
  0
INSERT
  5
1718F
330
1707B
100
AcDbEntity
  8
0
  6
ByBlock
 62
     0
 48
50.0
100
AcDbBlockReference
  2
_DOTSMALL
 10
14394.45829277089
 20
3121.387562541913
 30
0.0
 41
50.0
 42
50.0
 43
50.0
 50
270.0
  0
INSERT
  5
17190
330
1707B
100
AcDbEntity
  8
0
  6
ByBlock
 62
     0
 48
50.0
100
AcDbBlockReference
  2
_DOTSMALL
 10
14394.45829277089
 20
3091.387562541914
 30
0.0
 41
50.0
 42
50.0
 43
50.0
 50
90.0
  0
MTEXT
  5
17191
330
1707B
100
AcDbEntity
  8
0
  6
ByBlock
 62
     7
 48
50.0
100
AcDbMText
 10
14344.45829277089
 20
2938.363940494669
 30
0.0
 40
60.0
 41
0.0
 71
     5
 72
     1
  1
\A1;30
  7
STYLE1
 11
0.0000000000000001
 21
1.0
 31
0.0
 73
     1
 44
1.0
1001
ACAD
1000
MTEXTBEGIN
1070
    73
1070
     1
1070
    44
1040
1.0
1070
    74
1070
     0
1000
MTEXTEND
  0
POINT
  5
17192
330
1707B
100
AcDbEntity
  8
DEFPOINTS
  6
ByBlock
 62
     0
 48
50.0
100
AcDbPoint
 10
14200.96732356757
 20
3121.387562541913
 30
0.0
  0
POINT
  5
17193
330
1707B
100
AcDbEntity
  8
DEFPOINTS
  6
ByBlock
 62
     0
 48
50.0
100
AcDbPoint
 10
14200.96732356757
 20
3091.387562541914
 30
0.0
  0
POINT
  5
17194
330
1707B
100
AcDbEntity
  8
DEFPOINTS
  6
ByBlock
 62
     0
 48
50.0
100
AcDbPoint
 10
14394.45829277089
 20
3091.387562541914
 30
0.0
  0
ENDBLK
  5
17195
330
1707B
100
AcDbEntity
  8
0
 48
50.0
100
AcDbBlockEnd
  0
ENDSEC
  0
SECTION
  2
ENTITIES
  0
LINE
  5
10B56
330
747D
100
AcDbEntity
  8
補助
  6
PHANTOM
 62
   230
 48
50.0
100
AcDbLine
 10
70.0
 20
0.0
 30
0.0
 11
69.99999999999975
 21
5704.8
 31
0.0
  0
LINE
  5
10B57
330
747D
100
AcDbEntity
  8
補助
  6
PHANTOM
 62
   230
 48
50.0
100
AcDbLine
 10
69.99999999999975
 20
5704.8
 30
0.0
 11
8153.6
 21
5704.8
 31
0.0
  0
LINE
  5
10B59
330
747D
100
AcDbEntity
  8
仕様書枠
  6
Continuous
 48
50.0
100
AcDbLine
 10
6553.6
 20
600.0
 30
0.0
 11
6553.6
 21
-0.0000000000000365
 31
0.0
  0
LINE
  5
10B5C
330
747D
100
AcDbEntity
  8
仕様書枠
 48
50.0
100
AcDbLine
 10
8153.6
 20
600.0
 30
0.0
 11
8153.6
 21
-0.0000000000000455
 31
0.0
  0
LINE
  5
10B5D
330
747D
100
AcDbEntity
  8
仕様書枠
 48
50.0
100
AcDbLine
 10
70.0
 20
0.0
 30
0.0
 11
8153.6
 21
-0.0000000000000455
 31
0.0
  0
LINE
  5
10B5E
330
747D
100
AcDbEntity
  8
補助
  6
PHANTOM
 62
   230
 48
50.0
100
AcDbLine
 10
8153.6
 20
5704.8
 30
0.0
 11
8153.6
 21
600.0
 31
0.0
  0
LINE
  5
10B6C
330
747D
100
AcDbEntity
  8
仕様書枠
 48
50.0
100
AcDbLine
 10
6553.6
 20
600.0
 30
0.0
 11
8153.6
 21
600.0
 31
0.0
  0
LINE
  5
10B6D
330
747D
100
AcDbEntity
  8
補助
  6
PHANTOM
 62
   230
 48
50.0
100
AcDbLine
 10
6553.6
 20
5704.8
 30
0.0
 11
6553.6
 21
2400.0
 31
0.0
  0
LINE
  5
10B6F
330
747D
100
AcDbEntity
  8
補助
  6
PHANTOM
 62
   230
 48
50.0
100
AcDbLine
 10
6553.6
 20
2400.0
 30
0.0
 11
8153.6
 21
2400.0
 31
0.0
  0
LINE
  5
10B72
330
747D
100
AcDbEntity
  8
文字
 62
     7
 48
50.0
100
AcDbLine
 10
6593.600000000001
 20
200.0
 30
0.0
 11
8113.600000000001
 21
200.0
 31
0.0
  0
TEXT
  5
10B73
330
747D
100
AcDbEntity
  8
文字
 62
     7
 48
50.0
100
AcDbText
 10
6581.48952828845
 20
447.5453037149702
 30
0.0
 40
100.0
  1
外 形 図
  7
STYLE2
100
AcDbText
  0
TEXT
  5
10B74
330
747D
100
AcDbEntity
  8
文字
 62
     7
 48
50.0
100
AcDbText
 10
6600.718349992208
 20
238.6370330515628
 30
0.0
 40
80.0
  1
機種名
  7
STYLE2
100
AcDbText
  0
TEXT
  5
10B79
330
747D
100
AcDbEntity
  8
文字
 62
     7
 48
50.0
100
AcDbText
 10
7262.065918610999
 20
515.7788531456143
 30
0.0
 40
50.0
  1
NO.48     <縮尺> S=1/20
  7
STYLE2
100
AcDbText
  0
LINE
  5
10B7B
330
747D
100
AcDbEntity
  8
仕様書枠
 48
50.0
100
AcDbLine
 10
6553.6
 20
400.0
 30
0.0
 11
7125.6
 21
400.0
 31
0.0
  0
LINE
  5
10B88
330
747D
100
AcDbEntity
  8
仕様書枠
  6
Continuous
 48
50.0
100
AcDbLine
 10
7125.6
 20
600.0
 30
0.0
 11
7125.6
 21
400.0
 31
0.0
  0
LINE
  5
14A07
330
747D
100
AcDbEntity
  8
Ｇ．Ｌ
 48
50.0
100
AcDbLine
 10
1442.098280204279
 20
800.0
 30
0.0
 11
6877.712652249093
 21
800.0
 31
0.0
  0
LINE
  5
14A0F
330
747D
100
AcDbEntity
  8
部品1
 48
50.0
100
AcDbLine
 10
2622.099999999999
 20
971.0
 30
0.0
 11
2622.100000000001
 21
2740.0
 31
0.0
  0
LINE
  5
14A10
330
747D
100
AcDbEntity
  8
部品1
 48
50.0
100
AcDbLine
 10
2103.6
 20
958.0
 30
0.0
 11
2103.6
 21
2737.608798583754
 31
0.0
  0
LINE
  5
14A11
330
747D
100
AcDbEntity
  8
部品1
 48
50.0
100
AcDbLine
 10
2138.6
 20
958.0
 30
0.0
 11
2138.599999999998
 21
2793.999999999999
 31
0.0
  0
LINE
  5
14A12
330
747D
100
AcDbEntity
  8
部品1
 48
50.0
100
AcDbLine
 10
2126.1
 20
958.0
 30
0.0
 11
2126.1
 21
2817.784080852784
 31
0.0
  0
LINE
  5
14A13
330
747D
100
AcDbEntity
  8
部品1
 48
50.0
100
AcDbLine
 10
2116.1
 20
958.0
 30
0.0
 11
2116.1
 21
2817.784080852785
 31
0.0
  0
LINE
  5
14A14
330
747D
100
AcDbEntity
  8
部品1
 48
50.0
100
AcDbLine
 10
4168.600000000002
 20
958.0
 30
0.0
 11
4168.600000000004
 21
2814.999999999998
 31
0.0
  0
LINE
  5
14A15
330
747D
100
AcDbEntity
  8
部品1
 48
50.0
100
AcDbLine
 10
4181.100000000002
 20
958.0
 30
0.0
 11
4181.100000000002
 21
2817.784080852784
 31
0.0
  0
LINE
  5
14A16
330
747D
100
AcDbEntity
  8
部品1
 48
50.0
100
AcDbLine
 10
4191.100000000002
 20
958.0
 30
0.0
 11
4191.100000000002
 21
2817.784080852785
 31
0.0
  0
LINE
  5
14A17
330
747D
100
AcDbEntity
  8
部品1
 48
50.0
100
AcDbLine
 10
4203.6
 20
958.0
 30
0.0
 11
4203.6
 21
2737.608798583754
 31
0.0
  0
LINE
  5
14A18
330
747D
100
AcDbEntity
  8
部品1
 48
50.0
100
AcDbLine
 10
2622.099999999999
 20
971.0000000000004
 30
0.0
 11
3685.100000000002
 21
971.0
 31
0.0
  0
LINE
  5
14A19
330
747D
100
AcDbEntity
  8
部品1
 48
50.0
100
AcDbLine
 10
2138.6
 20
968.0
 30
0.0
 11
4168.600000000002
 21
968.0
 31
0.0
  0
LINE
  5
14A1A
330
747D
100
AcDbEntity
  8
部品1
 48
50.0
100
AcDbLine
 10
2111.6
 20
906.0
 30
0.0
 11
4195.6
 21
906.0
 31
0.0
  0
LINE
  5
14A1B
330
747D
100
AcDbEntity
  8
部品1
 48
50.0
100
AcDbLine
 10
2103.6
 20
958.0
 30
0.0
 11
4203.6
 21
958.0
 31
0.0
  0
LINE
  5
14A1C
330
747D
100
AcDbEntity
  8
部品1
 48
50.0
100
AcDbLine
 10
2116.1
 20
900.0
 30
0.0
 11
4191.1
 21
900.0
 31
0.0
  0
LINE
  5
14A1D
330
747D
100
AcDbEntity
  8
部品1
 48
50.0
100
AcDbLine
 10
2150.599999999998
 20
978.5
 30
0.0
 11
2622.099999999999
 21
978.5000000000005
 31
0.0
  0
TEXT
  5
14A1E
330
747D
100
AcDbEntity
  8
文字
 48
50.0
100
AcDbText
 10
1491.367660083242
 20
808.888361120451
 30
0.0
 40
70.0
  1
▽G.L
  7
STYLE2
100
AcDbText
  0
LINE
  5
14A1F
330
747D
100
AcDbEntity
  8
部品1
 48
50.0
100
AcDbLine
 10
2116.1
 20
800.0
 30
0.0
 11
2116.1
 21
906.0
 31
0.0
  0
LINE
  5
14A20
330
747D
100
AcDbEntity
  8
部品1
 48
50.0
100
AcDbLine
 10
2146.6
 20
968.0
 30
0.0
 11
2150.599999999998
 21
978.5
 31
0.0
  0
LINE
  5
14A21
330
747D
100
AcDbEntity
  8
部品1
 48
50.0
100
AcDbLine
 10
2111.6
 20
906.0
 30
0.0
 11
2111.6
 21
958.0
 31
0.0
  0
LINE
  5
14A22
330
747D
100
AcDbEntity
  8
部品1
100
AcDbLine
 10
3344.467666557111
 20
509.9461607727662
 30
0.0
 11
2962.732333442891
 21
509.9461607727662
 31
0.0
  0
LINE
  5
14A23
330
747D
100
AcDbEntity
  8
部品1
100
AcDbLine
 10
2962.732333442891
 20
390.0
 30
0.0
 11
3344.467666557111
 21
390.0
 31
0.0
  0
TEXT
  5
14A24
330
747D
100
AcDbEntity
  8
部品1
100
AcDbText
 10
3007.995035311869
 20
413.4993961635045
 30
0.0
 40
67.5
  1
正面図
  7
STYLE2
100
AcDbText
  0
LINE
  5
14A25
330
747D
100
AcDbEntity
  8
部品1
100
AcDbLine
 10
2962.732333442891
 20
509.9461607727662
 30
0.0
 11
2962.732333442891
 21
390.0
 31
0.0
  0
LINE
  5
14A26
330
747D
100
AcDbEntity
  8
部品1
100
AcDbLine
 10
3344.467666557111
 20
390.0
 30
0.0
 11
3344.467666557111
 21
509.9461607727662
 31
0.0
  0
LINE
  5
14A27
330
747D
100
AcDbEntity
  8
部品1
 48
50.0
100
AcDbLine
 10
3053.6
 20
800.0
 30
0.0
 11
3053.6
 21
900.0
 31
0.0
  0
LINE
  5
14A28
330
747D
100
AcDbEntity
  8
部品1
 48
50.0
100
AcDbLine
 10
2316.1
 20
800.0
 30
0.0
 11
2316.1
 21
900.0
 31
0.0
  0
LINE
  5
14A29
330
747D
100
AcDbEntity
  8
部品1
 48
50.0
100
AcDbLine
 10
3253.6
 20
800.0
 30
0.0
 11
3253.6
 21
900.0
 31
0.0
  0
LINE
  5
14A2B
330
747D
100
AcDbEntity
  8
部品1
 48
50.0
100
AcDbLine
 10
4191.1
 20
800.0
 30
0.0
 11
4191.1
 21
906.0
 31
0.0
  0
LINE
  5
14A2C
330
747D
100
AcDbEntity
  8
部品1
 48
50.0
100
AcDbLine
 10
3991.1
 20
800.0
 30
0.0
 11
3991.1
 21
900.0
 31
0.0
  0
LINE
  5
14A2D
330
747D
100
AcDbEntity
  8
部品1
 48
50.0
100
AcDbLine
 10
4195.600000000002
 20
906.0
 30
0.0
 11
4195.6
 21
958.0
 31
0.0
  0
LINE
  5
14A2E
330
747D
100
AcDbEntity
  8
部品1
100
AcDbLine
 10
6044.46766655711
 20
390.0
 30
0.0
 11
6044.46766655711
 21
509.9461607727662
 31
0.0
  0
LINE
  5
14A2F
330
747D
100
AcDbEntity
  8
部品1
100
AcDbLine
 10
5662.73233344289
 20
509.9461607727662
 30
0.0
 11
5662.73233344289
 21
390.0
 31
0.0
  0
TEXT
  5
14A30
330
747D
100
AcDbEntity
  8
部品1
100
AcDbText
 10
5707.455384154695
 20
413.4993961635045
 30
0.0
 40
67.5
  1
側面図
  7
STYLE2
100
AcDbText
  0
LINE
  5
14A31
330
747D
100
AcDbEntity
  8
部品1
100
AcDbLine
 10
5662.73233344289
 20
390.0
 30
0.0
 11
6044.46766655711
 21
390.0
 31
0.0
  0
LINE
  5
14A32
330
747D
100
AcDbEntity
  8
部品1
100
AcDbLine
 10
6044.46766655711
 20
509.9461607727662
 30
0.0
 11
5662.73233344289
 21
509.9461607727662
 31
0.0
  0
DIMENSION
  5
14A49
330
747D
100
AcDbEntity
  8
寸法
 48
50.0
100
AcDbDimension
  2
*D6
 10
4208.600000000004
 20
3103.220335370565
 30
0.0
 11
3153.600000000001
 21
3153.226240882375
 31
0.0
 70
    32
 71
     5
 42
-1.0
  3
INABA_S20G
100
AcDbAlignedDimension
 13
2098.599999999997
 23
2813.560713214081
 33
0.0
 14
4208.600000000004
 24
2813.560713214081
 34
0.0
100
AcDbRotatedDimension
  0
DIMENSION
  5
14A4A
330
747D
100
AcDbEntity
  8
寸法
 48
50.0
100
AcDbDimension
  2
*D4
 10
4203.6
 20
2975.024113945668
 30
0.0
 11
3153.600000000001
 21
3025.03001945748
 31
0.0
 70
    32
 71
     5
 42
-1.0
  3
INABA_S20G
100
AcDbAlignedDimension
 13
2103.6
 23
2817.391201416256
 33
0.0
 14
4203.6
 24
2817.391201416256
 34
0.0
100
AcDbRotatedDimension
1001
ACAD
1000
DSTYLE
1002
{
1002
}
  0
LINE
  5
14A4B
330
747D
100
AcDbEntity
  8
細線
 48
50.0
100
AcDbLine
 10
2138.599999999998
 20
2746.000000000001
 30
0.0
 11
4168.600000000002
 21
2746.0
 31
0.0
  0
LINE
  5
14A4C
330
747D
100
AcDbEntity
  8
細線
 48
50.0
100
AcDbLine
 10
2138.599999999998
 20
2752.000000000001
 30
0.0
 11
4168.600000000002
 21
2752.0
 31
0.0
  0
LINE
  5
14A4D
330
747D
100
AcDbEntity
  8
細線
 48
50.0
100
AcDbLine
 10
2138.599999999998
 20
2758.000000000001
 30
0.0
 11
4168.600000000002
 21
2758.0
 31
0.0
  0
LINE
  5
14A4E
330
747D
100
AcDbEntity
  8
細線
 48
50.0
100
AcDbLine
 10
2138.599999999998
 20
2764.0
 30
0.0
 11
4168.600000000002
 21
2764.0
 31
0.0
  0
LINE
  5
14A4F
330
747D
100
AcDbEntity
  8
部品1
 48
50.0
100
AcDbLine
 10
2138.599999999998
 20
2770.0
 30
0.0
 11
4168.600000000002
 21
2770.0
 31
0.0
  0
LINE
  5
14A50
330
747D
100
AcDbEntity
  8
細線
 48
50.0
100
AcDbLine
 10
2138.599999999998
 20
2795.0
 30
0.0
 11
4168.600000000002
 21
2795.0
 31
0.0
  0
LINE
  5
14A52
330
747D
100
AcDbEntity
  8
部品1
 48
50.0
100
AcDbLine
 10
2138.599999999998
 20
2740.0
 30
0.0
 11
4168.6
 21
2739.999999999999
 31
0.0
  0
LINE
  5
14A54
330
747D
100
AcDbEntity
  8
部品1
 48
50.0
100
AcDbLine
 10
2138.599999999997
 20
2814.999999999999
 30
0.0
 11
4168.600000000004
 21
2814.999999999999
 31
0.0
  0
DIMENSION
  5
14A55
330
747D
100
AcDbEntity
  8
寸法
 48
50.0
100
AcDbDimension
  2
*D3
 10
2103.6
 20
2975.024113945668
 30
0.0
 11
1950.556033268307
 21
2975.024113945668
 31
0.0
 70
   160
 71
     5
 42
-1.0
  3
INABA_S20G
100
AcDbAlignedDimension
 13
2098.599999999997
 23
2813.560713214081
 33
0.0
 14
2103.6
 24
2817.391201416256
 34
0.0
100
AcDbRotatedDimension
  0
ARC
  5
14A56
330
747D
100
AcDbEntity
  8
部品1
 48
20.0
100
AcDbCircle
 10
3159.099999999999
 20
1920.999999999992
 30
0.0
 40
1000.0
100
AcDbArc
 50
173.3545336357521
 51
186.6454663642471
  0
ARC
  5
14A57
330
747D
100
AcDbEntity
  8
部品1
 48
20.0
100
AcDbCircle
 10
1229.099999999998
 20
1920.999999999992
 30
0.0
 40
1000.0
100
AcDbArc
 50
353.354533635753
 51
6.645466364247897
  0
LINE
  5
14A58
330
747D
100
AcDbEntity
  8
部品1
 48
20.0
100
AcDbLine
 10
2189.099999999998
 20
2018.429621181402
 30
0.0
 11
2189.099999999998
 21
1823.570378818596
 31
0.0
  0
LINE
  5
14A59
330
747D
100
AcDbEntity
  8
部品1
 48
20.0
100
AcDbLine
 10
2199.099999999998
 20
2018.429621181404
 30
0.0
 11
2199.099999999998
 21
1823.570378818596
 31
0.0
  0
ARC
  5
14A5A
330
747D
100
AcDbEntity
  8
細線
 48
50.0
100
AcDbCircle
 10
1229.099999999998
 20
1920.999999999992
 30
0.0
 40
995.0
100
AcDbArc
 50
353.354533635753
 51
6.645466364247897
  0
ARC
  5
14A5B
330
747D
100
AcDbEntity
  8
細線
 48
50.0
100
AcDbCircle
 10
3159.099999999999
 20
1920.999999999992
 30
0.0
 40
995.0
100
AcDbArc
 50
173.3545336357521
 51
186.6454663642471
  0
ARC
  5
14A5C
330
747D
100
AcDbEntity
  8
部品1
 48
20.0
100
AcDbCircle
 10
2194.099999999997
 20
2195.999999999999
 30
0.0
 40
400.0
100
AcDbArc
 50
267.3033948452958
 51
272.6966051547048
  0
ARC
  5
14A5D
330
747D
100
AcDbEntity
  8
部品1
 48
20.0
100
AcDbCircle
 10
2212.448433418348
 20
1806.43186091379
 30
0.0
 40
10.0
100
AcDbArc
 50
272.696605154706
 51
353.3545336357532
  0
ARC
  5
14A5E
330
747D
100
AcDbEntity
  8
部品1
 48
20.0
100
AcDbCircle
 10
2175.751566581648
 20
1806.43186091379
 30
0.0
 40
10.0
100
AcDbArc
 50
186.6454663642466
 51
267.3033948452959
  0
ELLIPSE
  5
14A5F
330
747D
100
AcDbEntity
  8
部品1
100
AcDbEllipse
 10
2194.099999999998
 20
1823.570378818596
 30
0.0
 11
0.0
 21
-9.770631002828395
 31
0.0
210
0.0
220
0.0
230
-1.0
 40
0.5117376757501746
 41
4.712388980384689
 42
7.853981633974482
  0
ARC
  5
14A60
330
747D
100
AcDbEntity
  8
細線
 48
50.0
100
AcDbCircle
 10
2194.099999999997
 20
2195.999999999999
 30
0.0
 40
395.0
100
AcDbArc
 50
267.3033948452958
 51
272.6966051547048
  0
ARC
  5
14A61
330
747D
100
AcDbEntity
  8
細線
 48
50.0
100
AcDbCircle
 10
2212.448433418348
 20
1806.43186091379
 30
0.0
 40
5.0
100
AcDbArc
 50
272.6966051547074
 51
353.3545336357531
  0
ARC
  5
14A62
330
747D
100
AcDbEntity
  8
細線
 48
50.0
100
AcDbCircle
 10
2175.751566581648
 20
1806.43186091379
 30
0.0
 40
5.0
100
AcDbArc
 50
186.6454663642461
 51
267.3033948452958
  0
ARC
  5
14A63
330
747D
100
AcDbEntity
  8
部品1
 48
20.0
100
AcDbCircle
 10
2175.75156658165
 20
2035.568139086209
 30
0.0
 40
10.0
100
AcDbArc
 50
92.6966051547043
 51
173.3545336357529
  0
ARC
  5
14A64
330
747D
100
AcDbEntity
  8
部品1
 48
20.0
100
AcDbCircle
 10
2212.448433418348
 20
2035.568139086208
 30
0.0
 40
10.0
100
AcDbArc
 50
6.64546636425039
 51
87.3033948452954
  0
ELLIPSE
  5
14A65
330
747D
100
AcDbEntity
  8
部品1
100
AcDbEllipse
 10
2194.099999999998
 20
2018.429621181401
 30
0.0
 11
0.0
 21
9.770631002828395
 31
0.0
210
0.0
220
0.0
230
1.0
 40
0.5117376757501746
 41
4.712388980384689
 42
7.853981633974482
  0
ARC
  5
14A66
330
747D
100
AcDbEntity
  8
部品1
 48
20.0
100
AcDbCircle
 10
2194.099999999997
 20
1645.999999999999
 30
0.0
 40
400.0
100
AcDbArc
 50
87.30339484529553
 51
92.69660515470402
  0
ARC
  5
14A67
330
747D
100
AcDbEntity
  8
細線
 48
50.0
100
AcDbCircle
 10
2212.448433418348
 20
2035.568139086208
 30
0.0
 40
5.0
100
AcDbArc
 50
6.645466364253289
 51
87.30339484529535
  0
ARC
  5
14A68
330
747D
100
AcDbEntity
  8
細線
 48
50.0
100
AcDbCircle
 10
2175.75156658165
 20
2035.568139086209
 30
0.0
 40
5.0
100
AcDbArc
 50
92.6966051547046
 51
173.3545336357539
  0
ARC
  5
14A69
330
747D
100
AcDbEntity
  8
細線
 48
50.0
100
AcDbCircle
 10
2194.099999999997
 20
1645.999999999999
 30
0.0
 40
395.0
100
AcDbArc
 50
87.30339484529553
 51
92.69660515470402
  0
DIMENSION
  5
14AE1
330
747D
100
AcDbEntity
  8
寸法
 48
50.0
100
AcDbDimension
  2
*D5
 10
4208.600000000004
 20
2975.024113945668
 30
0.0
 11
4341.842640687123
 21
2975.024113945668
 31
0.0
 70
   160
 71
     5
 42
-1.0
  3
INABA_S20G
100
AcDbAlignedDimension
 13
4203.6
 23
2817.391201416256
 33
0.0
 14
4208.600000000004
 24
2813.560713214081
 34
0.0
100
AcDbRotatedDimension
1001
ACAD
1000
DSTYLE
1002
{
1002
}
  0
ARC
  5
14AE2
330
747D
100
AcDbEntity
  8
細線
 48
50.0
100
AcDbCircle
 10
2133.600000000001
 20
1920.999999999992
 30
0.0
 40
995.0
100
AcDbArc
 50
353.3545336357529
 51
6.645466364247838
  0
ARC
  5
14AE3
330
747D
100
AcDbEntity
  8
細線
 48
50.0
100
AcDbCircle
 10
4063.6
 20
1920.999999999992
 30
0.0
 40
995.0
100
AcDbArc
 50
173.3545336357521
 51
186.645466364247
  0
ARC
  5
14AE4
330
747D
100
AcDbEntity
  8
部品1
 48
20.0
100
AcDbCircle
 10
2133.600000000001
 20
1920.999999999992
 30
0.0
 40
1000.0
100
AcDbArc
 50
353.3545336357529
 51
6.645466364247838
  0
ARC
  5
14AE5
330
747D
100
AcDbEntity
  8
部品1
 48
20.0
100
AcDbCircle
 10
4063.6
 20
1920.999999999992
 30
0.0
 40
1000.0
100
AcDbArc
 50
173.3545336357521
 51
186.645466364247
  0
LINE
  5
14AE6
330
747D
100
AcDbEntity
  8
部品1
 48
20.0
100
AcDbLine
 10
3103.600000000001
 20
2018.429621181402
 30
0.0
 11
3103.600000000001
 21
1823.570378818596
 31
0.0
  0
LINE
  5
14AE7
330
747D
100
AcDbEntity
  8
部品1
 48
20.0
100
AcDbLine
 10
3093.600000000001
 20
2018.429621181404
 30
0.0
 11
3093.600000000001
 21
1823.570378818596
 31
0.0
  0
ARC
  5
14AE8
330
747D
100
AcDbEntity
  8
部品1
 48
20.0
100
AcDbCircle
 10
3098.600000000001
 20
2195.999999999999
 30
0.0
 40
400.0
100
AcDbArc
 50
267.3033948452952
 51
272.6966051547042
  0
ARC
  5
14AE9
330
747D
100
AcDbEntity
  8
細線
 48
50.0
100
AcDbCircle
 10
3116.948433418349
 20
1806.43186091379
 30
0.0
 40
5.0
100
AcDbArc
 50
272.6966051547042
 51
353.3545336357539
  0
ARC
  5
14AEA
330
747D
100
AcDbEntity
  8
細線
 48
50.0
100
AcDbCircle
 10
3080.251566581648
 20
1806.43186091379
 30
0.0
 40
5.0
100
AcDbArc
 50
186.6454663642468
 51
267.3033948452926
  0
ARC
  5
14AEB
330
747D
100
AcDbEntity
  8
細線
 48
50.0
100
AcDbCircle
 10
3098.600000000001
 20
2195.999999999999
 30
0.0
 40
395.0
100
AcDbArc
 50
267.3033948452952
 51
272.6966051547042
  0
ARC
  5
14AEC
330
747D
100
AcDbEntity
  8
部品1
 48
20.0
100
AcDbCircle
 10
3116.948433418349
 20
1806.43186091379
 30
0.0
 40
10.0
100
AcDbArc
 50
272.6966051547042
 51
353.3545336357534
  0
ARC
  5
14AED
330
747D
100
AcDbEntity
  8
部品1
 48
20.0
100
AcDbCircle
 10
3080.251566581648
 20
1806.43186091379
 30
0.0
 40
10.0
100
AcDbArc
 50
186.6454663642468
 51
267.3033948452939
  0
ELLIPSE
  5
14AEE
330
747D
100
AcDbEntity
  8
部品1
100
AcDbEllipse
 10
3098.600000000001
 20
1823.570378818596
 30
0.0
 11
0.0
 21
-9.770631002828395
 31
0.0
210
0.0
220
0.0
230
1.0
 40
0.5117376757501746
 41
4.712388980384689
 42
7.853981633974482
  0
ARC
  5
14AEF
330
747D
100
AcDbEntity
  8
細線
 48
50.0
100
AcDbCircle
 10
3098.600000000001
 20
1645.999999999999
 30
0.0
 40
395.0
100
AcDbArc
 50
87.30339484529599
 51
92.69660515470446
  0
ARC
  5
14AF0
330
747D
100
AcDbEntity
  8
部品1
 48
20.0
100
AcDbCircle
 10
3098.600000000001
 20
1645.999999999999
 30
0.0
 40
400.0
100
AcDbArc
 50
87.30339484529599
 51
92.69660515470446
  0
ARC
  5
14AF1
330
747D
100
AcDbEntity
  8
部品1
 48
20.0
100
AcDbCircle
 10
3116.948433418349
 20
2035.568139086209
 30
0.0
 40
10.0
100
AcDbArc
 50
6.645466364247075
 51
87.3033948452957
  0
ARC
  5
14AF2
330
747D
100
AcDbEntity
  8
部品1
 48
20.0
100
AcDbCircle
 10
3080.25156658165
 20
2035.568139086208
 30
0.0
 40
10.0
100
AcDbArc
 50
92.6966051547046
 51
173.3545336357496
  0
ARC
  5
14AF3
330
747D
100
AcDbEntity
  8
細線
 48
50.0
100
AcDbCircle
 10
3116.948433418349
 20
2035.568139086209
 30
0.0
 40
5.0
100
AcDbArc
 50
6.64546636424607
 51
87.30339484529537
  0
ARC
  5
14AF4
330
747D
100
AcDbEntity
  8
細線
 48
50.0
100
AcDbCircle
 10
3080.25156658165
 20
2035.568139086208
 30
0.0
 40
5.0
100
AcDbArc
 50
92.69660515470468
 51
173.3545336357467
  0
ELLIPSE
  5
14AF5
330
747D
100
AcDbEntity
  8
部品1
100
AcDbEllipse
 10
3098.600000000001
 20
2018.429621181401
 30
0.0
 11
0.0
 21
9.770631002828395
 31
0.0
210
0.0
220
0.0
230
-1.0
 40
0.5117376757501746
 41
4.712388980384689
 42
7.853981633974482
  0
DIMENSION
  5
14B3A
330
747D
100
AcDbEntity
  8
寸法
 48
50.0
100
AcDbDimension
  2
*D10
 10
4168.600000000002
 20
5056.414712708183
 30
0.0
 11
3153.600000000001
 21
5106.420618219994
 31
0.0
 70
    32
  1
内部寸法 <>
 71
     5
 42
-1.0
  3
INABA_S20G
100
AcDbAlignedDimension
 13
2138.6
 23
4664.582580843268
 33
0.0
 14
4168.600000000002
 24
4664.582580843176
 34
0.0
100
AcDbRotatedDimension
  0
DIMENSION
  5
14B3B
330
747D
100
AcDbEntity
  8
寸法
 48
50.0
100
AcDbDimension
  2
*D12
 10
2675.6
 20
3825.232679255116
 30
0.0
 11
3153.600000000001
 21
3925.232679255116
 31
0.0
 70
    32
  1
有効開口部間口\P<>
 71
     5
 42
-1.0
  3
INABA_S20G
100
AcDbAlignedDimension
 13
3631.600000000001
 23
4109.582580843269
 33
0.0
 14
2675.6
 24
4109.582580843269
 34
0.0
100
AcDbRotatedDimension
  0
LINE
  5
14B3C
330
747D
100
AcDbEntity
  8
部品1
 48
50.0
100
AcDbLine
 10
4198.6
 20
4664.582580843268
 30
0.0
 11
2108.6
 21
4664.582580843268
 31
0.0
  0
DIMENSION
  5
14B3D
330
747D
100
AcDbEntity
  8
寸法
 48
50.0
100
AcDbDimension
  2
*D1
 10
2103.6
 20
3662.884076791021
 30
0.0
 11
3153.6
 21
3712.889982302832
 31
0.0
 12
-10347.2535325993
 22
-28.01800449040639
 32
0.0
 70
    32
 71
     5
 42
-1.0
  3
INABA_S20G
100
AcDbAlignedDimension
 13
4203.6
 23
4104.582580843267
 33
0.0
 14
2103.6
 24
4104.582580843265
 34
0.0
100
AcDbRotatedDimension
  0
LINE
  5
14B3E
330
747D
100
AcDbEntity
  8
部品1
 48
50.0
100
AcDbLine
 10
4172.6
 20
4635.582580843268
 30
0.0
 11
2134.6
 21
4635.582580843268
 31
0.0
  0
LINE
  5
14B3F
330
747D
100
AcDbEntity
  8
細線
 48
50.0
100
AcDbLine
 10
4172.6
 20
4638.582580843269
 30
0.0
 11
2821.9
 21
4638.582580843269
 31
0.0
  0
LINE
  5
14B40
330
747D
100
AcDbEntity
  8
部品1
 48
50.0
100
AcDbLine
 10
3645.100000000002
 20
4155.082580843268
 30
0.0
 11
2662.099999999997
 21
4155.082580843267
 31
0.0
  0
LINE
  5
14B41
330
747D
100
AcDbEntity
  8
部品1
 48
50.0
100
AcDbLine
 10
4168.600000000002
 20
4171.582580843269
 30
0.0
 11
2138.6
 21
4171.582580843267
 31
0.0
  0
LINE
  5
14B42
330
747D
100
AcDbEntity
  8
部品1
 48
50.0
100
AcDbLine
 10
2617.6
 20
4137.582580843257
 30
0.0
 11
3153.600000000001
 21
4137.582580843257
 31
0.0
  0
LINE
  5
14B43
330
747D
100
AcDbEntity
  8
部品1
 48
50.0
100
AcDbLine
 10
3153.600000000001
 20
4115.582580843256
 30
0.0
 11
2617.6
 21
4115.582580843256
 31
0.0
  0
LINE
  5
14B44
330
747D
100
AcDbEntity
  8
部品1
 48
50.0
100
AcDbLine
 10
3168.100000000002
 20
4633.58258084327
 30
0.0
 11
4167.100000000002
 21
4633.58258084327
 31
0.0
  0
LINE
  5
14B45
330
747D
100
AcDbEntity
  8
部品1
 48
50.0
100
AcDbLine
 10
3168.100000000002
 20
4183.582580843269
 30
0.0
 11
4167.100000000002
 21
4183.582580843269
 31
0.0
  0
LINE
  5
14B46
330
747D
100
AcDbEntity
  8
細線
 48
50.0
100
AcDbLine
 10
3168.100000000002
 20
4183.582580843269
 30
0.0
 11
4167.100000000002
 21
4633.582580843267
 31
0.0
  0
LINE
  5
14B47
330
747D
100
AcDbEntity
  8
細線
 48
50.0
100
AcDbLine
 10
3168.100000000002
 20
4633.58258084327
 30
0.0
 11
4167.100000000002
 21
4183.582580843269
 31
0.0
  0
LINE
  5
14B48
330
747D
100
AcDbEntity
  8
部品1
 48
50.0
100
AcDbLine
 10
4168.6
 20
4109.582580843269
 30
0.0
 11
2138.6
 21
4109.582580843269
 31
0.0
  0
DIMENSION
  5
14B49
330
747D
100
AcDbEntity
  8
寸法
 48
50.0
100
AcDbDimension
  2
*D8
 10
4108.58911372208
 20
4851.948181228362
 30
0.0
 11
3609.08911372208
 21
5241.948181228361
 31
0.0
 12
-10347.2535325993
 22
-368.0180044904064
 32
0.0
 70
    32
 71
     5
 42
-1.0
  3
INABA_S20G
100
AcDbAlignedDimension
 13
3168.100000000004
 23
4633.582580843267
 33
0.0
 14
4167.100000000004
 24
4633.58258084327
 34
0.0
100
AcDbRotatedDimension
  0
LINE
  5
14B4C
330
747D
100
AcDbEntity
  8
部品1
 48
50.0
100
AcDbLine
 10
2617.6
 20
4115.582580843256
 30
0.0
 11
2617.6
 21
4137.582580843257
 31
0.0
  0
LINE
  5
14B4D
330
747D
100
AcDbEntity
  8
部品1
100
AcDbLine
 10
2138.599999999998
 20
4143.582580843268
 30
0.0
 11
2138.6
 21
4108.692062863918
 31
0.0
  0
LINE
  5
14B4E
330
747D
100
AcDbEntity
  8
部品1
100
AcDbLine
 10
2103.6
 20
4108.692062863918
 30
0.0
 11
2103.6
 21
4147.582580843269
 31
0.0
  0
LINE
  5
14B4F
330
747D
100
AcDbEntity
  8
部品1
 48
50.0
100
AcDbLine
 10
2128.1
 20
4109.582580843269
 30
0.0
 11
2128.1
 21
4153.582580843269
 31
0.0
  0
LINE
  5
14B50
330
747D
100
AcDbEntity
  8
部品1
 48
50.0
100
AcDbLine
 10
2108.6
 20
4109.582580843269
 30
0.0
 11
2108.6
 21
4664.582580843268
 31
0.0
  0
ARC
  5
14B51
330
747D
100
AcDbEntity
  8
部品1
100
AcDbCircle
 10
2121.1
 20
4164.582580843267
 30
0.0
 40
60.0
100
AcDbArc
 50
276.9319061975849
 51
285.500178566999
  0
ARC
  5
14B52
330
747D
100
AcDbEntity
  8
部品1
100
AcDbCircle
 10
2114.1
 20
4107.006544161328
 30
0.0
 40
2.0
100
AcDbArc
 50
263.0680938024152
 51
354.056001019071
  0
ARC
  5
14B53
330
747D
100
AcDbEntity
  8
部品1
100
AcDbCircle
 10
2128.1
 20
4107.006544161328
 30
0.0
 40
2.0
100
AcDbArc
 50
185.9439989809289
 51
276.9319061975831
  0
ARC
  5
14B54
330
747D
100
AcDbEntity
  8
部品1
100
AcDbCircle
 10
2121.1
 20
4164.582580843267
 30
0.0
 40
60.0
100
AcDbArc
 50
254.4998214330011
 51
263.0680938024152
  0
ARC
  5
14B55
330
747D
100
AcDbEntity
  8
部品1
100
AcDbCircle
 10
2105.6
 20
4108.692062863918
 30
0.0
 40
2.0
100
AcDbArc
 50
180.0
 51
254.4998214330009
  0
ARC
  5
14B56
330
747D
100
AcDbEntity
  8
部品1
100
AcDbCircle
 10
2121.1
 20
4164.582580843267
 30
0.0
 40
58.0
100
AcDbArc
 50
265.0439082357276
 51
274.9560917642725
  0
LINE
  5
14B57
330
747D
100
AcDbEntity
  8
部品1
 48
50.0
100
AcDbLine
 10
2128.1
 20
4109.582580843269
 30
0.0
 11
2108.6
 21
4109.582580843269
 31
0.0
  0
ARC
  5
14B58
330
747D
100
AcDbEntity
  8
部品1
100
AcDbCircle
 10
2136.6
 20
4108.692062863918
 30
0.0
 40
2.0
100
AcDbArc
 50
285.500178566999
 51
0.0000000000061067
  0
LINE
  5
14B59
330
747D
100
AcDbEntity
  8
部品1
100
AcDbLine
 10
3341.967666557111
 20
3547.230842295987
 30
0.0
 11
2960.23233344289
 21
3547.230842295987
 31
0.0
  0
LINE
  5
14B5A
330
747D
100
AcDbEntity
  8
部品1
100
AcDbLine
 10
2960.23233344289
 20
3427.284681523221
 30
0.0
 11
3341.967666557111
 21
3427.284681523221
 31
0.0
  0
TEXT
  5
14B5B
330
747D
100
AcDbEntity
  8
部品1
100
AcDbText
 10
3005.19213835741
 20
3450.784077686726
 30
0.0
 40
67.5
  1
平面図
  7
STYLE2
100
AcDbText
  0
LINE
  5
14B5C
330
747D
100
AcDbEntity
  8
部品1
100
AcDbLine
 10
2960.23233344289
 20
3547.230842295987
 30
0.0
 11
2960.23233344289
 21
3427.284681523221
 31
0.0
  0
LINE
  5
14B5D
330
747D
100
AcDbEntity
  8
部品1
100
AcDbLine
 10
3341.967666557111
 20
3427.284681523221
 30
0.0
 11
3341.967666557111
 21
3547.230842295987
 31
0.0
  0
LINE
  5
14B5E
330
747D
100
AcDbEntity
  8
細線
 48
50.0
100
AcDbLine
 10
2797.9
 20
4638.582580843269
 30
0.0
 11
2134.6
 21
4638.582580843269
 31
0.0
  0
LINE
  5
14B5F
330
747D
100
AcDbEntity
  8
部品1
 48
50.0
100
AcDbLine
 10
3139.099999999998
 20
4633.58258084327
 30
0.0
 11
2140.099999999998
 21
4633.58258084327
 31
0.0
  0
DIMENSION
  5
14B60
330
747D
100
AcDbEntity
  8
寸法
 48
50.0
100
AcDbDimension
  2
*D7
 10
3080.589113722075
 20
4851.948181228362
 30
0.0
 11
2581.089113722075
 21
5241.948181228361
 31
0.0
 12
-10347.2535325993
 22
-368.0180044904064
 32
0.0
 70
    32
 71
     5
 42
-1.0
  3
INABA_S20G
100
AcDbAlignedDimension
 13
2140.099999999998
 23
4633.58258084327
 33
0.0
 14
3139.099999999998
 24
4633.58258084327
 34
0.0
100
AcDbRotatedDimension
  0
LINE
  5
14B61
330
747D
100
AcDbEntity
  8
部品1
 48
50.0
100
AcDbLine
 10
2662.099999999998
 20
4165.58258084327
 30
0.0
 11
2139.099999999998
 21
4165.58258084327
 31
0.0
  0
LINE
  5
14B62
330
747D
100
AcDbEntity
  8
部品1
 48
50.0
100
AcDbLine
 10
2642.099999999998
 20
4143.582580843268
 30
0.0
 11
2132.099999999998
 21
4143.582580843268
 31
0.0
  0
LINE
  5
14B63
330
747D
100
AcDbEntity
  8
部品1
 48
50.0
100
AcDbLine
 10
2617.6
 20
4127.082580843269
 30
0.0
 11
2146.599999999998
 21
4127.082580843267
 31
0.0
  0
LINE
  5
14B64
330
747D
100
AcDbEntity
  8
部品1
 48
50.0
100
AcDbLine
 10
3139.099999999998
 20
4183.582580843269
 30
0.0
 11
2140.099999999998
 21
4183.582580843269
 31
0.0
  0
LINE
  5
14B65
330
747D
100
AcDbEntity
  8
細線
 48
50.0
100
AcDbLine
 10
3139.099999999998
 20
4633.58258084327
 30
0.0
 11
2140.099999999998
 21
4183.582580843269
 31
0.0
  0
LINE
  5
14B66
330
747D
100
AcDbEntity
  8
細線
 48
50.0
100
AcDbLine
 10
3139.099999999998
 20
4183.582580843269
 30
0.0
 11
2140.099999999998
 21
4633.582580843267
 31
0.0
  0
LINE
  5
14B67
330
747D
100
AcDbEntity
  8
細線
 48
50.0
100
AcDbLine
 10
2134.6
 20
4609.582580843269
 30
0.0
 11
2134.6
 21
4206.082580843265
 31
0.0
  0
LINE
  5
14B68
330
747D
100
AcDbEntity
  8
部品1
 48
50.0
100
AcDbLine
 10
2137.6
 20
4609.582580843269
 30
0.0
 11
2137.6
 21
4206.082580843268
 31
0.0
  0
LINE
  5
14B69
330
747D
100
AcDbEntity
  8
部品1
100
AcDbLine
 10
2140.099999999998
 20
4633.582580843267
 30
0.0
 11
2140.1
 21
4183.582580843269
 31
0.0
  0
DIMENSION
  5
14B6A
330
747D
100
AcDbEntity
  8
寸法
 48
50.0
100
AcDbDimension
  2
*D9
 10
1882.837149601689
 20
4252.515953850024
 30
0.0
 11
2132.83714960169
 21
4817.515953850024
 31
0.0
 12
-10647.2535325993
 22
-368.0180044904064
 32
0.0
 70
    32
 71
     5
 42
-1.0
  3
INABA_S20G
100
AcDbAlignedDimension
 13
2140.099999999998
 23
4633.582580843267
 33
0.0
 14
2140.1
 24
4183.582580843269
 34
0.0
 50
90.0
100
AcDbRotatedDimension
  0
LINE
  5
14B6B
330
747D
100
AcDbEntity
  8
部品1
 48
50.0
100
AcDbLine
 10
2108.6
 20
4219.582580843269
 30
0.0
 11
2134.6
 21
4219.582580843269
 31
0.0
  0
LINE
  5
14B6C
330
747D
100
AcDbEntity
  8
部品1
100
AcDbLine
 10
2131.6
 20
4140.582580843267
 30
0.0
 11
2138.6
 21
4140.582580843269
 31
0.0
  0
LINE
  5
14B6D
330
747D
100
AcDbEntity
  8
部品1
100
AcDbLine
 10
2138.6
 20
4155.582580843267
 30
0.0
 11
2131.6
 21
4155.582580843269
 31
0.0
  0
LINE
  5
14B6E
330
747D
100
AcDbEntity
  8
部品1
100
AcDbLine
 10
2138.6
 20
4171.582580843269
 30
0.0
 11
2108.6
 21
4171.582580843269
 31
0.0
  0
LINE
  5
14B6F
330
747D
100
AcDbEntity
  8
部品1
 48
50.0
100
AcDbLine
 10
2134.6
 20
4171.582580843267
 30
0.0
 11
2108.6
 21
4171.582580843269
 31
0.0
  0
LINE
  5
14B70
330
747D
100
AcDbEntity
  8
部品1
 48
50.0
100
AcDbLine
 10
2139.099999999998
 20
4152.582580843269
 30
0.0
 11
2132.099999999998
 21
4152.582580843269
 31
0.0
  0
LINE
  5
14B71
330
747D
100
AcDbEntity
  8
部品1
 48
50.0
100
AcDbLine
 10
2108.6
 20
4149.582580843269
 30
0.0
 11
2105.6
 21
4149.582580843269
 31
0.0
  0
ARC
  5
14B72
330
747D
100
AcDbEntity
  8
部品1
100
AcDbCircle
 10
2131.6
 20
4153.582580843269
 30
0.0
 40
2.0
100
AcDbArc
 50
89.99999999999964
 51
179.9999999999991
  0
ARC
  5
14B73
330
747D
100
AcDbEntity
  8
部品1
100
AcDbCircle
 10
2131.6
 20
4142.582580843267
 30
0.0
 40
2.0
100
AcDbArc
 50
179.9999999999991
 51
270.0000000000002
  0
LINE
  5
14B74
330
747D
100
AcDbEntity
  8
部品1
100
AcDbLine
 10
2129.6
 20
4142.582580843269
 30
0.0
 11
2129.6
 21
4153.582580843269
 31
0.0
  0
ARC
  5
14B75
330
747D
100
AcDbEntity
  8
部品1
100
AcDbCircle
 10
2105.6
 20
4147.582580843269
 30
0.0
 40
2.0
100
AcDbArc
 50
89.99999999999976
 51
180.0
  0
LINE
  5
14B76
330
747D
100
AcDbEntity
  8
部品1
 48
50.0
100
AcDbLine
 10
2128.1
 20
4144.582580843269
 30
0.0
 11
2129.6
 21
4146.082580843269
 31
0.0
  0
LINE
  5
14B77
330
747D
100
AcDbEntity
  8
部品1
 48
50.0
100
AcDbLine
 10
2108.6
 20
4153.582580843269
 30
0.0
 11
2128.1
 21
4153.582580843269
 31
0.0
  0
LINE
  5
14B78
330
747D
100
AcDbEntity
  8
部品1
 48
50.0
100
AcDbLine
 10
2132.099999999998
 20
4152.582580843269
 30
0.0
 11
2132.099999999998
 21
4143.582580843268
 31
0.0
  0
LINE
  5
14B79
330
747D
100
AcDbEntity
  8
部品1
100
AcDbLine
 10
2138.599999999998
 20
4206.082580843268
 30
0.0
 11
2134.6
 21
4206.082580843268
 31
0.0
  0
LINE
  5
14B7A
330
747D
100
AcDbEntity
  8
部品1
100
AcDbLine
 10
2138.6
 20
4206.082580843268
 30
0.0
 11
2138.599999999998
 21
4213.282580843269
 31
0.0
  0
LINE
  5
14B7B
330
747D
100
AcDbEntity
  8
部品1
100
AcDbLine
 10
2135.800000000001
 20
4206.082580843268
 30
0.0
 11
2137.400000000001
 21
4206.082580843268
 31
0.0
  0
LINE
  5
14B7C
330
747D
100
AcDbEntity
  8
部品1
100
AcDbLine
 10
2138.599999999996
 20
4171.582580843267
 30
0.0
 11
2138.599999999998
 21
4152.582580843269
 31
0.0
  0
LINE
  5
14B7D
330
747D
100
AcDbEntity
  8
部品1
 48
50.0
100
AcDbLine
 10
2139.099999999998
 20
4165.58258084327
 30
0.0
 11
2139.099999999998
 21
4152.582580843269
 31
0.0
  0
LINE
  5
14B7E
330
747D
100
AcDbEntity
  8
部品1
 48
50.0
100
AcDbLine
 10
2139.099999999998
 20
4155.082580843267
 30
0.0
 11
2138.6
 21
4155.082580843267
 31
0.0
  0
LINE
  5
14B7F
330
747D
100
AcDbEntity
  8
部品1
100
AcDbLine
 10
2134.6
 20
4171.582580843267
 30
0.0
 11
2134.6
 21
4207.282580843266
 31
0.0
  0
LINE
  5
14B80
330
747D
100
AcDbEntity
  8
部品1
100
AcDbLine
 10
2134.6
 20
4155.582580843269
 30
0.0
 11
2134.6
 21
4206.082580843265
 31
0.0
  0
LINE
  5
14B81
330
747D
100
AcDbEntity
  8
部品1
 48
50.0
100
AcDbLine
 10
2108.6
 20
4594.582580843269
 30
0.0
 11
2134.6
 21
4594.582580843269
 31
0.0
  0
LINE
  5
14B82
330
747D
100
AcDbEntity
  8
部品1
 48
50.0
100
AcDbLine
 10
2130.1
 20
4630.582580843269
 30
0.0
 11
2138.6
 21
4630.582580843269
 31
0.0
  0
LINE
  5
14B83
330
747D
100
AcDbEntity
  8
部品1
 48
50.0
100
AcDbLine
 10
2122.6
 20
4647.582580843269
 30
0.0
 11
2134.6
 21
4647.582580843269
 31
0.0
  0
LINE
  5
14B84
330
747D
100
AcDbEntity
  8
部品1
 48
50.0
100
AcDbLine
 10
2122.6
 20
4664.582580843268
 30
0.0
 11
2122.6
 21
4647.582580843269
 31
0.0
  0
LINE
  5
14B85
330
747D
100
AcDbEntity
  8
部品1
 48
50.0
100
AcDbLine
 10
2130.1
 20
4647.582580843269
 30
0.0
 11
2130.1
 21
4630.582580843269
 31
0.0
  0
LINE
  5
14B86
330
747D
100
AcDbEntity
  8
部品1
 48
50.0
100
AcDbLine
 10
2138.6
 20
4630.582580843269
 30
0.0
 11
2138.6
 21
4635.582580843268
 31
0.0
  0
LINE
  5
14B87
330
747D
100
AcDbEntity
  8
部品1
100
AcDbLine
 10
2138.6
 20
4609.582580843269
 30
0.0
 11
2138.6
 21
4602.582580843269
 31
0.0
  0
LINE
  5
14B88
330
747D
100
AcDbEntity
  8
部品1
100
AcDbLine
 10
2134.6
 20
4609.582580843269
 30
0.0
 11
2138.6
 21
4609.582580843269
 31
0.0
  0
LINE
  5
14B89
330
747D
100
AcDbEntity
  8
部品1
100
AcDbLine
 10
2134.6
 20
4630.582580843269
 30
0.0
 11
2134.6
 21
4609.582580843269
 31
0.0
  0
LINE
  5
14B8A
330
747D
100
AcDbEntity
  8
部品1
 48
50.0
100
AcDbLine
 10
2134.6
 20
4647.582580843269
 30
0.0
 11
2134.6
 21
4635.582580843268
 31
0.0
  0
LINE
  5
14B8B
330
747D
100
AcDbEntity
  8
部品1
100
AcDbLine
 10
3168.100000000002
 20
4633.582580843267
 30
0.0
 11
3168.100000000002
 21
4183.582580843269
 31
0.0
  0
LINE
  5
14B8C
330
747D
100
AcDbEntity
  8
部品1
100
AcDbLine
 10
3139.099999999998
 20
4633.582580843267
 30
0.0
 11
3139.099999999998
 21
4183.582580843269
 31
0.0
  0
LINE
  5
14B8D
330
747D
100
AcDbEntity
  8
部品1
 48
50.0
100
AcDbLine
 10
3166.1
 20
4635.582580843268
 30
0.0
 11
3166.1
 21
4183.582580843269
 31
0.0
  0
LINE
  5
14B8E
330
747D
100
AcDbEntity
  8
部品1
 48
50.0
100
AcDbLine
 10
3141.1
 20
4635.582580843268
 30
0.0
 11
3141.1
 21
4183.582580843269
 31
0.0
  0
LINE
  5
14B8F
330
747D
100
AcDbEntity
  8
部品1
 48
50.0
100
AcDbLine
 10
2418.099999999999
 20
4165.58258084327
 30
0.0
 11
2418.099999999999
 21
4143.582580843268
 31
0.0
  0
LINE
  5
14B90
330
747D
100
AcDbEntity
  8
部品1
 48
50.0
100
AcDbLine
 10
2383.099999999998
 20
4165.58258084327
 30
0.0
 11
2383.099999999998
 21
4143.582580843268
 31
0.0
  0
LINE
  5
14B91
330
747D
100
AcDbEntity
  8
部品1
 48
50.0
100
AcDbLine
 10
2662.099999999998
 20
4139.582580843269
 30
0.0
 11
2662.099999999998
 21
4165.58258084327
 31
0.0
  0
LINE
  5
14B92
330
747D
100
AcDbEntity
  8
部品1
 48
50.0
100
AcDbLine
 10
2662.099999999998
 20
4139.582580843269
 30
0.0
 11
2642.099999999998
 21
4139.582580843269
 31
0.0
  0
LINE
  5
14B93
330
747D
100
AcDbEntity
  8
部品1
 48
50.0
100
AcDbLine
 10
2642.099999999998
 20
4139.582580843269
 30
0.0
 11
2642.099999999998
 21
4143.582580843268
 31
0.0
  0
LINE
  5
14B94
330
747D
100
AcDbEntity
  8
部品1
 48
50.0
100
AcDbLine
 10
3166.1
 20
4183.582580843269
 30
0.0
 11
3141.1
 21
4183.582580843269
 31
0.0
  0
LINE
  5
14B95
330
747D
100
AcDbEntity
  8
部品1
 48
50.0
100
AcDbLine
 10
2483.750000000001
 20
4664.58258084327
 30
0.0
 11
2478.75
 21
4638.582580843269
 31
0.0
  0
LINE
  5
14B96
330
747D
100
AcDbEntity
  8
部品1
 48
50.0
100
AcDbLine
 10
2448.75
 20
4664.58258084327
 30
0.0
 11
2453.75
 21
4638.582580843269
 31
0.0
  0
LINE
  5
14B97
330
747D
100
AcDbEntity
  8
部品1
 48
50.0
100
AcDbLine
 10
2809.9
 20
4664.582580843268
 30
0.0
 11
2809.9
 21
4647.582580843269
 31
0.0
  0
LINE
  5
14B98
330
747D
100
AcDbEntity
  8
部品1
 48
50.0
100
AcDbLine
 10
2797.9
 20
4647.582580843269
 30
0.0
 11
2797.9
 21
4635.582580843268
 31
0.0
  0
LINE
  5
14B99
330
747D
100
AcDbEntity
  8
部品1
 48
50.0
100
AcDbLine
 10
2821.9
 20
4647.582580843269
 30
0.0
 11
2821.9
 21
4635.582580843268
 31
0.0
  0
LINE
  5
14B9A
330
747D
100
AcDbEntity
  8
部品1
 48
50.0
100
AcDbLine
 10
2821.9
 20
4647.582580843269
 30
0.0
 11
2797.9
 21
4647.582580843269
 31
0.0
  0
LINE
  5
14B9B
330
747D
100
AcDbEntity
  8
部品1
 48
50.0
100
AcDbLine
 10
3166.1
 20
4600.582580843268
 30
0.0
 11
3141.100000000002
 21
4600.582580843268
 31
0.0
  0
LINE
  5
14B9E
330
747D
100
AcDbEntity
  8
部品1
100
AcDbLine
 10
4203.6
 20
4108.555801531942
 30
0.0
 11
4203.6
 21
4147.582580843269
 31
0.0
  0
LINE
  5
14BA0
330
747D
100
AcDbEntity
  8
部品1
 48
50.0
100
AcDbLine
 10
4179.1
 20
4109.582580843269
 30
0.0
 11
4179.100000000002
 21
4153.582580843269
 31
0.0
  0
DIMENSION
  5
14BA2
330
747D
100
AcDbEntity
  8
寸法
 48
50.0
100
AcDbDimension
  2
*D2
 10
4700.800861439185
 20
4104.582580843267
 30
0.0
 11
4650.800861439186
 21
4384.582580843268
 31
0.0
 70
    32
 71
     5
 42
-1.0
  3
INABA_S20G
100
AcDbAlignedDimension
 13
4198.600000000002
 23
4664.582580843268
 33
0.0
 14
4203.6
 24
4104.582580843267
 34
0.0
 50
90.0
100
AcDbRotatedDimension
  0
LINE
  5
14BA3
330
747D
100
AcDbEntity
  8
部品1
 48
50.0
100
AcDbLine
 10
4198.6
 20
4109.582580843269
 30
0.0
 11
4198.600000000002
 21
4664.582580843268
 31
0.0
  0
LINE
  5
14BA4
330
747D
100
AcDbEntity
  8
部品1
 48
50.0
100
AcDbLine
 10
4198.6
 20
4109.582580843269
 30
0.0
 11
4179.1
 21
4109.582580843269
 31
0.0
  0
ARC
  5
14BA5
330
747D
100
AcDbEntity
  8
部品1
100
AcDbCircle
 10
4186.600000000001
 20
4164.582580843268
 30
0.0
 40
58.0
100
AcDbArc
 50
264.5460728224942
 51
274.4587817153327
  0
ARC
  5
14BA6
330
747D
100
AcDbEntity
  8
部品1
100
AcDbCircle
 10
4186.600000000001
 20
4164.582580843268
 30
0.0
 40
60.0
100
AcDbArc
 50
253.9866055760513
 51
262.5702583891818
  0
ARC
  5
14BA7
330
747D
100
AcDbEntity
  8
部品1
100
AcDbCircle
 10
4170.6
 20
4108.833141384202
 30
0.0
 40
2.0
100
AcDbArc
 50
179.9999999999971
 51
253.9866055760512
  0
ARC
  5
14BA8
330
747D
100
AcDbEntity
  8
部品1
100
AcDbCircle
 10
4179.1
 20
4107.069538844084
 30
0.0
 40
2.0
100
AcDbArc
 50
262.5702583891838
 51
353.5581656058383
  0
ARC
  5
14BA9
330
747D
100
AcDbEntity
  8
部品1
100
AcDbCircle
 10
4201.6
 20
4108.555801531942
 30
0.0
 40
2.0
100
AcDbArc
 50
284.9882344823052
 51
0.0
  0
ARC
  5
14BAA
330
747D
100
AcDbEntity
  8
部品1
100
AcDbCircle
 10
4186.600000000001
 20
4164.582580843268
 30
0.0
 40
60.0
100
AcDbArc
 50
276.434596148645
 51
284.9882344823051
  0
ARC
  5
14BAB
330
747D
100
AcDbEntity
  8
部品1
100
AcDbCircle
 10
4193.1
 20
4106.947955833645
 30
0.0
 40
2.0
100
AcDbArc
 50
185.4466889319887
 51
276.4345961486433
  0
LINE
  5
14BB0
330
747D
100
AcDbEntity
  8
細線
 48
50.0
100
AcDbLine
 10
4172.6
 20
4609.582580843269
 30
0.0
 11
4172.6
 21
4206.082580843265
 31
0.0
  0
LINE
  5
14BB1
330
747D
100
AcDbEntity
  8
部品1
 48
50.0
100
AcDbLine
 10
4169.6
 20
4609.582580843269
 30
0.0
 11
4169.600000000001
 21
4206.082580843268
 31
0.0
  0
LINE
  5
14BB2
330
747D
100
AcDbEntity
  8
部品1
100
AcDbLine
 10
4167.100000000002
 20
4633.582580843267
 30
0.0
 11
4167.1
 21
4183.582580843269
 31
0.0
  0
DIMENSION
  5
14BB3
330
747D
100
AcDbEntity
  8
寸法
 48
50.0
100
AcDbDimension
  2
*D11
 10
4554.624603998787
 20
4171.582580843269
 30
0.0
 11
4454.624603998786
 21
4403.582580843269
 31
0.0
 70
    32
  1
内部寸法\P<>
 71
     5
 42
-1.0
  3
INABA_S20G
100
AcDbAlignedDimension
 13
4198.600000000002
 23
4635.582580843268
 33
0.0
 14
4198.6
 24
4171.582580843269
 34
0.0
 50
90.0
100
AcDbRotatedDimension
  0
LINE
  5
14BB4
330
747D
100
AcDbEntity
  8
部品1
100
AcDbLine
 10
4171.400000000001
 20
4206.082580843268
 30
0.0
 11
4169.800000000001
 21
4206.082580843268
 31
0.0
  0
LINE
  5
14BB5
330
747D
100
AcDbEntity
  8
部品1
100
AcDbLine
 10
4168.600000000002
 20
4206.082580843268
 30
0.0
 11
4168.600000000002
 21
4213.282580843269
 31
0.0
  0
LINE
  5
14BB6
330
747D
100
AcDbEntity
  8
部品1
100
AcDbLine
 10
4168.600000000002
 20
4206.082580843268
 30
0.0
 11
4172.6
 21
4206.082580843268
 31
0.0
  0
LINE
  5
14BB7
330
747D
100
AcDbEntity
  8
部品1
 48
50.0
100
AcDbLine
 10
4198.6
 20
4219.582580843269
 30
0.0
 11
4172.600000000001
 21
4219.582580843269
 31
0.0
  0
ARC
  5
14BBC
330
747D
100
AcDbEntity
  8
部品1
100
AcDbCircle
 10
4201.6
 20
4147.582580843269
 30
0.0
 40
2.0
100
AcDbArc
 50
0.0
 51
90.00000000000026
  0
LINE
  5
14BBD
330
747D
100
AcDbEntity
  8
部品1
100
AcDbLine
 10
4201.6
 20
4149.582580843269
 30
0.0
 11
4199.6
 21
4149.582580843269
 31
0.0
  0
LINE
  5
14BBE
330
747D
100
AcDbEntity
  8
部品1
100
AcDbLine
 10
4201.6
 20
4149.582580843269
 30
0.0
 11
4198.6
 21
4149.582580843269
 31
0.0
  0
LINE
  5
14BBF
330
747D
100
AcDbEntity
  8
部品1
100
AcDbLine
 10
4168.6
 20
4171.582580843269
 30
0.0
 11
4198.6
 21
4171.582580843269
 31
0.0
  0
LINE
  5
14BC0
330
747D
100
AcDbEntity
  8
部品1
 48
50.0
100
AcDbLine
 10
4198.6
 20
4153.582580843269
 30
0.0
 11
4179.100000000002
 21
4153.582580843269
 31
0.0
  0
LINE
  5
14BC3
330
747D
100
AcDbEntity
  8
部品1
 48
50.0
100
AcDbLine
 10
4198.6
 20
4171.582580843269
 30
0.0
 11
4172.6
 21
4171.582580843269
 31
0.0
  0
LINE
  5
14BC8
330
747D
100
AcDbEntity
  8
部品1
 48
50.0
100
AcDbLine
 10
4184.6
 20
4664.582580843268
 30
0.0
 11
4184.6
 21
4647.582580843269
 31
0.0
  0
LINE
  5
14BC9
330
747D
100
AcDbEntity
  8
部品1
 48
50.0
100
AcDbLine
 10
4184.6
 20
4647.582580843269
 30
0.0
 11
4172.6
 21
4647.582580843269
 31
0.0
  0
LINE
  5
14BCA
330
747D
100
AcDbEntity
  8
部品1
 48
50.0
100
AcDbLine
 10
4177.100000000001
 20
4647.582580843269
 30
0.0
 11
4177.100000000001
 21
4630.582580843269
 31
0.0
  0
LINE
  5
14BCB
330
747D
100
AcDbEntity
  8
部品1
 48
50.0
100
AcDbLine
 10
4177.100000000001
 20
4630.582580843269
 30
0.0
 11
4168.600000000002
 21
4630.582580843269
 31
0.0
  0
LINE
  5
14BCC
330
747D
100
AcDbEntity
  8
部品1
100
AcDbLine
 10
4172.600000000001
 20
4630.582580843269
 30
0.0
 11
4172.600000000001
 21
4609.582580843269
 31
0.0
  0
LINE
  5
14BCD
330
747D
100
AcDbEntity
  8
部品1
100
AcDbLine
 10
4168.600000000002
 20
4609.582580843269
 30
0.0
 11
4168.600000000002
 21
4602.582580843269
 31
0.0
  0
LINE
  5
14BCE
330
747D
100
AcDbEntity
  8
部品1
100
AcDbLine
 10
4172.600000000001
 20
4609.582580843269
 30
0.0
 11
4168.600000000002
 21
4609.582580843269
 31
0.0
  0
LINE
  5
14BCF
330
747D
100
AcDbEntity
  8
部品1
 48
50.0
100
AcDbLine
 10
4168.600000000002
 20
4630.582580843269
 30
0.0
 11
4168.600000000002
 21
4635.582580843268
 31
0.0
  0
LINE
  5
14BD0
330
747D
100
AcDbEntity
  8
部品1
 48
50.0
100
AcDbLine
 10
4198.6
 20
4594.582580843269
 30
0.0
 11
4172.600000000001
 21
4594.582580843269
 31
0.0
  0
LINE
  5
14BD1
330
747D
100
AcDbEntity
  8
部品1
 48
50.0
100
AcDbLine
 10
4172.6
 20
4647.582580843269
 30
0.0
 11
4172.6
 21
4635.582580843268
 31
0.0
  0
ARC
  5
15A5E
330
747D
100
AcDbEntity
  8
部品1
100
AcDbCircle
 10
4186.100000000004
 20
2795.0
 30
0.0
 40
60.0
100
AcDbArc
 50
276.9319061975846
 51
290.0051900881596
  0
ARC
  5
15A5F
330
747D
100
AcDbEntity
  8
部品1
100
AcDbCircle
 10
4170.600000000003
 20
2739.10948202065
 30
0.0
 40
2.0
100
AcDbArc
 50
179.9999999999998
 51
254.4998214330008
  0
ARC
  5
15A60
330
747D
100
AcDbEntity
  8
部品1
100
AcDbCircle
 10
4186.100000000004
 20
2795.0
 30
0.0
 40
58.0
100
AcDbArc
 50
265.0439082357273
 51
274.9560917642722
  0
ARC
  5
15A61
330
747D
100
AcDbEntity
  8
部品1
100
AcDbCircle
 10
4179.100000000004
 20
2737.423963318061
 30
0.0
 40
2.0
100
AcDbArc
 50
263.068093802415
 51
354.0560010190712
  0
ARC
  5
15A62
330
747D
100
AcDbEntity
  8
部品1
100
AcDbCircle
 10
4186.100000000004
 20
2795.0
 30
0.0
 40
60.0
100
AcDbArc
 50
254.4998214330012
 51
263.068093802415
  0
ARC
  5
15A63
330
747D
100
AcDbEntity
  8
部品1
100
AcDbCircle
 10
4193.100000000003
 20
2737.423963318061
 30
0.0
 40
2.0
100
AcDbArc
 50
185.9439989809287
 51
276.9319061975846
  0
ARC
  5
15A64
330
747D
100
AcDbEntity
  8
細線
 48
50.0
100
AcDbCircle
 10
4186.100000000004
 20
2827.928932188135
 30
0.0
 40
58.0
100
AcDbArc
 50
265.0439082357273
 51
274.9560917642722
  0
ARC
  5
15A65
330
747D
100
AcDbEntity
  8
細線
 48
50.0
100
AcDbCircle
 10
4186.100000000003
 20
2737.810074786312
 30
0.0
 40
58.0
100
AcDbArc
 50
85.04390823572753
 51
94.95609176427235
  0
ARC
  5
15A66
330
747D
100
AcDbEntity
  8
部品1
100
AcDbCircle
 10
4186.100000000004
 20
2760.00000000001
 30
0.0
 40
58.0
100
AcDbArc
 50
85.04390823572817
 51
94.95609176427299
  0
ARC
  5
15A67
330
747D
100
AcDbEntity
  8
部品1
100
AcDbCircle
 10
4186.100000000004
 20
2760.00000000001
 30
0.0
 40
60.0
100
AcDbArc
 50
69.99480991184078
 51
105.5001785669991
  0
ARC
  5
15A68
330
747D
100
AcDbEntity
  8
細線
 48
50.0
100
AcDbCircle
 10
4186.100000000004
 20
2827.928932188135
 30
0.0
 40
60.0
100
AcDbArc
 50
254.4998214330012
 51
263.068093802415
  0
ARC
  5
15A69
330
747D
100
AcDbEntity
  8
細線
 48
50.0
100
AcDbCircle
 10
4186.100000000003
 20
2737.810074786312
 30
0.0
 40
60.0
100
AcDbArc
 50
96.93190619758475
 51
105.5001785669984
  0
LINE
  5
15A6A
330
747D
100
AcDbEntity
  8
部品1
100
AcDbLine
 10
4168.600000000004
 20
2739.10948202065
 30
0.0
 11
4168.600000000004
 21
2815.890517979359
 31
0.0
  0
ARC
  5
15A6B
330
747D
100
AcDbEntity
  8
部品1
100
AcDbCircle
 10
4170.600000000003
 20
2815.890517979359
 30
0.0
 40
2.0
100
AcDbArc
 50
105.5001785669995
 51
180.0000000000005
  0
ARC
  5
15A6C
330
747D
100
AcDbEntity
  8
部品1
100
AcDbCircle
 10
4179.100000000004
 20
2817.576036681949
 30
0.0
 40
2.0
100
AcDbArc
 50
5.943998980929121
 51
96.93190619758528
  0
ARC
  5
15A6D
330
747D
100
AcDbEntity
  8
細線
 48
50.0
100
AcDbCircle
 10
4186.100000000003
 20
2737.810074786312
 30
0.0
 40
60.0
100
AcDbArc
 50
69.30162727144211
 51
83.0680938024151
  0
ARC
  5
15A6E
330
747D
100
AcDbEntity
  8
細線
 48
50.0
100
AcDbCircle
 10
4186.100000000004
 20
2827.928932188135
 30
0.0
 40
60.0
100
AcDbArc
 50
276.9319061975846
 51
290.6983727285576
  0
LINE
  5
15A6F
330
747D
100
AcDbEntity
  8
部品1
100
AcDbLine
 10
4208.600000000004
 20
2741.439286785928
 30
0.0
 11
4208.600000000004
 21
2813.560713214081
 31
0.0
  0
ARC
  5
15A70
330
747D
100
AcDbEntity
  8
部品1
100
AcDbCircle
 10
4205.600000000004
 20
2741.439286785928
 30
0.0
 40
3.0
100
AcDbArc
 50
290.0051900881601
 51
0.0
  0
ARC
  5
15A71
330
747D
100
AcDbEntity
  8
部品1
100
AcDbCircle
 10
4193.100000000003
 20
2817.576036681949
 30
0.0
 40
2.0
100
AcDbArc
 50
83.06809380241576
 51
174.0560010190715
  0
ARC
  5
15A72
330
747D
100
AcDbEntity
  8
部品1
100
AcDbCircle
 10
4205.600000000004
 20
2813.560713214081
 30
0.0
 40
3.0
100
AcDbArc
 50
0.0000000000003257
 51
69.99480991184026
  0
ARC
  5
15A73
330
747D
100
AcDbEntity
  8
部品1
100
AcDbCircle
 10
2136.599999999997
 20
2739.10948202065
 30
0.0
 40
2.0
100
AcDbArc
 50
285.5001785669992
 51
0.0000000000002106
  0
ARC
  5
15A74
330
747D
100
AcDbEntity
  8
部品1
100
AcDbCircle
 10
2121.099999999997
 20
2795.0
 30
0.0
 40
60.0
100
AcDbArc
 50
249.9948099118404
 51
263.0680938024154
  0
ARC
  5
15A75
330
747D
100
AcDbEntity
  8
部品1
100
AcDbCircle
 10
2114.099999999996
 20
2737.423963318061
 30
0.0
 40
2.0
100
AcDbArc
 50
263.0680938024154
 51
354.0560010190713
  0
ARC
  5
15A76
330
747D
100
AcDbEntity
  8
部品1
100
AcDbCircle
 10
2121.099999999997
 20
2795.0
 30
0.0
 40
60.0
100
AcDbArc
 50
276.931906197585
 51
285.5001785669987
  0
ARC
  5
15A77
330
747D
100
AcDbEntity
  8
部品1
100
AcDbCircle
 10
2128.099999999997
 20
2737.423963318061
 30
0.0
 40
2.0
100
AcDbArc
 50
185.9439989809288
 51
276.931906197585
  0
ARC
  5
15A78
330
747D
100
AcDbEntity
  8
部品1
100
AcDbCircle
 10
2121.099999999997
 20
2795.0
 30
0.0
 40
58.0
100
AcDbArc
 50
265.0439082357278
 51
274.9560917642727
  0
ARC
  5
15A79
330
747D
100
AcDbEntity
  8
細線
 48
50.0
100
AcDbCircle
 10
2121.099999999997
 20
2827.928932188135
 30
0.0
 40
60.0
100
AcDbArc
 50
249.3016272714424
 51
263.0680938024154
  0
ARC
  5
15A7A
330
747D
100
AcDbEntity
  8
細線
 48
50.0
100
AcDbCircle
 10
2121.099999999998
 20
2737.810074786312
 30
0.0
 40
60.0
100
AcDbArc
 50
96.93190619758489
 51
110.6983727285578
  0
ARC
  5
15A7B
330
747D
100
AcDbEntity
  8
細線
 48
50.0
100
AcDbCircle
 10
2121.099999999998
 20
2737.810074786312
 30
0.0
 40
60.0
100
AcDbArc
 50
74.49982143300158
 51
83.06809380241526
  0
ARC
  5
15A7C
330
747D
100
AcDbEntity
  8
細線
 48
50.0
100
AcDbCircle
 10
2121.099999999997
 20
2827.928932188135
 30
0.0
 40
60.0
100
AcDbArc
 50
276.931906197585
 51
285.5001785669987
  0
ARC
  5
15A7D
330
747D
100
AcDbEntity
  8
細線
 48
50.0
100
AcDbCircle
 10
2121.099999999998
 20
2737.810074786312
 30
0.0
 40
58.0
100
AcDbArc
 50
85.04390823572766
 51
94.95609176427249
  0
ARC
  5
15A7E
330
747D
100
AcDbEntity
  8
細線
 48
50.0
100
AcDbCircle
 10
2121.099999999997
 20
2827.928932188135
 30
0.0
 40
58.0
100
AcDbArc
 50
265.0439082357278
 51
274.9560917642727
  0
ARC
  5
15A7F
330
747D
100
AcDbEntity
  8
部品1
100
AcDbCircle
 10
2101.599999999997
 20
2813.560713214081
 30
0.0
 40
3.0
100
AcDbArc
 50
110.0051900881597
 51
179.9999999999996
  0
ARC
  5
15A80
330
747D
100
AcDbEntity
  8
部品1
100
AcDbCircle
 10
2114.099999999996
 20
2817.576036681949
 30
0.0
 40
2.0
100
AcDbArc
 50
5.943998980928432
 51
96.93190619758423
  0
ARC
  5
15A81
330
747D
100
AcDbEntity
  8
部品1
100
AcDbCircle
 10
2101.599999999997
 20
2741.439286785928
 30
0.0
 40
3.0
100
AcDbArc
 50
180.0
 51
249.9948099118399
  0
LINE
  5
15A82
330
747D
100
AcDbEntity
  8
部品1
100
AcDbLine
 10
2098.599999999997
 20
2741.439286785928
 30
0.0
 11
2098.599999999997
 21
2813.560713214081
 31
0.0
  0
ARC
  5
15A83
330
747D
100
AcDbEntity
  8
部品1
100
AcDbCircle
 10
2128.099999999997
 20
2817.576036681949
 30
0.0
 40
2.0
100
AcDbArc
 50
83.06809380241473
 51
174.0560010190709
  0
ARC
  5
15A84
330
747D
100
AcDbEntity
  8
部品1
100
AcDbCircle
 10
2136.599999999997
 20
2815.890517979359
 30
0.0
 40
2.0
100
AcDbArc
 50
359.9999999999995
 51
74.49982143300052
  0
LINE
  5
15A85
330
747D
100
AcDbEntity
  8
部品1
100
AcDbLine
 10
2138.599999999997
 20
2739.10948202065
 30
0.0
 11
2138.599999999997
 21
2815.890517979359
 31
0.0
  0
ARC
  5
15A86
330
747D
100
AcDbEntity
  8
部品1
100
AcDbCircle
 10
2121.099999999997
 20
2760.00000000001
 30
0.0
 40
60.0
100
AcDbArc
 50
74.4998214330009
 51
110.0051900881592
  0
ARC
  5
15A87
330
747D
100
AcDbEntity
  8
部品1
100
AcDbCircle
 10
2121.099999999997
 20
2760.00000000001
 30
0.0
 40
58.0
100
AcDbArc
 50
85.04390823572704
 51
94.95609176427182
  0
LINE
  5
15BA3
330
747D
100
AcDbEntity
  8
部品1
 48
50.0
100
AcDbLine
 10
3485.300000000002
 20
4647.582580843269
 30
0.0
 11
3509.300000000002
 21
4647.582580843269
 31
0.0
  0
LINE
  5
15BA4
330
747D
100
AcDbEntity
  8
部品1
 48
50.0
100
AcDbLine
 10
3509.300000000002
 20
4647.582580843269
 30
0.0
 11
3509.300000000002
 21
4635.582580843268
 31
0.0
  0
LINE
  5
15BA5
330
747D
100
AcDbEntity
  8
部品1
 48
50.0
100
AcDbLine
 10
3497.300000000001
 20
4664.582580843268
 30
0.0
 11
3497.300000000001
 21
4647.582580843269
 31
0.0
  0
LINE
  5
15BA6
330
747D
100
AcDbEntity
  8
部品1
 48
50.0
100
AcDbLine
 10
3485.300000000002
 20
4647.582580843269
 30
0.0
 11
3485.300000000002
 21
4635.582580843268
 31
0.0
  0
LINE
  5
15BC3
330
747D
100
AcDbEntity
  8
部品1
 48
50.0
100
AcDbLine
 10
3823.450000000002
 20
4664.58258084327
 30
0.0
 11
3828.450000000002
 21
4638.582580843269
 31
0.0
  0
LINE
  5
15BC4
330
747D
100
AcDbEntity
  8
部品1
 48
50.0
100
AcDbLine
 10
3858.450000000002
 20
4664.58258084327
 30
0.0
 11
3853.450000000002
 21
4638.582580843269
 31
0.0
  0
LINE
  5
15BC7
330
747D
100
AcDbEntity
  8
部品1
 48
50.0
100
AcDbLine
 10
3171.100000000001
 20
4664.58258084327
 30
0.0
 11
3166.100000000001
 21
4638.582580843269
 31
0.0
  0
LINE
  5
15BC8
330
747D
100
AcDbEntity
  8
部品1
 48
50.0
100
AcDbLine
 10
3136.100000000001
 20
4664.58258084327
 30
0.0
 11
3141.100000000001
 21
4638.582580843269
 31
0.0
  0
LINE
  5
15BF7
330
747D
100
AcDbEntity
  8
部品1
100
AcDbLine
 10
4172.6
 20
4155.582580843269
 30
0.0
 11
4172.6
 21
4206.082580843265
 31
0.0
  0
ARC
  5
15BF8
330
747D
100
AcDbEntity
  8
部品1
100
AcDbCircle
 10
4175.600000000001
 20
4153.582580843269
 30
0.0
 40
2.0
100
AcDbArc
 50
0.0000000000008721
 51
90.00000000000035
  0
LINE
  5
15BF9
330
747D
100
AcDbEntity
  8
部品1
100
AcDbLine
 10
4168.6
 20
4155.582580843267
 30
0.0
 11
4175.600000000001
 21
4155.582580843269
 31
0.0
  0
LINE
  5
15BFA
330
747D
100
AcDbEntity
  8
部品1
 48
50.0
100
AcDbLine
 10
4179.1
 20
4144.582580843269
 30
0.0
 11
4177.6
 21
4146.082580843269
 31
0.0
  0
LINE
  5
15BFB
330
747D
100
AcDbEntity
  8
部品1
100
AcDbLine
 10
4177.6
 20
4142.582580843269
 30
0.0
 11
4177.6
 21
4153.582580843269
 31
0.0
  0
ARC
  5
15BFC
330
747D
100
AcDbEntity
  8
部品1
100
AcDbCircle
 10
4175.600000000001
 20
4142.582580843267
 30
0.0
 40
2.0
100
AcDbArc
 50
269.9999999999998
 51
0.0000000000008721
  0
LINE
  5
15BFD
330
747D
100
AcDbEntity
  8
部品1
100
AcDbLine
 10
4175.600000000001
 20
4140.582580843267
 30
0.0
 11
4168.6
 21
4140.582580843269
 31
0.0
  0
LINE
  5
15BFE
330
747D
100
AcDbEntity
  8
部品1
100
AcDbLine
 10
4168.600000000002
 20
4143.582580843268
 30
0.0
 11
4168.6
 21
4108.692062863918
 31
0.0
  0
LINE
  5
15BFF
330
747D
100
AcDbEntity
  8
部品1
100
AcDbLine
 10
4168.600000000004
 20
4171.582580843267
 30
0.0
 11
4168.600000000002
 21
4152.582580843269
 31
0.0
  0
LINE
  5
15C0F
330
747D
100
AcDbEntity
  8
部品1
 48
50.0
100
AcDbLine
 10
3645.100000000003
 20
4165.58258084327
 30
0.0
 11
4168.100000000002
 21
4165.58258084327
 31
0.0
  0
LINE
  5
15C10
330
747D
100
AcDbEntity
  8
部品1
 48
50.0
100
AcDbLine
 10
3645.100000000003
 20
4139.582580843269
 30
0.0
 11
3645.100000000003
 21
4165.58258084327
 31
0.0
  0
LINE
  5
15C11
330
747D
100
AcDbEntity
  8
部品1
 48
50.0
100
AcDbLine
 10
3665.100000000002
 20
4143.582580843268
 30
0.0
 11
4175.100000000003
 21
4143.582580843268
 31
0.0
  0
LINE
  5
15C12
330
747D
100
AcDbEntity
  8
部品1
 48
50.0
100
AcDbLine
 10
3645.100000000003
 20
4139.582580843269
 30
0.0
 11
3665.100000000002
 21
4139.582580843269
 31
0.0
  0
LINE
  5
15C13
330
747D
100
AcDbEntity
  8
部品1
 48
50.0
100
AcDbLine
 10
3665.100000000002
 20
4139.582580843269
 30
0.0
 11
3665.100000000002
 21
4143.582580843268
 31
0.0
  0
LINE
  5
15C14
330
747D
100
AcDbEntity
  8
部品1
 48
50.0
100
AcDbLine
 10
3680.600000000001
 20
4115.582580843256
 30
0.0
 11
3680.600000000001
 21
4137.582580843257
 31
0.0
  0
LINE
  5
15C15
330
747D
100
AcDbEntity
  8
部品1
 48
50.0
100
AcDbLine
 10
3924.100000000003
 20
4165.58258084327
 30
0.0
 11
3924.100000000003
 21
4143.582580843268
 31
0.0
  0
LINE
  5
15C16
330
747D
100
AcDbEntity
  8
部品1
 48
50.0
100
AcDbLine
 10
3889.100000000003
 20
4165.58258084327
 30
0.0
 11
3889.100000000003
 21
4143.582580843268
 31
0.0
  0
LINE
  5
15C17
330
747D
100
AcDbEntity
  8
部品1
 48
50.0
100
AcDbLine
 10
4168.100000000002
 20
4165.58258084327
 30
0.0
 11
4168.100000000002
 21
4152.582580843269
 31
0.0
  0
LINE
  5
15C18
330
747D
100
AcDbEntity
  8
部品1
 48
50.0
100
AcDbLine
 10
4168.100000000002
 20
4152.582580843269
 30
0.0
 11
4175.100000000003
 21
4152.582580843269
 31
0.0
  0
LINE
  5
15C19
330
747D
100
AcDbEntity
  8
部品1
 48
50.0
100
AcDbLine
 10
4175.100000000003
 20
4152.582580843269
 30
0.0
 11
4175.100000000003
 21
4143.582580843268
 31
0.0
  0
LINE
  5
15C1A
330
747D
100
AcDbEntity
  8
部品1
 48
50.0
100
AcDbLine
 10
4168.100000000002
 20
4155.082580843267
 30
0.0
 11
4168.6
 21
4155.082580843267
 31
0.0
  0
LINE
  5
15C1B
330
747D
100
AcDbEntity
  8
部品1
 48
50.0
100
AcDbLine
 10
3680.600000000001
 20
4127.082580843269
 30
0.0
 11
4160.600000000002
 21
4127.082580843267
 31
0.0
  0
LINE
  5
15C1C
330
747D
100
AcDbEntity
  8
部品1
 48
50.0
100
AcDbLine
 10
3680.600000000001
 20
4137.582580843257
 30
0.0
 11
3153.600000000001
 21
4137.582580843257
 31
0.0
  0
LINE
  5
15C1D
330
747D
100
AcDbEntity
  8
部品1
 48
50.0
100
AcDbLine
 10
3153.600000000001
 20
4137.582580843257
 30
0.0
 11
3153.600000000001
 21
4115.582580843256
 31
0.0
  0
LINE
  5
15C1E
330
747D
100
AcDbEntity
  8
部品1
 48
50.0
100
AcDbLine
 10
3153.600000000001
 20
4115.582580843256
 30
0.0
 11
3680.600000000001
 21
4115.582580843256
 31
0.0
  0
LINE
  5
15C40
330
747D
100
AcDbEntity
  8
部品1
 48
50.0
100
AcDbLine
 10
2866.35
 20
4126.582580843256
 30
0.0
 11
2863.35
 21
4115.582580843256
 31
0.0
  0
LINE
  5
15C41
330
747D
100
AcDbEntity
  8
部品1
 48
50.0
100
AcDbLine
 10
2909.35
 20
4126.582580843256
 30
0.0
 11
2912.35
 21
4115.582580843256
 31
0.0
  0
ARC
  5
15CA5
330
747D
100
AcDbEntity
  8
部品1
 48
20.0
100
AcDbCircle
 10
3226.94843341835
 20
2035.568139086208
 30
0.0
 40
10.0
100
AcDbArc
 50
6.64546636425039
 51
87.3033948452954
  0
ARC
  5
15CA6
330
747D
100
AcDbEntity
  8
部品1
 48
20.0
100
AcDbCircle
 10
3190.251566581651
 20
2035.568139086209
 30
0.0
 40
10.0
100
AcDbArc
 50
92.6966051547043
 51
173.3545336357529
  0
ARC
  5
15CA7
330
747D
100
AcDbEntity
  8
部品1
 48
20.0
100
AcDbCircle
 10
2243.599999999999
 20
1920.999999999992
 30
0.0
 40
1000.0
100
AcDbArc
 50
353.354533635753
 51
6.645466364247897
  0
ARC
  5
15CA8
330
747D
100
AcDbEntity
  8
部品1
 48
20.0
100
AcDbCircle
 10
4173.599999999999
 20
1920.999999999992
 30
0.0
 40
1000.0
100
AcDbArc
 50
173.3545336357521
 51
186.6454663642471
  0
ARC
  5
15CA9
330
747D
100
AcDbEntity
  8
細線
 48
50.0
100
AcDbCircle
 10
2243.599999999999
 20
1920.999999999992
 30
0.0
 40
995.0
100
AcDbArc
 50
353.354533635753
 51
6.645466364247897
  0
ARC
  5
15CAA
330
747D
100
AcDbEntity
  8
細線
 48
50.0
100
AcDbCircle
 10
4173.599999999999
 20
1920.999999999992
 30
0.0
 40
995.0
100
AcDbArc
 50
173.3545336357521
 51
186.6454663642471
  0
ARC
  5
15CAB
330
747D
100
AcDbEntity
  8
細線
 48
50.0
100
AcDbCircle
 10
3208.599999999999
 20
2195.999999999999
 30
0.0
 40
395.0
100
AcDbArc
 50
267.3033948452958
 51
272.6966051547048
  0
ARC
  5
15CAC
330
747D
100
AcDbEntity
  8
部品1
 48
20.0
100
AcDbCircle
 10
3208.599999999999
 20
2195.999999999999
 30
0.0
 40
400.0
100
AcDbArc
 50
267.3033948452958
 51
272.6966051547048
  0
ARC
  5
15CAD
330
747D
100
AcDbEntity
  8
部品1
 48
20.0
100
AcDbCircle
 10
3226.948433418352
 20
1806.43186091379
 30
0.0
 40
10.0
100
AcDbArc
 50
272.696605154706
 51
353.3545336357532
  0
ARC
  5
15CAE
330
747D
100
AcDbEntity
  8
細線
 48
50.0
100
AcDbCircle
 10
3226.948433418352
 20
1806.43186091379
 30
0.0
 40
5.0
100
AcDbArc
 50
272.6966051547074
 51
353.3545336357531
  0
ARC
  5
15CAF
330
747D
100
AcDbEntity
  8
部品1
 48
20.0
100
AcDbCircle
 10
3190.251566581651
 20
1806.43186091379
 30
0.0
 40
10.0
100
AcDbArc
 50
186.6454663642466
 51
267.3033948452959
  0
ARC
  5
15CB0
330
747D
100
AcDbEntity
  8
細線
 48
50.0
100
AcDbCircle
 10
3190.251566581651
 20
1806.43186091379
 30
0.0
 40
5.0
100
AcDbArc
 50
186.6454663642461
 51
267.3033948452958
  0
LINE
  5
15CB1
330
747D
100
AcDbEntity
  8
部品1
 48
20.0
100
AcDbLine
 10
3213.599999999999
 20
2018.429621181404
 30
0.0
 11
3213.599999999999
 21
1823.570378818596
 31
0.0
  0
LINE
  5
15CB2
330
747D
100
AcDbEntity
  8
部品1
 48
20.0
100
AcDbLine
 10
3203.599999999999
 20
2018.429621181402
 30
0.0
 11
3203.599999999999
 21
1823.570378818596
 31
0.0
  0
ELLIPSE
  5
15CB3
330
747D
100
AcDbEntity
  8
部品1
100
AcDbEllipse
 10
3208.599999999999
 20
1823.570378818596
 30
0.0
 11
0.0
 21
-9.770631002828395
 31
0.0
210
0.0
220
0.0
230
-1.0
 40
0.5117376757501746
 41
4.712388980384689
 42
7.853981633974482
  0
ELLIPSE
  5
15CB4
330
747D
100
AcDbEntity
  8
部品1
100
AcDbEllipse
 10
3208.599999999999
 20
2018.429621181401
 30
0.0
 11
0.0
 21
9.770631002828395
 31
0.0
210
0.0
220
0.0
230
1.0
 40
0.5117376757501746
 41
4.712388980384689
 42
7.853981633974482
  0
ARC
  5
15CB5
330
747D
100
AcDbEntity
  8
細線
 48
50.0
100
AcDbCircle
 10
3208.599999999999
 20
1645.999999999999
 30
0.0
 40
395.0
100
AcDbArc
 50
87.30339484529553
 51
92.69660515470402
  0
ARC
  5
15CB6
330
747D
100
AcDbEntity
  8
細線
 48
50.0
100
AcDbCircle
 10
3226.94843341835
 20
2035.568139086208
 30
0.0
 40
5.0
100
AcDbArc
 50
6.645466364253289
 51
87.30339484529535
  0
ARC
  5
15CB7
330
747D
100
AcDbEntity
  8
細線
 48
50.0
100
AcDbCircle
 10
3190.251566581651
 20
2035.568139086209
 30
0.0
 40
5.0
100
AcDbArc
 50
92.6966051547046
 51
173.3545336357539
  0
ARC
  5
15CB8
330
747D
100
AcDbEntity
  8
部品1
 48
20.0
100
AcDbCircle
 10
3208.599999999999
 20
1645.999999999999
 30
0.0
 40
400.0
100
AcDbArc
 50
87.30339484529553
 51
92.69660515470402
  0
ARC
  5
15CB9
330
747D
100
AcDbEntity
  8
部品1
 48
20.0
100
AcDbCircle
 10
4094.751566581652
 20
2035.568139086208
 30
0.0
 40
10.0
100
AcDbArc
 50
92.69660515470459
 51
173.3545336357496
  0
ARC
  5
15CBA
330
747D
100
AcDbEntity
  8
部品1
 48
20.0
100
AcDbCircle
 10
4131.448433418351
 20
2035.568139086209
 30
0.0
 40
10.0
100
AcDbArc
 50
6.645466364247081
 51
87.3033948452957
  0
ARC
  5
15CBB
330
747D
100
AcDbEntity
  8
細線
 48
50.0
100
AcDbCircle
 10
3148.100000000002
 20
1920.999999999992
 30
0.0
 40
995.0
100
AcDbArc
 50
353.3545336357529
 51
6.645466364247845
  0
ARC
  5
15CBC
330
747D
100
AcDbEntity
  8
細線
 48
50.0
100
AcDbCircle
 10
5078.100000000002
 20
1920.999999999992
 30
0.0
 40
995.0
100
AcDbArc
 50
173.3545336357521
 51
186.645466364247
  0
ARC
  5
15CBD
330
747D
100
AcDbEntity
  8
部品1
 48
20.0
100
AcDbCircle
 10
5078.100000000002
 20
1920.999999999992
 30
0.0
 40
1000.0
100
AcDbArc
 50
173.3545336357521
 51
186.645466364247
  0
ARC
  5
15CBE
330
747D
100
AcDbEntity
  8
部品1
 48
20.0
100
AcDbCircle
 10
3148.100000000002
 20
1920.999999999992
 30
0.0
 40
1000.0
100
AcDbArc
 50
353.3545336357529
 51
6.645466364247845
  0
ARC
  5
15CBF
330
747D
100
AcDbEntity
  8
細線
 48
50.0
100
AcDbCircle
 10
4131.448433418352
 20
1806.43186091379
 30
0.0
 40
5.0
100
AcDbArc
 50
272.6966051547042
 51
353.3545336357538
  0
ARC
  5
15CC0
330
747D
100
AcDbEntity
  8
細線
 48
50.0
100
AcDbCircle
 10
4094.751566581652
 20
1806.43186091379
 30
0.0
 40
5.0
100
AcDbArc
 50
186.6454663642469
 51
267.3033948452926
  0
ARC
  5
15CC1
330
747D
100
AcDbEntity
  8
細線
 48
50.0
100
AcDbCircle
 10
4113.100000000004
 20
2195.999999999999
 30
0.0
 40
395.0
100
AcDbArc
 50
267.3033948452952
 51
272.6966051547042
  0
ARC
  5
15CC2
330
747D
100
AcDbEntity
  8
部品1
 48
20.0
100
AcDbCircle
 10
4131.448433418352
 20
1806.43186091379
 30
0.0
 40
10.0
100
AcDbArc
 50
272.6966051547041
 51
353.3545336357534
  0
ARC
  5
15CC3
330
747D
100
AcDbEntity
  8
部品1
 48
20.0
100
AcDbCircle
 10
4094.751566581652
 20
1806.43186091379
 30
0.0
 40
10.0
100
AcDbArc
 50
186.6454663642468
 51
267.3033948452939
  0
ARC
  5
15CC4
330
747D
100
AcDbEntity
  8
部品1
 48
20.0
100
AcDbCircle
 10
4113.100000000004
 20
2195.999999999999
 30
0.0
 40
400.0
100
AcDbArc
 50
267.3033948452952
 51
272.6966051547042
  0
LINE
  5
15CC5
330
747D
100
AcDbEntity
  8
部品1
 48
20.0
100
AcDbLine
 10
4108.100000000002
 20
2018.429621181404
 30
0.0
 11
4108.100000000002
 21
1823.570378818596
 31
0.0
  0
LINE
  5
15CC6
330
747D
100
AcDbEntity
  8
部品1
 48
20.0
100
AcDbLine
 10
4118.100000000002
 20
2018.429621181402
 30
0.0
 11
4118.100000000002
 21
1823.570378818596
 31
0.0
  0
ELLIPSE
  5
15CC7
330
747D
100
AcDbEntity
  8
部品1
100
AcDbEllipse
 10
4113.100000000001
 20
1823.570378818596
 30
0.0
 11
0.0
 21
-9.770631002828395
 31
0.0
210
0.0
220
0.0
230
1.0
 40
0.5117376757501746
 41
4.712388980384689
 42
7.853981633974482
  0
ARC
  5
15CC8
330
747D
100
AcDbEntity
  8
細線
 48
50.0
100
AcDbCircle
 10
4113.100000000004
 20
1645.999999999999
 30
0.0
 40
395.0
100
AcDbArc
 50
87.30339484529599
 51
92.69660515470446
  0
ARC
  5
15CC9
330
747D
100
AcDbEntity
  8
細線
 48
50.0
100
AcDbCircle
 10
4131.448433418351
 20
2035.568139086209
 30
0.0
 40
5.0
100
AcDbArc
 50
6.645466364246064
 51
87.3033948452954
  0
ARC
  5
15CCA
330
747D
100
AcDbEntity
  8
細線
 48
50.0
100
AcDbCircle
 10
4094.751566581652
 20
2035.568139086208
 30
0.0
 40
5.0
100
AcDbArc
 50
92.69660515470468
 51
173.3545336357467
  0
ELLIPSE
  5
15CCB
330
747D
100
AcDbEntity
  8
部品1
100
AcDbEllipse
 10
4113.100000000001
 20
2018.429621181401
 30
0.0
 11
0.0
 21
9.770631002828395
 31
0.0
210
0.0
220
0.0
230
-1.0
 40
0.5117376757501746
 41
4.712388980384689
 42
7.853981633974482
  0
ARC
  5
15CCC
330
747D
100
AcDbEntity
  8
部品1
 48
20.0
100
AcDbCircle
 10
4113.100000000004
 20
1645.999999999999
 30
0.0
 40
400.0
100
AcDbArc
 50
87.30339484529599
 51
92.69660515470446
  0
LINE
  5
15CCD
330
747D
100
AcDbEntity
  8
部品1
 48
50.0
100
AcDbLine
 10
3685.100000000002
 20
971.0
 30
0.0
 11
3685.1
 21
2740.0
 31
0.0
  0
LINE
  5
15CCF
330
747D
100
AcDbEntity
  8
部品1
 48
50.0
100
AcDbLine
 10
3153.600000000001
 20
2740.0
 30
0.0
 11
3153.600000000001
 21
971.0
 31
0.0
  0
LINE
  5
15CD0
330
747D
100
AcDbEntity
  8
部品1
 48
50.0
100
AcDbLine
 10
4156.600000000002
 20
978.5
 30
0.0
 11
3685.100000000002
 21
978.5000000000005
 31
0.0
  0
LINE
  5
15CD1
330
747D
100
AcDbEntity
  8
部品1
 48
50.0
100
AcDbLine
 10
4160.6
 20
968.0
 30
0.0
 11
4156.600000000002
 21
978.5
 31
0.0
  0
LINE
  5
15D63
330
747D
100
AcDbEntity
  8
部品1
 48
50.0
100
AcDbLine
 10
2909.35
 20
4126.582580843256
 30
0.0
 11
2892.180127018922
 21
4126.582580843256
 31
0.0
  0
ARC
  5
15D64
330
747D
100
AcDbEntity
  8
部品1
 48
50.0
100
AcDbCircle
 10
2887.85
 20
4129.082580843255
 30
0.0
 40
5.0
100
AcDbArc
 50
209.9999999999999
 51
330.0000000000001
  0
LINE
  5
15D65
330
747D
100
AcDbEntity
  8
部品1
 48
50.0
100
AcDbLine
 10
2883.519872981077
 20
4126.582580843256
 30
0.0
 11
2866.35
 21
4126.582580843256
 31
0.0
  0
LINE
  5
15D66
330
747D
100
AcDbEntity
  8
部品1
 48
50.0
100
AcDbLine
 10
3423.680127018923
 20
4126.582580843256
 30
0.0
 11
3440.850000000001
 21
4126.582580843256
 31
0.0
  0
LINE
  5
15D67
330
747D
100
AcDbEntity
  8
部品1
 48
50.0
100
AcDbLine
 10
3397.850000000001
 20
4126.582580843256
 30
0.0
 11
3415.019872981079
 21
4126.582580843256
 31
0.0
  0
ARC
  5
15D68
330
747D
100
AcDbEntity
  8
部品1
 48
50.0
100
AcDbCircle
 10
3419.350000000001
 20
4129.082580843255
 30
0.0
 40
5.0
100
AcDbArc
 50
209.9999999999999
 51
330.0000000000001
  0
LINE
  5
15D69
330
747D
100
AcDbEntity
  8
部品1
 48
50.0
100
AcDbLine
 10
3440.850000000001
 20
4126.582580843256
 30
0.0
 11
3443.850000000001
 21
4115.582580843256
 31
0.0
  0
LINE
  5
15D6A
330
747D
100
AcDbEntity
  8
部品1
 48
50.0
100
AcDbLine
 10
3397.850000000001
 20
4126.582580843256
 30
0.0
 11
3394.850000000001
 21
4115.582580843256
 31
0.0
  0
TEXT
  5
15DCB
330
747D
100
AcDbEntity
  8
文字
 62
     7
 48
50.0
100
AcDbText
 10
6604.7026721086
 20
38.04717353824663
 30
0.0
 40
50.0
  1
○床面積 ： 1.16㎡(0.35坪) 　
  7
STYLE2
100
AcDbText
  0
TEXT
  5
15DCC
330
747D
100
AcDbEntity
  8
文字
 62
     7
 48
50.0
100
AcDbText
 10
6604.7026721086
 20
114.2717621284507
 30
0.0
 40
50.0
  1
○有効開口寸法 ： 956×1749 (mm)
  7
STYLE2
100
AcDbText
  0
TEXT
  5
15DD3
330
747D
100
AcDbEntity
  8
文字
 62
     7
 48
50.0
100
AcDbText
 10
7151.289879453724
 20
241.9483564955708
 30
0.0
 40
80.0
  1
ＫＭＸ－２１５Ｅ
  7
STYLE2
100
AcDbText
  0
OLE2FRAME
  5
16536
330
747D
100
AcDbEntity
  8
寸法
 48
50.0
100
AcDbOle2Frame
 70
     2
  3
Microsoft Office Excel ワークシート
 10
6553.591699265486
 20
5700.859317874522
 30
0.0
 11
8151.507359507411
 21
4741.322846016337
 31
0.0
 71
     2
 72
     0
 73
     1
 90
    19072
310
805554629A799799B940F19741FCDB44B6400000000000000000A60B50E281D7
310
BF40F19741FCDB44B6400000000000000000A60B50E281D7BF40CF5909A65285
310
B240000000000000000054629A799799B940CF5909A65285B240000000000000
310
00003D1FB01201000000000100001200000001000000010001000000004A0000
310
D0CF11E0A1B11AE1000000000000000000000000000000003E000300FEFF0900
310
0600000000000000000000000100000001000000000000000010000002000000
310
01000000FEFFFFFF0000000000000000FFFFFFFFFFFFFFFFFFFFFFFFFFFFFFFF
310
FFFFFFFFFFFFFFFFFFFFFFFFFFFFFFFFFFFFFFFFFFFFFFFFFFFFFFFFFFFFFFFF
310
FFFFFFFFFFFFFFFFFFFFFFFFFFFFFFFFFFFFFFFFFFFFFFFFFFFFFFFFFFFFFFFF
310
FFFFFFFFFFFFFFFFFFFFFFFFFFFFFFFFFFFFFFFFFFFFFFFFFFFFFFFFFFFFFFFF
310
FFFFFFFFFFFFFFFFFFFFFFFFFFFFFFFFFFFFFFFFFFFFFFFFFFFFFFFFFFFFFFFF
310
FFFFFFFFFFFFFFFFFFFFFFFFFFFFFFFFFFFFFFFFFFFFFFFFFFFFFFFFFFFFFFFF
310
FFFFFFFFFFFFFFFFFFFFFFFFFFFFFFFFFFFFFFFFFFFFFFFFFFFFFFFFFFFFFFFF
310
FFFFFFFFFFFFFFFFFFFFFFFFFFFFFFFFFFFFFFFFFFFFFFFFFFFFFFFFFFFFFFFF
310
FFFFFFFFFFFFFFFFFFFFFFFFFFFFFFFFFFFFFFFFFFFFFFFFFFFFFFFFFFFFFFFF
310
FFFFFFFFFFFFFFFFFFFFFFFFFFFFFFFFFFFFFFFFFFFFFFFFFFFFFFFFFFFFFFFF
310
FFFFFFFFFFFFFFFFFFFFFFFFFFFFFFFFFFFFFFFFFFFFFFFFFFFFFFFFFFFFFFFF
310
FFFFFFFFFFFFFFFFFFFFFFFFFFFFFFFFFFFFFFFFFFFFFFFFFFFFFFFFFFFFFFFF
310
FFFFFFFFFFFFFFFFFFFFFFFFFFFFFFFFFFFFFFFFFFFFFFFFFFFFFFFFFFFFFFFF
310
FFFFFFFFFFFFFFFFFFFFFFFFFFFFFFFFFFFFFFFFFFFFFFFFFFFFFFFFFFFFFFFF
310
FDFFFFFF0F000000FEFFFFFF1000000005000000060000000700000008000000
310
090000000A0000000B0000000C0000000D0000000E000000FEFFFFFF1A000000
310
1100000012000000130000001400000015000000160000001700000018000000
310
19000000FEFFFFFFFEFFFFFF1C0000001D0000001E0000001F00000020000000
310
210000002200000023000000FEFFFFFFFFFFFFFFFFFFFFFFFFFFFFFFFFFFFFFF
310
FFFFFFFFFFFFFFFFFFFFFFFFFFFFFFFFFFFFFFFFFFFFFFFFFFFFFFFFFFFFFFFF
310
FFFFFFFFFFFFFFFFFFFFFFFFFFFFFFFFFFFFFFFFFFFFFFFFFFFFFFFFFFFFFFFF
310
FFFFFFFFFFFFFFFFFFFFFFFFFFFFFFFFFFFFFFFFFFFFFFFFFFFFFFFFFFFFFFFF
310
FFFFFFFFFFFFFFFFFFFFFFFFFFFFFFFFFFFFFFFFFFFFFFFFFFFFFFFFFFFFFFFF
310
FFFFFFFFFFFFFFFFFFFFFFFFFFFFFFFFFFFFFFFFFFFFFFFFFFFFFFFFFFFFFFFF
310
FFFFFFFFFFFFFFFFFFFFFFFFFFFFFFFFFFFFFFFFFFFFFFFFFFFFFFFFFFFFFFFF
310
FFFFFFFFFFFFFFFFFFFFFFFFFFFFFFFFFFFFFFFFFFFFFFFFFFFFFFFFFFFFFFFF
310
FFFFFFFFFFFFFFFFFFFFFFFFFFFFFFFFFFFFFFFFFFFFFFFFFFFFFFFFFFFFFFFF
310
FFFFFFFFFFFFFFFFFFFFFFFFFFFFFFFFFFFFFFFFFFFFFFFFFFFFFFFFFFFFFFFF
310
FFFFFFFFFFFFFFFFFFFFFFFFFFFFFFFFFFFFFFFFFFFFFFFFFFFFFFFFFFFFFFFF
310
FFFFFFFFFFFFFFFFFFFFFFFFFFFFFFFFFFFFFFFFFFFFFFFFFFFFFFFFFFFFFFFF
310
52006F006F007400200045006E00740072007900000000000000000000000000
310
0000000000000000000000000000000000000000000000000000000000000000
310
16000500FFFFFFFFFFFFFFFF010000002008020000000000C000000000000046
310
000000000000000000000000101F273FCA9EC801030000008015000000000000
310
57006F0072006B0062006F006F006B0000000000000000000000000000000000
310
0000000000000000000000000000000000000000000000000000000000000000
310
120002010500000003000000FFFFFFFF00000000000000000000000000000000
310
000000000000000000000000000000000000000004000000DF14000000000000
310
010043006F006D0070004F0062006A0000000000000000000000000000000000
310
0000000000000000000000000000000000000000000000000000000000000000
310
12000200FFFFFFFFFFFFFFFFFFFFFFFF00000000000000000000000000000000
310
0000000000000000000000000000000000000000000000006900000000000000
310
0500530075006D006D0061007200790049006E0066006F0072006D0061007400
310
69006F006E000000000000000000000000000000000000000000000000000000
310
280002000600000004000000FFFFFFFF00000000000000000000000000000000
310
000000000000000000000000000000000000000002000000D000000000000000
310
01000000FEFFFFFF030000000400000005000000FEFFFFFF0700000008000000
310
090000000A000000FEFFFFFFFEFFFFFFFFFFFFFFFFFFFFFFFFFFFFFFFFFFFFFF
310
FFFFFFFFFFFFFFFFFFFFFFFFFFFFFFFFFFFFFFFFFFFFFFFFFFFFFFFFFFFFFFFF
310
FFFFFFFFFFFFFFFFFFFFFFFFFFFFFFFFFFFFFFFFFFFFFFFFFFFFFFFFFFFFFFFF
310
FFFFFFFFFFFFFFFFFFFFFFFFFFFFFFFFFFFFFFFFFFFFFFFFFFFFFFFFFFFFFFFF
310
FFFFFFFFFFFFFFFFFFFFFFFFFFFFFFFFFFFFFFFFFFFFFFFFFFFFFFFFFFFFFFFF
310
FFFFFFFF32000000330000003400000035000000360000003700000038000000
310
390000003A0000003B0000003C0000003D0000003E0000003F00000040000000
310
4100000042000000430000004400000045000000460000004700000048000000
310
490000004A0000004B0000004C0000004D0000004E0000004F00000050000000
310
5100000052000000530000005400000055000000FEFFFFFFFFFFFFFFFFFFFFFF
310
FFFFFFFFFFFFFFFFFFFFFFFFFFFFFFFFFFFFFFFFFFFFFFFFFFFFFFFFFFFFFFFF
310
FFFFFFFFFFFFFFFFFFFFFFFFFFFFFFFFFFFFFFFFFFFFFFFFFFFFFFFFFFFFFFFF
310
FFFFFFFFFFFFFFFFFFFFFFFFFFFFFFFFFFFFFFFFFFFFFFFFFFFFFFFFFFFFFFFF
310
FFFFFFFFFFFFFFFFFFFFFFFFFFFFFFFFFFFFFFFFFFFFFFFFFFFFFFFFFFFFFFFF
310
FFFFFFFFFFFFFFFFFFFFFFFFFFFFFFFFFFFFFFFFFFFFFFFFFFFFFFFFFFFFFFFF
310
0100FEFF030A0000FFFFFFFF2008020000000000C0000000000000461D000000
310
4D6963726F736F667420457863656C20838F815B834E8356815B836700060000
310
004269666638000E000000457863656C2E53686565742E3800F439B271000000
310
0000000000000000000000000000000000000000000000000000000000000000
310
FEFF0000040A02000000000000000000000000000000000001000000E0859FF2
310
F94F6810AB9108002B27B3D930000000A0000000070000000100000040000000
310
0400000048000000080000005800000012000000680000000C00000080000000
310
0D0000008C000000130000009800000002000000A40300001E00000007000000
310
909B96EC90BD00001E000000050000004E455A5500BD00001E00000010000000
310
4D6963726F736F667420457863656C004000000080A21A0EE4E2BE0140000000
310
80F4A9A30E5BC301030000000000000000000000000000000000000000000000
310
0000000000000000000000000000000000000000000000000000000000000000
310
FEFF0000040A0200000000000000000000000000000000000100000002D5CDD5
310
9C2E1B10939708002B2CF9AE30000000EC000000090000000100000050000000
310
0F0000005800000017000000740000000B0000007C0000001000000084000000
310
130000008C00000016000000940000000D0000009C0000000C000000C5000000
310
0908100000060500FE1CCD074140000006010000E1000200B004C10002000000
310
E20000005C0070000400004E455A552020202020202020202020202020202020
310
2020202020202020202020202020202020202020202020202020202020202020
310
2020202020202020202020202020202020202020202020202020202020202020
310
20202020202020202020202020202020202020202020202042000200B0046101
310
02000000C00100003D0106000100020003009C0002000E00DE000800A4270100
310
0B000103190002000000120002000000130002000000AF0102000000BC010200
310
00003D0012008403FF00FC21C012380000000000010058024000020000008D00
310
020000002200020000000E0002000100B70102000000DA000200000031002000
310
DC000000FF7F900100000000800008012DFF33FF200030FFB430B730C330AF30
310
31002000DC000000FF7F900100000000800008012DFF33FF200030FFB430B730
310
C330AF3031002000DC000000FF7F900100000000800008012DFF33FF200030FF
310
B430B730C330AF3031002000DC000000FF7F900100000000800008012DFF33FF
310
200030FFB430B730C330AF303100200078000000FF7F90010000000380000801
310
2DFF33FF200030FFB430B730C330AF301E0418000500130000225C22232C2323
310
303B225C225C2D232C2323301E041D000600180000225C22232C2323303B5B52
310
65645D225C225C2D232C2323301E041E000700190000225C22232C2323302E30
310
303B225C225C2D232C2323302E30301E04230008001E0000225C22232C232330
310
2E30303B5B5265645D225C225C2D232C2323302E30301E0437002A003200005F
310
20225C222A20232C2323305F203B5F20225C222A205C2D232C2323305F203B5F
310
20225C222A20222D225F203B5F20405F201E042E0029002900005F202A20232C
310
2323305F203B5F202A205C2D232C2323305F203B5F202A20222D225F203B5F20
310
405F201E043F002C003A00005F20225C222A20232C2323302E30305F203B5F20
310
225C222A205C2D232C2323302E30305F203B5F20225C222A20222D223F3F5F20
310
3B5F20405F201E0436002B003100005F202A20232C2323302E30305F203B5F20
310
2A205C2D232C2323302E30305F203B5F202A20222D223F3F5F203B5F20405F20
310
1E041A0017001500005C24232C2323305F293B5C285C24232C2323305C291E04
310
1F0018001A00005C24232C2323305F293B5B5265645D5C285C24232C2323305C
310
291E04200019001B00005C24232C2323302E30305F293B5C285C24232C232330
310
2E30305C291E0425001A002000005C24232C2323302E30305F293B5B5265645D
310
5C285C24232C2323302E30305C29E000140000000000F5FF2000000000000000
310
00000000C020E000140001000000F5FF200000F40000000000000000C020E000
310
140001000000F5FF200000F40000000000000000C020E000140002000000F5FF
310
200000F40000000000000000C020E000140002000000F5FF200000F400000000
310
00000000C020E000140000000000F5FF200000F40000000000000000C020E000
310
140000000000F5FF200000F40000000000000000C020E000140000000000F5FF
310
200000F40000000000000000C020E000140000000000F5FF200000F400000000
310
00000000C020E000140000000000F5FF200000F40000000000000000C020E000
310
140000000000F5FF200000F40000000000000000C020E000140000000000F5FF
310
200000F40000000000000000C020E000140000000000F5FF200000F400000000
310
00000000C020E000140000000000F5FF200000F40000000000000000C020E000
310
140000000000F5FF200000F40000000000000000C020E0001400000000000100
310
200000000000000000000000C020E000140001000900F5FF200000F800000000
310
00000000C020E000140001002600F5FF200000F80000000000000000C020E000
310
140001002800F5FF200000F80000000000000000C020E000140001000600F5FF
310
200000F80000000000000000C020E000140001000800F5FF200000F800000000
310
00000000C020E0001400000000000100220000100000000000000000C020E000
310
1400000000000100200000200101400040000000C020E0001400000000000100
310
200000200001000040000000C020E00014000000000001002000002010010020
310
40000000C020E0001400000000000100220000300100400000000000C020E000
310
1400000000000100200000200000000000000000C020E0001400000000000100
310
220000301000002000000000C020E00014000000000001002200003001104000
310
00200000C020E0001400000000000100200000200010000000200000C020E000
310
1400000000000100220000301010002000200000C02093020400108005FF9302
310
0400118006FF93020400128003FF93020400138007FF93020400148004FF9302
310
0400008000FF60010200000085000E00AF090000000006005368656574318500
310
0E004A1100000000060053686565743285000E003D1200000000060053686565
310
74338C00040051005100C1010800C101000080380100FC005302160000001200
310
0000020001C1546A75030001E890C1540D541A00014600310032009221B66E8D
310
879C4E5B92813063304D30FC927F67200028004A004900530020004700200033
310
00330030003200290005000120002000D930FC30B93007000120002000D930FC
310
30B9300B4EA0670400012000200074507F671900004631322020202020202020
310
2020202020202020202020302E36060001200020008A5ED130CD30EB30100001
310
5067996528005067EA8C290020002000200020002000200058534D4F6D006D00
310
19000410000000463132202020202020202020202020202020312E302C312E36
310
01000C000500350000000000000000000F0005100000003B20D930FC30B930BF
310
8A7465C47BF25620001AFF2000330032006D006D0001000C0005003500000000
310
0000000000030004100000004B4D5801000C0005003500000000000000000003
310
00052400000000308C5F7F670100200005003500020005000500A630B730ED30
310
A430BF3000000100010003000200010004000518000000200020004B5C396801
310
00140005003500010002000200E430CD300000020002000300051A0000002000
310
200049620100160005003500010003000300C830D330E9300000020001000800
310
051800000020002000DA687F67280034009A6729000100140005003500010002
310
000200DE30A43000000600010019000410000000463132202020202020202020
310
20202020202020202020302E3601000C00050035000000000000000000190004
310
1000000046313220202020202020202020202020202020202020302E3501000C
310
00050035000000000000000000FF001A000800420700000C000000DD070000A7
310
0000002D090000F70100000A0000000908100000061000FE1CCD074140000006
310
0100000D00020001000C00020064000F000200010011000200000010000800FC
310
A9F1D24D62503F5F00020001002A00020000002B000200000082000200010080
310
00080000000000000000002502040000000E0181000200C10414000000150000
310
008300020000008400020000004D00460300004500500053004F004E0020004C
310
0050002D003800330030003000000084FF000000000C000000000000009CFF2F
310
0000006A004E0061FF4B00200000000000040000042806D40070020303000002
310
000800773D0000640001000700580201000100580200000000FB302E00560077
310
003D009EFF2F009FFF2F000E00FB3023005700010077003D009EFF2F009EFF2F
310
006F000100FB306F0001006000FB30000000000000000000009F01473D000000
310
00040000000000F7000202EF00A0A0173D00F33A87403D000018010000448795
310
7F470115B1F9BF00000000010000000000000008000000010000005734F08704
310
00000000000000000086003634F7BF7742F7BF00000000090009000D000C0001
310
020B0001000600050007000E00250014001B001C000300030204020900090000
310
010000F2F78600534C3031D4F786005745F9BF000001007012781A0100701278
310
1A01000200010003000200030000000000000000000010000001000100000000
310
0000000000000000000000000000000200444C4C4E616D6531363D4550474147
310
32334A2E4452560048BF485F0140880300040001000500010001000100000000
310
0000003088A4DDB8480000BF48000001000000A848000000005F010000000064
310
00000002000200000000000000010000000200009B0000000000000000EF00F4
310
3A3000473D040000001F017288B20A4701BE48AA195E001F011C89E51B47012C
310
00973D6500FFFF98006F019F34270601000000AE480000434F4D4D4354524C00
310
4C4C0000494E444F57535C53595354454D5C4550474147323349274701700808
310
000100B848000018010000D288957F4701987F180101005F011489FB4A470164
310
135F0100000000F8000000F288957F4701987FB8481F015F012C89884C470164
310
135F0100000000F80000002C8900001C89B848473D180100002089957F470198
310
7F180101005F016289FB4A470164135F01B848473D18010000628900004A89A4
310
DD5689000001000000010000001801000047410000F700110002000000000014
310
0019000000320000000000000000000100000003000100000000000000010000
310
0000000100000001000100010000000000000000000000000000000000000000
310
0000000000000000000000000000000000000000000400A10022000800640001
310
00010001000000FCFF0000FCA9F1D24D62E03FFCA9F1D24D62E03F0100550002
310
0008007D000C0000000000600B0F00020000007D000C0001000100A0040F0002
310
0000007D000C0002000200A0100F00020000007D000C0003000300A0130F0002
310
00000000020E00010000000C000000000004000000080210000100000004000E
310
010000000000010F00080210000200000004000E010000000000010F00080210
310
000300000004000E010000000000010F00080210000400000004000E01000000
310
0000010F00080210000500000004000E010000000000010F0008021000060000
310
0004000E010000000000010F00080210000700000004000E010000000000010F
310
00080210000800000004000E010000000000010F00080210000900000004000E
310
010000000000010F00080210000A00000004000E010000000000010F00080210
310
000B00000004000E010000000000010F00FD000A00010000000F000B000000FD
310
000A0001000100160000000000FD000A0001000200170001000000FD000A0001
310
00030018000800000001020600020000000F007E020A000200010019000000F0
310
3FFD000A00020002001A0003000000FD000A00020003001B0009000000010206
310
00030000000F007E020A0003000100190000000040FD000A00030002001A0004
310
000000FD000A00030003001B000900000001020600040000000F007E020A0004
310
000100190000000840FD000A00040002001A0005000000FD000A00040003001B
310
001100000001020600050000000F007E020A0005000100190000001040FD000A
310
00050002001A000C000000FD000A00050003001B001000000001020600060000
310
000F007E020A0006000100190000001440FD000A00060002001A000D000000FD
310
000A00060003001B001000000001020600070000000F007E020A000700010019
310
0000001840FD000A00070002001A000E000000FD000A00070003001B00060000
310
0001020600080000000F007E020A0008000100190000001C40FD000A00080002
310
001A0007000000FD000A00080003001B001000000001020600090000000F007E
310
020A00090001001C0000002040FD000A00090002001D000F000000FD000A0009
310
0003001E0006000000010206000A0000000F00FD000A000A0001000F00020000
310
00BE000A000A0002000F0015000300010206000B0000000F00FD000A000B0001
310
000F000A000000BE000A000B0002000F0015000300D7001A0000030000C80038
310
003400340034003400340034003400340026003E021200B60600000000400000
310
0000000000000000001D000F00030500030000000100050005000303EF000600
310
0500350000000A0000000908100000061000FE1CCD0741400000060100000D00
310
020001000C00020064000F000200010011000200000010000800FCA9F1D24D62
310
503F5F00020001002A00020000002B0002000000820002000100800008000000
310
0000000000002502040000000E0181000200C104140000001500000083000200
310
0000840002000000A100220000000E01010001000100040100030303FCA9F1D2
310
4D62E03FFCA9F1D24D62E03F010055000200080000020E000000000000000100
310
0000000000003E021200B600000000004000000000000000000000001D000F00
310
030000000000000100000000000000EF0006000500350000000A000000090810
310
0000061000FE1CCD0741400000060100000D00020001000C00020064000F0002
310
00010011000200000010000800FCA9F1D24D62503F5F00020001002A00020000
310
002B00020000008200020001008000080000000000000000002502040000000E
310
0181000200C1041400000015000000830002000000840002000000A100220000
310
000E01010001000100040000000000FCA9F1D24D62E03FFCA9F1D24D62E03F01
310
0055000200080000020E0000000000000001000000000000003E021200B60000
310
0000004000000000000000000000001D000F0003000000000000010000000000
310
0000EF0006000500350000000A00000000020E00000000000000010000000000
310
00003E021200B600000000004000000000000000000000001D000F0003000000
310
0000000100000000000000EF0006000500350000000A0000001200B600000000
310
004000000000000000000000001D000F00030000000000000100000000000000
310
EF0006000500350000000A000000000000000000003E021200B6000000000040
310
00000000000000000000001D000F00030000000000000100000000000000EF00
310
06000500350000000A0000000908100000061000FE1CCD074140000006010000
310
0D00020001000C00020064000F000200010011000200000010000800FCA9F1D2
310
4D62503F5F00020001002A00020000002B000200000082000200010080000800
310
00000000000000002502040000000E0181000200C10414000000150000008300
310
02000000840002000000A100220000000E01010001000100040000000000FCA9
310
F1D24D62E03FFCA9F1D24D62E03FFF2055000200080000020E00000000000000
310
01000000000000003E021200B600000000004000000000000000000000001D00
310
0F00030000000000000100000000000000EF0006000500350000000A00000000
310
0000000000000000000000000000000000000000000000000000000000000000
310
0000000000000000000000000000000000000000000000000000000000000000
310
0000000000000000000000000000000000000000000000000000000000000000
310
0000000000000000000000000000000000000000000000000000000000000000
310
0000000000000000000000000000000000000000000000000000000000000000
310
0000000000000000000000000000000000000000000000000000000000000000
310
0000000000000000000000000000000000000000000000000000000000000000
310
0000000000000000000000000000000000000000000000000000000000000000
310
0000000000000000000000000000000000000000000000000000000000000000
310
050044006F00630075006D0065006E007400530075006D006D00610072007900
310
49006E0066006F0072006D006100740069006F006E0000000000000000000000
310
38000201FFFFFFFFFFFFFFFFFFFFFFFF00000000000000000000000000000000
310
0000000000000000000000000000000000000000060000001C01000000000000
310
01004F006C006500000000000000000000000000000000000000000000000000
310
0000000000000000000000000000000000000000000000000000000000000000
310
0A000201FFFFFFFF02000000FFFFFFFF00000000000000000000000000000000
310
00000000000000000000000000000000000000000B0000003B00000000000000
310
02004F006C006500500072006500730030003000300000000000000000000000
310
0000000000000000000000000000000000000000000000000000000000000000
310
18000201FFFFFFFF07000000FFFFFFFF00000000000000000000000000000000
310
00000000000000000000000000000000000000001B0000004A10000000000000
310
02004F006C006500500072006500730030003000310000000000000000000000
310
0000000000000000000000000000000000000000000000000000000000000000
310
18000200FFFFFFFFFFFFFFFFFFFFFFFF00000000000000000000000000000000
310
0000000000000000000000000000000000000000310000001009000000000000
310
02000000A40300001E0000001100000081698A94816A88EE977490BB8DEC8F8A
310
0067007403000000ED0E09000B000000000000000B000000000000000B000000
310
000000000B000000000000001E10000003000000070000005368656574310007
310
0000005368656574320007000000536865657433000C100000020000001E0000
310
000D000000838F815B834E8356815B8367000300000003000000000000000000
310
0000000000000000000000000000000000000000000000000000000000000000
310
010000020000000000000000000000002B0000000403000000000000C0000000
310
00000046020000005C000D000000456D62656464696E67203138000000000000
310
FFFFFFFF030000000400000001000000FFFFFFFF0200000000000000E6210000
310
91140000041000000100090000036B04000005003D0000000000050000000902
310
00000000050000000102FFFFFF000400000004010D0004000000020102000500
310
00000C026A046107030000001E00040000002701FFFF030000001E0004000000
310
2701FFFF050000000B0200000000030000001E00050000000102FFFFFF000500
310
0000090200000000040000002701FFFF030000001E00050000000102FFFFFF00
310
050000000902000000000700000016046904600700000000040000002701FFFF
310
030000001E00050000000102FFFFFF0005000000090200000000070000001604
310
690460070000000015000000FB02A4FF00000000000090010000008000000000
310
826C827220826F835383568362834E008000040000002D010000040000000401
310
0D0004000000020101000D000000320A0900140004000000956994D45C000000
310
5C00000010000000320A0900E900060000009594956996BC5C0000005C000000
310
5C00000028000000320A0900E603160000008DDE97BF288DDE8EBF2920202020
310
2020925088CA6D6D5C0000005C0000001C005C0000005C0000001C001C001C00
310
1C001C001C001C005C0000005C0000004400440009000000320A6F005B000100
310
000031002E0013000000320A6F00E9000800000020208378815B83581C001C00
310
5700000058000000530000002D000000320A6F000B0419000000463132202020
310
202020202020202020202020312E302C312E360033002E002E001C001C001C00
310
1C001C001C001C001C001C001C001C001C001C001C001C002E0013002E001300
310
2E0013002E0009000000320AD5005B000100000032002E0019000000320AD500
310
E9000C00000020208378815B835889BA98671C001C0057000000580000005300
310
00005C0000005C0000002D000000320AD5000B04190000004631322020202020
310
20202020202020202020312E362C312E300033002E002E001C001C001C001C00
310
1C001C001C001C001C001C001C001C001C001C001C002E0013002E0013002E00
310
13002E0009000000320A3B015B000100000033002E0010000000320A3B01E900
310
06000000202091A494C21C001C005C0000005C0000002D000000320A3B011404
310
1900000046313220202020202020202020202020202020202020302E36003300
310
2E002E001C001C001C001C001C001C001C001C001C001C001C001C001C001C00
310
1C001C001C001C001C002E0013002E0009000000320AA1015B00010000003400
310
2E0010000000320AA101E9000600000081408CE394C23D0000005C0000005C00
310
00002E000000320AA10111041A00000082653132202020202020202020202020
310
20202020202020302E353A0000002E002E001C001C001C001C001C001C001C00
310
1C001C001C001C001C001C001C001C001C001C001C001C002E0013002E000900
310
0000320A07025B000100000035002E0010000000320A0702E900060000002020
310
89AE8DAA1C001C005C0000005C0000002E000000320A070211041A0000008265
310
313220202020202020202020202020202020202020302E363A0000002E002E00
310
1C001C001C001C001C001C001C001C001C001C001C001C001C001C001C001C00
310
1C001C001C002E0013002E0009000000320A6D025B000100000036002E000D00
310
0000320A6D02E90004000000202094E01C001C005C0000002D000000320A6D02
310
14041900000046313220202020202020202020202020202020202020302E3600
310
33002E002E001C001C001C001C001C001C001C001C001C001C001C001C001C00
310
1C001C001C001C001C001C002E0013002E0009000000320AD3025B0001000000
310
37002E0016000000320AD302E9000A00000020208FB08370836C838B1C001C00
310
5C0000005C000000560000005C0000002D000000320AD3021404190000004631
310
3220202020202020202020202020202020202020302E360033002E002E001C00
310
1C001C001C001C001C001C001C001C001C001C001C001C001C001C001C001C00
310
1C001C002E0013002E0009000000320A39035B000100000038002E0010000000
310
320A3903E900060000002020924994C21C001C005C0000005C0000002D000000
310
320A390314041900000046313220202020202020202020202020202020202020
310
302E360033002E002E001C001C001C001C001C001C001C001C001C001C001C00
310
1C001C001C001C001C001C001C001C002E0013002E003D000000320A9F031400
310
2400000046313281A8976E975A889F899482DF82C182AB8D7C94C220284A4953
310
204720333330322933002E002E005C0000005C0000005C0000005C0000005C00
310
00005A0000004A0000004E0000005C0000005C0000001C001C00320017003700
310
1C003F001C002E002E002E002E001C002B000000320A050414001800000081A6
310
8378815B835892B290AE94CD88CD2081462033326D6D5C000000570000005800
310
0000530000005C0000005C0000005C0000005C0000001C002E0000001C002E00
310
2E004400440010000000FB021200080000000000900100000080010202025379
310
7374656D0080040000002D010100040000002701FFFF030000001E0004000000
310
2D010000050000000102FFFFFF00050000000902000000000700000016046A04
310
61070000000007000000FC020000000000000000040000002D01020004000000
310
04010D00040000000201020009000000FA020000000000000000000022000400
310
00002D010300050000001402000000000500000013029E03000009000000FA02
310
000000000000000000002200040000002D010400090000001D062100F0009E03
310
080000000000040000002D0103000500000014026A0059070500000013029E03
310
5907040000002D010400090000001D062100F000340308006A00590704000000
310
2D0103000500000014020000080005000000130200005E07040000002D010400
310
090000001D062100F0000800560700000800040000002D010300050000001402
310
9603080005000000130296036107040000002D010400090000001D062100F000
310
0800590796030800040000002D010200040000002D010100040000002701FFFF
310
030000001E00040000002D010000050000000102FFFFFF000500000009020000
310
00000700000016046904600700000000040000002701FFFF0300000000000000
310
0000000000000000000000000000000000000000000000000000000000000000
310
0000000000000000000000000000000000000000000000000000000000000000
310
FFFFFFFF030000000400000004000000FFFFFFFF07000000000000003D1F0000
310
B0120000D60800000100090000036B04000005003D0000000000050000000902
310
00000000050000000102FFFFFF000400000004010D0004000000020102000500
310
00000C026A046107030000001E00040000002701FFFF030000001E0004000000
310
2701FFFF050000000B0200000000030000001E00050000000102FFFFFF000500
310
0000090200000000040000002701FFFF030000001E00050000000102FFFFFF00
310
050000000902000000000700000016046904600700000000040000002701FFFF
310
030000001E00050000000102FFFFFF0005000000090200000000070000001604
310
690460070000000015000000FB02A4FF00000000000090010000008000000000
310
826C827220826F835383568362834E008000040000002D010000040000000401
310
0D0004000000020101000D000000320A0900140004000000956994D45C000000
310
5C00000010000000320A0900E900060000009594956996BC5C0000005C000000
310
5C00000028000000320A0900E603160000008DDE97BF288DDE8EBF2920202020
310
2020925088CA6D6D5C0000005C0000001C005C0000005C0000001C001C001C00
310
1C001C001C001C005C0000005C0000004400440009000000320A6F005B000100
310
000031002E0013000000320A6F00E9000800000020208378815B83581C001C00
310
5700000058000000530000002D000000320A6F000B0419000000463132202020
310
202020202020202020202020312E302C312E360033002E002E001C001C001C00
310
1C001C001C001C001C001C001C001C001C001C001C001C002E0013002E001300
310
2E0013002E0009000000320AD5005B000100000032002E0019000000320AD500
310
E9000C00000020208378815B835889BA98671C001C0057000000580000005300
310
00005C0000005C0000002D000000320AD5000B04190000004631322020202020
310
20202020202020202020312E362C312E300033002E002E001C001C001C001C00
310
1C001C001C001C001C001C001C001C001C001C001C002E0013002E0013002E00
310
13002E0009000000320A3B015B000100000033002E0010000000320A3B01E900
310
06000000202091A494C21C001C005C0000005C0000002D000000320A3B011404
310
1900000046313220202020202020202020202020202020202020302E36003300
310
2E002E001C001C001C001C001C001C001C001C001C001C001C001C001C001C00
310
1C001C001C001C001C002E0013002E0009000000320AA1015B00010000003400
310
2E0010000000320AA101E9000600000081408CE394C23D0000005C0000005C00
310
00002E000000320AA10111041A00000082653132202020202020202020202020
310
20202020202020302E353A0000002E002E001C001C001C001C001C001C001C00
310
1C001C001C001C001C001C001C001C001C001C001C001C002E0013002E000900
310
0000320A07025B000100000035002E0010000000320A0702E900060000002020
310
89AE8DAA1C001C005C0000005C0000002E000000320A070211041A0000008265
310
313220202020202020202020202020202020202020302E363A0000002E002E00
310
1C001C001C001C001C001C001C001C001C001C001C001C001C001C001C001C00
310
1C001C001C002E0013002E0009000000320A6D025B000100000036002E000D00
310
0000320A6D02E90004000000202094E01C001C005C0000002D000000320A6D02
310
14041900000046313220202020202020202020202020202020202020302E3600
310
33002E002E001C001C001C001C001C001C001C001C001C001C001C001C001C00
310
1C001C001C001C001C001C002E0013002E0009000000320AD3025B0001000000
310
37002E0016000000320AD302E9000A00000020208FB08370836C838B1C001C00
310
5C0000005C000000560000005C0000002D000000320AD3021404190000004631
310
3220202020202020202020202020202020202020302E360033002E002E001C00
310
1C001C001C001C001C001C001C001C001C001C001C001C001C001C001C001C00
310
1C001C002E0013002E0009000000320A39035B000100000038002E0010000000
310
320A3903E900060000002020924994C21C001C005C0000005C0000002D000000
310
320A390314041900000046313220202020202020202020202020202020202020
310
302E360033002E002E001C001C001C001C001C001C001C001C001C001C001C00
310
1C001C001C001C001C001C001C001C002E0013002E003D000000320A9F031400
310
2400000046313281A8976E975A889F899482DF82C182AB8D7C94C220284A4953
310
204720333330322933002E002E005C0000005C0000005C0000005C0000005C00
310
00005A0000004A0000004E0000005C0000005C0000001C001C00320017003700
310
1C003F001C002E002E002E002E001C002B000000320A050414001800000081A6
310
8378815B835892B290AE94CD88CD2081462033326D6D5C000000570000005800
310
0000530000005C0000005C0000005C0000005C0000001C002E0000001C002E00
310
2E004400440010000000FB021200080000000000900100000080010202025379
310
7374656D0080040000002D010100040000002701FFFF030000001E0004000000
310
2D010000050000000102FFFFFF00050000000902000000000700000016046A04
310
61070000000007000000FC020000000000000000040000002D01020004000000
310
04010D00040000000201020009000000FA020000000000000000000022000400
310
00002D010300050000001402000000000500000013029E03000009000000FA02
310
000000000000000000002200040000002D010400090000001D062100F0009E03
310
080000000000040000002D0103000500000014026A0059070500000013029E03
310
5907040000002D010400090000001D062100F000340308006A00590704000000
310
2D0103000500000014020000080005000000130200005E07040000002D010400
310
090000001D062100F0000800560700000800040000002D010300050000001402
310
9603080005000000130296036107040000002D010400090000001D062100F000
310
0800590796030800040000002D010200040000002D010100040000002701FFFF
310
030000001E00040000002D010000050000000102FFFFFF000500000009020000
310
00000700000016046904600700000000040000002701FFFF0300000000000000
310
0000000000000000000000000000000000000000000000000000000000000000
310
0000000000000000000000000000000000000000000000000000000000000000
310
0000000000000000000000000000000000000000000000000000000000000000
310
0000000000000000000000000000000000000000000000000000000000000000
310
0000000000000000000000000000000000000000000000000000000000000000
310
0000000000000000000000000000000000000000000000000000000000000000
310
02004F006C006500500072006500730030003000300000000000000000000000
310
0000000000000000000000000000000000000000000000000000000000000000
310
18000000FFFFFFFFFFFFFFFFFFFFFFFF00000000000000000000000000000000
310
0000000000000000000000000000000000000000FEFFFFFF0000000000000000
310
0000000000000000000000000000000000000000000000000000000000000000
310
0000000000000000000000000000000000000000000000000000000000000000
310
00000000FFFFFFFFFFFFFFFFFFFFFFFF00000000000000000000000000000000
310
0000000000000000000000000000000000000000000000000000000000000000
310
0000000000000000000000000000000000000000000000000000000000000000
310
0000000000000000000000000000000000000000000000000000000000000000
310
00000000FFFFFFFFFFFFFFFFFFFFFFFF00000000000000000000000000000000
310
0000000000000000000000000000000000000000000000000000000000000000
310
0000000000000000000000000000000000000000000000000000000000000000
310
0000000000000000000000000000000000000000000000000000000000000000
310
00000000FFFFFFFFFFFFFFFFFFFFFFFF00000000000000000000000000000000
310
0000000000000000000000000000000000000000000000000000000000000000
310
FFFFFFFF030000000400000001000000FFFFFFFF0200000000000000E6210000
310
91140000101000000100090000030808000006003D0000000000050000000902
310
00000000050000000102FFFFFF000400000004010D0004000000020102000500
310
00000C02C7004801030000001E00040000002701FFFF030000001E0004000000
310
2701FFFF050000000B0200000000030000001E00050000000102FFFFFF000500
310
0000090200000000040000002701FFFF030000001E00050000000102FFFFFF00
310
05000000090200000000070000001604C700480100000000040000002701FFFF
310
030000001E00050000000102FFFFFF0005000000090200000000070000001604
310
C700480100000000040000002701FFFF030000001E00050000000102FFFFFF00
310
05000000090200000000070000001604C70048010100010015000000FB02F1FF
310
00000000000090010000008000000000826C827220826F835383568362834E00
310
8000040000002D0100000400000004010D0004000000020101000D000000320A
310
0300030004000000956994D40F0000000F00000010000000320A030028000600
310
00009594956996BC0F0000000F0000000F00000028000000320A0300AD001600
310
00008DDE97BF288DDE8EBF29202020202020925088CA6D6D0F0000000F000000
310
05000F0000000F00000005000500050005000500050005000F0000000F000000
310
0B000B0009000000320A15000F00010000003100080013000000320A15002800
310
0800000020208378815B8358050005000E0000000E0000000E0000002D000000
310
320A1500B30019000000463132202020202020202020202020202020312E302C
310
312E360008000800080005000500050005000500050005000500050005000500
310
0500050005000500080003000800030008000300080009000000320A27000F00
310
010000003200080019000000320A270028000C00000020208378815B835889BA
310
9867050005000E0000000E0000000E0000000F0000000F0000002D000000320A
310
2700B30019000000463132202020202020202020202020202020312E302C312E
310
3600080008000800050005000500050005000500050005000500050005000500
310
050005000500080003000800030008000300080009000000320A39000F000100
310
00003300080010000000320A3900280006000000202091A494C2050005000F00
310
00000F0000002D000000320A3900B40019000000463132202020202020202020
310
20202020202020202020302E3500080008000800050005000500050005000500
310
0500050005000500050005000500050005000500050005000500080003000800
310
09000000320A4B000F00010000003400080010000000320A4B00280006000000
310
81408CE394C20A0000000F0000000F0000002D000000320A4B00B40019000000
310
46313220202020202020202020202020202020202020302E3600080008000800
310
0500050005000500050005000500050005000500050005000500050005000500
310
05000500050008000300080009000000320A5D000F0001000000350008001000
310
0000320A5D00280006000000202089AE8DAA050005000F0000000F0000002D00
310
0000320A5D00B400190000004631322020202020202020202020202020202020
310
2020302E36000800080008000500050005000500050005000500050005000500
310
05000500050005000500050005000500050008000300080009000000320A6F00
310
0F0001000000360008000D000000320A6F00280004000000202094E005000500
310
0F0000002D000000320A6F00B400190000004631322020202020202020202020
310
2020202020202020302E36000800080008000500050005000500050005000500
310
0500050005000500050005000500050005000500050005000800030008000900
310
0000320A81000F00010000003700080016000000320A810028000A0000002020
310
8FB08370836C838B050005000F0000000F0000000E0000000F0000002D000000
310
320A8100B4001900000046313220202020202020202020202020202020202020
310
302E360008000800080005000500050005000500050005000500050005000500
310
0500050005000500050005000500050008000300080009000000320A93000F00
310
010000003800080018000000320A930028000B0000002020924994C228349687
310
2900050005000F0000000F000000050008000F00000005002D000000320A9300
310
B4001900000046313220202020202020202020202020202020202020302E3600
310
0800080008000500050005000500050005000500050005000500050005000500
310
0500050005000500050005000800030008003D000000320AA500030024000000
310
46313281A8976E975A889F899482DF82C182AB8D7C94C220284A495320472033
310
333032290800080008000F0000000F0000000F0000000F0000000F0000000E00
310
00000C0000000D0000000F0000000F0000000500050008000400090005000A00
310
0500080008000800080005002B000000320AB70003001800000081A68378815B
310
835892B290AE94CD88CD2081462033326D6D0F0000000E0000000E0000000E00
310
00000F0000000F0000000F0000000F0000000500080000000500080008000B00
310
0B0010000000FB0212000800000000009001000000800102020253797374656D
310
0080040000002D010100040000002701FFFF030000001E00040000002D010000
310
050000000102FFFFFF0005000000090200000000070000001604C70048010000
310
000007000000FC020000C0C0C0000000040000002D010200050000000902C0C0
310
C000050000000102C0C0C0000400000004010D00040000000201020009000000
310
FA02000000000000C0C0C0002200040000002D01030009000000FA0200000000
310
0000000000002200040000002D010400090000001D062100F000000001000000
310
0000040000002D010300040000002D010400090000001D062100F00000000100
310
00002500040000002D010300040000002D010400090000001D062100F0000000
310
01000000AA0007000000FC020000000000000000040000002D01050005000000
310
090200000000050000000102FFFFFF0004000000F001030009000000FA020000
310
00000000000000002200040000002D0103000500000014020000010005000000
310
130200004801040000002D010400090000001D062100F0000100470100000100
310
040000002D010200050000000902C0C0C000050000000102C0C0C00004000000
310
F001030009000000FA02000000000000C0C0C0002200040000002D0103000400
310
00002D010400090000001D062100F0000000010000004701040000002D010300
310
0500000014021200010005000000130212004701040000002D01040009000000
310
1D062100F0000100460112000100040000002D01030005000000140224000100
310
05000000130224004701040000002D010400090000001D062100F00001004601
310
24000100040000002D0103000500000014023600010005000000130236004701
310
040000002D010400090000001D062100F0000100460136000100040000002D01
310
03000500000014024800010005000000130248004701040000002D0104000900
310
00001D062100F0000100460148000100040000002D0103000500000014025A00
310
01000500000013025A004701040000002D010400090000001D062100F0000100
310
46015A000100040000002D0103000500000014026C0001000500000013026C00
310
4701040000002D010400090000001D062100F000010046016C00010004000000
310
2D0103000500000014027E0001000500000013027E004701040000002D010400
310
090000001D062100F000010046017E000100040000002D010300050000001402
310
9000010005000000130290004701040000002D010400090000001D062100F000
310
0100460190000100040000002D01050005000000090200000000050000000102
310
FFFFFF0004000000F001030009000000FA020000000000000000000022000400
310
00002D01030005000000140200000000050000001302A3000000040000002D01
310
0400090000001D062100F000A300010000000000040000002D01030005000000
310
1402A2000100050000001302A2004801040000002D010400090000001D062100
310
F00001004701A2000100040000002D0103000500000014020100470105000000
310
1302A3004701040000002D010400090000001D062100F000A200010001004701
310
040000002D010200050000000902C0C0C000050000000102C0C0C00004000000
310
F001030009000000FA02000000000000C0C0C0002200040000002D0103000500
310
0000140201002500050000001302A2002500040000002D010400090000001D06
310
2100F000A100010001002500040000002D0103000500000014020100AA000500
310
00001302A200AA00040000002D010400090000001D062100F000A10001000100
310
AA00040000002D010300050000001402A3000000050000001302C80000000400
310
00002D010400090000001D062100F00025000100A3000000040000002D010300
310
050000001402C7002500050000001302C8002500040000002D01040009000000
310
1D062100F00001000100C7002500040000002D010300050000001402C700AA00
310
050000001302C800AA00040000002D010400090000001D062100F00001000100
310
C700AA00040000002D010300050000001402A3004701050000001302C8004701
310
040000002D010400090000001D062100F00025000100A3004701040000002D01
310
03000500000014020000480105000000130200004901040000002D0104000900
310
00001D062100F0000100010000004801040000002D0103000500000014021200
310
480105000000130212004901040000002D010400090000001D062100F0000100
310
010012004801040000002D010300050000001402240048010500000013022400
310
4901040000002D010400090000001D062100F000010001002400480104000000
310
2D0103000500000014023600480105000000130236004901040000002D010400
310
090000001D062100F0000100010036004801040000002D010300050000001402
310
4800480105000000130248004901040000002D010400090000001D062100F000
310
0100010048004801040000002D0103000500000014025A004801050000001302
310
5A004901040000002D010400090000001D062100F000010001005A0048010400
310
00002D0103000500000014026C0048010500000013026C004901040000002D01
310
0400090000001D062100F000010001006C004801040000002D01030005000000
310
14027E0048010500000013027E004901040000002D010400090000001D062100
310
F000010001007E004801040000002D0103000500000014029000480105000000
310
130290004901040000002D010400090000001D062100F0000100010090004801
310
040000002D010300050000001402A2004801050000001302A200490104000000
310
2D010400090000001D062100F00001000100A2004801040000002D0103000500
310
00001402B4000000050000001302B4004901040000002D010400090000001D06
310
2100F00001004901B4000000040000002D010300050000001402C60000000500
310
00001302C6004901040000002D010400090000001D062100F00001004901C600
310
0000040000002D010500040000002D010100040000002701FFFF030000001E00
310
040000002D010000050000000102C0C0C000050000000902C0C0C00007000000
310
1604C700480101000100040000002701FFFF0300000000000000000000000000
310
0000000000000000000000000000000000000000000000000000000000000000
310
0000000000000000000000000000000000000000000000000000000000000000
310
0000000000000000000000000000000000000000000000000000000000000000
310
0000000000000000000000000000000000000000000000000000000000000000
310
0000000000000000000000000000000000000000000000000000000000000000
310
0000000000000000000000000000000000000000000000000000000000000000
310
0000000000000000000000000000000000000000000000000000000000000000
310
0000000000000000000000000000000000000000000000000000000000000000
310
0000000000000000000000000000000000000000000000000000000000000000
310
0000000000000000000000000000000000000000000000000000000000000000
310
0000000000000000000000000000000000000000000000000000000000000000
310
0000000000000000000000000000000000000000000000000000000000000000
310
0000000000000000000000000000000000000000000000000000000000000000
310
0000000000000000000000000000000000000000000000000000000000000000
  1
OLE
  0
DIMENSION
  5
16ED4
330
747D
100
AcDbEntity
  8
寸法
 48
50.0
100
AcDbDimension
  2
*D13
 10
6143.599999999998
 20
3103.220335370565
 30
0.0
 11
5768.599999999998
 21
3153.220335370565
 31
0.0
 12
70.0
 22
0.0
 32
0.0
 70
    32
 71
     5
 42
-1.0
  3
INABA_S20G
100
AcDbAlignedDimension
 13
5533.599999999998
 23
2793.66793916258
 33
0.0
 14
6143.599999999998
 24
2800.0
 34
0.0
100
AcDbRotatedDimension
  0
DIMENSION
  5
16ED5
330
747D
100
AcDbEntity
  8
寸法
 48
50.0
100
AcDbDimension
  2
*D14
 10
6143.599999999998
 20
2975.024113945668
 30
0.0
 11
6290.623622047243
 21
2975.024113945668
 31
0.0
 12
-8098.367323567577
 22
-757.3875625419132
 32
0.0
 70
   160
 71
     5
 42
-1.0
  3
INABA_S20G
100
AcDbAlignedDimension
 13
6133.6
 23
2800.226073850792
 33
0.0
 14
6143.599999999998
 24
2800.0
 34
0.0
100
AcDbRotatedDimension
1001
ACAD
1000
DSTYLE
1002
{
1002
}
  0
DIMENSION
  5
16ED6
330
747D
100
AcDbEntity
  8
寸法
 48
50.0
100
AcDbDimension
  2
*D15
 10
6133.6
 20
2975.024113945668
 30
0.0
 11
5853.599999999999
 21
3025.024113945669
 31
0.0
 70
    32
 71
     5
 42
-1.0
  3
INABA_S20G
100
AcDbAlignedDimension
 13
5573.599999999998
 23
2820.0
 33
0.0
 14
6133.6
 24
2800.226073850792
 34
0.0
100
AcDbRotatedDimension
1001
ACAD
1000
DSTYLE
1002
{
1002
}
  0
DIMENSION
  5
16ED7
330
747D
100
AcDbEntity
  8
寸法
 48
50.0
100
AcDbDimension
  2
*D16
 10
5573.599999999998
 20
2975.024113945668
 30
0.0
 11
5377.576377952754
 21
2975.024113945668
 31
0.0
 12
-7958.367323567578
 22
-757.3875625419132
 32
0.0
 70
   160
 71
     5
 42
-1.0
  3
INABA_S20G
100
AcDbAlignedDimension
 13
5533.599999999998
 23
2793.66793916258
 33
0.0
 14
5573.599999999998
 24
2820.0
 34
0.0
100
AcDbRotatedDimension
  0
DIMENSION
  5
16ED8
330
747D
100
AcDbEntity
  8
寸法
 48
50.0
100
AcDbDimension
  2
*D17
 10
6809.913337170164
 20
2800.0
 30
0.0
 11
6829.913337170165
 21
1850.0
 31
0.0
 12
-8098.367323567577
 22
-757.3875625419132
 32
0.0
 70
    32
 71
     5
 42
-1.0
  3
INABA_S20G
100
AcDbAlignedDimension
 13
6127.599999999997
 23
900.0
 33
0.0
 14
6143.599999999994
 24
2800.0
 34
0.0
 50
90.0
100
AcDbRotatedDimension
  0
DIMENSION
  5
16ED9
330
747D
100
AcDbEntity
  8
寸法
 48
50.0
100
AcDbDimension
  2
*D18
 10
6638.0580897141
 20
2725.0
 30
0.0
 11
6658.0580897141
 21
2762.5
 31
0.0
 12
-8098.367323567577
 22
-757.3875625419132
 32
0.0
 70
    32
 71
     5
 42
-1.0
  3
INABA_S20G
100
AcDbAlignedDimension
 13
6143.599999999998
 23
2800.0
 33
0.0
 14
6143.599999999998
 24
2725.0
 34
0.0
 50
90.0
100
AcDbRotatedDimension
1001
ACAD
1000
DSTYLE
1002
{
1070
   279
1070
     2
1002
}
  0
DIMENSION
  5
16EDA
330
747D
100
AcDbEntity
  8
寸法
 48
50.0
100
AcDbDimension
  2
*D19
 10
6638.0580897141
 20
900.0
 30
0.0
 11
6658.052184202289
 21
1812.5
 31
0.0
 12
-8098.367323567577
 22
-757.3875625419132
 32
0.0
 70
    32
 71
     5
 42
-1.0
  3
INABA_S20G
100
AcDbAlignedDimension
 13
6143.599999999998
 23
2725.0
 33
0.0
 14
6127.599999999997
 24
900.0
 34
0.0
 50
90.0
100
AcDbRotatedDimension
1001
ACAD
1000
DSTYLE
1002
{
1070
   279
1070
     2
1002
}
  0
DIMENSION
  5
16EDB
330
747D
100
AcDbEntity
  8
寸法
 48
50.0
100
AcDbDimension
  2
*D20
 10
6458.430458370267
 20
1389.0
 30
0.0
 11
6478.424552858458
 21
1188.0
 31
0.0
 12
-8098.367323567577
 22
-757.3875625419132
 32
0.0
 70
    32
 71
     5
 42
-1.0
  3
INABA_S20G
100
AcDbAlignedDimension
 13
6104.599999999997
 23
987.0
 33
0.0
 14
6102.599999999998
 24
1389.0
 34
0.0
 50
90.0
100
AcDbRotatedDimension
  0
DIMENSION
  5
16EDC
330
747D
100
AcDbEntity
  8
寸法
 48
50.0
100
AcDbDimension
  2
*D21
 10
5421.075280684889
 20
2736.0
 30
0.0
 11
5301.07528068489
 21
1861.5
 31
0.0
 12
-7958.367323567578
 22
-757.3875625419132
 32
0.0
 70
    32
  1
有効開口部高サ <>
 71
     5
 42
-1.0
  3
INABA_S20G
100
AcDbAlignedDimension
 13
5640.599999999998
 23
987.0
 33
0.0
 14
5565.599999999998
 24
2736.0
 34
0.0
 50
90.0
100
AcDbRotatedDimension
  0
LINE
  5
16EDD
330
747D
100
AcDbEntity
  8
部品1
 48
50.0
100
AcDbLine
 10
5618.599999999998
 20
958.0
 30
0.0
 11
5618.599999999994
 21
2738.08778689947
 31
0.0
  0
LINE
  5
16EDE
330
747D
100
AcDbEntity
  8
部品1
 48
50.0
100
AcDbLine
 10
6133.599999999997
 20
958.0
 30
0.0
 11
6133.599999999997
 21
2725.286532951289
 31
0.0
  0
LINE
  5
16EDF
330
747D
100
AcDbEntity
  8
部品1
 48
50.0
100
AcDbLine
 10
5573.599999999998
 20
958.0
 30
0.0
 11
5573.599999999998
 21
2735.0
 31
0.0
  0
DIMENSION
  5
16EE0
330
747D
100
AcDbEntity
  8
寸法
 48
50.0
100
AcDbDimension
  2
*D22
 10
5857.734065883501
 20
2738.135836914878
 30
0.0
 11
5877.734065883501
 21
1852.635836914879
 31
0.0
 12
-8098.367323567577
 22
-757.3875625419132
 32
0.0
 70
    32
  1
内高 <>
 71
     5
 42
-1.0
  3
INABA_S20G
100
AcDbAlignedDimension
 13
5783.599999999998
 23
987.0
 33
0.0
 14
5783.599999999998
 24
2757.999999999999
 34
0.0
 50
90.0
100
AcDbRotatedDimension
  0
DIMENSION
  5
16EE1
330
747D
100
AcDbEntity
  8
寸法
 48
50.0
100
AcDbDimension
  2
*D23
 10
5111.173767725314
 20
2820.0
 30
0.0
 11
4991.153361442912
 21
1860.0
 31
0.0
 12
-7958.367323567578
 22
-757.3875625419132
 32
0.0
 70
    32
 71
     5
 42
-1.0
  3
INABA_S20G
100
AcDbAlignedDimension
 13
5582.599999999998
 23
900.0
 33
0.0
 14
5553.029319720902
 24
2820.0
 34
0.0
 50
90.0
100
AcDbRotatedDimension
  0
DIMENSION
  5
16EE2
330
747D
100
AcDbEntity
  8
寸法
 48
50.0
100
AcDbDimension
  2
*D24
 10
5254.960919862772
 20
2820.0
 30
0.0
 11
5134.960919862773
 21
1863.0
 31
0.0
 12
-7958.367323567578
 22
-757.3875625419132
 32
0.0
 70
    32
  1
1917
 71
     5
 42
-1.0
  3
INABA_S20G
100
AcDbAlignedDimension
 13
5578.599999999998
 23
906.0
 33
0.0
 14
5553.029319720902
 24
2820.0
 34
0.0
 50
90.0
100
AcDbRotatedDimension
1001
ACAD
1000
DSTYLE
1002
{
1070
    75
1070
     1
1070
   279
1070
     1
1002
}
  0
DIMENSION
  5
16EE3
330
747D
100
AcDbEntity
  8
寸法
 48
50.0
100
AcDbDimension
  2
*D25
 10
5254.960919862772
 20
906.0
 30
0.0
 11
5204.960919862772
 21
870.4241879215514
 31
0.0
 12
-7958.367323567578
 22
-757.3875625419132
 32
0.0
 70
   160
  1
3
 71
     5
 42
-1.0
  3
INABA_S20G
100
AcDbAlignedDimension
 13
5582.599999999998
 23
900.0
 33
0.0
 14
5578.599999999998
 24
906.0
 34
0.0
 50
90.0
100
AcDbRotatedDimension
1001
ACAD
1000
DSTYLE
1002
{
1070
   279
1070
     2
1002
}
  0
LINE
  5
16EE4
330
747D
100
AcDbEntity
  8
部品1
 48
50.0
100
AcDbLine
 10
5578.599999999998
 20
906.0
 30
0.0
 11
6131.599999999997
 21
906.0
 31
0.0
  0
LINE
  5
16EE5
330
747D
100
AcDbEntity
  8
部品1
 48
50.0
100
AcDbLine
 10
5573.599999999998
 20
958.0
 30
0.0
 11
6133.599999999997
 21
958.0
 31
0.0
  0
LINE
  5
16EE6
330
747D
100
AcDbEntity
  8
部品1
 48
50.0
100
AcDbLine
 10
5582.599999999998
 20
900.0
 30
0.0
 11
6127.599999999997
 21
900.0
 31
0.0
  0
LINE
  5
16EE7
330
747D
100
AcDbEntity
  8
点線
 48
8.0
100
AcDbLine
 10
5640.599999999998
 20
987.0
 30
0.0
 11
6104.599999999997
 21
987.0
 31
0.0
  0
LINE
  5
16EE8
330
747D
100
AcDbEntity
  8
部品1
 48
50.0
100
AcDbLine
 10
5582.599999999998
 20
800.0
 30
0.0
 11
5582.599999999998
 21
900.0
 31
0.0
  0
LINE
  5
16EE9
330
747D
100
AcDbEntity
  8
点線
 48
2.0
100
AcDbLine
 10
5583.599999999997
 20
968.0
 30
0.0
 11
5640.599999999998
 21
968.0
 31
0.0
  0
LINE
  5
16EEA
330
747D
100
AcDbEntity
  8
点線
 48
3.0
100
AcDbLine
 10
5596.099999999998
 20
968.0
 30
0.0
 11
5596.099999999998
 21
978.5
 31
0.0
  0
LINE
  5
16EEB
330
747D
100
AcDbEntity
  8
点線
 48
3.0
100
AcDbLine
 10
5578.599999999998
 20
965.0
 30
0.0
 11
5583.599999999997
 21
968.0
 31
0.0
  0
LINE
  5
16EEC
330
747D
100
AcDbEntity
  8
点線
 48
3.0
100
AcDbLine
 10
5578.599999999998
 20
958.0
 30
0.0
 11
5578.599999999998
 21
965.0000000000009
 31
0.0
  0
LINE
  5
16EED
330
747D
100
AcDbEntity
  8
部品1
 48
50.0
100
AcDbLine
 10
5582.599999999998
 20
900.0
 30
0.0
 11
5582.599999999998
 21
906.0
 31
0.0
  0
LINE
  5
16EEE
330
747D
100
AcDbEntity
  8
部品1
 48
50.0
100
AcDbLine
 10
5578.599999999998
 20
906.0
 30
0.0
 11
5578.599999999998
 21
958.0
 31
0.0
  0
LINE
  5
16EEF
330
747D
100
AcDbEntity
  8
点線
 48
3.0
100
AcDbLine
 10
5648.599999999998
 20
978.5
 30
0.0
 11
5669.099999999997
 21
958.0
 31
0.0
  0
LINE
  5
16EF0
330
747D
100
AcDbEntity
  8
点線
 48
3.0
100
AcDbLine
 10
5624.099999999998
 20
968.0
 30
0.0
 11
5624.099999999998
 21
978.5
 31
0.0
  0
LINE
  5
16EF1
330
747D
100
AcDbEntity
  8
点線
 48
3.0
100
AcDbLine
 10
5640.599999999998
 20
958.0
 30
0.0
 11
5640.599999999998
 21
987.0
 31
0.0
  0
LINE
  5
16EF2
330
747D
100
AcDbEntity
  8
点線
 48
2.0
100
AcDbLine
 10
5640.599999999998
 20
978.5
 30
0.0
 11
5648.599999999998
 21
978.5
 31
0.0
  0
LINE
  5
16EF3
330
747D
100
AcDbEntity
  8
部品1
 48
50.0
100
AcDbLine
 10
5927.599999999998
 20
800.0
 30
0.0
 11
5927.599999999998
 21
900.0
 31
0.0
  0
LINE
  5
16EF4
330
747D
100
AcDbEntity
  8
部品1
 48
50.0
100
AcDbLine
 10
5782.599999999998
 20
800.0
 30
0.0
 11
5782.599999999998
 21
900.0
 31
0.0
  0
LINE
  5
16EF5
330
747D
100
AcDbEntity
  8
部品1
 48
50.0
100
AcDbLine
 10
6127.599999999997
 20
800.0
 30
0.0
 11
6127.599999999997
 21
906.0
 31
0.0
  0
LINE
  5
16EF6
330
747D
100
AcDbEntity
  8
点線
 48
3.0
100
AcDbLine
 10
6096.599999999998
 20
978.5
 30
0.0
 11
6076.099999999997
 21
958.0
 31
0.0
  0
LINE
  5
16EF7
330
747D
100
AcDbEntity
  8
点線
 48
3.0
100
AcDbLine
 10
6104.599999999997
 20
958.0
 30
0.0
 11
6104.599999999997
 21
987.0
 31
0.0
  0
LINE
  5
16EF8
330
747D
100
AcDbEntity
  8
点線
 48
2.0
100
AcDbLine
 10
6096.599999999998
 20
978.5
 30
0.0
 11
6104.599999999997
 21
978.5
 31
0.0
  0
LINE
  5
16EF9
330
747D
100
AcDbEntity
  8
部品1
 48
50.0
100
AcDbLine
 10
6131.599999999997
 20
906.0
 30
0.0
 11
6131.599999999997
 21
958.0
 31
0.0
  0
DIMENSION
  5
16EFA
330
747D
100
AcDbEntity
  8
寸法
 48
50.0
100
AcDbDimension
  2
*D26
 10
6458.430458370267
 20
2364.0
 30
0.0
 11
6478.430458370268
 21
1876.5
 31
0.0
 12
-8098.367323567577
 22
-757.3875625419132
 32
0.0
 70
    32
  1
65x15=<>
 71
     5
 42
-1.0
  3
INABA_S20G
100
AcDbAlignedDimension
 13
6102.599999999998
 23
1389.0
 33
0.0
 14
6102.599999999998
 24
2364.0
 34
0.0
 50
90.0
100
AcDbRotatedDimension
1001
ACAD
1000
DSTYLE
1002
{
1070
    75
1070
     1
1070
   279
1070
     1
1002
}
  0
LINE
  5
16EFB
330
747D
100
AcDbEntity
  8
想像線
 48
5.0
100
AcDbLine
 10
5652.599999999997
 20
1359.0
 30
0.0
 11
6102.599999999998
 21
1359.0
 31
0.0
  0
LINE
  5
16EFC
330
747D
100
AcDbEntity
  8
想像線
 48
5.0
100
AcDbLine
 10
5652.599999999997
 20
1389.0
 30
0.0
 11
6102.599999999998
 21
1389.0
 31
0.0
  0
LINE
  5
16EFD
330
747D
100
AcDbEntity
  8
想像線
 48
8.0
100
AcDbLine
 10
5652.599999999997
 20
1359.0
 30
0.0
 11
5652.599999999997
 21
1389.0
 31
0.0
  0
LINE
  5
16EFE
330
747D
100
AcDbEntity
  8
想像線
 48
8.0
100
AcDbLine
 10
6102.599999999998
 20
1359.0
 30
0.0
 11
6102.599999999998
 21
1389.0
 31
0.0
  0
LINE
  5
16F00
330
747D
100
AcDbEntity
  8
部品1
 48
50.0
100
AcDbLine
 10
6133.886415400265
 20
2800.278326206296
 30
0.0
 11
6032.295834375925
 21
2803.189231106707
 31
0.0
  0
LINE
  5
16F01
330
747D
100
AcDbEntity
  8
部品1
 48
50.0
100
AcDbLine
 10
6143.599999999998
 20
2725.0
 30
0.0
 11
5620.099999999998
 21
2740.0
 31
0.0
  0
LINE
  5
16F02
330
747D
100
AcDbEntity
  8
点線
 48
8.0
100
AcDbLine
 10
6101.599999999997
 20
2758.0
 30
0.0
 11
5670.599999999997
 21
2758.0
 31
0.0
  0
LINE
  5
16F03
330
747D
100
AcDbEntity
  8
想像線
 48
5.0
100
AcDbLine
 10
5652.599999999997
 20
2334.0
 30
0.0
 11
6102.599999999998
 21
2334.0
 31
0.0
  0
LINE
  5
16F04
330
747D
100
AcDbEntity
  8
想像線
 48
5.0
100
AcDbLine
 10
5652.599999999997
 20
2364.0
 30
0.0
 11
6102.599999999998
 21
2364.0
 31
0.0
  0
LINE
  5
16F05
330
747D
100
AcDbEntity
  8
想像線
 48
8.0
100
AcDbLine
 10
5652.599999999997
 20
2334.0
 30
0.0
 11
5652.599999999997
 21
2364.0
 31
0.0
  0
LINE
  5
16F06
330
747D
100
AcDbEntity
  8
部品1
100
AcDbLine
 10
5536.528932188131
 20
2765.0
 30
0.0
 11
5565.064466094063
 21
2736.464466094067
 31
0.0
  0
ARC
  5
16F07
330
747D
100
AcDbEntity
  8
部品1
100
AcDbCircle
 10
5578.827717756339
 20
2732.142150409904
 30
0.0
 40
5.957880262272358
100
AcDbArc
 50
86.32613006386966
 51
151.3357851015309
  0
LINE
  5
16F08
330
747D
100
AcDbEntity
  8
部品1
100
AcDbLine
 10
5568.599999999998
 20
2735.0
 30
0.0
 11
5573.599999999994
 21
2735.0
 31
0.0
  0
ARC
  5
16F09
330
747D
100
AcDbEntity
  8
部品1
100
AcDbCircle
 10
5568.599999999998
 20
2740.0
 30
0.0
 40
5.0
100
AcDbArc
 50
225.0000000000002
 51
269.9999999999999
  0
LINE
  5
16F0A
330
747D
100
AcDbEntity
  8
部品1
100
AcDbLine
 10
5579.209482020643
 20
2738.08778689947
 30
0.0
 11
5619.099999999997
 21
2738.087786899471
 31
0.0
  0
LINE
  5
16F0B
330
747D
100
AcDbEntity
  8
部品1
100
AcDbLine
 10
5553.029319720902
 20
2820.0
 30
0.0
 11
5619.099999999997
 21
2819.999999999998
 31
0.0
  0
ARC
  5
16F0C
330
747D
100
AcDbEntity
  8
部品1
100
AcDbCircle
 10
5553.029319720902
 20
2810.0
 30
0.0
 40
10.0
100
AcDbArc
 50
90.0
 51
150.0000000000004
  0
ARC
  5
16F0D
330
747D
100
AcDbEntity
  8
部品1
100
AcDbCircle
 10
5543.599999999997
 20
2793.66793916258
 30
0.0
 40
10.0
100
AcDbArc
 50
150.0000000000003
 51
179.9999999999982
  0
LINE
  5
16F0E
330
747D
100
AcDbEntity
  8
部品1
100
AcDbLine
 10
5533.599999999998
 20
2793.66793916258
 30
0.0
 11
5533.599999999998
 21
2772.071067811865
 31
0.0
  0
ARC
  5
16F0F
330
747D
100
AcDbEntity
  8
部品1
100
AcDbCircle
 10
5543.599999999997
 20
2772.071067811865
 30
0.0
 40
10.0
100
AcDbArc
 50
180.0
 51
224.9999999999999
  0
LINE
  5
16F10
330
747D
100
AcDbEntity
  8
部品1
100
AcDbLine
 10
5534.939745962153
 20
2798.667939162581
 30
0.0
 11
5544.369065683057
 21
2815.0
 31
0.0
  0
LINE
  5
16F11
330
747D
100
AcDbEntity
  8
部品1
100
AcDbLine
 10
5620.099999999998
 20
2818.999999999999
 30
0.0
 11
5620.099999999998
 21
2739.08778689947
 31
0.0
  0
LINE
  5
16F12
330
747D
100
AcDbEntity
  8
部品1
100
AcDbLine
 10
5620.099999999998
 20
2786.9
 30
0.0
 11
5620.099999999998
 21
2786.9
 31
0.0
  0
ARC
  5
16F13
330
747D
100
AcDbEntity
  8
部品1
100
AcDbCircle
 10
5619.099999999997
 20
2818.999999999999
 30
0.0
 40
1.0
100
AcDbArc
 50
359.9999999999994
 51
90.0
  0
LINE
  5
16F14
330
747D
100
AcDbEntity
  8
点線
 48
5.0
100
AcDbLine
 10
5685.599999999996
 20
2813.51921627732
 30
0.0
 11
5685.599999999993
 21
2757.999999999999
 31
0.0
  0
LINE
  5
16F15
330
747D
100
AcDbEntity
  8
点線
 48
2.0
100
AcDbLine
 10
5670.599999999994
 20
2757.999999999999
 30
0.0
 11
5670.599999999996
 21
2738.553008595989
 31
0.0
  0
ARC
  5
16F16
330
747D
100
AcDbEntity
  8
部品1
100
AcDbCircle
 10
5619.099999999997
 20
2739.08778689947
 30
0.0
 40
1.0
100
AcDbArc
 50
270.0000000000001
 51
0.0000000000001399
  0
DIMENSION
  5
16F17
330
747D
100
AcDbEntity
  8
寸法
 48
50.0
100
AcDbDimension
  2
*D27
 10
6296.090969203316
 20
2334.0
 30
0.0
 11
6296.090969203316
 21
2180.976377952756
 31
0.0
 12
-8098.367323567577
 22
-757.3875625419132
 32
0.0
 70
   160
 71
     5
 42
-1.0
  3
INABA_S20G
100
AcDbAlignedDimension
 13
6102.599999999998
 23
2364.0
 33
0.0
 14
6102.599999999998
 24
2334.0
 34
0.0
 50
90.0
100
AcDbRotatedDimension
  0
LINE
  5
16F18
330
747D
100
AcDbEntity
  8
想像線
 48
8.0
100
AcDbLine
 10
6102.599999999998
 20
2334.0
 30
0.0
 11
6102.599999999998
 21
2364.0
 31
0.0
  0
LINE
  5
16F19
330
747D
100
AcDbEntity
  8
部品1
 48
50.0
100
AcDbLine
 10
6143.599999999998
 20
2725.0
 30
0.0
 11
6143.599999999995
 21
2790.28242873691
 31
0.0
  0
LINE
  5
16F1A
330
747D
100
AcDbEntity
  8
細線
 48
50.0
100
AcDbLine
 10
6138.599999999999
 20
2725.143266475646
 30
0.0
 11
6138.599999999996
 21
2790.28242873691
 31
0.0
  0
LINE
  5
16F1B
330
747D
100
AcDbEntity
  8
点線
 48
3.0
100
AcDbLine
 10
6101.599999999994
 20
2726.203438395416
 30
0.0
 11
6101.599999999997
 21
2758.0
 31
0.0
  0
ARC
  5
16F20
330
747D
100
AcDbEntity
  8
部品1
 48
2.0
100
AcDbCircle
 10
6032.12459705897
 20
2797.190822154586
 30
0.0
 40
6.00085262072102
100
AcDbArc
 50
88.36481440679087
 51
148.167489209843
  0
ARC
  5
16F24
330
747D
100
AcDbEntity
  8
部品1
 48
2.0
100
AcDbCircle
 10
5995.210570801978
 20
2798.247881094825
 30
0.0
 40
6.001501961612566
100
AcDbArc
 50
28.55217489790415
 51
88.34866917424013
  0
ARC
  5
16F25
330
747D
100
AcDbEntity
  8
部品1
 48
2.0
100
AcDbCircle
 10
6010.583946576646
 20
2806.612203416144
 30
0.0
 40
11.5
100
AcDbArc
 50
208.5483454702892
 51
268.3591377057567
  0
LINE
  5
16F26
330
747D
100
AcDbEntity
  8
部品1
 48
2.0
100
AcDbLine
 10
6010.254649423245
 20
2795.11691901841
 30
0.0
 11
6016.945350576741
 21
2794.925255309375
 31
0.0
  0
ARC
  5
16F27
330
747D
100
AcDbEntity
  8
部品1
 48
2.0
100
AcDbCircle
 10
6017.255755388711
 20
2806.421065365769
 30
0.0
 40
11.5
100
AcDbArc
 50
268.3588710747021
 51
328.1696633101696
  0
ARC
  5
16F28
330
747D
100
AcDbEntity
  8
細線
 48
50.0
100
AcDbCircle
 10
6061.599999999998
 20
2769.836943931083
 30
0.0
 40
2.0
100
AcDbArc
 50
180.0
 51
268.7241356599103
  0
ARC
  5
16F29
330
747D
100
AcDbEntity
  8
細線
 48
50.0
100
AcDbCircle
 10
6084.600000000001
 20
2769.324694487876
 30
0.0
 40
2.0
100
AcDbArc
 50
268.7241356599103
 51
0.0
  0
ARC
  5
16F2A
330
747D
100
AcDbEntity
  8
細線
 48
50.0
100
AcDbCircle
 10
6084.599999999998
 20
2783.328166262404
 30
0.0
 40
2.0
100
AcDbArc
 50
0.0
 51
88.72413565991022
  0
ARC
  5
16F2B
330
747D
100
AcDbEntity
  8
細線
 48
50.0
100
AcDbCircle
 10
6061.599999999998
 20
2783.840415705611
 30
0.0
 40
2.0
100
AcDbArc
 50
88.72413565991033
 51
180.0
  0
LINE
  5
16F2C
330
747D
100
AcDbEntity
  8
細線
 48
50.0
100
AcDbLine
 10
6086.600000000001
 20
2769.324694487876
 30
0.0
 11
6086.599999999998
 21
2783.328166262404
 31
0.0
  0
LINE
  5
16F2D
330
747D
100
AcDbEntity
  8
細線
 48
50.0
100
AcDbLine
 10
6059.599999999997
 20
2769.836943931083
 30
0.0
 11
6059.599999999997
 21
2783.840415705611
 31
0.0
  0
LINE
  5
16F2E
330
747D
100
AcDbEntity
  8
細線
 48
50.0
100
AcDbLine
 10
6084.555467613473
 20
2767.325190332704
 30
0.0
 11
6061.555467613469
 21
2767.837439775912
 31
0.0
  0
LINE
  5
16F2F
330
747D
100
AcDbEntity
  8
細線
 48
50.0
100
AcDbLine
 10
6084.644532386525
 20
2785.327670417576
 30
0.0
 11
6061.644532386526
 21
2785.839919860783
 31
0.0
  0
ARC
  5
1724B
330
747D
100
AcDbEntity
  8
部品1
 48
50.0
100
AcDbCircle
 10
6133.599999999995
 20
2790.28242873691
 30
0.0
 40
10.0
100
AcDbArc
 50
0.000000000001374
 51
88.35873618706306
  0
LINE
  5
1724D
330
747D
100
AcDbEntity
  8
部品1
 48
50.0
100
AcDbLine
 10
5995.38351710386
 20
2804.246890627398
 30
0.0
 11
5620.099999999998
 21
2815.000000000003
 31
0.0
  0
LINE
  5
1724E
330
747D
100
AcDbEntity
  8
細線
 48
50.0
100
AcDbLine
 10
5995.240309403726
 20
2799.248941892705
 30
0.0
 11
5619.956792299863
 21
2810.00205126531
 31
0.0
  0
ARC
  5
1724F
330
747D
100
AcDbEntity
  8
細線
 48
50.0
100
AcDbCircle
 10
6010.583946576646
 20
2806.612203416144
 30
0.0
 40
16.5
100
AcDbArc
 50
208.5483454702892
 51
268.3591377057567
  0
ARC
  5
17250
330
747D
100
AcDbEntity
  8
細線
 48
50.0
100
AcDbCircle
 10
5995.210570801978
 20
2798.247881094825
 30
0.0
 40
1.001501961612566
100
AcDbArc
 50
28.55217489790415
 51
88.34866917424013
  0
LINE
  5
17251
330
747D
100
AcDbEntity
  8
細線
 48
50.0
100
AcDbLine
 10
6010.111476747855
 20
2790.118969280266
 30
0.0
 11
6016.802177901351
 21
2789.927305571231
 31
0.0
  0
ARC
  5
17252
330
747D
100
AcDbEntity
  8
細線
 48
50.0
100
AcDbCircle
 10
6017.255755388711
 20
2806.421065365769
 30
0.0
 40
16.5
100
AcDbArc
 50
268.3588710747021
 51
328.1696633101696
  0
ARC
  5
17253
330
747D
100
AcDbEntity
  8
細線
 48
50.0
100
AcDbCircle
 10
6032.12459705897
 20
2797.190822154586
 30
0.0
 40
1.00085262072102
100
AcDbArc
 50
88.36481440679087
 51
148.167489209843
  0
LINE
  5
17254
330
747D
100
AcDbEntity
  8
細線
 48
50.0
100
AcDbLine
 10
6133.74320770013
 20
2795.280377471603
 30
0.0
 11
6032.15262667579
 21
2798.191282372014
 31
0.0
  0
ARC
  5
17255
330
747D
100
AcDbEntity
  8
細線
 48
50.0
100
AcDbCircle
 10
6133.599999999995
 20
2790.28242873691
 30
0.0
 40
5.0
100
AcDbArc
 50
0.000000000001374
 51
88.35873618706306
  0
ARC
  5
17303
330
747D
100
AcDbEntity
  8
部品1
100
AcDbCircle
 10
3274.143826690534
 20
1921.000446639864
 30
0.0
 40
400.0
100
AcDbArc
 50
352.14583065
 51
7.854036400000027
  0
ARC
  5
17304
330
747D
100
AcDbEntity
  8
部品1
100
AcDbCircle
 10
4030.143832180534
 20
1921.000446639864
 30
0.0
 40
400.0
100
AcDbArc
 50
172.14596367
 51
187.85416921
  0
ARC
  5
17305
330
747D
100
AcDbEntity
  8
細線
 48
50.0
100
AcDbCircle
 10
3277.112307950534
 20
1922.017828569864
 30
0.0
 40
390.0
100
AcDbArc
 50
3.658147749999999
 51
8.386167828959825
  0
ARC
  5
17306
330
747D
100
AcDbEntity
  8
細線
 48
50.0
100
AcDbCircle
 10
4027.175356410533
 20
1922.017828569864
 30
0.0
 40
390.0
100
AcDbArc
 50
171.6138321297549
 51
176.34185225
  0
LINE
  5
17307
330
747D
100
AcDbEntity
  8
細線
 48
50.0
100
AcDbLine
 10
3659.693832180533
 20
1887.450446639864
 30
0.0
 11
3659.693832180534
 21
1893.550446639864
 31
0.0
  0
LINE
  5
17308
330
747D
100
AcDbEntity
  8
細線
 48
50.0
100
AcDbLine
 10
3655.143832180534
 20
1893.550446639864
 30
0.0
 11
3654.693832180534
 21
1893.550446639864
 31
0.0
  0
ARC
  5
17309
330
747D
100
AcDbEntity
  8
細線
 48
50.0
100
AcDbCircle
 10
3665.319716670534
 20
1946.837333289864
 30
0.0
 40
1.0
100
AcDbArc
 50
262.50415453
 51
3.658147750000058
  0
ARC
  5
1730A
330
747D
100
AcDbEntity
  8
細線
 48
50.0
100
AcDbCircle
 10
3670.398832080534
 20
1918.000446639864
 30
0.0
 40
0.5
100
AcDbArc
 50
350.66758182
 51
90.0
  0
ARC
  5
1730B
330
747D
100
AcDbEntity
  8
細線
 48
50.0
100
AcDbCircle
 10
3670.398832080534
 20
1924.000446639864
 30
0.0
 40
0.5
100
AcDbArc
 50
270.0
 51
9.332418179999972
  0
ARC
  5
1730C
330
747D
100
AcDbEntity
  8
細線
 48
50.0
100
AcDbCircle
 10
3669.847861990534
 20
1924.250446639864
 30
0.0
 40
1.0
100
AcDbArc
 50
10.40212101
 51
90.0
  0
ARC
  5
1730D
330
747D
100
AcDbEntity
  8
細線
 48
50.0
100
AcDbCircle
 10
3667.786186020534
 20
1926.250446639864
 30
0.0
 40
1.0
100
AcDbArc
 50
198.55300454
 51
270.0
  0
LINE
  5
1730E
330
747D
100
AcDbEntity
  8
細線
 48
50.0
100
AcDbLine
 10
3667.543695810534
 20
1923.500446639864
 30
0.0
 11
3667.543695810534
 21
1918.500446639864
 31
0.0
  0
LINE
  5
1730F
330
747D
100
AcDbEntity
  8
細線
 48
50.0
100
AcDbLine
 10
3669.847861990534
 20
1925.250446639864
 30
0.0
 11
3667.786186020534
 21
1925.250446639864
 31
0.0
  0
LINE
  5
17310
330
747D
100
AcDbEntity
  8
細線
 48
50.0
100
AcDbLine
 10
3667.543695810534
 20
1918.500446639864
 30
0.0
 11
3670.398832080534
 21
1918.500446639864
 31
0.0
  0
LINE
  5
17311
330
747D
100
AcDbEntity
  8
細線
 48
50.0
100
AcDbLine
 10
3667.543695810534
 20
1923.500446639864
 30
0.0
 11
3670.398832080534
 21
1923.500446639864
 31
0.0
  0
ARC
  5
17312
330
747D
100
AcDbEntity
  8
細線
 48
50.0
100
AcDbCircle
 10
3667.786186020534
 20
1915.750446639864
 30
0.0
 40
1.0
100
AcDbArc
 50
90.0
 51
161.44699546
  0
LINE
  5
17313
330
747D
100
AcDbEntity
  8
細線
 48
50.0
100
AcDbLine
 10
3669.847861990534
 20
1916.750446639864
 30
0.0
 11
3667.786186020534
 21
1916.750446639864
 31
0.0
  0
ARC
  5
17314
330
747D
100
AcDbEntity
  8
細線
 48
50.0
100
AcDbCircle
 10
3665.319716670534
 20
1895.163559989864
 30
0.0
 40
1.0
100
AcDbArc
 50
356.34185225
 51
97.49584547000004
  0
ARC
  5
17315
330
747D
100
AcDbEntity
  8
細線
 48
50.0
100
AcDbCircle
 10
3669.847861990534
 20
1917.750446639864
 30
0.0
 40
1.0
100
AcDbArc
 50
270.0
 51
349.59787899
  0
LINE
  5
17316
330
747D
100
AcDbEntity
  8
細線
 48
50.0
100
AcDbLine
 10
3655.143832180534
 20
1954.500446639864
 30
0.0
 11
3655.143832180534
 21
1954.550446639864
 31
0.0
  0
LINE
  5
17317
330
747D
100
AcDbEntity
  8
細線
 48
50.0
100
AcDbLine
 10
3654.643832180534
 20
1944.000446639864
 30
0.0
 11
3654.643832180534
 21
1948.300446639864
 31
0.0
  0
ARC
  5
17318
330
747D
100
AcDbEntity
  8
細線
 48
50.0
100
AcDbCircle
 10
3655.693832180534
 20
1947.638038739864
 30
0.0
 40
1.0
100
AcDbArc
 50
180.0
 51
267.98572355
  0
LINE
  5
17319
330
747D
100
AcDbEntity
  8
細線
 48
50.0
100
AcDbLine
 10
3654.693832180534
 20
1948.450446639864
 30
0.0
 11
3654.693832180534
 21
1947.638038739864
 31
0.0
  0
LINE
  5
1731A
330
747D
100
AcDbEntity
  8
細線
 48
50.0
100
AcDbLine
 10
3659.693832180534
 20
1948.450446639864
 30
0.0
 11
3654.693832180534
 21
1948.450446639864
 31
0.0
  0
ARC
  5
1731B
330
747D
100
AcDbEntity
  8
細線
 48
50.0
100
AcDbCircle
 10
3655.143695810533
 20
1939.255582899864
 30
0.0
 40
0.5
100
AcDbArc
 50
80.66758181999999
 51
180.0
  0
LINE
  5
1731C
330
747D
100
AcDbEntity
  8
細線
 48
50.0
100
AcDbLine
 10
3654.643695810534
 20
1936.400446639864
 30
0.0
 11
3654.643695810534
 21
1939.255582899864
 31
0.0
  0
ARC
  5
1731D
330
747D
100
AcDbEntity
  8
細線
 48
50.0
100
AcDbCircle
 10
3655.393695810534
 20
1938.704612809864
 30
0.0
 40
1.0
100
AcDbArc
 50
0.0
 51
79.59787899
  0
LINE
  5
1731E
330
747D
100
AcDbEntity
  8
細線
 48
50.0
100
AcDbLine
 10
3656.393695810534
 20
1938.704612809864
 30
0.0
 11
3656.393695810534
 21
1936.642936849864
 31
0.0
  0
ARC
  5
1731F
330
747D
100
AcDbEntity
  8
細線
 48
50.0
100
AcDbCircle
 10
3657.393695810533
 20
1936.642936849864
 30
0.0
 40
1.0
100
AcDbArc
 50
180.0
 51
251.44699546
  0
ARC
  5
17320
330
747D
100
AcDbEntity
  8
細線
 48
50.0
100
AcDbCircle
 10
3653.643832180534
 20
1944.000446639864
 30
0.0
 40
1.0
100
AcDbArc
 50
270.0
 51
0.0
  0
LINE
  5
17321
330
747D
100
AcDbEntity
  8
細線
 48
50.0
100
AcDbLine
 10
3649.643832180534
 20
1944.000446639864
 30
0.0
 11
3649.643832180534
 21
1948.300446639864
 31
0.0
  0
LINE
  5
17322
330
747D
100
AcDbEntity
  8
細線
 48
50.0
100
AcDbLine
 10
3649.593832180534
 20
1948.450446639864
 30
0.0
 11
3649.593832180534
 21
1947.638038739864
 31
0.0
  0
LINE
  5
17323
330
747D
100
AcDbEntity
  8
細線
 48
50.0
100
AcDbLine
 10
3649.643695810534
 20
1936.400446639864
 30
0.0
 11
3649.643695810534
 21
1939.255582899864
 31
0.0
  0
LINE
  5
17324
330
747D
100
AcDbEntity
  8
細線
 48
50.0
100
AcDbLine
 10
3649.643695810534
 20
1936.400446639864
 30
0.0
 11
3654.643695810534
 21
1936.400446639864
 31
0.0
  0
LINE
  5
17325
330
747D
100
AcDbEntity
  8
細線
 48
50.0
100
AcDbLine
 10
3653.643832180534
 20
1943.000446639864
 30
0.0
 11
3650.643832180534
 21
1943.000446639864
 31
0.0
  0
LINE
  5
17326
330
747D
100
AcDbEntity
  8
細線
 48
50.0
100
AcDbLine
 10
3653.394225690534
 20
1926.000171099864
 30
0.0
 11
3650.894225690534
 21
1926.000171099864
 31
0.0
  0
LINE
  5
17327
330
747D
100
AcDbEntity
  8
細線
 48
50.0
100
AcDbLine
 10
3659.693832180534
 20
1954.550446639864
 30
0.0
 11
3659.693832180534
 21
1948.450446639864
 31
0.0
  0
ARC
  5
17328
330
747D
100
AcDbEntity
  8
細線
 48
50.0
100
AcDbCircle
 10
3655.393695810534
 20
1903.296280459864
 30
0.0
 40
1.0
100
AcDbArc
 50
280.40212101
 51
0.0
  0
LINE
  5
17329
330
747D
100
AcDbEntity
  8
細線
 48
50.0
100
AcDbLine
 10
3656.393695810534
 20
1903.296280459864
 30
0.0
 11
3656.393695810534
 21
1905.357956429864
 31
0.0
  0
ARC
  5
1732A
330
747D
100
AcDbEntity
  8
細線
 48
50.0
100
AcDbCircle
 10
3657.393695810533
 20
1905.357956429864
 30
0.0
 40
1.0
100
AcDbArc
 50
108.55300454
 51
180.0
  0
LINE
  5
1732B
330
747D
100
AcDbEntity
  8
細線
 48
50.0
100
AcDbLine
 10
3653.394225690534
 20
1916.000171099864
 30
0.0
 11
3650.894225690534
 21
1916.000171099864
 31
0.0
  0
ARC
  5
1732C
330
747D
100
AcDbEntity
  8
細線
 48
50.0
100
AcDbCircle
 10
3655.693832180534
 20
1894.362854529864
 30
0.0
 40
1.0
100
AcDbArc
 50
92.01427645
 51
180.0
  0
LINE
  5
1732D
330
747D
100
AcDbEntity
  8
細線
 48
50.0
100
AcDbLine
 10
3654.693832180534
 20
1893.550446639864
 30
0.0
 11
3654.693832180534
 21
1894.362854529864
 31
0.0
  0
ARC
  5
1732E
330
747D
100
AcDbEntity
  8
細線
 48
50.0
100
AcDbCircle
 10
3653.643832180534
 20
1898.000446639864
 30
0.0
 40
1.0
100
AcDbArc
 50
0.0
 51
90.0
  0
LINE
  5
1732F
330
747D
100
AcDbEntity
  8
細線
 48
50.0
100
AcDbLine
 10
3654.643832180534
 20
1898.000446639864
 30
0.0
 11
3654.643832180534
 21
1893.700446639864
 31
0.0
  0
LINE
  5
17330
330
747D
100
AcDbEntity
  8
細線
 48
50.0
100
AcDbLine
 10
3654.693832180534
 20
1893.550446639864
 30
0.0
 11
3659.693832180534
 21
1893.550446639864
 31
0.0
  0
LINE
  5
17331
330
747D
100
AcDbEntity
  8
細線
 48
50.0
100
AcDbLine
 10
3649.593832180534
 20
1893.550446639864
 30
0.0
 11
3649.593832180534
 21
1894.362854529864
 31
0.0
  0
LINE
  5
17332
330
747D
100
AcDbEntity
  8
細線
 48
50.0
100
AcDbLine
 10
3649.643832180534
 20
1898.000446639864
 30
0.0
 11
3649.643832180534
 21
1893.700446639864
 31
0.0
  0
LINE
  5
17333
330
747D
100
AcDbEntity
  8
細線
 48
50.0
100
AcDbLine
 10
3650.643832180534
 20
1899.000446639864
 30
0.0
 11
3653.643832180534
 21
1899.000446639864
 31
0.0
  0
ARC
  5
17334
330
747D
100
AcDbEntity
  8
細線
 48
50.0
100
AcDbCircle
 10
3651.913261080534
 20
1921.000308869864
 30
0.0
 40
4.86447736
100
AcDbArc
 50
287.72427684
 51
72.27572315999998
  0
LINE
  5
17335
330
747D
100
AcDbEntity
  8
細線
 48
50.0
100
AcDbLine
 10
3650.894225690534
 20
1916.000171099864
 30
0.0
 11
3650.894225690534
 21
1926.000171099864
 31
0.0
  0
LINE
  5
17336
330
747D
100
AcDbEntity
  8
細線
 48
50.0
100
AcDbLine
 10
3653.394225690534
 20
1916.000171099864
 30
0.0
 11
3653.394225690534
 21
1926.000171099864
 31
0.0
  0
ARC
  5
17337
330
747D
100
AcDbEntity
  8
細線
 48
50.0
100
AcDbCircle
 10
3652.143695810534
 20
1921.000446639864
 30
0.0
 40
15.5
100
AcDbArc
 50
288.55300454
 51
341.44699546
  0
ARC
  5
17338
330
747D
100
AcDbEntity
  8
細線
 48
50.0
100
AcDbCircle
 10
3652.143695810534
 20
1921.000446639864
 30
0.0
 40
15.5
100
AcDbArc
 50
18.55300454
 51
71.44699546
  0
ARC
  5
17339
330
747D
100
AcDbEntity
  8
細線
 48
50.0
100
AcDbCircle
 10
3652.143832180534
 20
1995.300446639864
 30
0.0
 40
100.0
100
AcDbArc
 50
272.01427645
 51
277.49584547
  0
ARC
  5
1733A
330
747D
100
AcDbEntity
  8
細線
 48
50.0
100
AcDbCircle
 10
3652.143832180534
 20
1846.700446639864
 30
0.0
 40
100.0
100
AcDbArc
 50
82.50415453
 51
87.98572355000001
  0
ARC
  5
1733B
330
747D
100
AcDbEntity
  8
部品1
100
AcDbCircle
 10
3652.143832180534
 20
1959.499999999864
 30
0.0
 40
97.0
100
AcDbArc
 50
276.39156482
 51
279.35251214
  0
ARC
  5
1733C
330
747D
100
AcDbEntity
  8
部品1
100
AcDbCircle
 10
3667.419604480534
 20
1866.749524089864
 30
0.0
 40
3.0
100
AcDbArc
 50
279.35251214
 51
352.14583065
  0
ARC
  5
1733D
330
747D
100
AcDbEntity
  8
細線
 48
50.0
100
AcDbCircle
 10
3277.112307950534
 20
1919.983064699864
 30
0.0
 40
390.0
100
AcDbArc
 50
351.6136975214182
 51
356.3418522549218
  0
ARC
  5
1733E
330
747D
100
AcDbEntity
  8
部品1
100
AcDbCircle
 10
3661.607493060534
 20
1860.953812379864
 30
0.0
 40
1.0
100
AcDbArc
 50
275.48542473
 51
351.27186792
  0
ARC
  5
1733F
330
747D
100
AcDbEntity
  8
部品1
100
AcDbCircle
 10
3277.112307950534
 20
1919.983064699864
 30
0.0
 40
390.0
100
AcDbArc
 50
351.27186792
 51
351.6136975214182
  0
ARC
  5
17340
330
747D
100
AcDbEntity
  8
細線
 48
50.0
100
AcDbCircle
 10
3636.501205600534
 20
1926.250446639864
 30
0.0
 40
1.0
100
AcDbArc
 50
270.0
 51
341.44699546
  0
ARC
  5
17341
330
747D
100
AcDbEntity
  8
細線
 48
50.0
100
AcDbCircle
 10
3652.143695810534
 20
1921.000446639864
 30
0.0
 40
15.5
100
AcDbArc
 50
108.55300454
 51
161.44699546
  0
ARC
  5
17342
330
747D
100
AcDbEntity
  8
細線
 48
50.0
100
AcDbCircle
 10
3636.501205600534
 20
1915.750446639864
 30
0.0
 40
1.0
100
AcDbArc
 50
18.55300454
 51
90.0
  0
ARC
  5
17343
330
747D
100
AcDbEntity
  8
細線
 48
50.0
100
AcDbCircle
 10
3652.143695810534
 20
1921.000446639864
 30
0.0
 40
15.5
100
AcDbArc
 50
198.55300454
 51
251.44699546
  0
LINE
  5
17344
330
747D
100
AcDbEntity
  8
細線
 48
50.0
100
AcDbLine
 10
3634.439529640534
 20
1925.250446639864
 30
0.0
 11
3636.501205600534
 21
1925.250446639864
 31
0.0
  0
ARC
  5
17345
330
747D
100
AcDbEntity
  8
細線
 48
50.0
100
AcDbCircle
 10
3634.439529640534
 20
1924.250446639864
 30
0.0
 40
1.0
100
AcDbArc
 50
90.0
 51
169.59787899
  0
LINE
  5
17346
330
747D
100
AcDbEntity
  8
細線
 48
50.0
100
AcDbLine
 10
3634.439529640534
 20
1916.750446639864
 30
0.0
 11
3636.501205600534
 21
1916.750446639864
 31
0.0
  0
ARC
  5
17347
330
747D
100
AcDbEntity
  8
細線
 48
50.0
100
AcDbCircle
 10
3634.439529640534
 20
1917.750446639864
 30
0.0
 40
1.0
100
AcDbArc
 50
190.4021210099999
 51
270.0
  0
ARC
  5
17348
330
747D
100
AcDbEntity
  8
細線
 48
50.0
100
AcDbCircle
 10
3646.893695810534
 20
1936.642936849864
 30
0.0
 40
1.0
100
AcDbArc
 50
288.55300454
 51
0.0
  0
ARC
  5
17349
330
747D
100
AcDbEntity
  8
細線
 48
50.0
100
AcDbCircle
 10
3648.893695810534
 20
1938.704612809864
 30
0.0
 40
1.0
100
AcDbArc
 50
100.40212101
 51
180.0
  0
LINE
  5
1734A
330
747D
100
AcDbEntity
  8
細線
 48
50.0
100
AcDbLine
 10
3647.893695810534
 20
1938.704612809864
 30
0.0
 11
3647.893695810534
 21
1936.642936849864
 31
0.0
  0
ARC
  5
1734B
330
747D
100
AcDbEntity
  8
細線
 48
50.0
100
AcDbCircle
 10
3638.967947680534
 20
1946.837333289864
 30
0.0
 40
1.0
100
AcDbArc
 50
176.34185225
 51
277.49584547
  0
ARC
  5
1734C
330
747D
100
AcDbEntity
  8
細線
 48
50.0
100
AcDbCircle
 10
3652.143832180534
 20
1846.700446639864
 30
0.0
 40
100.0
100
AcDbArc
 50
92.01427645
 51
97.49584547000001
  0
LINE
  5
1734D
330
747D
100
AcDbEntity
  8
細線
 48
50.0
100
AcDbLine
 10
3644.593832180534
 20
1954.550446639864
 30
0.0
 11
3644.593832180534
 21
1948.450446639864
 31
0.0
  0
ARC
  5
1734E
330
747D
100
AcDbEntity
  8
細線
 48
50.0
100
AcDbCircle
 10
3646.893695810534
 20
1905.357956429864
 30
0.0
 40
1.0
100
AcDbArc
 50
0.0
 51
71.44699546
  0
ARC
  5
1734F
330
747D
100
AcDbEntity
  8
細線
 48
50.0
100
AcDbCircle
 10
3648.893695810534
 20
1903.296280459864
 30
0.0
 40
1.0
100
AcDbArc
 50
180.0
 51
259.59787899
  0
LINE
  5
17350
330
747D
100
AcDbEntity
  8
細線
 48
50.0
100
AcDbLine
 10
3647.893695810534
 20
1903.296280459864
 30
0.0
 11
3647.893695810534
 21
1905.357956429864
 31
0.0
  0
LINE
  5
17351
330
747D
100
AcDbEntity
  8
細線
 48
50.0
100
AcDbLine
 10
3644.593832180534
 20
1887.450446639864
 30
0.0
 11
3644.593832180534
 21
1893.550446639864
 31
0.0
  0
ARC
  5
17352
330
747D
100
AcDbEntity
  8
細線
 48
50.0
100
AcDbCircle
 10
3638.967947680534
 20
1895.163559989864
 30
0.0
 40
1.0
100
AcDbArc
 50
82.50415453
 51
183.65814775
  0
ARC
  5
17353
330
747D
100
AcDbEntity
  8
細線
 48
50.0
100
AcDbCircle
 10
3652.143832180534
 20
1995.300446639864
 30
0.0
 40
100.0
100
AcDbArc
 50
262.50415453
 51
267.98572355
  0
ARC
  5
17354
330
747D
100
AcDbEntity
  8
部品1
100
AcDbCircle
 10
3652.143832180534
 20
1959.499999999864
 30
0.0
 40
97.0
100
AcDbArc
 50
260.64748439
 51
263.60843518
  0
ARC
  5
17355
330
747D
100
AcDbEntity
  8
部品1
100
AcDbCircle
 10
3636.868054250534
 20
1866.749525019864
 30
0.0
 40
3.0
100
AcDbArc
 50
187.85416921
 51
260.64748439
  0
ARC
  5
17356
330
747D
100
AcDbEntity
  8
細線
 48
50.0
100
AcDbCircle
 10
4027.175356410533
 20
1919.983064699864
 30
0.0
 40
390.0
100
AcDbArc
 50
183.6581281377828
 51
188.3863024783845
  0
ARC
  5
17357
330
747D
100
AcDbEntity
  8
部品1
100
AcDbCircle
 10
3642.680171300534
 20
1860.953812379864
 30
0.0
 40
1.0
100
AcDbArc
 50
188.72813208
 51
264.51457527
  0
ARC
  5
17358
330
747D
100
AcDbEntity
  8
部品1
100
AcDbCircle
 10
4027.175356410533
 20
1919.983064699864
 30
0.0
 40
390.0
100
AcDbArc
 50
188.3863024783845
 51
188.72813208
  0
CIRCLE
  5
17359
330
747D
100
AcDbEntity
  8
細線
 48
50.0
100
AcDbCircle
 10
3652.143832180534
 20
1921.000446639864
 30
0.0
 40
19.0
  0
LINE
  5
1735A
330
747D
100
AcDbEntity
  8
細線
 48
50.0
100
AcDbLine
 10
3659.693832180534
 20
1954.550446639864
 30
0.0
 11
3644.593832180534
 21
1954.550446639864
 31
0.0
  0
ARC
  5
1735B
330
747D
100
AcDbEntity
  8
細線
 48
50.0
100
AcDbCircle
 10
3648.593832180534
 20
1947.638038739864
 30
0.0
 40
1.0
100
AcDbArc
 50
272.01427645
 51
0.0
  0
LINE
  5
1735C
330
747D
100
AcDbEntity
  8
細線
 48
50.0
100
AcDbLine
 10
3649.593832180534
 20
1948.450446639864
 30
0.0
 11
3644.593832180534
 21
1948.450446639864
 31
0.0
  0
ARC
  5
1735D
330
747D
100
AcDbEntity
  8
細線
 48
50.0
100
AcDbCircle
 10
3649.143695810534
 20
1939.255582899864
 30
0.0
 40
0.5
100
AcDbArc
 50
0.0
 51
99.33241818000002
  0
ARC
  5
1735E
330
747D
100
AcDbEntity
  8
細線
 48
50.0
100
AcDbCircle
 10
3650.643832180534
 20
1944.000446639864
 30
0.0
 40
1.0
100
AcDbArc
 50
180.0
 51
270.0
  0
ARC
  5
1735F
330
747D
100
AcDbEntity
  8
細線
 48
50.0
100
AcDbCircle
 10
3652.143695810534
 20
1921.000446639864
 30
0.0
 40
19.0
100
AcDbArc
 50
80.66758181999999
 51
99.08782902000002
  0
ARC
  5
17360
330
747D
100
AcDbEntity
  8
細線
 48
50.0
100
AcDbCircle
 10
3648.593832180534
 20
1894.362854529864
 30
0.0
 40
1.0
100
AcDbArc
 50
0.0
 51
87.98572355000001
  0
ARC
  5
17361
330
747D
100
AcDbEntity
  8
細線
 48
50.0
100
AcDbCircle
 10
3650.643832180534
 20
1898.000446639864
 30
0.0
 40
1.0
100
AcDbArc
 50
90.0
 51
180.0
  0
LINE
  5
17362
330
747D
100
AcDbEntity
  8
細線
 48
50.0
100
AcDbLine
 10
3644.593832180534
 20
1893.550446639864
 30
0.0
 11
3649.593832180534
 21
1893.550446639864
 31
0.0
  0
LINE
  5
17363
330
747D
100
AcDbEntity
  8
細線
 48
50.0
100
AcDbLine
 10
3644.593832180534
 20
1887.450446639864
 30
0.0
 11
3659.693832180534
 21
1887.450446639864
 31
0.0
  0
CIRCLE
  5
17364
330
747D
100
AcDbEntity
  8
細線
 48
50.0
100
AcDbCircle
 10
3652.143832180534
 20
1921.000446639864
 30
0.0
 40
10.75
  0
ARC
  5
17365
330
747D
100
AcDbEntity
  8
部品1
100
AcDbCircle
 10
3652.143832180534
 20
1959.500446639864
 30
0.0
 40
100.0
100
AcDbArc
 50
264.51457527
 51
275.48542473
  0
ARC
  5
17366
330
747D
100
AcDbEntity
  8
部品1
100
AcDbCircle
 10
3652.143830950534
 20
1882.500001649864
 30
0.0
 40
97.0
100
AcDbArc
 50
80.64740934000001
 51
83.608355
  0
ARC
  5
17367
330
747D
100
AcDbEntity
  8
部品1
100
AcDbCircle
 10
3661.607493060534
 20
1981.047080889864
 30
0.0
 40
1.0
100
AcDbArc
 50
8.728132079999999
 51
84.51457527
  0
ARC
  5
17368
330
747D
100
AcDbEntity
  8
部品1
100
AcDbCircle
 10
3277.112307950534
 20
1922.017828569864
 30
0.0
 40
390.0
100
AcDbArc
 50
8.386167828959825
 51
8.728132079999999
  0
ARC
  5
17369
330
747D
100
AcDbEntity
  8
部品1
100
AcDbCircle
 10
3652.143830950534
 20
1882.500001649864
 30
0.0
 40
97.0
100
AcDbArc
 50
96.39164352000001
 51
99.35259259
  0
ARC
  5
1736A
330
747D
100
AcDbEntity
  8
部品1
100
AcDbCircle
 10
3642.680171300534
 20
1981.047080889864
 30
0.0
 40
1.0
100
AcDbArc
 50
95.48542473000001
 51
171.27186792
  0
ARC
  5
1736B
330
747D
100
AcDbEntity
  8
部品1
100
AcDbCircle
 10
4027.175356410533
 20
1922.017828569864
 30
0.0
 40
390.0
100
AcDbArc
 50
171.27186792
 51
171.6138321297549
  0
ARC
  5
1736C
330
747D
100
AcDbEntity
  8
部品1
100
AcDbCircle
 10
3652.143832180534
 20
1882.500446639864
 30
0.0
 40
100.0
100
AcDbArc
 50
84.51457527
 51
95.48542473000001
  0
ARC
  5
1736D
330
747D
100
AcDbEntity
  8
部品1
100
AcDbCircle
 10
3636.867928420534
 20
1975.250456109864
 30
0.0
 40
3.0
100
AcDbArc
 50
99.35259259
 51
172.14596367
  0
ARC
  5
1736E
330
747D
100
AcDbEntity
  8
部品1
100
AcDbCircle
 10
3667.419730370534
 20
1975.250456619864
 30
0.0
 40
3.0
100
AcDbArc
 50
7.8540364
 51
80.64740934000001
  0
ARC
  5
17370
330
747D
100
AcDbEntity
  8
部品1
100
AcDbCircle
 10
2277.056162329467
 20
1921.0
 30
0.0
 40
400.0
100
AcDbArc
 50
352.14583065
 51
7.854036400000027
  0
ARC
  5
17371
330
747D
100
AcDbEntity
  8
部品1
100
AcDbCircle
 10
3033.056167819467
 20
1921.0
 30
0.0
 40
400.0
100
AcDbArc
 50
172.14596367
 51
187.85416921
  0
ARC
  5
17372
330
747D
100
AcDbEntity
  8
細線
 48
50.0
100
AcDbCircle
 10
2280.024643589467
 20
1922.01738193
 30
0.0
 40
390.0
100
AcDbArc
 50
3.658147749999999
 51
8.386167828959825
  0
ARC
  5
17373
330
747D
100
AcDbEntity
  8
細線
 48
50.0
100
AcDbCircle
 10
3030.087692049467
 20
1922.01738193
 30
0.0
 40
390.0
100
AcDbArc
 50
171.6138321297549
 51
176.34185225
  0
LINE
  5
17374
330
747D
100
AcDbEntity
  8
細線
 48
50.0
100
AcDbLine
 10
2662.606167819466
 20
1887.45
 30
0.0
 11
2662.606167819467
 21
1893.55
 31
0.0
  0
LINE
  5
17375
330
747D
100
AcDbEntity
  8
細線
 48
50.0
100
AcDbLine
 10
2658.056167819467
 20
1893.55
 30
0.0
 11
2657.606167819466
 21
1893.55
 31
0.0
  0
ARC
  5
17376
330
747D
100
AcDbEntity
  8
細線
 48
50.0
100
AcDbCircle
 10
2668.232052309467
 20
1946.83688665
 30
0.0
 40
1.0
100
AcDbArc
 50
262.50415453
 51
3.658147750000058
  0
ARC
  5
17377
330
747D
100
AcDbEntity
  8
細線
 48
50.0
100
AcDbCircle
 10
2673.311167719467
 20
1918.0
 30
0.0
 40
0.5
100
AcDbArc
 50
350.66758182
 51
90.0
  0
ARC
  5
17378
330
747D
100
AcDbEntity
  8
細線
 48
50.0
100
AcDbCircle
 10
2673.311167719467
 20
1924.0
 30
0.0
 40
0.5
100
AcDbArc
 50
270.0
 51
9.332418179999972
  0
ARC
  5
17379
330
747D
100
AcDbEntity
  8
細線
 48
50.0
100
AcDbCircle
 10
2672.760197629467
 20
1924.25
 30
0.0
 40
1.0
100
AcDbArc
 50
10.40212101
 51
90.0
  0
ARC
  5
1737A
330
747D
100
AcDbEntity
  8
細線
 48
50.0
100
AcDbCircle
 10
2670.698521659467
 20
1926.25
 30
0.0
 40
1.0
100
AcDbArc
 50
198.55300454
 51
270.0
  0
LINE
  5
1737B
330
747D
100
AcDbEntity
  8
細線
 48
50.0
100
AcDbLine
 10
2670.456031449467
 20
1923.5
 30
0.0
 11
2670.456031449467
 21
1918.5
 31
0.0
  0
LINE
  5
1737C
330
747D
100
AcDbEntity
  8
細線
 48
50.0
100
AcDbLine
 10
2672.760197629467
 20
1925.25
 30
0.0
 11
2670.698521659467
 21
1925.25
 31
0.0
  0
LINE
  5
1737D
330
747D
100
AcDbEntity
  8
細線
 48
50.0
100
AcDbLine
 10
2670.456031449467
 20
1918.5
 30
0.0
 11
2673.311167719467
 21
1918.5
 31
0.0
  0
LINE
  5
1737E
330
747D
100
AcDbEntity
  8
細線
 48
50.0
100
AcDbLine
 10
2670.456031449467
 20
1923.5
 30
0.0
 11
2673.311167719467
 21
1923.5
 31
0.0
  0
ARC
  5
1737F
330
747D
100
AcDbEntity
  8
細線
 48
50.0
100
AcDbCircle
 10
2670.698521659467
 20
1915.75
 30
0.0
 40
1.0
100
AcDbArc
 50
90.0
 51
161.44699546
  0
LINE
  5
17380
330
747D
100
AcDbEntity
  8
細線
 48
50.0
100
AcDbLine
 10
2672.760197629467
 20
1916.75
 30
0.0
 11
2670.698521659467
 21
1916.75
 31
0.0
  0
ARC
  5
17381
330
747D
100
AcDbEntity
  8
細線
 48
50.0
100
AcDbCircle
 10
2668.232052309467
 20
1895.16311335
 30
0.0
 40
1.0
100
AcDbArc
 50
356.34185225
 51
97.49584547000004
  0
ARC
  5
17382
330
747D
100
AcDbEntity
  8
細線
 48
50.0
100
AcDbCircle
 10
2672.760197629467
 20
1917.75
 30
0.0
 40
1.0
100
AcDbArc
 50
270.0
 51
349.59787899
  0
LINE
  5
17383
330
747D
100
AcDbEntity
  8
細線
 48
50.0
100
AcDbLine
 10
2658.056167819467
 20
1954.5
 30
0.0
 11
2658.056167819467
 21
1954.55
 31
0.0
  0
LINE
  5
17384
330
747D
100
AcDbEntity
  8
細線
 48
50.0
100
AcDbLine
 10
2657.556167819467
 20
1944.0
 30
0.0
 11
2657.556167819467
 21
1948.3
 31
0.0
  0
ARC
  5
17385
330
747D
100
AcDbEntity
  8
細線
 48
50.0
100
AcDbCircle
 10
2658.606167819467
 20
1947.6375921
 30
0.0
 40
1.0
100
AcDbArc
 50
180.0
 51
267.98572355
  0
LINE
  5
17386
330
747D
100
AcDbEntity
  8
細線
 48
50.0
100
AcDbLine
 10
2657.606167819467
 20
1948.45
 30
0.0
 11
2657.606167819467
 21
1947.6375921
 31
0.0
  0
LINE
  5
17387
330
747D
100
AcDbEntity
  8
細線
 48
50.0
100
AcDbLine
 10
2662.606167819467
 20
1948.45
 30
0.0
 11
2657.606167819467
 21
1948.45
 31
0.0
  0
ARC
  5
17388
330
747D
100
AcDbEntity
  8
細線
 48
50.0
100
AcDbCircle
 10
2658.056031449467
 20
1939.25513626
 30
0.0
 40
0.5
100
AcDbArc
 50
80.66758181999999
 51
180.0
  0
LINE
  5
17389
330
747D
100
AcDbEntity
  8
細線
 48
50.0
100
AcDbLine
 10
2657.556031449467
 20
1936.4
 30
0.0
 11
2657.556031449467
 21
1939.25513626
 31
0.0
  0
ARC
  5
1738A
330
747D
100
AcDbEntity
  8
細線
 48
50.0
100
AcDbCircle
 10
2658.306031449467
 20
1938.70416617
 30
0.0
 40
1.0
100
AcDbArc
 50
0.0
 51
79.59787899
  0
LINE
  5
1738B
330
747D
100
AcDbEntity
  8
細線
 48
50.0
100
AcDbLine
 10
2659.306031449466
 20
1938.70416617
 30
0.0
 11
2659.306031449466
 21
1936.642490209999
 31
0.0
  0
ARC
  5
1738C
330
747D
100
AcDbEntity
  8
細線
 48
50.0
100
AcDbCircle
 10
2660.306031449467
 20
1936.642490209999
 30
0.0
 40
1.0
100
AcDbArc
 50
180.0
 51
251.44699546
  0
ARC
  5
1738D
330
747D
100
AcDbEntity
  8
細線
 48
50.0
100
AcDbCircle
 10
2656.556167819467
 20
1944.0
 30
0.0
 40
1.0
100
AcDbArc
 50
270.0
 51
0.0
  0
LINE
  5
1738E
330
747D
100
AcDbEntity
  8
細線
 48
50.0
100
AcDbLine
 10
2652.556167819467
 20
1944.0
 30
0.0
 11
2652.556167819467
 21
1948.3
 31
0.0
  0
LINE
  5
1738F
330
747D
100
AcDbEntity
  8
細線
 48
50.0
100
AcDbLine
 10
2652.506167819467
 20
1948.45
 30
0.0
 11
2652.506167819467
 21
1947.6375921
 31
0.0
  0
LINE
  5
17390
330
747D
100
AcDbEntity
  8
細線
 48
50.0
100
AcDbLine
 10
2652.556031449467
 20
1936.4
 30
0.0
 11
2652.556031449467
 21
1939.25513626
 31
0.0
  0
LINE
  5
17391
330
747D
100
AcDbEntity
  8
細線
 48
50.0
100
AcDbLine
 10
2652.556031449467
 20
1936.4
 30
0.0
 11
2657.556031449467
 21
1936.4
 31
0.0
  0
LINE
  5
17392
330
747D
100
AcDbEntity
  8
細線
 48
50.0
100
AcDbLine
 10
2656.556167819467
 20
1943.0
 30
0.0
 11
2653.556167819467
 21
1943.0
 31
0.0
  0
LINE
  5
17393
330
747D
100
AcDbEntity
  8
細線
 48
50.0
100
AcDbLine
 10
2656.306561329467
 20
1925.99972446
 30
0.0
 11
2653.806561329467
 21
1925.99972446
 31
0.0
  0
LINE
  5
17394
330
747D
100
AcDbEntity
  8
細線
 48
50.0
100
AcDbLine
 10
2662.606167819467
 20
1954.55
 30
0.0
 11
2662.606167819467
 21
1948.45
 31
0.0
  0
ARC
  5
17395
330
747D
100
AcDbEntity
  8
細線
 48
50.0
100
AcDbCircle
 10
2658.306031449467
 20
1903.29583382
 30
0.0
 40
1.0
100
AcDbArc
 50
280.40212101
 51
0.0
  0
LINE
  5
17396
330
747D
100
AcDbEntity
  8
細線
 48
50.0
100
AcDbLine
 10
2659.306031449466
 20
1903.29583382
 30
0.0
 11
2659.306031449466
 21
1905.35750979
 31
0.0
  0
ARC
  5
17397
330
747D
100
AcDbEntity
  8
細線
 48
50.0
100
AcDbCircle
 10
2660.306031449467
 20
1905.35750979
 30
0.0
 40
1.0
100
AcDbArc
 50
108.55300454
 51
180.0
  0
LINE
  5
17398
330
747D
100
AcDbEntity
  8
細線
 48
50.0
100
AcDbLine
 10
2656.306561329467
 20
1915.99972446
 30
0.0
 11
2653.806561329467
 21
1915.99972446
 31
0.0
  0
ARC
  5
17399
330
747D
100
AcDbEntity
  8
細線
 48
50.0
100
AcDbCircle
 10
2658.606167819467
 20
1894.36240789
 30
0.0
 40
1.0
100
AcDbArc
 50
92.01427645
 51
180.0
  0
LINE
  5
1739A
330
747D
100
AcDbEntity
  8
細線
 48
50.0
100
AcDbLine
 10
2657.606167819467
 20
1893.55
 30
0.0
 11
2657.606167819467
 21
1894.36240789
 31
0.0
  0
ARC
  5
1739B
330
747D
100
AcDbEntity
  8
細線
 48
50.0
100
AcDbCircle
 10
2656.556167819467
 20
1898.0
 30
0.0
 40
1.0
100
AcDbArc
 50
0.0
 51
90.0
  0
LINE
  5
1739C
330
747D
100
AcDbEntity
  8
細線
 48
50.0
100
AcDbLine
 10
2657.556167819467
 20
1898.0
 30
0.0
 11
2657.556167819467
 21
1893.7
 31
0.0
  0
LINE
  5
1739D
330
747D
100
AcDbEntity
  8
細線
 48
50.0
100
AcDbLine
 10
2657.606167819467
 20
1893.55
 30
0.0
 11
2662.606167819467
 21
1893.55
 31
0.0
  0
LINE
  5
1739E
330
747D
100
AcDbEntity
  8
細線
 48
50.0
100
AcDbLine
 10
2652.506167819467
 20
1893.55
 30
0.0
 11
2652.506167819467
 21
1894.36240789
 31
0.0
  0
LINE
  5
1739F
330
747D
100
AcDbEntity
  8
細線
 48
50.0
100
AcDbLine
 10
2652.556167819467
 20
1898.0
 30
0.0
 11
2652.556167819467
 21
1893.7
 31
0.0
  0
LINE
  5
173A0
330
747D
100
AcDbEntity
  8
細線
 48
50.0
100
AcDbLine
 10
2653.556167819467
 20
1899.0
 30
0.0
 11
2656.556167819467
 21
1899.0
 31
0.0
  0
ARC
  5
173A1
330
747D
100
AcDbEntity
  8
細線
 48
50.0
100
AcDbCircle
 10
2654.825596719466
 20
1920.99986223
 30
0.0
 40
4.86447736
100
AcDbArc
 50
287.72427684
 51
72.27572315999998
  0
LINE
  5
173A2
330
747D
100
AcDbEntity
  8
細線
 48
50.0
100
AcDbLine
 10
2653.806561329467
 20
1915.99972446
 30
0.0
 11
2653.806561329467
 21
1925.99972446
 31
0.0
  0
LINE
  5
173A3
330
747D
100
AcDbEntity
  8
細線
 48
50.0
100
AcDbLine
 10
2656.306561329467
 20
1915.99972446
 30
0.0
 11
2656.306561329467
 21
1925.99972446
 31
0.0
  0
ARC
  5
173A4
330
747D
100
AcDbEntity
  8
細線
 48
50.0
100
AcDbCircle
 10
2655.056031449467
 20
1921.0
 30
0.0
 40
15.5
100
AcDbArc
 50
288.55300454
 51
341.44699546
  0
ARC
  5
173A5
330
747D
100
AcDbEntity
  8
細線
 48
50.0
100
AcDbCircle
 10
2655.056031449467
 20
1921.0
 30
0.0
 40
15.5
100
AcDbArc
 50
18.55300454
 51
71.44699546
  0
ARC
  5
173A6
330
747D
100
AcDbEntity
  8
細線
 48
50.0
100
AcDbCircle
 10
2655.056167819467
 20
1995.3
 30
0.0
 40
100.0
100
AcDbArc
 50
272.01427645
 51
277.49584547
  0
ARC
  5
173A7
330
747D
100
AcDbEntity
  8
細線
 48
50.0
100
AcDbCircle
 10
2655.056167819467
 20
1846.7
 30
0.0
 40
100.0
100
AcDbArc
 50
82.50415453
 51
87.98572355000001
  0
ARC
  5
173A8
330
747D
100
AcDbEntity
  8
部品1
100
AcDbCircle
 10
2655.056167819467
 20
1959.49955336
 30
0.0
 40
97.0
100
AcDbArc
 50
276.39156482
 51
279.35251214
  0
ARC
  5
173A9
330
747D
100
AcDbEntity
  8
部品1
100
AcDbCircle
 10
2670.331940119467
 20
1866.74907745
 30
0.0
 40
3.0
100
AcDbArc
 50
279.35251214
 51
352.14583065
  0
ARC
  5
173AA
330
747D
100
AcDbEntity
  8
細線
 48
50.0
100
AcDbCircle
 10
2280.024643589467
 20
1919.98261806
 30
0.0
 40
390.0
100
AcDbArc
 50
351.6136975214182
 51
356.3418522549218
  0
ARC
  5
173AB
330
747D
100
AcDbEntity
  8
部品1
100
AcDbCircle
 10
2664.519828699467
 20
1860.95336574
 30
0.0
 40
1.0
100
AcDbArc
 50
275.48542473
 51
351.27186792
  0
ARC
  5
173AC
330
747D
100
AcDbEntity
  8
部品1
100
AcDbCircle
 10
2280.024643589467
 20
1919.98261806
 30
0.0
 40
390.0
100
AcDbArc
 50
351.27186792
 51
351.6136975214182
  0
ARC
  5
173AD
330
747D
100
AcDbEntity
  8
細線
 48
50.0
100
AcDbCircle
 10
2639.413541239467
 20
1926.25
 30
0.0
 40
1.0
100
AcDbArc
 50
270.0
 51
341.44699546
  0
ARC
  5
173AE
330
747D
100
AcDbEntity
  8
細線
 48
50.0
100
AcDbCircle
 10
2655.056031449467
 20
1921.0
 30
0.0
 40
15.5
100
AcDbArc
 50
108.55300454
 51
161.44699546
  0
ARC
  5
173AF
330
747D
100
AcDbEntity
  8
細線
 48
50.0
100
AcDbCircle
 10
2639.413541239467
 20
1915.75
 30
0.0
 40
1.0
100
AcDbArc
 50
18.55300454
 51
90.0
  0
ARC
  5
173B0
330
747D
100
AcDbEntity
  8
細線
 48
50.0
100
AcDbCircle
 10
2655.056031449467
 20
1921.0
 30
0.0
 40
15.5
100
AcDbArc
 50
198.55300454
 51
251.44699546
  0
LINE
  5
173B1
330
747D
100
AcDbEntity
  8
細線
 48
50.0
100
AcDbLine
 10
2637.351865279466
 20
1925.25
 30
0.0
 11
2639.413541239467
 21
1925.25
 31
0.0
  0
ARC
  5
173B2
330
747D
100
AcDbEntity
  8
細線
 48
50.0
100
AcDbCircle
 10
2637.351865279466
 20
1924.25
 30
0.0
 40
1.0
100
AcDbArc
 50
90.0
 51
169.59787899
  0
LINE
  5
173B3
330
747D
100
AcDbEntity
  8
細線
 48
50.0
100
AcDbLine
 10
2637.351865279466
 20
1916.75
 30
0.0
 11
2639.413541239467
 21
1916.75
 31
0.0
  0
ARC
  5
173B4
330
747D
100
AcDbEntity
  8
細線
 48
50.0
100
AcDbCircle
 10
2637.351865279466
 20
1917.75
 30
0.0
 40
1.0
100
AcDbArc
 50
190.4021210099999
 51
270.0
  0
ARC
  5
173B5
330
747D
100
AcDbEntity
  8
細線
 48
50.0
100
AcDbCircle
 10
2649.806031449467
 20
1936.642490209999
 30
0.0
 40
1.0
100
AcDbArc
 50
288.55300454
 51
0.0
  0
ARC
  5
173B6
330
747D
100
AcDbEntity
  8
細線
 48
50.0
100
AcDbCircle
 10
2651.806031449467
 20
1938.70416617
 30
0.0
 40
1.0
100
AcDbArc
 50
100.40212101
 51
180.0
  0
LINE
  5
173B7
330
747D
100
AcDbEntity
  8
細線
 48
50.0
100
AcDbLine
 10
2650.806031449466
 20
1938.70416617
 30
0.0
 11
2650.806031449466
 21
1936.642490209999
 31
0.0
  0
ARC
  5
173B8
330
747D
100
AcDbEntity
  8
細線
 48
50.0
100
AcDbCircle
 10
2641.880283319467
 20
1946.83688665
 30
0.0
 40
1.0
100
AcDbArc
 50
176.34185225
 51
277.49584547
  0
ARC
  5
173B9
330
747D
100
AcDbEntity
  8
細線
 48
50.0
100
AcDbCircle
 10
2655.056167819467
 20
1846.7
 30
0.0
 40
100.0
100
AcDbArc
 50
92.01427645
 51
97.49584547000001
  0
LINE
  5
173BA
330
747D
100
AcDbEntity
  8
細線
 48
50.0
100
AcDbLine
 10
2647.506167819467
 20
1954.55
 30
0.0
 11
2647.506167819467
 21
1948.45
 31
0.0
  0
ARC
  5
173BB
330
747D
100
AcDbEntity
  8
細線
 48
50.0
100
AcDbCircle
 10
2649.806031449467
 20
1905.35750979
 30
0.0
 40
1.0
100
AcDbArc
 50
0.0
 51
71.44699546
  0
ARC
  5
173BC
330
747D
100
AcDbEntity
  8
細線
 48
50.0
100
AcDbCircle
 10
2651.806031449467
 20
1903.29583382
 30
0.0
 40
1.0
100
AcDbArc
 50
180.0
 51
259.59787899
  0
LINE
  5
173BD
330
747D
100
AcDbEntity
  8
細線
 48
50.0
100
AcDbLine
 10
2650.806031449466
 20
1903.29583382
 30
0.0
 11
2650.806031449466
 21
1905.35750979
 31
0.0
  0
LINE
  5
173BE
330
747D
100
AcDbEntity
  8
細線
 48
50.0
100
AcDbLine
 10
2647.506167819467
 20
1887.45
 30
0.0
 11
2647.506167819467
 21
1893.55
 31
0.0
  0
ARC
  5
173BF
330
747D
100
AcDbEntity
  8
細線
 48
50.0
100
AcDbCircle
 10
2641.880283319467
 20
1895.16311335
 30
0.0
 40
1.0
100
AcDbArc
 50
82.50415453
 51
183.65814775
  0
ARC
  5
173C0
330
747D
100
AcDbEntity
  8
細線
 48
50.0
100
AcDbCircle
 10
2655.056167819467
 20
1995.3
 30
0.0
 40
100.0
100
AcDbArc
 50
262.50415453
 51
267.98572355
  0
ARC
  5
173C1
330
747D
100
AcDbEntity
  8
部品1
100
AcDbCircle
 10
2655.056167819467
 20
1959.49955336
 30
0.0
 40
97.0
100
AcDbArc
 50
260.64748439
 51
263.60843518
  0
ARC
  5
173C2
330
747D
100
AcDbEntity
  8
部品1
100
AcDbCircle
 10
2639.780389889467
 20
1866.749078379999
 30
0.0
 40
3.0
100
AcDbArc
 50
187.85416921
 51
260.64748439
  0
ARC
  5
173C3
330
747D
100
AcDbEntity
  8
細線
 48
50.0
100
AcDbCircle
 10
3030.087692049467
 20
1919.98261806
 30
0.0
 40
390.0
100
AcDbArc
 50
183.6581281377828
 51
188.3863024783845
  0
ARC
  5
173C4
330
747D
100
AcDbEntity
  8
部品1
100
AcDbCircle
 10
2645.592506939467
 20
1860.95336574
 30
0.0
 40
1.0
100
AcDbArc
 50
188.72813208
 51
264.51457527
  0
ARC
  5
173C5
330
747D
100
AcDbEntity
  8
部品1
100
AcDbCircle
 10
3030.087692049467
 20
1919.98261806
 30
0.0
 40
390.0
100
AcDbArc
 50
188.3863024783845
 51
188.72813208
  0
CIRCLE
  5
173C6
330
747D
100
AcDbEntity
  8
細線
 48
50.0
100
AcDbCircle
 10
2655.056167819467
 20
1921.0
 30
0.0
 40
19.0
  0
LINE
  5
173C7
330
747D
100
AcDbEntity
  8
細線
 48
50.0
100
AcDbLine
 10
2662.606167819467
 20
1954.55
 30
0.0
 11
2647.506167819467
 21
1954.55
 31
0.0
  0
ARC
  5
173C8
330
747D
100
AcDbEntity
  8
細線
 48
50.0
100
AcDbCircle
 10
2651.506167819467
 20
1947.6375921
 30
0.0
 40
1.0
100
AcDbArc
 50
272.01427645
 51
0.0
  0
LINE
  5
173C9
330
747D
100
AcDbEntity
  8
細線
 48
50.0
100
AcDbLine
 10
2652.506167819467
 20
1948.45
 30
0.0
 11
2647.506167819467
 21
1948.45
 31
0.0
  0
ARC
  5
173CA
330
747D
100
AcDbEntity
  8
細線
 48
50.0
100
AcDbCircle
 10
2652.056031449467
 20
1939.25513626
 30
0.0
 40
0.5
100
AcDbArc
 50
0.0
 51
99.33241818000002
  0
ARC
  5
173CB
330
747D
100
AcDbEntity
  8
細線
 48
50.0
100
AcDbCircle
 10
2653.556167819467
 20
1944.0
 30
0.0
 40
1.0
100
AcDbArc
 50
180.0
 51
270.0
  0
ARC
  5
173CC
330
747D
100
AcDbEntity
  8
細線
 48
50.0
100
AcDbCircle
 10
2655.056031449467
 20
1921.0
 30
0.0
 40
19.0
100
AcDbArc
 50
80.66758181999999
 51
99.08782902000002
  0
ARC
  5
173CD
330
747D
100
AcDbEntity
  8
細線
 48
50.0
100
AcDbCircle
 10
2651.506167819467
 20
1894.36240789
 30
0.0
 40
1.0
100
AcDbArc
 50
0.0
 51
87.98572355000001
  0
ARC
  5
173CE
330
747D
100
AcDbEntity
  8
細線
 48
50.0
100
AcDbCircle
 10
2653.556167819467
 20
1898.0
 30
0.0
 40
1.0
100
AcDbArc
 50
90.0
 51
180.0
  0
LINE
  5
173CF
330
747D
100
AcDbEntity
  8
細線
 48
50.0
100
AcDbLine
 10
2647.506167819467
 20
1893.55
 30
0.0
 11
2652.506167819467
 21
1893.55
 31
0.0
  0
LINE
  5
173D0
330
747D
100
AcDbEntity
  8
細線
 48
50.0
100
AcDbLine
 10
2647.506167819467
 20
1887.45
 30
0.0
 11
2662.606167819467
 21
1887.45
 31
0.0
  0
CIRCLE
  5
173D1
330
747D
100
AcDbEntity
  8
細線
 48
50.0
100
AcDbCircle
 10
2655.056167819467
 20
1921.0
 30
0.0
 40
10.75
  0
ARC
  5
173D2
330
747D
100
AcDbEntity
  8
部品1
100
AcDbCircle
 10
2655.056167819467
 20
1959.5
 30
0.0
 40
100.0
100
AcDbArc
 50
264.51457527
 51
275.48542473
  0
ARC
  5
173D3
330
747D
100
AcDbEntity
  8
部品1
100
AcDbCircle
 10
2655.056166589467
 20
1882.49955501
 30
0.0
 40
97.0
100
AcDbArc
 50
80.64740934000001
 51
83.608355
  0
ARC
  5
173D4
330
747D
100
AcDbEntity
  8
部品1
100
AcDbCircle
 10
2664.519828699467
 20
1981.04663425
 30
0.0
 40
1.0
100
AcDbArc
 50
8.728132079999999
 51
84.51457527
  0
ARC
  5
173D5
330
747D
100
AcDbEntity
  8
部品1
100
AcDbCircle
 10
2280.024643589467
 20
1922.01738193
 30
0.0
 40
390.0
100
AcDbArc
 50
8.386167828959825
 51
8.728132079999999
  0
ARC
  5
173D6
330
747D
100
AcDbEntity
  8
部品1
100
AcDbCircle
 10
2655.056166589467
 20
1882.49955501
 30
0.0
 40
97.0
100
AcDbArc
 50
96.39164352000001
 51
99.35259259
  0
ARC
  5
173D7
330
747D
100
AcDbEntity
  8
部品1
100
AcDbCircle
 10
2645.592506939467
 20
1981.04663425
 30
0.0
 40
1.0
100
AcDbArc
 50
95.48542473000001
 51
171.27186792
  0
ARC
  5
173D8
330
747D
100
AcDbEntity
  8
部品1
100
AcDbCircle
 10
3030.087692049467
 20
1922.01738193
 30
0.0
 40
390.0
100
AcDbArc
 50
171.27186792
 51
171.6138321297549
  0
ARC
  5
173D9
330
747D
100
AcDbEntity
  8
部品1
100
AcDbCircle
 10
2655.056167819467
 20
1882.5
 30
0.0
 40
100.0
100
AcDbArc
 50
84.51457527
 51
95.48542473000001
  0
ARC
  5
173DA
330
747D
100
AcDbEntity
  8
部品1
100
AcDbCircle
 10
2639.780264059467
 20
1975.25000947
 30
0.0
 40
3.0
100
AcDbArc
 50
99.35259259
 51
172.14596367
  0
ARC
  5
173DB
330
747D
100
AcDbEntity
  8
部品1
100
AcDbCircle
 10
2670.332066009466
 20
1975.25000998
 30
0.0
 40
3.0
100
AcDbArc
 50
7.8540364
 51
80.64740934000001
  0
ENDSEC
  0
SECTION
  2
OBJECTS
  0
DICTIONARY
  5
7471
330
0
100
AcDbDictionary
281
     1
  3
ACAD_COLOR
350
173E1
  3
ACAD_GROUP
350
7472
  3
ACAD_LAYOUT
350
173E2
  3
ACAD_MATERIAL
350
173E0
  3
ACAD_MLINESTYLE
350
7473
  3
ACAD_PLOTSETTINGS
350
173E3
  3
ACAD_PLOTSTYLENAME
350
173DE
  3
ACDBHEADERROUNDTRIPXREC
350
173F0
  3
AcDbVariableDictionary
350
173EC
  3
CONTENTDICTIONARY
350
E71C
  3
DRAWINGVARIABLESDICT
350
F3B9
  0
DICTIONARY
  5
173E1
102
{ACAD_REACTORS
330
7471
102
}
330
7471
100
AcDbDictionary
281
     1
  0
DICTIONARY
  5
7472
102
{ACAD_REACTORS
330
7471
102
}
330
7471
100
AcDbDictionary
281
     1
  0
DICTIONARY
  5
173E2
102
{ACAD_REACTORS
330
7471
102
}
330
7471
100
AcDbDictionary
281
     1
  3
Model
350
173E4
  3
レイアウト1
350
173E5
  0
DICTIONARY
  5
173E0
102
{ACAD_REACTORS
330
7471
102
}
330
7471
100
AcDbDictionary
281
     1
  0
DICTIONARY
  5
7473
102
{ACAD_REACTORS
330
7471
102
}
330
7471
100
AcDbDictionary
281
     1
  3
STANDARD
350
7480
  0
DICTIONARY
  5
173E3
102
{ACAD_REACTORS
330
7471
102
}
330
7471
100
AcDbDictionary
281
     1
  0
ACDBDICTIONARYWDFLT
  5
173DE
102
{ACAD_REACTORS
330
7471
102
}
330
7471
100
AcDbDictionary
281
     1
  3
Normal
350
173DF
100
AcDbDictionaryWithDefault
340
173DF
  0
DICTIONARY
  5
173F0
102
{ACAD_REACTORS
330
7471
102
}
330
7471
100
AcDbDictionary
281
     1
  3
COLORDICT
350
173F2
  3
MATERIALDICT
350
173F1
  0
DICTIONARY
  5
173EC
102
{ACAD_REACTORS
330
7471
102
}
330
7471
100
AcDbDictionary
281
     1
  3
DIMASSOC
350
173ED
  3
PROJECTNAME
350
173EE
  0
DICTIONARY
  5
E71C
102
{ACAD_REACTORS
330
7471
102
}
330
7471
100
AcDbDictionary
281
     1
  0
DICTIONARY
  5
F3B9
102
{ACAD_REACTORS
330
7471
102
}
330
7471
100
AcDbDictionary
281
     1
1001
DRAWINGVARIABLESXDATA
1000
POLARMODE
1000
1
  0
LAYOUT
  5
173E4
102
{ACAD_XDICTIONARY
360
173F3
102
}
102
{ACAD_REACTORS
330
173E2
102
}
330
173E2
100
AcDbPlotSettings
  1

  2
Microsoft Office Document Image Writer
  4

  6

 40
0.0
 41
0.0
 42
0.0
 43
0.0
 44
0.0
 45
0.0
 46
0.0
 47
0.0
 48
0.0
 49
0.0
140
0.0
141
0.0
142
1.0
143
1.0
 70
  1712
 72
     0
 73
     0
 74
     0
  7

 75
     0
147
1.0
148
0.0
149
0.0
100
AcDbLayout
  1
Model
 70
     1
 71
     0
 10
0.0
 20
0.0
 11
12.0
 21
9.0
 12
0.0
 22
0.0
 32
0.0
 14
0.0
 24
0.0
 34
0.0
 15
0.0
 25
0.0
 35
0.0
146
0.0
 13
0.0
 23
0.0
 33
0.0
 16
1.0
 26
0.0
 36
0.0
 17
0.0
 27
1.0
 37
0.0
 76
     0
330
747D
  0
LAYOUT
  5
173E5
102
{ACAD_XDICTIONARY
360
173F5
102
}
102
{ACAD_REACTORS
330
173E2
102
}
330
173E2
100
AcDbPlotSettings
  1

  2
Microsoft Office Document Image Writer
  4

  6

 40
0.0
 41
0.0
 42
0.0
 43
0.0
 44
0.0
 45
0.0
 46
0.0
 47
0.0
 48
0.0
 49
0.0
140
0.0
141
0.0
142
1.0
143
1.0
 70
   688
 72
     0
 73
     0
 74
     5
  7

 75
    16
147
1.0
148
0.0
149
0.0
100
AcDbLayout
  1
レイアウト1
 70
     0
 71
     1
 10
0.0
 20
0.0
 11
420.0
 21
297.0
 12
0.0
 22
0.0
 32
0.0
 14
1.000000000000000E+20
 24
1.000000000000000E+20
 34
1.000000000000000E+20
 15
-1.000000000000000E+20
 25
-1.000000000000000E+20
 35
-1.000000000000000E+20
146
0.0
 13
0.0
 23
0.0
 33
0.0
 16
1.0
 26
0.0
 36
0.0
 17
0.0
 27
1.0
 37
0.0
 76
     0
330
747A
  0
MLINESTYLE
  5
7480
102
{ACAD_REACTORS
330
7473
102
}
330
7473
100
AcDbMlineStyle
  2
STANDARD
 70
     0
  3

 62
     0
 51
90.0
 52
90.0
 71
     2
 49
0.5
 62
   256
  6
BYLAYER
 49
-0.5
 62
   256
  6
BYLAYER
  0
ACDBPLACEHOLDER
  5
173DF
102
{ACAD_REACTORS
330
173DE
102
}
330
173DE
  0
XRECORD
  5
173F2
102
{ACAD_REACTORS
330
173F0
102
}
330
173F0
100
AcDbXrecord
280
     1
340
173E1
  0
XRECORD
  5
173F1
102
{ACAD_REACTORS
330
173F0
102
}
330
173F0
100
AcDbXrecord
280
     1
340
173E0
  0
DICTIONARYVAR
  5
173ED
102
{ACAD_REACTORS
330
173EC
102
}
330
173EC
100
DictionaryVariables
280
     0
  1
1
  0
DICTIONARYVAR
  5
173EE
102
{ACAD_REACTORS
330
173EC
102
}
330
173EC
100
DictionaryVariables
280
     0
  1

  0
DICTIONARY
  5
173F3
330
173E4
100
AcDbDictionary
280
     1
281
     1
  3
ACAD_XREC_ROUNDTRIP
360
173F4
  0
DICTIONARY
  5
173F5
330
173E5
100
AcDbDictionary
280
     1
281
     1
  3
ACAD_XREC_ROUNDTRIP
360
173F6
  0
XRECORD
  5
173F4
102
{ACAD_REACTORS
330
173F3
102
}
330
173F3
100
AcDbXrecord
280
     1
102
SHADEPLOT
 70
     0
102
SHADEPLOTRESLEVEL
 70
     2
102
SHADEPLOTCUSTOMDPI
 70
   300
  0
XRECORD
  5
173F6
102
{ACAD_REACTORS
330
173F5
102
}
330
173F5
100
AcDbXrecord
280
     1
102
SHADEPLOT
 70
     0
102
SHADEPLOTRESLEVEL
 70
     2
102
SHADEPLOTCUSTOMDPI
 70
   300
  0
ENDSEC
  0
EOF
