  0
SECTION
  2
HEADER
  9
$ACADVER
  1
AC1015
  9
$ACADMAINTVER
 70
    20
  9
$DWGCODEPAGE
  3
ANSI_932
  9
$INSBASE
 10
0.0
 20
0.0
 30
0.0
  9
$EXTMIN
 10
69.8181344077675
 20
-0.0904947544331663
 30
-0.0000000000000153
  9
$EXTMAX
 10
8153.955097163509
 20
5704.963395536479
 30
0.0
  9
$LIMMIN
 10
0.0
 20
0.0
  9
$LIMMAX
 10
8200.0
 20
5940.0
  9
$ORTHOMODE
 70
     0
  9
$REGENMODE
 70
     1
  9
$FILLMODE
 70
     1
  9
$QTEXTMODE
 70
     0
  9
$MIRRTEXT
 70
     1
  9
$LTSCALE
 40
20.0
  9
$ATTMODE
 70
     1
  9
$TEXTSIZE
 40
120.0
  9
$TRACEWID
 40
1.0
  9
$TEXTSTYLE
  7
STYLE1
  9
$CLAYER
  8
部品1
  9
$CELTYPE
  6
BYLAYER
  9
$CECOLOR
 62
   256
  9
$CELTSCALE
 40
50.0
  9
$DISPSILH
 70
     0
  9
$DIMSCALE
 40
20.0
  9
$DIMASZ
 40
2.5
  9
$DIMEXO
 40
0.5
  9
$DIMDLI
 40
7.0
  9
$DIMRND
 40
0.0
  9
$DIMDLE
 40
0.0
  9
$DIMEXE
 40
1.5
  9
$DIMTP
 40
0.0
  9
$DIMTM
 40
0.0
  9
$DIMTXT
 40
3.0
  9
$DIMCEN
 40
0.0
  9
$DIMTSZ
 40
0.0
  9
$DIMTOL
 70
     0
  9
$DIMLIM
 70
     0
  9
$DIMTIH
 70
     0
  9
$DIMTOH
 70
     0
  9
$DIMSE1
 70
     0
  9
$DIMSE2
 70
     0
  9
$DIMTAD
 70
     3
  9
$DIMZIN
 70
     8
  9
$DIMBLK
  1

  9
$DIMASO
 70
     1
  9
$DIMSHO
 70
     1
  9
$DIMPOST
  1

  9
$DIMAPOST
  1

  9
$DIMALT
 70
     0
  9
$DIMALTD
 70
     2
  9
$DIMALTF
 40
0.0394
  9
$DIMLFAC
 40
1.0
  9
$DIMTOFL
 70
     1
  9
$DIMTVP
 40
0.0
  9
$DIMTIX
 70
     1
  9
$DIMSOXD
 70
     0
  9
$DIMSAH
 70
     1
  9
$DIMBLK1
  1
DOTSMALL
  9
$DIMBLK2
  1
DOTSMALL
  9
$DIMSTYLE
  2
INABA_S20G
  9
$DIMCLRD
 70
     0
  9
$DIMCLRE
 70
     0
  9
$DIMCLRT
 70
     7
  9
$DIMTFAC
 40
1.0
  9
$DIMGAP
 40
1.0
  9
$DIMJUST
 70
     0
  9
$DIMSD1
 70
     0
  9
$DIMSD2
 70
     0
  9
$DIMTOLJ
 70
     1
  9
$DIMTZIN
 70
     8
  9
$DIMALTZ
 70
     0
  9
$DIMALTTZ
 70
     0
  9
$DIMUPT
 70
     0
  9
$DIMDEC
 70
     1
  9
$DIMTDEC
 70
     2
  9
$DIMALTU
 70
     2
  9
$DIMALTTD
 70
     2
  9
$DIMTXSTY
  7
STYLE1
  9
$DIMAUNIT
 70
     0
  9
$DIMADEC
 70
     0
  9
$DIMALTRND
 40
0.0
  9
$DIMAZIN
 70
     0
  9
$DIMDSEP
 70
    46
  9
$DIMATFIT
 70
     3
  9
$DIMFRAC
 70
     0
  9
$DIMLDRBLK
  1

  9
$DIMLUNIT
 70
     2
  9
$DIMLWD
 70
    -2
  9
$DIMLWE
 70
    -2
  9
$DIMTMOVE
 70
     0
  9
$LUNITS
 70
     2
  9
$LUPREC
 70
     1
  9
$SKETCHINC
 40
1.0
  9
$FILLETRAD
 40
10.0
  9
$AUNITS
 70
     0
  9
$AUPREC
 70
     0
  9
$MENU
  1
acad
  9
$ELEVATION
 40
0.0
  9
$PELEVATION
 40
0.0
  9
$THICKNESS
 40
0.0
  9
$LIMCHECK
 70
     0
  9
$CHAMFERA
 40
0.0
  9
$CHAMFERB
 40
0.0
  9
$CHAMFERC
 40
0.0
  9
$CHAMFERD
 40
0.0
  9
$SKPOLY
 70
     0
  9
$TDCREATE
 40
2451557.399918519
  9
$TDUCREATE
 40
2451557.024918519
  9
$TDUPDATE
 40
2454572.683519745
  9
$TDUUPDATE
 40
2454572.308519745
  9
$TDINDWG
 40
1.0008569213
  9
$TDUSRTIMER
 40
1.0008569213
  9
$USRTIMER
 70
     1
  9
$ANGBASE
 50
0.0
  9
$ANGDIR
 70
     0
  9
$PDMODE
 70
     3
  9
$PDSIZE
 40
2.0
  9
$PLINEWID
 40
0.0
  9
$SPLFRAME
 70
     0
  9
$SPLINETYPE
 70
     6
  9
$SPLINESEGS
 70
     8
  9
$HANDSEED
  5
174F3
  9
$SURFTAB1
 70
     6
  9
$SURFTAB2
 70
     6
  9
$SURFTYPE
 70
     6
  9
$SURFU
 70
     6
  9
$SURFV
 70
     6
  9
$UCSBASE
  2

  9
$UCSNAME
  2

  9
$UCSORG
 10
0.0
 20
0.0
 30
0.0
  9
$UCSXDIR
 10
1.0
 20
0.0
 30
0.0
  9
$UCSYDIR
 10
0.0
 20
1.0
 30
0.0
  9
$UCSORTHOREF
  2

  9
$UCSORTHOVIEW
 70
     0
  9
$UCSORGTOP
 10
0.0
 20
0.0
 30
0.0
  9
$UCSORGBOTTOM
 10
0.0
 20
0.0
 30
0.0
  9
$UCSORGLEFT
 10
0.0
 20
0.0
 30
0.0
  9
$UCSORGRIGHT
 10
0.0
 20
0.0
 30
0.0
  9
$UCSORGFRONT
 10
0.0
 20
0.0
 30
0.0
  9
$UCSORGBACK
 10
0.0
 20
0.0
 30
0.0
  9
$PUCSBASE
  2

  9
$PUCSNAME
  2

  9
$PUCSORG
 10
0.0
 20
0.0
 30
0.0
  9
$PUCSXDIR
 10
1.0
 20
0.0
 30
0.0
  9
$PUCSYDIR
 10
0.0
 20
1.0
 30
0.0
  9
$PUCSORTHOREF
  2

  9
$PUCSORTHOVIEW
 70
     0
  9
$PUCSORGTOP
 10
0.0
 20
0.0
 30
0.0
  9
$PUCSORGBOTTOM
 10
0.0
 20
0.0
 30
0.0
  9
$PUCSORGLEFT
 10
0.0
 20
0.0
 30
0.0
  9
$PUCSORGRIGHT
 10
0.0
 20
0.0
 30
0.0
  9
$PUCSORGFRONT
 10
0.0
 20
0.0
 30
0.0
  9
$PUCSORGBACK
 10
0.0
 20
0.0
 30
0.0
  9
$USERI1
 70
     0
  9
$USERI2
 70
     0
  9
$USERI3
 70
     0
  9
$USERI4
 70
     0
  9
$USERI5
 70
     0
  9
$USERR1
 40
0.0
  9
$USERR2
 40
0.0
  9
$USERR3
 40
0.0
  9
$USERR4
 40
0.0
  9
$USERR5
 40
0.0
  9
$WORLDVIEW
 70
     1
  9
$SHADEDGE
 70
     3
  9
$SHADEDIF
 70
    70
  9
$TILEMODE
 70
     1
  9
$MAXACTVP
 70
    16
  9
$PINSBASE
 10
0.0
 20
0.0
 30
0.0
  9
$PLIMCHECK
 70
     0
  9
$PEXTMIN
 10
1.000000000000000E+20
 20
1.000000000000000E+20
 30
1.000000000000000E+20
  9
$PEXTMAX
 10
-1.000000000000000E+20
 20
-1.000000000000000E+20
 30
-1.000000000000000E+20
  9
$PLIMMIN
 10
0.0
 20
0.0
  9
$PLIMMAX
 10
420.0
 20
297.0
  9
$UNITMODE
 70
     0
  9
$VISRETAIN
 70
     0
  9
$PLINEGEN
 70
     0
  9
$PSLTSCALE
 70
     0
  9
$TREEDEPTH
 70
  3020
  9
$CMLSTYLE
  2
STANDARD
  9
$CMLJUST
 70
     0
  9
$CMLSCALE
 40
1.0
  9
$PROXYGRAPHICS
 70
     1
  9
$MEASUREMENT
 70
     1
  9
$CELWEIGHT
370
    -1
  9
$ENDCAPS
280
     0
  9
$JOINSTYLE
280
     0
  9
$LWDISPLAY
290
     0
  9
$INSUNITS
 70
     0
  9
$HYPERLINKBASE
  1

  9
$STYLESHEET
  1

  9
$XEDIT
290
     1
  9
$CEPSNTYPE
380
     0
  9
$PSTYLEMODE
290
     1
  9
$FINGERPRINTGUID
  2
{6A7CB4E1-5C88-4B6C-9304-E06678E0C116}
  9
$VERSIONGUID
  2
{E1A4D6AE-5124-4B81-A62F-BDA550245F5D}
  9
$EXTNAMES
290
     1
  9
$PSVPSCALE
 40
0.0
  9
$OLESTARTUP
290
     0
  0
ENDSEC
  0
SECTION
  2
CLASSES
  0
CLASS
  1
ACDBDICTIONARYWDFLT
  2
AcDbDictionaryWithDefault
  3
ObjectDBX Classes
 90
        0
280
     0
281
     0
  0
CLASS
  1
DICTIONARYVAR
  2
AcDbDictionaryVar
  3
ObjectDBX Classes
 90
        0
280
     0
281
     0
  0
CLASS
  1
ACDBPLACEHOLDER
  2
AcDbPlaceHolder
  3
ObjectDBX Classes
 90
        0
280
     0
281
     0
  0
CLASS
  1
LAYOUT
  2
AcDbLayout
  3
ObjectDBX Classes
 90
        0
280
     0
281
     0
  0
ENDSEC
  0
SECTION
  2
TABLES
  0
TABLE
  2
VPORT
  5
746D
330
0
100
AcDbSymbolTable
 70
     2
  0
VPORT
  5
174EB
330
746D
100
AcDbSymbolTableRecord
100
AcDbViewportTableRecord
  2
*Active
 70
     0
 10
0.0
 20
0.0
 11
1.0
 21
1.0
 12
4111.886615785637
 22
2852.436450391023
 13
0.0
 23
0.0
 14
10.0
 24
10.0
 15
10.0
 25
10.0
 16
0.0
 26
0.0
 36
1.0
 17
0.0
 27
0.0
 37
0.0
 40
5747.157609038445
 41
1.549261083743842
 42
50.0
 43
0.0
 44
0.0
 50
0.0
 51
0.0
 71
     0
 72
     0
 73
     1
 74
     0
 75
     0
 76
     0
 77
     0
 78
     0
281
     0
 65
     1
110
0.0
120
0.0
130
0.0
111
1.0
121
0.0
131
0.0
112
0.0
122
1.0
132
0.0
 79
     0
146
0.0
  0
ENDTAB
  0
TABLE
  2
LTYPE
  5
746A
330
0
100
AcDbSymbolTable
 70
     4
  0
LTYPE
  5
7477
330
746A
100
AcDbSymbolTableRecord
100
AcDbLinetypeTableRecord
  2
BYBLOCK
 70
     0
  3

 72
    65
 73
     0
 40
0.0
  0
LTYPE
  5
7478
330
746A
100
AcDbSymbolTableRecord
100
AcDbLinetypeTableRecord
  2
BYLAYER
 70
     0
  3

 72
    65
 73
     0
 40
0.0
  0
LTYPE
  5
7479
330
746A
100
AcDbSymbolTableRecord
100
AcDbLinetypeTableRecord
  2
CONTINUOUS
 70
     0
  3
Solid line
 72
    65
 73
     0
 40
0.0
  0
LTYPE
  5
7816
330
746A
100
AcDbSymbolTableRecord
100
AcDbLinetypeTableRecord
  2
CENTER
 70
     0
  3
____ _ ____ _ ____ _ ____ _ ____ _ ____ _ ____ 
 72
    65
 73
     4
 40
2.0
 49
1.25
 74
     0
 49
-0.25
 74
     0
 49
0.25
 74
     0
 49
-0.25
 74
     0
  0
LTYPE
  5
781A
330
746A
100
AcDbSymbolTableRecord
100
AcDbLinetypeTableRecord
  2
HIDDEN
 70
     0
  3
__ __ __ __ __ __ __ __ __ __ __ __ __ __ __ __
 72
    65
 73
     2
 40
0.375
 49
0.25
 74
     0
 49
-0.125
 74
     0
  0
LTYPE
  5
781B
330
746A
100
AcDbSymbolTableRecord
100
AcDbLinetypeTableRecord
  2
PHANTOM
 70
     0
  3
______  __  __  ______  __  __  ______  __  __ 
 72
    65
 73
     6
 40
2.5
 49
1.25
 74
     0
 49
-0.25
 74
     0
 49
0.25
 74
     0
 49
-0.25
 74
     0
 49
0.25
 74
     0
 49
-0.25
 74
     0
  0
ENDTAB
  0
TABLE
  2
LAYER
  5
7467
330
0
100
AcDbSymbolTable
 70
    12
  0
LAYER
  5
7474
330
7467
100
AcDbSymbolTableRecord
100
AcDbLayerTableRecord
  2
0
 70
     0
 62
     7
  6
CONTINUOUS
370
    -3
390
174DB
  0
LAYER
  5
DEB2
330
7467
100
AcDbSymbolTableRecord
100
AcDbLayerTableRecord
  2
センター
 70
     0
 62
     3
  6
CENTER
370
    -3
390
174DB
  0
LAYER
  5
DEB3
330
7467
100
AcDbSymbolTableRecord
100
AcDbLayerTableRecord
  2
寸法
 70
     0
 62
     4
  6
CONTINUOUS
370
    -3
390
174DB
  0
LAYER
  5
DEB4
330
7467
100
AcDbSymbolTableRecord
100
AcDbLayerTableRecord
  2
部品1
 70
     0
 62
     7
  6
CONTINUOUS
370
    -3
390
174DB
  0
LAYER
  5
DEB5
330
7467
100
AcDbSymbolTableRecord
100
AcDbLayerTableRecord
  2
補助
 70
     0
 62
    -1
  6
CONTINUOUS
370
    -3
390
174DB
  0
LAYER
  5
DEB6
330
7467
100
AcDbSymbolTableRecord
100
AcDbLayerTableRecord
  2
文字
 70
     0
 62
     7
  6
CONTINUOUS
370
    -3
390
174DB
  0
LAYER
  5
F255
330
7467
100
AcDbSymbolTableRecord
100
AcDbLayerTableRecord
  2
DEFPOINTS
 70
     0
 62
     7
  6
CONTINUOUS
290
     0
370
    -3
390
174DB
  0
LAYER
  5
10B54
330
7467
100
AcDbSymbolTableRecord
100
AcDbLayerTableRecord
  2
仕様書枠
 70
     0
 62
   230
  6
CONTINUOUS
370
    -3
390
174DB
  0
LAYER
  5
11729
330
7467
100
AcDbSymbolTableRecord
100
AcDbLayerTableRecord
  2
Ｇ．Ｌ
 70
     0
 62
    30
  6
CONTINUOUS
370
    -3
390
174DB
  0
LAYER
  5
1173F
330
7467
100
AcDbSymbolTableRecord
100
AcDbLayerTableRecord
  2
細線
 70
     0
 62
     5
  6
CONTINUOUS
370
    -3
390
174DB
  0
LAYER
  5
11740
330
7467
100
AcDbSymbolTableRecord
100
AcDbLayerTableRecord
  2
点線
 70
     0
 62
     2
  6
HIDDEN
370
    -3
390
174DB
  0
LAYER
  5
12229
330
7467
100
AcDbSymbolTableRecord
100
AcDbLayerTableRecord
  2
想像線
 70
     0
 62
     6
  6
PHANTOM
370
    -3
390
174DB
  0
ENDTAB
  0
TABLE
  2
STYLE
  5
7468
330
0
100
AcDbSymbolTable
 70
     3
  0
STYLE
  5
7475
330
7468
100
AcDbSymbolTableRecord
100
AcDbTextStyleTableRecord
  2
STANDARD
 70
     0
 40
0.0
 41
1.0
 50
0.0
 71
     0
 42
4.0
  3
txt
  4
C:\AutoCAD LT\bigfont.shx
  0
STYLE
  5
F706
330
7468
100
AcDbSymbolTableRecord
100
AcDbTextStyleTableRecord
  2
STYLE1
 70
     0
 40
0.0
 41
1.0
 50
0.0
 71
     0
 42
120.0
  3
isocp.shx
  4
bigfont.shx
  0
STYLE
  5
103BF
330
7468
100
AcDbSymbolTableRecord
100
AcDbTextStyleTableRecord
  2
STYLE2
 70
     0
 40
0.0
 41
1.0
 50
0.0
 71
     0
 42
100.0
  3
MS PGothic.ttf
  4

1001
ACAD
1000
MS PGothic
1071
    32818
  0
ENDTAB
  0
TABLE
  2
VIEW
  5
746B
330
0
100
AcDbSymbolTable
 70
     0
  0
ENDTAB
  0
TABLE
  2
UCS
  5
746C
330
0
100
AcDbSymbolTable
 70
     0
  0
ENDTAB
  0
TABLE
  2
APPID
  5
746E
330
0
100
AcDbSymbolTable
 70
     6
  0
APPID
  5
7476
330
746E
100
AcDbSymbolTableRecord
100
AcDbRegAppTableRecord
  2
ACAD
 70
     0
  0
APPID
  5
DEA9
330
746E
100
AcDbSymbolTableRecord
100
AcDbRegAppTableRecord
  2
CONTENTBLOCKICON
 70
     0
  0
APPID
  5
DEAA
330
746E
100
AcDbSymbolTableRecord
100
AcDbRegAppTableRecord
  2
CONTENTBLOCKDESCRIPTION
 70
     0
  0
APPID
  5
E71D
330
746E
100
AcDbSymbolTableRecord
100
AcDbRegAppTableRecord
  2
CONTENTTABDATA
 70
     0
  0
APPID
  5
E71E
330
746E
100
AcDbSymbolTableRecord
100
AcDbRegAppTableRecord
  2
CONTENTCURRENTTAB
 70
     0
  0
APPID
  5
F3BA
330
746E
100
AcDbSymbolTableRecord
100
AcDbRegAppTableRecord
  2
DRAWINGVARIABLESXDATA
 70
     0
  0
ENDTAB
  0
TABLE
  2
DIMSTYLE
  5
746F
330
0
100
AcDbSymbolTable
 70
     2
100
AcDbDimStyleTable
 71
     0
  0
DIMSTYLE
105
7484
330
746F
100
AcDbSymbolTableRecord
100
AcDbDimStyleTableRecord
  2
JIS
 70
     0
 41
2.5
 42
1.0
 43
7.0
 44
1.0
 73
     0
 74
     0
 77
     1
 78
     8
140
2.5
141
0.0
143
0.0394
147
0.0
172
     1
174
     1
175
     1
340
7475
  0
DIMSTYLE
105
F71F
102
{ACAD_REACTORS
330
1601A
330
16019
330
16018
330
16017
330
16DB8
330
16DB9
330
16DBA
330
16DBB
330
16DBC
330
16DBD
330
16DBE
330
16DBF
330
16DC0
330
16DC1
330
16DC5
330
16DC6
330
16DC7
330
16DDE
330
16E03
330
171C2
330
171C3
330
171C4
330
171C6
330
171D3
330
171D4
330
17207
330
173C4
102
}
330
746F
100
AcDbSymbolTableRecord
100
AcDbDimStyleTableRecord
  2
INABA_S20G
 70
     0
 40
20.0
 41
2.5
 42
0.5
 43
7.0
 44
1.5
 73
     0
 74
     0
 77
     3
 78
     8
140
3.0
141
0.0
143
0.0394
147
1.0
172
     1
173
     1
174
     1
178
     7
271
     1
272
     2
284
     8
340
F706
341
F770
343
F770
344
F770
  0
ENDTAB
  0
TABLE
  2
BLOCK_RECORD
  5
7466
330
0
100
AcDbSymbolTable
 70
    28
  0
BLOCK_RECORD
  5
747D
330
7466
100
AcDbSymbolTableRecord
100
AcDbBlockTableRecord
  2
*MODEL_SPACE
340
174E0
  0
BLOCK_RECORD
  5
747A
330
7466
100
AcDbSymbolTableRecord
100
AcDbBlockTableRecord
  2
*PAPER_SPACE
340
174E1
  0
BLOCK_RECORD
  5
F770
330
7466
100
AcDbSymbolTableRecord
100
AcDbBlockTableRecord
  2
_DOTSMALL
340
0
102
{BLKREFS
331
17060
331
17061
331
17055
331
17056
331
1628B
331
1628C
331
162A6
331
162A7
331
16ED7
331
16ED8
331
16EE2
331
16EE3
331
16EEF
331
16EF0
331
16EFA
331
16EFB
331
16F05
331
16F06
331
16F12
331
16F13
331
16F1D
331
16F1E
331
16F27
331
16F28
331
16F32
331
16F33
331
16F3D
331
16F3E
331
16F48
331
16F49
331
16F53
331
16F54
331
16F62
331
16F63
331
16F6B
331
16F6C
331
16F78
331
16F79
331
172B7
331
172B8
331
172C2
331
172C3
331
17346
331
17347
331
1738A
331
1738B
331
17330
331
17331
331
172F9
331
172FA
331
1733B
331
1733C
331
173EB
331
173EC
102
}
  0
BLOCK_RECORD
  5
1626C
330
7466
100
AcDbSymbolTableRecord
100
AcDbBlockTableRecord
  2
*D1
340
0
  0
BLOCK_RECORD
  5
16278
330
7466
100
AcDbSymbolTableRecord
100
AcDbBlockTableRecord
  2
*D2
340
0
  0
BLOCK_RECORD
  5
16284
330
7466
100
AcDbSymbolTableRecord
100
AcDbBlockTableRecord
  2
*D3
340
0
  0
BLOCK_RECORD
  5
1629F
330
7466
100
AcDbSymbolTableRecord
100
AcDbBlockTableRecord
  2
*D4
340
0
  0
BLOCK_RECORD
  5
16E16
330
7466
100
AcDbSymbolTableRecord
100
AcDbBlockTableRecord
  2
*D5
340
0
  0
BLOCK_RECORD
  5
16E23
330
7466
100
AcDbSymbolTableRecord
100
AcDbBlockTableRecord
  2
*D6
340
0
  0
BLOCK_RECORD
  5
16E2F
330
7466
100
AcDbSymbolTableRecord
100
AcDbBlockTableRecord
  2
*D7
340
0
  0
BLOCK_RECORD
  5
16E3D
330
7466
100
AcDbSymbolTableRecord
100
AcDbBlockTableRecord
  2
*D8
340
0
  0
BLOCK_RECORD
  5
16E49
330
7466
100
AcDbSymbolTableRecord
100
AcDbBlockTableRecord
  2
*D9
340
0
  0
BLOCK_RECORD
  5
16E55
330
7466
100
AcDbSymbolTableRecord
100
AcDbBlockTableRecord
  2
*D10
340
0
  0
BLOCK_RECORD
  5
16E63
330
7466
100
AcDbSymbolTableRecord
100
AcDbBlockTableRecord
  2
*D11
340
0
  0
BLOCK_RECORD
  5
16E6F
330
7466
100
AcDbSymbolTableRecord
100
AcDbBlockTableRecord
  2
*D12
340
0
  0
BLOCK_RECORD
  5
16E7A
330
7466
100
AcDbSymbolTableRecord
100
AcDbBlockTableRecord
  2
*D13
340
0
  0
BLOCK_RECORD
  5
16E86
330
7466
100
AcDbSymbolTableRecord
100
AcDbBlockTableRecord
  2
*D14
340
0
  0
BLOCK_RECORD
  5
16E92
330
7466
100
AcDbSymbolTableRecord
100
AcDbBlockTableRecord
  2
*D15
340
0
  0
BLOCK_RECORD
  5
16E9E
330
7466
100
AcDbSymbolTableRecord
100
AcDbBlockTableRecord
  2
*D16
340
0
  0
BLOCK_RECORD
  5
16EAA
330
7466
100
AcDbSymbolTableRecord
100
AcDbBlockTableRecord
  2
*D17
340
0
  0
BLOCK_RECORD
  5
16EB9
330
7466
100
AcDbSymbolTableRecord
100
AcDbBlockTableRecord
  2
*D18
340
0
  0
BLOCK_RECORD
  5
16EC4
330
7466
100
AcDbSymbolTableRecord
100
AcDbBlockTableRecord
  2
*D19
340
0
  0
BLOCK_RECORD
  5
17253
330
7466
100
AcDbSymbolTableRecord
100
AcDbBlockTableRecord
  2
*D20
340
0
  0
BLOCK_RECORD
  5
1725F
330
7466
100
AcDbSymbolTableRecord
100
AcDbBlockTableRecord
  2
*D21
340
0
  0
BLOCK_RECORD
  5
1726B
330
7466
100
AcDbSymbolTableRecord
100
AcDbBlockTableRecord
  2
*D22
340
0
  0
BLOCK_RECORD
  5
17283
330
7466
100
AcDbSymbolTableRecord
100
AcDbBlockTableRecord
  2
*D23
340
0
  0
BLOCK_RECORD
  5
1728F
330
7466
100
AcDbSymbolTableRecord
100
AcDbBlockTableRecord
  2
*D24
340
0
  0
BLOCK_RECORD
  5
1729B
330
7466
100
AcDbSymbolTableRecord
100
AcDbBlockTableRecord
  2
*D25
340
0
  0
BLOCK_RECORD
  5
172A7
330
7466
100
AcDbSymbolTableRecord
100
AcDbBlockTableRecord
  2
*D26
340
0
  0
BLOCK_RECORD
  5
173B8
330
7466
100
AcDbSymbolTableRecord
100
AcDbBlockTableRecord
  2
*D27
340
0
  0
ENDTAB
  0
ENDSEC
  0
SECTION
  2
BLOCKS
  0
BLOCK
  5
7489
330
747D
100
AcDbEntity
  8
0
100
AcDbBlockBegin
  2
*MODEL_SPACE
 70
     0
 10
0.0
 20
0.0
 30
0.0
  3
*MODEL_SPACE
  1

  0
ENDBLK
  5
748A
330
747D
100
AcDbEntity
  8
0
100
AcDbBlockEnd
  0
BLOCK
  5
7487
330
747A
100
AcDbEntity
 67
     1
  8
0
100
AcDbBlockBegin
  2
*PAPER_SPACE
 70
     0
 10
0.0
 20
0.0
 30
0.0
  3
*PAPER_SPACE
  1

  0
ENDBLK
  5
7488
330
747A
100
AcDbEntity
 67
     1
  8
0
100
AcDbBlockEnd
  0
BLOCK
  5
F771
330
F770
100
AcDbEntity
  8
0
 48
50.0
100
AcDbBlockBegin
  2
_DOTSMALL
 70
     0
 10
0.0
 20
0.0
 30
0.0
  3
_DOTSMALL
  1

  0
LWPOLYLINE
  5
F772
330
F770
100
AcDbEntity
  8
0
  6
ByBlock
 62
     0
 48
50.0
100
AcDbPolyline
 90
        2
 70
     1
 43
0.5
 10
-0.0625
 20
0.0
 42
1.0
 10
0.0625
 20
0.0
 42
1.0
  0
ENDBLK
  5
F776
330
F770
100
AcDbEntity
  8
0
 48
50.0
100
AcDbBlockEnd
  0
BLOCK
  5
1705C
330
1626C
100
AcDbEntity
  8
0
 48
50.0
100
AcDbBlockBegin
  2
*D1
 70
     1
 10
0.0
 20
0.0
 30
0.0
  3
*D1
  1

  0
LINE
  5
1705D
330
1626C
100
AcDbEntity
  8
0
  6
ByBlock
 62
     0
 48
50.0
100
AcDbLine
 10
2498.599999999995
 20
2823.560713214082
 30
0.0
 11
2498.599999999995
 21
3133.220335370565
 31
0.0
  0
LINE
  5
1705E
330
1626C
100
AcDbEntity
  8
0
  6
ByBlock
 62
     0
 48
50.0
100
AcDbLine
 10
3808.600000000002
 20
2823.560713214082
 30
0.0
 11
3808.600000000002
 21
3133.220335370565
 31
0.0
  0
LINE
  5
1705F
330
1626C
100
AcDbEntity
  8
0
  6
ByBlock
 62
     0
 48
50.0
100
AcDbLine
 10
2498.599999999995
 20
3103.220335370565
 30
0.0
 11
3808.600000000002
 21
3103.220335370565
 31
0.0
  0
INSERT
  5
17060
330
1626C
100
AcDbEntity
  8
0
  6
ByBlock
 62
     0
 48
50.0
100
AcDbBlockReference
  2
_DOTSMALL
 10
2498.599999999995
 20
3103.220335370565
 30
0.0
 41
50.0
 42
50.0
 43
50.0
 50
180.0
  0
INSERT
  5
17061
330
1626C
100
AcDbEntity
  8
0
  6
ByBlock
 62
     0
 48
50.0
100
AcDbBlockReference
  2
_DOTSMALL
 10
3808.600000000002
 20
3103.220335370565
 30
0.0
 41
50.0
 42
50.0
 43
50.0
  0
MTEXT
  5
17062
330
1626C
100
AcDbEntity
  8
0
  6
ByBlock
 62
     7
 48
50.0
100
AcDbMText
 10
3153.599999999999
 20
3153.220335370565
 30
0.0
 40
60.0
 41
0.0
 71
     5
 72
     1
  1
\A1;1310
  7
STYLE1
 73
     1
 44
1.0
1001
ACAD
1000
MTEXTBEGIN
1070
    73
1070
     1
1070
    44
1040
1.0
1070
    74
1070
     0
1000
MTEXTEND
  0
POINT
  5
17063
330
1626C
100
AcDbEntity
  8
DEFPOINTS
  6
ByBlock
 62
     0
 48
50.0
100
AcDbPoint
 10
2498.599999999995
 20
2813.560713214081
 30
0.0
  0
POINT
  5
17064
330
1626C
100
AcDbEntity
  8
DEFPOINTS
  6
ByBlock
 62
     0
 48
50.0
100
AcDbPoint
 10
3808.600000000002
 20
2813.560713214081
 30
0.0
  0
POINT
  5
17065
330
1626C
100
AcDbEntity
  8
DEFPOINTS
  6
ByBlock
 62
     0
 48
50.0
100
AcDbPoint
 10
3808.600000000002
 20
3103.220335370565
 30
0.0
  0
ENDBLK
  5
17066
330
1626C
100
AcDbEntity
  8
0
 48
50.0
100
AcDbBlockEnd
  0
BLOCK
  5
17051
330
16278
100
AcDbEntity
  8
0
 48
50.0
100
AcDbBlockBegin
  2
*D2
 70
     1
 10
0.0
 20
0.0
 30
0.0
  3
*D2
  1

  0
LINE
  5
17052
330
16278
100
AcDbEntity
  8
0
  6
ByBlock
 62
     0
 48
50.0
100
AcDbLine
 10
2503.599999999999
 20
2827.391201416256
 30
0.0
 11
2503.599999999999
 21
3005.024113945669
 31
0.0
  0
LINE
  5
17053
330
16278
100
AcDbEntity
  8
0
  6
ByBlock
 62
     0
 48
50.0
100
AcDbLine
 10
3803.599999999999
 20
2827.391201416256
 30
0.0
 11
3803.599999999999
 21
3005.024113945669
 31
0.0
  0
LINE
  5
17054
330
16278
100
AcDbEntity
  8
0
  6
ByBlock
 62
     0
 48
50.0
100
AcDbLine
 10
2503.599999999999
 20
2975.024113945668
 30
0.0
 11
3803.599999999999
 21
2975.024113945668
 31
0.0
  0
INSERT
  5
17055
330
16278
100
AcDbEntity
  8
0
  6
ByBlock
 62
     0
 48
50.0
100
AcDbBlockReference
  2
_DOTSMALL
 10
2503.599999999999
 20
2975.024113945668
 30
0.0
 41
50.0
 42
50.0
 43
50.0
 50
180.0
  0
INSERT
  5
17056
330
16278
100
AcDbEntity
  8
0
  6
ByBlock
 62
     0
 48
50.0
100
AcDbBlockReference
  2
_DOTSMALL
 10
3803.599999999999
 20
2975.024113945668
 30
0.0
 41
50.0
 42
50.0
 43
50.0
  0
MTEXT
  5
17057
330
16278
100
AcDbEntity
  8
0
  6
ByBlock
 62
     7
 48
50.0
100
AcDbMText
 10
3153.599999999999
 20
3025.024113945669
 30
0.0
 40
60.0
 41
0.0
 71
     5
 72
     1
  1
\A1;1300
  7
STYLE1
 73
     1
 44
1.0
1001
ACAD
1000
MTEXTBEGIN
1070
    73
1070
     1
1070
    44
1040
1.0
1070
    74
1070
     0
1000
MTEXTEND
  0
POINT
  5
17058
330
16278
100
AcDbEntity
  8
DEFPOINTS
  6
ByBlock
 62
     0
 48
50.0
100
AcDbPoint
 10
2503.599999999999
 20
2817.391201416256
 30
0.0
  0
POINT
  5
17059
330
16278
100
AcDbEntity
  8
DEFPOINTS
  6
ByBlock
 62
     0
 48
50.0
100
AcDbPoint
 10
3803.599999999999
 20
2817.391201416256
 30
0.0
  0
POINT
  5
1705A
330
16278
100
AcDbEntity
  8
DEFPOINTS
  6
ByBlock
 62
     0
 48
50.0
100
AcDbPoint
 10
3803.599999999999
 20
2975.024113945668
 30
0.0
  0
ENDBLK
  5
1705B
330
16278
100
AcDbEntity
  8
0
 48
50.0
100
AcDbBlockEnd
  0
BLOCK
  5
16285
330
16284
100
AcDbEntity
  8
0
 48
50.0
100
AcDbBlockBegin
  2
*D3
 70
     1
 10
0.0
 20
0.0
 30
0.0
  3
*D3
  1

  0
LINE
  5
16286
330
16284
100
AcDbEntity
  8
0
  6
ByBlock
 62
     0
 48
50.0
100
AcDbLine
 10
2098.599999999997
 20
2823.560713214081
 30
0.0
 11
2098.599999999997
 21
3005.024113945669
 31
0.0
  0
LINE
  5
16287
330
16284
100
AcDbEntity
  8
0
  6
ByBlock
 62
     0
 48
50.0
100
AcDbLine
 10
2103.6
 20
2827.391201416256
 30
0.0
 11
2103.6
 21
3005.024113945669
 31
0.0
  0
LINE
  5
16288
330
16284
100
AcDbEntity
  8
0
  6
ByBlock
 62
     0
 48
50.0
100
AcDbLine
 10
2103.6
 20
2975.024113945668
 30
0.0
 11
2153.6
 21
2975.024113945668
 31
0.0
  0
LINE
  5
16289
330
16284
100
AcDbEntity
  8
0
  6
ByBlock
 62
     0
 48
50.0
100
AcDbLine
 10
2098.599999999997
 20
2975.024113945668
 30
0.0
 11
1917.313392581187
 21
2975.024113945668
 31
0.0
  0
LINE
  5
1628A
330
16284
100
AcDbEntity
  8
0
  6
ByBlock
 62
     0
 48
50.0
100
AcDbLine
 10
2103.6
 20
2975.024113945668
 30
0.0
 11
2098.599999999997
 21
2975.024113945668
 31
0.0
  0
INSERT
  5
1628B
330
16284
100
AcDbEntity
  8
0
  6
ByBlock
 62
     0
 48
50.0
100
AcDbBlockReference
  2
_DOTSMALL
 10
2103.6
 20
2975.024113945668
 30
0.0
 41
50.0
 42
50.0
 43
50.0
 50
180.0
  0
INSERT
  5
1628C
330
16284
100
AcDbEntity
  8
0
  6
ByBlock
 62
     0
 48
50.0
100
AcDbBlockReference
  2
_DOTSMALL
 10
2098.599999999997
 20
2975.024113945668
 30
0.0
 41
50.0
 42
50.0
 43
50.0
  0
MTEXT
  5
1628D
330
16284
100
AcDbEntity
  8
0
  6
ByBlock
 62
     7
 48
50.0
100
AcDbMText
 10
1950.556033268307
 20
3025.024113945669
 30
0.0
 40
60.0
 41
0.0
 71
     5
 72
     1
  1
\A1;5
  7
STYLE1
 73
     1
 44
1.0
1001
ACAD
1000
MTEXTBEGIN
1070
    73
1070
     1
1070
    44
1040
1.0
1070
    74
1070
     0
1000
MTEXTEND
  0
POINT
  5
1628E
330
16284
100
AcDbEntity
  8
DEFPOINTS
  6
ByBlock
 62
     0
 48
50.0
100
AcDbPoint
 10
2098.599999999997
 20
2813.560713214081
 30
0.0
  0
POINT
  5
1628F
330
16284
100
AcDbEntity
  8
DEFPOINTS
  6
ByBlock
 62
     0
 48
50.0
100
AcDbPoint
 10
2103.6
 20
2817.391201416256
 30
0.0
  0
POINT
  5
16290
330
16284
100
AcDbEntity
  8
DEFPOINTS
  6
ByBlock
 62
     0
 48
50.0
100
AcDbPoint
 10
2103.6
 20
2975.024113945668
 30
0.0
  0
ENDBLK
  5
16291
330
16284
100
AcDbEntity
  8
0
 48
50.0
100
AcDbBlockEnd
  0
BLOCK
  5
162A0
330
1629F
100
AcDbEntity
  8
0
 48
50.0
100
AcDbBlockBegin
  2
*D4
 70
     1
 10
0.0
 20
0.0
 30
0.0
  3
*D4
  1

  0
LINE
  5
162A1
330
1629F
100
AcDbEntity
  8
0
  6
ByBlock
 62
     0
 48
50.0
100
AcDbLine
 10
4203.6
 20
2827.391201416256
 30
0.0
 11
4203.6
 21
3005.024113945669
 31
0.0
  0
LINE
  5
162A2
330
1629F
100
AcDbEntity
  8
0
  6
ByBlock
 62
     0
 48
50.0
100
AcDbLine
 10
4208.600000000004
 20
2823.560713214081
 30
0.0
 11
4208.600000000004
 21
3005.024113945669
 31
0.0
  0
LINE
  5
162A3
330
1629F
100
AcDbEntity
  8
0
  6
ByBlock
 62
     0
 48
50.0
100
AcDbLine
 10
4203.6
 20
2975.024113945668
 30
0.0
 11
4153.599999999999
 21
2975.024113945668
 31
0.0
  0
LINE
  5
162A4
330
1629F
100
AcDbEntity
  8
0
  6
ByBlock
 62
     0
 48
50.0
100
AcDbLine
 10
4208.600000000004
 20
2975.024113945668
 30
0.0
 11
4375.085281374242
 21
2975.024113945668
 31
0.0
  0
LINE
  5
162A5
330
1629F
100
AcDbEntity
  8
0
  6
ByBlock
 62
     0
 48
50.0
100
AcDbLine
 10
4203.6
 20
2975.024113945668
 30
0.0
 11
4208.600000000004
 21
2975.024113945668
 31
0.0
  0
INSERT
  5
162A6
330
1629F
100
AcDbEntity
  8
0
  6
ByBlock
 62
     0
 48
50.0
100
AcDbBlockReference
  2
_DOTSMALL
 10
4203.6
 20
2975.024113945668
 30
0.0
 41
50.0
 42
50.0
 43
50.0
  0
INSERT
  5
162A7
330
1629F
100
AcDbEntity
  8
0
  6
ByBlock
 62
     0
 48
50.0
100
AcDbBlockReference
  2
_DOTSMALL
 10
4208.600000000004
 20
2975.024113945668
 30
0.0
 41
50.0
 42
50.0
 43
50.0
 50
180.0
  0
MTEXT
  5
162A8
330
1629F
100
AcDbEntity
  8
0
  6
ByBlock
 62
     7
 48
50.0
100
AcDbMText
 10
4341.842640687123
 20
3025.024113945669
 30
0.0
 40
60.0
 41
0.0
 71
     5
 72
     1
  1
\A1;5
  7
STYLE1
 73
     1
 44
1.0
1001
ACAD
1000
MTEXTBEGIN
1070
    73
1070
     1
1070
    44
1040
1.0
1070
    74
1070
     0
1000
MTEXTEND
  0
POINT
  5
162A9
330
1629F
100
AcDbEntity
  8
DEFPOINTS
  6
ByBlock
 62
     0
 48
50.0
100
AcDbPoint
 10
4203.6
 20
2817.391201416256
 30
0.0
  0
POINT
  5
162AA
330
1629F
100
AcDbEntity
  8
DEFPOINTS
  6
ByBlock
 62
     0
 48
50.0
100
AcDbPoint
 10
4208.600000000004
 20
2813.560713214081
 30
0.0
  0
POINT
  5
162AB
330
1629F
100
AcDbEntity
  8
DEFPOINTS
  6
ByBlock
 62
     0
 48
50.0
100
AcDbPoint
 10
4208.600000000004
 20
2975.024113945668
 30
0.0
  0
ENDBLK
  5
162AC
330
1629F
100
AcDbEntity
  8
0
 48
50.0
100
AcDbBlockEnd
  0
BLOCK
  5
16ED2
330
16E16
100
AcDbEntity
  8
0
 48
50.0
100
AcDbBlockBegin
  2
*D5
 70
     1
 10
0.0
 20
0.0
 30
0.0
  3
*D5
  1

  0
LINE
  5
16ED3
330
16E16
100
AcDbEntity
  8
0
  6
ByBlock
 62
     0
 48
50.0
100
AcDbLine
 10
9415.023099929832
 20
1412.265689830723
 30
0.0
 11
9415.023099929832
 21
1613.621864613811
 31
0.0
  0
LINE
  5
16ED4
330
16E16
100
AcDbEntity
  8
0
  6
ByBlock
 62
     0
 48
50.0
100
AcDbLine
 10
9455.023099929833
 20
1438.597750668143
 30
0.0
 11
9455.023099929833
 21
1613.621864613811
 31
0.0
  0
LINE
  5
16ED5
330
16E16
100
AcDbEntity
  8
0
  6
ByBlock
 62
     0
 48
50.0
100
AcDbLine
 10
9455.023099929833
 20
1583.621864613811
 30
0.0
 11
9415.023099929832
 21
1583.621864613811
 31
0.0
  0
LINE
  5
16ED6
330
16E16
100
AcDbEntity
  8
0
  6
ByBlock
 62
     0
 48
50.0
100
AcDbLine
 10
9415.023099929832
 20
1583.621864613811
 30
0.0
 11
9202.975855835346
 21
1583.621864613811
 31
0.0
  0
INSERT
  5
16ED7
330
16E16
100
AcDbEntity
  8
0
  6
ByBlock
 62
     0
 48
50.0
100
AcDbBlockReference
  2
_DOTSMALL
 10
9455.023099929833
 20
1583.621864613811
 30
0.0
 41
50.0
 42
50.0
 43
50.0
  0
INSERT
  5
16ED8
330
16E16
100
AcDbEntity
  8
0
  6
ByBlock
 62
     0
 48
50.0
100
AcDbBlockReference
  2
_DOTSMALL
 10
9415.023099929832
 20
1583.621864613811
 30
0.0
 41
50.0
 42
50.0
 43
50.0
 50
180.0
  0
MTEXT
  5
16ED9
330
16E16
100
AcDbEntity
  8
0
  6
ByBlock
 62
     7
 48
50.0
100
AcDbMText
 10
9258.999477882589
 20
1633.621864613811
 30
0.0
 40
60.0
 41
0.0
 71
     5
 72
     1
  1
\A1;40
  7
STYLE1
 73
     1
 44
1.0
1001
ACAD
1000
MTEXTBEGIN
1070
    73
1070
     1
1070
    44
1040
1.0
1070
    74
1070
     0
1000
MTEXTEND
  0
POINT
  5
16EDA
330
16E16
100
AcDbEntity
  8
DEFPOINTS
  6
ByBlock
 62
     0
 48
50.0
100
AcDbPoint
 10
9415.023099929832
 20
1402.265689830723
 30
0.0
  0
POINT
  5
16EDB
330
16E16
100
AcDbEntity
  8
DEFPOINTS
  6
ByBlock
 62
     0
 48
50.0
100
AcDbPoint
 10
9455.023099929833
 20
1428.597750668143
 30
0.0
  0
POINT
  5
16EDC
330
16E16
100
AcDbEntity
  8
DEFPOINTS
  6
ByBlock
 62
     0
 48
50.0
100
AcDbPoint
 10
9455.023099929833
 20
1583.621864613811
 30
0.0
  0
ENDBLK
  5
16EDD
330
16E16
100
AcDbEntity
  8
0
 48
50.0
100
AcDbBlockEnd
  0
BLOCK
  5
16EDE
330
16E23
100
AcDbEntity
  8
0
 48
50.0
100
AcDbBlockBegin
  2
*D6
 70
     1
 10
0.0
 20
0.0
 30
0.0
  3
*D6
  1

  0
LINE
  5
16EDF
330
16E23
100
AcDbEntity
  8
0
  6
ByBlock
 62
     0
 48
50.0
100
AcDbLine
 10
9455.023099929833
 20
1438.597750668143
 30
0.0
 11
9455.023099929833
 21
1613.621864613811
 31
0.0
  0
LINE
  5
16EE0
330
16E23
100
AcDbEntity
  8
0
  6
ByBlock
 62
     0
 48
50.0
100
AcDbLine
 10
10015.02309992983
 20
1418.823824518934
 30
0.0
 11
10015.02309992983
 21
1613.621864613811
 31
0.0
  0
LINE
  5
16EE1
330
16E23
100
AcDbEntity
  8
0
  6
ByBlock
 62
     0
 48
50.0
100
AcDbLine
 10
9455.023099929833
 20
1583.621864613811
 30
0.0
 11
10015.02309992983
 21
1583.621864613811
 31
0.0
  0
INSERT
  5
16EE2
330
16E23
100
AcDbEntity
  8
0
  6
ByBlock
 62
     0
 48
50.0
100
AcDbBlockReference
  2
_DOTSMALL
 10
9455.023099929833
 20
1583.621864613811
 30
0.0
 41
50.0
 42
50.0
 43
50.0
 50
180.0
  0
INSERT
  5
16EE3
330
16E23
100
AcDbEntity
  8
0
  6
ByBlock
 62
     0
 48
50.0
100
AcDbBlockReference
  2
_DOTSMALL
 10
10015.02309992983
 20
1583.621864613811
 30
0.0
 41
50.0
 42
50.0
 43
50.0
  0
MTEXT
  5
16EE4
330
16E23
100
AcDbEntity
  8
0
  6
ByBlock
 62
     7
 48
50.0
100
AcDbMText
 10
9735.023099929833
 20
1633.621864613811
 30
0.0
 40
60.0
 41
0.0
 71
     5
 72
     1
  1
\A1;560
  7
STYLE1
 73
     1
 44
1.0
1001
ACAD
1000
MTEXTBEGIN
1070
    73
1070
     1
1070
    44
1040
1.0
1070
    74
1070
     0
1000
MTEXTEND
  0
POINT
  5
16EE5
330
16E23
100
AcDbEntity
  8
DEFPOINTS
  6
ByBlock
 62
     0
 48
50.0
100
AcDbPoint
 10
9455.023099929833
 20
1428.597750668143
 30
0.0
  0
POINT
  5
16EE6
330
16E23
100
AcDbEntity
  8
DEFPOINTS
  6
ByBlock
 62
     0
 48
50.0
100
AcDbPoint
 10
10015.02309992983
 20
1408.823824518934
 30
0.0
  0
POINT
  5
16EE7
330
16E23
100
AcDbEntity
  8
DEFPOINTS
  6
ByBlock
 62
     0
 48
50.0
100
AcDbPoint
 10
10015.02309992983
 20
1583.621864613811
 30
0.0
  0
ENDBLK
  5
16EE8
330
16E23
100
AcDbEntity
  8
0
 48
50.0
100
AcDbBlockEnd
  0
BLOCK
  5
16EE9
330
16E2F
100
AcDbEntity
  8
0
 48
50.0
100
AcDbBlockBegin
  2
*D7
 70
     1
 10
0.0
 20
0.0
 30
0.0
  3
*D7
  1

  0
LINE
  5
16EEA
330
16E2F
100
AcDbEntity
  8
0
  6
ByBlock
 62
     0
 48
50.0
100
AcDbLine
 10
10015.02309992983
 20
1418.823824518934
 30
0.0
 11
10015.02309992983
 21
1613.621864613811
 31
0.0
  0
LINE
  5
16EEB
330
16E2F
100
AcDbEntity
  8
0
  6
ByBlock
 62
     0
 48
50.0
100
AcDbLine
 10
10025.02309992983
 20
1418.597750668143
 30
0.0
 11
10025.02309992983
 21
1613.621864613811
 31
0.0
  0
LINE
  5
16EEC
330
16E2F
100
AcDbEntity
  8
0
  6
ByBlock
 62
     0
 48
50.0
100
AcDbLine
 10
10015.02309992983
 20
1583.621864613811
 30
0.0
 11
9965.023099929833
 21
1583.621864613811
 31
0.0
  0
LINE
  5
16EED
330
16E2F
100
AcDbEntity
  8
0
  6
ByBlock
 62
     0
 48
50.0
100
AcDbLine
 10
10025.02309992983
 20
1583.621864613811
 30
0.0
 11
10219.07034402432
 21
1583.621864613811
 31
0.0
  0
LINE
  5
16EEE
330
16E2F
100
AcDbEntity
  8
0
  6
ByBlock
 62
     0
 48
50.0
100
AcDbLine
 10
10015.02309992983
 20
1583.621864613811
 30
0.0
 11
10025.02309992983
 21
1583.621864613811
 31
0.0
  0
INSERT
  5
16EEF
330
16E2F
100
AcDbEntity
  8
0
  6
ByBlock
 62
     0
 48
50.0
100
AcDbBlockReference
  2
_DOTSMALL
 10
10015.02309992983
 20
1583.621864613811
 30
0.0
 41
50.0
 42
50.0
 43
50.0
  0
INSERT
  5
16EF0
330
16E2F
100
AcDbEntity
  8
0
  6
ByBlock
 62
     0
 48
50.0
100
AcDbBlockReference
  2
_DOTSMALL
 10
10025.02309992983
 20
1583.621864613811
 30
0.0
 41
50.0
 42
50.0
 43
50.0
 50
180.0
  0
MTEXT
  5
16EF1
330
16E2F
100
AcDbEntity
  8
0
  6
ByBlock
 62
     7
 48
50.0
100
AcDbMText
 10
10172.04672197707
 20
1633.621864613811
 30
0.0
 40
60.0
 41
0.0
 71
     5
 72
     1
  1
\A1;10
  7
STYLE1
 73
     1
 44
1.0
1001
ACAD
1000
MTEXTBEGIN
1070
    73
1070
     1
1070
    44
1040
1.0
1070
    74
1070
     0
1000
MTEXTEND
  0
POINT
  5
16EF2
330
16E2F
100
AcDbEntity
  8
DEFPOINTS
  6
ByBlock
 62
     0
 48
50.0
100
AcDbPoint
 10
10015.02309992983
 20
1408.823824518934
 30
0.0
  0
POINT
  5
16EF3
330
16E2F
100
AcDbEntity
  8
DEFPOINTS
  6
ByBlock
 62
     0
 48
50.0
100
AcDbPoint
 10
10025.02309992983
 20
1408.597750668143
 30
0.0
  0
POINT
  5
16EF4
330
16E2F
100
AcDbEntity
  8
DEFPOINTS
  6
ByBlock
 62
     0
 48
50.0
100
AcDbPoint
 10
10025.02309992983
 20
1583.621864613811
 30
0.0
  0
ENDBLK
  5
16EF5
330
16E2F
100
AcDbEntity
  8
0
 48
50.0
100
AcDbBlockEnd
  0
BLOCK
  5
16EF6
330
16E3D
100
AcDbEntity
  8
0
 48
50.0
100
AcDbBlockBegin
  2
*D8
 70
     1
 10
0.0
 20
0.0
 30
0.0
  3
*D8
  1

  0
LINE
  5
16EF7
330
16E3D
100
AcDbEntity
  8
0
  6
ByBlock
 62
     0
 48
50.0
100
AcDbLine
 10
9415.023099929832
 20
1412.265689830723
 30
0.0
 11
9415.023099929832
 21
1741.818086038707
 31
0.0
  0
LINE
  5
16EF8
330
16E3D
100
AcDbEntity
  8
0
  6
ByBlock
 62
     0
 48
50.0
100
AcDbLine
 10
10025.02309992983
 20
1418.597750668143
 30
0.0
 11
10025.02309992983
 21
1741.818086038707
 31
0.0
  0
LINE
  5
16EF9
330
16E3D
100
AcDbEntity
  8
0
  6
ByBlock
 62
     0
 48
50.0
100
AcDbLine
 10
9415.023099929832
 20
1711.818086038707
 30
0.0
 11
10025.02309992983
 21
1711.818086038707
 31
0.0
  0
INSERT
  5
16EFA
330
16E3D
100
AcDbEntity
  8
0
  6
ByBlock
 62
     0
 48
50.0
100
AcDbBlockReference
  2
_DOTSMALL
 10
9415.023099929832
 20
1711.818086038707
 30
0.0
 41
50.0
 42
50.0
 43
50.0
 50
180.0
  0
INSERT
  5
16EFB
330
16E3D
100
AcDbEntity
  8
0
  6
ByBlock
 62
     0
 48
50.0
100
AcDbBlockReference
  2
_DOTSMALL
 10
10025.02309992983
 20
1711.818086038707
 30
0.0
 41
50.0
 42
50.0
 43
50.0
  0
MTEXT
  5
16EFC
330
16E3D
100
AcDbEntity
  8
0
  6
ByBlock
 62
     7
 48
50.0
100
AcDbMText
 10
9720.023099929832
 20
1761.818086038707
 30
0.0
 40
60.0
 41
0.0
 71
     5
 72
     1
  1
\A1;610
  7
STYLE1
 73
     1
 44
1.0
1001
ACAD
1000
MTEXTBEGIN
1070
    73
1070
     1
1070
    44
1040
1.0
1070
    74
1070
     0
1000
MTEXTEND
  0
POINT
  5
16EFD
330
16E3D
100
AcDbEntity
  8
DEFPOINTS
  6
ByBlock
 62
     0
 48
50.0
100
AcDbPoint
 10
9415.023099929832
 20
1402.265689830723
 30
0.0
  0
POINT
  5
16EFE
330
16E3D
100
AcDbEntity
  8
DEFPOINTS
  6
ByBlock
 62
     0
 48
50.0
100
AcDbPoint
 10
10025.02309992983
 20
1408.597750668143
 30
0.0
  0
POINT
  5
16EFF
330
16E3D
100
AcDbEntity
  8
DEFPOINTS
  6
ByBlock
 62
     0
 48
50.0
100
AcDbPoint
 10
10025.02309992983
 20
1711.818086038707
 30
0.0
  0
ENDBLK
  5
16F00
330
16E3D
100
AcDbEntity
  8
0
 48
50.0
100
AcDbBlockEnd
  0
BLOCK
  5
16F01
330
16E49
100
AcDbEntity
  8
0
 48
50.0
100
AcDbBlockBegin
  2
*D9
 70
     1
 10
0.0
 20
0.0
 30
0.0
  3
*D9
  1

  0
LINE
  5
16F02
330
16E49
100
AcDbEntity
  8
0
  6
ByBlock
 62
     0
 48
50.0
100
AcDbLine
 10
10035.02309992983
 20
1333.597750668143
 30
0.0
 11
10549.48118964393
 21
1333.597750668143
 31
0.0
  0
LINE
  5
16F03
330
16E49
100
AcDbEntity
  8
0
  6
ByBlock
 62
     0
 48
50.0
100
AcDbLine
 10
10019.02309992983
 20
-491.402249331857
 30
0.0
 11
10549.48118964393
 21
-491.4022493318571
 31
0.0
  0
LINE
  5
16F04
330
16E49
100
AcDbEntity
  8
0
  6
ByBlock
 62
     0
 48
50.0
100
AcDbLine
 10
10519.48118964393
 20
1333.597750668143
 30
0.0
 11
10519.48118964393
 21
-491.4022493318571
 31
0.0
  0
INSERT
  5
16F05
330
16E49
100
AcDbEntity
  8
0
  6
ByBlock
 62
     0
 48
50.0
100
AcDbBlockReference
  2
_DOTSMALL
 10
10519.48118964393
 20
1333.597750668143
 30
0.0
 41
50.0
 42
50.0
 43
50.0
 50
90.0
  0
INSERT
  5
16F06
330
16E49
100
AcDbEntity
  8
0
  6
ByBlock
 62
     0
 48
50.0
100
AcDbBlockReference
  2
_DOTSMALL
 10
10519.48118964393
 20
-491.4022493318571
 30
0.0
 41
50.0
 42
50.0
 43
50.0
 50
270.0
  0
MTEXT
  5
16F07
330
16E49
100
AcDbEntity
  8
0
  6
ByBlock
 62
     7
 48
50.0
100
AcDbMText
 10
10469.47528413212
 20
421.0977506681429
 30
0.0
 40
60.0
 41
0.0
 71
     5
 72
     1
  1
\A1;1825
  7
STYLE1
 11
0.0000000000000001
 21
1.0
 31
0.0
 73
     1
 44
1.0
1001
ACAD
1000
MTEXTBEGIN
1070
    73
1070
     1
1070
    44
1040
1.0
1070
    74
1070
     0
1000
MTEXTEND
  0
POINT
  5
16F08
330
16E49
100
AcDbEntity
  8
DEFPOINTS
  6
ByBlock
 62
     0
 48
50.0
100
AcDbPoint
 10
10025.02309992983
 20
1333.597750668143
 30
0.0
  0
POINT
  5
16F09
330
16E49
100
AcDbEntity
  8
DEFPOINTS
  6
ByBlock
 62
     0
 48
50.0
100
AcDbPoint
 10
10009.02309992983
 20
-491.402249331857
 30
0.0
  0
POINT
  5
16F0A
330
16E49
100
AcDbEntity
  8
DEFPOINTS
  6
ByBlock
 62
     0
 48
50.0
100
AcDbPoint
 10
10519.48118964393
 20
-491.4022493318571
 30
0.0
  0
ENDBLK
  5
16F0B
330
16E49
100
AcDbEntity
  8
0
 48
50.0
100
AcDbBlockEnd
  0
BLOCK
  5
16F0C
330
16E55
100
AcDbEntity
  8
0
 48
50.0
100
AcDbBlockBegin
  2
*D10
 70
     1
 10
0.0
 20
0.0
 30
0.0
  3
*D10
  1

  0
LINE
  5
16F0D
330
16E55
100
AcDbEntity
  8
0
  6
ByBlock
 62
     0
 48
50.0
100
AcDbLine
 10
10035.02309992983
 20
1408.597750668143
 30
0.0
 11
10549.48118964393
 21
1408.597750668143
 31
0.0
  0
LINE
  5
16F0E
330
16E55
100
AcDbEntity
  8
0
  6
ByBlock
 62
     0
 48
50.0
100
AcDbLine
 10
10035.02309992983
 20
1333.597750668143
 30
0.0
 11
10549.48118964393
 21
1333.597750668143
 31
0.0
  0
LINE
  5
16F0F
330
16E55
100
AcDbEntity
  8
0
  6
ByBlock
 62
     0
 48
50.0
100
AcDbLine
 10
10519.48118964393
 20
1408.597750668143
 30
0.0
 11
10519.48118964393
 21
1458.597750668143
 31
0.0
  0
LINE
  5
16F10
330
16E55
100
AcDbEntity
  8
0
  6
ByBlock
 62
     0
 48
50.0
100
AcDbLine
 10
10519.48118964393
 20
1333.597750668143
 30
0.0
 11
10519.48118964393
 21
1283.597750668143
 31
0.0
  0
LINE
  5
16F11
330
16E55
100
AcDbEntity
  8
0
  6
ByBlock
 62
     0
 48
50.0
100
AcDbLine
 10
10519.48118964393
 20
1408.597750668143
 30
0.0
 11
10519.48118964393
 21
1333.597750668143
 31
0.0
  0
INSERT
  5
16F12
330
16E55
100
AcDbEntity
  8
0
  6
ByBlock
 62
     0
 48
50.0
100
AcDbBlockReference
  2
_DOTSMALL
 10
10519.48118964393
 20
1408.597750668143
 30
0.0
 41
50.0
 42
50.0
 43
50.0
 50
270.0
  0
INSERT
  5
16F13
330
16E55
100
AcDbEntity
  8
0
  6
ByBlock
 62
     0
 48
50.0
100
AcDbBlockReference
  2
_DOTSMALL
 10
10519.48118964393
 20
1333.597750668143
 30
0.0
 41
50.0
 42
50.0
 43
50.0
 50
90.0
  0
MTEXT
  5
16F14
330
16E55
100
AcDbEntity
  8
0
  6
ByBlock
 62
     7
 48
50.0
100
AcDbMText
 10
10469.48118964393
 20
1371.097750668143
 30
0.0
 40
60.0
 41
0.0
 71
     5
 72
     1
  1
\A1;75
  7
STYLE1
 11
0.0000000000000001
 21
1.0
 31
0.0
 73
     1
 44
1.0
1001
ACAD
1000
MTEXTBEGIN
1070
    73
1070
     1
1070
    44
1040
1.0
1070
    74
1070
     0
1000
MTEXTEND
  0
POINT
  5
16F15
330
16E55
100
AcDbEntity
  8
DEFPOINTS
  6
ByBlock
 62
     0
 48
50.0
100
AcDbPoint
 10
10025.02309992983
 20
1408.597750668143
 30
0.0
  0
POINT
  5
16F16
330
16E55
100
AcDbEntity
  8
DEFPOINTS
  6
ByBlock
 62
     0
 48
50.0
100
AcDbPoint
 10
10025.02309992983
 20
1333.597750668143
 30
0.0
  0
POINT
  5
16F17
330
16E55
100
AcDbEntity
  8
DEFPOINTS
  6
ByBlock
 62
     0
 48
50.0
100
AcDbPoint
 10
10519.48118964393
 20
1333.597750668143
 30
0.0
  0
ENDBLK
  5
16F18
330
16E55
100
AcDbEntity
  8
0
 48
50.0
100
AcDbBlockEnd
  0
BLOCK
  5
16F19
330
16E63
100
AcDbEntity
  8
0
 48
50.0
100
AcDbBlockBegin
  2
*D11
 70
     1
 10
0.0
 20
0.0
 30
0.0
  3
*D11
  1

  0
LINE
  5
16F1A
330
16E63
100
AcDbEntity
  8
0
  6
ByBlock
 62
     0
 48
50.0
100
AcDbLine
 10
10019.02309992983
 20
-491.402249331857
 30
0.0
 11
10721.3364371
 21
-491.4022493318571
 31
0.0
  0
LINE
  5
16F1B
330
16E63
100
AcDbEntity
  8
0
  6
ByBlock
 62
     0
 48
50.0
100
AcDbLine
 10
10035.02309992983
 20
1408.597750668143
 30
0.0
 11
10721.3364371
 21
1408.597750668143
 31
0.0
  0
LINE
  5
16F1C
330
16E63
100
AcDbEntity
  8
0
  6
ByBlock
 62
     0
 48
50.0
100
AcDbLine
 10
10691.3364371
 20
-491.4022493318571
 30
0.0
 11
10691.3364371
 21
1408.597750668143
 31
0.0
  0
INSERT
  5
16F1D
330
16E63
100
AcDbEntity
  8
0
  6
ByBlock
 62
     0
 48
50.0
100
AcDbBlockReference
  2
_DOTSMALL
 10
10691.3364371
 20
-491.4022493318571
 30
0.0
 41
50.0
 42
50.0
 43
50.0
 50
270.0
  0
INSERT
  5
16F1E
330
16E63
100
AcDbEntity
  8
0
  6
ByBlock
 62
     0
 48
50.0
100
AcDbBlockReference
  2
_DOTSMALL
 10
10691.3364371
 20
1408.597750668143
 30
0.0
 41
50.0
 42
50.0
 43
50.0
 50
90.0
  0
MTEXT
  5
16F1F
330
16E63
100
AcDbEntity
  8
0
  6
ByBlock
 62
     7
 48
50.0
100
AcDbMText
 10
10641.3364371
 20
458.5977506681429
 30
0.0
 40
60.0
 41
0.0
 71
     5
 72
     1
  1
\A1;1900
  7
STYLE1
 11
0.0000000000000001
 21
1.0
 31
0.0
 73
     1
 44
1.0
1001
ACAD
1000
MTEXTBEGIN
1070
    73
1070
     1
1070
    44
1040
1.0
1070
    74
1070
     0
1000
MTEXTEND
  0
POINT
  5
16F20
330
16E63
100
AcDbEntity
  8
DEFPOINTS
  6
ByBlock
 62
     0
 48
50.0
100
AcDbPoint
 10
10009.02309992983
 20
-491.402249331857
 30
0.0
  0
POINT
  5
16F21
330
16E63
100
AcDbEntity
  8
DEFPOINTS
  6
ByBlock
 62
     0
 48
50.0
100
AcDbPoint
 10
10025.02309992983
 20
1408.597750668143
 30
0.0
  0
POINT
  5
16F22
330
16E63
100
AcDbEntity
  8
DEFPOINTS
  6
ByBlock
 62
     0
 48
50.0
100
AcDbPoint
 10
10691.3364371
 20
1408.597750668143
 30
0.0
  0
ENDBLK
  5
16F23
330
16E63
100
AcDbEntity
  8
0
 48
50.0
100
AcDbBlockEnd
  0
BLOCK
  5
16F24
330
16E6F
100
AcDbEntity
  8
0
 48
50.0
100
AcDbBlockBegin
  2
*D12
 70
     1
 10
0.0
 20
0.0
 30
0.0
  3
*D12
  1

  0
LINE
  5
16F25
330
16E6F
100
AcDbEntity
  8
0
  6
ByBlock
 62
     0
 48
50.0
100
AcDbLine
 10
9424.452419650737
 20
1428.597750668143
 30
0.0
 11
9106.384019792606
 21
1428.597750668143
 31
0.0
  0
LINE
  5
16F26
330
16E6F
100
AcDbEntity
  8
0
  6
ByBlock
 62
     0
 48
50.0
100
AcDbLine
 10
9136.384019792608
 20
-485.4022493318571
 30
0.0
 11
9136.384019792608
 21
1428.597750668143
 31
0.0
  0
INSERT
  5
16F27
330
16E6F
100
AcDbEntity
  8
0
  6
ByBlock
 62
     0
 48
50.0
100
AcDbBlockReference
  2
_DOTSMALL
 10
9136.384019792608
 20
-485.4022493318571
 30
0.0
 41
50.0
 42
50.0
 43
50.0
 50
270.0
  0
INSERT
  5
16F28
330
16E6F
100
AcDbEntity
  8
0
  6
ByBlock
 62
     0
 48
50.0
100
AcDbBlockReference
  2
_DOTSMALL
 10
9136.384019792608
 20
1428.597750668143
 30
0.0
 41
50.0
 42
50.0
 43
50.0
 50
90.0
  0
MTEXT
  5
16F29
330
16E6F
100
AcDbEntity
  8
0
  6
ByBlock
 62
     7
 48
50.0
100
AcDbMText
 10
9086.384019792609
 20
471.5977506681429
 30
0.0
 40
60.0
 41
0.0
 71
     5
 72
     1
  1
\A1;1917
  7
STYLE1
 11
0.0000000000000001
 21
1.0
 31
0.0
 73
     1
 44
1.0
1001
ACAD
1000
MTEXTBEGIN
1070
    73
1070
     1
1070
    44
1040
1.0
1070
    74
1070
     0
1000
MTEXTEND
  0
POINT
  5
16F2A
330
16E6F
100
AcDbEntity
  8
DEFPOINTS
  6
ByBlock
 62
     0
 48
50.0
100
AcDbPoint
 10
9460.023099929832
 20
-485.4022493318571
 30
0.0
  0
POINT
  5
16F2B
330
16E6F
100
AcDbEntity
  8
DEFPOINTS
  6
ByBlock
 62
     0
 48
50.0
100
AcDbPoint
 10
9434.452419650737
 20
1428.597750668143
 30
0.0
  0
POINT
  5
16F2C
330
16E6F
100
AcDbEntity
  8
DEFPOINTS
  6
ByBlock
 62
     0
 48
50.0
100
AcDbPoint
 10
9136.384019792608
 20
1428.597750668143
 30
0.0
  0
ENDBLK
  5
16F2D
330
16E6F
100
AcDbEntity
  8
0
 48
50.0
100
AcDbBlockEnd
  0
BLOCK
  5
16F2E
330
16E7A
100
AcDbEntity
  8
0
 48
50.0
100
AcDbBlockBegin
  2
*D13
 70
     1
 10
0.0
 20
0.0
 30
0.0
  3
*D13
  1

  0
LINE
  5
16F2F
330
16E7A
100
AcDbEntity
  8
0
  6
ByBlock
 62
     0
 48
50.0
100
AcDbLine
 10
9454.023099929832
 20
-491.402249331857
 30
0.0
 11
8962.596867655149
 21
-491.402249331857
 31
0.0
  0
LINE
  5
16F30
330
16E7A
100
AcDbEntity
  8
0
  6
ByBlock
 62
     0
 48
50.0
100
AcDbLine
 10
9424.452419650737
 20
1428.597750668143
 30
0.0
 11
8962.596867655149
 21
1428.597750668143
 31
0.0
  0
LINE
  5
16F31
330
16E7A
100
AcDbEntity
  8
0
  6
ByBlock
 62
     0
 48
50.0
100
AcDbLine
 10
8992.59686765515
 20
-491.402249331857
 30
0.0
 11
8992.59686765515
 21
1428.597750668143
 31
0.0
  0
INSERT
  5
16F32
330
16E7A
100
AcDbEntity
  8
0
  6
ByBlock
 62
     0
 48
50.0
100
AcDbBlockReference
  2
_DOTSMALL
 10
8992.59686765515
 20
-491.402249331857
 30
0.0
 41
50.0
 42
50.0
 43
50.0
 50
270.0
  0
INSERT
  5
16F33
330
16E7A
100
AcDbEntity
  8
0
  6
ByBlock
 62
     0
 48
50.0
100
AcDbBlockReference
  2
_DOTSMALL
 10
8992.59686765515
 20
1428.597750668143
 30
0.0
 41
50.0
 42
50.0
 43
50.0
 50
90.0
  0
MTEXT
  5
16F34
330
16E7A
100
AcDbEntity
  8
0
  6
ByBlock
 62
     7
 48
50.0
100
AcDbMText
 10
8942.576461372748
 20
468.597750668143
 30
0.0
 40
60.0
 41
0.0
 71
     5
 72
     1
  1
\A1;1920
  7
STYLE1
 11
0.0000000000000001
 21
1.0
 31
0.0
 73
     1
 44
1.0
1001
ACAD
1000
MTEXTBEGIN
1070
    73
1070
     1
1070
    44
1040
1.0
1070
    74
1070
     0
1000
MTEXTEND
  0
POINT
  5
16F35
330
16E7A
100
AcDbEntity
  8
DEFPOINTS
  6
ByBlock
 62
     0
 48
50.0
100
AcDbPoint
 10
9464.023099929832
 20
-491.402249331857
 30
0.0
  0
POINT
  5
16F36
330
16E7A
100
AcDbEntity
  8
DEFPOINTS
  6
ByBlock
 62
     0
 48
50.0
100
AcDbPoint
 10
9434.452419650737
 20
1428.597750668143
 30
0.0
  0
POINT
  5
16F37
330
16E7A
100
AcDbEntity
  8
DEFPOINTS
  6
ByBlock
 62
     0
 48
50.0
100
AcDbPoint
 10
8992.59686765515
 20
1428.597750668143
 30
0.0
  0
ENDBLK
  5
16F38
330
16E7A
100
AcDbEntity
  8
0
 48
50.0
100
AcDbBlockEnd
  0
BLOCK
  5
16F39
330
16E86
100
AcDbEntity
  8
0
 48
50.0
100
AcDbBlockBegin
  2
*D14
 70
     1
 10
0.0
 20
0.0
 30
0.0
  3
*D14
  1

  0
LINE
  5
16F3A
330
16E86
100
AcDbEntity
  8
0
  6
ByBlock
 62
     0
 48
50.0
100
AcDbLine
 10
9675.023099929832
 20
-407.0817412561683
 30
0.0
 11
9769.157165813338
 21
-432.3048881899111
 31
0.0
  0
LINE
  5
16F3B
330
16E86
100
AcDbEntity
  8
0
  6
ByBlock
 62
     0
 48
50.0
100
AcDbLine
 10
9675.023099929832
 20
1363.91825874383
 30
0.0
 11
9769.157165813338
 21
1338.695111810087
 31
0.0
  0
LINE
  5
16F3C
330
16E86
100
AcDbEntity
  8
0
  6
ByBlock
 62
     0
 48
50.0
100
AcDbLine
 10
9739.157165813336
 20
-424.2664124169774
 30
0.0
 11
9739.157165813336
 21
1346.733587583021
 31
0.0
  0
INSERT
  5
16F3D
330
16E86
100
AcDbEntity
  8
0
  6
ByBlock
 62
     0
 48
50.0
100
AcDbBlockReference
  2
_DOTSMALL
 10
9739.157165813336
 20
-424.2664124169774
 30
0.0
 41
50.0
 42
50.0
 43
50.0
 50
270.0
  0
INSERT
  5
16F3E
330
16E86
100
AcDbEntity
  8
0
  6
ByBlock
 62
     0
 48
50.0
100
AcDbBlockReference
  2
_DOTSMALL
 10
9739.157165813336
 20
1346.733587583021
 30
0.0
 41
50.0
 42
50.0
 43
50.0
 50
90.0
  0
MTEXT
  5
16F3F
330
16E86
100
AcDbEntity
  8
0
  6
ByBlock
 62
     7
 48
50.0
100
AcDbMText
 10
9689.157165813336
 20
461.2335875830217
 30
0.0
 40
60.0
 41
0.0
 71
     5
 72
     1
  1
\A1;内高 1771
  7
STYLE1
 11
0.0000000000000001
 21
1.0
 31
0.0
 73
     1
 44
1.0
1001
ACAD
1000
MTEXTBEGIN
1070
    73
1070
     1
1070
    44
1040
1.0
1070
    74
1070
     0
1000
MTEXTEND
  0
POINT
  5
16F40
330
16E86
100
AcDbEntity
  8
DEFPOINTS
  6
ByBlock
 62
     0
 48
50.0
100
AcDbPoint
 10
9665.023099929832
 20
-404.402249331857
 30
0.0
  0
POINT
  5
16F41
330
16E86
100
AcDbEntity
  8
DEFPOINTS
  6
ByBlock
 62
     0
 48
50.0
100
AcDbPoint
 10
9665.023099929832
 20
1366.597750668141
 30
0.0
  0
POINT
  5
16F42
330
16E86
100
AcDbEntity
  8
DEFPOINTS
  6
ByBlock
 62
     0
 48
50.0
100
AcDbPoint
 10
9739.157165813336
 20
1346.733587583021
 30
0.0
  0
ENDBLK
  5
16F43
330
16E86
100
AcDbEntity
  8
0
 48
50.0
100
AcDbBlockEnd
  0
BLOCK
  5
16F44
330
16E92
100
AcDbEntity
  8
0
 48
50.0
100
AcDbBlockBegin
  2
*D15
 70
     1
 10
0.0
 20
0.0
 30
0.0
  3
*D15
  1

  0
LINE
  5
16F45
330
16E92
100
AcDbEntity
  8
0
  6
ByBlock
 62
     0
 48
50.0
100
AcDbLine
 10
9512.023099929832
 20
-404.402249331857
 30
0.0
 11
9272.498380614726
 21
-404.402249331857
 31
0.0
  0
LINE
  5
16F46
330
16E92
100
AcDbEntity
  8
0
  6
ByBlock
 62
     0
 48
50.0
100
AcDbLine
 10
9437.023099929833
 20
1344.597750668143
 30
0.0
 11
9272.498380614726
 21
1344.597750668143
 31
0.0
  0
LINE
  5
16F47
330
16E92
100
AcDbEntity
  8
0
  6
ByBlock
 62
     0
 48
50.0
100
AcDbLine
 10
9302.498380614725
 20
-404.402249331857
 30
0.0
 11
9302.498380614725
 21
1344.597750668143
 31
0.0
  0
INSERT
  5
16F48
330
16E92
100
AcDbEntity
  8
0
  6
ByBlock
 62
     0
 48
50.0
100
AcDbBlockReference
  2
_DOTSMALL
 10
9302.498380614725
 20
-404.402249331857
 30
0.0
 41
50.0
 42
50.0
 43
50.0
 50
270.0
  0
INSERT
  5
16F49
330
16E92
100
AcDbEntity
  8
0
  6
ByBlock
 62
     0
 48
50.0
100
AcDbBlockReference
  2
_DOTSMALL
 10
9302.498380614725
 20
1344.597750668143
 30
0.0
 41
50.0
 42
50.0
 43
50.0
 50
90.0
  0
MTEXT
  5
16F4A
330
16E92
100
AcDbEntity
  8
0
  6
ByBlock
 62
     7
 48
50.0
100
AcDbMText
 10
9252.498380614724
 20
470.097750668143
 30
0.0
 40
60.0
 41
0.0
 71
     5
 72
     1
  1
\A1;有効開口部高サ 1749
  7
STYLE1
 11
0.0000000000000001
 21
1.0
 31
0.0
 73
     1
 44
1.0
1001
ACAD
1000
MTEXTBEGIN
1070
    73
1070
     1
1070
    44
1040
1.0
1070
    74
1070
     0
1000
MTEXTEND
  0
POINT
  5
16F4B
330
16E92
100
AcDbEntity
  8
DEFPOINTS
  6
ByBlock
 62
     0
 48
50.0
100
AcDbPoint
 10
9522.023099929832
 20
-404.402249331857
 30
0.0
  0
POINT
  5
16F4C
330
16E92
100
AcDbEntity
  8
DEFPOINTS
  6
ByBlock
 62
     0
 48
50.0
100
AcDbPoint
 10
9447.023099929833
 20
1344.597750668143
 30
0.0
  0
POINT
  5
16F4D
330
16E92
100
AcDbEntity
  8
DEFPOINTS
  6
ByBlock
 62
     0
 48
50.0
100
AcDbPoint
 10
9302.498380614725
 20
1344.597750668143
 30
0.0
  0
ENDBLK
  5
16F4E
330
16E92
100
AcDbEntity
  8
0
 48
50.0
100
AcDbBlockEnd
  0
BLOCK
  5
16F4F
330
16E9E
100
AcDbEntity
  8
0
 48
50.0
100
AcDbBlockBegin
  2
*D16
 70
     1
 10
0.0
 20
0.0
 30
0.0
  3
*D16
  1

  0
LINE
  5
16F50
330
16E9E
100
AcDbEntity
  8
0
  6
ByBlock
 62
     0
 48
50.0
100
AcDbLine
 10
9996.023099929834
 20
-404.402249331857
 30
0.0
 11
10369.8535583001
 21
-404.402249331857
 31
0.0
  0
LINE
  5
16F51
330
16E9E
100
AcDbEntity
  8
0
  6
ByBlock
 62
     0
 48
50.0
100
AcDbLine
 10
9994.023099929833
 20
-2.402249331857093
 30
0.0
 11
10369.8535583001
 21
-2.402249331857139
 31
0.0
  0
LINE
  5
16F52
330
16E9E
100
AcDbEntity
  8
0
  6
ByBlock
 62
     0
 48
50.0
100
AcDbLine
 10
10339.8535583001
 20
-404.402249331857
 30
0.0
 11
10339.8535583001
 21
-2.402249331857135
 31
0.0
  0
INSERT
  5
16F53
330
16E9E
100
AcDbEntity
  8
0
  6
ByBlock
 62
     0
 48
50.0
100
AcDbBlockReference
  2
_DOTSMALL
 10
10339.8535583001
 20
-404.402249331857
 30
0.0
 41
50.0
 42
50.0
 43
50.0
 50
270.0
  0
INSERT
  5
16F54
330
16E9E
100
AcDbEntity
  8
0
  6
ByBlock
 62
     0
 48
50.0
100
AcDbBlockReference
  2
_DOTSMALL
 10
10339.8535583001
 20
-2.402249331857135
 30
0.0
 41
50.0
 42
50.0
 43
50.0
 50
90.0
  0
MTEXT
  5
16F55
330
16E9E
100
AcDbEntity
  8
0
  6
ByBlock
 62
     7
 48
50.0
100
AcDbMText
 10
10289.84765278829
 20
-203.4022493318571
 30
0.0
 40
60.0
 41
0.0
 71
     5
 72
     1
  1
\A1;402
  7
STYLE1
 11
0.0000000000000001
 21
1.0
 31
0.0
 73
     1
 44
1.0
1001
ACAD
1000
MTEXTBEGIN
1070
    73
1070
     1
1070
    44
1040
1.0
1070
    74
1070
     0
1000
MTEXTEND
  0
POINT
  5
16F56
330
16E9E
100
AcDbEntity
  8
DEFPOINTS
  6
ByBlock
 62
     0
 48
50.0
100
AcDbPoint
 10
9986.023099929832
 20
-404.402249331857
 30
0.0
  0
POINT
  5
16F57
330
16E9E
100
AcDbEntity
  8
DEFPOINTS
  6
ByBlock
 62
     0
 48
50.0
100
AcDbPoint
 10
9984.023099929833
 20
-2.402249331857092
 30
0.0
  0
POINT
  5
16F58
330
16E9E
100
AcDbEntity
  8
DEFPOINTS
  6
ByBlock
 62
     0
 48
50.0
100
AcDbPoint
 10
10339.8535583001
 20
-2.402249331857135
 30
0.0
  0
ENDBLK
  5
16F59
330
16E9E
100
AcDbEntity
  8
0
 48
50.0
100
AcDbBlockEnd
  0
BLOCK
  5
16F5A
330
16EAA
100
AcDbEntity
  8
0
 48
50.0
100
AcDbBlockBegin
  2
*D17
 70
     1
 10
0.0
 20
0.0
 30
0.0
  3
*D17
  1

  0
LINE
  5
16F5B
330
16EAA
100
AcDbEntity
  8
0
  6
ByBlock
 62
     0
 48
50.0
100
AcDbLine
 10
9454.023099929832
 20
-491.402249331857
 30
0.0
 11
9106.384019792606
 21
-491.402249331857
 31
0.0
  0
LINE
  5
16F5C
330
16EAA
100
AcDbEntity
  8
0
  6
ByBlock
 62
     0
 48
50.0
100
AcDbLine
 10
9450.023099929833
 20
-485.4022493318571
 30
0.0
 11
9106.384019792606
 21
-485.4022493318571
 31
0.0
  0
LINE
  5
16F5D
330
16EAA
100
AcDbEntity
  8
0
  6
ByBlock
 62
     0
 48
50.0
100
AcDbLine
 10
9136.384019792608
 20
-491.402249331857
 30
0.0
 11
9136.384019792608
 21
-541.402249331857
 31
0.0
  0
LINE
  5
16F5E
330
16EAA
100
AcDbEntity
  8
0
  6
ByBlock
 62
     0
 48
50.0
100
AcDbLine
 10
9136.384019792608
 20
-485.4022493318571
 30
0.0
 11
9136.384019792608
 21
-435.4022493318571
 31
0.0
  0
MTEXT
  5
16F5F
330
16EAA
100
AcDbEntity
  8
0
  6
ByBlock
 62
     7
 48
50.0
100
AcDbMText
 10
9086.384019792609
 20
-520.9780614103055
 30
0.0
 40
60.0
 41
0.0
 71
     5
 72
     1
  1
\A1;3
  7
STYLE1
 11
0.0000000000000001
 21
1.0
 31
0.0
 73
     1
 44
1.0
1001
ACAD
1000
MTEXTBEGIN
1070
    73
1070
     1
1070
    44
1040
1.0
1070
    74
1070
     0
1000
MTEXTEND
  0
LINE
  5
16F60
330
16EAA
100
AcDbEntity
  8
0
  6
ByBlock
 62
     0
 48
50.0
100
AcDbLine
 10
9136.384019792608
 20
-491.402249331857
 30
0.0
 11
9136.384019792608
 21
-485.4022493318571
 31
0.0
  0
LINE
  5
16F61
330
16EAA
100
AcDbEntity
  8
0
  6
ByBlock
 62
     0
 48
50.0
100
AcDbLine
 10
9136.384019792608
 20
-491.402249331857
 30
0.0
 11
9136.384019792608
 21
-485.4022493318571
 31
0.0
  0
INSERT
  5
16F62
330
16EAA
100
AcDbEntity
  8
0
  6
ByBlock
 62
     0
 48
50.0
100
AcDbBlockReference
  2
_DOTSMALL
 10
9136.384019792608
 20
-491.402249331857
 30
0.0
 41
50.0
 42
50.0
 43
50.0
 50
90.0
  0
INSERT
  5
16F63
330
16EAA
100
AcDbEntity
  8
0
  6
ByBlock
 62
     0
 48
50.0
100
AcDbBlockReference
  2
_DOTSMALL
 10
9136.384019792608
 20
-485.4022493318571
 30
0.0
 41
50.0
 42
50.0
 43
50.0
 50
270.0
  0
POINT
  5
16F64
330
16EAA
100
AcDbEntity
  8
DEFPOINTS
  6
ByBlock
 62
     0
 48
50.0
100
AcDbPoint
 10
9464.023099929832
 20
-491.402249331857
 30
0.0
  0
POINT
  5
16F65
330
16EAA
100
AcDbEntity
  8
DEFPOINTS
  6
ByBlock
 62
     0
 48
50.0
100
AcDbPoint
 10
9460.023099929832
 20
-485.4022493318571
 30
0.0
  0
POINT
  5
16F66
330
16EAA
100
AcDbEntity
  8
DEFPOINTS
  6
ByBlock
 62
     0
 48
50.0
100
AcDbPoint
 10
9136.384019792608
 20
-485.4022493318571
 30
0.0
  0
ENDBLK
  5
16F67
330
16EAA
100
AcDbEntity
  8
0
 48
50.0
100
AcDbBlockEnd
  0
BLOCK
  5
16F68
330
16EB9
100
AcDbEntity
  8
0
 48
50.0
100
AcDbBlockBegin
  2
*D18
 70
     1
 10
0.0
 20
0.0
 30
0.0
  3
*D18
  1

  0
LINE
  5
16F69
330
16EB9
100
AcDbEntity
  8
0
  6
ByBlock
 62
     0
 48
50.0
100
AcDbLine
 10
9994.023099929833
 20
972.5977506681429
 30
0.0
 11
10369.8535583001
 21
972.5977506681427
 31
0.0
  0
LINE
  5
16F6A
330
16EB9
100
AcDbEntity
  8
0
  6
ByBlock
 62
     0
 48
50.0
100
AcDbLine
 10
10339.8535583001
 20
-2.402249331857135
 30
0.0
 11
10339.8535583001
 21
972.5977506681427
 31
0.0
  0
INSERT
  5
16F6B
330
16EB9
100
AcDbEntity
  8
0
  6
ByBlock
 62
     0
 48
50.0
100
AcDbBlockReference
  2
_DOTSMALL
 10
10339.8535583001
 20
-2.402249331857135
 30
0.0
 41
50.0
 42
50.0
 43
50.0
 50
270.0
  0
INSERT
  5
16F6C
330
16EB9
100
AcDbEntity
  8
0
  6
ByBlock
 62
     0
 48
50.0
100
AcDbBlockReference
  2
_DOTSMALL
 10
10339.8535583001
 20
972.5977506681427
 30
0.0
 41
50.0
 42
50.0
 43
50.0
 50
90.0
  0
MTEXT
  5
16F6D
330
16EB9
100
AcDbEntity
  8
0
  6
ByBlock
 62
     7
 48
50.0
100
AcDbMText
 10
10289.8535583001
 20
485.0977506681428
 30
0.0
 40
60.0
 41
0.0
 71
     5
 72
     1
  1
\A1;65x15=975
  7
STYLE1
 11
0.0000000000000001
 21
1.0
 31
0.0
 73
     1
 44
1.0
1001
ACAD
1000
MTEXTBEGIN
1070
    73
1070
     1
1070
    44
1040
1.0
1070
    74
1070
     0
1000
MTEXTEND
  0
POINT
  5
16F6E
330
16EB9
100
AcDbEntity
  8
DEFPOINTS
  6
ByBlock
 62
     0
 48
50.0
100
AcDbPoint
 10
9984.023099929833
 20
-2.402249331857092
 30
0.0
  0
POINT
  5
16F6F
330
16EB9
100
AcDbEntity
  8
DEFPOINTS
  6
ByBlock
 62
     0
 48
50.0
100
AcDbPoint
 10
9984.023099929833
 20
972.5977506681429
 30
0.0
  0
POINT
  5
16F70
330
16EB9
100
AcDbEntity
  8
DEFPOINTS
  6
ByBlock
 62
     0
 48
50.0
100
AcDbPoint
 10
10339.8535583001
 20
972.5977506681427
 30
0.0
  0
ENDBLK
  5
16F71
330
16EB9
100
AcDbEntity
  8
0
 48
50.0
100
AcDbBlockEnd
  0
BLOCK
  5
16F72
330
16EC4
100
AcDbEntity
  8
0
 48
50.0
100
AcDbBlockBegin
  2
*D19
 70
     1
 10
0.0
 20
0.0
 30
0.0
  3
*D19
  1

  0
LINE
  5
16F73
330
16EC4
100
AcDbEntity
  8
0
  6
ByBlock
 62
     0
 48
50.0
100
AcDbLine
 10
9994.023099929833
 20
972.5977506681429
 30
0.0
 11
10207.51406913315
 21
972.5977506681429
 31
0.0
  0
LINE
  5
16F74
330
16EC4
100
AcDbEntity
  8
0
  6
ByBlock
 62
     0
 48
50.0
100
AcDbLine
 10
9994.023099929833
 20
942.5977506681428
 30
0.0
 11
10207.51406913315
 21
942.5977506681428
 31
0.0
  0
LINE
  5
16F75
330
16EC4
100
AcDbEntity
  8
0
  6
ByBlock
 62
     0
 48
50.0
100
AcDbLine
 10
10177.51406913315
 20
972.5977506681429
 30
0.0
 11
10177.51406913315
 21
1022.597750668143
 31
0.0
  0
LINE
  5
16F76
330
16EC4
100
AcDbEntity
  8
0
  6
ByBlock
 62
     0
 48
50.0
100
AcDbLine
 10
10177.51406913315
 20
942.5977506681428
 30
0.0
 11
10177.51406913315
 21
736.5505065736544
 31
0.0
  0
LINE
  5
16F77
330
16EC4
100
AcDbEntity
  8
0
  6
ByBlock
 62
     0
 48
50.0
100
AcDbLine
 10
10177.51406913315
 20
972.5977506681429
 30
0.0
 11
10177.51406913315
 21
942.5977506681428
 31
0.0
  0
INSERT
  5
16F78
330
16EC4
100
AcDbEntity
  8
0
  6
ByBlock
 62
     0
 48
50.0
100
AcDbBlockReference
  2
_DOTSMALL
 10
10177.51406913315
 20
972.5977506681429
 30
0.0
 41
50.0
 42
50.0
 43
50.0
 50
270.0
  0
INSERT
  5
16F79
330
16EC4
100
AcDbEntity
  8
0
  6
ByBlock
 62
     0
 48
50.0
100
AcDbBlockReference
  2
_DOTSMALL
 10
10177.51406913315
 20
942.5977506681428
 30
0.0
 41
50.0
 42
50.0
 43
50.0
 50
90.0
  0
MTEXT
  5
16F7A
330
16EC4
100
AcDbEntity
  8
0
  6
ByBlock
 62
     7
 48
50.0
100
AcDbMText
 10
10127.51406913315
 20
789.5741286208986
 30
0.0
 40
60.0
 41
0.0
 71
     5
 72
     1
  1
\A1;30
  7
STYLE1
 11
0.0000000000000001
 21
1.0
 31
0.0
 73
     1
 44
1.0
1001
ACAD
1000
MTEXTBEGIN
1070
    73
1070
     1
1070
    44
1040
1.0
1070
    74
1070
     0
1000
MTEXTEND
  0
POINT
  5
16F7B
330
16EC4
100
AcDbEntity
  8
DEFPOINTS
  6
ByBlock
 62
     0
 48
50.0
100
AcDbPoint
 10
9984.023099929833
 20
972.5977506681429
 30
0.0
  0
POINT
  5
16F7C
330
16EC4
100
AcDbEntity
  8
DEFPOINTS
  6
ByBlock
 62
     0
 48
50.0
100
AcDbPoint
 10
9984.023099929833
 20
942.5977506681428
 30
0.0
  0
POINT
  5
16F7D
330
16EC4
100
AcDbEntity
  8
DEFPOINTS
  6
ByBlock
 62
     0
 48
50.0
100
AcDbPoint
 10
10177.51406913315
 20
942.5977506681428
 30
0.0
  0
ENDBLK
  5
16F7E
330
16EC4
100
AcDbEntity
  8
0
 48
50.0
100
AcDbBlockEnd
  0
BLOCK
  5
172B3
330
17253
100
AcDbEntity
  8
0
 48
50.0
100
AcDbBlockBegin
  2
*D20
 70
     1
 10
0.0
 20
0.0
 30
0.0
  3
*D20
  1

  0
LINE
  5
172B4
330
17253
100
AcDbEntity
  8
0
  6
ByBlock
 62
     0
 48
50.0
100
AcDbLine
 10
3689.712516832484
 20
7529.767811752096
 30
0.0
 11
4211.91337827167
 21
7529.767811752096
 31
0.0
  0
LINE
  5
172B5
330
17253
100
AcDbEntity
  8
0
  6
ByBlock
 62
     0
 48
50.0
100
AcDbLine
 10
3694.712516832484
 20
6969.767811752094
 30
0.0
 11
4211.913378271669
 21
6969.767811752094
 31
0.0
  0
LINE
  5
172B6
330
17253
100
AcDbEntity
  8
0
  6
ByBlock
 62
     0
 48
50.0
100
AcDbLine
 10
4181.913378271669
 20
7529.767811752096
 30
0.0
 11
4181.913378271668
 21
6969.767811752094
 31
0.0
  0
INSERT
  5
172B7
330
17253
100
AcDbEntity
  8
0
  6
ByBlock
 62
     0
 48
50.0
100
AcDbBlockReference
  2
_DOTSMALL
 10
4181.913378271669
 20
7529.767811752096
 30
0.0
 41
50.0
 42
50.0
 43
50.0
 50
90.0
  0
INSERT
  5
172B8
330
17253
100
AcDbEntity
  8
0
  6
ByBlock
 62
     0
 48
50.0
100
AcDbBlockReference
  2
_DOTSMALL
 10
4181.913378271668
 20
6969.767811752094
 30
0.0
 41
50.0
 42
50.0
 43
50.0
 50
270.0
  0
MTEXT
  5
172B9
330
17253
100
AcDbEntity
  8
0
  6
ByBlock
 62
     7
 48
50.0
100
AcDbMText
 10
4131.913378271669
 20
7249.767811752095
 30
0.0
 40
60.0
 41
0.0
 71
     5
 72
     1
  1
\A1;560
  7
STYLE1
 11
0.0000000000000001
 21
1.0
 31
0.0
 73
     1
 44
1.0
1001
ACAD
1000
MTEXTBEGIN
1070
    73
1070
     1
1070
    44
1040
1.0
1070
    74
1070
     0
1000
MTEXTEND
  0
POINT
  5
172BA
330
17253
100
AcDbEntity
  8
DEFPOINTS
  6
ByBlock
 62
     0
 48
50.0
100
AcDbPoint
 10
3679.712516832484
 20
7529.767811752096
 30
0.0
  0
POINT
  5
172BB
330
17253
100
AcDbEntity
  8
DEFPOINTS
  6
ByBlock
 62
     0
 48
50.0
100
AcDbPoint
 10
3684.712516832484
 20
6969.767811752094
 30
0.0
  0
POINT
  5
172BC
330
17253
100
AcDbEntity
  8
DEFPOINTS
  6
ByBlock
 62
     0
 48
50.0
100
AcDbPoint
 10
4181.913378271668
 20
6969.767811752094
 30
0.0
  0
ENDBLK
  5
172BD
330
17253
100
AcDbEntity
  8
0
 48
50.0
100
AcDbBlockEnd
  0
BLOCK
  5
172BE
330
1725F
100
AcDbEntity
  8
0
 48
50.0
100
AcDbBlockBegin
  2
*D21
 70
     1
 10
0.0
 20
0.0
 30
0.0
  3
*D21
  1

  0
LINE
  5
172BF
330
1725F
100
AcDbEntity
  8
0
  6
ByBlock
 62
     0
 48
50.0
100
AcDbLine
 10
3689.712516832488
 20
7500.767811752095
 30
0.0
 11
4065.737120831271
 21
7500.767811752095
 31
0.0
  0
LINE
  5
172C0
330
1725F
100
AcDbEntity
  8
0
  6
ByBlock
 62
     0
 48
50.0
100
AcDbLine
 10
3689.712516832484
 20
7036.767811752095
 30
0.0
 11
4065.737120831271
 21
7036.767811752095
 31
0.0
  0
LINE
  5
172C1
330
1725F
100
AcDbEntity
  8
0
  6
ByBlock
 62
     0
 48
50.0
100
AcDbLine
 10
4035.73712083127
 20
7500.767811752095
 30
0.0
 11
4035.73712083127
 21
7036.767811752095
 31
0.0
  0
INSERT
  5
172C2
330
1725F
100
AcDbEntity
  8
0
  6
ByBlock
 62
     0
 48
50.0
100
AcDbBlockReference
  2
_DOTSMALL
 10
4035.73712083127
 20
7500.767811752095
 30
0.0
 41
50.0
 42
50.0
 43
50.0
 50
90.0
  0
INSERT
  5
172C3
330
1725F
100
AcDbEntity
  8
0
  6
ByBlock
 62
     0
 48
50.0
100
AcDbBlockReference
  2
_DOTSMALL
 10
4035.73712083127
 20
7036.767811752095
 30
0.0
 41
50.0
 42
50.0
 43
50.0
 50
270.0
  0
MTEXT
  5
172C4
330
1725F
100
AcDbEntity
  8
0
  6
ByBlock
 62
     7
 48
50.0
100
AcDbMText
 10
3935.737120831271
 20
7268.767811752096
 30
0.0
 40
60.0
 41
0.0
 71
     5
 72
     1
  1
\A1;内部寸法\P464
  7
STYLE1
 11
0.0000000000000001
 21
1.0
 31
0.0
 73
     1
 44
1.0
1001
ACAD
1000
MTEXTBEGIN
1070
    73
1070
     1
1070
    44
1040
1.0
1070
    74
1070
     0
1000
MTEXTEND
  0
POINT
  5
172C5
330
1725F
100
AcDbEntity
  8
DEFPOINTS
  6
ByBlock
 62
     0
 48
50.0
100
AcDbPoint
 10
3679.712516832488
 20
7500.767811752095
 30
0.0
  0
POINT
  5
172C6
330
1725F
100
AcDbEntity
  8
DEFPOINTS
  6
ByBlock
 62
     0
 48
50.0
100
AcDbPoint
 10
3679.712516832484
 20
7036.767811752095
 30
0.0
  0
POINT
  5
172C7
330
1725F
100
AcDbEntity
  8
DEFPOINTS
  6
ByBlock
 62
     0
 48
50.0
100
AcDbPoint
 10
4035.73712083127
 20
7036.767811752095
 30
0.0
  0
ENDBLK
  5
172C8
330
1725F
100
AcDbEntity
  8
0
 48
50.0
100
AcDbBlockEnd
  0
BLOCK
  5
17342
330
1726B
100
AcDbEntity
  8
0
 48
50.0
100
AcDbBlockBegin
  2
*D22
 70
     1
 10
0.0
 20
0.0
 30
0.0
  3
*D22
  1

  0
LINE
  5
17343
330
1726B
100
AcDbEntity
  8
0
  6
ByBlock
 62
     0
 48
50.0
100
AcDbLine
 10
2319.712516832484
 20
7539.767811752096
 30
0.0
 11
2319.712516832484
 21
7951.599943617009
 31
0.0
  0
LINE
  5
17344
330
1726B
100
AcDbEntity
  8
0
  6
ByBlock
 62
     0
 48
50.0
100
AcDbLine
 10
3549.712516832488
 20
7539.767811752003
 30
0.0
 11
3549.712516832488
 21
7951.599943617009
 31
0.0
  0
LINE
  5
17345
330
1726B
100
AcDbEntity
  8
0
  6
ByBlock
 62
     0
 48
50.0
100
AcDbLine
 10
2319.712516832484
 20
7921.599943617009
 30
0.0
 11
3549.712516832488
 21
7921.599943617009
 31
0.0
  0
INSERT
  5
17346
330
1726B
100
AcDbEntity
  8
0
  6
ByBlock
 62
     0
 48
50.0
100
AcDbBlockReference
  2
_DOTSMALL
 10
2319.712516832484
 20
7921.599943617009
 30
0.0
 41
50.0
 42
50.0
 43
50.0
 50
180.0
  0
INSERT
  5
17347
330
1726B
100
AcDbEntity
  8
0
  6
ByBlock
 62
     0
 48
50.0
100
AcDbBlockReference
  2
_DOTSMALL
 10
3549.712516832488
 20
7921.599943617009
 30
0.0
 41
50.0
 42
50.0
 43
50.0
  0
MTEXT
  5
17348
330
1726B
100
AcDbEntity
  8
0
  6
ByBlock
 62
     7
 48
50.0
100
AcDbMText
 10
2934.712516832485
 20
7971.60584912882
 30
0.0
 40
60.0
 41
0.0
 71
     5
 72
     1
  1
\A1;内部寸法 1230
  7
STYLE1
 73
     1
 44
1.0
1001
ACAD
1000
MTEXTBEGIN
1070
    73
1070
     1
1070
    44
1040
1.0
1070
    74
1070
     0
1000
MTEXTEND
  0
POINT
  5
17349
330
1726B
100
AcDbEntity
  8
DEFPOINTS
  6
ByBlock
 62
     0
 48
50.0
100
AcDbPoint
 10
2319.712516832484
 20
7529.767811752096
 30
0.0
  0
POINT
  5
1734A
330
1726B
100
AcDbEntity
  8
DEFPOINTS
  6
ByBlock
 62
     0
 48
50.0
100
AcDbPoint
 10
3549.712516832488
 20
7529.767811752002
 30
0.0
  0
POINT
  5
1734B
330
1726B
100
AcDbEntity
  8
DEFPOINTS
  6
ByBlock
 62
     0
 48
50.0
100
AcDbPoint
 10
3549.712516832488
 20
7921.599943617009
 30
0.0
  0
ENDBLK
  5
1734C
330
1726B
100
AcDbEntity
  8
0
 48
50.0
100
AcDbBlockEnd
  0
BLOCK
  5
17386
330
17283
100
AcDbEntity
  8
0
 48
50.0
100
AcDbBlockBegin
  2
*D23
 70
     1
 10
0.0
 20
0.0
 30
0.0
  3
*D23
  1

  0
LINE
  5
17387
330
17283
100
AcDbEntity
  8
0
  6
ByBlock
 62
     0
 48
50.0
100
AcDbLine
 10
2537.420508075682
 20
4643.582580843268
 30
0.0
 11
2473.550637949137
 21
4881.948181228361
 31
0.0
  0
LINE
  5
17388
330
17283
100
AcDbEntity
  8
0
  6
ByBlock
 62
     0
 48
50.0
100
AcDbLine
 10
3316.420508075682
 20
4643.582580843268
 30
0.0
 11
3252.550637949138
 21
4881.948181228361
 31
0.0
  0
LINE
  5
17389
330
17283
100
AcDbEntity
  8
0
  6
ByBlock
 62
     0
 48
50.0
100
AcDbLine
 10
2481.589113722071
 20
4851.948181228362
 30
0.0
 11
3260.589113722071
 21
4851.948181228362
 31
0.0
  0
INSERT
  5
1738A
330
17283
100
AcDbEntity
  8
0
  6
ByBlock
 62
     0
 48
50.0
100
AcDbBlockReference
  2
_DOTSMALL
 10
2481.589113722071
 20
4851.948181228362
 30
0.0
 41
50.0
 42
50.0
 43
50.0
 50
180.0
  0
INSERT
  5
1738B
330
17283
100
AcDbEntity
  8
0
  6
ByBlock
 62
     0
 48
50.0
100
AcDbBlockReference
  2
_DOTSMALL
 10
3260.589113722071
 20
4851.948181228362
 30
0.0
 41
50.0
 42
50.0
 43
50.0
  0
MTEXT
  5
1738C
330
17283
100
AcDbEntity
  8
0
  6
ByBlock
 62
     7
 48
50.0
100
AcDbMText
 10
2871.089113722071
 20
4901.948181228362
 30
0.0
 40
60.0
 41
0.0
 71
     5
 72
     1
  1
\A1;779
  7
STYLE1
 73
     1
 44
1.0
1001
ACAD
1000
MTEXTBEGIN
1070
    73
1070
     1
1070
    44
1040
1.0
1070
    74
1070
     0
1000
MTEXTEND
  0
POINT
  5
1738D
330
17283
100
AcDbEntity
  8
DEFPOINTS
  6
ByBlock
 62
     0
 48
50.0
100
AcDbPoint
 10
2540.099999999994
 20
4633.58258084327
 30
0.0
  0
POINT
  5
1738E
330
17283
100
AcDbEntity
  8
DEFPOINTS
  6
ByBlock
 62
     0
 48
50.0
100
AcDbPoint
 10
3319.099999999993
 20
4633.58258084327
 30
0.0
  0
POINT
  5
1738F
330
17283
100
AcDbEntity
  8
DEFPOINTS
  6
ByBlock
 62
     0
 48
50.0
100
AcDbPoint
 10
3260.589113722071
 20
4851.948181228362
 30
0.0
  0
ENDBLK
  5
17390
330
17283
100
AcDbEntity
  8
0
 48
50.0
100
AcDbBlockEnd
  0
BLOCK
  5
1732C
330
1728F
100
AcDbEntity
  8
0
 48
50.0
100
AcDbBlockBegin
  2
*D24
 70
     1
 10
0.0
 20
0.0
 30
0.0
  3
*D24
  1

  0
LINE
  5
1732D
330
1728F
100
AcDbEntity
  8
0
  6
ByBlock
 62
     0
 48
50.0
100
AcDbLine
 10
3584.712516832484
 20
6959.767811752094
 30
0.0
 11
3584.712516832484
 21
6498.069307699847
 31
0.0
  0
LINE
  5
1732E
330
1728F
100
AcDbEntity
  8
0
  6
ByBlock
 62
     0
 48
50.0
100
AcDbLine
 10
2284.712516832484
 20
6959.767811752091
 30
0.0
 11
2284.712516832484
 21
6498.069307699847
 31
0.0
  0
LINE
  5
1732F
330
1728F
100
AcDbEntity
  8
0
  6
ByBlock
 62
     0
 48
50.0
100
AcDbLine
 10
3584.712516832484
 20
6528.069307699848
 30
0.0
 11
2284.712516832484
 21
6528.069307699848
 31
0.0
  0
INSERT
  5
17330
330
1728F
100
AcDbEntity
  8
0
  6
ByBlock
 62
     0
 48
50.0
100
AcDbBlockReference
  2
_DOTSMALL
 10
3584.712516832484
 20
6528.069307699848
 30
0.0
 41
50.0
 42
50.0
 43
50.0
  0
INSERT
  5
17331
330
1728F
100
AcDbEntity
  8
0
  6
ByBlock
 62
     0
 48
50.0
100
AcDbBlockReference
  2
_DOTSMALL
 10
2284.712516832484
 20
6528.069307699848
 30
0.0
 41
50.0
 42
50.0
 43
50.0
 50
180.0
  0
MTEXT
  5
17332
330
1728F
100
AcDbEntity
  8
0
  6
ByBlock
 62
     7
 48
50.0
100
AcDbMText
 10
2934.712516832484
 20
6578.069307699847
 30
0.0
 40
60.0
 41
0.0
 71
     5
 72
     1
  1
\A1;1300
  7
STYLE1
 73
     1
 44
1.0
1001
ACAD
1000
MTEXTBEGIN
1070
    73
1070
     1
1070
    44
1040
1.0
1070
    74
1070
     0
1000
MTEXTEND
  0
POINT
  5
17333
330
1728F
100
AcDbEntity
  8
DEFPOINTS
  6
ByBlock
 62
     0
 48
50.0
100
AcDbPoint
 10
3584.712516832484
 20
6969.767811752094
 30
0.0
  0
POINT
  5
17334
330
1728F
100
AcDbEntity
  8
DEFPOINTS
  6
ByBlock
 62
     0
 48
50.0
100
AcDbPoint
 10
2284.712516832484
 20
6969.767811752092
 30
0.0
  0
POINT
  5
17335
330
1728F
100
AcDbEntity
  8
DEFPOINTS
  6
ByBlock
 62
     0
 48
50.0
100
AcDbPoint
 10
2284.712516832484
 20
6528.069307699848
 30
0.0
  0
ENDBLK
  5
17336
330
1728F
100
AcDbEntity
  8
0
 48
50.0
100
AcDbBlockEnd
  0
BLOCK
  5
172F5
330
1729B
100
AcDbEntity
  8
0
 48
50.0
100
AcDbBlockBegin
  2
*D25
 70
     1
 10
0.0
 20
0.0
 30
0.0
  3
*D25
  1

  0
LINE
  5
172F6
330
1729B
100
AcDbEntity
  8
0
  6
ByBlock
 62
     0
 48
50.0
100
AcDbLine
 10
2211.21251683248
 20
7501.447303676404
 30
0.0
 11
1933.949666434173
 21
7575.739660531782
 31
0.0
  0
LINE
  5
172F7
330
1729B
100
AcDbEntity
  8
0
  6
ByBlock
 62
     0
 48
50.0
100
AcDbLine
 10
2211.212516832484
 20
7051.447303676408
 30
0.0
 11
1933.949666434173
 21
7125.739660531785
 31
0.0
  0
LINE
  5
172F8
330
1729B
100
AcDbEntity
  8
0
  6
ByBlock
 62
     0
 48
50.0
100
AcDbLine
 10
1963.949666434173
 20
7567.701184758849
 30
0.0
 11
1963.949666434173
 21
7117.701184758852
 31
0.0
  0
INSERT
  5
172F9
330
1729B
100
AcDbEntity
  8
0
  6
ByBlock
 62
     0
 48
50.0
100
AcDbBlockReference
  2
_DOTSMALL
 10
1963.949666434173
 20
7567.701184758849
 30
0.0
 41
50.0
 42
50.0
 43
50.0
 50
90.0
  0
INSERT
  5
172FA
330
1729B
100
AcDbEntity
  8
0
  6
ByBlock
 62
     0
 48
50.0
100
AcDbBlockReference
  2
_DOTSMALL
 10
1963.949666434173
 20
7117.701184758852
 30
0.0
 41
50.0
 42
50.0
 43
50.0
 50
270.0
  0
MTEXT
  5
172FB
330
1729B
100
AcDbEntity
  8
0
  6
ByBlock
 62
     7
 48
50.0
100
AcDbMText
 10
1913.949666434173
 20
7342.701184758851
 30
0.0
 40
60.0
 41
0.0
 71
     5
 72
     1
  1
\A1;450
  7
STYLE1
 11
0.0000000000000001
 21
1.0
 31
0.0
 73
     1
 44
1.0
1001
ACAD
1000
MTEXTBEGIN
1070
    73
1070
     1
1070
    44
1040
1.0
1070
    74
1070
     0
1000
MTEXTEND
  0
POINT
  5
172FC
330
1729B
100
AcDbEntity
  8
DEFPOINTS
  6
ByBlock
 62
     0
 48
50.0
100
AcDbPoint
 10
2221.21251683248
 20
7498.767811752094
 30
0.0
  0
POINT
  5
172FD
330
1729B
100
AcDbEntity
  8
DEFPOINTS
  6
ByBlock
 62
     0
 48
50.0
100
AcDbPoint
 10
2221.212516832484
 20
7048.767811752096
 30
0.0
  0
POINT
  5
172FE
330
1729B
100
AcDbEntity
  8
DEFPOINTS
  6
ByBlock
 62
     0
 48
50.0
100
AcDbPoint
 10
1963.949666434173
 20
7117.701184758852
 30
0.0
  0
ENDBLK
  5
172FF
330
1729B
100
AcDbEntity
  8
0
 48
50.0
100
AcDbBlockEnd
  0
BLOCK
  5
17337
330
172A7
100
AcDbEntity
  8
0
 48
50.0
100
AcDbBlockBegin
  2
*D26
 70
     1
 10
0.0
 20
0.0
 30
0.0
  3
*D26
  1

  0
LINE
  5
17338
330
172A7
100
AcDbEntity
  8
0
  6
ByBlock
 62
     0
 48
50.0
100
AcDbLine
 10
3549.712516832484
 20
6964.767811752095
 30
0.0
 11
3549.712516832484
 21
6660.417910163942
 31
0.0
  0
LINE
  5
17339
330
172A7
100
AcDbEntity
  8
0
  6
ByBlock
 62
     0
 48
50.0
100
AcDbLine
 10
2964.712516832484
 20
6964.767811752095
 30
0.0
 11
2964.712516832484
 21
6660.417910163942
 31
0.0
  0
LINE
  5
1733A
330
172A7
100
AcDbEntity
  8
0
  6
ByBlock
 62
     0
 48
50.0
100
AcDbLine
 10
3549.712516832484
 20
6690.417910163941
 30
0.0
 11
2964.712516832484
 21
6690.417910163941
 31
0.0
  0
INSERT
  5
1733B
330
172A7
100
AcDbEntity
  8
0
  6
ByBlock
 62
     0
 48
50.0
100
AcDbBlockReference
  2
_DOTSMALL
 10
3549.712516832484
 20
6690.417910163941
 30
0.0
 41
50.0
 42
50.0
 43
50.0
  0
INSERT
  5
1733C
330
172A7
100
AcDbEntity
  8
0
  6
ByBlock
 62
     0
 48
50.0
100
AcDbBlockReference
  2
_DOTSMALL
 10
2964.712516832484
 20
6690.417910163941
 30
0.0
 41
50.0
 42
50.0
 43
50.0
 50
180.0
  0
MTEXT
  5
1733D
330
172A7
100
AcDbEntity
  8
0
  6
ByBlock
 62
     7
 48
50.0
100
AcDbMText
 10
3257.212516832484
 20
6790.417910163942
 30
0.0
 40
60.0
 41
0.0
 71
     5
 72
     1
  1
\A1;有効開口部間口\P585
  7
STYLE1
 73
     1
 44
1.0
1001
ACAD
1000
MTEXTBEGIN
1070
    73
1070
     1
1070
    44
1040
1.0
1070
    74
1070
     0
1000
MTEXTEND
  0
POINT
  5
1733E
330
172A7
100
AcDbEntity
  8
DEFPOINTS
  6
ByBlock
 62
     0
 48
50.0
100
AcDbPoint
 10
3549.712516832484
 20
6974.767811752096
 30
0.0
  0
POINT
  5
1733F
330
172A7
100
AcDbEntity
  8
DEFPOINTS
  6
ByBlock
 62
     0
 48
50.0
100
AcDbPoint
 10
2964.712516832484
 20
6974.767811752096
 30
0.0
  0
POINT
  5
17340
330
172A7
100
AcDbEntity
  8
DEFPOINTS
  6
ByBlock
 62
     0
 48
50.0
100
AcDbPoint
 10
2964.712516832484
 20
6690.417910163941
 30
0.0
  0
ENDBLK
  5
17341
330
172A7
100
AcDbEntity
  8
0
 48
50.0
100
AcDbBlockEnd
  0
BLOCK
  5
173E7
330
173B8
100
AcDbEntity
  8
0
 48
50.0
100
AcDbBlockBegin
  2
*D27
 70
     1
 10
0.0
 20
0.0
 30
0.0
  3
*D27
  1

  0
LINE
  5
173E8
330
173B8
100
AcDbEntity
  8
0
  6
ByBlock
 62
     0
 48
50.0
100
AcDbLine
 10
3768.600000000001
 20
4674.582580843177
 30
0.0
 11
3768.600000000001
 21
4881.948181228361
 31
0.0
  0
LINE
  5
173E9
330
173B8
100
AcDbEntity
  8
0
  6
ByBlock
 62
     0
 48
50.0
100
AcDbLine
 10
3346.599999999997
 20
4645.582580843269
 30
0.0
 11
3346.599999999997
 21
4881.948181228361
 31
0.0
  0
LINE
  5
173EA
330
173B8
100
AcDbEntity
  8
0
  6
ByBlock
 62
     0
 48
50.0
100
AcDbLine
 10
3768.600000000001
 20
4851.948181228362
 30
0.0
 11
3346.599999999997
 21
4851.948181228362
 31
0.0
  0
INSERT
  5
173EB
330
173B8
100
AcDbEntity
  8
0
  6
ByBlock
 62
     0
 48
50.0
100
AcDbBlockReference
  2
_DOTSMALL
 10
3768.600000000001
 20
4851.948181228362
 30
0.0
 41
50.0
 42
50.0
 43
50.0
  0
INSERT
  5
173EC
330
173B8
100
AcDbEntity
  8
0
  6
ByBlock
 62
     0
 48
50.0
100
AcDbBlockReference
  2
_DOTSMALL
 10
3346.599999999997
 20
4851.948181228362
 30
0.0
 41
50.0
 42
50.0
 43
50.0
 50
180.0
  0
MTEXT
  5
173ED
330
173B8
100
AcDbEntity
  8
0
  6
ByBlock
 62
     7
 48
50.0
100
AcDbMText
 10
3557.599999999999
 20
4901.954086740172
 30
0.0
 40
60.0
 41
0.0
 71
     5
 72
     1
  1
\A1;422
  7
STYLE1
 73
     1
 44
1.0
1001
ACAD
1000
MTEXTBEGIN
1070
    73
1070
     1
1070
    44
1040
1.0
1070
    74
1070
     0
1000
MTEXTEND
  0
POINT
  5
173EE
330
173B8
100
AcDbEntity
  8
DEFPOINTS
  6
ByBlock
 62
     0
 48
50.0
100
AcDbPoint
 10
3768.600000000001
 20
4664.582580843176
 30
0.0
  0
POINT
  5
173EF
330
173B8
100
AcDbEntity
  8
DEFPOINTS
  6
ByBlock
 62
     0
 48
50.0
100
AcDbPoint
 10
3346.599999999997
 20
4635.582580843268
 30
0.0
  0
POINT
  5
173F0
330
173B8
100
AcDbEntity
  8
DEFPOINTS
  6
ByBlock
 62
     0
 48
50.0
100
AcDbPoint
 10
3346.599999999997
 20
4851.948181228362
 30
0.0
  0
ENDBLK
  5
173F1
330
173B8
100
AcDbEntity
  8
0
 48
50.0
100
AcDbBlockEnd
  0
ENDSEC
  0
SECTION
  2
ENTITIES
  0
LINE
  5
10B56
330
747D
100
AcDbEntity
  8
補助
  6
PHANTOM
 62
   230
 48
50.0
100
AcDbLine
 10
70.0
 20
0.0
 30
0.0
 11
69.99999999999975
 21
5704.8
 31
0.0
  0
LINE
  5
10B57
330
747D
100
AcDbEntity
  8
補助
  6
PHANTOM
 62
   230
 48
50.0
100
AcDbLine
 10
69.99999999999975
 20
5704.8
 30
0.0
 11
8153.6
 21
5704.8
 31
0.0
  0
LINE
  5
10B59
330
747D
100
AcDbEntity
  8
仕様書枠
  6
Continuous
 48
50.0
100
AcDbLine
 10
6553.6
 20
600.0
 30
0.0
 11
6553.6
 21
-0.0000000000000365
 31
0.0
  0
LINE
  5
10B5C
330
747D
100
AcDbEntity
  8
仕様書枠
 48
50.0
100
AcDbLine
 10
8153.6
 20
600.0
 30
0.0
 11
8153.6
 21
-0.0000000000000455
 31
0.0
  0
LINE
  5
10B5D
330
747D
100
AcDbEntity
  8
仕様書枠
 48
50.0
100
AcDbLine
 10
70.0
 20
0.0
 30
0.0
 11
8153.6
 21
-0.0000000000000455
 31
0.0
  0
LINE
  5
10B5E
330
747D
100
AcDbEntity
  8
補助
  6
PHANTOM
 62
   230
 48
50.0
100
AcDbLine
 10
8153.6
 20
5704.8
 30
0.0
 11
8153.6
 21
600.0
 31
0.0
  0
LINE
  5
10B6C
330
747D
100
AcDbEntity
  8
仕様書枠
 48
50.0
100
AcDbLine
 10
6553.6
 20
600.0
 30
0.0
 11
8153.6
 21
600.0
 31
0.0
  0
LINE
  5
10B6D
330
747D
100
AcDbEntity
  8
補助
  6
PHANTOM
 62
   230
 48
50.0
100
AcDbLine
 10
6553.6
 20
5704.8
 30
0.0
 11
6553.6
 21
2400.0
 31
0.0
  0
LINE
  5
10B6F
330
747D
100
AcDbEntity
  8
補助
  6
PHANTOM
 62
   230
 48
50.0
100
AcDbLine
 10
6553.6
 20
2400.0
 30
0.0
 11
8153.6
 21
2400.0
 31
0.0
  0
LINE
  5
10B72
330
747D
100
AcDbEntity
  8
文字
 62
     7
 48
50.0
100
AcDbLine
 10
6593.600000000001
 20
200.0
 30
0.0
 11
8113.600000000001
 21
200.0
 31
0.0
  0
TEXT
  5
10B73
330
747D
100
AcDbEntity
  8
文字
 62
     7
 48
50.0
100
AcDbText
 10
6581.48952828845
 20
447.5453037149702
 30
0.0
 40
100.0
  1
外 形 図
  7
STYLE2
100
AcDbText
  0
TEXT
  5
10B74
330
747D
100
AcDbEntity
  8
文字
 62
     7
 48
50.0
100
AcDbText
 10
6600.718349992208
 20
238.6370330515628
 30
0.0
 40
80.0
  1
機種名
  7
STYLE2
100
AcDbText
  0
TEXT
  5
10B79
330
747D
100
AcDbEntity
  8
文字
 62
     7
 48
50.0
100
AcDbText
 10
7262.065918610999
 20
515.7788531456143
 30
0.0
 40
50.0
  1
NO.32     <縮尺> S=1/20
  7
STYLE2
100
AcDbText
  0
LINE
  5
10B7B
330
747D
100
AcDbEntity
  8
仕様書枠
 48
50.0
100
AcDbLine
 10
6553.6
 20
400.0
 30
0.0
 11
7125.6
 21
400.0
 31
0.0
  0
LINE
  5
10B88
330
747D
100
AcDbEntity
  8
仕様書枠
  6
Continuous
 48
50.0
100
AcDbLine
 10
7125.6
 20
600.0
 30
0.0
 11
7125.6
 21
400.0
 31
0.0
  0
LINE
  5
14A22
330
747D
100
AcDbEntity
  8
部品1
100
AcDbLine
 10
3344.467666557111
 20
509.9461607727662
 30
0.0
 11
2962.732333442891
 21
509.9461607727662
 31
0.0
  0
LINE
  5
14A23
330
747D
100
AcDbEntity
  8
部品1
100
AcDbLine
 10
2962.732333442891
 20
390.0
 30
0.0
 11
3344.467666557111
 21
390.0
 31
0.0
  0
TEXT
  5
14A24
330
747D
100
AcDbEntity
  8
部品1
100
AcDbText
 10
3007.995035311869
 20
413.4993961635045
 30
0.0
 40
67.5
  1
正面図
  7
STYLE2
100
AcDbText
  0
LINE
  5
14A25
330
747D
100
AcDbEntity
  8
部品1
100
AcDbLine
 10
2962.732333442891
 20
509.9461607727662
 30
0.0
 11
2962.732333442891
 21
390.0
 31
0.0
  0
LINE
  5
14A26
330
747D
100
AcDbEntity
  8
部品1
100
AcDbLine
 10
3344.467666557111
 20
390.0
 30
0.0
 11
3344.467666557111
 21
509.9461607727662
 31
0.0
  0
LINE
  5
15F7C
330
747D
100
AcDbEntity
  8
部品1
100
AcDbLine
 10
3341.96766655711
 20
3427.284681523221
 30
0.0
 11
3341.96766655711
 21
3547.230842295987
 31
0.0
  0
LINE
  5
15F7D
330
747D
100
AcDbEntity
  8
部品1
100
AcDbLine
 10
2960.232333442889
 20
3547.230842295987
 30
0.0
 11
2960.232333442889
 21
3427.284681523221
 31
0.0
  0
LINE
  5
15F7E
330
747D
100
AcDbEntity
  8
部品1
100
AcDbLine
 10
2960.232333442889
 20
3427.284681523221
 30
0.0
 11
3341.96766655711
 21
3427.284681523221
 31
0.0
  0
TEXT
  5
15F7F
330
747D
100
AcDbEntity
  8
部品1
100
AcDbText
 10
3005.192138357408
 20
3450.784077686726
 30
0.0
 40
67.5
  1
平面図
  7
STYLE2
100
AcDbText
  0
LINE
  5
15F80
330
747D
100
AcDbEntity
  8
部品1
100
AcDbLine
 10
3341.96766655711
 20
3547.230842295987
 30
0.0
 11
2960.232333442889
 21
3547.230842295987
 31
0.0
  0
DIMENSION
  5
16017
330
747D
100
AcDbEntity
  8
寸法
 48
50.0
100
AcDbDimension
  2
*D4
 10
3808.600000000002
 20
2975.024113945668
 30
0.0
 11
3941.84264068712
 21
2975.024113945668
 31
0.0
 12
-400.0000000000018
 22
0.0
 32
0.0
 70
   160
 71
     5
 42
-1.0
  3
INABA_S20G
100
AcDbAlignedDimension
 13
3803.599999999999
 23
2817.391201416256
 33
0.0
 14
3808.600000000002
 24
2813.560713214081
 34
0.0
100
AcDbRotatedDimension
1001
ACAD
1000
DSTYLE
1002
{
1002
}
  0
DIMENSION
  5
16018
330
747D
100
AcDbEntity
  8
寸法
 48
50.0
100
AcDbDimension
  2
*D3
 10
2503.599999999999
 20
2975.024113945668
 30
0.0
 11
2350.556033268305
 21
2975.024113945668
 31
0.0
 12
399.9999999999982
 22
0.0
 32
0.0
 70
   160
 71
     5
 42
-1.0
  3
INABA_S20G
100
AcDbAlignedDimension
 13
2498.599999999995
 23
2813.560713214081
 33
0.0
 14
2503.599999999999
 24
2817.391201416256
 34
0.0
100
AcDbRotatedDimension
  0
DIMENSION
  5
16019
330
747D
100
AcDbEntity
  8
寸法
 48
50.0
100
AcDbDimension
  2
*D2
 10
3803.599999999999
 20
2975.024113945668
 30
0.0
 11
3153.599999999999
 21
3025.024113945669
 31
0.0
 70
    32
 71
     5
 42
-1.0
  3
INABA_S20G
100
AcDbAlignedDimension
 13
2503.599999999999
 23
2817.391201416256
 33
0.0
 14
3803.599999999999
 24
2817.391201416256
 34
0.0
100
AcDbRotatedDimension
1001
ACAD
1000
DSTYLE
1002
{
1002
}
  0
DIMENSION
  5
1601A
330
747D
100
AcDbEntity
  8
寸法
 48
50.0
100
AcDbDimension
  2
*D1
 10
3808.600000000002
 20
3103.220335370565
 30
0.0
 11
3153.599999999999
 21
3153.220335370565
 31
0.0
 70
    32
 71
     5
 42
-1.0
  3
INABA_S20G
100
AcDbAlignedDimension
 13
2498.599999999995
 23
2813.560713214081
 33
0.0
 14
3808.600000000002
 24
2813.560713214081
 34
0.0
100
AcDbRotatedDimension
  0
LINE
  5
1601B
330
747D
100
AcDbEntity
  8
Ｇ．Ｌ
 48
50.0
100
AcDbLine
 10
1842.098280204278
 20
800.0
 30
0.0
 11
6875.570846919768
 21
800.0
 31
0.0
  0
LINE
  5
1601E
330
747D
100
AcDbEntity
  8
部品1
 48
50.0
100
AcDbLine
 10
3131.099999999997
 20
971.0
 30
0.0
 11
3131.099999999999
 21
2740.0
 31
0.0
  0
LINE
  5
1601F
330
747D
100
AcDbEntity
  8
部品1
 48
50.0
100
AcDbLine
 10
3803.599999999999
 20
958.0
 30
0.0
 11
3803.599999999999
 21
2737.608798583755
 31
0.0
  0
LINE
  5
16020
330
747D
100
AcDbEntity
  8
部品1
 48
50.0
100
AcDbLine
 10
3791.1
 20
958.0
 30
0.0
 11
3791.1
 21
2817.784080852784
 31
0.0
  0
LINE
  5
16021
330
747D
100
AcDbEntity
  8
部品1
 48
50.0
100
AcDbLine
 10
3781.100000000001
 20
958.0
 30
0.0
 11
3781.100000000001
 21
2817.784080852784
 31
0.0
  0
LINE
  5
16022
330
747D
100
AcDbEntity
  8
部品1
 48
50.0
100
AcDbLine
 10
3768.600000000001
 20
958.0
 30
0.0
 11
3768.600000000002
 21
2814.999999999998
 31
0.0
  0
LINE
  5
16023
330
747D
100
AcDbEntity
  8
部品1
 48
50.0
100
AcDbLine
 10
2516.099999999999
 20
958.0
 30
0.0
 11
2516.099999999999
 21
2817.784080852784
 31
0.0
  0
LINE
  5
16024
330
747D
100
AcDbEntity
  8
部品1
 48
50.0
100
AcDbLine
 10
2526.099999999999
 20
958.0
 30
0.0
 11
2526.099999999997
 21
2817.784080852784
 31
0.0
  0
LINE
  5
16025
330
747D
100
AcDbEntity
  8
部品1
 48
50.0
100
AcDbLine
 10
2538.599999999999
 20
958.0
 30
0.0
 11
2538.599999999997
 21
2794.0
 31
0.0
  0
LINE
  5
16026
330
747D
100
AcDbEntity
  8
部品1
 48
50.0
100
AcDbLine
 10
2503.599999999999
 20
958.0
 30
0.0
 11
2503.599999999999
 21
2737.608798583755
 31
0.0
  0
LINE
  5
16028
330
747D
100
AcDbEntity
  8
部品1
 48
50.0
100
AcDbLine
 10
2516.099999999999
 20
900.0
 30
0.0
 11
3791.099999999999
 21
900.0
 31
0.0
  0
LINE
  5
16029
330
747D
100
AcDbEntity
  8
部品1
 48
50.0
100
AcDbLine
 10
2503.599999999999
 20
958.0
 30
0.0
 11
3803.599999999999
 21
958.0
 31
0.0
  0
LINE
  5
1602A
330
747D
100
AcDbEntity
  8
部品1
 48
50.0
100
AcDbLine
 10
2511.599999999999
 20
906.0
 30
0.0
 11
3795.599999999999
 21
906.0
 31
0.0
  0
LINE
  5
1602B
330
747D
100
AcDbEntity
  8
部品1
 48
50.0
100
AcDbLine
 10
2538.599999999999
 20
968.0
 30
0.0
 11
3768.600000000001
 21
968.0
 31
0.0
  0
LINE
  5
1602C
330
747D
100
AcDbEntity
  8
部品1
 48
50.0
100
AcDbLine
 10
2550.599999999997
 20
978.5
 30
0.0
 11
3131.099999999997
 21
978.5
 31
0.0
  0
TEXT
  5
1602D
330
747D
100
AcDbEntity
  8
文字
 48
50.0
100
AcDbText
 10
1891.367660083241
 20
808.888361120451
 30
0.0
 40
70.0
  1
▽G.L
  7
STYLE2
100
AcDbText
  0
LINE
  5
1602E
330
747D
100
AcDbEntity
  8
部品1
 48
50.0
100
AcDbLine
 10
2516.099999999999
 20
800.0
 30
0.0
 11
2516.099999999999
 21
906.0
 31
0.0
  0
LINE
  5
1602F
330
747D
100
AcDbEntity
  8
部品1
 48
50.0
100
AcDbLine
 10
2511.599999999999
 20
906.0
 30
0.0
 11
2511.599999999999
 21
958.0
 31
0.0
  0
LINE
  5
16030
330
747D
100
AcDbEntity
  8
部品1
 48
50.0
100
AcDbLine
 10
2546.599999999999
 20
968.0
 30
0.0
 11
2550.599999999997
 21
978.5
 31
0.0
  0
LINE
  5
16036
330
747D
100
AcDbEntity
  8
部品1
 48
50.0
100
AcDbLine
 10
3131.099999999997
 20
971.0
 30
0.0
 11
3768.600000000001
 21
970.9999999999997
 31
0.0
  0
LINE
  5
16037
330
747D
100
AcDbEntity
  8
部品1
 48
50.0
100
AcDbLine
 10
2716.099999999999
 20
800.0
 30
0.0
 11
2716.099999999999
 21
900.0
 31
0.0
  0
LINE
  5
1603A
330
747D
100
AcDbEntity
  8
部品1
 48
50.0
100
AcDbLine
 10
3591.099999999999
 20
800.0
 30
0.0
 11
3591.099999999999
 21
900.0
 31
0.0
  0
LINE
  5
1603B
330
747D
100
AcDbEntity
  8
部品1
 48
50.0
100
AcDbLine
 10
3791.099999999999
 20
800.0
 30
0.0
 11
3791.099999999999
 21
906.0
 31
0.0
  0
LINE
  5
1603D
330
747D
100
AcDbEntity
  8
部品1
 48
50.0
100
AcDbLine
 10
3795.6
 20
906.0
 30
0.0
 11
3795.599999999999
 21
958.0
 31
0.0
  0
LINE
  5
1603E
330
747D
100
AcDbEntity
  8
部品1
 48
50.0
100
AcDbLine
 10
2538.599999999995
 20
2815.0
 30
0.0
 11
3768.600000000002
 21
2815.0
 31
0.0
  0
LINE
  5
1603F
330
747D
100
AcDbEntity
  8
部品1
 48
50.0
100
AcDbLine
 10
2538.599999999997
 20
2740.0
 30
0.0
 11
3768.599999999999
 21
2740.0
 31
0.0
  0
LINE
  5
16040
330
747D
100
AcDbEntity
  8
細線
 48
50.0
100
AcDbLine
 10
2538.599999999997
 20
2795.0
 30
0.0
 11
3768.600000000001
 21
2795.0
 31
0.0
  0
LINE
  5
16041
330
747D
100
AcDbEntity
  8
部品1
 48
50.0
100
AcDbLine
 10
2538.599999999997
 20
2770.0
 30
0.0
 11
3768.600000000001
 21
2770.0
 31
0.0
  0
LINE
  5
16042
330
747D
100
AcDbEntity
  8
細線
 48
50.0
100
AcDbLine
 10
2538.599999999997
 20
2764.0
 30
0.0
 11
3768.600000000001
 21
2764.0
 31
0.0
  0
LINE
  5
16043
330
747D
100
AcDbEntity
  8
細線
 48
50.0
100
AcDbLine
 10
2538.599999999997
 20
2758.0
 30
0.0
 11
3768.600000000001
 21
2758.0
 31
0.0
  0
LINE
  5
16044
330
747D
100
AcDbEntity
  8
細線
 48
50.0
100
AcDbLine
 10
2538.599999999997
 20
2752.0
 30
0.0
 11
3768.600000000001
 21
2752.0
 31
0.0
  0
LINE
  5
16045
330
747D
100
AcDbEntity
  8
細線
 48
50.0
100
AcDbLine
 10
2538.599999999997
 20
2746.0
 30
0.0
 11
3768.600000000001
 21
2746.0
 31
0.0
  0
ARC
  5
1604A
330
747D
100
AcDbEntity
  8
部品1
 48
20.0
100
AcDbCircle
 10
2612.448433418347
 20
2035.568139086208
 30
0.0
 40
10.0
100
AcDbArc
 50
6.64546636425039
 51
87.3033948452954
  0
ARC
  5
1604B
330
747D
100
AcDbEntity
  8
部品1
 48
20.0
100
AcDbCircle
 10
2575.751566581648
 20
2035.568139086208
 30
0.0
 40
10.0
100
AcDbArc
 50
92.6966051547043
 51
173.3545336357529
  0
ARC
  5
1604C
330
747D
100
AcDbEntity
  8
細線
 48
50.0
100
AcDbCircle
 10
3559.099999999997
 20
1920.999999999992
 30
0.0
 40
995.0
100
AcDbArc
 50
173.3545336357521
 51
186.6454663642471
  0
ARC
  5
1604D
330
747D
100
AcDbEntity
  8
細線
 48
50.0
100
AcDbCircle
 10
1629.099999999997
 20
1920.999999999992
 30
0.0
 40
995.0
100
AcDbArc
 50
353.354533635753
 51
6.645466364247897
  0
ARC
  5
1604E
330
747D
100
AcDbEntity
  8
部品1
 48
20.0
100
AcDbCircle
 10
1629.099999999997
 20
1920.999999999992
 30
0.0
 40
1000.0
100
AcDbArc
 50
353.354533635753
 51
6.645466364247897
  0
ARC
  5
1604F
330
747D
100
AcDbEntity
  8
部品1
 48
20.0
100
AcDbCircle
 10
3559.099999999997
 20
1920.999999999992
 30
0.0
 40
1000.0
100
AcDbArc
 50
173.3545336357521
 51
186.6454663642471
  0
ARC
  5
16050
330
747D
100
AcDbEntity
  8
細線
 48
50.0
100
AcDbCircle
 10
2575.751566581646
 20
1806.43186091379
 30
0.0
 40
5.0
100
AcDbArc
 50
186.6454663642461
 51
267.3033948452958
  0
ARC
  5
16051
330
747D
100
AcDbEntity
  8
細線
 48
50.0
100
AcDbCircle
 10
2612.448433418347
 20
1806.43186091379
 30
0.0
 40
5.0
100
AcDbArc
 50
272.6966051547074
 51
353.3545336357531
  0
ARC
  5
16052
330
747D
100
AcDbEntity
  8
細線
 48
50.0
100
AcDbCircle
 10
2594.099999999995
 20
2196.0
 30
0.0
 40
395.0
100
AcDbArc
 50
267.3033948452958
 51
272.6966051547048
  0
ARC
  5
16053
330
747D
100
AcDbEntity
  8
部品1
 48
20.0
100
AcDbCircle
 10
2575.751566581646
 20
1806.43186091379
 30
0.0
 40
10.0
100
AcDbArc
 50
186.6454663642466
 51
267.3033948452959
  0
ARC
  5
16054
330
747D
100
AcDbEntity
  8
部品1
 48
20.0
100
AcDbCircle
 10
2612.448433418347
 20
1806.43186091379
 30
0.0
 40
10.0
100
AcDbArc
 50
272.696605154706
 51
353.3545336357532
  0
ARC
  5
16055
330
747D
100
AcDbEntity
  8
部品1
 48
20.0
100
AcDbCircle
 10
2594.099999999995
 20
2196.0
 30
0.0
 40
400.0
100
AcDbArc
 50
267.3033948452958
 51
272.6966051547048
  0
LINE
  5
16056
330
747D
100
AcDbEntity
  8
部品1
 48
20.0
100
AcDbLine
 10
2599.099999999997
 20
2018.429621181404
 30
0.0
 11
2599.099999999997
 21
1823.570378818596
 31
0.0
  0
LINE
  5
16057
330
747D
100
AcDbEntity
  8
部品1
 48
20.0
100
AcDbLine
 10
2589.099999999997
 20
2018.429621181402
 30
0.0
 11
2589.099999999997
 21
1823.570378818596
 31
0.0
  0
ELLIPSE
  5
16058
330
747D
100
AcDbEntity
  8
部品1
100
AcDbEllipse
 10
2594.099999999997
 20
1823.570378818596
 30
0.0
 11
0.0
 21
-9.770631002828395
 31
0.0
210
0.0
220
0.0
230
-1.0
 40
0.5117376757501746
 41
4.712388980384689
 42
7.853981633974482
  0
ARC
  5
16059
330
747D
100
AcDbEntity
  8
細線
 48
50.0
100
AcDbCircle
 10
2594.099999999995
 20
1645.999999999999
 30
0.0
 40
395.0
100
AcDbArc
 50
87.30339484529553
 51
92.69660515470402
  0
ARC
  5
1605A
330
747D
100
AcDbEntity
  8
細線
 48
50.0
100
AcDbCircle
 10
2575.751566581648
 20
2035.568139086208
 30
0.0
 40
5.0
100
AcDbArc
 50
92.6966051547046
 51
173.3545336357539
  0
ARC
  5
1605B
330
747D
100
AcDbEntity
  8
細線
 48
50.0
100
AcDbCircle
 10
2612.448433418347
 20
2035.568139086208
 30
0.0
 40
5.0
100
AcDbArc
 50
6.645466364253289
 51
87.30339484529535
  0
ELLIPSE
  5
1605C
330
747D
100
AcDbEntity
  8
部品1
100
AcDbEllipse
 10
2594.099999999997
 20
2018.429621181401
 30
0.0
 11
0.0
 21
9.770631002828395
 31
0.0
210
0.0
220
0.0
230
1.0
 40
0.5117376757501746
 41
4.712388980384689
 42
7.853981633974482
  0
ARC
  5
1613F
330
747D
100
AcDbEntity
  8
部品1
 48
20.0
100
AcDbCircle
 10
2594.099999999995
 20
1645.999999999999
 30
0.0
 40
400.0
100
AcDbArc
 50
87.30339484529553
 51
92.69660515470402
  0
ARC
  5
16140
330
747D
100
AcDbEntity
  8
部品1
100
AcDbCircle
 10
2521.099999999995
 20
2795.0
 30
0.0
 40
60.0
100
AcDbArc
 50
249.9948099118404
 51
263.0680938024154
  0
ARC
  5
16141
330
747D
100
AcDbEntity
  8
部品1
100
AcDbCircle
 10
2536.599999999995
 20
2739.109482020649
 30
0.0
 40
2.0
100
AcDbArc
 50
285.5001785669992
 51
0.0000000000002106
  0
ARC
  5
16142
330
747D
100
AcDbEntity
  8
部品1
100
AcDbCircle
 10
2521.099999999995
 20
2795.0
 30
0.0
 40
58.0
100
AcDbArc
 50
265.0439082357278
 51
274.9560917642727
  0
ARC
  5
16143
330
747D
100
AcDbEntity
  8
部品1
100
AcDbCircle
 10
2528.099999999995
 20
2737.423963318061
 30
0.0
 40
2.0
100
AcDbArc
 50
185.9439989809288
 51
276.931906197585
  0
ARC
  5
16144
330
747D
100
AcDbEntity
  8
部品1
100
AcDbCircle
 10
2521.099999999995
 20
2795.0
 30
0.0
 40
60.0
100
AcDbArc
 50
276.931906197585
 51
285.5001785669987
  0
ARC
  5
16145
330
747D
100
AcDbEntity
  8
部品1
100
AcDbCircle
 10
2514.099999999995
 20
2737.423963318061
 30
0.0
 40
2.0
100
AcDbArc
 50
263.0680938024154
 51
354.0560010190713
  0
ARC
  5
16146
330
747D
100
AcDbEntity
  8
部品1
100
AcDbCircle
 10
2521.099999999995
 20
2760.000000000009
 30
0.0
 40
60.0
100
AcDbArc
 50
74.4998214330009
 51
110.0051900881592
  0
ARC
  5
16147
330
747D
100
AcDbEntity
  8
細線
 48
50.0
100
AcDbCircle
 10
2521.099999999997
 20
2737.810074786312
 30
0.0
 40
60.0
100
AcDbArc
 50
96.93190619758489
 51
110.6983727285578
  0
ARC
  5
16148
330
747D
100
AcDbEntity
  8
細線
 48
50.0
100
AcDbCircle
 10
2521.099999999995
 20
2827.928932188133
 30
0.0
 40
60.0
100
AcDbArc
 50
249.3016272714424
 51
263.0680938024154
  0
LINE
  5
16149
330
747D
100
AcDbEntity
  8
部品1
100
AcDbLine
 10
2498.599999999995
 20
2741.439286785928
 30
0.0
 11
2498.599999999995
 21
2813.560713214081
 31
0.0
  0
ARC
  5
1614A
330
747D
100
AcDbEntity
  8
部品1
100
AcDbCircle
 10
2501.599999999995
 20
2741.439286785928
 30
0.0
 40
3.0
100
AcDbArc
 50
180.0
 51
249.9948099118399
  0
ARC
  5
1614B
330
747D
100
AcDbEntity
  8
部品1
100
AcDbCircle
 10
2501.599999999995
 20
2813.560713214081
 30
0.0
 40
3.0
100
AcDbArc
 50
110.0051900881597
 51
179.9999999999996
  0
ARC
  5
1614C
330
747D
100
AcDbEntity
  8
部品1
100
AcDbCircle
 10
2521.099999999995
 20
2760.000000000009
 30
0.0
 40
58.0
100
AcDbArc
 50
85.04390823572704
 51
94.95609176427182
  0
LINE
  5
1614D
330
747D
100
AcDbEntity
  8
部品1
100
AcDbLine
 10
2538.599999999995
 20
2739.109482020649
 30
0.0
 11
2538.599999999995
 21
2815.890517979358
 31
0.0
  0
ARC
  5
1614E
330
747D
100
AcDbEntity
  8
部品1
100
AcDbCircle
 10
2536.599999999995
 20
2815.890517979358
 30
0.0
 40
2.0
100
AcDbArc
 50
359.9999999999995
 51
74.49982143300052
  0
ARC
  5
1614F
330
747D
100
AcDbEntity
  8
部品1
100
AcDbCircle
 10
2528.099999999995
 20
2817.576036681949
 30
0.0
 40
2.0
100
AcDbArc
 50
83.06809380241473
 51
174.0560010190709
  0
ARC
  5
16150
330
747D
100
AcDbEntity
  8
部品1
100
AcDbCircle
 10
2514.099999999995
 20
2817.576036681949
 30
0.0
 40
2.0
100
AcDbArc
 50
5.943998980928432
 51
96.93190619758423
  0
ARC
  5
16151
330
747D
100
AcDbEntity
  8
細線
 48
50.0
100
AcDbCircle
 10
2521.099999999995
 20
2827.928932188133
 30
0.0
 40
58.0
100
AcDbArc
 50
265.0439082357278
 51
274.9560917642727
  0
ARC
  5
16152
330
747D
100
AcDbEntity
  8
細線
 48
50.0
100
AcDbCircle
 10
2521.099999999997
 20
2737.810074786312
 30
0.0
 40
58.0
100
AcDbArc
 50
85.04390823572766
 51
94.95609176427249
  0
ARC
  5
16153
330
747D
100
AcDbEntity
  8
細線
 48
50.0
100
AcDbCircle
 10
2521.099999999995
 20
2827.928932188133
 30
0.0
 40
60.0
100
AcDbArc
 50
276.931906197585
 51
285.5001785669987
  0
ARC
  5
16154
330
747D
100
AcDbEntity
  8
細線
 48
50.0
100
AcDbCircle
 10
2521.099999999997
 20
2737.810074786312
 30
0.0
 40
60.0
100
AcDbArc
 50
74.49982143300158
 51
83.06809380241526
  0
ARC
  5
16157
330
747D
100
AcDbEntity
  8
部品1
 48
20.0
100
AcDbCircle
 10
3731.448433418349
 20
2035.568139086208
 30
0.0
 40
10.0
100
AcDbArc
 50
6.645466364247081
 51
87.3033948452957
  0
ARC
  5
16158
330
747D
100
AcDbEntity
  8
部品1
 48
20.0
100
AcDbCircle
 10
3694.751566581651
 20
2035.568139086208
 30
0.0
 40
10.0
100
AcDbArc
 50
92.69660515470459
 51
173.3545336357496
  0
ARC
  5
16159
330
747D
100
AcDbEntity
  8
部品1
 48
20.0
100
AcDbCircle
 10
2748.100000000001
 20
1920.999999999992
 30
0.0
 40
1000.0
100
AcDbArc
 50
353.3545336357529
 51
6.645466364247845
  0
ARC
  5
1615A
330
747D
100
AcDbEntity
  8
部品1
 48
20.0
100
AcDbCircle
 10
4678.1
 20
1920.999999999992
 30
0.0
 40
1000.0
100
AcDbArc
 50
173.3545336357521
 51
186.645466364247
  0
ARC
  5
1615B
330
747D
100
AcDbEntity
  8
細線
 48
50.0
100
AcDbCircle
 10
4678.1
 20
1920.999999999992
 30
0.0
 40
995.0
100
AcDbArc
 50
173.3545336357521
 51
186.645466364247
  0
ARC
  5
1615C
330
747D
100
AcDbEntity
  8
細線
 48
50.0
100
AcDbCircle
 10
2748.100000000001
 20
1920.999999999992
 30
0.0
 40
995.0
100
AcDbArc
 50
353.3545336357529
 51
6.645466364247845
  0
ARC
  5
1615D
330
747D
100
AcDbEntity
  8
部品1
 48
20.0
100
AcDbCircle
 10
3713.100000000002
 20
2196.0
 30
0.0
 40
400.0
100
AcDbArc
 50
267.3033948452952
 51
272.6966051547042
  0
ARC
  5
1615E
330
747D
100
AcDbEntity
  8
細線
 48
50.0
100
AcDbCircle
 10
3713.100000000002
 20
2196.0
 30
0.0
 40
395.0
100
AcDbArc
 50
267.3033948452952
 51
272.6966051547042
  0
ARC
  5
1615F
330
747D
100
AcDbEntity
  8
部品1
 48
20.0
100
AcDbCircle
 10
3694.751566581651
 20
1806.43186091379
 30
0.0
 40
10.0
100
AcDbArc
 50
186.6454663642468
 51
267.3033948452939
  0
ARC
  5
16160
330
747D
100
AcDbEntity
  8
細線
 48
50.0
100
AcDbCircle
 10
3694.751566581651
 20
1806.43186091379
 30
0.0
 40
5.0
100
AcDbArc
 50
186.6454663642469
 51
267.3033948452926
  0
ARC
  5
16161
330
747D
100
AcDbEntity
  8
部品1
 48
20.0
100
AcDbCircle
 10
3731.448433418351
 20
1806.43186091379
 30
0.0
 40
10.0
100
AcDbArc
 50
272.6966051547041
 51
353.3545336357534
  0
ARC
  5
16162
330
747D
100
AcDbEntity
  8
細線
 48
50.0
100
AcDbCircle
 10
3731.448433418351
 20
1806.43186091379
 30
0.0
 40
5.0
100
AcDbArc
 50
272.6966051547042
 51
353.3545336357538
  0
ELLIPSE
  5
16163
330
747D
100
AcDbEntity
  8
部品1
100
AcDbEllipse
 10
3713.100000000001
 20
2018.429621181401
 30
0.0
 11
0.0
 21
9.770631002828395
 31
0.0
210
0.0
220
0.0
230
-1.0
 40
0.5117376757501746
 41
4.712388980384689
 42
7.853981633974482
  0
ARC
  5
16164
330
747D
100
AcDbEntity
  8
細線
 48
50.0
100
AcDbCircle
 10
3713.100000000002
 20
1645.999999999999
 30
0.0
 40
395.0
100
AcDbArc
 50
87.30339484529599
 51
92.69660515470446
  0
ELLIPSE
  5
16165
330
747D
100
AcDbEntity
  8
部品1
100
AcDbEllipse
 10
3713.100000000001
 20
1823.570378818596
 30
0.0
 11
0.0
 21
-9.770631002828395
 31
0.0
210
0.0
220
0.0
230
1.0
 40
0.5117376757501746
 41
4.712388980384689
 42
7.853981633974482
  0
LINE
  5
16166
330
747D
100
AcDbEntity
  8
部品1
 48
20.0
100
AcDbLine
 10
3708.1
 20
2018.429621181404
 30
0.0
 11
3708.1
 21
1823.570378818596
 31
0.0
  0
ARC
  5
16167
330
747D
100
AcDbEntity
  8
細線
 48
50.0
100
AcDbCircle
 10
3694.751566581651
 20
2035.568139086208
 30
0.0
 40
5.0
100
AcDbArc
 50
92.69660515470468
 51
173.3545336357467
  0
LINE
  5
16168
330
747D
100
AcDbEntity
  8
部品1
 48
20.0
100
AcDbLine
 10
3718.100000000001
 20
2018.429621181402
 30
0.0
 11
3718.100000000001
 21
1823.570378818596
 31
0.0
  0
ARC
  5
16169
330
747D
100
AcDbEntity
  8
細線
 48
50.0
100
AcDbCircle
 10
3731.448433418349
 20
2035.568139086208
 30
0.0
 40
5.0
100
AcDbArc
 50
6.645466364246064
 51
87.3033948452954
  0
ARC
  5
1616A
330
747D
100
AcDbEntity
  8
部品1
 48
20.0
100
AcDbCircle
 10
3713.100000000002
 20
1645.999999999999
 30
0.0
 40
400.0
100
AcDbArc
 50
87.30339484529599
 51
92.69660515470446
  0
ARC
  5
1616B
330
747D
100
AcDbEntity
  8
部品1
100
AcDbCircle
 10
3770.600000000003
 20
2739.109482020649
 30
0.0
 40
2.0
100
AcDbArc
 50
179.9999999999998
 51
254.4998214330008
  0
ARC
  5
1616C
330
747D
100
AcDbEntity
  8
部品1
100
AcDbCircle
 10
3786.100000000003
 20
2795.0
 30
0.0
 40
60.0
100
AcDbArc
 50
276.9319061975846
 51
290.0051900881596
  0
ARC
  5
1616D
330
747D
100
AcDbEntity
  8
部品1
100
AcDbCircle
 10
3793.100000000003
 20
2737.423963318061
 30
0.0
 40
2.0
100
AcDbArc
 50
185.9439989809287
 51
276.9319061975846
  0
ARC
  5
1616E
330
747D
100
AcDbEntity
  8
部品1
100
AcDbCircle
 10
3786.100000000003
 20
2795.0
 30
0.0
 40
60.0
100
AcDbArc
 50
254.4998214330012
 51
263.068093802415
  0
ARC
  5
1616F
330
747D
100
AcDbEntity
  8
部品1
100
AcDbCircle
 10
3779.100000000003
 20
2737.423963318061
 30
0.0
 40
2.0
100
AcDbArc
 50
263.068093802415
 51
354.0560010190712
  0
ARC
  5
16170
330
747D
100
AcDbEntity
  8
部品1
100
AcDbCircle
 10
3786.100000000003
 20
2795.0
 30
0.0
 40
58.0
100
AcDbArc
 50
265.0439082357273
 51
274.9560917642722
  0
ARC
  5
16171
330
747D
100
AcDbEntity
  8
部品1
100
AcDbCircle
 10
3805.600000000003
 20
2813.560713214081
 30
0.0
 40
3.0
100
AcDbArc
 50
0.0000000000003257
 51
69.99480991184026
  0
ARC
  5
16172
330
747D
100
AcDbEntity
  8
部品1
100
AcDbCircle
 10
3793.100000000003
 20
2817.576036681949
 30
0.0
 40
2.0
100
AcDbArc
 50
83.06809380241576
 51
174.0560010190715
  0
ARC
  5
16173
330
747D
100
AcDbEntity
  8
部品1
100
AcDbCircle
 10
3805.600000000003
 20
2741.439286785928
 30
0.0
 40
3.0
100
AcDbArc
 50
290.0051900881601
 51
0.0
  0
LINE
  5
16174
330
747D
100
AcDbEntity
  8
部品1
100
AcDbLine
 10
3808.600000000002
 20
2741.439286785928
 30
0.0
 11
3808.600000000002
 21
2813.560713214081
 31
0.0
  0
ARC
  5
16175
330
747D
100
AcDbEntity
  8
細線
 48
50.0
100
AcDbCircle
 10
3786.100000000003
 20
2827.928932188133
 30
0.0
 40
60.0
100
AcDbArc
 50
276.9319061975846
 51
290.6983727285576
  0
ARC
  5
16176
330
747D
100
AcDbEntity
  8
細線
 48
50.0
100
AcDbCircle
 10
3786.100000000001
 20
2737.810074786312
 30
0.0
 40
60.0
100
AcDbArc
 50
69.30162727144211
 51
83.0680938024151
  0
ARC
  5
16177
330
747D
100
AcDbEntity
  8
部品1
100
AcDbCircle
 10
3779.100000000003
 20
2817.576036681949
 30
0.0
 40
2.0
100
AcDbArc
 50
5.943998980929121
 51
96.93190619758528
  0
ARC
  5
16178
330
747D
100
AcDbEntity
  8
部品1
100
AcDbCircle
 10
3770.600000000003
 20
2815.890517979358
 30
0.0
 40
2.0
100
AcDbArc
 50
105.5001785669995
 51
180.0000000000005
  0
LINE
  5
16179
330
747D
100
AcDbEntity
  8
部品1
100
AcDbLine
 10
3768.600000000002
 20
2739.109482020649
 30
0.0
 11
3768.600000000002
 21
2815.890517979358
 31
0.0
  0
ARC
  5
1617A
330
747D
100
AcDbEntity
  8
細線
 48
50.0
100
AcDbCircle
 10
3786.100000000001
 20
2737.810074786312
 30
0.0
 40
60.0
100
AcDbArc
 50
96.93190619758475
 51
105.5001785669984
  0
ARC
  5
1617B
330
747D
100
AcDbEntity
  8
細線
 48
50.0
100
AcDbCircle
 10
3786.100000000003
 20
2827.928932188133
 30
0.0
 40
60.0
100
AcDbArc
 50
254.4998214330012
 51
263.068093802415
  0
ARC
  5
1617C
330
747D
100
AcDbEntity
  8
部品1
100
AcDbCircle
 10
3786.100000000003
 20
2760.000000000009
 30
0.0
 40
60.0
100
AcDbArc
 50
69.99480991184078
 51
105.5001785669991
  0
ARC
  5
1617D
330
747D
100
AcDbEntity
  8
部品1
100
AcDbCircle
 10
3786.100000000003
 20
2760.000000000009
 30
0.0
 40
58.0
100
AcDbArc
 50
85.04390823572817
 51
94.95609176427299
  0
ARC
  5
1617E
330
747D
100
AcDbEntity
  8
細線
 48
50.0
100
AcDbCircle
 10
3786.100000000001
 20
2737.810074786312
 30
0.0
 40
58.0
100
AcDbArc
 50
85.04390823572753
 51
94.95609176427235
  0
ARC
  5
1617F
330
747D
100
AcDbEntity
  8
細線
 48
50.0
100
AcDbCircle
 10
3786.100000000003
 20
2827.928932188133
 30
0.0
 40
58.0
100
AcDbArc
 50
265.0439082357273
 51
274.9560917642722
  0
LINE
  5
16190
330
747D
100
AcDbEntity
  8
部品1
100
AcDbLine
 10
6044.467666557108
 20
509.9461607727662
 30
0.0
 11
5662.732333442889
 21
509.9461607727662
 31
0.0
  0
LINE
  5
16191
330
747D
100
AcDbEntity
  8
部品1
100
AcDbLine
 10
5662.732333442889
 20
390.0
 30
0.0
 11
6044.467666557108
 21
390.0
 31
0.0
  0
TEXT
  5
16192
330
747D
100
AcDbEntity
  8
部品1
100
AcDbText
 10
5707.455384154693
 20
413.4993961635045
 30
0.0
 40
67.5
  1
側面図
  7
STYLE2
100
AcDbText
  0
LINE
  5
16193
330
747D
100
AcDbEntity
  8
部品1
100
AcDbLine
 10
5662.732333442889
 20
509.9461607727662
 30
0.0
 11
5662.732333442889
 21
390.0
 31
0.0
  0
LINE
  5
16194
330
747D
100
AcDbEntity
  8
部品1
100
AcDbLine
 10
6044.467666557108
 20
390.0
 30
0.0
 11
6044.467666557108
 21
509.9461607727662
 31
0.0
  0
OLE2FRAME
  5
16536
330
747D
100
AcDbEntity
  8
寸法
 48
50.0
100
AcDbOle2Frame
 70
     2
  3
Microsoft Office Excel ワークシート
 10
6553.591699265486
 20
5700.859317874522
 30
0.0
 11
8151.507359507411
 21
4741.322846016337
 31
0.0
 71
     2
 72
     0
 73
     1
 90
    19072
310
805554629A799799B940F19741FCDB44B6400000000000000000A60B50E281D7
310
BF40F19741FCDB44B6400000000000000000A60B50E281D7BF40CF5909A65285
310
B240000000000000000054629A799799B940CF5909A65285B240000000000000
310
00003D1FB01201000000000100001200000001000000010001000000004A0000
310
D0CF11E0A1B11AE1000000000000000000000000000000003E000300FEFF0900
310
0600000000000000000000000100000001000000000000000010000002000000
310
01000000FEFFFFFF0000000000000000FFFFFFFFFFFFFFFFFFFFFFFFFFFFFFFF
310
FFFFFFFFFFFFFFFFFFFFFFFFFFFFFFFFFFFFFFFFFFFFFFFFFFFFFFFFFFFFFFFF
310
FFFFFFFFFFFFFFFFFFFFFFFFFFFFFFFFFFFFFFFFFFFFFFFFFFFFFFFFFFFFFFFF
310
FFFFFFFFFFFFFFFFFFFFFFFFFFFFFFFFFFFFFFFFFFFFFFFFFFFFFFFFFFFFFFFF
310
FFFFFFFFFFFFFFFFFFFFFFFFFFFFFFFFFFFFFFFFFFFFFFFFFFFFFFFFFFFFFFFF
310
FFFFFFFFFFFFFFFFFFFFFFFFFFFFFFFFFFFFFFFFFFFFFFFFFFFFFFFFFFFFFFFF
310
FFFFFFFFFFFFFFFFFFFFFFFFFFFFFFFFFFFFFFFFFFFFFFFFFFFFFFFFFFFFFFFF
310
FFFFFFFFFFFFFFFFFFFFFFFFFFFFFFFFFFFFFFFFFFFFFFFFFFFFFFFFFFFFFFFF
310
FFFFFFFFFFFFFFFFFFFFFFFFFFFFFFFFFFFFFFFFFFFFFFFFFFFFFFFFFFFFFFFF
310
FFFFFFFFFFFFFFFFFFFFFFFFFFFFFFFFFFFFFFFFFFFFFFFFFFFFFFFFFFFFFFFF
310
FFFFFFFFFFFFFFFFFFFFFFFFFFFFFFFFFFFFFFFFFFFFFFFFFFFFFFFFFFFFFFFF
310
FFFFFFFFFFFFFFFFFFFFFFFFFFFFFFFFFFFFFFFFFFFFFFFFFFFFFFFFFFFFFFFF
310
FFFFFFFFFFFFFFFFFFFFFFFFFFFFFFFFFFFFFFFFFFFFFFFFFFFFFFFFFFFFFFFF
310
FFFFFFFFFFFFFFFFFFFFFFFFFFFFFFFFFFFFFFFFFFFFFFFFFFFFFFFFFFFFFFFF
310
FDFFFFFF0F000000FEFFFFFF1000000005000000060000000700000008000000
310
090000000A0000000B0000000C0000000D0000000E000000FEFFFFFF1A000000
310
1100000012000000130000001400000015000000160000001700000018000000
310
19000000FEFFFFFFFEFFFFFF1C0000001D0000001E0000001F00000020000000
310
210000002200000023000000FEFFFFFFFFFFFFFFFFFFFFFFFFFFFFFFFFFFFFFF
310
FFFFFFFFFFFFFFFFFFFFFFFFFFFFFFFFFFFFFFFFFFFFFFFFFFFFFFFFFFFFFFFF
310
FFFFFFFFFFFFFFFFFFFFFFFFFFFFFFFFFFFFFFFFFFFFFFFFFFFFFFFFFFFFFFFF
310
FFFFFFFFFFFFFFFFFFFFFFFFFFFFFFFFFFFFFFFFFFFFFFFFFFFFFFFFFFFFFFFF
310
FFFFFFFFFFFFFFFFFFFFFFFFFFFFFFFFFFFFFFFFFFFFFFFFFFFFFFFFFFFFFFFF
310
FFFFFFFFFFFFFFFFFFFFFFFFFFFFFFFFFFFFFFFFFFFFFFFFFFFFFFFFFFFFFFFF
310
FFFFFFFFFFFFFFFFFFFFFFFFFFFFFFFFFFFFFFFFFFFFFFFFFFFFFFFFFFFFFFFF
310
FFFFFFFFFFFFFFFFFFFFFFFFFFFFFFFFFFFFFFFFFFFFFFFFFFFFFFFFFFFFFFFF
310
FFFFFFFFFFFFFFFFFFFFFFFFFFFFFFFFFFFFFFFFFFFFFFFFFFFFFFFFFFFFFFFF
310
FFFFFFFFFFFFFFFFFFFFFFFFFFFFFFFFFFFFFFFFFFFFFFFFFFFFFFFFFFFFFFFF
310
FFFFFFFFFFFFFFFFFFFFFFFFFFFFFFFFFFFFFFFFFFFFFFFFFFFFFFFFFFFFFFFF
310
FFFFFFFFFFFFFFFFFFFFFFFFFFFFFFFFFFFFFFFFFFFFFFFFFFFFFFFFFFFFFFFF
310
52006F006F007400200045006E00740072007900000000000000000000000000
310
0000000000000000000000000000000000000000000000000000000000000000
310
16000500FFFFFFFFFFFFFFFF010000002008020000000000C000000000000046
310
00000000000000000000000020CC2FB6C99EC801030000008015000000000000
310
57006F0072006B0062006F006F006B0000000000000000000000000000000000
310
0000000000000000000000000000000000000000000000000000000000000000
310
120002010500000003000000FFFFFFFF00000000000000000000000000000000
310
000000000000000000000000000000000000000004000000DF14000000000000
310
010043006F006D0070004F0062006A0000000000000000000000000000000000
310
0000000000000000000000000000000000000000000000000000000000000000
310
12000200FFFFFFFFFFFFFFFFFFFFFFFF00000000000000000000000000000000
310
0000000000000000000000000000000000000000000000006900000000000000
310
0500530075006D006D0061007200790049006E0066006F0072006D0061007400
310
69006F006E000000000000000000000000000000000000000000000000000000
310
280002000600000004000000FFFFFFFF00000000000000000000000000000000
310
000000000000000000000000000000000000000002000000D000000000000000
310
01000000FEFFFFFF030000000400000005000000FEFFFFFF0700000008000000
310
090000000A000000FEFFFFFFFEFFFFFFFFFFFFFFFFFFFFFFFFFFFFFFFFFFFFFF
310
FFFFFFFFFFFFFFFFFFFFFFFFFFFFFFFFFFFFFFFFFFFFFFFFFFFFFFFFFFFFFFFF
310
FFFFFFFFFFFFFFFFFFFFFFFFFFFFFFFFFFFFFFFFFFFFFFFFFFFFFFFFFFFFFFFF
310
FFFFFFFFFFFFFFFFFFFFFFFFFFFFFFFFFFFFFFFFFFFFFFFFFFFFFFFFFFFFFFFF
310
FFFFFFFFFFFFFFFFFFFFFFFFFFFFFFFFFFFFFFFFFFFFFFFFFFFFFFFFFFFFFFFF
310
FFFFFFFF32000000330000003400000035000000360000003700000038000000
310
390000003A0000003B0000003C0000003D0000003E0000003F00000040000000
310
4100000042000000430000004400000045000000460000004700000048000000
310
490000004A0000004B0000004C0000004D0000004E0000004F00000050000000
310
5100000052000000530000005400000055000000FEFFFFFFFFFFFFFFFFFFFFFF
310
FFFFFFFFFFFFFFFFFFFFFFFFFFFFFFFFFFFFFFFFFFFFFFFFFFFFFFFFFFFFFFFF
310
FFFFFFFFFFFFFFFFFFFFFFFFFFFFFFFFFFFFFFFFFFFFFFFFFFFFFFFFFFFFFFFF
310
FFFFFFFFFFFFFFFFFFFFFFFFFFFFFFFFFFFFFFFFFFFFFFFFFFFFFFFFFFFFFFFF
310
FFFFFFFFFFFFFFFFFFFFFFFFFFFFFFFFFFFFFFFFFFFFFFFFFFFFFFFFFFFFFFFF
310
FFFFFFFFFFFFFFFFFFFFFFFFFFFFFFFFFFFFFFFFFFFFFFFFFFFFFFFFFFFFFFFF
310
0100FEFF030A0000FFFFFFFF2008020000000000C0000000000000461D000000
310
4D6963726F736F667420457863656C20838F815B834E8356815B836700060000
310
004269666638000E000000457863656C2E53686565742E3800F439B271000000
310
0000000000000000000000000000000000000000000000000000000000000000
310
FEFF0000040A02000000000000000000000000000000000001000000E0859FF2
310
F94F6810AB9108002B27B3D930000000A0000000070000000100000040000000
310
0400000048000000080000005800000012000000680000000C00000080000000
310
0D0000008C000000130000009800000002000000A40300001E00000007000000
310
909B96EC90BD00001E000000050000004E455A5500BD00001E00000010000000
310
4D6963726F736F667420457863656C004000000080A21A0EE4E2BE0140000000
310
80763283B05BC301030000000000000000000000000000000000000000000000
310
0000000000000000000000000000000000000000000000000000000000000000
310
FEFF0000040A0200000000000000000000000000000000000100000002D5CDD5
310
9C2E1B10939708002B2CF9AE30000000EC000000090000000100000050000000
310
0F0000005800000017000000740000000B0000007C0000001000000084000000
310
130000008C00000016000000940000000D0000009C0000000C000000C5000000
310
0908100000060500FE1CCD074140000006010000E1000200B004C10002000000
310
E20000005C0070000400004E455A552020202020202020202020202020202020
310
2020202020202020202020202020202020202020202020202020202020202020
310
2020202020202020202020202020202020202020202020202020202020202020
310
20202020202020202020202020202020202020202020202042000200B0046101
310
02000000C00100003D0106000100020003009C0002000E00DE000800A4270100
310
0B000103190002000000120002000000130002000000AF0102000000BC010200
310
00003D0012008403FF00FC21C012380000000000010058024000020000008D00
310
020000002200020000000E0002000100B70102000000DA000200000031002000
310
DC000000FF7F900100000000800008012DFF33FF200030FFB430B730C330AF30
310
31002000DC000000FF7F900100000000800008012DFF33FF200030FFB430B730
310
C330AF3031002000DC000000FF7F900100000000800008012DFF33FF200030FF
310
B430B730C330AF3031002000DC000000FF7F900100000000800008012DFF33FF
310
200030FFB430B730C330AF303100200078000000FF7F90010000000380000801
310
2DFF33FF200030FFB430B730C330AF301E0418000500130000225C22232C2323
310
303B225C225C2D232C2323301E041D000600180000225C22232C2323303B5B52
310
65645D225C225C2D232C2323301E041E000700190000225C22232C2323302E30
310
303B225C225C2D232C2323302E30301E04230008001E0000225C22232C232330
310
2E30303B5B5265645D225C225C2D232C2323302E30301E0437002A003200005F
310
20225C222A20232C2323305F203B5F20225C222A205C2D232C2323305F203B5F
310
20225C222A20222D225F203B5F20405F201E042E0029002900005F202A20232C
310
2323305F203B5F202A205C2D232C2323305F203B5F202A20222D225F203B5F20
310
405F201E043F002C003A00005F20225C222A20232C2323302E30305F203B5F20
310
225C222A205C2D232C2323302E30305F203B5F20225C222A20222D223F3F5F20
310
3B5F20405F201E0436002B003100005F202A20232C2323302E30305F203B5F20
310
2A205C2D232C2323302E30305F203B5F202A20222D223F3F5F203B5F20405F20
310
1E041A0017001500005C24232C2323305F293B5C285C24232C2323305C291E04
310
1F0018001A00005C24232C2323305F293B5B5265645D5C285C24232C2323305C
310
291E04200019001B00005C24232C2323302E30305F293B5C285C24232C232330
310
2E30305C291E0425001A002000005C24232C2323302E30305F293B5B5265645D
310
5C285C24232C2323302E30305C29E000140000000000F5FF2000000000000000
310
00000000C020E000140001000000F5FF200000F40000000000000000C020E000
310
140001000000F5FF200000F40000000000000000C020E000140002000000F5FF
310
200000F40000000000000000C020E000140002000000F5FF200000F400000000
310
00000000C020E000140000000000F5FF200000F40000000000000000C020E000
310
140000000000F5FF200000F40000000000000000C020E000140000000000F5FF
310
200000F40000000000000000C020E000140000000000F5FF200000F400000000
310
00000000C020E000140000000000F5FF200000F40000000000000000C020E000
310
140000000000F5FF200000F40000000000000000C020E000140000000000F5FF
310
200000F40000000000000000C020E000140000000000F5FF200000F400000000
310
00000000C020E000140000000000F5FF200000F40000000000000000C020E000
310
140000000000F5FF200000F40000000000000000C020E0001400000000000100
310
200000000000000000000000C020E000140001000900F5FF200000F800000000
310
00000000C020E000140001002600F5FF200000F80000000000000000C020E000
310
140001002800F5FF200000F80000000000000000C020E000140001000600F5FF
310
200000F80000000000000000C020E000140001000800F5FF200000F800000000
310
00000000C020E0001400000000000100220000100000000000000000C020E000
310
1400000000000100200000200101400040000000C020E0001400000000000100
310
200000200001000040000000C020E00014000000000001002000002010010020
310
40000000C020E0001400000000000100220000300100400000000000C020E000
310
1400000000000100200000200000000000000000C020E0001400000000000100
310
220000301000002000000000C020E00014000000000001002200003001104000
310
00200000C020E0001400000000000100200000200010000000200000C020E000
310
1400000000000100220000301010002000200000C02093020400108005FF9302
310
0400118006FF93020400128003FF93020400138007FF93020400148004FF9302
310
0400008000FF60010200000085000E00AF090000000006005368656574318500
310
0E004A1100000000060053686565743285000E003D1200000000060053686565
310
74338C00040051005100C1010800C101000080380100FC005302160000001200
310
0000020001C1546A75030001E890C1540D541A00014600310032009221B66E8D
310
879C4E5B92813063304D30FC927F67200028004A004900530020004700200033
310
00330030003200290005000120002000D930FC30B93007000120002000D930FC
310
30B9300B4EA0670400012000200074507F671900004631322020202020202020
310
2020202020202020202020302E36060001200020008A5ED130CD30EB30100001
310
5067996528005067EA8C290020002000200020002000200058534D4F6D006D00
310
19000410000000463132202020202020202020202020202020312E302C312E36
310
01000C000500350000000000000000000F0005100000003B20D930FC30B930BF
310
8A7465C47BF25620001AFF2000330032006D006D0001000C0005003500000000
310
0000000000030004100000004B4D5801000C0005003500000000000000000003
310
00052400000000308C5F7F670100200005003500020005000500A630B730ED30
310
A430BF3000000100010003000200010004000518000000200020004B5C396801
310
00140005003500010002000200E430CD300000020002000300051A0000002000
310
200049620100160005003500010003000300C830D330E9300000020001001900
310
041000000046313220202020202020202020202020202020202020302E360100
310
0C00050035000000000000000000190004100000004631322020202020202020
310
2020202020202020202020302E3501000C000500350000000000000000000800
310
051800000020002000DA687F67280032009A6729000100140005003500010002
310
000200DE30A430000006000100FF001A000800420700000C000000DD070000A7
310
0000002E090000F80100000A0000000908100000061000FE1CCD074140000006
310
0100000D00020001000C00020064000F000200010011000200000010000800FC
310
A9F1D24D62503F5F00020001002A00020000002B000200000082000200010080
310
00080000000000000000002502040000000E0181000200C10414000000150000
310
008300020000008400020000004D00460300004500500053004F004E0020004C
310
0050002D003800330030003000000084FF000000000C000000000000009CFF2F
310
0000006A004E0061FF4B00200000000000040000042806D40070020303000002
310
000800773D0000640001000700580201000100580200000000FB302E00560077
310
003D009EFF2F009FFF2F000E00FB3023005700010077003D009EFF2F009EFF2F
310
006F000100FB306F0001006000FB30000000000000000000009F01473D000000
310
00040000000000F7000202EF00A0A0173D00F33A87403D000018010000448795
310
7F470115B1F9BF00000000010000000000000008000000010000005734F08704
310
00000000000000000086003634F7BF7742F7BF00000000090009000D000C0001
310
020B0001000600050007000E00250014001B001C000300030204020900090000
310
010000F2F78600534C3031D4F786005745F9BF000001007012781A0100701278
310
1A01000200010003000200030000000000000000000010000001000100000000
310
0000000000000000000000000000000200444C4C4E616D6531363D4550474147
310
32334A2E4452560048BF485F0140880300040001000500010001000100000000
310
0000003088A4DDB8480000BF48000001000000A848000000005F010000000064
310
00000002000200000000000000010000000200009B0000000000000000EF00F4
310
3A3000473D040000001F017288B20A4701BE48AA195E001F011C89E51B47012C
310
00973D6500FFFF98006F019F34270601000000AE480000434F4D4D4354524C00
310
4C4C0000494E444F57535C53595354454D5C4550474147323349274701700808
310
000100B848000018010000D288957F4701987F180101005F011489FB4A470164
310
135F0100000000F8000000F288957F4701987FB8481F015F012C89884C470164
310
135F0100000000F80000002C8900001C89B848473D180100002089957F470198
310
7F180101005F016289FB4A470164135F01B848473D18010000628900004A89A4
310
DD5689000001000000010000001801000047410000F700110002000000000014
310
0019000000320000000000000000000100000003000100000000000000010000
310
0000000100000001000100010000000000000000000000000000000000000000
310
0000000000000000000000000000000000000000000400A10022000800640001
310
00010001000000FCFF0000FCA9F1D24D62E03FFCA9F1D24D62E03F0100550002
310
0008007D000C0000000000600B0F00020000007D000C0001000100A0040F0002
310
0000007D000C0002000200A0100F00020000007D000C0003000300A0130F0002
310
00000000020E00010000000C000000000004000000080210000100000004000E
310
010000000000010F00080210000200000004000E010000000000010F00080210
310
000300000004000E010000000000010F00080210000400000004000E01000000
310
0000010F00080210000500000004000E010000000000010F0008021000060000
310
0004000E010000000000010F00080210000700000004000E010000000000010F
310
00080210000800000004000E010000000000010F00080210000900000004000E
310
010000000000010F00080210000A00000004000E010000000000010F00080210
310
000B00000004000E010000000000010F00FD000A00010000000F000B000000FD
310
000A0001000100160000000000FD000A0001000200170001000000FD000A0001
310
00030018000800000001020600020000000F007E020A000200010019000000F0
310
3FFD000A00020002001A0003000000FD000A00020003001B0009000000010206
310
00030000000F007E020A0003000100190000000040FD000A00030002001A0004
310
000000FD000A00030003001B000900000001020600040000000F007E020A0004
310
000100190000000840FD000A00040002001A0005000000FD000A00040003001B
310
001000000001020600050000000F007E020A0005000100190000001040FD000A
310
00050002001A000C000000FD000A00050003001B000F00000001020600060000
310
000F007E020A0006000100190000001440FD000A00060002001A000D000000FD
310
000A00060003001B000F00000001020600070000000F007E020A000700010019
310
0000001840FD000A00070002001A000E000000FD000A00070003001B00060000
310
0001020600080000000F007E020A0008000100190000001C40FD000A00080002
310
001A0007000000FD000A00080003001B000600000001020600090000000F007E
310
020A00090001001C0000002040FD000A00090002001D0011000000FD000A0009
310
0003001E0006000000010206000A0000000F00FD000A000A0001000F00020000
310
00BE000A000A0002000F0015000300010206000B0000000F00FD000A000B0001
310
000F000A000000BE000A000B0002000F0015000300D7001A0000030000C80038
310
003400340034003400340034003400340026003E021200B60600000000400000
310
0000000000000000001D000F00030A000200000001000A000A000202EF000600
310
0500350000000A0000000908100000061000FE1CCD0741400000060100000D00
310
020001000C00020064000F000200010011000200000010000800FCA9F1D24D62
310
503F5F00020001002A00020000002B0002000000820002000100800008000000
310
0000000000002502040000000E0181000200C104140000001500000083000200
310
0000840002000000A100220000000E01010001000100040000020202FCA9F1D2
310
4D62E03FFCA9F1D24D62E03F010055000200080000020E000000000000000100
310
0000000000003E021200B600000000004000000000000000000000001D000F00
310
030000000000000100000000000000EF0006000500350000000A000000090810
310
0000061000FE1CCD0741400000060100000D00020001000C00020064000F0002
310
00010011000200000010000800FCA9F1D24D62503F5F00020001002A00020000
310
002B00020000008200020001008000080000000000000000002502040000000E
310
0181000200C1041400000015000000830002000000840002000000A100220000
310
000E01010001000100040000000000FCA9F1D24D62E03FFCA9F1D24D62E03F01
310
0055000200080000020E0000000000000001000000000000003E021200B60000
310
0000004000000000000000000000001D000F0003000000000000010000000000
310
0000EF0006000500350000000A0000000000000100000000000000EF00060005
310
00350000000A0000001200B600000000004000000000000000000000001D000F
310
00030000000000000100000000000000EF0006000500350000000A0000000101
310
0001000100040100010303FCA9F1D24D62E03FFCA9F1D24D62E03FFF20550002
310
00080000020E0000000000000001000000000000003E021200B6000000000040
310
00000000000000000000001D000F00030000000000000100000000000000EF00
310
06000500350000000A0000000908100000061000FE1CCD074140000006010000
310
0D00020001000C00020064000F000200010011000200000010000800FCA9F1D2
310
4D62503F5F00020001002A00020000002B000200000082000200010080000800
310
00000000000000002502040000000E0181000200C10414000000150000008300
310
02000000840002000000A100220000000E01010001000100040000000000FCA9
310
F1D24D62E03FFCA9F1D24D62E03FFF2055000200080000020E00000000000000
310
01000000000000003E021200B600000000004000000000000000000000001D00
310
0F00030000000000000100000000000000EF0006000500350000000A00000000
310
0000000000000000000000000000000000000000000000000000000000000000
310
0000000000000000000000000000000000000000000000000000000000000000
310
0000000000000000000000000000000000000000000000000000000000000000
310
0000000000000000000000000000000000000000000000000000000000000000
310
0000000000000000000000000000000000000000000000000000000000000000
310
0000000000000000000000000000000000000000000000000000000000000000
310
0000000000000000000000000000000000000000000000000000000000000000
310
0000000000000000000000000000000000000000000000000000000000000000
310
0000000000000000000000000000000000000000000000000000000000000000
310
050044006F00630075006D0065006E007400530075006D006D00610072007900
310
49006E0066006F0072006D006100740069006F006E0000000000000000000000
310
38000201FFFFFFFFFFFFFFFFFFFFFFFF00000000000000000000000000000000
310
0000000000000000000000000000000000000000060000001C01000000000000
310
01004F006C006500000000000000000000000000000000000000000000000000
310
0000000000000000000000000000000000000000000000000000000000000000
310
0A000201FFFFFFFF02000000FFFFFFFF00000000000000000000000000000000
310
00000000000000000000000000000000000000000B0000003B00000000000000
310
02004F006C006500500072006500730030003000300000000000000000000000
310
0000000000000000000000000000000000000000000000000000000000000000
310
18000201FFFFFFFF07000000FFFFFFFF00000000000000000000000000000000
310
00000000000000000000000000000000000000001B0000004A10000000000000
310
02004F006C006500500072006500730030003000310000000000000000000000
310
0000000000000000000000000000000000000000000000000000000000000000
310
18000200FFFFFFFFFFFFFFFFFFFFFFFF00000000000000000000000000000000
310
0000000000000000000000000000000000000000310000001009000000000000
310
02000000A40300001E0000001100000081698A94816A88EE977490BB8DEC8F8A
310
0067007403000000ED0E09000B000000000000000B000000000000000B000000
310
000000000B000000000000001E10000003000000070000005368656574310007
310
0000005368656574320007000000536865657433000C100000020000001E0000
310
000D000000838F815B834E8356815B8367000300000003000000000000000000
310
0000000000000000000000000000000000000000000000000000000000000000
310
010000020000000000000000000000002B0000000403000000000000C0000000
310
00000046020000005C000D000000456D62656464696E67203138000000000000
310
FFFFFFFF030000000400000001000000FFFFFFFF0200000000000000E6210000
310
91140000041000000100090000036B04000005003D0000000000050000000902
310
00000000050000000102FFFFFF000400000004010D0004000000020102000500
310
00000C026A046107030000001E00040000002701FFFF030000001E0004000000
310
2701FFFF050000000B0200000000030000001E00050000000102FFFFFF000500
310
0000090200000000040000002701FFFF030000001E00050000000102FFFFFF00
310
050000000902000000000700000016046904600700000000040000002701FFFF
310
030000001E00050000000102FFFFFF0005000000090200000000070000001604
310
690460070000000015000000FB02A4FF00000000000090010000008000000000
310
826C827220826F835383568362834E008000040000002D010000040000000401
310
0D0004000000020101000D000000320A0900140004000000956994D45C000000
310
5C00000010000000320A0900E900060000009594956996BC5C0000005C000000
310
5C00000028000000320A0900E603160000008DDE97BF288DDE8EBF2920202020
310
2020925088CA6D6D5C0000005C0000001C005C0000005C0000001C001C001C00
310
1C001C001C001C005C0000005C0000004400440009000000320A6F005B000100
310
000031002E0013000000320A6F00E9000800000020208378815B83581C001C00
310
5700000058000000530000002D000000320A6F000B0419000000463132202020
310
202020202020202020202020312E302C312E360033002E002E001C001C001C00
310
1C001C001C001C001C001C001C001C001C001C001C001C002E0013002E001300
310
2E0013002E0009000000320AD5005B000100000032002E0019000000320AD500
310
E9000C00000020208378815B835889BA98671C001C0057000000580000005300
310
00005C0000005C0000002D000000320AD5000B04190000004631322020202020
310
20202020202020202020312E362C312E300033002E002E001C001C001C001C00
310
1C001C001C001C001C001C001C001C001C001C001C002E0013002E0013002E00
310
13002E0009000000320A3B015B000100000033002E0010000000320A3B01E900
310
06000000202091A494C21C001C005C0000005C0000002D000000320A3B011404
310
1900000046313220202020202020202020202020202020202020302E36003300
310
2E002E001C001C001C001C001C001C001C001C001C001C001C001C001C001C00
310
1C001C001C001C001C002E0013002E0009000000320AA1015B00010000003400
310
2E0010000000320AA101E9000600000081408CE394C23D0000005C0000005C00
310
00002E000000320AA10111041A00000082653132202020202020202020202020
310
20202020202020302E353A0000002E002E001C001C001C001C001C001C001C00
310
1C001C001C001C001C001C001C001C001C001C001C001C002E0013002E000900
310
0000320A07025B000100000035002E0010000000320A0702E900060000002020
310
89AE8DAA1C001C005C0000005C0000002E000000320A070211041A0000008265
310
313220202020202020202020202020202020202020302E363A0000002E002E00
310
1C001C001C001C001C001C001C001C001C001C001C001C001C001C001C001C00
310
1C001C001C002E0013002E0009000000320A6D025B000100000036002E000D00
310
0000320A6D02E90004000000202094E01C001C005C0000002D000000320A6D02
310
14041900000046313220202020202020202020202020202020202020302E3600
310
33002E002E001C001C001C001C001C001C001C001C001C001C001C001C001C00
310
1C001C001C001C001C001C002E0013002E0009000000320AD3025B0001000000
310
37002E0016000000320AD302E9000A00000020208FB08370836C838B1C001C00
310
5C0000005C000000560000005C0000002D000000320AD3021404190000004631
310
3220202020202020202020202020202020202020302E360033002E002E001C00
310
1C001C001C001C001C001C001C001C001C001C001C001C001C001C001C001C00
310
1C001C002E0013002E0009000000320A39035B000100000038002E0010000000
310
320A3903E900060000002020924994C21C001C005C0000005C0000002D000000
310
320A390314041900000046313220202020202020202020202020202020202020
310
302E360033002E002E001C001C001C001C001C001C001C001C001C001C001C00
310
1C001C001C001C001C001C001C001C002E0013002E003D000000320A9F031400
310
2400000046313281A8976E975A889F899482DF82C182AB8D7C94C220284A4953
310
204720333330322933002E002E005C0000005C0000005C0000005C0000005C00
310
00005A0000004A0000004E0000005C0000005C0000001C001C00320017003700
310
1C003F001C002E002E002E002E001C002B000000320A050414001800000081A6
310
8378815B835892B290AE94CD88CD2081462033326D6D5C000000570000005800
310
0000530000005C0000005C0000005C0000005C0000001C002E0000001C002E00
310
2E004400440010000000FB021200080000000000900100000080010202025379
310
7374656D0080040000002D010100040000002701FFFF030000001E0004000000
310
2D010000050000000102FFFFFF00050000000902000000000700000016046A04
310
61070000000007000000FC020000000000000000040000002D01020004000000
310
04010D00040000000201020009000000FA020000000000000000000022000400
310
00002D010300050000001402000000000500000013029E03000009000000FA02
310
000000000000000000002200040000002D010400090000001D062100F0009E03
310
080000000000040000002D0103000500000014026A0059070500000013029E03
310
5907040000002D010400090000001D062100F000340308006A00590704000000
310
2D0103000500000014020000080005000000130200005E07040000002D010400
310
090000001D062100F0000800560700000800040000002D010300050000001402
310
9603080005000000130296036107040000002D010400090000001D062100F000
310
0800590796030800040000002D010200040000002D010100040000002701FFFF
310
030000001E00040000002D010000050000000102FFFFFF000500000009020000
310
00000700000016046904600700000000040000002701FFFF0300000000000000
310
0000000000000000000000000000000000000000000000000000000000000000
310
0000000000000000000000000000000000000000000000000000000000000000
310
FFFFFFFF030000000400000004000000FFFFFFFF07000000000000003D1F0000
310
B0120000D60800000100090000036B04000005003D0000000000050000000902
310
00000000050000000102FFFFFF000400000004010D0004000000020102000500
310
00000C026A046107030000001E00040000002701FFFF030000001E0004000000
310
2701FFFF050000000B0200000000030000001E00050000000102FFFFFF000500
310
0000090200000000040000002701FFFF030000001E00050000000102FFFFFF00
310
050000000902000000000700000016046904600700000000040000002701FFFF
310
030000001E00050000000102FFFFFF0005000000090200000000070000001604
310
690460070000000015000000FB02A4FF00000000000090010000008000000000
310
826C827220826F835383568362834E008000040000002D010000040000000401
310
0D0004000000020101000D000000320A0900140004000000956994D45C000000
310
5C00000010000000320A0900E900060000009594956996BC5C0000005C000000
310
5C00000028000000320A0900E603160000008DDE97BF288DDE8EBF2920202020
310
2020925088CA6D6D5C0000005C0000001C005C0000005C0000001C001C001C00
310
1C001C001C001C005C0000005C0000004400440009000000320A6F005B000100
310
000031002E0013000000320A6F00E9000800000020208378815B83581C001C00
310
5700000058000000530000002D000000320A6F000B0419000000463132202020
310
202020202020202020202020312E302C312E360033002E002E001C001C001C00
310
1C001C001C001C001C001C001C001C001C001C001C001C002E0013002E001300
310
2E0013002E0009000000320AD5005B000100000032002E0019000000320AD500
310
E9000C00000020208378815B835889BA98671C001C0057000000580000005300
310
00005C0000005C0000002D000000320AD5000B04190000004631322020202020
310
20202020202020202020312E362C312E300033002E002E001C001C001C001C00
310
1C001C001C001C001C001C001C001C001C001C001C002E0013002E0013002E00
310
13002E0009000000320A3B015B000100000033002E0010000000320A3B01E900
310
06000000202091A494C21C001C005C0000005C0000002D000000320A3B011404
310
1900000046313220202020202020202020202020202020202020302E36003300
310
2E002E001C001C001C001C001C001C001C001C001C001C001C001C001C001C00
310
1C001C001C001C001C002E0013002E0009000000320AA1015B00010000003400
310
2E0010000000320AA101E9000600000081408CE394C23D0000005C0000005C00
310
00002E000000320AA10111041A00000082653132202020202020202020202020
310
20202020202020302E353A0000002E002E001C001C001C001C001C001C001C00
310
1C001C001C001C001C001C001C001C001C001C001C001C002E0013002E000900
310
0000320A07025B000100000035002E0010000000320A0702E900060000002020
310
89AE8DAA1C001C005C0000005C0000002E000000320A070211041A0000008265
310
313220202020202020202020202020202020202020302E363A0000002E002E00
310
1C001C001C001C001C001C001C001C001C001C001C001C001C001C001C001C00
310
1C001C001C002E0013002E0009000000320A6D025B000100000036002E000D00
310
0000320A6D02E90004000000202094E01C001C005C0000002D000000320A6D02
310
14041900000046313220202020202020202020202020202020202020302E3600
310
33002E002E001C001C001C001C001C001C001C001C001C001C001C001C001C00
310
1C001C001C001C001C001C002E0013002E0009000000320AD3025B0001000000
310
37002E0016000000320AD302E9000A00000020208FB08370836C838B1C001C00
310
5C0000005C000000560000005C0000002D000000320AD3021404190000004631
310
3220202020202020202020202020202020202020302E360033002E002E001C00
310
1C001C001C001C001C001C001C001C001C001C001C001C001C001C001C001C00
310
1C001C002E0013002E0009000000320A39035B000100000038002E0010000000
310
320A3903E900060000002020924994C21C001C005C0000005C0000002D000000
310
320A390314041900000046313220202020202020202020202020202020202020
310
302E360033002E002E001C001C001C001C001C001C001C001C001C001C001C00
310
1C001C001C001C001C001C001C001C002E0013002E003D000000320A9F031400
310
2400000046313281A8976E975A889F899482DF82C182AB8D7C94C220284A4953
310
204720333330322933002E002E005C0000005C0000005C0000005C0000005C00
310
00005A0000004A0000004E0000005C0000005C0000001C001C00320017003700
310
1C003F001C002E002E002E002E001C002B000000320A050414001800000081A6
310
8378815B835892B290AE94CD88CD2081462033326D6D5C000000570000005800
310
0000530000005C0000005C0000005C0000005C0000001C002E0000001C002E00
310
2E004400440010000000FB021200080000000000900100000080010202025379
310
7374656D0080040000002D010100040000002701FFFF030000001E0004000000
310
2D010000050000000102FFFFFF00050000000902000000000700000016046A04
310
61070000000007000000FC020000000000000000040000002D01020004000000
310
04010D00040000000201020009000000FA020000000000000000000022000400
310
00002D010300050000001402000000000500000013029E03000009000000FA02
310
000000000000000000002200040000002D010400090000001D062100F0009E03
310
080000000000040000002D0103000500000014026A0059070500000013029E03
310
5907040000002D010400090000001D062100F000340308006A00590704000000
310
2D0103000500000014020000080005000000130200005E07040000002D010400
310
090000001D062100F0000800560700000800040000002D010300050000001402
310
9603080005000000130296036107040000002D010400090000001D062100F000
310
0800590796030800040000002D010200040000002D010100040000002701FFFF
310
030000001E00040000002D010000050000000102FFFFFF000500000009020000
310
00000700000016046904600700000000040000002701FFFF0300000000000000
310
0000000000000000000000000000000000000000000000000000000000000000
310
0000000000000000000000000000000000000000000000000000000000000000
310
0000000000000000000000000000000000000000000000000000000000000000
310
0000000000000000000000000000000000000000000000000000000000000000
310
0000000000000000000000000000000000000000000000000000000000000000
310
0000000000000000000000000000000000000000000000000000000000000000
310
02004F006C006500500072006500730030003000300000000000000000000000
310
0000000000000000000000000000000000000000000000000000000000000000
310
18000000FFFFFFFFFFFFFFFFFFFFFFFF00000000000000000000000000000000
310
0000000000000000000000000000000000000000FEFFFFFF0000000000000000
310
0000000000000000000000000000000000000000000000000000000000000000
310
0000000000000000000000000000000000000000000000000000000000000000
310
00000000FFFFFFFFFFFFFFFFFFFFFFFF00000000000000000000000000000000
310
0000000000000000000000000000000000000000000000000000000000000000
310
0000000000000000000000000000000000000000000000000000000000000000
310
0000000000000000000000000000000000000000000000000000000000000000
310
00000000FFFFFFFFFFFFFFFFFFFFFFFF00000000000000000000000000000000
310
0000000000000000000000000000000000000000000000000000000000000000
310
0000000000000000000000000000000000000000000000000000000000000000
310
0000000000000000000000000000000000000000000000000000000000000000
310
00000000FFFFFFFFFFFFFFFFFFFFFFFF00000000000000000000000000000000
310
0000000000000000000000000000000000000000000000000000000000000000
310
FFFFFFFF030000000400000001000000FFFFFFFF0200000000000000E6210000
310
91140000101000000100090000030808000006003D0000000000050000000902
310
00000000050000000102FFFFFF000400000004010D0004000000020102000500
310
00000C02C7004801030000001E00040000002701FFFF030000001E0004000000
310
2701FFFF050000000B0200000000030000001E00050000000102FFFFFF000500
310
0000090200000000040000002701FFFF030000001E00050000000102FFFFFF00
310
05000000090200000000070000001604C700480100000000040000002701FFFF
310
030000001E00050000000102FFFFFF0005000000090200000000070000001604
310
C700480100000000040000002701FFFF030000001E00050000000102FFFFFF00
310
05000000090200000000070000001604C70048010100010015000000FB02F1FF
310
00000000000090010000008000000000826C827220826F835383568362834E00
310
8000040000002D0100000400000004010D0004000000020101000D000000320A
310
0300030004000000956994D40F0000000F00000010000000320A030028000600
310
00009594956996BC0F0000000F0000000F00000028000000320A0300AD001600
310
00008DDE97BF288DDE8EBF29202020202020925088CA6D6D0F0000000F000000
310
05000F0000000F00000005000500050005000500050005000F0000000F000000
310
0B000B0009000000320A15000F00010000003100080013000000320A15002800
310
0800000020208378815B8358050005000E0000000E0000000E0000002D000000
310
320A1500B30019000000463132202020202020202020202020202020312E302C
310
312E360008000800080005000500050005000500050005000500050005000500
310
0500050005000500080003000800030008000300080009000000320A27000F00
310
010000003200080019000000320A270028000C00000020208378815B835889BA
310
9867050005000E0000000E0000000E0000000F0000000F0000002D000000320A
310
2700B30019000000463132202020202020202020202020202020312E302C312E
310
3600080008000800050005000500050005000500050005000500050005000500
310
050005000500080003000800030008000300080009000000320A39000F000100
310
00003300080010000000320A3900280006000000202091A494C2050005000F00
310
00000F0000002D000000320A3900B40019000000463132202020202020202020
310
20202020202020202020302E3500080008000800050005000500050005000500
310
0500050005000500050005000500050005000500050005000500080003000800
310
09000000320A4B000F00010000003400080010000000320A4B00280006000000
310
81408CE394C20A0000000F0000000F0000002D000000320A4B00B40019000000
310
46313220202020202020202020202020202020202020302E3600080008000800
310
0500050005000500050005000500050005000500050005000500050005000500
310
05000500050008000300080009000000320A5D000F0001000000350008001000
310
0000320A5D00280006000000202089AE8DAA050005000F0000000F0000002D00
310
0000320A5D00B400190000004631322020202020202020202020202020202020
310
2020302E36000800080008000500050005000500050005000500050005000500
310
05000500050005000500050005000500050008000300080009000000320A6F00
310
0F0001000000360008000D000000320A6F00280004000000202094E005000500
310
0F0000002D000000320A6F00B400190000004631322020202020202020202020
310
2020202020202020302E36000800080008000500050005000500050005000500
310
0500050005000500050005000500050005000500050005000800030008000900
310
0000320A81000F00010000003700080016000000320A810028000A0000002020
310
8FB08370836C838B050005000F0000000F0000000E0000000F0000002D000000
310
320A8100B4001900000046313220202020202020202020202020202020202020
310
302E360008000800080005000500050005000500050005000500050005000500
310
0500050005000500050005000500050008000300080009000000320A93000F00
310
010000003800080018000000320A930028000B0000002020924994C228329687
310
2900050005000F0000000F000000050008000F00000005002D000000320A9300
310
B4001900000046313220202020202020202020202020202020202020302E3600
310
0800080008000500050005000500050005000500050005000500050005000500
310
0500050005000500050005000800030008003D000000320AA500030024000000
310
46313281A8976E975A889F899482DF82C182AB8D7C94C220284A495320472033
310
333032290800080008000F0000000F0000000F0000000F0000000F0000000E00
310
00000C0000000D0000000F0000000F0000000500050008000400090005000A00
310
0500080008000800080005002B000000320AB70003001800000081A68378815B
310
835892B290AE94CD88CD2081462033326D6D0F0000000E0000000E0000000E00
310
00000F0000000F0000000F0000000F0000000500080000000500080008000B00
310
0B0010000000FB0212000800000000009001000000800102020253797374656D
310
0080040000002D010100040000002701FFFF030000001E00040000002D010000
310
050000000102FFFFFF0005000000090200000000070000001604C70048010000
310
000007000000FC020000C0C0C0000000040000002D010200050000000902C0C0
310
C000050000000102C0C0C0000400000004010D00040000000201020009000000
310
FA02000000000000C0C0C0002200040000002D01030009000000FA0200000000
310
0000000000002200040000002D010400090000001D062100F000000001000000
310
0000040000002D010300040000002D010400090000001D062100F00000000100
310
00002500040000002D010300040000002D010400090000001D062100F0000000
310
01000000AA0007000000FC020000000000000000040000002D01050005000000
310
090200000000050000000102FFFFFF0004000000F001030009000000FA020000
310
00000000000000002200040000002D0103000500000014020000010005000000
310
130200004801040000002D010400090000001D062100F0000100470100000100
310
040000002D010200050000000902C0C0C000050000000102C0C0C00004000000
310
F001030009000000FA02000000000000C0C0C0002200040000002D0103000400
310
00002D010400090000001D062100F0000000010000004701040000002D010300
310
0500000014021200010005000000130212004701040000002D01040009000000
310
1D062100F0000100460112000100040000002D01030005000000140224000100
310
05000000130224004701040000002D010400090000001D062100F00001004601
310
24000100040000002D0103000500000014023600010005000000130236004701
310
040000002D010400090000001D062100F0000100460136000100040000002D01
310
03000500000014024800010005000000130248004701040000002D0104000900
310
00001D062100F0000100460148000100040000002D0103000500000014025A00
310
01000500000013025A004701040000002D010400090000001D062100F0000100
310
46015A000100040000002D0103000500000014026C0001000500000013026C00
310
4701040000002D010400090000001D062100F000010046016C00010004000000
310
2D0103000500000014027E0001000500000013027E004701040000002D010400
310
090000001D062100F000010046017E000100040000002D010300050000001402
310
9000010005000000130290004701040000002D010400090000001D062100F000
310
0100460190000100040000002D01050005000000090200000000050000000102
310
FFFFFF0004000000F001030009000000FA020000000000000000000022000400
310
00002D01030005000000140200000000050000001302A3000000040000002D01
310
0400090000001D062100F000A300010000000000040000002D01030005000000
310
1402A2000100050000001302A2004801040000002D010400090000001D062100
310
F00001004701A2000100040000002D0103000500000014020100470105000000
310
1302A3004701040000002D010400090000001D062100F000A200010001004701
310
040000002D010200050000000902C0C0C000050000000102C0C0C00004000000
310
F001030009000000FA02000000000000C0C0C0002200040000002D0103000500
310
0000140201002500050000001302A2002500040000002D010400090000001D06
310
2100F000A100010001002500040000002D0103000500000014020100AA000500
310
00001302A200AA00040000002D010400090000001D062100F000A10001000100
310
AA00040000002D010300050000001402A3000000050000001302C80000000400
310
00002D010400090000001D062100F00025000100A3000000040000002D010300
310
050000001402C7002500050000001302C8002500040000002D01040009000000
310
1D062100F00001000100C7002500040000002D010300050000001402C700AA00
310
050000001302C800AA00040000002D010400090000001D062100F00001000100
310
C700AA00040000002D010300050000001402A3004701050000001302C8004701
310
040000002D010400090000001D062100F00025000100A3004701040000002D01
310
03000500000014020000480105000000130200004901040000002D0104000900
310
00001D062100F0000100010000004801040000002D0103000500000014021200
310
480105000000130212004901040000002D010400090000001D062100F0000100
310
010012004801040000002D010300050000001402240048010500000013022400
310
4901040000002D010400090000001D062100F000010001002400480104000000
310
2D0103000500000014023600480105000000130236004901040000002D010400
310
090000001D062100F0000100010036004801040000002D010300050000001402
310
4800480105000000130248004901040000002D010400090000001D062100F000
310
0100010048004801040000002D0103000500000014025A004801050000001302
310
5A004901040000002D010400090000001D062100F000010001005A0048010400
310
00002D0103000500000014026C0048010500000013026C004901040000002D01
310
0400090000001D062100F000010001006C004801040000002D01030005000000
310
14027E0048010500000013027E004901040000002D010400090000001D062100
310
F000010001007E004801040000002D0103000500000014029000480105000000
310
130290004901040000002D010400090000001D062100F0000100010090004801
310
040000002D010300050000001402A2004801050000001302A200490104000000
310
2D010400090000001D062100F00001000100A2004801040000002D0103000500
310
00001402B4000000050000001302B4004901040000002D010400090000001D06
310
2100F00001004901B4000000040000002D010300050000001402C60000000500
310
00001302C6004901040000002D010400090000001D062100F00001004901C600
310
0000040000002D010500040000002D010100040000002701FFFF030000001E00
310
040000002D010000050000000102C0C0C000050000000902C0C0C00007000000
310
1604C700480101000100040000002701FFFF0300000000000000000000000000
310
0000000000000000000000000000000000000000000000000000000000000000
310
0000000000000000000000000000000000000000000000000000000000000000
310
0000000000000000000000000000000000000000000000000000000000000000
310
0000000000000000000000000000000000000000000000000000000000000000
310
0000000000000000000000000000000000000000000000000000000000000000
310
0000000000000000000000000000000000000000000000000000000000000000
310
0000000000000000000000000000000000000000000000000000000000000000
310
0000000000000000000000000000000000000000000000000000000000000000
310
0000000000000000000000000000000000000000000000000000000000000000
310
0000000000000000000000000000000000000000000000000000000000000000
310
0000000000000000000000000000000000000000000000000000000000000000
310
0000000000000000000000000000000000000000000000000000000000000000
310
0000000000000000000000000000000000000000000000000000000000000000
310
0000000000000000000000000000000000000000000000000000000000000000
  1
OLE
  0
TEXT
  5
16BD7
330
747D
100
AcDbEntity
  8
文字
 62
     7
 48
50.0
100
AcDbText
 10
7151.289879453724
 20
241.9483564955708
 30
0.0
 40
80.0
  1
ＫＭＸ－１３５ＥＰ
  7
STYLE2
100
AcDbText
  0
TEXT
  5
16BD8
330
747D
100
AcDbEntity
  8
文字
 62
     7
 48
50.0
100
AcDbText
 10
6604.7026721086
 20
38.04717353824663
 30
0.0
 40
50.0
  1
○床面積 ： 0.72㎡(0.22坪) 　
  7
STYLE2
100
AcDbText
  0
TEXT
  5
16BD9
330
747D
100
AcDbEntity
  8
文字
 62
     7
 48
50.0
100
AcDbText
 10
6604.7026721086
 20
114.271762128451
 30
0.0
 40
50.0
  1
○有効開口寸法 ： 585×1749 (mm)
  7
STYLE2
100
AcDbText
  0
DIMENSION
  5
16DB8
330
747D
100
AcDbEntity
  8
寸法
 48
50.0
100
AcDbDimension
  2
*D5
 10
5573.6
 20
2975.024113945668
 30
0.0
 11
5377.576377952757
 21
2975.024113945668
 31
0.0
 12
-3881.423099929833
 22
1391.402249331857
 32
0.0
 70
   160
 71
     5
 42
-1.0
  3
INABA_S20G
100
AcDbAlignedDimension
 13
5533.6
 23
2793.66793916258
 33
0.0
 14
5573.6
 24
2820.0
 34
0.0
100
AcDbRotatedDimension
  0
DIMENSION
  5
16DB9
330
747D
100
AcDbEntity
  8
寸法
 48
50.0
100
AcDbDimension
  2
*D6
 10
6133.600000000001
 20
2975.024113945668
 30
0.0
 11
5853.6
 21
3025.024113945669
 31
0.0
 12
-3881.423099929833
 22
1391.402249331857
 32
0.0
 70
    32
 71
     5
 42
-1.0
  3
INABA_S20G
100
AcDbAlignedDimension
 13
5573.6
 23
2820.0
 33
0.0
 14
6133.600000000001
 24
2800.226073850792
 34
0.0
100
AcDbRotatedDimension
1001
ACAD
1000
DSTYLE
1002
{
1002
}
  0
DIMENSION
  5
16DBA
330
747D
100
AcDbEntity
  8
寸法
 48
50.0
100
AcDbDimension
  2
*D7
 10
6143.600000000001
 20
2975.024113945668
 30
0.0
 11
6290.623622047244
 21
2975.024113945668
 31
0.0
 12
-3881.423099929833
 22
1391.402249331857
 32
0.0
 70
   160
 71
     5
 42
-1.0
  3
INABA_S20G
100
AcDbAlignedDimension
 13
6133.600000000001
 23
2800.226073850792
 33
0.0
 14
6143.600000000001
 24
2800.0
 34
0.0
100
AcDbRotatedDimension
1001
ACAD
1000
DSTYLE
1002
{
1002
}
  0
DIMENSION
  5
16DBB
330
747D
100
AcDbEntity
  8
寸法
 48
50.0
100
AcDbDimension
  2
*D8
 10
6143.600000000001
 20
3103.220335370565
 30
0.0
 11
5838.6
 21
3153.220335370565
 31
0.0
 12
-3881.423099929833
 22
1391.402249331857
 32
0.0
 70
    32
 71
     5
 42
-1.0
  3
INABA_S20G
100
AcDbAlignedDimension
 13
5533.6
 23
2793.66793916258
 33
0.0
 14
6143.600000000001
 24
2800.0
 34
0.0
100
AcDbRotatedDimension
  0
DIMENSION
  5
16DBC
330
747D
100
AcDbEntity
  8
寸法
 48
50.0
100
AcDbDimension
  2
*D9
 10
6638.058089714103
 20
900.0
 30
0.0
 11
6588.052184202291
 21
1812.5
 31
0.0
 12
-3881.423099929833
 22
1391.402249331857
 32
0.0
 70
    32
 71
     5
 42
-1.0
  3
INABA_S20G
100
AcDbAlignedDimension
 13
6143.600000000001
 23
2725.0
 33
0.0
 14
6127.600000000001
 24
900.0
 34
0.0
 50
90.0
100
AcDbRotatedDimension
1001
ACAD
1000
DSTYLE
1002
{
1070
   279
1070
     2
1002
}
  0
DIMENSION
  5
16DBD
330
747D
100
AcDbEntity
  8
寸法
 48
50.0
100
AcDbDimension
  2
*D10
 10
6638.058089714103
 20
2725.0
 30
0.0
 11
6588.058089714103
 21
2762.5
 31
0.0
 12
-3881.423099929833
 22
1391.402249331857
 32
0.0
 70
    32
 71
     5
 42
-1.0
  3
INABA_S20G
100
AcDbAlignedDimension
 13
6143.600000000001
 23
2800.0
 33
0.0
 14
6143.600000000001
 24
2725.0
 34
0.0
 50
90.0
100
AcDbRotatedDimension
1001
ACAD
1000
DSTYLE
1002
{
1070
   279
1070
     2
1002
}
  0
DIMENSION
  5
16DBE
330
747D
100
AcDbEntity
  8
寸法
 48
50.0
100
AcDbDimension
  2
*D11
 10
6809.913337170167
 20
2800.0
 30
0.0
 11
6759.913337170167
 21
1850.0
 31
0.0
 12
-3881.423099929833
 22
1391.402249331857
 32
0.0
 70
    32
 71
     5
 42
-1.0
  3
INABA_S20G
100
AcDbAlignedDimension
 13
6127.600000000001
 23
900.0
 33
0.0
 14
6143.599999999997
 24
2800.0
 34
0.0
 50
90.0
100
AcDbRotatedDimension
  0
DIMENSION
  5
16DBF
330
747D
100
AcDbEntity
  8
寸法
 48
50.0
100
AcDbDimension
  2
*D12
 10
5254.960919862774
 20
2820.0
 30
0.0
 11
5204.960919862775
 21
1863.0
 31
0.0
 12
-3881.423099929833
 22
1391.402249331857
 32
0.0
 70
    32
  1
1917
 71
     5
 42
-1.0
  3
INABA_S20G
100
AcDbAlignedDimension
 13
5578.6
 23
906.0
 33
0.0
 14
5553.029319720905
 24
2820.0
 34
0.0
 50
90.0
100
AcDbRotatedDimension
1001
ACAD
1000
DSTYLE
1002
{
1070
    75
1070
     1
1070
   279
1070
     1
1002
}
  0
DIMENSION
  5
16DC0
330
747D
100
AcDbEntity
  8
寸法
 48
50.0
100
AcDbDimension
  2
*D13
 10
5111.173767725317
 20
2820.0
 30
0.0
 11
5061.153361442915
 21
1860.0
 31
0.0
 12
-3881.423099929833
 22
1391.402249331857
 32
0.0
 70
    32
 71
     5
 42
-1.0
  3
INABA_S20G
100
AcDbAlignedDimension
 13
5582.600000000001
 23
900.0
 33
0.0
 14
5553.029319720905
 24
2820.0
 34
0.0
 50
90.0
100
AcDbRotatedDimension
  0
DIMENSION
  5
16DC1
330
747D
100
AcDbEntity
  8
寸法
 48
50.0
100
AcDbDimension
  2
*D14
 10
5857.734065883504
 20
2738.135836914878
 30
0.0
 11
5807.734065883504
 21
1852.635836914879
 31
0.0
 12
-3881.423099929833
 22
1391.402249331857
 32
0.0
 70
    32
  1
内高 <>
 71
     5
 42
-1.0
  3
INABA_S20G
100
AcDbAlignedDimension
 13
5783.6
 23
987.0
 33
0.0
 14
5783.6
 24
2757.999999999999
 34
0.0
 50
90.0
100
AcDbRotatedDimension
  0
LINE
  5
16DC2
330
747D
100
AcDbEntity
  8
部品1
 48
50.0
100
AcDbLine
 10
5573.6
 20
958.0
 30
0.0
 11
5573.6
 21
2735.0
 31
0.0
  0
LINE
  5
16DC3
330
747D
100
AcDbEntity
  8
部品1
 48
50.0
100
AcDbLine
 10
6133.600000000001
 20
958.0
 30
0.0
 11
6133.600000000001
 21
2725.286532951289
 31
0.0
  0
LINE
  5
16DC4
330
747D
100
AcDbEntity
  8
部品1
 48
50.0
100
AcDbLine
 10
5618.6
 20
958.0
 30
0.0
 11
5618.599999999997
 21
2738.08778689947
 31
0.0
  0
DIMENSION
  5
16DC5
330
747D
100
AcDbEntity
  8
寸法
 48
50.0
100
AcDbDimension
  2
*D15
 10
5421.075280684892
 20
2736.0
 30
0.0
 11
5371.075280684892
 21
1861.5
 31
0.0
 12
-3881.423099929833
 22
1391.402249331857
 32
0.0
 70
    32
  1
有効開口部高サ <>
 71
     5
 42
-1.0
  3
INABA_S20G
100
AcDbAlignedDimension
 13
5640.6
 23
987.0
 33
0.0
 14
5565.6
 24
2736.0
 34
0.0
 50
90.0
100
AcDbRotatedDimension
  0
DIMENSION
  5
16DC6
330
747D
100
AcDbEntity
  8
寸法
 48
50.0
100
AcDbDimension
  2
*D16
 10
6458.43045837027
 20
1389.0
 30
0.0
 11
6408.42455285846
 21
1188.0
 31
0.0
 12
-3881.423099929833
 22
1391.402249331857
 32
0.0
 70
    32
 71
     5
 42
-1.0
  3
INABA_S20G
100
AcDbAlignedDimension
 13
6104.600000000001
 23
987.0
 33
0.0
 14
6102.6
 24
1389.0
 34
0.0
 50
90.0
100
AcDbRotatedDimension
  0
DIMENSION
  5
16DC7
330
747D
100
AcDbEntity
  8
寸法
 48
50.0
100
AcDbDimension
  2
*D17
 10
5254.960919862774
 20
906.0
 30
0.0
 11
5204.960919862775
 21
870.4241879215514
 31
0.0
 12
-3881.423099929833
 22
1391.402249331857
 32
0.0
 70
   160
  1
3
 71
     5
 42
-1.0
  3
INABA_S20G
100
AcDbAlignedDimension
 13
5582.600000000001
 23
900.0
 33
0.0
 14
5578.6
 24
906.0
 34
0.0
 50
90.0
100
AcDbRotatedDimension
1001
ACAD
1000
DSTYLE
1002
{
1070
   279
1070
     2
1002
}
  0
LINE
  5
16DC8
330
747D
100
AcDbEntity
  8
点線
 48
8.0
100
AcDbLine
 10
5640.6
 20
987.0
 30
0.0
 11
6104.600000000001
 21
987.0
 31
0.0
  0
LINE
  5
16DC9
330
747D
100
AcDbEntity
  8
部品1
 48
50.0
100
AcDbLine
 10
5582.600000000001
 20
900.0
 30
0.0
 11
6127.600000000001
 21
900.0
 31
0.0
  0
LINE
  5
16DCA
330
747D
100
AcDbEntity
  8
部品1
 48
50.0
100
AcDbLine
 10
5573.6
 20
958.0
 30
0.0
 11
6133.600000000001
 21
958.0
 31
0.0
  0
LINE
  5
16DCB
330
747D
100
AcDbEntity
  8
部品1
 48
50.0
100
AcDbLine
 10
5578.6
 20
906.0
 30
0.0
 11
6131.6
 21
906.0
 31
0.0
  0
LINE
  5
16DCC
330
747D
100
AcDbEntity
  8
部品1
 48
50.0
100
AcDbLine
 10
5582.600000000001
 20
800.0
 30
0.0
 11
5582.600000000001
 21
900.0
 31
0.0
  0
LINE
  5
16DCD
330
747D
100
AcDbEntity
  8
点線
 48
2.0
100
AcDbLine
 10
5583.6
 20
968.0
 30
0.0
 11
5640.6
 21
968.0
 31
0.0
  0
LINE
  5
16DCE
330
747D
100
AcDbEntity
  8
部品1
 48
50.0
100
AcDbLine
 10
5578.6
 20
906.0
 30
0.0
 11
5578.6
 21
958.0
 31
0.0
  0
LINE
  5
16DCF
330
747D
100
AcDbEntity
  8
部品1
 48
50.0
100
AcDbLine
 10
5582.600000000001
 20
900.0
 30
0.0
 11
5582.600000000001
 21
906.0
 31
0.0
  0
LINE
  5
16DD0
330
747D
100
AcDbEntity
  8
点線
 48
3.0
100
AcDbLine
 10
5578.6
 20
958.0
 30
0.0
 11
5578.6
 21
965.0000000000009
 31
0.0
  0
LINE
  5
16DD1
330
747D
100
AcDbEntity
  8
点線
 48
3.0
100
AcDbLine
 10
5578.6
 20
965.0
 30
0.0
 11
5583.6
 21
968.0
 31
0.0
  0
LINE
  5
16DD2
330
747D
100
AcDbEntity
  8
点線
 48
3.0
100
AcDbLine
 10
5596.1
 20
968.0
 30
0.0
 11
5596.1
 21
978.5
 31
0.0
  0
LINE
  5
16DD3
330
747D
100
AcDbEntity
  8
点線
 48
2.0
100
AcDbLine
 10
5640.6
 20
978.5
 30
0.0
 11
5648.6
 21
978.5
 31
0.0
  0
LINE
  5
16DD4
330
747D
100
AcDbEntity
  8
点線
 48
3.0
100
AcDbLine
 10
5640.6
 20
958.0
 30
0.0
 11
5640.6
 21
987.0
 31
0.0
  0
LINE
  5
16DD5
330
747D
100
AcDbEntity
  8
点線
 48
3.0
100
AcDbLine
 10
5624.100000000001
 20
968.0
 30
0.0
 11
5624.100000000001
 21
978.5
 31
0.0
  0
LINE
  5
16DD6
330
747D
100
AcDbEntity
  8
点線
 48
3.0
100
AcDbLine
 10
5648.6
 20
978.5
 30
0.0
 11
5669.1
 21
958.0
 31
0.0
  0
LINE
  5
16DD7
330
747D
100
AcDbEntity
  8
部品1
 48
50.0
100
AcDbLine
 10
5782.600000000001
 20
800.0
 30
0.0
 11
5782.600000000001
 21
900.0
 31
0.0
  0
LINE
  5
16DD8
330
747D
100
AcDbEntity
  8
部品1
 48
50.0
100
AcDbLine
 10
5927.6
 20
800.0
 30
0.0
 11
5927.6
 21
900.0
 31
0.0
  0
LINE
  5
16DD9
330
747D
100
AcDbEntity
  8
部品1
 48
50.0
100
AcDbLine
 10
6127.600000000001
 20
800.0
 30
0.0
 11
6127.600000000001
 21
906.0
 31
0.0
  0
LINE
  5
16DDA
330
747D
100
AcDbEntity
  8
点線
 48
2.0
100
AcDbLine
 10
6096.600000000001
 20
978.5
 30
0.0
 11
6104.600000000001
 21
978.5
 31
0.0
  0
LINE
  5
16DDB
330
747D
100
AcDbEntity
  8
点線
 48
3.0
100
AcDbLine
 10
6096.600000000001
 20
978.5
 30
0.0
 11
6076.1
 21
958.0
 31
0.0
  0
LINE
  5
16DDC
330
747D
100
AcDbEntity
  8
部品1
 48
50.0
100
AcDbLine
 10
6131.6
 20
906.0
 30
0.0
 11
6131.6
 21
958.0
 31
0.0
  0
LINE
  5
16DDD
330
747D
100
AcDbEntity
  8
点線
 48
3.0
100
AcDbLine
 10
6104.600000000001
 20
958.0
 30
0.0
 11
6104.600000000001
 21
987.0
 31
0.0
  0
DIMENSION
  5
16DDE
330
747D
100
AcDbEntity
  8
寸法
 48
50.0
100
AcDbDimension
  2
*D18
 10
6458.43045837027
 20
2364.0
 30
0.0
 11
6408.43045837027
 21
1876.5
 31
0.0
 12
-3881.423099929833
 22
1391.402249331857
 32
0.0
 70
    32
  1
65x15=<>
 71
     5
 42
-1.0
  3
INABA_S20G
100
AcDbAlignedDimension
 13
6102.6
 23
1389.0
 33
0.0
 14
6102.6
 24
2364.0
 34
0.0
 50
90.0
100
AcDbRotatedDimension
1001
ACAD
1000
DSTYLE
1002
{
1070
    75
1070
     1
1070
   279
1070
     1
1002
}
  0
LINE
  5
16DDF
330
747D
100
AcDbEntity
  8
想像線
 48
5.0
100
AcDbLine
 10
5652.6
 20
1389.0
 30
0.0
 11
6102.6
 21
1389.0
 31
0.0
  0
LINE
  5
16DE0
330
747D
100
AcDbEntity
  8
想像線
 48
5.0
100
AcDbLine
 10
5652.6
 20
1359.0
 30
0.0
 11
6102.6
 21
1359.0
 31
0.0
  0
LINE
  5
16DE1
330
747D
100
AcDbEntity
  8
想像線
 48
8.0
100
AcDbLine
 10
5652.6
 20
1359.0
 30
0.0
 11
5652.6
 21
1389.0
 31
0.0
  0
LINE
  5
16DE2
330
747D
100
AcDbEntity
  8
想像線
 48
8.0
100
AcDbLine
 10
6102.6
 20
1359.0
 30
0.0
 11
6102.6
 21
1389.0
 31
0.0
  0
ARC
  5
16DE3
330
747D
100
AcDbEntity
  8
細線
 48
50.0
100
AcDbCircle
 10
6017.255755388713
 20
2806.421065365769
 30
0.0
 40
16.5
100
AcDbArc
 50
268.3588710747021
 51
328.1696633101696
  0
ARC
  5
16DE4
330
747D
100
AcDbEntity
  8
部品1
 48
2.0
100
AcDbCircle
 10
6017.255755388713
 20
2806.421065365769
 30
0.0
 40
11.5
100
AcDbArc
 50
268.3588710747021
 51
328.1696633101696
  0
LINE
  5
16DE5
330
747D
100
AcDbEntity
  8
想像線
 48
5.0
100
AcDbLine
 10
5652.6
 20
2364.0
 30
0.0
 11
6102.6
 21
2364.0
 31
0.0
  0
LINE
  5
16DE6
330
747D
100
AcDbEntity
  8
想像線
 48
5.0
100
AcDbLine
 10
5652.6
 20
2334.0
 30
0.0
 11
6102.6
 21
2334.0
 31
0.0
  0
LINE
  5
16DE7
330
747D
100
AcDbEntity
  8
点線
 48
8.0
100
AcDbLine
 10
6101.600000000001
 20
2758.0
 30
0.0
 11
5670.6
 21
2758.0
 31
0.0
  0
LINE
  5
16DE8
330
747D
100
AcDbEntity
  8
部品1
 48
50.0
100
AcDbLine
 10
6143.600000000001
 20
2725.0
 30
0.0
 11
5620.1
 21
2740.0
 31
0.0
  0
LINE
  5
16DE9
330
747D
100
AcDbEntity
  8
想像線
 48
8.0
100
AcDbLine
 10
5652.6
 20
2334.0
 30
0.0
 11
5652.6
 21
2364.0
 31
0.0
  0
LINE
  5
16DEA
330
747D
100
AcDbEntity
  8
細線
 48
50.0
100
AcDbLine
 10
5995.240309403727
 20
2799.248941892705
 30
0.0
 11
5619.956792299865
 21
2810.00205126531
 31
0.0
  0
LINE
  5
16DEB
330
747D
100
AcDbEntity
  8
部品1
 48
50.0
100
AcDbLine
 10
5995.383517103861
 20
2804.246890627398
 30
0.0
 11
5620.1
 21
2815.000000000003
 31
0.0
  0
ARC
  5
16DEC
330
747D
100
AcDbEntity
  8
部品1
100
AcDbCircle
 10
5578.827717756341
 20
2732.142150409904
 30
0.0
 40
5.957880262272358
100
AcDbArc
 50
86.32613006386966
 51
151.3357851015309
  0
LINE
  5
16DED
330
747D
100
AcDbEntity
  8
部品1
100
AcDbLine
 10
5536.528932188133
 20
2765.0
 30
0.0
 11
5565.064466094066
 21
2736.464466094067
 31
0.0
  0
ARC
  5
16DEE
330
747D
100
AcDbEntity
  8
部品1
100
AcDbCircle
 10
5568.6
 20
2740.0
 30
0.0
 40
5.0
100
AcDbArc
 50
225.0000000000002
 51
269.9999999999999
  0
LINE
  5
16DEF
330
747D
100
AcDbEntity
  8
部品1
100
AcDbLine
 10
5568.6
 20
2735.0
 30
0.0
 11
5573.599999999997
 21
2735.0
 31
0.0
  0
LINE
  5
16DF0
330
747D
100
AcDbEntity
  8
部品1
100
AcDbLine
 10
5534.939745962156
 20
2798.667939162581
 30
0.0
 11
5544.36906568306
 21
2815.0
 31
0.0
  0
ARC
  5
16DF1
330
747D
100
AcDbEntity
  8
部品1
100
AcDbCircle
 10
5543.600000000001
 20
2772.071067811865
 30
0.0
 40
10.0
100
AcDbArc
 50
180.0
 51
224.9999999999999
  0
LINE
  5
16DF2
330
747D
100
AcDbEntity
  8
部品1
100
AcDbLine
 10
5533.6
 20
2793.66793916258
 30
0.0
 11
5533.6
 21
2772.071067811865
 31
0.0
  0
ARC
  5
16DF3
330
747D
100
AcDbEntity
  8
部品1
100
AcDbCircle
 10
5543.600000000001
 20
2793.66793916258
 30
0.0
 40
10.0
100
AcDbArc
 50
150.0000000000003
 51
179.9999999999982
  0
ARC
  5
16DF4
330
747D
100
AcDbEntity
  8
部品1
100
AcDbCircle
 10
5619.1
 20
2739.08778689947
 30
0.0
 40
1.0
100
AcDbArc
 50
270.0000000000001
 51
0.0000000000001399
  0
ARC
  5
16DF5
330
747D
100
AcDbEntity
  8
部品1
100
AcDbCircle
 10
5619.1
 20
2818.999999999999
 30
0.0
 40
1.0
100
AcDbArc
 50
359.9999999999994
 51
90.0
  0
LINE
  5
16DF6
330
747D
100
AcDbEntity
  8
部品1
100
AcDbLine
 10
5620.1
 20
2786.9
 30
0.0
 11
5620.1
 21
2786.9
 31
0.0
  0
LINE
  5
16DF7
330
747D
100
AcDbEntity
  8
部品1
100
AcDbLine
 10
5620.1
 20
2818.999999999999
 30
0.0
 11
5620.1
 21
2739.08778689947
 31
0.0
  0
ARC
  5
16DF8
330
747D
100
AcDbEntity
  8
部品1
100
AcDbCircle
 10
5553.029319720905
 20
2810.0
 30
0.0
 40
10.0
100
AcDbArc
 50
90.0
 51
150.0000000000004
  0
LINE
  5
16DF9
330
747D
100
AcDbEntity
  8
部品1
100
AcDbLine
 10
5553.029319720905
 20
2820.0
 30
0.0
 11
5619.1
 21
2819.999999999998
 31
0.0
  0
LINE
  5
16DFA
330
747D
100
AcDbEntity
  8
部品1
100
AcDbLine
 10
5579.209482020646
 20
2738.08778689947
 30
0.0
 11
5619.1
 21
2738.087786899471
 31
0.0
  0
LINE
  5
16DFB
330
747D
100
AcDbEntity
  8
点線
 48
2.0
100
AcDbLine
 10
5670.599999999996
 20
2757.999999999999
 30
0.0
 11
5670.599999999996
 21
2738.553008595989
 31
0.0
  0
LINE
  5
16DFC
330
747D
100
AcDbEntity
  8
点線
 48
5.0
100
AcDbLine
 10
5685.599999999997
 20
2813.51921627732
 30
0.0
 11
5685.599999999997
 21
2757.999999999999
 31
0.0
  0
LINE
  5
16DFD
330
747D
100
AcDbEntity
  8
細線
 48
50.0
100
AcDbLine
 10
6010.111476747858
 20
2790.118969280266
 30
0.0
 11
6016.802177901353
 21
2789.927305571231
 31
0.0
  0
ARC
  5
16DFE
330
747D
100
AcDbEntity
  8
細線
 48
50.0
100
AcDbCircle
 10
5995.21057080198
 20
2798.247881094825
 30
0.0
 40
1.001501961612566
100
AcDbArc
 50
28.55217489790415
 51
88.34866917424013
  0
ARC
  5
16DFF
330
747D
100
AcDbEntity
  8
細線
 48
50.0
100
AcDbCircle
 10
6010.583946576649
 20
2806.612203416144
 30
0.0
 40
16.5
100
AcDbArc
 50
208.5483454702892
 51
268.3591377057567
  0
LINE
  5
16E00
330
747D
100
AcDbEntity
  8
部品1
 48
2.0
100
AcDbLine
 10
6010.254649423246
 20
2795.11691901841
 30
0.0
 11
6016.945350576744
 21
2794.925255309375
 31
0.0
  0
ARC
  5
16E01
330
747D
100
AcDbEntity
  8
部品1
 48
2.0
100
AcDbCircle
 10
6010.583946576649
 20
2806.612203416144
 30
0.0
 40
11.5
100
AcDbArc
 50
208.5483454702892
 51
268.3591377057567
  0
ARC
  5
16E02
330
747D
100
AcDbEntity
  8
部品1
 48
2.0
100
AcDbCircle
 10
5995.21057080198
 20
2798.247881094825
 30
0.0
 40
6.001501961612566
100
AcDbArc
 50
28.55217489790415
 51
88.34866917424013
  0
DIMENSION
  5
16E03
330
747D
100
AcDbEntity
  8
寸法
 48
50.0
100
AcDbDimension
  2
*D19
 10
6296.090969203318
 20
2334.0
 30
0.0
 11
6296.090969203318
 21
2180.976377952756
 31
0.0
 12
-3881.423099929833
 22
1391.402249331857
 32
0.0
 70
   160
 71
     5
 42
-1.0
  3
INABA_S20G
100
AcDbAlignedDimension
 13
6102.6
 23
2364.0
 33
0.0
 14
6102.6
 24
2334.0
 34
0.0
 50
90.0
100
AcDbRotatedDimension
  0
LINE
  5
16E04
330
747D
100
AcDbEntity
  8
想像線
 48
8.0
100
AcDbLine
 10
6102.6
 20
2334.0
 30
0.0
 11
6102.6
 21
2364.0
 31
0.0
  0
LINE
  5
16E05
330
747D
100
AcDbEntity
  8
点線
 48
3.0
100
AcDbLine
 10
6101.599999999997
 20
2726.203438395416
 30
0.0
 11
6101.600000000001
 21
2758.0
 31
0.0
  0
LINE
  5
16E06
330
747D
100
AcDbEntity
  8
細線
 48
50.0
100
AcDbLine
 10
6138.6
 20
2725.143266475646
 30
0.0
 11
6138.599999999999
 21
2790.28242873691
 31
0.0
  0
LINE
  5
16E07
330
747D
100
AcDbEntity
  8
部品1
 48
50.0
100
AcDbLine
 10
6143.600000000001
 20
2725.0
 30
0.0
 11
6143.599999999997
 21
2790.28242873691
 31
0.0
  0
LINE
  5
16E08
330
747D
100
AcDbEntity
  8
細線
 48
50.0
100
AcDbLine
 10
6133.743207700132
 20
2795.280377471603
 30
0.0
 11
6032.152626675792
 21
2798.191282372014
 31
0.0
  0
LINE
  5
16E09
330
747D
100
AcDbEntity
  8
部品1
 48
50.0
100
AcDbLine
 10
6133.886415400268
 20
2800.278326206296
 30
0.0
 11
6032.295834375926
 21
2803.189231106707
 31
0.0
  0
ARC
  5
16E0A
330
747D
100
AcDbEntity
  8
細線
 48
50.0
100
AcDbCircle
 10
6032.124597058971
 20
2797.190822154586
 30
0.0
 40
1.00085262072102
100
AcDbArc
 50
88.36481440679087
 51
148.167489209843
  0
LINE
  5
16E0B
330
747D
100
AcDbEntity
  8
細線
 48
50.0
100
AcDbLine
 10
6084.644532386528
 20
2785.327670417576
 30
0.0
 11
6061.644532386528
 21
2785.839919860783
 31
0.0
  0
LINE
  5
16E0C
330
747D
100
AcDbEntity
  8
細線
 48
50.0
100
AcDbLine
 10
6084.555467613476
 20
2767.325190332704
 30
0.0
 11
6061.555467613473
 21
2767.837439775912
 31
0.0
  0
LINE
  5
16E0D
330
747D
100
AcDbEntity
  8
細線
 48
50.0
100
AcDbLine
 10
6059.6
 20
2769.836943931083
 30
0.0
 11
6059.6
 21
2783.840415705611
 31
0.0
  0
LINE
  5
16E0E
330
747D
100
AcDbEntity
  8
細線
 48
50.0
100
AcDbLine
 10
6086.600000000004
 20
2769.324694487876
 30
0.0
 11
6086.6
 21
2783.328166262404
 31
0.0
  0
ARC
  5
16E0F
330
747D
100
AcDbEntity
  8
細線
 48
50.0
100
AcDbCircle
 10
6061.600000000001
 20
2783.840415705611
 30
0.0
 40
2.0
100
AcDbArc
 50
88.72413565991033
 51
180.0
  0
ARC
  5
16E10
330
747D
100
AcDbEntity
  8
細線
 48
50.0
100
AcDbCircle
 10
6084.6
 20
2783.328166262404
 30
0.0
 40
2.0
100
AcDbArc
 50
0.0
 51
88.72413565991022
  0
ARC
  5
16E11
330
747D
100
AcDbEntity
  8
細線
 48
50.0
100
AcDbCircle
 10
6084.600000000004
 20
2769.324694487876
 30
0.0
 40
2.0
100
AcDbArc
 50
268.7241356599103
 51
0.0
  0
ARC
  5
16E12
330
747D
100
AcDbEntity
  8
細線
 48
50.0
100
AcDbCircle
 10
6061.600000000001
 20
2769.836943931083
 30
0.0
 40
2.0
100
AcDbArc
 50
180.0
 51
268.7241356599103
  0
ARC
  5
16E13
330
747D
100
AcDbEntity
  8
部品1
 48
2.0
100
AcDbCircle
 10
6032.124597058971
 20
2797.190822154586
 30
0.0
 40
6.00085262072102
100
AcDbArc
 50
88.36481440679087
 51
148.167489209843
  0
ARC
  5
16E14
330
747D
100
AcDbEntity
  8
細線
 48
50.0
100
AcDbCircle
 10
6133.599999999997
 20
2790.28242873691
 30
0.0
 40
5.0
100
AcDbArc
 50
0.000000000001374
 51
88.35873618706306
  0
ARC
  5
16E15
330
747D
100
AcDbEntity
  8
部品1
 48
50.0
100
AcDbCircle
 10
6133.599999999997
 20
2790.28242873691
 30
0.0
 40
10.0
100
AcDbArc
 50
0.000000000001374
 51
88.35873618706306
  0
DIMENSION
  5
171C2
330
747D
100
AcDbEntity
  8
寸法
 48
50.0
100
AcDbDimension
  2
*D20
 10
4300.800861439181
 20
4104.582580843267
 30
0.0
 11
4350.800861439181
 21
4384.582580843268
 31
0.0
 12
118.887483167513
 22
-2865.185230908826
 32
0.0
 70
    32
 71
     5
 42
-1.0
  3
INABA_S20G
100
AcDbAlignedDimension
 13
3798.599999999997
 23
4664.582580843268
 33
0.0
 14
3803.599999999997
 24
4104.582580843267
 34
0.0
 50
90.0
100
AcDbRotatedDimension
  0
DIMENSION
  5
171C3
330
747D
100
AcDbEntity
  8
寸法
 48
50.0
100
AcDbDimension
  2
*D21
 10
4154.624603998783
 20
4171.582580843269
 30
0.0
 11
4154.624603998783
 21
4403.582580843269
 31
0.0
 12
118.887483167513
 22
-2865.185230908826
 32
0.0
 70
    32
  1
内部寸法\P<>
 71
     5
 42
-1.0
  3
INABA_S20G
100
AcDbAlignedDimension
 13
3798.6
 23
4635.582580843268
 33
0.0
 14
3798.599999999997
 24
4171.582580843269
 34
0.0
 50
90.0
100
AcDbRotatedDimension
  0
DIMENSION
  5
171C4
330
747D
100
AcDbEntity
  8
寸法
 48
50.0
100
AcDbDimension
  2
*D22
 10
3768.600000000001
 20
5056.414712708183
 30
0.0
 11
3153.599999999999
 21
5106.420618219994
 31
0.0
 12
218.887483167513
 22
-2865.185230908826
 32
0.0
 70
    32
  1
内部寸法 <>
 71
     5
 42
-1.0
  3
INABA_S20G
100
AcDbAlignedDimension
 13
2538.599999999997
 23
4664.582580843268
 33
0.0
 14
3768.600000000001
 24
4664.582580843176
 34
0.0
100
AcDbRotatedDimension
  0
DIMENSION
  5
171C6
330
747D
100
AcDbEntity
  8
寸法
 48
50.0
100
AcDbDimension
  2
*D23
 10
3260.589113722071
 20
4851.948181228362
 30
0.0
 11
2871.089113722071
 21
4901.948181228362
 31
0.0
 70
    32
 71
     5
 42
-1.0
  3
INABA_S20G
100
AcDbAlignedDimension
 13
2540.099999999994
 23
4633.58258084327
 33
0.0
 14
3319.099999999993
 24
4633.58258084327
 34
0.0
100
AcDbRotatedDimension
  0
LINE
  5
171C7
330
747D
100
AcDbEntity
  8
部品1
 48
50.0
100
AcDbLine
 10
3319.099999999993
 20
4633.58258084327
 30
0.0
 11
2540.099999999994
 21
4633.58258084327
 31
0.0
  0
LINE
  5
171C8
330
747D
100
AcDbEntity
  8
細線
 48
50.0
100
AcDbLine
 10
3141.599999999997
 20
4638.582580843269
 30
0.0
 11
2534.599999999997
 21
4638.582580843269
 31
0.0
  0
LINE
  5
171C9
330
747D
100
AcDbEntity
  8
部品1
 48
50.0
100
AcDbLine
 10
3319.099999999993
 20
4183.582580843269
 30
0.0
 11
2540.099999999994
 21
4183.582580843269
 31
0.0
  0
LINE
  5
171CA
330
747D
100
AcDbEntity
  8
部品1
 48
50.0
100
AcDbLine
 10
3131.099999999997
 20
4127.082580843269
 30
0.0
 11
2546.599999999993
 21
4127.082580843267
 31
0.0
  0
LINE
  5
171CB
330
747D
100
AcDbEntity
  8
部品1
 48
50.0
100
AcDbLine
 10
3151.099999999993
 20
4143.582580843268
 30
0.0
 11
2532.099999999993
 21
4143.582580843268
 31
0.0
  0
LINE
  5
171CC
330
747D
100
AcDbEntity
  8
部品1
 48
50.0
100
AcDbLine
 10
3171.099999999993
 20
4165.58258084327
 30
0.0
 11
2539.099999999993
 21
4165.58258084327
 31
0.0
  0
LINE
  5
171CD
330
747D
100
AcDbEntity
  8
細線
 48
50.0
100
AcDbLine
 10
3319.099999999993
 20
4183.582580843269
 30
0.0
 11
2540.099999999994
 21
4633.582580843267
 31
0.0
  0
LINE
  5
171CE
330
747D
100
AcDbEntity
  8
細線
 48
50.0
100
AcDbLine
 10
3319.099999999993
 20
4633.58258084327
 30
0.0
 11
2540.099999999994
 21
4183.582580843269
 31
0.0
  0
LINE
  5
171CF
330
747D
100
AcDbEntity
  8
部品1
 48
50.0
100
AcDbLine
 10
3768.599999999997
 20
4109.582580843269
 30
0.0
 11
2538.599999999997
 21
4109.582580843269
 31
0.0
  0
LINE
  5
171D0
330
747D
100
AcDbEntity
  8
部品1
 48
50.0
100
AcDbLine
 10
3768.600000000001
 20
4171.582580843269
 30
0.0
 11
2538.599999999997
 21
4171.582580843267
 31
0.0
  0
LINE
  5
171D1
330
747D
100
AcDbEntity
  8
部品1
 48
50.0
100
AcDbLine
 10
3772.599999999997
 20
4635.582580843268
 30
0.0
 11
2534.599999999997
 21
4635.582580843268
 31
0.0
  0
LINE
  5
171D2
330
747D
100
AcDbEntity
  8
部品1
 48
50.0
100
AcDbLine
 10
3798.599999999997
 20
4664.582580843268
 30
0.0
 11
2508.599999999997
 21
4664.582580843268
 31
0.0
  0
DIMENSION
  5
171D3
330
747D
100
AcDbEntity
  8
寸法
 48
50.0
100
AcDbDimension
  2
*D24
 10
2503.599999999997
 20
3662.884076791021
 30
0.0
 11
3153.599999999997
 21
3712.88407679102
 31
0.0
 12
218.887483167513
 22
-2865.185230908826
 32
0.0
 70
    32
 71
     5
 42
-1.0
  3
INABA_S20G
100
AcDbAlignedDimension
 13
3803.599999999997
 23
4104.582580843267
 33
0.0
 14
2503.599999999997
 24
4104.582580843265
 34
0.0
100
AcDbRotatedDimension
  0
DIMENSION
  5
171D4
330
747D
100
AcDbEntity
  8
寸法
 48
50.0
100
AcDbDimension
  2
*D25
 10
2282.837149601686
 20
4252.515953850025
 30
0.0
 11
2132.837149601686
 21
4477.515953850025
 31
0.0
 12
318.887483167513
 22
-2865.185230908826
 32
0.0
 70
    32
 71
     5
 42
-1.0
  3
INABA_S20G
100
AcDbAlignedDimension
 13
2540.099999999994
 23
4633.582580843267
 33
0.0
 14
2540.099999999997
 24
4183.582580843269
 34
0.0
 50
90.0
100
AcDbRotatedDimension
  0
LINE
  5
171D5
330
747D
100
AcDbEntity
  8
部品1
100
AcDbLine
 10
2540.099999999994
 20
4633.582580843267
 30
0.0
 11
2540.099999999997
 21
4183.582580843269
 31
0.0
  0
LINE
  5
171D6
330
747D
100
AcDbEntity
  8
部品1
 48
50.0
100
AcDbLine
 10
2537.599999999997
 20
4609.582580843269
 30
0.0
 11
2537.599999999997
 21
4206.082580843268
 31
0.0
  0
LINE
  5
171D7
330
747D
100
AcDbEntity
  8
細線
 48
50.0
100
AcDbLine
 10
2534.599999999997
 20
4609.582580843269
 30
0.0
 11
2534.599999999997
 21
4206.082580843265
 31
0.0
  0
LINE
  5
171D8
330
747D
100
AcDbEntity
  8
部品1
 48
50.0
100
AcDbLine
 10
2508.599999999997
 20
4109.582580843269
 30
0.0
 11
2508.599999999997
 21
4664.582580843268
 31
0.0
  0
LINE
  5
171D9
330
747D
100
AcDbEntity
  8
部品1
100
AcDbLine
 10
2538.599999999993
 20
4143.582580843268
 30
0.0
 11
2538.599999999997
 21
4108.692062863918
 31
0.0
  0
LINE
  5
171DA
330
747D
100
AcDbEntity
  8
部品1
 48
50.0
100
AcDbLine
 10
2528.099999999997
 20
4109.582580843269
 30
0.0
 11
2528.099999999997
 21
4153.582580843269
 31
0.0
  0
LINE
  5
171DB
330
747D
100
AcDbEntity
  8
部品1
100
AcDbLine
 10
2503.599999999997
 20
4108.692062863918
 30
0.0
 11
2503.599999999997
 21
4147.582580843269
 31
0.0
  0
LINE
  5
171DC
330
747D
100
AcDbEntity
  8
部品1
 48
50.0
100
AcDbLine
 10
2528.099999999997
 20
4109.582580843269
 30
0.0
 11
2508.599999999997
 21
4109.582580843269
 31
0.0
  0
ARC
  5
171DD
330
747D
100
AcDbEntity
  8
部品1
100
AcDbCircle
 10
2521.099999999997
 20
4164.582580843267
 30
0.0
 40
58.0
100
AcDbArc
 50
265.0439082357276
 51
274.9560917642725
  0
ARC
  5
171DE
330
747D
100
AcDbEntity
  8
部品1
100
AcDbCircle
 10
2505.599999999997
 20
4108.692062863918
 30
0.0
 40
2.0
100
AcDbArc
 50
180.0
 51
254.4998214330009
  0
ARC
  5
171DF
330
747D
100
AcDbEntity
  8
部品1
100
AcDbCircle
 10
2521.099999999997
 20
4164.582580843267
 30
0.0
 40
60.0
100
AcDbArc
 50
254.4998214330011
 51
263.0680938024152
  0
ARC
  5
171E0
330
747D
100
AcDbEntity
  8
部品1
100
AcDbCircle
 10
2514.099999999997
 20
4107.006544161328
 30
0.0
 40
2.0
100
AcDbArc
 50
263.0680938024152
 51
354.056001019071
  0
ARC
  5
171E1
330
747D
100
AcDbEntity
  8
部品1
100
AcDbCircle
 10
2536.599999999997
 20
4108.692062863918
 30
0.0
 40
2.0
100
AcDbArc
 50
285.500178566999
 51
0.0000000000061067
  0
ARC
  5
171E2
330
747D
100
AcDbEntity
  8
部品1
100
AcDbCircle
 10
2521.099999999997
 20
4164.582580843267
 30
0.0
 40
60.0
100
AcDbArc
 50
276.9319061975849
 51
285.500178566999
  0
ARC
  5
171E3
330
747D
100
AcDbEntity
  8
部品1
100
AcDbCircle
 10
2528.099999999997
 20
4107.006544161328
 30
0.0
 40
2.0
100
AcDbArc
 50
185.9439989809289
 51
276.9319061975831
  0
LINE
  5
171E4
330
747D
100
AcDbEntity
  8
部品1
 48
50.0
100
AcDbLine
 10
2534.599999999997
 20
4171.582580843267
 30
0.0
 11
2508.599999999997
 21
4171.582580843269
 31
0.0
  0
LINE
  5
171E5
330
747D
100
AcDbEntity
  8
部品1
 48
50.0
100
AcDbLine
 10
2508.599999999997
 20
4153.582580843269
 30
0.0
 11
2528.099999999997
 21
4153.582580843269
 31
0.0
  0
LINE
  5
171E6
330
747D
100
AcDbEntity
  8
部品1
100
AcDbLine
 10
2538.599999999997
 20
4171.582580843269
 30
0.0
 11
2508.599999999997
 21
4171.582580843269
 31
0.0
  0
LINE
  5
171E7
330
747D
100
AcDbEntity
  8
部品1
 48
50.0
100
AcDbLine
 10
2508.599999999997
 20
4219.582580843269
 30
0.0
 11
2534.599999999997
 21
4219.582580843269
 31
0.0
  0
ARC
  5
171E8
330
747D
100
AcDbEntity
  8
部品1
100
AcDbCircle
 10
2505.599999999997
 20
4147.582580843269
 30
0.0
 40
2.0
100
AcDbArc
 50
89.99999999999976
 51
180.0
  0
LINE
  5
171E9
330
747D
100
AcDbEntity
  8
部品1
 48
50.0
100
AcDbLine
 10
2508.599999999997
 20
4149.582580843269
 30
0.0
 11
2505.599999999997
 21
4149.582580843269
 31
0.0
  0
LINE
  5
171EA
330
747D
100
AcDbEntity
  8
部品1
 48
50.0
100
AcDbLine
 10
2539.099999999993
 20
4155.082580843267
 30
0.0
 11
2538.599999999997
 21
4155.082580843267
 31
0.0
  0
LINE
  5
171EB
330
747D
100
AcDbEntity
  8
部品1
 48
50.0
100
AcDbLine
 10
2532.099999999993
 20
4152.582580843269
 30
0.0
 11
2532.099999999993
 21
4143.582580843268
 31
0.0
  0
LINE
  5
171EC
330
747D
100
AcDbEntity
  8
部品1
 48
50.0
100
AcDbLine
 10
2539.099999999993
 20
4152.582580843269
 30
0.0
 11
2532.099999999993
 21
4152.582580843269
 31
0.0
  0
LINE
  5
171ED
330
747D
100
AcDbEntity
  8
部品1
 48
50.0
100
AcDbLine
 10
2539.099999999993
 20
4165.58258084327
 30
0.0
 11
2539.099999999993
 21
4152.582580843269
 31
0.0
  0
LINE
  5
171EE
330
747D
100
AcDbEntity
  8
部品1
100
AcDbLine
 10
2534.599999999997
 20
4155.582580843269
 30
0.0
 11
2534.599999999997
 21
4206.082580843265
 31
0.0
  0
LINE
  5
171EF
330
747D
100
AcDbEntity
  8
部品1
100
AcDbLine
 10
2535.799999999998
 20
4206.082580843268
 30
0.0
 11
2537.399999999996
 21
4206.082580843268
 31
0.0
  0
LINE
  5
171F0
330
747D
100
AcDbEntity
  8
部品1
100
AcDbLine
 10
2538.599999999997
 20
4206.082580843268
 30
0.0
 11
2538.599999999993
 21
4213.282580843269
 31
0.0
  0
LINE
  5
171F1
330
747D
100
AcDbEntity
  8
部品1
100
AcDbLine
 10
2538.599999999993
 20
4206.082580843268
 30
0.0
 11
2534.599999999997
 21
4206.082580843268
 31
0.0
  0
LINE
  5
171F2
330
747D
100
AcDbEntity
  8
部品1
 48
50.0
100
AcDbLine
 10
2528.099999999997
 20
4144.582580843269
 30
0.0
 11
2529.599999999997
 21
4146.082580843269
 31
0.0
  0
LINE
  5
171F3
330
747D
100
AcDbEntity
  8
部品1
100
AcDbLine
 10
2538.599999999997
 20
4155.582580843267
 30
0.0
 11
2531.599999999997
 21
4155.582580843269
 31
0.0
  0
LINE
  5
171F4
330
747D
100
AcDbEntity
  8
部品1
100
AcDbLine
 10
2531.599999999997
 20
4140.582580843267
 30
0.0
 11
2538.599999999997
 21
4140.582580843269
 31
0.0
  0
LINE
  5
171F5
330
747D
100
AcDbEntity
  8
部品1
100
AcDbLine
 10
2538.599999999993
 20
4171.582580843267
 30
0.0
 11
2538.599999999993
 21
4152.582580843269
 31
0.0
  0
LINE
  5
171F6
330
747D
100
AcDbEntity
  8
部品1
100
AcDbLine
 10
2529.599999999997
 20
4142.582580843269
 30
0.0
 11
2529.599999999997
 21
4153.582580843269
 31
0.0
  0
ARC
  5
171F7
330
747D
100
AcDbEntity
  8
部品1
100
AcDbCircle
 10
2531.599999999997
 20
4142.582580843267
 30
0.0
 40
2.0
100
AcDbArc
 50
179.9999999999991
 51
270.0000000000002
  0
ARC
  5
171F8
330
747D
100
AcDbEntity
  8
部品1
100
AcDbCircle
 10
2531.599999999997
 20
4153.582580843269
 30
0.0
 40
2.0
100
AcDbArc
 50
89.99999999999964
 51
179.9999999999991
  0
LINE
  5
171F9
330
747D
100
AcDbEntity
  8
部品1
100
AcDbLine
 10
2534.599999999997
 20
4171.582580843267
 30
0.0
 11
2534.599999999997
 21
4207.282580843266
 31
0.0
  0
LINE
  5
171FA
330
747D
100
AcDbEntity
  8
部品1
 48
50.0
100
AcDbLine
 10
2837.599999999993
 20
4165.58258084327
 30
0.0
 11
2837.599999999993
 21
4143.582580843268
 31
0.0
  0
LINE
  5
171FB
330
747D
100
AcDbEntity
  8
部品1
 48
50.0
100
AcDbLine
 10
2508.599999999997
 20
4594.582580843269
 30
0.0
 11
2534.599999999997
 21
4594.582580843269
 31
0.0
  0
LINE
  5
171FC
330
747D
100
AcDbEntity
  8
部品1
 48
50.0
100
AcDbLine
 10
2534.599999999997
 20
4647.582580843269
 30
0.0
 11
2534.599999999997
 21
4635.582580843268
 31
0.0
  0
LINE
  5
171FD
330
747D
100
AcDbEntity
  8
部品1
 48
50.0
100
AcDbLine
 10
2522.599999999997
 20
4647.582580843269
 30
0.0
 11
2534.599999999997
 21
4647.582580843269
 31
0.0
  0
LINE
  5
171FE
330
747D
100
AcDbEntity
  8
部品1
 48
50.0
100
AcDbLine
 10
2530.099999999997
 20
4647.582580843269
 30
0.0
 11
2530.099999999997
 21
4630.582580843269
 31
0.0
  0
LINE
  5
171FF
330
747D
100
AcDbEntity
  8
部品1
100
AcDbLine
 10
2534.599999999997
 20
4630.582580843269
 30
0.0
 11
2534.599999999997
 21
4609.582580843269
 31
0.0
  0
LINE
  5
17200
330
747D
100
AcDbEntity
  8
部品1
100
AcDbLine
 10
2534.599999999997
 20
4609.582580843269
 30
0.0
 11
2538.599999999997
 21
4609.582580843269
 31
0.0
  0
LINE
  5
17201
330
747D
100
AcDbEntity
  8
部品1
100
AcDbLine
 10
2538.599999999997
 20
4609.582580843269
 30
0.0
 11
2538.599999999997
 21
4602.582580843269
 31
0.0
  0
LINE
  5
17202
330
747D
100
AcDbEntity
  8
部品1
 48
50.0
100
AcDbLine
 10
2538.599999999997
 20
4630.582580843269
 30
0.0
 11
2538.599999999997
 21
4635.582580843268
 31
0.0
  0
LINE
  5
17203
330
747D
100
AcDbEntity
  8
部品1
 48
50.0
100
AcDbLine
 10
2530.099999999997
 20
4630.582580843269
 30
0.0
 11
2538.599999999997
 21
4630.582580843269
 31
0.0
  0
LINE
  5
17204
330
747D
100
AcDbEntity
  8
部品1
 48
50.0
100
AcDbLine
 10
2522.599999999997
 20
4664.582580843268
 30
0.0
 11
2522.599999999997
 21
4647.582580843269
 31
0.0
  0
LINE
  5
17205
330
747D
100
AcDbEntity
  8
部品1
 48
50.0
100
AcDbLine
 10
2820.599999999997
 20
4664.582580843268
 30
0.0
 11
2825.599999999997
 21
4638.582580843269
 31
0.0
  0
LINE
  5
17206
330
747D
100
AcDbEntity
  8
部品1
 48
50.0
100
AcDbLine
 10
2855.599999999997
 20
4664.582580843268
 30
0.0
 11
2850.599999999997
 21
4638.582580843269
 31
0.0
  0
DIMENSION
  5
17207
330
747D
100
AcDbEntity
  8
寸法
 48
50.0
100
AcDbDimension
  2
*D26
 10
3183.599999999997
 20
3825.232679255116
 30
0.0
 11
3476.099999999997
 21
3925.232679255116
 31
0.0
 12
218.887483167513
 22
-2865.185230908826
 32
0.0
 70
    32
  1
有効開口部間口\P<>
 71
     5
 42
-1.0
  3
INABA_S20G
100
AcDbAlignedDimension
 13
3768.599999999997
 23
4109.582580843269
 33
0.0
 14
3183.599999999997
 24
4109.582580843269
 34
0.0
100
AcDbRotatedDimension
  0
LINE
  5
1720C
330
747D
100
AcDbEntity
  8
部品1
 48
50.0
100
AcDbLine
 10
3775.099999999997
 20
4115.582580843256
 30
0.0
 11
3131.099999999997
 21
4115.582580843256
 31
0.0
  0
LINE
  5
1720D
330
747D
100
AcDbEntity
  8
部品1
 48
50.0
100
AcDbLine
 10
3131.099999999997
 20
4137.582580843257
 30
0.0
 11
3768.099999999997
 21
4137.582580843257
 31
0.0
  0
LINE
  5
1720E
330
747D
100
AcDbEntity
  8
部品1
 48
50.0
100
AcDbLine
 10
3760.599999999997
 20
4155.082580843269
 30
0.0
 11
3171.099999999993
 21
4155.082580843267
 31
0.0
  0
LINE
  5
1720F
330
747D
100
AcDbEntity
  8
細線
 48
50.0
100
AcDbLine
 10
3772.599999999997
 20
4638.582580843269
 30
0.0
 11
3165.599999999997
 21
4638.582580843269
 31
0.0
  0
LINE
  5
17210
330
747D
100
AcDbEntity
  8
部品1
 48
50.0
100
AcDbLine
 10
3321.099999999997
 20
4635.582580843268
 30
0.0
 11
3321.099999999997
 21
4183.582580843269
 31
0.0
  0
LINE
  5
17211
330
747D
100
AcDbEntity
  8
部品1
 48
50.0
100
AcDbLine
 10
3346.099999999997
 20
4635.582580843268
 30
0.0
 11
3346.099999999997
 21
4183.582580843269
 31
0.0
  0
LINE
  5
17212
330
747D
100
AcDbEntity
  8
部品1
100
AcDbLine
 10
3319.099999999993
 20
4633.582580843267
 30
0.0
 11
3319.099999999993
 21
4183.582580843269
 31
0.0
  0
LINE
  5
17214
330
747D
100
AcDbEntity
  8
部品1
 48
50.0
100
AcDbLine
 10
3131.099999999997
 20
4115.582580843256
 30
0.0
 11
3131.099999999997
 21
4137.582580843257
 31
0.0
  0
LINE
  5
17215
330
747D
100
AcDbEntity
  8
部品1
 48
50.0
100
AcDbLine
 10
2872.599999999993
 20
4165.58258084327
 30
0.0
 11
2872.599999999993
 21
4143.582580843268
 31
0.0
  0
LINE
  5
17216
330
747D
100
AcDbEntity
  8
部品1
 48
50.0
100
AcDbLine
 10
3346.099999999997
 20
4183.582580843269
 30
0.0
 11
3321.099999999997
 21
4183.582580843269
 31
0.0
  0
LINE
  5
17217
330
747D
100
AcDbEntity
  8
部品1
 48
50.0
100
AcDbLine
 10
3151.099999999993
 20
4139.582580843269
 30
0.0
 11
3151.099999999993
 21
4143.582580843268
 31
0.0
  0
LINE
  5
17218
330
747D
100
AcDbEntity
  8
部品1
 48
50.0
100
AcDbLine
 10
3171.099999999993
 20
4139.582580843269
 30
0.0
 11
3151.099999999993
 21
4139.582580843269
 31
0.0
  0
LINE
  5
17219
330
747D
100
AcDbEntity
  8
部品1
 48
50.0
100
AcDbLine
 10
3171.099999999993
 20
4139.582580843269
 30
0.0
 11
3171.099999999993
 21
4165.58258084327
 31
0.0
  0
LINE
  5
1721A
330
747D
100
AcDbEntity
  8
部品1
 48
50.0
100
AcDbLine
 10
3346.099999999997
 20
4600.582580843268
 30
0.0
 11
3321.100000000001
 21
4600.582580843268
 31
0.0
  0
LINE
  5
1721B
330
747D
100
AcDbEntity
  8
部品1
 48
50.0
100
AcDbLine
 10
3165.599999999997
 20
4647.582580843269
 30
0.0
 11
3141.599999999997
 21
4647.582580843269
 31
0.0
  0
LINE
  5
1721C
330
747D
100
AcDbEntity
  8
部品1
 48
50.0
100
AcDbLine
 10
3165.599999999997
 20
4647.582580843269
 30
0.0
 11
3165.599999999997
 21
4635.582580843268
 31
0.0
  0
LINE
  5
1721D
330
747D
100
AcDbEntity
  8
部品1
 48
50.0
100
AcDbLine
 10
3141.599999999997
 20
4647.582580843269
 30
0.0
 11
3141.599999999997
 21
4635.582580843268
 31
0.0
  0
LINE
  5
1721E
330
747D
100
AcDbEntity
  8
部品1
 48
50.0
100
AcDbLine
 10
3153.599999999997
 20
4664.582580843268
 30
0.0
 11
3153.599999999997
 21
4647.582580843269
 31
0.0
  0
LINE
  5
17220
330
747D
100
AcDbEntity
  8
部品1
 48
50.0
100
AcDbLine
 10
3769.599999999997
 20
4609.582580843269
 30
0.0
 11
3769.6
 21
4206.082580843268
 31
0.0
  0
LINE
  5
17221
330
747D
100
AcDbEntity
  8
細線
 48
50.0
100
AcDbLine
 10
3772.599999999997
 20
4609.582580843269
 30
0.0
 11
3772.599999999997
 21
4206.082580843265
 31
0.0
  0
LINE
  5
17222
330
747D
100
AcDbEntity
  8
部品1
 48
50.0
100
AcDbLine
 10
3798.599999999997
 20
4109.582580843269
 30
0.0
 11
3798.6
 21
4664.582580843268
 31
0.0
  0
LINE
  5
17223
330
747D
100
AcDbEntity
  8
部品1
 48
50.0
100
AcDbLine
 10
3432.099999999997
 20
4137.582580843257
 30
0.0
 11
3432.099999999997
 21
4115.582580843256
 31
0.0
  0
LINE
  5
17224
330
747D
100
AcDbEntity
  8
部品1
 48
50.0
100
AcDbLine
 10
3467.099999999997
 20
4137.582580843257
 30
0.0
 11
3467.099999999997
 21
4115.582580843256
 31
0.0
  0
LINE
  5
17225
330
747D
100
AcDbEntity
  8
部品1
100
AcDbLine
 10
3768.599999999997
 20
4124.582580843256
 30
0.0
 11
3768.600000000001
 21
4171.582580843269
 31
0.0
  0
LINE
  5
17226
330
747D
100
AcDbEntity
  8
部品1
 48
50.0
100
AcDbLine
 10
3768.099999999997
 20
4137.582580843257
 30
0.0
 11
3768.099999999997
 21
4124.582580843256
 31
0.0
  0
LINE
  5
17227
330
747D
100
AcDbEntity
  8
部品1
 48
50.0
100
AcDbLine
 10
3779.099999999997
 20
4109.582580843269
 30
0.0
 11
3779.100000000001
 21
4153.582580843269
 31
0.0
  0
LINE
  5
17228
330
747D
100
AcDbEntity
  8
部品1
100
AcDbLine
 10
3803.599999999997
 20
4108.555801531942
 30
0.0
 11
3803.599999999997
 21
4147.582580843269
 31
0.0
  0
LINE
  5
17229
330
747D
100
AcDbEntity
  8
部品1
 48
50.0
100
AcDbLine
 10
3775.099999999997
 20
4124.582580843256
 30
0.0
 11
3775.099999999997
 21
4115.582580843256
 31
0.0
  0
LINE
  5
1722A
330
747D
100
AcDbEntity
  8
部品1
 48
50.0
100
AcDbLine
 10
3768.099999999997
 20
4124.582580843256
 30
0.0
 11
3775.099999999997
 21
4124.582580843256
 31
0.0
  0
LINE
  5
1722B
330
747D
100
AcDbEntity
  8
部品1
 48
50.0
100
AcDbLine
 10
3768.599999999997
 20
4127.082580843269
 30
0.0
 11
3768.099999999997
 21
4127.082580843269
 31
0.0
  0
LINE
  5
1722C
330
747D
100
AcDbEntity
  8
部品1
100
AcDbLine
 10
3768.599999999997
 20
4127.582580843269
 30
0.0
 11
3775.599999999997
 21
4127.582580843269
 31
0.0
  0
LINE
  5
1722D
330
747D
100
AcDbEntity
  8
部品1
100
AcDbLine
 10
3773.799999999998
 20
4127.582580843269
 30
0.0
 11
3775.599999999997
 21
4127.582580843269
 31
0.0
  0
ARC
  5
1722E
330
747D
100
AcDbEntity
  8
部品1
100
AcDbCircle
 10
3775.599999999997
 20
4125.582580843269
 30
0.0
 40
2.0
100
AcDbArc
 50
0.0
 51
89.99999999999941
  0
LINE
  5
1722F
330
747D
100
AcDbEntity
  8
部品1
100
AcDbLine
 10
3768.599999999997
 20
4112.582580843267
 30
0.0
 11
3775.599999999997
 21
4112.582580843269
 31
0.0
  0
ARC
  5
17230
330
747D
100
AcDbEntity
  8
部品1
100
AcDbCircle
 10
3775.599999999997
 20
4114.582580843268
 30
0.0
 40
2.0
100
AcDbArc
 50
270.0000000000063
 51
0.0000000000004326
  0
LINE
  5
17231
330
747D
100
AcDbEntity
  8
部品1
100
AcDbLine
 10
3777.599999999997
 20
4114.582580843268
 30
0.0
 11
3777.599999999997
 21
4125.582580843269
 31
0.0
  0
LINE
  5
17232
330
747D
100
AcDbEntity
  8
部品1
100
AcDbLine
 10
3768.599999999997
 20
4108.833141384202
 30
0.0
 11
3768.599999999997
 21
4115.582580843256
 31
0.0
  0
ARC
  5
17233
330
747D
100
AcDbEntity
  8
部品1
100
AcDbCircle
 10
3793.099999999997
 20
4106.947955833645
 30
0.0
 40
2.0
100
AcDbArc
 50
185.4466889319887
 51
276.4345961486433
  0
ARC
  5
17234
330
747D
100
AcDbEntity
  8
部品1
100
AcDbCircle
 10
3786.599999999997
 20
4164.582580843268
 30
0.0
 40
60.0
100
AcDbArc
 50
276.434596148645
 51
284.9882344823051
  0
ARC
  5
17235
330
747D
100
AcDbEntity
  8
部品1
100
AcDbCircle
 10
3801.599999999997
 20
4108.555801531942
 30
0.0
 40
2.0
100
AcDbArc
 50
284.9882344823052
 51
0.0
  0
ARC
  5
17236
330
747D
100
AcDbEntity
  8
部品1
100
AcDbCircle
 10
3779.099999999997
 20
4107.069538844084
 30
0.0
 40
2.0
100
AcDbArc
 50
262.5702583891838
 51
353.5581656058383
  0
ARC
  5
17237
330
747D
100
AcDbEntity
  8
部品1
100
AcDbCircle
 10
3770.599999999997
 20
4108.833141384202
 30
0.0
 40
2.0
100
AcDbArc
 50
179.9999999999971
 51
253.9866055760512
  0
ARC
  5
17238
330
747D
100
AcDbEntity
  8
部品1
100
AcDbCircle
 10
3786.599999999997
 20
4164.582580843268
 30
0.0
 40
60.0
100
AcDbArc
 50
253.9866055760513
 51
262.5702583891818
  0
ARC
  5
17239
330
747D
100
AcDbEntity
  8
部品1
100
AcDbCircle
 10
3786.599999999997
 20
4164.582580843268
 30
0.0
 40
58.0
100
AcDbArc
 50
264.5460728224942
 51
274.4587817153327
  0
LINE
  5
1723A
330
747D
100
AcDbEntity
  8
部品1
 48
50.0
100
AcDbLine
 10
3798.599999999997
 20
4109.582580843269
 30
0.0
 11
3779.099999999997
 21
4109.582580843269
 31
0.0
  0
LINE
  5
1723B
330
747D
100
AcDbEntity
  8
部品1
 48
50.0
100
AcDbLine
 10
3798.599999999997
 20
4171.582580843269
 30
0.0
 11
3772.599999999997
 21
4171.582580843269
 31
0.0
  0
LINE
  5
1723C
330
747D
100
AcDbEntity
  8
部品1
 48
50.0
100
AcDbLine
 10
3779.099999999997
 20
4144.582580843269
 30
0.0
 11
3772.599999999997
 21
4151.082580843271
 31
0.0
  0
LINE
  5
1723D
330
747D
100
AcDbEntity
  8
部品1
 48
50.0
100
AcDbLine
 10
3798.599999999997
 20
4219.582580843269
 30
0.0
 11
3772.600000000001
 21
4219.582580843269
 31
0.0
  0
LINE
  5
1723E
330
747D
100
AcDbEntity
  8
部品1
 48
50.0
100
AcDbLine
 10
3798.599999999997
 20
4153.582580843269
 30
0.0
 11
3779.100000000001
 21
4153.582580843269
 31
0.0
  0
LINE
  5
1723F
330
747D
100
AcDbEntity
  8
部品1
100
AcDbLine
 10
3768.600000000001
 20
4206.082580843268
 30
0.0
 11
3772.599999999997
 21
4206.082580843268
 31
0.0
  0
LINE
  5
17240
330
747D
100
AcDbEntity
  8
部品1
100
AcDbLine
 10
3768.600000000001
 20
4206.082580843268
 30
0.0
 11
3768.600000000001
 21
4213.282580843269
 31
0.0
  0
LINE
  5
17241
330
747D
100
AcDbEntity
  8
部品1
100
AcDbLine
 10
3771.399999999996
 20
4206.082580843268
 30
0.0
 11
3769.799999999997
 21
4206.082580843268
 31
0.0
  0
LINE
  5
17242
330
747D
100
AcDbEntity
  8
部品1
100
AcDbLine
 10
3768.599999999997
 20
4171.582580843269
 30
0.0
 11
3798.599999999997
 21
4171.582580843269
 31
0.0
  0
LINE
  5
17243
330
747D
100
AcDbEntity
  8
部品1
100
AcDbLine
 10
3801.599999999997
 20
4149.582580843269
 30
0.0
 11
3798.599999999997
 21
4149.582580843269
 31
0.0
  0
LINE
  5
17244
330
747D
100
AcDbEntity
  8
部品1
100
AcDbLine
 10
3801.599999999997
 20
4149.582580843269
 30
0.0
 11
3799.599999999997
 21
4149.582580843269
 31
0.0
  0
ARC
  5
17245
330
747D
100
AcDbEntity
  8
部品1
100
AcDbCircle
 10
3801.599999999997
 20
4147.582580843269
 30
0.0
 40
2.0
100
AcDbArc
 50
0.0
 51
90.00000000000026
  0
LINE
  5
17246
330
747D
100
AcDbEntity
  8
部品1
100
AcDbLine
 10
3772.599999999997
 20
4151.082580843271
 30
0.0
 11
3772.600000000001
 21
4206.082580843265
 31
0.0
  0
LINE
  5
17247
330
747D
100
AcDbEntity
  8
部品1
 48
50.0
100
AcDbLine
 10
3451.599999999997
 20
4664.582580843268
 30
0.0
 11
3456.599999999997
 21
4638.582580843269
 31
0.0
  0
LINE
  5
17248
330
747D
100
AcDbEntity
  8
部品1
 48
50.0
100
AcDbLine
 10
3486.599999999997
 20
4664.582580843268
 30
0.0
 11
3481.599999999997
 21
4638.582580843269
 31
0.0
  0
LINE
  5
17249
330
747D
100
AcDbEntity
  8
部品1
 48
50.0
100
AcDbLine
 10
3772.599999999997
 20
4647.582580843269
 30
0.0
 11
3772.599999999997
 21
4635.582580843268
 31
0.0
  0
LINE
  5
1724A
330
747D
100
AcDbEntity
  8
部品1
 48
50.0
100
AcDbLine
 10
3798.599999999997
 20
4594.582580843269
 30
0.0
 11
3772.600000000001
 21
4594.582580843269
 31
0.0
  0
LINE
  5
1724B
330
747D
100
AcDbEntity
  8
部品1
 48
50.0
100
AcDbLine
 10
3768.600000000001
 20
4630.582580843269
 30
0.0
 11
3768.600000000001
 21
4635.582580843268
 31
0.0
  0
LINE
  5
1724C
330
747D
100
AcDbEntity
  8
部品1
100
AcDbLine
 10
3772.600000000001
 20
4609.582580843269
 30
0.0
 11
3768.600000000001
 21
4609.582580843269
 31
0.0
  0
LINE
  5
1724D
330
747D
100
AcDbEntity
  8
部品1
100
AcDbLine
 10
3768.600000000001
 20
4609.582580843269
 30
0.0
 11
3768.600000000001
 21
4602.582580843269
 31
0.0
  0
LINE
  5
1724E
330
747D
100
AcDbEntity
  8
部品1
100
AcDbLine
 10
3772.600000000001
 20
4630.582580843269
 30
0.0
 11
3772.600000000001
 21
4609.582580843269
 31
0.0
  0
LINE
  5
1724F
330
747D
100
AcDbEntity
  8
部品1
 48
50.0
100
AcDbLine
 10
3777.099999999997
 20
4630.582580843269
 30
0.0
 11
3768.600000000001
 21
4630.582580843269
 31
0.0
  0
LINE
  5
17250
330
747D
100
AcDbEntity
  8
部品1
 48
50.0
100
AcDbLine
 10
3777.099999999997
 20
4647.582580843269
 30
0.0
 11
3777.099999999997
 21
4630.582580843269
 31
0.0
  0
LINE
  5
17251
330
747D
100
AcDbEntity
  8
部品1
 48
50.0
100
AcDbLine
 10
3784.599999999997
 20
4647.582580843269
 30
0.0
 11
3772.599999999997
 21
4647.582580843269
 31
0.0
  0
LINE
  5
17252
330
747D
100
AcDbEntity
  8
部品1
 48
50.0
100
AcDbLine
 10
3784.599999999997
 20
4664.582580843268
 30
0.0
 11
3784.599999999997
 21
4647.582580843269
 31
0.0
  0
DIMENSION
  5
173C4
330
747D
100
AcDbEntity
  8
寸法
 48
50.0
100
AcDbDimension
  2
*D27
 10
3346.599999999997
 20
4851.948181228362
 30
0.0
 11
3557.599999999999
 21
4901.954086740172
 31
0.0
 70
    32
 71
     5
 42
-1.0
  3
INABA_S20G
100
AcDbAlignedDimension
 13
3768.600000000001
 23
4664.582580843176
 33
0.0
 14
3346.599999999997
 24
4635.582580843268
 34
0.0
100
AcDbRotatedDimension
  0
ARC
  5
1746C
330
747D
100
AcDbEntity
  8
部品1
100
AcDbCircle
 10
2786.056162329464
 20
1921.0
 30
0.0
 40
400.0
100
AcDbArc
 50
352.14583065
 51
7.854036400000027
  0
ARC
  5
1746D
330
747D
100
AcDbEntity
  8
部品1
100
AcDbCircle
 10
3542.056167819465
 20
1921.0
 30
0.0
 40
400.0
100
AcDbArc
 50
172.14596367
 51
187.85416921
  0
ARC
  5
1746E
330
747D
100
AcDbEntity
  8
細線
 48
50.0
100
AcDbCircle
 10
2789.024643589464
 20
1922.01738193
 30
0.0
 40
390.0
100
AcDbArc
 50
3.658147749999999
 51
8.386167828959825
  0
ARC
  5
1746F
330
747D
100
AcDbEntity
  8
細線
 48
50.0
100
AcDbCircle
 10
3539.087692049464
 20
1922.01738193
 30
0.0
 40
390.0
100
AcDbArc
 50
171.6138321297549
 51
176.34185225
  0
LINE
  5
17470
330
747D
100
AcDbEntity
  8
細線
 48
50.0
100
AcDbLine
 10
3171.606167819464
 20
1887.45
 30
0.0
 11
3171.606167819464
 21
1893.55
 31
0.0
  0
LINE
  5
17471
330
747D
100
AcDbEntity
  8
細線
 48
50.0
100
AcDbLine
 10
3167.056167819465
 20
1893.55
 30
0.0
 11
3166.606167819464
 21
1893.55
 31
0.0
  0
ARC
  5
17472
330
747D
100
AcDbEntity
  8
細線
 48
50.0
100
AcDbCircle
 10
3177.232052309464
 20
1946.83688665
 30
0.0
 40
1.0
100
AcDbArc
 50
262.50415453
 51
3.658147750000058
  0
ARC
  5
17473
330
747D
100
AcDbEntity
  8
細線
 48
50.0
100
AcDbCircle
 10
3182.311167719464
 20
1918.0
 30
0.0
 40
0.5
100
AcDbArc
 50
350.66758182
 51
90.0
  0
ARC
  5
17474
330
747D
100
AcDbEntity
  8
細線
 48
50.0
100
AcDbCircle
 10
3182.311167719464
 20
1924.0
 30
0.0
 40
0.5
100
AcDbArc
 50
270.0
 51
9.332418179999972
  0
ARC
  5
17475
330
747D
100
AcDbEntity
  8
細線
 48
50.0
100
AcDbCircle
 10
3181.760197629464
 20
1924.25
 30
0.0
 40
1.0
100
AcDbArc
 50
10.40212101
 51
90.0
  0
ARC
  5
17476
330
747D
100
AcDbEntity
  8
細線
 48
50.0
100
AcDbCircle
 10
3179.698521659465
 20
1926.25
 30
0.0
 40
1.0
100
AcDbArc
 50
198.55300454
 51
270.0
  0
LINE
  5
17477
330
747D
100
AcDbEntity
  8
細線
 48
50.0
100
AcDbLine
 10
3179.456031449464
 20
1923.5
 30
0.0
 11
3179.456031449464
 21
1918.5
 31
0.0
  0
LINE
  5
17478
330
747D
100
AcDbEntity
  8
細線
 48
50.0
100
AcDbLine
 10
3181.760197629464
 20
1925.25
 30
0.0
 11
3179.698521659465
 21
1925.25
 31
0.0
  0
LINE
  5
17479
330
747D
100
AcDbEntity
  8
細線
 48
50.0
100
AcDbLine
 10
3179.456031449464
 20
1918.5
 30
0.0
 11
3182.311167719464
 21
1918.5
 31
0.0
  0
LINE
  5
1747A
330
747D
100
AcDbEntity
  8
細線
 48
50.0
100
AcDbLine
 10
3179.456031449464
 20
1923.5
 30
0.0
 11
3182.311167719464
 21
1923.5
 31
0.0
  0
ARC
  5
1747B
330
747D
100
AcDbEntity
  8
細線
 48
50.0
100
AcDbCircle
 10
3179.698521659465
 20
1915.75
 30
0.0
 40
1.0
100
AcDbArc
 50
90.0
 51
161.44699546
  0
LINE
  5
1747C
330
747D
100
AcDbEntity
  8
細線
 48
50.0
100
AcDbLine
 10
3181.760197629464
 20
1916.75
 30
0.0
 11
3179.698521659465
 21
1916.75
 31
0.0
  0
ARC
  5
1747D
330
747D
100
AcDbEntity
  8
細線
 48
50.0
100
AcDbCircle
 10
3177.232052309464
 20
1895.16311335
 30
0.0
 40
1.0
100
AcDbArc
 50
356.34185225
 51
97.49584547000004
  0
ARC
  5
1747E
330
747D
100
AcDbEntity
  8
細線
 48
50.0
100
AcDbCircle
 10
3181.760197629464
 20
1917.75
 30
0.0
 40
1.0
100
AcDbArc
 50
270.0
 51
349.59787899
  0
LINE
  5
1747F
330
747D
100
AcDbEntity
  8
細線
 48
50.0
100
AcDbLine
 10
3167.056167819465
 20
1954.5
 30
0.0
 11
3167.056167819465
 21
1954.55
 31
0.0
  0
LINE
  5
17480
330
747D
100
AcDbEntity
  8
細線
 48
50.0
100
AcDbLine
 10
3166.556167819465
 20
1944.0
 30
0.0
 11
3166.556167819465
 21
1948.3
 31
0.0
  0
ARC
  5
17481
330
747D
100
AcDbEntity
  8
細線
 48
50.0
100
AcDbCircle
 10
3167.606167819464
 20
1947.6375921
 30
0.0
 40
1.0
100
AcDbArc
 50
180.0
 51
267.98572355
  0
LINE
  5
17482
330
747D
100
AcDbEntity
  8
細線
 48
50.0
100
AcDbLine
 10
3166.606167819464
 20
1948.45
 30
0.0
 11
3166.606167819464
 21
1947.6375921
 31
0.0
  0
LINE
  5
17483
330
747D
100
AcDbEntity
  8
細線
 48
50.0
100
AcDbLine
 10
3171.606167819464
 20
1948.45
 30
0.0
 11
3166.606167819464
 21
1948.45
 31
0.0
  0
ARC
  5
17484
330
747D
100
AcDbEntity
  8
細線
 48
50.0
100
AcDbCircle
 10
3167.056031449464
 20
1939.25513626
 30
0.0
 40
0.5
100
AcDbArc
 50
80.66758181999999
 51
180.0
  0
LINE
  5
17485
330
747D
100
AcDbEntity
  8
細線
 48
50.0
100
AcDbLine
 10
3166.556031449464
 20
1936.4
 30
0.0
 11
3166.556031449464
 21
1939.25513626
 31
0.0
  0
ARC
  5
17486
330
747D
100
AcDbEntity
  8
細線
 48
50.0
100
AcDbCircle
 10
3167.306031449464
 20
1938.70416617
 30
0.0
 40
1.0
100
AcDbArc
 50
0.0
 51
79.59787899
  0
LINE
  5
17487
330
747D
100
AcDbEntity
  8
細線
 48
50.0
100
AcDbLine
 10
3168.306031449465
 20
1938.70416617
 30
0.0
 11
3168.306031449465
 21
1936.642490209999
 31
0.0
  0
ARC
  5
17488
330
747D
100
AcDbEntity
  8
細線
 48
50.0
100
AcDbCircle
 10
3169.306031449464
 20
1936.642490209999
 30
0.0
 40
1.0
100
AcDbArc
 50
180.0
 51
251.44699546
  0
ARC
  5
17489
330
747D
100
AcDbEntity
  8
細線
 48
50.0
100
AcDbCircle
 10
3165.556167819465
 20
1944.0
 30
0.0
 40
1.0
100
AcDbArc
 50
270.0
 51
0.0
  0
LINE
  5
1748A
330
747D
100
AcDbEntity
  8
細線
 48
50.0
100
AcDbLine
 10
3161.556167819465
 20
1944.0
 30
0.0
 11
3161.556167819465
 21
1948.3
 31
0.0
  0
LINE
  5
1748B
330
747D
100
AcDbEntity
  8
細線
 48
50.0
100
AcDbLine
 10
3161.506167819464
 20
1948.45
 30
0.0
 11
3161.506167819464
 21
1947.6375921
 31
0.0
  0
LINE
  5
1748C
330
747D
100
AcDbEntity
  8
細線
 48
50.0
100
AcDbLine
 10
3161.556031449464
 20
1936.4
 30
0.0
 11
3161.556031449464
 21
1939.25513626
 31
0.0
  0
LINE
  5
1748D
330
747D
100
AcDbEntity
  8
細線
 48
50.0
100
AcDbLine
 10
3161.556031449464
 20
1936.4
 30
0.0
 11
3166.556031449464
 21
1936.4
 31
0.0
  0
LINE
  5
1748E
330
747D
100
AcDbEntity
  8
細線
 48
50.0
100
AcDbLine
 10
3165.556167819465
 20
1943.0
 30
0.0
 11
3162.556167819465
 21
1943.0
 31
0.0
  0
LINE
  5
1748F
330
747D
100
AcDbEntity
  8
細線
 48
50.0
100
AcDbLine
 10
3165.306561329464
 20
1925.99972446
 30
0.0
 11
3162.806561329464
 21
1925.99972446
 31
0.0
  0
LINE
  5
17490
330
747D
100
AcDbEntity
  8
細線
 48
50.0
100
AcDbLine
 10
3171.606167819464
 20
1954.55
 30
0.0
 11
3171.606167819464
 21
1948.45
 31
0.0
  0
ARC
  5
17491
330
747D
100
AcDbEntity
  8
細線
 48
50.0
100
AcDbCircle
 10
3167.306031449464
 20
1903.29583382
 30
0.0
 40
1.0
100
AcDbArc
 50
280.40212101
 51
0.0
  0
LINE
  5
17492
330
747D
100
AcDbEntity
  8
細線
 48
50.0
100
AcDbLine
 10
3168.306031449465
 20
1903.29583382
 30
0.0
 11
3168.306031449465
 21
1905.35750979
 31
0.0
  0
ARC
  5
17493
330
747D
100
AcDbEntity
  8
細線
 48
50.0
100
AcDbCircle
 10
3169.306031449464
 20
1905.35750979
 30
0.0
 40
1.0
100
AcDbArc
 50
108.55300454
 51
180.0
  0
LINE
  5
17494
330
747D
100
AcDbEntity
  8
細線
 48
50.0
100
AcDbLine
 10
3165.306561329464
 20
1915.99972446
 30
0.0
 11
3162.806561329464
 21
1915.99972446
 31
0.0
  0
ARC
  5
17495
330
747D
100
AcDbEntity
  8
細線
 48
50.0
100
AcDbCircle
 10
3167.606167819464
 20
1894.36240789
 30
0.0
 40
1.0
100
AcDbArc
 50
92.01427645
 51
180.0
  0
LINE
  5
17496
330
747D
100
AcDbEntity
  8
細線
 48
50.0
100
AcDbLine
 10
3166.606167819464
 20
1893.55
 30
0.0
 11
3166.606167819464
 21
1894.36240789
 31
0.0
  0
ARC
  5
17497
330
747D
100
AcDbEntity
  8
細線
 48
50.0
100
AcDbCircle
 10
3165.556167819465
 20
1898.0
 30
0.0
 40
1.0
100
AcDbArc
 50
0.0
 51
90.0
  0
LINE
  5
17498
330
747D
100
AcDbEntity
  8
細線
 48
50.0
100
AcDbLine
 10
3166.556167819465
 20
1898.0
 30
0.0
 11
3166.556167819465
 21
1893.7
 31
0.0
  0
LINE
  5
17499
330
747D
100
AcDbEntity
  8
細線
 48
50.0
100
AcDbLine
 10
3166.606167819464
 20
1893.55
 30
0.0
 11
3171.606167819464
 21
1893.55
 31
0.0
  0
LINE
  5
1749A
330
747D
100
AcDbEntity
  8
細線
 48
50.0
100
AcDbLine
 10
3161.506167819464
 20
1893.55
 30
0.0
 11
3161.506167819464
 21
1894.36240789
 31
0.0
  0
LINE
  5
1749B
330
747D
100
AcDbEntity
  8
細線
 48
50.0
100
AcDbLine
 10
3161.556167819465
 20
1898.0
 30
0.0
 11
3161.556167819465
 21
1893.7
 31
0.0
  0
LINE
  5
1749C
330
747D
100
AcDbEntity
  8
細線
 48
50.0
100
AcDbLine
 10
3162.556167819465
 20
1899.0
 30
0.0
 11
3165.556167819465
 21
1899.0
 31
0.0
  0
ARC
  5
1749D
330
747D
100
AcDbEntity
  8
細線
 48
50.0
100
AcDbCircle
 10
3163.825596719464
 20
1920.99986223
 30
0.0
 40
4.86447736
100
AcDbArc
 50
287.72427684
 51
72.27572315999998
  0
LINE
  5
1749E
330
747D
100
AcDbEntity
  8
細線
 48
50.0
100
AcDbLine
 10
3162.806561329464
 20
1915.99972446
 30
0.0
 11
3162.806561329464
 21
1925.99972446
 31
0.0
  0
LINE
  5
1749F
330
747D
100
AcDbEntity
  8
細線
 48
50.0
100
AcDbLine
 10
3165.306561329464
 20
1915.99972446
 30
0.0
 11
3165.306561329464
 21
1925.99972446
 31
0.0
  0
ARC
  5
174A0
330
747D
100
AcDbEntity
  8
細線
 48
50.0
100
AcDbCircle
 10
3164.056031449464
 20
1921.0
 30
0.0
 40
15.5
100
AcDbArc
 50
288.55300454
 51
341.44699546
  0
ARC
  5
174A1
330
747D
100
AcDbEntity
  8
細線
 48
50.0
100
AcDbCircle
 10
3164.056031449464
 20
1921.0
 30
0.0
 40
15.5
100
AcDbArc
 50
18.55300454
 51
71.44699546
  0
ARC
  5
174A2
330
747D
100
AcDbEntity
  8
細線
 48
50.0
100
AcDbCircle
 10
3164.056167819465
 20
1995.3
 30
0.0
 40
100.0
100
AcDbArc
 50
272.01427645
 51
277.49584547
  0
ARC
  5
174A3
330
747D
100
AcDbEntity
  8
細線
 48
50.0
100
AcDbCircle
 10
3164.056167819465
 20
1846.7
 30
0.0
 40
100.0
100
AcDbArc
 50
82.50415453
 51
87.98572355000001
  0
ARC
  5
174A4
330
747D
100
AcDbEntity
  8
部品1
100
AcDbCircle
 10
3164.056167819465
 20
1959.49955336
 30
0.0
 40
97.0
100
AcDbArc
 50
276.39156482
 51
279.35251214
  0
ARC
  5
174A5
330
747D
100
AcDbEntity
  8
部品1
100
AcDbCircle
 10
3179.331940119464
 20
1866.74907745
 30
0.0
 40
3.0
100
AcDbArc
 50
279.35251214
 51
352.14583065
  0
ARC
  5
174A6
330
747D
100
AcDbEntity
  8
細線
 48
50.0
100
AcDbCircle
 10
2789.024643589464
 20
1919.98261806
 30
0.0
 40
390.0
100
AcDbArc
 50
351.6136975214182
 51
356.3418522549218
  0
ARC
  5
174A7
330
747D
100
AcDbEntity
  8
部品1
100
AcDbCircle
 10
3173.519828699464
 20
1860.95336574
 30
0.0
 40
1.0
100
AcDbArc
 50
275.48542473
 51
351.27186792
  0
ARC
  5
174A8
330
747D
100
AcDbEntity
  8
部品1
100
AcDbCircle
 10
2789.024643589464
 20
1919.98261806
 30
0.0
 40
390.0
100
AcDbArc
 50
351.27186792
 51
351.6136975214182
  0
ARC
  5
174A9
330
747D
100
AcDbEntity
  8
細線
 48
50.0
100
AcDbCircle
 10
3148.413541239464
 20
1926.25
 30
0.0
 40
1.0
100
AcDbArc
 50
270.0
 51
341.44699546
  0
ARC
  5
174AA
330
747D
100
AcDbEntity
  8
細線
 48
50.0
100
AcDbCircle
 10
3164.056031449464
 20
1921.0
 30
0.0
 40
15.5
100
AcDbArc
 50
108.55300454
 51
161.44699546
  0
ARC
  5
174AB
330
747D
100
AcDbEntity
  8
細線
 48
50.0
100
AcDbCircle
 10
3148.413541239464
 20
1915.75
 30
0.0
 40
1.0
100
AcDbArc
 50
18.55300454
 51
90.0
  0
ARC
  5
174AC
330
747D
100
AcDbEntity
  8
細線
 48
50.0
100
AcDbCircle
 10
3164.056031449464
 20
1921.0
 30
0.0
 40
15.5
100
AcDbArc
 50
198.55300454
 51
251.44699546
  0
LINE
  5
174AD
330
747D
100
AcDbEntity
  8
細線
 48
50.0
100
AcDbLine
 10
3146.351865279465
 20
1925.25
 30
0.0
 11
3148.413541239464
 21
1925.25
 31
0.0
  0
ARC
  5
174AE
330
747D
100
AcDbEntity
  8
細線
 48
50.0
100
AcDbCircle
 10
3146.351865279465
 20
1924.25
 30
0.0
 40
1.0
100
AcDbArc
 50
90.0
 51
169.59787899
  0
LINE
  5
174AF
330
747D
100
AcDbEntity
  8
細線
 48
50.0
100
AcDbLine
 10
3146.351865279465
 20
1916.75
 30
0.0
 11
3148.413541239464
 21
1916.75
 31
0.0
  0
ARC
  5
174B0
330
747D
100
AcDbEntity
  8
細線
 48
50.0
100
AcDbCircle
 10
3146.351865279465
 20
1917.75
 30
0.0
 40
1.0
100
AcDbArc
 50
190.4021210099999
 51
270.0
  0
ARC
  5
174B1
330
747D
100
AcDbEntity
  8
細線
 48
50.0
100
AcDbCircle
 10
3158.806031449465
 20
1936.642490209999
 30
0.0
 40
1.0
100
AcDbArc
 50
288.55300454
 51
0.0
  0
ARC
  5
174B2
330
747D
100
AcDbEntity
  8
細線
 48
50.0
100
AcDbCircle
 10
3160.806031449464
 20
1938.70416617
 30
0.0
 40
1.0
100
AcDbArc
 50
100.40212101
 51
180.0
  0
LINE
  5
174B3
330
747D
100
AcDbEntity
  8
細線
 48
50.0
100
AcDbLine
 10
3159.806031449464
 20
1938.70416617
 30
0.0
 11
3159.806031449464
 21
1936.642490209999
 31
0.0
  0
ARC
  5
174B4
330
747D
100
AcDbEntity
  8
細線
 48
50.0
100
AcDbCircle
 10
3150.880283319464
 20
1946.83688665
 30
0.0
 40
1.0
100
AcDbArc
 50
176.34185225
 51
277.49584547
  0
ARC
  5
174B5
330
747D
100
AcDbEntity
  8
細線
 48
50.0
100
AcDbCircle
 10
3164.056167819465
 20
1846.7
 30
0.0
 40
100.0
100
AcDbArc
 50
92.01427645
 51
97.49584547000001
  0
LINE
  5
174B6
330
747D
100
AcDbEntity
  8
細線
 48
50.0
100
AcDbLine
 10
3156.506167819464
 20
1954.55
 30
0.0
 11
3156.506167819464
 21
1948.45
 31
0.0
  0
ARC
  5
174B7
330
747D
100
AcDbEntity
  8
細線
 48
50.0
100
AcDbCircle
 10
3158.806031449465
 20
1905.35750979
 30
0.0
 40
1.0
100
AcDbArc
 50
0.0
 51
71.44699546
  0
ARC
  5
174B8
330
747D
100
AcDbEntity
  8
細線
 48
50.0
100
AcDbCircle
 10
3160.806031449464
 20
1903.29583382
 30
0.0
 40
1.0
100
AcDbArc
 50
180.0
 51
259.59787899
  0
LINE
  5
174B9
330
747D
100
AcDbEntity
  8
細線
 48
50.0
100
AcDbLine
 10
3159.806031449464
 20
1903.29583382
 30
0.0
 11
3159.806031449464
 21
1905.35750979
 31
0.0
  0
LINE
  5
174BA
330
747D
100
AcDbEntity
  8
細線
 48
50.0
100
AcDbLine
 10
3156.506167819464
 20
1887.45
 30
0.0
 11
3156.506167819464
 21
1893.55
 31
0.0
  0
ARC
  5
174BB
330
747D
100
AcDbEntity
  8
細線
 48
50.0
100
AcDbCircle
 10
3150.880283319464
 20
1895.16311335
 30
0.0
 40
1.0
100
AcDbArc
 50
82.50415453
 51
183.65814775
  0
ARC
  5
174BC
330
747D
100
AcDbEntity
  8
細線
 48
50.0
100
AcDbCircle
 10
3164.056167819465
 20
1995.3
 30
0.0
 40
100.0
100
AcDbArc
 50
262.50415453
 51
267.98572355
  0
ARC
  5
174BD
330
747D
100
AcDbEntity
  8
部品1
100
AcDbCircle
 10
3164.056167819465
 20
1959.49955336
 30
0.0
 40
97.0
100
AcDbArc
 50
260.64748439
 51
263.60843518
  0
ARC
  5
174BE
330
747D
100
AcDbEntity
  8
部品1
100
AcDbCircle
 10
3148.780389889465
 20
1866.749078379999
 30
0.0
 40
3.0
100
AcDbArc
 50
187.85416921
 51
260.64748439
  0
ARC
  5
174BF
330
747D
100
AcDbEntity
  8
細線
 48
50.0
100
AcDbCircle
 10
3539.087692049464
 20
1919.98261806
 30
0.0
 40
390.0
100
AcDbArc
 50
183.6581281377828
 51
188.3863024783845
  0
ARC
  5
174C0
330
747D
100
AcDbEntity
  8
部品1
100
AcDbCircle
 10
3154.592506939465
 20
1860.95336574
 30
0.0
 40
1.0
100
AcDbArc
 50
188.72813208
 51
264.51457527
  0
ARC
  5
174C1
330
747D
100
AcDbEntity
  8
部品1
100
AcDbCircle
 10
3539.087692049464
 20
1919.98261806
 30
0.0
 40
390.0
100
AcDbArc
 50
188.3863024783845
 51
188.72813208
  0
CIRCLE
  5
174C2
330
747D
100
AcDbEntity
  8
細線
 48
50.0
100
AcDbCircle
 10
3164.056167819465
 20
1921.0
 30
0.0
 40
19.0
  0
LINE
  5
174C3
330
747D
100
AcDbEntity
  8
細線
 48
50.0
100
AcDbLine
 10
3171.606167819464
 20
1954.55
 30
0.0
 11
3156.506167819464
 21
1954.55
 31
0.0
  0
ARC
  5
174C4
330
747D
100
AcDbEntity
  8
細線
 48
50.0
100
AcDbCircle
 10
3160.506167819465
 20
1947.6375921
 30
0.0
 40
1.0
100
AcDbArc
 50
272.01427645
 51
0.0
  0
LINE
  5
174C5
330
747D
100
AcDbEntity
  8
細線
 48
50.0
100
AcDbLine
 10
3161.506167819464
 20
1948.45
 30
0.0
 11
3156.506167819464
 21
1948.45
 31
0.0
  0
ARC
  5
174C6
330
747D
100
AcDbEntity
  8
細線
 48
50.0
100
AcDbCircle
 10
3161.056031449464
 20
1939.25513626
 30
0.0
 40
0.5
100
AcDbArc
 50
0.0
 51
99.33241818000002
  0
ARC
  5
174C7
330
747D
100
AcDbEntity
  8
細線
 48
50.0
100
AcDbCircle
 10
3162.556167819465
 20
1944.0
 30
0.0
 40
1.0
100
AcDbArc
 50
180.0
 51
270.0
  0
ARC
  5
174C8
330
747D
100
AcDbEntity
  8
細線
 48
50.0
100
AcDbCircle
 10
3164.056031449464
 20
1921.0
 30
0.0
 40
19.0
100
AcDbArc
 50
80.66758181999999
 51
99.08782902000002
  0
ARC
  5
174C9
330
747D
100
AcDbEntity
  8
細線
 48
50.0
100
AcDbCircle
 10
3160.506167819465
 20
1894.36240789
 30
0.0
 40
1.0
100
AcDbArc
 50
0.0
 51
87.98572355000001
  0
ARC
  5
174CA
330
747D
100
AcDbEntity
  8
細線
 48
50.0
100
AcDbCircle
 10
3162.556167819465
 20
1898.0
 30
0.0
 40
1.0
100
AcDbArc
 50
90.0
 51
180.0
  0
LINE
  5
174CB
330
747D
100
AcDbEntity
  8
細線
 48
50.0
100
AcDbLine
 10
3156.506167819464
 20
1893.55
 30
0.0
 11
3161.506167819464
 21
1893.55
 31
0.0
  0
LINE
  5
174CC
330
747D
100
AcDbEntity
  8
細線
 48
50.0
100
AcDbLine
 10
3156.506167819464
 20
1887.45
 30
0.0
 11
3171.606167819464
 21
1887.45
 31
0.0
  0
CIRCLE
  5
174CD
330
747D
100
AcDbEntity
  8
細線
 48
50.0
100
AcDbCircle
 10
3164.056167819465
 20
1921.0
 30
0.0
 40
10.75
  0
ARC
  5
174CE
330
747D
100
AcDbEntity
  8
部品1
100
AcDbCircle
 10
3164.056167819465
 20
1959.5
 30
0.0
 40
100.0
100
AcDbArc
 50
264.51457527
 51
275.48542473
  0
ARC
  5
174CF
330
747D
100
AcDbEntity
  8
部品1
100
AcDbCircle
 10
3164.056166589464
 20
1882.49955501
 30
0.0
 40
97.0
100
AcDbArc
 50
80.64740934000001
 51
83.608355
  0
ARC
  5
174D0
330
747D
100
AcDbEntity
  8
部品1
100
AcDbCircle
 10
3173.519828699464
 20
1981.04663425
 30
0.0
 40
1.0
100
AcDbArc
 50
8.728132079999999
 51
84.51457527
  0
ARC
  5
174D1
330
747D
100
AcDbEntity
  8
部品1
100
AcDbCircle
 10
2789.024643589464
 20
1922.01738193
 30
0.0
 40
390.0
100
AcDbArc
 50
8.386167828959825
 51
8.728132079999999
  0
ARC
  5
174D2
330
747D
100
AcDbEntity
  8
部品1
100
AcDbCircle
 10
3164.056166589464
 20
1882.49955501
 30
0.0
 40
97.0
100
AcDbArc
 50
96.39164352000001
 51
99.35259259
  0
ARC
  5
174D3
330
747D
100
AcDbEntity
  8
部品1
100
AcDbCircle
 10
3154.592506939465
 20
1981.04663425
 30
0.0
 40
1.0
100
AcDbArc
 50
95.48542473000001
 51
171.27186792
  0
ARC
  5
174D4
330
747D
100
AcDbEntity
  8
部品1
100
AcDbCircle
 10
3539.087692049464
 20
1922.01738193
 30
0.0
 40
390.0
100
AcDbArc
 50
171.27186792
 51
171.6138321297549
  0
ARC
  5
174D5
330
747D
100
AcDbEntity
  8
部品1
100
AcDbCircle
 10
3164.056167819465
 20
1882.5
 30
0.0
 40
100.0
100
AcDbArc
 50
84.51457527
 51
95.48542473000001
  0
ARC
  5
174D6
330
747D
100
AcDbEntity
  8
部品1
100
AcDbCircle
 10
3148.780264059464
 20
1975.25000947
 30
0.0
 40
3.0
100
AcDbArc
 50
99.35259259
 51
172.14596367
  0
ARC
  5
174D7
330
747D
100
AcDbEntity
  8
部品1
100
AcDbCircle
 10
3179.332066009465
 20
1975.25000998
 30
0.0
 40
3.0
100
AcDbArc
 50
7.8540364
 51
80.64740934000001
  0
ENDSEC
  0
SECTION
  2
OBJECTS
  0
DICTIONARY
  5
7471
330
0
100
AcDbDictionary
281
     1
  3
ACAD_COLOR
350
174DD
  3
ACAD_GROUP
350
7472
  3
ACAD_LAYOUT
350
174DE
  3
ACAD_MATERIAL
350
174DC
  3
ACAD_MLINESTYLE
350
7473
  3
ACAD_PLOTSETTINGS
350
174DF
  3
ACAD_PLOTSTYLENAME
350
174DA
  3
ACDBHEADERROUNDTRIPXREC
350
174EC
  3
AcDbVariableDictionary
350
174E8
  3
CONTENTDICTIONARY
350
E71C
  3
DRAWINGVARIABLESDICT
350
F3B9
  0
DICTIONARY
  5
174DD
102
{ACAD_REACTORS
330
7471
102
}
330
7471
100
AcDbDictionary
281
     1
  0
DICTIONARY
  5
7472
102
{ACAD_REACTORS
330
7471
102
}
330
7471
100
AcDbDictionary
281
     1
  0
DICTIONARY
  5
174DE
102
{ACAD_REACTORS
330
7471
102
}
330
7471
100
AcDbDictionary
281
     1
  3
Model
350
174E0
  3
レイアウト1
350
174E1
  0
DICTIONARY
  5
174DC
102
{ACAD_REACTORS
330
7471
102
}
330
7471
100
AcDbDictionary
281
     1
  0
DICTIONARY
  5
7473
102
{ACAD_REACTORS
330
7471
102
}
330
7471
100
AcDbDictionary
281
     1
  3
STANDARD
350
7480
  0
DICTIONARY
  5
174DF
102
{ACAD_REACTORS
330
7471
102
}
330
7471
100
AcDbDictionary
281
     1
  0
ACDBDICTIONARYWDFLT
  5
174DA
102
{ACAD_REACTORS
330
7471
102
}
330
7471
100
AcDbDictionary
281
     1
  3
Normal
350
174DB
100
AcDbDictionaryWithDefault
340
174DB
  0
DICTIONARY
  5
174EC
102
{ACAD_REACTORS
330
7471
102
}
330
7471
100
AcDbDictionary
281
     1
  3
COLORDICT
350
174EE
  3
MATERIALDICT
350
174ED
  0
DICTIONARY
  5
174E8
102
{ACAD_REACTORS
330
7471
102
}
330
7471
100
AcDbDictionary
281
     1
  3
DIMASSOC
350
174E9
  3
PROJECTNAME
350
174EA
  0
DICTIONARY
  5
E71C
102
{ACAD_REACTORS
330
7471
102
}
330
7471
100
AcDbDictionary
281
     1
  0
DICTIONARY
  5
F3B9
102
{ACAD_REACTORS
330
7471
102
}
330
7471
100
AcDbDictionary
281
     1
1001
DRAWINGVARIABLESXDATA
1000
POLARMODE
1000
1
  0
LAYOUT
  5
174E0
102
{ACAD_XDICTIONARY
360
174EF
102
}
102
{ACAD_REACTORS
330
174DE
102
}
330
174DE
100
AcDbPlotSettings
  1

  2
Microsoft Office Document Image Writer
  4

  6

 40
0.0
 41
0.0
 42
0.0
 43
0.0
 44
0.0
 45
0.0
 46
0.0
 47
0.0
 48
0.0
 49
0.0
140
0.0
141
0.0
142
1.0
143
1.0
 70
  1712
 72
     0
 73
     0
 74
     0
  7

 75
     0
147
1.0
148
0.0
149
0.0
100
AcDbLayout
  1
Model
 70
     1
 71
     0
 10
0.0
 20
0.0
 11
12.0
 21
9.0
 12
0.0
 22
0.0
 32
0.0
 14
0.0
 24
0.0
 34
0.0
 15
0.0
 25
0.0
 35
0.0
146
0.0
 13
0.0
 23
0.0
 33
0.0
 16
1.0
 26
0.0
 36
0.0
 17
0.0
 27
1.0
 37
0.0
 76
     0
330
747D
  0
LAYOUT
  5
174E1
102
{ACAD_XDICTIONARY
360
174F1
102
}
102
{ACAD_REACTORS
330
174DE
102
}
330
174DE
100
AcDbPlotSettings
  1

  2
Microsoft Office Document Image Writer
  4

  6

 40
0.0
 41
0.0
 42
0.0
 43
0.0
 44
0.0
 45
0.0
 46
0.0
 47
0.0
 48
0.0
 49
0.0
140
0.0
141
0.0
142
1.0
143
1.0
 70
   688
 72
     0
 73
     0
 74
     5
  7

 75
    16
147
1.0
148
0.0
149
0.0
100
AcDbLayout
  1
レイアウト1
 70
     0
 71
     1
 10
0.0
 20
0.0
 11
420.0
 21
297.0
 12
0.0
 22
0.0
 32
0.0
 14
1.000000000000000E+20
 24
1.000000000000000E+20
 34
1.000000000000000E+20
 15
-1.000000000000000E+20
 25
-1.000000000000000E+20
 35
-1.000000000000000E+20
146
0.0
 13
0.0
 23
0.0
 33
0.0
 16
1.0
 26
0.0
 36
0.0
 17
0.0
 27
1.0
 37
0.0
 76
     0
330
747A
  0
MLINESTYLE
  5
7480
102
{ACAD_REACTORS
330
7473
102
}
330
7473
100
AcDbMlineStyle
  2
STANDARD
 70
     0
  3

 62
     0
 51
90.0
 52
90.0
 71
     2
 49
0.5
 62
   256
  6
BYLAYER
 49
-0.5
 62
   256
  6
BYLAYER
  0
ACDBPLACEHOLDER
  5
174DB
102
{ACAD_REACTORS
330
174DA
102
}
330
174DA
  0
XRECORD
  5
174EE
102
{ACAD_REACTORS
330
174EC
102
}
330
174EC
100
AcDbXrecord
280
     1
340
174DD
  0
XRECORD
  5
174ED
102
{ACAD_REACTORS
330
174EC
102
}
330
174EC
100
AcDbXrecord
280
     1
340
174DC
  0
DICTIONARYVAR
  5
174E9
102
{ACAD_REACTORS
330
174E8
102
}
330
174E8
100
DictionaryVariables
280
     0
  1
1
  0
DICTIONARYVAR
  5
174EA
102
{ACAD_REACTORS
330
174E8
102
}
330
174E8
100
DictionaryVariables
280
     0
  1

  0
DICTIONARY
  5
174EF
330
174E0
100
AcDbDictionary
280
     1
281
     1
  3
ACAD_XREC_ROUNDTRIP
360
174F0
  0
DICTIONARY
  5
174F1
330
174E1
100
AcDbDictionary
280
     1
281
     1
  3
ACAD_XREC_ROUNDTRIP
360
174F2
  0
XRECORD
  5
174F0
102
{ACAD_REACTORS
330
174EF
102
}
330
174EF
100
AcDbXrecord
280
     1
102
SHADEPLOT
 70
     0
102
SHADEPLOTRESLEVEL
 70
     2
102
SHADEPLOTCUSTOMDPI
 70
   300
  0
XRECORD
  5
174F2
102
{ACAD_REACTORS
330
174F1
102
}
330
174F1
100
AcDbXrecord
280
     1
102
SHADEPLOT
 70
     0
102
SHADEPLOTRESLEVEL
 70
     2
102
SHADEPLOTCUSTOMDPI
 70
   300
  0
ENDSEC
  0
EOF
