  0
SECTION
  2
HEADER
  9
$ACADVER
  1
AC1015
  9
$ACADMAINTVER
 70
    20
  9
$DWGCODEPAGE
  3
ANSI_932
  9
$INSBASE
 10
0.0
 20
0.0
 30
0.0
  9
$EXTMIN
 10
69.8181344077675
 20
-0.1812605841350887
 30
-0.0015258207003583
  9
$EXTMAX
 10
8153.955097163509
 20
5704.977735724504
 30
0.0000000349246037
  9
$LIMMIN
 10
0.0
 20
0.0
  9
$LIMMAX
 10
8200.0
 20
5940.0
  9
$ORTHOMODE
 70
     0
  9
$REGENMODE
 70
     1
  9
$FILLMODE
 70
     1
  9
$QTEXTMODE
 70
     0
  9
$MIRRTEXT
 70
     1
  9
$LTSCALE
 40
20.0
  9
$ATTMODE
 70
     1
  9
$TEXTSIZE
 40
120.0
  9
$TRACEWID
 40
1.0
  9
$TEXTSTYLE
  7
STYLE1
  9
$CLAYER
  8
部品1
  9
$CELTYPE
  6
BYLAYER
  9
$CECOLOR
 62
   256
  9
$CELTSCALE
 40
50.0
  9
$DISPSILH
 70
     0
  9
$DIMSCALE
 40
20.0
  9
$DIMASZ
 40
2.5
  9
$DIMEXO
 40
0.5
  9
$DIMDLI
 40
7.0
  9
$DIMRND
 40
0.0
  9
$DIMDLE
 40
0.0
  9
$DIMEXE
 40
1.5
  9
$DIMTP
 40
0.0
  9
$DIMTM
 40
0.0
  9
$DIMTXT
 40
3.0
  9
$DIMCEN
 40
0.0
  9
$DIMTSZ
 40
0.0
  9
$DIMTOL
 70
     0
  9
$DIMLIM
 70
     0
  9
$DIMTIH
 70
     0
  9
$DIMTOH
 70
     0
  9
$DIMSE1
 70
     0
  9
$DIMSE2
 70
     0
  9
$DIMTAD
 70
     3
  9
$DIMZIN
 70
     8
  9
$DIMBLK
  1

  9
$DIMASO
 70
     1
  9
$DIMSHO
 70
     1
  9
$DIMPOST
  1

  9
$DIMAPOST
  1

  9
$DIMALT
 70
     0
  9
$DIMALTD
 70
     2
  9
$DIMALTF
 40
0.0394
  9
$DIMLFAC
 40
1.0
  9
$DIMTOFL
 70
     1
  9
$DIMTVP
 40
0.0
  9
$DIMTIX
 70
     1
  9
$DIMSOXD
 70
     0
  9
$DIMSAH
 70
     1
  9
$DIMBLK1
  1
DOTSMALL
  9
$DIMBLK2
  1
DOTSMALL
  9
$DIMSTYLE
  2
INABA_S20G
  9
$DIMCLRD
 70
     0
  9
$DIMCLRE
 70
     0
  9
$DIMCLRT
 70
     7
  9
$DIMTFAC
 40
1.0
  9
$DIMGAP
 40
1.0
  9
$DIMJUST
 70
     0
  9
$DIMSD1
 70
     0
  9
$DIMSD2
 70
     0
  9
$DIMTOLJ
 70
     1
  9
$DIMTZIN
 70
     8
  9
$DIMALTZ
 70
     0
  9
$DIMALTTZ
 70
     0
  9
$DIMUPT
 70
     0
  9
$DIMDEC
 70
     1
  9
$DIMTDEC
 70
     2
  9
$DIMALTU
 70
     2
  9
$DIMALTTD
 70
     2
  9
$DIMTXSTY
  7
STYLE1
  9
$DIMAUNIT
 70
     0
  9
$DIMADEC
 70
     0
  9
$DIMALTRND
 40
0.0
  9
$DIMAZIN
 70
     0
  9
$DIMDSEP
 70
    46
  9
$DIMATFIT
 70
     3
  9
$DIMFRAC
 70
     0
  9
$DIMLDRBLK
  1

  9
$DIMLUNIT
 70
     2
  9
$DIMLWD
 70
    -2
  9
$DIMLWE
 70
    -2
  9
$DIMTMOVE
 70
     0
  9
$LUNITS
 70
     2
  9
$LUPREC
 70
     1
  9
$SKETCHINC
 40
1.0
  9
$FILLETRAD
 40
0.6
  9
$AUNITS
 70
     0
  9
$AUPREC
 70
     0
  9
$MENU
  1
acad
  9
$ELEVATION
 40
0.0
  9
$PELEVATION
 40
0.0
  9
$THICKNESS
 40
0.0
  9
$LIMCHECK
 70
     0
  9
$CHAMFERA
 40
0.0
  9
$CHAMFERB
 40
0.0
  9
$CHAMFERC
 40
0.0
  9
$CHAMFERD
 40
0.0
  9
$SKPOLY
 70
     0
  9
$TDCREATE
 40
2451557.399918519
  9
$TDUCREATE
 40
2451557.024918519
  9
$TDUPDATE
 40
2454572.639959884
  9
$TDUUPDATE
 40
2454572.264959884
  9
$TDINDWG
 40
1.0259273958
  9
$TDUSRTIMER
 40
1.0259273958
  9
$USRTIMER
 70
     1
  9
$ANGBASE
 50
0.0
  9
$ANGDIR
 70
     0
  9
$PDMODE
 70
     3
  9
$PDSIZE
 40
2.0
  9
$PLINEWID
 40
0.0
  9
$SPLFRAME
 70
     0
  9
$SPLINETYPE
 70
     6
  9
$SPLINESEGS
 70
     8
  9
$HANDSEED
  5
17241
  9
$SURFTAB1
 70
     6
  9
$SURFTAB2
 70
     6
  9
$SURFTYPE
 70
     6
  9
$SURFU
 70
     6
  9
$SURFV
 70
     6
  9
$UCSBASE
  2

  9
$UCSNAME
  2

  9
$UCSORG
 10
0.0
 20
0.0
 30
0.0
  9
$UCSXDIR
 10
1.0
 20
0.0
 30
0.0
  9
$UCSYDIR
 10
0.0
 20
1.0
 30
0.0
  9
$UCSORTHOREF
  2

  9
$UCSORTHOVIEW
 70
     0
  9
$UCSORGTOP
 10
0.0
 20
0.0
 30
0.0
  9
$UCSORGBOTTOM
 10
0.0
 20
0.0
 30
0.0
  9
$UCSORGLEFT
 10
0.0
 20
0.0
 30
0.0
  9
$UCSORGRIGHT
 10
0.0
 20
0.0
 30
0.0
  9
$UCSORGFRONT
 10
0.0
 20
0.0
 30
0.0
  9
$UCSORGBACK
 10
0.0
 20
0.0
 30
0.0
  9
$PUCSBASE
  2

  9
$PUCSNAME
  2

  9
$PUCSORG
 10
0.0
 20
0.0
 30
0.0
  9
$PUCSXDIR
 10
1.0
 20
0.0
 30
0.0
  9
$PUCSYDIR
 10
0.0
 20
1.0
 30
0.0
  9
$PUCSORTHOREF
  2

  9
$PUCSORTHOVIEW
 70
     0
  9
$PUCSORGTOP
 10
0.0
 20
0.0
 30
0.0
  9
$PUCSORGBOTTOM
 10
0.0
 20
0.0
 30
0.0
  9
$PUCSORGLEFT
 10
0.0
 20
0.0
 30
0.0
  9
$PUCSORGRIGHT
 10
0.0
 20
0.0
 30
0.0
  9
$PUCSORGFRONT
 10
0.0
 20
0.0
 30
0.0
  9
$PUCSORGBACK
 10
0.0
 20
0.0
 30
0.0
  9
$USERI1
 70
     0
  9
$USERI2
 70
     0
  9
$USERI3
 70
     0
  9
$USERI4
 70
     0
  9
$USERI5
 70
     0
  9
$USERR1
 40
0.0
  9
$USERR2
 40
0.0
  9
$USERR3
 40
0.0
  9
$USERR4
 40
0.0
  9
$USERR5
 40
0.0
  9
$WORLDVIEW
 70
     1
  9
$SHADEDGE
 70
     3
  9
$SHADEDIF
 70
    70
  9
$TILEMODE
 70
     1
  9
$MAXACTVP
 70
    16
  9
$PINSBASE
 10
0.0
 20
0.0
 30
0.0
  9
$PLIMCHECK
 70
     0
  9
$PEXTMIN
 10
1.000000000000000E+20
 20
1.000000000000000E+20
 30
1.000000000000000E+20
  9
$PEXTMAX
 10
-1.000000000000000E+20
 20
-1.000000000000000E+20
 30
-1.000000000000000E+20
  9
$PLIMMIN
 10
0.0
 20
0.0
  9
$PLIMMAX
 10
420.0
 20
297.0
  9
$UNITMODE
 70
     0
  9
$VISRETAIN
 70
     0
  9
$PLINEGEN
 70
     0
  9
$PSLTSCALE
 70
     0
  9
$TREEDEPTH
 70
  3020
  9
$CMLSTYLE
  2
STANDARD
  9
$CMLJUST
 70
     0
  9
$CMLSCALE
 40
1.0
  9
$PROXYGRAPHICS
 70
     1
  9
$MEASUREMENT
 70
     1
  9
$CELWEIGHT
370
    -1
  9
$ENDCAPS
280
     0
  9
$JOINSTYLE
280
     0
  9
$LWDISPLAY
290
     0
  9
$INSUNITS
 70
     0
  9
$HYPERLINKBASE
  1

  9
$STYLESHEET
  1

  9
$XEDIT
290
     1
  9
$CEPSNTYPE
380
     0
  9
$PSTYLEMODE
290
     1
  9
$FINGERPRINTGUID
  2
{2966D5C9-3C9A-425A-BC24-54C434997279}
  9
$VERSIONGUID
  2
{4307DC4F-B627-4A49-BAD2-4F7A0E067859}
  9
$EXTNAMES
290
     1
  9
$PSVPSCALE
 40
0.0
  9
$OLESTARTUP
290
     0
  0
ENDSEC
  0
SECTION
  2
CLASSES
  0
CLASS
  1
ACDBDICTIONARYWDFLT
  2
AcDbDictionaryWithDefault
  3
ObjectDBX Classes
 90
        0
280
     0
281
     0
  0
CLASS
  1
DICTIONARYVAR
  2
AcDbDictionaryVar
  3
ObjectDBX Classes
 90
        0
280
     0
281
     0
  0
CLASS
  1
ACDBPLACEHOLDER
  2
AcDbPlaceHolder
  3
ObjectDBX Classes
 90
        0
280
     0
281
     0
  0
CLASS
  1
LAYOUT
  2
AcDbLayout
  3
ObjectDBX Classes
 90
        0
280
     0
281
     0
  0
ENDSEC
  0
SECTION
  2
TABLES
  0
TABLE
  2
VPORT
  5
746D
330
0
100
AcDbSymbolTable
 70
     2
  0
VPORT
  5
17237
330
746D
100
AcDbSymbolTableRecord
100
AcDbViewportTableRecord
  2
*Active
 70
     0
 10
0.0
 20
0.0
 11
1.0
 21
1.0
 12
4111.886615785637
 22
2852.398237570185
 13
0.0
 23
0.0
 14
10.0
 24
10.0
 15
10.0
 25
10.0
 16
0.0
 26
0.0
 36
1.0
 17
0.0
 27
0.0
 37
0.0
 40
5747.263490746341
 41
1.549261083743842
 42
50.0
 43
0.0
 44
0.0
 50
0.0
 51
0.0
 71
     0
 72
     0
 73
     1
 74
     0
 75
     0
 76
     0
 77
     0
 78
     0
281
     0
 65
     1
110
0.0
120
0.0
130
0.0
111
1.0
121
0.0
131
0.0
112
0.0
122
1.0
132
0.0
 79
     0
146
0.0
  0
ENDTAB
  0
TABLE
  2
LTYPE
  5
746A
330
0
100
AcDbSymbolTable
 70
     4
  0
LTYPE
  5
7477
330
746A
100
AcDbSymbolTableRecord
100
AcDbLinetypeTableRecord
  2
BYBLOCK
 70
     0
  3

 72
    65
 73
     0
 40
0.0
  0
LTYPE
  5
7478
330
746A
100
AcDbSymbolTableRecord
100
AcDbLinetypeTableRecord
  2
BYLAYER
 70
     0
  3

 72
    65
 73
     0
 40
0.0
  0
LTYPE
  5
7479
330
746A
100
AcDbSymbolTableRecord
100
AcDbLinetypeTableRecord
  2
CONTINUOUS
 70
     0
  3
Solid line
 72
    65
 73
     0
 40
0.0
  0
LTYPE
  5
7816
330
746A
100
AcDbSymbolTableRecord
100
AcDbLinetypeTableRecord
  2
CENTER
 70
     0
  3
____ _ ____ _ ____ _ ____ _ ____ _ ____ _ ____ 
 72
    65
 73
     4
 40
2.0
 49
1.25
 74
     0
 49
-0.25
 74
     0
 49
0.25
 74
     0
 49
-0.25
 74
     0
  0
LTYPE
  5
781A
330
746A
100
AcDbSymbolTableRecord
100
AcDbLinetypeTableRecord
  2
HIDDEN
 70
     0
  3
__ __ __ __ __ __ __ __ __ __ __ __ __ __ __ __
 72
    65
 73
     2
 40
0.375
 49
0.25
 74
     0
 49
-0.125
 74
     0
  0
LTYPE
  5
781B
330
746A
100
AcDbSymbolTableRecord
100
AcDbLinetypeTableRecord
  2
PHANTOM
 70
     0
  3
______  __  __  ______  __  __  ______  __  __ 
 72
    65
 73
     6
 40
2.5
 49
1.25
 74
     0
 49
-0.25
 74
     0
 49
0.25
 74
     0
 49
-0.25
 74
     0
 49
0.25
 74
     0
 49
-0.25
 74
     0
  0
ENDTAB
  0
TABLE
  2
LAYER
  5
7467
330
0
100
AcDbSymbolTable
 70
    12
  0
LAYER
  5
7474
330
7467
100
AcDbSymbolTableRecord
100
AcDbLayerTableRecord
  2
0
 70
     0
 62
     7
  6
CONTINUOUS
370
    -3
390
17227
  0
LAYER
  5
DEB2
330
7467
100
AcDbSymbolTableRecord
100
AcDbLayerTableRecord
  2
センター
 70
     0
 62
     3
  6
CENTER
370
    -3
390
17227
  0
LAYER
  5
DEB3
330
7467
100
AcDbSymbolTableRecord
100
AcDbLayerTableRecord
  2
寸法
 70
     0
 62
     4
  6
CONTINUOUS
370
    -3
390
17227
  0
LAYER
  5
DEB4
330
7467
100
AcDbSymbolTableRecord
100
AcDbLayerTableRecord
  2
部品1
 70
     0
 62
     7
  6
CONTINUOUS
370
    -3
390
17227
  0
LAYER
  5
DEB5
330
7467
100
AcDbSymbolTableRecord
100
AcDbLayerTableRecord
  2
補助
 70
     0
 62
    -1
  6
CONTINUOUS
370
    -3
390
17227
  0
LAYER
  5
DEB6
330
7467
100
AcDbSymbolTableRecord
100
AcDbLayerTableRecord
  2
文字
 70
     0
 62
     7
  6
CONTINUOUS
370
    -3
390
17227
  0
LAYER
  5
F255
330
7467
100
AcDbSymbolTableRecord
100
AcDbLayerTableRecord
  2
DEFPOINTS
 70
     0
 62
     7
  6
CONTINUOUS
290
     0
370
    -3
390
17227
  0
LAYER
  5
10B54
330
7467
100
AcDbSymbolTableRecord
100
AcDbLayerTableRecord
  2
仕様書枠
 70
     0
 62
   230
  6
CONTINUOUS
370
    -3
390
17227
  0
LAYER
  5
11729
330
7467
100
AcDbSymbolTableRecord
100
AcDbLayerTableRecord
  2
Ｇ．Ｌ
 70
     0
 62
    30
  6
CONTINUOUS
370
    -3
390
17227
  0
LAYER
  5
1173F
330
7467
100
AcDbSymbolTableRecord
100
AcDbLayerTableRecord
  2
細線
 70
     0
 62
     5
  6
CONTINUOUS
370
    -3
390
17227
  0
LAYER
  5
11740
330
7467
100
AcDbSymbolTableRecord
100
AcDbLayerTableRecord
  2
点線
 70
     0
 62
     2
  6
HIDDEN
370
    -3
390
17227
  0
LAYER
  5
12229
330
7467
100
AcDbSymbolTableRecord
100
AcDbLayerTableRecord
  2
想像線
 70
     0
 62
     6
  6
PHANTOM
370
    -3
390
17227
  0
ENDTAB
  0
TABLE
  2
STYLE
  5
7468
330
0
100
AcDbSymbolTable
 70
     3
  0
STYLE
  5
7475
330
7468
100
AcDbSymbolTableRecord
100
AcDbTextStyleTableRecord
  2
STANDARD
 70
     0
 40
0.0
 41
1.0
 50
0.0
 71
     0
 42
4.0
  3
txt
  4
C:\AutoCAD LT\bigfont.shx
  0
STYLE
  5
F706
330
7468
100
AcDbSymbolTableRecord
100
AcDbTextStyleTableRecord
  2
STYLE1
 70
     0
 40
0.0
 41
1.0
 50
0.0
 71
     0
 42
120.0
  3
isocp.shx
  4
bigfont.shx
  0
STYLE
  5
103BF
330
7468
100
AcDbSymbolTableRecord
100
AcDbTextStyleTableRecord
  2
STYLE2
 70
     0
 40
0.0
 41
1.0
 50
0.0
 71
     0
 42
100.0
  3
MS PGothic.ttf
  4

1001
ACAD
1000
MS PGothic
1071
    32818
  0
ENDTAB
  0
TABLE
  2
VIEW
  5
746B
330
0
100
AcDbSymbolTable
 70
     0
  0
ENDTAB
  0
TABLE
  2
UCS
  5
746C
330
0
100
AcDbSymbolTable
 70
     0
  0
ENDTAB
  0
TABLE
  2
APPID
  5
746E
330
0
100
AcDbSymbolTable
 70
     6
  0
APPID
  5
7476
330
746E
100
AcDbSymbolTableRecord
100
AcDbRegAppTableRecord
  2
ACAD
 70
     0
  0
APPID
  5
DEA9
330
746E
100
AcDbSymbolTableRecord
100
AcDbRegAppTableRecord
  2
CONTENTBLOCKICON
 70
     0
  0
APPID
  5
DEAA
330
746E
100
AcDbSymbolTableRecord
100
AcDbRegAppTableRecord
  2
CONTENTBLOCKDESCRIPTION
 70
     0
  0
APPID
  5
E71D
330
746E
100
AcDbSymbolTableRecord
100
AcDbRegAppTableRecord
  2
CONTENTTABDATA
 70
     0
  0
APPID
  5
E71E
330
746E
100
AcDbSymbolTableRecord
100
AcDbRegAppTableRecord
  2
CONTENTCURRENTTAB
 70
     0
  0
APPID
  5
F3BA
330
746E
100
AcDbSymbolTableRecord
100
AcDbRegAppTableRecord
  2
DRAWINGVARIABLESXDATA
 70
     0
  0
ENDTAB
  0
TABLE
  2
DIMSTYLE
  5
746F
330
0
100
AcDbSymbolTable
 70
     2
100
AcDbDimStyleTable
 71
     0
  0
DIMSTYLE
105
7484
330
746F
100
AcDbSymbolTableRecord
100
AcDbDimStyleTableRecord
  2
JIS
 70
     0
 41
2.5
 42
1.0
 43
7.0
 44
1.0
 73
     0
 74
     0
 77
     1
 78
     8
140
2.5
141
0.0
143
0.0394
147
0.0
172
     1
174
     1
175
     1
340
7475
  0
DIMSTYLE
105
F71F
102
{ACAD_REACTORS
330
161B3
330
161AB
330
1618E
330
16186
330
16183
330
16189
330
1618D
330
16187
330
1618F
330
1601A
330
16019
330
16018
330
16180
330
16017
330
16188
330
16185
330
16392
330
163F6
330
1638D
330
16390
330
163F5
330
16391
330
16182
330
16181
330
171F1
330
171F2
330
16184
102
}
330
746F
100
AcDbSymbolTableRecord
100
AcDbDimStyleTableRecord
  2
INABA_S20G
 70
     0
 40
20.0
 41
2.5
 42
0.5
 43
7.0
 44
1.5
 73
     0
 74
     0
 77
     3
 78
     8
140
3.0
141
0.0
143
0.0394
147
1.0
172
     1
173
     1
174
     1
178
     7
271
     1
272
     2
284
     8
340
F706
341
F770
343
F770
344
F770
  0
ENDTAB
  0
TABLE
  2
BLOCK_RECORD
  5
7466
330
0
100
AcDbSymbolTable
 70
    28
  0
BLOCK_RECORD
  5
747D
330
7466
100
AcDbSymbolTableRecord
100
AcDbBlockTableRecord
  2
*MODEL_SPACE
340
1722C
  0
BLOCK_RECORD
  5
747A
330
7466
100
AcDbSymbolTableRecord
100
AcDbBlockTableRecord
  2
*PAPER_SPACE
340
1722D
  0
BLOCK_RECORD
  5
F770
330
7466
100
AcDbSymbolTableRecord
100
AcDbBlockTableRecord
  2
_DOTSMALL
340
0
102
{BLKREFS
331
161EA
331
161EB
331
16CBC
331
16CBD
331
16C9D
331
16C9E
331
16CC7
331
16CC8
331
16363
331
16364
331
16C09
331
16C0A
331
16C14
331
16C15
331
16D2D
331
16D2E
331
16CE8
331
16CE9
331
16D07
331
16D08
331
16266
331
16267
331
16E6B
331
16E6C
331
16E60
331
16E61
331
1628B
331
1628C
331
16298
331
16299
331
162A6
331
162A7
331
16CF3
331
16CF4
331
16320
331
16321
331
16CD2
331
16CD3
331
16EAD
331
16EAE
331
16492
331
16493
331
164A8
331
164A9
331
16EA2
331
16EA3
331
1649D
331
1649E
331
16EBA
331
16EBB
331
171F8
331
171F9
331
1720F
331
17210
102
}
  0
BLOCK_RECORD
  5
161E3
330
7466
100
AcDbSymbolTableRecord
100
AcDbBlockTableRecord
  2
*D1
340
0
  0
BLOCK_RECORD
  5
161F1
330
7466
100
AcDbSymbolTableRecord
100
AcDbBlockTableRecord
  2
*D2
340
0
  0
BLOCK_RECORD
  5
161FC
330
7466
100
AcDbSymbolTableRecord
100
AcDbBlockTableRecord
  2
*D3
340
0
  0
BLOCK_RECORD
  5
16208
330
7466
100
AcDbSymbolTableRecord
100
AcDbBlockTableRecord
  2
*D4
340
0
  0
BLOCK_RECORD
  5
16214
330
7466
100
AcDbSymbolTableRecord
100
AcDbBlockTableRecord
  2
*D5
340
0
  0
BLOCK_RECORD
  5
16220
330
7466
100
AcDbSymbolTableRecord
100
AcDbBlockTableRecord
  2
*D6
340
0
  0
BLOCK_RECORD
  5
1622E
330
7466
100
AcDbSymbolTableRecord
100
AcDbBlockTableRecord
  2
*D7
340
0
  0
BLOCK_RECORD
  5
1623A
330
7466
100
AcDbSymbolTableRecord
100
AcDbBlockTableRecord
  2
*D8
340
0
  0
BLOCK_RECORD
  5
16246
330
7466
100
AcDbSymbolTableRecord
100
AcDbBlockTableRecord
  2
*D9
340
0
  0
BLOCK_RECORD
  5
16252
330
7466
100
AcDbSymbolTableRecord
100
AcDbBlockTableRecord
  2
*D10
340
0
  0
BLOCK_RECORD
  5
1625D
330
7466
100
AcDbSymbolTableRecord
100
AcDbBlockTableRecord
  2
*D11
340
0
  0
BLOCK_RECORD
  5
1626C
330
7466
100
AcDbSymbolTableRecord
100
AcDbBlockTableRecord
  2
*D12
340
0
  0
BLOCK_RECORD
  5
16278
330
7466
100
AcDbSymbolTableRecord
100
AcDbBlockTableRecord
  2
*D13
340
0
  0
BLOCK_RECORD
  5
16284
330
7466
100
AcDbSymbolTableRecord
100
AcDbBlockTableRecord
  2
*D14
340
0
  0
BLOCK_RECORD
  5
16292
330
7466
100
AcDbSymbolTableRecord
100
AcDbBlockTableRecord
  2
*D15
340
0
  0
BLOCK_RECORD
  5
1629F
330
7466
100
AcDbSymbolTableRecord
100
AcDbBlockTableRecord
  2
*D16
340
0
  0
BLOCK_RECORD
  5
1630D
330
7466
100
AcDbSymbolTableRecord
100
AcDbBlockTableRecord
  2
*D17
340
0
  0
BLOCK_RECORD
  5
16319
330
7466
100
AcDbSymbolTableRecord
100
AcDbBlockTableRecord
  2
*D18
340
0
  0
BLOCK_RECORD
  5
16327
330
7466
100
AcDbSymbolTableRecord
100
AcDbBlockTableRecord
  2
*D19
340
0
  0
BLOCK_RECORD
  5
16423
330
7466
100
AcDbSymbolTableRecord
100
AcDbBlockTableRecord
  2
*D20
340
0
  0
BLOCK_RECORD
  5
1642F
330
7466
100
AcDbSymbolTableRecord
100
AcDbBlockTableRecord
  2
*D21
340
0
  0
BLOCK_RECORD
  5
16453
330
7466
100
AcDbSymbolTableRecord
100
AcDbBlockTableRecord
  2
*D22
340
0
  0
BLOCK_RECORD
  5
1645F
330
7466
100
AcDbSymbolTableRecord
100
AcDbBlockTableRecord
  2
*D23
340
0
  0
BLOCK_RECORD
  5
1646B
330
7466
100
AcDbSymbolTableRecord
100
AcDbBlockTableRecord
  2
*D24
340
0
  0
BLOCK_RECORD
  5
16477
330
7466
100
AcDbSymbolTableRecord
100
AcDbBlockTableRecord
  2
*D25
340
0
  0
BLOCK_RECORD
  5
171F3
330
7466
100
AcDbSymbolTableRecord
100
AcDbBlockTableRecord
  2
*D26
340
0
  0
BLOCK_RECORD
  5
171FF
330
7466
100
AcDbSymbolTableRecord
100
AcDbBlockTableRecord
  2
*D27
340
0
  0
ENDTAB
  0
ENDSEC
  0
SECTION
  2
BLOCKS
  0
BLOCK
  5
7489
330
747D
100
AcDbEntity
  8
0
100
AcDbBlockBegin
  2
*MODEL_SPACE
 70
     0
 10
0.0
 20
0.0
 30
0.0
  3
*MODEL_SPACE
  1

  0
ENDBLK
  5
748A
330
747D
100
AcDbEntity
  8
0
100
AcDbBlockEnd
  0
BLOCK
  5
7487
330
747A
100
AcDbEntity
 67
     1
  8
0
100
AcDbBlockBegin
  2
*PAPER_SPACE
 70
     0
 10
0.0
 20
0.0
 30
0.0
  3
*PAPER_SPACE
  1

  0
ENDBLK
  5
7488
330
747A
100
AcDbEntity
 67
     1
  8
0
100
AcDbBlockEnd
  0
BLOCK
  5
F771
330
F770
100
AcDbEntity
  8
0
 48
50.0
100
AcDbBlockBegin
  2
_DOTSMALL
 70
     0
 10
0.0
 20
0.0
 30
0.0
  3
_DOTSMALL
  1

  0
LWPOLYLINE
  5
F772
330
F770
100
AcDbEntity
  8
0
  6
ByBlock
 62
     0
 48
50.0
100
AcDbPolyline
 90
        2
 70
     1
 43
0.5
 10
-0.0625
 20
0.0
 42
1.0
 10
0.0625
 20
0.0
 42
1.0
  0
ENDBLK
  5
F776
330
F770
100
AcDbEntity
  8
0
 48
50.0
100
AcDbBlockEnd
  0
BLOCK
  5
161E4
330
161E3
100
AcDbEntity
  8
0
 48
50.0
100
AcDbBlockBegin
  2
*D1
 70
     1
 10
0.0
 20
0.0
 30
0.0
  3
*D1
  1

  0
LINE
  5
161E5
330
161E3
100
AcDbEntity
  8
0
  6
ByBlock
 62
     0
 48
50.0
100
AcDbLine
 10
6282.600000000002
 20
2364.0
 30
0.0
 11
6496.090969203319
 21
2364.0
 31
0.0
  0
LINE
  5
161E6
330
161E3
100
AcDbEntity
  8
0
  6
ByBlock
 62
     0
 48
50.0
100
AcDbLine
 10
6282.600000000002
 20
2334.0
 30
0.0
 11
6496.090969203319
 21
2334.0
 31
0.0
  0
LINE
  5
161E7
330
161E3
100
AcDbEntity
  8
0
  6
ByBlock
 62
     0
 48
50.0
100
AcDbLine
 10
6466.090969203318
 20
2364.0
 30
0.0
 11
6466.090969203318
 21
2414.0
 31
0.0
  0
LINE
  5
161E8
330
161E3
100
AcDbEntity
  8
0
  6
ByBlock
 62
     0
 48
50.0
100
AcDbLine
 10
6466.090969203318
 20
2334.0
 30
0.0
 11
6466.090969203318
 21
2127.952755905512
 31
0.0
  0
LINE
  5
161E9
330
161E3
100
AcDbEntity
  8
0
  6
ByBlock
 62
     0
 48
50.0
100
AcDbLine
 10
6466.090969203318
 20
2364.0
 30
0.0
 11
6466.090969203318
 21
2334.0
 31
0.0
  0
INSERT
  5
161EA
330
161E3
100
AcDbEntity
  8
0
  6
ByBlock
 62
     0
 48
50.0
100
AcDbBlockReference
  2
_DOTSMALL
 10
6466.090969203318
 20
2364.0
 30
0.0
 41
50.0
 42
50.0
 43
50.0
 50
270.0
  0
INSERT
  5
161EB
330
161E3
100
AcDbEntity
  8
0
  6
ByBlock
 62
     0
 48
50.0
100
AcDbBlockReference
  2
_DOTSMALL
 10
6466.090969203318
 20
2334.0
 30
0.0
 41
50.0
 42
50.0
 43
50.0
 50
90.0
  0
MTEXT
  5
161EC
330
161E3
100
AcDbEntity
  8
0
  6
ByBlock
 62
     7
 48
50.0
100
AcDbMText
 10
6416.090969203319
 20
2180.976377952756
 30
0.0
 40
60.0
 41
0.0
 71
     5
 72
     1
  1
\A1;30
  7
STYLE1
 11
0.0000000000000001
 21
1.0
 31
0.0
 73
     1
 44
1.0
1001
ACAD
1000
MTEXTBEGIN
1070
    73
1070
     1
1070
    44
1040
1.0
1070
    74
1070
     0
1000
MTEXTEND
  0
POINT
  5
161ED
330
161E3
100
AcDbEntity
  8
DEFPOINTS
  6
ByBlock
 62
     0
 48
50.0
100
AcDbPoint
 10
6272.600000000001
 20
2364.0
 30
0.0
  0
POINT
  5
161EE
330
161E3
100
AcDbEntity
  8
DEFPOINTS
  6
ByBlock
 62
     0
 48
50.0
100
AcDbPoint
 10
6272.600000000001
 20
2334.0
 30
0.0
  0
POINT
  5
161EF
330
161E3
100
AcDbEntity
  8
DEFPOINTS
  6
ByBlock
 62
     0
 48
50.0
100
AcDbPoint
 10
6466.090969203318
 20
2334.0
 30
0.0
  0
ENDBLK
  5
161F0
330
161E3
100
AcDbEntity
  8
0
 48
50.0
100
AcDbBlockEnd
  0
BLOCK
  5
16CB9
330
161F1
100
AcDbEntity
  8
0
 48
50.0
100
AcDbBlockBegin
  2
*D2
 70
     1
 10
0.0
 20
0.0
 30
0.0
  3
*D2
  1

  0
LINE
  5
16CBA
330
161F1
100
AcDbEntity
  8
0
  6
ByBlock
 62
     0
 48
50.0
100
AcDbLine
 10
6182.6
 20
2149.0
 30
0.0
 11
6558.430458370271
 21
2149.0
 31
0.0
  0
LINE
  5
16CBB
330
161F1
100
AcDbEntity
  8
0
  6
ByBlock
 62
     0
 48
50.0
100
AcDbLine
 10
6528.43045837027
 20
1304.0
 30
0.0
 11
6528.43045837027
 21
2149.0
 31
0.0
  0
INSERT
  5
16CBC
330
161F1
100
AcDbEntity
  8
0
  6
ByBlock
 62
     0
 48
50.0
100
AcDbBlockReference
  2
_DOTSMALL
 10
6528.43045837027
 20
1304.0
 30
0.0
 41
50.0
 42
50.0
 43
50.0
 50
270.0
  0
INSERT
  5
16CBD
330
161F1
100
AcDbEntity
  8
0
  6
ByBlock
 62
     0
 48
50.0
100
AcDbBlockReference
  2
_DOTSMALL
 10
6528.43045837027
 20
2149.0
 30
0.0
 41
50.0
 42
50.0
 43
50.0
 50
90.0
  0
MTEXT
  5
16CBE
330
161F1
100
AcDbEntity
  8
0
  6
ByBlock
 62
     7
 48
50.0
100
AcDbMText
 10
6478.43045837027
 20
1726.5
 30
0.0
 40
60.0
 41
0.0
 71
     5
 72
     1
  1
\A1;65x13=845
  7
STYLE1
 11
0.0000000000000001
 21
1.0
 31
0.0
 73
     1
 44
1.0
1001
ACAD
1000
MTEXTBEGIN
1070
    73
1070
     1
1070
    44
1040
1.0
1070
    74
1070
     0
1000
MTEXTEND
  0
POINT
  5
16CBF
330
161F1
100
AcDbEntity
  8
DEFPOINTS
  6
ByBlock
 62
     0
 48
50.0
100
AcDbPoint
 10
6172.6
 20
1304.0
 30
0.0
  0
POINT
  5
16CC0
330
161F1
100
AcDbEntity
  8
DEFPOINTS
  6
ByBlock
 62
     0
 48
50.0
100
AcDbPoint
 10
6172.6
 20
2149.0
 30
0.0
  0
POINT
  5
16CC1
330
161F1
100
AcDbEntity
  8
DEFPOINTS
  6
ByBlock
 62
     0
 48
50.0
100
AcDbPoint
 10
6528.43045837027
 20
2149.0
 30
0.0
  0
ENDBLK
  5
16CC2
330
161F1
100
AcDbEntity
  8
0
 48
50.0
100
AcDbBlockEnd
  0
BLOCK
  5
16C99
330
161FC
100
AcDbEntity
  8
0
 48
50.0
100
AcDbBlockBegin
  2
*D3
 70
     1
 10
0.0
 20
0.0
 30
0.0
  3
*D3
  1

  0
LINE
  5
16C9A
330
161FC
100
AcDbEntity
  8
0
  6
ByBlock
 62
     0
 48
50.0
100
AcDbLine
 10
6184.6
 20
987.0
 30
0.0
 11
6558.430458370271
 21
986.9999999999999
 31
0.0
  0
LINE
  5
16C9B
330
161FC
100
AcDbEntity
  8
0
  6
ByBlock
 62
     0
 48
50.0
100
AcDbLine
 10
6182.6
 20
1304.0
 30
0.0
 11
6558.430458370271
 21
1304.0
 31
0.0
  0
LINE
  5
16C9C
330
161FC
100
AcDbEntity
  8
0
  6
ByBlock
 62
     0
 48
50.0
100
AcDbLine
 10
6528.43045837027
 20
986.9999999999999
 30
0.0
 11
6528.43045837027
 21
1304.0
 31
0.0
  0
INSERT
  5
16C9D
330
161FC
100
AcDbEntity
  8
0
  6
ByBlock
 62
     0
 48
50.0
100
AcDbBlockReference
  2
_DOTSMALL
 10
6528.43045837027
 20
986.9999999999999
 30
0.0
 41
50.0
 42
50.0
 43
50.0
 50
270.0
  0
INSERT
  5
16C9E
330
161FC
100
AcDbEntity
  8
0
  6
ByBlock
 62
     0
 48
50.0
100
AcDbBlockReference
  2
_DOTSMALL
 10
6528.43045837027
 20
1304.0
 30
0.0
 41
50.0
 42
50.0
 43
50.0
 50
90.0
  0
MTEXT
  5
16C9F
330
161FC
100
AcDbEntity
  8
0
  6
ByBlock
 62
     7
 48
50.0
100
AcDbMText
 10
6478.43045837027
 20
1145.5
 30
0.0
 40
60.0
 41
0.0
 71
     5
 72
     1
  1
\A1;317
  7
STYLE1
 11
0.0000000000000001
 21
1.0
 31
0.0
 73
     1
 44
1.0
1001
ACAD
1000
MTEXTBEGIN
1070
    73
1070
     1
1070
    44
1040
1.0
1070
    74
1070
     0
1000
MTEXTEND
  0
POINT
  5
16CA0
330
161FC
100
AcDbEntity
  8
DEFPOINTS
  6
ByBlock
 62
     0
 48
50.0
100
AcDbPoint
 10
6174.6
 20
987.0
 30
0.0
  0
POINT
  5
16CA1
330
161FC
100
AcDbEntity
  8
DEFPOINTS
  6
ByBlock
 62
     0
 48
50.0
100
AcDbPoint
 10
6172.6
 20
1304.0
 30
0.0
  0
POINT
  5
16CA2
330
161FC
100
AcDbEntity
  8
DEFPOINTS
  6
ByBlock
 62
     0
 48
50.0
100
AcDbPoint
 10
6528.43045837027
 20
1304.0
 30
0.0
  0
ENDBLK
  5
16CA3
330
161FC
100
AcDbEntity
  8
0
 48
50.0
100
AcDbBlockEnd
  0
BLOCK
  5
16CC3
330
16208
100
AcDbEntity
  8
0
 48
50.0
100
AcDbBlockBegin
  2
*D4
 70
     1
 10
0.0
 20
0.0
 30
0.0
  3
*D4
  1

  0
LINE
  5
16CC4
330
16208
100
AcDbEntity
  8
0
  6
ByBlock
 62
     0
 48
50.0
100
AcDbLine
 10
6207.600000000001
 20
900.0
 30
0.0
 11
6909.913337170166
 21
899.9999999999998
 31
0.0
  0
LINE
  5
16CC5
330
16208
100
AcDbEntity
  8
0
  6
ByBlock
 62
     0
 48
50.0
100
AcDbLine
 10
6223.599999999997
 20
2500.0
 30
0.0
 11
6909.913337170166
 21
2500.0
 31
0.0
  0
LINE
  5
16CC6
330
16208
100
AcDbEntity
  8
0
  6
ByBlock
 62
     0
 48
50.0
100
AcDbLine
 10
6879.913337170167
 20
899.9999999999998
 30
0.0
 11
6879.913337170167
 21
2500.0
 31
0.0
  0
INSERT
  5
16CC7
330
16208
100
AcDbEntity
  8
0
  6
ByBlock
 62
     0
 48
50.0
100
AcDbBlockReference
  2
_DOTSMALL
 10
6879.913337170167
 20
899.9999999999998
 30
0.0
 41
50.0
 42
50.0
 43
50.0
 50
270.0
  0
INSERT
  5
16CC8
330
16208
100
AcDbEntity
  8
0
  6
ByBlock
 62
     0
 48
50.0
100
AcDbBlockReference
  2
_DOTSMALL
 10
6879.913337170167
 20
2500.0
 30
0.0
 41
50.0
 42
50.0
 43
50.0
 50
90.0
  0
MTEXT
  5
16CC9
330
16208
100
AcDbEntity
  8
0
  6
ByBlock
 62
     7
 48
50.0
100
AcDbMText
 10
6829.913337170167
 20
1700.0
 30
0.0
 40
60.0
 41
0.0
 71
     5
 72
     1
  1
\A1;1600
  7
STYLE1
 11
0.0000000000000001
 21
1.0
 31
0.0
 73
     1
 44
1.0
1001
ACAD
1000
MTEXTBEGIN
1070
    73
1070
     1
1070
    44
1040
1.0
1070
    74
1070
     0
1000
MTEXTEND
  0
POINT
  5
16CCA
330
16208
100
AcDbEntity
  8
DEFPOINTS
  6
ByBlock
 62
     0
 48
50.0
100
AcDbPoint
 10
6197.600000000001
 20
900.0
 30
0.0
  0
POINT
  5
16CCB
330
16208
100
AcDbEntity
  8
DEFPOINTS
  6
ByBlock
 62
     0
 48
50.0
100
AcDbPoint
 10
6213.599999999996
 20
2500.0
 30
0.0
  0
POINT
  5
16CCC
330
16208
100
AcDbEntity
  8
DEFPOINTS
  6
ByBlock
 62
     0
 48
50.0
100
AcDbPoint
 10
6879.913337170167
 20
2500.0
 30
0.0
  0
ENDBLK
  5
16CCD
330
16208
100
AcDbEntity
  8
0
 48
50.0
100
AcDbBlockEnd
  0
BLOCK
  5
1635F
330
16214
100
AcDbEntity
  8
0
 48
50.0
100
AcDbBlockBegin
  2
*D5
 70
     1
 10
0.0
 20
0.0
 30
0.0
  3
*D5
  1

  0
LINE
  5
16360
330
16214
100
AcDbEntity
  8
0
  6
ByBlock
 62
     0
 48
50.0
100
AcDbLine
 10
16889.57575641781
 20
2803.667939162581
 30
0.0
 11
16889.57575641781
 21
3133.220335370565
 31
0.0
  0
LINE
  5
16361
330
16214
100
AcDbEntity
  8
0
  6
ByBlock
 62
     0
 48
50.0
100
AcDbLine
 10
17639.57575641781
 20
2810.0
 30
0.0
 11
17639.57575641781
 21
3133.220335370565
 31
0.0
  0
LINE
  5
16362
330
16214
100
AcDbEntity
  8
0
  6
ByBlock
 62
     0
 48
50.0
100
AcDbLine
 10
16889.57575641781
 20
3103.220335370565
 30
0.0
 11
17639.57575641781
 21
3103.220335370565
 31
0.0
  0
INSERT
  5
16363
330
16214
100
AcDbEntity
  8
0
  6
ByBlock
 62
     0
 48
50.0
100
AcDbBlockReference
  2
_DOTSMALL
 10
16889.57575641781
 20
3103.220335370565
 30
0.0
 41
50.0
 42
50.0
 43
50.0
 50
180.0
  0
INSERT
  5
16364
330
16214
100
AcDbEntity
  8
0
  6
ByBlock
 62
     0
 48
50.0
100
AcDbBlockReference
  2
_DOTSMALL
 10
17639.57575641781
 20
3103.220335370565
 30
0.0
 41
50.0
 42
50.0
 43
50.0
  0
MTEXT
  5
16365
330
16214
100
AcDbEntity
  8
0
  6
ByBlock
 62
     7
 48
50.0
100
AcDbMText
 10
17264.57575641781
 20
3153.220335370565
 30
0.0
 40
60.0
 41
0.0
 71
     5
 72
     1
  1
\A1;750
  7
STYLE1
 73
     1
 44
1.0
1001
ACAD
1000
MTEXTBEGIN
1070
    73
1070
     1
1070
    44
1040
1.0
1070
    74
1070
     0
1000
MTEXTEND
  0
POINT
  5
16366
330
16214
100
AcDbEntity
  8
DEFPOINTS
  6
ByBlock
 62
     0
 48
50.0
100
AcDbPoint
 10
16889.57575641781
 20
2793.66793916258
 30
0.0
  0
POINT
  5
16367
330
16214
100
AcDbEntity
  8
DEFPOINTS
  6
ByBlock
 62
     0
 48
50.0
100
AcDbPoint
 10
17639.57575641781
 20
2800.0
 30
0.0
  0
POINT
  5
16368
330
16214
100
AcDbEntity
  8
DEFPOINTS
  6
ByBlock
 62
     0
 48
50.0
100
AcDbPoint
 10
17639.57575641781
 20
3103.220335370565
 30
0.0
  0
ENDBLK
  5
16369
330
16214
100
AcDbEntity
  8
0
 48
50.0
100
AcDbBlockEnd
  0
BLOCK
  5
16C03
330
16220
100
AcDbEntity
  8
0
 48
50.0
100
AcDbBlockBegin
  2
*D6
 70
     1
 10
0.0
 20
0.0
 30
0.0
  3
*D6
  1

  0
LINE
  5
16C04
330
16220
100
AcDbEntity
  8
0
  6
ByBlock
 62
     0
 48
50.0
100
AcDbLine
 10
6203.600000000001
 20
2810.226073850791
 30
0.0
 11
6203.600000000001
 21
3005.024113945669
 31
0.0
  0
LINE
  5
16C05
330
16220
100
AcDbEntity
  8
0
  6
ByBlock
 62
     0
 48
50.0
100
AcDbLine
 10
6213.6
 20
2810.0
 30
0.0
 11
6213.6
 21
3005.024113945669
 31
0.0
  0
LINE
  5
16C06
330
16220
100
AcDbEntity
  8
0
  6
ByBlock
 62
     0
 48
50.0
100
AcDbLine
 10
6203.600000000001
 20
2975.024113945668
 30
0.0
 11
6153.600000000001
 21
2975.024113945668
 31
0.0
  0
LINE
  5
16C07
330
16220
100
AcDbEntity
  8
0
  6
ByBlock
 62
     0
 48
50.0
100
AcDbLine
 10
6213.6
 20
2975.024113945668
 30
0.0
 11
6407.64724409449
 21
2975.024113945668
 31
0.0
  0
LINE
  5
16C08
330
16220
100
AcDbEntity
  8
0
  6
ByBlock
 62
     0
 48
50.0
100
AcDbLine
 10
6203.600000000001
 20
2975.024113945668
 30
0.0
 11
6213.6
 21
2975.024113945668
 31
0.0
  0
INSERT
  5
16C09
330
16220
100
AcDbEntity
  8
0
  6
ByBlock
 62
     0
 48
50.0
100
AcDbBlockReference
  2
_DOTSMALL
 10
6203.600000000001
 20
2975.024113945668
 30
0.0
 41
50.0
 42
50.0
 43
50.0
  0
INSERT
  5
16C0A
330
16220
100
AcDbEntity
  8
0
  6
ByBlock
 62
     0
 48
50.0
100
AcDbBlockReference
  2
_DOTSMALL
 10
6213.6
 20
2975.024113945668
 30
0.0
 41
50.0
 42
50.0
 43
50.0
 50
180.0
  0
MTEXT
  5
16C0B
330
16220
100
AcDbEntity
  8
0
  6
ByBlock
 62
     7
 48
50.0
100
AcDbMText
 10
6360.623622047245
 20
3025.024113945669
 30
0.0
 40
60.0
 41
0.0
 71
     5
 72
     1
  1
\A1;10
  7
STYLE1
 73
     1
 44
1.0
1001
ACAD
1000
MTEXTBEGIN
1070
    73
1070
     1
1070
    44
1040
1.0
1070
    74
1070
     0
1000
MTEXTEND
  0
POINT
  5
16C0C
330
16220
100
AcDbEntity
  8
DEFPOINTS
  6
ByBlock
 62
     0
 48
50.0
100
AcDbPoint
 10
6203.600000000001
 20
2800.226073850792
 30
0.0
  0
POINT
  5
16C0D
330
16220
100
AcDbEntity
  8
DEFPOINTS
  6
ByBlock
 62
     0
 48
50.0
100
AcDbPoint
 10
6213.6
 20
2800.0
 30
0.0
  0
POINT
  5
16C0E
330
16220
100
AcDbEntity
  8
DEFPOINTS
  6
ByBlock
 62
     0
 48
50.0
100
AcDbPoint
 10
6213.6
 20
2975.024113945668
 30
0.0
  0
ENDBLK
  5
16C0F
330
16220
100
AcDbEntity
  8
0
 48
50.0
100
AcDbBlockEnd
  0
BLOCK
  5
16C10
330
1622E
100
AcDbEntity
  8
0
 48
50.0
100
AcDbBlockBegin
  2
*D7
 70
     1
 10
0.0
 20
0.0
 30
0.0
  3
*D7
  1

  0
LINE
  5
16C11
330
1622E
100
AcDbEntity
  8
0
  6
ByBlock
 62
     0
 48
50.0
100
AcDbLine
 10
5503.6
 20
2830.0
 30
0.0
 11
5503.6
 21
3005.024113945669
 31
0.0
  0
LINE
  5
16C12
330
1622E
100
AcDbEntity
  8
0
  6
ByBlock
 62
     0
 48
50.0
100
AcDbLine
 10
6203.600000000001
 20
2810.226073850791
 30
0.0
 11
6203.600000000001
 21
3005.024113945669
 31
0.0
  0
LINE
  5
16C13
330
1622E
100
AcDbEntity
  8
0
  6
ByBlock
 62
     0
 48
50.0
100
AcDbLine
 10
5503.6
 20
2975.024113945668
 30
0.0
 11
6203.600000000001
 21
2975.024113945668
 31
0.0
  0
INSERT
  5
16C14
330
1622E
100
AcDbEntity
  8
0
  6
ByBlock
 62
     0
 48
50.0
100
AcDbBlockReference
  2
_DOTSMALL
 10
5503.6
 20
2975.024113945668
 30
0.0
 41
50.0
 42
50.0
 43
50.0
 50
180.0
  0
INSERT
  5
16C15
330
1622E
100
AcDbEntity
  8
0
  6
ByBlock
 62
     0
 48
50.0
100
AcDbBlockReference
  2
_DOTSMALL
 10
6203.600000000001
 20
2975.024113945668
 30
0.0
 41
50.0
 42
50.0
 43
50.0
  0
MTEXT
  5
16C16
330
1622E
100
AcDbEntity
  8
0
  6
ByBlock
 62
     7
 48
50.0
100
AcDbMText
 10
5853.6
 20
3025.024113945669
 30
0.0
 40
60.0
 41
0.0
 71
     5
 72
     1
  1
\A1;700
  7
STYLE1
 73
     1
 44
1.0
1001
ACAD
1000
MTEXTBEGIN
1070
    73
1070
     1
1070
    44
1040
1.0
1070
    74
1070
     0
1000
MTEXTEND
  0
POINT
  5
16C17
330
1622E
100
AcDbEntity
  8
DEFPOINTS
  6
ByBlock
 62
     0
 48
50.0
100
AcDbPoint
 10
5503.6
 20
2820.0
 30
0.0
  0
POINT
  5
16C18
330
1622E
100
AcDbEntity
  8
DEFPOINTS
  6
ByBlock
 62
     0
 48
50.0
100
AcDbPoint
 10
6203.600000000001
 20
2800.226073850792
 30
0.0
  0
POINT
  5
16C19
330
1622E
100
AcDbEntity
  8
DEFPOINTS
  6
ByBlock
 62
     0
 48
50.0
100
AcDbPoint
 10
6203.600000000001
 20
2975.024113945668
 30
0.0
  0
ENDBLK
  5
16C1A
330
1622E
100
AcDbEntity
  8
0
 48
50.0
100
AcDbBlockEnd
  0
BLOCK
  5
16D29
330
1623A
100
AcDbEntity
  8
0
 48
50.0
100
AcDbBlockBegin
  2
*D8
 70
     1
 10
0.0
 20
0.0
 30
0.0
  3
*D8
  1

  0
LINE
  5
16D2A
330
1623A
100
AcDbEntity
  8
0
  6
ByBlock
 62
     0
 48
50.0
100
AcDbLine
 10
5863.6
 20
984.3205080756886
 30
0.0
 11
5955.924998316816
 21
959.5820993354934
 31
0.0
  0
LINE
  5
16D2B
330
1623A
100
AcDbEntity
  8
0
  6
ByBlock
 62
     0
 48
50.0
100
AcDbLine
 10
5863.6
 20
2455.320508075687
 30
0.0
 11
5955.924998316816
 21
2430.582099335492
 31
0.0
  0
LINE
  5
16D2C
330
1623A
100
AcDbEntity
  8
0
  6
ByBlock
 62
     0
 48
50.0
100
AcDbLine
 10
5925.924998316816
 20
967.6205751084269
 30
0.0
 11
5925.924998316816
 21
2438.620575108426
 31
0.0
  0
INSERT
  5
16D2D
330
1623A
100
AcDbEntity
  8
0
  6
ByBlock
 62
     0
 48
50.0
100
AcDbBlockReference
  2
_DOTSMALL
 10
5925.924998316816
 20
967.6205751084269
 30
0.0
 41
50.0
 42
50.0
 43
50.0
 50
270.0
  0
INSERT
  5
16D2E
330
1623A
100
AcDbEntity
  8
0
  6
ByBlock
 62
     0
 48
50.0
100
AcDbBlockReference
  2
_DOTSMALL
 10
5925.924998316816
 20
2438.620575108426
 30
0.0
 41
50.0
 42
50.0
 43
50.0
 50
90.0
  0
MTEXT
  5
16D2F
330
1623A
100
AcDbEntity
  8
0
  6
ByBlock
 62
     7
 48
50.0
100
AcDbMText
 10
5875.924998316816
 20
1703.120575108426
 30
0.0
 40
60.0
 41
0.0
 71
     5
 72
     1
  1
\A1;内高 1471
  7
STYLE1
 11
0.0000000000000001
 21
1.0
 31
0.0
 73
     1
 44
1.0
1001
ACAD
1000
MTEXTBEGIN
1070
    73
1070
     1
1070
    44
1040
1.0
1070
    74
1070
     0
1000
MTEXTEND
  0
POINT
  5
16D30
330
1623A
100
AcDbEntity
  8
DEFPOINTS
  6
ByBlock
 62
     0
 48
50.0
100
AcDbPoint
 10
5853.6
 20
987.0
 30
0.0
  0
POINT
  5
16D31
330
1623A
100
AcDbEntity
  8
DEFPOINTS
  6
ByBlock
 62
     0
 48
50.0
100
AcDbPoint
 10
5853.6
 20
2457.999999999998
 30
0.0
  0
POINT
  5
16D32
330
1623A
100
AcDbEntity
  8
DEFPOINTS
  6
ByBlock
 62
     0
 48
50.0
100
AcDbPoint
 10
5925.924998316816
 20
2438.620575108426
 30
0.0
  0
ENDBLK
  5
16D33
330
1623A
100
AcDbEntity
  8
0
 48
50.0
100
AcDbBlockEnd
  0
BLOCK
  5
16CE4
330
16246
100
AcDbEntity
  8
0
 48
50.0
100
AcDbBlockBegin
  2
*D9
 70
     1
 10
0.0
 20
0.0
 30
0.0
  3
*D9
  1

  0
LINE
  5
16CE5
330
16246
100
AcDbEntity
  8
0
  6
ByBlock
 62
     0
 48
50.0
100
AcDbLine
 10
5560.6
 20
987.0
 30
0.0
 11
5321.075280684892
 21
987.0
 31
0.0
  0
LINE
  5
16CE6
330
16246
100
AcDbEntity
  8
0
  6
ByBlock
 62
     0
 48
50.0
100
AcDbLine
 10
5485.6
 20
2436.0
 30
0.0
 11
5321.075280684892
 21
2436.0
 31
0.0
  0
LINE
  5
16CE7
330
16246
100
AcDbEntity
  8
0
  6
ByBlock
 62
     0
 48
50.0
100
AcDbLine
 10
5351.075280684892
 20
987.0
 30
0.0
 11
5351.075280684892
 21
2436.0
 31
0.0
  0
INSERT
  5
16CE8
330
16246
100
AcDbEntity
  8
0
  6
ByBlock
 62
     0
 48
50.0
100
AcDbBlockReference
  2
_DOTSMALL
 10
5351.075280684892
 20
987.0
 30
0.0
 41
50.0
 42
50.0
 43
50.0
 50
270.0
  0
INSERT
  5
16CE9
330
16246
100
AcDbEntity
  8
0
  6
ByBlock
 62
     0
 48
50.0
100
AcDbBlockReference
  2
_DOTSMALL
 10
5351.075280684892
 20
2436.0
 30
0.0
 41
50.0
 42
50.0
 43
50.0
 50
90.0
  0
MTEXT
  5
16CEA
330
16246
100
AcDbEntity
  8
0
  6
ByBlock
 62
     7
 48
50.0
100
AcDbMText
 10
5301.075280684893
 20
1711.5
 30
0.0
 40
60.0
 41
0.0
 71
     5
 72
     1
  1
\A1;有効開口部高サ 1449
  7
STYLE1
 11
0.0000000000000001
 21
1.0
 31
0.0
 73
     1
 44
1.0
1001
ACAD
1000
MTEXTBEGIN
1070
    73
1070
     1
1070
    44
1040
1.0
1070
    74
1070
     0
1000
MTEXTEND
  0
POINT
  5
16CEB
330
16246
100
AcDbEntity
  8
DEFPOINTS
  6
ByBlock
 62
     0
 48
50.0
100
AcDbPoint
 10
5570.6
 20
987.0
 30
0.0
  0
POINT
  5
16CEC
330
16246
100
AcDbEntity
  8
DEFPOINTS
  6
ByBlock
 62
     0
 48
50.0
100
AcDbPoint
 10
5495.6
 20
2436.0
 30
0.0
  0
POINT
  5
16CED
330
16246
100
AcDbEntity
  8
DEFPOINTS
  6
ByBlock
 62
     0
 48
50.0
100
AcDbPoint
 10
5351.075280684892
 20
2436.0
 30
0.0
  0
ENDBLK
  5
16CEE
330
16246
100
AcDbEntity
  8
0
 48
50.0
100
AcDbBlockEnd
  0
BLOCK
  5
16D04
330
16252
100
AcDbEntity
  8
0
 48
50.0
100
AcDbBlockBegin
  2
*D10
 70
     1
 10
0.0
 20
0.0
 30
0.0
  3
*D10
  1

  0
LINE
  5
16D05
330
16252
100
AcDbEntity
  8
0
  6
ByBlock
 62
     0
 48
50.0
100
AcDbLine
 10
5473.029319720905
 20
2520.0
 30
0.0
 11
5154.960919862775
 21
2520.0
 31
0.0
  0
LINE
  5
16D06
330
16252
100
AcDbEntity
  8
0
  6
ByBlock
 62
     0
 48
50.0
100
AcDbLine
 10
5184.960919862775
 20
906.0
 30
0.0
 11
5184.960919862775
 21
2520.0
 31
0.0
  0
INSERT
  5
16D07
330
16252
100
AcDbEntity
  8
0
  6
ByBlock
 62
     0
 48
50.0
100
AcDbBlockReference
  2
_DOTSMALL
 10
5184.960919862775
 20
906.0
 30
0.0
 41
50.0
 42
50.0
 43
50.0
 50
270.0
  0
INSERT
  5
16D08
330
16252
100
AcDbEntity
  8
0
  6
ByBlock
 62
     0
 48
50.0
100
AcDbBlockReference
  2
_DOTSMALL
 10
5184.960919862775
 20
2520.0
 30
0.0
 41
50.0
 42
50.0
 43
50.0
 50
90.0
  0
MTEXT
  5
16D09
330
16252
100
AcDbEntity
  8
0
  6
ByBlock
 62
     7
 48
50.0
100
AcDbMText
 10
5134.960919862775
 20
1713.0
 30
0.0
 40
60.0
 41
0.0
 71
     5
 72
     1
  1
\A1;1617
  7
STYLE1
 11
0.0000000000000001
 21
1.0
 31
0.0
 73
     1
 44
1.0
1001
ACAD
1000
MTEXTBEGIN
1070
    73
1070
     1
1070
    44
1040
1.0
1070
    74
1070
     0
1000
MTEXTEND
  0
POINT
  5
16D0A
330
16252
100
AcDbEntity
  8
DEFPOINTS
  6
ByBlock
 62
     0
 48
50.0
100
AcDbPoint
 10
5508.600000000001
 20
906.0
 30
0.0
  0
POINT
  5
16D0B
330
16252
100
AcDbEntity
  8
DEFPOINTS
  6
ByBlock
 62
     0
 48
50.0
100
AcDbPoint
 10
5483.029319720905
 20
2520.0
 30
0.0
  0
POINT
  5
16D0C
330
16252
100
AcDbEntity
  8
DEFPOINTS
  6
ByBlock
 62
     0
 48
50.0
100
AcDbPoint
 10
5184.960919862775
 20
2520.0
 30
0.0
  0
ENDBLK
  5
16D0D
330
16252
100
AcDbEntity
  8
0
 48
50.0
100
AcDbBlockEnd
  0
BLOCK
  5
1625E
330
1625D
100
AcDbEntity
  8
0
 48
50.0
100
AcDbBlockBegin
  2
*D11
 70
     1
 10
0.0
 20
0.0
 30
0.0
  3
*D11
  1

  0
LINE
  5
1625F
330
1625D
100
AcDbEntity
  8
0
  6
ByBlock
 62
     0
 48
50.0
100
AcDbLine
 10
5402.600000000001
 20
900.0
 30
0.0
 11
5054.960919862776
 21
900.0
 31
0.0
  0
LINE
  5
16260
330
1625D
100
AcDbEntity
  8
0
  6
ByBlock
 62
     0
 48
50.0
100
AcDbLine
 10
5398.600000000001
 20
906.0
 30
0.0
 11
5054.960919862776
 21
906.0
 31
0.0
  0
LINE
  5
16261
330
1625D
100
AcDbEntity
  8
0
  6
ByBlock
 62
     0
 48
50.0
100
AcDbLine
 10
5084.960919862776
 20
900.0
 30
0.0
 11
5084.960919862776
 21
850.0
 31
0.0
  0
LINE
  5
16262
330
1625D
100
AcDbEntity
  8
0
  6
ByBlock
 62
     0
 48
50.0
100
AcDbLine
 10
5084.960919862776
 20
906.0
 30
0.0
 11
5084.960919862776
 21
956.0
 31
0.0
  0
MTEXT
  5
16263
330
1625D
100
AcDbEntity
  8
0
  6
ByBlock
 62
     7
 48
50.0
100
AcDbMText
 10
5034.960919862776
 20
870.4241879215514
 30
0.0
 40
60.0
 41
0.0
 71
     5
 72
     1
  1
\A1;3
  7
STYLE1
 11
0.0000000000000001
 21
1.0
 31
0.0
 73
     1
 44
1.0
1001
ACAD
1000
MTEXTBEGIN
1070
    73
1070
     1
1070
    44
1040
1.0
1070
    74
1070
     0
1000
MTEXTEND
  0
LINE
  5
16264
330
1625D
100
AcDbEntity
  8
0
  6
ByBlock
 62
     0
 48
50.0
100
AcDbLine
 10
5084.960919862776
 20
900.0
 30
0.0
 11
5084.960919862776
 21
906.0
 31
0.0
  0
LINE
  5
16265
330
1625D
100
AcDbEntity
  8
0
  6
ByBlock
 62
     0
 48
50.0
100
AcDbLine
 10
5084.960919862776
 20
900.0
 30
0.0
 11
5084.960919862776
 21
906.0
 31
0.0
  0
INSERT
  5
16266
330
1625D
100
AcDbEntity
  8
0
  6
ByBlock
 62
     0
 48
50.0
100
AcDbBlockReference
  2
_DOTSMALL
 10
5084.960919862776
 20
900.0
 30
0.0
 41
50.0
 42
50.0
 43
50.0
 50
90.0
  0
INSERT
  5
16267
330
1625D
100
AcDbEntity
  8
0
  6
ByBlock
 62
     0
 48
50.0
100
AcDbBlockReference
  2
_DOTSMALL
 10
5084.960919862776
 20
906.0
 30
0.0
 41
50.0
 42
50.0
 43
50.0
 50
270.0
  0
POINT
  5
16268
330
1625D
100
AcDbEntity
  8
DEFPOINTS
  6
ByBlock
 62
     0
 48
50.0
100
AcDbPoint
 10
5412.600000000001
 20
900.0
 30
0.0
  0
POINT
  5
16269
330
1625D
100
AcDbEntity
  8
DEFPOINTS
  6
ByBlock
 62
     0
 48
50.0
100
AcDbPoint
 10
5408.600000000001
 20
906.0
 30
0.0
  0
POINT
  5
1626A
330
1625D
100
AcDbEntity
  8
DEFPOINTS
  6
ByBlock
 62
     0
 48
50.0
100
AcDbPoint
 10
5084.960919862776
 20
906.0
 30
0.0
  0
ENDBLK
  5
1626B
330
1625D
100
AcDbEntity
  8
0
 48
50.0
100
AcDbBlockEnd
  0
BLOCK
  5
16E67
330
1626C
100
AcDbEntity
  8
0
 48
50.0
100
AcDbBlockBegin
  2
*D12
 70
     1
 10
0.0
 20
0.0
 30
0.0
  3
*D12
  1

  0
LINE
  5
16E68
330
1626C
100
AcDbEntity
  8
0
  6
ByBlock
 62
     0
 48
50.0
100
AcDbLine
 10
2598.599999999995
 20
2523.560713214081
 30
0.0
 11
2598.599999999995
 21
2833.220335370564
 31
0.0
  0
LINE
  5
16E69
330
1626C
100
AcDbEntity
  8
0
  6
ByBlock
 62
     0
 48
50.0
100
AcDbLine
 10
3708.600000000002
 20
2523.560713214081
 30
0.0
 11
3708.600000000002
 21
2833.220335370564
 31
0.0
  0
LINE
  5
16E6A
330
1626C
100
AcDbEntity
  8
0
  6
ByBlock
 62
     0
 48
50.0
100
AcDbLine
 10
2598.599999999995
 20
2803.220335370565
 30
0.0
 11
3708.600000000002
 21
2803.220335370565
 31
0.0
  0
INSERT
  5
16E6B
330
1626C
100
AcDbEntity
  8
0
  6
ByBlock
 62
     0
 48
50.0
100
AcDbBlockReference
  2
_DOTSMALL
 10
2598.599999999995
 20
2803.220335370565
 30
0.0
 41
50.0
 42
50.0
 43
50.0
 50
180.0
  0
INSERT
  5
16E6C
330
1626C
100
AcDbEntity
  8
0
  6
ByBlock
 62
     0
 48
50.0
100
AcDbBlockReference
  2
_DOTSMALL
 10
3708.600000000002
 20
2803.220335370565
 30
0.0
 41
50.0
 42
50.0
 43
50.0
  0
MTEXT
  5
16E6D
330
1626C
100
AcDbEntity
  8
0
  6
ByBlock
 62
     7
 48
50.0
100
AcDbMText
 10
3153.599999999999
 20
2853.220335370565
 30
0.0
 40
60.0
 41
0.0
 71
     5
 72
     1
  1
\A1;1110
  7
STYLE1
 73
     1
 44
1.0
1001
ACAD
1000
MTEXTBEGIN
1070
    73
1070
     1
1070
    44
1040
1.0
1070
    74
1070
     0
1000
MTEXTEND
  0
POINT
  5
16E6E
330
1626C
100
AcDbEntity
  8
DEFPOINTS
  6
ByBlock
 62
     0
 48
50.0
100
AcDbPoint
 10
2598.599999999995
 20
2513.560713214082
 30
0.0
  0
POINT
  5
16E6F
330
1626C
100
AcDbEntity
  8
DEFPOINTS
  6
ByBlock
 62
     0
 48
50.0
100
AcDbPoint
 10
3708.600000000002
 20
2513.560713214082
 30
0.0
  0
POINT
  5
16E70
330
1626C
100
AcDbEntity
  8
DEFPOINTS
  6
ByBlock
 62
     0
 48
50.0
100
AcDbPoint
 10
3708.600000000002
 20
2803.220335370565
 30
0.0
  0
ENDBLK
  5
16E71
330
1626C
100
AcDbEntity
  8
0
 48
50.0
100
AcDbBlockEnd
  0
BLOCK
  5
16E5C
330
16278
100
AcDbEntity
  8
0
 48
50.0
100
AcDbBlockBegin
  2
*D13
 70
     1
 10
0.0
 20
0.0
 30
0.0
  3
*D13
  1

  0
LINE
  5
16E5D
330
16278
100
AcDbEntity
  8
0
  6
ByBlock
 62
     0
 48
50.0
100
AcDbLine
 10
2603.599999999999
 20
2527.391201416256
 30
0.0
 11
2603.599999999999
 21
2705.024113945669
 31
0.0
  0
LINE
  5
16E5E
330
16278
100
AcDbEntity
  8
0
  6
ByBlock
 62
     0
 48
50.0
100
AcDbLine
 10
3703.599999999999
 20
2527.391201416256
 30
0.0
 11
3703.599999999999
 21
2705.024113945669
 31
0.0
  0
LINE
  5
16E5F
330
16278
100
AcDbEntity
  8
0
  6
ByBlock
 62
     0
 48
50.0
100
AcDbLine
 10
2603.599999999999
 20
2675.024113945668
 30
0.0
 11
3703.599999999999
 21
2675.024113945668
 31
0.0
  0
INSERT
  5
16E60
330
16278
100
AcDbEntity
  8
0
  6
ByBlock
 62
     0
 48
50.0
100
AcDbBlockReference
  2
_DOTSMALL
 10
2603.599999999999
 20
2675.024113945668
 30
0.0
 41
50.0
 42
50.0
 43
50.0
 50
180.0
  0
INSERT
  5
16E61
330
16278
100
AcDbEntity
  8
0
  6
ByBlock
 62
     0
 48
50.0
100
AcDbBlockReference
  2
_DOTSMALL
 10
3703.599999999999
 20
2675.024113945668
 30
0.0
 41
50.0
 42
50.0
 43
50.0
  0
MTEXT
  5
16E62
330
16278
100
AcDbEntity
  8
0
  6
ByBlock
 62
     7
 48
50.0
100
AcDbMText
 10
3153.599999999999
 20
2725.024113945668
 30
0.0
 40
60.0
 41
0.0
 71
     5
 72
     1
  1
\A1;1100
  7
STYLE1
 73
     1
 44
1.0
1001
ACAD
1000
MTEXTBEGIN
1070
    73
1070
     1
1070
    44
1040
1.0
1070
    74
1070
     0
1000
MTEXTEND
  0
POINT
  5
16E63
330
16278
100
AcDbEntity
  8
DEFPOINTS
  6
ByBlock
 62
     0
 48
50.0
100
AcDbPoint
 10
2603.599999999999
 20
2517.391201416256
 30
0.0
  0
POINT
  5
16E64
330
16278
100
AcDbEntity
  8
DEFPOINTS
  6
ByBlock
 62
     0
 48
50.0
100
AcDbPoint
 10
3703.599999999999
 20
2517.391201416256
 30
0.0
  0
POINT
  5
16E65
330
16278
100
AcDbEntity
  8
DEFPOINTS
  6
ByBlock
 62
     0
 48
50.0
100
AcDbPoint
 10
3703.599999999999
 20
2675.024113945668
 30
0.0
  0
ENDBLK
  5
16E66
330
16278
100
AcDbEntity
  8
0
 48
50.0
100
AcDbBlockEnd
  0
BLOCK
  5
16285
330
16284
100
AcDbEntity
  8
0
 48
50.0
100
AcDbBlockBegin
  2
*D14
 70
     1
 10
0.0
 20
0.0
 30
0.0
  3
*D14
  1

  0
LINE
  5
16286
330
16284
100
AcDbEntity
  8
0
  6
ByBlock
 62
     0
 48
50.0
100
AcDbLine
 10
2098.599999999997
 20
2823.560713214081
 30
0.0
 11
2098.599999999997
 21
3005.024113945669
 31
0.0
  0
LINE
  5
16287
330
16284
100
AcDbEntity
  8
0
  6
ByBlock
 62
     0
 48
50.0
100
AcDbLine
 10
2103.6
 20
2827.391201416256
 30
0.0
 11
2103.6
 21
3005.024113945669
 31
0.0
  0
LINE
  5
16288
330
16284
100
AcDbEntity
  8
0
  6
ByBlock
 62
     0
 48
50.0
100
AcDbLine
 10
2103.6
 20
2975.024113945668
 30
0.0
 11
2153.6
 21
2975.024113945668
 31
0.0
  0
LINE
  5
16289
330
16284
100
AcDbEntity
  8
0
  6
ByBlock
 62
     0
 48
50.0
100
AcDbLine
 10
2098.599999999997
 20
2975.024113945668
 30
0.0
 11
1917.313392581187
 21
2975.024113945668
 31
0.0
  0
LINE
  5
1628A
330
16284
100
AcDbEntity
  8
0
  6
ByBlock
 62
     0
 48
50.0
100
AcDbLine
 10
2103.6
 20
2975.024113945668
 30
0.0
 11
2098.599999999997
 21
2975.024113945668
 31
0.0
  0
INSERT
  5
1628B
330
16284
100
AcDbEntity
  8
0
  6
ByBlock
 62
     0
 48
50.0
100
AcDbBlockReference
  2
_DOTSMALL
 10
2103.6
 20
2975.024113945668
 30
0.0
 41
50.0
 42
50.0
 43
50.0
 50
180.0
  0
INSERT
  5
1628C
330
16284
100
AcDbEntity
  8
0
  6
ByBlock
 62
     0
 48
50.0
100
AcDbBlockReference
  2
_DOTSMALL
 10
2098.599999999997
 20
2975.024113945668
 30
0.0
 41
50.0
 42
50.0
 43
50.0
  0
MTEXT
  5
1628D
330
16284
100
AcDbEntity
  8
0
  6
ByBlock
 62
     7
 48
50.0
100
AcDbMText
 10
1950.556033268307
 20
3025.024113945669
 30
0.0
 40
60.0
 41
0.0
 71
     5
 72
     1
  1
\A1;5
  7
STYLE1
 73
     1
 44
1.0
1001
ACAD
1000
MTEXTBEGIN
1070
    73
1070
     1
1070
    44
1040
1.0
1070
    74
1070
     0
1000
MTEXTEND
  0
POINT
  5
1628E
330
16284
100
AcDbEntity
  8
DEFPOINTS
  6
ByBlock
 62
     0
 48
50.0
100
AcDbPoint
 10
2098.599999999997
 20
2813.560713214081
 30
0.0
  0
POINT
  5
1628F
330
16284
100
AcDbEntity
  8
DEFPOINTS
  6
ByBlock
 62
     0
 48
50.0
100
AcDbPoint
 10
2103.6
 20
2817.391201416256
 30
0.0
  0
POINT
  5
16290
330
16284
100
AcDbEntity
  8
DEFPOINTS
  6
ByBlock
 62
     0
 48
50.0
100
AcDbPoint
 10
2103.6
 20
2975.024113945668
 30
0.0
  0
ENDBLK
  5
16291
330
16284
100
AcDbEntity
  8
0
 48
50.0
100
AcDbBlockEnd
  0
BLOCK
  5
16293
330
16292
100
AcDbEntity
  8
0
 48
50.0
100
AcDbBlockBegin
  2
*D15
 70
     1
 10
0.0
 20
0.0
 30
0.0
  3
*D15
  1

  0
LINE
  5
16294
330
16292
100
AcDbEntity
  8
0
  6
ByBlock
 62
     0
 48
50.0
100
AcDbLine
 10
5363.600000000001
 20
2803.667939162581
 30
0.0
 11
5363.600000000001
 21
3005.024113945669
 31
0.0
  0
LINE
  5
16295
330
16292
100
AcDbEntity
  8
0
  6
ByBlock
 62
     0
 48
50.0
100
AcDbLine
 10
5403.600000000002
 20
2829.999999999999
 30
0.0
 11
5403.600000000002
 21
3005.024113945669
 31
0.0
  0
LINE
  5
16296
330
16292
100
AcDbEntity
  8
0
  6
ByBlock
 62
     0
 48
50.0
100
AcDbLine
 10
5403.600000000002
 20
2975.024113945668
 30
0.0
 11
5363.600000000001
 21
2975.024113945668
 31
0.0
  0
LINE
  5
16297
330
16292
100
AcDbEntity
  8
0
  6
ByBlock
 62
     0
 48
50.0
100
AcDbLine
 10
5363.600000000001
 20
2975.024113945668
 30
0.0
 11
5151.552755905513
 21
2975.024113945668
 31
0.0
  0
INSERT
  5
16298
330
16292
100
AcDbEntity
  8
0
  6
ByBlock
 62
     0
 48
50.0
100
AcDbBlockReference
  2
_DOTSMALL
 10
5403.600000000002
 20
2975.024113945668
 30
0.0
 41
50.0
 42
50.0
 43
50.0
  0
INSERT
  5
16299
330
16292
100
AcDbEntity
  8
0
  6
ByBlock
 62
     0
 48
50.0
100
AcDbBlockReference
  2
_DOTSMALL
 10
5363.600000000001
 20
2975.024113945668
 30
0.0
 41
50.0
 42
50.0
 43
50.0
 50
180.0
  0
MTEXT
  5
1629A
330
16292
100
AcDbEntity
  8
0
  6
ByBlock
 62
     7
 48
50.0
100
AcDbMText
 10
5207.576377952758
 20
3025.024113945669
 30
0.0
 40
60.0
 41
0.0
 71
     5
 72
     1
  1
\A1;40
  7
STYLE1
 73
     1
 44
1.0
1001
ACAD
1000
MTEXTBEGIN
1070
    73
1070
     1
1070
    44
1040
1.0
1070
    74
1070
     0
1000
MTEXTEND
  0
POINT
  5
1629B
330
16292
100
AcDbEntity
  8
DEFPOINTS
  6
ByBlock
 62
     0
 48
50.0
100
AcDbPoint
 10
5363.600000000001
 20
2793.66793916258
 30
0.0
  0
POINT
  5
1629C
330
16292
100
AcDbEntity
  8
DEFPOINTS
  6
ByBlock
 62
     0
 48
50.0
100
AcDbPoint
 10
5403.600000000002
 20
2819.999999999999
 30
0.0
  0
POINT
  5
1629D
330
16292
100
AcDbEntity
  8
DEFPOINTS
  6
ByBlock
 62
     0
 48
50.0
100
AcDbPoint
 10
5403.600000000002
 20
2975.024113945668
 30
0.0
  0
ENDBLK
  5
1629E
330
16292
100
AcDbEntity
  8
0
 48
50.0
100
AcDbBlockEnd
  0
BLOCK
  5
162A0
330
1629F
100
AcDbEntity
  8
0
 48
50.0
100
AcDbBlockBegin
  2
*D16
 70
     1
 10
0.0
 20
0.0
 30
0.0
  3
*D16
  1

  0
LINE
  5
162A1
330
1629F
100
AcDbEntity
  8
0
  6
ByBlock
 62
     0
 48
50.0
100
AcDbLine
 10
4203.6
 20
2827.391201416256
 30
0.0
 11
4203.6
 21
3005.024113945669
 31
0.0
  0
LINE
  5
162A2
330
1629F
100
AcDbEntity
  8
0
  6
ByBlock
 62
     0
 48
50.0
100
AcDbLine
 10
4208.600000000004
 20
2823.560713214081
 30
0.0
 11
4208.600000000004
 21
3005.024113945669
 31
0.0
  0
LINE
  5
162A3
330
1629F
100
AcDbEntity
  8
0
  6
ByBlock
 62
     0
 48
50.0
100
AcDbLine
 10
4203.6
 20
2975.024113945668
 30
0.0
 11
4153.599999999999
 21
2975.024113945668
 31
0.0
  0
LINE
  5
162A4
330
1629F
100
AcDbEntity
  8
0
  6
ByBlock
 62
     0
 48
50.0
100
AcDbLine
 10
4208.600000000004
 20
2975.024113945668
 30
0.0
 11
4375.085281374242
 21
2975.024113945668
 31
0.0
  0
LINE
  5
162A5
330
1629F
100
AcDbEntity
  8
0
  6
ByBlock
 62
     0
 48
50.0
100
AcDbLine
 10
4203.6
 20
2975.024113945668
 30
0.0
 11
4208.600000000004
 21
2975.024113945668
 31
0.0
  0
INSERT
  5
162A6
330
1629F
100
AcDbEntity
  8
0
  6
ByBlock
 62
     0
 48
50.0
100
AcDbBlockReference
  2
_DOTSMALL
 10
4203.6
 20
2975.024113945668
 30
0.0
 41
50.0
 42
50.0
 43
50.0
  0
INSERT
  5
162A7
330
1629F
100
AcDbEntity
  8
0
  6
ByBlock
 62
     0
 48
50.0
100
AcDbBlockReference
  2
_DOTSMALL
 10
4208.600000000004
 20
2975.024113945668
 30
0.0
 41
50.0
 42
50.0
 43
50.0
 50
180.0
  0
MTEXT
  5
162A8
330
1629F
100
AcDbEntity
  8
0
  6
ByBlock
 62
     7
 48
50.0
100
AcDbMText
 10
4341.842640687123
 20
3025.024113945669
 30
0.0
 40
60.0
 41
0.0
 71
     5
 72
     1
  1
\A1;5
  7
STYLE1
 73
     1
 44
1.0
1001
ACAD
1000
MTEXTBEGIN
1070
    73
1070
     1
1070
    44
1040
1.0
1070
    74
1070
     0
1000
MTEXTEND
  0
POINT
  5
162A9
330
1629F
100
AcDbEntity
  8
DEFPOINTS
  6
ByBlock
 62
     0
 48
50.0
100
AcDbPoint
 10
4203.6
 20
2817.391201416256
 30
0.0
  0
POINT
  5
162AA
330
1629F
100
AcDbEntity
  8
DEFPOINTS
  6
ByBlock
 62
     0
 48
50.0
100
AcDbPoint
 10
4208.600000000004
 20
2813.560713214081
 30
0.0
  0
POINT
  5
162AB
330
1629F
100
AcDbEntity
  8
DEFPOINTS
  6
ByBlock
 62
     0
 48
50.0
100
AcDbPoint
 10
4208.600000000004
 20
2975.024113945668
 30
0.0
  0
ENDBLK
  5
162AC
330
1629F
100
AcDbEntity
  8
0
 48
50.0
100
AcDbBlockEnd
  0
BLOCK
  5
16CEF
330
1630D
100
AcDbEntity
  8
0
 48
50.0
100
AcDbBlockBegin
  2
*D17
 70
     1
 10
0.0
 20
0.0
 30
0.0
  3
*D17
  1

  0
LINE
  5
16CF0
330
1630D
100
AcDbEntity
  8
0
  6
ByBlock
 62
     0
 48
50.0
100
AcDbLine
 10
5502.600000000001
 20
900.0
 30
0.0
 11
5011.173767725317
 21
900.0
 31
0.0
  0
LINE
  5
16CF1
330
1630D
100
AcDbEntity
  8
0
  6
ByBlock
 62
     0
 48
50.0
100
AcDbLine
 10
5473.029319720905
 20
2520.0
 30
0.0
 11
5011.173767725317
 21
2520.0
 31
0.0
  0
LINE
  5
16CF2
330
1630D
100
AcDbEntity
  8
0
  6
ByBlock
 62
     0
 48
50.0
100
AcDbLine
 10
5041.173767725317
 20
900.0
 30
0.0
 11
5041.173767725317
 21
2520.0
 31
0.0
  0
INSERT
  5
16CF3
330
1630D
100
AcDbEntity
  8
0
  6
ByBlock
 62
     0
 48
50.0
100
AcDbBlockReference
  2
_DOTSMALL
 10
5041.173767725317
 20
900.0
 30
0.0
 41
50.0
 42
50.0
 43
50.0
 50
270.0
  0
INSERT
  5
16CF4
330
1630D
100
AcDbEntity
  8
0
  6
ByBlock
 62
     0
 48
50.0
100
AcDbBlockReference
  2
_DOTSMALL
 10
5041.173767725317
 20
2520.0
 30
0.0
 41
50.0
 42
50.0
 43
50.0
 50
90.0
  0
MTEXT
  5
16CF5
330
1630D
100
AcDbEntity
  8
0
  6
ByBlock
 62
     7
 48
50.0
100
AcDbMText
 10
4991.167862213506
 20
1710.0
 30
0.0
 40
60.0
 41
0.0
 71
     5
 72
     1
  1
\A1;1620
  7
STYLE1
 11
0.0000000000000001
 21
1.0
 31
0.0
 73
     1
 44
1.0
1001
ACAD
1000
MTEXTBEGIN
1070
    73
1070
     1
1070
    44
1040
1.0
1070
    74
1070
     0
1000
MTEXTEND
  0
POINT
  5
16CF6
330
1630D
100
AcDbEntity
  8
DEFPOINTS
  6
ByBlock
 62
     0
 48
50.0
100
AcDbPoint
 10
5512.6
 20
900.0
 30
0.0
  0
POINT
  5
16CF7
330
1630D
100
AcDbEntity
  8
DEFPOINTS
  6
ByBlock
 62
     0
 48
50.0
100
AcDbPoint
 10
5483.029319720905
 20
2520.0
 30
0.0
  0
POINT
  5
16CF8
330
1630D
100
AcDbEntity
  8
DEFPOINTS
  6
ByBlock
 62
     0
 48
50.0
100
AcDbPoint
 10
5041.173767725317
 20
2520.0
 30
0.0
  0
ENDBLK
  5
16CF9
330
1630D
100
AcDbEntity
  8
0
 48
50.0
100
AcDbBlockEnd
  0
BLOCK
  5
1631A
330
16319
100
AcDbEntity
  8
0
 48
50.0
100
AcDbBlockBegin
  2
*D18
 70
     1
 10
0.0
 20
0.0
 30
0.0
  3
*D18
  1

  0
LINE
  5
1631B
330
16319
100
AcDbEntity
  8
0
  6
ByBlock
 62
     0
 48
50.0
100
AcDbLine
 10
6323.600000000001
 20
2799.999999999999
 30
0.0
 11
6838.058089714104
 21
2799.999999999999
 31
0.0
  0
LINE
  5
1631C
330
16319
100
AcDbEntity
  8
0
  6
ByBlock
 62
     0
 48
50.0
100
AcDbLine
 10
6323.600000000001
 20
2725.0
 30
0.0
 11
6838.058089714104
 21
2725.0
 31
0.0
  0
LINE
  5
1631D
330
16319
100
AcDbEntity
  8
0
  6
ByBlock
 62
     0
 48
50.0
100
AcDbLine
 10
6808.058089714105
 20
2799.999999999999
 30
0.0
 11
6808.058089714105
 21
2850.0
 31
0.0
  0
LINE
  5
1631E
330
16319
100
AcDbEntity
  8
0
  6
ByBlock
 62
     0
 48
50.0
100
AcDbLine
 10
6808.058089714105
 20
2725.0
 30
0.0
 11
6808.058089714105
 21
2674.999999999999
 31
0.0
  0
LINE
  5
1631F
330
16319
100
AcDbEntity
  8
0
  6
ByBlock
 62
     0
 48
50.0
100
AcDbLine
 10
6808.058089714105
 20
2799.999999999999
 30
0.0
 11
6808.058089714105
 21
2725.0
 31
0.0
  0
INSERT
  5
16320
330
16319
100
AcDbEntity
  8
0
  6
ByBlock
 62
     0
 48
50.0
100
AcDbBlockReference
  2
_DOTSMALL
 10
6808.058089714105
 20
2799.999999999999
 30
0.0
 41
50.0
 42
50.0
 43
50.0
 50
270.0
  0
INSERT
  5
16321
330
16319
100
AcDbEntity
  8
0
  6
ByBlock
 62
     0
 48
50.0
100
AcDbBlockReference
  2
_DOTSMALL
 10
6808.058089714105
 20
2725.0
 30
0.0
 41
50.0
 42
50.0
 43
50.0
 50
90.0
  0
MTEXT
  5
16322
330
16319
100
AcDbEntity
  8
0
  6
ByBlock
 62
     7
 48
50.0
100
AcDbMText
 10
6758.058089714104
 20
2762.499999999999
 30
0.0
 40
60.0
 41
0.0
 71
     5
 72
     1
  1
\A1;75
  7
STYLE1
 11
0.0000000000000001
 21
1.0
 31
0.0
 73
     1
 44
1.0
1001
ACAD
1000
MTEXTBEGIN
1070
    73
1070
     1
1070
    44
1040
1.0
1070
    74
1070
     0
1000
MTEXTEND
  0
POINT
  5
16323
330
16319
100
AcDbEntity
  8
DEFPOINTS
  6
ByBlock
 62
     0
 48
50.0
100
AcDbPoint
 10
6313.600000000001
 20
2799.999999999999
 30
0.0
  0
POINT
  5
16324
330
16319
100
AcDbEntity
  8
DEFPOINTS
  6
ByBlock
 62
     0
 48
50.0
100
AcDbPoint
 10
6313.600000000001
 20
2725.0
 30
0.0
  0
POINT
  5
16325
330
16319
100
AcDbEntity
  8
DEFPOINTS
  6
ByBlock
 62
     0
 48
50.0
100
AcDbPoint
 10
6808.058089714105
 20
2725.0
 30
0.0
  0
ENDBLK
  5
16326
330
16319
100
AcDbEntity
  8
0
 48
50.0
100
AcDbBlockEnd
  0
BLOCK
  5
16CCE
330
16327
100
AcDbEntity
  8
0
 48
50.0
100
AcDbBlockBegin
  2
*D19
 70
     1
 10
0.0
 20
0.0
 30
0.0
  3
*D19
  1

  0
LINE
  5
16CCF
330
16327
100
AcDbEntity
  8
0
  6
ByBlock
 62
     0
 48
50.0
100
AcDbLine
 10
6223.600000000001
 20
2425.0
 30
0.0
 11
6738.058089714103
 21
2425.0
 31
0.0
  0
LINE
  5
16CD0
330
16327
100
AcDbEntity
  8
0
  6
ByBlock
 62
     0
 48
50.0
100
AcDbLine
 10
6207.600000000001
 20
900.0
 30
0.0
 11
6738.058089714103
 21
899.9999999999998
 31
0.0
  0
LINE
  5
16CD1
330
16327
100
AcDbEntity
  8
0
  6
ByBlock
 62
     0
 48
50.0
100
AcDbLine
 10
6708.058089714103
 20
2425.0
 30
0.0
 11
6708.058089714103
 21
899.9999999999998
 31
0.0
  0
INSERT
  5
16CD2
330
16327
100
AcDbEntity
  8
0
  6
ByBlock
 62
     0
 48
50.0
100
AcDbBlockReference
  2
_DOTSMALL
 10
6708.058089714103
 20
2425.0
 30
0.0
 41
50.0
 42
50.0
 43
50.0
 50
90.0
  0
INSERT
  5
16CD3
330
16327
100
AcDbEntity
  8
0
  6
ByBlock
 62
     0
 48
50.0
100
AcDbBlockReference
  2
_DOTSMALL
 10
6708.058089714103
 20
899.9999999999998
 30
0.0
 41
50.0
 42
50.0
 43
50.0
 50
270.0
  0
MTEXT
  5
16CD4
330
16327
100
AcDbEntity
  8
0
  6
ByBlock
 62
     7
 48
50.0
100
AcDbMText
 10
6658.052184202292
 20
1662.5
 30
0.0
 40
60.0
 41
0.0
 71
     5
 72
     1
  1
\A1;1525
  7
STYLE1
 11
0.0000000000000001
 21
1.0
 31
0.0
 73
     1
 44
1.0
1001
ACAD
1000
MTEXTBEGIN
1070
    73
1070
     1
1070
    44
1040
1.0
1070
    74
1070
     0
1000
MTEXTEND
  0
POINT
  5
16CD5
330
16327
100
AcDbEntity
  8
DEFPOINTS
  6
ByBlock
 62
     0
 48
50.0
100
AcDbPoint
 10
6213.6
 20
2425.0
 30
0.0
  0
POINT
  5
16CD6
330
16327
100
AcDbEntity
  8
DEFPOINTS
  6
ByBlock
 62
     0
 48
50.0
100
AcDbPoint
 10
6197.600000000001
 20
900.0
 30
0.0
  0
POINT
  5
16CD7
330
16327
100
AcDbEntity
  8
DEFPOINTS
  6
ByBlock
 62
     0
 48
50.0
100
AcDbPoint
 10
6708.058089714103
 20
899.9999999999998
 30
0.0
  0
ENDBLK
  5
16CD8
330
16327
100
AcDbEntity
  8
0
 48
50.0
100
AcDbBlockEnd
  0
BLOCK
  5
16EA9
330
16423
100
AcDbEntity
  8
0
 48
50.0
100
AcDbBlockBegin
  2
*D20
 70
     1
 10
0.0
 20
0.0
 30
0.0
  3
*D20
  1

  0
LINE
  5
16EAA
330
16423
100
AcDbEntity
  8
0
  6
ByBlock
 62
     0
 48
50.0
100
AcDbLine
 10
3703.599999999997
 20
4094.582580843267
 30
0.0
 11
3703.599999999997
 21
3632.884076791021
 31
0.0
  0
LINE
  5
16EAB
330
16423
100
AcDbEntity
  8
0
  6
ByBlock
 62
     0
 48
50.0
100
AcDbLine
 10
2603.599999999997
 20
4094.582580843265
 30
0.0
 11
2603.599999999997
 21
3632.884076791021
 31
0.0
  0
LINE
  5
16EAC
330
16423
100
AcDbEntity
  8
0
  6
ByBlock
 62
     0
 48
50.0
100
AcDbLine
 10
3703.599999999997
 20
3662.884076791021
 30
0.0
 11
2603.599999999997
 21
3662.884076791021
 31
0.0
  0
INSERT
  5
16EAD
330
16423
100
AcDbEntity
  8
0
  6
ByBlock
 62
     0
 48
50.0
100
AcDbBlockReference
  2
_DOTSMALL
 10
3703.599999999997
 20
3662.884076791021
 30
0.0
 41
50.0
 42
50.0
 43
50.0
  0
INSERT
  5
16EAE
330
16423
100
AcDbEntity
  8
0
  6
ByBlock
 62
     0
 48
50.0
100
AcDbBlockReference
  2
_DOTSMALL
 10
2603.599999999997
 20
3662.884076791021
 30
0.0
 41
50.0
 42
50.0
 43
50.0
 50
180.0
  0
MTEXT
  5
16EAF
330
16423
100
AcDbEntity
  8
0
  6
ByBlock
 62
     7
 48
50.0
100
AcDbMText
 10
3153.599999999997
 20
3712.88407679102
 30
0.0
 40
60.0
 41
0.0
 71
     5
 72
     1
  1
\A1;1100
  7
STYLE1
 73
     1
 44
1.0
1001
ACAD
1000
MTEXTBEGIN
1070
    73
1070
     1
1070
    44
1040
1.0
1070
    74
1070
     0
1000
MTEXTEND
  0
POINT
  5
16EB0
330
16423
100
AcDbEntity
  8
DEFPOINTS
  6
ByBlock
 62
     0
 48
50.0
100
AcDbPoint
 10
3703.599999999997
 20
4104.582580843267
 30
0.0
  0
POINT
  5
16EB1
330
16423
100
AcDbEntity
  8
DEFPOINTS
  6
ByBlock
 62
     0
 48
50.0
100
AcDbPoint
 10
2603.599999999997
 20
4104.582580843265
 30
0.0
  0
POINT
  5
16EB2
330
16423
100
AcDbEntity
  8
DEFPOINTS
  6
ByBlock
 62
     0
 48
50.0
100
AcDbPoint
 10
2603.599999999997
 20
3662.884076791021
 30
0.0
  0
ENDBLK
  5
16EB3
330
16423
100
AcDbEntity
  8
0
 48
50.0
100
AcDbBlockEnd
  0
BLOCK
  5
1648E
330
1642F
100
AcDbEntity
  8
0
 48
50.0
100
AcDbBlockBegin
  2
*D21
 70
     1
 10
0.0
 20
0.0
 30
0.0
  3
*D21
  1

  0
LINE
  5
1648F
330
1642F
100
AcDbEntity
  8
0
  6
ByBlock
 62
     0
 48
50.0
100
AcDbLine
 10
19615.53273708219
 20
4804.58258084327
 30
0.0
 11
20137.73359852137
 21
4804.58258084327
 31
0.0
  0
LINE
  5
16490
330
1642F
100
AcDbEntity
  8
0
  6
ByBlock
 62
     0
 48
50.0
100
AcDbLine
 10
19620.53273708218
 20
4104.582580843267
 30
0.0
 11
20137.73359852137
 21
4104.582580843267
 31
0.0
  0
LINE
  5
16491
330
1642F
100
AcDbEntity
  8
0
  6
ByBlock
 62
     0
 48
50.0
100
AcDbLine
 10
20107.73359852137
 20
4804.58258084327
 30
0.0
 11
20107.73359852137
 21
4104.582580843267
 31
0.0
  0
INSERT
  5
16492
330
1642F
100
AcDbEntity
  8
0
  6
ByBlock
 62
     0
 48
50.0
100
AcDbBlockReference
  2
_DOTSMALL
 10
20107.73359852137
 20
4804.58258084327
 30
0.0
 41
50.0
 42
50.0
 43
50.0
 50
90.0
  0
INSERT
  5
16493
330
1642F
100
AcDbEntity
  8
0
  6
ByBlock
 62
     0
 48
50.0
100
AcDbBlockReference
  2
_DOTSMALL
 10
20107.73359852137
 20
4104.582580843267
 30
0.0
 41
50.0
 42
50.0
 43
50.0
 50
270.0
  0
MTEXT
  5
16494
330
1642F
100
AcDbEntity
  8
0
  6
ByBlock
 62
     7
 48
50.0
100
AcDbMText
 10
20057.73359852137
 20
4454.582580843267
 30
0.0
 40
60.0
 41
0.0
 71
     5
 72
     1
  1
\A1;700
  7
STYLE1
 11
0.0000000000000001
 21
1.0
 31
0.0
 73
     1
 44
1.0
1001
ACAD
1000
MTEXTBEGIN
1070
    73
1070
     1
1070
    44
1040
1.0
1070
    74
1070
     0
1000
MTEXTEND
  0
POINT
  5
16495
330
1642F
100
AcDbEntity
  8
DEFPOINTS
  6
ByBlock
 62
     0
 48
50.0
100
AcDbPoint
 10
19605.53273708218
 20
4804.58258084327
 30
0.0
  0
POINT
  5
16496
330
1642F
100
AcDbEntity
  8
DEFPOINTS
  6
ByBlock
 62
     0
 48
50.0
100
AcDbPoint
 10
19610.53273708218
 20
4104.582580843267
 30
0.0
  0
POINT
  5
16497
330
1642F
100
AcDbEntity
  8
DEFPOINTS
  6
ByBlock
 62
     0
 48
50.0
100
AcDbPoint
 10
20107.73359852137
 20
4104.582580843267
 30
0.0
  0
ENDBLK
  5
16498
330
1642F
100
AcDbEntity
  8
0
 48
50.0
100
AcDbBlockEnd
  0
BLOCK
  5
164A4
330
16453
100
AcDbEntity
  8
0
 48
50.0
100
AcDbBlockBegin
  2
*D22
 70
     1
 10
0.0
 20
0.0
 30
0.0
  3
*D22
  1

  0
LINE
  5
164A5
330
16453
100
AcDbEntity
  8
0
  6
ByBlock
 62
     0
 48
50.0
100
AcDbLine
 10
18137.03273708218
 20
4776.262072767578
 30
0.0
 11
17859.76988668388
 21
4850.554429622956
 31
0.0
  0
LINE
  5
164A6
330
16453
100
AcDbEntity
  8
0
  6
ByBlock
 62
     0
 48
50.0
100
AcDbLine
 10
18137.03273708219
 20
4326.26207276758
 30
0.0
 11
17859.76988668388
 21
4400.554429622959
 31
0.0
  0
LINE
  5
164A7
330
16453
100
AcDbEntity
  8
0
  6
ByBlock
 62
     0
 48
50.0
100
AcDbLine
 10
17889.76988668387
 20
4842.515953850022
 30
0.0
 11
17889.76988668387
 21
4392.515953850026
 31
0.0
  0
INSERT
  5
164A8
330
16453
100
AcDbEntity
  8
0
  6
ByBlock
 62
     0
 48
50.0
100
AcDbBlockReference
  2
_DOTSMALL
 10
17889.76988668387
 20
4842.515953850022
 30
0.0
 41
50.0
 42
50.0
 43
50.0
 50
90.0
  0
INSERT
  5
164A9
330
16453
100
AcDbEntity
  8
0
  6
ByBlock
 62
     0
 48
50.0
100
AcDbBlockReference
  2
_DOTSMALL
 10
17889.76988668387
 20
4392.515953850026
 30
0.0
 41
50.0
 42
50.0
 43
50.0
 50
270.0
  0
MTEXT
  5
164AA
330
16453
100
AcDbEntity
  8
0
  6
ByBlock
 62
     7
 48
50.0
100
AcDbMText
 10
17839.76988668388
 20
4617.515953850023
 30
0.0
 40
60.0
 41
0.0
 71
     5
 72
     1
  1
\A1;450
  7
STYLE1
 11
0.0000000000000001
 21
1.0
 31
0.0
 73
     1
 44
1.0
1001
ACAD
1000
MTEXTBEGIN
1070
    73
1070
     1
1070
    44
1040
1.0
1070
    74
1070
     0
1000
MTEXTEND
  0
POINT
  5
164AB
330
16453
100
AcDbEntity
  8
DEFPOINTS
  6
ByBlock
 62
     0
 48
50.0
100
AcDbPoint
 10
18147.03273708218
 20
4773.582580843267
 30
0.0
  0
POINT
  5
164AC
330
16453
100
AcDbEntity
  8
DEFPOINTS
  6
ByBlock
 62
     0
 48
50.0
100
AcDbPoint
 10
18147.03273708218
 20
4323.582580843269
 30
0.0
  0
POINT
  5
164AD
330
16453
100
AcDbEntity
  8
DEFPOINTS
  6
ByBlock
 62
     0
 48
50.0
100
AcDbPoint
 10
17889.76988668387
 20
4392.515953850026
 30
0.0
  0
ENDBLK
  5
164AE
330
16453
100
AcDbEntity
  8
0
 48
50.0
100
AcDbBlockEnd
  0
BLOCK
  5
16E9E
330
1645F
100
AcDbEntity
  8
0
 48
50.0
100
AcDbBlockBegin
  2
*D23
 70
     1
 10
0.0
 20
0.0
 30
0.0
  3
*D23
  1

  0
LINE
  5
16E9F
330
1645F
100
AcDbEntity
  8
0
  6
ByBlock
 62
     0
 48
50.0
100
AcDbLine
 10
2662.599999999997
 20
4814.582580843269
 30
0.0
 11
2662.599999999997
 21
5226.414712708184
 31
0.0
  0
LINE
  5
16EA0
330
1645F
100
AcDbEntity
  8
0
  6
ByBlock
 62
     0
 48
50.0
100
AcDbLine
 10
3644.6
 20
4814.582580843176
 30
0.0
 11
3644.6
 21
5226.414712708184
 31
0.0
  0
LINE
  5
16EA1
330
1645F
100
AcDbEntity
  8
0
  6
ByBlock
 62
     0
 48
50.0
100
AcDbLine
 10
2662.599999999997
 20
5196.414712708183
 30
0.0
 11
3644.6
 21
5196.414712708183
 31
0.0
  0
INSERT
  5
16EA2
330
1645F
100
AcDbEntity
  8
0
  6
ByBlock
 62
     0
 48
50.0
100
AcDbBlockReference
  2
_DOTSMALL
 10
2662.599999999997
 20
5196.414712708183
 30
0.0
 41
50.0
 42
50.0
 43
50.0
 50
180.0
  0
INSERT
  5
16EA3
330
1645F
100
AcDbEntity
  8
0
  6
ByBlock
 62
     0
 48
50.0
100
AcDbBlockReference
  2
_DOTSMALL
 10
3644.6
 20
5196.414712708183
 30
0.0
 41
50.0
 42
50.0
 43
50.0
  0
MTEXT
  5
16EA4
330
1645F
100
AcDbEntity
  8
0
  6
ByBlock
 62
     7
 48
50.0
100
AcDbMText
 10
3153.599999999999
 20
5246.435118990585
 30
0.0
 40
60.0
 41
0.0
 71
     5
 72
     1
  1
\A1;内部寸法 982
  7
STYLE1
 73
     1
 44
1.0
1001
ACAD
1000
MTEXTBEGIN
1070
    73
1070
     1
1070
    44
1040
1.0
1070
    74
1070
     0
1000
MTEXTEND
  0
POINT
  5
16EA5
330
1645F
100
AcDbEntity
  8
DEFPOINTS
  6
ByBlock
 62
     0
 48
50.0
100
AcDbPoint
 10
2662.599999999997
 20
4804.58258084327
 30
0.0
  0
POINT
  5
16EA6
330
1645F
100
AcDbEntity
  8
DEFPOINTS
  6
ByBlock
 62
     0
 48
50.0
100
AcDbPoint
 10
3644.6
 20
4804.582580843177
 30
0.0
  0
POINT
  5
16EA7
330
1645F
100
AcDbEntity
  8
DEFPOINTS
  6
ByBlock
 62
     0
 48
50.0
100
AcDbPoint
 10
3644.6
 20
5196.414712708183
 30
0.0
  0
ENDBLK
  5
16EA8
330
1645F
100
AcDbEntity
  8
0
 48
50.0
100
AcDbBlockEnd
  0
BLOCK
  5
16499
330
1646B
100
AcDbEntity
  8
0
 48
50.0
100
AcDbBlockBegin
  2
*D24
 70
     1
 10
0.0
 20
0.0
 30
0.0
  3
*D24
  1

  0
LINE
  5
1649A
330
1646B
100
AcDbEntity
  8
0
  6
ByBlock
 62
     0
 48
50.0
100
AcDbLine
 10
19615.53273708219
 20
4775.582580843269
 30
0.0
 11
19991.55734108097
 21
4775.582580843269
 31
0.0
  0
LINE
  5
1649B
330
1646B
100
AcDbEntity
  8
0
  6
ByBlock
 62
     0
 48
50.0
100
AcDbLine
 10
19615.53273708219
 20
4171.582580843269
 30
0.0
 11
19991.55734108097
 21
4171.582580843269
 31
0.0
  0
LINE
  5
1649C
330
1646B
100
AcDbEntity
  8
0
  6
ByBlock
 62
     0
 48
50.0
100
AcDbLine
 10
19961.55734108097
 20
4775.582580843269
 30
0.0
 11
19961.55734108097
 21
4171.582580843269
 31
0.0
  0
INSERT
  5
1649D
330
1646B
100
AcDbEntity
  8
0
  6
ByBlock
 62
     0
 48
50.0
100
AcDbBlockReference
  2
_DOTSMALL
 10
19961.55734108097
 20
4775.582580843269
 30
0.0
 41
50.0
 42
50.0
 43
50.0
 50
90.0
  0
INSERT
  5
1649E
330
1646B
100
AcDbEntity
  8
0
  6
ByBlock
 62
     0
 48
50.0
100
AcDbBlockReference
  2
_DOTSMALL
 10
19961.55734108097
 20
4171.582580843269
 30
0.0
 41
50.0
 42
50.0
 43
50.0
 50
270.0
  0
MTEXT
  5
1649F
330
1646B
100
AcDbEntity
  8
0
  6
ByBlock
 62
     7
 48
50.0
100
AcDbMText
 10
19861.55734108097
 20
4473.582580843269
 30
0.0
 40
60.0
 41
0.0
 71
     5
 72
     1
  1
\A1;内部寸法\P604
  7
STYLE1
 11
0.0000000000000001
 21
1.0
 31
0.0
 73
     1
 44
1.0
1001
ACAD
1000
MTEXTBEGIN
1070
    73
1070
     1
1070
    44
1040
1.0
1070
    74
1070
     0
1000
MTEXTEND
  0
POINT
  5
164A0
330
1646B
100
AcDbEntity
  8
DEFPOINTS
  6
ByBlock
 62
     0
 48
50.0
100
AcDbPoint
 10
19605.53273708219
 20
4775.582580843269
 30
0.0
  0
POINT
  5
164A1
330
1646B
100
AcDbEntity
  8
DEFPOINTS
  6
ByBlock
 62
     0
 48
50.0
100
AcDbPoint
 10
19605.53273708218
 20
4171.582580843269
 30
0.0
  0
POINT
  5
164A2
330
1646B
100
AcDbEntity
  8
DEFPOINTS
  6
ByBlock
 62
     0
 48
50.0
100
AcDbPoint
 10
19961.55734108097
 20
4171.582580843269
 30
0.0
  0
ENDBLK
  5
164A3
330
1646B
100
AcDbEntity
  8
0
 48
50.0
100
AcDbBlockEnd
  0
BLOCK
  5
16EB4
330
16477
100
AcDbEntity
  8
0
 48
50.0
100
AcDbBlockBegin
  2
*D25
 70
     1
 10
0.0
 20
0.0
 30
0.0
  3
*D25
  1

  0
LINE
  5
16EB5
330
16477
100
AcDbEntity
  8
0
  6
ByBlock
 62
     0
 48
50.0
100
AcDbLine
 10
3668.599999999997
 20
4099.582580843269
 30
0.0
 11
3668.599999999997
 21
3795.232679255116
 31
0.0
  0
LINE
  5
16EB6
330
16477
100
AcDbEntity
  8
0
  6
ByBlock
 62
     0
 48
50.0
100
AcDbLine
 10
3183.599999999997
 20
4099.582580843269
 30
0.0
 11
3183.599999999997
 21
3795.232679255116
 31
0.0
  0
LINE
  5
16EB7
330
16477
100
AcDbEntity
  8
0
  6
ByBlock
 62
     0
 48
50.0
100
AcDbLine
 10
3668.599999999997
 20
3825.232679255116
 30
0.0
 11
3718.599999999997
 21
3825.232679255116
 31
0.0
  0
LINE
  5
16EB8
330
16477
100
AcDbEntity
  8
0
  6
ByBlock
 62
     0
 48
50.0
100
AcDbLine
 10
3183.599999999997
 20
3825.232679255116
 30
0.0
 11
3133.599999999997
 21
3825.232679255116
 31
0.0
  0
LINE
  5
16EB9
330
16477
100
AcDbEntity
  8
0
  6
ByBlock
 62
     0
 48
50.0
100
AcDbLine
 10
3668.599999999997
 20
3825.232679255116
 30
0.0
 11
3183.599999999997
 21
3825.232679255116
 31
0.0
  0
INSERT
  5
16EBA
330
16477
100
AcDbEntity
  8
0
  6
ByBlock
 62
     0
 48
50.0
100
AcDbBlockReference
  2
_DOTSMALL
 10
3668.599999999997
 20
3825.232679255116
 30
0.0
 41
50.0
 42
50.0
 43
50.0
 50
180.0
  0
INSERT
  5
16EBB
330
16477
100
AcDbEntity
  8
0
  6
ByBlock
 62
     0
 48
50.0
100
AcDbBlockReference
  2
_DOTSMALL
 10
3183.599999999997
 20
3825.232679255116
 30
0.0
 41
50.0
 42
50.0
 43
50.0
  0
MTEXT
  5
16EBC
330
16477
100
AcDbEntity
  8
0
  6
ByBlock
 62
     7
 48
50.0
100
AcDbMText
 10
3426.099999999997
 20
3925.232679255116
 30
0.0
 40
60.0
 41
0.0
 71
     5
 72
     1
  1
\A1;有効開口部間口\P485
  7
STYLE1
 73
     1
 44
1.0
1001
ACAD
1000
MTEXTBEGIN
1070
    73
1070
     1
1070
    44
1040
1.0
1070
    74
1070
     0
1000
MTEXTEND
  0
POINT
  5
16EBD
330
16477
100
AcDbEntity
  8
DEFPOINTS
  6
ByBlock
 62
     0
 48
50.0
100
AcDbPoint
 10
3668.599999999997
 20
4109.582580843269
 30
0.0
  0
POINT
  5
16EBE
330
16477
100
AcDbEntity
  8
DEFPOINTS
  6
ByBlock
 62
     0
 48
50.0
100
AcDbPoint
 10
3183.599999999997
 20
4109.582580843269
 30
0.0
  0
POINT
  5
16EBF
330
16477
100
AcDbEntity
  8
DEFPOINTS
  6
ByBlock
 62
     0
 48
50.0
100
AcDbPoint
 10
3183.599999999997
 20
3825.232679255116
 30
0.0
  0
ENDBLK
  5
16EC0
330
16477
100
AcDbEntity
  8
0
 48
50.0
100
AcDbBlockEnd
  0
BLOCK
  5
171F4
330
171F3
100
AcDbEntity
  8
0
 48
50.0
100
AcDbBlockBegin
  2
*D26
 70
     1
 10
0.0
 20
0.0
 30
0.0
  3
*D26
  1

  0
LINE
  5
171F5
330
171F3
100
AcDbEntity
  8
0
  6
ByBlock
 62
     0
 48
50.0
100
AcDbLine
 10
2509.127911577396
 20
6745.320917296687
 30
0.0
 11
2445.258041450851
 21
6983.686517681779
 31
0.0
  0
LINE
  5
171F6
330
171F3
100
AcDbEntity
  8
0
  6
ByBlock
 62
     0
 48
50.0
100
AcDbLine
 10
3088.127911577396
 20
6745.320917296687
 30
0.0
 11
3024.258041450851
 21
6983.686517681779
 31
0.0
  0
LINE
  5
171F7
330
171F3
100
AcDbEntity
  8
0
  6
ByBlock
 62
     0
 48
50.0
100
AcDbLine
 10
2453.296517223785
 20
6953.68651768178
 30
0.0
 11
3032.296517223785
 21
6953.68651768178
 31
0.0
  0
INSERT
  5
171F8
330
171F3
100
AcDbEntity
  8
0
  6
ByBlock
 62
     0
 48
50.0
100
AcDbBlockReference
  2
_DOTSMALL
 10
2453.296517223785
 20
6953.68651768178
 30
0.0
 41
50.0
 42
50.0
 43
50.0
 50
180.0
  0
INSERT
  5
171F9
330
171F3
100
AcDbEntity
  8
0
  6
ByBlock
 62
     0
 48
50.0
100
AcDbBlockReference
  2
_DOTSMALL
 10
3032.296517223785
 20
6953.68651768178
 30
0.0
 41
50.0
 42
50.0
 43
50.0
  0
MTEXT
  5
171FA
330
171F3
100
AcDbEntity
  8
0
  6
ByBlock
 62
     7
 48
50.0
100
AcDbMText
 10
2742.796517223785
 20
7003.68651768178
 30
0.0
 40
60.0
 41
0.0
 71
     5
 72
     1
  1
\A1;579
  7
STYLE1
 73
     1
 44
1.0
1001
ACAD
1000
MTEXTBEGIN
1070
    73
1070
     1
1070
    44
1040
1.0
1070
    74
1070
     0
1000
MTEXTEND
  0
POINT
  5
171FB
330
171F3
100
AcDbEntity
  8
DEFPOINTS
  6
ByBlock
 62
     0
 48
50.0
100
AcDbPoint
 10
2511.807403501707
 20
6735.320917296687
 30
0.0
  0
POINT
  5
171FC
330
171F3
100
AcDbEntity
  8
DEFPOINTS
  6
ByBlock
 62
     0
 48
50.0
100
AcDbPoint
 10
3090.807403501707
 20
6735.320917296687
 30
0.0
  0
POINT
  5
171FD
330
171F3
100
AcDbEntity
  8
DEFPOINTS
  6
ByBlock
 62
     0
 48
50.0
100
AcDbPoint
 10
3032.296517223785
 20
6953.68651768178
 30
0.0
  0
ENDBLK
  5
171FE
330
171F3
100
AcDbEntity
  8
0
 48
50.0
100
AcDbBlockEnd
  0
BLOCK
  5
1720B
330
171FF
100
AcDbEntity
  8
0
 48
50.0
100
AcDbBlockBegin
  2
*D27
 70
     1
 10
0.0
 20
0.0
 30
0.0
  3
*D27
  1

  0
LINE
  5
1720C
330
171FF
100
AcDbEntity
  8
0
  6
ByBlock
 62
     0
 48
50.0
100
AcDbLine
 10
3644.6
 20
4814.582580843176
 30
0.0
 11
3644.6
 21
5021.948181228363
 31
0.0
  0
LINE
  5
1720D
330
171FF
100
AcDbEntity
  8
0
  6
ByBlock
 62
     0
 48
50.0
100
AcDbLine
 10
3246.599999999997
 20
4785.582580843271
 30
0.0
 11
3246.599999999997
 21
5021.948181228363
 31
0.0
  0
LINE
  5
1720E
330
171FF
100
AcDbEntity
  8
0
  6
ByBlock
 62
     0
 48
50.0
100
AcDbLine
 10
3644.6
 20
4991.948181228362
 30
0.0
 11
3246.599999999997
 21
4991.948181228362
 31
0.0
  0
INSERT
  5
1720F
330
171FF
100
AcDbEntity
  8
0
  6
ByBlock
 62
     0
 48
50.0
100
AcDbBlockReference
  2
_DOTSMALL
 10
3644.6
 20
4991.948181228362
 30
0.0
 41
50.0
 42
50.0
 43
50.0
  0
INSERT
  5
17210
330
171FF
100
AcDbEntity
  8
0
  6
ByBlock
 62
     0
 48
50.0
100
AcDbBlockReference
  2
_DOTSMALL
 10
3246.599999999997
 20
4991.948181228362
 30
0.0
 41
50.0
 42
50.0
 43
50.0
 50
180.0
  0
MTEXT
  5
17211
330
171FF
100
AcDbEntity
  8
0
  6
ByBlock
 62
     7
 48
50.0
100
AcDbMText
 10
3445.599999999999
 20
5041.948181228363
 30
0.0
 40
60.0
 41
0.0
 71
     5
 72
     1
  1
\A1;398
  7
STYLE1
 73
     1
 44
1.0
1001
ACAD
1000
MTEXTBEGIN
1070
    73
1070
     1
1070
    44
1040
1.0
1070
    74
1070
     0
1000
MTEXTEND
  0
POINT
  5
17212
330
171FF
100
AcDbEntity
  8
DEFPOINTS
  6
ByBlock
 62
     0
 48
50.0
100
AcDbPoint
 10
3644.6
 20
4804.582580843177
 30
0.0
  0
POINT
  5
17213
330
171FF
100
AcDbEntity
  8
DEFPOINTS
  6
ByBlock
 62
     0
 48
50.0
100
AcDbPoint
 10
3246.599999999997
 20
4775.582580843271
 30
0.0
  0
POINT
  5
17214
330
171FF
100
AcDbEntity
  8
DEFPOINTS
  6
ByBlock
 62
     0
 48
50.0
100
AcDbPoint
 10
3246.599999999997
 20
4991.948181228362
 30
0.0
  0
ENDBLK
  5
17215
330
171FF
100
AcDbEntity
  8
0
 48
50.0
100
AcDbBlockEnd
  0
ENDSEC
  0
SECTION
  2
ENTITIES
  0
LINE
  5
10B56
330
747D
100
AcDbEntity
  8
補助
  6
PHANTOM
 62
   230
 48
50.0
100
AcDbLine
 10
70.0
 20
0.0
 30
0.0
 11
69.99999999999975
 21
5704.8
 31
0.0
  0
LINE
  5
10B57
330
747D
100
AcDbEntity
  8
補助
  6
PHANTOM
 62
   230
 48
50.0
100
AcDbLine
 10
69.99999999999975
 20
5704.8
 30
0.0
 11
8153.6
 21
5704.8
 31
0.0
  0
LINE
  5
10B59
330
747D
100
AcDbEntity
  8
仕様書枠
  6
Continuous
 48
50.0
100
AcDbLine
 10
6553.6
 20
600.0
 30
0.0
 11
6553.6
 21
-0.0000000000000365
 31
0.0
  0
LINE
  5
10B5C
330
747D
100
AcDbEntity
  8
仕様書枠
 48
50.0
100
AcDbLine
 10
8153.6
 20
600.0
 30
0.0
 11
8153.6
 21
-0.0000000000000455
 31
0.0
  0
LINE
  5
10B5D
330
747D
100
AcDbEntity
  8
仕様書枠
 48
50.0
100
AcDbLine
 10
70.0
 20
0.0
 30
0.0
 11
8153.6
 21
-0.0000000000000455
 31
0.0
  0
LINE
  5
10B5E
330
747D
100
AcDbEntity
  8
補助
  6
PHANTOM
 62
   230
 48
50.0
100
AcDbLine
 10
8153.6
 20
5704.8
 30
0.0
 11
8153.6
 21
600.0
 31
0.0
  0
LINE
  5
10B6C
330
747D
100
AcDbEntity
  8
仕様書枠
 48
50.0
100
AcDbLine
 10
6553.6
 20
600.0
 30
0.0
 11
8153.6
 21
600.0
 31
0.0
  0
LINE
  5
10B6D
330
747D
100
AcDbEntity
  8
補助
  6
PHANTOM
 62
   230
 48
50.0
100
AcDbLine
 10
6553.6
 20
5704.8
 30
0.0
 11
6553.6
 21
2400.0
 31
0.0
  0
LINE
  5
10B6F
330
747D
100
AcDbEntity
  8
補助
  6
PHANTOM
 62
   230
 48
50.0
100
AcDbLine
 10
6553.6
 20
2400.0
 30
0.0
 11
8153.6
 21
2400.0
 31
0.0
  0
LINE
  5
10B72
330
747D
100
AcDbEntity
  8
文字
 62
     7
 48
50.0
100
AcDbLine
 10
6593.600000000001
 20
200.0
 30
0.0
 11
8113.600000000001
 21
200.0
 31
0.0
  0
TEXT
  5
10B73
330
747D
100
AcDbEntity
  8
文字
 62
     7
 48
50.0
100
AcDbText
 10
6581.48952828845
 20
447.5453037149702
 30
0.0
 40
100.0
  1
外 形 図
  7
STYLE2
100
AcDbText
  0
TEXT
  5
10B74
330
747D
100
AcDbEntity
  8
文字
 62
     7
 48
50.0
100
AcDbText
 10
6600.718349992208
 20
238.6370330515628
 30
0.0
 40
80.0
  1
機種名
  7
STYLE2
100
AcDbText
  0
TEXT
  5
10B79
330
747D
100
AcDbEntity
  8
文字
 62
     7
 48
50.0
100
AcDbText
 10
7262.065918610999
 20
515.7788531456143
 30
0.0
 40
50.0
  1
NO.16     <縮尺> S=1/20
  7
STYLE2
100
AcDbText
  0
LINE
  5
10B7B
330
747D
100
AcDbEntity
  8
仕様書枠
 48
50.0
100
AcDbLine
 10
6553.6
 20
400.0
 30
0.0
 11
7125.6
 21
400.0
 31
0.0
  0
LINE
  5
10B88
330
747D
100
AcDbEntity
  8
仕様書枠
  6
Continuous
 48
50.0
100
AcDbLine
 10
7125.6
 20
600.0
 30
0.0
 11
7125.6
 21
400.0
 31
0.0
  0
LINE
  5
14A22
330
747D
100
AcDbEntity
  8
部品1
100
AcDbLine
 10
3344.467666557111
 20
509.9461607727662
 30
0.0
 11
2962.732333442891
 21
509.9461607727662
 31
0.0
  0
LINE
  5
14A23
330
747D
100
AcDbEntity
  8
部品1
100
AcDbLine
 10
2962.732333442891
 20
390.0
 30
0.0
 11
3344.467666557111
 21
390.0
 31
0.0
  0
TEXT
  5
14A24
330
747D
100
AcDbEntity
  8
部品1
100
AcDbText
 10
3007.995035311869
 20
413.4993961635045
 30
0.0
 40
67.5
  1
正面図
  7
STYLE2
100
AcDbText
  0
LINE
  5
14A25
330
747D
100
AcDbEntity
  8
部品1
100
AcDbLine
 10
2962.732333442891
 20
509.9461607727662
 30
0.0
 11
2962.732333442891
 21
390.0
 31
0.0
  0
LINE
  5
14A26
330
747D
100
AcDbEntity
  8
部品1
100
AcDbLine
 10
3344.467666557111
 20
390.0
 30
0.0
 11
3344.467666557111
 21
509.9461607727662
 31
0.0
  0
LINE
  5
15F7C
330
747D
100
AcDbEntity
  8
部品1
100
AcDbLine
 10
3341.96766655711
 20
3427.284681523221
 30
0.0
 11
3341.96766655711
 21
3547.230842295987
 31
0.0
  0
LINE
  5
15F7D
330
747D
100
AcDbEntity
  8
部品1
100
AcDbLine
 10
2960.232333442889
 20
3547.230842295987
 30
0.0
 11
2960.232333442889
 21
3427.284681523221
 31
0.0
  0
LINE
  5
15F7E
330
747D
100
AcDbEntity
  8
部品1
100
AcDbLine
 10
2960.232333442889
 20
3427.284681523221
 30
0.0
 11
3341.96766655711
 21
3427.284681523221
 31
0.0
  0
TEXT
  5
15F7F
330
747D
100
AcDbEntity
  8
部品1
100
AcDbText
 10
3005.192138357408
 20
3450.784077686726
 30
0.0
 40
67.5
  1
平面図
  7
STYLE2
100
AcDbText
  0
LINE
  5
15F80
330
747D
100
AcDbEntity
  8
部品1
100
AcDbLine
 10
3341.96766655711
 20
3547.230842295987
 30
0.0
 11
2960.232333442889
 21
3547.230842295987
 31
0.0
  0
DIMENSION
  5
16017
330
747D
100
AcDbEntity
  8
寸法
 48
50.0
100
AcDbDimension
  2
*D16
 10
3708.600000000002
 20
2675.024113945668
 30
0.0
 11
3841.842640687121
 21
2675.024113945668
 31
0.0
 12
-500.0000000000018
 22
-300.0
 32
0.0
 70
   160
 71
     5
 42
-1.0
  3
INABA_S20G
100
AcDbAlignedDimension
 13
3703.599999999999
 23
2517.391201416256
 33
0.0
 14
3708.600000000002
 24
2513.560713214082
 34
0.0
100
AcDbRotatedDimension
1001
ACAD
1000
DSTYLE
1002
{
1002
}
  0
DIMENSION
  5
16018
330
747D
100
AcDbEntity
  8
寸法
 48
50.0
100
AcDbDimension
  2
*D14
 10
2603.599999999999
 20
2675.024113945668
 30
0.0
 11
2450.556033268306
 21
2675.024113945668
 31
0.0
 12
499.9999999999982
 22
-300.0
 32
0.0
 70
   160
 71
     5
 42
-1.0
  3
INABA_S20G
100
AcDbAlignedDimension
 13
2598.599999999995
 23
2513.560713214082
 33
0.0
 14
2603.599999999999
 24
2517.391201416256
 34
0.0
100
AcDbRotatedDimension
  0
DIMENSION
  5
16019
330
747D
100
AcDbEntity
  8
寸法
 48
50.0
100
AcDbDimension
  2
*D13
 10
3703.599999999999
 20
2675.024113945668
 30
0.0
 11
3153.599999999999
 21
2725.024113945668
 31
0.0
 70
    32
 71
     5
 42
-1.0
  3
INABA_S20G
100
AcDbAlignedDimension
 13
2603.599999999999
 23
2517.391201416256
 33
0.0
 14
3703.599999999999
 24
2517.391201416256
 34
0.0
100
AcDbRotatedDimension
1001
ACAD
1000
DSTYLE
1002
{
1002
}
  0
DIMENSION
  5
1601A
330
747D
100
AcDbEntity
  8
寸法
 48
50.0
100
AcDbDimension
  2
*D12
 10
3708.600000000002
 20
2803.220335370565
 30
0.0
 11
3153.599999999999
 21
2853.220335370565
 31
0.0
 70
    32
 71
     5
 42
-1.0
  3
INABA_S20G
100
AcDbAlignedDimension
 13
2598.599999999995
 23
2513.560713214082
 33
0.0
 14
3708.600000000002
 24
2513.560713214082
 34
0.0
100
AcDbRotatedDimension
  0
LINE
  5
1601B
330
747D
100
AcDbEntity
  8
Ｇ．Ｌ
 48
50.0
100
AcDbLine
 10
1942.098280204278
 20
800.0
 30
0.0
 11
6945.570846919769
 21
800.0
 31
0.0
  0
LINE
  5
1601E
330
747D
100
AcDbEntity
  8
部品1
 48
50.0
100
AcDbLine
 10
3131.099999999997
 20
971.0
 30
0.0
 11
3131.099999999999
 21
2440.0
 31
0.0
  0
LINE
  5
1601F
330
747D
100
AcDbEntity
  8
部品1
 48
50.0
100
AcDbLine
 10
3703.599999999999
 20
958.0
 30
0.0
 11
3703.599999999999
 21
2437.608798583755
 31
0.0
  0
LINE
  5
16020
330
747D
100
AcDbEntity
  8
部品1
 48
50.0
100
AcDbLine
 10
3691.1
 20
958.0
 30
0.0
 11
3691.1
 21
2517.784080852784
 31
0.0
  0
LINE
  5
16021
330
747D
100
AcDbEntity
  8
部品1
 48
50.0
100
AcDbLine
 10
3681.100000000001
 20
958.0
 30
0.0
 11
3681.100000000001
 21
2517.784080852784
 31
0.0
  0
LINE
  5
16022
330
747D
100
AcDbEntity
  8
部品1
 48
50.0
100
AcDbLine
 10
3668.600000000001
 20
958.0
 30
0.0
 11
3668.600000000002
 21
2514.999999999998
 31
0.0
  0
LINE
  5
16023
330
747D
100
AcDbEntity
  8
部品1
 48
50.0
100
AcDbLine
 10
2616.099999999999
 20
958.0
 30
0.0
 11
2616.099999999999
 21
2517.784080852784
 31
0.0
  0
LINE
  5
16024
330
747D
100
AcDbEntity
  8
部品1
 48
50.0
100
AcDbLine
 10
2626.099999999999
 20
958.0
 30
0.0
 11
2626.099999999997
 21
2517.784080852784
 31
0.0
  0
LINE
  5
16025
330
747D
100
AcDbEntity
  8
部品1
 48
50.0
100
AcDbLine
 10
2638.599999999998
 20
958.0
 30
0.0
 11
2638.599999999997
 21
2494.0
 31
0.0
  0
LINE
  5
16026
330
747D
100
AcDbEntity
  8
部品1
 48
50.0
100
AcDbLine
 10
2603.599999999999
 20
958.0
 30
0.0
 11
2603.599999999999
 21
2437.608798583755
 31
0.0
  0
LINE
  5
16028
330
747D
100
AcDbEntity
  8
部品1
 48
50.0
100
AcDbLine
 10
2616.099999999999
 20
900.0
 30
0.0
 11
3691.099999999999
 21
900.0
 31
0.0
  0
LINE
  5
16029
330
747D
100
AcDbEntity
  8
部品1
 48
50.0
100
AcDbLine
 10
2603.599999999999
 20
958.0
 30
0.0
 11
3703.599999999999
 21
958.0
 31
0.0
  0
LINE
  5
1602A
330
747D
100
AcDbEntity
  8
部品1
 48
50.0
100
AcDbLine
 10
2611.599999999999
 20
906.0
 30
0.0
 11
3695.599999999999
 21
906.0
 31
0.0
  0
LINE
  5
1602B
330
747D
100
AcDbEntity
  8
部品1
 48
50.0
100
AcDbLine
 10
2638.599999999998
 20
968.0
 30
0.0
 11
3668.600000000001
 21
968.0
 31
0.0
  0
LINE
  5
1602C
330
747D
100
AcDbEntity
  8
部品1
 48
50.0
100
AcDbLine
 10
2650.599999999997
 20
978.5
 30
0.0
 11
3131.099999999997
 21
978.5
 31
0.0
  0
TEXT
  5
1602D
330
747D
100
AcDbEntity
  8
文字
 48
50.0
100
AcDbText
 10
1991.367660083241
 20
808.888361120451
 30
0.0
 40
70.0
  1
▽G.L
  7
STYLE2
100
AcDbText
  0
LINE
  5
1602E
330
747D
100
AcDbEntity
  8
部品1
 48
50.0
100
AcDbLine
 10
2616.099999999999
 20
800.0
 30
0.0
 11
2616.099999999999
 21
906.0
 31
0.0
  0
LINE
  5
1602F
330
747D
100
AcDbEntity
  8
部品1
 48
50.0
100
AcDbLine
 10
2611.599999999999
 20
906.0
 30
0.0
 11
2611.599999999999
 21
958.0
 31
0.0
  0
LINE
  5
16030
330
747D
100
AcDbEntity
  8
部品1
 48
50.0
100
AcDbLine
 10
2646.599999999999
 20
968.0
 30
0.0
 11
2650.599999999997
 21
978.5
 31
0.0
  0
LINE
  5
16036
330
747D
100
AcDbEntity
  8
部品1
 48
50.0
100
AcDbLine
 10
3131.099999999997
 20
971.0
 30
0.0
 11
3668.600000000001
 21
970.9999999999997
 31
0.0
  0
LINE
  5
16037
330
747D
100
AcDbEntity
  8
部品1
 48
50.0
100
AcDbLine
 10
2816.099999999999
 20
800.0
 30
0.0
 11
2816.099999999999
 21
900.0
 31
0.0
  0
LINE
  5
1603A
330
747D
100
AcDbEntity
  8
部品1
 48
50.0
100
AcDbLine
 10
3491.099999999999
 20
800.0
 30
0.0
 11
3491.099999999999
 21
900.0
 31
0.0
  0
LINE
  5
1603B
330
747D
100
AcDbEntity
  8
部品1
 48
50.0
100
AcDbLine
 10
3691.099999999999
 20
800.0
 30
0.0
 11
3691.099999999999
 21
906.0
 31
0.0
  0
LINE
  5
1603D
330
747D
100
AcDbEntity
  8
部品1
 48
50.0
100
AcDbLine
 10
3695.600000000001
 20
906.0
 30
0.0
 11
3695.599999999999
 21
958.0
 31
0.0
  0
LINE
  5
1603E
330
747D
100
AcDbEntity
  8
部品1
 48
50.0
100
AcDbLine
 10
2638.599999999995
 20
2515.0
 30
0.0
 11
3668.600000000002
 21
2515.0
 31
0.0
  0
LINE
  5
1603F
330
747D
100
AcDbEntity
  8
部品1
 48
50.0
100
AcDbLine
 10
2638.599999999997
 20
2440.0
 30
0.0
 11
3668.599999999999
 21
2440.0
 31
0.0
  0
LINE
  5
16040
330
747D
100
AcDbEntity
  8
細線
 48
50.0
100
AcDbLine
 10
2638.599999999997
 20
2495.0
 30
0.0
 11
3668.600000000001
 21
2495.0
 31
0.0
  0
LINE
  5
16041
330
747D
100
AcDbEntity
  8
部品1
 48
50.0
100
AcDbLine
 10
2638.599999999997
 20
2470.0
 30
0.0
 11
3668.600000000001
 21
2470.0
 31
0.0
  0
LINE
  5
16042
330
747D
100
AcDbEntity
  8
細線
 48
50.0
100
AcDbLine
 10
2638.599999999997
 20
2464.0
 30
0.0
 11
3668.600000000001
 21
2464.0
 31
0.0
  0
LINE
  5
16043
330
747D
100
AcDbEntity
  8
細線
 48
50.0
100
AcDbLine
 10
2638.599999999997
 20
2458.0
 30
0.0
 11
3668.600000000001
 21
2458.0
 31
0.0
  0
LINE
  5
16044
330
747D
100
AcDbEntity
  8
細線
 48
50.0
100
AcDbLine
 10
2638.599999999997
 20
2452.0
 30
0.0
 11
3668.600000000001
 21
2452.0
 31
0.0
  0
LINE
  5
16045
330
747D
100
AcDbEntity
  8
細線
 48
50.0
100
AcDbLine
 10
2638.599999999997
 20
2446.0
 30
0.0
 11
3668.600000000001
 21
2446.0
 31
0.0
  0
ARC
  5
1604A
330
747D
100
AcDbEntity
  8
部品1
 48
20.0
100
AcDbCircle
 10
2712.448433418347
 20
2035.568139086208
 30
0.0
 40
10.0
100
AcDbArc
 50
6.64546636425039
 51
87.3033948452954
  0
ARC
  5
1604B
330
747D
100
AcDbEntity
  8
部品1
 48
20.0
100
AcDbCircle
 10
2675.751566581648
 20
2035.568139086208
 30
0.0
 40
10.0
100
AcDbArc
 50
92.6966051547043
 51
173.3545336357529
  0
ARC
  5
1604C
330
747D
100
AcDbEntity
  8
細線
 48
50.0
100
AcDbCircle
 10
3659.099999999997
 20
1920.999999999992
 30
0.0
 40
995.0
100
AcDbArc
 50
173.3545336357521
 51
186.6454663642471
  0
ARC
  5
1604D
330
747D
100
AcDbEntity
  8
細線
 48
50.0
100
AcDbCircle
 10
1729.099999999997
 20
1920.999999999992
 30
0.0
 40
995.0
100
AcDbArc
 50
353.354533635753
 51
6.645466364247897
  0
ARC
  5
1604E
330
747D
100
AcDbEntity
  8
部品1
 48
20.0
100
AcDbCircle
 10
1729.099999999997
 20
1920.999999999992
 30
0.0
 40
1000.0
100
AcDbArc
 50
353.354533635753
 51
6.645466364247897
  0
ARC
  5
1604F
330
747D
100
AcDbEntity
  8
部品1
 48
20.0
100
AcDbCircle
 10
3659.099999999997
 20
1920.999999999992
 30
0.0
 40
1000.0
100
AcDbArc
 50
173.3545336357521
 51
186.6454663642471
  0
ARC
  5
16050
330
747D
100
AcDbEntity
  8
細線
 48
50.0
100
AcDbCircle
 10
2675.751566581646
 20
1806.43186091379
 30
0.0
 40
5.0
100
AcDbArc
 50
186.6454663642461
 51
267.3033948452958
  0
ARC
  5
16051
330
747D
100
AcDbEntity
  8
細線
 48
50.0
100
AcDbCircle
 10
2712.448433418347
 20
1806.43186091379
 30
0.0
 40
5.0
100
AcDbArc
 50
272.6966051547074
 51
353.3545336357531
  0
ARC
  5
16052
330
747D
100
AcDbEntity
  8
細線
 48
50.0
100
AcDbCircle
 10
2694.099999999995
 20
2196.0
 30
0.0
 40
395.0
100
AcDbArc
 50
267.3033948452958
 51
272.6966051547048
  0
ARC
  5
16053
330
747D
100
AcDbEntity
  8
部品1
 48
20.0
100
AcDbCircle
 10
2675.751566581646
 20
1806.43186091379
 30
0.0
 40
10.0
100
AcDbArc
 50
186.6454663642466
 51
267.3033948452959
  0
ARC
  5
16054
330
747D
100
AcDbEntity
  8
部品1
 48
20.0
100
AcDbCircle
 10
2712.448433418347
 20
1806.43186091379
 30
0.0
 40
10.0
100
AcDbArc
 50
272.696605154706
 51
353.3545336357532
  0
ARC
  5
16055
330
747D
100
AcDbEntity
  8
部品1
 48
20.0
100
AcDbCircle
 10
2694.099999999995
 20
2196.0
 30
0.0
 40
400.0
100
AcDbArc
 50
267.3033948452958
 51
272.6966051547048
  0
LINE
  5
16056
330
747D
100
AcDbEntity
  8
部品1
 48
20.0
100
AcDbLine
 10
2699.099999999997
 20
2018.429621181404
 30
0.0
 11
2699.099999999997
 21
1823.570378818596
 31
0.0
  0
LINE
  5
16057
330
747D
100
AcDbEntity
  8
部品1
 48
20.0
100
AcDbLine
 10
2689.099999999997
 20
2018.429621181402
 30
0.0
 11
2689.099999999997
 21
1823.570378818596
 31
0.0
  0
ELLIPSE
  5
16058
330
747D
100
AcDbEntity
  8
部品1
100
AcDbEllipse
 10
2694.099999999997
 20
1823.570378818596
 30
0.0
 11
0.0
 21
-9.770631002828395
 31
0.0
210
0.0
220
0.0
230
-1.0
 40
0.5117376757501746
 41
4.712388980384689
 42
7.853981633974482
  0
ARC
  5
16059
330
747D
100
AcDbEntity
  8
細線
 48
50.0
100
AcDbCircle
 10
2694.099999999995
 20
1645.999999999999
 30
0.0
 40
395.0
100
AcDbArc
 50
87.30339484529553
 51
92.69660515470402
  0
ARC
  5
1605A
330
747D
100
AcDbEntity
  8
細線
 48
50.0
100
AcDbCircle
 10
2675.751566581648
 20
2035.568139086208
 30
0.0
 40
5.0
100
AcDbArc
 50
92.6966051547046
 51
173.3545336357539
  0
ARC
  5
1605B
330
747D
100
AcDbEntity
  8
細線
 48
50.0
100
AcDbCircle
 10
2712.448433418347
 20
2035.568139086208
 30
0.0
 40
5.0
100
AcDbArc
 50
6.645466364253289
 51
87.30339484529535
  0
ELLIPSE
  5
1605C
330
747D
100
AcDbEntity
  8
部品1
100
AcDbEllipse
 10
2694.099999999997
 20
2018.429621181401
 30
0.0
 11
0.0
 21
9.770631002828395
 31
0.0
210
0.0
220
0.0
230
1.0
 40
0.5117376757501746
 41
4.712388980384689
 42
7.853981633974482
  0
ARC
  5
1613F
330
747D
100
AcDbEntity
  8
部品1
 48
20.0
100
AcDbCircle
 10
2694.099999999995
 20
1645.999999999999
 30
0.0
 40
400.0
100
AcDbArc
 50
87.30339484529553
 51
92.69660515470402
  0
ARC
  5
16140
330
747D
100
AcDbEntity
  8
部品1
100
AcDbCircle
 10
2621.099999999995
 20
2495.0
 30
0.0
 40
60.0
100
AcDbArc
 50
249.9948099118404
 51
263.0680938024154
  0
ARC
  5
16141
330
747D
100
AcDbEntity
  8
部品1
100
AcDbCircle
 10
2636.599999999995
 20
2439.109482020649
 30
0.0
 40
2.0
100
AcDbArc
 50
285.5001785669992
 51
0.0000000000002106
  0
ARC
  5
16142
330
747D
100
AcDbEntity
  8
部品1
100
AcDbCircle
 10
2621.099999999995
 20
2495.0
 30
0.0
 40
58.0
100
AcDbArc
 50
265.0439082357278
 51
274.9560917642727
  0
ARC
  5
16143
330
747D
100
AcDbEntity
  8
部品1
100
AcDbCircle
 10
2628.099999999995
 20
2437.423963318061
 30
0.0
 40
2.0
100
AcDbArc
 50
185.9439989809288
 51
276.931906197585
  0
ARC
  5
16144
330
747D
100
AcDbEntity
  8
部品1
100
AcDbCircle
 10
2621.099999999995
 20
2495.0
 30
0.0
 40
60.0
100
AcDbArc
 50
276.931906197585
 51
285.5001785669987
  0
ARC
  5
16145
330
747D
100
AcDbEntity
  8
部品1
100
AcDbCircle
 10
2614.099999999995
 20
2437.423963318061
 30
0.0
 40
2.0
100
AcDbArc
 50
263.0680938024154
 51
354.0560010190713
  0
ARC
  5
16146
330
747D
100
AcDbEntity
  8
部品1
100
AcDbCircle
 10
2621.099999999995
 20
2460.000000000009
 30
0.0
 40
60.0
100
AcDbArc
 50
74.4998214330009
 51
110.0051900881592
  0
ARC
  5
16147
330
747D
100
AcDbEntity
  8
細線
 48
50.0
100
AcDbCircle
 10
2621.099999999997
 20
2437.810074786312
 30
0.0
 40
60.0
100
AcDbArc
 50
96.93190619758489
 51
110.6983727285578
  0
ARC
  5
16148
330
747D
100
AcDbEntity
  8
細線
 48
50.0
100
AcDbCircle
 10
2621.099999999995
 20
2527.928932188133
 30
0.0
 40
60.0
100
AcDbArc
 50
249.3016272714424
 51
263.0680938024154
  0
LINE
  5
16149
330
747D
100
AcDbEntity
  8
部品1
100
AcDbLine
 10
2598.599999999995
 20
2441.439286785928
 30
0.0
 11
2598.599999999995
 21
2513.560713214082
 31
0.0
  0
ARC
  5
1614A
330
747D
100
AcDbEntity
  8
部品1
100
AcDbCircle
 10
2601.599999999995
 20
2441.439286785928
 30
0.0
 40
3.0
100
AcDbArc
 50
180.0
 51
249.9948099118399
  0
ARC
  5
1614B
330
747D
100
AcDbEntity
  8
部品1
100
AcDbCircle
 10
2601.599999999995
 20
2513.560713214082
 30
0.0
 40
3.0
100
AcDbArc
 50
110.0051900881597
 51
179.9999999999996
  0
ARC
  5
1614C
330
747D
100
AcDbEntity
  8
部品1
100
AcDbCircle
 10
2621.099999999995
 20
2460.000000000009
 30
0.0
 40
58.0
100
AcDbArc
 50
85.04390823572704
 51
94.95609176427182
  0
LINE
  5
1614D
330
747D
100
AcDbEntity
  8
部品1
100
AcDbLine
 10
2638.599999999995
 20
2439.109482020649
 30
0.0
 11
2638.599999999995
 21
2515.890517979358
 31
0.0
  0
ARC
  5
1614E
330
747D
100
AcDbEntity
  8
部品1
100
AcDbCircle
 10
2636.599999999995
 20
2515.890517979358
 30
0.0
 40
2.0
100
AcDbArc
 50
359.9999999999995
 51
74.49982143300052
  0
ARC
  5
1614F
330
747D
100
AcDbEntity
  8
部品1
100
AcDbCircle
 10
2628.099999999995
 20
2517.576036681949
 30
0.0
 40
2.0
100
AcDbArc
 50
83.06809380241473
 51
174.0560010190709
  0
ARC
  5
16150
330
747D
100
AcDbEntity
  8
部品1
100
AcDbCircle
 10
2614.099999999995
 20
2517.576036681949
 30
0.0
 40
2.0
100
AcDbArc
 50
5.943998980928432
 51
96.93190619758423
  0
ARC
  5
16151
330
747D
100
AcDbEntity
  8
細線
 48
50.0
100
AcDbCircle
 10
2621.099999999995
 20
2527.928932188133
 30
0.0
 40
58.0
100
AcDbArc
 50
265.0439082357278
 51
274.9560917642727
  0
ARC
  5
16152
330
747D
100
AcDbEntity
  8
細線
 48
50.0
100
AcDbCircle
 10
2621.099999999997
 20
2437.810074786312
 30
0.0
 40
58.0
100
AcDbArc
 50
85.04390823572766
 51
94.95609176427249
  0
ARC
  5
16153
330
747D
100
AcDbEntity
  8
細線
 48
50.0
100
AcDbCircle
 10
2621.099999999995
 20
2527.928932188133
 30
0.0
 40
60.0
100
AcDbArc
 50
276.931906197585
 51
285.5001785669987
  0
ARC
  5
16154
330
747D
100
AcDbEntity
  8
細線
 48
50.0
100
AcDbCircle
 10
2621.099999999997
 20
2437.810074786312
 30
0.0
 40
60.0
100
AcDbArc
 50
74.49982143300158
 51
83.06809380241526
  0
ARC
  5
16157
330
747D
100
AcDbEntity
  8
部品1
 48
20.0
100
AcDbCircle
 10
3631.448433418349
 20
2035.568139086208
 30
0.0
 40
10.0
100
AcDbArc
 50
6.645466364247081
 51
87.3033948452957
  0
ARC
  5
16158
330
747D
100
AcDbEntity
  8
部品1
 48
20.0
100
AcDbCircle
 10
3594.75156658165
 20
2035.568139086208
 30
0.0
 40
10.0
100
AcDbArc
 50
92.69660515470459
 51
173.3545336357496
  0
ARC
  5
16159
330
747D
100
AcDbEntity
  8
部品1
 48
20.0
100
AcDbCircle
 10
2648.100000000001
 20
1920.999999999992
 30
0.0
 40
1000.0
100
AcDbArc
 50
353.3545336357529
 51
6.645466364247845
  0
ARC
  5
1615A
330
747D
100
AcDbEntity
  8
部品1
 48
20.0
100
AcDbCircle
 10
4578.1
 20
1920.999999999992
 30
0.0
 40
1000.0
100
AcDbArc
 50
173.3545336357521
 51
186.645466364247
  0
ARC
  5
1615B
330
747D
100
AcDbEntity
  8
細線
 48
50.0
100
AcDbCircle
 10
4578.1
 20
1920.999999999992
 30
0.0
 40
995.0
100
AcDbArc
 50
173.3545336357521
 51
186.645466364247
  0
ARC
  5
1615C
330
747D
100
AcDbEntity
  8
細線
 48
50.0
100
AcDbCircle
 10
2648.100000000001
 20
1920.999999999992
 30
0.0
 40
995.0
100
AcDbArc
 50
353.3545336357529
 51
6.645466364247845
  0
ARC
  5
1615D
330
747D
100
AcDbEntity
  8
部品1
 48
20.0
100
AcDbCircle
 10
3613.100000000002
 20
2196.0
 30
0.0
 40
400.0
100
AcDbArc
 50
267.3033948452952
 51
272.6966051547042
  0
ARC
  5
1615E
330
747D
100
AcDbEntity
  8
細線
 48
50.0
100
AcDbCircle
 10
3613.100000000002
 20
2196.0
 30
0.0
 40
395.0
100
AcDbArc
 50
267.3033948452952
 51
272.6966051547042
  0
ARC
  5
1615F
330
747D
100
AcDbEntity
  8
部品1
 48
20.0
100
AcDbCircle
 10
3594.75156658165
 20
1806.43186091379
 30
0.0
 40
10.0
100
AcDbArc
 50
186.6454663642468
 51
267.3033948452939
  0
ARC
  5
16160
330
747D
100
AcDbEntity
  8
細線
 48
50.0
100
AcDbCircle
 10
3594.75156658165
 20
1806.43186091379
 30
0.0
 40
5.0
100
AcDbArc
 50
186.6454663642469
 51
267.3033948452926
  0
ARC
  5
16161
330
747D
100
AcDbEntity
  8
部品1
 48
20.0
100
AcDbCircle
 10
3631.448433418351
 20
1806.43186091379
 30
0.0
 40
10.0
100
AcDbArc
 50
272.6966051547041
 51
353.3545336357534
  0
ARC
  5
16162
330
747D
100
AcDbEntity
  8
細線
 48
50.0
100
AcDbCircle
 10
3631.448433418351
 20
1806.43186091379
 30
0.0
 40
5.0
100
AcDbArc
 50
272.6966051547042
 51
353.3545336357538
  0
ELLIPSE
  5
16163
330
747D
100
AcDbEntity
  8
部品1
100
AcDbEllipse
 10
3613.100000000001
 20
2018.429621181401
 30
0.0
 11
0.0
 21
9.770631002828395
 31
0.0
210
0.0
220
0.0
230
-1.0
 40
0.5117376757501746
 41
4.712388980384689
 42
7.853981633974482
  0
ARC
  5
16164
330
747D
100
AcDbEntity
  8
細線
 48
50.0
100
AcDbCircle
 10
3613.100000000002
 20
1645.999999999999
 30
0.0
 40
395.0
100
AcDbArc
 50
87.30339484529599
 51
92.69660515470446
  0
ELLIPSE
  5
16165
330
747D
100
AcDbEntity
  8
部品1
100
AcDbEllipse
 10
3613.100000000001
 20
1823.570378818596
 30
0.0
 11
0.0
 21
-9.770631002828395
 31
0.0
210
0.0
220
0.0
230
1.0
 40
0.5117376757501746
 41
4.712388980384689
 42
7.853981633974482
  0
LINE
  5
16166
330
747D
100
AcDbEntity
  8
部品1
 48
20.0
100
AcDbLine
 10
3608.1
 20
2018.429621181404
 30
0.0
 11
3608.1
 21
1823.570378818596
 31
0.0
  0
ARC
  5
16167
330
747D
100
AcDbEntity
  8
細線
 48
50.0
100
AcDbCircle
 10
3594.75156658165
 20
2035.568139086208
 30
0.0
 40
5.0
100
AcDbArc
 50
92.69660515470468
 51
173.3545336357467
  0
LINE
  5
16168
330
747D
100
AcDbEntity
  8
部品1
 48
20.0
100
AcDbLine
 10
3618.1
 20
2018.429621181402
 30
0.0
 11
3618.1
 21
1823.570378818596
 31
0.0
  0
ARC
  5
16169
330
747D
100
AcDbEntity
  8
細線
 48
50.0
100
AcDbCircle
 10
3631.448433418349
 20
2035.568139086208
 30
0.0
 40
5.0
100
AcDbArc
 50
6.645466364246064
 51
87.3033948452954
  0
ARC
  5
1616A
330
747D
100
AcDbEntity
  8
部品1
 48
20.0
100
AcDbCircle
 10
3613.100000000002
 20
1645.999999999999
 30
0.0
 40
400.0
100
AcDbArc
 50
87.30339484529599
 51
92.69660515470446
  0
ARC
  5
1616B
330
747D
100
AcDbEntity
  8
部品1
100
AcDbCircle
 10
3670.600000000002
 20
2439.109482020649
 30
0.0
 40
2.0
100
AcDbArc
 50
179.9999999999998
 51
254.4998214330008
  0
ARC
  5
1616C
330
747D
100
AcDbEntity
  8
部品1
100
AcDbCircle
 10
3686.100000000003
 20
2495.0
 30
0.0
 40
60.0
100
AcDbArc
 50
276.9319061975846
 51
290.0051900881596
  0
ARC
  5
1616D
330
747D
100
AcDbEntity
  8
部品1
100
AcDbCircle
 10
3693.100000000003
 20
2437.423963318061
 30
0.0
 40
2.0
100
AcDbArc
 50
185.9439989809287
 51
276.9319061975846
  0
ARC
  5
1616E
330
747D
100
AcDbEntity
  8
部品1
100
AcDbCircle
 10
3686.100000000003
 20
2495.0
 30
0.0
 40
60.0
100
AcDbArc
 50
254.4998214330012
 51
263.068093802415
  0
ARC
  5
1616F
330
747D
100
AcDbEntity
  8
部品1
100
AcDbCircle
 10
3679.100000000003
 20
2437.423963318061
 30
0.0
 40
2.0
100
AcDbArc
 50
263.068093802415
 51
354.0560010190712
  0
ARC
  5
16170
330
747D
100
AcDbEntity
  8
部品1
100
AcDbCircle
 10
3686.100000000003
 20
2495.0
 30
0.0
 40
58.0
100
AcDbArc
 50
265.0439082357273
 51
274.9560917642722
  0
ARC
  5
16171
330
747D
100
AcDbEntity
  8
部品1
100
AcDbCircle
 10
3705.600000000003
 20
2513.560713214082
 30
0.0
 40
3.0
100
AcDbArc
 50
0.0000000000003257
 51
69.99480991184026
  0
ARC
  5
16172
330
747D
100
AcDbEntity
  8
部品1
100
AcDbCircle
 10
3693.100000000003
 20
2517.576036681949
 30
0.0
 40
2.0
100
AcDbArc
 50
83.06809380241576
 51
174.0560010190715
  0
ARC
  5
16173
330
747D
100
AcDbEntity
  8
部品1
100
AcDbCircle
 10
3705.600000000003
 20
2441.439286785928
 30
0.0
 40
3.0
100
AcDbArc
 50
290.0051900881601
 51
0.0
  0
LINE
  5
16174
330
747D
100
AcDbEntity
  8
部品1
100
AcDbLine
 10
3708.600000000002
 20
2441.439286785928
 30
0.0
 11
3708.600000000002
 21
2513.560713214082
 31
0.0
  0
ARC
  5
16175
330
747D
100
AcDbEntity
  8
細線
 48
50.0
100
AcDbCircle
 10
3686.100000000003
 20
2527.928932188133
 30
0.0
 40
60.0
100
AcDbArc
 50
276.9319061975846
 51
290.6983727285576
  0
ARC
  5
16176
330
747D
100
AcDbEntity
  8
細線
 48
50.0
100
AcDbCircle
 10
3686.100000000001
 20
2437.810074786312
 30
0.0
 40
60.0
100
AcDbArc
 50
69.30162727144211
 51
83.0680938024151
  0
ARC
  5
16177
330
747D
100
AcDbEntity
  8
部品1
100
AcDbCircle
 10
3679.100000000003
 20
2517.576036681949
 30
0.0
 40
2.0
100
AcDbArc
 50
5.943998980929121
 51
96.93190619758528
  0
ARC
  5
16178
330
747D
100
AcDbEntity
  8
部品1
100
AcDbCircle
 10
3670.600000000002
 20
2515.890517979358
 30
0.0
 40
2.0
100
AcDbArc
 50
105.5001785669995
 51
180.0000000000005
  0
LINE
  5
16179
330
747D
100
AcDbEntity
  8
部品1
100
AcDbLine
 10
3668.600000000002
 20
2439.109482020649
 30
0.0
 11
3668.600000000002
 21
2515.890517979358
 31
0.0
  0
ARC
  5
1617A
330
747D
100
AcDbEntity
  8
細線
 48
50.0
100
AcDbCircle
 10
3686.100000000001
 20
2437.810074786312
 30
0.0
 40
60.0
100
AcDbArc
 50
96.93190619758475
 51
105.5001785669984
  0
ARC
  5
1617B
330
747D
100
AcDbEntity
  8
細線
 48
50.0
100
AcDbCircle
 10
3686.100000000003
 20
2527.928932188133
 30
0.0
 40
60.0
100
AcDbArc
 50
254.4998214330012
 51
263.068093802415
  0
ARC
  5
1617C
330
747D
100
AcDbEntity
  8
部品1
100
AcDbCircle
 10
3686.100000000003
 20
2460.000000000009
 30
0.0
 40
60.0
100
AcDbArc
 50
69.99480991184078
 51
105.5001785669991
  0
ARC
  5
1617D
330
747D
100
AcDbEntity
  8
部品1
100
AcDbCircle
 10
3686.100000000003
 20
2460.000000000009
 30
0.0
 40
58.0
100
AcDbArc
 50
85.04390823572817
 51
94.95609176427299
  0
ARC
  5
1617E
330
747D
100
AcDbEntity
  8
細線
 48
50.0
100
AcDbCircle
 10
3686.100000000001
 20
2437.810074786312
 30
0.0
 40
58.0
100
AcDbArc
 50
85.04390823572753
 51
94.95609176427235
  0
ARC
  5
1617F
330
747D
100
AcDbEntity
  8
細線
 48
50.0
100
AcDbCircle
 10
3686.100000000003
 20
2527.928932188133
 30
0.0
 40
58.0
100
AcDbArc
 50
265.0439082357273
 51
274.9560917642722
  0
DIMENSION
  5
16180
330
747D
100
AcDbEntity
  8
寸法
 48
50.0
100
AcDbDimension
  2
*D15
 10
5503.6
 20
2675.024113945668
 30
0.0
 11
5307.576377952757
 21
2675.024113945668
 31
0.0
 12
99.99999999999818
 22
-300.0
 32
0.0
 70
   160
 71
     5
 42
-1.0
  3
INABA_S20G
100
AcDbAlignedDimension
 13
5463.6
 23
2493.66793916258
 33
0.0
 14
5503.6
 24
2520.0
 34
0.0
100
AcDbRotatedDimension
  0
DIMENSION
  5
16181
330
747D
100
AcDbEntity
  8
寸法
 48
50.0
100
AcDbDimension
  2
*D7
 10
6203.600000000001
 20
2675.024113945668
 30
0.0
 11
5853.6
 21
3025.024113945669
 31
0.0
 12
0.0
 22
-300.0
 32
0.0
 70
    32
 71
     5
 42
-1.0
  3
INABA_S20G
100
AcDbAlignedDimension
 13
5503.6
 23
2520.0
 33
0.0
 14
6203.600000000001
 24
2500.226073850792
 34
0.0
100
AcDbRotatedDimension
1001
ACAD
1000
DSTYLE
1002
{
1002
}
  0
DIMENSION
  5
16182
330
747D
100
AcDbEntity
  8
寸法
 48
50.0
100
AcDbDimension
  2
*D6
 10
6213.6
 20
2675.024113945668
 30
0.0
 11
6360.623622047245
 21
2675.024113945668
 31
0.0
 12
0.0
 22
-300.0
 32
0.0
 70
   160
 71
     5
 42
-1.0
  3
INABA_S20G
100
AcDbAlignedDimension
 13
6203.600000000001
 23
2500.226073850792
 33
0.0
 14
6213.6
 24
2500.0
 34
0.0
100
AcDbRotatedDimension
1001
ACAD
1000
DSTYLE
1002
{
1002
}
  0
DIMENSION
  5
16183
330
747D
100
AcDbEntity
  8
寸法
 48
50.0
100
AcDbDimension
  2
*D5
 10
6213.6
 20
2803.220335370565
 30
0.0
 11
5838.6
 21
3153.220335370565
 31
0.0
 12
-11425.97575641781
 22
-300.0
 32
0.0
 70
    32
 71
     5
 42
-1.0
  3
INABA_S20G
100
AcDbAlignedDimension
 13
5463.6
 23
2493.66793916258
 33
0.0
 14
6213.6
 24
2500.0
 34
0.0
100
AcDbRotatedDimension
  0
DIMENSION
  5
16184
330
747D
100
AcDbEntity
  8
寸法
 48
50.0
100
AcDbDimension
  2
*D19
 10
6708.058089714103
 20
899.9999999999998
 30
0.0
 11
6658.052184202292
 21
1662.5
 31
0.0
 70
    32
 71
     5
 42
-1.0
  3
INABA_S20G
100
AcDbAlignedDimension
 13
6213.6
 23
2425.0
 33
0.0
 14
6197.600000000001
 24
900.0
 34
0.0
 50
90.0
100
AcDbRotatedDimension
1001
ACAD
1000
DSTYLE
1002
{
1070
   279
1070
     2
1002
}
  0
DIMENSION
  5
16185
330
747D
100
AcDbEntity
  8
寸法
 48
50.0
100
AcDbDimension
  2
*D18
 10
6708.058089714103
 20
2425.0
 30
0.0
 11
6658.058089714103
 21
2762.5
 31
0.0
 12
-100.0000000000018
 22
-300.0
 32
0.0
 70
    32
 71
     5
 42
-1.0
  3
INABA_S20G
100
AcDbAlignedDimension
 13
6213.6
 23
2500.0
 33
0.0
 14
6213.6
 24
2425.0
 34
0.0
 50
90.0
100
AcDbRotatedDimension
1001
ACAD
1000
DSTYLE
1002
{
1070
   279
1070
     2
1002
}
  0
DIMENSION
  5
16186
330
747D
100
AcDbEntity
  8
寸法
 48
50.0
100
AcDbDimension
  2
*D4
 10
6879.913337170167
 20
2500.0
 30
0.0
 11
6829.913337170167
 21
1700.0
 31
0.0
 70
    32
 71
     5
 42
-1.0
  3
INABA_S20G
100
AcDbAlignedDimension
 13
6197.600000000001
 23
900.0
 33
0.0
 14
6213.599999999996
 24
2500.0
 34
0.0
 50
90.0
100
AcDbRotatedDimension
  0
DIMENSION
  5
16187
330
747D
100
AcDbEntity
  8
寸法
 48
50.0
100
AcDbDimension
  2
*D10
 10
5184.960919862775
 20
2520.0
 30
0.0
 11
5134.960919862775
 21
1713.0
 31
0.0
 70
    32
  1
1617
 71
     5
 42
-1.0
  3
INABA_S20G
100
AcDbAlignedDimension
 13
5508.600000000001
 23
906.0
 33
0.0
 14
5483.029319720905
 24
2520.0
 34
0.0
 50
90.0
100
AcDbRotatedDimension
1001
ACAD
1000
DSTYLE
1002
{
1070
    75
1070
     1
1070
   279
1070
     1
1002
}
  0
DIMENSION
  5
16188
330
747D
100
AcDbEntity
  8
寸法
 48
50.0
100
AcDbDimension
  2
*D17
 10
5041.173767725317
 20
2520.0
 30
0.0
 11
4991.167862213506
 21
1710.0
 31
0.0
 70
    32
 71
     5
 42
-1.0
  3
INABA_S20G
100
AcDbAlignedDimension
 13
5512.6
 23
900.0
 33
0.0
 14
5483.029319720905
 24
2520.0
 34
0.0
 50
90.0
100
AcDbRotatedDimension
  0
DIMENSION
  5
16189
330
747D
100
AcDbEntity
  8
寸法
 48
50.0
100
AcDbDimension
  2
*D8
 10
5925.924998316816
 20
2438.620575108426
 30
0.0
 11
5875.924998316816
 21
1703.120575108426
 31
0.0
 70
    32
  1
内高 <>
 71
     5
 42
-1.0
  3
INABA_S20G
100
AcDbAlignedDimension
 13
5853.6
 23
987.0
 33
0.0
 14
5853.6
 24
2457.999999999998
 34
0.0
 50
90.0
100
AcDbRotatedDimension
  0
LINE
  5
1618A
330
747D
100
AcDbEntity
  8
部品1
 48
50.0
100
AcDbLine
 10
5503.6
 20
958.0
 30
0.0
 11
5503.6
 21
2435.0
 31
0.0
  0
LINE
  5
1618B
330
747D
100
AcDbEntity
  8
部品1
 48
50.0
100
AcDbLine
 10
6203.600000000001
 20
958.0
 30
0.0
 11
6203.600000000001
 21
2425.226073850792
 31
0.0
  0
LINE
  5
1618C
330
747D
100
AcDbEntity
  8
部品1
 48
50.0
100
AcDbLine
 10
5548.6
 20
958.0
 30
0.0
 11
5548.599999999996
 21
2438.08778689947
 31
0.0
  0
DIMENSION
  5
1618D
330
747D
100
AcDbEntity
  8
寸法
 48
50.0
100
AcDbDimension
  2
*D9
 10
5351.075280684892
 20
2436.0
 30
0.0
 11
5301.075280684893
 21
1711.5
 31
0.0
 70
    32
  1
有効開口部高サ <>
 71
     5
 42
-1.0
  3
INABA_S20G
100
AcDbAlignedDimension
 13
5570.6
 23
987.0
 33
0.0
 14
5495.6
 24
2436.0
 34
0.0
 50
90.0
100
AcDbRotatedDimension
  0
DIMENSION
  5
1618E
330
747D
100
AcDbEntity
  8
寸法
 48
50.0
100
AcDbDimension
  2
*D3
 10
6528.43045837027
 20
1304.0
 30
0.0
 11
6478.43045837027
 21
1145.5
 31
0.0
 70
    32
 71
     5
 42
-1.0
  3
INABA_S20G
100
AcDbAlignedDimension
 13
6174.6
 23
987.0
 33
0.0
 14
6172.6
 24
1304.0
 34
0.0
 50
90.0
100
AcDbRotatedDimension
  0
DIMENSION
  5
1618F
330
747D
100
AcDbEntity
  8
寸法
 48
50.0
100
AcDbDimension
  2
*D11
 10
5184.960919862775
 20
906.0
 30
0.0
 11
5134.960919862775
 21
870.4241879215514
 31
0.0
 12
99.99999999999818
 22
0.0
 32
0.0
 70
   160
  1
3
 71
     5
 42
-1.0
  3
INABA_S20G
100
AcDbAlignedDimension
 13
5512.6
 23
900.0
 33
0.0
 14
5508.600000000001
 24
906.0
 34
0.0
 50
90.0
100
AcDbRotatedDimension
1001
ACAD
1000
DSTYLE
1002
{
1070
   279
1070
     2
1002
}
  0
LINE
  5
16190
330
747D
100
AcDbEntity
  8
部品1
100
AcDbLine
 10
6044.467666557108
 20
509.9461607727662
 30
0.0
 11
5662.732333442889
 21
509.9461607727662
 31
0.0
  0
LINE
  5
16191
330
747D
100
AcDbEntity
  8
部品1
100
AcDbLine
 10
5662.732333442889
 20
390.0
 30
0.0
 11
6044.467666557108
 21
390.0
 31
0.0
  0
TEXT
  5
16192
330
747D
100
AcDbEntity
  8
部品1
100
AcDbText
 10
5707.455384154693
 20
413.4993961635045
 30
0.0
 40
67.5
  1
側面図
  7
STYLE2
100
AcDbText
  0
LINE
  5
16193
330
747D
100
AcDbEntity
  8
部品1
100
AcDbLine
 10
5662.732333442889
 20
509.9461607727662
 30
0.0
 11
5662.732333442889
 21
390.0
 31
0.0
  0
LINE
  5
16194
330
747D
100
AcDbEntity
  8
部品1
100
AcDbLine
 10
6044.467666557108
 20
390.0
 30
0.0
 11
6044.467666557108
 21
509.9461607727662
 31
0.0
  0
LINE
  5
16195
330
747D
100
AcDbEntity
  8
点線
 48
8.0
100
AcDbLine
 10
5570.6
 20
987.0
 30
0.0
 11
6174.6
 21
987.0
 31
0.0
  0
LINE
  5
16196
330
747D
100
AcDbEntity
  8
部品1
 48
50.0
100
AcDbLine
 10
5512.6
 20
900.0
 30
0.0
 11
6197.600000000001
 21
900.0
 31
0.0
  0
LINE
  5
16197
330
747D
100
AcDbEntity
  8
部品1
 48
50.0
100
AcDbLine
 10
5503.6
 20
958.0
 30
0.0
 11
6203.600000000001
 21
958.0
 31
0.0
  0
LINE
  5
16198
330
747D
100
AcDbEntity
  8
部品1
 48
50.0
100
AcDbLine
 10
5508.600000000001
 20
906.0
 30
0.0
 11
6201.6
 21
906.0
 31
0.0
  0
LINE
  5
16199
330
747D
100
AcDbEntity
  8
部品1
 48
50.0
100
AcDbLine
 10
5712.600000000001
 20
800.0
 30
0.0
 11
5712.600000000001
 21
900.0
 31
0.0
  0
LINE
  5
1619A
330
747D
100
AcDbEntity
  8
部品1
 48
50.0
100
AcDbLine
 10
5512.6
 20
800.0
 30
0.0
 11
5512.6
 21
900.0
 31
0.0
  0
LINE
  5
1619B
330
747D
100
AcDbEntity
  8
点線
 48
2.0
100
AcDbLine
 10
5570.6
 20
978.5
 30
0.0
 11
5578.6
 21
978.5
 31
0.0
  0
LINE
  5
1619C
330
747D
100
AcDbEntity
  8
点線
 48
3.0
100
AcDbLine
 10
5570.6
 20
958.0
 30
0.0
 11
5570.6
 21
987.0
 31
0.0
  0
LINE
  5
1619D
330
747D
100
AcDbEntity
  8
点線
 48
3.0
100
AcDbLine
 10
5554.1
 20
968.0
 30
0.0
 11
5554.1
 21
978.5
 31
0.0
  0
LINE
  5
1619E
330
747D
100
AcDbEntity
  8
点線
 48
3.0
100
AcDbLine
 10
5578.6
 20
978.5
 30
0.0
 11
5599.1
 21
958.0
 31
0.0
  0
LINE
  5
1619F
330
747D
100
AcDbEntity
  8
部品1
 48
50.0
100
AcDbLine
 10
5508.600000000001
 20
906.0
 30
0.0
 11
5508.600000000001
 21
958.0
 31
0.0
  0
LINE
  5
161A0
330
747D
100
AcDbEntity
  8
部品1
 48
50.0
100
AcDbLine
 10
5512.6
 20
900.0
 30
0.0
 11
5512.6
 21
906.0
 31
0.0
  0
LINE
  5
161A1
330
747D
100
AcDbEntity
  8
点線
 48
3.0
100
AcDbLine
 10
5508.600000000001
 20
958.0
 30
0.0
 11
5508.600000000001
 21
965.0000000000009
 31
0.0
  0
LINE
  5
161A2
330
747D
100
AcDbEntity
  8
点線
 48
3.0
100
AcDbLine
 10
5508.600000000001
 20
965.0
 30
0.0
 11
5513.6
 21
968.0
 31
0.0
  0
LINE
  5
161A3
330
747D
100
AcDbEntity
  8
点線
 48
3.0
100
AcDbLine
 10
5526.1
 20
968.0
 30
0.0
 11
5526.1
 21
978.5
 31
0.0
  0
LINE
  5
161A4
330
747D
100
AcDbEntity
  8
点線
 48
2.0
100
AcDbLine
 10
5513.6
 20
968.0
 30
0.0
 11
5570.6
 21
968.0
 31
0.0
  0
LINE
  5
161A5
330
747D
100
AcDbEntity
  8
部品1
 48
50.0
100
AcDbLine
 10
5997.600000000001
 20
800.0
 30
0.0
 11
5997.600000000001
 21
900.0
 31
0.0
  0
LINE
  5
161A6
330
747D
100
AcDbEntity
  8
部品1
 48
50.0
100
AcDbLine
 10
6197.600000000001
 20
800.0
 30
0.0
 11
6197.600000000001
 21
906.0
 31
0.0
  0
LINE
  5
161A7
330
747D
100
AcDbEntity
  8
点線
 48
2.0
100
AcDbLine
 10
6166.6
 20
978.5
 30
0.0
 11
6174.6
 21
978.5
 31
0.0
  0
LINE
  5
161A8
330
747D
100
AcDbEntity
  8
部品1
 48
50.0
100
AcDbLine
 10
6201.6
 20
906.0
 30
0.0
 11
6201.6
 21
958.0
 31
0.0
  0
LINE
  5
161A9
330
747D
100
AcDbEntity
  8
点線
 48
3.0
100
AcDbLine
 10
6174.6
 20
958.0
 30
0.0
 11
6174.6
 21
987.0
 31
0.0
  0
LINE
  5
161AA
330
747D
100
AcDbEntity
  8
点線
 48
3.0
100
AcDbLine
 10
6166.6
 20
978.5
 30
0.0
 11
6146.1
 21
958.0
 31
0.0
  0
DIMENSION
  5
161AB
330
747D
100
AcDbEntity
  8
寸法
 48
50.0
100
AcDbDimension
  2
*D2
 10
6528.43045837027
 20
2149.0
 30
0.0
 11
6478.43045837027
 21
1726.5
 31
0.0
 70
    32
  1
65x13=<>
 71
     5
 42
-1.0
  3
INABA_S20G
100
AcDbAlignedDimension
 13
6172.6
 23
1304.0
 33
0.0
 14
6172.6
 24
2149.0
 34
0.0
 50
90.0
100
AcDbRotatedDimension
1001
ACAD
1000
DSTYLE
1002
{
1070
    75
1070
     1
1070
   279
1070
     1
1002
}
  0
LINE
  5
161AC
330
747D
100
AcDbEntity
  8
想像線
 48
5.0
100
AcDbLine
 10
5722.6
 20
1304.0
 30
0.0
 11
6172.6
 21
1304.0
 31
0.0
  0
LINE
  5
161AD
330
747D
100
AcDbEntity
  8
想像線
 48
5.0
100
AcDbLine
 10
5722.6
 20
1274.0
 30
0.0
 11
6172.6
 21
1274.0
 31
0.0
  0
LINE
  5
161AE
330
747D
100
AcDbEntity
  8
想像線
 48
8.0
100
AcDbLine
 10
5722.6
 20
1274.0
 30
0.0
 11
5722.6
 21
1304.0
 31
0.0
  0
LINE
  5
161AF
330
747D
100
AcDbEntity
  8
想像線
 48
8.0
100
AcDbLine
 10
6172.6
 20
1274.0
 30
0.0
 11
6172.6
 21
1304.0
 31
0.0
  0
LINE
  5
161B0
330
747D
100
AcDbEntity
  8
想像線
 48
5.0
100
AcDbLine
 10
5722.6
 20
2149.0
 30
0.0
 11
6172.6
 21
2149.0
 31
0.0
  0
LINE
  5
161B1
330
747D
100
AcDbEntity
  8
想像線
 48
5.0
100
AcDbLine
 10
5722.6
 20
2119.0
 30
0.0
 11
6172.6
 21
2119.0
 31
0.0
  0
LINE
  5
161B2
330
747D
100
AcDbEntity
  8
想像線
 48
8.0
100
AcDbLine
 10
5722.6
 20
2119.0
 30
0.0
 11
5722.6
 21
2149.0
 31
0.0
  0
DIMENSION
  5
161B3
330
747D
100
AcDbEntity
  8
寸法
 48
50.0
100
AcDbDimension
  2
*D1
 10
6366.090969203319
 20
2119.0
 30
0.0
 11
6366.090969203319
 21
1965.976377952756
 31
0.0
 12
-100.0000000000018
 22
-215.0
 32
0.0
 70
   160
 71
     5
 42
-1.0
  3
INABA_S20G
100
AcDbAlignedDimension
 13
6172.6
 23
2149.0
 33
0.0
 14
6172.6
 24
2119.0
 34
0.0
 50
90.0
100
AcDbRotatedDimension
  0
LINE
  5
161B4
330
747D
100
AcDbEntity
  8
想像線
 48
8.0
100
AcDbLine
 10
6172.6
 20
2119.0
 30
0.0
 11
6172.6
 21
2149.0
 31
0.0
  0
LINE
  5
161B5
330
747D
100
AcDbEntity
  8
点線
 48
8.0
100
AcDbLine
 10
6171.600000000001
 20
2458.0
 30
0.0
 11
5600.6
 21
2458.0
 31
0.0
  0
LINE
  5
161B8
330
747D
100
AcDbEntity
  8
部品1
 48
50.0
100
AcDbLine
 10
6213.6
 20
2425.0
 30
0.0
 11
5550.1
 21
2440.0
 31
0.0
  0
ARC
  5
161B9
330
747D
100
AcDbEntity
  8
部品1
100
AcDbCircle
 10
5549.100000000001
 20
2439.087786899471
 30
0.0
 40
1.0
100
AcDbArc
 50
270.0000000000001
 51
0.0000000000001399
  0
ARC
  5
161BA
330
747D
100
AcDbEntity
  8
部品1
100
AcDbCircle
 10
5508.827717756341
 20
2432.142150409904
 30
0.0
 40
5.957880262272358
100
AcDbArc
 50
86.32613006386966
 51
151.3357851015309
  0
LINE
  5
161BB
330
747D
100
AcDbEntity
  8
部品1
100
AcDbLine
 10
5466.528932188134
 20
2465.0
 30
0.0
 11
5495.064466094065
 21
2436.464466094067
 31
0.0
  0
ARC
  5
161BC
330
747D
100
AcDbEntity
  8
部品1
100
AcDbCircle
 10
5498.6
 20
2440.0
 30
0.0
 40
5.0
100
AcDbArc
 50
225.0000000000002
 51
269.9999999999999
  0
LINE
  5
161BD
330
747D
100
AcDbEntity
  8
部品1
100
AcDbLine
 10
5498.6
 20
2435.0
 30
0.0
 11
5503.599999999996
 21
2435.0
 31
0.0
  0
LINE
  5
161BE
330
747D
100
AcDbEntity
  8
部品1
100
AcDbLine
 10
5483.029319720905
 20
2520.0
 30
0.0
 11
5549.100000000001
 21
2519.999999999998
 31
0.0
  0
LINE
  5
161BF
330
747D
100
AcDbEntity
  8
部品1
100
AcDbLine
 10
5464.939745962156
 20
2498.66793916258
 30
0.0
 11
5474.369065683061
 21
2515.0
 31
0.0
  0
ARC
  5
161C0
330
747D
100
AcDbEntity
  8
部品1
100
AcDbCircle
 10
5473.600000000001
 20
2472.071067811865
 30
0.0
 40
10.0
100
AcDbArc
 50
180.0
 51
224.9999999999999
  0
LINE
  5
161C1
330
747D
100
AcDbEntity
  8
部品1
100
AcDbLine
 10
5463.6
 20
2493.66793916258
 30
0.0
 11
5463.6
 21
2472.071067811865
 31
0.0
  0
ARC
  5
161C2
330
747D
100
AcDbEntity
  8
部品1
100
AcDbCircle
 10
5473.600000000001
 20
2493.66793916258
 30
0.0
 40
10.0
100
AcDbArc
 50
150.0000000000003
 51
179.9999999999982
  0
ARC
  5
161C3
330
747D
100
AcDbEntity
  8
部品1
100
AcDbCircle
 10
5483.029319720905
 20
2510.0
 30
0.0
 40
10.0
100
AcDbArc
 50
90.0
 51
150.0000000000004
  0
LINE
  5
161C4
330
747D
100
AcDbEntity
  8
点線
 48
2.0
100
AcDbLine
 10
5600.599999999997
 20
2457.999999999998
 30
0.0
 11
5600.6
 21
2438.858327053504
 31
0.0
  0
LINE
  5
161C5
330
747D
100
AcDbEntity
  8
点線
 48
5.0
100
AcDbLine
 10
5615.6
 20
2513.51921627732
 30
0.0
 11
5615.599999999997
 21
2457.999999999998
 31
0.0
  0
ARC
  5
161C6
330
747D
100
AcDbEntity
  8
部品1
100
AcDbCircle
 10
5549.100000000001
 20
2518.999999999998
 30
0.0
 40
1.0
100
AcDbArc
 50
359.9999999999994
 51
90.0
  0
LINE
  5
161C7
330
747D
100
AcDbEntity
  8
部品1
100
AcDbLine
 10
5550.1
 20
2486.9
 30
0.0
 11
5550.1
 21
2486.9
 31
0.0
  0
LINE
  5
161C8
330
747D
100
AcDbEntity
  8
部品1
100
AcDbLine
 10
5509.209482020645
 20
2438.08778689947
 30
0.0
 11
5549.100000000001
 21
2438.087786899471
 31
0.0
  0
LINE
  5
161C9
330
747D
100
AcDbEntity
  8
部品1
100
AcDbLine
 10
5550.1
 20
2518.999999999998
 30
0.0
 11
5550.1
 21
2439.087786899471
 31
0.0
  0
LINE
  5
161CA
330
747D
100
AcDbEntity
  8
点線
 48
3.0
100
AcDbLine
 10
6171.599999999997
 20
2425.935412026726
 30
0.0
 11
6171.600000000001
 21
2458.0
 31
0.0
  0
LINE
  5
161CB
330
747D
100
AcDbEntity
  8
細線
 48
50.0
100
AcDbLine
 10
6208.600000000001
 20
2425.113036925396
 30
0.0
 11
6208.6
 21
2490.223518707929
 31
0.0
  0
LINE
  5
161CC
330
747D
100
AcDbEntity
  8
部品1
 48
50.0
100
AcDbLine
 10
6213.6
 20
2425.0
 30
0.0
 11
6213.599999999997
 21
2490.223518707929
 31
0.0
  0
ARC
  5
161DE
330
747D
100
AcDbEntity
  8
部品1
 48
2.0
100
AcDbCircle
 10
6102.111149650107
 20
2496.518085481369
 30
0.0
 40
6.00085262072102
100
AcDbArc
 50
88.71099107583281
 51
148.5136658788849
  0
ARC
  5
161DF
330
747D
100
AcDbEntity
  8
部品1
 48
2.0
100
AcDbCircle
 10
6087.186811294897
 20
2505.658324373874
 30
0.0
 40
11.5
100
AcDbArc
 50
268.705047743744
 51
328.5158399792114
  0
LINE
  5
161E0
330
747D
100
AcDbEntity
  8
部品1
 48
2.0
100
AcDbLine
 10
6080.254131478658
 20
2494.312084470378
 30
0.0
 11
6086.945868521336
 21
2494.160848712676
 31
0.0
  0
ARC
  5
161E1
330
747D
100
AcDbEntity
  8
部品1
 48
2.0
100
AcDbCircle
 10
6080.513969424792
 20
2505.809148627883
 30
0.0
 40
11.5
100
AcDbArc
 50
208.8945221393312
 51
268.7053143747986
  0
ARC
  5
161E2
330
747D
100
AcDbEntity
  8
部品1
 48
2.0
100
AcDbCircle
 10
6065.191410531667
 20
2497.352094792719
 30
0.0
 40
6.001501961612566
100
AcDbArc
 50
28.89835156694609
 51
88.69484584328208
  0
LINE
  5
1637B
330
747D
100
AcDbEntity
  8
細線
 48
50.0
100
AcDbLine
 10
6154.644532386528
 20
2485.327670417575
 30
0.0
 11
6131.644532386528
 21
2485.839919860783
 31
0.0
  0
LINE
  5
1637C
330
747D
100
AcDbEntity
  8
細線
 48
50.0
100
AcDbLine
 10
6154.555467613477
 20
2467.325190332704
 30
0.0
 11
6131.555467613472
 21
2467.837439775911
 31
0.0
  0
LINE
  5
1637D
330
747D
100
AcDbEntity
  8
細線
 48
50.0
100
AcDbLine
 10
6129.6
 20
2469.836943931083
 30
0.0
 11
6129.6
 21
2483.840415705611
 31
0.0
  0
LINE
  5
1637E
330
747D
100
AcDbEntity
  8
細線
 48
50.0
100
AcDbLine
 10
6156.600000000004
 20
2469.324694487876
 30
0.0
 11
6156.6
 21
2483.328166262404
 31
0.0
  0
ARC
  5
1637F
330
747D
100
AcDbEntity
  8
細線
 48
50.0
100
AcDbCircle
 10
6131.6
 20
2483.840415705611
 30
0.0
 40
2.0
100
AcDbArc
 50
88.72413565991033
 51
180.0
  0
ARC
  5
16380
330
747D
100
AcDbEntity
  8
細線
 48
50.0
100
AcDbCircle
 10
6154.600000000001
 20
2483.328166262404
 30
0.0
 40
2.0
100
AcDbArc
 50
0.0
 51
88.72413565991022
  0
ARC
  5
16381
330
747D
100
AcDbEntity
  8
細線
 48
50.0
100
AcDbCircle
 10
6154.600000000004
 20
2469.324694487876
 30
0.0
 40
2.0
100
AcDbArc
 50
268.7241356599103
 51
0.0
  0
ARC
  5
16382
330
747D
100
AcDbEntity
  8
細線
 48
50.0
100
AcDbCircle
 10
6131.6
 20
2469.836943931083
 30
0.0
 40
2.0
100
AcDbArc
 50
180.0
 51
268.7241356599103
  0
DIMENSION
  5
1638D
330
747D
100
AcDbEntity
  8
寸法
 48
50.0
100
AcDbDimension
  2
*D22
 10
2382.837149601686
 20
4392.515953850026
 30
0.0
 11
2132.837149601686
 21
4617.515953850023
 31
0.0
 12
-15506.93273708219
 22
0.0
 32
0.0
 70
    32
 71
     5
 42
-1.0
  3
INABA_S20G
100
AcDbAlignedDimension
 13
2640.099999999993
 23
4773.582580843267
 33
0.0
 14
2640.099999999997
 24
4323.582580843269
 34
0.0
 50
90.0
100
AcDbRotatedDimension
  0
DIMENSION
  5
16390
330
747D
100
AcDbEntity
  8
寸法
 48
50.0
100
AcDbDimension
  2
*D23
 10
3644.6
 20
5196.414712708183
 30
0.0
 11
3153.599999999999
 21
5246.435118990585
 31
0.0
 70
    32
  1
内部寸法 <>
 71
     5
 42
-1.0
  3
INABA_S20G
100
AcDbAlignedDimension
 13
2662.599999999997
 23
4804.58258084327
 33
0.0
 14
3644.6
 24
4804.582580843177
 34
0.0
100
AcDbRotatedDimension
  0
DIMENSION
  5
16391
330
747D
100
AcDbEntity
  8
寸法
 48
50.0
100
AcDbDimension
  2
*D25
 10
3183.599999999997
 20
3825.232679255116
 30
0.0
 11
3426.099999999997
 21
3925.232679255116
 31
0.0
 70
    32
  1
有効開口部間口\P<>
 71
     5
 42
-1.0
  3
INABA_S20G
100
AcDbAlignedDimension
 13
3668.599999999997
 23
4109.582580843269
 33
0.0
 14
3183.599999999997
 24
4109.582580843269
 34
0.0
100
AcDbRotatedDimension
  0
DIMENSION
  5
16392
330
747D
100
AcDbEntity
  8
寸法
 48
50.0
100
AcDbDimension
  2
*D20
 10
2603.599999999997
 20
3662.884076791021
 30
0.0
 11
3153.599999999997
 21
3712.88407679102
 31
0.0
 70
    32
 71
     5
 42
-1.0
  3
INABA_S20G
100
AcDbAlignedDimension
 13
3703.599999999997
 23
4104.582580843267
 33
0.0
 14
2603.599999999997
 24
4104.582580843265
 34
0.0
100
AcDbRotatedDimension
  0
LINE
  5
16398
330
747D
100
AcDbEntity
  8
部品1
 48
50.0
100
AcDbLine
 10
3698.599999999997
 20
4804.58258084327
 30
0.0
 11
2608.599999999997
 21
4804.58258084327
 31
0.0
  0
LINE
  5
16399
330
747D
100
AcDbEntity
  8
部品1
 48
50.0
100
AcDbLine
 10
3672.599999999997
 20
4775.582580843269
 30
0.0
 11
2634.599999999997
 21
4775.582580843269
 31
0.0
  0
LINE
  5
1639A
330
747D
100
AcDbEntity
  8
細線
 48
50.0
100
AcDbLine
 10
3672.599999999997
 20
4778.582580843269
 30
0.0
 11
3165.599999999997
 21
4778.582580843269
 31
0.0
  0
LINE
  5
1639B
330
747D
100
AcDbEntity
  8
部品1
 48
50.0
100
AcDbLine
 10
3660.599999999997
 20
4155.082580843269
 30
0.0
 11
3171.099999999993
 21
4155.082580843267
 31
0.0
  0
LINE
  5
1639C
330
747D
100
AcDbEntity
  8
部品1
 48
50.0
100
AcDbLine
 10
3668.600000000001
 20
4171.582580843269
 30
0.0
 11
2638.599999999997
 21
4171.582580843267
 31
0.0
  0
LINE
  5
1639D
330
747D
100
AcDbEntity
  8
部品1
 48
50.0
100
AcDbLine
 10
3131.099999999997
 20
4137.582580843257
 30
0.0
 11
3668.099999999997
 21
4137.582580843257
 31
0.0
  0
LINE
  5
1639E
330
747D
100
AcDbEntity
  8
部品1
 48
50.0
100
AcDbLine
 10
3675.099999999997
 20
4115.582580843256
 30
0.0
 11
3131.099999999997
 21
4115.582580843256
 31
0.0
  0
LINE
  5
163A3
330
747D
100
AcDbEntity
  8
部品1
 48
50.0
100
AcDbLine
 10
3668.599999999997
 20
4109.582580843269
 30
0.0
 11
2638.599999999997
 21
4109.582580843269
 31
0.0
  0
LINE
  5
163A4
330
747D
100
AcDbEntity
  8
部品1
 48
50.0
100
AcDbLine
 10
2608.599999999997
 20
4109.582580843269
 30
0.0
 11
2608.599999999997
 21
4804.58258084327
 31
0.0
  0
LINE
  5
163A5
330
747D
100
AcDbEntity
  8
細線
 48
50.0
100
AcDbLine
 10
2634.599999999997
 20
4749.582580843269
 30
0.0
 11
2634.599999999997
 21
4206.082580843265
 31
0.0
  0
LINE
  5
163A6
330
747D
100
AcDbEntity
  8
部品1
 48
50.0
100
AcDbLine
 10
2637.599999999997
 20
4749.582580843269
 30
0.0
 11
2637.599999999997
 21
4206.082580843268
 31
0.0
  0
LINE
  5
163AB
330
747D
100
AcDbEntity
  8
部品1
100
AcDbLine
 10
2640.099999999993
 20
4773.582580843267
 30
0.0
 11
2640.099999999997
 21
4323.582580843269
 31
0.0
  0
LINE
  5
163AE
330
747D
100
AcDbEntity
  8
部品1
 48
50.0
100
AcDbLine
 10
3171.099999999993
 20
4165.58258084327
 30
0.0
 11
2639.099999999993
 21
4165.58258084327
 31
0.0
  0
LINE
  5
163AF
330
747D
100
AcDbEntity
  8
部品1
 48
50.0
100
AcDbLine
 10
3151.099999999993
 20
4143.582580843268
 30
0.0
 11
2632.099999999993
 21
4143.582580843268
 31
0.0
  0
LINE
  5
163B0
330
747D
100
AcDbEntity
  8
部品1
 48
50.0
100
AcDbLine
 10
3131.099999999997
 20
4127.082580843269
 30
0.0
 11
2646.599999999993
 21
4127.082580843267
 31
0.0
  0
LINE
  5
163B2
330
747D
100
AcDbEntity
  8
部品1
100
AcDbLine
 10
2603.599999999997
 20
4108.692062863918
 30
0.0
 11
2603.599999999997
 21
4147.582580843269
 31
0.0
  0
LINE
  5
163B3
330
747D
100
AcDbEntity
  8
部品1
 48
50.0
100
AcDbLine
 10
2628.099999999997
 20
4109.582580843269
 30
0.0
 11
2628.099999999997
 21
4153.582580843269
 31
0.0
  0
LINE
  5
163B4
330
747D
100
AcDbEntity
  8
部品1
100
AcDbLine
 10
2638.599999999993
 20
4143.582580843268
 30
0.0
 11
2638.599999999997
 21
4108.692062863918
 31
0.0
  0
ARC
  5
163B5
330
747D
100
AcDbEntity
  8
部品1
100
AcDbCircle
 10
2614.099999999997
 20
4107.006544161328
 30
0.0
 40
2.0
100
AcDbArc
 50
263.0680938024152
 51
354.056001019071
  0
ARC
  5
163B6
330
747D
100
AcDbEntity
  8
部品1
100
AcDbCircle
 10
2628.099999999997
 20
4107.006544161328
 30
0.0
 40
2.0
100
AcDbArc
 50
185.9439989809289
 51
276.9319061975831
  0
ARC
  5
163B7
330
747D
100
AcDbEntity
  8
部品1
100
AcDbCircle
 10
2621.099999999997
 20
4164.582580843267
 30
0.0
 40
60.0
100
AcDbArc
 50
276.9319061975849
 51
285.500178566999
  0
ARC
  5
163B8
330
747D
100
AcDbEntity
  8
部品1
100
AcDbCircle
 10
2621.099999999997
 20
4164.582580843267
 30
0.0
 40
60.0
100
AcDbArc
 50
254.4998214330011
 51
263.0680938024152
  0
ARC
  5
163B9
330
747D
100
AcDbEntity
  8
部品1
100
AcDbCircle
 10
2605.599999999997
 20
4108.692062863918
 30
0.0
 40
2.0
100
AcDbArc
 50
180.0
 51
254.4998214330009
  0
ARC
  5
163BA
330
747D
100
AcDbEntity
  8
部品1
100
AcDbCircle
 10
2621.099999999997
 20
4164.582580843267
 30
0.0
 40
58.0
100
AcDbArc
 50
265.0439082357276
 51
274.9560917642725
  0
ARC
  5
163BB
330
747D
100
AcDbEntity
  8
部品1
100
AcDbCircle
 10
2636.599999999997
 20
4108.692062863918
 30
0.0
 40
2.0
100
AcDbArc
 50
285.500178566999
 51
0.0000000000061067
  0
LINE
  5
163BC
330
747D
100
AcDbEntity
  8
部品1
 48
50.0
100
AcDbLine
 10
2628.099999999997
 20
4109.582580843269
 30
0.0
 11
2608.599999999997
 21
4109.582580843269
 31
0.0
  0
LINE
  5
163BD
330
747D
100
AcDbEntity
  8
部品1
 48
50.0
100
AcDbLine
 10
2608.599999999997
 20
4149.582580843269
 30
0.0
 11
2605.599999999997
 21
4149.582580843269
 31
0.0
  0
LINE
  5
163BE
330
747D
100
AcDbEntity
  8
部品1
100
AcDbLine
 10
2634.599999999997
 20
4171.582580843267
 30
0.0
 11
2634.599999999997
 21
4207.282580843266
 31
0.0
  0
ARC
  5
163BF
330
747D
100
AcDbEntity
  8
部品1
100
AcDbCircle
 10
2631.599999999997
 20
4153.582580843269
 30
0.0
 40
2.0
100
AcDbArc
 50
89.99999999999964
 51
179.9999999999991
  0
ARC
  5
163C0
330
747D
100
AcDbEntity
  8
部品1
100
AcDbCircle
 10
2631.599999999997
 20
4142.582580843267
 30
0.0
 40
2.0
100
AcDbArc
 50
179.9999999999991
 51
270.0000000000002
  0
LINE
  5
163C1
330
747D
100
AcDbEntity
  8
部品1
100
AcDbLine
 10
2629.599999999997
 20
4142.582580843269
 30
0.0
 11
2629.599999999997
 21
4153.582580843269
 31
0.0
  0
ARC
  5
163C2
330
747D
100
AcDbEntity
  8
部品1
100
AcDbCircle
 10
2605.599999999997
 20
4147.582580843269
 30
0.0
 40
2.0
100
AcDbArc
 50
89.99999999999976
 51
180.0
  0
LINE
  5
163C3
330
747D
100
AcDbEntity
  8
部品1
100
AcDbLine
 10
2638.599999999993
 20
4171.582580843267
 30
0.0
 11
2638.599999999993
 21
4152.582580843269
 31
0.0
  0
LINE
  5
163C4
330
747D
100
AcDbEntity
  8
部品1
100
AcDbLine
 10
2631.599999999997
 20
4140.582580843267
 30
0.0
 11
2638.599999999997
 21
4140.582580843269
 31
0.0
  0
LINE
  5
163C5
330
747D
100
AcDbEntity
  8
部品1
100
AcDbLine
 10
2638.599999999997
 20
4155.582580843267
 30
0.0
 11
2631.599999999997
 21
4155.582580843269
 31
0.0
  0
LINE
  5
163C6
330
747D
100
AcDbEntity
  8
部品1
 48
50.0
100
AcDbLine
 10
2608.599999999997
 20
4219.582580843269
 30
0.0
 11
2634.599999999997
 21
4219.582580843269
 31
0.0
  0
LINE
  5
163C7
330
747D
100
AcDbEntity
  8
部品1
100
AcDbLine
 10
2638.599999999997
 20
4171.582580843269
 30
0.0
 11
2608.599999999997
 21
4171.582580843269
 31
0.0
  0
LINE
  5
163C8
330
747D
100
AcDbEntity
  8
部品1
 48
50.0
100
AcDbLine
 10
2628.099999999997
 20
4144.582580843269
 30
0.0
 11
2629.599999999997
 21
4146.082580843269
 31
0.0
  0
LINE
  5
163C9
330
747D
100
AcDbEntity
  8
部品1
 48
50.0
100
AcDbLine
 10
2608.599999999997
 20
4153.582580843269
 30
0.0
 11
2628.099999999997
 21
4153.582580843269
 31
0.0
  0
LINE
  5
163CA
330
747D
100
AcDbEntity
  8
部品1
100
AcDbLine
 10
2638.599999999993
 20
4206.082580843268
 30
0.0
 11
2634.599999999997
 21
4206.082580843268
 31
0.0
  0
LINE
  5
163CB
330
747D
100
AcDbEntity
  8
部品1
100
AcDbLine
 10
2638.599999999997
 20
4206.082580843268
 30
0.0
 11
2638.599999999993
 21
4213.282580843269
 31
0.0
  0
LINE
  5
163CC
330
747D
100
AcDbEntity
  8
部品1
100
AcDbLine
 10
2635.799999999998
 20
4206.082580843268
 30
0.0
 11
2637.399999999996
 21
4206.082580843268
 31
0.0
  0
LINE
  5
163CD
330
747D
100
AcDbEntity
  8
部品1
100
AcDbLine
 10
2634.599999999997
 20
4155.582580843269
 30
0.0
 11
2634.599999999997
 21
4206.082580843265
 31
0.0
  0
LINE
  5
163CE
330
747D
100
AcDbEntity
  8
部品1
 48
50.0
100
AcDbLine
 10
2634.599999999997
 20
4171.582580843267
 30
0.0
 11
2608.599999999997
 21
4171.582580843269
 31
0.0
  0
LINE
  5
163CF
330
747D
100
AcDbEntity
  8
部品1
 48
50.0
100
AcDbLine
 10
2639.099999999993
 20
4165.58258084327
 30
0.0
 11
2639.099999999993
 21
4152.582580843269
 31
0.0
  0
LINE
  5
163D0
330
747D
100
AcDbEntity
  8
部品1
 48
50.0
100
AcDbLine
 10
2639.099999999993
 20
4152.582580843269
 30
0.0
 11
2632.099999999993
 21
4152.582580843269
 31
0.0
  0
LINE
  5
163D1
330
747D
100
AcDbEntity
  8
部品1
 48
50.0
100
AcDbLine
 10
2632.099999999993
 20
4152.582580843269
 30
0.0
 11
2632.099999999993
 21
4143.582580843268
 31
0.0
  0
LINE
  5
163D2
330
747D
100
AcDbEntity
  8
部品1
 48
50.0
100
AcDbLine
 10
2639.099999999993
 20
4155.082580843267
 30
0.0
 11
2638.599999999997
 21
4155.082580843267
 31
0.0
  0
LINE
  5
163D3
330
747D
100
AcDbEntity
  8
部品1
 48
50.0
100
AcDbLine
 10
2922.599999999993
 20
4165.58258084327
 30
0.0
 11
2922.599999999993
 21
4143.582580843268
 31
0.0
  0
LINE
  5
163D4
330
747D
100
AcDbEntity
  8
部品1
 48
50.0
100
AcDbLine
 10
2887.599999999993
 20
4165.58258084327
 30
0.0
 11
2887.599999999993
 21
4143.582580843268
 31
0.0
  0
LINE
  5
163D5
330
747D
100
AcDbEntity
  8
部品1
 48
50.0
100
AcDbLine
 10
3131.099999999997
 20
4115.582580843256
 30
0.0
 11
3131.099999999997
 21
4137.582580843257
 31
0.0
  0
LINE
  5
163D6
330
747D
100
AcDbEntity
  8
部品1
 48
50.0
100
AcDbLine
 10
3417.099999999997
 20
4137.582580843257
 30
0.0
 11
3417.099999999997
 21
4115.582580843256
 31
0.0
  0
LINE
  5
163D7
330
747D
100
AcDbEntity
  8
部品1
 48
50.0
100
AcDbLine
 10
3382.099999999997
 20
4137.582580843257
 30
0.0
 11
3382.099999999997
 21
4115.582580843256
 31
0.0
  0
LINE
  5
163D8
330
747D
100
AcDbEntity
  8
部品1
 48
50.0
100
AcDbLine
 10
3171.099999999993
 20
4139.582580843269
 30
0.0
 11
3171.099999999993
 21
4165.58258084327
 31
0.0
  0
LINE
  5
163D9
330
747D
100
AcDbEntity
  8
部品1
 48
50.0
100
AcDbLine
 10
3171.099999999993
 20
4139.582580843269
 30
0.0
 11
3151.099999999993
 21
4139.582580843269
 31
0.0
  0
LINE
  5
163DA
330
747D
100
AcDbEntity
  8
部品1
 48
50.0
100
AcDbLine
 10
3151.099999999993
 20
4139.582580843269
 30
0.0
 11
3151.099999999993
 21
4143.582580843268
 31
0.0
  0
LINE
  5
163DC
330
747D
100
AcDbEntity
  8
細線
 48
50.0
100
AcDbLine
 10
3141.599999999997
 20
4778.582580843269
 30
0.0
 11
2634.599999999997
 21
4778.582580843269
 31
0.0
  0
LINE
  5
163DE
330
747D
100
AcDbEntity
  8
部品1
 48
50.0
100
AcDbLine
 10
2622.599999999997
 20
4804.58258084327
 30
0.0
 11
2622.599999999997
 21
4787.582580843269
 31
0.0
  0
LINE
  5
163DF
330
747D
100
AcDbEntity
  8
部品1
 48
50.0
100
AcDbLine
 10
2608.599999999997
 20
4734.582580843269
 30
0.0
 11
2634.599999999997
 21
4734.582580843269
 31
0.0
  0
LINE
  5
163E0
330
747D
100
AcDbEntity
  8
部品1
 48
50.0
100
AcDbLine
 10
2630.099999999997
 20
4770.582580843269
 30
0.0
 11
2638.599999999997
 21
4770.582580843269
 31
0.0
  0
LINE
  5
163E1
330
747D
100
AcDbEntity
  8
部品1
 48
50.0
100
AcDbLine
 10
2638.599999999997
 20
4770.582580843269
 30
0.0
 11
2638.599999999997
 21
4775.582580843269
 31
0.0
  0
LINE
  5
163E2
330
747D
100
AcDbEntity
  8
部品1
100
AcDbLine
 10
2638.599999999997
 20
4749.582580843269
 30
0.0
 11
2638.599999999997
 21
4742.582580843269
 31
0.0
  0
LINE
  5
163E3
330
747D
100
AcDbEntity
  8
部品1
100
AcDbLine
 10
2634.599999999997
 20
4749.582580843269
 30
0.0
 11
2638.599999999997
 21
4749.582580843269
 31
0.0
  0
LINE
  5
163E4
330
747D
100
AcDbEntity
  8
部品1
100
AcDbLine
 10
2634.599999999997
 20
4770.582580843269
 30
0.0
 11
2634.599999999997
 21
4749.582580843269
 31
0.0
  0
LINE
  5
163E5
330
747D
100
AcDbEntity
  8
部品1
 48
50.0
100
AcDbLine
 10
2630.099999999997
 20
4787.582580843269
 30
0.0
 11
2630.099999999997
 21
4770.582580843269
 31
0.0
  0
LINE
  5
163E6
330
747D
100
AcDbEntity
  8
部品1
 48
50.0
100
AcDbLine
 10
2622.599999999997
 20
4787.582580843269
 30
0.0
 11
2634.599999999997
 21
4787.582580843269
 31
0.0
  0
LINE
  5
163E7
330
747D
100
AcDbEntity
  8
部品1
 48
50.0
100
AcDbLine
 10
2634.599999999997
 20
4787.582580843269
 30
0.0
 11
2634.599999999997
 21
4775.582580843269
 31
0.0
  0
LINE
  5
163E8
330
747D
100
AcDbEntity
  8
部品1
 48
50.0
100
AcDbLine
 10
2905.599999999997
 20
4804.58258084327
 30
0.0
 11
2900.599999999997
 21
4778.582580843269
 31
0.0
  0
LINE
  5
163E9
330
747D
100
AcDbEntity
  8
部品1
 48
50.0
100
AcDbLine
 10
2870.599999999997
 20
4804.58258084327
 30
0.0
 11
2875.599999999997
 21
4778.582580843269
 31
0.0
  0
LINE
  5
163EA
330
747D
100
AcDbEntity
  8
部品1
 48
50.0
100
AcDbLine
 10
3153.599999999997
 20
4804.58258084327
 30
0.0
 11
3153.599999999997
 21
4787.582580843269
 31
0.0
  0
LINE
  5
163EB
330
747D
100
AcDbEntity
  8
部品1
 48
50.0
100
AcDbLine
 10
3141.599999999997
 20
4787.582580843269
 30
0.0
 11
3141.599999999997
 21
4775.582580843269
 31
0.0
  0
LINE
  5
163EC
330
747D
100
AcDbEntity
  8
部品1
 48
50.0
100
AcDbLine
 10
3165.599999999997
 20
4787.582580843269
 30
0.0
 11
3165.599999999997
 21
4775.582580843269
 31
0.0
  0
LINE
  5
163ED
330
747D
100
AcDbEntity
  8
部品1
 48
50.0
100
AcDbLine
 10
3165.599999999997
 20
4787.582580843269
 30
0.0
 11
3141.599999999997
 21
4787.582580843269
 31
0.0
  0
LINE
  5
163EF
330
747D
100
AcDbEntity
  8
部品1
 48
50.0
100
AcDbLine
 10
3436.599999999997
 20
4804.58258084327
 30
0.0
 11
3431.599999999997
 21
4778.582580843269
 31
0.0
  0
LINE
  5
163F0
330
747D
100
AcDbEntity
  8
部品1
 48
50.0
100
AcDbLine
 10
3401.599999999997
 20
4804.58258084327
 30
0.0
 11
3406.599999999997
 21
4778.582580843269
 31
0.0
  0
LINE
  5
163F1
330
747D
100
AcDbEntity
  8
部品1
 48
50.0
100
AcDbLine
 10
3698.599999999997
 20
4109.582580843269
 30
0.0
 11
3698.600000000001
 21
4804.58258084327
 31
0.0
  0
LINE
  5
163F2
330
747D
100
AcDbEntity
  8
細線
 48
50.0
100
AcDbLine
 10
3672.599999999997
 20
4749.582580843269
 30
0.0
 11
3672.599999999997
 21
4206.082580843265
 31
0.0
  0
LINE
  5
163F3
330
747D
100
AcDbEntity
  8
部品1
 48
50.0
100
AcDbLine
 10
3669.599999999997
 20
4749.582580843269
 30
0.0
 11
3669.600000000001
 21
4206.082580843268
 31
0.0
  0
DIMENSION
  5
163F5
330
747D
100
AcDbEntity
  8
寸法
 48
50.0
100
AcDbDimension
  2
*D24
 10
4054.624603998783
 20
4171.582580843269
 30
0.0
 11
4154.624603998783
 21
4473.582580843269
 31
0.0
 12
-15906.93273708219
 22
0.0
 32
0.0
 70
    32
  1
内部寸法\P<>
 71
     5
 42
-1.0
  3
INABA_S20G
100
AcDbAlignedDimension
 13
3698.600000000001
 23
4775.582580843269
 33
0.0
 14
3698.599999999997
 24
4171.582580843269
 34
0.0
 50
90.0
100
AcDbRotatedDimension
  0
DIMENSION
  5
163F6
330
747D
100
AcDbEntity
  8
寸法
 48
50.0
100
AcDbDimension
  2
*D21
 10
4200.800861439182
 20
4104.582580843267
 30
0.0
 11
4350.800861439181
 21
4454.582580843267
 31
0.0
 12
-15906.93273708219
 22
0.0
 32
0.0
 70
    32
 71
     5
 42
-1.0
  3
INABA_S20G
100
AcDbAlignedDimension
 13
3698.599999999997
 23
4804.58258084327
 33
0.0
 14
3703.599999999997
 24
4104.582580843267
 34
0.0
 50
90.0
100
AcDbRotatedDimension
  0
LINE
  5
163F7
330
747D
100
AcDbEntity
  8
部品1
100
AcDbLine
 10
3703.599999999997
 20
4108.555801531942
 30
0.0
 11
3703.599999999997
 21
4147.582580843269
 31
0.0
  0
LINE
  5
163F8
330
747D
100
AcDbEntity
  8
部品1
 48
50.0
100
AcDbLine
 10
3679.099999999997
 20
4109.582580843269
 30
0.0
 11
3679.1
 21
4153.582580843269
 31
0.0
  0
LINE
  5
163F9
330
747D
100
AcDbEntity
  8
部品1
 48
50.0
100
AcDbLine
 10
3668.099999999997
 20
4137.582580843257
 30
0.0
 11
3668.099999999997
 21
4124.582580843256
 31
0.0
  0
LINE
  5
163FA
330
747D
100
AcDbEntity
  8
部品1
100
AcDbLine
 10
3668.599999999997
 20
4124.582580843256
 30
0.0
 11
3668.600000000001
 21
4171.582580843269
 31
0.0
  0
LINE
  5
163FB
330
747D
100
AcDbEntity
  8
部品1
 48
50.0
100
AcDbLine
 10
3698.599999999997
 20
4109.582580843269
 30
0.0
 11
3679.099999999997
 21
4109.582580843269
 31
0.0
  0
ARC
  5
163FC
330
747D
100
AcDbEntity
  8
部品1
100
AcDbCircle
 10
3686.599999999997
 20
4164.582580843268
 30
0.0
 40
58.0
100
AcDbArc
 50
264.5460728224942
 51
274.4587817153327
  0
ARC
  5
163FD
330
747D
100
AcDbEntity
  8
部品1
100
AcDbCircle
 10
3686.599999999997
 20
4164.582580843268
 30
0.0
 40
60.0
100
AcDbArc
 50
253.9866055760513
 51
262.5702583891818
  0
ARC
  5
163FE
330
747D
100
AcDbEntity
  8
部品1
100
AcDbCircle
 10
3670.599999999997
 20
4108.833141384202
 30
0.0
 40
2.0
100
AcDbArc
 50
179.9999999999971
 51
253.9866055760512
  0
ARC
  5
163FF
330
747D
100
AcDbEntity
  8
部品1
100
AcDbCircle
 10
3679.099999999997
 20
4107.069538844084
 30
0.0
 40
2.0
100
AcDbArc
 50
262.5702583891838
 51
353.5581656058383
  0
ARC
  5
16400
330
747D
100
AcDbEntity
  8
部品1
100
AcDbCircle
 10
3701.599999999997
 20
4108.555801531942
 30
0.0
 40
2.0
100
AcDbArc
 50
284.9882344823052
 51
0.0
  0
ARC
  5
16401
330
747D
100
AcDbEntity
  8
部品1
100
AcDbCircle
 10
3686.599999999997
 20
4164.582580843268
 30
0.0
 40
60.0
100
AcDbArc
 50
276.434596148645
 51
284.9882344823051
  0
ARC
  5
16402
330
747D
100
AcDbEntity
  8
部品1
100
AcDbCircle
 10
3693.099999999997
 20
4106.947955833645
 30
0.0
 40
2.0
100
AcDbArc
 50
185.4466889319887
 51
276.4345961486433
  0
LINE
  5
16403
330
747D
100
AcDbEntity
  8
部品1
100
AcDbLine
 10
3668.599999999997
 20
4108.833141384202
 30
0.0
 11
3668.599999999997
 21
4115.582580843256
 31
0.0
  0
LINE
  5
16404
330
747D
100
AcDbEntity
  8
部品1
100
AcDbLine
 10
3677.599999999997
 20
4114.582580843268
 30
0.0
 11
3677.599999999997
 21
4125.582580843269
 31
0.0
  0
ARC
  5
16405
330
747D
100
AcDbEntity
  8
部品1
100
AcDbCircle
 10
3675.599999999997
 20
4114.582580843268
 30
0.0
 40
2.0
100
AcDbArc
 50
270.0000000000063
 51
0.0000000000004326
  0
LINE
  5
16406
330
747D
100
AcDbEntity
  8
部品1
100
AcDbLine
 10
3668.599999999997
 20
4112.582580843267
 30
0.0
 11
3675.599999999997
 21
4112.582580843269
 31
0.0
  0
ARC
  5
16407
330
747D
100
AcDbEntity
  8
部品1
100
AcDbCircle
 10
3675.599999999997
 20
4125.582580843269
 30
0.0
 40
2.0
100
AcDbArc
 50
0.0
 51
89.99999999999941
  0
LINE
  5
16408
330
747D
100
AcDbEntity
  8
部品1
100
AcDbLine
 10
3673.799999999998
 20
4127.582580843269
 30
0.0
 11
3675.599999999997
 21
4127.582580843269
 31
0.0
  0
LINE
  5
16409
330
747D
100
AcDbEntity
  8
部品1
100
AcDbLine
 10
3668.599999999997
 20
4127.582580843269
 30
0.0
 11
3675.599999999997
 21
4127.582580843269
 31
0.0
  0
LINE
  5
1640A
330
747D
100
AcDbEntity
  8
部品1
 48
50.0
100
AcDbLine
 10
3668.599999999997
 20
4127.082580843269
 30
0.0
 11
3668.099999999997
 21
4127.082580843269
 31
0.0
  0
LINE
  5
1640B
330
747D
100
AcDbEntity
  8
部品1
 48
50.0
100
AcDbLine
 10
3668.099999999997
 20
4124.582580843256
 30
0.0
 11
3675.099999999997
 21
4124.582580843256
 31
0.0
  0
LINE
  5
1640C
330
747D
100
AcDbEntity
  8
部品1
 48
50.0
100
AcDbLine
 10
3675.099999999997
 20
4124.582580843256
 30
0.0
 11
3675.099999999997
 21
4115.582580843256
 31
0.0
  0
LINE
  5
1640D
330
747D
100
AcDbEntity
  8
部品1
100
AcDbLine
 10
3672.599999999997
 20
4151.082580843271
 30
0.0
 11
3672.600000000001
 21
4206.082580843265
 31
0.0
  0
ARC
  5
1640E
330
747D
100
AcDbEntity
  8
部品1
100
AcDbCircle
 10
3701.599999999997
 20
4147.582580843269
 30
0.0
 40
2.0
100
AcDbArc
 50
0.0
 51
90.00000000000026
  0
LINE
  5
1640F
330
747D
100
AcDbEntity
  8
部品1
100
AcDbLine
 10
3701.599999999997
 20
4149.582580843269
 30
0.0
 11
3699.599999999997
 21
4149.582580843269
 31
0.0
  0
LINE
  5
16410
330
747D
100
AcDbEntity
  8
部品1
100
AcDbLine
 10
3701.599999999997
 20
4149.582580843269
 30
0.0
 11
3698.599999999997
 21
4149.582580843269
 31
0.0
  0
LINE
  5
16411
330
747D
100
AcDbEntity
  8
部品1
100
AcDbLine
 10
3668.599999999997
 20
4171.582580843269
 30
0.0
 11
3698.599999999997
 21
4171.582580843269
 31
0.0
  0
LINE
  5
16412
330
747D
100
AcDbEntity
  8
部品1
100
AcDbLine
 10
3671.399999999997
 20
4206.082580843268
 30
0.0
 11
3669.799999999997
 21
4206.082580843268
 31
0.0
  0
LINE
  5
16413
330
747D
100
AcDbEntity
  8
部品1
100
AcDbLine
 10
3668.600000000001
 20
4206.082580843268
 30
0.0
 11
3668.600000000001
 21
4213.282580843269
 31
0.0
  0
LINE
  5
16414
330
747D
100
AcDbEntity
  8
部品1
100
AcDbLine
 10
3668.600000000001
 20
4206.082580843268
 30
0.0
 11
3672.599999999997
 21
4206.082580843268
 31
0.0
  0
LINE
  5
16415
330
747D
100
AcDbEntity
  8
部品1
 48
50.0
100
AcDbLine
 10
3698.599999999997
 20
4153.582580843269
 30
0.0
 11
3679.1
 21
4153.582580843269
 31
0.0
  0
LINE
  5
16416
330
747D
100
AcDbEntity
  8
部品1
 48
50.0
100
AcDbLine
 10
3698.599999999997
 20
4219.582580843269
 30
0.0
 11
3672.600000000001
 21
4219.582580843269
 31
0.0
  0
LINE
  5
16417
330
747D
100
AcDbEntity
  8
部品1
 48
50.0
100
AcDbLine
 10
3679.099999999997
 20
4144.582580843269
 30
0.0
 11
3672.599999999997
 21
4151.082580843271
 31
0.0
  0
LINE
  5
16418
330
747D
100
AcDbEntity
  8
部品1
 48
50.0
100
AcDbLine
 10
3698.599999999997
 20
4171.582580843269
 30
0.0
 11
3672.599999999997
 21
4171.582580843269
 31
0.0
  0
LINE
  5
16419
330
747D
100
AcDbEntity
  8
部品1
 48
50.0
100
AcDbLine
 10
3684.599999999997
 20
4804.58258084327
 30
0.0
 11
3684.599999999997
 21
4787.582580843269
 31
0.0
  0
LINE
  5
1641A
330
747D
100
AcDbEntity
  8
部品1
 48
50.0
100
AcDbLine
 10
3684.599999999997
 20
4787.582580843269
 30
0.0
 11
3672.599999999997
 21
4787.582580843269
 31
0.0
  0
LINE
  5
1641B
330
747D
100
AcDbEntity
  8
部品1
 48
50.0
100
AcDbLine
 10
3677.099999999997
 20
4787.582580843269
 30
0.0
 11
3677.099999999997
 21
4770.582580843269
 31
0.0
  0
LINE
  5
1641C
330
747D
100
AcDbEntity
  8
部品1
 48
50.0
100
AcDbLine
 10
3677.099999999997
 20
4770.582580843269
 30
0.0
 11
3668.600000000001
 21
4770.582580843269
 31
0.0
  0
LINE
  5
1641D
330
747D
100
AcDbEntity
  8
部品1
100
AcDbLine
 10
3672.600000000001
 20
4770.582580843269
 30
0.0
 11
3672.600000000001
 21
4749.582580843269
 31
0.0
  0
LINE
  5
1641E
330
747D
100
AcDbEntity
  8
部品1
100
AcDbLine
 10
3668.600000000001
 20
4749.582580843269
 30
0.0
 11
3668.600000000001
 21
4742.582580843269
 31
0.0
  0
LINE
  5
1641F
330
747D
100
AcDbEntity
  8
部品1
100
AcDbLine
 10
3672.600000000001
 20
4749.582580843269
 30
0.0
 11
3668.600000000001
 21
4749.582580843269
 31
0.0
  0
LINE
  5
16420
330
747D
100
AcDbEntity
  8
部品1
 48
50.0
100
AcDbLine
 10
3668.600000000001
 20
4770.582580843269
 30
0.0
 11
3668.600000000001
 21
4775.582580843269
 31
0.0
  0
LINE
  5
16421
330
747D
100
AcDbEntity
  8
部品1
 48
50.0
100
AcDbLine
 10
3698.599999999997
 20
4734.582580843269
 30
0.0
 11
3672.600000000001
 21
4734.582580843269
 31
0.0
  0
LINE
  5
16422
330
747D
100
AcDbEntity
  8
部品1
 48
50.0
100
AcDbLine
 10
3672.599999999997
 20
4787.582580843269
 30
0.0
 11
3672.599999999997
 21
4775.582580843269
 31
0.0
  0
LINE
  5
164FC
330
747D
100
AcDbEntity
  8
部品1
 48
50.0
100
AcDbLine
 10
2662.599999999997
 20
4321.08258084327
 30
0.0
 11
2662.599999999997
 21
4296.082580843269
 31
0.0
  0
LINE
  5
164FD
330
747D
100
AcDbEntity
  8
部品1
 48
50.0
100
AcDbLine
 10
2662.599999999997
 20
4321.08258084327
 30
0.0
 11
2637.599999999997
 21
4321.08258084327
 31
0.0
  0
LINE
  5
164FE
330
747D
100
AcDbEntity
  8
部品1
 48
50.0
100
AcDbLine
 10
2662.599999999997
 20
4296.082580843269
 30
0.0
 11
2637.599999999997
 21
4296.082580843269
 31
0.0
  0
LINE
  5
164FF
330
747D
100
AcDbEntity
  8
部品1
 48
50.0
100
AcDbLine
 10
3644.600000000004
 20
4321.08258084327
 30
0.0
 11
3644.600000000004
 21
4296.082580843269
 31
0.0
  0
LINE
  5
16500
330
747D
100
AcDbEntity
  8
部品1
 48
50.0
100
AcDbLine
 10
3644.600000000004
 20
4296.082580843269
 30
0.0
 11
3669.600000000004
 21
4296.082580843269
 31
0.0
  0
LINE
  5
16501
330
747D
100
AcDbEntity
  8
部品1
 48
50.0
100
AcDbLine
 10
3644.600000000004
 20
4321.08258084327
 30
0.0
 11
3669.600000000004
 21
4321.08258084327
 31
0.0
  0
OLE2FRAME
  5
16536
330
747D
100
AcDbEntity
  8
寸法
 48
50.0
100
AcDbOle2Frame
 70
     2
  3
Microsoft Office Excel ワークシート
 10
6553.591699265486
 20
5700.859317874522
 30
0.0
 11
8151.507359507411
 21
4741.322846016337
 31
0.0
 71
     2
 72
     0
 73
     1
 90
    19072
310
805554629A799799B940F19741FCDB44B6400000000000000000A60B50E281D7
310
BF40F19741FCDB44B6400000000000000000A60B50E281D7BF40CF5909A65285
310
B240000000000000000054629A799799B940CF5909A65285B240000000000000
310
00003D1FB01201000000000100001200000001000000010001000000004A0000
310
D0CF11E0A1B11AE1000000000000000000000000000000003E000300FEFF0900
310
0600000000000000000000000100000001000000000000000010000002000000
310
01000000FEFFFFFF0000000000000000FFFFFFFFFFFFFFFFFFFFFFFFFFFFFFFF
310
FFFFFFFFFFFFFFFFFFFFFFFFFFFFFFFFFFFFFFFFFFFFFFFFFFFFFFFFFFFFFFFF
310
FFFFFFFFFFFFFFFFFFFFFFFFFFFFFFFFFFFFFFFFFFFFFFFFFFFFFFFFFFFFFFFF
310
FFFFFFFFFFFFFFFFFFFFFFFFFFFFFFFFFFFFFFFFFFFFFFFFFFFFFFFFFFFFFFFF
310
FFFFFFFFFFFFFFFFFFFFFFFFFFFFFFFFFFFFFFFFFFFFFFFFFFFFFFFFFFFFFFFF
310
FFFFFFFFFFFFFFFFFFFFFFFFFFFFFFFFFFFFFFFFFFFFFFFFFFFFFFFFFFFFFFFF
310
FFFFFFFFFFFFFFFFFFFFFFFFFFFFFFFFFFFFFFFFFFFFFFFFFFFFFFFFFFFFFFFF
310
FFFFFFFFFFFFFFFFFFFFFFFFFFFFFFFFFFFFFFFFFFFFFFFFFFFFFFFFFFFFFFFF
310
FFFFFFFFFFFFFFFFFFFFFFFFFFFFFFFFFFFFFFFFFFFFFFFFFFFFFFFFFFFFFFFF
310
FFFFFFFFFFFFFFFFFFFFFFFFFFFFFFFFFFFFFFFFFFFFFFFFFFFFFFFFFFFFFFFF
310
FFFFFFFFFFFFFFFFFFFFFFFFFFFFFFFFFFFFFFFFFFFFFFFFFFFFFFFFFFFFFFFF
310
FFFFFFFFFFFFFFFFFFFFFFFFFFFFFFFFFFFFFFFFFFFFFFFFFFFFFFFFFFFFFFFF
310
FFFFFFFFFFFFFFFFFFFFFFFFFFFFFFFFFFFFFFFFFFFFFFFFFFFFFFFFFFFFFFFF
310
FFFFFFFFFFFFFFFFFFFFFFFFFFFFFFFFFFFFFFFFFFFFFFFFFFFFFFFFFFFFFFFF
310
FDFFFFFF0F000000FEFFFFFF1000000005000000060000000700000008000000
310
090000000A0000000B0000000C0000000D0000000E000000FEFFFFFF1A000000
310
1100000012000000130000001400000015000000160000001700000018000000
310
19000000FEFFFFFFFEFFFFFF1C0000001D0000001E0000001F00000020000000
310
210000002200000023000000FEFFFFFFFFFFFFFFFFFFFFFFFFFFFFFFFFFFFFFF
310
FFFFFFFFFFFFFFFFFFFFFFFFFFFFFFFFFFFFFFFFFFFFFFFFFFFFFFFFFFFFFFFF
310
FFFFFFFFFFFFFFFFFFFFFFFFFFFFFFFFFFFFFFFFFFFFFFFFFFFFFFFFFFFFFFFF
310
FFFFFFFFFFFFFFFFFFFFFFFFFFFFFFFFFFFFFFFFFFFFFFFFFFFFFFFFFFFFFFFF
310
FFFFFFFFFFFFFFFFFFFFFFFFFFFFFFFFFFFFFFFFFFFFFFFFFFFFFFFFFFFFFFFF
310
FFFFFFFFFFFFFFFFFFFFFFFFFFFFFFFFFFFFFFFFFFFFFFFFFFFFFFFFFFFFFFFF
310
FFFFFFFFFFFFFFFFFFFFFFFFFFFFFFFFFFFFFFFFFFFFFFFFFFFFFFFFFFFFFFFF
310
FFFFFFFFFFFFFFFFFFFFFFFFFFFFFFFFFFFFFFFFFFFFFFFFFFFFFFFFFFFFFFFF
310
FFFFFFFFFFFFFFFFFFFFFFFFFFFFFFFFFFFFFFFFFFFFFFFFFFFFFFFFFFFFFFFF
310
FFFFFFFFFFFFFFFFFFFFFFFFFFFFFFFFFFFFFFFFFFFFFFFFFFFFFFFFFFFFFFFF
310
FFFFFFFFFFFFFFFFFFFFFFFFFFFFFFFFFFFFFFFFFFFFFFFFFFFFFFFFFFFFFFFF
310
FFFFFFFFFFFFFFFFFFFFFFFFFFFFFFFFFFFFFFFFFFFFFFFFFFFFFFFFFFFFFFFF
310
52006F006F007400200045006E00740072007900000000000000000000000000
310
0000000000000000000000000000000000000000000000000000000000000000
310
16000500FFFFFFFFFFFFFFFF010000002008020000000000C000000000000046
310
0000000000000000000000002056EFF2C09EC801030000008015000000000000
310
57006F0072006B0062006F006F006B0000000000000000000000000000000000
310
0000000000000000000000000000000000000000000000000000000000000000
310
120002010500000003000000FFFFFFFF00000000000000000000000000000000
310
000000000000000000000000000000000000000004000000DF14000000000000
310
010043006F006D0070004F0062006A0000000000000000000000000000000000
310
0000000000000000000000000000000000000000000000000000000000000000
310
12000200FFFFFFFFFFFFFFFFFFFFFFFF00000000000000000000000000000000
310
0000000000000000000000000000000000000000000000006900000000000000
310
0500530075006D006D0061007200790049006E0066006F0072006D0061007400
310
69006F006E000000000000000000000000000000000000000000000000000000
310
280002000600000004000000FFFFFFFF00000000000000000000000000000000
310
000000000000000000000000000000000000000002000000D000000000000000
310
01000000FEFFFFFF030000000400000005000000FEFFFFFF0700000008000000
310
090000000A000000FEFFFFFFFEFFFFFFFFFFFFFFFFFFFFFFFFFFFFFFFFFFFFFF
310
FFFFFFFFFFFFFFFFFFFFFFFFFFFFFFFFFFFFFFFFFFFFFFFFFFFFFFFFFFFFFFFF
310
FFFFFFFFFFFFFFFFFFFFFFFFFFFFFFFFFFFFFFFFFFFFFFFFFFFFFFFFFFFFFFFF
310
FFFFFFFFFFFFFFFFFFFFFFFFFFFFFFFFFFFFFFFFFFFFFFFFFFFFFFFFFFFFFFFF
310
FFFFFFFFFFFFFFFFFFFFFFFFFFFFFFFFFFFFFFFFFFFFFFFFFFFFFFFFFFFFFFFF
310
FFFFFFFF32000000330000003400000035000000360000003700000038000000
310
390000003A0000003B0000003C0000003D0000003E0000003F00000040000000
310
4100000042000000430000004400000045000000460000004700000048000000
310
490000004A0000004B0000004C0000004D0000004E0000004F00000050000000
310
5100000052000000530000005400000055000000FEFFFFFFFFFFFFFFFFFFFFFF
310
FFFFFFFFFFFFFFFFFFFFFFFFFFFFFFFFFFFFFFFFFFFFFFFFFFFFFFFFFFFFFFFF
310
FFFFFFFFFFFFFFFFFFFFFFFFFFFFFFFFFFFFFFFFFFFFFFFFFFFFFFFFFFFFFFFF
310
FFFFFFFFFFFFFFFFFFFFFFFFFFFFFFFFFFFFFFFFFFFFFFFFFFFFFFFFFFFFFFFF
310
FFFFFFFFFFFFFFFFFFFFFFFFFFFFFFFFFFFFFFFFFFFFFFFFFFFFFFFFFFFFFFFF
310
FFFFFFFFFFFFFFFFFFFFFFFFFFFFFFFFFFFFFFFFFFFFFFFFFFFFFFFFFFFFFFFF
310
0100FEFF030A0000FFFFFFFF2008020000000000C0000000000000461D000000
310
4D6963726F736F667420457863656C20838F815B834E8356815B836700060000
310
004269666638000E000000457863656C2E53686565742E3800F439B271000000
310
0000000000000000000000000000000000000000000000000000000000000000
310
FEFF0000040A02000000000000000000000000000000000001000000E0859FF2
310
F94F6810AB9108002B27B3D930000000A0000000070000000100000040000000
310
0400000048000000080000005800000012000000680000000C00000080000000
310
0D0000008C000000130000009800000002000000A40300001E00000007000000
310
909B96EC90BD00001E000000050000004E455A5500BD00001E00000010000000
310
4D6963726F736F667420457863656C004000000080A21A0EE4E2BE0140000000
310
002AE7A4BF5BC301030000000000000000000000000000000000000000000000
310
0000000000000000000000000000000000000000000000000000000000000000
310
FEFF0000040A0200000000000000000000000000000000000100000002D5CDD5
310
9C2E1B10939708002B2CF9AE30000000EC000000090000000100000050000000
310
0F0000005800000017000000740000000B0000007C0000001000000084000000
310
130000008C00000016000000940000000D0000009C0000000C000000C5000000
310
0908100000060500FE1CCD074140000006010000E1000200B004C10002000000
310
E20000005C0070000400004E455A552020202020202020202020202020202020
310
2020202020202020202020202020202020202020202020202020202020202020
310
2020202020202020202020202020202020202020202020202020202020202020
310
20202020202020202020202020202020202020202020202042000200B0046101
310
02000000C00100003D0106000100020003009C0002000E00DE000800A4270100
310
0B000103190002000000120002000000130002000000AF0102000000BC010200
310
00003D0012008403FF00FC21C012380000000000010058024000020000008D00
310
020000002200020000000E0002000100B70102000000DA000200000031002000
310
DC000000FF7F900100000000800008012DFF33FF200030FFB430B730C330AF30
310
31002000DC000000FF7F900100000000800008012DFF33FF200030FFB430B730
310
C330AF3031002000DC000000FF7F900100000000800008012DFF33FF200030FF
310
B430B730C330AF3031002000DC000000FF7F900100000000800008012DFF33FF
310
200030FFB430B730C330AF303100200078000000FF7F90010000000380000801
310
2DFF33FF200030FFB430B730C330AF301E0418000500130000225C22232C2323
310
303B225C225C2D232C2323301E041D000600180000225C22232C2323303B5B52
310
65645D225C225C2D232C2323301E041E000700190000225C22232C2323302E30
310
303B225C225C2D232C2323302E30301E04230008001E0000225C22232C232330
310
2E30303B5B5265645D225C225C2D232C2323302E30301E0437002A003200005F
310
20225C222A20232C2323305F203B5F20225C222A205C2D232C2323305F203B5F
310
20225C222A20222D225F203B5F20405F201E042E0029002900005F202A20232C
310
2323305F203B5F202A205C2D232C2323305F203B5F202A20222D225F203B5F20
310
405F201E043F002C003A00005F20225C222A20232C2323302E30305F203B5F20
310
225C222A205C2D232C2323302E30305F203B5F20225C222A20222D223F3F5F20
310
3B5F20405F201E0436002B003100005F202A20232C2323302E30305F203B5F20
310
2A205C2D232C2323302E30305F203B5F202A20222D223F3F5F203B5F20405F20
310
1E041A0017001500005C24232C2323305F293B5C285C24232C2323305C291E04
310
1F0018001A00005C24232C2323305F293B5B5265645D5C285C24232C2323305C
310
291E04200019001B00005C24232C2323302E30305F293B5C285C24232C232330
310
2E30305C291E0425001A002000005C24232C2323302E30305F293B5B5265645D
310
5C285C24232C2323302E30305C29E000140000000000F5FF2000000000000000
310
00000000C020E000140001000000F5FF200000F40000000000000000C020E000
310
140001000000F5FF200000F40000000000000000C020E000140002000000F5FF
310
200000F40000000000000000C020E000140002000000F5FF200000F400000000
310
00000000C020E000140000000000F5FF200000F40000000000000000C020E000
310
140000000000F5FF200000F40000000000000000C020E000140000000000F5FF
310
200000F40000000000000000C020E000140000000000F5FF200000F400000000
310
00000000C020E000140000000000F5FF200000F40000000000000000C020E000
310
140000000000F5FF200000F40000000000000000C020E000140000000000F5FF
310
200000F40000000000000000C020E000140000000000F5FF200000F400000000
310
00000000C020E000140000000000F5FF200000F40000000000000000C020E000
310
140000000000F5FF200000F40000000000000000C020E0001400000000000100
310
200000000000000000000000C020E000140001000900F5FF200000F800000000
310
00000000C020E000140001002600F5FF200000F80000000000000000C020E000
310
140001002800F5FF200000F80000000000000000C020E000140001000600F5FF
310
200000F80000000000000000C020E000140001000800F5FF200000F800000000
310
00000000C020E0001400000000000100220000100000000000000000C020E000
310
1400000000000100200000200101400040000000C020E0001400000000000100
310
200000200001000040000000C020E00014000000000001002000002010010020
310
40000000C020E0001400000000000100220000300100400000000000C020E000
310
1400000000000100200000200000000000000000C020E0001400000000000100
310
220000301000002000000000C020E00014000000000001002200003001104000
310
00200000C020E0001400000000000100200000200010000000200000C020E000
310
1400000000000100220000301010002000200000C02093020400108005FF9302
310
0400118006FF93020400128003FF93020400138007FF93020400148004FF9302
310
0400008000FF60010200000085000E007F090000000006005368656574318500
310
0E001A1100000000060053686565743285000E000D1200000000060053686565
310
74338C00040051005100C1010800C101000080380100FC002302160000001100
310
0000020001C1546A75030001E890C1540D541A00014600310032009221B66E8D
310
879C4E5B92813063304D30FC927F67200028004A004900530020004700200033
310
00330030003200290005000120002000D930FC30B93007000120002000D930FC
310
30B9300B4EA0670400012000200074507F671900004631322020202020202020
310
2020202020202020202020302E36060001200020008A5ED130CD30EB30100001
310
5067996528005067EA8C290020002000200020002000200058534D4F6D006D00
310
19000410000000463132202020202020202020202020202020312E302C312E36
310
01000C000500350000000000000000000F0005100000003B20D930FC30B930BF
310
8A7465C47BF25620001AFF2000330032006D006D0001000C0005003500000000
310
0000000000030004100000004B4D5801000C0005003500000000000000000003
310
00052400000000308C5F7F670100200005003500020005000500A630B730ED30
310
A430BF3000000100010003000200010004000518000000200020004B5C396801
310
00140005003500010002000200E430CD300000020002000300051A0000002000
310
200049620100160005003500010003000300C830D330E9300000020001001900
310
041000000046313220202020202020202020202020202020202020302E360100
310
0C000500350000000000000000000800051800000020002000DA687F67280032
310
009A6729000100140005003500010002000200DE30A430000006000100FF001A
310
000800420700000C000000DD070000A70000002E090000F80100000A00000009
310
08100000061000FE1CCD0741400000060100000D00020001000C00020064000F
310
000200010011000200000010000800FCA9F1D24D62503F5F00020001002A0002
310
0000002B00020000008200020001008000080000000000000000002502040000
310
000E0181000200C10414000000150000008300020000008400020000004D0046
310
0300004500500053004F004E0020004C0050002D003800330030003000000084
310
FF000000000C000000000000009CFF2F0000006A004E0061FF4B002000000000
310
00040000042806D40070020303000002000800773D0000640001000700580201
310
000100580200000000FB302E00560077003D009EFF2F009FFF2F000E00FB3023
310
005700010077003D009EFF2F009EFF2F006F000100FB306F0001006000FB3000
310
0000000000000000009F01473D00000000040000000000F7000202EF00A0A017
310
3D00F33A87403D0000180100004487957F470115B1F9BF000000000100000000
310
00000008000000010000005734F0870400000000000000000086003634F7BF77
310
42F7BF00000000090009000D000C0001020B0001000600050007000E00250014
310
001B001C000300030204020900090000010000F2F78600534C3031D4F7860057
310
45F9BF000001007012781A01007012781A010002000100030002000300000000
310
0000000000001000000100010000000000000000000000000000000000000002
310
00444C4C4E616D6531363D455047414732334A2E4452560048BF485F01408803
310
000400010005000100010001000000000000003088A4DDB8480000BF48000001
310
000000A848000000005F01000000006400000002000200000000000000010000
310
000200009B0000000000000000EF00F43A3000473D040000001F017288B20A47
310
01BE48AA195E001F011C89E51B47012C00973D6500FFFF98006F019F34270601
310
000000AE480000434F4D4D4354524C004C4C0000494E444F57535C5359535445
310
4D5C4550474147323349274701700808000100B848000018010000D288957F47
310
01987F180101005F011489FB4A470164135F0100000000F8000000F288957F47
310
01987FB8481F015F012C89884C470164135F0100000000F80000002C8900001C
310
89B848473D180100002089957F4701987F180101005F016289FB4A470164135F
310
01B848473D18010000628900004A89A4DD568900000100000001000000180100
310
0047410000F70011000200000000001400190000003200000000000000000001
310
0000000300010000000000000001000000000001000000010001000100000000
310
0000000000000000000000000000000000000000000000000000000000000000
310
00000000000400A1002200080064000100010001000000FCFF0000FCA9F1D24D
310
62E03FFCA9F1D24D62E03F01005500020008007D000C0000000000600B0F0002
310
0000007D000C0001000100A0040F00020000007D000C0002000200A0100F0002
310
0000007D000C0003000300A0130F000200000000020E00010000000C00000000
310
0004000000080210000100000004000E010000000000010F0008021000020000
310
0004000E010000000000010F00080210000300000004000E010000000000010F
310
00080210000400000004000E010000000000010F00080210000500000004000E
310
010000000000010F00080210000600000004000E010000000000010F00080210
310
000700000004000E010000000000010F00080210000800000004000E01000000
310
0000010F00080210000900000004000E010000000000010F00080210000A0000
310
0004000E010000000000010F00080210000B00000004000E010000000000010F
310
00FD000A00010000000F000B000000FD000A0001000100160000000000FD000A
310
0001000200170001000000FD000A000100030018000800000001020600020000
310
000F007E020A000200010019000000F03FFD000A00020002001A0003000000FD
310
000A00020003001B000900000001020600030000000F007E020A000300010019
310
0000000040FD000A00030002001A0004000000FD000A00030003001B00090000
310
0001020600040000000F007E020A0004000100190000000840FD000A00040002
310
001A0005000000FD000A00040003001B000F00000001020600050000000F007E
310
020A0005000100190000001040FD000A00050002001A000C000000FD000A0005
310
0003001B000F00000001020600060000000F007E020A00060001001900000014
310
40FD000A00060002001A000D000000FD000A00060003001B000F000000010206
310
00070000000F007E020A0007000100190000001840FD000A00070002001A000E
310
000000FD000A00070003001B000600000001020600080000000F007E020A0008
310
000100190000001C40FD000A00080002001A0007000000FD000A00080003001B
310
000600000001020600090000000F007E020A00090001001C0000002040FD000A
310
00090002001D0010000000FD000A00090003001E0006000000010206000A0000
310
000F00FD000A000A0001000F0002000000BE000A000A0002000F001500030001
310
0206000B0000000F00FD000A000B0001000F000A000000BE000A000B0002000F
310
0015000300D7001A0000030000C8003800340034003400340034003400340034
310
0026003E021200B606000000004000000000000000000000001D000F00030A00
310
0200000001000A000A000202EF0006000500350000000A000000090810000006
310
1000FE1CCD0741400000060100000D00020001000C00020064000F0002000100
310
11000200000010000800FCA9F1D24D62503F5F00020001002A00020000002B00
310
020000008200020001008000080000000000000000002502040000000E018100
310
0200C1041400000015000000830002000000840002000000A100220000000E01
310
010001000100040000020202FCA9F1D24D62E03FFCA9F1D24D62E03F01005500
310
0200080000020E0000000000000001000000000000003E021200B60000000000
310
4000000000000000000000001D000F00030000000000000100000000000000EF
310
0006000500350000000A0000000908100000061000FE1CCD0741400000060100
310
000D00020001000C00020064000F000200010011000200000010000800FCA9F1
310
D24D62503F5F00020001002A00020000002B0002000000820002000100800008
310
0000000000000000002502040000000E0181000200C104140000001500000083
310
0002000000840002000000A100220000000E01010001000100040000000000FC
310
A9F1D24D62E03FFCA9F1D24D62E03F010055000200080000020E000000000000
310
0001000000000000003E021200B600000000004000000000000000000000001D
310
000F00030000000000000100000000000000EF0006000500350000000A000000
310
00020E0000000000000001000000000000003E021200B6000000000040000000
310
00000000000000001D000F00030000000000000100000000000000EF00060005
310
00350000000A0000001200B600000000004000000000000000000000001D000F
310
00030000000000000100000000000000EF0006000500350000000A0000000101
310
0001000100040100010303FCA9F1D24D62E03FFCA9F1D24D62E03FFF20550002
310
00080000020E0000000000000001000000000000003E021200B6000000000040
310
00000000000000000000001D000F00030000000000000100000000000000EF00
310
06000500350000000A0000000908100000061000FE1CCD074140000006010000
310
0D00020001000C00020064000F000200010011000200000010000800FCA9F1D2
310
4D62503F5F00020001002A00020000002B000200000082000200010080000800
310
00000000000000002502040000000E0181000200C10414000000150000008300
310
02000000840002000000A100220000000E01010001000100040000000000FCA9
310
F1D24D62E03FFCA9F1D24D62E03FFF2055000200080000020E00000000000000
310
01000000000000003E021200B600000000004000000000000000000000001D00
310
0F00030000000000000100000000000000EF0006000500350000000A00000000
310
0000000000000000000000000000000000000000000000000000000000000000
310
0000000000000000000000000000000000000000000000000000000000000000
310
0000000000000000000000000000000000000000000000000000000000000000
310
0000000000000000000000000000000000000000000000000000000000000000
310
0000000000000000000000000000000000000000000000000000000000000000
310
0000000000000000000000000000000000000000000000000000000000000000
310
0000000000000000000000000000000000000000000000000000000000000000
310
0000000000000000000000000000000000000000000000000000000000000000
310
0000000000000000000000000000000000000000000000000000000000000000
310
050044006F00630075006D0065006E007400530075006D006D00610072007900
310
49006E0066006F0072006D006100740069006F006E0000000000000000000000
310
38000201FFFFFFFFFFFFFFFFFFFFFFFF00000000000000000000000000000000
310
0000000000000000000000000000000000000000060000001C01000000000000
310
01004F006C006500000000000000000000000000000000000000000000000000
310
0000000000000000000000000000000000000000000000000000000000000000
310
0A000201FFFFFFFF02000000FFFFFFFF00000000000000000000000000000000
310
00000000000000000000000000000000000000000B0000003B00000000000000
310
02004F006C006500500072006500730030003000300000000000000000000000
310
0000000000000000000000000000000000000000000000000000000000000000
310
18000201FFFFFFFF07000000FFFFFFFF00000000000000000000000000000000
310
00000000000000000000000000000000000000001B0000004A10000000000000
310
02004F006C006500500072006500730030003000310000000000000000000000
310
0000000000000000000000000000000000000000000000000000000000000000
310
18000200FFFFFFFFFFFFFFFFFFFFFFFF00000000000000000000000000000000
310
0000000000000000000000000000000000000000310000001009000000000000
310
02000000A40300001E0000001100000081698A94816A88EE977490BB8DEC8F8A
310
0067007403000000ED0E09000B000000000000000B000000000000000B000000
310
000000000B000000000000001E10000003000000070000005368656574310007
310
0000005368656574320007000000536865657433000C100000020000001E0000
310
000D000000838F815B834E8356815B8367000300000003000000000000000000
310
0000000000000000000000000000000000000000000000000000000000000000
310
010000020000000000000000000000002B0000000403000000000000C0000000
310
00000046020000005C000D000000456D62656464696E67203138000000000000
310
FFFFFFFF030000000400000001000000FFFFFFFF0200000000000000E6210000
310
91140000041000000100090000036B04000005003D0000000000050000000902
310
00000000050000000102FFFFFF000400000004010D0004000000020102000500
310
00000C026A046107030000001E00040000002701FFFF030000001E0004000000
310
2701FFFF050000000B0200000000030000001E00050000000102FFFFFF000500
310
0000090200000000040000002701FFFF030000001E00050000000102FFFFFF00
310
050000000902000000000700000016046904600700000000040000002701FFFF
310
030000001E00050000000102FFFFFF0005000000090200000000070000001604
310
690460070000000015000000FB02A4FF00000000000090010000008000000000
310
826C827220826F835383568362834E008000040000002D010000040000000401
310
0D0004000000020101000D000000320A0900140004000000956994D45C000000
310
5C00000010000000320A0900E900060000009594956996BC5C0000005C000000
310
5C00000028000000320A0900E603160000008DDE97BF288DDE8EBF2920202020
310
2020925088CA6D6D5C0000005C0000001C005C0000005C0000001C001C001C00
310
1C001C001C001C005C0000005C0000004400440009000000320A6F005B000100
310
000031002E0013000000320A6F00E9000800000020208378815B83581C001C00
310
5700000058000000530000002D000000320A6F000B0419000000463132202020
310
202020202020202020202020312E302C312E360033002E002E001C001C001C00
310
1C001C001C001C001C001C001C001C001C001C001C001C002E0013002E001300
310
2E0013002E0009000000320AD5005B000100000032002E0019000000320AD500
310
E9000C00000020208378815B835889BA98671C001C0057000000580000005300
310
00005C0000005C0000002D000000320AD5000B04190000004631322020202020
310
20202020202020202020312E362C312E300033002E002E001C001C001C001C00
310
1C001C001C001C001C001C001C001C001C001C001C002E0013002E0013002E00
310
13002E0009000000320A3B015B000100000033002E0010000000320A3B01E900
310
06000000202091A494C21C001C005C0000005C0000002D000000320A3B011404
310
1900000046313220202020202020202020202020202020202020302E36003300
310
2E002E001C001C001C001C001C001C001C001C001C001C001C001C001C001C00
310
1C001C001C001C001C002E0013002E0009000000320AA1015B00010000003400
310
2E0010000000320AA101E9000600000081408CE394C23D0000005C0000005C00
310
00002E000000320AA10111041A00000082653132202020202020202020202020
310
20202020202020302E353A0000002E002E001C001C001C001C001C001C001C00
310
1C001C001C001C001C001C001C001C001C001C001C001C002E0013002E000900
310
0000320A07025B000100000035002E0010000000320A0702E900060000002020
310
89AE8DAA1C001C005C0000005C0000002E000000320A070211041A0000008265
310
313220202020202020202020202020202020202020302E363A0000002E002E00
310
1C001C001C001C001C001C001C001C001C001C001C001C001C001C001C001C00
310
1C001C001C002E0013002E0009000000320A6D025B000100000036002E000D00
310
0000320A6D02E90004000000202094E01C001C005C0000002D000000320A6D02
310
14041900000046313220202020202020202020202020202020202020302E3600
310
33002E002E001C001C001C001C001C001C001C001C001C001C001C001C001C00
310
1C001C001C001C001C001C002E0013002E0009000000320AD3025B0001000000
310
37002E0016000000320AD302E9000A00000020208FB08370836C838B1C001C00
310
5C0000005C000000560000005C0000002D000000320AD3021404190000004631
310
3220202020202020202020202020202020202020302E360033002E002E001C00
310
1C001C001C001C001C001C001C001C001C001C001C001C001C001C001C001C00
310
1C001C002E0013002E0009000000320A39035B000100000038002E0010000000
310
320A3903E900060000002020924994C21C001C005C0000005C0000002D000000
310
320A390314041900000046313220202020202020202020202020202020202020
310
302E360033002E002E001C001C001C001C001C001C001C001C001C001C001C00
310
1C001C001C001C001C001C001C001C002E0013002E003D000000320A9F031400
310
2400000046313281A8976E975A889F899482DF82C182AB8D7C94C220284A4953
310
204720333330322933002E002E005C0000005C0000005C0000005C0000005C00
310
00005A0000004A0000004E0000005C0000005C0000001C001C00320017003700
310
1C003F001C002E002E002E002E001C002B000000320A050414001800000081A6
310
8378815B835892B290AE94CD88CD2081462033326D6D5C000000570000005800
310
0000530000005C0000005C0000005C0000005C0000001C002E0000001C002E00
310
2E004400440010000000FB021200080000000000900100000080010202025379
310
7374656D0080040000002D010100040000002701FFFF030000001E0004000000
310
2D010000050000000102FFFFFF00050000000902000000000700000016046A04
310
61070000000007000000FC020000000000000000040000002D01020004000000
310
04010D00040000000201020009000000FA020000000000000000000022000400
310
00002D010300050000001402000000000500000013029E03000009000000FA02
310
000000000000000000002200040000002D010400090000001D062100F0009E03
310
080000000000040000002D0103000500000014026A0059070500000013029E03
310
5907040000002D010400090000001D062100F000340308006A00590704000000
310
2D0103000500000014020000080005000000130200005E07040000002D010400
310
090000001D062100F0000800560700000800040000002D010300050000001402
310
9603080005000000130296036107040000002D010400090000001D062100F000
310
0800590796030800040000002D010200040000002D010100040000002701FFFF
310
030000001E00040000002D010000050000000102FFFFFF000500000009020000
310
00000700000016046904600700000000040000002701FFFF0300000000000000
310
0000000000000000000000000000000000000000000000000000000000000000
310
0000000000000000000000000000000000000000000000000000000000000000
310
FFFFFFFF030000000400000004000000FFFFFFFF07000000000000003D1F0000
310
B0120000D60800000100090000036B04000005003D0000000000050000000902
310
00000000050000000102FFFFFF000400000004010D0004000000020102000500
310
00000C026A046107030000001E00040000002701FFFF030000001E0004000000
310
2701FFFF050000000B0200000000030000001E00050000000102FFFFFF000500
310
0000090200000000040000002701FFFF030000001E00050000000102FFFFFF00
310
050000000902000000000700000016046904600700000000040000002701FFFF
310
030000001E00050000000102FFFFFF0005000000090200000000070000001604
310
690460070000000015000000FB02A4FF00000000000090010000008000000000
310
826C827220826F835383568362834E008000040000002D010000040000000401
310
0D0004000000020101000D000000320A0900140004000000956994D45C000000
310
5C00000010000000320A0900E900060000009594956996BC5C0000005C000000
310
5C00000028000000320A0900E603160000008DDE97BF288DDE8EBF2920202020
310
2020925088CA6D6D5C0000005C0000001C005C0000005C0000001C001C001C00
310
1C001C001C001C005C0000005C0000004400440009000000320A6F005B000100
310
000031002E0013000000320A6F00E9000800000020208378815B83581C001C00
310
5700000058000000530000002D000000320A6F000B0419000000463132202020
310
202020202020202020202020312E302C312E360033002E002E001C001C001C00
310
1C001C001C001C001C001C001C001C001C001C001C001C002E0013002E001300
310
2E0013002E0009000000320AD5005B000100000032002E0019000000320AD500
310
E9000C00000020208378815B835889BA98671C001C0057000000580000005300
310
00005C0000005C0000002D000000320AD5000B04190000004631322020202020
310
20202020202020202020312E362C312E300033002E002E001C001C001C001C00
310
1C001C001C001C001C001C001C001C001C001C001C002E0013002E0013002E00
310
13002E0009000000320A3B015B000100000033002E0010000000320A3B01E900
310
06000000202091A494C21C001C005C0000005C0000002D000000320A3B011404
310
1900000046313220202020202020202020202020202020202020302E36003300
310
2E002E001C001C001C001C001C001C001C001C001C001C001C001C001C001C00
310
1C001C001C001C001C002E0013002E0009000000320AA1015B00010000003400
310
2E0010000000320AA101E9000600000081408CE394C23D0000005C0000005C00
310
00002E000000320AA10111041A00000082653132202020202020202020202020
310
20202020202020302E353A0000002E002E001C001C001C001C001C001C001C00
310
1C001C001C001C001C001C001C001C001C001C001C001C002E0013002E000900
310
0000320A07025B000100000035002E0010000000320A0702E900060000002020
310
89AE8DAA1C001C005C0000005C0000002E000000320A070211041A0000008265
310
313220202020202020202020202020202020202020302E363A0000002E002E00
310
1C001C001C001C001C001C001C001C001C001C001C001C001C001C001C001C00
310
1C001C001C002E0013002E0009000000320A6D025B000100000036002E000D00
310
0000320A6D02E90004000000202094E01C001C005C0000002D000000320A6D02
310
14041900000046313220202020202020202020202020202020202020302E3600
310
33002E002E001C001C001C001C001C001C001C001C001C001C001C001C001C00
310
1C001C001C001C001C001C002E0013002E0009000000320AD3025B0001000000
310
37002E0016000000320AD302E9000A00000020208FB08370836C838B1C001C00
310
5C0000005C000000560000005C0000002D000000320AD3021404190000004631
310
3220202020202020202020202020202020202020302E360033002E002E001C00
310
1C001C001C001C001C001C001C001C001C001C001C001C001C001C001C001C00
310
1C001C002E0013002E0009000000320A39035B000100000038002E0010000000
310
320A3903E900060000002020924994C21C001C005C0000005C0000002D000000
310
320A390314041900000046313220202020202020202020202020202020202020
310
302E360033002E002E001C001C001C001C001C001C001C001C001C001C001C00
310
1C001C001C001C001C001C001C001C002E0013002E003D000000320A9F031400
310
2400000046313281A8976E975A889F899482DF82C182AB8D7C94C220284A4953
310
204720333330322933002E002E005C0000005C0000005C0000005C0000005C00
310
00005A0000004A0000004E0000005C0000005C0000001C001C00320017003700
310
1C003F001C002E002E002E002E001C002B000000320A050414001800000081A6
310
8378815B835892B290AE94CD88CD2081462033326D6D5C000000570000005800
310
0000530000005C0000005C0000005C0000005C0000001C002E0000001C002E00
310
2E004400440010000000FB021200080000000000900100000080010202025379
310
7374656D0080040000002D010100040000002701FFFF030000001E0004000000
310
2D010000050000000102FFFFFF00050000000902000000000700000016046A04
310
61070000000007000000FC020000000000000000040000002D01020004000000
310
04010D00040000000201020009000000FA020000000000000000000022000400
310
00002D010300050000001402000000000500000013029E03000009000000FA02
310
000000000000000000002200040000002D010400090000001D062100F0009E03
310
080000000000040000002D0103000500000014026A0059070500000013029E03
310
5907040000002D010400090000001D062100F000340308006A00590704000000
310
2D0103000500000014020000080005000000130200005E07040000002D010400
310
090000001D062100F0000800560700000800040000002D010300050000001402
310
9603080005000000130296036107040000002D010400090000001D062100F000
310
0800590796030800040000002D010200040000002D010100040000002701FFFF
310
030000001E00040000002D010000050000000102FFFFFF000500000009020000
310
00000700000016046904600700000000040000002701FFFF0300000000000000
310
0000000000000000000000000000000000000000000000000000000000000000
310
0000000000000000000000000000000000000000000000000000000000000000
310
0000000000000000000000000000000000000000000000000000000000000000
310
0000000000000000000000000000000000000000000000000000000000000000
310
0000000000000000000000000000000000000000000000000000000000000000
310
0000000000000000000000000000000000000000000000000000000000000000
310
02004F006C006500500072006500730030003000300000000000000000000000
310
0000000000000000000000000000000000000000000000000000000000000000
310
18000000FFFFFFFFFFFFFFFFFFFFFFFF00000000000000000000000000000000
310
0000000000000000000000000000000000000000FEFFFFFF0000000000000000
310
0000000000000000000000000000000000000000000000000000000000000000
310
0000000000000000000000000000000000000000000000000000000000000000
310
00000000FFFFFFFFFFFFFFFFFFFFFFFF00000000000000000000000000000000
310
0000000000000000000000000000000000000000000000000000000000000000
310
0000000000000000000000000000000000000000000000000000000000000000
310
0000000000000000000000000000000000000000000000000000000000000000
310
00000000FFFFFFFFFFFFFFFFFFFFFFFF00000000000000000000000000000000
310
0000000000000000000000000000000000000000000000000000000000000000
310
0000000000000000000000000000000000000000000000000000000000000000
310
0000000000000000000000000000000000000000000000000000000000000000
310
00000000FFFFFFFFFFFFFFFFFFFFFFFF00000000000000000000000000000000
310
0000000000000000000000000000000000000000000000000000000000000000
310
FFFFFFFF030000000400000001000000FFFFFFFF0200000000000000E6210000
310
91140000101000000100090000030808000006003D0000000000050000000902
310
00000000050000000102FFFFFF000400000004010D0004000000020102000500
310
00000C02C7004801030000001E00040000002701FFFF030000001E0004000000
310
2701FFFF050000000B0200000000030000001E00050000000102FFFFFF000500
310
0000090200000000040000002701FFFF030000001E00050000000102FFFFFF00
310
05000000090200000000070000001604C700480100000000040000002701FFFF
310
030000001E00050000000102FFFFFF0005000000090200000000070000001604
310
C700480100000000040000002701FFFF030000001E00050000000102FFFFFF00
310
05000000090200000000070000001604C70048010100010015000000FB02F1FF
310
00000000000090010000008000000000826C827220826F835383568362834E00
310
8000040000002D0100000400000004010D0004000000020101000D000000320A
310
0300030004000000956994D40F0000000F00000010000000320A030028000600
310
00009594956996BC0F0000000F0000000F00000028000000320A0300AD001600
310
00008DDE97BF288DDE8EBF29202020202020925088CA6D6D0F0000000F000000
310
05000F0000000F00000005000500050005000500050005000F0000000F000000
310
0B000B0009000000320A15000F00010000003100080013000000320A15002800
310
0800000020208378815B8358050005000E0000000E0000000E0000002D000000
310
320A1500B30019000000463132202020202020202020202020202020312E302C
310
312E360008000800080005000500050005000500050005000500050005000500
310
0500050005000500080003000800030008000300080009000000320A27000F00
310
010000003200080019000000320A270028000C00000020208378815B835889BA
310
9867050005000E0000000E0000000E0000000F0000000F0000002D000000320A
310
2700B30019000000463132202020202020202020202020202020312E302C312E
310
3600080008000800050005000500050005000500050005000500050005000500
310
050005000500080003000800030008000300080009000000320A39000F000100
310
00003300080010000000320A3900280006000000202091A494C2050005000F00
310
00000F0000002D000000320A3900B40019000000463132202020202020202020
310
20202020202020202020302E3600080008000800050005000500050005000500
310
0500050005000500050005000500050005000500050005000500080003000800
310
09000000320A4B000F00010000003400080010000000320A4B00280006000000
310
81408CE394C20A0000000F0000000F0000002D000000320A4B00B40019000000
310
46313220202020202020202020202020202020202020302E3600080008000800
310
0500050005000500050005000500050005000500050005000500050005000500
310
05000500050008000300080009000000320A5D000F0001000000350008001000
310
0000320A5D00280006000000202089AE8DAA050005000F0000000F0000002D00
310
0000320A5D00B400190000004631322020202020202020202020202020202020
310
2020302E36000800080008000500050005000500050005000500050005000500
310
05000500050005000500050005000500050008000300080009000000320A6F00
310
0F0001000000360008000D000000320A6F00280004000000202094E005000500
310
0F0000002D000000320A6F00B400190000004631322020202020202020202020
310
2020202020202020302E36000800080008000500050005000500050005000500
310
0500050005000500050005000500050005000500050005000800030008000900
310
0000320A81000F00010000003700080016000000320A810028000A0000002020
310
8FB08370836C838B050005000F0000000F0000000E0000000F0000002D000000
310
320A8100B4001900000046313220202020202020202020202020202020202020
310
302E360008000800080005000500050005000500050005000500050005000500
310
0500050005000500050005000500050008000300080009000000320A93000F00
310
010000003800080018000000320A930028000B0000002020924994C228329687
310
2900050005000F0000000F000000050008000F00000005002D000000320A9300
310
B4001900000046313220202020202020202020202020202020202020302E3600
310
0800080008000500050005000500050005000500050005000500050005000500
310
0500050005000500050005000800030008003D000000320AA500030024000000
310
46313281A8976E975A889F899482DF82C182AB8D7C94C220284A495320472033
310
333032290800080008000F0000000F0000000F0000000F0000000F0000000E00
310
00000C0000000D0000000F0000000F0000000500050008000400090005000A00
310
0500080008000800080005002B000000320AB70003001800000081A68378815B
310
835892B290AE94CD88CD2081462033326D6D0F0000000E0000000E0000000E00
310
00000F0000000F0000000F0000000F0000000500080000000500080008000B00
310
0B0010000000FB0212000800000000009001000000800102020253797374656D
310
0080040000002D010100040000002701FFFF030000001E00040000002D010000
310
050000000102FFFFFF0005000000090200000000070000001604C70048010000
310
000007000000FC020000C0C0C0000000040000002D010200050000000902C0C0
310
C000050000000102C0C0C0000400000004010D00040000000201020009000000
310
FA02000000000000C0C0C0002200040000002D01030009000000FA0200000000
310
0000000000002200040000002D010400090000001D062100F000000001000000
310
0000040000002D010300040000002D010400090000001D062100F00000000100
310
00002500040000002D010300040000002D010400090000001D062100F0000000
310
01000000AA0007000000FC020000000000000000040000002D01050005000000
310
090200000000050000000102FFFFFF0004000000F001030009000000FA020000
310
00000000000000002200040000002D0103000500000014020000010005000000
310
130200004801040000002D010400090000001D062100F0000100470100000100
310
040000002D010200050000000902C0C0C000050000000102C0C0C00004000000
310
F001030009000000FA02000000000000C0C0C0002200040000002D0103000400
310
00002D010400090000001D062100F0000000010000004701040000002D010300
310
0500000014021200010005000000130212004701040000002D01040009000000
310
1D062100F0000100460112000100040000002D01030005000000140224000100
310
05000000130224004701040000002D010400090000001D062100F00001004601
310
24000100040000002D0103000500000014023600010005000000130236004701
310
040000002D010400090000001D062100F0000100460136000100040000002D01
310
03000500000014024800010005000000130248004701040000002D0104000900
310
00001D062100F0000100460148000100040000002D0103000500000014025A00
310
01000500000013025A004701040000002D010400090000001D062100F0000100
310
46015A000100040000002D0103000500000014026C0001000500000013026C00
310
4701040000002D010400090000001D062100F000010046016C00010004000000
310
2D0103000500000014027E0001000500000013027E004701040000002D010400
310
090000001D062100F000010046017E000100040000002D010300050000001402
310
9000010005000000130290004701040000002D010400090000001D062100F000
310
0100460190000100040000002D01050005000000090200000000050000000102
310
FFFFFF0004000000F001030009000000FA020000000000000000000022000400
310
00002D01030005000000140200000000050000001302A3000000040000002D01
310
0400090000001D062100F000A300010000000000040000002D01030005000000
310
1402A2000100050000001302A2004801040000002D010400090000001D062100
310
F00001004701A2000100040000002D0103000500000014020100470105000000
310
1302A3004701040000002D010400090000001D062100F000A200010001004701
310
040000002D010200050000000902C0C0C000050000000102C0C0C00004000000
310
F001030009000000FA02000000000000C0C0C0002200040000002D0103000500
310
0000140201002500050000001302A2002500040000002D010400090000001D06
310
2100F000A100010001002500040000002D0103000500000014020100AA000500
310
00001302A200AA00040000002D010400090000001D062100F000A10001000100
310
AA00040000002D010300050000001402A3000000050000001302C80000000400
310
00002D010400090000001D062100F00025000100A3000000040000002D010300
310
050000001402C7002500050000001302C8002500040000002D01040009000000
310
1D062100F00001000100C7002500040000002D010300050000001402C700AA00
310
050000001302C800AA00040000002D010400090000001D062100F00001000100
310
C700AA00040000002D010300050000001402A3004701050000001302C8004701
310
040000002D010400090000001D062100F00025000100A3004701040000002D01
310
03000500000014020000480105000000130200004901040000002D0104000900
310
00001D062100F0000100010000004801040000002D0103000500000014021200
310
480105000000130212004901040000002D010400090000001D062100F0000100
310
010012004801040000002D010300050000001402240048010500000013022400
310
4901040000002D010400090000001D062100F000010001002400480104000000
310
2D0103000500000014023600480105000000130236004901040000002D010400
310
090000001D062100F0000100010036004801040000002D010300050000001402
310
4800480105000000130248004901040000002D010400090000001D062100F000
310
0100010048004801040000002D0103000500000014025A004801050000001302
310
5A004901040000002D010400090000001D062100F000010001005A0048010400
310
00002D0103000500000014026C0048010500000013026C004901040000002D01
310
0400090000001D062100F000010001006C004801040000002D01030005000000
310
14027E0048010500000013027E004901040000002D010400090000001D062100
310
F000010001007E004801040000002D0103000500000014029000480105000000
310
130290004901040000002D010400090000001D062100F0000100010090004801
310
040000002D010300050000001402A2004801050000001302A200490104000000
310
2D010400090000001D062100F00001000100A2004801040000002D0103000500
310
00001402B4000000050000001302B4004901040000002D010400090000001D06
310
2100F00001004901B4000000040000002D010300050000001402C60000000500
310
00001302C6004901040000002D010400090000001D062100F00001004901C600
310
0000040000002D010500040000002D010100040000002701FFFF030000001E00
310
040000002D010000050000000102C0C0C000050000000902C0C0C00007000000
310
1604C700480101000100040000002701FFFF0300000000000000000000000000
310
0000000000000000000000000000000000000000000000000000000000000000
310
0000000000000000000000000000000000000000000000000000000000000000
310
0000000000000000000000000000000000000000000000000000000000000000
310
0000000000000000000000000000000000000000000000000000000000000000
310
0000000000000000000000000000000000000000000000000000000000000000
310
0000000000000000000000000000000000000000000000000000000000000000
310
0000000000000000000000000000000000000000000000000000000000000000
310
0000000000000000000000000000000000000000000000000000000000000000
310
0000000000000000000000000000000000000000000000000000000000000000
310
0000000000000000000000000000000000000000000000000000000000000000
310
0000000000000000000000000000000000000000000000000000000000000000
310
0000000000000000000000000000000000000000000000000000000000000000
310
0000000000000000000000000000000000000000000000000000000000000000
310
0000000000000000000000000000000000000000000000000000000000000000
  1
OLE
  0
TEXT
  5
16BD7
330
747D
100
AcDbEntity
  8
文字
 62
     7
 48
50.0
100
AcDbText
 10
7151.289879453724
 20
241.9483564955708
 30
0.0
 40
80.0
  1
ＫＭＸ－１１７ＤＰ
  7
STYLE2
100
AcDbText
  0
TEXT
  5
16BD8
330
747D
100
AcDbEntity
  8
文字
 62
     7
 48
50.0
100
AcDbText
 10
6604.7026721086
 20
38.04717353824663
 30
0.0
 40
50.0
  1
○床面積 ： 0.76㎡(0.23坪) 　
  7
STYLE2
100
AcDbText
  0
TEXT
  5
16BD9
330
747D
100
AcDbEntity
  8
文字
 62
     7
 48
50.0
100
AcDbText
 10
6604.7026721086
 20
114.271762128451
 30
0.0
 40
50.0
  1
○有効開口寸法 ： 485×1449 (mm)
  7
STYLE2
100
AcDbText
  0
LINE
  5
16BFD
330
747D
100
AcDbEntity
  8
部品1
 48
50.0
100
AcDbLine
 10
6203.826016100446
 20
2500.220964217775
 30
0.0
 11
6102.246142147691
 21
2502.517419544514
 31
0.0
  0
ARC
  5
16C01
330
747D
100
AcDbEntity
  8
部品1
 48
50.0
100
AcDbCircle
 10
6203.599999999998
 20
2490.223518707929
 30
0.0
 40
10.0
100
AcDbArc
 50
0.000000000002748
 51
88.70491285610503
  0
ARC
  5
16C1C
330
747D
100
AcDbEntity
  8
細線
 48
50.0
100
AcDbCircle
 10
6203.599999999998
 20
2490.223518707929
 30
0.0
 40
5.0
100
AcDbArc
 50
0.000000000002748
 51
88.70491285610503
  0
LINE
  5
16C1E
330
747D
100
AcDbEntity
  8
部品1
 48
50.0
100
AcDbLine
 10
6065.32810834236
 20
2503.352039751116
 30
0.0
 11
5550.1
 21
2515.000000000004
 31
0.0
  0
LINE
  5
16C1F
330
747D
100
AcDbEntity
  8
細線
 48
50.0
100
AcDbLine
 10
6203.713008050222
 20
2495.222241462851
 30
0.0
 11
6102.133134097467
 21
2497.518696789591
 31
0.0
  0
ARC
  5
16C20
330
747D
100
AcDbEntity
  8
細線
 48
50.0
100
AcDbCircle
 10
6087.186811294897
 20
2505.658324373874
 30
0.0
 40
16.5
100
AcDbArc
 50
268.705047743744
 51
328.5158399792114
  0
ARC
  5
16C21
330
747D
100
AcDbEntity
  8
細線
 48
50.0
100
AcDbCircle
 10
6102.111149650107
 20
2496.518085481369
 30
0.0
 40
1.00085262072102
100
AcDbArc
 50
88.71099107583281
 51
148.5136658788849
  0
LINE
  5
16C22
330
747D
100
AcDbEntity
  8
細線
 48
50.0
100
AcDbLine
 10
6080.141158458602
 20
2489.313360923638
 30
0.0
 11
6086.832895501281
 21
2489.162125165935
 31
0.0
  0
ARC
  5
16C23
330
747D
100
AcDbEntity
  8
細線
 48
50.0
100
AcDbCircle
 10
6080.513969424792
 20
2505.809148627883
 30
0.0
 40
16.5
100
AcDbArc
 50
208.8945221393312
 51
268.7053143747986
  0
ARC
  5
16C24
330
747D
100
AcDbEntity
  8
細線
 48
50.0
100
AcDbCircle
 10
6065.191410531667
 20
2497.352094792719
 30
0.0
 40
1.001501961612566
100
AcDbArc
 50
28.89835156694609
 51
88.69484584328208
  0
LINE
  5
16C25
330
747D
100
AcDbEntity
  8
細線
 48
50.0
100
AcDbLine
 10
6065.215100292135
 20
2498.353316996193
 30
0.0
 11
5550.1
 21
2509.998722428572
 31
0.0
  0
LINE
  5
16C75
330
747D
100
AcDbEntity
  8
部品1
 48
50.0
100
AcDbLine
 10
3698.599999999997
 20
4323.582580843269
 30
0.0
 11
3672.599999999997
 21
4323.582580843269
 31
0.0
  0
LINE
  5
16C76
330
747D
100
AcDbEntity
  8
部品1
 48
50.0
100
AcDbLine
 10
3698.599999999997
 20
4293.582580843269
 30
0.0
 11
3672.599999999997
 21
4293.582580843269
 31
0.0
  0
LINE
  5
16C86
330
747D
100
AcDbEntity
  8
部品1
 48
50.0
100
AcDbLine
 10
2608.599999999997
 20
4293.582580843269
 30
0.0
 11
2634.599999999997
 21
4293.582580843269
 31
0.0
  0
LINE
  5
16C87
330
747D
100
AcDbEntity
  8
部品1
 48
50.0
100
AcDbLine
 10
2608.599999999997
 20
4323.582580843269
 30
0.0
 11
2634.599999999997
 21
4323.582580843269
 31
0.0
  0
ARC
  5
16F3B
330
747D
100
AcDbEntity
  8
部品1
100
AcDbCircle
 10
2786.056162329464
 20
1921.0
 30
0.0
 40
400.0
100
AcDbArc
 50
352.14583065
 51
7.854036400000027
  0
ARC
  5
16F3C
330
747D
100
AcDbEntity
  8
部品1
100
AcDbCircle
 10
3542.056167819465
 20
1921.0
 30
0.0
 40
400.0
100
AcDbArc
 50
172.14596367
 51
187.85416921
  0
ARC
  5
16F3D
330
747D
100
AcDbEntity
  8
細線
 48
50.0
100
AcDbCircle
 10
2789.024643589464
 20
1922.01738193
 30
0.0
 40
390.0
100
AcDbArc
 50
3.658147749999999
 51
8.386167828959825
  0
ARC
  5
16F3E
330
747D
100
AcDbEntity
  8
細線
 48
50.0
100
AcDbCircle
 10
3539.087692049464
 20
1922.01738193
 30
0.0
 40
390.0
100
AcDbArc
 50
171.6138321297549
 51
176.34185225
  0
LINE
  5
16F3F
330
747D
100
AcDbEntity
  8
細線
 48
50.0
100
AcDbLine
 10
3171.606167819464
 20
1887.45
 30
0.0
 11
3171.606167819464
 21
1893.55
 31
0.0
  0
LINE
  5
16F40
330
747D
100
AcDbEntity
  8
細線
 48
50.0
100
AcDbLine
 10
3167.056167819465
 20
1893.55
 30
0.0
 11
3166.606167819464
 21
1893.55
 31
0.0
  0
ARC
  5
16F41
330
747D
100
AcDbEntity
  8
細線
 48
50.0
100
AcDbCircle
 10
3177.232052309464
 20
1946.83688665
 30
0.0
 40
1.0
100
AcDbArc
 50
262.50415453
 51
3.658147750000058
  0
ARC
  5
16F42
330
747D
100
AcDbEntity
  8
細線
 48
50.0
100
AcDbCircle
 10
3182.311167719464
 20
1918.0
 30
0.0
 40
0.5
100
AcDbArc
 50
350.66758182
 51
90.0
  0
ARC
  5
16F43
330
747D
100
AcDbEntity
  8
細線
 48
50.0
100
AcDbCircle
 10
3182.311167719464
 20
1924.0
 30
0.0
 40
0.5
100
AcDbArc
 50
270.0
 51
9.332418179999972
  0
ARC
  5
16F44
330
747D
100
AcDbEntity
  8
細線
 48
50.0
100
AcDbCircle
 10
3181.760197629464
 20
1924.25
 30
0.0
 40
1.0
100
AcDbArc
 50
10.40212101
 51
90.0
  0
ARC
  5
16F45
330
747D
100
AcDbEntity
  8
細線
 48
50.0
100
AcDbCircle
 10
3179.698521659465
 20
1926.25
 30
0.0
 40
1.0
100
AcDbArc
 50
198.55300454
 51
270.0
  0
LINE
  5
16F46
330
747D
100
AcDbEntity
  8
細線
 48
50.0
100
AcDbLine
 10
3179.456031449464
 20
1923.5
 30
0.0
 11
3179.456031449464
 21
1918.5
 31
0.0
  0
LINE
  5
16F47
330
747D
100
AcDbEntity
  8
細線
 48
50.0
100
AcDbLine
 10
3181.760197629464
 20
1925.25
 30
0.0
 11
3179.698521659465
 21
1925.25
 31
0.0
  0
LINE
  5
16F48
330
747D
100
AcDbEntity
  8
細線
 48
50.0
100
AcDbLine
 10
3179.456031449464
 20
1918.5
 30
0.0
 11
3182.311167719464
 21
1918.5
 31
0.0
  0
LINE
  5
16F49
330
747D
100
AcDbEntity
  8
細線
 48
50.0
100
AcDbLine
 10
3179.456031449464
 20
1923.5
 30
0.0
 11
3182.311167719464
 21
1923.5
 31
0.0
  0
ARC
  5
16F4A
330
747D
100
AcDbEntity
  8
細線
 48
50.0
100
AcDbCircle
 10
3179.698521659465
 20
1915.75
 30
0.0
 40
1.0
100
AcDbArc
 50
90.0
 51
161.44699546
  0
LINE
  5
16F4B
330
747D
100
AcDbEntity
  8
細線
 48
50.0
100
AcDbLine
 10
3181.760197629464
 20
1916.75
 30
0.0
 11
3179.698521659465
 21
1916.75
 31
0.0
  0
ARC
  5
16F4C
330
747D
100
AcDbEntity
  8
細線
 48
50.0
100
AcDbCircle
 10
3177.232052309464
 20
1895.16311335
 30
0.0
 40
1.0
100
AcDbArc
 50
356.34185225
 51
97.49584547000004
  0
ARC
  5
16F4D
330
747D
100
AcDbEntity
  8
細線
 48
50.0
100
AcDbCircle
 10
3181.760197629464
 20
1917.75
 30
0.0
 40
1.0
100
AcDbArc
 50
270.0
 51
349.59787899
  0
LINE
  5
16F4E
330
747D
100
AcDbEntity
  8
細線
 48
50.0
100
AcDbLine
 10
3167.056167819465
 20
1954.5
 30
0.0
 11
3167.056167819465
 21
1954.55
 31
0.0
  0
LINE
  5
16F4F
330
747D
100
AcDbEntity
  8
細線
 48
50.0
100
AcDbLine
 10
3166.556167819465
 20
1944.0
 30
0.0
 11
3166.556167819465
 21
1948.3
 31
0.0
  0
ARC
  5
16F50
330
747D
100
AcDbEntity
  8
細線
 48
50.0
100
AcDbCircle
 10
3167.606167819464
 20
1947.6375921
 30
0.0
 40
1.0
100
AcDbArc
 50
180.0
 51
267.98572355
  0
LINE
  5
16F51
330
747D
100
AcDbEntity
  8
細線
 48
50.0
100
AcDbLine
 10
3166.606167819464
 20
1948.45
 30
0.0
 11
3166.606167819464
 21
1947.6375921
 31
0.0
  0
LINE
  5
16F52
330
747D
100
AcDbEntity
  8
細線
 48
50.0
100
AcDbLine
 10
3171.606167819464
 20
1948.45
 30
0.0
 11
3166.606167819464
 21
1948.45
 31
0.0
  0
ARC
  5
16F53
330
747D
100
AcDbEntity
  8
細線
 48
50.0
100
AcDbCircle
 10
3167.056031449464
 20
1939.25513626
 30
0.0
 40
0.5
100
AcDbArc
 50
80.66758181999999
 51
180.0
  0
LINE
  5
16F54
330
747D
100
AcDbEntity
  8
細線
 48
50.0
100
AcDbLine
 10
3166.556031449464
 20
1936.4
 30
0.0
 11
3166.556031449464
 21
1939.25513626
 31
0.0
  0
ARC
  5
16F55
330
747D
100
AcDbEntity
  8
細線
 48
50.0
100
AcDbCircle
 10
3167.306031449464
 20
1938.70416617
 30
0.0
 40
1.0
100
AcDbArc
 50
0.0
 51
79.59787899
  0
LINE
  5
16F56
330
747D
100
AcDbEntity
  8
細線
 48
50.0
100
AcDbLine
 10
3168.306031449465
 20
1938.70416617
 30
0.0
 11
3168.306031449465
 21
1936.642490209999
 31
0.0
  0
ARC
  5
16F57
330
747D
100
AcDbEntity
  8
細線
 48
50.0
100
AcDbCircle
 10
3169.306031449464
 20
1936.642490209999
 30
0.0
 40
1.0
100
AcDbArc
 50
180.0
 51
251.44699546
  0
ARC
  5
16F58
330
747D
100
AcDbEntity
  8
細線
 48
50.0
100
AcDbCircle
 10
3165.556167819465
 20
1944.0
 30
0.0
 40
1.0
100
AcDbArc
 50
270.0
 51
0.0
  0
LINE
  5
16F59
330
747D
100
AcDbEntity
  8
細線
 48
50.0
100
AcDbLine
 10
3161.556167819465
 20
1944.0
 30
0.0
 11
3161.556167819465
 21
1948.3
 31
0.0
  0
LINE
  5
16F5A
330
747D
100
AcDbEntity
  8
細線
 48
50.0
100
AcDbLine
 10
3161.506167819464
 20
1948.45
 30
0.0
 11
3161.506167819464
 21
1947.6375921
 31
0.0
  0
LINE
  5
16F5B
330
747D
100
AcDbEntity
  8
細線
 48
50.0
100
AcDbLine
 10
3161.556031449464
 20
1936.4
 30
0.0
 11
3161.556031449464
 21
1939.25513626
 31
0.0
  0
LINE
  5
16F5C
330
747D
100
AcDbEntity
  8
細線
 48
50.0
100
AcDbLine
 10
3161.556031449464
 20
1936.4
 30
0.0
 11
3166.556031449464
 21
1936.4
 31
0.0
  0
LINE
  5
16F5D
330
747D
100
AcDbEntity
  8
細線
 48
50.0
100
AcDbLine
 10
3165.556167819465
 20
1943.0
 30
0.0
 11
3162.556167819465
 21
1943.0
 31
0.0
  0
LINE
  5
16F5E
330
747D
100
AcDbEntity
  8
細線
 48
50.0
100
AcDbLine
 10
3165.306561329464
 20
1925.99972446
 30
0.0
 11
3162.806561329464
 21
1925.99972446
 31
0.0
  0
LINE
  5
16F5F
330
747D
100
AcDbEntity
  8
細線
 48
50.0
100
AcDbLine
 10
3171.606167819464
 20
1954.55
 30
0.0
 11
3171.606167819464
 21
1948.45
 31
0.0
  0
ARC
  5
16F60
330
747D
100
AcDbEntity
  8
細線
 48
50.0
100
AcDbCircle
 10
3167.306031449464
 20
1903.29583382
 30
0.0
 40
1.0
100
AcDbArc
 50
280.40212101
 51
0.0
  0
LINE
  5
16F61
330
747D
100
AcDbEntity
  8
細線
 48
50.0
100
AcDbLine
 10
3168.306031449465
 20
1903.29583382
 30
0.0
 11
3168.306031449465
 21
1905.35750979
 31
0.0
  0
ARC
  5
16F62
330
747D
100
AcDbEntity
  8
細線
 48
50.0
100
AcDbCircle
 10
3169.306031449464
 20
1905.35750979
 30
0.0
 40
1.0
100
AcDbArc
 50
108.55300454
 51
180.0
  0
LINE
  5
16F63
330
747D
100
AcDbEntity
  8
細線
 48
50.0
100
AcDbLine
 10
3165.306561329464
 20
1915.99972446
 30
0.0
 11
3162.806561329464
 21
1915.99972446
 31
0.0
  0
ARC
  5
16F64
330
747D
100
AcDbEntity
  8
細線
 48
50.0
100
AcDbCircle
 10
3167.606167819464
 20
1894.36240789
 30
0.0
 40
1.0
100
AcDbArc
 50
92.01427645
 51
180.0
  0
LINE
  5
16F65
330
747D
100
AcDbEntity
  8
細線
 48
50.0
100
AcDbLine
 10
3166.606167819464
 20
1893.55
 30
0.0
 11
3166.606167819464
 21
1894.36240789
 31
0.0
  0
ARC
  5
16F66
330
747D
100
AcDbEntity
  8
細線
 48
50.0
100
AcDbCircle
 10
3165.556167819465
 20
1898.0
 30
0.0
 40
1.0
100
AcDbArc
 50
0.0
 51
90.0
  0
LINE
  5
16F67
330
747D
100
AcDbEntity
  8
細線
 48
50.0
100
AcDbLine
 10
3166.556167819465
 20
1898.0
 30
0.0
 11
3166.556167819465
 21
1893.7
 31
0.0
  0
LINE
  5
16F68
330
747D
100
AcDbEntity
  8
細線
 48
50.0
100
AcDbLine
 10
3166.606167819464
 20
1893.55
 30
0.0
 11
3171.606167819464
 21
1893.55
 31
0.0
  0
LINE
  5
16F69
330
747D
100
AcDbEntity
  8
細線
 48
50.0
100
AcDbLine
 10
3161.506167819464
 20
1893.55
 30
0.0
 11
3161.506167819464
 21
1894.36240789
 31
0.0
  0
LINE
  5
16F6A
330
747D
100
AcDbEntity
  8
細線
 48
50.0
100
AcDbLine
 10
3161.556167819465
 20
1898.0
 30
0.0
 11
3161.556167819465
 21
1893.7
 31
0.0
  0
LINE
  5
16F6B
330
747D
100
AcDbEntity
  8
細線
 48
50.0
100
AcDbLine
 10
3162.556167819465
 20
1899.0
 30
0.0
 11
3165.556167819465
 21
1899.0
 31
0.0
  0
ARC
  5
16F6C
330
747D
100
AcDbEntity
  8
細線
 48
50.0
100
AcDbCircle
 10
3163.825596719464
 20
1920.99986223
 30
0.0
 40
4.86447736
100
AcDbArc
 50
287.72427684
 51
72.27572315999998
  0
LINE
  5
16F6D
330
747D
100
AcDbEntity
  8
細線
 48
50.0
100
AcDbLine
 10
3162.806561329464
 20
1915.99972446
 30
0.0
 11
3162.806561329464
 21
1925.99972446
 31
0.0
  0
LINE
  5
16F6E
330
747D
100
AcDbEntity
  8
細線
 48
50.0
100
AcDbLine
 10
3165.306561329464
 20
1915.99972446
 30
0.0
 11
3165.306561329464
 21
1925.99972446
 31
0.0
  0
ARC
  5
16F6F
330
747D
100
AcDbEntity
  8
細線
 48
50.0
100
AcDbCircle
 10
3164.056031449464
 20
1921.0
 30
0.0
 40
15.5
100
AcDbArc
 50
288.55300454
 51
341.44699546
  0
ARC
  5
16F70
330
747D
100
AcDbEntity
  8
細線
 48
50.0
100
AcDbCircle
 10
3164.056031449464
 20
1921.0
 30
0.0
 40
15.5
100
AcDbArc
 50
18.55300454
 51
71.44699546
  0
ARC
  5
16F71
330
747D
100
AcDbEntity
  8
細線
 48
50.0
100
AcDbCircle
 10
3164.056167819465
 20
1995.3
 30
0.0
 40
100.0
100
AcDbArc
 50
272.01427645
 51
277.49584547
  0
ARC
  5
16F72
330
747D
100
AcDbEntity
  8
細線
 48
50.0
100
AcDbCircle
 10
3164.056167819465
 20
1846.7
 30
0.0
 40
100.0
100
AcDbArc
 50
82.50415453
 51
87.98572355000001
  0
ARC
  5
16F73
330
747D
100
AcDbEntity
  8
部品1
100
AcDbCircle
 10
3164.056167819465
 20
1959.49955336
 30
0.0
 40
97.0
100
AcDbArc
 50
276.39156482
 51
279.35251214
  0
ARC
  5
16F74
330
747D
100
AcDbEntity
  8
部品1
100
AcDbCircle
 10
3179.331940119464
 20
1866.74907745
 30
0.0
 40
3.0
100
AcDbArc
 50
279.35251214
 51
352.14583065
  0
ARC
  5
16F75
330
747D
100
AcDbEntity
  8
細線
 48
50.0
100
AcDbCircle
 10
2789.024643589464
 20
1919.98261806
 30
0.0
 40
390.0
100
AcDbArc
 50
351.6136975214182
 51
356.3418522549218
  0
ARC
  5
16F76
330
747D
100
AcDbEntity
  8
部品1
100
AcDbCircle
 10
3173.519828699464
 20
1860.95336574
 30
0.0
 40
1.0
100
AcDbArc
 50
275.48542473
 51
351.27186792
  0
ARC
  5
16F77
330
747D
100
AcDbEntity
  8
部品1
100
AcDbCircle
 10
2789.024643589464
 20
1919.98261806
 30
0.0
 40
390.0
100
AcDbArc
 50
351.27186792
 51
351.6136975214182
  0
ARC
  5
16F78
330
747D
100
AcDbEntity
  8
細線
 48
50.0
100
AcDbCircle
 10
3148.413541239464
 20
1926.25
 30
0.0
 40
1.0
100
AcDbArc
 50
270.0
 51
341.44699546
  0
ARC
  5
16F79
330
747D
100
AcDbEntity
  8
細線
 48
50.0
100
AcDbCircle
 10
3164.056031449464
 20
1921.0
 30
0.0
 40
15.5
100
AcDbArc
 50
108.55300454
 51
161.44699546
  0
ARC
  5
16F7A
330
747D
100
AcDbEntity
  8
細線
 48
50.0
100
AcDbCircle
 10
3148.413541239464
 20
1915.75
 30
0.0
 40
1.0
100
AcDbArc
 50
18.55300454
 51
90.0
  0
ARC
  5
16F7B
330
747D
100
AcDbEntity
  8
細線
 48
50.0
100
AcDbCircle
 10
3164.056031449464
 20
1921.0
 30
0.0
 40
15.5
100
AcDbArc
 50
198.55300454
 51
251.44699546
  0
LINE
  5
16F7C
330
747D
100
AcDbEntity
  8
細線
 48
50.0
100
AcDbLine
 10
3146.351865279465
 20
1925.25
 30
0.0
 11
3148.413541239464
 21
1925.25
 31
0.0
  0
ARC
  5
16F7D
330
747D
100
AcDbEntity
  8
細線
 48
50.0
100
AcDbCircle
 10
3146.351865279465
 20
1924.25
 30
0.0
 40
1.0
100
AcDbArc
 50
90.0
 51
169.59787899
  0
LINE
  5
16F7E
330
747D
100
AcDbEntity
  8
細線
 48
50.0
100
AcDbLine
 10
3146.351865279465
 20
1916.75
 30
0.0
 11
3148.413541239464
 21
1916.75
 31
0.0
  0
ARC
  5
16F7F
330
747D
100
AcDbEntity
  8
細線
 48
50.0
100
AcDbCircle
 10
3146.351865279465
 20
1917.75
 30
0.0
 40
1.0
100
AcDbArc
 50
190.4021210099999
 51
270.0
  0
ARC
  5
16F80
330
747D
100
AcDbEntity
  8
細線
 48
50.0
100
AcDbCircle
 10
3158.806031449465
 20
1936.642490209999
 30
0.0
 40
1.0
100
AcDbArc
 50
288.55300454
 51
0.0
  0
ARC
  5
16F81
330
747D
100
AcDbEntity
  8
細線
 48
50.0
100
AcDbCircle
 10
3160.806031449464
 20
1938.70416617
 30
0.0
 40
1.0
100
AcDbArc
 50
100.40212101
 51
180.0
  0
LINE
  5
16F82
330
747D
100
AcDbEntity
  8
細線
 48
50.0
100
AcDbLine
 10
3159.806031449464
 20
1938.70416617
 30
0.0
 11
3159.806031449464
 21
1936.642490209999
 31
0.0
  0
ARC
  5
16F83
330
747D
100
AcDbEntity
  8
細線
 48
50.0
100
AcDbCircle
 10
3150.880283319464
 20
1946.83688665
 30
0.0
 40
1.0
100
AcDbArc
 50
176.34185225
 51
277.49584547
  0
ARC
  5
16F84
330
747D
100
AcDbEntity
  8
細線
 48
50.0
100
AcDbCircle
 10
3164.056167819465
 20
1846.7
 30
0.0
 40
100.0
100
AcDbArc
 50
92.01427645
 51
97.49584547000001
  0
LINE
  5
16F85
330
747D
100
AcDbEntity
  8
細線
 48
50.0
100
AcDbLine
 10
3156.506167819464
 20
1954.55
 30
0.0
 11
3156.506167819464
 21
1948.45
 31
0.0
  0
ARC
  5
16F86
330
747D
100
AcDbEntity
  8
細線
 48
50.0
100
AcDbCircle
 10
3158.806031449465
 20
1905.35750979
 30
0.0
 40
1.0
100
AcDbArc
 50
0.0
 51
71.44699546
  0
ARC
  5
16F87
330
747D
100
AcDbEntity
  8
細線
 48
50.0
100
AcDbCircle
 10
3160.806031449464
 20
1903.29583382
 30
0.0
 40
1.0
100
AcDbArc
 50
180.0
 51
259.59787899
  0
LINE
  5
16F88
330
747D
100
AcDbEntity
  8
細線
 48
50.0
100
AcDbLine
 10
3159.806031449464
 20
1903.29583382
 30
0.0
 11
3159.806031449464
 21
1905.35750979
 31
0.0
  0
LINE
  5
16F89
330
747D
100
AcDbEntity
  8
細線
 48
50.0
100
AcDbLine
 10
3156.506167819464
 20
1887.45
 30
0.0
 11
3156.506167819464
 21
1893.55
 31
0.0
  0
ARC
  5
16F8A
330
747D
100
AcDbEntity
  8
細線
 48
50.0
100
AcDbCircle
 10
3150.880283319464
 20
1895.16311335
 30
0.0
 40
1.0
100
AcDbArc
 50
82.50415453
 51
183.65814775
  0
ARC
  5
16F8B
330
747D
100
AcDbEntity
  8
細線
 48
50.0
100
AcDbCircle
 10
3164.056167819465
 20
1995.3
 30
0.0
 40
100.0
100
AcDbArc
 50
262.50415453
 51
267.98572355
  0
ARC
  5
16F8C
330
747D
100
AcDbEntity
  8
部品1
100
AcDbCircle
 10
3164.056167819465
 20
1959.49955336
 30
0.0
 40
97.0
100
AcDbArc
 50
260.64748439
 51
263.60843518
  0
ARC
  5
16F8D
330
747D
100
AcDbEntity
  8
部品1
100
AcDbCircle
 10
3148.780389889465
 20
1866.749078379999
 30
0.0
 40
3.0
100
AcDbArc
 50
187.85416921
 51
260.64748439
  0
ARC
  5
16F8E
330
747D
100
AcDbEntity
  8
細線
 48
50.0
100
AcDbCircle
 10
3539.087692049464
 20
1919.98261806
 30
0.0
 40
390.0
100
AcDbArc
 50
183.6581281377828
 51
188.3863024783845
  0
ARC
  5
16F8F
330
747D
100
AcDbEntity
  8
部品1
100
AcDbCircle
 10
3154.592506939465
 20
1860.95336574
 30
0.0
 40
1.0
100
AcDbArc
 50
188.72813208
 51
264.51457527
  0
ARC
  5
16F90
330
747D
100
AcDbEntity
  8
部品1
100
AcDbCircle
 10
3539.087692049464
 20
1919.98261806
 30
0.0
 40
390.0
100
AcDbArc
 50
188.3863024783845
 51
188.72813208
  0
CIRCLE
  5
16F91
330
747D
100
AcDbEntity
  8
細線
 48
50.0
100
AcDbCircle
 10
3164.056167819465
 20
1921.0
 30
0.0
 40
19.0
  0
LINE
  5
16F92
330
747D
100
AcDbEntity
  8
細線
 48
50.0
100
AcDbLine
 10
3171.606167819464
 20
1954.55
 30
0.0
 11
3156.506167819464
 21
1954.55
 31
0.0
  0
ARC
  5
16F93
330
747D
100
AcDbEntity
  8
細線
 48
50.0
100
AcDbCircle
 10
3160.506167819465
 20
1947.6375921
 30
0.0
 40
1.0
100
AcDbArc
 50
272.01427645
 51
0.0
  0
LINE
  5
16F94
330
747D
100
AcDbEntity
  8
細線
 48
50.0
100
AcDbLine
 10
3161.506167819464
 20
1948.45
 30
0.0
 11
3156.506167819464
 21
1948.45
 31
0.0
  0
ARC
  5
16F95
330
747D
100
AcDbEntity
  8
細線
 48
50.0
100
AcDbCircle
 10
3161.056031449464
 20
1939.25513626
 30
0.0
 40
0.5
100
AcDbArc
 50
0.0
 51
99.33241818000002
  0
ARC
  5
16F96
330
747D
100
AcDbEntity
  8
細線
 48
50.0
100
AcDbCircle
 10
3162.556167819465
 20
1944.0
 30
0.0
 40
1.0
100
AcDbArc
 50
180.0
 51
270.0
  0
ARC
  5
16F97
330
747D
100
AcDbEntity
  8
細線
 48
50.0
100
AcDbCircle
 10
3164.056031449464
 20
1921.0
 30
0.0
 40
19.0
100
AcDbArc
 50
80.66758181999999
 51
99.08782902000002
  0
ARC
  5
16F98
330
747D
100
AcDbEntity
  8
細線
 48
50.0
100
AcDbCircle
 10
3160.506167819465
 20
1894.36240789
 30
0.0
 40
1.0
100
AcDbArc
 50
0.0
 51
87.98572355000001
  0
ARC
  5
16F99
330
747D
100
AcDbEntity
  8
細線
 48
50.0
100
AcDbCircle
 10
3162.556167819465
 20
1898.0
 30
0.0
 40
1.0
100
AcDbArc
 50
90.0
 51
180.0
  0
LINE
  5
16F9A
330
747D
100
AcDbEntity
  8
細線
 48
50.0
100
AcDbLine
 10
3156.506167819464
 20
1893.55
 30
0.0
 11
3161.506167819464
 21
1893.55
 31
0.0
  0
LINE
  5
16F9B
330
747D
100
AcDbEntity
  8
細線
 48
50.0
100
AcDbLine
 10
3156.506167819464
 20
1887.45
 30
0.0
 11
3171.606167819464
 21
1887.45
 31
0.0
  0
CIRCLE
  5
16F9C
330
747D
100
AcDbEntity
  8
細線
 48
50.0
100
AcDbCircle
 10
3164.056167819465
 20
1921.0
 30
0.0
 40
10.75
  0
ARC
  5
16F9D
330
747D
100
AcDbEntity
  8
部品1
100
AcDbCircle
 10
3164.056167819465
 20
1959.5
 30
0.0
 40
100.0
100
AcDbArc
 50
264.51457527
 51
275.48542473
  0
ARC
  5
16F9E
330
747D
100
AcDbEntity
  8
部品1
100
AcDbCircle
 10
3164.056166589464
 20
1882.49955501
 30
0.0
 40
97.0
100
AcDbArc
 50
80.64740934000001
 51
83.608355
  0
ARC
  5
16F9F
330
747D
100
AcDbEntity
  8
部品1
100
AcDbCircle
 10
3173.519828699464
 20
1981.04663425
 30
0.0
 40
1.0
100
AcDbArc
 50
8.728132079999999
 51
84.51457527
  0
ARC
  5
16FA0
330
747D
100
AcDbEntity
  8
部品1
100
AcDbCircle
 10
2789.024643589464
 20
1922.01738193
 30
0.0
 40
390.0
100
AcDbArc
 50
8.386167828959825
 51
8.728132079999999
  0
ARC
  5
16FA1
330
747D
100
AcDbEntity
  8
部品1
100
AcDbCircle
 10
3164.056166589464
 20
1882.49955501
 30
0.0
 40
97.0
100
AcDbArc
 50
96.39164352000001
 51
99.35259259
  0
ARC
  5
16FA2
330
747D
100
AcDbEntity
  8
部品1
100
AcDbCircle
 10
3154.592506939465
 20
1981.04663425
 30
0.0
 40
1.0
100
AcDbArc
 50
95.48542473000001
 51
171.27186792
  0
ARC
  5
16FA3
330
747D
100
AcDbEntity
  8
部品1
100
AcDbCircle
 10
3539.087692049464
 20
1922.01738193
 30
0.0
 40
390.0
100
AcDbArc
 50
171.27186792
 51
171.6138321297549
  0
ARC
  5
16FA4
330
747D
100
AcDbEntity
  8
部品1
100
AcDbCircle
 10
3164.056167819465
 20
1882.5
 30
0.0
 40
100.0
100
AcDbArc
 50
84.51457527
 51
95.48542473000001
  0
ARC
  5
16FA5
330
747D
100
AcDbEntity
  8
部品1
100
AcDbCircle
 10
3148.780264059464
 20
1975.25000947
 30
0.0
 40
3.0
100
AcDbArc
 50
99.35259259
 51
172.14596367
  0
ARC
  5
16FA6
330
747D
100
AcDbEntity
  8
部品1
100
AcDbCircle
 10
3179.332066009465
 20
1975.25000998
 30
0.0
 40
3.0
100
AcDbArc
 50
7.8540364
 51
80.64740934000001
  0
LINE
  5
171E8
330
747D
100
AcDbEntity
  8
部品1
100
AcDbLine
 10
3219.099999999993
 20
4773.582580843269
 30
0.0
 11
3219.099999999993
 21
4323.582580843271
 31
0.0
  0
LINE
  5
171E9
330
747D
100
AcDbEntity
  8
部品1
 48
50.0
100
AcDbLine
 10
3221.099999999997
 20
4775.582580843271
 30
0.0
 11
3221.099999999997
 21
4323.582580843271
 31
0.0
  0
LINE
  5
171EA
330
747D
100
AcDbEntity
  8
部品1
 48
50.0
100
AcDbLine
 10
3246.099999999997
 20
4775.582580843271
 30
0.0
 11
3246.099999999997
 21
4323.582580843271
 31
0.0
  0
LINE
  5
171EB
330
747D
100
AcDbEntity
  8
細線
 48
50.0
100
AcDbLine
 10
3219.099999999993
 20
4323.582580843271
 30
0.0
 11
2640.099999999993
 21
4773.582580843269
 31
0.0
  0
LINE
  5
171EC
330
747D
100
AcDbEntity
  8
部品1
 48
50.0
100
AcDbLine
 10
3219.099999999993
 20
4323.582580843271
 30
0.0
 11
2640.099999999993
 21
4323.582580843271
 31
0.0
  0
LINE
  5
171ED
330
747D
100
AcDbEntity
  8
部品1
 48
50.0
100
AcDbLine
 10
3246.099999999997
 20
4323.582580843271
 30
0.0
 11
3221.099999999997
 21
4323.582580843271
 31
0.0
  0
LINE
  5
171EE
330
747D
100
AcDbEntity
  8
細線
 48
50.0
100
AcDbLine
 10
3219.099999999993
 20
4773.58258084327
 30
0.0
 11
2640.099999999993
 21
4323.582580843271
 31
0.0
  0
LINE
  5
171EF
330
747D
100
AcDbEntity
  8
部品1
 48
50.0
100
AcDbLine
 10
3246.099999999997
 20
4740.582580843271
 30
0.0
 11
3221.100000000001
 21
4740.582580843271
 31
0.0
  0
LINE
  5
171F0
330
747D
100
AcDbEntity
  8
部品1
 48
50.0
100
AcDbLine
 10
3219.099999999993
 20
4773.58258084327
 30
0.0
 11
2640.099999999993
 21
4773.58258084327
 31
0.0
  0
DIMENSION
  5
171F1
330
747D
100
AcDbEntity
  8
寸法
 48
50.0
100
AcDbDimension
  2
*D26
 10
3160.589113722071
 20
4991.948181228362
 30
0.0
 11
2871.089113722071
 21
5041.948181228363
 31
0.0
 12
128.292596498286
 22
-1961.738336453416
 32
0.0
 70
    32
 71
     5
 42
-1.0
  3
INABA_S20G
100
AcDbAlignedDimension
 13
2640.099999999993
 23
4773.58258084327
 33
0.0
 14
3219.099999999993
 24
4773.58258084327
 34
0.0
100
AcDbRotatedDimension
  0
DIMENSION
  5
171F2
330
747D
100
AcDbEntity
  8
寸法
 48
50.0
100
AcDbDimension
  2
*D27
 10
3246.599999999997
 20
4991.948181228362
 30
0.0
 11
3445.599999999999
 21
5041.948181228363
 31
0.0
 70
    32
 71
     5
 42
-1.0
  3
INABA_S20G
100
AcDbAlignedDimension
 13
3644.6
 23
4804.582580843177
 33
0.0
 14
3246.599999999997
 24
4775.582580843271
 34
0.0
100
AcDbRotatedDimension
  0
VIEWPORT
  5
16D12
102
{ACAD_XDICTIONARY
360
1723B
102
}
330
747A
100
AcDbEntity
 67
     1
  8
0
 48
50.0
100
AcDbViewport
 10
253.0459866220736
 20
148.5
 30
0.0
 40
506.0919732441472
 41
297.0
 68
     1
 69
     1
 12
253.0459866220736
 22
148.5
 13
0.0
 23
0.0
 14
10.0
 24
10.0
 15
10.0
 25
10.0
 16
0.0
 26
0.0
 36
1.0
 17
0.0
 27
0.0
 37
0.0
 42
50.0
 43
0.0
 44
0.0
 45
297.0
 50
0.0
 51
0.0
 72
     0
 90
    32800
  1

281
     0
 71
     1
 74
     0
110
0.0
120
0.0
130
0.0
111
1.0
121
0.0
131
0.0
112
0.0
122
1.0
132
0.0
 79
     0
146
0.0
  0
ENDSEC
  0
SECTION
  2
OBJECTS
  0
DICTIONARY
  5
7471
330
0
100
AcDbDictionary
281
     1
  3
ACAD_COLOR
350
17229
  3
ACAD_GROUP
350
7472
  3
ACAD_LAYOUT
350
1722A
  3
ACAD_MATERIAL
350
17228
  3
ACAD_MLINESTYLE
350
7473
  3
ACAD_PLOTSETTINGS
350
1722B
  3
ACAD_PLOTSTYLENAME
350
17226
  3
ACDBHEADERROUNDTRIPXREC
350
17238
  3
AcDbVariableDictionary
350
17234
  3
CONTENTDICTIONARY
350
E71C
  3
DRAWINGVARIABLESDICT
350
F3B9
  0
DICTIONARY
  5
1723B
330
16D12
100
AcDbDictionary
280
     1
281
     1
  3
ACAD_XREC_ROUNDTRIP
360
1723C
  0
DICTIONARY
  5
17229
102
{ACAD_REACTORS
330
7471
102
}
330
7471
100
AcDbDictionary
281
     1
  0
DICTIONARY
  5
7472
102
{ACAD_REACTORS
330
7471
102
}
330
7471
100
AcDbDictionary
281
     1
  0
DICTIONARY
  5
1722A
102
{ACAD_REACTORS
330
7471
102
}
330
7471
100
AcDbDictionary
281
     1
  3
Model
350
1722C
  3
レイアウト1
350
1722D
  0
DICTIONARY
  5
17228
102
{ACAD_REACTORS
330
7471
102
}
330
7471
100
AcDbDictionary
281
     1
  0
DICTIONARY
  5
7473
102
{ACAD_REACTORS
330
7471
102
}
330
7471
100
AcDbDictionary
281
     1
  3
STANDARD
350
7480
  0
DICTIONARY
  5
1722B
102
{ACAD_REACTORS
330
7471
102
}
330
7471
100
AcDbDictionary
281
     1
  0
ACDBDICTIONARYWDFLT
  5
17226
102
{ACAD_REACTORS
330
7471
102
}
330
7471
100
AcDbDictionary
281
     1
  3
Normal
350
17227
100
AcDbDictionaryWithDefault
340
17227
  0
DICTIONARY
  5
17238
102
{ACAD_REACTORS
330
7471
102
}
330
7471
100
AcDbDictionary
281
     1
  3
COLORDICT
350
1723A
  3
MATERIALDICT
350
17239
  0
DICTIONARY
  5
17234
102
{ACAD_REACTORS
330
7471
102
}
330
7471
100
AcDbDictionary
281
     1
  3
DIMASSOC
350
17235
  3
PROJECTNAME
350
17236
  0
DICTIONARY
  5
E71C
102
{ACAD_REACTORS
330
7471
102
}
330
7471
100
AcDbDictionary
281
     1
  0
DICTIONARY
  5
F3B9
102
{ACAD_REACTORS
330
7471
102
}
330
7471
100
AcDbDictionary
281
     1
1001
DRAWINGVARIABLESXDATA
1000
POLARMODE
1000
1
  0
XRECORD
  5
1723C
102
{ACAD_REACTORS
330
1723B
102
}
330
1723B
100
AcDbXrecord
280
     1
102
SHADEPLOT
 70
     0
  0
LAYOUT
  5
1722C
102
{ACAD_XDICTIONARY
360
1723D
102
}
102
{ACAD_REACTORS
330
1722A
102
}
330
1722A
100
AcDbPlotSettings
  1

  2
Microsoft Office Document Image Writer
  4

  6

 40
0.0
 41
0.0
 42
0.0
 43
0.0
 44
0.0
 45
0.0
 46
0.0
 47
0.0
 48
0.0
 49
0.0
140
0.0
141
0.0
142
1.0
143
1.0
 70
  1712
 72
     0
 73
     0
 74
     0
  7

 75
     0
147
1.0
148
0.0
149
0.0
100
AcDbLayout
  1
Model
 70
     1
 71
     0
 10
0.0
 20
0.0
 11
12.0
 21
9.0
 12
0.0
 22
0.0
 32
0.0
 14
0.0
 24
0.0
 34
0.0
 15
0.0
 25
0.0
 35
0.0
146
0.0
 13
0.0
 23
0.0
 33
0.0
 16
1.0
 26
0.0
 36
0.0
 17
0.0
 27
1.0
 37
0.0
 76
     0
330
747D
  0
LAYOUT
  5
1722D
102
{ACAD_XDICTIONARY
360
1723F
102
}
102
{ACAD_REACTORS
330
1722A
102
}
330
1722A
100
AcDbPlotSettings
  1

  2
Microsoft Office Document Image Writer
  4

  6

 40
0.0
 41
0.0
 42
0.0
 43
0.0
 44
0.0
 45
0.0
 46
0.0
 47
0.0
 48
0.0
 49
0.0
140
0.0
141
0.0
142
1.0
143
1.0
 70
   688
 72
     0
 73
     0
 74
     5
  7

 75
    16
147
1.0
148
0.0
149
0.0
100
AcDbLayout
  1
レイアウト1
 70
     0
 71
     1
 10
0.0
 20
0.0
 11
420.0
 21
297.0
 12
0.0
 22
0.0
 32
0.0
 14
1.000000000000000E+20
 24
1.000000000000000E+20
 34
1.000000000000000E+20
 15
-1.000000000000000E+20
 25
-1.000000000000000E+20
 35
-1.000000000000000E+20
146
0.0
 13
0.0
 23
0.0
 33
0.0
 16
1.0
 26
0.0
 36
0.0
 17
0.0
 27
1.0
 37
0.0
 76
     0
330
747A
331
16D12
  0
MLINESTYLE
  5
7480
102
{ACAD_REACTORS
330
7473
102
}
330
7473
100
AcDbMlineStyle
  2
STANDARD
 70
     0
  3

 62
     0
 51
90.0
 52
90.0
 71
     2
 49
0.5
 62
   256
  6
BYLAYER
 49
-0.5
 62
   256
  6
BYLAYER
  0
ACDBPLACEHOLDER
  5
17227
102
{ACAD_REACTORS
330
17226
102
}
330
17226
  0
XRECORD
  5
1723A
102
{ACAD_REACTORS
330
17238
102
}
330
17238
100
AcDbXrecord
280
     1
340
17229
  0
XRECORD
  5
17239
102
{ACAD_REACTORS
330
17238
102
}
330
17238
100
AcDbXrecord
280
     1
340
17228
  0
DICTIONARYVAR
  5
17235
102
{ACAD_REACTORS
330
17234
102
}
330
17234
100
DictionaryVariables
280
     0
  1
1
  0
DICTIONARYVAR
  5
17236
102
{ACAD_REACTORS
330
17234
102
}
330
17234
100
DictionaryVariables
280
     0
  1

  0
DICTIONARY
  5
1723D
330
1722C
100
AcDbDictionary
280
     1
281
     1
  3
ACAD_XREC_ROUNDTRIP
360
1723E
  0
DICTIONARY
  5
1723F
330
1722D
100
AcDbDictionary
280
     1
281
     1
  3
ACAD_XREC_ROUNDTRIP
360
17240
  0
XRECORD
  5
1723E
102
{ACAD_REACTORS
330
1723D
102
}
330
1723D
100
AcDbXrecord
280
     1
102
SHADEPLOT
 70
     0
102
SHADEPLOTRESLEVEL
 70
     2
102
SHADEPLOTCUSTOMDPI
 70
   300
  0
XRECORD
  5
17240
102
{ACAD_REACTORS
330
1723F
102
}
330
1723F
100
AcDbXrecord
280
     1
102
SHADEPLOT
 70
     0
102
SHADEPLOTRESLEVEL
 70
     2
102
SHADEPLOTCUSTOMDPI
 70
   300
  0
ENDSEC
  0
EOF
