  0
SECTION
  2
HEADER
  9
$ACADVER
  1
AC1015
  9
$ACADMAINTVER
 70
    20
  9
$DWGCODEPAGE
  3
ANSI_932
  9
$INSBASE
 10
0.0
 20
0.0
 30
0.0
  9
$EXTMIN
 10
69.8181344077675
 20
-0.1812605841350887
 30
-0.0015258207003583
  9
$EXTMAX
 10
8153.955097163509
 20
5704.977735724504
 30
0.0000000349246037
  9
$LIMMIN
 10
0.0
 20
0.0
  9
$LIMMAX
 10
8200.0
 20
5940.0
  9
$ORTHOMODE
 70
     0
  9
$REGENMODE
 70
     1
  9
$FILLMODE
 70
     1
  9
$QTEXTMODE
 70
     0
  9
$MIRRTEXT
 70
     1
  9
$LTSCALE
 40
20.0
  9
$ATTMODE
 70
     1
  9
$TEXTSIZE
 40
4.0
  9
$TRACEWID
 40
1.0
  9
$TEXTSTYLE
  7
STANDARD
  9
$CLAYER
  8
寸法
  9
$CELTYPE
  6
BYLAYER
  9
$CECOLOR
 62
   256
  9
$CELTSCALE
 40
50.0
  9
$DISPSILH
 70
     0
  9
$DIMSCALE
 40
20.0
  9
$DIMASZ
 40
2.5
  9
$DIMEXO
 40
0.5
  9
$DIMDLI
 40
7.0
  9
$DIMRND
 40
0.0
  9
$DIMDLE
 40
0.0
  9
$DIMEXE
 40
1.5
  9
$DIMTP
 40
0.0
  9
$DIMTM
 40
0.0
  9
$DIMTXT
 40
3.0
  9
$DIMCEN
 40
0.0
  9
$DIMTSZ
 40
0.0
  9
$DIMTOL
 70
     0
  9
$DIMLIM
 70
     0
  9
$DIMTIH
 70
     0
  9
$DIMTOH
 70
     0
  9
$DIMSE1
 70
     0
  9
$DIMSE2
 70
     0
  9
$DIMTAD
 70
     3
  9
$DIMZIN
 70
     8
  9
$DIMBLK
  1

  9
$DIMASO
 70
     1
  9
$DIMSHO
 70
     1
  9
$DIMPOST
  1

  9
$DIMAPOST
  1

  9
$DIMALT
 70
     0
  9
$DIMALTD
 70
     2
  9
$DIMALTF
 40
0.0394
  9
$DIMLFAC
 40
1.0
  9
$DIMTOFL
 70
     1
  9
$DIMTVP
 40
0.0
  9
$DIMTIX
 70
     1
  9
$DIMSOXD
 70
     0
  9
$DIMSAH
 70
     1
  9
$DIMBLK1
  1
DOTSMALL
  9
$DIMBLK2
  1
DOTSMALL
  9
$DIMSTYLE
  2
INABA_S20G
  9
$DIMCLRD
 70
     0
  9
$DIMCLRE
 70
     0
  9
$DIMCLRT
 70
     7
  9
$DIMTFAC
 40
1.0
  9
$DIMGAP
 40
1.0
  9
$DIMJUST
 70
     0
  9
$DIMSD1
 70
     0
  9
$DIMSD2
 70
     0
  9
$DIMTOLJ
 70
     1
  9
$DIMTZIN
 70
     8
  9
$DIMALTZ
 70
     0
  9
$DIMALTTZ
 70
     0
  9
$DIMUPT
 70
     0
  9
$DIMDEC
 70
     1
  9
$DIMTDEC
 70
     2
  9
$DIMALTU
 70
     2
  9
$DIMALTTD
 70
     2
  9
$DIMTXSTY
  7
STYLE1
  9
$DIMAUNIT
 70
     0
  9
$DIMADEC
 70
     0
  9
$DIMALTRND
 40
0.0
  9
$DIMAZIN
 70
     0
  9
$DIMDSEP
 70
    46
  9
$DIMATFIT
 70
     3
  9
$DIMFRAC
 70
     0
  9
$DIMLDRBLK
  1

  9
$DIMLUNIT
 70
     2
  9
$DIMLWD
 70
    -2
  9
$DIMLWE
 70
    -2
  9
$DIMTMOVE
 70
     0
  9
$LUNITS
 70
     2
  9
$LUPREC
 70
     1
  9
$SKETCHINC
 40
1.0
  9
$FILLETRAD
 40
10.0
  9
$AUNITS
 70
     0
  9
$AUPREC
 70
     0
  9
$MENU
  1
acad
  9
$ELEVATION
 40
0.0
  9
$PELEVATION
 40
0.0
  9
$THICKNESS
 40
0.0
  9
$LIMCHECK
 70
     0
  9
$CHAMFERA
 40
0.0
  9
$CHAMFERB
 40
0.0
  9
$CHAMFERC
 40
0.0
  9
$CHAMFERD
 40
0.0
  9
$SKPOLY
 70
     0
  9
$TDCREATE
 40
2451557.399918519
  9
$TDUCREATE
 40
2451557.024918519
  9
$TDUPDATE
 40
2454572.639489306
  9
$TDUUPDATE
 40
2454572.264489306
  9
$TDINDWG
 40
1.0406203704
  9
$TDUSRTIMER
 40
1.0406203704
  9
$USRTIMER
 70
     1
  9
$ANGBASE
 50
0.0
  9
$ANGDIR
 70
     0
  9
$PDMODE
 70
     3
  9
$PDSIZE
 40
2.0
  9
$PLINEWID
 40
0.0
  9
$SPLFRAME
 70
     0
  9
$SPLINETYPE
 70
     6
  9
$SPLINESEGS
 70
     8
  9
$HANDSEED
  5
16E99
  9
$SURFTAB1
 70
     6
  9
$SURFTAB2
 70
     6
  9
$SURFTYPE
 70
     6
  9
$SURFU
 70
     6
  9
$SURFV
 70
     6
  9
$UCSBASE
  2

  9
$UCSNAME
  2

  9
$UCSORG
 10
0.0
 20
0.0
 30
0.0
  9
$UCSXDIR
 10
1.0
 20
0.0
 30
0.0
  9
$UCSYDIR
 10
0.0
 20
1.0
 30
0.0
  9
$UCSORTHOREF
  2

  9
$UCSORTHOVIEW
 70
     0
  9
$UCSORGTOP
 10
0.0
 20
0.0
 30
0.0
  9
$UCSORGBOTTOM
 10
0.0
 20
0.0
 30
0.0
  9
$UCSORGLEFT
 10
0.0
 20
0.0
 30
0.0
  9
$UCSORGRIGHT
 10
0.0
 20
0.0
 30
0.0
  9
$UCSORGFRONT
 10
0.0
 20
0.0
 30
0.0
  9
$UCSORGBACK
 10
0.0
 20
0.0
 30
0.0
  9
$PUCSBASE
  2

  9
$PUCSNAME
  2

  9
$PUCSORG
 10
0.0
 20
0.0
 30
0.0
  9
$PUCSXDIR
 10
1.0
 20
0.0
 30
0.0
  9
$PUCSYDIR
 10
0.0
 20
1.0
 30
0.0
  9
$PUCSORTHOREF
  2

  9
$PUCSORTHOVIEW
 70
     0
  9
$PUCSORGTOP
 10
0.0
 20
0.0
 30
0.0
  9
$PUCSORGBOTTOM
 10
0.0
 20
0.0
 30
0.0
  9
$PUCSORGLEFT
 10
0.0
 20
0.0
 30
0.0
  9
$PUCSORGRIGHT
 10
0.0
 20
0.0
 30
0.0
  9
$PUCSORGFRONT
 10
0.0
 20
0.0
 30
0.0
  9
$PUCSORGBACK
 10
0.0
 20
0.0
 30
0.0
  9
$USERI1
 70
     0
  9
$USERI2
 70
     0
  9
$USERI3
 70
     0
  9
$USERI4
 70
     0
  9
$USERI5
 70
     0
  9
$USERR1
 40
0.0
  9
$USERR2
 40
0.0
  9
$USERR3
 40
0.0
  9
$USERR4
 40
0.0
  9
$USERR5
 40
0.0
  9
$WORLDVIEW
 70
     1
  9
$SHADEDGE
 70
     3
  9
$SHADEDIF
 70
    70
  9
$TILEMODE
 70
     1
  9
$MAXACTVP
 70
    16
  9
$PINSBASE
 10
0.0
 20
0.0
 30
0.0
  9
$PLIMCHECK
 70
     0
  9
$PEXTMIN
 10
1.000000000000000E+20
 20
1.000000000000000E+20
 30
1.000000000000000E+20
  9
$PEXTMAX
 10
-1.000000000000000E+20
 20
-1.000000000000000E+20
 30
-1.000000000000000E+20
  9
$PLIMMIN
 10
0.0
 20
0.0
  9
$PLIMMAX
 10
420.0
 20
297.0
  9
$UNITMODE
 70
     0
  9
$VISRETAIN
 70
     0
  9
$PLINEGEN
 70
     0
  9
$PSLTSCALE
 70
     0
  9
$TREEDEPTH
 70
  3020
  9
$CMLSTYLE
  2
STANDARD
  9
$CMLJUST
 70
     0
  9
$CMLSCALE
 40
1.0
  9
$PROXYGRAPHICS
 70
     1
  9
$MEASUREMENT
 70
     1
  9
$CELWEIGHT
370
    -1
  9
$ENDCAPS
280
     0
  9
$JOINSTYLE
280
     0
  9
$LWDISPLAY
290
     0
  9
$INSUNITS
 70
     0
  9
$HYPERLINKBASE
  1

  9
$STYLESHEET
  1

  9
$XEDIT
290
     1
  9
$CEPSNTYPE
380
     0
  9
$PSTYLEMODE
290
     1
  9
$FINGERPRINTGUID
  2
{38CB9382-833A-44AD-971E-B1F70DFB42AB}
  9
$VERSIONGUID
  2
{F1FE81F1-A402-414E-B318-CF85927E9235}
  9
$EXTNAMES
290
     1
  9
$PSVPSCALE
 40
0.0
  9
$OLESTARTUP
290
     0
  0
ENDSEC
  0
SECTION
  2
CLASSES
  0
CLASS
  1
ACDBDICTIONARYWDFLT
  2
AcDbDictionaryWithDefault
  3
ObjectDBX Classes
 90
        0
280
     0
281
     0
  0
CLASS
  1
DICTIONARYVAR
  2
AcDbDictionaryVar
  3
ObjectDBX Classes
 90
        0
280
     0
281
     0
  0
CLASS
  1
ACDBPLACEHOLDER
  2
AcDbPlaceHolder
  3
ObjectDBX Classes
 90
        0
280
     0
281
     0
  0
CLASS
  1
LAYOUT
  2
AcDbLayout
  3
ObjectDBX Classes
 90
        0
280
     0
281
     0
  0
ENDSEC
  0
SECTION
  2
TABLES
  0
TABLE
  2
VPORT
  5
746D
330
0
100
AcDbSymbolTable
 70
     2
  0
VPORT
  5
16E91
330
746D
100
AcDbSymbolTableRecord
100
AcDbViewportTableRecord
  2
*Active
 70
     0
 10
0.0
 20
0.0
 11
1.0
 21
1.0
 12
4111.886615785637
 22
2852.398237570185
 13
0.0
 23
0.0
 14
10.0
 24
10.0
 15
10.0
 25
10.0
 16
0.0
 26
0.0
 36
1.0
 17
0.0
 27
0.0
 37
0.0
 40
5747.263490746341
 41
1.549261083743842
 42
50.0
 43
0.0
 44
0.0
 50
0.0
 51
0.0
 71
     0
 72
     0
 73
     1
 74
     0
 75
     0
 76
     0
 77
     0
 78
     0
281
     0
 65
     1
110
0.0
120
0.0
130
0.0
111
1.0
121
0.0
131
0.0
112
0.0
122
1.0
132
0.0
 79
     0
146
0.0
  0
ENDTAB
  0
TABLE
  2
LTYPE
  5
746A
330
0
100
AcDbSymbolTable
 70
     4
  0
LTYPE
  5
7477
330
746A
100
AcDbSymbolTableRecord
100
AcDbLinetypeTableRecord
  2
BYBLOCK
 70
     0
  3

 72
    65
 73
     0
 40
0.0
  0
LTYPE
  5
7478
330
746A
100
AcDbSymbolTableRecord
100
AcDbLinetypeTableRecord
  2
BYLAYER
 70
     0
  3

 72
    65
 73
     0
 40
0.0
  0
LTYPE
  5
7479
330
746A
100
AcDbSymbolTableRecord
100
AcDbLinetypeTableRecord
  2
CONTINUOUS
 70
     0
  3
Solid line
 72
    65
 73
     0
 40
0.0
  0
LTYPE
  5
7816
330
746A
100
AcDbSymbolTableRecord
100
AcDbLinetypeTableRecord
  2
CENTER
 70
     0
  3
____ _ ____ _ ____ _ ____ _ ____ _ ____ _ ____ 
 72
    65
 73
     4
 40
2.0
 49
1.25
 74
     0
 49
-0.25
 74
     0
 49
0.25
 74
     0
 49
-0.25
 74
     0
  0
LTYPE
  5
781A
330
746A
100
AcDbSymbolTableRecord
100
AcDbLinetypeTableRecord
  2
HIDDEN
 70
     0
  3
__ __ __ __ __ __ __ __ __ __ __ __ __ __ __ __
 72
    65
 73
     2
 40
0.375
 49
0.25
 74
     0
 49
-0.125
 74
     0
  0
LTYPE
  5
781B
330
746A
100
AcDbSymbolTableRecord
100
AcDbLinetypeTableRecord
  2
PHANTOM
 70
     0
  3
______  __  __  ______  __  __  ______  __  __ 
 72
    65
 73
     6
 40
2.5
 49
1.25
 74
     0
 49
-0.25
 74
     0
 49
0.25
 74
     0
 49
-0.25
 74
     0
 49
0.25
 74
     0
 49
-0.25
 74
     0
  0
ENDTAB
  0
TABLE
  2
LAYER
  5
7467
330
0
100
AcDbSymbolTable
 70
    12
  0
LAYER
  5
7474
330
7467
100
AcDbSymbolTableRecord
100
AcDbLayerTableRecord
  2
0
 70
     0
 62
     7
  6
CONTINUOUS
370
    -3
390
16E81
  0
LAYER
  5
DEB2
330
7467
100
AcDbSymbolTableRecord
100
AcDbLayerTableRecord
  2
センター
 70
     0
 62
     3
  6
CENTER
370
    -3
390
16E81
  0
LAYER
  5
DEB3
330
7467
100
AcDbSymbolTableRecord
100
AcDbLayerTableRecord
  2
寸法
 70
     0
 62
     4
  6
CONTINUOUS
370
    -3
390
16E81
  0
LAYER
  5
DEB4
330
7467
100
AcDbSymbolTableRecord
100
AcDbLayerTableRecord
  2
部品1
 70
     0
 62
     7
  6
CONTINUOUS
370
    -3
390
16E81
  0
LAYER
  5
DEB5
330
7467
100
AcDbSymbolTableRecord
100
AcDbLayerTableRecord
  2
補助
 70
     0
 62
    -1
  6
CONTINUOUS
370
    -3
390
16E81
  0
LAYER
  5
DEB6
330
7467
100
AcDbSymbolTableRecord
100
AcDbLayerTableRecord
  2
文字
 70
     0
 62
     7
  6
CONTINUOUS
370
    -3
390
16E81
  0
LAYER
  5
F255
330
7467
100
AcDbSymbolTableRecord
100
AcDbLayerTableRecord
  2
DEFPOINTS
 70
     0
 62
     7
  6
CONTINUOUS
290
     0
370
    -3
390
16E81
  0
LAYER
  5
10B54
330
7467
100
AcDbSymbolTableRecord
100
AcDbLayerTableRecord
  2
仕様書枠
 70
     0
 62
   230
  6
CONTINUOUS
370
    -3
390
16E81
  0
LAYER
  5
11729
330
7467
100
AcDbSymbolTableRecord
100
AcDbLayerTableRecord
  2
Ｇ．Ｌ
 70
     0
 62
    30
  6
CONTINUOUS
370
    -3
390
16E81
  0
LAYER
  5
1173F
330
7467
100
AcDbSymbolTableRecord
100
AcDbLayerTableRecord
  2
細線
 70
     0
 62
     5
  6
CONTINUOUS
370
    -3
390
16E81
  0
LAYER
  5
11740
330
7467
100
AcDbSymbolTableRecord
100
AcDbLayerTableRecord
  2
点線
 70
     0
 62
     2
  6
HIDDEN
370
    -3
390
16E81
  0
LAYER
  5
12229
330
7467
100
AcDbSymbolTableRecord
100
AcDbLayerTableRecord
  2
想像線
 70
     0
 62
     6
  6
PHANTOM
370
    -3
390
16E81
  0
ENDTAB
  0
TABLE
  2
STYLE
  5
7468
330
0
100
AcDbSymbolTable
 70
     3
  0
STYLE
  5
7475
330
7468
100
AcDbSymbolTableRecord
100
AcDbTextStyleTableRecord
  2
STANDARD
 70
     0
 40
0.0
 41
1.0
 50
0.0
 71
     0
 42
4.0
  3
txt
  4
C:\AutoCAD LT\bigfont.shx
  0
STYLE
  5
F706
330
7468
100
AcDbSymbolTableRecord
100
AcDbTextStyleTableRecord
  2
STYLE1
 70
     0
 40
0.0
 41
1.0
 50
0.0
 71
     0
 42
40.0
  3
isocp.shx
  4
bigfont.shx
  0
STYLE
  5
103BF
330
7468
100
AcDbSymbolTableRecord
100
AcDbTextStyleTableRecord
  2
STYLE2
 70
     0
 40
0.0
 41
1.0
 50
0.0
 71
     0
 42
100.0
  3
MS PGothic.ttf
  4

1001
ACAD
1000
MS PGothic
1071
    32818
  0
ENDTAB
  0
TABLE
  2
VIEW
  5
746B
330
0
100
AcDbSymbolTable
 70
     0
  0
ENDTAB
  0
TABLE
  2
UCS
  5
746C
330
0
100
AcDbSymbolTable
 70
     0
  0
ENDTAB
  0
TABLE
  2
APPID
  5
746E
330
0
100
AcDbSymbolTable
 70
     6
  0
APPID
  5
7476
330
746E
100
AcDbSymbolTableRecord
100
AcDbRegAppTableRecord
  2
ACAD
 70
     0
  0
APPID
  5
DEA9
330
746E
100
AcDbSymbolTableRecord
100
AcDbRegAppTableRecord
  2
CONTENTBLOCKICON
 70
     0
  0
APPID
  5
DEAA
330
746E
100
AcDbSymbolTableRecord
100
AcDbRegAppTableRecord
  2
CONTENTBLOCKDESCRIPTION
 70
     0
  0
APPID
  5
E71D
330
746E
100
AcDbSymbolTableRecord
100
AcDbRegAppTableRecord
  2
CONTENTTABDATA
 70
     0
  0
APPID
  5
E71E
330
746E
100
AcDbSymbolTableRecord
100
AcDbRegAppTableRecord
  2
CONTENTCURRENTTAB
 70
     0
  0
APPID
  5
F3BA
330
746E
100
AcDbSymbolTableRecord
100
AcDbRegAppTableRecord
  2
DRAWINGVARIABLESXDATA
 70
     0
  0
ENDTAB
  0
TABLE
  2
DIMSTYLE
  5
746F
330
0
100
AcDbSymbolTable
 70
     2
100
AcDbDimStyleTable
 71
     0
  0
DIMSTYLE
105
7484
330
746F
100
AcDbSymbolTableRecord
100
AcDbDimStyleTableRecord
  2
JIS
 70
     0
 41
2.5
 42
1.0
 43
7.0
 44
1.0
 73
     0
 74
     0
 77
     1
 78
     8
140
2.5
141
0.0
143
0.0394
147
0.0
172
     1
174
     1
175
     1
340
7475
  0
DIMSTYLE
105
F71F
102
{ACAD_REACTORS
330
1395E
330
1396B
330
144DF
330
144F8
330
14506
330
14540
330
1454F
330
1455B
330
14569
330
14597
330
14631
330
1463D
330
146D8
330
1470A
330
1472F
330
14747
330
1475F
330
147F3
330
14879
330
14885
330
148E2
330
14915
330
149CF
330
15E8D
330
15E9B
330
15EA8
102
}
330
746F
100
AcDbSymbolTableRecord
100
AcDbDimStyleTableRecord
  2
INABA_S20G
 70
     0
 40
20.0
 41
2.5
 42
0.5
 43
7.0
 44
1.5
 73
     0
 74
     0
 77
     3
 78
     8
140
3.0
141
0.0
143
0.0394
147
1.0
172
     1
173
     1
174
     1
178
     7
271
     1
272
     2
284
     8
340
F706
341
F770
343
F770
344
F770
  0
ENDTAB
  0
TABLE
  2
BLOCK_RECORD
  5
7466
330
0
100
AcDbSymbolTable
 70
    27
  0
BLOCK_RECORD
  5
747D
330
7466
100
AcDbSymbolTableRecord
100
AcDbBlockTableRecord
  2
*MODEL_SPACE
340
16E86
  0
BLOCK_RECORD
  5
747A
330
7466
100
AcDbSymbolTableRecord
100
AcDbBlockTableRecord
  2
*PAPER_SPACE
340
16E87
  0
BLOCK_RECORD
  5
F770
330
7466
100
AcDbSymbolTableRecord
100
AcDbBlockTableRecord
  2
_DOTSMALL
340
0
102
{BLKREFS
331
16D76
331
16D77
331
15D7B
331
15D7C
331
14523
331
14524
331
16D29
331
16D2A
331
1461C
331
1461D
331
16D34
331
16D35
331
145DF
331
145E0
331
14602
331
14603
331
146DF
331
146E0
331
14590
331
14591
331
15EEB
331
15EEC
331
15EB7
331
15EB8
331
15E7A
331
15E7B
331
16D60
331
16D61
331
14734
331
14735
331
16D6B
331
16D6C
331
147A8
331
147A9
331
148AE
331
148AF
331
14872
331
14873
331
148CF
331
148D0
331
148FD
331
148FE
331
14961
331
14962
331
16D83
331
16D84
331
15E86
331
15E87
331
15E94
331
15E95
331
15ECF
331
15ED0
102
}
  0
BLOCK_RECORD
  5
13952
330
7466
100
AcDbSymbolTableRecord
100
AcDbBlockTableRecord
  2
*D1
340
0
  0
BLOCK_RECORD
  5
1395F
330
7466
100
AcDbSymbolTableRecord
100
AcDbBlockTableRecord
  2
*D2
340
0
  0
BLOCK_RECORD
  5
144D1
330
7466
100
AcDbSymbolTableRecord
100
AcDbBlockTableRecord
  2
*D3
340
0
  0
BLOCK_RECORD
  5
144ED
330
7466
100
AcDbSymbolTableRecord
100
AcDbBlockTableRecord
  2
*D4
340
0
  0
BLOCK_RECORD
  5
144F9
330
7466
100
AcDbSymbolTableRecord
100
AcDbBlockTableRecord
  2
*D5
340
0
  0
BLOCK_RECORD
  5
14534
330
7466
100
AcDbSymbolTableRecord
100
AcDbBlockTableRecord
  2
*D6
340
0
  0
BLOCK_RECORD
  5
14541
330
7466
100
AcDbSymbolTableRecord
100
AcDbBlockTableRecord
  2
*D7
340
0
  0
BLOCK_RECORD
  5
14550
330
7466
100
AcDbSymbolTableRecord
100
AcDbBlockTableRecord
  2
*D8
340
0
  0
BLOCK_RECORD
  5
1455C
330
7466
100
AcDbSymbolTableRecord
100
AcDbBlockTableRecord
  2
*D9
340
0
  0
BLOCK_RECORD
  5
1458B
330
7466
100
AcDbSymbolTableRecord
100
AcDbBlockTableRecord
  2
*D10
340
0
  0
BLOCK_RECORD
  5
14623
330
7466
100
AcDbSymbolTableRecord
100
AcDbBlockTableRecord
  2
*D11
340
0
  0
BLOCK_RECORD
  5
14632
330
7466
100
AcDbSymbolTableRecord
100
AcDbBlockTableRecord
  2
*D12
340
0
  0
BLOCK_RECORD
  5
146CC
330
7466
100
AcDbSymbolTableRecord
100
AcDbBlockTableRecord
  2
*D13
340
0
  0
BLOCK_RECORD
  5
146FE
330
7466
100
AcDbSymbolTableRecord
100
AcDbBlockTableRecord
  2
*D14
340
0
  0
BLOCK_RECORD
  5
14723
330
7466
100
AcDbSymbolTableRecord
100
AcDbBlockTableRecord
  2
*D15
340
0
  0
BLOCK_RECORD
  5
1473B
330
7466
100
AcDbSymbolTableRecord
100
AcDbBlockTableRecord
  2
*D16
340
0
  0
BLOCK_RECORD
  5
14753
330
7466
100
AcDbSymbolTableRecord
100
AcDbBlockTableRecord
  2
*D17
340
0
  0
BLOCK_RECORD
  5
147E7
330
7466
100
AcDbSymbolTableRecord
100
AcDbBlockTableRecord
  2
*D18
340
0
  0
BLOCK_RECORD
  5
1486D
330
7466
100
AcDbSymbolTableRecord
100
AcDbBlockTableRecord
  2
*D19
340
0
  0
BLOCK_RECORD
  5
1487A
330
7466
100
AcDbSymbolTableRecord
100
AcDbBlockTableRecord
  2
*D20
340
0
  0
BLOCK_RECORD
  5
148D6
330
7466
100
AcDbSymbolTableRecord
100
AcDbBlockTableRecord
  2
*D21
340
0
  0
BLOCK_RECORD
  5
14907
330
7466
100
AcDbSymbolTableRecord
100
AcDbBlockTableRecord
  2
*D22
340
0
  0
BLOCK_RECORD
  5
149C3
330
7466
100
AcDbSymbolTableRecord
100
AcDbBlockTableRecord
  2
*D23
340
0
  0
BLOCK_RECORD
  5
15E81
330
7466
100
AcDbSymbolTableRecord
100
AcDbBlockTableRecord
  2
*D24
340
0
  0
BLOCK_RECORD
  5
15E8E
330
7466
100
AcDbSymbolTableRecord
100
AcDbBlockTableRecord
  2
*D25
340
0
  0
BLOCK_RECORD
  5
15E9C
330
7466
100
AcDbSymbolTableRecord
100
AcDbBlockTableRecord
  2
*D26
340
0
  0
ENDTAB
  0
ENDSEC
  0
SECTION
  2
BLOCKS
  0
BLOCK
  5
7489
330
747D
100
AcDbEntity
  8
0
100
AcDbBlockBegin
  2
*MODEL_SPACE
 70
     0
 10
0.0
 20
0.0
 30
0.0
  3
*MODEL_SPACE
  1

  0
ENDBLK
  5
748A
330
747D
100
AcDbEntity
  8
0
100
AcDbBlockEnd
  0
BLOCK
  5
7487
330
747A
100
AcDbEntity
 67
     1
  8
0
100
AcDbBlockBegin
  2
*PAPER_SPACE
 70
     0
 10
0.0
 20
0.0
 30
0.0
  3
*PAPER_SPACE
  1

  0
ENDBLK
  5
7488
330
747A
100
AcDbEntity
 67
     1
  8
0
100
AcDbBlockEnd
  0
BLOCK
  5
F771
330
F770
100
AcDbEntity
  8
0
 48
50.0
100
AcDbBlockBegin
  2
_DOTSMALL
 70
     0
 10
0.0
 20
0.0
 30
0.0
  3
_DOTSMALL
  1

  0
LWPOLYLINE
  5
F772
330
F770
100
AcDbEntity
  8
0
  6
ByBlock
 62
     0
 48
50.0
100
AcDbPolyline
 90
        2
 70
     1
 43
0.5
 10
-0.0625
 20
0.0
 42
1.0
 10
0.0625
 20
0.0
 42
1.0
  0
ENDBLK
  5
F776
330
F770
100
AcDbEntity
  8
0
 48
50.0
100
AcDbBlockEnd
  0
BLOCK
  5
16D72
330
13952
100
AcDbEntity
  8
0
 48
50.0
100
AcDbBlockBegin
  2
*D1
 70
     1
 10
0.0
 20
0.0
 30
0.0
  3
*D1
  1

  0
LINE
  5
16D73
330
13952
100
AcDbEntity
  8
0
  6
ByBlock
 62
     0
 48
50.0
100
AcDbLine
 10
3703.599999999999
 20
4094.582580843267
 30
0.0
 11
3703.599999999999
 21
3632.884076791021
 31
0.0
  0
LINE
  5
16D74
330
13952
100
AcDbEntity
  8
0
  6
ByBlock
 62
     0
 48
50.0
100
AcDbLine
 10
2603.599999999999
 20
4094.582580843265
 30
0.0
 11
2603.599999999999
 21
3632.884076791021
 31
0.0
  0
LINE
  5
16D75
330
13952
100
AcDbEntity
  8
0
  6
ByBlock
 62
     0
 48
50.0
100
AcDbLine
 10
3703.599999999999
 20
3662.884076791021
 30
0.0
 11
2603.599999999999
 21
3662.884076791021
 31
0.0
  0
INSERT
  5
16D76
330
13952
100
AcDbEntity
  8
0
  6
ByBlock
 62
     0
 48
50.0
100
AcDbBlockReference
  2
_DOTSMALL
 10
3703.599999999999
 20
3662.884076791021
 30
0.0
 41
50.0
 42
50.0
 43
50.0
  0
INSERT
  5
16D77
330
13952
100
AcDbEntity
  8
0
  6
ByBlock
 62
     0
 48
50.0
100
AcDbBlockReference
  2
_DOTSMALL
 10
2603.599999999999
 20
3662.884076791021
 30
0.0
 41
50.0
 42
50.0
 43
50.0
 50
180.0
  0
MTEXT
  5
16D78
330
13952
100
AcDbEntity
  8
0
  6
ByBlock
 62
     7
 48
50.0
100
AcDbMText
 10
3153.599999999999
 20
3712.88407679102
 30
0.0
 40
60.0
 41
0.0
 71
     5
 72
     1
  1
\A1;1100
  7
STYLE1
 73
     1
 44
1.0
1001
ACAD
1000
MTEXTBEGIN
1070
    73
1070
     1
1070
    44
1040
1.0
1070
    74
1070
     0
1000
MTEXTEND
  0
POINT
  5
16D79
330
13952
100
AcDbEntity
  8
DEFPOINTS
  6
ByBlock
 62
     0
 48
50.0
100
AcDbPoint
 10
3703.599999999999
 20
4104.582580843267
 30
0.0
  0
POINT
  5
16D7A
330
13952
100
AcDbEntity
  8
DEFPOINTS
  6
ByBlock
 62
     0
 48
50.0
100
AcDbPoint
 10
2603.599999999999
 20
4104.582580843265
 30
0.0
  0
POINT
  5
16D7B
330
13952
100
AcDbEntity
  8
DEFPOINTS
  6
ByBlock
 62
     0
 48
50.0
100
AcDbPoint
 10
2603.599999999999
 20
3662.884076791021
 30
0.0
  0
ENDBLK
  5
16D7C
330
13952
100
AcDbEntity
  8
0
 48
50.0
100
AcDbBlockEnd
  0
BLOCK
  5
15D77
330
1395F
100
AcDbEntity
  8
0
 48
50.0
100
AcDbBlockBegin
  2
*D2
 70
     1
 10
0.0
 20
0.0
 30
0.0
  3
*D2
  1

  0
LINE
  5
15D78
330
1395F
100
AcDbEntity
  8
0
  6
ByBlock
 62
     0
 48
50.0
100
AcDbLine
 10
-6391.353650781526
 20
4664.582580843268
 30
0.0
 11
-5869.152789342341
 21
4664.582580843268
 31
0.0
  0
LINE
  5
15D79
330
1395F
100
AcDbEntity
  8
0
  6
ByBlock
 62
     0
 48
50.0
100
AcDbLine
 10
-6386.353650781526
 20
4104.582580843267
 30
0.0
 11
-5869.152789342341
 21
4104.582580843267
 31
0.0
  0
LINE
  5
15D7A
330
1395F
100
AcDbEntity
  8
0
  6
ByBlock
 62
     0
 48
50.0
100
AcDbLine
 10
-5899.152789342341
 20
4664.582580843268
 30
0.0
 11
-5899.152789342341
 21
4104.582580843267
 31
0.0
  0
INSERT
  5
15D7B
330
1395F
100
AcDbEntity
  8
0
  6
ByBlock
 62
     0
 48
50.0
100
AcDbBlockReference
  2
_DOTSMALL
 10
-5899.152789342341
 20
4664.582580843268
 30
0.0
 41
50.0
 42
50.0
 43
50.0
 50
90.0
  0
INSERT
  5
15D7C
330
1395F
100
AcDbEntity
  8
0
  6
ByBlock
 62
     0
 48
50.0
100
AcDbBlockReference
  2
_DOTSMALL
 10
-5899.152789342341
 20
4104.582580843267
 30
0.0
 41
50.0
 42
50.0
 43
50.0
 50
270.0
  0
MTEXT
  5
15D7D
330
1395F
100
AcDbEntity
  8
0
  6
ByBlock
 62
     7
 48
50.0
100
AcDbMText
 10
-5949.152789342341
 20
4384.582580843268
 30
0.0
 40
60.0
 41
0.0
 71
     5
 72
     1
  1
\A1;560
  7
STYLE1
 11
0.0000000000000001
 21
1.0
 31
0.0
 73
     1
 44
1.0
1001
ACAD
1000
MTEXTBEGIN
1070
    73
1070
     1
1070
    44
1040
1.0
1070
    74
1070
     0
1000
MTEXTEND
  0
POINT
  5
15D7E
330
1395F
100
AcDbEntity
  8
DEFPOINTS
  6
ByBlock
 62
     0
 48
50.0
100
AcDbPoint
 10
-6401.353650781526
 20
4664.582580843268
 30
0.0
  0
POINT
  5
15D7F
330
1395F
100
AcDbEntity
  8
DEFPOINTS
  6
ByBlock
 62
     0
 48
50.0
100
AcDbPoint
 10
-6396.353650781526
 20
4104.582580843267
 30
0.0
  0
POINT
  5
15D80
330
1395F
100
AcDbEntity
  8
DEFPOINTS
  6
ByBlock
 62
     0
 48
50.0
100
AcDbPoint
 10
-5899.152789342341
 20
4104.582580843267
 30
0.0
  0
ENDBLK
  5
15D81
330
1395F
100
AcDbEntity
  8
0
 48
50.0
100
AcDbBlockEnd
  0
BLOCK
  5
1451D
330
144D1
100
AcDbEntity
  8
0
 48
50.0
100
AcDbBlockBegin
  2
*D3
 70
     1
 10
0.0
 20
0.0
 30
0.0
  3
*D3
  1

  0
LINE
  5
1451E
330
144D1
100
AcDbEntity
  8
0
  6
ByBlock
 62
     0
 48
50.0
100
AcDbLine
 10
2417.425444021795
 20
2015.018004490406
 30
0.0
 11
2417.425444021795
 21
2233.042118436075
 31
0.0
  0
LINE
  5
1451F
330
144D1
100
AcDbEntity
  8
0
  6
ByBlock
 62
     0
 48
50.0
100
AcDbLine
 10
2422.425444021796
 20
2028.018004490407
 30
0.0
 11
2422.425444021796
 21
2233.042118436075
 31
0.0
  0
LINE
  5
14520
330
144D1
100
AcDbEntity
  8
0
  6
ByBlock
 62
     0
 48
50.0
100
AcDbLine
 10
2422.425444021796
 20
2203.042118436075
 30
0.0
 11
2472.425444021796
 21
2203.042118436075
 31
0.0
  0
LINE
  5
14521
330
144D1
100
AcDbEntity
  8
0
  6
ByBlock
 62
     0
 48
50.0
100
AcDbLine
 10
2417.425444021795
 20
2203.042118436075
 30
0.0
 11
2236.138836602983
 21
2203.042118436075
 31
0.0
  0
LINE
  5
14522
330
144D1
100
AcDbEntity
  8
0
  6
ByBlock
 62
     0
 48
50.0
100
AcDbLine
 10
2422.425444021796
 20
2203.042118436075
 30
0.0
 11
2417.425444021795
 21
2203.042118436075
 31
0.0
  0
INSERT
  5
14523
330
144D1
100
AcDbEntity
  8
0
  6
ByBlock
 62
     0
 48
50.0
100
AcDbBlockReference
  2
_DOTSMALL
 10
2422.425444021796
 20
2203.042118436075
 30
0.0
 41
50.0
 42
50.0
 43
50.0
 50
180.0
  0
INSERT
  5
14524
330
144D1
100
AcDbEntity
  8
0
  6
ByBlock
 62
     0
 48
50.0
100
AcDbBlockReference
  2
_DOTSMALL
 10
2417.425444021795
 20
2203.042118436075
 30
0.0
 41
50.0
 42
50.0
 43
50.0
  0
MTEXT
  5
14525
330
144D1
100
AcDbEntity
  8
0
  6
ByBlock
 62
     7
 48
50.0
100
AcDbMText
 10
2269.381477290103
 20
2253.042118436075
 30
0.0
 40
60.0
 41
0.0
 71
     5
 72
     1
  1
\A1;5
  7
STYLE1
 73
     1
 44
1.0
1001
ACAD
1000
MTEXTBEGIN
1070
    73
1070
     1
1070
    44
1040
1.0
1070
    74
1070
     0
1000
MTEXTEND
  0
POINT
  5
14526
330
144D1
100
AcDbEntity
  8
DEFPOINTS
  6
ByBlock
 62
     0
 48
50.0
100
AcDbPoint
 10
2417.425444021795
 20
2005.018004490406
 30
0.0
  0
POINT
  5
14527
330
144D1
100
AcDbEntity
  8
DEFPOINTS
  6
ByBlock
 62
     0
 48
50.0
100
AcDbPoint
 10
2422.425444021796
 20
2018.018004490407
 30
0.0
  0
POINT
  5
14528
330
144D1
100
AcDbEntity
  8
DEFPOINTS
  6
ByBlock
 62
     0
 48
50.0
100
AcDbPoint
 10
2422.425444021796
 20
2203.042118436075
 30
0.0
  0
ENDBLK
  5
14529
330
144D1
100
AcDbEntity
  8
0
 48
50.0
100
AcDbBlockEnd
  0
BLOCK
  5
16D25
330
144ED
100
AcDbEntity
  8
0
 48
50.0
100
AcDbBlockBegin
  2
*D4
 70
     1
 10
0.0
 20
0.0
 30
0.0
  3
*D4
  1

  0
LINE
  5
16D26
330
144ED
100
AcDbEntity
  8
0
  6
ByBlock
 62
     0
 48
50.0
100
AcDbLine
 10
2603.599999999999
 20
2000.0
 30
0.0
 11
2603.599999999999
 21
2205.024113945668
 31
0.0
  0
LINE
  5
16D27
330
144ED
100
AcDbEntity
  8
0
  6
ByBlock
 62
     0
 48
50.0
100
AcDbLine
 10
3703.599999999999
 20
1999.999999999999
 30
0.0
 11
3703.599999999999
 21
2205.024113945668
 31
0.0
  0
LINE
  5
16D28
330
144ED
100
AcDbEntity
  8
0
  6
ByBlock
 62
     0
 48
50.0
100
AcDbLine
 10
2603.599999999999
 20
2175.024113945668
 30
0.0
 11
3703.599999999999
 21
2175.024113945668
 31
0.0
  0
INSERT
  5
16D29
330
144ED
100
AcDbEntity
  8
0
  6
ByBlock
 62
     0
 48
50.0
100
AcDbBlockReference
  2
_DOTSMALL
 10
2603.599999999999
 20
2175.024113945668
 30
0.0
 41
50.0
 42
50.0
 43
50.0
 50
180.0
  0
INSERT
  5
16D2A
330
144ED
100
AcDbEntity
  8
0
  6
ByBlock
 62
     0
 48
50.0
100
AcDbBlockReference
  2
_DOTSMALL
 10
3703.599999999999
 20
2175.024113945668
 30
0.0
 41
50.0
 42
50.0
 43
50.0
  0
MTEXT
  5
16D2B
330
144ED
100
AcDbEntity
  8
0
  6
ByBlock
 62
     7
 48
50.0
100
AcDbMText
 10
3153.599999999999
 20
2225.024113945668
 30
0.0
 40
60.0
 41
0.0
 71
     5
 72
     1
  1
\A1;1100
  7
STYLE1
 73
     1
 44
1.0
1001
ACAD
1000
MTEXTBEGIN
1070
    73
1070
     1
1070
    44
1040
1.0
1070
    74
1070
     0
1000
MTEXTEND
  0
POINT
  5
16D2C
330
144ED
100
AcDbEntity
  8
DEFPOINTS
  6
ByBlock
 62
     0
 48
50.0
100
AcDbPoint
 10
2603.599999999999
 20
1990.0
 30
0.0
  0
POINT
  5
16D2D
330
144ED
100
AcDbEntity
  8
DEFPOINTS
  6
ByBlock
 62
     0
 48
50.0
100
AcDbPoint
 10
3703.599999999999
 20
1989.999999999999
 30
0.0
  0
POINT
  5
16D2E
330
144ED
100
AcDbEntity
  8
DEFPOINTS
  6
ByBlock
 62
     0
 48
50.0
100
AcDbPoint
 10
3703.599999999999
 20
2175.024113945668
 30
0.0
  0
ENDBLK
  5
16D2F
330
144ED
100
AcDbEntity
  8
0
 48
50.0
100
AcDbBlockEnd
  0
BLOCK
  5
14616
330
144F9
100
AcDbEntity
  8
0
 48
50.0
100
AcDbBlockBegin
  2
*D5
 70
     1
 10
0.0
 20
0.0
 30
0.0
  3
*D5
  1

  0
LINE
  5
14617
330
144F9
100
AcDbEntity
  8
0
  6
ByBlock
 62
     0
 48
50.0
100
AcDbLine
 10
3922.425444021797
 20
2028.018004490405
 30
0.0
 11
3922.425444021797
 21
2233.042118436075
 31
0.0
  0
LINE
  5
14618
330
144F9
100
AcDbEntity
  8
0
  6
ByBlock
 62
     0
 48
50.0
100
AcDbLine
 10
3927.425444021798
 20
2015.018004490406
 30
0.0
 11
3927.425444021798
 21
2233.042118436075
 31
0.0
  0
LINE
  5
14619
330
144F9
100
AcDbEntity
  8
0
  6
ByBlock
 62
     0
 48
50.0
100
AcDbLine
 10
3922.425444021797
 20
2203.042118436075
 30
0.0
 11
3872.425444021797
 21
2203.042118436075
 31
0.0
  0
LINE
  5
1461A
330
144F9
100
AcDbEntity
  8
0
  6
ByBlock
 62
     0
 48
50.0
100
AcDbLine
 10
3927.425444021798
 20
2203.042118436075
 30
0.0
 11
4093.910725396035
 21
2203.042118436075
 31
0.0
  0
LINE
  5
1461B
330
144F9
100
AcDbEntity
  8
0
  6
ByBlock
 62
     0
 48
50.0
100
AcDbLine
 10
3922.425444021797
 20
2203.042118436075
 30
0.0
 11
3927.425444021798
 21
2203.042118436075
 31
0.0
  0
INSERT
  5
1461C
330
144F9
100
AcDbEntity
  8
0
  6
ByBlock
 62
     0
 48
50.0
100
AcDbBlockReference
  2
_DOTSMALL
 10
3922.425444021797
 20
2203.042118436075
 30
0.0
 41
50.0
 42
50.0
 43
50.0
  0
INSERT
  5
1461D
330
144F9
100
AcDbEntity
  8
0
  6
ByBlock
 62
     0
 48
50.0
100
AcDbBlockReference
  2
_DOTSMALL
 10
3927.425444021798
 20
2203.042118436075
 30
0.0
 41
50.0
 42
50.0
 43
50.0
 50
180.0
  0
MTEXT
  5
1461E
330
144F9
100
AcDbEntity
  8
0
  6
ByBlock
 62
     7
 48
50.0
100
AcDbMText
 10
4060.668084708916
 20
2253.042118436075
 30
0.0
 40
60.0
 41
0.0
 71
     5
 72
     1
  1
\A1;5
  7
STYLE1
 73
     1
 44
1.0
1001
ACAD
1000
MTEXTBEGIN
1070
    73
1070
     1
1070
    44
1040
1.0
1070
    74
1070
     0
1000
MTEXTEND
  0
POINT
  5
1461F
330
144F9
100
AcDbEntity
  8
DEFPOINTS
  6
ByBlock
 62
     0
 48
50.0
100
AcDbPoint
 10
3922.425444021797
 20
2018.018004490405
 30
0.0
  0
POINT
  5
14620
330
144F9
100
AcDbEntity
  8
DEFPOINTS
  6
ByBlock
 62
     0
 48
50.0
100
AcDbPoint
 10
3927.425444021798
 20
2005.018004490406
 30
0.0
  0
POINT
  5
14621
330
144F9
100
AcDbEntity
  8
DEFPOINTS
  6
ByBlock
 62
     0
 48
50.0
100
AcDbPoint
 10
3927.425444021798
 20
2203.042118436075
 30
0.0
  0
ENDBLK
  5
14622
330
144F9
100
AcDbEntity
  8
0
 48
50.0
100
AcDbBlockEnd
  0
BLOCK
  5
16D30
330
14534
100
AcDbEntity
  8
0
 48
50.0
100
AcDbBlockBegin
  2
*D6
 70
     1
 10
0.0
 20
0.0
 30
0.0
  3
*D6
  1

  0
LINE
  5
16D31
330
14534
100
AcDbEntity
  8
0
  6
ByBlock
 62
     0
 48
50.0
100
AcDbLine
 10
2598.599999999999
 20
1986.999999999999
 30
0.0
 11
2598.599999999999
 21
2333.220335370564
 31
0.0
  0
LINE
  5
16D32
330
14534
100
AcDbEntity
  8
0
  6
ByBlock
 62
     0
 48
50.0
100
AcDbLine
 10
3708.600000000002
 20
1986.999999999999
 30
0.0
 11
3708.600000000002
 21
2333.220335370564
 31
0.0
  0
LINE
  5
16D33
330
14534
100
AcDbEntity
  8
0
  6
ByBlock
 62
     0
 48
50.0
100
AcDbLine
 10
2598.599999999999
 20
2303.220335370565
 30
0.0
 11
3708.600000000002
 21
2303.220335370565
 31
0.0
  0
INSERT
  5
16D34
330
14534
100
AcDbEntity
  8
0
  6
ByBlock
 62
     0
 48
50.0
100
AcDbBlockReference
  2
_DOTSMALL
 10
2598.599999999999
 20
2303.220335370565
 30
0.0
 41
50.0
 42
50.0
 43
50.0
 50
180.0
  0
INSERT
  5
16D35
330
14534
100
AcDbEntity
  8
0
  6
ByBlock
 62
     0
 48
50.0
100
AcDbBlockReference
  2
_DOTSMALL
 10
3708.600000000002
 20
2303.220335370565
 30
0.0
 41
50.0
 42
50.0
 43
50.0
  0
MTEXT
  5
16D36
330
14534
100
AcDbEntity
  8
0
  6
ByBlock
 62
     7
 48
50.0
100
AcDbMText
 10
3153.600000000001
 20
2353.220335370565
 30
0.0
 40
60.0
 41
0.0
 71
     5
 72
     1
  1
\A1;1110
  7
STYLE1
 73
     1
 44
1.0
1001
ACAD
1000
MTEXTBEGIN
1070
    73
1070
     1
1070
    44
1040
1.0
1070
    74
1070
     0
1000
MTEXTEND
  0
POINT
  5
16D37
330
14534
100
AcDbEntity
  8
DEFPOINTS
  6
ByBlock
 62
     0
 48
50.0
100
AcDbPoint
 10
2598.599999999999
 20
1976.999999999999
 30
0.0
  0
POINT
  5
16D38
330
14534
100
AcDbEntity
  8
DEFPOINTS
  6
ByBlock
 62
     0
 48
50.0
100
AcDbPoint
 10
3708.600000000002
 20
1976.999999999999
 30
0.0
  0
POINT
  5
16D39
330
14534
100
AcDbEntity
  8
DEFPOINTS
  6
ByBlock
 62
     0
 48
50.0
100
AcDbPoint
 10
3708.600000000002
 20
2303.220335370565
 30
0.0
  0
ENDBLK
  5
16D3A
330
14534
100
AcDbEntity
  8
0
 48
50.0
100
AcDbBlockEnd
  0
BLOCK
  5
145D9
330
14541
100
AcDbEntity
  8
0
 48
50.0
100
AcDbBlockBegin
  2
*D7
 70
     1
 10
0.0
 20
0.0
 30
0.0
  3
*D7
  1

  0
LINE
  5
145DA
330
14541
100
AcDbEntity
  8
0
  6
ByBlock
 62
     0
 48
50.0
100
AcDbLine
 10
4730.437100548697
 20
1998.822506334519
 30
0.0
 11
4730.437100548697
 21
2233.042118436075
 31
0.0
  0
LINE
  5
145DB
330
14541
100
AcDbEntity
  8
0
  6
ByBlock
 62
     0
 48
50.0
100
AcDbLine
 10
4770.437100548696
 20
2014.266581874631
 30
0.0
 11
4770.437100548696
 21
2233.042118436075
 31
0.0
  0
LINE
  5
145DC
330
14541
100
AcDbEntity
  8
0
  6
ByBlock
 62
     0
 48
50.0
100
AcDbLine
 10
4770.437100548696
 20
2203.042118436075
 30
0.0
 11
4820.437100548696
 21
2203.042118436075
 31
0.0
  0
LINE
  5
145DD
330
14541
100
AcDbEntity
  8
0
  6
ByBlock
 62
     0
 48
50.0
100
AcDbLine
 10
4730.437100548697
 20
2203.042118436075
 30
0.0
 11
4518.389856454208
 21
2203.042118436075
 31
0.0
  0
LINE
  5
145DE
330
14541
100
AcDbEntity
  8
0
  6
ByBlock
 62
     0
 48
50.0
100
AcDbLine
 10
4770.437100548696
 20
2203.042118436075
 30
0.0
 11
4730.437100548697
 21
2203.042118436075
 31
0.0
  0
INSERT
  5
145DF
330
14541
100
AcDbEntity
  8
0
  6
ByBlock
 62
     0
 48
50.0
100
AcDbBlockReference
  2
_DOTSMALL
 10
4770.437100548696
 20
2203.042118436075
 30
0.0
 41
50.0
 42
50.0
 43
50.0
 50
180.0
  0
INSERT
  5
145E0
330
14541
100
AcDbEntity
  8
0
  6
ByBlock
 62
     0
 48
50.0
100
AcDbBlockReference
  2
_DOTSMALL
 10
4730.437100548697
 20
2203.042118436075
 30
0.0
 41
50.0
 42
50.0
 43
50.0
  0
MTEXT
  5
145E1
330
14541
100
AcDbEntity
  8
0
  6
ByBlock
 62
     7
 48
50.0
100
AcDbMText
 10
4574.413478501453
 20
2253.042118436075
 30
0.0
 40
60.0
 41
0.0
 71
     5
 72
     1
  1
\A1;40
  7
STYLE1
 73
     1
 44
1.0
1001
ACAD
1000
MTEXTBEGIN
1070
    73
1070
     1
1070
    44
1040
1.0
1070
    74
1070
     0
1000
MTEXTEND
  0
POINT
  5
145E2
330
14541
100
AcDbEntity
  8
DEFPOINTS
  6
ByBlock
 62
     0
 48
50.0
100
AcDbPoint
 10
4730.437100548697
 20
1988.822506334519
 30
0.0
  0
POINT
  5
145E3
330
14541
100
AcDbEntity
  8
DEFPOINTS
  6
ByBlock
 62
     0
 48
50.0
100
AcDbPoint
 10
4770.437100548696
 20
2004.266581874631
 30
0.0
  0
POINT
  5
145E4
330
14541
100
AcDbEntity
  8
DEFPOINTS
  6
ByBlock
 62
     0
 48
50.0
100
AcDbPoint
 10
4770.437100548696
 20
2203.042118436075
 30
0.0
  0
ENDBLK
  5
145E5
330
14541
100
AcDbEntity
  8
0
 48
50.0
100
AcDbBlockEnd
  0
BLOCK
  5
145FE
330
14550
100
AcDbEntity
  8
0
 48
50.0
100
AcDbBlockBegin
  2
*D8
 70
     1
 10
0.0
 20
0.0
 30
0.0
  3
*D8
  1

  0
LINE
  5
145FF
330
14550
100
AcDbEntity
  8
0
  6
ByBlock
 62
     0
 48
50.0
100
AcDbLine
 10
4770.437100548696
 20
2014.266581874631
 30
0.0
 11
4770.437100548696
 21
2233.042118436075
 31
0.0
  0
LINE
  5
14600
330
14550
100
AcDbEntity
  8
0
  6
ByBlock
 62
     0
 48
50.0
100
AcDbLine
 10
5330.437100548698
 20
2028.018004490406
 30
0.0
 11
5330.437100548698
 21
2233.042118436075
 31
0.0
  0
LINE
  5
14601
330
14550
100
AcDbEntity
  8
0
  6
ByBlock
 62
     0
 48
50.0
100
AcDbLine
 10
4770.437100548696
 20
2203.042118436075
 30
0.0
 11
5330.437100548698
 21
2203.042118436075
 31
0.0
  0
INSERT
  5
14602
330
14550
100
AcDbEntity
  8
0
  6
ByBlock
 62
     0
 48
50.0
100
AcDbBlockReference
  2
_DOTSMALL
 10
4770.437100548696
 20
2203.042118436075
 30
0.0
 41
50.0
 42
50.0
 43
50.0
 50
180.0
  0
INSERT
  5
14603
330
14550
100
AcDbEntity
  8
0
  6
ByBlock
 62
     0
 48
50.0
100
AcDbBlockReference
  2
_DOTSMALL
 10
5330.437100548698
 20
2203.042118436075
 30
0.0
 41
50.0
 42
50.0
 43
50.0
  0
MTEXT
  5
14604
330
14550
100
AcDbEntity
  8
0
  6
ByBlock
 62
     7
 48
50.0
100
AcDbMText
 10
5050.437100548697
 20
2253.042118436075
 30
0.0
 40
60.0
 41
0.0
 71
     5
 72
     1
  1
\A1;560
  7
STYLE1
 73
     1
 44
1.0
1001
ACAD
1000
MTEXTBEGIN
1070
    73
1070
     1
1070
    44
1040
1.0
1070
    74
1070
     0
1000
MTEXTEND
  0
POINT
  5
14605
330
14550
100
AcDbEntity
  8
DEFPOINTS
  6
ByBlock
 62
     0
 48
50.0
100
AcDbPoint
 10
4770.437100548696
 20
2004.266581874631
 30
0.0
  0
POINT
  5
14606
330
14550
100
AcDbEntity
  8
DEFPOINTS
  6
ByBlock
 62
     0
 48
50.0
100
AcDbPoint
 10
5330.437100548698
 20
2018.018004490406
 30
0.0
  0
POINT
  5
14607
330
14550
100
AcDbEntity
  8
DEFPOINTS
  6
ByBlock
 62
     0
 48
50.0
100
AcDbPoint
 10
5330.437100548698
 20
2203.042118436075
 30
0.0
  0
ENDBLK
  5
14608
330
14550
100
AcDbEntity
  8
0
 48
50.0
100
AcDbBlockEnd
  0
BLOCK
  5
146D9
330
1455C
100
AcDbEntity
  8
0
 48
50.0
100
AcDbBlockBegin
  2
*D9
 70
     1
 10
0.0
 20
0.0
 30
0.0
  3
*D9
  1

  0
LINE
  5
146DA
330
1455C
100
AcDbEntity
  8
0
  6
ByBlock
 62
     0
 48
50.0
100
AcDbLine
 10
5330.437100548698
 20
2028.018004490406
 30
0.0
 11
5330.437100548698
 21
2233.042118436075
 31
0.0
  0
LINE
  5
146DB
330
1455C
100
AcDbEntity
  8
0
  6
ByBlock
 62
     0
 48
50.0
100
AcDbLine
 10
5340.437100548697
 20
2018.018004490406
 30
0.0
 11
5340.437100548697
 21
2233.042118436075
 31
0.0
  0
LINE
  5
146DC
330
1455C
100
AcDbEntity
  8
0
  6
ByBlock
 62
     0
 48
50.0
100
AcDbLine
 10
5330.437100548698
 20
2203.042118436075
 30
0.0
 11
5280.437100548698
 21
2203.042118436075
 31
0.0
  0
LINE
  5
146DD
330
1455C
100
AcDbEntity
  8
0
  6
ByBlock
 62
     0
 48
50.0
100
AcDbLine
 10
5340.437100548697
 20
2203.042118436075
 30
0.0
 11
5534.484344643185
 21
2203.042118436075
 31
0.0
  0
LINE
  5
146DE
330
1455C
100
AcDbEntity
  8
0
  6
ByBlock
 62
     0
 48
50.0
100
AcDbLine
 10
5330.437100548698
 20
2203.042118436075
 30
0.0
 11
5340.437100548697
 21
2203.042118436075
 31
0.0
  0
INSERT
  5
146DF
330
1455C
100
AcDbEntity
  8
0
  6
ByBlock
 62
     0
 48
50.0
100
AcDbBlockReference
  2
_DOTSMALL
 10
5330.437100548698
 20
2203.042118436075
 30
0.0
 41
50.0
 42
50.0
 43
50.0
  0
INSERT
  5
146E0
330
1455C
100
AcDbEntity
  8
0
  6
ByBlock
 62
     0
 48
50.0
100
AcDbBlockReference
  2
_DOTSMALL
 10
5340.437100548697
 20
2203.042118436075
 30
0.0
 41
50.0
 42
50.0
 43
50.0
 50
180.0
  0
MTEXT
  5
146E1
330
1455C
100
AcDbEntity
  8
0
  6
ByBlock
 62
     7
 48
50.0
100
AcDbMText
 10
5487.460722595941
 20
2253.042118436075
 30
0.0
 40
60.0
 41
0.0
 71
     5
 72
     1
  1
\A1;10
  7
STYLE1
 73
     1
 44
1.0
1001
ACAD
1000
MTEXTBEGIN
1070
    73
1070
     1
1070
    44
1040
1.0
1070
    74
1070
     0
1000
MTEXTEND
  0
POINT
  5
146E2
330
1455C
100
AcDbEntity
  8
DEFPOINTS
  6
ByBlock
 62
     0
 48
50.0
100
AcDbPoint
 10
5330.437100548698
 20
2018.018004490406
 30
0.0
  0
POINT
  5
146E3
330
1455C
100
AcDbEntity
  8
DEFPOINTS
  6
ByBlock
 62
     0
 48
50.0
100
AcDbPoint
 10
5340.437100548697
 20
2008.018004490406
 30
0.0
  0
POINT
  5
146E4
330
1455C
100
AcDbEntity
  8
DEFPOINTS
  6
ByBlock
 62
     0
 48
50.0
100
AcDbPoint
 10
5340.437100548697
 20
2203.042118436075
 30
0.0
  0
ENDBLK
  5
146E5
330
1455C
100
AcDbEntity
  8
0
 48
50.0
100
AcDbBlockEnd
  0
BLOCK
  5
1458C
330
1458B
100
AcDbEntity
  8
0
 48
50.0
100
AcDbBlockBegin
  2
*D10
 70
     1
 10
0.0
 20
0.0
 30
0.0
  3
*D10
  1

  0
LINE
  5
1458D
330
1458B
100
AcDbEntity
  8
0
  6
ByBlock
 62
     0
 48
50.0
100
AcDbLine
 10
4730.437100548697
 20
1998.822506334519
 30
0.0
 11
4730.437100548697
 21
2361.238339860971
 31
0.0
  0
LINE
  5
1458E
330
1458B
100
AcDbEntity
  8
0
  6
ByBlock
 62
     0
 48
50.0
100
AcDbLine
 10
5340.437100548697
 20
2018.018004490406
 30
0.0
 11
5340.437100548697
 21
2361.238339860971
 31
0.0
  0
LINE
  5
1458F
330
1458B
100
AcDbEntity
  8
0
  6
ByBlock
 62
     0
 48
50.0
100
AcDbLine
 10
4730.437100548697
 20
2331.238339860971
 30
0.0
 11
5340.437100548697
 21
2331.238339860971
 31
0.0
  0
INSERT
  5
14590
330
1458B
100
AcDbEntity
  8
0
  6
ByBlock
 62
     0
 48
50.0
100
AcDbBlockReference
  2
_DOTSMALL
 10
4730.437100548697
 20
2331.238339860971
 30
0.0
 41
50.0
 42
50.0
 43
50.0
 50
180.0
  0
INSERT
  5
14591
330
1458B
100
AcDbEntity
  8
0
  6
ByBlock
 62
     0
 48
50.0
100
AcDbBlockReference
  2
_DOTSMALL
 10
5340.437100548697
 20
2331.238339860971
 30
0.0
 41
50.0
 42
50.0
 43
50.0
  0
MTEXT
  5
14592
330
1458B
100
AcDbEntity
  8
0
  6
ByBlock
 62
     7
 48
50.0
100
AcDbMText
 10
5035.437100548698
 20
2381.238339860971
 30
0.0
 40
60.0
 41
0.0
 71
     5
 72
     1
  1
\A1;610
  7
STYLE1
 73
     1
 44
1.0
1001
ACAD
1000
MTEXTBEGIN
1070
    73
1070
     1
1070
    44
1040
1.0
1070
    74
1070
     0
1000
MTEXTEND
  0
POINT
  5
14593
330
1458B
100
AcDbEntity
  8
DEFPOINTS
  6
ByBlock
 62
     0
 48
50.0
100
AcDbPoint
 10
4730.437100548697
 20
1988.822506334519
 30
0.0
  0
POINT
  5
14594
330
1458B
100
AcDbEntity
  8
DEFPOINTS
  6
ByBlock
 62
     0
 48
50.0
100
AcDbPoint
 10
5340.437100548697
 20
2008.018004490406
 30
0.0
  0
POINT
  5
14595
330
1458B
100
AcDbEntity
  8
DEFPOINTS
  6
ByBlock
 62
     0
 48
50.0
100
AcDbPoint
 10
5340.437100548697
 20
2331.238339860971
 30
0.0
  0
ENDBLK
  5
14596
330
1458B
100
AcDbEntity
  8
0
 48
50.0
100
AcDbBlockEnd
  0
BLOCK
  5
15EE3
330
14623
100
AcDbEntity
  8
0
 48
50.0
100
AcDbBlockBegin
  2
*D11
 70
     1
 10
0.0
 20
0.0
 30
0.0
  3
*D11
  1

  0
LINE
  5
15EE4
330
14623
100
AcDbEntity
  8
0
  6
ByBlock
 62
     0
 48
50.0
100
AcDbLine
 10
-2098.893369560327
 20
900.0
 30
0.0
 11
-2434.707861757146
 21
900.0
 31
0.0
  0
LINE
  5
15EE5
330
14623
100
AcDbEntity
  8
0
  6
ByBlock
 62
     0
 48
50.0
100
AcDbLine
 10
-2102.893369560327
 20
906.0
 30
0.0
 11
-2434.707861757146
 21
906.0
 31
0.0
  0
LINE
  5
15EE6
330
14623
100
AcDbEntity
  8
0
  6
ByBlock
 62
     0
 48
50.0
100
AcDbLine
 10
-2404.707861757146
 20
900.0
 30
0.0
 11
-2404.707861757146
 21
850.0
 31
0.0
  0
LINE
  5
15EE7
330
14623
100
AcDbEntity
  8
0
  6
ByBlock
 62
     0
 48
50.0
100
AcDbLine
 10
-2404.707861757146
 20
906.0
 30
0.0
 11
-2404.707861757146
 21
956.0
 31
0.0
  0
MTEXT
  5
15EE8
330
14623
100
AcDbEntity
  8
0
  6
ByBlock
 62
     7
 48
50.0
100
AcDbMText
 10
-2454.707861757146
 20
869.3533140299987
 30
0.0
 40
60.0
 41
0.0
 71
     5
 72
     1
  1
\A1;3
  7
STYLE1
 11
0.0000000000000001
 21
1.0
 31
0.0
 73
     1
 44
1.0
1001
ACAD
1000
MTEXTBEGIN
1070
    73
1070
     1
1070
    44
1040
1.0
1070
    74
1070
     0
1000
MTEXTEND
  0
LINE
  5
15EE9
330
14623
100
AcDbEntity
  8
0
  6
ByBlock
 62
     0
 48
50.0
100
AcDbLine
 10
-2404.707861757146
 20
900.0
 30
0.0
 11
-2404.707861757146
 21
906.0
 31
0.0
  0
LINE
  5
15EEA
330
14623
100
AcDbEntity
  8
0
  6
ByBlock
 62
     0
 48
50.0
100
AcDbLine
 10
-2404.707861757146
 20
900.0
 30
0.0
 11
-2404.707861757146
 21
906.0
 31
0.0
  0
INSERT
  5
15EEB
330
14623
100
AcDbEntity
  8
0
  6
ByBlock
 62
     0
 48
50.0
100
AcDbBlockReference
  2
_DOTSMALL
 10
-2404.707861757146
 20
900.0
 30
0.0
 41
50.0
 42
50.0
 43
50.0
 50
90.0
  0
INSERT
  5
15EEC
330
14623
100
AcDbEntity
  8
0
  6
ByBlock
 62
     0
 48
50.0
100
AcDbBlockReference
  2
_DOTSMALL
 10
-2404.707861757146
 20
906.0
 30
0.0
 41
50.0
 42
50.0
 43
50.0
 50
270.0
  0
POINT
  5
15EED
330
14623
100
AcDbEntity
  8
DEFPOINTS
  6
ByBlock
 62
     0
 48
50.0
100
AcDbPoint
 10
-2088.893369560326
 20
900.0
 30
0.0
  0
POINT
  5
15EEE
330
14623
100
AcDbEntity
  8
DEFPOINTS
  6
ByBlock
 62
     0
 48
50.0
100
AcDbPoint
 10
-2092.893369560326
 20
906.0
 30
0.0
  0
POINT
  5
15EEF
330
14623
100
AcDbEntity
  8
DEFPOINTS
  6
ByBlock
 62
     0
 48
50.0
100
AcDbPoint
 10
-2404.707861757146
 20
906.0
 30
0.0
  0
ENDBLK
  5
15EF0
330
14623
100
AcDbEntity
  8
0
 48
50.0
100
AcDbBlockEnd
  0
BLOCK
  5
15EB4
330
14632
100
AcDbEntity
  8
0
 48
50.0
100
AcDbBlockBegin
  2
*D12
 70
     1
 10
0.0
 20
0.0
 30
0.0
  3
*D12
  1

  0
LINE
  5
15EB5
330
14632
100
AcDbEntity
  8
0
  6
ByBlock
 62
     0
 48
50.0
100
AcDbLine
 10
-2086.443017354726
 20
1979.999999999999
 30
0.0
 11
-2434.707861757146
 21
1979.999999999999
 31
0.0
  0
LINE
  5
15EB6
330
14632
100
AcDbEntity
  8
0
  6
ByBlock
 62
     0
 48
50.0
100
AcDbLine
 10
-2404.707861757146
 20
906.0
 30
0.0
 11
-2404.707861757146
 21
1979.999999999999
 31
0.0
  0
INSERT
  5
15EB7
330
14632
100
AcDbEntity
  8
0
  6
ByBlock
 62
     0
 48
50.0
100
AcDbBlockReference
  2
_DOTSMALL
 10
-2404.707861757146
 20
906.0
 30
0.0
 41
50.0
 42
50.0
 43
50.0
 50
270.0
  0
INSERT
  5
15EB8
330
14632
100
AcDbEntity
  8
0
  6
ByBlock
 62
     0
 48
50.0
100
AcDbBlockReference
  2
_DOTSMALL
 10
-2404.707861757146
 20
1979.999999999999
 30
0.0
 41
50.0
 42
50.0
 43
50.0
 50
90.0
  0
MTEXT
  5
15EB9
330
14632
100
AcDbEntity
  8
0
  6
ByBlock
 62
     7
 48
50.0
100
AcDbMText
 10
-2454.707861757146
 20
1442.999999999999
 30
0.0
 40
60.0
 41
0.0
 71
     5
 72
     1
  1
\A1;1077
  7
STYLE1
 11
0.0000000000000001
 21
1.0
 31
0.0
 73
     1
 44
1.0
1001
ACAD
1000
MTEXTBEGIN
1070
    73
1070
     1
1070
    44
1040
1.0
1070
    74
1070
     0
1000
MTEXTEND
  0
POINT
  5
15EBA
330
14632
100
AcDbEntity
  8
DEFPOINTS
  6
ByBlock
 62
     0
 48
50.0
100
AcDbPoint
 10
-2092.893369560326
 20
906.0
 30
0.0
  0
POINT
  5
15EBB
330
14632
100
AcDbEntity
  8
DEFPOINTS
  6
ByBlock
 62
     0
 48
50.0
100
AcDbPoint
 10
-2076.443017354726
 20
1979.999999999999
 30
0.0
  0
POINT
  5
15EBC
330
14632
100
AcDbEntity
  8
DEFPOINTS
  6
ByBlock
 62
     0
 48
50.0
100
AcDbPoint
 10
-2404.707861757146
 20
1979.999999999999
 30
0.0
  0
ENDBLK
  5
15EBD
330
14632
100
AcDbEntity
  8
0
 48
50.0
100
AcDbBlockEnd
  0
BLOCK
  5
15E76
330
146CC
100
AcDbEntity
  8
0
 48
50.0
100
AcDbBlockBegin
  2
*D13
 70
     1
 10
0.0
 20
0.0
 30
0.0
  3
*D13
  1

  0
LINE
  5
15E77
330
146CC
100
AcDbEntity
  8
0
  6
ByBlock
 62
     0
 48
50.0
100
AcDbLine
 10
-1533.893369560326
 20
900.0
 30
0.0
 11
-844.1597456227174
 21
899.9999999999998
 31
0.0
  0
LINE
  5
15E78
330
146CC
100
AcDbEntity
  8
0
  6
ByBlock
 62
     0
 48
50.0
100
AcDbLine
 10
-1527.893369560326
 20
1989.999999999999
 30
0.0
 11
-844.1597456227173
 21
1989.999999999999
 31
0.0
  0
LINE
  5
15E79
330
146CC
100
AcDbEntity
  8
0
  6
ByBlock
 62
     0
 48
50.0
100
AcDbLine
 10
-874.1597456227173
 20
899.9999999999998
 30
0.0
 11
-874.1597456227173
 21
1989.999999999999
 31
0.0
  0
INSERT
  5
15E7A
330
146CC
100
AcDbEntity
  8
0
  6
ByBlock
 62
     0
 48
50.0
100
AcDbBlockReference
  2
_DOTSMALL
 10
-874.1597456227173
 20
899.9999999999998
 30
0.0
 41
50.0
 42
50.0
 43
50.0
 50
270.0
  0
INSERT
  5
15E7B
330
146CC
100
AcDbEntity
  8
0
  6
ByBlock
 62
     0
 48
50.0
100
AcDbBlockReference
  2
_DOTSMALL
 10
-874.1597456227173
 20
1989.999999999999
 30
0.0
 41
50.0
 42
50.0
 43
50.0
 50
90.0
  0
MTEXT
  5
15E7C
330
146CC
100
AcDbEntity
  8
0
  6
ByBlock
 62
     7
 48
50.0
100
AcDbMText
 10
-924.1597456227173
 20
1444.999999999999
 30
0.0
 40
60.0
 41
0.0
 71
     5
 72
     1
  1
\A1;1090
  7
STYLE1
 11
0.0000000000000001
 21
1.0
 31
0.0
 73
     1
 44
1.0
1001
ACAD
1000
MTEXTBEGIN
1070
    73
1070
     1
1070
    44
1040
1.0
1070
    74
1070
     0
1000
MTEXTEND
  0
POINT
  5
15E7D
330
146CC
100
AcDbEntity
  8
DEFPOINTS
  6
ByBlock
 62
     0
 48
50.0
100
AcDbPoint
 10
-1543.893369560326
 20
900.0
 30
0.0
  0
POINT
  5
15E7E
330
146CC
100
AcDbEntity
  8
DEFPOINTS
  6
ByBlock
 62
     0
 48
50.0
100
AcDbPoint
 10
-1537.893369560326
 20
1989.999999999999
 30
0.0
  0
POINT
  5
15E7F
330
146CC
100
AcDbEntity
  8
DEFPOINTS
  6
ByBlock
 62
     0
 48
50.0
100
AcDbPoint
 10
-874.1597456227173
 20
1989.999999999999
 30
0.0
  0
ENDBLK
  5
15E80
330
146CC
100
AcDbEntity
  8
0
 48
50.0
100
AcDbBlockEnd
  0
BLOCK
  5
16D5C
330
146FE
100
AcDbEntity
  8
0
 48
50.0
100
AcDbBlockBegin
  2
*D14
 70
     1
 10
0.0
 20
0.0
 30
0.0
  3
*D14
  1

  0
LINE
  5
16D5D
330
146FE
100
AcDbEntity
  8
0
  6
ByBlock
 62
     0
 48
50.0
100
AcDbLine
 10
2637.420508075684
 20
4643.582580843268
 30
0.0
 11
2573.550637949139
 21
4881.948181228361
 31
0.0
  0
LINE
  5
16D5E
330
146FE
100
AcDbEntity
  8
0
  6
ByBlock
 62
     0
 48
50.0
100
AcDbLine
 10
3664.420508075691
 20
4643.582580843268
 30
0.0
 11
3600.550637949146
 21
4881.948181228361
 31
0.0
  0
LINE
  5
16D5F
330
146FE
100
AcDbEntity
  8
0
  6
ByBlock
 62
     0
 48
50.0
100
AcDbLine
 10
2581.589113722073
 20
4851.948181228362
 30
0.0
 11
3608.589113722079
 21
4851.948181228362
 31
0.0
  0
INSERT
  5
16D60
330
146FE
100
AcDbEntity
  8
0
  6
ByBlock
 62
     0
 48
50.0
100
AcDbBlockReference
  2
_DOTSMALL
 10
2581.589113722073
 20
4851.948181228362
 30
0.0
 41
50.0
 42
50.0
 43
50.0
 50
180.0
  0
INSERT
  5
16D61
330
146FE
100
AcDbEntity
  8
0
  6
ByBlock
 62
     0
 48
50.0
100
AcDbBlockReference
  2
_DOTSMALL
 10
3608.589113722079
 20
4851.948181228362
 30
0.0
 41
50.0
 42
50.0
 43
50.0
  0
MTEXT
  5
16D62
330
146FE
100
AcDbEntity
  8
0
  6
ByBlock
 62
     7
 48
50.0
100
AcDbMText
 10
3095.089113722076
 20
4901.954086740172
 30
0.0
 40
60.0
 41
0.0
 71
     5
 72
     1
  1
\A1;1027
  7
STYLE1
 73
     1
 44
1.0
1001
ACAD
1000
MTEXTBEGIN
1070
    73
1070
     1
1070
    44
1040
1.0
1070
    74
1070
     0
1000
MTEXTEND
  0
POINT
  5
16D63
330
146FE
100
AcDbEntity
  8
DEFPOINTS
  6
ByBlock
 62
     0
 48
50.0
100
AcDbPoint
 10
2640.099999999995
 20
4633.58258084327
 30
0.0
  0
POINT
  5
16D64
330
146FE
100
AcDbEntity
  8
DEFPOINTS
  6
ByBlock
 62
     0
 48
50.0
100
AcDbPoint
 10
3667.100000000002
 20
4633.582580843267
 30
0.0
  0
POINT
  5
16D65
330
146FE
100
AcDbEntity
  8
DEFPOINTS
  6
ByBlock
 62
     0
 48
50.0
100
AcDbPoint
 10
3608.589113722079
 20
4851.948181228362
 30
0.0
  0
ENDBLK
  5
16D66
330
146FE
100
AcDbEntity
  8
0
 48
50.0
100
AcDbBlockEnd
  0
BLOCK
  5
14730
330
14723
100
AcDbEntity
  8
0
 48
50.0
100
AcDbBlockBegin
  2
*D15
 70
     1
 10
0.0
 20
0.0
 30
0.0
  3
*D15
  1

  0
LINE
  5
14731
330
14723
100
AcDbEntity
  8
0
  6
ByBlock
 62
     0
 48
50.0
100
AcDbLine
 10
2448.925444021794
 20
4328.624556300447
 30
0.0
 11
2171.662593623485
 21
4402.916913155825
 31
0.0
  0
LINE
  5
14732
330
14723
100
AcDbEntity
  8
0
  6
ByBlock
 62
     0
 48
50.0
100
AcDbLine
 10
2448.925444021795
 20
3878.624556300448
 30
0.0
 11
2171.662593623485
 21
3952.916913155826
 31
0.0
  0
LINE
  5
14733
330
14723
100
AcDbEntity
  8
0
  6
ByBlock
 62
     0
 48
50.0
100
AcDbLine
 10
2201.662593623485
 20
4394.878437382891
 30
0.0
 11
2201.662593623485
 21
3944.878437382893
 31
0.0
  0
INSERT
  5
14734
330
14723
100
AcDbEntity
  8
0
  6
ByBlock
 62
     0
 48
50.0
100
AcDbBlockReference
  2
_DOTSMALL
 10
2201.662593623485
 20
4394.878437382891
 30
0.0
 41
50.0
 42
50.0
 43
50.0
 50
90.0
  0
INSERT
  5
14735
330
14723
100
AcDbEntity
  8
0
  6
ByBlock
 62
     0
 48
50.0
100
AcDbBlockReference
  2
_DOTSMALL
 10
2201.662593623485
 20
3944.878437382893
 30
0.0
 41
50.0
 42
50.0
 43
50.0
 50
270.0
  0
MTEXT
  5
14736
330
14723
100
AcDbEntity
  8
0
  6
ByBlock
 62
     7
 48
50.0
100
AcDbMText
 10
2151.662593623485
 20
4169.878437382892
 30
0.0
 40
60.0
 41
0.0
 71
     5
 72
     1
  1
\A1;450
  7
STYLE1
 11
0.0000000000000001
 21
1.0
 31
0.0
 73
     1
 44
1.0
1001
ACAD
1000
MTEXTBEGIN
1070
    73
1070
     1
1070
    44
1040
1.0
1070
    74
1070
     0
1000
MTEXTEND
  0
POINT
  5
14737
330
14723
100
AcDbEntity
  8
DEFPOINTS
  6
ByBlock
 62
     0
 48
50.0
100
AcDbPoint
 10
2458.925444021793
 20
4325.945064376135
 30
0.0
  0
POINT
  5
14738
330
14723
100
AcDbEntity
  8
DEFPOINTS
  6
ByBlock
 62
     0
 48
50.0
100
AcDbPoint
 10
2458.925444021795
 20
3875.945064376137
 30
0.0
  0
POINT
  5
14739
330
14723
100
AcDbEntity
  8
DEFPOINTS
  6
ByBlock
 62
     0
 48
50.0
100
AcDbPoint
 10
2201.662593623485
 20
3944.878437382893
 30
0.0
  0
ENDBLK
  5
1473A
330
14723
100
AcDbEntity
  8
0
 48
50.0
100
AcDbBlockEnd
  0
BLOCK
  5
16D67
330
1473B
100
AcDbEntity
  8
0
 48
50.0
100
AcDbBlockBegin
  2
*D16
 70
     1
 10
0.0
 20
0.0
 30
0.0
  3
*D16
  1

  0
LINE
  5
16D68
330
1473B
100
AcDbEntity
  8
0
  6
ByBlock
 62
     0
 48
50.0
100
AcDbLine
 10
2638.599999999998
 20
4674.582580843269
 30
0.0
 11
2638.599999999998
 21
5086.414712708183
 31
0.0
  0
LINE
  5
16D69
330
1473B
100
AcDbEntity
  8
0
  6
ByBlock
 62
     0
 48
50.0
100
AcDbLine
 10
3668.600000000002
 20
4674.582580843177
 30
0.0
 11
3668.600000000002
 21
5086.414712708183
 31
0.0
  0
LINE
  5
16D6A
330
1473B
100
AcDbEntity
  8
0
  6
ByBlock
 62
     0
 48
50.0
100
AcDbLine
 10
2638.599999999998
 20
5056.414712708183
 30
0.0
 11
3668.600000000002
 21
5056.414712708183
 31
0.0
  0
INSERT
  5
16D6B
330
1473B
100
AcDbEntity
  8
0
  6
ByBlock
 62
     0
 48
50.0
100
AcDbBlockReference
  2
_DOTSMALL
 10
2638.599999999998
 20
5056.414712708183
 30
0.0
 41
50.0
 42
50.0
 43
50.0
 50
180.0
  0
INSERT
  5
16D6C
330
1473B
100
AcDbEntity
  8
0
  6
ByBlock
 62
     0
 48
50.0
100
AcDbBlockReference
  2
_DOTSMALL
 10
3668.600000000002
 20
5056.414712708183
 30
0.0
 41
50.0
 42
50.0
 43
50.0
  0
MTEXT
  5
16D6D
330
1473B
100
AcDbEntity
  8
0
  6
ByBlock
 62
     7
 48
50.0
100
AcDbMText
 10
3153.600000000001
 20
5106.414712708183
 30
0.0
 40
60.0
 41
0.0
 71
     5
 72
     1
  1
\A1;内部寸法 1030
  7
STYLE1
 73
     1
 44
1.0
1001
ACAD
1000
MTEXTBEGIN
1070
    73
1070
     1
1070
    44
1040
1.0
1070
    74
1070
     0
1000
MTEXTEND
  0
POINT
  5
16D6E
330
1473B
100
AcDbEntity
  8
DEFPOINTS
  6
ByBlock
 62
     0
 48
50.0
100
AcDbPoint
 10
2638.599999999998
 20
4664.582580843268
 30
0.0
  0
POINT
  5
16D6F
330
1473B
100
AcDbEntity
  8
DEFPOINTS
  6
ByBlock
 62
     0
 48
50.0
100
AcDbPoint
 10
3668.600000000002
 20
4664.582580843176
 30
0.0
  0
POINT
  5
16D70
330
1473B
100
AcDbEntity
  8
DEFPOINTS
  6
ByBlock
 62
     0
 48
50.0
100
AcDbPoint
 10
3668.600000000002
 20
5056.414712708183
 30
0.0
  0
ENDBLK
  5
16D71
330
1473B
100
AcDbEntity
  8
0
 48
50.0
100
AcDbBlockEnd
  0
BLOCK
  5
147A4
330
14753
100
AcDbEntity
  8
0
 48
50.0
100
AcDbBlockBegin
  2
*D17
 70
     1
 10
0.0
 20
0.0
 30
0.0
  3
*D17
  1

  0
LINE
  5
147A5
330
14753
100
AcDbEntity
  8
0
  6
ByBlock
 62
     0
 48
50.0
100
AcDbLine
 10
3927.425444021798
 20
4327.945064376137
 30
0.0
 11
4303.450048020582
 21
4327.945064376137
 31
0.0
  0
LINE
  5
147A6
330
14753
100
AcDbEntity
  8
0
  6
ByBlock
 62
     0
 48
50.0
100
AcDbLine
 10
3927.425444021796
 20
3863.945064376137
 30
0.0
 11
4303.450048020582
 21
3863.945064376137
 31
0.0
  0
LINE
  5
147A7
330
14753
100
AcDbEntity
  8
0
  6
ByBlock
 62
     0
 48
50.0
100
AcDbLine
 10
4273.450048020582
 20
4327.945064376137
 30
0.0
 11
4273.450048020582
 21
3863.945064376137
 31
0.0
  0
INSERT
  5
147A8
330
14753
100
AcDbEntity
  8
0
  6
ByBlock
 62
     0
 48
50.0
100
AcDbBlockReference
  2
_DOTSMALL
 10
4273.450048020582
 20
4327.945064376137
 30
0.0
 41
50.0
 42
50.0
 43
50.0
 50
90.0
  0
INSERT
  5
147A9
330
14753
100
AcDbEntity
  8
0
  6
ByBlock
 62
     0
 48
50.0
100
AcDbBlockReference
  2
_DOTSMALL
 10
4273.450048020582
 20
3863.945064376137
 30
0.0
 41
50.0
 42
50.0
 43
50.0
 50
270.0
  0
MTEXT
  5
147AA
330
14753
100
AcDbEntity
  8
0
  6
ByBlock
 62
     7
 48
50.0
100
AcDbMText
 10
4173.450048020582
 20
4095.945064376137
 30
0.0
 40
60.0
 41
0.0
 71
     5
 72
     1
  1
\A1;内部寸法\P464
  7
STYLE1
 11
0.0000000000000001
 21
1.0
 31
0.0
 73
     1
 44
1.0
1001
ACAD
1000
MTEXTBEGIN
1070
    73
1070
     1
1070
    44
1040
1.0
1070
    74
1070
     0
1000
MTEXTEND
  0
POINT
  5
147AB
330
14753
100
AcDbEntity
  8
DEFPOINTS
  6
ByBlock
 62
     0
 48
50.0
100
AcDbPoint
 10
3917.425444021797
 20
4327.945064376137
 30
0.0
  0
POINT
  5
147AC
330
14753
100
AcDbEntity
  8
DEFPOINTS
  6
ByBlock
 62
     0
 48
50.0
100
AcDbPoint
 10
3917.425444021796
 20
3863.945064376137
 30
0.0
  0
POINT
  5
147AD
330
14753
100
AcDbEntity
  8
DEFPOINTS
  6
ByBlock
 62
     0
 48
50.0
100
AcDbPoint
 10
4273.450048020582
 20
3863.945064376137
 30
0.0
  0
ENDBLK
  5
147AE
330
14753
100
AcDbEntity
  8
0
 48
50.0
100
AcDbBlockEnd
  0
BLOCK
  5
148AA
330
147E7
100
AcDbEntity
  8
0
 48
50.0
100
AcDbBlockBegin
  2
*D18
 70
     1
 10
0.0
 20
0.0
 30
0.0
  3
*D18
  1

  0
LINE
  5
148AB
330
147E7
100
AcDbEntity
  8
0
  6
ByBlock
 62
     0
 48
50.0
100
AcDbLine
 10
4827.437100548698
 20
1015.018004490406
 30
0.0
 11
4587.912381233588
 21
1015.018004490406
 31
0.0
  0
LINE
  5
148AC
330
147E7
100
AcDbEntity
  8
0
  6
ByBlock
 62
     0
 48
50.0
100
AcDbLine
 10
4748.366032736831
 20
1953.018004490406
 30
0.0
 11
4587.912381233588
 21
1953.018004490406
 31
0.0
  0
LINE
  5
148AD
330
147E7
100
AcDbEntity
  8
0
  6
ByBlock
 62
     0
 48
50.0
100
AcDbLine
 10
4617.91238123359
 20
1015.018004490406
 30
0.0
 11
4617.91238123359
 21
1953.018004490406
 31
0.0
  0
INSERT
  5
148AE
330
147E7
100
AcDbEntity
  8
0
  6
ByBlock
 62
     0
 48
50.0
100
AcDbBlockReference
  2
_DOTSMALL
 10
4617.91238123359
 20
1015.018004490406
 30
0.0
 41
50.0
 42
50.0
 43
50.0
 50
270.0
  0
INSERT
  5
148AF
330
147E7
100
AcDbEntity
  8
0
  6
ByBlock
 62
     0
 48
50.0
100
AcDbBlockReference
  2
_DOTSMALL
 10
4617.91238123359
 20
1953.018004490406
 30
0.0
 41
50.0
 42
50.0
 43
50.0
 50
90.0
  0
MTEXT
  5
148B0
330
147E7
100
AcDbEntity
  8
0
  6
ByBlock
 62
     7
 48
50.0
100
AcDbMText
 10
4567.912381233589
 20
1484.018004490406
 30
0.0
 40
60.0
 41
0.0
 71
     5
 72
     1
  1
\A1;有効開口部高サ 938
  7
STYLE1
 11
0.0000000000000001
 21
1.0
 31
0.0
 73
     1
 44
1.0
1001
ACAD
1000
MTEXTBEGIN
1070
    73
1070
     1
1070
    44
1040
1.0
1070
    74
1070
     0
1000
MTEXTEND
  0
POINT
  5
148B1
330
147E7
100
AcDbEntity
  8
DEFPOINTS
  6
ByBlock
 62
     0
 48
50.0
100
AcDbPoint
 10
4837.437100548697
 20
1015.018004490406
 30
0.0
  0
POINT
  5
148B2
330
147E7
100
AcDbEntity
  8
DEFPOINTS
  6
ByBlock
 62
     0
 48
50.0
100
AcDbPoint
 10
4758.366032736831
 20
1953.018004490406
 30
0.0
  0
POINT
  5
148B3
330
147E7
100
AcDbEntity
  8
DEFPOINTS
  6
ByBlock
 62
     0
 48
50.0
100
AcDbPoint
 10
4617.91238123359
 20
1953.018004490406
 30
0.0
  0
ENDBLK
  5
148B4
330
147E7
100
AcDbEntity
  8
0
 48
50.0
100
AcDbBlockEnd
  0
BLOCK
  5
1486E
330
1486D
100
AcDbEntity
  8
0
 48
50.0
100
AcDbBlockBegin
  2
*D19
 70
     1
 10
0.0
 20
0.0
 30
0.0
  3
*D19
  1

  0
LINE
  5
1486F
330
1486D
100
AcDbEntity
  8
0
  6
ByBlock
 62
     0
 48
50.0
100
AcDbLine
 10
5311.437100548697
 20
1015.018004490406
 30
0.0
 11
5685.267558918968
 21
1015.018004490406
 31
0.0
  0
LINE
  5
14870
330
1486D
100
AcDbEntity
  8
0
  6
ByBlock
 62
     0
 48
50.0
100
AcDbLine
 10
5309.437100548698
 20
1212.018004490406
 30
0.0
 11
5685.267558918968
 21
1212.018004490406
 31
0.0
  0
LINE
  5
14871
330
1486D
100
AcDbEntity
  8
0
  6
ByBlock
 62
     0
 48
50.0
100
AcDbLine
 10
5655.267558918968
 20
1015.018004490406
 30
0.0
 11
5655.267558918968
 21
1212.018004490406
 31
0.0
  0
INSERT
  5
14872
330
1486D
100
AcDbEntity
  8
0
  6
ByBlock
 62
     0
 48
50.0
100
AcDbBlockReference
  2
_DOTSMALL
 10
5655.267558918968
 20
1015.018004490406
 30
0.0
 41
50.0
 42
50.0
 43
50.0
 50
270.0
  0
INSERT
  5
14873
330
1486D
100
AcDbEntity
  8
0
  6
ByBlock
 62
     0
 48
50.0
100
AcDbBlockReference
  2
_DOTSMALL
 10
5655.267558918968
 20
1212.018004490406
 30
0.0
 41
50.0
 42
50.0
 43
50.0
 50
90.0
  0
MTEXT
  5
14874
330
1486D
100
AcDbEntity
  8
0
  6
ByBlock
 62
     7
 48
50.0
100
AcDbMText
 10
5605.267558918967
 20
1113.518004490406
 30
0.0
 40
60.0
 41
0.0
 71
     5
 72
     1
  1
\A1;197
  7
STYLE1
 11
0.0000000000000001
 21
1.0
 31
0.0
 73
     1
 44
1.0
1001
ACAD
1000
MTEXTBEGIN
1070
    73
1070
     1
1070
    44
1040
1.0
1070
    74
1070
     0
1000
MTEXTEND
  0
POINT
  5
14875
330
1486D
100
AcDbEntity
  8
DEFPOINTS
  6
ByBlock
 62
     0
 48
50.0
100
AcDbPoint
 10
5301.437100548696
 20
1015.018004490406
 30
0.0
  0
POINT
  5
14876
330
1486D
100
AcDbEntity
  8
DEFPOINTS
  6
ByBlock
 62
     0
 48
50.0
100
AcDbPoint
 10
5299.437100548697
 20
1212.018004490406
 30
0.0
  0
POINT
  5
14877
330
1486D
100
AcDbEntity
  8
DEFPOINTS
  6
ByBlock
 62
     0
 48
50.0
100
AcDbPoint
 10
5655.267558918968
 20
1212.018004490406
 30
0.0
  0
ENDBLK
  5
14878
330
1486D
100
AcDbEntity
  8
0
 48
50.0
100
AcDbBlockEnd
  0
BLOCK
  5
148CC
330
1487A
100
AcDbEntity
  8
0
 48
50.0
100
AcDbBlockBegin
  2
*D20
 70
     1
 10
0.0
 20
0.0
 30
0.0
  3
*D20
  1

  0
LINE
  5
148CD
330
1487A
100
AcDbEntity
  8
0
  6
ByBlock
 62
     0
 48
50.0
100
AcDbLine
 10
5309.437100548698
 20
1797.018004490406
 30
0.0
 11
5685.267558918968
 21
1797.018004490406
 31
0.0
  0
LINE
  5
148CE
330
1487A
100
AcDbEntity
  8
0
  6
ByBlock
 62
     0
 48
50.0
100
AcDbLine
 10
5655.267558918968
 20
1212.018004490406
 30
0.0
 11
5655.267558918968
 21
1797.018004490406
 31
0.0
  0
INSERT
  5
148CF
330
1487A
100
AcDbEntity
  8
0
  6
ByBlock
 62
     0
 48
50.0
100
AcDbBlockReference
  2
_DOTSMALL
 10
5655.267558918968
 20
1212.018004490406
 30
0.0
 41
50.0
 42
50.0
 43
50.0
 50
270.0
  0
INSERT
  5
148D0
330
1487A
100
AcDbEntity
  8
0
  6
ByBlock
 62
     0
 48
50.0
100
AcDbBlockReference
  2
_DOTSMALL
 10
5655.267558918968
 20
1797.018004490406
 30
0.0
 41
50.0
 42
50.0
 43
50.0
 50
90.0
  0
MTEXT
  5
148D1
330
1487A
100
AcDbEntity
  8
0
  6
ByBlock
 62
     7
 48
50.0
100
AcDbMText
 10
5605.267558918967
 20
1504.518004490406
 30
0.0
 40
60.0
 41
0.0
 71
     5
 72
     1
  1
\A1;65x9=585
  7
STYLE1
 11
0.0000000000000001
 21
1.0
 31
0.0
 73
     1
 44
1.0
1001
ACAD
1000
MTEXTBEGIN
1070
    73
1070
     1
1070
    44
1040
1.0
1070
    74
1070
     0
1000
MTEXTEND
  0
POINT
  5
148D2
330
1487A
100
AcDbEntity
  8
DEFPOINTS
  6
ByBlock
 62
     0
 48
50.0
100
AcDbPoint
 10
5299.437100548697
 20
1212.018004490406
 30
0.0
  0
POINT
  5
148D3
330
1487A
100
AcDbEntity
  8
DEFPOINTS
  6
ByBlock
 62
     0
 48
50.0
100
AcDbPoint
 10
5299.437100548697
 20
1797.018004490406
 30
0.0
  0
POINT
  5
148D4
330
1487A
100
AcDbEntity
  8
DEFPOINTS
  6
ByBlock
 62
     0
 48
50.0
100
AcDbPoint
 10
5655.267558918968
 20
1797.018004490406
 30
0.0
  0
ENDBLK
  5
148D5
330
1487A
100
AcDbEntity
  8
0
 48
50.0
100
AcDbBlockEnd
  0
BLOCK
  5
148F9
330
148D6
100
AcDbEntity
  8
0
 48
50.0
100
AcDbBlockBegin
  2
*D21
 70
     1
 10
0.0
 20
0.0
 30
0.0
  3
*D21
  1

  0
LINE
  5
148FA
330
148D6
100
AcDbEntity
  8
0
  6
ByBlock
 62
     0
 48
50.0
100
AcDbLine
 10
5079.437100548697
 20
1012.338512566095
 30
0.0
 11
5223.571166432201
 21
973.7179060107962
 31
0.0
  0
LINE
  5
148FB
330
148D6
100
AcDbEntity
  8
0
  6
ByBlock
 62
     0
 48
50.0
100
AcDbLine
 10
5079.437100548697
 20
1983.338512566094
 30
0.0
 11
5223.571166432201
 21
1944.717906010795
 31
0.0
  0
LINE
  5
148FC
330
148D6
100
AcDbEntity
  8
0
  6
ByBlock
 62
     0
 48
50.0
100
AcDbLine
 10
5193.5711664322
 20
981.7563817837299
 30
0.0
 11
5193.5711664322
 21
1952.756381783729
 31
0.0
  0
INSERT
  5
148FD
330
148D6
100
AcDbEntity
  8
0
  6
ByBlock
 62
     0
 48
50.0
100
AcDbBlockReference
  2
_DOTSMALL
 10
5193.5711664322
 20
981.7563817837299
 30
0.0
 41
50.0
 42
50.0
 43
50.0
 50
270.0
  0
INSERT
  5
148FE
330
148D6
100
AcDbEntity
  8
0
  6
ByBlock
 62
     0
 48
50.0
100
AcDbBlockReference
  2
_DOTSMALL
 10
5193.5711664322
 20
1952.756381783729
 30
0.0
 41
50.0
 42
50.0
 43
50.0
 50
90.0
  0
MTEXT
  5
148FF
330
148D6
100
AcDbEntity
  8
0
  6
ByBlock
 62
     7
 48
50.0
100
AcDbMText
 10
5143.571166432201
 20
1467.256381783729
 30
0.0
 40
60.0
 41
0.0
 71
     5
 72
     1
  1
\A1;内高 971
  7
STYLE1
 11
0.0000000000000001
 21
1.0
 31
0.0
 73
     1
 44
1.0
1001
ACAD
1000
MTEXTBEGIN
1070
    73
1070
     1
1070
    44
1040
1.0
1070
    74
1070
     0
1000
MTEXTEND
  0
POINT
  5
14900
330
148D6
100
AcDbEntity
  8
DEFPOINTS
  6
ByBlock
 62
     0
 48
50.0
100
AcDbPoint
 10
5069.437100548697
 20
1015.018004490406
 30
0.0
  0
POINT
  5
14901
330
148D6
100
AcDbEntity
  8
DEFPOINTS
  6
ByBlock
 62
     0
 48
50.0
100
AcDbPoint
 10
5069.437100548697
 20
1986.018004490405
 30
0.0
  0
POINT
  5
14902
330
148D6
100
AcDbEntity
  8
DEFPOINTS
  6
ByBlock
 62
     0
 48
50.0
100
AcDbPoint
 10
5193.5711664322
 20
1952.756381783729
 30
0.0
  0
ENDBLK
  5
14903
330
148D6
100
AcDbEntity
  8
0
 48
50.0
100
AcDbBlockEnd
  0
BLOCK
  5
1495B
330
14907
100
AcDbEntity
  8
0
 48
50.0
100
AcDbBlockBegin
  2
*D22
 70
     1
 10
0.0
 20
0.0
 30
0.0
  3
*D22
  1

  0
LINE
  5
1495C
330
14907
100
AcDbEntity
  8
0
  6
ByBlock
 62
     0
 48
50.0
100
AcDbLine
 10
5679.553341295694
 20
1797.018004490406
 30
0.0
 11
5893.044310499012
 21
1797.018004490406
 31
0.0
  0
LINE
  5
1495D
330
14907
100
AcDbEntity
  8
0
  6
ByBlock
 62
     0
 48
50.0
100
AcDbLine
 10
5679.553341295694
 20
1767.018004490407
 30
0.0
 11
5893.044310499012
 21
1767.018004490407
 31
0.0
  0
LINE
  5
1495E
330
14907
100
AcDbEntity
  8
0
  6
ByBlock
 62
     0
 48
50.0
100
AcDbLine
 10
5863.044310499012
 20
1797.018004490406
 30
0.0
 11
5863.044310499012
 21
1847.018004490406
 31
0.0
  0
LINE
  5
1495F
330
14907
100
AcDbEntity
  8
0
  6
ByBlock
 62
     0
 48
50.0
100
AcDbLine
 10
5863.044310499012
 20
1767.018004490407
 30
0.0
 11
5863.044310499012
 21
1560.970760395918
 31
0.0
  0
LINE
  5
14960
330
14907
100
AcDbEntity
  8
0
  6
ByBlock
 62
     0
 48
50.0
100
AcDbLine
 10
5863.044310499012
 20
1797.018004490406
 30
0.0
 11
5863.044310499012
 21
1767.018004490407
 31
0.0
  0
INSERT
  5
14961
330
14907
100
AcDbEntity
  8
0
  6
ByBlock
 62
     0
 48
50.0
100
AcDbBlockReference
  2
_DOTSMALL
 10
5863.044310499012
 20
1797.018004490406
 30
0.0
 41
50.0
 42
50.0
 43
50.0
 50
270.0
  0
INSERT
  5
14962
330
14907
100
AcDbEntity
  8
0
  6
ByBlock
 62
     0
 48
50.0
100
AcDbBlockReference
  2
_DOTSMALL
 10
5863.044310499012
 20
1767.018004490407
 30
0.0
 41
50.0
 42
50.0
 43
50.0
 50
90.0
  0
MTEXT
  5
14963
330
14907
100
AcDbEntity
  8
0
  6
ByBlock
 62
     7
 48
50.0
100
AcDbMText
 10
5813.044310499012
 20
1613.994382443162
 30
0.0
 40
60.0
 41
0.0
 71
     5
 72
     1
  1
\A1;30
  7
STYLE1
 11
0.0000000000000001
 21
1.0
 31
0.0
 73
     1
 44
1.0
1001
ACAD
1000
MTEXTBEGIN
1070
    73
1070
     1
1070
    44
1040
1.0
1070
    74
1070
     0
1000
MTEXTEND
  0
POINT
  5
14964
330
14907
100
AcDbEntity
  8
DEFPOINTS
  6
ByBlock
 62
     0
 48
50.0
100
AcDbPoint
 10
5669.553341295694
 20
1797.018004490406
 30
0.0
  0
POINT
  5
14965
330
14907
100
AcDbEntity
  8
DEFPOINTS
  6
ByBlock
 62
     0
 48
50.0
100
AcDbPoint
 10
5669.553341295694
 20
1767.018004490407
 30
0.0
  0
POINT
  5
14966
330
14907
100
AcDbEntity
  8
DEFPOINTS
  6
ByBlock
 62
     0
 48
50.0
100
AcDbPoint
 10
5863.044310499012
 20
1767.018004490407
 30
0.0
  0
ENDBLK
  5
14967
330
14907
100
AcDbEntity
  8
0
 48
50.0
100
AcDbBlockEnd
  0
BLOCK
  5
16D7D
330
149C3
100
AcDbEntity
  8
0
 48
50.0
100
AcDbBlockBegin
  2
*D23
 70
     1
 10
0.0
 20
0.0
 30
0.0
  3
*D23
  1

  0
LINE
  5
16D7E
330
149C3
100
AcDbEntity
  8
0
  6
ByBlock
 62
     0
 48
50.0
100
AcDbLine
 10
3668.599999999999
 20
4099.582580843269
 30
0.0
 11
3668.599999999999
 21
3795.232679255116
 31
0.0
  0
LINE
  5
16D7F
330
149C3
100
AcDbEntity
  8
0
  6
ByBlock
 62
     0
 48
50.0
100
AcDbLine
 10
3183.599999999999
 20
4099.582580843269
 30
0.0
 11
3183.599999999999
 21
3795.232679255116
 31
0.0
  0
LINE
  5
16D80
330
149C3
100
AcDbEntity
  8
0
  6
ByBlock
 62
     0
 48
50.0
100
AcDbLine
 10
3668.599999999999
 20
3825.232679255116
 30
0.0
 11
3718.599999999999
 21
3825.232679255116
 31
0.0
  0
LINE
  5
16D81
330
149C3
100
AcDbEntity
  8
0
  6
ByBlock
 62
     0
 48
50.0
100
AcDbLine
 10
3183.599999999999
 20
3825.232679255116
 30
0.0
 11
3133.599999999999
 21
3825.232679255116
 31
0.0
  0
LINE
  5
16D82
330
149C3
100
AcDbEntity
  8
0
  6
ByBlock
 62
     0
 48
50.0
100
AcDbLine
 10
3668.599999999999
 20
3825.232679255116
 30
0.0
 11
3183.599999999999
 21
3825.232679255116
 31
0.0
  0
INSERT
  5
16D83
330
149C3
100
AcDbEntity
  8
0
  6
ByBlock
 62
     0
 48
50.0
100
AcDbBlockReference
  2
_DOTSMALL
 10
3668.599999999999
 20
3825.232679255116
 30
0.0
 41
50.0
 42
50.0
 43
50.0
 50
180.0
  0
INSERT
  5
16D84
330
149C3
100
AcDbEntity
  8
0
  6
ByBlock
 62
     0
 48
50.0
100
AcDbBlockReference
  2
_DOTSMALL
 10
3183.599999999999
 20
3825.232679255116
 30
0.0
 41
50.0
 42
50.0
 43
50.0
  0
MTEXT
  5
16D85
330
149C3
100
AcDbEntity
  8
0
  6
ByBlock
 62
     7
 48
50.0
100
AcDbMText
 10
3426.099999999999
 20
3925.232679255116
 30
0.0
 40
60.0
 41
0.0
 71
     5
 72
     1
  1
\A1;有効開口部間口\P485
  7
STYLE1
 73
     1
 44
1.0
1001
ACAD
1000
MTEXTBEGIN
1070
    73
1070
     1
1070
    44
1040
1.0
1070
    74
1070
     0
1000
MTEXTEND
  0
POINT
  5
16D86
330
149C3
100
AcDbEntity
  8
DEFPOINTS
  6
ByBlock
 62
     0
 48
50.0
100
AcDbPoint
 10
3668.599999999999
 20
4109.582580843269
 30
0.0
  0
POINT
  5
16D87
330
149C3
100
AcDbEntity
  8
DEFPOINTS
  6
ByBlock
 62
     0
 48
50.0
100
AcDbPoint
 10
3183.599999999999
 20
4109.582580843269
 30
0.0
  0
POINT
  5
16D88
330
149C3
100
AcDbEntity
  8
DEFPOINTS
  6
ByBlock
 62
     0
 48
50.0
100
AcDbPoint
 10
3183.599999999999
 20
3825.232679255116
 30
0.0
  0
ENDBLK
  5
16D89
330
149C3
100
AcDbEntity
  8
0
 48
50.0
100
AcDbBlockEnd
  0
BLOCK
  5
15E82
330
15E81
100
AcDbEntity
  8
0
 48
50.0
100
AcDbBlockBegin
  2
*D24
 70
     1
 10
0.0
 20
0.0
 30
0.0
  3
*D24
  1

  0
LINE
  5
15E83
330
15E81
100
AcDbEntity
  8
0
  6
ByBlock
 62
     0
 48
50.0
100
AcDbLine
 10
-1533.893369560326
 20
900.0
 30
0.0
 11
-1014.151144623792
 21
900.0
 31
0.0
  0
LINE
  5
15E84
330
15E81
100
AcDbEntity
  8
0
  6
ByBlock
 62
     0
 48
50.0
100
AcDbLine
 10
-1517.893369560326
 20
1925.0
 30
0.0
 11
-1014.151144623792
 21
1925.0
 31
0.0
  0
LINE
  5
15E85
330
15E81
100
AcDbEntity
  8
0
  6
ByBlock
 62
     0
 48
50.0
100
AcDbLine
 10
-1044.151144623793
 20
900.0
 30
0.0
 11
-1044.151144623792
 21
1925.0
 31
0.0
  0
INSERT
  5
15E86
330
15E81
100
AcDbEntity
  8
0
  6
ByBlock
 62
     0
 48
50.0
100
AcDbBlockReference
  2
_DOTSMALL
 10
-1044.151144623793
 20
900.0
 30
0.0
 41
50.0
 42
50.0
 43
50.0
 50
270.0
  0
INSERT
  5
15E87
330
15E81
100
AcDbEntity
  8
0
  6
ByBlock
 62
     0
 48
50.0
100
AcDbBlockReference
  2
_DOTSMALL
 10
-1044.151144623792
 20
1925.0
 30
0.0
 41
50.0
 42
50.0
 43
50.0
 50
90.0
  0
MTEXT
  5
15E88
330
15E81
100
AcDbEntity
  8
0
  6
ByBlock
 62
     7
 48
50.0
100
AcDbMText
 10
-1094.157050135604
 20
1412.5
 30
0.0
 40
60.0
 41
0.0
 71
     5
 72
     1
  1
\A1;1025
  7
STYLE1
 11
0.0000000000000001
 21
1.0
 31
0.0
 73
     1
 44
1.0
1001
ACAD
1000
MTEXTBEGIN
1070
    73
1070
     1
1070
    44
1040
1.0
1070
    74
1070
     0
1000
MTEXTEND
  0
POINT
  5
15E89
330
15E81
100
AcDbEntity
  8
DEFPOINTS
  6
ByBlock
 62
     0
 48
50.0
100
AcDbPoint
 10
-1543.893369560326
 20
900.0
 30
0.0
  0
POINT
  5
15E8A
330
15E81
100
AcDbEntity
  8
DEFPOINTS
  6
ByBlock
 62
     0
 48
50.0
100
AcDbPoint
 10
-1527.893369560326
 20
1925.0
 30
0.0
  0
POINT
  5
15E8B
330
15E81
100
AcDbEntity
  8
DEFPOINTS
  6
ByBlock
 62
     0
 48
50.0
100
AcDbPoint
 10
-1044.151144623792
 20
1925.0
 30
0.0
  0
ENDBLK
  5
15E8C
330
15E81
100
AcDbEntity
  8
0
 48
50.0
100
AcDbBlockEnd
  0
BLOCK
  5
15E8F
330
15E8E
100
AcDbEntity
  8
0
 48
50.0
100
AcDbBlockBegin
  2
*D25
 70
     1
 10
0.0
 20
0.0
 30
0.0
  3
*D25
  1

  0
LINE
  5
15E90
330
15E8E
100
AcDbEntity
  8
0
  6
ByBlock
 62
     0
 48
50.0
100
AcDbLine
 10
-1527.893369560326
 20
1989.999999999999
 30
0.0
 11
-1014.151144623792
 21
1989.999999999999
 31
0.0
  0
LINE
  5
15E91
330
15E8E
100
AcDbEntity
  8
0
  6
ByBlock
 62
     0
 48
50.0
100
AcDbLine
 10
-1044.151144623792
 20
1925.0
 30
0.0
 11
-1044.151144623792
 21
1875.0
 31
0.0
  0
LINE
  5
15E92
330
15E8E
100
AcDbEntity
  8
0
  6
ByBlock
 62
     0
 48
50.0
100
AcDbLine
 10
-1044.151144623792
 20
1989.999999999999
 30
0.0
 11
-1044.151144623792
 21
2040.0
 31
0.0
  0
LINE
  5
15E93
330
15E8E
100
AcDbEntity
  8
0
  6
ByBlock
 62
     0
 48
50.0
100
AcDbLine
 10
-1044.151144623792
 20
1925.0
 30
0.0
 11
-1044.151144623792
 21
1989.999999999999
 31
0.0
  0
INSERT
  5
15E94
330
15E8E
100
AcDbEntity
  8
0
  6
ByBlock
 62
     0
 48
50.0
100
AcDbBlockReference
  2
_DOTSMALL
 10
-1044.151144623792
 20
1925.0
 30
0.0
 41
50.0
 42
50.0
 43
50.0
 50
90.0
  0
INSERT
  5
15E95
330
15E8E
100
AcDbEntity
  8
0
  6
ByBlock
 62
     0
 48
50.0
100
AcDbBlockReference
  2
_DOTSMALL
 10
-1044.151144623792
 20
1989.999999999999
 30
0.0
 41
50.0
 42
50.0
 43
50.0
 50
270.0
  0
MTEXT
  5
15E96
330
15E8E
100
AcDbEntity
  8
0
  6
ByBlock
 62
     7
 48
50.0
100
AcDbMText
 10
-1094.151144623792
 20
1957.499999999999
 30
0.0
 40
60.0
 41
0.0
 71
     5
 72
     1
  1
\A1;65
  7
STYLE1
 11
0.0000000000000001
 21
1.0
 31
0.0
 73
     1
 44
1.0
1001
ACAD
1000
MTEXTBEGIN
1070
    73
1070
     1
1070
    44
1040
1.0
1070
    74
1070
     0
1000
MTEXTEND
  0
POINT
  5
15E97
330
15E8E
100
AcDbEntity
  8
DEFPOINTS
  6
ByBlock
 62
     0
 48
50.0
100
AcDbPoint
 10
-1527.893369560326
 20
1925.0
 30
0.0
  0
POINT
  5
15E98
330
15E8E
100
AcDbEntity
  8
DEFPOINTS
  6
ByBlock
 62
     0
 48
50.0
100
AcDbPoint
 10
-1537.893369560326
 20
1989.999999999999
 30
0.0
  0
POINT
  5
15E99
330
15E8E
100
AcDbEntity
  8
DEFPOINTS
  6
ByBlock
 62
     0
 48
50.0
100
AcDbPoint
 10
-1044.151144623792
 20
1989.999999999999
 30
0.0
  0
ENDBLK
  5
15E9A
330
15E8E
100
AcDbEntity
  8
0
 48
50.0
100
AcDbBlockEnd
  0
BLOCK
  5
15ECB
330
15E9C
100
AcDbEntity
  8
0
 48
50.0
100
AcDbBlockBegin
  2
*D26
 70
     1
 10
0.0
 20
0.0
 30
0.0
  3
*D26
  1

  0
LINE
  5
15ECC
330
15E9C
100
AcDbEntity
  8
0
  6
ByBlock
 62
     0
 48
50.0
100
AcDbLine
 10
-2098.893369560327
 20
900.0
 30
0.0
 11
-2583.122076435626
 21
900.0
 31
0.0
  0
LINE
  5
15ECD
330
15E9C
100
AcDbEntity
  8
0
  6
ByBlock
 62
     0
 48
50.0
100
AcDbLine
 10
-2086.443017354726
 20
1979.999999999999
 30
0.0
 11
-2583.122076435626
 21
1979.999999999999
 31
0.0
  0
LINE
  5
15ECE
330
15E9C
100
AcDbEntity
  8
0
  6
ByBlock
 62
     0
 48
50.0
100
AcDbLine
 10
-2553.122076435626
 20
900.0
 30
0.0
 11
-2553.122076435626
 21
1979.999999999999
 31
0.0
  0
INSERT
  5
15ECF
330
15E9C
100
AcDbEntity
  8
0
  6
ByBlock
 62
     0
 48
50.0
100
AcDbBlockReference
  2
_DOTSMALL
 10
-2553.122076435626
 20
900.0
 30
0.0
 41
50.0
 42
50.0
 43
50.0
 50
270.0
  0
INSERT
  5
15ED0
330
15E9C
100
AcDbEntity
  8
0
  6
ByBlock
 62
     0
 48
50.0
100
AcDbBlockReference
  2
_DOTSMALL
 10
-2553.122076435626
 20
1979.999999999999
 30
0.0
 41
50.0
 42
50.0
 43
50.0
 50
90.0
  0
MTEXT
  5
15ED1
330
15E9C
100
AcDbEntity
  8
0
  6
ByBlock
 62
     7
 48
50.0
100
AcDbMText
 10
-2603.122076435626
 20
1439.999999999999
 30
0.0
 40
60.0
 41
0.0
 71
     5
 72
     1
  1
\A1;1080
  7
STYLE1
 11
0.0000000000000001
 21
1.0
 31
0.0
 73
     1
 44
1.0
1001
ACAD
1000
MTEXTBEGIN
1070
    73
1070
     1
1070
    44
1040
1.0
1070
    74
1070
     0
1000
MTEXTEND
  0
POINT
  5
15ED2
330
15E9C
100
AcDbEntity
  8
DEFPOINTS
  6
ByBlock
 62
     0
 48
50.0
100
AcDbPoint
 10
-2088.893369560326
 20
900.0
 30
0.0
  0
POINT
  5
15ED3
330
15E9C
100
AcDbEntity
  8
DEFPOINTS
  6
ByBlock
 62
     0
 48
50.0
100
AcDbPoint
 10
-2076.443017354726
 20
1979.999999999999
 30
0.0
  0
POINT
  5
15ED4
330
15E9C
100
AcDbEntity
  8
DEFPOINTS
  6
ByBlock
 62
     0
 48
50.0
100
AcDbPoint
 10
-2553.122076435626
 20
1979.999999999999
 30
0.0
  0
ENDBLK
  5
15ED5
330
15E9C
100
AcDbEntity
  8
0
 48
50.0
100
AcDbBlockEnd
  0
ENDSEC
  0
SECTION
  2
ENTITIES
  0
LINE
  5
10B56
330
747D
100
AcDbEntity
  8
補助
  6
PHANTOM
 62
   230
 48
50.0
100
AcDbLine
 10
70.0
 20
0.0
 30
0.0
 11
69.99999999999975
 21
5704.8
 31
0.0
  0
LINE
  5
10B57
330
747D
100
AcDbEntity
  8
補助
  6
PHANTOM
 62
   230
 48
50.0
100
AcDbLine
 10
69.99999999999975
 20
5704.8
 30
0.0
 11
8153.6
 21
5704.8
 31
0.0
  0
LINE
  5
10B59
330
747D
100
AcDbEntity
  8
仕様書枠
  6
Continuous
 48
50.0
100
AcDbLine
 10
6553.6
 20
600.0
 30
0.0
 11
6553.6
 21
-0.0000000000000365
 31
0.0
  0
LINE
  5
10B5C
330
747D
100
AcDbEntity
  8
仕様書枠
 48
50.0
100
AcDbLine
 10
8153.6
 20
600.0
 30
0.0
 11
8153.6
 21
-0.0000000000000455
 31
0.0
  0
LINE
  5
10B5D
330
747D
100
AcDbEntity
  8
仕様書枠
 48
50.0
100
AcDbLine
 10
70.0
 20
0.0
 30
0.0
 11
8153.6
 21
-0.0000000000000455
 31
0.0
  0
LINE
  5
10B5E
330
747D
100
AcDbEntity
  8
補助
  6
PHANTOM
 62
   230
 48
50.0
100
AcDbLine
 10
8153.6
 20
5704.8
 30
0.0
 11
8153.6
 21
600.0
 31
0.0
  0
LINE
  5
10B6C
330
747D
100
AcDbEntity
  8
仕様書枠
 48
50.0
100
AcDbLine
 10
6553.6
 20
600.0
 30
0.0
 11
8153.6
 21
600.0
 31
0.0
  0
LINE
  5
10B6D
330
747D
100
AcDbEntity
  8
補助
  6
PHANTOM
 62
   230
 48
50.0
100
AcDbLine
 10
6553.6
 20
5704.8
 30
0.0
 11
6553.6
 21
2400.0
 31
0.0
  0
LINE
  5
10B6F
330
747D
100
AcDbEntity
  8
補助
  6
PHANTOM
 62
   230
 48
50.0
100
AcDbLine
 10
6553.6
 20
2400.0
 30
0.0
 11
8153.6
 21
2400.0
 31
0.0
  0
LINE
  5
10B72
330
747D
100
AcDbEntity
  8
文字
 62
     7
 48
50.0
100
AcDbLine
 10
6593.600000000001
 20
200.0
 30
0.0
 11
8113.600000000001
 21
200.0
 31
0.0
  0
TEXT
  5
10B73
330
747D
100
AcDbEntity
  8
文字
 62
     7
 48
50.0
100
AcDbText
 10
6581.48952828845
 20
447.5453037149702
 30
0.0
 40
100.0
  1
外 形 図
  7
STYLE2
100
AcDbText
  0
TEXT
  5
10B74
330
747D
100
AcDbEntity
  8
文字
 62
     7
 48
50.0
100
AcDbText
 10
6600.718349992208
 20
238.6370330515628
 30
0.0
 40
80.0
  1
機種名
  7
STYLE2
100
AcDbText
  0
TEXT
  5
10B75
330
747D
100
AcDbEntity
  8
文字
 62
     7
 48
50.0
100
AcDbText
 10
6604.7026721086
 20
114.2717621284508
 30
0.0
 40
50.0
  1
○有効開口寸法 ： 485×938 (mm)
  7
STYLE2
100
AcDbText
  0
TEXT
  5
10B76
330
747D
100
AcDbEntity
  8
文字
 62
     7
 48
50.0
100
AcDbText
 10
6604.7026721086
 20
38.04717353824672
 30
0.0
 40
50.0
  1
○床面積 ： 0.60㎡(0.18坪) 　
  7
STYLE2
100
AcDbText
  0
TEXT
  5
10B79
330
747D
100
AcDbEntity
  8
文字
 62
     7
 48
50.0
100
AcDbText
 10
7262.065918610999
 20
515.7788531456143
 30
0.0
 40
50.0
  1
NO.12     <縮尺> S=1/20
  7
STYLE2
100
AcDbText
  0
LINE
  5
10B7B
330
747D
100
AcDbEntity
  8
仕様書枠
 48
50.0
100
AcDbLine
 10
6553.6
 20
400.0
 30
0.0
 11
7125.6
 21
400.0
 31
0.0
  0
LINE
  5
10B88
330
747D
100
AcDbEntity
  8
仕様書枠
  6
Continuous
 48
50.0
100
AcDbLine
 10
7125.6
 20
600.0
 30
0.0
 11
7125.6
 21
400.0
 31
0.0
  0
TEXT
  5
10BB0
330
747D
100
AcDbEntity
  8
文字
 62
     7
 48
50.0
100
AcDbText
 10
7151.289879453724
 20
241.9483564955707
 30
0.0
 40
80.0
  1
ＫＭＸ－１１５Ｂ
  7
STYLE2
100
AcDbText
  0
LINE
  5
119E9
330
747D
100
AcDbEntity
  8
Ｇ．Ｌ
 48
50.0
100
AcDbLine
 10
1842.098280204278
 20
800.0
 30
0.0
 11
6554.389007926609
 21
800.0
 31
0.0
  0
TEXT
  5
11A0B
330
747D
100
AcDbEntity
  8
文字
 48
50.0
100
AcDbText
 10
1891.367660083241
 20
808.888361120451
 30
0.0
 40
70.0
  1
▽G.L
  7
STYLE2
100
AcDbText
  0
TEXT
  5
12184
330
747D
100
AcDbEntity
  8
部品1
100
AcDbText
 10
5255.583281428593
 20
413.4993961635045
 30
0.0
 40
67.5
  1
側面図
  7
STYLE2
100
AcDbText
  0
TEXT
  5
12188
330
747D
100
AcDbEntity
  8
部品1
100
AcDbText
 10
3005.192138357408
 20
3450.784077686726
 30
0.0
 40
67.5
  1
平面図
  7
STYLE2
100
AcDbText
  0
LINE
  5
1219D
330
747D
100
AcDbEntity
  8
部品1
100
AcDbLine
 10
2960.232333442892
 20
3547.230842295987
 30
0.0
 11
2960.232333442892
 21
3427.284681523221
 31
0.0
  0
LINE
  5
1219E
330
747D
100
AcDbEntity
  8
部品1
100
AcDbLine
 10
2960.232333442892
 20
3427.284681523221
 30
0.0
 11
3341.96766655711
 21
3427.284681523221
 31
0.0
  0
LINE
  5
1219F
330
747D
100
AcDbEntity
  8
部品1
100
AcDbLine
 10
3341.96766655711
 20
3427.284681523221
 30
0.0
 11
3341.96766655711
 21
3547.230842295987
 31
0.0
  0
LINE
  5
121A0
330
747D
100
AcDbEntity
  8
部品1
100
AcDbLine
 10
3341.96766655711
 20
3547.230842295987
 30
0.0
 11
2960.232333442892
 21
3547.230842295987
 31
0.0
  0
LINE
  5
121A5
330
747D
100
AcDbEntity
  8
部品1
100
AcDbLine
 10
5210.860230716786
 20
509.9461607727662
 30
0.0
 11
5210.860230716786
 21
390.0
 31
0.0
  0
LINE
  5
121A6
330
747D
100
AcDbEntity
  8
部品1
100
AcDbLine
 10
5210.860230716786
 20
390.0
 30
0.0
 11
5592.595563831007
 21
390.0
 31
0.0
  0
LINE
  5
121A7
330
747D
100
AcDbEntity
  8
部品1
100
AcDbLine
 10
5592.595563831007
 20
390.0
 30
0.0
 11
5592.595563831007
 21
509.9461607727662
 31
0.0
  0
LINE
  5
121A8
330
747D
100
AcDbEntity
  8
部品1
100
AcDbLine
 10
5592.595563831007
 20
509.9461607727662
 30
0.0
 11
5210.860230716786
 21
509.9461607727662
 31
0.0
  0
LINE
  5
121DF
330
747D
100
AcDbEntity
  8
部品1
 48
50.0
100
AcDbLine
 10
2616.099999999999
 20
900.0
 30
0.0
 11
3691.099999999999
 21
900.0
 31
0.0
  0
LINE
  5
121E2
330
747D
100
AcDbEntity
  8
部品1
 48
50.0
100
AcDbLine
 10
3703.599999999999
 20
958.0
 30
0.0
 11
3703.599999999999
 21
1922.608798583754
 31
0.0
  0
LINE
  5
121F2
330
747D
100
AcDbEntity
  8
部品1
 48
50.0
100
AcDbLine
 10
2603.599999999999
 20
958.0
 30
0.0
 11
3703.599999999999
 21
958.0
 31
0.0
  0
LINE
  5
121F3
330
747D
100
AcDbEntity
  8
部品1
 48
50.0
100
AcDbLine
 10
2611.599999999999
 20
906.0
 30
0.0
 11
3695.599999999999
 21
906.0
 31
0.0
  0
LINE
  5
121F4
330
747D
100
AcDbEntity
  8
部品1
 48
50.0
100
AcDbLine
 10
3695.600000000002
 20
906.0
 30
0.0
 11
3695.599999999999
 21
958.0
 31
0.0
  0
LINE
  5
121F5
330
747D
100
AcDbEntity
  8
部品1
 48
50.0
100
AcDbLine
 10
2611.599999999999
 20
906.0
 30
0.0
 11
2611.599999999999
 21
958.0
 31
0.0
  0
LINE
  5
121F6
330
747D
100
AcDbEntity
  8
部品1
 48
50.0
100
AcDbLine
 10
3491.099999999999
 20
800.0
 30
0.0
 11
3491.099999999999
 21
900.0
 31
0.0
  0
LINE
  5
121F7
330
747D
100
AcDbEntity
  8
部品1
 48
50.0
100
AcDbLine
 10
2816.099999999999
 20
800.0
 30
0.0
 11
2816.099999999999
 21
900.0
 31
0.0
  0
LINE
  5
121FD
330
747D
100
AcDbEntity
  8
部品1
 48
50.0
100
AcDbLine
 10
2603.599999999999
 20
1990.0
 30
0.0
 11
3703.599999999999
 21
1989.999999999999
 31
0.0
  0
LINE
  5
121FE
330
747D
100
AcDbEntity
  8
部品1
 48
50.0
100
AcDbLine
 10
2601.599999999999
 20
1980.0
 30
0.0
 11
3705.600000000003
 21
1979.999999999999
 31
0.0
  0
LINE
  5
121FF
330
747D
100
AcDbEntity
  8
部品1
 48
50.0
100
AcDbLine
 10
2638.599999999995
 20
1925.0
 30
0.0
 11
3668.599999999999
 21
1924.999999999999
 31
0.0
  0
LINE
  5
12200
330
747D
100
AcDbEntity
  8
部品1
 48
50.0
100
AcDbLine
 10
2616.099999999999
 20
800.0
 30
0.0
 11
2616.099999999999
 21
906.0
 31
0.0
  0
LINE
  5
12201
330
747D
100
AcDbEntity
  8
部品1
 48
50.0
100
AcDbLine
 10
3691.099999999999
 20
800.0
 30
0.0
 11
3691.099999999999
 21
906.0
 31
0.0
  0
LINE
  5
12219
330
747D
100
AcDbEntity
  8
部品1
 48
50.0
100
AcDbLine
 10
3708.600000000002
 20
1926.439286785928
 30
0.0
 11
3708.600000000002
 21
1976.999999999999
 31
0.0
  0
LINE
  5
1221C
330
747D
100
AcDbEntity
  8
部品1
 48
50.0
100
AcDbLine
 10
3691.100000000002
 20
958.0
 30
0.0
 11
3691.100000000002
 21
1977.999999999999
 31
0.0
  0
LINE
  5
1221D
330
747D
100
AcDbEntity
  8
部品1
 48
50.0
100
AcDbLine
 10
3681.100000000002
 20
958.0
 30
0.0
 11
3681.100000000002
 21
1977.999999999999
 31
0.0
  0
LINE
  5
1221E
330
747D
100
AcDbEntity
  8
部品1
 48
50.0
100
AcDbLine
 10
3668.600000000002
 20
958.0
 30
0.0
 11
3668.600000000002
 21
1978.999999999999
 31
0.0
  0
LINE
  5
1221F
330
747D
100
AcDbEntity
  8
部品1
 48
50.0
100
AcDbLine
 10
3706.600000000003
 20
1979.828427124745
 30
0.0
 11
3706.600000000003
 21
1986.999999999999
 31
0.0
  0
LINE
  5
12220
330
747D
100
AcDbEntity
  8
部品1
 48
50.0
100
AcDbLine
 10
2638.599999999995
 20
1975.0
 30
0.0
 11
3668.600000000002
 21
1975.0
 31
0.0
  0
LINE
  5
12221
330
747D
100
AcDbEntity
  8
細線
 48
50.0
100
AcDbLine
 10
2638.599999999995
 20
1965.0
 30
0.0
 11
3668.600000000002
 21
1965.0
 31
0.0
  0
LINE
  5
12222
330
747D
100
AcDbEntity
  8
部品1
 48
50.0
100
AcDbLine
 10
2638.599999999995
 20
1955.0
 30
0.0
 11
3668.600000000002
 21
1955.0
 31
0.0
  0
ARC
  5
12276
330
747D
100
AcDbEntity
  8
部品1
100
AcDbCircle
 10
3686.099999999998
 20
1919.652703644665
 30
0.0
 40
58.0
100
AcDbArc
 50
85.05457028211578
 51
94.94542971788241
  0
ARC
  5
12277
330
747D
100
AcDbEntity
  8
部品1
100
AcDbCircle
 10
3686.099999999998
 20
1979.999999999999
 30
0.0
 40
58.0
100
AcDbArc
 50
265.043908235728
 51
274.9560917642729
  0
ARC
  5
123AE
330
747D
100
AcDbEntity
  8
部品1
100
AcDbCircle
 10
3686.099999999998
 20
1979.999999999999
 30
0.0
 40
60.0
100
AcDbArc
 50
254.4998214330012
 51
263.068093802415
  0
ARC
  5
123AF
330
747D
100
AcDbEntity
  8
部品1
100
AcDbCircle
 10
3686.099999999998
 20
1979.999999999999
 30
0.0
 40
60.0
100
AcDbArc
 50
276.9319061975846
 51
290.0051900881596
  0
ARC
  5
123B0
330
747D
100
AcDbEntity
  8
部品1
 48
50.0
100
AcDbCircle
 10
3669.600000000002
 20
1978.999999999999
 30
0.0
 40
1.0
100
AcDbArc
 50
89.99999999999996
 51
180.0
  0
ARC
  5
123B1
330
747D
100
AcDbEntity
  8
部品1
100
AcDbCircle
 10
3670.600000000002
 20
1924.109482020649
 30
0.0
 40
2.0
100
AcDbArc
 50
180.0
 51
254.4998214329957
  0
ARC
  5
123B2
330
747D
100
AcDbEntity
  8
部品1
100
AcDbCircle
 10
3705.600000000003
 20
1926.439286785928
 30
0.0
 40
3.0
100
AcDbArc
 50
290.0051900881618
 51
0.0
  0
ARC
  5
123B3
330
747D
100
AcDbEntity
  8
部品1
 48
50.0
100
AcDbCircle
 10
3705.600000000003
 20
1976.999999999999
 30
0.0
 40
3.0
100
AcDbArc
 50
0.0
 51
89.99999999999998
  0
ARC
  5
123B4
330
747D
100
AcDbEntity
  8
部品1
100
AcDbCircle
 10
3679.100000000003
 20
1922.423963318059
 30
0.0
 40
2.0
100
AcDbArc
 50
263.0680938024194
 51
0.0
  0
ARC
  5
123B5
330
747D
100
AcDbEntity
  8
部品1
100
AcDbCircle
 10
3693.100000000003
 20
1922.42396331806
 30
0.0
 40
2.0
100
AcDbArc
 50
180.0
 51
276.9319061975798
  0
ARC
  5
123B6
330
747D
100
AcDbEntity
  8
部品1
 48
50.0
100
AcDbCircle
 10
3679.100000000003
 20
1977.999999999999
 30
0.0
 40
2.0
100
AcDbArc
 50
0.0
 51
89.99999999999998
  0
ARC
  5
123B7
330
747D
100
AcDbEntity
  8
部品1
 48
50.0
100
AcDbCircle
 10
3693.100000000003
 20
1977.999999999999
 30
0.0
 40
2.0
100
AcDbArc
 50
89.99999999999996
 51
180.0
  0
ARC
  5
123B9
330
747D
100
AcDbEntity
  8
細線
100
AcDbCircle
 10
3686.100000000003
 20
1909.195498155886
 30
0.0
 40
60.0
100
AcDbArc
 50
69.30162727144246
 51
83.06809380241542
  0
ARC
  5
123BA
330
747D
100
AcDbEntity
  8
細線
100
AcDbCircle
 10
3686.100000000003
 20
2012.928932188135
 30
0.0
 40
60.0
100
AcDbArc
 50
276.9319061975846
 51
290.6983727285576
  0
ARC
  5
123BB
330
747D
100
AcDbEntity
  8
細線
100
AcDbCircle
 10
3686.100000000003
 20
1909.195498155886
 30
0.0
 40
58.0
100
AcDbArc
 50
85.04390823572785
 51
94.95609176427267
  0
ARC
  5
123BC
330
747D
100
AcDbEntity
  8
細線
100
AcDbCircle
 10
3686.100000000003
 20
1909.195498155886
 30
0.0
 40
60.0
100
AcDbArc
 50
96.93190619758505
 51
105.5001785669987
  0
ARC
  5
123BD
330
747D
100
AcDbEntity
  8
細線
100
AcDbCircle
 10
3686.100000000003
 20
2012.928932188135
 30
0.0
 40
58.0
100
AcDbArc
 50
265.0439082357273
 51
274.9560917642722
  0
ARC
  5
123BE
330
747D
100
AcDbEntity
  8
細線
100
AcDbCircle
 10
3686.100000000003
 20
2012.928932188135
 30
0.0
 40
60.0
100
AcDbArc
 50
254.4998214330012
 51
263.068093802415
  0
ARC
  5
123D0
330
747D
100
AcDbEntity
  8
部品1
 48
50.0
100
AcDbCircle
 10
3703.599999999999
 20
1986.999999999999
 30
0.0
 40
3.0
100
AcDbArc
 50
0.0000000000025953
 51
89.99999999999998
  0
LINE
  5
123D3
330
747D
100
AcDbEntity
  8
細線
 48
50.0
100
AcDbLine
 10
2638.599999999995
 20
1949.0
 30
0.0
 11
3668.600000000002
 21
1949.0
 31
0.0
  0
LINE
  5
123D4
330
747D
100
AcDbEntity
  8
細線
 48
50.0
100
AcDbLine
 10
2638.599999999995
 20
1943.000000000001
 30
0.0
 11
3668.600000000002
 21
1943.0
 31
0.0
  0
LINE
  5
123D5
330
747D
100
AcDbEntity
  8
細線
 48
50.0
100
AcDbLine
 10
2638.599999999995
 20
1937.000000000001
 30
0.0
 11
3668.600000000002
 21
1937.0
 31
0.0
  0
LINE
  5
123D6
330
747D
100
AcDbEntity
  8
細線
 48
50.0
100
AcDbLine
 10
2638.599999999995
 20
1931.000000000001
 30
0.0
 11
3668.600000000002
 21
1931.0
 31
0.0
  0
LINE
  5
123D7
330
747D
100
AcDbEntity
  8
部品1
 48
50.0
100
AcDbLine
 10
2638.599999999998
 20
968.0
 30
0.0
 11
3668.600000000002
 21
968.0
 31
0.0
  0
LINE
  5
123D8
330
747D
100
AcDbEntity
  8
部品1
 48
50.0
100
AcDbLine
 10
2650.599999999995
 20
978.5
 30
0.0
 11
3131.099999999999
 21
978.5
 31
0.0
  0
LINE
  5
123D9
330
747D
100
AcDbEntity
  8
部品1
 48
50.0
100
AcDbLine
 10
2600.599999999999
 20
1979.828427124745
 30
0.0
 11
2600.599999999999
 21
1986.999999999999
 31
0.0
  0
ARC
  5
123DA
330
747D
100
AcDbEntity
  8
部品1
 48
50.0
100
AcDbCircle
 10
2603.599999999999
 20
1986.999999999999
 30
0.0
 40
3.0
100
AcDbArc
 50
90.00000000000003
 51
179.9999999999974
  0
ARC
  5
123DB
330
747D
100
AcDbEntity
  8
細線
100
AcDbCircle
 10
2621.099999999995
 20
2012.928932188135
 30
0.0
 40
60.0
100
AcDbArc
 50
276.931906197585
 51
285.5001785669987
  0
ARC
  5
123DC
330
747D
100
AcDbEntity
  8
細線
100
AcDbCircle
 10
2621.099999999995
 20
2012.928932188135
 30
0.0
 40
58.0
100
AcDbArc
 50
265.0439082357278
 51
274.9560917642727
  0
ARC
  5
123DD
330
747D
100
AcDbEntity
  8
細線
100
AcDbCircle
 10
2621.099999999995
 20
1909.195498155886
 30
0.0
 40
60.0
100
AcDbArc
 50
74.49982143300124
 51
83.06809380241494
  0
ARC
  5
123DE
330
747D
100
AcDbEntity
  8
細線
100
AcDbCircle
 10
2621.099999999995
 20
1909.195498155886
 30
0.0
 40
58.0
100
AcDbArc
 50
85.04390823572734
 51
94.95609176427214
  0
ARC
  5
123DF
330
747D
100
AcDbEntity
  8
細線
100
AcDbCircle
 10
2621.099999999995
 20
2012.928932188135
 30
0.0
 40
60.0
100
AcDbArc
 50
249.3016272714424
 51
263.0680938024154
  0
ARC
  5
123E0
330
747D
100
AcDbEntity
  8
細線
100
AcDbCircle
 10
2621.099999999995
 20
1909.195498155886
 30
0.0
 40
60.0
100
AcDbArc
 50
96.93190619758457
 51
110.6983727285575
  0
ARC
  5
123E1
330
747D
100
AcDbEntity
  8
部品1
100
AcDbCircle
 10
2621.099999999998
 20
1979.999999999999
 30
0.0
 40
58.0
100
AcDbArc
 50
265.0439082357272
 51
274.9560917642719
  0
ARC
  5
123E2
330
747D
100
AcDbEntity
  8
部品1
100
AcDbCircle
 10
2614.099999999999
 20
1922.42396331806
 30
0.0
 40
2.0
100
AcDbArc
 50
263.0680938024202
 51
0.000000000000007
  0
ARC
  5
123E3
330
747D
100
AcDbEntity
  8
部品1
 48
50.0
100
AcDbCircle
 10
2614.099999999999
 20
1977.999999999999
 30
0.0
 40
2.0
100
AcDbArc
 50
0.000000000000007
 51
90.00000000000005
  0
ARC
  5
123E4
330
747D
100
AcDbEntity
  8
部品1
 48
50.0
100
AcDbCircle
 10
2628.099999999998
 20
1977.999999999999
 30
0.0
 40
2.0
100
AcDbArc
 50
90.00000000000003
 51
180.0
  0
ARC
  5
123E5
330
747D
100
AcDbEntity
  8
部品1
100
AcDbCircle
 10
2628.099999999998
 20
1922.423963318059
 30
0.0
 40
2.0
100
AcDbArc
 50
180.0
 51
276.9319061975806
  0
LINE
  5
123E6
330
747D
100
AcDbEntity
  8
部品1
 48
50.0
100
AcDbLine
 10
2598.599999999999
 20
1926.439286785928
 30
0.0
 11
2598.599999999999
 21
1976.999999999999
 31
0.0
  0
ARC
  5
123E7
330
747D
100
AcDbEntity
  8
部品1
 48
50.0
100
AcDbCircle
 10
2601.599999999999
 20
1976.999999999999
 30
0.0
 40
3.0
100
AcDbArc
 50
90.00000000000003
 51
180.0
  0
ARC
  5
123E8
330
747D
100
AcDbEntity
  8
部品1
100
AcDbCircle
 10
2601.599999999999
 20
1926.439286785928
 30
0.0
 40
3.0
100
AcDbArc
 50
180.0
 51
249.9948099118383
  0
ARC
  5
123E9
330
747D
100
AcDbEntity
  8
部品1
100
AcDbCircle
 10
2636.599999999999
 20
1924.109482020649
 30
0.0
 40
2.0
100
AcDbArc
 50
285.5001785670042
 51
0.000000000000007
  0
ARC
  5
123EA
330
747D
100
AcDbEntity
  8
部品1
 48
50.0
100
AcDbCircle
 10
2637.599999999999
 20
1978.999999999999
 30
0.0
 40
1.0
100
AcDbArc
 50
0.000000000000007
 51
90.00000000000005
  0
ARC
  5
123EB
330
747D
100
AcDbEntity
  8
部品1
100
AcDbCircle
 10
2621.099999999998
 20
1979.999999999999
 30
0.0
 40
60.0
100
AcDbArc
 50
249.9948099118404
 51
263.0680938024154
  0
ARC
  5
123EC
330
747D
100
AcDbEntity
  8
部品1
100
AcDbCircle
 10
2621.099999999998
 20
1979.999999999999
 30
0.0
 40
60.0
100
AcDbArc
 50
276.931906197585
 51
285.5001785669987
  0
ARC
  5
123ED
330
747D
100
AcDbEntity
  8
部品1
100
AcDbCircle
 10
2621.099999999998
 20
1919.652703644665
 30
0.0
 40
58.0
100
AcDbArc
 50
85.05457028211759
 51
94.94542971788423
  0
LINE
  5
123EE
330
747D
100
AcDbEntity
  8
部品1
 48
50.0
100
AcDbLine
 10
2616.099999999999
 20
958.0
 30
0.0
 11
2616.099999999999
 21
1977.999999999999
 31
0.0
  0
LINE
  5
123EF
330
747D
100
AcDbEntity
  8
部品1
 48
50.0
100
AcDbLine
 10
2626.099999999999
 20
958.0
 30
0.0
 11
2626.099999999999
 21
1977.999999999999
 31
0.0
  0
LINE
  5
123F0
330
747D
100
AcDbEntity
  8
部品1
 48
50.0
100
AcDbLine
 10
2638.599999999998
 20
958.0
 30
0.0
 11
2638.599999999995
 21
1978.999999999999
 31
0.0
  0
LINE
  5
123F1
330
747D
100
AcDbEntity
  8
部品1
 48
50.0
100
AcDbLine
 10
2603.599999999999
 20
958.0
 30
0.0
 11
2603.599999999999
 21
1922.608798583754
 31
0.0
  0
LINE
  5
123F2
330
747D
100
AcDbEntity
  8
部品1
 48
50.0
100
AcDbLine
 10
2646.599999999999
 20
968.0
 30
0.0
 11
2650.599999999995
 21
978.5
 31
0.0
  0
LINE
  5
125F7
330
747D
100
AcDbEntity
  8
部品1
 48
20.0
100
AcDbLine
 10
3608.100000000002
 20
1822.429621181403
 30
0.0
 11
3608.100000000002
 21
1627.570378818596
 31
0.0
  0
LINE
  5
125F8
330
747D
100
AcDbEntity
  8
部品1
 48
20.0
100
AcDbLine
 10
3618.100000000003
 20
1822.429621181402
 30
0.0
 11
3618.100000000003
 21
1627.570378818596
 31
0.0
  0
ARC
  5
125FB
330
747D
100
AcDbEntity
  8
部品1
 48
20.0
100
AcDbCircle
 10
4578.100000000001
 20
1724.999999999992
 30
0.0
 40
1000.0
100
AcDbArc
 50
173.3545336357521
 51
186.645466364247
  0
ARC
  5
125FC
330
747D
100
AcDbEntity
  8
部品1
 48
20.0
100
AcDbCircle
 10
2648.100000000003
 20
1724.999999999993
 30
0.0
 40
1000.0
100
AcDbArc
 50
353.3545336357529
 51
6.645466364247838
  0
ARC
  5
125FD
330
747D
100
AcDbEntity
  8
細線
 48
50.0
100
AcDbCircle
 10
4578.100000000001
 20
1724.999999999992
 30
0.0
 40
995.0
100
AcDbArc
 50
173.3545336357521
 51
186.645466364247
  0
ARC
  5
125FE
330
747D
100
AcDbEntity
  8
細線
 48
50.0
100
AcDbCircle
 10
2648.100000000003
 20
1724.999999999993
 30
0.0
 40
995.0
100
AcDbArc
 50
353.3545336357529
 51
6.645466364247838
  0
ELLIPSE
  5
12605
330
747D
100
AcDbEntity
  8
部品1
100
AcDbEllipse
 10
3613.100000000001
 20
1822.429621181401
 30
0.0
 11
0.0
 21
9.770631002828622
 31
0.0
210
0.0
220
0.0
230
-1.0
 40
0.5117376757501626
 41
4.712388980384689
 42
7.853981633974482
  0
ARC
  5
12609
330
747D
100
AcDbEntity
  8
細線
 48
50.0
100
AcDbCircle
 10
3594.75156658165
 20
1839.568139086208
 30
0.0
 40
5.0
100
AcDbArc
 50
92.69660515470468
 51
173.3545336357467
  0
ARC
  5
1260A
330
747D
100
AcDbEntity
  8
細線
 48
50.0
100
AcDbCircle
 10
3631.448433418351
 20
1839.568139086209
 30
0.0
 40
5.0
100
AcDbArc
 50
6.64546636424607
 51
87.30339484529537
  0
ARC
  5
1260B
330
747D
100
AcDbEntity
  8
部品1
 48
20.0
100
AcDbCircle
 10
3594.75156658165
 20
1839.568139086208
 30
0.0
 40
10.0
100
AcDbArc
 50
92.6966051547046
 51
173.3545336357496
  0
ARC
  5
1260C
330
747D
100
AcDbEntity
  8
部品1
 48
20.0
100
AcDbCircle
 10
3631.448433418351
 20
1839.568139086209
 30
0.0
 40
10.0
100
AcDbArc
 50
6.645466364247075
 51
87.3033948452957
  0
ARC
  5
1260E
330
747D
100
AcDbEntity
  8
部品1
 48
20.0
100
AcDbCircle
 10
3613.100000000002
 20
1449.999999999999
 30
0.0
 40
400.0
100
AcDbArc
 50
87.30339484529599
 51
92.69660515470446
  0
ARC
  5
12610
330
747D
100
AcDbEntity
  8
細線
 48
50.0
100
AcDbCircle
 10
3613.100000000002
 20
1449.999999999999
 30
0.0
 40
395.0
100
AcDbArc
 50
87.30339484529599
 51
92.69660515470446
  0
ELLIPSE
  5
1262C
330
747D
100
AcDbEntity
  8
部品1
100
AcDbEllipse
 10
3613.100000000001
 20
1627.570378818597
 30
0.0
 11
0.0
 21
-9.770631002828622
 31
0.0
210
0.0
220
0.0
230
1.0
 40
0.5117376757501626
 41
4.712388980384689
 42
7.853981633974482
  0
ARC
  5
12633
330
747D
100
AcDbEntity
  8
部品1
 48
20.0
100
AcDbCircle
 10
3594.75156658165
 20
1610.43186091379
 30
0.0
 40
10.0
100
AcDbArc
 50
186.6454663642468
 51
267.3033948452939
  0
ARC
  5
12634
330
747D
100
AcDbEntity
  8
部品1
 48
20.0
100
AcDbCircle
 10
3631.448433418351
 20
1610.43186091379
 30
0.0
 40
10.0
100
AcDbArc
 50
272.6966051547042
 51
353.3545336357534
  0
ARC
  5
12637
330
747D
100
AcDbEntity
  8
細線
 48
50.0
100
AcDbCircle
 10
3613.100000000002
 20
1999.999999999999
 30
0.0
 40
395.0
100
AcDbArc
 50
267.3033948452952
 51
272.6966051547042
  0
ARC
  5
12638
330
747D
100
AcDbEntity
  8
細線
 48
50.0
100
AcDbCircle
 10
3594.75156658165
 20
1610.43186091379
 30
0.0
 40
5.0
100
AcDbArc
 50
186.6454663642468
 51
267.3033948452926
  0
ARC
  5
12639
330
747D
100
AcDbEntity
  8
細線
 48
50.0
100
AcDbCircle
 10
3631.448433418351
 20
1610.43186091379
 30
0.0
 40
5.0
100
AcDbArc
 50
272.6966051547042
 51
353.3545336357539
  0
ARC
  5
1263B
330
747D
100
AcDbEntity
  8
部品1
 48
20.0
100
AcDbCircle
 10
3613.100000000002
 20
1999.999999999999
 30
0.0
 40
400.0
100
AcDbArc
 50
267.3033948452952
 51
272.6966051547042
  0
ARC
  5
128C6
330
747D
100
AcDbEntity
  8
細線
 48
50.0
100
AcDbCircle
 10
3659.099999999995
 20
1724.999999999993
 30
0.0
 40
995.0
100
AcDbArc
 50
173.3545336357521
 51
186.6454663642471
  0
ARC
  5
128C7
330
747D
100
AcDbEntity
  8
細線
 48
50.0
100
AcDbCircle
 10
1729.099999999995
 20
1724.999999999992
 30
0.0
 40
995.0
100
AcDbArc
 50
353.354533635753
 51
6.645466364247897
  0
LINE
  5
128C8
330
747D
100
AcDbEntity
  8
部品1
 48
20.0
100
AcDbLine
 10
2699.099999999995
 20
1822.429621181403
 30
0.0
 11
2699.099999999995
 21
1627.570378818596
 31
0.0
  0
LINE
  5
128C9
330
747D
100
AcDbEntity
  8
部品1
 48
20.0
100
AcDbLine
 10
2689.099999999995
 20
1822.429621181402
 30
0.0
 11
2689.099999999995
 21
1627.570378818596
 31
0.0
  0
ARC
  5
128CA
330
747D
100
AcDbEntity
  8
部品1
 48
20.0
100
AcDbCircle
 10
1729.099999999995
 20
1724.999999999992
 30
0.0
 40
1000.0
100
AcDbArc
 50
353.354533635753
 51
6.645466364247897
  0
ARC
  5
128CB
330
747D
100
AcDbEntity
  8
部品1
 48
20.0
100
AcDbCircle
 10
3659.099999999995
 20
1724.999999999993
 30
0.0
 40
1000.0
100
AcDbArc
 50
173.3545336357521
 51
186.6454663642471
  0
ARC
  5
128CC
330
747D
100
AcDbEntity
  8
細線
 48
50.0
100
AcDbCircle
 10
2675.751566581646
 20
1610.43186091379
 30
0.0
 40
5.0
100
AcDbArc
 50
186.6454663642461
 51
267.3033948452958
  0
ARC
  5
128CD
330
747D
100
AcDbEntity
  8
細線
 48
50.0
100
AcDbCircle
 10
2712.448433418347
 20
1610.43186091379
 30
0.0
 40
5.0
100
AcDbArc
 50
272.6966051547074
 51
353.3545336357531
  0
ARC
  5
128CE
330
747D
100
AcDbEntity
  8
細線
 48
50.0
100
AcDbCircle
 10
2694.099999999995
 20
1999.999999999999
 30
0.0
 40
395.0
100
AcDbArc
 50
267.3033948452958
 51
272.6966051547048
  0
ELLIPSE
  5
128CF
330
747D
100
AcDbEntity
  8
部品1
100
AcDbEllipse
 10
2694.099999999997
 20
1627.570378818597
 30
0.0
 11
0.0
 21
-9.770631002828622
 31
0.0
210
0.0
220
0.0
230
-1.0
 40
0.5117376757501626
 41
4.712388980384689
 42
7.853981633974482
  0
ARC
  5
128D0
330
747D
100
AcDbEntity
  8
部品1
 48
20.0
100
AcDbCircle
 10
2675.751566581646
 20
1610.43186091379
 30
0.0
 40
10.0
100
AcDbArc
 50
186.6454663642466
 51
267.3033948452959
  0
ARC
  5
128D1
330
747D
100
AcDbEntity
  8
部品1
 48
20.0
100
AcDbCircle
 10
2712.448433418347
 20
1610.43186091379
 30
0.0
 40
10.0
100
AcDbArc
 50
272.696605154706
 51
353.3545336357532
  0
ARC
  5
128D2
330
747D
100
AcDbEntity
  8
部品1
 48
20.0
100
AcDbCircle
 10
2694.099999999995
 20
1999.999999999999
 30
0.0
 40
400.0
100
AcDbArc
 50
267.3033948452958
 51
272.6966051547048
  0
ARC
  5
128D3
330
747D
100
AcDbEntity
  8
細線
 48
50.0
100
AcDbCircle
 10
2694.099999999995
 20
1449.999999999999
 30
0.0
 40
395.0
100
AcDbArc
 50
87.30339484529553
 51
92.69660515470402
  0
ARC
  5
128D4
330
747D
100
AcDbEntity
  8
細線
 48
50.0
100
AcDbCircle
 10
2675.75156658165
 20
1839.568139086209
 30
0.0
 40
5.0
100
AcDbArc
 50
92.6966051547046
 51
173.3545336357539
  0
ARC
  5
128D5
330
747D
100
AcDbEntity
  8
細線
 48
50.0
100
AcDbCircle
 10
2712.448433418347
 20
1839.568139086208
 30
0.0
 40
5.0
100
AcDbArc
 50
6.645466364253289
 51
87.30339484529535
  0
ARC
  5
128D6
330
747D
100
AcDbEntity
  8
部品1
 48
20.0
100
AcDbCircle
 10
2694.099999999995
 20
1449.999999999999
 30
0.0
 40
400.0
100
AcDbArc
 50
87.30339484529553
 51
92.69660515470402
  0
ELLIPSE
  5
128D7
330
747D
100
AcDbEntity
  8
部品1
100
AcDbEllipse
 10
2694.099999999997
 20
1822.429621181401
 30
0.0
 11
0.0
 21
9.770631002828622
 31
0.0
210
0.0
220
0.0
230
1.0
 40
0.5117376757501626
 41
4.712388980384689
 42
7.853981633974482
  0
ARC
  5
128D8
330
747D
100
AcDbEntity
  8
部品1
 48
20.0
100
AcDbCircle
 10
2712.448433418347
 20
1839.568139086208
 30
0.0
 40
10.0
100
AcDbArc
 50
6.64546636425039
 51
87.3033948452954
  0
ARC
  5
128D9
330
747D
100
AcDbEntity
  8
部品1
 48
20.0
100
AcDbCircle
 10
2675.75156658165
 20
1839.568139086209
 30
0.0
 40
10.0
100
AcDbArc
 50
92.6966051547043
 51
173.3545336357529
  0
LINE
  5
128DB
330
747D
100
AcDbEntity
  8
部品1
 48
50.0
100
AcDbLine
 10
3131.099999999999
 20
971.0
 30
0.0
 11
3131.100000000002
 21
1925.0
 31
0.0
  0
LINE
  5
133CE
330
747D
100
AcDbEntity
  8
部品1
 48
50.0
100
AcDbLine
 10
3131.099999999999
 20
971.0
 30
0.0
 11
3668.600000000002
 21
971.0
 31
0.0
  0
LINE
  5
133D3
330
747D
100
AcDbEntity
  8
部品1
 48
50.0
100
AcDbLine
 10
5130.727897273897
 20
800.0
 30
0.0
 11
5130.727897273897
 21
900.0
 31
0.0
  0
LINE
  5
133D4
330
747D
100
AcDbEntity
  8
部品1
 48
50.0
100
AcDbLine
 10
5330.727897273897
 20
800.0
 30
0.0
 11
5330.727897273897
 21
900.0
 31
0.0
  0
LINE
  5
133D5
330
747D
100
AcDbEntity
  8
部品1
 48
50.0
100
AcDbLine
 10
5121.727897273896
 20
958.0
 30
0.0
 11
5121.727897273896
 21
1919.999999999999
 31
0.0
  0
LINE
  5
133D6
330
747D
100
AcDbEntity
  8
部品1
 48
50.0
100
AcDbLine
 10
5681.727897273897
 20
958.0
 30
0.0
 11
5681.727897273897
 21
1924.999999999999
 31
0.0
  0
LINE
  5
133E5
330
747D
100
AcDbEntity
  8
部品1
 48
50.0
100
AcDbLine
 10
5475.727897273896
 20
800.0
 30
0.0
 11
5475.727897273896
 21
900.0
 31
0.0
  0
LINE
  5
133E7
330
747D
100
AcDbEntity
  8
部品1
 48
50.0
100
AcDbLine
 10
5130.727897273897
 20
900.0
 30
0.0
 11
5675.727897273897
 21
900.0
 31
0.0
  0
LINE
  5
134F5
330
747D
100
AcDbEntity
  8
部品1
100
AcDbLine
 10
5691.727897273897
 20
1924.999999999999
 30
0.0
 11
5158.227897273897
 21
1924.999999999999
 31
0.0
  0
LINE
  5
134FA
330
747D
100
AcDbEntity
  8
部品1
100
AcDbLine
 10
5617.585761650167
 20
1979.999999999999
 30
0.0
 11
5143.178249479497
 21
1979.999999999999
 31
0.0
  0
LINE
  5
134FB
330
747D
100
AcDbEntity
  8
細線
100
AcDbLine
 10
5617.585761650167
 20
1974.999999999999
 30
0.0
 11
5165.342275551557
 21
1974.999999999999
 31
0.0
  0
LINE
  5
13502
330
747D
100
AcDbEntity
  8
部品1
100
AcDbLine
 10
5158.227897273897
 20
1924.08778689947
 30
0.0
 11
5158.227897273897
 21
1979.999999999999
 31
0.0
  0
LINE
  5
13503
330
747D
100
AcDbEntity
  8
部品1
100
AcDbLine
 10
5084.65682946203
 20
1950.0
 30
0.0
 11
5113.192363367965
 21
1921.464466094066
 31
0.0
  0
LINE
  5
13506
330
747D
100
AcDbEntity
  8
部品1
100
AcDbLine
 10
5121.727897273896
 20
1919.999999999999
 30
0.0
 11
5116.727897273896
 21
1919.999999999999
 31
0.0
  0
ARC
  5
13507
330
747D
100
AcDbEntity
  8
部品1
100
AcDbCircle
 10
5116.727897273896
 20
1924.999999999999
 30
0.0
 40
5.0
100
AcDbArc
 50
224.9999999999996
 51
270.0
  0
LINE
  5
1350C
330
747D
100
AcDbEntity
  8
部品1
100
AcDbLine
 10
5089.991415497228
 20
1970.652579374236
 30
0.0
 11
5142.83095312416
 21
1979.969615506024
 31
0.0
  0
LINE
  5
13512
330
747D
100
AcDbEntity
  8
部品1
100
AcDbLine
 10
5081.727897273896
 20
1957.071067811866
 30
0.0
 11
5081.727897273896
 21
1960.804501844112
 31
0.0
  0
ARC
  5
13515
330
747D
100
AcDbEntity
  8
部品1
100
AcDbCircle
 10
5091.727897273897
 20
1957.071067811866
 30
0.0
 40
10.0
100
AcDbArc
 50
180.0
 51
225.0
  0
ARC
  5
1351A
330
747D
100
AcDbEntity
  8
部品1
100
AcDbCircle
 10
5091.727897273897
 20
1960.804501844112
 30
0.0
 40
10.0
100
AcDbArc
 50
99.99999999999982
 51
180.0
  0
LINE
  5
13528
330
747D
100
AcDbEntity
  8
細線
100
AcDbLine
 10
5158.727897273897
 20
1972.499999999999
 30
0.0
 11
5158.227897273897
 21
1972.499999999999
 31
0.0
  0
ARC
  5
13534
330
747D
100
AcDbEntity
  8
部品1
100
AcDbCircle
 10
5143.178249479497
 20
1977.999999999999
 30
0.0
 40
2.0
100
AcDbArc
 50
90.0
 51
99.99999999999939
  0
ARC
  5
13547
330
747D
100
AcDbEntity
  8
細線
100
AcDbCircle
 10
5165.342275551557
 20
1969.999999999999
 30
0.0
 40
5.0
100
AcDbArc
 50
90.0
 51
131.4096221092702
  0
ARC
  5
1354A
330
747D
100
AcDbEntity
  8
細線
100
AcDbCircle
 10
5158.727897273897
 20
1977.499999999999
 30
0.0
 40
5.0
100
AcDbArc
 50
270.0000000000026
 51
311.4096221092702
  0
LINE
  5
13552
330
747D
100
AcDbEntity
  8
部品1
100
AcDbLine
 10
5691.727897273897
 20
1925.0
 30
0.0
 11
5691.727897273897
 21
1979.999999999999
 31
0.0
  0
LINE
  5
13554
330
747D
100
AcDbEntity
  8
細線
100
AcDbLine
 10
5686.727897273897
 20
1924.999999999999
 30
0.0
 11
5686.727897273897
 21
1979.999999999999
 31
0.0
  0
ARC
  5
13562
330
747D
100
AcDbEntity
  8
部品1
100
AcDbCircle
 10
5681.727897273897
 20
1979.999999999999
 30
0.0
 40
10.0
100
AcDbArc
 50
0.0000000000000035
 51
90.0
  0
ARC
  5
13564
330
747D
100
AcDbEntity
  8
細線
100
AcDbCircle
 10
5681.727897273897
 20
1979.999999999999
 30
0.0
 40
5.0
100
AcDbArc
 50
0.0000000000000035
 51
90.0
  0
ARC
  5
13569
330
747D
100
AcDbEntity
  8
細線
100
AcDbCircle
 10
5635.870032897627
 20
1979.999999999999
 30
0.0
 40
5.0
100
AcDbArc
 50
90.0
 51
135.0000000000009
  0
ARC
  5
1356A
330
747D
100
AcDbEntity
  8
部品1
100
AcDbCircle
 10
5635.870032897627
 20
1979.999999999999
 30
0.0
 40
10.0
100
AcDbArc
 50
90.0
 51
135.0000000000009
  0
ARC
  5
13574
330
747D
100
AcDbEntity
  8
細線
100
AcDbCircle
 10
5617.585761650167
 20
1989.999999999999
 30
0.0
 40
15.0
100
AcDbArc
 50
270.0
 51
315.0000000000014
  0
LINE
  5
13575
330
747D
100
AcDbEntity
  8
部品1
100
AcDbLine
 10
5628.798965085763
 20
1987.071067811864
 30
0.0
 11
5624.656829462034
 21
1982.928932188134
 31
0.0
  0
ARC
  5
13576
330
747D
100
AcDbEntity
  8
部品1
100
AcDbCircle
 10
5617.585761650167
 20
1989.999999999999
 30
0.0
 40
10.0
100
AcDbArc
 50
270.0
 51
315.0000000000014
  0
LINE
  5
13579
330
747D
100
AcDbEntity
  8
細線
100
AcDbLine
 10
5632.334498991696
 20
1983.535533905931
 30
0.0
 11
5628.192363367965
 21
1979.393398282201
 31
0.0
  0
LINE
  5
1357A
330
747D
100
AcDbEntity
  8
細線
100
AcDbLine
 10
5668.727897273896
 20
1961.999999999999
 30
0.0
 11
5644.727897273897
 21
1961.999999999999
 31
0.0
  0
LINE
  5
1357B
330
747D
100
AcDbEntity
  8
細線
100
AcDbLine
 10
5668.727897273896
 20
1979.999999999999
 30
0.0
 11
5644.727897273897
 21
1979.999999999999
 31
0.0
  0
LINE
  5
1357E
330
747D
100
AcDbEntity
  8
細線
100
AcDbLine
 10
5681.727897273897
 20
1984.999999999999
 30
0.0
 11
5635.870032897627
 21
1984.999999999999
 31
0.0
  0
ARC
  5
13580
330
747D
100
AcDbEntity
  8
細線
100
AcDbCircle
 10
5644.727897273897
 20
1963.999999999999
 30
0.0
 40
2.0
100
AcDbArc
 50
180.0
 51
270.0
  0
LINE
  5
13581
330
747D
100
AcDbEntity
  8
細線
100
AcDbLine
 10
5642.727897273896
 20
1977.999999999999
 30
0.0
 11
5642.727897273896
 21
1963.999999999999
 31
0.0
  0
ARC
  5
13582
330
747D
100
AcDbEntity
  8
細線
100
AcDbCircle
 10
5644.727897273897
 20
1977.999999999999
 30
0.0
 40
2.0
100
AcDbArc
 50
90.0
 51
180.0000000000065
  0
ARC
  5
13586
330
747D
100
AcDbEntity
  8
細線
100
AcDbCircle
 10
5668.727897273896
 20
1963.999999999999
 30
0.0
 40
2.0
100
AcDbArc
 50
270.0
 51
359.9999999999935
  0
ARC
  5
13588
330
747D
100
AcDbEntity
  8
細線
100
AcDbCircle
 10
5668.727897273896
 20
1977.999999999999
 30
0.0
 40
2.0
100
AcDbArc
 50
0.0000000000065173
 51
90.0
  0
LINE
  5
13589
330
747D
100
AcDbEntity
  8
細線
100
AcDbLine
 10
5670.727897273897
 20
1977.999999999999
 30
0.0
 11
5670.727897273897
 21
1963.999999999999
 31
0.0
  0
LINE
  5
1358F
330
747D
100
AcDbEntity
  8
部品1
100
AcDbLine
 10
5681.727897273897
 20
1989.999999999999
 30
0.0
 11
5635.870032897627
 21
1989.999999999999
 31
0.0
  0
LINE
  5
136E0
330
747D
100
AcDbEntity
  8
部品1
 48
50.0
100
AcDbLine
 10
5121.727897273896
 20
958.0
 30
0.0
 11
5681.727897273897
 21
958.0
 31
0.0
  0
LINE
  5
136E2
330
747D
100
AcDbEntity
  8
部品1
 48
50.0
100
AcDbLine
 10
5126.727897273897
 20
906.0
 30
0.0
 11
5679.727897273897
 21
906.0
 31
0.0
  0
LINE
  5
136E3
330
747D
100
AcDbEntity
  8
部品1
 48
50.0
100
AcDbLine
 10
5675.727897273897
 20
800.0
 30
0.0
 11
5675.727897273897
 21
906.0
 31
0.0
  0
LINE
  5
136EC
330
747D
100
AcDbEntity
  8
部品1
 48
50.0
100
AcDbLine
 10
5679.727897273897
 20
906.0
 30
0.0
 11
5679.727897273897
 21
958.0
 31
0.0
  0
LINE
  5
136ED
330
747D
100
AcDbEntity
  8
部品1
 48
50.0
100
AcDbLine
 10
5126.727897273897
 20
906.0
 30
0.0
 11
5126.727897273897
 21
958.0
 31
0.0
  0
LINE
  5
136EE
330
747D
100
AcDbEntity
  8
部品1
 48
50.0
100
AcDbLine
 10
5130.727897273897
 20
900.0
 30
0.0
 11
5130.727897273897
 21
906.0
 31
0.0
  0
LINE
  5
136EF
330
747D
100
AcDbEntity
  8
部品1
 48
50.0
100
AcDbLine
 10
5156.727897273897
 20
958.0
 30
0.0
 11
5156.727897273897
 21
1923.08778689947
 31
0.0
  0
ARC
  5
1394B
330
747D
100
AcDbEntity
  8
部品1
100
AcDbCircle
 10
5157.227897273897
 20
1924.08778689947
 30
0.0
 40
1.0
100
AcDbArc
 50
270.0000000000001
 51
0.0000000000001145
  0
LINE
  5
1394C
330
747D
100
AcDbEntity
  8
部品1
100
AcDbLine
 10
5127.337379294545
 20
1923.08778689947
 30
0.0
 11
5157.227897273897
 21
1923.08778689947
 31
0.0
  0
ARC
  5
1394D
330
747D
100
AcDbEntity
  8
部品1
100
AcDbCircle
 10
5126.955615030238
 20
1917.142150409904
 30
0.0
 40
5.957880262272358
100
AcDbArc
 50
86.32613006386966
 51
151.3357851015309
  0
LINE
  5
13951
330
747D
100
AcDbEntity
  8
部品1
 48
50.0
100
AcDbLine
 10
3698.599999999998
 20
4664.582580843268
 30
0.0
 11
2608.599999999999
 21
4664.582580843268
 31
0.0
  0
DIMENSION
  5
1395E
330
747D
100
AcDbEntity
  8
寸法
 48
50.0
100
AcDbDimension
  2
*D1
 10
2603.599999999999
 20
3662.884076791021
 30
0.0
 11
3153.599999999999
 21
3712.88407679102
 31
0.0
 70
    32
 71
     5
 42
-1.0
  3
INABA_S20G
100
AcDbAlignedDimension
 13
3703.599999999999
 23
4104.582580843267
 33
0.0
 14
2603.599999999999
 24
4104.582580843265
 34
0.0
100
AcDbRotatedDimension
  0
DIMENSION
  5
1396B
330
747D
100
AcDbEntity
  8
寸法
 48
50.0
100
AcDbDimension
  2
*D2
 10
4200.800861439184
 20
4104.582580843267
 30
0.0
 11
4350.800861439184
 21
4384.582580843268
 31
0.0
 12
10099.95365078152
 22
0.0
 32
0.0
 70
    32
 71
     5
 42
-1.0
  3
INABA_S20G
100
AcDbAlignedDimension
 13
3698.599999999998
 23
4664.582580843268
 33
0.0
 14
3703.599999999999
 24
4104.582580843267
 34
0.0
 50
90.0
100
AcDbRotatedDimension
  0
LINE
  5
1396C
330
747D
100
AcDbEntity
  8
部品1
 48
50.0
100
AcDbLine
 10
3698.599999999998
 20
4109.582580843269
 30
0.0
 11
3698.600000000002
 21
4664.582580843268
 31
0.0
  0
LINE
  5
1396D
330
747D
100
AcDbEntity
  8
部品1
 48
50.0
100
AcDbLine
 10
2608.599999999999
 20
4109.582580843269
 30
0.0
 11
2608.599999999999
 21
4664.582580843268
 31
0.0
  0
LINE
  5
1396E
330
747D
100
AcDbEntity
  8
部品1
 48
50.0
100
AcDbLine
 10
3698.599999999998
 20
4109.582580843269
 30
0.0
 11
3679.099999999999
 21
4109.582580843269
 31
0.0
  0
LINE
  5
13973
330
747D
100
AcDbEntity
  8
部品1
 48
50.0
100
AcDbLine
 10
2608.599999999999
 20
4139.582580843269
 30
0.0
 11
2605.599999999999
 21
4139.582580843269
 31
0.0
  0
LINE
  5
13AE2
330
747D
100
AcDbEntity
  8
部品1
100
AcDbLine
 10
3703.599999999999
 20
4108.555801531942
 30
0.0
 11
3703.599999999999
 21
4137.582580843269
 31
0.0
  0
ARC
  5
13AE6
330
747D
100
AcDbEntity
  8
部品1
100
AcDbCircle
 10
3686.599999999998
 20
4164.582580843268
 30
0.0
 40
58.0
100
AcDbArc
 50
264.5460728224942
 51
274.4587817153327
  0
ARC
  5
13AE9
330
747D
100
AcDbEntity
  8
部品1
100
AcDbCircle
 10
3686.599999999998
 20
4164.582580843268
 30
0.0
 40
60.0
100
AcDbArc
 50
253.9866055760513
 51
262.5702583891818
  0
ARC
  5
13AEB
330
747D
100
AcDbEntity
  8
部品1
100
AcDbCircle
 10
3670.599999999999
 20
4108.833141384202
 30
0.0
 40
2.0
100
AcDbArc
 50
179.9999999999971
 51
253.9866055760512
  0
ARC
  5
13AEE
330
747D
100
AcDbEntity
  8
部品1
100
AcDbCircle
 10
3679.099999999999
 20
4107.069538844084
 30
0.0
 40
2.0
100
AcDbArc
 50
262.5702583891838
 51
353.5581656058383
  0
ARC
  5
13AEF
330
747D
100
AcDbEntity
  8
部品1
100
AcDbCircle
 10
3701.599999999999
 20
4108.555801531942
 30
0.0
 40
2.0
100
AcDbArc
 50
284.9882344823052
 51
0.0
  0
ARC
  5
13AF1
330
747D
100
AcDbEntity
  8
部品1
100
AcDbCircle
 10
3686.599999999998
 20
4164.582580843268
 30
0.0
 40
60.0
100
AcDbArc
 50
276.434596148645
 51
284.9882344823051
  0
ARC
  5
13AF4
330
747D
100
AcDbEntity
  8
部品1
100
AcDbCircle
 10
3693.099999999998
 20
4106.947955833645
 30
0.0
 40
2.0
100
AcDbArc
 50
185.4466889319887
 51
276.4345961486433
  0
LINE
  5
13AFC
330
747D
100
AcDbEntity
  8
部品1
100
AcDbLine
 10
3672.599999999999
 20
4151.082580843271
 30
0.0
 11
3672.600000000002
 21
4206.082580843265
 31
0.0
  0
LINE
  5
13B01
330
747D
100
AcDbEntity
  8
部品1
100
AcDbLine
 10
3668.599999999999
 20
4108.833141384202
 30
0.0
 11
3668.599999999999
 21
4115.582580843256
 31
0.0
  0
LINE
  5
13B08
330
747D
100
AcDbEntity
  8
部品1
100
AcDbLine
 10
3677.599999999999
 20
4114.582580843268
 30
0.0
 11
3677.599999999999
 21
4125.582580843269
 31
0.0
  0
ARC
  5
13B0D
330
747D
100
AcDbEntity
  8
部品1
100
AcDbCircle
 10
3675.599999999999
 20
4114.582580843268
 30
0.0
 40
2.0
100
AcDbArc
 50
270.0000000000063
 51
0.0000000000004326
  0
LINE
  5
13B11
330
747D
100
AcDbEntity
  8
部品1
100
AcDbLine
 10
3668.599999999999
 20
4112.582580843267
 30
0.0
 11
3675.599999999999
 21
4112.582580843269
 31
0.0
  0
ARC
  5
13B16
330
747D
100
AcDbEntity
  8
部品1
100
AcDbCircle
 10
3675.599999999999
 20
4125.582580843269
 30
0.0
 40
2.0
100
AcDbArc
 50
0.0
 51
89.99999999999941
  0
LINE
  5
13B19
330
747D
100
AcDbEntity
  8
部品1
100
AcDbLine
 10
3673.799999999999
 20
4127.582580843269
 30
0.0
 11
3675.599999999999
 21
4127.582580843269
 31
0.0
  0
LINE
  5
13B1A
330
747D
100
AcDbEntity
  8
部品1
100
AcDbLine
 10
3668.599999999999
 20
4127.582580843269
 30
0.0
 11
3675.599999999999
 21
4127.582580843269
 31
0.0
  0
ARC
  5
13B30
330
747D
100
AcDbEntity
  8
部品1
100
AcDbCircle
 10
3701.599999999999
 20
4137.582580843269
 30
0.0
 40
2.0
100
AcDbArc
 50
0.0
 51
90.00000000000026
  0
LINE
  5
13B35
330
747D
100
AcDbEntity
  8
部品1
100
AcDbLine
 10
3701.599999999999
 20
4139.582580843269
 30
0.0
 11
3699.599999999999
 21
4139.582580843269
 31
0.0
  0
LINE
  5
13B39
330
747D
100
AcDbEntity
  8
部品1
100
AcDbLine
 10
3701.599999999999
 20
4139.582580843269
 30
0.0
 11
3698.599999999998
 21
4139.582580843269
 31
0.0
  0
LINE
  5
13B3E
330
747D
100
AcDbEntity
  8
部品1
100
AcDbLine
 10
3668.599999999999
 20
4171.582580843269
 30
0.0
 11
3698.599999999998
 21
4171.582580843269
 31
0.0
  0
LINE
  5
13B48
330
747D
100
AcDbEntity
  8
部品1
100
AcDbLine
 10
3671.399999999998
 20
4206.082580843268
 30
0.0
 11
3669.799999999999
 21
4206.082580843268
 31
0.0
  0
LINE
  5
13B49
330
747D
100
AcDbEntity
  8
部品1
100
AcDbLine
 10
3668.600000000002
 20
4206.082580843268
 30
0.0
 11
3668.600000000002
 21
4213.282580843269
 31
0.0
  0
LINE
  5
13B4A
330
747D
100
AcDbEntity
  8
部品1
100
AcDbLine
 10
3668.600000000002
 20
4206.082580843268
 30
0.0
 11
3672.599999999999
 21
4206.082580843268
 31
0.0
  0
ARC
  5
13ED5
330
747D
100
AcDbEntity
  8
部品1
100
AcDbCircle
 10
2614.099999999999
 20
4107.006544161328
 30
0.0
 40
2.0
100
AcDbArc
 50
263.0680938024152
 51
354.056001019071
  0
ARC
  5
13ED6
330
747D
100
AcDbEntity
  8
部品1
100
AcDbCircle
 10
2628.099999999998
 20
4107.006544161328
 30
0.0
 40
2.0
100
AcDbArc
 50
185.9439989809289
 51
276.9319061975831
  0
LINE
  5
13EDE
330
747D
100
AcDbEntity
  8
部品1
100
AcDbLine
 10
2634.599999999999
 20
4171.582580843267
 30
0.0
 11
2634.599999999999
 21
4207.282580843266
 31
0.0
  0
ARC
  5
13EE6
330
747D
100
AcDbEntity
  8
部品1
100
AcDbCircle
 10
2621.099999999998
 20
4164.582580843267
 30
0.0
 40
60.0
100
AcDbArc
 50
276.9319061975849
 51
285.500178566999
  0
ARC
  5
13EEA
330
747D
100
AcDbEntity
  8
部品1
100
AcDbCircle
 10
2631.599999999999
 20
4153.582580843269
 30
0.0
 40
2.0
100
AcDbArc
 50
89.99999999999964
 51
179.9999999999991
  0
ARC
  5
13EEC
330
747D
100
AcDbEntity
  8
部品1
100
AcDbCircle
 10
2631.599999999999
 20
4142.582580843267
 30
0.0
 40
2.0
100
AcDbArc
 50
179.9999999999991
 51
270.0000000000002
  0
LINE
  5
13EF1
330
747D
100
AcDbEntity
  8
部品1
100
AcDbLine
 10
2629.599999999999
 20
4142.582580843269
 30
0.0
 11
2629.599999999999
 21
4153.582580843269
 31
0.0
  0
LINE
  5
13EF5
330
747D
100
AcDbEntity
  8
部品1
100
AcDbLine
 10
2603.599999999999
 20
4108.692062863918
 30
0.0
 11
2603.599999999999
 21
4137.582580843269
 31
0.0
  0
ARC
  5
13EF7
330
747D
100
AcDbEntity
  8
部品1
100
AcDbCircle
 10
2621.099999999998
 20
4164.582580843267
 30
0.0
 40
60.0
100
AcDbArc
 50
254.4998214330011
 51
263.0680938024152
  0
ARC
  5
13EFA
330
747D
100
AcDbEntity
  8
部品1
100
AcDbCircle
 10
2605.599999999999
 20
4108.692062863918
 30
0.0
 40
2.0
100
AcDbArc
 50
180.0
 51
254.4998214330009
  0
ARC
  5
13F08
330
747D
100
AcDbEntity
  8
部品1
100
AcDbCircle
 10
2621.099999999998
 20
4164.582580843267
 30
0.0
 40
58.0
100
AcDbArc
 50
265.0439082357276
 51
274.9560917642725
  0
ARC
  5
13F0E
330
747D
100
AcDbEntity
  8
部品1
100
AcDbCircle
 10
2605.599999999999
 20
4137.582580843269
 30
0.0
 40
2.0
100
AcDbArc
 50
89.99999999999976
 51
180.0
  0
LINE
  5
13F1C
330
747D
100
AcDbEntity
  8
部品1
100
AcDbLine
 10
2638.599999999995
 20
4171.582580843267
 30
0.0
 11
2638.599999999995
 21
4152.582580843269
 31
0.0
  0
ARC
  5
13F1E
330
747D
100
AcDbEntity
  8
部品1
100
AcDbCircle
 10
2636.599999999999
 20
4108.692062863918
 30
0.0
 40
2.0
100
AcDbArc
 50
285.500178566999
 51
0.0000000000061067
  0
LINE
  5
13F25
330
747D
100
AcDbEntity
  8
部品1
100
AcDbLine
 10
2631.599999999999
 20
4140.582580843267
 30
0.0
 11
2638.599999999998
 21
4140.582580843269
 31
0.0
  0
LINE
  5
13F35
330
747D
100
AcDbEntity
  8
部品1
100
AcDbLine
 10
2638.599999999998
 20
4155.582580843267
 30
0.0
 11
2631.599999999999
 21
4155.582580843269
 31
0.0
  0
LINE
  5
141AC
330
747D
100
AcDbEntity
  8
部品1
 48
50.0
100
AcDbLine
 10
3684.599999999999
 20
4664.582580843268
 30
0.0
 11
3684.599999999999
 21
4647.582580843269
 31
0.0
  0
LINE
  5
141AD
330
747D
100
AcDbEntity
  8
部品1
 48
50.0
100
AcDbLine
 10
3684.599999999999
 20
4647.582580843269
 30
0.0
 11
3672.599999999999
 21
4647.582580843269
 31
0.0
  0
LINE
  5
141AE
330
747D
100
AcDbEntity
  8
部品1
 48
50.0
100
AcDbLine
 10
3677.099999999999
 20
4647.582580843269
 30
0.0
 11
3677.099999999999
 21
4630.582580843269
 31
0.0
  0
LINE
  5
141AF
330
747D
100
AcDbEntity
  8
部品1
 48
50.0
100
AcDbLine
 10
3677.099999999999
 20
4630.582580843269
 30
0.0
 11
3668.600000000002
 21
4630.582580843269
 31
0.0
  0
LINE
  5
141B0
330
747D
100
AcDbEntity
  8
細線
 48
50.0
100
AcDbLine
 10
3672.599999999999
 20
4609.582580843269
 30
0.0
 11
3672.599999999999
 21
4206.082580843265
 31
0.0
  0
LINE
  5
141B1
330
747D
100
AcDbEntity
  8
部品1
 48
50.0
100
AcDbLine
 10
3672.599999999999
 20
4635.582580843268
 30
0.0
 11
2634.599999999999
 21
4635.582580843268
 31
0.0
  0
LINE
  5
141B2
330
747D
100
AcDbEntity
  8
細線
 48
50.0
100
AcDbLine
 10
3672.599999999999
 20
4638.582580843269
 30
0.0
 11
3165.599999999999
 21
4638.582580843269
 31
0.0
  0
LINE
  5
141B3
330
747D
100
AcDbEntity
  8
部品1
 48
50.0
100
AcDbLine
 10
3669.599999999999
 20
4609.582580843269
 30
0.0
 11
3669.600000000002
 21
4206.082580843268
 31
0.0
  0
LINE
  5
141CD
330
747D
100
AcDbEntity
  8
部品1
100
AcDbLine
 10
3672.600000000002
 20
4630.582580843269
 30
0.0
 11
3672.600000000002
 21
4609.582580843269
 31
0.0
  0
LINE
  5
141D0
330
747D
100
AcDbEntity
  8
部品1
100
AcDbLine
 10
3668.600000000002
 20
4609.582580843269
 30
0.0
 11
3668.600000000002
 21
4602.582580843269
 31
0.0
  0
LINE
  5
141D3
330
747D
100
AcDbEntity
  8
部品1
100
AcDbLine
 10
3672.600000000002
 20
4609.582580843269
 30
0.0
 11
3668.600000000002
 21
4609.582580843269
 31
0.0
  0
LINE
  5
141E2
330
747D
100
AcDbEntity
  8
部品1
 48
50.0
100
AcDbLine
 10
3668.600000000002
 20
4630.582580843269
 30
0.0
 11
3668.600000000002
 21
4635.582580843268
 31
0.0
  0
LINE
  5
141E4
330
747D
100
AcDbEntity
  8
部品1
 48
50.0
100
AcDbLine
 10
3698.599999999998
 20
4594.582580843269
 30
0.0
 11
3672.600000000002
 21
4594.582580843269
 31
0.0
  0
LINE
  5
141E6
330
747D
100
AcDbEntity
  8
部品1
 48
50.0
100
AcDbLine
 10
3679.099999999999
 20
4109.582580843269
 30
0.0
 11
3679.100000000003
 21
4153.582580843269
 31
0.0
  0
LINE
  5
141E7
330
747D
100
AcDbEntity
  8
部品1
 48
50.0
100
AcDbLine
 10
3698.599999999998
 20
4153.582580843269
 30
0.0
 11
3679.100000000003
 21
4153.582580843269
 31
0.0
  0
LINE
  5
141E9
330
747D
100
AcDbEntity
  8
部品1
 48
50.0
100
AcDbLine
 10
3698.599999999998
 20
4219.582580843269
 30
0.0
 11
3672.600000000002
 21
4219.582580843269
 31
0.0
  0
LINE
  5
141EC
330
747D
100
AcDbEntity
  8
部品1
 48
50.0
100
AcDbLine
 10
3679.099999999999
 20
4144.582580843269
 30
0.0
 11
3672.599999999999
 21
4151.082580843271
 31
0.0
  0
LINE
  5
141ED
330
747D
100
AcDbEntity
  8
部品1
 48
50.0
100
AcDbLine
 10
2622.599999999998
 20
4664.582580843268
 30
0.0
 11
2622.599999999998
 21
4647.582580843269
 31
0.0
  0
LINE
  5
141EE
330
747D
100
AcDbEntity
  8
部品1
 48
50.0
100
AcDbLine
 10
2608.599999999999
 20
4594.582580843269
 30
0.0
 11
2634.599999999999
 21
4594.582580843269
 31
0.0
  0
LINE
  5
141EF
330
747D
100
AcDbEntity
  8
部品1
 48
50.0
100
AcDbLine
 10
2630.099999999999
 20
4630.582580843269
 30
0.0
 11
2638.599999999998
 21
4630.582580843269
 31
0.0
  0
LINE
  5
141F0
330
747D
100
AcDbEntity
  8
部品1
 48
50.0
100
AcDbLine
 10
2638.599999999998
 20
4630.582580843269
 30
0.0
 11
2638.599999999998
 21
4635.582580843268
 31
0.0
  0
LINE
  5
141F1
330
747D
100
AcDbEntity
  8
部品1
100
AcDbLine
 10
2638.599999999998
 20
4609.582580843269
 30
0.0
 11
2638.599999999998
 21
4602.582580843269
 31
0.0
  0
LINE
  5
141F2
330
747D
100
AcDbEntity
  8
部品1
100
AcDbLine
 10
2634.599999999999
 20
4609.582580843269
 30
0.0
 11
2638.599999999998
 21
4609.582580843269
 31
0.0
  0
LINE
  5
141F5
330
747D
100
AcDbEntity
  8
部品1
100
AcDbLine
 10
2634.599999999999
 20
4630.582580843269
 30
0.0
 11
2634.599999999999
 21
4609.582580843269
 31
0.0
  0
LINE
  5
141F6
330
747D
100
AcDbEntity
  8
部品1
 48
50.0
100
AcDbLine
 10
2630.099999999999
 20
4647.582580843269
 30
0.0
 11
2630.099999999999
 21
4630.582580843269
 31
0.0
  0
LINE
  5
141F7
330
747D
100
AcDbEntity
  8
部品1
 48
50.0
100
AcDbLine
 10
2622.599999999998
 20
4647.582580843269
 30
0.0
 11
2634.599999999999
 21
4647.582580843269
 31
0.0
  0
LINE
  5
141F8
330
747D
100
AcDbEntity
  8
細線
 48
50.0
100
AcDbLine
 10
2634.599999999999
 20
4609.582580843269
 30
0.0
 11
2634.599999999999
 21
4206.082580843265
 31
0.0
  0
LINE
  5
141F9
330
747D
100
AcDbEntity
  8
部品1
 48
50.0
100
AcDbLine
 10
2637.599999999999
 20
4609.582580843269
 30
0.0
 11
2637.599999999999
 21
4206.082580843268
 31
0.0
  0
LINE
  5
141FA
330
747D
100
AcDbEntity
  8
部品1
 48
50.0
100
AcDbLine
 10
2608.599999999999
 20
4219.582580843269
 30
0.0
 11
2634.599999999999
 21
4219.582580843269
 31
0.0
  0
LINE
  5
141FB
330
747D
100
AcDbEntity
  8
部品1
100
AcDbLine
 10
2638.599999999998
 20
4171.582580843269
 30
0.0
 11
2608.599999999999
 21
4171.582580843269
 31
0.0
  0
LINE
  5
141FD
330
747D
100
AcDbEntity
  8
部品1
 48
50.0
100
AcDbLine
 10
2628.099999999998
 20
4144.582580843269
 30
0.0
 11
2629.599999999999
 21
4146.082580843269
 31
0.0
  0
LINE
  5
141FE
330
747D
100
AcDbEntity
  8
部品1
 48
50.0
100
AcDbLine
 10
2608.599999999999
 20
4153.582580843269
 30
0.0
 11
2628.099999999998
 21
4153.582580843269
 31
0.0
  0
LINE
  5
141FF
330
747D
100
AcDbEntity
  8
部品1
 48
50.0
100
AcDbLine
 10
2628.099999999998
 20
4109.582580843269
 30
0.0
 11
2628.099999999998
 21
4153.582580843269
 31
0.0
  0
LINE
  5
14204
330
747D
100
AcDbEntity
  8
部品1
100
AcDbLine
 10
2638.599999999995
 20
4206.082580843268
 30
0.0
 11
2634.599999999999
 21
4206.082580843268
 31
0.0
  0
LINE
  5
14205
330
747D
100
AcDbEntity
  8
部品1
100
AcDbLine
 10
2638.599999999998
 20
4206.082580843268
 30
0.0
 11
2638.599999999995
 21
4213.282580843269
 31
0.0
  0
LINE
  5
14206
330
747D
100
AcDbEntity
  8
部品1
100
AcDbLine
 10
2635.8
 20
4206.082580843268
 30
0.0
 11
2637.399999999998
 21
4206.082580843268
 31
0.0
  0
LINE
  5
14207
330
747D
100
AcDbEntity
  8
部品1
100
AcDbLine
 10
2634.599999999999
 20
4155.582580843269
 30
0.0
 11
2634.599999999999
 21
4206.082580843265
 31
0.0
  0
LINE
  5
14209
330
747D
100
AcDbEntity
  8
部品1
 48
50.0
100
AcDbLine
 10
3668.599999999999
 20
4127.082580843269
 30
0.0
 11
3668.099999999999
 21
4127.082580843269
 31
0.0
  0
LINE
  5
1420A
330
747D
100
AcDbEntity
  8
部品1
 48
50.0
100
AcDbLine
 10
3660.599999999999
 20
4155.082580843269
 30
0.0
 11
3171.099999999995
 21
4155.082580843267
 31
0.0
  0
LINE
  5
1420B
330
747D
100
AcDbEntity
  8
部品1
 48
50.0
100
AcDbLine
 10
3698.599999999998
 20
4171.582580843269
 30
0.0
 11
3672.599999999999
 21
4171.582580843269
 31
0.0
  0
LINE
  5
1420C
330
747D
100
AcDbEntity
  8
部品1
 48
50.0
100
AcDbLine
 10
3668.600000000002
 20
4171.582580843269
 30
0.0
 11
2638.599999999998
 21
4171.582580843267
 31
0.0
  0
LINE
  5
1420D
330
747D
100
AcDbEntity
  8
部品1
 48
50.0
100
AcDbLine
 10
2634.599999999999
 20
4171.582580843267
 30
0.0
 11
2608.599999999999
 21
4171.582580843269
 31
0.0
  0
LINE
  5
14220
330
747D
100
AcDbEntity
  8
部品1
 48
50.0
100
AcDbLine
 10
3131.099999999999
 20
4115.582580843256
 30
0.0
 11
3131.099999999999
 21
4137.582580843257
 31
0.0
  0
LINE
  5
14221
330
747D
100
AcDbEntity
  8
部品1
 48
50.0
100
AcDbLine
 10
3131.099999999999
 20
4137.582580843257
 30
0.0
 11
3668.099999999999
 21
4137.582580843257
 31
0.0
  0
LINE
  5
14222
330
747D
100
AcDbEntity
  8
部品1
 48
50.0
100
AcDbLine
 10
3668.099999999999
 20
4137.582580843257
 30
0.0
 11
3668.099999999999
 21
4124.582580843256
 31
0.0
  0
LINE
  5
14223
330
747D
100
AcDbEntity
  8
部品1
 48
50.0
100
AcDbLine
 10
3668.099999999999
 20
4124.582580843256
 30
0.0
 11
3675.099999999999
 21
4124.582580843256
 31
0.0
  0
LINE
  5
14224
330
747D
100
AcDbEntity
  8
部品1
 48
50.0
100
AcDbLine
 10
3675.099999999999
 20
4124.582580843256
 30
0.0
 11
3675.099999999999
 21
4115.582580843256
 31
0.0
  0
LINE
  5
14225
330
747D
100
AcDbEntity
  8
部品1
 48
50.0
100
AcDbLine
 10
3675.099999999999
 20
4115.582580843256
 30
0.0
 11
3131.099999999999
 21
4115.582580843256
 31
0.0
  0
LINE
  5
14226
330
747D
100
AcDbEntity
  8
部品1
 48
50.0
100
AcDbLine
 10
3171.099999999995
 20
4139.582580843269
 30
0.0
 11
3171.099999999995
 21
4165.58258084327
 31
0.0
  0
LINE
  5
14227
330
747D
100
AcDbEntity
  8
部品1
 48
50.0
100
AcDbLine
 10
3171.099999999995
 20
4165.58258084327
 30
0.0
 11
2639.099999999995
 21
4165.58258084327
 31
0.0
  0
LINE
  5
14228
330
747D
100
AcDbEntity
  8
部品1
 48
50.0
100
AcDbLine
 10
2639.099999999995
 20
4165.58258084327
 30
0.0
 11
2639.099999999995
 21
4152.582580843269
 31
0.0
  0
LINE
  5
14229
330
747D
100
AcDbEntity
  8
部品1
 48
50.0
100
AcDbLine
 10
2639.099999999995
 20
4152.582580843269
 30
0.0
 11
2632.099999999995
 21
4152.582580843269
 31
0.0
  0
LINE
  5
1422A
330
747D
100
AcDbEntity
  8
部品1
 48
50.0
100
AcDbLine
 10
2632.099999999995
 20
4152.582580843269
 30
0.0
 11
2632.099999999995
 21
4143.582580843268
 31
0.0
  0
LINE
  5
1422C
330
747D
100
AcDbEntity
  8
部品1
 48
50.0
100
AcDbLine
 10
3171.099999999995
 20
4139.582580843269
 30
0.0
 11
3151.099999999995
 21
4139.582580843269
 31
0.0
  0
LINE
  5
1422D
330
747D
100
AcDbEntity
  8
部品1
 48
50.0
100
AcDbLine
 10
3151.099999999995
 20
4139.582580843269
 30
0.0
 11
3151.099999999995
 21
4143.582580843268
 31
0.0
  0
LINE
  5
1422E
330
747D
100
AcDbEntity
  8
部品1
 48
50.0
100
AcDbLine
 10
3151.099999999995
 20
4143.582580843268
 30
0.0
 11
2632.099999999995
 21
4143.582580843268
 31
0.0
  0
LINE
  5
14231
330
747D
100
AcDbEntity
  8
部品1
 48
50.0
100
AcDbLine
 10
2639.099999999995
 20
4155.082580843267
 30
0.0
 11
2638.599999999998
 21
4155.082580843267
 31
0.0
  0
LINE
  5
14232
330
747D
100
AcDbEntity
  8
部品1
100
AcDbLine
 10
2638.599999999995
 20
4143.582580843268
 30
0.0
 11
2638.599999999998
 21
4108.692062863918
 31
0.0
  0
LINE
  5
14233
330
747D
100
AcDbEntity
  8
部品1
 48
50.0
100
AcDbLine
 10
3131.099999999999
 20
4127.082580843269
 30
0.0
 11
2646.599999999995
 21
4127.082580843267
 31
0.0
  0
LINE
  5
14234
330
747D
100
AcDbEntity
  8
部品1
100
AcDbLine
 10
3668.599999999999
 20
4124.582580843256
 30
0.0
 11
3668.600000000002
 21
4171.582580843269
 31
0.0
  0
LINE
  5
14252
330
747D
100
AcDbEntity
  8
部品1
 48
50.0
100
AcDbLine
 10
3153.599999999999
 20
4664.582580843268
 30
0.0
 11
3153.599999999999
 21
4647.582580843269
 31
0.0
  0
LINE
  5
14253
330
747D
100
AcDbEntity
  8
部品1
 48
50.0
100
AcDbLine
 10
3141.599999999999
 20
4647.582580843269
 30
0.0
 11
3141.599999999999
 21
4635.582580843268
 31
0.0
  0
LINE
  5
14254
330
747D
100
AcDbEntity
  8
部品1
 48
50.0
100
AcDbLine
 10
3165.599999999999
 20
4647.582580843269
 30
0.0
 11
3165.599999999999
 21
4635.582580843268
 31
0.0
  0
LINE
  5
14255
330
747D
100
AcDbEntity
  8
部品1
 48
50.0
100
AcDbLine
 10
3165.599999999999
 20
4647.582580843269
 30
0.0
 11
3141.599999999999
 21
4647.582580843269
 31
0.0
  0
LINE
  5
14256
330
747D
100
AcDbEntity
  8
細線
 48
50.0
100
AcDbLine
 10
3141.599999999999
 20
4638.582580843269
 30
0.0
 11
2634.599999999999
 21
4638.582580843269
 31
0.0
  0
LINE
  5
142FA
330
747D
100
AcDbEntity
  8
部品1
100
AcDbLine
 10
3667.100000000002
 20
4633.582580843267
 30
0.0
 11
3667.099999999999
 21
4183.582580843269
 31
0.0
  0
LINE
  5
14301
330
747D
100
AcDbEntity
  8
細線
 48
50.0
100
AcDbLine
 10
3667.099999999999
 20
4633.58258084327
 30
0.0
 11
2640.099999999995
 21
4183.582580843269
 31
0.0
  0
LINE
  5
14302
330
747D
100
AcDbEntity
  8
細線
 48
50.0
100
AcDbLine
 10
3667.099999999999
 20
4183.582580843269
 30
0.0
 11
2640.099999999995
 21
4633.582580843267
 31
0.0
  0
LINE
  5
14304
330
747D
100
AcDbEntity
  8
部品1
 48
50.0
100
AcDbLine
 10
3667.099999999999
 20
4183.582580843269
 30
0.0
 11
2640.099999999995
 21
4183.582580843269
 31
0.0
  0
LINE
  5
14305
330
747D
100
AcDbEntity
  8
部品1
 48
50.0
100
AcDbLine
 10
3667.099999999999
 20
4633.58258084327
 30
0.0
 11
2640.099999999995
 21
4633.58258084327
 31
0.0
  0
LINE
  5
14306
330
747D
100
AcDbEntity
  8
部品1
100
AcDbLine
 10
2640.099999999995
 20
4633.582580843267
 30
0.0
 11
2640.099999999999
 21
4183.582580843269
 31
0.0
  0
LINE
  5
1432A
330
747D
100
AcDbEntity
  8
部品1
 48
50.0
100
AcDbLine
 10
2905.599999999999
 20
4664.582580843268
 30
0.0
 11
2900.599999999999
 21
4638.582580843269
 31
0.0
  0
LINE
  5
1432B
330
747D
100
AcDbEntity
  8
部品1
 48
50.0
100
AcDbLine
 10
2870.599999999999
 20
4664.582580843268
 30
0.0
 11
2875.599999999998
 21
4638.582580843269
 31
0.0
  0
LINE
  5
14346
330
747D
100
AcDbEntity
  8
部品1
 48
50.0
100
AcDbLine
 10
2634.599999999999
 20
4647.582580843269
 30
0.0
 11
2634.599999999999
 21
4635.582580843268
 31
0.0
  0
LINE
  5
14352
330
747D
100
AcDbEntity
  8
部品1
 48
50.0
100
AcDbLine
 10
3672.599999999999
 20
4647.582580843269
 30
0.0
 11
3672.599999999999
 21
4635.582580843268
 31
0.0
  0
LINE
  5
14353
330
747D
100
AcDbEntity
  8
部品1
 48
50.0
100
AcDbLine
 10
3436.599999999998
 20
4664.582580843268
 30
0.0
 11
3431.599999999999
 21
4638.582580843269
 31
0.0
  0
LINE
  5
14354
330
747D
100
AcDbEntity
  8
部品1
 48
50.0
100
AcDbLine
 10
3401.599999999998
 20
4664.582580843268
 30
0.0
 11
3406.599999999999
 21
4638.582580843269
 31
0.0
  0
LINE
  5
14358
330
747D
100
AcDbEntity
  8
部品1
 48
50.0
100
AcDbLine
 10
2628.099999999998
 20
4109.582580843269
 30
0.0
 11
2608.599999999999
 21
4109.582580843269
 31
0.0
  0
LINE
  5
14359
330
747D
100
AcDbEntity
  8
部品1
 48
50.0
100
AcDbLine
 10
3668.599999999999
 20
4109.582580843269
 30
0.0
 11
2638.599999999998
 21
4109.582580843269
 31
0.0
  0
DIMENSION
  5
144DF
330
747D
100
AcDbEntity
  8
寸法
 48
50.0
100
AcDbDimension
  2
*D3
 10
2603.599999999999
 20
2175.024113945668
 30
0.0
 11
2450.556033268306
 21
2175.024113945668
 31
0.0
 12
181.174555978203
 22
-28.01800449040639
 32
0.0
 70
   160
 71
     5
 42
-1.0
  3
INABA_S20G
100
AcDbAlignedDimension
 13
2598.599999999999
 23
1976.999999999999
 33
0.0
 14
2603.599999999999
 24
1990.0
 34
0.0
100
AcDbRotatedDimension
  0
DIMENSION
  5
144F8
330
747D
100
AcDbEntity
  8
寸法
 48
50.0
100
AcDbDimension
  2
*D4
 10
3703.599999999999
 20
2175.024113945668
 30
0.0
 11
3153.599999999999
 21
2225.024113945668
 31
0.0
 70
    32
 71
     5
 42
-1.0
  3
INABA_S20G
100
AcDbAlignedDimension
 13
2603.599999999999
 23
1990.0
 33
0.0
 14
3703.599999999999
 24
1989.999999999999
 34
0.0
100
AcDbRotatedDimension
1001
ACAD
1000
DSTYLE
1002
{
1002
}
  0
DIMENSION
  5
14506
330
747D
100
AcDbEntity
  8
寸法
 48
50.0
100
AcDbDimension
  2
*D5
 10
3708.600000000002
 20
2175.024113945668
 30
0.0
 11
3841.842640687119
 21
2175.024113945668
 31
0.0
 12
-218.825444021797
 22
-28.01800449040639
 32
0.0
 70
   160
 71
     5
 42
-1.0
  3
INABA_S20G
100
AcDbAlignedDimension
 13
3703.599999999999
 23
1989.999999999999
 33
0.0
 14
3708.600000000002
 24
1976.999999999999
 34
0.0
100
AcDbRotatedDimension
1001
ACAD
1000
DSTYLE
1002
{
1002
}
  0
DIMENSION
  5
14540
330
747D
100
AcDbEntity
  8
寸法
 48
50.0
100
AcDbDimension
  2
*D6
 10
3708.600000000002
 20
2303.220335370565
 30
0.0
 11
3153.600000000001
 21
2353.220335370565
 31
0.0
 70
    32
 71
     5
 42
-1.0
  3
INABA_S20G
100
AcDbAlignedDimension
 13
2598.599999999999
 23
1976.999999999999
 33
0.0
 14
3708.600000000002
 24
1976.999999999999
 34
0.0
100
AcDbRotatedDimension
  0
DIMENSION
  5
1454F
330
747D
100
AcDbEntity
  8
寸法
 48
50.0
100
AcDbDimension
  2
*D7
 10
5121.727897273896
 20
2175.024113945668
 30
0.0
 11
4925.704275226653
 21
2175.024113945668
 31
0.0
 12
351.2907967251995
 22
-28.01800449040639
 32
0.0
 70
   160
 71
     5
 42
-1.0
  3
INABA_S20G
100
AcDbAlignedDimension
 13
5081.727897273896
 23
1960.804501844112
 33
0.0
 14
5121.727897273896
 24
1976.248577384225
 34
0.0
100
AcDbRotatedDimension
  0
DIMENSION
  5
1455B
330
747D
100
AcDbEntity
  8
寸法
 48
50.0
100
AcDbDimension
  2
*D8
 10
5681.727897273897
 20
2175.024113945668
 30
0.0
 11
5031.611656526901
 21
2225.024113945668
 31
0.0
 12
351.2907967251995
 22
-28.01800449040639
 32
0.0
 70
    32
 71
     5
 42
-1.0
  3
INABA_S20G
100
AcDbAlignedDimension
 13
5121.727897273896
 23
1976.248577384225
 33
0.0
 14
5681.727897273897
 24
1989.999999999999
 34
0.0
100
AcDbRotatedDimension
1001
ACAD
1000
DSTYLE
1002
{
1002
}
  0
DIMENSION
  5
14569
330
747D
100
AcDbEntity
  8
寸法
 48
50.0
100
AcDbDimension
  2
*D9
 10
5691.727897273897
 20
2175.024113945668
 30
0.0
 11
5838.751519321141
 21
2175.024113945668
 31
0.0
 12
351.2907967251995
 22
-28.01800449040639
 32
0.0
 70
   160
 71
     5
 42
-1.0
  3
INABA_S20G
100
AcDbAlignedDimension
 13
5681.727897273897
 23
1989.999999999999
 33
0.0
 14
5691.727897273897
 24
1979.999999999999
 34
0.0
100
AcDbRotatedDimension
1001
ACAD
1000
DSTYLE
1002
{
1002
}
  0
DIMENSION
  5
14597
330
747D
100
AcDbEntity
  8
寸法
 48
50.0
100
AcDbDimension
  2
*D10
 10
5691.727897273897
 20
2303.220335370565
 30
0.0
 11
5016.611656526901
 21
2353.220335370565
 31
0.0
 12
351.2907967251995
 22
-28.01800449040639
 32
0.0
 70
    32
 71
     5
 42
-1.0
  3
INABA_S20G
100
AcDbAlignedDimension
 13
5081.727897273896
 23
1960.804501844112
 33
0.0
 14
5691.727897273897
 24
1979.999999999999
 34
0.0
100
AcDbRotatedDimension
  0
DIMENSION
  5
14631
330
747D
100
AcDbEntity
  8
寸法
 48
50.0
100
AcDbDimension
  2
*D11
 10
4814.913405077078
 20
906.0
 30
0.0
 11
4764.913405077077
 21
869.3533140299987
 31
0.0
 12
7219.621266834223
 22
0.0
 32
0.0
 70
   160
  1
3
 71
     5
 42
-1.0
  3
INABA_S20G
100
AcDbAlignedDimension
 13
5130.727897273897
 23
900.0
 33
0.0
 14
5126.727897273897
 24
906.0
 34
0.0
 50
90.0
100
AcDbRotatedDimension
1001
ACAD
1000
DSTYLE
1002
{
1070
   279
1070
     2
1002
}
  0
DIMENSION
  5
1463D
330
747D
100
AcDbEntity
  8
寸法
 48
50.0
100
AcDbDimension
  2
*D12
 10
4814.913405077078
 20
1979.999999999999
 30
0.0
 11
4764.913405077077
 21
1442.999999999999
 31
0.0
 12
7219.621266834223
 22
0.0
 32
0.0
 70
    32
  1
1077
 71
     5
 42
-1.0
  3
INABA_S20G
100
AcDbAlignedDimension
 13
5126.727897273897
 23
906.0
 33
0.0
 14
5143.178249479497
 24
1979.999999999999
 34
0.0
 50
90.0
100
AcDbRotatedDimension
1001
ACAD
1000
DSTYLE
1002
{
1070
    75
1070
     1
1070
   279
1070
     1
1002
}
  0
DIMENSION
  5
146D8
330
747D
100
AcDbEntity
  8
寸法
 48
50.0
100
AcDbDimension
  2
*D13
 10
6345.461521211506
 20
1989.999999999999
 30
0.0
 11
6295.461521211506
 21
1444.999999999999
 31
0.0
 12
7219.621266834223
 22
0.0
 32
0.0
 70
    32
 71
     5
 42
-1.0
  3
INABA_S20G
100
AcDbAlignedDimension
 13
5675.727897273897
 23
900.0
 33
0.0
 14
5681.727897273897
 24
1989.999999999999
 34
0.0
 50
90.0
100
AcDbRotatedDimension
  0
DIMENSION
  5
1470A
330
747D
100
AcDbEntity
  8
寸法
 48
50.0
100
AcDbDimension
  2
*D14
 10
3608.589113722079
 20
4851.948181228362
 30
0.0
 11
3095.089113722076
 21
4901.954086740172
 31
0.0
 70
    32
 71
     5
 42
-1.0
  3
INABA_S20G
100
AcDbAlignedDimension
 13
2640.099999999995
 23
4633.58258084327
 33
0.0
 14
3667.100000000002
 24
4633.582580843267
 34
0.0
100
AcDbRotatedDimension
  0
DIMENSION
  5
1472F
330
747D
100
AcDbEntity
  8
寸法
 48
50.0
100
AcDbDimension
  2
*D15
 10
2382.837149601688
 20
4252.515953850024
 30
0.0
 11
2132.837149601688
 21
4389.696533016964
 31
0.0
 12
181.174555978203
 22
307.6375164671317
 32
0.0
 70
    32
 71
     5
 42
-1.0
  3
INABA_S20G
100
AcDbAlignedDimension
 13
2640.099999999995
 23
4633.582580843267
 33
0.0
 14
2640.099999999999
 24
4183.582580843269
 34
0.0
 50
90.0
100
AcDbRotatedDimension
  0
DIMENSION
  5
14747
330
747D
100
AcDbEntity
  8
寸法
 48
50.0
100
AcDbDimension
  2
*D16
 10
3668.600000000002
 20
5056.414712708183
 30
0.0
 11
3153.600000000001
 21
5106.414712708183
 31
0.0
 70
    32
  1
内部寸法 <>
 71
     5
 42
-1.0
  3
INABA_S20G
100
AcDbAlignedDimension
 13
2638.599999999998
 23
4664.582580843268
 33
0.0
 14
3668.600000000002
 24
4664.582580843176
 34
0.0
100
AcDbRotatedDimension
  0
DIMENSION
  5
1475F
330
747D
100
AcDbEntity
  8
寸法
 48
50.0
100
AcDbDimension
  2
*D17
 10
4054.624603998785
 20
4171.582580843269
 30
0.0
 11
4154.624603998786
 21
4315.763160010209
 31
0.0
 12
-218.825444021797
 22
307.6375164671317
 32
0.0
 70
    32
  1
内部寸法\P<>
 71
     5
 42
-1.0
  3
INABA_S20G
100
AcDbAlignedDimension
 13
3698.600000000002
 23
4635.582580843268
 33
0.0
 14
3698.599999999998
 24
4171.582580843269
 34
0.0
 50
90.0
100
AcDbRotatedDimension
  0
LINE
  5
147AF
330
747D
100
AcDbEntity
  8
点線
 48
8.0
100
AcDbLine
 10
5188.727897273897
 20
987.0
 30
0.0
 11
5652.727897273897
 21
987.0
 31
0.0
  0
LINE
  5
147B0
330
747D
100
AcDbEntity
  8
点線
 48
3.0
100
AcDbLine
 10
5652.727897273897
 20
958.0
 30
0.0
 11
5652.727897273897
 21
987.0
 31
0.0
  0
LINE
  5
147B1
330
747D
100
AcDbEntity
  8
点線
 48
3.0
100
AcDbLine
 10
5188.727897273897
 20
958.0
 30
0.0
 11
5188.727897273897
 21
987.0
 31
0.0
  0
LINE
  5
147B2
330
747D
100
AcDbEntity
  8
点線
 48
2.0
100
AcDbLine
 10
5131.727897273897
 20
968.0
 30
0.0
 11
5188.727897273897
 21
968.0
 31
0.0
  0
LINE
  5
147B4
330
747D
100
AcDbEntity
  8
点線
 48
3.0
100
AcDbLine
 10
5126.727897273897
 20
958.0
 30
0.0
 11
5126.727897273897
 21
965.0
 31
0.0
  0
LINE
  5
147B6
330
747D
100
AcDbEntity
  8
点線
 48
3.0
100
AcDbLine
 10
5144.227897273896
 20
968.0
 30
0.0
 11
5144.227897273896
 21
978.5
 31
0.0
  0
LINE
  5
147B7
330
747D
100
AcDbEntity
  8
点線
 48
3.0
100
AcDbLine
 10
5172.227897273897
 20
968.0
 30
0.0
 11
5172.227897273897
 21
978.5
 31
0.0
  0
DIMENSION
  5
147F3
330
747D
100
AcDbEntity
  8
寸法
 48
50.0
100
AcDbDimension
  2
*D18
 10
4969.203177958789
 20
1924.999999999999
 30
0.0
 11
4969.203177958789
 21
1456.0
 31
0.0
 12
351.2907967251995
 22
-28.01800449040639
 32
0.0
 70
   160
  1
有効開口部高サ <>
 71
     5
 42
-1.0
  3
INABA_S20G
100
AcDbAlignedDimension
 13
5188.727897273897
 23
987.0
 33
0.0
 14
5109.65682946203
 24
1924.999999999999
 34
0.0
 50
90.0
100
AcDbRotatedDimension
  0
LINE
  5
1485A
330
747D
100
AcDbEntity
  8
想像線
 48
8.0
100
AcDbLine
 10
5650.727897273896
 20
1154.0
 30
0.0
 11
5650.727897273896
 21
1184.0
 31
0.0
  0
LINE
  5
1485B
330
747D
100
AcDbEntity
  8
想像線
 48
8.0
100
AcDbLine
 10
5200.727897273896
 20
1154.0
 30
0.0
 11
5200.727897273896
 21
1184.0
 31
0.0
  0
LINE
  5
1485C
330
747D
100
AcDbEntity
  8
想像線
 48
5.0
100
AcDbLine
 10
5200.727897273896
 20
1184.0
 30
0.0
 11
5650.727897273896
 21
1184.0
 31
0.0
  0
LINE
  5
1485D
330
747D
100
AcDbEntity
  8
想像線
 48
5.0
100
AcDbLine
 10
5200.727897273896
 20
1154.0
 30
0.0
 11
5650.727897273896
 21
1154.0
 31
0.0
  0
LINE
  5
1485E
330
747D
100
AcDbEntity
  8
想像線
 48
5.0
100
AcDbLine
 10
5200.727897273896
 20
1769.0
 30
0.0
 11
5650.727897273896
 21
1769.0
 31
0.0
  0
LINE
  5
1485F
330
747D
100
AcDbEntity
  8
想像線
 48
5.0
100
AcDbLine
 10
5200.727897273896
 20
1739.0
 30
0.0
 11
5650.727897273896
 21
1739.0
 31
0.0
  0
LINE
  5
14860
330
747D
100
AcDbEntity
  8
想像線
 48
8.0
100
AcDbLine
 10
5200.727897273896
 20
1739.0
 30
0.0
 11
5200.727897273896
 21
1769.0
 31
0.0
  0
LINE
  5
14861
330
747D
100
AcDbEntity
  8
想像線
 48
8.0
100
AcDbLine
 10
5650.727897273896
 20
1739.0
 30
0.0
 11
5650.727897273896
 21
1769.0
 31
0.0
  0
DIMENSION
  5
14879
330
747D
100
AcDbEntity
  8
寸法
 48
50.0
100
AcDbDimension
  2
*D19
 10
6006.558355644167
 20
1184.0
 30
0.0
 11
5586.44211489717
 21
1085.5
 31
0.0
 12
351.2907967251995
 22
-28.01800449040639
 32
0.0
 70
    32
 71
     5
 42
-1.0
  3
INABA_S20G
100
AcDbAlignedDimension
 13
5652.727897273897
 23
987.0
 33
0.0
 14
5650.727897273896
 24
1184.0
 34
0.0
 50
90.0
100
AcDbRotatedDimension
  0
DIMENSION
  5
14885
330
747D
100
AcDbEntity
  8
寸法
 48
50.0
100
AcDbDimension
  2
*D20
 10
6006.558355644167
 20
1769.0
 30
0.0
 11
5586.44211489717
 21
1476.5
 31
0.0
 12
351.2907967251995
 22
-28.01800449040639
 32
0.0
 70
    32
  1
65x9=<>
 71
     5
 42
-1.0
  3
INABA_S20G
100
AcDbAlignedDimension
 13
5650.727897273896
 23
1184.0
 33
0.0
 14
5650.727897273896
 24
1769.0
 34
0.0
 50
90.0
100
AcDbRotatedDimension
1001
ACAD
1000
DSTYLE
1002
{
1070
    75
1070
     1
1070
   279
1070
     1
1002
}
  0
DIMENSION
  5
148E2
330
747D
100
AcDbEntity
  8
寸法
 48
50.0
100
AcDbDimension
  2
*D21
 10
5565.8619631574
 20
1924.738377293322
 30
0.0
 11
5145.745722410404
 21
1439.238377293323
 31
0.0
 12
372.2907967251995
 22
-28.01800449040639
 32
0.0
 70
    32
  1
内高 <>
 71
     5
 42
-1.0
  3
INABA_S20G
100
AcDbAlignedDimension
 13
5441.727897273897
 23
987.0
 33
0.0
 14
5441.727897273897
 24
1957.999999999998
 34
0.0
 50
90.0
100
AcDbRotatedDimension
  0
LINE
  5
14905
330
747D
100
AcDbEntity
  8
点線
 48
8.0
100
AcDbLine
 10
5651.727897273897
 20
1957.999999999999
 30
0.0
 11
5218.727897273897
 21
1957.999999999999
 31
0.0
  0
DIMENSION
  5
14915
330
747D
100
AcDbEntity
  8
寸法
 48
50.0
100
AcDbDimension
  2
*D22
 10
5844.218866477215
 20
1739.0
 30
0.0
 11
5844.218866477215
 21
1585.976377952756
 31
0.0
 12
-18.82544402179701
 22
-28.01800449040639
 32
0.0
 70
   160
 71
     5
 42
-1.0
  3
INABA_S20G
100
AcDbAlignedDimension
 13
5650.727897273896
 23
1769.0
 33
0.0
 14
5650.727897273896
 24
1739.0
 34
0.0
 50
90.0
100
AcDbRotatedDimension
  0
LINE
  5
14968
330
747D
100
AcDbEntity
  8
点線
 48
2.0
100
AcDbLine
 10
5233.727897273897
 20
1957.999999999999
 30
0.0
 11
5233.727897273897
 21
1979.999999999999
 31
0.0
  0
LINE
  5
14969
330
747D
100
AcDbEntity
  8
点線
 48
3.0
100
AcDbLine
 10
5218.727897273897
 20
1924.999999999999
 30
0.0
 11
5218.727897273897
 21
1957.999999999999
 31
0.0
  0
LINE
  5
14977
330
747D
100
AcDbEntity
  8
点線
 48
3.0
100
AcDbLine
 10
5651.727897273897
 20
1925.0
 30
0.0
 11
5651.727897273897
 21
1957.999999999999
 31
0.0
  0
LINE
  5
1497B
330
747D
100
AcDbEntity
  8
点線
 48
3.0
100
AcDbLine
 10
5126.727897273897
 20
965.0
 30
0.0
 11
5131.727897273897
 21
968.0
 31
0.0
  0
LINE
  5
149BC
330
747D
100
AcDbEntity
  8
点線
 48
2.0
100
AcDbLine
 10
5188.727897273897
 20
978.5
 30
0.0
 11
5196.727897273897
 21
978.5
 31
0.0
  0
LINE
  5
149BE
330
747D
100
AcDbEntity
  8
点線
 48
3.0
100
AcDbLine
 10
5644.727897273897
 20
978.5
 30
0.0
 11
5624.227897273897
 21
958.0
 31
0.0
  0
LINE
  5
149C0
330
747D
100
AcDbEntity
  8
点線
 48
3.0
100
AcDbLine
 10
5196.727897273897
 20
978.5
 30
0.0
 11
5217.227897273897
 21
958.0
 31
0.0
  0
LINE
  5
149C1
330
747D
100
AcDbEntity
  8
点線
 48
2.0
100
AcDbLine
 10
5644.727897273897
 20
978.5
 30
0.0
 11
5652.727897273897
 21
978.5
 31
0.0
  0
DIMENSION
  5
149CF
330
747D
100
AcDbEntity
  8
寸法
 48
50.0
100
AcDbDimension
  2
*D23
 10
3183.599999999999
 20
3825.232679255116
 30
0.0
 11
3426.099999999999
 21
3925.232679255116
 31
0.0
 70
    32
  1
有効開口部間口\P<>
 71
     5
 42
-1.0
  3
INABA_S20G
100
AcDbAlignedDimension
 13
3668.599999999999
 23
4109.582580843269
 33
0.0
 14
3183.599999999999
 24
4109.582580843269
 34
0.0
100
AcDbRotatedDimension
  0
LINE
  5
14A22
330
747D
100
AcDbEntity
  8
部品1
100
AcDbLine
 10
3344.467666557111
 20
509.9461607727662
 30
0.0
 11
2962.732333442891
 21
509.9461607727662
 31
0.0
  0
LINE
  5
14A23
330
747D
100
AcDbEntity
  8
部品1
100
AcDbLine
 10
2962.732333442891
 20
390.0
 30
0.0
 11
3344.467666557111
 21
390.0
 31
0.0
  0
TEXT
  5
14A24
330
747D
100
AcDbEntity
  8
部品1
100
AcDbText
 10
3007.995035311869
 20
413.4993961635045
 30
0.0
 40
67.5
  1
正面図
  7
STYLE2
100
AcDbText
  0
LINE
  5
14A25
330
747D
100
AcDbEntity
  8
部品1
100
AcDbLine
 10
2962.732333442891
 20
509.9461607727662
 30
0.0
 11
2962.732333442891
 21
390.0
 31
0.0
  0
LINE
  5
14A26
330
747D
100
AcDbEntity
  8
部品1
100
AcDbLine
 10
3344.467666557111
 20
390.0
 30
0.0
 11
3344.467666557111
 21
509.9461607727662
 31
0.0
  0
DIMENSION
  5
15E8D
330
747D
100
AcDbEntity
  8
寸法
 48
50.0
100
AcDbDimension
  2
*D24
 10
6175.47012221043
 20
1925.0
 30
0.0
 11
6125.464216698619
 21
1412.5
 31
0.0
 12
7219.621266834223
 22
0.0
 32
0.0
 70
    32
 71
     5
 42
-1.0
  3
INABA_S20G
100
AcDbAlignedDimension
 13
5675.727897273897
 23
900.0
 33
0.0
 14
5691.727897273897
 24
1925.0
 34
0.0
 50
90.0
100
AcDbRotatedDimension
1001
ACAD
1000
DSTYLE
1002
{
1070
   279
1070
     2
1002
}
  0
DIMENSION
  5
15E9B
330
747D
100
AcDbEntity
  8
寸法
 48
50.0
100
AcDbDimension
  2
*D25
 10
6175.47012221043
 20
1989.999999999999
 30
0.0
 11
6125.47012221043
 21
1957.499999999999
 31
0.0
 12
7219.621266834223
 22
0.0
 32
0.0
 70
    32
 71
     5
 42
-1.0
  3
INABA_S20G
100
AcDbAlignedDimension
 13
5691.727897273897
 23
1925.0
 33
0.0
 14
5681.727897273897
 24
1989.999999999999
 34
0.0
 50
90.0
100
AcDbRotatedDimension
1001
ACAD
1000
DSTYLE
1002
{
1070
    75
1070
     1
1070
   279
1070
     2
1002
}
  0
DIMENSION
  5
15EA8
330
747D
100
AcDbEntity
  8
寸法
 48
50.0
100
AcDbDimension
  2
*D26
 10
4666.499190398598
 20
1979.999999999999
 30
0.0
 11
4616.499190398598
 21
1439.999999999999
 31
0.0
 12
7219.621266834223
 22
0.0
 32
0.0
 70
    32
 71
     5
 42
-1.0
  3
INABA_S20G
100
AcDbAlignedDimension
 13
5130.727897273897
 23
900.0
 33
0.0
 14
5143.178249479497
 24
1979.999999999999
 34
0.0
 50
90.0
100
AcDbRotatedDimension
1001
ACAD
1000
DSTYLE
1002
{
1070
   279
1070
     2
1002
}
  0
OLE2FRAME
  5
16536
330
747D
100
AcDbEntity
  8
寸法
 48
50.0
100
AcDbOle2Frame
 70
     2
  3
Microsoft Office Excel ワークシート
 10
6553.591699265486
 20
5700.859317874522
 30
0.0
 11
8151.507359507411
 21
4741.322846016337
 31
0.0
 71
     2
 72
     0
 73
     1
 90
    19072
310
805554629A799799B940F19741FCDB44B6400000000000000000A60B50E281D7
310
BF40F19741FCDB44B6400000000000000000A60B50E281D7BF40CF5909A65285
310
B240000000000000000054629A799799B940CF5909A65285B240000000000000
310
00003D1FB01201000000000100001200000001000000010001000000004A0000
310
D0CF11E0A1B11AE1000000000000000000000000000000003E000300FEFF0900
310
0600000000000000000000000100000001000000000000000010000002000000
310
01000000FEFFFFFF0000000000000000FFFFFFFFFFFFFFFFFFFFFFFFFFFFFFFF
310
FFFFFFFFFFFFFFFFFFFFFFFFFFFFFFFFFFFFFFFFFFFFFFFFFFFFFFFFFFFFFFFF
310
FFFFFFFFFFFFFFFFFFFFFFFFFFFFFFFFFFFFFFFFFFFFFFFFFFFFFFFFFFFFFFFF
310
FFFFFFFFFFFFFFFFFFFFFFFFFFFFFFFFFFFFFFFFFFFFFFFFFFFFFFFFFFFFFFFF
310
FFFFFFFFFFFFFFFFFFFFFFFFFFFFFFFFFFFFFFFFFFFFFFFFFFFFFFFFFFFFFFFF
310
FFFFFFFFFFFFFFFFFFFFFFFFFFFFFFFFFFFFFFFFFFFFFFFFFFFFFFFFFFFFFFFF
310
FFFFFFFFFFFFFFFFFFFFFFFFFFFFFFFFFFFFFFFFFFFFFFFFFFFFFFFFFFFFFFFF
310
FFFFFFFFFFFFFFFFFFFFFFFFFFFFFFFFFFFFFFFFFFFFFFFFFFFFFFFFFFFFFFFF
310
FFFFFFFFFFFFFFFFFFFFFFFFFFFFFFFFFFFFFFFFFFFFFFFFFFFFFFFFFFFFFFFF
310
FFFFFFFFFFFFFFFFFFFFFFFFFFFFFFFFFFFFFFFFFFFFFFFFFFFFFFFFFFFFFFFF
310
FFFFFFFFFFFFFFFFFFFFFFFFFFFFFFFFFFFFFFFFFFFFFFFFFFFFFFFFFFFFFFFF
310
FFFFFFFFFFFFFFFFFFFFFFFFFFFFFFFFFFFFFFFFFFFFFFFFFFFFFFFFFFFFFFFF
310
FFFFFFFFFFFFFFFFFFFFFFFFFFFFFFFFFFFFFFFFFFFFFFFFFFFFFFFFFFFFFFFF
310
FFFFFFFFFFFFFFFFFFFFFFFFFFFFFFFFFFFFFFFFFFFFFFFFFFFFFFFFFFFFFFFF
310
FDFFFFFF0F000000FEFFFFFF1000000005000000060000000700000008000000
310
090000000A0000000B0000000C0000000D0000000E000000FEFFFFFF1A000000
310
1100000012000000130000001400000015000000160000001700000018000000
310
19000000FEFFFFFFFEFFFFFF1C0000001D0000001E0000001F00000020000000
310
210000002200000023000000FEFFFFFFFFFFFFFFFFFFFFFFFFFFFFFFFFFFFFFF
310
FFFFFFFFFFFFFFFFFFFFFFFFFFFFFFFFFFFFFFFFFFFFFFFFFFFFFFFFFFFFFFFF
310
FFFFFFFFFFFFFFFFFFFFFFFFFFFFFFFFFFFFFFFFFFFFFFFFFFFFFFFFFFFFFFFF
310
FFFFFFFFFFFFFFFFFFFFFFFFFFFFFFFFFFFFFFFFFFFFFFFFFFFFFFFFFFFFFFFF
310
FFFFFFFFFFFFFFFFFFFFFFFFFFFFFFFFFFFFFFFFFFFFFFFFFFFFFFFFFFFFFFFF
310
FFFFFFFFFFFFFFFFFFFFFFFFFFFFFFFFFFFFFFFFFFFFFFFFFFFFFFFFFFFFFFFF
310
FFFFFFFFFFFFFFFFFFFFFFFFFFFFFFFFFFFFFFFFFFFFFFFFFFFFFFFFFFFFFFFF
310
FFFFFFFFFFFFFFFFFFFFFFFFFFFFFFFFFFFFFFFFFFFFFFFFFFFFFFFFFFFFFFFF
310
FFFFFFFFFFFFFFFFFFFFFFFFFFFFFFFFFFFFFFFFFFFFFFFFFFFFFFFFFFFFFFFF
310
FFFFFFFFFFFFFFFFFFFFFFFFFFFFFFFFFFFFFFFFFFFFFFFFFFFFFFFFFFFFFFFF
310
FFFFFFFFFFFFFFFFFFFFFFFFFFFFFFFFFFFFFFFFFFFFFFFFFFFFFFFFFFFFFFFF
310
FFFFFFFFFFFFFFFFFFFFFFFFFFFFFFFFFFFFFFFFFFFFFFFFFFFFFFFFFFFFFFFF
310
52006F006F007400200045006E00740072007900000000000000000000000000
310
0000000000000000000000000000000000000000000000000000000000000000
310
16000500FFFFFFFFFFFFFFFF010000002008020000000000C000000000000046
310
000000000000000000000000006BB3DAC09EC801030000008015000000000000
310
57006F0072006B0062006F006F006B0000000000000000000000000000000000
310
0000000000000000000000000000000000000000000000000000000000000000
310
120002010500000003000000FFFFFFFF00000000000000000000000000000000
310
000000000000000000000000000000000000000004000000DF14000000000000
310
010043006F006D0070004F0062006A0000000000000000000000000000000000
310
0000000000000000000000000000000000000000000000000000000000000000
310
12000200FFFFFFFFFFFFFFFFFFFFFFFF00000000000000000000000000000000
310
0000000000000000000000000000000000000000000000006900000000000000
310
0500530075006D006D0061007200790049006E0066006F0072006D0061007400
310
69006F006E000000000000000000000000000000000000000000000000000000
310
280002000600000004000000FFFFFFFF00000000000000000000000000000000
310
000000000000000000000000000000000000000002000000D000000000000000
310
01000000FEFFFFFF030000000400000005000000FEFFFFFF0700000008000000
310
090000000A000000FEFFFFFFFEFFFFFFFFFFFFFFFFFFFFFFFFFFFFFFFFFFFFFF
310
FFFFFFFFFFFFFFFFFFFFFFFFFFFFFFFFFFFFFFFFFFFFFFFFFFFFFFFFFFFFFFFF
310
FFFFFFFFFFFFFFFFFFFFFFFFFFFFFFFFFFFFFFFFFFFFFFFFFFFFFFFFFFFFFFFF
310
FFFFFFFFFFFFFFFFFFFFFFFFFFFFFFFFFFFFFFFFFFFFFFFFFFFFFFFFFFFFFFFF
310
FFFFFFFFFFFFFFFFFFFFFFFFFFFFFFFFFFFFFFFFFFFFFFFFFFFFFFFFFFFFFFFF
310
FFFFFFFF32000000330000003400000035000000360000003700000038000000
310
390000003A0000003B0000003C0000003D0000003E0000003F00000040000000
310
4100000042000000430000004400000045000000460000004700000048000000
310
490000004A0000004B0000004C0000004D0000004E0000004F00000050000000
310
5100000052000000530000005400000055000000FEFFFFFFFFFFFFFFFFFFFFFF
310
FFFFFFFFFFFFFFFFFFFFFFFFFFFFFFFFFFFFFFFFFFFFFFFFFFFFFFFFFFFFFFFF
310
FFFFFFFFFFFFFFFFFFFFFFFFFFFFFFFFFFFFFFFFFFFFFFFFFFFFFFFFFFFFFFFF
310
FFFFFFFFFFFFFFFFFFFFFFFFFFFFFFFFFFFFFFFFFFFFFFFFFFFFFFFFFFFFFFFF
310
FFFFFFFFFFFFFFFFFFFFFFFFFFFFFFFFFFFFFFFFFFFFFFFFFFFFFFFFFFFFFFFF
310
FFFFFFFFFFFFFFFFFFFFFFFFFFFFFFFFFFFFFFFFFFFFFFFFFFFFFFFFFFFFFFFF
310
0100FEFF030A0000FFFFFFFF2008020000000000C0000000000000461D000000
310
4D6963726F736F667420457863656C20838F815B834E8356815B836700060000
310
004269666638000E000000457863656C2E53686565742E3800F439B271000000
310
0000000000000000000000000000000000000000000000000000000000000000
310
FEFF0000040A02000000000000000000000000000000000001000000E0859FF2
310
F94F6810AB9108002B27B3D930000000A0000000070000000100000040000000
310
0400000048000000080000005800000012000000680000000C00000080000000
310
0D0000008C000000130000009800000002000000A40300001E00000007000000
310
909B96EC90BD00001E000000050000004E455A5500BD00001E00000010000000
310
4D6963726F736F667420457863656C004000000080A21A0EE4E2BE0140000000
310
80680602D957C301030000000000000000000000000000000000000000000000
310
0000000000000000000000000000000000000000000000000000000000000000
310
FEFF0000040A0200000000000000000000000000000000000100000002D5CDD5
310
9C2E1B10939708002B2CF9AE30000000EC000000090000000100000050000000
310
0F0000005800000017000000740000000B0000007C0000001000000084000000
310
130000008C00000016000000940000000D0000009C0000000C000000C5000000
310
0908100000060500FE1CCD074140000006010000E1000200B004C10002000000
310
E20000005C0070000400004E455A552020202020202020202020202020202020
310
2020202020202020202020202020202020202020202020202020202020202020
310
2020202020202020202020202020202020202020202020202020202020202020
310
20202020202020202020202020202020202020202020202042000200B0046101
310
02000000C00100003D0106000100020003009C0002000E00DE000800A4270100
310
0B000103190002000000120002000000130002000000AF0102000000BC010200
310
00003D0012008403FF00FC21C012380000000000010058024000020000008D00
310
020000002200020000000E0002000100B70102000000DA000200000031002000
310
DC000000FF7F900100000000800008012DFF33FF200030FFB430B730C330AF30
310
31002000DC000000FF7F900100000000800008012DFF33FF200030FFB430B730
310
C330AF3031002000DC000000FF7F900100000000800008012DFF33FF200030FF
310
B430B730C330AF3031002000DC000000FF7F900100000000800008012DFF33FF
310
200030FFB430B730C330AF303100200078000000FF7F90010000000380000801
310
2DFF33FF200030FFB430B730C330AF301E0418000500130000225C22232C2323
310
303B225C225C2D232C2323301E041D000600180000225C22232C2323303B5B52
310
65645D225C225C2D232C2323301E041E000700190000225C22232C2323302E30
310
303B225C225C2D232C2323302E30301E04230008001E0000225C22232C232330
310
2E30303B5B5265645D225C225C2D232C2323302E30301E0437002A003200005F
310
20225C222A20232C2323305F203B5F20225C222A205C2D232C2323305F203B5F
310
20225C222A20222D225F203B5F20405F201E042E0029002900005F202A20232C
310
2323305F203B5F202A205C2D232C2323305F203B5F202A20222D225F203B5F20
310
405F201E043F002C003A00005F20225C222A20232C2323302E30305F203B5F20
310
225C222A205C2D232C2323302E30305F203B5F20225C222A20222D223F3F5F20
310
3B5F20405F201E0436002B003100005F202A20232C2323302E30305F203B5F20
310
2A205C2D232C2323302E30305F203B5F202A20222D223F3F5F203B5F20405F20
310
1E041A0017001500005C24232C2323305F293B5C285C24232C2323305C291E04
310
1F0018001A00005C24232C2323305F293B5B5265645D5C285C24232C2323305C
310
291E04200019001B00005C24232C2323302E30305F293B5C285C24232C232330
310
2E30305C291E0425001A002000005C24232C2323302E30305F293B5B5265645D
310
5C285C24232C2323302E30305C29E000140000000000F5FF2000000000000000
310
00000000C020E000140001000000F5FF200000F40000000000000000C020E000
310
140001000000F5FF200000F40000000000000000C020E000140002000000F5FF
310
200000F40000000000000000C020E000140002000000F5FF200000F400000000
310
00000000C020E000140000000000F5FF200000F40000000000000000C020E000
310
140000000000F5FF200000F40000000000000000C020E000140000000000F5FF
310
200000F40000000000000000C020E000140000000000F5FF200000F400000000
310
00000000C020E000140000000000F5FF200000F40000000000000000C020E000
310
140000000000F5FF200000F40000000000000000C020E000140000000000F5FF
310
200000F40000000000000000C020E000140000000000F5FF200000F400000000
310
00000000C020E000140000000000F5FF200000F40000000000000000C020E000
310
140000000000F5FF200000F40000000000000000C020E0001400000000000100
310
200000000000000000000000C020E000140001000900F5FF200000F800000000
310
00000000C020E000140001002600F5FF200000F80000000000000000C020E000
310
140001002800F5FF200000F80000000000000000C020E000140001000600F5FF
310
200000F80000000000000000C020E000140001000800F5FF200000F800000000
310
00000000C020E0001400000000000100220000100000000000000000C020E000
310
1400000000000100200000200101400040000000C020E0001400000000000100
310
200000200001000040000000C020E00014000000000001002000002010010020
310
40000000C020E0001400000000000100220000300100400000000000C020E000
310
1400000000000100200000200000000000000000C020E0001400000000000100
310
220000301000002000000000C020E00014000000000001002200003001104000
310
00200000C020E0001400000000000100200000200010000000200000C020E000
310
1400000000000100220000301010002000200000C02093020400108005FF9302
310
0400118006FF93020400128003FF93020400138007FF93020400148004FF9302
310
0400008000FF60010200000085000E00AF090000000006005368656574318500
310
0E004A1100000000060053686565743285000E003D1200000000060053686565
310
74338C00040051005100C1010800C101000080380100FC005302160000001200
310
0000020001C1546A75030001E890C1540D541A00014600310032009221B66E8D
310
879C4E5B92813063304D30FC927F67200028004A004900530020004700200033
310
00330030003200290005000120002000D930FC30B93007000120002000D930FC
310
30B9300B4EA0670400012000200074507F671900004631322020202020202020
310
2020202020202020202020302E36060001200020008A5ED130CD30EB30100001
310
5067996528005067EA8C290020002000200020002000200058534D4F6D006D00
310
19000410000000463132202020202020202020202020202020312E302C312E36
310
01000C000500350000000000000000000F0005100000003B20D930FC30B930BF
310
8A7465C47BF25620001AFF2000330032006D006D0001000C0005003500000000
310
0000000000030004100000004B4D5801000C0005003500000000000000000003
310
00052400000000308C5F7F670100200005003500020005000500A630B730ED30
310
A430BF3000000100010003000200010004000518000000200020004B5C396801
310
00140005003500010002000200E430CD300000020002000300051A0000002000
310
200049620100160005003500010003000300C830D330E9300000020001000800
310
051800000020002000DA687F67280031009A6729000100140005003500010002
310
000200DE30A43000000600010019000410000000463132202020202020202020
310
20202020202020202020302E3501000C00050035000000000000000000190004
310
1000000046313220202020202020202020202020202020202020302E3601000C
310
00050035000000000000000000FF001A000800420700000C000000DD070000A7
310
0000002D090000F70100000A0000000908100000061000FE1CCD074140000006
310
0100000D00020001000C00020064000F000200010011000200000010000800FC
310
A9F1D24D62503F5F00020001002A00020000002B000200000082000200010080
310
00080000000000000000002502040000000E0181000200C10414000000150000
310
008300020000008400020000004D00460300004500500053004F004E0020004C
310
0050002D003800330030003000000084FF000000000C000000000000009CFF2F
310
0000006A004E0061FF4B00200000000000040000042806D40070020303000002
310
000800773D0000640001000700580201000100580200000000FB302E00560077
310
003D009EFF2F009FFF2F000E00FB3023005700010077003D009EFF2F009EFF2F
310
006F000100FB306F0001006000FB30000000000000000000009F01473D000000
310
00040000000000F7000202EF00A0A0173D00F33A87403D000018010000448795
310
7F470115B1F9BF00000000010000000000000008000000010000005734F08704
310
00000000000000000086003634F7BF7742F7BF00000000090009000D000C0001
310
020B0001000600050007000E00250014001B001C000300030204020900090000
310
010000F2F78600534C3031D4F786005745F9BF000001007012781A0100701278
310
1A01000200010003000200030000000000000000000010000001000100000000
310
0000000000000000000000000000000200444C4C4E616D6531363D4550474147
310
32334A2E4452560048BF485F0140880300040001000500010001000100000000
310
0000003088A4DDB8480000BF48000001000000A848000000005F010000000064
310
00000002000200000000000000010000000200009B0000000000000000EF00F4
310
3A3000473D040000001F017288B20A4701BE48AA195E001F011C89E51B47012C
310
00973D6500FFFF98006F019F34270601000000AE480000434F4D4D4354524C00
310
4C4C0000494E444F57535C53595354454D5C4550474147323349274701700808
310
000100B848000018010000D288957F4701987F180101005F011489FB4A470164
310
135F0100000000F8000000F288957F4701987FB8481F015F012C89884C470164
310
135F0100000000F80000002C8900001C89B848473D180100002089957F470198
310
7F180101005F016289FB4A470164135F01B848473D18010000628900004A89A4
310
DD5689000001000000010000001801000047410000F700110002000000000014
310
0019000000320000000000000000000100000003000100000000000000010000
310
0000000100000001000100010000000000000000000000000000000000000000
310
0000000000000000000000000000000000000000000400A10022000800640001
310
00010001000000FCFF0000FCA9F1D24D62E03FFCA9F1D24D62E03F0100550002
310
0008007D000C0000000000600B0F00020000007D000C0001000100A0040F0002
310
0000007D000C0002000200A0100F00020000007D000C0003000300A0130F0002
310
00000000020E00010000000C000000000004000000080210000100000004000E
310
010000000000010F00080210000200000004000E010000000000010F00080210
310
000300000004000E010000000000010F00080210000400000004000E01000000
310
0000010F00080210000500000004000E010000000000010F0008021000060000
310
0004000E010000000000010F00080210000700000004000E010000000000010F
310
00080210000800000004000E010000000000010F00080210000900000004000E
310
010000000000010F00080210000A00000004000E010000000000010F00080210
310
000B00000004000E010000000000010F00FD000A00010000000F000B000000FD
310
000A0001000100160000000000FD000A0001000200170001000000FD000A0001
310
00030018000800000001020600020000000F007E020A000200010019000000F0
310
3FFD000A00020002001A0003000000FD000A00020003001B0009000000010206
310
00030000000F007E020A0003000100190000000040FD000A00030002001A0004
310
000000FD000A00030003001B000900000001020600040000000F007E020A0004
310
000100190000000840FD000A00040002001A0005000000FD000A00040003001B
310
001000000001020600050000000F007E020A0005000100190000001040FD000A
310
00050002001A000C000000FD000A00050003001B001000000001020600060000
310
000F007E020A0006000100190000001440FD000A00060002001A000D000000FD
310
000A00060003001B001100000001020600070000000F007E020A000700010019
310
0000001840FD000A00070002001A000E000000FD000A00070003001B00060000
310
0001020600080000000F007E020A0008000100190000001C40FD000A00080002
310
001A0007000000FD000A00080003001B000600000001020600090000000F007E
310
020A00090001001C0000002040FD000A00090002001D000F000000FD000A0009
310
0003001E0006000000010206000A0000000F00FD000A000A0001000F00020000
310
00BE000A000A0002000F0015000300010206000B0000000F00FD000A000B0001
310
000F000A000000BE000A000B0002000F0015000300D7001A0000030000C80038
310
003400340034003400340034003400340026003E021200B60600000000400000
310
0000000000000000001D000F00030200030000000100020002000303EF000600
310
0500350000000A0000000908100000061000FE1CCD0741400000060100000D00
310
020001000C00020064000F000200010011000200000010000800FCA9F1D24D62
310
503F5F00020001002A00020000002B0002000000820002000100800008000000
310
0000000000002502040000000E0181000200C104140000001500000083000200
310
0000840002000000A100220000000E01010001000100040000030303FCA9F1D2
310
4D62E03FFCA9F1D24D62E03F010055000200080000020E000000000000000100
310
0000000000003E021200B600000000004000000000000000000000001D000F00
310
030000000000000100000000000000EF0006000500350000000A000000090810
310
0000061000FE1CCD0741400000060100000D00020001000C00020064000F0002
310
00010011000200000010000800FCA9F1D24D62503F5F00020001002A00020000
310
002B00020000008200020001008000080000000000000000002502040000000E
310
0181000200C1041400000015000000830002000000840002000000A100220000
310
000E01010001000100040000000000FCA9F1D24D62E03FFCA9F1D24D62E03F01
310
0055000200080000020E0000000000000001000000000000003E021200B60000
310
0000004000000000000000000000001D000F0003000000000000010000000000
310
0000EF0006000500350000000A000000000200080000020E0000000000000001
310
000000000000003E021200B600000000004000000000000000000000001D000F
310
00030000000000000100000000000000EF0006000500350000000A0000000101
310
0001000100040100010303FCA9F1D24D62E03FFCA9F1D24D62E03FFF20550002
310
00080000020E0000000000000001000000000000003E021200B6000000000040
310
00000000000000000000001D000F00030000000000000100000000000000EF00
310
06000500350000000A0000000908100000061000FE1CCD074140000006010000
310
0D00020001000C00020064000F000200010011000200000010000800FCA9F1D2
310
4D62503F5F00020001002A00020000002B000200000082000200010080000800
310
00000000000000002502040000000E0181000200C10414000000150000008300
310
02000000840002000000A100220000000E01010001000100040000000000FCA9
310
F1D24D62E03FFCA9F1D24D62E03FFF2055000200080000020E00000000000000
310
01000000000000003E021200B600000000004000000000000000000000001D00
310
0F00030000000000000100000000000000EF0006000500350000000A00000000
310
0000000000000000000000000000000000000000000000000000000000000000
310
0000000000000000000000000000000000000000000000000000000000000000
310
0000000000000000000000000000000000000000000000000000000000000000
310
0000000000000000000000000000000000000000000000000000000000000000
310
0000000000000000000000000000000000000000000000000000000000000000
310
0000000000000000000000000000000000000000000000000000000000000000
310
0000000000000000000000000000000000000000000000000000000000000000
310
0000000000000000000000000000000000000000000000000000000000000000
310
0000000000000000000000000000000000000000000000000000000000000000
310
050044006F00630075006D0065006E007400530075006D006D00610072007900
310
49006E0066006F0072006D006100740069006F006E0000000000000000000000
310
38000201FFFFFFFFFFFFFFFFFFFFFFFF00000000000000000000000000000000
310
0000000000000000000000000000000000000000060000001C01000000000000
310
01004F006C006500000000000000000000000000000000000000000000000000
310
0000000000000000000000000000000000000000000000000000000000000000
310
0A000201FFFFFFFF02000000FFFFFFFF00000000000000000000000000000000
310
00000000000000000000000000000000000000000B0000003B00000000000000
310
02004F006C006500500072006500730030003000300000000000000000000000
310
0000000000000000000000000000000000000000000000000000000000000000
310
18000201FFFFFFFF07000000FFFFFFFF00000000000000000000000000000000
310
00000000000000000000000000000000000000001B0000004A10000000000000
310
02004F006C006500500072006500730030003000310000000000000000000000
310
0000000000000000000000000000000000000000000000000000000000000000
310
18000200FFFFFFFFFFFFFFFFFFFFFFFF00000000000000000000000000000000
310
0000000000000000000000000000000000000000310000001009000000000000
310
02000000A40300001E0000001100000081698A94816A88EE977490BB8DEC8F8A
310
0067007403000000ED0E09000B000000000000000B000000000000000B000000
310
000000000B000000000000001E10000003000000070000005368656574310007
310
0000005368656574320007000000536865657433000C100000020000001E0000
310
000D000000838F815B834E8356815B8367000300000003000000000000000000
310
0000000000000000000000000000000000000000000000000000000000000000
310
010000020000000000000000000000002B0000000403000000000000C0000000
310
00000046020000005C000D000000456D62656464696E67203138000000000000
310
FFFFFFFF030000000400000001000000FFFFFFFF0200000000000000E6210000
310
91140000041000000100090000036B04000005003D0000000000050000000902
310
00000000050000000102FFFFFF000400000004010D0004000000020102000500
310
00000C026A046107030000001E00040000002701FFFF030000001E0004000000
310
2701FFFF050000000B0200000000030000001E00050000000102FFFFFF000500
310
0000090200000000040000002701FFFF030000001E00050000000102FFFFFF00
310
050000000902000000000700000016046904600700000000040000002701FFFF
310
030000001E00050000000102FFFFFF0005000000090200000000070000001604
310
690460070000000015000000FB02A4FF00000000000090010000008000000000
310
826C827220826F835383568362834E008000040000002D010000040000000401
310
0D0004000000020101000D000000320A0900140004000000956994D45C000000
310
5C00000010000000320A0900E900060000009594956996BC5C0000005C000000
310
5C00000028000000320A0900E603160000008DDE97BF288DDE8EBF2920202020
310
2020925088CA6D6D5C0000005C0000001C005C0000005C0000001C001C001C00
310
1C001C001C001C005C0000005C0000004400440009000000320A6F005B000100
310
000031002E0013000000320A6F00E9000800000020208378815B83581C001C00
310
5700000058000000530000002D000000320A6F000B0419000000463132202020
310
202020202020202020202020312E302C312E360033002E002E001C001C001C00
310
1C001C001C001C001C001C001C001C001C001C001C001C002E0013002E001300
310
2E0013002E0009000000320AD5005B000100000032002E0019000000320AD500
310
E9000C00000020208378815B835889BA98671C001C0057000000580000005300
310
00005C0000005C0000002D000000320AD5000B04190000004631322020202020
310
20202020202020202020312E362C312E300033002E002E001C001C001C001C00
310
1C001C001C001C001C001C001C001C001C001C001C002E0013002E0013002E00
310
13002E0009000000320A3B015B000100000033002E0010000000320A3B01E900
310
06000000202091A494C21C001C005C0000005C0000002D000000320A3B011404
310
1900000046313220202020202020202020202020202020202020302E36003300
310
2E002E001C001C001C001C001C001C001C001C001C001C001C001C001C001C00
310
1C001C001C001C001C002E0013002E0009000000320AA1015B00010000003400
310
2E0010000000320AA101E9000600000081408CE394C23D0000005C0000005C00
310
00002E000000320AA10111041A00000082653132202020202020202020202020
310
20202020202020302E353A0000002E002E001C001C001C001C001C001C001C00
310
1C001C001C001C001C001C001C001C001C001C001C001C002E0013002E000900
310
0000320A07025B000100000035002E0010000000320A0702E900060000002020
310
89AE8DAA1C001C005C0000005C0000002E000000320A070211041A0000008265
310
313220202020202020202020202020202020202020302E363A0000002E002E00
310
1C001C001C001C001C001C001C001C001C001C001C001C001C001C001C001C00
310
1C001C001C002E0013002E0009000000320A6D025B000100000036002E000D00
310
0000320A6D02E90004000000202094E01C001C005C0000002D000000320A6D02
310
14041900000046313220202020202020202020202020202020202020302E3600
310
33002E002E001C001C001C001C001C001C001C001C001C001C001C001C001C00
310
1C001C001C001C001C001C002E0013002E0009000000320AD3025B0001000000
310
37002E0016000000320AD302E9000A00000020208FB08370836C838B1C001C00
310
5C0000005C000000560000005C0000002D000000320AD3021404190000004631
310
3220202020202020202020202020202020202020302E360033002E002E001C00
310
1C001C001C001C001C001C001C001C001C001C001C001C001C001C001C001C00
310
1C001C002E0013002E0009000000320A39035B000100000038002E0010000000
310
320A3903E900060000002020924994C21C001C005C0000005C0000002D000000
310
320A390314041900000046313220202020202020202020202020202020202020
310
302E360033002E002E001C001C001C001C001C001C001C001C001C001C001C00
310
1C001C001C001C001C001C001C001C002E0013002E003D000000320A9F031400
310
2400000046313281A8976E975A889F899482DF82C182AB8D7C94C220284A4953
310
204720333330322933002E002E005C0000005C0000005C0000005C0000005C00
310
00005A0000004A0000004E0000005C0000005C0000001C001C00320017003700
310
1C003F001C002E002E002E002E001C002B000000320A050414001800000081A6
310
8378815B835892B290AE94CD88CD2081462033326D6D5C000000570000005800
310
0000530000005C0000005C0000005C0000005C0000001C002E0000001C002E00
310
2E004400440010000000FB021200080000000000900100000080010202025379
310
7374656D0080040000002D010100040000002701FFFF030000001E0004000000
310
2D010000050000000102FFFFFF00050000000902000000000700000016046A04
310
61070000000007000000FC020000000000000000040000002D01020004000000
310
04010D00040000000201020009000000FA020000000000000000000022000400
310
00002D010300050000001402000000000500000013029E03000009000000FA02
310
000000000000000000002200040000002D010400090000001D062100F0009E03
310
080000000000040000002D0103000500000014026A0059070500000013029E03
310
5907040000002D010400090000001D062100F000340308006A00590704000000
310
2D0103000500000014020000080005000000130200005E07040000002D010400
310
090000001D062100F0000800560700000800040000002D010300050000001402
310
9603080005000000130296036107040000002D010400090000001D062100F000
310
0800590796030800040000002D010200040000002D010100040000002701FFFF
310
030000001E00040000002D010000050000000102FFFFFF000500000009020000
310
00000700000016046904600700000000040000002701FFFF0300000000000000
310
0000000000000000000000000000000000000000000000000000000000000000
310
0000000000000000000000000000000000000000000000000000000000000000
310
FFFFFFFF030000000400000004000000FFFFFFFF07000000000000003D1F0000
310
B0120000D60800000100090000036B04000005003D0000000000050000000902
310
00000000050000000102FFFFFF000400000004010D0004000000020102000500
310
00000C026A046107030000001E00040000002701FFFF030000001E0004000000
310
2701FFFF050000000B0200000000030000001E00050000000102FFFFFF000500
310
0000090200000000040000002701FFFF030000001E00050000000102FFFFFF00
310
050000000902000000000700000016046904600700000000040000002701FFFF
310
030000001E00050000000102FFFFFF0005000000090200000000070000001604
310
690460070000000015000000FB02A4FF00000000000090010000008000000000
310
826C827220826F835383568362834E008000040000002D010000040000000401
310
0D0004000000020101000D000000320A0900140004000000956994D45C000000
310
5C00000010000000320A0900E900060000009594956996BC5C0000005C000000
310
5C00000028000000320A0900E603160000008DDE97BF288DDE8EBF2920202020
310
2020925088CA6D6D5C0000005C0000001C005C0000005C0000001C001C001C00
310
1C001C001C001C005C0000005C0000004400440009000000320A6F005B000100
310
000031002E0013000000320A6F00E9000800000020208378815B83581C001C00
310
5700000058000000530000002D000000320A6F000B0419000000463132202020
310
202020202020202020202020312E302C312E360033002E002E001C001C001C00
310
1C001C001C001C001C001C001C001C001C001C001C001C002E0013002E001300
310
2E0013002E0009000000320AD5005B000100000032002E0019000000320AD500
310
E9000C00000020208378815B835889BA98671C001C0057000000580000005300
310
00005C0000005C0000002D000000320AD5000B04190000004631322020202020
310
20202020202020202020312E362C312E300033002E002E001C001C001C001C00
310
1C001C001C001C001C001C001C001C001C001C001C002E0013002E0013002E00
310
13002E0009000000320A3B015B000100000033002E0010000000320A3B01E900
310
06000000202091A494C21C001C005C0000005C0000002D000000320A3B011404
310
1900000046313220202020202020202020202020202020202020302E36003300
310
2E002E001C001C001C001C001C001C001C001C001C001C001C001C001C001C00
310
1C001C001C001C001C002E0013002E0009000000320AA1015B00010000003400
310
2E0010000000320AA101E9000600000081408CE394C23D0000005C0000005C00
310
00002E000000320AA10111041A00000082653132202020202020202020202020
310
20202020202020302E353A0000002E002E001C001C001C001C001C001C001C00
310
1C001C001C001C001C001C001C001C001C001C001C001C002E0013002E000900
310
0000320A07025B000100000035002E0010000000320A0702E900060000002020
310
89AE8DAA1C001C005C0000005C0000002E000000320A070211041A0000008265
310
313220202020202020202020202020202020202020302E363A0000002E002E00
310
1C001C001C001C001C001C001C001C001C001C001C001C001C001C001C001C00
310
1C001C001C002E0013002E0009000000320A6D025B000100000036002E000D00
310
0000320A6D02E90004000000202094E01C001C005C0000002D000000320A6D02
310
14041900000046313220202020202020202020202020202020202020302E3600
310
33002E002E001C001C001C001C001C001C001C001C001C001C001C001C001C00
310
1C001C001C001C001C001C002E0013002E0009000000320AD3025B0001000000
310
37002E0016000000320AD302E9000A00000020208FB08370836C838B1C001C00
310
5C0000005C000000560000005C0000002D000000320AD3021404190000004631
310
3220202020202020202020202020202020202020302E360033002E002E001C00
310
1C001C001C001C001C001C001C001C001C001C001C001C001C001C001C001C00
310
1C001C002E0013002E0009000000320A39035B000100000038002E0010000000
310
320A3903E900060000002020924994C21C001C005C0000005C0000002D000000
310
320A390314041900000046313220202020202020202020202020202020202020
310
302E360033002E002E001C001C001C001C001C001C001C001C001C001C001C00
310
1C001C001C001C001C001C001C001C002E0013002E003D000000320A9F031400
310
2400000046313281A8976E975A889F899482DF82C182AB8D7C94C220284A4953
310
204720333330322933002E002E005C0000005C0000005C0000005C0000005C00
310
00005A0000004A0000004E0000005C0000005C0000001C001C00320017003700
310
1C003F001C002E002E002E002E001C002B000000320A050414001800000081A6
310
8378815B835892B290AE94CD88CD2081462033326D6D5C000000570000005800
310
0000530000005C0000005C0000005C0000005C0000001C002E0000001C002E00
310
2E004400440010000000FB021200080000000000900100000080010202025379
310
7374656D0080040000002D010100040000002701FFFF030000001E0004000000
310
2D010000050000000102FFFFFF00050000000902000000000700000016046A04
310
61070000000007000000FC020000000000000000040000002D01020004000000
310
04010D00040000000201020009000000FA020000000000000000000022000400
310
00002D010300050000001402000000000500000013029E03000009000000FA02
310
000000000000000000002200040000002D010400090000001D062100F0009E03
310
080000000000040000002D0103000500000014026A0059070500000013029E03
310
5907040000002D010400090000001D062100F000340308006A00590704000000
310
2D0103000500000014020000080005000000130200005E07040000002D010400
310
090000001D062100F0000800560700000800040000002D010300050000001402
310
9603080005000000130296036107040000002D010400090000001D062100F000
310
0800590796030800040000002D010200040000002D010100040000002701FFFF
310
030000001E00040000002D010000050000000102FFFFFF000500000009020000
310
00000700000016046904600700000000040000002701FFFF0300000000000000
310
0000000000000000000000000000000000000000000000000000000000000000
310
0000000000000000000000000000000000000000000000000000000000000000
310
0000000000000000000000000000000000000000000000000000000000000000
310
0000000000000000000000000000000000000000000000000000000000000000
310
0000000000000000000000000000000000000000000000000000000000000000
310
0000000000000000000000000000000000000000000000000000000000000000
310
02004F006C006500500072006500730030003000300000000000000000000000
310
0000000000000000000000000000000000000000000000000000000000000000
310
18000000FFFFFFFFFFFFFFFFFFFFFFFF00000000000000000000000000000000
310
0000000000000000000000000000000000000000FEFFFFFF0000000000000000
310
0000000000000000000000000000000000000000000000000000000000000000
310
0000000000000000000000000000000000000000000000000000000000000000
310
00000000FFFFFFFFFFFFFFFFFFFFFFFF00000000000000000000000000000000
310
0000000000000000000000000000000000000000000000000000000000000000
310
0000000000000000000000000000000000000000000000000000000000000000
310
0000000000000000000000000000000000000000000000000000000000000000
310
00000000FFFFFFFFFFFFFFFFFFFFFFFF00000000000000000000000000000000
310
0000000000000000000000000000000000000000000000000000000000000000
310
0000000000000000000000000000000000000000000000000000000000000000
310
0000000000000000000000000000000000000000000000000000000000000000
310
00000000FFFFFFFFFFFFFFFFFFFFFFFF00000000000000000000000000000000
310
0000000000000000000000000000000000000000000000000000000000000000
310
FFFFFFFF030000000400000001000000FFFFFFFF0200000000000000E6210000
310
91140000101000000100090000030808000006003D0000000000050000000902
310
00000000050000000102FFFFFF000400000004010D0004000000020102000500
310
00000C02C7004801030000001E00040000002701FFFF030000001E0004000000
310
2701FFFF050000000B0200000000030000001E00050000000102FFFFFF000500
310
0000090200000000040000002701FFFF030000001E00050000000102FFFFFF00
310
05000000090200000000070000001604C700480100000000040000002701FFFF
310
030000001E00050000000102FFFFFF0005000000090200000000070000001604
310
C700480100000000040000002701FFFF030000001E00050000000102FFFFFF00
310
05000000090200000000070000001604C70048010100010015000000FB02F1FF
310
00000000000090010000008000000000826C827220826F835383568362834E00
310
8000040000002D0100000400000004010D0004000000020101000D000000320A
310
0300030004000000956994D40F0000000F00000010000000320A030028000600
310
00009594956996BC0F0000000F0000000F00000028000000320A0300AD001600
310
00008DDE97BF288DDE8EBF29202020202020925088CA6D6D0F0000000F000000
310
05000F0000000F00000005000500050005000500050005000F0000000F000000
310
0B000B0009000000320A15000F00010000003100080013000000320A15002800
310
0800000020208378815B8358050005000E0000000E0000000E0000002D000000
310
320A1500B30019000000463132202020202020202020202020202020312E302C
310
312E360008000800080005000500050005000500050005000500050005000500
310
0500050005000500080003000800030008000300080009000000320A27000F00
310
010000003200080019000000320A270028000C00000020208378815B835889BA
310
9867050005000E0000000E0000000E0000000F0000000F0000002D000000320A
310
2700B30019000000463132202020202020202020202020202020312E302C312E
310
3600080008000800050005000500050005000500050005000500050005000500
310
050005000500080003000800030008000300080009000000320A39000F000100
310
00003300080010000000320A3900280006000000202091A494C2050005000F00
310
00000F0000002D000000320A3900B40019000000463132202020202020202020
310
20202020202020202020302E3500080008000800050005000500050005000500
310
0500050005000500050005000500050005000500050005000500080003000800
310
09000000320A4B000F00010000003400080010000000320A4B00280006000000
310
81408CE394C20A0000000F0000000F0000002D000000320A4B00B40019000000
310
46313220202020202020202020202020202020202020302E3500080008000800
310
0500050005000500050005000500050005000500050005000500050005000500
310
05000500050008000300080009000000320A5D000F0001000000350008001000
310
0000320A5D00280006000000202089AE8DAA050005000F0000000F0000002D00
310
0000320A5D00B400190000004631322020202020202020202020202020202020
310
2020302E36000800080008000500050005000500050005000500050005000500
310
05000500050005000500050005000500050008000300080009000000320A6F00
310
0F0001000000360008000D000000320A6F00280004000000202094E005000500
310
0F0000002D000000320A6F00B400190000004631322020202020202020202020
310
2020202020202020302E36000800080008000500050005000500050005000500
310
0500050005000500050005000500050005000500050005000800030008000900
310
0000320A81000F00010000003700080016000000320A810028000A0000002020
310
8FB08370836C838B050005000F0000000F0000000E0000000F0000002D000000
310
320A8100B4001900000046313220202020202020202020202020202020202020
310
302E360008000800080005000500050005000500050005000500050005000500
310
0500050005000500050005000500050008000300080009000000320A93000F00
310
010000003800080018000000320A930028000B0000002020924994C228319687
310
2900050005000F0000000F000000050008000F00000005002D000000320A9300
310
B4001900000046313220202020202020202020202020202020202020302E3600
310
0800080008000500050005000500050005000500050005000500050005000500
310
0500050005000500050005000800030008003D000000320AA500030024000000
310
46313281A8976E975A889F899482DF82C182AB8D7C94C220284A495320472033
310
333032290800080008000F0000000F0000000F0000000F0000000F0000000E00
310
00000C0000000D0000000F0000000F0000000500050008000400090005000A00
310
0500080008000800080005002B000000320AB70003001800000081A68378815B
310
835892B290AE94CD88CD2081462033326D6D0F0000000E0000000E0000000E00
310
00000F0000000F0000000F0000000F0000000500080000000500080008000B00
310
0B0010000000FB0212000800000000009001000000800102020253797374656D
310
0080040000002D010100040000002701FFFF030000001E00040000002D010000
310
050000000102FFFFFF0005000000090200000000070000001604C70048010000
310
000007000000FC020000C0C0C0000000040000002D010200050000000902C0C0
310
C000050000000102C0C0C0000400000004010D00040000000201020009000000
310
FA02000000000000C0C0C0002200040000002D01030009000000FA0200000000
310
0000000000002200040000002D010400090000001D062100F000000001000000
310
0000040000002D010300040000002D010400090000001D062100F00000000100
310
00002500040000002D010300040000002D010400090000001D062100F0000000
310
01000000AA0007000000FC020000000000000000040000002D01050005000000
310
090200000000050000000102FFFFFF0004000000F001030009000000FA020000
310
00000000000000002200040000002D0103000500000014020000010005000000
310
130200004801040000002D010400090000001D062100F0000100470100000100
310
040000002D010200050000000902C0C0C000050000000102C0C0C00004000000
310
F001030009000000FA02000000000000C0C0C0002200040000002D0103000400
310
00002D010400090000001D062100F0000000010000004701040000002D010300
310
0500000014021200010005000000130212004701040000002D01040009000000
310
1D062100F0000100460112000100040000002D01030005000000140224000100
310
05000000130224004701040000002D010400090000001D062100F00001004601
310
24000100040000002D0103000500000014023600010005000000130236004701
310
040000002D010400090000001D062100F0000100460136000100040000002D01
310
03000500000014024800010005000000130248004701040000002D0104000900
310
00001D062100F0000100460148000100040000002D0103000500000014025A00
310
01000500000013025A004701040000002D010400090000001D062100F0000100
310
46015A000100040000002D0103000500000014026C0001000500000013026C00
310
4701040000002D010400090000001D062100F000010046016C00010004000000
310
2D0103000500000014027E0001000500000013027E004701040000002D010400
310
090000001D062100F000010046017E000100040000002D010300050000001402
310
9000010005000000130290004701040000002D010400090000001D062100F000
310
0100460190000100040000002D01050005000000090200000000050000000102
310
FFFFFF0004000000F001030009000000FA020000000000000000000022000400
310
00002D01030005000000140200000000050000001302A3000000040000002D01
310
0400090000001D062100F000A300010000000000040000002D01030005000000
310
1402A2000100050000001302A2004801040000002D010400090000001D062100
310
F00001004701A2000100040000002D0103000500000014020100470105000000
310
1302A3004701040000002D010400090000001D062100F000A200010001004701
310
040000002D010200050000000902C0C0C000050000000102C0C0C00004000000
310
F001030009000000FA02000000000000C0C0C0002200040000002D0103000500
310
0000140201002500050000001302A2002500040000002D010400090000001D06
310
2100F000A100010001002500040000002D0103000500000014020100AA000500
310
00001302A200AA00040000002D010400090000001D062100F000A10001000100
310
AA00040000002D010300050000001402A3000000050000001302C80000000400
310
00002D010400090000001D062100F00025000100A3000000040000002D010300
310
050000001402C7002500050000001302C8002500040000002D01040009000000
310
1D062100F00001000100C7002500040000002D010300050000001402C700AA00
310
050000001302C800AA00040000002D010400090000001D062100F00001000100
310
C700AA00040000002D010300050000001402A3004701050000001302C8004701
310
040000002D010400090000001D062100F00025000100A3004701040000002D01
310
03000500000014020000480105000000130200004901040000002D0104000900
310
00001D062100F0000100010000004801040000002D0103000500000014021200
310
480105000000130212004901040000002D010400090000001D062100F0000100
310
010012004801040000002D010300050000001402240048010500000013022400
310
4901040000002D010400090000001D062100F000010001002400480104000000
310
2D0103000500000014023600480105000000130236004901040000002D010400
310
090000001D062100F0000100010036004801040000002D010300050000001402
310
4800480105000000130248004901040000002D010400090000001D062100F000
310
0100010048004801040000002D0103000500000014025A004801050000001302
310
5A004901040000002D010400090000001D062100F000010001005A0048010400
310
00002D0103000500000014026C0048010500000013026C004901040000002D01
310
0400090000001D062100F000010001006C004801040000002D01030005000000
310
14027E0048010500000013027E004901040000002D010400090000001D062100
310
F000010001007E004801040000002D0103000500000014029000480105000000
310
130290004901040000002D010400090000001D062100F0000100010090004801
310
040000002D010300050000001402A2004801050000001302A200490104000000
310
2D010400090000001D062100F00001000100A2004801040000002D0103000500
310
00001402B4000000050000001302B4004901040000002D010400090000001D06
310
2100F00001004901B4000000040000002D010300050000001402C60000000500
310
00001302C6004901040000002D010400090000001D062100F00001004901C600
310
0000040000002D010500040000002D010100040000002701FFFF030000001E00
310
040000002D010000050000000102C0C0C000050000000902C0C0C00007000000
310
1604C700480101000100040000002701FFFF0300000000000000000000000000
310
0000000000000000000000000000000000000000000000000000000000000000
310
0000000000000000000000000000000000000000000000000000000000000000
310
0000000000000000000000000000000000000000000000000000000000000000
310
0000000000000000000000000000000000000000000000000000000000000000
310
0000000000000000000000000000000000000000000000000000000000000000
310
0000000000000000000000000000000000000000000000000000000000000000
310
0000000000000000000000000000000000000000000000000000000000000000
310
0000000000000000000000000000000000000000000000000000000000000000
310
0000000000000000000000000000000000000000000000000000000000000000
310
0000000000000000000000000000000000000000000000000000000000000000
310
0000000000000000000000000000000000000000000000000000000000000000
310
0000000000000000000000000000000000000000000000000000000000000000
310
0000000000000000000000000000000000000000000000000000000000000000
310
0000000000000000000000000000000000000000000000000000000000000000
  1
OLE
  0
LINE
  5
16C32
330
747D
100
AcDbEntity
  8
部品1
 48
50.0
100
AcDbLine
 10
2883.599999999995
 20
4154.582580843268
 30
0.0
 11
2880.599999999995
 21
4143.582580843268
 31
0.0
  0
LINE
  5
16C33
330
747D
100
AcDbEntity
  8
部品1
 48
50.0
100
AcDbLine
 10
2926.599999999995
 20
4154.582580843268
 30
0.0
 11
2929.599999999995
 21
4143.582580843268
 31
0.0
  0
ARC
  5
16C34
330
747D
100
AcDbEntity
  8
部品1
 48
50.0
100
AcDbCircle
 10
2905.099999999995
 20
4157.082580843268
 30
0.0
 40
5.0
100
AcDbArc
 50
209.9999999999999
 51
330.0000000000001
  0
LINE
  5
16C35
330
747D
100
AcDbEntity
  8
部品1
 48
50.0
100
AcDbLine
 10
2883.599999999995
 20
4154.582580843268
 30
0.0
 11
2900.769872981073
 21
4154.582580843268
 31
0.0
  0
LINE
  5
16C36
330
747D
100
AcDbEntity
  8
部品1
 48
50.0
100
AcDbLine
 10
2909.430127018917
 20
4154.582580843268
 30
0.0
 11
2926.599999999995
 21
4154.582580843268
 31
0.0
  0
LINE
  5
16C3B
330
747D
100
AcDbEntity
  8
部品1
 48
50.0
100
AcDbLine
 10
3403.930127018921
 20
4126.582580843256
 30
0.0
 11
3421.099999999999
 21
4126.582580843256
 31
0.0
  0
LINE
  5
16C3C
330
747D
100
AcDbEntity
  8
部品1
 48
50.0
100
AcDbLine
 10
3421.099999999999
 20
4126.582580843256
 30
0.0
 11
3424.099999999999
 21
4115.582580843256
 31
0.0
  0
LINE
  5
16C3D
330
747D
100
AcDbEntity
  8
部品1
 48
50.0
100
AcDbLine
 10
3378.099999999998
 20
4126.582580843256
 30
0.0
 11
3395.269872981077
 21
4126.582580843256
 31
0.0
  0
LINE
  5
16C3E
330
747D
100
AcDbEntity
  8
部品1
 48
50.0
100
AcDbLine
 10
3378.099999999998
 20
4126.582580843256
 30
0.0
 11
3375.099999999998
 21
4115.582580843256
 31
0.0
  0
ARC
  5
16C3F
330
747D
100
AcDbEntity
  8
部品1
 48
50.0
100
AcDbCircle
 10
3399.599999999999
 20
4129.082580843255
 30
0.0
 40
5.0
100
AcDbArc
 50
209.9999999999999
 51
330.0000000000001
  0
ARC
  5
16E0A
330
747D
100
AcDbEntity
  8
部品1
100
AcDbCircle
 10
2786.056162329468
 20
1725.0
 30
0.0
 40
400.0
100
AcDbArc
 50
352.14583065
 51
7.854036400000027
  0
ARC
  5
16E0B
330
747D
100
AcDbEntity
  8
部品1
100
AcDbCircle
 10
3542.056167819468
 20
1725.0
 30
0.0
 40
400.0
100
AcDbArc
 50
172.14596367
 51
187.85416921
  0
ARC
  5
16E0C
330
747D
100
AcDbEntity
  8
細線
 48
50.0
100
AcDbCircle
 10
2789.024643589468
 20
1726.01738193
 30
0.0
 40
390.0
100
AcDbArc
 50
3.658147749999999
 51
8.386167828959825
  0
ARC
  5
16E0D
330
747D
100
AcDbEntity
  8
細線
 48
50.0
100
AcDbCircle
 10
3539.087692049469
 20
1726.01738193
 30
0.0
 40
390.0
100
AcDbArc
 50
171.6138321297549
 51
176.34185225
  0
LINE
  5
16E0E
330
747D
100
AcDbEntity
  8
細線
 48
50.0
100
AcDbLine
 10
3171.606167819467
 20
1691.449999999999
 30
0.0
 11
3171.606167819468
 21
1697.549999999999
 31
0.0
  0
LINE
  5
16E0F
330
747D
100
AcDbEntity
  8
細線
 48
50.0
100
AcDbLine
 10
3167.056167819468
 20
1697.549999999999
 30
0.0
 11
3166.606167819467
 21
1697.549999999999
 31
0.0
  0
ARC
  5
16E10
330
747D
100
AcDbEntity
  8
細線
 48
50.0
100
AcDbCircle
 10
3177.232052309468
 20
1750.83688665
 30
0.0
 40
1.0
100
AcDbArc
 50
262.50415453
 51
3.658147750000058
  0
ARC
  5
16E11
330
747D
100
AcDbEntity
  8
細線
 48
50.0
100
AcDbCircle
 10
3182.311167719468
 20
1722.0
 30
0.0
 40
0.5
100
AcDbArc
 50
350.66758182
 51
90.0
  0
ARC
  5
16E12
330
747D
100
AcDbEntity
  8
細線
 48
50.0
100
AcDbCircle
 10
3182.311167719468
 20
1728.0
 30
0.0
 40
0.5
100
AcDbArc
 50
270.0
 51
9.332418179999972
  0
ARC
  5
16E13
330
747D
100
AcDbEntity
  8
細線
 48
50.0
100
AcDbCircle
 10
3181.760197629468
 20
1728.25
 30
0.0
 40
1.0
100
AcDbArc
 50
10.40212101
 51
90.0
  0
ARC
  5
16E14
330
747D
100
AcDbEntity
  8
細線
 48
50.0
100
AcDbCircle
 10
3179.698521659468
 20
1730.25
 30
0.0
 40
1.0
100
AcDbArc
 50
198.55300454
 51
270.0
  0
LINE
  5
16E15
330
747D
100
AcDbEntity
  8
細線
 48
50.0
100
AcDbLine
 10
3179.456031449468
 20
1727.5
 30
0.0
 11
3179.456031449468
 21
1722.5
 31
0.0
  0
LINE
  5
16E16
330
747D
100
AcDbEntity
  8
細線
 48
50.0
100
AcDbLine
 10
3181.760197629468
 20
1729.25
 30
0.0
 11
3179.698521659468
 21
1729.25
 31
0.0
  0
LINE
  5
16E17
330
747D
100
AcDbEntity
  8
細線
 48
50.0
100
AcDbLine
 10
3179.456031449468
 20
1722.5
 30
0.0
 11
3182.311167719468
 21
1722.5
 31
0.0
  0
LINE
  5
16E18
330
747D
100
AcDbEntity
  8
細線
 48
50.0
100
AcDbLine
 10
3179.456031449468
 20
1727.5
 30
0.0
 11
3182.311167719468
 21
1727.5
 31
0.0
  0
ARC
  5
16E19
330
747D
100
AcDbEntity
  8
細線
 48
50.0
100
AcDbCircle
 10
3179.698521659468
 20
1719.75
 30
0.0
 40
1.0
100
AcDbArc
 50
90.0
 51
161.44699546
  0
LINE
  5
16E1A
330
747D
100
AcDbEntity
  8
細線
 48
50.0
100
AcDbLine
 10
3181.760197629468
 20
1720.75
 30
0.0
 11
3179.698521659468
 21
1720.75
 31
0.0
  0
ARC
  5
16E1B
330
747D
100
AcDbEntity
  8
細線
 48
50.0
100
AcDbCircle
 10
3177.232052309468
 20
1699.16311335
 30
0.0
 40
1.0
100
AcDbArc
 50
356.34185225
 51
97.49584547000004
  0
ARC
  5
16E1C
330
747D
100
AcDbEntity
  8
細線
 48
50.0
100
AcDbCircle
 10
3181.760197629468
 20
1721.75
 30
0.0
 40
1.0
100
AcDbArc
 50
270.0
 51
349.59787899
  0
LINE
  5
16E1D
330
747D
100
AcDbEntity
  8
細線
 48
50.0
100
AcDbLine
 10
3167.056167819468
 20
1758.5
 30
0.0
 11
3167.056167819468
 21
1758.55
 31
0.0
  0
LINE
  5
16E1E
330
747D
100
AcDbEntity
  8
細線
 48
50.0
100
AcDbLine
 10
3166.556167819468
 20
1748.0
 30
0.0
 11
3166.556167819468
 21
1752.3
 31
0.0
  0
ARC
  5
16E1F
330
747D
100
AcDbEntity
  8
細線
 48
50.0
100
AcDbCircle
 10
3167.606167819468
 20
1751.637592099999
 30
0.0
 40
1.0
100
AcDbArc
 50
180.0
 51
267.98572355
  0
LINE
  5
16E20
330
747D
100
AcDbEntity
  8
細線
 48
50.0
100
AcDbLine
 10
3166.606167819468
 20
1752.45
 30
0.0
 11
3166.606167819468
 21
1751.637592099999
 31
0.0
  0
LINE
  5
16E21
330
747D
100
AcDbEntity
  8
細線
 48
50.0
100
AcDbLine
 10
3171.606167819468
 20
1752.45
 30
0.0
 11
3166.606167819468
 21
1752.45
 31
0.0
  0
ARC
  5
16E22
330
747D
100
AcDbEntity
  8
細線
 48
50.0
100
AcDbCircle
 10
3167.056031449468
 20
1743.25513626
 30
0.0
 40
0.5
100
AcDbArc
 50
80.66758181999999
 51
180.0
  0
LINE
  5
16E23
330
747D
100
AcDbEntity
  8
細線
 48
50.0
100
AcDbLine
 10
3166.556031449468
 20
1740.4
 30
0.0
 11
3166.556031449468
 21
1743.25513626
 31
0.0
  0
ARC
  5
16E24
330
747D
100
AcDbEntity
  8
細線
 48
50.0
100
AcDbCircle
 10
3167.306031449468
 20
1742.70416617
 30
0.0
 40
1.0
100
AcDbArc
 50
0.0
 51
79.59787899
  0
LINE
  5
16E25
330
747D
100
AcDbEntity
  8
細線
 48
50.0
100
AcDbLine
 10
3168.306031449468
 20
1742.70416617
 30
0.0
 11
3168.306031449468
 21
1740.64249021
 31
0.0
  0
ARC
  5
16E26
330
747D
100
AcDbEntity
  8
細線
 48
50.0
100
AcDbCircle
 10
3169.306031449468
 20
1740.64249021
 30
0.0
 40
1.0
100
AcDbArc
 50
180.0
 51
251.44699546
  0
ARC
  5
16E27
330
747D
100
AcDbEntity
  8
細線
 48
50.0
100
AcDbCircle
 10
3165.556167819469
 20
1748.0
 30
0.0
 40
1.0
100
AcDbArc
 50
270.0
 51
0.0
  0
LINE
  5
16E28
330
747D
100
AcDbEntity
  8
細線
 48
50.0
100
AcDbLine
 10
3161.556167819468
 20
1748.0
 30
0.0
 11
3161.556167819468
 21
1752.3
 31
0.0
  0
LINE
  5
16E29
330
747D
100
AcDbEntity
  8
細線
 48
50.0
100
AcDbLine
 10
3161.506167819468
 20
1752.45
 30
0.0
 11
3161.506167819468
 21
1751.637592099999
 31
0.0
  0
LINE
  5
16E2A
330
747D
100
AcDbEntity
  8
細線
 48
50.0
100
AcDbLine
 10
3161.556031449468
 20
1740.4
 30
0.0
 11
3161.556031449468
 21
1743.25513626
 31
0.0
  0
LINE
  5
16E2B
330
747D
100
AcDbEntity
  8
細線
 48
50.0
100
AcDbLine
 10
3161.556031449468
 20
1740.4
 30
0.0
 11
3166.556031449468
 21
1740.4
 31
0.0
  0
LINE
  5
16E2C
330
747D
100
AcDbEntity
  8
細線
 48
50.0
100
AcDbLine
 10
3165.556167819469
 20
1747.0
 30
0.0
 11
3162.556167819468
 21
1747.0
 31
0.0
  0
LINE
  5
16E2D
330
747D
100
AcDbEntity
  8
細線
 48
50.0
100
AcDbLine
 10
3165.306561329468
 20
1729.99972446
 30
0.0
 11
3162.806561329468
 21
1729.99972446
 31
0.0
  0
LINE
  5
16E2E
330
747D
100
AcDbEntity
  8
細線
 48
50.0
100
AcDbLine
 10
3171.606167819468
 20
1758.55
 30
0.0
 11
3171.606167819468
 21
1752.45
 31
0.0
  0
ARC
  5
16E2F
330
747D
100
AcDbEntity
  8
細線
 48
50.0
100
AcDbCircle
 10
3167.306031449468
 20
1707.29583382
 30
0.0
 40
1.0
100
AcDbArc
 50
280.40212101
 51
0.0
  0
LINE
  5
16E30
330
747D
100
AcDbEntity
  8
細線
 48
50.0
100
AcDbLine
 10
3168.306031449468
 20
1707.29583382
 30
0.0
 11
3168.306031449468
 21
1709.35750979
 31
0.0
  0
ARC
  5
16E31
330
747D
100
AcDbEntity
  8
細線
 48
50.0
100
AcDbCircle
 10
3169.306031449468
 20
1709.35750979
 30
0.0
 40
1.0
100
AcDbArc
 50
108.55300454
 51
180.0
  0
LINE
  5
16E32
330
747D
100
AcDbEntity
  8
細線
 48
50.0
100
AcDbLine
 10
3165.306561329468
 20
1719.99972446
 30
0.0
 11
3162.806561329468
 21
1719.99972446
 31
0.0
  0
ARC
  5
16E33
330
747D
100
AcDbEntity
  8
細線
 48
50.0
100
AcDbCircle
 10
3167.606167819468
 20
1698.362407889999
 30
0.0
 40
1.0
100
AcDbArc
 50
92.01427645
 51
180.0
  0
LINE
  5
16E34
330
747D
100
AcDbEntity
  8
細線
 48
50.0
100
AcDbLine
 10
3166.606167819468
 20
1697.549999999999
 30
0.0
 11
3166.606167819468
 21
1698.362407889999
 31
0.0
  0
ARC
  5
16E35
330
747D
100
AcDbEntity
  8
細線
 48
50.0
100
AcDbCircle
 10
3165.556167819469
 20
1702.0
 30
0.0
 40
1.0
100
AcDbArc
 50
0.0
 51
90.0
  0
LINE
  5
16E36
330
747D
100
AcDbEntity
  8
細線
 48
50.0
100
AcDbLine
 10
3166.556167819468
 20
1702.0
 30
0.0
 11
3166.556167819468
 21
1697.7
 31
0.0
  0
LINE
  5
16E37
330
747D
100
AcDbEntity
  8
細線
 48
50.0
100
AcDbLine
 10
3166.606167819468
 20
1697.549999999999
 30
0.0
 11
3171.606167819468
 21
1697.549999999999
 31
0.0
  0
LINE
  5
16E38
330
747D
100
AcDbEntity
  8
細線
 48
50.0
100
AcDbLine
 10
3161.506167819468
 20
1697.549999999999
 30
0.0
 11
3161.506167819468
 21
1698.362407889999
 31
0.0
  0
LINE
  5
16E39
330
747D
100
AcDbEntity
  8
細線
 48
50.0
100
AcDbLine
 10
3161.556167819468
 20
1702.0
 30
0.0
 11
3161.556167819468
 21
1697.7
 31
0.0
  0
LINE
  5
16E3A
330
747D
100
AcDbEntity
  8
細線
 48
50.0
100
AcDbLine
 10
3162.556167819468
 20
1703.0
 30
0.0
 11
3165.556167819469
 21
1703.0
 31
0.0
  0
ARC
  5
16E3B
330
747D
100
AcDbEntity
  8
細線
 48
50.0
100
AcDbCircle
 10
3163.825596719468
 20
1724.99986223
 30
0.0
 40
4.86447736
100
AcDbArc
 50
287.72427684
 51
72.27572315999998
  0
LINE
  5
16E3C
330
747D
100
AcDbEntity
  8
細線
 48
50.0
100
AcDbLine
 10
3162.806561329468
 20
1719.99972446
 30
0.0
 11
3162.806561329468
 21
1729.99972446
 31
0.0
  0
LINE
  5
16E3D
330
747D
100
AcDbEntity
  8
細線
 48
50.0
100
AcDbLine
 10
3165.306561329468
 20
1719.99972446
 30
0.0
 11
3165.306561329468
 21
1729.99972446
 31
0.0
  0
ARC
  5
16E3E
330
747D
100
AcDbEntity
  8
細線
 48
50.0
100
AcDbCircle
 10
3164.056031449468
 20
1725.0
 30
0.0
 40
15.5
100
AcDbArc
 50
288.55300454
 51
341.44699546
  0
ARC
  5
16E3F
330
747D
100
AcDbEntity
  8
細線
 48
50.0
100
AcDbCircle
 10
3164.056031449468
 20
1725.0
 30
0.0
 40
15.5
100
AcDbArc
 50
18.55300454
 51
71.44699546
  0
ARC
  5
16E40
330
747D
100
AcDbEntity
  8
細線
 48
50.0
100
AcDbCircle
 10
3164.056167819468
 20
1799.3
 30
0.0
 40
100.0
100
AcDbArc
 50
272.01427645
 51
277.49584547
  0
ARC
  5
16E41
330
747D
100
AcDbEntity
  8
細線
 48
50.0
100
AcDbCircle
 10
3164.056167819468
 20
1650.7
 30
0.0
 40
100.0
100
AcDbArc
 50
82.50415453
 51
87.98572355000001
  0
ARC
  5
16E42
330
747D
100
AcDbEntity
  8
部品1
100
AcDbCircle
 10
3164.056167819468
 20
1763.49955336
 30
0.0
 40
97.0
100
AcDbArc
 50
276.39156482
 51
279.35251214
  0
ARC
  5
16E43
330
747D
100
AcDbEntity
  8
部品1
100
AcDbCircle
 10
3179.331940119468
 20
1670.74907745
 30
0.0
 40
3.0
100
AcDbArc
 50
279.35251214
 51
352.14583065
  0
ARC
  5
16E44
330
747D
100
AcDbEntity
  8
細線
 48
50.0
100
AcDbCircle
 10
2789.024643589468
 20
1723.98261806
 30
0.0
 40
390.0
100
AcDbArc
 50
351.6136975214182
 51
356.3418522549218
  0
ARC
  5
16E45
330
747D
100
AcDbEntity
  8
部品1
100
AcDbCircle
 10
3173.519828699468
 20
1664.95336574
 30
0.0
 40
1.0
100
AcDbArc
 50
275.48542473
 51
351.27186792
  0
ARC
  5
16E46
330
747D
100
AcDbEntity
  8
部品1
100
AcDbCircle
 10
2789.024643589468
 20
1723.98261806
 30
0.0
 40
390.0
100
AcDbArc
 50
351.27186792
 51
351.6136975214182
  0
ARC
  5
16E47
330
747D
100
AcDbEntity
  8
細線
 48
50.0
100
AcDbCircle
 10
3148.413541239468
 20
1730.25
 30
0.0
 40
1.0
100
AcDbArc
 50
270.0
 51
341.44699546
  0
ARC
  5
16E48
330
747D
100
AcDbEntity
  8
細線
 48
50.0
100
AcDbCircle
 10
3164.056031449468
 20
1725.0
 30
0.0
 40
15.5
100
AcDbArc
 50
108.55300454
 51
161.44699546
  0
ARC
  5
16E49
330
747D
100
AcDbEntity
  8
細線
 48
50.0
100
AcDbCircle
 10
3148.413541239468
 20
1719.75
 30
0.0
 40
1.0
100
AcDbArc
 50
18.55300454
 51
90.0
  0
ARC
  5
16E4A
330
747D
100
AcDbEntity
  8
細線
 48
50.0
100
AcDbCircle
 10
3164.056031449468
 20
1725.0
 30
0.0
 40
15.5
100
AcDbArc
 50
198.55300454
 51
251.44699546
  0
LINE
  5
16E4B
330
747D
100
AcDbEntity
  8
細線
 48
50.0
100
AcDbLine
 10
3146.351865279468
 20
1729.25
 30
0.0
 11
3148.413541239468
 21
1729.25
 31
0.0
  0
ARC
  5
16E4C
330
747D
100
AcDbEntity
  8
細線
 48
50.0
100
AcDbCircle
 10
3146.351865279468
 20
1728.25
 30
0.0
 40
1.0
100
AcDbArc
 50
90.0
 51
169.59787899
  0
LINE
  5
16E4D
330
747D
100
AcDbEntity
  8
細線
 48
50.0
100
AcDbLine
 10
3146.351865279468
 20
1720.75
 30
0.0
 11
3148.413541239468
 21
1720.75
 31
0.0
  0
ARC
  5
16E4E
330
747D
100
AcDbEntity
  8
細線
 48
50.0
100
AcDbCircle
 10
3146.351865279468
 20
1721.75
 30
0.0
 40
1.0
100
AcDbArc
 50
190.4021210099999
 51
270.0
  0
ARC
  5
16E4F
330
747D
100
AcDbEntity
  8
細線
 48
50.0
100
AcDbCircle
 10
3158.806031449468
 20
1740.64249021
 30
0.0
 40
1.0
100
AcDbArc
 50
288.55300454
 51
0.0
  0
ARC
  5
16E50
330
747D
100
AcDbEntity
  8
細線
 48
50.0
100
AcDbCircle
 10
3160.806031449468
 20
1742.70416617
 30
0.0
 40
1.0
100
AcDbArc
 50
100.40212101
 51
180.0
  0
LINE
  5
16E51
330
747D
100
AcDbEntity
  8
細線
 48
50.0
100
AcDbLine
 10
3159.806031449468
 20
1742.70416617
 30
0.0
 11
3159.806031449468
 21
1740.64249021
 31
0.0
  0
ARC
  5
16E52
330
747D
100
AcDbEntity
  8
細線
 48
50.0
100
AcDbCircle
 10
3150.880283319468
 20
1750.83688665
 30
0.0
 40
1.0
100
AcDbArc
 50
176.34185225
 51
277.49584547
  0
ARC
  5
16E53
330
747D
100
AcDbEntity
  8
細線
 48
50.0
100
AcDbCircle
 10
3164.056167819468
 20
1650.7
 30
0.0
 40
100.0
100
AcDbArc
 50
92.01427645
 51
97.49584547000001
  0
LINE
  5
16E54
330
747D
100
AcDbEntity
  8
細線
 48
50.0
100
AcDbLine
 10
3156.506167819468
 20
1758.55
 30
0.0
 11
3156.506167819468
 21
1752.45
 31
0.0
  0
ARC
  5
16E55
330
747D
100
AcDbEntity
  8
細線
 48
50.0
100
AcDbCircle
 10
3158.806031449468
 20
1709.35750979
 30
0.0
 40
1.0
100
AcDbArc
 50
0.0
 51
71.44699546
  0
ARC
  5
16E56
330
747D
100
AcDbEntity
  8
細線
 48
50.0
100
AcDbCircle
 10
3160.806031449468
 20
1707.29583382
 30
0.0
 40
1.0
100
AcDbArc
 50
180.0
 51
259.59787899
  0
LINE
  5
16E57
330
747D
100
AcDbEntity
  8
細線
 48
50.0
100
AcDbLine
 10
3159.806031449468
 20
1707.29583382
 30
0.0
 11
3159.806031449468
 21
1709.35750979
 31
0.0
  0
LINE
  5
16E58
330
747D
100
AcDbEntity
  8
細線
 48
50.0
100
AcDbLine
 10
3156.506167819468
 20
1691.449999999999
 30
0.0
 11
3156.506167819468
 21
1697.549999999999
 31
0.0
  0
ARC
  5
16E59
330
747D
100
AcDbEntity
  8
細線
 48
50.0
100
AcDbCircle
 10
3150.880283319468
 20
1699.16311335
 30
0.0
 40
1.0
100
AcDbArc
 50
82.50415453
 51
183.65814775
  0
ARC
  5
16E5A
330
747D
100
AcDbEntity
  8
細線
 48
50.0
100
AcDbCircle
 10
3164.056167819468
 20
1799.3
 30
0.0
 40
100.0
100
AcDbArc
 50
262.50415453
 51
267.98572355
  0
ARC
  5
16E5B
330
747D
100
AcDbEntity
  8
部品1
100
AcDbCircle
 10
3164.056167819468
 20
1763.49955336
 30
0.0
 40
97.0
100
AcDbArc
 50
260.64748439
 51
263.60843518
  0
ARC
  5
16E5C
330
747D
100
AcDbEntity
  8
部品1
100
AcDbCircle
 10
3148.780389889469
 20
1670.74907838
 30
0.0
 40
3.0
100
AcDbArc
 50
187.85416921
 51
260.64748439
  0
ARC
  5
16E5D
330
747D
100
AcDbEntity
  8
細線
 48
50.0
100
AcDbCircle
 10
3539.087692049469
 20
1723.98261806
 30
0.0
 40
390.0
100
AcDbArc
 50
183.6581281377828
 51
188.3863024783845
  0
ARC
  5
16E5E
330
747D
100
AcDbEntity
  8
部品1
100
AcDbCircle
 10
3154.592506939468
 20
1664.95336574
 30
0.0
 40
1.0
100
AcDbArc
 50
188.72813208
 51
264.51457527
  0
ARC
  5
16E5F
330
747D
100
AcDbEntity
  8
部品1
100
AcDbCircle
 10
3539.087692049469
 20
1723.98261806
 30
0.0
 40
390.0
100
AcDbArc
 50
188.3863024783845
 51
188.72813208
  0
CIRCLE
  5
16E60
330
747D
100
AcDbEntity
  8
細線
 48
50.0
100
AcDbCircle
 10
3164.056167819468
 20
1725.0
 30
0.0
 40
19.0
  0
LINE
  5
16E61
330
747D
100
AcDbEntity
  8
細線
 48
50.0
100
AcDbLine
 10
3171.606167819468
 20
1758.55
 30
0.0
 11
3156.506167819468
 21
1758.55
 31
0.0
  0
ARC
  5
16E62
330
747D
100
AcDbEntity
  8
細線
 48
50.0
100
AcDbCircle
 10
3160.506167819468
 20
1751.637592099999
 30
0.0
 40
1.0
100
AcDbArc
 50
272.01427645
 51
0.0
  0
LINE
  5
16E63
330
747D
100
AcDbEntity
  8
細線
 48
50.0
100
AcDbLine
 10
3161.506167819468
 20
1752.45
 30
0.0
 11
3156.506167819468
 21
1752.45
 31
0.0
  0
ARC
  5
16E64
330
747D
100
AcDbEntity
  8
細線
 48
50.0
100
AcDbCircle
 10
3161.056031449468
 20
1743.25513626
 30
0.0
 40
0.5
100
AcDbArc
 50
0.0
 51
99.33241818000002
  0
ARC
  5
16E65
330
747D
100
AcDbEntity
  8
細線
 48
50.0
100
AcDbCircle
 10
3162.556167819468
 20
1748.0
 30
0.0
 40
1.0
100
AcDbArc
 50
180.0
 51
270.0
  0
ARC
  5
16E66
330
747D
100
AcDbEntity
  8
細線
 48
50.0
100
AcDbCircle
 10
3164.056031449468
 20
1725.0
 30
0.0
 40
19.0
100
AcDbArc
 50
80.66758181999999
 51
99.08782902000002
  0
ARC
  5
16E67
330
747D
100
AcDbEntity
  8
細線
 48
50.0
100
AcDbCircle
 10
3160.506167819468
 20
1698.362407889999
 30
0.0
 40
1.0
100
AcDbArc
 50
0.0
 51
87.98572355000001
  0
ARC
  5
16E68
330
747D
100
AcDbEntity
  8
細線
 48
50.0
100
AcDbCircle
 10
3162.556167819468
 20
1702.0
 30
0.0
 40
1.0
100
AcDbArc
 50
90.0
 51
180.0
  0
LINE
  5
16E69
330
747D
100
AcDbEntity
  8
細線
 48
50.0
100
AcDbLine
 10
3156.506167819468
 20
1697.549999999999
 30
0.0
 11
3161.506167819468
 21
1697.549999999999
 31
0.0
  0
LINE
  5
16E6A
330
747D
100
AcDbEntity
  8
細線
 48
50.0
100
AcDbLine
 10
3156.506167819468
 20
1691.449999999999
 30
0.0
 11
3171.606167819468
 21
1691.449999999999
 31
0.0
  0
CIRCLE
  5
16E6B
330
747D
100
AcDbEntity
  8
細線
 48
50.0
100
AcDbCircle
 10
3164.056167819468
 20
1725.0
 30
0.0
 40
10.75
  0
ARC
  5
16E6C
330
747D
100
AcDbEntity
  8
部品1
100
AcDbCircle
 10
3164.056167819468
 20
1763.5
 30
0.0
 40
100.0
100
AcDbArc
 50
264.51457527
 51
275.48542473
  0
ARC
  5
16E6D
330
747D
100
AcDbEntity
  8
部品1
100
AcDbCircle
 10
3164.056166589468
 20
1686.49955501
 30
0.0
 40
97.0
100
AcDbArc
 50
80.64740934000001
 51
83.608355
  0
ARC
  5
16E6E
330
747D
100
AcDbEntity
  8
部品1
100
AcDbCircle
 10
3173.519828699468
 20
1785.04663425
 30
0.0
 40
1.0
100
AcDbArc
 50
8.728132079999999
 51
84.51457527
  0
ARC
  5
16E6F
330
747D
100
AcDbEntity
  8
部品1
100
AcDbCircle
 10
2789.024643589468
 20
1726.01738193
 30
0.0
 40
390.0
100
AcDbArc
 50
8.386167828959825
 51
8.728132079999999
  0
ARC
  5
16E70
330
747D
100
AcDbEntity
  8
部品1
100
AcDbCircle
 10
3164.056166589468
 20
1686.49955501
 30
0.0
 40
97.0
100
AcDbArc
 50
96.39164352000001
 51
99.35259259
  0
ARC
  5
16E71
330
747D
100
AcDbEntity
  8
部品1
100
AcDbCircle
 10
3154.592506939468
 20
1785.04663425
 30
0.0
 40
1.0
100
AcDbArc
 50
95.48542473000001
 51
171.27186792
  0
ARC
  5
16E72
330
747D
100
AcDbEntity
  8
部品1
100
AcDbCircle
 10
3539.087692049469
 20
1726.01738193
 30
0.0
 40
390.0
100
AcDbArc
 50
171.27186792
 51
171.6138321297549
  0
ARC
  5
16E73
330
747D
100
AcDbEntity
  8
部品1
100
AcDbCircle
 10
3164.056167819468
 20
1686.5
 30
0.0
 40
100.0
100
AcDbArc
 50
84.51457527
 51
95.48542473000001
  0
ARC
  5
16E74
330
747D
100
AcDbEntity
  8
部品1
100
AcDbCircle
 10
3148.780264059468
 20
1779.25000947
 30
0.0
 40
3.0
100
AcDbArc
 50
99.35259259
 51
172.14596367
  0
ARC
  5
16E75
330
747D
100
AcDbEntity
  8
部品1
100
AcDbCircle
 10
3179.332066009468
 20
1779.25000998
 30
0.0
 40
3.0
100
AcDbArc
 50
7.8540364
 51
80.64740934000001
  0
ENDSEC
  0
SECTION
  2
OBJECTS
  0
DICTIONARY
  5
7471
330
0
100
AcDbDictionary
281
     1
  3
ACAD_COLOR
350
16E83
  3
ACAD_GROUP
350
7472
  3
ACAD_LAYOUT
350
16E84
  3
ACAD_MATERIAL
350
16E82
  3
ACAD_MLINESTYLE
350
7473
  3
ACAD_PLOTSETTINGS
350
16E85
  3
ACAD_PLOTSTYLENAME
350
16E80
  3
ACDBHEADERROUNDTRIPXREC
350
16E92
  3
AcDbVariableDictionary
350
16E8E
  3
CONTENTDICTIONARY
350
E71C
  3
DRAWINGVARIABLESDICT
350
F3B9
  0
DICTIONARY
  5
16E83
102
{ACAD_REACTORS
330
7471
102
}
330
7471
100
AcDbDictionary
281
     1
  0
DICTIONARY
  5
7472
102
{ACAD_REACTORS
330
7471
102
}
330
7471
100
AcDbDictionary
281
     1
  0
DICTIONARY
  5
16E84
102
{ACAD_REACTORS
330
7471
102
}
330
7471
100
AcDbDictionary
281
     1
  3
Model
350
16E86
  3
レイアウト1
350
16E87
  0
DICTIONARY
  5
16E82
102
{ACAD_REACTORS
330
7471
102
}
330
7471
100
AcDbDictionary
281
     1
  0
DICTIONARY
  5
7473
102
{ACAD_REACTORS
330
7471
102
}
330
7471
100
AcDbDictionary
281
     1
  3
STANDARD
350
7480
  0
DICTIONARY
  5
16E85
102
{ACAD_REACTORS
330
7471
102
}
330
7471
100
AcDbDictionary
281
     1
  0
ACDBDICTIONARYWDFLT
  5
16E80
102
{ACAD_REACTORS
330
7471
102
}
330
7471
100
AcDbDictionary
281
     1
  3
Normal
350
16E81
100
AcDbDictionaryWithDefault
340
16E81
  0
DICTIONARY
  5
16E92
102
{ACAD_REACTORS
330
7471
102
}
330
7471
100
AcDbDictionary
281
     1
  3
COLORDICT
350
16E94
  3
MATERIALDICT
350
16E93
  0
DICTIONARY
  5
16E8E
102
{ACAD_REACTORS
330
7471
102
}
330
7471
100
AcDbDictionary
281
     1
  3
DIMASSOC
350
16E8F
  3
PROJECTNAME
350
16E90
  0
DICTIONARY
  5
E71C
102
{ACAD_REACTORS
330
7471
102
}
330
7471
100
AcDbDictionary
281
     1
  0
DICTIONARY
  5
F3B9
102
{ACAD_REACTORS
330
7471
102
}
330
7471
100
AcDbDictionary
281
     1
1001
DRAWINGVARIABLESXDATA
1000
POLARMODE
1000
1
  0
LAYOUT
  5
16E86
102
{ACAD_XDICTIONARY
360
16E95
102
}
102
{ACAD_REACTORS
330
16E84
102
}
330
16E84
100
AcDbPlotSettings
  1

  2
Microsoft Office Document Image Writer
  4

  6

 40
0.0
 41
0.0
 42
0.0
 43
0.0
 44
0.0
 45
0.0
 46
0.0
 47
0.0
 48
0.0
 49
0.0
140
0.0
141
0.0
142
1.0
143
1.0
 70
  1712
 72
     0
 73
     0
 74
     0
  7

 75
     0
147
1.0
148
0.0
149
0.0
100
AcDbLayout
  1
Model
 70
     1
 71
     0
 10
0.0
 20
0.0
 11
12.0
 21
9.0
 12
0.0
 22
0.0
 32
0.0
 14
0.0
 24
0.0
 34
0.0
 15
0.0
 25
0.0
 35
0.0
146
0.0
 13
0.0
 23
0.0
 33
0.0
 16
1.0
 26
0.0
 36
0.0
 17
0.0
 27
1.0
 37
0.0
 76
     0
330
747D
  0
LAYOUT
  5
16E87
102
{ACAD_XDICTIONARY
360
16E97
102
}
102
{ACAD_REACTORS
330
16E84
102
}
330
16E84
100
AcDbPlotSettings
  1

  2
Microsoft Office Document Image Writer
  4

  6

 40
0.0
 41
0.0
 42
0.0
 43
0.0
 44
0.0
 45
0.0
 46
0.0
 47
0.0
 48
0.0
 49
0.0
140
0.0
141
0.0
142
1.0
143
1.0
 70
   688
 72
     0
 73
     0
 74
     5
  7

 75
    16
147
1.0
148
0.0
149
0.0
100
AcDbLayout
  1
レイアウト1
 70
     0
 71
     1
 10
0.0
 20
0.0
 11
420.0
 21
297.0
 12
0.0
 22
0.0
 32
0.0
 14
1.000000000000000E+20
 24
1.000000000000000E+20
 34
1.000000000000000E+20
 15
-1.000000000000000E+20
 25
-1.000000000000000E+20
 35
-1.000000000000000E+20
146
0.0
 13
0.0
 23
0.0
 33
0.0
 16
1.0
 26
0.0
 36
0.0
 17
0.0
 27
1.0
 37
0.0
 76
     0
330
747A
  0
MLINESTYLE
  5
7480
102
{ACAD_REACTORS
330
7473
102
}
330
7473
100
AcDbMlineStyle
  2
STANDARD
 70
     0
  3

 62
     0
 51
90.0
 52
90.0
 71
     2
 49
0.5
 62
   256
  6
BYLAYER
 49
-0.5
 62
   256
  6
BYLAYER
  0
ACDBPLACEHOLDER
  5
16E81
102
{ACAD_REACTORS
330
16E80
102
}
330
16E80
  0
XRECORD
  5
16E94
102
{ACAD_REACTORS
330
16E92
102
}
330
16E92
100
AcDbXrecord
280
     1
340
16E83
  0
XRECORD
  5
16E93
102
{ACAD_REACTORS
330
16E92
102
}
330
16E92
100
AcDbXrecord
280
     1
340
16E82
  0
DICTIONARYVAR
  5
16E8F
102
{ACAD_REACTORS
330
16E8E
102
}
330
16E8E
100
DictionaryVariables
280
     0
  1
1
  0
DICTIONARYVAR
  5
16E90
102
{ACAD_REACTORS
330
16E8E
102
}
330
16E8E
100
DictionaryVariables
280
     0
  1

  0
DICTIONARY
  5
16E95
330
16E86
100
AcDbDictionary
280
     1
281
     1
  3
ACAD_XREC_ROUNDTRIP
360
16E96
  0
DICTIONARY
  5
16E97
330
16E87
100
AcDbDictionary
280
     1
281
     1
  3
ACAD_XREC_ROUNDTRIP
360
16E98
  0
XRECORD
  5
16E96
102
{ACAD_REACTORS
330
16E95
102
}
330
16E95
100
AcDbXrecord
280
     1
102
SHADEPLOT
 70
     0
102
SHADEPLOTRESLEVEL
 70
     2
102
SHADEPLOTCUSTOMDPI
 70
   300
  0
XRECORD
  5
16E98
102
{ACAD_REACTORS
330
16E97
102
}
330
16E97
100
AcDbXrecord
280
     1
102
SHADEPLOT
 70
     0
102
SHADEPLOTRESLEVEL
 70
     2
102
SHADEPLOTCUSTOMDPI
 70
   300
  0
ENDSEC
  0
EOF
