  0
SECTION
  2
HEADER
  9
$ACADVER
  1
AC1015
  9
$ACADMAINTVER
 70
    20
  9
$DWGCODEPAGE
  3
ANSI_932
  9
$INSBASE
 10
0.0
 20
0.0
 30
0.0
  9
$EXTMIN
 10
104.9999999999996
 20
0.0
 30
-0.000000000000296
  9
$EXTMAX
 10
12230.40000000001
 20
8557.199999999999
 30
0.0000000000002935
  9
$LIMMIN
 10
0.0
 20
0.0
  9
$LIMMAX
 10
12600.0
 20
8910.0
  9
$ORTHOMODE
 70
     0
  9
$REGENMODE
 70
     1
  9
$FILLMODE
 70
     1
  9
$QTEXTMODE
 70
     0
  9
$MIRRTEXT
 70
     1
  9
$LTSCALE
 40
7.0
  9
$ATTMODE
 70
     1
  9
$TEXTSIZE
 40
100.0
  9
$TRACEWID
 40
1.0
  9
$TEXTSTYLE
  7
STYLE3
  9
$CLAYER
  8
点線
  9
$CELTYPE
  6
BYLAYER
  9
$CECOLOR
 62
   256
  9
$CELTSCALE
 40
50.0
  9
$DISPSILH
 70
     0
  9
$DIMSCALE
 40
30.0
  9
$DIMASZ
 40
2.5
  9
$DIMEXO
 40
0.5
  9
$DIMDLI
 40
7.0
  9
$DIMRND
 40
0.0
  9
$DIMDLE
 40
0.0
  9
$DIMEXE
 40
1.5
  9
$DIMTP
 40
0.0
  9
$DIMTM
 40
0.0
  9
$DIMTXT
 40
3.0
  9
$DIMCEN
 40
0.0
  9
$DIMTSZ
 40
0.0
  9
$DIMTOL
 70
     0
  9
$DIMLIM
 70
     0
  9
$DIMTIH
 70
     1
  9
$DIMTOH
 70
     1
  9
$DIMSE1
 70
     0
  9
$DIMSE2
 70
     0
  9
$DIMTAD
 70
     3
  9
$DIMZIN
 70
     8
  9
$DIMBLK
  1

  9
$DIMASO
 70
     1
  9
$DIMSHO
 70
     1
  9
$DIMPOST
  1

  9
$DIMAPOST
  1

  9
$DIMALT
 70
     0
  9
$DIMALTD
 70
     2
  9
$DIMALTF
 40
0.0394
  9
$DIMLFAC
 40
1.0
  9
$DIMTOFL
 70
     1
  9
$DIMTVP
 40
0.0
  9
$DIMTIX
 70
     1
  9
$DIMSOXD
 70
     1
  9
$DIMSAH
 70
     1
  9
$DIMBLK1
  1
DOTSMALL
  9
$DIMBLK2
  1
DOTSMALL
  9
$DIMSTYLE
  2
INABA_S30G
  9
$DIMCLRD
 70
     0
  9
$DIMCLRE
 70
     0
  9
$DIMCLRT
 70
     7
  9
$DIMTFAC
 40
1.0
  9
$DIMGAP
 40
1.0
  9
$DIMJUST
 70
     0
  9
$DIMSD1
 70
     0
  9
$DIMSD2
 70
     0
  9
$DIMTOLJ
 70
     1
  9
$DIMTZIN
 70
     0
  9
$DIMALTZ
 70
     0
  9
$DIMALTTZ
 70
     0
  9
$DIMUPT
 70
     0
  9
$DIMDEC
 70
     1
  9
$DIMTDEC
 70
     1
  9
$DIMALTU
 70
     2
  9
$DIMALTTD
 70
     2
  9
$DIMTXSTY
  7
STYLE1
  9
$DIMAUNIT
 70
     0
  9
$DIMADEC
 70
     0
  9
$DIMALTRND
 40
0.0
  9
$DIMAZIN
 70
     0
  9
$DIMDSEP
 70
    46
  9
$DIMATFIT
 70
     3
  9
$DIMFRAC
 70
     0
  9
$DIMLDRBLK
  1

  9
$DIMLUNIT
 70
     2
  9
$DIMLWD
 70
    -2
  9
$DIMLWE
 70
    -2
  9
$DIMTMOVE
 70
     0
  9
$LUNITS
 70
     2
  9
$LUPREC
 70
     1
  9
$SKETCHINC
 40
1.0
  9
$FILLETRAD
 40
5.0
  9
$AUNITS
 70
     0
  9
$AUPREC
 70
     0
  9
$MENU
  1
acad
  9
$ELEVATION
 40
0.0
  9
$PELEVATION
 40
0.0
  9
$THICKNESS
 40
0.0
  9
$LIMCHECK
 70
     0
  9
$CHAMFERA
 40
0.0
  9
$CHAMFERB
 40
0.0
  9
$CHAMFERC
 40
0.0
  9
$CHAMFERD
 40
0.0
  9
$SKPOLY
 70
     0
  9
$TDCREATE
 40
2451074.411873148
  9
$TDUCREATE
 40
2451074.036873148
  9
$TDUPDATE
 40
2455957.455252813
  9
$TDUUPDATE
 40
2455957.080252813
  9
$TDINDWG
 40
0.3306435069
  9
$TDUSRTIMER
 40
0.3306435069
  9
$USRTIMER
 70
     1
  9
$ANGBASE
 50
0.0
  9
$ANGDIR
 70
     0
  9
$PDMODE
 70
     3
  9
$PDSIZE
 40
2.0
  9
$PLINEWID
 40
0.0
  9
$SPLFRAME
 70
     0
  9
$SPLINETYPE
 70
     6
  9
$SPLINESEGS
 70
     8
  9
$HANDSEED
  5
141B4
  9
$SURFTAB1
 70
     6
  9
$SURFTAB2
 70
     6
  9
$SURFTYPE
 70
     6
  9
$SURFU
 70
     6
  9
$SURFV
 70
     6
  9
$UCSBASE
  2

  9
$UCSNAME
  2

  9
$UCSORG
 10
0.0
 20
0.0
 30
0.0
  9
$UCSXDIR
 10
1.0
 20
0.0
 30
0.0
  9
$UCSYDIR
 10
0.0
 20
1.0
 30
0.0
  9
$UCSORTHOREF
  2

  9
$UCSORTHOVIEW
 70
     0
  9
$UCSORGTOP
 10
0.0
 20
0.0
 30
0.0
  9
$UCSORGBOTTOM
 10
0.0
 20
0.0
 30
0.0
  9
$UCSORGLEFT
 10
0.0
 20
0.0
 30
0.0
  9
$UCSORGRIGHT
 10
0.0
 20
0.0
 30
0.0
  9
$UCSORGFRONT
 10
0.0
 20
0.0
 30
0.0
  9
$UCSORGBACK
 10
0.0
 20
0.0
 30
0.0
  9
$PUCSBASE
  2

  9
$PUCSNAME
  2

  9
$PUCSORG
 10
0.0
 20
0.0
 30
0.0
  9
$PUCSXDIR
 10
1.0
 20
0.0
 30
0.0
  9
$PUCSYDIR
 10
0.0
 20
1.0
 30
0.0
  9
$PUCSORTHOREF
  2

  9
$PUCSORTHOVIEW
 70
     0
  9
$PUCSORGTOP
 10
0.0
 20
0.0
 30
0.0
  9
$PUCSORGBOTTOM
 10
0.0
 20
0.0
 30
0.0
  9
$PUCSORGLEFT
 10
0.0
 20
0.0
 30
0.0
  9
$PUCSORGRIGHT
 10
0.0
 20
0.0
 30
0.0
  9
$PUCSORGFRONT
 10
0.0
 20
0.0
 30
0.0
  9
$PUCSORGBACK
 10
0.0
 20
0.0
 30
0.0
  9
$USERI1
 70
     0
  9
$USERI2
 70
     0
  9
$USERI3
 70
     0
  9
$USERI4
 70
     0
  9
$USERI5
 70
     0
  9
$USERR1
 40
0.0
  9
$USERR2
 40
0.0
  9
$USERR3
 40
0.0
  9
$USERR4
 40
0.0
  9
$USERR5
 40
0.0
  9
$WORLDVIEW
 70
     1
  9
$SHADEDGE
 70
     3
  9
$SHADEDIF
 70
    70
  9
$TILEMODE
 70
     1
  9
$MAXACTVP
 70
    16
  9
$PINSBASE
 10
0.0
 20
0.0
 30
0.0
  9
$PLIMCHECK
 70
     0
  9
$PEXTMIN
 10
1.000000000000000E+20
 20
1.000000000000000E+20
 30
1.000000000000000E+20
  9
$PEXTMAX
 10
-1.000000000000000E+20
 20
-1.000000000000000E+20
 30
-1.000000000000000E+20
  9
$PLIMMIN
 10
0.0
 20
0.0
  9
$PLIMMAX
 10
420.0
 20
297.0
  9
$UNITMODE
 70
     0
  9
$VISRETAIN
 70
     0
  9
$PLINEGEN
 70
     0
  9
$PSLTSCALE
 70
     0
  9
$TREEDEPTH
 70
  3020
  9
$CMLSTYLE
  2
STANDARD
  9
$CMLJUST
 70
     0
  9
$CMLSCALE
 40
1.0
  9
$PROXYGRAPHICS
 70
     1
  9
$MEASUREMENT
 70
     1
  9
$CELWEIGHT
370
    -1
  9
$ENDCAPS
280
     0
  9
$JOINSTYLE
280
     0
  9
$LWDISPLAY
290
     0
  9
$INSUNITS
 70
     0
  9
$HYPERLINKBASE
  1

  9
$STYLESHEET
  1
inaba.ctb
  9
$XEDIT
290
     1
  9
$CEPSNTYPE
380
     0
  9
$PSTYLEMODE
290
     1
  9
$FINGERPRINTGUID
  2
{696AEDA2-CF37-4C16-A548-8F3E259D4281}
  9
$VERSIONGUID
  2
{47E39406-902F-441E-B2B1-87A473687705}
  9
$EXTNAMES
290
     1
  9
$PSVPSCALE
 40
0.0
  9
$OLESTARTUP
290
     0
  0
ENDSEC
  0
SECTION
  2
CLASSES
  0
CLASS
  1
ACDBDICTIONARYWDFLT
  2
AcDbDictionaryWithDefault
  3
ObjectDBX Classes
 90
        0
280
     0
281
     0
  0
CLASS
  1
DICTIONARYVAR
  2
AcDbDictionaryVar
  3
ObjectDBX Classes
 90
        0
280
     0
281
     0
  0
CLASS
  1
ACDBPLACEHOLDER
  2
AcDbPlaceHolder
  3
ObjectDBX Classes
 90
        0
280
     0
281
     0
  0
CLASS
  1
LAYOUT
  2
AcDbLayout
  3
ObjectDBX Classes
 90
        0
280
     0
281
     0
  0
ENDSEC
  0
SECTION
  2
TABLES
  0
TABLE
  2
VPORT
  5
746D
330
0
100
AcDbSymbolTable
 70
     2
  0
VPORT
  5
141AC
330
746D
100
AcDbSymbolTableRecord
100
AcDbViewportTableRecord
  2
*Active
 70
     0
 10
0.0
 20
0.0
 11
1.0
 21
1.0
 12
6167.820768928883
 22
4278.456238228175
 13
0.0
 23
0.0
 14
10.0
 24
10.0
 15
10.0
 25
10.0
 16
0.0
 26
0.0
 36
1.0
 17
0.0
 27
0.0
 37
0.0
 40
8642.592320726366
 41
1.778877887788778
 42
50.0
 43
0.0
 44
0.0
 50
0.0
 51
0.0
 71
     0
 72
     0
 73
     1
 74
     0
 75
     0
 76
     0
 77
     0
 78
     0
281
     0
 65
     1
110
0.0
120
0.0
130
0.0
111
1.0
121
0.0
131
0.0
112
0.0
122
1.0
132
0.0
 79
     0
146
0.0
  0
ENDTAB
  0
TABLE
  2
LTYPE
  5
746A
330
0
100
AcDbSymbolTable
 70
     4
  0
LTYPE
  5
7477
330
746A
100
AcDbSymbolTableRecord
100
AcDbLinetypeTableRecord
  2
BYBLOCK
 70
     0
  3

 72
    65
 73
     0
 40
0.0
  0
LTYPE
  5
7478
330
746A
100
AcDbSymbolTableRecord
100
AcDbLinetypeTableRecord
  2
BYLAYER
 70
     0
  3

 72
    65
 73
     0
 40
0.0
  0
LTYPE
  5
7479
330
746A
100
AcDbSymbolTableRecord
100
AcDbLinetypeTableRecord
  2
CONTINUOUS
 70
     0
  3
Solid line
 72
    65
 73
     0
 40
0.0
  0
LTYPE
  5
781A
330
746A
100
AcDbSymbolTableRecord
100
AcDbLinetypeTableRecord
  2
HIDDEN
 70
     0
  3
__ __ __ __ __ __ __ __ __ __ __ __ __ __ __ __
 72
    65
 73
     2
 40
0.375
 49
0.25
 74
     0
 49
-0.125
 74
     0
  0
LTYPE
  5
781B
330
746A
100
AcDbSymbolTableRecord
100
AcDbLinetypeTableRecord
  2
PHANTOM
 70
     0
  3
______  __  __  ______  __  __  ______  __  __ 
 72
    65
 73
     6
 40
2.5
 49
1.25
 74
     0
 49
-0.25
 74
     0
 49
0.25
 74
     0
 49
-0.25
 74
     0
 49
0.25
 74
     0
 49
-0.25
 74
     0
  0
LTYPE
  5
13571
330
746A
100
AcDbSymbolTableRecord
100
AcDbLinetypeTableRecord
  2
CENTER
 70
     0
  3
Center ____ _ ____ _ ____ _ ____ _ ____ _ ____
 72
    65
 73
     4
 40
50.8
 49
31.75
 74
     0
 49
-6.349999999999999
 74
     0
 49
6.349999999999999
 74
     0
 49
-6.349999999999999
 74
     0
  0
ENDTAB
  0
TABLE
  2
LAYER
  5
7467
102
{ACAD_XDICTIONARY
360
13451
102
}
330
0
100
AcDbSymbolTable
 70
    12
  0
LAYER
  5
7474
330
7467
100
AcDbSymbolTableRecord
100
AcDbLayerTableRecord
  2
0
 70
     0
 62
     7
  6
CONTINUOUS
370
    -3
390
1341B
  0
LAYER
  5
DEB3
330
7467
100
AcDbSymbolTableRecord
100
AcDbLayerTableRecord
  2
寸法
 70
     0
 62
     4
  6
CONTINUOUS
370
    -3
390
1341B
  0
LAYER
  5
DEB4
330
7467
100
AcDbSymbolTableRecord
100
AcDbLayerTableRecord
  2
部品1
 70
     0
 62
     7
  6
CONTINUOUS
370
    -3
390
1341B
  0
LAYER
  5
DEB5
330
7467
100
AcDbSymbolTableRecord
100
AcDbLayerTableRecord
  2
補助
 70
     0
 62
    -1
  6
CONTINUOUS
370
    -3
390
1341B
  0
LAYER
  5
DEB6
330
7467
100
AcDbSymbolTableRecord
100
AcDbLayerTableRecord
  2
文字
 70
     0
 62
     7
  6
CONTINUOUS
370
    -3
390
1341B
  0
LAYER
  5
F255
330
7467
100
AcDbSymbolTableRecord
100
AcDbLayerTableRecord
  2
DEFPOINTS
 70
     0
 62
     7
  6
CONTINUOUS
290
     0
370
    -3
390
1341B
  0
LAYER
  5
10B54
330
7467
100
AcDbSymbolTableRecord
100
AcDbLayerTableRecord
  2
仕様書枠
 70
     0
 62
   230
  6
CONTINUOUS
370
    -3
390
1341B
  0
LAYER
  5
11729
330
7467
100
AcDbSymbolTableRecord
100
AcDbLayerTableRecord
  2
Ｇ．Ｌ
 70
     0
 62
    30
  6
CONTINUOUS
370
    -3
390
1341B
  0
LAYER
  5
1173F
330
7467
100
AcDbSymbolTableRecord
100
AcDbLayerTableRecord
  2
細線
 70
     0
 62
     5
  6
CONTINUOUS
370
    -3
390
1341B
  0
LAYER
  5
11740
330
7467
100
AcDbSymbolTableRecord
100
AcDbLayerTableRecord
  2
点線
 70
     0
 62
     2
  6
HIDDEN
370
    -3
390
1341B
  0
LAYER
  5
1356E
330
7467
100
AcDbSymbolTableRecord
100
AcDbLayerTableRecord
  2
センター
 70
     0
 62
     3
  6
CENTER
370
    -3
390
1341B
  0
LAYER
  5
135FB
330
7467
100
AcDbSymbolTableRecord
100
AcDbLayerTableRecord
  2
想像線
 70
     0
 62
     6
  6
PHANTOM
370
    -3
390
1341B
  0
ENDTAB
  0
TABLE
  2
STYLE
  5
7468
330
0
100
AcDbSymbolTable
 70
     7
  0
STYLE
  5
7475
330
7468
100
AcDbSymbolTableRecord
100
AcDbTextStyleTableRecord
  2
STANDARD
 70
     0
 40
0.0
 41
1.0
 50
0.0
 71
     0
 42
4.0
  3
txt
  4
C:\AutoCAD LT\bigfont.shx
  0
STYLE
  5
763C
330
7468
100
AcDbSymbolTableRecord
100
AcDbTextStyleTableRecord
  2
MSMINCHO
 70
     0
 40
0.0
 41
1.0
 50
0.0
 71
     0
 42
1.199999999999999
  3
C:\AutoCAD LT\msminch2.TTF
  4

  0
STYLE
  5
F706
330
7468
100
AcDbSymbolTableRecord
100
AcDbTextStyleTableRecord
  2
STYLE1
 70
     0
 40
0.0
 41
1.0
 50
0.0
 71
     0
 42
4.0
  3
isocp.shx
  4
bigfont.shx
  0
STYLE
  5
103BF
330
7468
100
AcDbSymbolTableRecord
100
AcDbTextStyleTableRecord
  2
STYLE2
 70
     0
 40
0.0
 41
1.0
 50
0.0
 71
     0
 42
100.0
  3
MS PGothic.ttf
  4

1001
ACAD
1000
MS PGothic
1071
    32818
  0
STYLE
  5
10BAA
330
7468
100
AcDbSymbolTableRecord
100
AcDbTextStyleTableRecord
  2
STYLE3
 70
     0
 40
0.0
 41
1.0
 50
0.0
 71
     0
 42
100.0
  3
MS PGothic.ttf
  4

1001
ACAD
1000
MS PGothic
1071
    32818
  0
STYLE
  5
13570
330
7468
100
AcDbSymbolTableRecord
100
AcDbTextStyleTableRecord
  2

 70
     1
 40
0.0
 41
1.0
 50
0.0
 71
     0
 42
100.0
  3
ltypeshp.shx
  4

  0
STYLE
  5
13662
330
7468
100
AcDbSymbolTableRecord
100
AcDbTextStyleTableRecord
  2
MSPゴシック
 70
     0
 40
0.0
 41
1.0
 50
0.0
 71
     0
 42
4.0
  3
MS PGothic.ttf
  4

1001
ACAD
1000
MS PGothic
1071
    32818
  0
ENDTAB
  0
TABLE
  2
VIEW
  5
746B
330
0
100
AcDbSymbolTable
 70
     0
  0
ENDTAB
  0
TABLE
  2
UCS
  5
746C
330
0
100
AcDbSymbolTable
 70
     0
  0
ENDTAB
  0
TABLE
  2
APPID
  5
746E
330
0
100
AcDbSymbolTable
 70
     6
  0
APPID
  5
7476
330
746E
100
AcDbSymbolTableRecord
100
AcDbRegAppTableRecord
  2
ACAD
 70
     0
  0
APPID
  5
DEA9
330
746E
100
AcDbSymbolTableRecord
100
AcDbRegAppTableRecord
  2
CONTENTBLOCKICON
 70
     0
  0
APPID
  5
DEAA
330
746E
100
AcDbSymbolTableRecord
100
AcDbRegAppTableRecord
  2
CONTENTBLOCKDESCRIPTION
 70
     0
  0
APPID
  5
E71D
330
746E
100
AcDbSymbolTableRecord
100
AcDbRegAppTableRecord
  2
CONTENTTABDATA
 70
     0
  0
APPID
  5
E71E
330
746E
100
AcDbSymbolTableRecord
100
AcDbRegAppTableRecord
  2
CONTENTCURRENTTAB
 70
     0
  0
APPID
  5
F3BA
330
746E
100
AcDbSymbolTableRecord
100
AcDbRegAppTableRecord
  2
DRAWINGVARIABLESXDATA
 70
     0
  0
ENDTAB
  0
TABLE
  2
DIMSTYLE
  5
746F
330
0
100
AcDbSymbolTable
 70
     3
100
AcDbDimStyleTable
 71
     1
340
F71F
  0
DIMSTYLE
105
F71F
102
{ACAD_REACTORS
330
13BC8
330
13BC9
330
13BCD
330
13BCE
330
13BCF
330
13BD0
330
13C26
330
13C27
330
13C30
330
13C36
330
13C57
330
13C6F
330
13F26
330
13F6B
330
13F8C
330
13F8D
102
}
330
746F
100
AcDbSymbolTableRecord
100
AcDbDimStyleTableRecord
  2
INABA_S30G
 70
     0
 40
30.0
 41
2.5
 42
0.5
 43
7.0
 44
1.5
 73
     0
 74
     0
 77
     3
 78
     8
140
3.0
141
0.0
143
0.0394
147
1.0
172
     1
173
     1
174
     1
175
     1
178
     7
271
     1
340
F706
341
F770
343
F770
344
F770
  0
DIMSTYLE
105
135FC
330
746F
100
AcDbSymbolTableRecord
100
AcDbDimStyleTableRecord
  2
INABA_1／4
 70
     0
 40
4.0
 41
2.5
 42
0.5
 43
7.0
 44
1.5
 73
     0
 74
     0
 77
     3
 78
     8
140
2.5
141
0.0
143
0.0394
147
0.8
172
     1
173
     1
174
     1
178
     7
271
     2
272
     2
340
7475
341
135EC
343
135EC
344
135EC
  0
DIMSTYLE
105
13663
330
746F
100
AcDbSymbolTableRecord
100
AcDbDimStyleTableRecord
  2
INABA_S40G
 70
     0
 40
40.0
 41
2.5
 42
0.5
 43
7.0
 44
1.5
 73
     0
 74
     0
 77
     3
 78
     8
140
3.0
141
0.0
143
0.0394
147
1.0
172
     1
173
     1
174
     1
178
     7
271
     1
340
F706
341
F770
343
F770
344
F770
  0
ENDTAB
  0
TABLE
  2
BLOCK_RECORD
  5
7466
330
0
100
AcDbSymbolTable
 70
    22
  0
BLOCK_RECORD
  5
747D
330
7466
100
AcDbSymbolTableRecord
100
AcDbBlockTableRecord
  2
*MODEL_SPACE
340
13420
  0
BLOCK_RECORD
  5
747A
330
7466
100
AcDbSymbolTableRecord
100
AcDbBlockTableRecord
  2
*PAPER_SPACE
340
13421
  0
BLOCK_RECORD
  5
F770
330
7466
100
AcDbSymbolTableRecord
100
AcDbBlockTableRecord
  2
_DOTSMALL
340
0
102
{BLKREFS
331
14106
331
14107
331
14111
331
14112
331
1411A
331
1411B
331
14125
331
14126
331
1412E
331
1412F
331
14137
331
14138
331
14140
331
14141
331
1414A
331
1414B
331
14153
331
14154
331
1415C
331
1415D
331
14165
331
14166
331
1416E
331
1416F
331
14177
331
14178
331
14180
331
14181
331
14189
331
1418A
331
14192
331
14193
102
}
  0
BLOCK_RECORD
  5
11FE5
330
7466
100
AcDbSymbolTableRecord
100
AcDbBlockTableRecord
  2
A$C644A28E3
340
0
  0
BLOCK_RECORD
  5
11FED
330
7466
100
AcDbSymbolTableRecord
100
AcDbBlockTableRecord
  2
A$C0EDA5930
340
0
  0
BLOCK_RECORD
  5
135DC
330
7466
100
AcDbSymbolTableRecord
100
AcDbBlockTableRecord
  2
_Closed
340
0
  0
BLOCK_RECORD
  5
135E3
330
7466
100
AcDbSymbolTableRecord
100
AcDbBlockTableRecord
  2
_None
340
0
  0
BLOCK_RECORD
  5
135EC
330
7466
100
AcDbSymbolTableRecord
100
AcDbBlockTableRecord
  2
_OPEN
340
0
  0
BLOCK_RECORD
  5
13FA8
330
7466
100
AcDbSymbolTableRecord
100
AcDbBlockTableRecord
  2
*D6
340
0
  0
BLOCK_RECORD
  5
13FB4
330
7466
100
AcDbSymbolTableRecord
100
AcDbBlockTableRecord
  2
*D7
340
0
  0
BLOCK_RECORD
  5
13FC0
330
7466
100
AcDbSymbolTableRecord
100
AcDbBlockTableRecord
  2
*D8
340
0
  0
BLOCK_RECORD
  5
13FCC
330
7466
100
AcDbSymbolTableRecord
100
AcDbBlockTableRecord
  2
*D9
340
0
  0
BLOCK_RECORD
  5
13FD8
330
7466
100
AcDbSymbolTableRecord
100
AcDbBlockTableRecord
  2
*D10
340
0
  0
BLOCK_RECORD
  5
13FE4
330
7466
100
AcDbSymbolTableRecord
100
AcDbBlockTableRecord
  2
*D11
340
0
  0
BLOCK_RECORD
  5
13FF0
330
7466
100
AcDbSymbolTableRecord
100
AcDbBlockTableRecord
  2
*D12
340
0
  0
BLOCK_RECORD
  5
13FFC
330
7466
100
AcDbSymbolTableRecord
100
AcDbBlockTableRecord
  2
*D13
340
0
  0
BLOCK_RECORD
  5
14008
330
7466
100
AcDbSymbolTableRecord
100
AcDbBlockTableRecord
  2
*D14
340
0
  0
BLOCK_RECORD
  5
14015
330
7466
100
AcDbSymbolTableRecord
100
AcDbBlockTableRecord
  2
*D15
340
0
  0
BLOCK_RECORD
  5
14021
330
7466
100
AcDbSymbolTableRecord
100
AcDbBlockTableRecord
  2
*D16
340
0
  0
BLOCK_RECORD
  5
1402D
330
7466
100
AcDbSymbolTableRecord
100
AcDbBlockTableRecord
  2
*D17
340
0
  0
BLOCK_RECORD
  5
14039
330
7466
100
AcDbSymbolTableRecord
100
AcDbBlockTableRecord
  2
*D18
340
0
  0
BLOCK_RECORD
  5
14047
330
7466
100
AcDbSymbolTableRecord
100
AcDbBlockTableRecord
  2
*D19
340
0
  0
BLOCK_RECORD
  5
14053
330
7466
100
AcDbSymbolTableRecord
100
AcDbBlockTableRecord
  2
*D20
340
0
  0
BLOCK_RECORD
  5
14061
330
7466
100
AcDbSymbolTableRecord
100
AcDbBlockTableRecord
  2
*D21
340
0
  0
ENDTAB
  0
ENDSEC
  0
SECTION
  2
BLOCKS
  0
BLOCK
  5
7489
330
747D
100
AcDbEntity
  8
0
100
AcDbBlockBegin
  2
*MODEL_SPACE
 70
     0
 10
0.0
 20
0.0
 30
0.0
  3
*MODEL_SPACE
  1

  0
ENDBLK
  5
748A
330
747D
100
AcDbEntity
  8
0
100
AcDbBlockEnd
  0
BLOCK
  5
7487
330
747A
100
AcDbEntity
 67
     1
  8
0
100
AcDbBlockBegin
  2
*PAPER_SPACE
 70
     0
 10
0.0
 20
0.0
 30
0.0
  3
*PAPER_SPACE
  1

  0
ENDBLK
  5
7488
330
747A
100
AcDbEntity
 67
     1
  8
0
100
AcDbBlockEnd
  0
BLOCK
  5
F771
330
F770
100
AcDbEntity
  8
0
 48
50.0
100
AcDbBlockBegin
  2
_DOTSMALL
 70
     0
 10
0.0
 20
0.0
 30
0.0
  3
_DOTSMALL
  1

  0
LWPOLYLINE
  5
F772
330
F770
100
AcDbEntity
  8
0
  6
ByBlock
 62
     0
 48
50.0
100
AcDbPolyline
 90
        2
 70
     1
 43
0.5
 10
-0.0625
 20
0.0
 42
1.0
 10
0.0625
 20
0.0
 42
1.0
  0
ENDBLK
  5
F776
330
F770
100
AcDbEntity
  8
0
 48
50.0
100
AcDbBlockEnd
  0
BLOCK
  5
11FEB
330
11FE5
100
AcDbEntity
  8
0
 48
50.0
100
AcDbBlockBegin
  2
A$C644A28E3
 70
     0
 10
0.0
 20
0.0
 30
0.0
  3
A$C644A28E3
  1

  0
ARC
  5
11FE6
330
11FE5
100
AcDbEntity
  8
部品1
 48
50.0
100
AcDbCircle
 10
53.99999260842742
 20
10.0000017156417
 30
0.0
 40
10.0
100
AcDbArc
 50
270.0000000000021
 51
0.0
  0
ARC
  5
11FE7
330
11FE5
100
AcDbEntity
  8
部品1
 48
50.0
100
AcDbCircle
 10
9.999992608427419
 20
10.00000171563806
 30
0.0
 40
10.0
100
AcDbArc
 50
180.0
 51
270.0000000000009
  0
LINE
  5
11FE8
330
11FE5
100
AcDbEntity
  8
部品1
 48
50.0
100
AcDbLine
 10
9.999992608427419
 20
0.0000017156380636
 30
0.0
 11
53.99999260842742
 21
0.0000017156417016
 31
0.0
  0
LINE
  5
11FE9
330
11FE5
100
AcDbEntity
  8
部品1
 48
50.0
100
AcDbLine
 10
63.99999260842742
 20
45.00000171563806
 30
0.0
 11
63.99999260842742
 21
10.0000017156417
 31
0.0
  0
LINE
  5
11FEA
330
11FE5
100
AcDbEntity
  8
部品1
 48
50.0
100
AcDbLine
 10
-0.0000073915725807
 20
45.00000171563806
 30
0.0
 11
-0.0000073915725807
 21
10.00000171563806
 31
0.0
  0
ENDBLK
  5
11FEC
330
11FE5
100
AcDbEntity
  8
0
 48
50.0
100
AcDbBlockEnd
  0
BLOCK
  5
11FF0
330
11FED
100
AcDbEntity
  8
0
 48
50.0
100
AcDbBlockBegin
  2
A$C0EDA5930
 70
     0
 10
0.0
 20
0.0
 30
0.0
  3
A$C0EDA5930
  1

  0
LWPOLYLINE
  5
11FEE
330
11FED
100
AcDbEntity
  8
細線
 48
50.0
100
AcDbPolyline
 90
        6
 70
     1
 43
0.0
 10
2.499964582253596
 20
5.24718422294427
 10
8.999964582253596
 20
1.494407473212049
 10
15.4999645822536
 20
5.24718422294427
 10
15.4999645822536
 20
12.75273772240871
 10
8.999964582253596
 20
16.50551447214093
 10
2.499964582253596
 20
12.75273772240871
  0
CIRCLE
  5
11FEF
330
11FED
100
AcDbEntity
  8
部品1
 48
50.0
100
AcDbCircle
 10
8.999964582253596
 20
8.99996097267649
 30
0.0
 40
9.0
  0
ENDBLK
  5
11FF1
330
11FED
100
AcDbEntity
  8
0
 48
50.0
100
AcDbBlockEnd
  0
BLOCK
  5
135E1
330
135DC
100
AcDbEntity
  8
0
 48
50.0
100
AcDbBlockBegin
  2
_Closed
 70
     0
 10
0.0
 20
0.0
 30
0.0
  3
_Closed
  1

  0
LINE
  5
135DD
330
135DC
100
AcDbEntity
  8
0
  6
ByBlock
 62
     0
370
    -2
100
AcDbLine
 10
-1.0
 20
0.1666666666666666
 30
0.0
 11
0.0
 21
0.0
 31
0.0
  0
LINE
  5
135DE
330
135DC
100
AcDbEntity
  8
0
  6
ByBlock
 62
     0
370
    -2
100
AcDbLine
 10
0.0
 20
0.0
 30
0.0
 11
-1.0
 21
-0.1666666666666666
 31
0.0
  0
LINE
  5
135DF
330
135DC
100
AcDbEntity
  8
0
  6
ByBlock
 62
     0
370
    -2
100
AcDbLine
 10
-1.0
 20
0.1666666666666666
 30
0.0
 11
-1.0
 21
-0.1666666666666666
 31
0.0
  0
LINE
  5
135E0
330
135DC
100
AcDbEntity
  8
0
  6
ByBlock
 62
     0
370
    -2
100
AcDbLine
 10
0.0
 20
0.0
 30
0.0
 11
-1.0
 21
0.0
 31
0.0
  0
ENDBLK
  5
135E2
330
135DC
100
AcDbEntity
  8
0
 48
50.0
100
AcDbBlockEnd
  0
BLOCK
  5
135E4
330
135E3
100
AcDbEntity
  8
0
 48
50.0
100
AcDbBlockBegin
  2
_None
 70
     0
 10
0.0
 20
0.0
 30
0.0
  3
_None
  1

  0
ENDBLK
  5
135E5
330
135E3
100
AcDbEntity
  8
0
 48
50.0
100
AcDbBlockEnd
  0
BLOCK
  5
135ED
330
135EC
100
AcDbEntity
  8
0
100
AcDbBlockBegin
  2
_OPEN
 70
     0
 10
0.0
 20
0.0
 30
0.0
  3
_OPEN
  1

  0
LINE
  5
135EE
330
135EC
100
AcDbEntity
  8
0
  6
ByBlock
 62
     0
100
AcDbLine
 10
-1.0
 20
0.1666666666666666
 30
0.0
 11
0.0
 21
0.0
 31
0.0
  0
LINE
  5
135EF
330
135EC
100
AcDbEntity
  8
0
  6
ByBlock
 62
     0
100
AcDbLine
 10
0.0
 20
0.0
 30
0.0
 11
-1.0
 21
-0.1666666666666666
 31
0.0
  0
LINE
  5
135F0
330
135EC
100
AcDbEntity
  8
0
  6
ByBlock
 62
     0
100
AcDbLine
 10
0.0
 20
0.0
 30
0.0
 11
-1.0
 21
0.0
 31
0.0
  0
ENDBLK
  5
135F1
330
135EC
100
AcDbEntity
  8
0
100
AcDbBlockEnd
  0
BLOCK
  5
13FB2
330
13FA8
100
AcDbEntity
  8
0
 48
50.0
100
AcDbBlockBegin
  2
*D6
 70
     1
 10
0.0
 20
0.0
 30
0.0
  3
*D6
  1

  0
LINE
  5
1418F
330
13FA8
100
AcDbEntity
  8
寸法
 62
     0
 48
50.0
370
    -2
100
AcDbLine
 10
4020.964270327982
 20
1732.640014849398
 30
0.0
 11
4020.964270327982
 21
1370.735943936068
 31
0.0
  0
LINE
  5
14190
330
13FA8
100
AcDbEntity
  8
寸法
 62
     0
 48
50.0
370
    -2
100
AcDbLine
 10
6420.964270327953
 20
1732.640014849398
 30
0.0
 11
6420.964270327953
 21
1370.735943936068
 31
0.0
  0
LINE
  5
14191
330
13FA8
100
AcDbEntity
  8
寸法
 62
     0
 48
50.0
370
    -2
100
AcDbLine
 10
4020.964270327982
 20
1415.735943936068
 30
0.0
 11
6420.964270327953
 21
1415.735943936068
 31
0.0
  0
INSERT
  5
14192
330
13FA8
100
AcDbEntity
  8
寸法
 62
     0
 48
50.0
370
    -2
100
AcDbBlockReference
  2
_DOTSMALL
 10
4020.964270327982
 20
1415.735943936068
 30
0.0
 41
75.0
 42
75.0
 43
75.0
 50
180.0
  0
INSERT
  5
14193
330
13FA8
100
AcDbEntity
  8
寸法
 62
     0
 48
50.0
370
    -2
100
AcDbBlockReference
  2
_DOTSMALL
 10
6420.964270327953
 20
1415.735943936068
 30
0.0
 41
75.0
 42
75.0
 43
75.0
  0
MTEXT
  5
14194
330
13FA8
100
AcDbEntity
  8
寸法
 62
     7
 48
50.0
100
AcDbMText
 10
5220.964270327968
 20
1490.744802203784
 30
0.0
 40
90.0
 41
0.0
 71
     5
 72
     1
  1
\A1;2400
  7
STYLE1
 73
     1
 44
1.0
1001
ACAD
1000
MTEXTBEGIN
1070
    73
1070
     1
1070
    44
1040
1.0
1070
    74
1070
     0
1000
MTEXTEND
  0
POINT
  5
14195
330
13FA8
100
AcDbEntity
  8
DEFPOINTS
 62
     0
 48
50.0
100
AcDbPoint
 10
4020.964270327982
 20
1747.640014849397
 30
0.0000000000000002
  0
POINT
  5
14196
330
13FA8
100
AcDbEntity
  8
DEFPOINTS
 62
     0
 48
50.0
100
AcDbPoint
 10
6420.964270327953
 20
1747.640014849397
 30
0.0
  0
POINT
  5
14197
330
13FA8
100
AcDbEntity
  8
DEFPOINTS
 62
     0
 48
50.0
100
AcDbPoint
 10
6420.964270327953
 20
1415.735943936068
 30
0.0
  0
ENDBLK
  5
13FB3
330
13FA8
100
AcDbEntity
  8
0
 48
50.0
100
AcDbBlockEnd
  0
BLOCK
  5
13FBE
330
13FB4
100
AcDbEntity
  8
0
 48
50.0
100
AcDbBlockBegin
  2
*D7
 70
     1
 10
0.0
 20
0.0
 30
0.0
  3
*D7
  1

  0
LINE
  5
14186
330
13FB4
100
AcDbEntity
  8
寸法
 62
     0
 48
50.0
370
    -2
100
AcDbLine
 10
1620.964270328011
 20
1732.640014849398
 30
0.0
 11
1620.964270328011
 21
1370.735943936068
 31
0.0
  0
LINE
  5
14187
330
13FB4
100
AcDbEntity
  8
寸法
 62
     0
 48
50.0
370
    -2
100
AcDbLine
 10
4020.964270327975
 20
1732.640014849398
 30
0.0
 11
4020.964270327975
 21
1370.735943936068
 31
0.0
  0
LINE
  5
14188
330
13FB4
100
AcDbEntity
  8
寸法
 62
     0
 48
50.0
370
    -2
100
AcDbLine
 10
1620.964270328011
 20
1415.735943936068
 30
0.0
 11
4020.964270327975
 21
1415.735943936068
 31
0.0
  0
INSERT
  5
14189
330
13FB4
100
AcDbEntity
  8
寸法
 62
     0
 48
50.0
370
    -2
100
AcDbBlockReference
  2
_DOTSMALL
 10
1620.964270328011
 20
1415.735943936068
 30
0.0
 41
75.0
 42
75.0
 43
75.0
 50
180.0
  0
INSERT
  5
1418A
330
13FB4
100
AcDbEntity
  8
寸法
 62
     0
 48
50.0
370
    -2
100
AcDbBlockReference
  2
_DOTSMALL
 10
4020.964270327975
 20
1415.735943936068
 30
0.0
 41
75.0
 42
75.0
 43
75.0
  0
MTEXT
  5
1418B
330
13FB4
100
AcDbEntity
  8
寸法
 62
     7
 48
50.0
100
AcDbMText
 10
2820.964270327993
 20
1490.744802203784
 30
0.0
 40
90.0
 41
0.0
 71
     5
 72
     1
  1
\A1;2400
  7
STYLE1
 73
     1
 44
1.0
1001
ACAD
1000
MTEXTBEGIN
1070
    73
1070
     1
1070
    44
1040
1.0
1070
    74
1070
     0
1000
MTEXTEND
  0
POINT
  5
1418C
330
13FB4
100
AcDbEntity
  8
DEFPOINTS
 62
     0
 48
50.0
100
AcDbPoint
 10
1620.964270328011
 20
1747.640014849397
 30
0.0000000000000002
  0
POINT
  5
1418D
330
13FB4
100
AcDbEntity
  8
DEFPOINTS
 62
     0
 48
50.0
100
AcDbPoint
 10
4020.964270327975
 20
1747.640014849397
 30
0.0
  0
POINT
  5
1418E
330
13FB4
100
AcDbEntity
  8
DEFPOINTS
 62
     0
 48
50.0
100
AcDbPoint
 10
4020.964270327975
 20
1415.735943936068
 30
0.0
  0
ENDBLK
  5
13FBF
330
13FB4
100
AcDbEntity
  8
0
 48
50.0
100
AcDbBlockEnd
  0
BLOCK
  5
13FCA
330
13FC0
100
AcDbEntity
  8
0
 48
50.0
100
AcDbBlockBegin
  2
*D8
 70
     1
 10
0.0
 20
0.0
 30
0.0
  3
*D8
  1

  0
LINE
  5
1417D
330
13FC0
100
AcDbEntity
  8
寸法
 62
     0
 48
50.0
370
    -2
100
AcDbLine
 10
1375.964440327996
 20
7923.716718365297
 30
0.0
 11
1022.335811630895
 21
7923.716718365297
 31
0.0
  0
LINE
  5
1417E
330
13FC0
100
AcDbEntity
  8
寸法
 62
     0
 48
50.0
370
    -2
100
AcDbLine
 10
1277.464440328069
 20
7512.716718364733
 30
0.0
 11
1022.335811630895
 21
7512.716718364733
 31
0.0
  0
LINE
  5
1417F
330
13FC0
100
AcDbEntity
  8
寸法
 62
     0
 48
50.0
370
    -2
100
AcDbLine
 10
1067.335811630895
 20
7923.716718365297
 30
0.0
 11
1067.335811630895
 21
7512.716718364733
 31
0.0
  0
INSERT
  5
14180
330
13FC0
100
AcDbEntity
  8
寸法
 62
     0
 48
50.0
370
    -2
100
AcDbBlockReference
  2
_DOTSMALL
 10
1067.335811630895
 20
7923.716718365297
 30
0.0
 41
75.0
 42
75.0
 43
75.0
 50
90.0
  0
INSERT
  5
14181
330
13FC0
100
AcDbEntity
  8
寸法
 62
     0
 48
50.0
370
    -2
100
AcDbBlockReference
  2
_DOTSMALL
 10
1067.335811630895
 20
7512.716718364733
 30
0.0
 41
75.0
 42
75.0
 43
75.0
 50
270.0
  0
MTEXT
  5
14182
330
13FC0
100
AcDbEntity
  8
寸法
 62
     7
 48
50.0
100
AcDbMText
 10
992.3358116308943
 20
7718.216718365015
 30
0.0
 40
90.0
 41
0.0
 71
     5
 72
     1
  1
\A1;411
  7
STYLE1
 11
0.0000000000000001
 21
1.0
 31
0.0
 73
     1
 44
1.0
1001
ACAD
1000
MTEXTBEGIN
1070
    73
1070
     1
1070
    44
1040
1.0
1070
    74
1070
     0
1000
MTEXTEND
  0
POINT
  5
14183
330
13FC0
100
AcDbEntity
  8
DEFPOINTS
 62
     0
 48
50.0
100
AcDbPoint
 10
1390.964440327996
 20
7923.716718365297
 30
0.0
  0
POINT
  5
14184
330
13FC0
100
AcDbEntity
  8
DEFPOINTS
 62
     0
 48
50.0
100
AcDbPoint
 10
1292.464440328069
 20
7512.716718364733
 30
0.0
  0
POINT
  5
14185
330
13FC0
100
AcDbEntity
  8
DEFPOINTS
 62
     0
 48
50.0
100
AcDbPoint
 10
1067.335811630895
 20
7512.716718364733
 30
0.0
  0
ENDBLK
  5
13FCB
330
13FC0
100
AcDbEntity
  8
0
 48
50.0
100
AcDbBlockEnd
  0
BLOCK
  5
13FD6
330
13FCC
100
AcDbEntity
  8
0
 48
50.0
100
AcDbBlockBegin
  2
*D9
 70
     1
 10
0.0
 20
0.0
 30
0.0
  3
*D9
  1

  0
LINE
  5
14174
330
13FCC
100
AcDbEntity
  8
寸法
 62
     0
 48
50.0
370
    -2
100
AcDbLine
 10
1277.464440328069
 20
6829.716718364733
 30
0.0
 11
1022.335811630888
 21
6829.716718364733
 31
0.0
  0
LINE
  5
14175
330
13FCC
100
AcDbEntity
  8
寸法
 62
     0
 48
50.0
370
    -2
100
AcDbLine
 10
1277.464440328069
 20
6146.716718364732
 30
0.0
 11
1022.335811630888
 21
6146.716718364732
 31
0.0
  0
LINE
  5
14176
330
13FCC
100
AcDbEntity
  8
寸法
 62
     0
 48
50.0
370
    -2
100
AcDbLine
 10
1067.335811630888
 20
6829.716718364733
 30
0.0
 11
1067.335811630888
 21
6146.716718364732
 31
0.0
  0
INSERT
  5
14177
330
13FCC
100
AcDbEntity
  8
寸法
 62
     0
 48
50.0
370
    -2
100
AcDbBlockReference
  2
_DOTSMALL
 10
1067.335811630888
 20
6829.716718364733
 30
0.0
 41
75.0
 42
75.0
 43
75.0
 50
90.0
  0
INSERT
  5
14178
330
13FCC
100
AcDbEntity
  8
寸法
 62
     0
 48
50.0
370
    -2
100
AcDbBlockReference
  2
_DOTSMALL
 10
1067.335811630888
 20
6146.716718364732
 30
0.0
 41
75.0
 42
75.0
 43
75.0
 50
270.0
  0
MTEXT
  5
14179
330
13FCC
100
AcDbEntity
  8
寸法
 62
     7
 48
50.0
100
AcDbMText
 10
992.3358116308872
 20
6488.216718364732
 30
0.0
 40
90.0
 41
0.0
 71
     5
 72
     1
  1
\A1;683
  7
STYLE1
 11
0.0000000000000001
 21
1.0
 31
0.0
 73
     1
 44
1.0
1001
ACAD
1000
MTEXTBEGIN
1070
    73
1070
     1
1070
    44
1040
1.0
1070
    74
1070
     0
1000
MTEXTEND
  0
POINT
  5
1417A
330
13FCC
100
AcDbEntity
  8
DEFPOINTS
 62
     0
 48
50.0
100
AcDbPoint
 10
1292.464440328069
 20
6829.716718364733
 30
0.0
  0
POINT
  5
1417B
330
13FCC
100
AcDbEntity
  8
DEFPOINTS
 62
     0
 48
50.0
100
AcDbPoint
 10
1292.464440328069
 20
6146.716718364732
 30
0.0
  0
POINT
  5
1417C
330
13FCC
100
AcDbEntity
  8
DEFPOINTS
 62
     0
 48
50.0
100
AcDbPoint
 10
1067.335811630888
 20
6146.716718364732
 30
0.0
  0
ENDBLK
  5
13FD7
330
13FCC
100
AcDbEntity
  8
0
 48
50.0
100
AcDbBlockEnd
  0
BLOCK
  5
13FE2
330
13FD8
100
AcDbEntity
  8
0
 48
50.0
100
AcDbBlockBegin
  2
*D10
 70
     1
 10
0.0
 20
0.0
 30
0.0
  3
*D10
  1

  0
LINE
  5
1416B
330
13FD8
100
AcDbEntity
  8
寸法
 62
     0
 48
50.0
370
    -2
100
AcDbLine
 10
1277.464440328069
 20
7512.716718364733
 30
0.0
 11
1022.335811630895
 21
7512.716718364733
 31
0.0
  0
LINE
  5
1416C
330
13FD8
100
AcDbEntity
  8
寸法
 62
     0
 48
50.0
370
    -2
100
AcDbLine
 10
1277.464440328069
 20
6829.716718364733
 30
0.0
 11
1022.335811630895
 21
6829.716718364733
 31
0.0
  0
LINE
  5
1416D
330
13FD8
100
AcDbEntity
  8
寸法
 62
     0
 48
50.0
370
    -2
100
AcDbLine
 10
1067.335811630895
 20
7512.716718364733
 30
0.0
 11
1067.335811630895
 21
6829.716718364733
 31
0.0
  0
INSERT
  5
1416E
330
13FD8
100
AcDbEntity
  8
寸法
 62
     0
 48
50.0
370
    -2
100
AcDbBlockReference
  2
_DOTSMALL
 10
1067.335811630895
 20
7512.716718364733
 30
0.0
 41
75.0
 42
75.0
 43
75.0
 50
90.0
  0
INSERT
  5
1416F
330
13FD8
100
AcDbEntity
  8
寸法
 62
     0
 48
50.0
370
    -2
100
AcDbBlockReference
  2
_DOTSMALL
 10
1067.335811630895
 20
6829.716718364733
 30
0.0
 41
75.0
 42
75.0
 43
75.0
 50
270.0
  0
MTEXT
  5
14170
330
13FD8
100
AcDbEntity
  8
寸法
 62
     7
 48
50.0
100
AcDbMText
 10
992.3358116308943
 20
7171.216718364732
 30
0.0
 40
90.0
 41
0.0
 71
     5
 72
     1
  1
\A1;683
  7
STYLE1
 11
0.0000000000000001
 21
1.0
 31
0.0
 73
     1
 44
1.0
1001
ACAD
1000
MTEXTBEGIN
1070
    73
1070
     1
1070
    44
1040
1.0
1070
    74
1070
     0
1000
MTEXTEND
  0
POINT
  5
14171
330
13FD8
100
AcDbEntity
  8
DEFPOINTS
 62
     0
 48
50.0
100
AcDbPoint
 10
1292.464440328069
 20
7512.716718364733
 30
0.0
  0
POINT
  5
14172
330
13FD8
100
AcDbEntity
  8
DEFPOINTS
 62
     0
 48
50.0
100
AcDbPoint
 10
1292.464440328069
 20
6829.716718364733
 30
0.0
  0
POINT
  5
14173
330
13FD8
100
AcDbEntity
  8
DEFPOINTS
 62
     0
 48
50.0
100
AcDbPoint
 10
1067.335811630895
 20
6829.716718364733
 30
0.0
  0
ENDBLK
  5
13FE3
330
13FD8
100
AcDbEntity
  8
0
 48
50.0
100
AcDbBlockEnd
  0
BLOCK
  5
13FEE
330
13FE4
100
AcDbEntity
  8
0
 48
50.0
100
AcDbBlockBegin
  2
*D11
 70
     1
 10
0.0
 20
0.0
 30
0.0
  3
*D11
  1

  0
LINE
  5
14162
330
13FE4
100
AcDbEntity
  8
寸法
 62
     0
 48
50.0
370
    -2
100
AcDbLine
 10
1277.464440328069
 20
6146.716718364732
 30
0.0
 11
1022.335811630888
 21
6146.716718364732
 31
0.0
  0
LINE
  5
14163
330
13FE4
100
AcDbEntity
  8
寸法
 62
     0
 48
50.0
370
    -2
100
AcDbLine
 10
1394.96444032796
 20
5903.716718365016
 30
0.0
 11
1022.335811630888
 21
5903.716718365016
 31
0.0
  0
LINE
  5
14164
330
13FE4
100
AcDbEntity
  8
寸法
 62
     0
 48
50.0
370
    -2
100
AcDbLine
 10
1067.335811630888
 20
6146.716718364732
 30
0.0
 11
1067.335811630888
 21
5903.716718365016
 31
0.0
  0
INSERT
  5
14165
330
13FE4
100
AcDbEntity
  8
寸法
 62
     0
 48
50.0
370
    -2
100
AcDbBlockReference
  2
_DOTSMALL
 10
1067.335811630888
 20
6146.716718364732
 30
0.0
 41
75.0
 42
75.0
 43
75.0
 50
90.0
  0
INSERT
  5
14166
330
13FE4
100
AcDbEntity
  8
寸法
 62
     0
 48
50.0
370
    -2
100
AcDbBlockReference
  2
_DOTSMALL
 10
1067.335811630888
 20
5903.716718365016
 30
0.0
 41
75.0
 42
75.0
 43
75.0
 50
270.0
  0
MTEXT
  5
14167
330
13FE4
100
AcDbEntity
  8
寸法
 62
     7
 48
50.0
100
AcDbMText
 10
992.3269533631707
 20
6025.216718364874
 30
0.0
 40
90.0
 41
0.0
 71
     5
 72
     1
  1
\A1;243
  7
STYLE1
 11
0.0000000000000001
 21
1.0
 31
0.0
 73
     1
 44
1.0
1001
ACAD
1000
MTEXTBEGIN
1070
    73
1070
     1
1070
    44
1040
1.0
1070
    74
1070
     0
1000
MTEXTEND
  0
POINT
  5
14168
330
13FE4
100
AcDbEntity
  8
DEFPOINTS
 62
     0
 48
50.0
100
AcDbPoint
 10
1292.464440328069
 20
6146.716718364732
 30
0.0
  0
POINT
  5
14169
330
13FE4
100
AcDbEntity
  8
DEFPOINTS
 62
     0
 48
50.0
100
AcDbPoint
 10
1409.96444032796
 20
5903.716718365016
 30
-0.0000000000002893
  0
POINT
  5
1416A
330
13FE4
100
AcDbEntity
  8
DEFPOINTS
 62
     0
 48
50.0
100
AcDbPoint
 10
1067.335811630888
 20
5903.716718365016
 30
0.0
  0
ENDBLK
  5
13FEF
330
13FE4
100
AcDbEntity
  8
0
 48
50.0
100
AcDbBlockEnd
  0
BLOCK
  5
13FFA
330
13FF0
100
AcDbEntity
  8
0
 48
50.0
100
AcDbBlockBegin
  2
*D12
 70
     1
 10
0.0
 20
0.0
 30
0.0
  3
*D12
  1

  0
LINE
  5
14159
330
13FF0
100
AcDbEntity
  8
寸法
 62
     0
 48
50.0
370
    -2
100
AcDbLine
 10
6650.964440327967
 20
4184.350524693575
 30
0.0
 11
6650.964440327967
 21
4483.080793455483
 31
0.0
  0
LINE
  5
1415A
330
13FF0
100
AcDbEntity
  8
寸法
 62
     0
 48
50.0
370
    -2
100
AcDbLine
 10
6420.964440327982
 20
4095.438608470707
 30
0.0
 11
6420.964440327982
 21
4483.080793455483
 31
0.0
  0
LINE
  5
1415B
330
13FF0
100
AcDbEntity
  8
寸法
 62
     0
 48
50.0
370
    -2
100
AcDbLine
 10
6650.964440327967
 20
4438.080793455482
 30
0.0
 11
6420.964440327982
 21
4438.080793455482
 31
0.0
  0
INSERT
  5
1415C
330
13FF0
100
AcDbEntity
  8
寸法
 62
     0
 48
50.0
370
    -2
100
AcDbBlockReference
  2
_DOTSMALL
 10
6650.964440327967
 20
4438.080793455482
 30
0.0
 41
75.0
 42
75.0
 43
75.0
  0
INSERT
  5
1415D
330
13FF0
100
AcDbEntity
  8
寸法
 62
     0
 48
50.0
370
    -2
100
AcDbBlockReference
  2
_DOTSMALL
 10
6420.964440327982
 20
4438.080793455482
 30
0.0
 41
75.0
 42
75.0
 43
75.0
 50
180.0
  0
MTEXT
  5
1415E
330
13FF0
100
AcDbEntity
  8
寸法
 62
     7
 48
50.0
100
AcDbMText
 10
6535.964440327974
 20
4513.089651723199
 30
0.0
 40
90.0
 41
0.0
 71
     5
 72
     1
  1
\A1;230
  7
STYLE1
 73
     1
 44
1.0
1001
ACAD
1000
MTEXTBEGIN
1070
    73
1070
     1
1070
    44
1040
1.0
1070
    74
1070
     0
1000
MTEXTEND
  0
POINT
  5
1415F
330
13FF0
100
AcDbEntity
  8
DEFPOINTS
 62
     0
 48
50.0
100
AcDbPoint
 10
6650.964440327967
 20
4169.350524693576
 30
0.0
  0
POINT
  5
14160
330
13FF0
100
AcDbEntity
  8
DEFPOINTS
 62
     0
 48
50.0
100
AcDbPoint
 10
6420.964440327982
 20
4080.438608470707
 30
0.0
  0
POINT
  5
14161
330
13FF0
100
AcDbEntity
  8
DEFPOINTS
 62
     0
 48
50.0
100
AcDbPoint
 10
6420.964440327982
 20
4438.080793455482
 30
0.0
  0
ENDBLK
  5
13FFB
330
13FF0
100
AcDbEntity
  8
0
 48
50.0
100
AcDbBlockEnd
  0
BLOCK
  5
14006
330
13FFC
100
AcDbEntity
  8
0
 48
50.0
100
AcDbBlockBegin
  2
*D13
 70
     1
 10
0.0
 20
0.0
 30
0.0
  3
*D13
  1

  0
LINE
  5
14150
330
13FFC
100
AcDbEntity
  8
寸法
 62
     0
 48
50.0
370
    -2
100
AcDbLine
 10
1620.964440327982
 20
4095.438608470707
 30
0.0
 11
1620.964440327982
 21
4483.080793455483
 31
0.0
  0
LINE
  5
14151
330
13FFC
100
AcDbEntity
  8
寸法
 62
     0
 48
50.0
370
    -2
100
AcDbLine
 10
6420.964440327982
 20
4095.438608470707
 30
0.0
 11
6420.964440327982
 21
4483.080793455483
 31
0.0
  0
LINE
  5
14152
330
13FFC
100
AcDbEntity
  8
寸法
 62
     0
 48
50.0
370
    -2
100
AcDbLine
 10
1620.964440327982
 20
4438.080793455482
 30
0.0
 11
6420.964440327982
 21
4438.080793455482
 31
0.0
  0
INSERT
  5
14153
330
13FFC
100
AcDbEntity
  8
寸法
 62
     0
 48
50.0
370
    -2
100
AcDbBlockReference
  2
_DOTSMALL
 10
1620.964440327982
 20
4438.080793455482
 30
0.0
 41
75.0
 42
75.0
 43
75.0
 50
180.0
  0
INSERT
  5
14154
330
13FFC
100
AcDbEntity
  8
寸法
 62
     0
 48
50.0
370
    -2
100
AcDbBlockReference
  2
_DOTSMALL
 10
6420.964440327982
 20
4438.080793455482
 30
0.0
 41
75.0
 42
75.0
 43
75.0
  0
MTEXT
  5
14155
330
13FFC
100
AcDbEntity
  8
寸法
 62
     7
 48
50.0
100
AcDbMText
 10
4020.964440327982
 20
4513.080793455483
 30
0.0
 40
90.0
 41
0.0
 71
     5
 72
     1
  1
\A1;4800
  7
STYLE1
 73
     1
 44
1.0
1001
ACAD
1000
MTEXTBEGIN
1070
    73
1070
     1
1070
    44
1040
1.0
1070
    74
1070
     0
1000
MTEXTEND
  0
POINT
  5
14156
330
13FFC
100
AcDbEntity
  8
DEFPOINTS
 62
     0
 48
50.0
100
AcDbPoint
 10
1620.964440327982
 20
4080.438608470707
 30
0.0
  0
POINT
  5
14157
330
13FFC
100
AcDbEntity
  8
DEFPOINTS
 62
     0
 48
50.0
100
AcDbPoint
 10
6420.964440327982
 20
4080.438608470707
 30
0.0
  0
POINT
  5
14158
330
13FFC
100
AcDbEntity
  8
DEFPOINTS
 62
     0
 48
50.0
100
AcDbPoint
 10
6420.964440327982
 20
4438.080793455482
 30
0.0
  0
ENDBLK
  5
14007
330
13FFC
100
AcDbEntity
  8
0
 48
50.0
100
AcDbBlockEnd
  0
BLOCK
  5
14013
330
14008
100
AcDbEntity
  8
0
 48
50.0
100
AcDbBlockBegin
  2
*D14
 70
     1
 10
0.0
 20
0.0
 30
0.0
  3
*D14
  1

  0
LINE
  5
14146
330
14008
100
AcDbEntity
  8
寸法
 62
     0
 48
50.0
370
    -2
100
AcDbLine
 10
10501.56074535384
 20
2745.307792229573
 30
0.0
 11
10501.56074535384
 21
2858.49796680174
 31
0.0
  0
LINE
  5
14147
330
14008
100
AcDbEntity
  8
寸法
 62
     0
 48
50.0
370
    -2
100
AcDbLine
 10
10590.66108535384
 20
2745.307788456098
 30
0.0
 11
10590.66108535384
 21
2858.49796680174
 31
0.0
  0
LINE
  5
14148
330
14008
100
AcDbEntity
  8
寸法
 62
     0
 48
50.0
370
    -2
100
AcDbLine
 10
10590.66108535384
 20
2813.497966801739
 30
0.0
 11
10501.56074535384
 21
2813.497966801739
 31
0.0
  0
LINE
  5
14149
330
14008
100
AcDbEntity
  8
寸法
 62
     0
 48
50.0
370
    -2
100
AcDbLine
 10
10501.56074535384
 20
2813.497966801739
 30
0.0
 11
10091.74625560935
 21
2813.497966801739
 31
0.0
  0
INSERT
  5
1414A
330
14008
100
AcDbEntity
  8
寸法
 62
     0
 48
50.0
370
    -2
100
AcDbBlockReference
  2
_DOTSMALL
 10
10590.66108535384
 20
2813.497966801739
 30
0.0
 41
75.0
 42
75.0
 43
75.0
  0
INSERT
  5
1414B
330
14008
100
AcDbEntity
  8
寸法
 62
     0
 48
50.0
370
    -2
100
AcDbBlockReference
  2
_DOTSMALL
 10
10501.56074535384
 20
2813.497966801739
 30
0.0
 41
75.0
 42
75.0
 43
75.0
 50
180.0
  0
MTEXT
  5
1414C
330
14008
100
AcDbEntity
  8
寸法
 62
     7
 48
50.0
100
AcDbMText
 10
10259.15350048159
 20
2888.49796680174
 30
0.0
 40
90.0
 41
0.0
 71
     5
 72
     1
  1
\A1;φ89.1
  7
STYLE1
 73
     1
 44
1.0
1001
ACAD
1000
MTEXTBEGIN
1070
    73
1070
     1
1070
    44
1040
1.0
1070
    74
1070
     0
1000
MTEXTEND
  0
POINT
  5
1414D
330
14008
100
AcDbEntity
  8
DEFPOINTS
 62
     0
 48
50.0
100
AcDbPoint
 10
10501.56074535384
 20
2730.307792229574
 30
-0.0000000000000002
  0
POINT
  5
1414E
330
14008
100
AcDbEntity
  8
DEFPOINTS
 62
     0
 48
50.0
100
AcDbPoint
 10
10590.66108535384
 20
2730.307788456098
 30
-0.0000000000000002
  0
POINT
  5
1414F
330
14008
100
AcDbEntity
  8
DEFPOINTS
 62
     0
 48
50.0
100
AcDbPoint
 10
10590.66108535384
 20
2813.497966801739
 30
0.0
  0
ENDBLK
  5
14014
330
14008
100
AcDbEntity
  8
0
 48
50.0
100
AcDbBlockEnd
  0
BLOCK
  5
1401F
330
14015
100
AcDbEntity
  8
0
 48
50.0
100
AcDbBlockBegin
  2
*D15
 70
     1
 10
0.0
 20
0.0
 30
0.0
  3
*D15
  1

  0
LINE
  5
1413D
330
14015
100
AcDbEntity
  8
寸法
 62
     0
 48
50.0
370
    -2
100
AcDbLine
 10
8683.399709002463
 20
4139.328542830812
 30
0.0
 11
8683.399709002463
 21
4794.977580675179
 31
0.0
  0
LINE
  5
1413E
330
14015
100
AcDbEntity
  8
寸法
 62
     0
 48
50.0
370
    -2
100
AcDbLine
 10
10703.39970900246
 20
3743.895434961825
 30
0.0
 11
10703.39970900246
 21
4794.977580675179
 31
0.0
  0
LINE
  5
1413F
330
14015
100
AcDbEntity
  8
寸法
 62
     0
 48
50.0
370
    -2
100
AcDbLine
 10
8683.399709002463
 20
4749.977580675178
 30
0.0
 11
10703.39970900246
 21
4749.977580675178
 31
0.0
  0
INSERT
  5
14140
330
14015
100
AcDbEntity
  8
寸法
 62
     0
 48
50.0
370
    -2
100
AcDbBlockReference
  2
_DOTSMALL
 10
8683.399709002463
 20
4749.977580675178
 30
0.0
 41
75.0
 42
75.0
 43
75.0
 50
180.0
  0
INSERT
  5
14141
330
14015
100
AcDbEntity
  8
寸法
 62
     0
 48
50.0
370
    -2
100
AcDbBlockReference
  2
_DOTSMALL
 10
10703.39970900246
 20
4749.977580675178
 30
0.0
 41
75.0
 42
75.0
 43
75.0
  0
MTEXT
  5
14142
330
14015
100
AcDbEntity
  8
寸法
 62
     7
 48
50.0
100
AcDbMText
 10
9693.399709002465
 20
4824.986438942895
 30
0.0
 40
90.0
 41
0.0
 71
     5
 72
     1
  1
\A1;2020
  7
STYLE1
 73
     1
 44
1.0
1001
ACAD
1000
MTEXTBEGIN
1070
    73
1070
     1
1070
    44
1040
1.0
1070
    74
1070
     0
1000
MTEXTEND
  0
POINT
  5
14143
330
14015
100
AcDbEntity
  8
DEFPOINTS
 62
     0
 48
50.0
100
AcDbPoint
 10
8683.399709002463
 20
4124.328542830812
 30
0.0
  0
POINT
  5
14144
330
14015
100
AcDbEntity
  8
DEFPOINTS
 62
     0
 48
50.0
100
AcDbPoint
 10
10703.39970900246
 20
3728.895434961825
 30
0.0
  0
POINT
  5
14145
330
14015
100
AcDbEntity
  8
DEFPOINTS
 62
     0
 48
50.0
100
AcDbPoint
 10
10703.39970900246
 20
4749.977580675178
 30
0.0
  0
ENDBLK
  5
14020
330
14015
100
AcDbEntity
  8
0
 48
50.0
100
AcDbBlockEnd
  0
BLOCK
  5
1402B
330
14021
100
AcDbEntity
  8
0
 48
50.0
100
AcDbBlockBegin
  2
*D16
 70
     1
 10
0.0
 20
0.0
 30
0.0
  3
*D16
  1

  0
LINE
  5
14134
330
14021
100
AcDbEntity
  8
寸法
 62
     0
 48
50.0
370
    -2
100
AcDbLine
 10
1390.964440327996
 20
4184.350524693575
 30
0.0
 11
1390.964440327996
 21
4483.080793455483
 31
0.0
  0
LINE
  5
14135
330
14021
100
AcDbEntity
  8
寸法
 62
     0
 48
50.0
370
    -2
100
AcDbLine
 10
1620.964440327982
 20
4095.438608470707
 30
0.0
 11
1620.964440327982
 21
4483.080793455483
 31
0.0
  0
LINE
  5
14136
330
14021
100
AcDbEntity
  8
寸法
 62
     0
 48
50.0
370
    -2
100
AcDbLine
 10
1390.964440327996
 20
4438.080793455482
 30
0.0
 11
1620.964440327982
 21
4438.080793455482
 31
0.0
  0
INSERT
  5
14137
330
14021
100
AcDbEntity
  8
寸法
 62
     0
 48
50.0
370
    -2
100
AcDbBlockReference
  2
_DOTSMALL
 10
1390.964440327996
 20
4438.080793455482
 30
0.0
 41
75.0
 42
75.0
 43
75.0
 50
180.0
  0
INSERT
  5
14138
330
14021
100
AcDbEntity
  8
寸法
 62
     0
 48
50.0
370
    -2
100
AcDbBlockReference
  2
_DOTSMALL
 10
1620.964440327982
 20
4438.080793455482
 30
0.0
 41
75.0
 42
75.0
 43
75.0
  0
MTEXT
  5
14139
330
14021
100
AcDbEntity
  8
寸法
 62
     7
 48
50.0
100
AcDbMText
 10
1505.964440327989
 20
4513.089651723199
 30
0.0
 40
90.0
 41
0.0
 71
     5
 72
     1
  1
\A1;230
  7
STYLE1
 73
     1
 44
1.0
1001
ACAD
1000
MTEXTBEGIN
1070
    73
1070
     1
1070
    44
1040
1.0
1070
    74
1070
     0
1000
MTEXTEND
  0
POINT
  5
1413A
330
14021
100
AcDbEntity
  8
DEFPOINTS
 62
     0
 48
50.0
100
AcDbPoint
 10
1390.964440327996
 20
4169.350524693576
 30
0.0
  0
POINT
  5
1413B
330
14021
100
AcDbEntity
  8
DEFPOINTS
 62
     0
 48
50.0
100
AcDbPoint
 10
1620.964440327982
 20
4080.438608470707
 30
0.0
  0
POINT
  5
1413C
330
14021
100
AcDbEntity
  8
DEFPOINTS
 62
     0
 48
50.0
100
AcDbPoint
 10
1620.964440327982
 20
4438.080793455482
 30
0.0
  0
ENDBLK
  5
1402C
330
14021
100
AcDbEntity
  8
0
 48
50.0
100
AcDbBlockEnd
  0
BLOCK
  5
14037
330
1402D
100
AcDbEntity
  8
0
 48
50.0
100
AcDbBlockBegin
  2
*D17
 70
     1
 10
0.0
 20
0.0
 30
0.0
  3
*D17
  1

  0
LINE
  5
1412B
330
1402D
100
AcDbEntity
  8
寸法
 62
     0
 48
50.0
370
    -2
100
AcDbLine
 10
6650.964440327967
 20
4184.350524693575
 30
0.0
 11
6650.964440327967
 21
4794.977580675179
 31
0.0
  0
LINE
  5
1412C
330
1402D
100
AcDbEntity
  8
寸法
 62
     0
 48
50.0
370
    -2
100
AcDbLine
 10
1390.964440327996
 20
4184.350524693575
 30
0.0
 11
1390.964440327996
 21
4794.977580675179
 31
0.0
  0
LINE
  5
1412D
330
1402D
100
AcDbEntity
  8
寸法
 62
     0
 48
50.0
370
    -2
100
AcDbLine
 10
6650.964440327967
 20
4749.977580675178
 30
0.0
 11
1390.964440327996
 21
4749.977580675178
 31
0.0
  0
INSERT
  5
1412E
330
1402D
100
AcDbEntity
  8
寸法
 62
     0
 48
50.0
370
    -2
100
AcDbBlockReference
  2
_DOTSMALL
 10
6650.964440327967
 20
4749.977580675178
 30
0.0
 41
75.0
 42
75.0
 43
75.0
  0
INSERT
  5
1412F
330
1402D
100
AcDbEntity
  8
寸法
 62
     0
 48
50.0
370
    -2
100
AcDbBlockReference
  2
_DOTSMALL
 10
1390.964440327996
 20
4749.977580675178
 30
0.0
 41
75.0
 42
75.0
 43
75.0
 50
180.0
  0
MTEXT
  5
14130
330
1402D
100
AcDbEntity
  8
寸法
 62
     7
 48
50.0
100
AcDbMText
 10
4020.964440327982
 20
4824.986438942895
 30
0.0
 40
90.0
 41
0.0
 71
     5
 72
     1
  1
\A1;5260
  7
STYLE1
 73
     1
 44
1.0
1001
ACAD
1000
MTEXTBEGIN
1070
    73
1070
     1
1070
    44
1040
1.0
1070
    74
1070
     0
1000
MTEXTEND
  0
POINT
  5
14131
330
1402D
100
AcDbEntity
  8
DEFPOINTS
 62
     0
 48
50.0
100
AcDbPoint
 10
6650.964440327967
 20
4169.350524693576
 30
0.0
  0
POINT
  5
14132
330
1402D
100
AcDbEntity
  8
DEFPOINTS
 62
     0
 48
50.0
100
AcDbPoint
 10
1390.964440327996
 20
4169.350524693576
 30
0.0
  0
POINT
  5
14133
330
1402D
100
AcDbEntity
  8
DEFPOINTS
 62
     0
 48
50.0
100
AcDbPoint
 10
1390.964440327996
 20
4749.977580675178
 30
0.0
  0
ENDBLK
  5
14038
330
1402D
100
AcDbEntity
  8
0
 48
50.0
100
AcDbBlockEnd
  0
BLOCK
  5
14045
330
14039
100
AcDbEntity
  8
0
 48
50.0
100
AcDbBlockBegin
  2
*D18
 70
     1
 10
0.0
 20
0.0
 30
0.0
  3
*D18
  1

  0
LINE
  5
14120
330
14039
100
AcDbEntity
  8
寸法
 62
     0
 48
50.0
370
    -2
100
AcDbLine
 10
10651.39646773927
 20
3395.134260963993
 30
0.0
 11
10651.39645543136
 21
3508.324427435654
 31
0.0
  0
LINE
  5
14121
330
14039
100
AcDbEntity
  8
寸法
 62
     0
 48
50.0
370
    -2
100
AcDbLine
 10
10609.39646773925
 20
3395.134256397058
 30
0.0
 11
10609.39645543134
 21
3508.324422868719
 31
0.0
  0
LINE
  5
14122
330
14039
100
AcDbEntity
  8
寸法
 62
     0
 48
50.0
370
    -2
100
AcDbLine
 10
10609.39646032449
 20
3463.324422868718
 30
0.0
 11
10534.39646032449
 21
3463.324414713476
 31
0.0
  0
LINE
  5
14123
330
14039
100
AcDbEntity
  8
寸法
 62
     0
 48
50.0
370
    -2
100
AcDbLine
 10
10651.3964603245
 20
3463.324427435654
 30
0.0
 11
11078.30177528513
 21
3463.324473855872
 31
0.0
  0
LINE
  5
14124
330
14039
100
AcDbEntity
  8
寸法
 62
     0
 48
50.0
370
    -2
100
AcDbLine
 10
10609.39646032449
 20
3463.324422868718
 30
0.0
 11
10651.3964603245
 21
3463.324427435654
 31
0.0
  0
INSERT
  5
14125
330
14039
100
AcDbEntity
  8
寸法
 62
     0
 48
50.0
370
    -2
100
AcDbBlockReference
  2
_DOTSMALL
 10
10609.39646032449
 20
3463.324422868718
 30
0.0
 41
75.0
 42
75.0
 43
75.0
 50
0.0000062301463345
  0
INSERT
  5
14126
330
14039
100
AcDbEntity
  8
寸法
 62
     0
 48
50.0
370
    -2
100
AcDbBlockReference
  2
_DOTSMALL
 10
10651.3964603245
 20
3463.324427435654
 30
0.0
 41
75.0
 42
75.0
 43
75.0
 50
180.0000062301463
  0
MTEXT
  5
14127
330
14039
100
AcDbEntity
  8
寸法
 62
     7
 48
50.0
100
AcDbMText
 10
10939.84910964861
 20
3538.333317068723
 30
0.0
 40
90.0
 41
0.0
 71
     5
 72
     1
  1
\A1;φ42
  7
STYLE1
 11
0.9999999999999941
 21
0.0000001087365664
 31
0.0
 73
     1
 44
1.0
1001
ACAD
1000
MTEXTBEGIN
1070
    73
1070
     1
1070
    44
1040
1.0
1070
    74
1070
     0
1000
MTEXTEND
  0
POINT
  5
14128
330
14039
100
AcDbEntity
  8
DEFPOINTS
 62
     0
 48
50.0
100
AcDbPoint
 10
10651.39646937032
 20
3380.134260963993
 30
0.0000000000000002
  0
POINT
  5
14129
330
14039
100
AcDbEntity
  8
DEFPOINTS
 62
     0
 48
50.0
100
AcDbPoint
 10
10609.3964693703
 20
3380.134256397058
 30
0.0000000000000002
  0
POINT
  5
1412A
330
14039
100
AcDbEntity
  8
DEFPOINTS
 62
     0
 48
50.0
100
AcDbPoint
 10
10609.39646032449
 20
3463.324422868718
 30
0.0
  0
ENDBLK
  5
14046
330
14039
100
AcDbEntity
  8
0
 48
50.0
100
AcDbBlockEnd
  0
BLOCK
  5
14051
330
14047
100
AcDbEntity
  8
0
 48
50.0
100
AcDbBlockBegin
  2
*D19
 70
     1
 10
0.0
 20
0.0
 30
0.0
  3
*D19
  1

  0
LINE
  5
14117
330
14047
100
AcDbEntity
  8
寸法
 62
     0
 48
50.0
370
    -2
100
AcDbLine
 10
6646.964440327981
 20
5903.716718365015
 30
0.0
 11
7141.962792977486
 21
5903.716718365015
 31
0.0
  0
LINE
  5
14118
330
14047
100
AcDbEntity
  8
寸法
 62
     0
 48
50.0
370
    -2
100
AcDbLine
 10
6665.964440327967
 20
7923.716718365297
 30
0.0
 11
7141.962792977487
 21
7923.716718365297
 31
0.0
  0
LINE
  5
14119
330
14047
100
AcDbEntity
  8
寸法
 62
     0
 48
50.0
370
    -2
100
AcDbLine
 10
7096.962792977485
 20
5903.716718365015
 30
0.0
 11
7096.962792977487
 21
7923.716718365297
 31
0.0
  0
INSERT
  5
1411A
330
14047
100
AcDbEntity
  8
寸法
 62
     0
 48
50.0
370
    -2
100
AcDbBlockReference
  2
_DOTSMALL
 10
7096.962792977485
 20
5903.716718365015
 30
0.0
 41
75.0
 42
75.0
 43
75.0
 50
270.0
  0
INSERT
  5
1411B
330
14047
100
AcDbEntity
  8
寸法
 62
     0
 48
50.0
370
    -2
100
AcDbBlockReference
  2
_DOTSMALL
 10
7096.962792977487
 20
7923.716718365297
 30
0.0
 41
75.0
 42
75.0
 43
75.0
 50
90.0
  0
MTEXT
  5
1411C
330
14047
100
AcDbEntity
  8
寸法
 62
     7
 48
50.0
100
AcDbMText
 10
7021.953934709769
 20
6913.716718365158
 30
0.0
 40
90.0
 41
0.0
 71
     5
 72
     1
  1
\A1;2020
  7
STYLE1
 11
0.0000000000000001
 21
1.0
 31
0.0
 73
     1
 44
1.0
1001
ACAD
1000
MTEXTBEGIN
1070
    73
1070
     1
1070
    44
1040
1.0
1070
    74
1070
     0
1000
MTEXTEND
  0
POINT
  5
1411D
330
14047
100
AcDbEntity
  8
DEFPOINTS
 62
     0
 48
50.0
100
AcDbPoint
 10
6631.964440327982
 20
5903.716718365015
 30
0.0
  0
POINT
  5
1411E
330
14047
100
AcDbEntity
  8
DEFPOINTS
 62
     0
 48
50.0
100
AcDbPoint
 10
6650.964440327967
 20
7923.716718365297
 30
0.0
  0
POINT
  5
1411F
330
14047
100
AcDbEntity
  8
DEFPOINTS
 62
     0
 48
50.0
100
AcDbPoint
 10
7096.962792977487
 20
7923.716718365297
 30
0.0
  0
ENDBLK
  5
14052
330
14047
100
AcDbEntity
  8
0
 48
50.0
100
AcDbBlockEnd
  0
BLOCK
  5
1405F
330
14053
100
AcDbEntity
  8
0
 48
50.0
100
AcDbBlockBegin
  2
*D20
 70
     1
 10
0.0
 20
0.0
 30
0.0
  3
*D20
  1

  0
LINE
  5
1410C
330
14053
100
AcDbEntity
  8
寸法
 62
     0
 48
50.0
370
    -2
100
AcDbLine
 10
6655.964440327967
 20
1917.640018622875
 30
0.0
 11
6990.303227268232
 21
1917.640018622875
 31
0.0
  0
LINE
  5
1410D
330
14053
100
AcDbEntity
  8
寸法
 62
     0
 48
50.0
370
    -2
100
AcDbLine
 10
6665.964440327967
 20
1867.640018622876
 30
0.0
 11
6990.303227268232
 21
1867.640018622876
 31
0.0
  0
LINE
  5
1410E
330
14053
100
AcDbEntity
  8
寸法
 62
     0
 48
50.0
370
    -2
100
AcDbLine
 10
6945.303227268232
 20
1867.640018622876
 30
0.0
 11
6945.303227268232
 21
1792.640018622876
 31
0.0
  0
LINE
  5
1410F
330
14053
100
AcDbEntity
  8
寸法
 62
     0
 48
50.0
370
    -2
100
AcDbLine
 10
6945.303227268232
 20
1917.640018622875
 30
0.0
 11
6945.303227268233
 21
2226.710884764617
 31
0.0
  0
LINE
  5
14110
330
14053
100
AcDbEntity
  8
寸法
 62
     0
 48
50.0
370
    -2
100
AcDbLine
 10
6945.303227268232
 20
1867.640018622876
 30
0.0
 11
6945.303227268232
 21
1917.640018622875
 31
0.0
  0
INSERT
  5
14111
330
14053
100
AcDbEntity
  8
寸法
 62
     0
 48
50.0
370
    -2
100
AcDbBlockReference
  2
_DOTSMALL
 10
6945.303227268232
 20
1867.640018622876
 30
0.0
 41
75.0
 42
75.0
 43
75.0
 50
90.0
  0
INSERT
  5
14112
330
14053
100
AcDbEntity
  8
寸法
 62
     0
 48
50.0
370
    -2
100
AcDbBlockReference
  2
_DOTSMALL
 10
6945.303227268232
 20
1917.640018622875
 30
0.0
 41
75.0
 42
75.0
 43
75.0
 50
270.0
  0
MTEXT
  5
14113
330
14053
100
AcDbEntity
  8
寸法
 62
     7
 48
50.0
100
AcDbMText
 10
6870.303227268232
 20
2147.175451693752
 30
0.0
 40
90.0
 41
0.0
 71
     5
 72
     1
  1
\A1;50
  7
STYLE1
 11
0.0000000000000001
 21
1.0
 31
0.0
 73
     1
 44
1.0
1001
ACAD
1000
MTEXTBEGIN
1070
    73
1070
     1
1070
    44
1040
1.0
1070
    74
1070
     0
1000
MTEXTEND
  0
POINT
  5
14114
330
14053
100
AcDbEntity
  8
DEFPOINTS
 62
     0
 48
50.0
100
AcDbPoint
 10
6640.964440327967
 20
1917.640018622875
 30
0.0
  0
POINT
  5
14115
330
14053
100
AcDbEntity
  8
DEFPOINTS
 62
     0
 48
50.0
100
AcDbPoint
 10
6650.964440327967
 20
1867.640018622876
 30
0.0
  0
POINT
  5
14116
330
14053
100
AcDbEntity
  8
DEFPOINTS
 62
     0
 48
50.0
100
AcDbPoint
 10
6945.303227268232
 20
1867.640018622876
 30
0.0
  0
ENDBLK
  5
14060
330
14053
100
AcDbEntity
  8
0
 48
50.0
100
AcDbBlockEnd
  0
BLOCK
  5
1406B
330
14061
100
AcDbEntity
  8
0
 48
50.0
100
AcDbBlockBegin
  2
*D21
 70
     1
 10
0.0
 20
0.0
 30
0.0
  3
*D21
  1

  0
LINE
  5
14103
330
14061
100
AcDbEntity
  8
寸法
 62
     0
 48
50.0
370
    -2
100
AcDbLine
 10
8668.399709002464
 20
1867.640018622876
 30
0.0
 11
8056.226630983321
 21
1867.640018622876
 31
0.0
  0
LINE
  5
14104
330
14061
100
AcDbEntity
  8
寸法
 62
     0
 48
50.0
370
    -2
100
AcDbLine
 10
8702.646053869234
 20
4169.640018622875
 30
0.0
 11
8056.226630983323
 21
4169.640018622875
 31
0.0
  0
LINE
  5
14105
330
14061
100
AcDbEntity
  8
寸法
 62
     0
 48
50.0
370
    -2
100
AcDbLine
 10
8101.226630983321
 20
1867.640018622876
 30
0.0
 11
8101.226630983321
 21
4169.640018622875
 31
0.0
  0
INSERT
  5
14106
330
14061
100
AcDbEntity
  8
寸法
 62
     0
 48
50.0
370
    -2
100
AcDbBlockReference
  2
_DOTSMALL
 10
8101.226630983321
 20
1867.640018622876
 30
0.0
 41
75.0
 42
75.0
 43
75.0
 50
270.0
  0
INSERT
  5
14107
330
14061
100
AcDbEntity
  8
寸法
 62
     0
 48
50.0
370
    -2
100
AcDbBlockReference
  2
_DOTSMALL
 10
8101.226630983321
 20
4169.640018622875
 30
0.0
 41
75.0
 42
75.0
 43
75.0
 50
90.0
  0
MTEXT
  5
14108
330
14061
100
AcDbEntity
  8
寸法
 62
     7
 48
50.0
100
AcDbMText
 10
8026.217772715604
 20
3018.640018622877
 30
0.0
 40
90.0
 41
0.0
 71
     5
 72
     1
  1
\A1;2302
  7
STYLE1
 11
0.0000000000000001
 21
1.0
 31
0.0
 73
     1
 44
1.0
1001
ACAD
1000
MTEXTBEGIN
1070
    73
1070
     1
1070
    44
1040
1.0
1070
    74
1070
     0
1000
MTEXTEND
  0
POINT
  5
14109
330
14061
100
AcDbEntity
  8
DEFPOINTS
 62
     0
 48
50.0
100
AcDbPoint
 10
8683.399709002463
 20
1867.640018622876
 30
0.0
  0
POINT
  5
1410A
330
14061
100
AcDbEntity
  8
DEFPOINTS
 62
     0
 48
50.0
100
AcDbPoint
 10
8717.646053869234
 20
4169.640018622875
 30
0.0
  0
POINT
  5
1410B
330
14061
100
AcDbEntity
  8
DEFPOINTS
 62
     0
 48
50.0
100
AcDbPoint
 10
8101.226630983321
 20
4169.640018622875
 30
0.0
  0
ENDBLK
  5
1406C
330
14061
100
AcDbEntity
  8
0
 48
50.0
100
AcDbBlockEnd
  0
ENDSEC
  0
SECTION
  2
ENTITIES
  0
MTEXT
  5
763F
330
747D
100
AcDbEntity
  8
0
100
AcDbMText
 10
302.846345836809
 20
280.1983726409901
 30
0.0
 40
3.5
 41
5.323721266742722
 71
     1
 72
     5
  1

  7
MSMINCHO
 73
     1
 44
1.0
1001
ACAD
1000
MTEXTBEGIN
1070
    73
1070
     1
1070
    44
1040
1.0
1070
    74
1070
     0
1000
MTEXTEND
  0
LINE
  5
10B56
330
747D
100
AcDbEntity
  8
補助
  6
PHANTOM
 62
   230
 48
50.0
100
AcDbLine
 10
105.0
 20
0.0
 30
0.0
 11
104.9999999999996
 21
8557.199999999999
 31
0.0
  0
LINE
  5
10B57
330
747D
100
AcDbEntity
  8
補助
  6
PHANTOM
 62
   230
 48
50.0
100
AcDbLine
 10
104.9999999999996
 20
8557.199999999999
 30
0.0
 11
12230.4
 21
8557.199999999999
 31
0.0
  0
LINE
  5
10B5E
330
747D
100
AcDbEntity
  8
補助
  6
PHANTOM
 62
   230
 48
50.0
100
AcDbLine
 10
12230.4
 20
8557.199999999999
 30
0.0
 11
12230.4
 21
900.0
 31
0.0
  0
LINE
  5
10B6D
330
747D
100
AcDbEntity
  8
補助
  6
PHANTOM
 62
   230
 48
50.0
100
AcDbLine
 10
9830.400000000002
 20
8557.199999999999
 30
0.0
 11
9830.400000000002
 21
3600.0
 31
0.0
  0
LINE
  5
10B6F
330
747D
100
AcDbEntity
  8
補助
  6
PHANTOM
 62
   230
 48
50.0
100
AcDbLine
 10
9830.400000000002
 20
3110.960973647383
 30
0.0
 11
12230.4
 21
3110.960973647383
 31
0.0
  0
LINE
  5
13125
330
747D
100
AcDbEntity
  8
補助
  6
PHANTOM
 62
   230
 48
50.0
100
AcDbLine
 10
11930.4
 20
8182.200000000003
 30
0.0
 11
11930.4
 21
6457.2
 31
0.0
  0
LINE
  5
13126
330
747D
100
AcDbEntity
  8
補助
  6
PHANTOM
 62
   230
 48
50.0
100
AcDbLine
 10
9380.400000000003
 20
8182.199999999999
 30
0.0
 11
9380.400000000003
 21
6457.2
 31
0.0
  0
LINE
  5
13127
330
747D
100
AcDbEntity
  8
補助
  6
PHANTOM
 62
   230
 48
50.0
100
AcDbLine
 10
9380.400000000003
 20
6457.2
 30
0.0
 11
11930.4
 21
6457.2
 31
0.0
  0
LINE
  5
13128
330
747D
100
AcDbEntity
  8
補助
  6
PHANTOM
 62
   230
 48
50.0
100
AcDbLine
 10
9380.400000000003
 20
8182.199999999999
 30
0.0
 11
11930.4
 21
8182.200000000003
 31
0.0
  0
TEXT
  5
13B8E
330
747D
100
AcDbEntity
  8
部品1
 48
50.0
100
AcDbText
 10
5581.15310011906
 20
5324.044661736441
 30
0.0
 40
156.25
  1
⑤
  7
STYLE2
100
AcDbText
  0
TEXT
  5
13B8F
330
747D
100
AcDbEntity
  8
部品1
 48
50.0
100
AcDbText
 10
1786.291675166576
 20
5324.044661736441
 30
0.0
 40
156.25
  1
②
  7
STYLE2
100
AcDbText
  0
TEXT
  5
13B90
330
747D
100
AcDbEntity
  8
仕様書枠
 62
     7
 48
50.0
100
AcDbText
 10
3728.863646743994
 20
1079.634293902871
 30
0.0
 40
112.0
  1
正 面 図
  7
STYLE2
100
AcDbText
  0
LINE
  5
13B91
330
747D
100
AcDbEntity
  8
部品1
 48
5.0
100
AcDbLine
 10
3810.464440327873
 20
5969.770378566632
 30
0.0000000000000038
 11
3810.464440327873
 21
5970.060328060325
 31
0.0000000000000038
  0
LINE
  5
13B92
330
747D
100
AcDbEntity
  8
部品1
 48
50.0
100
AcDbLine
 10
4197.079196062084
 20
6212.736260007802
 30
0.0000000000000094
 11
4197.079196062207
 21
7881.685095933757
 31
0.0
  0
TEXT
  5
13B93
330
747D
100
AcDbEntity
  8
文字
 62
     7
 48
50.0
100
AcDbText
 10
11535.04853045396
 20
8068.976005836125
 30
0.0
 40
81.11400000000001
  1
単位mm
  7
STYLE1
100
AcDbText
  0
TEXT
  5
13B94
330
747D
100
AcDbEntity
  8
文字
 62
     7
 48
50.0
100
AcDbText
 10
11623.33570057169
 20
7241.613205836131
 30
0.0
 40
81.11400000000001
  1
0.6
 41
0.8
  7
STYLE1
100
AcDbText
  0
TEXT
  5
13B95
330
747D
100
AcDbEntity
  8
文字
 62
     7
 48
50.0
100
AcDbText
 10
11623.33570057169
 20
7379.507005836129
 30
0.0
 40
81.11400000000001
  1
0.7
 41
0.8
  7
STYLE1
100
AcDbText
  0
TEXT
  5
13B96
330
747D
100
AcDbEntity
  8
文字
 62
     7
 48
50.0
100
AcDbText
 10
11623.33570057169
 20
7517.400805836125
 30
0.0
 40
81.11400000000001
  1
0.7
 41
0.8
  7
STYLE1
100
AcDbText
  0
TEXT
  5
13B97
330
747D
100
AcDbEntity
  8
文字
 62
     7
 48
50.0
100
AcDbText
 10
11623.33570057169
 20
7655.29460583613
 30
0.0
 40
81.11400000000001
  1
0.5
 41
0.8
  7
STYLE1
100
AcDbText
  0
TEXT
  5
13B98
330
747D
100
AcDbEntity
  8
文字
 62
     7
 48
50.0
100
AcDbText
 10
11623.33570057169
 20
7793.188405836129
 30
0.0
 40
81.11400000000001
  1
1.6
 41
0.8
  7
STYLE1
100
AcDbText
  0
TEXT
  5
13B99
330
747D
100
AcDbEntity
  8
文字
 62
     7
 48
50.0
100
AcDbText
 10
11623.33570057169
 20
7931.082205836126
 30
0.0
 40
81.11400000000001
  1
4.2
 41
0.8
  7
STYLE1
100
AcDbText
  0
TEXT
  5
13B9A
330
747D
100
AcDbEntity
  8
文字
 62
     7
 48
50.0
100
AcDbText
 10
9756.354135807924
 20
7103.71940583613
 30
0.0
 40
81.11400000000001
  1
ASA樹脂
 41
0.8
  7
STYLE1
100
AcDbText
  0
TEXT
  5
13B9B
330
747D
100
AcDbEntity
  8
文字
 62
     7
 48
50.0
100
AcDbText
 10
9756.354135807924
 20
7931.082205836126
 30
0.0
 40
81.11400000000001
  1
一般構造用炭素鋼鋼管
 41
0.8
  7
STYLE1
100
AcDbText
  0
TEXT
  5
13B9C
330
747D
100
AcDbEntity
  8
文字
 62
     7
 48
50.0
100
AcDbText
 10
9756.354135807924
 20
7793.188405836129
 30
0.0
 40
81.11400000000001
  1
溶融亜鉛めっき鋼板
 41
0.8
  7
STYLE1
100
AcDbText
  0
TEXT
  5
13B9D
330
747D
100
AcDbEntity
  8
文字
 62
     7
 48
50.0
100
AcDbText
 10
9756.354135807924
 20
7655.29460583613
 30
0.0
 40
81.11400000000001
  1
溶融亜鉛-5%アルミニウム合金めっき鋼板
 41
0.8
  7
STYLE1
100
AcDbText
  0
TEXT
  5
13B9E
330
747D
100
AcDbEntity
  8
文字
 62
     7
 48
50.0
100
AcDbText
 10
9756.354135807924
 20
7517.400805836125
 30
0.0
 40
81.11400000000001
  1
　　　　　　　　　〃
 41
0.8
  7
STYLE1
100
AcDbText
  0
TEXT
  5
13B9F
330
747D
100
AcDbEntity
  8
文字
 62
     7
 48
50.0
100
AcDbText
 10
9756.354135807924
 20
7379.507005836128
 30
0.0
 40
81.11400000000001
  1
　　　　　　　　　〃
 41
0.8
  7
STYLE1
100
AcDbText
  0
LINE
  5
13BA0
330
747D
100
AcDbEntity
  8
部品1
100
AcDbLine
 10
11930.40000000001
 20
6527.474400000001
 30
0.0
 11
11930.40000000001
 21
8182.200000000003
 31
0.0
  0
TEXT
  5
13BA1
330
747D
100
AcDbEntity
  8
文字
 62
     7
 48
50.0
100
AcDbText
 10
9756.354135807924
 20
7241.61320583613
 30
0.0
 40
81.11400000000001
  1
塗装溶融55%アルミニウム-亜鉛合金めっき鋼板
 41
0.8
  7
STYLE1
100
AcDbText
  0
LINE
  5
13BA2
330
747D
100
AcDbEntity
  8
部品1
100
AcDbLine
 10
11930.40000000001
 20
6527.474400000002
 30
0.0
 11
8380.400000000008
 21
6527.474400000002
 31
0.0
  0
TEXT
  5
13BA3
330
747D
100
AcDbEntity
  8
文字
 62
     7
 48
50.0
100
AcDbText
 10
8461.945370829125
 20
6552.144205836128
 30
0.0
 40
81.11400000000001
  1
塗装溶融55％アルミニウム-亜鉛合金めっき鋼板→AZ150(JIS G 3322)
  7
STYLE1
100
AcDbText
  0
TEXT
  5
13BA4
330
747D
100
AcDbEntity
  8
文字
 62
     7
 48
50.0
100
AcDbText
 10
8748.510891051177
 20
7241.613205836127
 30
0.0
 40
81.11400000000001
  1
軒とい
  7
STYLE1
100
AcDbText
  0
TEXT
  5
13BA5
330
747D
100
AcDbEntity
  8
文字
 62
     7
 48
50.0
100
AcDbText
 10
8748.510891051177
 20
7517.400805836124
 30
0.0
 40
81.11400000000001
  1
妻板
  7
STYLE1
100
AcDbText
  0
LINE
  5
13BA6
330
747D
100
AcDbEntity
  8
部品1
100
AcDbLine
 10
11930.40000000001
 20
7079.049600000004
 30
0.0
 11
8380.400000000008
 21
7079.049600000004
 31
0.0
  0
TEXT
  5
13BA7
330
747D
100
AcDbEntity
  8
文字
 62
     7
 48
50.0
100
AcDbText
 10
8461.945370829301
 20
6965.825605836132
 30
0.0
 40
81.11400000000001
  1
一般構造用炭素鋼鋼管→Y12(JIS G 3444)
  7
STYLE1
100
AcDbText
  0
TEXT
  5
13BA8
330
747D
100
AcDbEntity
  8
文字
 62
     7
 48
50.0
100
AcDbText
 10
8461.945370829125
 20
6690.038005836129
 30
0.0
 40
81.11400000000001
  1
溶融亜鉛-5％アルミニウム合金めっき鋼板→Y10(JIS G 3317)
  7
STYLE1
100
AcDbText
  0
TEXT
  5
13BA9
330
747D
100
AcDbEntity
  8
文字
 62
     7
 48
50.0
100
AcDbText
 10
8461.945370829139
 20
6827.931805836131
 30
0.0
 40
81.11400000000001
  1
溶融亜鉛めっき鋼板→F12(JIS G 3302)
  7
STYLE1
100
AcDbText
  0
TEXT
  5
13BAA
330
747D
100
AcDbEntity
  8
文字
 62
     7
 48
50.0
100
AcDbText
 10
8748.510891051193
 20
7103.719405836134
 30
0.0
 40
81.11400000000001
  1
雨とい
  7
STYLE1
100
AcDbText
  0
TEXT
  5
13BAB
330
747D
100
AcDbEntity
  8
文字
 62
     7
 48
50.0
100
AcDbText
 10
8748.510891051193
 20
7655.294605836125
 30
0.0
 40
81.11400000000001
  1
屋根パネル
  7
STYLE1
100
AcDbText
  0
LINE
  5
13BAC
330
747D
100
AcDbEntity
  8
部品1
100
AcDbLine
 10
11930.40000000001
 20
8182.199999999999
 30
0.0
 11
8380.400000000008
 21
8182.200000000003
 31
0.0
  0
LINE
  5
13BAD
330
747D
100
AcDbEntity
  8
部品1
100
AcDbLine
 10
9695.844920000018
 20
8182.199999999999
 30
0.0
 11
9695.844920000018
 21
7079.049600000004
 31
0.0
  0
LINE
  5
13BAE
330
747D
100
AcDbEntity
  8
部品1
100
AcDbLine
 10
8673.141230280178
 20
8182.200000000003
 30
0.0
 11
8673.141230280192
 21
7079.049600000004
 31
0.0
  0
LINE
  5
13BAF
330
747D
100
AcDbEntity
  8
部品1
100
AcDbLine
 10
11930.40000000001
 20
8044.306199999995
 30
0.0
 11
8380.400000000008
 21
8044.306200000001
 31
0.0
  0
LINE
  5
13BB0
330
747D
100
AcDbEntity
  8
部品1
100
AcDbLine
 10
11930.40000000001
 20
7768.518600000001
 30
0.0
 11
8380.400000000008
 21
7768.518600000001
 31
0.0
  0
LINE
  5
13BB1
330
747D
100
AcDbEntity
  8
部品1
100
AcDbLine
 10
11930.40000000001
 20
7906.412399999999
 30
0.0
 11
8380.400000000008
 21
7906.412399999999
 31
0.0
  0
LINE
  5
13BB2
330
747D
100
AcDbEntity
  8
部品1
100
AcDbLine
 10
11930.40000000001
 20
7492.730999999998
 30
0.0
 11
8380.400000000008
 21
7492.730999999998
 31
0.0
  0
LINE
  5
13BB3
330
747D
100
AcDbEntity
  8
部品1
100
AcDbLine
 10
11930.40000000001
 20
7354.837200000002
 30
0.0
 11
8380.400000000008
 21
7354.8372
 31
0.0
  0
LINE
  5
13BB4
330
747D
100
AcDbEntity
  8
部品1
100
AcDbLine
 10
11930.40000000001
 20
7630.624800000004
 30
0.0
 11
8380.400000000008
 21
7630.624800000004
 31
0.0
  0
TEXT
  5
13BB5
330
747D
100
AcDbEntity
  8
文字
 62
     7
 48
50.0
100
AcDbText
 10
8435.659867331066
 20
8068.976005836125
 30
0.0
 40
81.11400000000001
  1
品番
  7
STYLE1
100
AcDbText
  0
TEXT
  5
13BB6
330
747D
100
AcDbEntity
  8
文字
 62
     7
 48
50.0
100
AcDbText
 10
8495.493720430589
 20
7931.082205836128
 30
0.0
 40
81.11400000000001
  1
1
  7
STYLE1
100
AcDbText
  0
TEXT
  5
13BB7
330
747D
100
AcDbEntity
  8
文字
 62
     7
 48
50.0
100
AcDbText
 10
8495.493720430589
 20
7793.18840583613
 30
0.0
 40
81.11400000000001
  1
2
  7
STYLE1
100
AcDbText
  0
TEXT
  5
13BB8
330
747D
100
AcDbEntity
  8
文字
 62
     7
 48
50.0
100
AcDbText
 10
8495.493720430589
 20
7517.400805836127
 30
0.0
 40
81.11400000000001
  1
4
  7
STYLE1
100
AcDbText
  0
TEXT
  5
13BB9
330
747D
100
AcDbEntity
  8
文字
 62
     7
 48
50.0
100
AcDbText
 10
8495.493720430589
 20
7655.294605836125
 30
0.0
 40
81.11400000000001
  1
3
  7
STYLE1
100
AcDbText
  0
TEXT
  5
13BBA
330
747D
100
AcDbEntity
  8
文字
 62
     7
 48
50.0
100
AcDbText
 10
8888.635855497735
 20
8068.976005836125
 30
0.0
 40
81.11400000000001
  1
部　　品　　名
  7
STYLE1
100
AcDbText
  0
TEXT
  5
13BBB
330
747D
100
AcDbEntity
  8
文字
 62
     7
 48
50.0
100
AcDbText
 10
9756.354135807924
 20
8068.976005836125
 30
0.0
 40
81.11400000000001
  1
材料（材質）
  7
STYLE1
100
AcDbText
  0
TEXT
  5
13BBC
330
747D
100
AcDbEntity
  8
文字
 62
     7
 48
50.0
100
AcDbText
 10
8748.510891051177
 20
7931.082205836128
 30
0.0
 40
81.11400000000001
  1
柱･梁
  7
STYLE1
100
AcDbText
  0
TEXT
  5
13BBD
330
747D
100
AcDbEntity
  8
文字
 62
     7
 48
50.0
100
AcDbText
 10
8748.510891051177
 20
7379.507005836124
 30
0.0
 40
81.11400000000001
  1
鼻隠シ前
  7
STYLE1
100
AcDbText
  0
TEXT
  5
13BBE
330
747D
100
AcDbEntity
  8
文字
 62
     7
 48
50.0
100
AcDbText
 10
8495.493720430589
 20
7379.507005836124
 30
0.0
 40
81.11400000000001
  1
5
  7
STYLE1
100
AcDbText
  0
TEXT
  5
13BBF
330
747D
100
AcDbEntity
  8
文字
 62
     7
 48
50.0
100
AcDbText
 10
8495.493720430575
 20
7103.719405836125
 30
0.0
 40
81.11400000000001
  1
7
  7
STYLE1
100
AcDbText
  0
TEXT
  5
13BC0
330
747D
100
AcDbEntity
  8
文字
 62
     7
 48
50.0
100
AcDbText
 10
8495.493720430589
 20
7241.613205836127
 30
0.0
 40
81.11400000000001
  1
6
  7
STYLE1
100
AcDbText
  0
LINE
  5
13BC1
330
747D
100
AcDbEntity
  8
部品1
100
AcDbLine
 10
11930.40000000001
 20
6941.155800000005
 30
0.0
 11
8380.400000000008
 21
6941.155800000005
 31
0.0
  0
LINE
  5
13BC2
330
747D
100
AcDbEntity
  8
部品1
100
AcDbLine
 10
10930.40000000001
 20
7079.049600000004
 30
0.0
 11
8380.400000000008
 21
7079.049600000004
 31
0.0
  0
LINE
  5
13BC3
330
747D
100
AcDbEntity
  8
部品1
100
AcDbLine
 10
11930.40000000001
 20
7216.943400000004
 30
0.0
 11
8380.400000000008
 21
7216.943400000002
 31
0.0
  0
LINE
  5
13BC4
330
747D
100
AcDbEntity
  8
部品1
100
AcDbLine
 10
11930.40000000001
 20
6803.262000000003
 30
0.0
 11
8380.400000000008
 21
6803.262000000007
 31
0.0
  0
LINE
  5
13BC5
330
747D
100
AcDbEntity
  8
部品1
100
AcDbLine
 10
8380.400000000008
 20
8182.200000000003
 30
0.0
 11
8380.400000000008
 21
6527.474400000001
 31
0.0
  0
LINE
  5
13BC6
330
747D
100
AcDbEntity
  8
部品1
100
AcDbLine
 10
11930.40000000001
 20
6665.368200000004
 30
0.0
 11
8380.400000000008
 21
6665.368200000004
 31
0.0
  0
TEXT
  5
13BC7
330
747D
100
AcDbEntity
  8
文字
 62
     7
 48
50.0
100
AcDbText
 10
8748.510891051193
 20
7793.188405836126
 30
0.0
 40
81.11400000000001
  1
母屋
  7
STYLE1
100
AcDbText
  0
DIMENSION
  5
13BC8
330
747D
100
AcDbEntity
  8
寸法
 48
50.0
100
AcDbDimension
  2
*D6
 10
6420.964270327953
 20
1415.735943936068
 30
0.0
 11
5220.964270327968
 21
1490.744802203784
 31
0.0
 70
    32
 71
     5
 42
2399.999999999971
  3
INABA_S30G
100
AcDbAlignedDimension
 13
4020.964270327982
 23
1747.640014849397
 33
0.0000000000000002
 14
6420.964270327953
 24
1747.640014849397
 34
0.0
100
AcDbRotatedDimension
  0
DIMENSION
  5
13BC9
330
747D
100
AcDbEntity
  8
寸法
 48
50.0
100
AcDbDimension
  2
*D7
 10
4020.964270327975
 20
1415.735943936068
 30
0.0
 11
2820.964270327993
 21
1490.744802203784
 31
0.0
 70
    32
 71
     5
 42
2399.999999999964
  3
INABA_S30G
100
AcDbAlignedDimension
 13
1620.964270328011
 23
1747.640014849397
 33
0.0000000000000002
 14
4020.964270327975
 24
1747.640014849397
 34
0.0
100
AcDbRotatedDimension
  0
LINE
  5
13BCA
330
747D
100
AcDbEntity
  8
センター
 48
0.5
100
AcDbLine
 10
6420.964270327982
 20
2137.640014849398
 30
0.0000000000000002
 11
6420.964270327982
 21
1747.640014849397
 31
0.0000000000000002
  0
LINE
  5
13BCB
330
747D
100
AcDbEntity
  8
センター
 48
0.5
100
AcDbLine
 10
4020.964270327982
 20
2137.640014849398
 30
0.0000000000000002
 11
4020.964270327982
 21
1747.640014849397
 31
0.0000000000000002
  0
LINE
  5
13BCC
330
747D
100
AcDbEntity
  8
センター
 48
0.5
100
AcDbLine
 10
1620.964270328011
 20
2137.640014849398
 30
0.0000000000000002
 11
1620.964270328011
 21
1747.640014849397
 31
0.0000000000000002
  0
DIMENSION
  5
13BCD
330
747D
100
AcDbEntity
  8
寸法
 48
50.0
100
AcDbDimension
  2
*D8
 10
1067.335811630895
 20
7512.716718364733
 30
0.0
 11
992.3358116308943
 21
7718.216718365015
 31
0.0
 70
    32
 71
     5
 42
411.0000000005639
  3
INABA_S30G
100
AcDbAlignedDimension
 13
1390.964440327996
 23
7923.716718365297
 33
0.0
 14
1292.464440328069
 24
7512.716718364733
 34
0.0
 50
90.0
100
AcDbRotatedDimension
1001
ACAD
1000
DSTYLE
1002
{
1070
   341
1005
0
1002
}
  0
DIMENSION
  5
13BCE
330
747D
100
AcDbEntity
  8
寸法
 48
50.0
100
AcDbDimension
  2
*D9
 10
1067.335811630888
 20
6146.716718364732
 30
0.0
 11
992.3358116308872
 21
6488.216718364732
 31
0.0
 70
    32
 71
     5
 42
683.0
  3
INABA_S30G
100
AcDbAlignedDimension
 13
1292.464440328069
 23
6829.716718364733
 33
0.0
 14
1292.464440328069
 24
6146.716718364732
 34
0.0
 50
90.0
100
AcDbRotatedDimension
1001
ACAD
1000
DSTYLE
1002
{
1070
   279
1070
     1
1070
   341
1005
0
1002
}
  0
DIMENSION
  5
13BCF
330
747D
100
AcDbEntity
  8
寸法
 48
50.0
100
AcDbDimension
  2
*D10
 10
1067.335811630895
 20
6829.716718364733
 30
0.0
 11
992.3358116308943
 21
7171.216718364732
 31
0.0
 70
    32
 71
     5
 42
683.0
  3
INABA_S30G
100
AcDbAlignedDimension
 13
1292.464440328069
 23
7512.716718364733
 33
0.0
 14
1292.464440328069
 24
6829.716718364733
 34
0.0
 50
90.0
100
AcDbRotatedDimension
1001
ACAD
1000
DSTYLE
1002
{
1070
   279
1070
     1
1070
   341
1005
0
1002
}
  0
DIMENSION
  5
13BD0
330
747D
100
AcDbEntity
  8
寸法
 48
50.0
100
AcDbDimension
  2
*D11
 10
1067.335811630888
 20
5903.716718365016
 30
0.0
 11
992.3269533631707
 21
6025.216718364874
 31
0.0
 70
    32
 71
     5
 42
242.9999999997162
  3
INABA_S30G
100
AcDbAlignedDimension
 13
1292.464440328069
 23
6146.716718364732
 33
0.0
 14
1409.96444032796
 24
5903.716718365016
 34
-0.0000000000002893
 50
90.0
100
AcDbRotatedDimension
1001
ACAD
1000
DSTYLE
1002
{
1070
   279
1070
     1
1070
   341
1005
0
1002
}
  0
LINE
  5
13BD1
330
747D
100
AcDbEntity
  8
仕様書枠
  6
Continuous
 48
50.0
100
AcDbLine
 10
9830.400000000009
 20
900.0
 30
0.0
 11
9830.400000000009
 21
0.0
 31
0.0
  0
LINE
  5
13BD2
330
747D
100
AcDbEntity
  8
仕様書枠
 48
50.0
100
AcDbLine
 10
12230.40000000001
 20
900.0
 30
0.0
 11
12230.40000000001
 21
0.0
 31
0.0
  0
LINE
  5
13BD3
330
747D
100
AcDbEntity
  8
仕様書枠
 48
50.0
100
AcDbLine
 10
105.0
 20
0.0
 30
0.0
 11
12230.40000000001
 21
0.0
 31
0.0
  0
LINE
  5
13BD4
330
747D
100
AcDbEntity
  8
仕様書枠
 48
50.0
100
AcDbLine
 10
9830.400000000009
 20
900.0
 30
0.0
 11
12230.40000000001
 21
900.0
 31
0.0
  0
LINE
  5
13BD5
330
747D
100
AcDbEntity
  8
文字
 62
     7
 48
50.0
100
AcDbLine
 10
9890.40000000001
 20
300.0
 30
0.0
 11
12170.40000000001
 21
300.0
 31
0.0
  0
TEXT
  5
13BD6
330
747D
100
AcDbEntity
  8
文字
 62
     7
 48
50.0
100
AcDbText
 10
9872.234292432681
 20
671.3179555724555
 30
0.0
 40
150.0
  1
外 形 図
  7
STYLE2
100
AcDbText
  0
TEXT
  5
13BD7
330
747D
100
AcDbEntity
  8
文字
 62
     7
 48
50.0
100
AcDbText
 10
9901.077524988316
 20
357.9555495773438
 30
0.0
 40
120.0
  1
機種名
  7
STYLE2
100
AcDbText
  0
TEXT
  5
13BD8
330
747D
100
AcDbEntity
  8
文字
 62
     7
 48
50.0
100
AcDbText
 10
10893.0988779165
 20
773.6682797184212
 30
0.0
 40
75.0
  1
             <縮尺> S=1/30
  7
STYLE2
100
AcDbText
  0
LINE
  5
13BD9
330
747D
100
AcDbEntity
  8
仕様書枠
 48
50.0
100
AcDbLine
 10
9830.400000000009
 20
600.0
 30
0.0
 11
10688.40000000001
 21
600.0
 31
0.0
  0
LINE
  5
13BDA
330
747D
100
AcDbEntity
  8
仕様書枠
  6
Continuous
 48
50.0
100
AcDbLine
 10
10688.40000000001
 20
900.0
 30
0.0
 11
10688.40000000001
 21
600.0
 31
0.0
  0
TEXT
  5
13BDB
330
747D
100
AcDbEntity
  8
文字
 62
     7
 48
50.0
100
AcDbText
 10
10681.61217095185
 20
362.9225347433567
 30
0.0
 40
120.0
  1
BP-24UL･24PL-2
  7
STYLE3
100
AcDbText
  0
TEXT
  5
13BDC
330
747D
100
AcDbEntity
  8
文字
 62
     7
 48
50.0
100
AcDbText
 10
11138.71739229688
 20
628.6895453046891
 30
0.0
 40
75.0
  1
～一般型～
  7
STYLE2
100
AcDbText
  0
TEXT
  5
13BDD
330
747D
100
AcDbEntity
  8
寸法
 62
     7
 48
50.0
100
AcDbText
 10
930.9673234543152
 20
1890.815749508985
 30
0.0
 40
78.4
  1
▽G.L
100
AcDbText
  0
LWPOLYLINE
  5
13BDE
330
747D
100
AcDbEntity
  8
部品1
100
AcDbPolyline
 90
        4
 70
     1
 43
0.0
 10
3697.448569982459
 20
1233.499018253054
 10
4344.479945262981
 20
1233.499018253054
 10
4344.479945262981
 20
1040.978862435914
 10
3697.448569982459
 20
1040.978862435914
  0
LWPOLYLINE
  5
13BDF
330
747D
100
AcDbEntity
  8
部品1
100
AcDbPolyline
 90
        4
 70
     1
 43
0.0
 10
3697.448569982459
 20
5471.393552814885
 10
4344.479945262981
 20
5471.393552814885
 10
4344.479945262981
 20
5278.873396997745
 10
3697.448569982459
 20
5278.873396997745
  0
TEXT
  5
13BE0
330
747D
100
AcDbEntity
  8
仕様書枠
 62
     7
 48
50.0
100
AcDbText
 10
3728.86364674398
 20
5317.528828464703
 30
0.0
 40
112.0
  1
平 面 図
  7
STYLE2
100
AcDbText
  0
LWPOLYLINE
  5
13BE1
330
747D
100
AcDbEntity
  8
部品1
100
AcDbPolyline
 90
        4
 70
     1
 43
0.0
 10
9417.314885125975
 20
1232.746640230072
 10
10064.3462604065
 20
1232.746640230072
 10
10064.3462604065
 20
1040.226484412932
 10
9417.314885125975
 20
1040.226484412932
  0
TEXT
  5
13BE2
330
747D
100
AcDbEntity
  8
仕様書枠
 62
     7
 48
50.0
100
AcDbText
 10
9448.729961887497
 20
1078.881915879891
 30
0.0
 40
112.0
  1
側 面 図
  7
STYLE2
100
AcDbText
  0
LINE
  5
13BE3
330
747D
100
AcDbEntity
  8
Ｇ．Ｌ
 48
50.0
100
AcDbLine
 10
852.7338315156521
 20
1867.640018622876
 30
0.0
 11
11346.20496767243
 21
1867.640018622876
 31
0.0
  0
TEXT
  5
13BE4
330
747D
100
AcDbEntity
  8
文字
 62
     7
 48
50.0
100
AcDbText
 10
9907.054008162901
 20
171.4076431926769
 30
0.0
 40
75.0
  1
○間口奥行寸法は柱芯寸法です。
  7
STYLE2
100
AcDbText
  0
LINE
  5
13BE5
330
747D
100
AcDbEntity
  8
部品1
 48
50.0
100
AcDbLine
 10
10607.89644765323
 20
1984.990301580931
 30
0.0000000000000002
 11
10652.89644765323
 21
1984.990299675143
 31
0.0000000000000002
  0
LINE
  5
13BE6
330
747D
100
AcDbEntity
  8
部品1
 48
50.0
100
AcDbLine
 10
10652.89644765323
 20
1984.990299675143
 30
0.0000000000000002
 11
10652.89644680622
 21
1964.990299675143
 31
0.0000000000000002
  0
LINE
  5
13BE7
330
747D
100
AcDbEntity
  8
部品1
 48
50.0
100
AcDbLine
 10
10652.89644680622
 20
1964.990299675143
 30
0.0000000000000002
 11
10654.89644679126
 21
1964.637645629034
 31
0.0000000000000002
  0
LINE
  5
13BE8
330
747D
100
AcDbEntity
  8
部品1
 48
50.0
100
AcDbLine
 10
10633.92652751079
 20
1924.874949783908
 30
0.0000000000000002
 11
10647.46430300204
 21
1922.487874114852
 31
0.0000000000000002
  0
LINE
  5
13BE9
330
747D
100
AcDbEntity
  8
部品1
 48
50.0
100
AcDbLine
 10
10674.19254267493
 20
1958.895834302605
 30
0.0000000000000002
 11
10667.56051694469
 21
1921.283756666299
 31
0.0000000000000002
  0
LINE
  5
13BEA
330
747D
100
AcDbEntity
  8
部品1
 48
50.0
100
AcDbLine
 10
10607.89644765323
 20
1984.990301580931
 30
0.0000000000000002
 11
10607.89644642107
 21
1955.896395106191
 31
0.0000000000000002
  0
ARC
  5
13BEB
330
747D
100
AcDbEntity
  8
部品1
 48
50.0
100
AcDbCircle
 10
10639.39644642107
 20
1955.896393772141
 30
0.0000000000000002
 40
31.5
100
AcDbArc
 50
179.9999975735403
 51
259.9999975739367
  0
LINE
  5
13BEC
330
747D
100
AcDbEntity
  8
部品1
 48
50.0
100
AcDbLine
 10
10654.63597446221
 20
1963.160434010543
 30
0.0000000000000002
 11
10671.37770613837
 21
1960.208414281175
 31
0.0000000000000002
  0
LINE
  5
13BED
330
747D
100
AcDbEntity
  8
部品1
 48
50.0
100
AcDbLine
 10
10647.72477533106
 20
1923.965085733346
 30
0.0000000000000002
 11
10664.46650700726
 21
1921.013066003989
 31
0.0000000000000002
  0
LINE
  5
13BEE
330
747D
100
AcDbEntity
  8
部品1
 48
50.0
100
AcDbLine
 10
10654.89644679127
 20
1964.637645629023
 30
0.0000000000000002
 11
10654.63597446223
 21
1963.160434010536
 31
0.0000000000000002
  0
LINE
  5
13BEF
330
747D
100
AcDbEntity
  8
部品1
 48
50.0
100
AcDbLine
 10
10647.72477533108
 20
1923.965085733343
 30
0.0000000000000002
 11
10647.46430300205
 21
1922.48787411486
 31
0.0000000000000002
  0
LINE
  5
13BF0
330
747D
100
AcDbEntity
  8
部品1
 48
50.0
100
AcDbLine
 10
10667.56051694469
 20
1921.283756666299
 30
0.0000000000000002
 11
10664.46650700728
 21
1921.013066003979
 31
0.0000000000000002
  0
LINE
  5
13BF1
330
747D
100
AcDbEntity
  8
部品1
 48
50.0
100
AcDbLine
 10
10674.19254267493
 20
1958.895834302605
 30
0.0000000000000002
 11
10671.37770613837
 21
1960.208414281168
 31
0.0000000000000002
  0
LINE
  5
13BF2
330
747D
100
AcDbEntity
  8
部品1
 48
50.0
100
AcDbLine
 10
10609.39651414777
 20
3555.078230340374
 30
0.0000000000000002
 11
10609.39649799357
 21
3173.640642184631
 31
0.0000000000000002
  0
LINE
  5
13BF3
330
747D
100
AcDbEntity
  8
部品1
 48
50.0
100
AcDbLine
 10
10651.39651414779
 20
3555.078228565445
 30
0.0000000000000002
 11
10651.39649799358
 21
3173.640640405894
 31
0.0000000000000002
  0
LINE
  5
13BF4
330
747D
100
AcDbEntity
  8
部品1
 48
50.0
100
AcDbLine
 10
10608.99651419303
 20
3555.078230357278
 30
0.0000000000000006
 11
10651.79651419305
 21
3555.078228573059
 31
0.0000000000000006
  0
LINE
  5
13BF5
330
747D
100
AcDbEntity
  8
部品1
 48
50.0
100
AcDbLine
 10
10698.8680849529
 20
3639.104794172372
 30
0.0000000000000006
 11
10698.86808478349
 21
3635.104794172373
 31
-0.0000000000000007
  0
LINE
  5
13BF6
330
747D
100
AcDbEntity
  8
部品1
 48
50.0
100
AcDbLine
 10
10652.86808495874
 20
3639.104794172368
 30
0.0000000000000006
 11
10652.86808477675
 21
3635.104794172374
 31
-0.0000000000000007
  0
LINE
  5
13BF7
330
747D
100
AcDbEntity
  8
部品1
 48
50.0
100
AcDbLine
 10
10592.66111405895
 20
3176.640642893391
 30
0.0
 11
10592.66111329665
 21
3158.640642893387
 31
0.0
  0
LINE
  5
13BF8
330
747D
100
AcDbEntity
  8
部品1
 48
50.0
100
AcDbLine
 10
10653.8964979936
 20
3173.640640300018
 30
0.0
 11
10653.89649748537
 21
3161.640640300025
 31
0.0
  0
LINE
  5
13BF9
330
747D
100
AcDbEntity
  8
部品1
 48
50.0
100
AcDbLine
 10
10607.66111342367
 20
3161.640472961248
 30
0.0
 11
10653.89649748537
 21
3161.640471003146
 31
0.0
  0
LINE
  5
13BFA
330
747D
100
AcDbEntity
  8
部品1
 48
50.0
100
AcDbLine
 10
10607.6611139319
 20
3173.640642258127
 30
0.0
 11
10653.8964979936
 21
3173.640640300018
 31
0.0
  0
LINE
  5
13BFB
330
747D
100
AcDbEntity
  8
部品1
 48
50.0
100
AcDbLine
 10
10590.66111405898
 20
3176.640642978094
 30
0.0
 11
10607.66111405895
 21
3176.640642258131
 31
0.0
  0
LINE
  5
13BFC
330
747D
100
AcDbEntity
  8
部品1
 48
50.0
100
AcDbLine
 10
10607.66111405892
 20
3176.640642258134
 30
0.0
 11
10607.66111329665
 21
3158.640642258123
 31
0.0
  0
LINE
  5
13BFD
330
747D
100
AcDbEntity
  8
部品1
 48
50.0
100
AcDbLine
 10
10590.66111329666
 20
3158.640473681211
 30
0.0
 11
10607.66111329663
 21
3158.640472961248
 31
0.0
  0
LINE
  5
13BFE
330
747D
100
AcDbEntity
  8
部品1
 48
50.0
100
AcDbLine
 10
10590.66111405898
 20
3176.640642978094
 30
0.0
 11
10590.66111329666
 21
3158.64064297809
 31
0.0
  0
LINE
  5
13BFF
330
747D
100
AcDbEntity
  8
部品1
 48
50.0
100
AcDbLine
 10
10590.66107170812
 20
2176.64064297809
 30
0.0
 11
10590.66107094582
 21
2158.64064297809
 31
0.0
  0
LINE
  5
13C00
330
747D
100
AcDbEntity
  8
部品1
 48
50.0
100
AcDbLine
 10
10590.66107094582
 20
2158.64064297809
 30
0.0
 11
10607.66107094579
 21
2158.640642258123
 31
0.0
  0
LINE
  5
13C01
330
747D
100
AcDbEntity
  8
部品1
 48
50.0
100
AcDbLine
 10
10607.66107170809
 20
2176.640642258134
 30
0.0
 11
10607.6610709458
 21
2158.640642258127
 31
0.0
  0
LINE
  5
13C02
330
747D
100
AcDbEntity
  8
部品1
 48
50.0
100
AcDbLine
 10
10590.66107170812
 20
2176.64064297809
 30
0.0
 11
10607.66107170812
 21
2176.640642258123
 31
0.0
  0
LINE
  5
13C03
330
747D
100
AcDbEntity
  8
部品1
 48
50.0
100
AcDbLine
 10
10607.66107158105
 20
2173.640642258123
 30
0.0
 11
10653.89645564274
 21
2173.640640300021
 31
0.0
  0
LINE
  5
13C04
330
747D
100
AcDbEntity
  8
部品1
 48
50.0
100
AcDbLine
 10
10607.66107107284
 20
2161.64064225813
 30
0.0
 11
10653.89645513453
 21
2161.640640300021
 31
0.0
  0
LINE
  5
13C05
330
747D
100
AcDbEntity
  8
部品1
 48
50.0
100
AcDbLine
 10
10653.89645564274
 20
2173.640640300021
 30
0.0
 11
10653.89645513453
 21
2161.640640300021
 31
0.0
  0
LINE
  5
13C06
330
747D
100
AcDbEntity
  8
部品1
 48
50.0
100
AcDbLine
 10
10592.6610717081
 20
2176.640642893387
 30
0.0
 11
10592.66107094579
 21
2158.640642893387
 31
0.0
  0
LINE
  5
13C07
330
747D
100
AcDbEntity
  8
部品1
 48
5.0
100
AcDbLine
 10
10616.5921130262
 20
3639.804794172388
 30
0.0000000000000006
 11
10615.89211302614
 21
3639.804794172388
 31
0.0000000000000006
  0
LINE
  5
13C08
330
747D
100
AcDbEntity
  8
部品1
 48
5.0
100
AcDbLine
 10
10702.1921130262
 20
3639.804794172352
 30
0.0000000000000006
 11
10702.89211302617
 21
3639.804794172352
 31
0.0000000000000006
  0
LINE
  5
13C09
330
747D
100
AcDbEntity
  8
部品1
 48
5.0
100
AcDbLine
 10
10702.19211302619
 20
3639.104794172373
 30
0.0000000000000006
 11
10702.1921130262
 21
3639.804794172352
 31
0.0000000000000006
  0
LINE
  5
13C0A
330
747D
100
AcDbEntity
  8
部品1
 48
5.0
100
AcDbLine
 10
10616.59211302623
 20
3639.104794172366
 30
0.0000000000000006
 11
10616.5921130262
 21
3639.804794172388
 31
0.0000000000000006
  0
LINE
  5
13C0B
330
747D
100
AcDbEntity
  8
部品1
 48
5.0
100
AcDbLine
 10
10702.89211302626
 20
3728.904655931247
 30
0.0000000000000006
 11
10702.89211302617
 21
3639.804794172352
 31
0.0000000000000006
  0
LINE
  5
13C0C
330
747D
100
AcDbEntity
  8
部品1
 48
5.0
100
AcDbLine
 10
10615.89211302614
 20
3639.804794172388
 30
0.0000000000000006
 11
10615.89211302619
 21
3728.904655931309
 31
0.0000000000000006
  0
ARC
  5
13C0D
330
747D
100
AcDbEntity
  8
部品1
 48
5.0
100
AcDbCircle
 10
10378.89211302621
 20
3728.904655931277
 30
0.0000000000000006
 40
324.0
100
AcDbArc
 50
0.0000000004168817
 51
85.99999999970313
  0
ARC
  5
13C0E
330
747D
100
AcDbEntity
  8
部品1
 48
5.0
100
AcDbCircle
 10
10378.89211302621
 20
3728.904655931277
 30
0.0000000000000006
 40
237.0
100
AcDbArc
 50
0.0000000004168817
 51
85.99999999970313
  0
LINE
  5
13C0F
330
747D
100
AcDbEntity
  8
部品1
 48
5.0
100
AcDbLine
 10
10702.19211302619
 20
3639.104794172373
 30
0.0000000000000006
 11
10616.59211302623
 21
3639.104794172366
 31
0.0000000000000006
  0
LINE
  5
13C10
330
747D
100
AcDbEntity
  8
部品1
 48
5.0
100
AcDbLine
 10
10395.42439730358
 20
3965.327335842798
 30
0.0000000000000006
 11
8715.452762580419
 21
4082.802396414561
 31
-0.0000000000000001
  0
LINE
  5
13C11
330
747D
100
AcDbEntity
  8
部品1
 48
5.0
100
AcDbLine
 10
10401.49321051931
 20
4052.11540821542
 30
0.0000000000000006
 11
8721.521575796156
 21
4169.590468787152
 31
-0.0000000000000001
  0
LINE
  5
13C12
330
747D
100
AcDbEntity
  8
部品1
 48
10.0
100
AcDbLine
 10
6631.996877248545
 20
4169.350524693883
 30
0.0000000000000012
 11
4231.464440328316
 21
4169.350524693884
 31
0.0000000000000005
  0
LINE
  5
13C13
330
747D
100
AcDbEntity
  8
部品1
100
AcDbLine
 10
6632.473166531184
 20
4080.714791243862
 30
-0.0000000000000007
 11
6649.981892734402
 21
4081.020407196549
 31
-0.0000000000000007
  0
ARC
  5
13C14
330
747D
100
AcDbEntity
  8
部品1
100
AcDbCircle
 10
6649.964440327967
 20
4082.020254891708
 30
-0.0000000000000007
 40
1.0
100
AcDbArc
 50
270.9999999998715
 51
0.0
  0
ARC
  5
13C15
330
747D
100
AcDbEntity
  8
部品1
100
AcDbCircle
 10
6649.964440327967
 20
4168.367827430458
 30
0.0
 40
1.0
100
AcDbArc
 50
0.0
 51
89.00000000012852
  0
ARC
  5
13C16
330
747D
100
AcDbEntity
  8
部品1
100
AcDbCircle
 10
6632.464440327968
 20
4169.173367230723
 30
0.0
 40
0.5
100
AcDbArc
 50
89.00000000012852
 51
180.0
  0
LINE
  5
13C17
330
747D
100
AcDbEntity
  8
部品1
100
AcDbLine
 10
6632.473166531184
 20
4169.673291078303
 30
0.0
 11
6649.981892734402
 21
4169.367675125613
 31
0.0
  0
LINE
  5
13C18
330
747D
100
AcDbEntity
  8
部品1
100
AcDbLine
 10
6631.964440327966
 20
4169.173367230723
 30
0.0
 11
6631.964440327966
 21
4081.214715091446
 31
-0.0000000000000007
  0
LINE
  5
13C19
330
747D
100
AcDbEntity
  8
部品1
100
AcDbLine
 10
6650.964440327967
 20
4168.367827430458
 30
0.0
 11
6650.964440327967
 21
3639.104794172374
 31
0.0
  0
ELLIPSE
  5
13C1A
330
747D
100
AcDbEntity
  8
細線
 48
0.6200000000000001
100
AcDbEllipse
 10
6741.256024486443
 20
4125.194041161086
 30
-0.0000000000000003
 11
0.0000000001439634
 21
100.3017881819579
 31
0.0
210
0.0
220
0.0
230
-1.0
 40
0.9973182569291269
 41
4.267410064876434
 42
5.157367895890066
  0
LINE
  5
13C1B
330
747D
100
AcDbEntity
  8
部品1
 48
10.0
100
AcDbLine
 10
4231.464440328316
 20
4169.350524693884
 30
0.0000000000000005
 11
1409.932003407433
 21
4169.350524693884
 31
-0.0000000000000001
  0
LINE
  5
13C1C
330
747D
100
AcDbEntity
  8
部品1
 48
5.0
100
AcDbLine
 10
8683.907304978886
 20
4119.091294230666
 30
-0.0000000000000002
 11
8685.232677980021
 21
4138.045011185603
 31
-0.0000000000000002
  0
ARC
  5
13C1D
330
747D
100
AcDbEntity
  8
部品1
 48
5.0
100
AcDbCircle
 10
8719.149855688854
 20
4135.673291078302
 30
-0.0000000000000002
 40
34.0
100
AcDbArc
 50
85.99999999970313
 51
175.9999999998611
  0
ARC
  5
13C1E
330
747D
100
AcDbEntity
  8
部品1
 48
5.0
100
AcDbCircle
 10
8717.824482687721
 20
4116.719574123365
 30
0.0000000000000002
 40
34.0
100
AcDbArc
 50
175.9999999998611
 51
265.9999999997032
  0
CIRCLE
  5
13C1F
330
747D
100
AcDbEntity
  8
細線
100
AcDbCircle
 10
6420.964440327982
 20
4033.438608470707
 30
0.0
 40
39.99999999999997
  0
CIRCLE
  5
13C20
330
747D
100
AcDbEntity
  8
部品1
100
AcDbCircle
 10
6420.964440327982
 20
4033.438608470707
 30
0.0
 40
47.0
  0
ARC
  5
13C21
330
747D
100
AcDbEntity
  8
部品1
100
AcDbCircle
 10
8788.062459858164
 20
3988.658069123207
 30
0.0
 40
2.0
100
AcDbArc
 50
175.9999999998611
 51
266.0000000005389
  0
ARC
  5
13C22
330
747D
100
AcDbEntity
  8
部品1
100
AcDbCircle
 10
8946.322710992054
 20
4022.70131971767
 30
0.0
 40
162.4999999999999
100
AcDbArc
 50
161.7499673022465
 51
190.2500326978151
  0
LINE
  5
13C23
330
747D
100
AcDbEntity
  8
部品1
100
AcDbLine
 10
8800.891279564064
 20
3985.75610686402
 30
0.0
 11
8787.922946910695
 21
3986.662941022695
 31
0.0
  0
LINE
  5
13C24
330
747D
100
AcDbEntity
  8
部品1
100
AcDbLine
 10
8786.067331757644
 20
3988.797582070699
 30
0.0
 11
8792.265194449836
 21
4077.431147936301
 31
0.0
  0
LINE
  5
13C25
330
747D
100
AcDbEntity
  8
部品1
100
AcDbLine
 10
8807.228655203726
 20
4076.38480083014
 30
0.0
 11
8800.891279564064
 21
3985.75610686402
 31
0.0
  0
DIMENSION
  5
13C26
330
747D
100
AcDbEntity
  8
寸法
 48
50.0
100
AcDbDimension
  2
*D12
 10
6420.964440327982
 20
4438.080793455482
 30
0.0
 11
6535.964440327974
 21
4513.089651723199
 31
0.0
 70
    32
 71
     5
 42
229.9999999999855
  3
INABA_S30G
100
AcDbAlignedDimension
 13
6650.964440327967
 23
4169.350524693576
 33
0.0
 14
6420.964440327982
 24
4080.438608470707
 34
0.0
100
AcDbRotatedDimension
1001
ACAD
1000
DSTYLE
1002
{
1070
   341
1005
0
1002
}
  0
DIMENSION
  5
13C27
330
747D
100
AcDbEntity
  8
寸法
 48
50.0
100
AcDbDimension
  2
*D13
 10
6420.964440327982
 20
4438.080793455482
 30
0.0
 11
4020.964440327982
 21
4513.080793455483
 31
0.0
 70
    32
 71
     5
 42
4800.0
  3
INABA_S30G
100
AcDbAlignedDimension
 13
1620.964440327982
 23
4080.438608470707
 33
0.0
 14
6420.964440327982
 24
4080.438608470707
 34
0.0
100
AcDbRotatedDimension
1001
ACAD
1000
DSTYLE
1002
{
1070
   341
1005
0
1002
}
  0
LINE
  5
13C28
330
747D
100
AcDbEntity
  8
部品1
 48
50.0
100
AcDbLine
 10
6376.414440327964
 20
4017.779541837341
 30
0.0
 11
6376.414440327964
 21
1917.640018622875
 31
0.0
  0
LINE
  5
13C29
330
747D
100
AcDbEntity
  8
部品1
 48
50.0
100
AcDbLine
 10
6465.514440327971
 20
4017.779541837252
 30
0.0
 11
6465.514440327971
 21
1917.640018622875
 31
0.0
  0
LINE
  5
13C2A
330
747D
100
AcDbEntity
  8
部品1
 48
50.0
100
AcDbLine
 10
10122.01808030653
 20
3984.445767955626
 30
0.0
 11
10115.85160116653
 21
3896.261106392444
 31
0.0
  0
LINE
  5
13C2B
330
747D
100
AcDbEntity
  8
部品1
 48
50.0
100
AcDbLine
 10
8801.06218292474
 20
3988.200138787154
 30
0.0
 11
10360.25680580121
 21
3879.170629609939
 31
0.0
  0
LINE
  5
13C2C
330
747D
100
AcDbEntity
  8
部品1
 48
10.0
100
AcDbLine
 10
10501.5607207844
 20
1917.640018622875
 30
-0.0000000000000002
 11
10501.56079743946
 21
3727.640643942384
 31
-0.0000000000000002
  0
LINE
  5
13C2D
330
747D
100
AcDbEntity
  8
部品1
 48
10.0
100
AcDbLine
 10
10590.6610607844
 20
1917.640018622875
 30
-0.0000000000000002
 11
10590.66113743947
 21
3727.640616393804
 31
-0.0000000000000002
  0
ARC
  5
13C2E
330
747D
100
AcDbEntity
  8
部品1
 48
10.0
100
AcDbCircle
 10
10349.66113743947
 20
3727.640626600357
 30
0.000000000000005
 40
241.0
100
AcDbArc
 50
359.9999975735403
 51
81.63199321129194
  0
ARC
  5
13C2F
330
747D
100
AcDbEntity
  8
部品1
 48
10.0
100
AcDbCircle
 10
10349.66079743947
 20
3727.640650375473
 30
0.0000000000000052
 40
151.9
100
AcDbArc
 50
359.9999975735403
 51
85.99999999970313
  0
DIMENSION
  5
13C30
330
747D
100
AcDbEntity
  8
寸法
 48
50.0
100
AcDbDimension
  2
*D14
 10
10590.66108535384
 20
2813.497966801739
 30
0.0
 11
10259.15350048159
 21
2813.497966801739
 31
0.0
 70
   161
  1
φ<>
 71
     5
 42
89.1003400000045
  3
INABA_S30G
100
AcDbAlignedDimension
 13
10501.56074535384
 23
2730.307792229574
 33
-0.0000000000000002
 14
10590.66108535384
 24
2730.307788456098
 34
-0.0000000000000002
1001
ACAD
1000
DSTYLE
1002
{
1070
   341
1005
0
1002
}
  0
LINE
  5
13C31
330
747D
100
AcDbEntity
  8
部品1
 48
50.0
100
AcDbLine
 10
10651.39645513452
 20
2161.640640405898
 30
0.0000000000000002
 11
10651.39644765322
 21
1984.99029973867
 31
0.0000000000000002
  0
LINE
  5
13C32
330
747D
100
AcDbEntity
  8
部品1
 48
50.0
100
AcDbLine
 10
10609.39645513452
 20
2161.640642184635
 30
0.0000000000000002
 11
10609.39644765322
 21
1984.990301517405
 31
0.0000000000000002
  0
LINE
  5
13C33
330
747D
100
AcDbEntity
  8
部品1
 48
50.0
100
AcDbLine
 10
10651.39649748536
 20
3161.640471109022
 30
0.0000000000000002
 11
10651.39645564274
 21
2173.640640405898
 31
0.0000000000000002
  0
LINE
  5
13C34
330
747D
100
AcDbEntity
  8
部品1
 48
50.0
100
AcDbLine
 10
10609.39649748536
 20
3161.640472887752
 30
0.0000000000000002
 11
10609.39645564274
 21
2173.640642184628
 31
0.0000000000000002
  0
LINE
  5
13C35
330
747D
100
AcDbEntity
  8
部品1
100
AcDbLine
 10
8754.357760540573
 20
4080.081893938538
 30
-0.0000000000000002
 11
8760.42657375631
 21
4166.869966311131
 31
-0.0000000000000002
  0
DIMENSION
  5
13C36
330
747D
100
AcDbEntity
  8
寸法
 48
50.0
100
AcDbDimension
  2
*D15
 10
10703.39970900246
 20
4749.977580675178
 30
0.0
 11
9693.399709002465
 21
4824.986438942895
 31
0.0
 70
    32
 71
     5
 42
2020.0
  3
INABA_S30G
100
AcDbAlignedDimension
 13
8683.399709002463
 23
4124.328542830812
 33
0.0
 14
10703.39970900246
 24
3728.895434961825
 34
0.0
100
AcDbRotatedDimension
1001
ACAD
1000
DSTYLE
1002
{
1070
   341
1005
0
1002
}
  0
LINE
  5
13C37
330
747D
100
AcDbEntity
  8
部品1
 48
10.0
100
AcDbLine
 10
4231.464440328316
 20
4169.350524693884
 30
0.0000000000000042
 11
4231.464440328316
 21
4081.037557628799
 31
-0.0000000000000007
  0
ARC
  5
13C38
330
747D
100
AcDbEntity
  8
部品1
100
AcDbCircle
 10
6632.464440327982
 20
4081.214715091439
 30
-0.0000000000000007
 40
0.5
100
AcDbArc
 50
180.0
 51
270.9999999998715
  0
LINE
  5
13C39
330
747D
100
AcDbEntity
  8
部品1
 48
50.0
100
AcDbLine
 10
10698.86808478349
 20
3635.104794172372
 30
0.0000000000000006
 11
10652.86808477675
 21
3635.104794172373
 31
0.0000000000000006
  0
LINE
  5
13C3A
330
747D
100
AcDbEntity
  8
部品1
 48
50.0
100
AcDbLine
 10
10698.8680848682
 20
3637.104794172373
 30
0.0000000000000006
 11
10652.86808486775
 21
3637.104794172373
 31
0.0000000000000006
  0
LINE
  5
13C3B
330
747D
100
AcDbEntity
  8
部品1
 48
5.0
100
AcDbLine
 10
6650.964440327967
 20
3639.104794172374
 30
0.0000000000000006
 11
6465.514440327971
 21
3639.104794172374
 31
0.0000000000000006
  0
LINE
  5
13C3C
330
747D
100
AcDbEntity
  8
部品1
 48
50.0
100
AcDbLine
 10
10608.99651419303
 20
3568.824847055101
 30
0.0000000000000006
 11
10608.99651419303
 21
3555.078229452902
 31
0.0000000000000006
  0
LINE
  5
13C3D
330
747D
100
AcDbEntity
  8
部品1
 48
50.0
100
AcDbLine
 10
10651.79651419305
 20
3557.109082676685
 30
0.0000000000000006
 11
10651.79651419305
 21
3555.078228573059
 31
0.0000000000000006
  0
LINE
  5
13C3E
330
747D
100
AcDbEntity
  8
部品1
 48
50.0
100
AcDbLine
 10
10698.36808478013
 20
3635.104794172373
 30
0.0000000000000006
 11
10698.36808478013
 21
3606.01088769763
 31
0.0000000000000006
  0
LINE
  5
13C3F
330
747D
100
AcDbEntity
  8
部品1
 48
50.0
100
AcDbLine
 10
10653.36808478013
 20
3635.104794172373
 30
0.0
 11
10653.36808478013
 21
3616.221763445433
 31
0.0
  0
LINE
  5
13C40
330
747D
100
AcDbEntity
  8
部品1
 48
50.0
100
AcDbLine
 10
10653.36808478013
 20
3616.221763445433
 30
0.0
 11
10624.27354057471
 21
3595.826053083334
 31
0.0000000000000006
  0
ARC
  5
13C41
330
747D
100
AcDbEntity
  8
部品1
 48
50.0
100
AcDbCircle
 10
10640.49651419303
 20
3568.824847055101
 30
0.0000000000000006
 40
31.5
100
AcDbArc
 50
120.9984599854934
 51
180.0
  0
ARC
  5
13C42
330
747D
100
AcDbEntity
  8
部品1
 48
50.0
100
AcDbCircle
 10
10666.86808478013
 20
3606.01088769763
 30
0.0
 40
31.5
100
AcDbArc
 50
300.8580558638625
 51
0.0
  0
LINE
  5
13C43
330
747D
100
AcDbEntity
  8
部品1
 48
50.0
100
AcDbLine
 10
10683.02484291616
 20
3578.970008153246
 30
0.0
 11
10651.79651419305
 21
3557.109082676685
 31
0.0000000000000006
  0
ARC
  5
13C44
330
747D
100
AcDbEntity
  8
部品1
 48
50.0
100
AcDbCircle
 10
10676.28937306053
 20
3600.526345337402
 30
0.0
 40
28.02358659648385
100
AcDbArc
 50
146.8869470502775
 51
265.1676855823611
  0
ARC
  5
13C45
330
747D
100
AcDbEntity
  8
部品1
 48
50.0
100
AcDbCircle
 10
10659.04374708574
 20
3588.4695954667
 30
0.0
 40
27.98109501622854
100
AcDbArc
 50
146.7410228599016
 51
265.3136097725274
  0
LINE
  5
13C46
330
747D
100
AcDbEntity
  8
部品1
100
AcDbLine
 10
6620.964440327966
 20
4081.037557628842
 30
-0.0000000000000007
 11
6620.964440327966
 21
3639.104794172374
 31
0.0
  0
LINE
  5
13C47
330
747D
100
AcDbEntity
  8
部品1
 48
50.0
100
AcDbLine
 10
6620.964440327966
 20
4067.986851489331
 30
0.0
 11
6452.830078628918
 21
4067.986851489331
 31
0.0
  0
LINE
  5
13C48
330
747D
100
AcDbEntity
  8
部品1
 48
50.0
100
AcDbLine
 10
6620.964440327966
 20
4020.343179922093
 30
0.0
 11
6466.295657438648
 21
4020.343179922094
 31
0.0
  0
LINE
  5
13C49
330
747D
100
AcDbEntity
  8
部品1
 48
50.0
100
AcDbLine
 10
6620.964440327966
 20
3972.699508354796
 30
0.0
 11
6465.514440327971
 21
3972.699508354796
 31
0.0
  0
ARC
  5
13C4A
330
747D
100
AcDbEntity
  8
部品1
100
AcDbCircle
 10
6420.964440327982
 20
4032.75610686402
 30
0.0
 40
47.0
100
AcDbArc
 50
179.1679609357291
 51
0.8320390642708765
  0
LINE
  5
13C4B
330
747D
100
AcDbEntity
  8
部品1
 48
50.0
100
AcDbLine
 10
6631.996877248354
 20
4081.037557628797
 30
-0.0000000000000007
 11
1409.932003407608
 21
4081.037557628799
 31
-0.0000000000000007
  0
LINE
  5
13C4C
330
747D
100
AcDbEntity
  8
部品1
 48
50.0
100
AcDbLine
 10
6389.098802027046
 20
4067.986851489331
 30
0.0
 11
4052.830078628918
 21
4067.986851489331
 31
0.0
  0
LINE
  5
13C4D
330
747D
100
AcDbEntity
  8
部品1
 48
50.0
100
AcDbLine
 10
6375.633223217316
 20
4020.343179922092
 30
0.0
 11
4066.295657438648
 21
4020.343179922093
 31
0.0
  0
LINE
  5
13C4E
330
747D
100
AcDbEntity
  8
部品1
 48
50.0
100
AcDbLine
 10
6376.414440327964
 20
3972.699508354796
 30
0.0
 11
4065.514440327969
 21
3972.699508354796
 31
0.0
  0
ARC
  5
13C4F
330
747D
100
AcDbEntity
  8
部品1
100
AcDbCircle
 10
1620.964440327982
 20
4032.75610686402
 30
0.0
 40
47.0
100
AcDbArc
 50
179.1679609357291
 51
0.8320390642708765
  0
LINE
  5
13C50
330
747D
100
AcDbEntity
  8
部品1
 48
50.0
100
AcDbLine
 10
1420.964440327996
 20
3972.699508354796
 30
0.0
 11
1576.414440327993
 21
3972.699508354796
 31
0.0
  0
LINE
  5
13C51
330
747D
100
AcDbEntity
  8
部品1
 48
50.0
100
AcDbLine
 10
1420.964440327996
 20
4020.343179922093
 30
0.0
 11
1575.633223217315
 21
4020.343179922094
 31
0.0
  0
LINE
  5
13C52
330
747D
100
AcDbEntity
  8
部品1
 48
50.0
100
AcDbLine
 10
1420.964440327996
 20
4067.986851489331
 30
0.0
 11
1589.098802027045
 21
4067.986851489331
 31
0.0
  0
LINE
  5
13C53
330
747D
100
AcDbEntity
  8
部品1
100
AcDbLine
 10
1420.964440327996
 20
4081.037557628842
 30
-0.0000000000000007
 11
1420.964440327996
 21
3639.104794172374
 31
0.0
  0
ARC
  5
13C54
330
747D
100
AcDbEntity
  8
部品1
100
AcDbCircle
 10
1409.464440327982
 20
4081.214715091439
 30
-0.0000000000000007
 40
0.5
100
AcDbArc
 50
269.0000000001285
 51
0.0
  0
LINE
  5
13C55
330
747D
100
AcDbEntity
  8
部品1
 48
50.0
100
AcDbLine
 10
1576.414440327993
 20
4017.779541837252
 30
0.0
 11
1576.414440327993
 21
1917.640018622876
 31
0.0
  0
LINE
  5
13C56
330
747D
100
AcDbEntity
  8
部品1
 48
50.0
100
AcDbLine
 10
1665.514440327999
 20
4017.779541837341
 30
0.0
 11
1665.514440327999
 21
1917.640018622876
 31
0.0
  0
DIMENSION
  5
13C57
330
747D
100
AcDbEntity
  8
寸法
 48
50.0
100
AcDbDimension
  2
*D16
 10
1620.964440327982
 20
4438.080793455482
 30
0.0
 11
1505.964440327989
 21
4513.089651723199
 31
0.0
 70
    32
 71
     5
 42
229.9999999999855
  3
INABA_S30G
100
AcDbAlignedDimension
 13
1390.964440327996
 23
4169.350524693576
 33
0.0
 14
1620.964440327982
 24
4080.438608470707
 34
0.0
 50
180.0
100
AcDbRotatedDimension
1001
ACAD
1000
DSTYLE
1002
{
1070
   341
1005
0
1002
}
  0
CIRCLE
  5
13C58
330
747D
100
AcDbEntity
  8
部品1
100
AcDbCircle
 10
1620.964440327982
 20
4033.438608470707
 30
0.0
 40
47.0
  0
CIRCLE
  5
13C59
330
747D
100
AcDbEntity
  8
細線
100
AcDbCircle
 10
1620.964440327982
 20
4033.438608470707
 30
0.0
 40
39.99999999999997
  0
ELLIPSE
  5
13C5A
330
747D
100
AcDbEntity
  8
細線
 48
0.6200000000000001
100
AcDbEllipse
 10
1300.67285616952
 20
4125.194041161086
 30
-0.0000000000000003
 11
-0.0000000001439634
 21
100.3017881819579
 31
0.0
210
0.0
220
0.0
230
1.0
 40
0.9973182569291269
 41
4.267410064876434
 42
5.157367895890066
  0
LINE
  5
13C5B
330
747D
100
AcDbEntity
  8
部品1
100
AcDbLine
 10
1390.964440327996
 20
4168.367827430458
 30
0.0
 11
1390.964440327996
 21
3639.104794172374
 31
0.0
  0
LINE
  5
13C5C
330
747D
100
AcDbEntity
  8
部品1
100
AcDbLine
 10
1409.964440327996
 20
4169.173367230723
 30
0.0
 11
1409.964440327996
 21
4081.214715091446
 31
-0.0000000000000007
  0
LINE
  5
13C5D
330
747D
100
AcDbEntity
  8
部品1
100
AcDbLine
 10
1409.455714124779
 20
4169.673291078303
 30
0.0
 11
1391.946987921561
 21
4169.367675125613
 31
0.0
  0
ARC
  5
13C5E
330
747D
100
AcDbEntity
  8
部品1
100
AcDbCircle
 10
1409.464440327996
 20
4169.173367230723
 30
0.0
 40
0.5
100
AcDbArc
 50
0.0
 51
90.99999999987147
  0
ARC
  5
13C5F
330
747D
100
AcDbEntity
  8
部品1
100
AcDbCircle
 10
1391.964440327996
 20
4168.367827430458
 30
0.0
 40
1.0
100
AcDbArc
 50
90.99999999987147
 51
180.0
  0
ARC
  5
13C60
330
747D
100
AcDbEntity
  8
部品1
100
AcDbCircle
 10
1391.964440327996
 20
4082.020254891708
 30
-0.0000000000000007
 40
1.0
100
AcDbArc
 50
180.0
 51
269.0000000001285
  0
LINE
  5
13C61
330
747D
100
AcDbEntity
  8
部品1
100
AcDbLine
 10
1409.455714124779
 20
4080.714791243862
 30
-0.0000000000000007
 11
1391.946987921561
 21
4081.020407196549
 31
-0.0000000000000007
  0
ARC
  5
13C62
330
747D
100
AcDbEntity
  8
部品1
100
AcDbCircle
 10
4020.964440327982
 20
4032.75610686402
 30
0.0
 40
47.0
100
AcDbArc
 50
179.1679609357291
 51
0.8320390642708765
  0
LINE
  5
13C63
330
747D
100
AcDbEntity
  8
部品1
 48
50.0
100
AcDbLine
 10
4065.514440327969
 20
4017.779541837252
 30
0.0
 11
4065.514440327969
 21
1917.640018622876
 31
0.0
  0
LINE
  5
13C64
330
747D
100
AcDbEntity
  8
部品1
 48
50.0
100
AcDbLine
 10
3976.414440327964
 20
4017.779541837341
 30
0.0
 11
3976.414440327964
 21
1917.640018622876
 31
0.0
  0
CIRCLE
  5
13C65
330
747D
100
AcDbEntity
  8
部品1
100
AcDbCircle
 10
4020.964440327982
 20
4033.438608470707
 30
0.0
 40
47.0
  0
CIRCLE
  5
13C66
330
747D
100
AcDbEntity
  8
細線
100
AcDbCircle
 10
4020.964440327982
 20
4033.438608470707
 30
0.0
 40
39.99999999999997
  0
LINE
  5
13C67
330
747D
100
AcDbEntity
  8
部品1
 48
50.0
100
AcDbLine
 10
3976.414440327964
 20
3972.699508354796
 30
0.0
 11
1665.514440327999
 21
3972.699508354796
 31
0.0
  0
LINE
  5
13C68
330
747D
100
AcDbEntity
  8
部品1
 48
50.0
100
AcDbLine
 10
3975.633223217316
 20
4020.343179922093
 30
0.0
 11
1666.295657438648
 21
4020.343179922094
 31
0.0
  0
LINE
  5
13C69
330
747D
100
AcDbEntity
  8
部品1
 48
50.0
100
AcDbLine
 10
3989.098802027046
 20
4067.986851489331
 30
0.0
 11
1652.830078628918
 21
4067.986851489331
 31
0.0
  0
LINE
  5
13C6A
330
747D
100
AcDbEntity
  8
部品1
 48
50.0
100
AcDbLine
 10
1589.098802027045
 20
4067.986851489331
 30
0.0
 11
1420.964440327996
 21
4067.986851489331
 31
0.0
  0
LINE
  5
13C6B
330
747D
100
AcDbEntity
  8
部品1
 48
50.0
100
AcDbLine
 10
1575.633223217315
 20
4020.343179922094
 30
0.0
 11
1420.964440327996
 21
4020.343179922093
 31
0.0
  0
LINE
  5
13C6C
330
747D
100
AcDbEntity
  8
部品1
 48
50.0
100
AcDbLine
 10
1576.414440327993
 20
3972.699508354798
 30
0.0
 11
1420.964440327996
 21
3972.699508354796
 31
0.0
  0
LINE
  5
13C6D
330
747D
100
AcDbEntity
  8
部品1
 48
5.0
100
AcDbLine
 10
6376.414440327964
 20
3639.104794172374
 30
0.0000000000000006
 11
4276.96444032801
 21
3639.104794172371
 31
0.0000000000000006
  0
LINE
  5
13C6E
330
747D
100
AcDbEntity
  8
部品1
 48
5.0
100
AcDbLine
 10
1576.414440327993
 20
3639.104794172368
 30
0.0000000000000006
 11
1390.964440327996
 21
3639.104794172368
 31
0.0000000000000006
  0
DIMENSION
  5
13C6F
330
747D
100
AcDbEntity
  8
寸法
 48
50.0
100
AcDbDimension
  2
*D17
 10
1390.964440327996
 20
4749.977580675178
 30
0.0
 11
4020.964440327982
 21
4824.986438942895
 31
0.0
 70
    32
 71
     5
 42
5259.999999999971
  3
INABA_S30G
100
AcDbAlignedDimension
 13
6650.964440327967
 23
4169.350524693576
 33
0.0
 14
1390.964440327996
 24
4169.350524693576
 34
0.0
100
AcDbRotatedDimension
1001
ACAD
1000
DSTYLE
1002
{
1070
   341
1005
0
1002
}
  0
LINE
  5
13C70
330
747D
100
AcDbEntity
  8
細線
 48
50.0
100
AcDbLine
 10
6490.184362936561
 20
3972.699508354796
 30
0.0
 11
6490.184362936561
 21
3704.104794172353
 31
0.0000000000000006
  0
LINE
  5
13C71
330
747D
100
AcDbEntity
  8
細線
 48
50.0
100
AcDbLine
 10
6471.744517719402
 20
3972.699508354796
 30
0.0
 11
6471.744517719402
 21
3704.104794172353
 31
0.0000000000000006
  0
LINE
  5
13C72
330
747D
100
AcDbEntity
  8
細線
 48
50.0
100
AcDbLine
 10
6351.744517719403
 20
3972.699508354796
 30
0.0
 11
6351.744517719403
 21
3704.104794172353
 31
0.0000000000000006
  0
LINE
  5
13C73
330
747D
100
AcDbEntity
  8
細線
 48
50.0
100
AcDbLine
 10
6370.184362936561
 20
3972.699508354796
 30
0.0
 11
6370.184362936561
 21
3704.104794172353
 31
0.0000000000000006
  0
LINE
  5
13C74
330
747D
100
AcDbEntity
  8
細線
 48
50.0
100
AcDbLine
 10
6230.184362936562
 20
3972.699508354796
 30
0.0
 11
6230.184362936562
 21
3704.104794172353
 31
0.0000000000000006
  0
LINE
  5
13C75
330
747D
100
AcDbEntity
  8
細線
 48
50.0
100
AcDbLine
 10
6211.744517719402
 20
3972.699508354796
 30
0.0
 11
6211.744517719402
 21
3704.104794172353
 31
0.0000000000000006
  0
LINE
  5
13C76
330
747D
100
AcDbEntity
  8
細線
 48
50.0
100
AcDbLine
 10
6071.744517719402
 20
3972.699508354796
 30
0.0
 11
6071.744517719402
 21
3704.104794172353
 31
0.0000000000000006
  0
LINE
  5
13C77
330
747D
100
AcDbEntity
  8
細線
 48
50.0
100
AcDbLine
 10
6090.184362936561
 20
3972.699508354796
 30
0.0
 11
6090.184362936561
 21
3704.104794172353
 31
0.0000000000000006
  0
LINE
  5
13C78
330
747D
100
AcDbEntity
  8
細線
 48
50.0
100
AcDbLine
 10
5970.184362936561
 20
3972.699508354796
 30
0.0
 11
5970.184362936561
 21
3704.104794172353
 31
0.0000000000000006
  0
LINE
  5
13C79
330
747D
100
AcDbEntity
  8
細線
 48
50.0
100
AcDbLine
 10
5951.744517719402
 20
3972.699508354796
 30
0.0
 11
5951.744517719402
 21
3704.104794172353
 31
0.0000000000000006
  0
LINE
  5
13C7A
330
747D
100
AcDbEntity
  8
細線
 48
50.0
100
AcDbLine
 10
6611.744517719403
 20
3972.699508354796
 30
0.0
 11
6611.744517719403
 21
3704.104794172353
 31
0.0000000000000006
  0
LINE
  5
13C7B
330
747D
100
AcDbEntity
  8
細線
 48
50.0
100
AcDbLine
 10
5551.744517719402
 20
3972.699508354796
 30
0.0
 11
5551.744517719402
 21
3704.104794172353
 31
0.0000000000000006
  0
LINE
  5
13C7C
330
747D
100
AcDbEntity
  8
細線
 48
50.0
100
AcDbLine
 10
5570.184362936561
 20
3972.699508354796
 30
0.0
 11
5570.184362936561
 21
3704.104794172353
 31
0.0000000000000006
  0
LINE
  5
13C7D
330
747D
100
AcDbEntity
  8
細線
 48
50.0
100
AcDbLine
 10
5690.184362936562
 20
3972.699508354796
 30
0.0
 11
5690.184362936562
 21
3704.104794172353
 31
0.0000000000000006
  0
LINE
  5
13C7E
330
747D
100
AcDbEntity
  8
細線
 48
50.0
100
AcDbLine
 10
5671.744517719402
 20
3972.699508354796
 30
0.0
 11
5671.744517719402
 21
3704.104794172353
 31
0.0000000000000006
  0
LINE
  5
13C7F
330
747D
100
AcDbEntity
  8
細線
 48
50.0
100
AcDbLine
 10
5811.744517719402
 20
3972.699508354796
 30
0.0
 11
5811.744517719402
 21
3704.104794172353
 31
0.0000000000000006
  0
LINE
  5
13C80
330
747D
100
AcDbEntity
  8
細線
 48
50.0
100
AcDbLine
 10
5830.184362936561
 20
3972.699508354796
 30
0.0
 11
5830.184362936561
 21
3704.104794172353
 31
0.0000000000000006
  0
LINE
  5
13C81
330
747D
100
AcDbEntity
  8
細線
 48
50.0
100
AcDbLine
 10
5430.184362936561
 20
3972.699508354796
 30
0.0
 11
5430.184362936561
 21
3704.104794172353
 31
0.0000000000000006
  0
LINE
  5
13C82
330
747D
100
AcDbEntity
  8
細線
 48
50.0
100
AcDbLine
 10
5411.744517719402
 20
3972.699508354796
 30
0.0
 11
5411.744517719402
 21
3704.104794172353
 31
0.0000000000000006
  0
LINE
  5
13C83
330
747D
100
AcDbEntity
  8
細線
 48
50.0
100
AcDbLine
 10
5271.744517719402
 20
3972.699508354796
 30
0.0
 11
5271.744517719402
 21
3704.104794172353
 31
0.0000000000000006
  0
LINE
  5
13C84
330
747D
100
AcDbEntity
  8
細線
 48
50.0
100
AcDbLine
 10
5290.184362936561
 20
3972.699508354796
 30
0.0
 11
5290.184362936561
 21
3704.104794172353
 31
0.0000000000000006
  0
LINE
  5
13C85
330
747D
100
AcDbEntity
  8
細線
 48
50.0
100
AcDbLine
 10
5170.184362936561
 20
3972.699508354796
 30
0.0
 11
5170.184362936561
 21
3704.104794172353
 31
0.0000000000000006
  0
LINE
  5
13C86
330
747D
100
AcDbEntity
  8
細線
 48
50.0
100
AcDbLine
 10
5151.744517719402
 20
3972.699508354796
 30
0.0
 11
5151.744517719402
 21
3704.104794172353
 31
0.0000000000000006
  0
LINE
  5
13C87
330
747D
100
AcDbEntity
  8
細線
 48
50.0
100
AcDbLine
 10
5011.744517719402
 20
3972.699508354796
 30
0.0
 11
5011.744517719402
 21
3704.104794172353
 31
0.0000000000000006
  0
LINE
  5
13C88
330
747D
100
AcDbEntity
  8
細線
 48
50.0
100
AcDbLine
 10
5030.184362936561
 20
3972.699508354796
 30
0.0
 11
5030.184362936561
 21
3704.104794172353
 31
0.0000000000000006
  0
LINE
  5
13C89
330
747D
100
AcDbEntity
  8
細線
 48
50.0
100
AcDbLine
 10
4630.184362936561
 20
3972.699508354796
 30
0.0
 11
4630.184362936561
 21
3704.104794172353
 31
0.0000000000000006
  0
LINE
  5
13C8A
330
747D
100
AcDbEntity
  8
細線
 48
50.0
100
AcDbLine
 10
4611.744517719402
 20
3972.699508354796
 30
0.0
 11
4611.744517719402
 21
3704.104794172353
 31
0.0000000000000006
  0
LINE
  5
13C8B
330
747D
100
AcDbEntity
  8
細線
 48
50.0
100
AcDbLine
 10
4471.744517719402
 20
3972.699508354796
 30
0.0
 11
4471.744517719402
 21
3704.104794172353
 31
0.0000000000000006
  0
LINE
  5
13C8C
330
747D
100
AcDbEntity
  8
細線
 48
50.0
100
AcDbLine
 10
4490.184362936561
 20
3972.699508354796
 30
0.0
 11
4490.184362936561
 21
3704.104794172353
 31
0.0000000000000006
  0
LINE
  5
13C8D
330
747D
100
AcDbEntity
  8
細線
 48
50.0
100
AcDbLine
 10
4370.184362936561
 20
3972.699508354796
 30
0.0
 11
4370.184362936561
 21
3704.104794172353
 31
0.0000000000000006
  0
LINE
  5
13C8E
330
747D
100
AcDbEntity
  8
細線
 48
50.0
100
AcDbLine
 10
4351.744517719402
 20
3972.699508354796
 30
0.0
 11
4351.744517719402
 21
3704.104794172353
 31
0.0000000000000006
  0
LINE
  5
13C8F
330
747D
100
AcDbEntity
  8
細線
 48
50.0
100
AcDbLine
 10
4751.744517719401
 20
3972.699508354796
 30
0.0
 11
4751.744517719401
 21
3704.104794172353
 31
0.0000000000000006
  0
LINE
  5
13C90
330
747D
100
AcDbEntity
  8
細線
 48
50.0
100
AcDbLine
 10
4770.184362936561
 20
3972.699508354796
 30
0.0
 11
4770.184362936561
 21
3704.104794172353
 31
0.0000000000000006
  0
LINE
  5
13C91
330
747D
100
AcDbEntity
  8
細線
 48
50.0
100
AcDbLine
 10
4890.184362936562
 20
3972.699508354796
 30
0.0
 11
4890.184362936562
 21
3704.104794172353
 31
0.0000000000000006
  0
LINE
  5
13C92
330
747D
100
AcDbEntity
  8
細線
 48
50.0
100
AcDbLine
 10
4871.744517719402
 20
3972.699508354796
 30
0.0
 11
4871.744517719402
 21
3704.104794172353
 31
0.0000000000000006
  0
LINE
  5
13C93
330
747D
100
AcDbEntity
  8
細線
 48
50.0
100
AcDbLine
 10
3830.184362936562
 20
3972.699508354796
 30
0.0
 11
3830.184362936562
 21
3704.104794172353
 31
0.0000000000000006
  0
LINE
  5
13C94
330
747D
100
AcDbEntity
  8
細線
 48
50.0
100
AcDbLine
 10
3811.744517719402
 20
3972.699508354796
 30
0.0
 11
3811.744517719402
 21
3704.104794172353
 31
0.0000000000000006
  0
LINE
  5
13C95
330
747D
100
AcDbEntity
  8
細線
 48
50.0
100
AcDbLine
 10
3671.744517719402
 20
3972.699508354796
 30
0.0
 11
3671.744517719402
 21
3704.104794172353
 31
0.0000000000000006
  0
LINE
  5
13C96
330
747D
100
AcDbEntity
  8
細線
 48
50.0
100
AcDbLine
 10
3690.184362936562
 20
3972.699508354796
 30
0.0
 11
3690.184362936562
 21
3704.104794172353
 31
0.0000000000000006
  0
LINE
  5
13C97
330
747D
100
AcDbEntity
  8
細線
 48
50.0
100
AcDbLine
 10
3570.184362936561
 20
3972.699508354796
 30
0.0
 11
3570.184362936561
 21
3704.104794172353
 31
0.0000000000000006
  0
LINE
  5
13C98
330
747D
100
AcDbEntity
  8
細線
 48
50.0
100
AcDbLine
 10
3551.744517719402
 20
3972.699508354796
 30
0.0
 11
3551.744517719402
 21
3704.104794172353
 31
0.0000000000000006
  0
LINE
  5
13C99
330
747D
100
AcDbEntity
  8
細線
 48
50.0
100
AcDbLine
 10
3151.744517719402
 20
3972.699508354796
 30
0.0
 11
3151.744517719402
 21
3704.104794172353
 31
0.0000000000000006
  0
LINE
  5
13C9A
330
747D
100
AcDbEntity
  8
細線
 48
50.0
100
AcDbLine
 10
3170.184362936562
 20
3972.699508354796
 30
0.0
 11
3170.184362936562
 21
3704.104794172353
 31
0.0000000000000006
  0
LINE
  5
13C9B
330
747D
100
AcDbEntity
  8
細線
 48
50.0
100
AcDbLine
 10
3290.184362936562
 20
3972.699508354796
 30
0.0
 11
3290.184362936562
 21
3704.104794172353
 31
0.0000000000000006
  0
LINE
  5
13C9C
330
747D
100
AcDbEntity
  8
細線
 48
50.0
100
AcDbLine
 10
3271.744517719402
 20
3972.699508354796
 30
0.0
 11
3271.744517719402
 21
3704.104794172353
 31
0.0000000000000006
  0
LINE
  5
13C9D
330
747D
100
AcDbEntity
  8
細線
 48
50.0
100
AcDbLine
 10
3411.744517719402
 20
3972.699508354796
 30
0.0
 11
3411.744517719402
 21
3704.104794172353
 31
0.0000000000000006
  0
LINE
  5
13C9E
330
747D
100
AcDbEntity
  8
細線
 48
50.0
100
AcDbLine
 10
3430.184362936561
 20
3972.699508354796
 30
0.0
 11
3430.184362936561
 21
3704.104794172353
 31
0.0000000000000006
  0
LINE
  5
13C9F
330
747D
100
AcDbEntity
  8
細線
 48
50.0
100
AcDbLine
 10
4230.184362936561
 20
3972.699508354796
 30
0.0
 11
4230.184362936561
 21
3704.104794172353
 31
0.0000000000000006
  0
LINE
  5
13CA0
330
747D
100
AcDbEntity
  8
細線
 48
50.0
100
AcDbLine
 10
4211.744517719401
 20
3972.699508354796
 30
0.0
 11
4211.744517719401
 21
3704.104794172353
 31
0.0000000000000006
  0
LINE
  5
13CA1
330
747D
100
AcDbEntity
  8
細線
 48
50.0
100
AcDbLine
 10
4071.744517719402
 20
3972.699508354796
 30
0.0
 11
4071.744517719402
 21
3704.104794172353
 31
0.0000000000000006
  0
LINE
  5
13CA2
330
747D
100
AcDbEntity
  8
細線
 48
50.0
100
AcDbLine
 10
4090.184362936561
 20
3972.699508354796
 30
0.0
 11
4090.184362936561
 21
3704.104794172353
 31
0.0000000000000006
  0
LINE
  5
13CA3
330
747D
100
AcDbEntity
  8
細線
 48
50.0
100
AcDbLine
 10
3970.184362936561
 20
3972.699508354796
 30
0.0
 11
3970.184362936561
 21
3704.104794172353
 31
0.0000000000000006
  0
LINE
  5
13CA4
330
747D
100
AcDbEntity
  8
細線
 48
50.0
100
AcDbLine
 10
3951.744517719402
 20
3972.699508354796
 30
0.0
 11
3951.744517719402
 21
3704.104794172353
 31
0.0000000000000006
  0
LINE
  5
13CA5
330
747D
100
AcDbEntity
  8
細線
 48
50.0
100
AcDbLine
 10
3030.184362936561
 20
3972.699508354796
 30
0.0
 11
3030.184362936561
 21
3704.104794172353
 31
0.0000000000000006
  0
LINE
  5
13CA6
330
747D
100
AcDbEntity
  8
細線
 48
50.0
100
AcDbLine
 10
2630.184362936561
 20
3972.699508354796
 30
0.0
 11
2630.184362936561
 21
3704.104794172353
 31
0.0000000000000006
  0
LINE
  5
13CA7
330
747D
100
AcDbEntity
  8
細線
 48
50.0
100
AcDbLine
 10
2611.744517719402
 20
3972.699508354796
 30
0.0
 11
2611.744517719402
 21
3704.104794172353
 31
0.0000000000000006
  0
LINE
  5
13CA8
330
747D
100
AcDbEntity
  8
細線
 48
50.0
100
AcDbLine
 10
2471.744517719403
 20
3972.699508354796
 30
0.0
 11
2471.744517719403
 21
3704.104794172353
 31
0.0000000000000006
  0
LINE
  5
13CA9
330
747D
100
AcDbEntity
  8
細線
 48
50.0
100
AcDbLine
 10
2490.184362936561
 20
3972.699508354796
 30
0.0
 11
2490.184362936561
 21
3704.104794172353
 31
0.0000000000000006
  0
LINE
  5
13CAA
330
747D
100
AcDbEntity
  8
細線
 48
50.0
100
AcDbLine
 10
2370.184362936561
 20
3972.699508354796
 30
0.0
 11
2370.184362936561
 21
3704.104794172353
 31
0.0000000000000006
  0
LINE
  5
13CAB
330
747D
100
AcDbEntity
  8
細線
 48
50.0
100
AcDbLine
 10
2351.744517719402
 20
3972.699508354796
 30
0.0
 11
2351.744517719402
 21
3704.104794172353
 31
0.0000000000000006
  0
LINE
  5
13CAC
330
747D
100
AcDbEntity
  8
細線
 48
50.0
100
AcDbLine
 10
2751.744517719402
 20
3972.699508354796
 30
0.0
 11
2751.744517719402
 21
3704.104794172353
 31
0.0000000000000006
  0
LINE
  5
13CAD
330
747D
100
AcDbEntity
  8
細線
 48
50.0
100
AcDbLine
 10
2770.184362936561
 20
3972.699508354796
 30
0.0
 11
2770.184362936561
 21
3704.104794172353
 31
0.0000000000000006
  0
LINE
  5
13CAE
330
747D
100
AcDbEntity
  8
細線
 48
50.0
100
AcDbLine
 10
2890.184362936561
 20
3972.699508354796
 30
0.0
 11
2890.184362936561
 21
3704.104794172353
 31
0.0000000000000006
  0
LINE
  5
13CAF
330
747D
100
AcDbEntity
  8
細線
 48
50.0
100
AcDbLine
 10
2871.744517719402
 20
3972.699508354796
 30
0.0
 11
2871.744517719402
 21
3704.104794172353
 31
0.0000000000000006
  0
LINE
  5
13CB0
330
747D
100
AcDbEntity
  8
細線
 48
50.0
100
AcDbLine
 10
3011.744517719402
 20
3972.699508354796
 30
0.0
 11
3011.744517719402
 21
3704.104794172353
 31
0.0000000000000006
  0
LINE
  5
13CB1
330
747D
100
AcDbEntity
  8
細線
 48
50.0
100
AcDbLine
 10
2071.744517719402
 20
3972.699508354796
 30
0.0
 11
2071.744517719402
 21
3704.104794172353
 31
0.0000000000000006
  0
LINE
  5
13CB2
330
747D
100
AcDbEntity
  8
細線
 48
50.0
100
AcDbLine
 10
2090.184362936561
 20
3972.699508354796
 30
0.0
 11
2090.184362936561
 21
3704.104794172353
 31
0.0000000000000006
  0
LINE
  5
13CB3
330
747D
100
AcDbEntity
  8
細線
 48
50.0
100
AcDbLine
 10
1970.184362936561
 20
3972.699508354796
 30
0.0
 11
1970.184362936561
 21
3704.104794172353
 31
0.0000000000000006
  0
LINE
  5
13CB4
330
747D
100
AcDbEntity
  8
細線
 48
50.0
100
AcDbLine
 10
1951.744517719402
 20
3972.699508354796
 30
0.0
 11
1951.744517719402
 21
3704.104794172353
 31
0.0000000000000006
  0
LINE
  5
13CB5
330
747D
100
AcDbEntity
  8
細線
 48
50.0
100
AcDbLine
 10
1551.744517719402
 20
3972.699508354796
 30
0.0
 11
1551.744517719402
 21
3704.104794172353
 31
0.0000000000000006
  0
LINE
  5
13CB6
330
747D
100
AcDbEntity
  8
細線
 48
50.0
100
AcDbLine
 10
1570.184362936561
 20
3972.699508354796
 30
0.0
 11
1570.184362936561
 21
3704.104794172353
 31
0.0000000000000006
  0
LINE
  5
13CB7
330
747D
100
AcDbEntity
  8
細線
 48
50.0
100
AcDbLine
 10
1690.184362936561
 20
3972.699508354796
 30
0.0
 11
1690.184362936561
 21
3704.104794172353
 31
0.0000000000000006
  0
LINE
  5
13CB8
330
747D
100
AcDbEntity
  8
細線
 48
50.0
100
AcDbLine
 10
1671.744517719402
 20
3972.699508354796
 30
0.0
 11
1671.744517719402
 21
3704.104794172353
 31
0.0000000000000006
  0
LINE
  5
13CB9
330
747D
100
AcDbEntity
  8
細線
 48
50.0
100
AcDbLine
 10
1811.744517719402
 20
3972.699508354796
 30
0.0
 11
1811.744517719402
 21
3704.104794172353
 31
0.0000000000000006
  0
LINE
  5
13CBA
330
747D
100
AcDbEntity
  8
細線
 48
50.0
100
AcDbLine
 10
1830.184362936561
 20
3972.699508354796
 30
0.0
 11
1830.184362936561
 21
3704.104794172353
 31
0.0000000000000006
  0
LINE
  5
13CBB
330
747D
100
AcDbEntity
  8
細線
 48
50.0
100
AcDbLine
 10
2230.184362936562
 20
3972.699508354796
 30
0.0
 11
2230.184362936562
 21
3704.104794172353
 31
0.0000000000000006
  0
LINE
  5
13CBC
330
747D
100
AcDbEntity
  8
細線
 48
50.0
100
AcDbLine
 10
2211.744517719402
 20
3972.699508354796
 30
0.0
 11
2211.744517719402
 21
3704.104794172353
 31
0.0000000000000006
  0
LINE
  5
13CBD
330
747D
100
AcDbEntity
  8
細線
 48
50.0
100
AcDbLine
 10
1430.184362936561
 20
3972.699508354796
 30
0.0
 11
1430.184362936561
 21
3704.104794172353
 31
0.0000000000000006
  0
LINE
  5
13CBE
330
747D
100
AcDbEntity
  8
部品1
 48
5.0
100
AcDbLine
 10
1576.414440327993
 20
3689.104794172353
 30
0.0000000000000006
 11
1420.964440327996
 21
3689.104794172352
 31
0.0000000000000006
  0
LINE
  5
13CBF
330
747D
100
AcDbEntity
  8
部品1
 48
5.0
100
AcDbLine
 10
3976.414440327964
 20
3689.104794172356
 30
0.0000000000000006
 11
1665.514440327999
 21
3689.104794172353
 31
0.0000000000000006
  0
LINE
  5
13CC0
330
747D
100
AcDbEntity
  8
部品1
 48
5.0
100
AcDbLine
 10
6376.414440327964
 20
3689.104794172359
 30
0.0000000000000006
 11
4065.514440327969
 21
3689.104794172356
 31
0.0000000000000006
  0
LINE
  5
13CC1
330
747D
100
AcDbEntity
  8
部品1
 48
5.0
100
AcDbLine
 10
6620.964440327966
 20
3689.104794172359
 30
0.0000000000000006
 11
6465.514440327971
 21
3689.104794172359
 31
0.0000000000000006
  0
LINE
  5
13CC2
330
747D
100
AcDbEntity
  8
部品1
 48
5.0
100
AcDbLine
 10
6620.964440327966
 20
3704.104794172359
 30
0.0000000000000006
 11
6465.514440327971
 21
3704.104794172359
 31
0.0000000000000006
  0
LINE
  5
13CC3
330
747D
100
AcDbEntity
  8
部品1
 48
5.0
100
AcDbLine
 10
6376.414440327964
 20
3704.104794172359
 30
0.0000000000000006
 11
4065.514440327969
 21
3704.104794172355
 31
0.0000000000000006
  0
LINE
  5
13CC4
330
747D
100
AcDbEntity
  8
部品1
 48
5.0
100
AcDbLine
 10
3976.414440327964
 20
3704.104794172355
 30
0.0000000000000006
 11
1665.514440327999
 21
3704.104794172353
 31
0.0000000000000006
  0
LINE
  5
13CC5
330
747D
100
AcDbEntity
  8
部品1
 48
5.0
100
AcDbLine
 10
1576.414440327993
 20
3704.104794172353
 30
0.0000000000000006
 11
1420.964440327996
 21
3704.104794172353
 31
0.0000000000000006
  0
LINE
  5
13CC6
330
747D
100
AcDbEntity
  8
部品1
 48
50.0
100
AcDbLine
 10
4249.464440327996
 20
3688.904794172373
 30
0.0
 11
4249.464440327996
 21
3704.104794172355
 31
0.0
  0
LINE
  5
13CC7
330
747D
100
AcDbEntity
  8
部品1
 48
50.0
100
AcDbLine
 10
8696.532811772835
 20
1917.640018622876
 30
0.0
 11
8683.399709002463
 21
1904.506915852511
 31
0.0
  0
LINE
  5
13CC8
330
747D
100
AcDbEntity
  8
部品1
 48
50.0
100
AcDbLine
 10
8683.399709002463
 20
1904.506915852511
 30
0.0
 11
8683.399709002463
 21
1867.640018622876
 31
0.0
  0
LINE
  5
13CC9
330
747D
100
AcDbEntity
  8
細線
 48
50.0
100
AcDbLine
 10
8837.595771142501
 20
1867.640018622876
 30
0.0
 11
8887.5957711425
 21
1917.640018622876
 31
0.0
  0
LINE
  5
13CCA
330
747D
100
AcDbEntity
  8
細線
 48
50.0
100
AcDbLine
 10
8783.714211142505
 20
1867.640018622876
 30
0.0
 11
8833.714211142504
 21
1917.640018622876
 31
0.0
  0
LINE
  5
13CCB
330
747D
100
AcDbEntity
  8
細線
 48
50.0
100
AcDbLine
 10
8810.654991142511
 20
1867.640018622876
 30
0.0
 11
8860.65499114251
 21
1917.640018622876
 31
0.0
  0
LINE
  5
13CCC
330
747D
100
AcDbEntity
  8
部品1
 48
50.0
100
AcDbLine
 10
8696.53281177282
 20
1917.640018622876
 30
0.0
 11
10693.39970900248
 21
1917.640018622875
 31
0.0
  0
LINE
  5
13CCD
330
747D
100
AcDbEntity
  8
細線
 48
50.0
100
AcDbLine
 10
9637.5957711425
 20
1867.640018622876
 30
0.0
 11
9687.5957711425
 21
1917.640018622876
 31
0.0
  0
LINE
  5
13CCE
330
747D
100
AcDbEntity
  8
細線
 48
50.0
100
AcDbLine
 10
9583.714211142504
 20
1867.640018622876
 30
0.0
 11
9633.714211142505
 21
1917.640018622876
 31
0.0
  0
LINE
  5
13CCF
330
747D
100
AcDbEntity
  8
細線
 48
50.0
100
AcDbLine
 10
9610.65499114251
 20
1867.640018622876
 30
0.0
 11
9660.654991142511
 21
1917.640018622876
 31
0.0
  0
LINE
  5
13CD0
330
747D
100
AcDbEntity
  8
部品1
 48
50.0
100
AcDbLine
 10
10703.39970900248
 20
1907.640018622875
 30
0.0
 11
10703.39970900246
 21
1867.640018622875
 31
0.0
  0
LINE
  5
13CD1
330
747D
100
AcDbEntity
  8
部品1
 48
50.0
100
AcDbLine
 10
10693.39970900248
 20
1917.640018622875
 30
0.0
 11
10703.39970900248
 21
1907.640018622875
 31
0.0
  0
LINE
  5
13CD2
330
747D
100
AcDbEntity
  8
細線
 48
50.0
100
AcDbLine
 10
10410.65499114251
 20
1867.640018622876
 30
0.0
 11
10460.65499114251
 21
1917.640018622876
 31
0.0
  0
LINE
  5
13CD3
330
747D
100
AcDbEntity
  8
細線
 48
50.0
100
AcDbLine
 10
10383.7142111425
 20
1867.640018622876
 30
0.0
 11
10433.7142111425
 21
1917.640018622876
 31
0.0
  0
LINE
  5
13CD4
330
747D
100
AcDbEntity
  8
細線
 48
50.0
100
AcDbLine
 10
10437.5957711425
 20
1867.640018622876
 30
0.0
 11
10487.5957711425
 21
1917.640018622876
 31
0.0
  0
LINE
  5
13CD5
330
747D
100
AcDbEntity
  8
点線
 48
10.0
100
AcDbLine
 10
10501.5607207844
 20
1917.640018622875
 30
0.0
 11
10501.5607207844
 21
1867.640018622876
 31
0.0
  0
LINE
  5
13CD6
330
747D
100
AcDbEntity
  8
点線
 48
10.0
100
AcDbLine
 10
10590.66106078439
 20
1917.640014849399
 30
-0.0000000000000002
 11
10590.66106078439
 21
1867.640014849399
 31
-0.0000000000000002
  0
LINE
  5
13CD7
330
747D
100
AcDbEntity
  8
部品1
 48
50.0
100
AcDbLine
 10
6650.964440327967
 20
1907.640018622875
 30
0.0
 11
6650.964440327967
 21
1867.640018622876
 31
0.0
  0
LINE
  5
13CD8
330
747D
100
AcDbEntity
  8
部品1
 48
50.0
100
AcDbLine
 10
6640.964440327967
 20
1917.640018622875
 30
0.0
 11
6650.964440327967
 21
1907.640018622875
 31
0.0
  0
LINE
  5
13CD9
330
747D
100
AcDbEntity
  8
細線
 48
50.0
100
AcDbLine
 10
1407.856770060665
 20
1867.640018622878
 30
0.0
 11
1457.856770060665
 21
1917.640018622878
 31
0.0
  0
LINE
  5
13CDA
330
747D
100
AcDbEntity
  8
細線
 48
50.0
100
AcDbLine
 10
1434.79755006067
 20
1867.640018622878
 30
0.0
 11
1484.79755006067
 21
1917.640018622878
 31
0.0
  0
LINE
  5
13CDB
330
747D
100
AcDbEntity
  8
細線
 48
50.0
100
AcDbLine
 10
1461.738330060667
 20
1867.640018622878
 30
0.0
 11
1511.73833006066
 21
1917.640018622878
 31
0.0
  0
LINE
  5
13CDC
330
747D
100
AcDbEntity
  8
部品1
 48
50.0
100
AcDbLine
 10
1390.964440327996
 20
1907.640018622878
 30
0.0
 11
1390.964440327996
 21
1867.640018622878
 31
0.0
  0
LINE
  5
13CDD
330
747D
100
AcDbEntity
  8
部品1
 48
50.0
100
AcDbLine
 10
1400.964440327996
 20
1917.640018622878
 30
0.0
 11
1390.964440327996
 21
1907.640018622878
 31
0.0
  0
LINE
  5
13CDE
330
747D
100
AcDbEntity
  8
部品1
 48
50.0
100
AcDbLine
 10
6640.964440327967
 20
1917.640018622875
 30
0.0
 11
1400.964440327996
 21
1917.640018622876
 31
0.0
  0
LINE
  5
13CDF
330
747D
100
AcDbEntity
  8
点線
 48
10.0
100
AcDbLine
 10
6465.514440327971
 20
1917.640014849398
 30
-0.0000000000000002
 11
6465.514440327971
 21
1867.640014849399
 31
-0.0000000000000002
  0
LINE
  5
13CE0
330
747D
100
AcDbEntity
  8
点線
 48
10.0
100
AcDbLine
 10
6376.414100327981
 20
1917.640018622875
 30
0.0
 11
6376.414100327981
 21
1867.640018622875
 31
0.0
  0
LINE
  5
13CE1
330
747D
100
AcDbEntity
  8
点線
 48
10.0
100
AcDbLine
 10
3976.414100327981
 20
1917.640018622876
 30
0.0
 11
3976.414100327981
 21
1867.640018622876
 31
0.0
  0
LINE
  5
13CE2
330
747D
100
AcDbEntity
  8
点線
 48
10.0
100
AcDbLine
 10
4065.514440327969
 20
1917.640014849399
 30
-0.0000000000000002
 11
4065.514440327969
 21
1867.6400148494
 31
-0.0000000000000002
  0
LINE
  5
13CE3
330
747D
100
AcDbEntity
  8
点線
 48
10.0
100
AcDbLine
 10
1665.514440327999
 20
1917.6400148494
 30
0.0
 11
1665.514440327999
 21
1867.640014849401
 31
0.0
  0
LINE
  5
13CE4
330
747D
100
AcDbEntity
  8
点線
 48
10.0
100
AcDbLine
 10
1576.414100328009
 20
1917.640018622876
 30
0.0000000000000002
 11
1576.414100328009
 21
1867.640018622876
 31
0.0000000000000002
  0
LINE
  5
13CE5
330
747D
100
AcDbEntity
  8
部品1
 48
50.0
100
AcDbLine
 10
6650.964440327967
 20
5940.182388248098
 30
0.0
 11
6650.964440327967
 21
7923.716718365297
 31
0.0
  0
LINE
  5
13CE6
330
747D
100
AcDbEntity
  8
部品1
 48
50.0
100
AcDbLine
 10
6650.964440327967
 20
7923.716718365297
 30
0.0
 11
6609.964440327967
 21
7923.716718365297
 31
0.0
  0
LINE
  5
13CE7
330
747D
100
AcDbEntity
  8
部品1
 48
50.0
100
AcDbLine
 10
1390.964440327996
 20
7923.716718365297
 30
0.0
 11
1390.964440327996
 21
5940.182388247963
 31
0.0
  0
LINE
  5
13CE8
330
747D
100
AcDbEntity
  8
部品1
 48
50.0
100
AcDbLine
 10
1409.964440327967
 20
5903.716718365015
 30
-0.0000000000002893
 11
6631.964440344032
 21
5903.716718365295
 31
-0.0000000000000009
  0
LINE
  5
13CE9
330
747D
100
AcDbEntity
  8
部品1
 62
     5
 48
50.0
100
AcDbLine
 10
4095.246117515664
 20
7882.201712583022
 30
0.0
 11
4095.246117515664
 21
6916.08381788723
 31
0.0000000000000065
  0
LINE
  5
13CEA
330
747D
100
AcDbEntity
  8
部品1
 62
     5
 48
50.0
100
AcDbLine
 10
4066.682763140299
 20
7882.201712583022
 30
0.0
 11
4066.682763140299
 21
6916.08381788723
 31
0.0000000000000065
  0
LINE
  5
13CEB
330
747D
100
AcDbEntity
  8
部品1
 62
     5
 48
50.0
100
AcDbLine
 10
3946.682763140299
 20
7882.201712583022
 30
0.0
 11
3946.682763140299
 21
7147.228469705933
 31
0.000000000000005
  0
LINE
  5
13CEC
330
747D
100
AcDbEntity
  8
部品1
 62
     5
 48
50.0
100
AcDbLine
 10
3975.246117515664
 20
7882.201712583022
 30
0.0
 11
3975.246117515664
 21
7040.628579942481
 31
0.0000000000000057
  0
LINE
  5
13CED
330
747D
100
AcDbEntity
  8
部品1
 62
     5
 48
50.0
100
AcDbLine
 10
3835.246117515664
 20
7882.201712583022
 30
0.0
 11
3835.246117515664
 21
7563.115693002114
 31
0.0000000000000022
  0
LINE
  5
13CEE
330
747D
100
AcDbEntity
  8
部品1
 62
     5
 48
50.0
100
AcDbLine
 10
3806.6827631403
 20
7882.201712583022
 30
0.0
 11
3806.6827631403
 21
7669.715582765566
 31
0.0000000000000014
  0
LINE
  5
13CEF
330
747D
100
AcDbEntity
  8
部品1
 62
     5
 48
50.0
100
AcDbLine
 10
5575.246117515664
 20
7882.201712583022
 30
0.0
 11
5575.246117515664
 21
5979.189342168566
 31
0.0000000000000128
  0
LINE
  5
13CF0
330
747D
100
AcDbEntity
  8
部品1
 62
     5
 48
50.0
100
AcDbLine
 10
5546.682763140299
 20
7882.201712583022
 30
0.0
 11
5546.682763140299
 21
5979.189342168566
 31
0.0000000000000128
  0
LINE
  5
13CF1
330
747D
100
AcDbEntity
  8
部品1
 62
     5
 48
50.0
100
AcDbLine
 10
5666.6827631403
 20
7882.201712583022
 30
0.0
 11
5666.6827631403
 21
5979.189342168566
 31
0.0000000000000128
  0
LINE
  5
13CF2
330
747D
100
AcDbEntity
  8
部品1
 62
     5
 48
50.0
100
AcDbLine
 10
5695.246117515664
 20
7882.201712583022
 30
0.0
 11
5695.246117515664
 21
5979.189342168566
 31
0.0000000000000128
  0
LINE
  5
13CF3
330
747D
100
AcDbEntity
  8
部品1
 62
     5
 48
50.0
100
AcDbLine
 10
6095.246117515664
 20
7882.201712583022
 30
0.0
 11
6095.246117515664
 21
5979.189342168566
 31
0.0000000000000128
  0
LINE
  5
13CF4
330
747D
100
AcDbEntity
  8
部品1
 62
     5
 48
50.0
100
AcDbLine
 10
6066.682763140299
 20
7882.201712583022
 30
0.0
 11
6066.682763140299
 21
5979.189342168566
 31
0.0000000000000128
  0
LINE
  5
13CF5
330
747D
100
AcDbEntity
  8
部品1
 62
     5
 48
50.0
100
AcDbLine
 10
5946.682763140299
 20
7882.201712583022
 30
0.0
 11
5946.682763140299
 21
5979.189342168566
 31
0.0000000000000128
  0
LINE
  5
13CF6
330
747D
100
AcDbEntity
  8
部品1
 62
     5
 48
50.0
100
AcDbLine
 10
5975.246117515664
 20
7882.201712583022
 30
0.0
 11
5975.246117515664
 21
5979.189342168566
 31
0.0000000000000128
  0
LINE
  5
13CF7
330
747D
100
AcDbEntity
  8
部品1
 62
     5
 48
50.0
100
AcDbLine
 10
5835.246117515664
 20
7882.201712583022
 30
0.0
 11
5835.246117515664
 21
5979.189342168566
 31
0.0000000000000128
  0
LINE
  5
13CF8
330
747D
100
AcDbEntity
  8
部品1
 62
     5
 48
50.0
100
AcDbLine
 10
5806.682763140299
 20
7882.201712583022
 30
0.0
 11
5806.682763140299
 21
5979.189342168566
 31
0.0000000000000128
  0
LINE
  5
13CF9
330
747D
100
AcDbEntity
  8
部品1
 62
     5
 48
50.0
100
AcDbLine
 10
6606.6827631403
 20
7882.201712583022
 30
0.0
 11
6606.6827631403
 21
5979.189342168566
 31
0.0000000000000128
  0
LINE
  5
13CFA
330
747D
100
AcDbEntity
  8
部品1
 62
     5
 48
50.0
100
AcDbLine
 10
6495.246117515664
 20
7882.201712583022
 30
0.0
 11
6495.246117515664
 21
5979.189342168566
 31
0.0000000000000128
  0
LINE
  5
13CFB
330
747D
100
AcDbEntity
  8
部品1
 62
     5
 48
50.0
100
AcDbLine
 10
6466.682763140299
 20
7882.201712583022
 30
0.0
 11
6466.682763140299
 21
5979.189342168566
 31
0.0000000000000128
  0
LINE
  5
13CFC
330
747D
100
AcDbEntity
  8
部品1
 62
     5
 48
50.0
100
AcDbLine
 10
6346.682763140299
 20
7882.201712583022
 30
0.0
 11
6346.682763140299
 21
5979.189342168566
 31
0.0000000000000128
  0
LINE
  5
13CFD
330
747D
100
AcDbEntity
  8
部品1
 62
     5
 48
50.0
100
AcDbLine
 10
6375.246117515664
 20
7882.201712583022
 30
0.0
 11
6375.246117515664
 21
5979.189342168566
 31
0.0000000000000128
  0
LINE
  5
13CFE
330
747D
100
AcDbEntity
  8
部品1
 62
     5
 48
50.0
100
AcDbLine
 10
6235.246117515664
 20
7882.201712583022
 30
0.0
 11
6235.246117515664
 21
5979.189342168566
 31
0.0000000000000128
  0
LINE
  5
13CFF
330
747D
100
AcDbEntity
  8
部品1
 62
     5
 48
50.0
100
AcDbLine
 10
6206.6827631403
 20
7882.201712583022
 30
0.0
 11
6206.6827631403
 21
5979.189342168566
 31
0.0000000000000128
  0
LINE
  5
13D00
330
747D
100
AcDbEntity
  8
部品1
 62
     5
 48
50.0
100
AcDbLine
 10
5006.682763140299
 20
7882.201712583022
 30
0.0
 11
5006.682763140299
 21
5979.189342168566
 31
0.0000000000000128
  0
LINE
  5
13D01
330
747D
100
AcDbEntity
  8
部品1
 62
     5
 48
50.0
100
AcDbLine
 10
5035.246117515664
 20
7882.201712583022
 30
0.0
 11
5035.246117515664
 21
5979.189342168566
 31
0.0000000000000128
  0
LINE
  5
13D02
330
747D
100
AcDbEntity
  8
部品1
 62
     5
 48
50.0
100
AcDbLine
 10
5175.246117515664
 20
7882.201712583022
 30
0.0
 11
5175.246117515664
 21
5979.189342168566
 31
0.0000000000000128
  0
LINE
  5
13D03
330
747D
100
AcDbEntity
  8
部品1
 62
     5
 48
50.0
100
AcDbLine
 10
5146.682763140299
 20
7882.201712583022
 30
0.0
 11
5146.682763140299
 21
5979.189342168566
 31
0.0000000000000128
  0
LINE
  5
13D04
330
747D
100
AcDbEntity
  8
部品1
 62
     5
 48
50.0
100
AcDbLine
 10
5266.682763140299
 20
7882.201712583022
 30
0.0
 11
5266.682763140299
 21
5979.189342168566
 31
0.0000000000000128
  0
LINE
  5
13D05
330
747D
100
AcDbEntity
  8
部品1
 62
     5
 48
50.0
100
AcDbLine
 10
5295.246117515664
 20
7882.201712583022
 30
0.0
 11
5295.246117515664
 21
5979.189342168566
 31
0.0000000000000128
  0
LINE
  5
13D06
330
747D
100
AcDbEntity
  8
部品1
 62
     5
 48
50.0
100
AcDbLine
 10
5435.246117515664
 20
7882.201712583022
 30
0.0
 11
5435.246117515664
 21
5979.189342168566
 31
0.0000000000000128
  0
LINE
  5
13D07
330
747D
100
AcDbEntity
  8
部品1
 62
     5
 48
50.0
100
AcDbLine
 10
5406.682763140299
 20
7882.201712583022
 30
0.0
 11
5406.682763140299
 21
5979.189342168566
 31
0.0000000000000128
  0
LINE
  5
13D08
330
747D
100
AcDbEntity
  8
部品1
 62
     5
 48
50.0
100
AcDbLine
 10
4606.682763140299
 20
7882.201712583022
 30
0.0
 11
4606.682763140299
 21
5979.189342168566
 31
0.0000000000000128
  0
LINE
  5
13D09
330
747D
100
AcDbEntity
  8
部品1
 62
     5
 48
50.0
100
AcDbLine
 10
4635.246117515664
 20
7882.201712583022
 30
0.0
 11
4635.246117515664
 21
5979.189342168566
 31
0.0000000000000128
  0
LINE
  5
13D0A
330
747D
100
AcDbEntity
  8
部品1
 62
     5
 48
50.0
100
AcDbLine
 10
4775.246117515663
 20
7882.201712583022
 30
0.0
 11
4775.246117515663
 21
5979.189342168566
 31
0.0000000000000128
  0
LINE
  5
13D0B
330
747D
100
AcDbEntity
  8
部品1
 62
     5
 48
50.0
100
AcDbLine
 10
4746.682763140299
 20
7882.201712583022
 30
0.0
 11
4746.682763140299
 21
5979.189342168566
 31
0.0000000000000128
  0
LINE
  5
13D0C
330
747D
100
AcDbEntity
  8
部品1
 62
     5
 48
50.0
100
AcDbLine
 10
4866.6827631403
 20
7882.201712583022
 30
0.0
 11
4866.6827631403
 21
5979.189342168566
 31
0.0000000000000128
  0
LINE
  5
13D0D
330
747D
100
AcDbEntity
  8
部品1
 62
     5
 48
50.0
100
AcDbLine
 10
4895.246117515664
 20
7882.201712583022
 30
0.0
 11
4895.246117515664
 21
5979.189342168566
 31
0.0000000000000128
  0
LINE
  5
13D0E
330
747D
100
AcDbEntity
  8
部品1
 62
     5
 48
50.0
100
AcDbLine
 10
4495.246117515664
 20
7882.201712583022
 30
0.0
 11
4495.246117515664
 21
5979.189342168566
 31
0.0000000000000128
  0
LINE
  5
13D0F
330
747D
100
AcDbEntity
  8
部品1
 62
     5
 48
50.0
100
AcDbLine
 10
4466.682763140299
 20
7882.201712583022
 30
0.0
 11
4466.682763140299
 21
5979.189342168566
 31
0.0000000000000128
  0
LINE
  5
13D10
330
747D
100
AcDbEntity
  8
部品1
 62
     5
 48
50.0
100
AcDbLine
 10
4346.682763140299
 20
7882.201712583022
 30
0.0
 11
4346.682763140299
 21
5979.189342168566
 31
0.0000000000000128
  0
LINE
  5
13D11
330
747D
100
AcDbEntity
  8
部品1
 62
     5
 48
50.0
100
AcDbLine
 10
4375.246117515664
 20
7882.201712583022
 30
0.0
 11
4375.246117515664
 21
5979.189342168566
 31
0.0000000000000128
  0
LINE
  5
13D12
330
747D
100
AcDbEntity
  8
部品1
 62
     5
 48
50.0
100
AcDbLine
 10
4235.246117515663
 20
7882.201712583022
 30
0.0
 11
4235.246117515663
 21
6070.295369974562
 31
0.0000000000000122
  0
LINE
  5
13D13
330
747D
100
AcDbEntity
  8
部品1
 62
     5
 48
50.0
100
AcDbLine
 10
4206.682763140299
 20
7882.201712583022
 30
0.0
 11
4206.682763140299
 21
6176.895259738016
 31
0.0000000000000115
  0
LINE
  5
13D14
330
747D
100
AcDbEntity
  8
部品1
 48
5.0
100
AcDbLine
 10
5410.464440327952
 20
5969.770378566669
 30
0.0000000000000051
 11
5410.464440327952
 21
5970.060328060363
 31
0.0000000000000051
  0
LINE
  5
13D15
330
747D
100
AcDbEntity
  8
部品1
 48
5.0
100
AcDbLine
 10
5405.964440327792
 20
5980.92338205916
 30
0.0000000000000007
 11
5410.464440327763
 21
5970.060328060344
 31
0.0000000000000073
  0
LINE
  5
13D16
330
747D
100
AcDbEntity
  8
部品1
 48
5.0
100
AcDbLine
 10
5410.464440327633
 20
5969.770378566629
 30
0.0000000000000073
 11
5431.464440327648
 21
5969.770378566629
 31
0.0000000000000087
  0
LINE
  5
13D17
330
747D
100
AcDbEntity
  8
部品1
 48
5.0
100
AcDbLine
 10
5270.464440327836
 20
5969.770378566637
 30
0.0000000000000062
 11
5291.464440327851
 21
5969.770378566637
 31
0.0000000000000076
  0
LINE
  5
13D18
330
747D
100
AcDbEntity
  8
部品1
 48
5.0
100
AcDbLine
 10
5035.96444032772
 20
5980.923382059138
 30
-0.0000000000000011
 11
5145.964440327763
 21
5980.923382059138
 31
-0.000000000000002
  0
LINE
  5
13D19
330
747D
100
AcDbEntity
  8
部品1
 48
5.0
100
AcDbLine
 10
5295.964440327821
 20
5980.923382059148
 30
-0.0000000000000043
 11
5405.96444032788
 21
5980.923382059148
 31
-0.0000000000000043
  0
LINE
  5
13D1A
330
747D
100
AcDbEntity
  8
部品1
 48
5.0
100
AcDbLine
 10
5270.464440327836
 20
5969.770378566652
 30
0.0000000000000049
 11
5270.464440327836
 21
5970.060328060345
 31
0.0000000000000049
  0
LINE
  5
13D1B
330
747D
100
AcDbEntity
  8
部品1
 48
5.0
100
AcDbLine
 10
5291.464440327851
 20
5969.770378566652
 30
0.0000000000000062
 11
5291.464440327851
 21
5970.060328060345
 31
0.0000000000000062
  0
LINE
  5
13D1C
330
747D
100
AcDbEntity
  8
部品1
 48
5.0
100
AcDbLine
 10
5291.464440327851
 20
5970.060328060345
 30
0.0000000000000062
 11
5295.964440327836
 21
5980.923382059163
 31
-0.0000000000000057
  0
LINE
  5
13D1D
330
747D
100
AcDbEntity
  8
部品1
 48
5.0
100
AcDbLine
 10
5265.96444032788
 20
5980.923382059163
 30
-0.0000000000000043
 11
5270.464440327836
 21
5970.060328060345
 31
0.0000000000000049
  0
LINE
  5
13D1E
330
747D
100
AcDbEntity
  8
部品1
 48
5.0
100
AcDbLine
 10
5291.464440327967
 20
5969.770378566659
 30
0.0000000000000062
 11
5291.464440327967
 21
5970.060328060353
 31
0.0000000000000062
  0
LINE
  5
13D1F
330
747D
100
AcDbEntity
  8
部品1
 48
5.0
100
AcDbLine
 10
5291.464440327967
 20
5970.060328060353
 30
0.0000000000000062
 11
5295.964440327967
 21
5980.92338205917
 31
0.0000000000000222
  0
LINE
  5
13D20
330
747D
100
AcDbEntity
  8
部品1
 48
5.0
100
AcDbLine
 10
5270.464440327967
 20
5969.770378566659
 30
0.0000000000000062
 11
5270.464440327967
 21
5970.060328060353
 31
0.0000000000000062
  0
LINE
  5
13D21
330
747D
100
AcDbEntity
  8
部品1
 48
5.0
100
AcDbLine
 10
5265.964440327996
 20
5980.92338205917
 30
-0.0000000000000043
 11
5270.464440327967
 21
5970.060328060353
 31
0.0000000000000062
  0
LINE
  5
13D22
330
747D
100
AcDbEntity
  8
部品1
 48
5.0
100
AcDbLine
 10
5171.464440327735
 20
5970.060328060345
 30
0.0000000000000062
 11
5175.964440327705
 21
5980.923382059163
 31
0.000000000000001
  0
LINE
  5
13D23
330
747D
100
AcDbEntity
  8
部品1
 48
5.0
100
AcDbLine
 10
5171.464440327735
 20
5969.770378566652
 30
0.0000000000000062
 11
5171.464440327735
 21
5970.060328060345
 31
0.0000000000000062
  0
LINE
  5
13D24
330
747D
100
AcDbEntity
  8
部品1
 48
5.0
100
AcDbLine
 10
5175.964440327676
 20
5980.923382059141
 30
0.0000000000000023
 11
5265.964440328011
 21
5980.923382059134
 31
-0.0000000000000143
  0
LINE
  5
13D25
330
747D
100
AcDbEntity
  8
部品1
 48
5.0
100
AcDbLine
 10
5145.964440327763
 20
5980.923382059163
 30
-0.0000000000000004
 11
5150.464440327734
 21
5970.060328060345
 31
0.0000000000000062
  0
LINE
  5
13D26
330
747D
100
AcDbEntity
  8
部品1
 48
5.0
100
AcDbLine
 10
5150.464440327734
 20
5969.770378566652
 30
0.0000000000000062
 11
5150.464440327734
 21
5970.060328060345
 31
0.0000000000000062
  0
LINE
  5
13D27
330
747D
100
AcDbEntity
  8
部品1
 48
5.0
100
AcDbLine
 10
5035.964440327705
 20
5980.923382059148
 30
0.0000000000000123
 11
5145.964440327763
 21
5980.923382059141
 31
0.000000000000001
  0
LINE
  5
13D28
330
747D
100
AcDbEntity
  8
部品1
 48
5.0
100
AcDbLine
 10
5175.964440327691
 20
5980.92338205914
 30
-0.0000000000000022
 11
5265.964440327895
 21
5980.923382059141
 31
-0.0000000000000029
  0
LINE
  5
13D29
330
747D
100
AcDbEntity
  8
部品1
 48
5.0
100
AcDbLine
 10
5150.464440327603
 20
5969.77037856663
 30
0.0000000000000062
 11
5171.464440327618
 21
5969.77037856663
 31
0.0000000000000076
  0
LINE
  5
13D2A
330
747D
100
AcDbEntity
  8
部品1
 48
5.0
100
AcDbLine
 10
5431.464440327734
 20
5970.060328060345
 30
0.0000000000000062
 11
5435.964440327734
 21
5980.923382059163
 31
0.0000000000000109
  0
LINE
  5
13D2B
330
747D
100
AcDbEntity
  8
部品1
 48
5.0
100
AcDbLine
 10
5431.464440327734
 20
5969.770378566652
 30
0.0000000000000062
 11
5431.464440327734
 21
5970.060328060345
 31
0.0000000000000062
  0
LINE
  5
13D2C
330
747D
100
AcDbEntity
  8
部品1
 48
5.0
100
AcDbLine
 10
5435.964440327705
 20
5980.923382059148
 30
0.0000000000000123
 11
5545.964440327764
 21
5980.923382059141
 31
0.000000000000001
  0
LINE
  5
13D2D
330
747D
100
AcDbEntity
  8
部品1
 48
5.0
100
AcDbLine
 10
3831.464440327371
 20
5969.770378566617
 30
-0.0000000000000182
 11
3810.464440327873
 21
5969.7703785665
 31
0.0000000000000038
  0
LINE
  5
13D2E
330
747D
100
AcDbEntity
  8
部品1
 48
5.0
100
AcDbLine
 10
3831.464440327371
 20
5970.060328060318
 30
0.0000000000000062
 11
3835.964440327341
 21
5980.923382059135
 31
0.000000000000001
  0
LINE
  5
13D2F
330
747D
100
AcDbEntity
  8
部品1
 48
5.0
100
AcDbLine
 10
3831.464440327371
 20
5969.770378566625
 30
0.0000000000000062
 11
3831.464440327371
 21
5970.060328060318
 31
0.0000000000000062
  0
ARC
  5
13D30
330
747D
100
AcDbEntity
  8
部品1
 48
5.0
100
AcDbCircle
 10
6628.464440327822
 20
5966.770378566637
 30
-0.0000000000000628
 40
3.0
100
AcDbArc
 50
0.0
 51
90.0
  0
LINE
  5
13D31
330
747D
100
AcDbEntity
  8
部品1
 48
5.0
100
AcDbLine
 10
3950.464440327261
 20
5969.770378566625
 30
-0.0000000000000133
 11
3950.464440327261
 21
5970.060328060318
 31
-0.0000000000000133
  0
LINE
  5
13D32
330
747D
100
AcDbEntity
  8
部品1
 48
5.0
100
AcDbLine
 10
3971.464440327262
 20
5969.770378566625
 30
0.0000000000000062
 11
3971.464440327262
 21
5970.060328060318
 31
0.0000000000000062
  0
LINE
  5
13D33
330
747D
100
AcDbEntity
  8
部品1
 48
5.0
100
AcDbLine
 10
3971.464440327262
 20
5970.060328060318
 30
0.0000000000000062
 11
3975.964440327233
 21
5980.923382059135
 31
0.000000000000001
  0
LINE
  5
13D34
330
747D
100
AcDbEntity
  8
部品1
 48
5.0
100
AcDbLine
 10
3975.964440327233
 20
5980.923382059135
 30
0.000000000000001
 11
4065.964440327523
 21
5980.923382059135
 31
-0.0000000000000043
  0
LINE
  5
13D35
330
747D
100
AcDbEntity
  8
部品1
 48
5.0
100
AcDbLine
 10
3971.464440327262
 20
5969.770378566625
 30
0.0000000000000062
 11
3950.464440327261
 21
5969.770378566625
 31
-0.0000000000000133
  0
LINE
  5
13D36
330
747D
100
AcDbEntity
  8
部品1
 48
5.0
100
AcDbLine
 10
3945.964440327291
 20
5980.923382059135
 30
0.000000000000001
 11
3950.464440327261
 21
5970.060328060318
 31
-0.0000000000000133
  0
LINE
  5
13D37
330
747D
100
AcDbEntity
  8
部品1
 48
5.0
100
AcDbLine
 10
4065.964440327523
 20
5980.923382059135
 30
0.0
 11
4070.464440327493
 21
5970.060328060317
 31
0.0000000000000106
  0
LINE
  5
13D38
330
747D
100
AcDbEntity
  8
部品1
 48
5.0
100
AcDbLine
 10
4091.464440327494
 20
5970.060328060317
 30
0.0000000000000106
 11
4095.964440327465
 21
5980.923382059135
 31
0.0
  0
LINE
  5
13D39
330
747D
100
AcDbEntity
  8
部品1
 48
5.0
100
AcDbLine
 10
4091.464440327494
 20
5969.770378566623
 30
0.0000000000000106
 11
4091.464440327494
 21
5970.060328060317
 31
0.0000000000000106
  0
LINE
  5
13D3A
330
747D
100
AcDbEntity
  8
部品1
 48
5.0
100
AcDbLine
 10
4070.464440327493
 20
5969.770378566623
 30
0.0000000000000106
 11
4070.464440327493
 21
5970.060328060317
 31
0.0000000000000106
  0
LINE
  5
13D3B
330
747D
100
AcDbEntity
  8
部品1
 48
5.0
100
AcDbLine
 10
4095.964440327465
 20
5980.923382059135
 30
-0.0000000000000043
 11
4205.964440327523
 21
5980.923382059135
 31
-0.0000000000000043
  0
LINE
  5
13D3C
330
747D
100
AcDbEntity
  8
部品1
 48
5.0
100
AcDbLine
 10
4205.964440327523
 20
5980.923382059149
 30
-0.0000000000000043
 11
4210.464440327494
 21
5970.060328060331
 31
0.0000000000000062
  0
LINE
  5
13D3D
330
747D
100
AcDbEntity
  8
部品1
 48
5.0
100
AcDbLine
 10
4231.464440327363
 20
5970.060328060331
 30
0.0000000000000084
 11
4235.964440327363
 21
5980.923382059149
 31
0.0000000000000032
  0
LINE
  5
13D3E
330
747D
100
AcDbEntity
  8
部品1
 48
5.0
100
AcDbLine
 10
4231.464440327363
 20
5969.770378566638
 30
0.0000000000000084
 11
4231.464440327363
 21
5970.060328060331
 31
0.0000000000000084
  0
LINE
  5
13D3F
330
747D
100
AcDbEntity
  8
部品1
 48
5.0
100
AcDbLine
 10
4210.464440327494
 20
5969.770378566638
 30
0.0000000000000062
 11
4210.464440327494
 21
5970.060328060331
 31
0.0000000000000062
  0
LINE
  5
13D40
330
747D
100
AcDbEntity
  8
部品1
 48
5.0
100
AcDbLine
 10
4350.464440327377
 20
5969.770378566646
 30
0.0000000000000062
 11
4350.464440327377
 21
5970.060328060339
 31
0.0000000000000062
  0
LINE
  5
13D41
330
747D
100
AcDbEntity
  8
部品1
 48
5.0
100
AcDbLine
 10
4371.464440327378
 20
5969.770378566646
 30
0.0000000000000062
 11
4371.464440327378
 21
5970.060328060339
 31
0.0000000000000062
  0
LINE
  5
13D42
330
747D
100
AcDbEntity
  8
部品1
 48
5.0
100
AcDbLine
 10
4371.464440327378
 20
5970.060328060339
 30
0.0000000000000062
 11
4375.964440327378
 21
5980.923382059156
 31
0.0000000000000101
  0
LINE
  5
13D43
330
747D
100
AcDbEntity
  8
部品1
 48
5.0
100
AcDbLine
 10
4345.964440327392
 20
5980.923382059156
 30
-0.0000000000000012
 11
4350.464440327377
 21
5970.060328060339
 31
0.0000000000000062
  0
LINE
  5
13D44
330
747D
100
AcDbEntity
  8
部品1
 48
5.0
100
AcDbLine
 10
4465.964440327625
 20
5980.923382059156
 30
-0.0000000000000065
 11
4470.46444032761
 21
5970.060328060339
 31
0.0000000000000062
  0
LINE
  5
13D45
330
747D
100
AcDbEntity
  8
部品1
 48
5.0
100
AcDbLine
 10
4491.46444032761
 20
5970.060328060339
 30
0.0000000000000062
 11
4495.964440327582
 21
5980.923382059156
 31
-0.0000000000000065
  0
LINE
  5
13D46
330
747D
100
AcDbEntity
  8
部品1
 48
5.0
100
AcDbLine
 10
4491.46444032761
 20
5969.770378566646
 30
0.0000000000000062
 11
4491.46444032761
 21
5970.060328060339
 31
0.0000000000000062
  0
LINE
  5
13D47
330
747D
100
AcDbEntity
  8
部品1
 48
5.0
100
AcDbLine
 10
4470.46444032761
 20
5969.770378566646
 30
0.0000000000000062
 11
4470.46444032761
 21
5970.060328060339
 31
0.0000000000000062
  0
LINE
  5
13D48
330
747D
100
AcDbEntity
  8
部品1
 48
5.0
100
AcDbLine
 10
4610.46444032761
 20
5969.770378566646
 30
0.0000000000000062
 11
4610.46444032761
 21
5970.060328060339
 31
0.0000000000000062
  0
LINE
  5
13D49
330
747D
100
AcDbEntity
  8
部品1
 48
5.0
100
AcDbLine
 10
4631.464440327501
 20
5969.770378566646
 30
0.0000000000000062
 11
4631.464440327501
 21
5970.060328060339
 31
0.0000000000000062
  0
LINE
  5
13D4A
330
747D
100
AcDbEntity
  8
部品1
 48
5.0
100
AcDbLine
 10
4631.464440327501
 20
5970.060328060339
 30
0.0000000000000062
 11
4635.964440327472
 21
5980.923382059156
 31
-0.0000000000000012
  0
LINE
  5
13D4B
330
747D
100
AcDbEntity
  8
部品1
 48
5.0
100
AcDbLine
 10
4605.96444032764
 20
5980.923382059156
 30
-0.0000000000000043
 11
4610.46444032761
 21
5970.060328060339
 31
0.0000000000000062
  0
LINE
  5
13D4C
330
747D
100
AcDbEntity
  8
部品1
 48
5.0
100
AcDbLine
 10
4745.561814957749
 20
5980.923382059156
 30
0.0000000000000007
 11
4750.464440327501
 21
5970.060328060339
 31
0.0000000000000062
  0
LINE
  5
13D4D
330
747D
100
AcDbEntity
  8
部品1
 48
5.0
100
AcDbLine
 10
4771.464440327501
 20
5970.060328060339
 30
0.0000000000000062
 11
4775.964440327473
 21
5980.923382059156
 31
0.000000000000001
  0
LINE
  5
13D4E
330
747D
100
AcDbEntity
  8
部品1
 48
5.0
100
AcDbLine
 10
4771.464440327501
 20
5969.770378566646
 30
0.0000000000000062
 11
4771.464440327501
 21
5970.060328060339
 31
0.0000000000000062
  0
LINE
  5
13D4F
330
747D
100
AcDbEntity
  8
部品1
 48
5.0
100
AcDbLine
 10
4750.464440327501
 20
5969.770378566646
 30
0.0000000000000062
 11
4750.464440327501
 21
5970.060328060339
 31
0.0000000000000062
  0
LINE
  5
13D50
330
747D
100
AcDbEntity
  8
部品1
 48
5.0
100
AcDbLine
 10
4870.464440327734
 20
5969.770378566646
 30
0.0000000000000062
 11
4870.464440327734
 21
5970.060328060339
 31
0.0000000000000062
  0
LINE
  5
13D51
330
747D
100
AcDbEntity
  8
部品1
 48
5.0
100
AcDbLine
 10
4891.464440327734
 20
5969.770378566646
 30
0.0000000000000062
 11
4891.464440327734
 21
5970.060328060339
 31
0.0000000000000062
  0
LINE
  5
13D52
330
747D
100
AcDbEntity
  8
部品1
 48
5.0
100
AcDbLine
 10
4891.464440327734
 20
5970.060328060339
 30
0.0000000000000062
 11
4895.96444032772
 21
5980.923382059156
 31
-0.0000000000000117
  0
LINE
  5
13D53
330
747D
100
AcDbEntity
  8
部品1
 48
5.0
100
AcDbLine
 10
4865.964440327764
 20
5980.923382059156
 30
-0.0000000000000043
 11
4870.464440327734
 21
5970.060328060339
 31
0.0000000000000062
  0
LINE
  5
13D54
330
747D
100
AcDbEntity
  8
部品1
 48
5.0
100
AcDbLine
 10
5005.964440327764
 20
5980.923382059156
 30
-0.0000000000000043
 11
5010.464440327734
 21
5970.060328060339
 31
0.0000000000000062
  0
LINE
  5
13D55
330
747D
100
AcDbEntity
  8
部品1
 48
5.0
100
AcDbLine
 10
5031.464440327618
 20
5970.060328060338
 30
0.0000000000000062
 11
5035.964440327603
 21
5980.923382059155
 31
0.0000000000000049
  0
LINE
  5
13D56
330
747D
100
AcDbEntity
  8
部品1
 48
5.0
100
AcDbLine
 10
5031.464440327618
 20
5969.770378566645
 30
0.0000000000000062
 11
5031.464440327618
 21
5970.060328060338
 31
0.0000000000000062
  0
LINE
  5
13D57
330
747D
100
AcDbEntity
  8
部品1
 48
5.0
100
AcDbLine
 10
5010.464440327734
 20
5969.770378566646
 30
0.0000000000000062
 11
5010.464440327734
 21
5970.060328060339
 31
0.0000000000000062
  0
LINE
  5
13D58
330
747D
100
AcDbEntity
  8
部品1
 48
5.0
100
AcDbLine
 10
5150.464440327618
 20
5969.770378566645
 30
0.0000000000000062
 11
5150.464440327618
 21
5970.060328060338
 31
0.0000000000000062
  0
LINE
  5
13D59
330
747D
100
AcDbEntity
  8
部品1
 48
5.0
100
AcDbLine
 10
5171.464440327618
 20
5969.770378566645
 30
0.0000000000000062
 11
5171.464440327618
 21
5970.060328060338
 31
0.0000000000000062
  0
LINE
  5
13D5A
330
747D
100
AcDbEntity
  8
部品1
 48
5.0
100
AcDbLine
 10
5171.464440327618
 20
5970.060328060338
 30
0.0000000000000062
 11
5175.964440327604
 21
5980.923382059155
 31
-0.0000000000000065
  0
LINE
  5
13D5B
330
747D
100
AcDbEntity
  8
部品1
 48
5.0
100
AcDbLine
 10
5145.964440327647
 20
5980.923382059155
 30
0.000000000000001
 11
5150.464440327618
 21
5970.060328060338
 31
0.0000000000000062
  0
LINE
  5
13D5C
330
747D
100
AcDbEntity
  8
部品1
 48
5.0
100
AcDbLine
 10
5810.464440327851
 20
5969.770378566652
 30
0.0000000000000062
 11
5810.464440327851
 21
5970.060328060345
 31
0.0000000000000062
  0
LINE
  5
13D5D
330
747D
100
AcDbEntity
  8
部品1
 48
5.0
100
AcDbLine
 10
5831.464440327734
 20
5969.770378566652
 30
0.0000000000000062
 11
5831.464440327734
 21
5970.060328060345
 31
0.0000000000000062
  0
LINE
  5
13D5E
330
747D
100
AcDbEntity
  8
部品1
 48
5.0
100
AcDbLine
 10
5831.464440327734
 20
5970.060328060345
 30
0.0000000000000062
 11
5835.964440327734
 21
5980.923382059163
 31
0.0000000000000109
  0
LINE
  5
13D5F
330
747D
100
AcDbEntity
  8
部品1
 48
5.0
100
AcDbLine
 10
5805.964440327851
 20
5980.923382059163
 30
-0.0000000000000057
 11
5810.464440327851
 21
5970.060328060345
 31
0.0000000000000062
  0
LINE
  5
13D60
330
747D
100
AcDbEntity
  8
部品1
 48
5.0
100
AcDbLine
 10
5945.964440327763
 20
5980.923382059163
 30
-0.0000000000000004
 11
5950.464440327735
 21
5970.060328060345
 31
0.0000000000000062
  0
LINE
  5
13D61
330
747D
100
AcDbEntity
  8
部品1
 48
5.0
100
AcDbLine
 10
5971.464440327735
 20
5970.060328060345
 30
0.0000000000000062
 11
5975.964440327705
 21
5980.923382059163
 31
0.000000000000001
  0
LINE
  5
13D62
330
747D
100
AcDbEntity
  8
部品1
 48
5.0
100
AcDbLine
 10
5971.464440327735
 20
5969.770378566652
 30
0.0000000000000062
 11
5971.464440327735
 21
5970.060328060345
 31
0.0000000000000062
  0
LINE
  5
13D63
330
747D
100
AcDbEntity
  8
部品1
 48
5.0
100
AcDbLine
 10
5950.464440327735
 20
5969.770378566652
 30
0.0000000000000062
 11
5950.464440327735
 21
5970.060328060345
 31
0.0000000000000062
  0
LINE
  5
13D64
330
747D
100
AcDbEntity
  8
部品1
 48
5.0
100
AcDbLine
 10
6070.464440327967
 20
5969.770378566659
 30
0.0000000000000062
 11
6070.464440327967
 21
5970.060328060353
 31
0.0000000000000062
  0
LINE
  5
13D65
330
747D
100
AcDbEntity
  8
部品1
 48
5.0
100
AcDbLine
 10
6091.464440327968
 20
5969.770378566659
 30
0.0000000000000062
 11
6091.464440327968
 21
5970.060328060353
 31
0.0000000000000062
  0
LINE
  5
13D66
330
747D
100
AcDbEntity
  8
部品1
 48
5.0
100
AcDbLine
 10
6091.464440327968
 20
5970.060328060353
 30
0.0000000000000062
 11
6095.964440327968
 21
5980.92338205917
 31
0.0000000000000222
  0
LINE
  5
13D67
330
747D
100
AcDbEntity
  8
部品1
 48
5.0
100
AcDbLine
 10
6065.964440327996
 20
5980.92338205917
 30
-0.0000000000000043
 11
6070.464440327967
 21
5970.060328060353
 31
0.0000000000000062
  0
LINE
  5
13D68
330
747D
100
AcDbEntity
  8
部品1
 48
5.0
100
AcDbLine
 10
6205.964440327981
 20
5980.923382059168
 30
0.0000000000000056
 11
6210.464440327967
 21
5970.060328060351
 31
0.0000000000000062
  0
LINE
  5
13D69
330
747D
100
AcDbEntity
  8
部品1
 48
5.0
100
AcDbLine
 10
6231.464440327851
 20
5970.060328060351
 30
0.0000000000000162
 11
6235.964440327851
 21
5980.923382059168
 31
0.0000000000000222
  0
LINE
  5
13D6A
330
747D
100
AcDbEntity
  8
部品1
 48
5.0
100
AcDbLine
 10
6231.464440327851
 20
5969.770378566657
 30
0.0000000000000162
 11
6231.464440327851
 21
5970.060328060351
 31
0.0000000000000162
  0
LINE
  5
13D6B
330
747D
100
AcDbEntity
  8
部品1
 48
5.0
100
AcDbLine
 10
6210.464440327967
 20
5969.770378566657
 30
0.0000000000000062
 11
6210.464440327967
 21
5970.060328060351
 31
0.0000000000000062
  0
LINE
  5
13D6C
330
747D
100
AcDbEntity
  8
部品1
 48
5.0
100
AcDbLine
 10
6350.464440327851
 20
5969.770378566659
 30
0.0000000000000162
 11
6350.464440327851
 21
5970.060328060353
 31
0.0000000000000162
  0
LINE
  5
13D6D
330
747D
100
AcDbEntity
  8
部品1
 48
5.0
100
AcDbLine
 10
6371.464440327851
 20
5969.770378566659
 30
0.0000000000000062
 11
6371.464440327851
 21
5970.060328060353
 31
0.0000000000000062
  0
LINE
  5
13D6E
330
747D
100
AcDbEntity
  8
部品1
 48
5.0
100
AcDbLine
 10
6371.464440327851
 20
5970.060328060353
 30
0.0000000000000062
 11
6375.964440327851
 21
5980.92338205917
 31
0.0000000000000222
  0
LINE
  5
13D6F
330
747D
100
AcDbEntity
  8
部品1
 48
5.0
100
AcDbLine
 10
6345.96444032788
 20
5980.92338205917
 30
0.000000000000001
 11
6350.464440327851
 21
5970.060328060353
 31
0.0000000000000162
  0
LINE
  5
13D70
330
747D
100
AcDbEntity
  8
部品1
 48
5.0
100
AcDbLine
 10
6465.964440328114
 20
5980.92338205917
 30
-0.0000000000000043
 11
6470.464440328054
 21
5970.060328060353
 31
0.0000000000000109
  0
LINE
  5
13D71
330
747D
100
AcDbEntity
  8
部品1
 48
5.0
100
AcDbLine
 10
6491.464440328098
 20
5970.060328060353
 30
0.0000000000000109
 11
6495.964440328098
 21
5980.92338205917
 31
0.000000000000017
  0
LINE
  5
13D72
330
747D
100
AcDbEntity
  8
部品1
 48
5.0
100
AcDbLine
 10
6491.464440328098
 20
5969.770378566659
 30
0.0000000000000109
 11
6491.464440328098
 21
5970.060328060353
 31
0.0000000000000109
  0
LINE
  5
13D73
330
747D
100
AcDbEntity
  8
部品1
 48
5.0
100
AcDbLine
 10
6470.464440328054
 20
5969.770378566659
 30
0.0000000000000109
 11
6470.464440328054
 21
5970.060328060353
 31
0.0000000000000109
  0
LINE
  5
13D74
330
747D
100
AcDbEntity
  8
部品1
 48
5.0
100
AcDbLine
 10
6610.464440328098
 20
5969.770378566659
 30
0.0000000000000062
 11
6610.464440328098
 21
5970.060328060353
 31
0.0000000000000062
  0
LINE
  5
13D75
330
747D
100
AcDbEntity
  8
部品1
 48
5.0
100
AcDbLine
 10
6605.964440328112
 20
5980.92338205917
 30
0.0000000000000123
 11
6610.464440328098
 21
5970.060328060353
 31
0.0000000000000062
  0
LINE
  5
13D76
330
747D
100
AcDbEntity
  8
部品1
 48
5.0
100
AcDbLine
 10
6495.964440328055
 20
5980.923382059126
 30
0.0000000000000123
 11
6605.964440328143
 21
5980.923382059134
 31
0.0000000000000023
  0
LINE
  5
13D77
330
747D
100
AcDbEntity
  8
部品1
 48
5.0
100
AcDbLine
 10
6375.964440327821
 20
5980.923382059126
 30
0.0000000000000123
 11
6465.964440328156
 21
5980.923382059126
 31
-0.000000000000009
  0
LINE
  5
13D78
330
747D
100
AcDbEntity
  8
部品1
 48
5.0
100
AcDbLine
 10
6235.964440327822
 20
5980.923382059131
 30
0.0000000000000123
 11
6345.964440327909
 21
5980.923382059126
 31
-0.000000000000009
  0
LINE
  5
13D79
330
747D
100
AcDbEntity
  8
部品1
 48
5.0
100
AcDbLine
 10
6095.964440327938
 20
5980.923382059134
 30
0.0000000000000123
 11
6205.964440327996
 21
5980.923382059131
 31
-0.0000000000000043
  0
LINE
  5
13D7A
330
747D
100
AcDbEntity
  8
部品1
 48
5.0
100
AcDbLine
 10
5975.964440327675
 20
5980.923382059141
 30
0.0000000000000023
 11
6065.964440328011
 21
5980.923382059134
 31
-0.0000000000000143
  0
LINE
  5
13D7B
330
747D
100
AcDbEntity
  8
部品1
 48
5.0
100
AcDbLine
 10
5835.964440327705
 20
5980.923382059148
 30
0.0000000000000123
 11
5945.964440327763
 21
5980.923382059141
 31
0.000000000000001
  0
LINE
  5
13D7C
330
747D
100
AcDbEntity
  8
部品1
 48
5.0
100
AcDbLine
 10
5035.964440327589
 20
5980.923382059134
 30
0.0000000000000123
 11
5145.964440327676
 21
5980.923382059134
 31
0.0000000000000084
  0
LINE
  5
13D7D
330
747D
100
AcDbEntity
  8
部品1
 48
5.0
100
AcDbLine
 10
4895.964440327706
 20
5980.923382059135
 30
-0.0000000000000043
 11
5005.964440327778
 21
5980.923382059135
 31
0.0000000000000031
  0
LINE
  5
13D7E
330
747D
100
AcDbEntity
  8
部品1
 48
5.0
100
AcDbLine
 10
4775.964440327458
 20
5980.923382059135
 30
0.0000000000000031
 11
4865.964440327778
 21
5980.923382059135
 31
0.0000000000000031
  0
LINE
  5
13D7F
330
747D
100
AcDbEntity
  8
部品1
 48
5.0
100
AcDbLine
 10
4635.964440327472
 20
5980.923382059135
 30
0.000000000000001
 11
4745.561814957763
 21
5980.923382059135
 31
0.0000000000000028
  0
LINE
  5
13D80
330
747D
100
AcDbEntity
  8
部品1
 48
5.0
100
AcDbLine
 10
4495.964440327582
 20
5980.923382059135
 30
-0.0000000000000043
 11
4605.964440327654
 21
5980.923382059135
 31
-0.0000000000000022
  0
LINE
  5
13D81
330
747D
100
AcDbEntity
  8
部品1
 48
5.0
100
AcDbLine
 10
4375.964440327349
 20
5980.923382059135
 30
0.0000000000000123
 11
4465.964440327639
 21
5980.923382059135
 31
-0.0000000000000043
  0
LINE
  5
13D82
330
747D
100
AcDbEntity
  8
部品1
 48
5.0
100
AcDbLine
 10
4235.964440327348
 20
5980.923382059142
 30
0.000000000000001
 11
4345.964440327406
 21
5980.923382059135
 31
0.000000000000001
  0
LINE
  5
13D83
330
747D
100
AcDbEntity
  8
部品1
 48
5.0
100
AcDbLine
 10
4070.464440327493
 20
5969.770378566623
 30
0.0000000000000062
 11
4091.464440327494
 21
5969.770378566623
 31
0.0000000000000106
  0
LINE
  5
13D84
330
747D
100
AcDbEntity
  8
部品1
 48
5.0
100
AcDbLine
 10
4210.464440327494
 20
5969.77037856663
 30
0.000000000000004
 11
4231.464440327363
 21
5969.77037856663
 31
0.0000000000000062
  0
LINE
  5
13D85
330
747D
100
AcDbEntity
  8
部品1
 48
5.0
100
AcDbLine
 10
4350.464440327377
 20
5969.77037856663
 30
0.0000000000000084
 11
4371.464440327378
 21
5969.770378566646
 31
0.0000000000000062
  0
LINE
  5
13D86
330
747D
100
AcDbEntity
  8
部品1
 48
5.0
100
AcDbLine
 10
4470.464440327596
 20
5969.77037856663
 30
0.0000000000000084
 11
4491.464440327596
 21
5969.77037856663
 31
0.0000000000000084
  0
LINE
  5
13D87
330
747D
100
AcDbEntity
  8
部品1
 48
5.0
100
AcDbLine
 10
4610.46444032761
 20
5969.770378566623
 30
0.0000000000000084
 11
4631.464440327486
 21
5969.770378566623
 31
0.0000000000000084
  0
LINE
  5
13D88
330
747D
100
AcDbEntity
  8
部品1
 48
5.0
100
AcDbLine
 10
4750.464440327501
 20
5969.77037856663
 30
0.0000000000000084
 11
4771.464440327501
 21
5969.77037856663
 31
0.0000000000000084
  0
LINE
  5
13D89
330
747D
100
AcDbEntity
  8
部品1
 48
5.0
100
AcDbLine
 10
4870.464440327734
 20
5969.77037856663
 30
0.0000000000000136
 11
4891.464440327749
 21
5969.77037856663
 31
0.0000000000000136
  0
LINE
  5
13D8A
330
747D
100
AcDbEntity
  8
部品1
 48
5.0
100
AcDbLine
 10
5010.464440327719
 20
5969.770378566638
 30
0.0000000000000136
 11
5031.464440327618
 21
5969.770378566637
 31
0.0000000000000136
  0
LINE
  5
13D8B
330
747D
100
AcDbEntity
  8
部品1
 48
5.0
100
AcDbLine
 10
5150.464440327618
 20
5969.770378566637
 30
0.0000000000000136
 11
5171.464440327618
 21
5969.770378566637
 31
0.0000000000000136
  0
LINE
  5
13D8C
330
747D
100
AcDbEntity
  8
部品1
 48
5.0
100
AcDbLine
 10
5810.464440327866
 20
5969.770378566645
 30
0.0000000000000076
 11
5831.46444032772
 21
5969.770378566645
 31
0.0000000000000062
  0
LINE
  5
13D8D
330
747D
100
AcDbEntity
  8
部品1
 48
5.0
100
AcDbLine
 10
5950.464440327735
 20
5969.770378566645
 30
0.0000000000000076
 11
5971.464440327735
 21
5969.770378566645
 31
0.0000000000000076
  0
LINE
  5
13D8E
330
747D
100
AcDbEntity
  8
部品1
 48
5.0
100
AcDbLine
 10
6070.464440327967
 20
5969.770378566645
 30
-0.0000000000000037
 11
6091.464440327968
 21
5969.770378566645
 31
0.0000000000000062
  0
LINE
  5
13D8F
330
747D
100
AcDbEntity
  8
部品1
 48
5.0
100
AcDbLine
 10
6210.464440327967
 20
5969.770378566636
 30
-0.0000000000000037
 11
6231.464440327851
 21
5969.770378566636
 31
0.0000000000000162
  0
LINE
  5
13D90
330
747D
100
AcDbEntity
  8
部品1
 48
5.0
100
AcDbLine
 10
6350.464440327851
 20
5969.77037856663
 30
0.0000000000000062
 11
6371.464440327836
 21
5969.770378566637
 31
0.0000000000000062
  0
LINE
  5
13D91
330
747D
100
AcDbEntity
  8
部品1
 48
5.0
100
AcDbLine
 10
6470.464440328054
 20
5969.77037856663
 30
0.0000000000000062
 11
6491.464440328098
 21
5969.77037856663
 31
0.0000000000000062
  0
LINE
  5
13D92
330
747D
100
AcDbEntity
  8
部品1
 48
5.0
100
AcDbLine
 10
6610.464440328098
 20
5969.77037856663
 30
-0.0000000000000038
 11
6628.464440327822
 21
5969.770378566637
 31
-0.0000000000000108
  0
LINE
  5
13D93
330
747D
100
AcDbEntity
  8
部品1
 48
5.0
100
AcDbLine
 10
3945.964440327291
 20
5980.923382059135
 30
0.000000000000001
 11
3835.964440327341
 21
5980.923382059135
 31
-0.0000000000000108
  0
LINE
  5
13D94
330
747D
100
AcDbEntity
  8
部品1
 48
5.0
100
AcDbLine
 10
5670.464440327837
 20
5969.770378566637
 30
0.0000000000000062
 11
5691.464440327851
 21
5969.770378566637
 31
0.0000000000000076
  0
LINE
  5
13D95
330
747D
100
AcDbEntity
  8
部品1
 48
5.0
100
AcDbLine
 10
5695.964440327822
 20
5980.923382059148
 30
-0.0000000000000043
 11
5805.96444032788
 21
5980.923382059148
 31
-0.0000000000000043
  0
LINE
  5
13D96
330
747D
100
AcDbEntity
  8
部品1
 48
5.0
100
AcDbLine
 10
5670.464440327837
 20
5969.770378566652
 30
0.0000000000000049
 11
5670.464440327837
 21
5970.060328060345
 31
0.0000000000000049
  0
LINE
  5
13D97
330
747D
100
AcDbEntity
  8
部品1
 48
5.0
100
AcDbLine
 10
5691.464440327851
 20
5969.770378566652
 30
0.0000000000000062
 11
5691.464440327851
 21
5970.060328060345
 31
0.0000000000000062
  0
LINE
  5
13D98
330
747D
100
AcDbEntity
  8
部品1
 48
5.0
100
AcDbLine
 10
5691.464440327851
 20
5970.060328060345
 30
0.0000000000000062
 11
5695.964440327836
 21
5980.923382059163
 31
-0.0000000000000057
  0
LINE
  5
13D99
330
747D
100
AcDbEntity
  8
部品1
 48
5.0
100
AcDbLine
 10
5665.964440327879
 20
5980.923382059163
 30
-0.0000000000000043
 11
5670.464440327837
 21
5970.060328060345
 31
0.0000000000000049
  0
LINE
  5
13D9A
330
747D
100
AcDbEntity
  8
部品1
 48
5.0
100
AcDbLine
 10
5691.464440327967
 20
5969.770378566659
 30
0.0000000000000062
 11
5691.464440327967
 21
5970.060328060353
 31
0.0000000000000062
  0
LINE
  5
13D9B
330
747D
100
AcDbEntity
  8
部品1
 48
5.0
100
AcDbLine
 10
5691.464440327967
 20
5970.060328060353
 30
0.0000000000000062
 11
5695.964440327967
 21
5980.92338205917
 31
0.0000000000000222
  0
LINE
  5
13D9C
330
747D
100
AcDbEntity
  8
部品1
 48
5.0
100
AcDbLine
 10
5670.464440327967
 20
5969.770378566659
 30
0.0000000000000062
 11
5670.464440327967
 21
5970.060328060353
 31
0.0000000000000062
  0
LINE
  5
13D9D
330
747D
100
AcDbEntity
  8
部品1
 48
5.0
100
AcDbLine
 10
5665.964440327996
 20
5980.92338205917
 30
-0.0000000000000043
 11
5670.464440327967
 21
5970.060328060353
 31
0.0000000000000062
  0
LINE
  5
13D9E
330
747D
100
AcDbEntity
  8
部品1
 48
5.0
100
AcDbLine
 10
5571.464440327734
 20
5970.060328060345
 30
0.0000000000000062
 11
5575.964440327705
 21
5980.923382059163
 31
0.000000000000001
  0
LINE
  5
13D9F
330
747D
100
AcDbEntity
  8
部品1
 48
5.0
100
AcDbLine
 10
5571.464440327734
 20
5969.770378566652
 30
0.0000000000000062
 11
5571.464440327734
 21
5970.060328060345
 31
0.0000000000000062
  0
LINE
  5
13DA0
330
747D
100
AcDbEntity
  8
部品1
 48
5.0
100
AcDbLine
 10
5575.964440327676
 20
5980.923382059141
 30
0.0000000000000023
 11
5665.964440328011
 21
5980.923382059134
 31
-0.0000000000000143
  0
LINE
  5
13DA1
330
747D
100
AcDbEntity
  8
部品1
 48
5.0
100
AcDbLine
 10
5545.964440327764
 20
5980.923382059163
 30
-0.0000000000000004
 11
5550.464440327735
 21
5970.060328060345
 31
0.0000000000000062
  0
LINE
  5
13DA2
330
747D
100
AcDbEntity
  8
部品1
 48
5.0
100
AcDbLine
 10
5550.464440327735
 20
5969.770378566652
 30
0.0000000000000062
 11
5550.464440327735
 21
5970.060328060345
 31
0.0000000000000062
  0
LINE
  5
13DA3
330
747D
100
AcDbEntity
  8
部品1
 48
5.0
100
AcDbLine
 10
5550.464440327603
 20
5969.77037856663
 30
0.0000000000000062
 11
5571.464440327618
 21
5969.77037856663
 31
0.0000000000000076
  0
LINE
  5
13DA4
330
747D
100
AcDbEntity
  8
部品1
 48
5.0
100
AcDbLine
 10
1431.464440327166
 20
5969.770378566632
 30
-0.0000000000000084
 11
1413.464440327429
 21
5969.770378566639
 31
-0.0000000000000154
  0
LINE
  5
13DA5
330
747D
100
AcDbEntity
  8
部品1
 48
5.0
100
AcDbLine
 10
1571.46444032721
 20
5969.770378566632
 30
0.0000000000000016
 11
1550.464440327167
 21
5969.770378566632
 31
0.0000000000000016
  0
LINE
  5
13DA6
330
747D
100
AcDbEntity
  8
部品1
 48
5.0
100
AcDbLine
 10
1691.464440327414
 20
5969.770378566632
 30
0.0000000000000016
 11
1670.464440327428
 21
5969.770378566639
 31
0.0000000000000016
  0
LINE
  5
13DA7
330
747D
100
AcDbEntity
  8
部品1
 48
5.0
100
AcDbLine
 10
1831.464440327298
 20
5969.770378566637
 30
-0.0000000000000083
 11
1810.464440327414
 21
5969.770378566637
 31
0.0000000000000116
  0
LINE
  5
13DA8
330
747D
100
AcDbEntity
  8
部品1
 48
5.0
100
AcDbLine
 10
1971.464440327298
 20
5969.770378566646
 30
-0.0000000000000083
 11
1950.464440327298
 21
5969.770378566646
 31
0.0000000000000016
  0
LINE
  5
13DA9
330
747D
100
AcDbEntity
  8
部品1
 48
5.0
100
AcDbLine
 10
2091.464440327523
 20
5969.770378566646
 30
0.000000000000003
 11
2070.464440327524
 21
5969.770378566646
 31
0.000000000000003
  0
LINE
  5
13DAA
330
747D
100
AcDbEntity
  8
部品1
 48
5.0
100
AcDbLine
 10
2231.464440327393
 20
5969.770378566646
 30
0.000000000000003
 11
2210.464440327538
 21
5969.770378566646
 31
0.0000000000000016
  0
LINE
  5
13DAB
330
747D
100
AcDbEntity
  8
部品1
 48
5.0
100
AcDbLine
 10
2491.46444032764
 20
5969.770378566639
 30
0.0000000000000091
 11
2470.46444032764
 21
5969.770378566639
 31
0.0000000000000091
  0
LINE
  5
13DAC
330
747D
100
AcDbEntity
  8
部品1
 48
5.0
100
AcDbLine
 10
2631.464440327538
 20
5969.770378566639
 30
0.0000000000000091
 11
2610.46444032764
 21
5969.770378566639
 31
0.0000000000000091
  0
LINE
  5
13DAD
330
747D
100
AcDbEntity
  8
部品1
 48
5.0
100
AcDbLine
 10
2771.464440327524
 20
5969.770378566632
 30
0.0000000000000091
 11
2750.464440327509
 21
5969.770378566632
 31
0.0000000000000091
  0
LINE
  5
13DAE
330
747D
100
AcDbEntity
  8
部品1
 48
5.0
100
AcDbLine
 10
2891.464440327757
 20
5969.770378566632
 30
0.0000000000000038
 11
2870.464440327756
 21
5969.770378566632
 31
0.0000000000000038
  0
LINE
  5
13DAF
330
747D
100
AcDbEntity
  8
部品1
 48
5.0
100
AcDbLine
 10
3031.46444032764
 20
5969.770378566625
 30
0.0000000000000038
 11
3010.464440327771
 21
5969.770378566625
 31
0.0000000000000038
  0
LINE
  5
13DB0
330
747D
100
AcDbEntity
  8
部品1
 48
5.0
100
AcDbLine
 10
3171.464440327655
 20
5969.770378566632
 30
0.0000000000000038
 11
3150.464440327655
 21
5969.770378566632
 31
0.0000000000000038
  0
LINE
  5
13DB1
330
747D
100
AcDbEntity
  8
部品1
 48
5.0
100
AcDbLine
 10
3291.464440327873
 20
5969.770378566632
 30
0.0000000000000038
 11
3270.464440327873
 21
5969.770378566646
 31
0.0000000000000016
  0
LINE
  5
13DB2
330
747D
100
AcDbEntity
  8
部品1
 48
5.0
100
AcDbLine
 10
3431.464440327756
 20
5969.770378566632
 30
-0.0000000000000006
 11
3410.464440327887
 21
5969.770378566632
 31
0.0000000000000016
  0
LINE
  5
13DB3
330
747D
100
AcDbEntity
  8
部品1
 48
5.0
100
AcDbLine
 10
3571.464440327756
 20
5969.770378566625
 30
-0.0000000000000006
 11
3550.464440327756
 21
5969.770378566625
 31
0.0000000000000016
  0
LINE
  5
13DB4
330
747D
100
AcDbEntity
  8
部品1
 48
5.0
100
AcDbLine
 10
3691.464440327975
 20
5969.770378566617
 30
0.0000000000000016
 11
3670.46444032799
 21
5969.770378566632
 31
0.0000000000000016
  0
LINE
  5
13DB5
330
747D
100
AcDbEntity
  8
部品1
 48
5.0
100
AcDbLine
 10
3805.964440327901
 20
5980.923382059136
 30
-0.0000000000000019
 11
3695.96444032796
 21
5980.923382059136
 31
-0.0000000000000019
  0
LINE
  5
13DB6
330
747D
100
AcDbEntity
  8
部品1
 48
5.0
100
AcDbLine
 10
3665.964440328018
 20
5980.923382059144
 30
-0.0000000000000019
 11
3575.964440327713
 21
5980.923382059136
 31
-0.0000000000000094
  0
LINE
  5
13DB7
330
747D
100
AcDbEntity
  8
部品1
 48
5.0
100
AcDbLine
 10
3545.9644403278
 20
5980.923382059136
 30
-0.0000000000000094
 11
3435.964440327712
 21
5980.923382059144
 31
-0.0000000000000094
  0
LINE
  5
13DB8
330
747D
100
AcDbEntity
  8
部品1
 48
5.0
100
AcDbLine
 10
3405.964440327902
 20
5980.923382059144
 30
-0.0000000000000019
 11
3295.964440327843
 21
5980.923382059136
 31
-0.0000000000000019
  0
LINE
  5
13DB9
330
747D
100
AcDbEntity
  8
部品1
 48
5.0
100
AcDbLine
 10
3265.964440327902
 20
5980.923382059136
 30
0.0000000000000094
 11
3175.964440327611
 21
5980.923382059136
 31
-0.0000000000000072
  0
LINE
  5
13DBA
330
747D
100
AcDbEntity
  8
部品1
 48
5.0
100
AcDbLine
 10
3145.964440327669
 20
5980.923382059136
 30
-0.0000000000000072
 11
3035.964440327596
 21
5980.923382059136
 31
-0.000000000000005
  0
LINE
  5
13DBB
330
747D
100
AcDbEntity
  8
部品1
 48
5.0
100
AcDbLine
 10
3005.964440327785
 20
5980.923382059136
 30
-0.0000000000000019
 11
2896.367065697487
 21
5980.923382059136
 31
0.0
  0
LINE
  5
13DBC
330
747D
100
AcDbEntity
  8
部品1
 48
5.0
100
AcDbLine
 10
2865.9644403278
 20
5980.923382059136
 30
0.0000000000000002
 11
2775.96444032748
 21
5980.923382059136
 31
0.0000000000000002
  0
LINE
  5
13DBD
330
747D
100
AcDbEntity
  8
部品1
 48
5.0
100
AcDbLine
 10
2745.964440327553
 20
5980.923382059136
 30
-0.0000000000000072
 11
2635.96444032748
 21
5980.923382059136
 31
0.0000000000000002
  0
LINE
  5
13DBE
330
747D
100
AcDbEntity
  8
部品1
 48
5.0
100
AcDbLine
 10
2605.964440327669
 20
5980.923382059136
 30
0.0000000000000094
 11
2495.964440327582
 21
5980.923382059136
 31
0.0000000000000055
  0
LINE
  5
13DBF
330
747D
100
AcDbEntity
  8
部品1
 48
5.0
100
AcDbLine
 10
2205.964440327552
 20
5980.923382059151
 30
0.0000000000000094
 11
2095.964440327494
 21
5980.923382059144
 31
-0.0000000000000019
  0
LINE
  5
13DC0
330
747D
100
AcDbEntity
  8
部品1
 48
5.0
100
AcDbLine
 10
2065.964440327582
 20
5980.923382059144
 30
-0.0000000000000006
 11
1975.964440327254
 21
5980.923382059136
 31
-0.0000000000000171
  0
LINE
  5
13DC1
330
747D
100
AcDbEntity
  8
部品1
 48
5.0
100
AcDbLine
 10
1945.964440327327
 20
5980.923382059136
 30
0.0000000000000094
 11
1835.964440327268
 21
5980.923382059135
 31
-0.0000000000000072
  0
LINE
  5
13DC2
330
747D
100
AcDbEntity
  8
部品1
 48
5.0
100
AcDbLine
 10
1805.964440327443
 20
5980.923382059135
 30
0.0000000000000094
 11
1695.964440327356
 21
5980.923382059128
 31
-0.0000000000000119
  0
LINE
  5
13DC3
330
747D
100
AcDbEntity
  8
部品1
 48
5.0
100
AcDbLine
 10
1665.964440327443
 20
5980.923382059128
 30
0.0000000000000094
 11
1575.964440327108
 21
5980.923382059128
 31
-0.0000000000000119
  0
LINE
  5
13DC4
330
747D
100
AcDbEntity
  8
部品1
 48
5.0
100
AcDbLine
 10
1545.96444032721
 20
5980.923382059128
 30
0.0000000000000094
 11
1435.964440327123
 21
5980.923382059136
 31
-0.0000000000000006
  0
LINE
  5
13DC5
330
747D
100
AcDbEntity
  8
部品1
 48
5.0
100
AcDbLine
 10
1435.964440327152
 20
5980.923382059173
 30
0.0000000000000094
 11
1431.464440327166
 21
5970.060328060355
 31
0.0000000000000016
  0
LINE
  5
13DC6
330
747D
100
AcDbEntity
  8
部品1
 48
5.0
100
AcDbLine
 10
1431.464440327166
 20
5969.770378566661
 30
0.0000000000000016
 11
1431.464440327166
 21
5970.060328060355
 31
0.0000000000000016
  0
LINE
  5
13DC7
330
747D
100
AcDbEntity
  8
部品1
 48
5.0
100
AcDbLine
 10
1571.46444032721
 20
5969.770378566661
 30
0.0000000000000063
 11
1571.46444032721
 21
5970.060328060355
 31
0.0000000000000063
  0
LINE
  5
13DC8
330
747D
100
AcDbEntity
  8
部品1
 48
5.0
100
AcDbLine
 10
1550.464440327167
 20
5969.770378566661
 30
0.0000000000000063
 11
1550.464440327167
 21
5970.060328060355
 31
0.0000000000000063
  0
LINE
  5
13DC9
330
747D
100
AcDbEntity
  8
部品1
 48
5.0
100
AcDbLine
 10
1550.464440327167
 20
5970.060328060355
 30
0.0000000000000063
 11
1545.964440327167
 21
5980.923382059173
 31
0.0000000000000141
  0
LINE
  5
13DCA
330
747D
100
AcDbEntity
  8
部品1
 48
5.0
100
AcDbLine
 10
1575.964440327152
 20
5980.923382059173
 30
-0.0000000000000072
 11
1571.46444032721
 21
5970.060328060355
 31
0.0000000000000063
  0
LINE
  5
13DCB
330
747D
100
AcDbEntity
  8
部品1
 48
5.0
100
AcDbLine
 10
1695.964440327385
 20
5980.923382059173
 30
-0.0000000000000019
 11
1691.464440327414
 21
5970.060328060355
 31
0.0000000000000116
  0
LINE
  5
13DCC
330
747D
100
AcDbEntity
  8
部品1
 48
5.0
100
AcDbLine
 10
1670.464440327414
 20
5970.060328060355
 30
0.0000000000000016
 11
1665.964440327414
 21
5980.923382059173
 31
0.0000000000000194
  0
LINE
  5
13DCD
330
747D
100
AcDbEntity
  8
部品1
 48
5.0
100
AcDbLine
 10
1670.464440327414
 20
5969.770378566661
 30
0.0000000000000016
 11
1670.464440327414
 21
5970.060328060355
 31
0.0000000000000016
  0
LINE
  5
13DCE
330
747D
100
AcDbEntity
  8
部品1
 48
5.0
100
AcDbLine
 10
1691.464440327414
 20
5969.770378566661
 30
0.0000000000000116
 11
1691.464440327414
 21
5970.060328060355
 31
0.0000000000000116
  0
LINE
  5
13DCF
330
747D
100
AcDbEntity
  8
部品1
 48
5.0
100
AcDbLine
 10
1831.464440327298
 20
5969.770378566659
 30
0.0000000000000016
 11
1831.464440327298
 21
5970.060328060353
 31
0.0000000000000016
  0
LINE
  5
13DD0
330
747D
100
AcDbEntity
  8
部品1
 48
5.0
100
AcDbLine
 10
1810.464440327414
 20
5969.770378566659
 30
0.0000000000000116
 11
1810.464440327414
 21
5970.060328060353
 31
0.0000000000000116
  0
LINE
  5
13DD1
330
747D
100
AcDbEntity
  8
部品1
 48
5.0
100
AcDbLine
 10
1810.464440327414
 20
5970.060328060353
 30
0.0000000000000116
 11
1805.964440327414
 21
5980.92338205917
 31
0.0000000000000194
  0
LINE
  5
13DD2
330
747D
100
AcDbEntity
  8
部品1
 48
5.0
100
AcDbLine
 10
1835.964440327283
 20
5980.92338205917
 30
0.0000000000000028
 11
1831.464440327298
 21
5970.060328060353
 31
0.0000000000000016
  0
LINE
  5
13DD3
330
747D
100
AcDbEntity
  8
部品1
 48
5.0
100
AcDbLine
 10
1975.964440327269
 20
5980.923382059173
 30
-0.0000000000000072
 11
1971.464440327298
 21
5970.060328060355
 31
0.0000000000000016
  0
LINE
  5
13DD4
330
747D
100
AcDbEntity
  8
部品1
 48
5.0
100
AcDbLine
 10
1950.464440327298
 20
5970.060328060355
 30
0.0000000000000016
 11
1945.964440327298
 21
5980.923382059173
 31
0.0000000000000194
  0
LINE
  5
13DD5
330
747D
100
AcDbEntity
  8
部品1
 48
5.0
100
AcDbLine
 10
1950.464440327298
 20
5969.770378566661
 30
0.0000000000000016
 11
1950.464440327298
 21
5970.060328060355
 31
0.0000000000000016
  0
LINE
  5
13DD6
330
747D
100
AcDbEntity
  8
部品1
 48
5.0
100
AcDbLine
 10
1971.464440327298
 20
5969.770378566661
 30
0.0000000000000016
 11
1971.464440327298
 21
5970.060328060355
 31
0.0000000000000016
  0
LINE
  5
13DD7
330
747D
100
AcDbEntity
  8
部品1
 48
5.0
100
AcDbLine
 10
2091.464440327523
 20
5969.770378566654
 30
0.0000000000000016
 11
2091.464440327523
 21
5970.060328060347
 31
0.0000000000000016
  0
LINE
  5
13DD8
330
747D
100
AcDbEntity
  8
部品1
 48
5.0
100
AcDbLine
 10
2070.464440327524
 20
5969.770378566654
 30
0.0000000000000016
 11
2070.464440327524
 21
5970.060328060347
 31
0.0000000000000016
  0
LINE
  5
13DD9
330
747D
100
AcDbEntity
  8
部品1
 48
5.0
100
AcDbLine
 10
2070.464440327524
 20
5970.060328060347
 30
0.0000000000000016
 11
2065.964440327553
 21
5980.923382059166
 31
-0.0000000000000019
  0
LINE
  5
13DDA
330
747D
100
AcDbEntity
  8
部品1
 48
5.0
100
AcDbLine
 10
2095.964440327494
 20
5980.923382059166
 30
-0.0000000000000033
 11
2091.464440327523
 21
5970.060328060347
 31
0.0000000000000016
  0
LINE
  5
13DDB
330
747D
100
AcDbEntity
  8
部品1
 48
5.0
100
AcDbLine
 10
2210.464440327523
 20
5970.060328060347
 30
0.0000000000000016
 11
2205.964440327523
 21
5980.923382059166
 31
0.000000000000008
  0
LINE
  5
13DDC
330
747D
100
AcDbEntity
  8
部品1
 48
5.0
100
AcDbLine
 10
2210.464440327523
 20
5969.770378566654
 30
0.0000000000000016
 11
2210.464440327523
 21
5970.060328060347
 31
0.0000000000000016
  0
LINE
  5
13DDD
330
747D
100
AcDbEntity
  8
部品1
 48
5.0
100
AcDbLine
 10
2495.964440327611
 20
5980.923382059158
 30
-0.0000000000000019
 11
2491.46444032764
 21
5970.06032806034
 31
0.0000000000000016
  0
LINE
  5
13DDE
330
747D
100
AcDbEntity
  8
部品1
 48
5.0
100
AcDbLine
 10
2470.46444032764
 20
5970.06032806034
 30
0.0000000000000016
 11
2465.964440327655
 21
5980.923382059158
 31
-0.0000000000000093
  0
LINE
  5
13DDF
330
747D
100
AcDbEntity
  8
部品1
 48
5.0
100
AcDbLine
 10
2470.46444032764
 20
5969.770378566646
 30
0.0000000000000016
 11
2470.46444032764
 21
5970.06032806034
 31
0.0000000000000016
  0
LINE
  5
13DE0
330
747D
100
AcDbEntity
  8
部品1
 48
5.0
100
AcDbLine
 10
2491.46444032764
 20
5969.770378566646
 30
0.0000000000000016
 11
2491.46444032764
 21
5970.06032806034
 31
0.0000000000000016
  0
LINE
  5
13DE1
330
747D
100
AcDbEntity
  8
部品1
 48
5.0
100
AcDbLine
 10
2631.464440327524
 20
5969.770378566646
 30
0.0000000000000016
 11
2631.464440327524
 21
5970.06032806034
 31
0.0000000000000016
  0
LINE
  5
13DE2
330
747D
100
AcDbEntity
  8
部品1
 48
5.0
100
AcDbLine
 10
2610.46444032764
 20
5969.770378566646
 30
0.0000000000000016
 11
2610.46444032764
 21
5970.06032806034
 31
0.0000000000000016
  0
LINE
  5
13DE3
330
747D
100
AcDbEntity
  8
部品1
 48
5.0
100
AcDbLine
 10
2610.46444032764
 20
5970.06032806034
 30
0.0000000000000016
 11
2605.964440327654
 21
5980.923382059158
 31
0.000000000000002
  0
LINE
  5
13DE4
330
747D
100
AcDbEntity
  8
部品1
 48
5.0
100
AcDbLine
 10
2635.964440327494
 20
5980.923382059158
 30
-0.0000000000000072
 11
2631.464440327524
 21
5970.06032806034
 31
0.0000000000000016
  0
LINE
  5
13DE5
330
747D
100
AcDbEntity
  8
部品1
 48
5.0
100
AcDbLine
 10
2775.964440327495
 20
5980.923382059158
 30
-0.0000000000000072
 11
2771.464440327524
 21
5970.06032806034
 31
0.0000000000000016
  0
LINE
  5
13DE6
330
747D
100
AcDbEntity
  8
部品1
 48
5.0
100
AcDbLine
 10
2750.464440327523
 20
5970.06032806034
 30
0.0000000000000016
 11
2745.964440327538
 21
5980.923382059158
 31
-0.0000000000000146
  0
LINE
  5
13DE7
330
747D
100
AcDbEntity
  8
部品1
 48
5.0
100
AcDbLine
 10
2750.464440327523
 20
5969.770378566646
 30
0.0000000000000016
 11
2750.464440327523
 21
5970.06032806034
 31
0.0000000000000016
  0
LINE
  5
13DE8
330
747D
100
AcDbEntity
  8
部品1
 48
5.0
100
AcDbLine
 10
2771.464440327524
 20
5969.770378566646
 30
0.0000000000000016
 11
2771.464440327524
 21
5970.06032806034
 31
0.0000000000000016
  0
LINE
  5
13DE9
330
747D
100
AcDbEntity
  8
部品1
 48
5.0
100
AcDbLine
 10
2891.464440327757
 20
5969.770378566646
 30
0.0000000000000016
 11
2891.464440327757
 21
5970.06032806034
 31
0.0000000000000016
  0
LINE
  5
13DEA
330
747D
100
AcDbEntity
  8
部品1
 48
5.0
100
AcDbLine
 10
2870.464440327756
 20
5970.06032806034
 30
0.0000000000000016
 11
2865.964440327785
 21
5980.923382059158
 31
-0.0000000000000019
  0
LINE
  5
13DEB
330
747D
100
AcDbEntity
  8
部品1
 48
5.0
100
AcDbLine
 10
2896.367065697501
 20
5980.923382059158
 30
-0.0000000000000022
 11
2891.464440327757
 21
5970.06032806034
 31
0.0000000000000016
  0
LINE
  5
13DEC
330
747D
100
AcDbEntity
  8
部品1
 48
5.0
100
AcDbLine
 10
3035.964440327611
 20
5980.923382059158
 30
-0.0000000000000072
 11
3031.46444032764
 21
5970.06032806034
 31
0.0000000000000016
  0
LINE
  5
13DED
330
747D
100
AcDbEntity
  8
部品1
 48
5.0
100
AcDbLine
 10
3010.464440327756
 20
5970.06032806034
 30
0.0000000000000016
 11
3005.964440327785
 21
5980.923382059158
 31
-0.0000000000000041
  0
LINE
  5
13DEE
330
747D
100
AcDbEntity
  8
部品1
 48
5.0
100
AcDbLine
 10
3010.464440327756
 20
5969.770378566646
 30
0.0000000000000016
 11
3010.464440327756
 21
5970.06032806034
 31
0.0000000000000016
  0
LINE
  5
13DEF
330
747D
100
AcDbEntity
  8
部品1
 48
5.0
100
AcDbLine
 10
3031.46444032764
 20
5969.770378566646
 30
0.0000000000000016
 11
3031.46444032764
 21
5970.06032806034
 31
0.0000000000000016
  0
LINE
  5
13DF0
330
747D
100
AcDbEntity
  8
部品1
 48
5.0
100
AcDbLine
 10
3171.46444032764
 20
5969.770378566646
 30
0.0000000000000016
 11
3171.46444032764
 21
5970.06032806034
 31
0.0000000000000016
  0
LINE
  5
13DF1
330
747D
100
AcDbEntity
  8
部品1
 48
5.0
100
AcDbLine
 10
3150.46444032764
 20
5969.770378566646
 30
0.0000000000000016
 11
3150.46444032764
 21
5970.06032806034
 31
0.0000000000000016
  0
LINE
  5
13DF2
330
747D
100
AcDbEntity
  8
部品1
 48
5.0
100
AcDbLine
 10
3150.46444032764
 20
5970.06032806034
 30
0.0000000000000016
 11
3145.964440327669
 21
5980.923382059158
 31
-0.0000000000000093
  0
LINE
  5
13DF3
330
747D
100
AcDbEntity
  8
部品1
 48
5.0
100
AcDbLine
 10
3175.964440327625
 20
5980.923382059158
 30
-0.0000000000000093
 11
3171.46444032764
 21
5970.06032806034
 31
0.0000000000000016
  0
LINE
  5
13DF4
330
747D
100
AcDbEntity
  8
部品1
 48
5.0
100
AcDbLine
 10
3295.964440327858
 20
5980.923382059158
 30
-0.0000000000000041
 11
3291.464440327873
 21
5970.06032806034
 31
0.0000000000000016
  0
LINE
  5
13DF5
330
747D
100
AcDbEntity
  8
部品1
 48
5.0
100
AcDbLine
 10
3270.464440327873
 20
5970.06032806034
 30
0.0000000000000016
 11
3265.964440327873
 21
5980.923382059158
 31
0.0000000000000072
  0
LINE
  5
13DF6
330
747D
100
AcDbEntity
  8
部品1
 48
5.0
100
AcDbLine
 10
3270.464440327873
 20
5969.770378566646
 30
0.0000000000000016
 11
3270.464440327873
 21
5970.06032806034
 31
0.0000000000000016
  0
LINE
  5
13DF7
330
747D
100
AcDbEntity
  8
部品1
 48
5.0
100
AcDbLine
 10
3291.464440327873
 20
5969.770378566646
 30
0.0000000000000016
 11
3291.464440327873
 21
5970.06032806034
 31
0.0000000000000016
  0
LINE
  5
13DF8
330
747D
100
AcDbEntity
  8
部品1
 48
5.0
100
AcDbLine
 10
3431.464440327756
 20
5969.770378566639
 30
0.0000000000000016
 11
3431.464440327756
 21
5970.060328060333
 31
0.0000000000000016
  0
LINE
  5
13DF9
330
747D
100
AcDbEntity
  8
部品1
 48
5.0
100
AcDbLine
 10
3410.464440327887
 20
5969.770378566639
 30
0.0000000000000038
 11
3410.464440327887
 21
5970.060328060333
 31
0.0000000000000038
  0
LINE
  5
13DFA
330
747D
100
AcDbEntity
  8
部品1
 48
5.0
100
AcDbLine
 10
3410.464440327887
 20
5970.060328060333
 30
0.0000000000000038
 11
3405.964440327887
 21
5980.923382059151
 31
0.0000000000000003
  0
LINE
  5
13DFB
330
747D
100
AcDbEntity
  8
部品1
 48
5.0
100
AcDbLine
 10
3435.964440327727
 20
5980.923382059151
 30
-0.0000000000000072
 11
3431.464440327756
 21
5970.060328060333
 31
0.0000000000000016
  0
LINE
  5
13DFC
330
747D
100
AcDbEntity
  8
部品1
 48
5.0
100
AcDbLine
 10
3575.964440327727
 20
5980.923382059144
 30
-0.0000000000000072
 11
3571.464440327756
 21
5970.060328060325
 31
0.0000000000000016
  0
LINE
  5
13DFD
330
747D
100
AcDbEntity
  8
部品1
 48
5.0
100
AcDbLine
 10
3550.464440327756
 20
5970.060328060325
 30
0.0000000000000038
 11
3545.964440327786
 21
5980.923382059144
 31
-0.0000000000000072
  0
LINE
  5
13DFE
330
747D
100
AcDbEntity
  8
部品1
 48
5.0
100
AcDbLine
 10
3550.464440327756
 20
5969.770378566632
 30
0.0000000000000038
 11
3550.464440327756
 21
5970.060328060325
 31
0.0000000000000038
  0
LINE
  5
13DFF
330
747D
100
AcDbEntity
  8
部品1
 48
5.0
100
AcDbLine
 10
3571.464440327756
 20
5969.770378566632
 30
0.0000000000000016
 11
3571.464440327756
 21
5970.060328060325
 31
0.0000000000000016
  0
LINE
  5
13E00
330
747D
100
AcDbEntity
  8
部品1
 48
5.0
100
AcDbLine
 10
3691.464440327975
 20
5969.770378566632
 30
0.0000000000000017
 11
3691.464440327975
 21
5970.060328060325
 31
0.0000000000000017
  0
LINE
  5
13E01
330
747D
100
AcDbEntity
  8
部品1
 48
5.0
100
AcDbLine
 10
3670.46444032799
 20
5969.770378566632
 30
0.0000000000000016
 11
3670.46444032799
 21
5970.060328060325
 31
0.0000000000000016
  0
LINE
  5
13E02
330
747D
100
AcDbEntity
  8
部品1
 48
5.0
100
AcDbLine
 10
3670.46444032799
 20
5970.060328060325
 30
0.0000000000000016
 11
3665.964440328032
 21
5980.923382059144
 31
-0.0000000000000019
  0
LINE
  5
13E03
330
747D
100
AcDbEntity
  8
部品1
 48
5.0
100
AcDbLine
 10
3695.96444032796
 20
5980.923382059144
 30
-0.0000000000000019
 11
3691.464440327975
 21
5970.060328060325
 31
0.0000000000000017
  0
LINE
  5
13E04
330
747D
100
AcDbEntity
  8
部品1
 48
5.0
100
AcDbLine
 10
3810.464440327873
 20
5970.060328060318
 30
0.0000000000000016
 11
3805.964440327901
 21
5980.923382059136
 31
0.0000000000000003
  0
ARC
  5
13E05
330
747D
100
AcDbEntity
  8
部品1
 48
5.0
100
AcDbCircle
 10
1413.464440327429
 20
5966.770378566639
 30
-0.0000000000000674
 40
3.0
100
AcDbArc
 50
90.0
 51
180.0
  0
LINE
  5
13E06
330
747D
100
AcDbEntity
  8
部品1
 48
5.0
100
AcDbLine
 10
2491.464440327654
 20
5969.770378566632
 30
0.0000000000000016
 11
2470.46444032764
 21
5969.770378566632
 31
0.000000000000003
  0
LINE
  5
13E07
330
747D
100
AcDbEntity
  8
部品1
 48
5.0
100
AcDbLine
 10
2465.96444032756
 20
5980.923382059143
 30
-0.0000000000000051
 11
2375.964440327363
 21
5980.923382059144
 31
-0.0000000000000058
  0
LINE
  5
13E08
330
747D
100
AcDbEntity
  8
部品1
 48
5.0
100
AcDbLine
 10
2605.964440327552
 20
5980.923382059151
 30
0.0000000000000094
 11
2495.964440327494
 21
5980.923382059144
 31
-0.0000000000000019
  0
LINE
  5
13E09
330
747D
100
AcDbEntity
  8
部品1
 48
5.0
100
AcDbLine
 10
2491.464440327523
 20
5969.770378566654
 30
0.0000000000000016
 11
2491.464440327523
 21
5970.060328060347
 31
0.0000000000000016
  0
LINE
  5
13E0A
330
747D
100
AcDbEntity
  8
部品1
 48
5.0
100
AcDbLine
 10
2495.964440327494
 20
5980.923382059166
 30
-0.0000000000000033
 11
2491.464440327523
 21
5970.060328060347
 31
0.0000000000000016
  0
LINE
  5
13E0B
330
747D
100
AcDbEntity
  8
部品1
 48
5.0
100
AcDbLine
 10
2465.964440327582
 20
5980.923382059144
 30
-0.0000000000000006
 11
2375.964440327247
 21
5980.923382059136
 31
-0.0000000000000171
  0
LINE
  5
13E0C
330
747D
100
AcDbEntity
  8
部品1
 48
5.0
100
AcDbLine
 10
2470.464440327523
 20
5969.770378566654
 30
0.0000000000000016
 11
2470.464440327523
 21
5970.060328060347
 31
0.0000000000000016
  0
LINE
  5
13E0D
330
747D
100
AcDbEntity
  8
部品1
 48
5.0
100
AcDbLine
 10
2470.464440327523
 20
5970.060328060347
 30
0.0000000000000016
 11
2465.964440327553
 21
5980.923382059166
 31
-0.0000000000000019
  0
LINE
  5
13E0E
330
747D
100
AcDbEntity
  8
部品1
 48
5.0
100
AcDbLine
 10
2375.964440327261
 20
5980.923382059173
 30
-0.0000000000000072
 11
2371.464440327291
 21
5970.060328060355
 31
0.0000000000000016
  0
LINE
  5
13E0F
330
747D
100
AcDbEntity
  8
部品1
 48
5.0
100
AcDbLine
 10
2371.464440327291
 20
5969.770378566661
 30
0.0000000000000016
 11
2371.464440327291
 21
5970.060328060355
 31
0.0000000000000016
  0
LINE
  5
13E10
330
747D
100
AcDbEntity
  8
部品1
 48
5.0
100
AcDbLine
 10
2350.464440327291
 20
5970.060328060355
 30
0.0000000000000016
 11
2345.964440327291
 21
5980.923382059173
 31
0.0000000000000194
  0
LINE
  5
13E11
330
747D
100
AcDbEntity
  8
部品1
 48
5.0
100
AcDbLine
 10
2350.464440327291
 20
5969.770378566661
 30
0.0000000000000016
 11
2350.464440327291
 21
5970.060328060355
 31
0.0000000000000016
  0
LINE
  5
13E12
330
747D
100
AcDbEntity
  8
部品1
 48
5.0
100
AcDbLine
 10
2375.964440327378
 20
5980.923382059166
 30
-0.0000000000000072
 11
2371.464440327422
 21
5970.060328060347
 31
0.0000000000000003
  0
LINE
  5
13E13
330
747D
100
AcDbEntity
  8
部品1
 48
5.0
100
AcDbLine
 10
2350.464440327407
 20
5970.060328060347
 30
0.0000000000000016
 11
2345.964440327422
 21
5980.923382059166
 31
-0.0000000000000086
  0
LINE
  5
13E14
330
747D
100
AcDbEntity
  8
部品1
 48
5.0
100
AcDbLine
 10
2350.464440327407
 20
5969.770378566654
 30
0.0000000000000016
 11
2350.464440327407
 21
5970.060328060347
 31
0.0000000000000016
  0
LINE
  5
13E15
330
747D
100
AcDbEntity
  8
部品1
 48
5.0
100
AcDbLine
 10
2371.464440327422
 20
5969.770378566654
 30
0.0000000000000003
 11
2371.464440327422
 21
5970.060328060347
 31
0.0000000000000003
  0
LINE
  5
13E16
330
747D
100
AcDbEntity
  8
部品1
 48
5.0
100
AcDbLine
 10
2345.964440327436
 20
5980.923382059151
 30
-0.0000000000000072
 11
2235.964440327378
 21
5980.923382059151
 31
-0.0000000000000072
  0
LINE
  5
13E17
330
747D
100
AcDbEntity
  8
部品1
 48
5.0
100
AcDbLine
 10
2605.964440327531
 20
5980.92338205914
 30
-0.000000000000004
 11
2495.964440327487
 21
5980.923382059142
 31
-0.0000000000000049
  0
LINE
  5
13E18
330
747D
100
AcDbEntity
  8
部品1
 48
5.0
100
AcDbLine
 10
2371.464440327422
 20
5969.770378566639
 30
0.0000000000000016
 11
2350.464440327407
 21
5969.770378566639
 31
0.000000000000003
  0
LINE
  5
13E19
330
747D
100
AcDbEntity
  8
部品1
 48
5.0
100
AcDbLine
 10
2235.964440327473
 20
5980.923382059163
 30
-0.0000000000000022
 11
2231.464440327501
 21
5970.060328060345
 31
0.0000000000000028
  0
LINE
  5
13E1A
330
747D
100
AcDbEntity
  8
部品1
 48
5.0
100
AcDbLine
 10
2231.464440327305
 20
5969.77037856667
 30
0.0000000000000005
 11
2231.464440327305
 21
5970.060328060363
 31
0.0000000000000005
  0
LINE
  5
13E1B
330
747D
100
AcDbEntity
  8
細線
 48
50.0
100
AcDbLine
 10
1431.464440327166
 20
5969.770378566366
 30
0.0000000000000028
 11
6610.464440328098
 21
5969.770378566659
 31
0.0000000000000062
  0
LINE
  5
13E1C
330
747D
100
AcDbEntity
  8
部品1
 48
10.0
100
AcDbLine
 10
4231.464440328346
 20
5970.060328060862
 30
0.0000000000000037
 11
4231.464440328346
 21
5903.716718365298
 31
0.0
  0
LINE
  5
13E1D
330
747D
100
AcDbEntity
  8
部品1
 48
50.0
100
AcDbLine
 10
1431.964440327996
 20
7923.716718365297
 30
0.0
 11
1431.964440327996
 21
5971.26733406225
 31
0.0
  0
LINE
  5
13E1E
330
747D
100
AcDbEntity
  8
部品1
 48
50.0
100
AcDbLine
 10
6609.964440327967
 20
5971.267334060517
 30
0.0
 11
6609.964440327967
 21
7923.716718365297
 31
0.0
  0
ARC
  5
13E1F
330
747D
100
AcDbEntity
  8
部品1
100
AcDbCircle
 10
1509.247192139985
 20
5953.228101098691
 30
-0.0000000000002893
 40
119.0
100
AcDbArc
 50
186.293862575109
 51
204.197106761625
  0
LINE
  5
13E20
330
747D
100
AcDbEntity
  8
部品1
 48
5.0
100
AcDbLine
 10
1410.464440328185
 20
5903.716718365298
 30
0.0000000000000042
 11
1410.464440328185
 21
5966.770445907767
 31
0.0000000000000042
  0
LINE
  5
13E21
330
747D
100
AcDbEntity
  8
部品1
100
AcDbLine
 10
1409.964440327967
 20
5903.716718365015
 30
-0.0000000000002893
 11
1401.597123599116
 21
5903.862770421794
 31
-0.0000000000002893
  0
ARC
  5
13E22
330
747D
100
AcDbEntity
  8
部品1
100
AcDbCircle
 10
1401.614576005551
 20
5904.862618116952
 30
-0.0000000000002893
 40
1.0
100
AcDbArc
 50
204.197106761625
 51
269.0000000001285
  0
LINE
  5
13E23
330
747D
100
AcDbEntity
  8
部品1
100
AcDbLine
 10
1410.464440328185
 20
5965.71671836503
 30
-0.0000000000002893
 11
1390.964440327981
 21
5965.716718365015
 31
-0.0000000000002893
  0
LINE
  5
13E24
330
747D
100
AcDbEntity
  8
部品1
100
AcDbLine
 10
6631.464440327764
 20
5965.71671836503
 30
0.0
 11
6650.964440327967
 21
5965.716718365015
 31
0.0
  0
ARC
  5
13E25
330
747D
100
AcDbEntity
  8
部品1
100
AcDbCircle
 10
6640.314304650397
 20
5904.862618116952
 30
0.0
 40
1.0
100
AcDbArc
 50
270.9999999998715
 51
335.802893238375
  0
LINE
  5
13E26
330
747D
100
AcDbEntity
  8
部品1
100
AcDbLine
 10
6631.964440327982
 20
5903.716718365015
 30
0.0
 11
6640.331757056832
 21
5903.862770421794
 31
0.0
  0
ARC
  5
13E27
330
747D
100
AcDbEntity
  8
部品1
100
AcDbCircle
 10
6532.681688515964
 20
5953.228101098691
 30
0.0
 40
119.0
100
AcDbArc
 50
335.802893238375
 51
353.7061374248909
  0
LINE
  5
13E28
330
747D
100
AcDbEntity
  8
部品1
 48
5.0
100
AcDbLine
 10
6631.464440327764
 20
5903.716718365298
 30
0.0000000000002935
 11
6631.464440327764
 21
5966.770445907767
 31
0.0000000000002935
  0
LINE
  5
13E29
330
747D
100
AcDbEntity
  8
部品1
 48
4.0
100
AcDbLine
 10
1431.964440327996
 20
6131.716718364732
 30
-0.000000000000296
 11
4218.788316816492
 21
6131.716718364732
 31
-0.000000000000296
  0
LINE
  5
13E2A
330
747D
100
AcDbEntity
  8
部品1
 48
4.0
100
AcDbLine
 10
4205.1229080025
 20
6182.716718364731
 30
-0.000000000000296
 11
1431.964440327996
 21
6182.716718364733
 31
-0.000000000000296
  0
LINE
  5
13E2B
330
747D
100
AcDbEntity
  8
部品1
 48
4.0
100
AcDbLine
 10
4210.749841043558
 20
6161.716718364733
 30
-0.000000000000296
 11
1431.964440327996
 21
6161.716718364732
 31
-0.000000000000296
  0
LINE
  5
13E2C
330
747D
100
AcDbEntity
  8
部品1
 48
4.0
100
AcDbLine
 10
1431.964440327996
 20
6814.716718364734
 30
-0.000000000000296
 11
4035.779018386034
 21
6814.716718364732
 31
-0.000000000000296
  0
LINE
  5
13E2D
330
747D
100
AcDbEntity
  8
部品1
 48
4.0
100
AcDbLine
 10
4027.740542613101
 20
6844.716718364735
 30
-0.000000000000296
 11
1431.964440327996
 21
6844.716718364735
 31
-0.000000000000296
  0
LINE
  5
13E2E
330
747D
100
AcDbEntity
  8
部品1
 48
4.0
100
AcDbLine
 10
4040.400812017949
 20
6865.716718364734
 30
-0.000000000000296
 11
1431.964440327996
 21
6865.716718364734
 31
-0.000000000000296
  0
LINE
  5
13E2F
330
747D
100
AcDbEntity
  8
部品1
 48
4.0
100
AcDbLine
 10
3839.104311141593
 20
7548.716718364736
 30
-0.000000000000296
 11
1431.964440327996
 21
7548.716718364736
 31
-0.000000000000296
  0
LINE
  5
13E30
330
747D
100
AcDbEntity
  8
点線
 48
10.0
100
AcDbLine
 10
1392.464440328083
 20
7497.716718364734
 30
-0.000000000000296
 11
1392.464440328083
 21
7548.716718364734
 31
-0.000000000000296
  0
LINE
  5
13E31
330
747D
100
AcDbEntity
  8
部品1
 48
4.0
100
AcDbLine
 10
3844.731244182643
 20
7527.716718364735
 30
-0.000000000000296
 11
1431.964440327996
 21
7527.716718364732
 31
-0.000000000000296
  0
LINE
  5
13E32
330
747D
100
AcDbEntity
  8
部品1
 48
4.0
100
AcDbLine
 10
1431.964440327996
 20
7497.716718364734
 30
-0.000000000000296
 11
3852.769719955577
 21
7497.716718364732
 31
-0.000000000000296
  0
LINE
  5
13E33
330
747D
100
AcDbEntity
  8
点線
 48
50.0
100
AcDbLine
 10
4249.464440328025
 20
6182.716718364733
 30
-0.000000000000296
 11
4249.464440328025
 21
6131.716718364732
 31
-0.000000000000296
  0
LINE
  5
13E34
330
747D
100
AcDbEntity
  8
点線
 48
50.0
100
AcDbLine
 10
4249.464440328025
 20
6865.716718364734
 30
-0.000000000000296
 11
4249.464440328032
 21
6814.716718364734
 31
-0.000000000000296
  0
LINE
  5
13E35
330
747D
100
AcDbEntity
  8
点線
 48
50.0
100
AcDbLine
 10
4249.464440328032
 20
7548.716718364734
 30
-0.000000000000296
 11
4249.464440328032
 21
7497.716718364734
 31
-0.000000000000296
  0
LINE
  5
13E36
330
747D
100
AcDbEntity
  8
部品1
100
AcDbLine
 10
4213.266421291918
 20
7896.185095933756
 30
0.0
 11
4228.662459364044
 21
7896.185095933756
 31
0.0
  0
ARC
  5
13E37
330
747D
100
AcDbEntity
  8
部品1
100
AcDbCircle
 10
4213.266421291918
 20
7893.185095933754
 30
0.0
 40
3.0
100
AcDbArc
 50
90.0
 51
164.9999999998041
  0
LINE
  5
13E38
330
747D
100
AcDbEntity
  8
部品1
100
AcDbLine
 10
4210.368643813054
 20
7893.961553069075
 30
0.0
 11
4207.575674133506
 21
7883.538048320999
 31
0.0
  0
ARC
  5
13E39
330
747D
100
AcDbEntity
  8
部品1
100
AcDbCircle
 10
4205.160859567782
 20
7884.185095933753
 30
0.0
 40
2.5
100
AcDbArc
 50
270.0
 51
344.9999999998042
  0
ARC
  5
13E3A
330
747D
100
AcDbEntity
  8
部品1
100
AcDbCircle
 10
4228.662459364044
 20
7893.185095933754
 30
0.0
 40
3.0
100
AcDbArc
 50
15.00000000019582
 51
90.0
  0
LINE
  5
13E3B
330
747D
100
AcDbEntity
  8
部品1
100
AcDbLine
 10
4231.560236842909
 20
7893.961553069075
 30
0.0
 11
4234.353206522457
 21
7883.538048320999
 31
0.0
  0
ARC
  5
13E3C
330
747D
100
AcDbEntity
  8
部品1
100
AcDbCircle
 10
4236.76802108818
 20
7884.185095933753
 30
0.0
 40
2.5
100
AcDbArc
 50
195.0000000001958
 51
270.0
  0
LINE
  5
13E3D
330
747D
100
AcDbEntity
  8
部品1
100
AcDbLine
 10
4345.160859567783
 20
7881.685095933772
 30
0.0
 11
4236.76802108818
 21
7881.685095933757
 31
0.0
  0
ARC
  5
13E3E
330
747D
100
AcDbEntity
  8
部品1
100
AcDbCircle
 10
4345.160859567783
 20
7884.185095933753
 30
0.0
 40
2.5
100
AcDbArc
 50
270.0
 51
344.9999999998042
  0
LINE
  5
13E3F
330
747D
100
AcDbEntity
  8
部品1
100
AcDbLine
 10
4350.368643813053
 20
7893.961553069075
 30
0.0
 11
4347.575674133506
 21
7883.538048320999
 31
0.0
  0
ARC
  5
13E40
330
747D
100
AcDbEntity
  8
部品1
100
AcDbCircle
 10
4353.266421291919
 20
7893.185095933754
 30
0.0
 40
3.0
100
AcDbArc
 50
90.0
 51
164.9999999998041
  0
LINE
  5
13E41
330
747D
100
AcDbEntity
  8
部品1
100
AcDbLine
 10
4353.266421291919
 20
7896.185095933756
 30
0.0
 11
4368.662459364045
 21
7896.185095933756
 31
0.0
  0
ARC
  5
13E42
330
747D
100
AcDbEntity
  8
部品1
100
AcDbCircle
 10
4368.662459364045
 20
7893.185095933754
 30
0.0
 40
3.0
100
AcDbArc
 50
15.00000000019582
 51
90.0
  0
LINE
  5
13E43
330
747D
100
AcDbEntity
  8
部品1
100
AcDbLine
 10
4371.56023684291
 20
7893.961553069075
 30
0.0
 11
4374.353206522457
 21
7883.538048320999
 31
0.0
  0
ARC
  5
13E44
330
747D
100
AcDbEntity
  8
部品1
100
AcDbCircle
 10
4376.768021088181
 20
7884.185095933753
 30
0.0
 40
2.5
100
AcDbArc
 50
195.0000000001958
 51
270.0
  0
LINE
  5
13E45
330
747D
100
AcDbEntity
  8
部品1
100
AcDbLine
 10
4465.160859567783
 20
7881.685095933743
 30
0.0
 11
4376.768021088181
 21
7881.685095933757
 31
0.0
  0
ARC
  5
13E46
330
747D
100
AcDbEntity
  8
部品1
100
AcDbCircle
 10
4465.160859567783
 20
7884.185095933753
 30
0.0
 40
2.5
100
AcDbArc
 50
270.0
 51
344.9999999998042
  0
LINE
  5
13E47
330
747D
100
AcDbEntity
  8
部品1
100
AcDbLine
 10
4470.368643813054
 20
7893.961553069075
 30
0.0
 11
4467.575674133506
 21
7883.538048320999
 31
0.0
  0
ARC
  5
13E48
330
747D
100
AcDbEntity
  8
部品1
100
AcDbCircle
 10
4473.266421291919
 20
7893.185095933754
 30
0.0
 40
3.0
100
AcDbArc
 50
90.0
 51
164.9999999998041
  0
LINE
  5
13E49
330
747D
100
AcDbEntity
  8
部品1
100
AcDbLine
 10
4473.266421291919
 20
7896.185095933756
 30
0.0
 11
4488.662459364045
 21
7896.185095933756
 31
0.0
  0
ARC
  5
13E4A
330
747D
100
AcDbEntity
  8
部品1
100
AcDbCircle
 10
4488.662459364045
 20
7893.185095933754
 30
0.0
 40
3.0
100
AcDbArc
 50
15.00000000019582
 51
90.0
  0
LINE
  5
13E4B
330
747D
100
AcDbEntity
  8
部品1
100
AcDbLine
 10
4491.56023684291
 20
7893.961553069075
 30
0.0
 11
4494.353206522457
 21
7883.538048320999
 31
0.0
  0
ARC
  5
13E4C
330
747D
100
AcDbEntity
  8
部品1
100
AcDbCircle
 10
4496.768021088181
 20
7884.185095933753
 30
0.0
 40
2.5
100
AcDbArc
 50
195.0000000001958
 51
270.0
  0
LINE
  5
13E4D
330
747D
100
AcDbEntity
  8
部品1
100
AcDbLine
 10
4605.160859567782
 20
7881.685095933757
 30
0.0
 11
4496.768021088181
 21
7881.685095933772
 31
0.0
  0
LINE
  5
13E4E
330
747D
100
AcDbEntity
  8
部品1
100
AcDbLine
 10
4205.160859567782
 20
7881.685095933757
 30
0.0
 11
4096.76802108818
 21
7881.685095933772
 31
0.0
  0
ARC
  5
13E4F
330
747D
100
AcDbEntity
  8
部品1
100
AcDbCircle
 10
4096.76802108818
 20
7884.185095933753
 30
0.0
 40
2.5
100
AcDbArc
 50
195.0000000001958
 51
270.0
  0
LINE
  5
13E50
330
747D
100
AcDbEntity
  8
部品1
100
AcDbLine
 10
4091.56023684291
 20
7893.961553069075
 30
0.0
 11
4094.353206522457
 21
7883.538048320999
 31
0.0
  0
ARC
  5
13E51
330
747D
100
AcDbEntity
  8
部品1
100
AcDbCircle
 10
4088.662459364044
 20
7893.185095933754
 30
0.0
 40
3.0
100
AcDbArc
 50
15.00000000019582
 51
90.0
  0
LINE
  5
13E52
330
747D
100
AcDbEntity
  8
部品1
100
AcDbLine
 10
4073.266421291918
 20
7896.185095933756
 30
0.0
 11
4088.662459364044
 21
7896.185095933756
 31
0.0
  0
ARC
  5
13E53
330
747D
100
AcDbEntity
  8
部品1
100
AcDbCircle
 10
4073.266421291918
 20
7893.185095933754
 30
0.0
 40
3.0
100
AcDbArc
 50
90.0
 51
164.9999999998041
  0
LINE
  5
13E54
330
747D
100
AcDbEntity
  8
部品1
100
AcDbLine
 10
4070.368643813053
 20
7893.961553069075
 30
0.0
 11
4067.575674133506
 21
7883.538048320999
 31
0.0
  0
ARC
  5
13E55
330
747D
100
AcDbEntity
  8
部品1
100
AcDbCircle
 10
4065.160859567782
 20
7884.185095933753
 30
0.0
 40
2.5
100
AcDbArc
 50
270.0
 51
344.9999999998042
  0
LINE
  5
13E56
330
747D
100
AcDbEntity
  8
部品1
100
AcDbLine
 10
4065.160859567782
 20
7881.685095933743
 30
0.0
 11
3976.768021088181
 21
7881.685095933757
 31
0.0
  0
ARC
  5
13E57
330
747D
100
AcDbEntity
  8
部品1
100
AcDbCircle
 10
3976.768021088181
 20
7884.185095933753
 30
0.0
 40
2.5
100
AcDbArc
 50
195.0000000001958
 51
270.0
  0
LINE
  5
13E58
330
747D
100
AcDbEntity
  8
部品1
100
AcDbLine
 10
3971.56023684291
 20
7893.961553069075
 30
0.0
 11
3974.353206522457
 21
7883.538048320999
 31
0.0
  0
ARC
  5
13E59
330
747D
100
AcDbEntity
  8
部品1
100
AcDbCircle
 10
3968.662459364045
 20
7893.185095933754
 30
0.0
 40
3.0
100
AcDbArc
 50
15.00000000019582
 51
90.0
  0
LINE
  5
13E5A
330
747D
100
AcDbEntity
  8
部品1
100
AcDbLine
 10
3953.26642129192
 20
7896.185095933756
 30
0.0
 11
3968.662459364045
 21
7896.185095933756
 31
0.0
  0
ARC
  5
13E5B
330
747D
100
AcDbEntity
  8
部品1
100
AcDbCircle
 10
3953.26642129192
 20
7893.185095933754
 30
0.0
 40
3.0
100
AcDbArc
 50
90.0
 51
164.9999999998041
  0
LINE
  5
13E5C
330
747D
100
AcDbEntity
  8
部品1
100
AcDbLine
 10
3950.368643813053
 20
7893.961553069075
 30
0.0
 11
3947.575674133506
 21
7883.538048320999
 31
0.0
  0
ARC
  5
13E5D
330
747D
100
AcDbEntity
  8
部品1
100
AcDbCircle
 10
3945.160859567783
 20
7884.185095933753
 30
0.0
 40
2.5
100
AcDbArc
 50
270.0
 51
344.9999999998042
  0
LINE
  5
13E5E
330
747D
100
AcDbEntity
  8
部品1
100
AcDbLine
 10
3945.160859567783
 20
7881.685095933772
 30
0.0
 11
3836.768021088181
 21
7881.685095933757
 31
0.0
  0
ARC
  5
13E5F
330
747D
100
AcDbEntity
  8
部品1
100
AcDbCircle
 10
3836.768021088181
 20
7884.185095933753
 30
0.0
 40
2.5
100
AcDbArc
 50
195.0000000001958
 51
270.0
  0
LINE
  5
13E60
330
747D
100
AcDbEntity
  8
部品1
100
AcDbLine
 10
3831.56023684291
 20
7893.961553069075
 30
0.0
 11
3834.353206522457
 21
7883.538048320999
 31
0.0
  0
ARC
  5
13E61
330
747D
100
AcDbEntity
  8
部品1
100
AcDbCircle
 10
3828.662459364045
 20
7893.185095933754
 30
0.0
 40
3.0
100
AcDbArc
 50
15.00000000019582
 51
90.0
  0
ARC
  5
13E62
330
747D
100
AcDbEntity
  8
部品1
100
AcDbCircle
 10
3805.160859567783
 20
7884.185095933753
 30
0.0
 40
2.5
100
AcDbArc
 50
270.0
 51
344.9999999998042
  0
LINE
  5
13E63
330
747D
100
AcDbEntity
  8
部品1
100
AcDbLine
 10
3810.368643813054
 20
7893.961553069075
 30
0.0
 11
3807.575674133506
 21
7883.538048320999
 31
0.0
  0
ARC
  5
13E64
330
747D
100
AcDbEntity
  8
部品1
100
AcDbCircle
 10
3813.266421291919
 20
7893.185095933754
 30
0.0
 40
3.0
100
AcDbArc
 50
90.0
 51
164.9999999998041
  0
LINE
  5
13E65
330
747D
100
AcDbEntity
  8
部品1
100
AcDbLine
 10
3813.266421291919
 20
7896.185095933756
 30
0.0
 11
3828.662459364045
 21
7896.185095933756
 31
0.0
  0
LINE
  5
13E66
330
747D
100
AcDbEntity
  8
部品1
100
AcDbLine
 10
3805.160859567783
 20
7881.685095933757
 30
0.0
 11
3749.885703266868
 21
7881.685095933764
 31
0.0
  0
LINE
  5
13E67
330
747D
100
AcDbEntity
  8
部品1
100
AcDbLine
 10
5805.160859567783
 20
7881.685095933757
 30
0.0
 11
5696.768021088181
 21
7881.685095933772
 31
0.0
  0
ARC
  5
13E68
330
747D
100
AcDbEntity
  8
部品1
100
AcDbCircle
 10
5696.768021088181
 20
7884.185095933753
 30
0.0
 40
2.5
100
AcDbArc
 50
195.0000000001958
 51
270.0
  0
LINE
  5
13E69
330
747D
100
AcDbEntity
  8
部品1
100
AcDbLine
 10
5691.56023684291
 20
7893.961553069075
 30
0.0
 11
5694.353206522457
 21
7883.538048320999
 31
0.0
  0
ARC
  5
13E6A
330
747D
100
AcDbEntity
  8
部品1
100
AcDbCircle
 10
5688.662459364045
 20
7893.185095933754
 30
0.0
 40
3.0
100
AcDbArc
 50
15.00000000019582
 51
90.0
  0
LINE
  5
13E6B
330
747D
100
AcDbEntity
  8
部品1
100
AcDbLine
 10
5673.266421291919
 20
7896.185095933756
 30
0.0
 11
5688.662459364045
 21
7896.185095933756
 31
0.0
  0
ARC
  5
13E6C
330
747D
100
AcDbEntity
  8
部品1
100
AcDbCircle
 10
5673.266421291919
 20
7893.185095933754
 30
0.0
 40
3.0
100
AcDbArc
 50
90.0
 51
164.9999999998041
  0
LINE
  5
13E6D
330
747D
100
AcDbEntity
  8
部品1
100
AcDbLine
 10
5670.368643813054
 20
7893.961553069075
 30
0.0
 11
5667.575674133506
 21
7883.538048320999
 31
0.0
  0
ARC
  5
13E6E
330
747D
100
AcDbEntity
  8
部品1
100
AcDbCircle
 10
5665.160859567783
 20
7884.185095933753
 30
0.0
 40
2.5
100
AcDbArc
 50
270.0
 51
344.9999999998042
  0
LINE
  5
13E6F
330
747D
100
AcDbEntity
  8
部品1
100
AcDbLine
 10
5665.160859567783
 20
7881.685095933743
 30
0.0
 11
5576.768021088181
 21
7881.685095933757
 31
0.0
  0
ARC
  5
13E70
330
747D
100
AcDbEntity
  8
部品1
100
AcDbCircle
 10
5576.768021088181
 20
7884.185095933753
 30
0.0
 40
2.5
100
AcDbArc
 50
195.0000000001958
 51
270.0
  0
LINE
  5
13E71
330
747D
100
AcDbEntity
  8
部品1
100
AcDbLine
 10
5571.56023684291
 20
7893.961553069075
 30
0.0
 11
5574.353206522457
 21
7883.538048320999
 31
0.0
  0
ARC
  5
13E72
330
747D
100
AcDbEntity
  8
部品1
100
AcDbCircle
 10
5568.662459364045
 20
7893.185095933754
 30
0.0
 40
3.0
100
AcDbArc
 50
15.00000000019582
 51
90.0
  0
LINE
  5
13E73
330
747D
100
AcDbEntity
  8
部品1
100
AcDbLine
 10
5553.266421291919
 20
7896.185095933756
 30
0.0
 11
5568.662459364045
 21
7896.185095933756
 31
0.0
  0
ARC
  5
13E74
330
747D
100
AcDbEntity
  8
部品1
100
AcDbCircle
 10
5553.266421291919
 20
7893.185095933754
 30
0.0
 40
3.0
100
AcDbArc
 50
90.0
 51
164.9999999998041
  0
LINE
  5
13E75
330
747D
100
AcDbEntity
  8
部品1
100
AcDbLine
 10
5550.368643813054
 20
7893.961553069075
 30
0.0
 11
5547.575674133506
 21
7883.538048320999
 31
0.0
  0
ARC
  5
13E76
330
747D
100
AcDbEntity
  8
部品1
100
AcDbCircle
 10
5545.160859567783
 20
7884.185095933753
 30
0.0
 40
2.5
100
AcDbArc
 50
270.0
 51
344.9999999998042
  0
LINE
  5
13E77
330
747D
100
AcDbEntity
  8
部品1
100
AcDbLine
 10
5545.160859567783
 20
7881.685095933772
 30
0.0
 11
5436.76802108818
 21
7881.685095933757
 31
0.0
  0
LINE
  5
13E78
330
747D
100
AcDbEntity
  8
部品1
100
AcDbLine
 10
5413.266421291918
 20
7896.185095933756
 30
0.0
 11
5428.662459364044
 21
7896.185095933756
 31
0.0
  0
ARC
  5
13E79
330
747D
100
AcDbEntity
  8
部品1
100
AcDbCircle
 10
5413.266421291918
 20
7893.185095933754
 30
0.0
 40
3.0
100
AcDbArc
 50
90.0
 51
164.9999999998041
  0
LINE
  5
13E7A
330
747D
100
AcDbEntity
  8
部品1
100
AcDbLine
 10
5410.368643813054
 20
7893.961553069075
 30
0.0
 11
5407.575674133506
 21
7883.538048320999
 31
0.0
  0
ARC
  5
13E7B
330
747D
100
AcDbEntity
  8
部品1
100
AcDbCircle
 10
5405.160859567782
 20
7884.185095933753
 30
0.0
 40
2.5
100
AcDbArc
 50
270.0
 51
344.9999999998042
  0
ARC
  5
13E7C
330
747D
100
AcDbEntity
  8
部品1
100
AcDbCircle
 10
5428.662459364044
 20
7893.185095933754
 30
0.0
 40
3.0
100
AcDbArc
 50
15.00000000019582
 51
90.0
  0
LINE
  5
13E7D
330
747D
100
AcDbEntity
  8
部品1
100
AcDbLine
 10
5431.560236842909
 20
7893.961553069075
 30
0.0
 11
5434.353206522457
 21
7883.538048320999
 31
0.0
  0
ARC
  5
13E7E
330
747D
100
AcDbEntity
  8
部品1
100
AcDbCircle
 10
5436.76802108818
 20
7884.185095933753
 30
0.0
 40
2.5
100
AcDbArc
 50
195.0000000001958
 51
270.0
  0
LINE
  5
13E7F
330
747D
100
AcDbEntity
  8
部品1
100
AcDbLine
 10
5013.266421291919
 20
7896.185095933756
 30
0.0
 11
5028.662459364045
 21
7896.185095933756
 31
0.0
  0
ARC
  5
13E80
330
747D
100
AcDbEntity
  8
部品1
100
AcDbCircle
 10
5013.266421291919
 20
7893.185095933754
 30
0.0
 40
3.0
100
AcDbArc
 50
90.0
 51
164.9999999998041
  0
LINE
  5
13E81
330
747D
100
AcDbEntity
  8
部品1
100
AcDbLine
 10
5010.368643813054
 20
7893.961553069075
 30
0.0
 11
5007.575674133506
 21
7883.538048320999
 31
0.0
  0
ARC
  5
13E82
330
747D
100
AcDbEntity
  8
部品1
100
AcDbCircle
 10
5005.160859567783
 20
7884.185095933753
 30
0.0
 40
2.5
100
AcDbArc
 50
270.0
 51
344.9999999998042
  0
ARC
  5
13E83
330
747D
100
AcDbEntity
  8
部品1
100
AcDbCircle
 10
5028.662459364045
 20
7893.185095933754
 30
0.0
 40
3.0
100
AcDbArc
 50
15.00000000019582
 51
90.0
  0
LINE
  5
13E84
330
747D
100
AcDbEntity
  8
部品1
100
AcDbLine
 10
5031.56023684291
 20
7893.961553069075
 30
0.0
 11
5034.353206522457
 21
7883.538048320999
 31
0.0
  0
ARC
  5
13E85
330
747D
100
AcDbEntity
  8
部品1
100
AcDbCircle
 10
5036.768021088181
 20
7884.185095933753
 30
0.0
 40
2.5
100
AcDbArc
 50
195.0000000001958
 51
270.0
  0
LINE
  5
13E86
330
747D
100
AcDbEntity
  8
部品1
100
AcDbLine
 10
5145.160859567782
 20
7881.685095933772
 30
0.0
 11
5036.768021088181
 21
7881.685095933757
 31
0.0
  0
ARC
  5
13E87
330
747D
100
AcDbEntity
  8
部品1
100
AcDbCircle
 10
5145.160859567782
 20
7884.185095933753
 30
0.0
 40
2.5
100
AcDbArc
 50
270.0
 51
344.9999999998042
  0
LINE
  5
13E88
330
747D
100
AcDbEntity
  8
部品1
100
AcDbLine
 10
5150.368643813053
 20
7893.961553069075
 30
0.0
 11
5147.575674133506
 21
7883.538048320999
 31
0.0
  0
ARC
  5
13E89
330
747D
100
AcDbEntity
  8
部品1
100
AcDbCircle
 10
5153.266421291919
 20
7893.185095933754
 30
0.0
 40
3.0
100
AcDbArc
 50
90.0
 51
164.9999999998041
  0
LINE
  5
13E8A
330
747D
100
AcDbEntity
  8
部品1
100
AcDbLine
 10
5153.266421291919
 20
7896.185095933756
 30
0.0
 11
5168.662459364044
 21
7896.185095933756
 31
0.0
  0
ARC
  5
13E8B
330
747D
100
AcDbEntity
  8
部品1
100
AcDbCircle
 10
5168.662459364044
 20
7893.185095933754
 30
0.0
 40
3.0
100
AcDbArc
 50
15.00000000019582
 51
90.0
  0
LINE
  5
13E8C
330
747D
100
AcDbEntity
  8
部品1
100
AcDbLine
 10
5171.56023684291
 20
7893.961553069075
 30
0.0
 11
5174.353206522457
 21
7883.538048320999
 31
0.0
  0
ARC
  5
13E8D
330
747D
100
AcDbEntity
  8
部品1
100
AcDbCircle
 10
5176.768021088181
 20
7884.185095933753
 30
0.0
 40
2.5
100
AcDbArc
 50
195.0000000001958
 51
270.0
  0
LINE
  5
13E8E
330
747D
100
AcDbEntity
  8
部品1
100
AcDbLine
 10
5265.160859567783
 20
7881.685095933743
 30
0.0
 11
5176.768021088181
 21
7881.685095933757
 31
0.0
  0
ARC
  5
13E8F
330
747D
100
AcDbEntity
  8
部品1
100
AcDbCircle
 10
5265.160859567783
 20
7884.185095933753
 30
0.0
 40
2.5
100
AcDbArc
 50
270.0
 51
344.9999999998042
  0
LINE
  5
13E90
330
747D
100
AcDbEntity
  8
部品1
100
AcDbLine
 10
5270.368643813053
 20
7893.961553069075
 30
0.0
 11
5267.575674133507
 21
7883.538048320999
 31
0.0
  0
ARC
  5
13E91
330
747D
100
AcDbEntity
  8
部品1
100
AcDbCircle
 10
5273.266421291919
 20
7893.185095933754
 30
0.0
 40
3.0
100
AcDbArc
 50
90.0
 51
164.9999999998041
  0
LINE
  5
13E92
330
747D
100
AcDbEntity
  8
部品1
100
AcDbLine
 10
5273.266421291919
 20
7896.185095933756
 30
0.0
 11
5288.662459364044
 21
7896.185095933756
 31
0.0
  0
ARC
  5
13E93
330
747D
100
AcDbEntity
  8
部品1
100
AcDbCircle
 10
5288.662459364044
 20
7893.185095933754
 30
0.0
 40
3.0
100
AcDbArc
 50
15.00000000019582
 51
90.0
  0
LINE
  5
13E94
330
747D
100
AcDbEntity
  8
部品1
100
AcDbLine
 10
5291.56023684291
 20
7893.961553069075
 30
0.0
 11
5294.353206522457
 21
7883.538048320999
 31
0.0
  0
ARC
  5
13E95
330
747D
100
AcDbEntity
  8
部品1
100
AcDbCircle
 10
5296.768021088181
 20
7884.185095933753
 30
0.0
 40
2.5
100
AcDbArc
 50
195.0000000001958
 51
270.0
  0
LINE
  5
13E96
330
747D
100
AcDbEntity
  8
部品1
100
AcDbLine
 10
5405.160859567782
 20
7881.685095933757
 30
0.0
 11
5296.768021088181
 21
7881.685095933772
 31
0.0
  0
LINE
  5
13E97
330
747D
100
AcDbEntity
  8
部品1
100
AcDbLine
 10
5005.160859567783
 20
7881.685095933757
 30
0.0
 11
4896.768021088181
 21
7881.685095933772
 31
0.0
  0
ARC
  5
13E98
330
747D
100
AcDbEntity
  8
部品1
100
AcDbCircle
 10
4896.768021088181
 20
7884.185095933753
 30
0.0
 40
2.5
100
AcDbArc
 50
195.0000000001958
 51
270.0
  0
LINE
  5
13E99
330
747D
100
AcDbEntity
  8
部品1
100
AcDbLine
 10
4891.560236842909
 20
7893.961553069075
 30
0.0
 11
4894.353206522457
 21
7883.538048320999
 31
0.0
  0
ARC
  5
13E9A
330
747D
100
AcDbEntity
  8
部品1
100
AcDbCircle
 10
4888.662459364045
 20
7893.185095933754
 30
0.0
 40
3.0
100
AcDbArc
 50
15.00000000019582
 51
90.0
  0
LINE
  5
13E9B
330
747D
100
AcDbEntity
  8
部品1
100
AcDbLine
 10
4873.266421291919
 20
7896.185095933756
 30
0.0
 11
4888.662459364045
 21
7896.185095933756
 31
0.0
  0
ARC
  5
13E9C
330
747D
100
AcDbEntity
  8
部品1
100
AcDbCircle
 10
4873.266421291919
 20
7893.185095933754
 30
0.0
 40
3.0
100
AcDbArc
 50
90.0
 51
164.9999999998041
  0
LINE
  5
13E9D
330
747D
100
AcDbEntity
  8
部品1
100
AcDbLine
 10
4870.368643813054
 20
7893.961553069075
 30
0.0
 11
4867.575674133506
 21
7883.538048320999
 31
0.0
  0
ARC
  5
13E9E
330
747D
100
AcDbEntity
  8
部品1
100
AcDbCircle
 10
4865.160859567783
 20
7884.185095933753
 30
0.0
 40
2.5
100
AcDbArc
 50
270.0
 51
344.9999999998042
  0
LINE
  5
13E9F
330
747D
100
AcDbEntity
  8
部品1
100
AcDbLine
 10
4865.160859567783
 20
7881.685095933743
 30
0.0
 11
4776.76802108818
 21
7881.685095933757
 31
0.0
  0
ARC
  5
13EA0
330
747D
100
AcDbEntity
  8
部品1
100
AcDbCircle
 10
4776.76802108818
 20
7884.185095933753
 30
0.0
 40
2.5
100
AcDbArc
 50
195.0000000001958
 51
270.0
  0
LINE
  5
13EA1
330
747D
100
AcDbEntity
  8
部品1
100
AcDbLine
 10
4771.56023684291
 20
7893.961553069075
 30
0.0
 11
4774.353206522457
 21
7883.538048320999
 31
0.0
  0
ARC
  5
13EA2
330
747D
100
AcDbEntity
  8
部品1
100
AcDbCircle
 10
4768.662459364044
 20
7893.185095933754
 30
0.0
 40
3.0
100
AcDbArc
 50
15.00000000019582
 51
90.0
  0
LINE
  5
13EA3
330
747D
100
AcDbEntity
  8
部品1
100
AcDbLine
 10
4753.266421291919
 20
7896.185095933756
 30
0.0
 11
4768.662459364044
 21
7896.185095933756
 31
0.0
  0
ARC
  5
13EA4
330
747D
100
AcDbEntity
  8
部品1
100
AcDbCircle
 10
4753.266421291919
 20
7893.185095933754
 30
0.0
 40
3.0
100
AcDbArc
 50
90.0
 51
164.9999999998041
  0
LINE
  5
13EA5
330
747D
100
AcDbEntity
  8
部品1
100
AcDbLine
 10
4750.368643813053
 20
7893.961553069075
 30
0.0
 11
4747.575674133506
 21
7883.538048320999
 31
0.0
  0
ARC
  5
13EA6
330
747D
100
AcDbEntity
  8
部品1
100
AcDbCircle
 10
4745.160859567782
 20
7884.185095933753
 30
0.0
 40
2.5
100
AcDbArc
 50
270.0
 51
344.9999999998042
  0
LINE
  5
13EA7
330
747D
100
AcDbEntity
  8
部品1
100
AcDbLine
 10
4745.160859567782
 20
7881.685095933772
 30
0.0
 11
4636.76802108818
 21
7881.685095933757
 31
0.0
  0
ARC
  5
13EA8
330
747D
100
AcDbEntity
  8
部品1
100
AcDbCircle
 10
4636.76802108818
 20
7884.185095933753
 30
0.0
 40
2.5
100
AcDbArc
 50
195.0000000001958
 51
270.0
  0
LINE
  5
13EA9
330
747D
100
AcDbEntity
  8
部品1
100
AcDbLine
 10
4631.56023684291
 20
7893.961553069075
 30
0.0
 11
4634.353206522457
 21
7883.538048320999
 31
0.0
  0
ARC
  5
13EAA
330
747D
100
AcDbEntity
  8
部品1
100
AcDbCircle
 10
4628.662459364044
 20
7893.185095933754
 30
0.0
 40
3.0
100
AcDbArc
 50
15.00000000019582
 51
90.0
  0
ARC
  5
13EAB
330
747D
100
AcDbEntity
  8
部品1
100
AcDbCircle
 10
4605.160859567782
 20
7884.185095933753
 30
0.0
 40
2.5
100
AcDbArc
 50
270.0
 51
344.9999999998042
  0
LINE
  5
13EAC
330
747D
100
AcDbEntity
  8
部品1
100
AcDbLine
 10
4610.368643813053
 20
7893.961553069075
 30
0.0
 11
4607.575674133506
 21
7883.538048320999
 31
0.0
  0
ARC
  5
13EAD
330
747D
100
AcDbEntity
  8
部品1
100
AcDbCircle
 10
4613.266421291918
 20
7893.185095933754
 30
0.0
 40
3.0
100
AcDbArc
 50
90.0
 51
164.9999999998041
  0
LINE
  5
13EAE
330
747D
100
AcDbEntity
  8
部品1
100
AcDbLine
 10
4613.266421291918
 20
7896.185095933756
 30
0.0
 11
4628.662459364044
 21
7896.185095933756
 31
0.0
  0
ARC
  5
13EAF
330
747D
100
AcDbEntity
  8
部品1
100
AcDbCircle
 10
6496.768021088181
 20
7884.185095933753
 30
0.0
 40
2.5
100
AcDbArc
 50
195.0000000001958
 51
270.0
  0
LINE
  5
13EB0
330
747D
100
AcDbEntity
  8
部品1
100
AcDbLine
 10
6491.560236842911
 20
7893.961553069075
 30
0.0
 11
6494.353206522458
 21
7883.538048320999
 31
0.0
  0
ARC
  5
13EB1
330
747D
100
AcDbEntity
  8
部品1
100
AcDbCircle
 10
6488.662459364045
 20
7893.185095933754
 30
0.0
 40
3.0
100
AcDbArc
 50
15.00000000019582
 51
90.0
  0
LINE
  5
13EB2
330
747D
100
AcDbEntity
  8
部品1
100
AcDbLine
 10
6473.266421291919
 20
7896.185095933756
 30
0.0
 11
6488.662459364045
 21
7896.185095933756
 31
0.0
  0
ARC
  5
13EB3
330
747D
100
AcDbEntity
  8
部品1
100
AcDbCircle
 10
6473.266421291919
 20
7893.185095933754
 30
0.0
 40
3.0
100
AcDbArc
 50
90.0
 51
164.9999999998041
  0
LINE
  5
13EB4
330
747D
100
AcDbEntity
  8
部品1
100
AcDbLine
 10
6470.368643813053
 20
7893.961553069075
 30
0.0
 11
6467.575674133506
 21
7883.538048320999
 31
0.0
  0
ARC
  5
13EB5
330
747D
100
AcDbEntity
  8
部品1
100
AcDbCircle
 10
6465.160859567783
 20
7884.185095933753
 30
0.0
 40
2.5
100
AcDbArc
 50
270.0
 51
344.9999999998042
  0
LINE
  5
13EB6
330
747D
100
AcDbEntity
  8
部品1
100
AcDbLine
 10
6465.160859567783
 20
7881.685095933743
 30
0.0
 11
6376.768021088181
 21
7881.685095933757
 31
0.0
  0
ARC
  5
13EB7
330
747D
100
AcDbEntity
  8
部品1
100
AcDbCircle
 10
6376.768021088181
 20
7884.185095933753
 30
0.0
 40
2.5
100
AcDbArc
 50
195.0000000001958
 51
270.0
  0
LINE
  5
13EB8
330
747D
100
AcDbEntity
  8
部品1
100
AcDbLine
 10
6371.56023684291
 20
7893.961553069075
 30
0.0
 11
6374.353206522457
 21
7883.538048320999
 31
0.0
  0
ARC
  5
13EB9
330
747D
100
AcDbEntity
  8
部品1
100
AcDbCircle
 10
6368.662459364045
 20
7893.185095933754
 30
0.0
 40
3.0
100
AcDbArc
 50
15.00000000019582
 51
90.0
  0
LINE
  5
13EBA
330
747D
100
AcDbEntity
  8
部品1
100
AcDbLine
 10
6353.26642129192
 20
7896.185095933756
 30
0.0
 11
6368.662459364045
 21
7896.185095933756
 31
0.0
  0
ARC
  5
13EBB
330
747D
100
AcDbEntity
  8
部品1
100
AcDbCircle
 10
6353.26642129192
 20
7893.185095933754
 30
0.0
 40
3.0
100
AcDbArc
 50
90.0
 51
164.9999999998041
  0
LINE
  5
13EBC
330
747D
100
AcDbEntity
  8
部品1
100
AcDbLine
 10
6350.368643813053
 20
7893.961553069075
 30
0.0
 11
6347.575674133506
 21
7883.538048320999
 31
0.0
  0
ARC
  5
13EBD
330
747D
100
AcDbEntity
  8
部品1
100
AcDbCircle
 10
6345.160859567783
 20
7884.185095933753
 30
0.0
 40
2.5
100
AcDbArc
 50
270.0
 51
344.9999999998042
  0
LINE
  5
13EBE
330
747D
100
AcDbEntity
  8
部品1
100
AcDbLine
 10
6345.160859567783
 20
7881.685095933772
 30
0.0
 11
6236.768021088181
 21
7881.685095933757
 31
0.0
  0
ARC
  5
13EBF
330
747D
100
AcDbEntity
  8
部品1
100
AcDbCircle
 10
6236.768021088181
 20
7884.185095933753
 30
0.0
 40
2.5
100
AcDbArc
 50
195.0000000001958
 51
270.0
  0
LINE
  5
13EC0
330
747D
100
AcDbEntity
  8
部品1
100
AcDbLine
 10
6231.56023684291
 20
7893.961553069075
 30
0.0
 11
6234.353206522457
 21
7883.538048320999
 31
0.0
  0
ARC
  5
13EC1
330
747D
100
AcDbEntity
  8
部品1
100
AcDbCircle
 10
6228.662459364045
 20
7893.185095933754
 30
0.0
 40
3.0
100
AcDbArc
 50
15.00000000019582
 51
90.0
  0
ARC
  5
13EC2
330
747D
100
AcDbEntity
  8
部品1
100
AcDbCircle
 10
6205.160859567783
 20
7884.185095933753
 30
0.0
 40
2.5
100
AcDbArc
 50
270.0
 51
344.9999999998042
  0
LINE
  5
13EC3
330
747D
100
AcDbEntity
  8
部品1
100
AcDbLine
 10
6210.368643813054
 20
7893.961553069075
 30
0.0
 11
6207.575674133506
 21
7883.538048320999
 31
0.0
  0
ARC
  5
13EC4
330
747D
100
AcDbEntity
  8
部品1
100
AcDbCircle
 10
6213.266421291919
 20
7893.185095933754
 30
0.0
 40
3.0
100
AcDbArc
 50
90.0
 51
164.9999999998041
  0
LINE
  5
13EC5
330
747D
100
AcDbEntity
  8
部品1
100
AcDbLine
 10
6213.266421291919
 20
7896.185095933756
 30
0.0
 11
6228.662459364045
 21
7896.185095933756
 31
0.0
  0
LINE
  5
13EC6
330
747D
100
AcDbEntity
  8
部品1
100
AcDbLine
 10
6205.160859567783
 20
7881.685095933757
 30
0.0
 11
6096.76802108818
 21
7881.685095933772
 31
0.0
  0
ARC
  5
13EC7
330
747D
100
AcDbEntity
  8
部品1
100
AcDbCircle
 10
6096.76802108818
 20
7884.185095933753
 30
0.0
 40
2.5
100
AcDbArc
 50
195.0000000001958
 51
270.0
  0
LINE
  5
13EC8
330
747D
100
AcDbEntity
  8
部品1
100
AcDbLine
 10
6091.56023684291
 20
7893.961553069075
 30
0.0
 11
6094.353206522457
 21
7883.538048320999
 31
0.0
  0
ARC
  5
13EC9
330
747D
100
AcDbEntity
  8
部品1
100
AcDbCircle
 10
6088.662459364044
 20
7893.185095933754
 30
0.0
 40
3.0
100
AcDbArc
 50
15.00000000019582
 51
90.0
  0
LINE
  5
13ECA
330
747D
100
AcDbEntity
  8
部品1
100
AcDbLine
 10
6073.266421291918
 20
7896.185095933756
 30
0.0
 11
6088.662459364044
 21
7896.185095933756
 31
0.0
  0
ARC
  5
13ECB
330
747D
100
AcDbEntity
  8
部品1
100
AcDbCircle
 10
6073.266421291918
 20
7893.185095933754
 30
0.0
 40
3.0
100
AcDbArc
 50
90.0
 51
164.9999999998041
  0
LINE
  5
13ECC
330
747D
100
AcDbEntity
  8
部品1
100
AcDbLine
 10
6070.368643813054
 20
7893.961553069075
 30
0.0
 11
6067.575674133506
 21
7883.538048320999
 31
0.0
  0
ARC
  5
13ECD
330
747D
100
AcDbEntity
  8
部品1
100
AcDbCircle
 10
6065.160859567782
 20
7884.185095933753
 30
0.0
 40
2.5
100
AcDbArc
 50
270.0
 51
344.9999999998042
  0
LINE
  5
13ECE
330
747D
100
AcDbEntity
  8
部品1
100
AcDbLine
 10
6065.160859567782
 20
7881.685095933743
 30
0.0
 11
5976.76802108818
 21
7881.685095933757
 31
0.0
  0
ARC
  5
13ECF
330
747D
100
AcDbEntity
  8
部品1
100
AcDbCircle
 10
5976.76802108818
 20
7884.185095933753
 30
0.0
 40
2.5
100
AcDbArc
 50
195.0000000001958
 51
270.0
  0
LINE
  5
13ED0
330
747D
100
AcDbEntity
  8
部品1
100
AcDbLine
 10
5971.56023684291
 20
7893.961553069075
 30
0.0
 11
5974.353206522457
 21
7883.538048320999
 31
0.0
  0
ARC
  5
13ED1
330
747D
100
AcDbEntity
  8
部品1
100
AcDbCircle
 10
5968.662459364044
 20
7893.185095933754
 30
0.0
 40
3.0
100
AcDbArc
 50
15.00000000019582
 51
90.0
  0
LINE
  5
13ED2
330
747D
100
AcDbEntity
  8
部品1
100
AcDbLine
 10
5953.266421291919
 20
7896.185095933756
 30
0.0
 11
5968.662459364044
 21
7896.185095933756
 31
0.0
  0
ARC
  5
13ED3
330
747D
100
AcDbEntity
  8
部品1
100
AcDbCircle
 10
5953.266421291919
 20
7893.185095933754
 30
0.0
 40
3.0
100
AcDbArc
 50
90.0
 51
164.9999999998041
  0
LINE
  5
13ED4
330
747D
100
AcDbEntity
  8
部品1
100
AcDbLine
 10
5950.368643813053
 20
7893.961553069075
 30
0.0
 11
5947.575674133506
 21
7883.538048320999
 31
0.0
  0
ARC
  5
13ED5
330
747D
100
AcDbEntity
  8
部品1
100
AcDbCircle
 10
5945.160859567782
 20
7884.185095933753
 30
0.0
 40
2.5
100
AcDbArc
 50
270.0
 51
344.9999999998042
  0
LINE
  5
13ED6
330
747D
100
AcDbEntity
  8
部品1
100
AcDbLine
 10
5945.160859567782
 20
7881.685095933772
 30
0.0
 11
5836.768021088181
 21
7881.685095933757
 31
0.0
  0
ARC
  5
13ED7
330
747D
100
AcDbEntity
  8
部品1
100
AcDbCircle
 10
5836.768021088181
 20
7884.185095933753
 30
0.0
 40
2.5
100
AcDbArc
 50
195.0000000001958
 51
270.0
  0
LINE
  5
13ED8
330
747D
100
AcDbEntity
  8
部品1
100
AcDbLine
 10
5831.56023684291
 20
7893.961553069075
 30
0.0
 11
5834.353206522457
 21
7883.538048320999
 31
0.0
  0
ARC
  5
13ED9
330
747D
100
AcDbEntity
  8
部品1
100
AcDbCircle
 10
5828.662459364045
 20
7893.185095933754
 30
0.0
 40
3.0
100
AcDbArc
 50
15.00000000019582
 51
90.0
  0
ARC
  5
13EDA
330
747D
100
AcDbEntity
  8
部品1
100
AcDbCircle
 10
5805.160859567783
 20
7884.185095933753
 30
0.0
 40
2.5
100
AcDbArc
 50
270.0
 51
344.9999999998042
  0
LINE
  5
13EDB
330
747D
100
AcDbEntity
  8
部品1
100
AcDbLine
 10
5810.368643813053
 20
7893.961553069075
 30
0.0
 11
5807.575674133506
 21
7883.538048320999
 31
0.0
  0
ARC
  5
13EDC
330
747D
100
AcDbEntity
  8
部品1
100
AcDbCircle
 10
5813.266421291919
 20
7893.185095933754
 30
0.0
 40
3.0
100
AcDbArc
 50
90.0
 51
164.9999999998041
  0
LINE
  5
13EDD
330
747D
100
AcDbEntity
  8
部品1
100
AcDbLine
 10
5813.266421291919
 20
7896.185095933756
 30
0.0
 11
5828.662459364045
 21
7896.185095933756
 31
0.0
  0
LINE
  5
13EDE
330
747D
100
AcDbEntity
  8
部品1
100
AcDbLine
 10
6609.964440327967
 20
7888.720994318543
 30
0.0
 11
6608.575674133506
 21
7883.538048320982
 31
0.0
  0
ARC
  5
13EDF
330
747D
100
AcDbEntity
  8
部品1
100
AcDbCircle
 10
6606.160859567783
 20
7884.185095933735
 30
0.0
 40
2.5
100
AcDbArc
 50
270.0
 51
344.9999999998042
  0
LINE
  5
13EE0
330
747D
100
AcDbEntity
  8
部品1
100
AcDbLine
 10
6606.160859567783
 20
7881.685095933739
 30
0.0
 11
6496.768021088181
 21
7881.685095933754
 31
0.0
  0
ARC
  5
13EE1
330
747D
100
AcDbEntity
  8
部品1
 48
50.0
100
AcDbCircle
 10
1620.964440327996
 20
7766.427768474772
 30
0.0
 40
44.55000000000313
100
AcDbArc
 50
0.0
 51
180.0
  0
LINE
  5
13EE2
330
747D
100
AcDbEntity
  8
部品1
 48
50.0
100
AcDbLine
 10
1665.514440327999
 20
7766.427768474772
 30
0.0
 11
1665.514440327999
 21
7548.716718364736
 31
0.0
  0
LINE
  5
13EE3
330
747D
100
AcDbEntity
  8
部品1
 48
50.0
100
AcDbLine
 10
1576.414440327993
 20
6027.765397458863
 30
0.0
 11
1576.414440327993
 21
6131.716718364732
 31
0.0
  0
LINE
  5
13EE4
330
747D
100
AcDbEntity
  8
部品1
 48
50.0
100
AcDbLine
 10
4249.464440327428
 20
7881.685095933757
 30
0.0
 11
4249.464440327428
 21
7921.184719782941
 31
0.0
  0
LINE
  5
13EE5
330
747D
100
AcDbEntity
  8
部品1
 48
50.0
100
AcDbLine
 10
6609.964440327967
 20
7916.184719782926
 30
0.0
 11
1431.964440327996
 21
7916.184719782926
 31
0.0
  0
LINE
  5
13EE6
330
747D
100
AcDbEntity
  8
部品1
 48
50.0
100
AcDbLine
 10
6609.964440327967
 20
7921.184719782941
 30
0.0
 11
1431.964440327996
 21
7921.184719782941
 31
0.0
  0
LINE
  5
13EE7
330
747D
100
AcDbEntity
  8
部品1
 48
50.0
100
AcDbLine
 10
1431.964440327996
 20
7923.716718365297
 30
0.0
 11
1390.964440327996
 21
7923.716718365297
 31
0.0
  0
ARC
  5
13EE8
330
747D
100
AcDbEntity
  8
部品1
 48
50.0
100
AcDbCircle
 10
4226.964440328011
 20
3683.904794172373
 30
0.0000000000000006
 40
5.0
100
AcDbArc
 50
90.0
 51
180.0
  0
ARC
  5
13EE9
330
747D
100
AcDbEntity
  8
部品1
 48
50.0
100
AcDbCircle
 10
4271.964440327996
 20
3683.904794172373
 30
0.0000000000000006
 40
5.0
100
AcDbArc
 50
0.0
 51
90.0
  0
LINE
  5
13EEA
330
747D
100
AcDbEntity
  8
部品1
 48
50.0
100
AcDbLine
 10
4276.964440327996
 20
3683.904794172373
 30
0.0000000000000006
 11
4276.96444032801
 21
3638.504794172372
 31
0.0000000000000006
  0
LINE
  5
13EEB
330
747D
100
AcDbEntity
  8
部品1
 48
50.0
100
AcDbLine
 10
4276.96444032801
 20
3638.504794172372
 30
0.0000000000000006
 11
4221.964440328011
 21
3638.504794172372
 31
0.0000000000000006
  0
LINE
  5
13EEC
330
747D
100
AcDbEntity
  8
部品1
 48
50.0
100
AcDbLine
 10
4221.964440328011
 20
3683.904794172373
 30
0.0000000000000006
 11
4221.964440328011
 21
3638.504794172372
 31
0.0000000000000006
  0
LINE
  5
13EED
330
747D
100
AcDbEntity
  8
部品1
 48
50.0
100
AcDbLine
 10
4271.964440327996
 20
3688.904794172373
 30
0.0000000000000006
 11
4226.964440328011
 21
3688.904794172373
 31
0.0000000000000006
  0
LINE
  5
13EEE
330
747D
100
AcDbEntity
  8
部品1
 48
5.0
100
AcDbLine
 10
3976.414440327964
 20
3639.10479417237
 30
0.0000000000000006
 11
1665.514440327999
 21
3639.104794172368
 31
0.0000000000000006
  0
LINE
  5
13EEF
330
747D
100
AcDbEntity
  8
部品1
 48
50.0
100
AcDbLine
 10
1665.964440327996
 20
6012.765397458863
 30
0.0
 11
1575.964440327996
 21
6012.765397458863
 31
0.0
  0
LINE
  5
13EF0
330
747D
100
AcDbEntity
  8
部品1
 48
50.0
100
AcDbLine
 10
1573.964440327996
 20
6027.765397458863
 30
0.0
 11
1667.964440327996
 21
6027.765397458863
 31
0.0
  0
LINE
  5
13EF1
330
747D
100
AcDbEntity
  8
部品1
 48
50.0
100
AcDbLine
 10
1667.964440327996
 20
6027.765397458863
 30
0.0
 11
1667.964440327996
 21
6014.765397458862
 31
0.0
  0
LINE
  5
13EF2
330
747D
100
AcDbEntity
  8
部品1
 48
50.0
100
AcDbLine
 10
1573.964440327996
 20
6027.765397458863
 30
0.0
 11
1573.964440327996
 21
6014.765397458862
 31
0.0
  0
ARC
  5
13EF3
330
747D
100
AcDbEntity
  8
部品1
 48
50.0
100
AcDbCircle
 10
1620.964440327996
 20
6170.265397458862
 30
0.0
 40
162.4999999999999
100
AcDbArc
 50
255.7499673024082
 51
284.2500326975919
  0
ARC
  5
13EF4
330
747D
100
AcDbEntity
  8
部品1
 48
50.0
100
AcDbCircle
 10
1665.964440327996
 20
6014.765397458862
 30
0.0
 40
2.0
100
AcDbArc
 50
270.0
 51
0.0
  0
ARC
  5
13EF5
330
747D
100
AcDbEntity
  8
部品1
 48
50.0
100
AcDbCircle
 10
1575.964440327996
 20
6014.765397458862
 30
0.0
 40
2.0
100
AcDbArc
 50
180.0
 51
270.0
  0
ARC
  5
13EF6
330
747D
100
AcDbEntity
  8
点線
 48
50.0
100
AcDbCircle
 10
4020.964440327996
 20
7766.427768474772
 30
0.0
 40
44.55000000000313
100
AcDbArc
 50
0.0
 51
180.0
  0
ARC
  5
13EF7
330
747D
100
AcDbEntity
  8
部品1
 48
50.0
100
AcDbCircle
 10
3975.964440327997
 20
6014.765397458862
 30
0.0
 40
2.0
100
AcDbArc
 50
180.0
 51
270.0
  0
ARC
  5
13EF8
330
747D
100
AcDbEntity
  8
部品1
 48
50.0
100
AcDbCircle
 10
4065.964440327996
 20
6014.765397458862
 30
0.0
 40
2.0
100
AcDbArc
 50
270.0
 51
0.0
  0
ARC
  5
13EF9
330
747D
100
AcDbEntity
  8
部品1
 48
50.0
100
AcDbCircle
 10
4020.964440327996
 20
6170.265397458862
 30
0.0
 40
162.4999999999999
100
AcDbArc
 50
255.7499673024082
 51
284.2500326975919
  0
LINE
  5
13EFA
330
747D
100
AcDbEntity
  8
部品1
 48
50.0
100
AcDbLine
 10
3973.964440327996
 20
6027.765397458863
 30
0.0
 11
3973.964440327996
 21
6014.765397458862
 31
0.0
  0
LINE
  5
13EFB
330
747D
100
AcDbEntity
  8
部品1
 48
50.0
100
AcDbLine
 10
4067.964440327997
 20
6027.765397458863
 30
0.0
 11
4067.964440327997
 21
6014.765397458862
 31
0.0
  0
LINE
  5
13EFC
330
747D
100
AcDbEntity
  8
部品1
 48
50.0
100
AcDbLine
 10
3973.964440327996
 20
6027.765397458863
 30
0.0
 11
4067.964440327997
 21
6027.765397458863
 31
0.0
  0
LINE
  5
13EFD
330
747D
100
AcDbEntity
  8
部品1
 48
50.0
100
AcDbLine
 10
4065.964440327996
 20
6012.765397458863
 30
0.0
 11
3975.964440327997
 21
6012.765397458863
 31
0.0
  0
LINE
  5
13EFE
330
747D
100
AcDbEntity
  8
点線
 48
50.0
100
AcDbLine
 10
4065.514440327999
 20
7766.427768474772
 30
0.0
 11
4065.514440327999
 21
7548.716718364736
 31
0.0
  0
LINE
  5
13EFF
330
747D
100
AcDbEntity
  8
点線
 48
50.0
100
AcDbLine
 10
3976.414440327994
 20
6916.08381788723
 30
0.0
 11
3976.414440327994
 21
6959.718805895487
 31
0.0
  0
LINE
  5
13F00
330
747D
100
AcDbEntity
  8
点線
 48
50.0
100
AcDbLine
 10
6465.964440327997
 20
6012.765397458863
 30
0.0
 11
6375.964440327996
 21
6012.765397458863
 31
0.0
  0
ARC
  5
13F01
330
747D
100
AcDbEntity
  8
点線
 48
50.0
100
AcDbCircle
 10
6375.964440327996
 20
6014.765397458862
 30
0.0
 40
2.0
100
AcDbArc
 50
180.0
 51
270.0
  0
ARC
  5
13F02
330
747D
100
AcDbEntity
  8
点線
 48
50.0
100
AcDbCircle
 10
6465.964440327997
 20
6014.765397458862
 30
0.0
 40
2.0
100
AcDbArc
 50
270.0
 51
0.0
  0
ARC
  5
13F03
330
747D
100
AcDbEntity
  8
点線
 48
50.0
100
AcDbCircle
 10
6420.964440327996
 20
6170.265397458862
 30
0.0
 40
162.4999999999999
100
AcDbArc
 50
255.7499673024082
 51
284.2500326975919
  0
LINE
  5
13F04
330
747D
100
AcDbEntity
  8
点線
 48
50.0
100
AcDbLine
 10
6373.964440327996
 20
6027.765397458863
 30
0.0
 11
6373.964440327996
 21
6014.765397458862
 31
0.0
  0
LINE
  5
13F05
330
747D
100
AcDbEntity
  8
点線
 48
50.0
100
AcDbLine
 10
6467.964440327996
 20
6027.765397458863
 30
0.0
 11
6467.964440327996
 21
6014.765397458862
 31
0.0
  0
LINE
  5
13F06
330
747D
100
AcDbEntity
  8
点線
 48
50.0
100
AcDbLine
 10
6373.964440327996
 20
6027.765397458863
 30
0.0
 11
6467.964440327996
 21
6027.765397458863
 31
0.0
  0
LINE
  5
13F07
330
747D
100
AcDbEntity
  8
点線
 48
50.0
100
AcDbLine
 10
6465.514440327999
 20
7766.427768474772
 30
0.0
 11
6465.514440327999
 21
7548.716718364736
 31
0.0
  0
LINE
  5
13F08
330
747D
100
AcDbEntity
  8
点線
 48
50.0
100
AcDbLine
 10
6376.414440327994
 20
6027.765397458863
 30
0.0
 11
6376.414440327994
 21
6131.716718364732
 31
0.0
  0
ARC
  5
13F09
330
747D
100
AcDbEntity
  8
点線
 48
50.0
100
AcDbCircle
 10
6420.964440327996
 20
7766.427768474772
 30
0.0
 40
44.55000000000313
100
AcDbArc
 50
0.0
 51
180.0
  0
ARC
  5
13F0A
330
747D
100
AcDbEntity
  8
部品1
 48
50.0
100
AcDbCircle
 10
6540.964440327996
 20
7896.184719782941
 30
0.0
 40
17.5
100
AcDbArc
 50
304.0499319342722
 51
235.9500680657277
  0
ARC
  5
13F0B
330
747D
100
AcDbEntity
  8
部品1
 48
50.0
100
AcDbCircle
 10
4140.964440327996
 20
7896.184719782941
 30
0.0
 40
17.5
100
AcDbArc
 50
304.0499319342722
 51
235.9500680657277
  0
LINE
  5
13F0C
330
747D
100
AcDbEntity
  8
部品1
 48
50.0
100
AcDbLine
 10
6580.964440327967
 20
3637.104794172375
 30
0.0
 11
6500.964440327968
 21
3637.104794172375
 31
0.0
  0
LINE
  5
13F0D
330
747D
100
AcDbEntity
  8
部品1
 48
50.0
100
AcDbLine
 10
6580.964440327967
 20
3635.104794172375
 30
0.0
 11
6500.964440327968
 21
3635.104794172375
 31
0.0
  0
LINE
  5
13F0E
330
747D
100
AcDbEntity
  8
部品1
 48
50.0
100
AcDbLine
 10
6580.964440327967
 20
3639.104794172367
 30
0.0
 11
6580.964440327967
 21
3635.104794172375
 31
0.0
  0
LINE
  5
13F0F
330
747D
100
AcDbEntity
  8
部品1
 48
50.0
100
AcDbLine
 10
6500.964440327968
 20
3639.104794172367
 30
0.0
 11
6500.964440327968
 21
3635.104794172375
 31
0.0
  0
LINE
  5
13F10
330
747D
100
AcDbEntity
  8
部品1
 48
50.0
100
AcDbLine
 10
6516.464440327967
 20
3614.752140210957
 30
0.0
 11
6523.896582332134
 21
3572.602368382032
 31
0.0
  0
ARC
  5
13F11
330
747D
100
AcDbEntity
  8
部品1
 48
50.0
100
AcDbCircle
 10
6531.964440327967
 20
3606.010887697631
 30
0.0
 40
31.5
100
AcDbArc
 50
279.9999999996348
 51
0.0
  0
LINE
  5
13F12
330
747D
100
AcDbEntity
  8
部品1
 48
50.0
100
AcDbLine
 10
6563.464440327968
 20
3635.104794172375
 30
0.0
 11
6563.464440327968
 21
3606.010887697631
 31
0.0
  0
LINE
  5
13F13
330
747D
100
AcDbEntity
  8
部品1
 48
50.0
100
AcDbLine
 10
6537.434357924474
 20
3574.989443477746
 30
0.0
 11
6523.896582332149
 21
3572.602368382025
 31
0.0
  0
LINE
  5
13F14
330
747D
100
AcDbEntity
  8
部品1
 48
50.0
100
AcDbLine
 10
6518.464440327967
 20
3615.104794172375
 30
0.0
 11
6516.464440327982
 21
3614.752140210964
 31
0.0
  0
LINE
  5
13F15
330
747D
100
AcDbEntity
  8
部品1
 48
50.0
100
AcDbLine
 10
6518.464440327967
 20
3635.104794172375
 30
0.0
 11
6518.464440327967
 21
3615.104794172375
 31
0.0
  0
LINE
  5
13F16
330
747D
100
AcDbEntity
  8
部品1
 48
50.0
100
AcDbLine
 10
6563.464440327968
 20
3635.104794172375
 30
0.0
 11
6518.464440327967
 21
3635.104794172375
 31
0.0
  0
LINE
  5
13F17
330
747D
100
AcDbEntity
  8
部品1
 48
50.0
100
AcDbLine
 10
6516.533899599031
 20
3614.35821710976
 30
0.0
 11
6465.514440327971
 21
3605.362109899068
 31
0.0
  0
LINE
  5
13F18
330
747D
100
AcDbEntity
  8
部品1
 48
50.0
100
AcDbLine
 10
6523.827123061085
 20
3572.996291483252
 30
0.0
 11
6465.514440327971
 21
3562.714192199857
 31
0.0
  0
LINE
  5
13F19
330
747D
100
AcDbEntity
  8
部品1
 48
50.0
100
AcDbLine
 10
4123.827123061121
 20
3572.996291483252
 30
0.0
 11
4065.514440328007
 21
3562.714192199859
 31
0.0
  0
LINE
  5
13F1A
330
747D
100
AcDbEntity
  8
部品1
 48
50.0
100
AcDbLine
 10
4116.533899599068
 20
3614.358217109761
 30
0.0
 11
4065.514440328007
 21
3605.362109899069
 31
0.0
  0
LINE
  5
13F1B
330
747D
100
AcDbEntity
  8
部品1
 48
50.0
100
AcDbLine
 10
4163.464440328003
 20
3635.104794172376
 30
0.0
 11
4118.464440328003
 21
3635.104794172376
 31
0.0
  0
LINE
  5
13F1C
330
747D
100
AcDbEntity
  8
部品1
 48
50.0
100
AcDbLine
 10
4118.464440328003
 20
3635.104794172376
 30
0.0
 11
4118.464440328003
 21
3615.104794172375
 31
0.0
  0
LINE
  5
13F1D
330
747D
100
AcDbEntity
  8
部品1
 48
50.0
100
AcDbLine
 10
4118.464440328003
 20
3615.104794172375
 30
0.0
 11
4116.464440328019
 21
3614.752140210966
 31
0.0
  0
LINE
  5
13F1E
330
747D
100
AcDbEntity
  8
部品1
 48
50.0
100
AcDbLine
 10
4137.434357924511
 20
3574.989443477747
 30
0.0
 11
4123.896582332185
 21
3572.602368382026
 31
0.0
  0
LINE
  5
13F1F
330
747D
100
AcDbEntity
  8
部品1
 48
50.0
100
AcDbLine
 10
4163.464440328003
 20
3635.104794172376
 30
0.0
 11
4163.464440328003
 21
3606.010887697632
 31
0.0
  0
ARC
  5
13F20
330
747D
100
AcDbEntity
  8
部品1
 48
50.0
100
AcDbCircle
 10
4131.964440328004
 20
3606.010887697632
 30
0.0
 40
31.5
100
AcDbArc
 50
279.9999999996348
 51
0.0
  0
LINE
  5
13F21
330
747D
100
AcDbEntity
  8
部品1
 48
50.0
100
AcDbLine
 10
4116.464440328003
 20
3614.752140210959
 30
0.0
 11
4123.896582332171
 21
3572.602368382033
 31
0.0
  0
LINE
  5
13F22
330
747D
100
AcDbEntity
  8
部品1
 48
50.0
100
AcDbLine
 10
4100.964440328003
 20
3639.104794172368
 30
0.0
 11
4100.964440328003
 21
3635.104794172376
 31
0.0
  0
LINE
  5
13F23
330
747D
100
AcDbEntity
  8
部品1
 48
50.0
100
AcDbLine
 10
4180.964440328003
 20
3639.104794172368
 30
0.0
 11
4180.964440328003
 21
3635.104794172376
 31
0.0
  0
LINE
  5
13F24
330
747D
100
AcDbEntity
  8
部品1
 48
50.0
100
AcDbLine
 10
4180.964440328003
 20
3635.104794172376
 30
0.0
 11
4100.964440328003
 21
3635.104794172376
 31
0.0
  0
LINE
  5
13F25
330
747D
100
AcDbEntity
  8
部品1
 48
50.0
100
AcDbLine
 10
4180.964440328003
 20
3637.104794172375
 30
0.0
 11
4100.964440328003
 21
3637.104794172375
 31
0.0
  0
DIMENSION
  5
13F26
330
747D
100
AcDbEntity
  8
寸法
 48
50.0
100
AcDbDimension
  2
*D18
 10
10609.39646032449
 20
3463.324422868718
 30
0.0
 11
10939.84911780482
 21
3463.324458801006
 31
0.0
 70
   161
  1
φ<>
 71
     5
 42
42.00000000001455
  3
INABA_S30G
100
AcDbAlignedDimension
 13
10651.39646937032
 23
3380.134260963993
 33
0.0000000000000002
 14
10609.3964693703
 24
3380.134256397058
 34
0.0000000000000002
1001
ACAD
1000
DSTYLE
1002
{
1070
   341
1005
0
1002
}
  0
LINE
  5
13F27
330
747D
100
AcDbEntity
  8
部品1
 48
50.0
100
AcDbLine
 10
3900.836424110035
 20
6916.083817887231
 30
0.0
 11
3994.177821500518
 21
6969.974498797158
 31
0.0
  0
LINE
  5
13F28
330
747D
100
AcDbEntity
  8
部品1
 48
50.0
100
AcDbLine
 10
3900.836424110043
 20
6916.083817887226
 30
0.0
 11
4127.639187420791
 21
6916.083817887231
 31
0.0
  0
LINE
  5
13F29
330
747D
100
AcDbEntity
  8
部品1
 48
50.0
100
AcDbLine
 10
4024.563630135642
 20
6856.573117141781
 30
0.0
 11
4127.639187420791
 21
6916.083817887231
 31
0.0
  0
LINE
  5
13F2A
330
747D
100
AcDbEntity
  8
部品1
 48
50.0
100
AcDbLine
 10
4024.563630135642
 20
6856.573117141785
 30
0.0
 11
4343.239478716525
 21
5667.258659092833
 31
0.0
  0
LINE
  5
13F2B
330
747D
100
AcDbEntity
  8
部品1
 48
50.0
100
AcDbLine
 10
3694.683328484666
 20
8087.703163319391
 30
0.0
 11
3994.177821500518
 21
6969.974498797158
 31
0.0
  0
ARC
  5
13F2C
330
747D
100
AcDbEntity
  8
部品1
 48
50.0
100
AcDbCircle
 10
1500.964440327996
 20
7896.184719782941
 30
0.0
 40
17.5
100
AcDbArc
 50
301.002719134052
 51
238.997280865948
  0
LINE
  5
13F2D
330
747D
100
AcDbEntity
  8
部品1
 48
50.0
100
AcDbLine
 10
1665.514440327999
 20
6131.716718364732
 30
0.0
 11
1665.514440327999
 21
6027.765397458863
 31
0.0
  0
LINE
  5
13F2E
330
747D
100
AcDbEntity
  8
部品1
 48
50.0
100
AcDbLine
 10
1576.414440327993
 20
6182.716718364732
 30
0.0
 11
1576.414440327993
 21
6814.716718364734
 31
0.0
  0
LINE
  5
13F2F
330
747D
100
AcDbEntity
  8
部品1
 48
50.0
100
AcDbLine
 10
1576.414440327993
 20
6865.716718364736
 30
0.0
 11
1576.414440327993
 21
7497.716718364732
 31
0.0
  0
LINE
  5
13F30
330
747D
100
AcDbEntity
  8
部品1
 48
50.0
100
AcDbLine
 10
1665.514440327999
 20
6814.716718364732
 30
0.0
 11
1665.514440327999
 21
6182.716718364733
 31
0.0
  0
LINE
  5
13F31
330
747D
100
AcDbEntity
  8
部品1
 48
50.0
100
AcDbLine
 10
1665.514440327999
 20
7497.716718364732
 30
0.0
 11
1665.514440327999
 21
6865.716718364734
 31
0.0
  0
LINE
  5
13F32
330
747D
100
AcDbEntity
  8
部品1
 48
50.0
100
AcDbLine
 10
1576.414440327993
 20
7548.716718364736
 30
0.0
 11
1576.414440327993
 21
7766.427768474772
 31
0.0
  0
LINE
  5
13F33
330
747D
100
AcDbEntity
  8
点線
 48
10.0
100
AcDbLine
 10
1431.964440327996
 20
7497.716718364734
 30
-0.000000000000296
 11
1392.464440328083
 21
7497.716718364734
 31
-0.000000000000296
  0
LINE
  5
13F34
330
747D
100
AcDbEntity
  8
点線
 48
10.0
100
AcDbLine
 10
1431.964440327996
 20
7527.716718364735
 30
-0.000000000000296
 11
1392.464440328083
 21
7527.716718364735
 31
-0.000000000000296
  0
LINE
  5
13F35
330
747D
100
AcDbEntity
  8
点線
 48
10.0
100
AcDbLine
 10
1431.964440327996
 20
7548.716718364736
 30
-0.000000000000296
 11
1392.464440328083
 21
7548.716718364736
 31
-0.000000000000296
  0
LINE
  5
13F36
330
747D
100
AcDbEntity
  8
点線
 48
10.0
100
AcDbLine
 10
1431.964440327996
 20
6865.716718364736
 30
-0.000000000000296
 11
1392.464440328083
 21
6865.716718364736
 31
-0.000000000000296
  0
LINE
  5
13F37
330
747D
100
AcDbEntity
  8
点線
 48
10.0
100
AcDbLine
 10
1431.964440327996
 20
6844.716718364735
 30
-0.000000000000296
 11
1392.464440328083
 21
6844.716718364735
 31
-0.000000000000296
  0
LINE
  5
13F38
330
747D
100
AcDbEntity
  8
点線
 48
10.0
100
AcDbLine
 10
1431.964440327996
 20
6814.716718364734
 30
-0.000000000000296
 11
1392.464440328083
 21
6814.716718364734
 31
-0.000000000000296
  0
LINE
  5
13F39
330
747D
100
AcDbEntity
  8
点線
 48
10.0
100
AcDbLine
 10
1392.464440328083
 20
6814.716718364734
 30
-0.000000000000296
 11
1392.464440328083
 21
6865.716718364734
 31
-0.000000000000296
  0
LINE
  5
13F3A
330
747D
100
AcDbEntity
  8
点線
 48
10.0
100
AcDbLine
 10
1392.464440328083
 20
6131.716718364732
 30
-0.000000000000296
 11
1392.464440328083
 21
6182.716718364733
 31
-0.000000000000296
  0
LINE
  5
13F3B
330
747D
100
AcDbEntity
  8
点線
 48
10.0
100
AcDbLine
 10
1431.964440327996
 20
6131.716718364732
 30
-0.000000000000296
 11
1392.464440328083
 21
6131.716718364732
 31
-0.000000000000296
  0
LINE
  5
13F3C
330
747D
100
AcDbEntity
  8
点線
 48
10.0
100
AcDbLine
 10
1431.964440327996
 20
6161.716718364733
 30
-0.000000000000296
 11
1392.464440328083
 21
6161.716718364733
 31
-0.000000000000296
  0
LINE
  5
13F3D
330
747D
100
AcDbEntity
  8
点線
 48
10.0
100
AcDbLine
 10
1431.964440327996
 20
6182.716718364734
 30
-0.000000000000296
 11
1392.464440328083
 21
6182.716718364734
 31
-0.000000000000296
  0
LINE
  5
13F3E
330
747D
100
AcDbEntity
  8
点線
 48
50.0
100
AcDbLine
 10
4205.1229080025
 20
6182.716718364734
 30
-0.000000000000296
 11
6649.464440327894
 21
6182.716718364734
 31
-0.000000000000296
  0
LINE
  5
13F3F
330
747D
100
AcDbEntity
  8
点線
 48
50.0
100
AcDbLine
 10
4210.749841043558
 20
6161.716718364733
 30
-0.000000000000296
 11
6649.464440327894
 21
6161.716718364733
 31
-0.000000000000296
  0
LINE
  5
13F40
330
747D
100
AcDbEntity
  8
点線
 48
50.0
100
AcDbLine
 10
4218.788316816492
 20
6131.716718364733
 30
-0.000000000000296
 11
6649.464440327894
 21
6131.716718364732
 31
-0.000000000000296
  0
LINE
  5
13F41
330
747D
100
AcDbEntity
  8
点線
 48
10.0
100
AcDbLine
 10
6649.464440327894
 20
6131.716718364732
 30
-0.000000000000296
 11
6649.464440327894
 21
6182.716718364733
 31
-0.000000000000296
  0
LINE
  5
13F42
330
747D
100
AcDbEntity
  8
点線
 48
10.0
100
AcDbLine
 10
6649.464440327894
 20
6814.716718364734
 30
-0.000000000000296
 11
6649.464440327894
 21
6865.716718364734
 31
-0.000000000000296
  0
LINE
  5
13F43
330
747D
100
AcDbEntity
  8
点線
 48
50.0
100
AcDbLine
 10
4035.779018386034
 20
6814.716718364734
 30
-0.000000000000296
 11
6649.464440327894
 21
6814.716718364734
 31
-0.000000000000296
  0
LINE
  5
13F44
330
747D
100
AcDbEntity
  8
点線
 48
50.0
100
AcDbLine
 10
4027.740542613101
 20
6844.716718364736
 30
-0.000000000000296
 11
6649.464440327894
 21
6844.716718364735
 31
-0.000000000000296
  0
LINE
  5
13F45
330
747D
100
AcDbEntity
  8
点線
 48
50.0
100
AcDbLine
 10
4040.400812017949
 20
6865.716718364736
 30
-0.000000000000296
 11
6649.464440327894
 21
6865.716718364736
 31
-0.000000000000296
  0
LINE
  5
13F46
330
747D
100
AcDbEntity
  8
点線
 48
50.0
100
AcDbLine
 10
3839.104311141593
 20
7548.716718364736
 30
-0.000000000000296
 11
6649.464440327894
 21
7548.716718364736
 31
-0.000000000000296
  0
LINE
  5
13F47
330
747D
100
AcDbEntity
  8
点線
 48
50.0
100
AcDbLine
 10
3844.731244182643
 20
7527.716718364732
 30
-0.000000000000296
 11
6649.464440327894
 21
7527.716718364735
 31
-0.000000000000296
  0
LINE
  5
13F48
330
747D
100
AcDbEntity
  8
点線
 48
50.0
100
AcDbLine
 10
3852.769719955577
 20
7497.716718364732
 30
-0.000000000000296
 11
6649.464440327894
 21
7497.716718364734
 31
-0.000000000000296
  0
LINE
  5
13F49
330
747D
100
AcDbEntity
  8
点線
 48
10.0
100
AcDbLine
 10
6649.464440327894
 20
7497.716718364734
 30
-0.000000000000296
 11
6649.464440327894
 21
7548.716718364734
 31
-0.000000000000296
  0
LINE
  5
13F4A
330
747D
100
AcDbEntity
  8
部品1
 62
     5
 48
50.0
100
AcDbLine
 10
3946.682763140299
 20
6942.553214067712
 30
0.0000000000000063
 11
3946.682763140299
 21
6916.083817887226
 31
0.0000000000000065
  0
LINE
  5
13F4B
330
747D
100
AcDbEntity
  8
部品1
 62
     5
 48
50.0
100
AcDbLine
 10
3975.246117515664
 20
6959.04427440529
 30
0.0000000000000062
 11
3975.246117515664
 21
6916.08381788723
 31
0.0000000000000065
  0
LINE
  5
13F4C
330
747D
100
AcDbEntity
  8
部品1
 62
     5
 48
50.0
100
AcDbLine
 10
4066.682763140299
 20
6880.890609920054
 30
0.0000000000000068
 11
4066.682763140299
 21
6699.382372797656
 31
0.000000000000008
  0
LINE
  5
13F4D
330
747D
100
AcDbEntity
  8
部品1
 62
     5
 48
50.0
100
AcDbLine
 10
4095.246117515664
 20
6897.381670257629
 30
0.0000000000000066
 11
4095.246117515664
 21
6592.782483034202
 31
0.0000000000000087
  0
LINE
  5
13F4E
330
747D
100
AcDbEntity
  8
点線
 48
50.0
100
AcDbLine
 10
3976.414440327994
 20
7036.268339847222
 30
0.0
 11
3976.414440327994
 21
7497.716718364734
 31
0.0
  0
LINE
  5
13F4F
330
747D
100
AcDbEntity
  8
点線
 48
50.0
100
AcDbLine
 10
4065.514440327999
 20
6880.216078429872
 30
0.0
 11
4065.514440327999
 21
6865.716718364736
 31
0.0
  0
LINE
  5
13F50
330
747D
100
AcDbEntity
  8
部品1
 48
50.0
100
AcDbLine
 10
4065.514440327999
 20
6703.742612892799
 30
0.0
 11
4065.514440327999
 21
6027.765397458863
 31
0.0
  0
LINE
  5
13F51
330
747D
100
AcDbEntity
  8
部品1
 48
50.0
100
AcDbLine
 10
4065.514440327999
 20
6880.216078429872
 30
0.0
 11
4065.514440327999
 21
6916.08381788723
 31
0.0
  0
LINE
  5
13F52
330
747D
100
AcDbEntity
  8
部品1
 48
50.0
100
AcDbLine
 10
3976.414440327994
 20
6916.08381788723
 30
0.0
 11
3976.414440327994
 21
6865.716718364736
 31
0.0
  0
LINE
  5
13F53
330
747D
100
AcDbEntity
  8
部品1
 48
50.0
100
AcDbLine
 10
3976.414440327994
 20
7036.268339847222
 30
0.0
 11
3976.414440327994
 21
6959.718805895487
 31
0.0
  0
LINE
  5
13F54
330
747D
100
AcDbEntity
  8
部品1
 48
50.0
100
AcDbLine
 10
3976.414440327994
 20
6814.716718364732
 30
0.0
 11
3976.414440327994
 21
6027.765397458863
 31
0.0
  0
LINE
  5
13F55
330
747D
100
AcDbEntity
  8
点線
 48
50.0
100
AcDbLine
 10
6465.514440327999
 20
7497.716718364732
 30
0.0
 11
6465.514440327999
 21
6865.716718364736
 31
0.0
  0
LINE
  5
13F56
330
747D
100
AcDbEntity
  8
点線
 48
50.0
100
AcDbLine
 10
6376.414440327994
 20
7548.716718364736
 30
0.0
 11
6376.414440327994
 21
7766.427768474772
 31
0.0
  0
LINE
  5
13F57
330
747D
100
AcDbEntity
  8
点線
 48
50.0
100
AcDbLine
 10
6465.514440327999
 20
6814.716718364737
 30
0.0
 11
6465.514440327999
 21
6182.716718364734
 31
0.0
  0
LINE
  5
13F58
330
747D
100
AcDbEntity
  8
点線
 48
50.0
100
AcDbLine
 10
6376.414440327994
 20
6865.716718364736
 30
0.0
 11
6376.414440327994
 21
7497.716718364732
 31
0.0
  0
LINE
  5
13F59
330
747D
100
AcDbEntity
  8
点線
 48
50.0
100
AcDbLine
 10
6465.514440327999
 20
6131.716718364732
 30
0.0
 11
6465.514440327999
 21
6027.765397458863
 31
0.0
  0
LINE
  5
13F5A
330
747D
100
AcDbEntity
  8
点線
 48
50.0
100
AcDbLine
 10
6376.414440327994
 20
6182.716718364734
 30
0.0
 11
6376.414440327994
 21
6814.716718364737
 31
0.0
  0
LINE
  5
13F5B
330
747D
100
AcDbEntity
  8
点線
 48
50.0
100
AcDbLine
 10
4065.514440327999
 20
6814.716718364734
 30
0.0
 11
4065.514440327999
 21
6703.742612892799
 31
0.0
  0
LINE
  5
13F5C
330
747D
100
AcDbEntity
  8
点線
 48
50.0
100
AcDbLine
 10
4065.514440327999
 20
7497.716718364732
 30
0.0
 11
4065.514440327999
 21
6916.08381788723
 31
0.0
  0
LINE
  5
13F5D
330
747D
100
AcDbEntity
  8
点線
 48
50.0
100
AcDbLine
 10
3976.414440327994
 20
7548.716718364734
 30
0.0
 11
3976.414440327994
 21
7766.427768474772
 31
0.0
  0
LINE
  5
13F5E
330
747D
100
AcDbEntity
  8
点線
 48
10.0
100
AcDbLine
 10
1576.414440327993
 20
7497.716718364737
 30
0.0
 11
1576.414440327993
 21
7548.716718364736
 31
0.0
  0
LINE
  5
13F5F
330
747D
100
AcDbEntity
  8
点線
 48
10.0
100
AcDbLine
 10
1665.514440327999
 20
7497.716718364737
 30
0.0
 11
1665.514440327999
 21
7548.716718364736
 31
0.0
  0
LINE
  5
13F60
330
747D
100
AcDbEntity
  8
点線
 48
10.0
100
AcDbLine
 10
1665.514440327999
 20
6814.716718364734
 30
0.0
 11
1665.514440327999
 21
6865.716718364734
 31
0.0
  0
LINE
  5
13F61
330
747D
100
AcDbEntity
  8
点線
 48
10.0
100
AcDbLine
 10
1576.414440327993
 20
6814.716718364734
 30
0.0
 11
1576.414440327993
 21
6865.716718364734
 31
0.0
  0
LINE
  5
13F62
330
747D
100
AcDbEntity
  8
点線
 48
10.0
100
AcDbLine
 10
1576.414440327993
 20
6131.716718364732
 30
0.0
 11
1576.414440327993
 21
6182.716718364733
 31
0.0
  0
LINE
  5
13F63
330
747D
100
AcDbEntity
  8
点線
 48
10.0
100
AcDbLine
 10
1665.514440327999
 20
6131.716718364732
 30
0.0
 11
1665.514440327999
 21
6182.716718364733
 31
0.0
  0
LINE
  5
13F64
330
747D
100
AcDbEntity
  8
点線
 48
10.0
100
AcDbLine
 10
4065.514440327999
 20
6131.716718364732
 30
0.0
 11
4065.514440327999
 21
6182.716718364733
 31
0.0
  0
LINE
  5
13F65
330
747D
100
AcDbEntity
  8
点線
 48
10.0
100
AcDbLine
 10
3976.414440327994
 20
6131.716718364732
 30
0.0
 11
3976.414440327994
 21
6182.716718364733
 31
0.0
  0
LINE
  5
13F66
330
747D
100
AcDbEntity
  8
点線
 48
10.0
100
AcDbLine
 10
3976.414440327994
 20
6814.716718364734
 30
0.0
 11
3976.414440327994
 21
6865.716718364734
 31
0.0
  0
LINE
  5
13F67
330
747D
100
AcDbEntity
  8
部品1
 48
50.0
100
AcDbLine
 10
3752.699270576704
 20
7871.184719782947
 30
0.0
 11
1431.964440328011
 21
7871.184719782944
 31
0.0
  0
LINE
  5
13F68
330
747D
100
AcDbEntity
  8
部品1
 48
50.0
100
AcDbLine
 10
3750.019778652387
 20
7881.184719782956
 30
0.0
 11
1431.964440327996
 21
7881.184719782956
 31
0.0
  0
LINE
  5
13F69
330
747D
100
AcDbEntity
  8
部品1
 48
50.0
100
AcDbLine
 10
3751.359524614541
 20
7876.184719782955
 30
0.0
 11
1431.964440327996
 21
7876.184719782955
 31
0.0
  0
ARC
  5
13F6A
330
747D
100
AcDbEntity
  8
点線
 48
50.0
100
AcDbCircle
 10
1620.964440327996
 20
7766.427768474772
 30
0.0
 40
44.55000000000313
100
AcDbArc
 50
180.0
 51
0.0
  0
DIMENSION
  5
13F6B
330
747D
100
AcDbEntity
  8
寸法
 48
50.0
100
AcDbDimension
  2
*D19
 10
7096.962792977487
 20
7923.716718365297
 30
0.0
 11
7021.953934709769
 21
6913.716718365158
 31
0.0
 70
    32
 71
     5
 42
2020.000000000281
  3
INABA_S30G
100
AcDbAlignedDimension
 13
6631.964440327982
 23
5903.716718365015
 33
0.0
 14
6650.964440327967
 24
7923.716718365297
 34
0.0
 50
90.0
100
AcDbRotatedDimension
1001
ACAD
1000
DSTYLE
1002
{
1070
   341
1005
0
1002
}
  0
LINE
  5
13F6C
330
747D
100
AcDbEntity
  8
寸法
 48
50.0
100
AcDbLine
 10
2540.668338225907
 20
7904.348317787117
 30
0.0
 11
2410.699184492798
 21
8183.251200839501
 31
0.0
  0
LINE
  5
13F6D
330
747D
100
AcDbEntity
  8
寸法
 48
50.0
100
AcDbLine
 10
10917.11088034144
 20
2485.994469931622
 30
0.0000000000000001
 11
10651.39647656404
 21
2667.64055575746
 31
0.0000000000000002
  0
TEXT
  5
13F6E
330
747D
100
AcDbEntity
  8
部品1
 48
50.0
100
AcDbText
 10
10899.27378236763
 20
2349.460503187487
 30
0.0
 40
156.25
  1
⑦
  7
STYLE2
100
AcDbText
  0
TEXT
  5
13F6F
330
747D
100
AcDbEntity
  8
部品1
 48
50.0
100
AcDbText
 10
2252.653431560837
 20
8202.759056435356
 30
0.0
 40
156.25
  1
⑥
  7
STYLE2
100
AcDbText
  0
LINE
  5
13F70
330
747D
100
AcDbEntity
  8
寸法
 48
50.0
100
AcDbLine
 10
6854.104277613472
 20
7340.748428697081
 30
0.0
 11
6650.964440327967
 21
7160.42234153179
 31
0.0
  0
TEXT
  5
13F71
330
747D
100
AcDbEntity
  8
部品1
 48
50.0
100
AcDbText
 10
6813.702464050439
 20
7342.165595031644
 30
0.0
 40
156.25
  1
④
  7
STYLE2
100
AcDbText
  0
TEXT
  5
13F72
330
747D
100
AcDbEntity
  8
部品1
 48
50.0
100
AcDbText
 10
4719.925322804993
 20
8172.589442155009
 30
0.0
 40
156.25
  1
③
  7
STYLE2
100
AcDbText
  0
LINE
  5
13F73
330
747D
100
AcDbEntity
  8
寸法
 48
50.0
100
AcDbLine
 10
4924.272969080324
 20
8192.851526191466
 30
0.0
 11
5635.080442994382
 21
7802.451887927026
 31
0.0
  0
TEXT
  5
13F74
330
747D
100
AcDbEntity
  8
部品1
 48
50.0
100
AcDbText
 10
9551.436851267441
 20
3406.961586985072
 30
0.0
 40
156.25
  1
①
  7
STYLE2
100
AcDbText
  0
LINE
  5
13F75
330
747D
100
AcDbEntity
  8
寸法
 48
50.0
100
AcDbLine
 10
2621.357140685781
 20
6161.716718364733
 30
-0.000000000000296
 11
1976.713615714165
 21
5479.681465718829
 31
-0.000000000000296
  0
LINE
  5
13F76
330
747D
100
AcDbEntity
  8
寸法
 48
50.0
100
AcDbLine
 10
10227.00377433604
 20
3918.002298825392
 30
0.0
 11
9754.0218280805
 21
3541.042618090433
 31
0.0
  0
LINE
  5
13F77
330
747D
100
AcDbEntity
  8
寸法
 48
50.0
100
AcDbLine
 10
5266.797640667122
 20
5903.716718365155
 30
-0.0000000000001451
 11
5625.411370785368
 21
5484.907283421381
 31
-0.0000000000001451
  0
LINE
  5
13F78
330
747D
100
AcDbEntity
  8
部品1
 48
50.0
100
AcDbLine
 10
6197.07919606207
 20
5980.923382059131
 30
0.0000000000000107
 11
6197.079196062215
 21
7881.685095933757
 31
0.0
  0
LINE
  5
13F79
330
747D
100
AcDbEntity
  8
部品1
 48
50.0
100
AcDbLine
 10
5797.07919606207
 20
5980.923382059131
 30
0.0000000000000107
 11
5797.079196062216
 21
7881.685095933757
 31
0.0
  0
LINE
  5
13F7A
330
747D
100
AcDbEntity
  8
部品1
 48
50.0
100
AcDbLine
 10
5397.07919606207
 20
5980.923382059131
 30
0.0000000000000107
 11
5397.079196062215
 21
7881.685095933757
 31
0.0
  0
LINE
  5
13F7B
330
747D
100
AcDbEntity
  8
部品1
 48
50.0
100
AcDbLine
 10
4997.07919606207
 20
5980.923382059131
 30
0.0000000000000107
 11
4997.079196062216
 21
7881.685095933757
 31
0.0
  0
LINE
  5
13F7C
330
747D
100
AcDbEntity
  8
部品1
 48
50.0
100
AcDbLine
 10
4597.07919606207
 20
5980.923382059131
 30
0.0000000000000107
 11
4597.079196062208
 21
7881.685095933757
 31
0.0
  0
LINE
  5
13F7D
330
747D
100
AcDbEntity
  8
部品1
 48
50.0
100
AcDbLine
 10
3443.849684593799
 20
3972.699508354801
 30
0.0
 11
3443.849684593799
 21
3704.104794172358
 31
0.0000000000000006
  0
LINE
  5
13F7E
330
747D
100
AcDbEntity
  8
部品1
 48
50.0
100
AcDbLine
 10
3043.849684593799
 20
3972.699508354801
 30
0.0
 11
3043.849684593799
 21
3704.104794172358
 31
0.0000000000000006
  0
LINE
  5
13F7F
330
747D
100
AcDbEntity
  8
部品1
 48
50.0
100
AcDbLine
 10
2243.849684593799
 20
3972.699508354801
 30
0.0
 11
2243.849684593799
 21
3704.104794172358
 31
0.0000000000000006
  0
LINE
  5
13F80
330
747D
100
AcDbEntity
  8
部品1
 48
50.0
100
AcDbLine
 10
2643.849684593799
 20
3972.699508354801
 30
0.0
 11
2643.849684593799
 21
3704.104794172358
 31
0.0000000000000006
  0
LINE
  5
13F81
330
747D
100
AcDbEntity
  8
部品1
 48
50.0
100
AcDbLine
 10
1843.849684593799
 20
3972.699508354801
 30
0.0
 11
1843.849684593799
 21
3704.104794172358
 31
0.0000000000000006
  0
LINE
  5
13F82
330
747D
100
AcDbEntity
  8
部品1
 48
50.0
100
AcDbLine
 10
4643.849684593805
 20
3972.699508354801
 30
0.0
 11
4643.849684593805
 21
3704.104794172358
 31
0.0000000000000006
  0
LINE
  5
13F83
330
747D
100
AcDbEntity
  8
部品1
 48
50.0
100
AcDbLine
 10
3843.849684593799
 20
3972.699508354801
 30
0.0
 11
3843.849684593799
 21
3704.104794172358
 31
0.0000000000000006
  0
LINE
  5
13F84
330
747D
100
AcDbEntity
  8
部品1
 48
50.0
100
AcDbLine
 10
4243.849684593799
 20
3972.699508354801
 30
0.0
 11
4243.849684593799
 21
3704.104794172358
 31
0.0000000000000006
  0
LINE
  5
13F85
330
747D
100
AcDbEntity
  8
部品1
 48
50.0
100
AcDbLine
 10
5443.849684593806
 20
3972.699508354801
 30
0.0
 11
5443.849684593806
 21
3704.104794172358
 31
0.0000000000000006
  0
LINE
  5
13F86
330
747D
100
AcDbEntity
  8
部品1
 48
50.0
100
AcDbLine
 10
5043.849684593806
 20
3972.699508354801
 30
0.0
 11
5043.849684593806
 21
3704.104794172358
 31
0.0000000000000006
  0
LINE
  5
13F87
330
747D
100
AcDbEntity
  8
部品1
 48
50.0
100
AcDbLine
 10
5843.849684593806
 20
3972.699508354801
 30
0.0
 11
5843.849684593806
 21
3704.104794172358
 31
0.0000000000000006
  0
LINE
  5
13F88
330
747D
100
AcDbEntity
  8
部品1
 48
50.0
100
AcDbLine
 10
6243.849684593806
 20
3972.699508354801
 30
0.0
 11
6243.849684593806
 21
3704.104794172358
 31
0.0000000000000006
  0
LINE
  5
13F89
330
747D
100
AcDbEntity
  8
センター
 48
0.5
100
AcDbLine
 10
1292.464440328084
 20
7512.716718364734
 30
0.0
 11
1492.464440328084
 21
7512.716718364734
 31
0.0
  0
LINE
  5
13F8A
330
747D
100
AcDbEntity
  8
センター
 48
0.5
100
AcDbLine
 10
1292.464440328084
 20
6829.716718364733
 30
0.0
 11
1492.464440328084
 21
6829.716718364733
 31
0.0
  0
LINE
  5
13F8B
330
747D
100
AcDbEntity
  8
センター
 48
0.5
100
AcDbLine
 10
1292.464440328084
 20
6146.716718364732
 30
0.0
 11
1492.464440328084
 21
6146.716718364732
 31
0.0
  0
DIMENSION
  5
13F8C
330
747D
100
AcDbEntity
  8
寸法
 48
50.0
100
AcDbDimension
  2
*D20
 10
6945.303227268232
 20
1867.640018622876
 30
0.0
 11
6945.303227268232
 21
2147.175451693752
 31
0.0
 70
   160
 71
     5
 42
49.99999999999818
  3
INABA_S30G
100
AcDbAlignedDimension
 13
6640.964440327967
 23
1917.640018622875
 33
0.0
 14
6650.964440327967
 24
1867.640018622876
 34
0.0
 50
90.0
100
AcDbRotatedDimension
1001
ACAD
1000
DSTYLE
1002
{
1070
   341
1005
0
1002
}
  0
DIMENSION
  5
13F8D
330
747D
100
AcDbEntity
  8
寸法
 48
50.0
100
AcDbDimension
  2
*D21
 10
8101.226630983321
 20
4169.640018622875
 30
0.0
 11
8026.217772715604
 21
3018.640018622877
 31
0.0
 70
    32
 71
     5
 42
2302.0
  3
INABA_S30G
100
AcDbAlignedDimension
 13
8683.399709002463
 23
1867.640018622876
 33
0.0
 14
8717.646053869234
 24
4169.640018622875
 34
0.0
 50
90.0
100
AcDbRotatedDimension
1001
ACAD
1000
DSTYLE
1002
{
1070
   341
1005
0
1002
}
  0
TEXT
  5
13F8E
330
747D
100
AcDbEntity
  8
文字
 48
50.0
100
AcDbText
 10
9931.747829825312
 20
4119.074578119725
 30
0.0
 40
90.0
  1
70
 50
90.0
  7
STYLE1
100
AcDbText
  0
TEXT
  5
13F8F
330
747D
100
AcDbEntity
  8
文字
 48
50.0
100
AcDbText
 10
9565.913127291294
 20
4229.087314786066
 30
0.0
 40
90.0
  1
1000
  7
STYLE1
100
AcDbText
  0
LINE
  5
13F90
330
747D
100
AcDbEntity
  8
部品1
 48
50.0
100
AcDbLine
 10
9811.839323287568
 20
4198.206669342883
 30
0.0
 11
9811.839323287568
 21
4184.516931872715
 31
0.0
  0
LINE
  5
13F91
330
747D
100
AcDbEntity
  8
部品1
 48
50.0
100
AcDbLine
 10
9571.839323287568
 20
4198.206669342883
 30
0.0
 11
9811.839323287568
 21
4198.206669342883
 31
0.0
  0
LINE
  5
13F92
330
747D
100
AcDbEntity
  8
部品1
 48
50.0
100
AcDbLine
 10
9811.839323287568
 20
4184.516931872715
 30
0.0
 11
9571.839323287568
 21
4198.206669342883
 31
0.0
  0
LINE
  5
13F93
330
747D
100
AcDbEntity
  8
細線
 48
50.0
100
AcDbLine
 10
2261.738330060667
 20
1867.640018622878
 30
0.0
 11
2311.738330060667
 21
1917.640018622878
 31
0.0
  0
LINE
  5
13F94
330
747D
100
AcDbEntity
  8
細線
 48
50.0
100
AcDbLine
 10
2234.79755006067
 20
1867.640018622878
 30
0.0
 11
2284.797550060662
 21
1917.640018622878
 31
0.0
  0
LINE
  5
13F95
330
747D
100
AcDbEntity
  8
細線
 48
50.0
100
AcDbLine
 10
2207.856770060665
 20
1867.640018622878
 30
0.0
 11
2257.856770060666
 21
1917.640018622878
 31
0.0
  0
LINE
  5
13F96
330
747D
100
AcDbEntity
  8
細線
 48
50.0
100
AcDbLine
 10
3007.856770060666
 20
1867.640018622878
 30
0.0
 11
3057.856770060666
 21
1917.640018622878
 31
0.0
  0
LINE
  5
13F97
330
747D
100
AcDbEntity
  8
細線
 48
50.0
100
AcDbLine
 10
3034.79755006067
 20
1867.640018622878
 30
0.0
 11
3084.797550060663
 21
1917.640018622878
 31
0.0
  0
LINE
  5
13F98
330
747D
100
AcDbEntity
  8
細線
 48
50.0
100
AcDbLine
 10
3061.738330060667
 20
1867.640018622878
 30
0.0
 11
3111.738330060668
 21
1917.640018622878
 31
0.0
  0
LINE
  5
13F99
330
747D
100
AcDbEntity
  8
細線
 48
50.0
100
AcDbLine
 10
4661.73833006066
 20
1867.640018622878
 30
0.0
 11
4711.73833006066
 21
1917.640018622878
 31
0.0
  0
LINE
  5
13F9A
330
747D
100
AcDbEntity
  8
細線
 48
50.0
100
AcDbLine
 10
4634.79755006067
 20
1867.640018622878
 30
0.0
 11
4684.79755006067
 21
1917.640018622878
 31
0.0
  0
LINE
  5
13F9B
330
747D
100
AcDbEntity
  8
細線
 48
50.0
100
AcDbLine
 10
4607.856770060665
 20
1867.640018622878
 30
0.0
 11
4657.856770060665
 21
1917.640018622878
 31
0.0
  0
LINE
  5
13F9C
330
747D
100
AcDbEntity
  8
細線
 48
50.0
100
AcDbLine
 10
3807.856770060666
 20
1867.640018622878
 30
0.0
 11
3857.856770060666
 21
1917.640018622878
 31
0.0
  0
LINE
  5
13F9D
330
747D
100
AcDbEntity
  8
細線
 48
50.0
100
AcDbLine
 10
3834.79755006067
 20
1867.640018622878
 30
0.0
 11
3884.797550060663
 21
1917.640018622878
 31
0.0
  0
LINE
  5
13F9E
330
747D
100
AcDbEntity
  8
細線
 48
50.0
100
AcDbLine
 10
3861.738330060667
 20
1867.640018622878
 30
0.0
 11
3911.738330060667
 21
1917.640018622878
 31
0.0
  0
LINE
  5
13F9F
330
747D
100
AcDbEntity
  8
細線
 48
50.0
100
AcDbLine
 10
5461.73833006066
 20
1867.640018622878
 30
0.0
 11
5511.738330060659
 21
1917.640018622878
 31
0.0
  0
LINE
  5
13FA0
330
747D
100
AcDbEntity
  8
細線
 48
50.0
100
AcDbLine
 10
5434.79755006067
 20
1867.640018622878
 30
0.0
 11
5484.79755006067
 21
1917.640018622878
 31
0.0
  0
LINE
  5
13FA1
330
747D
100
AcDbEntity
  8
細線
 48
50.0
100
AcDbLine
 10
5407.856770060665
 20
1867.640018622878
 30
0.0
 11
5457.856770060665
 21
1917.640018622878
 31
0.0
  0
LINE
  5
13FA2
330
747D
100
AcDbEntity
  8
細線
 48
50.0
100
AcDbLine
 10
6207.856770060665
 20
1867.640018622878
 30
0.0
 11
6257.856770060666
 21
1917.640018622878
 31
0.0
  0
LINE
  5
13FA3
330
747D
100
AcDbEntity
  8
細線
 48
50.0
100
AcDbLine
 10
6234.79755006067
 20
1867.640018622878
 30
0.0
 11
6284.79755006067
 21
1917.640018622878
 31
0.0
  0
LINE
  5
13FA4
330
747D
100
AcDbEntity
  8
細線
 48
50.0
100
AcDbLine
 10
6261.738330060659
 20
1867.640018622878
 30
0.0
 11
6311.738330060659
 21
1917.640018622878
 31
0.0
  0
LINE
  5
13FA5
330
747D
100
AcDbEntity
  8
部品1
 48
5.0
100
AcDbLine
 10
4221.964440328011
 20
3639.104794172371
 30
0.0000000000000006
 11
4065.514440327969
 21
3639.10479417237
 31
0.0000000000000006
  0
LINE
  5
13FA6
330
747D
100
AcDbEntity
  8
部品1
 48
50.0
100
AcDbLine
 10
4249.464440327996
 20
4081.037557628798
 30
0.0
 11
4249.464440327996
 21
3972.699508354796
 31
0.0
  0
LINE
  5
13FA7
330
747D
100
AcDbEntity
  8
部品1
 48
50.0
100
AcDbLine
 10
3797.079196062194
 20
7705.556583034955
 30
0.000000000000001
 11
3797.079196062208
 21
7881.685095933757
 31
0.0
  0
ENDSEC
  0
SECTION
  2
OBJECTS
  0
DICTIONARY
  5
7471
330
0
100
AcDbDictionary
281
     1
  3
ACAD_COLOR
350
1341D
  3
ACAD_GROUP
350
7472
  3
ACAD_LAYOUT
350
1341E
  3
ACAD_MATERIAL
350
1341C
  3
ACAD_MLINESTYLE
350
7473
  3
ACAD_PLOTSETTINGS
350
1341F
  3
ACAD_PLOTSTYLENAME
350
1341A
  3
AcadDim
350
13618
  3
ACDBHEADERROUNDTRIPXREC
350
141AD
  3
AcDbVariableDictionary
350
13533
  3
CONTENTDICTIONARY
350
E71C
  3
DRAWINGVARIABLESDICT
350
F3B9
  0
DICTIONARY
  5
13451
330
7467
100
AcDbDictionary
280
     1
281
     1
  3
ACAD_LAYERFILTERS
360
1356A
  3
ACAD_LAYERSTATES
360
13452
  0
DICTIONARY
  5
1341D
102
{ACAD_REACTORS
330
7471
102
}
330
7471
100
AcDbDictionary
281
     1
  0
DICTIONARY
  5
7472
102
{ACAD_REACTORS
330
7471
102
}
330
7471
100
AcDbDictionary
281
     1
  0
DICTIONARY
  5
1341E
102
{ACAD_REACTORS
330
7471
102
}
330
7471
100
AcDbDictionary
281
     1
  3
Model
350
13420
  3
レイアウト1
350
13421
  0
DICTIONARY
  5
1341C
102
{ACAD_REACTORS
330
7471
102
}
330
7471
100
AcDbDictionary
281
     1
  0
DICTIONARY
  5
7473
102
{ACAD_REACTORS
330
7471
102
}
330
7471
100
AcDbDictionary
281
     1
  3
STANDARD
350
7480
  0
DICTIONARY
  5
1341F
102
{ACAD_REACTORS
330
7471
102
}
330
7471
100
AcDbDictionary
281
     1
  0
ACDBDICTIONARYWDFLT
  5
1341A
102
{ACAD_REACTORS
330
7471
102
}
330
7471
100
AcDbDictionary
281
     1
  3
Normal
350
1341B
100
AcDbDictionaryWithDefault
340
1341B
  0
XRECORD
  5
13618
102
{ACAD_REACTORS
330
7471
102
}
330
7471
100
AcDbXrecord
280
     1
 90
   990106
  3

 60
     0
 61
     0
 62
     1
 63
     3
 64
     0
 65
     0
 66
     0
 67
     3
 68
     1
 69
     0
 70
     0
 71
     0
 72
     0
 40
0.0
170
     0
  0
DICTIONARY
  5
141AD
102
{ACAD_REACTORS
330
7471
102
}
330
7471
100
AcDbDictionary
281
     1
  3
COLORDICT
350
141AF
  3
MATERIALDICT
350
141AE
  0
DICTIONARY
  5
13533
102
{ACAD_REACTORS
330
7471
102
}
330
7471
100
AcDbDictionary
281
     1
  3
DIMASSOC
350
13534
  3
PROJECTNAME
350
13535
  0
DICTIONARY
  5
E71C
102
{ACAD_REACTORS
330
7471
102
}
330
7471
100
AcDbDictionary
281
     1
  0
DICTIONARY
  5
F3B9
102
{ACAD_REACTORS
330
7471
102
}
330
7471
100
AcDbDictionary
281
     1
1001
DRAWINGVARIABLESXDATA
1000
POLARMODE
1000
1
  0
DICTIONARY
  5
1356A
102
{ACAD_REACTORS
330
13451
102
}
330
13451
100
AcDbDictionary
281
     1
  0
DICTIONARY
  5
13452
102
{ACAD_REACTORS
330
13451
102
}
330
13451
100
AcDbDictionary
281
     1
  0
LAYOUT
  5
13420
102
{ACAD_XDICTIONARY
360
141B0
102
}
102
{ACAD_REACTORS
330
1341E
102
}
330
1341E
100
AcDbPlotSettings
  1

  2
CutePDF Writer
  4
A3
  6

 40
3.174999952316284
 41
3.174999952316284
 42
3.17498779296875
 43
3.17498779296875
 44
297.0530090332031
 45
420.1583251953125
 46
0.0
 47
0.0
 48
0.0
 49
0.0
140
0.0
141
0.0
142
1.0
143
30.0
 70
 11952
 72
     1
 73
     1
 74
     2
  7
inaba.ctb
 75
    23
147
0.0333333333333333
148
0.0
149
0.0
100
AcDbLayout
  1
Model
 70
     1
 71
     0
 10
0.0
 20
0.0
 11
12.0
 21
9.0
 12
0.0
 22
0.0
 32
0.0
 14
0.0
 24
0.0
 34
0.0
 15
0.0
 25
0.0
 35
0.0
146
0.0
 13
0.0
 23
0.0
 33
0.0
 16
1.0
 26
0.0
 36
0.0
 17
0.0
 27
1.0
 37
0.0
 76
     0
330
747D
  0
LAYOUT
  5
13421
102
{ACAD_XDICTIONARY
360
141B2
102
}
102
{ACAD_REACTORS
330
1341E
102
}
330
1341E
100
AcDbPlotSettings
  1

  2
Microsoft Office Document Image Writer
  4

  6

 40
0.0
 41
0.0
 42
0.0
 43
0.0
 44
0.0
 45
0.0
 46
0.0
 47
0.0
 48
0.0
 49
0.0
140
0.0
141
0.0
142
1.0
143
1.0
 70
   688
 72
     0
 73
     0
 74
     5
  7
inaba.ctb
 75
    16
147
1.0
148
0.0
149
0.0
100
AcDbLayout
  1
レイアウト1
 70
     0
 71
     1
 10
0.0
 20
0.0
 11
420.0
 21
297.0
 12
0.0
 22
0.0
 32
0.0
 14
1.000000000000000E+20
 24
1.000000000000000E+20
 34
1.000000000000000E+20
 15
-1.000000000000000E+20
 25
-1.000000000000000E+20
 35
-1.000000000000000E+20
146
0.0
 13
0.0
 23
0.0
 33
0.0
 16
1.0
 26
0.0
 36
0.0
 17
0.0
 27
1.0
 37
0.0
 76
     0
330
747A
  0
MLINESTYLE
  5
7480
102
{ACAD_REACTORS
330
7473
102
}
330
7473
100
AcDbMlineStyle
  2
STANDARD
 70
     0
  3

 62
     0
 51
90.0
 52
90.0
 71
     2
 49
0.5
 62
   256
  6
BYLAYER
 49
-0.5
 62
   256
  6
BYLAYER
  0
ACDBPLACEHOLDER
  5
1341B
102
{ACAD_REACTORS
330
1341A
102
}
330
1341A
  0
XRECORD
  5
141AF
102
{ACAD_REACTORS
330
141AD
102
}
330
141AD
100
AcDbXrecord
280
     1
340
1341D
  0
XRECORD
  5
141AE
102
{ACAD_REACTORS
330
141AD
102
}
330
141AD
100
AcDbXrecord
280
     1
340
1341C
  0
DICTIONARYVAR
  5
13534
102
{ACAD_REACTORS
330
13533
102
}
330
13533
100
DictionaryVariables
280
     0
  1
1
  0
DICTIONARYVAR
  5
13535
102
{ACAD_REACTORS
330
13533
102
}
330
13533
100
DictionaryVariables
280
     0
  1

  0
DICTIONARY
  5
141B0
330
13420
100
AcDbDictionary
280
     1
281
     1
  3
ACAD_XREC_ROUNDTRIP
360
141B1
  0
DICTIONARY
  5
141B2
330
13421
100
AcDbDictionary
280
     1
281
     1
  3
ACAD_XREC_ROUNDTRIP
360
141B3
  0
XRECORD
  5
141B1
102
{ACAD_REACTORS
330
141B0
102
}
330
141B0
100
AcDbXrecord
280
     1
102
SHADEPLOT
 70
     0
102
SHADEPLOTRESLEVEL
 70
     2
102
SHADEPLOTCUSTOMDPI
 70
   300
  0
XRECORD
  5
141B3
102
{ACAD_REACTORS
330
141B2
102
}
330
141B2
100
AcDbXrecord
280
     1
102
SHADEPLOT
 70
     0
102
SHADEPLOTRESLEVEL
 70
     2
102
SHADEPLOTCUSTOMDPI
 70
   300
  0
ENDSEC
  0
EOF
