  0
SECTION
  2
HEADER
  9
$ACADVER
  1
AC1015
  9
$ACADMAINTVER
 70
    20
  9
$DWGCODEPAGE
  3
ANSI_932
  9
$INSBASE
 10
0.0
 20
0.0
 30
0.0
  9
$EXTMIN
 10
104.9999999999996
 20
0.0
 30
0.0
  9
$EXTMAX
 10
12230.4
 20
8557.199999999999
 30
0.0000000000026306
  9
$LIMMIN
 10
0.0
 20
0.0
  9
$LIMMAX
 10
12600.0
 20
8910.0
  9
$ORTHOMODE
 70
     0
  9
$REGENMODE
 70
     1
  9
$FILLMODE
 70
     1
  9
$QTEXTMODE
 70
     0
  9
$MIRRTEXT
 70
     1
  9
$LTSCALE
 40
7.0
  9
$ATTMODE
 70
     1
  9
$TEXTSIZE
 40
100.0
  9
$TRACEWID
 40
1.0
  9
$TEXTSTYLE
  7
STYLE3
  9
$CLAYER
  8
補助
  9
$CELTYPE
  6
BYLAYER
  9
$CECOLOR
 62
   256
  9
$CELTSCALE
 40
50.0
  9
$DISPSILH
 70
     0
  9
$DIMSCALE
 40
30.0
  9
$DIMASZ
 40
2.5
  9
$DIMEXO
 40
0.5
  9
$DIMDLI
 40
7.0
  9
$DIMRND
 40
0.0
  9
$DIMDLE
 40
0.0
  9
$DIMEXE
 40
1.5
  9
$DIMTP
 40
0.0
  9
$DIMTM
 40
0.0
  9
$DIMTXT
 40
3.0
  9
$DIMCEN
 40
0.0
  9
$DIMTSZ
 40
0.0
  9
$DIMTOL
 70
     0
  9
$DIMLIM
 70
     0
  9
$DIMTIH
 70
     1
  9
$DIMTOH
 70
     1
  9
$DIMSE1
 70
     0
  9
$DIMSE2
 70
     0
  9
$DIMTAD
 70
     3
  9
$DIMZIN
 70
     8
  9
$DIMBLK
  1

  9
$DIMASO
 70
     1
  9
$DIMSHO
 70
     1
  9
$DIMPOST
  1

  9
$DIMAPOST
  1

  9
$DIMALT
 70
     0
  9
$DIMALTD
 70
     2
  9
$DIMALTF
 40
0.0394
  9
$DIMLFAC
 40
1.0
  9
$DIMTOFL
 70
     1
  9
$DIMTVP
 40
0.0
  9
$DIMTIX
 70
     1
  9
$DIMSOXD
 70
     1
  9
$DIMSAH
 70
     1
  9
$DIMBLK1
  1
DOTSMALL
  9
$DIMBLK2
  1
DOTSMALL
  9
$DIMSTYLE
  2
INABA_S30G
  9
$DIMCLRD
 70
     0
  9
$DIMCLRE
 70
     0
  9
$DIMCLRT
 70
     7
  9
$DIMTFAC
 40
1.0
  9
$DIMGAP
 40
1.0
  9
$DIMJUST
 70
     0
  9
$DIMSD1
 70
     0
  9
$DIMSD2
 70
     0
  9
$DIMTOLJ
 70
     1
  9
$DIMTZIN
 70
     0
  9
$DIMALTZ
 70
     0
  9
$DIMALTTZ
 70
     0
  9
$DIMUPT
 70
     0
  9
$DIMDEC
 70
     1
  9
$DIMTDEC
 70
     1
  9
$DIMALTU
 70
     2
  9
$DIMALTTD
 70
     2
  9
$DIMTXSTY
  7
STYLE1
  9
$DIMAUNIT
 70
     0
  9
$DIMADEC
 70
     0
  9
$DIMALTRND
 40
0.0
  9
$DIMAZIN
 70
     0
  9
$DIMDSEP
 70
    46
  9
$DIMATFIT
 70
     3
  9
$DIMFRAC
 70
     0
  9
$DIMLDRBLK
  1

  9
$DIMLUNIT
 70
     2
  9
$DIMLWD
 70
    -2
  9
$DIMLWE
 70
    -2
  9
$DIMTMOVE
 70
     0
  9
$LUNITS
 70
     2
  9
$LUPREC
 70
     1
  9
$SKETCHINC
 40
1.0
  9
$FILLETRAD
 40
5.0
  9
$AUNITS
 70
     0
  9
$AUPREC
 70
     0
  9
$MENU
  1
acad
  9
$ELEVATION
 40
0.0
  9
$PELEVATION
 40
0.0
  9
$THICKNESS
 40
0.0
  9
$LIMCHECK
 70
     0
  9
$CHAMFERA
 40
0.0
  9
$CHAMFERB
 40
0.0
  9
$CHAMFERC
 40
0.0
  9
$CHAMFERD
 40
0.0
  9
$SKPOLY
 70
     0
  9
$TDCREATE
 40
2451074.411873148
  9
$TDUCREATE
 40
2451074.036873148
  9
$TDUPDATE
 40
2456560.838474040
  9
$TDUUPDATE
 40
2456560.463474040
  9
$TDINDWG
 40
0.3430131829
  9
$TDUSRTIMER
 40
0.3430131829
  9
$USRTIMER
 70
     1
  9
$ANGBASE
 50
0.0
  9
$ANGDIR
 70
     0
  9
$PDMODE
 70
     3
  9
$PDSIZE
 40
2.0
  9
$PLINEWID
 40
0.0
  9
$SPLFRAME
 70
     0
  9
$SPLINETYPE
 70
     6
  9
$SPLINESEGS
 70
     8
  9
$HANDSEED
  5
162A1
  9
$SURFTAB1
 70
     6
  9
$SURFTAB2
 70
     6
  9
$SURFTYPE
 70
     6
  9
$SURFU
 70
     6
  9
$SURFV
 70
     6
  9
$UCSBASE
  2

  9
$UCSNAME
  2

  9
$UCSORG
 10
0.0
 20
0.0
 30
0.0
  9
$UCSXDIR
 10
1.0
 20
0.0
 30
0.0
  9
$UCSYDIR
 10
0.0
 20
1.0
 30
0.0
  9
$UCSORTHOREF
  2

  9
$UCSORTHOVIEW
 70
     0
  9
$UCSORGTOP
 10
0.0
 20
0.0
 30
0.0
  9
$UCSORGBOTTOM
 10
0.0
 20
0.0
 30
0.0
  9
$UCSORGLEFT
 10
0.0
 20
0.0
 30
0.0
  9
$UCSORGRIGHT
 10
0.0
 20
0.0
 30
0.0
  9
$UCSORGFRONT
 10
0.0
 20
0.0
 30
0.0
  9
$UCSORGBACK
 10
0.0
 20
0.0
 30
0.0
  9
$PUCSBASE
  2

  9
$PUCSNAME
  2

  9
$PUCSORG
 10
0.0
 20
0.0
 30
0.0
  9
$PUCSXDIR
 10
1.0
 20
0.0
 30
0.0
  9
$PUCSYDIR
 10
0.0
 20
1.0
 30
0.0
  9
$PUCSORTHOREF
  2

  9
$PUCSORTHOVIEW
 70
     0
  9
$PUCSORGTOP
 10
0.0
 20
0.0
 30
0.0
  9
$PUCSORGBOTTOM
 10
0.0
 20
0.0
 30
0.0
  9
$PUCSORGLEFT
 10
0.0
 20
0.0
 30
0.0
  9
$PUCSORGRIGHT
 10
0.0
 20
0.0
 30
0.0
  9
$PUCSORGFRONT
 10
0.0
 20
0.0
 30
0.0
  9
$PUCSORGBACK
 10
0.0
 20
0.0
 30
0.0
  9
$USERI1
 70
     0
  9
$USERI2
 70
     0
  9
$USERI3
 70
     0
  9
$USERI4
 70
     0
  9
$USERI5
 70
     0
  9
$USERR1
 40
0.0
  9
$USERR2
 40
0.0
  9
$USERR3
 40
0.0
  9
$USERR4
 40
0.0
  9
$USERR5
 40
0.0
  9
$WORLDVIEW
 70
     1
  9
$SHADEDGE
 70
     3
  9
$SHADEDIF
 70
    70
  9
$TILEMODE
 70
     1
  9
$MAXACTVP
 70
    16
  9
$PINSBASE
 10
0.0
 20
0.0
 30
0.0
  9
$PLIMCHECK
 70
     0
  9
$PEXTMIN
 10
1.000000000000000E+20
 20
1.000000000000000E+20
 30
1.000000000000000E+20
  9
$PEXTMAX
 10
-1.000000000000000E+20
 20
-1.000000000000000E+20
 30
-1.000000000000000E+20
  9
$PLIMMIN
 10
0.0
 20
0.0
  9
$PLIMMAX
 10
420.0
 20
297.0
  9
$UNITMODE
 70
     0
  9
$VISRETAIN
 70
     0
  9
$PLINEGEN
 70
     0
  9
$PSLTSCALE
 70
     0
  9
$TREEDEPTH
 70
  3020
  9
$CMLSTYLE
  2
STANDARD
  9
$CMLJUST
 70
     0
  9
$CMLSCALE
 40
1.0
  9
$PROXYGRAPHICS
 70
     1
  9
$MEASUREMENT
 70
     1
  9
$CELWEIGHT
370
    -1
  9
$ENDCAPS
280
     0
  9
$JOINSTYLE
280
     0
  9
$LWDISPLAY
290
     0
  9
$INSUNITS
 70
     0
  9
$HYPERLINKBASE
  1

  9
$STYLESHEET
  1
inaba.ctb
  9
$XEDIT
290
     1
  9
$CEPSNTYPE
380
     0
  9
$PSTYLEMODE
290
     1
  9
$FINGERPRINTGUID
  2
{696AEDA2-CF37-4C16-A548-8F3E259D4281}
  9
$VERSIONGUID
  2
{AB2A7EB9-2F32-449D-835C-7952376C9DE5}
  9
$EXTNAMES
290
     1
  9
$PSVPSCALE
 40
0.0
  9
$OLESTARTUP
290
     0
  0
ENDSEC
  0
SECTION
  2
CLASSES
  0
CLASS
  1
ACDBDICTIONARYWDFLT
  2
AcDbDictionaryWithDefault
  3
ObjectDBX Classes
 90
        0
280
     0
281
     0
  0
CLASS
  1
DICTIONARYVAR
  2
AcDbDictionaryVar
  3
ObjectDBX Classes
 90
        0
280
     0
281
     0
  0
CLASS
  1
MATERIAL
  2
AcDbMaterial
  3
ObjectDBX Classes
 90
     1153
280
     0
281
     0
  0
CLASS
  1
VISUALSTYLE
  2
AcDbVisualStyle
  3
ObjectDBX Classes
 90
     4095
280
     0
281
     0
  0
CLASS
  1
TABLESTYLE
  2
AcDbTableStyle
  3
ObjectDBX Classes
 90
     4095
280
     0
281
     0
  0
CLASS
  1
SCALE
  2
AcDbScale
  3
ObjectDBX Classes
 90
     1153
280
     0
281
     0
  0
CLASS
  1
MLEADERSTYLE
  2
AcDbMLeaderStyle
  3
ACDB_MLEADERSTYLE_CLASS
 90
     4095
280
     0
281
     0
  0
CLASS
  1
ACDBSECTIONVIEWSTYLE
  2
AcDbSectionViewStyle
  3
ObjectDBX Classes
 90
     1025
280
     0
281
     0
  0
CLASS
  1
ACDBDETAILVIEWSTYLE
  2
AcDbDetailViewStyle
  3
ObjectDBX Classes
 90
     1025
280
     0
281
     0
  0
CLASS
  1
EXACXREFPANELOBJECT
  2
ExAcXREFPanelObject
  3
EXAC_ESW
 90
    33793
280
     0
281
     0
  0
CLASS
  1
NPOCOLLECTION
  2
AcDbImpNonPersistentObjectsCollection
  3
ObjectDBX Classes
 90
    33921
280
     0
281
     0
  0
CLASS
  1
SORTENTSTABLE
  2
AcDbSortentsTable
  3
ObjectDBX Classes
 90
        0
280
     0
281
     0
  0
CLASS
  1
CELLSTYLEMAP
  2
AcDbCellStyleMap
  3
ObjectDBX Classes
 90
     1152
280
     0
281
     0
  0
CLASS
  1
ACDBPLACEHOLDER
  2
AcDbPlaceHolder
  3
ObjectDBX Classes
 90
        0
280
     0
281
     0
  0
CLASS
  1
LAYOUT
  2
AcDbLayout
  3
ObjectDBX Classes
 90
        0
280
     0
281
     0
  0
ENDSEC
  0
SECTION
  2
TABLES
  0
TABLE
  2
VPORT
  5
746D
102
{ACAD_XDICTIONARY
360
16175
102
}
330
0
100
AcDbSymbolTable
 70
     1
  0
VPORT
  5
13D53
330
746D
100
AcDbSymbolTableRecord
100
AcDbViewportTableRecord
  2
*Active
 70
     0
 10
0.0
 20
0.0
 11
1.0
 21
1.0
 12
6167.820768928882
 22
4278.587351989414
 13
0.0
 23
0.0
 14
10.0
 24
10.0
 15
10.0
 25
10.0
 16
0.0
 26
0.0
 36
1.0
 17
0.0
 27
0.0
 37
0.0
 40
8769.798945342948
 41
1.390896921017402
 42
50.0
 43
0.0
 44
0.0
 50
0.0
 51
0.0
 71
     0
 72
     0
 73
     1
 74
     0
 75
     0
 76
     0
 77
     0
 78
     0
281
     0
 65
     1
110
0.0
120
0.0
130
0.0
111
1.0
121
0.0
131
0.0
112
0.0
122
1.0
132
0.0
 79
     0
146
0.0
1001
ACAD_NAV_VCDISPLAY
1070
     3
  0
ENDTAB
  0
TABLE
  2
LTYPE
  5
746A
330
0
100
AcDbSymbolTable
 70
     3
  0
LTYPE
  5
7477
330
746A
100
AcDbSymbolTableRecord
100
AcDbLinetypeTableRecord
  2
BYBLOCK
 70
     0
  3

 72
    65
 73
     0
 40
0.0
  0
LTYPE
  5
7478
330
746A
100
AcDbSymbolTableRecord
100
AcDbLinetypeTableRecord
  2
BYLAYER
 70
     0
  3

 72
    65
 73
     0
 40
0.0
  0
LTYPE
  5
7479
330
746A
100
AcDbSymbolTableRecord
100
AcDbLinetypeTableRecord
  2
CONTINUOUS
 70
     0
  3
Solid line
 72
    65
 73
     0
 40
0.0
  0
LTYPE
  5
781B
330
746A
100
AcDbSymbolTableRecord
100
AcDbLinetypeTableRecord
  2
PHANTOM
 70
     0
  3
______  __  __  ______  __  __  ______  __  __ 
 72
    65
 73
     6
 40
2.5
 49
1.25
 74
     0
 49
-0.25
 74
     0
 49
0.25
 74
     0
 49
-0.25
 74
     0
 49
0.25
 74
     0
 49
-0.25
 74
     0
  0
LTYPE
  5
13571
330
746A
100
AcDbSymbolTableRecord
100
AcDbLinetypeTableRecord
  2
CENTER
 70
     0
  3
Center ____ _ ____ _ ____ _ ____ _ ____ _ ____
 72
    65
 73
     4
 40
50.8
 49
31.75
 74
     0
 49
-6.349999999999999
 74
     0
 49
6.349999999999999
 74
     0
 49
-6.349999999999999
 74
     0
  0
ENDTAB
  0
TABLE
  2
LAYER
  5
7467
102
{ACAD_XDICTIONARY
360
13451
102
}
330
0
100
AcDbSymbolTable
 70
    13
  0
LAYER
  5
7474
102
{ACAD_XDICTIONARY
360
16108
102
}
330
7467
100
AcDbSymbolTableRecord
100
AcDbLayerTableRecord
  2
0
 70
     0
 62
     7
  6
CONTINUOUS
370
    -3
390
1341B
  0
LAYER
  5
DEB3
102
{ACAD_XDICTIONARY
360
1610A
102
}
330
7467
100
AcDbSymbolTableRecord
100
AcDbLayerTableRecord
  2
寸法
 70
     0
 62
     4
  6
CONTINUOUS
370
    -3
390
1341B
  0
LAYER
  5
DEB4
102
{ACAD_XDICTIONARY
360
1610C
102
}
330
7467
100
AcDbSymbolTableRecord
100
AcDbLayerTableRecord
  2
部品1
 70
     0
 62
     7
  6
CONTINUOUS
370
    -3
390
1341B
  0
LAYER
  5
DEB5
102
{ACAD_XDICTIONARY
360
1610E
102
}
330
7467
100
AcDbSymbolTableRecord
100
AcDbLayerTableRecord
  2
補助
 70
     0
 62
    -1
  6
CONTINUOUS
370
    -3
390
1341B
  0
LAYER
  5
DEB6
102
{ACAD_XDICTIONARY
360
16110
102
}
330
7467
100
AcDbSymbolTableRecord
100
AcDbLayerTableRecord
  2
文字
 70
     0
 62
     7
  6
CONTINUOUS
370
    -3
390
1341B
  0
LAYER
  5
F255
330
7467
100
AcDbSymbolTableRecord
100
AcDbLayerTableRecord
  2
DEFPOINTS
 70
     0
 62
     7
  6
CONTINUOUS
290
     0
370
    -3
390
1341B
  0
LAYER
  5
10B54
102
{ACAD_XDICTIONARY
360
16112
102
}
330
7467
100
AcDbSymbolTableRecord
100
AcDbLayerTableRecord
  2
仕様書枠
 70
     0
 62
   230
  6
CONTINUOUS
370
    -3
390
1341B
  0
LAYER
  5
11729
102
{ACAD_XDICTIONARY
360
16114
102
}
330
7467
100
AcDbSymbolTableRecord
100
AcDbLayerTableRecord
  2
Ｇ．Ｌ
 70
     0
 62
    30
  6
CONTINUOUS
370
    -3
390
1341B
  0
LAYER
  5
1173F
102
{ACAD_XDICTIONARY
360
16116
102
}
330
7467
100
AcDbSymbolTableRecord
100
AcDbLayerTableRecord
  2
細線
 70
     0
 62
     5
  6
CONTINUOUS
370
    -3
390
1341B
  0
LAYER
  5
1356E
102
{ACAD_XDICTIONARY
360
1611A
102
}
330
7467
100
AcDbSymbolTableRecord
100
AcDbLayerTableRecord
  2
センター
 70
     0
 62
     3
  6
CENTER
370
    -3
390
1341B
  0
LAYER
  5
135FB
102
{ACAD_XDICTIONARY
360
1611C
102
}
330
7467
100
AcDbSymbolTableRecord
100
AcDbLayerTableRecord
  2
想像線
 70
     0
 62
     6
  6
PHANTOM
370
    -3
390
1341B
  0
LAYER
  5
13810
102
{ACAD_XDICTIONARY
360
1611E
102
}
330
7467
100
AcDbSymbolTableRecord
100
AcDbLayerTableRecord
  2
U7
 70
     0
 62
     2
  6
CONTINUOUS
370
    -3
390
1341B
  0
LAYER
  5
13811
102
{ACAD_XDICTIONARY
360
16120
102
}
330
7467
100
AcDbSymbolTableRecord
100
AcDbLayerTableRecord
  2
KIN-T
 70
     0
 62
     3
  6
CONTINUOUS
370
    -3
390
1341B
  0
ENDTAB
  0
TABLE
  2
STYLE
  5
7468
330
0
100
AcDbSymbolTable
 70
     5
  0
STYLE
  5
7475
330
7468
100
AcDbSymbolTableRecord
100
AcDbTextStyleTableRecord
  2
STANDARD
 70
     0
 40
0.0
 41
1.0
 50
0.0
 71
     0
 42
4.0
  3
txt
  4
C:\AutoCAD LT\bigfont.shx
  0
STYLE
  5
763C
330
7468
100
AcDbSymbolTableRecord
100
AcDbTextStyleTableRecord
  2
MSMINCHO
 70
     0
 40
0.0
 41
1.0
 50
0.0
 71
     0
 42
1.199999999999999
  3
C:\AutoCAD LT\msminch2.TTF
  4

  0
STYLE
  5
F706
330
7468
100
AcDbSymbolTableRecord
100
AcDbTextStyleTableRecord
  2
STYLE1
 70
     0
 40
0.0
 41
1.0
 50
0.0
 71
     0
 42
4.0
  3
isocp.shx
  4
bigfont.shx
  0
STYLE
  5
103BF
330
7468
100
AcDbSymbolTableRecord
100
AcDbTextStyleTableRecord
  2
STYLE2
 70
     0
 40
0.0
 41
1.0
 50
0.0
 71
     0
 42
100.0
  3

  4

1001
ACAD
1000
MS PGothic
1071
    32818
  0
STYLE
  5
10BAA
330
7468
100
AcDbSymbolTableRecord
100
AcDbTextStyleTableRecord
  2
STYLE3
 70
     0
 40
0.0
 41
1.0
 50
0.0
 71
     0
 42
100.0
  3

  4

1001
ACAD
1000
MS PGothic
1071
    32818
  0
ENDTAB
  0
TABLE
  2
VIEW
  5
746B
330
0
100
AcDbSymbolTable
 70
     0
  0
ENDTAB
  0
TABLE
  2
UCS
  5
746C
330
0
100
AcDbSymbolTable
 70
     0
  0
ENDTAB
  0
TABLE
  2
APPID
  5
746E
330
0
100
AcDbSymbolTable
 70
    12
  0
APPID
  5
7476
330
746E
100
AcDbSymbolTableRecord
100
AcDbRegAppTableRecord
  2
ACAD
 70
     0
  0
APPID
  5
DEA9
330
746E
100
AcDbSymbolTableRecord
100
AcDbRegAppTableRecord
  2
CONTENTBLOCKICON
 70
     0
  0
APPID
  5
DEAA
330
746E
100
AcDbSymbolTableRecord
100
AcDbRegAppTableRecord
  2
CONTENTBLOCKDESCRIPTION
 70
     0
  0
APPID
  5
E71D
330
746E
100
AcDbSymbolTableRecord
100
AcDbRegAppTableRecord
  2
CONTENTTABDATA
 70
     0
  0
APPID
  5
E71E
330
746E
100
AcDbSymbolTableRecord
100
AcDbRegAppTableRecord
  2
CONTENTCURRENTTAB
 70
     0
  0
APPID
  5
F3BA
330
746E
100
AcDbSymbolTableRecord
100
AcDbRegAppTableRecord
  2
DRAWINGVARIABLESXDATA
 70
     0
  0
APPID
  5
14538
330
746E
100
AcDbSymbolTableRecord
100
AcDbRegAppTableRecord
  2
ACAD_NAV_VCDISPLAY
 70
     0
  0
APPID
  5
14539
330
746E
100
AcDbSymbolTableRecord
100
AcDbRegAppTableRecord
  2
GradientColor1ACI
 70
     0
  0
APPID
  5
1453A
330
746E
100
AcDbSymbolTableRecord
100
AcDbRegAppTableRecord
  2
GradientColor2ACI
 70
     0
  0
APPID
  5
15E18
330
746E
100
AcDbSymbolTableRecord
100
AcDbRegAppTableRecord
  2
AcadAnnoMonitorAlertIconDisabled
 70
     0
  0
APPID
  5
15E19
330
746E
100
AcDbSymbolTableRecord
100
AcDbRegAppTableRecord
  2
ACAD_EXEMPT_FROM_CAD_STANDARDS
 70
     0
  0
APPID
  5
161AF
330
746E
100
AcDbSymbolTableRecord
100
AcDbRegAppTableRecord
  2
ACAD_MLEADERVER
 70
     0
  0
ENDTAB
  0
TABLE
  2
DIMSTYLE
  5
746F
330
0
100
AcDbSymbolTable
 70
     1
100
AcDbDimStyleTable
 71
     1
340
F71F
  0
DIMSTYLE
105
F71F
102
{ACAD_REACTORS
330
14F9F
330
14FA0
330
14FA1
330
14FA5
330
14FA6
330
14FA7
330
14FAB
330
14FAC
330
14FAD
330
14FAE
330
14FAF
330
14FB0
330
14FB1
330
14FB2
330
14FB3
330
14FB4
330
14FB5
330
14FB6
330
14FB7
330
14FB8
330
14BAE
330
14BAF
330
14BB0
330
14BB1
330
14BB2
330
14BB3
330
14C38
330
14C39
330
14C3A
330
15E51
330
15E70
330
15F4B
102
}
330
746F
100
AcDbSymbolTableRecord
100
AcDbDimStyleTableRecord
  2
INABA_S30G
 70
     0
 40
30.0
 41
2.5
 42
0.5
 43
7.0
 44
1.5
 73
     0
 74
     0
 77
     3
 78
     8
140
3.0
141
0.0
143
0.0394
147
1.0
172
     1
173
     1
174
     1
175
     1
178
     7
271
     1
340
F706
341
F770
343
F770
344
F770
  0
ENDTAB
  0
TABLE
  2
BLOCK_RECORD
  5
7466
330
0
100
AcDbSymbolTable
 70
    34
  0
BLOCK_RECORD
  5
747D
102
{ACAD_XDICTIONARY
360
15F72
102
}
330
7466
100
AcDbSymbolTableRecord
100
AcDbBlockTableRecord
  2
*MODEL_SPACE
340
13420
  0
BLOCK_RECORD
  5
747A
330
7466
100
AcDbSymbolTableRecord
100
AcDbBlockTableRecord
  2
*PAPER_SPACE
340
13421
  0
BLOCK_RECORD
  5
F770
330
7466
100
AcDbSymbolTableRecord
100
AcDbBlockTableRecord
  2
_DOTSMALL
340
0
102
{BLKREFS
331
15FF3
331
15FF4
331
15FFD
331
15FFE
331
16006
331
16007
331
16010
331
16011
331
16019
331
1601A
331
16022
331
16023
331
1602B
331
1602C
331
16034
331
16035
331
1603D
331
1603E
331
16046
331
16047
331
1604F
331
16050
331
16058
331
16059
331
16061
331
16062
331
1606A
331
1606B
331
16073
331
16074
331
1607C
331
1607D
331
16085
331
16086
331
1608E
331
1608F
331
16097
331
16098
331
1609F
331
160A6
331
160B5
331
160B6
331
160BF
331
160C0
331
160C8
331
160C9
331
160D1
331
160D2
331
160DA
331
160DB
331
160E3
331
160E4
331
160EC
331
160ED
331
160F7
331
160F8
331
16102
331
16103
102
}
  0
BLOCK_RECORD
  5
135E3
330
7466
100
AcDbSymbolTableRecord
100
AcDbBlockTableRecord
  2
_None
340
0
  0
BLOCK_RECORD
  5
15091
330
7466
100
AcDbSymbolTableRecord
100
AcDbBlockTableRecord
  2
*D2
340
0
  0
BLOCK_RECORD
  5
1509B
330
7466
100
AcDbSymbolTableRecord
100
AcDbBlockTableRecord
  2
*D3
340
0
  0
BLOCK_RECORD
  5
150A5
330
7466
100
AcDbSymbolTableRecord
100
AcDbBlockTableRecord
  2
*D4
340
0
  0
BLOCK_RECORD
  5
150D1
330
7466
100
AcDbSymbolTableRecord
100
AcDbBlockTableRecord
  2
*D5
340
0
  0
BLOCK_RECORD
  5
150DE
330
7466
100
AcDbSymbolTableRecord
100
AcDbBlockTableRecord
  2
*D6
340
0
  0
BLOCK_RECORD
  5
150EA
330
7466
100
AcDbSymbolTableRecord
100
AcDbBlockTableRecord
  2
*D7
340
0
  0
BLOCK_RECORD
  5
1511D
330
7466
100
AcDbSymbolTableRecord
100
AcDbBlockTableRecord
  2
*D8
340
0
  0
BLOCK_RECORD
  5
15129
330
7466
100
AcDbSymbolTableRecord
100
AcDbBlockTableRecord
  2
*D9
340
0
  0
BLOCK_RECORD
  5
15135
330
7466
100
AcDbSymbolTableRecord
100
AcDbBlockTableRecord
  2
*D10
340
0
  0
BLOCK_RECORD
  5
15141
330
7466
100
AcDbSymbolTableRecord
100
AcDbBlockTableRecord
  2
*D11
340
0
  0
BLOCK_RECORD
  5
1514D
330
7466
100
AcDbSymbolTableRecord
100
AcDbBlockTableRecord
  2
*D12
340
0
  0
BLOCK_RECORD
  5
15159
330
7466
100
AcDbSymbolTableRecord
100
AcDbBlockTableRecord
  2
*D13
340
0
  0
BLOCK_RECORD
  5
15165
330
7466
100
AcDbSymbolTableRecord
100
AcDbBlockTableRecord
  2
*D14
340
0
  0
BLOCK_RECORD
  5
15171
330
7466
100
AcDbSymbolTableRecord
100
AcDbBlockTableRecord
  2
*D15
340
0
  0
BLOCK_RECORD
  5
1517D
330
7466
100
AcDbSymbolTableRecord
100
AcDbBlockTableRecord
  2
*D16
340
0
  0
BLOCK_RECORD
  5
15189
330
7466
100
AcDbSymbolTableRecord
100
AcDbBlockTableRecord
  2
*D17
340
0
  0
BLOCK_RECORD
  5
15195
330
7466
100
AcDbSymbolTableRecord
100
AcDbBlockTableRecord
  2
*D18
340
0
  0
BLOCK_RECORD
  5
151A1
330
7466
100
AcDbSymbolTableRecord
100
AcDbBlockTableRecord
  2
*D19
340
0
  0
BLOCK_RECORD
  5
151AD
330
7466
100
AcDbSymbolTableRecord
100
AcDbBlockTableRecord
  2
*D20
340
0
  0
BLOCK_RECORD
  5
151B9
330
7466
100
AcDbSymbolTableRecord
100
AcDbBlockTableRecord
  2
*D21
340
0
  0
BLOCK_RECORD
  5
1526D
330
7466
100
AcDbSymbolTableRecord
100
AcDbBlockTableRecord
  2
*D22
340
0
  0
BLOCK_RECORD
  5
1527A
330
7466
100
AcDbSymbolTableRecord
100
AcDbBlockTableRecord
  2
*D23
340
0
  0
BLOCK_RECORD
  5
15287
330
7466
100
AcDbSymbolTableRecord
100
AcDbBlockTableRecord
  2
*D24
340
0
  0
BLOCK_RECORD
  5
15293
330
7466
100
AcDbSymbolTableRecord
100
AcDbBlockTableRecord
  2
*D25
340
0
  0
BLOCK_RECORD
  5
1529F
330
7466
100
AcDbSymbolTableRecord
100
AcDbBlockTableRecord
  2
*D26
340
0
  0
BLOCK_RECORD
  5
152AB
330
7466
100
AcDbSymbolTableRecord
100
AcDbBlockTableRecord
  2
*D27
340
0
  0
BLOCK_RECORD
  5
15327
330
7466
100
AcDbSymbolTableRecord
100
AcDbBlockTableRecord
  2
*D28
340
0
  0
BLOCK_RECORD
  5
15333
330
7466
100
AcDbSymbolTableRecord
100
AcDbBlockTableRecord
  2
*D29
340
0
  0
BLOCK_RECORD
  5
15341
330
7466
100
AcDbSymbolTableRecord
100
AcDbBlockTableRecord
  2
*D30
340
0
  0
BLOCK_RECORD
  5
15E52
330
7466
100
AcDbSymbolTableRecord
100
AcDbBlockTableRecord
  2
*D31
340
0
  0
BLOCK_RECORD
  5
15E71
330
7466
100
AcDbSymbolTableRecord
100
AcDbBlockTableRecord
  2
*D32
340
0
  0
BLOCK_RECORD
  5
15F4C
330
7466
100
AcDbSymbolTableRecord
100
AcDbBlockTableRecord
  2
*D33
340
0
  0
ENDTAB
  0
ENDSEC
  0
SECTION
  2
BLOCKS
  0
BLOCK
  5
7489
330
747D
100
AcDbEntity
  8
0
100
AcDbBlockBegin
  2
*MODEL_SPACE
 70
     0
 10
0.0
 20
0.0
 30
0.0
  3
*MODEL_SPACE
  1

  0
ENDBLK
  5
748A
330
747D
100
AcDbEntity
  8
0
100
AcDbBlockEnd
  0
BLOCK
  5
7487
330
747A
100
AcDbEntity
 67
     1
  8
0
100
AcDbBlockBegin
  2
*PAPER_SPACE
 70
     0
 10
0.0
 20
0.0
 30
0.0
  3
*PAPER_SPACE
  1

  0
ENDBLK
  5
7488
330
747A
100
AcDbEntity
 67
     1
  8
0
100
AcDbBlockEnd
  0
BLOCK
  5
F771
330
F770
100
AcDbEntity
  8
0
 48
50.0
100
AcDbBlockBegin
  2
_DOTSMALL
 70
     0
 10
0.0
 20
0.0
 30
0.0
  3
_DOTSMALL
  1

  0
LWPOLYLINE
  5
F772
330
F770
100
AcDbEntity
  8
0
  6
ByBlock
 62
     0
 48
50.0
100
AcDbPolyline
 90
        2
 70
     1
 43
0.5
 10
-0.0625
 20
0.0
 42
1.0
 10
0.0625
 20
0.0
 42
1.0
  0
ENDBLK
  5
F776
330
F770
100
AcDbEntity
  8
0
 48
50.0
100
AcDbBlockEnd
  0
BLOCK
  5
135E4
330
135E3
100
AcDbEntity
  8
0
 48
50.0
100
AcDbBlockBegin
  2
_None
 70
     0
 10
0.0
 20
0.0
 30
0.0
  3
_None
  1

  0
ENDBLK
  5
135E5
330
135E3
100
AcDbEntity
  8
0
 48
50.0
100
AcDbBlockEnd
  0
BLOCK
  5
15092
330
15091
100
AcDbEntity
  8
0
 48
50.0
100
AcDbBlockBegin
  2
*D2
 70
     1
 10
0.0
 20
0.0
 30
0.0
  3
*D2
  1

  0
LINE
  5
15FE2
330
15091
100
AcDbEntity
  8
寸法
 62
     0
 48
50.0
370
    -2
100
AcDbLine
 10
1147.378360629227
 20
1672.768015250607
 30
0.0
 11
1147.378360629227
 21
1177.78029691409
 31
0.0
  0
LINE
  5
15FE3
330
15091
100
AcDbEntity
  8
寸法
 62
     0
 48
50.0
370
    -2
100
AcDbLine
 10
977.378360629169
 20
1536.268015250607
 30
0.0
 11
977.378360629169
 21
1177.78029691409
 31
0.0
  0
LINE
  5
15FE4
330
15091
100
AcDbEntity
  8
寸法
 62
     0
 48
50.0
370
    -2
100
AcDbLine
 10
1147.378360629227
 20
1222.78029691409
 30
0.0
 11
977.378360629169
 21
1222.78029691409
 31
0.0
  0
MTEXT
  5
15FE5
330
15091
100
AcDbEntity
  8
寸法
 62
     7
 48
50.0
100
AcDbMText
 10
1062.378360629198
 20
1297.78029691409
 30
0.0
 40
90.0
 41
0.0
 71
     5
 72
     1
  1
\A1;170
  7
STYLE1
 73
     1
 44
1.0
1001
ACAD
1000
MTEXTBEGIN
1070
    73
1070
     1
1070
    44
1040
1.0
1070
    74
1070
     0
1000
MTEXTEND
  0
POINT
  5
15FE6
330
15091
100
AcDbEntity
  8
DEFPOINTS
 62
     0
 48
50.0
100
AcDbPoint
 10
1147.378360629227
 20
1687.768015250607
 30
0.0
  0
POINT
  5
15FE7
330
15091
100
AcDbEntity
  8
DEFPOINTS
 62
     0
 48
50.0
100
AcDbPoint
 10
977.378360629169
 20
1551.268015250607
 30
0.0
  0
POINT
  5
15FE8
330
15091
100
AcDbEntity
  8
DEFPOINTS
 62
     0
 48
50.0
100
AcDbPoint
 10
977.378360629169
 20
1222.78029691409
 30
0.0
  0
ENDBLK
  5
15093
330
15091
100
AcDbEntity
  8
0
 48
50.0
100
AcDbBlockEnd
  0
BLOCK
  5
1509C
330
1509B
100
AcDbEntity
  8
0
 48
50.0
100
AcDbBlockBegin
  2
*D3
 70
     1
 10
0.0
 20
0.0
 30
0.0
  3
*D3
  1

  0
LINE
  5
15FE9
330
1509B
100
AcDbEntity
  8
寸法
 62
     0
 48
50.0
370
    -2
100
AcDbLine
 10
7207.378360629111
 20
1672.768015250607
 30
0.0
 11
7207.378360629111
 21
1177.78029691409
 31
0.0
  0
LINE
  5
15FEA
330
1509B
100
AcDbEntity
  8
寸法
 62
     0
 48
50.0
370
    -2
100
AcDbLine
 10
7377.378360629169
 20
1536.268015250607
 30
0.0
 11
7377.378360629169
 21
1177.78029691409
 31
0.0
  0
LINE
  5
15FEB
330
1509B
100
AcDbEntity
  8
寸法
 62
     0
 48
50.0
370
    -2
100
AcDbLine
 10
7207.378360629111
 20
1222.78029691409
 30
0.0
 11
7377.378360629169
 21
1222.78029691409
 31
0.0
  0
MTEXT
  5
15FEC
330
1509B
100
AcDbEntity
  8
寸法
 62
     7
 48
50.0
100
AcDbMText
 10
7292.37836062914
 20
1297.78029691409
 30
0.0
 40
90.0
 41
0.0
 71
     5
 72
     1
  1
\A1;170
  7
STYLE1
 73
     1
 44
1.0
1001
ACAD
1000
MTEXTBEGIN
1070
    73
1070
     1
1070
    44
1040
1.0
1070
    74
1070
     0
1000
MTEXTEND
  0
POINT
  5
15FED
330
1509B
100
AcDbEntity
  8
DEFPOINTS
 62
     0
 48
50.0
100
AcDbPoint
 10
7207.378360629111
 20
1687.768015250607
 30
0.0
  0
POINT
  5
15FEE
330
1509B
100
AcDbEntity
  8
DEFPOINTS
 62
     0
 48
50.0
100
AcDbPoint
 10
7377.378360629169
 20
1551.268015250607
 30
0.0
  0
POINT
  5
15FEF
330
1509B
100
AcDbEntity
  8
DEFPOINTS
 62
     0
 48
50.0
100
AcDbPoint
 10
7377.378360629169
 20
1222.78029691409
 30
0.0
  0
ENDBLK
  5
1509D
330
1509B
100
AcDbEntity
  8
0
 48
50.0
100
AcDbBlockEnd
  0
BLOCK
  5
150A6
330
150A5
100
AcDbEntity
  8
0
 48
50.0
100
AcDbBlockBegin
  2
*D4
 70
     1
 10
0.0
 20
0.0
 30
0.0
  3
*D4
  1

  0
LINE
  5
15FF0
330
150A5
100
AcDbEntity
  8
寸法
 62
     0
 48
50.0
370
    -2
100
AcDbLine
 10
1147.378360629227
 20
1672.768015250607
 30
0.0
 11
1147.378360629227
 21
1177.78029691409
 31
0.0
  0
LINE
  5
15FF1
330
150A5
100
AcDbEntity
  8
寸法
 62
     0
 48
50.0
370
    -2
100
AcDbLine
 10
7207.378360629111
 20
1672.768015250607
 30
0.0
 11
7207.378360629111
 21
1177.78029691409
 31
0.0
  0
LINE
  5
15FF2
330
150A5
100
AcDbEntity
  8
寸法
 62
     0
 48
50.0
370
    -2
100
AcDbLine
 10
1147.378360629227
 20
1222.78029691409
 30
0.0
 11
7207.378360629111
 21
1222.78029691409
 31
0.0
  0
INSERT
  5
15FF3
330
150A5
100
AcDbEntity
  8
寸法
 62
     0
 48
50.0
370
    -2
100
AcDbBlockReference
  2
_DOTSMALL
 10
1147.378360629227
 20
1222.78029691409
 30
0.0
 41
75.0
 42
75.0
 43
75.0
 50
180.0
  0
INSERT
  5
15FF4
330
150A5
100
AcDbEntity
  8
寸法
 62
     0
 48
50.0
370
    -2
100
AcDbBlockReference
  2
_DOTSMALL
 10
7207.378360629111
 20
1222.78029691409
 30
0.0
 41
75.0
 42
75.0
 43
75.0
  0
MTEXT
  5
15FF5
330
150A5
100
AcDbEntity
  8
寸法
 62
     7
 48
50.0
100
AcDbMText
 10
4177.378360629169
 20
1297.789155181807
 30
0.0
 40
90.0
 41
0.0
 71
     5
 72
     1
  1
\A1;屋根寸法 N \U+00D72800 ＋ 460
  7
STYLE1
 73
     1
 44
1.0
1001
ACAD
1000
MTEXTBEGIN
1070
    73
1070
     1
1070
    44
1040
1.0
1070
    74
1070
     0
1000
MTEXTEND
  0
POINT
  5
15FF6
330
150A5
100
AcDbEntity
  8
DEFPOINTS
 62
     0
 48
50.0
100
AcDbPoint
 10
1147.378360629227
 20
1687.768015250607
 30
0.0
  0
POINT
  5
15FF7
330
150A5
100
AcDbEntity
  8
DEFPOINTS
 62
     0
 48
50.0
100
AcDbPoint
 10
7207.378360629111
 20
1687.768015250607
 30
0.0
  0
POINT
  5
15FF8
330
150A5
100
AcDbEntity
  8
DEFPOINTS
 62
     0
 48
50.0
100
AcDbPoint
 10
7207.378360629111
 20
1222.78029691409
 30
0.0
  0
ENDBLK
  5
150A7
330
150A5
100
AcDbEntity
  8
0
 48
50.0
100
AcDbBlockEnd
  0
BLOCK
  5
150D2
330
150D1
100
AcDbEntity
  8
0
 48
50.0
100
AcDbBlockBegin
  2
*D5
 70
     1
 10
0.0
 20
0.0
 30
0.0
  3
*D5
  1

  0
LINE
  5
15FF9
330
150D1
100
AcDbEntity
  8
寸法
 62
     0
 48
50.0
370
    -2
100
AcDbLine
 10
7222.378360629111
 20
1687.768015250607
 30
0.0
 11
7804.65258299277
 21
1687.768015250607
 31
0.0
  0
LINE
  5
15FFA
330
150D1
100
AcDbEntity
  8
寸法
 62
     0
 48
50.0
370
    -2
100
AcDbLine
 10
7392.378360629169
 20
1551.268015250607
 30
0.0
 11
7804.65258299277
 21
1551.268015250607
 31
0.0
  0
LINE
  5
15FFB
330
150D1
100
AcDbEntity
  8
寸法
 62
     0
 48
50.0
370
    -2
100
AcDbLine
 10
7759.65258299277
 20
1687.768015250607
 30
0.0
 11
7759.65258299277
 21
1551.268015250607
 31
0.0
  0
LINE
  5
15FFC
330
150D1
100
AcDbEntity
  8
寸法
 62
     0
 48
50.0
370
    -2
100
AcDbLine
 10
7759.65258299277
 20
1551.268015250607
 30
0.0
 11
7759.65258299277
 21
1178.540093189249
 31
0.0
  0
INSERT
  5
15FFD
330
150D1
100
AcDbEntity
  8
寸法
 62
     0
 48
50.0
370
    -2
100
AcDbBlockReference
  2
_DOTSMALL
 10
7759.65258299277
 20
1687.768015250607
 30
0.0
 41
75.0
 42
75.0
 43
75.0
 50
90.0
  0
INSERT
  5
15FFE
330
150D1
100
AcDbEntity
  8
寸法
 62
     0
 48
50.0
370
    -2
100
AcDbBlockReference
  2
_DOTSMALL
 10
7759.65258299277
 20
1551.268015250607
 30
0.0
 41
75.0
 42
75.0
 43
75.0
 50
270.0
  0
MTEXT
  5
15FFF
330
150D1
100
AcDbEntity
  8
寸法
 62
     7
 48
50.0
100
AcDbMText
 10
7684.65258299277
 20
1327.404054219929
 30
0.0
 40
90.0
 41
0.0
 71
     5
 72
     1
  1
\A1;136.5
  7
STYLE1
 11
0.0000000000000001
 21
1.0
 31
0.0
 73
     1
 44
1.0
1001
ACAD
1000
MTEXTBEGIN
1070
    73
1070
     1
1070
    44
1040
1.0
1070
    74
1070
     0
1000
MTEXTEND
  0
POINT
  5
16000
330
150D1
100
AcDbEntity
  8
DEFPOINTS
 62
     0
 48
50.0
100
AcDbPoint
 10
7207.378360629111
 20
1687.768015250607
 30
0.0
  0
POINT
  5
16001
330
150D1
100
AcDbEntity
  8
DEFPOINTS
 62
     0
 48
50.0
100
AcDbPoint
 10
7377.378360629169
 20
1551.268015250607
 30
0.0
  0
POINT
  5
16002
330
150D1
100
AcDbEntity
  8
DEFPOINTS
 62
     0
 48
50.0
100
AcDbPoint
 10
7759.65258299277
 20
1551.268015250607
 30
0.0
  0
ENDBLK
  5
150D3
330
150D1
100
AcDbEntity
  8
0
 48
50.0
100
AcDbBlockEnd
  0
BLOCK
  5
150DF
330
150DE
100
AcDbEntity
  8
0
 48
50.0
100
AcDbBlockBegin
  2
*D6
 70
     1
 10
0.0
 20
0.0
 30
0.0
  3
*D6
  1

  0
LINE
  5
16003
330
150DE
100
AcDbEntity
  8
寸法
 62
     0
 48
50.0
370
    -2
100
AcDbLine
 10
7222.378360629111
 20
5764.768015250608
 30
0.0
 11
7804.652582992772
 21
5764.768015250608
 31
0.0
  0
LINE
  5
16004
330
150DE
100
AcDbEntity
  8
寸法
 62
     0
 48
50.0
370
    -2
100
AcDbLine
 10
7222.378360629111
 20
1687.768015250607
 30
0.0
 11
7804.65258299277
 21
1687.768015250607
 31
0.0
  0
LINE
  5
16005
330
150DE
100
AcDbEntity
  8
寸法
 62
     0
 48
50.0
370
    -2
100
AcDbLine
 10
7759.652582992771
 20
5764.768015250608
 30
0.0
 11
7759.65258299277
 21
1687.768015250607
 31
0.0
  0
INSERT
  5
16006
330
150DE
100
AcDbEntity
  8
寸法
 62
     0
 48
50.0
370
    -2
100
AcDbBlockReference
  2
_DOTSMALL
 10
7759.652582992771
 20
5764.768015250608
 30
0.0
 41
75.0
 42
75.0
 43
75.0
 50
90.0
  0
INSERT
  5
16007
330
150DE
100
AcDbEntity
  8
寸法
 62
     0
 48
50.0
370
    -2
100
AcDbBlockReference
  2
_DOTSMALL
 10
7759.65258299277
 20
1687.768015250607
 30
0.0
 41
75.0
 42
75.0
 43
75.0
 50
270.0
  0
MTEXT
  5
16008
330
150DE
100
AcDbEntity
  8
寸法
 62
     7
 48
50.0
100
AcDbMText
 10
7684.65258299277
 20
3726.268015250609
 30
0.0
 40
90.0
 41
0.0
 71
     5
 72
     1
  1
\A1;屋根寸法 4077
  7
STYLE1
 11
0.0000000000000001
 21
1.0
 31
0.0
 73
     1
 44
1.0
1001
ACAD
1000
MTEXTBEGIN
1070
    73
1070
     1
1070
    44
1040
1.0
1070
    74
1070
     0
1000
MTEXTEND
  0
POINT
  5
16009
330
150DE
100
AcDbEntity
  8
DEFPOINTS
 62
     0
 48
50.0
100
AcDbPoint
 10
7207.378360629111
 20
5764.768015250608
 30
0.0
  0
POINT
  5
1600A
330
150DE
100
AcDbEntity
  8
DEFPOINTS
 62
     0
 48
50.0
100
AcDbPoint
 10
7207.378360629111
 20
1687.768015250607
 30
0.0
  0
POINT
  5
1600B
330
150DE
100
AcDbEntity
  8
DEFPOINTS
 62
     0
 48
50.0
100
AcDbPoint
 10
7759.65258299277
 20
1687.768015250607
 30
0.0
  0
ENDBLK
  5
150E0
330
150DE
100
AcDbEntity
  8
0
 48
50.0
100
AcDbBlockEnd
  0
BLOCK
  5
150EB
330
150EA
100
AcDbEntity
  8
0
 48
50.0
100
AcDbBlockBegin
  2
*D7
 70
     1
 10
0.0
 20
0.0
 30
0.0
  3
*D7
  1

  0
LINE
  5
1600C
330
150EA
100
AcDbEntity
  8
寸法
 62
     0
 48
50.0
370
    -2
100
AcDbLine
 10
7222.378360629111
 20
5764.768015250608
 30
0.0
 11
7804.652582992772
 21
5764.768015250608
 31
0.0
  0
LINE
  5
1600D
330
150EA
100
AcDbEntity
  8
寸法
 62
     0
 48
50.0
370
    -2
100
AcDbLine
 10
7392.378360629169
 20
5901.268015250607
 30
0.0
 11
7804.652582992772
 21
5901.268015250607
 31
0.0
  0
LINE
  5
1600E
330
150EA
100
AcDbEntity
  8
寸法
 62
     0
 48
50.0
370
    -2
100
AcDbLine
 10
7759.652582992771
 20
5764.768015250608
 30
0.0
 11
7759.652582992771
 21
5901.268015250607
 31
0.0
  0
LINE
  5
1600F
330
150EA
100
AcDbEntity
  8
寸法
 62
     0
 48
50.0
370
    -2
100
AcDbLine
 10
7759.652582992771
 20
5901.268015250607
 30
0.0
 11
7759.652582992773
 21
6273.995937312015
 31
0.0
  0
INSERT
  5
16010
330
150EA
100
AcDbEntity
  8
寸法
 62
     0
 48
50.0
370
    -2
100
AcDbBlockReference
  2
_DOTSMALL
 10
7759.652582992771
 20
5764.768015250608
 30
0.0
 41
75.0
 42
75.0
 43
75.0
 50
270.0
  0
INSERT
  5
16011
330
150EA
100
AcDbEntity
  8
寸法
 62
     0
 48
50.0
370
    -2
100
AcDbBlockReference
  2
_DOTSMALL
 10
7759.652582992771
 20
5901.268015250607
 30
0.0
 41
75.0
 42
75.0
 43
75.0
 50
90.0
  0
MTEXT
  5
16012
330
150EA
100
AcDbEntity
  8
寸法
 62
     7
 48
50.0
100
AcDbMText
 10
7684.65258299277
 20
6125.131976281337
 30
0.0
 40
90.0
 41
0.0
 71
     5
 72
     1
  1
\A1;136.5
  7
STYLE1
 11
0.0000000000000001
 21
1.0
 31
0.0
 73
     1
 44
1.0
1001
ACAD
1000
MTEXTBEGIN
1070
    73
1070
     1
1070
    44
1040
1.0
1070
    74
1070
     0
1000
MTEXTEND
  0
POINT
  5
16013
330
150EA
100
AcDbEntity
  8
DEFPOINTS
 62
     0
 48
50.0
100
AcDbPoint
 10
7207.378360629111
 20
5764.768015250608
 30
0.0
  0
POINT
  5
16014
330
150EA
100
AcDbEntity
  8
DEFPOINTS
 62
     0
 48
50.0
100
AcDbPoint
 10
7377.378360629169
 20
5901.268015250607
 30
0.0
  0
POINT
  5
16015
330
150EA
100
AcDbEntity
  8
DEFPOINTS
 62
     0
 48
50.0
100
AcDbPoint
 10
7759.652582992771
 20
5901.268015250607
 30
0.0
  0
ENDBLK
  5
150EC
330
150EA
100
AcDbEntity
  8
0
 48
50.0
100
AcDbBlockEnd
  0
BLOCK
  5
1511E
330
1511D
100
AcDbEntity
  8
0
 48
50.0
100
AcDbBlockBegin
  2
*D8
 70
     1
 10
0.0
 20
0.0
 30
0.0
  3
*D8
  1

  0
LINE
  5
16016
330
1511D
100
AcDbEntity
  8
寸法
 62
     0
 48
50.0
370
    -2
100
AcDbLine
 10
962.378360629169
 20
5901.268015250607
 30
0.0
 11
368.7571619014789
 21
5901.268015250607
 31
0.0
  0
LINE
  5
16017
330
1511D
100
AcDbEntity
  8
寸法
 62
     0
 48
50.0
370
    -2
100
AcDbLine
 10
962.378360629169
 20
1551.268015250607
 30
0.0
 11
368.757161901478
 21
1551.268015250607
 31
0.0
  0
LINE
  5
16018
330
1511D
100
AcDbEntity
  8
寸法
 62
     0
 48
50.0
370
    -2
100
AcDbLine
 10
413.7571619014789
 20
5901.268015250607
 30
0.0
 11
413.7571619014779
 21
1551.268015250607
 31
0.0
  0
INSERT
  5
16019
330
1511D
100
AcDbEntity
  8
寸法
 62
     0
 48
50.0
370
    -2
100
AcDbBlockReference
  2
_DOTSMALL
 10
413.7571619014789
 20
5901.268015250607
 30
0.0
 41
75.0
 42
75.0
 43
75.0
 50
90.0
  0
INSERT
  5
1601A
330
1511D
100
AcDbEntity
  8
寸法
 62
     0
 48
50.0
370
    -2
100
AcDbBlockReference
  2
_DOTSMALL
 10
413.7571619014779
 20
1551.268015250607
 30
0.0
 41
75.0
 42
75.0
 43
75.0
 50
270.0
  0
MTEXT
  5
1601B
330
1511D
100
AcDbEntity
  8
寸法
 62
     7
 48
50.0
100
AcDbMText
 10
338.7571619014778
 20
3726.268015250607
 30
0.0
 40
90.0
 41
0.0
 71
     5
 72
     1
  1
\A1;基礎土間寸法 4350
  7
STYLE1
 11
0.0000000000000001
 21
1.0
 31
0.0
 73
     1
 44
1.0
1001
ACAD
1000
MTEXTBEGIN
1070
    73
1070
     1
1070
    44
1040
1.0
1070
    74
1070
     0
1000
MTEXTEND
  0
POINT
  5
1601C
330
1511D
100
AcDbEntity
  8
DEFPOINTS
 62
     0
 48
50.0
100
AcDbPoint
 10
977.378360629169
 20
5901.268015250607
 30
0.0
  0
POINT
  5
1601D
330
1511D
100
AcDbEntity
  8
DEFPOINTS
 62
     0
 48
50.0
100
AcDbPoint
 10
977.378360629169
 20
1551.268015250607
 30
0.0
  0
POINT
  5
1601E
330
1511D
100
AcDbEntity
  8
DEFPOINTS
 62
     0
 48
50.0
100
AcDbPoint
 10
413.7571619014779
 20
1551.268015250607
 30
0.0
  0
ENDBLK
  5
1511F
330
1511D
100
AcDbEntity
  8
0
 48
50.0
100
AcDbBlockEnd
  0
BLOCK
  5
1512A
330
15129
100
AcDbEntity
  8
0
 48
50.0
100
AcDbBlockBegin
  2
*D9
 70
     1
 10
0.0
 20
0.0
 30
0.0
  3
*D9
  1

  0
LINE
  5
1601F
330
15129
100
AcDbEntity
  8
寸法
 62
     0
 48
50.0
370
    -2
100
AcDbLine
 10
1112.378360629169
 20
3551.268015250607
 30
0.0
 11
591.5065239179243
 21
3551.268015250608
 31
0.0
  0
LINE
  5
16020
330
15129
100
AcDbEntity
  8
寸法
 62
     0
 48
50.0
370
    -2
100
AcDbLine
 10
962.378360629169
 20
1551.268015250607
 30
0.0
 11
591.5065239179239
 21
1551.268015250607
 31
0.0
  0
LINE
  5
16021
330
15129
100
AcDbEntity
  8
寸法
 62
     0
 48
50.0
370
    -2
100
AcDbLine
 10
636.5065239179243
 20
3551.268015250608
 30
0.0
 11
636.5065239179239
 21
1551.268015250607
 31
0.0
  0
INSERT
  5
16022
330
15129
100
AcDbEntity
  8
寸法
 62
     0
 48
50.0
370
    -2
100
AcDbBlockReference
  2
_DOTSMALL
 10
636.5065239179243
 20
3551.268015250608
 30
0.0
 41
75.0
 42
75.0
 43
75.0
 50
90.0
  0
INSERT
  5
16023
330
15129
100
AcDbEntity
  8
寸法
 62
     0
 48
50.0
370
    -2
100
AcDbBlockReference
  2
_DOTSMALL
 10
636.5065239179239
 20
1551.268015250607
 30
0.0
 41
75.0
 42
75.0
 43
75.0
 50
270.0
  0
MTEXT
  5
16024
330
15129
100
AcDbEntity
  8
寸法
 62
     7
 48
50.0
100
AcDbMText
 10
561.4976656502071
 20
2551.268015250608
 30
0.0
 40
90.0
 41
0.0
 71
     5
 72
     1
  1
\A1;2000
  7
STYLE1
 11
0.0000000000000001
 21
1.0
 31
0.0
 73
     1
 44
1.0
1001
ACAD
1000
MTEXTBEGIN
1070
    73
1070
     1
1070
    44
1040
1.0
1070
    74
1070
     0
1000
MTEXTEND
  0
POINT
  5
16025
330
15129
100
AcDbEntity
  8
DEFPOINTS
 62
     0
 48
50.0
100
AcDbPoint
 10
1127.378360629169
 20
3551.268015250607
 30
0.0
  0
POINT
  5
16026
330
15129
100
AcDbEntity
  8
DEFPOINTS
 62
     0
 48
50.0
100
AcDbPoint
 10
977.378360629169
 20
1551.268015250607
 30
0.0
  0
POINT
  5
16027
330
15129
100
AcDbEntity
  8
DEFPOINTS
 62
     0
 48
50.0
100
AcDbPoint
 10
636.5065239179239
 20
1551.268015250607
 30
0.0
  0
ENDBLK
  5
1512B
330
15129
100
AcDbEntity
  8
0
 48
50.0
100
AcDbBlockEnd
  0
BLOCK
  5
15136
330
15135
100
AcDbEntity
  8
0
 48
50.0
100
AcDbBlockBegin
  2
*D10
 70
     1
 10
0.0
 20
0.0
 30
0.0
  3
*D10
  1

  0
LINE
  5
16028
330
15135
100
AcDbEntity
  8
寸法
 62
     0
 48
50.0
370
    -2
100
AcDbLine
 10
1112.378360629169
 20
3901.268015250607
 30
0.0
 11
591.506523917924
 21
3901.268015250608
 31
0.0
  0
LINE
  5
16029
330
15135
100
AcDbEntity
  8
寸法
 62
     0
 48
50.0
370
    -2
100
AcDbLine
 10
1112.378360629169
 20
3551.268015250607
 30
0.0
 11
591.5065239179239
 21
3551.268015250608
 31
0.0
  0
LINE
  5
1602A
330
15135
100
AcDbEntity
  8
寸法
 62
     0
 48
50.0
370
    -2
100
AcDbLine
 10
636.506523917924
 20
3901.268015250608
 30
0.0
 11
636.5065239179239
 21
3551.268015250608
 31
0.0
  0
INSERT
  5
1602B
330
15135
100
AcDbEntity
  8
寸法
 62
     0
 48
50.0
370
    -2
100
AcDbBlockReference
  2
_DOTSMALL
 10
636.506523917924
 20
3901.268015250608
 30
0.0
 41
75.0
 42
75.0
 43
75.0
 50
90.0
  0
INSERT
  5
1602C
330
15135
100
AcDbEntity
  8
寸法
 62
     0
 48
50.0
370
    -2
100
AcDbBlockReference
  2
_DOTSMALL
 10
636.5065239179239
 20
3551.268015250608
 30
0.0
 41
75.0
 42
75.0
 43
75.0
 50
270.0
  0
MTEXT
  5
1602D
330
15135
100
AcDbEntity
  8
寸法
 62
     7
 48
50.0
100
AcDbMText
 10
561.5065239179233
 20
3726.268015250608
 30
0.0
 40
90.0
 41
0.0
 71
     5
 72
     1
  1
\A1;350
  7
STYLE1
 11
0.0000000000000001
 21
1.0
 31
0.0
 73
     1
 44
1.0
1001
ACAD
1000
MTEXTBEGIN
1070
    73
1070
     1
1070
    44
1040
1.0
1070
    74
1070
     0
1000
MTEXTEND
  0
POINT
  5
1602E
330
15135
100
AcDbEntity
  8
DEFPOINTS
 62
     0
 48
50.0
100
AcDbPoint
 10
1127.378360629169
 20
3901.268015250607
 30
0.0
  0
POINT
  5
1602F
330
15135
100
AcDbEntity
  8
DEFPOINTS
 62
     0
 48
50.0
100
AcDbPoint
 10
1127.378360629169
 20
3551.268015250607
 30
0.0
  0
POINT
  5
16030
330
15135
100
AcDbEntity
  8
DEFPOINTS
 62
     0
 48
50.0
100
AcDbPoint
 10
636.5065239179239
 20
3551.268015250608
 30
0.0
  0
ENDBLK
  5
15137
330
15135
100
AcDbEntity
  8
0
 48
50.0
100
AcDbBlockEnd
  0
BLOCK
  5
15142
330
15141
100
AcDbEntity
  8
0
 48
50.0
100
AcDbBlockBegin
  2
*D11
 70
     1
 10
0.0
 20
0.0
 30
0.0
  3
*D11
  1

  0
LINE
  5
16031
330
15141
100
AcDbEntity
  8
寸法
 62
     0
 48
50.0
370
    -2
100
AcDbLine
 10
1112.378360629169
 20
3901.268015250607
 30
0.0
 11
591.5065239179234
 21
3901.268015250608
 31
0.0
  0
LINE
  5
16032
330
15141
100
AcDbEntity
  8
寸法
 62
     0
 48
50.0
370
    -2
100
AcDbLine
 10
962.378360629169
 20
5901.268015250607
 30
0.0
 11
591.5065239179239
 21
5901.268015250607
 31
0.0
  0
LINE
  5
16033
330
15141
100
AcDbEntity
  8
寸法
 62
     0
 48
50.0
370
    -2
100
AcDbLine
 10
636.5065239179235
 20
3901.268015250608
 30
0.0
 11
636.5065239179239
 21
5901.268015250607
 31
0.0
  0
INSERT
  5
16034
330
15141
100
AcDbEntity
  8
寸法
 62
     0
 48
50.0
370
    -2
100
AcDbBlockReference
  2
_DOTSMALL
 10
636.5065239179235
 20
3901.268015250608
 30
0.0
 41
75.0
 42
75.0
 43
75.0
 50
270.0
  0
INSERT
  5
16035
330
15141
100
AcDbEntity
  8
寸法
 62
     0
 48
50.0
370
    -2
100
AcDbBlockReference
  2
_DOTSMALL
 10
636.5065239179239
 20
5901.268015250607
 30
0.0
 41
75.0
 42
75.0
 43
75.0
 50
90.0
  0
MTEXT
  5
16036
330
15141
100
AcDbEntity
  8
寸法
 62
     7
 48
50.0
100
AcDbMText
 10
561.4976656502063
 20
4901.268015250607
 30
0.0
 40
90.0
 41
0.0
 71
     5
 72
     1
  1
\A1;2000
  7
STYLE1
 11
0.0000000000000001
 21
1.0
 31
0.0
 73
     1
 44
1.0
1001
ACAD
1000
MTEXTBEGIN
1070
    73
1070
     1
1070
    44
1040
1.0
1070
    74
1070
     0
1000
MTEXTEND
  0
POINT
  5
16037
330
15141
100
AcDbEntity
  8
DEFPOINTS
 62
     0
 48
50.0
100
AcDbPoint
 10
1127.378360629169
 20
3901.268015250607
 30
0.0
  0
POINT
  5
16038
330
15141
100
AcDbEntity
  8
DEFPOINTS
 62
     0
 48
50.0
100
AcDbPoint
 10
977.378360629169
 20
5901.268015250607
 30
0.0
  0
POINT
  5
16039
330
15141
100
AcDbEntity
  8
DEFPOINTS
 62
     0
 48
50.0
100
AcDbPoint
 10
636.5065239179239
 20
5901.268015250607
 30
0.0
  0
ENDBLK
  5
15143
330
15141
100
AcDbEntity
  8
0
 48
50.0
100
AcDbBlockEnd
  0
BLOCK
  5
1514E
330
1514D
100
AcDbEntity
  8
0
 48
50.0
100
AcDbBlockBegin
  2
*D12
 70
     1
 10
0.0
 20
0.0
 30
0.0
  3
*D12
  1

  0
LINE
  5
1603A
330
1514D
100
AcDbEntity
  8
寸法
 62
     0
 48
50.0
370
    -2
100
AcDbLine
 10
977.378360629169
 20
5916.268015250608
 30
0.0
 11
977.378360629169
 21
6643.794387330345
 31
0.0
  0
LINE
  5
1603B
330
1514D
100
AcDbEntity
  8
寸法
 62
     0
 48
50.0
370
    -2
100
AcDbLine
 10
7377.378360629169
 20
5916.268015250608
 30
0.0
 11
7377.378360629169
 21
6643.794387330345
 31
0.0
  0
LINE
  5
1603C
330
1514D
100
AcDbEntity
  8
寸法
 62
     0
 48
50.0
370
    -2
100
AcDbLine
 10
977.378360629169
 20
6598.794387330345
 30
0.0
 11
7377.378360629169
 21
6598.794387330345
 31
0.0
  0
INSERT
  5
1603D
330
1514D
100
AcDbEntity
  8
寸法
 62
     0
 48
50.0
370
    -2
100
AcDbBlockReference
  2
_DOTSMALL
 10
977.378360629169
 20
6598.794387330345
 30
0.0
 41
75.0
 42
75.0
 43
75.0
 50
180.0
  0
INSERT
  5
1603E
330
1514D
100
AcDbEntity
  8
寸法
 62
     0
 48
50.0
370
    -2
100
AcDbBlockReference
  2
_DOTSMALL
 10
7377.378360629169
 20
6598.794387330345
 30
0.0
 41
75.0
 42
75.0
 43
75.0
  0
MTEXT
  5
1603F
330
1514D
100
AcDbEntity
  8
寸法
 62
     7
 48
50.0
100
AcDbMText
 10
4177.378360629169
 20
6673.803245598062
 30
0.0
 40
90.0
 41
0.0
 71
     5
 72
     1
  1
\A1;基礎土間寸法 N　\U+00D72800 ＋ 800
  7
STYLE1
 73
     1
 44
1.0
1001
ACAD
1000
MTEXTBEGIN
1070
    73
1070
     1
1070
    44
1040
1.0
1070
    74
1070
     0
1000
MTEXTEND
  0
POINT
  5
16040
330
1514D
100
AcDbEntity
  8
DEFPOINTS
 62
     0
 48
50.0
100
AcDbPoint
 10
977.378360629169
 20
5901.268015250607
 30
0.0
  0
POINT
  5
16041
330
1514D
100
AcDbEntity
  8
DEFPOINTS
 62
     0
 48
50.0
100
AcDbPoint
 10
7377.378360629169
 20
5901.268015250607
 30
0.0
  0
POINT
  5
16042
330
1514D
100
AcDbEntity
  8
DEFPOINTS
 62
     0
 48
50.0
100
AcDbPoint
 10
7377.378360629169
 20
6598.794387330345
 30
0.0
  0
ENDBLK
  5
1514F
330
1514D
100
AcDbEntity
  8
0
 48
50.0
100
AcDbBlockEnd
  0
BLOCK
  5
1515A
330
15159
100
AcDbEntity
  8
0
 48
50.0
100
AcDbBlockBegin
  2
*D13
 70
     1
 10
0.0
 20
0.0
 30
0.0
  3
*D13
  1

  0
LINE
  5
16043
330
15159
100
AcDbEntity
  8
寸法
 62
     0
 48
50.0
370
    -2
100
AcDbLine
 10
6977.378360629169
 20
4166.268015250607
 30
0.0
 11
6977.378360629169
 21
6449.757348356026
 31
0.0
  0
LINE
  5
16044
330
15159
100
AcDbEntity
  8
寸法
 62
     0
 48
50.0
370
    -2
100
AcDbLine
 10
7377.378360629169
 20
5916.268015250608
 30
0.0
 11
7377.378360629169
 21
6449.757348356026
 31
0.0
  0
LINE
  5
16045
330
15159
100
AcDbEntity
  8
寸法
 62
     0
 48
50.0
370
    -2
100
AcDbLine
 10
6977.378360629169
 20
6404.757348356027
 30
0.0
 11
7377.378360629169
 21
6404.757348356027
 31
0.0
  0
INSERT
  5
16046
330
15159
100
AcDbEntity
  8
寸法
 62
     0
 48
50.0
370
    -2
100
AcDbBlockReference
  2
_DOTSMALL
 10
6977.378360629169
 20
6404.757348356027
 30
0.0
 41
75.0
 42
75.0
 43
75.0
 50
180.0
  0
INSERT
  5
16047
330
15159
100
AcDbEntity
  8
寸法
 62
     0
 48
50.0
370
    -2
100
AcDbBlockReference
  2
_DOTSMALL
 10
7377.378360629169
 20
6404.757348356027
 30
0.0
 41
75.0
 42
75.0
 43
75.0
  0
MTEXT
  5
16048
330
15159
100
AcDbEntity
  8
寸法
 62
     7
 48
50.0
100
AcDbMText
 10
7177.378360629169
 20
6479.757348356027
 30
0.0
 40
90.0
 41
0.0
 71
     5
 72
     1
  1
\A1;400
  7
STYLE1
 73
     1
 44
1.0
1001
ACAD
1000
MTEXTBEGIN
1070
    73
1070
     1
1070
    44
1040
1.0
1070
    74
1070
     0
1000
MTEXTEND
  0
POINT
  5
16049
330
15159
100
AcDbEntity
  8
DEFPOINTS
 62
     0
 48
50.0
100
AcDbPoint
 10
6977.378360629169
 20
4151.268015250606
 30
0.0
  0
POINT
  5
1604A
330
15159
100
AcDbEntity
  8
DEFPOINTS
 62
     0
 48
50.0
100
AcDbPoint
 10
7377.378360629169
 20
5901.268015250607
 30
0.0
  0
POINT
  5
1604B
330
15159
100
AcDbEntity
  8
DEFPOINTS
 62
     0
 48
50.0
100
AcDbPoint
 10
7377.378360629169
 20
6404.757348356027
 30
0.0
  0
ENDBLK
  5
1515B
330
15159
100
AcDbEntity
  8
0
 48
50.0
100
AcDbBlockEnd
  0
BLOCK
  5
15166
330
15165
100
AcDbEntity
  8
0
 48
50.0
100
AcDbBlockBegin
  2
*D14
 70
     1
 10
0.0
 20
0.0
 30
0.0
  3
*D14
  1

  0
LINE
  5
1604C
330
15165
100
AcDbEntity
  8
寸法
 62
     0
 48
50.0
370
    -2
100
AcDbLine
 10
1377.378360629169
 20
4166.268015250607
 30
0.0
 11
1377.378360629169
 21
6449.757348356026
 31
0.0
  0
LINE
  5
1604D
330
15165
100
AcDbEntity
  8
寸法
 62
     0
 48
50.0
370
    -2
100
AcDbLine
 10
6977.378360629169
 20
4166.268015250607
 30
0.0
 11
6977.378360629169
 21
6449.757348356026
 31
0.0
  0
LINE
  5
1604E
330
15165
100
AcDbEntity
  8
寸法
 62
     0
 48
50.0
370
    -2
100
AcDbLine
 10
1377.378360629169
 20
6404.757348356027
 30
0.0
 11
6977.378360629169
 21
6404.757348356027
 31
0.0
  0
INSERT
  5
1604F
330
15165
100
AcDbEntity
  8
寸法
 62
     0
 48
50.0
370
    -2
100
AcDbBlockReference
  2
_DOTSMALL
 10
1377.378360629169
 20
6404.757348356027
 30
0.0
 41
75.0
 42
75.0
 43
75.0
 50
180.0
  0
INSERT
  5
16050
330
15165
100
AcDbEntity
  8
寸法
 62
     0
 48
50.0
370
    -2
100
AcDbBlockReference
  2
_DOTSMALL
 10
6977.378360629169
 20
6404.757348356027
 30
0.0
 41
75.0
 42
75.0
 43
75.0
  0
MTEXT
  5
16051
330
15165
100
AcDbEntity
  8
寸法
 62
     7
 48
50.0
100
AcDbMText
 10
4177.378360629169
 20
6479.766206623742
 30
0.0
 40
90.0
 41
0.0
 71
     5
 72
     1
  1
\A1;N \U+00D72800
  7
STYLE1
 73
     1
 44
1.0
1001
ACAD
1000
MTEXTBEGIN
1070
    73
1070
     1
1070
    44
1040
1.0
1070
    74
1070
     0
1000
MTEXTEND
  0
POINT
  5
16052
330
15165
100
AcDbEntity
  8
DEFPOINTS
 62
     0
 48
50.0
100
AcDbPoint
 10
1377.378360629169
 20
4151.268015250606
 30
0.0
  0
POINT
  5
16053
330
15165
100
AcDbEntity
  8
DEFPOINTS
 62
     0
 48
50.0
100
AcDbPoint
 10
6977.378360629169
 20
4151.268015250606
 30
0.0
  0
POINT
  5
16054
330
15165
100
AcDbEntity
  8
DEFPOINTS
 62
     0
 48
50.0
100
AcDbPoint
 10
6977.378360629169
 20
6404.757348356027
 30
0.0
  0
ENDBLK
  5
15167
330
15165
100
AcDbEntity
  8
0
 48
50.0
100
AcDbBlockEnd
  0
BLOCK
  5
15172
330
15171
100
AcDbEntity
  8
0
 48
50.0
100
AcDbBlockBegin
  2
*D15
 70
     1
 10
0.0
 20
0.0
 30
0.0
  3
*D15
  1

  0
LINE
  5
16055
330
15171
100
AcDbEntity
  8
寸法
 62
     0
 48
50.0
370
    -2
100
AcDbLine
 10
977.378360629169
 20
5916.268015250608
 30
0.0
 11
977.378360629169
 21
6449.757348356026
 31
0.0
  0
LINE
  5
16056
330
15171
100
AcDbEntity
  8
寸法
 62
     0
 48
50.0
370
    -2
100
AcDbLine
 10
1377.378360629169
 20
4166.268015250607
 30
0.0
 11
1377.378360629169
 21
6449.757348356026
 31
0.0
  0
LINE
  5
16057
330
15171
100
AcDbEntity
  8
寸法
 62
     0
 48
50.0
370
    -2
100
AcDbLine
 10
977.378360629169
 20
6404.757348356027
 30
0.0
 11
1377.378360629169
 21
6404.757348356027
 31
0.0
  0
INSERT
  5
16058
330
15171
100
AcDbEntity
  8
寸法
 62
     0
 48
50.0
370
    -2
100
AcDbBlockReference
  2
_DOTSMALL
 10
977.378360629169
 20
6404.757348356027
 30
0.0
 41
75.0
 42
75.0
 43
75.0
 50
180.0
  0
INSERT
  5
16059
330
15171
100
AcDbEntity
  8
寸法
 62
     0
 48
50.0
370
    -2
100
AcDbBlockReference
  2
_DOTSMALL
 10
1377.378360629169
 20
6404.757348356027
 30
0.0
 41
75.0
 42
75.0
 43
75.0
  0
MTEXT
  5
1605A
330
15171
100
AcDbEntity
  8
寸法
 62
     7
 48
50.0
100
AcDbMText
 10
1177.378360629169
 20
6479.757348356027
 30
0.0
 40
90.0
 41
0.0
 71
     5
 72
     1
  1
\A1;400
  7
STYLE1
 73
     1
 44
1.0
1001
ACAD
1000
MTEXTBEGIN
1070
    73
1070
     1
1070
    44
1040
1.0
1070
    74
1070
     0
1000
MTEXTEND
  0
POINT
  5
1605B
330
15171
100
AcDbEntity
  8
DEFPOINTS
 62
     0
 48
50.0
100
AcDbPoint
 10
977.378360629169
 20
5901.268015250607
 30
0.0
  0
POINT
  5
1605C
330
15171
100
AcDbEntity
  8
DEFPOINTS
 62
     0
 48
50.0
100
AcDbPoint
 10
1377.378360629169
 20
4151.268015250606
 30
0.0
  0
POINT
  5
1605D
330
15171
100
AcDbEntity
  8
DEFPOINTS
 62
     0
 48
50.0
100
AcDbPoint
 10
1377.378360629169
 20
6404.757348356027
 30
0.0
  0
ENDBLK
  5
15173
330
15171
100
AcDbEntity
  8
0
 48
50.0
100
AcDbBlockEnd
  0
BLOCK
  5
1517E
330
1517D
100
AcDbEntity
  8
0
 48
50.0
100
AcDbBlockBegin
  2
*D16
 70
     1
 10
0.0
 20
0.0
 30
0.0
  3
*D16
  1

  0
LINE
  5
1605E
330
1517D
100
AcDbEntity
  8
寸法
 62
     0
 48
50.0
370
    -2
100
AcDbLine
 10
6977.378360629169
 20
3286.268015250608
 30
0.0
 11
6977.378360629169
 21
2743.131799213516
 31
0.0
  0
LINE
  5
1605F
330
1517D
100
AcDbEntity
  8
寸法
 62
     0
 48
50.0
370
    -2
100
AcDbLine
 10
6577.378360629168
 20
3011.268015250607
 30
0.0
 11
6577.378360629168
 21
2743.131799213516
 31
0.0
  0
LINE
  5
16060
330
1517D
100
AcDbEntity
  8
寸法
 62
     0
 48
50.0
370
    -2
100
AcDbLine
 10
6977.378360629169
 20
2788.131799213516
 30
0.0
 11
6577.378360629168
 21
2788.131799213516
 31
0.0
  0
INSERT
  5
16061
330
1517D
100
AcDbEntity
  8
寸法
 62
     0
 48
50.0
370
    -2
100
AcDbBlockReference
  2
_DOTSMALL
 10
6977.378360629169
 20
2788.131799213516
 30
0.0
 41
75.0
 42
75.0
 43
75.0
  0
INSERT
  5
16062
330
1517D
100
AcDbEntity
  8
寸法
 62
     0
 48
50.0
370
    -2
100
AcDbBlockReference
  2
_DOTSMALL
 10
6577.378360629168
 20
2788.131799213516
 30
0.0
 41
75.0
 42
75.0
 43
75.0
 50
180.0
  0
MTEXT
  5
16063
330
1517D
100
AcDbEntity
  8
寸法
 62
     7
 48
50.0
100
AcDbMText
 10
6777.378360629168
 20
2863.131799213516
 30
0.0
 40
90.0
 41
0.0
 71
     5
 72
     1
  1
\A1;400
  7
STYLE1
 73
     1
 44
1.0
1001
ACAD
1000
MTEXTBEGIN
1070
    73
1070
     1
1070
    44
1040
1.0
1070
    74
1070
     0
1000
MTEXTEND
  0
POINT
  5
16064
330
1517D
100
AcDbEntity
  8
DEFPOINTS
 62
     0
 48
50.0
100
AcDbPoint
 10
6977.378360629169
 20
3301.268015250607
 30
0.0
  0
POINT
  5
16065
330
1517D
100
AcDbEntity
  8
DEFPOINTS
 62
     0
 48
50.0
100
AcDbPoint
 10
6577.378360629168
 20
3026.268015250608
 30
0.0
  0
POINT
  5
16066
330
1517D
100
AcDbEntity
  8
DEFPOINTS
 62
     0
 48
50.0
100
AcDbPoint
 10
6577.378360629168
 20
2788.131799213516
 30
0.0
  0
ENDBLK
  5
1517F
330
1517D
100
AcDbEntity
  8
0
 48
50.0
100
AcDbBlockEnd
  0
BLOCK
  5
1518A
330
15189
100
AcDbEntity
  8
0
 48
50.0
100
AcDbBlockBegin
  2
*D17
 70
     1
 10
0.0
 20
0.0
 30
0.0
  3
*D17
  1

  0
LINE
  5
16067
330
15189
100
AcDbEntity
  8
寸法
 62
     0
 48
50.0
370
    -2
100
AcDbLine
 10
6577.378360629168
 20
3011.268015250607
 30
0.0
 11
6577.378360629168
 21
2504.995583176453
 31
0.0
  0
LINE
  5
16068
330
15189
100
AcDbEntity
  8
寸法
 62
     0
 48
50.0
370
    -2
100
AcDbLine
 10
7377.378360629169
 20
3011.268015250607
 30
0.0
 11
7377.378360629169
 21
2504.995583176453
 31
0.0
  0
LINE
  5
16069
330
15189
100
AcDbEntity
  8
寸法
 62
     0
 48
50.0
370
    -2
100
AcDbLine
 10
6577.378360629168
 20
2549.995583176453
 30
0.0
 11
7377.378360629169
 21
2549.995583176453
 31
0.0
  0
INSERT
  5
1606A
330
15189
100
AcDbEntity
  8
寸法
 62
     0
 48
50.0
370
    -2
100
AcDbBlockReference
  2
_DOTSMALL
 10
6577.378360629168
 20
2549.995583176453
 30
0.0
 41
75.0
 42
75.0
 43
75.0
 50
180.0
  0
INSERT
  5
1606B
330
15189
100
AcDbEntity
  8
寸法
 62
     0
 48
50.0
370
    -2
100
AcDbBlockReference
  2
_DOTSMALL
 10
7377.378360629169
 20
2549.995583176453
 30
0.0
 41
75.0
 42
75.0
 43
75.0
  0
MTEXT
  5
1606C
330
15189
100
AcDbEntity
  8
寸法
 62
     7
 48
50.0
100
AcDbMText
 10
6977.378360629169
 20
2624.995583176453
 30
0.0
 40
90.0
 41
0.0
 71
     5
 72
     1
  1
\A1;800
  7
STYLE1
 73
     1
 44
1.0
1001
ACAD
1000
MTEXTBEGIN
1070
    73
1070
     1
1070
    44
1040
1.0
1070
    74
1070
     0
1000
MTEXTEND
  0
POINT
  5
1606D
330
15189
100
AcDbEntity
  8
DEFPOINTS
 62
     0
 48
50.0
100
AcDbPoint
 10
6577.378360629168
 20
3026.268015250608
 30
0.0
  0
POINT
  5
1606E
330
15189
100
AcDbEntity
  8
DEFPOINTS
 62
     0
 48
50.0
100
AcDbPoint
 10
7377.378360629169
 20
3026.268015250608
 30
0.0
  0
POINT
  5
1606F
330
15189
100
AcDbEntity
  8
DEFPOINTS
 62
     0
 48
50.0
100
AcDbPoint
 10
7377.378360629169
 20
2549.995583176453
 30
0.0
  0
ENDBLK
  5
1518B
330
15189
100
AcDbEntity
  8
0
 48
50.0
100
AcDbBlockEnd
  0
BLOCK
  5
15196
330
15195
100
AcDbEntity
  8
0
 48
50.0
100
AcDbBlockBegin
  2
*D18
 70
     1
 10
0.0
 20
0.0
 30
0.0
  3
*D18
  1

  0
LINE
  5
16070
330
15195
100
AcDbEntity
  8
寸法
 62
     0
 48
50.0
370
    -2
100
AcDbLine
 10
6712.37836062917
 20
3551.268015250607
 30
0.0
 11
6355.063857344998
 21
3551.268015250607
 31
0.0
  0
LINE
  5
16071
330
15195
100
AcDbEntity
  8
寸法
 62
     0
 48
50.0
370
    -2
100
AcDbLine
 10
6562.378360629169
 20
3026.268015250593
 30
0.0
 11
6355.063857344998
 21
3026.268015250593
 31
0.0
  0
LINE
  5
16072
330
15195
100
AcDbEntity
  8
寸法
 62
     0
 48
50.0
370
    -2
100
AcDbLine
 10
6400.063857344997
 20
3551.268015250607
 30
0.0
 11
6400.063857344997
 21
3026.268015250593
 31
0.0
  0
INSERT
  5
16073
330
15195
100
AcDbEntity
  8
寸法
 62
     0
 48
50.0
370
    -2
100
AcDbBlockReference
  2
_DOTSMALL
 10
6400.063857344997
 20
3551.268015250607
 30
0.0
 41
75.0
 42
75.0
 43
75.0
 50
90.0
  0
INSERT
  5
16074
330
15195
100
AcDbEntity
  8
寸法
 62
     0
 48
50.0
370
    -2
100
AcDbBlockReference
  2
_DOTSMALL
 10
6400.063857344997
 20
3026.268015250593
 30
0.0
 41
75.0
 42
75.0
 43
75.0
 50
270.0
  0
MTEXT
  5
16075
330
15195
100
AcDbEntity
  8
寸法
 62
     7
 48
50.0
100
AcDbMText
 10
6325.054999077281
 20
3288.768015250601
 30
0.0
 40
90.0
 41
0.0
 71
     5
 72
     1
  1
\A1;525
  7
STYLE1
 11
0.0000000000000001
 21
1.0
 31
0.0
 73
     1
 44
1.0
1001
ACAD
1000
MTEXTBEGIN
1070
    73
1070
     1
1070
    44
1040
1.0
1070
    74
1070
     0
1000
MTEXTEND
  0
POINT
  5
16076
330
15195
100
AcDbEntity
  8
DEFPOINTS
 62
     0
 48
50.0
100
AcDbPoint
 10
6727.378360629169
 20
3551.268015250607
 30
0.0
  0
POINT
  5
16077
330
15195
100
AcDbEntity
  8
DEFPOINTS
 62
     0
 48
50.0
100
AcDbPoint
 10
6577.378360629168
 20
3026.268015250593
 30
0.0
  0
POINT
  5
16078
330
15195
100
AcDbEntity
  8
DEFPOINTS
 62
     0
 48
50.0
100
AcDbPoint
 10
6400.063857344997
 20
3026.268015250593
 30
0.0
  0
ENDBLK
  5
15197
330
15195
100
AcDbEntity
  8
0
 48
50.0
100
AcDbBlockEnd
  0
BLOCK
  5
151A2
330
151A1
100
AcDbEntity
  8
0
 48
50.0
100
AcDbBlockBegin
  2
*D19
 70
     1
 10
0.0
 20
0.0
 30
0.0
  3
*D19
  1

  0
LINE
  5
16079
330
151A1
100
AcDbEntity
  8
寸法
 62
     0
 48
50.0
370
    -2
100
AcDbLine
 10
6562.378360629169
 20
4426.268015250607
 30
0.0
 11
6177.749354060827
 21
4426.268015250607
 31
0.0
  0
LINE
  5
1607A
330
151A1
100
AcDbEntity
  8
寸法
 62
     0
 48
50.0
370
    -2
100
AcDbLine
 10
6562.378360629169
 20
3026.268015250593
 30
0.0
 11
6177.749354060827
 21
3026.268015250593
 31
0.0
  0
LINE
  5
1607B
330
151A1
100
AcDbEntity
  8
寸法
 62
     0
 48
50.0
370
    -2
100
AcDbLine
 10
6222.749354060827
 20
4426.268015250607
 30
0.0
 11
6222.749354060827
 21
3026.268015250593
 31
0.0
  0
INSERT
  5
1607C
330
151A1
100
AcDbEntity
  8
寸法
 62
     0
 48
50.0
370
    -2
100
AcDbBlockReference
  2
_DOTSMALL
 10
6222.749354060827
 20
4426.268015250607
 30
0.0
 41
75.0
 42
75.0
 43
75.0
 50
90.0
  0
INSERT
  5
1607D
330
151A1
100
AcDbEntity
  8
寸法
 62
     0
 48
50.0
370
    -2
100
AcDbBlockReference
  2
_DOTSMALL
 10
6222.749354060827
 20
3026.268015250593
 30
0.0
 41
75.0
 42
75.0
 43
75.0
 50
270.0
  0
MTEXT
  5
1607E
330
151A1
100
AcDbEntity
  8
寸法
 62
     7
 48
50.0
100
AcDbMText
 10
6147.749354060826
 20
3726.268015250602
 30
0.0
 40
90.0
 41
0.0
 71
     5
 72
     1
  1
\A1;1400
  7
STYLE1
 11
0.0000000000000001
 21
1.0
 31
0.0
 73
     1
 44
1.0
1001
ACAD
1000
MTEXTBEGIN
1070
    73
1070
     1
1070
    44
1040
1.0
1070
    74
1070
     0
1000
MTEXTEND
  0
POINT
  5
1607F
330
151A1
100
AcDbEntity
  8
DEFPOINTS
 62
     0
 48
50.0
100
AcDbPoint
 10
6577.378360629168
 20
4426.268015250607
 30
0.0
  0
POINT
  5
16080
330
151A1
100
AcDbEntity
  8
DEFPOINTS
 62
     0
 48
50.0
100
AcDbPoint
 10
6577.378360629168
 20
3026.268015250593
 30
0.0
  0
POINT
  5
16081
330
151A1
100
AcDbEntity
  8
DEFPOINTS
 62
     0
 48
50.0
100
AcDbPoint
 10
6222.749354060827
 20
3026.268015250593
 30
0.0
  0
ENDBLK
  5
151A3
330
151A1
100
AcDbEntity
  8
0
 48
50.0
100
AcDbBlockEnd
  0
BLOCK
  5
151AE
330
151AD
100
AcDbEntity
  8
0
 48
50.0
100
AcDbBlockBegin
  2
*D20
 70
     1
 10
0.0
 20
0.0
 30
0.0
  3
*D20
  1

  0
LINE
  5
16082
330
151AD
100
AcDbEntity
  8
寸法
 62
     0
 48
50.0
370
    -2
100
AcDbLine
 10
6712.37836062917
 20
3901.268015250607
 30
0.0
 11
6355.063857344998
 21
3901.268015250607
 31
0.0
  0
LINE
  5
16083
330
151AD
100
AcDbEntity
  8
寸法
 62
     0
 48
50.0
370
    -2
100
AcDbLine
 10
6712.37836062917
 20
3551.268015250607
 30
0.0
 11
6355.063857344998
 21
3551.268015250607
 31
0.0
  0
LINE
  5
16084
330
151AD
100
AcDbEntity
  8
寸法
 62
     0
 48
50.0
370
    -2
100
AcDbLine
 10
6400.063857344997
 20
3901.268015250607
 30
0.0
 11
6400.063857344997
 21
3551.268015250607
 31
0.0
  0
INSERT
  5
16085
330
151AD
100
AcDbEntity
  8
寸法
 62
     0
 48
50.0
370
    -2
100
AcDbBlockReference
  2
_DOTSMALL
 10
6400.063857344997
 20
3901.268015250607
 30
0.0
 41
75.0
 42
75.0
 43
75.0
 50
90.0
  0
INSERT
  5
16086
330
151AD
100
AcDbEntity
  8
寸法
 62
     0
 48
50.0
370
    -2
100
AcDbBlockReference
  2
_DOTSMALL
 10
6400.063857344997
 20
3551.268015250607
 30
0.0
 41
75.0
 42
75.0
 43
75.0
 50
270.0
  0
MTEXT
  5
16087
330
151AD
100
AcDbEntity
  8
寸法
 62
     7
 48
50.0
100
AcDbMText
 10
6325.063857344996
 20
3726.268015250609
 30
0.0
 40
90.0
 41
0.0
 71
     5
 72
     1
  1
\A1;350
  7
STYLE1
 11
0.0000000000000001
 21
1.0
 31
0.0
 73
     1
 44
1.0
1001
ACAD
1000
MTEXTBEGIN
1070
    73
1070
     1
1070
    44
1040
1.0
1070
    74
1070
     0
1000
MTEXTEND
  0
POINT
  5
16088
330
151AD
100
AcDbEntity
  8
DEFPOINTS
 62
     0
 48
50.0
100
AcDbPoint
 10
6727.378360629169
 20
3901.268015250607
 30
0.0
  0
POINT
  5
16089
330
151AD
100
AcDbEntity
  8
DEFPOINTS
 62
     0
 48
50.0
100
AcDbPoint
 10
6727.378360629169
 20
3551.268015250607
 30
0.0
  0
POINT
  5
1608A
330
151AD
100
AcDbEntity
  8
DEFPOINTS
 62
     0
 48
50.0
100
AcDbPoint
 10
6400.063857344997
 20
3551.268015250607
 30
0.0
  0
ENDBLK
  5
151AF
330
151AD
100
AcDbEntity
  8
0
 48
50.0
100
AcDbBlockEnd
  0
BLOCK
  5
151BA
330
151B9
100
AcDbEntity
  8
0
 48
50.0
100
AcDbBlockBegin
  2
*D21
 70
     1
 10
0.0
 20
0.0
 30
0.0
  3
*D21
  1

  0
LINE
  5
1608B
330
151B9
100
AcDbEntity
  8
寸法
 62
     0
 48
50.0
370
    -2
100
AcDbLine
 10
6712.37836062917
 20
3901.268015250607
 30
0.0
 11
6355.063857344998
 21
3901.268015250607
 31
0.0
  0
LINE
  5
1608C
330
151B9
100
AcDbEntity
  8
寸法
 62
     0
 48
50.0
370
    -2
100
AcDbLine
 10
6562.378360629169
 20
4426.268015250622
 30
0.0
 11
6355.063857344998
 21
4426.268015250622
 31
0.0
  0
LINE
  5
1608D
330
151B9
100
AcDbEntity
  8
寸法
 62
     0
 48
50.0
370
    -2
100
AcDbLine
 10
6400.063857344997
 20
3901.268015250607
 30
0.0
 11
6400.063857344997
 21
4426.268015250622
 31
0.0
  0
INSERT
  5
1608E
330
151B9
100
AcDbEntity
  8
寸法
 62
     0
 48
50.0
370
    -2
100
AcDbBlockReference
  2
_DOTSMALL
 10
6400.063857344997
 20
3901.268015250607
 30
0.0
 41
75.0
 42
75.0
 43
75.0
 50
270.0
  0
INSERT
  5
1608F
330
151B9
100
AcDbEntity
  8
寸法
 62
     0
 48
50.0
370
    -2
100
AcDbBlockReference
  2
_DOTSMALL
 10
6400.063857344997
 20
4426.268015250622
 30
0.0
 41
75.0
 42
75.0
 43
75.0
 50
90.0
  0
MTEXT
  5
16090
330
151B9
100
AcDbEntity
  8
寸法
 62
     7
 48
50.0
100
AcDbMText
 10
6325.054999077281
 20
4163.768015250616
 30
0.0
 40
90.0
 41
0.0
 71
     5
 72
     1
  1
\A1;525
  7
STYLE1
 11
0.0000000000000001
 21
1.0
 31
0.0
 73
     1
 44
1.0
1001
ACAD
1000
MTEXTBEGIN
1070
    73
1070
     1
1070
    44
1040
1.0
1070
    74
1070
     0
1000
MTEXTEND
  0
POINT
  5
16091
330
151B9
100
AcDbEntity
  8
DEFPOINTS
 62
     0
 48
50.0
100
AcDbPoint
 10
6727.378360629169
 20
3901.268015250607
 30
0.0
  0
POINT
  5
16092
330
151B9
100
AcDbEntity
  8
DEFPOINTS
 62
     0
 48
50.0
100
AcDbPoint
 10
6577.378360629168
 20
4426.268015250622
 30
0.0
  0
POINT
  5
16093
330
151B9
100
AcDbEntity
  8
DEFPOINTS
 62
     0
 48
50.0
100
AcDbPoint
 10
6400.063857344997
 20
4426.268015250622
 30
0.0
  0
ENDBLK
  5
151BB
330
151B9
100
AcDbEntity
  8
0
 48
50.0
100
AcDbBlockEnd
  0
BLOCK
  5
1526E
330
1526D
100
AcDbEntity
  8
0
 48
50.0
100
AcDbBlockBegin
  2
*D22
 70
     1
 10
0.0
 20
0.0
 30
0.0
  3
*D22
  1

  0
LINE
  5
160B1
330
1526D
100
AcDbEntity
  8
寸法
 62
     0
 48
50.0
370
    -2
100
AcDbLine
 10
8615.710303027801
 20
3838.667957401802
 30
0.0
 11
8435.129175925897
 21
3838.667957401802
 31
0.0
  0
LINE
  5
160B2
330
1526D
100
AcDbEntity
  8
寸法
 62
     0
 48
50.0
370
    -2
100
AcDbLine
 10
8615.710303027801
 20
3938.667957401802
 30
0.0
 11
8435.129175925897
 21
3938.667957401802
 31
0.0
  0
LINE
  5
160B3
330
1526D
100
AcDbEntity
  8
寸法
 62
     0
 48
50.0
370
    -2
100
AcDbLine
 10
8480.129175925897
 20
3838.667957401802
 30
0.0
 11
8480.129175925897
 21
3938.667957401802
 31
0.0
  0
LINE
  5
160B4
330
1526D
100
AcDbEntity
  8
寸法
 62
     0
 48
50.0
370
    -2
100
AcDbLine
 10
8480.129175925897
 20
3938.667957401802
 30
0.0
 11
8480.129175925899
 21
4217.738823543576
 31
0.0
  0
INSERT
  5
160B5
330
1526D
100
AcDbEntity
  8
寸法
 62
     0
 48
50.0
370
    -2
100
AcDbBlockReference
  2
_DOTSMALL
 10
8480.129175925897
 20
3838.667957401802
 30
0.0
 41
75.0
 42
75.0
 43
75.0
 50
270.0
  0
INSERT
  5
160B6
330
1526D
100
AcDbEntity
  8
寸法
 62
     0
 48
50.0
370
    -2
100
AcDbBlockReference
  2
_DOTSMALL
 10
8480.129175925897
 20
3938.667957401802
 30
0.0
 41
75.0
 42
75.0
 43
75.0
 50
90.0
  0
MTEXT
  5
160B7
330
1526D
100
AcDbEntity
  8
寸法
 62
     7
 48
50.0
100
AcDbMText
 10
8405.129175925898
 20
4115.70339047271
 30
0.0
 40
90.0
 41
0.0
 71
     5
 72
     1
  1
\A1;100
  7
STYLE1
 11
0.0000000000000001
 21
1.0
 31
0.0
 73
     1
 44
1.0
1001
ACAD
1000
MTEXTBEGIN
1070
    73
1070
     1
1070
    44
1040
1.0
1070
    74
1070
     0
1000
MTEXTEND
  0
POINT
  5
160B8
330
1526D
100
AcDbEntity
  8
DEFPOINTS
 62
     0
 48
50.0
100
AcDbPoint
 10
8630.710303027802
 20
3838.667957401802
 30
0.0
  0
POINT
  5
160B9
330
1526D
100
AcDbEntity
  8
DEFPOINTS
 62
     0
 48
50.0
100
AcDbPoint
 10
8630.710303027802
 20
3938.667957401802
 30
0.0
  0
POINT
  5
160BA
330
1526D
100
AcDbEntity
  8
DEFPOINTS
 62
     0
 48
50.0
100
AcDbPoint
 10
8480.129175925897
 20
3938.667957401802
 30
0.0
  0
ENDBLK
  5
1526F
330
1526D
100
AcDbEntity
  8
0
 48
50.0
100
AcDbBlockEnd
  0
BLOCK
  5
1527B
330
1527A
100
AcDbEntity
  8
0
 48
50.0
100
AcDbBlockBegin
  2
*D23
 70
     1
 10
0.0
 20
0.0
 30
0.0
  3
*D23
  1

  0
LINE
  5
160BB
330
1527A
100
AcDbEntity
  8
寸法
 62
     0
 48
50.0
370
    -2
100
AcDbLine
 10
8615.710303027801
 20
3838.667957401802
 30
0.0
 11
8435.129175925897
 21
3838.667957401802
 31
0.0
  0
LINE
  5
160BC
330
1527A
100
AcDbEntity
  8
寸法
 62
     0
 48
50.0
370
    -2
100
AcDbLine
 10
8615.710303027801
 20
3738.667957401802
 30
0.0
 11
8435.129175925897
 21
3738.667957401802
 31
0.0
  0
LINE
  5
160BD
330
1527A
100
AcDbEntity
  8
寸法
 62
     0
 48
50.0
370
    -2
100
AcDbLine
 10
8480.129175925897
 20
3838.667957401802
 30
0.0
 11
8480.129175925897
 21
3738.667957401802
 31
0.0
  0
LINE
  5
160BE
330
1527A
100
AcDbEntity
  8
寸法
 62
     0
 48
50.0
370
    -2
100
AcDbLine
 10
8480.129175925897
 20
3738.667957401802
 30
0.0
 11
8480.129175925897
 21
3459.597091260069
 31
0.0
  0
INSERT
  5
160BF
330
1527A
100
AcDbEntity
  8
寸法
 62
     0
 48
50.0
370
    -2
100
AcDbBlockReference
  2
_DOTSMALL
 10
8480.129175925897
 20
3838.667957401802
 30
0.0
 41
75.0
 42
75.0
 43
75.0
 50
90.0
  0
INSERT
  5
160C0
330
1527A
100
AcDbEntity
  8
寸法
 62
     0
 48
50.0
370
    -2
100
AcDbBlockReference
  2
_DOTSMALL
 10
8480.129175925897
 20
3738.667957401802
 30
0.0
 41
75.0
 42
75.0
 43
75.0
 50
270.0
  0
MTEXT
  5
160C1
330
1527A
100
AcDbEntity
  8
寸法
 62
     7
 48
50.0
100
AcDbMText
 10
8405.129175925898
 20
3561.632524330937
 30
0.0
 40
90.0
 41
0.0
 71
     5
 72
     1
  1
\A1;100
  7
STYLE1
 11
0.0000000000000001
 21
1.0
 31
0.0
 73
     1
 44
1.0
1001
ACAD
1000
MTEXTBEGIN
1070
    73
1070
     1
1070
    44
1040
1.0
1070
    74
1070
     0
1000
MTEXTEND
  0
POINT
  5
160C2
330
1527A
100
AcDbEntity
  8
DEFPOINTS
 62
     0
 48
50.0
100
AcDbPoint
 10
8630.710303027802
 20
3838.667957401802
 30
0.0
  0
POINT
  5
160C3
330
1527A
100
AcDbEntity
  8
DEFPOINTS
 62
     0
 48
50.0
100
AcDbPoint
 10
8630.710303027802
 20
3738.667957401802
 30
0.0
  0
POINT
  5
160C4
330
1527A
100
AcDbEntity
  8
DEFPOINTS
 62
     0
 48
50.0
100
AcDbPoint
 10
8480.129175925897
 20
3738.667957401802
 30
0.0
  0
ENDBLK
  5
1527C
330
1527A
100
AcDbEntity
  8
0
 48
50.0
100
AcDbBlockEnd
  0
BLOCK
  5
15288
330
15287
100
AcDbEntity
  8
0
 48
50.0
100
AcDbBlockBegin
  2
*D24
 70
     1
 10
0.0
 20
0.0
 30
0.0
  3
*D24
  1

  0
LINE
  5
160C5
330
15287
100
AcDbEntity
  8
寸法
 62
     0
 48
50.0
370
    -2
100
AcDbLine
 10
9130.710303027859
 20
3273.667957401802
 30
0.0
 11
9130.710303027859
 21
2802.051327757767
 31
0.0
  0
LINE
  5
160C6
330
15287
100
AcDbEntity
  8
寸法
 62
     0
 48
50.0
370
    -2
100
AcDbLine
 10
9655.710303027859
 20
3212.610125571922
 30
0.0
 11
9655.710303027859
 21
2802.051327757767
 31
0.0
  0
LINE
  5
160C7
330
15287
100
AcDbEntity
  8
寸法
 62
     0
 48
50.0
370
    -2
100
AcDbLine
 10
9130.710303027859
 20
2847.051327757767
 30
0.0
 11
9655.710303027859
 21
2847.051327757767
 31
0.0
  0
INSERT
  5
160C8
330
15287
100
AcDbEntity
  8
寸法
 62
     0
 48
50.0
370
    -2
100
AcDbBlockReference
  2
_DOTSMALL
 10
9130.710303027859
 20
2847.051327757767
 30
0.0
 41
75.0
 42
75.0
 43
75.0
 50
180.0
  0
INSERT
  5
160C9
330
15287
100
AcDbEntity
  8
寸法
 62
     0
 48
50.0
370
    -2
100
AcDbBlockReference
  2
_DOTSMALL
 10
9655.710303027859
 20
2847.051327757767
 30
0.0
 41
75.0
 42
75.0
 43
75.0
  0
MTEXT
  5
160CA
330
15287
100
AcDbEntity
  8
寸法
 62
     7
 48
50.0
100
AcDbMText
 10
9393.21030302786
 20
2922.060186025484
 30
0.0
 40
90.0
 41
0.0
 71
     5
 72
     1
  1
\A1;525
  7
STYLE1
 73
     1
 44
1.0
1001
ACAD
1000
MTEXTBEGIN
1070
    73
1070
     1
1070
    44
1040
1.0
1070
    74
1070
     0
1000
MTEXTEND
  0
POINT
  5
160CB
330
15287
100
AcDbEntity
  8
DEFPOINTS
 62
     0
 48
50.0
100
AcDbPoint
 10
9130.710303027859
 20
3288.667957401802
 30
0.0
  0
POINT
  5
160CC
330
15287
100
AcDbEntity
  8
DEFPOINTS
 62
     0
 48
50.0
100
AcDbPoint
 10
9655.710303027859
 20
3227.610125571923
 30
0.0
  0
POINT
  5
160CD
330
15287
100
AcDbEntity
  8
DEFPOINTS
 62
     0
 48
50.0
100
AcDbPoint
 10
9655.710303027859
 20
2847.051327757767
 30
0.0
  0
ENDBLK
  5
15289
330
15287
100
AcDbEntity
  8
0
 48
50.0
100
AcDbBlockEnd
  0
BLOCK
  5
15294
330
15293
100
AcDbEntity
  8
0
 48
50.0
100
AcDbBlockBegin
  2
*D25
 70
     1
 10
0.0
 20
0.0
 30
0.0
  3
*D25
  1

  0
LINE
  5
160CE
330
15293
100
AcDbEntity
  8
寸法
 62
     0
 48
50.0
370
    -2
100
AcDbLine
 10
10530.71030302786
 20
3273.667957401802
 30
0.0
 11
10530.71030302786
 21
2571.965766669015
 31
0.0
  0
LINE
  5
160CF
330
15293
100
AcDbEntity
  8
寸法
 62
     0
 48
50.0
370
    -2
100
AcDbLine
 10
9130.710303027859
 20
3273.667957401802
 30
0.0
 11
9130.710303027859
 21
2571.965766669015
 31
0.0
  0
LINE
  5
160D0
330
15293
100
AcDbEntity
  8
寸法
 62
     0
 48
50.0
370
    -2
100
AcDbLine
 10
10530.71030302786
 20
2616.965766669015
 30
0.0
 11
9130.710303027859
 21
2616.965766669015
 31
0.0
  0
INSERT
  5
160D1
330
15293
100
AcDbEntity
  8
寸法
 62
     0
 48
50.0
370
    -2
100
AcDbBlockReference
  2
_DOTSMALL
 10
10530.71030302786
 20
2616.965766669015
 30
0.0
 41
75.0
 42
75.0
 43
75.0
  0
INSERT
  5
160D2
330
15293
100
AcDbEntity
  8
寸法
 62
     0
 48
50.0
370
    -2
100
AcDbBlockReference
  2
_DOTSMALL
 10
9130.710303027859
 20
2616.965766669015
 30
0.0
 41
75.0
 42
75.0
 43
75.0
 50
180.0
  0
MTEXT
  5
160D3
330
15293
100
AcDbEntity
  8
寸法
 62
     7
 48
50.0
100
AcDbMText
 10
9830.71030302786
 20
2691.965766669015
 30
0.0
 40
90.0
 41
0.0
 71
     5
 72
     1
  1
\A1;1400
  7
STYLE1
 73
     1
 44
1.0
1001
ACAD
1000
MTEXTBEGIN
1070
    73
1070
     1
1070
    44
1040
1.0
1070
    74
1070
     0
1000
MTEXTEND
  0
POINT
  5
160D4
330
15293
100
AcDbEntity
  8
DEFPOINTS
 62
     0
 48
50.0
100
AcDbPoint
 10
10530.71030302786
 20
3288.667957401802
 30
0.0
  0
POINT
  5
160D5
330
15293
100
AcDbEntity
  8
DEFPOINTS
 62
     0
 48
50.0
100
AcDbPoint
 10
9130.710303027859
 20
3288.667957401802
 30
0.0
  0
POINT
  5
160D6
330
15293
100
AcDbEntity
  8
DEFPOINTS
 62
     0
 48
50.0
100
AcDbPoint
 10
9130.710303027859
 20
2616.965766669015
 30
0.0
  0
ENDBLK
  5
15295
330
15293
100
AcDbEntity
  8
0
 48
50.0
100
AcDbBlockEnd
  0
BLOCK
  5
152A0
330
1529F
100
AcDbEntity
  8
0
 48
50.0
100
AcDbBlockBegin
  2
*D26
 70
     1
 10
0.0
 20
0.0
 30
0.0
  3
*D26
  1

  0
LINE
  5
160D7
330
1529F
100
AcDbEntity
  8
寸法
 62
     0
 48
50.0
370
    -2
100
AcDbLine
 10
9655.710303027859
 20
3212.610125571922
 30
0.0
 11
9655.710303027859
 21
2802.051327757767
 31
0.0
  0
LINE
  5
160D8
330
1529F
100
AcDbEntity
  8
寸法
 62
     0
 48
50.0
370
    -2
100
AcDbLine
 10
10005.71030302786
 20
3212.610125571922
 30
0.0
 11
10005.71030302786
 21
2802.051327757767
 31
0.0
  0
LINE
  5
160D9
330
1529F
100
AcDbEntity
  8
寸法
 62
     0
 48
50.0
370
    -2
100
AcDbLine
 10
9655.710303027859
 20
2847.051327757767
 30
0.0
 11
10005.71030302786
 21
2847.051327757767
 31
0.0
  0
INSERT
  5
160DA
330
1529F
100
AcDbEntity
  8
寸法
 62
     0
 48
50.0
370
    -2
100
AcDbBlockReference
  2
_DOTSMALL
 10
9655.710303027859
 20
2847.051327757767
 30
0.0
 41
75.0
 42
75.0
 43
75.0
 50
180.0
  0
INSERT
  5
160DB
330
1529F
100
AcDbEntity
  8
寸法
 62
     0
 48
50.0
370
    -2
100
AcDbBlockReference
  2
_DOTSMALL
 10
10005.71030302786
 20
2847.051327757767
 30
0.0
 41
75.0
 42
75.0
 43
75.0
  0
MTEXT
  5
160DC
330
1529F
100
AcDbEntity
  8
寸法
 62
     7
 48
50.0
100
AcDbMText
 10
9830.71030302786
 20
2922.051327757767
 30
0.0
 40
90.0
 41
0.0
 71
     5
 72
     1
  1
\A1;350
  7
STYLE1
 73
     1
 44
1.0
1001
ACAD
1000
MTEXTBEGIN
1070
    73
1070
     1
1070
    44
1040
1.0
1070
    74
1070
     0
1000
MTEXTEND
  0
POINT
  5
160DD
330
1529F
100
AcDbEntity
  8
DEFPOINTS
 62
     0
 48
50.0
100
AcDbPoint
 10
9655.710303027859
 20
3227.610125571923
 30
0.0
  0
POINT
  5
160DE
330
1529F
100
AcDbEntity
  8
DEFPOINTS
 62
     0
 48
50.0
100
AcDbPoint
 10
10005.71030302786
 20
3227.610125571923
 30
0.0
  0
POINT
  5
160DF
330
1529F
100
AcDbEntity
  8
DEFPOINTS
 62
     0
 48
50.0
100
AcDbPoint
 10
10005.71030302786
 20
2847.051327757767
 30
0.0
  0
ENDBLK
  5
152A1
330
1529F
100
AcDbEntity
  8
0
 48
50.0
100
AcDbBlockEnd
  0
BLOCK
  5
152AC
330
152AB
100
AcDbEntity
  8
0
 48
50.0
100
AcDbBlockBegin
  2
*D27
 70
     1
 10
0.0
 20
0.0
 30
0.0
  3
*D27
  1

  0
LINE
  5
160E0
330
152AB
100
AcDbEntity
  8
寸法
 62
     0
 48
50.0
370
    -2
100
AcDbLine
 10
10530.71030302786
 20
3273.667957401802
 30
0.0
 11
10530.71030302786
 21
2802.051327757767
 31
0.0
  0
LINE
  5
160E1
330
152AB
100
AcDbEntity
  8
寸法
 62
     0
 48
50.0
370
    -2
100
AcDbLine
 10
10005.71030302786
 20
3212.610125571922
 30
0.0
 11
10005.71030302786
 21
2802.051327757767
 31
0.0
  0
LINE
  5
160E2
330
152AB
100
AcDbEntity
  8
寸法
 62
     0
 48
50.0
370
    -2
100
AcDbLine
 10
10530.71030302786
 20
2847.051327757767
 30
0.0
 11
10005.71030302786
 21
2847.051327757767
 31
0.0
  0
INSERT
  5
160E3
330
152AB
100
AcDbEntity
  8
寸法
 62
     0
 48
50.0
370
    -2
100
AcDbBlockReference
  2
_DOTSMALL
 10
10530.71030302786
 20
2847.051327757767
 30
0.0
 41
75.0
 42
75.0
 43
75.0
  0
INSERT
  5
160E4
330
152AB
100
AcDbEntity
  8
寸法
 62
     0
 48
50.0
370
    -2
100
AcDbBlockReference
  2
_DOTSMALL
 10
10005.71030302786
 20
2847.051327757767
 30
0.0
 41
75.0
 42
75.0
 43
75.0
 50
180.0
  0
MTEXT
  5
160E5
330
152AB
100
AcDbEntity
  8
寸法
 62
     7
 48
50.0
100
AcDbMText
 10
10268.21030302786
 20
2922.060186025484
 30
0.0
 40
90.0
 41
0.0
 71
     5
 72
     1
  1
\A1;525
  7
STYLE1
 73
     1
 44
1.0
1001
ACAD
1000
MTEXTBEGIN
1070
    73
1070
     1
1070
    44
1040
1.0
1070
    74
1070
     0
1000
MTEXTEND
  0
POINT
  5
160E6
330
152AB
100
AcDbEntity
  8
DEFPOINTS
 62
     0
 48
50.0
100
AcDbPoint
 10
10530.71030302786
 20
3288.667957401802
 30
0.0
  0
POINT
  5
160E7
330
152AB
100
AcDbEntity
  8
DEFPOINTS
 62
     0
 48
50.0
100
AcDbPoint
 10
10005.71030302786
 20
3227.610125571923
 30
0.0
  0
POINT
  5
160E8
330
152AB
100
AcDbEntity
  8
DEFPOINTS
 62
     0
 48
50.0
100
AcDbPoint
 10
10005.71030302786
 20
2847.051327757767
 30
0.0
  0
ENDBLK
  5
152AD
330
152AB
100
AcDbEntity
  8
0
 48
50.0
100
AcDbBlockEnd
  0
BLOCK
  5
15328
330
15327
100
AcDbEntity
  8
0
 48
50.0
100
AcDbBlockBegin
  2
*D28
 70
     1
 10
0.0
 20
0.0
 30
0.0
  3
*D28
  1

  0
LINE
  5
160E9
330
15327
100
AcDbEntity
  8
寸法
 62
     0
 48
50.0
370
    -2
100
AcDbLine
 10
11110.50818059137
 20
3888.667957401802
 30
0.0
 11
11368.15166762859
 21
3888.667957401801
 31
0.0
  0
LINE
  5
160EA
330
15327
100
AcDbEntity
  8
寸法
 62
     0
 48
50.0
370
    -2
100
AcDbLine
 10
10625.71030302786
 20
3288.667957401802
 30
0.0
 11
11368.15166762859
 21
3288.667957401801
 31
0.0
  0
LINE
  5
160EB
330
15327
100
AcDbEntity
  8
寸法
 62
     0
 48
50.0
370
    -2
100
AcDbLine
 10
11323.15166762859
 20
3888.667957401801
 30
0.0
 11
11323.15166762859
 21
3288.667957401801
 31
0.0
  0
INSERT
  5
160EC
330
15327
100
AcDbEntity
  8
寸法
 62
     0
 48
50.0
370
    -2
100
AcDbBlockReference
  2
_DOTSMALL
 10
11323.15166762859
 20
3888.667957401801
 30
0.0
 41
75.0
 42
75.0
 43
75.0
 50
90.0
  0
INSERT
  5
160ED
330
15327
100
AcDbEntity
  8
寸法
 62
     0
 48
50.0
370
    -2
100
AcDbBlockReference
  2
_DOTSMALL
 10
11323.15166762859
 20
3288.667957401801
 30
0.0
 41
75.0
 42
75.0
 43
75.0
 50
270.0
  0
MTEXT
  5
160EE
330
15327
100
AcDbEntity
  8
寸法
 62
     7
 48
50.0
100
AcDbMText
 10
11248.15166762859
 20
3588.667957401803
 30
0.0
 40
90.0
 41
0.0
 71
     5
 72
     1
  1
\A1;600
  7
STYLE1
 11
0.0000000000000001
 21
1.0
 31
0.0
 73
     1
 44
1.0
1001
ACAD
1000
MTEXTBEGIN
1070
    73
1070
     1
1070
    44
1040
1.0
1070
    74
1070
     0
1000
MTEXTEND
  0
POINT
  5
160EF
330
15327
100
AcDbEntity
  8
DEFPOINTS
 62
     0
 48
50.0
100
AcDbPoint
 10
11095.50818059137
 20
3888.667957401802
 30
0.0
  0
POINT
  5
160F0
330
15327
100
AcDbEntity
  8
DEFPOINTS
 62
     0
 48
50.0
100
AcDbPoint
 10
10610.71030302786
 20
3288.667957401802
 30
0.0
  0
POINT
  5
160F1
330
15327
100
AcDbEntity
  8
DEFPOINTS
 62
     0
 48
50.0
100
AcDbPoint
 10
11323.15166762859
 20
3288.667957401801
 30
0.0
  0
ENDBLK
  5
15329
330
15327
100
AcDbEntity
  8
0
 48
50.0
100
AcDbBlockEnd
  0
BLOCK
  5
15334
330
15333
100
AcDbEntity
  8
0
 48
50.0
100
AcDbBlockBegin
  2
*D29
 70
     1
 10
0.0
 20
0.0
 30
0.0
  3
*D29
  1

  0
LINE
  5
160F2
330
15333
100
AcDbEntity
  8
寸法
 62
     0
 48
50.0
370
    -2
100
AcDbLine
 10
11045.71030302786
 20
3888.667957401802
 30
0.0
 11
11368.15166762859
 21
3888.667957401801
 31
0.0
  0
LINE
  5
160F3
330
15333
100
AcDbEntity
  8
寸法
 62
     0
 48
50.0
370
    -2
100
AcDbLine
 10
11045.71030302792
 20
3938.667957401802
 30
0.0
 11
11368.15166762859
 21
3938.667957401801
 31
0.0
  0
LINE
  5
160F4
330
15333
100
AcDbEntity
  8
寸法
 62
     0
 48
50.0
370
    -2
100
AcDbLine
 10
11323.15166762859
 20
3888.667957401801
 30
0.0
 11
11323.15166762859
 21
3813.667957401801
 31
0.0
  0
LINE
  5
160F5
330
15333
100
AcDbEntity
  8
寸法
 62
     0
 48
50.0
370
    -2
100
AcDbLine
 10
11323.15166762859
 20
3938.667957401801
 30
0.0
 11
11323.15166762859
 21
4247.738823543574
 31
0.0
  0
LINE
  5
160F6
330
15333
100
AcDbEntity
  8
寸法
 62
     0
 48
50.0
370
    -2
100
AcDbLine
 10
11323.15166762859
 20
3888.667957401801
 30
0.0
 11
11323.15166762859
 21
3938.667957401801
 31
0.0
  0
INSERT
  5
160F7
330
15333
100
AcDbEntity
  8
寸法
 62
     0
 48
50.0
370
    -2
100
AcDbBlockReference
  2
_DOTSMALL
 10
11323.15166762859
 20
3888.667957401801
 30
0.0
 41
75.0
 42
75.0
 43
75.0
 50
90.0
  0
INSERT
  5
160F8
330
15333
100
AcDbEntity
  8
寸法
 62
     0
 48
50.0
370
    -2
100
AcDbBlockReference
  2
_DOTSMALL
 10
11323.15166762859
 20
3938.667957401801
 30
0.0
 41
75.0
 42
75.0
 43
75.0
 50
270.0
  0
MTEXT
  5
160F9
330
15333
100
AcDbEntity
  8
寸法
 62
     7
 48
50.0
100
AcDbMText
 10
11248.15166762859
 20
4168.203390472711
 30
0.0
 40
90.0
 41
0.0
 71
     5
 72
     1
  1
\A1;50
  7
STYLE1
 11
0.0000000000000001
 21
1.0
 31
0.0
 73
     1
 44
1.0
1001
ACAD
1000
MTEXTBEGIN
1070
    73
1070
     1
1070
    44
1040
1.0
1070
    74
1070
     0
1000
MTEXTEND
  0
POINT
  5
160FA
330
15333
100
AcDbEntity
  8
DEFPOINTS
 62
     0
 48
50.0
100
AcDbPoint
 10
11030.71030302786
 20
3888.667957401802
 30
0.0
  0
POINT
  5
160FB
330
15333
100
AcDbEntity
  8
DEFPOINTS
 62
     0
 48
50.0
100
AcDbPoint
 10
11030.71030302791
 20
3938.667957401802
 30
0.0
  0
POINT
  5
160FC
330
15333
100
AcDbEntity
  8
DEFPOINTS
 62
     0
 48
50.0
100
AcDbPoint
 10
11323.15166762859
 20
3938.667957401801
 30
0.0
  0
ENDBLK
  5
15335
330
15333
100
AcDbEntity
  8
0
 48
50.0
100
AcDbBlockEnd
  0
BLOCK
  5
15342
330
15341
100
AcDbEntity
  8
0
 48
50.0
100
AcDbBlockBegin
  2
*D30
 70
     1
 10
0.0
 20
0.0
 30
0.0
  3
*D30
  1

  0
LINE
  5
160FD
330
15341
100
AcDbEntity
  8
寸法
 62
     0
 48
50.0
370
    -2
100
AcDbLine
 10
10625.71030302786
 20
3288.667957401802
 30
0.0
 11
11368.15166762859
 21
3288.667957401801
 31
0.0
  0
LINE
  5
160FE
330
15341
100
AcDbEntity
  8
寸法
 62
     0
 48
50.0
370
    -2
100
AcDbLine
 10
10625.71030302786
 20
3238.667957401802
 30
0.0
 11
11368.15166762859
 21
3238.667957401801
 31
0.0
  0
LINE
  5
160FF
330
15341
100
AcDbEntity
  8
寸法
 62
     0
 48
50.0
370
    -2
100
AcDbLine
 10
11323.15166762859
 20
3288.667957401801
 30
0.0
 11
11323.15166762859
 21
3363.667957401801
 31
0.0
  0
LINE
  5
16100
330
15341
100
AcDbEntity
  8
寸法
 62
     0
 48
50.0
370
    -2
100
AcDbLine
 10
11323.15166762859
 20
3238.667957401801
 30
0.0
 11
11323.15166762859
 21
2929.597091260069
 31
0.0
  0
LINE
  5
16101
330
15341
100
AcDbEntity
  8
寸法
 62
     0
 48
50.0
370
    -2
100
AcDbLine
 10
11323.15166762859
 20
3288.667957401801
 30
0.0
 11
11323.15166762859
 21
3238.667957401801
 31
0.0
  0
INSERT
  5
16102
330
15341
100
AcDbEntity
  8
寸法
 62
     0
 48
50.0
370
    -2
100
AcDbBlockReference
  2
_DOTSMALL
 10
11323.15166762859
 20
3288.667957401801
 30
0.0
 41
75.0
 42
75.0
 43
75.0
 50
270.0
  0
INSERT
  5
16103
330
15341
100
AcDbEntity
  8
寸法
 62
     0
 48
50.0
370
    -2
100
AcDbBlockReference
  2
_DOTSMALL
 10
11323.15166762859
 20
3238.667957401801
 30
0.0
 41
75.0
 42
75.0
 43
75.0
 50
90.0
  0
MTEXT
  5
16104
330
15341
100
AcDbEntity
  8
寸法
 62
     7
 48
50.0
100
AcDbMText
 10
11248.15166762859
 20
3009.132524330937
 30
0.0
 40
90.0
 41
0.0
 71
     5
 72
     1
  1
\A1;50
  7
STYLE1
 11
0.0000000000000001
 21
1.0
 31
0.0
 73
     1
 44
1.0
1001
ACAD
1000
MTEXTBEGIN
1070
    73
1070
     1
1070
    44
1040
1.0
1070
    74
1070
     0
1000
MTEXTEND
  0
POINT
  5
16105
330
15341
100
AcDbEntity
  8
DEFPOINTS
 62
     0
 48
50.0
100
AcDbPoint
 10
10610.71030302786
 20
3288.667957401802
 30
0.0
  0
POINT
  5
16106
330
15341
100
AcDbEntity
  8
DEFPOINTS
 62
     0
 48
50.0
100
AcDbPoint
 10
10610.71030302786
 20
3238.667957401802
 30
0.0
  0
POINT
  5
16107
330
15341
100
AcDbEntity
  8
DEFPOINTS
 62
     0
 48
50.0
100
AcDbPoint
 10
11323.15166762859
 20
3238.667957401801
 30
0.0
  0
ENDBLK
  5
15343
330
15341
100
AcDbEntity
  8
0
 48
50.0
100
AcDbBlockEnd
  0
BLOCK
  5
15E53
330
15E52
100
AcDbEntity
  8
0
 48
50.0
100
AcDbBlockBegin
  2
*D31
 70
     1
 10
0.0
 20
0.0
 30
0.0
  3
*D31
  1

  0
LINE
  5
16094
330
15E52
100
AcDbEntity
  8
寸法
 62
     0
 48
50.0
370
    -2
100
AcDbLine
 10
1377.378360629169
 20
4166.268015250607
 30
0.0
 11
1377.378360629169
 21
6235.923317781591
 31
0.0
  0
LINE
  5
16095
330
15E52
100
AcDbEntity
  8
寸法
 62
     0
 48
50.0
370
    -2
100
AcDbLine
 10
4177.378360629169
 20
4166.268015250607
 30
0.0
 11
4177.378360629169
 21
6235.923317781591
 31
0.0
  0
LINE
  5
16096
330
15E52
100
AcDbEntity
  8
寸法
 62
     0
 48
50.0
370
    -2
100
AcDbLine
 10
1377.378360629169
 20
6190.923317781591
 30
0.0
 11
4177.378360629169
 21
6190.923317781591
 31
0.0
  0
INSERT
  5
16097
330
15E52
100
AcDbEntity
  8
寸法
 62
     0
 48
50.0
370
    -2
100
AcDbBlockReference
  2
_DOTSMALL
 10
1377.378360629169
 20
6190.923317781591
 30
0.0
 41
75.0
 42
75.0
 43
75.0
 50
180.0
  0
INSERT
  5
16098
330
15E52
100
AcDbEntity
  8
寸法
 62
     0
 48
50.0
370
    -2
100
AcDbBlockReference
  2
_DOTSMALL
 10
4177.378360629169
 20
6190.923317781591
 30
0.0
 41
75.0
 42
75.0
 43
75.0
  0
MTEXT
  5
16099
330
15E52
100
AcDbEntity
  8
寸法
 62
     7
 48
50.0
100
AcDbMText
 10
2777.378360629169
 20
6265.932176049307
 30
0.0
 40
90.0
 41
0.0
 71
     5
 72
     1
  1
\A1;2800
  7
STYLE1
 73
     1
 44
1.0
1001
ACAD
1000
MTEXTBEGIN
1070
    73
1070
     1
1070
    44
1040
1.0
1070
    74
1070
     0
1000
MTEXTEND
  0
POINT
  5
1609A
330
15E52
100
AcDbEntity
  8
DEFPOINTS
 62
     0
 48
50.0
100
AcDbPoint
 10
1377.378360629169
 20
4151.268015250606
 30
-0.0000000000013153
  0
POINT
  5
1609B
330
15E52
100
AcDbEntity
  8
DEFPOINTS
 62
     0
 48
50.0
100
AcDbPoint
 10
4177.378360629169
 20
4151.268015250606
 30
-0.0000000000013153
  0
POINT
  5
1609C
330
15E52
100
AcDbEntity
  8
DEFPOINTS
 62
     0
 48
50.0
100
AcDbPoint
 10
4177.378360629169
 20
6190.923317781591
 30
0.0
  0
ENDBLK
  5
15E54
330
15E52
100
AcDbEntity
  8
0
 48
50.0
100
AcDbBlockEnd
  0
BLOCK
  5
15E72
330
15E71
100
AcDbEntity
  8
0
 48
50.0
100
AcDbBlockBegin
  2
*D32
 70
     1
 10
0.0
 20
0.0
 30
0.0
  3
*D32
  1

  0
LINE
  5
1609D
330
15E71
100
AcDbEntity
  8
寸法
 62
     0
 48
50.0
370
    -2
100
AcDbLine
 10
4177.378360629169
 20
4166.268015250607
 30
0.0
 11
4177.378360629169
 21
6235.923317781591
 31
0.0
  0
LINE
  5
1609E
330
15E71
100
AcDbEntity
  8
寸法
 62
     0
 48
50.0
370
    -2
100
AcDbLine
 10
4177.378360629169
 20
6190.923317781591
 30
0.0
 11
5497.378360629169
 21
6190.923317781591
 31
0.0
  0
INSERT
  5
1609F
330
15E71
100
AcDbEntity
  8
寸法
 62
     0
 48
50.0
370
    -2
100
AcDbBlockReference
  2
_DOTSMALL
 10
4177.378360629169
 20
6190.923317781591
 30
0.0
 41
75.0
 42
75.0
 43
75.0
 50
180.0
  0
MTEXT
  5
160A0
330
15E71
100
AcDbEntity
  8
寸法
 62
     7
 48
50.0
100
AcDbMText
 10
4837.378360629169
 20
6265.932176049307
 30
0.0
 40
90.0
 41
0.0
 71
     5
 72
     1
  1
\A1;2800
  7
STYLE1
 73
     1
 44
1.0
1001
ACAD
1000
MTEXTBEGIN
1070
    73
1070
     1
1070
    44
1040
1.0
1070
    74
1070
     0
1000
MTEXTEND
  0
POINT
  5
160A1
330
15E71
100
AcDbEntity
  8
DEFPOINTS
 62
     0
 48
50.0
100
AcDbPoint
 10
4177.378360629169
 20
4151.268015250606
 30
0.0
  0
POINT
  5
160A2
330
15E71
100
AcDbEntity
  8
DEFPOINTS
 62
     0
 48
50.0
100
AcDbPoint
 10
5497.378360629169
 20
4151.268015250606
 30
0.0
  0
POINT
  5
160A3
330
15E71
100
AcDbEntity
  8
DEFPOINTS
 62
     0
 48
50.0
100
AcDbPoint
 10
5497.378360629169
 20
6190.923317781591
 30
0.0
  0
ENDBLK
  5
15E73
330
15E71
100
AcDbEntity
  8
0
 48
50.0
100
AcDbBlockEnd
  0
BLOCK
  5
15F4D
330
15F4C
100
AcDbEntity
  8
0
 48
50.0
100
AcDbBlockBegin
  2
*D33
 70
     1
 10
0.0
 20
0.0
 30
0.0
  3
*D33
  1

  0
LINE
  5
160A4
330
15F4C
100
AcDbEntity
  8
寸法
 62
     0
 48
50.0
370
    -2
100
AcDbLine
 10
6977.378360629169
 20
4166.268015250607
 30
0.0
 11
6977.378360629169
 21
6235.923317781591
 31
0.0
  0
LINE
  5
160A5
330
15F4C
100
AcDbEntity
  8
寸法
 62
     0
 48
50.0
370
    -2
100
AcDbLine
 10
6977.378360629169
 20
6190.923317781591
 30
0.0
 11
5577.378360629169
 21
6190.923317781591
 31
0.0
  0
INSERT
  5
160A6
330
15F4C
100
AcDbEntity
  8
寸法
 62
     0
 48
50.0
370
    -2
100
AcDbBlockReference
  2
_DOTSMALL
 10
6977.378360629169
 20
6190.923317781591
 30
0.0
 41
75.0
 42
75.0
 43
75.0
  0
MTEXT
  5
160A7
330
15F4C
100
AcDbEntity
  8
寸法
 62
     7
 48
50.0
100
AcDbMText
 10
6277.378360629169
 20
6265.932176049307
 30
0.0
 40
90.0
 41
0.0
 71
     5
 72
     1
  1
\A1;2800
  7
STYLE1
 73
     1
 44
1.0
1001
ACAD
1000
MTEXTBEGIN
1070
    73
1070
     1
1070
    44
1040
1.0
1070
    74
1070
     0
1000
MTEXTEND
  0
POINT
  5
160A8
330
15F4C
100
AcDbEntity
  8
DEFPOINTS
 62
     0
 48
50.0
100
AcDbPoint
 10
6977.378360629169
 20
4151.268015250606
 30
-0.0000000000013153
  0
POINT
  5
160A9
330
15F4C
100
AcDbEntity
  8
DEFPOINTS
 62
     0
 48
50.0
100
AcDbPoint
 10
5577.378360629169
 20
4151.268015250606
 30
0.0
  0
POINT
  5
160AA
330
15F4C
100
AcDbEntity
  8
DEFPOINTS
 62
     0
 48
50.0
100
AcDbPoint
 10
5577.378360629169
 20
6190.923317781591
 30
0.0
  0
ENDBLK
  5
15F4E
330
15F4C
100
AcDbEntity
  8
0
 48
50.0
100
AcDbBlockEnd
  0
ENDSEC
  0
SECTION
  2
ENTITIES
  0
MTEXT
  5
763F
330
747D
100
AcDbEntity
  8
0
100
AcDbMText
 10
302.846345836809
 20
280.1983726409901
 30
0.0
 40
3.5
 41
5.323721266742722
 71
     1
 72
     5
  1

  7
MSMINCHO
 73
     1
 44
1.0
1001
ACAD
1000
MTEXTBEGIN
1070
    73
1070
     1
1070
    44
1040
1.0
1070
    74
1070
     0
1000
MTEXTEND
  0
LINE
  5
10B56
330
747D
100
AcDbEntity
  8
補助
  6
PHANTOM
 62
   230
 48
50.0
100
AcDbLine
 10
105.0
 20
0.0
 30
0.0
 11
104.9999999999996
 21
8557.199999999999
 31
0.0
  0
LINE
  5
10B57
330
747D
100
AcDbEntity
  8
補助
  6
PHANTOM
 62
   230
 48
50.0
100
AcDbLine
 10
104.9999999999996
 20
8557.199999999999
 30
0.0
 11
12230.4
 21
8557.199999999999
 31
0.0
  0
LINE
  5
10B5E
330
747D
100
AcDbEntity
  8
補助
  6
PHANTOM
 62
   230
 48
50.0
100
AcDbLine
 10
12230.4
 20
8557.199999999999
 30
0.0
 11
12230.4
 21
900.0
 31
0.0
  0
LINE
  5
10B6D
330
747D
100
AcDbEntity
  8
補助
  6
PHANTOM
 62
   230
 48
50.0
100
AcDbLine
 10
9830.400000000002
 20
8557.199999999999
 30
0.0
 11
9830.400000000002
 21
3600.0
 31
0.0
  0
LINE
  5
10B6F
330
747D
100
AcDbEntity
  8
補助
  6
PHANTOM
 62
   230
 48
50.0
100
AcDbLine
 10
9830.400000000002
 20
3110.960973647383
 30
0.0
 11
12230.4
 21
3110.960973647383
 31
0.0
  0
LINE
  5
13125
330
747D
100
AcDbEntity
  8
補助
  6
PHANTOM
 62
   230
 48
50.0
100
AcDbLine
 10
11930.4
 20
8182.200000000003
 30
0.0
 11
11930.4
 21
6457.2
 31
0.0
  0
LINE
  5
13126
330
747D
100
AcDbEntity
  8
補助
  6
PHANTOM
 62
   230
 48
50.0
100
AcDbLine
 10
9380.400000000003
 20
8182.199999999999
 30
0.0
 11
9380.400000000003
 21
6457.2
 31
0.0
  0
LINE
  5
13127
330
747D
100
AcDbEntity
  8
補助
  6
PHANTOM
 62
   230
 48
50.0
100
AcDbLine
 10
9380.400000000003
 20
6457.2
 30
0.0
 11
11930.4
 21
6457.2
 31
0.0
  0
LINE
  5
13128
330
747D
100
AcDbEntity
  8
補助
  6
PHANTOM
 62
   230
 48
50.0
100
AcDbLine
 10
9380.400000000003
 20
8182.199999999999
 30
0.0
 11
11930.4
 21
8182.200000000003
 31
0.0
  0
TEXT
  5
139C2
330
747D
100
AcDbEntity
  8
文字
 62
     7
 48
50.0
100
AcDbText
 10
10893.0988779165
 20
773.6682797184258
 30
0.0
 40
75.0
  1
             <縮尺> S=1/30
  7
STYLE2
100
AcDbText
  0
TEXT
  5
139C3
330
747D
100
AcDbEntity
  8
文字
 62
     7
 48
50.0
100
AcDbText
 10
11138.71739229687
 20
628.6895453046927
 30
0.0
 40
75.0
  1
～一般型～
  7
STYLE2
100
AcDbText
  0
TEXT
  5
139C4
330
747D
100
AcDbEntity
  8
文字
 62
     7
 48
50.0
100
AcDbText
 10
10951.9835159712
 20
362.922534743353
 30
0.0
 40
120.0
  1
BP-28VUL
  7
STYLE3
100
AcDbText
  0
LINE
  5
139C5
330
747D
100
AcDbEntity
  8
仕様書枠
  6
Continuous
 48
50.0
100
AcDbLine
 10
10688.4
 20
900.0000000000037
 30
0.0
 11
10688.4
 21
600.0000000000036
 31
0.0
  0
LINE
  5
139C6
330
747D
100
AcDbEntity
  8
仕様書枠
 48
50.0
100
AcDbLine
 10
9830.400000000002
 20
600.0000000000036
 30
0.0
 11
10688.4
 21
600.0000000000036
 31
0.0
  0
TEXT
  5
139C7
330
747D
100
AcDbEntity
  8
文字
 62
     7
 48
50.0
100
AcDbText
 10
9907.054008162901
 20
57.07076030736789
 30
0.0
 40
60.0
  1
○寒冷地等は、地域の実情に合わせた基礎にしてください。
  7
STYLE2
100
AcDbText
  0
TEXT
  5
139C8
330
747D
100
AcDbEntity
  8
文字
 62
     7
 48
50.0
100
AcDbText
 10
9907.054008162901
 20
171.4076431926805
 30
0.0
 40
60.0
  1
○間口寸法は柱芯寸法です。
  7
STYLE2
100
AcDbText
  0
TEXT
  5
139C9
330
747D
100
AcDbEntity
  8
文字
 62
     7
 48
50.0
100
AcDbText
 10
9901.077524988316
 20
357.9555495773529
 30
0.0
 40
120.0
  1
機種名
  7
STYLE2
100
AcDbText
  0
TEXT
  5
139CA
330
747D
100
AcDbEntity
  8
文字
 62
     7
 48
50.0
100
AcDbText
 10
9872.234292432681
 20
671.31795557246
 30
0.0
 40
150.0
  1
基 礎 図
  7
STYLE2
100
AcDbText
  0
LINE
  5
139CB
330
747D
100
AcDbEntity
  8
文字
 62
     7
 48
50.0
100
AcDbLine
 10
9890.400000000001
 20
300.0
 30
0.0
 11
12170.4
 21
300.0
 31
0.0
  0
LINE
  5
139CC
330
747D
100
AcDbEntity
  8
仕様書枠
 48
50.0
100
AcDbLine
 10
9830.400000000002
 20
900.0000000000037
 30
0.0
 11
12230.4
 21
900.0000000000037
 31
0.0
  0
LINE
  5
139CD
330
747D
100
AcDbEntity
  8
仕様書枠
 48
50.0
100
AcDbLine
 10
105.0
 20
0.0
 30
0.0
 11
12230.4
 21
0.0
 31
0.0
  0
LINE
  5
139CE
330
747D
100
AcDbEntity
  8
仕様書枠
 48
50.0
100
AcDbLine
 10
12230.4
 20
900.0000000000037
 30
0.0
 11
12230.4
 21
0.0
 31
0.0
  0
LINE
  5
139CF
330
747D
100
AcDbEntity
  8
仕様書枠
  6
Continuous
 48
50.0
100
AcDbLine
 10
9830.400000000002
 20
900.0000000000037
 30
0.0
 11
9830.400000000002
 21
0.0
 31
0.0
  0
LINE
  5
14AE9
330
747D
100
AcDbEntity
  8
細線
 48
50.0
100
AcDbLine
 10
9523.323403884518
 20
3138.667957401802
 30
0.0000000000013153
 11
9516.624674073748
 21
3163.667957401802
 31
0.0000000000013153
  0
LINE
  5
14AEA
330
747D
100
AcDbEntity
  8
細線
 48
50.0
100
AcDbLine
 10
9400.060833654404
 20
3138.667957401802
 30
0.0000000000013153
 11
9393.362103843633
 21
3163.667957401802
 31
0.0000000000013153
  0
LINE
  5
14AEB
330
747D
100
AcDbEntity
  8
細線
 48
50.0
100
AcDbLine
 10
9276.798263424344
 20
3138.667957401802
 30
0.0000000000013153
 11
9270.099533613574
 21
3163.667957401802
 31
0.0000000000013153
  0
LINE
  5
14AEC
330
747D
100
AcDbEntity
  8
細線
 48
50.0
100
AcDbLine
 10
9153.535693194289
 20
3138.667957401802
 30
0.0000000000013153
 11
9146.836963383519
 21
3163.667957401802
 31
0.0000000000013153
  0
LINE
  5
14AED
330
747D
100
AcDbEntity
  8
細線
 48
50.0
100
AcDbLine
 10
9530.022133695288
 20
3213.667957401802
 30
0.0000000000013153
 11
9523.323403884518
 21
3238.667957401802
 31
0.0000000000013153
  0
LINE
  5
14AEE
330
747D
100
AcDbEntity
  8
細線
 48
50.0
100
AcDbLine
 10
9406.759563465174
 20
3213.667957401802
 30
0.0000000000013153
 11
9400.060833654404
 21
3238.667957401802
 31
0.0000000000013153
  0
LINE
  5
14AEF
330
747D
100
AcDbEntity
  8
細線
 48
50.0
100
AcDbLine
 10
9160.234423005059
 20
3213.667957401802
 30
0.0000000000013153
 11
9153.535693194289
 21
3238.667957401802
 31
0.0000000000013153
  0
LINE
  5
14AF0
330
747D
100
AcDbEntity
  8
細線
 48
50.0
100
AcDbLine
 10
9283.496993235116
 20
3213.667957401802
 30
0.0000000000013153
 11
9276.798263424344
 21
3238.667957401802
 31
0.0000000000013153
  0
LINE
  5
14AF1
330
747D
100
AcDbEntity
  8
U7
100
AcDbLine
 10
9450.710303027859
 20
3673.667957401802
 30
0.0000000000013153
 11
10210.71030302786
 21
3673.667957401802
 31
0.0000000000013153
  0
HATCH
  5
14AF2
330
747D
100
AcDbEntity
  8
細線
 48
50.0
100
AcDbHatch
 10
0.0
 20
0.0
 30
0.0000000000026306
210
0.0
220
0.0
230
1.0
  2
PLAST
 70
     0
 71
     0
 91
       20
 92
        7
 72
     1
 73
     1
 93
       48
 10
9445.71030302786
 20
3678.667957401802
 42
-0.4142135623730951
 10
9450.710303027859
 20
3683.667957401802
 42
0.0
 10
9455.71030302786
 20
3683.667957401802
 42
0.0
 10
9455.71030302786
 20
3773.667957401802
 42
0.0
 10
9450.710303027859
 20
3773.667957401802
 42
-0.4142135623730951
 10
9445.71030302786
 20
3778.667957401802
 42
-0.4142135623730951
 10
9450.710303027859
 20
3783.667957401802
 42
0.0
 10
9611.160303027872
 20
3783.667957401802
 42
0.0
 10
9611.160303027872
 20
3838.667957401802
 42
0.0
 10
9130.710303027859
 20
3838.667957401802
 42
0.0
 10
9130.710303027859
 20
3288.667957401802
 42
0.0
 10
9611.160303027872
 20
3288.667957401802
 42
0.0
 10
9611.160303027872
 20
3318.667957401802
 42
0.0
 10
9555.71030302786
 20
3318.667957401802
 42
0.0
 10
9555.71030302786
 20
3328.667957401802
 42
0.0
 10
9611.160303027872
 20
3328.667957401802
 42
0.0
 10
9611.160303027872
 20
3353.667957401788
 42
0.0
 10
9314.99075458994
 20
3353.667957401788
 42
0.0
 10
9314.99075458994
 20
3363.667957401816
 42
0.0
 10
9330.71030302786
 20
3363.667957401802
 42
-0.4142135623730909
 10
9325.710303027859
 20
3368.667957401802
 42
-1.0
 10
9335.710303027859
 20
3368.667957401802
 42
-0.4142135623730992
 10
9330.71030302786
 20
3363.667957401802
 42
0.0
 10
9530.710303027859
 20
3363.667957401802
 42
-0.4142135623730951
 10
9525.71030302786
 20
3368.667957401802
 42
-1.0
 10
9535.71030302786
 20
3368.667957401802
 42
-0.4142135623730984
 10
9530.710303027859
 20
3363.667957401802
 42
0.0
 10
9611.160303027872
 20
3363.667957401802
 42
0.0
 10
9611.160303027872
 20
3473.667957401802
 42
0.0
 10
9468.71030302786
 20
3473.667957401802
 42
0.0
 10
9468.71030302786
 20
3443.667957401802
 42
-0.4142135623730951
 10
9425.710303027861
 20
3400.667957401802
 42
0.0
 10
9280.260303027848
 20
3400.667957401802
 42
0.0
 10
9280.260303027848
 20
3413.667957401802
 42
0.0
 10
9425.710303027861
 20
3413.667957401802
 42
0.4142135623730951
 10
9455.71030302786
 20
3443.667957401802
 42
0.0
 10
9455.71030302786
 20
3473.667957401802
 42
0.0
 10
9450.710303027859
 20
3473.667957401802
 42
-0.4142135623730951
 10
9445.71030302786
 20
3478.667957401802
 42
-0.4142135623730951
 10
9450.710303027859
 20
3483.667957401802
 42
0.0
 10
9455.71030302786
 20
3483.667957401802
 42
0.0
 10
9455.71030302786
 20
3573.667957401802
 42
0.0
 10
9450.710303027859
 20
3573.667957401802
 42
-0.4142135623730951
 10
9445.71030302786
 20
3578.667957401802
 42
-0.4142135623730951
 10
9450.710303027859
 20
3583.667957401802
 42
0.0
 10
9455.71030302786
 20
3583.667957401802
 42
0.0
 10
9455.71030302786
 20
3673.667957401802
 42
0.0
 10
9450.710303027859
 20
3673.667957401802
 42
-0.4142135623730951
 97
        0
 92
       23
 72
     0
 73
     1
 93
        4
 10
9611.160303027872
 20
3573.667957401802
 10
9468.71030302786
 20
3573.667957401802
 10
9468.71030302786
 20
3483.667957401802
 10
9611.160303027872
 20
3483.667957401802
 97
        0
 92
       23
 72
     0
 73
     1
 93
        4
 10
9611.160303027872
 20
3673.667957401802
 10
9468.71030302786
 20
3673.667957401802
 10
9468.71030302786
 20
3583.667957401802
 10
9611.160303027872
 20
3583.667957401802
 97
        0
 92
       23
 72
     0
 73
     1
 93
        4
 10
9611.160303027872
 20
3773.667957401802
 10
9468.71030302786
 20
3773.667957401802
 10
9468.71030302786
 20
3683.667957401802
 10
9611.160303027872
 20
3683.667957401802
 97
        0
 92
        7
 72
     0
 73
     1
 93
        4
 10
9830.71030302786
 20
3838.667957401802
 10
9700.260303027848
 20
3838.667957401802
 10
9700.260303027848
 20
3783.667957401802
 10
9830.71030302786
 20
3783.667957401802
 97
        0
 92
        7
 72
     0
 73
     1
 93
        4
 10
9830.71030302786
 20
3773.667957401802
 10
9700.260303027848
 20
3773.667957401802
 10
9700.260303027848
 20
3683.667957401802
 10
9830.71030302786
 20
3683.667957401802
 97
        0
 92
        7
 72
     0
 73
     1
 93
        4
 10
9830.71030302786
 20
3673.667957401802
 10
9700.260303027848
 20
3673.667957401802
 10
9700.260303027848
 20
3583.667957401802
 10
9830.71030302786
 20
3583.667957401802
 97
        0
 92
        7
 72
     0
 73
     1
 93
        4
 10
9830.71030302786
 20
3573.667957401802
 10
9700.260303027848
 20
3573.667957401802
 10
9700.260303027848
 20
3483.667957401802
 10
9830.71030302786
 20
3483.667957401802
 97
        0
 92
        7
 72
     1
 73
     1
 93
        8
 10
9830.71030302786
 20
3473.667957401802
 42
0.0
 10
9700.260303027848
 20
3473.667957401802
 42
0.0
 10
9700.260303027848
 20
3363.667957401816
 42
0.0
 10
9730.71030302786
 20
3363.667957401802
 42
-0.4142135623730918
 10
9725.710303027859
 20
3368.667957401802
 42
-1.0
 10
9735.710303027859
 20
3368.667957401802
 42
-0.4142135623730984
 10
9730.71030302786
 20
3363.667957401802
 42
0.0
 10
9830.71030302786
 20
3363.667957401802
 42
0.0
 97
        0
 92
        7
 72
     0
 73
     1
 93
        8
 10
9830.71030302786
 20
3353.667957401802
 10
9700.260303027848
 20
3353.667957401788
 10
9700.260303027848
 20
3328.667957401802
 10
9755.710303027861
 20
3328.667957401802
 10
9755.710303027861
 20
3318.667957401802
 10
9700.260303027848
 20
3318.667957401802
 10
9700.260303027848
 20
3288.667957401802
 10
9830.71030302786
 20
3288.667957401802
 97
        0
 92
        7
 72
     0
 73
     1
 93
        8
 10
9905.710303027859
 20
3328.667957401802
 10
9961.160303027872
 20
3328.667957401802
 10
9961.160303027872
 20
3353.667957401802
 10
9830.71030302786
 20
3353.667957401802
 10
9830.71030302786
 20
3288.667957401802
 10
9961.160303027872
 20
3288.667957401802
 10
9961.160303027872
 20
3318.667957401802
 10
9905.710303027859
 20
3318.667957401802
 97
        0
 92
        7
 72
     1
 73
     1
 93
        8
 10
9961.160303027872
 20
3473.667957401802
 42
0.0
 10
9830.71030302786
 20
3473.667957401802
 42
0.0
 10
9830.71030302786
 20
3363.667957401802
 42
0.0
 10
9930.71030302786
 20
3363.667957401802
 42
-0.4142135623730885
 10
9925.710303027861
 20
3368.667957401802
 42
-1.0
 10
9935.71030302786
 20
3368.667957401802
 42
-0.4142135623731017
 10
9930.71030302786
 20
3363.667957401802
 42
0.0
 10
9961.160303027872
 20
3363.667957401802
 42
0.0
 97
        0
 92
        7
 72
     0
 73
     1
 93
        4
 10
9961.160303027872
 20
3573.667957401802
 10
9830.71030302786
 20
3573.667957401802
 10
9830.71030302786
 20
3483.667957401802
 10
9961.160303027872
 20
3483.667957401802
 97
        0
 92
        7
 72
     0
 73
     1
 93
        4
 10
9961.160303027872
 20
3673.667957401802
 10
9830.71030302786
 20
3673.667957401802
 10
9830.71030302786
 20
3583.667957401802
 10
9961.160303027872
 20
3583.667957401802
 97
        0
 92
        7
 72
     0
 73
     1
 93
        4
 10
9961.160303027872
 20
3773.667957401802
 10
9830.71030302786
 20
3773.667957401802
 10
9830.71030302786
 20
3683.667957401802
 10
9961.160303027872
 20
3683.667957401802
 97
        0
 92
        7
 72
     0
 73
     1
 93
        4
 10
9961.160303027872
 20
3838.667957401802
 10
9830.71030302786
 20
3838.667957401802
 10
9830.71030302786
 20
3783.667957401802
 10
9961.160303027872
 20
3783.667957401802
 97
        0
 92
        7
 72
     1
 73
     1
 93
       48
 10
10530.71030302786
 20
3838.667957401802
 42
0.0
 10
10050.26030302785
 20
3838.667957401802
 42
0.0
 10
10050.26030302785
 20
3783.667957401802
 42
0.0
 10
10210.71030302786
 20
3783.667957401802
 42
-0.4142135623730951
 10
10215.71030302786
 20
3778.667957401802
 42
-0.4142135623730951
 10
10210.71030302786
 20
3773.667957401802
 42
0.0
 10
10205.71030302786
 20
3773.667957401802
 42
0.0
 10
10205.71030302786
 20
3683.667957401802
 42
0.0
 10
10210.71030302786
 20
3683.667957401802
 42
-0.4142135623730951
 10
10215.71030302786
 20
3678.667957401802
 42
-0.4142135623730951
 10
10210.71030302786
 20
3673.667957401802
 42
0.0
 10
10205.71030302786
 20
3673.667957401802
 42
0.0
 10
10205.71030302786
 20
3583.667957401802
 42
0.0
 10
10210.71030302786
 20
3583.667957401802
 42
-0.4142135623730951
 10
10215.71030302786
 20
3578.667957401802
 42
-0.4142135623730951
 10
10210.71030302786
 20
3573.667957401802
 42
0.0
 10
10205.71030302786
 20
3573.667957401802
 42
0.0
 10
10205.71030302786
 20
3483.667957401802
 42
0.0
 10
10210.71030302786
 20
3483.667957401802
 42
-0.4142135623730951
 10
10215.71030302786
 20
3478.667957401802
 42
-0.4142135623730951
 10
10210.71030302786
 20
3473.667957401802
 42
0.0
 10
10205.71030302786
 20
3473.667957401802
 42
0.0
 10
10205.71030302797
 20
3443.667957401802
 42
0.4142135623730951
 10
10235.71030302797
 20
3413.667957401802
 42
0.0
 10
10381.16030302798
 20
3413.667957401802
 42
0.0
 10
10381.16030302798
 20
3400.667957401802
 42
0.0
 10
10235.71030302797
 20
3400.667957401802
 42
-0.4142135623730951
 10
10192.71030302797
 20
3443.667957401802
 42
0.0
 10
10192.71030302797
 20
3473.667957401802
 42
0.0
 10
10050.26030302785
 20
3473.667957401802
 42
0.0
 10
10050.26030302785
 20
3363.667957401802
 42
0.0
 10
10130.71030302786
 20
3363.667957401802
 42
-0.4142135623730885
 10
10125.71030302786
 20
3368.667957401802
 42
-1.0
 10
10135.71030302786
 20
3368.667957401802
 42
-0.4142135623731017
 10
10130.71030302786
 20
3363.667957401802
 42
0.0
 10
10330.71030302786
 20
3363.667957401802
 42
-0.4142135623730951
 10
10325.71030302786
 20
3368.667957401802
 42
-1.0
 10
10335.71030302786
 20
3368.667957401802
 42
-0.4142135623731017
 10
10330.71030302786
 20
3363.667957401802
 42
0.0
 10
10346.42985146578
 20
3363.667957401802
 42
0.0
 10
10346.42985146578
 20
3353.667957401802
 42
0.0
 10
10050.26030302785
 20
3353.667957401802
 42
0.0
 10
10050.26030302785
 20
3328.667957401802
 42
0.0
 10
10105.71030302786
 20
3328.667957401802
 42
0.0
 10
10105.71030302786
 20
3318.667957401802
 42
0.0
 10
10050.26030302785
 20
3318.667957401802
 42
0.0
 10
10050.26030302785
 20
3288.667957401802
 42
0.0
 10
10530.71030302786
 20
3288.667957401802
 42
0.0
 97
        0
 92
       23
 72
     0
 73
     1
 93
        4
 10
10192.71030302786
 20
3773.667957401802
 10
10050.26030302785
 20
3773.667957401802
 10
10050.26030302785
 20
3683.667957401802
 10
10192.71030302786
 20
3683.667957401802
 97
        0
 92
       23
 72
     0
 73
     1
 93
        4
 10
10192.71030302786
 20
3673.667957401802
 10
10050.26030302785
 20
3673.667957401802
 10
10050.26030302785
 20
3583.667957401802
 10
10192.71030302786
 20
3583.667957401802
 97
        0
 92
       23
 72
     0
 73
     1
 93
        4
 10
10192.71030302786
 20
3573.667957401802
 10
10050.26030302785
 20
3573.667957401802
 10
10050.26030302785
 20
3483.667957401802
 10
10192.71030302786
 20
3483.667957401802
 97
        0
 75
     0
 76
     1
 52
135.0
 41
37.5
 77
     0
 78
     3
 53
135.0
 43
-262421.8812670332
 44
111649.4980395718
 45
-168.3798022700466
 46
-168.3798022700466
 79
     0
 53
135.0
 43
-262442.928742317
 44
111628.450564288
 45
-168.3798022700466
 46
-168.3798022700466
 79
     0
 53
135.0
 43
-262463.9762176008
 44
111607.4030890043
 45
-168.3798022700466
 46
-168.3798022700466
 79
     0
 47
2.128691110052188
 98
       20
 10
9319.733660494712
 20
3674.053917223322
 10
9558.255507116649
 20
3533.560426998211
 10
9562.514865683079
 20
3622.965318122468
 10
9556.125688264648
 20
3710.241806004862
 10
9773.351021191782
 20
3806.032955535975
 10
9781.869738324699
 20
3725.142516324148
 10
9781.869738324699
 20
3629.351366793064
 10
9781.869738324699
 20
3531.431604283858
 10
9786.12881775367
 20
3418.610921719166
 10
9801.03643316756
 20
3329.20603059488
 10
9852.148456827599
 20
3324.948594902406
 10
9884.093227369865
 20
3407.967647092355
 10
9907.519559916611
 20
3529.302991305736
 10
9903.260201350182
 20
3629.351366793064
 10
9890.482125650779
 20
3723.013903346025
 10
9909.649099631156
 20
3808.161568514068
 10
10120.4852551398
 20
3814.547617184664
 10
10124.74461370628
 20
3705.984370312418
 10
10148.17094625309
 20
3620.836705144375
 10
10146.04112740109
 20
3527.174378327615
1001
GradientColor1ACI
1070
     5
1001
GradientColor2ACI
1070
     2
1001
ACAD
1010
0.0
1020
0.0
1030
0.0
  0
LINE
  5
14AF3
330
747D
100
AcDbEntity
  8
U7
100
AcDbLine
 10
9555.71030302786
 20
3328.667957401802
 30
0.0000000000013153
 11
9555.71030302786
 21
3318.667957401802
 31
0.0000000000013153
  0
LINE
  5
14AF4
330
747D
100
AcDbEntity
  8
U7
100
AcDbLine
 10
9755.710303027861
 20
3328.667957401802
 30
0.0000000000013153
 11
9755.710303027861
 21
3318.667957401802
 31
0.0000000000013153
  0
LINE
  5
14AF5
330
747D
100
AcDbEntity
  8
U7
100
AcDbLine
 10
9755.710303027861
 20
3318.667957401802
 30
0.0000000000013153
 11
9555.71030302786
 21
3318.667957401802
 31
0.0000000000013153
  0
LINE
  5
14AF6
330
747D
100
AcDbEntity
  8
U7
100
AcDbLine
 10
9755.710303027861
 20
3328.667957401802
 30
0.0000000000013153
 11
9555.71030302786
 21
3328.667957401802
 31
0.0000000000013153
  0
CIRCLE
  5
14AF7
330
747D
100
AcDbEntity
  8
U7
100
AcDbCircle
 10
9450.710303027859
 20
3778.667957401802
 30
0.0000000000013153
 40
5.0
  0
CIRCLE
  5
14AF8
330
747D
100
AcDbEntity
  8
U7
100
AcDbCircle
 10
10210.71030302786
 20
3778.667957401802
 30
0.0000000000013153
 40
5.0
  0
LINE
  5
14AF9
330
747D
100
AcDbEntity
  8
U7
100
AcDbLine
 10
9450.710303027859
 20
3773.667957401802
 30
0.0000000000013153
 11
10210.71030302786
 21
3773.667957401802
 31
0.0000000000013153
  0
LINE
  5
14AFA
330
747D
100
AcDbEntity
  8
U7
100
AcDbLine
 10
9450.710303027859
 20
3783.667957401802
 30
0.0000000000013153
 11
10210.71030302786
 21
3783.667957401802
 31
0.0000000000013153
  0
CIRCLE
  5
14AFB
330
747D
100
AcDbEntity
  8
U7
100
AcDbCircle
 10
9450.710303027859
 20
3678.667957401802
 30
0.0000000000013153
 40
5.0
  0
CIRCLE
  5
14AFC
330
747D
100
AcDbEntity
  8
U7
100
AcDbCircle
 10
10210.71030302786
 20
3678.667957401802
 30
0.0000000000013153
 40
5.0
  0
CIRCLE
  5
14AFD
330
747D
100
AcDbEntity
  8
U7
100
AcDbCircle
 10
9450.710303027859
 20
3578.667957401802
 30
0.0000000000013153
 40
5.0
  0
LINE
  5
14AFE
330
747D
100
AcDbEntity
  8
U7
100
AcDbLine
 10
9450.710303027859
 20
3683.667957401802
 30
0.0000000000013153
 11
10210.71030302786
 21
3683.667957401802
 31
0.0000000000013153
  0
CIRCLE
  5
14AFF
330
747D
100
AcDbEntity
  8
U7
100
AcDbCircle
 10
10210.71030302786
 20
3578.667957401802
 30
0.0000000000013153
 40
5.0
  0
LINE
  5
14B00
330
747D
100
AcDbEntity
  8
U7
100
AcDbLine
 10
9450.710303027859
 20
3573.667957401802
 30
0.0000000000013153
 11
10210.71030302786
 21
3573.667957401802
 31
0.0000000000013153
  0
LINE
  5
14B01
330
747D
100
AcDbEntity
  8
U7
100
AcDbLine
 10
9450.710303027859
 20
3583.667957401802
 30
0.0000000000013153
 11
10210.71030302786
 21
3583.667957401802
 31
0.0000000000013153
  0
CIRCLE
  5
14B02
330
747D
100
AcDbEntity
  8
U7
100
AcDbCircle
 10
10210.71030302786
 20
3478.667957401802
 30
0.0000000000013153
 40
5.0
  0
CIRCLE
  5
14B03
330
747D
100
AcDbEntity
  8
U7
100
AcDbCircle
 10
9450.710303027859
 20
3478.667957401802
 30
0.0000000000013153
 40
5.0
  0
LINE
  5
14B04
330
747D
100
AcDbEntity
  8
U7
100
AcDbLine
 10
9450.710303027859
 20
3483.667957401802
 30
0.0000000000013153
 11
10210.71030302786
 21
3483.667957401802
 31
0.0000000000013153
  0
LINE
  5
14B05
330
747D
100
AcDbEntity
  8
U7
100
AcDbLine
 10
9450.710303027859
 20
3473.667957401802
 30
0.0000000000013153
 11
10210.71030302786
 21
3473.667957401802
 31
0.0000000000013153
  0
LINE
  5
14B06
330
747D
100
AcDbEntity
  8
KIN-T
100
AcDbLine
 10
10381.16030302798
 20
3400.667957401802
 30
0.0000000000013153
 11
10235.71030302797
 21
3400.667957401802
 31
0.0000000000013153
  0
LINE
  5
14B07
330
747D
100
AcDbEntity
  8
KIN-T
100
AcDbLine
 10
10381.16030302798
 20
3413.667957401802
 30
0.0000000000013153
 11
10381.16030302798
 21
3400.667957401802
 31
0.0000000000013153
  0
LINE
  5
14B08
330
747D
100
AcDbEntity
  8
KIN-T
100
AcDbLine
 10
10192.71030302786
 20
3783.667957401802
 30
0.0000000000013153
 11
10205.71030302786
 21
3783.667957401802
 31
0.0000000000013153
  0
ARC
  5
14B09
330
747D
100
AcDbEntity
  8
KIN-T
100
AcDbCircle
 10
10235.71030302797
 20
3443.667957401802
 30
0.0000000000013153
 40
43.0
100
AcDbArc
 50
180.0
 51
270.0
  0
ARC
  5
14B0A
330
747D
100
AcDbEntity
  8
KIN-T
100
AcDbCircle
 10
10235.71030302797
 20
3443.667957401802
 30
0.0000000000013153
 40
30.0
100
AcDbArc
 50
180.0
 51
270.0
  0
LINE
  5
14B0B
330
747D
100
AcDbEntity
  8
KIN-T
100
AcDbLine
 10
10192.71030302786
 20
3783.667957401802
 30
0.0000000000013153
 11
10192.71030302786
 21
3443.667957401802
 31
0.0000000000013153
  0
LINE
  5
14B0C
330
747D
100
AcDbEntity
  8
KIN-T
100
AcDbLine
 10
10205.71030302786
 20
3783.667957401802
 30
0.0000000000013153
 11
10205.71030302786
 21
3443.667957401802
 31
0.0000000000013153
  0
ARC
  5
14B0D
330
747D
100
AcDbEntity
  8
KIN-T
100
AcDbCircle
 10
9425.710303027861
 20
3443.667957401802
 30
0.0000000000013153
 40
43.0
100
AcDbArc
 50
270.0
 51
0.0
  0
LINE
  5
14B0E
330
747D
100
AcDbEntity
  8
KIN-T
100
AcDbLine
 10
10381.16030302798
 20
3413.667957401802
 30
0.0000000000013153
 11
10235.71030302797
 21
3413.667957401802
 31
0.0000000000013153
  0
LINE
  5
14B0F
330
747D
100
AcDbEntity
  8
KIN-T
100
AcDbLine
 10
9280.260303027848
 20
3413.667957401802
 30
0.0000000000013153
 11
9280.260303027848
 21
3400.667957401802
 31
0.0000000000013153
  0
LINE
  5
14B10
330
747D
100
AcDbEntity
  8
KIN-T
100
AcDbLine
 10
9280.260303027848
 20
3400.667957401802
 30
0.0000000000013153
 11
9425.710303027861
 21
3400.667957401802
 31
0.0000000000013153
  0
LINE
  5
14B11
330
747D
100
AcDbEntity
  8
KIN-T
100
AcDbLine
 10
9455.71030302786
 20
3783.667957401802
 30
0.0000000000013153
 11
9468.71030302786
 21
3783.667957401802
 31
0.0000000000013153
  0
ARC
  5
14B12
330
747D
100
AcDbEntity
  8
KIN-T
100
AcDbCircle
 10
9425.710303027861
 20
3443.667957401802
 30
0.0000000000013153
 40
30.0
100
AcDbArc
 50
270.0
 51
0.0
  0
LINE
  5
14B13
330
747D
100
AcDbEntity
  8
KIN-T
100
AcDbLine
 10
9468.71030302786
 20
3783.667957401802
 30
0.0000000000013153
 11
9468.71030302786
 21
3443.667957401802
 31
0.0000000000013153
  0
LINE
  5
14B14
330
747D
100
AcDbEntity
  8
部品1
 48
50.0
100
AcDbLine
 10
9314.99075458994
 20
3363.667957401816
 30
0.0000000000013153
 11
10346.42985146578
 21
3363.667957401802
 31
0.0000000000013153
  0
LINE
  5
14B15
330
747D
100
AcDbEntity
  8
KIN-T
100
AcDbLine
 10
9455.71030302786
 20
3783.667957401802
 30
0.0000000000013153
 11
9455.71030302786
 21
3443.667957401802
 31
0.0000000000013153
  0
LINE
  5
14B16
330
747D
100
AcDbEntity
  8
KIN-T
100
AcDbLine
 10
9280.260303027848
 20
3413.667957401802
 30
0.0000000000013153
 11
9425.710303027861
 21
3413.667957401802
 31
0.0000000000013153
  0
CIRCLE
  5
14B17
330
747D
100
AcDbEntity
  8
部品1
 48
50.0
100
AcDbCircle
 10
10330.71030302786
 20
3368.667957401802
 30
0.0000000000013153
 40
5.0
  0
LINE
  5
14B18
330
747D
100
AcDbEntity
  8
部品1
 48
50.0
100
AcDbLine
 10
10346.42985146578
 20
3363.667957401802
 30
0.0000000000013153
 11
10346.42985146578
 21
3353.667957401802
 31
0.0000000000013153
  0
CIRCLE
  5
14B19
330
747D
100
AcDbEntity
  8
部品1
 48
50.0
100
AcDbCircle
 10
9530.710303027859
 20
3368.667957401802
 30
0.0000000000013153
 40
5.0
  0
CIRCLE
  5
14B1A
330
747D
100
AcDbEntity
  8
部品1
 48
50.0
100
AcDbCircle
 10
9730.71030302786
 20
3368.667957401802
 30
0.0000000000013153
 40
5.0
  0
CIRCLE
  5
14B1B
330
747D
100
AcDbEntity
  8
部品1
 48
50.0
100
AcDbCircle
 10
9930.71030302786
 20
3368.667957401802
 30
0.0000000000013153
 40
5.0
  0
CIRCLE
  5
14B1C
330
747D
100
AcDbEntity
  8
部品1
 48
50.0
100
AcDbCircle
 10
10130.71030302786
 20
3368.667957401802
 30
0.0000000000013153
 40
5.0
  0
LINE
  5
14B1D
330
747D
100
AcDbEntity
  8
部品1
 48
50.0
100
AcDbLine
 10
9314.99075458994
 20
3353.667957401788
 30
0.0000000000013153
 11
10346.42985146578
 21
3353.667957401802
 31
0.0000000000013153
  0
HATCH
  5
14B1E
330
747D
100
AcDbEntity
  8
細線
 48
50.0
100
AcDbHatch
 10
0.0
 20
0.0
 30
0.0000000000026306
210
0.0
220
0.0
230
1.0
  2
PLAST
 70
     0
 71
     0
 91
        4
 92
        7
 72
     0
 73
     1
 93
        4
 10
9655.710303027859
 20
3288.667957401802
 10
9050.710303027861
 20
3288.667957401802
 10
9050.710303027861
 20
3238.667957401802
 10
9655.710303027859
 20
3238.667957401802
 97
        0
 92
        7
 72
     0
 73
     1
 93
        4
 10
9830.71030302786
 20
3288.667957401802
 10
9655.710303027859
 20
3288.667957401802
 10
9655.710303027859
 20
3238.667957401802
 10
9830.71030302786
 20
3238.667957401802
 97
        0
 92
        7
 72
     0
 73
     1
 93
        4
 10
10005.71030302786
 20
3288.667957401802
 10
9830.71030302786
 20
3288.667957401802
 10
9830.71030302786
 20
3238.667957401802
 10
10005.71030302786
 20
3238.667957401802
 97
        0
 92
        7
 72
     0
 73
     1
 93
        4
 10
10610.71030302786
 20
3288.667957401802
 10
10005.71030302786
 20
3288.667957401802
 10
10005.71030302786
 20
3238.667957401802
 10
10610.71030302786
 20
3238.667957401802
 97
        0
 75
     0
 76
     1
 52
45.0
 41
37.5
 77
     0
 78
     3
 53
45.0
 43
-262421.8812670332
 44
111649.4980395718
 45
-168.3798022700466
 46
168.3798022700466
 79
     0
 53
45.0
 43
-262442.928742317
 44
111670.5455148556
 45
-168.3798022700466
 46
168.3798022700466
 79
     0
 53
45.0
 43
-262463.9762176008
 44
111691.5929901393
 45
-168.3798022700466
 46
168.3798022700466
 79
     0
 47
3.405378208606371
 98
        4
 10
9558.328920269714
 20
3253.980147429273
 10
9711.640706290411
 20
3264.196189359612
 10
9919.463293735439
 20
3253.980147429273
 10
10110.25095915187
 20
3257.385424827309
1001
GradientColor1ACI
1070
     5
1001
GradientColor2ACI
1070
     2
1001
ACAD
1010
0.0
1020
0.0
1030
0.0
  0
LINE
  5
14B1F
330
747D
100
AcDbEntity
  8
細線
 48
50.0
100
AcDbLine
 10
9140.138233572747
 20
3138.667957401802
 30
0.0000000000026306
 11
9166.933152815829
 21
3238.667957401773
 31
0.0000000000026306
1001
GradientColor1ACI
1070
     5
1001
GradientColor2ACI
1070
     2
1001
ACAD
1010
0.0
1020
0.0
1030
0.0
  0
LINE
  5
14B20
330
747D
100
AcDbEntity
  8
細線
 48
50.0
100
AcDbLine
 10
9263.400803802863
 20
3138.667957401802
 30
0.0000000000026306
 11
9290.195723045945
 21
3238.667957401802
 31
0.0000000000026306
1001
GradientColor1ACI
1070
     5
1001
GradientColor2ACI
1070
     2
1001
ACAD
1010
0.0
1020
0.0
1030
0.0
  0
LINE
  5
14B21
330
747D
100
AcDbEntity
  8
細線
 48
50.0
100
AcDbLine
 10
9386.663374032861
 20
3138.667957401802
 30
0.0000000000026306
 11
9413.458293276002
 21
3238.667957401802
 31
0.0000000000026306
1001
GradientColor1ACI
1070
     5
1001
GradientColor2ACI
1070
     2
1001
ACAD
1010
0.0
1020
0.0
1030
0.0
  0
LINE
  5
14B22
330
747D
100
AcDbEntity
  8
細線
 48
50.0
100
AcDbLine
 10
9509.925944262977
 20
3138.667957401802
 30
0.0000000000026306
 11
9536.72086350606
 21
3238.667957401802
 31
0.0000000000026306
1001
GradientColor1ACI
1070
     5
1001
GradientColor2ACI
1070
     2
1001
ACAD
1010
0.0
1020
0.0
1030
0.0
  0
LINE
  5
14B23
330
747D
100
AcDbEntity
  8
細線
 48
50.0
100
AcDbLine
 10
9633.188514493093
 20
3138.667957401802
 30
0.0000000000026306
 11
9659.983433736176
 21
3238.667957401802
 31
0.0000000000026306
1001
GradientColor1ACI
1070
     5
1001
GradientColor2ACI
1070
     2
1001
ACAD
1010
0.0
1020
0.0
1030
0.0
  0
LINE
  5
14B24
330
747D
100
AcDbEntity
  8
細線
 48
50.0
100
AcDbLine
 10
9756.451084723092
 20
3138.667957401802
 30
0.0000000000026306
 11
9783.246003966233
 21
3238.667957401802
 31
0.0000000000026306
1001
GradientColor1ACI
1070
     5
1001
GradientColor2ACI
1070
     2
1001
ACAD
1010
0.0
1020
0.0
1030
0.0
  0
LINE
  5
14B25
330
747D
100
AcDbEntity
  8
細線
 48
50.0
100
AcDbLine
 10
9879.713654953208
 20
3138.667957401802
 30
0.0000000000026306
 11
9906.508574196291
 21
3238.667957401802
 31
0.0000000000026306
1001
GradientColor1ACI
1070
     5
1001
GradientColor2ACI
1070
     2
1001
ACAD
1010
0.0
1020
0.0
1030
0.0
  0
LINE
  5
14B26
330
747D
100
AcDbEntity
  8
細線
 48
50.0
100
AcDbLine
 10
10002.97622518332
 20
3138.667957401802
 30
0.0000000000026306
 11
10029.7711444264
 21
3238.667957401802
 31
0.0000000000026306
1001
GradientColor1ACI
1070
     5
1001
GradientColor2ACI
1070
     2
1001
ACAD
1010
0.0
1020
0.0
1030
0.0
  0
LINE
  5
14B27
330
747D
100
AcDbEntity
  8
細線
 48
50.0
100
AcDbLine
 10
10126.23879541332
 20
3138.667957401816
 30
0.0000000000026306
 11
10153.03371465646
 21
3238.667957401802
 31
0.0000000000026306
1001
GradientColor1ACI
1070
     5
1001
GradientColor2ACI
1070
     2
1001
ACAD
1010
0.0
1020
0.0
1030
0.0
  0
LINE
  5
14B28
330
747D
100
AcDbEntity
  8
細線
 48
50.0
100
AcDbLine
 10
10249.50136564344
 20
3138.667957401802
 30
0.0000000000026306
 11
10276.29628488652
 21
3238.667957401816
 31
0.0000000000026306
1001
GradientColor1ACI
1070
     5
1001
GradientColor2ACI
1070
     2
1001
ACAD
1010
0.0
1020
0.0
1030
0.0
  0
LINE
  5
14B29
330
747D
100
AcDbEntity
  8
細線
 48
50.0
100
AcDbLine
 10
10372.76393587349
 20
3138.667957401816
 30
0.0000000000026306
 11
10399.55885511663
 21
3238.667957401802
 31
0.0000000000026306
1001
GradientColor1ACI
1070
     5
1001
GradientColor2ACI
1070
     2
1001
ACAD
1010
0.0
1020
0.0
1030
0.0
  0
LINE
  5
14B2A
330
747D
100
AcDbEntity
  8
細線
 48
50.0
100
AcDbLine
 10
10496.02650610355
 20
3138.667957401802
 30
0.0000000000026306
 11
10522.82142534669
 21
3238.667957401802
 31
0.0000000000026306
1001
GradientColor1ACI
1070
     5
1001
GradientColor2ACI
1070
     2
1001
ACAD
1010
0.0
1020
0.0
1030
0.0
  0
LINE
  5
14B2B
330
747D
100
AcDbEntity
  8
部品1
 48
50.0
100
AcDbLine
 10
10610.71030302786
 20
3238.667957401802
 30
0.0000000000013153
 11
9050.710303027861
 21
3238.667957401802
 31
0.0000000000013153
  0
LINE
  5
14B2C
330
747D
100
AcDbEntity
  8
文字
 48
50.0
100
AcDbLine
 10
10248.29992920204
 20
2225.480085230021
 30
0.0000000000013153
 11
10248.29992920204
 21
2002.355085230021
 31
0.0000000000013153
  0
LINE
  5
14B2D
330
747D
100
AcDbEntity
  8
文字
 48
50.0
100
AcDbLine
 10
9413.120676853672
 20
2225.480085230021
 30
0.0000000000013153
 11
9413.120676853672
 21
2002.355085230021
 31
0.0000000000013153
  0
TEXT
  5
14B2E
330
747D
100
AcDbEntity
  8
文字
 62
     7
 48
50.0
100
AcDbText
 10
9479.705484266371
 20
2059.838626203386
 30
0.0000000000013153
 40
112.5
  1
A-A' 断面
  7
STYLE2
100
AcDbText
  0
LINE
  5
14B2F
330
747D
100
AcDbEntity
  8
文字
 48
50.0
100
AcDbLine
 10
9413.120676853672
 20
2002.355085230021
 30
0.0000000000013153
 11
10248.29992920204
 21
2002.355085230021
 31
0.0000000000013153
  0
LINE
  5
14B30
330
747D
100
AcDbEntity
  8
文字
 48
50.0
100
AcDbLine
 10
9413.120676853672
 20
2225.480085230021
 30
0.0000000000013153
 11
10248.29992920204
 21
2225.480085230021
 31
0.0000000000013153
  0
LINE
  5
14B31
330
747D
100
AcDbEntity
  8
部品1
 48
50.0
100
AcDbLine
 10
9700.260303027848
 20
3288.667957401802
 30
0.0000000000013153
 11
9611.160303027872
 21
3288.667957401802
 31
0.0000000000013153
  0
LINE
  5
14B32
330
747D
100
AcDbEntity
  8
細線
 48
50.0
100
AcDbLine
 10
8684.594897881071
 20
3738.667957401831
 30
0.0000000000026306
 11
8711.389817124153
 21
3838.667957401816
 31
0.0000000000026306
1001
GradientColor1ACI
1070
     5
1001
GradientColor2ACI
1070
     2
1001
ACAD
1010
0.0
1020
0.0
1030
0.0
  0
LINE
  5
14B33
330
747D
100
AcDbEntity
  8
細線
 48
50.0
100
AcDbLine
 10
8807.857468111128
 20
3738.667957401845
 30
0.0000000000026306
 11
8834.652387354209
 21
3838.667957401802
 31
0.0000000000026306
1001
GradientColor1ACI
1070
     5
1001
GradientColor2ACI
1070
     2
1001
ACAD
1010
0.0
1020
0.0
1030
0.0
  0
LINE
  5
14B34
330
747D
100
AcDbEntity
  8
細線
 48
50.0
100
AcDbLine
 10
8931.120038341186
 20
3738.667957401831
 30
0.0000000000026306
 11
8957.914957584327
 21
3838.667957401802
 31
0.0000000000026306
1001
GradientColor1ACI
1070
     5
1001
GradientColor2ACI
1070
     2
1001
ACAD
1010
0.0
1020
0.0
1030
0.0
  0
LINE
  5
14B35
330
747D
100
AcDbEntity
  8
細線
 48
50.0
100
AcDbLine
 10
9054.3826085713
 20
3738.667957401816
 30
0.0000000000026306
 11
9081.177527814382
 21
3838.667957401802
 31
0.0000000000026306
1001
GradientColor1ACI
1070
     5
1001
GradientColor2ACI
1070
     2
1001
ACAD
1010
0.0
1020
0.0
1030
0.0
  0
LINE
  5
14B36
330
747D
100
AcDbEntity
  8
細線
 48
50.0
100
AcDbLine
 10
10533.53345133216
 20
3738.667957401773
 30
0.0000000000026306
 11
10560.3283705753
 21
3838.667957401802
 31
0.0000000000026306
1001
GradientColor1ACI
1070
     5
1001
GradientColor2ACI
1070
     2
1001
ACAD
1010
0.0
1020
0.0
1030
0.0
  0
LINE
  5
14B37
330
747D
100
AcDbEntity
  8
細線
 48
50.0
100
AcDbLine
 10
10656.79602156222
 20
3738.667957401816
 30
0.0000000000026306
 11
10683.59094080536
 21
3838.667957401802
 31
0.0000000000026306
1001
GradientColor1ACI
1070
     5
1001
GradientColor2ACI
1070
     2
1001
ACAD
1010
0.0
1020
0.0
1030
0.0
  0
LINE
  5
14B38
330
747D
100
AcDbEntity
  8
細線
 48
50.0
100
AcDbLine
 10
10780.05859179234
 20
3738.667957401831
 30
0.0000000000026306
 11
10806.85351103542
 21
3838.667957401802
 31
0.0000000000026306
1001
GradientColor1ACI
1070
     5
1001
GradientColor2ACI
1070
     2
1001
ACAD
1010
0.0
1020
0.0
1030
0.0
  0
LINE
  5
14B39
330
747D
100
AcDbEntity
  8
細線
 48
50.0
100
AcDbLine
 10
10903.32116202239
 20
3738.667957401816
 30
0.0000000000026306
 11
10930.11608126553
 21
3838.667957401802
 31
0.0000000000026306
1001
GradientColor1ACI
1070
     5
1001
GradientColor2ACI
1070
     2
1001
ACAD
1010
0.0
1020
0.0
1030
0.0
  0
LINE
  5
14B3A
330
747D
100
AcDbEntity
  8
細線
 48
50.0
100
AcDbLine
 10
11026.58373225245
 20
3738.667957401831
 30
0.0000000000026306
 11
11030.71030302786
 21
3754.068529196735
 31
0.0000000000026306
1001
GradientColor1ACI
1070
     5
1001
GradientColor2ACI
1070
     2
1001
ACAD
1010
0.0
1020
0.0
1030
0.0
  0
LINE
  5
14B3B
330
747D
100
AcDbEntity
  8
部品1
 48
50.0
100
AcDbLine
 10
10530.71030302786
 20
3288.667957401802
 30
0.0000000000013153
 11
10530.71030302786
 21
3838.667957401802
 31
0.0000000000013153
  0
LINE
  5
14B3C
330
747D
100
AcDbEntity
  8
センター
 48
10.0
100
AcDbLine
 10
9655.710303027859
 20
4363.140790256842
 30
0.0000000000013153
 11
9655.710303027859
 21
3227.610125571923
 31
0.0000000000013153
  0
LINE
  5
14B3D
330
747D
100
AcDbEntity
  8
部品1
 48
50.0
100
AcDbLine
 10
9130.710303027859
 20
3838.667957401802
 30
0.0000000000013153
 11
9130.710303027859
 21
3288.667957401802
 31
0.0000000000013153
  0
HATCH
  5
14B3E
330
747D
100
AcDbEntity
  8
細線
 48
50.0
100
AcDbHatch
 10
0.0
 20
0.0
 30
0.0000000000026306
210
0.0
220
0.0
230
1.0
  2
PLAST
 70
     0
 71
     0
 91
        3
 92
        7
 72
     0
 73
     1
 93
        6
 10
9611.160303027872
 20
3952.667957401802
 10
9597.160303027871
 20
3952.667957401802
 10
9583.160303027872
 20
3938.667957401802
 10
8630.710303027802
 20
3938.667957401802
 10
8630.710303027859
 20
3838.667957401802
 10
9611.160303027872
 20
3838.667957401802
 97
        0
 92
        7
 72
     0
 73
     1
 93
        8
 10
9961.160303027872
 20
3952.667957401802
 10
9947.160303027871
 20
3952.667957401802
 10
9933.160303027872
 20
3938.667957401787
 10
9728.260303027848
 20
3938.667957401802
 10
9714.260303027906
 20
3952.667957401802
 10
9700.260303027848
 20
3952.667957401802
 10
9700.260303027848
 20
3838.667957401802
 10
9961.160303027872
 20
3838.667957401802
 97
        0
 92
        7
 72
     0
 73
     1
 93
        6
 10
11030.71030302791
 20
3938.667957401802
 10
10078.26030302785
 20
3938.667957401802
 10
10064.2603030279
 20
3952.667957401802
 10
10050.26030302785
 20
3952.667957401802
 10
10050.26030302785
 20
3838.667957401802
 10
11030.71030302791
 20
3838.667957401802
 97
        0
 75
     0
 76
     1
 52
45.0
 41
37.5
 77
     0
 78
     3
 53
45.0
 43
-262421.8812670332
 44
111649.4980395718
 45
-168.3798022700466
 46
168.3798022700466
 79
     0
 53
45.0
 43
-262442.928742317
 44
111670.5455148556
 45
-168.3798022700466
 46
168.3798022700466
 79
     0
 53
45.0
 43
-262463.9762176008
 44
111691.5929901393
 45
-168.3798022700466
 46
168.3798022700466
 79
     0
 47
3.420167112779795
 98
        3
 10
9115.544326283888
 20
3900.445928312777
 10
9827.262514480427
 20
3876.504747621188
 10
10220.76064382217
 20
3886.76525363186
1001
GradientColor1ACI
1070
     5
1001
GradientColor2ACI
1070
     2
1001
ACAD
1010
0.0
1020
0.0
1030
0.0
  0
LINE
  5
14B3F
330
747D
100
AcDbEntity
  8
部品1
 48
50.0
100
AcDbLine
 10
9700.260303027848
 20
4284.601053346715
 30
0.0000000000013153
 11
9700.260303027848
 21
3288.667957401802
 31
0.0000000000013153
  0
LINE
  5
14B40
330
747D
100
AcDbEntity
  8
部品1
 48
50.0
100
AcDbLine
 10
9611.160303027872
 20
4284.601053346715
 30
0.0000000000013153
 11
9611.160303027872
 21
3288.667957401802
 31
0.0000000000013153
  0
LINE
  5
14B41
330
747D
100
AcDbEntity
  8
部品1
 48
50.0
100
AcDbLine
 10
10610.71030302786
 20
3288.667957401802
 30
0.0000000000013153
 11
9050.710303027861
 21
3288.667957401802
 31
0.0000000000013153
  0
LINE
  5
14B42
330
747D
100
AcDbEntity
  8
部品1
 48
50.0
100
AcDbLine
 10
9933.160303027872
 20
3938.667957401787
 30
0.0000000000013153
 11
9728.260303027848
 21
3938.667957401802
 31
0.0000000000013153
  0
LINE
  5
14B43
330
747D
100
AcDbEntity
  8
部品1
 48
50.0
100
AcDbLine
 10
9961.160303027872
 20
3838.667957401802
 30
0.0000000000013153
 11
9700.260303027848
 21
3838.667957401802
 31
0.0000000000013153
  0
LINE
  5
14B44
330
747D
100
AcDbEntity
  8
部品1
 48
50.0
100
AcDbLine
 10
9130.710303027859
 20
3738.667957401802
 30
0.0000000000013153
 11
8630.710303027859
 21
3738.667957401831
 31
0.0000000000013153
  0
LINE
  5
14B45
330
747D
100
AcDbEntity
  8
部品1
 48
50.0
100
AcDbLine
 10
10610.71030302786
 20
3138.667957401802
 30
0.0000000000013153
 11
9050.710303027861
 21
3138.667957401802
 31
0.0000000000013153
  0
LINE
  5
14B46
330
747D
100
AcDbEntity
  8
部品1
 48
50.0
100
AcDbLine
 10
9597.160303027871
 20
3952.667957401802
 30
0.0000000000013153
 11
9583.160303027872
 21
3938.667957401802
 31
0.0000000000013153
  0
LINE
  5
14B47
330
747D
100
AcDbEntity
  8
部品1
 48
50.0
100
AcDbLine
 10
9597.160303027871
 20
3952.667957401802
 30
0.0000000000013153
 11
9611.160303027872
 21
3952.667957401802
 31
0.0000000000013153
  0
LINE
  5
14B48
330
747D
100
AcDbEntity
  8
部品1
 48
50.0
100
AcDbLine
 10
9700.260303027848
 20
3952.667957401802
 30
0.0000000000013153
 11
9714.260303027849
 21
3952.667957401802
 31
0.0000000000013153
  0
LINE
  5
14B49
330
747D
100
AcDbEntity
  8
部品1
 48
50.0
100
AcDbLine
 10
9714.260303027906
 20
3952.667957401802
 30
0.0000000000013153
 11
9728.260303027848
 21
3938.667957401802
 31
0.0000000000013153
  0
LINE
  5
14B4A
330
747D
100
AcDbEntity
  8
部品1
 48
50.0
100
AcDbLine
 10
9583.160303027872
 20
3938.667957401802
 30
0.0000000000013153
 11
8630.710303027802
 21
3938.667957401802
 31
0.0000000000013153
  0
LINE
  5
14B4B
330
747D
100
AcDbEntity
  8
部品1
 48
50.0
100
AcDbLine
 10
9611.160303027872
 20
3838.667957401802
 30
0.0000000000013153
 11
8630.710303027859
 21
3838.667957401802
 31
0.0000000000013153
  0
LINE
  5
14B4C
330
747D
100
AcDbEntity
  8
部品1
 48
50.0
100
AcDbLine
 10
10610.71030302786
 20
3288.667957401802
 30
0.0000000000013153
 11
10610.71030302786
 21
3138.667957401802
 31
0.0000000000013153
  0
LINE
  5
14B4D
330
747D
100
AcDbEntity
  8
部品1
 48
50.0
100
AcDbLine
 10
9050.710303027861
 20
3288.667957401802
 30
0.0000000000013153
 11
9050.710303027861
 21
3138.667957401802
 31
0.0000000000013153
  0
MTEXT
  5
14B71
330
747D
100
AcDbEntity
  8
寸法
 62
     7
 48
50.0
100
AcDbMText
 10
11551.63089484242
 20
3940.940684674523
 30
0.0000000000013153
 40
100.0
 41
1.0
 71
     4
 72
     1
  1
▽G.L
  7
STYLE2
 73
     1
 44
1.0
1001
ACAD
1000
MTEXTBEGIN
1070
    73
1070
     1
1070
    44
1040
1.0
1070
    74
1070
     0
1000
MTEXTEND
  0
LINE
  5
14B72
330
747D
100
AcDbEntity
  8
U7
100
AcDbLine
 10
9905.710303027859
 20
3328.667957401802
 30
0.0000000000013153
 11
9905.710303027859
 21
3318.667957401802
 31
0.0000000000013153
  0
LINE
  5
14B73
330
747D
100
AcDbEntity
  8
センター
 48
10.0
100
AcDbLine
 10
10005.71030302786
 20
4363.140790256842
 30
0.0000000000013153
 11
10005.71030302786
 21
3227.610125571923
 31
0.0000000000013153
  0
LINE
  5
14B74
330
747D
100
AcDbEntity
  8
部品1
 48
50.0
100
AcDbLine
 10
9961.160303027872
 20
4284.601053346715
 30
0.0000000000013153
 11
9961.160303027872
 21
3288.667957401802
 31
0.0000000000013153
  0
LINE
  5
14B75
330
747D
100
AcDbEntity
  8
部品1
 48
50.0
100
AcDbLine
 10
10050.26030302785
 20
3952.667957401802
 30
0.0000000000013153
 11
10064.26030302784
 21
3952.667957401802
 31
0.0000000000013153
  0
LINE
  5
14B76
330
747D
100
AcDbEntity
  8
部品1
 48
50.0
100
AcDbLine
 10
10078.26030302785
 20
3938.667957401802
 30
0.0000000000013153
 11
11030.71030302791
 21
3938.667957401802
 31
0.0000000000013153
  0
LINE
  5
14B77
330
747D
100
AcDbEntity
  8
部品1
 48
50.0
100
AcDbLine
 10
10050.26030302785
 20
3838.667957401802
 30
0.0000000000013153
 11
11030.71030302786
 21
3838.667957401802
 31
0.0000000000013153
  0
CIRCLE
  5
14B78
330
747D
100
AcDbEntity
  8
部品1
 48
50.0
100
AcDbCircle
 10
9330.71030302786
 20
3368.667957401802
 30
0.0000000000013153
 40
5.0
  0
LINE
  5
14B79
330
747D
100
AcDbEntity
  8
Ｇ．Ｌ
 48
50.0
100
AcDbLine
 10
11030.71030302786
 20
3888.667957401802
 30
0.0000000000013153
 11
12084.82425353266
 21
3888.667957401802
 31
0.0000000000013153
  0
LINE
  5
14B7A
330
747D
100
AcDbEntity
  8
部品1
 48
50.0
100
AcDbLine
 10
10050.26030302785
 20
4284.601053346715
 30
0.0000000000013153
 11
10050.26030302785
 21
3288.667957401802
 31
0.0000000000013153
  0
LINE
  5
14B7B
330
747D
100
AcDbEntity
  8
U7
100
AcDbLine
 10
10105.71030302786
 20
3328.667957401802
 30
0.0000000000013153
 11
9905.710303027859
 21
3328.667957401802
 31
0.0000000000013153
  0
LINE
  5
14B7C
330
747D
100
AcDbEntity
  8
U7
100
AcDbLine
 10
10105.71030302786
 20
3328.667957401802
 30
0.0000000000013153
 11
10105.71030302786
 21
3318.667957401802
 31
0.0000000000013153
  0
LINE
  5
14B7D
330
747D
100
AcDbEntity
  8
部品1
 48
50.0
100
AcDbLine
 10
9947.160303027871
 20
3952.667957401802
 30
0.0000000000013153
 11
9933.160303027872
 21
3938.667957401802
 31
0.0000000000013153
  0
LINE
  5
14B7E
330
747D
100
AcDbEntity
  8
部品1
 48
50.0
100
AcDbLine
 10
10064.2603030279
 20
3952.667957401802
 30
0.0000000000013153
 11
10078.26030302785
 21
3938.667957401802
 31
0.0000000000013153
  0
LINE
  5
14B7F
330
747D
100
AcDbEntity
  8
U7
100
AcDbLine
 10
10105.71030302786
 20
3318.667957401802
 30
0.0000000000013153
 11
9905.710303027859
 21
3318.667957401802
 31
0.0000000000013153
  0
LINE
  5
14B80
330
747D
100
AcDbEntity
  8
部品1
 48
50.0
100
AcDbLine
 10
9947.160303027871
 20
3952.667957401802
 30
0.0000000000013153
 11
9961.160303027872
 21
3952.667957401802
 31
0.0000000000013153
  0
LINE
  5
14B81
330
747D
100
AcDbEntity
  8
部品1
 48
50.0
100
AcDbLine
 10
10530.71030302786
 20
3738.667957401802
 30
0.0000000000013153
 11
11030.71030302786
 21
3738.667957401831
 31
0.0000000000013153
  0
LINE
  5
14B82
330
747D
100
AcDbEntity
  8
部品1
 48
50.0
100
AcDbLine
 10
9314.99075458994
 20
3363.667957401802
 30
0.0000000000013153
 11
9314.99075458994
 21
3353.667957401802
 31
0.0000000000013153
  0
LINE
  5
14B83
330
747D
100
AcDbEntity
  8
細線
 48
50.0
100
AcDbLine
 10
9646.585974114636
 20
3138.667957401802
 30
0.0000000000013153
 11
9639.887244303864
 21
3163.667957401802
 31
0.0000000000013153
  0
LINE
  5
14B84
330
747D
100
AcDbEntity
  8
細線
 48
50.0
100
AcDbLine
 10
9653.284703925406
 20
3213.667957401802
 30
0.0000000000013153
 11
9646.585974114636
 21
3238.667957401802
 31
0.0000000000013153
  0
LINE
  5
14B85
330
747D
100
AcDbEntity
  8
細線
 48
50.0
100
AcDbLine
 10
9769.848544344691
 20
3138.667957401802
 30
0.0000000000013153
 11
9763.149814533921
 21
3163.667957401802
 31
0.0000000000013153
  0
LINE
  5
14B86
330
747D
100
AcDbEntity
  8
細線
 48
50.0
100
AcDbLine
 10
9776.547274155461
 20
3213.667957401802
 30
0.0000000000013153
 11
9769.848544344691
 21
3238.667957401802
 31
0.0000000000013153
  0
LINE
  5
14B87
330
747D
100
AcDbEntity
  8
細線
 48
50.0
100
AcDbLine
 10
9893.11111457475
 20
3138.667957401802
 30
0.0000000000013153
 11
9886.412384763978
 21
3163.667957401802
 31
0.0000000000013153
  0
LINE
  5
14B88
330
747D
100
AcDbEntity
  8
細線
 48
50.0
100
AcDbLine
 10
9899.80984438552
 20
3213.667957401802
 30
0.0000000000013153
 11
9893.11111457475
 21
3238.667957401802
 31
0.0000000000013153
  0
LINE
  5
14B89
330
747D
100
AcDbEntity
  8
細線
 48
50.0
100
AcDbLine
 10
10016.37368480486
 20
3138.667957401802
 30
0.0000000000013153
 11
10009.67495499409
 21
3163.667957401802
 31
0.0000000000013153
  0
LINE
  5
14B8A
330
747D
100
AcDbEntity
  8
細線
 48
50.0
100
AcDbLine
 10
10023.07241461563
 20
3213.667957401802
 30
0.0000000000013153
 11
10016.37368480486
 21
3238.667957401802
 31
0.0000000000013153
  0
LINE
  5
14B8B
330
747D
100
AcDbEntity
  8
細線
 48
50.0
100
AcDbLine
 10
10139.63625503492
 20
3138.667957401802
 30
0.0000000000013153
 11
10132.93752522415
 21
3163.667957401802
 31
0.0000000000013153
  0
LINE
  5
14B8C
330
747D
100
AcDbEntity
  8
細線
 48
50.0
100
AcDbLine
 10
10146.33498484569
 20
3213.667957401802
 30
0.0000000000013153
 11
10139.63625503492
 21
3238.667957401802
 31
0.0000000000013153
  0
LINE
  5
14B8D
330
747D
100
AcDbEntity
  8
細線
 48
50.0
100
AcDbLine
 10
10262.89882526498
 20
3138.667957401802
 30
0.0
 11
10256.20009545421
 21
3163.667957401802
 31
0.0
  0
LINE
  5
14B8E
330
747D
100
AcDbEntity
  8
細線
 48
50.0
100
AcDbLine
 10
10269.59755507575
 20
3213.667957401802
 30
0.0
 11
10262.89882526498
 21
3238.667957401802
 31
0.0
  0
LINE
  5
14B8F
330
747D
100
AcDbEntity
  8
細線
 48
50.0
100
AcDbLine
 10
10386.16139549509
 20
3138.667957401802
 30
0.0000000000013153
 11
10379.46266568432
 21
3163.667957401802
 31
0.0000000000013153
  0
LINE
  5
14B90
330
747D
100
AcDbEntity
  8
細線
 48
50.0
100
AcDbLine
 10
10392.86012530586
 20
3213.667957401802
 30
0.0000000000013153
 11
10386.16139549509
 21
3238.667957401802
 31
0.0000000000013153
  0
LINE
  5
14B91
330
747D
100
AcDbEntity
  8
細線
 48
50.0
100
AcDbLine
 10
10509.42396572515
 20
3138.667957401802
 30
0.0000000000013153
 11
10502.72523591438
 21
3163.667957401802
 31
0.0000000000013153
  0
LINE
  5
14B92
330
747D
100
AcDbEntity
  8
細線
 48
50.0
100
AcDbLine
 10
10516.12269553592
 20
3213.667957401802
 30
0.0000000000013153
 11
10509.42396572515
 21
3238.667957401802
 31
0.0000000000013153
  0
LINE
  5
14B93
330
747D
100
AcDbEntity
  8
細線
 48
50.0
100
AcDbLine
 10
8697.992357502611
 20
3738.667957401831
 30
0.0
 11
8691.293627691841
 21
3763.667957401831
 31
0.0
  0
LINE
  5
14B94
330
747D
100
AcDbEntity
  8
細線
 48
50.0
100
AcDbLine
 10
8704.691087313383
 20
3813.667957401831
 30
0.0
 11
8697.992357502611
 21
3838.667957401831
 31
0.0
  0
LINE
  5
14B95
330
747D
100
AcDbEntity
  8
細線
 48
50.0
100
AcDbLine
 10
8821.254927732669
 20
3738.667957401816
 30
0.0
 11
8814.556197921898
 21
3763.667957401816
 31
0.0
  0
LINE
  5
14B96
330
747D
100
AcDbEntity
  8
細線
 48
50.0
100
AcDbLine
 10
8827.953657543439
 20
3813.667957401816
 30
0.0
 11
8821.254927732669
 21
3838.667957401816
 31
0.0
  0
LINE
  5
14B97
330
747D
100
AcDbEntity
  8
細線
 48
50.0
100
AcDbLine
 10
8944.517497962785
 20
3738.667957401816
 30
0.0
 11
8937.818768152014
 21
3763.667957401816
 31
0.0
  0
LINE
  5
14B98
330
747D
100
AcDbEntity
  8
細線
 48
50.0
100
AcDbLine
 10
8951.216227773555
 20
3813.667957401816
 30
0.0
 11
8944.517497962785
 21
3838.667957401816
 31
0.0
  0
LINE
  5
14B99
330
747D
100
AcDbEntity
  8
細線
 48
50.0
100
AcDbLine
 10
9067.780068192842
 20
3738.667957401816
 30
0.0
 11
9061.081338382072
 21
3763.667957401816
 31
0.0
  0
LINE
  5
14B9A
330
747D
100
AcDbEntity
  8
細線
 48
50.0
100
AcDbLine
 10
9074.478798003612
 20
3813.667957401816
 30
0.0
 11
9067.780068192842
 21
3838.667957401816
 31
0.0
  0
LINE
  5
14B9B
330
747D
100
AcDbEntity
  8
細線
 48
50.0
100
AcDbLine
 10
10546.93091095376
 20
3738.667957401816
 30
0.0
 11
10540.23218114299
 21
3763.667957401816
 31
0.0
  0
LINE
  5
14B9C
330
747D
100
AcDbEntity
  8
細線
 48
50.0
100
AcDbLine
 10
10553.62964076453
 20
3813.667957401816
 30
0.0
 11
10546.93091095376
 21
3838.667957401816
 31
0.0
  0
LINE
  5
14B9D
330
747D
100
AcDbEntity
  8
細線
 48
50.0
100
AcDbLine
 10
10670.19348118382
 20
3738.667957401816
 30
0.0
 11
10663.49475137305
 21
3763.667957401816
 31
0.0
  0
LINE
  5
14B9E
330
747D
100
AcDbEntity
  8
細線
 48
50.0
100
AcDbLine
 10
10676.89221099459
 20
3813.667957401816
 30
0.0
 11
10670.19348118382
 21
3838.667957401816
 31
0.0
  0
LINE
  5
14B9F
330
747D
100
AcDbEntity
  8
細線
 48
50.0
100
AcDbLine
 10
10793.45605141388
 20
3738.667957401816
 30
0.0
 11
10786.75732160311
 21
3763.667957401816
 31
0.0
  0
LINE
  5
14BA0
330
747D
100
AcDbEntity
  8
細線
 48
50.0
100
AcDbLine
 10
10800.15478122465
 20
3813.667957401816
 30
0.0
 11
10793.45605141388
 21
3838.667957401816
 31
0.0
  0
LINE
  5
14BA1
330
747D
100
AcDbEntity
  8
細線
 48
50.0
100
AcDbLine
 10
10916.71862164399
 20
3738.667957401816
 30
0.0
 11
10910.01989183322
 21
3763.667957401816
 31
0.0
  0
LINE
  5
14BA2
330
747D
100
AcDbEntity
  8
細線
 48
50.0
100
AcDbLine
 10
10923.41735145476
 20
3813.667957401816
 30
0.0
 11
10916.71862164399
 21
3838.667957401816
 31
0.0
  0
MTEXT
  5
14BA3
330
747D
100
AcDbEntity
  8
寸法
 62
     7
 48
50.0
100
AcDbMText
 10
11028.16715475169
 20
3990.940684674523
 30
0.0000000000013153
 40
100.0
 41
1.0
 71
     5
 72
     1
  1
▽Ｆ.L
  7
STYLE2
 73
     1
 44
1.0
1001
ACAD
1000
MTEXTBEGIN
1070
    73
1070
     1
1070
    44
1040
1.0
1070
    74
1070
     0
1000
MTEXTEND
  0
LINE
  5
14BA4
330
747D
100
AcDbEntity
  8
寸法
 48
50.0
100
AcDbLine
 10
8864.031026903694
 20
4013.27537360397
 30
0.0000000000013153
 11
8932.682244768811
 21
4031.67041199034
 31
0.0000000000013153
  0
LINE
  5
14BA5
330
747D
100
AcDbEntity
  8
寸法
 48
50.0
100
AcDbLine
 10
8864.031026903694
 20
4013.27537360397
 30
0.0000000000013153
 11
9493.283522491497
 21
4013.27537360397
 31
0.0000000000013153
  0
LINE
  5
14BA6
330
747D
100
AcDbEntity
  8
寸法
 48
50.0
100
AcDbLine
 10
8864.031026903694
 20
4013.27537360397
 30
0.0000000000013153
 11
8932.682244768811
 21
3994.880335217586
 31
0.0000000000013153
  0
TEXT
  5
14BA7
330
747D
100
AcDbEntity
  8
寸法
 62
     7
 48
50.0
100
AcDbText
 10
8962.264467903333
 20
4198.66240924595
 30
0.0000000000013153
 40
90.0
  1
水勾配
 41
0.8
  7
STYLE1
100
AcDbText
  0
TEXT
  5
14BA8
330
747D
100
AcDbEntity
  8
寸法
 62
     7
 48
50.0
100
AcDbText
 10
8929.000974931964
 20
4050.323897123857
 30
0.0000000000013153
 40
90.0
  1
１／１００
 41
0.8
  7
STYLE1
100
AcDbText
  0
LINE
  5
14BA9
330
747D
100
AcDbEntity
  8
寸法
 48
50.0
100
AcDbLine
 10
10797.38957915202
 20
4013.27537360397
 30
0.0000000000013153
 11
10728.73836128691
 21
4031.67041199034
 31
0.0000000000013153
  0
LINE
  5
14BAA
330
747D
100
AcDbEntity
  8
寸法
 48
50.0
100
AcDbLine
 10
10797.38957915202
 20
4013.27537360397
 30
0.0000000000013153
 11
10168.13708356422
 21
4013.27537360397
 31
0.0000000000013153
  0
LINE
  5
14BAB
330
747D
100
AcDbEntity
  8
寸法
 48
50.0
100
AcDbLine
 10
10797.38957915202
 20
4013.27537360397
 30
0.0000000000013153
 11
10728.73836128691
 21
3994.880335217586
 31
0.0000000000013153
  0
TEXT
  5
14BAC
330
747D
100
AcDbEntity
  8
寸法
 62
     7
 48
50.0
100
AcDbText
 10
10266.37052456386
 20
4198.66240924595
 30
0.0000000000013153
 40
90.0
  1
水勾配
 41
0.8
  7
STYLE1
100
AcDbText
  0
TEXT
  5
14BAD
330
747D
100
AcDbEntity
  8
寸法
 62
     7
 48
50.0
100
AcDbText
 10
10233.10703159249
 20
4050.323897123857
 30
0.0000000000013153
 40
90.0
  1
１／１００
 41
0.8
  7
STYLE1
100
AcDbText
  0
DIMENSION
  5
14BAE
330
747D
100
AcDbEntity
  8
寸法
 48
50.0
100
AcDbDimension
  2
*D22
 10
8480.129175925897
 20
3938.667957401802
 30
0.0000000000013153
 11
8480.129175925897
 21
4115.70339047271
 31
0.0000000000013153
 70
   160
 71
     5
 42
100.0
  3
INABA_S30G
100
AcDbAlignedDimension
 13
8630.710303027802
 23
3838.667957401802
 33
0.0000000000013153
 14
8630.710303027802
 24
3938.667957401802
 34
0.0000000000013153
 50
90.0
100
AcDbRotatedDimension
  0
DIMENSION
  5
14BAF
330
747D
100
AcDbEntity
  8
寸法
 48
50.0
100
AcDbDimension
  2
*D23
 10
8480.129175925897
 20
3738.667957401802
 30
0.0000000000013153
 11
8480.129175925897
 21
3561.632524330937
 31
0.0000000000013153
 70
   160
 71
     5
 42
100.0
  3
INABA_S30G
100
AcDbAlignedDimension
 13
8630.710303027802
 23
3838.667957401802
 33
0.0000000000013153
 14
8630.710303027802
 24
3738.667957401802
 34
0.0000000000013153
 50
90.0
100
AcDbRotatedDimension
  0
DIMENSION
  5
14BB0
330
747D
100
AcDbEntity
  8
寸法
 48
50.0
100
AcDbDimension
  2
*D24
 10
9655.710303027859
 20
2847.051327757767
 30
0.0000000000013153
 11
9393.21030302786
 21
2922.060186025484
 31
0.0000000000013153
 70
    32
 71
     5
 42
525.0
  3
INABA_S30G
100
AcDbAlignedDimension
 13
9130.710303027859
 23
3288.667957401802
 33
0.0000000000013153
 14
9655.710303027859
 24
3227.610125571923
 34
0.0000000000013153
100
AcDbRotatedDimension
  0
DIMENSION
  5
14BB1
330
747D
100
AcDbEntity
  8
寸法
 48
50.0
100
AcDbDimension
  2
*D25
 10
9130.710303027859
 20
2616.965766669015
 30
0.0000000000013153
 11
9830.71030302786
 21
2691.965766669015
 31
0.0000000000013153
 70
    32
 71
     5
 42
1400.0
  3
INABA_S30G
100
AcDbAlignedDimension
 13
10530.71030302786
 23
3288.667957401802
 33
0.0000000000013153
 14
9130.710303027859
 24
3288.667957401802
 34
0.0000000000013153
100
AcDbRotatedDimension
  0
DIMENSION
  5
14BB2
330
747D
100
AcDbEntity
  8
寸法
 48
50.0
100
AcDbDimension
  2
*D26
 10
10005.71030302786
 20
2847.051327757767
 30
0.0000000000013153
 11
9830.71030302786
 21
2922.051327757767
 31
0.0000000000013153
 70
    32
 71
     5
 42
350.0
  3
INABA_S30G
100
AcDbAlignedDimension
 13
9655.710303027859
 23
3227.610125571923
 33
0.0000000000013153
 14
10005.71030302786
 24
3227.610125571923
 34
0.0000000000013153
100
AcDbRotatedDimension
  0
DIMENSION
  5
14BB3
330
747D
100
AcDbEntity
  8
寸法
 48
50.0
100
AcDbDimension
  2
*D27
 10
10005.71030302786
 20
2847.051327757767
 30
0.0000000000013153
 11
10268.21030302786
 21
2922.060186025484
 31
0.0000000000013153
 70
    32
 71
     5
 42
525.0
  3
INABA_S30G
100
AcDbAlignedDimension
 13
10530.71030302786
 23
3288.667957401802
 33
0.0000000000013153
 14
10005.71030302786
 24
3227.610125571923
 34
0.0000000000013153
 50
180.0
100
AcDbRotatedDimension
  0
DIMENSION
  5
14C38
330
747D
100
AcDbEntity
  8
寸法
 48
50.0
100
AcDbDimension
  2
*D28
 10
11323.15166762859
 20
3288.667957401801
 30
0.0000000000013153
 11
11248.15166762859
 21
3588.667957401803
 31
0.0000000000013153
 70
    32
 71
     5
 42
600.0
  3
INABA_S30G
100
AcDbAlignedDimension
 13
11095.50818059137
 23
3888.667957401802
 33
0.0000000000013153
 14
10610.71030302786
 24
3288.667957401802
 34
0.0000000000013153
 50
90.0
100
AcDbRotatedDimension
  0
DIMENSION
  5
14C39
330
747D
100
AcDbEntity
  8
寸法
 48
50.0
100
AcDbDimension
  2
*D29
 10
11323.15166762859
 20
3938.667957401801
 30
0.0000000000013153
 11
11323.15166762859
 21
4168.203390472711
 31
0.0000000000013153
 70
   160
 71
     5
 42
50.0
  3
INABA_S30G
100
AcDbAlignedDimension
 13
11030.71030302786
 23
3888.667957401802
 33
0.0000000000013153
 14
11030.71030302791
 24
3938.667957401802
 34
0.0000000000013153
 50
90.0
100
AcDbRotatedDimension
  0
DIMENSION
  5
14C3A
330
747D
100
AcDbEntity
  8
寸法
 48
50.0
100
AcDbDimension
  2
*D30
 10
11323.15166762859
 20
3238.667957401801
 30
0.0000000000013153
 11
11323.15166762859
 21
3009.132524330937
 31
0.0000000000013153
 70
   160
 71
     5
 42
50.0
  3
INABA_S30G
100
AcDbAlignedDimension
 13
10610.71030302786
 23
3288.667957401802
 33
0.0000000000013153
 14
10610.71030302786
 24
3238.667957401802
 34
0.0000000000013153
 50
90.0
100
AcDbRotatedDimension
  0
TEXT
  5
14C3B
330
747D
100
AcDbEntity
  8
寸法
 62
     7
 48
50.0
100
AcDbText
 10
10617.49627607209
 20
3437.722369836785
 30
0.0000000000013153
 40
90.0
  1
主筋4-D13
  7
STYLE1
100
AcDbText
  0
LINE
  5
14C3C
330
747D
100
AcDbEntity
  8
寸法
 48
50.0
100
AcDbLine
 10
10579.75090998991
 20
3412.715512284395
 30
0.0000000000013153
 11
11199.96536545709
 21
3412.715512284395
 31
0.0000000000013153
  0
LINE
  5
14C3D
330
747D
100
AcDbEntity
  8
寸法
 48
50.0
100
AcDbLine
 10
10579.75090998991
 20
3412.715512284395
 30
0.0000000000013153
 11
10205.71030302786
 21
3628.667957401802
 31
0.0000000000013153
  0
LWPOLYLINE
  5
14C3E
330
747D
100
AcDbEntity
  8
寸法
 48
5.0
100
AcDbPolyline
 90
        3
 70
     0
 43
0.0
 10
9330.71030302786
 20
3368.667957401802
 10
8935.059358592182
 20
2973.017012966167
 10
8017.549803447248
 20
2973.017012966167
1001
ACAD
1000
DSTYLE
1002
{
1070
   341
1005
0
1002
}
  0
TEXT
  5
14C3F
330
747D
100
AcDbEntity
  8
寸法
 62
     7
100
AcDbText
 10
8022.68624125058
 20
2993.538017964525
 30
-0.0000000000013153
 40
90.0
  1
4-D10X6-D10以上
  7
STYLE1
100
AcDbText
  0
TEXT
  5
14C40
330
747D
100
AcDbEntity
  8
寸法
 62
     7
100
AcDbText
 10
8022.68624125058
 20
3108.010938689153
 30
-0.0000000000013153
 40
90.0
  1
ベース筋
  7
STYLE1
100
AcDbText
  0
LINE
  5
14C41
330
747D
100
AcDbEntity
  8
寸法
 48
50.0
100
AcDbLine
 10
9501.438990118135
 20
3478.667957401802
 30
0.0000000000013153
 11
8787.195481715004
 21
2764.424448998671
 31
0.0000000000013153
  0
LINE
  5
14C42
330
747D
100
AcDbEntity
  8
寸法
 48
50.0
100
AcDbLine
 10
8787.195481715004
 20
2764.424448998671
 30
0.0000000000013153
 11
8096.801503014322
 21
2764.424448998671
 31
0.0000000000013153
  0
TEXT
  5
14C43
330
747D
100
AcDbEntity
  8
寸法
 62
     7
 48
50.0
100
AcDbText
 10
8115.254090378913
 20
2779.500366826523
 30
0.0000000000013153
 40
90.0
  1
帯筋D10＠100
  7
STYLE1
100
AcDbText
  0
LWPOLYLINE
  5
14C44
330
747D
100
AcDbEntity
  8
寸法
 48
50.0
100
AcDbPolyline
 90
        3
 70
     0
 43
0.0
 10
10005.71030302786
 20
3323.667957401802
 10
10662.37135052876
 20
2667.00690990088
 10
11158.7680941395
 20
2667.00690990088
1001
ACAD
1000
DSTYLE
1002
{
1070
   341
1005
0
1002
}
  0
TEXT
  5
14C45
330
747D
100
AcDbEntity
  8
寸法
 62
     7
 48
50.0
100
AcDbText
 10
10720.03328582171
 20
2686.566163252512
 30
0.0000000000013153
 40
90.0
  1
カンザシ
  7
STYLE1
100
AcDbText
  0
LINE
  5
14F2F
330
747D
100
AcDbEntity
  8
センター
 48
10.0
100
AcDbLine
 10
1127.378360629169
 20
3551.268015250607
 30
0.0
 11
5516.448191001291
 21
3551.268015250607
 31
0.0
  0
LINE
  5
14F30
330
747D
100
AcDbEntity
  8
想像線
 48
10.0
100
AcDbLine
 10
1147.378360629227
 20
1687.768015250607
 30
0.0
 11
1147.378360629227
 21
5764.768015250608
 31
0.0
  0
LINE
  5
14F31
330
747D
100
AcDbEntity
  8
想像線
 48
10.0
100
AcDbLine
 10
7207.378360629111
 20
1687.768015250607
 30
0.0
 11
7207.378360629111
 21
5764.768015250608
 31
0.0
  0
LINE
  5
14F32
330
747D
100
AcDbEntity
  8
想像線
 48
10.0
100
AcDbLine
 10
1147.378360629227
 20
1687.768015250607
 30
0.0
 11
5187.862862451064
 21
1687.768015250607
 31
0.0
  0
LINE
  5
14F33
330
747D
100
AcDbEntity
  8
部品1
 48
50.0
100
AcDbLine
 10
977.378360629169
 20
3026.268015250608
 30
0.0
 11
1777.378360629169
 21
3026.268015250608
 31
0.0
  0
LINE
  5
14F34
330
747D
100
AcDbEntity
  8
部品1
 48
50.0
100
AcDbLine
 10
977.378360629169
 20
5901.268015250607
 30
0.0
 11
977.378360629169
 21
1551.268015250607
 31
0.0
  0
CIRCLE
  5
14F35
330
747D
100
AcDbEntity
  8
部品1
 48
50.0
100
AcDbCircle
 10
1377.378360629169
 20
3551.268015250607
 30
0.0
 40
44.55
  0
LINE
  5
14F36
330
747D
100
AcDbEntity
  8
センター
 48
10.0
100
AcDbLine
 10
1127.378360629169
 20
3551.268015250607
 30
0.0
 11
1627.378360629169
 21
3551.268015250607
 31
0.0
  0
LINE
  5
14F37
330
747D
100
AcDbEntity
  8
センター
 48
10.0
100
AcDbLine
 10
1377.378360629169
 20
3801.268015250607
 30
0.0
 11
1377.378360629169
 21
3301.268015250607
 31
0.0
  0
LINE
  5
14F38
330
747D
100
AcDbEntity
  8
センター
 48
10.0
100
AcDbLine
 10
6977.378360629169
 20
3801.268015250607
 30
0.0
 11
6977.378360629169
 21
3301.268015250607
 31
0.0
  0
LINE
  5
14F39
330
747D
100
AcDbEntity
  8
センター
 48
10.0
100
AcDbLine
 10
6727.378360629169
 20
3551.268015250607
 30
0.0
 11
7227.378360629169
 21
3551.268015250607
 31
0.0
  0
CIRCLE
  5
14F3A
330
747D
100
AcDbEntity
  8
部品1
 48
50.0
100
AcDbCircle
 10
6977.378360629169
 20
3551.268015250607
 30
0.0
 40
44.55
  0
LINE
  5
14F3B
330
747D
100
AcDbEntity
  8
部品1
 48
50.0
100
AcDbLine
 10
7377.378360629169
 20
5901.268015250607
 30
0.0
 11
7377.378360629169
 21
1551.268015250607
 31
0.0
  0
LINE
  5
14F3C
330
747D
100
AcDbEntity
  8
部品1
 48
30.0
100
AcDbLine
 10
977.378360629169
 20
1551.268015250607
 30
0.0
 11
5163.794229584361
 21
1551.268015250607
 31
0.0
  0
LINE
  5
14F3D
330
747D
100
AcDbEntity
  8
寸法
 48
50.0
100
AcDbLine
 10
2489.000397298631
 20
2658.841887218252
 30
0.0
 11
2456.152114465862
 21
2781.433347691709
 31
0.0
  0
LINE
  5
14F3E
330
747D
100
AcDbEntity
  8
寸法
 48
50.0
100
AcDbLine
 10
2489.000397298631
 20
2658.841887218252
 30
0.0
 11
2521.848680131458
 21
2781.433347691709
 31
0.0
  0
LINE
  5
14F3F
330
747D
100
AcDbEntity
  8
寸法
 48
50.0
100
AcDbLine
 10
2489.000397298631
 20
3444.557115651434
 30
0.0
 11
2489.000397298631
 21
2658.841887218252
 31
0.0
  0
MTEXT
  5
14F40
330
747D
100
AcDbEntity
  8
寸法
 62
     7
 48
50.0
100
AcDbMText
 10
2394.562461232854
 20
2797.555193345397
 30
0.0
 40
90.0
 41
0.0
 71
     4
 72
     1
  1
\A1;水勾配 1/100 
  7
STYLE1
 11
0.0000000000000001
 21
1.0
 31
0.0
 73
     1
 44
1.0
1001
ACAD
1000
MTEXTBEGIN
1070
    73
1070
     1
1070
    44
1040
1.0
1070
    74
1070
     0
1000
MTEXTEND
  0
MTEXT
  5
14F41
330
747D
100
AcDbEntity
  8
寸法
 62
     7
 48
50.0
100
AcDbMText
 10
1203.370245411381
 20
1805.048061118097
 30
0.0
 40
90.0
 41
0.0
 71
     4
 72
     1
  1
\A1;床コンクリート打コテ押エ
  7
STYLE1
 73
     1
 44
1.0
1001
ACAD
1000
MTEXTBEGIN
1070
    73
1070
     1
1070
    44
1040
1.0
1070
    74
1070
     0
1000
MTEXTEND
  0
LEADER
  5
14F42
330
747D
100
AcDbEntity
  8
寸法
 48
50.0
100
AcDbLeader
  3
INABA_S30G
 73
     0
 75
     1
 76
     3
 10
6977.378360629169
 20
3551.268015250607
 30
0.0
 10
6888.891835693823
 20
3221.031808406769
 30
0.0
 10
6813.891835693823
 20
3221.031808406769
 30
0.0
  0
MTEXT
  5
14F43
102
{ACAD_REACTORS
330
14F42
102
}
330
747D
100
AcDbEntity
  8
寸法
 62
     7
 48
50.0
100
AcDbMText
 10
6783.891835693824
 20
3296.03180840677
 30
0.0
 40
90.0
 41
0.0
 71
     6
 72
     1
  1
\A1;柱
  7
STYLE1
 73
     1
 44
1.0
1001
ACAD
1000
MTEXTBEGIN
1070
    73
1070
     1
1070
    44
1040
1.0
1070
    74
1070
     0
1000
MTEXTEND
  0
LINE
  5
14F44
330
747D
100
AcDbEntity
  8
センター
 48
10.0
100
AcDbLine
 10
1127.378360629169
 20
3901.268015250607
 30
0.0
 11
5578.16263424926
 21
3901.268015250607
 31
0.0
  0
LINE
  5
14F45
330
747D
100
AcDbEntity
  8
想像線
 48
10.0
100
AcDbLine
 10
1147.378360629227
 20
5764.768015250608
 30
0.0
 11
5906.747962799476
 21
5764.768015250608
 31
0.0
  0
LINE
  5
14F46
330
747D
100
AcDbEntity
  8
部品1
 48
50.0
100
AcDbLine
 10
977.378360629169
 20
4426.268015250607
 30
0.0
 11
1777.378360629169
 21
4426.268015250607
 31
0.0
  0
CIRCLE
  5
14F47
330
747D
100
AcDbEntity
  8
部品1
 48
50.0
100
AcDbCircle
 10
1377.378360629169
 20
3901.268015250607
 30
0.0
 40
44.55
  0
LINE
  5
14F48
330
747D
100
AcDbEntity
  8
センター
 48
10.0
100
AcDbLine
 10
1127.378360629169
 20
3901.268015250607
 30
0.0
 11
1627.378360629169
 21
3901.268015250607
 31
0.0
  0
LINE
  5
14F49
330
747D
100
AcDbEntity
  8
センター
 48
10.0
100
AcDbLine
 10
1377.378360629169
 20
3651.268015250607
 30
0.0
 11
1377.378360629169
 21
4151.268015250606
 31
0.0
  0
LINE
  5
14F4A
330
747D
100
AcDbEntity
  8
センター
 48
10.0
100
AcDbLine
 10
6977.378360629169
 20
3651.268015250607
 30
0.0
 11
6977.378360629169
 21
4151.268015250606
 31
0.0
  0
LINE
  5
14F4B
330
747D
100
AcDbEntity
  8
センター
 48
10.0
100
AcDbLine
 10
6727.378360629169
 20
3901.268015250607
 30
0.0
 11
7227.378360629169
 21
3901.268015250607
 31
0.0
  0
CIRCLE
  5
14F4C
330
747D
100
AcDbEntity
  8
部品1
 48
50.0
100
AcDbCircle
 10
6977.378360629169
 20
3901.268015250607
 30
0.0
 40
44.55
  0
LINE
  5
14F4D
330
747D
100
AcDbEntity
  8
部品1
 48
50.0
100
AcDbLine
 10
6577.378360629168
 20
3026.268015250593
 30
0.0
 11
6577.378360629168
 21
4426.268015250607
 31
0.0
  0
LINE
  5
14F4E
330
747D
100
AcDbEntity
  8
部品1
 48
30.0
100
AcDbLine
 10
977.378360629169
 20
5901.268015250607
 30
0.0
 11
5930.816595666183
 21
5901.268015250607
 31
0.0
  0
LINE
  5
14F4F
330
747D
100
AcDbEntity
  8
部品1
 48
50.0
100
AcDbLine
 10
1777.378360629169
 20
4426.268015250607
 30
0.0
 11
1777.378360629169
 21
3026.268015250608
 31
0.0
  0
LINE
  5
14F50
330
747D
100
AcDbEntity
  8
部品1
 48
50.0
100
AcDbLine
 10
6577.378360629168
 20
3026.268015250608
 30
0.0
 11
7377.378360629169
 21
3026.268015250608
 31
0.0
  0
LINE
  5
14F51
330
747D
100
AcDbEntity
  8
部品1
 48
50.0
100
AcDbLine
 10
6577.378360629168
 20
4426.268015250607
 30
0.0
 11
7377.378360629169
 21
4426.268015250607
 31
0.0
  0
DIMENSION
  5
14F9F
330
747D
100
AcDbEntity
  8
寸法
 48
50.0
100
AcDbDimension
  2
*D2
 10
977.378360629169
 20
1222.78029691409
 30
0.0
 11
1062.378360629198
 21
1297.78029691409
 31
0.0
 70
    32
 71
     5
 42
170.0000000000582
  3
INABA_S30G
100
AcDbAlignedDimension
 13
1147.378360629227
 23
1687.768015250607
 33
0.0
 14
977.378360629169
 24
1551.268015250607
 34
0.0
 50
180.0
100
AcDbRotatedDimension
  0
DIMENSION
  5
14FA0
330
747D
100
AcDbEntity
  8
寸法
 48
50.0
100
AcDbDimension
  2
*D3
 10
7377.378360629169
 20
1222.78029691409
 30
0.0
 11
7292.37836062914
 21
1297.78029691409
 31
0.0
 70
    32
 71
     5
 42
170.0000000000582
  3
INABA_S30G
100
AcDbAlignedDimension
 13
7207.378360629111
 23
1687.768015250607
 33
0.0
 14
7377.378360629169
 24
1551.268015250607
 34
0.0
100
AcDbRotatedDimension
  0
DIMENSION
  5
14FA1
330
747D
100
AcDbEntity
  8
寸法
 48
50.0
100
AcDbDimension
  2
*D4
 10
7207.378360629111
 20
1222.78029691409
 30
0.0
 11
4177.378360629169
 21
1297.789155181807
 31
0.0
 70
    32
  1
屋根寸法 N \U+00D72800 ＋ 460
 71
     5
 42
6059.999999999884
  3
INABA_S30G
100
AcDbAlignedDimension
 13
1147.378360629227
 23
1687.768015250607
 33
0.0
 14
7207.378360629111
 24
1687.768015250607
 34
0.0
100
AcDbRotatedDimension
  0
DIMENSION
  5
14FA5
330
747D
100
AcDbEntity
  8
寸法
 48
50.0
100
AcDbDimension
  2
*D5
 10
7759.65258299277
 20
1551.268015250607
 30
0.0
 11
7759.65258299277
 21
1327.404054219929
 31
0.0
 70
   160
 71
     5
 42
136.5
  3
INABA_S30G
100
AcDbAlignedDimension
 13
7207.378360629111
 23
1687.768015250607
 33
0.0
 14
7377.378360629169
 24
1551.268015250607
 34
0.0
 50
90.0
100
AcDbRotatedDimension
  0
DIMENSION
  5
14FA6
330
747D
100
AcDbEntity
  8
寸法
 48
50.0
100
AcDbDimension
  2
*D6
 10
7759.65258299277
 20
1687.768015250607
 30
0.0
 11
7684.65258299277
 21
3726.268015250609
 31
0.0
 70
    32
  1
屋根寸法 <>
 71
     5
 42
4077.0
  3
INABA_S30G
100
AcDbAlignedDimension
 13
7207.378360629111
 23
5764.768015250608
 33
0.0
 14
7207.378360629111
 24
1687.768015250607
 34
0.0
 50
90.0
100
AcDbRotatedDimension
  0
DIMENSION
  5
14FA7
330
747D
100
AcDbEntity
  8
寸法
 48
50.0
100
AcDbDimension
  2
*D7
 10
7759.652582992771
 20
5901.268015250607
 30
0.0
 11
7759.65258299277
 21
6125.131976281337
 31
0.0
 70
   160
 71
     5
 42
136.5
  3
INABA_S30G
100
AcDbAlignedDimension
 13
7207.378360629111
 23
5764.768015250608
 33
0.0
 14
7377.378360629169
 24
5901.268015250607
 34
0.0
 50
270.0
100
AcDbRotatedDimension
  0
DIMENSION
  5
14FAB
330
747D
100
AcDbEntity
  8
寸法
 48
50.0
100
AcDbDimension
  2
*D8
 10
413.7571619014779
 20
1551.268015250607
 30
0.0
 11
338.7571619014778
 21
3726.268015250607
 31
0.0
 70
    32
  1
基礎土間寸法 <>
 71
     5
 42
4350.0
  3
INABA_S30G
100
AcDbAlignedDimension
 13
977.378360629169
 23
5901.268015250607
 33
0.0
 14
977.378360629169
 24
1551.268015250607
 34
0.0
 50
90.0
100
AcDbRotatedDimension
  0
DIMENSION
  5
14FAC
330
747D
100
AcDbEntity
  8
寸法
 48
50.0
100
AcDbDimension
  2
*D9
 10
636.5065239179239
 20
1551.268015250607
 30
0.0
 11
561.4976656502071
 21
2551.268015250608
 31
0.0
 70
    32
 71
     5
 42
2000.0
  3
INABA_S30G
100
AcDbAlignedDimension
 13
1127.378360629169
 23
3551.268015250607
 33
0.0
 14
977.378360629169
 24
1551.268015250607
 34
0.0
 50
90.0
100
AcDbRotatedDimension
  0
DIMENSION
  5
14FAD
330
747D
100
AcDbEntity
  8
寸法
 48
50.0
100
AcDbDimension
  2
*D10
 10
636.5065239179239
 20
3551.268015250608
 30
0.0
 11
561.5065239179233
 21
3726.268015250608
 31
0.0
 70
    32
 71
     5
 42
350.0
  3
INABA_S30G
100
AcDbAlignedDimension
 13
1127.378360629169
 23
3901.268015250607
 33
0.0
 14
1127.378360629169
 24
3551.268015250607
 34
0.0
 50
90.0
100
AcDbRotatedDimension
  0
DIMENSION
  5
14FAE
330
747D
100
AcDbEntity
  8
寸法
 48
50.0
100
AcDbDimension
  2
*D11
 10
636.5065239179239
 20
5901.268015250607
 30
0.0
 11
561.4976656502063
 21
4901.268015250607
 31
0.0
 70
    32
 71
     5
 42
2000.0
  3
INABA_S30G
100
AcDbAlignedDimension
 13
1127.378360629169
 23
3901.268015250607
 33
0.0
 14
977.378360629169
 24
5901.268015250607
 34
0.0
 50
270.0
100
AcDbRotatedDimension
  0
DIMENSION
  5
14FAF
330
747D
100
AcDbEntity
  8
寸法
 48
50.0
100
AcDbDimension
  2
*D12
 10
7377.378360629169
 20
6598.794387330345
 30
0.0
 11
4177.378360629169
 21
6673.803245598062
 31
0.0
 70
    32
  1
基礎土間寸法 N　\U+00D72800 ＋ 800
 71
     5
 42
6400.0
  3
INABA_S30G
100
AcDbAlignedDimension
 13
977.378360629169
 23
5901.268015250607
 33
0.0
 14
7377.378360629169
 24
5901.268015250607
 34
0.0
100
AcDbRotatedDimension
  0
DIMENSION
  5
14FB0
330
747D
100
AcDbEntity
  8
寸法
 48
50.0
100
AcDbDimension
  2
*D13
 10
7377.378360629169
 20
6404.757348356027
 30
0.0
 11
7177.378360629169
 21
6479.757348356027
 31
0.0
 70
    32
 71
     5
 42
400.0
  3
INABA_S30G
100
AcDbAlignedDimension
 13
6977.378360629169
 23
4151.268015250606
 33
0.0
 14
7377.378360629169
 24
5901.268015250607
 34
0.0
100
AcDbRotatedDimension
  0
DIMENSION
  5
14FB1
330
747D
100
AcDbEntity
  8
寸法
 48
50.0
100
AcDbDimension
  2
*D14
 10
6977.378360629169
 20
6404.757348356027
 30
0.0
 11
4177.378360629169
 21
6479.766206623742
 31
0.0
 70
    32
  1
N \U+00D72800
 71
     5
 42
5600.0
  3
INABA_S30G
100
AcDbAlignedDimension
 13
1377.378360629169
 23
4151.268015250606
 33
0.0
 14
6977.378360629169
 24
4151.268015250606
 34
0.0
100
AcDbRotatedDimension
  0
DIMENSION
  5
14FB2
330
747D
100
AcDbEntity
  8
寸法
 48
50.0
100
AcDbDimension
  2
*D15
 10
1377.378360629169
 20
6404.757348356027
 30
0.0
 11
1177.378360629169
 21
6479.757348356027
 31
0.0
 70
    32
 71
     5
 42
400.0
  3
INABA_S30G
100
AcDbAlignedDimension
 13
977.378360629169
 23
5901.268015250607
 33
0.0
 14
1377.378360629169
 24
4151.268015250606
 34
0.0
100
AcDbRotatedDimension
  0
DIMENSION
  5
14FB3
330
747D
100
AcDbEntity
  8
寸法
 48
50.0
100
AcDbDimension
  2
*D16
 10
6577.378360629168
 20
2788.131799213516
 30
0.0
 11
6777.378360629168
 21
2863.131799213516
 31
0.0
 70
    32
 71
     5
 42
400.0
  3
INABA_S30G
100
AcDbAlignedDimension
 13
6977.378360629169
 23
3301.268015250607
 33
0.0
 14
6577.378360629168
 24
3026.268015250608
 34
0.0
100
AcDbRotatedDimension
  0
DIMENSION
  5
14FB4
330
747D
100
AcDbEntity
  8
寸法
 48
50.0
100
AcDbDimension
  2
*D17
 10
7377.378360629169
 20
2549.995583176453
 30
0.0
 11
6977.378360629169
 21
2549.995583176453
 31
0.0
 70
   160
 71
     5
 42
800.0
  3
INABA_S30G
100
AcDbAlignedDimension
 13
6577.378360629168
 23
3026.268015250608
 33
0.0
 14
7377.378360629169
 24
3026.268015250608
 34
0.0
100
AcDbRotatedDimension
  0
DIMENSION
  5
14FB5
330
747D
100
AcDbEntity
  8
寸法
 48
50.0
100
AcDbDimension
  2
*D18
 10
6400.063857344997
 20
3026.268015250593
 30
0.0
 11
6325.054999077281
 21
3288.768015250601
 31
0.0
 70
    32
 71
     5
 42
525.0000000000145
  3
INABA_S30G
100
AcDbAlignedDimension
 13
6727.378360629169
 23
3551.268015250607
 33
0.0
 14
6577.378360629168
 24
3026.268015250593
 34
0.0
 50
90.0
100
AcDbRotatedDimension
  0
DIMENSION
  5
14FB6
330
747D
100
AcDbEntity
  8
寸法
 48
50.0
100
AcDbDimension
  2
*D19
 10
6222.749354060827
 20
3026.268015250593
 30
0.0
 11
6147.749354060826
 21
3726.268015250602
 31
0.0
 70
    32
 71
     5
 42
1400.000000000015
  3
INABA_S30G
100
AcDbAlignedDimension
 13
6577.378360629168
 23
4426.268015250607
 33
0.0
 14
6577.378360629168
 24
3026.268015250593
 34
0.0
 50
90.0
100
AcDbRotatedDimension
  0
DIMENSION
  5
14FB7
330
747D
100
AcDbEntity
  8
寸法
 48
50.0
100
AcDbDimension
  2
*D20
 10
6400.063857344997
 20
3551.268015250607
 30
0.0
 11
6325.063857344996
 21
3726.268015250609
 31
0.0
 70
    32
 71
     5
 42
350.0
  3
INABA_S30G
100
AcDbAlignedDimension
 13
6727.378360629169
 23
3901.268015250607
 33
0.0
 14
6727.378360629169
 24
3551.268015250607
 34
0.0
 50
90.0
100
AcDbRotatedDimension
  0
DIMENSION
  5
14FB8
330
747D
100
AcDbEntity
  8
寸法
 48
50.0
100
AcDbDimension
  2
*D21
 10
6400.063857344997
 20
4426.268015250622
 30
0.0
 11
6325.054999077281
 21
4163.768015250616
 31
0.0
 70
    32
 71
     5
 42
525.000000000015
  3
INABA_S30G
100
AcDbAlignedDimension
 13
6727.378360629169
 23
3901.268015250607
 33
0.0
 14
6577.378360629168
 24
4426.268015250622
 34
0.0
 50
270.0
100
AcDbRotatedDimension
  0
LINE
  5
14FB9
330
747D
100
AcDbEntity
  8
寸法
 48
50.0
100
AcDbLine
 10
2489.000397298631
 20
4793.694143282962
 30
0.0
 11
2456.152114465862
 21
4671.102682809506
 31
0.0
  0
LINE
  5
14FBA
330
747D
100
AcDbEntity
  8
寸法
 48
50.0
100
AcDbLine
 10
2489.000397298631
 20
4793.694143282962
 30
0.0
 11
2521.848680131458
 21
4671.102682809506
 31
0.0
  0
LINE
  5
14FBB
330
747D
100
AcDbEntity
  8
寸法
 48
50.0
100
AcDbLine
 10
2489.000397298631
 20
4007.97891484978
 30
0.0
 11
2489.000397298631
 21
4793.694143282962
 31
0.0
  0
MTEXT
  5
14FBC
330
747D
100
AcDbEntity
  8
寸法
 62
     7
 48
50.0
100
AcDbMText
 10
2394.562461232854
 20
4046.69222097691
 30
0.0
 40
90.0
 41
0.0
 71
     4
 72
     1
  1
\A1;水勾配 1/100 
  7
STYLE1
 11
0.0000000000000001
 21
1.0
 31
0.0
 73
     1
 44
1.0
1001
ACAD
1000
MTEXTBEGIN
1070
    73
1070
     1
1070
    44
1040
1.0
1070
    74
1070
     0
1000
MTEXTEND
  0
LINE
  5
14FBD
330
747D
100
AcDbEntity
  8
寸法
 48
50.0
100
AcDbLine
 10
1123.244529880263
 20
4505.166977730739
 30
0.0
 11
1230.977900463243
 21
4534.03404737632
 31
0.0
  0
LINE
  5
14FBE
330
747D
100
AcDbEntity
  8
寸法
 48
50.0
100
AcDbLine
 10
1230.977900463243
 20
4534.03404737632
 30
0.0
 11
1230.977900463243
 21
4468.099428454777
 31
0.0
  0
LINE
  5
14FBF
330
747D
100
AcDbEntity
  8
寸法
 48
50.0
100
AcDbLine
 10
1377.378360629169
 20
4505.166977730739
 30
0.0
 11
1123.244529880263
 21
4505.166977730739
 31
0.0
  0
TEXT
  5
14FC0
330
747D
100
AcDbEntity
  8
寸法
 62
     7
100
AcDbText
 10
1013.742880466714
 20
4477.10150492897
 30
0.0
 40
90.0
  1
A'
  7
STYLE1
100
AcDbText
  0
LINE
  5
14FC1
330
747D
100
AcDbEntity
  8
寸法
 48
50.0
100
AcDbLine
 10
1377.378360629169
 20
2947.369052770475
 30
0.0
 11
1123.244529880263
 21
2947.369052770475
 31
0.0
  0
LINE
  5
14FC2
330
747D
100
AcDbEntity
  8
寸法
 48
50.0
100
AcDbLine
 10
1123.244529880263
 20
2947.369052770475
 30
0.0
 11
1230.977900463243
 21
2918.501983124894
 31
0.0
  0
LINE
  5
14FC3
330
747D
100
AcDbEntity
  8
寸法
 48
50.0
100
AcDbLine
 10
1230.977900463243
 20
2918.501983124894
 30
0.0
 11
1230.977900463243
 21
2984.436602046437
 31
0.0
  0
TEXT
  5
14FC4
330
747D
100
AcDbEntity
  8
寸法
 62
     7
100
AcDbText
 10
1012.484251607995
 20
2905.141849762571
 30
0.0
 40
90.0
  1
A
  7
STYLE1
100
AcDbText
  0
LINE
  5
14FC5
330
747D
100
AcDbEntity
  8
寸法
 48
50.0
100
AcDbLine
 10
1377.378360629169
 20
2947.369052770475
 30
0.0
 11
1377.378360629169
 21
3301.268015250607
 31
0.0
  0
LINE
  5
14FE3
330
747D
100
AcDbEntity
  8
部品1
 48
50.0
100
AcDbLine
 10
3777.37836062917
 20
3026.268015250608
 30
0.0
 11
4577.378360629169
 21
3026.268015250608
 31
0.0
  0
CIRCLE
  5
14FE4
330
747D
100
AcDbEntity
  8
部品1
 48
50.0
100
AcDbCircle
 10
4177.378360629169
 20
3551.268015250607
 30
0.0
 40
44.55
  0
LINE
  5
14FE5
330
747D
100
AcDbEntity
  8
センター
 48
10.0
100
AcDbLine
 10
3927.37836062917
 20
3551.268015250607
 30
0.0
 11
4427.378360629169
 21
3551.268015250607
 31
0.0
  0
LINE
  5
14FE6
330
747D
100
AcDbEntity
  8
センター
 48
10.0
100
AcDbLine
 10
4177.378360629169
 20
3801.268015250607
 30
0.0
 11
4177.378360629169
 21
3301.268015250607
 31
0.0
  0
LINE
  5
14FE7
330
747D
100
AcDbEntity
  8
部品1
 48
50.0
100
AcDbLine
 10
3777.37836062917
 20
4426.268015250607
 30
0.0
 11
4577.378360629169
 21
4426.268015250607
 31
0.0
  0
CIRCLE
  5
14FE8
330
747D
100
AcDbEntity
  8
部品1
 48
50.0
100
AcDbCircle
 10
4177.378360629169
 20
3901.268015250607
 30
0.0
 40
44.55
  0
LINE
  5
14FE9
330
747D
100
AcDbEntity
  8
センター
 48
10.0
100
AcDbLine
 10
3927.37836062917
 20
3901.268015250607
 30
0.0
 11
4427.378360629169
 21
3901.268015250607
 31
0.0
  0
LINE
  5
14FEA
330
747D
100
AcDbEntity
  8
センター
 48
10.0
100
AcDbLine
 10
4177.378360629169
 20
3651.268015250607
 30
0.0
 11
4177.378360629169
 21
4151.268015250606
 31
0.0
  0
LINE
  5
14FEB
330
747D
100
AcDbEntity
  8
部品1
 48
50.0
100
AcDbLine
 10
4577.378360629169
 20
4426.268015250607
 30
0.0
 11
4577.378360629169
 21
3026.268015250608
 31
0.0
  0
LINE
  5
14FEC
330
747D
100
AcDbEntity
  8
部品1
 48
50.0
100
AcDbLine
 10
3777.37836062917
 20
4426.268015250607
 30
0.0
 11
3777.37836062917
 21
3026.268015250608
 31
0.0
  0
DIMENSION
  5
15E51
330
747D
100
AcDbEntity
  8
寸法
 48
50.0
100
AcDbDimension
  2
*D31
 10
4177.378360629169
 20
6190.923317781591
 30
0.0000000000013153
 11
2777.378360629169
 21
6265.932176049307
 31
0.0000000000013153
 70
    32
 71
     5
 42
2800.0
  3
INABA_S30G
100
AcDbAlignedDimension
 13
1377.378360629169
 23
4151.268015250606
 33
0.0
 14
4177.378360629169
 24
4151.268015250606
 34
0.0
100
AcDbRotatedDimension
  0
DIMENSION
  5
15E70
330
747D
100
AcDbEntity
  8
寸法
 48
50.0
100
AcDbDimension
  2
*D32
 10
5497.378360629169
 20
6190.923317781591
 30
0.0000000000013153
 11
4837.378360629169
 21
6265.932176049307
 31
0.0000000000013153
 70
    32
  1
2800
 71
     5
 42
1320.0
  3
INABA_S30G
100
AcDbAlignedDimension
 13
4177.378360629169
 23
4151.268015250606
 33
0.0000000000013153
 14
5497.378360629169
 24
4151.268015250606
 34
0.0000000000013153
100
AcDbRotatedDimension
1001
ACAD
1000
DSTYLE
1002
{
1070
    76
1070
     1
1070
   344
1005
135E3
1070
    73
1070
     1
1070
    74
1070
     1
1070
   272
1070
     1
1070
   341
1005
0
1002
}
  0
LINE
  5
15EA8
102
{ACAD_REACTORS
330
15EB2
102
}
330
747D
100
AcDbEntity
  8
寸法
 48
50.0
100
AcDbLine
 10
5949.124016216913
 20
6005.09455658407
 30
0.0000000000026306
 11
5570.767934880684
 21
3859.330591160077
 31
0.0000000000026306
  0
LINE
  5
15EA9
102
{ACAD_REACTORS
330
15EB2
102
}
330
747D
100
AcDbEntity
  8
寸法
 48
50.0
100
AcDbLine
 10
5979.586814573486
 20
6005.09455658407
 30
0.0000000000026306
 11
5596.314819476938
 21
3831.451058824359
 31
0.0000000000026306
  0
LINE
  5
15EAA
102
{ACAD_REACTORS
330
15EB2
102
}
330
747D
100
AcDbEntity
  8
寸法
 48
50.0
100
AcDbLine
 10
5526.95651404174
 20
3610.863676664552
 30
0.0000000000026306
 11
5144.317574110435
 21
1440.810413154362
 31
0.0000000000026306
  0
LINE
  5
15EAB
102
{ACAD_REACTORS
330
15EB2
102
}
330
747D
100
AcDbEntity
  8
寸法
 48
50.0
100
AcDbLine
 10
5552.503398637993
 20
3582.984144328833
 30
0.0000000000026306
 11
5174.780372467008
 21
1440.810413154362
 31
0.0000000000026306
  0
LINE
  5
15EAC
102
{ACAD_REACTORS
330
15EB2
102
}
330
747D
100
AcDbEntity
  8
寸法
 48
50.0
100
AcDbLine
 10
5570.767934880684
 20
3859.330591160077
 30
0.0000000000026306
 11
5283.690660190928
 21
3834.214584068808
 31
0.0000000000026306
  0
LINE
  5
15EAD
102
{ACAD_REACTORS
330
15EB2
102
}
330
747D
100
AcDbEntity
  8
寸法
 48
50.0
100
AcDbLine
 10
5526.95651404174
 20
3610.863676664552
 30
0.0000000000026306
 11
5725.430524220042
 21
3628.227902559685
 31
0.0000000000026306
  0
LINE
  5
15EAE
102
{ACAD_REACTORS
330
15EB2
102
}
330
747D
100
AcDbEntity
  8
寸法
 48
50.0
100
AcDbLine
 10
5283.690660190928
 20
3834.214584068808
 30
0.0000000000026306
 11
5725.430524220042
 21
3628.227902559685
 31
0.0000000000026306
  0
LINE
  5
15EAF
102
{ACAD_REACTORS
330
15EB2
102
}
330
747D
100
AcDbEntity
  8
寸法
 48
50.0
100
AcDbLine
 10
5596.314819476938
 20
3831.451058824359
 30
0.0000000000026306
 11
5397.840809298635
 21
3814.086832929226
 31
0.0000000000026306
  0
LINE
  5
15EB0
102
{ACAD_REACTORS
330
15EB2
102
}
330
747D
100
AcDbEntity
  8
寸法
 48
50.0
100
AcDbLine
 10
5397.840809298635
 20
3814.086832929226
 30
0.0000000000026306
 11
5839.580673327749
 21
3608.100151420103
 31
0.0000000000026306
  0
LINE
  5
15EB1
102
{ACAD_REACTORS
330
15EB2
102
}
330
747D
100
AcDbEntity
  8
寸法
 48
50.0
100
AcDbLine
 10
5552.503398637993
 20
3582.984144328833
 30
0.0000000000026306
 11
5839.580673327749
 21
3608.100151420103
 31
0.0000000000026306
  0
DIMENSION
  5
15F4B
330
747D
100
AcDbEntity
  8
寸法
 48
50.0
100
AcDbDimension
  2
*D33
 10
5577.378360629169
 20
6190.923317781591
 30
0.0000000000013153
 11
6277.378360629169
 21
6265.932176049307
 31
0.0000000000013153
 70
    32
  1
2800
 71
     5
 42
1400.0
  3
INABA_S30G
100
AcDbAlignedDimension
 13
6977.378360629169
 23
4151.268015250606
 33
0.0
 14
5577.378360629169
 24
4151.268015250606
 34
0.0000000000013153
100
AcDbRotatedDimension
1001
ACAD
1000
DSTYLE
1002
{
1070
    76
1070
     1
1070
   344
1005
135E3
1070
    73
1070
     1
1070
    74
1070
     1
1070
   272
1070
     1
1070
   341
1005
0
1002
}
  0
LINE
  5
15F71
330
747D
100
AcDbEntity
  8
部品1
 48
30.0
100
AcDbLine
 10
5961.279394022756
 20
5901.268015250607
 30
0.0
 11
7377.378360629169
 21
5901.268015250607
 31
0.0
  0
LINE
  5
15F74
330
747D
100
AcDbEntity
  8
想像線
 48
10.0
100
AcDbLine
 10
5937.210761156049
 20
5764.768015250608
 30
0.0
 11
7207.378360629111
 21
5764.768015250608
 31
0.0
  0
LINE
  5
15F75
330
747D
100
AcDbEntity
  8
センター
 48
10.0
100
AcDbLine
 10
5608.625432605833
 20
3901.268015250607
 30
0.0
 11
7227.378360629169
 21
3901.268015250607
 31
0.0
  0
LINE
  5
15F76
330
747D
100
AcDbEntity
  8
センター
 48
10.0
100
AcDbLine
 10
5546.910989357872
 20
3551.268015250607
 30
0.0
 11
7227.378360629169
 21
3551.268015250607
 31
0.0
  0
LINE
  5
15F77
330
747D
100
AcDbEntity
  8
想像線
 48
10.0
100
AcDbLine
 10
5218.325660807645
 20
1687.768015250607
 30
0.0
 11
7207.378360629111
 21
1687.768015250607
 31
0.0
  0
LINE
  5
15F78
330
747D
100
AcDbEntity
  8
部品1
 48
30.0
100
AcDbLine
 10
5194.257027940934
 20
1551.268015250607
 30
0.0
 11
7377.378360629169
 21
1551.268015250607
 31
0.0
  0
ENDSEC
  0
SECTION
  2
OBJECTS
  0
DICTIONARY
  5
7471
330
0
100
AcDbDictionary
281
     1
  3
ACAD_CIP_PREVIOUS_PRODUCT_INFO
350
13DA8
  3
ACAD_COLOR
350
1341D
  3
ACAD_DETAILVIEWSTYLE
350
13D9E
  3
ACAD_GROUP
350
7472
  3
ACAD_LAYOUT
350
1341E
  3
ACAD_MATERIAL
350
1341C
  3
ACAD_MLEADERSTYLE
350
13D9A
  3
ACAD_MLINESTYLE
350
7473
  3
ACAD_PLOTSETTINGS
350
1341F
  3
ACAD_PLOTSTYLENAME
350
1341A
  3
ACAD_SCALELIST
350
13D88
  3
ACAD_SECTIONVIEWSTYLE
350
13D9C
  3
ACAD_TABLESTYLE
350
13D86
  3
ACAD_VISUALSTYLE
350
13D6D
  3
AcadDim
350
13618
  3
ACDB_RECOMPOSE_DATA
350
16260
  3
AcDbVariableDictionary
350
13533
  3
CONTENTDICTIONARY
350
E71C
  3
DRAWINGVARIABLESDICT
350
F3B9
  3
DWGPROPS
350
16261
  0
DICTIONARY
  5
16175
330
746D
100
AcDbDictionary
280
     1
281
     1
  0
DICTIONARY
  5
13451
330
7467
100
AcDbDictionary
280
     1
281
     1
  3
ACAD_LAYERFILTERS
360
1356A
  3
ACAD_LAYERSTATES
360
13452
  0
DICTIONARY
  5
16108
330
7474
100
AcDbDictionary
280
     1
281
     1
  3
ADSK_XREC_LAYER_RECONCILED
360
16109
  0
DICTIONARY
  5
1610A
330
DEB3
100
AcDbDictionary
280
     1
281
     1
  3
ADSK_XREC_LAYER_RECONCILED
360
1610B
  0
DICTIONARY
  5
1610C
330
DEB4
100
AcDbDictionary
280
     1
281
     1
  3
ADSK_XREC_LAYER_RECONCILED
360
1610D
  0
DICTIONARY
  5
1610E
330
DEB5
100
AcDbDictionary
280
     1
281
     1
  3
ADSK_XREC_LAYER_RECONCILED
360
1610F
  0
DICTIONARY
  5
16110
330
DEB6
100
AcDbDictionary
280
     1
281
     1
  3
ADSK_XREC_LAYER_RECONCILED
360
16111
  0
DICTIONARY
  5
16112
330
10B54
100
AcDbDictionary
280
     1
281
     1
  3
ADSK_XREC_LAYER_RECONCILED
360
16113
  0
DICTIONARY
  5
16114
330
11729
100
AcDbDictionary
280
     1
281
     1
  3
ADSK_XREC_LAYER_RECONCILED
360
16115
  0
DICTIONARY
  5
16116
330
1173F
100
AcDbDictionary
280
     1
281
     1
  3
ADSK_XREC_LAYER_RECONCILED
360
16117
  0
DICTIONARY
  5
1611A
330
1356E
100
AcDbDictionary
280
     1
281
     1
  3
ADSK_XREC_LAYER_RECONCILED
360
1611B
  0
DICTIONARY
  5
1611C
330
135FB
100
AcDbDictionary
280
     1
281
     1
  3
ADSK_XREC_LAYER_RECONCILED
360
1611D
  0
DICTIONARY
  5
1611E
330
13810
100
AcDbDictionary
280
     1
281
     1
  3
ADSK_XREC_LAYER_RECONCILED
360
1611F
  0
DICTIONARY
  5
16120
330
13811
100
AcDbDictionary
280
     1
281
     1
  3
ADSK_XREC_LAYER_RECONCILED
360
16121
  0
DICTIONARY
  5
15F72
330
747D
100
AcDbDictionary
280
     1
281
     1
  3
ACAD_SORTENTS
360
15F73
  0
XRECORD
  5
13DA8
102
{ACAD_REACTORS
330
7471
102
}
330
7471
100
AcDbXrecord
280
     1
300
ACDLT
300
2014
300
ACDLT_F_S
  0
DICTIONARY
  5
1341D
102
{ACAD_REACTORS
330
7471
102
}
330
7471
100
AcDbDictionary
281
     1
  0
DICTIONARY
  5
13D9E
102
{ACAD_REACTORS
330
7471
102
}
330
7471
100
AcDbDictionary
281
     1
  3
Metric50
350
13D9F
  0
DICTIONARY
  5
7472
102
{ACAD_REACTORS
330
7471
102
}
330
7471
100
AcDbDictionary
281
     1
  3
*A1
350
15EB2
  0
DICTIONARY
  5
1341E
102
{ACAD_REACTORS
330
7471
102
}
330
7471
100
AcDbDictionary
281
     1
  3
Model
350
13420
  3
レイアウト1
350
13421
  0
DICTIONARY
  5
1341C
102
{ACAD_REACTORS
330
7471
102
}
330
7471
100
AcDbDictionary
281
     1
  3
ByBlock
350
13D5D
  3
ByLayer
350
13D55
  3
Global
350
13D65
  0
DICTIONARY
  5
13D9A
102
{ACAD_REACTORS
330
7471
102
}
330
7471
100
AcDbDictionary
281
     1
  3
Standard
350
13D9B
  0
DICTIONARY
  5
7473
102
{ACAD_REACTORS
330
7471
102
}
330
7471
100
AcDbDictionary
281
     1
  3
STANDARD
350
7480
  0
DICTIONARY
  5
1341F
102
{ACAD_REACTORS
330
7471
102
}
330
7471
100
AcDbDictionary
281
     1
  0
ACDBDICTIONARYWDFLT
  5
1341A
102
{ACAD_REACTORS
330
7471
102
}
330
7471
100
AcDbDictionary
281
     1
  3
Normal
350
1341B
100
AcDbDictionaryWithDefault
340
1341B
  0
DICTIONARY
  5
13D88
102
{ACAD_REACTORS
330
7471
102
}
330
7471
100
AcDbDictionary
281
     1
  3
A0
350
13D89
  3
A1
350
13D8A
  3
A2
350
13D8B
  3
A3
350
13D8C
  3
A4
350
13D8D
  3
A5
350
13D8E
  3
A6
350
13D8F
  3
A7
350
13D90
  3
A8
350
13D91
  3
A9
350
13D92
  3
B0
350
13D93
  3
B1
350
13D94
  3
B2
350
13D95
  3
B3
350
13D96
  3
B4
350
13D97
  3
B5
350
13D98
  3
B6
350
13D99
  0
DICTIONARY
  5
13D9C
102
{ACAD_REACTORS
330
7471
102
}
330
7471
100
AcDbDictionary
281
     1
  3
Metric50
350
13D9D
  0
DICTIONARY
  5
13D86
102
{ACAD_REACTORS
330
7471
102
}
330
7471
100
AcDbDictionary
281
     1
  3
Standard
350
13D87
  0
DICTIONARY
  5
13D6D
102
{ACAD_REACTORS
330
7471
102
}
330
7471
100
AcDbDictionary
281
     1
  3
2dWireframe
350
13D73
  3
Basic
350
13D72
  3
Brighten
350
13D79
  3
ColorChange
350
13D7D
  3
Conceptual
350
13D76
  3
Dim
350
13D78
  3
EdgeColorOff
350
13D85
  3
Facepattern
350
13D7C
  3
Flat
350
13D6E
  3
FlatWithEdges
350
13D6F
  3
Gouraud
350
13D70
  3
GouraudWithEdges
350
13D71
  3
Hidden
350
13D75
  3
JitterOff
350
13D83
  3
Linepattern
350
13D7B
  3
OverhangOff
350
13D84
  3
Realistic
350
13D77
  3
Shaded
350
13D82
  3
Shaded with edges
350
13D81
  3
Shades of Gray
350
13D7E
  3
Sketchy
350
13D7F
  3
Thicken
350
13D7A
  3
Wireframe
350
13D74
  3
X-Ray
350
13D80
  0
XRECORD
  5
13618
102
{ACAD_REACTORS
330
7471
102
}
330
7471
100
AcDbXrecord
280
     1
 90
   990106
  3

 60
     0
 61
     0
 62
     1
 63
     3
 64
     0
 65
     0
 66
     0
 67
     3
 68
     1
 69
     0
 70
     0
 71
     0
 72
     0
 40
0.0
170
     0
  0
XRECORD
  5
16260
102
{ACAD_REACTORS
330
7471
102
}
330
7471
100
AcDbXrecord
280
     1
 90
        1
330
13D87
  0
DICTIONARY
  5
13533
102
{ACAD_REACTORS
330
7471
102
}
330
7471
100
AcDbDictionary
281
     1
  3
CANNOSCALE
350
161BA
  3
CMLEADERSTYLE
350
161B7
  3
CTABLESTYLE
350
161B6
  3
CVIEWDETAILSTYLE
350
161B8
  3
CVIEWSECTIONSTYLE
350
161B9
  3
DIMASSOC
350
13534
  3
INDEXCTL
350
161BC
  3
PROJECTNAME
350
13535
  3
SORTENTS
350
161BB
  3
XCLIPFRAME
350
1625E
  0
DICTIONARY
  5
E71C
102
{ACAD_REACTORS
330
7471
102
}
330
7471
100
AcDbDictionary
281
     1
  0
DICTIONARY
  5
F3B9
102
{ACAD_REACTORS
330
7471
102
}
330
7471
100
AcDbDictionary
281
     1
1001
DRAWINGVARIABLESXDATA
1000
POLARMODE
1000
1
  0
XRECORD
  5
16261
102
{ACAD_REACTORS
330
7471
102
}
330
7471
100
AcDbXrecord
280
     1
  1
DWGPROPS COOKIE
  2

  3

  4

  6

  7

  8
ODAHARA
  9

300
=
301
=
302
=
303
=
304
=
305
=
306
=
307
=
308
=
309
=
 40
0.3430101157407408
 41
2451074.411873148
 42
2456560.83847404
  1

 90
        0
  0
DICTIONARY
  5
1356A
102
{ACAD_REACTORS
330
13451
102
}
330
13451
100
AcDbDictionary
281
     1
  0
DICTIONARY
  5
13452
102
{ACAD_REACTORS
330
13451
102
}
330
13451
100
AcDbDictionary
281
     1
  0
XRECORD
  5
16109
102
{ACAD_REACTORS
330
16108
102
}
330
16108
100
AcDbXrecord
280
     1
290
     1
  0
XRECORD
  5
1610B
102
{ACAD_REACTORS
330
1610A
102
}
330
1610A
100
AcDbXrecord
280
     1
290
     1
  0
XRECORD
  5
1610D
102
{ACAD_REACTORS
330
1610C
102
}
330
1610C
100
AcDbXrecord
280
     1
290
     1
  0
XRECORD
  5
1610F
102
{ACAD_REACTORS
330
1610E
102
}
330
1610E
100
AcDbXrecord
280
     1
290
     1
  0
XRECORD
  5
16111
102
{ACAD_REACTORS
330
16110
102
}
330
16110
100
AcDbXrecord
280
     1
290
     1
  0
XRECORD
  5
16113
102
{ACAD_REACTORS
330
16112
102
}
330
16112
100
AcDbXrecord
280
     1
290
     1
  0
XRECORD
  5
16115
102
{ACAD_REACTORS
330
16114
102
}
330
16114
100
AcDbXrecord
280
     1
290
     1
  0
XRECORD
  5
16117
102
{ACAD_REACTORS
330
16116
102
}
330
16116
100
AcDbXrecord
280
     1
290
     1
  0
XRECORD
  5
1611B
102
{ACAD_REACTORS
330
1611A
102
}
330
1611A
100
AcDbXrecord
280
     1
290
     1
  0
XRECORD
  5
1611D
102
{ACAD_REACTORS
330
1611C
102
}
330
1611C
100
AcDbXrecord
280
     1
290
     1
  0
XRECORD
  5
1611F
102
{ACAD_REACTORS
330
1611E
102
}
330
1611E
100
AcDbXrecord
280
     1
290
     1
  0
XRECORD
  5
16121
102
{ACAD_REACTORS
330
16120
102
}
330
16120
100
AcDbXrecord
280
     1
290
     1
  0
SORTENTSTABLE
  5
15F73
102
{ACAD_REACTORS
330
15F72
102
}
330
15F72
100
AcDbSortentsTable
330
747D
331
15EA8
  5
15EAE
331
15EB0
  5
15F76
331
14B78
  5
14B78
331
14C3F
  5
14C3F
331
14B80
  5
14B80
331
14B88
  5
14B88
331
14B21
  5
14B21
331
14B29
  5
14B29
331
139C4
  5
139C4
331
14F2F
  5
14F2F
331
14FA6
  5
14FAF
331
14B90
  5
14B90
331
14AEA
  5
14AEA
331
14B31
  5
14B31
331
139CC
  5
139CC
331
14FAE
  5
14FB4
331
14AF2
  5
14AF2
331
14AFA
  5
14AFA
331
15F78
  5
14F3F
331
14B98
  5
14B98
331
15E51
  5
15EAC
331
14B39
  5
14B39
331
14FB6
  5
14FBC
331
14BA0
  5
14BA0
331
14B41
  5
14B41
331
14F37
  5
14F39
331
13128
  5
13128
331
14FBE
  5
14FC4
331
14BA8
  5
14BA8
331
14F3F
  5
14F42
331
14B49
  5
14B49
331
14B02
  5
14B02
331
14BB0
  5
14BB0
331
14B71
  5
14B71
331
14F47
  5
14F4C
331
14B0A
  5
14B0A
331
14FE6
  5
14FEC
331
14F4F
  5
14FA5
331
14B12
  5
14B12
331
14B1A
  5
14B1A
331
15EA9
  5
15EAF
331
15EB1
  5
15F77
331
14C38
  5
14C38
331
14B79
  5
14B79
331
14C40
  5
14C40
331
15F71
  5
14FA1
331
14B81
  5
14B81
331
14F9F
  5
14FAB
331
14B89
  5
14B89
331
14B22
  5
14B22
331
14B2A
  5
14B2A
331
139C5
  5
139C5
331
14FA7
  5
14FB0
331
14B91
  5
14B91
331
14AEB
  5
14AEB
331
14B32
  5
14B32
331
139CD
  5
139CD
331
14FAF
  5
14FB5
331
14AF3
  5
14AF3
331
14AFB
  5
14AFB
331
14B99
  5
14B99
331
14F30
  5
14F31
331
14B3A
  5
14B3A
331
14FB7
  5
14FBD
331
14BA1
  5
14BA1
331
14B42
  5
14B42
331
14F38
  5
14F3A
331
14FBF
  5
14FC5
331
14BA9
  5
14BA9
331
14B4A
  5
14B4A
331
14F40
  5
14F43
331
14B03
  5
14B03
331
14BB1
  5
14BB1
331
14F48
  5
14F4D
331
14B72
  5
14B72
331
14B0B
  5
14B0B
331
14FE7
  5
15E51
331
14B13
  5
14B13
331
14B1B
  5
14B1B
331
15EAA
  5
15EB0
331
14C39
  5
14C39
331
14F50
  5
14FA6
331
14B7A
  5
14B7A
331
14C41
  5
14C41
331
14B82
  5
14B82
331
14B8A
  5
14B8A
331
14FA0
  5
14FAC
331
14B23
  5
14B23
331
14B2B
  5
14B2B
331
139C6
  5
139C6
331
14B92
  5
14B92
331
14AEC
  5
14AEC
331
14B33
  5
14B33
331
139CE
  5
139CE
331
14AF4
  5
14AF4
331
14AFC
  5
14AFC
331
14FB0
  5
14FB6
331
14B9A
  5
14B9A
331
14B3B
  5
14B3B
331
14F31
  5
14F32
331
14FB8
  5
14FBE
331
14BA2
  5
14BA2
331
14F39
  5
14F3B
331
14B43
  5
14B43
331
14FC0
  5
14FE3
331
14BAA
  5
14BAA
331
14F41
  5
14F44
331
14B4B
  5
14B4B
331
14B04
  5
14B04
331
14BB2
  5
14BB2
331
14B73
  5
14B73
331
14F49
  5
14F4E
331
14B0C
  5
14B0C
331
14B14
  5
14B14
331
14B1C
  5
14B1C
331
15EAB
  5
15EB1
331
14FE8
  5
15E70
331
14C3A
  5
14C3A
331
14F51
  5
14FA7
331
14B7B
  5
14B7B
331
15F4B
  5
15F78
331
14C42
  5
14C42
331
14B83
  5
14B83
331
14FA1
  5
14FAD
331
14B8B
  5
14B8B
331
14B24
  5
14B24
331
14B2C
  5
14B2C
331
139C7
  5
139C7
331
14B93
  5
14B93
331
14AED
  5
14AED
331
14B34
  5
14B34
331
14AF5
  5
14AF5
331
139CF
  5
139CF
331
14AFD
  5
14AFD
331
14FB1
  5
14FB7
331
14B9B
  5
14B9B
331
14F32
  5
14F33
331
14B3C
  5
14B3C
331
14FB9
  5
14FBF
331
14BA3
  5
14BA3
331
14B44
  5
14B44
331
14F3A
  5
14F3C
331
14FC1
  5
14FE4
331
14BAB
  5
14BAB
331
14B4C
  5
14B4C
331
14F42
  5
14F45
331
14B05
  5
14B05
331
14BB3
  5
14BB3
331
14F4A
  5
14F4F
331
14B74
  5
14B74
331
14B0D
  5
14B0D
331
14B15
  5
14B15
331
14B1D
  5
14B1D
331
15EAC
  5
15F4B
331
14C3B
  5
14C3B
331
14FE9
  5
15EA8
331
14B7C
  5
14B7C
331
14C43
  5
14C43
331
14B84
  5
14B84
331
15F74
  5
14F4A
331
14B8C
  5
14B8C
331
14B25
  5
14B25
331
14B2D
  5
14B2D
331
14AEE
  5
14AEE
331
14B94
  5
14B94
331
139C8
  5
139C8
331
14B35
  5
14B35
331
14AF6
  5
14AF6
331
14AFE
  5
14AFE
331
14FB2
  5
14FB8
331
14B9C
  5
14B9C
331
14B3D
  5
14B3D
331
14F33
  5
14F35
331
14FBA
  5
14FC0
331
14BA4
  5
14BA4
331
14F3B
  5
14F3D
331
14B45
  5
14B45
331
14FC2
  5
14FE5
331
14BAC
  5
14BAC
331
14F43
  5
14F46
331
14B4D
  5
14B4D
331
14B06
  5
14B06
331
14B75
  5
14B75
331
14F4B
  5
14F50
331
14B0E
  5
14B0E
331
14B16
  5
14B16
331
14B1E
  5
14B1E
331
15EAD
  5
15F71
331
14FEA
  5
15EA9
331
14B7D
  5
14B7D
331
14C3C
  5
14C3C
331
10B6D
  5
10B6D
331
14C44
  5
14C44
331
15F75
  5
14F48
331
14B85
  5
14B85
331
14B8D
  5
14B8D
331
14B26
  5
14B26
331
14B2E
  5
14B2E
331
139C9
  5
139C9
331
14B95
  5
14B95
331
14FAB
  5
14FB1
331
14AEF
  5
14AEF
331
14B36
  5
14B36
331
14AF7
  5
14AF7
331
14AFF
  5
14AFF
331
763F
  5
763F
331
14FB3
  5
14FB9
331
14B9D
  5
14B9D
331
14B3E
  5
14B3E
331
14F34
  5
14F36
331
13125
  5
13125
331
14FBB
  5
14FC1
331
14BA5
  5
14BA5
331
14B46
  5
14B46
331
14F3C
  5
14F3E
331
14FC3
  5
14FE6
331
14BAD
  5
14BAD
331
14F44
  5
14F47
331
14B07
  5
14B07
331
10B56
  5
10B56
331
14FE3
  5
14FE9
331
14F4C
  5
14F51
331
14B76
  5
14B76
331
14B0F
  5
14B0F
331
10B5E
  5
10B5E
331
14B17
  5
14B17
331
14B1F
  5
14B1F
331
15EAE
  5
15F74
331
14C3D
  5
14C3D
331
14FEB
  5
15EAA
331
14B7E
  5
14B7E
331
14C45
  5
14C45
331
15F76
  5
14F30
331
14B86
  5
14B86
331
139C2
  5
139C2
331
14B8E
  5
14B8E
331
14B27
  5
14B27
331
14B2F
  5
14B2F
331
139CA
  5
139CA
331
14FAC
  5
14FB2
331
14B96
  5
14B96
331
14AF0
  5
14AF0
331
14B37
  5
14B37
331
14AF8
  5
14AF8
331
14FB4
  5
14FBA
331
14B9E
  5
14B9E
331
14F35
  5
14F37
331
14B3F
  5
14B3F
331
13126
  5
13126
331
14FBC
  5
14FC2
331
14BA6
  5
14BA6
331
14F3D
  5
14F40
331
14B47
  5
14B47
331
14B00
  5
14B00
331
14FC4
  5
14FE7
331
14BAE
  5
14BAE
331
14F45
  5
14F49
331
14B08
  5
14B08
331
10B57
  5
10B57
331
14FE4
  5
14FEA
331
14B77
  5
14B77
331
14F4D
  5
14F9F
331
14B10
  5
14B10
331
14B18
  5
14B18
331
15EAF
  5
15F75
331
14FEC
  5
15EAB
331
14C3E
  5
14C3E
331
14B7F
  5
14B7F
331
10B6F
  5
10B6F
331
15F77
  5
14F34
331
14B87
  5
14B87
331
14B20
  5
14B20
331
14B28
  5
14B28
331
139C3
  5
139C3
331
14FA5
  5
14FAE
331
14B8F
  5
14B8F
331
14AE9
  5
14AE9
331
14B30
  5
14B30
331
139CB
  5
139CB
331
14B97
  5
14B97
331
14FAD
  5
14FB3
331
14AF1
  5
14AF1
331
14AF9
  5
14AF9
331
14B38
  5
14B38
331
14FB5
  5
14FBB
331
14B9F
  5
14B9F
331
15E70
  5
15EAD
331
14B40
  5
14B40
331
14F36
  5
14F38
331
13127
  5
13127
331
14FBD
  5
14FC3
331
14BA7
  5
14BA7
331
14B48
  5
14B48
331
14F3E
  5
14F41
331
14B01
  5
14B01
331
14FC5
  5
14FE8
331
14BAF
  5
14BAF
331
14F46
  5
14F4B
331
14B09
  5
14B09
331
14FE5
  5
14FEB
331
14F4E
  5
14FA0
331
14B11
  5
14B11
331
14B19
  5
14B19
  0
ACDBDETAILVIEWSTYLE
  5
13D9F
102
{ACAD_XDICTIONARY
360
1629E
102
}
102
{ACAD_REACTORS
330
13D9E
102
}
330
13D9E
100
AcDbModelDocViewStyle
 70
     0
  3
Metric50
290
     0
100
AcDbDetailViewStyle
 70
     0
 71
     0
 90
        3
 71
     1
340
7475
 40
5.0
340
0
 40
5.0
300

 40
0.0
280
     1
 71
     2
340
7479
 90
       25
 71
     3
340
7475
 40
5.0
 90
        0
 40
15.0
 90
        1
300
%<\AcVar ViewDetailId>% (%<\AcVar ViewScale \f "%sn">%)
 71
     4
340
7479
 90
       25
340
7479
 90
       25
280
     0
  0
GROUP
  5
15EB2
102
{ACAD_REACTORS
330
7472
102
}
330
7472
100
AcDbGroup
300

 70
     1
 71
     1
340
15EB1
340
15EB0
340
15EAF
340
15EAE
340
15EAD
340
15EAC
340
15EAB
340
15EAA
340
15EA9
340
15EA8
  0
LAYOUT
  5
13420
102
{ACAD_XDICTIONARY
360
16262
102
}
102
{ACAD_REACTORS
330
1341E
102
}
330
1341E
100
AcDbPlotSettings
  1

  2
CutePDF Writer
  4
A3
  6

 40
3.174999952316284
 41
3.174999952316284
 42
3.17498779296875
 43
3.17498779296875
 44
297.0530090332031
 45
420.1583251953125
 46
0.0
 47
0.0
 48
0.0
 49
0.0
140
0.0
141
0.0
142
1.0
143
30.0
 70
 11952
 72
     1
 73
     1
 74
     2
  7
inaba.ctb
 75
    23
147
0.0333333333333333
148
0.0
149
0.0
100
AcDbLayout
  1
Model
 70
     1
 71
     0
 10
0.0
 20
0.0
 11
12.0
 21
9.0
 12
0.0
 22
0.0
 32
0.0
 14
0.0
 24
0.0
 34
0.0
 15
0.0
 25
0.0
 35
0.0
146
0.0
 13
0.0
 23
0.0
 33
0.0
 16
1.0
 26
0.0
 36
0.0
 17
0.0
 27
1.0
 37
0.0
 76
     0
330
747D
331
13D53
  0
LAYOUT
  5
13421
102
{ACAD_XDICTIONARY
360
16264
102
}
102
{ACAD_REACTORS
330
1341E
102
}
330
1341E
100
AcDbPlotSettings
  1

  2
Microsoft Office Document Image Writer
  4

  6

 40
0.0
 41
0.0
 42
0.0
 43
0.0
 44
0.0
 45
0.0
 46
0.0
 47
0.0
 48
0.0
 49
0.0
140
0.0
141
0.0
142
1.0
143
1.0
 70
   688
 72
     0
 73
     0
 74
     5
  7
inaba.ctb
 75
    16
147
1.0
148
0.0
149
0.0
100
AcDbLayout
  1
レイアウト1
 70
     0
 71
     1
 10
0.0
 20
0.0
 11
420.0
 21
297.0
 12
0.0
 22
0.0
 32
0.0
 14
1.000000000000000E+20
 24
1.000000000000000E+20
 34
1.000000000000000E+20
 15
-1.000000000000000E+20
 25
-1.000000000000000E+20
 35
-1.000000000000000E+20
146
0.0
 13
0.0
 23
0.0
 33
0.0
 16
1.0
 26
0.0
 36
0.0
 17
0.0
 27
1.0
 37
0.0
 76
     0
330
747A
  0
MATERIAL
  5
13D5D
102
{ACAD_XDICTIONARY
360
13D5E
102
}
102
{ACAD_REACTORS
330
1341C
102
}
330
1341C
100
AcDbMaterial
  1
ByBlock
 72
     0
 43
0.0208333333333333
 43
0.0
 43
0.0
 43
0.0
 43
0.0
 43
0.0208333333333333
 43
0.0
 43
0.0
 43
0.0
 43
0.0
 43
1.0
 43
0.0
 43
0.0
 43
0.0
 43
0.0
 43
1.0
 77
     0
 47
0.0208333333333333
 47
0.0
 47
0.0
 47
0.0
 47
0.0
 47
0.0208333333333333
 47
0.0
 47
0.0
 47
0.0
 47
0.0
 47
1.0
 47
0.0
 47
0.0
 47
0.0
 47
0.0
 47
1.0
171
     0
 49
0.0208333333333333
 49
0.0
 49
0.0
 49
0.0
 49
0.0
 49
0.0208333333333333
 49
0.0
 49
0.0
 49
0.0
 49
0.0
 49
1.0
 49
0.0
 49
0.0
 49
0.0
 49
0.0
 49
1.0
175
     0
142
0.0208333333333333
142
0.0
142
0.0
142
0.0
142
0.0
142
0.0208333333333333
142
0.0
142
0.0
142
0.0
142
0.0
142
1.0
142
0.0
142
0.0
142
0.0
142
0.0
142
1.0
179
     0
144
0.0208333333333333
144
0.0
144
0.0
144
0.0
144
0.0
144
0.0208333333333333
144
0.0
144
0.0
144
0.0
144
0.0
144
1.0
144
0.0
144
0.0
144
0.0
144
0.0
144
1.0
147
0.0208333333333333
147
0.0
147
0.0
147
0.0
147
0.0
147
0.0208333333333333
147
0.0
147
0.0
147
0.0
147
0.0
147
1.0
147
0.0
147
0.0
147
0.0
147
0.0
147
1.0
  0
MATERIAL
  5
13D55
102
{ACAD_XDICTIONARY
360
13D56
102
}
102
{ACAD_REACTORS
330
1341C
102
}
330
1341C
100
AcDbMaterial
  1
ByLayer
 72
     0
 43
0.0208333333333333
 43
0.0
 43
0.0
 43
0.0
 43
0.0
 43
0.0208333333333333
 43
0.0
 43
0.0
 43
0.0
 43
0.0
 43
1.0
 43
0.0
 43
0.0
 43
0.0
 43
0.0
 43
1.0
 77
     0
 47
0.0208333333333333
 47
0.0
 47
0.0
 47
0.0
 47
0.0
 47
0.0208333333333333
 47
0.0
 47
0.0
 47
0.0
 47
0.0
 47
1.0
 47
0.0
 47
0.0
 47
0.0
 47
0.0
 47
1.0
171
     0
 49
0.0208333333333333
 49
0.0
 49
0.0
 49
0.0
 49
0.0
 49
0.0208333333333333
 49
0.0
 49
0.0
 49
0.0
 49
0.0
 49
1.0
 49
0.0
 49
0.0
 49
0.0
 49
0.0
 49
1.0
175
     0
142
0.0208333333333333
142
0.0
142
0.0
142
0.0
142
0.0
142
0.0208333333333333
142
0.0
142
0.0
142
0.0
142
0.0
142
1.0
142
0.0
142
0.0
142
0.0
142
0.0
142
1.0
179
     0
144
0.0208333333333333
144
0.0
144
0.0
144
0.0
144
0.0
144
0.0208333333333333
144
0.0
144
0.0
144
0.0
144
0.0
144
1.0
144
0.0
144
0.0
144
0.0
144
0.0
144
1.0
147
0.0208333333333333
147
0.0
147
0.0
147
0.0
147
0.0
147
0.0208333333333333
147
0.0
147
0.0
147
0.0
147
0.0
147
1.0
147
0.0
147
0.0
147
0.0
147
0.0
147
1.0
  0
MATERIAL
  5
13D65
102
{ACAD_XDICTIONARY
360
13D66
102
}
102
{ACAD_REACTORS
330
1341C
102
}
330
1341C
100
AcDbMaterial
  1
Global
 72
     0
 43
0.0208333333333333
 43
0.0
 43
0.0
 43
0.0
 43
0.0
 43
0.0208333333333333
 43
0.0
 43
0.0
 43
0.0
 43
0.0
 43
1.0
 43
0.0
 43
0.0
 43
0.0
 43
0.0
 43
1.0
 77
     0
 47
0.0208333333333333
 47
0.0
 47
0.0
 47
0.0
 47
0.0
 47
0.0208333333333333
 47
0.0
 47
0.0
 47
0.0
 47
0.0
 47
1.0
 47
0.0
 47
0.0
 47
0.0
 47
0.0
 47
1.0
171
     0
 49
0.0208333333333333
 49
0.0
 49
0.0
 49
0.0
 49
0.0
 49
0.0208333333333333
 49
0.0
 49
0.0
 49
0.0
 49
0.0
 49
1.0
 49
0.0
 49
0.0
 49
0.0
 49
0.0
 49
1.0
175
     0
142
0.0208333333333333
142
0.0
142
0.0
142
0.0
142
0.0
142
0.0208333333333333
142
0.0
142
0.0
142
0.0
142
0.0
142
1.0
142
0.0
142
0.0
142
0.0
142
0.0
142
1.0
179
     0
144
0.0208333333333333
144
0.0
144
0.0
144
0.0
144
0.0
144
0.0208333333333333
144
0.0
144
0.0
144
0.0
144
0.0
144
1.0
144
0.0
144
0.0
144
0.0
144
0.0
144
1.0
147
0.0208333333333333
147
0.0
147
0.0
147
0.0
147
0.0
147
0.0208333333333333
147
0.0
147
0.0
147
0.0
147
0.0
147
1.0
147
0.0
147
0.0
147
0.0
147
0.0
147
1.0
  0
MLEADERSTYLE
  5
13D9B
102
{ACAD_XDICTIONARY
360
1629A
102
}
102
{ACAD_REACTORS
330
13D9A
102
}
330
13D9A
100
AcDbMLeaderStyle
170
     2
171
     1
172
     0
 90
        2
 40
0.0
 41
0.0
173
     1
 91
-1056964608
340
7477
 92
       -2
290
     1
 42
2.0
291
     1
 43
0.36
  3
Standard
 44
4.0
300

342
7475
174
     1
178
     6
175
     1
176
     0
 93
-1056964608
 45
4.0
292
     0
297
     0
 46
4.0
 94
-1056964608
 47
1.0
 49
1.0
140
1.0
293
     1
141
0.0
294
     1
177
     0
142
1.0
295
     0
296
     0
143
0.125
1001
ACAD_MLEADERVER
1070
     2
  0
MLINESTYLE
  5
7480
102
{ACAD_REACTORS
330
7473
102
}
330
7473
100
AcDbMlineStyle
  2
STANDARD
 70
     0
  3

 62
     0
 51
90.0
 52
90.0
 71
     2
 49
0.5
 62
   256
  6
BYLAYER
 49
-0.5
 62
   256
  6
BYLAYER
  0
ACDBPLACEHOLDER
  5
1341B
102
{ACAD_REACTORS
330
1341A
102
}
330
1341A
  0
SCALE
  5
13D89
102
{ACAD_REACTORS
330
13D88
102
}
330
13D88
100
AcDbScale
 70
     0
300
1:1
140
1.0
141
1.0
290
     1
  0
SCALE
  5
13D8A
102
{ACAD_REACTORS
330
13D88
102
}
330
13D88
100
AcDbScale
 70
     0
300
1:2
140
1.0
141
2.0
290
     0
  0
SCALE
  5
13D8B
102
{ACAD_REACTORS
330
13D88
102
}
330
13D88
100
AcDbScale
 70
     0
300
1:4
140
1.0
141
4.0
290
     0
  0
SCALE
  5
13D8C
102
{ACAD_REACTORS
330
13D88
102
}
330
13D88
100
AcDbScale
 70
     0
300
1:5
140
1.0
141
5.0
290
     0
  0
SCALE
  5
13D8D
102
{ACAD_REACTORS
330
13D88
102
}
330
13D88
100
AcDbScale
 70
     0
300
1:8
140
1.0
141
8.0
290
     0
  0
SCALE
  5
13D8E
102
{ACAD_REACTORS
330
13D88
102
}
330
13D88
100
AcDbScale
 70
     0
300
1:10
140
1.0
141
10.0
290
     0
  0
SCALE
  5
13D8F
102
{ACAD_REACTORS
330
13D88
102
}
330
13D88
100
AcDbScale
 70
     0
300
1:16
140
1.0
141
16.0
290
     0
  0
SCALE
  5
13D90
102
{ACAD_REACTORS
330
13D88
102
}
330
13D88
100
AcDbScale
 70
     0
300
1:20
140
1.0
141
20.0
290
     0
  0
SCALE
  5
13D91
102
{ACAD_REACTORS
330
13D88
102
}
330
13D88
100
AcDbScale
 70
     0
300
1:30
140
1.0
141
30.0
290
     0
  0
SCALE
  5
13D92
102
{ACAD_REACTORS
330
13D88
102
}
330
13D88
100
AcDbScale
 70
     0
300
1:40
140
1.0
141
40.0
290
     0
  0
SCALE
  5
13D93
102
{ACAD_REACTORS
330
13D88
102
}
330
13D88
100
AcDbScale
 70
     0
300
1:50
140
1.0
141
50.0
290
     0
  0
SCALE
  5
13D94
102
{ACAD_REACTORS
330
13D88
102
}
330
13D88
100
AcDbScale
 70
     0
300
1:100
140
1.0
141
100.0
290
     0
  0
SCALE
  5
13D95
102
{ACAD_REACTORS
330
13D88
102
}
330
13D88
100
AcDbScale
 70
     0
300
2:1
140
2.0
141
1.0
290
     0
  0
SCALE
  5
13D96
102
{ACAD_REACTORS
330
13D88
102
}
330
13D88
100
AcDbScale
 70
     0
300
4:1
140
4.0
141
1.0
290
     0
  0
SCALE
  5
13D97
102
{ACAD_REACTORS
330
13D88
102
}
330
13D88
100
AcDbScale
 70
     0
300
8:1
140
8.0
141
1.0
290
     0
  0
SCALE
  5
13D98
102
{ACAD_REACTORS
330
13D88
102
}
330
13D88
100
AcDbScale
 70
     0
300
10:1
140
10.0
141
1.0
290
     0
  0
SCALE
  5
13D99
102
{ACAD_REACTORS
330
13D88
102
}
330
13D88
100
AcDbScale
 70
     0
300
100:1
140
100.0
141
1.0
290
     0
  0
ACDBSECTIONVIEWSTYLE
  5
13D9D
102
{ACAD_XDICTIONARY
360
1629C
102
}
102
{ACAD_REACTORS
330
13D9C
102
}
330
13D9C
100
AcDbModelDocViewStyle
 70
     0
  3
Metric50
290
     0
100
AcDbSectionViewStyle
 70
     0
 71
     0
 90
      102
 71
     1
340
7475
 40
5.0
340
0
340
0
 40
5.0
300
I, O, Q, S, X, Z
 40
10.0
 90
        0
 40
2.5
 90
        0
 71
     2
340
7479
 90
       25
340
7479
 90
       50
 40
5.0
 40
2.5
 40
5.0
 71
     3
340
7475
 40
5.0
 90
        0
 40
15.0
 90
        1
300
%<\AcVar ViewSectionStartId>%-%<\AcVar ViewSectionEndId>% (%<\AcVar ViewScale \f "%sn">%)
 71
     4
300
ANSI31
 40
1.0
 90
        0
290
     0
290
     0
 90
        6
 40
0.0
 40
1.570796326794896
 40
0.2617993877991494
 40
1.308996938995747
 40
-0.2617993877991494
 40
1.832595714594046
  0
TABLESTYLE
  5
13D87
102
{ACAD_XDICTIONARY
360
16171
102
}
102
{ACAD_REACTORS
330
13D86
102
}
330
13D86
100
AcDbTableStyle
  3
Standard
 70
     0
 71
     0
 40
1.5
 41
1.5
280
     0
281
     0
  7
STANDARD
140
4.5
170
     2
 62
     0
 63
     7
283
     0
274
    -2
284
     1
 64
     0
275
    -2
285
     1
 65
     0
276
    -2
286
     1
 66
     0
277
    -2
287
     1
 67
     0
278
    -2
288
     1
 68
     0
279
    -2
289
     1
 69
     0
  7
STANDARD
140
6.0
170
     5
 62
     0
 63
     7
283
     0
274
    -2
284
     1
 64
     0
275
    -2
285
     1
 65
     0
276
    -2
286
     1
 66
     0
277
    -2
287
     1
 67
     0
278
    -2
288
     1
 68
     0
279
    -2
289
     1
 69
     0
  7
STANDARD
140
4.5
170
     5
 62
     0
 63
     7
283
     0
274
    -2
284
     1
 64
     0
275
    -2
285
     1
 65
     0
276
    -2
286
     1
 66
     0
277
    -2
287
     1
 67
     0
278
    -2
288
     1
 68
     0
279
    -2
289
     1
 69
     0
  0
VISUALSTYLE
  5
13D73
102
{ACAD_XDICTIONARY
360
16273
102
}
102
{ACAD_REACTORS
330
13D6D
102
}
330
13D6D
100
AcDbVisualStyle
  2
2dWireframe
 70
     4
 71
     0
 72
     2
 73
     0
 90
        0
 40
-0.6
 41
-30.0
 62
     5
 63
     7
 74
     1
 91
        4
 64
     7
 65
   257
 75
     1
175
     1
 42
1.0
 92
        0
 66
   257
 43
1.0
 76
     1
 77
     6
 78
     2
 67
     7
 79
     5
170
     0
171
     0
290
     0
174
     0
 93
        1
 44
0.0
173
     0
291
     0
 45
0.0
1001
ACAD
1000
AcDbSavedByObjectVersion
1070
     0
  0
VISUALSTYLE
  5
13D72
102
{ACAD_XDICTIONARY
360
16271
102
}
102
{ACAD_REACTORS
330
13D6D
102
}
330
13D6D
100
AcDbVisualStyle
  2
Basic
 70
     7
 71
     1
 72
     0
 73
     1
 90
        0
 40
-0.6
 41
-30.0
 62
     5
 63
     7
 74
     0
 91
        4
 64
     7
 65
   257
 75
     1
175
     1
 42
1.0
 92
        8
 66
     7
 43
1.0
 76
     1
 77
     6
 78
     2
 67
     7
 79
     5
170
     0
171
     0
290
     0
174
     0
 93
        1
 44
0.0
173
     0
291
     1
 45
0.0
1001
ACAD
1000
AcDbSavedByObjectVersion
1070
     0
  0
VISUALSTYLE
  5
13D79
102
{ACAD_XDICTIONARY
360
1627F
102
}
102
{ACAD_REACTORS
330
13D6D
102
}
330
13D6D
100
AcDbVisualStyle
  2
Brighten
 70
    12
 71
     2
 72
     2
 73
     0
 90
        0
 40
-0.6
 41
-30.0
 62
     5
 63
     7
 74
     1
 91
        4
 64
     7
 65
   257
 75
     1
175
     1
 42
1.0
 92
        8
 66
     7
 43
1.0
 76
     1
 77
     6
 78
     2
 67
     7
 79
     5
170
     0
171
     0
290
     0
174
     0
 93
        1
 44
50.0
173
     0
291
     1
 45
0.0
1001
ACAD
1000
AcDbSavedByObjectVersion
1070
     0
  0
VISUALSTYLE
  5
13D7D
102
{ACAD_XDICTIONARY
360
16287
102
}
102
{ACAD_REACTORS
330
13D6D
102
}
330
13D6D
100
AcDbVisualStyle
  2
ColorChange
 70
    16
 71
     2
 72
     2
 73
     3
 90
        0
 40
-0.6
 41
-30.0
 62
     5
 63
     8
 74
     1
 91
        4
 64
     7
 65
   257
 75
     1
175
     1
 42
1.0
 92
        8
 66
     8
 43
1.0
 76
     1
 77
     6
 78
     2
 67
     7
 79
     5
170
     0
171
     0
290
     0
174
     0
 93
        1
 44
0.0
173
     0
291
     1
 45
0.0
1001
ACAD
1000
AcDbSavedByObjectVersion
1070
     0
  0
VISUALSTYLE
  5
13D76
102
{ACAD_XDICTIONARY
360
16279
102
}
102
{ACAD_REACTORS
330
13D6D
102
}
330
13D6D
100
AcDbVisualStyle
  2
Conceptual
 70
     9
 71
     3
 72
     2
 73
     0
 90
        0
 40
-0.6
 41
-30.0
 62
     5
 63
     7
 74
     2
 91
        2
 64
     7
 65
   257
 75
     1
175
     1
 42
179.0
 92
        8
 66
     7
 43
1.0
 76
     1
 77
     6
 78
     2
 67
     7
 79
     3
170
     0
171
     0
290
     0
174
     0
 93
        1
 44
0.0
173
     0
291
     0
 45
0.0
1001
ACAD
1000
AcDbSavedByObjectVersion
1070
     0
  0
VISUALSTYLE
  5
13D78
102
{ACAD_XDICTIONARY
360
1627D
102
}
102
{ACAD_REACTORS
330
13D6D
102
}
330
13D6D
100
AcDbVisualStyle
  2
Dim
 70
    11
 71
     2
 72
     2
 73
     0
 90
        0
 40
-0.6
 41
-30.0
 62
     5
 63
     7
 74
     1
 91
        4
 64
     7
 65
   257
 75
     1
175
     1
 42
1.0
 92
        8
 66
     7
 43
1.0
 76
     1
 77
     6
 78
     2
 67
     7
 79
     5
170
     0
171
     0
290
     0
174
     0
 93
        1
 44
-50.0
173
     0
291
     1
 45
0.0
1001
ACAD
1000
AcDbSavedByObjectVersion
1070
     0
  0
VISUALSTYLE
  5
13D85
102
{ACAD_XDICTIONARY
360
16297
102
}
102
{ACAD_REACTORS
330
13D6D
102
}
330
13D6D
100
AcDbVisualStyle
  2
EdgeColorOff
 70
    22
 71
     2
 72
     2
 73
     0
 90
        0
 40
-0.6
 41
-30.0
 62
     5
 63
     7
 74
     1
 91
        4
 64
     7
 65
   257
 75
     1
175
     1
 42
1.0
 92
        8
 66
     7
 43
1.0
 76
     1
 77
     6
 78
     2
 67
     7
 79
     5
170
     0
171
     0
290
     0
174
     0
 93
        1
 44
0.0
173
     0
291
     1
 45
0.0
1001
ACAD
1000
AcDbSavedByObjectVersion
1070
     0
  0
VISUALSTYLE
  5
13D7C
102
{ACAD_XDICTIONARY
360
16285
102
}
102
{ACAD_REACTORS
330
13D6D
102
}
330
13D6D
100
AcDbVisualStyle
  2
Facepattern
 70
    15
 71
     2
 72
     2
 73
     0
 90
        0
 40
-0.6
 41
-30.0
 62
     5
 63
     7
 74
     1
 91
        4
 64
     7
 65
   257
 75
     1
175
     1
 42
1.0
 92
        8
 66
     7
 43
1.0
 76
     1
 77
     6
 78
     2
 67
     7
 79
     5
170
     0
171
     0
290
     0
174
     0
 93
        1
 44
0.0
173
     0
291
     1
 45
0.0
1001
ACAD
1000
AcDbSavedByObjectVersion
1070
     0
  0
VISUALSTYLE
  5
13D6E
102
{ACAD_XDICTIONARY
360
16269
102
}
102
{ACAD_REACTORS
330
13D6D
102
}
330
13D6D
100
AcDbVisualStyle
  2
Flat
 70
     0
 71
     2
 72
     1
 73
     1
 90
        2
 40
-0.6
 41
30.0
 62
     5
 63
     7
 74
     0
 91
        0
 64
     7
 65
   257
 75
     1
175
     1
 42
1.0
 92
        8
 66
     7
 43
1.0
 76
     1
 77
     6
 78
     2
 67
     7
 79
     5
170
     0
171
     0
290
     0
174
     0
 93
       13
 44
0.0
173
     0
291
     1
 45
0.0
1001
ACAD
1000
AcDbSavedByObjectVersion
1070
     0
  0
VISUALSTYLE
  5
13D6F
102
{ACAD_XDICTIONARY
360
1626B
102
}
102
{ACAD_REACTORS
330
13D6D
102
}
330
13D6D
100
AcDbVisualStyle
  2
FlatWithEdges
 70
     1
 71
     2
 72
     1
 73
     1
 90
        2
 40
-0.6
 41
30.0
 62
     5
 63
     7
 74
     1
 91
        0
 64
     7
 65
   257
 75
     1
175
     1
 42
1.0
 92
        0
 66
   257
 43
1.0
 76
     1
 77
     6
 78
     2
 67
     7
 79
     5
170
     0
171
     0
290
     0
174
     0
 93
       13
 44
0.0
173
     0
291
     1
 45
0.0
1001
ACAD
1000
AcDbSavedByObjectVersion
1070
     0
  0
VISUALSTYLE
  5
13D70
102
{ACAD_XDICTIONARY
360
1626D
102
}
102
{ACAD_REACTORS
330
13D6D
102
}
330
13D6D
100
AcDbVisualStyle
  2
Gouraud
 70
     2
 71
     2
 72
     2
 73
     1
 90
        2
 40
-0.6
 41
30.0
 62
     5
 63
     7
 74
     0
 91
        0
 64
     7
 65
   257
 75
     1
175
     1
 42
1.0
 92
        0
 66
     7
 43
1.0
 76
     1
 77
     6
 78
     2
 67
     7
 79
     5
170
     0
171
     0
290
     0
174
     0
 93
       13
 44
0.0
173
     0
291
     1
 45
0.0
1001
ACAD
1000
AcDbSavedByObjectVersion
1070
     0
  0
VISUALSTYLE
  5
13D71
102
{ACAD_XDICTIONARY
360
1626F
102
}
102
{ACAD_REACTORS
330
13D6D
102
}
330
13D6D
100
AcDbVisualStyle
  2
GouraudWithEdges
 70
     3
 71
     2
 72
     2
 73
     1
 90
        2
 40
-0.6
 41
30.0
 62
     5
 63
     7
 74
     1
 91
        0
 64
     7
 65
   257
 75
     1
175
     1
 42
1.0
 92
        0
 66
   257
 43
1.0
 76
     1
 77
     6
 78
     2
 67
     7
 79
     5
170
     0
171
     0
290
     0
174
     0
 93
       13
 44
0.0
173
     0
291
     1
 45
0.0
1001
ACAD
1000
AcDbSavedByObjectVersion
1070
     0
  0
VISUALSTYLE
  5
13D75
102
{ACAD_XDICTIONARY
360
16277
102
}
102
{ACAD_REACTORS
330
13D6D
102
}
330
13D6D
100
AcDbVisualStyle
  2
Hidden
 70
     6
 71
     1
 72
     2
 73
     2
 90
        0
 40
-0.6
 41
-30.0
 62
     5
 63
     7
 74
     2
 91
        2
 64
     7
 65
   257
 75
     2
175
     1
 42
40.0
 92
        0
 66
   257
 43
1.0
 76
     1
 77
     6
 78
     2
 67
     7
 79
     3
170
     0
171
     0
290
     0
174
     0
 93
        1
 44
0.0
173
     0
291
     0
 45
0.0
1001
ACAD
1000
AcDbSavedByObjectVersion
1070
     0
  0
VISUALSTYLE
  5
13D83
102
{ACAD_XDICTIONARY
360
16293
102
}
102
{ACAD_REACTORS
330
13D6D
102
}
330
13D6D
100
AcDbVisualStyle
  2
JitterOff
 70
    20
 71
     2
 72
     2
 73
     0
 90
        0
 40
-0.6
 41
-30.0
 62
     5
 63
     7
 74
     1
 91
        4
 64
     7
 65
   257
 75
     1
175
     1
 42
1.0
 92
       10
 66
     7
 43
1.0
 76
     1
 77
     6
 78
     2
 67
     7
 79
     5
170
     0
171
     0
290
     0
174
     0
 93
        1
 44
0.0
173
     0
291
     1
 45
0.0
1001
ACAD
1000
AcDbSavedByObjectVersion
1070
     0
  0
VISUALSTYLE
  5
13D7B
102
{ACAD_XDICTIONARY
360
16283
102
}
102
{ACAD_REACTORS
330
13D6D
102
}
330
13D6D
100
AcDbVisualStyle
  2
Linepattern
 70
    14
 71
     2
 72
     2
 73
     0
 90
        0
 40
-0.6
 41
-30.0
 62
     5
 63
     7
 74
     1
 91
        4
 64
     7
 65
   257
 75
     7
175
     7
 42
1.0
 92
        8
 66
     7
 43
1.0
 76
     1
 77
     6
 78
     2
 67
     7
 79
     5
170
     0
171
     0
290
     0
174
     0
 93
        1
 44
0.0
173
     0
291
     1
 45
0.0
1001
ACAD
1000
AcDbSavedByObjectVersion
1070
     0
  0
VISUALSTYLE
  5
13D84
102
{ACAD_XDICTIONARY
360
16295
102
}
102
{ACAD_REACTORS
330
13D6D
102
}
330
13D6D
100
AcDbVisualStyle
  2
OverhangOff
 70
    21
 71
     2
 72
     2
 73
     0
 90
        0
 40
-0.6
 41
-30.0
 62
     5
 63
     7
 74
     1
 91
        4
 64
     7
 65
   257
 75
     1
175
     1
 42
1.0
 92
        9
 66
     7
 43
1.0
 76
     1
 77
     6
 78
     2
 67
     7
 79
     5
170
     0
171
     0
290
     0
174
     0
 93
        1
 44
0.0
173
     0
291
     1
 45
0.0
1001
ACAD
1000
AcDbSavedByObjectVersion
1070
     0
  0
VISUALSTYLE
  5
13D77
102
{ACAD_XDICTIONARY
360
1627B
102
}
102
{ACAD_REACTORS
330
13D6D
102
}
330
13D6D
100
AcDbVisualStyle
  2
Realistic
 70
     8
 71
     2
 72
     2
 73
     0
 90
        2
 40
-0.6
 41
30.0
 62
     5
 63
     7
 74
     0
 91
        0
 64
     7
 65
   257
 75
     1
175
     1
 42
1.0
 92
        8
 66
   257
 43
1.0
 76
     1
 77
     6
 78
     2
 67
     7
 79
     3
170
     0
171
     0
290
     0
174
     0
 93
       13
 44
0.0
173
     0
291
     0
 45
0.0
1001
ACAD
1000
AcDbSavedByObjectVersion
1070
     0
  0
VISUALSTYLE
  5
13D82
102
{ACAD_XDICTIONARY
360
16291
102
}
102
{ACAD_REACTORS
330
13D6D
102
}
330
13D6D
100
AcDbVisualStyle
  2
Shaded
 70
    27
 71
     2
 72
     2
 73
     1
 90
        2
 40
-0.6
 41
30.0
 62
     5
 63
     7
 74
     0
 91
        4
 64
     7
 65
   257
 75
     1
175
     1
 42
1.0
 92
        8
 66
   257
 43
1.0
 76
     1
 77
     6
 78
     2
 67
     8
 79
     3
170
     0
171
     0
290
     0
174
     0
 93
        5
 44
0.0
173
     0
291
     0
 45
0.0
1001
ACAD
1000
AcDbSavedByObjectVersion
1070
     0
  0
VISUALSTYLE
  5
13D81
102
{ACAD_XDICTIONARY
360
1628F
102
}
102
{ACAD_REACTORS
330
13D6D
102
}
330
13D6D
100
AcDbVisualStyle
  2
Shaded with edges
 70
    26
 71
     2
 72
     2
 73
     1
 90
        2
 40
-0.6
 41
30.0
 62
     5
 63
     7
 74
     1
 91
       10
 64
     7
 65
   257
 75
     2
175
     1
 42
1.0
 92
        8
 66
   257
 43
1.0
 76
     1
 77
     6
 78
     2
 67
     7
 79
     3
170
     0
171
     0
290
     0
174
     0
 93
        5
 44
0.0
173
     0
291
     0
 45
0.0
1001
ACAD
1000
AcDbSavedByObjectVersion
1070
     0
  0
VISUALSTYLE
  5
13D7E
102
{ACAD_XDICTIONARY
360
16289
102
}
102
{ACAD_REACTORS
330
13D6D
102
}
330
13D6D
100
AcDbVisualStyle
  2
Shades of Gray
 70
    23
 71
     2
 72
     2
 73
     3
 90
        0
 40
-0.6
 41
-30.0
 62
     5
 63
     7
 74
     2
 91
        2
 64
     7
 65
     7
 75
     1
175
     1
 42
40.0
 92
        8
 66
     7
 43
1.0
 76
     1
 77
     6
 78
     2
 67
     7
 79
     3
170
     0
171
     0
290
     0
174
     0
 93
        1
 44
0.0
173
     0
291
     0
 45
0.0
1001
ACAD
1000
AcDbSavedByObjectVersion
1070
     0
  0
VISUALSTYLE
  5
13D7F
102
{ACAD_XDICTIONARY
360
1628B
102
}
102
{ACAD_REACTORS
330
13D6D
102
}
330
13D6D
100
AcDbVisualStyle
  2
Sketchy
 70
    24
 71
     1
 72
     2
 73
     2
 90
        0
 40
-0.6
 41
-30.0
 62
     5
 63
     7
 74
     2
 91
        2
 64
     7
 65
     7
 75
     1
175
     1
 42
40.0
 92
       11
 66
     7
 43
1.0
 76
     1
 77
     6
 78
     2
 67
     7
 79
     6
170
     0
171
     0
290
     0
174
     0
 93
        1
 44
0.0
173
     0
291
     0
 45
0.0
1001
ACAD
1000
AcDbSavedByObjectVersion
1070
     0
  0
VISUALSTYLE
  5
13D7A
102
{ACAD_XDICTIONARY
360
16281
102
}
102
{ACAD_REACTORS
330
13D6D
102
}
330
13D6D
100
AcDbVisualStyle
  2
Thicken
 70
    13
 71
     2
 72
     2
 73
     0
 90
        0
 40
-0.6
 41
-30.0
 62
     5
 63
     7
 74
     1
 91
        4
 64
     7
 65
   257
 75
     1
175
     1
 42
1.0
 92
       12
 66
     7
 43
1.0
 76
     1
 77
     6
 78
     2
 67
     7
 79
     5
170
     0
171
     0
290
     0
174
     0
 93
        1
 44
0.0
173
     0
291
     1
 45
0.0
1001
ACAD
1000
AcDbSavedByObjectVersion
1070
     0
  0
VISUALSTYLE
  5
13D74
102
{ACAD_XDICTIONARY
360
16275
102
}
102
{ACAD_REACTORS
330
13D6D
102
}
330
13D6D
100
AcDbVisualStyle
  2
Wireframe
 70
     5
 71
     0
 72
     2
 73
     0
 90
        0
 40
-0.6
 41
-30.0
 62
     5
 63
     7
 74
     1
 91
        4
 64
     7
 65
   257
 75
     1
175
     1
 42
1.0
 92
        0
 66
   257
 43
1.0
 76
     1
 77
     6
 78
     2
 67
     7
 79
     3
170
     0
171
     0
290
     0
174
     0
 93
        1
 44
0.0
173
     0
291
     0
 45
0.0
1001
ACAD
1000
AcDbSavedByObjectVersion
1070
     0
  0
VISUALSTYLE
  5
13D80
102
{ACAD_XDICTIONARY
360
1628D
102
}
102
{ACAD_REACTORS
330
13D6D
102
}
330
13D6D
100
AcDbVisualStyle
  2
X-Ray
 70
    25
 71
     2
 72
     2
 73
     1
 90
        1
 40
0.5
 41
-30.0
 62
     5
 63
     7
 74
     1
 91
        0
 64
     7
 65
   257
 75
     1
175
     1
 42
1.0
 92
        8
 66
     7
 43
1.0
 76
     1
 77
     6
 78
     2
 67
     7
 79
     3
170
     0
171
     0
290
     0
174
     0
 93
       13
 44
0.0
173
     0
291
     0
 45
0.0
1001
ACAD
1000
AcDbSavedByObjectVersion
1070
     0
  0
DICTIONARYVAR
  5
161BA
102
{ACAD_REACTORS
330
13533
102
}
330
13533
100
DictionaryVariables
280
     0
  1
1:1
  0
DICTIONARYVAR
  5
161B7
102
{ACAD_REACTORS
330
13533
102
}
330
13533
100
DictionaryVariables
280
     0
  1
STANDARD
  0
DICTIONARYVAR
  5
161B6
102
{ACAD_REACTORS
330
13533
102
}
330
13533
100
DictionaryVariables
280
     0
  1
STANDARD
  0
DICTIONARYVAR
  5
161B8
102
{ACAD_REACTORS
330
13533
102
}
330
13533
100
DictionaryVariables
280
     0
  1
Metric50
  0
DICTIONARYVAR
  5
161B9
102
{ACAD_REACTORS
330
13533
102
}
330
13533
100
DictionaryVariables
280
     0
  1
Metric50
  0
DICTIONARYVAR
  5
13534
102
{ACAD_REACTORS
330
13533
102
}
330
13533
100
DictionaryVariables
280
     0
  1
1
  0
DICTIONARYVAR
  5
161BC
102
{ACAD_REACTORS
330
13533
102
}
330
13533
100
DictionaryVariables
280
     0
  1
0
  0
DICTIONARYVAR
  5
13535
102
{ACAD_REACTORS
330
13533
102
}
330
13533
100
DictionaryVariables
280
     0
  1

  0
DICTIONARYVAR
  5
161BB
102
{ACAD_REACTORS
330
13533
102
}
330
13533
100
DictionaryVariables
280
     0
  1
127
  0
DICTIONARYVAR
  5
1625E
102
{ACAD_REACTORS
330
13533
102
}
330
13533
100
DictionaryVariables
280
     0
  1
2
  0
DICTIONARY
  5
1629E
330
13D9F
100
AcDbDictionary
280
     1
281
     1
  3
ACAD_XREC_ROUNDTRIP
360
1629F
  0
DICTIONARY
  5
16262
330
13420
100
AcDbDictionary
280
     1
281
     1
  3
ACAD_XREC_ROUNDTRIP
360
16263
  0
DICTIONARY
  5
16264
330
13421
100
AcDbDictionary
280
     1
281
     1
  3
ACAD_XREC_ROUNDTRIP
360
16265
  0
DICTIONARY
  5
13D5E
330
13D5D
100
AcDbDictionary
280
     1
281
     1
  3
ACAD_XREC_ROUNDTRIP
360
16267
  3
BUMPTILE
360
13D60
  3
DIFFUSETILE
360
13D5F
  3
OPACITYTILE
360
13D63
  3
REFLECTIONTILE
360
13D62
  3
REFRACTIONTILE
360
13D64
  3
SPECULARTILE
360
13D61
  0
DICTIONARY
  5
13D56
330
13D55
100
AcDbDictionary
280
     1
281
     1
  3
ACAD_XREC_ROUNDTRIP
360
16266
  3
BUMPTILE
360
13D58
  3
DIFFUSETILE
360
13D57
  3
OPACITYTILE
360
13D5B
  3
REFLECTIONTILE
360
13D5A
  3
REFRACTIONTILE
360
13D5C
  3
SPECULARTILE
360
13D59
  0
DICTIONARY
  5
13D66
330
13D65
100
AcDbDictionary
280
     1
281
     1
  3
ACAD_XREC_ROUNDTRIP
360
16268
  3
BUMPTILE
360
13D68
  3
DIFFUSETILE
360
13D67
  3
OPACITYTILE
360
13D6B
  3
REFLECTIONTILE
360
13D6A
  3
REFRACTIONTILE
360
13D6C
  3
SPECULARTILE
360
13D69
  0
DICTIONARY
  5
1629A
330
13D9B
100
AcDbDictionary
280
     1
281
     1
  3
ACAD_XREC_ROUNDTRIP
360
1629B
  0
DICTIONARY
  5
1629C
330
13D9D
100
AcDbDictionary
280
     1
281
     1
  3
ACAD_XREC_ROUNDTRIP
360
1629D
  0
DICTIONARY
  5
16171
330
13D87
100
AcDbDictionary
280
     1
281
     1
  3
ACAD_ROUNDTRIP_2008_TABLESTYLE_CELLSTYLEMAP
360
1625F
  3
ACAD_XREC_ROUNDTRIP
360
16299
  0
DICTIONARY
  5
16273
330
13D73
100
AcDbDictionary
280
     1
281
     1
  3
ACAD_XREC_ROUNDTRIP
360
16274
  0
DICTIONARY
  5
16271
330
13D72
100
AcDbDictionary
280
     1
281
     1
  3
ACAD_XREC_ROUNDTRIP
360
16272
  0
DICTIONARY
  5
1627F
330
13D79
100
AcDbDictionary
280
     1
281
     1
  3
ACAD_XREC_ROUNDTRIP
360
16280
  0
DICTIONARY
  5
16287
330
13D7D
100
AcDbDictionary
280
     1
281
     1
  3
ACAD_XREC_ROUNDTRIP
360
16288
  0
DICTIONARY
  5
16279
330
13D76
100
AcDbDictionary
280
     1
281
     1
  3
ACAD_XREC_ROUNDTRIP
360
1627A
  0
DICTIONARY
  5
1627D
330
13D78
100
AcDbDictionary
280
     1
281
     1
  3
ACAD_XREC_ROUNDTRIP
360
1627E
  0
DICTIONARY
  5
16297
330
13D85
100
AcDbDictionary
280
     1
281
     1
  3
ACAD_XREC_ROUNDTRIP
360
16298
  0
DICTIONARY
  5
16285
330
13D7C
100
AcDbDictionary
280
     1
281
     1
  3
ACAD_XREC_ROUNDTRIP
360
16286
  0
DICTIONARY
  5
16269
330
13D6E
100
AcDbDictionary
280
     1
281
     1
  3
ACAD_XREC_ROUNDTRIP
360
1626A
  0
DICTIONARY
  5
1626B
330
13D6F
100
AcDbDictionary
280
     1
281
     1
  3
ACAD_XREC_ROUNDTRIP
360
1626C
  0
DICTIONARY
  5
1626D
330
13D70
100
AcDbDictionary
280
     1
281
     1
  3
ACAD_XREC_ROUNDTRIP
360
1626E
  0
DICTIONARY
  5
1626F
330
13D71
100
AcDbDictionary
280
     1
281
     1
  3
ACAD_XREC_ROUNDTRIP
360
16270
  0
DICTIONARY
  5
16277
330
13D75
100
AcDbDictionary
280
     1
281
     1
  3
ACAD_XREC_ROUNDTRIP
360
16278
  0
DICTIONARY
  5
16293
330
13D83
100
AcDbDictionary
280
     1
281
     1
  3
ACAD_XREC_ROUNDTRIP
360
16294
  0
DICTIONARY
  5
16283
330
13D7B
100
AcDbDictionary
280
     1
281
     1
  3
ACAD_XREC_ROUNDTRIP
360
16284
  0
DICTIONARY
  5
16295
330
13D84
100
AcDbDictionary
280
     1
281
     1
  3
ACAD_XREC_ROUNDTRIP
360
16296
  0
DICTIONARY
  5
1627B
330
13D77
100
AcDbDictionary
280
     1
281
     1
  3
ACAD_XREC_ROUNDTRIP
360
1627C
  0
DICTIONARY
  5
16291
330
13D82
100
AcDbDictionary
280
     1
281
     1
  3
ACAD_XREC_ROUNDTRIP
360
16292
  0
DICTIONARY
  5
1628F
330
13D81
100
AcDbDictionary
280
     1
281
     1
  3
ACAD_XREC_ROUNDTRIP
360
16290
  0
DICTIONARY
  5
16289
330
13D7E
100
AcDbDictionary
280
     1
281
     1
  3
ACAD_XREC_ROUNDTRIP
360
1628A
  0
DICTIONARY
  5
1628B
330
13D7F
100
AcDbDictionary
280
     1
281
     1
  3
ACAD_XREC_ROUNDTRIP
360
1628C
  0
DICTIONARY
  5
16281
330
13D7A
100
AcDbDictionary
280
     1
281
     1
  3
ACAD_XREC_ROUNDTRIP
360
16282
  0
DICTIONARY
  5
16275
330
13D74
100
AcDbDictionary
280
     1
281
     1
  3
ACAD_XREC_ROUNDTRIP
360
16276
  0
DICTIONARY
  5
1628D
330
13D80
100
AcDbDictionary
280
     1
281
     1
  3
ACAD_XREC_ROUNDTRIP
360
1628E
  0
XRECORD
  5
1629F
102
{ACAD_REACTORS
330
1629E
102
}
330
1629E
100
AcDbXrecord
280
     1
102
DISPLAYNAME
  1
Metric50
102
FLAGS
 90
        0
  0
XRECORD
  5
16263
102
{ACAD_REACTORS
330
16262
102
}
330
16262
100
AcDbXrecord
280
     1
102
SHADEPLOT
 70
     0
102
SHADEPLOTRESLEVEL
 70
     2
102
SHADEPLOTCUSTOMDPI
 70
   300
  0
XRECORD
  5
16265
102
{ACAD_REACTORS
330
16264
102
}
330
16264
100
AcDbXrecord
280
     1
102
SHADEPLOT
 70
     0
102
SHADEPLOTRESLEVEL
 70
     2
102
SHADEPLOTCUSTOMDPI
 70
   300
  0
XRECORD
  5
16267
102
{ACAD_REACTORS
330
13D5E
102
}
330
13D5E
100
AcDbXrecord
280
     1
102
MATERIAL
148
0.0
149
0.0
149
0.0
 93
        0
 94
      127
282
     0
 72
     0
 77
     0
171
     0
175
     0
179
     0
273
     0
  0
XRECORD
  5
13D60
102
{ACAD_REACTORS
330
13D5E
102
}
330
13D5E
100
AcDbXrecord
280
     1
270
     1
271
     1
  0
XRECORD
  5
13D5F
102
{ACAD_REACTORS
330
13D5E
102
}
330
13D5E
100
AcDbXrecord
280
     1
270
     1
271
     1
  0
XRECORD
  5
13D63
102
{ACAD_REACTORS
330
13D5E
102
}
330
13D5E
100
AcDbXrecord
280
     1
270
     1
271
     1
  0
XRECORD
  5
13D62
102
{ACAD_REACTORS
330
13D5E
102
}
330
13D5E
100
AcDbXrecord
280
     1
270
     1
271
     1
  0
XRECORD
  5
13D64
102
{ACAD_REACTORS
330
13D5E
102
}
330
13D5E
100
AcDbXrecord
280
     1
270
     1
271
     1
  0
XRECORD
  5
13D61
102
{ACAD_REACTORS
330
13D5E
102
}
330
13D5E
100
AcDbXrecord
280
     1
270
     1
271
     1
  0
XRECORD
  5
16266
102
{ACAD_REACTORS
330
13D56
102
}
330
13D56
100
AcDbXrecord
280
     1
102
MATERIAL
148
0.0
149
0.0
149
0.0
 93
        0
 94
      127
282
     0
 72
     0
 77
     0
171
     0
175
     0
179
     0
273
     0
  0
XRECORD
  5
13D58
102
{ACAD_REACTORS
330
13D56
102
}
330
13D56
100
AcDbXrecord
280
     1
270
     1
271
     1
  0
XRECORD
  5
13D57
102
{ACAD_REACTORS
330
13D56
102
}
330
13D56
100
AcDbXrecord
280
     1
270
     1
271
     1
  0
XRECORD
  5
13D5B
102
{ACAD_REACTORS
330
13D56
102
}
330
13D56
100
AcDbXrecord
280
     1
270
     1
271
     1
  0
XRECORD
  5
13D5A
102
{ACAD_REACTORS
330
13D56
102
}
330
13D56
100
AcDbXrecord
280
     1
270
     1
271
     1
  0
XRECORD
  5
13D5C
102
{ACAD_REACTORS
330
13D56
102
}
330
13D56
100
AcDbXrecord
280
     1
270
     1
271
     1
  0
XRECORD
  5
13D59
102
{ACAD_REACTORS
330
13D56
102
}
330
13D56
100
AcDbXrecord
280
     1
270
     1
271
     1
  0
XRECORD
  5
16268
102
{ACAD_REACTORS
330
13D66
102
}
330
13D66
100
AcDbXrecord
280
     1
102
MATERIAL
148
0.0
149
0.0
149
0.0
 93
        0
 94
      127
282
     0
 72
     0
 77
     0
171
     0
175
     0
179
     0
273
     0
  0
XRECORD
  5
13D68
102
{ACAD_REACTORS
330
13D66
102
}
330
13D66
100
AcDbXrecord
280
     1
270
     1
271
     1
  0
XRECORD
  5
13D67
102
{ACAD_REACTORS
330
13D66
102
}
330
13D66
100
AcDbXrecord
280
     1
270
     1
271
     1
  0
XRECORD
  5
13D6B
102
{ACAD_REACTORS
330
13D66
102
}
330
13D66
100
AcDbXrecord
280
     1
270
     1
271
     1
  0
XRECORD
  5
13D6A
102
{ACAD_REACTORS
330
13D66
102
}
330
13D66
100
AcDbXrecord
280
     1
270
     1
271
     1
  0
XRECORD
  5
13D6C
102
{ACAD_REACTORS
330
13D66
102
}
330
13D66
100
AcDbXrecord
280
     1
270
     1
271
     1
  0
XRECORD
  5
13D69
102
{ACAD_REACTORS
330
13D66
102
}
330
13D66
100
AcDbXrecord
280
     1
270
     1
271
     1
  0
XRECORD
  5
1629B
102
{ACAD_REACTORS
330
1629A
102
}
330
1629A
100
AcDbXrecord
280
     1
102
ACAD_ROUNDTRIP_2012_MLEADER_STYLE
298
     1
  0
XRECORD
  5
1629D
102
{ACAD_REACTORS
330
1629C
102
}
330
1629C
100
AcDbXrecord
280
     1
102
DISPLAYNAME
  1
Metric50
102
FLAGS
 90
        0
  0
CELLSTYLEMAP
  5
1625F
102
{ACAD_REACTORS
330
16171
102
}
330
16171
100
AcDbCellStyleMap
 90
        3
300
CELLSTYLE
  1
TABLEFORMAT_BEGIN
 90
        5
170
     1
 91
        0
 92
    32768
 62
   257
 93
        1
300
CONTENTFORMAT
  1
CONTENTFORMAT_BEGIN
 90
        0
 91
        0
 92
      512
 93
        0
300

 40
0.0
140
1.0
 94
        5
 62
     0
340
7475
144
6.0
309
CONTENTFORMAT_END
171
     1
301
MARGIN
  1
CELLMARGIN_BEGIN
 40
1.5
 40
1.5
 40
1.5
 40
1.5
 40
4.5
 40
4.5
309
CELLMARGIN_END
 94
        6
 95
        1
302
GRIDFORMAT
  1
GRIDFORMAT_BEGIN
 90
        0
 91
        1
 62
     0
 92
       -2
340
0
 93
        0
 40
1.125
309
GRIDFORMAT_END
 95
        2
302
GRIDFORMAT
  1
GRIDFORMAT_BEGIN
 90
        0
 91
        1
 62
     0
 92
       -2
340
0
 93
        0
 40
1.125
309
GRIDFORMAT_END
 95
        4
302
GRIDFORMAT
  1
GRIDFORMAT_BEGIN
 90
        0
 91
        1
 62
     0
 92
       -2
340
0
 93
        0
 40
1.125
309
GRIDFORMAT_END
 95
        8
302
GRIDFORMAT
  1
GRIDFORMAT_BEGIN
 90
        0
 91
        1
 62
     0
 92
       -2
340
0
 93
        0
 40
1.125
309
GRIDFORMAT_END
 95
       16
302
GRIDFORMAT
  1
GRIDFORMAT_BEGIN
 90
        0
 91
        1
 62
     0
 92
       -2
340
0
 93
        0
 40
1.125
309
GRIDFORMAT_END
 95
       32
302
GRIDFORMAT
  1
GRIDFORMAT_BEGIN
 90
        0
 91
        1
 62
     0
 92
       -2
340
0
 93
        0
 40
1.125
309
GRIDFORMAT_END
309
TABLEFORMAT_END
  1
CELLSTYLE_BEGIN
 90
        1
 91
        1
300
_TITLE
309
CELLSTYLE_END
300
CELLSTYLE
  1
TABLEFORMAT_BEGIN
 90
        5
170
     1
 91
        0
 92
        0
 62
   257
 93
        1
300
CONTENTFORMAT
  1
CONTENTFORMAT_BEGIN
 90
        0
 91
        0
 92
      512
 93
        0
300

 40
0.0
140
1.0
 94
        5
 62
     0
340
7475
144
4.5
309
CONTENTFORMAT_END
171
     1
301
MARGIN
  1
CELLMARGIN_BEGIN
 40
1.5
 40
1.5
 40
1.5
 40
1.5
 40
4.5
 40
4.5
309
CELLMARGIN_END
 94
        6
 95
        1
302
GRIDFORMAT
  1
GRIDFORMAT_BEGIN
 90
        0
 91
        1
 62
     0
 92
       -2
340
0
 93
        0
 40
1.125
309
GRIDFORMAT_END
 95
        2
302
GRIDFORMAT
  1
GRIDFORMAT_BEGIN
 90
        0
 91
        1
 62
     0
 92
       -2
340
0
 93
        0
 40
1.125
309
GRIDFORMAT_END
 95
        4
302
GRIDFORMAT
  1
GRIDFORMAT_BEGIN
 90
        0
 91
        1
 62
     0
 92
       -2
340
0
 93
        0
 40
1.125
309
GRIDFORMAT_END
 95
        8
302
GRIDFORMAT
  1
GRIDFORMAT_BEGIN
 90
        0
 91
        1
 62
     0
 92
       -2
340
0
 93
        0
 40
1.125
309
GRIDFORMAT_END
 95
       16
302
GRIDFORMAT
  1
GRIDFORMAT_BEGIN
 90
        0
 91
        1
 62
     0
 92
       -2
340
0
 93
        0
 40
1.125
309
GRIDFORMAT_END
 95
       32
302
GRIDFORMAT
  1
GRIDFORMAT_BEGIN
 90
        0
 91
        1
 62
     0
 92
       -2
340
0
 93
        0
 40
1.125
309
GRIDFORMAT_END
309
TABLEFORMAT_END
  1
CELLSTYLE_BEGIN
 90
        2
 91
        1
300
_HEADER
309
CELLSTYLE_END
300
CELLSTYLE
  1
TABLEFORMAT_BEGIN
 90
        5
170
     1
 91
        0
 92
        0
 62
   257
 93
        1
300
CONTENTFORMAT
  1
CONTENTFORMAT_BEGIN
 90
        0
 91
        0
 92
      512
 93
        0
300

 40
0.0
140
1.0
 94
        2
 62
     0
340
7475
144
4.5
309
CONTENTFORMAT_END
171
     1
301
MARGIN
  1
CELLMARGIN_BEGIN
 40
1.5
 40
1.5
 40
1.5
 40
1.5
 40
4.5
 40
4.5
309
CELLMARGIN_END
 94
        6
 95
        1
302
GRIDFORMAT
  1
GRIDFORMAT_BEGIN
 90
        0
 91
        1
 62
     0
 92
       -2
340
0
 93
        0
 40
1.125
309
GRIDFORMAT_END
 95
        2
302
GRIDFORMAT
  1
GRIDFORMAT_BEGIN
 90
        0
 91
        1
 62
     0
 92
       -2
340
0
 93
        0
 40
1.125
309
GRIDFORMAT_END
 95
        4
302
GRIDFORMAT
  1
GRIDFORMAT_BEGIN
 90
        0
 91
        1
 62
     0
 92
       -2
340
0
 93
        0
 40
1.125
309
GRIDFORMAT_END
 95
        8
302
GRIDFORMAT
  1
GRIDFORMAT_BEGIN
 90
        0
 91
        1
 62
     0
 92
       -2
340
0
 93
        0
 40
1.125
309
GRIDFORMAT_END
 95
       16
302
GRIDFORMAT
  1
GRIDFORMAT_BEGIN
 90
        0
 91
        1
 62
     0
 92
       -2
340
0
 93
        0
 40
1.125
309
GRIDFORMAT_END
 95
       32
302
GRIDFORMAT
  1
GRIDFORMAT_BEGIN
 90
        0
 91
        1
 62
     0
 92
       -2
340
0
 93
        0
 40
1.125
309
GRIDFORMAT_END
309
TABLEFORMAT_END
  1
CELLSTYLE_BEGIN
 90
        3
 91
        2
300
_DATA
309
CELLSTYLE_END
  0
XRECORD
  5
16299
102
{ACAD_REACTORS
330
16171
102
}
330
16171
100
AcDbXrecord
280
     1
102
ACAD_ROUNDTRIP_PRE2007_TABLESTYLE
 90
      512
 91
        0
  1

 92
      512
 93
        0
  2

 94
      512
 95
        0
  3

  0
XRECORD
  5
16274
102
{ACAD_REACTORS
330
16273
102
}
330
16273
100
AcDbXrecord
280
     1
102
RTVSPost2010Prop28
280
     1
102
RTVSPost2010PropOp28
 70
     1
102
RTVSPost2010Prop29
280
     1
102
RTVSPost2010PropOp29
 70
     1
102
RTVSPost2010Prop30
280
     0
102
RTVSPost2010PropOp30
 70
     1
102
RTVSPost2010Prop31
280
     0
102
RTVSPost2010PropOp31
 70
     1
102
RTVSPost2010Prop32
280
     0
102
RTVSPost2010PropOp32
 70
     1
102
RTVSPost2010Prop33
280
     0
102
RTVSPost2010PropOp33
 70
     1
102
RTVSPost2010Prop34
280
     0
102
RTVSPost2010PropOp34
 70
     1
102
RTVSPost2010Prop35
280
     0
102
RTVSPost2010PropOp35
 70
     1
102
RTVSPost2010Prop36
280
     0
102
RTVSPost2010PropOp36
 70
     1
102
RTVSPost2010Prop37
 90
       50
102
RTVSPost2010PropOp37
 70
     1
102
RTVSPost2010Prop38
140
0.0
102
RTVSPost2010PropOp38
 70
     1
102
RTVSPost2010Prop39
140
1.0
102
RTVSPost2010PropOp39
 70
     1
102
RTVSPost2010Prop40
 90
        0
102
RTVSPost2010PropOp40
 70
     1
102
RTVSPost2010Prop41ColorIndex
 90
       18
102
RTVSPost2010Prop41ColorRGB
 90
        0
102
RTVSPost2010PropOp41
 70
     1
102
RTVSPost2010Prop42
 90
       50
102
RTVSPost2010PropOp42
 70
     1
102
RTVSPost2010Prop43
 90
        3
102
RTVSPost2010PropOp43
 70
     1
102
RTVSPost2010Prop44ColorIndex
 90
        5
102
RTVSPost2010Prop44ColorRGB
 90
      255
102
RTVSPost2010PropOp44
 70
     1
102
RTVSPost2010Prop45
280
     0
102
RTVSPost2010PropOp45
 70
     1
102
RTVSPost2010Prop46
 90
       50
102
RTVSPost2010PropOp46
 70
     1
102
RTVSPost2010Prop47
 90
       50
102
RTVSPost2010PropOp47
 70
     1
102
RTVSPost2010Prop48
 90
       50
102
RTVSPost2010PropOp48
 70
     1
102
RTVSPost2010Prop49
280
     0
102
RTVSPost2010PropOp49
 70
     1
102
RTVSPost2010Prop50
 90
       50
102
RTVSPost2010PropOp50
 70
     1
102
RTVSPost2010Prop51ColorIndex
 90
      256
102
RTVSPost2010Prop51ColorRGB
 90
-16777216
102
RTVSPost2010PropOp51
 70
     0
102
RTVSPost2010Prop52
140
1.0
102
RTVSPost2010PropOp52
 70
     0
102
RTVSPost2010Prop53
 90
        2
102
RTVSPost2010PropOp53
 70
     1
102
RTVSPost2010Prop54
  1
strokes_ogs.tif
102
RTVSPost2010PropOp54
 70
     1
102
RTVSPost2010Prop55
280
     0
102
RTVSPost2010PropOp55
 70
     1
102
RTVSPost2010Prop56
140
1.0
102
RTVSPost2010PropOp56
 70
     1
102
RTVSPost2010Prop57
140
1.0
102
RTVSPost2010PropOp57
 70
     1
102
RTVSPropertyOp0
 70
     1
102
RTVSPropertyOp1
 70
     1
102
RTVSPropertyOp2
 70
     1
102
RTVSPropertyOp3
 70
     1
102
RTVSPropertyOp4
 70
     1
102
RTVSPropertyOp5
 70
     1
102
RTVSPropertyOp6
 70
     1
102
RTVSPropertyOp7
 70
     1
102
RTVSPropertyOp8
 70
     1
102
RTVSPropertyOp9
 70
     1
102
RTVSPropertyOp10
 70
     1
102
RTVSPropertyOp11
 70
     1
102
RTVSPropertyOp12
 70
     1
102
RTVSPropertyOp13
 70
     1
102
RTVSPropertyOp14
 70
     1
102
RTVSPropertyOp15
 70
     1
102
RTVSPropertyOp16
 70
     1
102
RTVSPropertyOp17
 70
     1
102
RTVSPropertyOp18
 70
     1
102
RTVSPropertyOp19
 70
     1
102
RTVSPropertyOp20
 70
     1
102
RTVSPropertyOp21
 70
     1
102
RTVSPropertyOp22
 70
     1
102
RTVSPropertyOp23
 70
     1
102
RTVSPropertyOp24
 70
     1
102
RTVSPropertyOp25
 70
     1
102
RTVSPropertyOp26
 70
     1
102
RTVSPropertyOp27
 70
     1
102
RTVSPropertyOp28
 70
     1
102
RTVSPropertyOp29
 70
     1
102
RTVSPropertyOp30
 70
     1
102
RTVSPropertyOp31
 70
     1
102
RTVSPropertyOp32
 70
     1
102
RTVSPropertyOp33
 70
     1
102
RTVSPropertyOp34
 70
     1
102
RTVSPropertyOp35
 70
     1
102
RTVSPropertyOp36
 70
     1
102
RTVSPropertyOp37
 70
     1
102
RTVSPropertyOp38
 70
     1
102
RTVSPropertyOp39
 70
     1
102
RTVSPropertyOp40
 70
     1
102
RTVSPropertyOp41
 70
     1
102
RTVSPropertyOp42
 70
     1
102
RTVSPropertyOp43
 70
     1
102
RTVSPropertyOp44
 70
     1
102
RTVSPropertyOp45
 70
     1
102
RTVSPropertyOp46
 70
     1
102
RTVSPropertyOp47
 70
     1
102
RTVSPropertyOp48
 70
     1
102
RTVSPropertyOp49
 70
     1
102
RTVSPropertyOp50
 70
     1
102
RTVSPropertyOp51
 70
     0
102
RTVSPropertyOp52
 70
     0
102
RTVSPropertyOp53
 70
     1
102
RTVSPropertyOp54
 70
     1
102
RTVSPropertyOp55
 70
     1
102
RTVSPropertyOp56
 70
     1
102
RTVSPropertyOp57
 70
     1
102
RTVSPropertyOp58
 70
     1
102
RTVSPropertyOp59
 70
     1
102
RTVSPropertyOp60
 70
     1
102
RTVSPropertyOp61
 70
     1
102
RTVSPropertyOp62
 70
     1
  0
XRECORD
  5
16272
102
{ACAD_REACTORS
330
16271
102
}
330
16271
100
AcDbXrecord
280
     1
102
RTVSPost2010Prop28
280
     0
102
RTVSPost2010PropOp28
 70
     1
102
RTVSPost2010Prop29
280
     1
102
RTVSPost2010PropOp29
 70
     1
102
RTVSPost2010Prop30
280
     1
102
RTVSPost2010PropOp30
 70
     1
102
RTVSPost2010Prop31
280
     0
102
RTVSPost2010PropOp31
 70
     1
102
RTVSPost2010Prop32
280
     0
102
RTVSPost2010PropOp32
 70
     1
102
RTVSPost2010Prop33
280
     0
102
RTVSPost2010PropOp33
 70
     1
102
RTVSPost2010Prop34
280
     0
102
RTVSPost2010PropOp34
 70
     1
102
RTVSPost2010Prop35
280
     0
102
RTVSPost2010PropOp35
 70
     1
102
RTVSPost2010Prop36
280
     0
102
RTVSPost2010PropOp36
 70
     1
102
RTVSPost2010Prop37
 90
       50
102
RTVSPost2010PropOp37
 70
     1
102
RTVSPost2010Prop38
140
0.0
102
RTVSPost2010PropOp38
 70
     1
102
RTVSPost2010Prop39
140
1.0
102
RTVSPost2010PropOp39
 70
     1
102
RTVSPost2010Prop40
 90
        0
102
RTVSPost2010PropOp40
 70
     1
102
RTVSPost2010Prop41ColorIndex
 90
       18
102
RTVSPost2010Prop41ColorRGB
 90
        0
102
RTVSPost2010PropOp41
 70
     1
102
RTVSPost2010Prop42
 90
       50
102
RTVSPost2010PropOp42
 70
     1
102
RTVSPost2010Prop43
 90
        3
102
RTVSPost2010PropOp43
 70
     1
102
RTVSPost2010Prop44ColorIndex
 90
        5
102
RTVSPost2010Prop44ColorRGB
 90
      255
102
RTVSPost2010PropOp44
 70
     1
102
RTVSPost2010Prop45
280
     0
102
RTVSPost2010PropOp45
 70
     1
102
RTVSPost2010Prop46
 90
       50
102
RTVSPost2010PropOp46
 70
     1
102
RTVSPost2010Prop47
 90
       50
102
RTVSPost2010PropOp47
 70
     1
102
RTVSPost2010Prop48
 90
       50
102
RTVSPost2010PropOp48
 70
     1
102
RTVSPost2010Prop49
280
     0
102
RTVSPost2010PropOp49
 70
     1
102
RTVSPost2010Prop50
 90
       50
102
RTVSPost2010PropOp50
 70
     1
102
RTVSPost2010Prop51ColorIndex
 90
      256
102
RTVSPost2010Prop51ColorRGB
 90
-16777216
102
RTVSPost2010PropOp51
 70
     0
102
RTVSPost2010Prop52
140
1.0
102
RTVSPost2010PropOp52
 70
     0
102
RTVSPost2010Prop53
 90
        2
102
RTVSPost2010PropOp53
 70
     1
102
RTVSPost2010Prop54
  1
strokes_ogs.tif
102
RTVSPost2010PropOp54
 70
     1
102
RTVSPost2010Prop55
280
     0
102
RTVSPost2010PropOp55
 70
     1
102
RTVSPost2010Prop56
140
1.0
102
RTVSPost2010PropOp56
 70
     1
102
RTVSPost2010Prop57
140
1.0
102
RTVSPost2010PropOp57
 70
     1
102
RTVSPropertyOp0
 70
     1
102
RTVSPropertyOp1
 70
     1
102
RTVSPropertyOp2
 70
     1
102
RTVSPropertyOp3
 70
     1
102
RTVSPropertyOp4
 70
     1
102
RTVSPropertyOp5
 70
     1
102
RTVSPropertyOp6
 70
     1
102
RTVSPropertyOp7
 70
     1
102
RTVSPropertyOp8
 70
     1
102
RTVSPropertyOp9
 70
     1
102
RTVSPropertyOp10
 70
     1
102
RTVSPropertyOp11
 70
     1
102
RTVSPropertyOp12
 70
     1
102
RTVSPropertyOp13
 70
     1
102
RTVSPropertyOp14
 70
     1
102
RTVSPropertyOp15
 70
     1
102
RTVSPropertyOp16
 70
     1
102
RTVSPropertyOp17
 70
     1
102
RTVSPropertyOp18
 70
     1
102
RTVSPropertyOp19
 70
     1
102
RTVSPropertyOp20
 70
     1
102
RTVSPropertyOp21
 70
     1
102
RTVSPropertyOp22
 70
     1
102
RTVSPropertyOp23
 70
     1
102
RTVSPropertyOp24
 70
     1
102
RTVSPropertyOp25
 70
     1
102
RTVSPropertyOp26
 70
     1
102
RTVSPropertyOp27
 70
     1
102
RTVSPropertyOp28
 70
     1
102
RTVSPropertyOp29
 70
     1
102
RTVSPropertyOp30
 70
     1
102
RTVSPropertyOp31
 70
     1
102
RTVSPropertyOp32
 70
     1
102
RTVSPropertyOp33
 70
     1
102
RTVSPropertyOp34
 70
     1
102
RTVSPropertyOp35
 70
     1
102
RTVSPropertyOp36
 70
     1
102
RTVSPropertyOp37
 70
     1
102
RTVSPropertyOp38
 70
     1
102
RTVSPropertyOp39
 70
     1
102
RTVSPropertyOp40
 70
     1
102
RTVSPropertyOp41
 70
     1
102
RTVSPropertyOp42
 70
     1
102
RTVSPropertyOp43
 70
     1
102
RTVSPropertyOp44
 70
     1
102
RTVSPropertyOp45
 70
     1
102
RTVSPropertyOp46
 70
     1
102
RTVSPropertyOp47
 70
     1
102
RTVSPropertyOp48
 70
     1
102
RTVSPropertyOp49
 70
     1
102
RTVSPropertyOp50
 70
     1
102
RTVSPropertyOp51
 70
     0
102
RTVSPropertyOp52
 70
     0
102
RTVSPropertyOp53
 70
     1
102
RTVSPropertyOp54
 70
     1
102
RTVSPropertyOp55
 70
     1
102
RTVSPropertyOp56
 70
     1
102
RTVSPropertyOp57
 70
     1
102
RTVSPropertyOp58
 70
     1
102
RTVSPropertyOp59
 70
     1
102
RTVSPropertyOp60
 70
     1
102
RTVSPropertyOp61
 70
     1
102
RTVSPropertyOp62
 70
     1
  0
XRECORD
  5
16280
102
{ACAD_REACTORS
330
1627F
102
}
330
1627F
100
AcDbXrecord
280
     1
102
RTVSPost2010Prop28
280
     0
102
RTVSPost2010PropOp28
 70
     1
102
RTVSPost2010Prop29
280
     1
102
RTVSPost2010PropOp29
 70
     1
102
RTVSPost2010Prop30
280
     1
102
RTVSPost2010PropOp30
 70
     1
102
RTVSPost2010Prop31
280
     0
102
RTVSPost2010PropOp31
 70
     1
102
RTVSPost2010Prop32
280
     0
102
RTVSPost2010PropOp32
 70
     1
102
RTVSPost2010Prop33
280
     0
102
RTVSPost2010PropOp33
 70
     1
102
RTVSPost2010Prop34
280
     0
102
RTVSPost2010PropOp34
 70
     1
102
RTVSPost2010Prop35
280
     0
102
RTVSPost2010PropOp35
 70
     1
102
RTVSPost2010Prop36
280
     0
102
RTVSPost2010PropOp36
 70
     1
102
RTVSPost2010Prop37
 90
       50
102
RTVSPost2010PropOp37
 70
     1
102
RTVSPost2010Prop38
140
0.0
102
RTVSPost2010PropOp38
 70
     1
102
RTVSPost2010Prop39
140
1.0
102
RTVSPost2010PropOp39
 70
     1
102
RTVSPost2010Prop40
 90
        0
102
RTVSPost2010PropOp40
 70
     1
102
RTVSPost2010Prop41ColorIndex
 90
       18
102
RTVSPost2010Prop41ColorRGB
 90
        0
102
RTVSPost2010PropOp41
 70
     1
102
RTVSPost2010Prop42
 90
       50
102
RTVSPost2010PropOp42
 70
     1
102
RTVSPost2010Prop43
 90
        3
102
RTVSPost2010PropOp43
 70
     1
102
RTVSPost2010Prop44ColorIndex
 90
        5
102
RTVSPost2010Prop44ColorRGB
 90
      255
102
RTVSPost2010PropOp44
 70
     1
102
RTVSPost2010Prop45
280
     0
102
RTVSPost2010PropOp45
 70
     1
102
RTVSPost2010Prop46
 90
       50
102
RTVSPost2010PropOp46
 70
     1
102
RTVSPost2010Prop47
 90
       50
102
RTVSPost2010PropOp47
 70
     1
102
RTVSPost2010Prop48
 90
       50
102
RTVSPost2010PropOp48
 70
     1
102
RTVSPost2010Prop49
280
     0
102
RTVSPost2010PropOp49
 70
     1
102
RTVSPost2010Prop50
 90
       50
102
RTVSPost2010PropOp50
 70
     1
102
RTVSPost2010Prop51ColorIndex
 90
      256
102
RTVSPost2010Prop51ColorRGB
 90
-16777216
102
RTVSPost2010PropOp51
 70
     0
102
RTVSPost2010Prop52
140
1.0
102
RTVSPost2010PropOp52
 70
     0
102
RTVSPost2010Prop53
 90
        2
102
RTVSPost2010PropOp53
 70
     1
102
RTVSPost2010Prop54
  1
strokes_ogs.tif
102
RTVSPost2010PropOp54
 70
     1
102
RTVSPost2010Prop55
280
     0
102
RTVSPost2010PropOp55
 70
     1
102
RTVSPost2010Prop56
140
1.0
102
RTVSPost2010PropOp56
 70
     1
102
RTVSPost2010Prop57
140
1.0
102
RTVSPost2010PropOp57
 70
     1
102
RTVSPropertyOp0
 70
     1
102
RTVSPropertyOp1
 70
     1
102
RTVSPropertyOp2
 70
     1
102
RTVSPropertyOp3
 70
     1
102
RTVSPropertyOp4
 70
     1
102
RTVSPropertyOp5
 70
     1
102
RTVSPropertyOp6
 70
     1
102
RTVSPropertyOp7
 70
     1
102
RTVSPropertyOp8
 70
     1
102
RTVSPropertyOp9
 70
     1
102
RTVSPropertyOp10
 70
     1
102
RTVSPropertyOp11
 70
     1
102
RTVSPropertyOp12
 70
     1
102
RTVSPropertyOp13
 70
     1
102
RTVSPropertyOp14
 70
     1
102
RTVSPropertyOp15
 70
     1
102
RTVSPropertyOp16
 70
     1
102
RTVSPropertyOp17
 70
     1
102
RTVSPropertyOp18
 70
     1
102
RTVSPropertyOp19
 70
     1
102
RTVSPropertyOp20
 70
     1
102
RTVSPropertyOp21
 70
     1
102
RTVSPropertyOp22
 70
     1
102
RTVSPropertyOp23
 70
     1
102
RTVSPropertyOp24
 70
     1
102
RTVSPropertyOp25
 70
     1
102
RTVSPropertyOp26
 70
     1
102
RTVSPropertyOp27
 70
     1
102
RTVSPropertyOp28
 70
     1
102
RTVSPropertyOp29
 70
     1
102
RTVSPropertyOp30
 70
     1
102
RTVSPropertyOp31
 70
     1
102
RTVSPropertyOp32
 70
     1
102
RTVSPropertyOp33
 70
     1
102
RTVSPropertyOp34
 70
     1
102
RTVSPropertyOp35
 70
     1
102
RTVSPropertyOp36
 70
     1
102
RTVSPropertyOp37
 70
     1
102
RTVSPropertyOp38
 70
     1
102
RTVSPropertyOp39
 70
     1
102
RTVSPropertyOp40
 70
     1
102
RTVSPropertyOp41
 70
     1
102
RTVSPropertyOp42
 70
     1
102
RTVSPropertyOp43
 70
     1
102
RTVSPropertyOp44
 70
     1
102
RTVSPropertyOp45
 70
     1
102
RTVSPropertyOp46
 70
     1
102
RTVSPropertyOp47
 70
     1
102
RTVSPropertyOp48
 70
     1
102
RTVSPropertyOp49
 70
     1
102
RTVSPropertyOp50
 70
     1
102
RTVSPropertyOp51
 70
     0
102
RTVSPropertyOp52
 70
     0
102
RTVSPropertyOp53
 70
     1
102
RTVSPropertyOp54
 70
     1
102
RTVSPropertyOp55
 70
     1
102
RTVSPropertyOp56
 70
     1
102
RTVSPropertyOp57
 70
     1
102
RTVSPropertyOp58
 70
     1
102
RTVSPropertyOp59
 70
     1
102
RTVSPropertyOp60
 70
     1
102
RTVSPropertyOp61
 70
     1
102
RTVSPropertyOp62
 70
     1
  0
XRECORD
  5
16288
102
{ACAD_REACTORS
330
16287
102
}
330
16287
100
AcDbXrecord
280
     1
102
RTVSPost2010Prop28
280
     0
102
RTVSPost2010PropOp28
 70
     1
102
RTVSPost2010Prop29
280
     1
102
RTVSPost2010PropOp29
 70
     1
102
RTVSPost2010Prop30
280
     1
102
RTVSPost2010PropOp30
 70
     1
102
RTVSPost2010Prop31
280
     0
102
RTVSPost2010PropOp31
 70
     1
102
RTVSPost2010Prop32
280
     0
102
RTVSPost2010PropOp32
 70
     1
102
RTVSPost2010Prop33
280
     0
102
RTVSPost2010PropOp33
 70
     1
102
RTVSPost2010Prop34
280
     0
102
RTVSPost2010PropOp34
 70
     1
102
RTVSPost2010Prop35
280
     0
102
RTVSPost2010PropOp35
 70
     1
102
RTVSPost2010Prop36
280
     0
102
RTVSPost2010PropOp36
 70
     1
102
RTVSPost2010Prop37
 90
       50
102
RTVSPost2010PropOp37
 70
     1
102
RTVSPost2010Prop38
140
0.0
102
RTVSPost2010PropOp38
 70
     1
102
RTVSPost2010Prop39
140
1.0
102
RTVSPost2010PropOp39
 70
     1
102
RTVSPost2010Prop40
 90
        0
102
RTVSPost2010PropOp40
 70
     1
102
RTVSPost2010Prop41ColorIndex
 90
       18
102
RTVSPost2010Prop41ColorRGB
 90
        0
102
RTVSPost2010PropOp41
 70
     1
102
RTVSPost2010Prop42
 90
       50
102
RTVSPost2010PropOp42
 70
     1
102
RTVSPost2010Prop43
 90
        3
102
RTVSPost2010PropOp43
 70
     1
102
RTVSPost2010Prop44ColorIndex
 90
        5
102
RTVSPost2010Prop44ColorRGB
 90
      255
102
RTVSPost2010PropOp44
 70
     1
102
RTVSPost2010Prop45
280
     0
102
RTVSPost2010PropOp45
 70
     1
102
RTVSPost2010Prop46
 90
       50
102
RTVSPost2010PropOp46
 70
     1
102
RTVSPost2010Prop47
 90
       50
102
RTVSPost2010PropOp47
 70
     1
102
RTVSPost2010Prop48
 90
       50
102
RTVSPost2010PropOp48
 70
     1
102
RTVSPost2010Prop49
280
     0
102
RTVSPost2010PropOp49
 70
     1
102
RTVSPost2010Prop50
 90
       50
102
RTVSPost2010PropOp50
 70
     1
102
RTVSPost2010Prop51ColorIndex
 90
      256
102
RTVSPost2010Prop51ColorRGB
 90
-16777216
102
RTVSPost2010PropOp51
 70
     0
102
RTVSPost2010Prop52
140
1.0
102
RTVSPost2010PropOp52
 70
     0
102
RTVSPost2010Prop53
 90
        2
102
RTVSPost2010PropOp53
 70
     1
102
RTVSPost2010Prop54
  1
strokes_ogs.tif
102
RTVSPost2010PropOp54
 70
     1
102
RTVSPost2010Prop55
280
     0
102
RTVSPost2010PropOp55
 70
     1
102
RTVSPost2010Prop56
140
1.0
102
RTVSPost2010PropOp56
 70
     1
102
RTVSPost2010Prop57
140
1.0
102
RTVSPost2010PropOp57
 70
     1
102
RTVSPropertyOp0
 70
     1
102
RTVSPropertyOp1
 70
     1
102
RTVSPropertyOp2
 70
     1
102
RTVSPropertyOp3
 70
     1
102
RTVSPropertyOp4
 70
     1
102
RTVSPropertyOp5
 70
     1
102
RTVSPropertyOp6
 70
     1
102
RTVSPropertyOp7
 70
     1
102
RTVSPropertyOp8
 70
     1
102
RTVSPropertyOp9
 70
     1
102
RTVSPropertyOp10
 70
     1
102
RTVSPropertyOp11
 70
     1
102
RTVSPropertyOp12
 70
     1
102
RTVSPropertyOp13
 70
     1
102
RTVSPropertyOp14
 70
     1
102
RTVSPropertyOp15
 70
     1
102
RTVSPropertyOp16
 70
     1
102
RTVSPropertyOp17
 70
     1
102
RTVSPropertyOp18
 70
     1
102
RTVSPropertyOp19
 70
     1
102
RTVSPropertyOp20
 70
     1
102
RTVSPropertyOp21
 70
     1
102
RTVSPropertyOp22
 70
     1
102
RTVSPropertyOp23
 70
     1
102
RTVSPropertyOp24
 70
     1
102
RTVSPropertyOp25
 70
     1
102
RTVSPropertyOp26
 70
     1
102
RTVSPropertyOp27
 70
     1
102
RTVSPropertyOp28
 70
     1
102
RTVSPropertyOp29
 70
     1
102
RTVSPropertyOp30
 70
     1
102
RTVSPropertyOp31
 70
     1
102
RTVSPropertyOp32
 70
     1
102
RTVSPropertyOp33
 70
     1
102
RTVSPropertyOp34
 70
     1
102
RTVSPropertyOp35
 70
     1
102
RTVSPropertyOp36
 70
     1
102
RTVSPropertyOp37
 70
     1
102
RTVSPropertyOp38
 70
     1
102
RTVSPropertyOp39
 70
     1
102
RTVSPropertyOp40
 70
     1
102
RTVSPropertyOp41
 70
     1
102
RTVSPropertyOp42
 70
     1
102
RTVSPropertyOp43
 70
     1
102
RTVSPropertyOp44
 70
     1
102
RTVSPropertyOp45
 70
     1
102
RTVSPropertyOp46
 70
     1
102
RTVSPropertyOp47
 70
     1
102
RTVSPropertyOp48
 70
     1
102
RTVSPropertyOp49
 70
     1
102
RTVSPropertyOp50
 70
     1
102
RTVSPropertyOp51
 70
     0
102
RTVSPropertyOp52
 70
     0
102
RTVSPropertyOp53
 70
     1
102
RTVSPropertyOp54
 70
     1
102
RTVSPropertyOp55
 70
     1
102
RTVSPropertyOp56
 70
     1
102
RTVSPropertyOp57
 70
     1
102
RTVSPropertyOp58
 70
     1
102
RTVSPropertyOp59
 70
     1
102
RTVSPropertyOp60
 70
     1
102
RTVSPropertyOp61
 70
     1
102
RTVSPropertyOp62
 70
     1
  0
XRECORD
  5
1627A
102
{ACAD_REACTORS
330
16279
102
}
330
16279
100
AcDbXrecord
280
     1
102
RTVSPost2010Prop28
280
     0
102
RTVSPost2010PropOp28
 70
     1
102
RTVSPost2010Prop29
280
     1
102
RTVSPost2010PropOp29
 70
     1
102
RTVSPost2010Prop30
280
     1
102
RTVSPost2010PropOp30
 70
     1
102
RTVSPost2010Prop31
280
     0
102
RTVSPost2010PropOp31
 70
     1
102
RTVSPost2010Prop32
280
     0
102
RTVSPost2010PropOp32
 70
     1
102
RTVSPost2010Prop33
280
     0
102
RTVSPost2010PropOp33
 70
     1
102
RTVSPost2010Prop34
280
     0
102
RTVSPost2010PropOp34
 70
     1
102
RTVSPost2010Prop35
280
     0
102
RTVSPost2010PropOp35
 70
     1
102
RTVSPost2010Prop36
280
     0
102
RTVSPost2010PropOp36
 70
     1
102
RTVSPost2010Prop37
 90
       50
102
RTVSPost2010PropOp37
 70
     1
102
RTVSPost2010Prop38
140
0.0
102
RTVSPost2010PropOp38
 70
     1
102
RTVSPost2010Prop39
140
1.0
102
RTVSPost2010PropOp39
 70
     1
102
RTVSPost2010Prop40
 90
        0
102
RTVSPost2010PropOp40
 70
     1
102
RTVSPost2010Prop41ColorIndex
 90
       18
102
RTVSPost2010Prop41ColorRGB
 90
        0
102
RTVSPost2010PropOp41
 70
     1
102
RTVSPost2010Prop42
 90
       50
102
RTVSPost2010PropOp42
 70
     1
102
RTVSPost2010Prop43
 90
        3
102
RTVSPost2010PropOp43
 70
     1
102
RTVSPost2010Prop44ColorIndex
 90
        5
102
RTVSPost2010Prop44ColorRGB
 90
      255
102
RTVSPost2010PropOp44
 70
     1
102
RTVSPost2010Prop45
280
     0
102
RTVSPost2010PropOp45
 70
     1
102
RTVSPost2010Prop46
 90
       50
102
RTVSPost2010PropOp46
 70
     1
102
RTVSPost2010Prop47
 90
       50
102
RTVSPost2010PropOp47
 70
     1
102
RTVSPost2010Prop48
 90
       50
102
RTVSPost2010PropOp48
 70
     1
102
RTVSPost2010Prop49
280
     0
102
RTVSPost2010PropOp49
 70
     1
102
RTVSPost2010Prop50
 90
       50
102
RTVSPost2010PropOp50
 70
     1
102
RTVSPost2010Prop51ColorIndex
 90
      256
102
RTVSPost2010Prop51ColorRGB
 90
-16777216
102
RTVSPost2010PropOp51
 70
     0
102
RTVSPost2010Prop52
140
1.0
102
RTVSPost2010PropOp52
 70
     0
102
RTVSPost2010Prop53
 90
        2
102
RTVSPost2010PropOp53
 70
     1
102
RTVSPost2010Prop54
  1
strokes_ogs.tif
102
RTVSPost2010PropOp54
 70
     1
102
RTVSPost2010Prop55
280
     0
102
RTVSPost2010PropOp55
 70
     1
102
RTVSPost2010Prop56
140
1.0
102
RTVSPost2010PropOp56
 70
     1
102
RTVSPost2010Prop57
140
1.0
102
RTVSPost2010PropOp57
 70
     1
102
RTVSPropertyOp0
 70
     1
102
RTVSPropertyOp1
 70
     1
102
RTVSPropertyOp2
 70
     1
102
RTVSPropertyOp3
 70
     1
102
RTVSPropertyOp4
 70
     1
102
RTVSPropertyOp5
 70
     1
102
RTVSPropertyOp6
 70
     1
102
RTVSPropertyOp7
 70
     1
102
RTVSPropertyOp8
 70
     1
102
RTVSPropertyOp9
 70
     1
102
RTVSPropertyOp10
 70
     1
102
RTVSPropertyOp11
 70
     1
102
RTVSPropertyOp12
 70
     1
102
RTVSPropertyOp13
 70
     1
102
RTVSPropertyOp14
 70
     1
102
RTVSPropertyOp15
 70
     1
102
RTVSPropertyOp16
 70
     1
102
RTVSPropertyOp17
 70
     1
102
RTVSPropertyOp18
 70
     1
102
RTVSPropertyOp19
 70
     1
102
RTVSPropertyOp20
 70
     1
102
RTVSPropertyOp21
 70
     1
102
RTVSPropertyOp22
 70
     1
102
RTVSPropertyOp23
 70
     1
102
RTVSPropertyOp24
 70
     1
102
RTVSPropertyOp25
 70
     1
102
RTVSPropertyOp26
 70
     1
102
RTVSPropertyOp27
 70
     1
102
RTVSPropertyOp28
 70
     1
102
RTVSPropertyOp29
 70
     1
102
RTVSPropertyOp30
 70
     1
102
RTVSPropertyOp31
 70
     1
102
RTVSPropertyOp32
 70
     1
102
RTVSPropertyOp33
 70
     1
102
RTVSPropertyOp34
 70
     1
102
RTVSPropertyOp35
 70
     1
102
RTVSPropertyOp36
 70
     1
102
RTVSPropertyOp37
 70
     1
102
RTVSPropertyOp38
 70
     1
102
RTVSPropertyOp39
 70
     1
102
RTVSPropertyOp40
 70
     1
102
RTVSPropertyOp41
 70
     1
102
RTVSPropertyOp42
 70
     1
102
RTVSPropertyOp43
 70
     1
102
RTVSPropertyOp44
 70
     1
102
RTVSPropertyOp45
 70
     1
102
RTVSPropertyOp46
 70
     1
102
RTVSPropertyOp47
 70
     1
102
RTVSPropertyOp48
 70
     1
102
RTVSPropertyOp49
 70
     1
102
RTVSPropertyOp50
 70
     1
102
RTVSPropertyOp51
 70
     0
102
RTVSPropertyOp52
 70
     0
102
RTVSPropertyOp53
 70
     1
102
RTVSPropertyOp54
 70
     1
102
RTVSPropertyOp55
 70
     1
102
RTVSPropertyOp56
 70
     1
102
RTVSPropertyOp57
 70
     1
102
RTVSPropertyOp58
 70
     1
102
RTVSPropertyOp59
 70
     1
102
RTVSPropertyOp60
 70
     1
102
RTVSPropertyOp61
 70
     1
102
RTVSPropertyOp62
 70
     1
  0
XRECORD
  5
1627E
102
{ACAD_REACTORS
330
1627D
102
}
330
1627D
100
AcDbXrecord
280
     1
102
RTVSPost2010Prop28
280
     0
102
RTVSPost2010PropOp28
 70
     1
102
RTVSPost2010Prop29
280
     1
102
RTVSPost2010PropOp29
 70
     1
102
RTVSPost2010Prop30
280
     1
102
RTVSPost2010PropOp30
 70
     1
102
RTVSPost2010Prop31
280
     0
102
RTVSPost2010PropOp31
 70
     1
102
RTVSPost2010Prop32
280
     0
102
RTVSPost2010PropOp32
 70
     1
102
RTVSPost2010Prop33
280
     0
102
RTVSPost2010PropOp33
 70
     1
102
RTVSPost2010Prop34
280
     0
102
RTVSPost2010PropOp34
 70
     1
102
RTVSPost2010Prop35
280
     0
102
RTVSPost2010PropOp35
 70
     1
102
RTVSPost2010Prop36
280
     0
102
RTVSPost2010PropOp36
 70
     1
102
RTVSPost2010Prop37
 90
       50
102
RTVSPost2010PropOp37
 70
     1
102
RTVSPost2010Prop38
140
0.0
102
RTVSPost2010PropOp38
 70
     1
102
RTVSPost2010Prop39
140
1.0
102
RTVSPost2010PropOp39
 70
     1
102
RTVSPost2010Prop40
 90
        0
102
RTVSPost2010PropOp40
 70
     1
102
RTVSPost2010Prop41ColorIndex
 90
       18
102
RTVSPost2010Prop41ColorRGB
 90
        0
102
RTVSPost2010PropOp41
 70
     1
102
RTVSPost2010Prop42
 90
       50
102
RTVSPost2010PropOp42
 70
     1
102
RTVSPost2010Prop43
 90
        3
102
RTVSPost2010PropOp43
 70
     1
102
RTVSPost2010Prop44ColorIndex
 90
        5
102
RTVSPost2010Prop44ColorRGB
 90
      255
102
RTVSPost2010PropOp44
 70
     1
102
RTVSPost2010Prop45
280
     0
102
RTVSPost2010PropOp45
 70
     1
102
RTVSPost2010Prop46
 90
       50
102
RTVSPost2010PropOp46
 70
     1
102
RTVSPost2010Prop47
 90
       50
102
RTVSPost2010PropOp47
 70
     1
102
RTVSPost2010Prop48
 90
       50
102
RTVSPost2010PropOp48
 70
     1
102
RTVSPost2010Prop49
280
     0
102
RTVSPost2010PropOp49
 70
     1
102
RTVSPost2010Prop50
 90
       50
102
RTVSPost2010PropOp50
 70
     1
102
RTVSPost2010Prop51ColorIndex
 90
      256
102
RTVSPost2010Prop51ColorRGB
 90
-16777216
102
RTVSPost2010PropOp51
 70
     0
102
RTVSPost2010Prop52
140
1.0
102
RTVSPost2010PropOp52
 70
     0
102
RTVSPost2010Prop53
 90
        2
102
RTVSPost2010PropOp53
 70
     1
102
RTVSPost2010Prop54
  1
strokes_ogs.tif
102
RTVSPost2010PropOp54
 70
     1
102
RTVSPost2010Prop55
280
     0
102
RTVSPost2010PropOp55
 70
     1
102
RTVSPost2010Prop56
140
1.0
102
RTVSPost2010PropOp56
 70
     1
102
RTVSPost2010Prop57
140
1.0
102
RTVSPost2010PropOp57
 70
     1
102
RTVSPropertyOp0
 70
     1
102
RTVSPropertyOp1
 70
     1
102
RTVSPropertyOp2
 70
     1
102
RTVSPropertyOp3
 70
     1
102
RTVSPropertyOp4
 70
     1
102
RTVSPropertyOp5
 70
     1
102
RTVSPropertyOp6
 70
     1
102
RTVSPropertyOp7
 70
     1
102
RTVSPropertyOp8
 70
     1
102
RTVSPropertyOp9
 70
     1
102
RTVSPropertyOp10
 70
     1
102
RTVSPropertyOp11
 70
     1
102
RTVSPropertyOp12
 70
     1
102
RTVSPropertyOp13
 70
     1
102
RTVSPropertyOp14
 70
     1
102
RTVSPropertyOp15
 70
     1
102
RTVSPropertyOp16
 70
     1
102
RTVSPropertyOp17
 70
     1
102
RTVSPropertyOp18
 70
     1
102
RTVSPropertyOp19
 70
     1
102
RTVSPropertyOp20
 70
     1
102
RTVSPropertyOp21
 70
     1
102
RTVSPropertyOp22
 70
     1
102
RTVSPropertyOp23
 70
     1
102
RTVSPropertyOp24
 70
     1
102
RTVSPropertyOp25
 70
     1
102
RTVSPropertyOp26
 70
     1
102
RTVSPropertyOp27
 70
     1
102
RTVSPropertyOp28
 70
     1
102
RTVSPropertyOp29
 70
     1
102
RTVSPropertyOp30
 70
     1
102
RTVSPropertyOp31
 70
     1
102
RTVSPropertyOp32
 70
     1
102
RTVSPropertyOp33
 70
     1
102
RTVSPropertyOp34
 70
     1
102
RTVSPropertyOp35
 70
     1
102
RTVSPropertyOp36
 70
     1
102
RTVSPropertyOp37
 70
     1
102
RTVSPropertyOp38
 70
     1
102
RTVSPropertyOp39
 70
     1
102
RTVSPropertyOp40
 70
     1
102
RTVSPropertyOp41
 70
     1
102
RTVSPropertyOp42
 70
     1
102
RTVSPropertyOp43
 70
     1
102
RTVSPropertyOp44
 70
     1
102
RTVSPropertyOp45
 70
     1
102
RTVSPropertyOp46
 70
     1
102
RTVSPropertyOp47
 70
     1
102
RTVSPropertyOp48
 70
     1
102
RTVSPropertyOp49
 70
     1
102
RTVSPropertyOp50
 70
     1
102
RTVSPropertyOp51
 70
     0
102
RTVSPropertyOp52
 70
     0
102
RTVSPropertyOp53
 70
     1
102
RTVSPropertyOp54
 70
     1
102
RTVSPropertyOp55
 70
     1
102
RTVSPropertyOp56
 70
     1
102
RTVSPropertyOp57
 70
     1
102
RTVSPropertyOp58
 70
     1
102
RTVSPropertyOp59
 70
     1
102
RTVSPropertyOp60
 70
     1
102
RTVSPropertyOp61
 70
     1
102
RTVSPropertyOp62
 70
     1
  0
XRECORD
  5
16298
102
{ACAD_REACTORS
330
16297
102
}
330
16297
100
AcDbXrecord
280
     1
102
RTVSPost2010Prop28
280
     0
102
RTVSPost2010PropOp28
 70
     0
102
RTVSPost2010Prop29
280
     1
102
RTVSPost2010PropOp29
 70
     0
102
RTVSPost2010Prop30
280
     1
102
RTVSPost2010PropOp30
 70
     0
102
RTVSPost2010Prop31
280
     0
102
RTVSPost2010PropOp31
 70
     0
102
RTVSPost2010Prop32
280
     0
102
RTVSPost2010PropOp32
 70
     0
102
RTVSPost2010Prop33
280
     0
102
RTVSPost2010PropOp33
 70
     0
102
RTVSPost2010Prop34
280
     0
102
RTVSPost2010PropOp34
 70
     0
102
RTVSPost2010Prop35
280
     0
102
RTVSPost2010PropOp35
 70
     0
102
RTVSPost2010Prop36
280
     0
102
RTVSPost2010PropOp36
 70
     0
102
RTVSPost2010Prop37
 90
       50
102
RTVSPost2010PropOp37
 70
     0
102
RTVSPost2010Prop38
140
0.0
102
RTVSPost2010PropOp38
 70
     0
102
RTVSPost2010Prop39
140
1.0
102
RTVSPost2010PropOp39
 70
     0
102
RTVSPost2010Prop40
 90
        0
102
RTVSPost2010PropOp40
 70
     0
102
RTVSPost2010Prop41ColorIndex
 90
       18
102
RTVSPost2010Prop41ColorRGB
 90
        0
102
RTVSPost2010PropOp41
 70
     0
102
RTVSPost2010Prop42
 90
       50
102
RTVSPost2010PropOp42
 70
     0
102
RTVSPost2010Prop43
 90
        3
102
RTVSPost2010PropOp43
 70
     0
102
RTVSPost2010Prop44ColorIndex
 90
        5
102
RTVSPost2010Prop44ColorRGB
 90
      255
102
RTVSPost2010PropOp44
 70
     0
102
RTVSPost2010Prop45
280
     0
102
RTVSPost2010PropOp45
 70
     0
102
RTVSPost2010Prop46
 90
       50
102
RTVSPost2010PropOp46
 70
     0
102
RTVSPost2010Prop47
 90
       50
102
RTVSPost2010PropOp47
 70
     0
102
RTVSPost2010Prop48
 90
       50
102
RTVSPost2010PropOp48
 70
     0
102
RTVSPost2010Prop49
280
     0
102
RTVSPost2010PropOp49
 70
     0
102
RTVSPost2010Prop50
 90
       50
102
RTVSPost2010PropOp50
 70
     0
102
RTVSPost2010Prop51ColorIndex
 90
      256
102
RTVSPost2010Prop51ColorRGB
 90
-16777216
102
RTVSPost2010PropOp51
 70
     0
102
RTVSPost2010Prop52
140
1.0
102
RTVSPost2010PropOp52
 70
     0
102
RTVSPost2010Prop53
 90
        2
102
RTVSPost2010PropOp53
 70
     0
102
RTVSPost2010Prop54
  1
strokes_ogs.tif
102
RTVSPost2010PropOp54
 70
     0
102
RTVSPost2010Prop55
280
     0
102
RTVSPost2010PropOp55
 70
     0
102
RTVSPost2010Prop56
140
1.0
102
RTVSPost2010PropOp56
 70
     0
102
RTVSPost2010Prop57
140
1.0
102
RTVSPost2010PropOp57
 70
     0
102
RTVSPropertyOp0
 70
     0
102
RTVSPropertyOp1
 70
     0
102
RTVSPropertyOp2
 70
     0
102
RTVSPropertyOp3
 70
     0
102
RTVSPropertyOp4
 70
     0
102
RTVSPropertyOp5
 70
     0
102
RTVSPropertyOp6
 70
     0
102
RTVSPropertyOp7
 70
     0
102
RTVSPropertyOp8
 70
     0
102
RTVSPropertyOp9
 70
     0
102
RTVSPropertyOp10
 70
     0
102
RTVSPropertyOp11
 70
     0
102
RTVSPropertyOp12
 70
     0
102
RTVSPropertyOp13
 70
     0
102
RTVSPropertyOp14
 70
     2
102
RTVSPropertyOp15
 70
     0
102
RTVSPropertyOp16
 70
     0
102
RTVSPropertyOp17
 70
     0
102
RTVSPropertyOp18
 70
     0
102
RTVSPropertyOp19
 70
     0
102
RTVSPropertyOp20
 70
     0
102
RTVSPropertyOp21
 70
     0
102
RTVSPropertyOp22
 70
     0
102
RTVSPropertyOp23
 70
     0
102
RTVSPropertyOp24
 70
     0
102
RTVSPropertyOp25
 70
     0
102
RTVSPropertyOp26
 70
     0
102
RTVSPropertyOp27
 70
     0
102
RTVSPropertyOp28
 70
     0
102
RTVSPropertyOp29
 70
     0
102
RTVSPropertyOp30
 70
     0
102
RTVSPropertyOp31
 70
     0
102
RTVSPropertyOp32
 70
     0
102
RTVSPropertyOp33
 70
     0
102
RTVSPropertyOp34
 70
     0
102
RTVSPropertyOp35
 70
     0
102
RTVSPropertyOp36
 70
     0
102
RTVSPropertyOp37
 70
     0
102
RTVSPropertyOp38
 70
     0
102
RTVSPropertyOp39
 70
     0
102
RTVSPropertyOp40
 70
     0
102
RTVSPropertyOp41
 70
     0
102
RTVSPropertyOp42
 70
     0
102
RTVSPropertyOp43
 70
     0
102
RTVSPropertyOp44
 70
     0
102
RTVSPropertyOp45
 70
     0
102
RTVSPropertyOp46
 70
     0
102
RTVSPropertyOp47
 70
     0
102
RTVSPropertyOp48
 70
     0
102
RTVSPropertyOp49
 70
     0
102
RTVSPropertyOp50
 70
     0
102
RTVSPropertyOp51
 70
     0
102
RTVSPropertyOp52
 70
     0
102
RTVSPropertyOp53
 70
     0
102
RTVSPropertyOp54
 70
     0
102
RTVSPropertyOp55
 70
     0
102
RTVSPropertyOp56
 70
     0
102
RTVSPropertyOp57
 70
     0
102
RTVSPropertyOp58
 70
     0
102
RTVSPropertyOp59
 70
     0
102
RTVSPropertyOp60
 70
     0
102
RTVSPropertyOp61
 70
     0
102
RTVSPropertyOp62
 70
     0
  0
XRECORD
  5
16286
102
{ACAD_REACTORS
330
16285
102
}
330
16285
100
AcDbXrecord
280
     1
102
RTVSPost2010Prop28
280
     0
102
RTVSPost2010PropOp28
 70
     1
102
RTVSPost2010Prop29
280
     1
102
RTVSPost2010PropOp29
 70
     1
102
RTVSPost2010Prop30
280
     1
102
RTVSPost2010PropOp30
 70
     1
102
RTVSPost2010Prop31
280
     0
102
RTVSPost2010PropOp31
 70
     1
102
RTVSPost2010Prop32
280
     0
102
RTVSPost2010PropOp32
 70
     1
102
RTVSPost2010Prop33
280
     0
102
RTVSPost2010PropOp33
 70
     1
102
RTVSPost2010Prop34
280
     0
102
RTVSPost2010PropOp34
 70
     1
102
RTVSPost2010Prop35
280
     0
102
RTVSPost2010PropOp35
 70
     1
102
RTVSPost2010Prop36
280
     0
102
RTVSPost2010PropOp36
 70
     1
102
RTVSPost2010Prop37
 90
       50
102
RTVSPost2010PropOp37
 70
     1
102
RTVSPost2010Prop38
140
0.0
102
RTVSPost2010PropOp38
 70
     1
102
RTVSPost2010Prop39
140
1.0
102
RTVSPost2010PropOp39
 70
     1
102
RTVSPost2010Prop40
 90
        0
102
RTVSPost2010PropOp40
 70
     1
102
RTVSPost2010Prop41ColorIndex
 90
       18
102
RTVSPost2010Prop41ColorRGB
 90
        0
102
RTVSPost2010PropOp41
 70
     1
102
RTVSPost2010Prop42
 90
       50
102
RTVSPost2010PropOp42
 70
     1
102
RTVSPost2010Prop43
 90
        3
102
RTVSPost2010PropOp43
 70
     1
102
RTVSPost2010Prop44ColorIndex
 90
        5
102
RTVSPost2010Prop44ColorRGB
 90
      255
102
RTVSPost2010PropOp44
 70
     1
102
RTVSPost2010Prop45
280
     0
102
RTVSPost2010PropOp45
 70
     1
102
RTVSPost2010Prop46
 90
       50
102
RTVSPost2010PropOp46
 70
     1
102
RTVSPost2010Prop47
 90
       50
102
RTVSPost2010PropOp47
 70
     1
102
RTVSPost2010Prop48
 90
       50
102
RTVSPost2010PropOp48
 70
     1
102
RTVSPost2010Prop49
280
     0
102
RTVSPost2010PropOp49
 70
     1
102
RTVSPost2010Prop50
 90
       50
102
RTVSPost2010PropOp50
 70
     1
102
RTVSPost2010Prop51ColorIndex
 90
      256
102
RTVSPost2010Prop51ColorRGB
 90
-16777216
102
RTVSPost2010PropOp51
 70
     0
102
RTVSPost2010Prop52
140
1.0
102
RTVSPost2010PropOp52
 70
     0
102
RTVSPost2010Prop53
 90
        2
102
RTVSPost2010PropOp53
 70
     1
102
RTVSPost2010Prop54
  1
strokes_ogs.tif
102
RTVSPost2010PropOp54
 70
     1
102
RTVSPost2010Prop55
280
     0
102
RTVSPost2010PropOp55
 70
     1
102
RTVSPost2010Prop56
140
1.0
102
RTVSPost2010PropOp56
 70
     1
102
RTVSPost2010Prop57
140
1.0
102
RTVSPost2010PropOp57
 70
     1
102
RTVSPropertyOp0
 70
     1
102
RTVSPropertyOp1
 70
     1
102
RTVSPropertyOp2
 70
     1
102
RTVSPropertyOp3
 70
     1
102
RTVSPropertyOp4
 70
     1
102
RTVSPropertyOp5
 70
     1
102
RTVSPropertyOp6
 70
     1
102
RTVSPropertyOp7
 70
     1
102
RTVSPropertyOp8
 70
     1
102
RTVSPropertyOp9
 70
     1
102
RTVSPropertyOp10
 70
     1
102
RTVSPropertyOp11
 70
     1
102
RTVSPropertyOp12
 70
     1
102
RTVSPropertyOp13
 70
     1
102
RTVSPropertyOp14
 70
     1
102
RTVSPropertyOp15
 70
     1
102
RTVSPropertyOp16
 70
     1
102
RTVSPropertyOp17
 70
     1
102
RTVSPropertyOp18
 70
     1
102
RTVSPropertyOp19
 70
     1
102
RTVSPropertyOp20
 70
     1
102
RTVSPropertyOp21
 70
     1
102
RTVSPropertyOp22
 70
     1
102
RTVSPropertyOp23
 70
     1
102
RTVSPropertyOp24
 70
     1
102
RTVSPropertyOp25
 70
     1
102
RTVSPropertyOp26
 70
     1
102
RTVSPropertyOp27
 70
     1
102
RTVSPropertyOp28
 70
     1
102
RTVSPropertyOp29
 70
     1
102
RTVSPropertyOp30
 70
     1
102
RTVSPropertyOp31
 70
     1
102
RTVSPropertyOp32
 70
     1
102
RTVSPropertyOp33
 70
     1
102
RTVSPropertyOp34
 70
     1
102
RTVSPropertyOp35
 70
     1
102
RTVSPropertyOp36
 70
     1
102
RTVSPropertyOp37
 70
     1
102
RTVSPropertyOp38
 70
     1
102
RTVSPropertyOp39
 70
     1
102
RTVSPropertyOp40
 70
     1
102
RTVSPropertyOp41
 70
     1
102
RTVSPropertyOp42
 70
     1
102
RTVSPropertyOp43
 70
     1
102
RTVSPropertyOp44
 70
     1
102
RTVSPropertyOp45
 70
     1
102
RTVSPropertyOp46
 70
     1
102
RTVSPropertyOp47
 70
     1
102
RTVSPropertyOp48
 70
     1
102
RTVSPropertyOp49
 70
     1
102
RTVSPropertyOp50
 70
     1
102
RTVSPropertyOp51
 70
     0
102
RTVSPropertyOp52
 70
     0
102
RTVSPropertyOp53
 70
     1
102
RTVSPropertyOp54
 70
     1
102
RTVSPropertyOp55
 70
     1
102
RTVSPropertyOp56
 70
     1
102
RTVSPropertyOp57
 70
     1
102
RTVSPropertyOp58
 70
     1
102
RTVSPropertyOp59
 70
     1
102
RTVSPropertyOp60
 70
     1
102
RTVSPropertyOp61
 70
     1
102
RTVSPropertyOp62
 70
     1
  0
XRECORD
  5
1626A
102
{ACAD_REACTORS
330
16269
102
}
330
16269
100
AcDbXrecord
280
     1
102
RTVSPost2010Prop28
280
     0
102
RTVSPost2010PropOp28
 70
     1
102
RTVSPost2010Prop29
280
     1
102
RTVSPost2010PropOp29
 70
     1
102
RTVSPost2010Prop30
280
     1
102
RTVSPost2010PropOp30
 70
     1
102
RTVSPost2010Prop31
280
     0
102
RTVSPost2010PropOp31
 70
     1
102
RTVSPost2010Prop32
280
     0
102
RTVSPost2010PropOp32
 70
     1
102
RTVSPost2010Prop33
280
     0
102
RTVSPost2010PropOp33
 70
     1
102
RTVSPost2010Prop34
280
     0
102
RTVSPost2010PropOp34
 70
     1
102
RTVSPost2010Prop35
280
     0
102
RTVSPost2010PropOp35
 70
     1
102
RTVSPost2010Prop36
280
     0
102
RTVSPost2010PropOp36
 70
     1
102
RTVSPost2010Prop37
 90
       50
102
RTVSPost2010PropOp37
 70
     1
102
RTVSPost2010Prop38
140
0.0
102
RTVSPost2010PropOp38
 70
     1
102
RTVSPost2010Prop39
140
1.0
102
RTVSPost2010PropOp39
 70
     1
102
RTVSPost2010Prop40
 90
        0
102
RTVSPost2010PropOp40
 70
     1
102
RTVSPost2010Prop41ColorIndex
 90
       18
102
RTVSPost2010Prop41ColorRGB
 90
        0
102
RTVSPost2010PropOp41
 70
     1
102
RTVSPost2010Prop42
 90
       50
102
RTVSPost2010PropOp42
 70
     1
102
RTVSPost2010Prop43
 90
        3
102
RTVSPost2010PropOp43
 70
     1
102
RTVSPost2010Prop44ColorIndex
 90
        5
102
RTVSPost2010Prop44ColorRGB
 90
      255
102
RTVSPost2010PropOp44
 70
     1
102
RTVSPost2010Prop45
280
     0
102
RTVSPost2010PropOp45
 70
     1
102
RTVSPost2010Prop46
 90
       50
102
RTVSPost2010PropOp46
 70
     1
102
RTVSPost2010Prop47
 90
       50
102
RTVSPost2010PropOp47
 70
     1
102
RTVSPost2010Prop48
 90
       50
102
RTVSPost2010PropOp48
 70
     1
102
RTVSPost2010Prop49
280
     0
102
RTVSPost2010PropOp49
 70
     1
102
RTVSPost2010Prop50
 90
       50
102
RTVSPost2010PropOp50
 70
     1
102
RTVSPost2010Prop51ColorIndex
 90
      256
102
RTVSPost2010Prop51ColorRGB
 90
-16777216
102
RTVSPost2010PropOp51
 70
     0
102
RTVSPost2010Prop52
140
1.0
102
RTVSPost2010PropOp52
 70
     0
102
RTVSPost2010Prop53
 90
        2
102
RTVSPost2010PropOp53
 70
     1
102
RTVSPost2010Prop54
  1
strokes_ogs.tif
102
RTVSPost2010PropOp54
 70
     1
102
RTVSPost2010Prop55
280
     0
102
RTVSPost2010PropOp55
 70
     1
102
RTVSPost2010Prop56
140
1.0
102
RTVSPost2010PropOp56
 70
     1
102
RTVSPost2010Prop57
140
1.0
102
RTVSPost2010PropOp57
 70
     1
102
RTVSPropertyOp0
 70
     1
102
RTVSPropertyOp1
 70
     1
102
RTVSPropertyOp2
 70
     1
102
RTVSPropertyOp3
 70
     1
102
RTVSPropertyOp4
 70
     1
102
RTVSPropertyOp5
 70
     1
102
RTVSPropertyOp6
 70
     1
102
RTVSPropertyOp7
 70
     1
102
RTVSPropertyOp8
 70
     1
102
RTVSPropertyOp9
 70
     1
102
RTVSPropertyOp10
 70
     1
102
RTVSPropertyOp11
 70
     1
102
RTVSPropertyOp12
 70
     1
102
RTVSPropertyOp13
 70
     1
102
RTVSPropertyOp14
 70
     1
102
RTVSPropertyOp15
 70
     1
102
RTVSPropertyOp16
 70
     1
102
RTVSPropertyOp17
 70
     1
102
RTVSPropertyOp18
 70
     1
102
RTVSPropertyOp19
 70
     1
102
RTVSPropertyOp20
 70
     1
102
RTVSPropertyOp21
 70
     1
102
RTVSPropertyOp22
 70
     1
102
RTVSPropertyOp23
 70
     1
102
RTVSPropertyOp24
 70
     1
102
RTVSPropertyOp25
 70
     1
102
RTVSPropertyOp26
 70
     1
102
RTVSPropertyOp27
 70
     1
102
RTVSPropertyOp28
 70
     1
102
RTVSPropertyOp29
 70
     1
102
RTVSPropertyOp30
 70
     1
102
RTVSPropertyOp31
 70
     1
102
RTVSPropertyOp32
 70
     1
102
RTVSPropertyOp33
 70
     1
102
RTVSPropertyOp34
 70
     1
102
RTVSPropertyOp35
 70
     1
102
RTVSPropertyOp36
 70
     1
102
RTVSPropertyOp37
 70
     1
102
RTVSPropertyOp38
 70
     1
102
RTVSPropertyOp39
 70
     1
102
RTVSPropertyOp40
 70
     1
102
RTVSPropertyOp41
 70
     1
102
RTVSPropertyOp42
 70
     1
102
RTVSPropertyOp43
 70
     1
102
RTVSPropertyOp44
 70
     1
102
RTVSPropertyOp45
 70
     1
102
RTVSPropertyOp46
 70
     1
102
RTVSPropertyOp47
 70
     1
102
RTVSPropertyOp48
 70
     1
102
RTVSPropertyOp49
 70
     1
102
RTVSPropertyOp50
 70
     1
102
RTVSPropertyOp51
 70
     0
102
RTVSPropertyOp52
 70
     0
102
RTVSPropertyOp53
 70
     1
102
RTVSPropertyOp54
 70
     1
102
RTVSPropertyOp55
 70
     1
102
RTVSPropertyOp56
 70
     1
102
RTVSPropertyOp57
 70
     1
102
RTVSPropertyOp58
 70
     1
102
RTVSPropertyOp59
 70
     1
102
RTVSPropertyOp60
 70
     1
102
RTVSPropertyOp61
 70
     1
102
RTVSPropertyOp62
 70
     1
  0
XRECORD
  5
1626C
102
{ACAD_REACTORS
330
1626B
102
}
330
1626B
100
AcDbXrecord
280
     1
102
RTVSPost2010Prop28
280
     0
102
RTVSPost2010PropOp28
 70
     1
102
RTVSPost2010Prop29
280
     1
102
RTVSPost2010PropOp29
 70
     1
102
RTVSPost2010Prop30
280
     1
102
RTVSPost2010PropOp30
 70
     1
102
RTVSPost2010Prop31
280
     0
102
RTVSPost2010PropOp31
 70
     1
102
RTVSPost2010Prop32
280
     0
102
RTVSPost2010PropOp32
 70
     1
102
RTVSPost2010Prop33
280
     0
102
RTVSPost2010PropOp33
 70
     1
102
RTVSPost2010Prop34
280
     0
102
RTVSPost2010PropOp34
 70
     1
102
RTVSPost2010Prop35
280
     0
102
RTVSPost2010PropOp35
 70
     1
102
RTVSPost2010Prop36
280
     0
102
RTVSPost2010PropOp36
 70
     1
102
RTVSPost2010Prop37
 90
       50
102
RTVSPost2010PropOp37
 70
     1
102
RTVSPost2010Prop38
140
0.0
102
RTVSPost2010PropOp38
 70
     1
102
RTVSPost2010Prop39
140
1.0
102
RTVSPost2010PropOp39
 70
     1
102
RTVSPost2010Prop40
 90
        0
102
RTVSPost2010PropOp40
 70
     1
102
RTVSPost2010Prop41ColorIndex
 90
       18
102
RTVSPost2010Prop41ColorRGB
 90
        0
102
RTVSPost2010PropOp41
 70
     1
102
RTVSPost2010Prop42
 90
       50
102
RTVSPost2010PropOp42
 70
     1
102
RTVSPost2010Prop43
 90
        3
102
RTVSPost2010PropOp43
 70
     1
102
RTVSPost2010Prop44ColorIndex
 90
        5
102
RTVSPost2010Prop44ColorRGB
 90
      255
102
RTVSPost2010PropOp44
 70
     1
102
RTVSPost2010Prop45
280
     0
102
RTVSPost2010PropOp45
 70
     1
102
RTVSPost2010Prop46
 90
       50
102
RTVSPost2010PropOp46
 70
     1
102
RTVSPost2010Prop47
 90
       50
102
RTVSPost2010PropOp47
 70
     1
102
RTVSPost2010Prop48
 90
       50
102
RTVSPost2010PropOp48
 70
     1
102
RTVSPost2010Prop49
280
     0
102
RTVSPost2010PropOp49
 70
     1
102
RTVSPost2010Prop50
 90
       50
102
RTVSPost2010PropOp50
 70
     1
102
RTVSPost2010Prop51ColorIndex
 90
      256
102
RTVSPost2010Prop51ColorRGB
 90
-16777216
102
RTVSPost2010PropOp51
 70
     0
102
RTVSPost2010Prop52
140
1.0
102
RTVSPost2010PropOp52
 70
     0
102
RTVSPost2010Prop53
 90
        2
102
RTVSPost2010PropOp53
 70
     1
102
RTVSPost2010Prop54
  1
strokes_ogs.tif
102
RTVSPost2010PropOp54
 70
     1
102
RTVSPost2010Prop55
280
     0
102
RTVSPost2010PropOp55
 70
     1
102
RTVSPost2010Prop56
140
1.0
102
RTVSPost2010PropOp56
 70
     1
102
RTVSPost2010Prop57
140
1.0
102
RTVSPost2010PropOp57
 70
     1
102
RTVSPropertyOp0
 70
     1
102
RTVSPropertyOp1
 70
     1
102
RTVSPropertyOp2
 70
     1
102
RTVSPropertyOp3
 70
     1
102
RTVSPropertyOp4
 70
     1
102
RTVSPropertyOp5
 70
     1
102
RTVSPropertyOp6
 70
     1
102
RTVSPropertyOp7
 70
     1
102
RTVSPropertyOp8
 70
     1
102
RTVSPropertyOp9
 70
     1
102
RTVSPropertyOp10
 70
     1
102
RTVSPropertyOp11
 70
     1
102
RTVSPropertyOp12
 70
     1
102
RTVSPropertyOp13
 70
     1
102
RTVSPropertyOp14
 70
     1
102
RTVSPropertyOp15
 70
     1
102
RTVSPropertyOp16
 70
     1
102
RTVSPropertyOp17
 70
     1
102
RTVSPropertyOp18
 70
     1
102
RTVSPropertyOp19
 70
     1
102
RTVSPropertyOp20
 70
     1
102
RTVSPropertyOp21
 70
     1
102
RTVSPropertyOp22
 70
     1
102
RTVSPropertyOp23
 70
     1
102
RTVSPropertyOp24
 70
     1
102
RTVSPropertyOp25
 70
     1
102
RTVSPropertyOp26
 70
     1
102
RTVSPropertyOp27
 70
     1
102
RTVSPropertyOp28
 70
     1
102
RTVSPropertyOp29
 70
     1
102
RTVSPropertyOp30
 70
     1
102
RTVSPropertyOp31
 70
     1
102
RTVSPropertyOp32
 70
     1
102
RTVSPropertyOp33
 70
     1
102
RTVSPropertyOp34
 70
     1
102
RTVSPropertyOp35
 70
     1
102
RTVSPropertyOp36
 70
     1
102
RTVSPropertyOp37
 70
     1
102
RTVSPropertyOp38
 70
     1
102
RTVSPropertyOp39
 70
     1
102
RTVSPropertyOp40
 70
     1
102
RTVSPropertyOp41
 70
     1
102
RTVSPropertyOp42
 70
     1
102
RTVSPropertyOp43
 70
     1
102
RTVSPropertyOp44
 70
     1
102
RTVSPropertyOp45
 70
     1
102
RTVSPropertyOp46
 70
     1
102
RTVSPropertyOp47
 70
     1
102
RTVSPropertyOp48
 70
     1
102
RTVSPropertyOp49
 70
     1
102
RTVSPropertyOp50
 70
     1
102
RTVSPropertyOp51
 70
     0
102
RTVSPropertyOp52
 70
     0
102
RTVSPropertyOp53
 70
     1
102
RTVSPropertyOp54
 70
     1
102
RTVSPropertyOp55
 70
     1
102
RTVSPropertyOp56
 70
     1
102
RTVSPropertyOp57
 70
     1
102
RTVSPropertyOp58
 70
     1
102
RTVSPropertyOp59
 70
     1
102
RTVSPropertyOp60
 70
     1
102
RTVSPropertyOp61
 70
     1
102
RTVSPropertyOp62
 70
     1
  0
XRECORD
  5
1626E
102
{ACAD_REACTORS
330
1626D
102
}
330
1626D
100
AcDbXrecord
280
     1
102
RTVSPost2010Prop28
280
     0
102
RTVSPost2010PropOp28
 70
     1
102
RTVSPost2010Prop29
280
     1
102
RTVSPost2010PropOp29
 70
     1
102
RTVSPost2010Prop30
280
     1
102
RTVSPost2010PropOp30
 70
     1
102
RTVSPost2010Prop31
280
     0
102
RTVSPost2010PropOp31
 70
     1
102
RTVSPost2010Prop32
280
     0
102
RTVSPost2010PropOp32
 70
     1
102
RTVSPost2010Prop33
280
     0
102
RTVSPost2010PropOp33
 70
     1
102
RTVSPost2010Prop34
280
     0
102
RTVSPost2010PropOp34
 70
     1
102
RTVSPost2010Prop35
280
     0
102
RTVSPost2010PropOp35
 70
     1
102
RTVSPost2010Prop36
280
     0
102
RTVSPost2010PropOp36
 70
     1
102
RTVSPost2010Prop37
 90
       50
102
RTVSPost2010PropOp37
 70
     1
102
RTVSPost2010Prop38
140
0.0
102
RTVSPost2010PropOp38
 70
     1
102
RTVSPost2010Prop39
140
1.0
102
RTVSPost2010PropOp39
 70
     1
102
RTVSPost2010Prop40
 90
        0
102
RTVSPost2010PropOp40
 70
     1
102
RTVSPost2010Prop41ColorIndex
 90
       18
102
RTVSPost2010Prop41ColorRGB
 90
        0
102
RTVSPost2010PropOp41
 70
     1
102
RTVSPost2010Prop42
 90
       50
102
RTVSPost2010PropOp42
 70
     1
102
RTVSPost2010Prop43
 90
        3
102
RTVSPost2010PropOp43
 70
     1
102
RTVSPost2010Prop44ColorIndex
 90
        5
102
RTVSPost2010Prop44ColorRGB
 90
      255
102
RTVSPost2010PropOp44
 70
     1
102
RTVSPost2010Prop45
280
     0
102
RTVSPost2010PropOp45
 70
     1
102
RTVSPost2010Prop46
 90
       50
102
RTVSPost2010PropOp46
 70
     1
102
RTVSPost2010Prop47
 90
       50
102
RTVSPost2010PropOp47
 70
     1
102
RTVSPost2010Prop48
 90
       50
102
RTVSPost2010PropOp48
 70
     1
102
RTVSPost2010Prop49
280
     0
102
RTVSPost2010PropOp49
 70
     1
102
RTVSPost2010Prop50
 90
       50
102
RTVSPost2010PropOp50
 70
     1
102
RTVSPost2010Prop51ColorIndex
 90
      256
102
RTVSPost2010Prop51ColorRGB
 90
-16777216
102
RTVSPost2010PropOp51
 70
     0
102
RTVSPost2010Prop52
140
1.0
102
RTVSPost2010PropOp52
 70
     0
102
RTVSPost2010Prop53
 90
        2
102
RTVSPost2010PropOp53
 70
     1
102
RTVSPost2010Prop54
  1
strokes_ogs.tif
102
RTVSPost2010PropOp54
 70
     1
102
RTVSPost2010Prop55
280
     0
102
RTVSPost2010PropOp55
 70
     1
102
RTVSPost2010Prop56
140
1.0
102
RTVSPost2010PropOp56
 70
     1
102
RTVSPost2010Prop57
140
1.0
102
RTVSPost2010PropOp57
 70
     1
102
RTVSPropertyOp0
 70
     1
102
RTVSPropertyOp1
 70
     1
102
RTVSPropertyOp2
 70
     1
102
RTVSPropertyOp3
 70
     1
102
RTVSPropertyOp4
 70
     1
102
RTVSPropertyOp5
 70
     1
102
RTVSPropertyOp6
 70
     1
102
RTVSPropertyOp7
 70
     1
102
RTVSPropertyOp8
 70
     1
102
RTVSPropertyOp9
 70
     1
102
RTVSPropertyOp10
 70
     1
102
RTVSPropertyOp11
 70
     1
102
RTVSPropertyOp12
 70
     1
102
RTVSPropertyOp13
 70
     1
102
RTVSPropertyOp14
 70
     1
102
RTVSPropertyOp15
 70
     1
102
RTVSPropertyOp16
 70
     1
102
RTVSPropertyOp17
 70
     1
102
RTVSPropertyOp18
 70
     1
102
RTVSPropertyOp19
 70
     1
102
RTVSPropertyOp20
 70
     1
102
RTVSPropertyOp21
 70
     1
102
RTVSPropertyOp22
 70
     1
102
RTVSPropertyOp23
 70
     1
102
RTVSPropertyOp24
 70
     1
102
RTVSPropertyOp25
 70
     1
102
RTVSPropertyOp26
 70
     1
102
RTVSPropertyOp27
 70
     1
102
RTVSPropertyOp28
 70
     1
102
RTVSPropertyOp29
 70
     1
102
RTVSPropertyOp30
 70
     1
102
RTVSPropertyOp31
 70
     1
102
RTVSPropertyOp32
 70
     1
102
RTVSPropertyOp33
 70
     1
102
RTVSPropertyOp34
 70
     1
102
RTVSPropertyOp35
 70
     1
102
RTVSPropertyOp36
 70
     1
102
RTVSPropertyOp37
 70
     1
102
RTVSPropertyOp38
 70
     1
102
RTVSPropertyOp39
 70
     1
102
RTVSPropertyOp40
 70
     1
102
RTVSPropertyOp41
 70
     1
102
RTVSPropertyOp42
 70
     1
102
RTVSPropertyOp43
 70
     1
102
RTVSPropertyOp44
 70
     1
102
RTVSPropertyOp45
 70
     1
102
RTVSPropertyOp46
 70
     1
102
RTVSPropertyOp47
 70
     1
102
RTVSPropertyOp48
 70
     1
102
RTVSPropertyOp49
 70
     1
102
RTVSPropertyOp50
 70
     1
102
RTVSPropertyOp51
 70
     0
102
RTVSPropertyOp52
 70
     0
102
RTVSPropertyOp53
 70
     1
102
RTVSPropertyOp54
 70
     1
102
RTVSPropertyOp55
 70
     1
102
RTVSPropertyOp56
 70
     1
102
RTVSPropertyOp57
 70
     1
102
RTVSPropertyOp58
 70
     1
102
RTVSPropertyOp59
 70
     1
102
RTVSPropertyOp60
 70
     1
102
RTVSPropertyOp61
 70
     1
102
RTVSPropertyOp62
 70
     1
  0
XRECORD
  5
16270
102
{ACAD_REACTORS
330
1626F
102
}
330
1626F
100
AcDbXrecord
280
     1
102
RTVSPost2010Prop28
280
     0
102
RTVSPost2010PropOp28
 70
     1
102
RTVSPost2010Prop29
280
     1
102
RTVSPost2010PropOp29
 70
     1
102
RTVSPost2010Prop30
280
     1
102
RTVSPost2010PropOp30
 70
     1
102
RTVSPost2010Prop31
280
     0
102
RTVSPost2010PropOp31
 70
     1
102
RTVSPost2010Prop32
280
     0
102
RTVSPost2010PropOp32
 70
     1
102
RTVSPost2010Prop33
280
     0
102
RTVSPost2010PropOp33
 70
     1
102
RTVSPost2010Prop34
280
     0
102
RTVSPost2010PropOp34
 70
     1
102
RTVSPost2010Prop35
280
     0
102
RTVSPost2010PropOp35
 70
     1
102
RTVSPost2010Prop36
280
     0
102
RTVSPost2010PropOp36
 70
     1
102
RTVSPost2010Prop37
 90
       50
102
RTVSPost2010PropOp37
 70
     1
102
RTVSPost2010Prop38
140
0.0
102
RTVSPost2010PropOp38
 70
     1
102
RTVSPost2010Prop39
140
1.0
102
RTVSPost2010PropOp39
 70
     1
102
RTVSPost2010Prop40
 90
        0
102
RTVSPost2010PropOp40
 70
     1
102
RTVSPost2010Prop41ColorIndex
 90
       18
102
RTVSPost2010Prop41ColorRGB
 90
        0
102
RTVSPost2010PropOp41
 70
     1
102
RTVSPost2010Prop42
 90
       50
102
RTVSPost2010PropOp42
 70
     1
102
RTVSPost2010Prop43
 90
        3
102
RTVSPost2010PropOp43
 70
     1
102
RTVSPost2010Prop44ColorIndex
 90
        5
102
RTVSPost2010Prop44ColorRGB
 90
      255
102
RTVSPost2010PropOp44
 70
     1
102
RTVSPost2010Prop45
280
     0
102
RTVSPost2010PropOp45
 70
     1
102
RTVSPost2010Prop46
 90
       50
102
RTVSPost2010PropOp46
 70
     1
102
RTVSPost2010Prop47
 90
       50
102
RTVSPost2010PropOp47
 70
     1
102
RTVSPost2010Prop48
 90
       50
102
RTVSPost2010PropOp48
 70
     1
102
RTVSPost2010Prop49
280
     0
102
RTVSPost2010PropOp49
 70
     1
102
RTVSPost2010Prop50
 90
       50
102
RTVSPost2010PropOp50
 70
     1
102
RTVSPost2010Prop51ColorIndex
 90
      256
102
RTVSPost2010Prop51ColorRGB
 90
-16777216
102
RTVSPost2010PropOp51
 70
     0
102
RTVSPost2010Prop52
140
1.0
102
RTVSPost2010PropOp52
 70
     0
102
RTVSPost2010Prop53
 90
        2
102
RTVSPost2010PropOp53
 70
     1
102
RTVSPost2010Prop54
  1
strokes_ogs.tif
102
RTVSPost2010PropOp54
 70
     1
102
RTVSPost2010Prop55
280
     0
102
RTVSPost2010PropOp55
 70
     1
102
RTVSPost2010Prop56
140
1.0
102
RTVSPost2010PropOp56
 70
     1
102
RTVSPost2010Prop57
140
1.0
102
RTVSPost2010PropOp57
 70
     1
102
RTVSPropertyOp0
 70
     1
102
RTVSPropertyOp1
 70
     1
102
RTVSPropertyOp2
 70
     1
102
RTVSPropertyOp3
 70
     1
102
RTVSPropertyOp4
 70
     1
102
RTVSPropertyOp5
 70
     1
102
RTVSPropertyOp6
 70
     1
102
RTVSPropertyOp7
 70
     1
102
RTVSPropertyOp8
 70
     1
102
RTVSPropertyOp9
 70
     1
102
RTVSPropertyOp10
 70
     1
102
RTVSPropertyOp11
 70
     1
102
RTVSPropertyOp12
 70
     1
102
RTVSPropertyOp13
 70
     1
102
RTVSPropertyOp14
 70
     1
102
RTVSPropertyOp15
 70
     1
102
RTVSPropertyOp16
 70
     1
102
RTVSPropertyOp17
 70
     1
102
RTVSPropertyOp18
 70
     1
102
RTVSPropertyOp19
 70
     1
102
RTVSPropertyOp20
 70
     1
102
RTVSPropertyOp21
 70
     1
102
RTVSPropertyOp22
 70
     1
102
RTVSPropertyOp23
 70
     1
102
RTVSPropertyOp24
 70
     1
102
RTVSPropertyOp25
 70
     1
102
RTVSPropertyOp26
 70
     1
102
RTVSPropertyOp27
 70
     1
102
RTVSPropertyOp28
 70
     1
102
RTVSPropertyOp29
 70
     1
102
RTVSPropertyOp30
 70
     1
102
RTVSPropertyOp31
 70
     1
102
RTVSPropertyOp32
 70
     1
102
RTVSPropertyOp33
 70
     1
102
RTVSPropertyOp34
 70
     1
102
RTVSPropertyOp35
 70
     1
102
RTVSPropertyOp36
 70
     1
102
RTVSPropertyOp37
 70
     1
102
RTVSPropertyOp38
 70
     1
102
RTVSPropertyOp39
 70
     1
102
RTVSPropertyOp40
 70
     1
102
RTVSPropertyOp41
 70
     1
102
RTVSPropertyOp42
 70
     1
102
RTVSPropertyOp43
 70
     1
102
RTVSPropertyOp44
 70
     1
102
RTVSPropertyOp45
 70
     1
102
RTVSPropertyOp46
 70
     1
102
RTVSPropertyOp47
 70
     1
102
RTVSPropertyOp48
 70
     1
102
RTVSPropertyOp49
 70
     1
102
RTVSPropertyOp50
 70
     1
102
RTVSPropertyOp51
 70
     0
102
RTVSPropertyOp52
 70
     0
102
RTVSPropertyOp53
 70
     1
102
RTVSPropertyOp54
 70
     1
102
RTVSPropertyOp55
 70
     1
102
RTVSPropertyOp56
 70
     1
102
RTVSPropertyOp57
 70
     1
102
RTVSPropertyOp58
 70
     1
102
RTVSPropertyOp59
 70
     1
102
RTVSPropertyOp60
 70
     1
102
RTVSPropertyOp61
 70
     1
102
RTVSPropertyOp62
 70
     1
  0
XRECORD
  5
16278
102
{ACAD_REACTORS
330
16277
102
}
330
16277
100
AcDbXrecord
280
     1
102
RTVSPost2010Prop28
280
     0
102
RTVSPost2010PropOp28
 70
     1
102
RTVSPost2010Prop29
280
     1
102
RTVSPost2010PropOp29
 70
     1
102
RTVSPost2010Prop30
280
     1
102
RTVSPost2010PropOp30
 70
     1
102
RTVSPost2010Prop31
280
     0
102
RTVSPost2010PropOp31
 70
     1
102
RTVSPost2010Prop32
280
     0
102
RTVSPost2010PropOp32
 70
     1
102
RTVSPost2010Prop33
280
     0
102
RTVSPost2010PropOp33
 70
     1
102
RTVSPost2010Prop34
280
     0
102
RTVSPost2010PropOp34
 70
     1
102
RTVSPost2010Prop35
280
     0
102
RTVSPost2010PropOp35
 70
     1
102
RTVSPost2010Prop36
280
     0
102
RTVSPost2010PropOp36
 70
     1
102
RTVSPost2010Prop37
 90
       50
102
RTVSPost2010PropOp37
 70
     1
102
RTVSPost2010Prop38
140
0.0
102
RTVSPost2010PropOp38
 70
     1
102
RTVSPost2010Prop39
140
1.0
102
RTVSPost2010PropOp39
 70
     1
102
RTVSPost2010Prop40
 90
        0
102
RTVSPost2010PropOp40
 70
     1
102
RTVSPost2010Prop41ColorIndex
 90
       18
102
RTVSPost2010Prop41ColorRGB
 90
        0
102
RTVSPost2010PropOp41
 70
     1
102
RTVSPost2010Prop42
 90
       50
102
RTVSPost2010PropOp42
 70
     1
102
RTVSPost2010Prop43
 90
        3
102
RTVSPost2010PropOp43
 70
     1
102
RTVSPost2010Prop44ColorIndex
 90
        5
102
RTVSPost2010Prop44ColorRGB
 90
      255
102
RTVSPost2010PropOp44
 70
     1
102
RTVSPost2010Prop45
280
     0
102
RTVSPost2010PropOp45
 70
     1
102
RTVSPost2010Prop46
 90
       50
102
RTVSPost2010PropOp46
 70
     1
102
RTVSPost2010Prop47
 90
       50
102
RTVSPost2010PropOp47
 70
     1
102
RTVSPost2010Prop48
 90
       50
102
RTVSPost2010PropOp48
 70
     1
102
RTVSPost2010Prop49
280
     0
102
RTVSPost2010PropOp49
 70
     1
102
RTVSPost2010Prop50
 90
       50
102
RTVSPost2010PropOp50
 70
     1
102
RTVSPost2010Prop51ColorIndex
 90
      256
102
RTVSPost2010Prop51ColorRGB
 90
-16777216
102
RTVSPost2010PropOp51
 70
     0
102
RTVSPost2010Prop52
140
1.0
102
RTVSPost2010PropOp52
 70
     0
102
RTVSPost2010Prop53
 90
        2
102
RTVSPost2010PropOp53
 70
     1
102
RTVSPost2010Prop54
  1
strokes_ogs.tif
102
RTVSPost2010PropOp54
 70
     1
102
RTVSPost2010Prop55
280
     0
102
RTVSPost2010PropOp55
 70
     1
102
RTVSPost2010Prop56
140
1.0
102
RTVSPost2010PropOp56
 70
     1
102
RTVSPost2010Prop57
140
1.0
102
RTVSPost2010PropOp57
 70
     1
102
RTVSPropertyOp0
 70
     1
102
RTVSPropertyOp1
 70
     1
102
RTVSPropertyOp2
 70
     1
102
RTVSPropertyOp3
 70
     1
102
RTVSPropertyOp4
 70
     1
102
RTVSPropertyOp5
 70
     1
102
RTVSPropertyOp6
 70
     1
102
RTVSPropertyOp7
 70
     1
102
RTVSPropertyOp8
 70
     1
102
RTVSPropertyOp9
 70
     1
102
RTVSPropertyOp10
 70
     1
102
RTVSPropertyOp11
 70
     1
102
RTVSPropertyOp12
 70
     1
102
RTVSPropertyOp13
 70
     1
102
RTVSPropertyOp14
 70
     1
102
RTVSPropertyOp15
 70
     1
102
RTVSPropertyOp16
 70
     1
102
RTVSPropertyOp17
 70
     1
102
RTVSPropertyOp18
 70
     1
102
RTVSPropertyOp19
 70
     1
102
RTVSPropertyOp20
 70
     1
102
RTVSPropertyOp21
 70
     1
102
RTVSPropertyOp22
 70
     1
102
RTVSPropertyOp23
 70
     1
102
RTVSPropertyOp24
 70
     1
102
RTVSPropertyOp25
 70
     1
102
RTVSPropertyOp26
 70
     1
102
RTVSPropertyOp27
 70
     1
102
RTVSPropertyOp28
 70
     1
102
RTVSPropertyOp29
 70
     1
102
RTVSPropertyOp30
 70
     1
102
RTVSPropertyOp31
 70
     1
102
RTVSPropertyOp32
 70
     1
102
RTVSPropertyOp33
 70
     1
102
RTVSPropertyOp34
 70
     1
102
RTVSPropertyOp35
 70
     1
102
RTVSPropertyOp36
 70
     1
102
RTVSPropertyOp37
 70
     1
102
RTVSPropertyOp38
 70
     1
102
RTVSPropertyOp39
 70
     1
102
RTVSPropertyOp40
 70
     1
102
RTVSPropertyOp41
 70
     1
102
RTVSPropertyOp42
 70
     1
102
RTVSPropertyOp43
 70
     1
102
RTVSPropertyOp44
 70
     1
102
RTVSPropertyOp45
 70
     1
102
RTVSPropertyOp46
 70
     1
102
RTVSPropertyOp47
 70
     1
102
RTVSPropertyOp48
 70
     1
102
RTVSPropertyOp49
 70
     1
102
RTVSPropertyOp50
 70
     1
102
RTVSPropertyOp51
 70
     0
102
RTVSPropertyOp52
 70
     0
102
RTVSPropertyOp53
 70
     1
102
RTVSPropertyOp54
 70
     1
102
RTVSPropertyOp55
 70
     1
102
RTVSPropertyOp56
 70
     1
102
RTVSPropertyOp57
 70
     1
102
RTVSPropertyOp58
 70
     1
102
RTVSPropertyOp59
 70
     1
102
RTVSPropertyOp60
 70
     1
102
RTVSPropertyOp61
 70
     1
102
RTVSPropertyOp62
 70
     1
  0
XRECORD
  5
16294
102
{ACAD_REACTORS
330
16293
102
}
330
16293
100
AcDbXrecord
280
     1
102
RTVSPost2010Prop28
280
     0
102
RTVSPost2010PropOp28
 70
     0
102
RTVSPost2010Prop29
280
     1
102
RTVSPost2010PropOp29
 70
     0
102
RTVSPost2010Prop30
280
     1
102
RTVSPost2010PropOp30
 70
     0
102
RTVSPost2010Prop31
280
     0
102
RTVSPost2010PropOp31
 70
     0
102
RTVSPost2010Prop32
280
     0
102
RTVSPost2010PropOp32
 70
     0
102
RTVSPost2010Prop33
280
     0
102
RTVSPost2010PropOp33
 70
     0
102
RTVSPost2010Prop34
280
     0
102
RTVSPost2010PropOp34
 70
     0
102
RTVSPost2010Prop35
280
     0
102
RTVSPost2010PropOp35
 70
     0
102
RTVSPost2010Prop36
280
     0
102
RTVSPost2010PropOp36
 70
     0
102
RTVSPost2010Prop37
 90
       50
102
RTVSPost2010PropOp37
 70
     0
102
RTVSPost2010Prop38
140
0.0
102
RTVSPost2010PropOp38
 70
     0
102
RTVSPost2010Prop39
140
1.0
102
RTVSPost2010PropOp39
 70
     0
102
RTVSPost2010Prop40
 90
        0
102
RTVSPost2010PropOp40
 70
     0
102
RTVSPost2010Prop41ColorIndex
 90
       18
102
RTVSPost2010Prop41ColorRGB
 90
        0
102
RTVSPost2010PropOp41
 70
     0
102
RTVSPost2010Prop42
 90
       50
102
RTVSPost2010PropOp42
 70
     0
102
RTVSPost2010Prop43
 90
        3
102
RTVSPost2010PropOp43
 70
     0
102
RTVSPost2010Prop44ColorIndex
 90
        5
102
RTVSPost2010Prop44ColorRGB
 90
      255
102
RTVSPost2010PropOp44
 70
     0
102
RTVSPost2010Prop45
280
     0
102
RTVSPost2010PropOp45
 70
     0
102
RTVSPost2010Prop46
 90
       50
102
RTVSPost2010PropOp46
 70
     0
102
RTVSPost2010Prop47
 90
       50
102
RTVSPost2010PropOp47
 70
     0
102
RTVSPost2010Prop48
 90
       50
102
RTVSPost2010PropOp48
 70
     0
102
RTVSPost2010Prop49
280
     0
102
RTVSPost2010PropOp49
 70
     0
102
RTVSPost2010Prop50
 90
       50
102
RTVSPost2010PropOp50
 70
     0
102
RTVSPost2010Prop51ColorIndex
 90
      256
102
RTVSPost2010Prop51ColorRGB
 90
-16777216
102
RTVSPost2010PropOp51
 70
     0
102
RTVSPost2010Prop52
140
1.0
102
RTVSPost2010PropOp52
 70
     0
102
RTVSPost2010Prop53
 90
        2
102
RTVSPost2010PropOp53
 70
     0
102
RTVSPost2010Prop54
  1
strokes_ogs.tif
102
RTVSPost2010PropOp54
 70
     0
102
RTVSPost2010Prop55
280
     0
102
RTVSPost2010PropOp55
 70
     0
102
RTVSPost2010Prop56
140
1.0
102
RTVSPost2010PropOp56
 70
     0
102
RTVSPost2010Prop57
140
1.0
102
RTVSPost2010PropOp57
 70
     0
102
RTVSPropertyOp0
 70
     0
102
RTVSPropertyOp1
 70
     0
102
RTVSPropertyOp2
 70
     0
102
RTVSPropertyOp3
 70
     0
102
RTVSPropertyOp4
 70
     0
102
RTVSPropertyOp5
 70
     0
102
RTVSPropertyOp6
 70
     0
102
RTVSPropertyOp7
 70
     0
102
RTVSPropertyOp8
 70
     0
102
RTVSPropertyOp9
 70
     0
102
RTVSPropertyOp10
 70
     0
102
RTVSPropertyOp11
 70
     0
102
RTVSPropertyOp12
 70
     0
102
RTVSPropertyOp13
 70
     0
102
RTVSPropertyOp14
 70
     2
102
RTVSPropertyOp15
 70
     0
102
RTVSPropertyOp16
 70
     0
102
RTVSPropertyOp17
 70
     0
102
RTVSPropertyOp18
 70
     0
102
RTVSPropertyOp19
 70
     0
102
RTVSPropertyOp20
 70
     0
102
RTVSPropertyOp21
 70
     0
102
RTVSPropertyOp22
 70
     0
102
RTVSPropertyOp23
 70
     0
102
RTVSPropertyOp24
 70
     0
102
RTVSPropertyOp25
 70
     0
102
RTVSPropertyOp26
 70
     0
102
RTVSPropertyOp27
 70
     0
102
RTVSPropertyOp28
 70
     0
102
RTVSPropertyOp29
 70
     0
102
RTVSPropertyOp30
 70
     0
102
RTVSPropertyOp31
 70
     0
102
RTVSPropertyOp32
 70
     0
102
RTVSPropertyOp33
 70
     0
102
RTVSPropertyOp34
 70
     0
102
RTVSPropertyOp35
 70
     0
102
RTVSPropertyOp36
 70
     0
102
RTVSPropertyOp37
 70
     0
102
RTVSPropertyOp38
 70
     0
102
RTVSPropertyOp39
 70
     0
102
RTVSPropertyOp40
 70
     0
102
RTVSPropertyOp41
 70
     0
102
RTVSPropertyOp42
 70
     0
102
RTVSPropertyOp43
 70
     0
102
RTVSPropertyOp44
 70
     0
102
RTVSPropertyOp45
 70
     0
102
RTVSPropertyOp46
 70
     0
102
RTVSPropertyOp47
 70
     0
102
RTVSPropertyOp48
 70
     0
102
RTVSPropertyOp49
 70
     0
102
RTVSPropertyOp50
 70
     0
102
RTVSPropertyOp51
 70
     0
102
RTVSPropertyOp52
 70
     0
102
RTVSPropertyOp53
 70
     0
102
RTVSPropertyOp54
 70
     0
102
RTVSPropertyOp55
 70
     0
102
RTVSPropertyOp56
 70
     0
102
RTVSPropertyOp57
 70
     0
102
RTVSPropertyOp58
 70
     0
102
RTVSPropertyOp59
 70
     0
102
RTVSPropertyOp60
 70
     0
102
RTVSPropertyOp61
 70
     0
102
RTVSPropertyOp62
 70
     0
  0
XRECORD
  5
16284
102
{ACAD_REACTORS
330
16283
102
}
330
16283
100
AcDbXrecord
280
     1
102
RTVSPost2010Prop28
280
     0
102
RTVSPost2010PropOp28
 70
     1
102
RTVSPost2010Prop29
280
     1
102
RTVSPost2010PropOp29
 70
     1
102
RTVSPost2010Prop30
280
     1
102
RTVSPost2010PropOp30
 70
     1
102
RTVSPost2010Prop31
280
     0
102
RTVSPost2010PropOp31
 70
     1
102
RTVSPost2010Prop32
280
     0
102
RTVSPost2010PropOp32
 70
     1
102
RTVSPost2010Prop33
280
     0
102
RTVSPost2010PropOp33
 70
     1
102
RTVSPost2010Prop34
280
     0
102
RTVSPost2010PropOp34
 70
     1
102
RTVSPost2010Prop35
280
     0
102
RTVSPost2010PropOp35
 70
     1
102
RTVSPost2010Prop36
280
     0
102
RTVSPost2010PropOp36
 70
     1
102
RTVSPost2010Prop37
 90
       50
102
RTVSPost2010PropOp37
 70
     1
102
RTVSPost2010Prop38
140
0.0
102
RTVSPost2010PropOp38
 70
     1
102
RTVSPost2010Prop39
140
1.0
102
RTVSPost2010PropOp39
 70
     1
102
RTVSPost2010Prop40
 90
        0
102
RTVSPost2010PropOp40
 70
     1
102
RTVSPost2010Prop41ColorIndex
 90
       18
102
RTVSPost2010Prop41ColorRGB
 90
        0
102
RTVSPost2010PropOp41
 70
     1
102
RTVSPost2010Prop42
 90
       50
102
RTVSPost2010PropOp42
 70
     1
102
RTVSPost2010Prop43
 90
        3
102
RTVSPost2010PropOp43
 70
     1
102
RTVSPost2010Prop44ColorIndex
 90
        5
102
RTVSPost2010Prop44ColorRGB
 90
      255
102
RTVSPost2010PropOp44
 70
     1
102
RTVSPost2010Prop45
280
     0
102
RTVSPost2010PropOp45
 70
     1
102
RTVSPost2010Prop46
 90
       50
102
RTVSPost2010PropOp46
 70
     1
102
RTVSPost2010Prop47
 90
       50
102
RTVSPost2010PropOp47
 70
     1
102
RTVSPost2010Prop48
 90
       50
102
RTVSPost2010PropOp48
 70
     1
102
RTVSPost2010Prop49
280
     0
102
RTVSPost2010PropOp49
 70
     1
102
RTVSPost2010Prop50
 90
       50
102
RTVSPost2010PropOp50
 70
     1
102
RTVSPost2010Prop51ColorIndex
 90
      256
102
RTVSPost2010Prop51ColorRGB
 90
-16777216
102
RTVSPost2010PropOp51
 70
     0
102
RTVSPost2010Prop52
140
1.0
102
RTVSPost2010PropOp52
 70
     0
102
RTVSPost2010Prop53
 90
        2
102
RTVSPost2010PropOp53
 70
     1
102
RTVSPost2010Prop54
  1
strokes_ogs.tif
102
RTVSPost2010PropOp54
 70
     1
102
RTVSPost2010Prop55
280
     0
102
RTVSPost2010PropOp55
 70
     1
102
RTVSPost2010Prop56
140
1.0
102
RTVSPost2010PropOp56
 70
     1
102
RTVSPost2010Prop57
140
1.0
102
RTVSPost2010PropOp57
 70
     1
102
RTVSPropertyOp0
 70
     1
102
RTVSPropertyOp1
 70
     1
102
RTVSPropertyOp2
 70
     1
102
RTVSPropertyOp3
 70
     1
102
RTVSPropertyOp4
 70
     1
102
RTVSPropertyOp5
 70
     1
102
RTVSPropertyOp6
 70
     1
102
RTVSPropertyOp7
 70
     1
102
RTVSPropertyOp8
 70
     1
102
RTVSPropertyOp9
 70
     1
102
RTVSPropertyOp10
 70
     1
102
RTVSPropertyOp11
 70
     1
102
RTVSPropertyOp12
 70
     1
102
RTVSPropertyOp13
 70
     1
102
RTVSPropertyOp14
 70
     1
102
RTVSPropertyOp15
 70
     1
102
RTVSPropertyOp16
 70
     1
102
RTVSPropertyOp17
 70
     1
102
RTVSPropertyOp18
 70
     1
102
RTVSPropertyOp19
 70
     1
102
RTVSPropertyOp20
 70
     1
102
RTVSPropertyOp21
 70
     1
102
RTVSPropertyOp22
 70
     1
102
RTVSPropertyOp23
 70
     1
102
RTVSPropertyOp24
 70
     1
102
RTVSPropertyOp25
 70
     1
102
RTVSPropertyOp26
 70
     1
102
RTVSPropertyOp27
 70
     1
102
RTVSPropertyOp28
 70
     1
102
RTVSPropertyOp29
 70
     1
102
RTVSPropertyOp30
 70
     1
102
RTVSPropertyOp31
 70
     1
102
RTVSPropertyOp32
 70
     1
102
RTVSPropertyOp33
 70
     1
102
RTVSPropertyOp34
 70
     1
102
RTVSPropertyOp35
 70
     1
102
RTVSPropertyOp36
 70
     1
102
RTVSPropertyOp37
 70
     1
102
RTVSPropertyOp38
 70
     1
102
RTVSPropertyOp39
 70
     1
102
RTVSPropertyOp40
 70
     1
102
RTVSPropertyOp41
 70
     1
102
RTVSPropertyOp42
 70
     1
102
RTVSPropertyOp43
 70
     1
102
RTVSPropertyOp44
 70
     1
102
RTVSPropertyOp45
 70
     1
102
RTVSPropertyOp46
 70
     1
102
RTVSPropertyOp47
 70
     1
102
RTVSPropertyOp48
 70
     1
102
RTVSPropertyOp49
 70
     1
102
RTVSPropertyOp50
 70
     1
102
RTVSPropertyOp51
 70
     0
102
RTVSPropertyOp52
 70
     0
102
RTVSPropertyOp53
 70
     1
102
RTVSPropertyOp54
 70
     1
102
RTVSPropertyOp55
 70
     1
102
RTVSPropertyOp56
 70
     1
102
RTVSPropertyOp57
 70
     1
102
RTVSPropertyOp58
 70
     1
102
RTVSPropertyOp59
 70
     1
102
RTVSPropertyOp60
 70
     1
102
RTVSPropertyOp61
 70
     1
102
RTVSPropertyOp62
 70
     1
  0
XRECORD
  5
16296
102
{ACAD_REACTORS
330
16295
102
}
330
16295
100
AcDbXrecord
280
     1
102
RTVSPost2010Prop28
280
     0
102
RTVSPost2010PropOp28
 70
     0
102
RTVSPost2010Prop29
280
     1
102
RTVSPost2010PropOp29
 70
     0
102
RTVSPost2010Prop30
280
     1
102
RTVSPost2010PropOp30
 70
     0
102
RTVSPost2010Prop31
280
     0
102
RTVSPost2010PropOp31
 70
     0
102
RTVSPost2010Prop32
280
     0
102
RTVSPost2010PropOp32
 70
     0
102
RTVSPost2010Prop33
280
     0
102
RTVSPost2010PropOp33
 70
     0
102
RTVSPost2010Prop34
280
     0
102
RTVSPost2010PropOp34
 70
     0
102
RTVSPost2010Prop35
280
     0
102
RTVSPost2010PropOp35
 70
     0
102
RTVSPost2010Prop36
280
     0
102
RTVSPost2010PropOp36
 70
     0
102
RTVSPost2010Prop37
 90
       50
102
RTVSPost2010PropOp37
 70
     0
102
RTVSPost2010Prop38
140
0.0
102
RTVSPost2010PropOp38
 70
     0
102
RTVSPost2010Prop39
140
1.0
102
RTVSPost2010PropOp39
 70
     0
102
RTVSPost2010Prop40
 90
        0
102
RTVSPost2010PropOp40
 70
     0
102
RTVSPost2010Prop41ColorIndex
 90
       18
102
RTVSPost2010Prop41ColorRGB
 90
        0
102
RTVSPost2010PropOp41
 70
     0
102
RTVSPost2010Prop42
 90
       50
102
RTVSPost2010PropOp42
 70
     0
102
RTVSPost2010Prop43
 90
        3
102
RTVSPost2010PropOp43
 70
     0
102
RTVSPost2010Prop44ColorIndex
 90
        5
102
RTVSPost2010Prop44ColorRGB
 90
      255
102
RTVSPost2010PropOp44
 70
     0
102
RTVSPost2010Prop45
280
     0
102
RTVSPost2010PropOp45
 70
     0
102
RTVSPost2010Prop46
 90
       50
102
RTVSPost2010PropOp46
 70
     0
102
RTVSPost2010Prop47
 90
       50
102
RTVSPost2010PropOp47
 70
     0
102
RTVSPost2010Prop48
 90
       50
102
RTVSPost2010PropOp48
 70
     0
102
RTVSPost2010Prop49
280
     0
102
RTVSPost2010PropOp49
 70
     0
102
RTVSPost2010Prop50
 90
       50
102
RTVSPost2010PropOp50
 70
     0
102
RTVSPost2010Prop51ColorIndex
 90
      256
102
RTVSPost2010Prop51ColorRGB
 90
-16777216
102
RTVSPost2010PropOp51
 70
     0
102
RTVSPost2010Prop52
140
1.0
102
RTVSPost2010PropOp52
 70
     0
102
RTVSPost2010Prop53
 90
        2
102
RTVSPost2010PropOp53
 70
     0
102
RTVSPost2010Prop54
  1
strokes_ogs.tif
102
RTVSPost2010PropOp54
 70
     0
102
RTVSPost2010Prop55
280
     0
102
RTVSPost2010PropOp55
 70
     0
102
RTVSPost2010Prop56
140
1.0
102
RTVSPost2010PropOp56
 70
     0
102
RTVSPost2010Prop57
140
1.0
102
RTVSPost2010PropOp57
 70
     0
102
RTVSPropertyOp0
 70
     0
102
RTVSPropertyOp1
 70
     0
102
RTVSPropertyOp2
 70
     0
102
RTVSPropertyOp3
 70
     0
102
RTVSPropertyOp4
 70
     0
102
RTVSPropertyOp5
 70
     0
102
RTVSPropertyOp6
 70
     0
102
RTVSPropertyOp7
 70
     0
102
RTVSPropertyOp8
 70
     0
102
RTVSPropertyOp9
 70
     0
102
RTVSPropertyOp10
 70
     0
102
RTVSPropertyOp11
 70
     0
102
RTVSPropertyOp12
 70
     0
102
RTVSPropertyOp13
 70
     0
102
RTVSPropertyOp14
 70
     2
102
RTVSPropertyOp15
 70
     0
102
RTVSPropertyOp16
 70
     0
102
RTVSPropertyOp17
 70
     0
102
RTVSPropertyOp18
 70
     0
102
RTVSPropertyOp19
 70
     0
102
RTVSPropertyOp20
 70
     0
102
RTVSPropertyOp21
 70
     0
102
RTVSPropertyOp22
 70
     0
102
RTVSPropertyOp23
 70
     0
102
RTVSPropertyOp24
 70
     0
102
RTVSPropertyOp25
 70
     0
102
RTVSPropertyOp26
 70
     0
102
RTVSPropertyOp27
 70
     0
102
RTVSPropertyOp28
 70
     0
102
RTVSPropertyOp29
 70
     0
102
RTVSPropertyOp30
 70
     0
102
RTVSPropertyOp31
 70
     0
102
RTVSPropertyOp32
 70
     0
102
RTVSPropertyOp33
 70
     0
102
RTVSPropertyOp34
 70
     0
102
RTVSPropertyOp35
 70
     0
102
RTVSPropertyOp36
 70
     0
102
RTVSPropertyOp37
 70
     0
102
RTVSPropertyOp38
 70
     0
102
RTVSPropertyOp39
 70
     0
102
RTVSPropertyOp40
 70
     0
102
RTVSPropertyOp41
 70
     0
102
RTVSPropertyOp42
 70
     0
102
RTVSPropertyOp43
 70
     0
102
RTVSPropertyOp44
 70
     0
102
RTVSPropertyOp45
 70
     0
102
RTVSPropertyOp46
 70
     0
102
RTVSPropertyOp47
 70
     0
102
RTVSPropertyOp48
 70
     0
102
RTVSPropertyOp49
 70
     0
102
RTVSPropertyOp50
 70
     0
102
RTVSPropertyOp51
 70
     0
102
RTVSPropertyOp52
 70
     0
102
RTVSPropertyOp53
 70
     0
102
RTVSPropertyOp54
 70
     0
102
RTVSPropertyOp55
 70
     0
102
RTVSPropertyOp56
 70
     0
102
RTVSPropertyOp57
 70
     0
102
RTVSPropertyOp58
 70
     0
102
RTVSPropertyOp59
 70
     0
102
RTVSPropertyOp60
 70
     0
102
RTVSPropertyOp61
 70
     0
102
RTVSPropertyOp62
 70
     0
  0
XRECORD
  5
1627C
102
{ACAD_REACTORS
330
1627B
102
}
330
1627B
100
AcDbXrecord
280
     1
102
RTVSPost2010Prop28
280
     0
102
RTVSPost2010PropOp28
 70
     1
102
RTVSPost2010Prop29
280
     1
102
RTVSPost2010PropOp29
 70
     1
102
RTVSPost2010Prop30
280
     1
102
RTVSPost2010PropOp30
 70
     1
102
RTVSPost2010Prop31
280
     0
102
RTVSPost2010PropOp31
 70
     1
102
RTVSPost2010Prop32
280
     0
102
RTVSPost2010PropOp32
 70
     1
102
RTVSPost2010Prop33
280
     0
102
RTVSPost2010PropOp33
 70
     1
102
RTVSPost2010Prop34
280
     0
102
RTVSPost2010PropOp34
 70
     1
102
RTVSPost2010Prop35
280
     0
102
RTVSPost2010PropOp35
 70
     1
102
RTVSPost2010Prop36
280
     0
102
RTVSPost2010PropOp36
 70
     1
102
RTVSPost2010Prop37
 90
       50
102
RTVSPost2010PropOp37
 70
     1
102
RTVSPost2010Prop38
140
0.0
102
RTVSPost2010PropOp38
 70
     1
102
RTVSPost2010Prop39
140
1.0
102
RTVSPost2010PropOp39
 70
     1
102
RTVSPost2010Prop40
 90
        0
102
RTVSPost2010PropOp40
 70
     1
102
RTVSPost2010Prop41ColorIndex
 90
       18
102
RTVSPost2010Prop41ColorRGB
 90
        0
102
RTVSPost2010PropOp41
 70
     1
102
RTVSPost2010Prop42
 90
       50
102
RTVSPost2010PropOp42
 70
     1
102
RTVSPost2010Prop43
 90
        3
102
RTVSPost2010PropOp43
 70
     1
102
RTVSPost2010Prop44ColorIndex
 90
        5
102
RTVSPost2010Prop44ColorRGB
 90
      255
102
RTVSPost2010PropOp44
 70
     1
102
RTVSPost2010Prop45
280
     0
102
RTVSPost2010PropOp45
 70
     1
102
RTVSPost2010Prop46
 90
       50
102
RTVSPost2010PropOp46
 70
     1
102
RTVSPost2010Prop47
 90
       50
102
RTVSPost2010PropOp47
 70
     1
102
RTVSPost2010Prop48
 90
       50
102
RTVSPost2010PropOp48
 70
     1
102
RTVSPost2010Prop49
280
     0
102
RTVSPost2010PropOp49
 70
     1
102
RTVSPost2010Prop50
 90
       50
102
RTVSPost2010PropOp50
 70
     1
102
RTVSPost2010Prop51ColorIndex
 90
      256
102
RTVSPost2010Prop51ColorRGB
 90
-16777216
102
RTVSPost2010PropOp51
 70
     0
102
RTVSPost2010Prop52
140
1.0
102
RTVSPost2010PropOp52
 70
     0
102
RTVSPost2010Prop53
 90
        2
102
RTVSPost2010PropOp53
 70
     1
102
RTVSPost2010Prop54
  1
strokes_ogs.tif
102
RTVSPost2010PropOp54
 70
     1
102
RTVSPost2010Prop55
280
     0
102
RTVSPost2010PropOp55
 70
     1
102
RTVSPost2010Prop56
140
1.0
102
RTVSPost2010PropOp56
 70
     1
102
RTVSPost2010Prop57
140
1.0
102
RTVSPost2010PropOp57
 70
     1
102
RTVSPropertyOp0
 70
     1
102
RTVSPropertyOp1
 70
     1
102
RTVSPropertyOp2
 70
     1
102
RTVSPropertyOp3
 70
     1
102
RTVSPropertyOp4
 70
     1
102
RTVSPropertyOp5
 70
     1
102
RTVSPropertyOp6
 70
     1
102
RTVSPropertyOp7
 70
     1
102
RTVSPropertyOp8
 70
     1
102
RTVSPropertyOp9
 70
     1
102
RTVSPropertyOp10
 70
     1
102
RTVSPropertyOp11
 70
     1
102
RTVSPropertyOp12
 70
     1
102
RTVSPropertyOp13
 70
     1
102
RTVSPropertyOp14
 70
     1
102
RTVSPropertyOp15
 70
     1
102
RTVSPropertyOp16
 70
     1
102
RTVSPropertyOp17
 70
     1
102
RTVSPropertyOp18
 70
     1
102
RTVSPropertyOp19
 70
     1
102
RTVSPropertyOp20
 70
     1
102
RTVSPropertyOp21
 70
     1
102
RTVSPropertyOp22
 70
     1
102
RTVSPropertyOp23
 70
     1
102
RTVSPropertyOp24
 70
     1
102
RTVSPropertyOp25
 70
     1
102
RTVSPropertyOp26
 70
     1
102
RTVSPropertyOp27
 70
     1
102
RTVSPropertyOp28
 70
     1
102
RTVSPropertyOp29
 70
     1
102
RTVSPropertyOp30
 70
     1
102
RTVSPropertyOp31
 70
     1
102
RTVSPropertyOp32
 70
     1
102
RTVSPropertyOp33
 70
     1
102
RTVSPropertyOp34
 70
     1
102
RTVSPropertyOp35
 70
     1
102
RTVSPropertyOp36
 70
     1
102
RTVSPropertyOp37
 70
     1
102
RTVSPropertyOp38
 70
     1
102
RTVSPropertyOp39
 70
     1
102
RTVSPropertyOp40
 70
     1
102
RTVSPropertyOp41
 70
     1
102
RTVSPropertyOp42
 70
     1
102
RTVSPropertyOp43
 70
     1
102
RTVSPropertyOp44
 70
     1
102
RTVSPropertyOp45
 70
     1
102
RTVSPropertyOp46
 70
     1
102
RTVSPropertyOp47
 70
     1
102
RTVSPropertyOp48
 70
     1
102
RTVSPropertyOp49
 70
     1
102
RTVSPropertyOp50
 70
     1
102
RTVSPropertyOp51
 70
     0
102
RTVSPropertyOp52
 70
     0
102
RTVSPropertyOp53
 70
     1
102
RTVSPropertyOp54
 70
     1
102
RTVSPropertyOp55
 70
     1
102
RTVSPropertyOp56
 70
     1
102
RTVSPropertyOp57
 70
     1
102
RTVSPropertyOp58
 70
     1
102
RTVSPropertyOp59
 70
     1
102
RTVSPropertyOp60
 70
     1
102
RTVSPropertyOp61
 70
     1
102
RTVSPropertyOp62
 70
     1
  0
XRECORD
  5
16292
102
{ACAD_REACTORS
330
16291
102
}
330
16291
100
AcDbXrecord
280
     1
102
RTVSPost2010Prop28
280
     0
102
RTVSPost2010PropOp28
 70
     1
102
RTVSPost2010Prop29
280
     1
102
RTVSPost2010PropOp29
 70
     1
102
RTVSPost2010Prop30
280
     1
102
RTVSPost2010PropOp30
 70
     1
102
RTVSPost2010Prop31
280
     0
102
RTVSPost2010PropOp31
 70
     1
102
RTVSPost2010Prop32
280
     0
102
RTVSPost2010PropOp32
 70
     1
102
RTVSPost2010Prop33
280
     0
102
RTVSPost2010PropOp33
 70
     1
102
RTVSPost2010Prop34
280
     0
102
RTVSPost2010PropOp34
 70
     1
102
RTVSPost2010Prop35
280
     0
102
RTVSPost2010PropOp35
 70
     1
102
RTVSPost2010Prop36
280
     0
102
RTVSPost2010PropOp36
 70
     1
102
RTVSPost2010Prop37
 90
       50
102
RTVSPost2010PropOp37
 70
     1
102
RTVSPost2010Prop38
140
0.0
102
RTVSPost2010PropOp38
 70
     1
102
RTVSPost2010Prop39
140
1.0
102
RTVSPost2010PropOp39
 70
     1
102
RTVSPost2010Prop40
 90
        0
102
RTVSPost2010PropOp40
 70
     1
102
RTVSPost2010Prop41ColorIndex
 90
       18
102
RTVSPost2010Prop41ColorRGB
 90
        0
102
RTVSPost2010PropOp41
 70
     1
102
RTVSPost2010Prop42
 90
       50
102
RTVSPost2010PropOp42
 70
     1
102
RTVSPost2010Prop43
 90
        3
102
RTVSPost2010PropOp43
 70
     1
102
RTVSPost2010Prop44ColorIndex
 90
        5
102
RTVSPost2010Prop44ColorRGB
 90
      255
102
RTVSPost2010PropOp44
 70
     1
102
RTVSPost2010Prop45
280
     0
102
RTVSPost2010PropOp45
 70
     1
102
RTVSPost2010Prop46
 90
       50
102
RTVSPost2010PropOp46
 70
     1
102
RTVSPost2010Prop47
 90
       50
102
RTVSPost2010PropOp47
 70
     1
102
RTVSPost2010Prop48
 90
       50
102
RTVSPost2010PropOp48
 70
     1
102
RTVSPost2010Prop49
280
     0
102
RTVSPost2010PropOp49
 70
     1
102
RTVSPost2010Prop50
 90
       50
102
RTVSPost2010PropOp50
 70
     1
102
RTVSPost2010Prop51ColorIndex
 90
      256
102
RTVSPost2010Prop51ColorRGB
 90
-16777216
102
RTVSPost2010PropOp51
 70
     0
102
RTVSPost2010Prop52
140
1.0
102
RTVSPost2010PropOp52
 70
     0
102
RTVSPost2010Prop53
 90
        2
102
RTVSPost2010PropOp53
 70
     1
102
RTVSPost2010Prop54
  1
strokes_ogs.tif
102
RTVSPost2010PropOp54
 70
     1
102
RTVSPost2010Prop55
280
     0
102
RTVSPost2010PropOp55
 70
     1
102
RTVSPost2010Prop56
140
1.0
102
RTVSPost2010PropOp56
 70
     1
102
RTVSPost2010Prop57
140
1.0
102
RTVSPost2010PropOp57
 70
     1
102
RTVSPropertyOp0
 70
     1
102
RTVSPropertyOp1
 70
     1
102
RTVSPropertyOp2
 70
     1
102
RTVSPropertyOp3
 70
     1
102
RTVSPropertyOp4
 70
     1
102
RTVSPropertyOp5
 70
     1
102
RTVSPropertyOp6
 70
     1
102
RTVSPropertyOp7
 70
     1
102
RTVSPropertyOp8
 70
     1
102
RTVSPropertyOp9
 70
     1
102
RTVSPropertyOp10
 70
     1
102
RTVSPropertyOp11
 70
     1
102
RTVSPropertyOp12
 70
     1
102
RTVSPropertyOp13
 70
     1
102
RTVSPropertyOp14
 70
     1
102
RTVSPropertyOp15
 70
     1
102
RTVSPropertyOp16
 70
     1
102
RTVSPropertyOp17
 70
     1
102
RTVSPropertyOp18
 70
     1
102
RTVSPropertyOp19
 70
     1
102
RTVSPropertyOp20
 70
     1
102
RTVSPropertyOp21
 70
     1
102
RTVSPropertyOp22
 70
     1
102
RTVSPropertyOp23
 70
     1
102
RTVSPropertyOp24
 70
     1
102
RTVSPropertyOp25
 70
     1
102
RTVSPropertyOp26
 70
     1
102
RTVSPropertyOp27
 70
     1
102
RTVSPropertyOp28
 70
     1
102
RTVSPropertyOp29
 70
     1
102
RTVSPropertyOp30
 70
     1
102
RTVSPropertyOp31
 70
     1
102
RTVSPropertyOp32
 70
     1
102
RTVSPropertyOp33
 70
     1
102
RTVSPropertyOp34
 70
     1
102
RTVSPropertyOp35
 70
     1
102
RTVSPropertyOp36
 70
     1
102
RTVSPropertyOp37
 70
     1
102
RTVSPropertyOp38
 70
     1
102
RTVSPropertyOp39
 70
     1
102
RTVSPropertyOp40
 70
     1
102
RTVSPropertyOp41
 70
     1
102
RTVSPropertyOp42
 70
     1
102
RTVSPropertyOp43
 70
     1
102
RTVSPropertyOp44
 70
     1
102
RTVSPropertyOp45
 70
     1
102
RTVSPropertyOp46
 70
     1
102
RTVSPropertyOp47
 70
     1
102
RTVSPropertyOp48
 70
     1
102
RTVSPropertyOp49
 70
     1
102
RTVSPropertyOp50
 70
     1
102
RTVSPropertyOp51
 70
     0
102
RTVSPropertyOp52
 70
     0
102
RTVSPropertyOp53
 70
     1
102
RTVSPropertyOp54
 70
     1
102
RTVSPropertyOp55
 70
     1
102
RTVSPropertyOp56
 70
     1
102
RTVSPropertyOp57
 70
     1
102
RTVSPropertyOp58
 70
     1
102
RTVSPropertyOp59
 70
     1
102
RTVSPropertyOp60
 70
     1
102
RTVSPropertyOp61
 70
     1
102
RTVSPropertyOp62
 70
     1
  0
XRECORD
  5
16290
102
{ACAD_REACTORS
330
1628F
102
}
330
1628F
100
AcDbXrecord
280
     1
102
RTVSPost2010Prop28
280
     0
102
RTVSPost2010PropOp28
 70
     1
102
RTVSPost2010Prop29
280
     1
102
RTVSPost2010PropOp29
 70
     1
102
RTVSPost2010Prop30
280
     1
102
RTVSPost2010PropOp30
 70
     1
102
RTVSPost2010Prop31
280
     0
102
RTVSPost2010PropOp31
 70
     1
102
RTVSPost2010Prop32
280
     0
102
RTVSPost2010PropOp32
 70
     1
102
RTVSPost2010Prop33
280
     0
102
RTVSPost2010PropOp33
 70
     1
102
RTVSPost2010Prop34
280
     0
102
RTVSPost2010PropOp34
 70
     1
102
RTVSPost2010Prop35
280
     0
102
RTVSPost2010PropOp35
 70
     1
102
RTVSPost2010Prop36
280
     0
102
RTVSPost2010PropOp36
 70
     1
102
RTVSPost2010Prop37
 90
       50
102
RTVSPost2010PropOp37
 70
     1
102
RTVSPost2010Prop38
140
0.0
102
RTVSPost2010PropOp38
 70
     1
102
RTVSPost2010Prop39
140
1.0
102
RTVSPost2010PropOp39
 70
     1
102
RTVSPost2010Prop40
 90
        0
102
RTVSPost2010PropOp40
 70
     1
102
RTVSPost2010Prop41ColorIndex
 90
       18
102
RTVSPost2010Prop41ColorRGB
 90
        0
102
RTVSPost2010PropOp41
 70
     1
102
RTVSPost2010Prop42
 90
       50
102
RTVSPost2010PropOp42
 70
     1
102
RTVSPost2010Prop43
 90
        3
102
RTVSPost2010PropOp43
 70
     1
102
RTVSPost2010Prop44ColorIndex
 90
        5
102
RTVSPost2010Prop44ColorRGB
 90
      255
102
RTVSPost2010PropOp44
 70
     1
102
RTVSPost2010Prop45
280
     0
102
RTVSPost2010PropOp45
 70
     1
102
RTVSPost2010Prop46
 90
       50
102
RTVSPost2010PropOp46
 70
     1
102
RTVSPost2010Prop47
 90
       50
102
RTVSPost2010PropOp47
 70
     1
102
RTVSPost2010Prop48
 90
       50
102
RTVSPost2010PropOp48
 70
     1
102
RTVSPost2010Prop49
280
     0
102
RTVSPost2010PropOp49
 70
     1
102
RTVSPost2010Prop50
 90
       50
102
RTVSPost2010PropOp50
 70
     1
102
RTVSPost2010Prop51ColorIndex
 90
      256
102
RTVSPost2010Prop51ColorRGB
 90
-16777216
102
RTVSPost2010PropOp51
 70
     0
102
RTVSPost2010Prop52
140
1.0
102
RTVSPost2010PropOp52
 70
     0
102
RTVSPost2010Prop53
 90
        2
102
RTVSPost2010PropOp53
 70
     1
102
RTVSPost2010Prop54
  1
strokes_ogs.tif
102
RTVSPost2010PropOp54
 70
     1
102
RTVSPost2010Prop55
280
     0
102
RTVSPost2010PropOp55
 70
     1
102
RTVSPost2010Prop56
140
1.0
102
RTVSPost2010PropOp56
 70
     1
102
RTVSPost2010Prop57
140
1.0
102
RTVSPost2010PropOp57
 70
     1
102
RTVSPropertyOp0
 70
     1
102
RTVSPropertyOp1
 70
     1
102
RTVSPropertyOp2
 70
     1
102
RTVSPropertyOp3
 70
     1
102
RTVSPropertyOp4
 70
     1
102
RTVSPropertyOp5
 70
     1
102
RTVSPropertyOp6
 70
     1
102
RTVSPropertyOp7
 70
     1
102
RTVSPropertyOp8
 70
     1
102
RTVSPropertyOp9
 70
     1
102
RTVSPropertyOp10
 70
     1
102
RTVSPropertyOp11
 70
     1
102
RTVSPropertyOp12
 70
     1
102
RTVSPropertyOp13
 70
     1
102
RTVSPropertyOp14
 70
     1
102
RTVSPropertyOp15
 70
     1
102
RTVSPropertyOp16
 70
     1
102
RTVSPropertyOp17
 70
     1
102
RTVSPropertyOp18
 70
     1
102
RTVSPropertyOp19
 70
     1
102
RTVSPropertyOp20
 70
     1
102
RTVSPropertyOp21
 70
     1
102
RTVSPropertyOp22
 70
     1
102
RTVSPropertyOp23
 70
     1
102
RTVSPropertyOp24
 70
     1
102
RTVSPropertyOp25
 70
     1
102
RTVSPropertyOp26
 70
     1
102
RTVSPropertyOp27
 70
     1
102
RTVSPropertyOp28
 70
     1
102
RTVSPropertyOp29
 70
     1
102
RTVSPropertyOp30
 70
     1
102
RTVSPropertyOp31
 70
     1
102
RTVSPropertyOp32
 70
     1
102
RTVSPropertyOp33
 70
     1
102
RTVSPropertyOp34
 70
     1
102
RTVSPropertyOp35
 70
     1
102
RTVSPropertyOp36
 70
     1
102
RTVSPropertyOp37
 70
     1
102
RTVSPropertyOp38
 70
     1
102
RTVSPropertyOp39
 70
     1
102
RTVSPropertyOp40
 70
     1
102
RTVSPropertyOp41
 70
     1
102
RTVSPropertyOp42
 70
     1
102
RTVSPropertyOp43
 70
     1
102
RTVSPropertyOp44
 70
     1
102
RTVSPropertyOp45
 70
     1
102
RTVSPropertyOp46
 70
     1
102
RTVSPropertyOp47
 70
     1
102
RTVSPropertyOp48
 70
     1
102
RTVSPropertyOp49
 70
     1
102
RTVSPropertyOp50
 70
     1
102
RTVSPropertyOp51
 70
     0
102
RTVSPropertyOp52
 70
     0
102
RTVSPropertyOp53
 70
     1
102
RTVSPropertyOp54
 70
     1
102
RTVSPropertyOp55
 70
     1
102
RTVSPropertyOp56
 70
     1
102
RTVSPropertyOp57
 70
     1
102
RTVSPropertyOp58
 70
     1
102
RTVSPropertyOp59
 70
     1
102
RTVSPropertyOp60
 70
     1
102
RTVSPropertyOp61
 70
     1
102
RTVSPropertyOp62
 70
     1
  0
XRECORD
  5
1628A
102
{ACAD_REACTORS
330
16289
102
}
330
16289
100
AcDbXrecord
280
     1
102
RTVSPost2010Prop28
280
     0
102
RTVSPost2010PropOp28
 70
     1
102
RTVSPost2010Prop29
280
     1
102
RTVSPost2010PropOp29
 70
     1
102
RTVSPost2010Prop30
280
     1
102
RTVSPost2010PropOp30
 70
     1
102
RTVSPost2010Prop31
280
     0
102
RTVSPost2010PropOp31
 70
     1
102
RTVSPost2010Prop32
280
     0
102
RTVSPost2010PropOp32
 70
     1
102
RTVSPost2010Prop33
280
     0
102
RTVSPost2010PropOp33
 70
     1
102
RTVSPost2010Prop34
280
     0
102
RTVSPost2010PropOp34
 70
     1
102
RTVSPost2010Prop35
280
     0
102
RTVSPost2010PropOp35
 70
     1
102
RTVSPost2010Prop36
280
     0
102
RTVSPost2010PropOp36
 70
     1
102
RTVSPost2010Prop37
 90
       50
102
RTVSPost2010PropOp37
 70
     1
102
RTVSPost2010Prop38
140
0.0
102
RTVSPost2010PropOp38
 70
     1
102
RTVSPost2010Prop39
140
1.0
102
RTVSPost2010PropOp39
 70
     1
102
RTVSPost2010Prop40
 90
        0
102
RTVSPost2010PropOp40
 70
     1
102
RTVSPost2010Prop41ColorIndex
 90
       18
102
RTVSPost2010Prop41ColorRGB
 90
        0
102
RTVSPost2010PropOp41
 70
     1
102
RTVSPost2010Prop42
 90
       50
102
RTVSPost2010PropOp42
 70
     1
102
RTVSPost2010Prop43
 90
        3
102
RTVSPost2010PropOp43
 70
     1
102
RTVSPost2010Prop44ColorIndex
 90
        5
102
RTVSPost2010Prop44ColorRGB
 90
      255
102
RTVSPost2010PropOp44
 70
     1
102
RTVSPost2010Prop45
280
     0
102
RTVSPost2010PropOp45
 70
     1
102
RTVSPost2010Prop46
 90
       50
102
RTVSPost2010PropOp46
 70
     1
102
RTVSPost2010Prop47
 90
       50
102
RTVSPost2010PropOp47
 70
     1
102
RTVSPost2010Prop48
 90
       50
102
RTVSPost2010PropOp48
 70
     1
102
RTVSPost2010Prop49
280
     0
102
RTVSPost2010PropOp49
 70
     1
102
RTVSPost2010Prop50
 90
       50
102
RTVSPost2010PropOp50
 70
     1
102
RTVSPost2010Prop51ColorIndex
 90
      256
102
RTVSPost2010Prop51ColorRGB
 90
-16777216
102
RTVSPost2010PropOp51
 70
     0
102
RTVSPost2010Prop52
140
1.0
102
RTVSPost2010PropOp52
 70
     0
102
RTVSPost2010Prop53
 90
        2
102
RTVSPost2010PropOp53
 70
     1
102
RTVSPost2010Prop54
  1
strokes_ogs.tif
102
RTVSPost2010PropOp54
 70
     1
102
RTVSPost2010Prop55
280
     0
102
RTVSPost2010PropOp55
 70
     1
102
RTVSPost2010Prop56
140
1.0
102
RTVSPost2010PropOp56
 70
     1
102
RTVSPost2010Prop57
140
1.0
102
RTVSPost2010PropOp57
 70
     1
102
RTVSPropertyOp0
 70
     1
102
RTVSPropertyOp1
 70
     1
102
RTVSPropertyOp2
 70
     1
102
RTVSPropertyOp3
 70
     1
102
RTVSPropertyOp4
 70
     1
102
RTVSPropertyOp5
 70
     1
102
RTVSPropertyOp6
 70
     1
102
RTVSPropertyOp7
 70
     1
102
RTVSPropertyOp8
 70
     1
102
RTVSPropertyOp9
 70
     1
102
RTVSPropertyOp10
 70
     1
102
RTVSPropertyOp11
 70
     1
102
RTVSPropertyOp12
 70
     1
102
RTVSPropertyOp13
 70
     1
102
RTVSPropertyOp14
 70
     1
102
RTVSPropertyOp15
 70
     1
102
RTVSPropertyOp16
 70
     1
102
RTVSPropertyOp17
 70
     1
102
RTVSPropertyOp18
 70
     1
102
RTVSPropertyOp19
 70
     1
102
RTVSPropertyOp20
 70
     1
102
RTVSPropertyOp21
 70
     1
102
RTVSPropertyOp22
 70
     1
102
RTVSPropertyOp23
 70
     1
102
RTVSPropertyOp24
 70
     1
102
RTVSPropertyOp25
 70
     1
102
RTVSPropertyOp26
 70
     1
102
RTVSPropertyOp27
 70
     1
102
RTVSPropertyOp28
 70
     1
102
RTVSPropertyOp29
 70
     1
102
RTVSPropertyOp30
 70
     1
102
RTVSPropertyOp31
 70
     1
102
RTVSPropertyOp32
 70
     1
102
RTVSPropertyOp33
 70
     1
102
RTVSPropertyOp34
 70
     1
102
RTVSPropertyOp35
 70
     1
102
RTVSPropertyOp36
 70
     1
102
RTVSPropertyOp37
 70
     1
102
RTVSPropertyOp38
 70
     1
102
RTVSPropertyOp39
 70
     1
102
RTVSPropertyOp40
 70
     1
102
RTVSPropertyOp41
 70
     1
102
RTVSPropertyOp42
 70
     1
102
RTVSPropertyOp43
 70
     1
102
RTVSPropertyOp44
 70
     1
102
RTVSPropertyOp45
 70
     1
102
RTVSPropertyOp46
 70
     1
102
RTVSPropertyOp47
 70
     1
102
RTVSPropertyOp48
 70
     1
102
RTVSPropertyOp49
 70
     1
102
RTVSPropertyOp50
 70
     1
102
RTVSPropertyOp51
 70
     0
102
RTVSPropertyOp52
 70
     0
102
RTVSPropertyOp53
 70
     1
102
RTVSPropertyOp54
 70
     1
102
RTVSPropertyOp55
 70
     1
102
RTVSPropertyOp56
 70
     1
102
RTVSPropertyOp57
 70
     1
102
RTVSPropertyOp58
 70
     1
102
RTVSPropertyOp59
 70
     1
102
RTVSPropertyOp60
 70
     1
102
RTVSPropertyOp61
 70
     1
102
RTVSPropertyOp62
 70
     1
  0
XRECORD
  5
1628C
102
{ACAD_REACTORS
330
1628B
102
}
330
1628B
100
AcDbXrecord
280
     1
102
RTVSPost2010Prop28
280
     0
102
RTVSPost2010PropOp28
 70
     1
102
RTVSPost2010Prop29
280
     1
102
RTVSPost2010PropOp29
 70
     1
102
RTVSPost2010Prop30
280
     1
102
RTVSPost2010PropOp30
 70
     1
102
RTVSPost2010Prop31
280
     0
102
RTVSPost2010PropOp31
 70
     1
102
RTVSPost2010Prop32
280
     0
102
RTVSPost2010PropOp32
 70
     1
102
RTVSPost2010Prop33
280
     0
102
RTVSPost2010PropOp33
 70
     1
102
RTVSPost2010Prop34
280
     0
102
RTVSPost2010PropOp34
 70
     1
102
RTVSPost2010Prop35
280
     0
102
RTVSPost2010PropOp35
 70
     1
102
RTVSPost2010Prop36
280
     0
102
RTVSPost2010PropOp36
 70
     1
102
RTVSPost2010Prop37
 90
       50
102
RTVSPost2010PropOp37
 70
     1
102
RTVSPost2010Prop38
140
0.0
102
RTVSPost2010PropOp38
 70
     1
102
RTVSPost2010Prop39
140
1.0
102
RTVSPost2010PropOp39
 70
     1
102
RTVSPost2010Prop40
 90
        0
102
RTVSPost2010PropOp40
 70
     1
102
RTVSPost2010Prop41ColorIndex
 90
       18
102
RTVSPost2010Prop41ColorRGB
 90
        0
102
RTVSPost2010PropOp41
 70
     1
102
RTVSPost2010Prop42
 90
       50
102
RTVSPost2010PropOp42
 70
     1
102
RTVSPost2010Prop43
 90
        3
102
RTVSPost2010PropOp43
 70
     1
102
RTVSPost2010Prop44ColorIndex
 90
        5
102
RTVSPost2010Prop44ColorRGB
 90
      255
102
RTVSPost2010PropOp44
 70
     1
102
RTVSPost2010Prop45
280
     0
102
RTVSPost2010PropOp45
 70
     1
102
RTVSPost2010Prop46
 90
       50
102
RTVSPost2010PropOp46
 70
     1
102
RTVSPost2010Prop47
 90
       50
102
RTVSPost2010PropOp47
 70
     1
102
RTVSPost2010Prop48
 90
       50
102
RTVSPost2010PropOp48
 70
     1
102
RTVSPost2010Prop49
280
     0
102
RTVSPost2010PropOp49
 70
     1
102
RTVSPost2010Prop50
 90
       50
102
RTVSPost2010PropOp50
 70
     1
102
RTVSPost2010Prop51ColorIndex
 90
      256
102
RTVSPost2010Prop51ColorRGB
 90
-16777216
102
RTVSPost2010PropOp51
 70
     0
102
RTVSPost2010Prop52
140
1.0
102
RTVSPost2010PropOp52
 70
     0
102
RTVSPost2010Prop53
 90
        2
102
RTVSPost2010PropOp53
 70
     1
102
RTVSPost2010Prop54
  1
strokes_ogs.tif
102
RTVSPost2010PropOp54
 70
     1
102
RTVSPost2010Prop55
280
     0
102
RTVSPost2010PropOp55
 70
     1
102
RTVSPost2010Prop56
140
1.0
102
RTVSPost2010PropOp56
 70
     1
102
RTVSPost2010Prop57
140
1.0
102
RTVSPost2010PropOp57
 70
     1
102
RTVSPropertyOp0
 70
     1
102
RTVSPropertyOp1
 70
     1
102
RTVSPropertyOp2
 70
     1
102
RTVSPropertyOp3
 70
     1
102
RTVSPropertyOp4
 70
     1
102
RTVSPropertyOp5
 70
     1
102
RTVSPropertyOp6
 70
     1
102
RTVSPropertyOp7
 70
     1
102
RTVSPropertyOp8
 70
     1
102
RTVSPropertyOp9
 70
     1
102
RTVSPropertyOp10
 70
     1
102
RTVSPropertyOp11
 70
     1
102
RTVSPropertyOp12
 70
     1
102
RTVSPropertyOp13
 70
     1
102
RTVSPropertyOp14
 70
     1
102
RTVSPropertyOp15
 70
     1
102
RTVSPropertyOp16
 70
     1
102
RTVSPropertyOp17
 70
     1
102
RTVSPropertyOp18
 70
     1
102
RTVSPropertyOp19
 70
     1
102
RTVSPropertyOp20
 70
     1
102
RTVSPropertyOp21
 70
     1
102
RTVSPropertyOp22
 70
     1
102
RTVSPropertyOp23
 70
     1
102
RTVSPropertyOp24
 70
     1
102
RTVSPropertyOp25
 70
     1
102
RTVSPropertyOp26
 70
     1
102
RTVSPropertyOp27
 70
     1
102
RTVSPropertyOp28
 70
     1
102
RTVSPropertyOp29
 70
     1
102
RTVSPropertyOp30
 70
     1
102
RTVSPropertyOp31
 70
     1
102
RTVSPropertyOp32
 70
     1
102
RTVSPropertyOp33
 70
     1
102
RTVSPropertyOp34
 70
     1
102
RTVSPropertyOp35
 70
     1
102
RTVSPropertyOp36
 70
     1
102
RTVSPropertyOp37
 70
     1
102
RTVSPropertyOp38
 70
     1
102
RTVSPropertyOp39
 70
     1
102
RTVSPropertyOp40
 70
     1
102
RTVSPropertyOp41
 70
     1
102
RTVSPropertyOp42
 70
     1
102
RTVSPropertyOp43
 70
     1
102
RTVSPropertyOp44
 70
     1
102
RTVSPropertyOp45
 70
     1
102
RTVSPropertyOp46
 70
     1
102
RTVSPropertyOp47
 70
     1
102
RTVSPropertyOp48
 70
     1
102
RTVSPropertyOp49
 70
     1
102
RTVSPropertyOp50
 70
     1
102
RTVSPropertyOp51
 70
     0
102
RTVSPropertyOp52
 70
     0
102
RTVSPropertyOp53
 70
     1
102
RTVSPropertyOp54
 70
     1
102
RTVSPropertyOp55
 70
     1
102
RTVSPropertyOp56
 70
     1
102
RTVSPropertyOp57
 70
     1
102
RTVSPropertyOp58
 70
     1
102
RTVSPropertyOp59
 70
     1
102
RTVSPropertyOp60
 70
     1
102
RTVSPropertyOp61
 70
     1
102
RTVSPropertyOp62
 70
     1
  0
XRECORD
  5
16282
102
{ACAD_REACTORS
330
16281
102
}
330
16281
100
AcDbXrecord
280
     1
102
RTVSPost2010Prop28
280
     0
102
RTVSPost2010PropOp28
 70
     1
102
RTVSPost2010Prop29
280
     1
102
RTVSPost2010PropOp29
 70
     1
102
RTVSPost2010Prop30
280
     1
102
RTVSPost2010PropOp30
 70
     1
102
RTVSPost2010Prop31
280
     0
102
RTVSPost2010PropOp31
 70
     1
102
RTVSPost2010Prop32
280
     0
102
RTVSPost2010PropOp32
 70
     1
102
RTVSPost2010Prop33
280
     0
102
RTVSPost2010PropOp33
 70
     1
102
RTVSPost2010Prop34
280
     0
102
RTVSPost2010PropOp34
 70
     1
102
RTVSPost2010Prop35
280
     0
102
RTVSPost2010PropOp35
 70
     1
102
RTVSPost2010Prop36
280
     0
102
RTVSPost2010PropOp36
 70
     1
102
RTVSPost2010Prop37
 90
       50
102
RTVSPost2010PropOp37
 70
     1
102
RTVSPost2010Prop38
140
0.0
102
RTVSPost2010PropOp38
 70
     1
102
RTVSPost2010Prop39
140
1.0
102
RTVSPost2010PropOp39
 70
     1
102
RTVSPost2010Prop40
 90
        0
102
RTVSPost2010PropOp40
 70
     1
102
RTVSPost2010Prop41ColorIndex
 90
       18
102
RTVSPost2010Prop41ColorRGB
 90
        0
102
RTVSPost2010PropOp41
 70
     1
102
RTVSPost2010Prop42
 90
       50
102
RTVSPost2010PropOp42
 70
     1
102
RTVSPost2010Prop43
 90
        3
102
RTVSPost2010PropOp43
 70
     1
102
RTVSPost2010Prop44ColorIndex
 90
        5
102
RTVSPost2010Prop44ColorRGB
 90
      255
102
RTVSPost2010PropOp44
 70
     1
102
RTVSPost2010Prop45
280
     0
102
RTVSPost2010PropOp45
 70
     1
102
RTVSPost2010Prop46
 90
       50
102
RTVSPost2010PropOp46
 70
     1
102
RTVSPost2010Prop47
 90
       50
102
RTVSPost2010PropOp47
 70
     1
102
RTVSPost2010Prop48
 90
       50
102
RTVSPost2010PropOp48
 70
     1
102
RTVSPost2010Prop49
280
     0
102
RTVSPost2010PropOp49
 70
     1
102
RTVSPost2010Prop50
 90
       50
102
RTVSPost2010PropOp50
 70
     1
102
RTVSPost2010Prop51ColorIndex
 90
      256
102
RTVSPost2010Prop51ColorRGB
 90
-16777216
102
RTVSPost2010PropOp51
 70
     0
102
RTVSPost2010Prop52
140
1.0
102
RTVSPost2010PropOp52
 70
     0
102
RTVSPost2010Prop53
 90
        2
102
RTVSPost2010PropOp53
 70
     1
102
RTVSPost2010Prop54
  1
strokes_ogs.tif
102
RTVSPost2010PropOp54
 70
     1
102
RTVSPost2010Prop55
280
     0
102
RTVSPost2010PropOp55
 70
     1
102
RTVSPost2010Prop56
140
1.0
102
RTVSPost2010PropOp56
 70
     1
102
RTVSPost2010Prop57
140
1.0
102
RTVSPost2010PropOp57
 70
     1
102
RTVSPropertyOp0
 70
     1
102
RTVSPropertyOp1
 70
     1
102
RTVSPropertyOp2
 70
     1
102
RTVSPropertyOp3
 70
     1
102
RTVSPropertyOp4
 70
     1
102
RTVSPropertyOp5
 70
     1
102
RTVSPropertyOp6
 70
     1
102
RTVSPropertyOp7
 70
     1
102
RTVSPropertyOp8
 70
     1
102
RTVSPropertyOp9
 70
     1
102
RTVSPropertyOp10
 70
     1
102
RTVSPropertyOp11
 70
     1
102
RTVSPropertyOp12
 70
     1
102
RTVSPropertyOp13
 70
     1
102
RTVSPropertyOp14
 70
     1
102
RTVSPropertyOp15
 70
     1
102
RTVSPropertyOp16
 70
     1
102
RTVSPropertyOp17
 70
     1
102
RTVSPropertyOp18
 70
     1
102
RTVSPropertyOp19
 70
     1
102
RTVSPropertyOp20
 70
     1
102
RTVSPropertyOp21
 70
     1
102
RTVSPropertyOp22
 70
     1
102
RTVSPropertyOp23
 70
     1
102
RTVSPropertyOp24
 70
     1
102
RTVSPropertyOp25
 70
     1
102
RTVSPropertyOp26
 70
     1
102
RTVSPropertyOp27
 70
     1
102
RTVSPropertyOp28
 70
     1
102
RTVSPropertyOp29
 70
     1
102
RTVSPropertyOp30
 70
     1
102
RTVSPropertyOp31
 70
     1
102
RTVSPropertyOp32
 70
     1
102
RTVSPropertyOp33
 70
     1
102
RTVSPropertyOp34
 70
     1
102
RTVSPropertyOp35
 70
     1
102
RTVSPropertyOp36
 70
     1
102
RTVSPropertyOp37
 70
     1
102
RTVSPropertyOp38
 70
     1
102
RTVSPropertyOp39
 70
     1
102
RTVSPropertyOp40
 70
     1
102
RTVSPropertyOp41
 70
     1
102
RTVSPropertyOp42
 70
     1
102
RTVSPropertyOp43
 70
     1
102
RTVSPropertyOp44
 70
     1
102
RTVSPropertyOp45
 70
     1
102
RTVSPropertyOp46
 70
     1
102
RTVSPropertyOp47
 70
     1
102
RTVSPropertyOp48
 70
     1
102
RTVSPropertyOp49
 70
     1
102
RTVSPropertyOp50
 70
     1
102
RTVSPropertyOp51
 70
     0
102
RTVSPropertyOp52
 70
     0
102
RTVSPropertyOp53
 70
     1
102
RTVSPropertyOp54
 70
     1
102
RTVSPropertyOp55
 70
     1
102
RTVSPropertyOp56
 70
     1
102
RTVSPropertyOp57
 70
     1
102
RTVSPropertyOp58
 70
     1
102
RTVSPropertyOp59
 70
     1
102
RTVSPropertyOp60
 70
     1
102
RTVSPropertyOp61
 70
     1
102
RTVSPropertyOp62
 70
     1
  0
XRECORD
  5
16276
102
{ACAD_REACTORS
330
16275
102
}
330
16275
100
AcDbXrecord
280
     1
102
RTVSPost2010Prop28
280
     0
102
RTVSPost2010PropOp28
 70
     1
102
RTVSPost2010Prop29
280
     1
102
RTVSPost2010PropOp29
 70
     1
102
RTVSPost2010Prop30
280
     1
102
RTVSPost2010PropOp30
 70
     1
102
RTVSPost2010Prop31
280
     0
102
RTVSPost2010PropOp31
 70
     1
102
RTVSPost2010Prop32
280
     0
102
RTVSPost2010PropOp32
 70
     1
102
RTVSPost2010Prop33
280
     0
102
RTVSPost2010PropOp33
 70
     1
102
RTVSPost2010Prop34
280
     0
102
RTVSPost2010PropOp34
 70
     1
102
RTVSPost2010Prop35
280
     0
102
RTVSPost2010PropOp35
 70
     1
102
RTVSPost2010Prop36
280
     0
102
RTVSPost2010PropOp36
 70
     1
102
RTVSPost2010Prop37
 90
       50
102
RTVSPost2010PropOp37
 70
     1
102
RTVSPost2010Prop38
140
0.0
102
RTVSPost2010PropOp38
 70
     1
102
RTVSPost2010Prop39
140
1.0
102
RTVSPost2010PropOp39
 70
     1
102
RTVSPost2010Prop40
 90
        0
102
RTVSPost2010PropOp40
 70
     1
102
RTVSPost2010Prop41ColorIndex
 90
       18
102
RTVSPost2010Prop41ColorRGB
 90
        0
102
RTVSPost2010PropOp41
 70
     1
102
RTVSPost2010Prop42
 90
       50
102
RTVSPost2010PropOp42
 70
     1
102
RTVSPost2010Prop43
 90
        3
102
RTVSPost2010PropOp43
 70
     1
102
RTVSPost2010Prop44ColorIndex
 90
        5
102
RTVSPost2010Prop44ColorRGB
 90
      255
102
RTVSPost2010PropOp44
 70
     1
102
RTVSPost2010Prop45
280
     0
102
RTVSPost2010PropOp45
 70
     1
102
RTVSPost2010Prop46
 90
       50
102
RTVSPost2010PropOp46
 70
     1
102
RTVSPost2010Prop47
 90
       50
102
RTVSPost2010PropOp47
 70
     1
102
RTVSPost2010Prop48
 90
       50
102
RTVSPost2010PropOp48
 70
     1
102
RTVSPost2010Prop49
280
     0
102
RTVSPost2010PropOp49
 70
     1
102
RTVSPost2010Prop50
 90
       50
102
RTVSPost2010PropOp50
 70
     1
102
RTVSPost2010Prop51ColorIndex
 90
      256
102
RTVSPost2010Prop51ColorRGB
 90
-16777216
102
RTVSPost2010PropOp51
 70
     0
102
RTVSPost2010Prop52
140
1.0
102
RTVSPost2010PropOp52
 70
     0
102
RTVSPost2010Prop53
 90
        2
102
RTVSPost2010PropOp53
 70
     1
102
RTVSPost2010Prop54
  1
strokes_ogs.tif
102
RTVSPost2010PropOp54
 70
     1
102
RTVSPost2010Prop55
280
     0
102
RTVSPost2010PropOp55
 70
     1
102
RTVSPost2010Prop56
140
1.0
102
RTVSPost2010PropOp56
 70
     1
102
RTVSPost2010Prop57
140
1.0
102
RTVSPost2010PropOp57
 70
     1
102
RTVSPropertyOp0
 70
     1
102
RTVSPropertyOp1
 70
     1
102
RTVSPropertyOp2
 70
     1
102
RTVSPropertyOp3
 70
     1
102
RTVSPropertyOp4
 70
     1
102
RTVSPropertyOp5
 70
     1
102
RTVSPropertyOp6
 70
     1
102
RTVSPropertyOp7
 70
     1
102
RTVSPropertyOp8
 70
     1
102
RTVSPropertyOp9
 70
     1
102
RTVSPropertyOp10
 70
     1
102
RTVSPropertyOp11
 70
     1
102
RTVSPropertyOp12
 70
     1
102
RTVSPropertyOp13
 70
     1
102
RTVSPropertyOp14
 70
     1
102
RTVSPropertyOp15
 70
     1
102
RTVSPropertyOp16
 70
     1
102
RTVSPropertyOp17
 70
     1
102
RTVSPropertyOp18
 70
     1
102
RTVSPropertyOp19
 70
     1
102
RTVSPropertyOp20
 70
     1
102
RTVSPropertyOp21
 70
     1
102
RTVSPropertyOp22
 70
     1
102
RTVSPropertyOp23
 70
     1
102
RTVSPropertyOp24
 70
     1
102
RTVSPropertyOp25
 70
     1
102
RTVSPropertyOp26
 70
     1
102
RTVSPropertyOp27
 70
     1
102
RTVSPropertyOp28
 70
     1
102
RTVSPropertyOp29
 70
     1
102
RTVSPropertyOp30
 70
     1
102
RTVSPropertyOp31
 70
     1
102
RTVSPropertyOp32
 70
     1
102
RTVSPropertyOp33
 70
     1
102
RTVSPropertyOp34
 70
     1
102
RTVSPropertyOp35
 70
     1
102
RTVSPropertyOp36
 70
     1
102
RTVSPropertyOp37
 70
     1
102
RTVSPropertyOp38
 70
     1
102
RTVSPropertyOp39
 70
     1
102
RTVSPropertyOp40
 70
     1
102
RTVSPropertyOp41
 70
     1
102
RTVSPropertyOp42
 70
     1
102
RTVSPropertyOp43
 70
     1
102
RTVSPropertyOp44
 70
     1
102
RTVSPropertyOp45
 70
     1
102
RTVSPropertyOp46
 70
     1
102
RTVSPropertyOp47
 70
     1
102
RTVSPropertyOp48
 70
     1
102
RTVSPropertyOp49
 70
     1
102
RTVSPropertyOp50
 70
     1
102
RTVSPropertyOp51
 70
     0
102
RTVSPropertyOp52
 70
     0
102
RTVSPropertyOp53
 70
     1
102
RTVSPropertyOp54
 70
     1
102
RTVSPropertyOp55
 70
     1
102
RTVSPropertyOp56
 70
     1
102
RTVSPropertyOp57
 70
     1
102
RTVSPropertyOp58
 70
     1
102
RTVSPropertyOp59
 70
     1
102
RTVSPropertyOp60
 70
     1
102
RTVSPropertyOp61
 70
     1
102
RTVSPropertyOp62
 70
     1
  0
XRECORD
  5
1628E
102
{ACAD_REACTORS
330
1628D
102
}
330
1628D
100
AcDbXrecord
280
     1
102
RTVSPost2010Prop28
280
     0
102
RTVSPost2010PropOp28
 70
     1
102
RTVSPost2010Prop29
280
     1
102
RTVSPost2010PropOp29
 70
     1
102
RTVSPost2010Prop30
280
     1
102
RTVSPost2010PropOp30
 70
     1
102
RTVSPost2010Prop31
280
     0
102
RTVSPost2010PropOp31
 70
     1
102
RTVSPost2010Prop32
280
     0
102
RTVSPost2010PropOp32
 70
     1
102
RTVSPost2010Prop33
280
     0
102
RTVSPost2010PropOp33
 70
     1
102
RTVSPost2010Prop34
280
     0
102
RTVSPost2010PropOp34
 70
     1
102
RTVSPost2010Prop35
280
     0
102
RTVSPost2010PropOp35
 70
     1
102
RTVSPost2010Prop36
280
     0
102
RTVSPost2010PropOp36
 70
     1
102
RTVSPost2010Prop37
 90
       50
102
RTVSPost2010PropOp37
 70
     1
102
RTVSPost2010Prop38
140
0.0
102
RTVSPost2010PropOp38
 70
     1
102
RTVSPost2010Prop39
140
1.0
102
RTVSPost2010PropOp39
 70
     1
102
RTVSPost2010Prop40
 90
        0
102
RTVSPost2010PropOp40
 70
     1
102
RTVSPost2010Prop41ColorIndex
 90
       18
102
RTVSPost2010Prop41ColorRGB
 90
        0
102
RTVSPost2010PropOp41
 70
     1
102
RTVSPost2010Prop42
 90
       50
102
RTVSPost2010PropOp42
 70
     1
102
RTVSPost2010Prop43
 90
        3
102
RTVSPost2010PropOp43
 70
     1
102
RTVSPost2010Prop44ColorIndex
 90
        5
102
RTVSPost2010Prop44ColorRGB
 90
      255
102
RTVSPost2010PropOp44
 70
     1
102
RTVSPost2010Prop45
280
     0
102
RTVSPost2010PropOp45
 70
     1
102
RTVSPost2010Prop46
 90
       50
102
RTVSPost2010PropOp46
 70
     1
102
RTVSPost2010Prop47
 90
       50
102
RTVSPost2010PropOp47
 70
     1
102
RTVSPost2010Prop48
 90
       50
102
RTVSPost2010PropOp48
 70
     1
102
RTVSPost2010Prop49
280
     0
102
RTVSPost2010PropOp49
 70
     1
102
RTVSPost2010Prop50
 90
       50
102
RTVSPost2010PropOp50
 70
     1
102
RTVSPost2010Prop51ColorIndex
 90
      256
102
RTVSPost2010Prop51ColorRGB
 90
-16777216
102
RTVSPost2010PropOp51
 70
     0
102
RTVSPost2010Prop52
140
1.0
102
RTVSPost2010PropOp52
 70
     0
102
RTVSPost2010Prop53
 90
        2
102
RTVSPost2010PropOp53
 70
     1
102
RTVSPost2010Prop54
  1
strokes_ogs.tif
102
RTVSPost2010PropOp54
 70
     1
102
RTVSPost2010Prop55
280
     0
102
RTVSPost2010PropOp55
 70
     1
102
RTVSPost2010Prop56
140
1.0
102
RTVSPost2010PropOp56
 70
     1
102
RTVSPost2010Prop57
140
1.0
102
RTVSPost2010PropOp57
 70
     1
102
RTVSPropertyOp0
 70
     1
102
RTVSPropertyOp1
 70
     1
102
RTVSPropertyOp2
 70
     1
102
RTVSPropertyOp3
 70
     1
102
RTVSPropertyOp4
 70
     1
102
RTVSPropertyOp5
 70
     1
102
RTVSPropertyOp6
 70
     1
102
RTVSPropertyOp7
 70
     1
102
RTVSPropertyOp8
 70
     1
102
RTVSPropertyOp9
 70
     1
102
RTVSPropertyOp10
 70
     1
102
RTVSPropertyOp11
 70
     1
102
RTVSPropertyOp12
 70
     1
102
RTVSPropertyOp13
 70
     1
102
RTVSPropertyOp14
 70
     1
102
RTVSPropertyOp15
 70
     1
102
RTVSPropertyOp16
 70
     1
102
RTVSPropertyOp17
 70
     1
102
RTVSPropertyOp18
 70
     1
102
RTVSPropertyOp19
 70
     1
102
RTVSPropertyOp20
 70
     1
102
RTVSPropertyOp21
 70
     1
102
RTVSPropertyOp22
 70
     1
102
RTVSPropertyOp23
 70
     1
102
RTVSPropertyOp24
 70
     1
102
RTVSPropertyOp25
 70
     1
102
RTVSPropertyOp26
 70
     1
102
RTVSPropertyOp27
 70
     1
102
RTVSPropertyOp28
 70
     1
102
RTVSPropertyOp29
 70
     1
102
RTVSPropertyOp30
 70
     1
102
RTVSPropertyOp31
 70
     1
102
RTVSPropertyOp32
 70
     1
102
RTVSPropertyOp33
 70
     1
102
RTVSPropertyOp34
 70
     1
102
RTVSPropertyOp35
 70
     1
102
RTVSPropertyOp36
 70
     1
102
RTVSPropertyOp37
 70
     1
102
RTVSPropertyOp38
 70
     1
102
RTVSPropertyOp39
 70
     1
102
RTVSPropertyOp40
 70
     1
102
RTVSPropertyOp41
 70
     1
102
RTVSPropertyOp42
 70
     1
102
RTVSPropertyOp43
 70
     1
102
RTVSPropertyOp44
 70
     1
102
RTVSPropertyOp45
 70
     1
102
RTVSPropertyOp46
 70
     1
102
RTVSPropertyOp47
 70
     1
102
RTVSPropertyOp48
 70
     1
102
RTVSPropertyOp49
 70
     1
102
RTVSPropertyOp50
 70
     1
102
RTVSPropertyOp51
 70
     0
102
RTVSPropertyOp52
 70
     0
102
RTVSPropertyOp53
 70
     1
102
RTVSPropertyOp54
 70
     1
102
RTVSPropertyOp55
 70
     1
102
RTVSPropertyOp56
 70
     1
102
RTVSPropertyOp57
 70
     1
102
RTVSPropertyOp58
 70
     1
102
RTVSPropertyOp59
 70
     1
102
RTVSPropertyOp60
 70
     1
102
RTVSPropertyOp61
 70
     1
102
RTVSPropertyOp62
 70
     1
  0
ENDSEC
  0
EOF
