  0
SECTION
  2
HEADER
  9
$ACADVER
  1
AC1015
  9
$ACADMAINTVER
 70
    20
  9
$DWGCODEPAGE
  3
ANSI_932
  9
$INSBASE
 10
0.0
 20
0.0
 30
0.0
  9
$EXTMIN
 10
104.9999999999996
 20
0.0
 30
-0.0000000000013153
  9
$EXTMAX
 10
12230.4
 20
8557.199999999999
 30
0.0000000000013153
  9
$LIMMIN
 10
0.0
 20
0.0
  9
$LIMMAX
 10
12600.0
 20
8910.0
  9
$ORTHOMODE
 70
     0
  9
$REGENMODE
 70
     1
  9
$FILLMODE
 70
     1
  9
$QTEXTMODE
 70
     0
  9
$MIRRTEXT
 70
     1
  9
$LTSCALE
 40
7.0
  9
$ATTMODE
 70
     1
  9
$TEXTSIZE
 40
100.0
  9
$TRACEWID
 40
1.0
  9
$TEXTSTYLE
  7
STYLE3
  9
$CLAYER
  8
点線
  9
$CELTYPE
  6
BYLAYER
  9
$CECOLOR
 62
   256
  9
$CELTSCALE
 40
50.0
  9
$DISPSILH
 70
     0
  9
$DIMSCALE
 40
30.0
  9
$DIMASZ
 40
2.5
  9
$DIMEXO
 40
0.5
  9
$DIMDLI
 40
7.0
  9
$DIMRND
 40
0.0
  9
$DIMDLE
 40
0.0
  9
$DIMEXE
 40
1.5
  9
$DIMTP
 40
0.0
  9
$DIMTM
 40
0.0
  9
$DIMTXT
 40
3.0
  9
$DIMCEN
 40
0.0
  9
$DIMTSZ
 40
0.0
  9
$DIMTOL
 70
     0
  9
$DIMLIM
 70
     0
  9
$DIMTIH
 70
     1
  9
$DIMTOH
 70
     1
  9
$DIMSE1
 70
     0
  9
$DIMSE2
 70
     0
  9
$DIMTAD
 70
     3
  9
$DIMZIN
 70
     8
  9
$DIMBLK
  1

  9
$DIMASO
 70
     1
  9
$DIMSHO
 70
     1
  9
$DIMPOST
  1

  9
$DIMAPOST
  1

  9
$DIMALT
 70
     0
  9
$DIMALTD
 70
     2
  9
$DIMALTF
 40
0.0394
  9
$DIMLFAC
 40
1.0
  9
$DIMTOFL
 70
     1
  9
$DIMTVP
 40
0.0
  9
$DIMTIX
 70
     1
  9
$DIMSOXD
 70
     1
  9
$DIMSAH
 70
     1
  9
$DIMBLK1
  1
DOTSMALL
  9
$DIMBLK2
  1
DOTSMALL
  9
$DIMSTYLE
  2
INABA_S30G
  9
$DIMCLRD
 70
     0
  9
$DIMCLRE
 70
     0
  9
$DIMCLRT
 70
     7
  9
$DIMTFAC
 40
1.0
  9
$DIMGAP
 40
1.0
  9
$DIMJUST
 70
     0
  9
$DIMSD1
 70
     0
  9
$DIMSD2
 70
     0
  9
$DIMTOLJ
 70
     1
  9
$DIMTZIN
 70
     0
  9
$DIMALTZ
 70
     0
  9
$DIMALTTZ
 70
     0
  9
$DIMUPT
 70
     0
  9
$DIMDEC
 70
     1
  9
$DIMTDEC
 70
     1
  9
$DIMALTU
 70
     2
  9
$DIMALTTD
 70
     2
  9
$DIMTXSTY
  7
STYLE1
  9
$DIMAUNIT
 70
     0
  9
$DIMADEC
 70
     0
  9
$DIMALTRND
 40
0.0
  9
$DIMAZIN
 70
     0
  9
$DIMDSEP
 70
    46
  9
$DIMATFIT
 70
     3
  9
$DIMFRAC
 70
     0
  9
$DIMLDRBLK
  1

  9
$DIMLUNIT
 70
     2
  9
$DIMLWD
 70
    -2
  9
$DIMLWE
 70
    -2
  9
$DIMTMOVE
 70
     0
  9
$LUNITS
 70
     2
  9
$LUPREC
 70
     1
  9
$SKETCHINC
 40
1.0
  9
$FILLETRAD
 40
5.0
  9
$AUNITS
 70
     0
  9
$AUPREC
 70
     0
  9
$MENU
  1
acad
  9
$ELEVATION
 40
0.0
  9
$PELEVATION
 40
0.0
  9
$THICKNESS
 40
0.0
  9
$LIMCHECK
 70
     0
  9
$CHAMFERA
 40
0.0
  9
$CHAMFERB
 40
0.0
  9
$CHAMFERC
 40
0.0
  9
$CHAMFERD
 40
0.0
  9
$SKPOLY
 70
     0
  9
$TDCREATE
 40
2451074.411873148
  9
$TDUCREATE
 40
2451074.036873148
  9
$TDUPDATE
 40
2456560.838859676
  9
$TDUUPDATE
 40
2456560.463859676
  9
$TDINDWG
 40
0.3492869213
  9
$TDUSRTIMER
 40
0.3492869213
  9
$USRTIMER
 70
     1
  9
$ANGBASE
 50
0.0
  9
$ANGDIR
 70
     0
  9
$PDMODE
 70
     3
  9
$PDSIZE
 40
2.0
  9
$PLINEWID
 40
0.0
  9
$SPLFRAME
 70
     0
  9
$SPLINETYPE
 70
     6
  9
$SPLINESEGS
 70
     8
  9
$HANDSEED
  5
156C2
  9
$SURFTAB1
 70
     6
  9
$SURFTAB2
 70
     6
  9
$SURFTYPE
 70
     6
  9
$SURFU
 70
     6
  9
$SURFV
 70
     6
  9
$UCSBASE
  2

  9
$UCSNAME
  2

  9
$UCSORG
 10
0.0
 20
0.0
 30
0.0
  9
$UCSXDIR
 10
1.0
 20
0.0
 30
0.0
  9
$UCSYDIR
 10
0.0
 20
1.0
 30
0.0
  9
$UCSORTHOREF
  2

  9
$UCSORTHOVIEW
 70
     0
  9
$UCSORGTOP
 10
0.0
 20
0.0
 30
0.0
  9
$UCSORGBOTTOM
 10
0.0
 20
0.0
 30
0.0
  9
$UCSORGLEFT
 10
0.0
 20
0.0
 30
0.0
  9
$UCSORGRIGHT
 10
0.0
 20
0.0
 30
0.0
  9
$UCSORGFRONT
 10
0.0
 20
0.0
 30
0.0
  9
$UCSORGBACK
 10
0.0
 20
0.0
 30
0.0
  9
$PUCSBASE
  2

  9
$PUCSNAME
  2

  9
$PUCSORG
 10
0.0
 20
0.0
 30
0.0
  9
$PUCSXDIR
 10
1.0
 20
0.0
 30
0.0
  9
$PUCSYDIR
 10
0.0
 20
1.0
 30
0.0
  9
$PUCSORTHOREF
  2

  9
$PUCSORTHOVIEW
 70
     0
  9
$PUCSORGTOP
 10
0.0
 20
0.0
 30
0.0
  9
$PUCSORGBOTTOM
 10
0.0
 20
0.0
 30
0.0
  9
$PUCSORGLEFT
 10
0.0
 20
0.0
 30
0.0
  9
$PUCSORGRIGHT
 10
0.0
 20
0.0
 30
0.0
  9
$PUCSORGFRONT
 10
0.0
 20
0.0
 30
0.0
  9
$PUCSORGBACK
 10
0.0
 20
0.0
 30
0.0
  9
$USERI1
 70
     0
  9
$USERI2
 70
     0
  9
$USERI3
 70
     0
  9
$USERI4
 70
     0
  9
$USERI5
 70
     0
  9
$USERR1
 40
0.0
  9
$USERR2
 40
0.0
  9
$USERR3
 40
0.0
  9
$USERR4
 40
0.0
  9
$USERR5
 40
0.0
  9
$WORLDVIEW
 70
     1
  9
$SHADEDGE
 70
     3
  9
$SHADEDIF
 70
    70
  9
$TILEMODE
 70
     1
  9
$MAXACTVP
 70
    16
  9
$PINSBASE
 10
0.0
 20
0.0
 30
0.0
  9
$PLIMCHECK
 70
     0
  9
$PEXTMIN
 10
1.000000000000000E+20
 20
1.000000000000000E+20
 30
1.000000000000000E+20
  9
$PEXTMAX
 10
-1.000000000000000E+20
 20
-1.000000000000000E+20
 30
-1.000000000000000E+20
  9
$PLIMMIN
 10
0.0
 20
0.0
  9
$PLIMMAX
 10
420.0
 20
297.0
  9
$UNITMODE
 70
     0
  9
$VISRETAIN
 70
     0
  9
$PLINEGEN
 70
     0
  9
$PSLTSCALE
 70
     0
  9
$TREEDEPTH
 70
  3020
  9
$CMLSTYLE
  2
STANDARD
  9
$CMLJUST
 70
     0
  9
$CMLSCALE
 40
1.0
  9
$PROXYGRAPHICS
 70
     1
  9
$MEASUREMENT
 70
     1
  9
$CELWEIGHT
370
    -1
  9
$ENDCAPS
280
     0
  9
$JOINSTYLE
280
     0
  9
$LWDISPLAY
290
     0
  9
$INSUNITS
 70
     0
  9
$HYPERLINKBASE
  1

  9
$STYLESHEET
  1
inaba.ctb
  9
$XEDIT
290
     1
  9
$CEPSNTYPE
380
     0
  9
$PSTYLEMODE
290
     1
  9
$FINGERPRINTGUID
  2
{696AEDA2-CF37-4C16-A548-8F3E259D4281}
  9
$VERSIONGUID
  2
{422518D4-30A9-4DC2-8404-8B21972D1BEF}
  9
$EXTNAMES
290
     1
  9
$PSVPSCALE
 40
0.0
  9
$OLESTARTUP
290
     0
  0
ENDSEC
  0
SECTION
  2
CLASSES
  0
CLASS
  1
ACDBDICTIONARYWDFLT
  2
AcDbDictionaryWithDefault
  3
ObjectDBX Classes
 90
        0
280
     0
281
     0
  0
CLASS
  1
DICTIONARYVAR
  2
AcDbDictionaryVar
  3
ObjectDBX Classes
 90
        0
280
     0
281
     0
  0
CLASS
  1
MATERIAL
  2
AcDbMaterial
  3
ObjectDBX Classes
 90
     1153
280
     0
281
     0
  0
CLASS
  1
VISUALSTYLE
  2
AcDbVisualStyle
  3
ObjectDBX Classes
 90
     4095
280
     0
281
     0
  0
CLASS
  1
TABLESTYLE
  2
AcDbTableStyle
  3
ObjectDBX Classes
 90
     4095
280
     0
281
     0
  0
CLASS
  1
SCALE
  2
AcDbScale
  3
ObjectDBX Classes
 90
     1153
280
     0
281
     0
  0
CLASS
  1
MLEADERSTYLE
  2
AcDbMLeaderStyle
  3
ACDB_MLEADERSTYLE_CLASS
 90
     4095
280
     0
281
     0
  0
CLASS
  1
ACDBSECTIONVIEWSTYLE
  2
AcDbSectionViewStyle
  3
ObjectDBX Classes
 90
     1025
280
     0
281
     0
  0
CLASS
  1
ACDBDETAILVIEWSTYLE
  2
AcDbDetailViewStyle
  3
ObjectDBX Classes
 90
     1025
280
     0
281
     0
  0
CLASS
  1
EXACXREFPANELOBJECT
  2
ExAcXREFPanelObject
  3
EXAC_ESW
 90
    33793
280
     0
281
     0
  0
CLASS
  1
NPOCOLLECTION
  2
AcDbImpNonPersistentObjectsCollection
  3
ObjectDBX Classes
 90
    33921
280
     0
281
     0
  0
CLASS
  1
CELLSTYLEMAP
  2
AcDbCellStyleMap
  3
ObjectDBX Classes
 90
     1152
280
     0
281
     0
  0
CLASS
  1
ACDBPLACEHOLDER
  2
AcDbPlaceHolder
  3
ObjectDBX Classes
 90
        0
280
     0
281
     0
  0
CLASS
  1
LAYOUT
  2
AcDbLayout
  3
ObjectDBX Classes
 90
        0
280
     0
281
     0
  0
ENDSEC
  0
SECTION
  2
TABLES
  0
TABLE
  2
VPORT
  5
746D
102
{ACAD_XDICTIONARY
360
15403
102
}
330
0
100
AcDbSymbolTable
 70
     1
  0
VPORT
  5
13D1B
330
746D
100
AcDbSymbolTableRecord
100
AcDbViewportTableRecord
  2
*Active
 70
     0
 10
0.0
 20
0.0
 11
1.0
 21
1.0
 12
6167.820768928882
 22
4278.584989843981
 13
0.0
 23
0.0
 14
10.0
 24
10.0
 15
10.0
 25
10.0
 16
0.0
 26
0.0
 36
1.0
 17
0.0
 27
0.0
 37
0.0
 40
8770.358470375645
 41
1.390896921017402
 42
50.0
 43
0.0
 44
0.0
 50
0.0
 51
0.0
 71
     0
 72
     0
 73
     1
 74
     0
 75
     0
 76
     0
 77
     0
 78
     0
281
     0
 65
     1
110
0.0
120
0.0
130
0.0
111
1.0
121
0.0
131
0.0
112
0.0
122
1.0
132
0.0
 79
     0
146
0.0
1001
ACAD_NAV_VCDISPLAY
1070
     3
  0
ENDTAB
  0
TABLE
  2
LTYPE
  5
746A
330
0
100
AcDbSymbolTable
 70
     4
  0
LTYPE
  5
7477
330
746A
100
AcDbSymbolTableRecord
100
AcDbLinetypeTableRecord
  2
BYBLOCK
 70
     0
  3

 72
    65
 73
     0
 40
0.0
  0
LTYPE
  5
7478
330
746A
100
AcDbSymbolTableRecord
100
AcDbLinetypeTableRecord
  2
BYLAYER
 70
     0
  3

 72
    65
 73
     0
 40
0.0
  0
LTYPE
  5
7479
330
746A
100
AcDbSymbolTableRecord
100
AcDbLinetypeTableRecord
  2
CONTINUOUS
 70
     0
  3
Solid line
 72
    65
 73
     0
 40
0.0
  0
LTYPE
  5
781A
330
746A
100
AcDbSymbolTableRecord
100
AcDbLinetypeTableRecord
  2
HIDDEN
 70
     0
  3
__ __ __ __ __ __ __ __ __ __ __ __ __ __ __ __
 72
    65
 73
     2
 40
0.375
 49
0.25
 74
     0
 49
-0.125
 74
     0
  0
LTYPE
  5
781B
330
746A
100
AcDbSymbolTableRecord
100
AcDbLinetypeTableRecord
  2
PHANTOM
 70
     0
  3
______  __  __  ______  __  __  ______  __  __ 
 72
    65
 73
     6
 40
2.5
 49
1.25
 74
     0
 49
-0.25
 74
     0
 49
0.25
 74
     0
 49
-0.25
 74
     0
 49
0.25
 74
     0
 49
-0.25
 74
     0
  0
LTYPE
  5
13571
330
746A
100
AcDbSymbolTableRecord
100
AcDbLinetypeTableRecord
  2
CENTER
 70
     0
  3
Center ____ _ ____ _ ____ _ ____ _ ____ _ ____
 72
    65
 73
     4
 40
50.8
 49
31.75
 74
     0
 49
-6.349999999999999
 74
     0
 49
6.349999999999999
 74
     0
 49
-6.349999999999999
 74
     0
  0
ENDTAB
  0
TABLE
  2
LAYER
  5
7467
102
{ACAD_XDICTIONARY
360
13451
102
}
330
0
100
AcDbSymbolTable
 70
    14
  0
LAYER
  5
7474
102
{ACAD_XDICTIONARY
360
153E4
102
}
330
7467
100
AcDbSymbolTableRecord
100
AcDbLayerTableRecord
  2
0
 70
     0
 62
     7
  6
CONTINUOUS
370
    -3
390
1341B
  0
LAYER
  5
DEB3
102
{ACAD_XDICTIONARY
360
153E6
102
}
330
7467
100
AcDbSymbolTableRecord
100
AcDbLayerTableRecord
  2
寸法
 70
     0
 62
     4
  6
CONTINUOUS
370
    -3
390
1341B
  0
LAYER
  5
DEB4
102
{ACAD_XDICTIONARY
360
153E8
102
}
330
7467
100
AcDbSymbolTableRecord
100
AcDbLayerTableRecord
  2
部品1
 70
     0
 62
     7
  6
CONTINUOUS
370
    -3
390
1341B
  0
LAYER
  5
DEB5
102
{ACAD_XDICTIONARY
360
153EA
102
}
330
7467
100
AcDbSymbolTableRecord
100
AcDbLayerTableRecord
  2
補助
 70
     0
 62
    -1
  6
CONTINUOUS
370
    -3
390
1341B
  0
LAYER
  5
DEB6
102
{ACAD_XDICTIONARY
360
153EC
102
}
330
7467
100
AcDbSymbolTableRecord
100
AcDbLayerTableRecord
  2
文字
 70
     0
 62
     7
  6
CONTINUOUS
370
    -3
390
1341B
  0
LAYER
  5
F255
330
7467
100
AcDbSymbolTableRecord
100
AcDbLayerTableRecord
  2
DEFPOINTS
 70
     0
 62
     7
  6
CONTINUOUS
290
     0
370
    -3
390
1341B
  0
LAYER
  5
10B54
102
{ACAD_XDICTIONARY
360
153EE
102
}
330
7467
100
AcDbSymbolTableRecord
100
AcDbLayerTableRecord
  2
仕様書枠
 70
     0
 62
   230
  6
CONTINUOUS
370
    -3
390
1341B
  0
LAYER
  5
11729
102
{ACAD_XDICTIONARY
360
153F0
102
}
330
7467
100
AcDbSymbolTableRecord
100
AcDbLayerTableRecord
  2
Ｇ．Ｌ
 70
     0
 62
    30
  6
CONTINUOUS
370
    -3
390
1341B
  0
LAYER
  5
1173F
102
{ACAD_XDICTIONARY
360
153F2
102
}
330
7467
100
AcDbSymbolTableRecord
100
AcDbLayerTableRecord
  2
細線
 70
     0
 62
     5
  6
CONTINUOUS
370
    -3
390
1341B
  0
LAYER
  5
11740
102
{ACAD_XDICTIONARY
360
153F4
102
}
330
7467
100
AcDbSymbolTableRecord
100
AcDbLayerTableRecord
  2
点線
 70
     0
 62
     2
  6
HIDDEN
370
    -3
390
1341B
  0
LAYER
  5
1356E
102
{ACAD_XDICTIONARY
360
153F6
102
}
330
7467
100
AcDbSymbolTableRecord
100
AcDbLayerTableRecord
  2
センター
 70
     0
 62
     3
  6
CENTER
370
    -3
390
1341B
  0
LAYER
  5
135FB
102
{ACAD_XDICTIONARY
360
153F8
102
}
330
7467
100
AcDbSymbolTableRecord
100
AcDbLayerTableRecord
  2
想像線
 70
     0
 62
     6
  6
PHANTOM
370
    -3
390
1341B
  0
LAYER
  5
13808
102
{ACAD_XDICTIONARY
360
153FA
102
}
330
7467
100
AcDbSymbolTableRecord
100
AcDbLayerTableRecord
  2
U7
 70
     0
 62
     2
  6
CONTINUOUS
370
    -3
390
1341B
  0
LAYER
  5
13809
102
{ACAD_XDICTIONARY
360
153FC
102
}
330
7467
100
AcDbSymbolTableRecord
100
AcDbLayerTableRecord
  2
KIN-T
 70
     0
 62
     3
  6
CONTINUOUS
370
    -3
390
1341B
  0
ENDTAB
  0
TABLE
  2
STYLE
  5
7468
330
0
100
AcDbSymbolTable
 70
     5
  0
STYLE
  5
7475
330
7468
100
AcDbSymbolTableRecord
100
AcDbTextStyleTableRecord
  2
STANDARD
 70
     0
 40
0.0
 41
1.0
 50
0.0
 71
     0
 42
4.0
  3
txt
  4
C:\AutoCAD LT\bigfont.shx
  0
STYLE
  5
763C
330
7468
100
AcDbSymbolTableRecord
100
AcDbTextStyleTableRecord
  2
MSMINCHO
 70
     0
 40
0.0
 41
1.0
 50
0.0
 71
     0
 42
1.199999999999999
  3
C:\AutoCAD LT\msminch2.TTF
  4

  0
STYLE
  5
F706
330
7468
100
AcDbSymbolTableRecord
100
AcDbTextStyleTableRecord
  2
STYLE1
 70
     0
 40
0.0
 41
1.0
 50
0.0
 71
     0
 42
4.0
  3
isocp.shx
  4
bigfont.shx
  0
STYLE
  5
103BF
330
7468
100
AcDbSymbolTableRecord
100
AcDbTextStyleTableRecord
  2
STYLE2
 70
     0
 40
0.0
 41
1.0
 50
0.0
 71
     0
 42
100.0
  3

  4

1001
ACAD
1000
MS PGothic
1071
    32818
  0
STYLE
  5
10BAA
330
7468
100
AcDbSymbolTableRecord
100
AcDbTextStyleTableRecord
  2
STYLE3
 70
     0
 40
0.0
 41
1.0
 50
0.0
 71
     0
 42
100.0
  3

  4

1001
ACAD
1000
MS PGothic
1071
    32818
  0
ENDTAB
  0
TABLE
  2
VIEW
  5
746B
330
0
100
AcDbSymbolTable
 70
     0
  0
ENDTAB
  0
TABLE
  2
UCS
  5
746C
330
0
100
AcDbSymbolTable
 70
     0
  0
ENDTAB
  0
TABLE
  2
APPID
  5
746E
330
0
100
AcDbSymbolTable
 70
    11
  0
APPID
  5
7476
330
746E
100
AcDbSymbolTableRecord
100
AcDbRegAppTableRecord
  2
ACAD
 70
     0
  0
APPID
  5
DEA9
330
746E
100
AcDbSymbolTableRecord
100
AcDbRegAppTableRecord
  2
CONTENTBLOCKICON
 70
     0
  0
APPID
  5
DEAA
330
746E
100
AcDbSymbolTableRecord
100
AcDbRegAppTableRecord
  2
CONTENTBLOCKDESCRIPTION
 70
     0
  0
APPID
  5
E71D
330
746E
100
AcDbSymbolTableRecord
100
AcDbRegAppTableRecord
  2
CONTENTTABDATA
 70
     0
  0
APPID
  5
E71E
330
746E
100
AcDbSymbolTableRecord
100
AcDbRegAppTableRecord
  2
CONTENTCURRENTTAB
 70
     0
  0
APPID
  5
F3BA
330
746E
100
AcDbSymbolTableRecord
100
AcDbRegAppTableRecord
  2
DRAWINGVARIABLESXDATA
 70
     0
  0
APPID
  5
1422E
330
746E
100
AcDbSymbolTableRecord
100
AcDbRegAppTableRecord
  2
ACAD_NAV_VCDISPLAY
 70
     0
  0
APPID
  5
1422F
330
746E
100
AcDbSymbolTableRecord
100
AcDbRegAppTableRecord
  2
GradientColor1ACI
 70
     0
  0
APPID
  5
14230
330
746E
100
AcDbSymbolTableRecord
100
AcDbRegAppTableRecord
  2
GradientColor2ACI
 70
     0
  0
APPID
  5
15293
330
746E
100
AcDbSymbolTableRecord
100
AcDbRegAppTableRecord
  2
ACAD_EXEMPT_FROM_CAD_STANDARDS
 70
     0
  0
APPID
  5
1543D
330
746E
100
AcDbSymbolTableRecord
100
AcDbRegAppTableRecord
  2
ACAD_MLEADERVER
 70
     0
  0
ENDTAB
  0
TABLE
  2
DIMSTYLE
  5
746F
330
0
100
AcDbSymbolTable
 70
     1
100
AcDbDimStyleTable
 71
     1
340
F71F
  0
DIMSTYLE
105
F71F
102
{ACAD_REACTORS
330
14883
330
14884
330
14885
330
14889
330
1488A
330
1488B
330
1488F
330
14890
330
14891
330
14892
330
14893
330
14894
330
14895
330
14896
330
14897
330
14898
330
14899
330
1489A
330
1489B
330
1489C
330
14658
330
14659
330
1465A
330
1465B
330
1465C
330
1465D
330
1465E
330
1465F
330
14660
330
153D6
330
153C9
102
}
330
746F
100
AcDbSymbolTableRecord
100
AcDbDimStyleTableRecord
  2
INABA_S30G
 70
     0
 40
30.0
 41
2.5
 42
0.5
 43
7.0
 44
1.5
 73
     0
 74
     0
 77
     3
 78
     8
140
3.0
141
0.0
143
0.0394
147
1.0
172
     1
173
     1
174
     1
175
     1
178
     7
271
     1
340
F706
341
F770
343
F770
344
F770
  0
ENDTAB
  0
TABLE
  2
BLOCK_RECORD
  5
7466
330
0
100
AcDbSymbolTable
 70
    32
  0
BLOCK_RECORD
  5
747D
330
7466
100
AcDbSymbolTableRecord
100
AcDbBlockTableRecord
  2
*MODEL_SPACE
340
13420
  0
BLOCK_RECORD
  5
747A
330
7466
100
AcDbSymbolTableRecord
100
AcDbBlockTableRecord
  2
*PAPER_SPACE
340
13421
  0
BLOCK_RECORD
  5
F770
330
7466
100
AcDbSymbolTableRecord
100
AcDbBlockTableRecord
  2
_DOTSMALL
340
0
102
{BLKREFS
331
15474
331
15475
331
1547E
331
1547F
331
15487
331
15488
331
15490
331
15491
331
15499
331
1549A
331
154A2
331
154A3
331
154AB
331
154AC
331
154B6
331
154B7
331
154C1
331
154C2
331
154D8
331
154D9
331
154E2
331
154E3
331
154EB
331
154EC
331
154F5
331
154F6
331
154FE
331
154FF
331
15507
331
15508
331
15510
331
15511
331
15519
331
1551A
331
15522
331
15523
331
1552B
331
1552C
331
15534
331
15535
331
1553D
331
1553E
331
15546
331
15547
331
1554F
331
15550
331
15558
331
15559
331
15561
331
15562
331
1556A
331
1556B
331
15573
331
15574
331
1557C
331
1557D
331
15585
331
15586
102
}
  0
BLOCK_RECORD
  5
14AE8
330
7466
100
AcDbSymbolTableRecord
100
AcDbBlockTableRecord
  2
*D1
340
0
  0
BLOCK_RECORD
  5
14AF2
330
7466
100
AcDbSymbolTableRecord
100
AcDbBlockTableRecord
  2
*D2
340
0
  0
BLOCK_RECORD
  5
14AFC
330
7466
100
AcDbSymbolTableRecord
100
AcDbBlockTableRecord
  2
*D3
340
0
  0
BLOCK_RECORD
  5
14B28
330
7466
100
AcDbSymbolTableRecord
100
AcDbBlockTableRecord
  2
*D4
340
0
  0
BLOCK_RECORD
  5
14B35
330
7466
100
AcDbSymbolTableRecord
100
AcDbBlockTableRecord
  2
*D5
340
0
  0
BLOCK_RECORD
  5
14B41
330
7466
100
AcDbSymbolTableRecord
100
AcDbBlockTableRecord
  2
*D6
340
0
  0
BLOCK_RECORD
  5
14B74
330
7466
100
AcDbSymbolTableRecord
100
AcDbBlockTableRecord
  2
*D7
340
0
  0
BLOCK_RECORD
  5
14B80
330
7466
100
AcDbSymbolTableRecord
100
AcDbBlockTableRecord
  2
*D8
340
0
  0
BLOCK_RECORD
  5
14B8C
330
7466
100
AcDbSymbolTableRecord
100
AcDbBlockTableRecord
  2
*D9
340
0
  0
BLOCK_RECORD
  5
14B98
330
7466
100
AcDbSymbolTableRecord
100
AcDbBlockTableRecord
  2
*D10
340
0
  0
BLOCK_RECORD
  5
14BA4
330
7466
100
AcDbSymbolTableRecord
100
AcDbBlockTableRecord
  2
*D11
340
0
  0
BLOCK_RECORD
  5
14BB0
330
7466
100
AcDbSymbolTableRecord
100
AcDbBlockTableRecord
  2
*D12
340
0
  0
BLOCK_RECORD
  5
14BBC
330
7466
100
AcDbSymbolTableRecord
100
AcDbBlockTableRecord
  2
*D13
340
0
  0
BLOCK_RECORD
  5
14BC8
330
7466
100
AcDbSymbolTableRecord
100
AcDbBlockTableRecord
  2
*D14
340
0
  0
BLOCK_RECORD
  5
14BD4
330
7466
100
AcDbSymbolTableRecord
100
AcDbBlockTableRecord
  2
*D15
340
0
  0
BLOCK_RECORD
  5
14BE0
330
7466
100
AcDbSymbolTableRecord
100
AcDbBlockTableRecord
  2
*D16
340
0
  0
BLOCK_RECORD
  5
14BEC
330
7466
100
AcDbSymbolTableRecord
100
AcDbBlockTableRecord
  2
*D17
340
0
  0
BLOCK_RECORD
  5
14BF8
330
7466
100
AcDbSymbolTableRecord
100
AcDbBlockTableRecord
  2
*D18
340
0
  0
BLOCK_RECORD
  5
14C04
330
7466
100
AcDbSymbolTableRecord
100
AcDbBlockTableRecord
  2
*D19
340
0
  0
BLOCK_RECORD
  5
14C10
330
7466
100
AcDbSymbolTableRecord
100
AcDbBlockTableRecord
  2
*D20
340
0
  0
BLOCK_RECORD
  5
14CC4
330
7466
100
AcDbSymbolTableRecord
100
AcDbBlockTableRecord
  2
*D21
340
0
  0
BLOCK_RECORD
  5
14CD1
330
7466
100
AcDbSymbolTableRecord
100
AcDbBlockTableRecord
  2
*D22
340
0
  0
BLOCK_RECORD
  5
14CDE
330
7466
100
AcDbSymbolTableRecord
100
AcDbBlockTableRecord
  2
*D23
340
0
  0
BLOCK_RECORD
  5
14CEA
330
7466
100
AcDbSymbolTableRecord
100
AcDbBlockTableRecord
  2
*D24
340
0
  0
BLOCK_RECORD
  5
14CF6
330
7466
100
AcDbSymbolTableRecord
100
AcDbBlockTableRecord
  2
*D25
340
0
  0
BLOCK_RECORD
  5
14D02
330
7466
100
AcDbSymbolTableRecord
100
AcDbBlockTableRecord
  2
*D26
340
0
  0
BLOCK_RECORD
  5
14D0E
330
7466
100
AcDbSymbolTableRecord
100
AcDbBlockTableRecord
  2
*D27
340
0
  0
BLOCK_RECORD
  5
14D1A
330
7466
100
AcDbSymbolTableRecord
100
AcDbBlockTableRecord
  2
*D28
340
0
  0
BLOCK_RECORD
  5
14D28
330
7466
100
AcDbSymbolTableRecord
100
AcDbBlockTableRecord
  2
*D29
340
0
  0
BLOCK_RECORD
  5
153CA
330
7466
100
AcDbSymbolTableRecord
100
AcDbBlockTableRecord
  2
*D30
340
0
  0
BLOCK_RECORD
  5
153D7
330
7466
100
AcDbSymbolTableRecord
100
AcDbBlockTableRecord
  2
*D31
340
0
  0
ENDTAB
  0
ENDSEC
  0
SECTION
  2
BLOCKS
  0
BLOCK
  5
7489
330
747D
100
AcDbEntity
  8
0
100
AcDbBlockBegin
  2
*MODEL_SPACE
 70
     0
 10
0.0
 20
0.0
 30
0.0
  3
*MODEL_SPACE
  1

  0
ENDBLK
  5
748A
330
747D
100
AcDbEntity
  8
0
100
AcDbBlockEnd
  0
BLOCK
  5
7487
330
747A
100
AcDbEntity
 67
     1
  8
0
100
AcDbBlockBegin
  2
*PAPER_SPACE
 70
     0
 10
0.0
 20
0.0
 30
0.0
  3
*PAPER_SPACE
  1

  0
ENDBLK
  5
7488
330
747A
100
AcDbEntity
 67
     1
  8
0
100
AcDbBlockEnd
  0
BLOCK
  5
F771
330
F770
100
AcDbEntity
  8
0
 48
50.0
100
AcDbBlockBegin
  2
_DOTSMALL
 70
     0
 10
0.0
 20
0.0
 30
0.0
  3
_DOTSMALL
  1

  0
LWPOLYLINE
  5
F772
330
F770
100
AcDbEntity
  8
0
  6
ByBlock
 62
     0
 48
50.0
100
AcDbPolyline
 90
        2
 70
     1
 43
0.5
 10
-0.0625
 20
0.0
 42
1.0
 10
0.0625
 20
0.0
 42
1.0
  0
ENDBLK
  5
F776
330
F770
100
AcDbEntity
  8
0
 48
50.0
100
AcDbBlockEnd
  0
BLOCK
  5
14AE9
330
14AE8
100
AcDbEntity
  8
0
 48
50.0
100
AcDbBlockBegin
  2
*D1
 70
     1
 10
0.0
 20
0.0
 30
0.0
  3
*D1
  1

  0
LINE
  5
154C7
330
14AE8
100
AcDbEntity
  8
寸法
 62
     0
 48
50.0
370
    -2
100
AcDbLine
 10
1089.593375928743
 20
1729.677985071433
 30
0.0
 11
1089.593375928743
 21
1234.690266734916
 31
0.0
  0
LINE
  5
154C8
330
14AE8
100
AcDbEntity
  8
寸法
 62
     0
 48
50.0
370
    -2
100
AcDbLine
 10
919.5933759286853
 20
1593.177985071433
 30
0.0
 11
919.5933759286853
 21
1234.690266734916
 31
0.0
  0
LINE
  5
154C9
330
14AE8
100
AcDbEntity
  8
寸法
 62
     0
 48
50.0
370
    -2
100
AcDbLine
 10
1089.593375928743
 20
1279.690266734916
 30
0.0
 11
919.5933759286853
 21
1279.690266734916
 31
0.0
  0
MTEXT
  5
154CA
330
14AE8
100
AcDbEntity
  8
寸法
 62
     7
 48
50.0
100
AcDbMText
 10
1004.593375928714
 20
1354.690266734916
 30
0.0
 40
90.0
 41
0.0
 71
     5
 72
     1
  1
\A1;170
  7
STYLE1
 73
     1
 44
1.0
1001
ACAD
1000
MTEXTBEGIN
1070
    73
1070
     1
1070
    44
1040
1.0
1070
    74
1070
     0
1000
MTEXTEND
  0
POINT
  5
154CB
330
14AE8
100
AcDbEntity
  8
DEFPOINTS
 62
     0
 48
50.0
100
AcDbPoint
 10
1089.593375928743
 20
1744.677985071433
 30
0.0
  0
POINT
  5
154CC
330
14AE8
100
AcDbEntity
  8
DEFPOINTS
 62
     0
 48
50.0
100
AcDbPoint
 10
919.5933759286853
 20
1608.177985071433
 30
0.0
  0
POINT
  5
154CD
330
14AE8
100
AcDbEntity
  8
DEFPOINTS
 62
     0
 48
50.0
100
AcDbPoint
 10
919.5933759286853
 20
1279.690266734916
 30
0.0
  0
ENDBLK
  5
14AEA
330
14AE8
100
AcDbEntity
  8
0
 48
50.0
100
AcDbBlockEnd
  0
BLOCK
  5
14AF3
330
14AF2
100
AcDbEntity
  8
0
 48
50.0
100
AcDbBlockBegin
  2
*D2
 70
     1
 10
0.0
 20
0.0
 30
0.0
  3
*D2
  1

  0
LINE
  5
154CE
330
14AF2
100
AcDbEntity
  8
寸法
 62
     0
 48
50.0
370
    -2
100
AcDbLine
 10
7149.593375928628
 20
1729.677985071433
 30
0.0
 11
7149.593375928628
 21
1234.690266734916
 31
0.0
  0
LINE
  5
154CF
330
14AF2
100
AcDbEntity
  8
寸法
 62
     0
 48
50.0
370
    -2
100
AcDbLine
 10
7319.593375928686
 20
1593.177985071433
 30
0.0
 11
7319.593375928686
 21
1234.690266734916
 31
0.0
  0
LINE
  5
154D0
330
14AF2
100
AcDbEntity
  8
寸法
 62
     0
 48
50.0
370
    -2
100
AcDbLine
 10
7149.593375928628
 20
1279.690266734916
 30
0.0
 11
7319.593375928686
 21
1279.690266734916
 31
0.0
  0
MTEXT
  5
154D1
330
14AF2
100
AcDbEntity
  8
寸法
 62
     7
 48
50.0
100
AcDbMText
 10
7234.593375928657
 20
1354.690266734916
 30
0.0
 40
90.0
 41
0.0
 71
     5
 72
     1
  1
\A1;170
  7
STYLE1
 73
     1
 44
1.0
1001
ACAD
1000
MTEXTBEGIN
1070
    73
1070
     1
1070
    44
1040
1.0
1070
    74
1070
     0
1000
MTEXTEND
  0
POINT
  5
154D2
330
14AF2
100
AcDbEntity
  8
DEFPOINTS
 62
     0
 48
50.0
100
AcDbPoint
 10
7149.593375928628
 20
1744.677985071433
 30
0.0
  0
POINT
  5
154D3
330
14AF2
100
AcDbEntity
  8
DEFPOINTS
 62
     0
 48
50.0
100
AcDbPoint
 10
7319.593375928686
 20
1608.177985071433
 30
0.0
  0
POINT
  5
154D4
330
14AF2
100
AcDbEntity
  8
DEFPOINTS
 62
     0
 48
50.0
100
AcDbPoint
 10
7319.593375928686
 20
1279.690266734916
 30
0.0
  0
ENDBLK
  5
14AF4
330
14AF2
100
AcDbEntity
  8
0
 48
50.0
100
AcDbBlockEnd
  0
BLOCK
  5
14AFD
330
14AFC
100
AcDbEntity
  8
0
 48
50.0
100
AcDbBlockBegin
  2
*D3
 70
     1
 10
0.0
 20
0.0
 30
0.0
  3
*D3
  1

  0
LINE
  5
154D5
330
14AFC
100
AcDbEntity
  8
寸法
 62
     0
 48
50.0
370
    -2
100
AcDbLine
 10
1089.593375928743
 20
1729.677985071433
 30
0.0
 11
1089.593375928743
 21
1234.690266734916
 31
0.0
  0
LINE
  5
154D6
330
14AFC
100
AcDbEntity
  8
寸法
 62
     0
 48
50.0
370
    -2
100
AcDbLine
 10
7149.593375928628
 20
1729.677985071433
 30
0.0
 11
7149.593375928628
 21
1234.690266734916
 31
0.0
  0
LINE
  5
154D7
330
14AFC
100
AcDbEntity
  8
寸法
 62
     0
 48
50.0
370
    -2
100
AcDbLine
 10
1089.593375928743
 20
1279.690266734916
 30
0.0
 11
7149.593375928628
 21
1279.690266734916
 31
0.0
  0
INSERT
  5
154D8
330
14AFC
100
AcDbEntity
  8
寸法
 62
     0
 48
50.0
370
    -2
100
AcDbBlockReference
  2
_DOTSMALL
 10
1089.593375928743
 20
1279.690266734916
 30
0.0
 41
75.0
 42
75.0
 43
75.0
 50
180.0
  0
INSERT
  5
154D9
330
14AFC
100
AcDbEntity
  8
寸法
 62
     0
 48
50.0
370
    -2
100
AcDbBlockReference
  2
_DOTSMALL
 10
7149.593375928628
 20
1279.690266734916
 30
0.0
 41
75.0
 42
75.0
 43
75.0
  0
MTEXT
  5
154DA
330
14AFC
100
AcDbEntity
  8
寸法
 62
     7
 48
50.0
100
AcDbMText
 10
4119.593375928685
 20
1354.690266734916
 30
0.0
 40
90.0
 41
0.0
 71
     5
 72
     1
  1
\A1;屋根寸法 6060
  7
STYLE1
 73
     1
 44
1.0
1001
ACAD
1000
MTEXTBEGIN
1070
    73
1070
     1
1070
    44
1040
1.0
1070
    74
1070
     0
1000
MTEXTEND
  0
POINT
  5
154DB
330
14AFC
100
AcDbEntity
  8
DEFPOINTS
 62
     0
 48
50.0
100
AcDbPoint
 10
1089.593375928743
 20
1744.677985071433
 30
0.0
  0
POINT
  5
154DC
330
14AFC
100
AcDbEntity
  8
DEFPOINTS
 62
     0
 48
50.0
100
AcDbPoint
 10
7149.593375928628
 20
1744.677985071433
 30
0.0
  0
POINT
  5
154DD
330
14AFC
100
AcDbEntity
  8
DEFPOINTS
 62
     0
 48
50.0
100
AcDbPoint
 10
7149.593375928628
 20
1279.690266734916
 30
0.0
  0
ENDBLK
  5
14AFE
330
14AFC
100
AcDbEntity
  8
0
 48
50.0
100
AcDbBlockEnd
  0
BLOCK
  5
14B29
330
14B28
100
AcDbEntity
  8
0
 48
50.0
100
AcDbBlockBegin
  2
*D4
 70
     1
 10
0.0
 20
0.0
 30
0.0
  3
*D4
  1

  0
LINE
  5
154DE
330
14B28
100
AcDbEntity
  8
寸法
 62
     0
 48
50.0
370
    -2
100
AcDbLine
 10
7164.593375928628
 20
1744.677985071433
 30
0.0
 11
7746.867598292287
 21
1744.677985071433
 31
0.0
  0
LINE
  5
154DF
330
14B28
100
AcDbEntity
  8
寸法
 62
     0
 48
50.0
370
    -2
100
AcDbLine
 10
7334.593375928685
 20
1608.177985071433
 30
0.0
 11
7746.867598292287
 21
1608.177985071433
 31
0.0
  0
LINE
  5
154E0
330
14B28
100
AcDbEntity
  8
寸法
 62
     0
 48
50.0
370
    -2
100
AcDbLine
 10
7701.867598292287
 20
1744.677985071433
 30
0.0
 11
7701.867598292287
 21
1608.177985071433
 31
0.0
  0
LINE
  5
154E1
330
14B28
100
AcDbEntity
  8
寸法
 62
     0
 48
50.0
370
    -2
100
AcDbLine
 10
7701.867598292287
 20
1608.177985071433
 30
0.0
 11
7701.867598292287
 21
1235.450063010075
 31
0.0
  0
INSERT
  5
154E2
330
14B28
100
AcDbEntity
  8
寸法
 62
     0
 48
50.0
370
    -2
100
AcDbBlockReference
  2
_DOTSMALL
 10
7701.867598292287
 20
1744.677985071433
 30
0.0
 41
75.0
 42
75.0
 43
75.0
 50
90.0
  0
INSERT
  5
154E3
330
14B28
100
AcDbEntity
  8
寸法
 62
     0
 48
50.0
370
    -2
100
AcDbBlockReference
  2
_DOTSMALL
 10
7701.867598292287
 20
1608.177985071433
 30
0.0
 41
75.0
 42
75.0
 43
75.0
 50
270.0
  0
MTEXT
  5
154E4
330
14B28
100
AcDbEntity
  8
寸法
 62
     7
 48
50.0
100
AcDbMText
 10
7626.867598292287
 20
1384.314024040756
 30
0.0
 40
90.0
 41
0.0
 71
     5
 72
     1
  1
\A1;136.5
  7
STYLE1
 11
0.0000000000000001
 21
1.0
 31
0.0
 73
     1
 44
1.0
1001
ACAD
1000
MTEXTBEGIN
1070
    73
1070
     1
1070
    44
1040
1.0
1070
    74
1070
     0
1000
MTEXTEND
  0
POINT
  5
154E5
330
14B28
100
AcDbEntity
  8
DEFPOINTS
 62
     0
 48
50.0
100
AcDbPoint
 10
7149.593375928628
 20
1744.677985071433
 30
0.0
  0
POINT
  5
154E6
330
14B28
100
AcDbEntity
  8
DEFPOINTS
 62
     0
 48
50.0
100
AcDbPoint
 10
7319.593375928686
 20
1608.177985071433
 30
0.0
  0
POINT
  5
154E7
330
14B28
100
AcDbEntity
  8
DEFPOINTS
 62
     0
 48
50.0
100
AcDbPoint
 10
7701.867598292287
 20
1608.177985071433
 30
0.0
  0
ENDBLK
  5
14B2A
330
14B28
100
AcDbEntity
  8
0
 48
50.0
100
AcDbBlockEnd
  0
BLOCK
  5
14B36
330
14B35
100
AcDbEntity
  8
0
 48
50.0
100
AcDbBlockBegin
  2
*D5
 70
     1
 10
0.0
 20
0.0
 30
0.0
  3
*D5
  1

  0
LINE
  5
154E8
330
14B35
100
AcDbEntity
  8
寸法
 62
     0
 48
50.0
370
    -2
100
AcDbLine
 10
7164.593375928628
 20
5821.677985071434
 30
0.0
 11
7746.867598292287
 21
5821.677985071434
 31
0.0
  0
LINE
  5
154E9
330
14B35
100
AcDbEntity
  8
寸法
 62
     0
 48
50.0
370
    -2
100
AcDbLine
 10
7164.593375928628
 20
1744.677985071433
 30
0.0
 11
7746.867598292287
 21
1744.677985071433
 31
0.0
  0
LINE
  5
154EA
330
14B35
100
AcDbEntity
  8
寸法
 62
     0
 48
50.0
370
    -2
100
AcDbLine
 10
7701.867598292288
 20
5821.677985071434
 30
0.0
 11
7701.867598292287
 21
1744.677985071433
 31
0.0
  0
INSERT
  5
154EB
330
14B35
100
AcDbEntity
  8
寸法
 62
     0
 48
50.0
370
    -2
100
AcDbBlockReference
  2
_DOTSMALL
 10
7701.867598292288
 20
5821.677985071434
 30
0.0
 41
75.0
 42
75.0
 43
75.0
 50
90.0
  0
INSERT
  5
154EC
330
14B35
100
AcDbEntity
  8
寸法
 62
     0
 48
50.0
370
    -2
100
AcDbBlockReference
  2
_DOTSMALL
 10
7701.867598292287
 20
1744.677985071433
 30
0.0
 41
75.0
 42
75.0
 43
75.0
 50
270.0
  0
MTEXT
  5
154ED
330
14B35
100
AcDbEntity
  8
寸法
 62
     7
 48
50.0
100
AcDbMText
 10
7626.867598292287
 20
3783.177985071435
 30
0.0
 40
90.0
 41
0.0
 71
     5
 72
     1
  1
\A1;屋根寸法 4077
  7
STYLE1
 11
0.0000000000000001
 21
1.0
 31
0.0
 73
     1
 44
1.0
1001
ACAD
1000
MTEXTBEGIN
1070
    73
1070
     1
1070
    44
1040
1.0
1070
    74
1070
     0
1000
MTEXTEND
  0
POINT
  5
154EE
330
14B35
100
AcDbEntity
  8
DEFPOINTS
 62
     0
 48
50.0
100
AcDbPoint
 10
7149.593375928628
 20
5821.677985071434
 30
0.0
  0
POINT
  5
154EF
330
14B35
100
AcDbEntity
  8
DEFPOINTS
 62
     0
 48
50.0
100
AcDbPoint
 10
7149.593375928628
 20
1744.677985071433
 30
0.0
  0
POINT
  5
154F0
330
14B35
100
AcDbEntity
  8
DEFPOINTS
 62
     0
 48
50.0
100
AcDbPoint
 10
7701.867598292287
 20
1744.677985071433
 30
0.0
  0
ENDBLK
  5
14B37
330
14B35
100
AcDbEntity
  8
0
 48
50.0
100
AcDbBlockEnd
  0
BLOCK
  5
14B42
330
14B41
100
AcDbEntity
  8
0
 48
50.0
100
AcDbBlockBegin
  2
*D6
 70
     1
 10
0.0
 20
0.0
 30
0.0
  3
*D6
  1

  0
LINE
  5
154F1
330
14B41
100
AcDbEntity
  8
寸法
 62
     0
 48
50.0
370
    -2
100
AcDbLine
 10
7164.593375928628
 20
5821.677985071434
 30
0.0
 11
7746.867598292287
 21
5821.677985071434
 31
0.0
  0
LINE
  5
154F2
330
14B41
100
AcDbEntity
  8
寸法
 62
     0
 48
50.0
370
    -2
100
AcDbLine
 10
7334.593375928685
 20
5958.177985071434
 30
0.0
 11
7746.867598292287
 21
5958.177985071434
 31
0.0
  0
LINE
  5
154F3
330
14B41
100
AcDbEntity
  8
寸法
 62
     0
 48
50.0
370
    -2
100
AcDbLine
 10
7701.867598292288
 20
5821.677985071434
 30
0.0
 11
7701.867598292288
 21
5958.177985071434
 31
0.0
  0
LINE
  5
154F4
330
14B41
100
AcDbEntity
  8
寸法
 62
     0
 48
50.0
370
    -2
100
AcDbLine
 10
7701.867598292288
 20
5958.177985071434
 30
0.0
 11
7701.867598292288
 21
6330.905907132841
 31
0.0
  0
INSERT
  5
154F5
330
14B41
100
AcDbEntity
  8
寸法
 62
     0
 48
50.0
370
    -2
100
AcDbBlockReference
  2
_DOTSMALL
 10
7701.867598292288
 20
5821.677985071434
 30
0.0
 41
75.0
 42
75.0
 43
75.0
 50
270.0
  0
INSERT
  5
154F6
330
14B41
100
AcDbEntity
  8
寸法
 62
     0
 48
50.0
370
    -2
100
AcDbBlockReference
  2
_DOTSMALL
 10
7701.867598292288
 20
5958.177985071434
 30
0.0
 41
75.0
 42
75.0
 43
75.0
 50
90.0
  0
MTEXT
  5
154F7
330
14B41
100
AcDbEntity
  8
寸法
 62
     7
 48
50.0
100
AcDbMText
 10
7626.867598292287
 20
6182.041946102163
 30
0.0
 40
90.0
 41
0.0
 71
     5
 72
     1
  1
\A1;136.5
  7
STYLE1
 11
0.0000000000000001
 21
1.0
 31
0.0
 73
     1
 44
1.0
1001
ACAD
1000
MTEXTBEGIN
1070
    73
1070
     1
1070
    44
1040
1.0
1070
    74
1070
     0
1000
MTEXTEND
  0
POINT
  5
154F8
330
14B41
100
AcDbEntity
  8
DEFPOINTS
 62
     0
 48
50.0
100
AcDbPoint
 10
7149.593375928628
 20
5821.677985071434
 30
0.0
  0
POINT
  5
154F9
330
14B41
100
AcDbEntity
  8
DEFPOINTS
 62
     0
 48
50.0
100
AcDbPoint
 10
7319.593375928686
 20
5958.177985071434
 30
0.0
  0
POINT
  5
154FA
330
14B41
100
AcDbEntity
  8
DEFPOINTS
 62
     0
 48
50.0
100
AcDbPoint
 10
7701.867598292288
 20
5958.177985071434
 30
0.0
  0
ENDBLK
  5
14B43
330
14B41
100
AcDbEntity
  8
0
 48
50.0
100
AcDbBlockEnd
  0
BLOCK
  5
14B75
330
14B74
100
AcDbEntity
  8
0
 48
50.0
100
AcDbBlockBegin
  2
*D7
 70
     1
 10
0.0
 20
0.0
 30
0.0
  3
*D7
  1

  0
LINE
  5
154FB
330
14B74
100
AcDbEntity
  8
寸法
 62
     0
 48
50.0
370
    -2
100
AcDbLine
 10
904.5933759286853
 20
5958.177985071434
 30
0.0
 11
310.9721772009953
 21
5958.177985071434
 31
0.0
  0
LINE
  5
154FC
330
14B74
100
AcDbEntity
  8
寸法
 62
     0
 48
50.0
370
    -2
100
AcDbLine
 10
904.5933759286853
 20
1608.177985071433
 30
0.0
 11
310.9721772009943
 21
1608.177985071433
 31
0.0
  0
LINE
  5
154FD
330
14B74
100
AcDbEntity
  8
寸法
 62
     0
 48
50.0
370
    -2
100
AcDbLine
 10
355.9721772009953
 20
5958.177985071434
 30
0.0
 11
355.9721772009944
 21
1608.177985071433
 31
0.0
  0
INSERT
  5
154FE
330
14B74
100
AcDbEntity
  8
寸法
 62
     0
 48
50.0
370
    -2
100
AcDbBlockReference
  2
_DOTSMALL
 10
355.9721772009953
 20
5958.177985071434
 30
0.0
 41
75.0
 42
75.0
 43
75.0
 50
90.0
  0
INSERT
  5
154FF
330
14B74
100
AcDbEntity
  8
寸法
 62
     0
 48
50.0
370
    -2
100
AcDbBlockReference
  2
_DOTSMALL
 10
355.9721772009944
 20
1608.177985071433
 30
0.0
 41
75.0
 42
75.0
 43
75.0
 50
270.0
  0
MTEXT
  5
15500
330
14B74
100
AcDbEntity
  8
寸法
 62
     7
 48
50.0
100
AcDbMText
 10
280.9721772009942
 20
3783.177985071434
 30
0.0
 40
90.0
 41
0.0
 71
     5
 72
     1
  1
\A1;基礎土間寸法 4350
  7
STYLE1
 11
0.0000000000000001
 21
1.0
 31
0.0
 73
     1
 44
1.0
1001
ACAD
1000
MTEXTBEGIN
1070
    73
1070
     1
1070
    44
1040
1.0
1070
    74
1070
     0
1000
MTEXTEND
  0
POINT
  5
15501
330
14B74
100
AcDbEntity
  8
DEFPOINTS
 62
     0
 48
50.0
100
AcDbPoint
 10
919.5933759286853
 20
5958.177985071434
 30
0.0
  0
POINT
  5
15502
330
14B74
100
AcDbEntity
  8
DEFPOINTS
 62
     0
 48
50.0
100
AcDbPoint
 10
919.5933759286853
 20
1608.177985071433
 30
0.0
  0
POINT
  5
15503
330
14B74
100
AcDbEntity
  8
DEFPOINTS
 62
     0
 48
50.0
100
AcDbPoint
 10
355.9721772009944
 20
1608.177985071433
 30
0.0
  0
ENDBLK
  5
14B76
330
14B74
100
AcDbEntity
  8
0
 48
50.0
100
AcDbBlockEnd
  0
BLOCK
  5
14B81
330
14B80
100
AcDbEntity
  8
0
 48
50.0
100
AcDbBlockBegin
  2
*D8
 70
     1
 10
0.0
 20
0.0
 30
0.0
  3
*D8
  1

  0
LINE
  5
15504
330
14B80
100
AcDbEntity
  8
寸法
 62
     0
 48
50.0
370
    -2
100
AcDbLine
 10
1054.593375928685
 20
3608.177985071434
 30
0.0
 11
533.7215392174407
 21
3608.177985071434
 31
0.0
  0
LINE
  5
15505
330
14B80
100
AcDbEntity
  8
寸法
 62
     0
 48
50.0
370
    -2
100
AcDbLine
 10
904.5933759286853
 20
1608.177985071433
 30
0.0
 11
533.7215392174402
 21
1608.177985071433
 31
0.0
  0
LINE
  5
15506
330
14B80
100
AcDbEntity
  8
寸法
 62
     0
 48
50.0
370
    -2
100
AcDbLine
 10
578.7215392174407
 20
3608.177985071434
 30
0.0
 11
578.7215392174402
 21
1608.177985071433
 31
0.0
  0
INSERT
  5
15507
330
14B80
100
AcDbEntity
  8
寸法
 62
     0
 48
50.0
370
    -2
100
AcDbBlockReference
  2
_DOTSMALL
 10
578.7215392174407
 20
3608.177985071434
 30
0.0
 41
75.0
 42
75.0
 43
75.0
 50
90.0
  0
INSERT
  5
15508
330
14B80
100
AcDbEntity
  8
寸法
 62
     0
 48
50.0
370
    -2
100
AcDbBlockReference
  2
_DOTSMALL
 10
578.7215392174402
 20
1608.177985071433
 30
0.0
 41
75.0
 42
75.0
 43
75.0
 50
270.0
  0
MTEXT
  5
15509
330
14B80
100
AcDbEntity
  8
寸法
 62
     7
 48
50.0
100
AcDbMText
 10
503.7126809497236
 20
2608.177985071434
 30
0.0
 40
90.0
 41
0.0
 71
     5
 72
     1
  1
\A1;2000
  7
STYLE1
 11
0.0000000000000001
 21
1.0
 31
0.0
 73
     1
 44
1.0
1001
ACAD
1000
MTEXTBEGIN
1070
    73
1070
     1
1070
    44
1040
1.0
1070
    74
1070
     0
1000
MTEXTEND
  0
POINT
  5
1550A
330
14B80
100
AcDbEntity
  8
DEFPOINTS
 62
     0
 48
50.0
100
AcDbPoint
 10
1069.593375928685
 20
3608.177985071434
 30
0.0
  0
POINT
  5
1550B
330
14B80
100
AcDbEntity
  8
DEFPOINTS
 62
     0
 48
50.0
100
AcDbPoint
 10
919.5933759286853
 20
1608.177985071433
 30
0.0
  0
POINT
  5
1550C
330
14B80
100
AcDbEntity
  8
DEFPOINTS
 62
     0
 48
50.0
100
AcDbPoint
 10
578.7215392174402
 20
1608.177985071433
 30
0.0
  0
ENDBLK
  5
14B82
330
14B80
100
AcDbEntity
  8
0
 48
50.0
100
AcDbBlockEnd
  0
BLOCK
  5
14B8D
330
14B8C
100
AcDbEntity
  8
0
 48
50.0
100
AcDbBlockBegin
  2
*D9
 70
     1
 10
0.0
 20
0.0
 30
0.0
  3
*D9
  1

  0
LINE
  5
1550D
330
14B8C
100
AcDbEntity
  8
寸法
 62
     0
 48
50.0
370
    -2
100
AcDbLine
 10
1054.593375928685
 20
3958.177985071433
 30
0.0
 11
533.7215392174404
 21
3958.177985071434
 31
0.0
  0
LINE
  5
1550E
330
14B8C
100
AcDbEntity
  8
寸法
 62
     0
 48
50.0
370
    -2
100
AcDbLine
 10
1054.593375928685
 20
3608.177985071434
 30
0.0
 11
533.7215392174402
 21
3608.177985071434
 31
0.0
  0
LINE
  5
1550F
330
14B8C
100
AcDbEntity
  8
寸法
 62
     0
 48
50.0
370
    -2
100
AcDbLine
 10
578.7215392174403
 20
3958.177985071434
 30
0.0
 11
578.7215392174402
 21
3608.177985071434
 31
0.0
  0
INSERT
  5
15510
330
14B8C
100
AcDbEntity
  8
寸法
 62
     0
 48
50.0
370
    -2
100
AcDbBlockReference
  2
_DOTSMALL
 10
578.7215392174403
 20
3958.177985071434
 30
0.0
 41
75.0
 42
75.0
 43
75.0
 50
90.0
  0
INSERT
  5
15511
330
14B8C
100
AcDbEntity
  8
寸法
 62
     0
 48
50.0
370
    -2
100
AcDbBlockReference
  2
_DOTSMALL
 10
578.7215392174402
 20
3608.177985071434
 30
0.0
 41
75.0
 42
75.0
 43
75.0
 50
270.0
  0
MTEXT
  5
15512
330
14B8C
100
AcDbEntity
  8
寸法
 62
     7
 48
50.0
100
AcDbMText
 10
503.7215392174397
 20
3783.177985071434
 30
0.0
 40
90.0
 41
0.0
 71
     5
 72
     1
  1
\A1;350
  7
STYLE1
 11
0.0000000000000001
 21
1.0
 31
0.0
 73
     1
 44
1.0
1001
ACAD
1000
MTEXTBEGIN
1070
    73
1070
     1
1070
    44
1040
1.0
1070
    74
1070
     0
1000
MTEXTEND
  0
POINT
  5
15513
330
14B8C
100
AcDbEntity
  8
DEFPOINTS
 62
     0
 48
50.0
100
AcDbPoint
 10
1069.593375928685
 20
3958.177985071433
 30
0.0
  0
POINT
  5
15514
330
14B8C
100
AcDbEntity
  8
DEFPOINTS
 62
     0
 48
50.0
100
AcDbPoint
 10
1069.593375928685
 20
3608.177985071434
 30
0.0
  0
POINT
  5
15515
330
14B8C
100
AcDbEntity
  8
DEFPOINTS
 62
     0
 48
50.0
100
AcDbPoint
 10
578.7215392174402
 20
3608.177985071434
 30
0.0
  0
ENDBLK
  5
14B8E
330
14B8C
100
AcDbEntity
  8
0
 48
50.0
100
AcDbBlockEnd
  0
BLOCK
  5
14B99
330
14B98
100
AcDbEntity
  8
0
 48
50.0
100
AcDbBlockBegin
  2
*D10
 70
     1
 10
0.0
 20
0.0
 30
0.0
  3
*D10
  1

  0
LINE
  5
15516
330
14B98
100
AcDbEntity
  8
寸法
 62
     0
 48
50.0
370
    -2
100
AcDbLine
 10
1054.593375928685
 20
3958.177985071433
 30
0.0
 11
533.7215392174398
 21
3958.177985071434
 31
0.0
  0
LINE
  5
15517
330
14B98
100
AcDbEntity
  8
寸法
 62
     0
 48
50.0
370
    -2
100
AcDbLine
 10
904.5933759286853
 20
5958.177985071434
 30
0.0
 11
533.7215392174402
 21
5958.177985071434
 31
0.0
  0
LINE
  5
15518
330
14B98
100
AcDbEntity
  8
寸法
 62
     0
 48
50.0
370
    -2
100
AcDbLine
 10
578.7215392174398
 20
3958.177985071434
 30
0.0
 11
578.7215392174402
 21
5958.177985071434
 31
0.0
  0
INSERT
  5
15519
330
14B98
100
AcDbEntity
  8
寸法
 62
     0
 48
50.0
370
    -2
100
AcDbBlockReference
  2
_DOTSMALL
 10
578.7215392174398
 20
3958.177985071434
 30
0.0
 41
75.0
 42
75.0
 43
75.0
 50
270.0
  0
INSERT
  5
1551A
330
14B98
100
AcDbEntity
  8
寸法
 62
     0
 48
50.0
370
    -2
100
AcDbBlockReference
  2
_DOTSMALL
 10
578.7215392174402
 20
5958.177985071434
 30
0.0
 41
75.0
 42
75.0
 43
75.0
 50
90.0
  0
MTEXT
  5
1551B
330
14B98
100
AcDbEntity
  8
寸法
 62
     7
 48
50.0
100
AcDbMText
 10
503.7126809497227
 20
4958.177985071434
 30
0.0
 40
90.0
 41
0.0
 71
     5
 72
     1
  1
\A1;2000
  7
STYLE1
 11
0.0000000000000001
 21
1.0
 31
0.0
 73
     1
 44
1.0
1001
ACAD
1000
MTEXTBEGIN
1070
    73
1070
     1
1070
    44
1040
1.0
1070
    74
1070
     0
1000
MTEXTEND
  0
POINT
  5
1551C
330
14B98
100
AcDbEntity
  8
DEFPOINTS
 62
     0
 48
50.0
100
AcDbPoint
 10
1069.593375928685
 20
3958.177985071433
 30
0.0
  0
POINT
  5
1551D
330
14B98
100
AcDbEntity
  8
DEFPOINTS
 62
     0
 48
50.0
100
AcDbPoint
 10
919.5933759286853
 20
5958.177985071434
 30
0.0
  0
POINT
  5
1551E
330
14B98
100
AcDbEntity
  8
DEFPOINTS
 62
     0
 48
50.0
100
AcDbPoint
 10
578.7215392174402
 20
5958.177985071434
 30
0.0
  0
ENDBLK
  5
14B9A
330
14B98
100
AcDbEntity
  8
0
 48
50.0
100
AcDbBlockEnd
  0
BLOCK
  5
14BA5
330
14BA4
100
AcDbEntity
  8
0
 48
50.0
100
AcDbBlockBegin
  2
*D11
 70
     1
 10
0.0
 20
0.0
 30
0.0
  3
*D11
  1

  0
LINE
  5
1551F
330
14BA4
100
AcDbEntity
  8
寸法
 62
     0
 48
50.0
370
    -2
100
AcDbLine
 10
919.5933759286853
 20
5973.177985071433
 30
0.0
 11
919.5933759286853
 21
6673.495167929472
 31
0.0
  0
LINE
  5
15520
330
14BA4
100
AcDbEntity
  8
寸法
 62
     0
 48
50.0
370
    -2
100
AcDbLine
 10
7319.593375928686
 20
5973.177985071433
 30
0.0
 11
7319.593375928686
 21
6673.495167929472
 31
0.0
  0
LINE
  5
15521
330
14BA4
100
AcDbEntity
  8
寸法
 62
     0
 48
50.0
370
    -2
100
AcDbLine
 10
919.5933759286853
 20
6628.495167929472
 30
0.0
 11
7319.593375928686
 21
6628.495167929472
 31
0.0
  0
INSERT
  5
15522
330
14BA4
100
AcDbEntity
  8
寸法
 62
     0
 48
50.0
370
    -2
100
AcDbBlockReference
  2
_DOTSMALL
 10
919.5933759286853
 20
6628.495167929472
 30
0.0
 41
75.0
 42
75.0
 43
75.0
 50
180.0
  0
INSERT
  5
15523
330
14BA4
100
AcDbEntity
  8
寸法
 62
     0
 48
50.0
370
    -2
100
AcDbBlockReference
  2
_DOTSMALL
 10
7319.593375928686
 20
6628.495167929472
 30
0.0
 41
75.0
 42
75.0
 43
75.0
  0
MTEXT
  5
15524
330
14BA4
100
AcDbEntity
  8
寸法
 62
     7
 48
50.0
100
AcDbMText
 10
4119.593375928685
 20
6703.495167929472
 30
0.0
 40
90.0
 41
0.0
 71
     5
 72
     1
  1
\A1;基礎土間寸法 6400
  7
STYLE1
 73
     1
 44
1.0
1001
ACAD
1000
MTEXTBEGIN
1070
    73
1070
     1
1070
    44
1040
1.0
1070
    74
1070
     0
1000
MTEXTEND
  0
POINT
  5
15525
330
14BA4
100
AcDbEntity
  8
DEFPOINTS
 62
     0
 48
50.0
100
AcDbPoint
 10
919.5933759286853
 20
5958.177985071434
 30
0.0
  0
POINT
  5
15526
330
14BA4
100
AcDbEntity
  8
DEFPOINTS
 62
     0
 48
50.0
100
AcDbPoint
 10
7319.593375928686
 20
5958.177985071434
 30
0.0
  0
POINT
  5
15527
330
14BA4
100
AcDbEntity
  8
DEFPOINTS
 62
     0
 48
50.0
100
AcDbPoint
 10
7319.593375928686
 20
6628.495167929472
 30
0.0
  0
ENDBLK
  5
14BA6
330
14BA4
100
AcDbEntity
  8
0
 48
50.0
100
AcDbBlockEnd
  0
BLOCK
  5
14BB1
330
14BB0
100
AcDbEntity
  8
0
 48
50.0
100
AcDbBlockBegin
  2
*D12
 70
     1
 10
0.0
 20
0.0
 30
0.0
  3
*D12
  1

  0
LINE
  5
15528
330
14BB0
100
AcDbEntity
  8
寸法
 62
     0
 48
50.0
370
    -2
100
AcDbLine
 10
6919.593375928686
 20
4223.177985071433
 30
0.0
 11
6919.593375928686
 21
6479.458128955153
 31
0.0
  0
LINE
  5
15529
330
14BB0
100
AcDbEntity
  8
寸法
 62
     0
 48
50.0
370
    -2
100
AcDbLine
 10
7319.593375928686
 20
5973.177985071433
 30
0.0
 11
7319.593375928686
 21
6479.458128955153
 31
0.0
  0
LINE
  5
1552A
330
14BB0
100
AcDbEntity
  8
寸法
 62
     0
 48
50.0
370
    -2
100
AcDbLine
 10
6919.593375928686
 20
6434.458128955154
 30
0.0
 11
7319.593375928686
 21
6434.458128955154
 31
0.0
  0
INSERT
  5
1552B
330
14BB0
100
AcDbEntity
  8
寸法
 62
     0
 48
50.0
370
    -2
100
AcDbBlockReference
  2
_DOTSMALL
 10
6919.593375928686
 20
6434.458128955154
 30
0.0
 41
75.0
 42
75.0
 43
75.0
 50
180.0
  0
INSERT
  5
1552C
330
14BB0
100
AcDbEntity
  8
寸法
 62
     0
 48
50.0
370
    -2
100
AcDbBlockReference
  2
_DOTSMALL
 10
7319.593375928686
 20
6434.458128955154
 30
0.0
 41
75.0
 42
75.0
 43
75.0
  0
MTEXT
  5
1552D
330
14BB0
100
AcDbEntity
  8
寸法
 62
     7
 48
50.0
100
AcDbMText
 10
7119.593375928686
 20
6509.458128955154
 30
0.0
 40
90.0
 41
0.0
 71
     5
 72
     1
  1
\A1;400
  7
STYLE1
 73
     1
 44
1.0
1001
ACAD
1000
MTEXTBEGIN
1070
    73
1070
     1
1070
    44
1040
1.0
1070
    74
1070
     0
1000
MTEXTEND
  0
POINT
  5
1552E
330
14BB0
100
AcDbEntity
  8
DEFPOINTS
 62
     0
 48
50.0
100
AcDbPoint
 10
6919.593375928686
 20
4208.177985071434
 30
0.0
  0
POINT
  5
1552F
330
14BB0
100
AcDbEntity
  8
DEFPOINTS
 62
     0
 48
50.0
100
AcDbPoint
 10
7319.593375928686
 20
5958.177985071434
 30
0.0
  0
POINT
  5
15530
330
14BB0
100
AcDbEntity
  8
DEFPOINTS
 62
     0
 48
50.0
100
AcDbPoint
 10
7319.593375928686
 20
6434.458128955154
 30
0.0
  0
ENDBLK
  5
14BB2
330
14BB0
100
AcDbEntity
  8
0
 48
50.0
100
AcDbBlockEnd
  0
BLOCK
  5
14BBD
330
14BBC
100
AcDbEntity
  8
0
 48
50.0
100
AcDbBlockBegin
  2
*D13
 70
     1
 10
0.0
 20
0.0
 30
0.0
  3
*D13
  1

  0
LINE
  5
15531
330
14BBC
100
AcDbEntity
  8
寸法
 62
     0
 48
50.0
370
    -2
100
AcDbLine
 10
1319.593375928685
 20
4223.177985071433
 30
0.0
 11
1319.593375928685
 21
6479.458128955153
 31
0.0
  0
LINE
  5
15532
330
14BBC
100
AcDbEntity
  8
寸法
 62
     0
 48
50.0
370
    -2
100
AcDbLine
 10
6919.593375928686
 20
4223.177985071433
 30
0.0
 11
6919.593375928686
 21
6479.458128955153
 31
0.0
  0
LINE
  5
15533
330
14BBC
100
AcDbEntity
  8
寸法
 62
     0
 48
50.0
370
    -2
100
AcDbLine
 10
1319.593375928685
 20
6434.458128955154
 30
0.0
 11
6919.593375928686
 21
6434.458128955154
 31
0.0
  0
INSERT
  5
15534
330
14BBC
100
AcDbEntity
  8
寸法
 62
     0
 48
50.0
370
    -2
100
AcDbBlockReference
  2
_DOTSMALL
 10
1319.593375928685
 20
6434.458128955154
 30
0.0
 41
75.0
 42
75.0
 43
75.0
 50
180.0
  0
INSERT
  5
15535
330
14BBC
100
AcDbEntity
  8
寸法
 62
     0
 48
50.0
370
    -2
100
AcDbBlockReference
  2
_DOTSMALL
 10
6919.593375928686
 20
6434.458128955154
 30
0.0
 41
75.0
 42
75.0
 43
75.0
  0
MTEXT
  5
15536
330
14BBC
100
AcDbEntity
  8
寸法
 62
     7
 48
50.0
100
AcDbMText
 10
4119.593375928685
 20
6509.458128955154
 30
0.0
 40
90.0
 41
0.0
 71
     5
 72
     1
  1
\A1;5600
  7
STYLE1
 73
     1
 44
1.0
1001
ACAD
1000
MTEXTBEGIN
1070
    73
1070
     1
1070
    44
1040
1.0
1070
    74
1070
     0
1000
MTEXTEND
  0
POINT
  5
15537
330
14BBC
100
AcDbEntity
  8
DEFPOINTS
 62
     0
 48
50.0
100
AcDbPoint
 10
1319.593375928685
 20
4208.177985071434
 30
0.0
  0
POINT
  5
15538
330
14BBC
100
AcDbEntity
  8
DEFPOINTS
 62
     0
 48
50.0
100
AcDbPoint
 10
6919.593375928686
 20
4208.177985071434
 30
0.0
  0
POINT
  5
15539
330
14BBC
100
AcDbEntity
  8
DEFPOINTS
 62
     0
 48
50.0
100
AcDbPoint
 10
6919.593375928686
 20
6434.458128955154
 30
0.0
  0
ENDBLK
  5
14BBE
330
14BBC
100
AcDbEntity
  8
0
 48
50.0
100
AcDbBlockEnd
  0
BLOCK
  5
14BC9
330
14BC8
100
AcDbEntity
  8
0
 48
50.0
100
AcDbBlockBegin
  2
*D14
 70
     1
 10
0.0
 20
0.0
 30
0.0
  3
*D14
  1

  0
LINE
  5
1553A
330
14BC8
100
AcDbEntity
  8
寸法
 62
     0
 48
50.0
370
    -2
100
AcDbLine
 10
919.5933759286853
 20
5973.177985071433
 30
0.0
 11
919.5933759286853
 21
6479.458128955153
 31
0.0
  0
LINE
  5
1553B
330
14BC8
100
AcDbEntity
  8
寸法
 62
     0
 48
50.0
370
    -2
100
AcDbLine
 10
1319.593375928685
 20
4223.177985071433
 30
0.0
 11
1319.593375928685
 21
6479.458128955153
 31
0.0
  0
LINE
  5
1553C
330
14BC8
100
AcDbEntity
  8
寸法
 62
     0
 48
50.0
370
    -2
100
AcDbLine
 10
919.5933759286853
 20
6434.458128955154
 30
0.0
 11
1319.593375928685
 21
6434.458128955154
 31
0.0
  0
INSERT
  5
1553D
330
14BC8
100
AcDbEntity
  8
寸法
 62
     0
 48
50.0
370
    -2
100
AcDbBlockReference
  2
_DOTSMALL
 10
919.5933759286853
 20
6434.458128955154
 30
0.0
 41
75.0
 42
75.0
 43
75.0
 50
180.0
  0
INSERT
  5
1553E
330
14BC8
100
AcDbEntity
  8
寸法
 62
     0
 48
50.0
370
    -2
100
AcDbBlockReference
  2
_DOTSMALL
 10
1319.593375928685
 20
6434.458128955154
 30
0.0
 41
75.0
 42
75.0
 43
75.0
  0
MTEXT
  5
1553F
330
14BC8
100
AcDbEntity
  8
寸法
 62
     7
 48
50.0
100
AcDbMText
 10
1119.593375928685
 20
6509.458128955154
 30
0.0
 40
90.0
 41
0.0
 71
     5
 72
     1
  1
\A1;400
  7
STYLE1
 73
     1
 44
1.0
1001
ACAD
1000
MTEXTBEGIN
1070
    73
1070
     1
1070
    44
1040
1.0
1070
    74
1070
     0
1000
MTEXTEND
  0
POINT
  5
15540
330
14BC8
100
AcDbEntity
  8
DEFPOINTS
 62
     0
 48
50.0
100
AcDbPoint
 10
919.5933759286853
 20
5958.177985071434
 30
0.0
  0
POINT
  5
15541
330
14BC8
100
AcDbEntity
  8
DEFPOINTS
 62
     0
 48
50.0
100
AcDbPoint
 10
1319.593375928685
 20
4208.177985071434
 30
0.0
  0
POINT
  5
15542
330
14BC8
100
AcDbEntity
  8
DEFPOINTS
 62
     0
 48
50.0
100
AcDbPoint
 10
1319.593375928685
 20
6434.458128955154
 30
0.0
  0
ENDBLK
  5
14BCA
330
14BC8
100
AcDbEntity
  8
0
 48
50.0
100
AcDbBlockEnd
  0
BLOCK
  5
14BD5
330
14BD4
100
AcDbEntity
  8
0
 48
50.0
100
AcDbBlockBegin
  2
*D15
 70
     1
 10
0.0
 20
0.0
 30
0.0
  3
*D15
  1

  0
LINE
  5
15543
330
14BD4
100
AcDbEntity
  8
寸法
 62
     0
 48
50.0
370
    -2
100
AcDbLine
 10
6919.593375928686
 20
3343.177985071434
 30
0.0
 11
6919.593375928686
 21
2800.041769034342
 31
0.0
  0
LINE
  5
15544
330
14BD4
100
AcDbEntity
  8
寸法
 62
     0
 48
50.0
370
    -2
100
AcDbLine
 10
6519.593375928685
 20
3068.177985071434
 30
0.0
 11
6519.593375928685
 21
2800.041769034342
 31
0.0
  0
LINE
  5
15545
330
14BD4
100
AcDbEntity
  8
寸法
 62
     0
 48
50.0
370
    -2
100
AcDbLine
 10
6919.593375928686
 20
2845.041769034342
 30
0.0
 11
6519.593375928685
 21
2845.041769034342
 31
0.0
  0
INSERT
  5
15546
330
14BD4
100
AcDbEntity
  8
寸法
 62
     0
 48
50.0
370
    -2
100
AcDbBlockReference
  2
_DOTSMALL
 10
6919.593375928686
 20
2845.041769034342
 30
0.0
 41
75.0
 42
75.0
 43
75.0
  0
INSERT
  5
15547
330
14BD4
100
AcDbEntity
  8
寸法
 62
     0
 48
50.0
370
    -2
100
AcDbBlockReference
  2
_DOTSMALL
 10
6519.593375928685
 20
2845.041769034342
 30
0.0
 41
75.0
 42
75.0
 43
75.0
 50
180.0
  0
MTEXT
  5
15548
330
14BD4
100
AcDbEntity
  8
寸法
 62
     7
 48
50.0
100
AcDbMText
 10
6719.593375928686
 20
2920.041769034341
 30
0.0
 40
90.0
 41
0.0
 71
     5
 72
     1
  1
\A1;400
  7
STYLE1
 73
     1
 44
1.0
1001
ACAD
1000
MTEXTBEGIN
1070
    73
1070
     1
1070
    44
1040
1.0
1070
    74
1070
     0
1000
MTEXTEND
  0
POINT
  5
15549
330
14BD4
100
AcDbEntity
  8
DEFPOINTS
 62
     0
 48
50.0
100
AcDbPoint
 10
6919.593375928686
 20
3358.177985071434
 30
0.0
  0
POINT
  5
1554A
330
14BD4
100
AcDbEntity
  8
DEFPOINTS
 62
     0
 48
50.0
100
AcDbPoint
 10
6519.593375928685
 20
3083.177985071433
 30
0.0
  0
POINT
  5
1554B
330
14BD4
100
AcDbEntity
  8
DEFPOINTS
 62
     0
 48
50.0
100
AcDbPoint
 10
6519.593375928685
 20
2845.041769034342
 30
0.0
  0
ENDBLK
  5
14BD6
330
14BD4
100
AcDbEntity
  8
0
 48
50.0
100
AcDbBlockEnd
  0
BLOCK
  5
14BE1
330
14BE0
100
AcDbEntity
  8
0
 48
50.0
100
AcDbBlockBegin
  2
*D16
 70
     1
 10
0.0
 20
0.0
 30
0.0
  3
*D16
  1

  0
LINE
  5
1554C
330
14BE0
100
AcDbEntity
  8
寸法
 62
     0
 48
50.0
370
    -2
100
AcDbLine
 10
6519.593375928685
 20
3068.177985071434
 30
0.0
 11
6519.593375928685
 21
2561.905552997279
 31
0.0
  0
LINE
  5
1554D
330
14BE0
100
AcDbEntity
  8
寸法
 62
     0
 48
50.0
370
    -2
100
AcDbLine
 10
7319.593375928686
 20
3068.177985071434
 30
0.0
 11
7319.593375928686
 21
2561.905552997279
 31
0.0
  0
LINE
  5
1554E
330
14BE0
100
AcDbEntity
  8
寸法
 62
     0
 48
50.0
370
    -2
100
AcDbLine
 10
6519.593375928685
 20
2606.905552997279
 30
0.0
 11
7319.593375928686
 21
2606.905552997279
 31
0.0
  0
INSERT
  5
1554F
330
14BE0
100
AcDbEntity
  8
寸法
 62
     0
 48
50.0
370
    -2
100
AcDbBlockReference
  2
_DOTSMALL
 10
6519.593375928685
 20
2606.905552997279
 30
0.0
 41
75.0
 42
75.0
 43
75.0
 50
180.0
  0
INSERT
  5
15550
330
14BE0
100
AcDbEntity
  8
寸法
 62
     0
 48
50.0
370
    -2
100
AcDbBlockReference
  2
_DOTSMALL
 10
7319.593375928686
 20
2606.905552997279
 30
0.0
 41
75.0
 42
75.0
 43
75.0
  0
MTEXT
  5
15551
330
14BE0
100
AcDbEntity
  8
寸法
 62
     7
 48
50.0
100
AcDbMText
 10
6919.593375928686
 20
2681.905552997279
 30
0.0
 40
90.0
 41
0.0
 71
     5
 72
     1
  1
\A1;800
  7
STYLE1
 73
     1
 44
1.0
1001
ACAD
1000
MTEXTBEGIN
1070
    73
1070
     1
1070
    44
1040
1.0
1070
    74
1070
     0
1000
MTEXTEND
  0
POINT
  5
15552
330
14BE0
100
AcDbEntity
  8
DEFPOINTS
 62
     0
 48
50.0
100
AcDbPoint
 10
6519.593375928685
 20
3083.177985071433
 30
0.0
  0
POINT
  5
15553
330
14BE0
100
AcDbEntity
  8
DEFPOINTS
 62
     0
 48
50.0
100
AcDbPoint
 10
7319.593375928686
 20
3083.177985071433
 30
0.0
  0
POINT
  5
15554
330
14BE0
100
AcDbEntity
  8
DEFPOINTS
 62
     0
 48
50.0
100
AcDbPoint
 10
7319.593375928686
 20
2606.905552997279
 30
0.0
  0
ENDBLK
  5
14BE2
330
14BE0
100
AcDbEntity
  8
0
 48
50.0
100
AcDbBlockEnd
  0
BLOCK
  5
14BED
330
14BEC
100
AcDbEntity
  8
0
 48
50.0
100
AcDbBlockBegin
  2
*D17
 70
     1
 10
0.0
 20
0.0
 30
0.0
  3
*D17
  1

  0
LINE
  5
15555
330
14BEC
100
AcDbEntity
  8
寸法
 62
     0
 48
50.0
370
    -2
100
AcDbLine
 10
6654.593375928685
 20
3608.177985071434
 30
0.0
 11
6297.278872644515
 21
3608.177985071434
 31
0.0
  0
LINE
  5
15556
330
14BEC
100
AcDbEntity
  8
寸法
 62
     0
 48
50.0
370
    -2
100
AcDbLine
 10
6504.593375928685
 20
3083.177985071419
 30
0.0
 11
6297.278872644515
 21
3083.177985071419
 31
0.0
  0
LINE
  5
15557
330
14BEC
100
AcDbEntity
  8
寸法
 62
     0
 48
50.0
370
    -2
100
AcDbLine
 10
6342.278872644514
 20
3608.177985071434
 30
0.0
 11
6342.278872644514
 21
3083.177985071419
 31
0.0
  0
INSERT
  5
15558
330
14BEC
100
AcDbEntity
  8
寸法
 62
     0
 48
50.0
370
    -2
100
AcDbBlockReference
  2
_DOTSMALL
 10
6342.278872644514
 20
3608.177985071434
 30
0.0
 41
75.0
 42
75.0
 43
75.0
 50
90.0
  0
INSERT
  5
15559
330
14BEC
100
AcDbEntity
  8
寸法
 62
     0
 48
50.0
370
    -2
100
AcDbBlockReference
  2
_DOTSMALL
 10
6342.278872644514
 20
3083.177985071419
 30
0.0
 41
75.0
 42
75.0
 43
75.0
 50
270.0
  0
MTEXT
  5
1555A
330
14BEC
100
AcDbEntity
  8
寸法
 62
     7
 48
50.0
100
AcDbMText
 10
6267.270014376797
 20
3345.677985071427
 30
0.0
 40
90.0
 41
0.0
 71
     5
 72
     1
  1
\A1;525
  7
STYLE1
 11
0.0000000000000001
 21
1.0
 31
0.0
 73
     1
 44
1.0
1001
ACAD
1000
MTEXTBEGIN
1070
    73
1070
     1
1070
    44
1040
1.0
1070
    74
1070
     0
1000
MTEXTEND
  0
POINT
  5
1555B
330
14BEC
100
AcDbEntity
  8
DEFPOINTS
 62
     0
 48
50.0
100
AcDbPoint
 10
6669.593375928686
 20
3608.177985071434
 30
0.0
  0
POINT
  5
1555C
330
14BEC
100
AcDbEntity
  8
DEFPOINTS
 62
     0
 48
50.0
100
AcDbPoint
 10
6519.593375928685
 20
3083.177985071419
 30
0.0
  0
POINT
  5
1555D
330
14BEC
100
AcDbEntity
  8
DEFPOINTS
 62
     0
 48
50.0
100
AcDbPoint
 10
6342.278872644514
 20
3083.177985071419
 30
0.0
  0
ENDBLK
  5
14BEE
330
14BEC
100
AcDbEntity
  8
0
 48
50.0
100
AcDbBlockEnd
  0
BLOCK
  5
14BF9
330
14BF8
100
AcDbEntity
  8
0
 48
50.0
100
AcDbBlockBegin
  2
*D18
 70
     1
 10
0.0
 20
0.0
 30
0.0
  3
*D18
  1

  0
LINE
  5
1555E
330
14BF8
100
AcDbEntity
  8
寸法
 62
     0
 48
50.0
370
    -2
100
AcDbLine
 10
6504.593375928685
 20
4483.177985071434
 30
0.0
 11
6119.964369360343
 21
4483.177985071434
 31
0.0
  0
LINE
  5
1555F
330
14BF8
100
AcDbEntity
  8
寸法
 62
     0
 48
50.0
370
    -2
100
AcDbLine
 10
6504.593375928685
 20
3083.177985071419
 30
0.0
 11
6119.964369360343
 21
3083.177985071419
 31
0.0
  0
LINE
  5
15560
330
14BF8
100
AcDbEntity
  8
寸法
 62
     0
 48
50.0
370
    -2
100
AcDbLine
 10
6164.964369360343
 20
4483.177985071434
 30
0.0
 11
6164.964369360343
 21
3083.177985071419
 31
0.0
  0
INSERT
  5
15561
330
14BF8
100
AcDbEntity
  8
寸法
 62
     0
 48
50.0
370
    -2
100
AcDbBlockReference
  2
_DOTSMALL
 10
6164.964369360343
 20
4483.177985071434
 30
0.0
 41
75.0
 42
75.0
 43
75.0
 50
90.0
  0
INSERT
  5
15562
330
14BF8
100
AcDbEntity
  8
寸法
 62
     0
 48
50.0
370
    -2
100
AcDbBlockReference
  2
_DOTSMALL
 10
6164.964369360343
 20
3083.177985071419
 30
0.0
 41
75.0
 42
75.0
 43
75.0
 50
270.0
  0
MTEXT
  5
15563
330
14BF8
100
AcDbEntity
  8
寸法
 62
     7
 48
50.0
100
AcDbMText
 10
6089.964369360342
 20
3783.177985071428
 30
0.0
 40
90.0
 41
0.0
 71
     5
 72
     1
  1
\A1;1400
  7
STYLE1
 11
0.0000000000000001
 21
1.0
 31
0.0
 73
     1
 44
1.0
1001
ACAD
1000
MTEXTBEGIN
1070
    73
1070
     1
1070
    44
1040
1.0
1070
    74
1070
     0
1000
MTEXTEND
  0
POINT
  5
15564
330
14BF8
100
AcDbEntity
  8
DEFPOINTS
 62
     0
 48
50.0
100
AcDbPoint
 10
6519.593375928685
 20
4483.177985071434
 30
0.0
  0
POINT
  5
15565
330
14BF8
100
AcDbEntity
  8
DEFPOINTS
 62
     0
 48
50.0
100
AcDbPoint
 10
6519.593375928685
 20
3083.177985071419
 30
0.0
  0
POINT
  5
15566
330
14BF8
100
AcDbEntity
  8
DEFPOINTS
 62
     0
 48
50.0
100
AcDbPoint
 10
6164.964369360343
 20
3083.177985071419
 30
0.0
  0
ENDBLK
  5
14BFA
330
14BF8
100
AcDbEntity
  8
0
 48
50.0
100
AcDbBlockEnd
  0
BLOCK
  5
14C05
330
14C04
100
AcDbEntity
  8
0
 48
50.0
100
AcDbBlockBegin
  2
*D19
 70
     1
 10
0.0
 20
0.0
 30
0.0
  3
*D19
  1

  0
LINE
  5
15567
330
14C04
100
AcDbEntity
  8
寸法
 62
     0
 48
50.0
370
    -2
100
AcDbLine
 10
6654.593375928685
 20
3958.177985071433
 30
0.0
 11
6297.278872644515
 21
3958.177985071433
 31
0.0
  0
LINE
  5
15568
330
14C04
100
AcDbEntity
  8
寸法
 62
     0
 48
50.0
370
    -2
100
AcDbLine
 10
6654.593375928685
 20
3608.177985071434
 30
0.0
 11
6297.278872644515
 21
3608.177985071434
 31
0.0
  0
LINE
  5
15569
330
14C04
100
AcDbEntity
  8
寸法
 62
     0
 48
50.0
370
    -2
100
AcDbLine
 10
6342.278872644514
 20
3958.177985071433
 30
0.0
 11
6342.278872644514
 21
3608.177985071434
 31
0.0
  0
INSERT
  5
1556A
330
14C04
100
AcDbEntity
  8
寸法
 62
     0
 48
50.0
370
    -2
100
AcDbBlockReference
  2
_DOTSMALL
 10
6342.278872644514
 20
3958.177985071433
 30
0.0
 41
75.0
 42
75.0
 43
75.0
 50
90.0
  0
INSERT
  5
1556B
330
14C04
100
AcDbEntity
  8
寸法
 62
     0
 48
50.0
370
    -2
100
AcDbBlockReference
  2
_DOTSMALL
 10
6342.278872644514
 20
3608.177985071434
 30
0.0
 41
75.0
 42
75.0
 43
75.0
 50
270.0
  0
MTEXT
  5
1556C
330
14C04
100
AcDbEntity
  8
寸法
 62
     7
 48
50.0
100
AcDbMText
 10
6267.278872644514
 20
3783.177985071434
 30
0.0
 40
90.0
 41
0.0
 71
     5
 72
     1
  1
\A1;350
  7
STYLE1
 11
0.0000000000000001
 21
1.0
 31
0.0
 73
     1
 44
1.0
1001
ACAD
1000
MTEXTBEGIN
1070
    73
1070
     1
1070
    44
1040
1.0
1070
    74
1070
     0
1000
MTEXTEND
  0
POINT
  5
1556D
330
14C04
100
AcDbEntity
  8
DEFPOINTS
 62
     0
 48
50.0
100
AcDbPoint
 10
6669.593375928686
 20
3958.177985071433
 30
0.0
  0
POINT
  5
1556E
330
14C04
100
AcDbEntity
  8
DEFPOINTS
 62
     0
 48
50.0
100
AcDbPoint
 10
6669.593375928686
 20
3608.177985071434
 30
0.0
  0
POINT
  5
1556F
330
14C04
100
AcDbEntity
  8
DEFPOINTS
 62
     0
 48
50.0
100
AcDbPoint
 10
6342.278872644514
 20
3608.177985071434
 30
0.0
  0
ENDBLK
  5
14C06
330
14C04
100
AcDbEntity
  8
0
 48
50.0
100
AcDbBlockEnd
  0
BLOCK
  5
14C11
330
14C10
100
AcDbEntity
  8
0
 48
50.0
100
AcDbBlockBegin
  2
*D20
 70
     1
 10
0.0
 20
0.0
 30
0.0
  3
*D20
  1

  0
LINE
  5
15570
330
14C10
100
AcDbEntity
  8
寸法
 62
     0
 48
50.0
370
    -2
100
AcDbLine
 10
6654.593375928685
 20
3958.177985071433
 30
0.0
 11
6297.278872644515
 21
3958.177985071433
 31
0.0
  0
LINE
  5
15571
330
14C10
100
AcDbEntity
  8
寸法
 62
     0
 48
50.0
370
    -2
100
AcDbLine
 10
6504.593375928685
 20
4483.177985071448
 30
0.0
 11
6297.278872644515
 21
4483.177985071448
 31
0.0
  0
LINE
  5
15572
330
14C10
100
AcDbEntity
  8
寸法
 62
     0
 48
50.0
370
    -2
100
AcDbLine
 10
6342.278872644514
 20
3958.177985071433
 30
0.0
 11
6342.278872644514
 21
4483.177985071448
 31
0.0
  0
INSERT
  5
15573
330
14C10
100
AcDbEntity
  8
寸法
 62
     0
 48
50.0
370
    -2
100
AcDbBlockReference
  2
_DOTSMALL
 10
6342.278872644514
 20
3958.177985071433
 30
0.0
 41
75.0
 42
75.0
 43
75.0
 50
270.0
  0
INSERT
  5
15574
330
14C10
100
AcDbEntity
  8
寸法
 62
     0
 48
50.0
370
    -2
100
AcDbBlockReference
  2
_DOTSMALL
 10
6342.278872644514
 20
4483.177985071448
 30
0.0
 41
75.0
 42
75.0
 43
75.0
 50
90.0
  0
MTEXT
  5
15575
330
14C10
100
AcDbEntity
  8
寸法
 62
     7
 48
50.0
100
AcDbMText
 10
6267.270014376797
 20
4220.677985071443
 30
0.0
 40
90.0
 41
0.0
 71
     5
 72
     1
  1
\A1;525
  7
STYLE1
 11
0.0000000000000001
 21
1.0
 31
0.0
 73
     1
 44
1.0
1001
ACAD
1000
MTEXTBEGIN
1070
    73
1070
     1
1070
    44
1040
1.0
1070
    74
1070
     0
1000
MTEXTEND
  0
POINT
  5
15576
330
14C10
100
AcDbEntity
  8
DEFPOINTS
 62
     0
 48
50.0
100
AcDbPoint
 10
6669.593375928686
 20
3958.177985071433
 30
0.0
  0
POINT
  5
15577
330
14C10
100
AcDbEntity
  8
DEFPOINTS
 62
     0
 48
50.0
100
AcDbPoint
 10
6519.593375928685
 20
4483.177985071448
 30
0.0
  0
POINT
  5
15578
330
14C10
100
AcDbEntity
  8
DEFPOINTS
 62
     0
 48
50.0
100
AcDbPoint
 10
6342.278872644514
 20
4483.177985071448
 30
0.0
  0
ENDBLK
  5
14C12
330
14C10
100
AcDbEntity
  8
0
 48
50.0
100
AcDbBlockEnd
  0
BLOCK
  5
14CC5
330
14CC4
100
AcDbEntity
  8
0
 48
50.0
100
AcDbBlockBegin
  2
*D21
 70
     1
 10
0.0
 20
0.0
 30
0.0
  3
*D21
  1

  0
LINE
  5
15470
330
14CC4
100
AcDbEntity
  8
寸法
 62
     0
 48
50.0
370
    -2
100
AcDbLine
 10
8679.812845959757
 20
4016.809249332018
 30
0.0
 11
8499.231718857853
 21
4016.809249332018
 31
0.0
  0
LINE
  5
15471
330
14CC4
100
AcDbEntity
  8
寸法
 62
     0
 48
50.0
370
    -2
100
AcDbLine
 10
8679.812845959757
 20
4116.809249332018
 30
0.0
 11
8499.231718857855
 21
4116.809249332018
 31
0.0
  0
LINE
  5
15472
330
14CC4
100
AcDbEntity
  8
寸法
 62
     0
 48
50.0
370
    -2
100
AcDbLine
 10
8544.231718857853
 20
4016.809249332018
 30
0.0
 11
8544.231718857854
 21
4116.809249332018
 31
0.0
  0
LINE
  5
15473
330
14CC4
100
AcDbEntity
  8
寸法
 62
     0
 48
50.0
370
    -2
100
AcDbLine
 10
8544.231718857854
 20
4116.809249332018
 30
0.0
 11
8544.231718857854
 21
4395.880115473792
 31
0.0
  0
INSERT
  5
15474
330
14CC4
100
AcDbEntity
  8
寸法
 62
     0
 48
50.0
370
    -2
100
AcDbBlockReference
  2
_DOTSMALL
 10
8544.231718857853
 20
4016.809249332018
 30
0.0
 41
75.0
 42
75.0
 43
75.0
 50
270.0
  0
INSERT
  5
15475
330
14CC4
100
AcDbEntity
  8
寸法
 62
     0
 48
50.0
370
    -2
100
AcDbBlockReference
  2
_DOTSMALL
 10
8544.231718857854
 20
4116.809249332018
 30
0.0
 41
75.0
 42
75.0
 43
75.0
 50
90.0
  0
MTEXT
  5
15476
330
14CC4
100
AcDbEntity
  8
寸法
 62
     7
 48
50.0
100
AcDbMText
 10
8469.231718857853
 20
4293.844682402927
 30
0.0
 40
90.0
 41
0.0
 71
     5
 72
     1
  1
\A1;100
  7
STYLE1
 11
0.0000000000000001
 21
1.0
 31
0.0
 73
     1
 44
1.0
1001
ACAD
1000
MTEXTBEGIN
1070
    73
1070
     1
1070
    44
1040
1.0
1070
    74
1070
     0
1000
MTEXTEND
  0
POINT
  5
15477
330
14CC4
100
AcDbEntity
  8
DEFPOINTS
 62
     0
 48
50.0
100
AcDbPoint
 10
8694.812845959758
 20
4016.809249332018
 30
0.0
  0
POINT
  5
15478
330
14CC4
100
AcDbEntity
  8
DEFPOINTS
 62
     0
 48
50.0
100
AcDbPoint
 10
8694.812845959758
 20
4116.809249332018
 30
0.0
  0
POINT
  5
15479
330
14CC4
100
AcDbEntity
  8
DEFPOINTS
 62
     0
 48
50.0
100
AcDbPoint
 10
8544.231718857854
 20
4116.809249332018
 30
0.0
  0
ENDBLK
  5
14CC6
330
14CC4
100
AcDbEntity
  8
0
 48
50.0
100
AcDbBlockEnd
  0
BLOCK
  5
14CD2
330
14CD1
100
AcDbEntity
  8
0
 48
50.0
100
AcDbBlockBegin
  2
*D22
 70
     1
 10
0.0
 20
0.0
 30
0.0
  3
*D22
  1

  0
LINE
  5
1547A
330
14CD1
100
AcDbEntity
  8
寸法
 62
     0
 48
50.0
370
    -2
100
AcDbLine
 10
8679.812845959757
 20
4016.809249332018
 30
0.0
 11
8499.231718857853
 21
4016.809249332018
 31
0.0
  0
LINE
  5
1547B
330
14CD1
100
AcDbEntity
  8
寸法
 62
     0
 48
50.0
370
    -2
100
AcDbLine
 10
8679.812845959757
 20
3916.809249332018
 30
0.0
 11
8499.231718857853
 21
3916.809249332018
 31
0.0
  0
LINE
  5
1547C
330
14CD1
100
AcDbEntity
  8
寸法
 62
     0
 48
50.0
370
    -2
100
AcDbLine
 10
8544.231718857853
 20
4016.809249332018
 30
0.0
 11
8544.231718857853
 21
3916.809249332018
 31
0.0
  0
LINE
  5
1547D
330
14CD1
100
AcDbEntity
  8
寸法
 62
     0
 48
50.0
370
    -2
100
AcDbLine
 10
8544.231718857853
 20
3916.809249332018
 30
0.0
 11
8544.231718857853
 21
3637.738383190285
 31
0.0
  0
INSERT
  5
1547E
330
14CD1
100
AcDbEntity
  8
寸法
 62
     0
 48
50.0
370
    -2
100
AcDbBlockReference
  2
_DOTSMALL
 10
8544.231718857853
 20
4016.809249332018
 30
0.0
 41
75.0
 42
75.0
 43
75.0
 50
90.0
  0
INSERT
  5
1547F
330
14CD1
100
AcDbEntity
  8
寸法
 62
     0
 48
50.0
370
    -2
100
AcDbBlockReference
  2
_DOTSMALL
 10
8544.231718857853
 20
3916.809249332018
 30
0.0
 41
75.0
 42
75.0
 43
75.0
 50
270.0
  0
MTEXT
  5
15480
330
14CD1
100
AcDbEntity
  8
寸法
 62
     7
 48
50.0
100
AcDbMText
 10
8469.231718857853
 20
3739.773816261152
 30
0.0
 40
90.0
 41
0.0
 71
     5
 72
     1
  1
\A1;100
  7
STYLE1
 11
0.0000000000000001
 21
1.0
 31
0.0
 73
     1
 44
1.0
1001
ACAD
1000
MTEXTBEGIN
1070
    73
1070
     1
1070
    44
1040
1.0
1070
    74
1070
     0
1000
MTEXTEND
  0
POINT
  5
15481
330
14CD1
100
AcDbEntity
  8
DEFPOINTS
 62
     0
 48
50.0
100
AcDbPoint
 10
8694.812845959758
 20
4016.809249332018
 30
0.0
  0
POINT
  5
15482
330
14CD1
100
AcDbEntity
  8
DEFPOINTS
 62
     0
 48
50.0
100
AcDbPoint
 10
8694.812845959758
 20
3916.809249332018
 30
0.0
  0
POINT
  5
15483
330
14CD1
100
AcDbEntity
  8
DEFPOINTS
 62
     0
 48
50.0
100
AcDbPoint
 10
8544.231718857853
 20
3916.809249332018
 30
0.0
  0
ENDBLK
  5
14CD3
330
14CD1
100
AcDbEntity
  8
0
 48
50.0
100
AcDbBlockEnd
  0
BLOCK
  5
14CDF
330
14CDE
100
AcDbEntity
  8
0
 48
50.0
100
AcDbBlockBegin
  2
*D23
 70
     1
 10
0.0
 20
0.0
 30
0.0
  3
*D23
  1

  0
LINE
  5
15484
330
14CDE
100
AcDbEntity
  8
寸法
 62
     0
 48
50.0
370
    -2
100
AcDbLine
 10
9194.812845959814
 20
3451.809249332018
 30
0.0
 11
9194.812845959814
 21
2980.192619687983
 31
0.0
  0
LINE
  5
15485
330
14CDE
100
AcDbEntity
  8
寸法
 62
     0
 48
50.0
370
    -2
100
AcDbLine
 10
9719.812845959815
 20
3390.751417502138
 30
0.0
 11
9719.812845959815
 21
2980.192619687983
 31
0.0
  0
LINE
  5
15486
330
14CDE
100
AcDbEntity
  8
寸法
 62
     0
 48
50.0
370
    -2
100
AcDbLine
 10
9194.812845959814
 20
3025.192619687983
 30
0.0
 11
9719.812845959815
 21
3025.192619687983
 31
0.0
  0
INSERT
  5
15487
330
14CDE
100
AcDbEntity
  8
寸法
 62
     0
 48
50.0
370
    -2
100
AcDbBlockReference
  2
_DOTSMALL
 10
9194.812845959814
 20
3025.192619687983
 30
0.0
 41
75.0
 42
75.0
 43
75.0
 50
180.0
  0
INSERT
  5
15488
330
14CDE
100
AcDbEntity
  8
寸法
 62
     0
 48
50.0
370
    -2
100
AcDbBlockReference
  2
_DOTSMALL
 10
9719.812845959815
 20
3025.192619687983
 30
0.0
 41
75.0
 42
75.0
 43
75.0
  0
MTEXT
  5
15489
330
14CDE
100
AcDbEntity
  8
寸法
 62
     7
 48
50.0
100
AcDbMText
 10
9457.312845959815
 20
3100.2014779557
 30
0.0
 40
90.0
 41
0.0
 71
     5
 72
     1
  1
\A1;525
  7
STYLE1
 73
     1
 44
1.0
1001
ACAD
1000
MTEXTBEGIN
1070
    73
1070
     1
1070
    44
1040
1.0
1070
    74
1070
     0
1000
MTEXTEND
  0
POINT
  5
1548A
330
14CDE
100
AcDbEntity
  8
DEFPOINTS
 62
     0
 48
50.0
100
AcDbPoint
 10
9194.812845959814
 20
3466.809249332018
 30
0.0
  0
POINT
  5
1548B
330
14CDE
100
AcDbEntity
  8
DEFPOINTS
 62
     0
 48
50.0
100
AcDbPoint
 10
9719.812845959815
 20
3405.751417502138
 30
0.0
  0
POINT
  5
1548C
330
14CDE
100
AcDbEntity
  8
DEFPOINTS
 62
     0
 48
50.0
100
AcDbPoint
 10
9719.812845959815
 20
3025.192619687983
 30
0.0
  0
ENDBLK
  5
14CE0
330
14CDE
100
AcDbEntity
  8
0
 48
50.0
100
AcDbBlockEnd
  0
BLOCK
  5
14CEB
330
14CEA
100
AcDbEntity
  8
0
 48
50.0
100
AcDbBlockBegin
  2
*D24
 70
     1
 10
0.0
 20
0.0
 30
0.0
  3
*D24
  1

  0
LINE
  5
1548D
330
14CEA
100
AcDbEntity
  8
寸法
 62
     0
 48
50.0
370
    -2
100
AcDbLine
 10
10594.81284595981
 20
3451.809249332018
 30
0.0
 11
10594.81284595981
 21
2750.107058599231
 31
0.0
  0
LINE
  5
1548E
330
14CEA
100
AcDbEntity
  8
寸法
 62
     0
 48
50.0
370
    -2
100
AcDbLine
 10
9194.812845959814
 20
3451.809249332018
 30
0.0
 11
9194.812845959814
 21
2750.107058599231
 31
0.0
  0
LINE
  5
1548F
330
14CEA
100
AcDbEntity
  8
寸法
 62
     0
 48
50.0
370
    -2
100
AcDbLine
 10
10594.81284595981
 20
2795.107058599231
 30
0.0
 11
9194.812845959814
 21
2795.107058599231
 31
0.0
  0
INSERT
  5
15490
330
14CEA
100
AcDbEntity
  8
寸法
 62
     0
 48
50.0
370
    -2
100
AcDbBlockReference
  2
_DOTSMALL
 10
10594.81284595981
 20
2795.107058599231
 30
0.0
 41
75.0
 42
75.0
 43
75.0
  0
INSERT
  5
15491
330
14CEA
100
AcDbEntity
  8
寸法
 62
     0
 48
50.0
370
    -2
100
AcDbBlockReference
  2
_DOTSMALL
 10
9194.812845959814
 20
2795.107058599231
 30
0.0
 41
75.0
 42
75.0
 43
75.0
 50
180.0
  0
MTEXT
  5
15492
330
14CEA
100
AcDbEntity
  8
寸法
 62
     7
 48
50.0
100
AcDbMText
 10
9894.812845959815
 20
2870.107058599231
 30
0.0
 40
90.0
 41
0.0
 71
     5
 72
     1
  1
\A1;1400
  7
STYLE1
 73
     1
 44
1.0
1001
ACAD
1000
MTEXTBEGIN
1070
    73
1070
     1
1070
    44
1040
1.0
1070
    74
1070
     0
1000
MTEXTEND
  0
POINT
  5
15493
330
14CEA
100
AcDbEntity
  8
DEFPOINTS
 62
     0
 48
50.0
100
AcDbPoint
 10
10594.81284595981
 20
3466.809249332018
 30
0.0
  0
POINT
  5
15494
330
14CEA
100
AcDbEntity
  8
DEFPOINTS
 62
     0
 48
50.0
100
AcDbPoint
 10
9194.812845959814
 20
3466.809249332018
 30
0.0
  0
POINT
  5
15495
330
14CEA
100
AcDbEntity
  8
DEFPOINTS
 62
     0
 48
50.0
100
AcDbPoint
 10
9194.812845959814
 20
2795.107058599231
 30
0.0
  0
ENDBLK
  5
14CEC
330
14CEA
100
AcDbEntity
  8
0
 48
50.0
100
AcDbBlockEnd
  0
BLOCK
  5
14CF7
330
14CF6
100
AcDbEntity
  8
0
 48
50.0
100
AcDbBlockBegin
  2
*D25
 70
     1
 10
0.0
 20
0.0
 30
0.0
  3
*D25
  1

  0
LINE
  5
15496
330
14CF6
100
AcDbEntity
  8
寸法
 62
     0
 48
50.0
370
    -2
100
AcDbLine
 10
9719.812845959815
 20
3390.751417502138
 30
0.0
 11
9719.812845959815
 21
2980.192619687983
 31
0.0
  0
LINE
  5
15497
330
14CF6
100
AcDbEntity
  8
寸法
 62
     0
 48
50.0
370
    -2
100
AcDbLine
 10
10069.81284595981
 20
3390.751417502138
 30
0.0
 11
10069.81284595981
 21
2980.192619687983
 31
0.0
  0
LINE
  5
15498
330
14CF6
100
AcDbEntity
  8
寸法
 62
     0
 48
50.0
370
    -2
100
AcDbLine
 10
9719.812845959815
 20
3025.192619687983
 30
0.0
 11
10069.81284595981
 21
3025.192619687983
 31
0.0
  0
INSERT
  5
15499
330
14CF6
100
AcDbEntity
  8
寸法
 62
     0
 48
50.0
370
    -2
100
AcDbBlockReference
  2
_DOTSMALL
 10
9719.812845959815
 20
3025.192619687983
 30
0.0
 41
75.0
 42
75.0
 43
75.0
 50
180.0
  0
INSERT
  5
1549A
330
14CF6
100
AcDbEntity
  8
寸法
 62
     0
 48
50.0
370
    -2
100
AcDbBlockReference
  2
_DOTSMALL
 10
10069.81284595981
 20
3025.192619687983
 30
0.0
 41
75.0
 42
75.0
 43
75.0
  0
MTEXT
  5
1549B
330
14CF6
100
AcDbEntity
  8
寸法
 62
     7
 48
50.0
100
AcDbMText
 10
9894.812845959815
 20
3100.192619687982
 30
0.0
 40
90.0
 41
0.0
 71
     5
 72
     1
  1
\A1;350
  7
STYLE1
 73
     1
 44
1.0
1001
ACAD
1000
MTEXTBEGIN
1070
    73
1070
     1
1070
    44
1040
1.0
1070
    74
1070
     0
1000
MTEXTEND
  0
POINT
  5
1549C
330
14CF6
100
AcDbEntity
  8
DEFPOINTS
 62
     0
 48
50.0
100
AcDbPoint
 10
9719.812845959815
 20
3405.751417502138
 30
0.0
  0
POINT
  5
1549D
330
14CF6
100
AcDbEntity
  8
DEFPOINTS
 62
     0
 48
50.0
100
AcDbPoint
 10
10069.81284595981
 20
3405.751417502138
 30
0.0
  0
POINT
  5
1549E
330
14CF6
100
AcDbEntity
  8
DEFPOINTS
 62
     0
 48
50.0
100
AcDbPoint
 10
10069.81284595981
 20
3025.192619687983
 30
0.0
  0
ENDBLK
  5
14CF8
330
14CF6
100
AcDbEntity
  8
0
 48
50.0
100
AcDbBlockEnd
  0
BLOCK
  5
14D03
330
14D02
100
AcDbEntity
  8
0
 48
50.0
100
AcDbBlockBegin
  2
*D26
 70
     1
 10
0.0
 20
0.0
 30
0.0
  3
*D26
  1

  0
LINE
  5
1549F
330
14D02
100
AcDbEntity
  8
寸法
 62
     0
 48
50.0
370
    -2
100
AcDbLine
 10
10594.81284595981
 20
3451.809249332018
 30
0.0
 11
10594.81284595981
 21
2980.192619687983
 31
0.0
  0
LINE
  5
154A0
330
14D02
100
AcDbEntity
  8
寸法
 62
     0
 48
50.0
370
    -2
100
AcDbLine
 10
10069.81284595981
 20
3390.751417502138
 30
0.0
 11
10069.81284595981
 21
2980.192619687983
 31
0.0
  0
LINE
  5
154A1
330
14D02
100
AcDbEntity
  8
寸法
 62
     0
 48
50.0
370
    -2
100
AcDbLine
 10
10594.81284595981
 20
3025.192619687983
 30
0.0
 11
10069.81284595981
 21
3025.192619687983
 31
0.0
  0
INSERT
  5
154A2
330
14D02
100
AcDbEntity
  8
寸法
 62
     0
 48
50.0
370
    -2
100
AcDbBlockReference
  2
_DOTSMALL
 10
10594.81284595981
 20
3025.192619687983
 30
0.0
 41
75.0
 42
75.0
 43
75.0
  0
INSERT
  5
154A3
330
14D02
100
AcDbEntity
  8
寸法
 62
     0
 48
50.0
370
    -2
100
AcDbBlockReference
  2
_DOTSMALL
 10
10069.81284595981
 20
3025.192619687983
 30
0.0
 41
75.0
 42
75.0
 43
75.0
 50
180.0
  0
MTEXT
  5
154A4
330
14D02
100
AcDbEntity
  8
寸法
 62
     7
 48
50.0
100
AcDbMText
 10
10332.31284595981
 20
3100.2014779557
 30
0.0
 40
90.0
 41
0.0
 71
     5
 72
     1
  1
\A1;525
  7
STYLE1
 73
     1
 44
1.0
1001
ACAD
1000
MTEXTBEGIN
1070
    73
1070
     1
1070
    44
1040
1.0
1070
    74
1070
     0
1000
MTEXTEND
  0
POINT
  5
154A5
330
14D02
100
AcDbEntity
  8
DEFPOINTS
 62
     0
 48
50.0
100
AcDbPoint
 10
10594.81284595981
 20
3466.809249332018
 30
0.0
  0
POINT
  5
154A6
330
14D02
100
AcDbEntity
  8
DEFPOINTS
 62
     0
 48
50.0
100
AcDbPoint
 10
10069.81284595981
 20
3405.751417502138
 30
0.0
  0
POINT
  5
154A7
330
14D02
100
AcDbEntity
  8
DEFPOINTS
 62
     0
 48
50.0
100
AcDbPoint
 10
10069.81284595981
 20
3025.192619687983
 30
0.0
  0
ENDBLK
  5
14D04
330
14D02
100
AcDbEntity
  8
0
 48
50.0
100
AcDbBlockEnd
  0
BLOCK
  5
14D0F
330
14D0E
100
AcDbEntity
  8
0
 48
50.0
100
AcDbBlockBegin
  2
*D27
 70
     1
 10
0.0
 20
0.0
 30
0.0
  3
*D27
  1

  0
LINE
  5
154A8
330
14D0E
100
AcDbEntity
  8
寸法
 62
     0
 48
50.0
370
    -2
100
AcDbLine
 10
11174.61072352333
 20
4066.809249332018
 30
0.0
 11
11432.25421056054
 21
4066.809249332017
 31
0.0
  0
LINE
  5
154A9
330
14D0E
100
AcDbEntity
  8
寸法
 62
     0
 48
50.0
370
    -2
100
AcDbLine
 10
10689.81284595981
 20
3466.809249332018
 30
0.0
 11
11432.25421056054
 21
3466.809249332018
 31
0.0
  0
LINE
  5
154AA
330
14D0E
100
AcDbEntity
  8
寸法
 62
     0
 48
50.0
370
    -2
100
AcDbLine
 10
11387.25421056054
 20
4066.809249332017
 30
0.0
 11
11387.25421056054
 21
3466.809249332018
 31
0.0
  0
INSERT
  5
154AB
330
14D0E
100
AcDbEntity
  8
寸法
 62
     0
 48
50.0
370
    -2
100
AcDbBlockReference
  2
_DOTSMALL
 10
11387.25421056054
 20
4066.809249332017
 30
0.0
 41
75.0
 42
75.0
 43
75.0
 50
90.0
  0
INSERT
  5
154AC
330
14D0E
100
AcDbEntity
  8
寸法
 62
     0
 48
50.0
370
    -2
100
AcDbBlockReference
  2
_DOTSMALL
 10
11387.25421056054
 20
3466.809249332018
 30
0.0
 41
75.0
 42
75.0
 43
75.0
 50
270.0
  0
MTEXT
  5
154AD
330
14D0E
100
AcDbEntity
  8
寸法
 62
     7
 48
50.0
100
AcDbMText
 10
11312.25421056054
 20
3766.80924933202
 30
0.0
 40
90.0
 41
0.0
 71
     5
 72
     1
  1
\A1;600
  7
STYLE1
 11
0.0000000000000001
 21
1.0
 31
0.0
 73
     1
 44
1.0
1001
ACAD
1000
MTEXTBEGIN
1070
    73
1070
     1
1070
    44
1040
1.0
1070
    74
1070
     0
1000
MTEXTEND
  0
POINT
  5
154AE
330
14D0E
100
AcDbEntity
  8
DEFPOINTS
 62
     0
 48
50.0
100
AcDbPoint
 10
11159.61072352333
 20
4066.809249332018
 30
0.0
  0
POINT
  5
154AF
330
14D0E
100
AcDbEntity
  8
DEFPOINTS
 62
     0
 48
50.0
100
AcDbPoint
 10
10674.81284595981
 20
3466.809249332018
 30
0.0
  0
POINT
  5
154B0
330
14D0E
100
AcDbEntity
  8
DEFPOINTS
 62
     0
 48
50.0
100
AcDbPoint
 10
11387.25421056054
 20
3466.809249332018
 30
0.0
  0
ENDBLK
  5
14D10
330
14D0E
100
AcDbEntity
  8
0
 48
50.0
100
AcDbBlockEnd
  0
BLOCK
  5
14D1B
330
14D1A
100
AcDbEntity
  8
0
 48
50.0
100
AcDbBlockBegin
  2
*D28
 70
     1
 10
0.0
 20
0.0
 30
0.0
  3
*D28
  1

  0
LINE
  5
154B1
330
14D1A
100
AcDbEntity
  8
寸法
 62
     0
 48
50.0
370
    -2
100
AcDbLine
 10
11109.81284595981
 20
4066.809249332018
 30
0.0
 11
11432.25421056054
 21
4066.809249332017
 31
0.0
  0
LINE
  5
154B2
330
14D1A
100
AcDbEntity
  8
寸法
 62
     0
 48
50.0
370
    -2
100
AcDbLine
 10
11109.81284595987
 20
4116.809249332018
 30
0.0
 11
11432.25421056055
 21
4116.809249332018
 31
0.0
  0
LINE
  5
154B3
330
14D1A
100
AcDbEntity
  8
寸法
 62
     0
 48
50.0
370
    -2
100
AcDbLine
 10
11387.25421056054
 20
4066.809249332017
 30
0.0
 11
11387.25421056054
 21
3991.809249332018
 31
0.0
  0
LINE
  5
154B4
330
14D1A
100
AcDbEntity
  8
寸法
 62
     0
 48
50.0
370
    -2
100
AcDbLine
 10
11387.25421056055
 20
4116.809249332018
 30
0.0
 11
11387.25421056055
 21
4425.88011547379
 31
0.0
  0
LINE
  5
154B5
330
14D1A
100
AcDbEntity
  8
寸法
 62
     0
 48
50.0
370
    -2
100
AcDbLine
 10
11387.25421056054
 20
4066.809249332017
 30
0.0
 11
11387.25421056055
 21
4116.809249332018
 31
0.0
  0
INSERT
  5
154B6
330
14D1A
100
AcDbEntity
  8
寸法
 62
     0
 48
50.0
370
    -2
100
AcDbBlockReference
  2
_DOTSMALL
 10
11387.25421056054
 20
4066.809249332017
 30
0.0
 41
75.0
 42
75.0
 43
75.0
 50
90.0
  0
INSERT
  5
154B7
330
14D1A
100
AcDbEntity
  8
寸法
 62
     0
 48
50.0
370
    -2
100
AcDbBlockReference
  2
_DOTSMALL
 10
11387.25421056055
 20
4116.809249332018
 30
0.0
 41
75.0
 42
75.0
 43
75.0
 50
270.0
  0
MTEXT
  5
154B8
330
14D1A
100
AcDbEntity
  8
寸法
 62
     7
 48
50.0
100
AcDbMText
 10
11312.25421056054
 20
4346.344682402927
 30
0.0
 40
90.0
 41
0.0
 71
     5
 72
     1
  1
\A1;50
  7
STYLE1
 11
0.0000000000000001
 21
1.0
 31
0.0
 73
     1
 44
1.0
1001
ACAD
1000
MTEXTBEGIN
1070
    73
1070
     1
1070
    44
1040
1.0
1070
    74
1070
     0
1000
MTEXTEND
  0
POINT
  5
154B9
330
14D1A
100
AcDbEntity
  8
DEFPOINTS
 62
     0
 48
50.0
100
AcDbPoint
 10
11094.81284595981
 20
4066.809249332018
 30
0.0
  0
POINT
  5
154BA
330
14D1A
100
AcDbEntity
  8
DEFPOINTS
 62
     0
 48
50.0
100
AcDbPoint
 10
11094.81284595987
 20
4116.809249332018
 30
0.0
  0
POINT
  5
154BB
330
14D1A
100
AcDbEntity
  8
DEFPOINTS
 62
     0
 48
50.0
100
AcDbPoint
 10
11387.25421056055
 20
4116.809249332018
 30
0.0
  0
ENDBLK
  5
14D1C
330
14D1A
100
AcDbEntity
  8
0
 48
50.0
100
AcDbBlockEnd
  0
BLOCK
  5
14D29
330
14D28
100
AcDbEntity
  8
0
 48
50.0
100
AcDbBlockBegin
  2
*D29
 70
     1
 10
0.0
 20
0.0
 30
0.0
  3
*D29
  1

  0
LINE
  5
154BC
330
14D28
100
AcDbEntity
  8
寸法
 62
     0
 48
50.0
370
    -2
100
AcDbLine
 10
10689.81284595981
 20
3466.809249332018
 30
0.0
 11
11432.25421056054
 21
3466.809249332018
 31
0.0
  0
LINE
  5
154BD
330
14D28
100
AcDbEntity
  8
寸法
 62
     0
 48
50.0
370
    -2
100
AcDbLine
 10
10689.81284595981
 20
3416.809249332018
 30
0.0
 11
11432.25421056054
 21
3416.809249332017
 31
0.0
  0
LINE
  5
154BE
330
14D28
100
AcDbEntity
  8
寸法
 62
     0
 48
50.0
370
    -2
100
AcDbLine
 10
11387.25421056054
 20
3466.809249332018
 30
0.0
 11
11387.25421056054
 21
3541.809249332017
 31
0.0
  0
LINE
  5
154BF
330
14D28
100
AcDbEntity
  8
寸法
 62
     0
 48
50.0
370
    -2
100
AcDbLine
 10
11387.25421056054
 20
3416.809249332017
 30
0.0
 11
11387.25421056054
 21
3107.738383190284
 31
0.0
  0
LINE
  5
154C0
330
14D28
100
AcDbEntity
  8
寸法
 62
     0
 48
50.0
370
    -2
100
AcDbLine
 10
11387.25421056054
 20
3466.809249332018
 30
0.0
 11
11387.25421056054
 21
3416.809249332017
 31
0.0
  0
INSERT
  5
154C1
330
14D28
100
AcDbEntity
  8
寸法
 62
     0
 48
50.0
370
    -2
100
AcDbBlockReference
  2
_DOTSMALL
 10
11387.25421056054
 20
3466.809249332018
 30
0.0
 41
75.0
 42
75.0
 43
75.0
 50
270.0
  0
INSERT
  5
154C2
330
14D28
100
AcDbEntity
  8
寸法
 62
     0
 48
50.0
370
    -2
100
AcDbBlockReference
  2
_DOTSMALL
 10
11387.25421056054
 20
3416.809249332017
 30
0.0
 41
75.0
 42
75.0
 43
75.0
 50
90.0
  0
MTEXT
  5
154C3
330
14D28
100
AcDbEntity
  8
寸法
 62
     7
 48
50.0
100
AcDbMText
 10
11312.25421056054
 20
3187.273816261153
 30
0.0
 40
90.0
 41
0.0
 71
     5
 72
     1
  1
\A1;50
  7
STYLE1
 11
0.0000000000000001
 21
1.0
 31
0.0
 73
     1
 44
1.0
1001
ACAD
1000
MTEXTBEGIN
1070
    73
1070
     1
1070
    44
1040
1.0
1070
    74
1070
     0
1000
MTEXTEND
  0
POINT
  5
154C4
330
14D28
100
AcDbEntity
  8
DEFPOINTS
 62
     0
 48
50.0
100
AcDbPoint
 10
10674.81284595981
 20
3466.809249332018
 30
0.0
  0
POINT
  5
154C5
330
14D28
100
AcDbEntity
  8
DEFPOINTS
 62
     0
 48
50.0
100
AcDbPoint
 10
10674.81284595981
 20
3416.809249332018
 30
0.0
  0
POINT
  5
154C6
330
14D28
100
AcDbEntity
  8
DEFPOINTS
 62
     0
 48
50.0
100
AcDbPoint
 10
11387.25421056054
 20
3416.809249332017
 30
0.0
  0
ENDBLK
  5
14D2A
330
14D28
100
AcDbEntity
  8
0
 48
50.0
100
AcDbBlockEnd
  0
BLOCK
  5
153CB
330
153CA
100
AcDbEntity
  8
0
 48
50.0
100
AcDbBlockBegin
  2
*D30
 70
     1
 10
0.0
 20
0.0
 30
0.0
  3
*D30
  1

  0
LINE
  5
15579
330
153CA
100
AcDbEntity
  8
寸法
 62
     0
 48
50.0
370
    -2
100
AcDbLine
 10
1319.593375928685
 20
4223.177985071433
 30
0.0
 11
1319.593375928685
 21
6240.363212622964
 31
0.0
  0
LINE
  5
1557A
330
153CA
100
AcDbEntity
  8
寸法
 62
     0
 48
50.0
370
    -2
100
AcDbLine
 10
4119.593375928685
 20
4223.177985071433
 30
0.0
 11
4119.593375928685
 21
6240.363212622964
 31
0.0
  0
LINE
  5
1557B
330
153CA
100
AcDbEntity
  8
寸法
 62
     0
 48
50.0
370
    -2
100
AcDbLine
 10
1319.593375928685
 20
6195.363212622964
 30
0.0
 11
4119.593375928685
 21
6195.363212622964
 31
0.0
  0
INSERT
  5
1557C
330
153CA
100
AcDbEntity
  8
寸法
 62
     0
 48
50.0
370
    -2
100
AcDbBlockReference
  2
_DOTSMALL
 10
1319.593375928685
 20
6195.363212622964
 30
0.0
 41
75.0
 42
75.0
 43
75.0
 50
180.0
  0
INSERT
  5
1557D
330
153CA
100
AcDbEntity
  8
寸法
 62
     0
 48
50.0
370
    -2
100
AcDbBlockReference
  2
_DOTSMALL
 10
4119.593375928685
 20
6195.363212622964
 30
0.0
 41
75.0
 42
75.0
 43
75.0
  0
MTEXT
  5
1557E
330
153CA
100
AcDbEntity
  8
寸法
 62
     7
 48
50.0
100
AcDbMText
 10
2719.593375928686
 20
6270.37207089068
 30
0.0
 40
90.0
 41
0.0
 71
     5
 72
     1
  1
\A1;2800
  7
STYLE1
 73
     1
 44
1.0
1001
ACAD
1000
MTEXTBEGIN
1070
    73
1070
     1
1070
    44
1040
1.0
1070
    74
1070
     0
1000
MTEXTEND
  0
POINT
  5
1557F
330
153CA
100
AcDbEntity
  8
DEFPOINTS
 62
     0
 48
50.0
100
AcDbPoint
 10
1319.593375928685
 20
4208.177985071434
 30
-0.0000000000013153
  0
POINT
  5
15580
330
153CA
100
AcDbEntity
  8
DEFPOINTS
 62
     0
 48
50.0
100
AcDbPoint
 10
4119.593375928685
 20
4208.177985071434
 30
-0.0000000000013153
  0
POINT
  5
15581
330
153CA
100
AcDbEntity
  8
DEFPOINTS
 62
     0
 48
50.0
100
AcDbPoint
 10
4119.593375928685
 20
6195.363212622964
 30
0.0
  0
ENDBLK
  5
153CC
330
153CA
100
AcDbEntity
  8
0
 48
50.0
100
AcDbBlockEnd
  0
BLOCK
  5
153D8
330
153D7
100
AcDbEntity
  8
0
 48
50.0
100
AcDbBlockBegin
  2
*D31
 70
     1
 10
0.0
 20
0.0
 30
0.0
  3
*D31
  1

  0
LINE
  5
15582
330
153D7
100
AcDbEntity
  8
寸法
 62
     0
 48
50.0
370
    -2
100
AcDbLine
 10
4119.593375928685
 20
4223.177985071433
 30
0.0
 11
4119.593375928685
 21
6240.363212622964
 31
0.0
  0
LINE
  5
15583
330
153D7
100
AcDbEntity
  8
寸法
 62
     0
 48
50.0
370
    -2
100
AcDbLine
 10
6919.593375928686
 20
4223.177985071433
 30
0.0
 11
6919.593375928686
 21
6240.363212622964
 31
0.0
  0
LINE
  5
15584
330
153D7
100
AcDbEntity
  8
寸法
 62
     0
 48
50.0
370
    -2
100
AcDbLine
 10
4119.593375928685
 20
6195.363212622964
 30
0.0
 11
6919.593375928686
 21
6195.363212622964
 31
0.0
  0
INSERT
  5
15585
330
153D7
100
AcDbEntity
  8
寸法
 62
     0
 48
50.0
370
    -2
100
AcDbBlockReference
  2
_DOTSMALL
 10
4119.593375928685
 20
6195.363212622964
 30
0.0
 41
75.0
 42
75.0
 43
75.0
 50
180.0
  0
INSERT
  5
15586
330
153D7
100
AcDbEntity
  8
寸法
 62
     0
 48
50.0
370
    -2
100
AcDbBlockReference
  2
_DOTSMALL
 10
6919.593375928686
 20
6195.363212622964
 30
0.0
 41
75.0
 42
75.0
 43
75.0
  0
MTEXT
  5
15587
330
153D7
100
AcDbEntity
  8
寸法
 62
     7
 48
50.0
100
AcDbMText
 10
5519.593375928685
 20
6270.37207089068
 30
0.0
 40
90.0
 41
0.0
 71
     5
 72
     1
  1
\A1;2800
  7
STYLE1
 73
     1
 44
1.0
1001
ACAD
1000
MTEXTBEGIN
1070
    73
1070
     1
1070
    44
1040
1.0
1070
    74
1070
     0
1000
MTEXTEND
  0
POINT
  5
15588
330
153D7
100
AcDbEntity
  8
DEFPOINTS
 62
     0
 48
50.0
100
AcDbPoint
 10
4119.593375928685
 20
4208.177985071434
 30
-0.0000000000013153
  0
POINT
  5
15589
330
153D7
100
AcDbEntity
  8
DEFPOINTS
 62
     0
 48
50.0
100
AcDbPoint
 10
6919.593375928686
 20
4208.177985071434
 30
-0.0000000000013153
  0
POINT
  5
1558A
330
153D7
100
AcDbEntity
  8
DEFPOINTS
 62
     0
 48
50.0
100
AcDbPoint
 10
6919.593375928686
 20
6195.363212622964
 30
0.0
  0
ENDBLK
  5
153D9
330
153D7
100
AcDbEntity
  8
0
 48
50.0
100
AcDbBlockEnd
  0
ENDSEC
  0
SECTION
  2
ENTITIES
  0
MTEXT
  5
763F
330
747D
100
AcDbEntity
  8
0
100
AcDbMText
 10
302.846345836809
 20
280.1983726409901
 30
0.0
 40
3.5
 41
5.323721266742722
 71
     1
 72
     5
  1

  7
MSMINCHO
 73
     1
 44
1.0
1001
ACAD
1000
MTEXTBEGIN
1070
    73
1070
     1
1070
    44
1040
1.0
1070
    74
1070
     0
1000
MTEXTEND
  0
LINE
  5
10B56
330
747D
100
AcDbEntity
  8
補助
  6
PHANTOM
 62
   230
 48
50.0
100
AcDbLine
 10
105.0
 20
0.0
 30
0.0
 11
104.9999999999996
 21
8557.199999999999
 31
0.0
  0
LINE
  5
10B57
330
747D
100
AcDbEntity
  8
補助
  6
PHANTOM
 62
   230
 48
50.0
100
AcDbLine
 10
104.9999999999996
 20
8557.199999999999
 30
0.0
 11
12230.4
 21
8557.199999999999
 31
0.0
  0
LINE
  5
10B5E
330
747D
100
AcDbEntity
  8
補助
  6
PHANTOM
 62
   230
 48
50.0
100
AcDbLine
 10
12230.4
 20
8557.199999999999
 30
0.0
 11
12230.4
 21
900.0
 31
0.0
  0
LINE
  5
10B6D
330
747D
100
AcDbEntity
  8
補助
  6
PHANTOM
 62
   230
 48
50.0
100
AcDbLine
 10
9830.400000000002
 20
8557.199999999999
 30
0.0
 11
9830.400000000002
 21
3600.0
 31
0.0
  0
LINE
  5
10B6F
330
747D
100
AcDbEntity
  8
補助
  6
PHANTOM
 62
   230
 48
50.0
100
AcDbLine
 10
9830.400000000002
 20
3110.960973647383
 30
0.0
 11
12230.4
 21
3110.960973647383
 31
0.0
  0
LINE
  5
13125
330
747D
100
AcDbEntity
  8
補助
  6
PHANTOM
 62
   230
 48
50.0
100
AcDbLine
 10
11930.4
 20
8182.200000000003
 30
0.0
 11
11930.4
 21
6457.2
 31
0.0
  0
LINE
  5
13126
330
747D
100
AcDbEntity
  8
補助
  6
PHANTOM
 62
   230
 48
50.0
100
AcDbLine
 10
9380.400000000003
 20
8182.199999999999
 30
0.0
 11
9380.400000000003
 21
6457.2
 31
0.0
  0
LINE
  5
13127
330
747D
100
AcDbEntity
  8
補助
  6
PHANTOM
 62
   230
 48
50.0
100
AcDbLine
 10
9380.400000000003
 20
6457.2
 30
0.0
 11
11930.4
 21
6457.2
 31
0.0
  0
LINE
  5
13128
330
747D
100
AcDbEntity
  8
補助
  6
PHANTOM
 62
   230
 48
50.0
100
AcDbLine
 10
9380.400000000003
 20
8182.199999999999
 30
0.0
 11
11930.4
 21
8182.200000000003
 31
0.0
  0
TEXT
  5
1399C
330
747D
100
AcDbEntity
  8
文字
 62
     7
 48
50.0
100
AcDbText
 10
10893.0988779165
 20
773.6682797184258
 30
0.0
 40
75.0
  1
             <縮尺> S=1/30
  7
STYLE2
100
AcDbText
  0
TEXT
  5
1399D
330
747D
100
AcDbEntity
  8
文字
 62
     7
 48
50.0
100
AcDbText
 10
11138.71739229687
 20
628.6895453046927
 30
0.0
 40
75.0
  1
～一般型～
  7
STYLE2
100
AcDbText
  0
TEXT
  5
1399E
330
747D
100
AcDbEntity
  8
文字
 62
     7
 48
50.0
100
AcDbText
 10
10951.9835159712
 20
362.922534743353
 30
0.0
 40
120.0
  1
BP-28VUL-2
  7
STYLE3
100
AcDbText
  0
LINE
  5
1399F
330
747D
100
AcDbEntity
  8
仕様書枠
  6
Continuous
 48
50.0
100
AcDbLine
 10
10688.4
 20
900.0000000000037
 30
0.0
 11
10688.4
 21
600.0000000000036
 31
0.0
  0
LINE
  5
139A0
330
747D
100
AcDbEntity
  8
仕様書枠
 48
50.0
100
AcDbLine
 10
9830.400000000002
 20
600.0000000000036
 30
0.0
 11
10688.4
 21
600.0000000000036
 31
0.0
  0
TEXT
  5
139A1
330
747D
100
AcDbEntity
  8
文字
 62
     7
 48
50.0
100
AcDbText
 10
9907.054008162901
 20
57.07076030736789
 30
0.0
 40
60.0
  1
○寒冷地等は、地域の実情に合わせた基礎にしてください。
  7
STYLE2
100
AcDbText
  0
TEXT
  5
139A2
330
747D
100
AcDbEntity
  8
文字
 62
     7
 48
50.0
100
AcDbText
 10
9907.054008162901
 20
171.4076431926805
 30
0.0
 40
60.0
  1
○間口寸法は柱芯寸法です。
  7
STYLE2
100
AcDbText
  0
TEXT
  5
139A3
330
747D
100
AcDbEntity
  8
文字
 62
     7
 48
50.0
100
AcDbText
 10
9901.077524988316
 20
357.9555495773529
 30
0.0
 40
120.0
  1
機種名
  7
STYLE2
100
AcDbText
  0
TEXT
  5
139A4
330
747D
100
AcDbEntity
  8
文字
 62
     7
 48
50.0
100
AcDbText
 10
9872.234292432681
 20
671.31795557246
 30
0.0
 40
150.0
  1
基 礎 図
  7
STYLE2
100
AcDbText
  0
LINE
  5
139A5
330
747D
100
AcDbEntity
  8
文字
 62
     7
 48
50.0
100
AcDbLine
 10
9890.400000000001
 20
300.0
 30
0.0
 11
12170.4
 21
300.0
 31
0.0
  0
LINE
  5
139A6
330
747D
100
AcDbEntity
  8
仕様書枠
 48
50.0
100
AcDbLine
 10
9830.400000000002
 20
900.0000000000037
 30
0.0
 11
12230.4
 21
900.0000000000037
 31
0.0
  0
LINE
  5
139A7
330
747D
100
AcDbEntity
  8
仕様書枠
 48
50.0
100
AcDbLine
 10
105.0
 20
0.0
 30
0.0
 11
12230.4
 21
0.0
 31
0.0
  0
LINE
  5
139A8
330
747D
100
AcDbEntity
  8
仕様書枠
 48
50.0
100
AcDbLine
 10
12230.4
 20
900.0000000000037
 30
0.0
 11
12230.4
 21
0.0
 31
0.0
  0
LINE
  5
139A9
330
747D
100
AcDbEntity
  8
仕様書枠
  6
Continuous
 48
50.0
100
AcDbLine
 10
9830.400000000002
 20
900.0000000000037
 30
0.0
 11
9830.400000000002
 21
0.0
 31
0.0
  0
LINE
  5
14593
330
747D
100
AcDbEntity
  8
細線
 48
50.0
100
AcDbLine
 10
9587.425946816475
 20
3316.809249332018
 30
0.0
 11
9580.727217005705
 21
3341.809249332018
 31
0.0
  0
LINE
  5
14594
330
747D
100
AcDbEntity
  8
細線
 48
50.0
100
AcDbLine
 10
9464.163376586359
 20
3316.809249332018
 30
0.0
 11
9457.464646775589
 21
3341.809249332018
 31
0.0
  0
LINE
  5
14595
330
747D
100
AcDbEntity
  8
細線
 48
50.0
100
AcDbLine
 10
9340.900806356302
 20
3316.809249332018
 30
0.0
 11
9334.202076545532
 21
3341.809249332018
 31
0.0
  0
LINE
  5
14596
330
747D
100
AcDbEntity
  8
細線
 48
50.0
100
AcDbLine
 10
9217.638236126244
 20
3316.809249332018
 30
0.0
 11
9210.939506315474
 21
3341.809249332018
 31
0.0
  0
LINE
  5
14597
330
747D
100
AcDbEntity
  8
細線
 48
50.0
100
AcDbLine
 10
9594.124676627245
 20
3391.809249332018
 30
0.0
 11
9587.425946816475
 21
3416.809249332018
 31
0.0
  0
LINE
  5
14598
330
747D
100
AcDbEntity
  8
細線
 48
50.0
100
AcDbLine
 10
9470.862106397129
 20
3391.809249332018
 30
0.0
 11
9464.163376586359
 21
3416.809249332018
 31
0.0
  0
LINE
  5
14599
330
747D
100
AcDbEntity
  8
細線
 48
50.0
100
AcDbLine
 10
9224.336965937014
 20
3391.809249332018
 30
0.0
 11
9217.638236126244
 21
3416.809249332018
 31
0.0
  0
LINE
  5
1459A
330
747D
100
AcDbEntity
  8
細線
 48
50.0
100
AcDbLine
 10
9347.599536167072
 20
3391.809249332018
 30
0.0
 11
9340.900806356302
 21
3416.809249332018
 31
0.0
  0
LINE
  5
1459B
330
747D
100
AcDbEntity
  8
U7
100
AcDbLine
 10
9514.812845959815
 20
3851.809249332017
 30
0.0
 11
10274.81284595981
 21
3851.809249332017
 31
0.0
  0
HATCH
  5
1459C
330
747D
100
AcDbEntity
  8
細線
 48
50.0
100
AcDbHatch
 10
0.0
 20
0.0
 30
0.0000000000013153
210
0.0
220
0.0
230
1.0
  2
PLAST
 70
     0
 71
     0
 91
       20
 92
        7
 72
     1
 73
     1
 93
       48
 10
9509.812845959816
 20
3856.809249332018
 42
-0.4142135623730951
 10
9514.812845959815
 20
3861.809249332018
 42
0.0
 10
9519.812845959815
 20
3861.809249332018
 42
0.0
 10
9519.812845959815
 20
3951.809249332018
 42
0.0
 10
9514.812845959815
 20
3951.809249332018
 42
-0.4142135623730951
 10
9509.812845959816
 20
3956.809249332018
 42
-0.4142135623730951
 10
9514.812845959815
 20
3961.809249332018
 42
0.0
 10
9675.262845959828
 20
3961.809249332018
 42
0.0
 10
9675.262845959828
 20
4016.809249332018
 42
0.0
 10
9194.812845959814
 20
4016.809249332018
 42
0.0
 10
9194.812845959814
 20
3466.809249332018
 42
0.0
 10
9675.262845959828
 20
3466.809249332018
 42
0.0
 10
9675.262845959828
 20
3496.809249332018
 42
0.0
 10
9619.812845959815
 20
3496.809249332018
 42
0.0
 10
9619.812845959815
 20
3506.809249332018
 42
0.0
 10
9675.262845959828
 20
3506.809249332018
 42
0.0
 10
9675.262845959828
 20
3531.809249332003
 42
0.0
 10
9379.093297521896
 20
3531.809249332003
 42
0.0
 10
9379.093297521896
 20
3541.809249332033
 42
0.0
 10
9394.812845959815
 20
3541.809249332018
 42
-0.4142135623730909
 10
9389.812845959815
 20
3546.809249332018
 42
-1.0
 10
9399.812845959816
 20
3546.809249332018
 42
-0.4142135623730992
 10
9394.812845959815
 20
3541.809249332018
 42
0.0
 10
9594.812845959815
 20
3541.809249332018
 42
-0.4142135623730951
 10
9589.812845959816
 20
3546.809249332018
 42
-1.0
 10
9599.812845959815
 20
3546.809249332018
 42
-0.4142135623730984
 10
9594.812845959815
 20
3541.809249332018
 42
0.0
 10
9675.262845959828
 20
3541.809249332018
 42
0.0
 10
9675.262845959828
 20
3651.809249332018
 42
0.0
 10
9532.812845959815
 20
3651.809249332018
 42
0.0
 10
9532.812845959815
 20
3621.809249332018
 42
-0.4142135623730951
 10
9489.812845959816
 20
3578.809249332018
 42
0.0
 10
9344.362845959805
 20
3578.809249332018
 42
0.0
 10
9344.362845959805
 20
3591.809249332018
 42
0.0
 10
9489.812845959816
 20
3591.809249332018
 42
0.4142135623730951
 10
9519.812845959815
 20
3621.809249332018
 42
0.0
 10
9519.812845959815
 20
3651.809249332018
 42
0.0
 10
9514.812845959815
 20
3651.809249332018
 42
-0.4142135623730951
 10
9509.812845959816
 20
3656.809249332018
 42
-0.4142135623730951
 10
9514.812845959815
 20
3661.809249332018
 42
0.0
 10
9519.812845959815
 20
3661.809249332018
 42
0.0
 10
9519.812845959815
 20
3751.809249332018
 42
0.0
 10
9514.812845959815
 20
3751.809249332018
 42
-0.4142135623730951
 10
9509.812845959816
 20
3756.809249332018
 42
-0.4142135623730951
 10
9514.812845959815
 20
3761.809249332018
 42
0.0
 10
9519.812845959815
 20
3761.809249332018
 42
0.0
 10
9519.812845959815
 20
3851.809249332017
 42
0.0
 10
9514.812845959815
 20
3851.809249332017
 42
-0.4142135623730951
 97
        0
 92
       23
 72
     0
 73
     1
 93
        4
 10
9675.262845959828
 20
3751.809249332018
 10
9532.812845959815
 20
3751.809249332018
 10
9532.812845959815
 20
3661.809249332018
 10
9675.262845959828
 20
3661.809249332018
 97
        0
 92
       23
 72
     0
 73
     1
 93
        4
 10
9675.262845959828
 20
3851.809249332017
 10
9532.812845959815
 20
3851.809249332017
 10
9532.812845959815
 20
3761.809249332018
 10
9675.262845959828
 20
3761.809249332018
 97
        0
 92
       23
 72
     0
 73
     1
 93
        4
 10
9675.262845959828
 20
3951.809249332018
 10
9532.812845959815
 20
3951.809249332018
 10
9532.812845959815
 20
3861.809249332018
 10
9675.262845959828
 20
3861.809249332018
 97
        0
 92
        7
 72
     0
 73
     1
 93
        4
 10
9894.812845959815
 20
4016.809249332018
 10
9764.362845959805
 20
4016.809249332018
 10
9764.362845959805
 20
3961.809249332018
 10
9894.812845959815
 20
3961.809249332018
 97
        0
 92
        7
 72
     0
 73
     1
 93
        4
 10
9894.812845959815
 20
3951.809249332018
 10
9764.362845959805
 20
3951.809249332018
 10
9764.362845959805
 20
3861.809249332018
 10
9894.812845959815
 20
3861.809249332018
 97
        0
 92
        7
 72
     0
 73
     1
 93
        4
 10
9894.812845959815
 20
3851.809249332017
 10
9764.362845959805
 20
3851.809249332017
 10
9764.362845959805
 20
3761.809249332018
 10
9894.812845959815
 20
3761.809249332018
 97
        0
 92
        7
 72
     0
 73
     1
 93
        4
 10
9894.812845959815
 20
3751.809249332018
 10
9764.362845959805
 20
3751.809249332018
 10
9764.362845959805
 20
3661.809249332018
 10
9894.812845959815
 20
3661.809249332018
 97
        0
 92
        7
 72
     1
 73
     1
 93
        8
 10
9894.812845959815
 20
3651.809249332018
 42
0.0
 10
9764.362845959805
 20
3651.809249332018
 42
0.0
 10
9764.362845959805
 20
3541.809249332033
 42
0.0
 10
9794.812845959816
 20
3541.809249332018
 42
-0.4142135623730918
 10
9789.812845959815
 20
3546.809249332018
 42
-1.0
 10
9799.812845959817
 20
3546.809249332018
 42
-0.4142135623730984
 10
9794.812845959816
 20
3541.809249332018
 42
0.0
 10
9894.812845959815
 20
3541.809249332018
 42
0.0
 97
        0
 92
        7
 72
     0
 73
     1
 93
        8
 10
9894.812845959815
 20
3531.809249332018
 10
9764.362845959805
 20
3531.809249332003
 10
9764.362845959805
 20
3506.809249332018
 10
9819.812845959816
 20
3506.809249332018
 10
9819.812845959816
 20
3496.809249332018
 10
9764.362845959805
 20
3496.809249332018
 10
9764.362845959805
 20
3466.809249332018
 10
9894.812845959815
 20
3466.809249332018
 97
        0
 92
        7
 72
     0
 73
     1
 93
        8
 10
9969.812845959815
 20
3506.809249332018
 10
10025.26284595983
 20
3506.809249332018
 10
10025.26284595983
 20
3531.809249332018
 10
9894.812845959815
 20
3531.809249332018
 10
9894.812845959815
 20
3466.809249332018
 10
10025.26284595983
 20
3466.809249332018
 10
10025.26284595983
 20
3496.809249332018
 10
9969.812845959815
 20
3496.809249332018
 97
        0
 92
        7
 72
     1
 73
     1
 93
        8
 10
10025.26284595983
 20
3651.809249332018
 42
0.0
 10
9894.812845959815
 20
3651.809249332018
 42
0.0
 10
9894.812845959815
 20
3541.809249332018
 42
0.0
 10
9994.812845959815
 20
3541.809249332018
 42
-0.4142135623730885
 10
9989.812845959816
 20
3546.809249332018
 42
-1.0
 10
9999.812845959816
 20
3546.809249332018
 42
-0.4142135623731017
 10
9994.812845959815
 20
3541.809249332018
 42
0.0
 10
10025.26284595983
 20
3541.809249332018
 42
0.0
 97
        0
 92
        7
 72
     0
 73
     1
 93
        4
 10
10025.26284595983
 20
3751.809249332018
 10
9894.812845959815
 20
3751.809249332018
 10
9894.812845959815
 20
3661.809249332018
 10
10025.26284595983
 20
3661.809249332018
 97
        0
 92
        7
 72
     0
 73
     1
 93
        4
 10
10025.26284595983
 20
3851.809249332017
 10
9894.812845959815
 20
3851.809249332017
 10
9894.812845959815
 20
3761.809249332018
 10
10025.26284595983
 20
3761.809249332018
 97
        0
 92
        7
 72
     0
 73
     1
 93
        4
 10
10025.26284595983
 20
3951.809249332018
 10
9894.812845959815
 20
3951.809249332018
 10
9894.812845959815
 20
3861.809249332018
 10
10025.26284595983
 20
3861.809249332018
 97
        0
 92
        7
 72
     0
 73
     1
 93
        4
 10
10025.26284595983
 20
4016.809249332018
 10
9894.812845959815
 20
4016.809249332018
 10
9894.812845959815
 20
3961.809249332018
 10
10025.26284595983
 20
3961.809249332018
 97
        0
 92
        7
 72
     1
 73
     1
 93
       48
 10
10594.81284595981
 20
4016.809249332018
 42
0.0
 10
10114.3628459598
 20
4016.809249332018
 42
0.0
 10
10114.3628459598
 20
3961.809249332018
 42
0.0
 10
10274.81284595981
 20
3961.809249332018
 42
-0.4142135623730951
 10
10279.81284595981
 20
3956.809249332018
 42
-0.4142135623730951
 10
10274.81284595981
 20
3951.809249332018
 42
0.0
 10
10269.81284595981
 20
3951.809249332018
 42
0.0
 10
10269.81284595981
 20
3861.809249332018
 42
0.0
 10
10274.81284595981
 20
3861.809249332018
 42
-0.4142135623730951
 10
10279.81284595981
 20
3856.809249332018
 42
-0.4142135623730951
 10
10274.81284595981
 20
3851.809249332017
 42
0.0
 10
10269.81284595981
 20
3851.809249332017
 42
0.0
 10
10269.81284595981
 20
3761.809249332018
 42
0.0
 10
10274.81284595981
 20
3761.809249332018
 42
-0.4142135623730951
 10
10279.81284595981
 20
3756.809249332018
 42
-0.4142135623730951
 10
10274.81284595981
 20
3751.809249332018
 42
0.0
 10
10269.81284595981
 20
3751.809249332018
 42
0.0
 10
10269.81284595981
 20
3661.809249332018
 42
0.0
 10
10274.81284595981
 20
3661.809249332018
 42
-0.4142135623730951
 10
10279.81284595981
 20
3656.809249332018
 42
-0.4142135623730951
 10
10274.81284595981
 20
3651.809249332018
 42
0.0
 10
10269.81284595981
 20
3651.809249332018
 42
0.0
 10
10269.81284595993
 20
3621.809249332018
 42
0.4142135623730951
 10
10299.81284595993
 20
3591.809249332018
 42
0.0
 10
10445.26284595994
 20
3591.809249332018
 42
0.0
 10
10445.26284595994
 20
3578.809249332018
 42
0.0
 10
10299.81284595993
 20
3578.809249332018
 42
-0.4142135623730951
 10
10256.81284595993
 20
3621.809249332018
 42
0.0
 10
10256.81284595993
 20
3651.809249332018
 42
0.0
 10
10114.3628459598
 20
3651.809249332018
 42
0.0
 10
10114.3628459598
 20
3541.809249332018
 42
0.0
 10
10194.81284595981
 20
3541.809249332018
 42
-0.4142135623730885
 10
10189.81284595981
 20
3546.809249332018
 42
-1.0
 10
10199.81284595981
 20
3546.809249332018
 42
-0.4142135623731017
 10
10194.81284595981
 20
3541.809249332018
 42
0.0
 10
10394.81284595981
 20
3541.809249332018
 42
-0.4142135623730951
 10
10389.81284595981
 20
3546.809249332018
 42
-1.0
 10
10399.81284595981
 20
3546.809249332018
 42
-0.4142135623731017
 10
10394.81284595981
 20
3541.809249332018
 42
0.0
 10
10410.53239439773
 20
3541.809249332018
 42
0.0
 10
10410.53239439773
 20
3531.809249332018
 42
0.0
 10
10114.3628459598
 20
3531.809249332018
 42
0.0
 10
10114.3628459598
 20
3506.809249332018
 42
0.0
 10
10169.81284595981
 20
3506.809249332018
 42
0.0
 10
10169.81284595981
 20
3496.809249332018
 42
0.0
 10
10114.3628459598
 20
3496.809249332018
 42
0.0
 10
10114.3628459598
 20
3466.809249332018
 42
0.0
 10
10594.81284595981
 20
3466.809249332018
 42
0.0
 97
        0
 92
       23
 72
     0
 73
     1
 93
        4
 10
10256.81284595981
 20
3951.809249332018
 10
10114.3628459598
 20
3951.809249332018
 10
10114.3628459598
 20
3861.809249332018
 10
10256.81284595981
 20
3861.809249332018
 97
        0
 92
       23
 72
     0
 73
     1
 93
        4
 10
10256.81284595981
 20
3851.809249332017
 10
10114.3628459598
 20
3851.809249332017
 10
10114.3628459598
 20
3761.809249332018
 10
10256.81284595981
 20
3761.809249332018
 97
        0
 92
       23
 72
     0
 73
     1
 93
        4
 10
10256.81284595981
 20
3751.809249332018
 10
10114.3628459598
 20
3751.809249332018
 10
10114.3628459598
 20
3661.809249332018
 10
10256.81284595981
 20
3661.809249332018
 97
        0
 75
     0
 76
     1
 52
135.0
 41
37.5
 77
     0
 78
     3
 53
135.0
 43
-262357.7787241013
 44
111827.639331502
 45
-168.3798022700466
 46
-168.3798022700466
 79
     0
 53
135.0
 43
-262378.826199385
 44
111806.5918562183
 45
-168.3798022700466
 46
-168.3798022700466
 79
     0
 53
135.0
 43
-262399.8736746688
 44
111785.5443809345
 45
-168.3798022700466
 46
-168.3798022700466
 79
     0
 47
2.128691110052188
 98
       20
 10
9383.836203426668
 20
3852.195209153538
 10
9622.358050048607
 20
3711.701718928427
 10
9626.617408615036
 20
3801.106610052684
 10
9620.228231196605
 20
3888.383097935078
 10
9837.453564123739
 20
3984.174247466191
 10
9845.972281256655
 20
3903.283808254363
 10
9845.972281256655
 20
3807.49265872328
 10
9845.972281256655
 20
3709.572896214075
 10
9850.231360685626
 20
3596.752213649382
 10
9865.138976099515
 20
3507.347322525096
 10
9916.250999759554
 20
3503.089886832622
 10
9948.19577030182
 20
3586.108939022571
 10
9971.622102848568
 20
3707.444283235953
 10
9967.362744282139
 20
3807.49265872328
 10
9954.584668582734
 20
3901.155195276242
 10
9973.751642563112
 20
3986.302860444284
 10
10184.58779807175
 20
3992.68890911488
 10
10188.84715663824
 20
3884.125662242633
 10
10212.27348918505
 20
3798.977997074591
 10
10210.14367033304
 20
3705.315670257831
1001
GradientColor1ACI
1070
     5
1001
GradientColor2ACI
1070
     2
1001
ACAD
1010
0.0
1020
0.0
1030
0.0
  0
LINE
  5
1459D
330
747D
100
AcDbEntity
  8
U7
100
AcDbLine
 10
9619.812845959815
 20
3506.809249332018
 30
0.0
 11
9619.812845959815
 21
3496.809249332018
 31
0.0
  0
LINE
  5
1459E
330
747D
100
AcDbEntity
  8
U7
100
AcDbLine
 10
9819.812845959816
 20
3506.809249332018
 30
0.0
 11
9819.812845959816
 21
3496.809249332018
 31
0.0
  0
LINE
  5
1459F
330
747D
100
AcDbEntity
  8
U7
100
AcDbLine
 10
9819.812845959816
 20
3496.809249332018
 30
0.0
 11
9619.812845959815
 21
3496.809249332018
 31
0.0
  0
LINE
  5
145A0
330
747D
100
AcDbEntity
  8
U7
100
AcDbLine
 10
9819.812845959816
 20
3506.809249332018
 30
0.0
 11
9619.812845959815
 21
3506.809249332018
 31
0.0
  0
CIRCLE
  5
145A1
330
747D
100
AcDbEntity
  8
U7
100
AcDbCircle
 10
9514.812845959815
 20
3956.809249332018
 30
0.0
 40
5.0
  0
CIRCLE
  5
145A2
330
747D
100
AcDbEntity
  8
U7
100
AcDbCircle
 10
10274.81284595981
 20
3956.809249332018
 30
0.0
 40
5.0
  0
LINE
  5
145A3
330
747D
100
AcDbEntity
  8
U7
100
AcDbLine
 10
9514.812845959815
 20
3951.809249332018
 30
0.0
 11
10274.81284595981
 21
3951.809249332018
 31
0.0
  0
LINE
  5
145A4
330
747D
100
AcDbEntity
  8
U7
100
AcDbLine
 10
9514.812845959815
 20
3961.809249332018
 30
0.0
 11
10274.81284595981
 21
3961.809249332018
 31
0.0
  0
CIRCLE
  5
145A5
330
747D
100
AcDbEntity
  8
U7
100
AcDbCircle
 10
9514.812845959815
 20
3856.809249332018
 30
0.0
 40
5.0
  0
CIRCLE
  5
145A6
330
747D
100
AcDbEntity
  8
U7
100
AcDbCircle
 10
10274.81284595981
 20
3856.809249332018
 30
0.0
 40
5.0
  0
CIRCLE
  5
145A7
330
747D
100
AcDbEntity
  8
U7
100
AcDbCircle
 10
9514.812845959815
 20
3756.809249332018
 30
0.0
 40
5.0
  0
LINE
  5
145A8
330
747D
100
AcDbEntity
  8
U7
100
AcDbLine
 10
9514.812845959815
 20
3861.809249332018
 30
0.0
 11
10274.81284595981
 21
3861.809249332018
 31
0.0
  0
CIRCLE
  5
145A9
330
747D
100
AcDbEntity
  8
U7
100
AcDbCircle
 10
10274.81284595981
 20
3756.809249332018
 30
0.0
 40
5.0
  0
LINE
  5
145AA
330
747D
100
AcDbEntity
  8
U7
100
AcDbLine
 10
9514.812845959815
 20
3751.809249332018
 30
0.0
 11
10274.81284595981
 21
3751.809249332018
 31
0.0
  0
LINE
  5
145AB
330
747D
100
AcDbEntity
  8
U7
100
AcDbLine
 10
9514.812845959815
 20
3761.809249332018
 30
0.0
 11
10274.81284595981
 21
3761.809249332018
 31
0.0
  0
CIRCLE
  5
145AC
330
747D
100
AcDbEntity
  8
U7
100
AcDbCircle
 10
10274.81284595981
 20
3656.809249332018
 30
0.0
 40
5.0
  0
CIRCLE
  5
145AD
330
747D
100
AcDbEntity
  8
U7
100
AcDbCircle
 10
9514.812845959815
 20
3656.809249332018
 30
0.0
 40
5.0
  0
LINE
  5
145AE
330
747D
100
AcDbEntity
  8
U7
100
AcDbLine
 10
9514.812845959815
 20
3661.809249332018
 30
0.0
 11
10274.81284595981
 21
3661.809249332018
 31
0.0
  0
LINE
  5
145AF
330
747D
100
AcDbEntity
  8
U7
100
AcDbLine
 10
9514.812845959815
 20
3651.809249332018
 30
0.0
 11
10274.81284595981
 21
3651.809249332018
 31
0.0
  0
LINE
  5
145B0
330
747D
100
AcDbEntity
  8
KIN-T
100
AcDbLine
 10
10445.26284595994
 20
3578.809249332018
 30
0.0
 11
10299.81284595993
 21
3578.809249332018
 31
0.0
  0
LINE
  5
145B1
330
747D
100
AcDbEntity
  8
KIN-T
100
AcDbLine
 10
10445.26284595994
 20
3591.809249332018
 30
0.0
 11
10445.26284595994
 21
3578.809249332018
 31
0.0
  0
LINE
  5
145B2
330
747D
100
AcDbEntity
  8
KIN-T
100
AcDbLine
 10
10256.81284595981
 20
3961.809249332018
 30
0.0
 11
10269.81284595981
 21
3961.809249332018
 31
0.0
  0
ARC
  5
145B3
330
747D
100
AcDbEntity
  8
KIN-T
100
AcDbCircle
 10
10299.81284595993
 20
3621.809249332018
 30
0.0
 40
43.0
100
AcDbArc
 50
180.0
 51
270.0
  0
ARC
  5
145B4
330
747D
100
AcDbEntity
  8
KIN-T
100
AcDbCircle
 10
10299.81284595993
 20
3621.809249332018
 30
0.0
 40
30.0
100
AcDbArc
 50
180.0
 51
270.0
  0
LINE
  5
145B5
330
747D
100
AcDbEntity
  8
KIN-T
100
AcDbLine
 10
10256.81284595981
 20
3961.809249332018
 30
0.0
 11
10256.81284595981
 21
3621.809249332018
 31
0.0
  0
LINE
  5
145B6
330
747D
100
AcDbEntity
  8
KIN-T
100
AcDbLine
 10
10269.81284595981
 20
3961.809249332018
 30
0.0
 11
10269.81284595981
 21
3621.809249332018
 31
0.0
  0
ARC
  5
145B7
330
747D
100
AcDbEntity
  8
KIN-T
100
AcDbCircle
 10
9489.812845959816
 20
3621.809249332018
 30
0.0
 40
43.0
100
AcDbArc
 50
270.0
 51
0.0
  0
LINE
  5
145B8
330
747D
100
AcDbEntity
  8
KIN-T
100
AcDbLine
 10
10445.26284595994
 20
3591.809249332018
 30
0.0
 11
10299.81284595993
 21
3591.809249332018
 31
0.0
  0
LINE
  5
145B9
330
747D
100
AcDbEntity
  8
KIN-T
100
AcDbLine
 10
9344.362845959805
 20
3591.809249332018
 30
0.0
 11
9344.362845959805
 21
3578.809249332018
 31
0.0
  0
LINE
  5
145BA
330
747D
100
AcDbEntity
  8
KIN-T
100
AcDbLine
 10
9344.362845959805
 20
3578.809249332018
 30
0.0
 11
9489.812845959816
 21
3578.809249332018
 31
0.0
  0
LINE
  5
145BB
330
747D
100
AcDbEntity
  8
KIN-T
100
AcDbLine
 10
9519.812845959815
 20
3961.809249332018
 30
0.0
 11
9532.812845959815
 21
3961.809249332018
 31
0.0
  0
ARC
  5
145BC
330
747D
100
AcDbEntity
  8
KIN-T
100
AcDbCircle
 10
9489.812845959816
 20
3621.809249332018
 30
0.0
 40
30.0
100
AcDbArc
 50
270.0
 51
0.0
  0
LINE
  5
145BD
330
747D
100
AcDbEntity
  8
KIN-T
100
AcDbLine
 10
9532.812845959815
 20
3961.809249332018
 30
0.0
 11
9532.812845959815
 21
3621.809249332018
 31
0.0
  0
LINE
  5
145BE
330
747D
100
AcDbEntity
  8
部品1
 48
50.0
100
AcDbLine
 10
9379.093297521896
 20
3541.809249332033
 30
0.0
 11
10410.53239439773
 21
3541.809249332018
 31
0.0
  0
LINE
  5
145BF
330
747D
100
AcDbEntity
  8
KIN-T
100
AcDbLine
 10
9519.812845959815
 20
3961.809249332018
 30
0.0
 11
9519.812845959815
 21
3621.809249332018
 31
0.0
  0
LINE
  5
145C0
330
747D
100
AcDbEntity
  8
KIN-T
100
AcDbLine
 10
9344.362845959805
 20
3591.809249332018
 30
0.0
 11
9489.812845959816
 21
3591.809249332018
 31
0.0
  0
CIRCLE
  5
145C1
330
747D
100
AcDbEntity
  8
部品1
 48
50.0
100
AcDbCircle
 10
10394.81284595981
 20
3546.809249332018
 30
0.0
 40
5.0
  0
LINE
  5
145C2
330
747D
100
AcDbEntity
  8
部品1
 48
50.0
100
AcDbLine
 10
10410.53239439773
 20
3541.809249332018
 30
0.0
 11
10410.53239439773
 21
3531.809249332018
 31
0.0
  0
CIRCLE
  5
145C3
330
747D
100
AcDbEntity
  8
部品1
 48
50.0
100
AcDbCircle
 10
9594.812845959815
 20
3546.809249332018
 30
0.0
 40
5.0
  0
CIRCLE
  5
145C4
330
747D
100
AcDbEntity
  8
部品1
 48
50.0
100
AcDbCircle
 10
9794.812845959816
 20
3546.809249332018
 30
0.0
 40
5.0
  0
CIRCLE
  5
145C5
330
747D
100
AcDbEntity
  8
部品1
 48
50.0
100
AcDbCircle
 10
9994.812845959815
 20
3546.809249332018
 30
0.0
 40
5.0
  0
CIRCLE
  5
145C6
330
747D
100
AcDbEntity
  8
部品1
 48
50.0
100
AcDbCircle
 10
10194.81284595981
 20
3546.809249332018
 30
0.0
 40
5.0
  0
LINE
  5
145C7
330
747D
100
AcDbEntity
  8
部品1
 48
50.0
100
AcDbLine
 10
9379.093297521896
 20
3531.809249332003
 30
0.0
 11
10410.53239439773
 21
3531.809249332018
 31
0.0
  0
HATCH
  5
145C8
330
747D
100
AcDbEntity
  8
細線
 48
50.0
100
AcDbHatch
 10
0.0
 20
0.0
 30
0.0000000000013153
210
0.0
220
0.0
230
1.0
  2
PLAST
 70
     0
 71
     0
 91
        4
 92
        7
 72
     0
 73
     1
 93
        4
 10
9719.812845959815
 20
3466.809249332018
 10
9114.812845959816
 20
3466.809249332018
 10
9114.812845959816
 20
3416.809249332018
 10
9719.812845959815
 20
3416.809249332018
 97
        0
 92
        7
 72
     0
 73
     1
 93
        4
 10
9894.812845959815
 20
3466.809249332018
 10
9719.812845959815
 20
3466.809249332018
 10
9719.812845959815
 20
3416.809249332018
 10
9894.812845959815
 20
3416.809249332018
 97
        0
 92
        7
 72
     0
 73
     1
 93
        4
 10
10069.81284595981
 20
3466.809249332018
 10
9894.812845959815
 20
3466.809249332018
 10
9894.812845959815
 20
3416.809249332018
 10
10069.81284595981
 20
3416.809249332018
 97
        0
 92
        7
 72
     0
 73
     1
 93
        4
 10
10674.81284595981
 20
3466.809249332018
 10
10069.81284595981
 20
3466.809249332018
 10
10069.81284595981
 20
3416.809249332018
 10
10674.81284595981
 20
3416.809249332018
 97
        0
 75
     0
 76
     1
 52
45.0
 41
37.5
 77
     0
 78
     3
 53
45.0
 43
-262357.7787241013
 44
111827.639331502
 45
-168.3798022700466
 46
168.3798022700466
 79
     0
 53
45.0
 43
-262378.826199385
 44
111848.6868067858
 45
-168.3798022700466
 46
168.3798022700466
 79
     0
 53
45.0
 43
-262399.8736746688
 44
111869.7342820695
 45
-168.3798022700466
 46
168.3798022700466
 79
     0
 47
3.405378208606371
 98
        4
 10
9622.431463201669
 20
3432.121439359489
 10
9775.743249222367
 20
3442.337481289829
 10
9983.565836667397
 20
3432.121439359489
 10
10174.35350208382
 20
3435.526716757526
1001
GradientColor1ACI
1070
     5
1001
GradientColor2ACI
1070
     2
1001
ACAD
1010
0.0
1020
0.0
1030
0.0
  0
LINE
  5
145C9
330
747D
100
AcDbEntity
  8
細線
 48
50.0
100
AcDbLine
 10
9204.240776504702
 20
3316.809249332018
 30
0.0000000000013153
 11
9231.035695747785
 21
3416.809249331989
 31
0.0000000000013153
1001
GradientColor1ACI
1070
     5
1001
GradientColor2ACI
1070
     2
1001
ACAD
1010
0.0
1020
0.0
1030
0.0
  0
LINE
  5
145CA
330
747D
100
AcDbEntity
  8
細線
 48
50.0
100
AcDbLine
 10
9327.503346734818
 20
3316.809249332018
 30
0.0000000000013153
 11
9354.298265977901
 21
3416.809249332018
 31
0.0000000000013153
1001
GradientColor1ACI
1070
     5
1001
GradientColor2ACI
1070
     2
1001
ACAD
1010
0.0
1020
0.0
1030
0.0
  0
LINE
  5
145CB
330
747D
100
AcDbEntity
  8
細線
 48
50.0
100
AcDbLine
 10
9450.765916964817
 20
3316.809249332018
 30
0.0000000000013153
 11
9477.560836207958
 21
3416.809249332018
 31
0.0000000000013153
1001
GradientColor1ACI
1070
     5
1001
GradientColor2ACI
1070
     2
1001
ACAD
1010
0.0
1020
0.0
1030
0.0
  0
LINE
  5
145CC
330
747D
100
AcDbEntity
  8
細線
 48
50.0
100
AcDbLine
 10
9574.028487194935
 20
3316.809249332018
 30
0.0000000000013153
 11
9600.823406438017
 21
3416.809249332018
 31
0.0000000000013153
1001
GradientColor1ACI
1070
     5
1001
GradientColor2ACI
1070
     2
1001
ACAD
1010
0.0
1020
0.0
1030
0.0
  0
LINE
  5
145CD
330
747D
100
AcDbEntity
  8
細線
 48
50.0
100
AcDbLine
 10
9697.291057425049
 20
3316.809249332018
 30
0.0000000000013153
 11
9724.085976668131
 21
3416.809249332018
 31
0.0000000000013153
1001
GradientColor1ACI
1070
     5
1001
GradientColor2ACI
1070
     2
1001
ACAD
1010
0.0
1020
0.0
1030
0.0
  0
LINE
  5
145CE
330
747D
100
AcDbEntity
  8
細線
 48
50.0
100
AcDbLine
 10
9820.55362765505
 20
3316.809249332018
 30
0.0000000000013153
 11
9847.348546898189
 21
3416.809249332018
 31
0.0000000000013153
1001
GradientColor1ACI
1070
     5
1001
GradientColor2ACI
1070
     2
1001
ACAD
1010
0.0
1020
0.0
1030
0.0
  0
LINE
  5
145CF
330
747D
100
AcDbEntity
  8
細線
 48
50.0
100
AcDbLine
 10
9943.816197885164
 20
3316.809249332018
 30
0.0000000000013153
 11
9970.611117128248
 21
3416.809249332018
 31
0.0000000000013153
1001
GradientColor1ACI
1070
     5
1001
GradientColor2ACI
1070
     2
1001
ACAD
1010
0.0
1020
0.0
1030
0.0
  0
LINE
  5
145D0
330
747D
100
AcDbEntity
  8
細線
 48
50.0
100
AcDbLine
 10
10067.07876811528
 20
3316.809249332018
 30
0.0000000000013153
 11
10093.87368735836
 21
3416.809249332018
 31
0.0000000000013153
1001
GradientColor1ACI
1070
     5
1001
GradientColor2ACI
1070
     2
1001
ACAD
1010
0.0
1020
0.0
1030
0.0
  0
LINE
  5
145D1
330
747D
100
AcDbEntity
  8
細線
 48
50.0
100
AcDbLine
 10
10190.34133834528
 20
3316.809249332032
 30
0.0000000000013153
 11
10217.13625758842
 21
3416.809249332018
 31
0.0000000000013153
1001
GradientColor1ACI
1070
     5
1001
GradientColor2ACI
1070
     2
1001
ACAD
1010
0.0
1020
0.0
1030
0.0
  0
LINE
  5
145D2
330
747D
100
AcDbEntity
  8
細線
 48
50.0
100
AcDbLine
 10
10313.60390857539
 20
3316.809249332018
 30
0.0000000000013153
 11
10340.39882781847
 21
3416.809249332033
 31
0.0000000000013153
1001
GradientColor1ACI
1070
     5
1001
GradientColor2ACI
1070
     2
1001
ACAD
1010
0.0
1020
0.0
1030
0.0
  0
LINE
  5
145D3
330
747D
100
AcDbEntity
  8
細線
 48
50.0
100
AcDbLine
 10
10436.86647880545
 20
3316.809249332032
 30
0.0000000000013153
 11
10463.66139804859
 21
3416.809249332018
 31
0.0000000000013153
1001
GradientColor1ACI
1070
     5
1001
GradientColor2ACI
1070
     2
1001
ACAD
1010
0.0
1020
0.0
1030
0.0
  0
LINE
  5
145D4
330
747D
100
AcDbEntity
  8
細線
 48
50.0
100
AcDbLine
 10
10560.12904903551
 20
3316.809249332018
 30
0.0000000000013153
 11
10586.92396827865
 21
3416.809249332018
 31
0.0000000000013153
1001
GradientColor1ACI
1070
     5
1001
GradientColor2ACI
1070
     2
1001
ACAD
1010
0.0
1020
0.0
1030
0.0
  0
LINE
  5
145D5
330
747D
100
AcDbEntity
  8
部品1
 48
50.0
100
AcDbLine
 10
10674.81284595981
 20
3416.809249332018
 30
0.0
 11
9114.812845959816
 21
3416.809249332018
 31
0.0
  0
LINE
  5
145D6
330
747D
100
AcDbEntity
  8
文字
 48
50.0
100
AcDbLine
 10
10312.402472134
 20
2403.621377160238
 30
0.0
 11
10312.402472134
 21
2180.496377160237
 31
0.0
  0
LINE
  5
145D7
330
747D
100
AcDbEntity
  8
文字
 48
50.0
100
AcDbLine
 10
9477.223219785628
 20
2403.621377160238
 30
0.0
 11
9477.223219785628
 21
2180.496377160237
 31
0.0
  0
TEXT
  5
145D8
330
747D
100
AcDbEntity
  8
文字
 62
     7
 48
50.0
100
AcDbText
 10
9543.808027198327
 20
2237.979918133602
 30
0.0
 40
112.5
  1
A-A' 断面
  7
STYLE2
100
AcDbText
  0
LINE
  5
145D9
330
747D
100
AcDbEntity
  8
文字
 48
50.0
100
AcDbLine
 10
9477.223219785628
 20
2180.496377160237
 30
0.0
 11
10312.402472134
 21
2180.496377160237
 31
0.0
  0
LINE
  5
145DA
330
747D
100
AcDbEntity
  8
文字
 48
50.0
100
AcDbLine
 10
9477.223219785628
 20
2403.621377160238
 30
0.0
 11
10312.402472134
 21
2403.621377160238
 31
0.0
  0
LINE
  5
145DB
330
747D
100
AcDbEntity
  8
部品1
 48
50.0
100
AcDbLine
 10
9764.362845959805
 20
3466.809249332018
 30
0.0
 11
9675.262845959828
 21
3466.809249332018
 31
0.0
  0
LINE
  5
145DC
330
747D
100
AcDbEntity
  8
細線
 48
50.0
100
AcDbLine
 10
8748.697440813026
 20
3916.809249332047
 30
0.0000000000013153
 11
8775.492360056109
 21
4016.809249332032
 31
0.0000000000013153
1001
GradientColor1ACI
1070
     5
1001
GradientColor2ACI
1070
     2
1001
ACAD
1010
0.0
1020
0.0
1030
0.0
  0
LINE
  5
145DD
330
747D
100
AcDbEntity
  8
細線
 48
50.0
100
AcDbLine
 10
8871.960011043084
 20
3916.809249332061
 30
0.0000000000013153
 11
8898.754930286166
 21
4016.809249332018
 31
0.0000000000013153
1001
GradientColor1ACI
1070
     5
1001
GradientColor2ACI
1070
     2
1001
ACAD
1010
0.0
1020
0.0
1030
0.0
  0
LINE
  5
145DE
330
747D
100
AcDbEntity
  8
細線
 48
50.0
100
AcDbLine
 10
8995.222581273141
 20
3916.809249332047
 30
0.0000000000013153
 11
9022.017500516282
 21
4016.809249332018
 31
0.0000000000013153
1001
GradientColor1ACI
1070
     5
1001
GradientColor2ACI
1070
     2
1001
ACAD
1010
0.0
1020
0.0
1030
0.0
  0
LINE
  5
145DF
330
747D
100
AcDbEntity
  8
細線
 48
50.0
100
AcDbLine
 10
9118.485151503257
 20
3916.809249332033
 30
0.0000000000013153
 11
9145.280070746339
 21
4016.809249332018
 31
0.0000000000013153
1001
GradientColor1ACI
1070
     5
1001
GradientColor2ACI
1070
     2
1001
ACAD
1010
0.0
1020
0.0
1030
0.0
  0
LINE
  5
145E0
330
747D
100
AcDbEntity
  8
細線
 48
50.0
100
AcDbLine
 10
10597.63599426412
 20
3916.809249331989
 30
0.0000000000013153
 11
10624.43091350726
 21
4016.809249332018
 31
0.0000000000013153
1001
GradientColor1ACI
1070
     5
1001
GradientColor2ACI
1070
     2
1001
ACAD
1010
0.0
1020
0.0
1030
0.0
  0
LINE
  5
145E1
330
747D
100
AcDbEntity
  8
細線
 48
50.0
100
AcDbLine
 10
10720.89856449418
 20
3916.809249332033
 30
0.0000000000013153
 11
10747.69348373732
 21
4016.809249332018
 31
0.0000000000013153
1001
GradientColor1ACI
1070
     5
1001
GradientColor2ACI
1070
     2
1001
ACAD
1010
0.0
1020
0.0
1030
0.0
  0
LINE
  5
145E2
330
747D
100
AcDbEntity
  8
細線
 48
50.0
100
AcDbLine
 10
10844.16113472429
 20
3916.809249332047
 30
0.0000000000013153
 11
10870.95605396737
 21
4016.809249332018
 31
0.0000000000013153
1001
GradientColor1ACI
1070
     5
1001
GradientColor2ACI
1070
     2
1001
ACAD
1010
0.0
1020
0.0
1030
0.0
  0
LINE
  5
145E3
330
747D
100
AcDbEntity
  8
細線
 48
50.0
100
AcDbLine
 10
10967.42370495435
 20
3916.809249332033
 30
0.0000000000013153
 11
10994.21862419749
 21
4016.809249332018
 31
0.0000000000013153
1001
GradientColor1ACI
1070
     5
1001
GradientColor2ACI
1070
     2
1001
ACAD
1010
0.0
1020
0.0
1030
0.0
  0
LINE
  5
145E4
330
747D
100
AcDbEntity
  8
細線
 48
50.0
100
AcDbLine
 10
11090.68627518441
 20
3916.809249332047
 30
0.0000000000013153
 11
11094.81284595981
 21
3932.209821126951
 31
0.0000000000013153
1001
GradientColor1ACI
1070
     5
1001
GradientColor2ACI
1070
     2
1001
ACAD
1010
0.0
1020
0.0
1030
0.0
  0
LINE
  5
145E5
330
747D
100
AcDbEntity
  8
部品1
 48
50.0
100
AcDbLine
 10
10594.81284595981
 20
3466.809249332018
 30
0.0
 11
10594.81284595981
 21
4016.809249332018
 31
0.0
  0
LINE
  5
145E6
330
747D
100
AcDbEntity
  8
センター
 48
10.0
100
AcDbLine
 10
9719.812845959815
 20
4541.282082187058
 30
0.0
 11
9719.812845959815
 21
3405.751417502138
 31
0.0
  0
LINE
  5
145E7
330
747D
100
AcDbEntity
  8
部品1
 48
50.0
100
AcDbLine
 10
9194.812845959814
 20
4016.809249332018
 30
0.0
 11
9194.812845959814
 21
3466.809249332018
 31
0.0
  0
HATCH
  5
145E8
330
747D
100
AcDbEntity
  8
細線
 48
50.0
100
AcDbHatch
 10
0.0
 20
0.0
 30
0.0000000000013153
210
0.0
220
0.0
230
1.0
  2
PLAST
 70
     0
 71
     0
 91
        3
 92
        7
 72
     0
 73
     1
 93
        6
 10
9675.262845959828
 20
4130.809249332018
 10
9661.262845959827
 20
4130.809249332018
 10
9647.262845959827
 20
4116.809249332018
 10
8694.812845959758
 20
4116.809249332018
 10
8694.812845959814
 20
4016.809249332018
 10
9675.262845959828
 20
4016.809249332018
 97
        0
 92
        7
 72
     0
 73
     1
 93
        8
 10
10025.26284595983
 20
4130.809249332018
 10
10011.26284595982
 20
4130.809249332018
 10
9997.262845959827
 20
4116.809249332003
 10
9792.362845959804
 20
4116.809249332018
 10
9778.362845959861
 20
4130.809249332018
 10
9764.362845959805
 20
4130.809249332018
 10
9764.362845959805
 20
4016.809249332018
 10
10025.26284595983
 20
4016.809249332018
 97
        0
 92
        7
 72
     0
 73
     1
 93
        6
 10
11094.81284595987
 20
4116.809249332018
 10
10142.3628459598
 20
4116.809249332018
 10
10128.36284595986
 20
4130.809249332018
 10
10114.3628459598
 20
4130.809249332018
 10
10114.3628459598
 20
4016.809249332018
 10
11094.81284595987
 20
4016.809249332018
 97
        0
 75
     0
 76
     1
 52
45.0
 41
37.5
 77
     0
 78
     3
 53
45.0
 43
-262357.7787241013
 44
111827.639331502
 45
-168.3798022700466
 46
168.3798022700466
 79
     0
 53
45.0
 43
-262378.826199385
 44
111848.6868067858
 45
-168.3798022700466
 46
168.3798022700466
 79
     0
 53
45.0
 43
-262399.8736746688
 44
111869.7342820695
 45
-168.3798022700466
 46
168.3798022700466
 79
     0
 47
3.420167112779795
 98
        3
 10
9179.646869215845
 20
4078.587220242992
 10
9891.365057412382
 20
4054.646039551403
 10
10284.86318675413
 20
4064.906545562076
1001
GradientColor1ACI
1070
     5
1001
GradientColor2ACI
1070
     2
1001
ACAD
1010
0.0
1020
0.0
1030
0.0
  0
LINE
  5
145E9
330
747D
100
AcDbEntity
  8
部品1
 48
50.0
100
AcDbLine
 10
9764.362845959805
 20
4462.742345276932
 30
0.0
 11
9764.362845959805
 21
3466.809249332018
 31
0.0
  0
LINE
  5
145EA
330
747D
100
AcDbEntity
  8
部品1
 48
50.0
100
AcDbLine
 10
9675.262845959828
 20
4462.742345276932
 30
0.0
 11
9675.262845959828
 21
3466.809249332018
 31
0.0
  0
LINE
  5
145EB
330
747D
100
AcDbEntity
  8
部品1
 48
50.0
100
AcDbLine
 10
10674.81284595981
 20
3466.809249332018
 30
0.0
 11
9114.812845959816
 21
3466.809249332018
 31
0.0
  0
LINE
  5
145EC
330
747D
100
AcDbEntity
  8
部品1
 48
50.0
100
AcDbLine
 10
9997.262845959827
 20
4116.809249332003
 30
0.0
 11
9792.362845959804
 21
4116.809249332018
 31
0.0
  0
LINE
  5
145ED
330
747D
100
AcDbEntity
  8
部品1
 48
50.0
100
AcDbLine
 10
10025.26284595983
 20
4016.809249332018
 30
0.0
 11
9764.362845959805
 21
4016.809249332018
 31
0.0
  0
LINE
  5
145EE
330
747D
100
AcDbEntity
  8
部品1
 48
50.0
100
AcDbLine
 10
9194.812845959814
 20
3916.809249332018
 30
0.0
 11
8694.812845959814
 21
3916.809249332047
 31
0.0
  0
LINE
  5
145EF
330
747D
100
AcDbEntity
  8
部品1
 48
50.0
100
AcDbLine
 10
10674.81284595981
 20
3316.809249332018
 30
0.0
 11
9114.812845959816
 21
3316.809249332018
 31
0.0
  0
LINE
  5
145F0
330
747D
100
AcDbEntity
  8
部品1
 48
50.0
100
AcDbLine
 10
9661.262845959827
 20
4130.809249332018
 30
0.0
 11
9647.262845959827
 21
4116.809249332018
 31
0.0
  0
LINE
  5
145F1
330
747D
100
AcDbEntity
  8
部品1
 48
50.0
100
AcDbLine
 10
9661.262845959827
 20
4130.809249332018
 30
0.0
 11
9675.262845959828
 21
4130.809249332018
 31
0.0
  0
LINE
  5
145F2
330
747D
100
AcDbEntity
  8
部品1
 48
50.0
100
AcDbLine
 10
9764.362845959805
 20
4130.809249332018
 30
0.0
 11
9778.362845959804
 21
4130.809249332018
 31
0.0
  0
LINE
  5
145F3
330
747D
100
AcDbEntity
  8
部品1
 48
50.0
100
AcDbLine
 10
9778.362845959861
 20
4130.809249332018
 30
0.0
 11
9792.362845959804
 21
4116.809249332018
 31
0.0
  0
LINE
  5
145F4
330
747D
100
AcDbEntity
  8
部品1
 48
50.0
100
AcDbLine
 10
9647.262845959827
 20
4116.809249332018
 30
0.0
 11
8694.812845959758
 21
4116.809249332018
 31
0.0
  0
LINE
  5
145F5
330
747D
100
AcDbEntity
  8
部品1
 48
50.0
100
AcDbLine
 10
9675.262845959828
 20
4016.809249332018
 30
0.0
 11
8694.812845959814
 21
4016.809249332018
 31
0.0
  0
LINE
  5
145F6
330
747D
100
AcDbEntity
  8
部品1
 48
50.0
100
AcDbLine
 10
10674.81284595981
 20
3466.809249332018
 30
0.0
 11
10674.81284595981
 21
3316.809249332018
 31
0.0
  0
LINE
  5
145F7
330
747D
100
AcDbEntity
  8
部品1
 48
50.0
100
AcDbLine
 10
9114.812845959816
 20
3466.809249332018
 30
0.0
 11
9114.812845959816
 21
3316.809249332018
 31
0.0
  0
MTEXT
  5
1461B
330
747D
100
AcDbEntity
  8
寸法
 62
     7
 48
50.0
100
AcDbMText
 10
11615.73343777437
 20
4119.081976604738
 30
0.0
 40
100.0
 41
1.0
 71
     4
 72
     1
  1
▽G.L
  7
STYLE2
 73
     1
 44
1.0
1001
ACAD
1000
MTEXTBEGIN
1070
    73
1070
     1
1070
    44
1040
1.0
1070
    74
1070
     0
1000
MTEXTEND
  0
LINE
  5
1461C
330
747D
100
AcDbEntity
  8
U7
100
AcDbLine
 10
9969.812845959815
 20
3506.809249332018
 30
0.0
 11
9969.812845959815
 21
3496.809249332018
 31
0.0
  0
LINE
  5
1461D
330
747D
100
AcDbEntity
  8
センター
 48
10.0
100
AcDbLine
 10
10069.81284595981
 20
4541.282082187058
 30
0.0
 11
10069.81284595981
 21
3405.751417502138
 31
0.0
  0
LINE
  5
1461E
330
747D
100
AcDbEntity
  8
部品1
 48
50.0
100
AcDbLine
 10
10025.26284595983
 20
4462.742345276932
 30
0.0
 11
10025.26284595983
 21
3466.809249332018
 31
0.0
  0
LINE
  5
1461F
330
747D
100
AcDbEntity
  8
部品1
 48
50.0
100
AcDbLine
 10
10114.3628459598
 20
4130.809249332018
 30
0.0
 11
10128.3628459598
 21
4130.809249332018
 31
0.0
  0
LINE
  5
14620
330
747D
100
AcDbEntity
  8
部品1
 48
50.0
100
AcDbLine
 10
10142.3628459598
 20
4116.809249332018
 30
0.0
 11
11094.81284595987
 21
4116.809249332018
 31
0.0
  0
LINE
  5
14621
330
747D
100
AcDbEntity
  8
部品1
 48
50.0
100
AcDbLine
 10
10114.3628459598
 20
4016.809249332018
 30
0.0
 11
11094.81284595981
 21
4016.809249332018
 31
0.0
  0
CIRCLE
  5
14622
330
747D
100
AcDbEntity
  8
部品1
 48
50.0
100
AcDbCircle
 10
9394.812845959815
 20
3546.809249332018
 30
0.0
 40
5.0
  0
LINE
  5
14623
330
747D
100
AcDbEntity
  8
Ｇ．Ｌ
 48
50.0
100
AcDbLine
 10
11094.81284595981
 20
4066.809249332018
 30
0.0
 11
12148.92679646462
 21
4066.809249332018
 31
0.0
  0
LINE
  5
14624
330
747D
100
AcDbEntity
  8
部品1
 48
50.0
100
AcDbLine
 10
10114.3628459598
 20
4462.742345276932
 30
0.0
 11
10114.3628459598
 21
3466.809249332018
 31
0.0
  0
LINE
  5
14625
330
747D
100
AcDbEntity
  8
U7
100
AcDbLine
 10
10169.81284595981
 20
3506.809249332018
 30
0.0
 11
9969.812845959815
 21
3506.809249332018
 31
0.0
  0
LINE
  5
14626
330
747D
100
AcDbEntity
  8
U7
100
AcDbLine
 10
10169.81284595981
 20
3506.809249332018
 30
0.0
 11
10169.81284595981
 21
3496.809249332018
 31
0.0
  0
LINE
  5
14627
330
747D
100
AcDbEntity
  8
部品1
 48
50.0
100
AcDbLine
 10
10011.26284595982
 20
4130.809249332018
 30
0.0
 11
9997.262845959827
 21
4116.809249332018
 31
0.0
  0
LINE
  5
14628
330
747D
100
AcDbEntity
  8
部品1
 48
50.0
100
AcDbLine
 10
10128.36284595986
 20
4130.809249332018
 30
0.0
 11
10142.3628459598
 21
4116.809249332018
 31
0.0
  0
LINE
  5
14629
330
747D
100
AcDbEntity
  8
U7
100
AcDbLine
 10
10169.81284595981
 20
3496.809249332018
 30
0.0
 11
9969.812845959815
 21
3496.809249332018
 31
0.0
  0
LINE
  5
1462A
330
747D
100
AcDbEntity
  8
部品1
 48
50.0
100
AcDbLine
 10
10011.26284595982
 20
4130.809249332018
 30
0.0
 11
10025.26284595983
 21
4130.809249332018
 31
0.0
  0
LINE
  5
1462B
330
747D
100
AcDbEntity
  8
部品1
 48
50.0
100
AcDbLine
 10
10594.81284595981
 20
3916.809249332018
 30
0.0
 11
11094.81284595981
 21
3916.809249332047
 31
0.0
  0
LINE
  5
1462C
330
747D
100
AcDbEntity
  8
部品1
 48
50.0
100
AcDbLine
 10
9379.093297521896
 20
3541.809249332018
 30
0.0
 11
9379.093297521896
 21
3531.809249332018
 31
0.0
  0
LINE
  5
1462D
330
747D
100
AcDbEntity
  8
細線
 48
50.0
100
AcDbLine
 10
9710.688517046591
 20
3316.809249332018
 30
0.0
 11
9703.989787235819
 21
3341.809249332018
 31
0.0
  0
LINE
  5
1462E
330
747D
100
AcDbEntity
  8
細線
 48
50.0
100
AcDbLine
 10
9717.387246857361
 20
3391.809249332018
 30
0.0
 11
9710.688517046591
 21
3416.809249332018
 31
0.0
  0
LINE
  5
1462F
330
747D
100
AcDbEntity
  8
細線
 48
50.0
100
AcDbLine
 10
9833.951087276648
 20
3316.809249332018
 30
0.0
 11
9827.252357465878
 21
3341.809249332018
 31
0.0
  0
LINE
  5
14630
330
747D
100
AcDbEntity
  8
細線
 48
50.0
100
AcDbLine
 10
9840.649817087419
 20
3391.809249332018
 30
0.0
 11
9833.951087276648
 21
3416.809249332018
 31
0.0
  0
LINE
  5
14631
330
747D
100
AcDbEntity
  8
細線
 48
50.0
100
AcDbLine
 10
9957.213657506706
 20
3316.809249332018
 30
0.0
 11
9950.514927695934
 21
3341.809249332018
 31
0.0
  0
LINE
  5
14632
330
747D
100
AcDbEntity
  8
細線
 48
50.0
100
AcDbLine
 10
9963.912387317476
 20
3391.809249332018
 30
0.0
 11
9957.213657506706
 21
3416.809249332018
 31
0.0
  0
LINE
  5
14633
330
747D
100
AcDbEntity
  8
細線
 48
50.0
100
AcDbLine
 10
10080.47622773682
 20
3316.809249332018
 30
0.0
 11
10073.77749792605
 21
3341.809249332018
 31
0.0
  0
LINE
  5
14634
330
747D
100
AcDbEntity
  8
細線
 48
50.0
100
AcDbLine
 10
10087.17495754759
 20
3391.809249332018
 30
0.0
 11
10080.47622773682
 21
3416.809249332018
 31
0.0
  0
LINE
  5
14635
330
747D
100
AcDbEntity
  8
細線
 48
50.0
100
AcDbLine
 10
10203.73879796688
 20
3316.809249332018
 30
0.0
 11
10197.04006815611
 21
3341.809249332018
 31
0.0
  0
LINE
  5
14636
330
747D
100
AcDbEntity
  8
細線
 48
50.0
100
AcDbLine
 10
10210.43752777765
 20
3391.809249332018
 30
0.0
 11
10203.73879796688
 21
3416.809249332018
 31
0.0
  0
LINE
  5
14637
330
747D
100
AcDbEntity
  8
細線
 48
50.0
100
AcDbLine
 10
10327.00136819693
 20
3316.809249332018
 30
-0.0000000000013153
 11
10320.30263838616
 21
3341.809249332018
 31
-0.0000000000013153
  0
LINE
  5
14638
330
747D
100
AcDbEntity
  8
細線
 48
50.0
100
AcDbLine
 10
10333.7000980077
 20
3391.809249332018
 30
-0.0000000000013153
 11
10327.00136819693
 21
3416.809249332018
 31
-0.0000000000013153
  0
LINE
  5
14639
330
747D
100
AcDbEntity
  8
細線
 48
50.0
100
AcDbLine
 10
10450.26393842705
 20
3316.809249332018
 30
0.0
 11
10443.56520861628
 21
3341.809249332018
 31
0.0
  0
LINE
  5
1463A
330
747D
100
AcDbEntity
  8
細線
 48
50.0
100
AcDbLine
 10
10456.96266823782
 20
3391.809249332018
 30
0.0
 11
10450.26393842705
 21
3416.809249332018
 31
0.0
  0
LINE
  5
1463B
330
747D
100
AcDbEntity
  8
細線
 48
50.0
100
AcDbLine
 10
10573.52650865711
 20
3316.809249332018
 30
0.0
 11
10566.82777884634
 21
3341.809249332018
 31
0.0
  0
LINE
  5
1463C
330
747D
100
AcDbEntity
  8
細線
 48
50.0
100
AcDbLine
 10
10580.22523846788
 20
3391.809249332018
 30
0.0
 11
10573.52650865711
 21
3416.809249332018
 31
0.0
  0
LINE
  5
1463D
330
747D
100
AcDbEntity
  8
細線
 48
50.0
100
AcDbLine
 10
8762.094900434567
 20
3916.809249332047
 30
-0.0000000000013153
 11
8755.396170623797
 21
3941.809249332047
 31
-0.0000000000013153
  0
LINE
  5
1463E
330
747D
100
AcDbEntity
  8
細線
 48
50.0
100
AcDbLine
 10
8768.793630245339
 20
3991.809249332047
 30
-0.0000000000013153
 11
8762.094900434567
 21
4016.809249332047
 31
-0.0000000000013153
  0
LINE
  5
1463F
330
747D
100
AcDbEntity
  8
細線
 48
50.0
100
AcDbLine
 10
8885.357470664626
 20
3916.809249332033
 30
-0.0000000000013153
 11
8878.658740853856
 21
3941.809249332033
 31
-0.0000000000013153
  0
LINE
  5
14640
330
747D
100
AcDbEntity
  8
細線
 48
50.0
100
AcDbLine
 10
8892.056200475396
 20
3991.809249332032
 30
-0.0000000000013153
 11
8885.357470664626
 21
4016.809249332032
 31
-0.0000000000013153
  0
LINE
  5
14641
330
747D
100
AcDbEntity
  8
細線
 48
50.0
100
AcDbLine
 10
9008.62004089474
 20
3916.809249332033
 30
-0.0000000000013153
 11
9001.92131108397
 21
3941.809249332033
 31
-0.0000000000013153
  0
LINE
  5
14642
330
747D
100
AcDbEntity
  8
細線
 48
50.0
100
AcDbLine
 10
9015.31877070551
 20
3991.809249332032
 30
-0.0000000000013153
 11
9008.62004089474
 21
4016.809249332032
 31
-0.0000000000013153
  0
LINE
  5
14643
330
747D
100
AcDbEntity
  8
細線
 48
50.0
100
AcDbLine
 10
9131.882611124799
 20
3916.809249332033
 30
-0.0000000000013153
 11
9125.183881314027
 21
3941.809249332033
 31
-0.0000000000013153
  0
LINE
  5
14644
330
747D
100
AcDbEntity
  8
細線
 48
50.0
100
AcDbLine
 10
9138.581340935569
 20
3991.809249332032
 30
-0.0000000000013153
 11
9131.882611124799
 21
4016.809249332032
 31
-0.0000000000013153
  0
LINE
  5
14645
330
747D
100
AcDbEntity
  8
細線
 48
50.0
100
AcDbLine
 10
10611.03345388572
 20
3916.809249332033
 30
-0.0000000000013153
 11
10604.33472407495
 21
3941.809249332033
 31
-0.0000000000013153
  0
LINE
  5
14646
330
747D
100
AcDbEntity
  8
細線
 48
50.0
100
AcDbLine
 10
10617.73218369649
 20
3991.809249332032
 30
-0.0000000000013153
 11
10611.03345388572
 21
4016.809249332032
 31
-0.0000000000013153
  0
LINE
  5
14647
330
747D
100
AcDbEntity
  8
細線
 48
50.0
100
AcDbLine
 10
10734.29602411578
 20
3916.809249332033
 30
-0.0000000000013153
 11
10727.597294305
 21
3941.809249332033
 31
-0.0000000000013153
  0
LINE
  5
14648
330
747D
100
AcDbEntity
  8
細線
 48
50.0
100
AcDbLine
 10
10740.99475392655
 20
3991.809249332032
 30
-0.0000000000013153
 11
10734.29602411578
 21
4016.809249332032
 31
-0.0000000000013153
  0
LINE
  5
14649
330
747D
100
AcDbEntity
  8
細線
 48
50.0
100
AcDbLine
 10
10857.55859434583
 20
3916.809249332033
 30
-0.0000000000013153
 11
10850.85986453506
 21
3941.809249332033
 31
-0.0000000000013153
  0
LINE
  5
1464A
330
747D
100
AcDbEntity
  8
細線
 48
50.0
100
AcDbLine
 10
10864.2573241566
 20
3991.809249332032
 30
-0.0000000000013153
 11
10857.55859434583
 21
4016.809249332032
 31
-0.0000000000013153
  0
LINE
  5
1464B
330
747D
100
AcDbEntity
  8
細線
 48
50.0
100
AcDbLine
 10
10980.82116457595
 20
3916.809249332033
 30
-0.0000000000013153
 11
10974.12243476518
 21
3941.809249332033
 31
-0.0000000000013153
  0
LINE
  5
1464C
330
747D
100
AcDbEntity
  8
細線
 48
50.0
100
AcDbLine
 10
10987.51989438672
 20
3991.809249332032
 30
-0.0000000000013153
 11
10980.82116457595
 21
4016.809249332032
 31
-0.0000000000013153
  0
MTEXT
  5
1464D
330
747D
100
AcDbEntity
  8
寸法
 62
     7
 48
50.0
100
AcDbMText
 10
11092.26969768365
 20
4169.081976604739
 30
0.0
 40
100.0
 41
1.0
 71
     5
 72
     1
  1
▽Ｆ.L
  7
STYLE2
 73
     1
 44
1.0
1001
ACAD
1000
MTEXTBEGIN
1070
    73
1070
     1
1070
    44
1040
1.0
1070
    74
1070
     0
1000
MTEXTEND
  0
LINE
  5
1464E
330
747D
100
AcDbEntity
  8
寸法
 48
50.0
100
AcDbLine
 10
8928.133569835649
 20
4191.416665534187
 30
0.0
 11
8996.784787700766
 21
4209.811703920557
 31
0.0
  0
LINE
  5
1464F
330
747D
100
AcDbEntity
  8
寸法
 48
50.0
100
AcDbLine
 10
8928.133569835649
 20
4191.416665534187
 30
0.0
 11
9557.386065423452
 21
4191.416665534187
 31
0.0
  0
LINE
  5
14650
330
747D
100
AcDbEntity
  8
寸法
 48
50.0
100
AcDbLine
 10
8928.133569835649
 20
4191.416665534187
 30
0.0
 11
8996.784787700766
 21
4173.021627147802
 31
0.0
  0
TEXT
  5
14651
330
747D
100
AcDbEntity
  8
寸法
 62
     7
 48
50.0
100
AcDbText
 10
9026.36701083529
 20
4376.803701176166
 30
0.0
 40
90.0
  1
水勾配
 41
0.8
  7
STYLE1
100
AcDbText
  0
TEXT
  5
14652
330
747D
100
AcDbEntity
  8
寸法
 62
     7
 48
50.0
100
AcDbText
 10
8993.103517863922
 20
4228.465189054073
 30
0.0
 40
90.0
  1
１／１００
 41
0.8
  7
STYLE1
100
AcDbText
  0
LINE
  5
14653
330
747D
100
AcDbEntity
  8
寸法
 48
50.0
100
AcDbLine
 10
10861.49212208398
 20
4191.416665534187
 30
0.0
 11
10792.84090421886
 21
4209.811703920557
 31
0.0
  0
LINE
  5
14654
330
747D
100
AcDbEntity
  8
寸法
 48
50.0
100
AcDbLine
 10
10861.49212208398
 20
4191.416665534187
 30
0.0
 11
10232.23962649618
 21
4191.416665534187
 31
0.0
  0
LINE
  5
14655
330
747D
100
AcDbEntity
  8
寸法
 48
50.0
100
AcDbLine
 10
10861.49212208398
 20
4191.416665534187
 30
0.0
 11
10792.84090421886
 21
4173.021627147802
 31
0.0
  0
TEXT
  5
14656
330
747D
100
AcDbEntity
  8
寸法
 62
     7
 48
50.0
100
AcDbText
 10
10330.47306749582
 20
4376.803701176166
 30
0.0
 40
90.0
  1
水勾配
 41
0.8
  7
STYLE1
100
AcDbText
  0
TEXT
  5
14657
330
747D
100
AcDbEntity
  8
寸法
 62
     7
 48
50.0
100
AcDbText
 10
10297.20957452445
 20
4228.465189054073
 30
0.0
 40
90.0
  1
１／１００
 41
0.8
  7
STYLE1
100
AcDbText
  0
DIMENSION
  5
14658
330
747D
100
AcDbEntity
  8
寸法
 48
50.0
100
AcDbDimension
  2
*D21
 10
8544.231718857854
 20
4116.809249332018
 30
0.0
 11
8544.231718857853
 21
4293.844682402927
 31
0.0
 70
   160
 71
     5
 42
100.0000000000004
  3
INABA_S30G
100
AcDbAlignedDimension
 13
8694.812845959758
 23
4016.809249332018
 33
0.0
 14
8694.812845959758
 24
4116.809249332018
 34
0.0
 50
90.0
100
AcDbRotatedDimension
  0
DIMENSION
  5
14659
330
747D
100
AcDbEntity
  8
寸法
 48
50.0
100
AcDbDimension
  2
*D22
 10
8544.231718857853
 20
3916.809249332018
 30
0.0
 11
8544.231718857853
 21
3739.773816261152
 31
0.0
 70
   160
 71
     5
 42
100.0
  3
INABA_S30G
100
AcDbAlignedDimension
 13
8694.812845959758
 23
4016.809249332018
 33
0.0
 14
8694.812845959758
 24
3916.809249332018
 34
0.0
 50
90.0
100
AcDbRotatedDimension
  0
DIMENSION
  5
1465A
330
747D
100
AcDbEntity
  8
寸法
 48
50.0
100
AcDbDimension
  2
*D23
 10
9719.812845959815
 20
3025.192619687983
 30
0.0
 11
9457.312845959815
 21
3100.2014779557
 31
0.0
 70
    32
 71
     5
 42
525.0
  3
INABA_S30G
100
AcDbAlignedDimension
 13
9194.812845959814
 23
3466.809249332018
 33
0.0
 14
9719.812845959815
 24
3405.751417502138
 34
0.0
100
AcDbRotatedDimension
  0
DIMENSION
  5
1465B
330
747D
100
AcDbEntity
  8
寸法
 48
50.0
100
AcDbDimension
  2
*D24
 10
9194.812845959814
 20
2795.107058599231
 30
0.0
 11
9894.812845959815
 21
2870.107058599231
 31
0.0
 70
    32
 71
     5
 42
1400.0
  3
INABA_S30G
100
AcDbAlignedDimension
 13
10594.81284595981
 23
3466.809249332018
 33
0.0
 14
9194.812845959814
 24
3466.809249332018
 34
0.0
100
AcDbRotatedDimension
  0
DIMENSION
  5
1465C
330
747D
100
AcDbEntity
  8
寸法
 48
50.0
100
AcDbDimension
  2
*D25
 10
10069.81284595981
 20
3025.192619687983
 30
0.0
 11
9894.812845959815
 21
3100.192619687982
 31
0.0
 70
    32
 71
     5
 42
350.0
  3
INABA_S30G
100
AcDbAlignedDimension
 13
9719.812845959815
 23
3405.751417502138
 33
0.0
 14
10069.81284595981
 24
3405.751417502138
 34
0.0
100
AcDbRotatedDimension
  0
DIMENSION
  5
1465D
330
747D
100
AcDbEntity
  8
寸法
 48
50.0
100
AcDbDimension
  2
*D26
 10
10069.81284595981
 20
3025.192619687983
 30
0.0
 11
10332.31284595981
 21
3100.2014779557
 31
0.0
 70
    32
 71
     5
 42
525.0
  3
INABA_S30G
100
AcDbAlignedDimension
 13
10594.81284595981
 23
3466.809249332018
 33
0.0
 14
10069.81284595981
 24
3405.751417502138
 34
0.0
 50
180.0
100
AcDbRotatedDimension
  0
DIMENSION
  5
1465E
330
747D
100
AcDbEntity
  8
寸法
 48
50.0
100
AcDbDimension
  2
*D27
 10
11387.25421056054
 20
3466.809249332018
 30
0.0
 11
11312.25421056054
 21
3766.80924933202
 31
0.0
 70
    32
 71
     5
 42
600.0
  3
INABA_S30G
100
AcDbAlignedDimension
 13
11159.61072352333
 23
4066.809249332018
 33
0.0
 14
10674.81284595981
 24
3466.809249332018
 34
0.0
 50
90.0
100
AcDbRotatedDimension
  0
DIMENSION
  5
1465F
330
747D
100
AcDbEntity
  8
寸法
 48
50.0
100
AcDbDimension
  2
*D28
 10
11387.25421056055
 20
4116.809249332018
 30
0.0
 11
11387.25421056054
 21
4346.344682402927
 31
0.0
 70
   160
 71
     5
 42
50.00000000000091
  3
INABA_S30G
100
AcDbAlignedDimension
 13
11094.81284595981
 23
4066.809249332018
 33
0.0
 14
11094.81284595987
 24
4116.809249332018
 34
0.0
 50
90.0
100
AcDbRotatedDimension
  0
DIMENSION
  5
14660
330
747D
100
AcDbEntity
  8
寸法
 48
50.0
100
AcDbDimension
  2
*D29
 10
11387.25421056054
 20
3416.809249332017
 30
0.0
 11
11387.25421056054
 21
3187.273816261153
 31
0.0
 70
   160
 71
     5
 42
50.0
  3
INABA_S30G
100
AcDbAlignedDimension
 13
10674.81284595981
 23
3466.809249332018
 33
0.0
 14
10674.81284595981
 24
3416.809249332018
 34
0.0
 50
90.0
100
AcDbRotatedDimension
  0
TEXT
  5
14661
330
747D
100
AcDbEntity
  8
寸法
 62
     7
 48
50.0
100
AcDbText
 10
10681.59881900404
 20
3615.863661767001
 30
0.0
 40
90.0
  1
主筋4-D13
  7
STYLE1
100
AcDbText
  0
LINE
  5
14662
330
747D
100
AcDbEntity
  8
寸法
 48
50.0
100
AcDbLine
 10
10643.85345292186
 20
3590.85680421461
 30
0.0
 11
11264.06790838905
 21
3590.85680421461
 31
0.0
  0
LINE
  5
14663
330
747D
100
AcDbEntity
  8
寸法
 48
50.0
100
AcDbLine
 10
10643.85345292186
 20
3590.85680421461
 30
0.0
 11
10269.81284595981
 21
3806.809249332018
 31
0.0
  0
LWPOLYLINE
  5
14664
330
747D
100
AcDbEntity
  8
寸法
 48
5.0
100
AcDbPolyline
 90
        3
 70
     0
 43
0.0
 10
9394.812845959815
 20
3546.809249332018
 10
8999.161901524137
 20
3151.158304896384
 10
8081.652346379204
 20
3151.158304896384
1001
ACAD
1000
DSTYLE
1002
{
1070
   341
1005
0
1002
}
  0
TEXT
  5
14665
330
747D
100
AcDbEntity
  8
寸法
 62
     7
100
AcDbText
 10
8086.788784182536
 20
3171.679309894742
 30
-0.0000000000026306
 40
90.0
  1
4-D10X6-D10以上
  7
STYLE1
100
AcDbText
  0
TEXT
  5
14666
330
747D
100
AcDbEntity
  8
寸法
 62
     7
100
AcDbText
 10
8086.788784182536
 20
3286.152230619369
 30
-0.0000000000026306
 40
90.0
  1
ベース筋
  7
STYLE1
100
AcDbText
  0
LINE
  5
14667
330
747D
100
AcDbEntity
  8
寸法
 48
50.0
100
AcDbLine
 10
9565.541533050092
 20
3656.809249332018
 30
0.0
 11
8851.298024646959
 21
2942.565740928887
 31
0.0
  0
LINE
  5
14668
330
747D
100
AcDbEntity
  8
寸法
 48
50.0
100
AcDbLine
 10
8851.298024646959
 20
2942.565740928887
 30
0.0
 11
8160.904045946278
 21
2942.565740928887
 31
0.0
  0
TEXT
  5
14669
330
747D
100
AcDbEntity
  8
寸法
 62
     7
 48
50.0
100
AcDbText
 10
8179.356633310868
 20
2957.64165875674
 30
0.0
 40
90.0
  1
帯筋D10＠100
  7
STYLE1
100
AcDbText
  0
LWPOLYLINE
  5
1466A
330
747D
100
AcDbEntity
  8
寸法
 48
50.0
100
AcDbPolyline
 90
        3
 70
     0
 43
0.0
 10
10069.81284595981
 20
3501.809249332018
 10
10726.47389346072
 20
2845.148201831096
 10
11222.87063707146
 20
2845.148201831096
1001
ACAD
1000
DSTYLE
1002
{
1070
   341
1005
0
1002
}
  0
TEXT
  5
1466B
330
747D
100
AcDbEntity
  8
寸法
 62
     7
 48
50.0
100
AcDbText
 10
10784.13582875366
 20
2864.707455182728
 30
0.0
 40
90.0
  1
カンザシ
  7
STYLE1
100
AcDbText
  0
LINE
  5
14813
330
747D
100
AcDbEntity
  8
センター
 48
10.0
100
AcDbLine
 10
1069.593375928685
 20
3608.177985071434
 30
-0.0000000000013153
 11
7169.593375928686
 21
3608.177985071434
 31
-0.0000000000013153
  0
LINE
  5
14814
330
747D
100
AcDbEntity
  8
想像線
 48
10.0
100
AcDbLine
 10
1089.593375928743
 20
1744.677985071433
 30
-0.0000000000013153
 11
1089.593375928743
 21
5821.677985071434
 31
-0.0000000000013153
  0
LINE
  5
14815
330
747D
100
AcDbEntity
  8
想像線
 48
10.0
100
AcDbLine
 10
7149.593375928628
 20
1744.677985071433
 30
-0.0000000000013153
 11
7149.593375928628
 21
5821.677985071434
 31
-0.0000000000013153
  0
LINE
  5
14816
330
747D
100
AcDbEntity
  8
想像線
 48
10.0
100
AcDbLine
 10
1089.593375928743
 20
1744.677985071433
 30
-0.0000000000013153
 11
7149.593375928628
 21
1744.677985071433
 31
-0.0000000000013153
  0
LINE
  5
14817
330
747D
100
AcDbEntity
  8
部品1
 48
50.0
100
AcDbLine
 10
919.5933759286853
 20
3083.177985071433
 30
-0.0000000000013153
 11
1719.593375928685
 21
3083.177985071433
 31
-0.0000000000013153
  0
LINE
  5
14818
330
747D
100
AcDbEntity
  8
部品1
 48
50.0
100
AcDbLine
 10
919.5933759286853
 20
5958.177985071434
 30
-0.0000000000013153
 11
919.5933759286853
 21
1608.177985071433
 31
-0.0000000000013153
  0
CIRCLE
  5
14819
330
747D
100
AcDbEntity
  8
部品1
 48
50.0
100
AcDbCircle
 10
1319.593375928685
 20
3608.177985071434
 30
-0.0000000000013153
 40
44.55
  0
LINE
  5
1481A
330
747D
100
AcDbEntity
  8
センター
 48
10.0
100
AcDbLine
 10
1069.593375928685
 20
3608.177985071434
 30
-0.0000000000013153
 11
1569.593375928685
 21
3608.177985071434
 31
-0.0000000000013153
  0
LINE
  5
1481B
330
747D
100
AcDbEntity
  8
センター
 48
10.0
100
AcDbLine
 10
1319.593375928685
 20
3858.177985071434
 30
-0.0000000000013153
 11
1319.593375928685
 21
3358.177985071434
 31
-0.0000000000013153
  0
LINE
  5
1481C
330
747D
100
AcDbEntity
  8
センター
 48
10.0
100
AcDbLine
 10
6919.593375928686
 20
3858.177985071434
 30
-0.0000000000013153
 11
6919.593375928686
 21
3358.177985071434
 31
-0.0000000000013153
  0
LINE
  5
1481D
330
747D
100
AcDbEntity
  8
センター
 48
10.0
100
AcDbLine
 10
6669.593375928686
 20
3608.177985071434
 30
-0.0000000000013153
 11
7169.593375928686
 21
3608.177985071434
 31
-0.0000000000013153
  0
CIRCLE
  5
1481E
330
747D
100
AcDbEntity
  8
部品1
 48
50.0
100
AcDbCircle
 10
6919.593375928686
 20
3608.177985071434
 30
-0.0000000000013153
 40
44.55
  0
LINE
  5
1481F
330
747D
100
AcDbEntity
  8
部品1
 48
50.0
100
AcDbLine
 10
7319.593375928686
 20
5958.177985071434
 30
-0.0000000000013153
 11
7319.593375928686
 21
1608.177985071433
 31
-0.0000000000013153
  0
LINE
  5
14820
330
747D
100
AcDbEntity
  8
部品1
 48
30.0
100
AcDbLine
 10
919.5933759286853
 20
1608.177985071433
 30
-0.0000000000013153
 11
7319.593375928686
 21
1608.177985071433
 31
-0.0000000000013153
  0
LINE
  5
14821
330
747D
100
AcDbEntity
  8
寸法
 48
50.0
100
AcDbLine
 10
2431.215412598147
 20
2715.751857039078
 30
-0.0000000000013153
 11
2398.367129765378
 21
2838.343317512535
 31
-0.0000000000013153
  0
LINE
  5
14822
330
747D
100
AcDbEntity
  8
寸法
 48
50.0
100
AcDbLine
 10
2431.215412598147
 20
2715.751857039078
 30
-0.0000000000013153
 11
2464.063695430974
 21
2838.343317512535
 31
-0.0000000000013153
  0
LINE
  5
14823
330
747D
100
AcDbEntity
  8
寸法
 48
50.0
100
AcDbLine
 10
2431.215412598147
 20
3501.46708547226
 30
-0.0000000000013153
 11
2431.215412598147
 21
2715.751857039078
 31
-0.0000000000013153
  0
MTEXT
  5
14824
330
747D
100
AcDbEntity
  8
寸法
 62
     7
 48
50.0
100
AcDbMText
 10
2336.77747653237
 20
2854.465163166223
 30
-0.0000000000013153
 40
90.0
 41
0.0
 71
     4
 72
     1
  1
\A1;水勾配 1/100 
  7
STYLE1
 11
0.0000000000000001
 21
1.0
 31
0.0
 73
     1
 44
1.0
1001
ACAD
1000
MTEXTBEGIN
1070
    73
1070
     1
1070
    44
1040
1.0
1070
    74
1070
     0
1000
MTEXTEND
  0
MTEXT
  5
14825
330
747D
100
AcDbEntity
  8
寸法
 62
     7
 48
50.0
100
AcDbMText
 10
1145.585260710897
 20
1861.958030938923
 30
-0.0000000000013153
 40
90.0
 41
0.0
 71
     4
 72
     1
  1
\A1;床コンクリート打コテ押エ
  7
STYLE1
 73
     1
 44
1.0
1001
ACAD
1000
MTEXTBEGIN
1070
    73
1070
     1
1070
    44
1040
1.0
1070
    74
1070
     0
1000
MTEXTEND
  0
LEADER
  5
14826
330
747D
100
AcDbEntity
  8
寸法
 48
50.0
100
AcDbLeader
  3
INABA_S30G
 73
     0
 75
     1
 76
     3
 10
6919.593375928686
 20
3608.177985071434
 30
-0.0000000000013153
 10
6831.106850993339
 20
3277.941778227596
 30
-0.0000000000013153
 10
6756.106850993339
 20
3277.941778227596
 30
-0.0000000000013153
  0
MTEXT
  5
14827
102
{ACAD_REACTORS
330
14826
102
}
330
747D
100
AcDbEntity
  8
寸法
 62
     7
 48
50.0
100
AcDbMText
 10
6726.106850993339
 20
3352.941778227596
 30
-0.0000000000013153
 40
90.0
 41
0.0
 71
     6
 72
     1
  1
\A1;柱
  7
STYLE1
 73
     1
 44
1.0
1001
ACAD
1000
MTEXTBEGIN
1070
    73
1070
     1
1070
    44
1040
1.0
1070
    74
1070
     0
1000
MTEXTEND
  0
LINE
  5
14828
330
747D
100
AcDbEntity
  8
センター
 48
10.0
100
AcDbLine
 10
1069.593375928685
 20
3958.177985071433
 30
-0.0000000000013153
 11
7169.593375928686
 21
3958.177985071433
 31
-0.0000000000013153
  0
LINE
  5
14829
330
747D
100
AcDbEntity
  8
想像線
 48
10.0
100
AcDbLine
 10
1089.593375928743
 20
5821.677985071434
 30
-0.0000000000013153
 11
7149.593375928628
 21
5821.677985071434
 31
-0.0000000000013153
  0
LINE
  5
1482A
330
747D
100
AcDbEntity
  8
部品1
 48
50.0
100
AcDbLine
 10
919.5933759286853
 20
4483.177985071434
 30
-0.0000000000013153
 11
1719.593375928685
 21
4483.177985071434
 31
-0.0000000000013153
  0
CIRCLE
  5
1482B
330
747D
100
AcDbEntity
  8
部品1
 48
50.0
100
AcDbCircle
 10
1319.593375928685
 20
3958.177985071433
 30
-0.0000000000013153
 40
44.55
  0
LINE
  5
1482C
330
747D
100
AcDbEntity
  8
センター
 48
10.0
100
AcDbLine
 10
1069.593375928685
 20
3958.177985071433
 30
-0.0000000000013153
 11
1569.593375928685
 21
3958.177985071433
 31
-0.0000000000013153
  0
LINE
  5
1482D
330
747D
100
AcDbEntity
  8
センター
 48
10.0
100
AcDbLine
 10
1319.593375928685
 20
3708.177985071433
 30
-0.0000000000013153
 11
1319.593375928685
 21
4208.177985071434
 31
-0.0000000000013153
  0
LINE
  5
1482E
330
747D
100
AcDbEntity
  8
センター
 48
10.0
100
AcDbLine
 10
6919.593375928686
 20
3708.177985071433
 30
-0.0000000000013153
 11
6919.593375928686
 21
4208.177985071434
 31
-0.0000000000013153
  0
LINE
  5
1482F
330
747D
100
AcDbEntity
  8
センター
 48
10.0
100
AcDbLine
 10
6669.593375928686
 20
3958.177985071433
 30
-0.0000000000013153
 11
7169.593375928686
 21
3958.177985071433
 31
-0.0000000000013153
  0
CIRCLE
  5
14830
330
747D
100
AcDbEntity
  8
部品1
 48
50.0
100
AcDbCircle
 10
6919.593375928686
 20
3958.177985071433
 30
-0.0000000000013153
 40
44.55
  0
LINE
  5
14831
330
747D
100
AcDbEntity
  8
部品1
 48
50.0
100
AcDbLine
 10
6519.593375928685
 20
3083.177985071419
 30
-0.0000000000013153
 11
6519.593375928685
 21
4483.177985071434
 31
-0.0000000000013153
  0
LINE
  5
14832
330
747D
100
AcDbEntity
  8
部品1
 48
30.0
100
AcDbLine
 10
919.5933759286853
 20
5958.177985071434
 30
-0.0000000000013153
 11
7319.593375928686
 21
5958.177985071434
 31
-0.0000000000013153
  0
LINE
  5
14833
330
747D
100
AcDbEntity
  8
部品1
 48
50.0
100
AcDbLine
 10
1719.593375928685
 20
4483.177985071434
 30
-0.0000000000013153
 11
1719.593375928685
 21
3083.177985071433
 31
-0.0000000000013153
  0
LINE
  5
14834
330
747D
100
AcDbEntity
  8
部品1
 48
50.0
100
AcDbLine
 10
6519.593375928685
 20
3083.177985071433
 30
-0.0000000000013153
 11
7319.593375928686
 21
3083.177985071433
 31
-0.0000000000013153
  0
LINE
  5
14835
330
747D
100
AcDbEntity
  8
部品1
 48
50.0
100
AcDbLine
 10
6519.593375928685
 20
4483.177985071434
 30
-0.0000000000013153
 11
7319.593375928686
 21
4483.177985071434
 31
-0.0000000000013153
  0
DIMENSION
  5
14883
330
747D
100
AcDbEntity
  8
寸法
 48
50.0
100
AcDbDimension
  2
*D1
 10
919.5933759286853
 20
1279.690266734916
 30
-0.0000000000013153
 11
1004.593375928714
 21
1354.690266734916
 31
-0.0000000000013153
 70
    32
 71
     5
 42
170.0000000000582
  3
INABA_S30G
100
AcDbAlignedDimension
 13
1089.593375928743
 23
1744.677985071433
 33
-0.0000000000013153
 14
919.5933759286853
 24
1608.177985071433
 34
-0.0000000000013153
 50
180.0
100
AcDbRotatedDimension
  0
DIMENSION
  5
14884
330
747D
100
AcDbEntity
  8
寸法
 48
50.0
100
AcDbDimension
  2
*D2
 10
7319.593375928686
 20
1279.690266734916
 30
-0.0000000000013153
 11
7234.593375928657
 21
1354.690266734916
 31
-0.0000000000013153
 70
    32
 71
     5
 42
170.0000000000582
  3
INABA_S30G
100
AcDbAlignedDimension
 13
7149.593375928628
 23
1744.677985071433
 33
-0.0000000000013153
 14
7319.593375928686
 24
1608.177985071433
 34
-0.0000000000013153
100
AcDbRotatedDimension
  0
DIMENSION
  5
14885
330
747D
100
AcDbEntity
  8
寸法
 48
50.0
100
AcDbDimension
  2
*D3
 10
7149.593375928628
 20
1279.690266734916
 30
-0.0000000000013153
 11
4119.593375928685
 21
1354.690266734916
 31
-0.0000000000013153
 70
    32
  1
屋根寸法 <>
 71
     5
 42
6059.999999999884
  3
INABA_S30G
100
AcDbAlignedDimension
 13
1089.593375928743
 23
1744.677985071433
 33
-0.0000000000013153
 14
7149.593375928628
 24
1744.677985071433
 34
-0.0000000000013153
100
AcDbRotatedDimension
  0
DIMENSION
  5
14889
330
747D
100
AcDbEntity
  8
寸法
 48
50.0
100
AcDbDimension
  2
*D4
 10
7701.867598292287
 20
1608.177985071433
 30
-0.0000000000013153
 11
7701.867598292287
 21
1384.314024040756
 31
-0.0000000000013153
 70
   160
 71
     5
 42
136.5
  3
INABA_S30G
100
AcDbAlignedDimension
 13
7149.593375928628
 23
1744.677985071433
 33
-0.0000000000013153
 14
7319.593375928686
 24
1608.177985071433
 34
-0.0000000000013153
 50
90.0
100
AcDbRotatedDimension
  0
DIMENSION
  5
1488A
330
747D
100
AcDbEntity
  8
寸法
 48
50.0
100
AcDbDimension
  2
*D5
 10
7701.867598292287
 20
1744.677985071433
 30
-0.0000000000013153
 11
7626.867598292287
 21
3783.177985071435
 31
-0.0000000000013153
 70
    32
  1
屋根寸法 <>
 71
     5
 42
4077.0
  3
INABA_S30G
100
AcDbAlignedDimension
 13
7149.593375928628
 23
5821.677985071434
 33
-0.0000000000013153
 14
7149.593375928628
 24
1744.677985071433
 34
-0.0000000000013153
 50
90.0
100
AcDbRotatedDimension
  0
DIMENSION
  5
1488B
330
747D
100
AcDbEntity
  8
寸法
 48
50.0
100
AcDbDimension
  2
*D6
 10
7701.867598292288
 20
5958.177985071434
 30
-0.0000000000013153
 11
7701.867598292287
 21
6182.041946102163
 31
-0.0000000000013153
 70
   160
 71
     5
 42
136.5
  3
INABA_S30G
100
AcDbAlignedDimension
 13
7149.593375928628
 23
5821.677985071434
 33
-0.0000000000013153
 14
7319.593375928686
 24
5958.177985071434
 34
-0.0000000000013153
 50
270.0
100
AcDbRotatedDimension
  0
DIMENSION
  5
1488F
330
747D
100
AcDbEntity
  8
寸法
 48
50.0
100
AcDbDimension
  2
*D7
 10
355.9721772009944
 20
1608.177985071433
 30
-0.0000000000013153
 11
280.9721772009942
 21
3783.177985071434
 31
-0.0000000000013153
 70
    32
  1
基礎土間寸法 <>
 71
     5
 42
4350.0
  3
INABA_S30G
100
AcDbAlignedDimension
 13
919.5933759286853
 23
5958.177985071434
 33
-0.0000000000013153
 14
919.5933759286853
 24
1608.177985071433
 34
-0.0000000000013153
 50
90.0
100
AcDbRotatedDimension
  0
DIMENSION
  5
14890
330
747D
100
AcDbEntity
  8
寸法
 48
50.0
100
AcDbDimension
  2
*D8
 10
578.7215392174402
 20
1608.177985071433
 30
-0.0000000000013153
 11
503.7126809497236
 21
2608.177985071434
 31
-0.0000000000013153
 70
    32
 71
     5
 42
2000.0
  3
INABA_S30G
100
AcDbAlignedDimension
 13
1069.593375928685
 23
3608.177985071434
 33
-0.0000000000013153
 14
919.5933759286853
 24
1608.177985071433
 34
-0.0000000000013153
 50
90.0
100
AcDbRotatedDimension
  0
DIMENSION
  5
14891
330
747D
100
AcDbEntity
  8
寸法
 48
50.0
100
AcDbDimension
  2
*D9
 10
578.7215392174402
 20
3608.177985071434
 30
-0.0000000000013153
 11
503.7215392174397
 21
3783.177985071434
 31
-0.0000000000013153
 70
    32
 71
     5
 42
350.0
  3
INABA_S30G
100
AcDbAlignedDimension
 13
1069.593375928685
 23
3958.177985071433
 33
-0.0000000000013153
 14
1069.593375928685
 24
3608.177985071434
 34
-0.0000000000013153
 50
90.0
100
AcDbRotatedDimension
  0
DIMENSION
  5
14892
330
747D
100
AcDbEntity
  8
寸法
 48
50.0
100
AcDbDimension
  2
*D10
 10
578.7215392174402
 20
5958.177985071434
 30
-0.0000000000013153
 11
503.7126809497227
 21
4958.177985071434
 31
-0.0000000000013153
 70
    32
 71
     5
 42
2000.0
  3
INABA_S30G
100
AcDbAlignedDimension
 13
1069.593375928685
 23
3958.177985071433
 33
-0.0000000000013153
 14
919.5933759286853
 24
5958.177985071434
 34
-0.0000000000013153
 50
270.0
100
AcDbRotatedDimension
  0
DIMENSION
  5
14893
330
747D
100
AcDbEntity
  8
寸法
 48
50.0
100
AcDbDimension
  2
*D11
 10
7319.593375928686
 20
6628.495167929472
 30
-0.0000000000013153
 11
4119.593375928685
 21
6703.495167929472
 31
-0.0000000000013153
 70
    32
  1
基礎土間寸法 <>
 71
     5
 42
6400.0
  3
INABA_S30G
100
AcDbAlignedDimension
 13
919.5933759286853
 23
5958.177985071434
 33
-0.0000000000013153
 14
7319.593375928686
 24
5958.177985071434
 34
-0.0000000000013153
100
AcDbRotatedDimension
  0
DIMENSION
  5
14894
330
747D
100
AcDbEntity
  8
寸法
 48
50.0
100
AcDbDimension
  2
*D12
 10
7319.593375928686
 20
6434.458128955154
 30
-0.0000000000013153
 11
7119.593375928686
 21
6509.458128955154
 31
-0.0000000000013153
 70
    32
 71
     5
 42
400.0
  3
INABA_S30G
100
AcDbAlignedDimension
 13
6919.593375928686
 23
4208.177985071434
 33
-0.0000000000013153
 14
7319.593375928686
 24
5958.177985071434
 34
-0.0000000000013153
100
AcDbRotatedDimension
  0
DIMENSION
  5
14895
330
747D
100
AcDbEntity
  8
寸法
 48
50.0
100
AcDbDimension
  2
*D13
 10
6919.593375928686
 20
6434.458128955154
 30
-0.0000000000013153
 11
4119.593375928685
 21
6509.458128955154
 31
-0.0000000000013153
 70
    32
 71
     5
 42
5600.0
  3
INABA_S30G
100
AcDbAlignedDimension
 13
1319.593375928685
 23
4208.177985071434
 33
-0.0000000000013153
 14
6919.593375928686
 24
4208.177985071434
 34
-0.0000000000013153
100
AcDbRotatedDimension
  0
DIMENSION
  5
14896
330
747D
100
AcDbEntity
  8
寸法
 48
50.0
100
AcDbDimension
  2
*D14
 10
1319.593375928685
 20
6434.458128955154
 30
-0.0000000000013153
 11
1119.593375928685
 21
6509.458128955154
 31
-0.0000000000013153
 70
    32
 71
     5
 42
400.0
  3
INABA_S30G
100
AcDbAlignedDimension
 13
919.5933759286853
 23
5958.177985071434
 33
-0.0000000000013153
 14
1319.593375928685
 24
4208.177985071434
 34
-0.0000000000013153
100
AcDbRotatedDimension
  0
DIMENSION
  5
14897
330
747D
100
AcDbEntity
  8
寸法
 48
50.0
100
AcDbDimension
  2
*D15
 10
6519.593375928685
 20
2845.041769034342
 30
-0.0000000000013153
 11
6719.593375928686
 21
2920.041769034341
 31
-0.0000000000013153
 70
    32
 71
     5
 42
400.0
  3
INABA_S30G
100
AcDbAlignedDimension
 13
6919.593375928686
 23
3358.177985071434
 33
-0.0000000000013153
 14
6519.593375928685
 24
3083.177985071433
 34
-0.0000000000013153
100
AcDbRotatedDimension
  0
DIMENSION
  5
14898
330
747D
100
AcDbEntity
  8
寸法
 48
50.0
100
AcDbDimension
  2
*D16
 10
7319.593375928686
 20
2606.905552997279
 30
-0.0000000000013153
 11
6919.593375928686
 21
2606.905552997279
 31
-0.0000000000013153
 70
   160
 71
     5
 42
800.0
  3
INABA_S30G
100
AcDbAlignedDimension
 13
6519.593375928685
 23
3083.177985071433
 33
-0.0000000000013153
 14
7319.593375928686
 24
3083.177985071433
 34
-0.0000000000013153
100
AcDbRotatedDimension
  0
DIMENSION
  5
14899
330
747D
100
AcDbEntity
  8
寸法
 48
50.0
100
AcDbDimension
  2
*D17
 10
6342.278872644514
 20
3083.177985071419
 30
-0.0000000000013153
 11
6267.270014376797
 21
3345.677985071427
 31
-0.0000000000013153
 70
    32
 71
     5
 42
525.0000000000145
  3
INABA_S30G
100
AcDbAlignedDimension
 13
6669.593375928686
 23
3608.177985071434
 33
-0.0000000000013153
 14
6519.593375928685
 24
3083.177985071419
 34
-0.0000000000013153
 50
90.0
100
AcDbRotatedDimension
  0
DIMENSION
  5
1489A
330
747D
100
AcDbEntity
  8
寸法
 48
50.0
100
AcDbDimension
  2
*D18
 10
6164.964369360343
 20
3083.177985071419
 30
-0.0000000000013153
 11
6089.964369360342
 21
3783.177985071428
 31
-0.0000000000013153
 70
    32
 71
     5
 42
1400.000000000015
  3
INABA_S30G
100
AcDbAlignedDimension
 13
6519.593375928685
 23
4483.177985071434
 33
-0.0000000000013153
 14
6519.593375928685
 24
3083.177985071419
 34
-0.0000000000013153
 50
90.0
100
AcDbRotatedDimension
  0
DIMENSION
  5
1489B
330
747D
100
AcDbEntity
  8
寸法
 48
50.0
100
AcDbDimension
  2
*D19
 10
6342.278872644514
 20
3608.177985071434
 30
-0.0000000000013153
 11
6267.278872644514
 21
3783.177985071434
 31
-0.0000000000013153
 70
    32
 71
     5
 42
350.0
  3
INABA_S30G
100
AcDbAlignedDimension
 13
6669.593375928686
 23
3958.177985071433
 33
-0.0000000000013153
 14
6669.593375928686
 24
3608.177985071434
 34
-0.0000000000013153
 50
90.0
100
AcDbRotatedDimension
  0
DIMENSION
  5
1489C
330
747D
100
AcDbEntity
  8
寸法
 48
50.0
100
AcDbDimension
  2
*D20
 10
6342.278872644514
 20
4483.177985071448
 30
-0.0000000000013153
 11
6267.270014376797
 21
4220.677985071443
 31
-0.0000000000013153
 70
    32
 71
     5
 42
525.0000000000154
  3
INABA_S30G
100
AcDbAlignedDimension
 13
6669.593375928686
 23
3958.177985071433
 33
-0.0000000000013153
 14
6519.593375928685
 24
4483.177985071448
 34
-0.0000000000013153
 50
270.0
100
AcDbRotatedDimension
  0
LINE
  5
1489D
330
747D
100
AcDbEntity
  8
寸法
 48
50.0
100
AcDbLine
 10
2431.215412598147
 20
4850.604113103789
 30
-0.0000000000013153
 11
2398.367129765378
 21
4728.012652630332
 31
-0.0000000000013153
  0
LINE
  5
1489E
330
747D
100
AcDbEntity
  8
寸法
 48
50.0
100
AcDbLine
 10
2431.215412598147
 20
4850.604113103789
 30
-0.0000000000013153
 11
2464.063695430974
 21
4728.012652630332
 31
-0.0000000000013153
  0
LINE
  5
1489F
330
747D
100
AcDbEntity
  8
寸法
 48
50.0
100
AcDbLine
 10
2431.215412598147
 20
4064.888884670606
 30
-0.0000000000013153
 11
2431.215412598147
 21
4850.604113103789
 31
-0.0000000000013153
  0
MTEXT
  5
148A0
330
747D
100
AcDbEntity
  8
寸法
 62
     7
 48
50.0
100
AcDbMText
 10
2336.77747653237
 20
4103.602190797738
 30
-0.0000000000013153
 40
90.0
 41
0.0
 71
     4
 72
     1
  1
\A1;水勾配 1/100 
  7
STYLE1
 11
0.0000000000000001
 21
1.0
 31
0.0
 73
     1
 44
1.0
1001
ACAD
1000
MTEXTBEGIN
1070
    73
1070
     1
1070
    44
1040
1.0
1070
    74
1070
     0
1000
MTEXTEND
  0
LINE
  5
148A1
330
747D
100
AcDbEntity
  8
寸法
 48
50.0
100
AcDbLine
 10
1065.459545179779
 20
4562.076947551566
 30
-0.0000000000013153
 11
1173.19291576276
 21
4590.944017197148
 31
-0.0000000000013153
  0
LINE
  5
148A2
330
747D
100
AcDbEntity
  8
寸法
 48
50.0
100
AcDbLine
 10
1173.19291576276
 20
4590.944017197148
 30
-0.0000000000013153
 11
1173.19291576276
 21
4525.009398275604
 31
-0.0000000000013153
  0
LINE
  5
148A3
330
747D
100
AcDbEntity
  8
寸法
 48
50.0
100
AcDbLine
 10
1319.593375928685
 20
4562.076947551566
 30
-0.0000000000013153
 11
1065.459545179779
 21
4562.076947551566
 31
-0.0000000000013153
  0
TEXT
  5
148A4
330
747D
100
AcDbEntity
  8
寸法
 62
     7
100
AcDbText
 10
955.9578957662306
 20
4534.011474749797
 30
-0.0000000000013153
 40
90.0
  1
A'
  7
STYLE1
100
AcDbText
  0
LINE
  5
148A5
330
747D
100
AcDbEntity
  8
寸法
 48
50.0
100
AcDbLine
 10
1319.593375928685
 20
3004.279022591301
 30
-0.0000000000013153
 11
1065.459545179779
 21
3004.279022591301
 31
-0.0000000000013153
  0
LINE
  5
148A6
330
747D
100
AcDbEntity
  8
寸法
 48
50.0
100
AcDbLine
 10
1065.459545179779
 20
3004.279022591301
 30
-0.0000000000013153
 11
1173.19291576276
 21
2975.41195294572
 31
-0.0000000000013153
  0
LINE
  5
148A7
330
747D
100
AcDbEntity
  8
寸法
 48
50.0
100
AcDbLine
 10
1173.19291576276
 20
2975.41195294572
 30
-0.0000000000013153
 11
1173.19291576276
 21
3041.346571867263
 31
-0.0000000000013153
  0
TEXT
  5
148A8
330
747D
100
AcDbEntity
  8
寸法
 62
     7
100
AcDbText
 10
954.6992669075116
 20
2962.051819583397
 30
-0.0000000000013153
 40
90.0
  1
A
  7
STYLE1
100
AcDbText
  0
LINE
  5
148A9
330
747D
100
AcDbEntity
  8
寸法
 48
50.0
100
AcDbLine
 10
1319.593375928685
 20
3004.279022591301
 30
-0.0000000000013153
 11
1319.593375928685
 21
3358.177985071434
 31
-0.0000000000013153
  0
LINE
  5
148C7
330
747D
100
AcDbEntity
  8
部品1
 48
50.0
100
AcDbLine
 10
3719.593375928685
 20
3083.177985071433
 30
-0.0000000000013153
 11
4519.593375928685
 21
3083.177985071433
 31
-0.0000000000013153
  0
CIRCLE
  5
148C8
330
747D
100
AcDbEntity
  8
部品1
 48
50.0
100
AcDbCircle
 10
4119.593375928685
 20
3608.177985071434
 30
-0.0000000000013153
 40
44.55
  0
LINE
  5
148C9
330
747D
100
AcDbEntity
  8
センター
 48
10.0
100
AcDbLine
 10
3869.593375928685
 20
3608.177985071434
 30
-0.0000000000013153
 11
4369.593375928685
 21
3608.177985071434
 31
-0.0000000000013153
  0
LINE
  5
148CA
330
747D
100
AcDbEntity
  8
センター
 48
10.0
100
AcDbLine
 10
4119.593375928685
 20
3858.177985071434
 30
-0.0000000000013153
 11
4119.593375928685
 21
3358.177985071434
 31
-0.0000000000013153
  0
LINE
  5
148CB
330
747D
100
AcDbEntity
  8
部品1
 48
50.0
100
AcDbLine
 10
3719.593375928685
 20
4483.177985071434
 30
-0.0000000000013153
 11
4519.593375928685
 21
4483.177985071434
 31
-0.0000000000013153
  0
CIRCLE
  5
148CC
330
747D
100
AcDbEntity
  8
部品1
 48
50.0
100
AcDbCircle
 10
4119.593375928685
 20
3958.177985071433
 30
-0.0000000000013153
 40
44.55
  0
LINE
  5
148CD
330
747D
100
AcDbEntity
  8
センター
 48
10.0
100
AcDbLine
 10
3869.593375928685
 20
3958.177985071433
 30
-0.0000000000013153
 11
4369.593375928685
 21
3958.177985071433
 31
-0.0000000000013153
  0
LINE
  5
148CE
330
747D
100
AcDbEntity
  8
センター
 48
10.0
100
AcDbLine
 10
4119.593375928685
 20
3708.177985071433
 30
-0.0000000000013153
 11
4119.593375928685
 21
4208.177985071434
 31
-0.0000000000013153
  0
LINE
  5
148CF
330
747D
100
AcDbEntity
  8
部品1
 48
50.0
100
AcDbLine
 10
4519.593375928685
 20
4483.177985071434
 30
-0.0000000000013153
 11
4519.593375928685
 21
3083.177985071433
 31
-0.0000000000013153
  0
LINE
  5
148D0
330
747D
100
AcDbEntity
  8
部品1
 48
50.0
100
AcDbLine
 10
3719.593375928685
 20
4483.177985071434
 30
-0.0000000000013153
 11
3719.593375928685
 21
3083.177985071433
 31
-0.0000000000013153
  0
DIMENSION
  5
153C9
330
747D
100
AcDbEntity
  8
寸法
 48
50.0
100
AcDbDimension
  2
*D30
 10
4119.593375928685
 20
6195.363212622964
 30
0.0
 11
2719.593375928686
 21
6270.37207089068
 31
0.0
 70
    32
 71
     5
 42
2800.0
  3
INABA_S30G
100
AcDbAlignedDimension
 13
1319.593375928685
 23
4208.177985071434
 33
-0.0000000000013153
 14
4119.593375928685
 24
4208.177985071434
 34
-0.0000000000013153
100
AcDbRotatedDimension
  0
DIMENSION
  5
153D6
330
747D
100
AcDbEntity
  8
寸法
 48
50.0
100
AcDbDimension
  2
*D31
 10
6919.593375928686
 20
6195.363212622964
 30
0.0
 11
5519.593375928685
 21
6270.37207089068
 31
0.0
 70
    32
 71
     5
 42
2800.0
  3
INABA_S30G
100
AcDbAlignedDimension
 13
4119.593375928685
 23
4208.177985071434
 33
-0.0000000000013153
 14
6919.593375928686
 24
4208.177985071434
 34
-0.0000000000013153
100
AcDbRotatedDimension
  0
ENDSEC
  0
SECTION
  2
OBJECTS
  0
DICTIONARY
  5
7471
330
0
100
AcDbDictionary
281
     1
  3
ACAD_CIP_PREVIOUS_PRODUCT_INFO
350
13D70
  3
ACAD_COLOR
350
1341D
  3
ACAD_DETAILVIEWSTYLE
350
13D66
  3
ACAD_GROUP
350
7472
  3
ACAD_LAYOUT
350
1341E
  3
ACAD_MATERIAL
350
1341C
  3
ACAD_MLEADERSTYLE
350
13D62
  3
ACAD_MLINESTYLE
350
7473
  3
ACAD_PLOTSETTINGS
350
1341F
  3
ACAD_PLOTSTYLENAME
350
1341A
  3
ACAD_SCALELIST
350
13D50
  3
ACAD_SECTIONVIEWSTYLE
350
13D64
  3
ACAD_TABLESTYLE
350
13D4E
  3
ACAD_VISUALSTYLE
350
13D35
  3
AcadDim
350
13618
  3
ACDB_RECOMPOSE_DATA
350
15681
  3
AcDbVariableDictionary
350
13533
  3
CONTENTDICTIONARY
350
E71C
  3
DRAWINGVARIABLESDICT
350
F3B9
  3
DWGPROPS
350
15682
  0
DICTIONARY
  5
15403
330
746D
100
AcDbDictionary
280
     1
281
     1
  0
DICTIONARY
  5
13451
330
7467
100
AcDbDictionary
280
     1
281
     1
  3
ACAD_LAYERFILTERS
360
1356A
  3
ACAD_LAYERSTATES
360
13452
  0
DICTIONARY
  5
153E4
330
7474
100
AcDbDictionary
280
     1
281
     1
  3
ADSK_XREC_LAYER_RECONCILED
360
153E5
  0
DICTIONARY
  5
153E6
330
DEB3
100
AcDbDictionary
280
     1
281
     1
  3
ADSK_XREC_LAYER_RECONCILED
360
153E7
  0
DICTIONARY
  5
153E8
330
DEB4
100
AcDbDictionary
280
     1
281
     1
  3
ADSK_XREC_LAYER_RECONCILED
360
153E9
  0
DICTIONARY
  5
153EA
330
DEB5
100
AcDbDictionary
280
     1
281
     1
  3
ADSK_XREC_LAYER_RECONCILED
360
153EB
  0
DICTIONARY
  5
153EC
330
DEB6
100
AcDbDictionary
280
     1
281
     1
  3
ADSK_XREC_LAYER_RECONCILED
360
153ED
  0
DICTIONARY
  5
153EE
330
10B54
100
AcDbDictionary
280
     1
281
     1
  3
ADSK_XREC_LAYER_RECONCILED
360
153EF
  0
DICTIONARY
  5
153F0
330
11729
100
AcDbDictionary
280
     1
281
     1
  3
ADSK_XREC_LAYER_RECONCILED
360
153F1
  0
DICTIONARY
  5
153F2
330
1173F
100
AcDbDictionary
280
     1
281
     1
  3
ADSK_XREC_LAYER_RECONCILED
360
153F3
  0
DICTIONARY
  5
153F4
330
11740
100
AcDbDictionary
280
     1
281
     1
  3
ADSK_XREC_LAYER_RECONCILED
360
153F5
  0
DICTIONARY
  5
153F6
330
1356E
100
AcDbDictionary
280
     1
281
     1
  3
ADSK_XREC_LAYER_RECONCILED
360
153F7
  0
DICTIONARY
  5
153F8
330
135FB
100
AcDbDictionary
280
     1
281
     1
  3
ADSK_XREC_LAYER_RECONCILED
360
153F9
  0
DICTIONARY
  5
153FA
330
13808
100
AcDbDictionary
280
     1
281
     1
  3
ADSK_XREC_LAYER_RECONCILED
360
153FB
  0
DICTIONARY
  5
153FC
330
13809
100
AcDbDictionary
280
     1
281
     1
  3
ADSK_XREC_LAYER_RECONCILED
360
153FD
  0
XRECORD
  5
13D70
102
{ACAD_REACTORS
330
7471
102
}
330
7471
100
AcDbXrecord
280
     1
300
ACDLT
300
2014
300
ACDLT_F_S
  0
DICTIONARY
  5
1341D
102
{ACAD_REACTORS
330
7471
102
}
330
7471
100
AcDbDictionary
281
     1
  0
DICTIONARY
  5
13D66
102
{ACAD_REACTORS
330
7471
102
}
330
7471
100
AcDbDictionary
281
     1
  3
Metric50
350
13D67
  0
DICTIONARY
  5
7472
102
{ACAD_REACTORS
330
7471
102
}
330
7471
100
AcDbDictionary
281
     1
  0
DICTIONARY
  5
1341E
102
{ACAD_REACTORS
330
7471
102
}
330
7471
100
AcDbDictionary
281
     1
  3
Model
350
13420
  3
レイアウト1
350
13421
  0
DICTIONARY
  5
1341C
102
{ACAD_REACTORS
330
7471
102
}
330
7471
100
AcDbDictionary
281
     1
  3
ByBlock
350
13D25
  3
ByLayer
350
13D1D
  3
Global
350
13D2D
  0
DICTIONARY
  5
13D62
102
{ACAD_REACTORS
330
7471
102
}
330
7471
100
AcDbDictionary
281
     1
  3
Standard
350
13D63
  0
DICTIONARY
  5
7473
102
{ACAD_REACTORS
330
7471
102
}
330
7471
100
AcDbDictionary
281
     1
  3
STANDARD
350
7480
  0
DICTIONARY
  5
1341F
102
{ACAD_REACTORS
330
7471
102
}
330
7471
100
AcDbDictionary
281
     1
  0
ACDBDICTIONARYWDFLT
  5
1341A
102
{ACAD_REACTORS
330
7471
102
}
330
7471
100
AcDbDictionary
281
     1
  3
Normal
350
1341B
100
AcDbDictionaryWithDefault
340
1341B
  0
DICTIONARY
  5
13D50
102
{ACAD_REACTORS
330
7471
102
}
330
7471
100
AcDbDictionary
281
     1
  3
A0
350
13D51
  3
A1
350
13D52
  3
A2
350
13D53
  3
A3
350
13D54
  3
A4
350
13D55
  3
A5
350
13D56
  3
A6
350
13D57
  3
A7
350
13D58
  3
A8
350
13D59
  3
A9
350
13D5A
  3
B0
350
13D5B
  3
B1
350
13D5C
  3
B2
350
13D5D
  3
B3
350
13D5E
  3
B4
350
13D5F
  3
B5
350
13D60
  3
B6
350
13D61
  0
DICTIONARY
  5
13D64
102
{ACAD_REACTORS
330
7471
102
}
330
7471
100
AcDbDictionary
281
     1
  3
Metric50
350
13D65
  0
DICTIONARY
  5
13D4E
102
{ACAD_REACTORS
330
7471
102
}
330
7471
100
AcDbDictionary
281
     1
  3
Standard
350
13D4F
  0
DICTIONARY
  5
13D35
102
{ACAD_REACTORS
330
7471
102
}
330
7471
100
AcDbDictionary
281
     1
  3
2dWireframe
350
13D3B
  3
Basic
350
13D3A
  3
Brighten
350
13D41
  3
ColorChange
350
13D45
  3
Conceptual
350
13D3E
  3
Dim
350
13D40
  3
EdgeColorOff
350
13D4D
  3
Facepattern
350
13D44
  3
Flat
350
13D36
  3
FlatWithEdges
350
13D37
  3
Gouraud
350
13D38
  3
GouraudWithEdges
350
13D39
  3
Hidden
350
13D3D
  3
JitterOff
350
13D4B
  3
Linepattern
350
13D43
  3
OverhangOff
350
13D4C
  3
Realistic
350
13D3F
  3
Shaded
350
13D4A
  3
Shaded with edges
350
13D49
  3
Shades of Gray
350
13D46
  3
Sketchy
350
13D47
  3
Thicken
350
13D42
  3
Wireframe
350
13D3C
  3
X-Ray
350
13D48
  0
XRECORD
  5
13618
102
{ACAD_REACTORS
330
7471
102
}
330
7471
100
AcDbXrecord
280
     1
 90
   990106
  3

 60
     0
 61
     0
 62
     1
 63
     3
 64
     0
 65
     0
 66
     0
 67
     3
 68
     1
 69
     0
 70
     0
 71
     0
 72
     0
 40
0.0
170
     0
  0
XRECORD
  5
15681
102
{ACAD_REACTORS
330
7471
102
}
330
7471
100
AcDbXrecord
280
     1
 90
        1
330
13D4F
  0
DICTIONARY
  5
13533
102
{ACAD_REACTORS
330
7471
102
}
330
7471
100
AcDbDictionary
281
     1
  3
CANNOSCALE
350
15449
  3
CMLEADERSTYLE
350
15446
  3
CTABLESTYLE
350
15445
  3
CVIEWDETAILSTYLE
350
15447
  3
CVIEWSECTIONSTYLE
350
15448
  3
DIMASSOC
350
13534
  3
INDEXCTL
350
1544B
  3
PROJECTNAME
350
13535
  3
SORTENTS
350
1544A
  3
XCLIPFRAME
350
1567F
  0
DICTIONARY
  5
E71C
102
{ACAD_REACTORS
330
7471
102
}
330
7471
100
AcDbDictionary
281
     1
  0
DICTIONARY
  5
F3B9
102
{ACAD_REACTORS
330
7471
102
}
330
7471
100
AcDbDictionary
281
     1
1001
DRAWINGVARIABLESXDATA
1000
POLARMODE
1000
1
  0
XRECORD
  5
15682
102
{ACAD_REACTORS
330
7471
102
}
330
7471
100
AcDbXrecord
280
     1
  1
DWGPROPS COOKIE
  2

  3

  4

  6

  7

  8
ODAHARA
  9

300
=
301
=
302
=
303
=
304
=
305
=
306
=
307
=
308
=
309
=
 40
0.3492838541666667
 41
2451074.411873148
 42
2456560.838859676
  1

 90
        0
  0
DICTIONARY
  5
1356A
102
{ACAD_REACTORS
330
13451
102
}
330
13451
100
AcDbDictionary
281
     1
  0
DICTIONARY
  5
13452
102
{ACAD_REACTORS
330
13451
102
}
330
13451
100
AcDbDictionary
281
     1
  0
XRECORD
  5
153E5
102
{ACAD_REACTORS
330
153E4
102
}
330
153E4
100
AcDbXrecord
280
     1
290
     1
  0
XRECORD
  5
153E7
102
{ACAD_REACTORS
330
153E6
102
}
330
153E6
100
AcDbXrecord
280
     1
290
     1
  0
XRECORD
  5
153E9
102
{ACAD_REACTORS
330
153E8
102
}
330
153E8
100
AcDbXrecord
280
     1
290
     1
  0
XRECORD
  5
153EB
102
{ACAD_REACTORS
330
153EA
102
}
330
153EA
100
AcDbXrecord
280
     1
290
     1
  0
XRECORD
  5
153ED
102
{ACAD_REACTORS
330
153EC
102
}
330
153EC
100
AcDbXrecord
280
     1
290
     1
  0
XRECORD
  5
153EF
102
{ACAD_REACTORS
330
153EE
102
}
330
153EE
100
AcDbXrecord
280
     1
290
     1
  0
XRECORD
  5
153F1
102
{ACAD_REACTORS
330
153F0
102
}
330
153F0
100
AcDbXrecord
280
     1
290
     1
  0
XRECORD
  5
153F3
102
{ACAD_REACTORS
330
153F2
102
}
330
153F2
100
AcDbXrecord
280
     1
290
     1
  0
XRECORD
  5
153F5
102
{ACAD_REACTORS
330
153F4
102
}
330
153F4
100
AcDbXrecord
280
     1
290
     1
  0
XRECORD
  5
153F7
102
{ACAD_REACTORS
330
153F6
102
}
330
153F6
100
AcDbXrecord
280
     1
290
     1
  0
XRECORD
  5
153F9
102
{ACAD_REACTORS
330
153F8
102
}
330
153F8
100
AcDbXrecord
280
     1
290
     1
  0
XRECORD
  5
153FB
102
{ACAD_REACTORS
330
153FA
102
}
330
153FA
100
AcDbXrecord
280
     1
290
     1
  0
XRECORD
  5
153FD
102
{ACAD_REACTORS
330
153FC
102
}
330
153FC
100
AcDbXrecord
280
     1
290
     1
  0
ACDBDETAILVIEWSTYLE
  5
13D67
102
{ACAD_XDICTIONARY
360
156BF
102
}
102
{ACAD_REACTORS
330
13D66
102
}
330
13D66
100
AcDbModelDocViewStyle
 70
     0
  3
Metric50
290
     0
100
AcDbDetailViewStyle
 70
     0
 71
     0
 90
        3
 71
     1
340
7475
 40
5.0
340
0
 40
5.0
300

 40
0.0
280
     1
 71
     2
340
7479
 90
       25
 71
     3
340
7475
 40
5.0
 90
        0
 40
15.0
 90
        1
300
%<\AcVar ViewDetailId>% (%<\AcVar ViewScale \f "%sn">%)
 71
     4
340
7479
 90
       25
340
7479
 90
       25
280
     0
  0
LAYOUT
  5
13420
102
{ACAD_XDICTIONARY
360
15683
102
}
102
{ACAD_REACTORS
330
1341E
102
}
330
1341E
100
AcDbPlotSettings
  1

  2
CutePDF Writer
  4
A3
  6

 40
3.174999952316284
 41
3.174999952316284
 42
3.17498779296875
 43
3.17498779296875
 44
297.0530090332031
 45
420.1583251953125
 46
0.0
 47
0.0
 48
0.0
 49
0.0
140
0.0
141
0.0
142
1.0
143
30.0
 70
 11952
 72
     1
 73
     1
 74
     2
  7
inaba.ctb
 75
    23
147
0.0333333333333333
148
0.0
149
0.0
100
AcDbLayout
  1
Model
 70
     1
 71
     0
 10
0.0
 20
0.0
 11
12.0
 21
9.0
 12
0.0
 22
0.0
 32
0.0
 14
0.0
 24
0.0
 34
0.0
 15
0.0
 25
0.0
 35
0.0
146
0.0
 13
0.0
 23
0.0
 33
0.0
 16
1.0
 26
0.0
 36
0.0
 17
0.0
 27
1.0
 37
0.0
 76
     0
330
747D
331
13D1B
  0
LAYOUT
  5
13421
102
{ACAD_XDICTIONARY
360
15685
102
}
102
{ACAD_REACTORS
330
1341E
102
}
330
1341E
100
AcDbPlotSettings
  1

  2
Microsoft Office Document Image Writer
  4

  6

 40
0.0
 41
0.0
 42
0.0
 43
0.0
 44
0.0
 45
0.0
 46
0.0
 47
0.0
 48
0.0
 49
0.0
140
0.0
141
0.0
142
1.0
143
1.0
 70
   688
 72
     0
 73
     0
 74
     5
  7
inaba.ctb
 75
    16
147
1.0
148
0.0
149
0.0
100
AcDbLayout
  1
レイアウト1
 70
     0
 71
     1
 10
0.0
 20
0.0
 11
420.0
 21
297.0
 12
0.0
 22
0.0
 32
0.0
 14
1.000000000000000E+20
 24
1.000000000000000E+20
 34
1.000000000000000E+20
 15
-1.000000000000000E+20
 25
-1.000000000000000E+20
 35
-1.000000000000000E+20
146
0.0
 13
0.0
 23
0.0
 33
0.0
 16
1.0
 26
0.0
 36
0.0
 17
0.0
 27
1.0
 37
0.0
 76
     0
330
747A
  0
MATERIAL
  5
13D25
102
{ACAD_XDICTIONARY
360
13D26
102
}
102
{ACAD_REACTORS
330
1341C
102
}
330
1341C
100
AcDbMaterial
  1
ByBlock
 72
     0
 43
0.0208333333333333
 43
0.0
 43
0.0
 43
0.0
 43
0.0
 43
0.0208333333333333
 43
0.0
 43
0.0
 43
0.0
 43
0.0
 43
1.0
 43
0.0
 43
0.0
 43
0.0
 43
0.0
 43
1.0
 77
     0
 47
0.0208333333333333
 47
0.0
 47
0.0
 47
0.0
 47
0.0
 47
0.0208333333333333
 47
0.0
 47
0.0
 47
0.0
 47
0.0
 47
1.0
 47
0.0
 47
0.0
 47
0.0
 47
0.0
 47
1.0
171
     0
 49
0.0208333333333333
 49
0.0
 49
0.0
 49
0.0
 49
0.0
 49
0.0208333333333333
 49
0.0
 49
0.0
 49
0.0
 49
0.0
 49
1.0
 49
0.0
 49
0.0
 49
0.0
 49
0.0
 49
1.0
175
     0
142
0.0208333333333333
142
0.0
142
0.0
142
0.0
142
0.0
142
0.0208333333333333
142
0.0
142
0.0
142
0.0
142
0.0
142
1.0
142
0.0
142
0.0
142
0.0
142
0.0
142
1.0
179
     0
144
0.0208333333333333
144
0.0
144
0.0
144
0.0
144
0.0
144
0.0208333333333333
144
0.0
144
0.0
144
0.0
144
0.0
144
1.0
144
0.0
144
0.0
144
0.0
144
0.0
144
1.0
147
0.0208333333333333
147
0.0
147
0.0
147
0.0
147
0.0
147
0.0208333333333333
147
0.0
147
0.0
147
0.0
147
0.0
147
1.0
147
0.0
147
0.0
147
0.0
147
0.0
147
1.0
  0
MATERIAL
  5
13D1D
102
{ACAD_XDICTIONARY
360
13D1E
102
}
102
{ACAD_REACTORS
330
1341C
102
}
330
1341C
100
AcDbMaterial
  1
ByLayer
 72
     0
 43
0.0208333333333333
 43
0.0
 43
0.0
 43
0.0
 43
0.0
 43
0.0208333333333333
 43
0.0
 43
0.0
 43
0.0
 43
0.0
 43
1.0
 43
0.0
 43
0.0
 43
0.0
 43
0.0
 43
1.0
 77
     0
 47
0.0208333333333333
 47
0.0
 47
0.0
 47
0.0
 47
0.0
 47
0.0208333333333333
 47
0.0
 47
0.0
 47
0.0
 47
0.0
 47
1.0
 47
0.0
 47
0.0
 47
0.0
 47
0.0
 47
1.0
171
     0
 49
0.0208333333333333
 49
0.0
 49
0.0
 49
0.0
 49
0.0
 49
0.0208333333333333
 49
0.0
 49
0.0
 49
0.0
 49
0.0
 49
1.0
 49
0.0
 49
0.0
 49
0.0
 49
0.0
 49
1.0
175
     0
142
0.0208333333333333
142
0.0
142
0.0
142
0.0
142
0.0
142
0.0208333333333333
142
0.0
142
0.0
142
0.0
142
0.0
142
1.0
142
0.0
142
0.0
142
0.0
142
0.0
142
1.0
179
     0
144
0.0208333333333333
144
0.0
144
0.0
144
0.0
144
0.0
144
0.0208333333333333
144
0.0
144
0.0
144
0.0
144
0.0
144
1.0
144
0.0
144
0.0
144
0.0
144
0.0
144
1.0
147
0.0208333333333333
147
0.0
147
0.0
147
0.0
147
0.0
147
0.0208333333333333
147
0.0
147
0.0
147
0.0
147
0.0
147
1.0
147
0.0
147
0.0
147
0.0
147
0.0
147
1.0
  0
MATERIAL
  5
13D2D
102
{ACAD_XDICTIONARY
360
13D2E
102
}
102
{ACAD_REACTORS
330
1341C
102
}
330
1341C
100
AcDbMaterial
  1
Global
 72
     0
 43
0.0208333333333333
 43
0.0
 43
0.0
 43
0.0
 43
0.0
 43
0.0208333333333333
 43
0.0
 43
0.0
 43
0.0
 43
0.0
 43
1.0
 43
0.0
 43
0.0
 43
0.0
 43
0.0
 43
1.0
 77
     0
 47
0.0208333333333333
 47
0.0
 47
0.0
 47
0.0
 47
0.0
 47
0.0208333333333333
 47
0.0
 47
0.0
 47
0.0
 47
0.0
 47
1.0
 47
0.0
 47
0.0
 47
0.0
 47
0.0
 47
1.0
171
     0
 49
0.0208333333333333
 49
0.0
 49
0.0
 49
0.0
 49
0.0
 49
0.0208333333333333
 49
0.0
 49
0.0
 49
0.0
 49
0.0
 49
1.0
 49
0.0
 49
0.0
 49
0.0
 49
0.0
 49
1.0
175
     0
142
0.0208333333333333
142
0.0
142
0.0
142
0.0
142
0.0
142
0.0208333333333333
142
0.0
142
0.0
142
0.0
142
0.0
142
1.0
142
0.0
142
0.0
142
0.0
142
0.0
142
1.0
179
     0
144
0.0208333333333333
144
0.0
144
0.0
144
0.0
144
0.0
144
0.0208333333333333
144
0.0
144
0.0
144
0.0
144
0.0
144
1.0
144
0.0
144
0.0
144
0.0
144
0.0
144
1.0
147
0.0208333333333333
147
0.0
147
0.0
147
0.0
147
0.0
147
0.0208333333333333
147
0.0
147
0.0
147
0.0
147
0.0
147
1.0
147
0.0
147
0.0
147
0.0
147
0.0
147
1.0
  0
MLEADERSTYLE
  5
13D63
102
{ACAD_XDICTIONARY
360
156BB
102
}
102
{ACAD_REACTORS
330
13D62
102
}
330
13D62
100
AcDbMLeaderStyle
170
     2
171
     1
172
     0
 90
        2
 40
0.0
 41
0.0
173
     1
 91
-1056964608
340
7477
 92
       -2
290
     1
 42
2.0
291
     1
 43
0.36
  3
Standard
 44
4.0
300

342
7475
174
     1
178
     6
175
     1
176
     0
 93
-1056964608
 45
4.0
292
     0
297
     0
 46
4.0
 94
-1056964608
 47
1.0
 49
1.0
140
1.0
293
     1
141
0.0
294
     1
177
     0
142
1.0
295
     0
296
     0
143
0.125
1001
ACAD_MLEADERVER
1070
     2
  0
MLINESTYLE
  5
7480
102
{ACAD_REACTORS
330
7473
102
}
330
7473
100
AcDbMlineStyle
  2
STANDARD
 70
     0
  3

 62
     0
 51
90.0
 52
90.0
 71
     2
 49
0.5
 62
   256
  6
BYLAYER
 49
-0.5
 62
   256
  6
BYLAYER
  0
ACDBPLACEHOLDER
  5
1341B
102
{ACAD_REACTORS
330
1341A
102
}
330
1341A
  0
SCALE
  5
13D51
102
{ACAD_REACTORS
330
13D50
102
}
330
13D50
100
AcDbScale
 70
     0
300
1:1
140
1.0
141
1.0
290
     1
  0
SCALE
  5
13D52
102
{ACAD_REACTORS
330
13D50
102
}
330
13D50
100
AcDbScale
 70
     0
300
1:2
140
1.0
141
2.0
290
     0
  0
SCALE
  5
13D53
102
{ACAD_REACTORS
330
13D50
102
}
330
13D50
100
AcDbScale
 70
     0
300
1:4
140
1.0
141
4.0
290
     0
  0
SCALE
  5
13D54
102
{ACAD_REACTORS
330
13D50
102
}
330
13D50
100
AcDbScale
 70
     0
300
1:5
140
1.0
141
5.0
290
     0
  0
SCALE
  5
13D55
102
{ACAD_REACTORS
330
13D50
102
}
330
13D50
100
AcDbScale
 70
     0
300
1:8
140
1.0
141
8.0
290
     0
  0
SCALE
  5
13D56
102
{ACAD_REACTORS
330
13D50
102
}
330
13D50
100
AcDbScale
 70
     0
300
1:10
140
1.0
141
10.0
290
     0
  0
SCALE
  5
13D57
102
{ACAD_REACTORS
330
13D50
102
}
330
13D50
100
AcDbScale
 70
     0
300
1:16
140
1.0
141
16.0
290
     0
  0
SCALE
  5
13D58
102
{ACAD_REACTORS
330
13D50
102
}
330
13D50
100
AcDbScale
 70
     0
300
1:20
140
1.0
141
20.0
290
     0
  0
SCALE
  5
13D59
102
{ACAD_REACTORS
330
13D50
102
}
330
13D50
100
AcDbScale
 70
     0
300
1:30
140
1.0
141
30.0
290
     0
  0
SCALE
  5
13D5A
102
{ACAD_REACTORS
330
13D50
102
}
330
13D50
100
AcDbScale
 70
     0
300
1:40
140
1.0
141
40.0
290
     0
  0
SCALE
  5
13D5B
102
{ACAD_REACTORS
330
13D50
102
}
330
13D50
100
AcDbScale
 70
     0
300
1:50
140
1.0
141
50.0
290
     0
  0
SCALE
  5
13D5C
102
{ACAD_REACTORS
330
13D50
102
}
330
13D50
100
AcDbScale
 70
     0
300
1:100
140
1.0
141
100.0
290
     0
  0
SCALE
  5
13D5D
102
{ACAD_REACTORS
330
13D50
102
}
330
13D50
100
AcDbScale
 70
     0
300
2:1
140
2.0
141
1.0
290
     0
  0
SCALE
  5
13D5E
102
{ACAD_REACTORS
330
13D50
102
}
330
13D50
100
AcDbScale
 70
     0
300
4:1
140
4.0
141
1.0
290
     0
  0
SCALE
  5
13D5F
102
{ACAD_REACTORS
330
13D50
102
}
330
13D50
100
AcDbScale
 70
     0
300
8:1
140
8.0
141
1.0
290
     0
  0
SCALE
  5
13D60
102
{ACAD_REACTORS
330
13D50
102
}
330
13D50
100
AcDbScale
 70
     0
300
10:1
140
10.0
141
1.0
290
     0
  0
SCALE
  5
13D61
102
{ACAD_REACTORS
330
13D50
102
}
330
13D50
100
AcDbScale
 70
     0
300
100:1
140
100.0
141
1.0
290
     0
  0
ACDBSECTIONVIEWSTYLE
  5
13D65
102
{ACAD_XDICTIONARY
360
156BD
102
}
102
{ACAD_REACTORS
330
13D64
102
}
330
13D64
100
AcDbModelDocViewStyle
 70
     0
  3
Metric50
290
     0
100
AcDbSectionViewStyle
 70
     0
 71
     0
 90
      102
 71
     1
340
7475
 40
5.0
340
0
340
0
 40
5.0
300
I, O, Q, S, X, Z
 40
10.0
 90
        0
 40
2.5
 90
        0
 71
     2
340
7479
 90
       25
340
7479
 90
       50
 40
5.0
 40
2.5
 40
5.0
 71
     3
340
7475
 40
5.0
 90
        0
 40
15.0
 90
        1
300
%<\AcVar ViewSectionStartId>%-%<\AcVar ViewSectionEndId>% (%<\AcVar ViewScale \f "%sn">%)
 71
     4
300
ANSI31
 40
1.0
 90
        0
290
     0
290
     0
 90
        6
 40
0.0
 40
1.570796326794896
 40
0.2617993877991494
 40
1.308996938995747
 40
-0.2617993877991494
 40
1.832595714594046
  0
TABLESTYLE
  5
13D4F
102
{ACAD_XDICTIONARY
360
153FF
102
}
102
{ACAD_REACTORS
330
13D4E
102
}
330
13D4E
100
AcDbTableStyle
  3
Standard
 70
     0
 71
     0
 40
1.5
 41
1.5
280
     0
281
     0
  7
STANDARD
140
4.5
170
     2
 62
     0
 63
     7
283
     0
274
    -2
284
     1
 64
     0
275
    -2
285
     1
 65
     0
276
    -2
286
     1
 66
     0
277
    -2
287
     1
 67
     0
278
    -2
288
     1
 68
     0
279
    -2
289
     1
 69
     0
  7
STANDARD
140
6.0
170
     5
 62
     0
 63
     7
283
     0
274
    -2
284
     1
 64
     0
275
    -2
285
     1
 65
     0
276
    -2
286
     1
 66
     0
277
    -2
287
     1
 67
     0
278
    -2
288
     1
 68
     0
279
    -2
289
     1
 69
     0
  7
STANDARD
140
4.5
170
     5
 62
     0
 63
     7
283
     0
274
    -2
284
     1
 64
     0
275
    -2
285
     1
 65
     0
276
    -2
286
     1
 66
     0
277
    -2
287
     1
 67
     0
278
    -2
288
     1
 68
     0
279
    -2
289
     1
 69
     0
  0
VISUALSTYLE
  5
13D3B
102
{ACAD_XDICTIONARY
360
15694
102
}
102
{ACAD_REACTORS
330
13D35
102
}
330
13D35
100
AcDbVisualStyle
  2
2dWireframe
 70
     4
 71
     0
 72
     2
 73
     0
 90
        0
 40
-0.6
 41
-30.0
 62
     5
 63
     7
 74
     1
 91
        4
 64
     7
 65
   257
 75
     1
175
     1
 42
1.0
 92
        0
 66
   257
 43
1.0
 76
     1
 77
     6
 78
     2
 67
     7
 79
     5
170
     0
171
     0
290
     0
174
     0
 93
        1
 44
0.0
173
     0
291
     0
 45
0.0
1001
ACAD
1000
AcDbSavedByObjectVersion
1070
     0
  0
VISUALSTYLE
  5
13D3A
102
{ACAD_XDICTIONARY
360
15692
102
}
102
{ACAD_REACTORS
330
13D35
102
}
330
13D35
100
AcDbVisualStyle
  2
Basic
 70
     7
 71
     1
 72
     0
 73
     1
 90
        0
 40
-0.6
 41
-30.0
 62
     5
 63
     7
 74
     0
 91
        4
 64
     7
 65
   257
 75
     1
175
     1
 42
1.0
 92
        8
 66
     7
 43
1.0
 76
     1
 77
     6
 78
     2
 67
     7
 79
     5
170
     0
171
     0
290
     0
174
     0
 93
        1
 44
0.0
173
     0
291
     1
 45
0.0
1001
ACAD
1000
AcDbSavedByObjectVersion
1070
     0
  0
VISUALSTYLE
  5
13D41
102
{ACAD_XDICTIONARY
360
156A0
102
}
102
{ACAD_REACTORS
330
13D35
102
}
330
13D35
100
AcDbVisualStyle
  2
Brighten
 70
    12
 71
     2
 72
     2
 73
     0
 90
        0
 40
-0.6
 41
-30.0
 62
     5
 63
     7
 74
     1
 91
        4
 64
     7
 65
   257
 75
     1
175
     1
 42
1.0
 92
        8
 66
     7
 43
1.0
 76
     1
 77
     6
 78
     2
 67
     7
 79
     5
170
     0
171
     0
290
     0
174
     0
 93
        1
 44
50.0
173
     0
291
     1
 45
0.0
1001
ACAD
1000
AcDbSavedByObjectVersion
1070
     0
  0
VISUALSTYLE
  5
13D45
102
{ACAD_XDICTIONARY
360
156A8
102
}
102
{ACAD_REACTORS
330
13D35
102
}
330
13D35
100
AcDbVisualStyle
  2
ColorChange
 70
    16
 71
     2
 72
     2
 73
     3
 90
        0
 40
-0.6
 41
-30.0
 62
     5
 63
     8
 74
     1
 91
        4
 64
     7
 65
   257
 75
     1
175
     1
 42
1.0
 92
        8
 66
     8
 43
1.0
 76
     1
 77
     6
 78
     2
 67
     7
 79
     5
170
     0
171
     0
290
     0
174
     0
 93
        1
 44
0.0
173
     0
291
     1
 45
0.0
1001
ACAD
1000
AcDbSavedByObjectVersion
1070
     0
  0
VISUALSTYLE
  5
13D3E
102
{ACAD_XDICTIONARY
360
1569A
102
}
102
{ACAD_REACTORS
330
13D35
102
}
330
13D35
100
AcDbVisualStyle
  2
Conceptual
 70
     9
 71
     3
 72
     2
 73
     0
 90
        0
 40
-0.6
 41
-30.0
 62
     5
 63
     7
 74
     2
 91
        2
 64
     7
 65
   257
 75
     1
175
     1
 42
179.0
 92
        8
 66
     7
 43
1.0
 76
     1
 77
     6
 78
     2
 67
     7
 79
     3
170
     0
171
     0
290
     0
174
     0
 93
        1
 44
0.0
173
     0
291
     0
 45
0.0
1001
ACAD
1000
AcDbSavedByObjectVersion
1070
     0
  0
VISUALSTYLE
  5
13D40
102
{ACAD_XDICTIONARY
360
1569E
102
}
102
{ACAD_REACTORS
330
13D35
102
}
330
13D35
100
AcDbVisualStyle
  2
Dim
 70
    11
 71
     2
 72
     2
 73
     0
 90
        0
 40
-0.6
 41
-30.0
 62
     5
 63
     7
 74
     1
 91
        4
 64
     7
 65
   257
 75
     1
175
     1
 42
1.0
 92
        8
 66
     7
 43
1.0
 76
     1
 77
     6
 78
     2
 67
     7
 79
     5
170
     0
171
     0
290
     0
174
     0
 93
        1
 44
-50.0
173
     0
291
     1
 45
0.0
1001
ACAD
1000
AcDbSavedByObjectVersion
1070
     0
  0
VISUALSTYLE
  5
13D4D
102
{ACAD_XDICTIONARY
360
156B8
102
}
102
{ACAD_REACTORS
330
13D35
102
}
330
13D35
100
AcDbVisualStyle
  2
EdgeColorOff
 70
    22
 71
     2
 72
     2
 73
     0
 90
        0
 40
-0.6
 41
-30.0
 62
     5
 63
     7
 74
     1
 91
        4
 64
     7
 65
   257
 75
     1
175
     1
 42
1.0
 92
        8
 66
     7
 43
1.0
 76
     1
 77
     6
 78
     2
 67
     7
 79
     5
170
     0
171
     0
290
     0
174
     0
 93
        1
 44
0.0
173
     0
291
     1
 45
0.0
1001
ACAD
1000
AcDbSavedByObjectVersion
1070
     0
  0
VISUALSTYLE
  5
13D44
102
{ACAD_XDICTIONARY
360
156A6
102
}
102
{ACAD_REACTORS
330
13D35
102
}
330
13D35
100
AcDbVisualStyle
  2
Facepattern
 70
    15
 71
     2
 72
     2
 73
     0
 90
        0
 40
-0.6
 41
-30.0
 62
     5
 63
     7
 74
     1
 91
        4
 64
     7
 65
   257
 75
     1
175
     1
 42
1.0
 92
        8
 66
     7
 43
1.0
 76
     1
 77
     6
 78
     2
 67
     7
 79
     5
170
     0
171
     0
290
     0
174
     0
 93
        1
 44
0.0
173
     0
291
     1
 45
0.0
1001
ACAD
1000
AcDbSavedByObjectVersion
1070
     0
  0
VISUALSTYLE
  5
13D36
102
{ACAD_XDICTIONARY
360
1568A
102
}
102
{ACAD_REACTORS
330
13D35
102
}
330
13D35
100
AcDbVisualStyle
  2
Flat
 70
     0
 71
     2
 72
     1
 73
     1
 90
        2
 40
-0.6
 41
30.0
 62
     5
 63
     7
 74
     0
 91
        0
 64
     7
 65
   257
 75
     1
175
     1
 42
1.0
 92
        8
 66
     7
 43
1.0
 76
     1
 77
     6
 78
     2
 67
     7
 79
     5
170
     0
171
     0
290
     0
174
     0
 93
       13
 44
0.0
173
     0
291
     1
 45
0.0
1001
ACAD
1000
AcDbSavedByObjectVersion
1070
     0
  0
VISUALSTYLE
  5
13D37
102
{ACAD_XDICTIONARY
360
1568C
102
}
102
{ACAD_REACTORS
330
13D35
102
}
330
13D35
100
AcDbVisualStyle
  2
FlatWithEdges
 70
     1
 71
     2
 72
     1
 73
     1
 90
        2
 40
-0.6
 41
30.0
 62
     5
 63
     7
 74
     1
 91
        0
 64
     7
 65
   257
 75
     1
175
     1
 42
1.0
 92
        0
 66
   257
 43
1.0
 76
     1
 77
     6
 78
     2
 67
     7
 79
     5
170
     0
171
     0
290
     0
174
     0
 93
       13
 44
0.0
173
     0
291
     1
 45
0.0
1001
ACAD
1000
AcDbSavedByObjectVersion
1070
     0
  0
VISUALSTYLE
  5
13D38
102
{ACAD_XDICTIONARY
360
1568E
102
}
102
{ACAD_REACTORS
330
13D35
102
}
330
13D35
100
AcDbVisualStyle
  2
Gouraud
 70
     2
 71
     2
 72
     2
 73
     1
 90
        2
 40
-0.6
 41
30.0
 62
     5
 63
     7
 74
     0
 91
        0
 64
     7
 65
   257
 75
     1
175
     1
 42
1.0
 92
        0
 66
     7
 43
1.0
 76
     1
 77
     6
 78
     2
 67
     7
 79
     5
170
     0
171
     0
290
     0
174
     0
 93
       13
 44
0.0
173
     0
291
     1
 45
0.0
1001
ACAD
1000
AcDbSavedByObjectVersion
1070
     0
  0
VISUALSTYLE
  5
13D39
102
{ACAD_XDICTIONARY
360
15690
102
}
102
{ACAD_REACTORS
330
13D35
102
}
330
13D35
100
AcDbVisualStyle
  2
GouraudWithEdges
 70
     3
 71
     2
 72
     2
 73
     1
 90
        2
 40
-0.6
 41
30.0
 62
     5
 63
     7
 74
     1
 91
        0
 64
     7
 65
   257
 75
     1
175
     1
 42
1.0
 92
        0
 66
   257
 43
1.0
 76
     1
 77
     6
 78
     2
 67
     7
 79
     5
170
     0
171
     0
290
     0
174
     0
 93
       13
 44
0.0
173
     0
291
     1
 45
0.0
1001
ACAD
1000
AcDbSavedByObjectVersion
1070
     0
  0
VISUALSTYLE
  5
13D3D
102
{ACAD_XDICTIONARY
360
15698
102
}
102
{ACAD_REACTORS
330
13D35
102
}
330
13D35
100
AcDbVisualStyle
  2
Hidden
 70
     6
 71
     1
 72
     2
 73
     2
 90
        0
 40
-0.6
 41
-30.0
 62
     5
 63
     7
 74
     2
 91
        2
 64
     7
 65
   257
 75
     2
175
     1
 42
40.0
 92
        0
 66
   257
 43
1.0
 76
     1
 77
     6
 78
     2
 67
     7
 79
     3
170
     0
171
     0
290
     0
174
     0
 93
        1
 44
0.0
173
     0
291
     0
 45
0.0
1001
ACAD
1000
AcDbSavedByObjectVersion
1070
     0
  0
VISUALSTYLE
  5
13D4B
102
{ACAD_XDICTIONARY
360
156B4
102
}
102
{ACAD_REACTORS
330
13D35
102
}
330
13D35
100
AcDbVisualStyle
  2
JitterOff
 70
    20
 71
     2
 72
     2
 73
     0
 90
        0
 40
-0.6
 41
-30.0
 62
     5
 63
     7
 74
     1
 91
        4
 64
     7
 65
   257
 75
     1
175
     1
 42
1.0
 92
       10
 66
     7
 43
1.0
 76
     1
 77
     6
 78
     2
 67
     7
 79
     5
170
     0
171
     0
290
     0
174
     0
 93
        1
 44
0.0
173
     0
291
     1
 45
0.0
1001
ACAD
1000
AcDbSavedByObjectVersion
1070
     0
  0
VISUALSTYLE
  5
13D43
102
{ACAD_XDICTIONARY
360
156A4
102
}
102
{ACAD_REACTORS
330
13D35
102
}
330
13D35
100
AcDbVisualStyle
  2
Linepattern
 70
    14
 71
     2
 72
     2
 73
     0
 90
        0
 40
-0.6
 41
-30.0
 62
     5
 63
     7
 74
     1
 91
        4
 64
     7
 65
   257
 75
     7
175
     7
 42
1.0
 92
        8
 66
     7
 43
1.0
 76
     1
 77
     6
 78
     2
 67
     7
 79
     5
170
     0
171
     0
290
     0
174
     0
 93
        1
 44
0.0
173
     0
291
     1
 45
0.0
1001
ACAD
1000
AcDbSavedByObjectVersion
1070
     0
  0
VISUALSTYLE
  5
13D4C
102
{ACAD_XDICTIONARY
360
156B6
102
}
102
{ACAD_REACTORS
330
13D35
102
}
330
13D35
100
AcDbVisualStyle
  2
OverhangOff
 70
    21
 71
     2
 72
     2
 73
     0
 90
        0
 40
-0.6
 41
-30.0
 62
     5
 63
     7
 74
     1
 91
        4
 64
     7
 65
   257
 75
     1
175
     1
 42
1.0
 92
        9
 66
     7
 43
1.0
 76
     1
 77
     6
 78
     2
 67
     7
 79
     5
170
     0
171
     0
290
     0
174
     0
 93
        1
 44
0.0
173
     0
291
     1
 45
0.0
1001
ACAD
1000
AcDbSavedByObjectVersion
1070
     0
  0
VISUALSTYLE
  5
13D3F
102
{ACAD_XDICTIONARY
360
1569C
102
}
102
{ACAD_REACTORS
330
13D35
102
}
330
13D35
100
AcDbVisualStyle
  2
Realistic
 70
     8
 71
     2
 72
     2
 73
     0
 90
        2
 40
-0.6
 41
30.0
 62
     5
 63
     7
 74
     0
 91
        0
 64
     7
 65
   257
 75
     1
175
     1
 42
1.0
 92
        8
 66
   257
 43
1.0
 76
     1
 77
     6
 78
     2
 67
     7
 79
     3
170
     0
171
     0
290
     0
174
     0
 93
       13
 44
0.0
173
     0
291
     0
 45
0.0
1001
ACAD
1000
AcDbSavedByObjectVersion
1070
     0
  0
VISUALSTYLE
  5
13D4A
102
{ACAD_XDICTIONARY
360
156B2
102
}
102
{ACAD_REACTORS
330
13D35
102
}
330
13D35
100
AcDbVisualStyle
  2
Shaded
 70
    27
 71
     2
 72
     2
 73
     1
 90
        2
 40
-0.6
 41
30.0
 62
     5
 63
     7
 74
     0
 91
        4
 64
     7
 65
   257
 75
     1
175
     1
 42
1.0
 92
        8
 66
   257
 43
1.0
 76
     1
 77
     6
 78
     2
 67
     8
 79
     3
170
     0
171
     0
290
     0
174
     0
 93
        5
 44
0.0
173
     0
291
     0
 45
0.0
1001
ACAD
1000
AcDbSavedByObjectVersion
1070
     0
  0
VISUALSTYLE
  5
13D49
102
{ACAD_XDICTIONARY
360
156B0
102
}
102
{ACAD_REACTORS
330
13D35
102
}
330
13D35
100
AcDbVisualStyle
  2
Shaded with edges
 70
    26
 71
     2
 72
     2
 73
     1
 90
        2
 40
-0.6
 41
30.0
 62
     5
 63
     7
 74
     1
 91
       10
 64
     7
 65
   257
 75
     2
175
     1
 42
1.0
 92
        8
 66
   257
 43
1.0
 76
     1
 77
     6
 78
     2
 67
     7
 79
     3
170
     0
171
     0
290
     0
174
     0
 93
        5
 44
0.0
173
     0
291
     0
 45
0.0
1001
ACAD
1000
AcDbSavedByObjectVersion
1070
     0
  0
VISUALSTYLE
  5
13D46
102
{ACAD_XDICTIONARY
360
156AA
102
}
102
{ACAD_REACTORS
330
13D35
102
}
330
13D35
100
AcDbVisualStyle
  2
Shades of Gray
 70
    23
 71
     2
 72
     2
 73
     3
 90
        0
 40
-0.6
 41
-30.0
 62
     5
 63
     7
 74
     2
 91
        2
 64
     7
 65
     7
 75
     1
175
     1
 42
40.0
 92
        8
 66
     7
 43
1.0
 76
     1
 77
     6
 78
     2
 67
     7
 79
     3
170
     0
171
     0
290
     0
174
     0
 93
        1
 44
0.0
173
     0
291
     0
 45
0.0
1001
ACAD
1000
AcDbSavedByObjectVersion
1070
     0
  0
VISUALSTYLE
  5
13D47
102
{ACAD_XDICTIONARY
360
156AC
102
}
102
{ACAD_REACTORS
330
13D35
102
}
330
13D35
100
AcDbVisualStyle
  2
Sketchy
 70
    24
 71
     1
 72
     2
 73
     2
 90
        0
 40
-0.6
 41
-30.0
 62
     5
 63
     7
 74
     2
 91
        2
 64
     7
 65
     7
 75
     1
175
     1
 42
40.0
 92
       11
 66
     7
 43
1.0
 76
     1
 77
     6
 78
     2
 67
     7
 79
     6
170
     0
171
     0
290
     0
174
     0
 93
        1
 44
0.0
173
     0
291
     0
 45
0.0
1001
ACAD
1000
AcDbSavedByObjectVersion
1070
     0
  0
VISUALSTYLE
  5
13D42
102
{ACAD_XDICTIONARY
360
156A2
102
}
102
{ACAD_REACTORS
330
13D35
102
}
330
13D35
100
AcDbVisualStyle
  2
Thicken
 70
    13
 71
     2
 72
     2
 73
     0
 90
        0
 40
-0.6
 41
-30.0
 62
     5
 63
     7
 74
     1
 91
        4
 64
     7
 65
   257
 75
     1
175
     1
 42
1.0
 92
       12
 66
     7
 43
1.0
 76
     1
 77
     6
 78
     2
 67
     7
 79
     5
170
     0
171
     0
290
     0
174
     0
 93
        1
 44
0.0
173
     0
291
     1
 45
0.0
1001
ACAD
1000
AcDbSavedByObjectVersion
1070
     0
  0
VISUALSTYLE
  5
13D3C
102
{ACAD_XDICTIONARY
360
15696
102
}
102
{ACAD_REACTORS
330
13D35
102
}
330
13D35
100
AcDbVisualStyle
  2
Wireframe
 70
     5
 71
     0
 72
     2
 73
     0
 90
        0
 40
-0.6
 41
-30.0
 62
     5
 63
     7
 74
     1
 91
        4
 64
     7
 65
   257
 75
     1
175
     1
 42
1.0
 92
        0
 66
   257
 43
1.0
 76
     1
 77
     6
 78
     2
 67
     7
 79
     3
170
     0
171
     0
290
     0
174
     0
 93
        1
 44
0.0
173
     0
291
     0
 45
0.0
1001
ACAD
1000
AcDbSavedByObjectVersion
1070
     0
  0
VISUALSTYLE
  5
13D48
102
{ACAD_XDICTIONARY
360
156AE
102
}
102
{ACAD_REACTORS
330
13D35
102
}
330
13D35
100
AcDbVisualStyle
  2
X-Ray
 70
    25
 71
     2
 72
     2
 73
     1
 90
        1
 40
0.5
 41
-30.0
 62
     5
 63
     7
 74
     1
 91
        0
 64
     7
 65
   257
 75
     1
175
     1
 42
1.0
 92
        8
 66
     7
 43
1.0
 76
     1
 77
     6
 78
     2
 67
     7
 79
     3
170
     0
171
     0
290
     0
174
     0
 93
       13
 44
0.0
173
     0
291
     0
 45
0.0
1001
ACAD
1000
AcDbSavedByObjectVersion
1070
     0
  0
DICTIONARYVAR
  5
15449
102
{ACAD_REACTORS
330
13533
102
}
330
13533
100
DictionaryVariables
280
     0
  1
1:1
  0
DICTIONARYVAR
  5
15446
102
{ACAD_REACTORS
330
13533
102
}
330
13533
100
DictionaryVariables
280
     0
  1
STANDARD
  0
DICTIONARYVAR
  5
15445
102
{ACAD_REACTORS
330
13533
102
}
330
13533
100
DictionaryVariables
280
     0
  1
STANDARD
  0
DICTIONARYVAR
  5
15447
102
{ACAD_REACTORS
330
13533
102
}
330
13533
100
DictionaryVariables
280
     0
  1
Metric50
  0
DICTIONARYVAR
  5
15448
102
{ACAD_REACTORS
330
13533
102
}
330
13533
100
DictionaryVariables
280
     0
  1
Metric50
  0
DICTIONARYVAR
  5
13534
102
{ACAD_REACTORS
330
13533
102
}
330
13533
100
DictionaryVariables
280
     0
  1
1
  0
DICTIONARYVAR
  5
1544B
102
{ACAD_REACTORS
330
13533
102
}
330
13533
100
DictionaryVariables
280
     0
  1
0
  0
DICTIONARYVAR
  5
13535
102
{ACAD_REACTORS
330
13533
102
}
330
13533
100
DictionaryVariables
280
     0
  1

  0
DICTIONARYVAR
  5
1544A
102
{ACAD_REACTORS
330
13533
102
}
330
13533
100
DictionaryVariables
280
     0
  1
127
  0
DICTIONARYVAR
  5
1567F
102
{ACAD_REACTORS
330
13533
102
}
330
13533
100
DictionaryVariables
280
     0
  1
2
  0
DICTIONARY
  5
156BF
330
13D67
100
AcDbDictionary
280
     1
281
     1
  3
ACAD_XREC_ROUNDTRIP
360
156C0
  0
DICTIONARY
  5
15683
330
13420
100
AcDbDictionary
280
     1
281
     1
  3
ACAD_XREC_ROUNDTRIP
360
15684
  0
DICTIONARY
  5
15685
330
13421
100
AcDbDictionary
280
     1
281
     1
  3
ACAD_XREC_ROUNDTRIP
360
15686
  0
DICTIONARY
  5
13D26
330
13D25
100
AcDbDictionary
280
     1
281
     1
  3
ACAD_XREC_ROUNDTRIP
360
15688
  3
BUMPTILE
360
13D28
  3
DIFFUSETILE
360
13D27
  3
OPACITYTILE
360
13D2B
  3
REFLECTIONTILE
360
13D2A
  3
REFRACTIONTILE
360
13D2C
  3
SPECULARTILE
360
13D29
  0
DICTIONARY
  5
13D1E
330
13D1D
100
AcDbDictionary
280
     1
281
     1
  3
ACAD_XREC_ROUNDTRIP
360
15687
  3
BUMPTILE
360
13D20
  3
DIFFUSETILE
360
13D1F
  3
OPACITYTILE
360
13D23
  3
REFLECTIONTILE
360
13D22
  3
REFRACTIONTILE
360
13D24
  3
SPECULARTILE
360
13D21
  0
DICTIONARY
  5
13D2E
330
13D2D
100
AcDbDictionary
280
     1
281
     1
  3
ACAD_XREC_ROUNDTRIP
360
15689
  3
BUMPTILE
360
13D30
  3
DIFFUSETILE
360
13D2F
  3
OPACITYTILE
360
13D33
  3
REFLECTIONTILE
360
13D32
  3
REFRACTIONTILE
360
13D34
  3
SPECULARTILE
360
13D31
  0
DICTIONARY
  5
156BB
330
13D63
100
AcDbDictionary
280
     1
281
     1
  3
ACAD_XREC_ROUNDTRIP
360
156BC
  0
DICTIONARY
  5
156BD
330
13D65
100
AcDbDictionary
280
     1
281
     1
  3
ACAD_XREC_ROUNDTRIP
360
156BE
  0
DICTIONARY
  5
153FF
330
13D4F
100
AcDbDictionary
280
     1
281
     1
  3
ACAD_ROUNDTRIP_2008_TABLESTYLE_CELLSTYLEMAP
360
15680
  3
ACAD_XREC_ROUNDTRIP
360
156BA
  0
DICTIONARY
  5
15694
330
13D3B
100
AcDbDictionary
280
     1
281
     1
  3
ACAD_XREC_ROUNDTRIP
360
15695
  0
DICTIONARY
  5
15692
330
13D3A
100
AcDbDictionary
280
     1
281
     1
  3
ACAD_XREC_ROUNDTRIP
360
15693
  0
DICTIONARY
  5
156A0
330
13D41
100
AcDbDictionary
280
     1
281
     1
  3
ACAD_XREC_ROUNDTRIP
360
156A1
  0
DICTIONARY
  5
156A8
330
13D45
100
AcDbDictionary
280
     1
281
     1
  3
ACAD_XREC_ROUNDTRIP
360
156A9
  0
DICTIONARY
  5
1569A
330
13D3E
100
AcDbDictionary
280
     1
281
     1
  3
ACAD_XREC_ROUNDTRIP
360
1569B
  0
DICTIONARY
  5
1569E
330
13D40
100
AcDbDictionary
280
     1
281
     1
  3
ACAD_XREC_ROUNDTRIP
360
1569F
  0
DICTIONARY
  5
156B8
330
13D4D
100
AcDbDictionary
280
     1
281
     1
  3
ACAD_XREC_ROUNDTRIP
360
156B9
  0
DICTIONARY
  5
156A6
330
13D44
100
AcDbDictionary
280
     1
281
     1
  3
ACAD_XREC_ROUNDTRIP
360
156A7
  0
DICTIONARY
  5
1568A
330
13D36
100
AcDbDictionary
280
     1
281
     1
  3
ACAD_XREC_ROUNDTRIP
360
1568B
  0
DICTIONARY
  5
1568C
330
13D37
100
AcDbDictionary
280
     1
281
     1
  3
ACAD_XREC_ROUNDTRIP
360
1568D
  0
DICTIONARY
  5
1568E
330
13D38
100
AcDbDictionary
280
     1
281
     1
  3
ACAD_XREC_ROUNDTRIP
360
1568F
  0
DICTIONARY
  5
15690
330
13D39
100
AcDbDictionary
280
     1
281
     1
  3
ACAD_XREC_ROUNDTRIP
360
15691
  0
DICTIONARY
  5
15698
330
13D3D
100
AcDbDictionary
280
     1
281
     1
  3
ACAD_XREC_ROUNDTRIP
360
15699
  0
DICTIONARY
  5
156B4
330
13D4B
100
AcDbDictionary
280
     1
281
     1
  3
ACAD_XREC_ROUNDTRIP
360
156B5
  0
DICTIONARY
  5
156A4
330
13D43
100
AcDbDictionary
280
     1
281
     1
  3
ACAD_XREC_ROUNDTRIP
360
156A5
  0
DICTIONARY
  5
156B6
330
13D4C
100
AcDbDictionary
280
     1
281
     1
  3
ACAD_XREC_ROUNDTRIP
360
156B7
  0
DICTIONARY
  5
1569C
330
13D3F
100
AcDbDictionary
280
     1
281
     1
  3
ACAD_XREC_ROUNDTRIP
360
1569D
  0
DICTIONARY
  5
156B2
330
13D4A
100
AcDbDictionary
280
     1
281
     1
  3
ACAD_XREC_ROUNDTRIP
360
156B3
  0
DICTIONARY
  5
156B0
330
13D49
100
AcDbDictionary
280
     1
281
     1
  3
ACAD_XREC_ROUNDTRIP
360
156B1
  0
DICTIONARY
  5
156AA
330
13D46
100
AcDbDictionary
280
     1
281
     1
  3
ACAD_XREC_ROUNDTRIP
360
156AB
  0
DICTIONARY
  5
156AC
330
13D47
100
AcDbDictionary
280
     1
281
     1
  3
ACAD_XREC_ROUNDTRIP
360
156AD
  0
DICTIONARY
  5
156A2
330
13D42
100
AcDbDictionary
280
     1
281
     1
  3
ACAD_XREC_ROUNDTRIP
360
156A3
  0
DICTIONARY
  5
15696
330
13D3C
100
AcDbDictionary
280
     1
281
     1
  3
ACAD_XREC_ROUNDTRIP
360
15697
  0
DICTIONARY
  5
156AE
330
13D48
100
AcDbDictionary
280
     1
281
     1
  3
ACAD_XREC_ROUNDTRIP
360
156AF
  0
XRECORD
  5
156C0
102
{ACAD_REACTORS
330
156BF
102
}
330
156BF
100
AcDbXrecord
280
     1
102
DISPLAYNAME
  1
Metric50
102
FLAGS
 90
        0
  0
XRECORD
  5
15684
102
{ACAD_REACTORS
330
15683
102
}
330
15683
100
AcDbXrecord
280
     1
102
SHADEPLOT
 70
     0
102
SHADEPLOTRESLEVEL
 70
     2
102
SHADEPLOTCUSTOMDPI
 70
   300
  0
XRECORD
  5
15686
102
{ACAD_REACTORS
330
15685
102
}
330
15685
100
AcDbXrecord
280
     1
102
SHADEPLOT
 70
     0
102
SHADEPLOTRESLEVEL
 70
     2
102
SHADEPLOTCUSTOMDPI
 70
   300
  0
XRECORD
  5
15688
102
{ACAD_REACTORS
330
13D26
102
}
330
13D26
100
AcDbXrecord
280
     1
102
MATERIAL
148
0.0
149
0.0
149
0.0
 93
        0
 94
      127
282
     0
 72
     0
 77
     0
171
     0
175
     0
179
     0
273
     0
  0
XRECORD
  5
13D28
102
{ACAD_REACTORS
330
13D26
102
}
330
13D26
100
AcDbXrecord
280
     1
270
     1
271
     1
  0
XRECORD
  5
13D27
102
{ACAD_REACTORS
330
13D26
102
}
330
13D26
100
AcDbXrecord
280
     1
270
     1
271
     1
  0
XRECORD
  5
13D2B
102
{ACAD_REACTORS
330
13D26
102
}
330
13D26
100
AcDbXrecord
280
     1
270
     1
271
     1
  0
XRECORD
  5
13D2A
102
{ACAD_REACTORS
330
13D26
102
}
330
13D26
100
AcDbXrecord
280
     1
270
     1
271
     1
  0
XRECORD
  5
13D2C
102
{ACAD_REACTORS
330
13D26
102
}
330
13D26
100
AcDbXrecord
280
     1
270
     1
271
     1
  0
XRECORD
  5
13D29
102
{ACAD_REACTORS
330
13D26
102
}
330
13D26
100
AcDbXrecord
280
     1
270
     1
271
     1
  0
XRECORD
  5
15687
102
{ACAD_REACTORS
330
13D1E
102
}
330
13D1E
100
AcDbXrecord
280
     1
102
MATERIAL
148
0.0
149
0.0
149
0.0
 93
        0
 94
      127
282
     0
 72
     0
 77
     0
171
     0
175
     0
179
     0
273
     0
  0
XRECORD
  5
13D20
102
{ACAD_REACTORS
330
13D1E
102
}
330
13D1E
100
AcDbXrecord
280
     1
270
     1
271
     1
  0
XRECORD
  5
13D1F
102
{ACAD_REACTORS
330
13D1E
102
}
330
13D1E
100
AcDbXrecord
280
     1
270
     1
271
     1
  0
XRECORD
  5
13D23
102
{ACAD_REACTORS
330
13D1E
102
}
330
13D1E
100
AcDbXrecord
280
     1
270
     1
271
     1
  0
XRECORD
  5
13D22
102
{ACAD_REACTORS
330
13D1E
102
}
330
13D1E
100
AcDbXrecord
280
     1
270
     1
271
     1
  0
XRECORD
  5
13D24
102
{ACAD_REACTORS
330
13D1E
102
}
330
13D1E
100
AcDbXrecord
280
     1
270
     1
271
     1
  0
XRECORD
  5
13D21
102
{ACAD_REACTORS
330
13D1E
102
}
330
13D1E
100
AcDbXrecord
280
     1
270
     1
271
     1
  0
XRECORD
  5
15689
102
{ACAD_REACTORS
330
13D2E
102
}
330
13D2E
100
AcDbXrecord
280
     1
102
MATERIAL
148
0.0
149
0.0
149
0.0
 93
        0
 94
      127
282
     0
 72
     0
 77
     0
171
     0
175
     0
179
     0
273
     0
  0
XRECORD
  5
13D30
102
{ACAD_REACTORS
330
13D2E
102
}
330
13D2E
100
AcDbXrecord
280
     1
270
     1
271
     1
  0
XRECORD
  5
13D2F
102
{ACAD_REACTORS
330
13D2E
102
}
330
13D2E
100
AcDbXrecord
280
     1
270
     1
271
     1
  0
XRECORD
  5
13D33
102
{ACAD_REACTORS
330
13D2E
102
}
330
13D2E
100
AcDbXrecord
280
     1
270
     1
271
     1
  0
XRECORD
  5
13D32
102
{ACAD_REACTORS
330
13D2E
102
}
330
13D2E
100
AcDbXrecord
280
     1
270
     1
271
     1
  0
XRECORD
  5
13D34
102
{ACAD_REACTORS
330
13D2E
102
}
330
13D2E
100
AcDbXrecord
280
     1
270
     1
271
     1
  0
XRECORD
  5
13D31
102
{ACAD_REACTORS
330
13D2E
102
}
330
13D2E
100
AcDbXrecord
280
     1
270
     1
271
     1
  0
XRECORD
  5
156BC
102
{ACAD_REACTORS
330
156BB
102
}
330
156BB
100
AcDbXrecord
280
     1
102
ACAD_ROUNDTRIP_2012_MLEADER_STYLE
298
     1
  0
XRECORD
  5
156BE
102
{ACAD_REACTORS
330
156BD
102
}
330
156BD
100
AcDbXrecord
280
     1
102
DISPLAYNAME
  1
Metric50
102
FLAGS
 90
        0
  0
CELLSTYLEMAP
  5
15680
102
{ACAD_REACTORS
330
153FF
102
}
330
153FF
100
AcDbCellStyleMap
 90
        3
300
CELLSTYLE
  1
TABLEFORMAT_BEGIN
 90
        5
170
     1
 91
        0
 92
    32768
 62
   257
 93
        1
300
CONTENTFORMAT
  1
CONTENTFORMAT_BEGIN
 90
        0
 91
        0
 92
      512
 93
        0
300

 40
0.0
140
1.0
 94
        5
 62
     0
340
7475
144
6.0
309
CONTENTFORMAT_END
171
     1
301
MARGIN
  1
CELLMARGIN_BEGIN
 40
1.5
 40
1.5
 40
1.5
 40
1.5
 40
4.5
 40
4.5
309
CELLMARGIN_END
 94
        6
 95
        1
302
GRIDFORMAT
  1
GRIDFORMAT_BEGIN
 90
        0
 91
        1
 62
     0
 92
       -2
340
0
 93
        0
 40
1.125
309
GRIDFORMAT_END
 95
        2
302
GRIDFORMAT
  1
GRIDFORMAT_BEGIN
 90
        0
 91
        1
 62
     0
 92
       -2
340
0
 93
        0
 40
1.125
309
GRIDFORMAT_END
 95
        4
302
GRIDFORMAT
  1
GRIDFORMAT_BEGIN
 90
        0
 91
        1
 62
     0
 92
       -2
340
0
 93
        0
 40
1.125
309
GRIDFORMAT_END
 95
        8
302
GRIDFORMAT
  1
GRIDFORMAT_BEGIN
 90
        0
 91
        1
 62
     0
 92
       -2
340
0
 93
        0
 40
1.125
309
GRIDFORMAT_END
 95
       16
302
GRIDFORMAT
  1
GRIDFORMAT_BEGIN
 90
        0
 91
        1
 62
     0
 92
       -2
340
0
 93
        0
 40
1.125
309
GRIDFORMAT_END
 95
       32
302
GRIDFORMAT
  1
GRIDFORMAT_BEGIN
 90
        0
 91
        1
 62
     0
 92
       -2
340
0
 93
        0
 40
1.125
309
GRIDFORMAT_END
309
TABLEFORMAT_END
  1
CELLSTYLE_BEGIN
 90
        1
 91
        1
300
_TITLE
309
CELLSTYLE_END
300
CELLSTYLE
  1
TABLEFORMAT_BEGIN
 90
        5
170
     1
 91
        0
 92
        0
 62
   257
 93
        1
300
CONTENTFORMAT
  1
CONTENTFORMAT_BEGIN
 90
        0
 91
        0
 92
      512
 93
        0
300

 40
0.0
140
1.0
 94
        5
 62
     0
340
7475
144
4.5
309
CONTENTFORMAT_END
171
     1
301
MARGIN
  1
CELLMARGIN_BEGIN
 40
1.5
 40
1.5
 40
1.5
 40
1.5
 40
4.5
 40
4.5
309
CELLMARGIN_END
 94
        6
 95
        1
302
GRIDFORMAT
  1
GRIDFORMAT_BEGIN
 90
        0
 91
        1
 62
     0
 92
       -2
340
0
 93
        0
 40
1.125
309
GRIDFORMAT_END
 95
        2
302
GRIDFORMAT
  1
GRIDFORMAT_BEGIN
 90
        0
 91
        1
 62
     0
 92
       -2
340
0
 93
        0
 40
1.125
309
GRIDFORMAT_END
 95
        4
302
GRIDFORMAT
  1
GRIDFORMAT_BEGIN
 90
        0
 91
        1
 62
     0
 92
       -2
340
0
 93
        0
 40
1.125
309
GRIDFORMAT_END
 95
        8
302
GRIDFORMAT
  1
GRIDFORMAT_BEGIN
 90
        0
 91
        1
 62
     0
 92
       -2
340
0
 93
        0
 40
1.125
309
GRIDFORMAT_END
 95
       16
302
GRIDFORMAT
  1
GRIDFORMAT_BEGIN
 90
        0
 91
        1
 62
     0
 92
       -2
340
0
 93
        0
 40
1.125
309
GRIDFORMAT_END
 95
       32
302
GRIDFORMAT
  1
GRIDFORMAT_BEGIN
 90
        0
 91
        1
 62
     0
 92
       -2
340
0
 93
        0
 40
1.125
309
GRIDFORMAT_END
309
TABLEFORMAT_END
  1
CELLSTYLE_BEGIN
 90
        2
 91
        1
300
_HEADER
309
CELLSTYLE_END
300
CELLSTYLE
  1
TABLEFORMAT_BEGIN
 90
        5
170
     1
 91
        0
 92
        0
 62
   257
 93
        1
300
CONTENTFORMAT
  1
CONTENTFORMAT_BEGIN
 90
        0
 91
        0
 92
      512
 93
        0
300

 40
0.0
140
1.0
 94
        2
 62
     0
340
7475
144
4.5
309
CONTENTFORMAT_END
171
     1
301
MARGIN
  1
CELLMARGIN_BEGIN
 40
1.5
 40
1.5
 40
1.5
 40
1.5
 40
4.5
 40
4.5
309
CELLMARGIN_END
 94
        6
 95
        1
302
GRIDFORMAT
  1
GRIDFORMAT_BEGIN
 90
        0
 91
        1
 62
     0
 92
       -2
340
0
 93
        0
 40
1.125
309
GRIDFORMAT_END
 95
        2
302
GRIDFORMAT
  1
GRIDFORMAT_BEGIN
 90
        0
 91
        1
 62
     0
 92
       -2
340
0
 93
        0
 40
1.125
309
GRIDFORMAT_END
 95
        4
302
GRIDFORMAT
  1
GRIDFORMAT_BEGIN
 90
        0
 91
        1
 62
     0
 92
       -2
340
0
 93
        0
 40
1.125
309
GRIDFORMAT_END
 95
        8
302
GRIDFORMAT
  1
GRIDFORMAT_BEGIN
 90
        0
 91
        1
 62
     0
 92
       -2
340
0
 93
        0
 40
1.125
309
GRIDFORMAT_END
 95
       16
302
GRIDFORMAT
  1
GRIDFORMAT_BEGIN
 90
        0
 91
        1
 62
     0
 92
       -2
340
0
 93
        0
 40
1.125
309
GRIDFORMAT_END
 95
       32
302
GRIDFORMAT
  1
GRIDFORMAT_BEGIN
 90
        0
 91
        1
 62
     0
 92
       -2
340
0
 93
        0
 40
1.125
309
GRIDFORMAT_END
309
TABLEFORMAT_END
  1
CELLSTYLE_BEGIN
 90
        3
 91
        2
300
_DATA
309
CELLSTYLE_END
  0
XRECORD
  5
156BA
102
{ACAD_REACTORS
330
153FF
102
}
330
153FF
100
AcDbXrecord
280
     1
102
ACAD_ROUNDTRIP_PRE2007_TABLESTYLE
 90
      512
 91
        0
  1

 92
      512
 93
        0
  2

 94
      512
 95
        0
  3

  0
XRECORD
  5
15695
102
{ACAD_REACTORS
330
15694
102
}
330
15694
100
AcDbXrecord
280
     1
102
RTVSPost2010Prop28
280
     1
102
RTVSPost2010PropOp28
 70
     1
102
RTVSPost2010Prop29
280
     1
102
RTVSPost2010PropOp29
 70
     1
102
RTVSPost2010Prop30
280
     0
102
RTVSPost2010PropOp30
 70
     1
102
RTVSPost2010Prop31
280
     0
102
RTVSPost2010PropOp31
 70
     1
102
RTVSPost2010Prop32
280
     0
102
RTVSPost2010PropOp32
 70
     1
102
RTVSPost2010Prop33
280
     0
102
RTVSPost2010PropOp33
 70
     1
102
RTVSPost2010Prop34
280
     0
102
RTVSPost2010PropOp34
 70
     1
102
RTVSPost2010Prop35
280
     0
102
RTVSPost2010PropOp35
 70
     1
102
RTVSPost2010Prop36
280
     0
102
RTVSPost2010PropOp36
 70
     1
102
RTVSPost2010Prop37
 90
       50
102
RTVSPost2010PropOp37
 70
     1
102
RTVSPost2010Prop38
140
0.0
102
RTVSPost2010PropOp38
 70
     1
102
RTVSPost2010Prop39
140
1.0
102
RTVSPost2010PropOp39
 70
     1
102
RTVSPost2010Prop40
 90
        0
102
RTVSPost2010PropOp40
 70
     1
102
RTVSPost2010Prop41ColorIndex
 90
       18
102
RTVSPost2010Prop41ColorRGB
 90
        0
102
RTVSPost2010PropOp41
 70
     1
102
RTVSPost2010Prop42
 90
       50
102
RTVSPost2010PropOp42
 70
     1
102
RTVSPost2010Prop43
 90
        3
102
RTVSPost2010PropOp43
 70
     1
102
RTVSPost2010Prop44ColorIndex
 90
        5
102
RTVSPost2010Prop44ColorRGB
 90
      255
102
RTVSPost2010PropOp44
 70
     1
102
RTVSPost2010Prop45
280
     0
102
RTVSPost2010PropOp45
 70
     1
102
RTVSPost2010Prop46
 90
       50
102
RTVSPost2010PropOp46
 70
     1
102
RTVSPost2010Prop47
 90
       50
102
RTVSPost2010PropOp47
 70
     1
102
RTVSPost2010Prop48
 90
       50
102
RTVSPost2010PropOp48
 70
     1
102
RTVSPost2010Prop49
280
     0
102
RTVSPost2010PropOp49
 70
     1
102
RTVSPost2010Prop50
 90
       50
102
RTVSPost2010PropOp50
 70
     1
102
RTVSPost2010Prop51ColorIndex
 90
      256
102
RTVSPost2010Prop51ColorRGB
 90
-16777216
102
RTVSPost2010PropOp51
 70
     0
102
RTVSPost2010Prop52
140
1.0
102
RTVSPost2010PropOp52
 70
     0
102
RTVSPost2010Prop53
 90
        2
102
RTVSPost2010PropOp53
 70
     1
102
RTVSPost2010Prop54
  1
strokes_ogs.tif
102
RTVSPost2010PropOp54
 70
     1
102
RTVSPost2010Prop55
280
     0
102
RTVSPost2010PropOp55
 70
     1
102
RTVSPost2010Prop56
140
1.0
102
RTVSPost2010PropOp56
 70
     1
102
RTVSPost2010Prop57
140
1.0
102
RTVSPost2010PropOp57
 70
     1
102
RTVSPropertyOp0
 70
     1
102
RTVSPropertyOp1
 70
     1
102
RTVSPropertyOp2
 70
     1
102
RTVSPropertyOp3
 70
     1
102
RTVSPropertyOp4
 70
     1
102
RTVSPropertyOp5
 70
     1
102
RTVSPropertyOp6
 70
     1
102
RTVSPropertyOp7
 70
     1
102
RTVSPropertyOp8
 70
     1
102
RTVSPropertyOp9
 70
     1
102
RTVSPropertyOp10
 70
     1
102
RTVSPropertyOp11
 70
     1
102
RTVSPropertyOp12
 70
     1
102
RTVSPropertyOp13
 70
     1
102
RTVSPropertyOp14
 70
     1
102
RTVSPropertyOp15
 70
     1
102
RTVSPropertyOp16
 70
     1
102
RTVSPropertyOp17
 70
     1
102
RTVSPropertyOp18
 70
     1
102
RTVSPropertyOp19
 70
     1
102
RTVSPropertyOp20
 70
     1
102
RTVSPropertyOp21
 70
     1
102
RTVSPropertyOp22
 70
     1
102
RTVSPropertyOp23
 70
     1
102
RTVSPropertyOp24
 70
     1
102
RTVSPropertyOp25
 70
     1
102
RTVSPropertyOp26
 70
     1
102
RTVSPropertyOp27
 70
     1
102
RTVSPropertyOp28
 70
     1
102
RTVSPropertyOp29
 70
     1
102
RTVSPropertyOp30
 70
     1
102
RTVSPropertyOp31
 70
     1
102
RTVSPropertyOp32
 70
     1
102
RTVSPropertyOp33
 70
     1
102
RTVSPropertyOp34
 70
     1
102
RTVSPropertyOp35
 70
     1
102
RTVSPropertyOp36
 70
     1
102
RTVSPropertyOp37
 70
     1
102
RTVSPropertyOp38
 70
     1
102
RTVSPropertyOp39
 70
     1
102
RTVSPropertyOp40
 70
     1
102
RTVSPropertyOp41
 70
     1
102
RTVSPropertyOp42
 70
     1
102
RTVSPropertyOp43
 70
     1
102
RTVSPropertyOp44
 70
     1
102
RTVSPropertyOp45
 70
     1
102
RTVSPropertyOp46
 70
     1
102
RTVSPropertyOp47
 70
     1
102
RTVSPropertyOp48
 70
     1
102
RTVSPropertyOp49
 70
     1
102
RTVSPropertyOp50
 70
     1
102
RTVSPropertyOp51
 70
     0
102
RTVSPropertyOp52
 70
     0
102
RTVSPropertyOp53
 70
     1
102
RTVSPropertyOp54
 70
     1
102
RTVSPropertyOp55
 70
     1
102
RTVSPropertyOp56
 70
     1
102
RTVSPropertyOp57
 70
     1
102
RTVSPropertyOp58
 70
     1
102
RTVSPropertyOp59
 70
     1
102
RTVSPropertyOp60
 70
     1
102
RTVSPropertyOp61
 70
     1
102
RTVSPropertyOp62
 70
     1
  0
XRECORD
  5
15693
102
{ACAD_REACTORS
330
15692
102
}
330
15692
100
AcDbXrecord
280
     1
102
RTVSPost2010Prop28
280
     0
102
RTVSPost2010PropOp28
 70
     1
102
RTVSPost2010Prop29
280
     1
102
RTVSPost2010PropOp29
 70
     1
102
RTVSPost2010Prop30
280
     1
102
RTVSPost2010PropOp30
 70
     1
102
RTVSPost2010Prop31
280
     0
102
RTVSPost2010PropOp31
 70
     1
102
RTVSPost2010Prop32
280
     0
102
RTVSPost2010PropOp32
 70
     1
102
RTVSPost2010Prop33
280
     0
102
RTVSPost2010PropOp33
 70
     1
102
RTVSPost2010Prop34
280
     0
102
RTVSPost2010PropOp34
 70
     1
102
RTVSPost2010Prop35
280
     0
102
RTVSPost2010PropOp35
 70
     1
102
RTVSPost2010Prop36
280
     0
102
RTVSPost2010PropOp36
 70
     1
102
RTVSPost2010Prop37
 90
       50
102
RTVSPost2010PropOp37
 70
     1
102
RTVSPost2010Prop38
140
0.0
102
RTVSPost2010PropOp38
 70
     1
102
RTVSPost2010Prop39
140
1.0
102
RTVSPost2010PropOp39
 70
     1
102
RTVSPost2010Prop40
 90
        0
102
RTVSPost2010PropOp40
 70
     1
102
RTVSPost2010Prop41ColorIndex
 90
       18
102
RTVSPost2010Prop41ColorRGB
 90
        0
102
RTVSPost2010PropOp41
 70
     1
102
RTVSPost2010Prop42
 90
       50
102
RTVSPost2010PropOp42
 70
     1
102
RTVSPost2010Prop43
 90
        3
102
RTVSPost2010PropOp43
 70
     1
102
RTVSPost2010Prop44ColorIndex
 90
        5
102
RTVSPost2010Prop44ColorRGB
 90
      255
102
RTVSPost2010PropOp44
 70
     1
102
RTVSPost2010Prop45
280
     0
102
RTVSPost2010PropOp45
 70
     1
102
RTVSPost2010Prop46
 90
       50
102
RTVSPost2010PropOp46
 70
     1
102
RTVSPost2010Prop47
 90
       50
102
RTVSPost2010PropOp47
 70
     1
102
RTVSPost2010Prop48
 90
       50
102
RTVSPost2010PropOp48
 70
     1
102
RTVSPost2010Prop49
280
     0
102
RTVSPost2010PropOp49
 70
     1
102
RTVSPost2010Prop50
 90
       50
102
RTVSPost2010PropOp50
 70
     1
102
RTVSPost2010Prop51ColorIndex
 90
      256
102
RTVSPost2010Prop51ColorRGB
 90
-16777216
102
RTVSPost2010PropOp51
 70
     0
102
RTVSPost2010Prop52
140
1.0
102
RTVSPost2010PropOp52
 70
     0
102
RTVSPost2010Prop53
 90
        2
102
RTVSPost2010PropOp53
 70
     1
102
RTVSPost2010Prop54
  1
strokes_ogs.tif
102
RTVSPost2010PropOp54
 70
     1
102
RTVSPost2010Prop55
280
     0
102
RTVSPost2010PropOp55
 70
     1
102
RTVSPost2010Prop56
140
1.0
102
RTVSPost2010PropOp56
 70
     1
102
RTVSPost2010Prop57
140
1.0
102
RTVSPost2010PropOp57
 70
     1
102
RTVSPropertyOp0
 70
     1
102
RTVSPropertyOp1
 70
     1
102
RTVSPropertyOp2
 70
     1
102
RTVSPropertyOp3
 70
     1
102
RTVSPropertyOp4
 70
     1
102
RTVSPropertyOp5
 70
     1
102
RTVSPropertyOp6
 70
     1
102
RTVSPropertyOp7
 70
     1
102
RTVSPropertyOp8
 70
     1
102
RTVSPropertyOp9
 70
     1
102
RTVSPropertyOp10
 70
     1
102
RTVSPropertyOp11
 70
     1
102
RTVSPropertyOp12
 70
     1
102
RTVSPropertyOp13
 70
     1
102
RTVSPropertyOp14
 70
     1
102
RTVSPropertyOp15
 70
     1
102
RTVSPropertyOp16
 70
     1
102
RTVSPropertyOp17
 70
     1
102
RTVSPropertyOp18
 70
     1
102
RTVSPropertyOp19
 70
     1
102
RTVSPropertyOp20
 70
     1
102
RTVSPropertyOp21
 70
     1
102
RTVSPropertyOp22
 70
     1
102
RTVSPropertyOp23
 70
     1
102
RTVSPropertyOp24
 70
     1
102
RTVSPropertyOp25
 70
     1
102
RTVSPropertyOp26
 70
     1
102
RTVSPropertyOp27
 70
     1
102
RTVSPropertyOp28
 70
     1
102
RTVSPropertyOp29
 70
     1
102
RTVSPropertyOp30
 70
     1
102
RTVSPropertyOp31
 70
     1
102
RTVSPropertyOp32
 70
     1
102
RTVSPropertyOp33
 70
     1
102
RTVSPropertyOp34
 70
     1
102
RTVSPropertyOp35
 70
     1
102
RTVSPropertyOp36
 70
     1
102
RTVSPropertyOp37
 70
     1
102
RTVSPropertyOp38
 70
     1
102
RTVSPropertyOp39
 70
     1
102
RTVSPropertyOp40
 70
     1
102
RTVSPropertyOp41
 70
     1
102
RTVSPropertyOp42
 70
     1
102
RTVSPropertyOp43
 70
     1
102
RTVSPropertyOp44
 70
     1
102
RTVSPropertyOp45
 70
     1
102
RTVSPropertyOp46
 70
     1
102
RTVSPropertyOp47
 70
     1
102
RTVSPropertyOp48
 70
     1
102
RTVSPropertyOp49
 70
     1
102
RTVSPropertyOp50
 70
     1
102
RTVSPropertyOp51
 70
     0
102
RTVSPropertyOp52
 70
     0
102
RTVSPropertyOp53
 70
     1
102
RTVSPropertyOp54
 70
     1
102
RTVSPropertyOp55
 70
     1
102
RTVSPropertyOp56
 70
     1
102
RTVSPropertyOp57
 70
     1
102
RTVSPropertyOp58
 70
     1
102
RTVSPropertyOp59
 70
     1
102
RTVSPropertyOp60
 70
     1
102
RTVSPropertyOp61
 70
     1
102
RTVSPropertyOp62
 70
     1
  0
XRECORD
  5
156A1
102
{ACAD_REACTORS
330
156A0
102
}
330
156A0
100
AcDbXrecord
280
     1
102
RTVSPost2010Prop28
280
     0
102
RTVSPost2010PropOp28
 70
     1
102
RTVSPost2010Prop29
280
     1
102
RTVSPost2010PropOp29
 70
     1
102
RTVSPost2010Prop30
280
     1
102
RTVSPost2010PropOp30
 70
     1
102
RTVSPost2010Prop31
280
     0
102
RTVSPost2010PropOp31
 70
     1
102
RTVSPost2010Prop32
280
     0
102
RTVSPost2010PropOp32
 70
     1
102
RTVSPost2010Prop33
280
     0
102
RTVSPost2010PropOp33
 70
     1
102
RTVSPost2010Prop34
280
     0
102
RTVSPost2010PropOp34
 70
     1
102
RTVSPost2010Prop35
280
     0
102
RTVSPost2010PropOp35
 70
     1
102
RTVSPost2010Prop36
280
     0
102
RTVSPost2010PropOp36
 70
     1
102
RTVSPost2010Prop37
 90
       50
102
RTVSPost2010PropOp37
 70
     1
102
RTVSPost2010Prop38
140
0.0
102
RTVSPost2010PropOp38
 70
     1
102
RTVSPost2010Prop39
140
1.0
102
RTVSPost2010PropOp39
 70
     1
102
RTVSPost2010Prop40
 90
        0
102
RTVSPost2010PropOp40
 70
     1
102
RTVSPost2010Prop41ColorIndex
 90
       18
102
RTVSPost2010Prop41ColorRGB
 90
        0
102
RTVSPost2010PropOp41
 70
     1
102
RTVSPost2010Prop42
 90
       50
102
RTVSPost2010PropOp42
 70
     1
102
RTVSPost2010Prop43
 90
        3
102
RTVSPost2010PropOp43
 70
     1
102
RTVSPost2010Prop44ColorIndex
 90
        5
102
RTVSPost2010Prop44ColorRGB
 90
      255
102
RTVSPost2010PropOp44
 70
     1
102
RTVSPost2010Prop45
280
     0
102
RTVSPost2010PropOp45
 70
     1
102
RTVSPost2010Prop46
 90
       50
102
RTVSPost2010PropOp46
 70
     1
102
RTVSPost2010Prop47
 90
       50
102
RTVSPost2010PropOp47
 70
     1
102
RTVSPost2010Prop48
 90
       50
102
RTVSPost2010PropOp48
 70
     1
102
RTVSPost2010Prop49
280
     0
102
RTVSPost2010PropOp49
 70
     1
102
RTVSPost2010Prop50
 90
       50
102
RTVSPost2010PropOp50
 70
     1
102
RTVSPost2010Prop51ColorIndex
 90
      256
102
RTVSPost2010Prop51ColorRGB
 90
-16777216
102
RTVSPost2010PropOp51
 70
     0
102
RTVSPost2010Prop52
140
1.0
102
RTVSPost2010PropOp52
 70
     0
102
RTVSPost2010Prop53
 90
        2
102
RTVSPost2010PropOp53
 70
     1
102
RTVSPost2010Prop54
  1
strokes_ogs.tif
102
RTVSPost2010PropOp54
 70
     1
102
RTVSPost2010Prop55
280
     0
102
RTVSPost2010PropOp55
 70
     1
102
RTVSPost2010Prop56
140
1.0
102
RTVSPost2010PropOp56
 70
     1
102
RTVSPost2010Prop57
140
1.0
102
RTVSPost2010PropOp57
 70
     1
102
RTVSPropertyOp0
 70
     1
102
RTVSPropertyOp1
 70
     1
102
RTVSPropertyOp2
 70
     1
102
RTVSPropertyOp3
 70
     1
102
RTVSPropertyOp4
 70
     1
102
RTVSPropertyOp5
 70
     1
102
RTVSPropertyOp6
 70
     1
102
RTVSPropertyOp7
 70
     1
102
RTVSPropertyOp8
 70
     1
102
RTVSPropertyOp9
 70
     1
102
RTVSPropertyOp10
 70
     1
102
RTVSPropertyOp11
 70
     1
102
RTVSPropertyOp12
 70
     1
102
RTVSPropertyOp13
 70
     1
102
RTVSPropertyOp14
 70
     1
102
RTVSPropertyOp15
 70
     1
102
RTVSPropertyOp16
 70
     1
102
RTVSPropertyOp17
 70
     1
102
RTVSPropertyOp18
 70
     1
102
RTVSPropertyOp19
 70
     1
102
RTVSPropertyOp20
 70
     1
102
RTVSPropertyOp21
 70
     1
102
RTVSPropertyOp22
 70
     1
102
RTVSPropertyOp23
 70
     1
102
RTVSPropertyOp24
 70
     1
102
RTVSPropertyOp25
 70
     1
102
RTVSPropertyOp26
 70
     1
102
RTVSPropertyOp27
 70
     1
102
RTVSPropertyOp28
 70
     1
102
RTVSPropertyOp29
 70
     1
102
RTVSPropertyOp30
 70
     1
102
RTVSPropertyOp31
 70
     1
102
RTVSPropertyOp32
 70
     1
102
RTVSPropertyOp33
 70
     1
102
RTVSPropertyOp34
 70
     1
102
RTVSPropertyOp35
 70
     1
102
RTVSPropertyOp36
 70
     1
102
RTVSPropertyOp37
 70
     1
102
RTVSPropertyOp38
 70
     1
102
RTVSPropertyOp39
 70
     1
102
RTVSPropertyOp40
 70
     1
102
RTVSPropertyOp41
 70
     1
102
RTVSPropertyOp42
 70
     1
102
RTVSPropertyOp43
 70
     1
102
RTVSPropertyOp44
 70
     1
102
RTVSPropertyOp45
 70
     1
102
RTVSPropertyOp46
 70
     1
102
RTVSPropertyOp47
 70
     1
102
RTVSPropertyOp48
 70
     1
102
RTVSPropertyOp49
 70
     1
102
RTVSPropertyOp50
 70
     1
102
RTVSPropertyOp51
 70
     0
102
RTVSPropertyOp52
 70
     0
102
RTVSPropertyOp53
 70
     1
102
RTVSPropertyOp54
 70
     1
102
RTVSPropertyOp55
 70
     1
102
RTVSPropertyOp56
 70
     1
102
RTVSPropertyOp57
 70
     1
102
RTVSPropertyOp58
 70
     1
102
RTVSPropertyOp59
 70
     1
102
RTVSPropertyOp60
 70
     1
102
RTVSPropertyOp61
 70
     1
102
RTVSPropertyOp62
 70
     1
  0
XRECORD
  5
156A9
102
{ACAD_REACTORS
330
156A8
102
}
330
156A8
100
AcDbXrecord
280
     1
102
RTVSPost2010Prop28
280
     0
102
RTVSPost2010PropOp28
 70
     1
102
RTVSPost2010Prop29
280
     1
102
RTVSPost2010PropOp29
 70
     1
102
RTVSPost2010Prop30
280
     1
102
RTVSPost2010PropOp30
 70
     1
102
RTVSPost2010Prop31
280
     0
102
RTVSPost2010PropOp31
 70
     1
102
RTVSPost2010Prop32
280
     0
102
RTVSPost2010PropOp32
 70
     1
102
RTVSPost2010Prop33
280
     0
102
RTVSPost2010PropOp33
 70
     1
102
RTVSPost2010Prop34
280
     0
102
RTVSPost2010PropOp34
 70
     1
102
RTVSPost2010Prop35
280
     0
102
RTVSPost2010PropOp35
 70
     1
102
RTVSPost2010Prop36
280
     0
102
RTVSPost2010PropOp36
 70
     1
102
RTVSPost2010Prop37
 90
       50
102
RTVSPost2010PropOp37
 70
     1
102
RTVSPost2010Prop38
140
0.0
102
RTVSPost2010PropOp38
 70
     1
102
RTVSPost2010Prop39
140
1.0
102
RTVSPost2010PropOp39
 70
     1
102
RTVSPost2010Prop40
 90
        0
102
RTVSPost2010PropOp40
 70
     1
102
RTVSPost2010Prop41ColorIndex
 90
       18
102
RTVSPost2010Prop41ColorRGB
 90
        0
102
RTVSPost2010PropOp41
 70
     1
102
RTVSPost2010Prop42
 90
       50
102
RTVSPost2010PropOp42
 70
     1
102
RTVSPost2010Prop43
 90
        3
102
RTVSPost2010PropOp43
 70
     1
102
RTVSPost2010Prop44ColorIndex
 90
        5
102
RTVSPost2010Prop44ColorRGB
 90
      255
102
RTVSPost2010PropOp44
 70
     1
102
RTVSPost2010Prop45
280
     0
102
RTVSPost2010PropOp45
 70
     1
102
RTVSPost2010Prop46
 90
       50
102
RTVSPost2010PropOp46
 70
     1
102
RTVSPost2010Prop47
 90
       50
102
RTVSPost2010PropOp47
 70
     1
102
RTVSPost2010Prop48
 90
       50
102
RTVSPost2010PropOp48
 70
     1
102
RTVSPost2010Prop49
280
     0
102
RTVSPost2010PropOp49
 70
     1
102
RTVSPost2010Prop50
 90
       50
102
RTVSPost2010PropOp50
 70
     1
102
RTVSPost2010Prop51ColorIndex
 90
      256
102
RTVSPost2010Prop51ColorRGB
 90
-16777216
102
RTVSPost2010PropOp51
 70
     0
102
RTVSPost2010Prop52
140
1.0
102
RTVSPost2010PropOp52
 70
     0
102
RTVSPost2010Prop53
 90
        2
102
RTVSPost2010PropOp53
 70
     1
102
RTVSPost2010Prop54
  1
strokes_ogs.tif
102
RTVSPost2010PropOp54
 70
     1
102
RTVSPost2010Prop55
280
     0
102
RTVSPost2010PropOp55
 70
     1
102
RTVSPost2010Prop56
140
1.0
102
RTVSPost2010PropOp56
 70
     1
102
RTVSPost2010Prop57
140
1.0
102
RTVSPost2010PropOp57
 70
     1
102
RTVSPropertyOp0
 70
     1
102
RTVSPropertyOp1
 70
     1
102
RTVSPropertyOp2
 70
     1
102
RTVSPropertyOp3
 70
     1
102
RTVSPropertyOp4
 70
     1
102
RTVSPropertyOp5
 70
     1
102
RTVSPropertyOp6
 70
     1
102
RTVSPropertyOp7
 70
     1
102
RTVSPropertyOp8
 70
     1
102
RTVSPropertyOp9
 70
     1
102
RTVSPropertyOp10
 70
     1
102
RTVSPropertyOp11
 70
     1
102
RTVSPropertyOp12
 70
     1
102
RTVSPropertyOp13
 70
     1
102
RTVSPropertyOp14
 70
     1
102
RTVSPropertyOp15
 70
     1
102
RTVSPropertyOp16
 70
     1
102
RTVSPropertyOp17
 70
     1
102
RTVSPropertyOp18
 70
     1
102
RTVSPropertyOp19
 70
     1
102
RTVSPropertyOp20
 70
     1
102
RTVSPropertyOp21
 70
     1
102
RTVSPropertyOp22
 70
     1
102
RTVSPropertyOp23
 70
     1
102
RTVSPropertyOp24
 70
     1
102
RTVSPropertyOp25
 70
     1
102
RTVSPropertyOp26
 70
     1
102
RTVSPropertyOp27
 70
     1
102
RTVSPropertyOp28
 70
     1
102
RTVSPropertyOp29
 70
     1
102
RTVSPropertyOp30
 70
     1
102
RTVSPropertyOp31
 70
     1
102
RTVSPropertyOp32
 70
     1
102
RTVSPropertyOp33
 70
     1
102
RTVSPropertyOp34
 70
     1
102
RTVSPropertyOp35
 70
     1
102
RTVSPropertyOp36
 70
     1
102
RTVSPropertyOp37
 70
     1
102
RTVSPropertyOp38
 70
     1
102
RTVSPropertyOp39
 70
     1
102
RTVSPropertyOp40
 70
     1
102
RTVSPropertyOp41
 70
     1
102
RTVSPropertyOp42
 70
     1
102
RTVSPropertyOp43
 70
     1
102
RTVSPropertyOp44
 70
     1
102
RTVSPropertyOp45
 70
     1
102
RTVSPropertyOp46
 70
     1
102
RTVSPropertyOp47
 70
     1
102
RTVSPropertyOp48
 70
     1
102
RTVSPropertyOp49
 70
     1
102
RTVSPropertyOp50
 70
     1
102
RTVSPropertyOp51
 70
     0
102
RTVSPropertyOp52
 70
     0
102
RTVSPropertyOp53
 70
     1
102
RTVSPropertyOp54
 70
     1
102
RTVSPropertyOp55
 70
     1
102
RTVSPropertyOp56
 70
     1
102
RTVSPropertyOp57
 70
     1
102
RTVSPropertyOp58
 70
     1
102
RTVSPropertyOp59
 70
     1
102
RTVSPropertyOp60
 70
     1
102
RTVSPropertyOp61
 70
     1
102
RTVSPropertyOp62
 70
     1
  0
XRECORD
  5
1569B
102
{ACAD_REACTORS
330
1569A
102
}
330
1569A
100
AcDbXrecord
280
     1
102
RTVSPost2010Prop28
280
     0
102
RTVSPost2010PropOp28
 70
     1
102
RTVSPost2010Prop29
280
     1
102
RTVSPost2010PropOp29
 70
     1
102
RTVSPost2010Prop30
280
     1
102
RTVSPost2010PropOp30
 70
     1
102
RTVSPost2010Prop31
280
     0
102
RTVSPost2010PropOp31
 70
     1
102
RTVSPost2010Prop32
280
     0
102
RTVSPost2010PropOp32
 70
     1
102
RTVSPost2010Prop33
280
     0
102
RTVSPost2010PropOp33
 70
     1
102
RTVSPost2010Prop34
280
     0
102
RTVSPost2010PropOp34
 70
     1
102
RTVSPost2010Prop35
280
     0
102
RTVSPost2010PropOp35
 70
     1
102
RTVSPost2010Prop36
280
     0
102
RTVSPost2010PropOp36
 70
     1
102
RTVSPost2010Prop37
 90
       50
102
RTVSPost2010PropOp37
 70
     1
102
RTVSPost2010Prop38
140
0.0
102
RTVSPost2010PropOp38
 70
     1
102
RTVSPost2010Prop39
140
1.0
102
RTVSPost2010PropOp39
 70
     1
102
RTVSPost2010Prop40
 90
        0
102
RTVSPost2010PropOp40
 70
     1
102
RTVSPost2010Prop41ColorIndex
 90
       18
102
RTVSPost2010Prop41ColorRGB
 90
        0
102
RTVSPost2010PropOp41
 70
     1
102
RTVSPost2010Prop42
 90
       50
102
RTVSPost2010PropOp42
 70
     1
102
RTVSPost2010Prop43
 90
        3
102
RTVSPost2010PropOp43
 70
     1
102
RTVSPost2010Prop44ColorIndex
 90
        5
102
RTVSPost2010Prop44ColorRGB
 90
      255
102
RTVSPost2010PropOp44
 70
     1
102
RTVSPost2010Prop45
280
     0
102
RTVSPost2010PropOp45
 70
     1
102
RTVSPost2010Prop46
 90
       50
102
RTVSPost2010PropOp46
 70
     1
102
RTVSPost2010Prop47
 90
       50
102
RTVSPost2010PropOp47
 70
     1
102
RTVSPost2010Prop48
 90
       50
102
RTVSPost2010PropOp48
 70
     1
102
RTVSPost2010Prop49
280
     0
102
RTVSPost2010PropOp49
 70
     1
102
RTVSPost2010Prop50
 90
       50
102
RTVSPost2010PropOp50
 70
     1
102
RTVSPost2010Prop51ColorIndex
 90
      256
102
RTVSPost2010Prop51ColorRGB
 90
-16777216
102
RTVSPost2010PropOp51
 70
     0
102
RTVSPost2010Prop52
140
1.0
102
RTVSPost2010PropOp52
 70
     0
102
RTVSPost2010Prop53
 90
        2
102
RTVSPost2010PropOp53
 70
     1
102
RTVSPost2010Prop54
  1
strokes_ogs.tif
102
RTVSPost2010PropOp54
 70
     1
102
RTVSPost2010Prop55
280
     0
102
RTVSPost2010PropOp55
 70
     1
102
RTVSPost2010Prop56
140
1.0
102
RTVSPost2010PropOp56
 70
     1
102
RTVSPost2010Prop57
140
1.0
102
RTVSPost2010PropOp57
 70
     1
102
RTVSPropertyOp0
 70
     1
102
RTVSPropertyOp1
 70
     1
102
RTVSPropertyOp2
 70
     1
102
RTVSPropertyOp3
 70
     1
102
RTVSPropertyOp4
 70
     1
102
RTVSPropertyOp5
 70
     1
102
RTVSPropertyOp6
 70
     1
102
RTVSPropertyOp7
 70
     1
102
RTVSPropertyOp8
 70
     1
102
RTVSPropertyOp9
 70
     1
102
RTVSPropertyOp10
 70
     1
102
RTVSPropertyOp11
 70
     1
102
RTVSPropertyOp12
 70
     1
102
RTVSPropertyOp13
 70
     1
102
RTVSPropertyOp14
 70
     1
102
RTVSPropertyOp15
 70
     1
102
RTVSPropertyOp16
 70
     1
102
RTVSPropertyOp17
 70
     1
102
RTVSPropertyOp18
 70
     1
102
RTVSPropertyOp19
 70
     1
102
RTVSPropertyOp20
 70
     1
102
RTVSPropertyOp21
 70
     1
102
RTVSPropertyOp22
 70
     1
102
RTVSPropertyOp23
 70
     1
102
RTVSPropertyOp24
 70
     1
102
RTVSPropertyOp25
 70
     1
102
RTVSPropertyOp26
 70
     1
102
RTVSPropertyOp27
 70
     1
102
RTVSPropertyOp28
 70
     1
102
RTVSPropertyOp29
 70
     1
102
RTVSPropertyOp30
 70
     1
102
RTVSPropertyOp31
 70
     1
102
RTVSPropertyOp32
 70
     1
102
RTVSPropertyOp33
 70
     1
102
RTVSPropertyOp34
 70
     1
102
RTVSPropertyOp35
 70
     1
102
RTVSPropertyOp36
 70
     1
102
RTVSPropertyOp37
 70
     1
102
RTVSPropertyOp38
 70
     1
102
RTVSPropertyOp39
 70
     1
102
RTVSPropertyOp40
 70
     1
102
RTVSPropertyOp41
 70
     1
102
RTVSPropertyOp42
 70
     1
102
RTVSPropertyOp43
 70
     1
102
RTVSPropertyOp44
 70
     1
102
RTVSPropertyOp45
 70
     1
102
RTVSPropertyOp46
 70
     1
102
RTVSPropertyOp47
 70
     1
102
RTVSPropertyOp48
 70
     1
102
RTVSPropertyOp49
 70
     1
102
RTVSPropertyOp50
 70
     1
102
RTVSPropertyOp51
 70
     0
102
RTVSPropertyOp52
 70
     0
102
RTVSPropertyOp53
 70
     1
102
RTVSPropertyOp54
 70
     1
102
RTVSPropertyOp55
 70
     1
102
RTVSPropertyOp56
 70
     1
102
RTVSPropertyOp57
 70
     1
102
RTVSPropertyOp58
 70
     1
102
RTVSPropertyOp59
 70
     1
102
RTVSPropertyOp60
 70
     1
102
RTVSPropertyOp61
 70
     1
102
RTVSPropertyOp62
 70
     1
  0
XRECORD
  5
1569F
102
{ACAD_REACTORS
330
1569E
102
}
330
1569E
100
AcDbXrecord
280
     1
102
RTVSPost2010Prop28
280
     0
102
RTVSPost2010PropOp28
 70
     1
102
RTVSPost2010Prop29
280
     1
102
RTVSPost2010PropOp29
 70
     1
102
RTVSPost2010Prop30
280
     1
102
RTVSPost2010PropOp30
 70
     1
102
RTVSPost2010Prop31
280
     0
102
RTVSPost2010PropOp31
 70
     1
102
RTVSPost2010Prop32
280
     0
102
RTVSPost2010PropOp32
 70
     1
102
RTVSPost2010Prop33
280
     0
102
RTVSPost2010PropOp33
 70
     1
102
RTVSPost2010Prop34
280
     0
102
RTVSPost2010PropOp34
 70
     1
102
RTVSPost2010Prop35
280
     0
102
RTVSPost2010PropOp35
 70
     1
102
RTVSPost2010Prop36
280
     0
102
RTVSPost2010PropOp36
 70
     1
102
RTVSPost2010Prop37
 90
       50
102
RTVSPost2010PropOp37
 70
     1
102
RTVSPost2010Prop38
140
0.0
102
RTVSPost2010PropOp38
 70
     1
102
RTVSPost2010Prop39
140
1.0
102
RTVSPost2010PropOp39
 70
     1
102
RTVSPost2010Prop40
 90
        0
102
RTVSPost2010PropOp40
 70
     1
102
RTVSPost2010Prop41ColorIndex
 90
       18
102
RTVSPost2010Prop41ColorRGB
 90
        0
102
RTVSPost2010PropOp41
 70
     1
102
RTVSPost2010Prop42
 90
       50
102
RTVSPost2010PropOp42
 70
     1
102
RTVSPost2010Prop43
 90
        3
102
RTVSPost2010PropOp43
 70
     1
102
RTVSPost2010Prop44ColorIndex
 90
        5
102
RTVSPost2010Prop44ColorRGB
 90
      255
102
RTVSPost2010PropOp44
 70
     1
102
RTVSPost2010Prop45
280
     0
102
RTVSPost2010PropOp45
 70
     1
102
RTVSPost2010Prop46
 90
       50
102
RTVSPost2010PropOp46
 70
     1
102
RTVSPost2010Prop47
 90
       50
102
RTVSPost2010PropOp47
 70
     1
102
RTVSPost2010Prop48
 90
       50
102
RTVSPost2010PropOp48
 70
     1
102
RTVSPost2010Prop49
280
     0
102
RTVSPost2010PropOp49
 70
     1
102
RTVSPost2010Prop50
 90
       50
102
RTVSPost2010PropOp50
 70
     1
102
RTVSPost2010Prop51ColorIndex
 90
      256
102
RTVSPost2010Prop51ColorRGB
 90
-16777216
102
RTVSPost2010PropOp51
 70
     0
102
RTVSPost2010Prop52
140
1.0
102
RTVSPost2010PropOp52
 70
     0
102
RTVSPost2010Prop53
 90
        2
102
RTVSPost2010PropOp53
 70
     1
102
RTVSPost2010Prop54
  1
strokes_ogs.tif
102
RTVSPost2010PropOp54
 70
     1
102
RTVSPost2010Prop55
280
     0
102
RTVSPost2010PropOp55
 70
     1
102
RTVSPost2010Prop56
140
1.0
102
RTVSPost2010PropOp56
 70
     1
102
RTVSPost2010Prop57
140
1.0
102
RTVSPost2010PropOp57
 70
     1
102
RTVSPropertyOp0
 70
     1
102
RTVSPropertyOp1
 70
     1
102
RTVSPropertyOp2
 70
     1
102
RTVSPropertyOp3
 70
     1
102
RTVSPropertyOp4
 70
     1
102
RTVSPropertyOp5
 70
     1
102
RTVSPropertyOp6
 70
     1
102
RTVSPropertyOp7
 70
     1
102
RTVSPropertyOp8
 70
     1
102
RTVSPropertyOp9
 70
     1
102
RTVSPropertyOp10
 70
     1
102
RTVSPropertyOp11
 70
     1
102
RTVSPropertyOp12
 70
     1
102
RTVSPropertyOp13
 70
     1
102
RTVSPropertyOp14
 70
     1
102
RTVSPropertyOp15
 70
     1
102
RTVSPropertyOp16
 70
     1
102
RTVSPropertyOp17
 70
     1
102
RTVSPropertyOp18
 70
     1
102
RTVSPropertyOp19
 70
     1
102
RTVSPropertyOp20
 70
     1
102
RTVSPropertyOp21
 70
     1
102
RTVSPropertyOp22
 70
     1
102
RTVSPropertyOp23
 70
     1
102
RTVSPropertyOp24
 70
     1
102
RTVSPropertyOp25
 70
     1
102
RTVSPropertyOp26
 70
     1
102
RTVSPropertyOp27
 70
     1
102
RTVSPropertyOp28
 70
     1
102
RTVSPropertyOp29
 70
     1
102
RTVSPropertyOp30
 70
     1
102
RTVSPropertyOp31
 70
     1
102
RTVSPropertyOp32
 70
     1
102
RTVSPropertyOp33
 70
     1
102
RTVSPropertyOp34
 70
     1
102
RTVSPropertyOp35
 70
     1
102
RTVSPropertyOp36
 70
     1
102
RTVSPropertyOp37
 70
     1
102
RTVSPropertyOp38
 70
     1
102
RTVSPropertyOp39
 70
     1
102
RTVSPropertyOp40
 70
     1
102
RTVSPropertyOp41
 70
     1
102
RTVSPropertyOp42
 70
     1
102
RTVSPropertyOp43
 70
     1
102
RTVSPropertyOp44
 70
     1
102
RTVSPropertyOp45
 70
     1
102
RTVSPropertyOp46
 70
     1
102
RTVSPropertyOp47
 70
     1
102
RTVSPropertyOp48
 70
     1
102
RTVSPropertyOp49
 70
     1
102
RTVSPropertyOp50
 70
     1
102
RTVSPropertyOp51
 70
     0
102
RTVSPropertyOp52
 70
     0
102
RTVSPropertyOp53
 70
     1
102
RTVSPropertyOp54
 70
     1
102
RTVSPropertyOp55
 70
     1
102
RTVSPropertyOp56
 70
     1
102
RTVSPropertyOp57
 70
     1
102
RTVSPropertyOp58
 70
     1
102
RTVSPropertyOp59
 70
     1
102
RTVSPropertyOp60
 70
     1
102
RTVSPropertyOp61
 70
     1
102
RTVSPropertyOp62
 70
     1
  0
XRECORD
  5
156B9
102
{ACAD_REACTORS
330
156B8
102
}
330
156B8
100
AcDbXrecord
280
     1
102
RTVSPost2010Prop28
280
     0
102
RTVSPost2010PropOp28
 70
     0
102
RTVSPost2010Prop29
280
     1
102
RTVSPost2010PropOp29
 70
     0
102
RTVSPost2010Prop30
280
     1
102
RTVSPost2010PropOp30
 70
     0
102
RTVSPost2010Prop31
280
     0
102
RTVSPost2010PropOp31
 70
     0
102
RTVSPost2010Prop32
280
     0
102
RTVSPost2010PropOp32
 70
     0
102
RTVSPost2010Prop33
280
     0
102
RTVSPost2010PropOp33
 70
     0
102
RTVSPost2010Prop34
280
     0
102
RTVSPost2010PropOp34
 70
     0
102
RTVSPost2010Prop35
280
     0
102
RTVSPost2010PropOp35
 70
     0
102
RTVSPost2010Prop36
280
     0
102
RTVSPost2010PropOp36
 70
     0
102
RTVSPost2010Prop37
 90
       50
102
RTVSPost2010PropOp37
 70
     0
102
RTVSPost2010Prop38
140
0.0
102
RTVSPost2010PropOp38
 70
     0
102
RTVSPost2010Prop39
140
1.0
102
RTVSPost2010PropOp39
 70
     0
102
RTVSPost2010Prop40
 90
        0
102
RTVSPost2010PropOp40
 70
     0
102
RTVSPost2010Prop41ColorIndex
 90
       18
102
RTVSPost2010Prop41ColorRGB
 90
        0
102
RTVSPost2010PropOp41
 70
     0
102
RTVSPost2010Prop42
 90
       50
102
RTVSPost2010PropOp42
 70
     0
102
RTVSPost2010Prop43
 90
        3
102
RTVSPost2010PropOp43
 70
     0
102
RTVSPost2010Prop44ColorIndex
 90
        5
102
RTVSPost2010Prop44ColorRGB
 90
      255
102
RTVSPost2010PropOp44
 70
     0
102
RTVSPost2010Prop45
280
     0
102
RTVSPost2010PropOp45
 70
     0
102
RTVSPost2010Prop46
 90
       50
102
RTVSPost2010PropOp46
 70
     0
102
RTVSPost2010Prop47
 90
       50
102
RTVSPost2010PropOp47
 70
     0
102
RTVSPost2010Prop48
 90
       50
102
RTVSPost2010PropOp48
 70
     0
102
RTVSPost2010Prop49
280
     0
102
RTVSPost2010PropOp49
 70
     0
102
RTVSPost2010Prop50
 90
       50
102
RTVSPost2010PropOp50
 70
     0
102
RTVSPost2010Prop51ColorIndex
 90
      256
102
RTVSPost2010Prop51ColorRGB
 90
-16777216
102
RTVSPost2010PropOp51
 70
     0
102
RTVSPost2010Prop52
140
1.0
102
RTVSPost2010PropOp52
 70
     0
102
RTVSPost2010Prop53
 90
        2
102
RTVSPost2010PropOp53
 70
     0
102
RTVSPost2010Prop54
  1
strokes_ogs.tif
102
RTVSPost2010PropOp54
 70
     0
102
RTVSPost2010Prop55
280
     0
102
RTVSPost2010PropOp55
 70
     0
102
RTVSPost2010Prop56
140
1.0
102
RTVSPost2010PropOp56
 70
     0
102
RTVSPost2010Prop57
140
1.0
102
RTVSPost2010PropOp57
 70
     0
102
RTVSPropertyOp0
 70
     0
102
RTVSPropertyOp1
 70
     0
102
RTVSPropertyOp2
 70
     0
102
RTVSPropertyOp3
 70
     0
102
RTVSPropertyOp4
 70
     0
102
RTVSPropertyOp5
 70
     0
102
RTVSPropertyOp6
 70
     0
102
RTVSPropertyOp7
 70
     0
102
RTVSPropertyOp8
 70
     0
102
RTVSPropertyOp9
 70
     0
102
RTVSPropertyOp10
 70
     0
102
RTVSPropertyOp11
 70
     0
102
RTVSPropertyOp12
 70
     0
102
RTVSPropertyOp13
 70
     0
102
RTVSPropertyOp14
 70
     2
102
RTVSPropertyOp15
 70
     0
102
RTVSPropertyOp16
 70
     0
102
RTVSPropertyOp17
 70
     0
102
RTVSPropertyOp18
 70
     0
102
RTVSPropertyOp19
 70
     0
102
RTVSPropertyOp20
 70
     0
102
RTVSPropertyOp21
 70
     0
102
RTVSPropertyOp22
 70
     0
102
RTVSPropertyOp23
 70
     0
102
RTVSPropertyOp24
 70
     0
102
RTVSPropertyOp25
 70
     0
102
RTVSPropertyOp26
 70
     0
102
RTVSPropertyOp27
 70
     0
102
RTVSPropertyOp28
 70
     0
102
RTVSPropertyOp29
 70
     0
102
RTVSPropertyOp30
 70
     0
102
RTVSPropertyOp31
 70
     0
102
RTVSPropertyOp32
 70
     0
102
RTVSPropertyOp33
 70
     0
102
RTVSPropertyOp34
 70
     0
102
RTVSPropertyOp35
 70
     0
102
RTVSPropertyOp36
 70
     0
102
RTVSPropertyOp37
 70
     0
102
RTVSPropertyOp38
 70
     0
102
RTVSPropertyOp39
 70
     0
102
RTVSPropertyOp40
 70
     0
102
RTVSPropertyOp41
 70
     0
102
RTVSPropertyOp42
 70
     0
102
RTVSPropertyOp43
 70
     0
102
RTVSPropertyOp44
 70
     0
102
RTVSPropertyOp45
 70
     0
102
RTVSPropertyOp46
 70
     0
102
RTVSPropertyOp47
 70
     0
102
RTVSPropertyOp48
 70
     0
102
RTVSPropertyOp49
 70
     0
102
RTVSPropertyOp50
 70
     0
102
RTVSPropertyOp51
 70
     0
102
RTVSPropertyOp52
 70
     0
102
RTVSPropertyOp53
 70
     0
102
RTVSPropertyOp54
 70
     0
102
RTVSPropertyOp55
 70
     0
102
RTVSPropertyOp56
 70
     0
102
RTVSPropertyOp57
 70
     0
102
RTVSPropertyOp58
 70
     0
102
RTVSPropertyOp59
 70
     0
102
RTVSPropertyOp60
 70
     0
102
RTVSPropertyOp61
 70
     0
102
RTVSPropertyOp62
 70
     0
  0
XRECORD
  5
156A7
102
{ACAD_REACTORS
330
156A6
102
}
330
156A6
100
AcDbXrecord
280
     1
102
RTVSPost2010Prop28
280
     0
102
RTVSPost2010PropOp28
 70
     1
102
RTVSPost2010Prop29
280
     1
102
RTVSPost2010PropOp29
 70
     1
102
RTVSPost2010Prop30
280
     1
102
RTVSPost2010PropOp30
 70
     1
102
RTVSPost2010Prop31
280
     0
102
RTVSPost2010PropOp31
 70
     1
102
RTVSPost2010Prop32
280
     0
102
RTVSPost2010PropOp32
 70
     1
102
RTVSPost2010Prop33
280
     0
102
RTVSPost2010PropOp33
 70
     1
102
RTVSPost2010Prop34
280
     0
102
RTVSPost2010PropOp34
 70
     1
102
RTVSPost2010Prop35
280
     0
102
RTVSPost2010PropOp35
 70
     1
102
RTVSPost2010Prop36
280
     0
102
RTVSPost2010PropOp36
 70
     1
102
RTVSPost2010Prop37
 90
       50
102
RTVSPost2010PropOp37
 70
     1
102
RTVSPost2010Prop38
140
0.0
102
RTVSPost2010PropOp38
 70
     1
102
RTVSPost2010Prop39
140
1.0
102
RTVSPost2010PropOp39
 70
     1
102
RTVSPost2010Prop40
 90
        0
102
RTVSPost2010PropOp40
 70
     1
102
RTVSPost2010Prop41ColorIndex
 90
       18
102
RTVSPost2010Prop41ColorRGB
 90
        0
102
RTVSPost2010PropOp41
 70
     1
102
RTVSPost2010Prop42
 90
       50
102
RTVSPost2010PropOp42
 70
     1
102
RTVSPost2010Prop43
 90
        3
102
RTVSPost2010PropOp43
 70
     1
102
RTVSPost2010Prop44ColorIndex
 90
        5
102
RTVSPost2010Prop44ColorRGB
 90
      255
102
RTVSPost2010PropOp44
 70
     1
102
RTVSPost2010Prop45
280
     0
102
RTVSPost2010PropOp45
 70
     1
102
RTVSPost2010Prop46
 90
       50
102
RTVSPost2010PropOp46
 70
     1
102
RTVSPost2010Prop47
 90
       50
102
RTVSPost2010PropOp47
 70
     1
102
RTVSPost2010Prop48
 90
       50
102
RTVSPost2010PropOp48
 70
     1
102
RTVSPost2010Prop49
280
     0
102
RTVSPost2010PropOp49
 70
     1
102
RTVSPost2010Prop50
 90
       50
102
RTVSPost2010PropOp50
 70
     1
102
RTVSPost2010Prop51ColorIndex
 90
      256
102
RTVSPost2010Prop51ColorRGB
 90
-16777216
102
RTVSPost2010PropOp51
 70
     0
102
RTVSPost2010Prop52
140
1.0
102
RTVSPost2010PropOp52
 70
     0
102
RTVSPost2010Prop53
 90
        2
102
RTVSPost2010PropOp53
 70
     1
102
RTVSPost2010Prop54
  1
strokes_ogs.tif
102
RTVSPost2010PropOp54
 70
     1
102
RTVSPost2010Prop55
280
     0
102
RTVSPost2010PropOp55
 70
     1
102
RTVSPost2010Prop56
140
1.0
102
RTVSPost2010PropOp56
 70
     1
102
RTVSPost2010Prop57
140
1.0
102
RTVSPost2010PropOp57
 70
     1
102
RTVSPropertyOp0
 70
     1
102
RTVSPropertyOp1
 70
     1
102
RTVSPropertyOp2
 70
     1
102
RTVSPropertyOp3
 70
     1
102
RTVSPropertyOp4
 70
     1
102
RTVSPropertyOp5
 70
     1
102
RTVSPropertyOp6
 70
     1
102
RTVSPropertyOp7
 70
     1
102
RTVSPropertyOp8
 70
     1
102
RTVSPropertyOp9
 70
     1
102
RTVSPropertyOp10
 70
     1
102
RTVSPropertyOp11
 70
     1
102
RTVSPropertyOp12
 70
     1
102
RTVSPropertyOp13
 70
     1
102
RTVSPropertyOp14
 70
     1
102
RTVSPropertyOp15
 70
     1
102
RTVSPropertyOp16
 70
     1
102
RTVSPropertyOp17
 70
     1
102
RTVSPropertyOp18
 70
     1
102
RTVSPropertyOp19
 70
     1
102
RTVSPropertyOp20
 70
     1
102
RTVSPropertyOp21
 70
     1
102
RTVSPropertyOp22
 70
     1
102
RTVSPropertyOp23
 70
     1
102
RTVSPropertyOp24
 70
     1
102
RTVSPropertyOp25
 70
     1
102
RTVSPropertyOp26
 70
     1
102
RTVSPropertyOp27
 70
     1
102
RTVSPropertyOp28
 70
     1
102
RTVSPropertyOp29
 70
     1
102
RTVSPropertyOp30
 70
     1
102
RTVSPropertyOp31
 70
     1
102
RTVSPropertyOp32
 70
     1
102
RTVSPropertyOp33
 70
     1
102
RTVSPropertyOp34
 70
     1
102
RTVSPropertyOp35
 70
     1
102
RTVSPropertyOp36
 70
     1
102
RTVSPropertyOp37
 70
     1
102
RTVSPropertyOp38
 70
     1
102
RTVSPropertyOp39
 70
     1
102
RTVSPropertyOp40
 70
     1
102
RTVSPropertyOp41
 70
     1
102
RTVSPropertyOp42
 70
     1
102
RTVSPropertyOp43
 70
     1
102
RTVSPropertyOp44
 70
     1
102
RTVSPropertyOp45
 70
     1
102
RTVSPropertyOp46
 70
     1
102
RTVSPropertyOp47
 70
     1
102
RTVSPropertyOp48
 70
     1
102
RTVSPropertyOp49
 70
     1
102
RTVSPropertyOp50
 70
     1
102
RTVSPropertyOp51
 70
     0
102
RTVSPropertyOp52
 70
     0
102
RTVSPropertyOp53
 70
     1
102
RTVSPropertyOp54
 70
     1
102
RTVSPropertyOp55
 70
     1
102
RTVSPropertyOp56
 70
     1
102
RTVSPropertyOp57
 70
     1
102
RTVSPropertyOp58
 70
     1
102
RTVSPropertyOp59
 70
     1
102
RTVSPropertyOp60
 70
     1
102
RTVSPropertyOp61
 70
     1
102
RTVSPropertyOp62
 70
     1
  0
XRECORD
  5
1568B
102
{ACAD_REACTORS
330
1568A
102
}
330
1568A
100
AcDbXrecord
280
     1
102
RTVSPost2010Prop28
280
     0
102
RTVSPost2010PropOp28
 70
     1
102
RTVSPost2010Prop29
280
     1
102
RTVSPost2010PropOp29
 70
     1
102
RTVSPost2010Prop30
280
     1
102
RTVSPost2010PropOp30
 70
     1
102
RTVSPost2010Prop31
280
     0
102
RTVSPost2010PropOp31
 70
     1
102
RTVSPost2010Prop32
280
     0
102
RTVSPost2010PropOp32
 70
     1
102
RTVSPost2010Prop33
280
     0
102
RTVSPost2010PropOp33
 70
     1
102
RTVSPost2010Prop34
280
     0
102
RTVSPost2010PropOp34
 70
     1
102
RTVSPost2010Prop35
280
     0
102
RTVSPost2010PropOp35
 70
     1
102
RTVSPost2010Prop36
280
     0
102
RTVSPost2010PropOp36
 70
     1
102
RTVSPost2010Prop37
 90
       50
102
RTVSPost2010PropOp37
 70
     1
102
RTVSPost2010Prop38
140
0.0
102
RTVSPost2010PropOp38
 70
     1
102
RTVSPost2010Prop39
140
1.0
102
RTVSPost2010PropOp39
 70
     1
102
RTVSPost2010Prop40
 90
        0
102
RTVSPost2010PropOp40
 70
     1
102
RTVSPost2010Prop41ColorIndex
 90
       18
102
RTVSPost2010Prop41ColorRGB
 90
        0
102
RTVSPost2010PropOp41
 70
     1
102
RTVSPost2010Prop42
 90
       50
102
RTVSPost2010PropOp42
 70
     1
102
RTVSPost2010Prop43
 90
        3
102
RTVSPost2010PropOp43
 70
     1
102
RTVSPost2010Prop44ColorIndex
 90
        5
102
RTVSPost2010Prop44ColorRGB
 90
      255
102
RTVSPost2010PropOp44
 70
     1
102
RTVSPost2010Prop45
280
     0
102
RTVSPost2010PropOp45
 70
     1
102
RTVSPost2010Prop46
 90
       50
102
RTVSPost2010PropOp46
 70
     1
102
RTVSPost2010Prop47
 90
       50
102
RTVSPost2010PropOp47
 70
     1
102
RTVSPost2010Prop48
 90
       50
102
RTVSPost2010PropOp48
 70
     1
102
RTVSPost2010Prop49
280
     0
102
RTVSPost2010PropOp49
 70
     1
102
RTVSPost2010Prop50
 90
       50
102
RTVSPost2010PropOp50
 70
     1
102
RTVSPost2010Prop51ColorIndex
 90
      256
102
RTVSPost2010Prop51ColorRGB
 90
-16777216
102
RTVSPost2010PropOp51
 70
     0
102
RTVSPost2010Prop52
140
1.0
102
RTVSPost2010PropOp52
 70
     0
102
RTVSPost2010Prop53
 90
        2
102
RTVSPost2010PropOp53
 70
     1
102
RTVSPost2010Prop54
  1
strokes_ogs.tif
102
RTVSPost2010PropOp54
 70
     1
102
RTVSPost2010Prop55
280
     0
102
RTVSPost2010PropOp55
 70
     1
102
RTVSPost2010Prop56
140
1.0
102
RTVSPost2010PropOp56
 70
     1
102
RTVSPost2010Prop57
140
1.0
102
RTVSPost2010PropOp57
 70
     1
102
RTVSPropertyOp0
 70
     1
102
RTVSPropertyOp1
 70
     1
102
RTVSPropertyOp2
 70
     1
102
RTVSPropertyOp3
 70
     1
102
RTVSPropertyOp4
 70
     1
102
RTVSPropertyOp5
 70
     1
102
RTVSPropertyOp6
 70
     1
102
RTVSPropertyOp7
 70
     1
102
RTVSPropertyOp8
 70
     1
102
RTVSPropertyOp9
 70
     1
102
RTVSPropertyOp10
 70
     1
102
RTVSPropertyOp11
 70
     1
102
RTVSPropertyOp12
 70
     1
102
RTVSPropertyOp13
 70
     1
102
RTVSPropertyOp14
 70
     1
102
RTVSPropertyOp15
 70
     1
102
RTVSPropertyOp16
 70
     1
102
RTVSPropertyOp17
 70
     1
102
RTVSPropertyOp18
 70
     1
102
RTVSPropertyOp19
 70
     1
102
RTVSPropertyOp20
 70
     1
102
RTVSPropertyOp21
 70
     1
102
RTVSPropertyOp22
 70
     1
102
RTVSPropertyOp23
 70
     1
102
RTVSPropertyOp24
 70
     1
102
RTVSPropertyOp25
 70
     1
102
RTVSPropertyOp26
 70
     1
102
RTVSPropertyOp27
 70
     1
102
RTVSPropertyOp28
 70
     1
102
RTVSPropertyOp29
 70
     1
102
RTVSPropertyOp30
 70
     1
102
RTVSPropertyOp31
 70
     1
102
RTVSPropertyOp32
 70
     1
102
RTVSPropertyOp33
 70
     1
102
RTVSPropertyOp34
 70
     1
102
RTVSPropertyOp35
 70
     1
102
RTVSPropertyOp36
 70
     1
102
RTVSPropertyOp37
 70
     1
102
RTVSPropertyOp38
 70
     1
102
RTVSPropertyOp39
 70
     1
102
RTVSPropertyOp40
 70
     1
102
RTVSPropertyOp41
 70
     1
102
RTVSPropertyOp42
 70
     1
102
RTVSPropertyOp43
 70
     1
102
RTVSPropertyOp44
 70
     1
102
RTVSPropertyOp45
 70
     1
102
RTVSPropertyOp46
 70
     1
102
RTVSPropertyOp47
 70
     1
102
RTVSPropertyOp48
 70
     1
102
RTVSPropertyOp49
 70
     1
102
RTVSPropertyOp50
 70
     1
102
RTVSPropertyOp51
 70
     0
102
RTVSPropertyOp52
 70
     0
102
RTVSPropertyOp53
 70
     1
102
RTVSPropertyOp54
 70
     1
102
RTVSPropertyOp55
 70
     1
102
RTVSPropertyOp56
 70
     1
102
RTVSPropertyOp57
 70
     1
102
RTVSPropertyOp58
 70
     1
102
RTVSPropertyOp59
 70
     1
102
RTVSPropertyOp60
 70
     1
102
RTVSPropertyOp61
 70
     1
102
RTVSPropertyOp62
 70
     1
  0
XRECORD
  5
1568D
102
{ACAD_REACTORS
330
1568C
102
}
330
1568C
100
AcDbXrecord
280
     1
102
RTVSPost2010Prop28
280
     0
102
RTVSPost2010PropOp28
 70
     1
102
RTVSPost2010Prop29
280
     1
102
RTVSPost2010PropOp29
 70
     1
102
RTVSPost2010Prop30
280
     1
102
RTVSPost2010PropOp30
 70
     1
102
RTVSPost2010Prop31
280
     0
102
RTVSPost2010PropOp31
 70
     1
102
RTVSPost2010Prop32
280
     0
102
RTVSPost2010PropOp32
 70
     1
102
RTVSPost2010Prop33
280
     0
102
RTVSPost2010PropOp33
 70
     1
102
RTVSPost2010Prop34
280
     0
102
RTVSPost2010PropOp34
 70
     1
102
RTVSPost2010Prop35
280
     0
102
RTVSPost2010PropOp35
 70
     1
102
RTVSPost2010Prop36
280
     0
102
RTVSPost2010PropOp36
 70
     1
102
RTVSPost2010Prop37
 90
       50
102
RTVSPost2010PropOp37
 70
     1
102
RTVSPost2010Prop38
140
0.0
102
RTVSPost2010PropOp38
 70
     1
102
RTVSPost2010Prop39
140
1.0
102
RTVSPost2010PropOp39
 70
     1
102
RTVSPost2010Prop40
 90
        0
102
RTVSPost2010PropOp40
 70
     1
102
RTVSPost2010Prop41ColorIndex
 90
       18
102
RTVSPost2010Prop41ColorRGB
 90
        0
102
RTVSPost2010PropOp41
 70
     1
102
RTVSPost2010Prop42
 90
       50
102
RTVSPost2010PropOp42
 70
     1
102
RTVSPost2010Prop43
 90
        3
102
RTVSPost2010PropOp43
 70
     1
102
RTVSPost2010Prop44ColorIndex
 90
        5
102
RTVSPost2010Prop44ColorRGB
 90
      255
102
RTVSPost2010PropOp44
 70
     1
102
RTVSPost2010Prop45
280
     0
102
RTVSPost2010PropOp45
 70
     1
102
RTVSPost2010Prop46
 90
       50
102
RTVSPost2010PropOp46
 70
     1
102
RTVSPost2010Prop47
 90
       50
102
RTVSPost2010PropOp47
 70
     1
102
RTVSPost2010Prop48
 90
       50
102
RTVSPost2010PropOp48
 70
     1
102
RTVSPost2010Prop49
280
     0
102
RTVSPost2010PropOp49
 70
     1
102
RTVSPost2010Prop50
 90
       50
102
RTVSPost2010PropOp50
 70
     1
102
RTVSPost2010Prop51ColorIndex
 90
      256
102
RTVSPost2010Prop51ColorRGB
 90
-16777216
102
RTVSPost2010PropOp51
 70
     0
102
RTVSPost2010Prop52
140
1.0
102
RTVSPost2010PropOp52
 70
     0
102
RTVSPost2010Prop53
 90
        2
102
RTVSPost2010PropOp53
 70
     1
102
RTVSPost2010Prop54
  1
strokes_ogs.tif
102
RTVSPost2010PropOp54
 70
     1
102
RTVSPost2010Prop55
280
     0
102
RTVSPost2010PropOp55
 70
     1
102
RTVSPost2010Prop56
140
1.0
102
RTVSPost2010PropOp56
 70
     1
102
RTVSPost2010Prop57
140
1.0
102
RTVSPost2010PropOp57
 70
     1
102
RTVSPropertyOp0
 70
     1
102
RTVSPropertyOp1
 70
     1
102
RTVSPropertyOp2
 70
     1
102
RTVSPropertyOp3
 70
     1
102
RTVSPropertyOp4
 70
     1
102
RTVSPropertyOp5
 70
     1
102
RTVSPropertyOp6
 70
     1
102
RTVSPropertyOp7
 70
     1
102
RTVSPropertyOp8
 70
     1
102
RTVSPropertyOp9
 70
     1
102
RTVSPropertyOp10
 70
     1
102
RTVSPropertyOp11
 70
     1
102
RTVSPropertyOp12
 70
     1
102
RTVSPropertyOp13
 70
     1
102
RTVSPropertyOp14
 70
     1
102
RTVSPropertyOp15
 70
     1
102
RTVSPropertyOp16
 70
     1
102
RTVSPropertyOp17
 70
     1
102
RTVSPropertyOp18
 70
     1
102
RTVSPropertyOp19
 70
     1
102
RTVSPropertyOp20
 70
     1
102
RTVSPropertyOp21
 70
     1
102
RTVSPropertyOp22
 70
     1
102
RTVSPropertyOp23
 70
     1
102
RTVSPropertyOp24
 70
     1
102
RTVSPropertyOp25
 70
     1
102
RTVSPropertyOp26
 70
     1
102
RTVSPropertyOp27
 70
     1
102
RTVSPropertyOp28
 70
     1
102
RTVSPropertyOp29
 70
     1
102
RTVSPropertyOp30
 70
     1
102
RTVSPropertyOp31
 70
     1
102
RTVSPropertyOp32
 70
     1
102
RTVSPropertyOp33
 70
     1
102
RTVSPropertyOp34
 70
     1
102
RTVSPropertyOp35
 70
     1
102
RTVSPropertyOp36
 70
     1
102
RTVSPropertyOp37
 70
     1
102
RTVSPropertyOp38
 70
     1
102
RTVSPropertyOp39
 70
     1
102
RTVSPropertyOp40
 70
     1
102
RTVSPropertyOp41
 70
     1
102
RTVSPropertyOp42
 70
     1
102
RTVSPropertyOp43
 70
     1
102
RTVSPropertyOp44
 70
     1
102
RTVSPropertyOp45
 70
     1
102
RTVSPropertyOp46
 70
     1
102
RTVSPropertyOp47
 70
     1
102
RTVSPropertyOp48
 70
     1
102
RTVSPropertyOp49
 70
     1
102
RTVSPropertyOp50
 70
     1
102
RTVSPropertyOp51
 70
     0
102
RTVSPropertyOp52
 70
     0
102
RTVSPropertyOp53
 70
     1
102
RTVSPropertyOp54
 70
     1
102
RTVSPropertyOp55
 70
     1
102
RTVSPropertyOp56
 70
     1
102
RTVSPropertyOp57
 70
     1
102
RTVSPropertyOp58
 70
     1
102
RTVSPropertyOp59
 70
     1
102
RTVSPropertyOp60
 70
     1
102
RTVSPropertyOp61
 70
     1
102
RTVSPropertyOp62
 70
     1
  0
XRECORD
  5
1568F
102
{ACAD_REACTORS
330
1568E
102
}
330
1568E
100
AcDbXrecord
280
     1
102
RTVSPost2010Prop28
280
     0
102
RTVSPost2010PropOp28
 70
     1
102
RTVSPost2010Prop29
280
     1
102
RTVSPost2010PropOp29
 70
     1
102
RTVSPost2010Prop30
280
     1
102
RTVSPost2010PropOp30
 70
     1
102
RTVSPost2010Prop31
280
     0
102
RTVSPost2010PropOp31
 70
     1
102
RTVSPost2010Prop32
280
     0
102
RTVSPost2010PropOp32
 70
     1
102
RTVSPost2010Prop33
280
     0
102
RTVSPost2010PropOp33
 70
     1
102
RTVSPost2010Prop34
280
     0
102
RTVSPost2010PropOp34
 70
     1
102
RTVSPost2010Prop35
280
     0
102
RTVSPost2010PropOp35
 70
     1
102
RTVSPost2010Prop36
280
     0
102
RTVSPost2010PropOp36
 70
     1
102
RTVSPost2010Prop37
 90
       50
102
RTVSPost2010PropOp37
 70
     1
102
RTVSPost2010Prop38
140
0.0
102
RTVSPost2010PropOp38
 70
     1
102
RTVSPost2010Prop39
140
1.0
102
RTVSPost2010PropOp39
 70
     1
102
RTVSPost2010Prop40
 90
        0
102
RTVSPost2010PropOp40
 70
     1
102
RTVSPost2010Prop41ColorIndex
 90
       18
102
RTVSPost2010Prop41ColorRGB
 90
        0
102
RTVSPost2010PropOp41
 70
     1
102
RTVSPost2010Prop42
 90
       50
102
RTVSPost2010PropOp42
 70
     1
102
RTVSPost2010Prop43
 90
        3
102
RTVSPost2010PropOp43
 70
     1
102
RTVSPost2010Prop44ColorIndex
 90
        5
102
RTVSPost2010Prop44ColorRGB
 90
      255
102
RTVSPost2010PropOp44
 70
     1
102
RTVSPost2010Prop45
280
     0
102
RTVSPost2010PropOp45
 70
     1
102
RTVSPost2010Prop46
 90
       50
102
RTVSPost2010PropOp46
 70
     1
102
RTVSPost2010Prop47
 90
       50
102
RTVSPost2010PropOp47
 70
     1
102
RTVSPost2010Prop48
 90
       50
102
RTVSPost2010PropOp48
 70
     1
102
RTVSPost2010Prop49
280
     0
102
RTVSPost2010PropOp49
 70
     1
102
RTVSPost2010Prop50
 90
       50
102
RTVSPost2010PropOp50
 70
     1
102
RTVSPost2010Prop51ColorIndex
 90
      256
102
RTVSPost2010Prop51ColorRGB
 90
-16777216
102
RTVSPost2010PropOp51
 70
     0
102
RTVSPost2010Prop52
140
1.0
102
RTVSPost2010PropOp52
 70
     0
102
RTVSPost2010Prop53
 90
        2
102
RTVSPost2010PropOp53
 70
     1
102
RTVSPost2010Prop54
  1
strokes_ogs.tif
102
RTVSPost2010PropOp54
 70
     1
102
RTVSPost2010Prop55
280
     0
102
RTVSPost2010PropOp55
 70
     1
102
RTVSPost2010Prop56
140
1.0
102
RTVSPost2010PropOp56
 70
     1
102
RTVSPost2010Prop57
140
1.0
102
RTVSPost2010PropOp57
 70
     1
102
RTVSPropertyOp0
 70
     1
102
RTVSPropertyOp1
 70
     1
102
RTVSPropertyOp2
 70
     1
102
RTVSPropertyOp3
 70
     1
102
RTVSPropertyOp4
 70
     1
102
RTVSPropertyOp5
 70
     1
102
RTVSPropertyOp6
 70
     1
102
RTVSPropertyOp7
 70
     1
102
RTVSPropertyOp8
 70
     1
102
RTVSPropertyOp9
 70
     1
102
RTVSPropertyOp10
 70
     1
102
RTVSPropertyOp11
 70
     1
102
RTVSPropertyOp12
 70
     1
102
RTVSPropertyOp13
 70
     1
102
RTVSPropertyOp14
 70
     1
102
RTVSPropertyOp15
 70
     1
102
RTVSPropertyOp16
 70
     1
102
RTVSPropertyOp17
 70
     1
102
RTVSPropertyOp18
 70
     1
102
RTVSPropertyOp19
 70
     1
102
RTVSPropertyOp20
 70
     1
102
RTVSPropertyOp21
 70
     1
102
RTVSPropertyOp22
 70
     1
102
RTVSPropertyOp23
 70
     1
102
RTVSPropertyOp24
 70
     1
102
RTVSPropertyOp25
 70
     1
102
RTVSPropertyOp26
 70
     1
102
RTVSPropertyOp27
 70
     1
102
RTVSPropertyOp28
 70
     1
102
RTVSPropertyOp29
 70
     1
102
RTVSPropertyOp30
 70
     1
102
RTVSPropertyOp31
 70
     1
102
RTVSPropertyOp32
 70
     1
102
RTVSPropertyOp33
 70
     1
102
RTVSPropertyOp34
 70
     1
102
RTVSPropertyOp35
 70
     1
102
RTVSPropertyOp36
 70
     1
102
RTVSPropertyOp37
 70
     1
102
RTVSPropertyOp38
 70
     1
102
RTVSPropertyOp39
 70
     1
102
RTVSPropertyOp40
 70
     1
102
RTVSPropertyOp41
 70
     1
102
RTVSPropertyOp42
 70
     1
102
RTVSPropertyOp43
 70
     1
102
RTVSPropertyOp44
 70
     1
102
RTVSPropertyOp45
 70
     1
102
RTVSPropertyOp46
 70
     1
102
RTVSPropertyOp47
 70
     1
102
RTVSPropertyOp48
 70
     1
102
RTVSPropertyOp49
 70
     1
102
RTVSPropertyOp50
 70
     1
102
RTVSPropertyOp51
 70
     0
102
RTVSPropertyOp52
 70
     0
102
RTVSPropertyOp53
 70
     1
102
RTVSPropertyOp54
 70
     1
102
RTVSPropertyOp55
 70
     1
102
RTVSPropertyOp56
 70
     1
102
RTVSPropertyOp57
 70
     1
102
RTVSPropertyOp58
 70
     1
102
RTVSPropertyOp59
 70
     1
102
RTVSPropertyOp60
 70
     1
102
RTVSPropertyOp61
 70
     1
102
RTVSPropertyOp62
 70
     1
  0
XRECORD
  5
15691
102
{ACAD_REACTORS
330
15690
102
}
330
15690
100
AcDbXrecord
280
     1
102
RTVSPost2010Prop28
280
     0
102
RTVSPost2010PropOp28
 70
     1
102
RTVSPost2010Prop29
280
     1
102
RTVSPost2010PropOp29
 70
     1
102
RTVSPost2010Prop30
280
     1
102
RTVSPost2010PropOp30
 70
     1
102
RTVSPost2010Prop31
280
     0
102
RTVSPost2010PropOp31
 70
     1
102
RTVSPost2010Prop32
280
     0
102
RTVSPost2010PropOp32
 70
     1
102
RTVSPost2010Prop33
280
     0
102
RTVSPost2010PropOp33
 70
     1
102
RTVSPost2010Prop34
280
     0
102
RTVSPost2010PropOp34
 70
     1
102
RTVSPost2010Prop35
280
     0
102
RTVSPost2010PropOp35
 70
     1
102
RTVSPost2010Prop36
280
     0
102
RTVSPost2010PropOp36
 70
     1
102
RTVSPost2010Prop37
 90
       50
102
RTVSPost2010PropOp37
 70
     1
102
RTVSPost2010Prop38
140
0.0
102
RTVSPost2010PropOp38
 70
     1
102
RTVSPost2010Prop39
140
1.0
102
RTVSPost2010PropOp39
 70
     1
102
RTVSPost2010Prop40
 90
        0
102
RTVSPost2010PropOp40
 70
     1
102
RTVSPost2010Prop41ColorIndex
 90
       18
102
RTVSPost2010Prop41ColorRGB
 90
        0
102
RTVSPost2010PropOp41
 70
     1
102
RTVSPost2010Prop42
 90
       50
102
RTVSPost2010PropOp42
 70
     1
102
RTVSPost2010Prop43
 90
        3
102
RTVSPost2010PropOp43
 70
     1
102
RTVSPost2010Prop44ColorIndex
 90
        5
102
RTVSPost2010Prop44ColorRGB
 90
      255
102
RTVSPost2010PropOp44
 70
     1
102
RTVSPost2010Prop45
280
     0
102
RTVSPost2010PropOp45
 70
     1
102
RTVSPost2010Prop46
 90
       50
102
RTVSPost2010PropOp46
 70
     1
102
RTVSPost2010Prop47
 90
       50
102
RTVSPost2010PropOp47
 70
     1
102
RTVSPost2010Prop48
 90
       50
102
RTVSPost2010PropOp48
 70
     1
102
RTVSPost2010Prop49
280
     0
102
RTVSPost2010PropOp49
 70
     1
102
RTVSPost2010Prop50
 90
       50
102
RTVSPost2010PropOp50
 70
     1
102
RTVSPost2010Prop51ColorIndex
 90
      256
102
RTVSPost2010Prop51ColorRGB
 90
-16777216
102
RTVSPost2010PropOp51
 70
     0
102
RTVSPost2010Prop52
140
1.0
102
RTVSPost2010PropOp52
 70
     0
102
RTVSPost2010Prop53
 90
        2
102
RTVSPost2010PropOp53
 70
     1
102
RTVSPost2010Prop54
  1
strokes_ogs.tif
102
RTVSPost2010PropOp54
 70
     1
102
RTVSPost2010Prop55
280
     0
102
RTVSPost2010PropOp55
 70
     1
102
RTVSPost2010Prop56
140
1.0
102
RTVSPost2010PropOp56
 70
     1
102
RTVSPost2010Prop57
140
1.0
102
RTVSPost2010PropOp57
 70
     1
102
RTVSPropertyOp0
 70
     1
102
RTVSPropertyOp1
 70
     1
102
RTVSPropertyOp2
 70
     1
102
RTVSPropertyOp3
 70
     1
102
RTVSPropertyOp4
 70
     1
102
RTVSPropertyOp5
 70
     1
102
RTVSPropertyOp6
 70
     1
102
RTVSPropertyOp7
 70
     1
102
RTVSPropertyOp8
 70
     1
102
RTVSPropertyOp9
 70
     1
102
RTVSPropertyOp10
 70
     1
102
RTVSPropertyOp11
 70
     1
102
RTVSPropertyOp12
 70
     1
102
RTVSPropertyOp13
 70
     1
102
RTVSPropertyOp14
 70
     1
102
RTVSPropertyOp15
 70
     1
102
RTVSPropertyOp16
 70
     1
102
RTVSPropertyOp17
 70
     1
102
RTVSPropertyOp18
 70
     1
102
RTVSPropertyOp19
 70
     1
102
RTVSPropertyOp20
 70
     1
102
RTVSPropertyOp21
 70
     1
102
RTVSPropertyOp22
 70
     1
102
RTVSPropertyOp23
 70
     1
102
RTVSPropertyOp24
 70
     1
102
RTVSPropertyOp25
 70
     1
102
RTVSPropertyOp26
 70
     1
102
RTVSPropertyOp27
 70
     1
102
RTVSPropertyOp28
 70
     1
102
RTVSPropertyOp29
 70
     1
102
RTVSPropertyOp30
 70
     1
102
RTVSPropertyOp31
 70
     1
102
RTVSPropertyOp32
 70
     1
102
RTVSPropertyOp33
 70
     1
102
RTVSPropertyOp34
 70
     1
102
RTVSPropertyOp35
 70
     1
102
RTVSPropertyOp36
 70
     1
102
RTVSPropertyOp37
 70
     1
102
RTVSPropertyOp38
 70
     1
102
RTVSPropertyOp39
 70
     1
102
RTVSPropertyOp40
 70
     1
102
RTVSPropertyOp41
 70
     1
102
RTVSPropertyOp42
 70
     1
102
RTVSPropertyOp43
 70
     1
102
RTVSPropertyOp44
 70
     1
102
RTVSPropertyOp45
 70
     1
102
RTVSPropertyOp46
 70
     1
102
RTVSPropertyOp47
 70
     1
102
RTVSPropertyOp48
 70
     1
102
RTVSPropertyOp49
 70
     1
102
RTVSPropertyOp50
 70
     1
102
RTVSPropertyOp51
 70
     0
102
RTVSPropertyOp52
 70
     0
102
RTVSPropertyOp53
 70
     1
102
RTVSPropertyOp54
 70
     1
102
RTVSPropertyOp55
 70
     1
102
RTVSPropertyOp56
 70
     1
102
RTVSPropertyOp57
 70
     1
102
RTVSPropertyOp58
 70
     1
102
RTVSPropertyOp59
 70
     1
102
RTVSPropertyOp60
 70
     1
102
RTVSPropertyOp61
 70
     1
102
RTVSPropertyOp62
 70
     1
  0
XRECORD
  5
15699
102
{ACAD_REACTORS
330
15698
102
}
330
15698
100
AcDbXrecord
280
     1
102
RTVSPost2010Prop28
280
     0
102
RTVSPost2010PropOp28
 70
     1
102
RTVSPost2010Prop29
280
     1
102
RTVSPost2010PropOp29
 70
     1
102
RTVSPost2010Prop30
280
     1
102
RTVSPost2010PropOp30
 70
     1
102
RTVSPost2010Prop31
280
     0
102
RTVSPost2010PropOp31
 70
     1
102
RTVSPost2010Prop32
280
     0
102
RTVSPost2010PropOp32
 70
     1
102
RTVSPost2010Prop33
280
     0
102
RTVSPost2010PropOp33
 70
     1
102
RTVSPost2010Prop34
280
     0
102
RTVSPost2010PropOp34
 70
     1
102
RTVSPost2010Prop35
280
     0
102
RTVSPost2010PropOp35
 70
     1
102
RTVSPost2010Prop36
280
     0
102
RTVSPost2010PropOp36
 70
     1
102
RTVSPost2010Prop37
 90
       50
102
RTVSPost2010PropOp37
 70
     1
102
RTVSPost2010Prop38
140
0.0
102
RTVSPost2010PropOp38
 70
     1
102
RTVSPost2010Prop39
140
1.0
102
RTVSPost2010PropOp39
 70
     1
102
RTVSPost2010Prop40
 90
        0
102
RTVSPost2010PropOp40
 70
     1
102
RTVSPost2010Prop41ColorIndex
 90
       18
102
RTVSPost2010Prop41ColorRGB
 90
        0
102
RTVSPost2010PropOp41
 70
     1
102
RTVSPost2010Prop42
 90
       50
102
RTVSPost2010PropOp42
 70
     1
102
RTVSPost2010Prop43
 90
        3
102
RTVSPost2010PropOp43
 70
     1
102
RTVSPost2010Prop44ColorIndex
 90
        5
102
RTVSPost2010Prop44ColorRGB
 90
      255
102
RTVSPost2010PropOp44
 70
     1
102
RTVSPost2010Prop45
280
     0
102
RTVSPost2010PropOp45
 70
     1
102
RTVSPost2010Prop46
 90
       50
102
RTVSPost2010PropOp46
 70
     1
102
RTVSPost2010Prop47
 90
       50
102
RTVSPost2010PropOp47
 70
     1
102
RTVSPost2010Prop48
 90
       50
102
RTVSPost2010PropOp48
 70
     1
102
RTVSPost2010Prop49
280
     0
102
RTVSPost2010PropOp49
 70
     1
102
RTVSPost2010Prop50
 90
       50
102
RTVSPost2010PropOp50
 70
     1
102
RTVSPost2010Prop51ColorIndex
 90
      256
102
RTVSPost2010Prop51ColorRGB
 90
-16777216
102
RTVSPost2010PropOp51
 70
     0
102
RTVSPost2010Prop52
140
1.0
102
RTVSPost2010PropOp52
 70
     0
102
RTVSPost2010Prop53
 90
        2
102
RTVSPost2010PropOp53
 70
     1
102
RTVSPost2010Prop54
  1
strokes_ogs.tif
102
RTVSPost2010PropOp54
 70
     1
102
RTVSPost2010Prop55
280
     0
102
RTVSPost2010PropOp55
 70
     1
102
RTVSPost2010Prop56
140
1.0
102
RTVSPost2010PropOp56
 70
     1
102
RTVSPost2010Prop57
140
1.0
102
RTVSPost2010PropOp57
 70
     1
102
RTVSPropertyOp0
 70
     1
102
RTVSPropertyOp1
 70
     1
102
RTVSPropertyOp2
 70
     1
102
RTVSPropertyOp3
 70
     1
102
RTVSPropertyOp4
 70
     1
102
RTVSPropertyOp5
 70
     1
102
RTVSPropertyOp6
 70
     1
102
RTVSPropertyOp7
 70
     1
102
RTVSPropertyOp8
 70
     1
102
RTVSPropertyOp9
 70
     1
102
RTVSPropertyOp10
 70
     1
102
RTVSPropertyOp11
 70
     1
102
RTVSPropertyOp12
 70
     1
102
RTVSPropertyOp13
 70
     1
102
RTVSPropertyOp14
 70
     1
102
RTVSPropertyOp15
 70
     1
102
RTVSPropertyOp16
 70
     1
102
RTVSPropertyOp17
 70
     1
102
RTVSPropertyOp18
 70
     1
102
RTVSPropertyOp19
 70
     1
102
RTVSPropertyOp20
 70
     1
102
RTVSPropertyOp21
 70
     1
102
RTVSPropertyOp22
 70
     1
102
RTVSPropertyOp23
 70
     1
102
RTVSPropertyOp24
 70
     1
102
RTVSPropertyOp25
 70
     1
102
RTVSPropertyOp26
 70
     1
102
RTVSPropertyOp27
 70
     1
102
RTVSPropertyOp28
 70
     1
102
RTVSPropertyOp29
 70
     1
102
RTVSPropertyOp30
 70
     1
102
RTVSPropertyOp31
 70
     1
102
RTVSPropertyOp32
 70
     1
102
RTVSPropertyOp33
 70
     1
102
RTVSPropertyOp34
 70
     1
102
RTVSPropertyOp35
 70
     1
102
RTVSPropertyOp36
 70
     1
102
RTVSPropertyOp37
 70
     1
102
RTVSPropertyOp38
 70
     1
102
RTVSPropertyOp39
 70
     1
102
RTVSPropertyOp40
 70
     1
102
RTVSPropertyOp41
 70
     1
102
RTVSPropertyOp42
 70
     1
102
RTVSPropertyOp43
 70
     1
102
RTVSPropertyOp44
 70
     1
102
RTVSPropertyOp45
 70
     1
102
RTVSPropertyOp46
 70
     1
102
RTVSPropertyOp47
 70
     1
102
RTVSPropertyOp48
 70
     1
102
RTVSPropertyOp49
 70
     1
102
RTVSPropertyOp50
 70
     1
102
RTVSPropertyOp51
 70
     0
102
RTVSPropertyOp52
 70
     0
102
RTVSPropertyOp53
 70
     1
102
RTVSPropertyOp54
 70
     1
102
RTVSPropertyOp55
 70
     1
102
RTVSPropertyOp56
 70
     1
102
RTVSPropertyOp57
 70
     1
102
RTVSPropertyOp58
 70
     1
102
RTVSPropertyOp59
 70
     1
102
RTVSPropertyOp60
 70
     1
102
RTVSPropertyOp61
 70
     1
102
RTVSPropertyOp62
 70
     1
  0
XRECORD
  5
156B5
102
{ACAD_REACTORS
330
156B4
102
}
330
156B4
100
AcDbXrecord
280
     1
102
RTVSPost2010Prop28
280
     0
102
RTVSPost2010PropOp28
 70
     0
102
RTVSPost2010Prop29
280
     1
102
RTVSPost2010PropOp29
 70
     0
102
RTVSPost2010Prop30
280
     1
102
RTVSPost2010PropOp30
 70
     0
102
RTVSPost2010Prop31
280
     0
102
RTVSPost2010PropOp31
 70
     0
102
RTVSPost2010Prop32
280
     0
102
RTVSPost2010PropOp32
 70
     0
102
RTVSPost2010Prop33
280
     0
102
RTVSPost2010PropOp33
 70
     0
102
RTVSPost2010Prop34
280
     0
102
RTVSPost2010PropOp34
 70
     0
102
RTVSPost2010Prop35
280
     0
102
RTVSPost2010PropOp35
 70
     0
102
RTVSPost2010Prop36
280
     0
102
RTVSPost2010PropOp36
 70
     0
102
RTVSPost2010Prop37
 90
       50
102
RTVSPost2010PropOp37
 70
     0
102
RTVSPost2010Prop38
140
0.0
102
RTVSPost2010PropOp38
 70
     0
102
RTVSPost2010Prop39
140
1.0
102
RTVSPost2010PropOp39
 70
     0
102
RTVSPost2010Prop40
 90
        0
102
RTVSPost2010PropOp40
 70
     0
102
RTVSPost2010Prop41ColorIndex
 90
       18
102
RTVSPost2010Prop41ColorRGB
 90
        0
102
RTVSPost2010PropOp41
 70
     0
102
RTVSPost2010Prop42
 90
       50
102
RTVSPost2010PropOp42
 70
     0
102
RTVSPost2010Prop43
 90
        3
102
RTVSPost2010PropOp43
 70
     0
102
RTVSPost2010Prop44ColorIndex
 90
        5
102
RTVSPost2010Prop44ColorRGB
 90
      255
102
RTVSPost2010PropOp44
 70
     0
102
RTVSPost2010Prop45
280
     0
102
RTVSPost2010PropOp45
 70
     0
102
RTVSPost2010Prop46
 90
       50
102
RTVSPost2010PropOp46
 70
     0
102
RTVSPost2010Prop47
 90
       50
102
RTVSPost2010PropOp47
 70
     0
102
RTVSPost2010Prop48
 90
       50
102
RTVSPost2010PropOp48
 70
     0
102
RTVSPost2010Prop49
280
     0
102
RTVSPost2010PropOp49
 70
     0
102
RTVSPost2010Prop50
 90
       50
102
RTVSPost2010PropOp50
 70
     0
102
RTVSPost2010Prop51ColorIndex
 90
      256
102
RTVSPost2010Prop51ColorRGB
 90
-16777216
102
RTVSPost2010PropOp51
 70
     0
102
RTVSPost2010Prop52
140
1.0
102
RTVSPost2010PropOp52
 70
     0
102
RTVSPost2010Prop53
 90
        2
102
RTVSPost2010PropOp53
 70
     0
102
RTVSPost2010Prop54
  1
strokes_ogs.tif
102
RTVSPost2010PropOp54
 70
     0
102
RTVSPost2010Prop55
280
     0
102
RTVSPost2010PropOp55
 70
     0
102
RTVSPost2010Prop56
140
1.0
102
RTVSPost2010PropOp56
 70
     0
102
RTVSPost2010Prop57
140
1.0
102
RTVSPost2010PropOp57
 70
     0
102
RTVSPropertyOp0
 70
     0
102
RTVSPropertyOp1
 70
     0
102
RTVSPropertyOp2
 70
     0
102
RTVSPropertyOp3
 70
     0
102
RTVSPropertyOp4
 70
     0
102
RTVSPropertyOp5
 70
     0
102
RTVSPropertyOp6
 70
     0
102
RTVSPropertyOp7
 70
     0
102
RTVSPropertyOp8
 70
     0
102
RTVSPropertyOp9
 70
     0
102
RTVSPropertyOp10
 70
     0
102
RTVSPropertyOp11
 70
     0
102
RTVSPropertyOp12
 70
     0
102
RTVSPropertyOp13
 70
     0
102
RTVSPropertyOp14
 70
     2
102
RTVSPropertyOp15
 70
     0
102
RTVSPropertyOp16
 70
     0
102
RTVSPropertyOp17
 70
     0
102
RTVSPropertyOp18
 70
     0
102
RTVSPropertyOp19
 70
     0
102
RTVSPropertyOp20
 70
     0
102
RTVSPropertyOp21
 70
     0
102
RTVSPropertyOp22
 70
     0
102
RTVSPropertyOp23
 70
     0
102
RTVSPropertyOp24
 70
     0
102
RTVSPropertyOp25
 70
     0
102
RTVSPropertyOp26
 70
     0
102
RTVSPropertyOp27
 70
     0
102
RTVSPropertyOp28
 70
     0
102
RTVSPropertyOp29
 70
     0
102
RTVSPropertyOp30
 70
     0
102
RTVSPropertyOp31
 70
     0
102
RTVSPropertyOp32
 70
     0
102
RTVSPropertyOp33
 70
     0
102
RTVSPropertyOp34
 70
     0
102
RTVSPropertyOp35
 70
     0
102
RTVSPropertyOp36
 70
     0
102
RTVSPropertyOp37
 70
     0
102
RTVSPropertyOp38
 70
     0
102
RTVSPropertyOp39
 70
     0
102
RTVSPropertyOp40
 70
     0
102
RTVSPropertyOp41
 70
     0
102
RTVSPropertyOp42
 70
     0
102
RTVSPropertyOp43
 70
     0
102
RTVSPropertyOp44
 70
     0
102
RTVSPropertyOp45
 70
     0
102
RTVSPropertyOp46
 70
     0
102
RTVSPropertyOp47
 70
     0
102
RTVSPropertyOp48
 70
     0
102
RTVSPropertyOp49
 70
     0
102
RTVSPropertyOp50
 70
     0
102
RTVSPropertyOp51
 70
     0
102
RTVSPropertyOp52
 70
     0
102
RTVSPropertyOp53
 70
     0
102
RTVSPropertyOp54
 70
     0
102
RTVSPropertyOp55
 70
     0
102
RTVSPropertyOp56
 70
     0
102
RTVSPropertyOp57
 70
     0
102
RTVSPropertyOp58
 70
     0
102
RTVSPropertyOp59
 70
     0
102
RTVSPropertyOp60
 70
     0
102
RTVSPropertyOp61
 70
     0
102
RTVSPropertyOp62
 70
     0
  0
XRECORD
  5
156A5
102
{ACAD_REACTORS
330
156A4
102
}
330
156A4
100
AcDbXrecord
280
     1
102
RTVSPost2010Prop28
280
     0
102
RTVSPost2010PropOp28
 70
     1
102
RTVSPost2010Prop29
280
     1
102
RTVSPost2010PropOp29
 70
     1
102
RTVSPost2010Prop30
280
     1
102
RTVSPost2010PropOp30
 70
     1
102
RTVSPost2010Prop31
280
     0
102
RTVSPost2010PropOp31
 70
     1
102
RTVSPost2010Prop32
280
     0
102
RTVSPost2010PropOp32
 70
     1
102
RTVSPost2010Prop33
280
     0
102
RTVSPost2010PropOp33
 70
     1
102
RTVSPost2010Prop34
280
     0
102
RTVSPost2010PropOp34
 70
     1
102
RTVSPost2010Prop35
280
     0
102
RTVSPost2010PropOp35
 70
     1
102
RTVSPost2010Prop36
280
     0
102
RTVSPost2010PropOp36
 70
     1
102
RTVSPost2010Prop37
 90
       50
102
RTVSPost2010PropOp37
 70
     1
102
RTVSPost2010Prop38
140
0.0
102
RTVSPost2010PropOp38
 70
     1
102
RTVSPost2010Prop39
140
1.0
102
RTVSPost2010PropOp39
 70
     1
102
RTVSPost2010Prop40
 90
        0
102
RTVSPost2010PropOp40
 70
     1
102
RTVSPost2010Prop41ColorIndex
 90
       18
102
RTVSPost2010Prop41ColorRGB
 90
        0
102
RTVSPost2010PropOp41
 70
     1
102
RTVSPost2010Prop42
 90
       50
102
RTVSPost2010PropOp42
 70
     1
102
RTVSPost2010Prop43
 90
        3
102
RTVSPost2010PropOp43
 70
     1
102
RTVSPost2010Prop44ColorIndex
 90
        5
102
RTVSPost2010Prop44ColorRGB
 90
      255
102
RTVSPost2010PropOp44
 70
     1
102
RTVSPost2010Prop45
280
     0
102
RTVSPost2010PropOp45
 70
     1
102
RTVSPost2010Prop46
 90
       50
102
RTVSPost2010PropOp46
 70
     1
102
RTVSPost2010Prop47
 90
       50
102
RTVSPost2010PropOp47
 70
     1
102
RTVSPost2010Prop48
 90
       50
102
RTVSPost2010PropOp48
 70
     1
102
RTVSPost2010Prop49
280
     0
102
RTVSPost2010PropOp49
 70
     1
102
RTVSPost2010Prop50
 90
       50
102
RTVSPost2010PropOp50
 70
     1
102
RTVSPost2010Prop51ColorIndex
 90
      256
102
RTVSPost2010Prop51ColorRGB
 90
-16777216
102
RTVSPost2010PropOp51
 70
     0
102
RTVSPost2010Prop52
140
1.0
102
RTVSPost2010PropOp52
 70
     0
102
RTVSPost2010Prop53
 90
        2
102
RTVSPost2010PropOp53
 70
     1
102
RTVSPost2010Prop54
  1
strokes_ogs.tif
102
RTVSPost2010PropOp54
 70
     1
102
RTVSPost2010Prop55
280
     0
102
RTVSPost2010PropOp55
 70
     1
102
RTVSPost2010Prop56
140
1.0
102
RTVSPost2010PropOp56
 70
     1
102
RTVSPost2010Prop57
140
1.0
102
RTVSPost2010PropOp57
 70
     1
102
RTVSPropertyOp0
 70
     1
102
RTVSPropertyOp1
 70
     1
102
RTVSPropertyOp2
 70
     1
102
RTVSPropertyOp3
 70
     1
102
RTVSPropertyOp4
 70
     1
102
RTVSPropertyOp5
 70
     1
102
RTVSPropertyOp6
 70
     1
102
RTVSPropertyOp7
 70
     1
102
RTVSPropertyOp8
 70
     1
102
RTVSPropertyOp9
 70
     1
102
RTVSPropertyOp10
 70
     1
102
RTVSPropertyOp11
 70
     1
102
RTVSPropertyOp12
 70
     1
102
RTVSPropertyOp13
 70
     1
102
RTVSPropertyOp14
 70
     1
102
RTVSPropertyOp15
 70
     1
102
RTVSPropertyOp16
 70
     1
102
RTVSPropertyOp17
 70
     1
102
RTVSPropertyOp18
 70
     1
102
RTVSPropertyOp19
 70
     1
102
RTVSPropertyOp20
 70
     1
102
RTVSPropertyOp21
 70
     1
102
RTVSPropertyOp22
 70
     1
102
RTVSPropertyOp23
 70
     1
102
RTVSPropertyOp24
 70
     1
102
RTVSPropertyOp25
 70
     1
102
RTVSPropertyOp26
 70
     1
102
RTVSPropertyOp27
 70
     1
102
RTVSPropertyOp28
 70
     1
102
RTVSPropertyOp29
 70
     1
102
RTVSPropertyOp30
 70
     1
102
RTVSPropertyOp31
 70
     1
102
RTVSPropertyOp32
 70
     1
102
RTVSPropertyOp33
 70
     1
102
RTVSPropertyOp34
 70
     1
102
RTVSPropertyOp35
 70
     1
102
RTVSPropertyOp36
 70
     1
102
RTVSPropertyOp37
 70
     1
102
RTVSPropertyOp38
 70
     1
102
RTVSPropertyOp39
 70
     1
102
RTVSPropertyOp40
 70
     1
102
RTVSPropertyOp41
 70
     1
102
RTVSPropertyOp42
 70
     1
102
RTVSPropertyOp43
 70
     1
102
RTVSPropertyOp44
 70
     1
102
RTVSPropertyOp45
 70
     1
102
RTVSPropertyOp46
 70
     1
102
RTVSPropertyOp47
 70
     1
102
RTVSPropertyOp48
 70
     1
102
RTVSPropertyOp49
 70
     1
102
RTVSPropertyOp50
 70
     1
102
RTVSPropertyOp51
 70
     0
102
RTVSPropertyOp52
 70
     0
102
RTVSPropertyOp53
 70
     1
102
RTVSPropertyOp54
 70
     1
102
RTVSPropertyOp55
 70
     1
102
RTVSPropertyOp56
 70
     1
102
RTVSPropertyOp57
 70
     1
102
RTVSPropertyOp58
 70
     1
102
RTVSPropertyOp59
 70
     1
102
RTVSPropertyOp60
 70
     1
102
RTVSPropertyOp61
 70
     1
102
RTVSPropertyOp62
 70
     1
  0
XRECORD
  5
156B7
102
{ACAD_REACTORS
330
156B6
102
}
330
156B6
100
AcDbXrecord
280
     1
102
RTVSPost2010Prop28
280
     0
102
RTVSPost2010PropOp28
 70
     0
102
RTVSPost2010Prop29
280
     1
102
RTVSPost2010PropOp29
 70
     0
102
RTVSPost2010Prop30
280
     1
102
RTVSPost2010PropOp30
 70
     0
102
RTVSPost2010Prop31
280
     0
102
RTVSPost2010PropOp31
 70
     0
102
RTVSPost2010Prop32
280
     0
102
RTVSPost2010PropOp32
 70
     0
102
RTVSPost2010Prop33
280
     0
102
RTVSPost2010PropOp33
 70
     0
102
RTVSPost2010Prop34
280
     0
102
RTVSPost2010PropOp34
 70
     0
102
RTVSPost2010Prop35
280
     0
102
RTVSPost2010PropOp35
 70
     0
102
RTVSPost2010Prop36
280
     0
102
RTVSPost2010PropOp36
 70
     0
102
RTVSPost2010Prop37
 90
       50
102
RTVSPost2010PropOp37
 70
     0
102
RTVSPost2010Prop38
140
0.0
102
RTVSPost2010PropOp38
 70
     0
102
RTVSPost2010Prop39
140
1.0
102
RTVSPost2010PropOp39
 70
     0
102
RTVSPost2010Prop40
 90
        0
102
RTVSPost2010PropOp40
 70
     0
102
RTVSPost2010Prop41ColorIndex
 90
       18
102
RTVSPost2010Prop41ColorRGB
 90
        0
102
RTVSPost2010PropOp41
 70
     0
102
RTVSPost2010Prop42
 90
       50
102
RTVSPost2010PropOp42
 70
     0
102
RTVSPost2010Prop43
 90
        3
102
RTVSPost2010PropOp43
 70
     0
102
RTVSPost2010Prop44ColorIndex
 90
        5
102
RTVSPost2010Prop44ColorRGB
 90
      255
102
RTVSPost2010PropOp44
 70
     0
102
RTVSPost2010Prop45
280
     0
102
RTVSPost2010PropOp45
 70
     0
102
RTVSPost2010Prop46
 90
       50
102
RTVSPost2010PropOp46
 70
     0
102
RTVSPost2010Prop47
 90
       50
102
RTVSPost2010PropOp47
 70
     0
102
RTVSPost2010Prop48
 90
       50
102
RTVSPost2010PropOp48
 70
     0
102
RTVSPost2010Prop49
280
     0
102
RTVSPost2010PropOp49
 70
     0
102
RTVSPost2010Prop50
 90
       50
102
RTVSPost2010PropOp50
 70
     0
102
RTVSPost2010Prop51ColorIndex
 90
      256
102
RTVSPost2010Prop51ColorRGB
 90
-16777216
102
RTVSPost2010PropOp51
 70
     0
102
RTVSPost2010Prop52
140
1.0
102
RTVSPost2010PropOp52
 70
     0
102
RTVSPost2010Prop53
 90
        2
102
RTVSPost2010PropOp53
 70
     0
102
RTVSPost2010Prop54
  1
strokes_ogs.tif
102
RTVSPost2010PropOp54
 70
     0
102
RTVSPost2010Prop55
280
     0
102
RTVSPost2010PropOp55
 70
     0
102
RTVSPost2010Prop56
140
1.0
102
RTVSPost2010PropOp56
 70
     0
102
RTVSPost2010Prop57
140
1.0
102
RTVSPost2010PropOp57
 70
     0
102
RTVSPropertyOp0
 70
     0
102
RTVSPropertyOp1
 70
     0
102
RTVSPropertyOp2
 70
     0
102
RTVSPropertyOp3
 70
     0
102
RTVSPropertyOp4
 70
     0
102
RTVSPropertyOp5
 70
     0
102
RTVSPropertyOp6
 70
     0
102
RTVSPropertyOp7
 70
     0
102
RTVSPropertyOp8
 70
     0
102
RTVSPropertyOp9
 70
     0
102
RTVSPropertyOp10
 70
     0
102
RTVSPropertyOp11
 70
     0
102
RTVSPropertyOp12
 70
     0
102
RTVSPropertyOp13
 70
     0
102
RTVSPropertyOp14
 70
     2
102
RTVSPropertyOp15
 70
     0
102
RTVSPropertyOp16
 70
     0
102
RTVSPropertyOp17
 70
     0
102
RTVSPropertyOp18
 70
     0
102
RTVSPropertyOp19
 70
     0
102
RTVSPropertyOp20
 70
     0
102
RTVSPropertyOp21
 70
     0
102
RTVSPropertyOp22
 70
     0
102
RTVSPropertyOp23
 70
     0
102
RTVSPropertyOp24
 70
     0
102
RTVSPropertyOp25
 70
     0
102
RTVSPropertyOp26
 70
     0
102
RTVSPropertyOp27
 70
     0
102
RTVSPropertyOp28
 70
     0
102
RTVSPropertyOp29
 70
     0
102
RTVSPropertyOp30
 70
     0
102
RTVSPropertyOp31
 70
     0
102
RTVSPropertyOp32
 70
     0
102
RTVSPropertyOp33
 70
     0
102
RTVSPropertyOp34
 70
     0
102
RTVSPropertyOp35
 70
     0
102
RTVSPropertyOp36
 70
     0
102
RTVSPropertyOp37
 70
     0
102
RTVSPropertyOp38
 70
     0
102
RTVSPropertyOp39
 70
     0
102
RTVSPropertyOp40
 70
     0
102
RTVSPropertyOp41
 70
     0
102
RTVSPropertyOp42
 70
     0
102
RTVSPropertyOp43
 70
     0
102
RTVSPropertyOp44
 70
     0
102
RTVSPropertyOp45
 70
     0
102
RTVSPropertyOp46
 70
     0
102
RTVSPropertyOp47
 70
     0
102
RTVSPropertyOp48
 70
     0
102
RTVSPropertyOp49
 70
     0
102
RTVSPropertyOp50
 70
     0
102
RTVSPropertyOp51
 70
     0
102
RTVSPropertyOp52
 70
     0
102
RTVSPropertyOp53
 70
     0
102
RTVSPropertyOp54
 70
     0
102
RTVSPropertyOp55
 70
     0
102
RTVSPropertyOp56
 70
     0
102
RTVSPropertyOp57
 70
     0
102
RTVSPropertyOp58
 70
     0
102
RTVSPropertyOp59
 70
     0
102
RTVSPropertyOp60
 70
     0
102
RTVSPropertyOp61
 70
     0
102
RTVSPropertyOp62
 70
     0
  0
XRECORD
  5
1569D
102
{ACAD_REACTORS
330
1569C
102
}
330
1569C
100
AcDbXrecord
280
     1
102
RTVSPost2010Prop28
280
     0
102
RTVSPost2010PropOp28
 70
     1
102
RTVSPost2010Prop29
280
     1
102
RTVSPost2010PropOp29
 70
     1
102
RTVSPost2010Prop30
280
     1
102
RTVSPost2010PropOp30
 70
     1
102
RTVSPost2010Prop31
280
     0
102
RTVSPost2010PropOp31
 70
     1
102
RTVSPost2010Prop32
280
     0
102
RTVSPost2010PropOp32
 70
     1
102
RTVSPost2010Prop33
280
     0
102
RTVSPost2010PropOp33
 70
     1
102
RTVSPost2010Prop34
280
     0
102
RTVSPost2010PropOp34
 70
     1
102
RTVSPost2010Prop35
280
     0
102
RTVSPost2010PropOp35
 70
     1
102
RTVSPost2010Prop36
280
     0
102
RTVSPost2010PropOp36
 70
     1
102
RTVSPost2010Prop37
 90
       50
102
RTVSPost2010PropOp37
 70
     1
102
RTVSPost2010Prop38
140
0.0
102
RTVSPost2010PropOp38
 70
     1
102
RTVSPost2010Prop39
140
1.0
102
RTVSPost2010PropOp39
 70
     1
102
RTVSPost2010Prop40
 90
        0
102
RTVSPost2010PropOp40
 70
     1
102
RTVSPost2010Prop41ColorIndex
 90
       18
102
RTVSPost2010Prop41ColorRGB
 90
        0
102
RTVSPost2010PropOp41
 70
     1
102
RTVSPost2010Prop42
 90
       50
102
RTVSPost2010PropOp42
 70
     1
102
RTVSPost2010Prop43
 90
        3
102
RTVSPost2010PropOp43
 70
     1
102
RTVSPost2010Prop44ColorIndex
 90
        5
102
RTVSPost2010Prop44ColorRGB
 90
      255
102
RTVSPost2010PropOp44
 70
     1
102
RTVSPost2010Prop45
280
     0
102
RTVSPost2010PropOp45
 70
     1
102
RTVSPost2010Prop46
 90
       50
102
RTVSPost2010PropOp46
 70
     1
102
RTVSPost2010Prop47
 90
       50
102
RTVSPost2010PropOp47
 70
     1
102
RTVSPost2010Prop48
 90
       50
102
RTVSPost2010PropOp48
 70
     1
102
RTVSPost2010Prop49
280
     0
102
RTVSPost2010PropOp49
 70
     1
102
RTVSPost2010Prop50
 90
       50
102
RTVSPost2010PropOp50
 70
     1
102
RTVSPost2010Prop51ColorIndex
 90
      256
102
RTVSPost2010Prop51ColorRGB
 90
-16777216
102
RTVSPost2010PropOp51
 70
     0
102
RTVSPost2010Prop52
140
1.0
102
RTVSPost2010PropOp52
 70
     0
102
RTVSPost2010Prop53
 90
        2
102
RTVSPost2010PropOp53
 70
     1
102
RTVSPost2010Prop54
  1
strokes_ogs.tif
102
RTVSPost2010PropOp54
 70
     1
102
RTVSPost2010Prop55
280
     0
102
RTVSPost2010PropOp55
 70
     1
102
RTVSPost2010Prop56
140
1.0
102
RTVSPost2010PropOp56
 70
     1
102
RTVSPost2010Prop57
140
1.0
102
RTVSPost2010PropOp57
 70
     1
102
RTVSPropertyOp0
 70
     1
102
RTVSPropertyOp1
 70
     1
102
RTVSPropertyOp2
 70
     1
102
RTVSPropertyOp3
 70
     1
102
RTVSPropertyOp4
 70
     1
102
RTVSPropertyOp5
 70
     1
102
RTVSPropertyOp6
 70
     1
102
RTVSPropertyOp7
 70
     1
102
RTVSPropertyOp8
 70
     1
102
RTVSPropertyOp9
 70
     1
102
RTVSPropertyOp10
 70
     1
102
RTVSPropertyOp11
 70
     1
102
RTVSPropertyOp12
 70
     1
102
RTVSPropertyOp13
 70
     1
102
RTVSPropertyOp14
 70
     1
102
RTVSPropertyOp15
 70
     1
102
RTVSPropertyOp16
 70
     1
102
RTVSPropertyOp17
 70
     1
102
RTVSPropertyOp18
 70
     1
102
RTVSPropertyOp19
 70
     1
102
RTVSPropertyOp20
 70
     1
102
RTVSPropertyOp21
 70
     1
102
RTVSPropertyOp22
 70
     1
102
RTVSPropertyOp23
 70
     1
102
RTVSPropertyOp24
 70
     1
102
RTVSPropertyOp25
 70
     1
102
RTVSPropertyOp26
 70
     1
102
RTVSPropertyOp27
 70
     1
102
RTVSPropertyOp28
 70
     1
102
RTVSPropertyOp29
 70
     1
102
RTVSPropertyOp30
 70
     1
102
RTVSPropertyOp31
 70
     1
102
RTVSPropertyOp32
 70
     1
102
RTVSPropertyOp33
 70
     1
102
RTVSPropertyOp34
 70
     1
102
RTVSPropertyOp35
 70
     1
102
RTVSPropertyOp36
 70
     1
102
RTVSPropertyOp37
 70
     1
102
RTVSPropertyOp38
 70
     1
102
RTVSPropertyOp39
 70
     1
102
RTVSPropertyOp40
 70
     1
102
RTVSPropertyOp41
 70
     1
102
RTVSPropertyOp42
 70
     1
102
RTVSPropertyOp43
 70
     1
102
RTVSPropertyOp44
 70
     1
102
RTVSPropertyOp45
 70
     1
102
RTVSPropertyOp46
 70
     1
102
RTVSPropertyOp47
 70
     1
102
RTVSPropertyOp48
 70
     1
102
RTVSPropertyOp49
 70
     1
102
RTVSPropertyOp50
 70
     1
102
RTVSPropertyOp51
 70
     0
102
RTVSPropertyOp52
 70
     0
102
RTVSPropertyOp53
 70
     1
102
RTVSPropertyOp54
 70
     1
102
RTVSPropertyOp55
 70
     1
102
RTVSPropertyOp56
 70
     1
102
RTVSPropertyOp57
 70
     1
102
RTVSPropertyOp58
 70
     1
102
RTVSPropertyOp59
 70
     1
102
RTVSPropertyOp60
 70
     1
102
RTVSPropertyOp61
 70
     1
102
RTVSPropertyOp62
 70
     1
  0
XRECORD
  5
156B3
102
{ACAD_REACTORS
330
156B2
102
}
330
156B2
100
AcDbXrecord
280
     1
102
RTVSPost2010Prop28
280
     0
102
RTVSPost2010PropOp28
 70
     1
102
RTVSPost2010Prop29
280
     1
102
RTVSPost2010PropOp29
 70
     1
102
RTVSPost2010Prop30
280
     1
102
RTVSPost2010PropOp30
 70
     1
102
RTVSPost2010Prop31
280
     0
102
RTVSPost2010PropOp31
 70
     1
102
RTVSPost2010Prop32
280
     0
102
RTVSPost2010PropOp32
 70
     1
102
RTVSPost2010Prop33
280
     0
102
RTVSPost2010PropOp33
 70
     1
102
RTVSPost2010Prop34
280
     0
102
RTVSPost2010PropOp34
 70
     1
102
RTVSPost2010Prop35
280
     0
102
RTVSPost2010PropOp35
 70
     1
102
RTVSPost2010Prop36
280
     0
102
RTVSPost2010PropOp36
 70
     1
102
RTVSPost2010Prop37
 90
       50
102
RTVSPost2010PropOp37
 70
     1
102
RTVSPost2010Prop38
140
0.0
102
RTVSPost2010PropOp38
 70
     1
102
RTVSPost2010Prop39
140
1.0
102
RTVSPost2010PropOp39
 70
     1
102
RTVSPost2010Prop40
 90
        0
102
RTVSPost2010PropOp40
 70
     1
102
RTVSPost2010Prop41ColorIndex
 90
       18
102
RTVSPost2010Prop41ColorRGB
 90
        0
102
RTVSPost2010PropOp41
 70
     1
102
RTVSPost2010Prop42
 90
       50
102
RTVSPost2010PropOp42
 70
     1
102
RTVSPost2010Prop43
 90
        3
102
RTVSPost2010PropOp43
 70
     1
102
RTVSPost2010Prop44ColorIndex
 90
        5
102
RTVSPost2010Prop44ColorRGB
 90
      255
102
RTVSPost2010PropOp44
 70
     1
102
RTVSPost2010Prop45
280
     0
102
RTVSPost2010PropOp45
 70
     1
102
RTVSPost2010Prop46
 90
       50
102
RTVSPost2010PropOp46
 70
     1
102
RTVSPost2010Prop47
 90
       50
102
RTVSPost2010PropOp47
 70
     1
102
RTVSPost2010Prop48
 90
       50
102
RTVSPost2010PropOp48
 70
     1
102
RTVSPost2010Prop49
280
     0
102
RTVSPost2010PropOp49
 70
     1
102
RTVSPost2010Prop50
 90
       50
102
RTVSPost2010PropOp50
 70
     1
102
RTVSPost2010Prop51ColorIndex
 90
      256
102
RTVSPost2010Prop51ColorRGB
 90
-16777216
102
RTVSPost2010PropOp51
 70
     0
102
RTVSPost2010Prop52
140
1.0
102
RTVSPost2010PropOp52
 70
     0
102
RTVSPost2010Prop53
 90
        2
102
RTVSPost2010PropOp53
 70
     1
102
RTVSPost2010Prop54
  1
strokes_ogs.tif
102
RTVSPost2010PropOp54
 70
     1
102
RTVSPost2010Prop55
280
     0
102
RTVSPost2010PropOp55
 70
     1
102
RTVSPost2010Prop56
140
1.0
102
RTVSPost2010PropOp56
 70
     1
102
RTVSPost2010Prop57
140
1.0
102
RTVSPost2010PropOp57
 70
     1
102
RTVSPropertyOp0
 70
     1
102
RTVSPropertyOp1
 70
     1
102
RTVSPropertyOp2
 70
     1
102
RTVSPropertyOp3
 70
     1
102
RTVSPropertyOp4
 70
     1
102
RTVSPropertyOp5
 70
     1
102
RTVSPropertyOp6
 70
     1
102
RTVSPropertyOp7
 70
     1
102
RTVSPropertyOp8
 70
     1
102
RTVSPropertyOp9
 70
     1
102
RTVSPropertyOp10
 70
     1
102
RTVSPropertyOp11
 70
     1
102
RTVSPropertyOp12
 70
     1
102
RTVSPropertyOp13
 70
     1
102
RTVSPropertyOp14
 70
     1
102
RTVSPropertyOp15
 70
     1
102
RTVSPropertyOp16
 70
     1
102
RTVSPropertyOp17
 70
     1
102
RTVSPropertyOp18
 70
     1
102
RTVSPropertyOp19
 70
     1
102
RTVSPropertyOp20
 70
     1
102
RTVSPropertyOp21
 70
     1
102
RTVSPropertyOp22
 70
     1
102
RTVSPropertyOp23
 70
     1
102
RTVSPropertyOp24
 70
     1
102
RTVSPropertyOp25
 70
     1
102
RTVSPropertyOp26
 70
     1
102
RTVSPropertyOp27
 70
     1
102
RTVSPropertyOp28
 70
     1
102
RTVSPropertyOp29
 70
     1
102
RTVSPropertyOp30
 70
     1
102
RTVSPropertyOp31
 70
     1
102
RTVSPropertyOp32
 70
     1
102
RTVSPropertyOp33
 70
     1
102
RTVSPropertyOp34
 70
     1
102
RTVSPropertyOp35
 70
     1
102
RTVSPropertyOp36
 70
     1
102
RTVSPropertyOp37
 70
     1
102
RTVSPropertyOp38
 70
     1
102
RTVSPropertyOp39
 70
     1
102
RTVSPropertyOp40
 70
     1
102
RTVSPropertyOp41
 70
     1
102
RTVSPropertyOp42
 70
     1
102
RTVSPropertyOp43
 70
     1
102
RTVSPropertyOp44
 70
     1
102
RTVSPropertyOp45
 70
     1
102
RTVSPropertyOp46
 70
     1
102
RTVSPropertyOp47
 70
     1
102
RTVSPropertyOp48
 70
     1
102
RTVSPropertyOp49
 70
     1
102
RTVSPropertyOp50
 70
     1
102
RTVSPropertyOp51
 70
     0
102
RTVSPropertyOp52
 70
     0
102
RTVSPropertyOp53
 70
     1
102
RTVSPropertyOp54
 70
     1
102
RTVSPropertyOp55
 70
     1
102
RTVSPropertyOp56
 70
     1
102
RTVSPropertyOp57
 70
     1
102
RTVSPropertyOp58
 70
     1
102
RTVSPropertyOp59
 70
     1
102
RTVSPropertyOp60
 70
     1
102
RTVSPropertyOp61
 70
     1
102
RTVSPropertyOp62
 70
     1
  0
XRECORD
  5
156B1
102
{ACAD_REACTORS
330
156B0
102
}
330
156B0
100
AcDbXrecord
280
     1
102
RTVSPost2010Prop28
280
     0
102
RTVSPost2010PropOp28
 70
     1
102
RTVSPost2010Prop29
280
     1
102
RTVSPost2010PropOp29
 70
     1
102
RTVSPost2010Prop30
280
     1
102
RTVSPost2010PropOp30
 70
     1
102
RTVSPost2010Prop31
280
     0
102
RTVSPost2010PropOp31
 70
     1
102
RTVSPost2010Prop32
280
     0
102
RTVSPost2010PropOp32
 70
     1
102
RTVSPost2010Prop33
280
     0
102
RTVSPost2010PropOp33
 70
     1
102
RTVSPost2010Prop34
280
     0
102
RTVSPost2010PropOp34
 70
     1
102
RTVSPost2010Prop35
280
     0
102
RTVSPost2010PropOp35
 70
     1
102
RTVSPost2010Prop36
280
     0
102
RTVSPost2010PropOp36
 70
     1
102
RTVSPost2010Prop37
 90
       50
102
RTVSPost2010PropOp37
 70
     1
102
RTVSPost2010Prop38
140
0.0
102
RTVSPost2010PropOp38
 70
     1
102
RTVSPost2010Prop39
140
1.0
102
RTVSPost2010PropOp39
 70
     1
102
RTVSPost2010Prop40
 90
        0
102
RTVSPost2010PropOp40
 70
     1
102
RTVSPost2010Prop41ColorIndex
 90
       18
102
RTVSPost2010Prop41ColorRGB
 90
        0
102
RTVSPost2010PropOp41
 70
     1
102
RTVSPost2010Prop42
 90
       50
102
RTVSPost2010PropOp42
 70
     1
102
RTVSPost2010Prop43
 90
        3
102
RTVSPost2010PropOp43
 70
     1
102
RTVSPost2010Prop44ColorIndex
 90
        5
102
RTVSPost2010Prop44ColorRGB
 90
      255
102
RTVSPost2010PropOp44
 70
     1
102
RTVSPost2010Prop45
280
     0
102
RTVSPost2010PropOp45
 70
     1
102
RTVSPost2010Prop46
 90
       50
102
RTVSPost2010PropOp46
 70
     1
102
RTVSPost2010Prop47
 90
       50
102
RTVSPost2010PropOp47
 70
     1
102
RTVSPost2010Prop48
 90
       50
102
RTVSPost2010PropOp48
 70
     1
102
RTVSPost2010Prop49
280
     0
102
RTVSPost2010PropOp49
 70
     1
102
RTVSPost2010Prop50
 90
       50
102
RTVSPost2010PropOp50
 70
     1
102
RTVSPost2010Prop51ColorIndex
 90
      256
102
RTVSPost2010Prop51ColorRGB
 90
-16777216
102
RTVSPost2010PropOp51
 70
     0
102
RTVSPost2010Prop52
140
1.0
102
RTVSPost2010PropOp52
 70
     0
102
RTVSPost2010Prop53
 90
        2
102
RTVSPost2010PropOp53
 70
     1
102
RTVSPost2010Prop54
  1
strokes_ogs.tif
102
RTVSPost2010PropOp54
 70
     1
102
RTVSPost2010Prop55
280
     0
102
RTVSPost2010PropOp55
 70
     1
102
RTVSPost2010Prop56
140
1.0
102
RTVSPost2010PropOp56
 70
     1
102
RTVSPost2010Prop57
140
1.0
102
RTVSPost2010PropOp57
 70
     1
102
RTVSPropertyOp0
 70
     1
102
RTVSPropertyOp1
 70
     1
102
RTVSPropertyOp2
 70
     1
102
RTVSPropertyOp3
 70
     1
102
RTVSPropertyOp4
 70
     1
102
RTVSPropertyOp5
 70
     1
102
RTVSPropertyOp6
 70
     1
102
RTVSPropertyOp7
 70
     1
102
RTVSPropertyOp8
 70
     1
102
RTVSPropertyOp9
 70
     1
102
RTVSPropertyOp10
 70
     1
102
RTVSPropertyOp11
 70
     1
102
RTVSPropertyOp12
 70
     1
102
RTVSPropertyOp13
 70
     1
102
RTVSPropertyOp14
 70
     1
102
RTVSPropertyOp15
 70
     1
102
RTVSPropertyOp16
 70
     1
102
RTVSPropertyOp17
 70
     1
102
RTVSPropertyOp18
 70
     1
102
RTVSPropertyOp19
 70
     1
102
RTVSPropertyOp20
 70
     1
102
RTVSPropertyOp21
 70
     1
102
RTVSPropertyOp22
 70
     1
102
RTVSPropertyOp23
 70
     1
102
RTVSPropertyOp24
 70
     1
102
RTVSPropertyOp25
 70
     1
102
RTVSPropertyOp26
 70
     1
102
RTVSPropertyOp27
 70
     1
102
RTVSPropertyOp28
 70
     1
102
RTVSPropertyOp29
 70
     1
102
RTVSPropertyOp30
 70
     1
102
RTVSPropertyOp31
 70
     1
102
RTVSPropertyOp32
 70
     1
102
RTVSPropertyOp33
 70
     1
102
RTVSPropertyOp34
 70
     1
102
RTVSPropertyOp35
 70
     1
102
RTVSPropertyOp36
 70
     1
102
RTVSPropertyOp37
 70
     1
102
RTVSPropertyOp38
 70
     1
102
RTVSPropertyOp39
 70
     1
102
RTVSPropertyOp40
 70
     1
102
RTVSPropertyOp41
 70
     1
102
RTVSPropertyOp42
 70
     1
102
RTVSPropertyOp43
 70
     1
102
RTVSPropertyOp44
 70
     1
102
RTVSPropertyOp45
 70
     1
102
RTVSPropertyOp46
 70
     1
102
RTVSPropertyOp47
 70
     1
102
RTVSPropertyOp48
 70
     1
102
RTVSPropertyOp49
 70
     1
102
RTVSPropertyOp50
 70
     1
102
RTVSPropertyOp51
 70
     0
102
RTVSPropertyOp52
 70
     0
102
RTVSPropertyOp53
 70
     1
102
RTVSPropertyOp54
 70
     1
102
RTVSPropertyOp55
 70
     1
102
RTVSPropertyOp56
 70
     1
102
RTVSPropertyOp57
 70
     1
102
RTVSPropertyOp58
 70
     1
102
RTVSPropertyOp59
 70
     1
102
RTVSPropertyOp60
 70
     1
102
RTVSPropertyOp61
 70
     1
102
RTVSPropertyOp62
 70
     1
  0
XRECORD
  5
156AB
102
{ACAD_REACTORS
330
156AA
102
}
330
156AA
100
AcDbXrecord
280
     1
102
RTVSPost2010Prop28
280
     0
102
RTVSPost2010PropOp28
 70
     1
102
RTVSPost2010Prop29
280
     1
102
RTVSPost2010PropOp29
 70
     1
102
RTVSPost2010Prop30
280
     1
102
RTVSPost2010PropOp30
 70
     1
102
RTVSPost2010Prop31
280
     0
102
RTVSPost2010PropOp31
 70
     1
102
RTVSPost2010Prop32
280
     0
102
RTVSPost2010PropOp32
 70
     1
102
RTVSPost2010Prop33
280
     0
102
RTVSPost2010PropOp33
 70
     1
102
RTVSPost2010Prop34
280
     0
102
RTVSPost2010PropOp34
 70
     1
102
RTVSPost2010Prop35
280
     0
102
RTVSPost2010PropOp35
 70
     1
102
RTVSPost2010Prop36
280
     0
102
RTVSPost2010PropOp36
 70
     1
102
RTVSPost2010Prop37
 90
       50
102
RTVSPost2010PropOp37
 70
     1
102
RTVSPost2010Prop38
140
0.0
102
RTVSPost2010PropOp38
 70
     1
102
RTVSPost2010Prop39
140
1.0
102
RTVSPost2010PropOp39
 70
     1
102
RTVSPost2010Prop40
 90
        0
102
RTVSPost2010PropOp40
 70
     1
102
RTVSPost2010Prop41ColorIndex
 90
       18
102
RTVSPost2010Prop41ColorRGB
 90
        0
102
RTVSPost2010PropOp41
 70
     1
102
RTVSPost2010Prop42
 90
       50
102
RTVSPost2010PropOp42
 70
     1
102
RTVSPost2010Prop43
 90
        3
102
RTVSPost2010PropOp43
 70
     1
102
RTVSPost2010Prop44ColorIndex
 90
        5
102
RTVSPost2010Prop44ColorRGB
 90
      255
102
RTVSPost2010PropOp44
 70
     1
102
RTVSPost2010Prop45
280
     0
102
RTVSPost2010PropOp45
 70
     1
102
RTVSPost2010Prop46
 90
       50
102
RTVSPost2010PropOp46
 70
     1
102
RTVSPost2010Prop47
 90
       50
102
RTVSPost2010PropOp47
 70
     1
102
RTVSPost2010Prop48
 90
       50
102
RTVSPost2010PropOp48
 70
     1
102
RTVSPost2010Prop49
280
     0
102
RTVSPost2010PropOp49
 70
     1
102
RTVSPost2010Prop50
 90
       50
102
RTVSPost2010PropOp50
 70
     1
102
RTVSPost2010Prop51ColorIndex
 90
      256
102
RTVSPost2010Prop51ColorRGB
 90
-16777216
102
RTVSPost2010PropOp51
 70
     0
102
RTVSPost2010Prop52
140
1.0
102
RTVSPost2010PropOp52
 70
     0
102
RTVSPost2010Prop53
 90
        2
102
RTVSPost2010PropOp53
 70
     1
102
RTVSPost2010Prop54
  1
strokes_ogs.tif
102
RTVSPost2010PropOp54
 70
     1
102
RTVSPost2010Prop55
280
     0
102
RTVSPost2010PropOp55
 70
     1
102
RTVSPost2010Prop56
140
1.0
102
RTVSPost2010PropOp56
 70
     1
102
RTVSPost2010Prop57
140
1.0
102
RTVSPost2010PropOp57
 70
     1
102
RTVSPropertyOp0
 70
     1
102
RTVSPropertyOp1
 70
     1
102
RTVSPropertyOp2
 70
     1
102
RTVSPropertyOp3
 70
     1
102
RTVSPropertyOp4
 70
     1
102
RTVSPropertyOp5
 70
     1
102
RTVSPropertyOp6
 70
     1
102
RTVSPropertyOp7
 70
     1
102
RTVSPropertyOp8
 70
     1
102
RTVSPropertyOp9
 70
     1
102
RTVSPropertyOp10
 70
     1
102
RTVSPropertyOp11
 70
     1
102
RTVSPropertyOp12
 70
     1
102
RTVSPropertyOp13
 70
     1
102
RTVSPropertyOp14
 70
     1
102
RTVSPropertyOp15
 70
     1
102
RTVSPropertyOp16
 70
     1
102
RTVSPropertyOp17
 70
     1
102
RTVSPropertyOp18
 70
     1
102
RTVSPropertyOp19
 70
     1
102
RTVSPropertyOp20
 70
     1
102
RTVSPropertyOp21
 70
     1
102
RTVSPropertyOp22
 70
     1
102
RTVSPropertyOp23
 70
     1
102
RTVSPropertyOp24
 70
     1
102
RTVSPropertyOp25
 70
     1
102
RTVSPropertyOp26
 70
     1
102
RTVSPropertyOp27
 70
     1
102
RTVSPropertyOp28
 70
     1
102
RTVSPropertyOp29
 70
     1
102
RTVSPropertyOp30
 70
     1
102
RTVSPropertyOp31
 70
     1
102
RTVSPropertyOp32
 70
     1
102
RTVSPropertyOp33
 70
     1
102
RTVSPropertyOp34
 70
     1
102
RTVSPropertyOp35
 70
     1
102
RTVSPropertyOp36
 70
     1
102
RTVSPropertyOp37
 70
     1
102
RTVSPropertyOp38
 70
     1
102
RTVSPropertyOp39
 70
     1
102
RTVSPropertyOp40
 70
     1
102
RTVSPropertyOp41
 70
     1
102
RTVSPropertyOp42
 70
     1
102
RTVSPropertyOp43
 70
     1
102
RTVSPropertyOp44
 70
     1
102
RTVSPropertyOp45
 70
     1
102
RTVSPropertyOp46
 70
     1
102
RTVSPropertyOp47
 70
     1
102
RTVSPropertyOp48
 70
     1
102
RTVSPropertyOp49
 70
     1
102
RTVSPropertyOp50
 70
     1
102
RTVSPropertyOp51
 70
     0
102
RTVSPropertyOp52
 70
     0
102
RTVSPropertyOp53
 70
     1
102
RTVSPropertyOp54
 70
     1
102
RTVSPropertyOp55
 70
     1
102
RTVSPropertyOp56
 70
     1
102
RTVSPropertyOp57
 70
     1
102
RTVSPropertyOp58
 70
     1
102
RTVSPropertyOp59
 70
     1
102
RTVSPropertyOp60
 70
     1
102
RTVSPropertyOp61
 70
     1
102
RTVSPropertyOp62
 70
     1
  0
XRECORD
  5
156AD
102
{ACAD_REACTORS
330
156AC
102
}
330
156AC
100
AcDbXrecord
280
     1
102
RTVSPost2010Prop28
280
     0
102
RTVSPost2010PropOp28
 70
     1
102
RTVSPost2010Prop29
280
     1
102
RTVSPost2010PropOp29
 70
     1
102
RTVSPost2010Prop30
280
     1
102
RTVSPost2010PropOp30
 70
     1
102
RTVSPost2010Prop31
280
     0
102
RTVSPost2010PropOp31
 70
     1
102
RTVSPost2010Prop32
280
     0
102
RTVSPost2010PropOp32
 70
     1
102
RTVSPost2010Prop33
280
     0
102
RTVSPost2010PropOp33
 70
     1
102
RTVSPost2010Prop34
280
     0
102
RTVSPost2010PropOp34
 70
     1
102
RTVSPost2010Prop35
280
     0
102
RTVSPost2010PropOp35
 70
     1
102
RTVSPost2010Prop36
280
     0
102
RTVSPost2010PropOp36
 70
     1
102
RTVSPost2010Prop37
 90
       50
102
RTVSPost2010PropOp37
 70
     1
102
RTVSPost2010Prop38
140
0.0
102
RTVSPost2010PropOp38
 70
     1
102
RTVSPost2010Prop39
140
1.0
102
RTVSPost2010PropOp39
 70
     1
102
RTVSPost2010Prop40
 90
        0
102
RTVSPost2010PropOp40
 70
     1
102
RTVSPost2010Prop41ColorIndex
 90
       18
102
RTVSPost2010Prop41ColorRGB
 90
        0
102
RTVSPost2010PropOp41
 70
     1
102
RTVSPost2010Prop42
 90
       50
102
RTVSPost2010PropOp42
 70
     1
102
RTVSPost2010Prop43
 90
        3
102
RTVSPost2010PropOp43
 70
     1
102
RTVSPost2010Prop44ColorIndex
 90
        5
102
RTVSPost2010Prop44ColorRGB
 90
      255
102
RTVSPost2010PropOp44
 70
     1
102
RTVSPost2010Prop45
280
     0
102
RTVSPost2010PropOp45
 70
     1
102
RTVSPost2010Prop46
 90
       50
102
RTVSPost2010PropOp46
 70
     1
102
RTVSPost2010Prop47
 90
       50
102
RTVSPost2010PropOp47
 70
     1
102
RTVSPost2010Prop48
 90
       50
102
RTVSPost2010PropOp48
 70
     1
102
RTVSPost2010Prop49
280
     0
102
RTVSPost2010PropOp49
 70
     1
102
RTVSPost2010Prop50
 90
       50
102
RTVSPost2010PropOp50
 70
     1
102
RTVSPost2010Prop51ColorIndex
 90
      256
102
RTVSPost2010Prop51ColorRGB
 90
-16777216
102
RTVSPost2010PropOp51
 70
     0
102
RTVSPost2010Prop52
140
1.0
102
RTVSPost2010PropOp52
 70
     0
102
RTVSPost2010Prop53
 90
        2
102
RTVSPost2010PropOp53
 70
     1
102
RTVSPost2010Prop54
  1
strokes_ogs.tif
102
RTVSPost2010PropOp54
 70
     1
102
RTVSPost2010Prop55
280
     0
102
RTVSPost2010PropOp55
 70
     1
102
RTVSPost2010Prop56
140
1.0
102
RTVSPost2010PropOp56
 70
     1
102
RTVSPost2010Prop57
140
1.0
102
RTVSPost2010PropOp57
 70
     1
102
RTVSPropertyOp0
 70
     1
102
RTVSPropertyOp1
 70
     1
102
RTVSPropertyOp2
 70
     1
102
RTVSPropertyOp3
 70
     1
102
RTVSPropertyOp4
 70
     1
102
RTVSPropertyOp5
 70
     1
102
RTVSPropertyOp6
 70
     1
102
RTVSPropertyOp7
 70
     1
102
RTVSPropertyOp8
 70
     1
102
RTVSPropertyOp9
 70
     1
102
RTVSPropertyOp10
 70
     1
102
RTVSPropertyOp11
 70
     1
102
RTVSPropertyOp12
 70
     1
102
RTVSPropertyOp13
 70
     1
102
RTVSPropertyOp14
 70
     1
102
RTVSPropertyOp15
 70
     1
102
RTVSPropertyOp16
 70
     1
102
RTVSPropertyOp17
 70
     1
102
RTVSPropertyOp18
 70
     1
102
RTVSPropertyOp19
 70
     1
102
RTVSPropertyOp20
 70
     1
102
RTVSPropertyOp21
 70
     1
102
RTVSPropertyOp22
 70
     1
102
RTVSPropertyOp23
 70
     1
102
RTVSPropertyOp24
 70
     1
102
RTVSPropertyOp25
 70
     1
102
RTVSPropertyOp26
 70
     1
102
RTVSPropertyOp27
 70
     1
102
RTVSPropertyOp28
 70
     1
102
RTVSPropertyOp29
 70
     1
102
RTVSPropertyOp30
 70
     1
102
RTVSPropertyOp31
 70
     1
102
RTVSPropertyOp32
 70
     1
102
RTVSPropertyOp33
 70
     1
102
RTVSPropertyOp34
 70
     1
102
RTVSPropertyOp35
 70
     1
102
RTVSPropertyOp36
 70
     1
102
RTVSPropertyOp37
 70
     1
102
RTVSPropertyOp38
 70
     1
102
RTVSPropertyOp39
 70
     1
102
RTVSPropertyOp40
 70
     1
102
RTVSPropertyOp41
 70
     1
102
RTVSPropertyOp42
 70
     1
102
RTVSPropertyOp43
 70
     1
102
RTVSPropertyOp44
 70
     1
102
RTVSPropertyOp45
 70
     1
102
RTVSPropertyOp46
 70
     1
102
RTVSPropertyOp47
 70
     1
102
RTVSPropertyOp48
 70
     1
102
RTVSPropertyOp49
 70
     1
102
RTVSPropertyOp50
 70
     1
102
RTVSPropertyOp51
 70
     0
102
RTVSPropertyOp52
 70
     0
102
RTVSPropertyOp53
 70
     1
102
RTVSPropertyOp54
 70
     1
102
RTVSPropertyOp55
 70
     1
102
RTVSPropertyOp56
 70
     1
102
RTVSPropertyOp57
 70
     1
102
RTVSPropertyOp58
 70
     1
102
RTVSPropertyOp59
 70
     1
102
RTVSPropertyOp60
 70
     1
102
RTVSPropertyOp61
 70
     1
102
RTVSPropertyOp62
 70
     1
  0
XRECORD
  5
156A3
102
{ACAD_REACTORS
330
156A2
102
}
330
156A2
100
AcDbXrecord
280
     1
102
RTVSPost2010Prop28
280
     0
102
RTVSPost2010PropOp28
 70
     1
102
RTVSPost2010Prop29
280
     1
102
RTVSPost2010PropOp29
 70
     1
102
RTVSPost2010Prop30
280
     1
102
RTVSPost2010PropOp30
 70
     1
102
RTVSPost2010Prop31
280
     0
102
RTVSPost2010PropOp31
 70
     1
102
RTVSPost2010Prop32
280
     0
102
RTVSPost2010PropOp32
 70
     1
102
RTVSPost2010Prop33
280
     0
102
RTVSPost2010PropOp33
 70
     1
102
RTVSPost2010Prop34
280
     0
102
RTVSPost2010PropOp34
 70
     1
102
RTVSPost2010Prop35
280
     0
102
RTVSPost2010PropOp35
 70
     1
102
RTVSPost2010Prop36
280
     0
102
RTVSPost2010PropOp36
 70
     1
102
RTVSPost2010Prop37
 90
       50
102
RTVSPost2010PropOp37
 70
     1
102
RTVSPost2010Prop38
140
0.0
102
RTVSPost2010PropOp38
 70
     1
102
RTVSPost2010Prop39
140
1.0
102
RTVSPost2010PropOp39
 70
     1
102
RTVSPost2010Prop40
 90
        0
102
RTVSPost2010PropOp40
 70
     1
102
RTVSPost2010Prop41ColorIndex
 90
       18
102
RTVSPost2010Prop41ColorRGB
 90
        0
102
RTVSPost2010PropOp41
 70
     1
102
RTVSPost2010Prop42
 90
       50
102
RTVSPost2010PropOp42
 70
     1
102
RTVSPost2010Prop43
 90
        3
102
RTVSPost2010PropOp43
 70
     1
102
RTVSPost2010Prop44ColorIndex
 90
        5
102
RTVSPost2010Prop44ColorRGB
 90
      255
102
RTVSPost2010PropOp44
 70
     1
102
RTVSPost2010Prop45
280
     0
102
RTVSPost2010PropOp45
 70
     1
102
RTVSPost2010Prop46
 90
       50
102
RTVSPost2010PropOp46
 70
     1
102
RTVSPost2010Prop47
 90
       50
102
RTVSPost2010PropOp47
 70
     1
102
RTVSPost2010Prop48
 90
       50
102
RTVSPost2010PropOp48
 70
     1
102
RTVSPost2010Prop49
280
     0
102
RTVSPost2010PropOp49
 70
     1
102
RTVSPost2010Prop50
 90
       50
102
RTVSPost2010PropOp50
 70
     1
102
RTVSPost2010Prop51ColorIndex
 90
      256
102
RTVSPost2010Prop51ColorRGB
 90
-16777216
102
RTVSPost2010PropOp51
 70
     0
102
RTVSPost2010Prop52
140
1.0
102
RTVSPost2010PropOp52
 70
     0
102
RTVSPost2010Prop53
 90
        2
102
RTVSPost2010PropOp53
 70
     1
102
RTVSPost2010Prop54
  1
strokes_ogs.tif
102
RTVSPost2010PropOp54
 70
     1
102
RTVSPost2010Prop55
280
     0
102
RTVSPost2010PropOp55
 70
     1
102
RTVSPost2010Prop56
140
1.0
102
RTVSPost2010PropOp56
 70
     1
102
RTVSPost2010Prop57
140
1.0
102
RTVSPost2010PropOp57
 70
     1
102
RTVSPropertyOp0
 70
     1
102
RTVSPropertyOp1
 70
     1
102
RTVSPropertyOp2
 70
     1
102
RTVSPropertyOp3
 70
     1
102
RTVSPropertyOp4
 70
     1
102
RTVSPropertyOp5
 70
     1
102
RTVSPropertyOp6
 70
     1
102
RTVSPropertyOp7
 70
     1
102
RTVSPropertyOp8
 70
     1
102
RTVSPropertyOp9
 70
     1
102
RTVSPropertyOp10
 70
     1
102
RTVSPropertyOp11
 70
     1
102
RTVSPropertyOp12
 70
     1
102
RTVSPropertyOp13
 70
     1
102
RTVSPropertyOp14
 70
     1
102
RTVSPropertyOp15
 70
     1
102
RTVSPropertyOp16
 70
     1
102
RTVSPropertyOp17
 70
     1
102
RTVSPropertyOp18
 70
     1
102
RTVSPropertyOp19
 70
     1
102
RTVSPropertyOp20
 70
     1
102
RTVSPropertyOp21
 70
     1
102
RTVSPropertyOp22
 70
     1
102
RTVSPropertyOp23
 70
     1
102
RTVSPropertyOp24
 70
     1
102
RTVSPropertyOp25
 70
     1
102
RTVSPropertyOp26
 70
     1
102
RTVSPropertyOp27
 70
     1
102
RTVSPropertyOp28
 70
     1
102
RTVSPropertyOp29
 70
     1
102
RTVSPropertyOp30
 70
     1
102
RTVSPropertyOp31
 70
     1
102
RTVSPropertyOp32
 70
     1
102
RTVSPropertyOp33
 70
     1
102
RTVSPropertyOp34
 70
     1
102
RTVSPropertyOp35
 70
     1
102
RTVSPropertyOp36
 70
     1
102
RTVSPropertyOp37
 70
     1
102
RTVSPropertyOp38
 70
     1
102
RTVSPropertyOp39
 70
     1
102
RTVSPropertyOp40
 70
     1
102
RTVSPropertyOp41
 70
     1
102
RTVSPropertyOp42
 70
     1
102
RTVSPropertyOp43
 70
     1
102
RTVSPropertyOp44
 70
     1
102
RTVSPropertyOp45
 70
     1
102
RTVSPropertyOp46
 70
     1
102
RTVSPropertyOp47
 70
     1
102
RTVSPropertyOp48
 70
     1
102
RTVSPropertyOp49
 70
     1
102
RTVSPropertyOp50
 70
     1
102
RTVSPropertyOp51
 70
     0
102
RTVSPropertyOp52
 70
     0
102
RTVSPropertyOp53
 70
     1
102
RTVSPropertyOp54
 70
     1
102
RTVSPropertyOp55
 70
     1
102
RTVSPropertyOp56
 70
     1
102
RTVSPropertyOp57
 70
     1
102
RTVSPropertyOp58
 70
     1
102
RTVSPropertyOp59
 70
     1
102
RTVSPropertyOp60
 70
     1
102
RTVSPropertyOp61
 70
     1
102
RTVSPropertyOp62
 70
     1
  0
XRECORD
  5
15697
102
{ACAD_REACTORS
330
15696
102
}
330
15696
100
AcDbXrecord
280
     1
102
RTVSPost2010Prop28
280
     0
102
RTVSPost2010PropOp28
 70
     1
102
RTVSPost2010Prop29
280
     1
102
RTVSPost2010PropOp29
 70
     1
102
RTVSPost2010Prop30
280
     1
102
RTVSPost2010PropOp30
 70
     1
102
RTVSPost2010Prop31
280
     0
102
RTVSPost2010PropOp31
 70
     1
102
RTVSPost2010Prop32
280
     0
102
RTVSPost2010PropOp32
 70
     1
102
RTVSPost2010Prop33
280
     0
102
RTVSPost2010PropOp33
 70
     1
102
RTVSPost2010Prop34
280
     0
102
RTVSPost2010PropOp34
 70
     1
102
RTVSPost2010Prop35
280
     0
102
RTVSPost2010PropOp35
 70
     1
102
RTVSPost2010Prop36
280
     0
102
RTVSPost2010PropOp36
 70
     1
102
RTVSPost2010Prop37
 90
       50
102
RTVSPost2010PropOp37
 70
     1
102
RTVSPost2010Prop38
140
0.0
102
RTVSPost2010PropOp38
 70
     1
102
RTVSPost2010Prop39
140
1.0
102
RTVSPost2010PropOp39
 70
     1
102
RTVSPost2010Prop40
 90
        0
102
RTVSPost2010PropOp40
 70
     1
102
RTVSPost2010Prop41ColorIndex
 90
       18
102
RTVSPost2010Prop41ColorRGB
 90
        0
102
RTVSPost2010PropOp41
 70
     1
102
RTVSPost2010Prop42
 90
       50
102
RTVSPost2010PropOp42
 70
     1
102
RTVSPost2010Prop43
 90
        3
102
RTVSPost2010PropOp43
 70
     1
102
RTVSPost2010Prop44ColorIndex
 90
        5
102
RTVSPost2010Prop44ColorRGB
 90
      255
102
RTVSPost2010PropOp44
 70
     1
102
RTVSPost2010Prop45
280
     0
102
RTVSPost2010PropOp45
 70
     1
102
RTVSPost2010Prop46
 90
       50
102
RTVSPost2010PropOp46
 70
     1
102
RTVSPost2010Prop47
 90
       50
102
RTVSPost2010PropOp47
 70
     1
102
RTVSPost2010Prop48
 90
       50
102
RTVSPost2010PropOp48
 70
     1
102
RTVSPost2010Prop49
280
     0
102
RTVSPost2010PropOp49
 70
     1
102
RTVSPost2010Prop50
 90
       50
102
RTVSPost2010PropOp50
 70
     1
102
RTVSPost2010Prop51ColorIndex
 90
      256
102
RTVSPost2010Prop51ColorRGB
 90
-16777216
102
RTVSPost2010PropOp51
 70
     0
102
RTVSPost2010Prop52
140
1.0
102
RTVSPost2010PropOp52
 70
     0
102
RTVSPost2010Prop53
 90
        2
102
RTVSPost2010PropOp53
 70
     1
102
RTVSPost2010Prop54
  1
strokes_ogs.tif
102
RTVSPost2010PropOp54
 70
     1
102
RTVSPost2010Prop55
280
     0
102
RTVSPost2010PropOp55
 70
     1
102
RTVSPost2010Prop56
140
1.0
102
RTVSPost2010PropOp56
 70
     1
102
RTVSPost2010Prop57
140
1.0
102
RTVSPost2010PropOp57
 70
     1
102
RTVSPropertyOp0
 70
     1
102
RTVSPropertyOp1
 70
     1
102
RTVSPropertyOp2
 70
     1
102
RTVSPropertyOp3
 70
     1
102
RTVSPropertyOp4
 70
     1
102
RTVSPropertyOp5
 70
     1
102
RTVSPropertyOp6
 70
     1
102
RTVSPropertyOp7
 70
     1
102
RTVSPropertyOp8
 70
     1
102
RTVSPropertyOp9
 70
     1
102
RTVSPropertyOp10
 70
     1
102
RTVSPropertyOp11
 70
     1
102
RTVSPropertyOp12
 70
     1
102
RTVSPropertyOp13
 70
     1
102
RTVSPropertyOp14
 70
     1
102
RTVSPropertyOp15
 70
     1
102
RTVSPropertyOp16
 70
     1
102
RTVSPropertyOp17
 70
     1
102
RTVSPropertyOp18
 70
     1
102
RTVSPropertyOp19
 70
     1
102
RTVSPropertyOp20
 70
     1
102
RTVSPropertyOp21
 70
     1
102
RTVSPropertyOp22
 70
     1
102
RTVSPropertyOp23
 70
     1
102
RTVSPropertyOp24
 70
     1
102
RTVSPropertyOp25
 70
     1
102
RTVSPropertyOp26
 70
     1
102
RTVSPropertyOp27
 70
     1
102
RTVSPropertyOp28
 70
     1
102
RTVSPropertyOp29
 70
     1
102
RTVSPropertyOp30
 70
     1
102
RTVSPropertyOp31
 70
     1
102
RTVSPropertyOp32
 70
     1
102
RTVSPropertyOp33
 70
     1
102
RTVSPropertyOp34
 70
     1
102
RTVSPropertyOp35
 70
     1
102
RTVSPropertyOp36
 70
     1
102
RTVSPropertyOp37
 70
     1
102
RTVSPropertyOp38
 70
     1
102
RTVSPropertyOp39
 70
     1
102
RTVSPropertyOp40
 70
     1
102
RTVSPropertyOp41
 70
     1
102
RTVSPropertyOp42
 70
     1
102
RTVSPropertyOp43
 70
     1
102
RTVSPropertyOp44
 70
     1
102
RTVSPropertyOp45
 70
     1
102
RTVSPropertyOp46
 70
     1
102
RTVSPropertyOp47
 70
     1
102
RTVSPropertyOp48
 70
     1
102
RTVSPropertyOp49
 70
     1
102
RTVSPropertyOp50
 70
     1
102
RTVSPropertyOp51
 70
     0
102
RTVSPropertyOp52
 70
     0
102
RTVSPropertyOp53
 70
     1
102
RTVSPropertyOp54
 70
     1
102
RTVSPropertyOp55
 70
     1
102
RTVSPropertyOp56
 70
     1
102
RTVSPropertyOp57
 70
     1
102
RTVSPropertyOp58
 70
     1
102
RTVSPropertyOp59
 70
     1
102
RTVSPropertyOp60
 70
     1
102
RTVSPropertyOp61
 70
     1
102
RTVSPropertyOp62
 70
     1
  0
XRECORD
  5
156AF
102
{ACAD_REACTORS
330
156AE
102
}
330
156AE
100
AcDbXrecord
280
     1
102
RTVSPost2010Prop28
280
     0
102
RTVSPost2010PropOp28
 70
     1
102
RTVSPost2010Prop29
280
     1
102
RTVSPost2010PropOp29
 70
     1
102
RTVSPost2010Prop30
280
     1
102
RTVSPost2010PropOp30
 70
     1
102
RTVSPost2010Prop31
280
     0
102
RTVSPost2010PropOp31
 70
     1
102
RTVSPost2010Prop32
280
     0
102
RTVSPost2010PropOp32
 70
     1
102
RTVSPost2010Prop33
280
     0
102
RTVSPost2010PropOp33
 70
     1
102
RTVSPost2010Prop34
280
     0
102
RTVSPost2010PropOp34
 70
     1
102
RTVSPost2010Prop35
280
     0
102
RTVSPost2010PropOp35
 70
     1
102
RTVSPost2010Prop36
280
     0
102
RTVSPost2010PropOp36
 70
     1
102
RTVSPost2010Prop37
 90
       50
102
RTVSPost2010PropOp37
 70
     1
102
RTVSPost2010Prop38
140
0.0
102
RTVSPost2010PropOp38
 70
     1
102
RTVSPost2010Prop39
140
1.0
102
RTVSPost2010PropOp39
 70
     1
102
RTVSPost2010Prop40
 90
        0
102
RTVSPost2010PropOp40
 70
     1
102
RTVSPost2010Prop41ColorIndex
 90
       18
102
RTVSPost2010Prop41ColorRGB
 90
        0
102
RTVSPost2010PropOp41
 70
     1
102
RTVSPost2010Prop42
 90
       50
102
RTVSPost2010PropOp42
 70
     1
102
RTVSPost2010Prop43
 90
        3
102
RTVSPost2010PropOp43
 70
     1
102
RTVSPost2010Prop44ColorIndex
 90
        5
102
RTVSPost2010Prop44ColorRGB
 90
      255
102
RTVSPost2010PropOp44
 70
     1
102
RTVSPost2010Prop45
280
     0
102
RTVSPost2010PropOp45
 70
     1
102
RTVSPost2010Prop46
 90
       50
102
RTVSPost2010PropOp46
 70
     1
102
RTVSPost2010Prop47
 90
       50
102
RTVSPost2010PropOp47
 70
     1
102
RTVSPost2010Prop48
 90
       50
102
RTVSPost2010PropOp48
 70
     1
102
RTVSPost2010Prop49
280
     0
102
RTVSPost2010PropOp49
 70
     1
102
RTVSPost2010Prop50
 90
       50
102
RTVSPost2010PropOp50
 70
     1
102
RTVSPost2010Prop51ColorIndex
 90
      256
102
RTVSPost2010Prop51ColorRGB
 90
-16777216
102
RTVSPost2010PropOp51
 70
     0
102
RTVSPost2010Prop52
140
1.0
102
RTVSPost2010PropOp52
 70
     0
102
RTVSPost2010Prop53
 90
        2
102
RTVSPost2010PropOp53
 70
     1
102
RTVSPost2010Prop54
  1
strokes_ogs.tif
102
RTVSPost2010PropOp54
 70
     1
102
RTVSPost2010Prop55
280
     0
102
RTVSPost2010PropOp55
 70
     1
102
RTVSPost2010Prop56
140
1.0
102
RTVSPost2010PropOp56
 70
     1
102
RTVSPost2010Prop57
140
1.0
102
RTVSPost2010PropOp57
 70
     1
102
RTVSPropertyOp0
 70
     1
102
RTVSPropertyOp1
 70
     1
102
RTVSPropertyOp2
 70
     1
102
RTVSPropertyOp3
 70
     1
102
RTVSPropertyOp4
 70
     1
102
RTVSPropertyOp5
 70
     1
102
RTVSPropertyOp6
 70
     1
102
RTVSPropertyOp7
 70
     1
102
RTVSPropertyOp8
 70
     1
102
RTVSPropertyOp9
 70
     1
102
RTVSPropertyOp10
 70
     1
102
RTVSPropertyOp11
 70
     1
102
RTVSPropertyOp12
 70
     1
102
RTVSPropertyOp13
 70
     1
102
RTVSPropertyOp14
 70
     1
102
RTVSPropertyOp15
 70
     1
102
RTVSPropertyOp16
 70
     1
102
RTVSPropertyOp17
 70
     1
102
RTVSPropertyOp18
 70
     1
102
RTVSPropertyOp19
 70
     1
102
RTVSPropertyOp20
 70
     1
102
RTVSPropertyOp21
 70
     1
102
RTVSPropertyOp22
 70
     1
102
RTVSPropertyOp23
 70
     1
102
RTVSPropertyOp24
 70
     1
102
RTVSPropertyOp25
 70
     1
102
RTVSPropertyOp26
 70
     1
102
RTVSPropertyOp27
 70
     1
102
RTVSPropertyOp28
 70
     1
102
RTVSPropertyOp29
 70
     1
102
RTVSPropertyOp30
 70
     1
102
RTVSPropertyOp31
 70
     1
102
RTVSPropertyOp32
 70
     1
102
RTVSPropertyOp33
 70
     1
102
RTVSPropertyOp34
 70
     1
102
RTVSPropertyOp35
 70
     1
102
RTVSPropertyOp36
 70
     1
102
RTVSPropertyOp37
 70
     1
102
RTVSPropertyOp38
 70
     1
102
RTVSPropertyOp39
 70
     1
102
RTVSPropertyOp40
 70
     1
102
RTVSPropertyOp41
 70
     1
102
RTVSPropertyOp42
 70
     1
102
RTVSPropertyOp43
 70
     1
102
RTVSPropertyOp44
 70
     1
102
RTVSPropertyOp45
 70
     1
102
RTVSPropertyOp46
 70
     1
102
RTVSPropertyOp47
 70
     1
102
RTVSPropertyOp48
 70
     1
102
RTVSPropertyOp49
 70
     1
102
RTVSPropertyOp50
 70
     1
102
RTVSPropertyOp51
 70
     0
102
RTVSPropertyOp52
 70
     0
102
RTVSPropertyOp53
 70
     1
102
RTVSPropertyOp54
 70
     1
102
RTVSPropertyOp55
 70
     1
102
RTVSPropertyOp56
 70
     1
102
RTVSPropertyOp57
 70
     1
102
RTVSPropertyOp58
 70
     1
102
RTVSPropertyOp59
 70
     1
102
RTVSPropertyOp60
 70
     1
102
RTVSPropertyOp61
 70
     1
102
RTVSPropertyOp62
 70
     1
  0
ENDSEC
  0
EOF
