  0
SECTION
  2
HEADER
  9
$ACADVER
  1
AC1015
  9
$ACADMAINTVER
 70
    20
  9
$DWGCODEPAGE
  3
ANSI_932
  9
$INSBASE
 10
0.0
 20
0.0
 30
0.0
  9
$EXTMIN
 10
104.9999999999996
 20
0.0
 30
-0.0000000000026306
  9
$EXTMAX
 10
12230.4
 20
8557.199999999999
 30
0.0
  9
$LIMMIN
 10
0.0
 20
0.0
  9
$LIMMAX
 10
12600.0
 20
8910.0
  9
$ORTHOMODE
 70
     0
  9
$REGENMODE
 70
     1
  9
$FILLMODE
 70
     1
  9
$QTEXTMODE
 70
     0
  9
$MIRRTEXT
 70
     1
  9
$LTSCALE
 40
7.0
  9
$ATTMODE
 70
     1
  9
$TEXTSIZE
 40
100.0
  9
$TRACEWID
 40
1.0
  9
$TEXTSTYLE
  7
STYLE3
  9
$CLAYER
  8
点線
  9
$CELTYPE
  6
BYLAYER
  9
$CECOLOR
 62
   256
  9
$CELTSCALE
 40
50.0
  9
$DISPSILH
 70
     0
  9
$DIMSCALE
 40
30.0
  9
$DIMASZ
 40
2.5
  9
$DIMEXO
 40
0.5
  9
$DIMDLI
 40
7.0
  9
$DIMRND
 40
0.0
  9
$DIMDLE
 40
0.0
  9
$DIMEXE
 40
1.5
  9
$DIMTP
 40
0.0
  9
$DIMTM
 40
0.0
  9
$DIMTXT
 40
3.0
  9
$DIMCEN
 40
0.0
  9
$DIMTSZ
 40
0.0
  9
$DIMTOL
 70
     0
  9
$DIMLIM
 70
     0
  9
$DIMTIH
 70
     1
  9
$DIMTOH
 70
     1
  9
$DIMSE1
 70
     0
  9
$DIMSE2
 70
     0
  9
$DIMTAD
 70
     3
  9
$DIMZIN
 70
     8
  9
$DIMBLK
  1

  9
$DIMASO
 70
     1
  9
$DIMSHO
 70
     1
  9
$DIMPOST
  1

  9
$DIMAPOST
  1

  9
$DIMALT
 70
     0
  9
$DIMALTD
 70
     2
  9
$DIMALTF
 40
0.0394
  9
$DIMLFAC
 40
1.0
  9
$DIMTOFL
 70
     1
  9
$DIMTVP
 40
0.0
  9
$DIMTIX
 70
     1
  9
$DIMSOXD
 70
     1
  9
$DIMSAH
 70
     1
  9
$DIMBLK1
  1
DOTSMALL
  9
$DIMBLK2
  1
DOTSMALL
  9
$DIMSTYLE
  2
INABA_S30G
  9
$DIMCLRD
 70
     0
  9
$DIMCLRE
 70
     0
  9
$DIMCLRT
 70
     7
  9
$DIMTFAC
 40
1.0
  9
$DIMGAP
 40
1.0
  9
$DIMJUST
 70
     0
  9
$DIMSD1
 70
     0
  9
$DIMSD2
 70
     0
  9
$DIMTOLJ
 70
     1
  9
$DIMTZIN
 70
     0
  9
$DIMALTZ
 70
     0
  9
$DIMALTTZ
 70
     0
  9
$DIMUPT
 70
     0
  9
$DIMDEC
 70
     1
  9
$DIMTDEC
 70
     1
  9
$DIMALTU
 70
     2
  9
$DIMALTTD
 70
     2
  9
$DIMTXSTY
  7
STYLE1
  9
$DIMAUNIT
 70
     0
  9
$DIMADEC
 70
     0
  9
$DIMALTRND
 40
0.0
  9
$DIMAZIN
 70
     0
  9
$DIMDSEP
 70
    46
  9
$DIMATFIT
 70
     3
  9
$DIMFRAC
 70
     0
  9
$DIMLDRBLK
  1

  9
$DIMLUNIT
 70
     2
  9
$DIMLWD
 70
    -2
  9
$DIMLWE
 70
    -2
  9
$DIMTMOVE
 70
     0
  9
$LUNITS
 70
     2
  9
$LUPREC
 70
     1
  9
$SKETCHINC
 40
1.0
  9
$FILLETRAD
 40
5.0
  9
$AUNITS
 70
     0
  9
$AUPREC
 70
     0
  9
$MENU
  1
acad
  9
$ELEVATION
 40
0.0
  9
$PELEVATION
 40
0.0
  9
$THICKNESS
 40
0.0
  9
$LIMCHECK
 70
     0
  9
$CHAMFERA
 40
0.0
  9
$CHAMFERB
 40
0.0
  9
$CHAMFERC
 40
0.0
  9
$CHAMFERD
 40
0.0
  9
$SKPOLY
 70
     0
  9
$TDCREATE
 40
2451074.411873148
  9
$TDUCREATE
 40
2451074.036873148
  9
$TDUPDATE
 40
2456560.838256783
  9
$TDUUPDATE
 40
2456560.463256783
  9
$TDINDWG
 40
0.3479184606
  9
$TDUSRTIMER
 40
0.3479184606
  9
$USRTIMER
 70
     1
  9
$ANGBASE
 50
0.0
  9
$ANGDIR
 70
     0
  9
$PDMODE
 70
     3
  9
$PDSIZE
 40
2.0
  9
$PLINEWID
 40
0.0
  9
$SPLFRAME
 70
     0
  9
$SPLINETYPE
 70
     6
  9
$SPLINESEGS
 70
     8
  9
$HANDSEED
  5
1580B
  9
$SURFTAB1
 70
     6
  9
$SURFTAB2
 70
     6
  9
$SURFTYPE
 70
     6
  9
$SURFU
 70
     6
  9
$SURFV
 70
     6
  9
$UCSBASE
  2

  9
$UCSNAME
  2

  9
$UCSORG
 10
0.0
 20
0.0
 30
0.0
  9
$UCSXDIR
 10
1.0
 20
0.0
 30
0.0
  9
$UCSYDIR
 10
0.0
 20
1.0
 30
0.0
  9
$UCSORTHOREF
  2

  9
$UCSORTHOVIEW
 70
     0
  9
$UCSORGTOP
 10
0.0
 20
0.0
 30
0.0
  9
$UCSORGBOTTOM
 10
0.0
 20
0.0
 30
0.0
  9
$UCSORGLEFT
 10
0.0
 20
0.0
 30
0.0
  9
$UCSORGRIGHT
 10
0.0
 20
0.0
 30
0.0
  9
$UCSORGFRONT
 10
0.0
 20
0.0
 30
0.0
  9
$UCSORGBACK
 10
0.0
 20
0.0
 30
0.0
  9
$PUCSBASE
  2

  9
$PUCSNAME
  2

  9
$PUCSORG
 10
0.0
 20
0.0
 30
0.0
  9
$PUCSXDIR
 10
1.0
 20
0.0
 30
0.0
  9
$PUCSYDIR
 10
0.0
 20
1.0
 30
0.0
  9
$PUCSORTHOREF
  2

  9
$PUCSORTHOVIEW
 70
     0
  9
$PUCSORGTOP
 10
0.0
 20
0.0
 30
0.0
  9
$PUCSORGBOTTOM
 10
0.0
 20
0.0
 30
0.0
  9
$PUCSORGLEFT
 10
0.0
 20
0.0
 30
0.0
  9
$PUCSORGRIGHT
 10
0.0
 20
0.0
 30
0.0
  9
$PUCSORGFRONT
 10
0.0
 20
0.0
 30
0.0
  9
$PUCSORGBACK
 10
0.0
 20
0.0
 30
0.0
  9
$USERI1
 70
     0
  9
$USERI2
 70
     0
  9
$USERI3
 70
     0
  9
$USERI4
 70
     0
  9
$USERI5
 70
     0
  9
$USERR1
 40
0.0
  9
$USERR2
 40
0.0
  9
$USERR3
 40
0.0
  9
$USERR4
 40
0.0
  9
$USERR5
 40
0.0
  9
$WORLDVIEW
 70
     1
  9
$SHADEDGE
 70
     3
  9
$SHADEDIF
 70
    70
  9
$TILEMODE
 70
     1
  9
$MAXACTVP
 70
    16
  9
$PINSBASE
 10
0.0
 20
0.0
 30
0.0
  9
$PLIMCHECK
 70
     0
  9
$PEXTMIN
 10
1.000000000000000E+20
 20
1.000000000000000E+20
 30
1.000000000000000E+20
  9
$PEXTMAX
 10
-1.000000000000000E+20
 20
-1.000000000000000E+20
 30
-1.000000000000000E+20
  9
$PLIMMIN
 10
0.0
 20
0.0
  9
$PLIMMAX
 10
420.0
 20
297.0
  9
$UNITMODE
 70
     0
  9
$VISRETAIN
 70
     0
  9
$PLINEGEN
 70
     0
  9
$PSLTSCALE
 70
     0
  9
$TREEDEPTH
 70
  3020
  9
$CMLSTYLE
  2
STANDARD
  9
$CMLJUST
 70
     0
  9
$CMLSCALE
 40
1.0
  9
$PROXYGRAPHICS
 70
     1
  9
$MEASUREMENT
 70
     1
  9
$CELWEIGHT
370
    -1
  9
$ENDCAPS
280
     0
  9
$JOINSTYLE
280
     0
  9
$LWDISPLAY
290
     0
  9
$INSUNITS
 70
     0
  9
$HYPERLINKBASE
  1

  9
$STYLESHEET
  1
inaba.ctb
  9
$XEDIT
290
     1
  9
$CEPSNTYPE
380
     0
  9
$PSTYLEMODE
290
     1
  9
$FINGERPRINTGUID
  2
{696AEDA2-CF37-4C16-A548-8F3E259D4281}
  9
$VERSIONGUID
  2
{6FF51FB9-71A8-45E0-9A10-66B45570D9F5}
  9
$EXTNAMES
290
     1
  9
$PSVPSCALE
 40
0.0
  9
$OLESTARTUP
290
     0
  0
ENDSEC
  0
SECTION
  2
CLASSES
  0
CLASS
  1
ACDBDICTIONARYWDFLT
  2
AcDbDictionaryWithDefault
  3
ObjectDBX Classes
 90
        0
280
     0
281
     0
  0
CLASS
  1
DICTIONARYVAR
  2
AcDbDictionaryVar
  3
ObjectDBX Classes
 90
        0
280
     0
281
     0
  0
CLASS
  1
MATERIAL
  2
AcDbMaterial
  3
ObjectDBX Classes
 90
     1153
280
     0
281
     0
  0
CLASS
  1
VISUALSTYLE
  2
AcDbVisualStyle
  3
ObjectDBX Classes
 90
     4095
280
     0
281
     0
  0
CLASS
  1
TABLESTYLE
  2
AcDbTableStyle
  3
ObjectDBX Classes
 90
     4095
280
     0
281
     0
  0
CLASS
  1
SCALE
  2
AcDbScale
  3
ObjectDBX Classes
 90
     1153
280
     0
281
     0
  0
CLASS
  1
MLEADERSTYLE
  2
AcDbMLeaderStyle
  3
ACDB_MLEADERSTYLE_CLASS
 90
     4095
280
     0
281
     0
  0
CLASS
  1
ACDBSECTIONVIEWSTYLE
  2
AcDbSectionViewStyle
  3
ObjectDBX Classes
 90
     1025
280
     0
281
     0
  0
CLASS
  1
ACDBDETAILVIEWSTYLE
  2
AcDbDetailViewStyle
  3
ObjectDBX Classes
 90
     1025
280
     0
281
     0
  0
CLASS
  1
EXACXREFPANELOBJECT
  2
ExAcXREFPanelObject
  3
EXAC_ESW
 90
    33793
280
     0
281
     0
  0
CLASS
  1
NPOCOLLECTION
  2
AcDbImpNonPersistentObjectsCollection
  3
ObjectDBX Classes
 90
    33921
280
     0
281
     0
  0
CLASS
  1
CELLSTYLEMAP
  2
AcDbCellStyleMap
  3
ObjectDBX Classes
 90
     1152
280
     0
281
     0
  0
CLASS
  1
ACDBPLACEHOLDER
  2
AcDbPlaceHolder
  3
ObjectDBX Classes
 90
        0
280
     0
281
     0
  0
CLASS
  1
LAYOUT
  2
AcDbLayout
  3
ObjectDBX Classes
 90
        0
280
     0
281
     0
  0
ENDSEC
  0
SECTION
  2
TABLES
  0
TABLE
  2
VPORT
  5
746D
102
{ACAD_XDICTIONARY
360
1558B
102
}
330
0
100
AcDbSymbolTable
 70
     1
  0
VPORT
  5
13CE1
330
746D
100
AcDbSymbolTableRecord
100
AcDbViewportTableRecord
  2
*Active
 70
     0
 10
0.0
 20
0.0
 11
1.0
 21
1.0
 12
6167.820768928882
 22
4278.597356355281
 13
0.0
 23
0.0
 14
10.0
 24
10.0
 15
10.0
 25
10.0
 16
0.0
 26
0.0
 36
1.0
 17
0.0
 27
0.0
 37
0.0
 40
8769.575296140045
 41
1.390896921017402
 42
50.0
 43
0.0
 44
0.0
 50
0.0
 51
0.0
 71
     0
 72
     0
 73
     1
 74
     0
 75
     0
 76
     0
 77
     0
 78
     0
281
     0
 65
     1
110
0.0
120
0.0
130
0.0
111
1.0
121
0.0
131
0.0
112
0.0
122
1.0
132
0.0
 79
     0
146
0.0
1001
ACAD_NAV_VCDISPLAY
1070
     3
  0
ENDTAB
  0
TABLE
  2
LTYPE
  5
746A
330
0
100
AcDbSymbolTable
 70
     4
  0
LTYPE
  5
7477
330
746A
100
AcDbSymbolTableRecord
100
AcDbLinetypeTableRecord
  2
BYBLOCK
 70
     0
  3

 72
    65
 73
     0
 40
0.0
  0
LTYPE
  5
7478
330
746A
100
AcDbSymbolTableRecord
100
AcDbLinetypeTableRecord
  2
BYLAYER
 70
     0
  3

 72
    65
 73
     0
 40
0.0
  0
LTYPE
  5
7479
330
746A
100
AcDbSymbolTableRecord
100
AcDbLinetypeTableRecord
  2
CONTINUOUS
 70
     0
  3
Solid line
 72
    65
 73
     0
 40
0.0
  0
LTYPE
  5
781A
330
746A
100
AcDbSymbolTableRecord
100
AcDbLinetypeTableRecord
  2
HIDDEN
 70
     0
  3
__ __ __ __ __ __ __ __ __ __ __ __ __ __ __ __
 72
    65
 73
     2
 40
0.375
 49
0.25
 74
     0
 49
-0.125
 74
     0
  0
LTYPE
  5
781B
330
746A
100
AcDbSymbolTableRecord
100
AcDbLinetypeTableRecord
  2
PHANTOM
 70
     0
  3
______  __  __  ______  __  __  ______  __  __ 
 72
    65
 73
     6
 40
2.5
 49
1.25
 74
     0
 49
-0.25
 74
     0
 49
0.25
 74
     0
 49
-0.25
 74
     0
 49
0.25
 74
     0
 49
-0.25
 74
     0
  0
LTYPE
  5
13571
330
746A
100
AcDbSymbolTableRecord
100
AcDbLinetypeTableRecord
  2
CENTER
 70
     0
  3
Center ____ _ ____ _ ____ _ ____ _ ____ _ ____
 72
    65
 73
     4
 40
50.8
 49
31.75
 74
     0
 49
-6.349999999999999
 74
     0
 49
6.349999999999999
 74
     0
 49
-6.349999999999999
 74
     0
  0
ENDTAB
  0
TABLE
  2
LAYER
  5
7467
102
{ACAD_XDICTIONARY
360
13451
102
}
330
0
100
AcDbSymbolTable
 70
    14
  0
LAYER
  5
7474
102
{ACAD_XDICTIONARY
360
15109
102
}
330
7467
100
AcDbSymbolTableRecord
100
AcDbLayerTableRecord
  2
0
 70
     0
 62
     7
  6
CONTINUOUS
370
    -3
390
1341B
  0
LAYER
  5
DEB3
102
{ACAD_XDICTIONARY
360
1510B
102
}
330
7467
100
AcDbSymbolTableRecord
100
AcDbLayerTableRecord
  2
寸法
 70
     0
 62
     4
  6
CONTINUOUS
370
    -3
390
1341B
  0
LAYER
  5
DEB4
102
{ACAD_XDICTIONARY
360
1510D
102
}
330
7467
100
AcDbSymbolTableRecord
100
AcDbLayerTableRecord
  2
部品1
 70
     0
 62
     7
  6
CONTINUOUS
370
    -3
390
1341B
  0
LAYER
  5
DEB5
102
{ACAD_XDICTIONARY
360
1510F
102
}
330
7467
100
AcDbSymbolTableRecord
100
AcDbLayerTableRecord
  2
補助
 70
     0
 62
    -1
  6
CONTINUOUS
370
    -3
390
1341B
  0
LAYER
  5
DEB6
102
{ACAD_XDICTIONARY
360
15111
102
}
330
7467
100
AcDbSymbolTableRecord
100
AcDbLayerTableRecord
  2
文字
 70
     0
 62
     7
  6
CONTINUOUS
370
    -3
390
1341B
  0
LAYER
  5
F255
330
7467
100
AcDbSymbolTableRecord
100
AcDbLayerTableRecord
  2
DEFPOINTS
 70
     0
 62
     7
  6
CONTINUOUS
290
     0
370
    -3
390
1341B
  0
LAYER
  5
10B54
102
{ACAD_XDICTIONARY
360
15113
102
}
330
7467
100
AcDbSymbolTableRecord
100
AcDbLayerTableRecord
  2
仕様書枠
 70
     0
 62
   230
  6
CONTINUOUS
370
    -3
390
1341B
  0
LAYER
  5
11729
102
{ACAD_XDICTIONARY
360
15115
102
}
330
7467
100
AcDbSymbolTableRecord
100
AcDbLayerTableRecord
  2
Ｇ．Ｌ
 70
     0
 62
    30
  6
CONTINUOUS
370
    -3
390
1341B
  0
LAYER
  5
1173F
102
{ACAD_XDICTIONARY
360
15117
102
}
330
7467
100
AcDbSymbolTableRecord
100
AcDbLayerTableRecord
  2
細線
 70
     0
 62
     5
  6
CONTINUOUS
370
    -3
390
1341B
  0
LAYER
  5
11740
102
{ACAD_XDICTIONARY
360
15119
102
}
330
7467
100
AcDbSymbolTableRecord
100
AcDbLayerTableRecord
  2
点線
 70
     0
 62
     2
  6
HIDDEN
370
    -3
390
1341B
  0
LAYER
  5
1356E
102
{ACAD_XDICTIONARY
360
1511B
102
}
330
7467
100
AcDbSymbolTableRecord
100
AcDbLayerTableRecord
  2
センター
 70
     0
 62
     3
  6
CENTER
370
    -3
390
1341B
  0
LAYER
  5
135FB
102
{ACAD_XDICTIONARY
360
1511D
102
}
330
7467
100
AcDbSymbolTableRecord
100
AcDbLayerTableRecord
  2
想像線
 70
     0
 62
     6
  6
PHANTOM
370
    -3
390
1341B
  0
LAYER
  5
137FC
102
{ACAD_XDICTIONARY
360
1511F
102
}
330
7467
100
AcDbSymbolTableRecord
100
AcDbLayerTableRecord
  2
U7
 70
     0
 62
     2
  6
CONTINUOUS
370
    -3
390
1341B
  0
LAYER
  5
137FD
102
{ACAD_XDICTIONARY
360
15121
102
}
330
7467
100
AcDbSymbolTableRecord
100
AcDbLayerTableRecord
  2
KIN-T
 70
     0
 62
     3
  6
CONTINUOUS
370
    -3
390
1341B
  0
ENDTAB
  0
TABLE
  2
STYLE
  5
7468
330
0
100
AcDbSymbolTable
 70
     5
  0
STYLE
  5
7475
330
7468
100
AcDbSymbolTableRecord
100
AcDbTextStyleTableRecord
  2
STANDARD
 70
     0
 40
0.0
 41
1.0
 50
0.0
 71
     0
 42
4.0
  3
txt
  4
C:\AutoCAD LT\bigfont.shx
  0
STYLE
  5
763C
330
7468
100
AcDbSymbolTableRecord
100
AcDbTextStyleTableRecord
  2
MSMINCHO
 70
     0
 40
0.0
 41
1.0
 50
0.0
 71
     0
 42
1.199999999999999
  3
C:\AutoCAD LT\msminch2.TTF
  4

  0
STYLE
  5
F706
330
7468
100
AcDbSymbolTableRecord
100
AcDbTextStyleTableRecord
  2
STYLE1
 70
     0
 40
0.0
 41
1.0
 50
0.0
 71
     0
 42
4.0
  3
isocp.shx
  4
bigfont.shx
  0
STYLE
  5
103BF
330
7468
100
AcDbSymbolTableRecord
100
AcDbTextStyleTableRecord
  2
STYLE2
 70
     0
 40
0.0
 41
1.0
 50
0.0
 71
     0
 42
100.0
  3

  4

1001
ACAD
1000
MS PGothic
1071
    32818
  0
STYLE
  5
10BAA
330
7468
100
AcDbSymbolTableRecord
100
AcDbTextStyleTableRecord
  2
STYLE3
 70
     0
 40
0.0
 41
1.0
 50
0.0
 71
     0
 42
100.0
  3

  4

1001
ACAD
1000
MS PGothic
1071
    32818
  0
ENDTAB
  0
TABLE
  2
VIEW
  5
746B
330
0
100
AcDbSymbolTable
 70
     0
  0
ENDTAB
  0
TABLE
  2
UCS
  5
746C
330
0
100
AcDbSymbolTable
 70
     0
  0
ENDTAB
  0
TABLE
  2
APPID
  5
746E
330
0
100
AcDbSymbolTable
 70
    11
  0
APPID
  5
7476
330
746E
100
AcDbSymbolTableRecord
100
AcDbRegAppTableRecord
  2
ACAD
 70
     0
  0
APPID
  5
DEA9
330
746E
100
AcDbSymbolTableRecord
100
AcDbRegAppTableRecord
  2
CONTENTBLOCKICON
 70
     0
  0
APPID
  5
DEAA
330
746E
100
AcDbSymbolTableRecord
100
AcDbRegAppTableRecord
  2
CONTENTBLOCKDESCRIPTION
 70
     0
  0
APPID
  5
E71D
330
746E
100
AcDbSymbolTableRecord
100
AcDbRegAppTableRecord
  2
CONTENTTABDATA
 70
     0
  0
APPID
  5
E71E
330
746E
100
AcDbSymbolTableRecord
100
AcDbRegAppTableRecord
  2
CONTENTCURRENTTAB
 70
     0
  0
APPID
  5
F3BA
330
746E
100
AcDbSymbolTableRecord
100
AcDbRegAppTableRecord
  2
DRAWINGVARIABLESXDATA
 70
     0
  0
APPID
  5
141F4
330
746E
100
AcDbSymbolTableRecord
100
AcDbRegAppTableRecord
  2
ACAD_NAV_VCDISPLAY
 70
     0
  0
APPID
  5
141F5
330
746E
100
AcDbSymbolTableRecord
100
AcDbRegAppTableRecord
  2
GradientColor1ACI
 70
     0
  0
APPID
  5
141F6
330
746E
100
AcDbSymbolTableRecord
100
AcDbRegAppTableRecord
  2
GradientColor2ACI
 70
     0
  0
APPID
  5
150F9
330
746E
100
AcDbSymbolTableRecord
100
AcDbRegAppTableRecord
  2
ACAD_EXEMPT_FROM_CAD_STANDARDS
 70
     0
  0
APPID
  5
155C5
330
746E
100
AcDbSymbolTableRecord
100
AcDbRegAppTableRecord
  2
ACAD_MLEADERVER
 70
     0
  0
ENDTAB
  0
TABLE
  2
DIMSTYLE
  5
746F
330
0
100
AcDbSymbolTable
 70
     1
100
AcDbDimStyleTable
 71
     1
340
F71F
  0
DIMSTYLE
105
F71F
102
{ACAD_REACTORS
330
15195
330
15196
330
15197
330
15198
330
15199
330
1519A
330
1519B
330
1519C
330
1519D
330
1519E
330
1519F
330
151A0
330
151A1
330
151A2
330
151A3
330
151A4
330
151A5
330
151A6
330
151A7
330
151A8
330
153F8
330
153F9
330
153FA
330
153FB
330
153FC
330
153FD
330
153FE
330
153FF
330
15400
102
}
330
746F
100
AcDbSymbolTableRecord
100
AcDbDimStyleTableRecord
  2
INABA_S30G
 70
     0
 40
30.0
 41
2.5
 42
0.5
 43
7.0
 44
1.5
 73
     0
 74
     0
 77
     3
 78
     8
140
3.0
141
0.0
143
0.0394
147
1.0
172
     1
173
     1
174
     1
175
     1
178
     7
271
     1
340
F706
341
F770
343
F770
344
F770
  0
ENDTAB
  0
TABLE
  2
BLOCK_RECORD
  5
7466
330
0
100
AcDbSymbolTable
 70
    30
  0
BLOCK_RECORD
  5
747D
330
7466
100
AcDbSymbolTableRecord
100
AcDbBlockTableRecord
  2
*MODEL_SPACE
340
13420
  0
BLOCK_RECORD
  5
747A
330
7466
100
AcDbSymbolTableRecord
100
AcDbBlockTableRecord
  2
*PAPER_SPACE
340
13421
  0
BLOCK_RECORD
  5
F770
330
7466
100
AcDbSymbolTableRecord
100
AcDbBlockTableRecord
  2
_DOTSMALL
340
0
102
{BLKREFS
331
1563A
331
1563B
331
15644
331
15645
331
1564D
331
1564E
331
15657
331
15658
331
15660
331
15661
331
15669
331
1566A
331
15672
331
15673
331
1567B
331
1567C
331
15684
331
15685
331
1568D
331
1568E
331
15696
331
15697
331
1569F
331
156A0
331
156A8
331
156A9
331
156B1
331
156B2
331
156BA
331
156BB
331
156C3
331
156C4
331
156CC
331
156CD
331
156D5
331
156D6
331
156DF
331
156E0
331
156E9
331
156EA
331
156F2
331
156F3
331
156FB
331
156FC
331
15704
331
15705
331
1570D
331
1570E
331
15716
331
15717
331
15721
331
15722
331
1572C
331
1572D
102
}
  0
BLOCK_RECORD
  5
151B6
330
7466
100
AcDbSymbolTableRecord
100
AcDbBlockTableRecord
  2
*D1
340
0
  0
BLOCK_RECORD
  5
151C0
330
7466
100
AcDbSymbolTableRecord
100
AcDbBlockTableRecord
  2
*D2
340
0
  0
BLOCK_RECORD
  5
151CA
330
7466
100
AcDbSymbolTableRecord
100
AcDbBlockTableRecord
  2
*D3
340
0
  0
BLOCK_RECORD
  5
151D6
330
7466
100
AcDbSymbolTableRecord
100
AcDbBlockTableRecord
  2
*D4
340
0
  0
BLOCK_RECORD
  5
151E3
330
7466
100
AcDbSymbolTableRecord
100
AcDbBlockTableRecord
  2
*D5
340
0
  0
BLOCK_RECORD
  5
151EF
330
7466
100
AcDbSymbolTableRecord
100
AcDbBlockTableRecord
  2
*D6
340
0
  0
BLOCK_RECORD
  5
151FC
330
7466
100
AcDbSymbolTableRecord
100
AcDbBlockTableRecord
  2
*D7
340
0
  0
BLOCK_RECORD
  5
15208
330
7466
100
AcDbSymbolTableRecord
100
AcDbBlockTableRecord
  2
*D8
340
0
  0
BLOCK_RECORD
  5
15214
330
7466
100
AcDbSymbolTableRecord
100
AcDbBlockTableRecord
  2
*D9
340
0
  0
BLOCK_RECORD
  5
15220
330
7466
100
AcDbSymbolTableRecord
100
AcDbBlockTableRecord
  2
*D10
340
0
  0
BLOCK_RECORD
  5
1522C
330
7466
100
AcDbSymbolTableRecord
100
AcDbBlockTableRecord
  2
*D11
340
0
  0
BLOCK_RECORD
  5
15238
330
7466
100
AcDbSymbolTableRecord
100
AcDbBlockTableRecord
  2
*D12
340
0
  0
BLOCK_RECORD
  5
15244
330
7466
100
AcDbSymbolTableRecord
100
AcDbBlockTableRecord
  2
*D13
340
0
  0
BLOCK_RECORD
  5
15250
330
7466
100
AcDbSymbolTableRecord
100
AcDbBlockTableRecord
  2
*D14
340
0
  0
BLOCK_RECORD
  5
1525C
330
7466
100
AcDbSymbolTableRecord
100
AcDbBlockTableRecord
  2
*D15
340
0
  0
BLOCK_RECORD
  5
15268
330
7466
100
AcDbSymbolTableRecord
100
AcDbBlockTableRecord
  2
*D16
340
0
  0
BLOCK_RECORD
  5
15274
330
7466
100
AcDbSymbolTableRecord
100
AcDbBlockTableRecord
  2
*D17
340
0
  0
BLOCK_RECORD
  5
15280
330
7466
100
AcDbSymbolTableRecord
100
AcDbBlockTableRecord
  2
*D18
340
0
  0
BLOCK_RECORD
  5
1528C
330
7466
100
AcDbSymbolTableRecord
100
AcDbBlockTableRecord
  2
*D19
340
0
  0
BLOCK_RECORD
  5
15298
330
7466
100
AcDbSymbolTableRecord
100
AcDbBlockTableRecord
  2
*D20
340
0
  0
BLOCK_RECORD
  5
1540C
330
7466
100
AcDbSymbolTableRecord
100
AcDbBlockTableRecord
  2
*D21
340
0
  0
BLOCK_RECORD
  5
15419
330
7466
100
AcDbSymbolTableRecord
100
AcDbBlockTableRecord
  2
*D22
340
0
  0
BLOCK_RECORD
  5
15426
330
7466
100
AcDbSymbolTableRecord
100
AcDbBlockTableRecord
  2
*D23
340
0
  0
BLOCK_RECORD
  5
15432
330
7466
100
AcDbSymbolTableRecord
100
AcDbBlockTableRecord
  2
*D24
340
0
  0
BLOCK_RECORD
  5
1543E
330
7466
100
AcDbSymbolTableRecord
100
AcDbBlockTableRecord
  2
*D25
340
0
  0
BLOCK_RECORD
  5
1544A
330
7466
100
AcDbSymbolTableRecord
100
AcDbBlockTableRecord
  2
*D26
340
0
  0
BLOCK_RECORD
  5
15456
330
7466
100
AcDbSymbolTableRecord
100
AcDbBlockTableRecord
  2
*D27
340
0
  0
BLOCK_RECORD
  5
15462
330
7466
100
AcDbSymbolTableRecord
100
AcDbBlockTableRecord
  2
*D28
340
0
  0
BLOCK_RECORD
  5
15470
330
7466
100
AcDbSymbolTableRecord
100
AcDbBlockTableRecord
  2
*D29
340
0
  0
ENDTAB
  0
ENDSEC
  0
SECTION
  2
BLOCKS
  0
BLOCK
  5
7489
330
747D
100
AcDbEntity
  8
0
100
AcDbBlockBegin
  2
*MODEL_SPACE
 70
     0
 10
0.0
 20
0.0
 30
0.0
  3
*MODEL_SPACE
  1

  0
ENDBLK
  5
748A
330
747D
100
AcDbEntity
  8
0
100
AcDbBlockEnd
  0
BLOCK
  5
7487
330
747A
100
AcDbEntity
 67
     1
  8
0
100
AcDbBlockBegin
  2
*PAPER_SPACE
 70
     0
 10
0.0
 20
0.0
 30
0.0
  3
*PAPER_SPACE
  1

  0
ENDBLK
  5
7488
330
747A
100
AcDbEntity
 67
     1
  8
0
100
AcDbBlockEnd
  0
BLOCK
  5
F771
330
F770
100
AcDbEntity
  8
0
 48
50.0
100
AcDbBlockBegin
  2
_DOTSMALL
 70
     0
 10
0.0
 20
0.0
 30
0.0
  3
_DOTSMALL
  1

  0
LWPOLYLINE
  5
F772
330
F770
100
AcDbEntity
  8
0
  6
ByBlock
 62
     0
 48
50.0
100
AcDbPolyline
 90
        2
 70
     1
 43
0.5
 10
-0.0625
 20
0.0
 42
1.0
 10
0.0625
 20
0.0
 42
1.0
  0
ENDBLK
  5
F776
330
F770
100
AcDbEntity
  8
0
 48
50.0
100
AcDbBlockEnd
  0
BLOCK
  5
151B7
330
151B6
100
AcDbEntity
  8
0
 48
50.0
100
AcDbBlockBegin
  2
*D1
 70
     1
 10
0.0
 20
0.0
 30
0.0
  3
*D1
  1

  0
LINE
  5
15629
330
151B6
100
AcDbEntity
  8
寸法
 62
     0
 48
50.0
370
    -2
100
AcDbLine
 10
2445.300504170813
 20
1692.440453559407
 30
0.0
 11
2445.300504170813
 21
1197.45273522289
 31
0.0
  0
LINE
  5
1562A
330
151B6
100
AcDbEntity
  8
寸法
 62
     0
 48
50.0
370
    -2
100
AcDbLine
 10
2275.300504170755
 20
1555.940453559407
 30
0.0
 11
2275.300504170755
 21
1197.45273522289
 31
0.0
  0
LINE
  5
1562B
330
151B6
100
AcDbEntity
  8
寸法
 62
     0
 48
50.0
370
    -2
100
AcDbLine
 10
2445.300504170813
 20
1242.45273522289
 30
0.0
 11
2275.300504170755
 21
1242.45273522289
 31
0.0
  0
MTEXT
  5
1562C
330
151B6
100
AcDbEntity
  8
寸法
 62
     7
 48
50.0
100
AcDbMText
 10
2360.300504170784
 20
1317.452735222891
 30
0.0
 40
90.0
 41
0.0
 71
     5
 72
     1
  1
\A1;170
  7
STYLE1
 73
     1
 44
1.0
1001
ACAD
1000
MTEXTBEGIN
1070
    73
1070
     1
1070
    44
1040
1.0
1070
    74
1070
     0
1000
MTEXTEND
  0
POINT
  5
1562D
330
151B6
100
AcDbEntity
  8
DEFPOINTS
 62
     0
 48
50.0
100
AcDbPoint
 10
2445.300504170813
 20
1707.440453559408
 30
0.0
  0
POINT
  5
1562E
330
151B6
100
AcDbEntity
  8
DEFPOINTS
 62
     0
 48
50.0
100
AcDbPoint
 10
2275.300504170755
 20
1570.940453559408
 30
0.0
  0
POINT
  5
1562F
330
151B6
100
AcDbEntity
  8
DEFPOINTS
 62
     0
 48
50.0
100
AcDbPoint
 10
2275.300504170755
 20
1242.45273522289
 30
0.0
  0
ENDBLK
  5
151B8
330
151B6
100
AcDbEntity
  8
0
 48
50.0
100
AcDbBlockEnd
  0
BLOCK
  5
151C1
330
151C0
100
AcDbEntity
  8
0
 48
50.0
100
AcDbBlockBegin
  2
*D2
 70
     1
 10
0.0
 20
0.0
 30
0.0
  3
*D2
  1

  0
LINE
  5
15630
330
151C0
100
AcDbEntity
  8
寸法
 62
     0
 48
50.0
370
    -2
100
AcDbLine
 10
5705.300504170697
 20
1692.440453559407
 30
0.0
 11
5705.300504170697
 21
1197.45273522289
 31
0.0
  0
LINE
  5
15631
330
151C0
100
AcDbEntity
  8
寸法
 62
     0
 48
50.0
370
    -2
100
AcDbLine
 10
5875.300504170755
 20
1555.940453559407
 30
0.0
 11
5875.300504170755
 21
1197.45273522289
 31
0.0
  0
LINE
  5
15632
330
151C0
100
AcDbEntity
  8
寸法
 62
     0
 48
50.0
370
    -2
100
AcDbLine
 10
5705.300504170697
 20
1242.45273522289
 30
0.0
 11
5875.300504170755
 21
1242.45273522289
 31
0.0
  0
MTEXT
  5
15633
330
151C0
100
AcDbEntity
  8
寸法
 62
     7
 48
50.0
100
AcDbMText
 10
5790.300504170726
 20
1317.452735222891
 30
0.0
 40
90.0
 41
0.0
 71
     5
 72
     1
  1
\A1;170
  7
STYLE1
 73
     1
 44
1.0
1001
ACAD
1000
MTEXTBEGIN
1070
    73
1070
     1
1070
    44
1040
1.0
1070
    74
1070
     0
1000
MTEXTEND
  0
POINT
  5
15634
330
151C0
100
AcDbEntity
  8
DEFPOINTS
 62
     0
 48
50.0
100
AcDbPoint
 10
5705.300504170697
 20
1707.440453559408
 30
0.0
  0
POINT
  5
15635
330
151C0
100
AcDbEntity
  8
DEFPOINTS
 62
     0
 48
50.0
100
AcDbPoint
 10
5875.300504170755
 20
1570.940453559408
 30
0.0
  0
POINT
  5
15636
330
151C0
100
AcDbEntity
  8
DEFPOINTS
 62
     0
 48
50.0
100
AcDbPoint
 10
5875.300504170755
 20
1242.45273522289
 30
0.0
  0
ENDBLK
  5
151C2
330
151C0
100
AcDbEntity
  8
0
 48
50.0
100
AcDbBlockEnd
  0
BLOCK
  5
151CB
330
151CA
100
AcDbEntity
  8
0
 48
50.0
100
AcDbBlockBegin
  2
*D3
 70
     1
 10
0.0
 20
0.0
 30
0.0
  3
*D3
  1

  0
LINE
  5
15637
330
151CA
100
AcDbEntity
  8
寸法
 62
     0
 48
50.0
370
    -2
100
AcDbLine
 10
2445.300504170813
 20
1692.440453559407
 30
0.0
 11
2445.300504170813
 21
1197.45273522289
 31
0.0
  0
LINE
  5
15638
330
151CA
100
AcDbEntity
  8
寸法
 62
     0
 48
50.0
370
    -2
100
AcDbLine
 10
5705.300504170697
 20
1692.440453559407
 30
0.0
 11
5705.300504170697
 21
1197.45273522289
 31
0.0
  0
LINE
  5
15639
330
151CA
100
AcDbEntity
  8
寸法
 62
     0
 48
50.0
370
    -2
100
AcDbLine
 10
2445.300504170813
 20
1242.45273522289
 30
0.0
 11
5705.300504170697
 21
1242.45273522289
 31
0.0
  0
INSERT
  5
1563A
330
151CA
100
AcDbEntity
  8
寸法
 62
     0
 48
50.0
370
    -2
100
AcDbBlockReference
  2
_DOTSMALL
 10
2445.300504170813
 20
1242.45273522289
 30
0.0
 41
75.0
 42
75.0
 43
75.0
 50
180.0
  0
INSERT
  5
1563B
330
151CA
100
AcDbEntity
  8
寸法
 62
     0
 48
50.0
370
    -2
100
AcDbBlockReference
  2
_DOTSMALL
 10
5705.300504170697
 20
1242.45273522289
 30
0.0
 41
75.0
 42
75.0
 43
75.0
  0
MTEXT
  5
1563C
330
151CA
100
AcDbEntity
  8
寸法
 62
     7
 48
50.0
100
AcDbMText
 10
4075.300504170754
 20
1317.461593490607
 30
0.0
 40
90.0
 41
0.0
 71
     5
 72
     1
  1
\A1;屋根寸法 3260
  7
STYLE1
 73
     1
 44
1.0
1001
ACAD
1000
MTEXTBEGIN
1070
    73
1070
     1
1070
    44
1040
1.0
1070
    74
1070
     0
1000
MTEXTEND
  0
POINT
  5
1563D
330
151CA
100
AcDbEntity
  8
DEFPOINTS
 62
     0
 48
50.0
100
AcDbPoint
 10
2445.300504170813
 20
1707.440453559408
 30
0.0
  0
POINT
  5
1563E
330
151CA
100
AcDbEntity
  8
DEFPOINTS
 62
     0
 48
50.0
100
AcDbPoint
 10
5705.300504170697
 20
1707.440453559408
 30
0.0
  0
POINT
  5
1563F
330
151CA
100
AcDbEntity
  8
DEFPOINTS
 62
     0
 48
50.0
100
AcDbPoint
 10
5705.300504170697
 20
1242.45273522289
 30
0.0
  0
ENDBLK
  5
151CC
330
151CA
100
AcDbEntity
  8
0
 48
50.0
100
AcDbBlockEnd
  0
BLOCK
  5
151D7
330
151D6
100
AcDbEntity
  8
0
 48
50.0
100
AcDbBlockBegin
  2
*D4
 70
     1
 10
0.0
 20
0.0
 30
0.0
  3
*D4
  1

  0
LINE
  5
15640
330
151D6
100
AcDbEntity
  8
寸法
 62
     0
 48
50.0
370
    -2
100
AcDbLine
 10
5720.300504170697
 20
1707.440453559408
 30
0.0
 11
6302.574726534356
 21
1707.440453559408
 31
0.0
  0
LINE
  5
15641
330
151D6
100
AcDbEntity
  8
寸法
 62
     0
 48
50.0
370
    -2
100
AcDbLine
 10
5890.300504170755
 20
1570.940453559408
 30
0.0
 11
6302.574726534356
 21
1570.940453559408
 31
0.0
  0
LINE
  5
15642
330
151D6
100
AcDbEntity
  8
寸法
 62
     0
 48
50.0
370
    -2
100
AcDbLine
 10
6257.574726534357
 20
1707.440453559408
 30
0.0
 11
6257.574726534357
 21
1570.940453559408
 31
0.0
  0
LINE
  5
15643
330
151D6
100
AcDbEntity
  8
寸法
 62
     0
 48
50.0
370
    -2
100
AcDbLine
 10
6257.574726534357
 20
1570.940453559408
 30
0.0
 11
6257.574726534357
 21
1198.212531498049
 31
0.0
  0
INSERT
  5
15644
330
151D6
100
AcDbEntity
  8
寸法
 62
     0
 48
50.0
370
    -2
100
AcDbBlockReference
  2
_DOTSMALL
 10
6257.574726534357
 20
1707.440453559408
 30
0.0
 41
75.0
 42
75.0
 43
75.0
 50
90.0
  0
INSERT
  5
15645
330
151D6
100
AcDbEntity
  8
寸法
 62
     0
 48
50.0
370
    -2
100
AcDbBlockReference
  2
_DOTSMALL
 10
6257.574726534357
 20
1570.940453559408
 30
0.0
 41
75.0
 42
75.0
 43
75.0
 50
270.0
  0
MTEXT
  5
15646
330
151D6
100
AcDbEntity
  8
寸法
 62
     7
 48
50.0
100
AcDbMText
 10
6182.574726534356
 20
1347.076492528729
 30
0.0
 40
90.0
 41
0.0
 71
     5
 72
     1
  1
\A1;136.5
  7
STYLE1
 11
0.0000000000000001
 21
1.0
 31
0.0
 73
     1
 44
1.0
1001
ACAD
1000
MTEXTBEGIN
1070
    73
1070
     1
1070
    44
1040
1.0
1070
    74
1070
     0
1000
MTEXTEND
  0
POINT
  5
15647
330
151D6
100
AcDbEntity
  8
DEFPOINTS
 62
     0
 48
50.0
100
AcDbPoint
 10
5705.300504170697
 20
1707.440453559408
 30
0.0
  0
POINT
  5
15648
330
151D6
100
AcDbEntity
  8
DEFPOINTS
 62
     0
 48
50.0
100
AcDbPoint
 10
5875.300504170755
 20
1570.940453559408
 30
0.0
  0
POINT
  5
15649
330
151D6
100
AcDbEntity
  8
DEFPOINTS
 62
     0
 48
50.0
100
AcDbPoint
 10
6257.574726534357
 20
1570.940453559408
 30
0.0
  0
ENDBLK
  5
151D8
330
151D6
100
AcDbEntity
  8
0
 48
50.0
100
AcDbBlockEnd
  0
BLOCK
  5
151E4
330
151E3
100
AcDbEntity
  8
0
 48
50.0
100
AcDbBlockBegin
  2
*D5
 70
     1
 10
0.0
 20
0.0
 30
0.0
  3
*D5
  1

  0
LINE
  5
1564A
330
151E3
100
AcDbEntity
  8
寸法
 62
     0
 48
50.0
370
    -2
100
AcDbLine
 10
5720.300504170697
 20
5784.440453559408
 30
0.0
 11
6302.574726534357
 21
5784.440453559406
 31
0.0
  0
LINE
  5
1564B
330
151E3
100
AcDbEntity
  8
寸法
 62
     0
 48
50.0
370
    -2
100
AcDbLine
 10
5720.300504170697
 20
1707.440453559408
 30
0.0
 11
6302.574726534356
 21
1707.440453559408
 31
0.0
  0
LINE
  5
1564C
330
151E3
100
AcDbEntity
  8
寸法
 62
     0
 48
50.0
370
    -2
100
AcDbLine
 10
6257.574726534357
 20
5784.440453559406
 30
0.0
 11
6257.574726534357
 21
1707.440453559408
 31
0.0
  0
INSERT
  5
1564D
330
151E3
100
AcDbEntity
  8
寸法
 62
     0
 48
50.0
370
    -2
100
AcDbBlockReference
  2
_DOTSMALL
 10
6257.574726534357
 20
5784.440453559406
 30
0.0
 41
75.0
 42
75.0
 43
75.0
 50
90.0
  0
INSERT
  5
1564E
330
151E3
100
AcDbEntity
  8
寸法
 62
     0
 48
50.0
370
    -2
100
AcDbBlockReference
  2
_DOTSMALL
 10
6257.574726534357
 20
1707.440453559408
 30
0.0
 41
75.0
 42
75.0
 43
75.0
 50
270.0
  0
MTEXT
  5
1564F
330
151E3
100
AcDbEntity
  8
寸法
 62
     7
 48
50.0
100
AcDbMText
 10
6182.574726534356
 20
3745.940453559408
 30
0.0
 40
90.0
 41
0.0
 71
     5
 72
     1
  1
\A1;屋根寸法 4077
  7
STYLE1
 11
0.0000000000000001
 21
1.0
 31
0.0
 73
     1
 44
1.0
1001
ACAD
1000
MTEXTBEGIN
1070
    73
1070
     1
1070
    44
1040
1.0
1070
    74
1070
     0
1000
MTEXTEND
  0
POINT
  5
15650
330
151E3
100
AcDbEntity
  8
DEFPOINTS
 62
     0
 48
50.0
100
AcDbPoint
 10
5705.300504170697
 20
5784.440453559408
 30
0.0
  0
POINT
  5
15651
330
151E3
100
AcDbEntity
  8
DEFPOINTS
 62
     0
 48
50.0
100
AcDbPoint
 10
5705.300504170697
 20
1707.440453559408
 30
0.0
  0
POINT
  5
15652
330
151E3
100
AcDbEntity
  8
DEFPOINTS
 62
     0
 48
50.0
100
AcDbPoint
 10
6257.574726534357
 20
1707.440453559408
 30
0.0
  0
ENDBLK
  5
151E5
330
151E3
100
AcDbEntity
  8
0
 48
50.0
100
AcDbBlockEnd
  0
BLOCK
  5
151F0
330
151EF
100
AcDbEntity
  8
0
 48
50.0
100
AcDbBlockBegin
  2
*D6
 70
     1
 10
0.0
 20
0.0
 30
0.0
  3
*D6
  1

  0
LINE
  5
15653
330
151EF
100
AcDbEntity
  8
寸法
 62
     0
 48
50.0
370
    -2
100
AcDbLine
 10
5720.300504170697
 20
5784.440453559408
 30
0.0
 11
6302.574726534357
 21
5784.440453559406
 31
0.0
  0
LINE
  5
15654
330
151EF
100
AcDbEntity
  8
寸法
 62
     0
 48
50.0
370
    -2
100
AcDbLine
 10
5890.300504170755
 20
5920.940453559407
 30
0.0
 11
6302.574726534357
 21
5920.940453559406
 31
0.0
  0
LINE
  5
15655
330
151EF
100
AcDbEntity
  8
寸法
 62
     0
 48
50.0
370
    -2
100
AcDbLine
 10
6257.574726534357
 20
5784.440453559406
 30
0.0
 11
6257.574726534357
 21
5920.940453559406
 31
0.0
  0
LINE
  5
15656
330
151EF
100
AcDbEntity
  8
寸法
 62
     0
 48
50.0
370
    -2
100
AcDbLine
 10
6257.574726534357
 20
5920.940453559406
 30
0.0
 11
6257.574726534357
 21
6293.668375620814
 31
0.0
  0
INSERT
  5
15657
330
151EF
100
AcDbEntity
  8
寸法
 62
     0
 48
50.0
370
    -2
100
AcDbBlockReference
  2
_DOTSMALL
 10
6257.574726534357
 20
5784.440453559406
 30
0.0
 41
75.0
 42
75.0
 43
75.0
 50
270.0
  0
INSERT
  5
15658
330
151EF
100
AcDbEntity
  8
寸法
 62
     0
 48
50.0
370
    -2
100
AcDbBlockReference
  2
_DOTSMALL
 10
6257.574726534357
 20
5920.940453559406
 30
0.0
 41
75.0
 42
75.0
 43
75.0
 50
90.0
  0
MTEXT
  5
15659
330
151EF
100
AcDbEntity
  8
寸法
 62
     7
 48
50.0
100
AcDbMText
 10
6182.574726534356
 20
6144.804414590137
 30
0.0
 40
90.0
 41
0.0
 71
     5
 72
     1
  1
\A1;136.5
  7
STYLE1
 11
0.0000000000000001
 21
1.0
 31
0.0
 73
     1
 44
1.0
1001
ACAD
1000
MTEXTBEGIN
1070
    73
1070
     1
1070
    44
1040
1.0
1070
    74
1070
     0
1000
MTEXTEND
  0
POINT
  5
1565A
330
151EF
100
AcDbEntity
  8
DEFPOINTS
 62
     0
 48
50.0
100
AcDbPoint
 10
5705.300504170697
 20
5784.440453559408
 30
0.0
  0
POINT
  5
1565B
330
151EF
100
AcDbEntity
  8
DEFPOINTS
 62
     0
 48
50.0
100
AcDbPoint
 10
5875.300504170755
 20
5920.940453559407
 30
0.0
  0
POINT
  5
1565C
330
151EF
100
AcDbEntity
  8
DEFPOINTS
 62
     0
 48
50.0
100
AcDbPoint
 10
6257.574726534357
 20
5920.940453559406
 30
0.0
  0
ENDBLK
  5
151F1
330
151EF
100
AcDbEntity
  8
0
 48
50.0
100
AcDbBlockEnd
  0
BLOCK
  5
151FD
330
151FC
100
AcDbEntity
  8
0
 48
50.0
100
AcDbBlockBegin
  2
*D7
 70
     1
 10
0.0
 20
0.0
 30
0.0
  3
*D7
  1

  0
LINE
  5
1565D
330
151FC
100
AcDbEntity
  8
寸法
 62
     0
 48
50.0
370
    -2
100
AcDbLine
 10
2260.300504170755
 20
5920.940453559407
 30
0.0
 11
1666.679305443064
 21
5920.940453559409
 31
0.0
  0
LINE
  5
1565E
330
151FC
100
AcDbEntity
  8
寸法
 62
     0
 48
50.0
370
    -2
100
AcDbLine
 10
2260.300504170755
 20
1570.940453559408
 30
0.0
 11
1666.679305443064
 21
1570.940453559408
 31
0.0
  0
LINE
  5
1565F
330
151FC
100
AcDbEntity
  8
寸法
 62
     0
 48
50.0
370
    -2
100
AcDbLine
 10
1711.679305443064
 20
5920.940453559409
 30
0.0
 11
1711.679305443064
 21
1570.940453559408
 31
0.0
  0
INSERT
  5
15660
330
151FC
100
AcDbEntity
  8
寸法
 62
     0
 48
50.0
370
    -2
100
AcDbBlockReference
  2
_DOTSMALL
 10
1711.679305443064
 20
5920.940453559409
 30
0.0
 41
75.0
 42
75.0
 43
75.0
 50
90.0
  0
INSERT
  5
15661
330
151FC
100
AcDbEntity
  8
寸法
 62
     0
 48
50.0
370
    -2
100
AcDbBlockReference
  2
_DOTSMALL
 10
1711.679305443064
 20
1570.940453559408
 30
0.0
 41
75.0
 42
75.0
 43
75.0
 50
270.0
  0
MTEXT
  5
15662
330
151FC
100
AcDbEntity
  8
寸法
 62
     7
 48
50.0
100
AcDbMText
 10
1636.679305443063
 20
3745.940453559409
 30
0.0
 40
90.0
 41
0.0
 71
     5
 72
     1
  1
\A1;基礎土間寸法 4350
  7
STYLE1
 11
0.0000000000000001
 21
1.0
 31
0.0
 73
     1
 44
1.0
1001
ACAD
1000
MTEXTBEGIN
1070
    73
1070
     1
1070
    44
1040
1.0
1070
    74
1070
     0
1000
MTEXTEND
  0
POINT
  5
15663
330
151FC
100
AcDbEntity
  8
DEFPOINTS
 62
     0
 48
50.0
100
AcDbPoint
 10
2275.300504170755
 20
5920.940453559407
 30
0.0
  0
POINT
  5
15664
330
151FC
100
AcDbEntity
  8
DEFPOINTS
 62
     0
 48
50.0
100
AcDbPoint
 10
2275.300504170755
 20
1570.940453559408
 30
0.0
  0
POINT
  5
15665
330
151FC
100
AcDbEntity
  8
DEFPOINTS
 62
     0
 48
50.0
100
AcDbPoint
 10
1711.679305443064
 20
1570.940453559408
 30
0.0
  0
ENDBLK
  5
151FE
330
151FC
100
AcDbEntity
  8
0
 48
50.0
100
AcDbBlockEnd
  0
BLOCK
  5
15209
330
15208
100
AcDbEntity
  8
0
 48
50.0
100
AcDbBlockBegin
  2
*D8
 70
     1
 10
0.0
 20
0.0
 30
0.0
  3
*D8
  1

  0
LINE
  5
15666
330
15208
100
AcDbEntity
  8
寸法
 62
     0
 48
50.0
370
    -2
100
AcDbLine
 10
2410.300504170755
 20
3570.940453559408
 30
0.0
 11
1889.42866745951
 21
3570.940453559408
 31
0.0
  0
LINE
  5
15667
330
15208
100
AcDbEntity
  8
寸法
 62
     0
 48
50.0
370
    -2
100
AcDbLine
 10
2260.300504170755
 20
1570.940453559408
 30
0.0
 11
1889.42866745951
 21
1570.940453559408
 31
0.0
  0
LINE
  5
15668
330
15208
100
AcDbEntity
  8
寸法
 62
     0
 48
50.0
370
    -2
100
AcDbLine
 10
1934.42866745951
 20
3570.940453559408
 30
0.0
 11
1934.42866745951
 21
1570.940453559408
 31
0.0
  0
INSERT
  5
15669
330
15208
100
AcDbEntity
  8
寸法
 62
     0
 48
50.0
370
    -2
100
AcDbBlockReference
  2
_DOTSMALL
 10
1934.42866745951
 20
3570.940453559408
 30
0.0
 41
75.0
 42
75.0
 43
75.0
 50
90.0
  0
INSERT
  5
1566A
330
15208
100
AcDbEntity
  8
寸法
 62
     0
 48
50.0
370
    -2
100
AcDbBlockReference
  2
_DOTSMALL
 10
1934.42866745951
 20
1570.940453559408
 30
0.0
 41
75.0
 42
75.0
 43
75.0
 50
270.0
  0
MTEXT
  5
1566B
330
15208
100
AcDbEntity
  8
寸法
 62
     7
 48
50.0
100
AcDbMText
 10
1859.419809191793
 20
2570.940453559408
 30
0.0
 40
90.0
 41
0.0
 71
     5
 72
     1
  1
\A1;2000
  7
STYLE1
 11
0.0000000000000001
 21
1.0
 31
0.0
 73
     1
 44
1.0
1001
ACAD
1000
MTEXTBEGIN
1070
    73
1070
     1
1070
    44
1040
1.0
1070
    74
1070
     0
1000
MTEXTEND
  0
POINT
  5
1566C
330
15208
100
AcDbEntity
  8
DEFPOINTS
 62
     0
 48
50.0
100
AcDbPoint
 10
2425.300504170755
 20
3570.940453559408
 30
0.0
  0
POINT
  5
1566D
330
15208
100
AcDbEntity
  8
DEFPOINTS
 62
     0
 48
50.0
100
AcDbPoint
 10
2275.300504170755
 20
1570.940453559408
 30
0.0
  0
POINT
  5
1566E
330
15208
100
AcDbEntity
  8
DEFPOINTS
 62
     0
 48
50.0
100
AcDbPoint
 10
1934.42866745951
 20
1570.940453559408
 30
0.0
  0
ENDBLK
  5
1520A
330
15208
100
AcDbEntity
  8
0
 48
50.0
100
AcDbBlockEnd
  0
BLOCK
  5
15215
330
15214
100
AcDbEntity
  8
0
 48
50.0
100
AcDbBlockBegin
  2
*D9
 70
     1
 10
0.0
 20
0.0
 30
0.0
  3
*D9
  1

  0
LINE
  5
1566F
330
15214
100
AcDbEntity
  8
寸法
 62
     0
 48
50.0
370
    -2
100
AcDbLine
 10
2410.300504170755
 20
3920.940453559408
 30
0.0
 11
1889.42866745951
 21
3920.940453559408
 31
0.0
  0
LINE
  5
15670
330
15214
100
AcDbEntity
  8
寸法
 62
     0
 48
50.0
370
    -2
100
AcDbLine
 10
2410.300504170755
 20
3570.940453559408
 30
0.0
 11
1889.42866745951
 21
3570.940453559408
 31
0.0
  0
LINE
  5
15671
330
15214
100
AcDbEntity
  8
寸法
 62
     0
 48
50.0
370
    -2
100
AcDbLine
 10
1934.42866745951
 20
3920.940453559408
 30
0.0
 11
1934.42866745951
 21
3570.940453559408
 31
0.0
  0
INSERT
  5
15672
330
15214
100
AcDbEntity
  8
寸法
 62
     0
 48
50.0
370
    -2
100
AcDbBlockReference
  2
_DOTSMALL
 10
1934.42866745951
 20
3920.940453559408
 30
0.0
 41
75.0
 42
75.0
 43
75.0
 50
90.0
  0
INSERT
  5
15673
330
15214
100
AcDbEntity
  8
寸法
 62
     0
 48
50.0
370
    -2
100
AcDbBlockReference
  2
_DOTSMALL
 10
1934.42866745951
 20
3570.940453559408
 30
0.0
 41
75.0
 42
75.0
 43
75.0
 50
270.0
  0
MTEXT
  5
15674
330
15214
100
AcDbEntity
  8
寸法
 62
     7
 48
50.0
100
AcDbMText
 10
1859.428667459509
 20
3745.940453559408
 30
0.0
 40
90.0
 41
0.0
 71
     5
 72
     1
  1
\A1;350
  7
STYLE1
 11
0.0000000000000001
 21
1.0
 31
0.0
 73
     1
 44
1.0
1001
ACAD
1000
MTEXTBEGIN
1070
    73
1070
     1
1070
    44
1040
1.0
1070
    74
1070
     0
1000
MTEXTEND
  0
POINT
  5
15675
330
15214
100
AcDbEntity
  8
DEFPOINTS
 62
     0
 48
50.0
100
AcDbPoint
 10
2425.300504170755
 20
3920.940453559408
 30
0.0
  0
POINT
  5
15676
330
15214
100
AcDbEntity
  8
DEFPOINTS
 62
     0
 48
50.0
100
AcDbPoint
 10
2425.300504170755
 20
3570.940453559408
 30
0.0
  0
POINT
  5
15677
330
15214
100
AcDbEntity
  8
DEFPOINTS
 62
     0
 48
50.0
100
AcDbPoint
 10
1934.42866745951
 20
3570.940453559408
 30
0.0
  0
ENDBLK
  5
15216
330
15214
100
AcDbEntity
  8
0
 48
50.0
100
AcDbBlockEnd
  0
BLOCK
  5
15221
330
15220
100
AcDbEntity
  8
0
 48
50.0
100
AcDbBlockBegin
  2
*D10
 70
     1
 10
0.0
 20
0.0
 30
0.0
  3
*D10
  1

  0
LINE
  5
15678
330
15220
100
AcDbEntity
  8
寸法
 62
     0
 48
50.0
370
    -2
100
AcDbLine
 10
2410.300504170755
 20
3920.940453559408
 30
0.0
 11
1889.428667459509
 21
3920.940453559408
 31
0.0
  0
LINE
  5
15679
330
15220
100
AcDbEntity
  8
寸法
 62
     0
 48
50.0
370
    -2
100
AcDbLine
 10
2260.300504170755
 20
5920.940453559407
 30
0.0
 11
1889.42866745951
 21
5920.940453559409
 31
0.0
  0
LINE
  5
1567A
330
15220
100
AcDbEntity
  8
寸法
 62
     0
 48
50.0
370
    -2
100
AcDbLine
 10
1934.428667459509
 20
3920.940453559408
 30
0.0
 11
1934.42866745951
 21
5920.940453559409
 31
0.0
  0
INSERT
  5
1567B
330
15220
100
AcDbEntity
  8
寸法
 62
     0
 48
50.0
370
    -2
100
AcDbBlockReference
  2
_DOTSMALL
 10
1934.428667459509
 20
3920.940453559408
 30
0.0
 41
75.0
 42
75.0
 43
75.0
 50
270.0
  0
INSERT
  5
1567C
330
15220
100
AcDbEntity
  8
寸法
 62
     0
 48
50.0
370
    -2
100
AcDbBlockReference
  2
_DOTSMALL
 10
1934.42866745951
 20
5920.940453559409
 30
0.0
 41
75.0
 42
75.0
 43
75.0
 50
90.0
  0
MTEXT
  5
1567D
330
15220
100
AcDbEntity
  8
寸法
 62
     7
 48
50.0
100
AcDbMText
 10
1859.419809191792
 20
4920.940453559409
 30
0.0
 40
90.0
 41
0.0
 71
     5
 72
     1
  1
\A1;2000
  7
STYLE1
 11
0.0000000000000001
 21
1.0
 31
0.0
 73
     1
 44
1.0
1001
ACAD
1000
MTEXTBEGIN
1070
    73
1070
     1
1070
    44
1040
1.0
1070
    74
1070
     0
1000
MTEXTEND
  0
POINT
  5
1567E
330
15220
100
AcDbEntity
  8
DEFPOINTS
 62
     0
 48
50.0
100
AcDbPoint
 10
2425.300504170755
 20
3920.940453559408
 30
0.0
  0
POINT
  5
1567F
330
15220
100
AcDbEntity
  8
DEFPOINTS
 62
     0
 48
50.0
100
AcDbPoint
 10
2275.300504170755
 20
5920.940453559407
 30
0.0
  0
POINT
  5
15680
330
15220
100
AcDbEntity
  8
DEFPOINTS
 62
     0
 48
50.0
100
AcDbPoint
 10
1934.42866745951
 20
5920.940453559409
 30
0.0
  0
ENDBLK
  5
15222
330
15220
100
AcDbEntity
  8
0
 48
50.0
100
AcDbBlockEnd
  0
BLOCK
  5
1522D
330
1522C
100
AcDbEntity
  8
0
 48
50.0
100
AcDbBlockBegin
  2
*D11
 70
     1
 10
0.0
 20
0.0
 30
0.0
  3
*D11
  1

  0
LINE
  5
15681
330
1522C
100
AcDbEntity
  8
寸法
 62
     0
 48
50.0
370
    -2
100
AcDbLine
 10
2275.300504170755
 20
5935.940453559408
 30
0.0
 11
2275.300504170755
 21
6469.429786664827
 31
0.0
  0
LINE
  5
15682
330
1522C
100
AcDbEntity
  8
寸法
 62
     0
 48
50.0
370
    -2
100
AcDbLine
 10
5875.300504170755
 20
5935.940453559408
 30
0.0
 11
5875.300504170755
 21
6469.429786664827
 31
0.0
  0
LINE
  5
15683
330
1522C
100
AcDbEntity
  8
寸法
 62
     0
 48
50.0
370
    -2
100
AcDbLine
 10
2275.300504170755
 20
6424.429786664827
 30
0.0
 11
5875.300504170755
 21
6424.429786664827
 31
0.0
  0
INSERT
  5
15684
330
1522C
100
AcDbEntity
  8
寸法
 62
     0
 48
50.0
370
    -2
100
AcDbBlockReference
  2
_DOTSMALL
 10
2275.300504170755
 20
6424.429786664827
 30
0.0
 41
75.0
 42
75.0
 43
75.0
 50
180.0
  0
INSERT
  5
15685
330
1522C
100
AcDbEntity
  8
寸法
 62
     0
 48
50.0
370
    -2
100
AcDbBlockReference
  2
_DOTSMALL
 10
5875.300504170755
 20
6424.429786664827
 30
0.0
 41
75.0
 42
75.0
 43
75.0
  0
MTEXT
  5
15686
330
1522C
100
AcDbEntity
  8
寸法
 62
     7
 48
50.0
100
AcDbMText
 10
4075.300504170754
 20
6499.429786664826
 30
0.0
 40
90.0
 41
0.0
 71
     5
 72
     1
  1
\A1;基礎土間寸法 3600
  7
STYLE1
 73
     1
 44
1.0
1001
ACAD
1000
MTEXTBEGIN
1070
    73
1070
     1
1070
    44
1040
1.0
1070
    74
1070
     0
1000
MTEXTEND
  0
POINT
  5
15687
330
1522C
100
AcDbEntity
  8
DEFPOINTS
 62
     0
 48
50.0
100
AcDbPoint
 10
2275.300504170755
 20
5920.940453559407
 30
0.0
  0
POINT
  5
15688
330
1522C
100
AcDbEntity
  8
DEFPOINTS
 62
     0
 48
50.0
100
AcDbPoint
 10
5875.300504170755
 20
5920.940453559407
 30
0.0
  0
POINT
  5
15689
330
1522C
100
AcDbEntity
  8
DEFPOINTS
 62
     0
 48
50.0
100
AcDbPoint
 10
5875.300504170755
 20
6424.429786664827
 30
0.0
  0
ENDBLK
  5
1522E
330
1522C
100
AcDbEntity
  8
0
 48
50.0
100
AcDbBlockEnd
  0
BLOCK
  5
15239
330
15238
100
AcDbEntity
  8
0
 48
50.0
100
AcDbBlockBegin
  2
*D12
 70
     1
 10
0.0
 20
0.0
 30
0.0
  3
*D12
  1

  0
LINE
  5
1568A
330
15238
100
AcDbEntity
  8
寸法
 62
     0
 48
50.0
370
    -2
100
AcDbLine
 10
5475.300504170754
 20
4185.940453559407
 30
0.0
 11
5475.300504170754
 21
6275.392747690508
 31
0.0
  0
LINE
  5
1568B
330
15238
100
AcDbEntity
  8
寸法
 62
     0
 48
50.0
370
    -2
100
AcDbLine
 10
5875.300504170755
 20
5935.940453559408
 30
0.0
 11
5875.300504170755
 21
6275.392747690508
 31
0.0
  0
LINE
  5
1568C
330
15238
100
AcDbEntity
  8
寸法
 62
     0
 48
50.0
370
    -2
100
AcDbLine
 10
5475.300504170754
 20
6230.392747690508
 30
0.0
 11
5875.300504170755
 21
6230.392747690508
 31
0.0
  0
INSERT
  5
1568D
330
15238
100
AcDbEntity
  8
寸法
 62
     0
 48
50.0
370
    -2
100
AcDbBlockReference
  2
_DOTSMALL
 10
5475.300504170754
 20
6230.392747690508
 30
0.0
 41
75.0
 42
75.0
 43
75.0
 50
180.0
  0
INSERT
  5
1568E
330
15238
100
AcDbEntity
  8
寸法
 62
     0
 48
50.0
370
    -2
100
AcDbBlockReference
  2
_DOTSMALL
 10
5875.300504170755
 20
6230.392747690508
 30
0.0
 41
75.0
 42
75.0
 43
75.0
  0
MTEXT
  5
1568F
330
15238
100
AcDbEntity
  8
寸法
 62
     7
 48
50.0
100
AcDbMText
 10
5675.300504170754
 20
6305.392747690508
 30
0.0
 40
90.0
 41
0.0
 71
     5
 72
     1
  1
\A1;400
  7
STYLE1
 73
     1
 44
1.0
1001
ACAD
1000
MTEXTBEGIN
1070
    73
1070
     1
1070
    44
1040
1.0
1070
    74
1070
     0
1000
MTEXTEND
  0
POINT
  5
15690
330
15238
100
AcDbEntity
  8
DEFPOINTS
 62
     0
 48
50.0
100
AcDbPoint
 10
5475.300504170754
 20
4170.940453559407
 30
0.0
  0
POINT
  5
15691
330
15238
100
AcDbEntity
  8
DEFPOINTS
 62
     0
 48
50.0
100
AcDbPoint
 10
5875.300504170755
 20
5920.940453559407
 30
0.0
  0
POINT
  5
15692
330
15238
100
AcDbEntity
  8
DEFPOINTS
 62
     0
 48
50.0
100
AcDbPoint
 10
5875.300504170755
 20
6230.392747690508
 30
0.0
  0
ENDBLK
  5
1523A
330
15238
100
AcDbEntity
  8
0
 48
50.0
100
AcDbBlockEnd
  0
BLOCK
  5
15245
330
15244
100
AcDbEntity
  8
0
 48
50.0
100
AcDbBlockBegin
  2
*D13
 70
     1
 10
0.0
 20
0.0
 30
0.0
  3
*D13
  1

  0
LINE
  5
15693
330
15244
100
AcDbEntity
  8
寸法
 62
     0
 48
50.0
370
    -2
100
AcDbLine
 10
2675.300504170755
 20
4185.940453559407
 30
0.0
 11
2675.300504170755
 21
6275.392747690508
 31
0.0
  0
LINE
  5
15694
330
15244
100
AcDbEntity
  8
寸法
 62
     0
 48
50.0
370
    -2
100
AcDbLine
 10
5475.300504170754
 20
4185.940453559407
 30
0.0
 11
5475.300504170754
 21
6275.392747690508
 31
0.0
  0
LINE
  5
15695
330
15244
100
AcDbEntity
  8
寸法
 62
     0
 48
50.0
370
    -2
100
AcDbLine
 10
2675.300504170755
 20
6230.392747690508
 30
0.0
 11
5475.300504170754
 21
6230.392747690508
 31
0.0
  0
INSERT
  5
15696
330
15244
100
AcDbEntity
  8
寸法
 62
     0
 48
50.0
370
    -2
100
AcDbBlockReference
  2
_DOTSMALL
 10
2675.300504170755
 20
6230.392747690508
 30
0.0
 41
75.0
 42
75.0
 43
75.0
 50
180.0
  0
INSERT
  5
15697
330
15244
100
AcDbEntity
  8
寸法
 62
     0
 48
50.0
370
    -2
100
AcDbBlockReference
  2
_DOTSMALL
 10
5475.300504170754
 20
6230.392747690508
 30
0.0
 41
75.0
 42
75.0
 43
75.0
  0
MTEXT
  5
15698
330
15244
100
AcDbEntity
  8
寸法
 62
     7
 48
50.0
100
AcDbMText
 10
4075.300504170754
 20
6305.401605958224
 30
0.0
 40
90.0
 41
0.0
 71
     5
 72
     1
  1
\A1;2800
  7
STYLE1
 73
     1
 44
1.0
1001
ACAD
1000
MTEXTBEGIN
1070
    73
1070
     1
1070
    44
1040
1.0
1070
    74
1070
     0
1000
MTEXTEND
  0
POINT
  5
15699
330
15244
100
AcDbEntity
  8
DEFPOINTS
 62
     0
 48
50.0
100
AcDbPoint
 10
2675.300504170755
 20
4170.940453559407
 30
0.0
  0
POINT
  5
1569A
330
15244
100
AcDbEntity
  8
DEFPOINTS
 62
     0
 48
50.0
100
AcDbPoint
 10
5475.300504170754
 20
4170.940453559407
 30
0.0
  0
POINT
  5
1569B
330
15244
100
AcDbEntity
  8
DEFPOINTS
 62
     0
 48
50.0
100
AcDbPoint
 10
5475.300504170754
 20
6230.392747690508
 30
0.0
  0
ENDBLK
  5
15246
330
15244
100
AcDbEntity
  8
0
 48
50.0
100
AcDbBlockEnd
  0
BLOCK
  5
15251
330
15250
100
AcDbEntity
  8
0
 48
50.0
100
AcDbBlockBegin
  2
*D14
 70
     1
 10
0.0
 20
0.0
 30
0.0
  3
*D14
  1

  0
LINE
  5
1569C
330
15250
100
AcDbEntity
  8
寸法
 62
     0
 48
50.0
370
    -2
100
AcDbLine
 10
2275.300504170755
 20
5935.940453559408
 30
0.0
 11
2275.300504170755
 21
6275.392747690508
 31
0.0
  0
LINE
  5
1569D
330
15250
100
AcDbEntity
  8
寸法
 62
     0
 48
50.0
370
    -2
100
AcDbLine
 10
2675.300504170755
 20
4185.940453559407
 30
0.0
 11
2675.300504170755
 21
6275.392747690508
 31
0.0
  0
LINE
  5
1569E
330
15250
100
AcDbEntity
  8
寸法
 62
     0
 48
50.0
370
    -2
100
AcDbLine
 10
2275.300504170755
 20
6230.392747690508
 30
0.0
 11
2675.300504170755
 21
6230.392747690508
 31
0.0
  0
INSERT
  5
1569F
330
15250
100
AcDbEntity
  8
寸法
 62
     0
 48
50.0
370
    -2
100
AcDbBlockReference
  2
_DOTSMALL
 10
2275.300504170755
 20
6230.392747690508
 30
0.0
 41
75.0
 42
75.0
 43
75.0
 50
180.0
  0
INSERT
  5
156A0
330
15250
100
AcDbEntity
  8
寸法
 62
     0
 48
50.0
370
    -2
100
AcDbBlockReference
  2
_DOTSMALL
 10
2675.300504170755
 20
6230.392747690508
 30
0.0
 41
75.0
 42
75.0
 43
75.0
  0
MTEXT
  5
156A1
330
15250
100
AcDbEntity
  8
寸法
 62
     7
 48
50.0
100
AcDbMText
 10
2475.300504170755
 20
6305.392747690508
 30
0.0
 40
90.0
 41
0.0
 71
     5
 72
     1
  1
\A1;400
  7
STYLE1
 73
     1
 44
1.0
1001
ACAD
1000
MTEXTBEGIN
1070
    73
1070
     1
1070
    44
1040
1.0
1070
    74
1070
     0
1000
MTEXTEND
  0
POINT
  5
156A2
330
15250
100
AcDbEntity
  8
DEFPOINTS
 62
     0
 48
50.0
100
AcDbPoint
 10
2275.300504170755
 20
5920.940453559407
 30
0.0
  0
POINT
  5
156A3
330
15250
100
AcDbEntity
  8
DEFPOINTS
 62
     0
 48
50.0
100
AcDbPoint
 10
2675.300504170755
 20
4170.940453559407
 30
0.0
  0
POINT
  5
156A4
330
15250
100
AcDbEntity
  8
DEFPOINTS
 62
     0
 48
50.0
100
AcDbPoint
 10
2675.300504170755
 20
6230.392747690508
 30
0.0
  0
ENDBLK
  5
15252
330
15250
100
AcDbEntity
  8
0
 48
50.0
100
AcDbBlockEnd
  0
BLOCK
  5
1525D
330
1525C
100
AcDbEntity
  8
0
 48
50.0
100
AcDbBlockBegin
  2
*D15
 70
     1
 10
0.0
 20
0.0
 30
0.0
  3
*D15
  1

  0
LINE
  5
156A5
330
1525C
100
AcDbEntity
  8
寸法
 62
     0
 48
50.0
370
    -2
100
AcDbLine
 10
5475.300504170754
 20
3305.940453559408
 30
0.0
 11
5475.300504170754
 21
2762.804237522316
 31
0.0
  0
LINE
  5
156A6
330
1525C
100
AcDbEntity
  8
寸法
 62
     0
 48
50.0
370
    -2
100
AcDbLine
 10
5075.300504170755
 20
3030.940453559408
 30
0.0
 11
5075.300504170755
 21
2762.804237522316
 31
0.0
  0
LINE
  5
156A7
330
1525C
100
AcDbEntity
  8
寸法
 62
     0
 48
50.0
370
    -2
100
AcDbLine
 10
5475.300504170754
 20
2807.804237522316
 30
0.0
 11
5075.300504170755
 21
2807.804237522316
 31
0.0
  0
INSERT
  5
156A8
330
1525C
100
AcDbEntity
  8
寸法
 62
     0
 48
50.0
370
    -2
100
AcDbBlockReference
  2
_DOTSMALL
 10
5475.300504170754
 20
2807.804237522316
 30
0.0
 41
75.0
 42
75.0
 43
75.0
  0
INSERT
  5
156A9
330
1525C
100
AcDbEntity
  8
寸法
 62
     0
 48
50.0
370
    -2
100
AcDbBlockReference
  2
_DOTSMALL
 10
5075.300504170755
 20
2807.804237522316
 30
0.0
 41
75.0
 42
75.0
 43
75.0
 50
180.0
  0
MTEXT
  5
156AA
330
1525C
100
AcDbEntity
  8
寸法
 62
     7
 48
50.0
100
AcDbMText
 10
5275.300504170754
 20
2882.804237522316
 30
0.0
 40
90.0
 41
0.0
 71
     5
 72
     1
  1
\A1;400
  7
STYLE1
 73
     1
 44
1.0
1001
ACAD
1000
MTEXTBEGIN
1070
    73
1070
     1
1070
    44
1040
1.0
1070
    74
1070
     0
1000
MTEXTEND
  0
POINT
  5
156AB
330
1525C
100
AcDbEntity
  8
DEFPOINTS
 62
     0
 48
50.0
100
AcDbPoint
 10
5475.300504170754
 20
3320.940453559408
 30
0.0
  0
POINT
  5
156AC
330
1525C
100
AcDbEntity
  8
DEFPOINTS
 62
     0
 48
50.0
100
AcDbPoint
 10
5075.300504170755
 20
3045.940453559408
 30
0.0
  0
POINT
  5
156AD
330
1525C
100
AcDbEntity
  8
DEFPOINTS
 62
     0
 48
50.0
100
AcDbPoint
 10
5075.300504170755
 20
2807.804237522316
 30
0.0
  0
ENDBLK
  5
1525E
330
1525C
100
AcDbEntity
  8
0
 48
50.0
100
AcDbBlockEnd
  0
BLOCK
  5
15269
330
15268
100
AcDbEntity
  8
0
 48
50.0
100
AcDbBlockBegin
  2
*D16
 70
     1
 10
0.0
 20
0.0
 30
0.0
  3
*D16
  1

  0
LINE
  5
156AE
330
15268
100
AcDbEntity
  8
寸法
 62
     0
 48
50.0
370
    -2
100
AcDbLine
 10
5075.300504170755
 20
3030.940453559408
 30
0.0
 11
5075.300504170755
 21
2524.668021485253
 31
0.0
  0
LINE
  5
156AF
330
15268
100
AcDbEntity
  8
寸法
 62
     0
 48
50.0
370
    -2
100
AcDbLine
 10
5875.300504170755
 20
3030.940453559408
 30
0.0
 11
5875.300504170755
 21
2524.668021485253
 31
0.0
  0
LINE
  5
156B0
330
15268
100
AcDbEntity
  8
寸法
 62
     0
 48
50.0
370
    -2
100
AcDbLine
 10
5075.300504170755
 20
2569.668021485253
 30
0.0
 11
5875.300504170755
 21
2569.668021485253
 31
0.0
  0
INSERT
  5
156B1
330
15268
100
AcDbEntity
  8
寸法
 62
     0
 48
50.0
370
    -2
100
AcDbBlockReference
  2
_DOTSMALL
 10
5075.300504170755
 20
2569.668021485253
 30
0.0
 41
75.0
 42
75.0
 43
75.0
 50
180.0
  0
INSERT
  5
156B2
330
15268
100
AcDbEntity
  8
寸法
 62
     0
 48
50.0
370
    -2
100
AcDbBlockReference
  2
_DOTSMALL
 10
5875.300504170755
 20
2569.668021485253
 30
0.0
 41
75.0
 42
75.0
 43
75.0
  0
MTEXT
  5
156B3
330
15268
100
AcDbEntity
  8
寸法
 62
     7
 48
50.0
100
AcDbMText
 10
5475.300504170754
 20
2644.668021485253
 30
0.0
 40
90.0
 41
0.0
 71
     5
 72
     1
  1
\A1;800
  7
STYLE1
 73
     1
 44
1.0
1001
ACAD
1000
MTEXTBEGIN
1070
    73
1070
     1
1070
    44
1040
1.0
1070
    74
1070
     0
1000
MTEXTEND
  0
POINT
  5
156B4
330
15268
100
AcDbEntity
  8
DEFPOINTS
 62
     0
 48
50.0
100
AcDbPoint
 10
5075.300504170755
 20
3045.940453559408
 30
0.0
  0
POINT
  5
156B5
330
15268
100
AcDbEntity
  8
DEFPOINTS
 62
     0
 48
50.0
100
AcDbPoint
 10
5875.300504170755
 20
3045.940453559408
 30
0.0
  0
POINT
  5
156B6
330
15268
100
AcDbEntity
  8
DEFPOINTS
 62
     0
 48
50.0
100
AcDbPoint
 10
5875.300504170755
 20
2569.668021485253
 30
0.0
  0
ENDBLK
  5
1526A
330
15268
100
AcDbEntity
  8
0
 48
50.0
100
AcDbBlockEnd
  0
BLOCK
  5
15275
330
15274
100
AcDbEntity
  8
0
 48
50.0
100
AcDbBlockBegin
  2
*D17
 70
     1
 10
0.0
 20
0.0
 30
0.0
  3
*D17
  1

  0
LINE
  5
156B7
330
15274
100
AcDbEntity
  8
寸法
 62
     0
 48
50.0
370
    -2
100
AcDbLine
 10
5210.300504170755
 20
3570.940453559408
 30
0.0
 11
4852.986000886584
 21
3570.940453559408
 31
0.0
  0
LINE
  5
156B8
330
15274
100
AcDbEntity
  8
寸法
 62
     0
 48
50.0
370
    -2
100
AcDbLine
 10
5060.300504170754
 20
3045.940453559393
 30
0.0
 11
4852.986000886584
 21
3045.940453559393
 31
0.0
  0
LINE
  5
156B9
330
15274
100
AcDbEntity
  8
寸法
 62
     0
 48
50.0
370
    -2
100
AcDbLine
 10
4897.986000886583
 20
3570.940453559408
 30
0.0
 11
4897.986000886583
 21
3045.940453559393
 31
0.0
  0
INSERT
  5
156BA
330
15274
100
AcDbEntity
  8
寸法
 62
     0
 48
50.0
370
    -2
100
AcDbBlockReference
  2
_DOTSMALL
 10
4897.986000886583
 20
3570.940453559408
 30
0.0
 41
75.0
 42
75.0
 43
75.0
 50
90.0
  0
INSERT
  5
156BB
330
15274
100
AcDbEntity
  8
寸法
 62
     0
 48
50.0
370
    -2
100
AcDbBlockReference
  2
_DOTSMALL
 10
4897.986000886583
 20
3045.940453559393
 30
0.0
 41
75.0
 42
75.0
 43
75.0
 50
270.0
  0
MTEXT
  5
156BC
330
15274
100
AcDbEntity
  8
寸法
 62
     7
 48
50.0
100
AcDbMText
 10
4822.977142618866
 20
3308.440453559401
 30
0.0
 40
90.0
 41
0.0
 71
     5
 72
     1
  1
\A1;525
  7
STYLE1
 11
0.0000000000000001
 21
1.0
 31
0.0
 73
     1
 44
1.0
1001
ACAD
1000
MTEXTBEGIN
1070
    73
1070
     1
1070
    44
1040
1.0
1070
    74
1070
     0
1000
MTEXTEND
  0
POINT
  5
156BD
330
15274
100
AcDbEntity
  8
DEFPOINTS
 62
     0
 48
50.0
100
AcDbPoint
 10
5225.300504170754
 20
3570.940453559408
 30
0.0
  0
POINT
  5
156BE
330
15274
100
AcDbEntity
  8
DEFPOINTS
 62
     0
 48
50.0
100
AcDbPoint
 10
5075.300504170755
 20
3045.940453559393
 30
0.0
  0
POINT
  5
156BF
330
15274
100
AcDbEntity
  8
DEFPOINTS
 62
     0
 48
50.0
100
AcDbPoint
 10
4897.986000886583
 20
3045.940453559393
 30
0.0
  0
ENDBLK
  5
15276
330
15274
100
AcDbEntity
  8
0
 48
50.0
100
AcDbBlockEnd
  0
BLOCK
  5
15281
330
15280
100
AcDbEntity
  8
0
 48
50.0
100
AcDbBlockBegin
  2
*D18
 70
     1
 10
0.0
 20
0.0
 30
0.0
  3
*D18
  1

  0
LINE
  5
156C0
330
15280
100
AcDbEntity
  8
寸法
 62
     0
 48
50.0
370
    -2
100
AcDbLine
 10
5060.300504170754
 20
4445.940453559408
 30
0.0
 11
4675.671497602412
 21
4445.940453559408
 31
0.0
  0
LINE
  5
156C1
330
15280
100
AcDbEntity
  8
寸法
 62
     0
 48
50.0
370
    -2
100
AcDbLine
 10
5060.300504170754
 20
3045.940453559393
 30
0.0
 11
4675.671497602412
 21
3045.940453559393
 31
0.0
  0
LINE
  5
156C2
330
15280
100
AcDbEntity
  8
寸法
 62
     0
 48
50.0
370
    -2
100
AcDbLine
 10
4720.671497602412
 20
4445.940453559408
 30
0.0
 11
4720.671497602412
 21
3045.940453559393
 31
0.0
  0
INSERT
  5
156C3
330
15280
100
AcDbEntity
  8
寸法
 62
     0
 48
50.0
370
    -2
100
AcDbBlockReference
  2
_DOTSMALL
 10
4720.671497602412
 20
4445.940453559408
 30
0.0
 41
75.0
 42
75.0
 43
75.0
 50
90.0
  0
INSERT
  5
156C4
330
15280
100
AcDbEntity
  8
寸法
 62
     0
 48
50.0
370
    -2
100
AcDbBlockReference
  2
_DOTSMALL
 10
4720.671497602412
 20
3045.940453559393
 30
0.0
 41
75.0
 42
75.0
 43
75.0
 50
270.0
  0
MTEXT
  5
156C5
330
15280
100
AcDbEntity
  8
寸法
 62
     7
 48
50.0
100
AcDbMText
 10
4645.671497602411
 20
3745.940453559401
 30
0.0
 40
90.0
 41
0.0
 71
     5
 72
     1
  1
\A1;1400
  7
STYLE1
 11
0.0000000000000001
 21
1.0
 31
0.0
 73
     1
 44
1.0
1001
ACAD
1000
MTEXTBEGIN
1070
    73
1070
     1
1070
    44
1040
1.0
1070
    74
1070
     0
1000
MTEXTEND
  0
POINT
  5
156C6
330
15280
100
AcDbEntity
  8
DEFPOINTS
 62
     0
 48
50.0
100
AcDbPoint
 10
5075.300504170755
 20
4445.940453559408
 30
0.0
  0
POINT
  5
156C7
330
15280
100
AcDbEntity
  8
DEFPOINTS
 62
     0
 48
50.0
100
AcDbPoint
 10
5075.300504170755
 20
3045.940453559393
 30
0.0
  0
POINT
  5
156C8
330
15280
100
AcDbEntity
  8
DEFPOINTS
 62
     0
 48
50.0
100
AcDbPoint
 10
4720.671497602412
 20
3045.940453559393
 30
0.0
  0
ENDBLK
  5
15282
330
15280
100
AcDbEntity
  8
0
 48
50.0
100
AcDbBlockEnd
  0
BLOCK
  5
1528D
330
1528C
100
AcDbEntity
  8
0
 48
50.0
100
AcDbBlockBegin
  2
*D19
 70
     1
 10
0.0
 20
0.0
 30
0.0
  3
*D19
  1

  0
LINE
  5
156C9
330
1528C
100
AcDbEntity
  8
寸法
 62
     0
 48
50.0
370
    -2
100
AcDbLine
 10
5210.300504170755
 20
3920.940453559408
 30
0.0
 11
4852.986000886584
 21
3920.940453559408
 31
0.0
  0
LINE
  5
156CA
330
1528C
100
AcDbEntity
  8
寸法
 62
     0
 48
50.0
370
    -2
100
AcDbLine
 10
5210.300504170755
 20
3570.940453559408
 30
0.0
 11
4852.986000886584
 21
3570.940453559408
 31
0.0
  0
LINE
  5
156CB
330
1528C
100
AcDbEntity
  8
寸法
 62
     0
 48
50.0
370
    -2
100
AcDbLine
 10
4897.986000886583
 20
3920.940453559408
 30
0.0
 11
4897.986000886583
 21
3570.940453559408
 31
0.0
  0
INSERT
  5
156CC
330
1528C
100
AcDbEntity
  8
寸法
 62
     0
 48
50.0
370
    -2
100
AcDbBlockReference
  2
_DOTSMALL
 10
4897.986000886583
 20
3920.940453559408
 30
0.0
 41
75.0
 42
75.0
 43
75.0
 50
90.0
  0
INSERT
  5
156CD
330
1528C
100
AcDbEntity
  8
寸法
 62
     0
 48
50.0
370
    -2
100
AcDbBlockReference
  2
_DOTSMALL
 10
4897.986000886583
 20
3570.940453559408
 30
0.0
 41
75.0
 42
75.0
 43
75.0
 50
270.0
  0
MTEXT
  5
156CE
330
1528C
100
AcDbEntity
  8
寸法
 62
     7
 48
50.0
100
AcDbMText
 10
4822.986000886583
 20
3745.940453559409
 30
0.0
 40
90.0
 41
0.0
 71
     5
 72
     1
  1
\A1;350
  7
STYLE1
 11
0.0000000000000001
 21
1.0
 31
0.0
 73
     1
 44
1.0
1001
ACAD
1000
MTEXTBEGIN
1070
    73
1070
     1
1070
    44
1040
1.0
1070
    74
1070
     0
1000
MTEXTEND
  0
POINT
  5
156CF
330
1528C
100
AcDbEntity
  8
DEFPOINTS
 62
     0
 48
50.0
100
AcDbPoint
 10
5225.300504170754
 20
3920.940453559408
 30
0.0
  0
POINT
  5
156D0
330
1528C
100
AcDbEntity
  8
DEFPOINTS
 62
     0
 48
50.0
100
AcDbPoint
 10
5225.300504170754
 20
3570.940453559408
 30
0.0
  0
POINT
  5
156D1
330
1528C
100
AcDbEntity
  8
DEFPOINTS
 62
     0
 48
50.0
100
AcDbPoint
 10
4897.986000886583
 20
3570.940453559408
 30
0.0
  0
ENDBLK
  5
1528E
330
1528C
100
AcDbEntity
  8
0
 48
50.0
100
AcDbBlockEnd
  0
BLOCK
  5
15299
330
15298
100
AcDbEntity
  8
0
 48
50.0
100
AcDbBlockBegin
  2
*D20
 70
     1
 10
0.0
 20
0.0
 30
0.0
  3
*D20
  1

  0
LINE
  5
156D2
330
15298
100
AcDbEntity
  8
寸法
 62
     0
 48
50.0
370
    -2
100
AcDbLine
 10
5210.300504170755
 20
3920.940453559408
 30
0.0
 11
4852.986000886584
 21
3920.940453559408
 31
0.0
  0
LINE
  5
156D3
330
15298
100
AcDbEntity
  8
寸法
 62
     0
 48
50.0
370
    -2
100
AcDbLine
 10
5060.300504170754
 20
4445.940453559422
 30
0.0
 11
4852.986000886584
 21
4445.940453559422
 31
0.0
  0
LINE
  5
156D4
330
15298
100
AcDbEntity
  8
寸法
 62
     0
 48
50.0
370
    -2
100
AcDbLine
 10
4897.986000886583
 20
3920.940453559408
 30
0.0
 11
4897.986000886583
 21
4445.940453559422
 31
0.0
  0
INSERT
  5
156D5
330
15298
100
AcDbEntity
  8
寸法
 62
     0
 48
50.0
370
    -2
100
AcDbBlockReference
  2
_DOTSMALL
 10
4897.986000886583
 20
3920.940453559408
 30
0.0
 41
75.0
 42
75.0
 43
75.0
 50
270.0
  0
INSERT
  5
156D6
330
15298
100
AcDbEntity
  8
寸法
 62
     0
 48
50.0
370
    -2
100
AcDbBlockReference
  2
_DOTSMALL
 10
4897.986000886583
 20
4445.940453559422
 30
0.0
 41
75.0
 42
75.0
 43
75.0
 50
90.0
  0
MTEXT
  5
156D7
330
15298
100
AcDbEntity
  8
寸法
 62
     7
 48
50.0
100
AcDbMText
 10
4822.977142618866
 20
4183.440453559415
 30
0.0
 40
90.0
 41
0.0
 71
     5
 72
     1
  1
\A1;525
  7
STYLE1
 11
0.0000000000000001
 21
1.0
 31
0.0
 73
     1
 44
1.0
1001
ACAD
1000
MTEXTBEGIN
1070
    73
1070
     1
1070
    44
1040
1.0
1070
    74
1070
     0
1000
MTEXTEND
  0
POINT
  5
156D8
330
15298
100
AcDbEntity
  8
DEFPOINTS
 62
     0
 48
50.0
100
AcDbPoint
 10
5225.300504170754
 20
3920.940453559408
 30
0.0
  0
POINT
  5
156D9
330
15298
100
AcDbEntity
  8
DEFPOINTS
 62
     0
 48
50.0
100
AcDbPoint
 10
5075.300504170755
 20
4445.940453559422
 30
0.0
  0
POINT
  5
156DA
330
15298
100
AcDbEntity
  8
DEFPOINTS
 62
     0
 48
50.0
100
AcDbPoint
 10
4897.986000886583
 20
4445.940453559422
 30
0.0
  0
ENDBLK
  5
1529A
330
15298
100
AcDbEntity
  8
0
 48
50.0
100
AcDbBlockEnd
  0
BLOCK
  5
1540D
330
1540C
100
AcDbEntity
  8
0
 48
50.0
100
AcDbBlockBegin
  2
*D21
 70
     1
 10
0.0
 20
0.0
 30
0.0
  3
*D21
  1

  0
LINE
  5
156DB
330
1540C
100
AcDbEntity
  8
寸法
 62
     0
 48
50.0
370
    -2
100
AcDbLine
 10
7804.484558468499
 20
3911.641758775237
 30
0.0
 11
7623.903431366596
 21
3911.641758775237
 31
0.0
  0
LINE
  5
156DC
330
1540C
100
AcDbEntity
  8
寸法
 62
     0
 48
50.0
370
    -2
100
AcDbLine
 10
7804.484558468499
 20
4011.641758775236
 30
0.0
 11
7623.903431366596
 21
4011.641758775236
 31
0.0
  0
LINE
  5
156DD
330
1540C
100
AcDbEntity
  8
寸法
 62
     0
 48
50.0
370
    -2
100
AcDbLine
 10
7668.903431366596
 20
3911.641758775237
 30
0.0
 11
7668.903431366596
 21
4011.641758775236
 31
0.0
  0
LINE
  5
156DE
330
1540C
100
AcDbEntity
  8
寸法
 62
     0
 48
50.0
370
    -2
100
AcDbLine
 10
7668.903431366596
 20
4011.641758775236
 30
0.0
 11
7668.903431366596
 21
4290.71262491701
 31
0.0
  0
INSERT
  5
156DF
330
1540C
100
AcDbEntity
  8
寸法
 62
     0
 48
50.0
370
    -2
100
AcDbBlockReference
  2
_DOTSMALL
 10
7668.903431366596
 20
3911.641758775237
 30
0.0
 41
75.0
 42
75.0
 43
75.0
 50
270.0
  0
INSERT
  5
156E0
330
1540C
100
AcDbEntity
  8
寸法
 62
     0
 48
50.0
370
    -2
100
AcDbBlockReference
  2
_DOTSMALL
 10
7668.903431366596
 20
4011.641758775236
 30
0.0
 41
75.0
 42
75.0
 43
75.0
 50
90.0
  0
MTEXT
  5
156E1
330
1540C
100
AcDbEntity
  8
寸法
 62
     7
 48
50.0
100
AcDbMText
 10
7593.903431366594
 20
4188.677191846145
 30
0.0
 40
90.0
 41
0.0
 71
     5
 72
     1
  1
\A1;100
  7
STYLE1
 11
0.0000000000000001
 21
1.0
 31
0.0
 73
     1
 44
1.0
1001
ACAD
1000
MTEXTBEGIN
1070
    73
1070
     1
1070
    44
1040
1.0
1070
    74
1070
     0
1000
MTEXTEND
  0
POINT
  5
156E2
330
1540C
100
AcDbEntity
  8
DEFPOINTS
 62
     0
 48
50.0
100
AcDbPoint
 10
7819.484558468499
 20
3911.641758775237
 30
0.0
  0
POINT
  5
156E3
330
1540C
100
AcDbEntity
  8
DEFPOINTS
 62
     0
 48
50.0
100
AcDbPoint
 10
7819.484558468499
 20
4011.641758775236
 30
0.0
  0
POINT
  5
156E4
330
1540C
100
AcDbEntity
  8
DEFPOINTS
 62
     0
 48
50.0
100
AcDbPoint
 10
7668.903431366596
 20
4011.641758775236
 30
0.0
  0
ENDBLK
  5
1540E
330
1540C
100
AcDbEntity
  8
0
 48
50.0
100
AcDbBlockEnd
  0
BLOCK
  5
1541A
330
15419
100
AcDbEntity
  8
0
 48
50.0
100
AcDbBlockBegin
  2
*D22
 70
     1
 10
0.0
 20
0.0
 30
0.0
  3
*D22
  1

  0
LINE
  5
156E5
330
15419
100
AcDbEntity
  8
寸法
 62
     0
 48
50.0
370
    -2
100
AcDbLine
 10
7804.484558468499
 20
3911.641758775237
 30
0.0
 11
7623.903431366596
 21
3911.641758775237
 31
0.0
  0
LINE
  5
156E6
330
15419
100
AcDbEntity
  8
寸法
 62
     0
 48
50.0
370
    -2
100
AcDbLine
 10
7804.484558468499
 20
3811.641758775237
 30
0.0
 11
7623.903431366596
 21
3811.641758775237
 31
0.0
  0
LINE
  5
156E7
330
15419
100
AcDbEntity
  8
寸法
 62
     0
 48
50.0
370
    -2
100
AcDbLine
 10
7668.903431366596
 20
3911.641758775237
 30
0.0
 11
7668.903431366596
 21
3811.641758775237
 31
0.0
  0
LINE
  5
156E8
330
15419
100
AcDbEntity
  8
寸法
 62
     0
 48
50.0
370
    -2
100
AcDbLine
 10
7668.903431366596
 20
3811.641758775237
 30
0.0
 11
7668.903431366596
 21
3532.570892633504
 31
0.0
  0
INSERT
  5
156E9
330
15419
100
AcDbEntity
  8
寸法
 62
     0
 48
50.0
370
    -2
100
AcDbBlockReference
  2
_DOTSMALL
 10
7668.903431366596
 20
3911.641758775237
 30
0.0
 41
75.0
 42
75.0
 43
75.0
 50
90.0
  0
INSERT
  5
156EA
330
15419
100
AcDbEntity
  8
寸法
 62
     0
 48
50.0
370
    -2
100
AcDbBlockReference
  2
_DOTSMALL
 10
7668.903431366596
 20
3811.641758775237
 30
0.0
 41
75.0
 42
75.0
 43
75.0
 50
270.0
  0
MTEXT
  5
156EB
330
15419
100
AcDbEntity
  8
寸法
 62
     7
 48
50.0
100
AcDbMText
 10
7593.903431366594
 20
3634.606325704372
 30
0.0
 40
90.0
 41
0.0
 71
     5
 72
     1
  1
\A1;100
  7
STYLE1
 11
0.0000000000000001
 21
1.0
 31
0.0
 73
     1
 44
1.0
1001
ACAD
1000
MTEXTBEGIN
1070
    73
1070
     1
1070
    44
1040
1.0
1070
    74
1070
     0
1000
MTEXTEND
  0
POINT
  5
156EC
330
15419
100
AcDbEntity
  8
DEFPOINTS
 62
     0
 48
50.0
100
AcDbPoint
 10
7819.484558468499
 20
3911.641758775237
 30
0.0
  0
POINT
  5
156ED
330
15419
100
AcDbEntity
  8
DEFPOINTS
 62
     0
 48
50.0
100
AcDbPoint
 10
7819.484558468499
 20
3811.641758775237
 30
0.0
  0
POINT
  5
156EE
330
15419
100
AcDbEntity
  8
DEFPOINTS
 62
     0
 48
50.0
100
AcDbPoint
 10
7668.903431366596
 20
3811.641758775237
 30
0.0
  0
ENDBLK
  5
1541B
330
15419
100
AcDbEntity
  8
0
 48
50.0
100
AcDbBlockEnd
  0
BLOCK
  5
15427
330
15426
100
AcDbEntity
  8
0
 48
50.0
100
AcDbBlockBegin
  2
*D23
 70
     1
 10
0.0
 20
0.0
 30
0.0
  3
*D23
  1

  0
LINE
  5
156EF
330
15426
100
AcDbEntity
  8
寸法
 62
     0
 48
50.0
370
    -2
100
AcDbLine
 10
8319.484558468557
 20
3346.641758775237
 30
0.0
 11
8319.484558468557
 21
2875.025129131202
 31
0.0
  0
LINE
  5
156F0
330
15426
100
AcDbEntity
  8
寸法
 62
     0
 48
50.0
370
    -2
100
AcDbLine
 10
8844.484558468558
 20
3285.583926945358
 30
0.0
 11
8844.484558468558
 21
2875.025129131202
 31
0.0
  0
LINE
  5
156F1
330
15426
100
AcDbEntity
  8
寸法
 62
     0
 48
50.0
370
    -2
100
AcDbLine
 10
8319.484558468557
 20
2920.025129131202
 30
0.0
 11
8844.484558468558
 21
2920.025129131202
 31
0.0
  0
INSERT
  5
156F2
330
15426
100
AcDbEntity
  8
寸法
 62
     0
 48
50.0
370
    -2
100
AcDbBlockReference
  2
_DOTSMALL
 10
8319.484558468557
 20
2920.025129131202
 30
0.0
 41
75.0
 42
75.0
 43
75.0
 50
180.0
  0
INSERT
  5
156F3
330
15426
100
AcDbEntity
  8
寸法
 62
     0
 48
50.0
370
    -2
100
AcDbBlockReference
  2
_DOTSMALL
 10
8844.484558468558
 20
2920.025129131202
 30
0.0
 41
75.0
 42
75.0
 43
75.0
  0
MTEXT
  5
156F4
330
15426
100
AcDbEntity
  8
寸法
 62
     7
 48
50.0
100
AcDbMText
 10
8581.984558468558
 20
2995.033987398918
 30
0.0
 40
90.0
 41
0.0
 71
     5
 72
     1
  1
\A1;525
  7
STYLE1
 73
     1
 44
1.0
1001
ACAD
1000
MTEXTBEGIN
1070
    73
1070
     1
1070
    44
1040
1.0
1070
    74
1070
     0
1000
MTEXTEND
  0
POINT
  5
156F5
330
15426
100
AcDbEntity
  8
DEFPOINTS
 62
     0
 48
50.0
100
AcDbPoint
 10
8319.484558468557
 20
3361.641758775237
 30
0.0
  0
POINT
  5
156F6
330
15426
100
AcDbEntity
  8
DEFPOINTS
 62
     0
 48
50.0
100
AcDbPoint
 10
8844.484558468558
 20
3300.583926945357
 30
0.0
  0
POINT
  5
156F7
330
15426
100
AcDbEntity
  8
DEFPOINTS
 62
     0
 48
50.0
100
AcDbPoint
 10
8844.484558468558
 20
2920.025129131202
 30
0.0
  0
ENDBLK
  5
15428
330
15426
100
AcDbEntity
  8
0
 48
50.0
100
AcDbBlockEnd
  0
BLOCK
  5
15433
330
15432
100
AcDbEntity
  8
0
 48
50.0
100
AcDbBlockBegin
  2
*D24
 70
     1
 10
0.0
 20
0.0
 30
0.0
  3
*D24
  1

  0
LINE
  5
156F8
330
15432
100
AcDbEntity
  8
寸法
 62
     0
 48
50.0
370
    -2
100
AcDbLine
 10
9719.484558468558
 20
3346.641758775237
 30
0.0
 11
9719.484558468558
 21
2644.939568042449
 31
0.0
  0
LINE
  5
156F9
330
15432
100
AcDbEntity
  8
寸法
 62
     0
 48
50.0
370
    -2
100
AcDbLine
 10
8319.484558468557
 20
3346.641758775237
 30
0.0
 11
8319.484558468557
 21
2644.939568042449
 31
0.0
  0
LINE
  5
156FA
330
15432
100
AcDbEntity
  8
寸法
 62
     0
 48
50.0
370
    -2
100
AcDbLine
 10
9719.484558468558
 20
2689.93956804245
 30
0.0
 11
8319.484558468557
 21
2689.93956804245
 31
0.0
  0
INSERT
  5
156FB
330
15432
100
AcDbEntity
  8
寸法
 62
     0
 48
50.0
370
    -2
100
AcDbBlockReference
  2
_DOTSMALL
 10
9719.484558468558
 20
2689.93956804245
 30
0.0
 41
75.0
 42
75.0
 43
75.0
  0
INSERT
  5
156FC
330
15432
100
AcDbEntity
  8
寸法
 62
     0
 48
50.0
370
    -2
100
AcDbBlockReference
  2
_DOTSMALL
 10
8319.484558468557
 20
2689.93956804245
 30
0.0
 41
75.0
 42
75.0
 43
75.0
 50
180.0
  0
MTEXT
  5
156FD
330
15432
100
AcDbEntity
  8
寸法
 62
     7
 48
50.0
100
AcDbMText
 10
9019.484558468558
 20
2764.93956804245
 30
0.0
 40
90.0
 41
0.0
 71
     5
 72
     1
  1
\A1;1400
  7
STYLE1
 73
     1
 44
1.0
1001
ACAD
1000
MTEXTBEGIN
1070
    73
1070
     1
1070
    44
1040
1.0
1070
    74
1070
     0
1000
MTEXTEND
  0
POINT
  5
156FE
330
15432
100
AcDbEntity
  8
DEFPOINTS
 62
     0
 48
50.0
100
AcDbPoint
 10
9719.484558468558
 20
3361.641758775237
 30
0.0
  0
POINT
  5
156FF
330
15432
100
AcDbEntity
  8
DEFPOINTS
 62
     0
 48
50.0
100
AcDbPoint
 10
8319.484558468557
 20
3361.641758775237
 30
0.0
  0
POINT
  5
15700
330
15432
100
AcDbEntity
  8
DEFPOINTS
 62
     0
 48
50.0
100
AcDbPoint
 10
8319.484558468557
 20
2689.93956804245
 30
0.0
  0
ENDBLK
  5
15434
330
15432
100
AcDbEntity
  8
0
 48
50.0
100
AcDbBlockEnd
  0
BLOCK
  5
1543F
330
1543E
100
AcDbEntity
  8
0
 48
50.0
100
AcDbBlockBegin
  2
*D25
 70
     1
 10
0.0
 20
0.0
 30
0.0
  3
*D25
  1

  0
LINE
  5
15701
330
1543E
100
AcDbEntity
  8
寸法
 62
     0
 48
50.0
370
    -2
100
AcDbLine
 10
8844.484558468558
 20
3285.583926945358
 30
0.0
 11
8844.484558468558
 21
2875.025129131202
 31
0.0
  0
LINE
  5
15702
330
1543E
100
AcDbEntity
  8
寸法
 62
     0
 48
50.0
370
    -2
100
AcDbLine
 10
9194.484558468557
 20
3285.583926945358
 30
0.0
 11
9194.484558468557
 21
2875.025129131202
 31
0.0
  0
LINE
  5
15703
330
1543E
100
AcDbEntity
  8
寸法
 62
     0
 48
50.0
370
    -2
100
AcDbLine
 10
8844.484558468558
 20
2920.025129131202
 30
0.0
 11
9194.484558468557
 21
2920.025129131202
 31
0.0
  0
INSERT
  5
15704
330
1543E
100
AcDbEntity
  8
寸法
 62
     0
 48
50.0
370
    -2
100
AcDbBlockReference
  2
_DOTSMALL
 10
8844.484558468558
 20
2920.025129131202
 30
0.0
 41
75.0
 42
75.0
 43
75.0
 50
180.0
  0
INSERT
  5
15705
330
1543E
100
AcDbEntity
  8
寸法
 62
     0
 48
50.0
370
    -2
100
AcDbBlockReference
  2
_DOTSMALL
 10
9194.484558468557
 20
2920.025129131202
 30
0.0
 41
75.0
 42
75.0
 43
75.0
  0
MTEXT
  5
15706
330
1543E
100
AcDbEntity
  8
寸法
 62
     7
 48
50.0
100
AcDbMText
 10
9019.484558468558
 20
2995.025129131202
 30
0.0
 40
90.0
 41
0.0
 71
     5
 72
     1
  1
\A1;350
  7
STYLE1
 73
     1
 44
1.0
1001
ACAD
1000
MTEXTBEGIN
1070
    73
1070
     1
1070
    44
1040
1.0
1070
    74
1070
     0
1000
MTEXTEND
  0
POINT
  5
15707
330
1543E
100
AcDbEntity
  8
DEFPOINTS
 62
     0
 48
50.0
100
AcDbPoint
 10
8844.484558468558
 20
3300.583926945357
 30
0.0
  0
POINT
  5
15708
330
1543E
100
AcDbEntity
  8
DEFPOINTS
 62
     0
 48
50.0
100
AcDbPoint
 10
9194.484558468557
 20
3300.583926945357
 30
0.0
  0
POINT
  5
15709
330
1543E
100
AcDbEntity
  8
DEFPOINTS
 62
     0
 48
50.0
100
AcDbPoint
 10
9194.484558468557
 20
2920.025129131202
 30
0.0
  0
ENDBLK
  5
15440
330
1543E
100
AcDbEntity
  8
0
 48
50.0
100
AcDbBlockEnd
  0
BLOCK
  5
1544B
330
1544A
100
AcDbEntity
  8
0
 48
50.0
100
AcDbBlockBegin
  2
*D26
 70
     1
 10
0.0
 20
0.0
 30
0.0
  3
*D26
  1

  0
LINE
  5
1570A
330
1544A
100
AcDbEntity
  8
寸法
 62
     0
 48
50.0
370
    -2
100
AcDbLine
 10
9719.484558468558
 20
3346.641758775237
 30
0.0
 11
9719.484558468558
 21
2875.025129131202
 31
0.0
  0
LINE
  5
1570B
330
1544A
100
AcDbEntity
  8
寸法
 62
     0
 48
50.0
370
    -2
100
AcDbLine
 10
9194.484558468557
 20
3285.583926945358
 30
0.0
 11
9194.484558468557
 21
2875.025129131202
 31
0.0
  0
LINE
  5
1570C
330
1544A
100
AcDbEntity
  8
寸法
 62
     0
 48
50.0
370
    -2
100
AcDbLine
 10
9719.484558468558
 20
2920.025129131202
 30
0.0
 11
9194.484558468557
 21
2920.025129131202
 31
0.0
  0
INSERT
  5
1570D
330
1544A
100
AcDbEntity
  8
寸法
 62
     0
 48
50.0
370
    -2
100
AcDbBlockReference
  2
_DOTSMALL
 10
9719.484558468558
 20
2920.025129131202
 30
0.0
 41
75.0
 42
75.0
 43
75.0
  0
INSERT
  5
1570E
330
1544A
100
AcDbEntity
  8
寸法
 62
     0
 48
50.0
370
    -2
100
AcDbBlockReference
  2
_DOTSMALL
 10
9194.484558468557
 20
2920.025129131202
 30
0.0
 41
75.0
 42
75.0
 43
75.0
 50
180.0
  0
MTEXT
  5
1570F
330
1544A
100
AcDbEntity
  8
寸法
 62
     7
 48
50.0
100
AcDbMText
 10
9456.984558468558
 20
2995.033987398918
 30
0.0
 40
90.0
 41
0.0
 71
     5
 72
     1
  1
\A1;525
  7
STYLE1
 73
     1
 44
1.0
1001
ACAD
1000
MTEXTBEGIN
1070
    73
1070
     1
1070
    44
1040
1.0
1070
    74
1070
     0
1000
MTEXTEND
  0
POINT
  5
15710
330
1544A
100
AcDbEntity
  8
DEFPOINTS
 62
     0
 48
50.0
100
AcDbPoint
 10
9719.484558468558
 20
3361.641758775237
 30
0.0
  0
POINT
  5
15711
330
1544A
100
AcDbEntity
  8
DEFPOINTS
 62
     0
 48
50.0
100
AcDbPoint
 10
9194.484558468557
 20
3300.583926945357
 30
0.0
  0
POINT
  5
15712
330
1544A
100
AcDbEntity
  8
DEFPOINTS
 62
     0
 48
50.0
100
AcDbPoint
 10
9194.484558468557
 20
2920.025129131202
 30
0.0
  0
ENDBLK
  5
1544C
330
1544A
100
AcDbEntity
  8
0
 48
50.0
100
AcDbBlockEnd
  0
BLOCK
  5
15457
330
15456
100
AcDbEntity
  8
0
 48
50.0
100
AcDbBlockBegin
  2
*D27
 70
     1
 10
0.0
 20
0.0
 30
0.0
  3
*D27
  1

  0
LINE
  5
15713
330
15456
100
AcDbEntity
  8
寸法
 62
     0
 48
50.0
370
    -2
100
AcDbLine
 10
10299.28243603207
 20
3961.641758775236
 30
0.0
 11
10556.92592306929
 21
3961.641758775236
 31
0.0
  0
LINE
  5
15714
330
15456
100
AcDbEntity
  8
寸法
 62
     0
 48
50.0
370
    -2
100
AcDbLine
 10
9814.484558468556
 20
3361.641758775237
 30
0.0
 11
10556.92592306929
 21
3361.641758775237
 31
0.0
  0
LINE
  5
15715
330
15456
100
AcDbEntity
  8
寸法
 62
     0
 48
50.0
370
    -2
100
AcDbLine
 10
10511.92592306928
 20
3961.641758775236
 30
0.0
 11
10511.92592306928
 21
3361.641758775237
 31
0.0
  0
INSERT
  5
15716
330
15456
100
AcDbEntity
  8
寸法
 62
     0
 48
50.0
370
    -2
100
AcDbBlockReference
  2
_DOTSMALL
 10
10511.92592306928
 20
3961.641758775236
 30
0.0
 41
75.0
 42
75.0
 43
75.0
 50
90.0
  0
INSERT
  5
15717
330
15456
100
AcDbEntity
  8
寸法
 62
     0
 48
50.0
370
    -2
100
AcDbBlockReference
  2
_DOTSMALL
 10
10511.92592306928
 20
3361.641758775237
 30
0.0
 41
75.0
 42
75.0
 43
75.0
 50
270.0
  0
MTEXT
  5
15718
330
15456
100
AcDbEntity
  8
寸法
 62
     7
 48
50.0
100
AcDbMText
 10
10436.92592306929
 20
3661.641758775239
 30
0.0
 40
90.0
 41
0.0
 71
     5
 72
     1
  1
\A1;600
  7
STYLE1
 11
0.0000000000000001
 21
1.0
 31
0.0
 73
     1
 44
1.0
1001
ACAD
1000
MTEXTBEGIN
1070
    73
1070
     1
1070
    44
1040
1.0
1070
    74
1070
     0
1000
MTEXTEND
  0
POINT
  5
15719
330
15456
100
AcDbEntity
  8
DEFPOINTS
 62
     0
 48
50.0
100
AcDbPoint
 10
10284.28243603207
 20
3961.641758775236
 30
0.0
  0
POINT
  5
1571A
330
15456
100
AcDbEntity
  8
DEFPOINTS
 62
     0
 48
50.0
100
AcDbPoint
 10
9799.484558468558
 20
3361.641758775237
 30
0.0
  0
POINT
  5
1571B
330
15456
100
AcDbEntity
  8
DEFPOINTS
 62
     0
 48
50.0
100
AcDbPoint
 10
10511.92592306928
 20
3361.641758775237
 30
0.0
  0
ENDBLK
  5
15458
330
15456
100
AcDbEntity
  8
0
 48
50.0
100
AcDbBlockEnd
  0
BLOCK
  5
15463
330
15462
100
AcDbEntity
  8
0
 48
50.0
100
AcDbBlockBegin
  2
*D28
 70
     1
 10
0.0
 20
0.0
 30
0.0
  3
*D28
  1

  0
LINE
  5
1571C
330
15462
100
AcDbEntity
  8
寸法
 62
     0
 48
50.0
370
    -2
100
AcDbLine
 10
10234.48455846855
 20
3961.641758775236
 30
0.0
 11
10556.92592306929
 21
3961.641758775236
 31
0.0
  0
LINE
  5
1571D
330
15462
100
AcDbEntity
  8
寸法
 62
     0
 48
50.0
370
    -2
100
AcDbLine
 10
10234.48455846861
 20
4011.641758775236
 30
0.0
 11
10556.92592306929
 21
4011.641758775236
 31
0.0
  0
LINE
  5
1571E
330
15462
100
AcDbEntity
  8
寸法
 62
     0
 48
50.0
370
    -2
100
AcDbLine
 10
10511.92592306928
 20
3961.641758775236
 30
0.0
 11
10511.92592306928
 21
3886.641758775237
 31
0.0
  0
LINE
  5
1571F
330
15462
100
AcDbEntity
  8
寸法
 62
     0
 48
50.0
370
    -2
100
AcDbLine
 10
10511.92592306928
 20
4011.641758775236
 30
0.0
 11
10511.92592306929
 21
4320.71262491701
 31
0.0
  0
LINE
  5
15720
330
15462
100
AcDbEntity
  8
寸法
 62
     0
 48
50.0
370
    -2
100
AcDbLine
 10
10511.92592306928
 20
3961.641758775236
 30
0.0
 11
10511.92592306928
 21
4011.641758775236
 31
0.0
  0
INSERT
  5
15721
330
15462
100
AcDbEntity
  8
寸法
 62
     0
 48
50.0
370
    -2
100
AcDbBlockReference
  2
_DOTSMALL
 10
10511.92592306928
 20
3961.641758775236
 30
0.0
 41
75.0
 42
75.0
 43
75.0
 50
90.0
  0
INSERT
  5
15722
330
15462
100
AcDbEntity
  8
寸法
 62
     0
 48
50.0
370
    -2
100
AcDbBlockReference
  2
_DOTSMALL
 10
10511.92592306928
 20
4011.641758775236
 30
0.0
 41
75.0
 42
75.0
 43
75.0
 50
270.0
  0
MTEXT
  5
15723
330
15462
100
AcDbEntity
  8
寸法
 62
     7
 48
50.0
100
AcDbMText
 10
10436.92592306929
 20
4241.177191846145
 30
0.0
 40
90.0
 41
0.0
 71
     5
 72
     1
  1
\A1;50
  7
STYLE1
 11
0.0000000000000001
 21
1.0
 31
0.0
 73
     1
 44
1.0
1001
ACAD
1000
MTEXTBEGIN
1070
    73
1070
     1
1070
    44
1040
1.0
1070
    74
1070
     0
1000
MTEXTEND
  0
POINT
  5
15724
330
15462
100
AcDbEntity
  8
DEFPOINTS
 62
     0
 48
50.0
100
AcDbPoint
 10
10219.48455846855
 20
3961.641758775236
 30
0.0
  0
POINT
  5
15725
330
15462
100
AcDbEntity
  8
DEFPOINTS
 62
     0
 48
50.0
100
AcDbPoint
 10
10219.48455846861
 20
4011.641758775236
 30
0.0
  0
POINT
  5
15726
330
15462
100
AcDbEntity
  8
DEFPOINTS
 62
     0
 48
50.0
100
AcDbPoint
 10
10511.92592306928
 20
4011.641758775236
 30
0.0
  0
ENDBLK
  5
15464
330
15462
100
AcDbEntity
  8
0
 48
50.0
100
AcDbBlockEnd
  0
BLOCK
  5
15471
330
15470
100
AcDbEntity
  8
0
 48
50.0
100
AcDbBlockBegin
  2
*D29
 70
     1
 10
0.0
 20
0.0
 30
0.0
  3
*D29
  1

  0
LINE
  5
15727
330
15470
100
AcDbEntity
  8
寸法
 62
     0
 48
50.0
370
    -2
100
AcDbLine
 10
9814.484558468556
 20
3361.641758775237
 30
0.0
 11
10556.92592306929
 21
3361.641758775237
 31
0.0
  0
LINE
  5
15728
330
15470
100
AcDbEntity
  8
寸法
 62
     0
 48
50.0
370
    -2
100
AcDbLine
 10
9814.484558468556
 20
3311.641758775237
 30
0.0
 11
10556.92592306929
 21
3311.641758775237
 31
0.0
  0
LINE
  5
15729
330
15470
100
AcDbEntity
  8
寸法
 62
     0
 48
50.0
370
    -2
100
AcDbLine
 10
10511.92592306928
 20
3361.641758775237
 30
0.0
 11
10511.92592306928
 21
3436.641758775237
 31
0.0
  0
LINE
  5
1572A
330
15470
100
AcDbEntity
  8
寸法
 62
     0
 48
50.0
370
    -2
100
AcDbLine
 10
10511.92592306928
 20
3311.641758775237
 30
0.0
 11
10511.92592306928
 21
3002.570892633503
 31
0.0
  0
LINE
  5
1572B
330
15470
100
AcDbEntity
  8
寸法
 62
     0
 48
50.0
370
    -2
100
AcDbLine
 10
10511.92592306928
 20
3361.641758775237
 30
0.0
 11
10511.92592306928
 21
3311.641758775237
 31
0.0
  0
INSERT
  5
1572C
330
15470
100
AcDbEntity
  8
寸法
 62
     0
 48
50.0
370
    -2
100
AcDbBlockReference
  2
_DOTSMALL
 10
10511.92592306928
 20
3361.641758775237
 30
0.0
 41
75.0
 42
75.0
 43
75.0
 50
270.0
  0
INSERT
  5
1572D
330
15470
100
AcDbEntity
  8
寸法
 62
     0
 48
50.0
370
    -2
100
AcDbBlockReference
  2
_DOTSMALL
 10
10511.92592306928
 20
3311.641758775237
 30
0.0
 41
75.0
 42
75.0
 43
75.0
 50
90.0
  0
MTEXT
  5
1572E
330
15470
100
AcDbEntity
  8
寸法
 62
     7
 48
50.0
100
AcDbMText
 10
10436.92592306929
 20
3082.106325704371
 30
0.0
 40
90.0
 41
0.0
 71
     5
 72
     1
  1
\A1;50
  7
STYLE1
 11
0.0000000000000001
 21
1.0
 31
0.0
 73
     1
 44
1.0
1001
ACAD
1000
MTEXTBEGIN
1070
    73
1070
     1
1070
    44
1040
1.0
1070
    74
1070
     0
1000
MTEXTEND
  0
POINT
  5
1572F
330
15470
100
AcDbEntity
  8
DEFPOINTS
 62
     0
 48
50.0
100
AcDbPoint
 10
9799.484558468558
 20
3361.641758775237
 30
0.0
  0
POINT
  5
15730
330
15470
100
AcDbEntity
  8
DEFPOINTS
 62
     0
 48
50.0
100
AcDbPoint
 10
9799.484558468558
 20
3311.641758775237
 30
0.0
  0
POINT
  5
15731
330
15470
100
AcDbEntity
  8
DEFPOINTS
 62
     0
 48
50.0
100
AcDbPoint
 10
10511.92592306928
 20
3311.641758775237
 30
0.0
  0
ENDBLK
  5
15472
330
15470
100
AcDbEntity
  8
0
 48
50.0
100
AcDbBlockEnd
  0
ENDSEC
  0
SECTION
  2
ENTITIES
  0
MTEXT
  5
763F
330
747D
100
AcDbEntity
  8
0
100
AcDbMText
 10
302.846345836809
 20
280.1983726409901
 30
0.0
 40
3.5
 41
5.323721266742722
 71
     1
 72
     5
  1

  7
MSMINCHO
 73
     1
 44
1.0
1001
ACAD
1000
MTEXTBEGIN
1070
    73
1070
     1
1070
    44
1040
1.0
1070
    74
1070
     0
1000
MTEXTEND
  0
LINE
  5
10B56
330
747D
100
AcDbEntity
  8
補助
  6
PHANTOM
 62
   230
 48
50.0
100
AcDbLine
 10
105.0
 20
0.0
 30
0.0
 11
104.9999999999996
 21
8557.199999999999
 31
0.0
  0
LINE
  5
10B57
330
747D
100
AcDbEntity
  8
補助
  6
PHANTOM
 62
   230
 48
50.0
100
AcDbLine
 10
104.9999999999996
 20
8557.199999999999
 30
0.0
 11
12230.4
 21
8557.199999999999
 31
0.0
  0
LINE
  5
10B5E
330
747D
100
AcDbEntity
  8
補助
  6
PHANTOM
 62
   230
 48
50.0
100
AcDbLine
 10
12230.4
 20
8557.199999999999
 30
0.0
 11
12230.4
 21
900.0
 31
0.0
  0
LINE
  5
10B6D
330
747D
100
AcDbEntity
  8
補助
  6
PHANTOM
 62
   230
 48
50.0
100
AcDbLine
 10
9830.400000000002
 20
8557.199999999999
 30
0.0
 11
9830.400000000002
 21
3600.0
 31
0.0
  0
LINE
  5
10B6F
330
747D
100
AcDbEntity
  8
補助
  6
PHANTOM
 62
   230
 48
50.0
100
AcDbLine
 10
9830.400000000002
 20
3110.960973647383
 30
0.0
 11
12230.4
 21
3110.960973647383
 31
0.0
  0
LINE
  5
13125
330
747D
100
AcDbEntity
  8
補助
  6
PHANTOM
 62
   230
 48
50.0
100
AcDbLine
 10
11930.4
 20
8182.200000000003
 30
0.0
 11
11930.4
 21
6457.2
 31
0.0
  0
LINE
  5
13126
330
747D
100
AcDbEntity
  8
補助
  6
PHANTOM
 62
   230
 48
50.0
100
AcDbLine
 10
9380.400000000003
 20
8182.199999999999
 30
0.0
 11
9380.400000000003
 21
6457.2
 31
0.0
  0
LINE
  5
13127
330
747D
100
AcDbEntity
  8
補助
  6
PHANTOM
 62
   230
 48
50.0
100
AcDbLine
 10
9380.400000000003
 20
6457.2
 30
0.0
 11
11930.4
 21
6457.2
 31
0.0
  0
LINE
  5
13128
330
747D
100
AcDbEntity
  8
補助
  6
PHANTOM
 62
   230
 48
50.0
100
AcDbLine
 10
9380.400000000003
 20
8182.199999999999
 30
0.0
 11
11930.4
 21
8182.200000000003
 31
0.0
  0
TEXT
  5
13959
330
747D
100
AcDbEntity
  8
文字
 62
     7
 48
50.0
100
AcDbText
 10
10893.0988779165
 20
773.6682797184221
 30
0.0
 40
75.0
  1
             <縮尺> S=1/30
  7
STYLE2
100
AcDbText
  0
LINE
  5
13989
330
747D
100
AcDbEntity
  8
仕様書枠
  6
Continuous
 48
50.0
100
AcDbLine
 10
9830.400000000002
 20
900.0
 30
0.0
 11
9830.400000000002
 21
0.0
 31
0.0
  0
LINE
  5
1398A
330
747D
100
AcDbEntity
  8
仕様書枠
 48
50.0
100
AcDbLine
 10
12230.4
 20
900.0
 30
0.0
 11
12230.4
 21
0.0
 31
0.0
  0
LINE
  5
1398B
330
747D
100
AcDbEntity
  8
仕様書枠
 48
50.0
100
AcDbLine
 10
105.0
 20
0.0
 30
0.0
 11
12230.4
 21
0.0
 31
0.0
  0
LINE
  5
1398C
330
747D
100
AcDbEntity
  8
仕様書枠
 48
50.0
100
AcDbLine
 10
9830.400000000002
 20
900.0
 30
0.0
 11
12230.4
 21
900.0
 31
0.0
  0
LINE
  5
1398D
330
747D
100
AcDbEntity
  8
文字
 62
     7
 48
50.0
100
AcDbLine
 10
9890.400000000001
 20
300.0
 30
0.0
 11
12170.4
 21
300.0
 31
0.0
  0
TEXT
  5
1398E
330
747D
100
AcDbEntity
  8
文字
 62
     7
 48
50.0
100
AcDbText
 10
9872.234292432681
 20
671.3179555724564
 30
0.0
 40
150.0
  1
基 礎 図
  7
STYLE2
100
AcDbText
  0
TEXT
  5
1398F
330
747D
100
AcDbEntity
  8
文字
 62
     7
 48
50.0
100
AcDbText
 10
9901.077524988316
 20
357.9555495773456
 30
0.0
 40
120.0
  1
機種名
  7
STYLE2
100
AcDbText
  0
TEXT
  5
13990
330
747D
100
AcDbEntity
  8
文字
 62
     7
 48
50.0
100
AcDbText
 10
9907.054008162901
 20
171.4076431926732
 30
0.0
 40
60.0
  1
○間口寸法は柱芯寸法です。
  7
STYLE2
100
AcDbText
  0
TEXT
  5
13991
330
747D
100
AcDbEntity
  8
文字
 62
     7
 48
50.0
100
AcDbText
 10
9907.054008162901
 20
57.07076030736789
 30
0.0
 40
60.0
  1
○寒冷地等は、地域の実情に合わせた基礎にしてください。
  7
STYLE2
100
AcDbText
  0
LINE
  5
13992
330
747D
100
AcDbEntity
  8
仕様書枠
 48
50.0
100
AcDbLine
 10
9830.400000000002
 20
600.0
 30
0.0
 11
10688.4
 21
600.0
 31
0.0
  0
LINE
  5
13993
330
747D
100
AcDbEntity
  8
仕様書枠
  6
Continuous
 48
50.0
100
AcDbLine
 10
10688.4
 20
900.0
 30
0.0
 11
10688.4
 21
600.0
 31
0.0
  0
TEXT
  5
13994
330
747D
100
AcDbEntity
  8
文字
 62
     7
 48
50.0
100
AcDbText
 10
10951.9835159712
 20
362.922534743353
 30
0.0
 40
120.0
  1
BP-28VU
  7
STYLE3
100
AcDbText
  0
TEXT
  5
13995
330
747D
100
AcDbEntity
  8
文字
 62
     7
 48
50.0
100
AcDbText
 10
11138.71739229687
 20
628.6895453046891
 30
0.0
 40
75.0
  1
～一般型～
  7
STYLE2
100
AcDbText
  0
LINE
  5
15172
330
747D
100
AcDbEntity
  8
センター
 48
10.0
100
AcDbLine
 10
2425.300504170755
 20
3570.940453559408
 30
0.0
 11
5725.300504170754
 21
3570.940453559408
 31
0.0
  0
LINE
  5
15173
330
747D
100
AcDbEntity
  8
想像線
 48
10.0
100
AcDbLine
 10
2445.300504170813
 20
1707.440453559408
 30
0.0
 11
2445.300504170813
 21
5784.440453559408
 31
0.0
  0
LINE
  5
15174
330
747D
100
AcDbEntity
  8
想像線
 48
10.0
100
AcDbLine
 10
5705.300504170697
 20
1707.440453559408
 30
0.0
 11
5705.300504170697
 21
5784.440453559408
 31
0.0
  0
LINE
  5
15175
330
747D
100
AcDbEntity
  8
想像線
 48
10.0
100
AcDbLine
 10
2445.300504170813
 20
1707.440453559408
 30
0.0
 11
5705.300504170697
 21
1707.440453559408
 31
0.0
  0
LINE
  5
15176
330
747D
100
AcDbEntity
  8
部品1
 48
50.0
100
AcDbLine
 10
2275.300504170755
 20
3045.940453559408
 30
0.0
 11
3075.300504170755
 21
3045.940453559408
 31
0.0
  0
LINE
  5
15177
330
747D
100
AcDbEntity
  8
部品1
 48
50.0
100
AcDbLine
 10
2275.300504170755
 20
5920.940453559407
 30
0.0
 11
2275.300504170755
 21
1570.940453559408
 31
0.0
  0
CIRCLE
  5
15178
330
747D
100
AcDbEntity
  8
部品1
 48
50.0
100
AcDbCircle
 10
2675.300504170755
 20
3570.940453559408
 30
0.0
 40
44.55
  0
LINE
  5
15179
330
747D
100
AcDbEntity
  8
センター
 48
10.0
100
AcDbLine
 10
2425.300504170755
 20
3570.940453559408
 30
0.0
 11
2925.300504170755
 21
3570.940453559408
 31
0.0
  0
LINE
  5
1517A
330
747D
100
AcDbEntity
  8
センター
 48
10.0
100
AcDbLine
 10
2675.300504170755
 20
3820.940453559408
 30
0.0
 11
2675.300504170755
 21
3320.940453559408
 31
0.0
  0
LINE
  5
1517B
330
747D
100
AcDbEntity
  8
センター
 48
10.0
100
AcDbLine
 10
5475.300504170754
 20
3820.940453559408
 30
0.0
 11
5475.300504170754
 21
3320.940453559408
 31
0.0
  0
LINE
  5
1517C
330
747D
100
AcDbEntity
  8
センター
 48
10.0
100
AcDbLine
 10
5225.300504170754
 20
3570.940453559408
 30
0.0
 11
5725.300504170754
 21
3570.940453559408
 31
0.0
  0
CIRCLE
  5
1517D
330
747D
100
AcDbEntity
  8
部品1
 48
50.0
100
AcDbCircle
 10
5475.300504170754
 20
3570.940453559408
 30
0.0
 40
44.55
  0
LINE
  5
1517E
330
747D
100
AcDbEntity
  8
部品1
 48
50.0
100
AcDbLine
 10
5875.300504170755
 20
5920.940453559407
 30
0.0
 11
5875.300504170755
 21
1570.940453559408
 31
0.0
  0
LINE
  5
1517F
330
747D
100
AcDbEntity
  8
部品1
 48
30.0
100
AcDbLine
 10
2275.300504170755
 20
1570.940453559408
 30
0.0
 11
5875.300504170755
 21
1570.940453559408
 31
0.0
  0
LINE
  5
15180
330
747D
100
AcDbEntity
  8
寸法
 48
50.0
100
AcDbLine
 10
3786.922540840217
 20
2678.514325527052
 30
0.0
 11
3754.074258007448
 21
2801.10578600051
 31
0.0
  0
LINE
  5
15181
330
747D
100
AcDbEntity
  8
寸法
 48
50.0
100
AcDbLine
 10
3786.922540840217
 20
2678.514325527052
 30
0.0
 11
3819.770823673044
 21
2801.10578600051
 31
0.0
  0
LINE
  5
15182
330
747D
100
AcDbEntity
  8
寸法
 48
50.0
100
AcDbLine
 10
3786.922540840217
 20
3464.229553960235
 30
0.0
 11
3786.922540840217
 21
2678.514325527052
 31
0.0
  0
MTEXT
  5
15183
330
747D
100
AcDbEntity
  8
寸法
 62
     7
 48
50.0
100
AcDbMText
 10
3692.48460477444
 20
2817.227631654198
 30
0.0
 40
90.0
 41
0.0
 71
     4
 72
     1
  1
\A1;水勾配 1/100 
  7
STYLE1
 11
0.0000000000000001
 21
1.0
 31
0.0
 73
     1
 44
1.0
1001
ACAD
1000
MTEXTBEGIN
1070
    73
1070
     1
1070
    44
1040
1.0
1070
    74
1070
     0
1000
MTEXTEND
  0
MTEXT
  5
15184
330
747D
100
AcDbEntity
  8
寸法
 62
     7
 48
50.0
100
AcDbMText
 10
2501.292388952967
 20
1824.720499426898
 30
0.0
 40
90.0
 41
0.0
 71
     4
 72
     1
  1
\A1;床コンクリート打コテ押エ
  7
STYLE1
 73
     1
 44
1.0
1001
ACAD
1000
MTEXTBEGIN
1070
    73
1070
     1
1070
    44
1040
1.0
1070
    74
1070
     0
1000
MTEXTEND
  0
LEADER
  5
15185
330
747D
100
AcDbEntity
  8
寸法
 48
50.0
100
AcDbLeader
  3
INABA_S30G
 73
     0
 75
     1
 76
     3
 10
5475.300504170754
 20
3570.940453559408
 30
0.0
 10
5386.813979235409
 20
3240.70424671557
 30
0.0
 10
5311.813979235409
 20
3240.70424671557
 30
0.0
  0
MTEXT
  5
15186
102
{ACAD_REACTORS
330
15185
102
}
330
747D
100
AcDbEntity
  8
寸法
 62
     7
 48
50.0
100
AcDbMText
 10
5281.813979235408
 20
3315.70424671557
 30
0.0
 40
90.0
 41
0.0
 71
     6
 72
     1
  1
\A1;柱
  7
STYLE1
 73
     1
 44
1.0
1001
ACAD
1000
MTEXTBEGIN
1070
    73
1070
     1
1070
    44
1040
1.0
1070
    74
1070
     0
1000
MTEXTEND
  0
LINE
  5
15187
330
747D
100
AcDbEntity
  8
センター
 48
10.0
100
AcDbLine
 10
2425.300504170755
 20
3920.940453559408
 30
0.0
 11
5725.300504170754
 21
3920.940453559408
 31
0.0
  0
LINE
  5
15188
330
747D
100
AcDbEntity
  8
想像線
 48
10.0
100
AcDbLine
 10
2445.300504170813
 20
5784.440453559408
 30
0.0
 11
5705.300504170697
 21
5784.440453559408
 31
0.0
  0
LINE
  5
15189
330
747D
100
AcDbEntity
  8
部品1
 48
50.0
100
AcDbLine
 10
2275.300504170755
 20
4445.940453559408
 30
0.0
 11
3075.300504170755
 21
4445.940453559408
 31
0.0
  0
CIRCLE
  5
1518A
330
747D
100
AcDbEntity
  8
部品1
 48
50.0
100
AcDbCircle
 10
2675.300504170755
 20
3920.940453559408
 30
0.0
 40
44.55
  0
LINE
  5
1518B
330
747D
100
AcDbEntity
  8
センター
 48
10.0
100
AcDbLine
 10
2425.300504170755
 20
3920.940453559408
 30
0.0
 11
2925.300504170755
 21
3920.940453559408
 31
0.0
  0
LINE
  5
1518C
330
747D
100
AcDbEntity
  8
センター
 48
10.0
100
AcDbLine
 10
2675.300504170755
 20
3670.940453559408
 30
0.0
 11
2675.300504170755
 21
4170.940453559407
 31
0.0
  0
LINE
  5
1518D
330
747D
100
AcDbEntity
  8
センター
 48
10.0
100
AcDbLine
 10
5475.300504170754
 20
3670.940453559408
 30
0.0
 11
5475.300504170754
 21
4170.940453559407
 31
0.0
  0
LINE
  5
1518E
330
747D
100
AcDbEntity
  8
センター
 48
10.0
100
AcDbLine
 10
5225.300504170754
 20
3920.940453559408
 30
0.0
 11
5725.300504170754
 21
3920.940453559408
 31
0.0
  0
CIRCLE
  5
1518F
330
747D
100
AcDbEntity
  8
部品1
 48
50.0
100
AcDbCircle
 10
5475.300504170754
 20
3920.940453559408
 30
0.0
 40
44.55
  0
LINE
  5
15190
330
747D
100
AcDbEntity
  8
部品1
 48
50.0
100
AcDbLine
 10
5075.300504170755
 20
3045.940453559393
 30
0.0
 11
5075.300504170755
 21
4445.940453559408
 31
0.0
  0
LINE
  5
15191
330
747D
100
AcDbEntity
  8
部品1
 48
30.0
100
AcDbLine
 10
2275.300504170755
 20
5920.940453559407
 30
0.0
 11
5875.300504170755
 21
5920.940453559407
 31
0.0
  0
LINE
  5
15192
330
747D
100
AcDbEntity
  8
部品1
 48
50.0
100
AcDbLine
 10
3075.300504170755
 20
4445.940453559408
 30
0.0
 11
3075.300504170755
 21
3045.940453559408
 31
0.0
  0
LINE
  5
15193
330
747D
100
AcDbEntity
  8
部品1
 48
50.0
100
AcDbLine
 10
5075.300504170755
 20
3045.940453559408
 30
0.0
 11
5875.300504170755
 21
3045.940453559408
 31
0.0
  0
LINE
  5
15194
330
747D
100
AcDbEntity
  8
部品1
 48
50.0
100
AcDbLine
 10
5075.300504170755
 20
4445.940453559408
 30
0.0
 11
5875.300504170755
 21
4445.940453559408
 31
0.0
  0
DIMENSION
  5
15195
330
747D
100
AcDbEntity
  8
寸法
 48
50.0
100
AcDbDimension
  2
*D1
 10
2275.300504170755
 20
1242.45273522289
 30
0.0
 11
2360.300504170784
 21
1317.452735222891
 31
0.0
 70
    32
 71
     5
 42
170.0000000000582
  3
INABA_S30G
100
AcDbAlignedDimension
 13
2445.300504170813
 23
1707.440453559408
 33
0.0
 14
2275.300504170755
 24
1570.940453559408
 34
0.0
 50
180.0
100
AcDbRotatedDimension
  0
DIMENSION
  5
15196
330
747D
100
AcDbEntity
  8
寸法
 48
50.0
100
AcDbDimension
  2
*D2
 10
5875.300504170755
 20
1242.45273522289
 30
0.0
 11
5790.300504170726
 21
1317.452735222891
 31
0.0
 70
    32
 71
     5
 42
170.0000000000582
  3
INABA_S30G
100
AcDbAlignedDimension
 13
5705.300504170697
 23
1707.440453559408
 33
0.0
 14
5875.300504170755
 24
1570.940453559408
 34
0.0
100
AcDbRotatedDimension
  0
DIMENSION
  5
15197
330
747D
100
AcDbEntity
  8
寸法
 48
50.0
100
AcDbDimension
  2
*D3
 10
5705.300504170697
 20
1242.45273522289
 30
0.0
 11
4075.300504170754
 21
1317.461593490607
 31
0.0
 70
    32
  1
屋根寸法 <>
 71
     5
 42
3259.999999999884
  3
INABA_S30G
100
AcDbAlignedDimension
 13
2445.300504170813
 23
1707.440453559408
 33
0.0
 14
5705.300504170697
 24
1707.440453559408
 34
0.0
100
AcDbRotatedDimension
  0
DIMENSION
  5
15198
330
747D
100
AcDbEntity
  8
寸法
 48
50.0
100
AcDbDimension
  2
*D4
 10
6257.574726534357
 20
1570.940453559408
 30
0.0
 11
6257.574726534357
 21
1347.076492528729
 31
0.0
 70
   160
 71
     5
 42
136.5
  3
INABA_S30G
100
AcDbAlignedDimension
 13
5705.300504170697
 23
1707.440453559408
 33
0.0
 14
5875.300504170755
 24
1570.940453559408
 34
0.0
 50
90.0
100
AcDbRotatedDimension
  0
DIMENSION
  5
15199
330
747D
100
AcDbEntity
  8
寸法
 48
50.0
100
AcDbDimension
  2
*D5
 10
6257.574726534357
 20
1707.440453559408
 30
0.0
 11
6182.574726534356
 21
3745.940453559408
 31
0.0
 70
    32
  1
屋根寸法 <>
 71
     5
 42
4076.999999999999
  3
INABA_S30G
100
AcDbAlignedDimension
 13
5705.300504170697
 23
5784.440453559408
 33
0.0
 14
5705.300504170697
 24
1707.440453559408
 34
0.0
 50
90.0
100
AcDbRotatedDimension
  0
DIMENSION
  5
1519A
330
747D
100
AcDbEntity
  8
寸法
 48
50.0
100
AcDbDimension
  2
*D6
 10
6257.574726534357
 20
5920.940453559406
 30
0.0
 11
6257.574726534357
 21
6144.804414590137
 31
0.0
 70
   160
 71
     5
 42
136.5
  3
INABA_S30G
100
AcDbAlignedDimension
 13
5705.300504170697
 23
5784.440453559408
 33
0.0
 14
5875.300504170755
 24
5920.940453559407
 34
0.0
 50
270.0
100
AcDbRotatedDimension
  0
DIMENSION
  5
1519B
330
747D
100
AcDbEntity
  8
寸法
 48
50.0
100
AcDbDimension
  2
*D7
 10
1711.679305443064
 20
1570.940453559408
 30
0.0
 11
1636.679305443063
 21
3745.940453559409
 31
0.0
 70
    32
  1
基礎土間寸法 <>
 71
     5
 42
4350.0
  3
INABA_S30G
100
AcDbAlignedDimension
 13
2275.300504170755
 23
5920.940453559407
 33
0.0
 14
2275.300504170755
 24
1570.940453559408
 34
0.0
 50
90.0
100
AcDbRotatedDimension
  0
DIMENSION
  5
1519C
330
747D
100
AcDbEntity
  8
寸法
 48
50.0
100
AcDbDimension
  2
*D8
 10
1934.42866745951
 20
1570.940453559408
 30
0.0
 11
1859.419809191793
 21
2570.940453559408
 31
0.0
 70
    32
 71
     5
 42
2000.0
  3
INABA_S30G
100
AcDbAlignedDimension
 13
2425.300504170755
 23
3570.940453559408
 33
0.0
 14
2275.300504170755
 24
1570.940453559408
 34
0.0
 50
90.0
100
AcDbRotatedDimension
  0
DIMENSION
  5
1519D
330
747D
100
AcDbEntity
  8
寸法
 48
50.0
100
AcDbDimension
  2
*D9
 10
1934.42866745951
 20
3570.940453559408
 30
0.0
 11
1859.428667459509
 21
3745.940453559408
 31
0.0
 70
    32
 71
     5
 42
350.0
  3
INABA_S30G
100
AcDbAlignedDimension
 13
2425.300504170755
 23
3920.940453559408
 33
0.0
 14
2425.300504170755
 24
3570.940453559408
 34
0.0
 50
90.0
100
AcDbRotatedDimension
  0
DIMENSION
  5
1519E
330
747D
100
AcDbEntity
  8
寸法
 48
50.0
100
AcDbDimension
  2
*D10
 10
1934.42866745951
 20
5920.940453559409
 30
0.0
 11
1859.419809191792
 21
4920.940453559409
 31
0.0
 70
    32
 71
     5
 42
2000.0
  3
INABA_S30G
100
AcDbAlignedDimension
 13
2425.300504170755
 23
3920.940453559408
 33
0.0
 14
2275.300504170755
 24
5920.940453559407
 34
0.0
 50
270.0
100
AcDbRotatedDimension
  0
DIMENSION
  5
1519F
330
747D
100
AcDbEntity
  8
寸法
 48
50.0
100
AcDbDimension
  2
*D11
 10
5875.300504170755
 20
6424.429786664827
 30
0.0
 11
4075.300504170754
 21
6499.429786664826
 31
0.0
 70
    32
  1
基礎土間寸法 <>
 71
     5
 42
3600.0
  3
INABA_S30G
100
AcDbAlignedDimension
 13
2275.300504170755
 23
5920.940453559407
 33
0.0
 14
5875.300504170755
 24
5920.940453559407
 34
0.0
100
AcDbRotatedDimension
  0
DIMENSION
  5
151A0
330
747D
100
AcDbEntity
  8
寸法
 48
50.0
100
AcDbDimension
  2
*D12
 10
5875.300504170755
 20
6230.392747690508
 30
0.0
 11
5675.300504170754
 21
6305.392747690508
 31
0.0
 70
    32
 71
     5
 42
400.0
  3
INABA_S30G
100
AcDbAlignedDimension
 13
5475.300504170754
 23
4170.940453559407
 33
0.0
 14
5875.300504170755
 24
5920.940453559407
 34
0.0
100
AcDbRotatedDimension
  0
DIMENSION
  5
151A1
330
747D
100
AcDbEntity
  8
寸法
 48
50.0
100
AcDbDimension
  2
*D13
 10
5475.300504170754
 20
6230.392747690508
 30
0.0
 11
4075.300504170754
 21
6305.401605958224
 31
0.0
 70
    32
 71
     5
 42
2800.0
  3
INABA_S30G
100
AcDbAlignedDimension
 13
2675.300504170755
 23
4170.940453559407
 33
0.0
 14
5475.300504170754
 24
4170.940453559407
 34
0.0
100
AcDbRotatedDimension
  0
DIMENSION
  5
151A2
330
747D
100
AcDbEntity
  8
寸法
 48
50.0
100
AcDbDimension
  2
*D14
 10
2675.300504170755
 20
6230.392747690508
 30
0.0
 11
2475.300504170755
 21
6305.392747690508
 31
0.0
 70
    32
 71
     5
 42
400.0
  3
INABA_S30G
100
AcDbAlignedDimension
 13
2275.300504170755
 23
5920.940453559407
 33
0.0
 14
2675.300504170755
 24
4170.940453559407
 34
0.0
100
AcDbRotatedDimension
  0
DIMENSION
  5
151A3
330
747D
100
AcDbEntity
  8
寸法
 48
50.0
100
AcDbDimension
  2
*D15
 10
5075.300504170755
 20
2807.804237522316
 30
0.0
 11
5275.300504170754
 21
2882.804237522316
 31
0.0
 70
    32
 71
     5
 42
400.0
  3
INABA_S30G
100
AcDbAlignedDimension
 13
5475.300504170754
 23
3320.940453559408
 33
0.0
 14
5075.300504170755
 24
3045.940453559408
 34
0.0
100
AcDbRotatedDimension
  0
DIMENSION
  5
151A4
330
747D
100
AcDbEntity
  8
寸法
 48
50.0
100
AcDbDimension
  2
*D16
 10
5875.300504170755
 20
2569.668021485253
 30
0.0
 11
5475.300504170754
 21
2569.668021485253
 31
0.0
 70
   160
 71
     5
 42
800.0
  3
INABA_S30G
100
AcDbAlignedDimension
 13
5075.300504170755
 23
3045.940453559408
 33
0.0
 14
5875.300504170755
 24
3045.940453559408
 34
0.0
100
AcDbRotatedDimension
  0
DIMENSION
  5
151A5
330
747D
100
AcDbEntity
  8
寸法
 48
50.0
100
AcDbDimension
  2
*D17
 10
4897.986000886583
 20
3045.940453559393
 30
0.0
 11
4822.977142618866
 21
3308.440453559401
 31
0.0
 70
    32
 71
     5
 42
525.000000000015
  3
INABA_S30G
100
AcDbAlignedDimension
 13
5225.300504170754
 23
3570.940453559408
 33
0.0
 14
5075.300504170755
 24
3045.940453559393
 34
0.0
 50
90.0
100
AcDbRotatedDimension
  0
DIMENSION
  5
151A6
330
747D
100
AcDbEntity
  8
寸法
 48
50.0
100
AcDbDimension
  2
*D18
 10
4720.671497602412
 20
3045.940453559393
 30
0.0
 11
4645.671497602411
 21
3745.940453559401
 31
0.0
 70
    32
 71
     5
 42
1400.000000000014
  3
INABA_S30G
100
AcDbAlignedDimension
 13
5075.300504170755
 23
4445.940453559408
 33
0.0
 14
5075.300504170755
 24
3045.940453559393
 34
0.0
 50
90.0
100
AcDbRotatedDimension
  0
DIMENSION
  5
151A7
330
747D
100
AcDbEntity
  8
寸法
 48
50.0
100
AcDbDimension
  2
*D19
 10
4897.986000886583
 20
3570.940453559408
 30
0.0
 11
4822.986000886583
 21
3745.940453559409
 31
0.0
 70
    32
 71
     5
 42
350.0
  3
INABA_S30G
100
AcDbAlignedDimension
 13
5225.300504170754
 23
3920.940453559408
 33
0.0
 14
5225.300504170754
 24
3570.940453559408
 34
0.0
 50
90.0
100
AcDbRotatedDimension
  0
DIMENSION
  5
151A8
330
747D
100
AcDbEntity
  8
寸法
 48
50.0
100
AcDbDimension
  2
*D20
 10
4897.986000886583
 20
4445.940453559422
 30
0.0
 11
4822.977142618866
 21
4183.440453559415
 31
0.0
 70
    32
 71
     5
 42
525.0000000000141
  3
INABA_S30G
100
AcDbAlignedDimension
 13
5225.300504170754
 23
3920.940453559408
 33
0.0
 14
5075.300504170755
 24
4445.940453559422
 34
0.0
 50
270.0
100
AcDbRotatedDimension
  0
LINE
  5
151A9
330
747D
100
AcDbEntity
  8
寸法
 48
50.0
100
AcDbLine
 10
3786.922540840217
 20
4813.366581591763
 30
0.0
 11
3754.074258007448
 21
4690.775121118305
 31
0.0
  0
LINE
  5
151AA
330
747D
100
AcDbEntity
  8
寸法
 48
50.0
100
AcDbLine
 10
3786.922540840217
 20
4813.366581591763
 30
0.0
 11
3819.770823673044
 21
4690.775121118305
 31
0.0
  0
LINE
  5
151AB
330
747D
100
AcDbEntity
  8
寸法
 48
50.0
100
AcDbLine
 10
3786.922540840217
 20
4027.651353158581
 30
0.0
 11
3786.922540840217
 21
4813.366581591763
 31
0.0
  0
MTEXT
  5
151AC
330
747D
100
AcDbEntity
  8
寸法
 62
     7
 48
50.0
100
AcDbMText
 10
3692.48460477444
 20
4066.364659285711
 30
0.0
 40
90.0
 41
0.0
 71
     4
 72
     1
  1
\A1;水勾配 1/100 
  7
STYLE1
 11
0.0000000000000001
 21
1.0
 31
0.0
 73
     1
 44
1.0
1001
ACAD
1000
MTEXTBEGIN
1070
    73
1070
     1
1070
    44
1040
1.0
1070
    74
1070
     0
1000
MTEXTEND
  0
LINE
  5
151AD
330
747D
100
AcDbEntity
  8
寸法
 48
50.0
100
AcDbLine
 10
2421.166673421849
 20
4524.839416039539
 30
0.0
 11
2528.90004400483
 21
4553.706485685121
 31
0.0
  0
LINE
  5
151AE
330
747D
100
AcDbEntity
  8
寸法
 48
50.0
100
AcDbLine
 10
2528.90004400483
 20
4553.706485685121
 30
0.0
 11
2528.90004400483
 21
4487.771866763578
 31
0.0
  0
LINE
  5
151AF
330
747D
100
AcDbEntity
  8
寸法
 48
50.0
100
AcDbLine
 10
2675.300504170755
 20
4524.839416039539
 30
0.0
 11
2421.166673421849
 21
4524.839416039539
 31
0.0
  0
TEXT
  5
151B0
330
747D
100
AcDbEntity
  8
寸法
 62
     7
100
AcDbText
 10
2311.6650240083
 20
4496.773943237771
 30
0.0
 40
90.0
  1
A'
  7
STYLE1
100
AcDbText
  0
LINE
  5
151B1
330
747D
100
AcDbEntity
  8
寸法
 48
50.0
100
AcDbLine
 10
2675.300504170755
 20
2967.041491079275
 30
0.0
 11
2421.166673421849
 21
2967.041491079275
 31
0.0
  0
LINE
  5
151B2
330
747D
100
AcDbEntity
  8
寸法
 48
50.0
100
AcDbLine
 10
2421.166673421849
 20
2967.041491079275
 30
0.0
 11
2528.90004400483
 21
2938.174421433694
 31
0.0
  0
LINE
  5
151B3
330
747D
100
AcDbEntity
  8
寸法
 48
50.0
100
AcDbLine
 10
2528.90004400483
 20
2938.174421433694
 30
0.0
 11
2528.90004400483
 21
3004.109040355237
 31
0.0
  0
TEXT
  5
151B4
330
747D
100
AcDbEntity
  8
寸法
 62
     7
100
AcDbText
 10
2310.406395149581
 20
2924.814288071372
 30
0.0
 40
90.0
  1
A
  7
STYLE1
100
AcDbText
  0
LINE
  5
151B5
330
747D
100
AcDbEntity
  8
寸法
 48
50.0
100
AcDbLine
 10
2675.300504170755
 20
2967.041491079275
 30
0.0
 11
2675.300504170755
 21
3320.940453559408
 31
0.0
  0
LINE
  5
15356
330
747D
100
AcDbEntity
  8
細線
 48
50.0
100
AcDbLine
 10
8712.097659325216
 20
3211.641758775237
 30
-0.0000000000013153
 11
8705.398929514446
 21
3236.641758775237
 31
-0.0000000000013153
  0
LINE
  5
15357
330
747D
100
AcDbEntity
  8
細線
 48
50.0
100
AcDbLine
 10
8588.8350890951
 20
3211.641758775237
 30
-0.0000000000013153
 11
8582.13635928433
 21
3236.641758775237
 31
-0.0000000000013153
  0
LINE
  5
15358
330
747D
100
AcDbEntity
  8
細線
 48
50.0
100
AcDbLine
 10
8465.572518865043
 20
3211.641758775237
 30
-0.0000000000013153
 11
8458.873789054273
 21
3236.641758775237
 31
-0.0000000000013153
  0
LINE
  5
15359
330
747D
100
AcDbEntity
  8
細線
 48
50.0
100
AcDbLine
 10
8342.309948634985
 20
3211.641758775237
 30
-0.0000000000013153
 11
8335.611218824215
 21
3236.641758775237
 31
-0.0000000000013153
  0
LINE
  5
1535A
330
747D
100
AcDbEntity
  8
細線
 48
50.0
100
AcDbLine
 10
8718.796389135986
 20
3286.641758775237
 30
-0.0000000000013153
 11
8712.097659325216
 21
3311.641758775237
 31
-0.0000000000013153
  0
LINE
  5
1535B
330
747D
100
AcDbEntity
  8
細線
 48
50.0
100
AcDbLine
 10
8595.53381890587
 20
3286.641758775237
 30
-0.0000000000013153
 11
8588.8350890951
 21
3311.641758775237
 31
-0.0000000000013153
  0
LINE
  5
1535C
330
747D
100
AcDbEntity
  8
細線
 48
50.0
100
AcDbLine
 10
8349.008678445756
 20
3286.641758775237
 30
-0.0000000000013153
 11
8342.309948634985
 21
3311.641758775237
 31
-0.0000000000013153
  0
LINE
  5
1535D
330
747D
100
AcDbEntity
  8
細線
 48
50.0
100
AcDbLine
 10
8472.271248675815
 20
3286.641758775237
 30
-0.0000000000013153
 11
8465.572518865043
 21
3311.641758775237
 31
-0.0000000000013153
  0
LINE
  5
1535E
330
747D
100
AcDbEntity
  8
U7
100
AcDbLine
 10
8639.484558468558
 20
3746.641758775237
 30
-0.0000000000013153
 11
9399.484558468557
 21
3746.641758775237
 31
-0.0000000000013153
  0
HATCH
  5
1535F
330
747D
100
AcDbEntity
  8
細線
 48
50.0
100
AcDbHatch
 10
0.0
 20
0.0
 30
0.0
210
0.0
220
0.0
230
1.0
  2
PLAST
 70
     0
 71
     0
 91
       20
 92
        7
 72
     1
 73
     1
 93
       48
 10
8634.484558468557
 20
3751.641758775237
 42
-0.4142135623730951
 10
8639.484558468558
 20
3756.641758775237
 42
0.0
 10
8644.484558468558
 20
3756.641758775237
 42
0.0
 10
8644.484558468558
 20
3846.641758775237
 42
0.0
 10
8639.484558468558
 20
3846.641758775237
 42
-0.4142135623730951
 10
8634.484558468557
 20
3851.641758775237
 42
-0.4142135623730951
 10
8639.484558468558
 20
3856.641758775237
 42
0.0
 10
8799.934558468569
 20
3856.641758775237
 42
0.0
 10
8799.934558468569
 20
3911.641758775237
 42
0.0
 10
8319.484558468557
 20
3911.641758775237
 42
0.0
 10
8319.484558468557
 20
3361.641758775237
 42
0.0
 10
8799.934558468569
 20
3361.641758775237
 42
0.0
 10
8799.934558468569
 20
3391.641758775237
 42
0.0
 10
8744.484558468558
 20
3391.641758775237
 42
0.0
 10
8744.484558468558
 20
3401.641758775237
 42
0.0
 10
8799.934558468569
 20
3401.641758775237
 42
0.0
 10
8799.934558468569
 20
3426.641758775222
 42
0.0
 10
8503.765010030639
 20
3426.641758775222
 42
0.0
 10
8503.765010030639
 20
3436.641758775252
 42
0.0
 10
8519.484558468558
 20
3436.641758775237
 42
-0.4142135623730909
 10
8514.484558468558
 20
3441.641758775237
 42
-1.0
 10
8524.484558468557
 20
3441.641758775237
 42
-0.4142135623730992
 10
8519.484558468558
 20
3436.641758775237
 42
0.0
 10
8719.484558468558
 20
3436.641758775237
 42
-0.4142135623730951
 10
8714.484558468557
 20
3441.641758775237
 42
-1.0
 10
8724.484558468558
 20
3441.641758775237
 42
-0.4142135623730984
 10
8719.484558468558
 20
3436.641758775237
 42
0.0
 10
8799.934558468569
 20
3436.641758775237
 42
0.0
 10
8799.934558468569
 20
3546.641758775237
 42
0.0
 10
8657.484558468558
 20
3546.641758775237
 42
0.0
 10
8657.484558468558
 20
3516.641758775237
 42
-0.4142135623730951
 10
8614.484558468557
 20
3473.641758775237
 42
0.0
 10
8469.034558468546
 20
3473.641758775237
 42
0.0
 10
8469.034558468546
 20
3486.641758775237
 42
0.0
 10
8614.484558468557
 20
3486.641758775237
 42
0.4142135623730951
 10
8644.484558468558
 20
3516.641758775237
 42
0.0
 10
8644.484558468558
 20
3546.641758775237
 42
0.0
 10
8639.484558468558
 20
3546.641758775237
 42
-0.4142135623730951
 10
8634.484558468557
 20
3551.641758775236
 42
-0.4142135623730951
 10
8639.484558468558
 20
3556.641758775237
 42
0.0
 10
8644.484558468558
 20
3556.641758775237
 42
0.0
 10
8644.484558468558
 20
3646.641758775237
 42
0.0
 10
8639.484558468558
 20
3646.641758775237
 42
-0.4142135623730951
 10
8634.484558468557
 20
3651.641758775237
 42
-0.4142135623730951
 10
8639.484558468558
 20
3656.641758775237
 42
0.0
 10
8644.484558468558
 20
3656.641758775237
 42
0.0
 10
8644.484558468558
 20
3746.641758775237
 42
0.0
 10
8639.484558468558
 20
3746.641758775237
 42
-0.4142135623730951
 97
        0
 92
       23
 72
     0
 73
     1
 93
        4
 10
8799.934558468569
 20
3646.641758775237
 10
8657.484558468558
 20
3646.641758775237
 10
8657.484558468558
 20
3556.641758775237
 10
8799.934558468569
 20
3556.641758775237
 97
        0
 92
       23
 72
     0
 73
     1
 93
        4
 10
8799.934558468569
 20
3746.641758775237
 10
8657.484558468558
 20
3746.641758775237
 10
8657.484558468558
 20
3656.641758775237
 10
8799.934558468569
 20
3656.641758775237
 97
        0
 92
       23
 72
     0
 73
     1
 93
        4
 10
8799.934558468569
 20
3846.641758775237
 10
8657.484558468558
 20
3846.641758775237
 10
8657.484558468558
 20
3756.641758775237
 10
8799.934558468569
 20
3756.641758775237
 97
        0
 92
        7
 72
     0
 73
     1
 93
        4
 10
9019.484558468558
 20
3911.641758775237
 10
8889.034558468546
 20
3911.641758775237
 10
8889.034558468546
 20
3856.641758775237
 10
9019.484558468558
 20
3856.641758775237
 97
        0
 92
        7
 72
     0
 73
     1
 93
        4
 10
9019.484558468558
 20
3846.641758775237
 10
8889.034558468546
 20
3846.641758775237
 10
8889.034558468546
 20
3756.641758775237
 10
9019.484558468558
 20
3756.641758775237
 97
        0
 92
        7
 72
     0
 73
     1
 93
        4
 10
9019.484558468558
 20
3746.641758775237
 10
8889.034558468546
 20
3746.641758775237
 10
8889.034558468546
 20
3656.641758775237
 10
9019.484558468558
 20
3656.641758775237
 97
        0
 92
        7
 72
     0
 73
     1
 93
        4
 10
9019.484558468558
 20
3646.641758775237
 10
8889.034558468546
 20
3646.641758775237
 10
8889.034558468546
 20
3556.641758775237
 10
9019.484558468558
 20
3556.641758775237
 97
        0
 92
        7
 72
     1
 73
     1
 93
        8
 10
9019.484558468558
 20
3546.641758775237
 42
0.0
 10
8889.034558468546
 20
3546.641758775237
 42
0.0
 10
8889.034558468546
 20
3436.641758775252
 42
0.0
 10
8919.484558468559
 20
3436.641758775237
 42
-0.4142135623730918
 10
8914.484558468556
 20
3441.641758775237
 42
-1.0
 10
8924.484558468558
 20
3441.641758775237
 42
-0.4142135623730984
 10
8919.484558468559
 20
3436.641758775237
 42
0.0
 10
9019.484558468558
 20
3436.641758775237
 42
0.0
 97
        0
 92
        7
 72
     0
 73
     1
 93
        8
 10
9019.484558468558
 20
3426.641758775236
 10
8889.034558468546
 20
3426.641758775222
 10
8889.034558468546
 20
3401.641758775237
 10
8944.484558468557
 20
3401.641758775237
 10
8944.484558468557
 20
3391.641758775237
 10
8889.034558468546
 20
3391.641758775237
 10
8889.034558468546
 20
3361.641758775237
 10
9019.484558468558
 20
3361.641758775237
 97
        0
 92
        7
 72
     0
 73
     1
 93
        8
 10
9094.484558468558
 20
3401.641758775237
 10
9149.934558468569
 20
3401.641758775237
 10
9149.934558468569
 20
3426.641758775236
 10
9019.484558468558
 20
3426.641758775236
 10
9019.484558468558
 20
3361.641758775237
 10
9149.934558468569
 20
3361.641758775237
 10
9149.934558468569
 20
3391.641758775237
 10
9094.484558468558
 20
3391.641758775237
 97
        0
 92
        7
 72
     1
 73
     1
 93
        8
 10
9149.934558468569
 20
3546.641758775237
 42
0.0
 10
9019.484558468558
 20
3546.641758775237
 42
0.0
 10
9019.484558468558
 20
3436.641758775237
 42
0.0
 10
9119.484558468558
 20
3436.641758775237
 42
-0.4142135623730885
 10
9114.484558468557
 20
3441.641758775237
 42
-1.0
 10
9124.484558468557
 20
3441.641758775237
 42
-0.4142135623731017
 10
9119.484558468558
 20
3436.641758775237
 42
0.0
 10
9149.934558468569
 20
3436.641758775237
 42
0.0
 97
        0
 92
        7
 72
     0
 73
     1
 93
        4
 10
9149.934558468569
 20
3646.641758775237
 10
9019.484558468558
 20
3646.641758775237
 10
9019.484558468558
 20
3556.641758775237
 10
9149.934558468569
 20
3556.641758775237
 97
        0
 92
        7
 72
     0
 73
     1
 93
        4
 10
9149.934558468569
 20
3746.641758775237
 10
9019.484558468558
 20
3746.641758775237
 10
9019.484558468558
 20
3656.641758775237
 10
9149.934558468569
 20
3656.641758775237
 97
        0
 92
        7
 72
     0
 73
     1
 93
        4
 10
9149.934558468569
 20
3846.641758775237
 10
9019.484558468558
 20
3846.641758775237
 10
9019.484558468558
 20
3756.641758775237
 10
9149.934558468569
 20
3756.641758775237
 97
        0
 92
        7
 72
     0
 73
     1
 93
        4
 10
9149.934558468569
 20
3911.641758775237
 10
9019.484558468558
 20
3911.641758775237
 10
9019.484558468558
 20
3856.641758775237
 10
9149.934558468569
 20
3856.641758775237
 97
        0
 92
        7
 72
     1
 73
     1
 93
       48
 10
9719.484558468558
 20
3911.641758775237
 42
0.0
 10
9239.034558468546
 20
3911.641758775237
 42
0.0
 10
9239.034558468546
 20
3856.641758775237
 42
0.0
 10
9399.484558468557
 20
3856.641758775237
 42
-0.4142135623730951
 10
9404.484558468558
 20
3851.641758775237
 42
-0.4142135623730951
 10
9399.484558468557
 20
3846.641758775237
 42
0.0
 10
9394.484558468558
 20
3846.641758775237
 42
0.0
 10
9394.484558468558
 20
3756.641758775237
 42
0.0
 10
9399.484558468557
 20
3756.641758775237
 42
-0.4142135623730951
 10
9404.484558468558
 20
3751.641758775237
 42
-0.4142135623730951
 10
9399.484558468557
 20
3746.641758775237
 42
0.0
 10
9394.484558468558
 20
3746.641758775237
 42
0.0
 10
9394.484558468558
 20
3656.641758775237
 42
0.0
 10
9399.484558468557
 20
3656.641758775237
 42
-0.4142135623730951
 10
9404.484558468558
 20
3651.641758775237
 42
-0.4142135623730951
 10
9399.484558468557
 20
3646.641758775237
 42
0.0
 10
9394.484558468558
 20
3646.641758775237
 42
0.0
 10
9394.484558468558
 20
3556.641758775237
 42
0.0
 10
9399.484558468557
 20
3556.641758775237
 42
-0.4142135623730951
 10
9404.484558468558
 20
3551.641758775236
 42
-0.4142135623730951
 10
9399.484558468557
 20
3546.641758775237
 42
0.0
 10
9394.484558468558
 20
3546.641758775237
 42
0.0
 10
9394.484558468674
 20
3516.641758775237
 42
0.4142135623730951
 10
9424.484558468675
 20
3486.641758775237
 42
0.0
 10
9569.934558468686
 20
3486.641758775237
 42
0.0
 10
9569.934558468686
 20
3473.641758775237
 42
0.0
 10
9424.484558468675
 20
3473.641758775237
 42
-0.4142135623730951
 10
9381.484558468674
 20
3516.641758775237
 42
0.0
 10
9381.484558468674
 20
3546.641758775237
 42
0.0
 10
9239.034558468546
 20
3546.641758775237
 42
0.0
 10
9239.034558468546
 20
3436.641758775237
 42
0.0
 10
9319.484558468557
 20
3436.641758775237
 42
-0.4142135623730885
 10
9314.484558468556
 20
3441.641758775237
 42
-1.0
 10
9324.484558468558
 20
3441.641758775237
 42
-0.4142135623731017
 10
9319.484558468557
 20
3436.641758775237
 42
0.0
 10
9519.484558468558
 20
3436.641758775237
 42
-0.4142135623730951
 10
9514.484558468558
 20
3441.641758775237
 42
-1.0
 10
9524.484558468557
 20
3441.641758775237
 42
-0.4142135623731017
 10
9519.484558468558
 20
3436.641758775237
 42
0.0
 10
9535.204106906476
 20
3436.641758775237
 42
0.0
 10
9535.204106906476
 20
3426.641758775236
 42
0.0
 10
9239.034558468546
 20
3426.641758775236
 42
0.0
 10
9239.034558468546
 20
3401.641758775237
 42
0.0
 10
9294.484558468559
 20
3401.641758775237
 42
0.0
 10
9294.484558468559
 20
3391.641758775237
 42
0.0
 10
9239.034558468546
 20
3391.641758775237
 42
0.0
 10
9239.034558468546
 20
3361.641758775237
 42
0.0
 10
9719.484558468558
 20
3361.641758775237
 42
0.0
 97
        0
 92
       23
 72
     0
 73
     1
 93
        4
 10
9381.484558468557
 20
3846.641758775237
 10
9239.034558468546
 20
3846.641758775237
 10
9239.034558468546
 20
3756.641758775237
 10
9381.484558468557
 20
3756.641758775237
 97
        0
 92
       23
 72
     0
 73
     1
 93
        4
 10
9381.484558468557
 20
3746.641758775237
 10
9239.034558468546
 20
3746.641758775237
 10
9239.034558468546
 20
3656.641758775237
 10
9381.484558468557
 20
3656.641758775237
 97
        0
 92
       23
 72
     0
 73
     1
 93
        4
 10
9381.484558468557
 20
3646.641758775237
 10
9239.034558468546
 20
3646.641758775237
 10
9239.034558468546
 20
3556.641758775237
 10
9381.484558468557
 20
3556.641758775237
 97
        0
 75
     0
 76
     1
 52
135.0
 41
37.5
 77
     0
 78
     3
 53
135.0
 43
-263233.1070115925
 44
111722.4718409453
 45
-168.3798022700466
 46
-168.3798022700466
 79
     0
 53
135.0
 43
-263254.1544868762
 44
111701.4243656615
 45
-168.3798022700466
 46
-168.3798022700466
 79
     0
 53
135.0
 43
-263275.20196216
 44
111680.3768903777
 45
-168.3798022700466
 46
-168.3798022700466
 79
     0
 47
2.128691110052188
 98
       20
 10
8508.507915935409
 20
3747.027718596757
 10
8747.029762557348
 20
3606.534228371645
 10
8751.289121123777
 20
3695.939119495903
 10
8744.899943705346
 20
3783.215607378298
 10
8962.12527663248
 20
3879.00675690941
 10
8970.643993765396
 20
3798.116317697583
 10
8970.643993765396
 20
3702.325168166499
 10
8970.643993765396
 20
3604.405405657293
 10
8974.903073194367
 20
3491.584723092601
 10
8989.810688608256
 20
3402.179831968315
 10
9040.922712268296
 20
3397.92239627584
 10
9072.867482810561
 20
3480.94144846579
 10
9096.293815357309
 20
3602.276792679172
 10
9092.03445679088
 20
3702.325168166499
 10
9079.256381091475
 20
3795.98770471946
 10
9098.423355071853
 20
3881.135369887503
 10
9309.259510580497
 20
3887.5214185581
 10
9313.518869146985
 20
3778.958171685852
 10
9336.94520169379
 20
3693.81050651781
 10
9334.815382841789
 20
3600.148179701049
1001
GradientColor1ACI
1070
     5
1001
GradientColor2ACI
1070
     2
1001
ACAD
1010
0.0
1020
0.0
1030
0.0
  0
LINE
  5
15360
330
747D
100
AcDbEntity
  8
U7
100
AcDbLine
 10
8744.484558468558
 20
3401.641758775237
 30
-0.0000000000013153
 11
8744.484558468558
 21
3391.641758775237
 31
-0.0000000000013153
  0
LINE
  5
15361
330
747D
100
AcDbEntity
  8
U7
100
AcDbLine
 10
8944.484558468557
 20
3401.641758775237
 30
-0.0000000000013153
 11
8944.484558468557
 21
3391.641758775237
 31
-0.0000000000013153
  0
LINE
  5
15362
330
747D
100
AcDbEntity
  8
U7
100
AcDbLine
 10
8944.484558468557
 20
3391.641758775237
 30
-0.0000000000013153
 11
8744.484558468558
 21
3391.641758775237
 31
-0.0000000000013153
  0
LINE
  5
15363
330
747D
100
AcDbEntity
  8
U7
100
AcDbLine
 10
8944.484558468557
 20
3401.641758775237
 30
-0.0000000000013153
 11
8744.484558468558
 21
3401.641758775237
 31
-0.0000000000013153
  0
CIRCLE
  5
15364
330
747D
100
AcDbEntity
  8
U7
100
AcDbCircle
 10
8639.484558468558
 20
3851.641758775237
 30
-0.0000000000013153
 40
5.0
  0
CIRCLE
  5
15365
330
747D
100
AcDbEntity
  8
U7
100
AcDbCircle
 10
9399.484558468557
 20
3851.641758775237
 30
-0.0000000000013153
 40
5.0
  0
LINE
  5
15366
330
747D
100
AcDbEntity
  8
U7
100
AcDbLine
 10
8639.484558468558
 20
3846.641758775237
 30
-0.0000000000013153
 11
9399.484558468557
 21
3846.641758775237
 31
-0.0000000000013153
  0
LINE
  5
15367
330
747D
100
AcDbEntity
  8
U7
100
AcDbLine
 10
8639.484558468558
 20
3856.641758775237
 30
-0.0000000000013153
 11
9399.484558468557
 21
3856.641758775237
 31
-0.0000000000013153
  0
CIRCLE
  5
15368
330
747D
100
AcDbEntity
  8
U7
100
AcDbCircle
 10
8639.484558468558
 20
3751.641758775237
 30
-0.0000000000013153
 40
5.0
  0
CIRCLE
  5
15369
330
747D
100
AcDbEntity
  8
U7
100
AcDbCircle
 10
9399.484558468557
 20
3751.641758775237
 30
-0.0000000000013153
 40
5.0
  0
CIRCLE
  5
1536A
330
747D
100
AcDbEntity
  8
U7
100
AcDbCircle
 10
8639.484558468558
 20
3651.641758775237
 30
-0.0000000000013153
 40
5.0
  0
LINE
  5
1536B
330
747D
100
AcDbEntity
  8
U7
100
AcDbLine
 10
8639.484558468558
 20
3756.641758775237
 30
-0.0000000000013153
 11
9399.484558468557
 21
3756.641758775237
 31
-0.0000000000013153
  0
CIRCLE
  5
1536C
330
747D
100
AcDbEntity
  8
U7
100
AcDbCircle
 10
9399.484558468557
 20
3651.641758775237
 30
-0.0000000000013153
 40
5.0
  0
LINE
  5
1536D
330
747D
100
AcDbEntity
  8
U7
100
AcDbLine
 10
8639.484558468558
 20
3646.641758775237
 30
-0.0000000000013153
 11
9399.484558468557
 21
3646.641758775237
 31
-0.0000000000013153
  0
LINE
  5
1536E
330
747D
100
AcDbEntity
  8
U7
100
AcDbLine
 10
8639.484558468558
 20
3656.641758775237
 30
-0.0000000000013153
 11
9399.484558468557
 21
3656.641758775237
 31
-0.0000000000013153
  0
CIRCLE
  5
1536F
330
747D
100
AcDbEntity
  8
U7
100
AcDbCircle
 10
9399.484558468557
 20
3551.641758775236
 30
-0.0000000000013153
 40
5.0
  0
CIRCLE
  5
15370
330
747D
100
AcDbEntity
  8
U7
100
AcDbCircle
 10
8639.484558468558
 20
3551.641758775236
 30
-0.0000000000013153
 40
5.0
  0
LINE
  5
15371
330
747D
100
AcDbEntity
  8
U7
100
AcDbLine
 10
8639.484558468558
 20
3556.641758775237
 30
-0.0000000000013153
 11
9399.484558468557
 21
3556.641758775237
 31
-0.0000000000013153
  0
LINE
  5
15372
330
747D
100
AcDbEntity
  8
U7
100
AcDbLine
 10
8639.484558468558
 20
3546.641758775237
 30
-0.0000000000013153
 11
9399.484558468557
 21
3546.641758775237
 31
-0.0000000000013153
  0
LINE
  5
15373
330
747D
100
AcDbEntity
  8
KIN-T
100
AcDbLine
 10
9569.934558468686
 20
3473.641758775237
 30
-0.0000000000013153
 11
9424.484558468675
 21
3473.641758775237
 31
-0.0000000000013153
  0
LINE
  5
15374
330
747D
100
AcDbEntity
  8
KIN-T
100
AcDbLine
 10
9569.934558468686
 20
3486.641758775237
 30
-0.0000000000013153
 11
9569.934558468686
 21
3473.641758775237
 31
-0.0000000000013153
  0
LINE
  5
15375
330
747D
100
AcDbEntity
  8
KIN-T
100
AcDbLine
 10
9381.484558468557
 20
3856.641758775237
 30
-0.0000000000013153
 11
9394.484558468558
 21
3856.641758775237
 31
-0.0000000000013153
  0
ARC
  5
15376
330
747D
100
AcDbEntity
  8
KIN-T
100
AcDbCircle
 10
9424.484558468675
 20
3516.641758775237
 30
-0.0000000000013153
 40
43.0
100
AcDbArc
 50
180.0
 51
270.0
  0
ARC
  5
15377
330
747D
100
AcDbEntity
  8
KIN-T
100
AcDbCircle
 10
9424.484558468675
 20
3516.641758775237
 30
-0.0000000000013153
 40
30.0
100
AcDbArc
 50
180.0
 51
270.0
  0
LINE
  5
15378
330
747D
100
AcDbEntity
  8
KIN-T
100
AcDbLine
 10
9381.484558468557
 20
3856.641758775237
 30
-0.0000000000013153
 11
9381.484558468557
 21
3516.641758775237
 31
-0.0000000000013153
  0
LINE
  5
15379
330
747D
100
AcDbEntity
  8
KIN-T
100
AcDbLine
 10
9394.484558468558
 20
3856.641758775237
 30
-0.0000000000013153
 11
9394.484558468558
 21
3516.641758775237
 31
-0.0000000000013153
  0
ARC
  5
1537A
330
747D
100
AcDbEntity
  8
KIN-T
100
AcDbCircle
 10
8614.484558468557
 20
3516.641758775237
 30
-0.0000000000013153
 40
43.0
100
AcDbArc
 50
270.0
 51
0.0
  0
LINE
  5
1537B
330
747D
100
AcDbEntity
  8
KIN-T
100
AcDbLine
 10
9569.934558468686
 20
3486.641758775237
 30
-0.0000000000013153
 11
9424.484558468675
 21
3486.641758775237
 31
-0.0000000000013153
  0
LINE
  5
1537C
330
747D
100
AcDbEntity
  8
KIN-T
100
AcDbLine
 10
8469.034558468546
 20
3486.641758775237
 30
-0.0000000000013153
 11
8469.034558468546
 21
3473.641758775237
 31
-0.0000000000013153
  0
LINE
  5
1537D
330
747D
100
AcDbEntity
  8
KIN-T
100
AcDbLine
 10
8469.034558468546
 20
3473.641758775237
 30
-0.0000000000013153
 11
8614.484558468557
 21
3473.641758775237
 31
-0.0000000000013153
  0
LINE
  5
1537E
330
747D
100
AcDbEntity
  8
KIN-T
100
AcDbLine
 10
8644.484558468558
 20
3856.641758775237
 30
-0.0000000000013153
 11
8657.484558468558
 21
3856.641758775237
 31
-0.0000000000013153
  0
ARC
  5
1537F
330
747D
100
AcDbEntity
  8
KIN-T
100
AcDbCircle
 10
8614.484558468557
 20
3516.641758775237
 30
-0.0000000000013153
 40
30.0
100
AcDbArc
 50
270.0
 51
0.0
  0
LINE
  5
15380
330
747D
100
AcDbEntity
  8
KIN-T
100
AcDbLine
 10
8657.484558468558
 20
3856.641758775237
 30
-0.0000000000013153
 11
8657.484558468558
 21
3516.641758775237
 31
-0.0000000000013153
  0
LINE
  5
15381
330
747D
100
AcDbEntity
  8
部品1
 48
50.0
100
AcDbLine
 10
8503.765010030639
 20
3436.641758775252
 30
-0.0000000000013153
 11
9535.204106906476
 21
3436.641758775237
 31
-0.0000000000013153
  0
LINE
  5
15382
330
747D
100
AcDbEntity
  8
KIN-T
100
AcDbLine
 10
8644.484558468558
 20
3856.641758775237
 30
-0.0000000000013153
 11
8644.484558468558
 21
3516.641758775237
 31
-0.0000000000013153
  0
LINE
  5
15383
330
747D
100
AcDbEntity
  8
KIN-T
100
AcDbLine
 10
8469.034558468546
 20
3486.641758775237
 30
-0.0000000000013153
 11
8614.484558468557
 21
3486.641758775237
 31
-0.0000000000013153
  0
CIRCLE
  5
15384
330
747D
100
AcDbEntity
  8
部品1
 48
50.0
100
AcDbCircle
 10
9519.484558468558
 20
3441.641758775237
 30
-0.0000000000013153
 40
5.0
  0
LINE
  5
15385
330
747D
100
AcDbEntity
  8
部品1
 48
50.0
100
AcDbLine
 10
9535.204106906476
 20
3436.641758775237
 30
-0.0000000000013153
 11
9535.204106906476
 21
3426.641758775236
 31
-0.0000000000013153
  0
CIRCLE
  5
15386
330
747D
100
AcDbEntity
  8
部品1
 48
50.0
100
AcDbCircle
 10
8719.484558468558
 20
3441.641758775237
 30
-0.0000000000013153
 40
5.0
  0
CIRCLE
  5
15387
330
747D
100
AcDbEntity
  8
部品1
 48
50.0
100
AcDbCircle
 10
8919.484558468559
 20
3441.641758775237
 30
-0.0000000000013153
 40
5.0
  0
CIRCLE
  5
15388
330
747D
100
AcDbEntity
  8
部品1
 48
50.0
100
AcDbCircle
 10
9119.484558468558
 20
3441.641758775237
 30
-0.0000000000013153
 40
5.0
  0
CIRCLE
  5
15389
330
747D
100
AcDbEntity
  8
部品1
 48
50.0
100
AcDbCircle
 10
9319.484558468557
 20
3441.641758775237
 30
-0.0000000000013153
 40
5.0
  0
LINE
  5
1538A
330
747D
100
AcDbEntity
  8
部品1
 48
50.0
100
AcDbLine
 10
8503.765010030639
 20
3426.641758775222
 30
-0.0000000000013153
 11
9535.204106906476
 21
3426.641758775236
 31
-0.0000000000013153
  0
HATCH
  5
1538B
330
747D
100
AcDbEntity
  8
細線
 48
50.0
100
AcDbHatch
 10
0.0
 20
0.0
 30
0.0
210
0.0
220
0.0
230
1.0
  2
PLAST
 70
     0
 71
     0
 91
        4
 92
        7
 72
     0
 73
     1
 93
        4
 10
8844.484558468558
 20
3361.641758775237
 10
8239.484558468557
 20
3361.641758775237
 10
8239.484558468557
 20
3311.641758775237
 10
8844.484558468558
 20
3311.641758775237
 97
        0
 92
        7
 72
     0
 73
     1
 93
        4
 10
9019.484558468558
 20
3361.641758775237
 10
8844.484558468558
 20
3361.641758775237
 10
8844.484558468558
 20
3311.641758775237
 10
9019.484558468558
 20
3311.641758775237
 97
        0
 92
        7
 72
     0
 73
     1
 93
        4
 10
9194.484558468557
 20
3361.641758775237
 10
9019.484558468558
 20
3361.641758775237
 10
9019.484558468558
 20
3311.641758775237
 10
9194.484558468557
 20
3311.641758775237
 97
        0
 92
        7
 72
     0
 73
     1
 93
        4
 10
9799.484558468558
 20
3361.641758775237
 10
9194.484558468557
 20
3361.641758775237
 10
9194.484558468557
 20
3311.641758775237
 10
9799.484558468558
 20
3311.641758775237
 97
        0
 75
     0
 76
     1
 52
45.0
 41
37.5
 77
     0
 78
     3
 53
45.0
 43
-263233.1070115925
 44
111722.4718409453
 45
-168.3798022700466
 46
168.3798022700466
 79
     0
 53
45.0
 43
-263254.1544868762
 44
111743.519316229
 45
-168.3798022700466
 46
168.3798022700466
 79
     0
 53
45.0
 43
-263275.20196216
 44
111764.5667915128
 45
-168.3798022700466
 46
168.3798022700466
 79
     0
 47
3.405378208606371
 98
        4
 10
8747.10317571041
 20
3326.953948802708
 10
8900.414961731108
 20
3337.169990733047
 10
9108.237549176138
 20
3326.953948802708
 10
9299.025214592566
 20
3330.359226200744
1001
GradientColor1ACI
1070
     5
1001
GradientColor2ACI
1070
     2
1001
ACAD
1010
0.0
1020
0.0
1030
0.0
  0
LINE
  5
1538C
330
747D
100
AcDbEntity
  8
細線
 48
50.0
100
AcDbLine
 10
8328.912489013445
 20
3211.641758775237
 30
0.0
 11
8355.707408256526
 21
3311.641758775208
 31
0.0
1001
GradientColor1ACI
1070
     5
1001
GradientColor2ACI
1070
     2
1001
ACAD
1010
0.0
1020
0.0
1030
0.0
  0
LINE
  5
1538D
330
747D
100
AcDbEntity
  8
細線
 48
50.0
100
AcDbLine
 10
8452.175059243561
 20
3211.641758775237
 30
0.0
 11
8478.969978486643
 21
3311.641758775237
 31
0.0
1001
GradientColor1ACI
1070
     5
1001
GradientColor2ACI
1070
     2
1001
ACAD
1010
0.0
1020
0.0
1030
0.0
  0
LINE
  5
1538E
330
747D
100
AcDbEntity
  8
細線
 48
50.0
100
AcDbLine
 10
8575.43762947356
 20
3211.641758775237
 30
0.0
 11
8602.232548716699
 21
3311.641758775237
 31
0.0
1001
GradientColor1ACI
1070
     5
1001
GradientColor2ACI
1070
     2
1001
ACAD
1010
0.0
1020
0.0
1030
0.0
  0
LINE
  5
1538F
330
747D
100
AcDbEntity
  8
細線
 48
50.0
100
AcDbLine
 10
8698.700199703676
 20
3211.641758775237
 30
0.0
 11
8725.495118946758
 21
3311.641758775237
 31
0.0
1001
GradientColor1ACI
1070
     5
1001
GradientColor2ACI
1070
     2
1001
ACAD
1010
0.0
1020
0.0
1030
0.0
  0
LINE
  5
15390
330
747D
100
AcDbEntity
  8
細線
 48
50.0
100
AcDbLine
 10
8821.96276993379
 20
3211.641758775237
 30
0.0
 11
8848.757689176874
 21
3311.641758775237
 31
0.0
1001
GradientColor1ACI
1070
     5
1001
GradientColor2ACI
1070
     2
1001
ACAD
1010
0.0
1020
0.0
1030
0.0
  0
LINE
  5
15391
330
747D
100
AcDbEntity
  8
細線
 48
50.0
100
AcDbLine
 10
8945.225340163791
 20
3211.641758775237
 30
0.0
 11
8972.02025940693
 21
3311.641758775237
 31
0.0
1001
GradientColor1ACI
1070
     5
1001
GradientColor2ACI
1070
     2
1001
ACAD
1010
0.0
1020
0.0
1030
0.0
  0
LINE
  5
15392
330
747D
100
AcDbEntity
  8
細線
 48
50.0
100
AcDbLine
 10
9068.487910393905
 20
3211.641758775237
 30
0.0
 11
9095.282829636989
 21
3311.641758775237
 31
0.0
1001
GradientColor1ACI
1070
     5
1001
GradientColor2ACI
1070
     2
1001
ACAD
1010
0.0
1020
0.0
1030
0.0
  0
LINE
  5
15393
330
747D
100
AcDbEntity
  8
細線
 48
50.0
100
AcDbLine
 10
9191.750480624021
 20
3211.641758775237
 30
0.0
 11
9218.545399867103
 21
3311.641758775237
 31
0.0
1001
GradientColor1ACI
1070
     5
1001
GradientColor2ACI
1070
     2
1001
ACAD
1010
0.0
1020
0.0
1030
0.0
  0
LINE
  5
15394
330
747D
100
AcDbEntity
  8
細線
 48
50.0
100
AcDbLine
 10
9315.01305085402
 20
3211.641758775252
 30
0.0
 11
9341.807970097162
 21
3311.641758775237
 31
0.0
1001
GradientColor1ACI
1070
     5
1001
GradientColor2ACI
1070
     2
1001
ACAD
1010
0.0
1020
0.0
1030
0.0
  0
LINE
  5
15395
330
747D
100
AcDbEntity
  8
細線
 48
50.0
100
AcDbLine
 10
9438.275621084136
 20
3211.641758775237
 30
0.0
 11
9465.070540327218
 21
3311.641758775252
 31
0.0
1001
GradientColor1ACI
1070
     5
1001
GradientColor2ACI
1070
     2
1001
ACAD
1010
0.0
1020
0.0
1030
0.0
  0
LINE
  5
15396
330
747D
100
AcDbEntity
  8
細線
 48
50.0
100
AcDbLine
 10
9561.538191314195
 20
3211.641758775252
 30
0.0
 11
9588.333110557334
 21
3311.641758775237
 31
0.0
1001
GradientColor1ACI
1070
     5
1001
GradientColor2ACI
1070
     2
1001
ACAD
1010
0.0
1020
0.0
1030
0.0
  0
LINE
  5
15397
330
747D
100
AcDbEntity
  8
細線
 48
50.0
100
AcDbLine
 10
9684.800761544252
 20
3211.641758775237
 30
0.0
 11
9711.595680787391
 21
3311.641758775237
 31
0.0
1001
GradientColor1ACI
1070
     5
1001
GradientColor2ACI
1070
     2
1001
ACAD
1010
0.0
1020
0.0
1030
0.0
  0
LINE
  5
15398
330
747D
100
AcDbEntity
  8
部品1
 48
50.0
100
AcDbLine
 10
9799.484558468558
 20
3311.641758775237
 30
-0.0000000000013153
 11
8239.484558468557
 21
3311.641758775237
 31
-0.0000000000013153
  0
LINE
  5
15399
330
747D
100
AcDbEntity
  8
文字
 48
50.0
100
AcDbLine
 10
9437.074184642744
 20
2298.453886603457
 30
-0.0000000000013153
 11
9437.074184642744
 21
2075.328886603456
 31
-0.0000000000013153
  0
LINE
  5
1539A
330
747D
100
AcDbEntity
  8
文字
 48
50.0
100
AcDbLine
 10
8601.894932294369
 20
2298.453886603457
 30
-0.0000000000013153
 11
8601.894932294369
 21
2075.328886603456
 31
-0.0000000000013153
  0
TEXT
  5
1539B
330
747D
100
AcDbEntity
  8
文字
 62
     7
 48
50.0
100
AcDbText
 10
8668.47973970707
 20
2132.81242757682
 30
-0.0000000000013153
 40
112.5
  1
A-A' 断面
  7
STYLE2
100
AcDbText
  0
LINE
  5
1539C
330
747D
100
AcDbEntity
  8
文字
 48
50.0
100
AcDbLine
 10
8601.894932294369
 20
2075.328886603456
 30
-0.0000000000013153
 11
9437.074184642744
 21
2075.328886603456
 31
-0.0000000000013153
  0
LINE
  5
1539D
330
747D
100
AcDbEntity
  8
文字
 48
50.0
100
AcDbLine
 10
8601.894932294369
 20
2298.453886603457
 30
-0.0000000000013153
 11
9437.074184642744
 21
2298.453886603457
 31
-0.0000000000013153
  0
LINE
  5
1539E
330
747D
100
AcDbEntity
  8
部品1
 48
50.0
100
AcDbLine
 10
8889.034558468546
 20
3361.641758775237
 30
-0.0000000000013153
 11
8799.934558468569
 21
3361.641758775237
 31
-0.0000000000013153
  0
LINE
  5
1539F
330
747D
100
AcDbEntity
  8
細線
 48
50.0
100
AcDbLine
 10
7873.369153321768
 20
3811.641758775266
 30
0.0
 11
7900.16407256485
 21
3911.641758775252
 31
0.0
1001
GradientColor1ACI
1070
     5
1001
GradientColor2ACI
1070
     2
1001
ACAD
1010
0.0
1020
0.0
1030
0.0
  0
LINE
  5
153A0
330
747D
100
AcDbEntity
  8
細線
 48
50.0
100
AcDbLine
 10
7996.631723551826
 20
3811.641758775281
 30
0.0
 11
8023.426642794907
 21
3911.641758775237
 31
0.0
1001
GradientColor1ACI
1070
     5
1001
GradientColor2ACI
1070
     2
1001
ACAD
1010
0.0
1020
0.0
1030
0.0
  0
LINE
  5
153A1
330
747D
100
AcDbEntity
  8
細線
 48
50.0
100
AcDbLine
 10
8119.894293781882
 20
3811.641758775266
 30
0.0
 11
8146.689213025023
 21
3911.641758775237
 31
0.0
1001
GradientColor1ACI
1070
     5
1001
GradientColor2ACI
1070
     2
1001
ACAD
1010
0.0
1020
0.0
1030
0.0
  0
LINE
  5
153A2
330
747D
100
AcDbEntity
  8
細線
 48
50.0
100
AcDbLine
 10
8243.156864011998
 20
3811.641758775252
 30
0.0
 11
8269.951783255081
 21
3911.641758775237
 31
0.0
1001
GradientColor1ACI
1070
     5
1001
GradientColor2ACI
1070
     2
1001
ACAD
1010
0.0
1020
0.0
1030
0.0
  0
LINE
  5
153A3
330
747D
100
AcDbEntity
  8
細線
 48
50.0
100
AcDbLine
 10
9722.307706772863
 20
3811.641758775208
 30
0.0
 11
9749.102626016004
 21
3911.641758775237
 31
0.0
1001
GradientColor1ACI
1070
     5
1001
GradientColor2ACI
1070
     2
1001
ACAD
1010
0.0
1020
0.0
1030
0.0
  0
LINE
  5
153A4
330
747D
100
AcDbEntity
  8
細線
 48
50.0
100
AcDbLine
 10
9845.57027700292
 20
3811.641758775252
 30
0.0
 11
9872.365196246061
 21
3911.641758775237
 31
0.0
1001
GradientColor1ACI
1070
     5
1001
GradientColor2ACI
1070
     2
1001
ACAD
1010
0.0
1020
0.0
1030
0.0
  0
LINE
  5
153A5
330
747D
100
AcDbEntity
  8
細線
 48
50.0
100
AcDbLine
 10
9968.832847233036
 20
3811.641758775266
 30
0.0
 11
9995.627766476118
 21
3911.641758775237
 31
0.0
1001
GradientColor1ACI
1070
     5
1001
GradientColor2ACI
1070
     2
1001
ACAD
1010
0.0
1020
0.0
1030
0.0
  0
LINE
  5
153A6
330
747D
100
AcDbEntity
  8
細線
 48
50.0
100
AcDbLine
 10
10092.09541746309
 20
3811.641758775252
 30
0.0
 11
10118.89033670623
 21
3911.641758775237
 31
0.0
1001
GradientColor1ACI
1070
     5
1001
GradientColor2ACI
1070
     2
1001
ACAD
1010
0.0
1020
0.0
1030
0.0
  0
LINE
  5
153A7
330
747D
100
AcDbEntity
  8
細線
 48
50.0
100
AcDbLine
 10
10215.35798769315
 20
3811.641758775266
 30
0.0
 11
10219.48455846855
 21
3827.04233057017
 31
0.0
1001
GradientColor1ACI
1070
     5
1001
GradientColor2ACI
1070
     2
1001
ACAD
1010
0.0
1020
0.0
1030
0.0
  0
LINE
  5
153A8
330
747D
100
AcDbEntity
  8
部品1
 48
50.0
100
AcDbLine
 10
9719.484558468558
 20
3361.641758775237
 30
-0.0000000000013153
 11
9719.484558468558
 21
3911.641758775237
 31
-0.0000000000013153
  0
LINE
  5
153A9
330
747D
100
AcDbEntity
  8
センター
 48
10.0
100
AcDbLine
 10
8844.484558468558
 20
4436.114591630277
 30
-0.0000000000013153
 11
8844.484558468558
 21
3300.583926945357
 31
-0.0000000000013153
  0
LINE
  5
153AA
330
747D
100
AcDbEntity
  8
部品1
 48
50.0
100
AcDbLine
 10
8319.484558468557
 20
3911.641758775237
 30
-0.0000000000013153
 11
8319.484558468557
 21
3361.641758775237
 31
-0.0000000000013153
  0
HATCH
  5
153AB
330
747D
100
AcDbEntity
  8
細線
 48
50.0
100
AcDbHatch
 10
0.0
 20
0.0
 30
0.0
210
0.0
220
0.0
230
1.0
  2
PLAST
 70
     0
 71
     0
 91
        3
 92
        7
 72
     0
 73
     1
 93
        6
 10
8799.934558468569
 20
4025.641758775236
 10
8785.934558468568
 20
4025.641758775236
 10
8771.934558468569
 20
4011.641758775236
 10
7819.484558468499
 20
4011.641758775236
 10
7819.484558468558
 20
3911.641758775237
 10
8799.934558468569
 20
3911.641758775237
 97
        0
 92
        7
 72
     0
 73
     1
 93
        8
 10
9149.934558468569
 20
4025.641758775236
 10
9135.934558468568
 20
4025.641758775236
 10
9121.934558468568
 20
4011.641758775222
 10
8917.034558468547
 20
4011.641758775236
 10
8903.034558468604
 20
4025.641758775236
 10
8889.034558468546
 20
4025.641758775236
 10
8889.034558468546
 20
3911.641758775237
 10
9149.934558468569
 20
3911.641758775237
 97
        0
 92
        7
 72
     0
 73
     1
 93
        6
 10
10219.48455846861
 20
4011.641758775236
 10
9267.034558468546
 20
4011.641758775236
 10
9253.034558468604
 20
4025.641758775236
 10
9239.034558468546
 20
4025.641758775236
 10
9239.034558468546
 20
3911.641758775237
 10
10219.48455846861
 20
3911.641758775237
 97
        0
 75
     0
 76
     1
 52
45.0
 41
37.5
 77
     0
 78
     3
 53
45.0
 43
-263233.1070115925
 44
111722.4718409453
 45
-168.3798022700466
 46
168.3798022700466
 79
     0
 53
45.0
 43
-263254.1544868762
 44
111743.519316229
 45
-168.3798022700466
 46
168.3798022700466
 79
     0
 53
45.0
 43
-263275.20196216
 44
111764.5667915128
 45
-168.3798022700466
 46
168.3798022700466
 79
     0
 47
3.420167112779795
 98
        3
 10
8304.318581724587
 20
3973.419729686212
 10
9016.036769921123
 20
3949.478548994623
 10
9409.534899262876
 20
3959.739055005295
1001
GradientColor1ACI
1070
     5
1001
GradientColor2ACI
1070
     2
1001
ACAD
1010
0.0
1020
0.0
1030
0.0
  0
LINE
  5
153AC
330
747D
100
AcDbEntity
  8
部品1
 48
50.0
100
AcDbLine
 10
8889.034558468546
 20
4357.574854720151
 30
-0.0000000000013153
 11
8889.034558468546
 21
3361.641758775237
 31
-0.0000000000013153
  0
LINE
  5
153AD
330
747D
100
AcDbEntity
  8
部品1
 48
50.0
100
AcDbLine
 10
8799.934558468569
 20
4357.574854720151
 30
-0.0000000000013153
 11
8799.934558468569
 21
3361.641758775237
 31
-0.0000000000013153
  0
LINE
  5
153AE
330
747D
100
AcDbEntity
  8
部品1
 48
50.0
100
AcDbLine
 10
9799.484558468558
 20
3361.641758775237
 30
-0.0000000000013153
 11
8239.484558468557
 21
3361.641758775237
 31
-0.0000000000013153
  0
LINE
  5
153AF
330
747D
100
AcDbEntity
  8
部品1
 48
50.0
100
AcDbLine
 10
9121.934558468568
 20
4011.641758775222
 30
-0.0000000000013153
 11
8917.034558468547
 21
4011.641758775236
 31
-0.0000000000013153
  0
LINE
  5
153B0
330
747D
100
AcDbEntity
  8
部品1
 48
50.0
100
AcDbLine
 10
9149.934558468569
 20
3911.641758775237
 30
-0.0000000000013153
 11
8889.034558468546
 21
3911.641758775237
 31
-0.0000000000013153
  0
LINE
  5
153B1
330
747D
100
AcDbEntity
  8
部品1
 48
50.0
100
AcDbLine
 10
8319.484558468557
 20
3811.641758775237
 30
-0.0000000000013153
 11
7819.484558468558
 21
3811.641758775266
 31
-0.0000000000013153
  0
LINE
  5
153B2
330
747D
100
AcDbEntity
  8
部品1
 48
50.0
100
AcDbLine
 10
9799.484558468558
 20
3211.641758775237
 30
-0.0000000000013153
 11
8239.484558468557
 21
3211.641758775237
 31
-0.0000000000013153
  0
LINE
  5
153B3
330
747D
100
AcDbEntity
  8
部品1
 48
50.0
100
AcDbLine
 10
8785.934558468568
 20
4025.641758775236
 30
-0.0000000000013153
 11
8771.934558468569
 21
4011.641758775236
 31
-0.0000000000013153
  0
LINE
  5
153B4
330
747D
100
AcDbEntity
  8
部品1
 48
50.0
100
AcDbLine
 10
8785.934558468568
 20
4025.641758775236
 30
-0.0000000000013153
 11
8799.934558468569
 21
4025.641758775236
 31
-0.0000000000013153
  0
LINE
  5
153B5
330
747D
100
AcDbEntity
  8
部品1
 48
50.0
100
AcDbLine
 10
8889.034558468546
 20
4025.641758775236
 30
-0.0000000000013153
 11
8903.034558468545
 21
4025.641758775236
 31
-0.0000000000013153
  0
LINE
  5
153B6
330
747D
100
AcDbEntity
  8
部品1
 48
50.0
100
AcDbLine
 10
8903.034558468604
 20
4025.641758775236
 30
-0.0000000000013153
 11
8917.034558468547
 21
4011.641758775236
 31
-0.0000000000013153
  0
LINE
  5
153B7
330
747D
100
AcDbEntity
  8
部品1
 48
50.0
100
AcDbLine
 10
8771.934558468569
 20
4011.641758775236
 30
-0.0000000000013153
 11
7819.484558468499
 21
4011.641758775236
 31
-0.0000000000013153
  0
LINE
  5
153B8
330
747D
100
AcDbEntity
  8
部品1
 48
50.0
100
AcDbLine
 10
8799.934558468569
 20
3911.641758775237
 30
-0.0000000000013153
 11
7819.484558468558
 21
3911.641758775237
 31
-0.0000000000013153
  0
LINE
  5
153B9
330
747D
100
AcDbEntity
  8
部品1
 48
50.0
100
AcDbLine
 10
9799.484558468558
 20
3361.641758775237
 30
-0.0000000000013153
 11
9799.484558468558
 21
3211.641758775237
 31
-0.0000000000013153
  0
LINE
  5
153BA
330
747D
100
AcDbEntity
  8
部品1
 48
50.0
100
AcDbLine
 10
8239.484558468557
 20
3361.641758775237
 30
-0.0000000000013153
 11
8239.484558468557
 21
3211.641758775237
 31
-0.0000000000013153
  0
MTEXT
  5
153BB
330
747D
100
AcDbEntity
  8
寸法
 62
     7
 48
50.0
100
AcDbMText
 10
10740.40515028311
 20
4013.914486047958
 30
-0.0000000000013153
 40
100.0
 41
1.0
 71
     4
 72
     1
  1
▽G.L
  7
STYLE2
 73
     1
 44
1.0
1001
ACAD
1000
MTEXTBEGIN
1070
    73
1070
     1
1070
    44
1040
1.0
1070
    74
1070
     0
1000
MTEXTEND
  0
LINE
  5
153BC
330
747D
100
AcDbEntity
  8
U7
100
AcDbLine
 10
9094.484558468558
 20
3401.641758775237
 30
-0.0000000000013153
 11
9094.484558468558
 21
3391.641758775237
 31
-0.0000000000013153
  0
LINE
  5
153BD
330
747D
100
AcDbEntity
  8
センター
 48
10.0
100
AcDbLine
 10
9194.484558468557
 20
4436.114591630277
 30
-0.0000000000013153
 11
9194.484558468557
 21
3300.583926945357
 31
-0.0000000000013153
  0
LINE
  5
153BE
330
747D
100
AcDbEntity
  8
部品1
 48
50.0
100
AcDbLine
 10
9149.934558468569
 20
4357.574854720151
 30
-0.0000000000013153
 11
9149.934558468569
 21
3361.641758775237
 31
-0.0000000000013153
  0
LINE
  5
153BF
330
747D
100
AcDbEntity
  8
部品1
 48
50.0
100
AcDbLine
 10
9239.034558468546
 20
4025.641758775236
 30
-0.0000000000013153
 11
9253.034558468547
 21
4025.641758775236
 31
-0.0000000000013153
  0
LINE
  5
153C0
330
747D
100
AcDbEntity
  8
部品1
 48
50.0
100
AcDbLine
 10
9267.034558468546
 20
4011.641758775236
 30
-0.0000000000013153
 11
10219.48455846861
 21
4011.641758775236
 31
-0.0000000000013153
  0
LINE
  5
153C1
330
747D
100
AcDbEntity
  8
部品1
 48
50.0
100
AcDbLine
 10
9239.034558468546
 20
3911.641758775237
 30
-0.0000000000013153
 11
10219.48455846855
 21
3911.641758775237
 31
-0.0000000000013153
  0
CIRCLE
  5
153C2
330
747D
100
AcDbEntity
  8
部品1
 48
50.0
100
AcDbCircle
 10
8519.484558468558
 20
3441.641758775237
 30
-0.0000000000013153
 40
5.0
  0
LINE
  5
153C3
330
747D
100
AcDbEntity
  8
Ｇ．Ｌ
 48
50.0
100
AcDbLine
 10
10219.48455846855
 20
3961.641758775236
 30
-0.0000000000013153
 11
11273.59850897336
 21
3961.641758775236
 31
-0.0000000000013153
  0
LINE
  5
153C4
330
747D
100
AcDbEntity
  8
部品1
 48
50.0
100
AcDbLine
 10
9239.034558468546
 20
4357.574854720151
 30
-0.0000000000013153
 11
9239.034558468546
 21
3361.641758775237
 31
-0.0000000000013153
  0
LINE
  5
153C5
330
747D
100
AcDbEntity
  8
U7
100
AcDbLine
 10
9294.484558468559
 20
3401.641758775237
 30
-0.0000000000013153
 11
9094.484558468558
 21
3401.641758775237
 31
-0.0000000000013153
  0
LINE
  5
153C6
330
747D
100
AcDbEntity
  8
U7
100
AcDbLine
 10
9294.484558468559
 20
3401.641758775237
 30
-0.0000000000013153
 11
9294.484558468559
 21
3391.641758775237
 31
-0.0000000000013153
  0
LINE
  5
153C7
330
747D
100
AcDbEntity
  8
部品1
 48
50.0
100
AcDbLine
 10
9135.934558468568
 20
4025.641758775236
 30
-0.0000000000013153
 11
9121.934558468568
 21
4011.641758775236
 31
-0.0000000000013153
  0
LINE
  5
153C8
330
747D
100
AcDbEntity
  8
部品1
 48
50.0
100
AcDbLine
 10
9253.034558468604
 20
4025.641758775236
 30
-0.0000000000013153
 11
9267.034558468546
 21
4011.641758775236
 31
-0.0000000000013153
  0
LINE
  5
153C9
330
747D
100
AcDbEntity
  8
U7
100
AcDbLine
 10
9294.484558468559
 20
3391.641758775237
 30
-0.0000000000013153
 11
9094.484558468558
 21
3391.641758775237
 31
-0.0000000000013153
  0
LINE
  5
153CA
330
747D
100
AcDbEntity
  8
部品1
 48
50.0
100
AcDbLine
 10
9135.934558468568
 20
4025.641758775236
 30
-0.0000000000013153
 11
9149.934558468569
 21
4025.641758775236
 31
-0.0000000000013153
  0
LINE
  5
153CB
330
747D
100
AcDbEntity
  8
部品1
 48
50.0
100
AcDbLine
 10
9719.484558468558
 20
3811.641758775237
 30
-0.0000000000013153
 11
10219.48455846855
 21
3811.641758775266
 31
-0.0000000000013153
  0
LINE
  5
153CC
330
747D
100
AcDbEntity
  8
部品1
 48
50.0
100
AcDbLine
 10
8503.765010030639
 20
3436.641758775237
 30
-0.0000000000013153
 11
8503.765010030639
 21
3426.641758775236
 31
-0.0000000000013153
  0
LINE
  5
153CD
330
747D
100
AcDbEntity
  8
細線
 48
50.0
100
AcDbLine
 10
8835.360229555332
 20
3211.641758775237
 30
-0.0000000000013153
 11
8828.66149974456
 21
3236.641758775237
 31
-0.0000000000013153
  0
LINE
  5
153CE
330
747D
100
AcDbEntity
  8
細線
 48
50.0
100
AcDbLine
 10
8842.058959366102
 20
3286.641758775237
 30
-0.0000000000013153
 11
8835.360229555332
 21
3311.641758775237
 31
-0.0000000000013153
  0
LINE
  5
153CF
330
747D
100
AcDbEntity
  8
細線
 48
50.0
100
AcDbLine
 10
8958.62279978539
 20
3211.641758775237
 30
-0.0000000000013153
 11
8951.924069974619
 21
3236.641758775237
 31
-0.0000000000013153
  0
LINE
  5
153D0
330
747D
100
AcDbEntity
  8
細線
 48
50.0
100
AcDbLine
 10
8965.32152959616
 20
3286.641758775237
 30
-0.0000000000013153
 11
8958.62279978539
 21
3311.641758775237
 31
-0.0000000000013153
  0
LINE
  5
153D1
330
747D
100
AcDbEntity
  8
細線
 48
50.0
100
AcDbLine
 10
9081.885370015447
 20
3211.641758775237
 30
-0.0000000000013153
 11
9075.186640204675
 21
3236.641758775237
 31
-0.0000000000013153
  0
LINE
  5
153D2
330
747D
100
AcDbEntity
  8
細線
 48
50.0
100
AcDbLine
 10
9088.584099826219
 20
3286.641758775237
 30
-0.0000000000013153
 11
9081.885370015447
 21
3311.641758775237
 31
-0.0000000000013153
  0
LINE
  5
153D3
330
747D
100
AcDbEntity
  8
細線
 48
50.0
100
AcDbLine
 10
9205.147940245563
 20
3211.641758775237
 30
-0.0000000000013153
 11
9198.449210434793
 21
3236.641758775237
 31
-0.0000000000013153
  0
LINE
  5
153D4
330
747D
100
AcDbEntity
  8
細線
 48
50.0
100
AcDbLine
 10
9211.846670056333
 20
3286.641758775237
 30
-0.0000000000013153
 11
9205.147940245563
 21
3311.641758775237
 31
-0.0000000000013153
  0
LINE
  5
153D5
330
747D
100
AcDbEntity
  8
細線
 48
50.0
100
AcDbLine
 10
9328.41051047562
 20
3211.641758775237
 30
-0.0000000000013153
 11
9321.711780664848
 21
3236.641758775237
 31
-0.0000000000013153
  0
LINE
  5
153D6
330
747D
100
AcDbEntity
  8
細線
 48
50.0
100
AcDbLine
 10
9335.10924028639
 20
3286.641758775237
 30
-0.0000000000013153
 11
9328.41051047562
 21
3311.641758775237
 31
-0.0000000000013153
  0
LINE
  5
153D7
330
747D
100
AcDbEntity
  8
細線
 48
50.0
100
AcDbLine
 10
9451.673080705678
 20
3211.641758775237
 30
-0.0000000000026306
 11
9444.974350894907
 21
3236.641758775237
 31
-0.0000000000026306
  0
LINE
  5
153D8
330
747D
100
AcDbEntity
  8
細線
 48
50.0
100
AcDbLine
 10
9458.371810516448
 20
3286.641758775237
 30
-0.0000000000026306
 11
9451.673080705678
 21
3311.641758775237
 31
-0.0000000000026306
  0
LINE
  5
153D9
330
747D
100
AcDbEntity
  8
細線
 48
50.0
100
AcDbLine
 10
9574.935650935794
 20
3211.641758775237
 30
-0.0000000000013153
 11
9568.236921125023
 21
3236.641758775237
 31
-0.0000000000013153
  0
LINE
  5
153DA
330
747D
100
AcDbEntity
  8
細線
 48
50.0
100
AcDbLine
 10
9581.634380746564
 20
3286.641758775237
 30
-0.0000000000013153
 11
9574.935650935794
 21
3311.641758775237
 31
-0.0000000000013153
  0
LINE
  5
153DB
330
747D
100
AcDbEntity
  8
細線
 48
50.0
100
AcDbLine
 10
9698.198221165851
 20
3211.641758775237
 30
-0.0000000000013153
 11
9691.499491355081
 21
3236.641758775237
 31
-0.0000000000013153
  0
LINE
  5
153DC
330
747D
100
AcDbEntity
  8
細線
 48
50.0
100
AcDbLine
 10
9704.896950976621
 20
3286.641758775237
 30
-0.0000000000013153
 11
9698.198221165851
 21
3311.641758775237
 31
-0.0000000000013153
  0
LINE
  5
153DD
330
747D
100
AcDbEntity
  8
細線
 48
50.0
100
AcDbLine
 10
7886.766612943309
 20
3811.641758775266
 30
-0.0000000000026306
 11
7880.067883132539
 21
3836.641758775266
 31
-0.0000000000026306
  0
LINE
  5
153DE
330
747D
100
AcDbEntity
  8
細線
 48
50.0
100
AcDbLine
 10
7893.46534275408
 20
3886.641758775266
 30
-0.0000000000026306
 11
7886.766612943309
 21
3911.641758775266
 31
-0.0000000000026306
  0
LINE
  5
153DF
330
747D
100
AcDbEntity
  8
細線
 48
50.0
100
AcDbLine
 10
8010.029183173367
 20
3811.641758775252
 30
-0.0000000000026306
 11
8003.330453362597
 21
3836.641758775252
 31
-0.0000000000026306
  0
LINE
  5
153E0
330
747D
100
AcDbEntity
  8
細線
 48
50.0
100
AcDbLine
 10
8016.727912984137
 20
3886.641758775251
 30
-0.0000000000026306
 11
8010.029183173367
 21
3911.641758775252
 31
-0.0000000000026306
  0
LINE
  5
153E1
330
747D
100
AcDbEntity
  8
細線
 48
50.0
100
AcDbLine
 10
8133.291753403481
 20
3811.641758775252
 30
-0.0000000000026306
 11
8126.593023592711
 21
3836.641758775252
 31
-0.0000000000026306
  0
LINE
  5
153E2
330
747D
100
AcDbEntity
  8
細線
 48
50.0
100
AcDbLine
 10
8139.990483214253
 20
3886.641758775251
 30
-0.0000000000026306
 11
8133.291753403481
 21
3911.641758775252
 31
-0.0000000000026306
  0
LINE
  5
153E3
330
747D
100
AcDbEntity
  8
細線
 48
50.0
100
AcDbLine
 10
8256.55432363354
 20
3811.641758775252
 30
-0.0000000000026306
 11
8249.85559382277
 21
3836.641758775252
 31
-0.0000000000026306
  0
LINE
  5
153E4
330
747D
100
AcDbEntity
  8
細線
 48
50.0
100
AcDbLine
 10
8263.25305344431
 20
3886.641758775251
 30
-0.0000000000026306
 11
8256.55432363354
 21
3911.641758775252
 31
-0.0000000000026306
  0
LINE
  5
153E5
330
747D
100
AcDbEntity
  8
細線
 48
50.0
100
AcDbLine
 10
9735.705166394462
 20
3811.641758775252
 30
-0.0000000000026306
 11
9729.006436583691
 21
3836.641758775252
 31
-0.0000000000026306
  0
LINE
  5
153E6
330
747D
100
AcDbEntity
  8
細線
 48
50.0
100
AcDbLine
 10
9742.403896205233
 20
3886.641758775251
 30
-0.0000000000026306
 11
9735.705166394462
 21
3911.641758775252
 31
-0.0000000000026306
  0
LINE
  5
153E7
330
747D
100
AcDbEntity
  8
細線
 48
50.0
100
AcDbLine
 10
9858.967736624521
 20
3811.641758775252
 30
-0.0000000000026306
 11
9852.269006813749
 21
3836.641758775252
 31
-0.0000000000026306
  0
LINE
  5
153E8
330
747D
100
AcDbEntity
  8
細線
 48
50.0
100
AcDbLine
 10
9865.666466435291
 20
3886.641758775251
 30
-0.0000000000026306
 11
9858.967736624521
 21
3911.641758775252
 31
-0.0000000000026306
  0
LINE
  5
153E9
330
747D
100
AcDbEntity
  8
細線
 48
50.0
100
AcDbLine
 10
9982.230306854578
 20
3811.641758775252
 30
-0.0000000000026306
 11
9975.531577043808
 21
3836.641758775252
 31
-0.0000000000026306
  0
LINE
  5
153EA
330
747D
100
AcDbEntity
  8
細線
 48
50.0
100
AcDbLine
 10
9988.929036665348
 20
3886.641758775251
 30
-0.0000000000026306
 11
9982.230306854578
 21
3911.641758775252
 31
-0.0000000000026306
  0
LINE
  5
153EB
330
747D
100
AcDbEntity
  8
細線
 48
50.0
100
AcDbLine
 10
10105.49287708469
 20
3811.641758775252
 30
-0.0000000000026306
 11
10098.79414727392
 21
3836.641758775252
 31
-0.0000000000026306
  0
LINE
  5
153EC
330
747D
100
AcDbEntity
  8
細線
 48
50.0
100
AcDbLine
 10
10112.19160689546
 20
3886.641758775251
 30
-0.0000000000026306
 11
10105.49287708469
 21
3911.641758775252
 31
-0.0000000000026306
  0
MTEXT
  5
153ED
330
747D
100
AcDbEntity
  8
寸法
 62
     7
 48
50.0
100
AcDbMText
 10
10216.94141019239
 20
4063.914486047957
 30
-0.0000000000013153
 40
100.0
 41
1.0
 71
     5
 72
     1
  1
▽Ｆ.L
  7
STYLE2
 73
     1
 44
1.0
1001
ACAD
1000
MTEXTBEGIN
1070
    73
1070
     1
1070
    44
1040
1.0
1070
    74
1070
     0
1000
MTEXTEND
  0
LINE
  5
153EE
330
747D
100
AcDbEntity
  8
寸法
 48
50.0
100
AcDbLine
 10
8052.80528234439
 20
4086.249174977405
 30
-0.0000000000013153
 11
8121.456500209509
 21
4104.644213363775
 31
-0.0000000000013153
  0
LINE
  5
153EF
330
747D
100
AcDbEntity
  8
寸法
 48
50.0
100
AcDbLine
 10
8052.80528234439
 20
4086.249174977405
 30
-0.0000000000013153
 11
8682.057777932193
 21
4086.249174977405
 31
-0.0000000000013153
  0
LINE
  5
153F0
330
747D
100
AcDbEntity
  8
寸法
 48
50.0
100
AcDbLine
 10
8052.80528234439
 20
4086.249174977405
 30
-0.0000000000013153
 11
8121.456500209509
 21
4067.85413659102
 31
-0.0000000000013153
  0
TEXT
  5
153F1
330
747D
100
AcDbEntity
  8
寸法
 62
     7
 48
50.0
100
AcDbText
 10
8151.038723344031
 20
4271.636210619385
 30
-0.0000000000013153
 40
90.0
  1
水勾配
 41
0.8
  7
STYLE1
100
AcDbText
  0
TEXT
  5
153F2
330
747D
100
AcDbEntity
  8
寸法
 62
     7
 48
50.0
100
AcDbText
 10
8117.775230372663
 20
4123.297698497291
 30
-0.0000000000013153
 40
90.0
  1
１／１００
 41
0.8
  7
STYLE1
100
AcDbText
  0
LINE
  5
153F3
330
747D
100
AcDbEntity
  8
寸法
 48
50.0
100
AcDbLine
 10
9986.163834592725
 20
4086.249174977405
 30
-0.0000000000013153
 11
9917.512616727606
 21
4104.644213363775
 31
-0.0000000000013153
  0
LINE
  5
153F4
330
747D
100
AcDbEntity
  8
寸法
 48
50.0
100
AcDbLine
 10
9986.163834592725
 20
4086.249174977405
 30
-0.0000000000013153
 11
9356.911339004922
 21
4086.249174977405
 31
-0.0000000000013153
  0
LINE
  5
153F5
330
747D
100
AcDbEntity
  8
寸法
 48
50.0
100
AcDbLine
 10
9986.163834592725
 20
4086.249174977405
 30
-0.0000000000013153
 11
9917.512616727606
 21
4067.85413659102
 31
-0.0000000000013153
  0
TEXT
  5
153F6
330
747D
100
AcDbEntity
  8
寸法
 62
     7
 48
50.0
100
AcDbText
 10
9455.144780004561
 20
4271.636210619385
 30
-0.0000000000013153
 40
90.0
  1
水勾配
 41
0.8
  7
STYLE1
100
AcDbText
  0
TEXT
  5
153F7
330
747D
100
AcDbEntity
  8
寸法
 62
     7
 48
50.0
100
AcDbText
 10
9421.881287033192
 20
4123.297698497291
 30
-0.0000000000013153
 40
90.0
  1
１／１００
 41
0.8
  7
STYLE1
100
AcDbText
  0
DIMENSION
  5
153F8
330
747D
100
AcDbEntity
  8
寸法
 48
50.0
100
AcDbDimension
  2
*D21
 10
7668.903431366596
 20
4011.641758775236
 30
-0.0000000000013153
 11
7668.903431366594
 21
4188.677191846145
 31
-0.0000000000013153
 70
   160
 71
     5
 42
100.0
  3
INABA_S30G
100
AcDbAlignedDimension
 13
7819.484558468499
 23
3911.641758775237
 33
-0.0000000000013153
 14
7819.484558468499
 24
4011.641758775236
 34
-0.0000000000013153
 50
90.0
100
AcDbRotatedDimension
  0
DIMENSION
  5
153F9
330
747D
100
AcDbEntity
  8
寸法
 48
50.0
100
AcDbDimension
  2
*D22
 10
7668.903431366596
 20
3811.641758775237
 30
-0.0000000000013153
 11
7668.903431366594
 21
3634.606325704372
 31
-0.0000000000013153
 70
   160
 71
     5
 42
100.0
  3
INABA_S30G
100
AcDbAlignedDimension
 13
7819.484558468499
 23
3911.641758775237
 33
-0.0000000000013153
 14
7819.484558468499
 24
3811.641758775237
 34
-0.0000000000013153
 50
90.0
100
AcDbRotatedDimension
  0
DIMENSION
  5
153FA
330
747D
100
AcDbEntity
  8
寸法
 48
50.0
100
AcDbDimension
  2
*D23
 10
8844.484558468558
 20
2920.025129131202
 30
-0.0000000000013153
 11
8581.984558468558
 21
2995.033987398918
 31
-0.0000000000013153
 70
    32
 71
     5
 42
525.0
  3
INABA_S30G
100
AcDbAlignedDimension
 13
8319.484558468557
 23
3361.641758775237
 33
-0.0000000000013153
 14
8844.484558468558
 24
3300.583926945357
 34
-0.0000000000013153
100
AcDbRotatedDimension
  0
DIMENSION
  5
153FB
330
747D
100
AcDbEntity
  8
寸法
 48
50.0
100
AcDbDimension
  2
*D24
 10
8319.484558468557
 20
2689.93956804245
 30
-0.0000000000013153
 11
9019.484558468558
 21
2764.93956804245
 31
-0.0000000000013153
 70
    32
 71
     5
 42
1400.0
  3
INABA_S30G
100
AcDbAlignedDimension
 13
9719.484558468558
 23
3361.641758775237
 33
-0.0000000000013153
 14
8319.484558468557
 24
3361.641758775237
 34
-0.0000000000013153
100
AcDbRotatedDimension
  0
DIMENSION
  5
153FC
330
747D
100
AcDbEntity
  8
寸法
 48
50.0
100
AcDbDimension
  2
*D25
 10
9194.484558468557
 20
2920.025129131202
 30
-0.0000000000013153
 11
9019.484558468558
 21
2995.025129131202
 31
-0.0000000000013153
 70
    32
 71
     5
 42
350.0
  3
INABA_S30G
100
AcDbAlignedDimension
 13
8844.484558468558
 23
3300.583926945357
 33
-0.0000000000013153
 14
9194.484558468557
 24
3300.583926945357
 34
-0.0000000000013153
100
AcDbRotatedDimension
  0
DIMENSION
  5
153FD
330
747D
100
AcDbEntity
  8
寸法
 48
50.0
100
AcDbDimension
  2
*D26
 10
9194.484558468557
 20
2920.025129131202
 30
-0.0000000000013153
 11
9456.984558468558
 21
2995.033987398918
 31
-0.0000000000013153
 70
    32
 71
     5
 42
525.0
  3
INABA_S30G
100
AcDbAlignedDimension
 13
9719.484558468558
 23
3361.641758775237
 33
-0.0000000000013153
 14
9194.484558468557
 24
3300.583926945357
 34
-0.0000000000013153
 50
180.0
100
AcDbRotatedDimension
  0
DIMENSION
  5
153FE
330
747D
100
AcDbEntity
  8
寸法
 48
50.0
100
AcDbDimension
  2
*D27
 10
10511.92592306928
 20
3361.641758775237
 30
-0.0000000000013153
 11
10436.92592306929
 21
3661.641758775239
 31
-0.0000000000013153
 70
    32
 71
     5
 42
600.0
  3
INABA_S30G
100
AcDbAlignedDimension
 13
10284.28243603207
 23
3961.641758775236
 33
-0.0000000000013153
 14
9799.484558468558
 24
3361.641758775237
 34
-0.0000000000013153
 50
90.0
100
AcDbRotatedDimension
  0
DIMENSION
  5
153FF
330
747D
100
AcDbEntity
  8
寸法
 48
50.0
100
AcDbDimension
  2
*D28
 10
10511.92592306928
 20
4011.641758775236
 30
-0.0000000000013153
 11
10511.92592306928
 21
4241.177191846145
 31
-0.0000000000013153
 70
   160
 71
     5
 42
50.0
  3
INABA_S30G
100
AcDbAlignedDimension
 13
10219.48455846855
 23
3961.641758775236
 33
-0.0000000000013153
 14
10219.48455846861
 24
4011.641758775236
 34
-0.0000000000013153
 50
90.0
100
AcDbRotatedDimension
  0
DIMENSION
  5
15400
330
747D
100
AcDbEntity
  8
寸法
 48
50.0
100
AcDbDimension
  2
*D29
 10
10511.92592306928
 20
3311.641758775237
 30
-0.0000000000013153
 11
10511.92592306928
 21
3082.106325704371
 31
-0.0000000000013153
 70
   160
 71
     5
 42
50.0
  3
INABA_S30G
100
AcDbAlignedDimension
 13
9799.484558468558
 23
3361.641758775237
 33
-0.0000000000013153
 14
9799.484558468558
 24
3311.641758775237
 34
-0.0000000000013153
 50
90.0
100
AcDbRotatedDimension
  0
TEXT
  5
15401
330
747D
100
AcDbEntity
  8
寸法
 62
     7
 48
50.0
100
AcDbText
 10
9806.270531512787
 20
3510.69617121022
 30
-0.0000000000013153
 40
90.0
  1
主筋4-D13
  7
STYLE1
100
AcDbText
  0
LINE
  5
15402
330
747D
100
AcDbEntity
  8
寸法
 48
50.0
100
AcDbLine
 10
9768.52516543061
 20
3485.689313657829
 30
-0.0000000000013153
 11
10388.73962089779
 21
3485.689313657829
 31
-0.0000000000013153
  0
LINE
  5
15403
330
747D
100
AcDbEntity
  8
寸法
 48
50.0
100
AcDbLine
 10
9768.52516543061
 20
3485.689313657829
 30
-0.0000000000013153
 11
9394.484558468558
 21
3701.641758775237
 31
-0.0000000000013153
  0
LWPOLYLINE
  5
15404
330
747D
100
AcDbEntity
  8
寸法
 48
5.0
100
AcDbPolyline
 90
        3
 70
     0
 43
0.0
 10
8519.484558468558
 20
3441.641758775237
 10
8123.83361403288
 20
3045.990814339603
 10
7206.324058887945
 20
3045.990814339603
1001
ACAD
1000
DSTYLE
1002
{
1070
   341
1005
0
1002
}
  0
TEXT
  5
15405
330
747D
100
AcDbEntity
  8
寸法
 62
     7
100
AcDbText
 10
7211.460496691278
 20
3066.511819337961
 30
-0.0000000000039459
 40
90.0
  1
4-D10X6-D10以上
  7
STYLE1
100
AcDbText
  0
TEXT
  5
15406
330
747D
100
AcDbEntity
  8
寸法
 62
     7
100
AcDbText
 10
7211.460496691278
 20
3180.984740062588
 30
-0.0000000000039459
 40
90.0
  1
ベース筋
  7
STYLE1
100
AcDbText
  0
LINE
  5
15407
330
747D
100
AcDbEntity
  8
寸法
 48
50.0
100
AcDbLine
 10
8690.213245558833
 20
3551.641758775236
 30
-0.0000000000013153
 11
7975.969737155701
 21
2837.398250372105
 31
-0.0000000000013153
  0
LINE
  5
15408
330
747D
100
AcDbEntity
  8
寸法
 48
50.0
100
AcDbLine
 10
7975.969737155701
 20
2837.398250372105
 30
-0.0000000000013153
 11
7285.575758455019
 21
2837.398250372105
 31
-0.0000000000013153
  0
TEXT
  5
15409
330
747D
100
AcDbEntity
  8
寸法
 62
     7
 48
50.0
100
AcDbText
 10
7304.02834581961
 20
2852.474168199959
 30
-0.0000000000013153
 40
90.0
  1
帯筋D10＠100
  7
STYLE1
100
AcDbText
  0
LWPOLYLINE
  5
1540A
330
747D
100
AcDbEntity
  8
寸法
 48
50.0
100
AcDbPolyline
 90
        3
 70
     0
 43
0.0
 10
9194.484558468557
 20
3396.641758775237
 10
9851.145605969465
 20
2739.980711274315
 10
10347.5423495802
 20
2739.980711274315
1001
ACAD
1000
DSTYLE
1002
{
1070
   341
1005
0
1002
}
  0
TEXT
  5
1540B
330
747D
100
AcDbEntity
  8
寸法
 62
     7
 48
50.0
100
AcDbText
 10
9908.807541262406
 20
2759.539964625947
 30
-0.0000000000013153
 40
90.0
  1
カンザシ
  7
STYLE1
100
AcDbText
  0
ENDSEC
  0
SECTION
  2
OBJECTS
  0
DICTIONARY
  5
7471
330
0
100
AcDbDictionary
281
     1
  3
ACAD_CIP_PREVIOUS_PRODUCT_INFO
350
13D36
  3
ACAD_COLOR
350
1341D
  3
ACAD_DETAILVIEWSTYLE
350
13D2C
  3
ACAD_GROUP
350
7472
  3
ACAD_LAYOUT
350
1341E
  3
ACAD_MATERIAL
350
1341C
  3
ACAD_MLEADERSTYLE
350
13D28
  3
ACAD_MLINESTYLE
350
7473
  3
ACAD_PLOTSETTINGS
350
1341F
  3
ACAD_PLOTSTYLENAME
350
1341A
  3
ACAD_SCALELIST
350
13D16
  3
ACAD_SECTIONVIEWSTYLE
350
13D2A
  3
ACAD_TABLESTYLE
350
13D14
  3
ACAD_VISUALSTYLE
350
13CFB
  3
AcadDim
350
13618
  3
ACDB_RECOMPOSE_DATA
350
157CA
  3
AcDbVariableDictionary
350
13533
  3
CONTENTDICTIONARY
350
E71C
  3
DRAWINGVARIABLESDICT
350
F3B9
  3
DWGPROPS
350
157CB
  0
DICTIONARY
  5
1558B
330
746D
100
AcDbDictionary
280
     1
281
     1
  0
DICTIONARY
  5
13451
330
7467
100
AcDbDictionary
280
     1
281
     1
  3
ACAD_LAYERFILTERS
360
1356A
  3
ACAD_LAYERSTATES
360
13452
  0
DICTIONARY
  5
15109
330
7474
100
AcDbDictionary
280
     1
281
     1
  3
ADSK_XREC_LAYER_RECONCILED
360
1510A
  0
DICTIONARY
  5
1510B
330
DEB3
100
AcDbDictionary
280
     1
281
     1
  3
ADSK_XREC_LAYER_RECONCILED
360
1510C
  0
DICTIONARY
  5
1510D
330
DEB4
100
AcDbDictionary
280
     1
281
     1
  3
ADSK_XREC_LAYER_RECONCILED
360
1510E
  0
DICTIONARY
  5
1510F
330
DEB5
100
AcDbDictionary
280
     1
281
     1
  3
ADSK_XREC_LAYER_RECONCILED
360
15110
  0
DICTIONARY
  5
15111
330
DEB6
100
AcDbDictionary
280
     1
281
     1
  3
ADSK_XREC_LAYER_RECONCILED
360
15112
  0
DICTIONARY
  5
15113
330
10B54
100
AcDbDictionary
280
     1
281
     1
  3
ADSK_XREC_LAYER_RECONCILED
360
15114
  0
DICTIONARY
  5
15115
330
11729
100
AcDbDictionary
280
     1
281
     1
  3
ADSK_XREC_LAYER_RECONCILED
360
15116
  0
DICTIONARY
  5
15117
330
1173F
100
AcDbDictionary
280
     1
281
     1
  3
ADSK_XREC_LAYER_RECONCILED
360
15118
  0
DICTIONARY
  5
15119
330
11740
100
AcDbDictionary
280
     1
281
     1
  3
ADSK_XREC_LAYER_RECONCILED
360
1511A
  0
DICTIONARY
  5
1511B
330
1356E
100
AcDbDictionary
280
     1
281
     1
  3
ADSK_XREC_LAYER_RECONCILED
360
1511C
  0
DICTIONARY
  5
1511D
330
135FB
100
AcDbDictionary
280
     1
281
     1
  3
ADSK_XREC_LAYER_RECONCILED
360
1511E
  0
DICTIONARY
  5
1511F
330
137FC
100
AcDbDictionary
280
     1
281
     1
  3
ADSK_XREC_LAYER_RECONCILED
360
15120
  0
DICTIONARY
  5
15121
330
137FD
100
AcDbDictionary
280
     1
281
     1
  3
ADSK_XREC_LAYER_RECONCILED
360
15122
  0
XRECORD
  5
13D36
102
{ACAD_REACTORS
330
7471
102
}
330
7471
100
AcDbXrecord
280
     1
300
ACDLT
300
2014
300
ACDLT_F_S
  0
DICTIONARY
  5
1341D
102
{ACAD_REACTORS
330
7471
102
}
330
7471
100
AcDbDictionary
281
     1
  0
DICTIONARY
  5
13D2C
102
{ACAD_REACTORS
330
7471
102
}
330
7471
100
AcDbDictionary
281
     1
  3
Metric50
350
13D2D
  0
DICTIONARY
  5
7472
102
{ACAD_REACTORS
330
7471
102
}
330
7471
100
AcDbDictionary
281
     1
  0
DICTIONARY
  5
1341E
102
{ACAD_REACTORS
330
7471
102
}
330
7471
100
AcDbDictionary
281
     1
  3
Model
350
13420
  3
レイアウト1
350
13421
  0
DICTIONARY
  5
1341C
102
{ACAD_REACTORS
330
7471
102
}
330
7471
100
AcDbDictionary
281
     1
  3
ByBlock
350
13CEB
  3
ByLayer
350
13CE3
  3
Global
350
13CF3
  0
DICTIONARY
  5
13D28
102
{ACAD_REACTORS
330
7471
102
}
330
7471
100
AcDbDictionary
281
     1
  3
Standard
350
13D29
  0
DICTIONARY
  5
7473
102
{ACAD_REACTORS
330
7471
102
}
330
7471
100
AcDbDictionary
281
     1
  3
STANDARD
350
7480
  0
DICTIONARY
  5
1341F
102
{ACAD_REACTORS
330
7471
102
}
330
7471
100
AcDbDictionary
281
     1
  0
ACDBDICTIONARYWDFLT
  5
1341A
102
{ACAD_REACTORS
330
7471
102
}
330
7471
100
AcDbDictionary
281
     1
  3
Normal
350
1341B
100
AcDbDictionaryWithDefault
340
1341B
  0
DICTIONARY
  5
13D16
102
{ACAD_REACTORS
330
7471
102
}
330
7471
100
AcDbDictionary
281
     1
  3
A0
350
13D17
  3
A1
350
13D18
  3
A2
350
13D19
  3
A3
350
13D1A
  3
A4
350
13D1B
  3
A5
350
13D1C
  3
A6
350
13D1D
  3
A7
350
13D1E
  3
A8
350
13D1F
  3
A9
350
13D20
  3
B0
350
13D21
  3
B1
350
13D22
  3
B2
350
13D23
  3
B3
350
13D24
  3
B4
350
13D25
  3
B5
350
13D26
  3
B6
350
13D27
  0
DICTIONARY
  5
13D2A
102
{ACAD_REACTORS
330
7471
102
}
330
7471
100
AcDbDictionary
281
     1
  3
Metric50
350
13D2B
  0
DICTIONARY
  5
13D14
102
{ACAD_REACTORS
330
7471
102
}
330
7471
100
AcDbDictionary
281
     1
  3
Standard
350
13D15
  0
DICTIONARY
  5
13CFB
102
{ACAD_REACTORS
330
7471
102
}
330
7471
100
AcDbDictionary
281
     1
  3
2dWireframe
350
13D01
  3
Basic
350
13D00
  3
Brighten
350
13D07
  3
ColorChange
350
13D0B
  3
Conceptual
350
13D04
  3
Dim
350
13D06
  3
EdgeColorOff
350
13D13
  3
Facepattern
350
13D0A
  3
Flat
350
13CFC
  3
FlatWithEdges
350
13CFD
  3
Gouraud
350
13CFE
  3
GouraudWithEdges
350
13CFF
  3
Hidden
350
13D03
  3
JitterOff
350
13D11
  3
Linepattern
350
13D09
  3
OverhangOff
350
13D12
  3
Realistic
350
13D05
  3
Shaded
350
13D10
  3
Shaded with edges
350
13D0F
  3
Shades of Gray
350
13D0C
  3
Sketchy
350
13D0D
  3
Thicken
350
13D08
  3
Wireframe
350
13D02
  3
X-Ray
350
13D0E
  0
XRECORD
  5
13618
102
{ACAD_REACTORS
330
7471
102
}
330
7471
100
AcDbXrecord
280
     1
 90
   990106
  3

 60
     0
 61
     0
 62
     1
 63
     3
 64
     0
 65
     0
 66
     0
 67
     3
 68
     1
 69
     0
 70
     0
 71
     0
 72
     0
 40
0.0
170
     0
  0
XRECORD
  5
157CA
102
{ACAD_REACTORS
330
7471
102
}
330
7471
100
AcDbXrecord
280
     1
 90
        1
330
13D15
  0
DICTIONARY
  5
13533
102
{ACAD_REACTORS
330
7471
102
}
330
7471
100
AcDbDictionary
281
     1
  3
CANNOSCALE
350
155D0
  3
CMLEADERSTYLE
350
155CD
  3
CTABLESTYLE
350
155CC
  3
CVIEWDETAILSTYLE
350
155CE
  3
CVIEWSECTIONSTYLE
350
155CF
  3
DIMASSOC
350
13534
  3
INDEXCTL
350
155D2
  3
PROJECTNAME
350
13535
  3
SORTENTS
350
155D1
  3
XCLIPFRAME
350
157C8
  0
DICTIONARY
  5
E71C
102
{ACAD_REACTORS
330
7471
102
}
330
7471
100
AcDbDictionary
281
     1
  0
DICTIONARY
  5
F3B9
102
{ACAD_REACTORS
330
7471
102
}
330
7471
100
AcDbDictionary
281
     1
1001
DRAWINGVARIABLESXDATA
1000
POLARMODE
1000
1
  0
XRECORD
  5
157CB
102
{ACAD_REACTORS
330
7471
102
}
330
7471
100
AcDbXrecord
280
     1
  1
DWGPROPS COOKIE
  2

  3

  4

  6

  7

  8
ODAHARA
  9

300
=
301
=
302
=
303
=
304
=
305
=
306
=
307
=
308
=
309
=
 40
0.3479157523148148
 41
2451074.411873148
 42
2456560.838256783
  1

 90
        0
  0
DICTIONARY
  5
1356A
102
{ACAD_REACTORS
330
13451
102
}
330
13451
100
AcDbDictionary
281
     1
  0
DICTIONARY
  5
13452
102
{ACAD_REACTORS
330
13451
102
}
330
13451
100
AcDbDictionary
281
     1
  0
XRECORD
  5
1510A
102
{ACAD_REACTORS
330
15109
102
}
330
15109
100
AcDbXrecord
280
     1
290
     1
  0
XRECORD
  5
1510C
102
{ACAD_REACTORS
330
1510B
102
}
330
1510B
100
AcDbXrecord
280
     1
290
     1
  0
XRECORD
  5
1510E
102
{ACAD_REACTORS
330
1510D
102
}
330
1510D
100
AcDbXrecord
280
     1
290
     1
  0
XRECORD
  5
15110
102
{ACAD_REACTORS
330
1510F
102
}
330
1510F
100
AcDbXrecord
280
     1
290
     1
  0
XRECORD
  5
15112
102
{ACAD_REACTORS
330
15111
102
}
330
15111
100
AcDbXrecord
280
     1
290
     1
  0
XRECORD
  5
15114
102
{ACAD_REACTORS
330
15113
102
}
330
15113
100
AcDbXrecord
280
     1
290
     1
  0
XRECORD
  5
15116
102
{ACAD_REACTORS
330
15115
102
}
330
15115
100
AcDbXrecord
280
     1
290
     1
  0
XRECORD
  5
15118
102
{ACAD_REACTORS
330
15117
102
}
330
15117
100
AcDbXrecord
280
     1
290
     1
  0
XRECORD
  5
1511A
102
{ACAD_REACTORS
330
15119
102
}
330
15119
100
AcDbXrecord
280
     1
290
     1
  0
XRECORD
  5
1511C
102
{ACAD_REACTORS
330
1511B
102
}
330
1511B
100
AcDbXrecord
280
     1
290
     1
  0
XRECORD
  5
1511E
102
{ACAD_REACTORS
330
1511D
102
}
330
1511D
100
AcDbXrecord
280
     1
290
     1
  0
XRECORD
  5
15120
102
{ACAD_REACTORS
330
1511F
102
}
330
1511F
100
AcDbXrecord
280
     1
290
     1
  0
XRECORD
  5
15122
102
{ACAD_REACTORS
330
15121
102
}
330
15121
100
AcDbXrecord
280
     1
290
     1
  0
ACDBDETAILVIEWSTYLE
  5
13D2D
102
{ACAD_XDICTIONARY
360
15808
102
}
102
{ACAD_REACTORS
330
13D2C
102
}
330
13D2C
100
AcDbModelDocViewStyle
 70
     0
  3
Metric50
290
     0
100
AcDbDetailViewStyle
 70
     0
 71
     0
 90
        3
 71
     1
340
7475
 40
5.0
340
0
 40
5.0
300

 40
0.0
280
     1
 71
     2
340
7479
 90
       25
 71
     3
340
7475
 40
5.0
 90
        0
 40
15.0
 90
        1
300
%<\AcVar ViewDetailId>% (%<\AcVar ViewScale \f "%sn">%)
 71
     4
340
7479
 90
       25
340
7479
 90
       25
280
     0
  0
LAYOUT
  5
13420
102
{ACAD_XDICTIONARY
360
157CC
102
}
102
{ACAD_REACTORS
330
1341E
102
}
330
1341E
100
AcDbPlotSettings
  1

  2
CutePDF Writer
  4
A3
  6

 40
3.174999952316284
 41
3.174999952316284
 42
3.17498779296875
 43
3.17498779296875
 44
297.0530090332031
 45
420.1583251953125
 46
0.0
 47
0.0
 48
0.0
 49
0.0
140
0.0
141
0.0
142
1.0
143
30.0
 70
 11952
 72
     1
 73
     1
 74
     2
  7
inaba.ctb
 75
    23
147
0.0333333333333333
148
0.0
149
0.0
100
AcDbLayout
  1
Model
 70
     1
 71
     0
 10
0.0
 20
0.0
 11
12.0
 21
9.0
 12
0.0
 22
0.0
 32
0.0
 14
0.0
 24
0.0
 34
0.0
 15
0.0
 25
0.0
 35
0.0
146
0.0
 13
0.0
 23
0.0
 33
0.0
 16
1.0
 26
0.0
 36
0.0
 17
0.0
 27
1.0
 37
0.0
 76
     0
330
747D
331
13CE1
  0
LAYOUT
  5
13421
102
{ACAD_XDICTIONARY
360
157CE
102
}
102
{ACAD_REACTORS
330
1341E
102
}
330
1341E
100
AcDbPlotSettings
  1

  2
Microsoft Office Document Image Writer
  4

  6

 40
0.0
 41
0.0
 42
0.0
 43
0.0
 44
0.0
 45
0.0
 46
0.0
 47
0.0
 48
0.0
 49
0.0
140
0.0
141
0.0
142
1.0
143
1.0
 70
   688
 72
     0
 73
     0
 74
     5
  7
inaba.ctb
 75
    16
147
1.0
148
0.0
149
0.0
100
AcDbLayout
  1
レイアウト1
 70
     0
 71
     1
 10
0.0
 20
0.0
 11
420.0
 21
297.0
 12
0.0
 22
0.0
 32
0.0
 14
1.000000000000000E+20
 24
1.000000000000000E+20
 34
1.000000000000000E+20
 15
-1.000000000000000E+20
 25
-1.000000000000000E+20
 35
-1.000000000000000E+20
146
0.0
 13
0.0
 23
0.0
 33
0.0
 16
1.0
 26
0.0
 36
0.0
 17
0.0
 27
1.0
 37
0.0
 76
     0
330
747A
  0
MATERIAL
  5
13CEB
102
{ACAD_XDICTIONARY
360
13CEC
102
}
102
{ACAD_REACTORS
330
1341C
102
}
330
1341C
100
AcDbMaterial
  1
ByBlock
 72
     0
 43
0.0208333333333333
 43
0.0
 43
0.0
 43
0.0
 43
0.0
 43
0.0208333333333333
 43
0.0
 43
0.0
 43
0.0
 43
0.0
 43
1.0
 43
0.0
 43
0.0
 43
0.0
 43
0.0
 43
1.0
 77
     0
 47
0.0208333333333333
 47
0.0
 47
0.0
 47
0.0
 47
0.0
 47
0.0208333333333333
 47
0.0
 47
0.0
 47
0.0
 47
0.0
 47
1.0
 47
0.0
 47
0.0
 47
0.0
 47
0.0
 47
1.0
171
     0
 49
0.0208333333333333
 49
0.0
 49
0.0
 49
0.0
 49
0.0
 49
0.0208333333333333
 49
0.0
 49
0.0
 49
0.0
 49
0.0
 49
1.0
 49
0.0
 49
0.0
 49
0.0
 49
0.0
 49
1.0
175
     0
142
0.0208333333333333
142
0.0
142
0.0
142
0.0
142
0.0
142
0.0208333333333333
142
0.0
142
0.0
142
0.0
142
0.0
142
1.0
142
0.0
142
0.0
142
0.0
142
0.0
142
1.0
179
     0
144
0.0208333333333333
144
0.0
144
0.0
144
0.0
144
0.0
144
0.0208333333333333
144
0.0
144
0.0
144
0.0
144
0.0
144
1.0
144
0.0
144
0.0
144
0.0
144
0.0
144
1.0
147
0.0208333333333333
147
0.0
147
0.0
147
0.0
147
0.0
147
0.0208333333333333
147
0.0
147
0.0
147
0.0
147
0.0
147
1.0
147
0.0
147
0.0
147
0.0
147
0.0
147
1.0
  0
MATERIAL
  5
13CE3
102
{ACAD_XDICTIONARY
360
13CE4
102
}
102
{ACAD_REACTORS
330
1341C
102
}
330
1341C
100
AcDbMaterial
  1
ByLayer
 72
     0
 43
0.0208333333333333
 43
0.0
 43
0.0
 43
0.0
 43
0.0
 43
0.0208333333333333
 43
0.0
 43
0.0
 43
0.0
 43
0.0
 43
1.0
 43
0.0
 43
0.0
 43
0.0
 43
0.0
 43
1.0
 77
     0
 47
0.0208333333333333
 47
0.0
 47
0.0
 47
0.0
 47
0.0
 47
0.0208333333333333
 47
0.0
 47
0.0
 47
0.0
 47
0.0
 47
1.0
 47
0.0
 47
0.0
 47
0.0
 47
0.0
 47
1.0
171
     0
 49
0.0208333333333333
 49
0.0
 49
0.0
 49
0.0
 49
0.0
 49
0.0208333333333333
 49
0.0
 49
0.0
 49
0.0
 49
0.0
 49
1.0
 49
0.0
 49
0.0
 49
0.0
 49
0.0
 49
1.0
175
     0
142
0.0208333333333333
142
0.0
142
0.0
142
0.0
142
0.0
142
0.0208333333333333
142
0.0
142
0.0
142
0.0
142
0.0
142
1.0
142
0.0
142
0.0
142
0.0
142
0.0
142
1.0
179
     0
144
0.0208333333333333
144
0.0
144
0.0
144
0.0
144
0.0
144
0.0208333333333333
144
0.0
144
0.0
144
0.0
144
0.0
144
1.0
144
0.0
144
0.0
144
0.0
144
0.0
144
1.0
147
0.0208333333333333
147
0.0
147
0.0
147
0.0
147
0.0
147
0.0208333333333333
147
0.0
147
0.0
147
0.0
147
0.0
147
1.0
147
0.0
147
0.0
147
0.0
147
0.0
147
1.0
  0
MATERIAL
  5
13CF3
102
{ACAD_XDICTIONARY
360
13CF4
102
}
102
{ACAD_REACTORS
330
1341C
102
}
330
1341C
100
AcDbMaterial
  1
Global
 72
     0
 43
0.0208333333333333
 43
0.0
 43
0.0
 43
0.0
 43
0.0
 43
0.0208333333333333
 43
0.0
 43
0.0
 43
0.0
 43
0.0
 43
1.0
 43
0.0
 43
0.0
 43
0.0
 43
0.0
 43
1.0
 77
     0
 47
0.0208333333333333
 47
0.0
 47
0.0
 47
0.0
 47
0.0
 47
0.0208333333333333
 47
0.0
 47
0.0
 47
0.0
 47
0.0
 47
1.0
 47
0.0
 47
0.0
 47
0.0
 47
0.0
 47
1.0
171
     0
 49
0.0208333333333333
 49
0.0
 49
0.0
 49
0.0
 49
0.0
 49
0.0208333333333333
 49
0.0
 49
0.0
 49
0.0
 49
0.0
 49
1.0
 49
0.0
 49
0.0
 49
0.0
 49
0.0
 49
1.0
175
     0
142
0.0208333333333333
142
0.0
142
0.0
142
0.0
142
0.0
142
0.0208333333333333
142
0.0
142
0.0
142
0.0
142
0.0
142
1.0
142
0.0
142
0.0
142
0.0
142
0.0
142
1.0
179
     0
144
0.0208333333333333
144
0.0
144
0.0
144
0.0
144
0.0
144
0.0208333333333333
144
0.0
144
0.0
144
0.0
144
0.0
144
1.0
144
0.0
144
0.0
144
0.0
144
0.0
144
1.0
147
0.0208333333333333
147
0.0
147
0.0
147
0.0
147
0.0
147
0.0208333333333333
147
0.0
147
0.0
147
0.0
147
0.0
147
1.0
147
0.0
147
0.0
147
0.0
147
0.0
147
1.0
  0
MLEADERSTYLE
  5
13D29
102
{ACAD_XDICTIONARY
360
15804
102
}
102
{ACAD_REACTORS
330
13D28
102
}
330
13D28
100
AcDbMLeaderStyle
170
     2
171
     1
172
     0
 90
        2
 40
0.0
 41
0.0
173
     1
 91
-1056964608
340
7477
 92
       -2
290
     1
 42
2.0
291
     1
 43
0.36
  3
Standard
 44
4.0
300

342
7475
174
     1
178
     6
175
     1
176
     0
 93
-1056964608
 45
4.0
292
     0
297
     0
 46
4.0
 94
-1056964608
 47
1.0
 49
1.0
140
1.0
293
     1
141
0.0
294
     1
177
     0
142
1.0
295
     0
296
     0
143
0.125
1001
ACAD_MLEADERVER
1070
     2
  0
MLINESTYLE
  5
7480
102
{ACAD_REACTORS
330
7473
102
}
330
7473
100
AcDbMlineStyle
  2
STANDARD
 70
     0
  3

 62
     0
 51
90.0
 52
90.0
 71
     2
 49
0.5
 62
   256
  6
BYLAYER
 49
-0.5
 62
   256
  6
BYLAYER
  0
ACDBPLACEHOLDER
  5
1341B
102
{ACAD_REACTORS
330
1341A
102
}
330
1341A
  0
SCALE
  5
13D17
102
{ACAD_REACTORS
330
13D16
102
}
330
13D16
100
AcDbScale
 70
     0
300
1:1
140
1.0
141
1.0
290
     1
  0
SCALE
  5
13D18
102
{ACAD_REACTORS
330
13D16
102
}
330
13D16
100
AcDbScale
 70
     0
300
1:2
140
1.0
141
2.0
290
     0
  0
SCALE
  5
13D19
102
{ACAD_REACTORS
330
13D16
102
}
330
13D16
100
AcDbScale
 70
     0
300
1:4
140
1.0
141
4.0
290
     0
  0
SCALE
  5
13D1A
102
{ACAD_REACTORS
330
13D16
102
}
330
13D16
100
AcDbScale
 70
     0
300
1:5
140
1.0
141
5.0
290
     0
  0
SCALE
  5
13D1B
102
{ACAD_REACTORS
330
13D16
102
}
330
13D16
100
AcDbScale
 70
     0
300
1:8
140
1.0
141
8.0
290
     0
  0
SCALE
  5
13D1C
102
{ACAD_REACTORS
330
13D16
102
}
330
13D16
100
AcDbScale
 70
     0
300
1:10
140
1.0
141
10.0
290
     0
  0
SCALE
  5
13D1D
102
{ACAD_REACTORS
330
13D16
102
}
330
13D16
100
AcDbScale
 70
     0
300
1:16
140
1.0
141
16.0
290
     0
  0
SCALE
  5
13D1E
102
{ACAD_REACTORS
330
13D16
102
}
330
13D16
100
AcDbScale
 70
     0
300
1:20
140
1.0
141
20.0
290
     0
  0
SCALE
  5
13D1F
102
{ACAD_REACTORS
330
13D16
102
}
330
13D16
100
AcDbScale
 70
     0
300
1:30
140
1.0
141
30.0
290
     0
  0
SCALE
  5
13D20
102
{ACAD_REACTORS
330
13D16
102
}
330
13D16
100
AcDbScale
 70
     0
300
1:40
140
1.0
141
40.0
290
     0
  0
SCALE
  5
13D21
102
{ACAD_REACTORS
330
13D16
102
}
330
13D16
100
AcDbScale
 70
     0
300
1:50
140
1.0
141
50.0
290
     0
  0
SCALE
  5
13D22
102
{ACAD_REACTORS
330
13D16
102
}
330
13D16
100
AcDbScale
 70
     0
300
1:100
140
1.0
141
100.0
290
     0
  0
SCALE
  5
13D23
102
{ACAD_REACTORS
330
13D16
102
}
330
13D16
100
AcDbScale
 70
     0
300
2:1
140
2.0
141
1.0
290
     0
  0
SCALE
  5
13D24
102
{ACAD_REACTORS
330
13D16
102
}
330
13D16
100
AcDbScale
 70
     0
300
4:1
140
4.0
141
1.0
290
     0
  0
SCALE
  5
13D25
102
{ACAD_REACTORS
330
13D16
102
}
330
13D16
100
AcDbScale
 70
     0
300
8:1
140
8.0
141
1.0
290
     0
  0
SCALE
  5
13D26
102
{ACAD_REACTORS
330
13D16
102
}
330
13D16
100
AcDbScale
 70
     0
300
10:1
140
10.0
141
1.0
290
     0
  0
SCALE
  5
13D27
102
{ACAD_REACTORS
330
13D16
102
}
330
13D16
100
AcDbScale
 70
     0
300
100:1
140
100.0
141
1.0
290
     0
  0
ACDBSECTIONVIEWSTYLE
  5
13D2B
102
{ACAD_XDICTIONARY
360
15806
102
}
102
{ACAD_REACTORS
330
13D2A
102
}
330
13D2A
100
AcDbModelDocViewStyle
 70
     0
  3
Metric50
290
     0
100
AcDbSectionViewStyle
 70
     0
 71
     0
 90
      102
 71
     1
340
7475
 40
5.0
340
0
340
0
 40
5.0
300
I, O, Q, S, X, Z
 40
10.0
 90
        0
 40
2.5
 90
        0
 71
     2
340
7479
 90
       25
340
7479
 90
       50
 40
5.0
 40
2.5
 40
5.0
 71
     3
340
7475
 40
5.0
 90
        0
 40
15.0
 90
        1
300
%<\AcVar ViewSectionStartId>%-%<\AcVar ViewSectionEndId>% (%<\AcVar ViewScale \f "%sn">%)
 71
     4
300
ANSI31
 40
1.0
 90
        0
290
     0
290
     0
 90
        6
 40
0.0
 40
1.570796326794896
 40
0.2617993877991494
 40
1.308996938995747
 40
-0.2617993877991494
 40
1.832595714594046
  0
TABLESTYLE
  5
13D15
102
{ACAD_XDICTIONARY
360
15587
102
}
102
{ACAD_REACTORS
330
13D14
102
}
330
13D14
100
AcDbTableStyle
  3
Standard
 70
     0
 71
     0
 40
1.5
 41
1.5
280
     0
281
     0
  7
STANDARD
140
4.5
170
     2
 62
     0
 63
     7
283
     0
274
    -2
284
     1
 64
     0
275
    -2
285
     1
 65
     0
276
    -2
286
     1
 66
     0
277
    -2
287
     1
 67
     0
278
    -2
288
     1
 68
     0
279
    -2
289
     1
 69
     0
  7
STANDARD
140
6.0
170
     5
 62
     0
 63
     7
283
     0
274
    -2
284
     1
 64
     0
275
    -2
285
     1
 65
     0
276
    -2
286
     1
 66
     0
277
    -2
287
     1
 67
     0
278
    -2
288
     1
 68
     0
279
    -2
289
     1
 69
     0
  7
STANDARD
140
4.5
170
     5
 62
     0
 63
     7
283
     0
274
    -2
284
     1
 64
     0
275
    -2
285
     1
 65
     0
276
    -2
286
     1
 66
     0
277
    -2
287
     1
 67
     0
278
    -2
288
     1
 68
     0
279
    -2
289
     1
 69
     0
  0
VISUALSTYLE
  5
13D01
102
{ACAD_XDICTIONARY
360
157DD
102
}
102
{ACAD_REACTORS
330
13CFB
102
}
330
13CFB
100
AcDbVisualStyle
  2
2dWireframe
 70
     4
 71
     0
 72
     2
 73
     0
 90
        0
 40
-0.6
 41
-30.0
 62
     5
 63
     7
 74
     1
 91
        4
 64
     7
 65
   257
 75
     1
175
     1
 42
1.0
 92
        0
 66
   257
 43
1.0
 76
     1
 77
     6
 78
     2
 67
     7
 79
     5
170
     0
171
     0
290
     0
174
     0
 93
        1
 44
0.0
173
     0
291
     0
 45
0.0
1001
ACAD
1000
AcDbSavedByObjectVersion
1070
     0
  0
VISUALSTYLE
  5
13D00
102
{ACAD_XDICTIONARY
360
157DB
102
}
102
{ACAD_REACTORS
330
13CFB
102
}
330
13CFB
100
AcDbVisualStyle
  2
Basic
 70
     7
 71
     1
 72
     0
 73
     1
 90
        0
 40
-0.6
 41
-30.0
 62
     5
 63
     7
 74
     0
 91
        4
 64
     7
 65
   257
 75
     1
175
     1
 42
1.0
 92
        8
 66
     7
 43
1.0
 76
     1
 77
     6
 78
     2
 67
     7
 79
     5
170
     0
171
     0
290
     0
174
     0
 93
        1
 44
0.0
173
     0
291
     1
 45
0.0
1001
ACAD
1000
AcDbSavedByObjectVersion
1070
     0
  0
VISUALSTYLE
  5
13D07
102
{ACAD_XDICTIONARY
360
157E9
102
}
102
{ACAD_REACTORS
330
13CFB
102
}
330
13CFB
100
AcDbVisualStyle
  2
Brighten
 70
    12
 71
     2
 72
     2
 73
     0
 90
        0
 40
-0.6
 41
-30.0
 62
     5
 63
     7
 74
     1
 91
        4
 64
     7
 65
   257
 75
     1
175
     1
 42
1.0
 92
        8
 66
     7
 43
1.0
 76
     1
 77
     6
 78
     2
 67
     7
 79
     5
170
     0
171
     0
290
     0
174
     0
 93
        1
 44
50.0
173
     0
291
     1
 45
0.0
1001
ACAD
1000
AcDbSavedByObjectVersion
1070
     0
  0
VISUALSTYLE
  5
13D0B
102
{ACAD_XDICTIONARY
360
157F1
102
}
102
{ACAD_REACTORS
330
13CFB
102
}
330
13CFB
100
AcDbVisualStyle
  2
ColorChange
 70
    16
 71
     2
 72
     2
 73
     3
 90
        0
 40
-0.6
 41
-30.0
 62
     5
 63
     8
 74
     1
 91
        4
 64
     7
 65
   257
 75
     1
175
     1
 42
1.0
 92
        8
 66
     8
 43
1.0
 76
     1
 77
     6
 78
     2
 67
     7
 79
     5
170
     0
171
     0
290
     0
174
     0
 93
        1
 44
0.0
173
     0
291
     1
 45
0.0
1001
ACAD
1000
AcDbSavedByObjectVersion
1070
     0
  0
VISUALSTYLE
  5
13D04
102
{ACAD_XDICTIONARY
360
157E3
102
}
102
{ACAD_REACTORS
330
13CFB
102
}
330
13CFB
100
AcDbVisualStyle
  2
Conceptual
 70
     9
 71
     3
 72
     2
 73
     0
 90
        0
 40
-0.6
 41
-30.0
 62
     5
 63
     7
 74
     2
 91
        2
 64
     7
 65
   257
 75
     1
175
     1
 42
179.0
 92
        8
 66
     7
 43
1.0
 76
     1
 77
     6
 78
     2
 67
     7
 79
     3
170
     0
171
     0
290
     0
174
     0
 93
        1
 44
0.0
173
     0
291
     0
 45
0.0
1001
ACAD
1000
AcDbSavedByObjectVersion
1070
     0
  0
VISUALSTYLE
  5
13D06
102
{ACAD_XDICTIONARY
360
157E7
102
}
102
{ACAD_REACTORS
330
13CFB
102
}
330
13CFB
100
AcDbVisualStyle
  2
Dim
 70
    11
 71
     2
 72
     2
 73
     0
 90
        0
 40
-0.6
 41
-30.0
 62
     5
 63
     7
 74
     1
 91
        4
 64
     7
 65
   257
 75
     1
175
     1
 42
1.0
 92
        8
 66
     7
 43
1.0
 76
     1
 77
     6
 78
     2
 67
     7
 79
     5
170
     0
171
     0
290
     0
174
     0
 93
        1
 44
-50.0
173
     0
291
     1
 45
0.0
1001
ACAD
1000
AcDbSavedByObjectVersion
1070
     0
  0
VISUALSTYLE
  5
13D13
102
{ACAD_XDICTIONARY
360
15801
102
}
102
{ACAD_REACTORS
330
13CFB
102
}
330
13CFB
100
AcDbVisualStyle
  2
EdgeColorOff
 70
    22
 71
     2
 72
     2
 73
     0
 90
        0
 40
-0.6
 41
-30.0
 62
     5
 63
     7
 74
     1
 91
        4
 64
     7
 65
   257
 75
     1
175
     1
 42
1.0
 92
        8
 66
     7
 43
1.0
 76
     1
 77
     6
 78
     2
 67
     7
 79
     5
170
     0
171
     0
290
     0
174
     0
 93
        1
 44
0.0
173
     0
291
     1
 45
0.0
1001
ACAD
1000
AcDbSavedByObjectVersion
1070
     0
  0
VISUALSTYLE
  5
13D0A
102
{ACAD_XDICTIONARY
360
157EF
102
}
102
{ACAD_REACTORS
330
13CFB
102
}
330
13CFB
100
AcDbVisualStyle
  2
Facepattern
 70
    15
 71
     2
 72
     2
 73
     0
 90
        0
 40
-0.6
 41
-30.0
 62
     5
 63
     7
 74
     1
 91
        4
 64
     7
 65
   257
 75
     1
175
     1
 42
1.0
 92
        8
 66
     7
 43
1.0
 76
     1
 77
     6
 78
     2
 67
     7
 79
     5
170
     0
171
     0
290
     0
174
     0
 93
        1
 44
0.0
173
     0
291
     1
 45
0.0
1001
ACAD
1000
AcDbSavedByObjectVersion
1070
     0
  0
VISUALSTYLE
  5
13CFC
102
{ACAD_XDICTIONARY
360
157D3
102
}
102
{ACAD_REACTORS
330
13CFB
102
}
330
13CFB
100
AcDbVisualStyle
  2
Flat
 70
     0
 71
     2
 72
     1
 73
     1
 90
        2
 40
-0.6
 41
30.0
 62
     5
 63
     7
 74
     0
 91
        0
 64
     7
 65
   257
 75
     1
175
     1
 42
1.0
 92
        8
 66
     7
 43
1.0
 76
     1
 77
     6
 78
     2
 67
     7
 79
     5
170
     0
171
     0
290
     0
174
     0
 93
       13
 44
0.0
173
     0
291
     1
 45
0.0
1001
ACAD
1000
AcDbSavedByObjectVersion
1070
     0
  0
VISUALSTYLE
  5
13CFD
102
{ACAD_XDICTIONARY
360
157D5
102
}
102
{ACAD_REACTORS
330
13CFB
102
}
330
13CFB
100
AcDbVisualStyle
  2
FlatWithEdges
 70
     1
 71
     2
 72
     1
 73
     1
 90
        2
 40
-0.6
 41
30.0
 62
     5
 63
     7
 74
     1
 91
        0
 64
     7
 65
   257
 75
     1
175
     1
 42
1.0
 92
        0
 66
   257
 43
1.0
 76
     1
 77
     6
 78
     2
 67
     7
 79
     5
170
     0
171
     0
290
     0
174
     0
 93
       13
 44
0.0
173
     0
291
     1
 45
0.0
1001
ACAD
1000
AcDbSavedByObjectVersion
1070
     0
  0
VISUALSTYLE
  5
13CFE
102
{ACAD_XDICTIONARY
360
157D7
102
}
102
{ACAD_REACTORS
330
13CFB
102
}
330
13CFB
100
AcDbVisualStyle
  2
Gouraud
 70
     2
 71
     2
 72
     2
 73
     1
 90
        2
 40
-0.6
 41
30.0
 62
     5
 63
     7
 74
     0
 91
        0
 64
     7
 65
   257
 75
     1
175
     1
 42
1.0
 92
        0
 66
     7
 43
1.0
 76
     1
 77
     6
 78
     2
 67
     7
 79
     5
170
     0
171
     0
290
     0
174
     0
 93
       13
 44
0.0
173
     0
291
     1
 45
0.0
1001
ACAD
1000
AcDbSavedByObjectVersion
1070
     0
  0
VISUALSTYLE
  5
13CFF
102
{ACAD_XDICTIONARY
360
157D9
102
}
102
{ACAD_REACTORS
330
13CFB
102
}
330
13CFB
100
AcDbVisualStyle
  2
GouraudWithEdges
 70
     3
 71
     2
 72
     2
 73
     1
 90
        2
 40
-0.6
 41
30.0
 62
     5
 63
     7
 74
     1
 91
        0
 64
     7
 65
   257
 75
     1
175
     1
 42
1.0
 92
        0
 66
   257
 43
1.0
 76
     1
 77
     6
 78
     2
 67
     7
 79
     5
170
     0
171
     0
290
     0
174
     0
 93
       13
 44
0.0
173
     0
291
     1
 45
0.0
1001
ACAD
1000
AcDbSavedByObjectVersion
1070
     0
  0
VISUALSTYLE
  5
13D03
102
{ACAD_XDICTIONARY
360
157E1
102
}
102
{ACAD_REACTORS
330
13CFB
102
}
330
13CFB
100
AcDbVisualStyle
  2
Hidden
 70
     6
 71
     1
 72
     2
 73
     2
 90
        0
 40
-0.6
 41
-30.0
 62
     5
 63
     7
 74
     2
 91
        2
 64
     7
 65
   257
 75
     2
175
     1
 42
40.0
 92
        0
 66
   257
 43
1.0
 76
     1
 77
     6
 78
     2
 67
     7
 79
     3
170
     0
171
     0
290
     0
174
     0
 93
        1
 44
0.0
173
     0
291
     0
 45
0.0
1001
ACAD
1000
AcDbSavedByObjectVersion
1070
     0
  0
VISUALSTYLE
  5
13D11
102
{ACAD_XDICTIONARY
360
157FD
102
}
102
{ACAD_REACTORS
330
13CFB
102
}
330
13CFB
100
AcDbVisualStyle
  2
JitterOff
 70
    20
 71
     2
 72
     2
 73
     0
 90
        0
 40
-0.6
 41
-30.0
 62
     5
 63
     7
 74
     1
 91
        4
 64
     7
 65
   257
 75
     1
175
     1
 42
1.0
 92
       10
 66
     7
 43
1.0
 76
     1
 77
     6
 78
     2
 67
     7
 79
     5
170
     0
171
     0
290
     0
174
     0
 93
        1
 44
0.0
173
     0
291
     1
 45
0.0
1001
ACAD
1000
AcDbSavedByObjectVersion
1070
     0
  0
VISUALSTYLE
  5
13D09
102
{ACAD_XDICTIONARY
360
157ED
102
}
102
{ACAD_REACTORS
330
13CFB
102
}
330
13CFB
100
AcDbVisualStyle
  2
Linepattern
 70
    14
 71
     2
 72
     2
 73
     0
 90
        0
 40
-0.6
 41
-30.0
 62
     5
 63
     7
 74
     1
 91
        4
 64
     7
 65
   257
 75
     7
175
     7
 42
1.0
 92
        8
 66
     7
 43
1.0
 76
     1
 77
     6
 78
     2
 67
     7
 79
     5
170
     0
171
     0
290
     0
174
     0
 93
        1
 44
0.0
173
     0
291
     1
 45
0.0
1001
ACAD
1000
AcDbSavedByObjectVersion
1070
     0
  0
VISUALSTYLE
  5
13D12
102
{ACAD_XDICTIONARY
360
157FF
102
}
102
{ACAD_REACTORS
330
13CFB
102
}
330
13CFB
100
AcDbVisualStyle
  2
OverhangOff
 70
    21
 71
     2
 72
     2
 73
     0
 90
        0
 40
-0.6
 41
-30.0
 62
     5
 63
     7
 74
     1
 91
        4
 64
     7
 65
   257
 75
     1
175
     1
 42
1.0
 92
        9
 66
     7
 43
1.0
 76
     1
 77
     6
 78
     2
 67
     7
 79
     5
170
     0
171
     0
290
     0
174
     0
 93
        1
 44
0.0
173
     0
291
     1
 45
0.0
1001
ACAD
1000
AcDbSavedByObjectVersion
1070
     0
  0
VISUALSTYLE
  5
13D05
102
{ACAD_XDICTIONARY
360
157E5
102
}
102
{ACAD_REACTORS
330
13CFB
102
}
330
13CFB
100
AcDbVisualStyle
  2
Realistic
 70
     8
 71
     2
 72
     2
 73
     0
 90
        2
 40
-0.6
 41
30.0
 62
     5
 63
     7
 74
     0
 91
        0
 64
     7
 65
   257
 75
     1
175
     1
 42
1.0
 92
        8
 66
   257
 43
1.0
 76
     1
 77
     6
 78
     2
 67
     7
 79
     3
170
     0
171
     0
290
     0
174
     0
 93
       13
 44
0.0
173
     0
291
     0
 45
0.0
1001
ACAD
1000
AcDbSavedByObjectVersion
1070
     0
  0
VISUALSTYLE
  5
13D10
102
{ACAD_XDICTIONARY
360
157FB
102
}
102
{ACAD_REACTORS
330
13CFB
102
}
330
13CFB
100
AcDbVisualStyle
  2
Shaded
 70
    27
 71
     2
 72
     2
 73
     1
 90
        2
 40
-0.6
 41
30.0
 62
     5
 63
     7
 74
     0
 91
        4
 64
     7
 65
   257
 75
     1
175
     1
 42
1.0
 92
        8
 66
   257
 43
1.0
 76
     1
 77
     6
 78
     2
 67
     8
 79
     3
170
     0
171
     0
290
     0
174
     0
 93
        5
 44
0.0
173
     0
291
     0
 45
0.0
1001
ACAD
1000
AcDbSavedByObjectVersion
1070
     0
  0
VISUALSTYLE
  5
13D0F
102
{ACAD_XDICTIONARY
360
157F9
102
}
102
{ACAD_REACTORS
330
13CFB
102
}
330
13CFB
100
AcDbVisualStyle
  2
Shaded with edges
 70
    26
 71
     2
 72
     2
 73
     1
 90
        2
 40
-0.6
 41
30.0
 62
     5
 63
     7
 74
     1
 91
       10
 64
     7
 65
   257
 75
     2
175
     1
 42
1.0
 92
        8
 66
   257
 43
1.0
 76
     1
 77
     6
 78
     2
 67
     7
 79
     3
170
     0
171
     0
290
     0
174
     0
 93
        5
 44
0.0
173
     0
291
     0
 45
0.0
1001
ACAD
1000
AcDbSavedByObjectVersion
1070
     0
  0
VISUALSTYLE
  5
13D0C
102
{ACAD_XDICTIONARY
360
157F3
102
}
102
{ACAD_REACTORS
330
13CFB
102
}
330
13CFB
100
AcDbVisualStyle
  2
Shades of Gray
 70
    23
 71
     2
 72
     2
 73
     3
 90
        0
 40
-0.6
 41
-30.0
 62
     5
 63
     7
 74
     2
 91
        2
 64
     7
 65
     7
 75
     1
175
     1
 42
40.0
 92
        8
 66
     7
 43
1.0
 76
     1
 77
     6
 78
     2
 67
     7
 79
     3
170
     0
171
     0
290
     0
174
     0
 93
        1
 44
0.0
173
     0
291
     0
 45
0.0
1001
ACAD
1000
AcDbSavedByObjectVersion
1070
     0
  0
VISUALSTYLE
  5
13D0D
102
{ACAD_XDICTIONARY
360
157F5
102
}
102
{ACAD_REACTORS
330
13CFB
102
}
330
13CFB
100
AcDbVisualStyle
  2
Sketchy
 70
    24
 71
     1
 72
     2
 73
     2
 90
        0
 40
-0.6
 41
-30.0
 62
     5
 63
     7
 74
     2
 91
        2
 64
     7
 65
     7
 75
     1
175
     1
 42
40.0
 92
       11
 66
     7
 43
1.0
 76
     1
 77
     6
 78
     2
 67
     7
 79
     6
170
     0
171
     0
290
     0
174
     0
 93
        1
 44
0.0
173
     0
291
     0
 45
0.0
1001
ACAD
1000
AcDbSavedByObjectVersion
1070
     0
  0
VISUALSTYLE
  5
13D08
102
{ACAD_XDICTIONARY
360
157EB
102
}
102
{ACAD_REACTORS
330
13CFB
102
}
330
13CFB
100
AcDbVisualStyle
  2
Thicken
 70
    13
 71
     2
 72
     2
 73
     0
 90
        0
 40
-0.6
 41
-30.0
 62
     5
 63
     7
 74
     1
 91
        4
 64
     7
 65
   257
 75
     1
175
     1
 42
1.0
 92
       12
 66
     7
 43
1.0
 76
     1
 77
     6
 78
     2
 67
     7
 79
     5
170
     0
171
     0
290
     0
174
     0
 93
        1
 44
0.0
173
     0
291
     1
 45
0.0
1001
ACAD
1000
AcDbSavedByObjectVersion
1070
     0
  0
VISUALSTYLE
  5
13D02
102
{ACAD_XDICTIONARY
360
157DF
102
}
102
{ACAD_REACTORS
330
13CFB
102
}
330
13CFB
100
AcDbVisualStyle
  2
Wireframe
 70
     5
 71
     0
 72
     2
 73
     0
 90
        0
 40
-0.6
 41
-30.0
 62
     5
 63
     7
 74
     1
 91
        4
 64
     7
 65
   257
 75
     1
175
     1
 42
1.0
 92
        0
 66
   257
 43
1.0
 76
     1
 77
     6
 78
     2
 67
     7
 79
     3
170
     0
171
     0
290
     0
174
     0
 93
        1
 44
0.0
173
     0
291
     0
 45
0.0
1001
ACAD
1000
AcDbSavedByObjectVersion
1070
     0
  0
VISUALSTYLE
  5
13D0E
102
{ACAD_XDICTIONARY
360
157F7
102
}
102
{ACAD_REACTORS
330
13CFB
102
}
330
13CFB
100
AcDbVisualStyle
  2
X-Ray
 70
    25
 71
     2
 72
     2
 73
     1
 90
        1
 40
0.5
 41
-30.0
 62
     5
 63
     7
 74
     1
 91
        0
 64
     7
 65
   257
 75
     1
175
     1
 42
1.0
 92
        8
 66
     7
 43
1.0
 76
     1
 77
     6
 78
     2
 67
     7
 79
     3
170
     0
171
     0
290
     0
174
     0
 93
       13
 44
0.0
173
     0
291
     0
 45
0.0
1001
ACAD
1000
AcDbSavedByObjectVersion
1070
     0
  0
DICTIONARYVAR
  5
155D0
102
{ACAD_REACTORS
330
13533
102
}
330
13533
100
DictionaryVariables
280
     0
  1
1:1
  0
DICTIONARYVAR
  5
155CD
102
{ACAD_REACTORS
330
13533
102
}
330
13533
100
DictionaryVariables
280
     0
  1
STANDARD
  0
DICTIONARYVAR
  5
155CC
102
{ACAD_REACTORS
330
13533
102
}
330
13533
100
DictionaryVariables
280
     0
  1
STANDARD
  0
DICTIONARYVAR
  5
155CE
102
{ACAD_REACTORS
330
13533
102
}
330
13533
100
DictionaryVariables
280
     0
  1
Metric50
  0
DICTIONARYVAR
  5
155CF
102
{ACAD_REACTORS
330
13533
102
}
330
13533
100
DictionaryVariables
280
     0
  1
Metric50
  0
DICTIONARYVAR
  5
13534
102
{ACAD_REACTORS
330
13533
102
}
330
13533
100
DictionaryVariables
280
     0
  1
1
  0
DICTIONARYVAR
  5
155D2
102
{ACAD_REACTORS
330
13533
102
}
330
13533
100
DictionaryVariables
280
     0
  1
0
  0
DICTIONARYVAR
  5
13535
102
{ACAD_REACTORS
330
13533
102
}
330
13533
100
DictionaryVariables
280
     0
  1

  0
DICTIONARYVAR
  5
155D1
102
{ACAD_REACTORS
330
13533
102
}
330
13533
100
DictionaryVariables
280
     0
  1
127
  0
DICTIONARYVAR
  5
157C8
102
{ACAD_REACTORS
330
13533
102
}
330
13533
100
DictionaryVariables
280
     0
  1
2
  0
DICTIONARY
  5
15808
330
13D2D
100
AcDbDictionary
280
     1
281
     1
  3
ACAD_XREC_ROUNDTRIP
360
15809
  0
DICTIONARY
  5
157CC
330
13420
100
AcDbDictionary
280
     1
281
     1
  3
ACAD_XREC_ROUNDTRIP
360
157CD
  0
DICTIONARY
  5
157CE
330
13421
100
AcDbDictionary
280
     1
281
     1
  3
ACAD_XREC_ROUNDTRIP
360
157CF
  0
DICTIONARY
  5
13CEC
330
13CEB
100
AcDbDictionary
280
     1
281
     1
  3
ACAD_XREC_ROUNDTRIP
360
157D1
  3
BUMPTILE
360
13CEE
  3
DIFFUSETILE
360
13CED
  3
OPACITYTILE
360
13CF1
  3
REFLECTIONTILE
360
13CF0
  3
REFRACTIONTILE
360
13CF2
  3
SPECULARTILE
360
13CEF
  0
DICTIONARY
  5
13CE4
330
13CE3
100
AcDbDictionary
280
     1
281
     1
  3
ACAD_XREC_ROUNDTRIP
360
157D0
  3
BUMPTILE
360
13CE6
  3
DIFFUSETILE
360
13CE5
  3
OPACITYTILE
360
13CE9
  3
REFLECTIONTILE
360
13CE8
  3
REFRACTIONTILE
360
13CEA
  3
SPECULARTILE
360
13CE7
  0
DICTIONARY
  5
13CF4
330
13CF3
100
AcDbDictionary
280
     1
281
     1
  3
ACAD_XREC_ROUNDTRIP
360
157D2
  3
BUMPTILE
360
13CF6
  3
DIFFUSETILE
360
13CF5
  3
OPACITYTILE
360
13CF9
  3
REFLECTIONTILE
360
13CF8
  3
REFRACTIONTILE
360
13CFA
  3
SPECULARTILE
360
13CF7
  0
DICTIONARY
  5
15804
330
13D29
100
AcDbDictionary
280
     1
281
     1
  3
ACAD_XREC_ROUNDTRIP
360
15805
  0
DICTIONARY
  5
15806
330
13D2B
100
AcDbDictionary
280
     1
281
     1
  3
ACAD_XREC_ROUNDTRIP
360
15807
  0
DICTIONARY
  5
15587
330
13D15
100
AcDbDictionary
280
     1
281
     1
  3
ACAD_ROUNDTRIP_2008_TABLESTYLE_CELLSTYLEMAP
360
157C9
  3
ACAD_XREC_ROUNDTRIP
360
15803
  0
DICTIONARY
  5
157DD
330
13D01
100
AcDbDictionary
280
     1
281
     1
  3
ACAD_XREC_ROUNDTRIP
360
157DE
  0
DICTIONARY
  5
157DB
330
13D00
100
AcDbDictionary
280
     1
281
     1
  3
ACAD_XREC_ROUNDTRIP
360
157DC
  0
DICTIONARY
  5
157E9
330
13D07
100
AcDbDictionary
280
     1
281
     1
  3
ACAD_XREC_ROUNDTRIP
360
157EA
  0
DICTIONARY
  5
157F1
330
13D0B
100
AcDbDictionary
280
     1
281
     1
  3
ACAD_XREC_ROUNDTRIP
360
157F2
  0
DICTIONARY
  5
157E3
330
13D04
100
AcDbDictionary
280
     1
281
     1
  3
ACAD_XREC_ROUNDTRIP
360
157E4
  0
DICTIONARY
  5
157E7
330
13D06
100
AcDbDictionary
280
     1
281
     1
  3
ACAD_XREC_ROUNDTRIP
360
157E8
  0
DICTIONARY
  5
15801
330
13D13
100
AcDbDictionary
280
     1
281
     1
  3
ACAD_XREC_ROUNDTRIP
360
15802
  0
DICTIONARY
  5
157EF
330
13D0A
100
AcDbDictionary
280
     1
281
     1
  3
ACAD_XREC_ROUNDTRIP
360
157F0
  0
DICTIONARY
  5
157D3
330
13CFC
100
AcDbDictionary
280
     1
281
     1
  3
ACAD_XREC_ROUNDTRIP
360
157D4
  0
DICTIONARY
  5
157D5
330
13CFD
100
AcDbDictionary
280
     1
281
     1
  3
ACAD_XREC_ROUNDTRIP
360
157D6
  0
DICTIONARY
  5
157D7
330
13CFE
100
AcDbDictionary
280
     1
281
     1
  3
ACAD_XREC_ROUNDTRIP
360
157D8
  0
DICTIONARY
  5
157D9
330
13CFF
100
AcDbDictionary
280
     1
281
     1
  3
ACAD_XREC_ROUNDTRIP
360
157DA
  0
DICTIONARY
  5
157E1
330
13D03
100
AcDbDictionary
280
     1
281
     1
  3
ACAD_XREC_ROUNDTRIP
360
157E2
  0
DICTIONARY
  5
157FD
330
13D11
100
AcDbDictionary
280
     1
281
     1
  3
ACAD_XREC_ROUNDTRIP
360
157FE
  0
DICTIONARY
  5
157ED
330
13D09
100
AcDbDictionary
280
     1
281
     1
  3
ACAD_XREC_ROUNDTRIP
360
157EE
  0
DICTIONARY
  5
157FF
330
13D12
100
AcDbDictionary
280
     1
281
     1
  3
ACAD_XREC_ROUNDTRIP
360
15800
  0
DICTIONARY
  5
157E5
330
13D05
100
AcDbDictionary
280
     1
281
     1
  3
ACAD_XREC_ROUNDTRIP
360
157E6
  0
DICTIONARY
  5
157FB
330
13D10
100
AcDbDictionary
280
     1
281
     1
  3
ACAD_XREC_ROUNDTRIP
360
157FC
  0
DICTIONARY
  5
157F9
330
13D0F
100
AcDbDictionary
280
     1
281
     1
  3
ACAD_XREC_ROUNDTRIP
360
157FA
  0
DICTIONARY
  5
157F3
330
13D0C
100
AcDbDictionary
280
     1
281
     1
  3
ACAD_XREC_ROUNDTRIP
360
157F4
  0
DICTIONARY
  5
157F5
330
13D0D
100
AcDbDictionary
280
     1
281
     1
  3
ACAD_XREC_ROUNDTRIP
360
157F6
  0
DICTIONARY
  5
157EB
330
13D08
100
AcDbDictionary
280
     1
281
     1
  3
ACAD_XREC_ROUNDTRIP
360
157EC
  0
DICTIONARY
  5
157DF
330
13D02
100
AcDbDictionary
280
     1
281
     1
  3
ACAD_XREC_ROUNDTRIP
360
157E0
  0
DICTIONARY
  5
157F7
330
13D0E
100
AcDbDictionary
280
     1
281
     1
  3
ACAD_XREC_ROUNDTRIP
360
157F8
  0
XRECORD
  5
15809
102
{ACAD_REACTORS
330
15808
102
}
330
15808
100
AcDbXrecord
280
     1
102
DISPLAYNAME
  1
Metric50
102
FLAGS
 90
        0
  0
XRECORD
  5
157CD
102
{ACAD_REACTORS
330
157CC
102
}
330
157CC
100
AcDbXrecord
280
     1
102
SHADEPLOT
 70
     0
102
SHADEPLOTRESLEVEL
 70
     2
102
SHADEPLOTCUSTOMDPI
 70
   300
  0
XRECORD
  5
157CF
102
{ACAD_REACTORS
330
157CE
102
}
330
157CE
100
AcDbXrecord
280
     1
102
SHADEPLOT
 70
     0
102
SHADEPLOTRESLEVEL
 70
     2
102
SHADEPLOTCUSTOMDPI
 70
   300
  0
XRECORD
  5
157D1
102
{ACAD_REACTORS
330
13CEC
102
}
330
13CEC
100
AcDbXrecord
280
     1
102
MATERIAL
148
0.0
149
0.0
149
0.0
 93
        0
 94
      127
282
     0
 72
     0
 77
     0
171
     0
175
     0
179
     0
273
     0
  0
XRECORD
  5
13CEE
102
{ACAD_REACTORS
330
13CEC
102
}
330
13CEC
100
AcDbXrecord
280
     1
270
     1
271
     1
  0
XRECORD
  5
13CED
102
{ACAD_REACTORS
330
13CEC
102
}
330
13CEC
100
AcDbXrecord
280
     1
270
     1
271
     1
  0
XRECORD
  5
13CF1
102
{ACAD_REACTORS
330
13CEC
102
}
330
13CEC
100
AcDbXrecord
280
     1
270
     1
271
     1
  0
XRECORD
  5
13CF0
102
{ACAD_REACTORS
330
13CEC
102
}
330
13CEC
100
AcDbXrecord
280
     1
270
     1
271
     1
  0
XRECORD
  5
13CF2
102
{ACAD_REACTORS
330
13CEC
102
}
330
13CEC
100
AcDbXrecord
280
     1
270
     1
271
     1
  0
XRECORD
  5
13CEF
102
{ACAD_REACTORS
330
13CEC
102
}
330
13CEC
100
AcDbXrecord
280
     1
270
     1
271
     1
  0
XRECORD
  5
157D0
102
{ACAD_REACTORS
330
13CE4
102
}
330
13CE4
100
AcDbXrecord
280
     1
102
MATERIAL
148
0.0
149
0.0
149
0.0
 93
        0
 94
      127
282
     0
 72
     0
 77
     0
171
     0
175
     0
179
     0
273
     0
  0
XRECORD
  5
13CE6
102
{ACAD_REACTORS
330
13CE4
102
}
330
13CE4
100
AcDbXrecord
280
     1
270
     1
271
     1
  0
XRECORD
  5
13CE5
102
{ACAD_REACTORS
330
13CE4
102
}
330
13CE4
100
AcDbXrecord
280
     1
270
     1
271
     1
  0
XRECORD
  5
13CE9
102
{ACAD_REACTORS
330
13CE4
102
}
330
13CE4
100
AcDbXrecord
280
     1
270
     1
271
     1
  0
XRECORD
  5
13CE8
102
{ACAD_REACTORS
330
13CE4
102
}
330
13CE4
100
AcDbXrecord
280
     1
270
     1
271
     1
  0
XRECORD
  5
13CEA
102
{ACAD_REACTORS
330
13CE4
102
}
330
13CE4
100
AcDbXrecord
280
     1
270
     1
271
     1
  0
XRECORD
  5
13CE7
102
{ACAD_REACTORS
330
13CE4
102
}
330
13CE4
100
AcDbXrecord
280
     1
270
     1
271
     1
  0
XRECORD
  5
157D2
102
{ACAD_REACTORS
330
13CF4
102
}
330
13CF4
100
AcDbXrecord
280
     1
102
MATERIAL
148
0.0
149
0.0
149
0.0
 93
        0
 94
      127
282
     0
 72
     0
 77
     0
171
     0
175
     0
179
     0
273
     0
  0
XRECORD
  5
13CF6
102
{ACAD_REACTORS
330
13CF4
102
}
330
13CF4
100
AcDbXrecord
280
     1
270
     1
271
     1
  0
XRECORD
  5
13CF5
102
{ACAD_REACTORS
330
13CF4
102
}
330
13CF4
100
AcDbXrecord
280
     1
270
     1
271
     1
  0
XRECORD
  5
13CF9
102
{ACAD_REACTORS
330
13CF4
102
}
330
13CF4
100
AcDbXrecord
280
     1
270
     1
271
     1
  0
XRECORD
  5
13CF8
102
{ACAD_REACTORS
330
13CF4
102
}
330
13CF4
100
AcDbXrecord
280
     1
270
     1
271
     1
  0
XRECORD
  5
13CFA
102
{ACAD_REACTORS
330
13CF4
102
}
330
13CF4
100
AcDbXrecord
280
     1
270
     1
271
     1
  0
XRECORD
  5
13CF7
102
{ACAD_REACTORS
330
13CF4
102
}
330
13CF4
100
AcDbXrecord
280
     1
270
     1
271
     1
  0
XRECORD
  5
15805
102
{ACAD_REACTORS
330
15804
102
}
330
15804
100
AcDbXrecord
280
     1
102
ACAD_ROUNDTRIP_2012_MLEADER_STYLE
298
     1
  0
XRECORD
  5
15807
102
{ACAD_REACTORS
330
15806
102
}
330
15806
100
AcDbXrecord
280
     1
102
DISPLAYNAME
  1
Metric50
102
FLAGS
 90
        0
  0
CELLSTYLEMAP
  5
157C9
102
{ACAD_REACTORS
330
15587
102
}
330
15587
100
AcDbCellStyleMap
 90
        3
300
CELLSTYLE
  1
TABLEFORMAT_BEGIN
 90
        5
170
     1
 91
        0
 92
    32768
 62
   257
 93
        1
300
CONTENTFORMAT
  1
CONTENTFORMAT_BEGIN
 90
        0
 91
        0
 92
      512
 93
        0
300

 40
0.0
140
1.0
 94
        5
 62
     0
340
7475
144
6.0
309
CONTENTFORMAT_END
171
     1
301
MARGIN
  1
CELLMARGIN_BEGIN
 40
1.5
 40
1.5
 40
1.5
 40
1.5
 40
4.5
 40
4.5
309
CELLMARGIN_END
 94
        6
 95
        1
302
GRIDFORMAT
  1
GRIDFORMAT_BEGIN
 90
        0
 91
        1
 62
     0
 92
       -2
340
0
 93
        0
 40
1.125
309
GRIDFORMAT_END
 95
        2
302
GRIDFORMAT
  1
GRIDFORMAT_BEGIN
 90
        0
 91
        1
 62
     0
 92
       -2
340
0
 93
        0
 40
1.125
309
GRIDFORMAT_END
 95
        4
302
GRIDFORMAT
  1
GRIDFORMAT_BEGIN
 90
        0
 91
        1
 62
     0
 92
       -2
340
0
 93
        0
 40
1.125
309
GRIDFORMAT_END
 95
        8
302
GRIDFORMAT
  1
GRIDFORMAT_BEGIN
 90
        0
 91
        1
 62
     0
 92
       -2
340
0
 93
        0
 40
1.125
309
GRIDFORMAT_END
 95
       16
302
GRIDFORMAT
  1
GRIDFORMAT_BEGIN
 90
        0
 91
        1
 62
     0
 92
       -2
340
0
 93
        0
 40
1.125
309
GRIDFORMAT_END
 95
       32
302
GRIDFORMAT
  1
GRIDFORMAT_BEGIN
 90
        0
 91
        1
 62
     0
 92
       -2
340
0
 93
        0
 40
1.125
309
GRIDFORMAT_END
309
TABLEFORMAT_END
  1
CELLSTYLE_BEGIN
 90
        1
 91
        1
300
_TITLE
309
CELLSTYLE_END
300
CELLSTYLE
  1
TABLEFORMAT_BEGIN
 90
        5
170
     1
 91
        0
 92
        0
 62
   257
 93
        1
300
CONTENTFORMAT
  1
CONTENTFORMAT_BEGIN
 90
        0
 91
        0
 92
      512
 93
        0
300

 40
0.0
140
1.0
 94
        5
 62
     0
340
7475
144
4.5
309
CONTENTFORMAT_END
171
     1
301
MARGIN
  1
CELLMARGIN_BEGIN
 40
1.5
 40
1.5
 40
1.5
 40
1.5
 40
4.5
 40
4.5
309
CELLMARGIN_END
 94
        6
 95
        1
302
GRIDFORMAT
  1
GRIDFORMAT_BEGIN
 90
        0
 91
        1
 62
     0
 92
       -2
340
0
 93
        0
 40
1.125
309
GRIDFORMAT_END
 95
        2
302
GRIDFORMAT
  1
GRIDFORMAT_BEGIN
 90
        0
 91
        1
 62
     0
 92
       -2
340
0
 93
        0
 40
1.125
309
GRIDFORMAT_END
 95
        4
302
GRIDFORMAT
  1
GRIDFORMAT_BEGIN
 90
        0
 91
        1
 62
     0
 92
       -2
340
0
 93
        0
 40
1.125
309
GRIDFORMAT_END
 95
        8
302
GRIDFORMAT
  1
GRIDFORMAT_BEGIN
 90
        0
 91
        1
 62
     0
 92
       -2
340
0
 93
        0
 40
1.125
309
GRIDFORMAT_END
 95
       16
302
GRIDFORMAT
  1
GRIDFORMAT_BEGIN
 90
        0
 91
        1
 62
     0
 92
       -2
340
0
 93
        0
 40
1.125
309
GRIDFORMAT_END
 95
       32
302
GRIDFORMAT
  1
GRIDFORMAT_BEGIN
 90
        0
 91
        1
 62
     0
 92
       -2
340
0
 93
        0
 40
1.125
309
GRIDFORMAT_END
309
TABLEFORMAT_END
  1
CELLSTYLE_BEGIN
 90
        2
 91
        1
300
_HEADER
309
CELLSTYLE_END
300
CELLSTYLE
  1
TABLEFORMAT_BEGIN
 90
        5
170
     1
 91
        0
 92
        0
 62
   257
 93
        1
300
CONTENTFORMAT
  1
CONTENTFORMAT_BEGIN
 90
        0
 91
        0
 92
      512
 93
        0
300

 40
0.0
140
1.0
 94
        2
 62
     0
340
7475
144
4.5
309
CONTENTFORMAT_END
171
     1
301
MARGIN
  1
CELLMARGIN_BEGIN
 40
1.5
 40
1.5
 40
1.5
 40
1.5
 40
4.5
 40
4.5
309
CELLMARGIN_END
 94
        6
 95
        1
302
GRIDFORMAT
  1
GRIDFORMAT_BEGIN
 90
        0
 91
        1
 62
     0
 92
       -2
340
0
 93
        0
 40
1.125
309
GRIDFORMAT_END
 95
        2
302
GRIDFORMAT
  1
GRIDFORMAT_BEGIN
 90
        0
 91
        1
 62
     0
 92
       -2
340
0
 93
        0
 40
1.125
309
GRIDFORMAT_END
 95
        4
302
GRIDFORMAT
  1
GRIDFORMAT_BEGIN
 90
        0
 91
        1
 62
     0
 92
       -2
340
0
 93
        0
 40
1.125
309
GRIDFORMAT_END
 95
        8
302
GRIDFORMAT
  1
GRIDFORMAT_BEGIN
 90
        0
 91
        1
 62
     0
 92
       -2
340
0
 93
        0
 40
1.125
309
GRIDFORMAT_END
 95
       16
302
GRIDFORMAT
  1
GRIDFORMAT_BEGIN
 90
        0
 91
        1
 62
     0
 92
       -2
340
0
 93
        0
 40
1.125
309
GRIDFORMAT_END
 95
       32
302
GRIDFORMAT
  1
GRIDFORMAT_BEGIN
 90
        0
 91
        1
 62
     0
 92
       -2
340
0
 93
        0
 40
1.125
309
GRIDFORMAT_END
309
TABLEFORMAT_END
  1
CELLSTYLE_BEGIN
 90
        3
 91
        2
300
_DATA
309
CELLSTYLE_END
  0
XRECORD
  5
15803
102
{ACAD_REACTORS
330
15587
102
}
330
15587
100
AcDbXrecord
280
     1
102
ACAD_ROUNDTRIP_PRE2007_TABLESTYLE
 90
      512
 91
        0
  1

 92
      512
 93
        0
  2

 94
      512
 95
        0
  3

  0
XRECORD
  5
157DE
102
{ACAD_REACTORS
330
157DD
102
}
330
157DD
100
AcDbXrecord
280
     1
102
RTVSPost2010Prop28
280
     1
102
RTVSPost2010PropOp28
 70
     1
102
RTVSPost2010Prop29
280
     1
102
RTVSPost2010PropOp29
 70
     1
102
RTVSPost2010Prop30
280
     0
102
RTVSPost2010PropOp30
 70
     1
102
RTVSPost2010Prop31
280
     0
102
RTVSPost2010PropOp31
 70
     1
102
RTVSPost2010Prop32
280
     0
102
RTVSPost2010PropOp32
 70
     1
102
RTVSPost2010Prop33
280
     0
102
RTVSPost2010PropOp33
 70
     1
102
RTVSPost2010Prop34
280
     0
102
RTVSPost2010PropOp34
 70
     1
102
RTVSPost2010Prop35
280
     0
102
RTVSPost2010PropOp35
 70
     1
102
RTVSPost2010Prop36
280
     0
102
RTVSPost2010PropOp36
 70
     1
102
RTVSPost2010Prop37
 90
       50
102
RTVSPost2010PropOp37
 70
     1
102
RTVSPost2010Prop38
140
0.0
102
RTVSPost2010PropOp38
 70
     1
102
RTVSPost2010Prop39
140
1.0
102
RTVSPost2010PropOp39
 70
     1
102
RTVSPost2010Prop40
 90
        0
102
RTVSPost2010PropOp40
 70
     1
102
RTVSPost2010Prop41ColorIndex
 90
       18
102
RTVSPost2010Prop41ColorRGB
 90
        0
102
RTVSPost2010PropOp41
 70
     1
102
RTVSPost2010Prop42
 90
       50
102
RTVSPost2010PropOp42
 70
     1
102
RTVSPost2010Prop43
 90
        3
102
RTVSPost2010PropOp43
 70
     1
102
RTVSPost2010Prop44ColorIndex
 90
        5
102
RTVSPost2010Prop44ColorRGB
 90
      255
102
RTVSPost2010PropOp44
 70
     1
102
RTVSPost2010Prop45
280
     0
102
RTVSPost2010PropOp45
 70
     1
102
RTVSPost2010Prop46
 90
       50
102
RTVSPost2010PropOp46
 70
     1
102
RTVSPost2010Prop47
 90
       50
102
RTVSPost2010PropOp47
 70
     1
102
RTVSPost2010Prop48
 90
       50
102
RTVSPost2010PropOp48
 70
     1
102
RTVSPost2010Prop49
280
     0
102
RTVSPost2010PropOp49
 70
     1
102
RTVSPost2010Prop50
 90
       50
102
RTVSPost2010PropOp50
 70
     1
102
RTVSPost2010Prop51ColorIndex
 90
      256
102
RTVSPost2010Prop51ColorRGB
 90
-16777216
102
RTVSPost2010PropOp51
 70
     0
102
RTVSPost2010Prop52
140
1.0
102
RTVSPost2010PropOp52
 70
     0
102
RTVSPost2010Prop53
 90
        2
102
RTVSPost2010PropOp53
 70
     1
102
RTVSPost2010Prop54
  1
strokes_ogs.tif
102
RTVSPost2010PropOp54
 70
     1
102
RTVSPost2010Prop55
280
     0
102
RTVSPost2010PropOp55
 70
     1
102
RTVSPost2010Prop56
140
1.0
102
RTVSPost2010PropOp56
 70
     1
102
RTVSPost2010Prop57
140
1.0
102
RTVSPost2010PropOp57
 70
     1
102
RTVSPropertyOp0
 70
     1
102
RTVSPropertyOp1
 70
     1
102
RTVSPropertyOp2
 70
     1
102
RTVSPropertyOp3
 70
     1
102
RTVSPropertyOp4
 70
     1
102
RTVSPropertyOp5
 70
     1
102
RTVSPropertyOp6
 70
     1
102
RTVSPropertyOp7
 70
     1
102
RTVSPropertyOp8
 70
     1
102
RTVSPropertyOp9
 70
     1
102
RTVSPropertyOp10
 70
     1
102
RTVSPropertyOp11
 70
     1
102
RTVSPropertyOp12
 70
     1
102
RTVSPropertyOp13
 70
     1
102
RTVSPropertyOp14
 70
     1
102
RTVSPropertyOp15
 70
     1
102
RTVSPropertyOp16
 70
     1
102
RTVSPropertyOp17
 70
     1
102
RTVSPropertyOp18
 70
     1
102
RTVSPropertyOp19
 70
     1
102
RTVSPropertyOp20
 70
     1
102
RTVSPropertyOp21
 70
     1
102
RTVSPropertyOp22
 70
     1
102
RTVSPropertyOp23
 70
     1
102
RTVSPropertyOp24
 70
     1
102
RTVSPropertyOp25
 70
     1
102
RTVSPropertyOp26
 70
     1
102
RTVSPropertyOp27
 70
     1
102
RTVSPropertyOp28
 70
     1
102
RTVSPropertyOp29
 70
     1
102
RTVSPropertyOp30
 70
     1
102
RTVSPropertyOp31
 70
     1
102
RTVSPropertyOp32
 70
     1
102
RTVSPropertyOp33
 70
     1
102
RTVSPropertyOp34
 70
     1
102
RTVSPropertyOp35
 70
     1
102
RTVSPropertyOp36
 70
     1
102
RTVSPropertyOp37
 70
     1
102
RTVSPropertyOp38
 70
     1
102
RTVSPropertyOp39
 70
     1
102
RTVSPropertyOp40
 70
     1
102
RTVSPropertyOp41
 70
     1
102
RTVSPropertyOp42
 70
     1
102
RTVSPropertyOp43
 70
     1
102
RTVSPropertyOp44
 70
     1
102
RTVSPropertyOp45
 70
     1
102
RTVSPropertyOp46
 70
     1
102
RTVSPropertyOp47
 70
     1
102
RTVSPropertyOp48
 70
     1
102
RTVSPropertyOp49
 70
     1
102
RTVSPropertyOp50
 70
     1
102
RTVSPropertyOp51
 70
     0
102
RTVSPropertyOp52
 70
     0
102
RTVSPropertyOp53
 70
     1
102
RTVSPropertyOp54
 70
     1
102
RTVSPropertyOp55
 70
     1
102
RTVSPropertyOp56
 70
     1
102
RTVSPropertyOp57
 70
     1
102
RTVSPropertyOp58
 70
     1
102
RTVSPropertyOp59
 70
     1
102
RTVSPropertyOp60
 70
     1
102
RTVSPropertyOp61
 70
     1
102
RTVSPropertyOp62
 70
     1
  0
XRECORD
  5
157DC
102
{ACAD_REACTORS
330
157DB
102
}
330
157DB
100
AcDbXrecord
280
     1
102
RTVSPost2010Prop28
280
     0
102
RTVSPost2010PropOp28
 70
     1
102
RTVSPost2010Prop29
280
     1
102
RTVSPost2010PropOp29
 70
     1
102
RTVSPost2010Prop30
280
     1
102
RTVSPost2010PropOp30
 70
     1
102
RTVSPost2010Prop31
280
     0
102
RTVSPost2010PropOp31
 70
     1
102
RTVSPost2010Prop32
280
     0
102
RTVSPost2010PropOp32
 70
     1
102
RTVSPost2010Prop33
280
     0
102
RTVSPost2010PropOp33
 70
     1
102
RTVSPost2010Prop34
280
     0
102
RTVSPost2010PropOp34
 70
     1
102
RTVSPost2010Prop35
280
     0
102
RTVSPost2010PropOp35
 70
     1
102
RTVSPost2010Prop36
280
     0
102
RTVSPost2010PropOp36
 70
     1
102
RTVSPost2010Prop37
 90
       50
102
RTVSPost2010PropOp37
 70
     1
102
RTVSPost2010Prop38
140
0.0
102
RTVSPost2010PropOp38
 70
     1
102
RTVSPost2010Prop39
140
1.0
102
RTVSPost2010PropOp39
 70
     1
102
RTVSPost2010Prop40
 90
        0
102
RTVSPost2010PropOp40
 70
     1
102
RTVSPost2010Prop41ColorIndex
 90
       18
102
RTVSPost2010Prop41ColorRGB
 90
        0
102
RTVSPost2010PropOp41
 70
     1
102
RTVSPost2010Prop42
 90
       50
102
RTVSPost2010PropOp42
 70
     1
102
RTVSPost2010Prop43
 90
        3
102
RTVSPost2010PropOp43
 70
     1
102
RTVSPost2010Prop44ColorIndex
 90
        5
102
RTVSPost2010Prop44ColorRGB
 90
      255
102
RTVSPost2010PropOp44
 70
     1
102
RTVSPost2010Prop45
280
     0
102
RTVSPost2010PropOp45
 70
     1
102
RTVSPost2010Prop46
 90
       50
102
RTVSPost2010PropOp46
 70
     1
102
RTVSPost2010Prop47
 90
       50
102
RTVSPost2010PropOp47
 70
     1
102
RTVSPost2010Prop48
 90
       50
102
RTVSPost2010PropOp48
 70
     1
102
RTVSPost2010Prop49
280
     0
102
RTVSPost2010PropOp49
 70
     1
102
RTVSPost2010Prop50
 90
       50
102
RTVSPost2010PropOp50
 70
     1
102
RTVSPost2010Prop51ColorIndex
 90
      256
102
RTVSPost2010Prop51ColorRGB
 90
-16777216
102
RTVSPost2010PropOp51
 70
     0
102
RTVSPost2010Prop52
140
1.0
102
RTVSPost2010PropOp52
 70
     0
102
RTVSPost2010Prop53
 90
        2
102
RTVSPost2010PropOp53
 70
     1
102
RTVSPost2010Prop54
  1
strokes_ogs.tif
102
RTVSPost2010PropOp54
 70
     1
102
RTVSPost2010Prop55
280
     0
102
RTVSPost2010PropOp55
 70
     1
102
RTVSPost2010Prop56
140
1.0
102
RTVSPost2010PropOp56
 70
     1
102
RTVSPost2010Prop57
140
1.0
102
RTVSPost2010PropOp57
 70
     1
102
RTVSPropertyOp0
 70
     1
102
RTVSPropertyOp1
 70
     1
102
RTVSPropertyOp2
 70
     1
102
RTVSPropertyOp3
 70
     1
102
RTVSPropertyOp4
 70
     1
102
RTVSPropertyOp5
 70
     1
102
RTVSPropertyOp6
 70
     1
102
RTVSPropertyOp7
 70
     1
102
RTVSPropertyOp8
 70
     1
102
RTVSPropertyOp9
 70
     1
102
RTVSPropertyOp10
 70
     1
102
RTVSPropertyOp11
 70
     1
102
RTVSPropertyOp12
 70
     1
102
RTVSPropertyOp13
 70
     1
102
RTVSPropertyOp14
 70
     1
102
RTVSPropertyOp15
 70
     1
102
RTVSPropertyOp16
 70
     1
102
RTVSPropertyOp17
 70
     1
102
RTVSPropertyOp18
 70
     1
102
RTVSPropertyOp19
 70
     1
102
RTVSPropertyOp20
 70
     1
102
RTVSPropertyOp21
 70
     1
102
RTVSPropertyOp22
 70
     1
102
RTVSPropertyOp23
 70
     1
102
RTVSPropertyOp24
 70
     1
102
RTVSPropertyOp25
 70
     1
102
RTVSPropertyOp26
 70
     1
102
RTVSPropertyOp27
 70
     1
102
RTVSPropertyOp28
 70
     1
102
RTVSPropertyOp29
 70
     1
102
RTVSPropertyOp30
 70
     1
102
RTVSPropertyOp31
 70
     1
102
RTVSPropertyOp32
 70
     1
102
RTVSPropertyOp33
 70
     1
102
RTVSPropertyOp34
 70
     1
102
RTVSPropertyOp35
 70
     1
102
RTVSPropertyOp36
 70
     1
102
RTVSPropertyOp37
 70
     1
102
RTVSPropertyOp38
 70
     1
102
RTVSPropertyOp39
 70
     1
102
RTVSPropertyOp40
 70
     1
102
RTVSPropertyOp41
 70
     1
102
RTVSPropertyOp42
 70
     1
102
RTVSPropertyOp43
 70
     1
102
RTVSPropertyOp44
 70
     1
102
RTVSPropertyOp45
 70
     1
102
RTVSPropertyOp46
 70
     1
102
RTVSPropertyOp47
 70
     1
102
RTVSPropertyOp48
 70
     1
102
RTVSPropertyOp49
 70
     1
102
RTVSPropertyOp50
 70
     1
102
RTVSPropertyOp51
 70
     0
102
RTVSPropertyOp52
 70
     0
102
RTVSPropertyOp53
 70
     1
102
RTVSPropertyOp54
 70
     1
102
RTVSPropertyOp55
 70
     1
102
RTVSPropertyOp56
 70
     1
102
RTVSPropertyOp57
 70
     1
102
RTVSPropertyOp58
 70
     1
102
RTVSPropertyOp59
 70
     1
102
RTVSPropertyOp60
 70
     1
102
RTVSPropertyOp61
 70
     1
102
RTVSPropertyOp62
 70
     1
  0
XRECORD
  5
157EA
102
{ACAD_REACTORS
330
157E9
102
}
330
157E9
100
AcDbXrecord
280
     1
102
RTVSPost2010Prop28
280
     0
102
RTVSPost2010PropOp28
 70
     1
102
RTVSPost2010Prop29
280
     1
102
RTVSPost2010PropOp29
 70
     1
102
RTVSPost2010Prop30
280
     1
102
RTVSPost2010PropOp30
 70
     1
102
RTVSPost2010Prop31
280
     0
102
RTVSPost2010PropOp31
 70
     1
102
RTVSPost2010Prop32
280
     0
102
RTVSPost2010PropOp32
 70
     1
102
RTVSPost2010Prop33
280
     0
102
RTVSPost2010PropOp33
 70
     1
102
RTVSPost2010Prop34
280
     0
102
RTVSPost2010PropOp34
 70
     1
102
RTVSPost2010Prop35
280
     0
102
RTVSPost2010PropOp35
 70
     1
102
RTVSPost2010Prop36
280
     0
102
RTVSPost2010PropOp36
 70
     1
102
RTVSPost2010Prop37
 90
       50
102
RTVSPost2010PropOp37
 70
     1
102
RTVSPost2010Prop38
140
0.0
102
RTVSPost2010PropOp38
 70
     1
102
RTVSPost2010Prop39
140
1.0
102
RTVSPost2010PropOp39
 70
     1
102
RTVSPost2010Prop40
 90
        0
102
RTVSPost2010PropOp40
 70
     1
102
RTVSPost2010Prop41ColorIndex
 90
       18
102
RTVSPost2010Prop41ColorRGB
 90
        0
102
RTVSPost2010PropOp41
 70
     1
102
RTVSPost2010Prop42
 90
       50
102
RTVSPost2010PropOp42
 70
     1
102
RTVSPost2010Prop43
 90
        3
102
RTVSPost2010PropOp43
 70
     1
102
RTVSPost2010Prop44ColorIndex
 90
        5
102
RTVSPost2010Prop44ColorRGB
 90
      255
102
RTVSPost2010PropOp44
 70
     1
102
RTVSPost2010Prop45
280
     0
102
RTVSPost2010PropOp45
 70
     1
102
RTVSPost2010Prop46
 90
       50
102
RTVSPost2010PropOp46
 70
     1
102
RTVSPost2010Prop47
 90
       50
102
RTVSPost2010PropOp47
 70
     1
102
RTVSPost2010Prop48
 90
       50
102
RTVSPost2010PropOp48
 70
     1
102
RTVSPost2010Prop49
280
     0
102
RTVSPost2010PropOp49
 70
     1
102
RTVSPost2010Prop50
 90
       50
102
RTVSPost2010PropOp50
 70
     1
102
RTVSPost2010Prop51ColorIndex
 90
      256
102
RTVSPost2010Prop51ColorRGB
 90
-16777216
102
RTVSPost2010PropOp51
 70
     0
102
RTVSPost2010Prop52
140
1.0
102
RTVSPost2010PropOp52
 70
     0
102
RTVSPost2010Prop53
 90
        2
102
RTVSPost2010PropOp53
 70
     1
102
RTVSPost2010Prop54
  1
strokes_ogs.tif
102
RTVSPost2010PropOp54
 70
     1
102
RTVSPost2010Prop55
280
     0
102
RTVSPost2010PropOp55
 70
     1
102
RTVSPost2010Prop56
140
1.0
102
RTVSPost2010PropOp56
 70
     1
102
RTVSPost2010Prop57
140
1.0
102
RTVSPost2010PropOp57
 70
     1
102
RTVSPropertyOp0
 70
     1
102
RTVSPropertyOp1
 70
     1
102
RTVSPropertyOp2
 70
     1
102
RTVSPropertyOp3
 70
     1
102
RTVSPropertyOp4
 70
     1
102
RTVSPropertyOp5
 70
     1
102
RTVSPropertyOp6
 70
     1
102
RTVSPropertyOp7
 70
     1
102
RTVSPropertyOp8
 70
     1
102
RTVSPropertyOp9
 70
     1
102
RTVSPropertyOp10
 70
     1
102
RTVSPropertyOp11
 70
     1
102
RTVSPropertyOp12
 70
     1
102
RTVSPropertyOp13
 70
     1
102
RTVSPropertyOp14
 70
     1
102
RTVSPropertyOp15
 70
     1
102
RTVSPropertyOp16
 70
     1
102
RTVSPropertyOp17
 70
     1
102
RTVSPropertyOp18
 70
     1
102
RTVSPropertyOp19
 70
     1
102
RTVSPropertyOp20
 70
     1
102
RTVSPropertyOp21
 70
     1
102
RTVSPropertyOp22
 70
     1
102
RTVSPropertyOp23
 70
     1
102
RTVSPropertyOp24
 70
     1
102
RTVSPropertyOp25
 70
     1
102
RTVSPropertyOp26
 70
     1
102
RTVSPropertyOp27
 70
     1
102
RTVSPropertyOp28
 70
     1
102
RTVSPropertyOp29
 70
     1
102
RTVSPropertyOp30
 70
     1
102
RTVSPropertyOp31
 70
     1
102
RTVSPropertyOp32
 70
     1
102
RTVSPropertyOp33
 70
     1
102
RTVSPropertyOp34
 70
     1
102
RTVSPropertyOp35
 70
     1
102
RTVSPropertyOp36
 70
     1
102
RTVSPropertyOp37
 70
     1
102
RTVSPropertyOp38
 70
     1
102
RTVSPropertyOp39
 70
     1
102
RTVSPropertyOp40
 70
     1
102
RTVSPropertyOp41
 70
     1
102
RTVSPropertyOp42
 70
     1
102
RTVSPropertyOp43
 70
     1
102
RTVSPropertyOp44
 70
     1
102
RTVSPropertyOp45
 70
     1
102
RTVSPropertyOp46
 70
     1
102
RTVSPropertyOp47
 70
     1
102
RTVSPropertyOp48
 70
     1
102
RTVSPropertyOp49
 70
     1
102
RTVSPropertyOp50
 70
     1
102
RTVSPropertyOp51
 70
     0
102
RTVSPropertyOp52
 70
     0
102
RTVSPropertyOp53
 70
     1
102
RTVSPropertyOp54
 70
     1
102
RTVSPropertyOp55
 70
     1
102
RTVSPropertyOp56
 70
     1
102
RTVSPropertyOp57
 70
     1
102
RTVSPropertyOp58
 70
     1
102
RTVSPropertyOp59
 70
     1
102
RTVSPropertyOp60
 70
     1
102
RTVSPropertyOp61
 70
     1
102
RTVSPropertyOp62
 70
     1
  0
XRECORD
  5
157F2
102
{ACAD_REACTORS
330
157F1
102
}
330
157F1
100
AcDbXrecord
280
     1
102
RTVSPost2010Prop28
280
     0
102
RTVSPost2010PropOp28
 70
     1
102
RTVSPost2010Prop29
280
     1
102
RTVSPost2010PropOp29
 70
     1
102
RTVSPost2010Prop30
280
     1
102
RTVSPost2010PropOp30
 70
     1
102
RTVSPost2010Prop31
280
     0
102
RTVSPost2010PropOp31
 70
     1
102
RTVSPost2010Prop32
280
     0
102
RTVSPost2010PropOp32
 70
     1
102
RTVSPost2010Prop33
280
     0
102
RTVSPost2010PropOp33
 70
     1
102
RTVSPost2010Prop34
280
     0
102
RTVSPost2010PropOp34
 70
     1
102
RTVSPost2010Prop35
280
     0
102
RTVSPost2010PropOp35
 70
     1
102
RTVSPost2010Prop36
280
     0
102
RTVSPost2010PropOp36
 70
     1
102
RTVSPost2010Prop37
 90
       50
102
RTVSPost2010PropOp37
 70
     1
102
RTVSPost2010Prop38
140
0.0
102
RTVSPost2010PropOp38
 70
     1
102
RTVSPost2010Prop39
140
1.0
102
RTVSPost2010PropOp39
 70
     1
102
RTVSPost2010Prop40
 90
        0
102
RTVSPost2010PropOp40
 70
     1
102
RTVSPost2010Prop41ColorIndex
 90
       18
102
RTVSPost2010Prop41ColorRGB
 90
        0
102
RTVSPost2010PropOp41
 70
     1
102
RTVSPost2010Prop42
 90
       50
102
RTVSPost2010PropOp42
 70
     1
102
RTVSPost2010Prop43
 90
        3
102
RTVSPost2010PropOp43
 70
     1
102
RTVSPost2010Prop44ColorIndex
 90
        5
102
RTVSPost2010Prop44ColorRGB
 90
      255
102
RTVSPost2010PropOp44
 70
     1
102
RTVSPost2010Prop45
280
     0
102
RTVSPost2010PropOp45
 70
     1
102
RTVSPost2010Prop46
 90
       50
102
RTVSPost2010PropOp46
 70
     1
102
RTVSPost2010Prop47
 90
       50
102
RTVSPost2010PropOp47
 70
     1
102
RTVSPost2010Prop48
 90
       50
102
RTVSPost2010PropOp48
 70
     1
102
RTVSPost2010Prop49
280
     0
102
RTVSPost2010PropOp49
 70
     1
102
RTVSPost2010Prop50
 90
       50
102
RTVSPost2010PropOp50
 70
     1
102
RTVSPost2010Prop51ColorIndex
 90
      256
102
RTVSPost2010Prop51ColorRGB
 90
-16777216
102
RTVSPost2010PropOp51
 70
     0
102
RTVSPost2010Prop52
140
1.0
102
RTVSPost2010PropOp52
 70
     0
102
RTVSPost2010Prop53
 90
        2
102
RTVSPost2010PropOp53
 70
     1
102
RTVSPost2010Prop54
  1
strokes_ogs.tif
102
RTVSPost2010PropOp54
 70
     1
102
RTVSPost2010Prop55
280
     0
102
RTVSPost2010PropOp55
 70
     1
102
RTVSPost2010Prop56
140
1.0
102
RTVSPost2010PropOp56
 70
     1
102
RTVSPost2010Prop57
140
1.0
102
RTVSPost2010PropOp57
 70
     1
102
RTVSPropertyOp0
 70
     1
102
RTVSPropertyOp1
 70
     1
102
RTVSPropertyOp2
 70
     1
102
RTVSPropertyOp3
 70
     1
102
RTVSPropertyOp4
 70
     1
102
RTVSPropertyOp5
 70
     1
102
RTVSPropertyOp6
 70
     1
102
RTVSPropertyOp7
 70
     1
102
RTVSPropertyOp8
 70
     1
102
RTVSPropertyOp9
 70
     1
102
RTVSPropertyOp10
 70
     1
102
RTVSPropertyOp11
 70
     1
102
RTVSPropertyOp12
 70
     1
102
RTVSPropertyOp13
 70
     1
102
RTVSPropertyOp14
 70
     1
102
RTVSPropertyOp15
 70
     1
102
RTVSPropertyOp16
 70
     1
102
RTVSPropertyOp17
 70
     1
102
RTVSPropertyOp18
 70
     1
102
RTVSPropertyOp19
 70
     1
102
RTVSPropertyOp20
 70
     1
102
RTVSPropertyOp21
 70
     1
102
RTVSPropertyOp22
 70
     1
102
RTVSPropertyOp23
 70
     1
102
RTVSPropertyOp24
 70
     1
102
RTVSPropertyOp25
 70
     1
102
RTVSPropertyOp26
 70
     1
102
RTVSPropertyOp27
 70
     1
102
RTVSPropertyOp28
 70
     1
102
RTVSPropertyOp29
 70
     1
102
RTVSPropertyOp30
 70
     1
102
RTVSPropertyOp31
 70
     1
102
RTVSPropertyOp32
 70
     1
102
RTVSPropertyOp33
 70
     1
102
RTVSPropertyOp34
 70
     1
102
RTVSPropertyOp35
 70
     1
102
RTVSPropertyOp36
 70
     1
102
RTVSPropertyOp37
 70
     1
102
RTVSPropertyOp38
 70
     1
102
RTVSPropertyOp39
 70
     1
102
RTVSPropertyOp40
 70
     1
102
RTVSPropertyOp41
 70
     1
102
RTVSPropertyOp42
 70
     1
102
RTVSPropertyOp43
 70
     1
102
RTVSPropertyOp44
 70
     1
102
RTVSPropertyOp45
 70
     1
102
RTVSPropertyOp46
 70
     1
102
RTVSPropertyOp47
 70
     1
102
RTVSPropertyOp48
 70
     1
102
RTVSPropertyOp49
 70
     1
102
RTVSPropertyOp50
 70
     1
102
RTVSPropertyOp51
 70
     0
102
RTVSPropertyOp52
 70
     0
102
RTVSPropertyOp53
 70
     1
102
RTVSPropertyOp54
 70
     1
102
RTVSPropertyOp55
 70
     1
102
RTVSPropertyOp56
 70
     1
102
RTVSPropertyOp57
 70
     1
102
RTVSPropertyOp58
 70
     1
102
RTVSPropertyOp59
 70
     1
102
RTVSPropertyOp60
 70
     1
102
RTVSPropertyOp61
 70
     1
102
RTVSPropertyOp62
 70
     1
  0
XRECORD
  5
157E4
102
{ACAD_REACTORS
330
157E3
102
}
330
157E3
100
AcDbXrecord
280
     1
102
RTVSPost2010Prop28
280
     0
102
RTVSPost2010PropOp28
 70
     1
102
RTVSPost2010Prop29
280
     1
102
RTVSPost2010PropOp29
 70
     1
102
RTVSPost2010Prop30
280
     1
102
RTVSPost2010PropOp30
 70
     1
102
RTVSPost2010Prop31
280
     0
102
RTVSPost2010PropOp31
 70
     1
102
RTVSPost2010Prop32
280
     0
102
RTVSPost2010PropOp32
 70
     1
102
RTVSPost2010Prop33
280
     0
102
RTVSPost2010PropOp33
 70
     1
102
RTVSPost2010Prop34
280
     0
102
RTVSPost2010PropOp34
 70
     1
102
RTVSPost2010Prop35
280
     0
102
RTVSPost2010PropOp35
 70
     1
102
RTVSPost2010Prop36
280
     0
102
RTVSPost2010PropOp36
 70
     1
102
RTVSPost2010Prop37
 90
       50
102
RTVSPost2010PropOp37
 70
     1
102
RTVSPost2010Prop38
140
0.0
102
RTVSPost2010PropOp38
 70
     1
102
RTVSPost2010Prop39
140
1.0
102
RTVSPost2010PropOp39
 70
     1
102
RTVSPost2010Prop40
 90
        0
102
RTVSPost2010PropOp40
 70
     1
102
RTVSPost2010Prop41ColorIndex
 90
       18
102
RTVSPost2010Prop41ColorRGB
 90
        0
102
RTVSPost2010PropOp41
 70
     1
102
RTVSPost2010Prop42
 90
       50
102
RTVSPost2010PropOp42
 70
     1
102
RTVSPost2010Prop43
 90
        3
102
RTVSPost2010PropOp43
 70
     1
102
RTVSPost2010Prop44ColorIndex
 90
        5
102
RTVSPost2010Prop44ColorRGB
 90
      255
102
RTVSPost2010PropOp44
 70
     1
102
RTVSPost2010Prop45
280
     0
102
RTVSPost2010PropOp45
 70
     1
102
RTVSPost2010Prop46
 90
       50
102
RTVSPost2010PropOp46
 70
     1
102
RTVSPost2010Prop47
 90
       50
102
RTVSPost2010PropOp47
 70
     1
102
RTVSPost2010Prop48
 90
       50
102
RTVSPost2010PropOp48
 70
     1
102
RTVSPost2010Prop49
280
     0
102
RTVSPost2010PropOp49
 70
     1
102
RTVSPost2010Prop50
 90
       50
102
RTVSPost2010PropOp50
 70
     1
102
RTVSPost2010Prop51ColorIndex
 90
      256
102
RTVSPost2010Prop51ColorRGB
 90
-16777216
102
RTVSPost2010PropOp51
 70
     0
102
RTVSPost2010Prop52
140
1.0
102
RTVSPost2010PropOp52
 70
     0
102
RTVSPost2010Prop53
 90
        2
102
RTVSPost2010PropOp53
 70
     1
102
RTVSPost2010Prop54
  1
strokes_ogs.tif
102
RTVSPost2010PropOp54
 70
     1
102
RTVSPost2010Prop55
280
     0
102
RTVSPost2010PropOp55
 70
     1
102
RTVSPost2010Prop56
140
1.0
102
RTVSPost2010PropOp56
 70
     1
102
RTVSPost2010Prop57
140
1.0
102
RTVSPost2010PropOp57
 70
     1
102
RTVSPropertyOp0
 70
     1
102
RTVSPropertyOp1
 70
     1
102
RTVSPropertyOp2
 70
     1
102
RTVSPropertyOp3
 70
     1
102
RTVSPropertyOp4
 70
     1
102
RTVSPropertyOp5
 70
     1
102
RTVSPropertyOp6
 70
     1
102
RTVSPropertyOp7
 70
     1
102
RTVSPropertyOp8
 70
     1
102
RTVSPropertyOp9
 70
     1
102
RTVSPropertyOp10
 70
     1
102
RTVSPropertyOp11
 70
     1
102
RTVSPropertyOp12
 70
     1
102
RTVSPropertyOp13
 70
     1
102
RTVSPropertyOp14
 70
     1
102
RTVSPropertyOp15
 70
     1
102
RTVSPropertyOp16
 70
     1
102
RTVSPropertyOp17
 70
     1
102
RTVSPropertyOp18
 70
     1
102
RTVSPropertyOp19
 70
     1
102
RTVSPropertyOp20
 70
     1
102
RTVSPropertyOp21
 70
     1
102
RTVSPropertyOp22
 70
     1
102
RTVSPropertyOp23
 70
     1
102
RTVSPropertyOp24
 70
     1
102
RTVSPropertyOp25
 70
     1
102
RTVSPropertyOp26
 70
     1
102
RTVSPropertyOp27
 70
     1
102
RTVSPropertyOp28
 70
     1
102
RTVSPropertyOp29
 70
     1
102
RTVSPropertyOp30
 70
     1
102
RTVSPropertyOp31
 70
     1
102
RTVSPropertyOp32
 70
     1
102
RTVSPropertyOp33
 70
     1
102
RTVSPropertyOp34
 70
     1
102
RTVSPropertyOp35
 70
     1
102
RTVSPropertyOp36
 70
     1
102
RTVSPropertyOp37
 70
     1
102
RTVSPropertyOp38
 70
     1
102
RTVSPropertyOp39
 70
     1
102
RTVSPropertyOp40
 70
     1
102
RTVSPropertyOp41
 70
     1
102
RTVSPropertyOp42
 70
     1
102
RTVSPropertyOp43
 70
     1
102
RTVSPropertyOp44
 70
     1
102
RTVSPropertyOp45
 70
     1
102
RTVSPropertyOp46
 70
     1
102
RTVSPropertyOp47
 70
     1
102
RTVSPropertyOp48
 70
     1
102
RTVSPropertyOp49
 70
     1
102
RTVSPropertyOp50
 70
     1
102
RTVSPropertyOp51
 70
     0
102
RTVSPropertyOp52
 70
     0
102
RTVSPropertyOp53
 70
     1
102
RTVSPropertyOp54
 70
     1
102
RTVSPropertyOp55
 70
     1
102
RTVSPropertyOp56
 70
     1
102
RTVSPropertyOp57
 70
     1
102
RTVSPropertyOp58
 70
     1
102
RTVSPropertyOp59
 70
     1
102
RTVSPropertyOp60
 70
     1
102
RTVSPropertyOp61
 70
     1
102
RTVSPropertyOp62
 70
     1
  0
XRECORD
  5
157E8
102
{ACAD_REACTORS
330
157E7
102
}
330
157E7
100
AcDbXrecord
280
     1
102
RTVSPost2010Prop28
280
     0
102
RTVSPost2010PropOp28
 70
     1
102
RTVSPost2010Prop29
280
     1
102
RTVSPost2010PropOp29
 70
     1
102
RTVSPost2010Prop30
280
     1
102
RTVSPost2010PropOp30
 70
     1
102
RTVSPost2010Prop31
280
     0
102
RTVSPost2010PropOp31
 70
     1
102
RTVSPost2010Prop32
280
     0
102
RTVSPost2010PropOp32
 70
     1
102
RTVSPost2010Prop33
280
     0
102
RTVSPost2010PropOp33
 70
     1
102
RTVSPost2010Prop34
280
     0
102
RTVSPost2010PropOp34
 70
     1
102
RTVSPost2010Prop35
280
     0
102
RTVSPost2010PropOp35
 70
     1
102
RTVSPost2010Prop36
280
     0
102
RTVSPost2010PropOp36
 70
     1
102
RTVSPost2010Prop37
 90
       50
102
RTVSPost2010PropOp37
 70
     1
102
RTVSPost2010Prop38
140
0.0
102
RTVSPost2010PropOp38
 70
     1
102
RTVSPost2010Prop39
140
1.0
102
RTVSPost2010PropOp39
 70
     1
102
RTVSPost2010Prop40
 90
        0
102
RTVSPost2010PropOp40
 70
     1
102
RTVSPost2010Prop41ColorIndex
 90
       18
102
RTVSPost2010Prop41ColorRGB
 90
        0
102
RTVSPost2010PropOp41
 70
     1
102
RTVSPost2010Prop42
 90
       50
102
RTVSPost2010PropOp42
 70
     1
102
RTVSPost2010Prop43
 90
        3
102
RTVSPost2010PropOp43
 70
     1
102
RTVSPost2010Prop44ColorIndex
 90
        5
102
RTVSPost2010Prop44ColorRGB
 90
      255
102
RTVSPost2010PropOp44
 70
     1
102
RTVSPost2010Prop45
280
     0
102
RTVSPost2010PropOp45
 70
     1
102
RTVSPost2010Prop46
 90
       50
102
RTVSPost2010PropOp46
 70
     1
102
RTVSPost2010Prop47
 90
       50
102
RTVSPost2010PropOp47
 70
     1
102
RTVSPost2010Prop48
 90
       50
102
RTVSPost2010PropOp48
 70
     1
102
RTVSPost2010Prop49
280
     0
102
RTVSPost2010PropOp49
 70
     1
102
RTVSPost2010Prop50
 90
       50
102
RTVSPost2010PropOp50
 70
     1
102
RTVSPost2010Prop51ColorIndex
 90
      256
102
RTVSPost2010Prop51ColorRGB
 90
-16777216
102
RTVSPost2010PropOp51
 70
     0
102
RTVSPost2010Prop52
140
1.0
102
RTVSPost2010PropOp52
 70
     0
102
RTVSPost2010Prop53
 90
        2
102
RTVSPost2010PropOp53
 70
     1
102
RTVSPost2010Prop54
  1
strokes_ogs.tif
102
RTVSPost2010PropOp54
 70
     1
102
RTVSPost2010Prop55
280
     0
102
RTVSPost2010PropOp55
 70
     1
102
RTVSPost2010Prop56
140
1.0
102
RTVSPost2010PropOp56
 70
     1
102
RTVSPost2010Prop57
140
1.0
102
RTVSPost2010PropOp57
 70
     1
102
RTVSPropertyOp0
 70
     1
102
RTVSPropertyOp1
 70
     1
102
RTVSPropertyOp2
 70
     1
102
RTVSPropertyOp3
 70
     1
102
RTVSPropertyOp4
 70
     1
102
RTVSPropertyOp5
 70
     1
102
RTVSPropertyOp6
 70
     1
102
RTVSPropertyOp7
 70
     1
102
RTVSPropertyOp8
 70
     1
102
RTVSPropertyOp9
 70
     1
102
RTVSPropertyOp10
 70
     1
102
RTVSPropertyOp11
 70
     1
102
RTVSPropertyOp12
 70
     1
102
RTVSPropertyOp13
 70
     1
102
RTVSPropertyOp14
 70
     1
102
RTVSPropertyOp15
 70
     1
102
RTVSPropertyOp16
 70
     1
102
RTVSPropertyOp17
 70
     1
102
RTVSPropertyOp18
 70
     1
102
RTVSPropertyOp19
 70
     1
102
RTVSPropertyOp20
 70
     1
102
RTVSPropertyOp21
 70
     1
102
RTVSPropertyOp22
 70
     1
102
RTVSPropertyOp23
 70
     1
102
RTVSPropertyOp24
 70
     1
102
RTVSPropertyOp25
 70
     1
102
RTVSPropertyOp26
 70
     1
102
RTVSPropertyOp27
 70
     1
102
RTVSPropertyOp28
 70
     1
102
RTVSPropertyOp29
 70
     1
102
RTVSPropertyOp30
 70
     1
102
RTVSPropertyOp31
 70
     1
102
RTVSPropertyOp32
 70
     1
102
RTVSPropertyOp33
 70
     1
102
RTVSPropertyOp34
 70
     1
102
RTVSPropertyOp35
 70
     1
102
RTVSPropertyOp36
 70
     1
102
RTVSPropertyOp37
 70
     1
102
RTVSPropertyOp38
 70
     1
102
RTVSPropertyOp39
 70
     1
102
RTVSPropertyOp40
 70
     1
102
RTVSPropertyOp41
 70
     1
102
RTVSPropertyOp42
 70
     1
102
RTVSPropertyOp43
 70
     1
102
RTVSPropertyOp44
 70
     1
102
RTVSPropertyOp45
 70
     1
102
RTVSPropertyOp46
 70
     1
102
RTVSPropertyOp47
 70
     1
102
RTVSPropertyOp48
 70
     1
102
RTVSPropertyOp49
 70
     1
102
RTVSPropertyOp50
 70
     1
102
RTVSPropertyOp51
 70
     0
102
RTVSPropertyOp52
 70
     0
102
RTVSPropertyOp53
 70
     1
102
RTVSPropertyOp54
 70
     1
102
RTVSPropertyOp55
 70
     1
102
RTVSPropertyOp56
 70
     1
102
RTVSPropertyOp57
 70
     1
102
RTVSPropertyOp58
 70
     1
102
RTVSPropertyOp59
 70
     1
102
RTVSPropertyOp60
 70
     1
102
RTVSPropertyOp61
 70
     1
102
RTVSPropertyOp62
 70
     1
  0
XRECORD
  5
15802
102
{ACAD_REACTORS
330
15801
102
}
330
15801
100
AcDbXrecord
280
     1
102
RTVSPost2010Prop28
280
     0
102
RTVSPost2010PropOp28
 70
     0
102
RTVSPost2010Prop29
280
     1
102
RTVSPost2010PropOp29
 70
     0
102
RTVSPost2010Prop30
280
     1
102
RTVSPost2010PropOp30
 70
     0
102
RTVSPost2010Prop31
280
     0
102
RTVSPost2010PropOp31
 70
     0
102
RTVSPost2010Prop32
280
     0
102
RTVSPost2010PropOp32
 70
     0
102
RTVSPost2010Prop33
280
     0
102
RTVSPost2010PropOp33
 70
     0
102
RTVSPost2010Prop34
280
     0
102
RTVSPost2010PropOp34
 70
     0
102
RTVSPost2010Prop35
280
     0
102
RTVSPost2010PropOp35
 70
     0
102
RTVSPost2010Prop36
280
     0
102
RTVSPost2010PropOp36
 70
     0
102
RTVSPost2010Prop37
 90
       50
102
RTVSPost2010PropOp37
 70
     0
102
RTVSPost2010Prop38
140
0.0
102
RTVSPost2010PropOp38
 70
     0
102
RTVSPost2010Prop39
140
1.0
102
RTVSPost2010PropOp39
 70
     0
102
RTVSPost2010Prop40
 90
        0
102
RTVSPost2010PropOp40
 70
     0
102
RTVSPost2010Prop41ColorIndex
 90
       18
102
RTVSPost2010Prop41ColorRGB
 90
        0
102
RTVSPost2010PropOp41
 70
     0
102
RTVSPost2010Prop42
 90
       50
102
RTVSPost2010PropOp42
 70
     0
102
RTVSPost2010Prop43
 90
        3
102
RTVSPost2010PropOp43
 70
     0
102
RTVSPost2010Prop44ColorIndex
 90
        5
102
RTVSPost2010Prop44ColorRGB
 90
      255
102
RTVSPost2010PropOp44
 70
     0
102
RTVSPost2010Prop45
280
     0
102
RTVSPost2010PropOp45
 70
     0
102
RTVSPost2010Prop46
 90
       50
102
RTVSPost2010PropOp46
 70
     0
102
RTVSPost2010Prop47
 90
       50
102
RTVSPost2010PropOp47
 70
     0
102
RTVSPost2010Prop48
 90
       50
102
RTVSPost2010PropOp48
 70
     0
102
RTVSPost2010Prop49
280
     0
102
RTVSPost2010PropOp49
 70
     0
102
RTVSPost2010Prop50
 90
       50
102
RTVSPost2010PropOp50
 70
     0
102
RTVSPost2010Prop51ColorIndex
 90
      256
102
RTVSPost2010Prop51ColorRGB
 90
-16777216
102
RTVSPost2010PropOp51
 70
     0
102
RTVSPost2010Prop52
140
1.0
102
RTVSPost2010PropOp52
 70
     0
102
RTVSPost2010Prop53
 90
        2
102
RTVSPost2010PropOp53
 70
     0
102
RTVSPost2010Prop54
  1
strokes_ogs.tif
102
RTVSPost2010PropOp54
 70
     0
102
RTVSPost2010Prop55
280
     0
102
RTVSPost2010PropOp55
 70
     0
102
RTVSPost2010Prop56
140
1.0
102
RTVSPost2010PropOp56
 70
     0
102
RTVSPost2010Prop57
140
1.0
102
RTVSPost2010PropOp57
 70
     0
102
RTVSPropertyOp0
 70
     0
102
RTVSPropertyOp1
 70
     0
102
RTVSPropertyOp2
 70
     0
102
RTVSPropertyOp3
 70
     0
102
RTVSPropertyOp4
 70
     0
102
RTVSPropertyOp5
 70
     0
102
RTVSPropertyOp6
 70
     0
102
RTVSPropertyOp7
 70
     0
102
RTVSPropertyOp8
 70
     0
102
RTVSPropertyOp9
 70
     0
102
RTVSPropertyOp10
 70
     0
102
RTVSPropertyOp11
 70
     0
102
RTVSPropertyOp12
 70
     0
102
RTVSPropertyOp13
 70
     0
102
RTVSPropertyOp14
 70
     2
102
RTVSPropertyOp15
 70
     0
102
RTVSPropertyOp16
 70
     0
102
RTVSPropertyOp17
 70
     0
102
RTVSPropertyOp18
 70
     0
102
RTVSPropertyOp19
 70
     0
102
RTVSPropertyOp20
 70
     0
102
RTVSPropertyOp21
 70
     0
102
RTVSPropertyOp22
 70
     0
102
RTVSPropertyOp23
 70
     0
102
RTVSPropertyOp24
 70
     0
102
RTVSPropertyOp25
 70
     0
102
RTVSPropertyOp26
 70
     0
102
RTVSPropertyOp27
 70
     0
102
RTVSPropertyOp28
 70
     0
102
RTVSPropertyOp29
 70
     0
102
RTVSPropertyOp30
 70
     0
102
RTVSPropertyOp31
 70
     0
102
RTVSPropertyOp32
 70
     0
102
RTVSPropertyOp33
 70
     0
102
RTVSPropertyOp34
 70
     0
102
RTVSPropertyOp35
 70
     0
102
RTVSPropertyOp36
 70
     0
102
RTVSPropertyOp37
 70
     0
102
RTVSPropertyOp38
 70
     0
102
RTVSPropertyOp39
 70
     0
102
RTVSPropertyOp40
 70
     0
102
RTVSPropertyOp41
 70
     0
102
RTVSPropertyOp42
 70
     0
102
RTVSPropertyOp43
 70
     0
102
RTVSPropertyOp44
 70
     0
102
RTVSPropertyOp45
 70
     0
102
RTVSPropertyOp46
 70
     0
102
RTVSPropertyOp47
 70
     0
102
RTVSPropertyOp48
 70
     0
102
RTVSPropertyOp49
 70
     0
102
RTVSPropertyOp50
 70
     0
102
RTVSPropertyOp51
 70
     0
102
RTVSPropertyOp52
 70
     0
102
RTVSPropertyOp53
 70
     0
102
RTVSPropertyOp54
 70
     0
102
RTVSPropertyOp55
 70
     0
102
RTVSPropertyOp56
 70
     0
102
RTVSPropertyOp57
 70
     0
102
RTVSPropertyOp58
 70
     0
102
RTVSPropertyOp59
 70
     0
102
RTVSPropertyOp60
 70
     0
102
RTVSPropertyOp61
 70
     0
102
RTVSPropertyOp62
 70
     0
  0
XRECORD
  5
157F0
102
{ACAD_REACTORS
330
157EF
102
}
330
157EF
100
AcDbXrecord
280
     1
102
RTVSPost2010Prop28
280
     0
102
RTVSPost2010PropOp28
 70
     1
102
RTVSPost2010Prop29
280
     1
102
RTVSPost2010PropOp29
 70
     1
102
RTVSPost2010Prop30
280
     1
102
RTVSPost2010PropOp30
 70
     1
102
RTVSPost2010Prop31
280
     0
102
RTVSPost2010PropOp31
 70
     1
102
RTVSPost2010Prop32
280
     0
102
RTVSPost2010PropOp32
 70
     1
102
RTVSPost2010Prop33
280
     0
102
RTVSPost2010PropOp33
 70
     1
102
RTVSPost2010Prop34
280
     0
102
RTVSPost2010PropOp34
 70
     1
102
RTVSPost2010Prop35
280
     0
102
RTVSPost2010PropOp35
 70
     1
102
RTVSPost2010Prop36
280
     0
102
RTVSPost2010PropOp36
 70
     1
102
RTVSPost2010Prop37
 90
       50
102
RTVSPost2010PropOp37
 70
     1
102
RTVSPost2010Prop38
140
0.0
102
RTVSPost2010PropOp38
 70
     1
102
RTVSPost2010Prop39
140
1.0
102
RTVSPost2010PropOp39
 70
     1
102
RTVSPost2010Prop40
 90
        0
102
RTVSPost2010PropOp40
 70
     1
102
RTVSPost2010Prop41ColorIndex
 90
       18
102
RTVSPost2010Prop41ColorRGB
 90
        0
102
RTVSPost2010PropOp41
 70
     1
102
RTVSPost2010Prop42
 90
       50
102
RTVSPost2010PropOp42
 70
     1
102
RTVSPost2010Prop43
 90
        3
102
RTVSPost2010PropOp43
 70
     1
102
RTVSPost2010Prop44ColorIndex
 90
        5
102
RTVSPost2010Prop44ColorRGB
 90
      255
102
RTVSPost2010PropOp44
 70
     1
102
RTVSPost2010Prop45
280
     0
102
RTVSPost2010PropOp45
 70
     1
102
RTVSPost2010Prop46
 90
       50
102
RTVSPost2010PropOp46
 70
     1
102
RTVSPost2010Prop47
 90
       50
102
RTVSPost2010PropOp47
 70
     1
102
RTVSPost2010Prop48
 90
       50
102
RTVSPost2010PropOp48
 70
     1
102
RTVSPost2010Prop49
280
     0
102
RTVSPost2010PropOp49
 70
     1
102
RTVSPost2010Prop50
 90
       50
102
RTVSPost2010PropOp50
 70
     1
102
RTVSPost2010Prop51ColorIndex
 90
      256
102
RTVSPost2010Prop51ColorRGB
 90
-16777216
102
RTVSPost2010PropOp51
 70
     0
102
RTVSPost2010Prop52
140
1.0
102
RTVSPost2010PropOp52
 70
     0
102
RTVSPost2010Prop53
 90
        2
102
RTVSPost2010PropOp53
 70
     1
102
RTVSPost2010Prop54
  1
strokes_ogs.tif
102
RTVSPost2010PropOp54
 70
     1
102
RTVSPost2010Prop55
280
     0
102
RTVSPost2010PropOp55
 70
     1
102
RTVSPost2010Prop56
140
1.0
102
RTVSPost2010PropOp56
 70
     1
102
RTVSPost2010Prop57
140
1.0
102
RTVSPost2010PropOp57
 70
     1
102
RTVSPropertyOp0
 70
     1
102
RTVSPropertyOp1
 70
     1
102
RTVSPropertyOp2
 70
     1
102
RTVSPropertyOp3
 70
     1
102
RTVSPropertyOp4
 70
     1
102
RTVSPropertyOp5
 70
     1
102
RTVSPropertyOp6
 70
     1
102
RTVSPropertyOp7
 70
     1
102
RTVSPropertyOp8
 70
     1
102
RTVSPropertyOp9
 70
     1
102
RTVSPropertyOp10
 70
     1
102
RTVSPropertyOp11
 70
     1
102
RTVSPropertyOp12
 70
     1
102
RTVSPropertyOp13
 70
     1
102
RTVSPropertyOp14
 70
     1
102
RTVSPropertyOp15
 70
     1
102
RTVSPropertyOp16
 70
     1
102
RTVSPropertyOp17
 70
     1
102
RTVSPropertyOp18
 70
     1
102
RTVSPropertyOp19
 70
     1
102
RTVSPropertyOp20
 70
     1
102
RTVSPropertyOp21
 70
     1
102
RTVSPropertyOp22
 70
     1
102
RTVSPropertyOp23
 70
     1
102
RTVSPropertyOp24
 70
     1
102
RTVSPropertyOp25
 70
     1
102
RTVSPropertyOp26
 70
     1
102
RTVSPropertyOp27
 70
     1
102
RTVSPropertyOp28
 70
     1
102
RTVSPropertyOp29
 70
     1
102
RTVSPropertyOp30
 70
     1
102
RTVSPropertyOp31
 70
     1
102
RTVSPropertyOp32
 70
     1
102
RTVSPropertyOp33
 70
     1
102
RTVSPropertyOp34
 70
     1
102
RTVSPropertyOp35
 70
     1
102
RTVSPropertyOp36
 70
     1
102
RTVSPropertyOp37
 70
     1
102
RTVSPropertyOp38
 70
     1
102
RTVSPropertyOp39
 70
     1
102
RTVSPropertyOp40
 70
     1
102
RTVSPropertyOp41
 70
     1
102
RTVSPropertyOp42
 70
     1
102
RTVSPropertyOp43
 70
     1
102
RTVSPropertyOp44
 70
     1
102
RTVSPropertyOp45
 70
     1
102
RTVSPropertyOp46
 70
     1
102
RTVSPropertyOp47
 70
     1
102
RTVSPropertyOp48
 70
     1
102
RTVSPropertyOp49
 70
     1
102
RTVSPropertyOp50
 70
     1
102
RTVSPropertyOp51
 70
     0
102
RTVSPropertyOp52
 70
     0
102
RTVSPropertyOp53
 70
     1
102
RTVSPropertyOp54
 70
     1
102
RTVSPropertyOp55
 70
     1
102
RTVSPropertyOp56
 70
     1
102
RTVSPropertyOp57
 70
     1
102
RTVSPropertyOp58
 70
     1
102
RTVSPropertyOp59
 70
     1
102
RTVSPropertyOp60
 70
     1
102
RTVSPropertyOp61
 70
     1
102
RTVSPropertyOp62
 70
     1
  0
XRECORD
  5
157D4
102
{ACAD_REACTORS
330
157D3
102
}
330
157D3
100
AcDbXrecord
280
     1
102
RTVSPost2010Prop28
280
     0
102
RTVSPost2010PropOp28
 70
     1
102
RTVSPost2010Prop29
280
     1
102
RTVSPost2010PropOp29
 70
     1
102
RTVSPost2010Prop30
280
     1
102
RTVSPost2010PropOp30
 70
     1
102
RTVSPost2010Prop31
280
     0
102
RTVSPost2010PropOp31
 70
     1
102
RTVSPost2010Prop32
280
     0
102
RTVSPost2010PropOp32
 70
     1
102
RTVSPost2010Prop33
280
     0
102
RTVSPost2010PropOp33
 70
     1
102
RTVSPost2010Prop34
280
     0
102
RTVSPost2010PropOp34
 70
     1
102
RTVSPost2010Prop35
280
     0
102
RTVSPost2010PropOp35
 70
     1
102
RTVSPost2010Prop36
280
     0
102
RTVSPost2010PropOp36
 70
     1
102
RTVSPost2010Prop37
 90
       50
102
RTVSPost2010PropOp37
 70
     1
102
RTVSPost2010Prop38
140
0.0
102
RTVSPost2010PropOp38
 70
     1
102
RTVSPost2010Prop39
140
1.0
102
RTVSPost2010PropOp39
 70
     1
102
RTVSPost2010Prop40
 90
        0
102
RTVSPost2010PropOp40
 70
     1
102
RTVSPost2010Prop41ColorIndex
 90
       18
102
RTVSPost2010Prop41ColorRGB
 90
        0
102
RTVSPost2010PropOp41
 70
     1
102
RTVSPost2010Prop42
 90
       50
102
RTVSPost2010PropOp42
 70
     1
102
RTVSPost2010Prop43
 90
        3
102
RTVSPost2010PropOp43
 70
     1
102
RTVSPost2010Prop44ColorIndex
 90
        5
102
RTVSPost2010Prop44ColorRGB
 90
      255
102
RTVSPost2010PropOp44
 70
     1
102
RTVSPost2010Prop45
280
     0
102
RTVSPost2010PropOp45
 70
     1
102
RTVSPost2010Prop46
 90
       50
102
RTVSPost2010PropOp46
 70
     1
102
RTVSPost2010Prop47
 90
       50
102
RTVSPost2010PropOp47
 70
     1
102
RTVSPost2010Prop48
 90
       50
102
RTVSPost2010PropOp48
 70
     1
102
RTVSPost2010Prop49
280
     0
102
RTVSPost2010PropOp49
 70
     1
102
RTVSPost2010Prop50
 90
       50
102
RTVSPost2010PropOp50
 70
     1
102
RTVSPost2010Prop51ColorIndex
 90
      256
102
RTVSPost2010Prop51ColorRGB
 90
-16777216
102
RTVSPost2010PropOp51
 70
     0
102
RTVSPost2010Prop52
140
1.0
102
RTVSPost2010PropOp52
 70
     0
102
RTVSPost2010Prop53
 90
        2
102
RTVSPost2010PropOp53
 70
     1
102
RTVSPost2010Prop54
  1
strokes_ogs.tif
102
RTVSPost2010PropOp54
 70
     1
102
RTVSPost2010Prop55
280
     0
102
RTVSPost2010PropOp55
 70
     1
102
RTVSPost2010Prop56
140
1.0
102
RTVSPost2010PropOp56
 70
     1
102
RTVSPost2010Prop57
140
1.0
102
RTVSPost2010PropOp57
 70
     1
102
RTVSPropertyOp0
 70
     1
102
RTVSPropertyOp1
 70
     1
102
RTVSPropertyOp2
 70
     1
102
RTVSPropertyOp3
 70
     1
102
RTVSPropertyOp4
 70
     1
102
RTVSPropertyOp5
 70
     1
102
RTVSPropertyOp6
 70
     1
102
RTVSPropertyOp7
 70
     1
102
RTVSPropertyOp8
 70
     1
102
RTVSPropertyOp9
 70
     1
102
RTVSPropertyOp10
 70
     1
102
RTVSPropertyOp11
 70
     1
102
RTVSPropertyOp12
 70
     1
102
RTVSPropertyOp13
 70
     1
102
RTVSPropertyOp14
 70
     1
102
RTVSPropertyOp15
 70
     1
102
RTVSPropertyOp16
 70
     1
102
RTVSPropertyOp17
 70
     1
102
RTVSPropertyOp18
 70
     1
102
RTVSPropertyOp19
 70
     1
102
RTVSPropertyOp20
 70
     1
102
RTVSPropertyOp21
 70
     1
102
RTVSPropertyOp22
 70
     1
102
RTVSPropertyOp23
 70
     1
102
RTVSPropertyOp24
 70
     1
102
RTVSPropertyOp25
 70
     1
102
RTVSPropertyOp26
 70
     1
102
RTVSPropertyOp27
 70
     1
102
RTVSPropertyOp28
 70
     1
102
RTVSPropertyOp29
 70
     1
102
RTVSPropertyOp30
 70
     1
102
RTVSPropertyOp31
 70
     1
102
RTVSPropertyOp32
 70
     1
102
RTVSPropertyOp33
 70
     1
102
RTVSPropertyOp34
 70
     1
102
RTVSPropertyOp35
 70
     1
102
RTVSPropertyOp36
 70
     1
102
RTVSPropertyOp37
 70
     1
102
RTVSPropertyOp38
 70
     1
102
RTVSPropertyOp39
 70
     1
102
RTVSPropertyOp40
 70
     1
102
RTVSPropertyOp41
 70
     1
102
RTVSPropertyOp42
 70
     1
102
RTVSPropertyOp43
 70
     1
102
RTVSPropertyOp44
 70
     1
102
RTVSPropertyOp45
 70
     1
102
RTVSPropertyOp46
 70
     1
102
RTVSPropertyOp47
 70
     1
102
RTVSPropertyOp48
 70
     1
102
RTVSPropertyOp49
 70
     1
102
RTVSPropertyOp50
 70
     1
102
RTVSPropertyOp51
 70
     0
102
RTVSPropertyOp52
 70
     0
102
RTVSPropertyOp53
 70
     1
102
RTVSPropertyOp54
 70
     1
102
RTVSPropertyOp55
 70
     1
102
RTVSPropertyOp56
 70
     1
102
RTVSPropertyOp57
 70
     1
102
RTVSPropertyOp58
 70
     1
102
RTVSPropertyOp59
 70
     1
102
RTVSPropertyOp60
 70
     1
102
RTVSPropertyOp61
 70
     1
102
RTVSPropertyOp62
 70
     1
  0
XRECORD
  5
157D6
102
{ACAD_REACTORS
330
157D5
102
}
330
157D5
100
AcDbXrecord
280
     1
102
RTVSPost2010Prop28
280
     0
102
RTVSPost2010PropOp28
 70
     1
102
RTVSPost2010Prop29
280
     1
102
RTVSPost2010PropOp29
 70
     1
102
RTVSPost2010Prop30
280
     1
102
RTVSPost2010PropOp30
 70
     1
102
RTVSPost2010Prop31
280
     0
102
RTVSPost2010PropOp31
 70
     1
102
RTVSPost2010Prop32
280
     0
102
RTVSPost2010PropOp32
 70
     1
102
RTVSPost2010Prop33
280
     0
102
RTVSPost2010PropOp33
 70
     1
102
RTVSPost2010Prop34
280
     0
102
RTVSPost2010PropOp34
 70
     1
102
RTVSPost2010Prop35
280
     0
102
RTVSPost2010PropOp35
 70
     1
102
RTVSPost2010Prop36
280
     0
102
RTVSPost2010PropOp36
 70
     1
102
RTVSPost2010Prop37
 90
       50
102
RTVSPost2010PropOp37
 70
     1
102
RTVSPost2010Prop38
140
0.0
102
RTVSPost2010PropOp38
 70
     1
102
RTVSPost2010Prop39
140
1.0
102
RTVSPost2010PropOp39
 70
     1
102
RTVSPost2010Prop40
 90
        0
102
RTVSPost2010PropOp40
 70
     1
102
RTVSPost2010Prop41ColorIndex
 90
       18
102
RTVSPost2010Prop41ColorRGB
 90
        0
102
RTVSPost2010PropOp41
 70
     1
102
RTVSPost2010Prop42
 90
       50
102
RTVSPost2010PropOp42
 70
     1
102
RTVSPost2010Prop43
 90
        3
102
RTVSPost2010PropOp43
 70
     1
102
RTVSPost2010Prop44ColorIndex
 90
        5
102
RTVSPost2010Prop44ColorRGB
 90
      255
102
RTVSPost2010PropOp44
 70
     1
102
RTVSPost2010Prop45
280
     0
102
RTVSPost2010PropOp45
 70
     1
102
RTVSPost2010Prop46
 90
       50
102
RTVSPost2010PropOp46
 70
     1
102
RTVSPost2010Prop47
 90
       50
102
RTVSPost2010PropOp47
 70
     1
102
RTVSPost2010Prop48
 90
       50
102
RTVSPost2010PropOp48
 70
     1
102
RTVSPost2010Prop49
280
     0
102
RTVSPost2010PropOp49
 70
     1
102
RTVSPost2010Prop50
 90
       50
102
RTVSPost2010PropOp50
 70
     1
102
RTVSPost2010Prop51ColorIndex
 90
      256
102
RTVSPost2010Prop51ColorRGB
 90
-16777216
102
RTVSPost2010PropOp51
 70
     0
102
RTVSPost2010Prop52
140
1.0
102
RTVSPost2010PropOp52
 70
     0
102
RTVSPost2010Prop53
 90
        2
102
RTVSPost2010PropOp53
 70
     1
102
RTVSPost2010Prop54
  1
strokes_ogs.tif
102
RTVSPost2010PropOp54
 70
     1
102
RTVSPost2010Prop55
280
     0
102
RTVSPost2010PropOp55
 70
     1
102
RTVSPost2010Prop56
140
1.0
102
RTVSPost2010PropOp56
 70
     1
102
RTVSPost2010Prop57
140
1.0
102
RTVSPost2010PropOp57
 70
     1
102
RTVSPropertyOp0
 70
     1
102
RTVSPropertyOp1
 70
     1
102
RTVSPropertyOp2
 70
     1
102
RTVSPropertyOp3
 70
     1
102
RTVSPropertyOp4
 70
     1
102
RTVSPropertyOp5
 70
     1
102
RTVSPropertyOp6
 70
     1
102
RTVSPropertyOp7
 70
     1
102
RTVSPropertyOp8
 70
     1
102
RTVSPropertyOp9
 70
     1
102
RTVSPropertyOp10
 70
     1
102
RTVSPropertyOp11
 70
     1
102
RTVSPropertyOp12
 70
     1
102
RTVSPropertyOp13
 70
     1
102
RTVSPropertyOp14
 70
     1
102
RTVSPropertyOp15
 70
     1
102
RTVSPropertyOp16
 70
     1
102
RTVSPropertyOp17
 70
     1
102
RTVSPropertyOp18
 70
     1
102
RTVSPropertyOp19
 70
     1
102
RTVSPropertyOp20
 70
     1
102
RTVSPropertyOp21
 70
     1
102
RTVSPropertyOp22
 70
     1
102
RTVSPropertyOp23
 70
     1
102
RTVSPropertyOp24
 70
     1
102
RTVSPropertyOp25
 70
     1
102
RTVSPropertyOp26
 70
     1
102
RTVSPropertyOp27
 70
     1
102
RTVSPropertyOp28
 70
     1
102
RTVSPropertyOp29
 70
     1
102
RTVSPropertyOp30
 70
     1
102
RTVSPropertyOp31
 70
     1
102
RTVSPropertyOp32
 70
     1
102
RTVSPropertyOp33
 70
     1
102
RTVSPropertyOp34
 70
     1
102
RTVSPropertyOp35
 70
     1
102
RTVSPropertyOp36
 70
     1
102
RTVSPropertyOp37
 70
     1
102
RTVSPropertyOp38
 70
     1
102
RTVSPropertyOp39
 70
     1
102
RTVSPropertyOp40
 70
     1
102
RTVSPropertyOp41
 70
     1
102
RTVSPropertyOp42
 70
     1
102
RTVSPropertyOp43
 70
     1
102
RTVSPropertyOp44
 70
     1
102
RTVSPropertyOp45
 70
     1
102
RTVSPropertyOp46
 70
     1
102
RTVSPropertyOp47
 70
     1
102
RTVSPropertyOp48
 70
     1
102
RTVSPropertyOp49
 70
     1
102
RTVSPropertyOp50
 70
     1
102
RTVSPropertyOp51
 70
     0
102
RTVSPropertyOp52
 70
     0
102
RTVSPropertyOp53
 70
     1
102
RTVSPropertyOp54
 70
     1
102
RTVSPropertyOp55
 70
     1
102
RTVSPropertyOp56
 70
     1
102
RTVSPropertyOp57
 70
     1
102
RTVSPropertyOp58
 70
     1
102
RTVSPropertyOp59
 70
     1
102
RTVSPropertyOp60
 70
     1
102
RTVSPropertyOp61
 70
     1
102
RTVSPropertyOp62
 70
     1
  0
XRECORD
  5
157D8
102
{ACAD_REACTORS
330
157D7
102
}
330
157D7
100
AcDbXrecord
280
     1
102
RTVSPost2010Prop28
280
     0
102
RTVSPost2010PropOp28
 70
     1
102
RTVSPost2010Prop29
280
     1
102
RTVSPost2010PropOp29
 70
     1
102
RTVSPost2010Prop30
280
     1
102
RTVSPost2010PropOp30
 70
     1
102
RTVSPost2010Prop31
280
     0
102
RTVSPost2010PropOp31
 70
     1
102
RTVSPost2010Prop32
280
     0
102
RTVSPost2010PropOp32
 70
     1
102
RTVSPost2010Prop33
280
     0
102
RTVSPost2010PropOp33
 70
     1
102
RTVSPost2010Prop34
280
     0
102
RTVSPost2010PropOp34
 70
     1
102
RTVSPost2010Prop35
280
     0
102
RTVSPost2010PropOp35
 70
     1
102
RTVSPost2010Prop36
280
     0
102
RTVSPost2010PropOp36
 70
     1
102
RTVSPost2010Prop37
 90
       50
102
RTVSPost2010PropOp37
 70
     1
102
RTVSPost2010Prop38
140
0.0
102
RTVSPost2010PropOp38
 70
     1
102
RTVSPost2010Prop39
140
1.0
102
RTVSPost2010PropOp39
 70
     1
102
RTVSPost2010Prop40
 90
        0
102
RTVSPost2010PropOp40
 70
     1
102
RTVSPost2010Prop41ColorIndex
 90
       18
102
RTVSPost2010Prop41ColorRGB
 90
        0
102
RTVSPost2010PropOp41
 70
     1
102
RTVSPost2010Prop42
 90
       50
102
RTVSPost2010PropOp42
 70
     1
102
RTVSPost2010Prop43
 90
        3
102
RTVSPost2010PropOp43
 70
     1
102
RTVSPost2010Prop44ColorIndex
 90
        5
102
RTVSPost2010Prop44ColorRGB
 90
      255
102
RTVSPost2010PropOp44
 70
     1
102
RTVSPost2010Prop45
280
     0
102
RTVSPost2010PropOp45
 70
     1
102
RTVSPost2010Prop46
 90
       50
102
RTVSPost2010PropOp46
 70
     1
102
RTVSPost2010Prop47
 90
       50
102
RTVSPost2010PropOp47
 70
     1
102
RTVSPost2010Prop48
 90
       50
102
RTVSPost2010PropOp48
 70
     1
102
RTVSPost2010Prop49
280
     0
102
RTVSPost2010PropOp49
 70
     1
102
RTVSPost2010Prop50
 90
       50
102
RTVSPost2010PropOp50
 70
     1
102
RTVSPost2010Prop51ColorIndex
 90
      256
102
RTVSPost2010Prop51ColorRGB
 90
-16777216
102
RTVSPost2010PropOp51
 70
     0
102
RTVSPost2010Prop52
140
1.0
102
RTVSPost2010PropOp52
 70
     0
102
RTVSPost2010Prop53
 90
        2
102
RTVSPost2010PropOp53
 70
     1
102
RTVSPost2010Prop54
  1
strokes_ogs.tif
102
RTVSPost2010PropOp54
 70
     1
102
RTVSPost2010Prop55
280
     0
102
RTVSPost2010PropOp55
 70
     1
102
RTVSPost2010Prop56
140
1.0
102
RTVSPost2010PropOp56
 70
     1
102
RTVSPost2010Prop57
140
1.0
102
RTVSPost2010PropOp57
 70
     1
102
RTVSPropertyOp0
 70
     1
102
RTVSPropertyOp1
 70
     1
102
RTVSPropertyOp2
 70
     1
102
RTVSPropertyOp3
 70
     1
102
RTVSPropertyOp4
 70
     1
102
RTVSPropertyOp5
 70
     1
102
RTVSPropertyOp6
 70
     1
102
RTVSPropertyOp7
 70
     1
102
RTVSPropertyOp8
 70
     1
102
RTVSPropertyOp9
 70
     1
102
RTVSPropertyOp10
 70
     1
102
RTVSPropertyOp11
 70
     1
102
RTVSPropertyOp12
 70
     1
102
RTVSPropertyOp13
 70
     1
102
RTVSPropertyOp14
 70
     1
102
RTVSPropertyOp15
 70
     1
102
RTVSPropertyOp16
 70
     1
102
RTVSPropertyOp17
 70
     1
102
RTVSPropertyOp18
 70
     1
102
RTVSPropertyOp19
 70
     1
102
RTVSPropertyOp20
 70
     1
102
RTVSPropertyOp21
 70
     1
102
RTVSPropertyOp22
 70
     1
102
RTVSPropertyOp23
 70
     1
102
RTVSPropertyOp24
 70
     1
102
RTVSPropertyOp25
 70
     1
102
RTVSPropertyOp26
 70
     1
102
RTVSPropertyOp27
 70
     1
102
RTVSPropertyOp28
 70
     1
102
RTVSPropertyOp29
 70
     1
102
RTVSPropertyOp30
 70
     1
102
RTVSPropertyOp31
 70
     1
102
RTVSPropertyOp32
 70
     1
102
RTVSPropertyOp33
 70
     1
102
RTVSPropertyOp34
 70
     1
102
RTVSPropertyOp35
 70
     1
102
RTVSPropertyOp36
 70
     1
102
RTVSPropertyOp37
 70
     1
102
RTVSPropertyOp38
 70
     1
102
RTVSPropertyOp39
 70
     1
102
RTVSPropertyOp40
 70
     1
102
RTVSPropertyOp41
 70
     1
102
RTVSPropertyOp42
 70
     1
102
RTVSPropertyOp43
 70
     1
102
RTVSPropertyOp44
 70
     1
102
RTVSPropertyOp45
 70
     1
102
RTVSPropertyOp46
 70
     1
102
RTVSPropertyOp47
 70
     1
102
RTVSPropertyOp48
 70
     1
102
RTVSPropertyOp49
 70
     1
102
RTVSPropertyOp50
 70
     1
102
RTVSPropertyOp51
 70
     0
102
RTVSPropertyOp52
 70
     0
102
RTVSPropertyOp53
 70
     1
102
RTVSPropertyOp54
 70
     1
102
RTVSPropertyOp55
 70
     1
102
RTVSPropertyOp56
 70
     1
102
RTVSPropertyOp57
 70
     1
102
RTVSPropertyOp58
 70
     1
102
RTVSPropertyOp59
 70
     1
102
RTVSPropertyOp60
 70
     1
102
RTVSPropertyOp61
 70
     1
102
RTVSPropertyOp62
 70
     1
  0
XRECORD
  5
157DA
102
{ACAD_REACTORS
330
157D9
102
}
330
157D9
100
AcDbXrecord
280
     1
102
RTVSPost2010Prop28
280
     0
102
RTVSPost2010PropOp28
 70
     1
102
RTVSPost2010Prop29
280
     1
102
RTVSPost2010PropOp29
 70
     1
102
RTVSPost2010Prop30
280
     1
102
RTVSPost2010PropOp30
 70
     1
102
RTVSPost2010Prop31
280
     0
102
RTVSPost2010PropOp31
 70
     1
102
RTVSPost2010Prop32
280
     0
102
RTVSPost2010PropOp32
 70
     1
102
RTVSPost2010Prop33
280
     0
102
RTVSPost2010PropOp33
 70
     1
102
RTVSPost2010Prop34
280
     0
102
RTVSPost2010PropOp34
 70
     1
102
RTVSPost2010Prop35
280
     0
102
RTVSPost2010PropOp35
 70
     1
102
RTVSPost2010Prop36
280
     0
102
RTVSPost2010PropOp36
 70
     1
102
RTVSPost2010Prop37
 90
       50
102
RTVSPost2010PropOp37
 70
     1
102
RTVSPost2010Prop38
140
0.0
102
RTVSPost2010PropOp38
 70
     1
102
RTVSPost2010Prop39
140
1.0
102
RTVSPost2010PropOp39
 70
     1
102
RTVSPost2010Prop40
 90
        0
102
RTVSPost2010PropOp40
 70
     1
102
RTVSPost2010Prop41ColorIndex
 90
       18
102
RTVSPost2010Prop41ColorRGB
 90
        0
102
RTVSPost2010PropOp41
 70
     1
102
RTVSPost2010Prop42
 90
       50
102
RTVSPost2010PropOp42
 70
     1
102
RTVSPost2010Prop43
 90
        3
102
RTVSPost2010PropOp43
 70
     1
102
RTVSPost2010Prop44ColorIndex
 90
        5
102
RTVSPost2010Prop44ColorRGB
 90
      255
102
RTVSPost2010PropOp44
 70
     1
102
RTVSPost2010Prop45
280
     0
102
RTVSPost2010PropOp45
 70
     1
102
RTVSPost2010Prop46
 90
       50
102
RTVSPost2010PropOp46
 70
     1
102
RTVSPost2010Prop47
 90
       50
102
RTVSPost2010PropOp47
 70
     1
102
RTVSPost2010Prop48
 90
       50
102
RTVSPost2010PropOp48
 70
     1
102
RTVSPost2010Prop49
280
     0
102
RTVSPost2010PropOp49
 70
     1
102
RTVSPost2010Prop50
 90
       50
102
RTVSPost2010PropOp50
 70
     1
102
RTVSPost2010Prop51ColorIndex
 90
      256
102
RTVSPost2010Prop51ColorRGB
 90
-16777216
102
RTVSPost2010PropOp51
 70
     0
102
RTVSPost2010Prop52
140
1.0
102
RTVSPost2010PropOp52
 70
     0
102
RTVSPost2010Prop53
 90
        2
102
RTVSPost2010PropOp53
 70
     1
102
RTVSPost2010Prop54
  1
strokes_ogs.tif
102
RTVSPost2010PropOp54
 70
     1
102
RTVSPost2010Prop55
280
     0
102
RTVSPost2010PropOp55
 70
     1
102
RTVSPost2010Prop56
140
1.0
102
RTVSPost2010PropOp56
 70
     1
102
RTVSPost2010Prop57
140
1.0
102
RTVSPost2010PropOp57
 70
     1
102
RTVSPropertyOp0
 70
     1
102
RTVSPropertyOp1
 70
     1
102
RTVSPropertyOp2
 70
     1
102
RTVSPropertyOp3
 70
     1
102
RTVSPropertyOp4
 70
     1
102
RTVSPropertyOp5
 70
     1
102
RTVSPropertyOp6
 70
     1
102
RTVSPropertyOp7
 70
     1
102
RTVSPropertyOp8
 70
     1
102
RTVSPropertyOp9
 70
     1
102
RTVSPropertyOp10
 70
     1
102
RTVSPropertyOp11
 70
     1
102
RTVSPropertyOp12
 70
     1
102
RTVSPropertyOp13
 70
     1
102
RTVSPropertyOp14
 70
     1
102
RTVSPropertyOp15
 70
     1
102
RTVSPropertyOp16
 70
     1
102
RTVSPropertyOp17
 70
     1
102
RTVSPropertyOp18
 70
     1
102
RTVSPropertyOp19
 70
     1
102
RTVSPropertyOp20
 70
     1
102
RTVSPropertyOp21
 70
     1
102
RTVSPropertyOp22
 70
     1
102
RTVSPropertyOp23
 70
     1
102
RTVSPropertyOp24
 70
     1
102
RTVSPropertyOp25
 70
     1
102
RTVSPropertyOp26
 70
     1
102
RTVSPropertyOp27
 70
     1
102
RTVSPropertyOp28
 70
     1
102
RTVSPropertyOp29
 70
     1
102
RTVSPropertyOp30
 70
     1
102
RTVSPropertyOp31
 70
     1
102
RTVSPropertyOp32
 70
     1
102
RTVSPropertyOp33
 70
     1
102
RTVSPropertyOp34
 70
     1
102
RTVSPropertyOp35
 70
     1
102
RTVSPropertyOp36
 70
     1
102
RTVSPropertyOp37
 70
     1
102
RTVSPropertyOp38
 70
     1
102
RTVSPropertyOp39
 70
     1
102
RTVSPropertyOp40
 70
     1
102
RTVSPropertyOp41
 70
     1
102
RTVSPropertyOp42
 70
     1
102
RTVSPropertyOp43
 70
     1
102
RTVSPropertyOp44
 70
     1
102
RTVSPropertyOp45
 70
     1
102
RTVSPropertyOp46
 70
     1
102
RTVSPropertyOp47
 70
     1
102
RTVSPropertyOp48
 70
     1
102
RTVSPropertyOp49
 70
     1
102
RTVSPropertyOp50
 70
     1
102
RTVSPropertyOp51
 70
     0
102
RTVSPropertyOp52
 70
     0
102
RTVSPropertyOp53
 70
     1
102
RTVSPropertyOp54
 70
     1
102
RTVSPropertyOp55
 70
     1
102
RTVSPropertyOp56
 70
     1
102
RTVSPropertyOp57
 70
     1
102
RTVSPropertyOp58
 70
     1
102
RTVSPropertyOp59
 70
     1
102
RTVSPropertyOp60
 70
     1
102
RTVSPropertyOp61
 70
     1
102
RTVSPropertyOp62
 70
     1
  0
XRECORD
  5
157E2
102
{ACAD_REACTORS
330
157E1
102
}
330
157E1
100
AcDbXrecord
280
     1
102
RTVSPost2010Prop28
280
     0
102
RTVSPost2010PropOp28
 70
     1
102
RTVSPost2010Prop29
280
     1
102
RTVSPost2010PropOp29
 70
     1
102
RTVSPost2010Prop30
280
     1
102
RTVSPost2010PropOp30
 70
     1
102
RTVSPost2010Prop31
280
     0
102
RTVSPost2010PropOp31
 70
     1
102
RTVSPost2010Prop32
280
     0
102
RTVSPost2010PropOp32
 70
     1
102
RTVSPost2010Prop33
280
     0
102
RTVSPost2010PropOp33
 70
     1
102
RTVSPost2010Prop34
280
     0
102
RTVSPost2010PropOp34
 70
     1
102
RTVSPost2010Prop35
280
     0
102
RTVSPost2010PropOp35
 70
     1
102
RTVSPost2010Prop36
280
     0
102
RTVSPost2010PropOp36
 70
     1
102
RTVSPost2010Prop37
 90
       50
102
RTVSPost2010PropOp37
 70
     1
102
RTVSPost2010Prop38
140
0.0
102
RTVSPost2010PropOp38
 70
     1
102
RTVSPost2010Prop39
140
1.0
102
RTVSPost2010PropOp39
 70
     1
102
RTVSPost2010Prop40
 90
        0
102
RTVSPost2010PropOp40
 70
     1
102
RTVSPost2010Prop41ColorIndex
 90
       18
102
RTVSPost2010Prop41ColorRGB
 90
        0
102
RTVSPost2010PropOp41
 70
     1
102
RTVSPost2010Prop42
 90
       50
102
RTVSPost2010PropOp42
 70
     1
102
RTVSPost2010Prop43
 90
        3
102
RTVSPost2010PropOp43
 70
     1
102
RTVSPost2010Prop44ColorIndex
 90
        5
102
RTVSPost2010Prop44ColorRGB
 90
      255
102
RTVSPost2010PropOp44
 70
     1
102
RTVSPost2010Prop45
280
     0
102
RTVSPost2010PropOp45
 70
     1
102
RTVSPost2010Prop46
 90
       50
102
RTVSPost2010PropOp46
 70
     1
102
RTVSPost2010Prop47
 90
       50
102
RTVSPost2010PropOp47
 70
     1
102
RTVSPost2010Prop48
 90
       50
102
RTVSPost2010PropOp48
 70
     1
102
RTVSPost2010Prop49
280
     0
102
RTVSPost2010PropOp49
 70
     1
102
RTVSPost2010Prop50
 90
       50
102
RTVSPost2010PropOp50
 70
     1
102
RTVSPost2010Prop51ColorIndex
 90
      256
102
RTVSPost2010Prop51ColorRGB
 90
-16777216
102
RTVSPost2010PropOp51
 70
     0
102
RTVSPost2010Prop52
140
1.0
102
RTVSPost2010PropOp52
 70
     0
102
RTVSPost2010Prop53
 90
        2
102
RTVSPost2010PropOp53
 70
     1
102
RTVSPost2010Prop54
  1
strokes_ogs.tif
102
RTVSPost2010PropOp54
 70
     1
102
RTVSPost2010Prop55
280
     0
102
RTVSPost2010PropOp55
 70
     1
102
RTVSPost2010Prop56
140
1.0
102
RTVSPost2010PropOp56
 70
     1
102
RTVSPost2010Prop57
140
1.0
102
RTVSPost2010PropOp57
 70
     1
102
RTVSPropertyOp0
 70
     1
102
RTVSPropertyOp1
 70
     1
102
RTVSPropertyOp2
 70
     1
102
RTVSPropertyOp3
 70
     1
102
RTVSPropertyOp4
 70
     1
102
RTVSPropertyOp5
 70
     1
102
RTVSPropertyOp6
 70
     1
102
RTVSPropertyOp7
 70
     1
102
RTVSPropertyOp8
 70
     1
102
RTVSPropertyOp9
 70
     1
102
RTVSPropertyOp10
 70
     1
102
RTVSPropertyOp11
 70
     1
102
RTVSPropertyOp12
 70
     1
102
RTVSPropertyOp13
 70
     1
102
RTVSPropertyOp14
 70
     1
102
RTVSPropertyOp15
 70
     1
102
RTVSPropertyOp16
 70
     1
102
RTVSPropertyOp17
 70
     1
102
RTVSPropertyOp18
 70
     1
102
RTVSPropertyOp19
 70
     1
102
RTVSPropertyOp20
 70
     1
102
RTVSPropertyOp21
 70
     1
102
RTVSPropertyOp22
 70
     1
102
RTVSPropertyOp23
 70
     1
102
RTVSPropertyOp24
 70
     1
102
RTVSPropertyOp25
 70
     1
102
RTVSPropertyOp26
 70
     1
102
RTVSPropertyOp27
 70
     1
102
RTVSPropertyOp28
 70
     1
102
RTVSPropertyOp29
 70
     1
102
RTVSPropertyOp30
 70
     1
102
RTVSPropertyOp31
 70
     1
102
RTVSPropertyOp32
 70
     1
102
RTVSPropertyOp33
 70
     1
102
RTVSPropertyOp34
 70
     1
102
RTVSPropertyOp35
 70
     1
102
RTVSPropertyOp36
 70
     1
102
RTVSPropertyOp37
 70
     1
102
RTVSPropertyOp38
 70
     1
102
RTVSPropertyOp39
 70
     1
102
RTVSPropertyOp40
 70
     1
102
RTVSPropertyOp41
 70
     1
102
RTVSPropertyOp42
 70
     1
102
RTVSPropertyOp43
 70
     1
102
RTVSPropertyOp44
 70
     1
102
RTVSPropertyOp45
 70
     1
102
RTVSPropertyOp46
 70
     1
102
RTVSPropertyOp47
 70
     1
102
RTVSPropertyOp48
 70
     1
102
RTVSPropertyOp49
 70
     1
102
RTVSPropertyOp50
 70
     1
102
RTVSPropertyOp51
 70
     0
102
RTVSPropertyOp52
 70
     0
102
RTVSPropertyOp53
 70
     1
102
RTVSPropertyOp54
 70
     1
102
RTVSPropertyOp55
 70
     1
102
RTVSPropertyOp56
 70
     1
102
RTVSPropertyOp57
 70
     1
102
RTVSPropertyOp58
 70
     1
102
RTVSPropertyOp59
 70
     1
102
RTVSPropertyOp60
 70
     1
102
RTVSPropertyOp61
 70
     1
102
RTVSPropertyOp62
 70
     1
  0
XRECORD
  5
157FE
102
{ACAD_REACTORS
330
157FD
102
}
330
157FD
100
AcDbXrecord
280
     1
102
RTVSPost2010Prop28
280
     0
102
RTVSPost2010PropOp28
 70
     0
102
RTVSPost2010Prop29
280
     1
102
RTVSPost2010PropOp29
 70
     0
102
RTVSPost2010Prop30
280
     1
102
RTVSPost2010PropOp30
 70
     0
102
RTVSPost2010Prop31
280
     0
102
RTVSPost2010PropOp31
 70
     0
102
RTVSPost2010Prop32
280
     0
102
RTVSPost2010PropOp32
 70
     0
102
RTVSPost2010Prop33
280
     0
102
RTVSPost2010PropOp33
 70
     0
102
RTVSPost2010Prop34
280
     0
102
RTVSPost2010PropOp34
 70
     0
102
RTVSPost2010Prop35
280
     0
102
RTVSPost2010PropOp35
 70
     0
102
RTVSPost2010Prop36
280
     0
102
RTVSPost2010PropOp36
 70
     0
102
RTVSPost2010Prop37
 90
       50
102
RTVSPost2010PropOp37
 70
     0
102
RTVSPost2010Prop38
140
0.0
102
RTVSPost2010PropOp38
 70
     0
102
RTVSPost2010Prop39
140
1.0
102
RTVSPost2010PropOp39
 70
     0
102
RTVSPost2010Prop40
 90
        0
102
RTVSPost2010PropOp40
 70
     0
102
RTVSPost2010Prop41ColorIndex
 90
       18
102
RTVSPost2010Prop41ColorRGB
 90
        0
102
RTVSPost2010PropOp41
 70
     0
102
RTVSPost2010Prop42
 90
       50
102
RTVSPost2010PropOp42
 70
     0
102
RTVSPost2010Prop43
 90
        3
102
RTVSPost2010PropOp43
 70
     0
102
RTVSPost2010Prop44ColorIndex
 90
        5
102
RTVSPost2010Prop44ColorRGB
 90
      255
102
RTVSPost2010PropOp44
 70
     0
102
RTVSPost2010Prop45
280
     0
102
RTVSPost2010PropOp45
 70
     0
102
RTVSPost2010Prop46
 90
       50
102
RTVSPost2010PropOp46
 70
     0
102
RTVSPost2010Prop47
 90
       50
102
RTVSPost2010PropOp47
 70
     0
102
RTVSPost2010Prop48
 90
       50
102
RTVSPost2010PropOp48
 70
     0
102
RTVSPost2010Prop49
280
     0
102
RTVSPost2010PropOp49
 70
     0
102
RTVSPost2010Prop50
 90
       50
102
RTVSPost2010PropOp50
 70
     0
102
RTVSPost2010Prop51ColorIndex
 90
      256
102
RTVSPost2010Prop51ColorRGB
 90
-16777216
102
RTVSPost2010PropOp51
 70
     0
102
RTVSPost2010Prop52
140
1.0
102
RTVSPost2010PropOp52
 70
     0
102
RTVSPost2010Prop53
 90
        2
102
RTVSPost2010PropOp53
 70
     0
102
RTVSPost2010Prop54
  1
strokes_ogs.tif
102
RTVSPost2010PropOp54
 70
     0
102
RTVSPost2010Prop55
280
     0
102
RTVSPost2010PropOp55
 70
     0
102
RTVSPost2010Prop56
140
1.0
102
RTVSPost2010PropOp56
 70
     0
102
RTVSPost2010Prop57
140
1.0
102
RTVSPost2010PropOp57
 70
     0
102
RTVSPropertyOp0
 70
     0
102
RTVSPropertyOp1
 70
     0
102
RTVSPropertyOp2
 70
     0
102
RTVSPropertyOp3
 70
     0
102
RTVSPropertyOp4
 70
     0
102
RTVSPropertyOp5
 70
     0
102
RTVSPropertyOp6
 70
     0
102
RTVSPropertyOp7
 70
     0
102
RTVSPropertyOp8
 70
     0
102
RTVSPropertyOp9
 70
     0
102
RTVSPropertyOp10
 70
     0
102
RTVSPropertyOp11
 70
     0
102
RTVSPropertyOp12
 70
     0
102
RTVSPropertyOp13
 70
     0
102
RTVSPropertyOp14
 70
     2
102
RTVSPropertyOp15
 70
     0
102
RTVSPropertyOp16
 70
     0
102
RTVSPropertyOp17
 70
     0
102
RTVSPropertyOp18
 70
     0
102
RTVSPropertyOp19
 70
     0
102
RTVSPropertyOp20
 70
     0
102
RTVSPropertyOp21
 70
     0
102
RTVSPropertyOp22
 70
     0
102
RTVSPropertyOp23
 70
     0
102
RTVSPropertyOp24
 70
     0
102
RTVSPropertyOp25
 70
     0
102
RTVSPropertyOp26
 70
     0
102
RTVSPropertyOp27
 70
     0
102
RTVSPropertyOp28
 70
     0
102
RTVSPropertyOp29
 70
     0
102
RTVSPropertyOp30
 70
     0
102
RTVSPropertyOp31
 70
     0
102
RTVSPropertyOp32
 70
     0
102
RTVSPropertyOp33
 70
     0
102
RTVSPropertyOp34
 70
     0
102
RTVSPropertyOp35
 70
     0
102
RTVSPropertyOp36
 70
     0
102
RTVSPropertyOp37
 70
     0
102
RTVSPropertyOp38
 70
     0
102
RTVSPropertyOp39
 70
     0
102
RTVSPropertyOp40
 70
     0
102
RTVSPropertyOp41
 70
     0
102
RTVSPropertyOp42
 70
     0
102
RTVSPropertyOp43
 70
     0
102
RTVSPropertyOp44
 70
     0
102
RTVSPropertyOp45
 70
     0
102
RTVSPropertyOp46
 70
     0
102
RTVSPropertyOp47
 70
     0
102
RTVSPropertyOp48
 70
     0
102
RTVSPropertyOp49
 70
     0
102
RTVSPropertyOp50
 70
     0
102
RTVSPropertyOp51
 70
     0
102
RTVSPropertyOp52
 70
     0
102
RTVSPropertyOp53
 70
     0
102
RTVSPropertyOp54
 70
     0
102
RTVSPropertyOp55
 70
     0
102
RTVSPropertyOp56
 70
     0
102
RTVSPropertyOp57
 70
     0
102
RTVSPropertyOp58
 70
     0
102
RTVSPropertyOp59
 70
     0
102
RTVSPropertyOp60
 70
     0
102
RTVSPropertyOp61
 70
     0
102
RTVSPropertyOp62
 70
     0
  0
XRECORD
  5
157EE
102
{ACAD_REACTORS
330
157ED
102
}
330
157ED
100
AcDbXrecord
280
     1
102
RTVSPost2010Prop28
280
     0
102
RTVSPost2010PropOp28
 70
     1
102
RTVSPost2010Prop29
280
     1
102
RTVSPost2010PropOp29
 70
     1
102
RTVSPost2010Prop30
280
     1
102
RTVSPost2010PropOp30
 70
     1
102
RTVSPost2010Prop31
280
     0
102
RTVSPost2010PropOp31
 70
     1
102
RTVSPost2010Prop32
280
     0
102
RTVSPost2010PropOp32
 70
     1
102
RTVSPost2010Prop33
280
     0
102
RTVSPost2010PropOp33
 70
     1
102
RTVSPost2010Prop34
280
     0
102
RTVSPost2010PropOp34
 70
     1
102
RTVSPost2010Prop35
280
     0
102
RTVSPost2010PropOp35
 70
     1
102
RTVSPost2010Prop36
280
     0
102
RTVSPost2010PropOp36
 70
     1
102
RTVSPost2010Prop37
 90
       50
102
RTVSPost2010PropOp37
 70
     1
102
RTVSPost2010Prop38
140
0.0
102
RTVSPost2010PropOp38
 70
     1
102
RTVSPost2010Prop39
140
1.0
102
RTVSPost2010PropOp39
 70
     1
102
RTVSPost2010Prop40
 90
        0
102
RTVSPost2010PropOp40
 70
     1
102
RTVSPost2010Prop41ColorIndex
 90
       18
102
RTVSPost2010Prop41ColorRGB
 90
        0
102
RTVSPost2010PropOp41
 70
     1
102
RTVSPost2010Prop42
 90
       50
102
RTVSPost2010PropOp42
 70
     1
102
RTVSPost2010Prop43
 90
        3
102
RTVSPost2010PropOp43
 70
     1
102
RTVSPost2010Prop44ColorIndex
 90
        5
102
RTVSPost2010Prop44ColorRGB
 90
      255
102
RTVSPost2010PropOp44
 70
     1
102
RTVSPost2010Prop45
280
     0
102
RTVSPost2010PropOp45
 70
     1
102
RTVSPost2010Prop46
 90
       50
102
RTVSPost2010PropOp46
 70
     1
102
RTVSPost2010Prop47
 90
       50
102
RTVSPost2010PropOp47
 70
     1
102
RTVSPost2010Prop48
 90
       50
102
RTVSPost2010PropOp48
 70
     1
102
RTVSPost2010Prop49
280
     0
102
RTVSPost2010PropOp49
 70
     1
102
RTVSPost2010Prop50
 90
       50
102
RTVSPost2010PropOp50
 70
     1
102
RTVSPost2010Prop51ColorIndex
 90
      256
102
RTVSPost2010Prop51ColorRGB
 90
-16777216
102
RTVSPost2010PropOp51
 70
     0
102
RTVSPost2010Prop52
140
1.0
102
RTVSPost2010PropOp52
 70
     0
102
RTVSPost2010Prop53
 90
        2
102
RTVSPost2010PropOp53
 70
     1
102
RTVSPost2010Prop54
  1
strokes_ogs.tif
102
RTVSPost2010PropOp54
 70
     1
102
RTVSPost2010Prop55
280
     0
102
RTVSPost2010PropOp55
 70
     1
102
RTVSPost2010Prop56
140
1.0
102
RTVSPost2010PropOp56
 70
     1
102
RTVSPost2010Prop57
140
1.0
102
RTVSPost2010PropOp57
 70
     1
102
RTVSPropertyOp0
 70
     1
102
RTVSPropertyOp1
 70
     1
102
RTVSPropertyOp2
 70
     1
102
RTVSPropertyOp3
 70
     1
102
RTVSPropertyOp4
 70
     1
102
RTVSPropertyOp5
 70
     1
102
RTVSPropertyOp6
 70
     1
102
RTVSPropertyOp7
 70
     1
102
RTVSPropertyOp8
 70
     1
102
RTVSPropertyOp9
 70
     1
102
RTVSPropertyOp10
 70
     1
102
RTVSPropertyOp11
 70
     1
102
RTVSPropertyOp12
 70
     1
102
RTVSPropertyOp13
 70
     1
102
RTVSPropertyOp14
 70
     1
102
RTVSPropertyOp15
 70
     1
102
RTVSPropertyOp16
 70
     1
102
RTVSPropertyOp17
 70
     1
102
RTVSPropertyOp18
 70
     1
102
RTVSPropertyOp19
 70
     1
102
RTVSPropertyOp20
 70
     1
102
RTVSPropertyOp21
 70
     1
102
RTVSPropertyOp22
 70
     1
102
RTVSPropertyOp23
 70
     1
102
RTVSPropertyOp24
 70
     1
102
RTVSPropertyOp25
 70
     1
102
RTVSPropertyOp26
 70
     1
102
RTVSPropertyOp27
 70
     1
102
RTVSPropertyOp28
 70
     1
102
RTVSPropertyOp29
 70
     1
102
RTVSPropertyOp30
 70
     1
102
RTVSPropertyOp31
 70
     1
102
RTVSPropertyOp32
 70
     1
102
RTVSPropertyOp33
 70
     1
102
RTVSPropertyOp34
 70
     1
102
RTVSPropertyOp35
 70
     1
102
RTVSPropertyOp36
 70
     1
102
RTVSPropertyOp37
 70
     1
102
RTVSPropertyOp38
 70
     1
102
RTVSPropertyOp39
 70
     1
102
RTVSPropertyOp40
 70
     1
102
RTVSPropertyOp41
 70
     1
102
RTVSPropertyOp42
 70
     1
102
RTVSPropertyOp43
 70
     1
102
RTVSPropertyOp44
 70
     1
102
RTVSPropertyOp45
 70
     1
102
RTVSPropertyOp46
 70
     1
102
RTVSPropertyOp47
 70
     1
102
RTVSPropertyOp48
 70
     1
102
RTVSPropertyOp49
 70
     1
102
RTVSPropertyOp50
 70
     1
102
RTVSPropertyOp51
 70
     0
102
RTVSPropertyOp52
 70
     0
102
RTVSPropertyOp53
 70
     1
102
RTVSPropertyOp54
 70
     1
102
RTVSPropertyOp55
 70
     1
102
RTVSPropertyOp56
 70
     1
102
RTVSPropertyOp57
 70
     1
102
RTVSPropertyOp58
 70
     1
102
RTVSPropertyOp59
 70
     1
102
RTVSPropertyOp60
 70
     1
102
RTVSPropertyOp61
 70
     1
102
RTVSPropertyOp62
 70
     1
  0
XRECORD
  5
15800
102
{ACAD_REACTORS
330
157FF
102
}
330
157FF
100
AcDbXrecord
280
     1
102
RTVSPost2010Prop28
280
     0
102
RTVSPost2010PropOp28
 70
     0
102
RTVSPost2010Prop29
280
     1
102
RTVSPost2010PropOp29
 70
     0
102
RTVSPost2010Prop30
280
     1
102
RTVSPost2010PropOp30
 70
     0
102
RTVSPost2010Prop31
280
     0
102
RTVSPost2010PropOp31
 70
     0
102
RTVSPost2010Prop32
280
     0
102
RTVSPost2010PropOp32
 70
     0
102
RTVSPost2010Prop33
280
     0
102
RTVSPost2010PropOp33
 70
     0
102
RTVSPost2010Prop34
280
     0
102
RTVSPost2010PropOp34
 70
     0
102
RTVSPost2010Prop35
280
     0
102
RTVSPost2010PropOp35
 70
     0
102
RTVSPost2010Prop36
280
     0
102
RTVSPost2010PropOp36
 70
     0
102
RTVSPost2010Prop37
 90
       50
102
RTVSPost2010PropOp37
 70
     0
102
RTVSPost2010Prop38
140
0.0
102
RTVSPost2010PropOp38
 70
     0
102
RTVSPost2010Prop39
140
1.0
102
RTVSPost2010PropOp39
 70
     0
102
RTVSPost2010Prop40
 90
        0
102
RTVSPost2010PropOp40
 70
     0
102
RTVSPost2010Prop41ColorIndex
 90
       18
102
RTVSPost2010Prop41ColorRGB
 90
        0
102
RTVSPost2010PropOp41
 70
     0
102
RTVSPost2010Prop42
 90
       50
102
RTVSPost2010PropOp42
 70
     0
102
RTVSPost2010Prop43
 90
        3
102
RTVSPost2010PropOp43
 70
     0
102
RTVSPost2010Prop44ColorIndex
 90
        5
102
RTVSPost2010Prop44ColorRGB
 90
      255
102
RTVSPost2010PropOp44
 70
     0
102
RTVSPost2010Prop45
280
     0
102
RTVSPost2010PropOp45
 70
     0
102
RTVSPost2010Prop46
 90
       50
102
RTVSPost2010PropOp46
 70
     0
102
RTVSPost2010Prop47
 90
       50
102
RTVSPost2010PropOp47
 70
     0
102
RTVSPost2010Prop48
 90
       50
102
RTVSPost2010PropOp48
 70
     0
102
RTVSPost2010Prop49
280
     0
102
RTVSPost2010PropOp49
 70
     0
102
RTVSPost2010Prop50
 90
       50
102
RTVSPost2010PropOp50
 70
     0
102
RTVSPost2010Prop51ColorIndex
 90
      256
102
RTVSPost2010Prop51ColorRGB
 90
-16777216
102
RTVSPost2010PropOp51
 70
     0
102
RTVSPost2010Prop52
140
1.0
102
RTVSPost2010PropOp52
 70
     0
102
RTVSPost2010Prop53
 90
        2
102
RTVSPost2010PropOp53
 70
     0
102
RTVSPost2010Prop54
  1
strokes_ogs.tif
102
RTVSPost2010PropOp54
 70
     0
102
RTVSPost2010Prop55
280
     0
102
RTVSPost2010PropOp55
 70
     0
102
RTVSPost2010Prop56
140
1.0
102
RTVSPost2010PropOp56
 70
     0
102
RTVSPost2010Prop57
140
1.0
102
RTVSPost2010PropOp57
 70
     0
102
RTVSPropertyOp0
 70
     0
102
RTVSPropertyOp1
 70
     0
102
RTVSPropertyOp2
 70
     0
102
RTVSPropertyOp3
 70
     0
102
RTVSPropertyOp4
 70
     0
102
RTVSPropertyOp5
 70
     0
102
RTVSPropertyOp6
 70
     0
102
RTVSPropertyOp7
 70
     0
102
RTVSPropertyOp8
 70
     0
102
RTVSPropertyOp9
 70
     0
102
RTVSPropertyOp10
 70
     0
102
RTVSPropertyOp11
 70
     0
102
RTVSPropertyOp12
 70
     0
102
RTVSPropertyOp13
 70
     0
102
RTVSPropertyOp14
 70
     2
102
RTVSPropertyOp15
 70
     0
102
RTVSPropertyOp16
 70
     0
102
RTVSPropertyOp17
 70
     0
102
RTVSPropertyOp18
 70
     0
102
RTVSPropertyOp19
 70
     0
102
RTVSPropertyOp20
 70
     0
102
RTVSPropertyOp21
 70
     0
102
RTVSPropertyOp22
 70
     0
102
RTVSPropertyOp23
 70
     0
102
RTVSPropertyOp24
 70
     0
102
RTVSPropertyOp25
 70
     0
102
RTVSPropertyOp26
 70
     0
102
RTVSPropertyOp27
 70
     0
102
RTVSPropertyOp28
 70
     0
102
RTVSPropertyOp29
 70
     0
102
RTVSPropertyOp30
 70
     0
102
RTVSPropertyOp31
 70
     0
102
RTVSPropertyOp32
 70
     0
102
RTVSPropertyOp33
 70
     0
102
RTVSPropertyOp34
 70
     0
102
RTVSPropertyOp35
 70
     0
102
RTVSPropertyOp36
 70
     0
102
RTVSPropertyOp37
 70
     0
102
RTVSPropertyOp38
 70
     0
102
RTVSPropertyOp39
 70
     0
102
RTVSPropertyOp40
 70
     0
102
RTVSPropertyOp41
 70
     0
102
RTVSPropertyOp42
 70
     0
102
RTVSPropertyOp43
 70
     0
102
RTVSPropertyOp44
 70
     0
102
RTVSPropertyOp45
 70
     0
102
RTVSPropertyOp46
 70
     0
102
RTVSPropertyOp47
 70
     0
102
RTVSPropertyOp48
 70
     0
102
RTVSPropertyOp49
 70
     0
102
RTVSPropertyOp50
 70
     0
102
RTVSPropertyOp51
 70
     0
102
RTVSPropertyOp52
 70
     0
102
RTVSPropertyOp53
 70
     0
102
RTVSPropertyOp54
 70
     0
102
RTVSPropertyOp55
 70
     0
102
RTVSPropertyOp56
 70
     0
102
RTVSPropertyOp57
 70
     0
102
RTVSPropertyOp58
 70
     0
102
RTVSPropertyOp59
 70
     0
102
RTVSPropertyOp60
 70
     0
102
RTVSPropertyOp61
 70
     0
102
RTVSPropertyOp62
 70
     0
  0
XRECORD
  5
157E6
102
{ACAD_REACTORS
330
157E5
102
}
330
157E5
100
AcDbXrecord
280
     1
102
RTVSPost2010Prop28
280
     0
102
RTVSPost2010PropOp28
 70
     1
102
RTVSPost2010Prop29
280
     1
102
RTVSPost2010PropOp29
 70
     1
102
RTVSPost2010Prop30
280
     1
102
RTVSPost2010PropOp30
 70
     1
102
RTVSPost2010Prop31
280
     0
102
RTVSPost2010PropOp31
 70
     1
102
RTVSPost2010Prop32
280
     0
102
RTVSPost2010PropOp32
 70
     1
102
RTVSPost2010Prop33
280
     0
102
RTVSPost2010PropOp33
 70
     1
102
RTVSPost2010Prop34
280
     0
102
RTVSPost2010PropOp34
 70
     1
102
RTVSPost2010Prop35
280
     0
102
RTVSPost2010PropOp35
 70
     1
102
RTVSPost2010Prop36
280
     0
102
RTVSPost2010PropOp36
 70
     1
102
RTVSPost2010Prop37
 90
       50
102
RTVSPost2010PropOp37
 70
     1
102
RTVSPost2010Prop38
140
0.0
102
RTVSPost2010PropOp38
 70
     1
102
RTVSPost2010Prop39
140
1.0
102
RTVSPost2010PropOp39
 70
     1
102
RTVSPost2010Prop40
 90
        0
102
RTVSPost2010PropOp40
 70
     1
102
RTVSPost2010Prop41ColorIndex
 90
       18
102
RTVSPost2010Prop41ColorRGB
 90
        0
102
RTVSPost2010PropOp41
 70
     1
102
RTVSPost2010Prop42
 90
       50
102
RTVSPost2010PropOp42
 70
     1
102
RTVSPost2010Prop43
 90
        3
102
RTVSPost2010PropOp43
 70
     1
102
RTVSPost2010Prop44ColorIndex
 90
        5
102
RTVSPost2010Prop44ColorRGB
 90
      255
102
RTVSPost2010PropOp44
 70
     1
102
RTVSPost2010Prop45
280
     0
102
RTVSPost2010PropOp45
 70
     1
102
RTVSPost2010Prop46
 90
       50
102
RTVSPost2010PropOp46
 70
     1
102
RTVSPost2010Prop47
 90
       50
102
RTVSPost2010PropOp47
 70
     1
102
RTVSPost2010Prop48
 90
       50
102
RTVSPost2010PropOp48
 70
     1
102
RTVSPost2010Prop49
280
     0
102
RTVSPost2010PropOp49
 70
     1
102
RTVSPost2010Prop50
 90
       50
102
RTVSPost2010PropOp50
 70
     1
102
RTVSPost2010Prop51ColorIndex
 90
      256
102
RTVSPost2010Prop51ColorRGB
 90
-16777216
102
RTVSPost2010PropOp51
 70
     0
102
RTVSPost2010Prop52
140
1.0
102
RTVSPost2010PropOp52
 70
     0
102
RTVSPost2010Prop53
 90
        2
102
RTVSPost2010PropOp53
 70
     1
102
RTVSPost2010Prop54
  1
strokes_ogs.tif
102
RTVSPost2010PropOp54
 70
     1
102
RTVSPost2010Prop55
280
     0
102
RTVSPost2010PropOp55
 70
     1
102
RTVSPost2010Prop56
140
1.0
102
RTVSPost2010PropOp56
 70
     1
102
RTVSPost2010Prop57
140
1.0
102
RTVSPost2010PropOp57
 70
     1
102
RTVSPropertyOp0
 70
     1
102
RTVSPropertyOp1
 70
     1
102
RTVSPropertyOp2
 70
     1
102
RTVSPropertyOp3
 70
     1
102
RTVSPropertyOp4
 70
     1
102
RTVSPropertyOp5
 70
     1
102
RTVSPropertyOp6
 70
     1
102
RTVSPropertyOp7
 70
     1
102
RTVSPropertyOp8
 70
     1
102
RTVSPropertyOp9
 70
     1
102
RTVSPropertyOp10
 70
     1
102
RTVSPropertyOp11
 70
     1
102
RTVSPropertyOp12
 70
     1
102
RTVSPropertyOp13
 70
     1
102
RTVSPropertyOp14
 70
     1
102
RTVSPropertyOp15
 70
     1
102
RTVSPropertyOp16
 70
     1
102
RTVSPropertyOp17
 70
     1
102
RTVSPropertyOp18
 70
     1
102
RTVSPropertyOp19
 70
     1
102
RTVSPropertyOp20
 70
     1
102
RTVSPropertyOp21
 70
     1
102
RTVSPropertyOp22
 70
     1
102
RTVSPropertyOp23
 70
     1
102
RTVSPropertyOp24
 70
     1
102
RTVSPropertyOp25
 70
     1
102
RTVSPropertyOp26
 70
     1
102
RTVSPropertyOp27
 70
     1
102
RTVSPropertyOp28
 70
     1
102
RTVSPropertyOp29
 70
     1
102
RTVSPropertyOp30
 70
     1
102
RTVSPropertyOp31
 70
     1
102
RTVSPropertyOp32
 70
     1
102
RTVSPropertyOp33
 70
     1
102
RTVSPropertyOp34
 70
     1
102
RTVSPropertyOp35
 70
     1
102
RTVSPropertyOp36
 70
     1
102
RTVSPropertyOp37
 70
     1
102
RTVSPropertyOp38
 70
     1
102
RTVSPropertyOp39
 70
     1
102
RTVSPropertyOp40
 70
     1
102
RTVSPropertyOp41
 70
     1
102
RTVSPropertyOp42
 70
     1
102
RTVSPropertyOp43
 70
     1
102
RTVSPropertyOp44
 70
     1
102
RTVSPropertyOp45
 70
     1
102
RTVSPropertyOp46
 70
     1
102
RTVSPropertyOp47
 70
     1
102
RTVSPropertyOp48
 70
     1
102
RTVSPropertyOp49
 70
     1
102
RTVSPropertyOp50
 70
     1
102
RTVSPropertyOp51
 70
     0
102
RTVSPropertyOp52
 70
     0
102
RTVSPropertyOp53
 70
     1
102
RTVSPropertyOp54
 70
     1
102
RTVSPropertyOp55
 70
     1
102
RTVSPropertyOp56
 70
     1
102
RTVSPropertyOp57
 70
     1
102
RTVSPropertyOp58
 70
     1
102
RTVSPropertyOp59
 70
     1
102
RTVSPropertyOp60
 70
     1
102
RTVSPropertyOp61
 70
     1
102
RTVSPropertyOp62
 70
     1
  0
XRECORD
  5
157FC
102
{ACAD_REACTORS
330
157FB
102
}
330
157FB
100
AcDbXrecord
280
     1
102
RTVSPost2010Prop28
280
     0
102
RTVSPost2010PropOp28
 70
     1
102
RTVSPost2010Prop29
280
     1
102
RTVSPost2010PropOp29
 70
     1
102
RTVSPost2010Prop30
280
     1
102
RTVSPost2010PropOp30
 70
     1
102
RTVSPost2010Prop31
280
     0
102
RTVSPost2010PropOp31
 70
     1
102
RTVSPost2010Prop32
280
     0
102
RTVSPost2010PropOp32
 70
     1
102
RTVSPost2010Prop33
280
     0
102
RTVSPost2010PropOp33
 70
     1
102
RTVSPost2010Prop34
280
     0
102
RTVSPost2010PropOp34
 70
     1
102
RTVSPost2010Prop35
280
     0
102
RTVSPost2010PropOp35
 70
     1
102
RTVSPost2010Prop36
280
     0
102
RTVSPost2010PropOp36
 70
     1
102
RTVSPost2010Prop37
 90
       50
102
RTVSPost2010PropOp37
 70
     1
102
RTVSPost2010Prop38
140
0.0
102
RTVSPost2010PropOp38
 70
     1
102
RTVSPost2010Prop39
140
1.0
102
RTVSPost2010PropOp39
 70
     1
102
RTVSPost2010Prop40
 90
        0
102
RTVSPost2010PropOp40
 70
     1
102
RTVSPost2010Prop41ColorIndex
 90
       18
102
RTVSPost2010Prop41ColorRGB
 90
        0
102
RTVSPost2010PropOp41
 70
     1
102
RTVSPost2010Prop42
 90
       50
102
RTVSPost2010PropOp42
 70
     1
102
RTVSPost2010Prop43
 90
        3
102
RTVSPost2010PropOp43
 70
     1
102
RTVSPost2010Prop44ColorIndex
 90
        5
102
RTVSPost2010Prop44ColorRGB
 90
      255
102
RTVSPost2010PropOp44
 70
     1
102
RTVSPost2010Prop45
280
     0
102
RTVSPost2010PropOp45
 70
     1
102
RTVSPost2010Prop46
 90
       50
102
RTVSPost2010PropOp46
 70
     1
102
RTVSPost2010Prop47
 90
       50
102
RTVSPost2010PropOp47
 70
     1
102
RTVSPost2010Prop48
 90
       50
102
RTVSPost2010PropOp48
 70
     1
102
RTVSPost2010Prop49
280
     0
102
RTVSPost2010PropOp49
 70
     1
102
RTVSPost2010Prop50
 90
       50
102
RTVSPost2010PropOp50
 70
     1
102
RTVSPost2010Prop51ColorIndex
 90
      256
102
RTVSPost2010Prop51ColorRGB
 90
-16777216
102
RTVSPost2010PropOp51
 70
     0
102
RTVSPost2010Prop52
140
1.0
102
RTVSPost2010PropOp52
 70
     0
102
RTVSPost2010Prop53
 90
        2
102
RTVSPost2010PropOp53
 70
     1
102
RTVSPost2010Prop54
  1
strokes_ogs.tif
102
RTVSPost2010PropOp54
 70
     1
102
RTVSPost2010Prop55
280
     0
102
RTVSPost2010PropOp55
 70
     1
102
RTVSPost2010Prop56
140
1.0
102
RTVSPost2010PropOp56
 70
     1
102
RTVSPost2010Prop57
140
1.0
102
RTVSPost2010PropOp57
 70
     1
102
RTVSPropertyOp0
 70
     1
102
RTVSPropertyOp1
 70
     1
102
RTVSPropertyOp2
 70
     1
102
RTVSPropertyOp3
 70
     1
102
RTVSPropertyOp4
 70
     1
102
RTVSPropertyOp5
 70
     1
102
RTVSPropertyOp6
 70
     1
102
RTVSPropertyOp7
 70
     1
102
RTVSPropertyOp8
 70
     1
102
RTVSPropertyOp9
 70
     1
102
RTVSPropertyOp10
 70
     1
102
RTVSPropertyOp11
 70
     1
102
RTVSPropertyOp12
 70
     1
102
RTVSPropertyOp13
 70
     1
102
RTVSPropertyOp14
 70
     1
102
RTVSPropertyOp15
 70
     1
102
RTVSPropertyOp16
 70
     1
102
RTVSPropertyOp17
 70
     1
102
RTVSPropertyOp18
 70
     1
102
RTVSPropertyOp19
 70
     1
102
RTVSPropertyOp20
 70
     1
102
RTVSPropertyOp21
 70
     1
102
RTVSPropertyOp22
 70
     1
102
RTVSPropertyOp23
 70
     1
102
RTVSPropertyOp24
 70
     1
102
RTVSPropertyOp25
 70
     1
102
RTVSPropertyOp26
 70
     1
102
RTVSPropertyOp27
 70
     1
102
RTVSPropertyOp28
 70
     1
102
RTVSPropertyOp29
 70
     1
102
RTVSPropertyOp30
 70
     1
102
RTVSPropertyOp31
 70
     1
102
RTVSPropertyOp32
 70
     1
102
RTVSPropertyOp33
 70
     1
102
RTVSPropertyOp34
 70
     1
102
RTVSPropertyOp35
 70
     1
102
RTVSPropertyOp36
 70
     1
102
RTVSPropertyOp37
 70
     1
102
RTVSPropertyOp38
 70
     1
102
RTVSPropertyOp39
 70
     1
102
RTVSPropertyOp40
 70
     1
102
RTVSPropertyOp41
 70
     1
102
RTVSPropertyOp42
 70
     1
102
RTVSPropertyOp43
 70
     1
102
RTVSPropertyOp44
 70
     1
102
RTVSPropertyOp45
 70
     1
102
RTVSPropertyOp46
 70
     1
102
RTVSPropertyOp47
 70
     1
102
RTVSPropertyOp48
 70
     1
102
RTVSPropertyOp49
 70
     1
102
RTVSPropertyOp50
 70
     1
102
RTVSPropertyOp51
 70
     0
102
RTVSPropertyOp52
 70
     0
102
RTVSPropertyOp53
 70
     1
102
RTVSPropertyOp54
 70
     1
102
RTVSPropertyOp55
 70
     1
102
RTVSPropertyOp56
 70
     1
102
RTVSPropertyOp57
 70
     1
102
RTVSPropertyOp58
 70
     1
102
RTVSPropertyOp59
 70
     1
102
RTVSPropertyOp60
 70
     1
102
RTVSPropertyOp61
 70
     1
102
RTVSPropertyOp62
 70
     1
  0
XRECORD
  5
157FA
102
{ACAD_REACTORS
330
157F9
102
}
330
157F9
100
AcDbXrecord
280
     1
102
RTVSPost2010Prop28
280
     0
102
RTVSPost2010PropOp28
 70
     1
102
RTVSPost2010Prop29
280
     1
102
RTVSPost2010PropOp29
 70
     1
102
RTVSPost2010Prop30
280
     1
102
RTVSPost2010PropOp30
 70
     1
102
RTVSPost2010Prop31
280
     0
102
RTVSPost2010PropOp31
 70
     1
102
RTVSPost2010Prop32
280
     0
102
RTVSPost2010PropOp32
 70
     1
102
RTVSPost2010Prop33
280
     0
102
RTVSPost2010PropOp33
 70
     1
102
RTVSPost2010Prop34
280
     0
102
RTVSPost2010PropOp34
 70
     1
102
RTVSPost2010Prop35
280
     0
102
RTVSPost2010PropOp35
 70
     1
102
RTVSPost2010Prop36
280
     0
102
RTVSPost2010PropOp36
 70
     1
102
RTVSPost2010Prop37
 90
       50
102
RTVSPost2010PropOp37
 70
     1
102
RTVSPost2010Prop38
140
0.0
102
RTVSPost2010PropOp38
 70
     1
102
RTVSPost2010Prop39
140
1.0
102
RTVSPost2010PropOp39
 70
     1
102
RTVSPost2010Prop40
 90
        0
102
RTVSPost2010PropOp40
 70
     1
102
RTVSPost2010Prop41ColorIndex
 90
       18
102
RTVSPost2010Prop41ColorRGB
 90
        0
102
RTVSPost2010PropOp41
 70
     1
102
RTVSPost2010Prop42
 90
       50
102
RTVSPost2010PropOp42
 70
     1
102
RTVSPost2010Prop43
 90
        3
102
RTVSPost2010PropOp43
 70
     1
102
RTVSPost2010Prop44ColorIndex
 90
        5
102
RTVSPost2010Prop44ColorRGB
 90
      255
102
RTVSPost2010PropOp44
 70
     1
102
RTVSPost2010Prop45
280
     0
102
RTVSPost2010PropOp45
 70
     1
102
RTVSPost2010Prop46
 90
       50
102
RTVSPost2010PropOp46
 70
     1
102
RTVSPost2010Prop47
 90
       50
102
RTVSPost2010PropOp47
 70
     1
102
RTVSPost2010Prop48
 90
       50
102
RTVSPost2010PropOp48
 70
     1
102
RTVSPost2010Prop49
280
     0
102
RTVSPost2010PropOp49
 70
     1
102
RTVSPost2010Prop50
 90
       50
102
RTVSPost2010PropOp50
 70
     1
102
RTVSPost2010Prop51ColorIndex
 90
      256
102
RTVSPost2010Prop51ColorRGB
 90
-16777216
102
RTVSPost2010PropOp51
 70
     0
102
RTVSPost2010Prop52
140
1.0
102
RTVSPost2010PropOp52
 70
     0
102
RTVSPost2010Prop53
 90
        2
102
RTVSPost2010PropOp53
 70
     1
102
RTVSPost2010Prop54
  1
strokes_ogs.tif
102
RTVSPost2010PropOp54
 70
     1
102
RTVSPost2010Prop55
280
     0
102
RTVSPost2010PropOp55
 70
     1
102
RTVSPost2010Prop56
140
1.0
102
RTVSPost2010PropOp56
 70
     1
102
RTVSPost2010Prop57
140
1.0
102
RTVSPost2010PropOp57
 70
     1
102
RTVSPropertyOp0
 70
     1
102
RTVSPropertyOp1
 70
     1
102
RTVSPropertyOp2
 70
     1
102
RTVSPropertyOp3
 70
     1
102
RTVSPropertyOp4
 70
     1
102
RTVSPropertyOp5
 70
     1
102
RTVSPropertyOp6
 70
     1
102
RTVSPropertyOp7
 70
     1
102
RTVSPropertyOp8
 70
     1
102
RTVSPropertyOp9
 70
     1
102
RTVSPropertyOp10
 70
     1
102
RTVSPropertyOp11
 70
     1
102
RTVSPropertyOp12
 70
     1
102
RTVSPropertyOp13
 70
     1
102
RTVSPropertyOp14
 70
     1
102
RTVSPropertyOp15
 70
     1
102
RTVSPropertyOp16
 70
     1
102
RTVSPropertyOp17
 70
     1
102
RTVSPropertyOp18
 70
     1
102
RTVSPropertyOp19
 70
     1
102
RTVSPropertyOp20
 70
     1
102
RTVSPropertyOp21
 70
     1
102
RTVSPropertyOp22
 70
     1
102
RTVSPropertyOp23
 70
     1
102
RTVSPropertyOp24
 70
     1
102
RTVSPropertyOp25
 70
     1
102
RTVSPropertyOp26
 70
     1
102
RTVSPropertyOp27
 70
     1
102
RTVSPropertyOp28
 70
     1
102
RTVSPropertyOp29
 70
     1
102
RTVSPropertyOp30
 70
     1
102
RTVSPropertyOp31
 70
     1
102
RTVSPropertyOp32
 70
     1
102
RTVSPropertyOp33
 70
     1
102
RTVSPropertyOp34
 70
     1
102
RTVSPropertyOp35
 70
     1
102
RTVSPropertyOp36
 70
     1
102
RTVSPropertyOp37
 70
     1
102
RTVSPropertyOp38
 70
     1
102
RTVSPropertyOp39
 70
     1
102
RTVSPropertyOp40
 70
     1
102
RTVSPropertyOp41
 70
     1
102
RTVSPropertyOp42
 70
     1
102
RTVSPropertyOp43
 70
     1
102
RTVSPropertyOp44
 70
     1
102
RTVSPropertyOp45
 70
     1
102
RTVSPropertyOp46
 70
     1
102
RTVSPropertyOp47
 70
     1
102
RTVSPropertyOp48
 70
     1
102
RTVSPropertyOp49
 70
     1
102
RTVSPropertyOp50
 70
     1
102
RTVSPropertyOp51
 70
     0
102
RTVSPropertyOp52
 70
     0
102
RTVSPropertyOp53
 70
     1
102
RTVSPropertyOp54
 70
     1
102
RTVSPropertyOp55
 70
     1
102
RTVSPropertyOp56
 70
     1
102
RTVSPropertyOp57
 70
     1
102
RTVSPropertyOp58
 70
     1
102
RTVSPropertyOp59
 70
     1
102
RTVSPropertyOp60
 70
     1
102
RTVSPropertyOp61
 70
     1
102
RTVSPropertyOp62
 70
     1
  0
XRECORD
  5
157F4
102
{ACAD_REACTORS
330
157F3
102
}
330
157F3
100
AcDbXrecord
280
     1
102
RTVSPost2010Prop28
280
     0
102
RTVSPost2010PropOp28
 70
     1
102
RTVSPost2010Prop29
280
     1
102
RTVSPost2010PropOp29
 70
     1
102
RTVSPost2010Prop30
280
     1
102
RTVSPost2010PropOp30
 70
     1
102
RTVSPost2010Prop31
280
     0
102
RTVSPost2010PropOp31
 70
     1
102
RTVSPost2010Prop32
280
     0
102
RTVSPost2010PropOp32
 70
     1
102
RTVSPost2010Prop33
280
     0
102
RTVSPost2010PropOp33
 70
     1
102
RTVSPost2010Prop34
280
     0
102
RTVSPost2010PropOp34
 70
     1
102
RTVSPost2010Prop35
280
     0
102
RTVSPost2010PropOp35
 70
     1
102
RTVSPost2010Prop36
280
     0
102
RTVSPost2010PropOp36
 70
     1
102
RTVSPost2010Prop37
 90
       50
102
RTVSPost2010PropOp37
 70
     1
102
RTVSPost2010Prop38
140
0.0
102
RTVSPost2010PropOp38
 70
     1
102
RTVSPost2010Prop39
140
1.0
102
RTVSPost2010PropOp39
 70
     1
102
RTVSPost2010Prop40
 90
        0
102
RTVSPost2010PropOp40
 70
     1
102
RTVSPost2010Prop41ColorIndex
 90
       18
102
RTVSPost2010Prop41ColorRGB
 90
        0
102
RTVSPost2010PropOp41
 70
     1
102
RTVSPost2010Prop42
 90
       50
102
RTVSPost2010PropOp42
 70
     1
102
RTVSPost2010Prop43
 90
        3
102
RTVSPost2010PropOp43
 70
     1
102
RTVSPost2010Prop44ColorIndex
 90
        5
102
RTVSPost2010Prop44ColorRGB
 90
      255
102
RTVSPost2010PropOp44
 70
     1
102
RTVSPost2010Prop45
280
     0
102
RTVSPost2010PropOp45
 70
     1
102
RTVSPost2010Prop46
 90
       50
102
RTVSPost2010PropOp46
 70
     1
102
RTVSPost2010Prop47
 90
       50
102
RTVSPost2010PropOp47
 70
     1
102
RTVSPost2010Prop48
 90
       50
102
RTVSPost2010PropOp48
 70
     1
102
RTVSPost2010Prop49
280
     0
102
RTVSPost2010PropOp49
 70
     1
102
RTVSPost2010Prop50
 90
       50
102
RTVSPost2010PropOp50
 70
     1
102
RTVSPost2010Prop51ColorIndex
 90
      256
102
RTVSPost2010Prop51ColorRGB
 90
-16777216
102
RTVSPost2010PropOp51
 70
     0
102
RTVSPost2010Prop52
140
1.0
102
RTVSPost2010PropOp52
 70
     0
102
RTVSPost2010Prop53
 90
        2
102
RTVSPost2010PropOp53
 70
     1
102
RTVSPost2010Prop54
  1
strokes_ogs.tif
102
RTVSPost2010PropOp54
 70
     1
102
RTVSPost2010Prop55
280
     0
102
RTVSPost2010PropOp55
 70
     1
102
RTVSPost2010Prop56
140
1.0
102
RTVSPost2010PropOp56
 70
     1
102
RTVSPost2010Prop57
140
1.0
102
RTVSPost2010PropOp57
 70
     1
102
RTVSPropertyOp0
 70
     1
102
RTVSPropertyOp1
 70
     1
102
RTVSPropertyOp2
 70
     1
102
RTVSPropertyOp3
 70
     1
102
RTVSPropertyOp4
 70
     1
102
RTVSPropertyOp5
 70
     1
102
RTVSPropertyOp6
 70
     1
102
RTVSPropertyOp7
 70
     1
102
RTVSPropertyOp8
 70
     1
102
RTVSPropertyOp9
 70
     1
102
RTVSPropertyOp10
 70
     1
102
RTVSPropertyOp11
 70
     1
102
RTVSPropertyOp12
 70
     1
102
RTVSPropertyOp13
 70
     1
102
RTVSPropertyOp14
 70
     1
102
RTVSPropertyOp15
 70
     1
102
RTVSPropertyOp16
 70
     1
102
RTVSPropertyOp17
 70
     1
102
RTVSPropertyOp18
 70
     1
102
RTVSPropertyOp19
 70
     1
102
RTVSPropertyOp20
 70
     1
102
RTVSPropertyOp21
 70
     1
102
RTVSPropertyOp22
 70
     1
102
RTVSPropertyOp23
 70
     1
102
RTVSPropertyOp24
 70
     1
102
RTVSPropertyOp25
 70
     1
102
RTVSPropertyOp26
 70
     1
102
RTVSPropertyOp27
 70
     1
102
RTVSPropertyOp28
 70
     1
102
RTVSPropertyOp29
 70
     1
102
RTVSPropertyOp30
 70
     1
102
RTVSPropertyOp31
 70
     1
102
RTVSPropertyOp32
 70
     1
102
RTVSPropertyOp33
 70
     1
102
RTVSPropertyOp34
 70
     1
102
RTVSPropertyOp35
 70
     1
102
RTVSPropertyOp36
 70
     1
102
RTVSPropertyOp37
 70
     1
102
RTVSPropertyOp38
 70
     1
102
RTVSPropertyOp39
 70
     1
102
RTVSPropertyOp40
 70
     1
102
RTVSPropertyOp41
 70
     1
102
RTVSPropertyOp42
 70
     1
102
RTVSPropertyOp43
 70
     1
102
RTVSPropertyOp44
 70
     1
102
RTVSPropertyOp45
 70
     1
102
RTVSPropertyOp46
 70
     1
102
RTVSPropertyOp47
 70
     1
102
RTVSPropertyOp48
 70
     1
102
RTVSPropertyOp49
 70
     1
102
RTVSPropertyOp50
 70
     1
102
RTVSPropertyOp51
 70
     0
102
RTVSPropertyOp52
 70
     0
102
RTVSPropertyOp53
 70
     1
102
RTVSPropertyOp54
 70
     1
102
RTVSPropertyOp55
 70
     1
102
RTVSPropertyOp56
 70
     1
102
RTVSPropertyOp57
 70
     1
102
RTVSPropertyOp58
 70
     1
102
RTVSPropertyOp59
 70
     1
102
RTVSPropertyOp60
 70
     1
102
RTVSPropertyOp61
 70
     1
102
RTVSPropertyOp62
 70
     1
  0
XRECORD
  5
157F6
102
{ACAD_REACTORS
330
157F5
102
}
330
157F5
100
AcDbXrecord
280
     1
102
RTVSPost2010Prop28
280
     0
102
RTVSPost2010PropOp28
 70
     1
102
RTVSPost2010Prop29
280
     1
102
RTVSPost2010PropOp29
 70
     1
102
RTVSPost2010Prop30
280
     1
102
RTVSPost2010PropOp30
 70
     1
102
RTVSPost2010Prop31
280
     0
102
RTVSPost2010PropOp31
 70
     1
102
RTVSPost2010Prop32
280
     0
102
RTVSPost2010PropOp32
 70
     1
102
RTVSPost2010Prop33
280
     0
102
RTVSPost2010PropOp33
 70
     1
102
RTVSPost2010Prop34
280
     0
102
RTVSPost2010PropOp34
 70
     1
102
RTVSPost2010Prop35
280
     0
102
RTVSPost2010PropOp35
 70
     1
102
RTVSPost2010Prop36
280
     0
102
RTVSPost2010PropOp36
 70
     1
102
RTVSPost2010Prop37
 90
       50
102
RTVSPost2010PropOp37
 70
     1
102
RTVSPost2010Prop38
140
0.0
102
RTVSPost2010PropOp38
 70
     1
102
RTVSPost2010Prop39
140
1.0
102
RTVSPost2010PropOp39
 70
     1
102
RTVSPost2010Prop40
 90
        0
102
RTVSPost2010PropOp40
 70
     1
102
RTVSPost2010Prop41ColorIndex
 90
       18
102
RTVSPost2010Prop41ColorRGB
 90
        0
102
RTVSPost2010PropOp41
 70
     1
102
RTVSPost2010Prop42
 90
       50
102
RTVSPost2010PropOp42
 70
     1
102
RTVSPost2010Prop43
 90
        3
102
RTVSPost2010PropOp43
 70
     1
102
RTVSPost2010Prop44ColorIndex
 90
        5
102
RTVSPost2010Prop44ColorRGB
 90
      255
102
RTVSPost2010PropOp44
 70
     1
102
RTVSPost2010Prop45
280
     0
102
RTVSPost2010PropOp45
 70
     1
102
RTVSPost2010Prop46
 90
       50
102
RTVSPost2010PropOp46
 70
     1
102
RTVSPost2010Prop47
 90
       50
102
RTVSPost2010PropOp47
 70
     1
102
RTVSPost2010Prop48
 90
       50
102
RTVSPost2010PropOp48
 70
     1
102
RTVSPost2010Prop49
280
     0
102
RTVSPost2010PropOp49
 70
     1
102
RTVSPost2010Prop50
 90
       50
102
RTVSPost2010PropOp50
 70
     1
102
RTVSPost2010Prop51ColorIndex
 90
      256
102
RTVSPost2010Prop51ColorRGB
 90
-16777216
102
RTVSPost2010PropOp51
 70
     0
102
RTVSPost2010Prop52
140
1.0
102
RTVSPost2010PropOp52
 70
     0
102
RTVSPost2010Prop53
 90
        2
102
RTVSPost2010PropOp53
 70
     1
102
RTVSPost2010Prop54
  1
strokes_ogs.tif
102
RTVSPost2010PropOp54
 70
     1
102
RTVSPost2010Prop55
280
     0
102
RTVSPost2010PropOp55
 70
     1
102
RTVSPost2010Prop56
140
1.0
102
RTVSPost2010PropOp56
 70
     1
102
RTVSPost2010Prop57
140
1.0
102
RTVSPost2010PropOp57
 70
     1
102
RTVSPropertyOp0
 70
     1
102
RTVSPropertyOp1
 70
     1
102
RTVSPropertyOp2
 70
     1
102
RTVSPropertyOp3
 70
     1
102
RTVSPropertyOp4
 70
     1
102
RTVSPropertyOp5
 70
     1
102
RTVSPropertyOp6
 70
     1
102
RTVSPropertyOp7
 70
     1
102
RTVSPropertyOp8
 70
     1
102
RTVSPropertyOp9
 70
     1
102
RTVSPropertyOp10
 70
     1
102
RTVSPropertyOp11
 70
     1
102
RTVSPropertyOp12
 70
     1
102
RTVSPropertyOp13
 70
     1
102
RTVSPropertyOp14
 70
     1
102
RTVSPropertyOp15
 70
     1
102
RTVSPropertyOp16
 70
     1
102
RTVSPropertyOp17
 70
     1
102
RTVSPropertyOp18
 70
     1
102
RTVSPropertyOp19
 70
     1
102
RTVSPropertyOp20
 70
     1
102
RTVSPropertyOp21
 70
     1
102
RTVSPropertyOp22
 70
     1
102
RTVSPropertyOp23
 70
     1
102
RTVSPropertyOp24
 70
     1
102
RTVSPropertyOp25
 70
     1
102
RTVSPropertyOp26
 70
     1
102
RTVSPropertyOp27
 70
     1
102
RTVSPropertyOp28
 70
     1
102
RTVSPropertyOp29
 70
     1
102
RTVSPropertyOp30
 70
     1
102
RTVSPropertyOp31
 70
     1
102
RTVSPropertyOp32
 70
     1
102
RTVSPropertyOp33
 70
     1
102
RTVSPropertyOp34
 70
     1
102
RTVSPropertyOp35
 70
     1
102
RTVSPropertyOp36
 70
     1
102
RTVSPropertyOp37
 70
     1
102
RTVSPropertyOp38
 70
     1
102
RTVSPropertyOp39
 70
     1
102
RTVSPropertyOp40
 70
     1
102
RTVSPropertyOp41
 70
     1
102
RTVSPropertyOp42
 70
     1
102
RTVSPropertyOp43
 70
     1
102
RTVSPropertyOp44
 70
     1
102
RTVSPropertyOp45
 70
     1
102
RTVSPropertyOp46
 70
     1
102
RTVSPropertyOp47
 70
     1
102
RTVSPropertyOp48
 70
     1
102
RTVSPropertyOp49
 70
     1
102
RTVSPropertyOp50
 70
     1
102
RTVSPropertyOp51
 70
     0
102
RTVSPropertyOp52
 70
     0
102
RTVSPropertyOp53
 70
     1
102
RTVSPropertyOp54
 70
     1
102
RTVSPropertyOp55
 70
     1
102
RTVSPropertyOp56
 70
     1
102
RTVSPropertyOp57
 70
     1
102
RTVSPropertyOp58
 70
     1
102
RTVSPropertyOp59
 70
     1
102
RTVSPropertyOp60
 70
     1
102
RTVSPropertyOp61
 70
     1
102
RTVSPropertyOp62
 70
     1
  0
XRECORD
  5
157EC
102
{ACAD_REACTORS
330
157EB
102
}
330
157EB
100
AcDbXrecord
280
     1
102
RTVSPost2010Prop28
280
     0
102
RTVSPost2010PropOp28
 70
     1
102
RTVSPost2010Prop29
280
     1
102
RTVSPost2010PropOp29
 70
     1
102
RTVSPost2010Prop30
280
     1
102
RTVSPost2010PropOp30
 70
     1
102
RTVSPost2010Prop31
280
     0
102
RTVSPost2010PropOp31
 70
     1
102
RTVSPost2010Prop32
280
     0
102
RTVSPost2010PropOp32
 70
     1
102
RTVSPost2010Prop33
280
     0
102
RTVSPost2010PropOp33
 70
     1
102
RTVSPost2010Prop34
280
     0
102
RTVSPost2010PropOp34
 70
     1
102
RTVSPost2010Prop35
280
     0
102
RTVSPost2010PropOp35
 70
     1
102
RTVSPost2010Prop36
280
     0
102
RTVSPost2010PropOp36
 70
     1
102
RTVSPost2010Prop37
 90
       50
102
RTVSPost2010PropOp37
 70
     1
102
RTVSPost2010Prop38
140
0.0
102
RTVSPost2010PropOp38
 70
     1
102
RTVSPost2010Prop39
140
1.0
102
RTVSPost2010PropOp39
 70
     1
102
RTVSPost2010Prop40
 90
        0
102
RTVSPost2010PropOp40
 70
     1
102
RTVSPost2010Prop41ColorIndex
 90
       18
102
RTVSPost2010Prop41ColorRGB
 90
        0
102
RTVSPost2010PropOp41
 70
     1
102
RTVSPost2010Prop42
 90
       50
102
RTVSPost2010PropOp42
 70
     1
102
RTVSPost2010Prop43
 90
        3
102
RTVSPost2010PropOp43
 70
     1
102
RTVSPost2010Prop44ColorIndex
 90
        5
102
RTVSPost2010Prop44ColorRGB
 90
      255
102
RTVSPost2010PropOp44
 70
     1
102
RTVSPost2010Prop45
280
     0
102
RTVSPost2010PropOp45
 70
     1
102
RTVSPost2010Prop46
 90
       50
102
RTVSPost2010PropOp46
 70
     1
102
RTVSPost2010Prop47
 90
       50
102
RTVSPost2010PropOp47
 70
     1
102
RTVSPost2010Prop48
 90
       50
102
RTVSPost2010PropOp48
 70
     1
102
RTVSPost2010Prop49
280
     0
102
RTVSPost2010PropOp49
 70
     1
102
RTVSPost2010Prop50
 90
       50
102
RTVSPost2010PropOp50
 70
     1
102
RTVSPost2010Prop51ColorIndex
 90
      256
102
RTVSPost2010Prop51ColorRGB
 90
-16777216
102
RTVSPost2010PropOp51
 70
     0
102
RTVSPost2010Prop52
140
1.0
102
RTVSPost2010PropOp52
 70
     0
102
RTVSPost2010Prop53
 90
        2
102
RTVSPost2010PropOp53
 70
     1
102
RTVSPost2010Prop54
  1
strokes_ogs.tif
102
RTVSPost2010PropOp54
 70
     1
102
RTVSPost2010Prop55
280
     0
102
RTVSPost2010PropOp55
 70
     1
102
RTVSPost2010Prop56
140
1.0
102
RTVSPost2010PropOp56
 70
     1
102
RTVSPost2010Prop57
140
1.0
102
RTVSPost2010PropOp57
 70
     1
102
RTVSPropertyOp0
 70
     1
102
RTVSPropertyOp1
 70
     1
102
RTVSPropertyOp2
 70
     1
102
RTVSPropertyOp3
 70
     1
102
RTVSPropertyOp4
 70
     1
102
RTVSPropertyOp5
 70
     1
102
RTVSPropertyOp6
 70
     1
102
RTVSPropertyOp7
 70
     1
102
RTVSPropertyOp8
 70
     1
102
RTVSPropertyOp9
 70
     1
102
RTVSPropertyOp10
 70
     1
102
RTVSPropertyOp11
 70
     1
102
RTVSPropertyOp12
 70
     1
102
RTVSPropertyOp13
 70
     1
102
RTVSPropertyOp14
 70
     1
102
RTVSPropertyOp15
 70
     1
102
RTVSPropertyOp16
 70
     1
102
RTVSPropertyOp17
 70
     1
102
RTVSPropertyOp18
 70
     1
102
RTVSPropertyOp19
 70
     1
102
RTVSPropertyOp20
 70
     1
102
RTVSPropertyOp21
 70
     1
102
RTVSPropertyOp22
 70
     1
102
RTVSPropertyOp23
 70
     1
102
RTVSPropertyOp24
 70
     1
102
RTVSPropertyOp25
 70
     1
102
RTVSPropertyOp26
 70
     1
102
RTVSPropertyOp27
 70
     1
102
RTVSPropertyOp28
 70
     1
102
RTVSPropertyOp29
 70
     1
102
RTVSPropertyOp30
 70
     1
102
RTVSPropertyOp31
 70
     1
102
RTVSPropertyOp32
 70
     1
102
RTVSPropertyOp33
 70
     1
102
RTVSPropertyOp34
 70
     1
102
RTVSPropertyOp35
 70
     1
102
RTVSPropertyOp36
 70
     1
102
RTVSPropertyOp37
 70
     1
102
RTVSPropertyOp38
 70
     1
102
RTVSPropertyOp39
 70
     1
102
RTVSPropertyOp40
 70
     1
102
RTVSPropertyOp41
 70
     1
102
RTVSPropertyOp42
 70
     1
102
RTVSPropertyOp43
 70
     1
102
RTVSPropertyOp44
 70
     1
102
RTVSPropertyOp45
 70
     1
102
RTVSPropertyOp46
 70
     1
102
RTVSPropertyOp47
 70
     1
102
RTVSPropertyOp48
 70
     1
102
RTVSPropertyOp49
 70
     1
102
RTVSPropertyOp50
 70
     1
102
RTVSPropertyOp51
 70
     0
102
RTVSPropertyOp52
 70
     0
102
RTVSPropertyOp53
 70
     1
102
RTVSPropertyOp54
 70
     1
102
RTVSPropertyOp55
 70
     1
102
RTVSPropertyOp56
 70
     1
102
RTVSPropertyOp57
 70
     1
102
RTVSPropertyOp58
 70
     1
102
RTVSPropertyOp59
 70
     1
102
RTVSPropertyOp60
 70
     1
102
RTVSPropertyOp61
 70
     1
102
RTVSPropertyOp62
 70
     1
  0
XRECORD
  5
157E0
102
{ACAD_REACTORS
330
157DF
102
}
330
157DF
100
AcDbXrecord
280
     1
102
RTVSPost2010Prop28
280
     0
102
RTVSPost2010PropOp28
 70
     1
102
RTVSPost2010Prop29
280
     1
102
RTVSPost2010PropOp29
 70
     1
102
RTVSPost2010Prop30
280
     1
102
RTVSPost2010PropOp30
 70
     1
102
RTVSPost2010Prop31
280
     0
102
RTVSPost2010PropOp31
 70
     1
102
RTVSPost2010Prop32
280
     0
102
RTVSPost2010PropOp32
 70
     1
102
RTVSPost2010Prop33
280
     0
102
RTVSPost2010PropOp33
 70
     1
102
RTVSPost2010Prop34
280
     0
102
RTVSPost2010PropOp34
 70
     1
102
RTVSPost2010Prop35
280
     0
102
RTVSPost2010PropOp35
 70
     1
102
RTVSPost2010Prop36
280
     0
102
RTVSPost2010PropOp36
 70
     1
102
RTVSPost2010Prop37
 90
       50
102
RTVSPost2010PropOp37
 70
     1
102
RTVSPost2010Prop38
140
0.0
102
RTVSPost2010PropOp38
 70
     1
102
RTVSPost2010Prop39
140
1.0
102
RTVSPost2010PropOp39
 70
     1
102
RTVSPost2010Prop40
 90
        0
102
RTVSPost2010PropOp40
 70
     1
102
RTVSPost2010Prop41ColorIndex
 90
       18
102
RTVSPost2010Prop41ColorRGB
 90
        0
102
RTVSPost2010PropOp41
 70
     1
102
RTVSPost2010Prop42
 90
       50
102
RTVSPost2010PropOp42
 70
     1
102
RTVSPost2010Prop43
 90
        3
102
RTVSPost2010PropOp43
 70
     1
102
RTVSPost2010Prop44ColorIndex
 90
        5
102
RTVSPost2010Prop44ColorRGB
 90
      255
102
RTVSPost2010PropOp44
 70
     1
102
RTVSPost2010Prop45
280
     0
102
RTVSPost2010PropOp45
 70
     1
102
RTVSPost2010Prop46
 90
       50
102
RTVSPost2010PropOp46
 70
     1
102
RTVSPost2010Prop47
 90
       50
102
RTVSPost2010PropOp47
 70
     1
102
RTVSPost2010Prop48
 90
       50
102
RTVSPost2010PropOp48
 70
     1
102
RTVSPost2010Prop49
280
     0
102
RTVSPost2010PropOp49
 70
     1
102
RTVSPost2010Prop50
 90
       50
102
RTVSPost2010PropOp50
 70
     1
102
RTVSPost2010Prop51ColorIndex
 90
      256
102
RTVSPost2010Prop51ColorRGB
 90
-16777216
102
RTVSPost2010PropOp51
 70
     0
102
RTVSPost2010Prop52
140
1.0
102
RTVSPost2010PropOp52
 70
     0
102
RTVSPost2010Prop53
 90
        2
102
RTVSPost2010PropOp53
 70
     1
102
RTVSPost2010Prop54
  1
strokes_ogs.tif
102
RTVSPost2010PropOp54
 70
     1
102
RTVSPost2010Prop55
280
     0
102
RTVSPost2010PropOp55
 70
     1
102
RTVSPost2010Prop56
140
1.0
102
RTVSPost2010PropOp56
 70
     1
102
RTVSPost2010Prop57
140
1.0
102
RTVSPost2010PropOp57
 70
     1
102
RTVSPropertyOp0
 70
     1
102
RTVSPropertyOp1
 70
     1
102
RTVSPropertyOp2
 70
     1
102
RTVSPropertyOp3
 70
     1
102
RTVSPropertyOp4
 70
     1
102
RTVSPropertyOp5
 70
     1
102
RTVSPropertyOp6
 70
     1
102
RTVSPropertyOp7
 70
     1
102
RTVSPropertyOp8
 70
     1
102
RTVSPropertyOp9
 70
     1
102
RTVSPropertyOp10
 70
     1
102
RTVSPropertyOp11
 70
     1
102
RTVSPropertyOp12
 70
     1
102
RTVSPropertyOp13
 70
     1
102
RTVSPropertyOp14
 70
     1
102
RTVSPropertyOp15
 70
     1
102
RTVSPropertyOp16
 70
     1
102
RTVSPropertyOp17
 70
     1
102
RTVSPropertyOp18
 70
     1
102
RTVSPropertyOp19
 70
     1
102
RTVSPropertyOp20
 70
     1
102
RTVSPropertyOp21
 70
     1
102
RTVSPropertyOp22
 70
     1
102
RTVSPropertyOp23
 70
     1
102
RTVSPropertyOp24
 70
     1
102
RTVSPropertyOp25
 70
     1
102
RTVSPropertyOp26
 70
     1
102
RTVSPropertyOp27
 70
     1
102
RTVSPropertyOp28
 70
     1
102
RTVSPropertyOp29
 70
     1
102
RTVSPropertyOp30
 70
     1
102
RTVSPropertyOp31
 70
     1
102
RTVSPropertyOp32
 70
     1
102
RTVSPropertyOp33
 70
     1
102
RTVSPropertyOp34
 70
     1
102
RTVSPropertyOp35
 70
     1
102
RTVSPropertyOp36
 70
     1
102
RTVSPropertyOp37
 70
     1
102
RTVSPropertyOp38
 70
     1
102
RTVSPropertyOp39
 70
     1
102
RTVSPropertyOp40
 70
     1
102
RTVSPropertyOp41
 70
     1
102
RTVSPropertyOp42
 70
     1
102
RTVSPropertyOp43
 70
     1
102
RTVSPropertyOp44
 70
     1
102
RTVSPropertyOp45
 70
     1
102
RTVSPropertyOp46
 70
     1
102
RTVSPropertyOp47
 70
     1
102
RTVSPropertyOp48
 70
     1
102
RTVSPropertyOp49
 70
     1
102
RTVSPropertyOp50
 70
     1
102
RTVSPropertyOp51
 70
     0
102
RTVSPropertyOp52
 70
     0
102
RTVSPropertyOp53
 70
     1
102
RTVSPropertyOp54
 70
     1
102
RTVSPropertyOp55
 70
     1
102
RTVSPropertyOp56
 70
     1
102
RTVSPropertyOp57
 70
     1
102
RTVSPropertyOp58
 70
     1
102
RTVSPropertyOp59
 70
     1
102
RTVSPropertyOp60
 70
     1
102
RTVSPropertyOp61
 70
     1
102
RTVSPropertyOp62
 70
     1
  0
XRECORD
  5
157F8
102
{ACAD_REACTORS
330
157F7
102
}
330
157F7
100
AcDbXrecord
280
     1
102
RTVSPost2010Prop28
280
     0
102
RTVSPost2010PropOp28
 70
     1
102
RTVSPost2010Prop29
280
     1
102
RTVSPost2010PropOp29
 70
     1
102
RTVSPost2010Prop30
280
     1
102
RTVSPost2010PropOp30
 70
     1
102
RTVSPost2010Prop31
280
     0
102
RTVSPost2010PropOp31
 70
     1
102
RTVSPost2010Prop32
280
     0
102
RTVSPost2010PropOp32
 70
     1
102
RTVSPost2010Prop33
280
     0
102
RTVSPost2010PropOp33
 70
     1
102
RTVSPost2010Prop34
280
     0
102
RTVSPost2010PropOp34
 70
     1
102
RTVSPost2010Prop35
280
     0
102
RTVSPost2010PropOp35
 70
     1
102
RTVSPost2010Prop36
280
     0
102
RTVSPost2010PropOp36
 70
     1
102
RTVSPost2010Prop37
 90
       50
102
RTVSPost2010PropOp37
 70
     1
102
RTVSPost2010Prop38
140
0.0
102
RTVSPost2010PropOp38
 70
     1
102
RTVSPost2010Prop39
140
1.0
102
RTVSPost2010PropOp39
 70
     1
102
RTVSPost2010Prop40
 90
        0
102
RTVSPost2010PropOp40
 70
     1
102
RTVSPost2010Prop41ColorIndex
 90
       18
102
RTVSPost2010Prop41ColorRGB
 90
        0
102
RTVSPost2010PropOp41
 70
     1
102
RTVSPost2010Prop42
 90
       50
102
RTVSPost2010PropOp42
 70
     1
102
RTVSPost2010Prop43
 90
        3
102
RTVSPost2010PropOp43
 70
     1
102
RTVSPost2010Prop44ColorIndex
 90
        5
102
RTVSPost2010Prop44ColorRGB
 90
      255
102
RTVSPost2010PropOp44
 70
     1
102
RTVSPost2010Prop45
280
     0
102
RTVSPost2010PropOp45
 70
     1
102
RTVSPost2010Prop46
 90
       50
102
RTVSPost2010PropOp46
 70
     1
102
RTVSPost2010Prop47
 90
       50
102
RTVSPost2010PropOp47
 70
     1
102
RTVSPost2010Prop48
 90
       50
102
RTVSPost2010PropOp48
 70
     1
102
RTVSPost2010Prop49
280
     0
102
RTVSPost2010PropOp49
 70
     1
102
RTVSPost2010Prop50
 90
       50
102
RTVSPost2010PropOp50
 70
     1
102
RTVSPost2010Prop51ColorIndex
 90
      256
102
RTVSPost2010Prop51ColorRGB
 90
-16777216
102
RTVSPost2010PropOp51
 70
     0
102
RTVSPost2010Prop52
140
1.0
102
RTVSPost2010PropOp52
 70
     0
102
RTVSPost2010Prop53
 90
        2
102
RTVSPost2010PropOp53
 70
     1
102
RTVSPost2010Prop54
  1
strokes_ogs.tif
102
RTVSPost2010PropOp54
 70
     1
102
RTVSPost2010Prop55
280
     0
102
RTVSPost2010PropOp55
 70
     1
102
RTVSPost2010Prop56
140
1.0
102
RTVSPost2010PropOp56
 70
     1
102
RTVSPost2010Prop57
140
1.0
102
RTVSPost2010PropOp57
 70
     1
102
RTVSPropertyOp0
 70
     1
102
RTVSPropertyOp1
 70
     1
102
RTVSPropertyOp2
 70
     1
102
RTVSPropertyOp3
 70
     1
102
RTVSPropertyOp4
 70
     1
102
RTVSPropertyOp5
 70
     1
102
RTVSPropertyOp6
 70
     1
102
RTVSPropertyOp7
 70
     1
102
RTVSPropertyOp8
 70
     1
102
RTVSPropertyOp9
 70
     1
102
RTVSPropertyOp10
 70
     1
102
RTVSPropertyOp11
 70
     1
102
RTVSPropertyOp12
 70
     1
102
RTVSPropertyOp13
 70
     1
102
RTVSPropertyOp14
 70
     1
102
RTVSPropertyOp15
 70
     1
102
RTVSPropertyOp16
 70
     1
102
RTVSPropertyOp17
 70
     1
102
RTVSPropertyOp18
 70
     1
102
RTVSPropertyOp19
 70
     1
102
RTVSPropertyOp20
 70
     1
102
RTVSPropertyOp21
 70
     1
102
RTVSPropertyOp22
 70
     1
102
RTVSPropertyOp23
 70
     1
102
RTVSPropertyOp24
 70
     1
102
RTVSPropertyOp25
 70
     1
102
RTVSPropertyOp26
 70
     1
102
RTVSPropertyOp27
 70
     1
102
RTVSPropertyOp28
 70
     1
102
RTVSPropertyOp29
 70
     1
102
RTVSPropertyOp30
 70
     1
102
RTVSPropertyOp31
 70
     1
102
RTVSPropertyOp32
 70
     1
102
RTVSPropertyOp33
 70
     1
102
RTVSPropertyOp34
 70
     1
102
RTVSPropertyOp35
 70
     1
102
RTVSPropertyOp36
 70
     1
102
RTVSPropertyOp37
 70
     1
102
RTVSPropertyOp38
 70
     1
102
RTVSPropertyOp39
 70
     1
102
RTVSPropertyOp40
 70
     1
102
RTVSPropertyOp41
 70
     1
102
RTVSPropertyOp42
 70
     1
102
RTVSPropertyOp43
 70
     1
102
RTVSPropertyOp44
 70
     1
102
RTVSPropertyOp45
 70
     1
102
RTVSPropertyOp46
 70
     1
102
RTVSPropertyOp47
 70
     1
102
RTVSPropertyOp48
 70
     1
102
RTVSPropertyOp49
 70
     1
102
RTVSPropertyOp50
 70
     1
102
RTVSPropertyOp51
 70
     0
102
RTVSPropertyOp52
 70
     0
102
RTVSPropertyOp53
 70
     1
102
RTVSPropertyOp54
 70
     1
102
RTVSPropertyOp55
 70
     1
102
RTVSPropertyOp56
 70
     1
102
RTVSPropertyOp57
 70
     1
102
RTVSPropertyOp58
 70
     1
102
RTVSPropertyOp59
 70
     1
102
RTVSPropertyOp60
 70
     1
102
RTVSPropertyOp61
 70
     1
102
RTVSPropertyOp62
 70
     1
  0
ENDSEC
  0
EOF
